999
DXF file: 221008_1.dxf
999
Pro/ENGINEER 2019292 by Parametric Technology Corporation
  0
SECTION
  2
HEADER
  9
$ACADVER
  1
AC1027
  9
$DWGCODEPAGE
  3
ANSI_1252
  9
$EXTMAX
 10
17.0
 20
11.0
 30
0.0
  9
$EXTMIN
 10
0.0
 20
0.0
 30
0.0
  9
$LIMMIN
 10
0.0
 20
0.0
  9
$LIMMAX
 10
17.0
 20
11.0
  9
$VIEWCTR
 10
8.5
 20
5.5
  9
$VIEWSIZE
 40
11.0
  9
$CLAYER
  8
0
  9
$LTSCALE
 40
0.935
  9
$CELTYPE
  6
BYLAYER
  9
$DIMSCALE
 40
1.0
  9
$DIMASZ
 40
0.1875
  9
$DIMEXO
 40
0.0625
  9
$DIMDLI
 40
0.646
  9
$DIMEXE
 40
0.125
  9
$DIMCEN
 40
0.153
  9
$DIMLFAC
 40
1.0
  9
$DIMBLK
  1
_FILLED
  9
$DIMALT
 70
1
  9
$DIMALTD
 70
2
  9
$DIMALTTD
 70
2
  9
$DIMALTF
 40
25.4
  9
$DIMTXT
 40
0.1
  9
$DIMTOL
 70
1
  9
$DIMLIM
 70
0
  9
$DIMTFAC
 40
1.0
  9
$DIMTP
 40
0.001
  9
$DIMTM
 40
0.001
  9
$DIMGAP
 40
0.09
  9
$DIMDSEP
 70
46
  9
$AUNITS
 70
0
  9
$PDMODE
 70
3
  9
$PDSIZE
 40
0.3125
  9
$HANDSEED
  5
63C
  9
$TILEMODE
 70
1
  9
$MEASUREMENT
 70
0
  9
$INSUNITS
 70
1
  0
ENDSEC
  0
SECTION
  2
CLASSES
  0
CLASS
  1
ACDBDICTIONARYWDFLT
  2
AcDbDictionaryWithDefault
  3
AutoCAD 2000
 90
0
 91
1
280
0
281
0
  0
CLASS
  1
ACDBPLACEHOLDER
  2
AcDbPlaceHolder
  3
AutoCAD 2000
 90
0
 91
1
280
0
281
0
  0
CLASS
  1
LAYOUT
  2
AcDbLayout
  3
AutoCAD 2000
 90
0
 91
0
280
0
281
0
  0
CLASS
  1
TABLESTYLE
  2
AcDbTableStyle
  3
ObjectDBX Classes
 90
2047
 91
1
280
0
281
0
  0
CLASS
  1
ACAD_TABLE
  2
AcDbTable
  3
ObjectDBX Classes
 90
1025
 91
1
280
0
281
1
  0
ENDSEC
  0
SECTION
  2
TABLES
  0
TABLE
  2
VPORT
  5
8
100
AcDbSymbolTable
 70
2
  0
VPORT
  5
1F4
100
AcDbSymbolTableRecord
100
AcDbViewportTableRecord
  2
*ACTIVE
 70
0
 10
0.0
 20
0.0
 11
1.0
 21
1.0
 12
8.5
 22
5.5
 13
0.0
 23
0.0
 14
1.0
 24
1.0
 15
0.0
 25
0.0
 16
0.0
 26
0.0
 36
1.0
 17
0.0
 27
0.0
 37
0.0
 40
11.0
 41
1.5454545455
 42
50.0
 43
0.0
 44
0.0
 50
0.0
 51
0.0
 71
0
 72
100
 73
1
 74
1
 75
0
 76
0
 77
0
 78
0
  0
ENDTAB
  0
TABLE
  2
LTYPE
  5
5
100
AcDbSymbolTable
 70
6
  0
LTYPE
  5
14
100
AcDbSymbolTableRecord
100
AcDbLinetypeTableRecord
  2
BYBLOCK
 70
0
  3

 72
65
 73
0
 40
0.0
  0
LTYPE
  5
15
100
AcDbSymbolTableRecord
100
AcDbLinetypeTableRecord
  2
BYLAYER
 70
0
  3

 72
65
 73
0
 40
0.0
  0
LTYPE
  5
16
100
AcDbSymbolTableRecord
100
AcDbLinetypeTableRecord
  2
CONTINUOUS
 70
64
  3
Solid line
 72
65
 73
0
 40
0.0
  0
LTYPE
  5
1F5
100
AcDbSymbolTableRecord
100
AcDbLinetypeTableRecord
  2
CENTER
 70
64
  3
____ _ ____ _ ____ _ ____ _ ____ _ ____ _ ____
 72
65
 73
4
 40
0.6
 49
0.375
 74
0
 49
-0.075
 74
0
 49
0.075
 74
0
 49
-0.075
 74
0
  0
LTYPE
  5
1F6
100
AcDbSymbolTableRecord
100
AcDbLinetypeTableRecord
  2
HIDDEN
 70
64
  3
- - - - - - - - - - - - - - - - - - - -
 72
65
 73
2
 40
0.2
 49
0.1
 74
0
 49
-0.1
 74
0
  0
LTYPE
  5
1F7
100
AcDbSymbolTableRecord
100
AcDbLinetypeTableRecord
  2
PHANTOM
 70
64
  3
_____ _ _ _____ _ _ _____ _ _ _____
 72
65
 73
6
 40
0.8
 49
0.45
 74
0
 49
-0.05
 74
0
 49
0.1
 74
0
 49
-0.05
 74
0
 49
0.1
 74
0
 49
-0.05
 74
0
  0
LTYPE
  5
1F8
100
AcDbSymbolTableRecord
100
AcDbLinetypeTableRecord
  2
DOT
 70
64
  3
. . . . . . . . . . . . . . . . . . . .
 72
65
 73
2
 40
0.2
 49
0.1
 74
0
 49
-0.1
 74
0
  0
LTYPE
  5
1F9
100
AcDbSymbolTableRecord
100
AcDbLinetypeTableRecord
  2
DASHED
 70
64
  3
- - - - - - - - - - - - - - - - - - - -
 72
65
 73
2
 40
0.2
 49
0.1
 74
0
 49
-0.1
 74
0
  0
ENDTAB
  0
TABLE
  2
LAYER
  5
2
100
AcDbSymbolTable
 70
36
  0
LAYER
  5
10
100
AcDbSymbolTableRecord
100
AcDbLayerTableRecord
  2
0
 70
0
 62
7
  6
CONTINUOUS
370
-3
390
F
  0
LAYER
  5
1FA
100
AcDbSymbolTableRecord
100
AcDbLayerTableRecord
  2
DEFAULT_1
 70
0
 62
7
  6
CENTER
370
-3
390
F
  0
LAYER
  5
1FB
100
AcDbSymbolTableRecord
100
AcDbLayerTableRecord
  2
DEFAULT_2
 70
0
 62
7
  6
HIDDEN
370
-3
390
F
  0
LAYER
  5
1FC
100
AcDbSymbolTableRecord
100
AcDbLayerTableRecord
  2
DEFAULT_3
 70
0
 62
7
  6
PHANTOM
370
-3
390
F
  0
LAYER
  5
1FD
100
AcDbSymbolTableRecord
100
AcDbLayerTableRecord
  2
01_ALL_DTM_PLN
 70
0
 62
7
  6
CONTINUOUS
370
-3
390
F
  0
LAYER
  5
1FE
100
AcDbSymbolTableRecord
100
AcDbLayerTableRecord
  2
01__ASM_ALL_DTM_PLN
 70
0
 62
7
  6
CONTINUOUS
370
-3
390
F
  0
LAYER
  5
1FF
100
AcDbSymbolTableRecord
100
AcDbLayerTableRecord
  2
01__ASM_DEF_DTM_PLN
 70
0
 62
7
  6
CONTINUOUS
370
-3
390
F
  0
LAYER
  5
200
100
AcDbSymbolTableRecord
100
AcDbLayerTableRecord
  2
01___PRT_ALL_DTM_PLN
 70
0
 62
7
  6
CONTINUOUS
370
-3
390
F
  0
LAYER
  5
201
100
AcDbSymbolTableRecord
100
AcDbLayerTableRecord
  2
01___PRT_DEF_DTM_PLN
 70
0
 62
7
  6
CONTINUOUS
370
-3
390
F
  0
LAYER
  5
202
100
AcDbSymbolTableRecord
100
AcDbLayerTableRecord
  2
02_ALL_AXES
 70
0
 62
7
  6
CONTINUOUS
370
-3
390
F
  0
LAYER
  5
203
100
AcDbSymbolTableRecord
100
AcDbLayerTableRecord
  2
02__ASM_ALL_AXES
 70
0
 62
7
  6
CONTINUOUS
370
-3
390
F
  0
LAYER
  5
204
100
AcDbSymbolTableRecord
100
AcDbLayerTableRecord
  2
02___PRT_ALL_AXES
 70
0
 62
7
  6
CONTINUOUS
370
-3
390
F
  0
LAYER
  5
205
100
AcDbSymbolTableRecord
100
AcDbLayerTableRecord
  2
03_ALL_CURVES
 70
0
 62
7
  6
CONTINUOUS
370
-3
390
F
  0
LAYER
  5
206
100
AcDbSymbolTableRecord
100
AcDbLayerTableRecord
  2
03__ASM_ALL_CURVES
 70
0
 62
7
  6
CONTINUOUS
370
-3
390
F
  0
LAYER
  5
207
100
AcDbSymbolTableRecord
100
AcDbLayerTableRecord
  2
03___PRT_ALL_CURVES
 70
0
 62
7
  6
CONTINUOUS
370
-3
390
F
  0
LAYER
  5
208
100
AcDbSymbolTableRecord
100
AcDbLayerTableRecord
  2
04_ALL_DTM_PNT
 70
0
 62
7
  6
CONTINUOUS
370
-3
390
F
  0
LAYER
  5
209
100
AcDbSymbolTableRecord
100
AcDbLayerTableRecord
  2
04__ASM_ALL_DTM_PNT
 70
0
 62
7
  6
CONTINUOUS
370
-3
390
F
  0
LAYER
  5
20A
100
AcDbSymbolTableRecord
100
AcDbLayerTableRecord
  2
04___PRT_ALL_DTM_PNT
 70
0
 62
7
  6
CONTINUOUS
370
-3
390
F
  0
LAYER
  5
20B
100
AcDbSymbolTableRecord
100
AcDbLayerTableRecord
  2
05_ALL_DTM_CSYS
 70
0
 62
7
  6
CONTINUOUS
370
-3
390
F
  0
LAYER
  5
20C
100
AcDbSymbolTableRecord
100
AcDbLayerTableRecord
  2
05__ASM_ALL_DTM_CSYS
 70
0
 62
7
  6
CONTINUOUS
370
-3
390
F
  0
LAYER
  5
20D
100
AcDbSymbolTableRecord
100
AcDbLayerTableRecord
  2
05__ASM_DEF_DTM_CSYS
 70
0
 62
7
  6
CONTINUOUS
370
-3
390
F
  0
LAYER
  5
20E
100
AcDbSymbolTableRecord
100
AcDbLayerTableRecord
  2
05___PRT_ALL_DTM_CSYS
 70
0
 62
7
  6
CONTINUOUS
370
-3
390
F
  0
LAYER
  5
20F
100
AcDbSymbolTableRecord
100
AcDbLayerTableRecord
  2
05___PRT_DEF_DTM_CSYS
 70
0
 62
7
  6
CONTINUOUS
370
-3
390
F
  0
LAYER
  5
210
100
AcDbSymbolTableRecord
100
AcDbLayerTableRecord
  2
06_ALL_SURFS
 70
0
 62
7
  6
CONTINUOUS
370
-3
390
F
  0
LAYER
  5
211
100
AcDbSymbolTableRecord
100
AcDbLayerTableRecord
  2
06__ASM_ALL_SURFS
 70
0
 62
7
  6
CONTINUOUS
370
-3
390
F
  0
LAYER
  5
212
100
AcDbSymbolTableRecord
100
AcDbLayerTableRecord
  2
06___PRT_ALL_SURFS
 70
0
 62
7
  6
CONTINUOUS
370
-3
390
F
  0
LAYER
  5
213
100
AcDbSymbolTableRecord
100
AcDbLayerTableRecord
  2
07__ASM_ALL_SKELETONS
 70
0
 62
7
  6
CONTINUOUS
370
-3
390
F
  0
LAYER
  5
214
100
AcDbSymbolTableRecord
100
AcDbLayerTableRecord
  2
AXIS
 70
0
 62
7
  6
CONTINUOUS
370
-3
390
F
  0
LAYER
  5
215
100
AcDbSymbolTableRecord
100
AcDbLayerTableRecord
  2
AXIS_COSMETIC_THREADS
 70
0
 62
7
  6
CONTINUOUS
370
-3
390
F
  0
LAYER
  5
216
100
AcDbSymbolTableRecord
100
AcDbLayerTableRecord
  2
DATUM_CURVES
 70
0
 62
7
  6
CONTINUOUS
370
-3
390
F
  0
LAYER
  5
217
100
AcDbSymbolTableRecord
100
AcDbLayerTableRecord
  2
DATUM_PLANES
 70
0
 62
7
  6
CONTINUOUS
370
-3
390
F
  0
LAYER
  5
218
100
AcDbSymbolTableRecord
100
AcDbLayerTableRecord
  2
DRIVEN_DIMS
 70
0
 62
7
  6
CONTINUOUS
370
-3
390
F
  0
LAYER
  5
219
100
AcDbSymbolTableRecord
100
AcDbLayerTableRecord
  2
NOTES
 70
0
 62
7
  6
CONTINUOUS
370
-3
390
F
  0
LAYER
  5
21A
100
AcDbSymbolTableRecord
100
AcDbLayerTableRecord
  2
QUILTS
 70
0
 62
7
  6
CONTINUOUS
370
-3
390
F
  0
LAYER
  5
21B
100
AcDbSymbolTableRecord
100
AcDbLayerTableRecord
  2
SCHEME_DIMS
 70
0
 62
7
  6
CONTINUOUS
370
-3
390
F
  0
ENDTAB
  0
TABLE
  2
STYLE
  5
3
100
AcDbSymbolTable
 70
1
  0
STYLE
  5
11
100
AcDbSymbolTableRecord
100
AcDbTextStyleTableRecord
  2
STANDARD
 70
0
 40
0.0
 41
1.0
 50
0.0
 71
0
 42
0.2
  3
txt
  4

  0
STYLE
  5
21C
100
AcDbSymbolTableRecord
100
AcDbTextStyleTableRecord
  2
TEXTSTYLE_1
 70
0
 40
0.0
 41
0.8
 50
0.0
 71
0
 42
0.2
  3
gdt
  4

  0
STYLE
  5
21D
100
AcDbSymbolTableRecord
100
AcDbTextStyleTableRecord
  2
TEXTSTYLE_2
 70
0
 40
0.0
 41
0.8
 50
0.0
 71
0
 42
0.2
  3
txt
  4

  0
STYLE
  5
21E
100
AcDbSymbolTableRecord
100
AcDbTextStyleTableRecord
  2
TEXTSTYLE_3
 70
0
 40
0.0
 41
0.85
 50
0.0
 71
0
 42
0.2
  3
txt
  4

  0
STYLE
  5
21F
100
AcDbSymbolTableRecord
100
AcDbTextStyleTableRecord
  2
TEXTSTYLE_4
 70
0
 40
0.0
 41
0.9
 50
0.0
 71
0
 42
0.2
  3
txt
  4

  0
STYLE
  5
220
100
AcDbSymbolTableRecord
100
AcDbTextStyleTableRecord
  2
TEXTSTYLE_5
 70
0
 40
0.0
 41
0.75
 50
0.0
 71
0
 42
0.2
  3
txt
  4

  0
STYLE
  5
221
100
AcDbSymbolTableRecord
100
AcDbTextStyleTableRecord
  2
TEXTSTYLE_6
 70
0
 40
0.0
 41
1.0
 50
0.0
 71
0
 42
0.2
  3
gdt
  4

  0
ENDTAB
  0
TABLE
  2
VIEW
  5
6
100
AcDbSymbolTable
 70
0
  0
ENDTAB
  0
TABLE
  2
UCS
  5
7
100
AcDbSymbolTable
 70
0
  0
ENDTAB
  0
TABLE
  2
APPID
  5
9
100
AcDbSymbolTable
 70
1
  0
APPID
  5
222
100
AcDbSymbolTableRecord
100
AcDbRegAppTableRecord
  2
ACAD
 70
0
  0
ENDTAB
  0
TABLE
  2
BLOCK_RECORD
  5
1
100
AcDbSymbolTable
 70
0
  0
BLOCK_RECORD
  5
223
100
AcDbSymbolTableRecord
100
AcDbBlockTableRecord
  2
*Model_Space
  0
BLOCK_RECORD
  5
224
100
AcDbSymbolTableRecord
100
AcDbBlockTableRecord
  2
*Paper_Space
  0
BLOCK_RECORD
  5
225
100
AcDbSymbolTableRecord
100
AcDbBlockTableRecord
  2
_FILLED
  0
BLOCK_RECORD
  5
226
100
AcDbSymbolTableRecord
100
AcDbBlockTableRecord
  2
*D0
  0
BLOCK_RECORD
  5
227
100
AcDbSymbolTableRecord
100
AcDbBlockTableRecord
  2
*D1
  0
BLOCK_RECORD
  5
228
100
AcDbSymbolTableRecord
100
AcDbBlockTableRecord
  2
*D2
  0
BLOCK_RECORD
  5
229
100
AcDbSymbolTableRecord
100
AcDbBlockTableRecord
  2
*T1
  0
ENDTAB
  0
TABLE
  2
DIMSTYLE
  5
A
100
AcDbSymbolTable
 70
1
100
AcDbDimStyleTable
 71
0
  0
DIMSTYLE
105
22A
100
AcDbSymbolTableRecord
100
AcDbDimStyleTableRecord
  2
STANDARD
 70
0
  3

  4

 40
1.0
 41
0.1875
 42
0.0625
 43
0.38
 44
0.125
 45
0.0
 46
0.0
 47
0.001
 48
0.001
140
0.1
141
0.09
142
0.0
143
1.0
144
1.0
145
0.0
146
1.0
147
0.09
 71
1.0
 72
0.0
 73
1
 74
1
 75
0
 76
0
 77
0
 78
0
 79
0
170
1
171
2
172
0
173
0
174
0
175
0
176
0
177
0
178
0
270
2
179
3
271
3
272
3
273
2
274
2
275
0
280
0
281
0
282
0
283
1
284
0
285
0
286
0
287
3
288
0
340
11
278
46
341
225
342
225
343
225
344
225
  0
DIMSTYLE
105
22B
100
AcDbSymbolTableRecord
100
AcDbDimStyleTableRecord
  2
DIMSTYLE_1
 70
0
  3
<>
  4

 40
1.0
 41
0.1875
 42
0.0625
 43
0.38
 44
0.125
 45
0.0
 46
0.0
 47
0.001
 48
0.001
140
0.1
141
0.09
142
0.0
143
1.0
144
1.0
145
0.0
146
1.0
147
0.09
 71
0.0
 72
0.0
 73
1
 74
1
 75
0
 76
0
 77
0
 78
0
 79
0
170
1
171
2
172
0
173
0
174
0
175
0
176
0
177
0
178
0
270
2
179
3
271
1
272
1
273
2
274
2
275
0
280
0
281
0
282
0
283
1
284
0
285
0
286
0
287
3
288
1
340
11
278
46
289
1
341
225
342
225
343
225
344
225
  0
DIMSTYLE
105
22C
100
AcDbSymbolTableRecord
100
AcDbDimStyleTableRecord
  2
DIMSTYLE_2
 70
0
  3

  4

 40
1.0
 41
0.1875
 42
0.0625
 43
0.38
 44
0.125
 45
0.0
 46
0.0
 47
0.001
 48
0.001
140
0.1
141
0.09
142
0.0
143
1.0
144
1.0
145
0.0
146
1.0
147
0.1
 71
0.0
 72
0.0
 73
1
 74
1
 75
0
 76
0
 77
0
 78
0
 79
0
170
1
171
2
172
0
173
0
174
0
175
0
176
0
177
0
178
0
270
2
179
3
271
1
272
1
273
2
274
2
275
0
280
0
281
0
282
0
283
1
284
0
285
0
286
0
287
3
288
0
340
11
278
46
341
225
342
225
343
225
344
225
  0
ENDTAB
  0
ENDSEC
  0
SECTION
  2
BLOCKS
  0
BLOCK
  5
20
100
AcDbEntity
  8
0
100
AcDbBlockBegin
  2
*Model_Space
 70
0
 10
0.0
 20
0.0
 30
0.0
  3
*Model_Space
  1

  0
ENDBLK
  5
21
100
AcDbEntity
  8
0
100
AcDbBlockEnd
  0
BLOCK
  5
1C
100
AcDbEntity
  8
0
100
AcDbBlockBegin
  2
*Paper_Space
 70
0
 10
0.0
 20
0.0
 30
0.0
  3
*Paper_Space
  1

  0
ENDBLK
  5
1D
100
AcDbEntity
  8
0
100
AcDbBlockEnd
  0
BLOCK
  5
22D
100
AcDbEntity
  8
0
100
AcDbBlockBegin
  2
_FILLED
 70
64
 10
0.0
 20
0.0
  3
_FILLED
  1

  0
SOLID
  5
22E
100
AcDbEntity
  8
0
  6
BYBLOCK
 62
0
100
AcDbTrace
 10
0.0
 20
0.0
 11
-1.0
 21
0.1666666667
 12
-1.0
 22
-0.1666666667
 13
-1.0
 23
-0.1666666667
  0
ENDBLK
  5
22F
100
AcDbEntity
  8
0
  6
BYBLOCK
 62
0
100
AcDbBlockEnd
  0
BLOCK
  5
230
100
AcDbEntity
  8
DRIVEN_DIMS
100
AcDbBlockBegin
 62
7
  6
CONTINUOUS
  2
*D0
 70
65
 10
0.0
 20
0.0
  3
*D0
  1

  0
MTEXT
  5
231
100
AcDbEntity
  8
DRIVEN_DIMS
100
AcDbMText
 62
7
  6
CONTINUOUS
  7
TEXTSTYLE_6
 71
1
 72
1
 10
2.9325355081
 20
4.3510806928
 30
0.0
 11
1.0
 21
0.0
 31
0.0
 73
2
 44
0.9
  1
{\fgdt;n}\ftxt;50.0\P[1.97]
 40
0.1
 41
0.6
  0
LINE
  5
232
100
AcDbEntity
  8
DRIVEN_DIMS
100
AcDbLine
 62
7
  6
CONTINUOUS
 10
2.4655113401
 20
4.8664531993
 11
2.6825355081
 21
4.3010806928
  0
LINE
  5
233
100
AcDbEntity
  8
DRIVEN_DIMS
100
AcDbLine
 62
7
  6
CONTINUOUS
 10
2.6825355081
 20
4.3010806928
 11
2.8325355081
 21
4.3010806928
  0
INSERT
  5
234
100
AcDbEntity
  8
DRIVEN_DIMS
100
AcDbBlockReference
 62
7
  6
CONTINUOUS
  2
_FILLED
 10
2.4655113401
 20
4.8664531993
 41
0.1875
 42
0.1875
 43
0.1875
 50
110.9998230256
  0
ENDBLK
  5
235
100
AcDbEntity
  8
0
  6
BYBLOCK
 62
0
100
AcDbBlockEnd
  0
BLOCK
  5
236
100
AcDbEntity
  8
DRIVEN_DIMS
100
AcDbBlockBegin
 62
7
  6
CONTINUOUS
  2
*D1
 70
65
 10
0.0
 20
0.0
  3
*D1
  1

  0
MTEXT
  5
237
100
AcDbEntity
  8
DRIVEN_DIMS
100
AcDbMText
 62
7
  6
CONTINUOUS
  7
STANDARD
 71
2
 72
1
 10
5.3899321133
 20
7.8195846298
 30
0.0
 11
1.0
 21
0.0
 31
0.0
 73
2
 44
0.9
  1
56.3\P[2.22]
 40
0.1
 41
0.6
  0
LINE
  5
238
100
AcDbEntity
  8
DRIVEN_DIMS
100
AcDbLine
 62
7
  6
CONTINUOUS
 10
4.2823012977
 20
6.2045829304
 11
4.2823012977
 21
7.8945846298
  0
LINE
  5
239
100
AcDbEntity
  8
DRIVEN_DIMS
100
AcDbLine
 62
7
  6
CONTINUOUS
 10
6.4988367308
 20
6.349801132
 11
6.4988367308
 21
7.8945846298
  0
LINE
  5
23A
100
AcDbEntity
  8
DRIVEN_DIMS
100
AcDbLine
 62
7
  6
CONTINUOUS
 10
4.2823012977
 20
7.7695846298
 11
5.0899321133
 21
7.7695846298
  0
LINE
  5
23B
100
AcDbEntity
  8
DRIVEN_DIMS
100
AcDbLine
 62
7
  6
CONTINUOUS
 10
6.4988367308
 20
7.7695846298
 11
5.8899321133
 21
7.7695846298
  0
INSERT
  5
23C
100
AcDbEntity
  8
DRIVEN_DIMS
100
AcDbBlockReference
 62
7
  6
CONTINUOUS
  2
_FILLED
 10
4.2823012977
 20
7.7695846298
 41
0.1875
 42
0.1875
 43
0.1875
 50
180.0
  0
INSERT
  5
23D
100
AcDbEntity
  8
DRIVEN_DIMS
100
AcDbBlockReference
 62
7
  6
CONTINUOUS
  2
_FILLED
 10
6.4988367308
 20
7.7695846298
 41
0.1875
 42
0.1875
 43
0.1875
  0
ENDBLK
  5
23E
100
AcDbEntity
  8
0
  6
BYBLOCK
 62
0
100
AcDbBlockEnd
  0
BLOCK
  5
23F
100
AcDbEntity
  8
DRIVEN_DIMS
100
AcDbBlockBegin
 62
7
  6
CONTINUOUS
  2
*D2
 70
65
 10
0.0
 20
0.0
  3
*D2
  1

  0
MTEXT
  5
240
100
AcDbEntity
  8
DRIVEN_DIMS
100
AcDbMText
 62
7
  6
CONTINUOUS
  7
STANDARD
 71
2
 72
1
 10
4.9780514246
 20
7.3195846298
 30
0.0
 11
1.0
 21
0.0
 31
0.0
 73
2
 44
0.9
  1
36.3\P[1.43]
 40
0.1
 41
0.6
  0
LINE
  5
241
100
AcDbEntity
  8
DRIVEN_DIMS
100
AcDbLine
 62
7
  6
CONTINUOUS
 10
4.2823012977
 20
6.2045829304
 11
4.2823012977
 21
7.3945846298
  0
LINE
  5
242
100
AcDbEntity
  8
DRIVEN_DIMS
100
AcDbLine
 62
7
  6
CONTINUOUS
 10
5.7114351559
 20
6.7927145418
 11
5.7114351559
 21
7.3945846298
  0
LINE
  5
243
100
AcDbEntity
  8
DRIVEN_DIMS
100
AcDbLine
 62
7
  6
CONTINUOUS
 10
4.2823012977
 20
7.2695846298
 11
4.6780514246
 21
7.2695846298
  0
LINE
  5
244
100
AcDbEntity
  8
DRIVEN_DIMS
100
AcDbLine
 62
7
  6
CONTINUOUS
 10
5.7114351559
 20
7.2695846298
 11
5.4780514246
 21
7.2695846298
  0
INSERT
  5
245
100
AcDbEntity
  8
DRIVEN_DIMS
100
AcDbBlockReference
 62
7
  6
CONTINUOUS
  2
_FILLED
 10
4.2823012977
 20
7.2695846298
 41
0.1875
 42
0.1875
 43
0.1875
 50
180.0
  0
INSERT
  5
246
100
AcDbEntity
  8
DRIVEN_DIMS
100
AcDbBlockReference
 62
7
  6
CONTINUOUS
  2
_FILLED
 10
5.7114351559
 20
7.2695846298
 41
0.1875
 42
0.1875
 43
0.1875
  0
ENDBLK
  5
247
100
AcDbEntity
  8
0
  6
BYBLOCK
 62
0
100
AcDbBlockEnd
  0
BLOCK
  5
248
100
AcDbEntity
  8
0
100
AcDbBlockBegin
  2
*T1
 70
1
 10
0.0
 20
0.0
  3
*T1
  1

  0
LINE
  5
249
100
AcDbEntity
  8
0
100
AcDbLine
 62
7
  6
CONTINUOUS
 10
4.35
 20
0.0
 11
0.0
 21
0.0
  0
LINE
  5
24A
100
AcDbEntity
  8
0
100
AcDbLine
 62
7
  6
CONTINUOUS
 10
4.35
 20
0.0
 11
4.35
 21
1.92
  0
LINE
  5
24B
100
AcDbEntity
  8
0
100
AcDbLine
 62
7
  6
CONTINUOUS
 10
4.35
 20
1.92
 11
0.0
 21
1.92
  0
LINE
  5
24C
100
AcDbEntity
  8
0
100
AcDbLine
 62
7
  6
CONTINUOUS
 10
0.0
 20
0.0
 11
0.0
 21
1.92
  0
MTEXT
  5
24D
100
AcDbEntity
  8
NOTES
100
AcDbMText
 62
7
  6
CONTINUOUS
  7
STANDARD
 71
2
 72
1
 10
4.125
 20
0.48
 30
0.0
 11
1.0
 21
0.0
 31
0.0
 73
2
 44
0.9
  1
A
 40
0.1
 41
0.2
  0
MTEXT
  5
24E
100
AcDbEntity
  8
NOTES
100
AcDbMText
 62
7
  6
CONTINUOUS
  7
STANDARD
 71
2
 72
1
 10
2.175
 20
0.93
 30
0.0
 11
1.0
 21
0.0
 31
0.0
 73
2
 44
0.9
  1
K50P OPTICAL CABLE/PIGTAIL
 40
0.1
 41
5.2
  0
ENDBLK
  5
24F
100
AcDbEntity
  8
0
  6
BYBLOCK
 62
0
100
AcDbBlockEnd
  0
ENDSEC
  0
SECTION
  2
ENTITIES
  0
MTEXT
  5
250
100
AcDbEntity
  8
0
100
AcDbMText
 62
7
  6
CONTINUOUS
  7
TEXTSTYLE_2
 71
2
 72
1
 10
11.0287658475
 20
1.794867839
 30
0.0
 11
1.0
 21
0.0
 31
0.0
 73
2
 44
0.9
  1
\LTHIRD ANGLE PROJECTION\l
 40
0.1
 41
1.76
  0
MTEXT
  5
251
100
AcDbEntity
  8
0
100
AcDbMText
 62
7
  6
CONTINUOUS
  7
STANDARD
 71
1
 72
1
 10
12.88
 20
1.457
 30
0.0
 11
1.0
 21
0.0
 31
0.0
 73
2
 44
0.9
  1
DRAWING NO.
 40
0.08
 41
0.88
  0
MTEXT
  5
252
100
AcDbEntity
  8
0
100
AcDbMText
 62
7
  6
CONTINUOUS
  7
TEXTSTYLE_2
 71
1
 72
1
 10
12.08
 20
2.217
 30
0.0
 11
1.0
 21
0.0
 31
0.0
 73
2
 44
0.9
  1
TITLE
 40
0.1
 41
0.4
  0
MTEXT
  5
253
100
AcDbEntity
  8
0
100
AcDbMText
 62
7
  6
CONTINUOUS
  7
STANDARD
 71
1
 72
1
 10
12.08
 20
1.457
 30
0.0
 11
1.0
 21
0.0
 31
0.0
 73
2
 44
0.9
  1
SIZE
 40
0.08
 41
0.32
  0
MTEXT
  5
254
100
AcDbEntity
  8
0
100
AcDbMText
 62
7
  6
CONTINUOUS
  7
STANDARD
 71
1
 72
1
 10
12.08
 20
1.087
 30
0.0
 11
1.0
 21
0.0
 31
0.0
 73
2
 44
0.9
  1
SCALE
 40
0.08
 41
0.4
  0
MTEXT
  5
255
100
AcDbEntity
  8
0
100
AcDbMText
 62
7
  6
CONTINUOUS
  7
TEXTSTYLE_2
 71
2
 72
1
 10
12.5
 20
1.337
 30
0.0
 11
1.0
 21
0.0
 31
0.0
 73
2
 44
0.9
  1
B
 40
0.1
 41
0.08
  0
MTEXT
  5
256
100
AcDbEntity
  8
0
100
AcDbMText
 62
7
  6
CONTINUOUS
  7
TEXTSTYLE_3
 71
2
 72
1
 10
11.0340287086
 20
2.7679425959
 30
0.0
 11
1.0
 21
0.0
 31
0.0
 73
2
 44
0.9
  1
This drawing is the property\Pof BANNER ENGINEERING CORP.\PAny use or reproduction,\Pin any form, without prior\Pwritten permission of\PBanner is prohibited.
 40
0.08
 41
1.904
  0
MTEXT
  5
257
100
AcDbEntity
  8
0
100
AcDbMText
 62
7
  6
CONTINUOUS
  7
STANDARD
 71
1
 72
1
 10
14.255
 20
1.087
 30
0.0
 11
1.0
 21
0.0
 31
0.0
 73
2
 44
0.9
  1
SHEET
 40
0.08
 41
0.4
  0
MTEXT
  5
258
100
AcDbEntity
  8
0
100
AcDbMText
 62
7
  6
CONTINUOUS
  7
STANDARD
 71
1
 72
1
 10
15.63
 20
1.457
 30
0.0
 11
1.0
 21
0.0
 31
0.0
 73
2
 44
0.9
  1
REV.
 40
0.08
 41
0.32
  0
MTEXT
  5
259
100
AcDbEntity
  8
0
100
AcDbMText
 62
7
  6
CONTINUOUS
  7
STANDARD
 71
3
 72
1
 10
16.38
 20
0.835443
 30
0.0
 11
1.0
 21
0.0
 31
0.0
 73
2
 44
0.9
  1
CREO
 40
0.07
 41
0.28
  0
MTEXT
  5
25A
100
AcDbEntity
  8
0
100
AcDbMText
 62
7
  6
CONTINUOUS
  7
TEXTSTYLE_4
 71
2
 72
1
 10
15.1043392653
 20
2.7174764286
 30
0.0
 11
1.0
 21
0.0
 31
0.0
 73
2
 44
0.9
  1
BANNER ENGINEERING CORP.
 40
0.12
 41
2.592
  0
MTEXT
  5
25B
100
AcDbEntity
  8
0
100
AcDbMText
 62
7
  6
CONTINUOUS
  7
TEXTSTYLE_2
 71
2
 72
1
 10
15.0923490612
 20
2.4764783673
 30
0.0
 11
1.0
 21
0.0
 31
0.0
 73
2
 44
0.9
  1
www.bannerengineering.com
 40
0.1
 41
2.0
  0
MTEXT
  5
25C
100
AcDbEntity
  8
0
100
AcDbMText
 62
7
  6
CONTINUOUS
  7
TEXTSTYLE_2
 71
2
 72
1
 10
9.485
 20
10.312
 30
0.0
 11
1.0
 21
0.0
 31
0.0
 73
2
 44
0.9
  1
4
 40
0.1
 41
0.08
  0
MTEXT
  5
25D
100
AcDbEntity
  8
0
100
AcDbMText
 62
7
  6
CONTINUOUS
  7
TEXTSTYLE_2
 71
2
 72
1
 10
11.455
 20
10.312
 30
0.0
 11
1.0
 21
0.0
 31
0.0
 73
2
 44
0.9
  1
3
 40
0.1
 41
0.08
  0
MTEXT
  5
25E
100
AcDbEntity
  8
0
100
AcDbMText
 62
7
  6
CONTINUOUS
  7
TEXTSTYLE_2
 71
2
 72
1
 10
13.425
 20
10.312
 30
0.0
 11
1.0
 21
0.0
 31
0.0
 73
2
 44
0.9
  1
2
 40
0.1
 41
0.08
  0
MTEXT
  5
25F
100
AcDbEntity
  8
0
100
AcDbMText
 62
7
  6
CONTINUOUS
  7
TEXTSTYLE_2
 71
2
 72
1
 10
15.395
 20
10.312
 30
0.0
 11
1.0
 21
0.0
 31
0.0
 73
2
 44
0.9
  1
1
 40
0.1
 41
0.08
  0
MTEXT
  5
260
100
AcDbEntity
  8
0
100
AcDbMText
 62
7
  6
CONTINUOUS
  7
TEXTSTYLE_2
 71
2
 72
1
 10
3.575
 20
10.312
 30
0.0
 11
1.0
 21
0.0
 31
0.0
 73
2
 44
0.9
  1
7
 40
0.1
 41
0.08
  0
MTEXT
  5
261
100
AcDbEntity
  8
0
100
AcDbMText
 62
7
  6
CONTINUOUS
  7
TEXTSTYLE_2
 71
2
 72
1
 10
5.545
 20
10.312
 30
0.0
 11
1.0
 21
0.0
 31
0.0
 73
2
 44
0.9
  1
6
 40
0.1
 41
0.08
  0
MTEXT
  5
262
100
AcDbEntity
  8
0
100
AcDbMText
 62
7
  6
CONTINUOUS
  7
TEXTSTYLE_2
 71
2
 72
1
 10
7.515
 20
10.312
 30
0.0
 11
1.0
 21
0.0
 31
0.0
 73
2
 44
0.9
  1
5
 40
0.1
 41
0.08
  0
MTEXT
  5
263
100
AcDbEntity
  8
0
100
AcDbMText
 62
7
  6
CONTINUOUS
  7
TEXTSTYLE_2
 71
2
 72
1
 10
1.605
 20
10.312
 30
0.0
 11
1.0
 21
0.0
 31
0.0
 73
2
 44
0.9
  1
8
 40
0.1
 41
0.08
  0
MTEXT
  5
264
100
AcDbEntity
  8
0
100
AcDbMText
 62
7
  6
CONTINUOUS
  7
TEXTSTYLE_2
 71
2
 72
1
 10
1.605
 20
0.787
 30
0.0
 11
1.0
 21
0.0
 31
0.0
 73
2
 44
0.9
  1
8
 40
0.1
 41
0.08
  0
MTEXT
  5
265
100
AcDbEntity
  8
0
100
AcDbMText
 62
7
  6
CONTINUOUS
  7
TEXTSTYLE_2
 71
2
 72
1
 10
3.575
 20
0.787
 30
0.0
 11
1.0
 21
0.0
 31
0.0
 73
2
 44
0.9
  1
7
 40
0.1
 41
0.08
  0
MTEXT
  5
266
100
AcDbEntity
  8
0
100
AcDbMText
 62
7
  6
CONTINUOUS
  7
TEXTSTYLE_2
 71
2
 72
1
 10
5.545
 20
0.787
 30
0.0
 11
1.0
 21
0.0
 31
0.0
 73
2
 44
0.9
  1
6
 40
0.1
 41
0.08
  0
MTEXT
  5
267
100
AcDbEntity
  8
0
100
AcDbMText
 62
7
  6
CONTINUOUS
  7
TEXTSTYLE_2
 71
2
 72
1
 10
7.515
 20
0.787
 30
0.0
 11
1.0
 21
0.0
 31
0.0
 73
2
 44
0.9
  1
5
 40
0.1
 41
0.08
  0
MTEXT
  5
268
100
AcDbEntity
  8
0
100
AcDbMText
 62
7
  6
CONTINUOUS
  7
TEXTSTYLE_2
 71
2
 72
1
 10
9.485
 20
0.787
 30
0.0
 11
1.0
 21
0.0
 31
0.0
 73
2
 44
0.9
  1
4
 40
0.1
 41
0.08
  0
MTEXT
  5
269
100
AcDbEntity
  8
0
100
AcDbMText
 62
7
  6
CONTINUOUS
  7
TEXTSTYLE_2
 71
2
 72
1
 10
11.455
 20
0.787
 30
0.0
 11
1.0
 21
0.0
 31
0.0
 73
2
 44
0.9
  1
3
 40
0.1
 41
0.08
  0
MTEXT
  5
26A
100
AcDbEntity
  8
0
100
AcDbMText
 62
7
  6
CONTINUOUS
  7
TEXTSTYLE_2
 71
2
 72
1
 10
13.425
 20
0.787
 30
0.0
 11
1.0
 21
0.0
 31
0.0
 73
2
 44
0.9
  1
2
 40
0.1
 41
0.08
  0
MTEXT
  5
26B
100
AcDbEntity
  8
0
100
AcDbMText
 62
7
  6
CONTINUOUS
  7
TEXTSTYLE_2
 71
2
 72
1
 10
15.395
 20
0.787
 30
0.0
 11
1.0
 21
0.0
 31
0.0
 73
2
 44
0.9
  1
1
 40
0.1
 41
0.08
  0
MTEXT
  5
26C
100
AcDbEntity
  8
0
100
AcDbMText
 62
7
  6
CONTINUOUS
  7
TEXTSTYLE_2
 71
3
 72
1
 10
0.52
 20
4.3995
 30
0.0
 11
1.0
 21
0.0
 31
0.0
 73
2
 44
0.9
  1
B
 40
0.1
 41
0.08
  0
MTEXT
  5
26D
100
AcDbEntity
  8
0
100
AcDbMText
 62
7
  6
CONTINUOUS
  7
TEXTSTYLE_2
 71
3
 72
1
 10
0.52
 20
2.0995
 30
0.0
 11
1.0
 21
0.0
 31
0.0
 73
2
 44
0.9
  1
A
 40
0.1
 41
0.08
  0
MTEXT
  5
26E
100
AcDbEntity
  8
0
100
AcDbMText
 62
7
  6
CONTINUOUS
  7
TEXTSTYLE_2
 71
3
 72
1
 10
0.52
 20
8.9995
 30
0.0
 11
1.0
 21
0.0
 31
0.0
 73
2
 44
0.9
  1
D
 40
0.1
 41
0.08
  0
MTEXT
  5
26F
100
AcDbEntity
  8
0
100
AcDbMText
 62
7
  6
CONTINUOUS
  7
TEXTSTYLE_2
 71
3
 72
1
 10
0.52
 20
6.6995
 30
0.0
 11
1.0
 21
0.0
 31
0.0
 73
2
 44
0.9
  1
C
 40
0.1
 41
0.08
  0
MTEXT
  5
270
100
AcDbEntity
  8
0
100
AcDbMText
 62
7
  6
CONTINUOUS
  7
TEXTSTYLE_2
 71
1
 72
1
 10
16.48
 20
8.9995
 30
0.0
 11
1.0
 21
0.0
 31
0.0
 73
2
 44
0.9
  1
D
 40
0.1
 41
0.08
  0
MTEXT
  5
271
100
AcDbEntity
  8
0
100
AcDbMText
 62
7
  6
CONTINUOUS
  7
TEXTSTYLE_2
 71
1
 72
1
 10
16.48
 20
6.6995
 30
0.0
 11
1.0
 21
0.0
 31
0.0
 73
2
 44
0.9
  1
C
 40
0.1
 41
0.08
  0
MTEXT
  5
272
100
AcDbEntity
  8
0
100
AcDbMText
 62
7
  6
CONTINUOUS
  7
TEXTSTYLE_2
 71
1
 72
1
 10
16.48
 20
4.3995
 30
0.0
 11
1.0
 21
0.0
 31
0.0
 73
2
 44
0.9
  1
B
 40
0.1
 41
0.08
  0
MTEXT
  5
273
100
AcDbEntity
  8
0
100
AcDbMText
 62
7
  6
CONTINUOUS
  7
TEXTSTYLE_2
 71
1
 72
1
 10
16.48
 20
2.0995
 30
0.0
 11
1.0
 21
0.0
 31
0.0
 73
2
 44
0.9
  1
A
 40
0.1
 41
0.08
  0
MTEXT
  5
274
100
AcDbEntity
  8
0
100
AcDbMText
 62
7
  6
CONTINUOUS
  7
STANDARD
 71
1
 72
1
 10
14.819264911
 20
1.0627941725
 30
0.0
 11
1.0
 21
0.0
 31
0.0
 73
2
 44
0.9
  1
1 OF 1
 40
0.1
 41
0.6
  0
MTEXT
  5
275
100
AcDbEntity
  8
0
100
AcDbMText
 62
7
  6
CONTINUOUS
  7
STANDARD
 71
1
 72
1
 10
13.8911999818
 20
1.3747321586
 30
0.0
 11
1.0
 21
0.0
 31
0.0
 73
2
 44
0.9
  1
221008
 40
0.12
 41
0.72
  0
MTEXT
  5
276
100
AcDbEntity
  8
0
100
AcDbMText
 62
7
  6
CONTINUOUS
  7
STANDARD
 71
1
 72
1
 10
12.644264911
 20
1.0627941725
 30
0.0
 11
1.0
 21
0.0
 31
0.0
 73
2
 44
0.9
  1
1:1
 40
0.1
 41
0.3
  0
MTEXT
  5
277
100
AcDbEntity
  8
0
100
AcDbMText
 62
7
  6
CONTINUOUS
  7
STANDARD
 71
1
 72
1
 10
0.8489354566
 20
1.4938330621
 30
0.0
 11
1.0
 21
0.0
 31
0.0
 73
2
 44
0.9
  1
NOTES:\P1. ALL DIMENSIONS ARE MILLIMETERS [INCHES] UNLESS OTHERWISE NOTED.\P2. REFER TO "www.bannerengineering.com" FOR ADDITIONAL DATA AND SPECIFICATIONS.
 40
0.1
 41
7.9
  0
MTEXT
  5
278
100
AcDbEntity
  8
0
100
AcDbMText
 62
7
  6
CONTINUOUS
  7
TEXTSTYLE_5
 71
2
 72
1
 10
11.0519651892
 20
2.0334024775
 30
0.0
 11
1.0
 21
0.0
 31
0.0
 73
2
 44
0.9
  1
C  2015 Banner Engineering Corp.
 40
0.08
 41
1.92
  0
DIMENSION
  5
279
100
AcDbEntity
  8
DRIVEN_DIMS
100
AcDbDimension
 62
7
  6
CONTINUOUS
  2
*D0
 10
2.4655113401
 20
4.8664531993
 11
3.2992021748
 21
4.2260806928
 70
163
 71
1
 72
2
 41
0.9
 42
50.0
  1
%%c<>\P[]
  3
DIMSTYLE_1
100
AcDbDiametricDimension
 15
1.760068297
 25
6.7042121233
  0
DIMENSION
  5
27A
100
AcDbEntity
  8
DRIVEN_DIMS
100
AcDbDimension
 62
7
  6
CONTINUOUS
  2
*D1
 10
6.4988367308
 20
7.7695846298
 11
5.4899321133
 21
7.6945846298
 70
160
 71
2
 72
2
 41
0.9
 42
56.3
  1
<>\P[]
  3
DIMSTYLE_2
100
AcDbAlignedDimension
 13
4.2823012977
 23
6.1420829304
 14
6.4988367308
 24
6.287301132
100
AcDbRotatedDimension
  0
DIMENSION
  5
27B
100
AcDbEntity
  8
DRIVEN_DIMS
100
AcDbDimension
 62
7
  6
CONTINUOUS
  2
*D2
 10
5.7114351559
 20
7.2695846298
 11
5.0780514246
 21
7.1945846298
 70
160
 71
2
 72
2
 41
0.9
 42
36.3
  1
<>\P[]
  3
DIMSTYLE_2
100
AcDbAlignedDimension
 13
4.2823012977
 23
6.1420829304
 14
5.7114351559
 24
6.7302145418
100
AcDbRotatedDimension
  0
ACAD_TABLE
  5
27C
100
AcDbEntity
  8
0
 62
7
  6
CONTINUOUS
100
AcDbBlockReference
  2
*T1
 10
12.03
 20
0.887
 30
0.0
100
AcDbTable
342
       63B
343
229
 11
1.0
 21
0.0
 31
0.0
 90
6
 91
3
 92
5
 93
4
 94
0
 95
0
 96
0
 70
1
141
0.33
141
0.45
141
1.14
142
0.65
142
1.15
142
1.025
142
1.075
142
0.45
171
1
172
0
173
0
174
0
175
1
176
1
 91
33
178
0
145
0.0
301
CELL_VALUE
 90
4
  1
 
304
ACVALUE_END
170
1
140
0.1
171
1
172
0
173
0
174
0
175
1
176
1
 91
33
178
0
145
0.0
301
CELL_VALUE
 90
4
  1
 
304
ACVALUE_END
170
1
140
0.1
171
1
172
0
173
0
174
0
175
1
176
1
 91
33
178
0
145
0.0
301
CELL_VALUE
 90
4
  1
 
304
ACVALUE_END
170
1
140
0.1
171
1
172
0
173
0
174
0
175
1
176
1
 91
33
178
0
145
0.0
301
CELL_VALUE
 90
4
  1
 
304
ACVALUE_END
170
1
140
0.1
171
1
172
0
173
0
174
0
175
1
176
1
 91
33
178
0
145
0.0
301
CELL_VALUE
 90
4
  1
 
304
ACVALUE_END
170
1
140
0.1
171
1
172
0
173
0
174
0
175
1
176
1
 91
33
178
0
145
0.0
301
CELL_VALUE
 90
4
  1
 
304
ACVALUE_END
170
1
140
0.1
171
1
172
0
173
0
174
0
175
1
176
1
 91
33
178
0
145
0.0
301
CELL_VALUE
 90
4
  1
 
304
ACVALUE_END
170
1
140
0.1
171
1
172
0
173
0
174
0
175
1
176
1
 91
33
178
0
145
0.0
301
CELL_VALUE
 90
4
  1
 
304
ACVALUE_END
170
1
140
0.1
171
1
172
0
173
0
174
0
175
1
176
1
 91
33
178
0
145
0.0
301
CELL_VALUE
 90
4
  1
 
304
ACVALUE_END
170
1
140
0.1
171
1
172
0
173
0
174
0
175
1
176
1
 91
41
178
0
145
0.0
301
CELL_VALUE
 90
4
  1
A
304
ACVALUE_END
170
8
140
0.1
 64
7
171
1
172
0
173
0
174
0
175
5
176
1
 91
33
178
0
145
0.0
301
CELL_VALUE
 90
4
  1
K50P OPTICAL CABLE/PIGTAIL
304
ACVALUE_END
170
8
140
0.1
171
1
172
0
173
1
174
0
175
1
176
1
 91
1
178
0
145
0.0
170
1
171
1
172
0
173
1
174
0
175
1
176
1
 91
1
178
0
145
0.0
170
1
171
1
172
0
173
1
174
0
175
1
176
1
 91
1
178
0
145
0.0
170
1
171
1
172
0
173
1
174
0
175
1
176
1
 91
1
178
0
145
0.0
170
8
  0
LEADER
  5
27D
100
AcDbEntity
  8
NOTES
100
AcDbLeader
 62
7
  6
CONTINUOUS
  3
STANDARD
 71
1
 72
0
 73
0
 75
0
 40
0.1
 41
0.7
 76
3
 10
6.2133776941
 20
5.2439940786
 30
0.0
 10
6.764439201
 20
4.3010806928
 30
0.0
 10
7.014439201
 20
4.3010806928
 30
0.0
340
27E
1001
ACAD
1000
DSTYLE
1002
{
1070
77
1070
0
1002
}
  0
MTEXT
  5
27E
102
{ACAD_REACTORS
330
27D
102
}
100
AcDbEntity
  8
NOTES
100
AcDbMText
 62
7
  6
CONTINUOUS
  7
STANDARD
 71
1
 72
1
 10
7.014439201
 20
4.3510806928
 30
0.0
 11
1.0
 21
0.0
 31
0.0
 73
2
 44
0.9
  1
M12 X 1
 40
0.1
 41
0.7
  0
LEADER
  5
27F
100
AcDbEntity
  8
NOTES
100
AcDbLeader
 62
7
  6
CONTINUOUS
  3
STANDARD
 71
1
 72
0
 73
0
 75
0
 40
0.1
 41
1.1
 76
3
 10
11.4372691488
 20
5.4417396835
 30
0.0
 10
10.9668428411
 20
4.3010806928
 30
0.0
 10
10.7168428411
 20
4.3010806928
 30
0.0
340
280
1001
ACAD
1000
DSTYLE
1002
{
1070
77
1070
0
1002
}
  0
MTEXT
  5
280
102
{ACAD_REACTORS
330
27F
102
}
100
AcDbEntity
  8
NOTES
100
AcDbMText
 62
7
  6
CONTINUOUS
  7
STANDARD
 71
3
 72
1
 10
10.7168428411
 20
4.3510806928
 30
0.0
 11
1.0
 21
0.0
 31
0.0
 73
2
 44
0.9
  1
1/2-14 NPSM
 40
0.1
 41
1.1
  0
LINE
  5
281
100
AcDbEntity
  8
0
100
AcDbLine
 62
7
  6
CONTINUOUS
 10
0.47
 20
5.586103
 11
0.47
 21
5.412897
  0
LINE
  5
282
100
AcDbEntity
  8
0
100
AcDbLine
 62
7
  6
CONTINUOUS
 10
0.62
 20
10.112
 11
0.62
 21
0.887
  0
LINE
  5
283
100
AcDbEntity
  8
0
100
AcDbLine
 62
7
  6
CONTINUOUS
 10
2.59
 20
0.887
 11
2.59
 21
0.637
  0
LINE
  5
284
100
AcDbEntity
  8
0
100
AcDbLine
 62
7
  6
CONTINUOUS
 10
2.59
 20
10.112
 11
2.59
 21
10.362
  0
LINE
  5
285
100
AcDbEntity
  8
0
100
AcDbLine
 62
7
  6
CONTINUOUS
 10
8.413397
 20
0.737
 11
8.586603
 21
0.737
  0
LINE
  5
286
100
AcDbEntity
  8
0
100
AcDbLine
 62
7
  6
CONTINUOUS
 10
11.1389508475
 20
1.425992839
 11
11.7453418475
 21
1.495385839
  0
LINE
  5
287
100
AcDbEntity
  8
0
100
AcDbLine
 62
7
  6
CONTINUOUS
 10
0.62
 20
0.887
 11
16.38
 21
0.887
  0
LINE
  5
288
100
AcDbEntity
  8
0
100
AcDbLine
 62
7
  6
CONTINUOUS
 10
12.03
 20
1.137
 11
16.38
 21
1.137
  0
LINE
  5
289
100
AcDbEntity
  8
0
100
AcDbLine
 62
7
  6
CONTINUOUS
 10
10.2121898475
 20
1.243294839
 11
10.4342808475
 21
1.243294839
  0
LINE
  5
28A
100
AcDbEntity
  8
0
100
AcDbLine
 62
7
  6
CONTINUOUS
 10
10.4842808475
 20
1.243294839
 11
10.5842808475
 21
1.243294839
  0
LINE
  5
28B
100
AcDbEntity
  8
0
100
AcDbLine
 62
7
  6
CONTINUOUS
 10
10.6342808475
 20
1.243294839
 11
10.8563718475
 21
1.243294839
  0
LINE
  5
28C
100
AcDbEntity
  8
0
100
AcDbLine
 62
7
  6
CONTINUOUS
 10
11.0389508475
 20
1.243294839
 11
11.3171028475
 21
1.243294839
  0
LINE
  5
28D
100
AcDbEntity
  8
0
100
AcDbLine
 62
7
  6
CONTINUOUS
 10
11.3671028475
 20
1.243294839
 11
11.5171888475
 21
1.243294839
  0
LINE
  5
28E
100
AcDbEntity
  8
0
100
AcDbLine
 62
7
  6
CONTINUOUS
 10
11.5671888475
 20
1.243294839
 11
11.8453418475
 21
1.243294839
  0
LINE
  5
28F
100
AcDbEntity
  8
0
100
AcDbLine
 62
7
  6
CONTINUOUS
 10
11.7453418475
 20
0.991203839
 11
11.1389508475
 21
1.060596839
  0
LINE
  5
290
100
AcDbEntity
  8
0
100
AcDbLine
 62
7
  6
CONTINUOUS
 10
4.56
 20
0.887
 11
4.56
 21
0.637
  0
LINE
  5
291
100
AcDbEntity
  8
0
100
AcDbLine
 62
7
  6
CONTINUOUS
 10
4.56
 20
10.112
 11
4.56
 21
10.362
  0
LINE
  5
292
100
AcDbEntity
  8
0
100
AcDbLine
 62
7
  6
CONTINUOUS
 10
0.47
 20
5.412897
 11
0.62
 21
5.4995
  0
LINE
  5
293
100
AcDbEntity
  8
0
100
AcDbLine
 62
7
  6
CONTINUOUS
 10
12.03
 20
1.507
 11
16.38
 21
1.507
  0
LINE
  5
294
100
AcDbEntity
  8
0
100
AcDbLine
 62
7
  6
CONTINUOUS
 10
10.03
 20
1.907
 11
12.03
 21
1.907
  0
LINE
  5
295
100
AcDbEntity
  8
0
100
AcDbLine
 62
7
  6
CONTINUOUS
 10
0.62
 20
5.4995
 11
0.47
 21
5.586103
  0
LINE
  5
296
100
AcDbEntity
  8
0
100
AcDbLine
 62
7
  6
CONTINUOUS
 10
12.03
 20
2.267
 11
16.38
 21
2.267
  0
LINE
  5
297
100
AcDbEntity
  8
0
100
AcDbLine
 62
7
  6
CONTINUOUS
 10
13.6042588488
 20
2.4912273132
 11
13.5568948225
 21
2.4912273132
  0
LINE
  5
298
100
AcDbEntity
  8
0
100
AcDbLine
 62
7
  6
CONTINUOUS
 10
13.5130037982
 20
2.4912273132
 11
13.3994327352
 21
2.4912273132
  0
LINE
  5
299
100
AcDbEntity
  8
0
100
AcDbLine
 62
7
  6
CONTINUOUS
 10
13.3705287192
 20
2.4912273132
 11
13.1673166065
 21
2.4912273132
  0
LINE
  5
29A
100
AcDbEntity
  8
0
100
AcDbLine
 62
7
  6
CONTINUOUS
 10
13.1168435785
 20
2.4912273132
 11
13.0426375373
 21
2.4912273132
  0
LINE
  5
29B
100
AcDbEntity
  8
0
100
AcDbLine
 62
7
  6
CONTINUOUS
 10
12.9962575116
 20
2.4912273132
 11
12.9205934696
 21
2.4912273132
  0
LINE
  5
29C
100
AcDbEntity
  8
0
100
AcDbLine
 62
7
  6
CONTINUOUS
 10
12.8685904408
 20
2.4912273132
 11
12.7943853997
 21
2.4912273132
  0
LINE
  5
29D
100
AcDbEntity
  8
0
100
AcDbLine
 62
7
  6
CONTINUOUS
 10
12.7480043739
 20
2.4912273132
 11
12.672340332
 21
2.4912273132
  0
LINE
  5
29E
100
AcDbEntity
  8
0
100
AcDbLine
 62
7
  6
CONTINUOUS
 10
12.2055050731
 20
2.4912273132
 11
12.3819511709
 21
2.4912273132
  0
LINE
  5
29F
100
AcDbEntity
  8
0
100
AcDbLine
 62
7
  6
CONTINUOUS
 10
12.4394882028
 20
2.4912273132
 11
12.5168642458
 21
2.4912273132
  0
LINE
  5
2A0
100
AcDbEntity
  8
0
100
AcDbLine
 62
7
  6
CONTINUOUS
 10
12.537150257
 20
2.4912273132
 11
12.6424313154
 21
2.4912273132
  0
LINE
  5
2A1
100
AcDbEntity
  8
0
100
AcDbLine
 62
7
  6
CONTINUOUS
 10
13.4883447845
 20
2.5159553269
 11
13.5130037982
 21
2.5159553269
  0
LINE
  5
2A2
100
AcDbEntity
  8
0
100
AcDbLine
 62
7
  6
CONTINUOUS
 10
12.6424313154
 20
2.515977327
 11
12.6224153043
 21
2.515977327
  0
LINE
  5
2A3
100
AcDbEntity
  8
0
100
AcDbLine
 62
7
  6
CONTINUOUS
 10
12.551601265
 20
2.515977327
 11
12.537150257
 21
2.515977327
  0
LINE
  5
2A4
100
AcDbEntity
  8
0
100
AcDbLine
 62
7
  6
CONTINUOUS
 10
12.5168642458
 20
2.515977327
 11
12.5055812395
 21
2.515977327
  0
LINE
  5
2A5
100
AcDbEntity
  8
0
100
AcDbLine
 62
7
  6
CONTINUOUS
 10
12.4623492155
 20
2.515977327
 11
12.4394882028
 21
2.515977327
  0
LINE
  5
2A6
100
AcDbEntity
  8
0
100
AcDbLine
 62
7
  6
CONTINUOUS
 10
12.3362731456
 20
2.515977327
 11
12.2949101227
 21
2.515977327
  0
LINE
  5
2A7
100
AcDbEntity
  8
0
100
AcDbLine
 62
7
  6
CONTINUOUS
 10
12.2294470864
 20
2.515977327
 11
12.2055050731
 21
2.515977327
  0
LINE
  5
2A8
100
AcDbEntity
  8
0
100
AcDbLine
 62
7
  6
CONTINUOUS
 10
12.672340332
 20
2.515977327
 11
12.6909873423
 21
2.515977327
  0
LINE
  5
2A9
100
AcDbEntity
  8
0
100
AcDbLine
 62
7
  6
CONTINUOUS
 10
12.7276873627
 20
2.515977327
 11
12.7480043739
 21
2.515977327
  0
LINE
  5
2AA
100
AcDbEntity
  8
0
100
AcDbLine
 62
7
  6
CONTINUOUS
 10
12.9205934696
 20
2.515977327
 11
12.93923948
 21
2.515977327
  0
LINE
  5
2AB
100
AcDbEntity
  8
0
100
AcDbLine
 62
7
  6
CONTINUOUS
 10
12.9759405003
 20
2.515977327
 11
12.9962575116
 21
2.515977327
  0
LINE
  5
2AC
100
AcDbEntity
  8
0
100
AcDbLine
 62
7
  6
CONTINUOUS
 10
13.1673166065
 20
2.515977327
 11
13.1912396197
 21
2.515977327
  0
LINE
  5
2AD
100
AcDbEntity
  8
0
100
AcDbLine
 62
7
  6
CONTINUOUS
 10
13.2582556569
 20
2.515977327
 11
13.3232596929
 21
2.515977327
  0
LINE
  5
2AE
100
AcDbEntity
  8
0
100
AcDbLine
 62
7
  6
CONTINUOUS
 10
13.3994327352
 20
2.515977327
 11
13.4221787478
 21
2.515977327
  0
LINE
  5
2AF
100
AcDbEntity
  8
0
100
AcDbLine
 62
7
  6
CONTINUOUS
 10
13.6052818493
 20
2.5163643272
 11
13.60639085
 21
2.5163643272
  0
LINE
  5
2B0
100
AcDbEntity
  8
0
100
AcDbLine
 62
7
  6
CONTINUOUS
 10
13.3282096957
 20
2.5291773343
 11
13.3705287192
 21
2.5291773343
  0
LINE
  5
2B1
100
AcDbEntity
  8
0
100
AcDbLine
 62
7
  6
CONTINUOUS
 10
12.5110972426
 20
2.5296213345
 11
12.5459752619
 21
2.5296213345
  0
LINE
  5
2B2
100
AcDbEntity
  8
0
100
AcDbLine
 62
7
  6
CONTINUOUS
 10
13.6171458559
 20
2.5301143348
 11
13.6292558626
 21
2.5301143348
  0
LINE
  5
2B3
100
AcDbEntity
  8
0
100
AcDbLine
 62
7
  6
CONTINUOUS
 10
13.5159517998
 20
2.5306043351
 11
13.4883447845
 21
2.5306043351
  0
LINE
  5
2B4
100
AcDbEntity
  8
0
100
AcDbLine
 62
7
  6
CONTINUOUS
 10
13.2934226764
 20
2.5324773361
 11
13.2582556569
 21
2.5324773361
  0
LINE
  5
2B5
100
AcDbEntity
  8
0
100
AcDbLine
 62
7
  6
CONTINUOUS
 10
12.2949101227
 20
2.5333023366
 11
12.3362731456
 21
2.5333023366
  0
LINE
  5
2B6
100
AcDbEntity
  8
0
100
AcDbLine
 62
7
  6
CONTINUOUS
 10
13.5222818033
 20
2.5496073456
 11
13.4883447845
 21
2.5496073456
  0
LINE
  5
2B7
100
AcDbEntity
  8
0
100
AcDbLine
 62
7
  6
CONTINUOUS
 10
12.2949101227
 20
2.5499573458
 11
12.3362731456
 21
2.5499573458
  0
LINE
  5
2B8
100
AcDbEntity
  8
0
100
AcDbLine
 62
7
  6
CONTINUOUS
 10
12.5196132473
 20
2.5505713461
 11
12.5401702587
 21
2.5505713461
  0
LINE
  5
2B9
100
AcDbEntity
  8
0
100
AcDbLine
 62
7
  6
CONTINUOUS
 10
13.2582556569
 20
2.5507823463
 11
13.2934226764
 21
2.5507823463
  0
LINE
  5
2BA
100
AcDbEntity
  8
0
100
AcDbLine
 62
7
  6
CONTINUOUS
 10
13.3691097184
 20
2.5540823481
 11
13.3272456952
 21
2.5540823481
  0
LINE
  5
2BB
100
AcDbEntity
  8
0
100
AcDbLine
 62
7
  6
CONTINUOUS
 10
12.5329112547
 20
2.5667383551
 11
12.5267302512
 21
2.5667383551
  0
LINE
  5
2BC
100
AcDbEntity
  8
0
100
AcDbLine
 62
7
  6
CONTINUOUS
 10
13.4221787478
 20
2.5672823554
 11
13.3994327352
 21
2.5672823554
  0
LINE
  5
2BD
100
AcDbEntity
  8
0
100
AcDbLine
 62
7
  6
CONTINUOUS
 10
13.3222956924
 20
2.5672823554
 11
13.2582556569
 21
2.5672823554
  0
LINE
  5
2BE
100
AcDbEntity
  8
0
100
AcDbLine
 62
7
  6
CONTINUOUS
 10
13.1912396197
 20
2.5672823554
 11
13.1673166065
 21
2.5672823554
  0
LINE
  5
2BF
100
AcDbEntity
  8
0
100
AcDbLine
 62
7
  6
CONTINUOUS
 10
13.1397265912
 20
2.5672823554
 11
13.1217935812
 21
2.5672823554
  0
LINE
  5
2C0
100
AcDbEntity
  8
0
100
AcDbLine
 62
7
  6
CONTINUOUS
 10
13.0845015605
 20
2.5672823554
 11
13.0657255501
 21
2.5672823554
  0
LINE
  5
2C1
100
AcDbEntity
  8
0
100
AcDbLine
 62
7
  6
CONTINUOUS
 10
12.93923948
 20
2.5672823554
 11
12.9205934696
 21
2.5672823554
  0
LINE
  5
2C2
100
AcDbEntity
  8
0
100
AcDbLine
 62
7
  6
CONTINUOUS
 10
12.8914734535
 20
2.5672823554
 11
12.8735404436
 21
2.5672823554
  0
LINE
  5
2C3
100
AcDbEntity
  8
0
100
AcDbLine
 62
7
  6
CONTINUOUS
 10
12.8362484229
 20
2.5672823554
 11
12.8174724125
 21
2.5672823554
  0
LINE
  5
2C4
100
AcDbEntity
  8
0
100
AcDbLine
 62
7
  6
CONTINUOUS
 10
12.6909873423
 20
2.5672823554
 11
12.672340332
 21
2.5672823554
  0
LINE
  5
2C5
100
AcDbEntity
  8
0
100
AcDbLine
 62
7
  6
CONTINUOUS
 10
12.3362731456
 20
2.5672823554
 11
12.2949101227
 21
2.5672823554
  0
LINE
  5
2C6
100
AcDbEntity
  8
0
100
AcDbLine
 62
7
  6
CONTINUOUS
 10
12.2055050731
 20
2.5672823554
 11
12.2294470864
 21
2.5672823554
  0
LINE
  5
2C7
100
AcDbEntity
  8
0
100
AcDbLine
 62
7
  6
CONTINUOUS
 10
13.4883447845
 20
2.5672823554
 11
13.5251458049
 21
2.5672823554
  0
LINE
  5
2C8
100
AcDbEntity
  8
0
100
AcDbLine
 62
7
  6
CONTINUOUS
 10
12.5705042755
 20
2.5920323691
 11
12.5133292438
 21
2.5920323691
  0
LINE
  5
2C9
100
AcDbEntity
  8
0
100
AcDbLine
 62
7
  6
CONTINUOUS
 10
12.3715681652
 20
2.5920323691
 11
12.2055050731
 21
2.5920323691
  0
LINE
  5
2CA
100
AcDbEntity
  8
0
100
AcDbLine
 62
7
  6
CONTINUOUS
 10
12.672340332
 20
2.5920323691
 11
12.7727983877
 21
2.5920323691
  0
LINE
  5
2CB
100
AcDbEntity
  8
0
100
AcDbLine
 62
7
  6
CONTINUOUS
 10
12.8174724125
 20
2.5920323691
 11
12.8914734535
 21
2.5920323691
  0
LINE
  5
2CC
100
AcDbEntity
  8
0
100
AcDbLine
 62
7
  6
CONTINUOUS
 10
12.9205934696
 20
2.5920323691
 11
13.0210515254
 21
2.5920323691
  0
LINE
  5
2CD
100
AcDbEntity
  8
0
100
AcDbLine
 62
7
  6
CONTINUOUS
 10
13.0657255501
 20
2.5920323691
 11
13.1397265912
 21
2.5920323691
  0
LINE
  5
2CE
100
AcDbEntity
  8
0
100
AcDbLine
 62
7
  6
CONTINUOUS
 10
13.1673166065
 20
2.5920323691
 11
13.3691097184
 21
2.5920323691
  0
LINE
  5
2CF
100
AcDbEntity
  8
0
100
AcDbLine
 62
7
  6
CONTINUOUS
 10
13.3994327352
 20
2.5920323691
 11
13.5490138181
 21
2.5920323691
  0
LINE
  5
2D0
100
AcDbEntity
  8
0
100
AcDbLine
 62
7
  6
CONTINUOUS
 10
12.4008351814
 20
2.5375433389
 11
12.3907841758
 21
2.5410923409
  0
LINE
  5
2D1
100
AcDbEntity
  8
0
100
AcDbLine
 62
7
  6
CONTINUOUS
 10
12.7926763987
 20
2.4919113136
 11
12.7293963636
 21
2.5522893471
  0
LINE
  5
2D2
100
AcDbEntity
  8
0
100
AcDbLine
 62
7
  6
CONTINUOUS
 10
12.7745063886
 20
2.5913483688
 11
12.8345394219
 21
2.534068337
  0
LINE
  5
2D3
100
AcDbEntity
  8
0
100
AcDbLine
 62
7
  6
CONTINUOUS
 10
13.0409295364
 20
2.4919113136
 11
12.9776495013
 21
2.5522893471
  0
LINE
  5
2D4
100
AcDbEntity
  8
0
100
AcDbLine
 62
7
  6
CONTINUOUS
 10
13.0227595263
 20
2.5913483688
 11
13.0827925596
 21
2.534068337
  0
LINE
  5
2D5
100
AcDbEntity
  8
0
100
AcDbLine
 62
7
  6
CONTINUOUS
 10
12.548053263
 20
2.5284903339
 11
12.5536792662
 21
2.5197973291
  0
LINE
  5
2D6
100
AcDbEntity
  8
0
100
AcDbLine
 62
7
  6
CONTINUOUS
 10
12.5422482598
 20
2.5543913483
 11
12.5349892558
 21
2.5656073545
  0
LINE
  5
2D7
100
AcDbEntity
  8
0
100
AcDbLine
 62
7
  6
CONTINUOUS
 10
12.6203383031
 20
2.5171073276
 11
12.5725822767
 21
2.5909023685
  0
LINE
  5
2D8
100
AcDbEntity
  8
0
100
AcDbLine
 62
7
  6
CONTINUOUS
 10
12.2030300717
 20
2.5895573678
 11
12.2030300717
 21
2.5697573568
  0
LINE
  5
2D9
100
AcDbEntity
  8
0
100
AcDbLine
 62
7
  6
CONTINUOUS
 10
12.2030300717
 20
2.5135023256
 11
12.2030300717
 21
2.4937023146
  0
LINE
  5
2DA
100
AcDbEntity
  8
0
100
AcDbLine
 62
7
  6
CONTINUOUS
 10
12.2319220877
 20
2.564807354
 11
12.2319220877
 21
2.5184523283
  0
LINE
  5
2DB
100
AcDbEntity
  8
0
100
AcDbLine
 62
7
  6
CONTINUOUS
 10
12.2924351213
 20
2.564807354
 11
12.2924351213
 21
2.5524323472
  0
LINE
  5
2DC
100
AcDbEntity
  8
0
100
AcDbLine
 62
7
  6
CONTINUOUS
 10
12.2924351213
 20
2.5184523283
 11
12.2924351213
 21
2.5308273352
  0
LINE
  5
2DD
100
AcDbEntity
  8
0
100
AcDbLine
 62
7
  6
CONTINUOUS
 10
12.4370132015
 20
2.5135023256
 11
12.4370132015
 21
2.4937023146
  0
LINE
  5
2DE
100
AcDbEntity
  8
0
100
AcDbLine
 62
7
  6
CONTINUOUS
 10
12.5193392471
 20
2.4937023146
 11
12.5193392471
 21
2.5135023256
  0
LINE
  5
2DF
100
AcDbEntity
  8
0
100
AcDbLine
 62
7
  6
CONTINUOUS
 10
12.5346752556
 20
2.5135023256
 11
12.5346752556
 21
2.4937023146
  0
LINE
  5
2E0
100
AcDbEntity
  8
0
100
AcDbLine
 62
7
  6
CONTINUOUS
 10
12.6449063168
 20
2.4937023146
 11
12.6449063168
 21
2.5135023256
  0
LINE
  5
2E1
100
AcDbEntity
  8
0
100
AcDbLine
 62
7
  6
CONTINUOUS
 10
12.6698653306
 20
2.4937023146
 11
12.6698653306
 21
2.5135023256
  0
LINE
  5
2E2
100
AcDbEntity
  8
0
100
AcDbLine
 62
7
  6
CONTINUOUS
 10
12.6698653306
 20
2.5697573568
 11
12.6698653306
 21
2.5895573678
  0
LINE
  5
2E3
100
AcDbEntity
  8
0
100
AcDbLine
 62
7
  6
CONTINUOUS
 10
12.6934623437
 20
2.5184523283
 11
12.6934623437
 21
2.564807354
  0
LINE
  5
2E4
100
AcDbEntity
  8
0
100
AcDbLine
 62
7
  6
CONTINUOUS
 10
12.7252123613
 20
2.5504983461
 11
12.7252123613
 21
2.5184523283
  0
LINE
  5
2E5
100
AcDbEntity
  8
0
100
AcDbLine
 62
7
  6
CONTINUOUS
 10
13.5375908118
 20
2.5092733232
 11
13.5357868108
 21
2.5153423266
  0
LINE
  5
2E6
100
AcDbEntity
  8
0
100
AcDbLine
 62
7
  6
CONTINUOUS
 10
12.7504793753
 20
2.5135023256
 11
12.7504793753
 21
2.4937023146
  0
LINE
  5
2E7
100
AcDbEntity
  8
0
100
AcDbLine
 62
7
  6
CONTINUOUS
 10
12.8149974111
 20
2.5697573568
 11
12.8149974111
 21
2.5895573678
  0
LINE
  5
2E8
100
AcDbEntity
  8
0
100
AcDbLine
 62
7
  6
CONTINUOUS
 10
12.8387234242
 20
2.535859338
 11
12.8387234242
 21
2.564807354
  0
LINE
  5
2E9
100
AcDbEntity
  8
0
100
AcDbLine
 62
7
  6
CONTINUOUS
 10
12.8710654422
 20
2.564807354
 11
12.8710654422
 21
2.4937023146
  0
LINE
  5
2EA
100
AcDbEntity
  8
0
100
AcDbLine
 62
7
  6
CONTINUOUS
 10
12.8939484549
 20
2.5895573678
 11
12.8939484549
 21
2.5697573568
  0
LINE
  5
2EB
100
AcDbEntity
  8
0
100
AcDbLine
 62
7
  6
CONTINUOUS
 10
12.9181184683
 20
2.4937023146
 11
12.9181184683
 21
2.5135023256
  0
LINE
  5
2EC
100
AcDbEntity
  8
0
100
AcDbLine
 62
7
  6
CONTINUOUS
 10
12.9181184683
 20
2.5697573568
 11
12.9181184683
 21
2.5895573678
  0
LINE
  5
2ED
100
AcDbEntity
  8
0
100
AcDbLine
 62
7
  6
CONTINUOUS
 10
12.9417144814
 20
2.5184523283
 11
12.9417144814
 21
2.564807354
  0
LINE
  5
2EE
100
AcDbEntity
  8
0
100
AcDbLine
 62
7
  6
CONTINUOUS
 10
12.973465499
 20
2.5504983461
 11
12.973465499
 21
2.5184523283
  0
LINE
  5
2EF
100
AcDbEntity
  8
0
100
AcDbLine
 62
7
  6
CONTINUOUS
 10
12.998732513
 20
2.5135023256
 11
12.998732513
 21
2.4937023146
  0
LINE
  5
2F0
100
AcDbEntity
  8
0
100
AcDbLine
 62
7
  6
CONTINUOUS
 10
13.0632505488
 20
2.5697573568
 11
13.0632505488
 21
2.5895573678
  0
LINE
  5
2F1
100
AcDbEntity
  8
0
100
AcDbLine
 62
7
  6
CONTINUOUS
 10
13.0869765619
 20
2.535859338
 11
13.0869765619
 21
2.564807354
  0
LINE
  5
2F2
100
AcDbEntity
  8
0
100
AcDbLine
 62
7
  6
CONTINUOUS
 10
13.1193185799
 20
2.564807354
 11
13.1193185799
 21
2.4937023146
  0
LINE
  5
2F3
100
AcDbEntity
  8
0
100
AcDbLine
 62
7
  6
CONTINUOUS
 10
13.1422015925
 20
2.5895573678
 11
13.1422015925
 21
2.5697573568
  0
LINE
  5
2F4
100
AcDbEntity
  8
0
100
AcDbLine
 62
7
  6
CONTINUOUS
 10
13.1648416051
 20
2.4937023146
 11
13.1648416051
 21
2.5135023256
  0
LINE
  5
2F5
100
AcDbEntity
  8
0
100
AcDbLine
 62
7
  6
CONTINUOUS
 10
13.1648416051
 20
2.5697573568
 11
13.1648416051
 21
2.5895573678
  0
LINE
  5
2F6
100
AcDbEntity
  8
0
100
AcDbLine
 62
7
  6
CONTINUOUS
 10
13.1937146211
 20
2.5184523283
 11
13.1937146211
 21
2.564807354
  0
LINE
  5
2F7
100
AcDbEntity
  8
0
100
AcDbLine
 62
7
  6
CONTINUOUS
 10
13.2557806555
 20
2.564807354
 11
13.2557806555
 21
2.5532573476
  0
LINE
  5
2F8
100
AcDbEntity
  8
0
100
AcDbLine
 62
7
  6
CONTINUOUS
 10
13.2557806555
 20
2.5300023347
 11
13.2557806555
 21
2.5184523283
  0
LINE
  5
2F9
100
AcDbEntity
  8
0
100
AcDbLine
 62
7
  6
CONTINUOUS
 10
13.2958976778
 20
2.5483073449
 11
13.2958976778
 21
2.5349523375
  0
LINE
  5
2FA
100
AcDbEntity
  8
0
100
AcDbLine
 62
7
  6
CONTINUOUS
 10
12.3907841758
 20
2.5410923409
 11
12.3990241804
 21
2.5458683435
  0
LINE
  5
2FB
100
AcDbEntity
  8
0
100
AcDbLine
 62
7
  6
CONTINUOUS
 10
13.3247706938
 20
2.5565573495
 11
13.3247706938
 21
2.564807354
  0
LINE
  5
2FC
100
AcDbEntity
  8
0
100
AcDbLine
 62
7
  6
CONTINUOUS
 10
13.3257346943
 20
2.5184523283
 11
13.3257346943
 21
2.5267023329
  0
LINE
  5
2FD
100
AcDbEntity
  8
0
100
AcDbLine
 62
7
  6
CONTINUOUS
 10
13.3715847197
 20
2.5895573678
 11
13.3715847197
 21
2.5565573495
  0
LINE
  5
2FE
100
AcDbEntity
  8
0
100
AcDbLine
 62
7
  6
CONTINUOUS
 10
13.3730037205
 20
2.5267023329
 11
13.3730037205
 21
2.4937023146
  0
LINE
  5
2FF
100
AcDbEntity
  8
0
100
AcDbLine
 62
7
  6
CONTINUOUS
 10
13.3969577338
 20
2.4937023146
 11
13.3969577338
 21
2.5135023256
  0
LINE
  5
300
100
AcDbEntity
  8
0
100
AcDbLine
 62
7
  6
CONTINUOUS
 10
13.3969577338
 20
2.5697573568
 11
13.3969577338
 21
2.5895573678
  0
LINE
  5
301
100
AcDbEntity
  8
0
100
AcDbLine
 62
7
  6
CONTINUOUS
 10
13.4246537492
 20
2.5184523283
 11
13.4246537492
 21
2.564807354
  0
LINE
  5
302
100
AcDbEntity
  8
0
100
AcDbLine
 62
7
  6
CONTINUOUS
 10
13.4858697831
 20
2.5281293337
 11
13.4858697831
 21
2.5184303283
  0
LINE
  5
303
100
AcDbEntity
  8
0
100
AcDbLine
 62
7
  6
CONTINUOUS
 10
13.4858697831
 20
2.552082347
 11
13.4858697831
 21
2.564807354
  0
LINE
  5
304
100
AcDbEntity
  8
0
100
AcDbLine
 62
7
  6
CONTINUOUS
 10
13.5154787995
 20
2.5134803256
 11
13.5154787995
 21
2.4937023146
  0
LINE
  5
305
100
AcDbEntity
  8
0
100
AcDbLine
 62
7
  6
CONTINUOUS
 10
13.6146708546
 20
2.525013332
 11
13.6146708546
 21
2.5276393334
  0
LINE
  5
306
100
AcDbEntity
  8
0
100
AcDbLine
 62
7
  6
CONTINUOUS
 10
13.631730864
 20
2.5276393334
 11
13.631730864
 21
2.516087327
  0
LINE
  5
307
100
AcDbEntity
  8
0
100
AcDbLine
 62
7
  6
CONTINUOUS
 10
13.7286871589
 20
2.5350697372
 11
13.7286871589
 21
2.5456869438
  0
LINE
  5
308
100
AcDbEntity
  8
0
100
AcDbLine
 62
7
  6
CONTINUOUS
 10
12.5112392426
 20
2.5908833685
 11
12.4644392167
 21
2.5171263276
  0
LINE
  5
309
100
AcDbEntity
  8
0
100
AcDbLine
 62
7
  6
CONTINUOUS
 10
12.5246402501
 20
2.5655893545
 11
12.5175232461
 21
2.5543723483
  0
LINE
  5
30A
100
AcDbEntity
  8
0
100
AcDbLine
 62
7
  6
CONTINUOUS
 10
12.5034912383
 20
2.5197783291
 11
12.5090072414
 21
2.5284723339
  0
ARC
  5
30B
100
AcDbEntity
  8
0
100
AcDbCircle
 62
7
  6
CONTINUOUS
 10
12.7943847649
 20
2.4937027294
 40
0.0024754162
100
AcDbArc
 50
226.3593695813
 51
270.0146919953
  0
ARC
  5
30C
100
AcDbEntity
  8
0
100
AcDbCircle
 62
7
  6
CONTINUOUS
 10
12.2055050712
 20
2.4937023128
 40
0.0024749995
100
AcDbArc
 50
179.9999571957
 51
270.0000428043
  0
ARC
  5
30D
100
AcDbEntity
  8
0
100
AcDbCircle
 62
7
  6
CONTINUOUS
 10
12.8685904427
 20
2.4937023128
 40
0.0024749995
100
AcDbArc
 50
269.9999571957
 51
0.0000428043
  0
ARC
  5
30E
100
AcDbEntity
  8
0
100
AcDbCircle
 62
7
  6
CONTINUOUS
 10
12.7480043758
 20
2.4937023128
 40
0.0024749995
100
AcDbArc
 50
269.9999571957
 51
0.0000428043
  0
ARC
  5
30F
100
AcDbEntity
  8
0
100
AcDbCircle
 62
7
  6
CONTINUOUS
 10
12.6723403301
 20
2.4937023128
 40
0.0024749995
100
AcDbArc
 50
179.9999571957
 51
270.0000428043
  0
ARC
  5
310
100
AcDbEntity
  8
0
100
AcDbCircle
 62
7
  6
CONTINUOUS
 10
12.5371502552
 20
2.4937023128
 40
0.0024749995
100
AcDbArc
 50
179.9999571957
 51
270.0000428043
  0
ARC
  5
311
100
AcDbEntity
  8
0
100
AcDbCircle
 62
7
  6
CONTINUOUS
 10
12.6424313172
 20
2.4937023128
 40
0.0024749995
100
AcDbArc
 50
269.9999571957
 51
0.0000428043
  0
ARC
  5
312
100
AcDbEntity
  8
0
100
AcDbCircle
 62
7
  6
CONTINUOUS
 10
12.439488201
 20
2.4937023128
 40
0.0024749995
100
AcDbArc
 50
179.9999571957
 51
270.0000428043
  0
ARC
  5
313
100
AcDbEntity
  8
0
100
AcDbCircle
 62
7
  6
CONTINUOUS
 10
12.5168642476
 20
2.4937023128
 40
0.0024749995
100
AcDbArc
 50
269.9999571957
 51
0.0000428043
  0
ARC
  5
314
100
AcDbEntity
  8
0
100
AcDbCircle
 62
7
  6
CONTINUOUS
 10
12.371573659
 20
2.5302846524
 40
0.061747717
100
AcDbArc
 50
59.5385584989
 51
90.0050977555
  0
ARC
  5
315
100
AcDbEntity
  8
0
100
AcDbCircle
 62
7
  6
CONTINUOUS
 10
12.3792298263
 20
2.539634765
 40
0.048483885
100
AcDbArc
 50
273.21763719
 51
303.0749121182
  0
ARC
  5
316
100
AcDbEntity
  8
0
100
AcDbCircle
 62
7
  6
CONTINUOUS
 10
12.3931760319
 20
2.5166878286
 40
0.0222174455
100
AcDbArc
 50
4.0793399388
 51
69.834329283
  0
ARC
  5
317
100
AcDbEntity
  8
0
100
AcDbCircle
 62
7
  6
CONTINUOUS
 10
12.3940692204
 20
2.5168671561
 40
0.0213072145
100
AcDbArc
 50
303.0488228549
 51
355.7263138674
  0
ARC
  5
318
100
AcDbEntity
  8
0
100
AcDbCircle
 62
7
  6
CONTINUOUS
 10
12.400005721
 20
2.5168763464
 40
0.0153945295
100
AcDbArc
 50
354.0454548824
 51
5.1878013979
  0
ARC
  5
319
100
AcDbEntity
  8
0
100
AcDbCircle
 62
7
  6
CONTINUOUS
 10
12.3362731456
 20
2.5246398318
 40
0.0086625048
100
AcDbArc
 50
270.0
 51
90.0
  0
ARC
  5
31A
100
AcDbEntity
  8
0
100
AcDbCircle
 62
7
  6
CONTINUOUS
 10
12.5459747223
 20
2.5271458744
 40
0.0024754602
100
AcDbArc
 50
32.8959418573
 51
89.9875097202
  0
ARC
  5
31B
100
AcDbEntity
  8
0
100
AcDbCircle
 62
7
  6
CONTINUOUS
 10
12.4623492858
 20
2.5184525273
 40
0.0024752003
100
AcDbArc
 50
269.9983726451
 51
327.602165307
  0
ARC
  5
31C
100
AcDbEntity
  8
0
100
AcDbCircle
 62
7
  6
CONTINUOUS
 10
12.5110971723
 20
2.5271461342
 40
0.0024752003
100
AcDbArc
 50
89.998372645
 51
147.602165307
  0
ARC
  5
31D
100
AcDbEntity
  8
0
100
AcDbCircle
 62
7
  6
CONTINUOUS
 10
12.5055811302
 20
2.518452367
 40
0.0024750401
100
AcDbArc
 50
147.6063258011
 51
270.0025305754
  0
ARC
  5
31E
100
AcDbEntity
  8
0
100
AcDbCircle
 62
7
  6
CONTINUOUS
 10
12.2294470882
 20
2.5184523265
 40
0.0024749995
100
AcDbArc
 50
269.9999571957
 51
0.0000428043
  0
ARC
  5
31F
100
AcDbEntity
  8
0
100
AcDbCircle
 62
7
  6
CONTINUOUS
 10
12.2055050712
 20
2.5135023274
 40
0.0024749995
100
AcDbArc
 50
89.9999571957
 51
180.0000428043
  0
ARC
  5
320
100
AcDbEntity
  8
0
100
AcDbCircle
 62
7
  6
CONTINUOUS
 10
12.2949101208
 20
2.530827337
 40
0.0024749995
100
AcDbArc
 50
89.9999571957
 51
180.0000428043
  0
ARC
  5
321
100
AcDbEntity
  8
0
100
AcDbCircle
 62
7
  6
CONTINUOUS
 10
12.2949101208
 20
2.5184523265
 40
0.0024749995
100
AcDbArc
 50
179.9999571957
 51
270.0000428043
  0
ARC
  5
322
100
AcDbEntity
  8
0
100
AcDbCircle
 62
7
  6
CONTINUOUS
 10
12.5371502552
 20
2.5135023274
 40
0.0024749995
100
AcDbArc
 50
89.9999571957
 51
180.0000428043
  0
ARC
  5
323
100
AcDbEntity
  8
0
100
AcDbCircle
 62
7
  6
CONTINUOUS
 10
12.439488201
 20
2.5135023274
 40
0.0024749995
100
AcDbArc
 50
89.9999571957
 51
180.0000428043
  0
ARC
  5
324
100
AcDbEntity
  8
0
100
AcDbCircle
 62
7
  6
CONTINUOUS
 10
12.5168642476
 20
2.5135023274
 40
0.0024749995
100
AcDbArc
 50
359.9999571957
 51
90.0000428043
  0
ARC
  5
325
100
AcDbEntity
  8
0
100
AcDbCircle
 62
7
  6
CONTINUOUS
 10
12.3771587979
 20
2.5826952352
 40
0.0428289026
100
AcDbArc
 50
300.6990502959
 51
319.0591802498
  0
ARC
  5
326
100
AcDbEntity
  8
0
100
AcDbCircle
 62
7
  6
CONTINUOUS
 10
12.3922357827
 20
2.5632132173
 40
0.0229166529
100
AcDbArc
 50
20.6563876465
 51
62.3316896973
  0
ARC
  5
327
100
AcDbEntity
  8
0
100
AcDbCircle
 62
7
  6
CONTINUOUS
 10
12.3971873948
 20
2.5665668817
 40
0.0171568255
100
AcDbArc
 50
315.9145124245
 51
16.0049121282
  0
ARC
  5
328
100
AcDbEntity
  8
0
100
AcDbCircle
 62
7
  6
CONTINUOUS
 10
12.3362731456
 20
2.5586198506
 40
0.0086625048
100
AcDbArc
 50
270.0
 51
90.0
  0
ARC
  5
329
100
AcDbEntity
  8
0
100
AcDbCircle
 62
7
  6
CONTINUOUS
 10
12.532910715
 20
2.564262895
 40
0.0024754602
100
AcDbArc
 50
32.8959418573
 51
89.9875097202
  0
ARC
  5
32A
100
AcDbEntity
  8
0
100
AcDbCircle
 62
7
  6
CONTINUOUS
 10
12.5401702375
 20
2.5530465533
 40
0.0024752071
100
AcDbArc
 50
270.0004896793
 51
32.9089806818
  0
ARC
  5
32B
100
AcDbEntity
  8
0
100
AcDbCircle
 62
7
  6
CONTINUOUS
 10
12.5267301809
 20
2.5642631548
 40
0.0024752003
100
AcDbArc
 50
89.998372645
 51
147.602165307
  0
ARC
  5
32C
100
AcDbEntity
  8
0
100
AcDbCircle
 62
7
  6
CONTINUOUS
 10
12.5133291735
 20
2.5895571688
 40
0.0024752003
100
AcDbArc
 50
89.9983726451
 51
147.602165307
  0
ARC
  5
32D
100
AcDbEntity
  8
0
100
AcDbCircle
 62
7
  6
CONTINUOUS
 10
12.519613138
 20
2.5530463862
 40
0.0024750401
100
AcDbArc
 50
147.6063258012
 51
270.0025305754
  0
ARC
  5
32E
100
AcDbEntity
  8
0
100
AcDbCircle
 62
7
  6
CONTINUOUS
 10
12.2055050712
 20
2.5895573696
 40
0.0024749995
100
AcDbArc
 50
89.9999571957
 51
180.0000428043
  0
ARC
  5
32F
100
AcDbEntity
  8
0
100
AcDbCircle
 62
7
  6
CONTINUOUS
 10
12.2055050712
 20
2.5697573549
 40
0.0024749995
100
AcDbArc
 50
179.9999571957
 51
270.0000428043
  0
ARC
  5
330
100
AcDbEntity
  8
0
100
AcDbCircle
 62
7
  6
CONTINUOUS
 10
12.2294470882
 20
2.5648073559
 40
0.0024749995
100
AcDbArc
 50
359.9999571957
 51
90.0000428043
  0
ARC
  5
331
100
AcDbEntity
  8
0
100
AcDbCircle
 62
7
  6
CONTINUOUS
 10
12.2949101208
 20
2.5648073559
 40
0.0024749995
100
AcDbArc
 50
89.9999571957
 51
180.0000428043
  0
ARC
  5
332
100
AcDbEntity
  8
0
100
AcDbCircle
 62
7
  6
CONTINUOUS
 10
12.2949101208
 20
2.5524323453
 40
0.0024749995
100
AcDbArc
 50
179.9999571957
 51
270.0000428043
  0
ARC
  5
333
100
AcDbEntity
  8
0
100
AcDbCircle
 62
7
  6
CONTINUOUS
 10
12.8362481229
 20
2.5358592748
 40
0.0024753014
100
AcDbArc
 50
226.3461263059
 51
0.0014637321
  0
ARC
  5
334
100
AcDbEntity
  8
0
100
AcDbCircle
 62
7
  6
CONTINUOUS
 10
12.7276876627
 20
2.5504984093
 40
0.0024753014
100
AcDbArc
 50
46.3461263059
 51
180.0014637321
  0
ARC
  5
335
100
AcDbEntity
  8
0
100
AcDbCircle
 62
7
  6
CONTINUOUS
 10
12.5516012439
 20
2.5184525341
 40
0.0024752071
100
AcDbArc
 50
270.0004896794
 51
32.9089806818
  0
ARC
  5
336
100
AcDbEntity
  8
0
100
AcDbCircle
 62
7
  6
CONTINUOUS
 10
12.7276873608
 20
2.5184523265
 40
0.0024749995
100
AcDbArc
 50
179.9999571957
 51
270.0000428043
  0
ARC
  5
337
100
AcDbEntity
  8
0
100
AcDbCircle
 62
7
  6
CONTINUOUS
 10
12.7480043758
 20
2.5135023274
 40
0.0024749995
100
AcDbArc
 50
359.9999571957
 51
90.0000428043
  0
ARC
  5
338
100
AcDbEntity
  8
0
100
AcDbCircle
 62
7
  6
CONTINUOUS
 10
12.6723403301
 20
2.5135023274
 40
0.0024749995
100
AcDbArc
 50
89.9999571957
 51
180.0000428043
  0
ARC
  5
339
100
AcDbEntity
  8
0
100
AcDbCircle
 62
7
  6
CONTINUOUS
 10
12.6909873442
 20
2.5184523265
 40
0.0024749995
100
AcDbArc
 50
269.9999571957
 51
0.0000428043
  0
ARC
  5
33A
100
AcDbEntity
  8
0
100
AcDbCircle
 62
7
  6
CONTINUOUS
 10
12.6424313172
 20
2.5135023274
 40
0.0024749995
100
AcDbArc
 50
359.9999571957
 51
90.0000428043
  0
ARC
  5
33B
100
AcDbEntity
  8
0
100
AcDbCircle
 62
7
  6
CONTINUOUS
 10
12.6224154248
 20
2.518451368
 40
0.002474041
100
AcDbArc
 50
212.9056413127
 51
269.9972091756
  0
ARC
  5
33C
100
AcDbEntity
  8
0
100
AcDbCircle
 62
7
  6
CONTINUOUS
 10
12.8362484247
 20
2.5648073559
 40
0.0024749995
100
AcDbArc
 50
359.9999571957
 51
90.0000428043
  0
ARC
  5
33D
100
AcDbEntity
  8
0
100
AcDbCircle
 62
7
  6
CONTINUOUS
 10
12.8174724106
 20
2.5697573549
 40
0.0024749995
100
AcDbArc
 50
179.9999571957
 51
270.0000428043
  0
ARC
  5
33E
100
AcDbEntity
  8
0
100
AcDbCircle
 62
7
  6
CONTINUOUS
 10
12.8174724106
 20
2.5895573696
 40
0.0024749995
100
AcDbArc
 50
89.9999571957
 51
180.0000428043
  0
ARC
  5
33F
100
AcDbEntity
  8
0
100
AcDbCircle
 62
7
  6
CONTINUOUS
 10
12.8914734553
 20
2.5895573696
 40
0.0024749995
100
AcDbArc
 50
359.9999571957
 51
90.0000428043
  0
ARC
  5
340
100
AcDbEntity
  8
0
100
AcDbCircle
 62
7
  6
CONTINUOUS
 10
12.8914734553
 20
2.5697573549
 40
0.0024749995
100
AcDbArc
 50
269.9999571957
 51
0.0000428043
  0
ARC
  5
341
100
AcDbEntity
  8
0
100
AcDbCircle
 62
7
  6
CONTINUOUS
 10
12.8735404417
 20
2.5648073559
 40
0.0024749995
100
AcDbArc
 50
89.9999571957
 51
180.0000428043
  0
ARC
  5
342
100
AcDbEntity
  8
0
100
AcDbCircle
 62
7
  6
CONTINUOUS
 10
12.6909873442
 20
2.5648073559
 40
0.0024749995
100
AcDbArc
 50
359.9999571957
 51
90.0000428043
  0
ARC
  5
343
100
AcDbEntity
  8
0
100
AcDbCircle
 62
7
  6
CONTINUOUS
 10
12.6723403301
 20
2.5697573549
 40
0.0024749995
100
AcDbArc
 50
179.9999571957
 51
270.0000428043
  0
ARC
  5
344
100
AcDbEntity
  8
0
100
AcDbCircle
 62
7
  6
CONTINUOUS
 10
12.6723403301
 20
2.5895573696
 40
0.0024749995
100
AcDbArc
 50
89.9999571957
 51
180.0000428043
  0
ARC
  5
345
100
AcDbEntity
  8
0
100
AcDbCircle
 62
7
  6
CONTINUOUS
 10
12.570504655
 20
2.589557409
 40
0.0024749602
100
AcDbArc
 50
32.9172174468
 51
90.0087853097
  0
ARC
  5
346
100
AcDbEntity
  8
0
100
AcDbCircle
 62
7
  6
CONTINUOUS
 10
12.7727985224
 20
2.5895582013
 40
0.0024741678
100
AcDbArc
 50
46.3477981899
 51
90.0031206038
  0
ARC
  5
347
100
AcDbEntity
  8
0
100
AcDbCircle
 62
7
  6
CONTINUOUS
 10
13.5463505148
 20
2.4094934586
 40
0.1825583387
100
AcDbArc
 50
79.8618509324
 51
89.1640948679
  0
ARC
  5
348
100
AcDbEntity
  8
0
100
AcDbCircle
 62
7
  6
CONTINUOUS
 10
13.5282557878
 20
2.4386010294
 40
0.117346916
100
AcDbArc
 50
58.614769177
 51
62.3737227606
  0
ARC
  5
349
100
AcDbEntity
  8
0
100
AcDbCircle
 62
7
  6
CONTINUOUS
 10
13.5571178432
 20
2.509473798
 40
0.0459185159
100
AcDbArc
 50
15.6740290068
 51
20.9917271228
  0
ARC
  5
34A
100
AcDbEntity
  8
0
100
AcDbCircle
 62
7
  6
CONTINUOUS
 10
13.4974076135
 20
2.5055452462
 40
0.0396099176
100
AcDbArc
 50
14.3201081283
 51
22.4984722084
  0
ARC
  5
34B
100
AcDbEntity
  8
0
100
AcDbCircle
 62
7
  6
CONTINUOUS
 10
13.5161192671
 20
2.5062372524
 40
0.0243676582
100
AcDbArc
 50
63.3666028271
 51
90.3937697637
  0
ARC
  5
34C
100
AcDbEntity
  8
0
100
AcDbCircle
 62
7
  6
CONTINUOUS
 10
13.6036139387
 20
2.5111006186
 40
0.0198837666
100
AcDbArc
 50
271.8586572978
 51
289.4131338543
  0
ARC
  5
34D
100
AcDbEntity
  8
0
100
AcDbCircle
 62
7
  6
CONTINUOUS
 10
13.5577001432
 20
2.5085494649
 40
0.0173408616
100
AcDbArc
 50
232.4713476722
 51
267.338189944
  0
ARC
  5
34E
100
AcDbEntity
  8
0
100
AcDbCircle
 62
7
  6
CONTINUOUS
 10
13.5130038
 20
2.4937023128
 40
0.0024749995
100
AcDbArc
 50
269.9999571957
 51
0.0000428043
  0
ARC
  5
34F
100
AcDbEntity
  8
0
100
AcDbCircle
 62
7
  6
CONTINUOUS
 10
13.3994327333
 20
2.4937023128
 40
0.0024749995
100
AcDbArc
 50
179.9999571957
 51
270.0000428043
  0
ARC
  5
350
100
AcDbEntity
  8
0
100
AcDbCircle
 62
7
  6
CONTINUOUS
 10
13.1168435803
 20
2.4937023128
 40
0.0024749995
100
AcDbArc
 50
269.9999571957
 51
0.0000428043
  0
ARC
  5
351
100
AcDbEntity
  8
0
100
AcDbCircle
 62
7
  6
CONTINUOUS
 10
12.9962575135
 20
2.4937023128
 40
0.0024749995
100
AcDbArc
 50
269.9999571957
 51
0.0000428043
  0
ARC
  5
352
100
AcDbEntity
  8
0
100
AcDbCircle
 62
7
  6
CONTINUOUS
 10
12.9205934678
 20
2.4937023128
 40
0.0024749995
100
AcDbArc
 50
179.9999571957
 51
270.0000428043
  0
ARC
  5
353
100
AcDbEntity
  8
0
100
AcDbCircle
 62
7
  6
CONTINUOUS
 10
13.370528721
 20
2.4937023128
 40
0.0024749995
100
AcDbArc
 50
269.9999571957
 51
0.0000428043
  0
ARC
  5
354
100
AcDbEntity
  8
0
100
AcDbCircle
 62
7
  6
CONTINUOUS
 10
13.1673166046
 20
2.4937023128
 40
0.0024749995
100
AcDbArc
 50
179.9999571957
 51
270.0000428043
  0
ARC
  5
355
100
AcDbEntity
  8
0
100
AcDbCircle
 62
7
  6
CONTINUOUS
 10
13.0426374026
 20
2.493701481
 40
0.0024741678
100
AcDbArc
 50
226.3477981898
 51
270.0031206038
  0
ARC
  5
356
100
AcDbEntity
  8
0
100
AcDbCircle
 62
7
  6
CONTINUOUS
 10
13.0845012605
 20
2.5358592748
 40
0.0024753014
100
AcDbArc
 50
226.3461263059
 51
0.0014637321
  0
ARC
  5
357
100
AcDbEntity
  8
0
100
AcDbCircle
 62
7
  6
CONTINUOUS
 10
12.9759408003
 20
2.5504984093
 40
0.0024753014
100
AcDbArc
 50
46.3461263059
 51
180.0014637321
  0
ARC
  5
358
100
AcDbEntity
  8
0
100
AcDbCircle
 62
7
  6
CONTINUOUS
 10
12.9759404985
 20
2.5184523265
 40
0.0024749995
100
AcDbArc
 50
179.9999571957
 51
270.0000428043
  0
ARC
  5
359
100
AcDbEntity
  8
0
100
AcDbCircle
 62
7
  6
CONTINUOUS
 10
12.9962575135
 20
2.5135023274
 40
0.0024749995
100
AcDbArc
 50
359.9999571957
 51
90.0000428043
  0
ARC
  5
35A
100
AcDbEntity
  8
0
100
AcDbCircle
 62
7
  6
CONTINUOUS
 10
12.9205934678
 20
2.5135023274
 40
0.0024749995
100
AcDbArc
 50
89.9999571957
 51
180.0000428042
  0
ARC
  5
35B
100
AcDbEntity
  8
0
100
AcDbCircle
 62
7
  6
CONTINUOUS
 10
12.9392394818
 20
2.5184523265
 40
0.0024749995
100
AcDbArc
 50
269.9999571957
 51
0.0000428043
  0
ARC
  5
35C
100
AcDbEntity
  8
0
100
AcDbCircle
 62
7
  6
CONTINUOUS
 10
13.2582556551
 20
2.5300023366
 40
0.0024749995
100
AcDbArc
 50
89.9999571957
 51
180.0000428043
  0
ARC
  5
35D
100
AcDbEntity
  8
0
100
AcDbCircle
 62
7
  6
CONTINUOUS
 10
13.2582556551
 20
2.5184523265
 40
0.0024749995
100
AcDbArc
 50
179.9999571957
 51
270.0000428043
  0
ARC
  5
35E
100
AcDbEntity
  8
0
100
AcDbCircle
 62
7
  6
CONTINUOUS
 10
13.1673166046
 20
2.5135023274
 40
0.0024749995
100
AcDbArc
 50
89.9999571957
 51
180.0000428043
  0
ARC
  5
35F
100
AcDbEntity
  8
0
100
AcDbCircle
 62
7
  6
CONTINUOUS
 10
13.1912396216
 20
2.5184523265
 40
0.0024749995
100
AcDbArc
 50
269.9999571957
 51
0.0000428042
  0
ARC
  5
360
100
AcDbEntity
  8
0
100
AcDbCircle
 62
7
  6
CONTINUOUS
 10
13.2582556551
 20
2.5532573458
 40
0.0024749995
100
AcDbArc
 50
179.9999571957
 51
270.0000428043
  0
ARC
  5
361
100
AcDbEntity
  8
0
100
AcDbCircle
 62
7
  6
CONTINUOUS
 10
13.0845015624
 20
2.5648073559
 40
0.0024749995
100
AcDbArc
 50
359.9999571957
 51
90.0000428043
  0
ARC
  5
362
100
AcDbEntity
  8
0
100
AcDbCircle
 62
7
  6
CONTINUOUS
 10
13.0657255483
 20
2.5697573549
 40
0.0024749995
100
AcDbArc
 50
179.9999571957
 51
270.0000428043
  0
ARC
  5
363
100
AcDbEntity
  8
0
100
AcDbCircle
 62
7
  6
CONTINUOUS
 10
13.0657255483
 20
2.5895573696
 40
0.0024749995
100
AcDbArc
 50
89.9999571957
 51
180.0000428043
  0
ARC
  5
364
100
AcDbEntity
  8
0
100
AcDbCircle
 62
7
  6
CONTINUOUS
 10
13.139726593
 20
2.5895573696
 40
0.0024749995
100
AcDbArc
 50
359.9999571957
 51
90.0000428043
  0
ARC
  5
365
100
AcDbEntity
  8
0
100
AcDbCircle
 62
7
  6
CONTINUOUS
 10
13.139726593
 20
2.5697573549
 40
0.0024749995
100
AcDbArc
 50
269.9999571957
 51
0.0000428042
  0
ARC
  5
366
100
AcDbEntity
  8
0
100
AcDbCircle
 62
7
  6
CONTINUOUS
 10
13.1217935794
 20
2.5648073559
 40
0.0024749995
100
AcDbArc
 50
89.9999571957
 51
180.0000428042
  0
ARC
  5
367
100
AcDbEntity
  8
0
100
AcDbCircle
 62
7
  6
CONTINUOUS
 10
12.9392394818
 20
2.5648073559
 40
0.0024749995
100
AcDbArc
 50
359.9999571957
 51
90.0000428043
  0
ARC
  5
368
100
AcDbEntity
  8
0
100
AcDbCircle
 62
7
  6
CONTINUOUS
 10
12.9205934678
 20
2.5697573549
 40
0.0024749995
100
AcDbArc
 50
179.9999571957
 51
270.0000428043
  0
ARC
  5
369
100
AcDbEntity
  8
0
100
AcDbCircle
 62
7
  6
CONTINUOUS
 10
12.9205934678
 20
2.5895573696
 40
0.0024749995
100
AcDbArc
 50
89.9999571957
 51
180.0000428042
  0
ARC
  5
36A
100
AcDbEntity
  8
0
100
AcDbCircle
 62
7
  6
CONTINUOUS
 10
13.1912396216
 20
2.5648073559
 40
0.0024749995
100
AcDbArc
 50
359.9999571957
 51
90.0000428043
  0
ARC
  5
36B
100
AcDbEntity
  8
0
100
AcDbCircle
 62
7
  6
CONTINUOUS
 10
13.1673166046
 20
2.5697573549
 40
0.0024749995
100
AcDbArc
 50
179.9999571957
 51
270.0000428043
  0
ARC
  5
36C
100
AcDbEntity
  8
0
100
AcDbCircle
 62
7
  6
CONTINUOUS
 10
13.1673166046
 20
2.5895573696
 40
0.0024749995
100
AcDbArc
 50
89.9999571957
 51
180.0000428043
  0
ARC
  5
36D
100
AcDbEntity
  8
0
100
AcDbCircle
 62
7
  6
CONTINUOUS
 10
13.2582556551
 20
2.5648073559
 40
0.0024749995
100
AcDbArc
 50
89.9999571957
 51
180.0000428043
  0
ARC
  5
36E
100
AcDbEntity
  8
0
100
AcDbCircle
 62
7
  6
CONTINUOUS
 10
13.0210516601
 20
2.5895582013
 40
0.0024741678
100
AcDbArc
 50
46.3477981899
 51
90.0031206038
  0
ARC
  5
36F
100
AcDbEntity
  8
0
100
AcDbCircle
 62
7
  6
CONTINUOUS
 10
13.5806801742
 20
2.5212486481
 40
0.044722495
100
AcDbArc
 50
195.531588407
 51
204.7624440448
  0
ARC
  5
370
100
AcDbEntity
  8
0
100
AcDbCircle
 62
7
  6
CONTINUOUS
 10
13.5726548052
 20
2.5503169747
 40
0.039319019
100
AcDbArc
 50
59.1202086415
 51
81.4730239328
  0
ARC
  5
371
100
AcDbEntity
  8
0
100
AcDbCircle
 62
7
  6
CONTINUOUS
 10
13.5978759713
 20
2.5286873679
 40
0.0383802683
100
AcDbArc
 50
288.7656836787
 51
309.6104317088
  0
ARC
  5
372
100
AcDbEntity
  8
0
100
AcDbCircle
 62
7
  6
CONTINUOUS
 10
13.5783142014
 20
2.5566516438
 40
0.0310192946
100
AcDbArc
 50
34.7540871
 51
62.0879016178
  0
ARC
  5
373
100
AcDbEntity
  8
0
100
AcDbCircle
 62
7
  6
CONTINUOUS
 10
13.5236009174
 20
2.5388278764
 40
0.0284963867
100
AcDbArc
 50
70.3834917948
 51
86.8922743861
  0
ARC
  5
374
100
AcDbEntity
  8
0
100
AcDbCircle
 62
7
  6
CONTINUOUS
 10
13.6048681567
 20
2.5210861501
 40
0.0280715479
100
AcDbArc
 50
308.5071794988
 51
332.24006569
  0
ARC
  5
375
100
AcDbEntity
  8
0
100
AcDbCircle
 62
7
  6
CONTINUOUS
 10
13.5750183849
 20
2.5166552064
 40
0.0266349791
100
AcDbArc
 50
20.3630922153
 51
37.9727053099
  0
ARC
  5
376
100
AcDbEntity
  8
0
100
AcDbCircle
 62
7
  6
CONTINUOUS
 10
13.5761387404
 20
2.5167282896
 40
0.0257145923
100
AcDbArc
 50
39.3804255939
 51
59.0361096173
  0
ARC
  5
377
100
AcDbEntity
  8
0
100
AcDbCircle
 62
7
  6
CONTINUOUS
 10
13.5607987082
 20
2.5143997688
 40
0.0238935861
100
AcDbArc
 50
209.8247607259
 51
235.1255079367
  0
ARC
  5
378
100
AcDbEntity
  8
0
100
AcDbCircle
 62
7
  6
CONTINUOUS
 10
13.6141751675
 20
2.5161916447
 40
0.0175560065
100
AcDbArc
 50
332.2279060967
 51
359.6595469939
  0
ARC
  5
379
100
AcDbEntity
  8
0
100
AcDbCircle
 62
7
  6
CONTINUOUS
 10
13.5201739219
 20
2.5145168728
 40
0.0151491919
100
AcDbArc
 50
24.098260853
 51
63.0369451818
  0
ARC
  5
37A
100
AcDbEntity
  8
0
100
AcDbCircle
 62
7
  6
CONTINUOUS
 10
13.6156881783
 20
2.525116781
 40
0.0147197649
100
AcDbArc
 50
192.7054516565
 51
206.0594861022
  0
ARC
  5
37B
100
AcDbEntity
  8
0
100
AcDbCircle
 62
7
  6
CONTINUOUS
 10
13.5284605274
 20
2.5518696094
 40
0.0145814632
100
AcDbArc
 50
54.6746025112
 51
71.1660573124
  0
ARC
  5
37C
100
AcDbEntity
  8
0
100
AcDbCircle
 62
7
  6
CONTINUOUS
 10
13.6063292954
 20
2.5296129864
 40
0.0132488022
100
AcDbArc
 50
270.266200055
 51
281.2404888597
  0
ARC
  5
37D
100
AcDbEntity
  8
0
100
AcDbCircle
 62
7
  6
CONTINUOUS
 10
13.6027235414
 20
2.524769508
 40
0.0119498009
100
AcDbArc
 50
340.7883861657
 51
1.1691452593
  0
ARC
  5
37E
100
AcDbEntity
  8
0
100
AcDbCircle
 62
7
  6
CONTINUOUS
 10
13.5295131508
 20
2.5629115009
 40
0.0110815393
100
AcDbArc
 50
306.758405961
 51
320.4502234234
  0
ARC
  5
37F
100
AcDbEntity
  8
0
100
AcDbCircle
 62
7
  6
CONTINUOUS
 10
13.6075235364
 20
2.5238762928
 40
0.0073895522
100
AcDbArc
 50
280.8288201977
 51
305.0837508495
  0
ARC
  5
380
100
AcDbEntity
  8
0
100
AcDbCircle
 62
7
  6
CONTINUOUS
 10
13.607924718
 20
2.5230254464
 40
0.0064647042
100
AcDbArc
 50
306.5086174083
 51
340.2162360092
  0
ARC
  5
381
100
AcDbEntity
  8
0
100
AcDbCircle
 62
7
  6
CONTINUOUS
 10
13.5335900184
 20
2.5587235346
 40
0.0060275915
100
AcDbArc
 50
20.9055592135
 51
56.7851676243
  0
ARC
  5
382
100
AcDbEntity
  8
0
100
AcDbCircle
 62
7
  6
CONTINUOUS
 10
13.533683767
 20
2.559677593
 40
0.0058087709
100
AcDbArc
 50
318.8515287446
 51
353.6422345323
  0
ARC
  5
383
100
AcDbEntity
  8
0
100
AcDbCircle
 62
7
  6
CONTINUOUS
 10
13.6071938412
 20
2.5209082945
 40
0.0052403997
100
AcDbArc
 50
205.5232099488
 51
227.5054868079
  0
ARC
  5
384
100
AcDbEntity
  8
0
100
AcDbCircle
 62
7
  6
CONTINUOUS
 10
13.5348905773
 20
2.5593838168
 40
0.0045795888
100
AcDbArc
 50
355.6235353944
 51
18.9942678268
  0
ARC
  5
385
100
AcDbEntity
  8
0
100
AcDbCircle
 62
7
  6
CONTINUOUS
 10
13.6054655419
 20
2.5190929218
 40
0.0027347709
100
AcDbArc
 50
228.5117626737
 51
266.1485845754
  0
ARC
  5
386
100
AcDbEntity
  8
0
100
AcDbCircle
 62
7
  6
CONTINUOUS
 10
13.4883447827
 20
2.5281293355
 40
0.0024749995
100
AcDbArc
 50
89.9999571957
 51
180.0000428043
  0
ARC
  5
387
100
AcDbEntity
  8
0
100
AcDbCircle
 62
7
  6
CONTINUOUS
 10
13.4883447827
 20
2.5184303265
 40
0.0024749995
100
AcDbArc
 50
179.9999571957
 51
270.0000428043
  0
ARC
  5
388
100
AcDbEntity
  8
0
100
AcDbCircle
 62
7
  6
CONTINUOUS
 10
13.5130038
 20
2.5134803274
 40
0.0024749995
100
AcDbArc
 50
359.9999571957
 51
90.0000428043
  0
ARC
  5
389
100
AcDbEntity
  8
0
100
AcDbCircle
 62
7
  6
CONTINUOUS
 10
13.3994327333
 20
2.5135023274
 40
0.0024749995
100
AcDbArc
 50
89.9999571957
 51
180.0000428043
  0
ARC
  5
38A
100
AcDbEntity
  8
0
100
AcDbCircle
 62
7
  6
CONTINUOUS
 10
13.4221787497
 20
2.5184523265
 40
0.0024749995
100
AcDbArc
 50
269.9999571957
 51
0.0000428042
  0
ARC
  5
38B
100
AcDbEntity
  8
0
100
AcDbCircle
 62
7
  6
CONTINUOUS
 10
13.6171458541
 20
2.5276393353
 40
0.0024749995
100
AcDbArc
 50
89.9999571957
 51
180.0000428043
  0
ARC
  5
38C
100
AcDbEntity
  8
0
100
AcDbCircle
 62
7
  6
CONTINUOUS
 10
13.6292558645
 20
2.5276393353
 40
0.0024749995
100
AcDbArc
 50
359.9999571957
 51
90.0000428043
  0
ARC
  5
38D
100
AcDbEntity
  8
0
100
AcDbCircle
 62
7
  6
CONTINUOUS
 10
13.4883447827
 20
2.5520823451
 40
0.0024749995
100
AcDbArc
 50
179.9999571957
 51
270.0000428043
  0
ARC
  5
38E
100
AcDbEntity
  8
0
100
AcDbCircle
 62
7
  6
CONTINUOUS
 10
13.3232596948
 20
2.5184523265
 40
0.0024749995
100
AcDbArc
 50
269.9999571957
 51
0.0000428043
  0
ARC
  5
38F
100
AcDbEntity
  8
0
100
AcDbCircle
 62
7
  6
CONTINUOUS
 10
13.3282096938
 20
2.5267023348
 40
0.0024749995
100
AcDbArc
 50
89.9999571957
 51
180.0000428043
  0
ARC
  5
390
100
AcDbEntity
  8
0
100
AcDbCircle
 62
7
  6
CONTINUOUS
 10
13.370528721
 20
2.5267023348
 40
0.0024749995
100
AcDbArc
 50
359.9999571957
 51
90.0000428043
  0
ARC
  5
391
100
AcDbEntity
  8
0
100
AcDbCircle
 62
7
  6
CONTINUOUS
 10
13.3691097202
 20
2.5565573476
 40
0.0024749995
100
AcDbArc
 50
269.9999571957
 51
0.0000428042
  0
ARC
  5
392
100
AcDbEntity
  8
0
100
AcDbCircle
 62
7
  6
CONTINUOUS
 10
13.3272456933
 20
2.5565573476
 40
0.0024749995
100
AcDbArc
 50
179.9999571957
 51
270.0000428043
  0
ARC
  5
393
100
AcDbEntity
  8
0
100
AcDbCircle
 62
7
  6
CONTINUOUS
 10
13.2934226783
 20
2.5483073467
 40
0.0024749995
100
AcDbArc
 50
359.9999571957
 51
90.0000428043
  0
ARC
  5
394
100
AcDbEntity
  8
0
100
AcDbCircle
 62
7
  6
CONTINUOUS
 10
13.2934226783
 20
2.5349523356
 40
0.0024749995
100
AcDbArc
 50
269.9999571957
 51
0.0000428042
  0
ARC
  5
395
100
AcDbEntity
  8
0
100
AcDbCircle
 62
7
  6
CONTINUOUS
 10
13.5519569538
 20
2.6152551345
 40
0.0789082104
100
AcDbArc
 50
292.906155071
 51
305.2574666259
  0
ARC
  5
396
100
AcDbEntity
  8
0
100
AcDbCircle
 62
7
  6
CONTINUOUS
 10
13.5822888914
 20
2.5720482849
 40
0.0261183659
100
AcDbArc
 50
305.6373831893
 51
329.9727629745
  0
ARC
  5
397
100
AcDbEntity
  8
0
100
AcDbCircle
 62
7
  6
CONTINUOUS
 10
13.5219564542
 20
2.5750459767
 40
0.0254407115
100
AcDbArc
 50
270.7327484175
 51
290.441894219
  0
ARC
  5
398
100
AcDbEntity
  8
0
100
AcDbCircle
 62
7
  6
CONTINUOUS
 10
13.5238839599
 20
2.5706523294
 40
0.0206523367
100
AcDbArc
 50
289.6883413472
 51
306.4184925496
  0
ARC
  5
399
100
AcDbEntity
  8
0
100
AcDbCircle
 62
7
  6
CONTINUOUS
 10
13.5900029525
 20
2.565201245
 40
0.0165459396
100
AcDbArc
 50
1.548452892
 51
33.5033152417
  0
ARC
  5
39A
100
AcDbEntity
  8
0
100
AcDbCircle
 62
7
  6
CONTINUOUS
 10
13.5932995477
 20
2.5653696972
 40
0.0132462337
100
AcDbArc
 50
331.1510006998
 51
1.205404301
  0
ARC
  5
39B
100
AcDbEntity
  8
0
100
AcDbCircle
 62
7
  6
CONTINUOUS
 10
13.4221787497
 20
2.5648073559
 40
0.0024749995
100
AcDbArc
 50
359.9999571957
 51
90.0000428043
  0
ARC
  5
39C
100
AcDbEntity
  8
0
100
AcDbCircle
 62
7
  6
CONTINUOUS
 10
13.3994327333
 20
2.5697573549
 40
0.0024749995
100
AcDbArc
 50
179.9999571957
 51
270.0000428043
  0
ARC
  5
39D
100
AcDbEntity
  8
0
100
AcDbCircle
 62
7
  6
CONTINUOUS
 10
13.3994327333
 20
2.5895573696
 40
0.0024749995
100
AcDbArc
 50
89.9999571957
 51
180.0000428043
  0
ARC
  5
39E
100
AcDbEntity
  8
0
100
AcDbCircle
 62
7
  6
CONTINUOUS
 10
13.4883447827
 20
2.5648073559
 40
0.0024749995
100
AcDbArc
 50
89.9999571957
 51
180.0000428043
  0
ARC
  5
39F
100
AcDbEntity
  8
0
100
AcDbCircle
 62
7
  6
CONTINUOUS
 10
13.3691097202
 20
2.5895573696
 40
0.0024749995
100
AcDbArc
 50
359.9999571957
 51
90.0000428043
  0
ARC
  5
3A0
100
AcDbEntity
  8
0
100
AcDbCircle
 62
7
  6
CONTINUOUS
 10
13.3222956943
 20
2.5648073559
 40
0.0024749995
100
AcDbArc
 50
359.9999571957
 51
90.0000428043
  0
ELLIPSE
  5
3A1
100
AcDbEntity
  8
0
100
AcDbEllipse
 62
7
  6
CONTINUOUS
 10
12.9046654608
 20
2.5403783405
 30
0.0
 11
-0.8250004575
 21
0.0
 31
0.0
 40
0.218572
 41
0.0
 42
6.2831853072
  0
HATCH
  5
3A2
100
AcDbEntity
  8
0
100
AcDbHatch
 62
7
  6
CONTINUOUS
 10
0.0
 20
0.0
 30
0.0
210
0.0
220
0.0
230
1.0
  2
XSEC0001
 70
1
 71
1
 91
11
 92
1
 93
57
 72
2
 10
13.5577001432
 20
2.5085494649
 40
0.0173408616
 50
232.4713476722
 51
267.338189944
 73
1
 72
2
 10
13.5607987082
 20
2.5143997688
 40
0.0238935861
 50
209.8247607259
 51
235.1255079367
 73
1
 72
2
 10
13.5806801742
 20
2.5212486481
 40
0.044722495
 50
195.531588407
 51
204.7624440448
 73
1
 72
1
 10
13.5375908118
 20
2.5092733232
 11
13.5357868108
 21
2.5153423266
 72
2
 10
13.4974076135
 20
2.5055452462
 40
0.0396099176
 50
14.3201081283
 51
22.4984722084
 73
1
 72
2
 10
13.5201739219
 20
2.5145168728
 40
0.0151491919
 50
24.098260853
 51
63.0369451818
 73
1
 72
2
 10
13.5161192671
 20
2.5062372524
 40
0.0243676582
 50
63.3666028271
 51
90.3937697637
 73
1
 72
1
 10
13.5159517998
 20
2.5306043351
 11
13.4883447845
 21
2.5306043351
 72
2
 10
13.4883447827
 20
2.5281293355
 40
0.0024749995
 50
89.9999571958
 51
180.0000428043
 73
1
 72
1
 10
13.4858697831
 20
2.5281293337
 11
13.4858697831
 21
2.5184303283
 72
2
 10
13.4883447827
 20
2.5184303265
 40
0.0024749995
 50
179.9999571957
 51
270.0000428042
 73
1
 72
1
 10
13.4883447845
 20
2.5159553269
 11
13.5130037982
 21
2.5159553269
 72
2
 10
13.5130038
 20
2.5134803274
 40
0.0024749995
 50
359.9999571957
 51
90.0000428042
 73
1
 72
1
 10
13.5154787995
 20
2.5134803256
 11
13.5154787995
 21
2.4937023146
 72
2
 10
13.5130038
 20
2.4937023128
 40
0.0024749995
 50
269.9999571958
 51
0.0000428043
 73
1
 72
1
 10
13.5130037982
 20
2.4912273132
 11
13.3994327352
 21
2.4912273132
 72
2
 10
13.3994327333
 20
2.4937023128
 40
0.0024749995
 50
179.9999571957
 51
270.0000428043
 73
1
 72
1
 10
13.3969577338
 20
2.4937023146
 11
13.3969577338
 21
2.5135023256
 72
2
 10
13.3994327333
 20
2.5135023274
 40
0.0024749995
 50
89.9999571957
 51
180.0000428043
 73
1
 72
1
 10
13.3994327352
 20
2.515977327
 11
13.4221787478
 21
2.515977327
 72
2
 10
13.4221787497
 20
2.5184523265
 40
0.0024749995
 50
269.9999571956
 51
0.0000428042
 73
1
 72
1
 10
13.4246537492
 20
2.5184523283
 11
13.4246537492
 21
2.564807354
 72
2
 10
13.4221787497
 20
2.5648073559
 40
0.0024749995
 50
359.9999571957
 51
90.0000428043
 73
1
 72
1
 10
13.4221787478
 20
2.5672823554
 11
13.3994327352
 21
2.5672823554
 72
2
 10
13.3994327333
 20
2.5697573549
 40
0.0024749995
 50
179.9999571957
 51
270.0000428043
 73
1
 72
1
 10
13.3969577338
 20
2.5697573568
 11
13.3969577338
 21
2.5895573678
 72
2
 10
13.3994327333
 20
2.5895573696
 40
0.0024749995
 50
89.9999571957
 51
180.0000428043
 73
1
 72
1
 10
13.3994327352
 20
2.5920323691
 11
13.5490138181
 21
2.5920323691
 72
2
 10
13.5463505148
 20
2.4094934586
 40
0.1825583387
 50
79.8618509324
 51
89.1640948679
 73
1
 72
2
 10
13.5726548052
 20
2.5503169747
 40
0.039319019
 50
59.1202086415
 51
81.4730239328
 73
1
 72
2
 10
13.5783142014
 20
2.5566516438
 40
0.0310192946
 50
34.7540871
 51
62.0879016178
 73
1
 72
2
 10
13.5900029525
 20
2.565201245
 40
0.0165459396
 50
1.548452892
 51
33.5033152417
 73
1
 72
2
 10
13.5932995477
 20
2.5653696972
 40
0.0132462337
 50
331.1510006998
 51
1.205404301
 73
1
 72
2
 10
13.5822888914
 20
2.5720482849
 40
0.0261183659
 50
305.6373831893
 51
329.9727629745
 73
1
 72
2
 10
13.5519569538
 20
2.6152551345
 40
0.0789082104
 50
292.906155071
 51
305.2574666259
 73
1
 72
2
 10
13.5282557878
 20
2.4386010294
 40
0.117346916
 50
58.614769177
 51
62.3737227606
 73
1
 72
2
 10
13.5761387404
 20
2.5167282896
 40
0.0257145923
 50
39.3804255939
 51
59.0361096173
 73
1
 72
2
 10
13.5750183849
 20
2.5166552064
 40
0.0266349791
 50
20.3630922153
 51
37.9727053099
 73
1
 72
2
 10
13.5571178432
 20
2.509473798
 40
0.0459185159
 50
15.6740290068
 51
20.9917271228
 73
1
 72
2
 10
13.6156881783
 20
2.525116781
 40
0.0147197649
 50
192.7054516565
 51
206.0594861022
 73
1
 72
2
 10
13.6071938412
 20
2.5209082945
 40
0.0052403997
 50
205.5232099488
 51
227.5054868079
 73
1
 72
2
 10
13.6054655419
 20
2.5190929218
 40
0.0027347709
 50
228.5117626737
 51
266.1485845754
 73
1
 72
1
 10
13.6052818493
 20
2.5163643272
 11
13.60639085
 21
2.5163643272
 72
2
 10
13.6063292954
 20
2.5296129864
 40
0.0132488022
 50
270.266200055
 51
281.2404888597
 73
1
 72
2
 10
13.6075235364
 20
2.5238762928
 40
0.0073895522
 50
280.8288201977
 51
305.0837508495
 73
1
 72
2
 10
13.607924718
 20
2.5230254464
 40
0.0064647042
 50
306.5086174083
 51
340.2162360092
 73
1
 72
2
 10
13.6027235414
 20
2.524769508
 40
0.0119498009
 50
340.7883861657
 51
1.1691452593
 73
1
 72
1
 10
13.6146708546
 20
2.525013332
 11
13.6146708546
 21
2.5276393334
 72
2
 10
13.6171458541
 20
2.5276393353
 40
0.0024749995
 50
89.9999571958
 51
180.0000428043
 73
1
 72
1
 10
13.6171458559
 20
2.5301143348
 11
13.6292558626
 21
2.5301143348
 72
2
 10
13.6292558645
 20
2.5276393353
 40
0.0024749995
 50
359.9999571957
 51
90.0000428042
 73
1
 72
1
 10
13.631730864
 20
2.5276393334
 11
13.631730864
 21
2.516087327
 72
2
 10
13.6141751675
 20
2.5161916447
 40
0.0175560065
 50
332.2279060967
 51
359.6595469939
 73
1
 72
2
 10
13.6048681567
 20
2.5210861501
 40
0.0280715479
 50
308.5071794988
 51
332.2400656899
 73
1
 72
2
 10
13.5978759713
 20
2.5286873679
 40
0.0383802683
 50
288.7656836787
 51
309.6104317088
 73
1
 72
2
 10
13.6036139387
 20
2.5111006186
 40
0.0198837666
 50
271.8586572978
 51
289.4131338543
 73
1
 72
1
 10
13.6042588488
 20
2.4912273132
 11
13.5568948225
 21
2.4912273132
 97
267
330
297
330
298
330
299
330
29A
330
29B
330
29C
330
29D
330
29E
330
29F
330
2A0
330
2A1
330
2A2
330
2A3
330
2A4
330
2A5
330
2A6
330
2A7
330
2A8
330
2A9
330
2AA
330
2AB
330
2AC
330
2AD
330
2AE
330
2AF
330
2B0
330
2B1
330
2B2
330
2B3
330
2B4
330
2B5
330
2B6
330
2B7
330
2B8
330
2B9
330
2BA
330
2BB
330
2BC
330
2BD
330
2BE
330
2BF
330
2C0
330
2C1
330
2C2
330
2C3
330
2C4
330
2C5
330
2C6
330
2C7
330
2C8
330
2C9
330
2CA
330
2CB
330
2CC
330
2CD
330
2CE
330
2CF
330
2D0
330
2D1
330
2D2
330
2D3
330
2D4
330
2D5
330
2D6
330
2D7
330
2D8
330
2D9
330
2DA
330
2DB
330
2DC
330
2DD
330
2DE
330
2DF
330
2E0
330
2E1
330
2E2
330
2E3
330
2E4
330
2E5
330
2E6
330
2E7
330
2E8
330
2E9
330
2EA
330
2EB
330
2EC
330
2ED
330
2EE
330
2EF
330
2F0
330
2F1
330
2F2
330
2F3
330
2F4
330
2F5
330
2F6
330
2F7
330
2F8
330
2F9
330
2FA
330
2FB
330
2FC
330
2FD
330
2FE
330
2FF
330
300
330
301
330
302
330
303
330
304
330
305
330
306
330
307
330
308
330
309
330
30A
330
30B
330
30C
330
30D
330
30E
330
30F
330
310
330
311
330
312
330
313
330
314
330
315
330
316
330
317
330
318
330
319
330
31A
330
31B
330
31C
330
31D
330
31E
330
31F
330
320
330
321
330
322
330
323
330
324
330
325
330
326
330
327
330
328
330
329
330
32A
330
32B
330
32C
330
32D
330
32E
330
32F
330
330
330
331
330
332
330
333
330
334
330
335
330
336
330
337
330
338
330
339
330
33A
330
33B
330
33C
330
33D
330
33E
330
33F
330
340
330
341
330
342
330
343
330
344
330
345
330
346
330
347
330
348
330
349
330
34A
330
34B
330
34C
330
34D
330
34E
330
34F
330
350
330
351
330
352
330
353
330
354
330
355
330
356
330
357
330
358
330
359
330
35A
330
35B
330
35C
330
35D
330
35E
330
35F
330
360
330
361
330
362
330
363
330
364
330
365
330
366
330
367
330
368
330
369
330
36A
330
36B
330
36C
330
36D
330
36E
330
36F
330
370
330
371
330
372
330
373
330
374
330
375
330
376
330
377
330
378
330
379
330
37A
330
37B
330
37C
330
37D
330
37E
330
37F
330
380
330
381
330
382
330
383
330
384
330
385
330
386
330
387
330
388
330
389
330
38A
330
38B
330
38C
330
38D
330
38E
330
38F
330
390
330
391
330
392
330
393
330
394
330
395
330
396
330
397
330
398
330
399
330
39A
330
39B
330
39C
330
39D
330
39E
330
39F
330
3A0
330
3A1
 92
1
 93
40
 72
2
 10
13.1673166046
 20
2.4937023128
 40
0.0024749995
 50
179.9999571957
 51
270.0000428042
 73
1
 72
1
 10
13.1648416051
 20
2.4937023146
 11
13.1648416051
 21
2.5135023256
 72
2
 10
13.1673166046
 20
2.5135023274
 40
0.0024749995
 50
89.9999571958
 51
180.0000428043
 73
1
 72
1
 10
13.1673166065
 20
2.515977327
 11
13.1912396197
 21
2.515977327
 72
2
 10
13.1912396216
 20
2.5184523265
 40
0.0024749995
 50
269.9999571956
 51
0.0000428042
 73
1
 72
1
 10
13.1937146211
 20
2.5184523283
 11
13.1937146211
 21
2.564807354
 72
2
 10
13.1912396216
 20
2.5648073559
 40
0.0024749995
 50
359.9999571957
 51
90.0000428043
 73
1
 72
1
 10
13.1912396197
 20
2.5672823554
 11
13.1673166065
 21
2.5672823554
 72
2
 10
13.1673166046
 20
2.5697573549
 40
0.0024749995
 50
179.9999571957
 51
270.0000428043
 73
1
 72
1
 10
13.1648416051
 20
2.5697573568
 11
13.1648416051
 21
2.5895573678
 72
2
 10
13.1673166046
 20
2.5895573696
 40
0.0024749995
 50
89.9999571958
 51
180.0000428043
 73
1
 72
1
 10
13.1673166065
 20
2.5920323691
 11
13.3691097184
 21
2.5920323691
 72
2
 10
13.3691097202
 20
2.5895573696
 40
0.0024749995
 50
359.9999571957
 51
90.0000428042
 73
1
 72
1
 10
13.3715847197
 20
2.5895573678
 11
13.3715847197
 21
2.5565573495
 72
2
 10
13.3691097202
 20
2.5565573476
 40
0.0024749995
 50
269.9999571956
 51
0.0000428042
 73
1
 72
1
 10
13.3691097184
 20
2.5540823481
 11
13.3272456952
 21
2.5540823481
 72
2
 10
13.3272456933
 20
2.5565573476
 40
0.0024749995
 50
179.9999571957
 51
270.0000428043
 73
1
 72
1
 10
13.3247706938
 20
2.5565573495
 11
13.3247706938
 21
2.564807354
 72
2
 10
13.3222956943
 20
2.5648073559
 40
0.0024749995
 50
359.9999571957
 51
90.0000428043
 73
1
 72
1
 10
13.3222956924
 20
2.5672823554
 11
13.2582556569
 21
2.5672823554
 72
2
 10
13.2582556551
 20
2.5648073559
 40
0.0024749995
 50
89.9999571957
 51
180.0000428043
 73
1
 72
1
 10
13.2557806555
 20
2.564807354
 11
13.2557806555
 21
2.5532573476
 72
2
 10
13.2582556551
 20
2.5532573458
 40
0.0024749995
 50
179.9999571957
 51
270.0000428042
 73
1
 72
1
 10
13.2582556569
 20
2.5507823463
 11
13.2934226764
 21
2.5507823463
 72
2
 10
13.2934226783
 20
2.5483073467
 40
0.0024749995
 50
359.9999571957
 51
90.0000428042
 73
1
 72
1
 10
13.2958976778
 20
2.5483073449
 11
13.2958976778
 21
2.5349523375
 72
2
 10
13.2934226783
 20
2.5349523356
 40
0.0024749995
 50
269.9999571956
 51
0.0000428042
 73
1
 72
1
 10
13.2934226764
 20
2.5324773361
 11
13.2582556569
 21
2.5324773361
 72
2
 10
13.2582556551
 20
2.5300023366
 40
0.0024749995
 50
89.9999571957
 51
180.0000428043
 73
1
 72
1
 10
13.2557806555
 20
2.5300023347
 11
13.2557806555
 21
2.5184523283
 72
2
 10
13.2582556551
 20
2.5184523265
 40
0.0024749995
 50
179.9999571957
 51
270.0000428043
 73
1
 72
1
 10
13.2582556569
 20
2.515977327
 11
13.3232596929
 21
2.515977327
 72
2
 10
13.3232596948
 20
2.5184523265
 40
0.0024749995
 50
269.9999571958
 51
0.0000428043
 73
1
 72
1
 10
13.3257346943
 20
2.5184523283
 11
13.3257346943
 21
2.5267023329
 72
2
 10
13.3282096938
 20
2.5267023348
 40
0.0024749995
 50
89.9999571957
 51
180.0000428043
 73
1
 72
1
 10
13.3282096957
 20
2.5291773343
 11
13.3705287192
 21
2.5291773343
 72
2
 10
13.370528721
 20
2.5267023348
 40
0.0024749995
 50
359.9999571957
 51
90.0000428043
 73
1
 72
1
 10
13.3730037205
 20
2.5267023329
 11
13.3730037205
 21
2.4937023146
 72
2
 10
13.370528721
 20
2.4937023128
 40
0.0024749995
 50
269.9999571957
 51
0.0000428043
 73
1
 72
1
 10
13.3705287192
 20
2.4912273132
 11
13.1673166065
 21
2.4912273132
 97
267
330
297
330
298
330
299
330
29A
330
29B
330
29C
330
29D
330
29E
330
29F
330
2A0
330
2A1
330
2A2
330
2A3
330
2A4
330
2A5
330
2A6
330
2A7
330
2A8
330
2A9
330
2AA
330
2AB
330
2AC
330
2AD
330
2AE
330
2AF
330
2B0
330
2B1
330
2B2
330
2B3
330
2B4
330
2B5
330
2B6
330
2B7
330
2B8
330
2B9
330
2BA
330
2BB
330
2BC
330
2BD
330
2BE
330
2BF
330
2C0
330
2C1
330
2C2
330
2C3
330
2C4
330
2C5
330
2C6
330
2C7
330
2C8
330
2C9
330
2CA
330
2CB
330
2CC
330
2CD
330
2CE
330
2CF
330
2D0
330
2D1
330
2D2
330
2D3
330
2D4
330
2D5
330
2D6
330
2D7
330
2D8
330
2D9
330
2DA
330
2DB
330
2DC
330
2DD
330
2DE
330
2DF
330
2E0
330
2E1
330
2E2
330
2E3
330
2E4
330
2E5
330
2E6
330
2E7
330
2E8
330
2E9
330
2EA
330
2EB
330
2EC
330
2ED
330
2EE
330
2EF
330
2F0
330
2F1
330
2F2
330
2F3
330
2F4
330
2F5
330
2F6
330
2F7
330
2F8
330
2F9
330
2FA
330
2FB
330
2FC
330
2FD
330
2FE
330
2FF
330
300
330
301
330
302
330
303
330
304
330
305
330
306
330
307
330
308
330
309
330
30A
330
30B
330
30C
330
30D
330
30E
330
30F
330
310
330
311
330
312
330
313
330
314
330
315
330
316
330
317
330
318
330
319
330
31A
330
31B
330
31C
330
31D
330
31E
330
31F
330
320
330
321
330
322
330
323
330
324
330
325
330
326
330
327
330
328
330
329
330
32A
330
32B
330
32C
330
32D
330
32E
330
32F
330
330
330
331
330
332
330
333
330
334
330
335
330
336
330
337
330
338
330
339
330
33A
330
33B
330
33C
330
33D
330
33E
330
33F
330
340
330
341
330
342
330
343
330
344
330
345
330
346
330
347
330
348
330
349
330
34A
330
34B
330
34C
330
34D
330
34E
330
34F
330
350
330
351
330
352
330
353
330
354
330
355
330
356
330
357
330
358
330
359
330
35A
330
35B
330
35C
330
35D
330
35E
330
35F
330
360
330
361
330
362
330
363
330
364
330
365
330
366
330
367
330
368
330
369
330
36A
330
36B
330
36C
330
36D
330
36E
330
36F
330
370
330
371
330
372
330
373
330
374
330
375
330
376
330
377
330
378
330
379
330
37A
330
37B
330
37C
330
37D
330
37E
330
37F
330
380
330
381
330
382
330
383
330
384
330
385
330
386
330
387
330
388
330
389
330
38A
330
38B
330
38C
330
38D
330
38E
330
38F
330
390
330
391
330
392
330
393
330
394
330
395
330
396
330
397
330
398
330
399
330
39A
330
39B
330
39C
330
39D
330
39E
330
39F
330
3A0
330
3A1
 92
1
 93
40
 72
2
 10
13.0426374026
 20
2.493701481
 40
0.0024741678
 50
226.3477981898
 51
270.0031206038
 73
1
 72
1
 10
13.0409295364
 20
2.4919113136
 11
12.9776495013
 21
2.5522893471
 72
2
 10
12.9759408003
 20
2.5504984093
 40
0.0024753014
 50
46.3461263059
 51
180.0014637321
 73
1
 72
1
 10
12.973465499
 20
2.5504983461
 11
12.973465499
 21
2.5184523283
 72
2
 10
12.9759404985
 20
2.5184523265
 40
0.0024749995
 50
179.9999571957
 51
270.0000428043
 73
1
 72
1
 10
12.9759405003
 20
2.515977327
 11
12.9962575116
 21
2.515977327
 72
2
 10
12.9962575135
 20
2.5135023274
 40
0.0024749995
 50
359.9999571957
 51
90.0000428043
 73
1
 72
1
 10
12.998732513
 20
2.5135023256
 11
12.998732513
 21
2.4937023146
 72
2
 10
12.9962575135
 20
2.4937023128
 40
0.0024749995
 50
269.9999571957
 51
0.0000428043
 73
1
 72
1
 10
12.9962575116
 20
2.4912273132
 11
12.9205934696
 21
2.4912273132
 72
2
 10
12.9205934678
 20
2.4937023128
 40
0.0024749995
 50
179.9999571957
 51
270.0000428043
 73
1
 72
1
 10
12.9181184683
 20
2.4937023146
 11
12.9181184683
 21
2.5135023256
 72
2
 10
12.9205934678
 20
2.5135023274
 40
0.0024749995
 50
89.9999571956
 51
180.0000428042
 73
1
 72
1
 10
12.9205934696
 20
2.515977327
 11
12.93923948
 21
2.515977327
 72
2
 10
12.9392394818
 20
2.5184523265
 40
0.0024749995
 50
269.9999571957
 51
0.0000428043
 73
1
 72
1
 10
12.9417144814
 20
2.5184523283
 11
12.9417144814
 21
2.564807354
 72
2
 10
12.9392394818
 20
2.5648073559
 40
0.0024749995
 50
359.9999571957
 51
90.0000428043
 73
1
 72
1
 10
12.93923948
 20
2.5672823554
 11
12.9205934696
 21
2.5672823554
 72
2
 10
12.9205934678
 20
2.5697573549
 40
0.0024749995
 50
179.9999571957
 51
270.0000428043
 73
1
 72
1
 10
12.9181184683
 20
2.5697573568
 11
12.9181184683
 21
2.5895573678
 72
2
 10
12.9205934678
 20
2.5895573696
 40
0.0024749995
 50
89.9999571956
 51
180.0000428042
 73
1
 72
1
 10
12.9205934696
 20
2.5920323691
 11
13.0210515254
 21
2.5920323691
 72
2
 10
13.0210516601
 20
2.5895582013
 40
0.0024741678
 50
46.3477981898
 51
90.0031206038
 73
1
 72
1
 10
13.0227595263
 20
2.5913483688
 11
13.0827925596
 21
2.534068337
 72
2
 10
13.0845012605
 20
2.5358592748
 40
0.0024753014
 50
226.3461263059
 51
0.0014637321
 73
1
 72
1
 10
13.0869765619
 20
2.535859338
 11
13.0869765619
 21
2.564807354
 72
2
 10
13.0845015624
 20
2.5648073559
 40
0.0024749995
 50
359.9999571957
 51
90.0000428043
 73
1
 72
1
 10
13.0845015605
 20
2.5672823554
 11
13.0657255501
 21
2.5672823554
 72
2
 10
13.0657255483
 20
2.5697573549
 40
0.0024749995
 50
179.9999571957
 51
270.0000428043
 73
1
 72
1
 10
13.0632505488
 20
2.5697573568
 11
13.0632505488
 21
2.5895573678
 72
2
 10
13.0657255483
 20
2.5895573696
 40
0.0024749995
 50
89.9999571957
 51
180.0000428043
 73
1
 72
1
 10
13.0657255501
 20
2.5920323691
 11
13.1397265912
 21
2.5920323691
 72
2
 10
13.139726593
 20
2.5895573696
 40
0.0024749995
 50
359.9999571957
 51
90.0000428043
 73
1
 72
1
 10
13.1422015925
 20
2.5895573678
 11
13.1422015925
 21
2.5697573568
 72
2
 10
13.139726593
 20
2.5697573549
 40
0.0024749995
 50
269.9999571956
 51
0.0000428042
 73
1
 72
1
 10
13.1397265912
 20
2.5672823554
 11
13.1217935812
 21
2.5672823554
 72
2
 10
13.1217935794
 20
2.5648073559
 40
0.0024749995
 50
89.9999571957
 51
180.0000428042
 73
1
 72
1
 10
13.1193185799
 20
2.564807354
 11
13.1193185799
 21
2.4937023146
 72
2
 10
13.1168435803
 20
2.4937023128
 40
0.0024749995
 50
269.9999571957
 51
0.0000428043
 73
1
 72
1
 10
13.1168435785
 20
2.4912273132
 11
13.0426375373
 21
2.4912273132
 97
267
330
297
330
298
330
299
330
29A
330
29B
330
29C
330
29D
330
29E
330
29F
330
2A0
330
2A1
330
2A2
330
2A3
330
2A4
330
2A5
330
2A6
330
2A7
330
2A8
330
2A9
330
2AA
330
2AB
330
2AC
330
2AD
330
2AE
330
2AF
330
2B0
330
2B1
330
2B2
330
2B3
330
2B4
330
2B5
330
2B6
330
2B7
330
2B8
330
2B9
330
2BA
330
2BB
330
2BC
330
2BD
330
2BE
330
2BF
330
2C0
330
2C1
330
2C2
330
2C3
330
2C4
330
2C5
330
2C6
330
2C7
330
2C8
330
2C9
330
2CA
330
2CB
330
2CC
330
2CD
330
2CE
330
2CF
330
2D0
330
2D1
330
2D2
330
2D3
330
2D4
330
2D5
330
2D6
330
2D7
330
2D8
330
2D9
330
2DA
330
2DB
330
2DC
330
2DD
330
2DE
330
2DF
330
2E0
330
2E1
330
2E2
330
2E3
330
2E4
330
2E5
330
2E6
330
2E7
330
2E8
330
2E9
330
2EA
330
2EB
330
2EC
330
2ED
330
2EE
330
2EF
330
2F0
330
2F1
330
2F2
330
2F3
330
2F4
330
2F5
330
2F6
330
2F7
330
2F8
330
2F9
330
2FA
330
2FB
330
2FC
330
2FD
330
2FE
330
2FF
330
300
330
301
330
302
330
303
330
304
330
305
330
306
330
307
330
308
330
309
330
30A
330
30B
330
30C
330
30D
330
30E
330
30F
330
310
330
311
330
312
330
313
330
314
330
315
330
316
330
317
330
318
330
319
330
31A
330
31B
330
31C
330
31D
330
31E
330
31F
330
320
330
321
330
322
330
323
330
324
330
325
330
326
330
327
330
328
330
329
330
32A
330
32B
330
32C
330
32D
330
32E
330
32F
330
330
330
331
330
332
330
333
330
334
330
335
330
336
330
337
330
338
330
339
330
33A
330
33B
330
33C
330
33D
330
33E
330
33F
330
340
330
341
330
342
330
343
330
344
330
345
330
346
330
347
330
348
330
349
330
34A
330
34B
330
34C
330
34D
330
34E
330
34F
330
350
330
351
330
352
330
353
330
354
330
355
330
356
330
357
330
358
330
359
330
35A
330
35B
330
35C
330
35D
330
35E
330
35F
330
360
330
361
330
362
330
363
330
364
330
365
330
366
330
367
330
368
330
369
330
36A
330
36B
330
36C
330
36D
330
36E
330
36F
330
370
330
371
330
372
330
373
330
374
330
375
330
376
330
377
330
378
330
379
330
37A
330
37B
330
37C
330
37D
330
37E
330
37F
330
380
330
381
330
382
330
383
330
384
330
385
330
386
330
387
330
388
330
389
330
38A
330
38B
330
38C
330
38D
330
38E
330
38F
330
390
330
391
330
392
330
393
330
394
330
395
330
396
330
397
330
398
330
399
330
39A
330
39B
330
39C
330
39D
330
39E
330
39F
330
3A0
330
3A1
 92
1
 93
40
 72
2
 10
12.7943847649
 20
2.4937027294
 40
0.0024754162
 50
226.3593695813
 51
270.0146919953
 73
1
 72
1
 10
12.7926763987
 20
2.4919113136
 11
12.7293963636
 21
2.5522893471
 72
2
 10
12.7276876627
 20
2.5504984093
 40
0.0024753014
 50
46.3461263059
 51
180.0014637321
 73
1
 72
1
 10
12.7252123613
 20
2.5504983461
 11
12.7252123613
 21
2.5184523283
 72
2
 10
12.7276873608
 20
2.5184523265
 40
0.0024749995
 50
179.9999571957
 51
270.0000428043
 73
1
 72
1
 10
12.7276873627
 20
2.515977327
 11
12.7480043739
 21
2.515977327
 72
2
 10
12.7480043758
 20
2.5135023274
 40
0.0024749995
 50
359.9999571957
 51
90.0000428043
 73
1
 72
1
 10
12.7504793753
 20
2.5135023256
 11
12.7504793753
 21
2.4937023146
 72
2
 10
12.7480043758
 20
2.4937023128
 40
0.0024749995
 50
269.9999571958
 51
0.0000428043
 73
1
 72
1
 10
12.7480043739
 20
2.4912273132
 11
12.672340332
 21
2.4912273132
 72
2
 10
12.6723403301
 20
2.4937023128
 40
0.0024749995
 50
179.9999571957
 51
270.0000428042
 73
1
 72
1
 10
12.6698653306
 20
2.4937023146
 11
12.6698653306
 21
2.5135023256
 72
2
 10
12.6723403301
 20
2.5135023274
 40
0.0024749995
 50
89.9999571957
 51
180.0000428043
 73
1
 72
1
 10
12.672340332
 20
2.515977327
 11
12.6909873423
 21
2.515977327
 72
2
 10
12.6909873442
 20
2.5184523265
 40
0.0024749995
 50
269.9999571957
 51
0.0000428043
 73
1
 72
1
 10
12.6934623437
 20
2.5184523283
 11
12.6934623437
 21
2.564807354
 72
2
 10
12.6909873442
 20
2.5648073559
 40
0.0024749995
 50
359.9999571957
 51
90.0000428043
 73
1
 72
1
 10
12.6909873423
 20
2.5672823554
 11
12.672340332
 21
2.5672823554
 72
2
 10
12.6723403301
 20
2.5697573549
 40
0.0024749995
 50
179.9999571957
 51
270.0000428043
 73
1
 72
1
 10
12.6698653306
 20
2.5697573568
 11
12.6698653306
 21
2.5895573678
 72
2
 10
12.6723403301
 20
2.5895573696
 40
0.0024749995
 50
89.9999571957
 51
180.0000428043
 73
1
 72
1
 10
12.672340332
 20
2.5920323691
 11
12.7727983877
 21
2.5920323691
 72
2
 10
12.7727985224
 20
2.5895582013
 40
0.0024741678
 50
46.3477981899
 51
90.0031206038
 73
1
 72
1
 10
12.7745063886
 20
2.5913483688
 11
12.8345394219
 21
2.534068337
 72
2
 10
12.8362481229
 20
2.5358592748
 40
0.0024753014
 50
226.3461263059
 51
0.0014637321
 73
1
 72
1
 10
12.8387234242
 20
2.535859338
 11
12.8387234242
 21
2.564807354
 72
2
 10
12.8362484247
 20
2.5648073559
 40
0.0024749995
 50
359.9999571957
 51
90.0000428043
 73
1
 72
1
 10
12.8362484229
 20
2.5672823554
 11
12.8174724125
 21
2.5672823554
 72
2
 10
12.8174724106
 20
2.5697573549
 40
0.0024749995
 50
179.9999571957
 51
270.0000428043
 73
1
 72
1
 10
12.8149974111
 20
2.5697573568
 11
12.8149974111
 21
2.5895573678
 72
2
 10
12.8174724106
 20
2.5895573696
 40
0.0024749995
 50
89.9999571958
 51
180.0000428043
 73
1
 72
1
 10
12.8174724125
 20
2.5920323691
 11
12.8914734535
 21
2.5920323691
 72
2
 10
12.8914734553
 20
2.5895573696
 40
0.0024749995
 50
359.9999571957
 51
90.0000428042
 73
1
 72
1
 10
12.8939484549
 20
2.5895573678
 11
12.8939484549
 21
2.5697573568
 72
2
 10
12.8914734553
 20
2.5697573549
 40
0.0024749995
 50
269.9999571958
 51
0.0000428043
 73
1
 72
1
 10
12.8914734535
 20
2.5672823554
 11
12.8735404436
 21
2.5672823554
 72
2
 10
12.8735404417
 20
2.5648073559
 40
0.0024749995
 50
89.9999571957
 51
180.0000428043
 73
1
 72
1
 10
12.8710654422
 20
2.564807354
 11
12.8710654422
 21
2.4937023146
 72
2
 10
12.8685904427
 20
2.4937023128
 40
0.0024749995
 50
269.9999571957
 51
0.0000428043
 73
1
 72
1
 10
12.8685904408
 20
2.4912273132
 11
12.7943853997
 21
2.4912273132
 97
267
330
297
330
298
330
299
330
29A
330
29B
330
29C
330
29D
330
29E
330
29F
330
2A0
330
2A1
330
2A2
330
2A3
330
2A4
330
2A5
330
2A6
330
2A7
330
2A8
330
2A9
330
2AA
330
2AB
330
2AC
330
2AD
330
2AE
330
2AF
330
2B0
330
2B1
330
2B2
330
2B3
330
2B4
330
2B5
330
2B6
330
2B7
330
2B8
330
2B9
330
2BA
330
2BB
330
2BC
330
2BD
330
2BE
330
2BF
330
2C0
330
2C1
330
2C2
330
2C3
330
2C4
330
2C5
330
2C6
330
2C7
330
2C8
330
2C9
330
2CA
330
2CB
330
2CC
330
2CD
330
2CE
330
2CF
330
2D0
330
2D1
330
2D2
330
2D3
330
2D4
330
2D5
330
2D6
330
2D7
330
2D8
330
2D9
330
2DA
330
2DB
330
2DC
330
2DD
330
2DE
330
2DF
330
2E0
330
2E1
330
2E2
330
2E3
330
2E4
330
2E5
330
2E6
330
2E7
330
2E8
330
2E9
330
2EA
330
2EB
330
2EC
330
2ED
330
2EE
330
2EF
330
2F0
330
2F1
330
2F2
330
2F3
330
2F4
330
2F5
330
2F6
330
2F7
330
2F8
330
2F9
330
2FA
330
2FB
330
2FC
330
2FD
330
2FE
330
2FF
330
300
330
301
330
302
330
303
330
304
330
305
330
306
330
307
330
308
330
309
330
30A
330
30B
330
30C
330
30D
330
30E
330
30F
330
310
330
311
330
312
330
313
330
314
330
315
330
316
330
317
330
318
330
319
330
31A
330
31B
330
31C
330
31D
330
31E
330
31F
330
320
330
321
330
322
330
323
330
324
330
325
330
326
330
327
330
328
330
329
330
32A
330
32B
330
32C
330
32D
330
32E
330
32F
330
330
330
331
330
332
330
333
330
334
330
335
330
336
330
337
330
338
330
339
330
33A
330
33B
330
33C
330
33D
330
33E
330
33F
330
340
330
341
330
342
330
343
330
344
330
345
330
346
330
347
330
348
330
349
330
34A
330
34B
330
34C
330
34D
330
34E
330
34F
330
350
330
351
330
352
330
353
330
354
330
355
330
356
330
357
330
358
330
359
330
35A
330
35B
330
35C
330
35D
330
35E
330
35F
330
360
330
361
330
362
330
363
330
364
330
365
330
366
330
367
330
368
330
369
330
36A
330
36B
330
36C
330
36D
330
36E
330
36F
330
370
330
371
330
372
330
373
330
374
330
375
330
376
330
377
330
378
330
379
330
37A
330
37B
330
37C
330
37D
330
37E
330
37F
330
380
330
381
330
382
330
383
330
384
330
385
330
386
330
387
330
388
330
389
330
38A
330
38B
330
38C
330
38D
330
38E
330
38F
330
390
330
391
330
392
330
393
330
394
330
395
330
396
330
397
330
398
330
399
330
39A
330
39B
330
39C
330
39D
330
39E
330
39F
330
3A0
330
3A1
 92
1
 93
23
 72
2
 10
12.3792298263
 20
2.539634765
 40
0.048483885
 50
273.21763719
 51
303.0749121182
 73
1
 72
2
 10
12.3940692204
 20
2.5168671561
 40
0.0213072145
 50
303.0488228549
 51
355.7263138674
 73
1
 72
2
 10
12.400005721
 20
2.5168763464
 40
0.0153945295
 50
354.0454548824
 51
5.1878013979
 73
1
 72
2
 10
12.3931760319
 20
2.5166878286
 40
0.0222174455
 50
4.0793399388
 51
69.834329283
 73
1
 72
1
 10
12.4008351814
 20
2.5375433389
 11
12.3907841758
 21
2.5410923409
 72
1
 10
12.3907841758
 20
2.5410923409
 11
12.3990241804
 21
2.5458683435
 72
2
 10
12.3771587979
 20
2.5826952352
 40
0.0428289026
 50
300.6990502959
 51
319.0591802498
 73
1
 72
2
 10
12.3971873948
 20
2.5665668817
 40
0.0171568255
 50
315.9145124245
 51
16.0049121282
 73
1
 72
2
 10
12.3922357827
 20
2.5632132173
 40
0.0229166529
 50
20.6563876465
 51
62.3316896973
 73
1
 72
2
 10
12.371573659
 20
2.5302846524
 40
0.061747717
 50
59.5385584989
 51
90.0050977555
 73
1
 72
1
 10
12.3715681652
 20
2.5920323691
 11
12.2055050731
 21
2.5920323691
 72
2
 10
12.2055050712
 20
2.5895573696
 40
0.0024749995
 50
89.9999571957
 51
180.0000428043
 73
1
 72
1
 10
12.2030300717
 20
2.5895573678
 11
12.2030300717
 21
2.5697573568
 72
2
 10
12.2055050712
 20
2.5697573549
 40
0.0024749995
 50
179.9999571957
 51
270.0000428043
 73
1
 72
1
 10
12.2055050731
 20
2.5672823554
 11
12.2294470864
 21
2.5672823554
 72
2
 10
12.2294470882
 20
2.5648073559
 40
0.0024749995
 50
359.9999571957
 51
90.0000428043
 73
1
 72
1
 10
12.2319220877
 20
2.564807354
 11
12.2319220877
 21
2.5184523283
 72
2
 10
12.2294470882
 20
2.5184523265
 40
0.0024749995
 50
269.9999571957
 51
0.0000428043
 73
1
 72
1
 10
12.2294470864
 20
2.515977327
 11
12.2055050731
 21
2.515977327
 72
2
 10
12.2055050712
 20
2.5135023274
 40
0.0024749995
 50
89.9999571957
 51
180.0000428043
 73
1
 72
1
 10
12.2030300717
 20
2.5135023256
 11
12.2030300717
 21
2.4937023146
 72
2
 10
12.2055050712
 20
2.4937023128
 40
0.0024749995
 50
179.9999571957
 51
270.0000428043
 73
1
 72
1
 10
12.2055050731
 20
2.4912273132
 11
12.3819511709
 21
2.4912273132
 97
267
330
297
330
298
330
299
330
29A
330
29B
330
29C
330
29D
330
29E
330
29F
330
2A0
330
2A1
330
2A2
330
2A3
330
2A4
330
2A5
330
2A6
330
2A7
330
2A8
330
2A9
330
2AA
330
2AB
330
2AC
330
2AD
330
2AE
330
2AF
330
2B0
330
2B1
330
2B2
330
2B3
330
2B4
330
2B5
330
2B6
330
2B7
330
2B8
330
2B9
330
2BA
330
2BB
330
2BC
330
2BD
330
2BE
330
2BF
330
2C0
330
2C1
330
2C2
330
2C3
330
2C4
330
2C5
330
2C6
330
2C7
330
2C8
330
2C9
330
2CA
330
2CB
330
2CC
330
2CD
330
2CE
330
2CF
330
2D0
330
2D1
330
2D2
330
2D3
330
2D4
330
2D5
330
2D6
330
2D7
330
2D8
330
2D9
330
2DA
330
2DB
330
2DC
330
2DD
330
2DE
330
2DF
330
2E0
330
2E1
330
2E2
330
2E3
330
2E4
330
2E5
330
2E6
330
2E7
330
2E8
330
2E9
330
2EA
330
2EB
330
2EC
330
2ED
330
2EE
330
2EF
330
2F0
330
2F1
330
2F2
330
2F3
330
2F4
330
2F5
330
2F6
330
2F7
330
2F8
330
2F9
330
2FA
330
2FB
330
2FC
330
2FD
330
2FE
330
2FF
330
300
330
301
330
302
330
303
330
304
330
305
330
306
330
307
330
308
330
309
330
30A
330
30B
330
30C
330
30D
330
30E
330
30F
330
310
330
311
330
312
330
313
330
314
330
315
330
316
330
317
330
318
330
319
330
31A
330
31B
330
31C
330
31D
330
31E
330
31F
330
320
330
321
330
322
330
323
330
324
330
325
330
326
330
327
330
328
330
329
330
32A
330
32B
330
32C
330
32D
330
32E
330
32F
330
330
330
331
330
332
330
333
330
334
330
335
330
336
330
337
330
338
330
339
330
33A
330
33B
330
33C
330
33D
330
33E
330
33F
330
340
330
341
330
342
330
343
330
344
330
345
330
346
330
347
330
348
330
349
330
34A
330
34B
330
34C
330
34D
330
34E
330
34F
330
350
330
351
330
352
330
353
330
354
330
355
330
356
330
357
330
358
330
359
330
35A
330
35B
330
35C
330
35D
330
35E
330
35F
330
360
330
361
330
362
330
363
330
364
330
365
330
366
330
367
330
368
330
369
330
36A
330
36B
330
36C
330
36D
330
36E
330
36F
330
370
330
371
330
372
330
373
330
374
330
375
330
376
330
377
330
378
330
379
330
37A
330
37B
330
37C
330
37D
330
37E
330
37F
330
380
330
381
330
382
330
383
330
384
330
385
330
386
330
387
330
388
330
389
330
38A
330
38B
330
38C
330
38D
330
38E
330
38F
330
390
330
391
330
392
330
393
330
394
330
395
330
396
330
397
330
398
330
399
330
39A
330
39B
330
39C
330
39D
330
39E
330
39F
330
3A0
330
3A1
 92
1
 93
32
 72
2
 10
12.5168642476
 20
2.4937023128
 40
0.0024749995
 50
269.9999571957
 51
0.0000428043
 73
1
 72
1
 10
12.5193392471
 20
2.4937023146
 11
12.5193392471
 21
2.5135023256
 72
2
 10
12.5168642476
 20
2.5135023274
 40
0.0024749995
 50
359.9999571957
 51
90.0000428043
 73
1
 72
1
 10
12.5168642458
 20
2.515977327
 11
12.5055812395
 21
2.515977327
 72
2
 10
12.5055811302
 20
2.518452367
 40
0.0024750401
 50
147.6063258011
 51
270.0025305754
 73
1
 72
1
 10
12.5034912383
 20
2.5197783291
 11
12.5090072414
 21
2.5284723339
 72
2
 10
12.5110971723
 20
2.5271461342
 40
0.0024752003
 50
89.998372645
 51
147.602165307
 73
1
 72
1
 10
12.5110972426
 20
2.5296213345
 11
12.5459752619
 21
2.5296213345
 72
2
 10
12.5459747223
 20
2.5271458744
 40
0.0024754602
 50
32.8959418573
 51
89.9875097202
 73
1
 72
1
 10
12.548053263
 20
2.5284903339
 11
12.5536792662
 21
2.5197973291
 72
2
 10
12.5516012439
 20
2.5184525341
 40
0.0024752071
 50
270.0004896794
 51
32.9089806818
 73
1
 72
1
 10
12.551601265
 20
2.515977327
 11
12.537150257
 21
2.515977327
 72
2
 10
12.5371502552
 20
2.5135023274
 40
0.0024749995
 50
89.9999571958
 51
180.0000428043
 73
1
 72
1
 10
12.5346752556
 20
2.5135023256
 11
12.5346752556
 21
2.4937023146
 72
2
 10
12.5371502552
 20
2.4937023128
 40
0.0024749995
 50
179.9999571957
 51
270.0000428042
 73
1
 72
1
 10
12.537150257
 20
2.4912273132
 11
12.6424313154
 21
2.4912273132
 72
2
 10
12.6424313172
 20
2.4937023128
 40
0.0024749995
 50
269.9999571957
 51
0.0000428043
 73
1
 72
1
 10
12.6449063168
 20
2.4937023146
 11
12.6449063168
 21
2.5135023256
 72
2
 10
12.6424313172
 20
2.5135023274
 40
0.0024749995
 50
359.9999571957
 51
90.0000428043
 73
1
 72
1
 10
12.6424313154
 20
2.515977327
 11
12.6224153043
 21
2.515977327
 72
2
 10
12.6224154248
 20
2.518451368
 40
0.002474041
 50
212.9056413127
 51
269.9972091756
 73
1
 72
1
 10
12.6203383031
 20
2.5171073276
 11
12.5725822767
 21
2.5909023685
 72
2
 10
12.570504655
 20
2.589557409
 40
0.0024749602
 50
32.9172174468
 51
90.0087853097
 73
1
 72
1
 10
12.5705042755
 20
2.5920323691
 11
12.5133292438
 21
2.5920323691
 72
2
 10
12.5133291735
 20
2.5895571688
 40
0.0024752003
 50
89.9983726451
 51
147.602165307
 73
1
 72
1
 10
12.5112392426
 20
2.5908833685
 11
12.4644392167
 21
2.5171263276
 72
2
 10
12.4623492858
 20
2.5184525273
 40
0.0024752003
 50
269.9983726451
 51
327.602165307
 73
1
 72
1
 10
12.4623492155
 20
2.515977327
 11
12.4394882028
 21
2.515977327
 72
2
 10
12.439488201
 20
2.5135023274
 40
0.0024749995
 50
89.9999571958
 51
180.0000428043
 73
1
 72
1
 10
12.4370132015
 20
2.5135023256
 11
12.4370132015
 21
2.4937023146
 72
2
 10
12.439488201
 20
2.4937023128
 40
0.0024749995
 50
179.9999571957
 51
270.0000428042
 73
1
 72
1
 10
12.4394882028
 20
2.4912273132
 11
12.5168642458
 21
2.4912273132
 97
267
330
297
330
298
330
299
330
29A
330
29B
330
29C
330
29D
330
29E
330
29F
330
2A0
330
2A1
330
2A2
330
2A3
330
2A4
330
2A5
330
2A6
330
2A7
330
2A8
330
2A9
330
2AA
330
2AB
330
2AC
330
2AD
330
2AE
330
2AF
330
2B0
330
2B1
330
2B2
330
2B3
330
2B4
330
2B5
330
2B6
330
2B7
330
2B8
330
2B9
330
2BA
330
2BB
330
2BC
330
2BD
330
2BE
330
2BF
330
2C0
330
2C1
330
2C2
330
2C3
330
2C4
330
2C5
330
2C6
330
2C7
330
2C8
330
2C9
330
2CA
330
2CB
330
2CC
330
2CD
330
2CE
330
2CF
330
2D0
330
2D1
330
2D2
330
2D3
330
2D4
330
2D5
330
2D6
330
2D7
330
2D8
330
2D9
330
2DA
330
2DB
330
2DC
330
2DD
330
2DE
330
2DF
330
2E0
330
2E1
330
2E2
330
2E3
330
2E4
330
2E5
330
2E6
330
2E7
330
2E8
330
2E9
330
2EA
330
2EB
330
2EC
330
2ED
330
2EE
330
2EF
330
2F0
330
2F1
330
2F2
330
2F3
330
2F4
330
2F5
330
2F6
330
2F7
330
2F8
330
2F9
330
2FA
330
2FB
330
2FC
330
2FD
330
2FE
330
2FF
330
300
330
301
330
302
330
303
330
304
330
305
330
306
330
307
330
308
330
309
330
30A
330
30B
330
30C
330
30D
330
30E
330
30F
330
310
330
311
330
312
330
313
330
314
330
315
330
316
330
317
330
318
330
319
330
31A
330
31B
330
31C
330
31D
330
31E
330
31F
330
320
330
321
330
322
330
323
330
324
330
325
330
326
330
327
330
328
330
329
330
32A
330
32B
330
32C
330
32D
330
32E
330
32F
330
330
330
331
330
332
330
333
330
334
330
335
330
336
330
337
330
338
330
339
330
33A
330
33B
330
33C
330
33D
330
33E
330
33F
330
340
330
341
330
342
330
343
330
344
330
345
330
346
330
347
330
348
330
349
330
34A
330
34B
330
34C
330
34D
330
34E
330
34F
330
350
330
351
330
352
330
353
330
354
330
355
330
356
330
357
330
358
330
359
330
35A
330
35B
330
35C
330
35D
330
35E
330
35F
330
360
330
361
330
362
330
363
330
364
330
365
330
366
330
367
330
368
330
369
330
36A
330
36B
330
36C
330
36D
330
36E
330
36F
330
370
330
371
330
372
330
373
330
374
330
375
330
376
330
377
330
378
330
379
330
37A
330
37B
330
37C
330
37D
330
37E
330
37F
330
380
330
381
330
382
330
383
330
384
330
385
330
386
330
387
330
388
330
389
330
38A
330
38B
330
38C
330
38D
330
38E
330
38F
330
390
330
391
330
392
330
393
330
394
330
395
330
396
330
397
330
398
330
399
330
39A
330
39B
330
39C
330
39D
330
39E
330
39F
330
3A0
330
3A1
 92
1
 93
6
 72
2
 10
12.2949101208
 20
2.5184523265
 40
0.0024749995
 50
179.9999571957
 51
270.0000428043
 73
1
 72
1
 10
12.2924351213
 20
2.5184523283
 11
12.2924351213
 21
2.5308273352
 72
2
 10
12.2949101208
 20
2.530827337
 40
0.0024749995
 50
89.9999571957
 51
180.0000428043
 73
1
 72
1
 10
12.2949101227
 20
2.5333023366
 11
12.3362731456
 21
2.5333023366
 72
2
 10
12.3362731456
 20
2.5246398318
 40
0.0086625048
 50
270.0
 51
90.0
 73
1
 72
1
 10
12.3362731456
 20
2.515977327
 11
12.2949101227
 21
2.515977327
 97
267
330
297
330
298
330
299
330
29A
330
29B
330
29C
330
29D
330
29E
330
29F
330
2A0
330
2A1
330
2A2
330
2A3
330
2A4
330
2A5
330
2A6
330
2A7
330
2A8
330
2A9
330
2AA
330
2AB
330
2AC
330
2AD
330
2AE
330
2AF
330
2B0
330
2B1
330
2B2
330
2B3
330
2B4
330
2B5
330
2B6
330
2B7
330
2B8
330
2B9
330
2BA
330
2BB
330
2BC
330
2BD
330
2BE
330
2BF
330
2C0
330
2C1
330
2C2
330
2C3
330
2C4
330
2C5
330
2C6
330
2C7
330
2C8
330
2C9
330
2CA
330
2CB
330
2CC
330
2CD
330
2CE
330
2CF
330
2D0
330
2D1
330
2D2
330
2D3
330
2D4
330
2D5
330
2D6
330
2D7
330
2D8
330
2D9
330
2DA
330
2DB
330
2DC
330
2DD
330
2DE
330
2DF
330
2E0
330
2E1
330
2E2
330
2E3
330
2E4
330
2E5
330
2E6
330
2E7
330
2E8
330
2E9
330
2EA
330
2EB
330
2EC
330
2ED
330
2EE
330
2EF
330
2F0
330
2F1
330
2F2
330
2F3
330
2F4
330
2F5
330
2F6
330
2F7
330
2F8
330
2F9
330
2FA
330
2FB
330
2FC
330
2FD
330
2FE
330
2FF
330
300
330
301
330
302
330
303
330
304
330
305
330
306
330
307
330
308
330
309
330
30A
330
30B
330
30C
330
30D
330
30E
330
30F
330
310
330
311
330
312
330
313
330
314
330
315
330
316
330
317
330
318
330
319
330
31A
330
31B
330
31C
330
31D
330
31E
330
31F
330
320
330
321
330
322
330
323
330
324
330
325
330
326
330
327
330
328
330
329
330
32A
330
32B
330
32C
330
32D
330
32E
330
32F
330
330
330
331
330
332
330
333
330
334
330
335
330
336
330
337
330
338
330
339
330
33A
330
33B
330
33C
330
33D
330
33E
330
33F
330
340
330
341
330
342
330
343
330
344
330
345
330
346
330
347
330
348
330
349
330
34A
330
34B
330
34C
330
34D
330
34E
330
34F
330
350
330
351
330
352
330
353
330
354
330
355
330
356
330
357
330
358
330
359
330
35A
330
35B
330
35C
330
35D
330
35E
330
35F
330
360
330
361
330
362
330
363
330
364
330
365
330
366
330
367
330
368
330
369
330
36A
330
36B
330
36C
330
36D
330
36E
330
36F
330
370
330
371
330
372
330
373
330
374
330
375
330
376
330
377
330
378
330
379
330
37A
330
37B
330
37C
330
37D
330
37E
330
37F
330
380
330
381
330
382
330
383
330
384
330
385
330
386
330
387
330
388
330
389
330
38A
330
38B
330
38C
330
38D
330
38E
330
38F
330
390
330
391
330
392
330
393
330
394
330
395
330
396
330
397
330
398
330
399
330
39A
330
39B
330
39C
330
39D
330
39E
330
39F
330
3A0
330
3A1
 92
1
 93
13
 72
2
 10
13.4883447827
 20
2.5520823451
 40
0.0024749995
 50
179.9999571957
 51
270.0000428042
 73
1
 72
1
 10
13.4858697831
 20
2.552082347
 11
13.4858697831
 21
2.564807354
 72
2
 10
13.4883447827
 20
2.5648073559
 40
0.0024749995
 50
89.9999571958
 51
180.0000428043
 73
1
 72
1
 10
13.4883447845
 20
2.5672823554
 11
13.5251458049
 21
2.5672823554
 72
2
 10
13.5236009174
 20
2.5388278764
 40
0.0284963867
 50
70.3834917948
 51
86.8922743861
 73
1
 72
2
 10
13.5284605274
 20
2.5518696094
 40
0.0145814632
 50
54.6746025112
 51
71.1660573124
 73
1
 72
2
 10
13.5335900184
 20
2.5587235346
 40
0.0060275915
 50
20.9055592135
 51
56.7851676243
 73
1
 72
2
 10
13.5348905773
 20
2.5593838168
 40
0.0045795888
 50
355.6235353944
 51
18.9942678268
 73
1
 72
2
 10
13.533683767
 20
2.559677593
 40
0.0058087709
 50
318.8515287446
 51
353.6422345323
 73
1
 72
2
 10
13.5295131508
 20
2.5629115009
 40
0.0110815393
 50
306.758405961
 51
320.4502234234
 73
1
 72
2
 10
13.5238839599
 20
2.5706523294
 40
0.0206523367
 50
289.6883413472
 51
306.4184925496
 73
1
 72
2
 10
13.5219564542
 20
2.5750459767
 40
0.0254407115
 50
270.7327484175
 51
290.441894219
 73
1
 72
1
 10
13.5222818033
 20
2.5496073456
 11
13.4883447845
 21
2.5496073456
 97
267
330
297
330
298
330
299
330
29A
330
29B
330
29C
330
29D
330
29E
330
29F
330
2A0
330
2A1
330
2A2
330
2A3
330
2A4
330
2A5
330
2A6
330
2A7
330
2A8
330
2A9
330
2AA
330
2AB
330
2AC
330
2AD
330
2AE
330
2AF
330
2B0
330
2B1
330
2B2
330
2B3
330
2B4
330
2B5
330
2B6
330
2B7
330
2B8
330
2B9
330
2BA
330
2BB
330
2BC
330
2BD
330
2BE
330
2BF
330
2C0
330
2C1
330
2C2
330
2C3
330
2C4
330
2C5
330
2C6
330
2C7
330
2C8
330
2C9
330
2CA
330
2CB
330
2CC
330
2CD
330
2CE
330
2CF
330
2D0
330
2D1
330
2D2
330
2D3
330
2D4
330
2D5
330
2D6
330
2D7
330
2D8
330
2D9
330
2DA
330
2DB
330
2DC
330
2DD
330
2DE
330
2DF
330
2E0
330
2E1
330
2E2
330
2E3
330
2E4
330
2E5
330
2E6
330
2E7
330
2E8
330
2E9
330
2EA
330
2EB
330
2EC
330
2ED
330
2EE
330
2EF
330
2F0
330
2F1
330
2F2
330
2F3
330
2F4
330
2F5
330
2F6
330
2F7
330
2F8
330
2F9
330
2FA
330
2FB
330
2FC
330
2FD
330
2FE
330
2FF
330
300
330
301
330
302
330
303
330
304
330
305
330
306
330
307
330
308
330
309
330
30A
330
30B
330
30C
330
30D
330
30E
330
30F
330
310
330
311
330
312
330
313
330
314
330
315
330
316
330
317
330
318
330
319
330
31A
330
31B
330
31C
330
31D
330
31E
330
31F
330
320
330
321
330
322
330
323
330
324
330
325
330
326
330
327
330
328
330
329
330
32A
330
32B
330
32C
330
32D
330
32E
330
32F
330
330
330
331
330
332
330
333
330
334
330
335
330
336
330
337
330
338
330
339
330
33A
330
33B
330
33C
330
33D
330
33E
330
33F
330
340
330
341
330
342
330
343
330
344
330
345
330
346
330
347
330
348
330
349
330
34A
330
34B
330
34C
330
34D
330
34E
330
34F
330
350
330
351
330
352
330
353
330
354
330
355
330
356
330
357
330
358
330
359
330
35A
330
35B
330
35C
330
35D
330
35E
330
35F
330
360
330
361
330
362
330
363
330
364
330
365
330
366
330
367
330
368
330
369
330
36A
330
36B
330
36C
330
36D
330
36E
330
36F
330
370
330
371
330
372
330
373
330
374
330
375
330
376
330
377
330
378
330
379
330
37A
330
37B
330
37C
330
37D
330
37E
330
37F
330
380
330
381
330
382
330
383
330
384
330
385
330
386
330
387
330
388
330
389
330
38A
330
38B
330
38C
330
38D
330
38E
330
38F
330
390
330
391
330
392
330
393
330
394
330
395
330
396
330
397
330
398
330
399
330
39A
330
39B
330
39C
330
39D
330
39E
330
39F
330
3A0
330
3A1
 92
1
 93
6
 72
2
 10
12.3362731456
 20
2.5586198506
 40
0.0086625048
 50
270.0
 51
90.0
 73
1
 72
1
 10
12.3362731456
 20
2.5672823554
 11
12.2949101227
 21
2.5672823554
 72
2
 10
12.2949101208
 20
2.5648073559
 40
0.0024749995
 50
89.9999571957
 51
180.0000428043
 73
1
 72
1
 10
12.2924351213
 20
2.564807354
 11
12.2924351213
 21
2.5524323472
 72
2
 10
12.2949101208
 20
2.5524323453
 40
0.0024749995
 50
179.9999571957
 51
270.0000428043
 73
1
 72
1
 10
12.2949101227
 20
2.5499573458
 11
12.3362731456
 21
2.5499573458
 97
267
330
297
330
298
330
299
330
29A
330
29B
330
29C
330
29D
330
29E
330
29F
330
2A0
330
2A1
330
2A2
330
2A3
330
2A4
330
2A5
330
2A6
330
2A7
330
2A8
330
2A9
330
2AA
330
2AB
330
2AC
330
2AD
330
2AE
330
2AF
330
2B0
330
2B1
330
2B2
330
2B3
330
2B4
330
2B5
330
2B6
330
2B7
330
2B8
330
2B9
330
2BA
330
2BB
330
2BC
330
2BD
330
2BE
330
2BF
330
2C0
330
2C1
330
2C2
330
2C3
330
2C4
330
2C5
330
2C6
330
2C7
330
2C8
330
2C9
330
2CA
330
2CB
330
2CC
330
2CD
330
2CE
330
2CF
330
2D0
330
2D1
330
2D2
330
2D3
330
2D4
330
2D5
330
2D6
330
2D7
330
2D8
330
2D9
330
2DA
330
2DB
330
2DC
330
2DD
330
2DE
330
2DF
330
2E0
330
2E1
330
2E2
330
2E3
330
2E4
330
2E5
330
2E6
330
2E7
330
2E8
330
2E9
330
2EA
330
2EB
330
2EC
330
2ED
330
2EE
330
2EF
330
2F0
330
2F1
330
2F2
330
2F3
330
2F4
330
2F5
330
2F6
330
2F7
330
2F8
330
2F9
330
2FA
330
2FB
330
2FC
330
2FD
330
2FE
330
2FF
330
300
330
301
330
302
330
303
330
304
330
305
330
306
330
307
330
308
330
309
330
30A
330
30B
330
30C
330
30D
330
30E
330
30F
330
310
330
311
330
312
330
313
330
314
330
315
330
316
330
317
330
318
330
319
330
31A
330
31B
330
31C
330
31D
330
31E
330
31F
330
320
330
321
330
322
330
323
330
324
330
325
330
326
330
327
330
328
330
329
330
32A
330
32B
330
32C
330
32D
330
32E
330
32F
330
330
330
331
330
332
330
333
330
334
330
335
330
336
330
337
330
338
330
339
330
33A
330
33B
330
33C
330
33D
330
33E
330
33F
330
340
330
341
330
342
330
343
330
344
330
345
330
346
330
347
330
348
330
349
330
34A
330
34B
330
34C
330
34D
330
34E
330
34F
330
350
330
351
330
352
330
353
330
354
330
355
330
356
330
357
330
358
330
359
330
35A
330
35B
330
35C
330
35D
330
35E
330
35F
330
360
330
361
330
362
330
363
330
364
330
365
330
366
330
367
330
368
330
369
330
36A
330
36B
330
36C
330
36D
330
36E
330
36F
330
370
330
371
330
372
330
373
330
374
330
375
330
376
330
377
330
378
330
379
330
37A
330
37B
330
37C
330
37D
330
37E
330
37F
330
380
330
381
330
382
330
383
330
384
330
385
330
386
330
387
330
388
330
389
330
38A
330
38B
330
38C
330
38D
330
38E
330
38F
330
390
330
391
330
392
330
393
330
394
330
395
330
396
330
397
330
398
330
399
330
39A
330
39B
330
39C
330
39D
330
39E
330
39F
330
3A0
330
3A1
 92
1
 93
8
 72
2
 10
12.5401702375
 20
2.5530465533
 40
0.0024752071
 50
270.0004896793
 51
32.9089806818
 73
1
 72
1
 10
12.5422482598
 20
2.5543913483
 11
12.5349892558
 21
2.5656073545
 72
2
 10
12.532910715
 20
2.564262895
 40
0.0024754602
 50
32.8959418573
 51
89.9875097202
 73
1
 72
1
 10
12.5329112547
 20
2.5667383551
 11
12.5267302512
 21
2.5667383551
 72
2
 10
12.5267301809
 20
2.5642631548
 40
0.0024752003
 50
89.998372645
 51
147.602165307
 73
1
 72
1
 10
12.5246402501
 20
2.5655893545
 11
12.5175232461
 21
2.5543723483
 72
2
 10
12.519613138
 20
2.5530463862
 40
0.0024750401
 50
147.6063258012
 51
270.0025305754
 73
1
 72
1
 10
12.5196132473
 20
2.5505713461
 11
12.5401702587
 21
2.5505713461
 97
267
330
297
330
298
330
299
330
29A
330
29B
330
29C
330
29D
330
29E
330
29F
330
2A0
330
2A1
330
2A2
330
2A3
330
2A4
330
2A5
330
2A6
330
2A7
330
2A8
330
2A9
330
2AA
330
2AB
330
2AC
330
2AD
330
2AE
330
2AF
330
2B0
330
2B1
330
2B2
330
2B3
330
2B4
330
2B5
330
2B6
330
2B7
330
2B8
330
2B9
330
2BA
330
2BB
330
2BC
330
2BD
330
2BE
330
2BF
330
2C0
330
2C1
330
2C2
330
2C3
330
2C4
330
2C5
330
2C6
330
2C7
330
2C8
330
2C9
330
2CA
330
2CB
330
2CC
330
2CD
330
2CE
330
2CF
330
2D0
330
2D1
330
2D2
330
2D3
330
2D4
330
2D5
330
2D6
330
2D7
330
2D8
330
2D9
330
2DA
330
2DB
330
2DC
330
2DD
330
2DE
330
2DF
330
2E0
330
2E1
330
2E2
330
2E3
330
2E4
330
2E5
330
2E6
330
2E7
330
2E8
330
2E9
330
2EA
330
2EB
330
2EC
330
2ED
330
2EE
330
2EF
330
2F0
330
2F1
330
2F2
330
2F3
330
2F4
330
2F5
330
2F6
330
2F7
330
2F8
330
2F9
330
2FA
330
2FB
330
2FC
330
2FD
330
2FE
330
2FF
330
300
330
301
330
302
330
303
330
304
330
305
330
306
330
307
330
308
330
309
330
30A
330
30B
330
30C
330
30D
330
30E
330
30F
330
310
330
311
330
312
330
313
330
314
330
315
330
316
330
317
330
318
330
319
330
31A
330
31B
330
31C
330
31D
330
31E
330
31F
330
320
330
321
330
322
330
323
330
324
330
325
330
326
330
327
330
328
330
329
330
32A
330
32B
330
32C
330
32D
330
32E
330
32F
330
330
330
331
330
332
330
333
330
334
330
335
330
336
330
337
330
338
330
339
330
33A
330
33B
330
33C
330
33D
330
33E
330
33F
330
340
330
341
330
342
330
343
330
344
330
345
330
346
330
347
330
348
330
349
330
34A
330
34B
330
34C
330
34D
330
34E
330
34F
330
350
330
351
330
352
330
353
330
354
330
355
330
356
330
357
330
358
330
359
330
35A
330
35B
330
35C
330
35D
330
35E
330
35F
330
360
330
361
330
362
330
363
330
364
330
365
330
366
330
367
330
368
330
369
330
36A
330
36B
330
36C
330
36D
330
36E
330
36F
330
370
330
371
330
372
330
373
330
374
330
375
330
376
330
377
330
378
330
379
330
37A
330
37B
330
37C
330
37D
330
37E
330
37F
330
380
330
381
330
382
330
383
330
384
330
385
330
386
330
387
330
388
330
389
330
38A
330
38B
330
38C
330
38D
330
38E
330
38F
330
390
330
391
330
392
330
393
330
394
330
395
330
396
330
397
330
398
330
399
330
39A
330
39B
330
39C
330
39D
330
39E
330
39F
330
3A0
330
3A1
 92
1
 93
1
 72
3
 10
12.9046654608
 20
2.5403783405
 11
-0.8250004575
 21
0.0
 40
0.218572
 50
0.0
 51
-0.0
 73
1
 97
267
330
297
330
298
330
299
330
29A
330
29B
330
29C
330
29D
330
29E
330
29F
330
2A0
330
2A1
330
2A2
330
2A3
330
2A4
330
2A5
330
2A6
330
2A7
330
2A8
330
2A9
330
2AA
330
2AB
330
2AC
330
2AD
330
2AE
330
2AF
330
2B0
330
2B1
330
2B2
330
2B3
330
2B4
330
2B5
330
2B6
330
2B7
330
2B8
330
2B9
330
2BA
330
2BB
330
2BC
330
2BD
330
2BE
330
2BF
330
2C0
330
2C1
330
2C2
330
2C3
330
2C4
330
2C5
330
2C6
330
2C7
330
2C8
330
2C9
330
2CA
330
2CB
330
2CC
330
2CD
330
2CE
330
2CF
330
2D0
330
2D1
330
2D2
330
2D3
330
2D4
330
2D5
330
2D6
330
2D7
330
2D8
330
2D9
330
2DA
330
2DB
330
2DC
330
2DD
330
2DE
330
2DF
330
2E0
330
2E1
330
2E2
330
2E3
330
2E4
330
2E5
330
2E6
330
2E7
330
2E8
330
2E9
330
2EA
330
2EB
330
2EC
330
2ED
330
2EE
330
2EF
330
2F0
330
2F1
330
2F2
330
2F3
330
2F4
330
2F5
330
2F6
330
2F7
330
2F8
330
2F9
330
2FA
330
2FB
330
2FC
330
2FD
330
2FE
330
2FF
330
300
330
301
330
302
330
303
330
304
330
305
330
306
330
307
330
308
330
309
330
30A
330
30B
330
30C
330
30D
330
30E
330
30F
330
310
330
311
330
312
330
313
330
314
330
315
330
316
330
317
330
318
330
319
330
31A
330
31B
330
31C
330
31D
330
31E
330
31F
330
320
330
321
330
322
330
323
330
324
330
325
330
326
330
327
330
328
330
329
330
32A
330
32B
330
32C
330
32D
330
32E
330
32F
330
330
330
331
330
332
330
333
330
334
330
335
330
336
330
337
330
338
330
339
330
33A
330
33B
330
33C
330
33D
330
33E
330
33F
330
340
330
341
330
342
330
343
330
344
330
345
330
346
330
347
330
348
330
349
330
34A
330
34B
330
34C
330
34D
330
34E
330
34F
330
350
330
351
330
352
330
353
330
354
330
355
330
356
330
357
330
358
330
359
330
35A
330
35B
330
35C
330
35D
330
35E
330
35F
330
360
330
361
330
362
330
363
330
364
330
365
330
366
330
367
330
368
330
369
330
36A
330
36B
330
36C
330
36D
330
36E
330
36F
330
370
330
371
330
372
330
373
330
374
330
375
330
376
330
377
330
378
330
379
330
37A
330
37B
330
37C
330
37D
330
37E
330
37F
330
380
330
381
330
382
330
383
330
384
330
385
330
386
330
387
330
388
330
389
330
38A
330
38B
330
38C
330
38D
330
38E
330
38F
330
390
330
391
330
392
330
393
330
394
330
395
330
396
330
397
330
398
330
399
330
39A
330
39B
330
39C
330
39D
330
39E
330
39F
330
3A0
330
3A1
 75
0
 76
1
 98
1
 10
0.0
 20
0.0
  0
LINE
  5
3A3
100
AcDbEntity
  8
0
100
AcDbLine
 62
7
  6
CONTINUOUS
 10
8.5
 20
10.112
 11
8.586603
 21
10.262
  0
LINE
  5
3A4
100
AcDbEntity
  8
0
100
AcDbLine
 62
7
  6
CONTINUOUS
 10
16.38
 20
2.807
 11
10.03
 21
2.807
  0
LINE
  5
3A5
100
AcDbEntity
  8
0
100
AcDbLine
 62
7
  6
CONTINUOUS
 10
0.62
 20
3.1995
 11
0.37
 21
3.1995
  0
LINE
  5
3A6
100
AcDbEntity
  8
0
100
AcDbLine
 62
7
  6
CONTINUOUS
 10
16.38
 20
3.1995
 11
16.63
 21
3.1995
  0
LINE
  5
3A7
100
AcDbEntity
  8
0
100
AcDbLine
 62
7
  6
CONTINUOUS
 10
8.586603
 20
0.737
 11
8.5
 21
0.887
  0
LINE
  5
3A8
100
AcDbEntity
  8
0
100
AcDbLine
 62
7
  6
CONTINUOUS
 10
6.53
 20
0.887
 11
6.53
 21
0.637
  0
LINE
  5
3A9
100
AcDbEntity
  8
0
100
AcDbLine
 62
7
  6
CONTINUOUS
 10
6.53
 20
10.112
 11
6.53
 21
10.362
  0
LINE
  5
3AA
100
AcDbEntity
  8
0
100
AcDbLine
 62
7
  6
CONTINUOUS
 10
8.5
 20
0.887
 11
8.5
 21
0.637
  0
LINE
  5
3AB
100
AcDbEntity
  8
0
100
AcDbLine
 62
7
  6
CONTINUOUS
 10
8.5
 20
10.112
 11
8.5
 21
10.362
  0
LINE
  5
3AC
100
AcDbEntity
  8
0
100
AcDbLine
 62
7
  6
CONTINUOUS
 10
0.62
 20
5.4995
 11
0.37
 21
5.4995
  0
LINE
  5
3AD
100
AcDbEntity
  8
0
100
AcDbLine
 62
7
  6
CONTINUOUS
 10
16.38
 20
5.4995
 11
16.63
 21
5.4995
  0
LINE
  5
3AE
100
AcDbEntity
  8
0
100
AcDbLine
 62
7
  6
CONTINUOUS
 10
10.03
 20
2.807
 11
10.03
 21
0.887
  0
LINE
  5
3AF
100
AcDbEntity
  8
0
100
AcDbLine
 62
7
  6
CONTINUOUS
 10
10.47
 20
0.887
 11
10.47
 21
0.637
  0
LINE
  5
3B0
100
AcDbEntity
  8
0
100
AcDbLine
 62
7
  6
CONTINUOUS
 10
10.47
 20
10.112
 11
10.47
 21
10.362
  0
LINE
  5
3B1
100
AcDbEntity
  8
0
100
AcDbLine
 62
7
  6
CONTINUOUS
 10
10.5342808475
 20
1.143294839
 11
10.5342808475
 21
0.921203839
  0
LINE
  5
3B2
100
AcDbEntity
  8
0
100
AcDbLine
 62
7
  6
CONTINUOUS
 10
10.5342808475
 20
1.193294839
 11
10.5342808475
 21
1.293294839
  0
LINE
  5
3B3
100
AcDbEntity
  8
0
100
AcDbLine
 62
7
  6
CONTINUOUS
 10
10.5342808475
 20
1.343294839
 11
10.5342808475
 21
1.565385839
  0
LINE
  5
3B4
100
AcDbEntity
  8
0
100
AcDbLine
 62
7
  6
CONTINUOUS
 10
8.5
 20
0.887
 11
8.413397
 21
0.737
  0
LINE
  5
3B5
100
AcDbEntity
  8
0
100
AcDbLine
 62
7
  6
CONTINUOUS
 10
0.62
 20
7.7995
 11
0.37
 21
7.7995
  0
LINE
  5
3B6
100
AcDbEntity
  8
0
100
AcDbLine
 62
7
  6
CONTINUOUS
 10
16.38
 20
7.7995
 11
16.63
 21
7.7995
  0
LINE
  5
3B7
100
AcDbEntity
  8
0
100
AcDbLine
 62
7
  6
CONTINUOUS
 10
8.413397
 20
10.262
 11
8.5
 21
10.112
  0
LINE
  5
3B8
100
AcDbEntity
  8
0
100
AcDbLine
 62
7
  6
CONTINUOUS
 10
11.1389508475
 20
1.060596839
 11
11.1389508475
 21
1.425992839
  0
LINE
  5
3B9
100
AcDbEntity
  8
0
100
AcDbLine
 62
7
  6
CONTINUOUS
 10
11.7453418475
 20
1.495385839
 11
11.7453418475
 21
0.991203839
  0
LINE
  5
3BA
100
AcDbEntity
  8
0
100
AcDbLine
 62
7
  6
CONTINUOUS
 10
12.44
 20
0.887
 11
12.44
 21
0.637
  0
LINE
  5
3BB
100
AcDbEntity
  8
0
100
AcDbLine
 62
7
  6
CONTINUOUS
 10
12.44
 20
10.112
 11
12.44
 21
10.362
  0
LINE
  5
3BC
100
AcDbEntity
  8
0
100
AcDbLine
 62
7
  6
CONTINUOUS
 10
16.53
 20
5.586103
 11
16.38
 21
5.4995
  0
LINE
  5
3BD
100
AcDbEntity
  8
0
100
AcDbLine
 62
7
  6
CONTINUOUS
 10
16.38
 20
5.4995
 11
16.53
 21
5.412897
  0
LINE
  5
3BE
100
AcDbEntity
  8
0
100
AcDbLine
 62
7
  6
CONTINUOUS
 10
12.83
 20
1.507
 11
12.83
 21
1.137
  0
LINE
  5
3BF
100
AcDbEntity
  8
0
100
AcDbLine
 62
7
  6
CONTINUOUS
 10
16.38
 20
10.112
 11
0.62
 21
10.112
  0
LINE
  5
3C0
100
AcDbEntity
  8
0
100
AcDbLine
 62
7
  6
CONTINUOUS
 10
8.586603
 20
10.262
 11
8.413397
 21
10.262
  0
LINE
  5
3C1
100
AcDbEntity
  8
0
100
AcDbLine
 62
7
  6
CONTINUOUS
 10
14.205
 20
1.137
 11
14.205
 21
0.887
  0
LINE
  5
3C2
100
AcDbEntity
  8
0
100
AcDbLine
 62
7
  6
CONTINUOUS
 10
14.41
 20
0.887
 11
14.41
 21
0.637
  0
LINE
  5
3C3
100
AcDbEntity
  8
0
100
AcDbLine
 62
7
  6
CONTINUOUS
 10
14.41
 20
10.112
 11
14.41
 21
10.362
  0
LINE
  5
3C4
100
AcDbEntity
  8
0
100
AcDbLine
 62
7
  6
CONTINUOUS
 10
15.58
 20
1.507
 11
15.58
 21
1.137
  0
LINE
  5
3C5
100
AcDbEntity
  8
0
100
AcDbLine
 62
7
  6
CONTINUOUS
 10
16.38
 20
0.887
 11
16.38
 21
10.112
  0
LINE
  5
3C6
100
AcDbEntity
  8
0
100
AcDbLine
 62
7
  6
CONTINUOUS
 10
16.53
 20
5.412897
 11
16.53
 21
5.586103
  0
LINE
  5
3C7
100
AcDbEntity
  8
02___PRT_ALL_AXES
100
AcDbLine
 62
7
  6
CONTINUOUS
 10
4.2823012977
 20
6.1420829304
 11
4.2823012977
 21
5.4285823921
  0
LINE
  5
3C8
100
AcDbEntity
  8
02___PRT_ALL_AXES
100
AcDbLine
 62
7
  6
CONTINUOUS
 10
5.1996241323
 20
6.7695846298
 11
5.1996241323
 21
4.8010806928
  0
LWPOLYLINE
  5
3C9
100
AcDbEntity
  8
0
100
AcDbPolyline
 62
7
  6
CONTINUOUS
 90
10
 70
0
 10
5.8187199941
 20
5.8695031522
 10
5.8215773976
 20
5.7025809593
 10
5.823005895
 20
5.6210314256
 10
5.8244392054
 20
5.5430163316
 10
5.8258907
 20
5.46975063
 10
5.8273446604
 20
5.4038919929
 10
5.8287823814
 20
5.3477215389
 10
5.8302041249
 20
5.302221071
 10
5.8316365662
 20
5.2675385652
 10
5.8330784678
 20
5.2447511955
  0
LINE
  5
3CA
100
AcDbEntity
  8
0
100
AcDbLine
 62
7
  6
CONTINUOUS
 10
5.6720650772
 20
4.8010806928
 11
5.6720650772
 21
6.7695846298
  0
LINE
  5
3CB
100
AcDbEntity
  8
0
100
AcDbLine
 62
7
  6
CONTINUOUS
 10
5.7114351559
 20
4.8404507715
 11
5.7114351559
 21
6.7302145511
  0
LINE
  5
3CC
100
AcDbEntity
  8
0
100
AcDbLine
 62
7
  6
CONTINUOUS
 10
5.7508052347
 20
6.326671244
 11
5.7508052347
 21
5.2439940786
  0
LWPOLYLINE
  5
3CD
100
AcDbEntity
  8
0
100
AcDbPolyline
 62
7
  6
CONTINUOUS
 90
6
 70
0
 10
5.7114351559
 20
5.2061382337
 10
5.7133620647
 20
5.2180702951
 10
5.7189541719
 20
5.2288343632
 10
5.727664083
 20
5.237376776
 10
5.7386392113
 20
5.2428613426
 10
5.7508052347
 20
5.2447511955
  0
LWPOLYLINE
  5
3CE
100
AcDbEntity
  8
0
100
AcDbPolyline
 62
7
  6
CONTINUOUS
 90
6
 70
0
 10
5.7114351559
 20
6.3645270889
 10
5.7133620647
 20
6.3525950276
 10
5.7189541719
 20
6.3418309595
 10
5.7276640831
 20
6.3332885466
 10
5.7386392114
 20
6.3278039799
 10
5.7508052347
 20
6.3259141271
  0
LWPOLYLINE
  5
3CF
100
AcDbEntity
  8
02___PRT_ALL_AXES
100
AcDbPolyline
 62
7
  6
CONTINUOUS
 90
10
 70
0
 10
5.9995525437
 20
5.2439940786
 10
5.9981180279
 20
5.266052492
 10
5.9966863598
 20
5.3001046315
 10
5.9952524251
 20
5.3454734698
 10
5.9938082617
 20
5.4014907616
 10
5.9923468967
 20
5.4673758137
 10
5.990887428
 20
5.540832258
 10
5.9894461359
 20
5.6191556233
 10
5.9880155881
 20
5.7007563538
 10
5.985143725
 20
5.8685166832
  0
LWPOLYLINE
  5
3D0
100
AcDbEntity
  8
02___PRT_ALL_AXES
100
AcDbPolyline
 62
7
  6
CONTINUOUS
 90
9
 70
0
 10
5.8814423075
 20
5.2439940786
 10
5.8799924823
 20
5.2663541799
 10
5.8785521638
 20
5.3007726873
 10
5.8771230865
 20
5.3461494404
 10
5.8756783385
 20
5.4023201375
 10
5.8742169892
 20
5.4683188037
 10
5.8727577671
 20
5.5418536902
 10
5.87131683
 20
5.6202222361
 10
5.8698808812
 20
5.7021746829
  0
LWPOLYLINE
  5
3D1
100
AcDbEntity
  8
02___PRT_ALL_AXES
100
AcDbPolyline
 62
7
  6
CONTINUOUS
 90
9
 70
0
 10
5.9252862722
 20
6.326671244
 10
5.9267357341
 20
6.3043183151
 10
5.9281755211
 20
6.2699176388
 10
5.9296046705
 20
6.2245450264
 10
5.931049592
 20
6.1683725546
 10
5.9325110753
 20
6.1023712298
 10
5.9339703538
 20
6.0288357659
 10
5.9354113446
 20
5.9504657506
 10
5.9368472492
 20
5.8685166832
  0
LWPOLYLINE
  5
3D2
100
AcDbEntity
  8
02___PRT_ALL_AXES
100
AcDbPolyline
 62
7
  6
CONTINUOUS
 90
9
 70
0
 10
5.866231154
 20
6.326671244
 10
5.8676918277
 20
6.3040965258
 10
5.8691480301
 20
6.2691435534
 10
5.8705862941
 20
6.2232399048
 10
5.8720196378
 20
6.1673100706
 10
5.8734553948
 20
6.1023982076
 10
5.8748845154
 20
6.0304506514
 10
5.8763154037
 20
5.9527481908
 10
5.8777567233
 20
5.870568724
  0
LWPOLYLINE
  5
3D3
100
AcDbEntity
  8
02___PRT_ALL_AXES
100
AcDbPolyline
 62
7
  6
CONTINUOUS
 90
9
 70
0
 10
5.9404974256
 20
5.2439940786
 10
5.9390367733
 20
5.2665683722
 10
5.9375805138
 20
5.3015227744
 10
5.9361421841
 20
5.3474290277
 10
5.9347086692
 20
5.4033667776
 10
5.933272532
 20
5.4682984333
 10
5.9318434723
 20
5.5402457578
 10
5.9304127423
 20
5.6179413578
 10
5.9289714808
 20
5.7001183512
  0
LWPOLYLINE
  5
3D4
100
AcDbEntity
  8
0
100
AcDbPolyline
 62
7
  6
CONTINUOUS
 90
9
 70
0
 10
5.8072433998
 20
6.3259141271
 10
5.8086699865
 20
6.303433899
 10
5.8100944245
 20
6.2691010539
 10
5.8115211704
 20
6.2235959838
 10
5.8129581994
 20
6.1675771887
 10
5.8144121176
 20
6.1018299586
 10
5.8158637032
 20
6.0286471078
 10
5.8172971638
 20
5.9506864337
 10
5.8187199941
 20
5.8695031522
  0
LWPOLYLINE
  5
3D5
100
AcDbEntity
  8
02___PRT_ALL_AXES
100
AcDbPolyline
 62
7
  6
CONTINUOUS
 90
16
 70
0
 10
5.8516650957
 20
5.2439940786
 10
5.8501921798
 20
5.2858971504
 10
5.848719264
 20
5.340040491
 10
5.8472463481
 20
5.4050971443
 10
5.8457734323
 20
5.4794726883
 10
5.8443005164
 20
5.5613443119
 10
5.8428276006
 20
5.6487054883
 10
5.8413546847
 20
5.7394151517
 10
5.8398817689
 20
5.8312501709
 10
5.838408853
 20
5.9219598343
 10
5.8369359372
 20
6.0093210107
 10
5.8354630214
 20
6.0911926342
 10
5.8339901055
 20
6.1655681783
 10
5.8325171897
 20
6.2306248316
 10
5.8310442738
 20
6.2847681722
 10
5.829571358
 20
6.326671244
  0
LWPOLYLINE
  5
3D6
100
AcDbEntity
  8
02___PRT_ALL_AXES
100
AcDbPolyline
 62
7
  6
CONTINUOUS
 90
16
 70
0
 10
5.8590469854
 20
5.2439940786
 10
5.8575740696
 20
5.2858971504
 10
5.8561011537
 20
5.340040491
 10
5.8546282379
 20
5.4050971443
 10
5.853155322
 20
5.4794726883
 10
5.8516824062
 20
5.5613443119
 10
5.8502094903
 20
5.6487054883
 10
5.8487365745
 20
5.7394151517
 10
5.8472636587
 20
5.8312501709
 10
5.8457907428
 20
5.9219598343
 10
5.844317827
 20
6.0093210107
 10
5.8428449111
 20
6.0911926342
 10
5.8413719953
 20
6.1655681783
 10
5.8398990794
 20
6.2306248316
 10
5.8384261636
 20
6.2847681722
 10
5.8369532477
 20
6.326671244
  0
LWPOLYLINE
  5
3D7
100
AcDbEntity
  8
02___PRT_ALL_AXES
100
AcDbPolyline
 62
7
  6
CONTINUOUS
 90
16
 70
0
 10
5.9107202138
 20
5.2439940786
 10
5.9092472979
 20
5.2858971504
 10
5.9077743821
 20
5.340040491
 10
5.9063014662
 20
5.4050971443
 10
5.9048285504
 20
5.4794726883
 10
5.9033556345
 20
5.5613443119
 10
5.9018827187
 20
5.6487054883
 10
5.9004098028
 20
5.7394151517
 10
5.898936887
 20
5.8312501709
 10
5.8974639712
 20
5.9219598343
 10
5.8959910553
 20
6.0093210107
 10
5.8945181395
 20
6.0911926342
 10
5.8930452236
 20
6.1655681783
 10
5.8915723078
 20
6.2306248316
 10
5.8900993919
 20
6.2847681722
 10
5.8886264761
 20
6.326671244
  0
LWPOLYLINE
  5
3D8
100
AcDbEntity
  8
02___PRT_ALL_AXES
100
AcDbPolyline
 62
7
  6
CONTINUOUS
 90
5
 70
0
 10
5.9181021035
 20
5.2439940786
 10
5.9166291877
 20
5.2858971504
 10
5.9151562718
 20
5.340040491
 10
5.913683356
 20
5.4050971443
 10
5.9122104401
 20
5.4794726883
  0
LWPOLYLINE
  5
3D9
100
AcDbEntity
  8
02___PRT_ALL_AXES
100
AcDbPolyline
 62
7
  6
CONTINUOUS
 90
16
 70
0
 10
5.9697753319
 20
5.2439940786
 10
5.968302416
 20
5.2858971504
 10
5.9668295002
 20
5.340040491
 10
5.9653565843
 20
5.4050971443
 10
5.9638836685
 20
5.4794726883
 10
5.9624107526
 20
5.5613443119
 10
5.9609378368
 20
5.6487054883
 10
5.959464921
 20
5.7394151517
 10
5.9579920051
 20
5.8312501709
 10
5.9565190893
 20
5.9219598343
 10
5.9550461734
 20
6.0093210107
 10
5.9535732576
 20
6.0911926342
 10
5.9521003417
 20
6.1655681783
 10
5.9506274259
 20
6.2306248316
 10
5.94915451
 20
6.2847681722
 10
5.9476815942
 20
6.326671244
  0
LWPOLYLINE
  5
3DA
100
AcDbEntity
  8
02___PRT_ALL_AXES
100
AcDbPolyline
 62
7
  6
CONTINUOUS
 90
16
 70
0
 10
5.9771572216
 20
5.2439940786
 10
5.9756843058
 20
5.2858971504
 10
5.9742113899
 20
5.340040491
 10
5.9727384741
 20
5.4050971443
 10
5.9712655583
 20
5.4794726883
 10
5.9697926424
 20
5.5613443119
 10
5.9683197266
 20
5.6487054883
 10
5.9668468107
 20
5.7394151517
 10
5.9653738949
 20
5.8312501709
 10
5.963900979
 20
5.9219598343
 10
5.9624280632
 20
6.0093210107
 10
5.9609551473
 20
6.0911926342
 10
5.9594822315
 20
6.1655681783
 10
5.9580093157
 20
6.2306248316
 10
5.9565363998
 20
6.2847681722
 10
5.955063484
 20
6.326671244
  0
LWPOLYLINE
  5
3DB
100
AcDbEntity
  8
02___PRT_ALL_AXES
100
AcDbPolyline
 62
7
  6
CONTINUOUS
 90
16
 70
0
 10
6.02883045
 20
5.2439940786
 10
6.0273575341
 20
5.2858971504
 10
6.0258846183
 20
5.340040491
 10
6.0244117024
 20
5.4050971443
 10
6.0229387866
 20
5.4794726883
 10
6.0214658708
 20
5.5613443119
 10
6.0199929549
 20
5.6487054883
 10
6.0185200391
 20
5.7394151517
 10
6.0170471232
 20
5.8312501709
 10
6.0155742074
 20
5.9219598343
 10
6.0141012915
 20
6.0093210107
 10
6.0126283757
 20
6.0911926342
 10
6.0111554598
 20
6.1655681783
 10
6.009682544
 20
6.2306248316
 10
6.0082096282
 20
6.2847681722
 10
6.0067367123
 20
6.326671244
  0
LWPOLYLINE
  5
3DC
100
AcDbEntity
  8
02___PRT_ALL_AXES
100
AcDbPolyline
 62
7
  6
CONTINUOUS
 90
4
 70
0
 10
5.9122104401
 20
5.4794726883
 10
5.9107375243
 20
5.5613443119
 10
5.9092646085
 20
5.6487054883
 10
5.9077916926
 20
5.7394151517
  0
LWPOLYLINE
  5
3DD
100
AcDbEntity
  8
02___PRT_ALL_AXES
100
AcDbPolyline
 62
7
  6
CONTINUOUS
 90
9
 70
0
 10
5.985143725
 20
5.8685166832
 10
5.9837078203
 20
5.9504657506
 10
5.9822668295
 20
6.0288357659
 10
5.980807551
 20
6.1023712298
 10
5.9793460678
 20
6.1683725546
 10
5.9779011463
 20
6.2245450264
 10
5.9764719968
 20
6.2699176388
 10
5.9750322099
 20
6.3043183151
 10
5.9735827479
 20
6.326671244
  0
LWPOLYLINE
  5
3DE
100
AcDbEntity
  8
02___PRT_ALL_AXES
100
AcDbPolyline
 62
7
  6
CONTINUOUS
 90
10
 70
0
 10
5.8698808812
 20
5.7021746829
 10
5.8670086147
 20
5.8699583743
 10
5.8655783204
 20
5.9515431957
 10
5.8641371935
 20
6.0298558715
 10
5.8626778761
 20
6.1033030405
 10
5.8612165822
 20
6.1691834601
 10
5.8597724665
 20
6.2251976405
 10
5.8583384946
 20
6.2705662828
 10
5.8569066316
 20
6.3046206141
 10
5.8554725117
 20
6.326671244
  0
LWPOLYLINE
  5
3DF
100
AcDbEntity
  8
02___PRT_ALL_AXES
100
AcDbPolyline
 62
7
  6
CONTINUOUS
 90
10
 70
0
 10
5.8777567233
 20
5.870568724
 10
5.8806750051
 20
5.7001183512
 10
5.8821162665
 20
5.6179413578
 10
5.8835469966
 20
5.5402457578
 10
5.8849760562
 20
5.4682984333
 10
5.8864121934
 20
5.4033667776
 10
5.8878457083
 20
5.3474290277
 10
5.889284038
 20
5.3015227744
 10
5.8907402975
 20
5.2665683722
 10
5.8922009498
 20
5.2439940786
  0
LWPOLYLINE
  5
3E0
100
AcDbEntity
  8
02___PRT_ALL_AXES
100
AcDbPolyline
 62
7
  6
CONTINUOUS
 90
10
 70
0
 10
5.9289714808
 20
5.7001183512
 10
5.9260531991
 20
5.870568724
 10
5.9246118795
 20
5.9527481908
 10
5.9231809912
 20
6.0304506514
 10
5.9217518705
 20
6.1023982076
 10
5.9203161135
 20
6.1673100706
 10
5.9188827699
 20
6.2232399048
 10
5.9174445058
 20
6.2691435534
 10
5.9159883035
 20
6.3040965258
 10
5.9145276298
 20
6.326671244
  0
LWPOLYLINE
  5
3E1
100
AcDbEntity
  8
02___PRT_ALL_AXES
100
AcDbPolyline
 62
7
  6
CONTINUOUS
 90
10
 70
0
 10
5.9368472492
 20
5.8685166832
 10
5.9397191124
 20
5.7007563538
 10
5.9411496602
 20
5.6191556233
 10
5.9425909522
 20
5.540832258
 10
5.944050421
 20
5.4673758137
 10
5.9455117859
 20
5.4014907616
 10
5.9469559493
 20
5.3454734698
 10
5.948389884
 20
5.3001046315
 10
5.9498215521
 20
5.266052492
 10
5.9512560679
 20
5.2439940786
  0
LWPOLYLINE
  5
3E2
100
AcDbEntity
  8
02___PRT_ALL_AXES
100
AcDbPolyline
 62
7
  6
CONTINUOUS
 90
10
 70
0
 10
5.9958813779
 20
5.8697332595
 10
5.9987956515
 20
5.6995152557
 10
6.0002346403
 20
5.6174867489
 10
6.0016675975
 20
5.5397014854
 10
6.0031063457
 20
5.4673371756
 10
6.0045358855
 20
5.4027982804
 10
6.0059623154
 20
5.3472022422
 10
6.0073982249
 20
5.3014118216
 10
6.0088525469
 20
5.2665284937
 10
6.010311186
 20
5.2439940786
  0
LWPOLYLINE
  5
3E3
100
AcDbEntity
  8
02___PRT_ALL_AXES
100
AcDbPolyline
 62
7
  6
CONTINUOUS
 90
9
 70
0
 10
5.9077916926
 20
5.7394151517
 10
5.9063187768
 20
5.8312501709
 10
5.9048458609
 20
5.9219598343
 10
5.9033729451
 20
6.0093210107
 10
5.9019000292
 20
6.0911926342
 10
5.9004271134
 20
6.1655681783
 10
5.8989541975
 20
6.2306248316
 10
5.8974812817
 20
6.2847681722
 10
5.8960083659
 20
6.326671244
  0
LWPOLYLINE
  5
3E4
100
AcDbEntity
  8
0
100
AcDbPolyline
 62
7
  6
CONTINUOUS
 90
3
 70
0
 10
5.8330784678
 20
5.2447511955
 10
5.8330427598
 20
5.2441842979
 10
5.8328035099
 20
5.2439940786
  0
LINE
  5
3E5
100
AcDbEntity
  8
0
100
AcDbLine
 62
7
  6
CONTINUOUS
 10
5.6720650772
 20
4.8010806928
 11
5.1996241323
 21
4.8010806928
  0
LWPOLYLINE
  5
3E6
100
AcDbEntity
  8
02___PRT_ALL_AXES
100
AcDbPolyline
 62
7
  6
CONTINUOUS
 90
10
 70
0
 10
6.1176627799
 20
5.2439940786
 10
6.116230051
 20
5.2660173677
 10
6.1147900878
 20
5.3002857833
 10
6.113357342
 20
5.3456615195
 10
6.1119181736
 20
5.4015044099
 10
6.1104615627
 20
5.4671636572
 10
6.1090067949
 20
5.5403524875
 10
6.1075699332
 20
5.6183975405
 10
6.1061431718
 20
5.6997512388
 10
6.1032482874
 20
5.8688455839
  0
LWPOLYLINE
  5
3E7
100
AcDbEntity
  8
02___PRT_ALL_AXES
100
AcDbPolyline
 62
7
  6
CONTINUOUS
 90
10
 70
0
 10
6.1024516265
 20
6.326671244
 10
6.1038848976
 20
6.3046372992
 10
6.1053251443
 20
6.2703565371
 10
6.1067579364
 20
6.2249729595
 10
6.1081971258
 20
6.1691233239
 10
6.1096537282
 20
6.103459311
 10
6.1111083918
 20
6.0302718442
 10
6.1125451445
 20
5.9522302657
 10
6.1139723369
 20
5.8708502264
 10
6.1168682076
 20
5.7016986732
  0
LWPOLYLINE
  5
3E8
100
AcDbEntity
  8
02___PRT_ALL_AXES
100
AcDbPolyline
 62
7
  6
CONTINUOUS
 90
9
 70
0
 10
5.9843413903
 20
6.326671244
 10
5.9858000475
 20
6.3041364698
 10
5.9872542238
 20
6.2692570807
 10
5.9886910829
 20
6.2234338282
 10
5.9901281806
 20
6.1673816573
 10
5.9915760401
 20
6.1018987029
 10
5.9930161039
 20
6.0293284925
 10
5.9944416829
 20
5.9518515891
 10
5.9958813779
 20
5.8697332595
  0
LWPOLYLINE
  5
3E9
100
AcDbEntity
  8
02___PRT_ALL_AXES
100
AcDbPolyline
 62
7
  6
CONTINUOUS
 90
10
 70
0
 10
6.0586076618
 20
5.2439940786
 10
6.0571490227
 20
5.2665284937
 10
6.0556947007
 20
5.3014118216
 10
6.0542587912
 20
5.3472022422
 10
6.0528323613
 20
5.4027982804
 10
6.0514028215
 20
5.4673371756
 10
6.0499640732
 20
5.5397014854
 10
6.0485311161
 20
5.6174867489
 10
6.0470921273
 20
5.6995152557
 10
6.0441778537
 20
5.8697332595
  0
LWPOLYLINE
  5
3EA
100
AcDbEntity
  8
02___PRT_ALL_AXES
100
AcDbPolyline
 62
7
  6
CONTINUOUS
 90
9
 70
0
 10
6.0433965084
 20
6.326671244
 10
6.0448538604
 20
6.3041623119
 10
6.0463067799
 20
6.2693289848
 10
6.0477420126
 20
6.2235828324
 10
6.049175691
 20
6.1677031077
 10
6.0506280828
 20
6.1020463233
 10
6.0520800057
 20
6.0288665037
 10
6.0535156508
 20
5.950797497
 10
6.0549518116
 20
5.8688455839
  0
LWPOLYLINE
  5
3EB
100
AcDbEntity
  8
02___PRT_ALL_AXES
100
AcDbPolyline
 62
7
  6
CONTINUOUS
 90
9
 70
0
 10
6.176717898
 20
5.2439940786
 10
6.1752606147
 20
5.2665016501
 10
6.173807677
 20
5.3013349205
 10
6.1723725249
 20
5.3470778255
 10
6.1709396755
 20
5.4029216643
 10
6.1694879993
 20
5.4685385798
 10
6.1680364308
 20
5.5416920211
 10
6.1666008742
 20
5.6197493202
 10
6.1651646833
 20
5.7016986732
  0
LWPOLYLINE
  5
3EC
100
AcDbEntity
  8
02___PRT_ALL_AXES
100
AcDbPolyline
 62
7
  6
CONTINUOUS
 90
10
 70
0
 10
6.1615067446
 20
6.326671244
 10
6.1629652991
 20
6.3041385033
 10
6.1644194601
 20
6.2692603939
 10
6.1658551985
 20
6.2234779061
 10
6.1672814031
 20
6.1678941471
 10
6.1687111906
 20
6.1033470332
 10
6.1701502134
 20
6.0309701227
 10
6.1715832225
 20
5.9531823597
 10
6.1730221225
 20
5.8711591364
 10
6.1759361861
 20
5.7009533111
  0
LWPOLYLINE
  5
3ED
100
AcDbEntity
  8
02___PRT_ALL_AXES
100
AcDbPolyline
 62
7
  6
CONTINUOUS
 90
16
 70
0
 10
6.0362123397
 20
5.2439940786
 10
6.0347394239
 20
5.2858971504
 10
6.0332665081
 20
5.340040491
 10
6.0317935922
 20
5.4050971443
 10
6.0303206764
 20
5.4794726883
 10
6.0288477605
 20
5.5613443119
 10
6.0273748447
 20
5.6487054883
 10
6.0259019288
 20
5.7394151517
 10
6.024429013
 20
5.8312501709
 10
6.0229560971
 20
5.9219598343
 10
6.0214831813
 20
6.0093210107
 10
6.0200102655
 20
6.0911926342
 10
6.0185373496
 20
6.1655681783
 10
6.0170644338
 20
6.2306248316
 10
6.0155915179
 20
6.2847681722
 10
6.0141186021
 20
6.326671244
  0
LWPOLYLINE
  5
3EE
100
AcDbEntity
  8
02___PRT_ALL_AXES
100
AcDbPolyline
 62
7
  6
CONTINUOUS
 90
16
 70
0
 10
6.0878855681
 20
5.2439940786
 10
6.0864126522
 20
5.2858971504
 10
6.0849397364
 20
5.340040491
 10
6.0834668206
 20
5.4050971443
 10
6.0819939047
 20
5.4794726883
 10
6.0805209889
 20
5.5613443119
 10
6.079048073
 20
5.6487054883
 10
6.0775751572
 20
5.7394151517
 10
6.0761022413
 20
5.8312501709
 10
6.0746293255
 20
5.9219598343
 10
6.0731564096
 20
6.0093210107
 10
6.0716834938
 20
6.0911926342
 10
6.070210578
 20
6.1655681783
 10
6.0687376621
 20
6.2306248316
 10
6.0672647463
 20
6.2847681722
 10
6.0657918304
 20
6.326671244
  0
LWPOLYLINE
  5
3EF
100
AcDbEntity
  8
02___PRT_ALL_AXES
100
AcDbPolyline
 62
7
  6
CONTINUOUS
 90
16
 70
0
 10
6.0952674579
 20
5.2439940786
 10
6.093794542
 20
5.2858971504
 10
6.0923216262
 20
5.340040491
 10
6.0908487103
 20
5.4050971443
 10
6.0893757945
 20
5.4794726883
 10
6.0879028786
 20
5.5613443119
 10
6.0864299628
 20
5.6487054883
 10
6.0849570469
 20
5.7394151517
 10
6.0834841311
 20
5.8312501709
 10
6.0820112153
 20
5.9219598343
 10
6.0805382994
 20
6.0093210107
 10
6.0790653836
 20
6.0911926342
 10
6.0775924677
 20
6.1655681783
 10
6.0761195519
 20
6.2306248316
 10
6.074646636
 20
6.2847681722
 10
6.0731737202
 20
6.326671244
  0
LWPOLYLINE
  5
3F0
100
AcDbEntity
  8
02___PRT_ALL_AXES
100
AcDbPolyline
 62
7
  6
CONTINUOUS
 90
16
 70
0
 10
6.1469406862
 20
5.2439940786
 10
6.1454677704
 20
5.2858971504
 10
6.1439948545
 20
5.340040491
 10
6.1425219387
 20
5.4050971443
 10
6.1410490228
 20
5.4794726883
 10
6.139576107
 20
5.5613443119
 10
6.1381031911
 20
5.6487054883
 10
6.1366302753
 20
5.7394151517
 10
6.1351573594
 20
5.8312501709
 10
6.1336844436
 20
5.9219598343
 10
6.1322115278
 20
6.0093210107
 10
6.1307386119
 20
6.0911926342
 10
6.1292656961
 20
6.1655681783
 10
6.1277927802
 20
6.2306248316
 10
6.1263198644
 20
6.2847681722
 10
6.1248469485
 20
6.326671244
  0
LWPOLYLINE
  5
3F1
100
AcDbEntity
  8
02___PRT_ALL_AXES
100
AcDbPolyline
 62
7
  6
CONTINUOUS
 90
7
 70
0
 10
6.154322576
 20
5.2439940786
 10
6.1528496601
 20
5.2858971504
 10
6.1513767443
 20
5.340040491
 10
6.1499038284
 20
5.4050971443
 10
6.1484309126
 20
5.4794726883
 10
6.1469579967
 20
5.5613443119
 10
6.1454850809
 20
5.6487054883
  0
LWPOLYLINE
  5
3F2
100
AcDbEntity
  8
02___PRT_ALL_AXES
100
AcDbPolyline
 62
7
  6
CONTINUOUS
 90
16
 70
0
 10
6.2059958043
 20
5.2439940786
 10
6.2045228885
 20
5.2858971504
 10
6.2030499726
 20
5.340040491
 10
6.2015770568
 20
5.4050971443
 10
6.2001041409
 20
5.4794726883
 10
6.1986312251
 20
5.5613443119
 10
6.1971583092
 20
5.6487054883
 10
6.1956853934
 20
5.7394151517
 10
6.1942124776
 20
5.8312501709
 10
6.1927395617
 20
5.9219598343
 10
6.1912666459
 20
6.0093210107
 10
6.18979373
 20
6.0911926342
 10
6.1883208142
 20
6.1655681783
 10
6.1868478983
 20
6.2306248316
 10
6.1853749825
 20
6.2847681722
 10
6.1839020666
 20
6.326671244
  0
LWPOLYLINE
  5
3F3
100
AcDbEntity
  8
02___PRT_ALL_AXES
100
AcDbPolyline
 62
7
  6
CONTINUOUS
 90
16
 70
0
 10
6.2133776941
 20
5.2439940786
 10
6.2119047782
 20
5.2858971504
 10
6.2104318624
 20
5.340040491
 10
6.2089589465
 20
5.4050971443
 10
6.2074860307
 20
5.4794726883
 10
6.2060131149
 20
5.5613443119
 10
6.204540199
 20
5.6487054883
 10
6.2030672832
 20
5.7394151517
 10
6.2015943673
 20
5.8312501709
 10
6.2001214515
 20
5.9219598343
 10
6.1986485356
 20
6.0093210107
 10
6.1971756198
 20
6.0911926342
 10
6.1957027039
 20
6.1655681783
 10
6.1942297881
 20
6.2306248316
 10
6.1927568722
 20
6.2847681722
 10
6.1912839564
 20
6.326671244
  0
LWPOLYLINE
  5
3F4
100
AcDbEntity
  8
02___PRT_ALL_AXES
100
AcDbPolyline
 62
7
  6
CONTINUOUS
 90
9
 70
0
 10
6.0441778537
 20
5.8697332595
 10
6.0427381586
 20
5.9518515891
 10
6.0413125797
 20
6.0293284925
 10
6.0398725158
 20
6.1018987029
 10
6.0384246563
 20
6.1673816573
 10
6.0369875587
 20
6.2234338282
 10
6.0355506996
 20
6.2692570807
 10
6.0340965232
 20
6.3041364698
 10
6.032637866
 20
6.326671244
  0
LWPOLYLINE
  5
3F5
100
AcDbEntity
  8
02___PRT_ALL_AXES
100
AcDbPolyline
 62
7
  6
CONTINUOUS
 90
9
 70
0
 10
6.1032482874
 20
5.8688455839
 10
6.1018121266
 20
5.950797497
 10
6.1003764815
 20
6.0288665037
 10
6.0989245585
 20
6.1020463233
 10
6.0974721668
 20
6.1677031077
 10
6.0960384884
 20
6.2235828324
 10
6.0946032557
 20
6.2693289848
 10
6.0931503361
 20
6.3041623119
 10
6.0916929841
 20
6.326671244
  0
LWPOLYLINE
  5
3F6
100
AcDbEntity
  8
02___PRT_ALL_AXES
100
AcDbPolyline
 62
7
  6
CONTINUOUS
 90
9
 70
0
 10
6.1168682076
 20
5.7016986732
 10
6.1183043984
 20
5.6197493202
 10
6.119739955
 20
5.5416920211
 10
6.1211915235
 20
5.4685385798
 10
6.1226431997
 20
5.4029216643
 10
6.1240760491
 20
5.3470778255
 10
6.1255112012
 20
5.3013349205
 10
6.126964139
 20
5.2665016501
 10
6.1284214222
 20
5.2439940786
  0
LWPOLYLINE
  5
3F7
100
AcDbEntity
  8
02___PRT_ALL_AXES
100
AcDbPolyline
 62
7
  6
CONTINUOUS
 90
9
 70
0
 10
6.1759361861
 20
5.7009533111
 10
6.1773757485
 20
5.618841642
 10
6.1788013705
 20
5.5413608188
 10
6.1802420016
 20
5.4687612902
 10
6.1816901716
 20
5.4032658477
 10
6.1831273741
 20
5.3472127619
 10
6.184564095
 20
5.3013973444
 10
6.1860181434
 20
5.2665236996
 10
6.1874765403
 20
5.2439940786
  0
LWPOLYLINE
  5
3F8
100
AcDbEntity
  8
02___PRT_ALL_AXES
100
AcDbPolyline
 62
7
  6
CONTINUOUS
 90
10
 70
0
 10
6.0549518116
 20
5.8688455839
 10
6.057846696
 20
5.6997512388
 10
6.0592734574
 20
5.6183975405
 10
6.0607103191
 20
5.5403524875
 10
6.0621650869
 20
5.4671636572
 10
6.0636216979
 20
5.4015044099
 10
6.0650608662
 20
5.3456615195
 10
6.0664936121
 20
5.3002857833
 10
6.0679335753
 20
5.2660173677
 10
6.0693663041
 20
5.2439940786
  0
LWPOLYLINE
  5
3F9
100
AcDbEntity
  8
02___PRT_ALL_AXES
100
AcDbPolyline
 62
7
  6
CONTINUOUS
 90
10
 70
0
 10
6.1651646833
 20
5.7016986732
 10
6.1622688126
 20
5.8708502264
 10
6.1608416202
 20
5.9522302657
 10
6.1594048676
 20
6.0302718442
 10
6.1579502039
 20
6.103459311
 10
6.1564936016
 20
6.1691233239
 10
6.1550544122
 20
6.2249729595
 10
6.1536216201
 20
6.2703565371
 10
6.1521813733
 20
6.3046372992
 10
6.1507481023
 20
6.326671244
  0
LWPOLYLINE
  5
3FA
100
AcDbEntity
  8
02___PRT_ALL_AXES
100
AcDbPolyline
 62
7
  6
CONTINUOUS
 90
3
 70
0
 10
6.1454850809
 20
5.6487054883
 10
6.1440121651
 20
5.7394151517
 10
6.1425392492
 20
5.8312501709
  0
LWPOLYLINE
  5
3FB
100
AcDbEntity
  8
02___PRT_ALL_AXES
100
AcDbPolyline
 62
7
  6
CONTINUOUS
 90
8
 70
0
 10
6.1425392492
 20
5.8312501709
 10
6.1410663334
 20
5.9219598343
 10
6.1395934175
 20
6.0093210107
 10
6.1381205017
 20
6.0911926342
 10
6.1366475858
 20
6.1655681783
 10
6.13517467
 20
6.2306248316
 10
6.1337017541
 20
6.2847681722
 10
6.1322288383
 20
6.326671244
  0
LWPOLYLINE
  5
3FC
100
AcDbEntity
  8
02___PRT_ALL_AXES
100
AcDbPolyline
 62
7
  6
CONTINUOUS
 90
10
 70
0
 10
6.2205618627
 20
6.326671244
 10
6.2219959826
 20
6.3046206141
 10
6.2234278456
 20
6.2705662828
 10
6.2248618175
 20
6.2251976405
 10
6.2263059332
 20
6.1691834601
 10
6.2277672272
 20
6.1033030405
 10
6.2292265445
 20
6.0298558715
 10
6.2306676714
 20
5.9515431957
 10
6.2320979657
 20
5.8699583743
 10
6.2349702322
 20
5.7021746829
  0
LWPOLYLINE
  5
3FD
100
AcDbEntity
  8
02___PRT_ALL_AXES
100
AcDbPolyline
 62
7
  6
CONTINUOUS
 90
9
 70
0
 10
6.2948281342
 20
5.2439940786
 10
6.2933783091
 20
5.2663541799
 10
6.2919379906
 20
5.3007726873
 10
6.2905089133
 20
5.3461494404
 10
6.2890641653
 20
5.4023201375
 10
6.287602816
 20
5.4683188037
 10
6.2861435939
 20
5.5418536902
 10
6.2847026567
 20
5.6202222361
 10
6.2832667079
 20
5.7021746829
  0
LWPOLYLINE
  5
3FE
100
AcDbEntity
  8
02___PRT_ALL_AXES
100
AcDbPolyline
 62
7
  6
CONTINUOUS
 90
9
 70
0
 10
6.3386720989
 20
6.326671244
 10
6.3401215609
 20
6.3043183151
 10
6.3415613478
 20
6.2699176388
 10
6.3429904973
 20
6.2245450264
 10
6.3444354188
 20
6.1683725546
 10
6.345896902
 20
6.1023712298
 10
6.3473561805
 20
6.0288357659
 10
6.3487971713
 20
5.9504657506
 10
6.350233076
 20
5.8685166832
  0
LWPOLYLINE
  5
3FF
100
AcDbEntity
  8
02___PRT_ALL_AXES
100
AcDbPolyline
 62
7
  6
CONTINUOUS
 90
9
 70
0
 10
6.2357730161
 20
5.2439940786
 10
6.2343146191
 20
5.2665236996
 10
6.2328605708
 20
5.3013973444
 10
6.2314238499
 20
5.3472127619
 10
6.2299866473
 20
5.4032658477
 10
6.2285384773
 20
5.4687612902
 10
6.2270978463
 20
5.5413608188
 10
6.2256722243
 20
5.618841642
 10
6.2242326618
 20
5.7009533111
  0
LWPOLYLINE
  5
400
100
AcDbEntity
  8
02___PRT_ALL_AXES
100
AcDbPolyline
 62
7
  6
CONTINUOUS
 90
9
 70
0
 10
6.2796169808
 20
6.326671244
 10
6.2810776545
 20
6.3040965258
 10
6.2825338568
 20
6.2691435534
 10
6.2839721209
 20
6.2232399048
 10
6.2854054645
 20
6.1673100706
 10
6.2868412215
 20
6.1023982076
 10
6.2882703422
 20
6.0304506514
 10
6.2897012305
 20
5.9527481908
 10
6.2911425501
 20
5.870568724
  0
LWPOLYLINE
  5
401
100
AcDbEntity
  8
02___PRT_ALL_AXES
100
AcDbPolyline
 62
7
  6
CONTINUOUS
 90
9
 70
0
 10
6.3538832523
 20
5.2439940786
 10
6.3524226001
 20
5.2665683722
 10
6.3509663405
 20
5.3015227744
 10
6.3495280109
 20
5.3474290277
 10
6.348094496
 20
5.4033667776
 10
6.3466583587
 20
5.4682984333
 10
6.3452292991
 20
5.5402457578
 10
6.3437985691
 20
5.6179413578
 10
6.3423573076
 20
5.7001183512
  0
LWPOLYLINE
  5
402
100
AcDbEntity
  8
0
100
AcDbPolyline
 62
7
  6
CONTINUOUS
 90
10
 70
0
 10
6.4128710066
 20
5.2447511955
 10
6.4114440516
 20
5.2672387932
 10
6.4100198146
 20
5.3015689703
 10
6.4085931007
 20
5.3470741502
 10
6.407156022
 20
5.4030959523
 10
6.4057020309
 20
5.4688477434
 10
6.4042502925
 20
5.5420398251
 10
6.4028166658
 20
5.6200111608
 10
6.4013935826
 20
5.7012102529
 10
6.39853658
 20
5.8681092202
  0
LWPOLYLINE
  5
403
100
AcDbEntity
  8
02___PRT_ALL_AXES
100
AcDbPolyline
 62
7
  6
CONTINUOUS
 90
16
 70
0
 10
6.2650509224
 20
5.2439940786
 10
6.2635780066
 20
5.2858971504
 10
6.2621050907
 20
5.340040491
 10
6.2606321749
 20
5.4050971443
 10
6.259159259
 20
5.4794726883
 10
6.2576863432
 20
5.5613443119
 10
6.2562134274
 20
5.6487054883
 10
6.2547405115
 20
5.7394151517
 10
6.2532675957
 20
5.8312501709
 10
6.2517946798
 20
5.9219598343
 10
6.250321764
 20
6.0093210107
 10
6.2488488481
 20
6.0911926342
 10
6.2473759323
 20
6.1655681783
 10
6.2459030164
 20
6.2306248316
 10
6.2444301006
 20
6.2847681722
 10
6.2429571847
 20
6.326671244
  0
LWPOLYLINE
  5
404
100
AcDbEntity
  8
02___PRT_ALL_AXES
100
AcDbPolyline
 62
7
  6
CONTINUOUS
 90
16
 70
0
 10
6.2724328122
 20
5.2439940786
 10
6.2709598963
 20
5.2858971504
 10
6.2694869805
 20
5.340040491
 10
6.2680140647
 20
5.4050971443
 10
6.2665411488
 20
5.4794726883
 10
6.265068233
 20
5.5613443119
 10
6.2635953171
 20
5.6487054883
 10
6.2621224013
 20
5.7394151517
 10
6.2606494854
 20
5.8312501709
 10
6.2591765696
 20
5.9219598343
 10
6.2577036537
 20
6.0093210107
 10
6.2562307379
 20
6.0911926342
 10
6.254757822
 20
6.1655681783
 10
6.2532849062
 20
6.2306248316
 10
6.2518119904
 20
6.2847681722
 10
6.2503390745
 20
6.326671244
  0
LWPOLYLINE
  5
405
100
AcDbEntity
  8
02___PRT_ALL_AXES
100
AcDbPolyline
 62
7
  6
CONTINUOUS
 90
16
 70
0
 10
6.3241060405
 20
5.2439940786
 10
6.3226331247
 20
5.2858971504
 10
6.3211602088
 20
5.340040491
 10
6.319687293
 20
5.4050971443
 10
6.3182143772
 20
5.4794726883
 10
6.3167414613
 20
5.5613443119
 10
6.3152685455
 20
5.6487054883
 10
6.3137956296
 20
5.7394151517
 10
6.3123227138
 20
5.8312501709
 10
6.3108497979
 20
5.9219598343
 10
6.3093768821
 20
6.0093210107
 10
6.3079039662
 20
6.0911926342
 10
6.3064310504
 20
6.1655681783
 10
6.3049581345
 20
6.2306248316
 10
6.3034852187
 20
6.2847681722
 10
6.3020123029
 20
6.326671244
  0
LWPOLYLINE
  5
406
100
AcDbEntity
  8
02___PRT_ALL_AXES
100
AcDbPolyline
 62
7
  6
CONTINUOUS
 90
16
 70
0
 10
6.3314879303
 20
5.2439940786
 10
6.3300150145
 20
5.2858971504
 10
6.3285420986
 20
5.340040491
 10
6.3270691828
 20
5.4050971443
 10
6.3255962669
 20
5.4794726883
 10
6.3241233511
 20
5.5613443119
 10
6.3226504352
 20
5.6487054883
 10
6.3211775194
 20
5.7394151517
 10
6.3197046035
 20
5.8312501709
 10
6.3182316877
 20
5.9219598343
 10
6.3167587718
 20
6.0093210107
 10
6.315285856
 20
6.0911926342
 10
6.3138129402
 20
6.1655681783
 10
6.3123400243
 20
6.2306248316
 10
6.3108671085
 20
6.2847681722
 10
6.3093941926
 20
6.326671244
  0
LWPOLYLINE
  5
407
100
AcDbEntity
  8
02___PRT_ALL_AXES
100
AcDbPolyline
 62
7
  6
CONTINUOUS
 90
16
 70
0
 10
6.3831611586
 20
5.2439940786
 10
6.3816882428
 20
5.2858971504
 10
6.380215327
 20
5.340040491
 10
6.3787424111
 20
5.4050971443
 10
6.3772694953
 20
5.4794726883
 10
6.3757965794
 20
5.5613443119
 10
6.3743236636
 20
5.6487054883
 10
6.3728507477
 20
5.7394151517
 10
6.3713778319
 20
5.8312501709
 10
6.369904916
 20
5.9219598343
 10
6.3684320002
 20
6.0093210107
 10
6.3669590843
 20
6.0911926342
 10
6.3654861685
 20
6.1655681783
 10
6.3640132527
 20
6.2306248316
 10
6.3625403368
 20
6.2847681722
 10
6.361067421
 20
6.326671244
  0
LWPOLYLINE
  5
408
100
AcDbEntity
  8
02___PRT_ALL_AXES
100
AcDbPolyline
 62
7
  6
CONTINUOUS
 90
16
 70
0
 10
6.3905430484
 20
5.2439940786
 10
6.3890701326
 20
5.2858971504
 10
6.3875972167
 20
5.340040491
 10
6.3861243009
 20
5.4050971443
 10
6.384651385
 20
5.4794726883
 10
6.3831784692
 20
5.5613443119
 10
6.3817055533
 20
5.6487054883
 10
6.3802326375
 20
5.7394151517
 10
6.3787597216
 20
5.8312501709
 10
6.3772868058
 20
5.9219598343
 10
6.37581389
 20
6.0093210107
 10
6.3743409741
 20
6.0911926342
 10
6.3728680583
 20
6.1655681783
 10
6.3713951424
 20
6.2306248316
 10
6.3699222266
 20
6.2847681722
 10
6.3684493107
 20
6.326671244
  0
LWPOLYLINE
  5
409
100
AcDbEntity
  8
02___PRT_ALL_AXES
100
AcDbPolyline
 62
7
  6
CONTINUOUS
 90
9
 70
0
 10
6.2349702322
 20
5.7021746829
 10
6.236406181
 20
5.6202222361
 10
6.2378471181
 20
5.5418536902
 10
6.2393063402
 20
5.4683188037
 10
6.2407676895
 20
5.4023201375
 10
6.2422124375
 20
5.3461494404
 10
6.2436415148
 20
5.3007726873
 10
6.2450818333
 20
5.2663541799
 10
6.2465316585
 20
5.2439940786
  0
LWPOLYLINE
  5
40A
100
AcDbEntity
  8
02___PRT_ALL_AXES
100
AcDbPolyline
 62
7
  6
CONTINUOUS
 90
10
 70
0
 10
6.2242326618
 20
5.7009533111
 10
6.2213185983
 20
5.8711591364
 10
6.2198796983
 20
5.9531823597
 10
6.2184466892
 20
6.0309701227
 10
6.2170076664
 20
6.1033470332
 10
6.2155778789
 20
6.1678941471
 10
6.2141516743
 20
6.2234779061
 10
6.2127159359
 20
6.2692603939
 10
6.2112617749
 20
6.3041385033
 10
6.2098032204
 20
6.326671244
  0
LWPOLYLINE
  5
40B
100
AcDbEntity
  8
02___PRT_ALL_AXES
100
AcDbPolyline
 62
7
  6
CONTINUOUS
 90
10
 70
0
 10
6.2832667079
 20
5.7021746829
 10
6.2803944414
 20
5.8699583743
 10
6.2789641472
 20
5.9515431957
 10
6.2775230202
 20
6.0298558715
 10
6.2760637029
 20
6.1033030405
 10
6.274602409
 20
6.1691834601
 10
6.2731582933
 20
6.2251976405
 10
6.2717243214
 20
6.2705662828
 10
6.2702924584
 20
6.3046206141
 10
6.2688583385
 20
6.326671244
  0
LWPOLYLINE
  5
40C
100
AcDbEntity
  8
02___PRT_ALL_AXES
100
AcDbPolyline
 62
7
  6
CONTINUOUS
 90
10
 70
0
 10
6.2911425501
 20
5.870568724
 10
6.2940608318
 20
5.7001183512
 10
6.2955020933
 20
5.6179413578
 10
6.2969328233
 20
5.5402457578
 10
6.298361883
 20
5.4682984333
 10
6.2997980202
 20
5.4033667776
 10
6.3012315351
 20
5.3474290277
 10
6.3026698648
 20
5.3015227744
 10
6.3041261243
 20
5.2665683722
 10
6.3055867766
 20
5.2439940786
  0
LWPOLYLINE
  5
40D
100
AcDbEntity
  8
02___PRT_ALL_AXES
100
AcDbPolyline
 62
7
  6
CONTINUOUS
 90
10
 70
0
 10
6.3423573076
 20
5.7001183512
 10
6.3394390259
 20
5.870568724
 10
6.3379977063
 20
5.9527481908
 10
6.336566818
 20
6.0304506514
 10
6.3351376973
 20
6.1023982076
 10
6.3337019403
 20
6.1673100706
 10
6.3322685967
 20
6.2232399048
 10
6.3308303326
 20
6.2691435534
 10
6.3293741303
 20
6.3040965258
 10
6.3279134566
 20
6.326671244
  0
LWPOLYLINE
  5
40E
100
AcDbEntity
  8
02___PRT_ALL_AXES
100
AcDbPolyline
 62
7
  6
CONTINUOUS
 90
10
 70
0
 10
6.350233076
 20
5.8685166832
 10
6.3531049391
 20
5.7007563538
 10
6.3545354869
 20
5.6191556233
 10
6.355976779
 20
5.540832258
 10
6.3574362477
 20
5.4673758137
 10
6.3588976127
 20
5.4014907616
 10
6.3603417761
 20
5.3454734698
 10
6.3617757108
 20
5.3001046315
 10
6.3632073789
 20
5.266052492
 10
6.3646418947
 20
5.2439940786
  0
LWPOLYLINE
  5
40F
100
AcDbEntity
  8
0
100
AcDbPolyline
 62
7
  6
CONTINUOUS
 90
3
 70
0
 10
6.3870359386
 20
6.3259141271
 10
6.3870716466
 20
6.3264810246
 10
6.3873108965
 20
6.326671244
  0
LINE
  5
410
100
AcDbEntity
  8
0
100
AcDbLine
 62
7
  6
CONTINUOUS
 10
5.7508052347
 20
5.2439940786
 11
5.8516650957
 21
5.2439940786
  0
LINE
  5
411
100
AcDbEntity
  8
02___PRT_ALL_AXES
100
AcDbLine
 62
7
  6
CONTINUOUS
 10
5.8516650957
 20
5.2439940786
 11
6.3905430484
 21
5.2439940786
  0
LINE
  5
412
100
AcDbEntity
  8
0
100
AcDbLine
 62
7
  6
CONTINUOUS
 10
6.3905430484
 20
5.2439940786
 11
6.459466652
 21
5.2439940786
  0
LINE
  5
413
100
AcDbEntity
  8
0
100
AcDbLine
 62
7
  6
CONTINUOUS
 10
5.7508052347
 20
5.2447511955
 11
5.8330784678
 21
5.2447511955
  0
LINE
  5
414
100
AcDbEntity
  8
0
100
AcDbLine
 62
7
  6
CONTINUOUS
 10
6.4128710066
 20
5.2447511955
 11
6.459466652
 21
5.2447511955
  0
LWPOLYLINE
  5
415
100
AcDbEntity
  8
0
100
AcDbPolyline
 62
7
  6
CONTINUOUS
 90
3
 70
0
 10
6.4134083644
 20
5.2439940786
 10
6.4130380852
 20
5.2441845356
 10
6.4128710066
 20
5.2447511955
  0
LWPOLYLINE
  5
416
100
AcDbEntity
  8
0
100
AcDbPolyline
 62
7
  6
CONTINUOUS
 90
10
 70
0
 10
6.5687308161
 20
5.746650648
 10
6.5667408385
 20
5.8239023673
 10
6.5657581289
 20
5.8611035051
 10
6.5647833704
 20
5.8961686126
 10
6.5638079666
 20
5.9285772336
 10
6.5628258805
 20
5.9577063803
 10
6.561847296
 20
5.9825292027
 10
6.560865174
 20
6.0026150848
 10
6.5598705454
 20
6.0175257138
 10
6.5588752507
 20
6.0266021077
  0
LWPOLYLINE
  5
417
100
AcDbEntity
  8
0
100
AcDbPolyline
 62
7
  6
CONTINUOUS
 90
9
 70
0
 10
6.39853658
 20
5.8681092202
 10
6.3971081267
 20
5.9496554324
 10
6.3956747626
 20
6.0276720853
 10
6.3942232117
 20
6.1009384776
 10
6.3927691182
 20
6.1667999029
 10
6.3913312225
 20
6.2229723956
 10
6.3899093943
 20
6.2684692975
 10
6.3884774719
 20
6.3031341591
 10
6.3870359386
 20
6.3259141271
  0
LINE
  5
418
100
AcDbEntity
  8
0
100
AcDbLine
 62
7
  6
CONTINUOUS
 10
6.459466652
 20
5.2439940786
 11
6.459466652
 21
6.326671244
  0
LINE
  5
419
100
AcDbEntity
  8
0
100
AcDbLine
 62
7
  6
CONTINUOUS
 10
6.4988367308
 20
5.2833641574
 11
6.4988367308
 21
6.2873011652
  0
LINE
  5
41A
100
AcDbEntity
  8
0
100
AcDbLine
 62
7
  6
CONTINUOUS
 10
6.5262491043
 20
6.032104671
 11
6.5262491043
 21
5.5385606516
  0
LINE
  5
41B
100
AcDbEntity
  8
0
100
AcDbLine
 62
7
  6
CONTINUOUS
 10
6.5504231303
 20
6.0296043148
 11
6.5504231303
 21
5.5410610077
  0
LINE
  5
41C
100
AcDbEntity
  8
0
100
AcDbLine
 62
7
  6
CONTINUOUS
 10
6.5933249197
 20
6.0296043148
 11
6.5756878516
 21
5.9990560167
  0
LINE
  5
41D
100
AcDbEntity
  8
0
100
AcDbLine
 62
7
  6
CONTINUOUS
 10
6.6324167874
 20
6.0293635752
 11
6.6149784629
 21
5.9991934882
  0
LWPOLYLINE
  5
41E
100
AcDbEntity
  8
0
100
AcDbPolyline
 62
7
  6
CONTINUOUS
 90
4
 70
0
 10
6.5882985809
 20
6.025315222
 10
6.5863439126
 20
6.0219898691
 10
6.5797163429
 20
6.0107271822
 10
6.5746046223
 20
6.0020551869
  0
LWPOLYLINE
  5
41F
100
AcDbEntity
  8
0
100
AcDbPolyline
 62
7
  6
CONTINUOUS
 90
3
 70
0
 10
6.5882985809
 20
6.025315222
 10
6.5894789151
 20
6.027090055
 10
6.5933249197
 20
6.0296043148
  0
LINE
  5
420
100
AcDbEntity
  8
0
100
AcDbLine
 62
7
  6
CONTINUOUS
 10
6.6324167874
 20
6.0293635752
 11
6.6326949985
 21
6.0296043148
  0
LINE
  5
421
100
AcDbEntity
  8
0
100
AcDbLine
 62
7
  6
CONTINUOUS
 10
6.6717868662
 20
6.0293635752
 11
6.6720650772
 21
6.0296043148
  0
LWPOLYLINE
  5
422
100
AcDbEntity
  8
0
100
AcDbPolyline
 62
7
  6
CONTINUOUS
 90
6
 70
0
 10
6.459466652
 20
5.2447511955
 10
6.4716320915
 20
5.2466408623
 10
6.4826074915
 20
5.2521253926
 10
6.4913176224
 20
5.2606679031
 10
6.4969097976
 20
5.2714320225
 10
6.4988367308
 20
5.2833641574
  0
LINE
  5
423
100
AcDbEntity
  8
0
100
AcDbLine
 62
7
  6
CONTINUOUS
 10
6.6127317481
 20
5.5413017474
 11
6.6130099591
 21
5.5410610077
  0
LINE
  5
424
100
AcDbEntity
  8
0
100
AcDbLine
 62
7
  6
CONTINUOUS
 10
6.6521018268
 20
5.5413017474
 11
6.6523800378
 21
5.5410610077
  0
LINE
  5
425
100
AcDbEntity
  8
0
100
AcDbLine
 62
7
  6
CONTINUOUS
 10
6.5949753062
 20
5.5720221489
 11
6.6127317481
 21
5.5413017474
  0
LINE
  5
426
100
AcDbEntity
  8
0
100
AcDbLine
 62
7
  6
CONTINUOUS
 10
6.6343453849
 20
5.5720221489
 11
6.6521018268
 21
5.5413017474
  0
LWPOLYLINE
  5
427
100
AcDbEntity
  8
0
100
AcDbPolyline
 62
7
  6
CONTINUOUS
 90
10
 70
0
 10
6.5775768882
 20
5.5410610077
 10
6.5765957765
 20
5.5440492768
 10
6.5756021997
 20
5.5530911312
 10
6.5746085088
 20
5.5679622109
 10
6.5736265788
 20
5.5880179827
 10
6.5726475897
 20
5.612828254
 10
6.5716641984
 20
5.6419798665
 10
6.5706877432
 20
5.6744141606
 10
6.5697134279
 20
5.7094573224
 10
6.5687308161
 20
5.746650648
  0
LWPOLYLINE
  5
428
100
AcDbEntity
  8
0
100
AcDbPolyline
 62
7
  6
CONTINUOUS
 90
10
 70
0
 10
6.616946967
 20
5.5410610077
 10
6.615965125
 20
5.544053718
 10
6.6149709824
 20
5.5531067956
 10
6.6139769912
 20
5.5679906102
 10
6.612995031
 20
5.588055369
 10
6.6120162188
 20
5.6128682701
 10
6.6110332673
 20
5.6420117422
 10
6.6100572257
 20
5.6744348702
 10
6.6090828425
 20
5.7094819358
 10
6.6081002779
 20
5.7466743945
  0
LWPOLYLINE
  5
429
100
AcDbEntity
  8
0
100
AcDbPolyline
 62
7
  6
CONTINUOUS
 90
20
 70
0
 10
6.5949753062
 20
5.5720221489
 10
6.5943091717
 20
5.5743765418
 10
6.5932702391
 20
5.5827842763
 10
6.5922313064
 20
5.5967476692
 10
6.5911923738
 20
5.6158837216
 10
6.5901534412
 20
5.6396675546
 10
6.5891145085
 20
5.6674468062
 10
6.5880755759
 20
5.698459525
 10
6.5870366433
 20
5.7318550693
 10
6.5859977106
 20
5.7667174397
 10
6.584958778
 20
5.8020904033
 10
6.5839198454
 20
5.8370037221
 10
6.5828809127
 20
5.8704997659
 10
6.5818419801
 20
5.9016597785
 10
6.5808030475
 20
5.9296290782
 10
6.5797641148
 20
5.9536405008
 10
6.5787251822
 20
5.9730354418
 10
6.5776862496
 20
5.9872819214
 10
6.5766473169
 20
5.9959891757
 10
6.5759265017
 20
5.9986431737
  0
LWPOLYLINE
  5
42A
100
AcDbEntity
  8
0
100
AcDbPolyline
 62
7
  6
CONTINUOUS
 90
7
 70
0
 10
6.7002803003
 20
5.8921255183
 10
6.6992413677
 20
5.9211898822
 10
6.698202435
 20
5.9465278459
 10
6.6971635024
 20
5.9674444196
 10
6.6961245698
 20
5.9833658869
 10
6.6950856371
 20
5.9938555411
 10
6.694036738
 20
5.9986431737
  0
LWPOLYLINE
  5
42B
100
AcDbEntity
  8
0
100
AcDbPolyline
 62
7
  6
CONTINUOUS
 90
8
 70
0
 10
6.6825637649
 20
5.9074684881
 10
6.6816320186
 20
5.9374616884
 10
6.6806959157
 20
5.9642129473
 10
6.679765557
 20
5.9868527307
 10
6.6788283886
 20
6.0051738286
 10
6.6778816853
 20
6.0186963885
 10
6.6769360152
 20
6.0268960271
 10
6.6762802961
 20
6.0293635751
  0
LWPOLYLINE
  5
42C
100
AcDbEntity
  8
0
100
AcDbPolyline
 62
7
  6
CONTINUOUS
 90
10
 70
0
 10
6.7418376056
 20
5.8224214313
 10
6.740798673
 20
5.8566290377
 10
6.7397597404
 20
5.8888810702
 10
6.7387208077
 20
5.9182928945
 10
6.7376818751
 20
5.9440577795
 10
6.7366429425
 20
5.9654690255
 10
6.7356040098
 20
5.9819393477
 10
6.7345650772
 20
5.993016985
 10
6.7335261446
 20
5.9983980913
 10
6.7334068167
 20
5.9986431737
  0
LWPOLYLINE
  5
42D
100
AcDbEntity
  8
0
100
AcDbPolyline
 62
7
  6
CONTINUOUS
 90
14
 70
0
 10
6.7179968357
 20
5.9074684881
 10
6.7189971471
 20
5.8722870287
 10
6.7200007669
 20
5.8347678735
 10
6.7210194491
 20
5.7953965223
 10
6.7220414975
 20
5.7556295038
 10
6.723053796
 20
5.7170158391
 10
6.7240534832
 20
5.6806253549
 10
6.7250543153
 20
5.6468576665
 10
6.7260629757
 20
5.6163947333
 10
6.7270688298
 20
5.590365925
 10
6.7280747458
 20
5.5693493051
 10
6.7290938438
 20
5.5537232782
 10
6.7301134329
 20
5.5442072324
 10
6.7308419843
 20
5.5413017474
  0
LWPOLYLINE
  5
42E
100
AcDbEntity
  8
0
100
AcDbPolyline
 62
7
  6
CONTINUOUS
 90
10
 70
0
 10
6.7242208642
 20
5.823913505
 10
6.7232382188
 20
5.8611118469
 10
6.7222636249
 20
5.8961707103
 10
6.7212880769
 20
5.9285836974
 10
6.7203057347
 20
5.9577191067
 10
6.7193271021
 20
5.98254091
 10
6.7183450461
 20
6.0026229725
 10
6.7173505275
 20
6.0175297439
 10
6.7163553818
 20
6.026603228
 10
6.7156503749
 20
6.0293635751
  0
LWPOLYLINE
  5
42F
100
AcDbEntity
  8
0
100
AcDbPolyline
 62
7
  6
CONTINUOUS
 90
11
 70
0
 10
6.6021739094
 20
5.8239023673
 10
6.604163887
 20
5.746650648
 10
6.6051464988
 20
5.7094573224
 10
6.606120814
 20
5.6744141606
 10
6.6070972692
 20
5.6419798665
 10
6.6080806606
 20
5.612828254
 10
6.6090596497
 20
5.5880179827
 10
6.6100415797
 20
5.5679622109
 10
6.6110352705
 20
5.5530911312
 10
6.6120288474
 20
5.5440492768
 10
6.6127317481
 20
5.5413017474
  0
LWPOLYLINE
  5
430
100
AcDbEntity
  8
0
100
AcDbPolyline
 62
7
  6
CONTINUOUS
 90
11
 70
0
 10
6.6081002779
 20
5.7466743945
 10
6.6061104193
 20
5.8239215358
 10
6.6051277767
 20
5.8611194746
 10
6.6041532027
 20
5.8961771741
 10
6.6031776083
 20
5.9285910347
 10
6.6021952014
 20
5.9577273119
 10
6.6012165482
 20
5.9825482176
 10
6.6002345049
 20
6.0026284042
 10
6.5992400447
 20
6.0175327284
 10
6.5982450018
 20
6.0266041038
 10
6.5975401387
 20
6.0293635751
  0
LWPOLYLINE
  5
431
100
AcDbEntity
  8
0
100
AcDbPolyline
 62
7
  6
CONTINUOUS
 90
11
 70
0
 10
6.6415434902
 20
5.8239215358
 10
6.6435333488
 20
5.7466743945
 10
6.6445159133
 20
5.7094819358
 10
6.6454902965
 20
5.6744348702
 10
6.6464663382
 20
5.6420117422
 10
6.6474492897
 20
5.6128682701
 10
6.6484281019
 20
5.588055369
 10
6.649410062
 20
5.5679906102
 10
6.6504040533
 20
5.5531067956
 10
6.6513981958
 20
5.544053718
 10
6.6521018268
 20
5.5413017474
  0
LWPOLYLINE
  5
432
100
AcDbEntity
  8
0
100
AcDbPolyline
 62
7
  6
CONTINUOUS
 90
11
 70
0
 10
6.6474691124
 20
5.7467222929
 10
6.6454792509
 20
5.8239695439
 10
6.6444966296
 20
5.8611649058
 10
6.6435221792
 20
5.8962154635
 10
6.6425462865
 20
5.9286352537
 10
6.641563496
 20
5.9577765806
 10
6.6405847243
 20
5.9825919741
 10
6.6396027622
 20
6.0026608313
 10
6.6386086576
 20
6.0175504641
 10
6.6376142367
 20
6.0266092415
 10
6.6369102174
 20
6.0293635751
  0
LWPOLYLINE
  5
433
100
AcDbEntity
  8
0
100
AcDbPolyline
 62
7
  6
CONTINUOUS
 90
11
 70
0
 10
6.6809123218
 20
5.8239695439
 10
6.6829021832
 20
5.7467222929
 10
6.6838847719
 20
5.7095271539
 10
6.6848592812
 20
5.6744728749
 10
6.6858350088
 20
5.6420561978
 10
6.6868175799
 20
5.6129176537
 10
6.6877962778
 20
5.5880991225
 10
6.6887783233
 20
5.5680229598
 10
6.6897726743
 20
5.5531244271
 10
6.6907674432
 20
5.5440587781
 10
6.6914719055
 20
5.5413017474
  0
LWPOLYLINE
  5
434
100
AcDbEntity
  8
0
100
AcDbPolyline
 62
7
  6
CONTINUOUS
 90
11
 70
0
 10
6.759653935
 20
5.823913505
 10
6.7616437916
 20
5.7466664419
 10
6.7626263514
 20
5.7094744563
 10
6.7636007127
 20
5.6744286188
 10
6.7645768101
 20
5.6420043009
 10
6.7655598242
 20
5.612860034
 10
6.7665386546
 20
5.5880480923
 10
6.7675205997
 20
5.5679852462
 10
6.7685145302
 20
5.5531038859
 10
6.7695085675
 20
5.5440528943
 10
6.770212063
 20
5.5413017474
  0
LWPOLYLINE
  5
435
100
AcDbEntity
  8
0
100
AcDbPolyline
 62
7
  6
CONTINUOUS
 90
11
 70
0
 10
6.7655795565
 20
5.7467142881
 10
6.7635896944
 20
5.8239615635
 10
6.762607069
 20
5.8611573738
 10
6.7616325974
 20
5.8962091406
 10
6.7606567569
 20
5.9286278606
 10
6.7596740298
 20
5.9577683647
 10
6.7586952773
 20
5.982584692
 10
6.7577133009
 20
6.0026554461
 10
6.7567191365
 20
6.0175475286
 10
6.7557246113
 20
6.0266083991
 10
6.7550204536
 20
6.0293635751
  0
LINE
  5
436
100
AcDbEntity
  8
0
100
AcDbLine
 62
7
  6
CONTINUOUS
 10
6.6717868662
 20
6.0293635752
 11
6.6543485416
 21
5.9991934882
  0
LINE
  5
437
100
AcDbEntity
  8
0
100
AcDbLine
 62
7
  6
CONTINUOUS
 10
6.7111569449
 20
6.0293635752
 11
6.6937186204
 21
5.9991934882
  0
LINE
  5
438
100
AcDbEntity
  8
0
100
AcDbLine
 62
7
  6
CONTINUOUS
 10
6.7505270236
 20
6.0293635752
 11
6.7330886991
 21
5.9991934882
  0
LINE
  5
439
100
AcDbEntity
  8
0
100
AcDbLine
 62
7
  6
CONTINUOUS
 10
6.7898971024
 20
6.0293635752
 11
6.7724587779
 21
5.9991934882
  0
LINE
  5
43A
100
AcDbEntity
  8
0
100
AcDbLine
 62
7
  6
CONTINUOUS
 10
6.8292671811
 20
6.0293635752
 11
6.8118288566
 21
5.9991934882
  0
LINE
  5
43B
100
AcDbEntity
  8
0
100
AcDbLine
 62
7
  6
CONTINUOUS
 10
6.5778550993
 20
5.5413017474
 11
6.5952934235
 21
5.5714718344
  0
LINE
  5
43C
100
AcDbEntity
  8
0
100
AcDbLine
 62
7
  6
CONTINUOUS
 10
6.8686372599
 20
6.0293635752
 11
6.8511989353
 21
5.9991934882
  0
LINE
  5
43D
100
AcDbEntity
  8
0
100
AcDbLine
 62
7
  6
CONTINUOUS
 10
6.7111569449
 20
6.0293635752
 11
6.7114351559
 21
6.0296043148
  0
LINE
  5
43E
100
AcDbEntity
  8
0
100
AcDbLine
 62
7
  6
CONTINUOUS
 10
6.7505270236
 20
6.0293635752
 11
6.7508052347
 21
6.0296043148
  0
LINE
  5
43F
100
AcDbEntity
  8
0
100
AcDbLine
 62
7
  6
CONTINUOUS
 10
6.7898971024
 20
6.0293635752
 11
6.7901753134
 21
6.0296043148
  0
LINE
  5
440
100
AcDbEntity
  8
0
100
AcDbLine
 62
7
  6
CONTINUOUS
 10
6.8292671811
 20
6.0293635752
 11
6.8295453922
 21
6.0296043148
  0
LINE
  5
441
100
AcDbEntity
  8
0
100
AcDbLine
 62
7
  6
CONTINUOUS
 10
6.8686372599
 20
6.0293635752
 11
6.8689154709
 21
6.0296043148
  0
LINE
  5
442
100
AcDbEntity
  8
0
100
AcDbLine
 62
7
  6
CONTINUOUS
 10
6.9037806243
 20
6.0220501285
 11
6.9039624337
 21
6.0221164583
  0
LINE
  5
443
100
AcDbEntity
  8
0
100
AcDbLine
 62
7
  6
CONTINUOUS
 10
6.8531674394
 20
5.5410610077
 11
6.8492304315
 21
5.5410610077
  0
LINE
  5
444
100
AcDbEntity
  8
0
100
AcDbLine
 62
7
  6
CONTINUOUS
 10
6.8137973607
 20
5.5410610077
 11
6.8098603528
 21
5.5410610077
  0
LINE
  5
445
100
AcDbEntity
  8
0
100
AcDbLine
 62
7
  6
CONTINUOUS
 10
6.7744272819
 20
5.5410610077
 11
6.7704902741
 21
5.5410610077
  0
LINE
  5
446
100
AcDbEntity
  8
0
100
AcDbLine
 62
7
  6
CONTINUOUS
 10
6.7350572032
 20
5.5410610077
 11
6.7311201953
 21
5.5410610077
  0
LINE
  5
447
100
AcDbEntity
  8
0
100
AcDbLine
 62
7
  6
CONTINUOUS
 10
6.6956871245
 20
5.5410610077
 11
6.6917501166
 21
5.5410610077
  0
LINE
  5
448
100
AcDbEntity
  8
0
100
AcDbLine
 62
7
  6
CONTINUOUS
 10
6.6563170457
 20
5.5410610077
 11
6.6523800378
 21
5.5410610077
  0
LINE
  5
449
100
AcDbEntity
  8
0
100
AcDbLine
 62
7
  6
CONTINUOUS
 10
6.616946967
 20
5.5410610077
 11
6.6130099591
 21
5.5410610077
  0
LINE
  5
44A
100
AcDbEntity
  8
0
100
AcDbLine
 62
7
  6
CONTINUOUS
 10
6.5775768882
 20
5.5410610077
 11
6.5504231303
 21
5.5410610077
  0
LINE
  5
44B
100
AcDbEntity
  8
02___PRT_ALL_AXES
100
AcDbLine
 62
7
  6
CONTINUOUS
 10
6.8886005103
 20
5.5410610077
 11
6.8925375182
 21
5.5410610077
  0
LINE
  5
44C
100
AcDbEntity
  8
0
100
AcDbLine
 62
7
  6
CONTINUOUS
 10
6.9712776756
 20
5.5815925038
 11
6.9319075969
 21
5.5815925038
  0
LINE
  5
44D
100
AcDbEntity
  8
0
100
AcDbLine
 62
7
  6
CONTINUOUS
 10
6.9162503546
 20
5.5610986638
 11
6.9164422476
 21
5.5610286809
  0
LINE
  5
44E
100
AcDbEntity
  8
0
100
AcDbLine
 62
7
  6
CONTINUOUS
 10
6.6914719055
 20
5.5413017474
 11
6.6917501166
 21
5.5410610077
  0
LINE
  5
44F
100
AcDbEntity
  8
0
100
AcDbLine
 62
7
  6
CONTINUOUS
 10
6.7308419843
 20
5.5413017474
 11
6.7311201953
 21
5.5410610077
  0
LINE
  5
450
100
AcDbEntity
  8
0
100
AcDbLine
 62
7
  6
CONTINUOUS
 10
6.770212063
 20
5.5413017474
 11
6.7704902741
 21
5.5410610077
  0
LINE
  5
451
100
AcDbEntity
  8
0
100
AcDbLine
 62
7
  6
CONTINUOUS
 10
6.8095821418
 20
5.5413017474
 11
6.8098603528
 21
5.5410610077
  0
LINE
  5
452
100
AcDbEntity
  8
0
100
AcDbLine
 62
7
  6
CONTINUOUS
 10
6.8489522205
 20
5.5413017474
 11
6.8492304315
 21
5.5410610077
  0
LINE
  5
453
100
AcDbEntity
  8
0
100
AcDbLine
 62
7
  6
CONTINUOUS
 10
6.8886005103
 20
5.5410610077
 11
6.8883222992
 21
5.5413017474
  0
LINE
  5
454
100
AcDbEntity
  8
0
100
AcDbLine
 62
7
  6
CONTINUOUS
 10
6.5749006442
 20
6.0015456017
 11
6.5696955664
 21
6.0105058516
  0
LINE
  5
455
100
AcDbEntity
  8
0
100
AcDbLine
 62
7
  6
CONTINUOUS
 10
6.5696955664
 20
6.0105058516
 11
6.5593269732
 21
6.0283667139
  0
LINE
  5
456
100
AcDbEntity
  8
0
100
AcDbLine
 62
7
  6
CONTINUOUS
 10
6.6737154637
 20
5.5720221489
 11
6.6914719055
 21
5.5413017474
  0
LINE
  5
457
100
AcDbEntity
  8
0
100
AcDbLine
 62
7
  6
CONTINUOUS
 10
6.7130855424
 20
5.5720221489
 11
6.7308419843
 21
5.5413017474
  0
LINE
  5
458
100
AcDbEntity
  8
0
100
AcDbLine
 62
7
  6
CONTINUOUS
 10
6.7524556212
 20
5.5720221489
 11
6.770212063
 21
5.5413017474
  0
LINE
  5
459
100
AcDbEntity
  8
0
100
AcDbLine
 62
7
  6
CONTINUOUS
 10
6.7918256999
 20
5.5720221489
 11
6.8095821418
 21
5.5413017474
  0
LINE
  5
45A
100
AcDbEntity
  8
0
100
AcDbLine
 62
7
  6
CONTINUOUS
 10
6.5759265017
 20
5.9986431737
 11
6.5581700599
 21
6.0293635751
  0
LINE
  5
45B
100
AcDbEntity
  8
0
100
AcDbLine
 62
7
  6
CONTINUOUS
 10
6.8311957786
 20
5.5720221489
 11
6.8489522205
 21
5.5413017474
  0
LINE
  5
45C
100
AcDbEntity
  8
0
100
AcDbLine
 62
7
  6
CONTINUOUS
 10
6.6152965805
 20
5.9986431737
 11
6.5975401387
 21
6.0293635751
  0
LWPOLYLINE
  5
45D
100
AcDbEntity
  8
0
100
AcDbPolyline
 62
7
  6
CONTINUOUS
 90
10
 70
0
 10
6.7918256999
 20
5.5720221489
 10
6.791706372
 20
5.5722672313
 10
6.7906674394
 20
5.5776483375
 10
6.7896285068
 20
5.5887259749
 10
6.7885895741
 20
5.6051962971
 10
6.7875506415
 20
5.6266075431
 10
6.7865117089
 20
5.6523724281
 10
6.7854727762
 20
5.6817842524
 10
6.7844338436
 20
5.7140362849
 10
6.783394911
 20
5.7482438913
  0
LWPOLYLINE
  5
45E
100
AcDbEntity
  8
0
100
AcDbPolyline
 62
7
  6
CONTINUOUS
 90
11
 70
0
 10
6.7524556212
 20
5.5720221489
 10
6.752226932
 20
5.5725597054
 10
6.7511879993
 20
5.5785501562
 10
6.7501490667
 20
5.5902124024
 10
6.7491101341
 20
5.6072265626
 10
6.7480712014
 20
5.6291259587
 10
6.7470322688
 20
5.6553099168
 10
6.7459933362
 20
5.6850602423
 10
6.7449544035
 20
5.7175609197
 10
6.7439154709
 20
5.7519204944
 10
6.7418376056
 20
5.8224214313
  0
LWPOLYLINE
  5
45F
100
AcDbEntity
  8
0
100
AcDbPolyline
 62
7
  6
CONTINUOUS
 90
14
 70
0
 10
6.7130855424
 20
5.5720221489
 10
6.7127474919
 20
5.5729169921
 10
6.7117085593
 20
5.5795149629
 10
6.7106696266
 20
5.5917582655
 10
6.709630694
 20
5.6093110808
 10
6.7085917614
 20
5.6316919564
 10
6.7075528287
 20
5.6582870117
 10
6.7065138961
 20
5.6883667762
 10
6.7054749635
 20
5.7211061984
 10
6.7044360308
 20
5.7556072751
 10
6.7033970982
 20
5.7909236835
 10
6.7023581656
 20
5.8260867368
 10
6.7013192329
 20
5.8601319549
 10
6.7002803003
 20
5.8921255183
  0
LWPOLYLINE
  5
460
100
AcDbEntity
  8
0
100
AcDbPolyline
 62
7
  6
CONTINUOUS
 90
8
 70
0
 10
6.8137973607
 20
5.5410610077
 10
6.8128639094
 20
5.5437665247
 10
6.8119185931
 20
5.551959345
 10
6.8109720179
 20
5.5654751697
 10
6.8100349124
 20
5.5837900409
 10
6.8091042423
 20
5.6064334682
 10
6.8081678231
 20
5.6331915588
 10
6.8072356809
 20
5.6631968345
  0
LWPOLYLINE
  5
461
100
AcDbEntity
  8
0
100
AcDbPolyline
 62
7
  6
CONTINUOUS
 90
20
 70
0
 10
6.6737154637
 20
5.5720221489
 10
6.6732680518
 20
5.5733389828
 10
6.6722291192
 20
5.5805424636
 10
6.6711901866
 20
5.5933630931
 10
6.6701512539
 20
5.611449217
 10
6.6691123213
 20
5.6343047545
 10
6.6680733887
 20
5.6613028059
 10
6.667034456
 20
5.6917028469
 10
6.6659955234
 20
5.7246710411
 10
6.6649565908
 20
5.7593031106
 10
6.6639176581
 20
5.7946491393
 10
6.6628787255
 20
5.8297396282
 10
6.6618397929
 20
5.8636120875
 10
6.6608008602
 20
5.8953374363
 10
6.6597619276
 20
5.9240454864
 10
6.658722995
 20
5.9489488107
 10
6.6576840623
 20
5.9693643408
 10
6.6566451297
 20
5.9847321033
 10
6.6556061971
 20
5.994630579
 10
6.6546666592
 20
5.9986431737
  0
LWPOLYLINE
  5
462
100
AcDbEntity
  8
0
100
AcDbPolyline
 62
7
  6
CONTINUOUS
 90
11
 70
0
 10
6.7350572032
 20
5.5410610077
 10
6.7340754966
 20
5.5440528943
 10
6.7330814593
 20
5.5531038859
 10
6.7320875288
 20
5.5679852462
 10
6.7311055837
 20
5.5880480923
 10
6.7301267534
 20
5.612860034
 10
6.7291437393
 20
5.6420043009
 10
6.7281676419
 20
5.6744286188
 10
6.7271932805
 20
5.7094744563
 10
6.7262107208
 20
5.7466664419
 10
6.7242208642
 20
5.823913505
  0
LWPOLYLINE
  5
463
100
AcDbEntity
  8
0
100
AcDbPolyline
 62
7
  6
CONTINUOUS
 90
10
 70
0
 10
6.6563170457
 20
5.5410610077
 10
6.6553343723
 20
5.5440587781
 10
6.6543396035
 20
5.5531244271
 10
6.6533452524
 20
5.5680229598
 10
6.6523632069
 20
5.5880991225
 10
6.651384509
 20
5.6129176537
 10
6.650401938
 20
5.6420561978
 10
6.6494262103
 20
5.6744728749
 10
6.648451701
 20
5.7095271539
 10
6.6474691124
 20
5.7467222929
  0
LWPOLYLINE
  5
464
100
AcDbEntity
  8
0
100
AcDbPolyline
 62
7
  6
CONTINUOUS
 90
10
 70
0
 10
6.7744272819
 20
5.5410610077
 10
6.7734447493
 20
5.5440579207
 10
6.7724500843
 20
5.5531214679
 10
6.7714557926
 20
5.5680175485
 10
6.7704737607
 20
5.5880918192
 10
6.7694950432
 20
5.612909427
 10
6.7685124081
 20
5.6420488114
 10
6.7675366306
 20
5.6744664816
 10
6.7665621417
 20
5.709519577
 10
6.7655795565
 20
5.7467142881
  0
LWPOLYLINE
  5
465
100
AcDbEntity
  8
0
100
AcDbPolyline
 62
7
  6
CONTINUOUS
 90
10
 70
0
 10
6.6720650772
 20
6.0296043148
 10
6.6730473076
 20
6.0266092415
 10
6.6740417285
 20
6.0175504641
 10
6.675035833
 20
6.0026608313
 10
6.6760177952
 20
5.9825919741
 10
6.6769965669
 20
5.9577765806
 10
6.6779793574
 20
5.9286352537
 10
6.67895525
 20
5.8962154635
 10
6.6799297004
 20
5.8611649058
 10
6.6809123218
 20
5.8239695439
  0
LWPOLYLINE
  5
466
100
AcDbEntity
  8
0
100
AcDbPolyline
 62
7
  6
CONTINUOUS
 90
10
 70
0
 10
6.6326949985
 20
6.0296043148
 10
6.6336780727
 20
6.0266041038
 10
6.6346731156
 20
6.0175327284
 10
6.6356675757
 20
6.0026284042
 10
6.6366496191
 20
5.9825482176
 10
6.6376282723
 20
5.9577273119
 10
6.6386106791
 20
5.9285910347
 10
6.6395862735
 20
5.8961771741
 10
6.6405608476
 20
5.8611194746
 10
6.6415434902
 20
5.8239215358
  0
LWPOLYLINE
  5
467
100
AcDbEntity
  8
0
100
AcDbPolyline
 62
7
  6
CONTINUOUS
 90
10
 70
0
 10
6.5933249197
 20
6.0296043148
 10
6.5943083216
 20
6.0266021077
 10
6.5953036163
 20
6.0175257138
 10
6.5962982448
 20
6.0026150848
 10
6.5972803669
 20
5.9825292027
 10
6.5982589513
 20
5.9577063803
 10
6.5992410375
 20
5.9285772336
 10
6.6002164412
 20
5.8961686126
 10
6.6011911998
 20
5.8611035051
 10
6.6021739094
 20
5.8239023673
  0
LWPOLYLINE
  5
468
100
AcDbEntity
  8
0
100
AcDbPolyline
 62
7
  6
CONTINUOUS
 90
14
 70
0
 10
6.6956871245
 20
5.5410610077
 10
6.6946803621
 20
5.5442072324
 10
6.6936607729
 20
5.5537232782
 10
6.692641675
 20
5.5693493051
 10
6.691635759
 20
5.590365925
 10
6.6906299048
 20
5.6163947333
 10
6.6896212444
 20
5.6468576665
 10
6.6886204123
 20
5.6806253549
 10
6.6876207251
 20
5.7170158391
 10
6.6866084266
 20
5.7556295038
 10
6.6855863782
 20
5.7953965223
 10
6.684567696
 20
5.8347678735
 10
6.6835640762
 20
5.8722870287
 10
6.6825637649
 20
5.9074684881
  0
LWPOLYLINE
  5
469
100
AcDbEntity
  8
0
100
AcDbPolyline
 62
7
  6
CONTINUOUS
 90
20
 70
0
 10
6.6343453849
 20
5.5720221489
 10
6.6337886118
 20
5.5738255487
 10
6.6327496791
 20
5.5816323454
 10
6.6317107465
 20
5.5950263966
 10
6.6306718139
 20
5.6136403197
 10
6.6296328812
 20
5.6369635572
 10
6.6285939486
 20
5.6643563807
 10
6.627555016
 20
5.6950674381
 10
6.6265160833
 20
5.7282543619
 10
6.6254771507
 20
5.7630068748
 10
6.6244382181
 20
5.7983717572
 10
6.6233992854
 20
5.8333789929
 10
6.6223603528
 20
5.8670683754
 10
6.6213214202
 20
5.8985158457
 10
6.6202824875
 20
5.9268588374
 10
6.6192435549
 20
5.9513199364
 10
6.6182046223
 20
5.9712282041
 10
6.6171656896
 20
5.9860375807
 10
6.616126757
 20
5.9953418628
 10
6.6152965805
 20
5.9986431737
  0
LINE
  5
46A
100
AcDbEntity
  8
0
100
AcDbLine
 62
7
  6
CONTINUOUS
 10
6.5756083843
 20
5.9989183753
 11
6.5749006442
 21
6.0015456017
  0
LINE
  5
46B
100
AcDbEntity
  8
0
100
AcDbLine
 62
7
  6
CONTINUOUS
 10
6.5588752507
 20
6.0266021077
 11
6.5581700599
 21
6.0293635751
  0
LWPOLYLINE
  5
46C
100
AcDbEntity
  8
0
100
AcDbPolyline
 62
7
  6
CONTINUOUS
 90
14
 70
0
 10
6.8249522163
 20
5.6785398043
 10
6.8239132837
 20
5.7105333677
 10
6.822874351
 20
5.7445785858
 10
6.8218354184
 20
5.7797416391
 10
6.8207964858
 20
5.8150580474
 10
6.8197575531
 20
5.8495591242
 10
6.8187186205
 20
5.8822985463
 10
6.8176796879
 20
5.9123783109
 10
6.8166407552
 20
5.9389733662
 10
6.8156018226
 20
5.9613542417
 10
6.81456289
 20
5.9789070571
 10
6.8135239573
 20
5.9911503597
 10
6.8124850247
 20
5.9977483304
 10
6.8121469742
 20
5.9986431737
  0
LWPOLYLINE
  5
46D
100
AcDbEntity
  8
0
100
AcDbPolyline
 62
7
  6
CONTINUOUS
 90
8
 70
0
 10
6.8426687517
 20
5.6631968345
 10
6.8436008939
 20
5.6331915588
 10
6.8445373131
 20
5.6064334682
 10
6.8454679833
 20
5.5837900409
 10
6.8464050887
 20
5.5654751697
 10
6.8473516639
 20
5.551959345
 10
6.8482969802
 20
5.5437665247
 10
6.8489522205
 20
5.5413017474
  0
LWPOLYLINE
  5
46E
100
AcDbEntity
  8
0
100
AcDbPolyline
 62
7
  6
CONTINUOUS
 90
11
 70
0
 10
6.783394911
 20
5.7482438913
 10
6.7813170457
 20
5.8187448282
 10
6.7802781131
 20
5.8531044029
 10
6.7792391804
 20
5.8856050802
 10
6.7782002478
 20
5.9153554058
 10
6.7771613152
 20
5.9415393639
 10
6.7761223825
 20
5.96343876
 10
6.7750834499
 20
5.9804529202
 10
6.7740445173
 20
5.9921151664
 10
6.7730055846
 20
5.9981056172
 10
6.7727768954
 20
5.9986431737
  0
LWPOLYLINE
  5
46F
100
AcDbEntity
  8
0
100
AcDbPolyline
 62
7
  6
CONTINUOUS
 90
11
 70
0
 10
6.8621188692
 20
5.7487878074
 10
6.8600540551
 20
5.8188508107
 10
6.8590216481
 20
5.8529952134
 10
6.8579892411
 20
5.885306902
 10
6.856956834
 20
5.9149106792
 10
6.855924427
 20
5.9410046942
 10
6.85489202
 20
5.9628821622
 10
6.853859613
 20
5.9799505081
 10
6.8528272059
 20
5.9917474171
 10
6.8517947989
 20
5.997953357
 10
6.8515170529
 20
5.9986431737
  0
LWPOLYLINE
  5
470
100
AcDbEntity
  8
0
100
AcDbPolyline
 62
7
  6
CONTINUOUS
 90
14
 70
0
 10
6.8072356809
 20
5.6631968345
 10
6.8062355738
 20
5.6983708521
 10
6.8052320342
 20
5.7358865895
 10
6.8042134183
 20
5.775255137
 10
6.8031914022
 20
5.8150209979
 10
6.8021791915
 20
5.8536318576
 10
6.8011794274
 20
5.8900260909
 10
6.8001788233
 20
5.9237876807
 10
6.7991705313
 20
5.9542427008
 10
6.7981649154
 20
5.9802705395
 10
6.797158955
 20
6.0012944497
 10
6.7961396939
 20
6.0169293924
 10
6.7951196734
 20
6.0264544114
 10
6.7943905324
 20
6.0293635751
  0
LWPOLYLINE
  5
471
100
AcDbEntity
  8
0
100
AcDbPolyline
 62
7
  6
CONTINUOUS
 90
11
 70
0
 10
6.7990227653
 20
5.8239615635
 10
6.8010126274
 20
5.7467142881
 10
6.8019952125
 20
5.709519577
 10
6.8029697015
 20
5.6744664816
 10
6.803945479
 20
5.6420488114
 10
6.804928114
 20
5.612909427
 10
6.8059068316
 20
5.5880918192
 10
6.8068888634
 20
5.5680175485
 10
6.8078831551
 20
5.5531214679
 10
6.8088778202
 20
5.5440579207
 10
6.8095821418
 20
5.5413017474
  0
LWPOLYLINE
  5
472
100
AcDbEntity
  8
0
100
AcDbPolyline
 62
7
  6
CONTINUOUS
 90
11
 70
0
 10
6.8443211406
 20
5.7466593755
 10
6.8423312814
 20
5.8239065385
 10
6.8413486314
 20
5.8611053089
 10
6.8403740155
 20
5.8961653482
 10
6.8393985101
 20
5.9285774771
 10
6.8384162302
 20
5.9577119441
 10
6.8374376163
 20
5.9825345143
 10
6.8364555477
 20
6.0026182461
 10
6.8354609775
 20
6.0175271555
 10
6.8344657427
 20
6.0266024684
 10
6.8337606111
 20
6.0293635751
  0
LWPOLYLINE
  5
473
100
AcDbEntity
  8
0
100
AcDbPolyline
 62
7
  6
CONTINUOUS
 90
11
 70
0
 10
6.8797422999
 20
5.7471179479
 10
6.8777737268
 20
5.8235456234
 10
6.8767894779
 20
5.8608170773
 10
6.8758052534
 20
5.89622902
 10
6.8748210261
 20
5.9289105676
 10
6.8738367784
 20
5.9580574911
 10
6.8728525414
 20
5.9829511446
 10
6.8718682942
 20
6.0029791058
 10
6.8708840094
 20
6.0176483933
 10
6.8698997218
 20
6.026596932
 10
6.8689154709
 20
6.0296043148
  0
LWPOLYLINE
  5
474
100
AcDbEntity
  8
0
100
AcDbPolyline
 62
7
  6
CONTINUOUS
 90
11
 70
0
 10
6.8817107338
 20
5.823545657
 10
6.8836793076
 20
5.747117956
 10
6.8846635565
 20
5.7098465621
 10
6.885647781
 20
5.674434728
 10
6.8866320095
 20
5.6417532868
 10
6.8876162588
 20
5.6126065052
 10
6.8886004964
 20
5.5877130612
 10
6.8895847437
 20
5.5676853518
 10
6.890569028
 20
5.5530163478
 10
6.8915533138
 20
5.5440681066
 10
6.8925375182
 20
5.5410610077
  0
LINE
  5
475
100
AcDbEntity
  8
0
100
AcDbLine
 62
7
  6
CONTINUOUS
 10
6.9319075969
 20
5.5764940786
 11
6.9319075969
 21
5.994171244
  0
LINE
  5
476
100
AcDbEntity
  8
0
100
AcDbLine
 62
7
  6
CONTINUOUS
 10
6.617225178
 20
5.5413017474
 11
6.6346635023
 21
5.5714718344
  0
LINE
  5
477
100
AcDbEntity
  8
0
100
AcDbLine
 62
7
  6
CONTINUOUS
 10
6.9037806243
 20
6.0220501285
 11
6.8905690141
 21
5.9991934882
  0
LINE
  5
478
100
AcDbEntity
  8
0
100
AcDbLine
 62
7
  6
CONTINUOUS
 10
6.6565952568
 20
5.5413017474
 11
6.674033581
 21
5.5714718344
  0
LINE
  5
479
100
AcDbEntity
  8
0
100
AcDbLine
 62
7
  6
CONTINUOUS
 10
6.6959653355
 20
5.5413017474
 11
6.7134036598
 21
5.5714718344
  0
LINE
  5
47A
100
AcDbEntity
  8
0
100
AcDbLine
 62
7
  6
CONTINUOUS
 10
6.7353354143
 20
5.5413017474
 11
6.7527737385
 21
5.5714718344
  0
LINE
  5
47B
100
AcDbEntity
  8
0
100
AcDbLine
 62
7
  6
CONTINUOUS
 10
6.774705493
 20
5.5413017474
 11
6.7921438172
 21
5.5714718344
  0
LINE
  5
47C
100
AcDbEntity
  8
0
100
AcDbLine
 62
7
  6
CONTINUOUS
 10
6.8140755717
 20
5.5413017474
 11
6.831513896
 21
5.5714718344
  0
LINE
  5
47D
100
AcDbEntity
  8
0
100
AcDbLine
 62
7
  6
CONTINUOUS
 10
6.5778550993
 20
5.5413017474
 11
6.5775768882
 21
5.5410610077
  0
LINE
  5
47E
100
AcDbEntity
  8
0
100
AcDbLine
 62
7
  6
CONTINUOUS
 10
6.617225178
 20
5.5413017474
 11
6.616946967
 21
5.5410610077
  0
LINE
  5
47F
100
AcDbEntity
  8
0
100
AcDbLine
 62
7
  6
CONTINUOUS
 10
6.6565952568
 20
5.5413017474
 11
6.6563170457
 21
5.5410610077
  0
LINE
  5
480
100
AcDbEntity
  8
0
100
AcDbLine
 62
7
  6
CONTINUOUS
 10
6.5262491043
 20
5.5385606516
 11
6.4988367308
 21
5.5328287243
  0
LINE
  5
481
100
AcDbEntity
  8
AXIS_COSMETIC_THREADS
100
AcDbLine
 62
7
  6
CONTINUOUS
 10
6.9712776756
 20
5.6688326613
 11
9.2760020851
 21
5.6688326613
  0
LINE
  5
482
100
AcDbEntity
  8
AXIS
100
AcDbLine
 62
7
  6
CONTINUOUS
 10
9.2760020851
 20
5.7203326613
 11
9.5760020851
 21
5.7203326613
  0
LINE
  5
483
100
AcDbEntity
  8
AXIS
100
AcDbLine
 62
7
  6
CONTINUOUS
 10
9.2760020851
 20
5.7703326613
 11
9.5760020851
 21
5.7703326613
  0
LINE
  5
484
100
AcDbEntity
  8
AXIS
100
AcDbLine
 62
7
  6
CONTINUOUS
 10
9.2760020851
 20
5.8003326613
 11
9.5760020851
 21
5.8003326613
  0
LWPOLYLINE
  5
485
100
AcDbEntity
  8
0
100
AcDbPolyline
 62
7
  6
CONTINUOUS
 90
3
 70
0
 10
5.806706042
 20
6.326671244
 10
5.8070763212
 20
6.3264807869
 10
5.8072433998
 20
6.3259141271
  0
LINE
  5
486
100
AcDbEntity
  8
0
100
AcDbLine
 62
7
  6
CONTINUOUS
 10
6.5593269732
 20
6.0283667139
 11
6.5578918489
 21
6.0296043148
  0
LINE
  5
487
100
AcDbEntity
  8
0
100
AcDbLine
 62
7
  6
CONTINUOUS
 10
6.5975401387
 20
6.0293635751
 11
6.5972619276
 21
6.0296043148
  0
LINE
  5
488
100
AcDbEntity
  8
0
100
AcDbLine
 62
7
  6
CONTINUOUS
 10
6.6369102174
 20
6.0293635751
 11
6.6366320063
 21
6.0296043148
  0
LINE
  5
489
100
AcDbEntity
  8
0
100
AcDbLine
 62
7
  6
CONTINUOUS
 10
6.6762802961
 20
6.0293635751
 11
6.6760020851
 21
6.0296043148
  0
LINE
  5
48A
100
AcDbEntity
  8
0
100
AcDbLine
 62
7
  6
CONTINUOUS
 10
6.8705658574
 20
5.5720221489
 11
6.8883222992
 21
5.5413017474
  0
LINE
  5
48B
100
AcDbEntity
  8
0
100
AcDbLine
 62
7
  6
CONTINUOUS
 10
6.6546666592
 20
5.9986431737
 11
6.6369102174
 21
6.0293635751
  0
LINE
  5
48C
100
AcDbEntity
  8
0
100
AcDbLine
 62
7
  6
CONTINUOUS
 10
6.9099359361
 20
5.5720221489
 11
6.9162503546
 21
5.5610986638
  0
LINE
  5
48D
100
AcDbEntity
  8
0
100
AcDbLine
 62
7
  6
CONTINUOUS
 10
6.694036738
 20
5.9986431737
 11
6.6762802961
 21
6.0293635751
  0
LINE
  5
48E
100
AcDbEntity
  8
0
100
AcDbLine
 62
7
  6
CONTINUOUS
 10
6.7334068167
 20
5.9986431737
 11
6.7156503749
 21
6.0293635751
  0
LINE
  5
48F
100
AcDbEntity
  8
0
100
AcDbLine
 62
7
  6
CONTINUOUS
 10
6.7727768954
 20
5.9986431737
 11
6.7550204536
 21
6.0293635751
  0
LINE
  5
490
100
AcDbEntity
  8
0
100
AcDbLine
 62
7
  6
CONTINUOUS
 10
6.8121469742
 20
5.9986431737
 11
6.7943905324
 21
6.0293635751
  0
LWPOLYLINE
  5
491
100
AcDbEntity
  8
0
100
AcDbPolyline
 62
7
  6
CONTINUOUS
 90
10
 70
0
 10
6.8705658574
 20
5.5720221489
 10
6.8703781253
 20
5.5724425738
 10
6.8693457183
 20
5.5781508488
 10
6.8683133113
 20
5.5894708695
 10
6.8672809043
 20
5.6060960207
 10
6.8662484973
 20
5.627575992
 10
6.8652160902
 20
5.6533289749
 10
6.8641836832
 20
5.6826574219
 10
6.8631512762
 20
5.7147669399
 10
6.8621188692
 20
5.7487878074
  0
LWPOLYLINE
  5
492
100
AcDbEntity
  8
0
100
AcDbPolyline
 62
7
  6
CONTINUOUS
 90
21
 70
0
 10
6.9099359361
 20
5.5720221489
 10
6.9096095922
 20
5.5728756517
 10
6.9085771852
 20
5.5793497516
 10
6.9075447782
 20
5.5914031235
 10
6.9065123712
 20
5.6087092887
 10
6.9054799641
 20
5.6307994908
 10
6.9044475571
 20
5.6570753926
 10
6.9034151501
 20
5.6868252826
 10
6.9023827431
 20
5.7192433525
 10
6.9013503361
 20
5.7534515235
 10
6.900317929
 20
5.7885232299
 10
6.899285522
 20
5.8235085163
 10
6.898253115
 20
5.857459768
 10
6.897220708
 20
5.8894573782
 10
6.8961883009
 20
5.9186346568
 10
6.8951558939
 20
5.9442013052
 10
6.8941234869
 20
5.965464823
 10
6.8930910799
 20
5.9818492644
 10
6.8920586728
 20
5.9929108391
 10
6.8910262658
 20
5.9983499321
 10
6.8908871317
 20
5.9986431737
  0
LWPOLYLINE
  5
493
100
AcDbEntity
  8
0
100
AcDbPolyline
 62
7
  6
CONTINUOUS
 90
8
 70
0
 10
6.7114351559
 20
6.0296043148
 10
6.712369086
 20
6.0268960271
 10
6.7133147562
 20
6.0186963885
 10
6.7142614595
 20
6.0051738286
 10
6.7151986279
 20
5.9868527307
 10
6.7161289866
 20
5.9642129473
 10
6.7170650895
 20
5.9374616884
 10
6.7179968357
 20
5.9074684881
  0
LWPOLYLINE
  5
494
100
AcDbEntity
  8
0
100
AcDbPolyline
 62
7
  6
CONTINUOUS
 90
10
 70
0
 10
6.8531674394
 20
5.5410610077
 10
6.8521858648
 20
5.5440520915
 10
6.8511919305
 20
5.5531010459
 10
6.8501980585
 20
5.5679800251
 10
6.8492161264
 20
5.5880410486
 10
6.8482372754
 20
5.6128521433
 10
6.8472541965
 20
5.6419973256
 10
6.84627804
 20
5.6744229966
 10
6.8453036983
 20
5.70946773
 10
6.8443211406
 20
5.7466593755
  0
LWPOLYLINE
  5
495
100
AcDbEntity
  8
0
100
AcDbPolyline
 62
7
  6
CONTINUOUS
 90
10
 70
0
 10
6.7901753134
 20
6.0296043148
 10
6.7911576822
 20
6.0266083991
 10
6.7921522074
 20
6.0175475286
 10
6.7931463718
 20
6.0026554461
 10
6.7941283481
 20
5.982584692
 10
6.7951071006
 20
5.9577683647
 10
6.7960898278
 20
5.9286278606
 10
6.7970656683
 20
5.8962091406
 10
6.7980401399
 20
5.8611573738
 10
6.7990227653
 20
5.8239615635
  0
LWPOLYLINE
  5
496
100
AcDbEntity
  8
0
100
AcDbPolyline
 62
7
  6
CONTINUOUS
 90
10
 70
0
 10
6.7508052347
 20
6.0296043148
 10
6.7517884526
 20
6.026603228
 10
6.7527835984
 20
6.0175297439
 10
6.7537781169
 20
6.0026229725
 10
6.754760173
 20
5.98254091
 10
6.7557388056
 20
5.9577191067
 10
6.7567211477
 20
5.9285836974
 10
6.7576966958
 20
5.8961707103
 10
6.7586712896
 20
5.8611118469
 10
6.759653935
 20
5.823913505
  0
LWPOLYLINE
  5
497
100
AcDbEntity
  8
0
100
AcDbPolyline
 62
7
  6
CONTINUOUS
 90
14
 70
0
 10
6.8295453922
 20
6.0296043148
 10
6.8305527443
 20
6.0264544114
 10
6.8315727647
 20
6.0169293924
 10
6.8325920258
 20
6.0012944497
 10
6.8335979862
 20
5.9802705395
 10
6.8346036022
 20
5.9542427008
 10
6.8356118942
 20
5.9237876807
 10
6.8366124983
 20
5.8900260909
 10
6.8376122624
 20
5.8536318576
 10
6.838624473
 20
5.8150209979
 10
6.8396464892
 20
5.775255137
 10
6.840665105
 20
5.7358865895
 10
6.8416686447
 20
5.6983708521
 10
6.8426687517
 20
5.6631968345
  0
LWPOLYLINE
  5
498
100
AcDbEntity
  8
0
100
AcDbPolyline
 62
7
  6
CONTINUOUS
 90
10
 70
0
 10
6.8883222992
 20
5.5413017474
 10
6.8876163024
 20
5.5440681285
 10
6.8866320187
 20
5.5530163641
 10
6.8856477358
 20
5.5676853524
 10
6.8846634891
 20
5.5877130482
 10
6.8836792515
 20
5.6126064883
 10
6.8826950014
 20
5.6417532931
 10
6.8817107723
 20
5.6744347559
 10
6.8807265485
 20
5.7098465683
 10
6.8797422999
 20
5.7471179479
  0
LWPOLYLINE
  5
499
100
AcDbEntity
  8
0
100
AcDbPolyline
 62
7
  6
CONTINUOUS
 90
10
 70
0
 10
6.8731306898
 20
6.0293635751
 10
6.8738367274
 20
6.0265969457
 10
6.8748210135
 20
6.0176484384
 10
6.8758052977
 20
6.0029791833
 10
6.876789545
 20
5.9829512436
 10
6.8777737825
 20
5.9580575933
 10
6.8787580318
 20
5.9289106386
 10
6.8797422602
 20
5.8962290597
 10
6.8807264847
 20
5.8608171196
 10
6.8817107338
 20
5.823545657
  0
LWPOLYLINE
  5
49A
100
AcDbEntity
  8
0
100
AcDbPolyline
 62
7
  6
CONTINUOUS
 90
7
 70
0
 10
6.8311957786
 20
5.5720221489
 10
6.8301142514
 20
5.5770533283
 10
6.8290818444
 20
5.5876344584
 10
6.8280494374
 20
5.6035704602
 10
6.8270170304
 20
5.6244296897
 10
6.8259846233
 20
5.6496471519
 10
6.8249522163
 20
5.6785398043
  0
LINE
  5
49B
100
AcDbEntity
  8
0
100
AcDbLine
 62
7
  6
CONTINUOUS
 10
6.9158154324
 20
5.5631962115
 11
6.9162503546
 21
5.5610986638
  0
LWPOLYLINE
  5
49C
100
AcDbEntity
  8
0
100
AcDbPolyline
 62
7
  6
CONTINUOUS
 90
20
 70
0
 10
6.9039624337
 20
6.0221164583
 10
6.9045813917
 20
6.0186365363
 10
6.9052083974
 20
6.0093793912
 10
6.9058355907
 20
5.9946077512
 10
6.9064556121
 20
5.9749742299
 10
6.9070736616
 20
5.9509266535
 10
6.9076947715
 20
5.9228671551
 10
6.908312027
 20
5.8918106748
 10
6.9089287981
 20
5.8583853436
 10
6.9095507458
 20
5.8230854934
 10
6.9101811736
 20
5.7865612086
 10
6.9108122365
 20
5.7501690792
 10
6.9114361538
 20
5.7152502314
 10
6.9120549374
 20
5.6825040688
 10
6.9126749427
 20
5.6523630975
 10
6.9132998321
 20
5.6254157363
 10
6.9139227737
 20
5.6026209207
 10
6.9145478655
 20
5.5843709702
 10
6.9151812952
 20
5.5710364028
 10
6.9158154324
 20
5.5631962115
  0
LINE
  5
49D
100
AcDbEntity
  8
0
100
AcDbLine
 62
7
  6
CONTINUOUS
 10
6.9712776756
 20
5.5815925038
 11
6.9712776756
 21
5.9890728188
  0
LINE
  5
49E
100
AcDbEntity
  8
0
100
AcDbLine
 62
7
  6
CONTINUOUS
 10
6.8534456505
 20
5.5413017474
 11
6.8708839747
 21
5.5714718344
  0
LINE
  5
49F
100
AcDbEntity
  8
0
100
AcDbLine
 62
7
  6
CONTINUOUS
 10
6.8928157292
 20
5.5413017474
 11
6.9102540535
 21
5.5714718344
  0
LINE
  5
4A0
100
AcDbEntity
  8
0
100
AcDbLine
 62
7
  6
CONTINUOUS
 10
6.9164422476
 20
5.5610286809
 11
6.9319076194
 21
5.5764940561
  0
LINE
  5
4A1
100
AcDbEntity
  8
0
100
AcDbLine
 62
7
  6
CONTINUOUS
 10
6.6959653355
 20
5.5413017474
 11
6.6956871245
 21
5.5410610077
  0
LINE
  5
4A2
100
AcDbEntity
  8
0
100
AcDbLine
 62
7
  6
CONTINUOUS
 10
6.7353354143
 20
5.5413017474
 11
6.7350572032
 21
5.5410610077
  0
LINE
  5
4A3
100
AcDbEntity
  8
0
100
AcDbLine
 62
7
  6
CONTINUOUS
 10
6.774705493
 20
5.5413017474
 11
6.7744272819
 21
5.5410610077
  0
LINE
  5
4A4
100
AcDbEntity
  8
0
100
AcDbLine
 62
7
  6
CONTINUOUS
 10
6.8140755717
 20
5.5413017474
 11
6.8137973607
 21
5.5410610077
  0
LINE
  5
4A5
100
AcDbEntity
  8
0
100
AcDbLine
 62
7
  6
CONTINUOUS
 10
6.8534456505
 20
5.5413017474
 11
6.8531674394
 21
5.5410610077
  0
LINE
  5
4A6
100
AcDbEntity
  8
0
100
AcDbLine
 62
7
  6
CONTINUOUS
 10
6.8925375182
 20
5.5410610077
 11
6.8928157292
 21
5.5413017474
  0
LINE
  5
4A7
100
AcDbEntity
  8
AXIS
100
AcDbLine
 62
7
  6
CONTINUOUS
 10
9.2760020851
 20
5.8503326613
 11
9.5760020851
 21
5.8503326613
  0
LINE
  5
4A8
100
AcDbEntity
  8
AXIS_COSMETIC_THREADS
100
AcDbLine
 62
7
  6
CONTINUOUS
 10
6.9712776756
 20
5.9018326613
 11
9.2760020851
 21
5.9018326613
  0
LINE
  5
4A9
100
AcDbEntity
  8
0
100
AcDbLine
 62
7
  6
CONTINUOUS
 10
6.9712776756
 20
5.9890728188
 11
6.9319075969
 21
5.9890728188
  0
LINE
  5
4AA
100
AcDbEntity
  8
0
100
AcDbLine
 62
7
  6
CONTINUOUS
 10
6.5262491043
 20
6.032104671
 11
6.4988367308
 21
6.0378365983
  0
LINE
  5
4AB
100
AcDbEntity
  8
0
100
AcDbLine
 62
7
  6
CONTINUOUS
 10
6.7156503749
 20
6.0293635751
 11
6.7153721638
 21
6.0296043148
  0
LINE
  5
4AC
100
AcDbEntity
  8
0
100
AcDbLine
 62
7
  6
CONTINUOUS
 10
6.7550204536
 20
6.0293635751
 11
6.7547422426
 21
6.0296043148
  0
LINE
  5
4AD
100
AcDbEntity
  8
0
100
AcDbLine
 62
7
  6
CONTINUOUS
 10
6.7943905324
 20
6.0293635751
 11
6.7941123213
 21
6.0296043148
  0
LINE
  5
4AE
100
AcDbEntity
  8
0
100
AcDbLine
 62
7
  6
CONTINUOUS
 10
6.8337606111
 20
6.0293635751
 11
6.8334824
 21
6.0296043148
  0
LINE
  5
4AF
100
AcDbEntity
  8
0
100
AcDbLine
 62
7
  6
CONTINUOUS
 10
6.8728524788
 20
6.0296043148
 11
6.8731306898
 21
6.0293635751
  0
LINE
  5
4B0
100
AcDbEntity
  8
0
100
AcDbLine
 62
7
  6
CONTINUOUS
 10
6.9039624337
 20
6.0221164583
 11
6.9319076194
 21
5.9941712665
  0
LINE
  5
4B1
100
AcDbEntity
  8
0
100
AcDbLine
 62
7
  6
CONTINUOUS
 10
6.8515170529
 20
5.9986431737
 11
6.8337606111
 21
6.0293635751
  0
LINE
  5
4B2
100
AcDbEntity
  8
0
100
AcDbLine
 62
7
  6
CONTINUOUS
 10
6.8908871317
 20
5.9986431737
 11
6.8731306898
 21
6.0293635751
  0
LINE
  5
4B3
100
AcDbEntity
  8
0
100
AcDbLine
 62
7
  6
CONTINUOUS
 10
6.8728524788
 20
6.0296043148
 11
6.8689154709
 21
6.0296043148
  0
LINE
  5
4B4
100
AcDbEntity
  8
0
100
AcDbLine
 62
7
  6
CONTINUOUS
 10
6.8334824
 20
6.0296043148
 11
6.8295453922
 21
6.0296043148
  0
LINE
  5
4B5
100
AcDbEntity
  8
0
100
AcDbLine
 62
7
  6
CONTINUOUS
 10
6.7941123213
 20
6.0296043148
 11
6.7901753134
 21
6.0296043148
  0
LINE
  5
4B6
100
AcDbEntity
  8
0
100
AcDbLine
 62
7
  6
CONTINUOUS
 10
6.7547422426
 20
6.0296043148
 11
6.7508052347
 21
6.0296043148
  0
LINE
  5
4B7
100
AcDbEntity
  8
0
100
AcDbLine
 62
7
  6
CONTINUOUS
 10
6.7153721638
 20
6.0296043148
 11
6.7114351559
 21
6.0296043148
  0
LINE
  5
4B8
100
AcDbEntity
  8
0
100
AcDbLine
 62
7
  6
CONTINUOUS
 10
6.6760020851
 20
6.0296043148
 11
6.6720650772
 21
6.0296043148
  0
LINE
  5
4B9
100
AcDbEntity
  8
0
100
AcDbLine
 62
7
  6
CONTINUOUS
 10
6.6366320063
 20
6.0296043148
 11
6.6326949985
 21
6.0296043148
  0
LINE
  5
4BA
100
AcDbEntity
  8
0
100
AcDbLine
 62
7
  6
CONTINUOUS
 10
6.5972619276
 20
6.0296043148
 11
6.5933249197
 21
6.0296043148
  0
LINE
  5
4BB
100
AcDbEntity
  8
0
100
AcDbLine
 62
7
  6
CONTINUOUS
 10
6.5578918489
 20
6.0296043148
 11
6.5504231303
 21
6.0296043148
  0
LINE
  5
4BC
100
AcDbEntity
  8
0
100
AcDbLine
 62
7
  6
CONTINUOUS
 10
6.459466652
 20
6.3259141271
 11
6.3870359386
 21
6.3259141271
  0
LINE
  5
4BD
100
AcDbEntity
  8
0
100
AcDbLine
 62
7
  6
CONTINUOUS
 10
5.8072433998
 20
6.3259141271
 11
5.7508052347
 21
6.3259141271
  0
LINE
  5
4BE
100
AcDbEntity
  8
0
100
AcDbLine
 62
7
  6
CONTINUOUS
 10
5.7508052347
 20
6.326671244
 11
5.829571358
 21
6.326671244
  0
LINE
  5
4BF
100
AcDbEntity
  8
02___PRT_ALL_AXES
100
AcDbLine
 62
7
  6
CONTINUOUS
 10
5.829571358
 20
6.326671244
 11
6.3684493107
 21
6.326671244
  0
LINE
  5
4C0
100
AcDbEntity
  8
0
100
AcDbLine
 62
7
  6
CONTINUOUS
 10
6.3684493107
 20
6.326671244
 11
6.459466652
 21
6.326671244
  0
LWPOLYLINE
  5
4C1
100
AcDbEntity
  8
0
100
AcDbPolyline
 62
7
  6
CONTINUOUS
 90
6
 70
0
 10
6.459466652
 20
6.3259141271
 10
6.4716320912
 20
6.3240244604
 10
6.482607492
 20
6.3185399297
 10
6.4913176218
 20
6.3099974202
 10
6.4969097977
 20
6.2992333
 10
6.4988367308
 20
6.2873011652
  0
LINE
  5
4C2
100
AcDbEntity
  8
0
100
AcDbLine
 62
7
  6
CONTINUOUS
 10
5.6720650772
 20
6.7695846298
 11
5.1996241323
 21
6.7695846298
  0
LINE
  5
4C3
100
AcDbEntity
  8
AXIS_COSMETIC_THREADS
100
AcDbLine
 62
7
  6
CONTINUOUS
 10
9.2760020851
 20
5.9018326613
 11
9.2760020851
 21
5.6688326613
  0
LINE
  5
4C4
100
AcDbEntity
  8
AXIS
100
AcDbLine
 62
7
  6
CONTINUOUS
 10
9.5760020851
 20
5.8503326613
 11
9.5760020851
 21
5.8003326613
  0
LINE
  5
4C5
100
AcDbEntity
  8
AXIS
100
AcDbLine
 62
7
  6
CONTINUOUS
 10
9.5760020851
 20
5.7703326613
 11
9.5760020851
 21
5.7203326613
  0
LINE
  5
4C6
100
AcDbEntity
  8
0
100
AcDbLine
 62
7
  6
CONTINUOUS
 10
11.583520099
 20
5.2046239999
 11
11.783301429
 21
5.2046239999
  0
LWPOLYLINE
  5
4C7
100
AcDbEntity
  8
02___PRT_ALL_AXES
100
AcDbPolyline
 62
7
  6
CONTINUOUS
 90
16
 70
0
 10
11.4574268549
 20
5.2439940786
 10
11.3757090274
 20
5.2858971504
 10
11.3015324177
 20
5.340040491
 10
11.2367149616
 20
5.4050971443
 10
11.1828452186
 20
5.4794726883
 10
11.1412434396
 20
5.5613443119
 10
11.1129292096
 20
5.6487054883
 10
11.0985964596
 20
5.7394151517
 10
11.0985964596
 20
5.8312501709
 10
11.1129292096
 20
5.9219598343
 10
11.1412434396
 20
6.0093210107
 10
11.1828452186
 20
6.0911926342
 10
11.2367149616
 20
6.1655681783
 10
11.3015324177
 20
6.2306248316
 10
11.3757090274
 20
6.2847681722
 10
11.4574268549
 20
6.326671244
  0
LINE
  5
4C8
100
AcDbEntity
  8
0
100
AcDbLine
 62
7
  6
CONTINUOUS
 10
11.909394673
 20
5.2439940786
 11
11.4574268549
 21
5.2439940786
  0
LINE
  5
4C9
100
AcDbEntity
  8
0
100
AcDbLine
 62
7
  6
CONTINUOUS
 10
11.783301429
 20
5.2833641574
 11
11.583520099
 21
5.2833641574
  0
LWPOLYLINE
  5
4CA
100
AcDbEntity
  8
0
100
AcDbPolyline
 62
7
  6
CONTINUOUS
 90
20
 70
0
 10
11.6941798276
 20
5.3500782379
 10
11.6246456058
 20
5.3571311522
 10
11.5575657227
 20
5.375165219
 10
11.4943609539
 20
5.4037536533
 10
11.4372691488
 20
5.4417396835
 10
11.3870540434
 20
5.4884951992
 10
11.3454987613
 20
5.5422710992
 10
11.313408509
 20
5.6017567975
 10
11.2915187036
 20
5.665458349
 10
11.2804315833
 20
5.7311814821
 10
11.2802382405
 20
5.7977640556
 10
11.2908578605
 20
5.8628452016
 10
11.3119106682
 20
5.9250082464
 10
11.3427416412
 20
5.9825521075
 10
11.3823037666
 20
6.0338004608
 10
11.4295937436
 20
6.0776332925
 10
11.4830855938
 20
6.1127661245
 10
11.5412049517
 20
6.1383483655
 10
11.6024678197
 20
6.1538468404
 10
11.6649142939
 20
6.1588907697
  0
LWPOLYLINE
  5
4CB
100
AcDbEntity
  8
0
100
AcDbPolyline
 62
7
  6
CONTINUOUS
 90
18
 70
0
 10
11.6834107639
 20
5.5610286809
 10
11.7185300148
 20
5.5644291904
 10
11.7530221289
 20
5.5734305798
 10
11.7855539884
 20
5.5877667381
 10
11.8149433257
 20
5.6067649144
 10
11.8409239148
 20
5.630093475
 10
11.8629032796
 20
5.65721379
 10
11.8801987589
 20
5.6871936111
 10
11.8925327007
 20
5.7193722643
 10
11.8997125246
 20
5.7533988107
 10
11.9013966773
 20
5.7884211973
 10
11.8974674315
 20
5.8231387405
 10
11.8882009036
 20
5.8563026357
 10
11.8739689084
 20
5.8872752319
 10
11.8550069739
 20
5.9156703889
 10
11.8317464117
 20
5.9407599977
 10
11.8049172856
 20
5.9617593144
 10
11.7750499224
 20
5.9782604247
  0
LINE
  5
4CC
100
AcDbEntity
  8
0
100
AcDbLine
 62
7
  6
CONTINUOUS
 10
11.583520099
 20
6.3660413227
 11
11.583520099
 21
6.2873011652
  0
LINE
  5
4CD
100
AcDbEntity
  8
0
100
AcDbLine
 62
7
  6
CONTINUOUS
 10
11.583520099
 20
5.2046239999
 11
11.583520099
 21
5.2833641574
  0
LINE
  5
4CE
100
AcDbEntity
  8
0
100
AcDbLine
 62
7
  6
CONTINUOUS
 10
11.5758362017
 20
5.2447511955
 11
11.583520099
 21
5.2833641574
  0
LINE
  5
4CF
100
AcDbEntity
  8
0
100
AcDbLine
 62
7
  6
CONTINUOUS
 10
11.7986692236
 20
6.3645270889
 11
11.7911359909
 21
6.326671244
  0
LINE
  5
4D0
100
AcDbEntity
  8
0
100
AcDbLine
 62
7
  6
CONTINUOUS
 10
11.5681523043
 20
5.2061382337
 11
11.575685537
 21
5.2439940786
  0
LINE
  5
4D1
100
AcDbEntity
  8
0
100
AcDbLine
 62
7
  6
CONTINUOUS
 10
11.7909853263
 20
6.3259141271
 11
11.783301429
 21
6.2873011652
  0
LINE
  5
4D2
100
AcDbEntity
  8
0
100
AcDbLine
 62
7
  6
CONTINUOUS
 10
11.552390073
 20
5.8829467327
 11
11.5678795379
 21
5.8674572678
  0
LINE
  5
4D3
100
AcDbEntity
  8
0
100
AcDbLine
 62
7
  6
CONTINUOUS
 10
11.5758362016
 20
6.3259141271
 11
11.583520099
 21
6.2873011652
  0
LINE
  5
4D4
100
AcDbEntity
  8
0
100
AcDbLine
 62
7
  6
CONTINUOUS
 10
11.7986692236
 20
5.2061382337
 11
11.7911359909
 21
5.2439940786
  0
LINE
  5
4D5
100
AcDbEntity
  8
0
100
AcDbLine
 62
7
  6
CONTINUOUS
 10
11.5681523043
 20
6.3645270889
 11
11.575685537
 21
6.326671244
  0
LINE
  5
4D6
100
AcDbEntity
  8
0
100
AcDbLine
 62
7
  6
CONTINUOUS
 10
11.7909853263
 20
5.2447511955
 11
11.783301429
 21
5.2833641574
  0
LINE
  5
4D7
100
AcDbEntity
  8
0
100
AcDbLine
 62
7
  6
CONTINUOUS
 10
11.783301429
 20
6.3660413227
 11
11.783301429
 21
6.2873011652
  0
LINE
  5
4D8
100
AcDbEntity
  8
0
100
AcDbLine
 62
7
  6
CONTINUOUS
 10
11.783301429
 20
5.2046239999
 11
11.783301429
 21
5.2833641574
  0
LINE
  5
4D9
100
AcDbEntity
  8
0
100
AcDbLine
 62
7
  6
CONTINUOUS
 10
11.6012861575
 20
5.9008638874
 11
11.5857966926
 21
5.9163533522
  0
LWPOLYLINE
  5
4DA
100
AcDbEntity
  8
0
100
AcDbPolyline
 62
7
  6
CONTINUOUS
 90
13
 70
0
 10
11.915727547
 20
5.7098505241
 10
11.9240236154
 20
5.7469707311
 10
11.9264339995
 20
5.7853612982
 10
11.9227700581
 20
5.8235711068
 10
11.9132834182
 20
5.8602483423
 10
11.8983960655
 20
5.8945914037
 10
11.8783674303
 20
5.9262238725
 10
11.8535331422
 20
5.9544998923
 10
11.8247413314
 20
5.9784314283
 10
11.7925827056
 20
5.997571584
 10
11.7574294738
 20
6.0115719264
 10
11.7205697879
 20
6.0198147016
 10
11.683410764
 20
6.0221164583
  0
LWPOLYLINE
  5
4DB
100
AcDbEntity
  8
0
100
AcDbPolyline
 62
7
  6
CONTINUOUS
 90
21
 70
0
 10
11.683410764
 20
6.0221164583
 10
11.6467619849
 20
6.0186365363
 10
11.6107393558
 20
6.0093793912
 10
11.5767011332
 20
5.9946077512
 10
11.5458310811
 20
5.9749742299
 10
11.5185426379
 20
5.9509266535
 10
11.4952692074
 20
5.9228671551
 10
11.476799798
 20
5.8918106748
 10
11.4634047932
 20
5.8583853436
 10
11.4553185121
 20
5.8230854934
 10
11.4528489814
 20
5.7865612086
 10
11.4561814448
 20
5.7501690792
 10
11.4650725776
 20
5.7152502314
 10
11.4791413649
 20
5.6825040688
 10
11.4981120683
 20
5.6523630975
 10
11.5216750524
 20
5.6254157363
 10
11.5490035487
 20
5.6026209207
 10
11.5795835126
 20
5.5843709702
 10
11.6130072654
 20
5.5710364028
 10
11.6480658837
 20
5.5631962115
 10
11.6834107639
 20
5.5610286809
  0
LWPOLYLINE
  5
4DC
100
AcDbEntity
  8
0
100
AcDbPolyline
 62
7
  6
CONTINUOUS
 90
14
 70
0
 10
11.7750499224
 20
5.9782604247
 10
11.8060967646
 20
5.9630698991
 10
11.8346388586
 20
5.9428397346
 10
11.8598371634
 20
5.9179979475
 10
11.880792595
 20
5.8893429937
 10
11.896985912
 20
5.8575780105
 10
11.9080972351
 20
5.8230642127
 10
11.9136312172
 20
5.7865085715
 10
11.9132002868
 20
5.7492167141
 10
11.9068398144
 20
5.7126177743
 10
11.89481021
 20
5.6775531687
 10
11.8772468173
 20
5.6444658797
 10
11.8544176818
 20
5.6141710462
 10
11.8269917025
 20
5.5877139506
  0
LWPOLYLINE
  5
4DD
100
AcDbEntity
  8
0
100
AcDbPolyline
 62
7
  6
CONTINUOUS
 90
20
 70
0
 10
11.683410764
 20
6.1593484093
 10
11.7460740174
 20
6.1573938242
 10
11.8081809783
 20
6.1448921327
 10
11.8673864117
 20
6.1222297756
 10
11.9226874092
 20
6.0896684746
 10
11.9718934411
 20
6.0483558078
 10
12.0140217928
 20
5.9990026096
 10
12.0476371768
 20
5.9430303577
 10
12.071669804
 20
5.8820982426
 10
12.0855078843
 20
5.8174347374
 10
12.0885760657
 20
5.7512108205
 10
12.0807189222
 20
5.6848242656
 10
12.0620189927
 20
5.6202273411
 10
12.0329323976
 20
5.5592843183
 10
11.9940212506
 20
5.5034376018
 10
11.9463604949
 20
5.4544351848
 10
11.8911129856
 20
5.4135779779
 10
11.8294794922
 20
5.3819293203
 10
11.7634254932
 20
5.3605955123
 10
11.6941798276
 20
5.3500782379
  0
LINE
  5
4DE
100
AcDbEntity
  8
0
100
AcDbLine
 62
7
  6
CONTINUOUS
 10
11.583520099
 20
6.2873011652
 11
11.783301429
 21
6.2873011652
  0
LINE
  5
4DF
100
AcDbEntity
  8
0
100
AcDbLine
 62
7
  6
CONTINUOUS
 10
11.4574268549
 20
6.326671244
 11
11.909394673
 21
6.326671244
  0
LINE
  5
4E0
100
AcDbEntity
  8
0
100
AcDbLine
 62
7
  6
CONTINUOUS
 10
11.783301429
 20
6.3660413227
 11
11.583520099
 21
6.3660413227
  0
LWPOLYLINE
  5
4E1
100
AcDbEntity
  8
02___PRT_ALL_AXES
100
AcDbPolyline
 62
7
  6
CONTINUOUS
 90
16
 70
0
 10
11.909394673
 20
6.326671244
 10
11.9911125005
 20
6.2847681722
 10
12.0652891102
 20
6.2306248316
 10
12.1301065663
 20
6.1655681783
 10
12.1839763093
 20
6.0911926342
 10
12.2255780883
 20
6.0093210107
 10
12.2538923183
 20
5.9219598343
 10
12.2682250683
 20
5.8312501709
 10
12.2682250683
 20
5.7394151517
 10
12.2538923183
 20
5.6487054883
 10
12.2255780883
 20
5.5613443119
 10
12.1839763093
 20
5.4794726883
 10
12.1301065663
 20
5.4050971443
 10
12.0652891102
 20
5.340040491
 10
11.9911125005
 20
5.2858971504
 10
11.909394673
 20
5.2439940786
  0
LWPOLYLINE
  5
4E2
100
AcDbEntity
  8
02___PRT_ALL_AXES
100
AcDbPolyline
 62
7
  6
CONTINUOUS
 90
7
 70
0
 10
14.6800864701
 20
9.6747481542
 10
14.6453730135
 20
9.6547064503
 10
14.616846698
 20
9.6316393606
 10
14.595285647
 20
9.6061760951
 10
14.5812779898
 20
9.5790112253
 10
14.5752058189
 20
9.550885738
 10
14.5749548788
 20
9.5437946114
  0
LWPOLYLINE
  5
4E3
100
AcDbEntity
  8
AXIS_COSMETIC_THREADS
100
AcDbPolyline
 62
7
  6
CONTINUOUS
 90
5
 70
0
 10
14.9129090776
 20
5.4034063839
 10
14.8969603764
 20
5.400702672
 10
14.8805075449
 20
5.3993368944
 10
14.8638855152
 20
5.3993368545
 10
14.8474326639
 20
5.4007025529
  0
LWPOLYLINE
  5
4E4
100
AcDbEntity
  8
AXIS_COSMETIC_THREADS
100
AcDbPolyline
 62
7
  6
CONTINUOUS
 90
4
 70
0
 10
14.8474326639
 20
5.4007025529
 10
14.8314839238
 20
5.4034061882
 10
14.816363965
 20
5.4073927219
 10
14.8023805864
 20
5.4125809999
  0
LWPOLYLINE
  5
4E5
100
AcDbEntity
  8
DATUM_CURVES
100
AcDbPolyline
 62
7
  6
CONTINUOUS
 90
17
 70
0
 10
14.6821951063
 20
9.6534892231
 10
14.6489092427
 20
9.630093467
 10
14.624128304
 20
9.6034106143
 10
14.6087961886
 20
9.5744570065
 10
14.6034952588
 20
9.543793965
 10
14.6086128409
 20
9.5136619646
 10
14.6237702253
 20
9.4846777073
 10
14.6483900721
 20
9.4579451945
 10
14.6821966884
 20
9.4340990853
 10
14.7227199059
 20
9.4148817577
 10
14.7689366232
 20
9.4005746807
 10
14.8190864599
 20
9.3917228063
 10
14.8721971649
 20
9.3886623568
 10
14.9243880667
 20
9.3916169519
 10
14.9745909907
 20
9.4003679468
 10
15.020893723
 20
9.4145820187
 10
15.0621970028
 20
9.4341000083
  0
LWPOLYLINE
  5
4E6
100
AcDbEntity
  8
AXIS
100
AcDbPolyline
 62
7
  6
CONTINUOUS
 90
7
 70
0
 10
14.663821389
 20
9.6640970537
 10
14.6362877839
 20
9.6457515831
 10
14.6135565906
 20
9.6253305625
 10
14.5960905509
 20
9.603249705
 10
14.5842452228
 20
9.5799585133
 10
14.578261743
 20
9.5559311289
 10
14.5775138739
 20
9.5437946109
  0
LWPOLYLINE
  5
4E7
100
AcDbEntity
  8
AXIS_COSMETIC_THREADS
100
AcDbPolyline
 62
7
  6
CONTINUOUS
 90
8
 70
0
 10
14.8023805864
 20
5.4125809999
 10
14.7898184492
 20
5.4188654037
 10
14.7789332823
 20
5.4261180009
 10
14.7699466764
 20
5.4341911497
 10
14.7630415728
 20
5.442920504
 10
14.7583585394
 20
5.4521283593
 10
14.7559929095
 20
5.4616272702
 10
14.7556971797
 20
5.4664258476
  0
LWPOLYLINE
  5
4E8
100
AcDbEntity
  8
AXIS
100
AcDbPolyline
 62
7
  6
CONTINUOUS
 90
3
 70
0
 10
14.7979499078
 20
5.2112688826
 10
14.7925305552
 20
5.2159514503
 10
14.7906275037
 20
5.2214749865
  0
LWPOLYLINE
  5
4E9
100
AcDbEntity
  8
AXIS
100
AcDbPolyline
 62
7
  6
CONTINUOUS
 90
3
 70
0
 10
14.8545186858
 20
5.1786096223
 10
14.8490993333
 20
5.18329219
 10
14.8471962817
 20
5.1888157261
  0
LWPOLYLINE
  5
4EA
100
AcDbEntity
  8
AXIS
100
AcDbPolyline
 62
7
  6
CONTINUOUS
 90
3
 70
0
 10
14.9110869928
 20
5.2112691546
 10
14.9056676402
 20
5.2159517223
 10
14.9037645887
 20
5.2214752584
  0
LWPOLYLINE
  5
4EB
100
AcDbEntity
  8
DATUM_CURVES
100
AcDbPolyline
 62
7
  6
CONTINUOUS
 90
17
 70
0
 10
15.0621969861
 20
9.4340999987
 10
15.0954828498
 20
9.4574957548
 10
15.1202637884
 20
9.4841786075
 10
15.1355959038
 20
9.5131322153
 10
15.1408968336
 20
9.5437952568
 10
15.1357792516
 20
9.5739272572
 10
15.1206218671
 20
9.6029115145
 10
15.0960020204
 20
9.6296440273
 10
15.0621954041
 20
9.6534901365
 10
15.0216721865
 20
9.6727074641
 10
14.9754554692
 20
9.6870145412
 10
14.9253056326
 20
9.6958664156
 10
14.8721949275
 20
9.6989268651
 10
14.8200040257
 20
9.6959722699
 10
14.7698011017
 20
9.6872212751
 10
14.7234983694
 20
9.6730072031
 10
14.6821950897
 20
9.6534892135
  0
LWPOLYLINE
  5
4EC
100
AcDbEntity
  8
AXIS
100
AcDbPolyline
 62
7
  6
CONTINUOUS
 90
4
 70
0
 10
15.0805707034
 20
9.4234921681
 10
15.1081043086
 20
9.4418376388
 10
15.1308355018
 20
9.4622586594
 10
15.1483015416
 20
9.4843395168
  0
LWPOLYLINE
  5
4ED
100
AcDbEntity
  8
02___PRT_ALL_AXES
100
AcDbPolyline
 62
7
  6
CONTINUOUS
 90
10
 70
0
 10
15.124457631
 20
9.3981546119
 10
15.0818897948
 20
9.3771643769
 10
15.0341586026
 20
9.3602771313
 10
14.9824393547
 20
9.3479086951
 10
14.9280055507
 20
9.3403636202
 10
14.8721975315
 20
9.3378276915
 10
14.8163894757
 20
9.3403633519
 10
14.7619555629
 20
9.3479081651
 10
14.7102361367
 20
9.3602763526
 10
14.6625047009
 20
9.3771633688
  0
LINE
  5
4EE
100
AcDbEntity
  8
02___PRT_ALL_AXES
100
AcDbLine
 62
7
  6
CONTINUOUS
 10
13.8879440777
 20
8.7947982991
 11
13.8879440777
 21
8.4090491257
  0
LWPOLYLINE
  5
4EF
100
AcDbEntity
  8
02___PRT_ALL_AXES
100
AcDbPolyline
 62
7
  6
CONTINUOUS
 90
13
 70
0
 10
15.1491064455
 20
9.4814131268
 10
15.1275453945
 20
9.4559498612
 10
15.0990190789
 20
9.4328827715
 10
15.0643056223
 20
9.4128410676
 10
15.0243519172
 20
9.396371435
 10
14.9802477967
 20
9.3839231223
 10
14.933196306
 20
9.3758356871
 10
14.8844808873
 20
9.3723297335
 10
14.8354303701
 20
9.3735008948
 10
14.7873827247
 20
9.3793172247
 10
14.7416485657
 20
9.389620069
 10
14.6994754016
 20
9.4041283929
 10
14.6620136064
 20
9.4224464471
  0
LWPOLYLINE
  5
4F0
100
AcDbEntity
  8
02___PRT_ALL_AXES
100
AcDbPolyline
 62
7
  6
CONTINUOUS
 90
8
 70
0
 10
13.8879440777
 20
8.7947982991
 10
13.8941333063
 20
8.7311721329
 10
13.9126222414
 20
8.6683484685
 10
13.9431783738
 20
8.6071149841
 10
13.9854174424
 20
8.5482417262
 10
14.0388082665
 20
8.4924690603
 10
14.1026794255
 20
8.44049836
 10
14.1762277025
 20
8.3929831871
  0
LWPOLYLINE
  5
4F1
100
AcDbEntity
  8
02___PRT_ALL_AXES
100
AcDbPolyline
 62
7
  6
CONTINUOUS
 90
8
 70
0
 10
13.887946455
 20
8.7947982993
 10
13.8916898108
 20
8.7452696901
 10
13.9082789401
 20
8.6798858436
 10
13.9379033947
 20
8.6160559909
 10
13.9801625546
 20
8.5546433213
 10
14.0344849372
 20
8.4964783358
 10
14.1001359255
 20
8.442347616
 10
14.1762277025
 20
8.3929831871
  0
LINE
  5
4F2
100
AcDbEntity
  8
0
100
AcDbLine
 62
7
  6
CONTINUOUS
 10
13.8879440777
 20
8.4090491257
 11
13.8884154696
 21
8.3914642077
  0
LINE
  5
4F3
100
AcDbEntity
  8
0
100
AcDbLine
 62
7
  6
CONTINUOUS
 10
13.8884154696
 20
8.3914642077
 11
13.9016446294
 21
8.3145661131
  0
LWPOLYLINE
  5
4F4
100
AcDbEntity
  8
AXIS
100
AcDbPolyline
 62
7
  6
CONTINUOUS
 90
4
 70
0
 10
15.1483015416
 20
9.4843395168
 10
15.1601468697
 20
9.5076307085
 10
15.1661303494
 20
9.531658093
 10
15.1668782185
 20
9.5437946109
  0
LINE
  5
4F5
100
AcDbEntity
  8
02___PRT_ALL_AXES
100
AcDbLine
 62
7
  6
CONTINUOUS
 10
15.1631141026
 20
9.5085779966
 11
15.1491064455
 21
9.4814131268
  0
LWPOLYLINE
  5
4F6
100
AcDbEntity
  8
02___PRT_ALL_AXES
100
AcDbPolyline
 62
7
  6
CONTINUOUS
 90
4
 70
0
 10
14.285581873
 20
7.8133478962
 10
14.2872983515
 20
7.7880454926
 10
14.3014643897
 20
7.7368625146
 10
14.3296180374
 20
7.6875979223
  0
LWPOLYLINE
  5
4F7
100
AcDbEntity
  8
02___PRT_ALL_AXES
100
AcDbPolyline
 62
7
  6
CONTINUOUS
 90
4
 70
0
 10
14.285581873
 20
7.819375227
 10
14.2872983515
 20
7.7940728235
 10
14.3014643897
 20
7.7428898454
 10
14.3296180374
 20
7.6936252531
  0
LINE
  5
4F8
100
AcDbEntity
  8
02___PRT_ALL_AXES
100
AcDbLine
 62
7
  6
CONTINUOUS
 10
14.285581873
 20
7.8615665429
 11
14.2872983515
 21
7.8362641393
  0
LWPOLYLINE
  5
4F9
100
AcDbEntity
  8
02___PRT_ALL_AXES
100
AcDbPolyline
 62
7
  6
CONTINUOUS
 90
3
 70
0
 10
14.285581873
 20
7.8675938737
 10
14.2872983515
 20
7.8422914702
 10
14.3014643897
 20
7.7911084921
  0
LINE
  5
4FA
100
AcDbEntity
  8
02___PRT_ALL_AXES
100
AcDbLine
 62
7
  6
CONTINUOUS
 10
14.285581873
 20
7.9097851896
 11
14.2872983515
 21
7.884482786
  0
LWPOLYLINE
  5
4FB
100
AcDbEntity
  8
02___PRT_ALL_AXES
100
AcDbPolyline
 62
7
  6
CONTINUOUS
 90
4
 70
0
 10
14.285581873
 20
7.9158125204
 10
14.2872983515
 20
7.8905101168
 10
14.3014643897
 20
7.8393271388
 10
14.3296180374
 20
7.7900625465
  0
LINE
  5
4FC
100
AcDbEntity
  8
02___PRT_ALL_AXES
100
AcDbLine
 62
7
  6
CONTINUOUS
 10
14.2869564003
 20
7.9377420943
 11
14.2872983515
 21
7.9327014327
  0
LINE
  5
4FD
100
AcDbEntity
  8
02___PRT_ALL_AXES
100
AcDbLine
 62
7
  6
CONTINUOUS
 10
14.3296180374
 20
7.6875979223
 11
14.3296180374
 21
7.6936252531
  0
LINE
  5
4FE
100
AcDbEntity
  8
02___PRT_ALL_AXES
100
AcDbLine
 62
7
  6
CONTINUOUS
 10
14.3296180374
 20
7.735816569
 11
14.3296180374
 21
7.7418438998
  0
LINE
  5
4FF
100
AcDbEntity
  8
02___PRT_ALL_AXES
100
AcDbLine
 62
7
  6
CONTINUOUS
 10
14.3296180374
 20
7.7840352157
 11
14.3296180374
 21
7.7900625465
  0
LINE
  5
500
100
AcDbEntity
  8
02___PRT_ALL_AXES
100
AcDbLine
 62
7
  6
CONTINUOUS
 10
14.3296180374
 20
7.8322538624
 11
14.3296180374
 21
7.8382811932
  0
LINE
  5
501
100
AcDbEntity
  8
02___PRT_ALL_AXES
100
AcDbLine
 62
7
  6
CONTINUOUS
 10
14.3296180374
 20
7.880472509
 11
14.3296180374
 21
7.8864998399
  0
LINE
  5
502
100
AcDbEntity
  8
02___PRT_ALL_AXES
100
AcDbLine
 62
7
  6
CONTINUOUS
 10
14.28704657
 20
7.9364129132
 11
14.285581873
 21
7.9158125204
  0
LINE
  5
503
100
AcDbEntity
  8
02___PRT_ALL_AXES
100
AcDbLine
 62
7
  6
CONTINUOUS
 10
14.28704657
 20
7.8881942665
 11
14.285581873
 21
7.8675938737
  0
LINE
  5
504
100
AcDbEntity
  8
02___PRT_ALL_AXES
100
AcDbLine
 62
7
  6
CONTINUOUS
 10
14.28704657
 20
7.8399756198
 11
14.285581873
 21
7.819375227
  0
LINE
  5
505
100
AcDbEntity
  8
0
100
AcDbLine
 62
7
  6
CONTINUOUS
 10
14.577399652
 20
9.5221128272
 11
14.5775110068
 21
9.5230390751
  0
LWPOLYLINE
  5
506
100
AcDbEntity
  8
0
100
AcDbPolyline
 62
7
  6
CONTINUOUS
 90
6
 70
0
 10
13.9016446294
 20
8.3145661131
 10
13.9330041844
 20
8.239080397
 10
13.9810894353
 20
8.1677498985
 10
14.0418927534
 20
8.103904137
 10
14.1093766169
 20
8.0499542474
 10
14.1762277025
 20
8.0072340136
  0
LINE
  5
507
100
AcDbEntity
  8
0
100
AcDbLine
 62
7
  6
CONTINUOUS
 10
14.4138817982
 20
7.589360934
 11
14.4138817982
 21
7.6243914633
  0
LINE
  5
508
100
AcDbEntity
  8
02___PRT_ALL_AXES
100
AcDbLine
 62
7
  6
CONTINUOUS
 10
14.4160880317
 20
7.8636477868
 11
14.4160880317
 21
7.8548633294
  0
LINE
  5
509
100
AcDbEntity
  8
02___PRT_ALL_AXES
100
AcDbLine
 62
7
  6
CONTINUOUS
 10
14.4160880317
 20
7.8154291401
 11
14.4160880317
 21
7.8066446827
  0
LINE
  5
50A
100
AcDbEntity
  8
02___PRT_ALL_AXES
100
AcDbLine
 62
7
  6
CONTINUOUS
 10
14.4160880317
 20
7.7672104935
 11
14.4160880317
 21
7.758426036
  0
LINE
  5
50B
100
AcDbEntity
  8
02___PRT_ALL_AXES
100
AcDbLine
 62
7
  6
CONTINUOUS
 10
14.4160880317
 20
7.7189918468
 11
14.4160880317
 21
7.7102073893
  0
LINE
  5
50C
100
AcDbEntity
  8
02___PRT_ALL_AXES
100
AcDbLine
 62
7
  6
CONTINUOUS
 10
14.4160880317
 20
7.6707732001
 11
14.4160880317
 21
7.6619887426
  0
LINE
  5
50D
100
AcDbEntity
  8
0
100
AcDbLine
 62
7
  6
CONTINUOUS
 10
14.4187797965
 20
7.5859149654
 11
14.4187797965
 21
7.6207209909
  0
LINE
  5
50E
100
AcDbEntity
  8
0
100
AcDbLine
 62
7
  6
CONTINUOUS
 10
14.5600471179
 20
7.5419627877
 11
14.5600471179
 21
7.5043560845
  0
LWPOLYLINE
  5
50F
100
AcDbEntity
  8
0
100
AcDbPolyline
 62
7
  6
CONTINUOUS
 90
3
 70
0
 10
14.4154838901
 20
7.5800457542
 10
14.4201337694
 20
7.5728777825
 10
14.4208745696
 20
7.5722008012
  0
LINE
  5
510
100
AcDbEntity
  8
0
100
AcDbLine
 62
7
  6
CONTINUOUS
 10
14.420142187
 20
7.5767684265
 11
14.4240963613
 21
7.5700899157
  0
LINE
  5
511
100
AcDbEntity
  8
02___PRT_ALL_AXES
100
AcDbLine
 62
7
  6
CONTINUOUS
 10
14.3014643897
 20
7.7850811613
 11
14.3296180374
 21
7.735816569
  0
LINE
  5
512
100
AcDbEntity
  8
02___PRT_ALL_AXES
100
AcDbLine
 62
7
  6
CONTINUOUS
 10
14.3014643897
 20
7.7911084921
 11
14.3296180374
 21
7.7418438998
  0
LWPOLYLINE
  5
513
100
AcDbEntity
  8
0
100
AcDbPolyline
 62
7
  6
CONTINUOUS
 90
4
 70
0
 10
14.3442263218
 20
7.6759762361
 10
14.3461751037
 20
7.6710868295
 10
14.3761958926
 20
7.6273500683
 10
14.4138817982
 20
7.589360934
  0
LINE
  5
514
100
AcDbEntity
  8
02___PRT_ALL_AXES
100
AcDbLine
 62
7
  6
CONTINUOUS
 10
14.2872983515
 20
7.8362641393
 11
14.3014643897
 21
7.7850811613
  0
LWPOLYLINE
  5
515
100
AcDbEntity
  8
02___PRT_ALL_AXES
100
AcDbPolyline
 62
7
  6
CONTINUOUS
 90
3
 70
0
 10
14.2872983515
 20
7.884482786
 10
14.3014643897
 20
7.833299808
 10
14.3296180374
 20
7.7840352157
  0
LINE
  5
516
100
AcDbEntity
  8
02___PRT_ALL_AXES
100
AcDbLine
 62
7
  6
CONTINUOUS
 10
14.2872983515
 20
7.9327014327
 11
14.3014643897
 21
7.8815184546
  0
LWPOLYLINE
  5
517
100
AcDbEntity
  8
02___PRT_ALL_AXES
100
AcDbPolyline
 62
7
  6
CONTINUOUS
 90
3
 70
0
 10
14.2876706227
 20
7.9373837193
 10
14.3014643897
 20
7.8875457855
 10
14.3296180374
 20
7.8382811932
  0
LINE
  5
518
100
AcDbEntity
  8
02___PRT_ALL_AXES
100
AcDbLine
 62
7
  6
CONTINUOUS
 10
14.3007171098
 20
7.9324370806
 11
14.3014643897
 21
7.9297371013
  0
LINE
  5
519
100
AcDbEntity
  8
0
100
AcDbLine
 62
7
  6
CONTINUOUS
 10
14.4138817982
 20
7.589360934
 11
14.4154838901
 21
7.5800457542
  0
LINE
  5
51A
100
AcDbEntity
  8
0
100
AcDbLine
 62
7
  6
CONTINUOUS
 10
14.4187797965
 20
7.5859149654
 11
14.420142187
 21
7.5767684265
  0
LWPOLYLINE
  5
51B
100
AcDbEntity
  8
AXIS
100
AcDbPolyline
 62
7
  6
CONTINUOUS
 90
3
 70
0
 10
14.5775138739
 20
9.5437946109
 10
14.5782619181
 20
9.5316566799
 10
14.5842457443
 20
9.5076293242
  0
LINE
  5
51C
100
AcDbEntity
  8
02___PRT_ALL_AXES
100
AcDbLine
 62
7
  6
CONTINUOUS
 10
14.5627388827
 20
7.830104363
 11
14.5627388827
 21
7.8213199055
  0
LINE
  5
51D
100
AcDbEntity
  8
02___PRT_ALL_AXES
100
AcDbLine
 62
7
  6
CONTINUOUS
 10
14.5627388827
 20
7.7818857163
 11
14.5627388827
 21
7.7731012588
  0
LINE
  5
51E
100
AcDbEntity
  8
02___PRT_ALL_AXES
100
AcDbLine
 62
7
  6
CONTINUOUS
 10
14.5627388827
 20
7.7336670696
 11
14.5627388827
 21
7.7248826121
  0
LINE
  5
51F
100
AcDbEntity
  8
02___PRT_ALL_AXES
100
AcDbLine
 62
7
  6
CONTINUOUS
 10
14.5627388827
 20
7.6854484229
 11
14.5627388827
 21
7.6766639655
  0
LINE
  5
520
100
AcDbEntity
  8
02___PRT_ALL_AXES
100
AcDbLine
 62
7
  6
CONTINUOUS
 10
14.5627388827
 20
7.6372297763
 11
14.5627388827
 21
7.6284453188
  0
LINE
  5
521
100
AcDbEntity
  8
02___PRT_ALL_AXES
100
AcDbLine
 62
7
  6
CONTINUOUS
 10
14.5627388827
 20
7.5890111296
 11
14.5627388827
 21
7.5802266721
  0
LINE
  5
522
100
AcDbEntity
  8
0
100
AcDbLine
 62
7
  6
CONTINUOUS
 10
14.5660158366
 20
7.5395737501
 11
14.5660158366
 21
7.501528293
  0
LINE
  5
523
100
AcDbEntity
  8
AXIS
100
AcDbLine
 62
7
  6
CONTINUOUS
 10
14.5775110068
 20
9.5218062213
 11
14.5775110068
 21
9.5437946109
  0
LINE
  5
524
100
AcDbEntity
  8
02___PRT_ALL_AXES
100
AcDbLine
 62
7
  6
CONTINUOUS
 10
14.649208877
 20
7.8044951833
 11
14.649208877
 21
7.7984678525
  0
LINE
  5
525
100
AcDbEntity
  8
02___PRT_ALL_AXES
100
AcDbLine
 62
7
  6
CONTINUOUS
 10
14.649208877
 20
7.7562765366
 11
14.649208877
 21
7.7502492058
  0
LINE
  5
526
100
AcDbEntity
  8
02___PRT_ALL_AXES
100
AcDbLine
 62
7
  6
CONTINUOUS
 10
14.649208877
 20
7.7080578899
 11
14.649208877
 21
7.7020305591
  0
LINE
  5
527
100
AcDbEntity
  8
02___PRT_ALL_AXES
100
AcDbLine
 62
7
  6
CONTINUOUS
 10
14.649208877
 20
7.6598392433
 11
14.649208877
 21
7.6538119124
  0
LINE
  5
528
100
AcDbEntity
  8
02___PRT_ALL_AXES
100
AcDbLine
 62
7
  6
CONTINUOUS
 10
14.649208877
 20
7.6116205966
 11
14.649208877
 21
7.6055932657
  0
LINE
  5
529
100
AcDbEntity
  8
02___PRT_ALL_AXES
100
AcDbLine
 62
7
  6
CONTINUOUS
 10
14.649208877
 20
7.5634019499
 11
14.649208877
 21
7.5573746191
  0
LINE
  5
52A
100
AcDbEntity
  8
02___PRT_ALL_AXES
100
AcDbLine
 62
7
  6
CONTINUOUS
 10
14.649208877
 20
7.5151833032
 11
14.649208877
 21
7.5091559724
  0
LINE
  5
52B
100
AcDbEntity
  8
0
100
AcDbLine
 62
7
  6
CONTINUOUS
 10
14.6299527336
 20
7.4260632373
 11
14.6279243927
 21
7.4117267622
  0
LINE
  5
52C
100
AcDbEntity
  8
0
100
AcDbLine
 62
7
  6
CONTINUOUS
 10
14.6279243927
 20
7.4438725267
 11
14.6299622844
 21
7.4581237021
  0
LWPOLYLINE
  5
52D
100
AcDbEntity
  8
02___PRT_ALL_AXES
100
AcDbPolyline
 62
7
  6
CONTINUOUS
 90
8
 70
0
 10
15.212158287
 20
7.8447321863
 10
15.1966998574
 20
7.8368337281
 10
15.1255957321
 20
7.8102960408
 10
15.0481023737
 20
7.7901402963
 10
14.9654711786
 20
7.7769012117
 10
14.8805017761
 20
7.7711583217
 10
14.7963463106
 20
7.7729746313
 10
14.7143265655
 20
7.782109392
  0
LWPOLYLINE
  5
52E
100
AcDbEntity
  8
0
100
AcDbPolyline
 62
7
  6
CONTINUOUS
 90
8
 70
0
 10
15.5378847346
 20
7.9768300818
 10
15.4312540069
 20
7.9266340084
 10
15.3143130586
 20
7.8858189972
 10
15.1892274658
 20
7.854980648
 10
15.0583855364
 20
7.8345971889
 10
14.9241866037
 20
7.8249660068
 10
14.7890601929
 20
7.8262247443
 10
14.6554969067
 20
7.8383455927
  0
LWPOLYLINE
  5
52F
100
AcDbEntity
  8
02___PRT_ALL_AXES
100
AcDbPolyline
 62
7
  6
CONTINUOUS
 90
7
 70
0
 10
15.1791525927
 20
7.7821235945
 10
15.1268539933
 20
7.762474397
 10
15.0495179313
 20
7.7422189063
 10
14.9671284535
 20
7.728871776
 10
14.8824728533
 20
7.7229863086
 10
14.7986666313
 20
7.724605372
 10
14.7164364275
 20
7.733559887
  0
LWPOLYLINE
  5
530
100
AcDbEntity
  8
0
100
AcDbPolyline
 62
7
  6
CONTINUOUS
 90
8
 70
0
 10
14.9107072073
 20
7.3102397918
 10
14.9476675978
 20
7.3161731781
 10
14.9827369262
 20
7.3253352791
 10
15.0153984007
 20
7.3376471462
 10
15.0448867199
 20
7.3529690285
 10
15.0700314222
 20
7.3708010752
 10
15.0899817467
 20
7.3904574548
 10
15.1044901917
 20
7.4115028396
  0
LWPOLYLINE
  5
531
100
AcDbEntity
  8
0
100
AcDbPolyline
 62
7
  6
CONTINUOUS
 90
8
 70
0
 10
14.9354191847
 20
7.3170256815
 10
14.8997498114
 20
7.3123590887
 10
14.863305157
 20
7.3107878691
 10
14.8272789825
 20
7.3123392859
 10
14.792004876
 20
7.3169854376
 10
14.7581944215
 20
7.3246971691
 10
14.7270201366
 20
7.3352341044
 10
14.6994706227
 20
7.348168294
  0
LINE
  5
532
100
AcDbEntity
  8
0
100
AcDbLine
 62
7
  6
CONTINUOUS
 10
14.770449338
 20
7.2778149568
 11
14.7401152188
 21
7.2884088268
  0
LWPOLYLINE
  5
533
100
AcDbEntity
  8
0
100
AcDbPolyline
 62
7
  6
CONTINUOUS
 90
8
 70
0
 10
14.7492977501
 20
7.2829019679
 10
14.7771745557
 20
7.2730169164
 10
14.8074544023
 20
7.2657534588
 10
14.8393527187
 20
7.2613137365
 10
14.8720521252
 20
7.2598134067
 10
14.9047499027
 20
7.2612872489
 10
14.9366468331
 20
7.2656988297
 10
14.9669550716
 20
7.2729396534
  0
LWPOLYLINE
  5
534
100
AcDbEntity
  8
0
100
AcDbPolyline
 62
7
  6
CONTINUOUS
 90
9
 70
0
 10
14.7500997991
 20
7.2540727378
 10
14.7745545267
 20
7.2449992565
 10
14.800996954
 20
7.2380274366
 10
14.8288887895
 20
7.2332992043
 10
14.8576622359
 20
7.2309108127
 10
14.8867315487
 20
7.2309108825
 10
14.9155049607
 20
7.2332994125
 10
14.943396728
 20
7.2380277789
 10
14.9698390547
 20
7.2449997259
  0
LWPOLYLINE
  5
535
100
AcDbEntity
  8
0
100
AcDbPolyline
 62
7
  6
CONTINUOUS
 90
7
 70
0
 10
14.6994706227
 20
7.3449537176
 10
14.7285331662
 20
7.3314184525
 10
14.7615433309
 20
7.3205603098
 10
14.7973295748
 20
7.3128594899
 10
14.8345354511
 20
7.3085603579
 10
14.8725441823
 20
7.3076735373
 10
14.9107072073
 20
7.3102397918
  0
LWPOLYLINE
  5
536
100
AcDbEntity
  8
0
100
AcDbPolyline
 62
7
  6
CONTINUOUS
 90
8
 70
0
 10
14.6994706227
 20
7.377099482
 10
14.7270201366
 20
7.3641652924
 10
14.7581944215
 20
7.3536283571
 10
14.792004876
 20
7.3459166256
 10
14.8272789825
 20
7.3412704739
 10
14.863305157
 20
7.3397190571
 10
14.8997498114
 20
7.3412902767
 10
14.9354191847
 20
7.3459568695
  0
LINE
  5
537
100
AcDbEntity
  8
0
100
AcDbLine
 62
7
  6
CONTINUOUS
 10
14.7401152188
 20
7.2884088268
 11
14.713589841
 21
7.3014413696
  0
LINE
  5
538
100
AcDbEntity
  8
0
100
AcDbLine
 62
7
  6
CONTINUOUS
 10
14.7245254831
 20
7.2951275327
 11
14.7492977501
 21
7.2829019679
  0
LINE
  5
539
100
AcDbEntity
  8
0
100
AcDbLine
 62
7
  6
CONTINUOUS
 10
14.7281305991
 20
7.2650631705
 11
14.7500997991
 21
7.2540727378
  0
LINE
  5
53A
100
AcDbEntity
  8
0
100
AcDbLine
 62
7
  6
CONTINUOUS
 10
14.713589841
 20
7.3014413696
 11
14.7245254669
 21
7.2951275052
  0
LINE
  5
53B
100
AcDbEntity
  8
0
100
AcDbLine
 62
7
  6
CONTINUOUS
 10
14.6994706227
 20
7.3803140585
 11
14.6746293429
 21
7.3962981441
  0
LINE
  5
53C
100
AcDbEntity
  8
0
100
AcDbLine
 62
7
  6
CONTINUOUS
 10
14.6994694107
 20
7.3128086169
 11
14.6745760858
 21
7.3288324454
  0
LWPOLYLINE
  5
53D
100
AcDbEntity
  8
0
100
AcDbPolyline
 62
7
  6
CONTINUOUS
 90
13
 70
0
 10
14.674575841
 20
7.3320472076
 10
14.6994695874
 20
7.3160230966
 10
14.7286162042
 20
7.3024545675
 10
14.7612995118
 20
7.2916950168
 10
14.7967136085
 20
7.2840297682
 10
14.8339850592
 20
7.279667456
 10
14.8721970203
 20
7.2787349349
 10
14.9104094429
 20
7.2812749513
 10
14.9476801499
 20
7.2872446209
 10
14.983092088
 20
7.2965167026
 10
15.015774336
 20
7.3088830585
 10
15.0449222771
 20
7.3240594181
 10
15.0698168347
 20
7.3416914417
  0
LWPOLYLINE
  5
53E
100
AcDbEntity
  8
0
100
AcDbPolyline
 62
7
  6
CONTINUOUS
 90
3
 70
0
 10
14.6994706227
 20
7.348168294
 10
14.6745965406
 20
7.3641772632
 10
14.6543692805
 20
7.3824530554
  0
LWPOLYLINE
  5
53F
100
AcDbEntity
  8
0
100
AcDbPolyline
 62
7
  6
CONTINUOUS
 90
4
 70
0
 10
14.6994706227
 20
7.4124598229
 10
14.6746102458
 20
7.4284583939
 10
14.654387656
 20
7.4467245341
 10
14.643752972
 20
7.461056732
  0
LWPOLYLINE
  5
540
100
AcDbEntity
  8
0
100
AcDbPolyline
 62
7
  6
CONTINUOUS
 90
6
 70
0
 10
14.7281305991
 20
7.2650631705
 10
14.7090941561
 20
7.2777468212
 10
14.6933779972
 20
7.2918654874
 10
14.6813020581
 20
7.3071317536
 10
14.6731121702
 20
7.3232348428
 10
14.670890116
 20
7.3321572418
  0
LWPOLYLINE
  5
541
100
AcDbEntity
  8
0
100
AcDbPolyline
 62
7
  6
CONTINUOUS
 90
3
 70
0
 10
14.713589841
 20
7.3014413696
 10
14.6911611905
 20
7.3166553427
 10
14.6863591847
 20
7.3212476669
  0
LINE
  5
542
100
AcDbEntity
  8
0
100
AcDbLine
 62
7
  6
CONTINUOUS
 10
14.4240963613
 20
7.5700899157
 11
14.4269338249
 21
7.5678918887
  0
LWPOLYLINE
  5
543
100
AcDbEntity
  8
0
100
AcDbPolyline
 62
7
  6
CONTINUOUS
 90
3
 70
0
 10
14.4138817982
 20
7.589360934
 10
14.4161842242
 20
7.5875683896
 10
14.4187797965
 20
7.5859149654
  0
LWPOLYLINE
  5
544
100
AcDbEntity
  8
0
100
AcDbPolyline
 62
7
  6
CONTINUOUS
 90
4
 70
0
 10
14.3296180374
 20
7.6875979223
 10
14.3595876413
 20
7.6637554694
 10
14.389249769
 20
7.6414898251
 10
14.4187797965
 20
7.6207209909
  0
LWPOLYLINE
  5
545
100
AcDbEntity
  8
0
100
AcDbPolyline
 62
7
  6
CONTINUOUS
 90
4
 70
0
 10
14.6745760858
 20
7.3288324454
 10
14.6545480008
 20
7.3468980587
 10
14.6398793703
 20
7.3665402386
 10
14.6309316196
 20
7.3872547155
  0
LINE
  5
546
100
AcDbEntity
  8
0
100
AcDbLine
 62
7
  6
CONTINUOUS
 10
14.654547514
 20
7.3501131644
 11
14.674575841
 21
7.3320472076
  0
LWPOLYLINE
  5
547
100
AcDbEntity
  8
0
100
AcDbPolyline
 62
7
  6
CONTINUOUS
 90
5
 70
0
 10
14.6746293429
 20
7.3962981441
 10
14.6544133945
 20
7.4145506995
 10
14.6396715403
 20
7.4344032388
 10
14.6308406897
 20
7.4550826113
 10
14.6293604195
 20
7.4657092594
  0
LWPOLYLINE
  5
548
100
AcDbEntity
  8
0
100
AcDbPolyline
 62
7
  6
CONTINUOUS
 90
3
 70
0
 10
14.6543692805
 20
7.4113842435
 10
14.6745965406
 20
7.3931084512
 10
14.6994706227
 20
7.377099482
  0
LINE
  5
549
100
AcDbEntity
  8
02___PRT_ALL_AXES
100
AcDbLine
 62
7
  6
CONTINUOUS
 10
14.4160880317
 20
7.7102073893
 11
14.3832785385
 21
7.7423787251
  0
LINE
  5
54A
100
AcDbEntity
  8
02___PRT_ALL_AXES
100
AcDbLine
 62
7
  6
CONTINUOUS
 10
14.4160880317
 20
7.6619887426
 11
14.3836228387
 21
7.693922689
  0
LWPOLYLINE
  5
54B
100
AcDbEntity
  8
0
100
AcDbPolyline
 62
7
  6
CONTINUOUS
 90
4
 70
0
 10
14.4208758582
 20
7.5721996875
 10
14.3771249777
 20
7.6172434023
 10
14.3457562585
 20
7.6655664666
 10
14.3408945999
 20
7.6786268024
  0
LWPOLYLINE
  5
54C
100
AcDbEntity
  8
0
100
AcDbPolyline
 62
7
  6
CONTINUOUS
 90
4
 70
0
 10
14.6406079443
 20
7.4620733917
 10
14.6544133945
 20
7.4434818875
 10
14.6746293429
 20
7.4252293321
 10
14.6994706227
 20
7.4092452465
  0
LWPOLYLINE
  5
54D
100
AcDbEntity
  8
0
100
AcDbPolyline
 62
7
  6
CONTINUOUS
 90
4
 70
0
 10
14.6396462238
 20
7.3990866049
 10
14.6543833276
 20
7.379223151
 10
14.6746069915
 20
7.3609547575
 10
14.6994706227
 20
7.3449537176
  0
LWPOLYLINE
  5
54E
100
AcDbEntity
  8
0
100
AcDbPolyline
 62
7
  6
CONTINUOUS
 90
4
 70
0
 10
14.6543692805
 20
7.3824530554
 10
14.6396341902
 20
7.4023219743
 10
14.6308208715
 20
7.4230076568
 10
14.6279243927
 20
7.4438725267
  0
LINE
  5
54F
100
AcDbEntity
  8
02___PRT_ALL_AXES
100
AcDbLine
 62
7
  6
CONTINUOUS
 10
14.3014643897
 20
7.8815184546
 11
14.3296180374
 21
7.8322538624
  0
LINE
  5
550
100
AcDbEntity
  8
02___PRT_ALL_AXES
100
AcDbLine
 62
7
  6
CONTINUOUS
 10
14.3014643897
 20
7.9297371013
 11
14.3296180374
 21
7.880472509
  0
LINE
  5
551
100
AcDbEntity
  8
02___PRT_ALL_AXES
100
AcDbLine
 62
7
  6
CONTINUOUS
 10
14.304087268
 20
7.9311747949
 11
14.3296180374
 21
7.8864998399
  0
LWPOLYLINE
  5
552
100
AcDbEntity
  8
0
100
AcDbPolyline
 62
7
  6
CONTINUOUS
 90
3
 70
0
 10
14.6309312712
 20
7.3904705155
 10
14.6398788606
 20
7.3697556862
 10
14.654547514
 20
7.3501131644
  0
LWPOLYLINE
  5
553
100
AcDbEntity
  8
0
100
AcDbPolyline
 62
7
  6
CONTINUOUS
 90
3
 70
0
 10
14.6308208715
 20
7.4519388448
 10
14.6396341902
 20
7.4312531623
 10
14.6543692805
 20
7.4113842435
  0
LWPOLYLINE
  5
554
100
AcDbEntity
  8
0
100
AcDbPolyline
 62
7
  6
CONTINUOUS
 90
4
 70
0
 10
14.5600471179
 20
7.5043560845
 10
14.5614095083
 20
7.4952095456
 10
14.5653636831
 20
7.4885310342
 10
14.5682006093
 20
7.4863333178
  0
LINE
  5
555
100
AcDbEntity
  8
0
100
AcDbLine
 62
7
  6
CONTINUOUS
 10
14.6279243927
 20
7.4117267622
 11
14.6309312712
 21
7.3904705155
  0
LWPOLYLINE
  5
556
100
AcDbEntity
  8
0
100
AcDbPolyline
 62
7
  6
CONTINUOUS
 90
3
 70
0
 10
14.6279243927
 20
7.4406579502
 10
14.6308273836
 20
7.4197697857
 10
14.6396462238
 20
7.3990866049
  0
LINE
  5
557
100
AcDbEntity
  8
0
100
AcDbLine
 62
7
  6
CONTINUOUS
 10
14.6288880535
 20
7.4658619561
 11
14.6308208715
 21
7.4519388448
  0
LINE
  5
558
100
AcDbEntity
  8
0
100
AcDbLine
 62
7
  6
CONTINUOUS
 10
14.6279243927
 20
7.4093158081
 11
14.6309316196
 21
7.3872547155
  0
LWPOLYLINE
  5
559
100
AcDbEntity
  8
0
100
AcDbPolyline
 62
7
  6
CONTINUOUS
 90
4
 70
0
 10
14.5660158366
 20
7.501528293
 10
14.567086126
 20
7.4925201424
 10
14.5701925118
 20
7.4862432872
 10
14.5737182625
 20
7.4836961078
  0
LINE
  5
55A
100
AcDbEntity
  8
02___PRT_ALL_AXES
100
AcDbLine
 62
7
  6
CONTINUOUS
 10
14.5749548788
 20
9.5437946114
 11
14.5772347671
 21
9.5225668234
  0
LINE
  5
55B
100
AcDbEntity
  8
AXIS_COSMETIC_THREADS
100
AcDbLine
 62
7
  6
CONTINUOUS
 10
14.7556960462
 20
7.2519963522
 11
14.7556960462
 21
5.4664258476
  0
LINE
  5
55C
100
AcDbEntity
  8
AXIS
100
AcDbLine
 62
7
  6
CONTINUOUS
 10
14.7906275037
 20
5.4184606616
 11
14.7906275037
 21
5.2214749865
  0
LINE
  5
55D
100
AcDbEntity
  8
AXIS
100
AcDbLine
 62
7
  6
CONTINUOUS
 10
14.8406275037
 20
5.4018561657
 11
14.8406275037
 21
5.2214749865
  0
LINE
  5
55E
100
AcDbEntity
  8
AXIS
100
AcDbLine
 62
7
  6
CONTINUOUS
 10
14.8471962817
 20
5.4007426245
 11
14.8471962817
 21
5.1888157261
  0
LINE
  5
55F
100
AcDbEntity
  8
02___PRT_ALL_AXES
100
AcDbLine
 62
7
  6
CONTINUOUS
 10
15.1691862736
 20
9.5367034838
 11
15.1631141026
 21
9.5085779966
  0
LWPOLYLINE
  5
560
100
AcDbEntity
  8
02___PRT_ALL_AXES
100
AcDbPolyline
 62
7
  6
CONTINUOUS
 90
5
 70
0
 10
15.2125343888
 20
7.7484588671
 10
15.1976824848
 20
7.7408275365
 10
15.1260094083
 20
7.7139890047
 10
15.0491682292
 20
7.6939265932
 10
14.9673964822
 20
7.6806840139
  0
LWPOLYLINE
  5
561
100
AcDbEntity
  8
02___PRT_ALL_AXES
100
AcDbPolyline
 62
7
  6
CONTINUOUS
 90
7
 70
0
 10
15.1793443758
 20
7.6857699155
 10
15.1272935538
 20
7.6661763585
 10
15.0496885598
 20
7.6458176118
 10
14.9668638424
 20
7.6324040694
 10
14.8816371137
 20
7.6265287452
 10
14.7971469817
 20
7.6282660663
 10
14.7153073725
 20
7.6372989928
  0
LWPOLYLINE
  5
562
100
AcDbEntity
  8
02___PRT_ALL_AXES
100
AcDbPolyline
 62
7
  6
CONTINUOUS
 90
7
 70
0
 10
15.1379510347
 20
7.6220568166
 10
15.1251704982
 20
7.6172878272
 10
15.0479894491
 20
7.5972421034
 10
14.9668393107
 20
7.584182607
 10
14.8830904772
 20
7.578345819
 10
14.7992402097
 20
7.5799130914
 10
14.7168128409
 20
7.5888454718
  0
LWPOLYLINE
  5
563
100
AcDbEntity
  8
02___PRT_ALL_AXES
100
AcDbPolyline
 62
7
  6
CONTINUOUS
 90
8
 70
0
 10
15.0971848126
 20
7.6663298614
 10
15.178979503
 20
7.6916381677
 10
15.253255481
 20
7.7240212841
 10
15.3181923755
 20
7.7627150332
 10
15.3721986996
 20
7.806800575
 10
15.4139508553
 20
7.8552269265
 10
15.4424255719
 20
7.9068367192
 10
15.4501996648
 20
7.9355526161
  0
LWPOLYLINE
  5
564
100
AcDbEntity
  8
02___PRT_ALL_AXES
100
AcDbPolyline
 62
7
  6
CONTINUOUS
 90
7
 70
0
 10
15.0971848126
 20
7.6181112148
 10
15.178979503
 20
7.643419521
 10
15.253255481
 20
7.6758026375
 10
15.3181923755
 20
7.7144963865
 10
15.3721986996
 20
7.7585819283
 10
15.4139508553
 20
7.8070082798
 10
15.4424255719
 20
7.8586180725
  0
LWPOLYLINE
  5
565
100
AcDbEntity
  8
02___PRT_ALL_AXES
100
AcDbPolyline
 62
7
  6
CONTINUOUS
 90
7
 70
0
 10
15.0971848126
 20
7.6120838839
 10
15.178979503
 20
7.6373921902
 10
15.253255481
 20
7.6697753066
 10
15.3181923755
 20
7.7084690557
 10
15.3721986996
 20
7.7525545975
 10
15.4139508553
 20
7.800980949
 10
15.4424255719
 20
7.8525907417
  0
LWPOLYLINE
  5
566
100
AcDbEntity
  8
0
100
AcDbPolyline
 62
7
  6
CONTINUOUS
 90
4
 70
0
 10
14.9354191847
 20
7.3459568695
 10
14.9721155472
 20
7.3543062189
 10
15.0063836597
 20
7.3659722609
 10
15.0376499981
 20
7.3808964337
  0
LWPOLYLINE
  5
567
100
AcDbEntity
  8
02___PRT_ALL_AXES
100
AcDbPolyline
 62
7
  6
CONTINUOUS
 90
9
 70
0
 10
14.8273581364
 20
7.4931565056
 10
14.9191929991
 20
7.4944570161
 10
15.0098760509
 20
7.504031212
 10
15.0971848126
 20
7.5216739214
 10
15.178979503
 20
7.5469822276
 10
15.253255481
 20
7.5793653441
 10
15.3181923755
 20
7.6180590932
 10
15.3721986996
 20
7.662144635
 10
15.4139508553
 20
7.7105709865
  0
LINE
  5
568
100
AcDbEntity
  8
02___PRT_ALL_AXES
100
AcDbLine
 62
7
  6
CONTINUOUS
 10
14.7366221704
 20
7.5001320791
 11
14.8273581364
 21
7.4931565056
  0
LWPOLYLINE
  5
569
100
AcDbEntity
  8
02___PRT_ALL_AXES
100
AcDbPolyline
 62
7
  6
CONTINUOUS
 90
10
 70
0
 10
14.649208877
 20
7.5091559724
 10
14.7366221704
 20
7.4941047482
 10
14.8273581364
 20
7.4871291748
 10
14.9191929991
 20
7.4884296853
 10
15.0098760509
 20
7.4980038812
 10
15.0971848126
 20
7.5156465906
 10
15.178979503
 20
7.5409548968
 10
15.253255481
 20
7.5733380133
 10
15.3181923755
 20
7.6120317623
 10
15.3721986996
 20
7.6561173042
  0
LINE
  5
56A
100
AcDbEntity
  8
02___PRT_ALL_AXES
100
AcDbLine
 62
7
  6
CONTINUOUS
 10
14.649208877
 20
7.5151833032
 11
14.7366221704
 21
7.5001320791
  0
LWPOLYLINE
  5
56B
100
AcDbEntity
  8
02___PRT_ALL_AXES
100
AcDbPolyline
 62
7
  6
CONTINUOUS
 90
4
 70
0
 10
14.649208877
 20
7.5573746191
 10
14.6202335854
 20
7.5667437506
 10
14.591397443
 20
7.5772731912
 10
14.5627388827
 20
7.5890111296
  0
LWPOLYLINE
  5
56C
100
AcDbEntity
  8
0
100
AcDbPolyline
 62
7
  6
CONTINUOUS
 90
14
 70
0
 10
14.5660158366
 20
7.501528293
 10
14.6317856999
 20
7.4797794877
 10
14.7075151523
 20
7.4624492963
 10
14.7902857156
 20
7.4514473201
 10
14.876329399
 20
7.447922776
 10
14.9618653894
 20
7.4521531789
 10
15.0448869594
 20
7.4639359861
 10
15.1238561367
 20
7.4830196482
 10
15.1968235396
 20
7.5089620878
 10
15.2619160211
 20
7.5411045014
 10
15.3175970382
 20
7.5786811316
 10
15.3625403202
 20
7.6208051415
 10
15.3956045308
 20
7.6663953242
 10
15.4098101717
 20
7.6997410725
  0
LWPOLYLINE
  5
56D
100
AcDbEntity
  8
0
100
AcDbPolyline
 62
7
  6
CONTINUOUS
 90
4
 70
0
 10
14.5600471179
 20
7.5419627877
 10
14.5895772874
 20
7.5297614867
 10
14.6192393618
 20
7.518867623
 10
14.649208877
 20
7.5091559724
  0
LWPOLYLINE
  5
56E
100
AcDbEntity
  8
0
100
AcDbPolyline
 62
7
  6
CONTINUOUS
 90
14
 70
0
 10
14.6994706227
 20
7.4092452465
 10
14.7285633719
 20
7.3956980841
 10
14.7616020263
 20
7.3848360048
 10
14.7974078207
 20
7.3771382033
 10
14.8346205091
 20
7.3728460359
 10
14.8726250654
 20
7.3719668346
 10
14.9107699879
 20
7.3745384439
 10
14.9477140119
 20
7.3804744373
 10
14.9827855614
 20
7.3896422036
 10
15.0154434511
 20
7.4019586657
 10
15.0449263308
 20
7.4172845955
 10
15.0700641038
 20
7.4351198299
 10
15.0900065447
 20
7.454778324
 10
15.0936101716
 20
7.4600087366
  0
LWPOLYLINE
  5
56F
100
AcDbEntity
  8
0
100
AcDbPolyline
 62
7
  6
CONTINUOUS
 90
11
 70
0
 10
14.6994706227
 20
7.4413910109
 10
14.7285373276
 20
7.4278541065
 10
14.7615514958
 20
7.4169953999
 10
14.7973404647
 20
7.4092949987
 10
14.8345472539
 20
7.4049968383
 10
14.8725553254
 20
7.4041110734
 10
14.9107157138
 20
7.4066780498
 10
14.9476735992
 20
7.4126117292
 10
14.9827432363
 20
7.4217745695
 10
15.0154041985
 20
7.4340870117
 10
15.0419103627
 20
7.4478601833
  0
LWPOLYLINE
  5
570
100
AcDbEntity
  8
0
100
AcDbPolyline
 62
7
  6
CONTINUOUS
 90
3
 70
0
 10
14.5600471179
 20
7.5043560845
 10
14.5629109951
 20
7.5028575653
 10
14.5660158366
 20
7.501528293
  0
LINE
  5
571
100
AcDbEntity
  8
0
100
AcDbLine
 62
7
  6
CONTINUOUS
 10
14.4269338249
 20
7.5678918887
 11
14.5682011462
 21
7.4863330078
  0
LINE
  5
572
100
AcDbEntity
  8
0
100
AcDbLine
 62
7
  6
CONTINUOUS
 10
14.4187797965
 20
7.5859149654
 11
14.5600471179
 21
7.5043560845
  0
LINE
  5
573
100
AcDbEntity
  8
0
100
AcDbLine
 62
7
  6
CONTINUOUS
 10
14.6824199365
 20
7.4523637574
 11
14.6994706227
 21
7.4413910109
  0
LINE
  5
574
100
AcDbEntity
  8
0
100
AcDbLine
 62
7
  6
CONTINUOUS
 10
14.6994706227
 20
7.4446055874
 11
14.6898846802
 21
7.4507750888
  0
LWPOLYLINE
  5
575
100
AcDbEntity
  8
02___PRT_ALL_AXES
100
AcDbPolyline
 62
7
  6
CONTINUOUS
 90
5
 70
0
 10
14.4160880317
 20
7.6707732001
 10
14.3946963184
 20
7.6857708062
 10
14.3726486396
 20
7.7020014852
 10
14.3506732931
 20
7.7189287282
 10
14.3296180374
 20
7.735816569
  0
LWPOLYLINE
  5
576
100
AcDbEntity
  8
02___PRT_ALL_AXES
100
AcDbPolyline
 62
7
  6
CONTINUOUS
 90
4
 70
0
 10
14.5627388827
 20
7.5802266721
 10
14.5914247807
 20
7.5599448138
 10
14.6202688726
 20
7.5382285785
 10
14.649208877
 20
7.5151833032
  0
LWPOLYLINE
  5
577
100
AcDbEntity
  8
02___PRT_ALL_AXES
100
AcDbPolyline
 62
7
  6
CONTINUOUS
 90
4
 70
0
 10
14.4160880317
 20
7.7189918468
 10
14.3874300967
 20
7.7392532844
 10
14.3585917027
 20
7.7609638529
 10
14.3296180374
 20
7.7840352157
  0
LWPOLYLINE
  5
578
100
AcDbEntity
  8
02___PRT_ALL_AXES
100
AcDbPolyline
 62
7
  6
CONTINUOUS
 90
4
 70
0
 10
14.5627388827
 20
7.6284453188
 10
14.5914017108
 20
7.6081803079
 10
14.6202397354
 20
7.5864698068
 10
14.649208877
 20
7.5634019499
  0
LWPOLYLINE
  5
579
100
AcDbEntity
  8
02___PRT_ALL_AXES
100
AcDbPolyline
 62
7
  6
CONTINUOUS
 90
4
 70
0
 10
14.4160880317
 20
7.7672104935
 10
14.3874300967
 20
7.7874719311
 10
14.3585917027
 20
7.8091824996
 10
14.3296180374
 20
7.8322538624
  0
LWPOLYLINE
  5
57A
100
AcDbEntity
  8
02___PRT_ALL_AXES
100
AcDbPolyline
 62
7
  6
CONTINUOUS
 90
4
 70
0
 10
14.5627388827
 20
7.6766639655
 10
14.5914017108
 20
7.6563989546
 10
14.6202397354
 20
7.6346884535
 10
14.649208877
 20
7.6116205966
  0
LWPOLYLINE
  5
57B
100
AcDbEntity
  8
02___PRT_ALL_AXES
100
AcDbPolyline
 62
7
  6
CONTINUOUS
 90
4
 70
0
 10
14.4160880317
 20
7.8154291401
 10
14.3874300967
 20
7.8356905778
 10
14.3585917027
 20
7.8574011463
 10
14.3296180374
 20
7.880472509
  0
LINE
  5
57C
100
AcDbEntity
  8
02___PRT_ALL_AXES
100
AcDbLine
 62
7
  6
CONTINUOUS
 10
14.4160880317
 20
7.8548633294
 11
14.3835606613
 21
7.886822273
  0
LINE
  5
57D
100
AcDbEntity
  8
02___PRT_ALL_AXES
100
AcDbLine
 62
7
  6
CONTINUOUS
 10
14.4160880317
 20
7.758426036
 11
14.3836966944
 21
7.7902825692
  0
LINE
  5
57E
100
AcDbEntity
  8
02___PRT_ALL_AXES
100
AcDbLine
 62
7
  6
CONTINUOUS
 10
14.4160880317
 20
7.8066446827
 11
14.3837191071
 21
7.8384843427
  0
LINE
  5
57F
100
AcDbEntity
  8
AXIS
100
AcDbLine
 62
7
  6
CONTINUOUS
 10
14.8971962817
 20
5.400742664
 11
14.8971962817
 21
5.1888157261
  0
LINE
  5
580
100
AcDbEntity
  8
AXIS
100
AcDbLine
 62
7
  6
CONTINUOUS
 10
14.9037645887
 20
5.4018561596
 11
14.9037645887
 21
5.2214752584
  0
LINE
  5
581
100
AcDbEntity
  8
AXIS
100
AcDbLine
 62
7
  6
CONTINUOUS
 10
14.9537645887
 20
5.4184607076
 11
14.9537645887
 21
5.2214752584
  0
LINE
  5
582
100
AcDbEntity
  8
AXIS_COSMETIC_THREADS
100
AcDbLine
 62
7
  6
CONTINUOUS
 10
14.9886960462
 20
7.2519963972
 11
14.9886960462
 21
5.4664258476
  0
LWPOLYLINE
  5
583
100
AcDbEntity
  8
0
100
AcDbPolyline
 62
7
  6
CONTINUOUS
 90
3
 70
0
 10
15.0376499981
 20
7.3808964337
 10
15.0646351782
 20
7.398619454
 10
15.0863284198
 20
7.4184466638
  0
LWPOLYLINE
  5
584
100
AcDbEntity
  8
0
100
AcDbPolyline
 62
7
  6
CONTINUOUS
 90
11
 70
0
 10
15.0329026031
 20
7.4463922517
 10
15.0226379413
 20
7.4406330581
 10
14.9897230788
 20
7.4272821455
 10
14.9542106667
 20
7.4172563779
 10
14.916571191
 20
7.4105991726
 10
14.8774969067
 20
7.4074622155
 10
14.8383938998
 20
7.4079645133
 10
14.8001577682
 20
7.4120586404
 10
14.7633139823
 20
7.419739471
 10
14.7293284712
 20
7.4307583986
 10
14.6994706227
 20
7.4446055874
  0
LWPOLYLINE
  5
585
100
AcDbEntity
  8
02___PRT_ALL_AXES
100
AcDbPolyline
 62
7
  6
CONTINUOUS
 90
8
 70
0
 10
15.2127258663
 20
7.6038864082
 10
15.1975216148
 20
7.5961008856
 10
15.1263017025
 20
7.5694252576
 10
15.0486097405
 20
7.5491533201
 10
14.9657271932
 20
7.5358370103
 10
14.8804827605
 20
7.5300646583
 10
14.7960373526
 20
7.5319018885
 10
14.7139609348
 20
7.5410740297
  0
LWPOLYLINE
  5
586
100
AcDbEntity
  8
02___PRT_ALL_AXES
100
AcDbPolyline
 62
7
  6
CONTINUOUS
 90
11
 70
0
 10
14.649208877
 20
7.5573746191
 10
14.7366221704
 20
7.5423233949
 10
14.8273581364
 20
7.5353478214
 10
14.9191929991
 20
7.536648332
 10
15.0098760509
 20
7.5462225278
 10
15.0971848126
 20
7.5638652372
 10
15.178979503
 20
7.5891735435
 10
15.253255481
 20
7.62155666
 10
15.3181923755
 20
7.660250409
 10
15.3721986996
 20
7.7043359508
 10
15.4139508553
 20
7.7527623023
  0
LWPOLYLINE
  5
587
100
AcDbEntity
  8
02___PRT_ALL_AXES
100
AcDbPolyline
 62
7
  6
CONTINUOUS
 90
11
 70
0
 10
14.649208877
 20
7.5634019499
 10
14.7366221704
 20
7.5483507258
 10
14.8273581364
 20
7.5413751523
 10
14.9191929991
 20
7.5426756628
 10
15.0098760509
 20
7.5522498587
 10
15.0971848126
 20
7.5698925681
 10
15.178979503
 20
7.5952008743
 10
15.253255481
 20
7.6275839908
 10
15.3181923755
 20
7.6662777399
 10
15.3721986996
 20
7.7103632817
 10
15.4139508553
 20
7.7587896332
  0
LWPOLYLINE
  5
588
100
AcDbEntity
  8
02___PRT_ALL_AXES
100
AcDbPolyline
 62
7
  6
CONTINUOUS
 90
6
 70
0
 10
14.649208877
 20
7.6055932657
 10
14.7366221704
 20
7.5905420416
 10
14.8273581364
 20
7.5835664681
 10
14.9191929991
 20
7.5848669787
 10
15.0098760509
 20
7.5944411745
 10
15.0971848126
 20
7.6120838839
  0
LWPOLYLINE
  5
589
100
AcDbEntity
  8
02___PRT_ALL_AXES
100
AcDbPolyline
 62
7
  6
CONTINUOUS
 90
6
 70
0
 10
14.649208877
 20
7.6116205966
 10
14.7366221704
 20
7.5965693724
 10
14.8273581364
 20
7.589593799
 10
14.9191929991
 20
7.5908943095
 10
15.0098760509
 20
7.6004685054
 10
15.0971848126
 20
7.6181112148
  0
LWPOLYLINE
  5
58A
100
AcDbEntity
  8
02___PRT_ALL_AXES
100
AcDbPolyline
 62
7
  6
CONTINUOUS
 90
11
 70
0
 10
14.649208877
 20
7.6538119124
 10
14.7366221704
 20
7.6387606883
 10
14.8273581364
 20
7.6317851148
 10
14.9191929991
 20
7.6330856253
 10
15.0098760509
 20
7.6426598212
 10
15.0971848126
 20
7.6603025306
 10
15.178979503
 20
7.6856108369
 10
15.253255481
 20
7.7179939533
 10
15.3181923755
 20
7.7566877024
 10
15.3721986996
 20
7.8007732442
 10
15.4139508553
 20
7.8491995957
  0
LWPOLYLINE
  5
58B
100
AcDbEntity
  8
02___PRT_ALL_AXES
100
AcDbPolyline
 62
7
  6
CONTINUOUS
 90
6
 70
0
 10
14.649208877
 20
7.6598392433
 10
14.7366221704
 20
7.6447880191
 10
14.8273581364
 20
7.6378124456
 10
14.9191929991
 20
7.6391129562
 10
15.0098760509
 20
7.648687152
 10
15.0971848126
 20
7.6663298614
  0
LWPOLYLINE
  5
58C
100
AcDbEntity
  8
02___PRT_ALL_AXES
100
AcDbPolyline
 62
7
  6
CONTINUOUS
 90
11
 70
0
 10
14.649208877
 20
7.7020305591
 10
14.7366221704
 20
7.686979335
 10
14.8273581364
 20
7.6800037615
 10
14.9191929991
 20
7.681304272
 10
15.0098760509
 20
7.6908784679
 10
15.0971848126
 20
7.7085211773
 10
15.178979503
 20
7.7338294835
 10
15.253255481
 20
7.7662126
 10
15.3181923755
 20
7.8049063491
 10
15.3721986996
 20
7.8489918909
 10
15.4139508553
 20
7.8974182424
  0
LWPOLYLINE
  5
58D
100
AcDbEntity
  8
02___PRT_ALL_AXES
100
AcDbPolyline
 62
7
  6
CONTINUOUS
 90
3
 70
0
 10
14.7168128409
 20
7.5888454718
 10
14.6370658204
 20
7.6051577315
 10
14.5627388827
 20
7.6284453188
  0
LWPOLYLINE
  5
58E
100
AcDbEntity
  8
02___PRT_ALL_AXES
100
AcDbPolyline
 62
7
  6
CONTINUOUS
 90
3
 70
0
 10
14.7165615556
 20
7.6853217834
 10
14.6369462092
 20
7.701625765
 10
14.5627388827
 20
7.7248826121
  0
LWPOLYLINE
  5
58F
100
AcDbEntity
  8
02___PRT_ALL_AXES
100
AcDbPolyline
 62
7
  6
CONTINUOUS
 90
3
 70
0
 10
14.7153073725
 20
7.6372989928
 10
14.6364917132
 20
7.6535241072
 10
14.5627388827
 20
7.6766639655
  0
LWPOLYLINE
  5
590
100
AcDbEntity
  8
02___PRT_ALL_AXES
100
AcDbPolyline
 62
7
  6
CONTINUOUS
 90
3
 70
0
 10
14.7139609348
 20
7.5410740297
 10
14.6356804718
 20
7.5572963509
 10
14.5627388827
 20
7.5802266721
  0
LWPOLYLINE
  5
591
100
AcDbEntity
  8
02___PRT_ALL_AXES
100
AcDbPolyline
 62
7
  6
CONTINUOUS
 90
5
 70
0
 10
14.3296180374
 20
7.7418438998
 10
14.3506845332
 20
7.7351487775
 10
14.3725600576
 20
7.7275303811
 10
14.3945743665
 20
7.7191406642
 10
14.4160880317
 20
7.7102073893
  0
LWPOLYLINE
  5
592
100
AcDbEntity
  8
02___PRT_ALL_AXES
100
AcDbPolyline
 62
7
  6
CONTINUOUS
 90
4
 70
0
 10
14.3296180374
 20
7.6936252531
 10
14.3585889774
 20
7.6842576176
 10
14.3874247909
 20
7.6737284923
 10
14.4160880317
 20
7.6619887426
  0
LWPOLYLINE
  5
593
100
AcDbEntity
  8
02___PRT_ALL_AXES
100
AcDbPolyline
 62
7
  6
CONTINUOUS
 90
4
 70
0
 10
14.649208877
 20
7.6055932657
 10
14.6202335854
 20
7.6149623973
 10
14.591397443
 20
7.6254918379
 10
14.5627388827
 20
7.6372297763
  0
LWPOLYLINE
  5
594
100
AcDbEntity
  8
02___PRT_ALL_AXES
100
AcDbPolyline
 62
7
  6
CONTINUOUS
 90
4
 70
0
 10
14.649208877
 20
7.6538119124
 10
14.6202335854
 20
7.663181044
 10
14.591397443
 20
7.6737104845
 10
14.5627388827
 20
7.6854484229
  0
LWPOLYLINE
  5
595
100
AcDbEntity
  8
02___PRT_ALL_AXES
100
AcDbPolyline
 62
7
  6
CONTINUOUS
 90
4
 70
0
 10
14.3296180374
 20
7.7900625465
 10
14.3585889774
 20
7.780694911
 10
14.3874247909
 20
7.7701657857
 10
14.4160880317
 20
7.758426036
  0
LWPOLYLINE
  5
596
100
AcDbEntity
  8
02___PRT_ALL_AXES
100
AcDbPolyline
 62
7
  6
CONTINUOUS
 90
4
 70
0
 10
14.649208877
 20
7.7020305591
 10
14.6202335854
 20
7.7113996906
 10
14.591397443
 20
7.7219291312
 10
14.5627388827
 20
7.7336670696
  0
LWPOLYLINE
  5
597
100
AcDbEntity
  8
02___PRT_ALL_AXES
100
AcDbPolyline
 62
7
  6
CONTINUOUS
 90
4
 70
0
 10
14.3296180374
 20
7.8382811932
 10
14.3585889774
 20
7.8289135576
 10
14.3874247909
 20
7.8183844323
 10
14.4160880317
 20
7.8066446827
  0
LWPOLYLINE
  5
598
100
AcDbEntity
  8
0
100
AcDbPolyline
 62
7
  6
CONTINUOUS
 90
3
 70
0
 10
14.1762277025
 20
8.0072340136
 10
14.250168058
 20
7.9686642622
 10
14.3435594038
 20
7.9297178103
  0
LWPOLYLINE
  5
599
100
AcDbEntity
  8
0
100
AcDbPolyline
 62
7
  6
CONTINUOUS
 90
7
 70
0
 10
14.1843817309
 20
7.9892109369
 10
14.096439616
 20
8.0473572019
 10
14.0223600129
 20
8.112187501
 10
13.9636877234
 20
8.1823679393
 10
13.9215301215
 20
8.2562572607
 10
13.8963119452
 20
8.3322286939
 10
13.8879440777
 20
8.4090491257
  0
LWPOLYLINE
  5
59A
100
AcDbEntity
  8
02___PRT_ALL_AXES
100
AcDbPolyline
 62
7
  6
CONTINUOUS
 90
5
 70
0
 10
14.5627388827
 20
7.8213199055
 10
14.5842299649
 20
7.8062508871
 10
14.6062344624
 20
7.7900492801
 10
14.628116918
 20
7.7731932542
 10
14.649208877
 20
7.7562765366
  0
LWPOLYLINE
  5
59B
100
AcDbEntity
  8
02___PRT_ALL_AXES
100
AcDbPolyline
 62
7
  6
CONTINUOUS
 90
4
 70
0
 10
14.5627388827
 20
7.7248826121
 10
14.5914017108
 20
7.7046176012
 10
14.6202397354
 20
7.6829071002
 10
14.649208877
 20
7.6598392433
  0
LWPOLYLINE
  5
59C
100
AcDbEntity
  8
02___PRT_ALL_AXES
100
AcDbPolyline
 62
7
  6
CONTINUOUS
 90
4
 70
0
 10
14.4160880317
 20
7.8636477868
 10
14.3874300967
 20
7.8839092245
 10
14.3585917027
 20
7.905619793
 10
14.3464029444
 20
7.9153255468
  0
LWPOLYLINE
  5
59D
100
AcDbEntity
  8
02___PRT_ALL_AXES
100
AcDbPolyline
 62
7
  6
CONTINUOUS
 90
4
 70
0
 10
14.5627388827
 20
7.7731012588
 10
14.5914017108
 20
7.7528362479
 10
14.6202397354
 20
7.7311257468
 10
14.649208877
 20
7.7080578899
  0
LWPOLYLINE
  5
59E
100
AcDbEntity
  8
02___PRT_ALL_AXES
100
AcDbPolyline
 62
7
  6
CONTINUOUS
 90
4
 70
0
 10
14.5907510257
 20
7.8497335846
 10
14.5914017108
 20
7.8492735413
 10
14.6202397354
 20
7.8275630402
 10
14.649208877
 20
7.8044951833
  0
LINE
  5
59F
100
AcDbEntity
  8
AXIS
100
AcDbLine
 62
7
  6
CONTINUOUS
 10
15.1668810856
 20
9.52602616
 11
15.1668810856
 21
9.5437946109
  0
LWPOLYLINE
  5
5A0
100
AcDbEntity
  8
0
100
AcDbPolyline
 62
7
  6
CONTINUOUS
 90
3
 70
0
 10
15.1164676998
 20
7.4599454089
 10
15.1164093804
 20
7.4567520895
 10
15.1123991856
 20
7.4333780906
  0
LINE
  5
5A1
100
AcDbEntity
  8
02___PRT_ALL_AXES
100
AcDbLine
 62
7
  6
CONTINUOUS
 10
15.1694372137
 20
9.5437946104
 11
15.1691862736
 21
9.5367034838
  0
LWPOLYLINE
  5
5A2
100
AcDbEntity
  8
AXIS_COSMETIC_THREADS
100
AcDbPolyline
 62
7
  6
CONTINUOUS
 90
7
 70
0
 10
14.9886949128
 20
5.4664258476
 10
14.9883992522
 20
5.4616278288
 10
14.9860337592
 20
5.4521289065
 10
14.9813508587
 20
5.4429210287
 10
14.974445881
 20
5.4341916413
 10
14.9654593915
 20
5.4261184493
 10
14.9545743292
 20
5.4188657997
  0
LWPOLYLINE
  5
5A3
100
AcDbEntity
  8
0
100
AcDbPolyline
 62
7
  6
CONTINUOUS
 90
3
 70
0
 10
15.1164676998
 20
7.424585068
 10
15.1134602184
 20
7.4017193916
 10
15.1045122962
 20
7.3793978303
  0
LINE
  5
5A4
100
AcDbEntity
  8
0
100
AcDbLine
 62
7
  6
CONTINUOUS
 10
15.1133954934
 20
7.4336218841
 11
15.1164676998
 21
7.4567308324
  0
LINE
  5
5A5
100
AcDbEntity
  8
0
100
AcDbLine
 62
7
  6
CONTINUOUS
 10
15.1117234316
 20
7.4648373311
 11
15.1045053871
 21
7.4468911927
  0
LINE
  5
5A6
100
AcDbEntity
  8
0
100
AcDbLine
 62
7
  6
CONTINUOUS
 10
15.1044901917
 20
7.4115028396
 11
15.1133954934
 21
7.4336218841
  0
LWPOLYLINE
  5
5A7
100
AcDbEntity
  8
0
100
AcDbPolyline
 62
7
  6
CONTINUOUS
 90
3
 70
0
 10
15.099033154
 20
7.3714605892
 10
15.0935836815
 20
7.3587725129
 10
15.0794202398
 20
7.3391548349
  0
LWPOLYLINE
  5
5A8
100
AcDbEntity
  8
0
100
AcDbPolyline
 62
7
  6
CONTINUOUS
 90
3
 70
0
 10
15.1022833857
 20
7.4397667967
 10
15.1123991856
 20
7.4623092786
 10
15.1128860898
 20
7.4651472701
  0
LWPOLYLINE
  5
5A9
100
AcDbEntity
  8
0
100
AcDbPolyline
 62
7
  6
CONTINUOUS
 90
8
 70
0
 10
15.1123991856
 20
7.4333780906
 10
15.1022833857
 20
7.4108356087
 10
15.0863284198
 20
7.3895154758
 10
15.0646351782
 20
7.369688266
 10
15.0376499981
 20
7.3519652457
 10
15.0063836597
 20
7.3370410729
 10
14.9721155472
 20
7.3253750309
 10
14.9354191847
 20
7.3170256815
  0
LINE
  5
5AA
100
AcDbEntity
  8
02___PRT_ALL_AXES
100
AcDbLine
 62
7
  6
CONTINUOUS
 10
15.4139508553
 20
7.8974182424
 11
15.4297877424
 21
7.9261222492
  0
LWPOLYLINE
  5
5AB
100
AcDbEntity
  8
02___PRT_ALL_AXES
100
AcDbPolyline
 62
7
  6
CONTINUOUS
 90
3
 70
0
 10
15.4139508553
 20
7.8491995957
 10
15.4424255719
 20
7.9008093884
 10
15.4518897351
 20
7.9357680566
  0
LINE
  5
5AC
100
AcDbEntity
  8
02___PRT_ALL_AXES
100
AcDbLine
 62
7
  6
CONTINUOUS
 10
15.4139508553
 20
7.7587896332
 11
15.4424255719
 21
7.8103994258
  0
LINE
  5
5AD
100
AcDbEntity
  8
02___PRT_ALL_AXES
100
AcDbLine
 62
7
  6
CONTINUOUS
 10
15.4139508553
 20
7.7527623023
 11
15.4424255719
 21
7.804372095
  0
LWPOLYLINE
  5
5AE
100
AcDbEntity
  8
0
100
AcDbPolyline
 62
7
  6
CONTINUOUS
 90
14
 70
0
 10
15.1045053871
 20
7.4468911927
 10
15.0900065447
 20
7.425847136
 10
15.0700641038
 20
7.4061886418
 10
15.0449263308
 20
7.3883534075
 10
15.0154434511
 20
7.3730274777
 10
14.9827855614
 20
7.3607110155
 10
14.9477140119
 20
7.3515432493
 10
14.9107699879
 20
7.3456072559
 10
14.8726250654
 20
7.3430356466
 10
14.8346205091
 20
7.3439148479
 10
14.7974078207
 20
7.3482070153
 10
14.7616020263
 20
7.3559048168
 10
14.7285633719
 20
7.3667668961
 10
14.6994706227
 20
7.3803140585
  0
LWPOLYLINE
  5
5AF
100
AcDbEntity
  8
0
100
AcDbPolyline
 62
7
  6
CONTINUOUS
 90
14
 70
0
 10
15.0908927853
 20
7.4592843415
 10
15.0899848612
 20
7.4579672442
 10
15.0700355604
 20
7.4383106272
 10
15.0448917765
 20
7.4204782019
 10
15.0154041985
 20
7.4051558237
 10
14.9827432363
 20
7.3928433815
 10
14.9476735992
 20
7.3836805412
 10
14.9107157138
 20
7.3777468618
 10
14.8725553254
 20
7.3751798854
 10
14.8345472539
 20
7.3760656503
 10
14.7973404647
 20
7.3803638107
 10
14.7615514958
 20
7.3880642119
 10
14.7285373276
 20
7.3989229185
 10
14.6994706227
 20
7.4124598229
  0
LWPOLYLINE
  5
5B0
100
AcDbEntity
  8
0
100
AcDbPolyline
 62
7
  6
CONTINUOUS
 90
4
 70
0
 10
15.0898442995
 20
7.3613639355
 10
15.1045122824
 20
7.3826123813
 10
15.1134602047
 20
7.4049339161
 10
15.1164676998
 20
7.4277996444
  0
LINE
  5
5B1
100
AcDbEntity
  8
0
100
AcDbLine
 62
7
  6
CONTINUOUS
 10
15.1045122962
 20
7.3793978303
 11
15.0898443197
 21
7.3581493829
  0
LINE
  5
5B2
100
AcDbEntity
  8
0
100
AcDbLine
 62
7
  6
CONTINUOUS
 10
15.0863284198
 20
7.4184466638
 11
15.1022833857
 21
7.4397667967
  0
LWPOLYLINE
  5
5B3
100
AcDbEntity
  8
02___PRT_ALL_AXES
100
AcDbPolyline
 62
7
  6
CONTINUOUS
 90
5
 70
0
 10
15.3721986996
 20
7.6561173042
 10
15.4139508553
 20
7.7045436556
 10
15.4424255719
 20
7.7561534483
 10
15.4569249854
 20
7.8097112932
 10
15.4588102194
 20
7.8374572195
  0
LINE
  5
5B4
100
AcDbEntity
  8
0
100
AcDbLine
 62
7
  6
CONTINUOUS
 10
15.0698168347
 20
7.3416914417
 11
15.0898442995
 21
7.3613639355
  0
LWPOLYLINE
  5
5B5
100
AcDbEntity
  8
0
100
AcDbPolyline
 62
7
  6
CONTINUOUS
 90
13
 70
0
 10
15.0898443197
 20
7.3581493829
 10
15.0698168547
 20
7.3384768818
 10
15.0449222948
 20
7.3208448524
 10
15.0157743426
 20
7.305668485
 10
14.9830920821
 20
7.2933021243
 10
14.9476801202
 20
7.2840300383
 10
14.9104094353
 20
7.278060374
 10
14.8721970442
 20
7.275520359
 10
14.8339850811
 20
7.2764528781
 10
14.7967136072
 20
7.2808151919
 10
14.7612994646
 20
7.2884804532
 10
14.7286160909
 20
7.2992400357
 10
14.6994694107
 20
7.3128086169
  0
LWPOLYLINE
  5
5B6
100
AcDbEntity
  8
0
100
AcDbPolyline
 62
7
  6
CONTINUOUS
 90
3
 70
0
 10
15.0794202398
 20
7.3391548349
 10
15.0601774682
 20
7.3209349061
 10
15.0352187017
 20
7.30399128
  0
LINE
  5
5B7
100
AcDbEntity
  8
0
100
AcDbLine
 62
7
  6
CONTINUOUS
 10
15.0198703907
 20
7.295129679
 11
15.0352187017
 21
7.30399128
  0
LWPOLYLINE
  5
5B8
100
AcDbEntity
  8
0
100
AcDbPolyline
 62
7
  6
CONTINUOUS
 90
9
 70
0
 10
15.0352187017
 20
7.30399128
 10
15.0080078038
 20
7.2904894804
 10
14.9770295461
 20
7.2793543577
 10
14.9439264325
 20
7.2712241423
 10
14.9091992672
 20
7.2661576454
 10
14.8734830695
 20
7.2642656894
 10
14.8380405224
 20
7.2656078119
 10
14.8035125225
 20
7.2701309749
 10
14.770449338
 20
7.2778149568
  0
LWPOLYLINE
  5
5B9
100
AcDbEntity
  8
0
100
AcDbPolyline
 62
7
  6
CONTINUOUS
 90
8
 70
0
 10
14.9698390547
 20
7.2449997259
 10
14.9942936514
 20
7.2540733247
 10
15.016262693
 20
7.2650638631
 10
15.0352989531
 20
7.2777476053
 10
15.0510149083
 20
7.291866347
 10
15.0630906272
 20
7.3071326713
 10
15.0712802829
 20
7.3232357998
 10
15.0739561891
 20
7.333981224
  0
LWPOLYLINE
  5
5BA
100
AcDbEntity
  8
0
100
AcDbPolyline
 62
7
  6
CONTINUOUS
 90
3
 70
0
 10
14.9669550716
 20
7.2729396534
 10
14.9949253976
 20
7.2828308428
 10
15.0198703588
 20
7.2951296975
  0
LWPOLYLINE
  5
5BB
100
AcDbEntity
  8
02___PRT_ALL_AXES
100
AcDbPolyline
 62
7
  6
CONTINUOUS
 90
6
 70
0
 10
14.9974440688
 20
7.8302235448
 10
14.9656805755
 20
7.8251435986
 10
14.8823015295
 20
7.819419387
 10
14.7988699077
 20
7.8210297459
 10
14.7165905685
 20
7.8299732147
 10
14.6917841168
 20
7.8350525338
  0
LWPOLYLINE
  5
5BC
100
AcDbEntity
  8
02___PRT_ALL_AXES
100
AcDbPolyline
 62
7
  6
CONTINUOUS
 90
3
 70
0
 10
14.9673964822
 20
7.6806840139
 10
14.8829504898
 20
7.6747795753
 10
14.7988870911
 20
7.6763727158
  0
LWPOLYLINE
  5
5BD
100
AcDbEntity
  8
02___PRT_ALL_AXES
100
AcDbPolyline
 62
7
  6
CONTINUOUS
 90
3
 70
0
 10
14.809474128
 20
7.8260345832
 10
14.8273581364
 20
7.8246597015
 10
14.8788257379
 20
7.825388555
  0
LINE
  5
5BE
100
AcDbEntity
  8
02___PRT_ALL_AXES
100
AcDbLine
 62
7
  6
CONTINUOUS
 10
14.7988870911
 20
7.6763727158
 11
14.7165615556
 21
7.6853217834
  0
LWPOLYLINE
  5
5BF
100
AcDbEntity
  8
02___PRT_ALL_AXES
100
AcDbPolyline
 62
7
  6
CONTINUOUS
 90
12
 70
0
 10
14.649208877
 20
7.7080578899
 10
14.7366221704
 20
7.6930066658
 10
14.8273581364
 20
7.6860310923
 10
14.9191929991
 20
7.6873316028
 10
15.0098760509
 20
7.6969057987
 10
15.0971848126
 20
7.7145485081
 10
15.178979503
 20
7.7398568144
 10
15.253255481
 20
7.7722399308
 10
15.3181923755
 20
7.8109336799
 10
15.3721986996
 20
7.8550192217
 10
15.4139508553
 20
7.9034455732
 10
15.4256691811
 20
7.924684779
  0
LWPOLYLINE
  5
5C0
100
AcDbEntity
  8
02___PRT_ALL_AXES
100
AcDbPolyline
 62
7
  6
CONTINUOUS
 90
11
 70
0
 10
14.649208877
 20
7.7502492058
 10
14.7366221704
 20
7.7351979816
 10
14.8273581364
 20
7.7282224082
 10
14.9191929991
 20
7.7295229187
 10
15.0098760509
 20
7.7390971146
 10
15.0971848126
 20
7.756739824
 10
15.178979503
 20
7.7820481302
 10
15.253255481
 20
7.8144312467
 10
15.3181923755
 20
7.8531249957
 10
15.3721986996
 20
7.8972105376
 10
15.3830663807
 20
7.9098154471
  0
LWPOLYLINE
  5
5C1
100
AcDbEntity
  8
02___PRT_ALL_AXES
100
AcDbPolyline
 62
7
  6
CONTINUOUS
 90
11
 70
0
 10
14.649208877
 20
7.7562765366
 10
14.7366221704
 20
7.7412253125
 10
14.8273581364
 20
7.734249739
 10
14.9191929991
 20
7.7355502495
 10
15.0098760509
 20
7.7451244454
 10
15.0971848126
 20
7.7627671548
 10
15.178979503
 20
7.7880754611
 10
15.253255481
 20
7.8204585775
 10
15.3181923755
 20
7.8591523266
 10
15.3721986996
 20
7.9032378684
 10
15.3756328515
 20
7.9072209789
  0
LWPOLYLINE
  5
5C2
100
AcDbEntity
  8
02___PRT_ALL_AXES
100
AcDbPolyline
 62
7
  6
CONTINUOUS
 90
9
 70
0
 10
14.649208877
 20
7.7984678525
 10
14.7366221704
 20
7.7834166283
 10
14.8273581364
 20
7.7764410549
 10
14.9191929991
 20
7.7777415654
 10
15.0098760509
 20
7.7873157613
 10
15.0971848126
 20
7.8049584706
 10
15.178979503
 20
7.8302667769
 10
15.253255481
 20
7.8626498934
 10
15.2764888591
 20
7.8764938955
  0
LWPOLYLINE
  5
5C3
100
AcDbEntity
  8
02___PRT_ALL_AXES
100
AcDbPolyline
 62
7
  6
CONTINUOUS
 90
9
 70
0
 10
14.649208877
 20
7.8044951833
 10
14.7366221704
 20
7.7894439592
 10
14.8273581364
 20
7.7824683857
 10
14.9191929991
 20
7.7837688962
 10
15.0098760509
 20
7.7933430921
 10
15.0971848126
 20
7.8109858015
 10
15.178979503
 20
7.8362941077
 10
15.253255481
 20
7.8686772242
 10
15.2592348339
 20
7.872240123
  0
LWPOLYLINE
  5
5C4
100
AcDbEntity
  8
0
100
AcDbPolyline
 62
7
  6
CONTINUOUS
 90
5
 70
0
 10
14.6554969067
 20
7.8383455927
 10
14.5258858744
 20
7.8611425545
 10
14.4026813059
 20
7.8942466042
 10
14.28814306
 20
7.9371466647
 10
14.1843817309
 20
7.9892109369
  0
LWPOLYLINE
  5
5C5
100
AcDbEntity
  8
02___PRT_ALL_AXES
100
AcDbPolyline
 62
7
  6
CONTINUOUS
 90
3
 70
0
 10
14.7164364275
 20
7.733559887
 10
14.636887147
 20
7.7498595982
 10
14.5627388827
 20
7.7731012588
  0
LWPOLYLINE
  5
5C6
100
AcDbEntity
  8
02___PRT_ALL_AXES
100
AcDbPolyline
 62
7
  6
CONTINUOUS
 90
3
 70
0
 10
14.7143265655
 20
7.782109392
 10
14.6355858218
 20
7.7984140919
 10
14.5627388827
 20
7.8213199055
  0
LWPOLYLINE
  5
5C7
100
AcDbEntity
  8
0
100
AcDbPolyline
 62
7
  6
CONTINUOUS
 90
16
 70
0
 10
14.4541026123
 20
7.8946150943
 10
14.577627383
 20
7.866844975
 10
14.7083662775
 20
7.8487263575
 10
14.8415588231
 20
7.8410744705
 10
14.9751272903
 20
7.8439150114
 10
15.1069758618
 20
7.8572024521
 10
15.234541967
 20
7.8807078764
 10
15.355362767
 20
7.9139798262
 10
15.4672297305
 20
7.9564016259
 10
15.568103861
 20
8.0071990711
 10
15.6561072772
 20
8.0654286998
 10
15.7296054175
 20
8.1300064595
 10
15.7872569135
 20
8.199755242
 10
15.8279933581
 20
8.2734002434
 10
15.8510323083
 20
8.3495198458
 10
15.8564480147
 20
8.4090491257
  0
LINE
  5
5C8
100
AcDbEntity
  8
0
100
AcDbLine
 62
7
  6
CONTINUOUS
 10
14.3435594038
 20
7.9297178103
 11
14.4541026123
 21
7.8946150943
  0
LWPOLYLINE
  5
5C9
100
AcDbEntity
  8
02___PRT_ALL_AXES
100
AcDbPolyline
 62
7
  6
CONTINUOUS
 90
5
 70
0
 10
14.649208877
 20
7.7502492058
 10
14.6281699897
 20
7.7569351499
 10
14.6062025497
 20
7.764586158
 10
14.5841499757
 20
7.7729932859
 10
14.5627388827
 20
7.7818857163
  0
LWPOLYLINE
  5
5CA
100
AcDbEntity
  8
02___PRT_ALL_AXES
100
AcDbPolyline
 62
7
  6
CONTINUOUS
 90
4
 70
0
 10
14.3296180374
 20
7.8864998399
 10
14.3585889774
 20
7.8771322043
 10
14.3874247909
 20
7.866603079
 10
14.4160880317
 20
7.8548633294
  0
LWPOLYLINE
  5
5CB
100
AcDbEntity
  8
02___PRT_ALL_AXES
100
AcDbPolyline
 62
7
  6
CONTINUOUS
 90
4
 70
0
 10
14.649208877
 20
7.7984678525
 10
14.6202335854
 20
7.807836984
 10
14.591397443
 20
7.8183664246
 10
14.5627388827
 20
7.830104363
  0
LINE
  5
5CC
100
AcDbEntity
  8
0
100
AcDbLine
 62
7
  6
CONTINUOUS
 10
15.1164676998
 20
7.4277996444
 11
15.1145549283
 21
7.4423430822
  0
LINE
  5
5CD
100
AcDbEntity
  8
0
100
AcDbLine
 62
7
  6
CONTINUOUS
 10
15.1157747508
 20
7.4659173232
 11
15.1164676998
 21
7.4599454089
  0
LWPOLYLINE
  5
5CE
100
AcDbEntity
  8
AXIS
100
AcDbPolyline
 62
7
  6
CONTINUOUS
 90
18
 70
0
 10
15.1668782185
 20
9.5437946109
 10
15.1661301744
 20
9.5559325419
 10
15.1601463481
 20
9.5799598976
 10
15.1483006841
 20
9.6032510324
 10
15.1308343258
 20
9.6253318059
 10
15.1081028381
 20
9.6457527172
 10
15.0805689683
 20
9.6640980555
 10
15.0487932268
 20
9.6799943626
 10
15.0134224759
 20
9.6931180355
 10
14.9751767622
 20
9.7032019141
 10
14.9348346581
 20
9.7100407197
 10
14.8932174125
 20
9.7134952339
 10
14.8511722324
 20
9.7134951329
 10
14.8095550366
 20
9.7100404186
 10
14.7692130312
 20
9.703201419
 10
14.7309674629
 20
9.6931173565
 10
14.6955969013
 20
9.6799935136
 10
14.663821389
 20
9.6640970537
  0
LWPOLYLINE
  5
5CF
100
AcDbEntity
  8
02___PRT_ALL_AXES
100
AcDbPolyline
 62
7
  6
CONTINUOUS
 90
3
 70
0
 10
15.4424255719
 20
7.8586180725
 10
15.4569249854
 20
7.9121759174
 10
15.4587880504
 20
7.9395955711
  0
LINE
  5
5D0
100
AcDbEntity
  8
02___PRT_ALL_AXES
100
AcDbLine
 62
7
  6
CONTINUOUS
 10
15.4424255719
 20
7.8525907417
 11
15.4569249854
 21
7.9061485866
  0
LWPOLYLINE
  5
5D1
100
AcDbEntity
  8
02___PRT_ALL_AXES
100
AcDbPolyline
 62
7
  6
CONTINUOUS
 90
3
 70
0
 10
15.4424255719
 20
7.8103994258
 10
15.4569249854
 20
7.8639572707
 10
15.4588102194
 20
7.8917031971
  0
LINE
  5
5D2
100
AcDbEntity
  8
02___PRT_ALL_AXES
100
AcDbLine
 62
7
  6
CONTINUOUS
 10
15.4424255719
 20
7.804372095
 11
15.4569249854
 21
7.8579299399
  0
LWPOLYLINE
  5
5D3
100
AcDbEntity
  8
0
100
AcDbPolyline
 62
7
  6
CONTINUOUS
 90
14
 70
0
 10
15.4125170401
 20
7.7028806412
 10
15.398735827
 20
7.6657644455
 10
15.3676276345
 20
7.6176934002
 10
15.3242602706
 20
7.5728443266
 10
15.2698026204
 20
7.5327365646
 10
15.2060401672
 20
7.4985554896
 10
15.1347470135
 20
7.4709749089
 10
15.0576752079
 20
7.45042927
 10
14.9765747672
 20
7.4372128979
 10
14.8932230264
 20
7.4315126077
 10
14.8094694859
 20
7.4334057388
 10
14.7271163564
 20
7.4428513345
 10
14.6479522918
 20
7.4596992625
 10
14.5737182625
 20
7.4836961078
  0
LWPOLYLINE
  5
5D4
100
AcDbEntity
  8
02___PRT_ALL_AXES
100
AcDbPolyline
 62
7
  6
CONTINUOUS
 90
4
 70
0
 10
15.4139508553
 20
7.7105709865
 10
15.4424255719
 20
7.7621807792
 10
15.4569249854
 20
7.8157386241
 10
15.4588102194
 20
7.8434845504
  0
LINE
  5
5D5
100
AcDbEntity
  8
02___PRT_ALL_AXES
100
AcDbLine
 62
7
  6
CONTINUOUS
 10
14.2617312574
 20
8.3490526182
 11
14.1762277025
 21
8.3929831871
  0
LINE
  5
5D6
100
AcDbEntity
  8
02___PRT_ALL_AXES
100
AcDbLine
 62
7
  6
CONTINUOUS
 10
14.5772347671
 20
9.5225668234
 11
14.5873094902
 21
9.4948269474
  0
LINE
  5
5D7
100
AcDbEntity
  8
02___PRT_ALL_AXES
100
AcDbLine
 62
7
  6
CONTINUOUS
 10
15.4588102194
 20
7.8434845504
 11
15.4574104951
 21
7.8650754275
  0
LINE
  5
5D8
100
AcDbEntity
  8
02___PRT_ALL_AXES
100
AcDbLine
 62
7
  6
CONTINUOUS
 10
15.4588102194
 20
7.8917031971
 11
15.4574104951
 21
7.9132940741
  0
LINE
  5
5D9
100
AcDbEntity
  8
02___PRT_ALL_AXES
100
AcDbLine
 62
7
  6
CONTINUOUS
 10
15.4569249854
 20
7.9061485866
 11
15.4588102194
 21
7.9338945129
  0
LINE
  5
5DA
100
AcDbEntity
  8
02___PRT_ALL_AXES
100
AcDbLine
 62
7
  6
CONTINUOUS
 10
15.4569249854
 20
7.8579299399
 11
15.4588102194
 21
7.8856758662
  0
LWPOLYLINE
  5
5DB
100
AcDbEntity
  8
AXIS
100
AcDbPolyline
 62
7
  6
CONTINUOUS
 90
4
 70
0
 10
14.5842457443
 20
9.5076293242
 10
14.5960914084
 20
9.4843381894
 10
14.6135577666
 20
9.462257416
 10
14.6362892544
 20
9.4418365047
  0
LWPOLYLINE
  5
5DC
100
AcDbEntity
  8
02___PRT_ALL_AXES
100
AcDbPolyline
 62
7
  6
CONTINUOUS
 90
22
 70
0
 10
15.8564480147
 20
8.7947982991
 10
15.8502597037
 20
8.7311768349
 10
15.8317716748
 20
8.6683530816
 10
15.8012164255
 20
8.6071194502
 10
15.758978206
 20
8.5482459893
 10
15.7055881863
 20
8.4924730668
 10
15.6417177768
 20
8.4405020594
 10
15.5681701851
 20
8.3929865329
 10
15.4858703149
 20
8.3505240224
 10
15.3958531346
 20
8.3136485188
 10
15.2992506626
 20
8.2828237527
 10
15.197277731
 20
8.2584373637
 10
15.0912167086
 20
8.2407960247
 10
14.9824013743
 20
8.2301215856
 10
14.8722001441
 20
8.2265482839
 10
14.7619988623
 20
8.2301210559
 10
14.653183374
 20
8.2407949718
 10
14.5471220972
 20
8.2584358009
 10
14.4451488139
 20
8.2828216997
 10
14.3485458973
 20
8.3136460013
 10
14.2585281852
 20
8.3505210722
 10
14.1762277025
 20
8.3929831871
  0
LWPOLYLINE
  5
5DD
100
AcDbEntity
  8
AXIS
100
AcDbPolyline
 62
7
  6
CONTINUOUS
 90
7
 70
0
 10
14.8406275037
 20
5.2214749865
 10
14.8387245319
 20
5.2159515614
 10
14.8333052469
 20
5.2112689676
 10
14.8251946857
 20
5.2081401477
 10
14.8156276078
 20
5.2070414361
 10
14.8060605141
 20
5.2081401017
 10
14.7979499078
 20
5.2112688826
  0
LWPOLYLINE
  5
5DE
100
AcDbEntity
  8
AXIS
100
AcDbPolyline
 62
7
  6
CONTINUOUS
 90
7
 70
0
 10
14.8971962817
 20
5.1888157261
 10
14.8952933099
 20
5.183292301
 10
14.8898740249
 20
5.1786097072
 10
14.8817634637
 20
5.1754808873
 10
14.8721963858
 20
5.1743821757
 10
14.8626292921
 20
5.1754808413
 10
14.8545186858
 20
5.1786096223
  0
LWPOLYLINE
  5
5DF
100
AcDbEntity
  8
AXIS
100
AcDbPolyline
 62
7
  6
CONTINUOUS
 90
7
 70
0
 10
14.9537645887
 20
5.2214752584
 10
14.9518616169
 20
5.2159518333
 10
14.9464423318
 20
5.2112692396
 10
14.9383317707
 20
5.2081404196
 10
14.9287646928
 20
5.207041708
 10
14.9191975991
 20
5.2081403736
 10
14.9110869928
 20
5.2112691546
  0
LINE
  5
5E0
100
AcDbEntity
  8
02___PRT_ALL_AXES
100
AcDbLine
 62
7
  6
CONTINUOUS
 10
15.8564480147
 20
8.7947982991
 11
15.8564480147
 21
8.4090491257
  0
LWPOLYLINE
  5
5E1
100
AcDbEntity
  8
02___PRT_ALL_AXES
100
AcDbPolyline
 62
7
  6
CONTINUOUS
 90
21
 70
0
 10
15.8564456374
 20
8.794798299
 10
15.8560317462
 20
8.7782732721
 10
15.8460565206
 20
8.7124431088
 10
15.8229115028
 20
8.6477266581
 10
15.7869096893
 20
8.584999099
 10
15.738537943
 20
8.5251087142
 10
15.6784504087
 20
8.4688654184
 10
15.6074596673
 20
8.4170298057
 10
15.5265257468
 20
8.3703028638
 10
15.4367431395
 20
8.3293164945
 10
15.3393260013
 20
8.294624968
 10
15.2355917318
 20
8.2666974278
 10
15.126943159
 20
8.245911546
 10
15.0148495686
 20
8.2325484158
 10
14.900826834
 20
8.2267887509
 10
14.7864169171
 20
8.2287104406
 10
14.6731670158
 20
8.2382874975
 10
14.5626086406
 20
8.2553904083
 10
14.4562369041
 20
8.2797878855
 10
14.3554903013
 20
8.3111499951
 10
14.2617312574
 20
8.3490526182
  0
LWPOLYLINE
  5
5E2
100
AcDbEntity
  8
0
100
AcDbPolyline
 62
7
  6
CONTINUOUS
 90
7
 70
0
 10
15.8564480147
 20
8.4090491257
 10
15.8474154706
 20
8.3292512317
 10
15.8201103822
 20
8.2502473538
 10
15.7746583354
 20
8.1739061729
 10
15.7115081804
 20
8.1017359484
 10
15.6319919854
 20
8.0355682743
 10
15.5378847346
 20
7.9768300818
  0
LINE
  5
5E3
100
AcDbEntity
  8
02___PRT_ALL_AXES
100
AcDbLine
 62
7
  6
CONTINUOUS
 10
14.5873094902
 20
9.4948269474
 11
14.6051551758
 21
9.4684227816
  0
LWPOLYLINE
  5
5E4
100
AcDbEntity
  8
02___PRT_ALL_AXES
100
AcDbPolyline
 62
7
  6
CONTINUOUS
 90
3
 70
0
 10
14.6051551758
 20
9.4684227816
 10
14.6302850403
 20
9.4440745629
 10
14.6620136064
 20
9.4224464471
  0
LINE
  5
5E5
100
AcDbEntity
  8
AXIS
100
AcDbLine
 62
7
  6
CONTINUOUS
 10
14.6362892544
 20
9.4418365047
 11
14.6638231241
 21
9.4234911664
  0
LINE
  5
5E6
100
AcDbEntity
  8
02___PRT_ALL_AXES
100
AcDbLine
 62
7
  6
CONTINUOUS
 10
14.6625047009
 20
9.3771633688
 11
14.619936562
 21
9.3981533991
  0
LWPOLYLINE
  5
5E7
100
AcDbEntity
  8
AXIS
100
AcDbPolyline
 62
7
  6
CONTINUOUS
 90
12
 70
0
 10
14.6638231241
 20
9.4234911664
 10
14.6955988656
 20
9.4075948593
 10
14.7309696165
 20
9.3944711864
 10
14.7692153302
 20
9.3843873077
 10
14.8095574344
 20
9.3775485021
 10
14.85117468
 20
9.3740939879
 10
14.89321986
 20
9.374094089
 10
14.9348370558
 20
9.3775488033
 10
14.9751790613
 20
9.3843878028
 10
15.0134246296
 20
9.3944718653
 10
15.0487951911
 20
9.4075957082
 10
15.0805707034
 20
9.4234921681
  0
LWPOLYLINE
  5
5E8
100
AcDbEntity
  8
AXIS_COSMETIC_THREADS
100
AcDbPolyline
 62
7
  6
CONTINUOUS
 90
4
 70
0
 10
14.9545743292
 20
5.4188657997
 10
14.9420122827
 20
5.4125813355
 10
14.9280289789
 20
5.4073929903
 10
14.9129090776
 20
5.4034063839
  0
LWPOLYLINE
  5
5E9
100
AcDbEntity
  8
02___PRT_ALL_AXES
100
AcDbPolyline
 62
7
  6
CONTINUOUS
 90
11
 70
0
 10
15.1244555305
 20
9.6894358227
 10
15.1608122037
 20
9.6648596224
 10
15.1900621892
 20
9.6373023996
 10
15.2114852554
 20
9.6074427048
 10
15.2245538952
 20
9.5760157827
 10
15.2289463154
 20
9.5437954684
 10
15.2245543599
 20
9.511575133
 10
15.2114861734
 20
9.4801481481
 10
15.1900635378
 20
9.4502883503
 10
15.1608139497
 20
9.422730987
 10
15.124457631
 20
9.3981546119
  0
LWPOLYLINE
  5
5EA
100
AcDbEntity
  8
02___PRT_ALL_AXES
100
AcDbPolyline
 62
7
  6
CONTINUOUS
 90
6
 70
0
 10
15.082378486
 20
9.6651427748
 10
15.1141070521
 20
9.643514659
 10
15.1392369166
 20
9.6191664402
 10
15.1570826023
 20
9.5927622745
 10
15.1671573253
 20
9.5650223985
 10
15.1694372137
 20
9.5437946104
  0
LWPOLYLINE
  5
5EB
100
AcDbEntity
  8
02___PRT_ALL_AXES
100
AcDbPolyline
 62
7
  6
CONTINUOUS
 90
10
 70
0
 10
15.082378486
 20
9.6651427748
 10
15.0449166909
 20
9.683460829
 10
15.0027435268
 20
9.6979691528
 10
14.9570093677
 20
9.7082719971
 10
14.9089617224
 20
9.714088327
 10
14.8599112052
 20
9.7152594883
 10
14.8111957864
 20
9.7117535347
 10
14.7641442958
 20
9.7036660995
 10
14.7200401752
 20
9.6912177868
 10
14.6800864701
 20
9.6747481542
  0
LWPOLYLINE
  5
5EC
100
AcDbEntity
  8
02___PRT_ALL_AXES
100
AcDbPolyline
 62
7
  6
CONTINUOUS
 90
21
 70
0
 10
15.1244555305
 20
9.6894358227
 10
15.0818873916
 20
9.710425853
 10
15.0341559558
 20
9.7273128692
 10
14.9824365295
 20
9.7396810567
 10
14.9280026167
 20
9.7472258699
 10
14.8721945609
 20
9.7497615303
 10
14.8163865417
 20
9.7472256016
 10
14.7619527377
 20
9.7396805268
 10
14.7102334898
 20
9.7273120906
 10
14.6625022976
 20
9.710424845
 10
14.6199344615
 20
9.68943461
 10
14.5835781427
 20
9.6648582349
 10
14.5543285546
 20
9.6373008715
 10
14.5329059191
 20
9.6074410737
 10
14.5198377325
 20
9.5760140888
 10
14.5154457771
 20
9.5437937534
 10
14.5198381972
 20
9.5115734391
 10
14.532906837
 20
9.480146517
 10
14.5543299032
 20
9.4502868222
 10
14.5835798888
 20
9.4227295995
 10
14.619936562
 20
9.3981533991
  0
LINE
  5
5ED
100
AcDbEntity
  8
02___PRT_ALL_AXES
100
AcDbLine
 62
7
  6
CENTER
 10
2.1127898185
 20
5.7853326613
 11
2.1127898185
 21
4.7010806928
  0
LINE
  5
5EE
100
AcDbEntity
  8
02___PRT_ALL_AXES
100
AcDbLine
 62
7
  6
CENTER
 10
2.1127898185
 20
5.7853326613
 11
2.1127898185
 21
6.8695846298
  0
LINE
  5
5EF
100
AcDbEntity
  8
02___PRT_ALL_AXES
100
AcDbLine
 62
7
  6
CENTER
 10
2.1127898185
 20
5.7853326613
 11
1.02853785
 21
5.7853326613
  0
LINE
  5
5F0
100
AcDbEntity
  8
02___PRT_ALL_AXES
100
AcDbLine
 62
7
  6
CENTER
 10
2.1127898185
 20
5.7853326613
 11
3.1970417871
 21
5.7853326613
  0
CIRCLE
  5
5F1
100
AcDbEntity
  8
0
100
AcDbCircle
 62
7
  6
CONTINUOUS
 10
10.5342808475
 20
1.243294839
 40
0.252091
  0
CIRCLE
  5
5F2
100
AcDbEntity
  8
0
100
AcDbCircle
 62
7
  6
CONTINUOUS
 10
10.5342808475
 20
1.243294839
 40
0.182698
  0
CIRCLE
  5
5F3
100
AcDbEntity
  8
0
100
AcDbCircle
 62
7
  6
CONTINUOUS
 10
10.1225539079
 20
1.9935547577
 40
0.0638444824
  0
CIRCLE
  5
5F4
100
AcDbEntity
  8
02___PRT_ALL_AXES
100
AcDbCircle
 62
7
  6
CONTINUOUS
 10
2.1127898185
 20
5.7853326613
 40
0.9842519685
  0
CIRCLE
  5
5F5
100
AcDbEntity
  8
02___PRT_ALL_AXES
100
AcDbCircle
 62
7
  6
CONTINUOUS
 10
2.1127898185
 20
5.7853326613
 40
0.3567502692
  0
CIRCLE
  5
5F6
100
AcDbEntity
  8
02___PRT_ALL_AXES
100
AcDbCircle
 62
7
  6
CONTINUOUS
 10
2.1127898185
 20
5.7853326613
 40
0.2972440945
  0
CIRCLE
  5
5F7
100
AcDbEntity
  8
AXIS
100
AcDbCircle
 62
7
  6
CONTINUOUS
 10
2.1127898185
 20
5.7853326613
 40
0.2946850394
  0
CIRCLE
  5
5F8
100
AcDbEntity
  8
DATUM_CURVES
100
AcDbCircle
 62
7
  6
CONTINUOUS
 10
2.1127898185
 20
5.7853326613
 40
0.2687007874
  0
ARC
  5
5F9
100
AcDbEntity
  8
02___PRT_ALL_AXES
100
AcDbCircle
 62
7
  6
CONTINUOUS
 10
5.1996241323
 20
5.7853326613
 40
0.9842519685
100
AcDbArc
 50
90.0
 51
158.7487560243
  0
ARC
  5
5FA
100
AcDbEntity
  8
02___PRT_ALL_AXES
100
AcDbCircle
 62
7
  6
CONTINUOUS
 10
5.1996241323
 20
5.7853326613
 40
0.9842519685
100
AcDbArc
 50
201.2512439757
 51
270.0
  0
ARC
  5
5FB
100
AcDbEntity
  8
0
100
AcDbCircle
 62
7
  6
CONTINUOUS
 10
6.5504231303
 20
6.1477145511
 40
0.1181102362
100
AcDbArc
 50
258.1896179912
 51
270.0
  0
ARC
  5
5FC
100
AcDbEntity
  8
0
100
AcDbCircle
 62
7
  6
CONTINUOUS
 10
6.5504231303
 20
5.4229507715
 40
0.1181102362
100
AcDbArc
 50
90.0
 51
101.8103820088
  0
ARC
  5
5FD
100
AcDbEntity
  8
0
100
AcDbCircle
 62
7
  6
CONTINUOUS
 10
6.459466652
 20
5.2833641574
 40
0.0393700787
100
AcDbArc
 50
270.0
 51
360.0
  0
ARC
  5
5FE
100
AcDbEntity
  8
0
100
AcDbCircle
 62
7
  6
CONTINUOUS
 10
6.459466652
 20
6.2873011652
 40
0.0393700787
100
AcDbArc
 50
0.0
 51
90.0
  0
ARC
  5
5FF
100
AcDbEntity
  8
0
100
AcDbCircle
 62
7
  6
CONTINUOUS
 10
5.6720650772
 20
4.8404507715
 40
0.0393700787
100
AcDbArc
 50
270.0
 51
360.0
  0
ARC
  5
600
100
AcDbEntity
  8
0
100
AcDbCircle
 62
7
  6
CONTINUOUS
 10
5.6720650772
 20
6.7302145511
 40
0.0393700787
100
AcDbArc
 50
0.0
 51
90.0
  0
ARC
  5
601
100
AcDbEntity
  8
0
100
AcDbCircle
 62
7
  6
CONTINUOUS
 10
5.7508052347
 20
6.3660413227
 40
0.0393700787
100
AcDbArc
 50
182.1855293686
 51
270.0
  0
ARC
  5
602
100
AcDbEntity
  8
0
100
AcDbCircle
 62
7
  6
CONTINUOUS
 10
5.7508052347
 20
5.2046239999
 40
0.0393700787
100
AcDbArc
 50
90.0
 51
177.8144706295
  0
ARC
  5
603
100
AcDbEntity
  8
0
100
AcDbCircle
 62
7
  6
CONTINUOUS
 10
11.583520099
 20
5.2833641574
 40
0.078740153
100
AcDbArc
 50
258.7452873818
 51
270.0
  0
ARC
  5
604
100
AcDbEntity
  8
0
100
AcDbCircle
 62
7
  6
CONTINUOUS
 10
11.583520099
 20
5.2833641574
 40
0.0393700787
100
AcDbArc
 50
258.7452873818
 51
270.0
  0
ARC
  5
605
100
AcDbEntity
  8
0
100
AcDbCircle
 62
7
  6
CONTINUOUS
 10
11.3540170527
 20
5.7262775432
 40
0.0354330709
100
AcDbArc
 50
190.1642486217
 51
10.1642486217
  0
CIRCLE
  5
606
100
AcDbEntity
  8
AXIS
100
AcDbCircle
 62
7
  6
CONTINUOUS
 10
11.643410764
 20
5.7453326613
 40
0.025
  0
ARC
  5
607
100
AcDbEntity
  8
0
100
AcDbCircle
 62
7
  6
CONTINUOUS
 10
11.583520099
 20
6.2873011652
 40
0.078740153
100
AcDbArc
 50
90.0
 51
101.2547126182
  0
ARC
  5
608
100
AcDbEntity
  8
0
100
AcDbCircle
 62
7
  6
CONTINUOUS
 10
11.583520099
 20
6.2873011652
 40
0.0393700787
100
AcDbArc
 50
90.0
 51
101.2547126182
  0
ARC
  5
609
100
AcDbEntity
  8
0
100
AcDbCircle
 62
7
  6
CONTINUOUS
 10
11.3540170527
 20
5.8443877794
 40
0.0354330709
100
AcDbArc
 50
349.8357513783
 51
169.8357513783
  0
CIRCLE
  5
60A
100
AcDbEntity
  8
AXIS
100
AcDbCircle
 62
7
  6
CONTINUOUS
 10
11.643410764
 20
5.8253326613
 40
0.025
  0
ARC
  5
60B
100
AcDbEntity
  8
0
100
AcDbCircle
 62
7
  6
CONTINUOUS
 10
11.5845828477
 20
5.8841605776
 40
0.0236220472
100
AcDbArc
 50
225.0
 51
45.0
  0
ARC
  5
60C
100
AcDbEntity
  8
0
100
AcDbCircle
 62
7
  6
CONTINUOUS
 10
11.5849855671
 20
5.7853326613
 40
0.0196850394
100
AcDbArc
 50
153.1954434165
 51
206.804569921
  0
ARC
  5
60D
100
AcDbEntity
  8
0
100
AcDbCircle
 62
7
  6
CONTINUOUS
 10
11.783301429
 20
5.2833641574
 40
0.078740153
100
AcDbArc
 50
270.0
 51
281.2547126182
  0
ARC
  5
60E
100
AcDbEntity
  8
0
100
AcDbCircle
 62
7
  6
CONTINUOUS
 10
11.783301429
 20
5.2833641574
 40
0.0393700787
100
AcDbArc
 50
270.0
 51
281.2547126182
  0
ARC
  5
60F
100
AcDbEntity
  8
0
100
AcDbCircle
 62
7
  6
CONTINUOUS
 10
12.0128044752
 20
5.7262775432
 40
0.0354330709
100
AcDbArc
 50
169.8357513783
 51
349.8357513783
  0
CIRCLE
  5
610
100
AcDbEntity
  8
AXIS
100
AcDbCircle
 62
7
  6
CONTINUOUS
 10
11.723410764
 20
5.7453326613
 40
0.025
  0
ARC
  5
611
100
AcDbEntity
  8
0
100
AcDbCircle
 62
7
  6
CONTINUOUS
 10
11.683410764
 20
5.6869074644
 40
0.0196850394
100
AcDbArc
 50
242.2526352575
 51
297.7475324768
  0
ARC
  5
612
100
AcDbEntity
  8
02___PRT_ALL_AXES
100
AcDbCircle
 62
7
  6
CONTINUOUS
 10
11.683410764
 20
5.7853326613
 40
0.9842519685
100
AcDbArc
 50
96.1106712295
 51
263.8913550294
  0
ARC
  5
613
100
AcDbEntity
  8
02___PRT_ALL_AXES
100
AcDbCircle
 62
7
  6
CONTINUOUS
 10
11.683410764
 20
5.7853326613
 40
0.9842519685
100
AcDbArc
 50
276.1106712295
 51
83.8913550294
  0
CIRCLE
  5
614
100
AcDbEntity
  8
0
100
AcDbCircle
 62
7
  6
CONTINUOUS
 10
11.683410764
 20
5.7853326613
 40
0.9842519685
  0
CIRCLE
  5
615
100
AcDbEntity
  8
0
100
AcDbCircle
 62
7
  6
CONTINUOUS
 10
11.683410764
 20
5.7853326613
 40
0.9448818805
  0
ARC
  5
616
100
AcDbEntity
  8
0
100
AcDbCircle
 62
7
  6
CONTINUOUS
 10
11.683410764
 20
5.7853326613
 40
0.5905511149
100
AcDbArc
 50
101.2547126182
 51
258.7452873818
  0
ARC
  5
617
100
AcDbEntity
  8
0
100
AcDbCircle
 62
7
  6
CONTINUOUS
 10
11.683410764
 20
5.7853326613
 40
0.5905511149
100
AcDbArc
 50
281.2547126182
 51
78.7452873818
  0
ARC
  5
618
100
AcDbEntity
  8
0
100
AcDbCircle
 62
7
  6
CONTINUOUS
 10
11.683410764
 20
5.7853326613
 40
0.5511811024
100
AcDbArc
 50
101.2547126182
 51
258.7452873818
  0
ARC
  5
619
100
AcDbEntity
  8
0
100
AcDbCircle
 62
7
  6
CONTINUOUS
 10
11.683410764
 20
5.7853326613
 40
0.5511811024
100
AcDbArc
 50
281.2547126182
 51
78.7452873818
  0
ARC
  5
61A
100
AcDbEntity
  8
0
100
AcDbCircle
 62
7
  6
CONTINUOUS
 10
11.683410764
 20
5.7853326613
 40
0.5118109897
100
AcDbArc
 50
101.2547126182
 51
258.7452873818
  0
ARC
  5
61B
100
AcDbEntity
  8
0
100
AcDbCircle
 62
7
  6
CONTINUOUS
 10
11.683410764
 20
5.7853326613
 40
0.5118109897
100
AcDbArc
 50
281.2547126182
 51
78.7452873818
  0
CIRCLE
  5
61C
100
AcDbEntity
  8
0
100
AcDbCircle
 62
7
  6
CONTINUOUS
 10
11.683410764
 20
5.7853326613
 40
0.374015748
  0
ARC
  5
61D
100
AcDbEntity
  8
02___PRT_ALL_AXES
100
AcDbCircle
 62
7
  6
CONTINUOUS
 10
11.683410764
 20
5.7853326613
 40
0.3700787402
100
AcDbArc
 50
349.8357513783
 51
10.1642486217
  0
ARC
  5
61E
100
AcDbEntity
  8
02___PRT_ALL_AXES
100
AcDbCircle
 62
7
  6
CONTINUOUS
 10
11.683410764
 20
5.7853326613
 40
0.3700787402
100
AcDbArc
 50
169.8357513783
 51
190.1642486217
  0
ARC
  5
61F
100
AcDbEntity
  8
0
100
AcDbCircle
 62
7
  6
CONTINUOUS
 10
11.683410764
 20
5.7853326613
 40
0.3369638694
100
AcDbArc
 50
343.8576571712
 51
16.1423428288
  0
ARC
  5
620
100
AcDbEntity
  8
0
100
AcDbCircle
 62
7
  6
CONTINUOUS
 10
11.683410764
 20
5.7853326613
 40
0.3369638694
100
AcDbArc
 50
163.8576571712
 51
196.1423428288
  0
ARC
  5
621
100
AcDbEntity
  8
0
100
AcDbCircle
 62
7
  6
CONTINUOUS
 10
11.683410764
 20
5.7853326613
 40
0.323840597
100
AcDbArc
 50
164.0139876827
 51
195.9860122996
  0
ARC
  5
622
100
AcDbEntity
  8
0
100
AcDbCircle
 62
7
  6
CONTINUOUS
 10
11.683410764
 20
5.7853326613
 40
0.3238405969
100
AcDbArc
 50
344.0139881539
 51
15.9860124472
  0
ARC
  5
623
100
AcDbEntity
  8
0
100
AcDbCircle
 62
7
  6
CONTINUOUS
 10
11.683410764
 20
5.7853326613
 40
0.3051181102
100
AcDbArc
 50
193.6751727363
 51
346.3247435443
  0
ARC
  5
624
100
AcDbEntity
  8
0
100
AcDbCircle
 62
7
  6
CONTINUOUS
 10
11.683410764
 20
5.7853326613
 40
0.3051181102
100
AcDbArc
 50
13.675172742
 51
166.3247435506
  0
ARC
  5
625
100
AcDbEntity
  8
0
100
AcDbCircle
 62
7
  6
CONTINUOUS
 10
11.683410764
 20
5.7853326613
 40
0.2992125984
100
AcDbArc
 50
349.8357513783
 51
10.1642486217
  0
ARC
  5
626
100
AcDbEntity
  8
0
100
AcDbCircle
 62
7
  6
CONTINUOUS
 10
11.683410764
 20
5.7853326613
 40
0.2992125984
100
AcDbArc
 50
169.8357513783
 51
190.1642486217
  0
CIRCLE
  5
627
100
AcDbEntity
  8
0
100
AcDbCircle
 62
7
  6
CONTINUOUS
 10
11.683410764
 20
5.7853326613
 40
0.29
  0
CIRCLE
  5
628
100
AcDbEntity
  8
0
100
AcDbCircle
 62
7
  6
CONTINUOUS
 10
11.683410764
 20
5.7853326613
 40
0.2467720097
  0
ARC
  5
629
100
AcDbEntity
  8
0
100
AcDbCircle
 62
7
  6
CONTINUOUS
 10
11.683410764
 20
5.7853326613
 40
0.2442716535
100
AcDbArc
 50
342.3466585695
 51
342.0004821661
  0
CIRCLE
  5
62A
100
AcDbEntity
  8
0
100
AcDbCircle
 62
7
  6
CONTINUOUS
 10
11.683410764
 20
5.7853326613
 40
0.2088385907
  0
CIRCLE
  5
62B
100
AcDbEntity
  8
0
100
AcDbCircle
 62
7
  6
CONTINUOUS
 10
11.683410764
 20
5.7853326613
 40
0.2037401575
  0
ARC
  5
62C
100
AcDbEntity
  8
AXIS_COSMETIC_THREADS
100
AcDbCircle
 62
7
  6
CONTINUOUS
 10
11.683410764
 20
5.7853326613
 40
0.1633858268
100
AcDbArc
 50
143.312861012
 51
126.687138988
  0
CIRCLE
  5
62D
100
AcDbEntity
  8
AXIS_COSMETIC_THREADS
100
AcDbCircle
 62
7
  6
CONTINUOUS
 10
11.683410764
 20
5.7853326613
 40
0.1165
  0
CIRCLE
  5
62E
100
AcDbEntity
  8
AXIS
100
AcDbCircle
 62
7
  6
CONTINUOUS
 10
11.723410764
 20
5.8253326613
 40
0.025
  0
ARC
  5
62F
100
AcDbEntity
  8
0
100
AcDbCircle
 62
7
  6
CONTINUOUS
 10
11.683410764
 20
5.8837578581
 40
0.0196850394
100
AcDbArc
 50
62.2526352575
 51
117.7475324768
  0
ARC
  5
630
100
AcDbEntity
  8
0
100
AcDbCircle
 62
7
  6
CONTINUOUS
 10
11.7818359608
 20
5.7853326613
 40
0.0196850394
100
AcDbArc
 50
333.1954434165
 51
26.804569921
  0
ARC
  5
631
100
AcDbEntity
  8
0
100
AcDbCircle
 62
7
  6
CONTINUOUS
 10
11.783301429
 20
6.2873011652
 40
0.078740153
100
AcDbArc
 50
78.7452873818
 51
90.0
  0
ARC
  5
632
100
AcDbEntity
  8
0
100
AcDbCircle
 62
7
  6
CONTINUOUS
 10
11.783301429
 20
6.2873011652
 40
0.0393700787
100
AcDbArc
 50
78.7452873818
 51
90.0
  0
ARC
  5
633
100
AcDbEntity
  8
0
100
AcDbCircle
 62
7
  6
CONTINUOUS
 10
12.0128044752
 20
5.8443877794
 40
0.0354330709
100
AcDbArc
 50
10.1642486217
 51
190.1642486217
  0
ARC
  5
634
100
AcDbEntity
  8
02___PRT_ALL_AXES
100
AcDbCircle
 62
7
  6
CONTINUOUS
 10
14.8721960462
 20
8.7947982991
 40
0.9842519685
100
AcDbArc
 50
0.0
 51
180.0
  0
ARC
  5
635
100
AcDbEntity
  8
0
100
AcDbCircle
 62
7
  6
CONTINUOUS
 10
14.5878858516
 20
7.520428689
 40
0.0393700787
100
AcDbArc
 50
239.9996589803
 51
248.9092151947
  0
ARC
  5
636
100
AcDbEntity
  8
0
100
AcDbCircle
 62
7
  6
CONTINUOUS
 10
14.4466185302
 20
7.6019875699
 40
0.0393700787
100
AcDbArc
 50
229.1648992219
 51
240.0017900531
  0
ENDSEC
  0
SECTION
  2
OBJECTS
  0
DICTIONARY
  5
C
100
AcDbDictionary
280
0
281
1
  3
ACAD_GROUP
350
D
  3
ACAD_MLINESTYLE
350
17
  3
ACAD_LAYOUT
350
1A
  3
ACAD_PLOTSETTINGS
350
19
  3
ACAD_PLOTSTYLENAME
350
E
  3
ACAD_TABLESTYLE
350
       637
  0
DICTIONARY
  5
D
102
{ACAD_REACTORS
330
C
102
}
100
AcDbDictionary
280
0
281
1
  0
ACDBDICTIONARYWDFLT
  5
E
102
{ACAD_REACTORS
330
C
102
}
100
AcDbDictionary
281
1
  3
Normal
350
F
100
AcDbDictionaryWithDefault
340
F
  0
DICTIONARY
  5
17
102
{ACAD_REACTORS
330
C
102
}
100
AcDbDictionary
280
0
281
1
  3
Standard
350
18
  0
DICTIONARY
  5
637
330
C
100
AcDbDictionary
281
1
  3
Standard
350
       63A
  3
Standard1
350
       63B
  0
DICTIONARY
  5
19
102
{ACAD_REACTORS
330
C
102
}
100
AcDbDictionary
281
1
  0
DICTIONARY
  5
1A
102
{ACAD_REACTORS
330
C
102
}
100
AcDbDictionary
281
1
  3
Model
350
638
  3
Layout1
350
639
  0
ACDBPLACEHOLDER
  5
F
102
{ACAD_REACTORS
330
E
102
}
  0
MLINESTYLE
  5
18
102
{ACAD_REACTORS
330
17
102
}
100
AcDbMlineStyle
  2
STANDARD
 70
0
  3

 62
256
 51
90.0
 52
90.0
 71
2
 49
0.5
 62
256
  6
BYLAYER
 49
-0.5
 62
256
  6
BYLAYER
  0
LAYOUT
  5
638
102
{ACAD_REACTORS
330
1A
102
}
100
AcDbPlotSettings
  1

  2
none_device
  4
ANSI_B_(17.00_x_11.00_Inches)
  6

 40
0.0
 41
0.0
 42
0.0
 43
0.0
 44
431.8
 45
279.4
 46
0.0
 47
0.0
 48
0.0
 49
0.0
140
0.0
141
0.0
142
1.0
143
1.0
 70
1024
 72
0
 73
0
 74
0
  7

 75
0
147
1.0
148
0.0
149
0.0
100
AcDbLayout
  1
Model
 70
0
 71
0
 10
0.0
 20
0.0
 11
17.0
 21
11.0
 12
0.0
 22
0.0
 32
0.0
 14
0.0
 24
0.0
 34
0.0
 15
0.0
 25
0.0
 35
0.0
146
0.0
 13
0.0
 23
0.0
 33
0.0
 16
1.0
 26
0.0
 36
0.0
 17
0.0
 27
1.0
 37
0.0
 76
0
330
223
345
0
346
0
  0
LAYOUT
  5
639
102
{ACAD_REACTORS
330
1A
102
}
100
AcDbPlotSettings
  1

  2
none_device
  4
ANSI_B_(17.00_x_11.00_Inches)
  6

 40
0.0
 41
0.0
 42
0.0
 43
0.0
 44
431.8
 45
279.4
 46
0.0
 47
0.0
 48
0.0
 49
0.0
140
0.0
141
0.0
142
1.0
143
1.0
 70
0
 72
0
 73
0
 74
0
  7

 75
0
147
1.0
148
0.0
149
0.0
100
AcDbLayout
  1
Layout1
 70
0
 71
1
 10
0.0
 20
0.0
 11
17.0
 21
11.0
 12
0.0
 22
0.0
 32
0.0
 14
0.0
 24
0.0
 34
0.0
 15
0.0
 25
0.0
 35
0.0
146
0.0
 13
0.0
 23
0.0
 33
0.0
 16
1.0
 26
0.0
 36
0.0
 17
0.0
 27
1.0
 37
0.0
 76
0
330
224
345
0
346
0
  0
TABLESTYLE
  5
63A
102
{ACAD_REACTORS
330
637
102
}
330
637
100
AcDbTableStyle
  3
Standard
 70
0
 71
0
 40
0.06
 41
0.06
280
1
281
1
  7
Standard
140
0.18
170
1
 62
0
 63
7
283
0
  7
Standard
140
0.18
170
1
 62
0
 63
7
283
0
  7
Standard
140
0.18
170
1
 62
0
 63
7
283
0
  0
TABLESTYLE
  5
63B
102
{ACAD_REACTORS
330
637
330
27C
102
}
330
637
100
AcDbTableStyle
  3
Standard1
 70
1
 71
0
 40
0.06
 41
0.06
280
1
281
1
  7
Standard
140
0.18
170
1
 62
0
 63
7
283
0
  7
Standard
140
0.18
170
1
 62
0
 63
7
283
0
  7
Standard
140
0.18
170
1
 62
0
 63
7
283
0
  0
ENDSEC
  0
EOF
