999
DXF file: 216289_1.dxf
999
Pro/ENGINEER 2019292 by Parametric Technology Corporation
  0
SECTION
  2
HEADER
  9
$ACADVER
  1
AC1027
  9
$DWGCODEPAGE
  3
ANSI_1252
  9
$EXTMAX
 10
34.0
 20
22.0
 30
0.0
  9
$EXTMIN
 10
0.0
 20
0.0
 30
0.0
  9
$LIMMIN
 10
0.0
 20
0.0
  9
$LIMMAX
 10
34.0
 20
22.0
  9
$VIEWCTR
 10
17.0
 20
11.0
  9
$VIEWSIZE
 40
22.0
  9
$CLAYER
  8
0
  9
$LTSCALE
 40
1.87
  9
$CELTYPE
  6
BYLAYER
  9
$DIMSCALE
 40
1.0
  9
$DIMASZ
 40
0.1875
  9
$DIMEXO
 40
0.0625
  9
$DIMDLI
 40
1.292
  9
$DIMEXE
 40
0.125
  9
$DIMCEN
 40
0.306
  9
$DIMLFAC
 40
1.0
  9
$DIMBLK
  1
_FILLED
  9
$DIMALT
 70
1
  9
$DIMALTD
 70
2
  9
$DIMALTTD
 70
2
  9
$DIMALTF
 40
25.4
  9
$DIMTXT
 40
0.1
  9
$DIMTOL
 70
1
  9
$DIMLIM
 70
0
  9
$DIMTFAC
 40
1.0
  9
$DIMTP
 40
0.005
  9
$DIMTM
 40
0.005
  9
$DIMGAP
 40
0.09
  9
$DIMDSEP
 70
46
  9
$AUNITS
 70
0
  9
$PDMODE
 70
3
  9
$PDSIZE
 40
0.3125
  9
$HANDSEED
  5
70D
  9
$TILEMODE
 70
1
  9
$MEASUREMENT
 70
0
  9
$INSUNITS
 70
1
  0
ENDSEC
  0
SECTION
  2
CLASSES
  0
CLASS
  1
ACDBDICTIONARYWDFLT
  2
AcDbDictionaryWithDefault
  3
AutoCAD 2000
 90
0
 91
1
280
0
281
0
  0
CLASS
  1
ACDBPLACEHOLDER
  2
AcDbPlaceHolder
  3
AutoCAD 2000
 90
0
 91
1
280
0
281
0
  0
CLASS
  1
LAYOUT
  2
AcDbLayout
  3
AutoCAD 2000
 90
0
 91
0
280
0
281
0
  0
CLASS
  1
TABLESTYLE
  2
AcDbTableStyle
  3
ObjectDBX Classes
 90
2047
 91
1
280
0
281
0
  0
CLASS
  1
ACAD_TABLE
  2
AcDbTable
  3
ObjectDBX Classes
 90
1025
 91
1
280
0
281
1
  0
ENDSEC
  0
SECTION
  2
TABLES
  0
TABLE
  2
VPORT
  5
8
100
AcDbSymbolTable
 70
2
  0
VPORT
  5
1F4
100
AcDbSymbolTableRecord
100
AcDbViewportTableRecord
  2
*ACTIVE
 70
0
 10
0.0
 20
0.0
 11
1.0
 21
1.0
 12
17.0
 22
11.0
 13
0.0
 23
0.0
 14
1.0
 24
1.0
 15
0.0
 25
0.0
 16
0.0
 26
0.0
 36
1.0
 17
0.0
 27
0.0
 37
0.0
 40
22.0
 41
1.5454545455
 42
50.0
 43
0.0
 44
0.0
 50
0.0
 51
0.0
 71
0
 72
100
 73
1
 74
1
 75
0
 76
0
 77
0
 78
0
  0
ENDTAB
  0
TABLE
  2
LTYPE
  5
5
100
AcDbSymbolTable
 70
6
  0
LTYPE
  5
14
100
AcDbSymbolTableRecord
100
AcDbLinetypeTableRecord
  2
BYBLOCK
 70
0
  3

 72
65
 73
0
 40
0.0
  0
LTYPE
  5
15
100
AcDbSymbolTableRecord
100
AcDbLinetypeTableRecord
  2
BYLAYER
 70
0
  3

 72
65
 73
0
 40
0.0
  0
LTYPE
  5
16
100
AcDbSymbolTableRecord
100
AcDbLinetypeTableRecord
  2
CONTINUOUS
 70
64
  3
Solid line
 72
65
 73
0
 40
0.0
  0
LTYPE
  5
1F5
100
AcDbSymbolTableRecord
100
AcDbLinetypeTableRecord
  2
CENTER
 70
64
  3
____ _ ____ _ ____ _ ____ _ ____ _ ____ _ ____
 72
65
 73
4
 40
0.6
 49
0.375
 74
0
 49
-0.075
 74
0
 49
0.075
 74
0
 49
-0.075
 74
0
  0
LTYPE
  5
1F6
100
AcDbSymbolTableRecord
100
AcDbLinetypeTableRecord
  2
HIDDEN
 70
64
  3
- - - - - - - - - - - - - - - - - - - -
 72
65
 73
2
 40
0.2
 49
0.1
 74
0
 49
-0.1
 74
0
  0
LTYPE
  5
1F7
100
AcDbSymbolTableRecord
100
AcDbLinetypeTableRecord
  2
PHANTOM
 70
64
  3
_____ _ _ _____ _ _ _____ _ _ _____
 72
65
 73
6
 40
0.8
 49
0.45
 74
0
 49
-0.05
 74
0
 49
0.1
 74
0
 49
-0.05
 74
0
 49
0.1
 74
0
 49
-0.05
 74
0
  0
LTYPE
  5
1F8
100
AcDbSymbolTableRecord
100
AcDbLinetypeTableRecord
  2
DOT
 70
64
  3
. . . . . . . . . . . . . . . . . . . .
 72
65
 73
2
 40
0.2
 49
0.1
 74
0
 49
-0.1
 74
0
  0
LTYPE
  5
1F9
100
AcDbSymbolTableRecord
100
AcDbLinetypeTableRecord
  2
DASHED
 70
64
  3
- - - - - - - - - - - - - - - - - - - -
 72
65
 73
2
 40
0.2
 49
0.1
 74
0
 49
-0.1
 74
0
  0
ENDTAB
  0
TABLE
  2
LAYER
  5
2
100
AcDbSymbolTable
 70
36
  0
LAYER
  5
10
100
AcDbSymbolTableRecord
100
AcDbLayerTableRecord
  2
0
 70
0
 62
7
  6
CONTINUOUS
370
-3
390
F
  0
LAYER
  5
1FA
100
AcDbSymbolTableRecord
100
AcDbLayerTableRecord
  2
DEFAULT_1
 70
0
 62
7
  6
CENTER
370
-3
390
F
  0
LAYER
  5
1FB
100
AcDbSymbolTableRecord
100
AcDbLayerTableRecord
  2
DEFAULT_2
 70
0
 62
7
  6
HIDDEN
370
-3
390
F
  0
LAYER
  5
1FC
100
AcDbSymbolTableRecord
100
AcDbLayerTableRecord
  2
DEFAULT_3
 70
0
 62
7
  6
PHANTOM
370
-3
390
F
  0
LAYER
  5
1FD
100
AcDbSymbolTableRecord
100
AcDbLayerTableRecord
  2
01_ALL_DTM_PLN
 70
0
 62
7
  6
CONTINUOUS
370
-3
390
F
  0
LAYER
  5
1FE
100
AcDbSymbolTableRecord
100
AcDbLayerTableRecord
  2
01__ASM_ALL_DTM_PLN
 70
0
 62
7
  6
CONTINUOUS
370
-3
390
F
  0
LAYER
  5
1FF
100
AcDbSymbolTableRecord
100
AcDbLayerTableRecord
  2
01__ASM_DEF_DTM_PLN
 70
0
 62
7
  6
CONTINUOUS
370
-3
390
F
  0
LAYER
  5
200
100
AcDbSymbolTableRecord
100
AcDbLayerTableRecord
  2
01___PRT_ALL_DTM_PLN
 70
0
 62
7
  6
CONTINUOUS
370
-3
390
F
  0
LAYER
  5
201
100
AcDbSymbolTableRecord
100
AcDbLayerTableRecord
  2
01___PRT_DEF_DTM_PLN
 70
0
 62
7
  6
CONTINUOUS
370
-3
390
F
  0
LAYER
  5
202
100
AcDbSymbolTableRecord
100
AcDbLayerTableRecord
  2
02_ALL_AXES
 70
0
 62
7
  6
CONTINUOUS
370
-3
390
F
  0
LAYER
  5
203
100
AcDbSymbolTableRecord
100
AcDbLayerTableRecord
  2
02__ASM_ALL_AXES
 70
0
 62
7
  6
CONTINUOUS
370
-3
390
F
  0
LAYER
  5
204
100
AcDbSymbolTableRecord
100
AcDbLayerTableRecord
  2
02___PRT_ALL_AXES
 70
0
 62
7
  6
CONTINUOUS
370
-3
390
F
  0
LAYER
  5
205
100
AcDbSymbolTableRecord
100
AcDbLayerTableRecord
  2
03_ALL_CURVES
 70
0
 62
7
  6
CONTINUOUS
370
-3
390
F
  0
LAYER
  5
206
100
AcDbSymbolTableRecord
100
AcDbLayerTableRecord
  2
03__ASM_ALL_CURVES
 70
0
 62
7
  6
CONTINUOUS
370
-3
390
F
  0
LAYER
  5
207
100
AcDbSymbolTableRecord
100
AcDbLayerTableRecord
  2
03___PRT_ALL_CURVES
 70
0
 62
7
  6
CONTINUOUS
370
-3
390
F
  0
LAYER
  5
208
100
AcDbSymbolTableRecord
100
AcDbLayerTableRecord
  2
04_ALL_DTM_PNT
 70
0
 62
7
  6
CONTINUOUS
370
-3
390
F
  0
LAYER
  5
209
100
AcDbSymbolTableRecord
100
AcDbLayerTableRecord
  2
04__ASM_ALL_DTM_PNT
 70
0
 62
7
  6
CONTINUOUS
370
-3
390
F
  0
LAYER
  5
20A
100
AcDbSymbolTableRecord
100
AcDbLayerTableRecord
  2
04___PRT_ALL_DTM_PNT
 70
0
 62
7
  6
CONTINUOUS
370
-3
390
F
  0
LAYER
  5
20B
100
AcDbSymbolTableRecord
100
AcDbLayerTableRecord
  2
05_ALL_DTM_CSYS
 70
0
 62
7
  6
CONTINUOUS
370
-3
390
F
  0
LAYER
  5
20C
100
AcDbSymbolTableRecord
100
AcDbLayerTableRecord
  2
05__ASM_ALL_DTM_CSYS
 70
0
 62
7
  6
CONTINUOUS
370
-3
390
F
  0
LAYER
  5
20D
100
AcDbSymbolTableRecord
100
AcDbLayerTableRecord
  2
05__ASM_DEF_DTM_CSYS
 70
0
 62
7
  6
CONTINUOUS
370
-3
390
F
  0
LAYER
  5
20E
100
AcDbSymbolTableRecord
100
AcDbLayerTableRecord
  2
05___PRT_ALL_DTM_CSYS
 70
0
 62
7
  6
CONTINUOUS
370
-3
390
F
  0
LAYER
  5
20F
100
AcDbSymbolTableRecord
100
AcDbLayerTableRecord
  2
05___PRT_DEF_DTM_CSYS
 70
0
 62
7
  6
CONTINUOUS
370
-3
390
F
  0
LAYER
  5
210
100
AcDbSymbolTableRecord
100
AcDbLayerTableRecord
  2
06_ALL_SURFS
 70
0
 62
7
  6
CONTINUOUS
370
-3
390
F
  0
LAYER
  5
211
100
AcDbSymbolTableRecord
100
AcDbLayerTableRecord
  2
06__ASM_ALL_SURFS
 70
0
 62
7
  6
CONTINUOUS
370
-3
390
F
  0
LAYER
  5
212
100
AcDbSymbolTableRecord
100
AcDbLayerTableRecord
  2
06___PRT_ALL_SURFS
 70
0
 62
7
  6
CONTINUOUS
370
-3
390
F
  0
LAYER
  5
213
100
AcDbSymbolTableRecord
100
AcDbLayerTableRecord
  2
07__ASM_ALL_SKELETONS
 70
0
 62
7
  6
CONTINUOUS
370
-3
390
F
  0
LAYER
  5
214
100
AcDbSymbolTableRecord
100
AcDbLayerTableRecord
  2
AXIS
 70
0
 62
7
  6
CONTINUOUS
370
-3
390
F
  0
LAYER
  5
215
100
AcDbSymbolTableRecord
100
AcDbLayerTableRecord
  2
AXIS_COSMETIC_THREADS
 70
0
 62
7
  6
CONTINUOUS
370
-3
390
F
  0
LAYER
  5
216
100
AcDbSymbolTableRecord
100
AcDbLayerTableRecord
  2
BEZUGSACHSEN
 70
0
 62
7
  6
CONTINUOUS
370
-3
390
F
  0
LAYER
  5
217
100
AcDbSymbolTableRecord
100
AcDbLayerTableRecord
  2
CURVES
 70
0
 62
7
  6
CONTINUOUS
370
-3
390
F
  0
LAYER
  5
218
100
AcDbSymbolTableRecord
100
AcDbLayerTableRecord
  2
DATUM_CURVES
 70
0
 62
7
  6
CONTINUOUS
370
-3
390
F
  0
LAYER
  5
219
100
AcDbSymbolTableRecord
100
AcDbLayerTableRecord
  2
DATUM_PLANES
 70
0
 62
7
  6
CONTINUOUS
370
-3
390
F
  0
LAYER
  5
21A
100
AcDbSymbolTableRecord
100
AcDbLayerTableRecord
  2
DEF_CSY
 70
0
 62
7
  6
CONTINUOUS
370
-3
390
F
  0
LAYER
  5
21B
100
AcDbSymbolTableRecord
100
AcDbLayerTableRecord
  2
GEOMETRIC_TOLERANCES
 70
0
 62
7
  6
CONTINUOUS
370
-3
390
F
  0
LAYER
  5
21C
100
AcDbSymbolTableRecord
100
AcDbLayerTableRecord
  2
GEOMTOL
 70
0
 62
7
  6
CONTINUOUS
370
-3
390
F
  0
LAYER
  5
21D
100
AcDbSymbolTableRecord
100
AcDbLayerTableRecord
  2
NONE
 70
0
 62
7
  6
CONTINUOUS
370
-3
390
F
  0
LAYER
  5
21E
100
AcDbSymbolTableRecord
100
AcDbLayerTableRecord
  2
NOTES
 70
0
 62
7
  6
CONTINUOUS
370
-3
390
F
  0
LAYER
  5
21F
100
AcDbSymbolTableRecord
100
AcDbLayerTableRecord
  2
PNTS
 70
0
 62
7
  6
CONTINUOUS
370
-3
390
F
  0
LAYER
  5
220
100
AcDbSymbolTableRecord
100
AcDbLayerTableRecord
  2
QUILTS
 70
0
 62
7
  6
CONTINUOUS
370
-3
390
F
  0
LAYER
  5
221
100
AcDbSymbolTableRecord
100
AcDbLayerTableRecord
  2
SCHEME_DIMS
 70
0
 62
7
  6
CONTINUOUS
370
-3
390
F
  0
LAYER
  5
222
100
AcDbSymbolTableRecord
100
AcDbLayerTableRecord
  2
SURFACES
 70
0
 62
7
  6
CONTINUOUS
370
-3
390
F
  0
LAYER
  5
223
100
AcDbSymbolTableRecord
100
AcDbLayerTableRecord
  2
SYMBOLS
 70
0
 62
7
  6
CONTINUOUS
370
-3
390
F
  0
ENDTAB
  0
TABLE
  2
STYLE
  5
3
100
AcDbSymbolTable
 70
1
  0
STYLE
  5
11
100
AcDbSymbolTableRecord
100
AcDbTextStyleTableRecord
  2
STANDARD
 70
0
 40
0.0
 41
1.0
 50
0.0
 71
0
 42
0.2
  3
txt
  4

  0
STYLE
  5
224
100
AcDbSymbolTableRecord
100
AcDbTextStyleTableRecord
  2
TEXTSTYLE_1
 70
0
 40
0.0
 41
0.8
 50
0.0
 71
0
 42
0.2
  3
gdt
  4

  0
STYLE
  5
225
100
AcDbSymbolTableRecord
100
AcDbTextStyleTableRecord
  2
TEXTSTYLE_2
 70
0
 40
0.0
 41
0.8
 50
0.0
 71
0
 42
0.2
  3
txt
  4

  0
STYLE
  5
226
100
AcDbSymbolTableRecord
100
AcDbTextStyleTableRecord
  2
TEXTSTYLE_3
 70
0
 40
0.0
 41
0.9
 50
0.0
 71
0
 42
0.2
  3
txt
  4

  0
STYLE
  5
227
100
AcDbSymbolTableRecord
100
AcDbTextStyleTableRecord
  2
TEXTSTYLE_4
 70
0
 40
0.0
 41
0.85
 50
0.0
 71
0
 42
0.2
  3
txt
  4

  0
STYLE
  5
228
100
AcDbSymbolTableRecord
100
AcDbTextStyleTableRecord
  2
TEXTSTYLE_5
 70
0
 40
0.0
 41
0.75
 50
0.0
 71
0
 42
0.2
  3
txt
  4

  0
STYLE
  5
229
100
AcDbSymbolTableRecord
100
AcDbTextStyleTableRecord
  2
TEXTSTYLE_6
 70
0
 40
0.0
 41
1.0
 50
0.0
 71
0
 42
0.2
  3
gdt
  4

  0
ENDTAB
  0
TABLE
  2
VIEW
  5
6
100
AcDbSymbolTable
 70
0
  0
ENDTAB
  0
TABLE
  2
UCS
  5
7
100
AcDbSymbolTable
 70
0
  0
ENDTAB
  0
TABLE
  2
APPID
  5
9
100
AcDbSymbolTable
 70
1
  0
APPID
  5
22A
100
AcDbSymbolTableRecord
100
AcDbRegAppTableRecord
  2
ACAD
 70
0
  0
ENDTAB
  0
TABLE
  2
BLOCK_RECORD
  5
1
100
AcDbSymbolTable
 70
0
  0
BLOCK_RECORD
  5
22B
100
AcDbSymbolTableRecord
100
AcDbBlockTableRecord
  2
*Model_Space
  0
BLOCK_RECORD
  5
22C
100
AcDbSymbolTableRecord
100
AcDbBlockTableRecord
  2
*Paper_Space
  0
BLOCK_RECORD
  5
22D
100
AcDbSymbolTableRecord
100
AcDbBlockTableRecord
  2
_FILLED
  0
BLOCK_RECORD
  5
22E
100
AcDbSymbolTableRecord
100
AcDbBlockTableRecord
  2
*D0
  0
BLOCK_RECORD
  5
22F
100
AcDbSymbolTableRecord
100
AcDbBlockTableRecord
  2
*D1
  0
BLOCK_RECORD
  5
230
100
AcDbSymbolTableRecord
100
AcDbBlockTableRecord
  2
*D2
  0
BLOCK_RECORD
  5
231
100
AcDbSymbolTableRecord
100
AcDbBlockTableRecord
  2
*D3
  0
BLOCK_RECORD
  5
232
100
AcDbSymbolTableRecord
100
AcDbBlockTableRecord
  2
*T1
  0
ENDTAB
  0
TABLE
  2
DIMSTYLE
  5
A
100
AcDbSymbolTable
 70
1
100
AcDbDimStyleTable
 71
0
  0
DIMSTYLE
105
233
100
AcDbSymbolTableRecord
100
AcDbDimStyleTableRecord
  2
STANDARD
 70
0
  3

  4

 40
1.0
 41
0.1875
 42
0.0625
 43
0.38
 44
0.125
 45
0.0
 46
0.0
 47
0.005
 48
0.005
140
0.1
141
0.09
142
0.0
143
1.0
144
1.0
145
0.0
146
1.0
147
0.09
 71
1.0
 72
0.0
 73
1
 74
1
 75
0
 76
0
 77
0
 78
0
 79
0
170
1
171
2
172
0
173
0
174
0
175
0
176
0
177
0
178
0
270
2
179
3
271
3
272
3
273
2
274
2
275
0
280
0
281
0
282
0
283
1
284
0
285
0
286
0
287
3
288
0
340
11
278
46
341
22D
342
22D
343
22D
344
22D
  0
DIMSTYLE
105
234
100
AcDbSymbolTableRecord
100
AcDbDimStyleTableRecord
  2
DIMSTYLE_1
 70
0
  3
<>
  4

 40
1.0
 41
0.1875
 42
0.0625
 43
0.38
 44
0.125
 45
0.0
 46
0.0
 47
0.1
 48
0.1
140
0.1
141
0.09
142
0.0
143
1.0
144
1.0
145
0.0
146
1.0
147
0.09
 71
0.0
 72
0.0
 73
1
 74
1
 75
0
 76
0
 77
0
 78
0
 79
0
170
1
171
2
172
0
173
0
174
0
175
0
176
0
177
0
178
0
270
2
179
3
271
1
272
3
273
2
274
4
275
0
280
0
281
0
282
0
283
1
284
0
285
0
286
0
287
3
288
1
340
11
278
46
289
1
341
22D
342
22D
343
22D
344
22D
  0
DIMSTYLE
105
235
100
AcDbSymbolTableRecord
100
AcDbDimStyleTableRecord
  2
DIMSTYLE_2
 70
0
  3

  4

 40
1.0
 41
0.1875
 42
0.0625
 43
0.38
 44
0.125
 45
0.0
 46
0.0
 47
0.1
 48
0.1
140
0.1
141
0.09
142
0.0
143
1.0
144
1.0
145
0.0
146
1.0
147
0.1
 71
0.0
 72
0.0
 73
1
 74
1
 75
0
 76
0
 77
0
 78
0
 79
0
170
1
171
2
172
0
173
0
174
0
175
0
176
0
177
0
178
0
270
2
179
3
271
1
272
3
273
2
274
4
275
0
280
0
281
0
282
0
283
1
284
0
285
0
286
0
287
3
288
0
340
11
278
46
341
22D
342
22D
343
22D
344
22D
  0
ENDTAB
  0
ENDSEC
  0
SECTION
  2
BLOCKS
  0
BLOCK
  5
20
100
AcDbEntity
  8
0
100
AcDbBlockBegin
  2
*Model_Space
 70
0
 10
0.0
 20
0.0
 30
0.0
  3
*Model_Space
  1

  0
ENDBLK
  5
21
100
AcDbEntity
  8
0
100
AcDbBlockEnd
  0
BLOCK
  5
1C
100
AcDbEntity
  8
0
100
AcDbBlockBegin
  2
*Paper_Space
 70
0
 10
0.0
 20
0.0
 30
0.0
  3
*Paper_Space
  1

  0
ENDBLK
  5
1D
100
AcDbEntity
  8
0
100
AcDbBlockEnd
  0
BLOCK
  5
236
100
AcDbEntity
  8
0
100
AcDbBlockBegin
  2
_FILLED
 70
64
 10
0.0
 20
0.0
  3
_FILLED
  1

  0
SOLID
  5
237
100
AcDbEntity
  8
0
  6
BYBLOCK
 62
0
100
AcDbTrace
 10
0.0
 20
0.0
 11
-1.0
 21
0.1666666667
 12
-1.0
 22
-0.1666666667
 13
-1.0
 23
-0.1666666667
  0
ENDBLK
  5
238
100
AcDbEntity
  8
0
  6
BYBLOCK
 62
0
100
AcDbBlockEnd
  0
BLOCK
  5
239
100
AcDbEntity
  8
SCHEME_DIMS
100
AcDbBlockBegin
 62
7
  6
CONTINUOUS
  2
*D0
 70
65
 10
0.0
 20
0.0
  3
*D0
  1

  0
MTEXT
  5
23A
100
AcDbEntity
  8
SCHEME_DIMS
100
AcDbMText
 62
7
  6
CONTINUOUS
  7
TEXTSTYLE_6
 71
1
 72
1
 10
32.2682087377
 20
7.6303967024
 30
0.0
 11
1.0
 21
0.0
 31
0.0
 73
2
 44
0.9
  1
{\fgdt;n}\ftxt;68.5\P[2.7]
 40
0.1
 41
0.5333333333
  0
LINE
  5
23B
100
AcDbEntity
  8
SCHEME_DIMS
100
AcDbLine
 62
7
  6
CONTINUOUS
 10
31.8430042297
 20
7.8780532353
 11
32.0182087377
 21
7.5803967024
  0
LINE
  5
23C
100
AcDbEntity
  8
SCHEME_DIMS
100
AcDbLine
 62
7
  6
CONTINUOUS
 10
32.0182087377
 20
7.5803967024
 11
32.1682087377
 21
7.5803967024
  0
INSERT
  5
23D
100
AcDbEntity
  8
SCHEME_DIMS
100
AcDbBlockReference
 62
7
  6
CONTINUOUS
  2
_FILLED
 10
31.8430042297
 20
7.8780532353
 41
0.1875
 42
0.1875
 43
0.1875
 50
120.4816204544
  0
ENDBLK
  5
23E
100
AcDbEntity
  8
0
  6
BYBLOCK
 62
0
100
AcDbBlockEnd
  0
BLOCK
  5
23F
100
AcDbEntity
  8
SCHEME_DIMS
100
AcDbBlockBegin
 62
7
  6
CONTINUOUS
  2
*D1
 70
65
 10
0.0
 20
0.0
  3
*D1
  1

  0
MTEXT
  5
240
100
AcDbEntity
  8
SCHEME_DIMS
100
AcDbMText
 62
7
  6
CONTINUOUS
  7
STANDARD
 71
2
 72
1
 10
15.4535179655
 20
7.0891943125
 30
0.0
 11
1.0
 21
0.0
 31
0.0
 73
2
 44
0.9
  1
667.6\P[26.28]
 40
0.1
 41
0.7
  0
LINE
  5
241
100
AcDbEntity
  8
SCHEME_DIMS
100
AcDbLine
 62
7
  6
CONTINUOUS
 10
28.695250249
 20
7.5689133496
 11
28.695250249
 21
6.9141943125
  0
LINE
  5
242
100
AcDbEntity
  8
SCHEME_DIMS
100
AcDbLine
 62
7
  6
CONTINUOUS
 10
2.4117856821
 20
7.6352884552
 11
2.4117856821
 21
6.9141943125
  0
LINE
  5
243
100
AcDbEntity
  8
SCHEME_DIMS
100
AcDbLine
 62
7
  6
CONTINUOUS
 10
28.695250249
 20
7.0391943125
 11
16.0035179655
 21
7.0391943125
  0
LINE
  5
244
100
AcDbEntity
  8
SCHEME_DIMS
100
AcDbLine
 62
7
  6
CONTINUOUS
 10
2.4117856821
 20
7.0391943125
 11
15.1035179655
 21
7.0391943125
  0
INSERT
  5
245
100
AcDbEntity
  8
SCHEME_DIMS
100
AcDbBlockReference
 62
7
  6
CONTINUOUS
  2
_FILLED
 10
28.695250249
 20
7.0391943125
 41
0.1875
 42
0.1875
 43
0.1875
  0
INSERT
  5
246
100
AcDbEntity
  8
SCHEME_DIMS
100
AcDbBlockReference
 62
7
  6
CONTINUOUS
  2
_FILLED
 10
2.4117856821
 20
7.0391943125
 41
0.1875
 42
0.1875
 43
0.1875
 50
180.0
  0
ENDBLK
  5
247
100
AcDbEntity
  8
0
  6
BYBLOCK
 62
0
100
AcDbBlockEnd
  0
BLOCK
  5
248
100
AcDbEntity
  8
SCHEME_DIMS
100
AcDbBlockBegin
 62
7
  6
CONTINUOUS
  2
*D2
 70
65
 10
0.0
 20
0.0
  3
*D2
  1

  0
MTEXT
  5
249
100
AcDbEntity
  8
SCHEME_DIMS
100
AcDbMText
 62
7
  6
CONTINUOUS
  7
STANDARD
 71
2
 72
1
 10
12.9628403239
 20
11.0542242543
 30
0.0
 11
1.0
 21
0.0
 31
0.0
 73
2
 44
0.9
  1
600.0\P[23.62]
 40
0.1
 41
0.7
  0
LINE
  5
24A
100
AcDbEntity
  8
SCHEME_DIMS
100
AcDbLine
 62
7
  6
CONTINUOUS
 10
27.3724156033
 20
9.6946230569
 11
27.3724156033
 21
11.1292242543
  0
LINE
  5
24B
100
AcDbEntity
  8
SCHEME_DIMS
100
AcDbLine
 62
7
  6
CONTINUOUS
 10
3.7503683592
 20
9.6946230569
 11
3.7503683592
 21
11.1292242543
  0
LINE
  5
24C
100
AcDbEntity
  8
SCHEME_DIMS
100
AcDbLine
 62
7
  6
CONTINUOUS
 10
27.3724156033
 20
11.0042242543
 11
13.5128403239
 21
11.0042242543
  0
LINE
  5
24D
100
AcDbEntity
  8
SCHEME_DIMS
100
AcDbLine
 62
7
  6
CONTINUOUS
 10
3.7503683592
 20
11.0042242543
 11
12.6128403239
 21
11.0042242543
  0
INSERT
  5
24E
100
AcDbEntity
  8
SCHEME_DIMS
100
AcDbBlockReference
 62
7
  6
CONTINUOUS
  2
_FILLED
 10
27.3724156033
 20
11.0042242543
 41
0.1875
 42
0.1875
 43
0.1875
  0
INSERT
  5
24F
100
AcDbEntity
  8
SCHEME_DIMS
100
AcDbBlockReference
 62
7
  6
CONTINUOUS
  2
_FILLED
 10
3.7503683592
 20
11.0042242543
 41
0.1875
 42
0.1875
 43
0.1875
 50
180.0
  0
ENDBLK
  5
250
100
AcDbEntity
  8
0
  6
BYBLOCK
 62
0
100
AcDbBlockEnd
  0
BLOCK
  5
251
100
AcDbEntity
  8
SCHEME_DIMS
100
AcDbBlockBegin
 62
7
  6
CONTINUOUS
  2
*D3
 70
65
 10
0.0
 20
0.0
  3
*D3
  1

  0
MTEXT
  5
252
100
AcDbEntity
  8
SCHEME_DIMS
100
AcDbMText
 62
7
  6
CONTINUOUS
  7
STANDARD
 71
2
 72
1
 10
17.1700070872
 20
11.759091598
 30
0.0
 11
1.0
 21
0.0
 31
0.0
 73
2
 44
0.9
  1
688.9\P[27.12]
 40
0.1
 41
0.7
  0
LINE
  5
253
100
AcDbEntity
  8
SCHEME_DIMS
100
AcDbLine
 62
7
  6
CONTINUOUS
 10
1.5751715088
 20
9.3063553404
 11
1.5751715088
 21
11.834091598
  0
LINE
  5
254
100
AcDbEntity
  8
SCHEME_DIMS
100
AcDbLine
 62
7
  6
CONTINUOUS
 10
28.695250249
 20
10.3723002223
 11
28.695250249
 21
11.834091598
  0
LINE
  5
255
100
AcDbEntity
  8
SCHEME_DIMS
100
AcDbLine
 62
7
  6
CONTINUOUS
 10
1.5751715088
 20
11.709091598
 11
16.8200070872
 21
11.709091598
  0
LINE
  5
256
100
AcDbEntity
  8
SCHEME_DIMS
100
AcDbLine
 62
7
  6
CONTINUOUS
 10
28.695250249
 20
11.709091598
 11
17.7200070872
 21
11.709091598
  0
INSERT
  5
257
100
AcDbEntity
  8
SCHEME_DIMS
100
AcDbBlockReference
 62
7
  6
CONTINUOUS
  2
_FILLED
 10
1.5751715088
 20
11.709091598
 41
0.1875
 42
0.1875
 43
0.1875
 50
180.0
  0
INSERT
  5
258
100
AcDbEntity
  8
SCHEME_DIMS
100
AcDbBlockReference
 62
7
  6
CONTINUOUS
  2
_FILLED
 10
28.695250249
 20
11.709091598
 41
0.1875
 42
0.1875
 43
0.1875
  0
ENDBLK
  5
259
100
AcDbEntity
  8
0
  6
BYBLOCK
 62
0
100
AcDbBlockEnd
  0
BLOCK
  5
25A
100
AcDbEntity
  8
0
100
AcDbBlockBegin
  2
*T1
 70
1
 10
0.0
 20
0.0
  3
*T1
  1

  0
LINE
  5
25B
100
AcDbEntity
  8
0
100
AcDbLine
 62
7
  6
CONTINUOUS
 10
4.35
 20
0.0
 11
-0.0
 21
0.0
  0
LINE
  5
25C
100
AcDbEntity
  8
0
100
AcDbLine
 62
7
  6
CONTINUOUS
 10
4.35
 20
0.0
 11
4.35
 21
1.92
  0
LINE
  5
25D
100
AcDbEntity
  8
0
100
AcDbLine
 62
7
  6
CONTINUOUS
 10
4.35
 20
1.92
 11
-0.0
 21
1.92
  0
LINE
  5
25E
100
AcDbEntity
  8
0
100
AcDbLine
 62
7
  6
CONTINUOUS
 10
-0.0
 20
0.0
 11
-0.0
 21
1.92
  0
MTEXT
  5
25F
100
AcDbEntity
  8
NOTES
100
AcDbMText
 62
7
  6
CONTINUOUS
  7
STANDARD
 71
2
 72
1
 10
4.125
 20
0.48
 30
0.0
 11
1.0
 21
0.0
 31
0.0
 73
2
 44
0.9
  1
A
 40
0.1
 41
0.2
  0
MTEXT
  5
260
100
AcDbEntity
  8
NOTES
100
AcDbMText
 62
7
  6
CONTINUOUS
  7
STANDARD
 71
2
 72
1
 10
2.175
 20
1.08
 30
0.0
 11
1.0
 21
0.0
 31
0.0
 73
2
 44
0.9
  1
WLS70X_600DPWMQ\P 
 40
0.1
 41
3.0
  0
ENDBLK
  5
261
100
AcDbEntity
  8
0
  6
BYBLOCK
 62
0
100
AcDbBlockEnd
  0
ENDSEC
  0
SECTION
  2
ENTITIES
  0
MTEXT
  5
262
100
AcDbEntity
  8
0
100
AcDbMText
 62
7
  6
CONTINUOUS
  7
TEXTSTYLE_2
 71
2
 72
1
 10
28.0199216922
 20
1.6190619563
 30
0.0
 11
1.0
 21
0.0
 31
0.0
 73
2
 44
0.9
  1
\LTHIRD ANGLE PROJECTION\l
 40
0.1
 41
1.76
  0
MTEXT
  5
263
100
AcDbEntity
  8
0
100
AcDbMText
 62
7
  6
CONTINUOUS
  7
STANDARD
 71
1
 72
1
 10
29.8524539446
 20
1.273495704
 30
0.0
 11
1.0
 21
0.0
 31
0.0
 73
2
 44
0.9
  1
DRAWING NO.
 40
0.08
 41
0.88
  0
MTEXT
  5
264
100
AcDbEntity
  8
0
100
AcDbMText
 62
7
  6
CONTINUOUS
  7
TEXTSTYLE_2
 71
1
 72
1
 10
29.0524539446
 20
2.033495704
 30
0.0
 11
1.0
 21
0.0
 31
0.0
 73
2
 44
0.9
  1
TITLE
 40
0.1
 41
0.4
  0
MTEXT
  5
265
100
AcDbEntity
  8
0
100
AcDbMText
 62
7
  6
CONTINUOUS
  7
STANDARD
 71
1
 72
1
 10
29.0524539446
 20
1.273495704
 30
0.0
 11
1.0
 21
0.0
 31
0.0
 73
2
 44
0.9
  1
SIZE
 40
0.08
 41
0.32
  0
MTEXT
  5
266
100
AcDbEntity
  8
0
100
AcDbMText
 62
7
  6
CONTINUOUS
  7
STANDARD
 71
1
 72
1
 10
29.0524539446
 20
0.903495704
 30
0.0
 11
1.0
 21
0.0
 31
0.0
 73
2
 44
0.9
  1
SCALE
 40
0.08
 41
0.4
  0
MTEXT
  5
267
100
AcDbEntity
  8
0
100
AcDbMText
 62
7
  6
CONTINUOUS
  7
TEXTSTYLE_2
 71
2
 72
1
 10
29.4724539446
 20
1.153495704
 30
0.0
 11
1.0
 21
0.0
 31
0.0
 73
2
 44
0.9
  1
D
 40
0.1
 41
0.08
  0
MTEXT
  5
268
100
AcDbEntity
  8
0
100
AcDbMText
 62
7
  6
CONTINUOUS
  7
STANDARD
 71
1
 72
1
 10
31.2274539446
 20
0.903495704
 30
0.0
 11
1.0
 21
0.0
 31
0.0
 73
2
 44
0.9
  1
SHEET
 40
0.08
 41
0.4
  0
MTEXT
  5
269
100
AcDbEntity
  8
0
100
AcDbMText
 62
7
  6
CONTINUOUS
  7
STANDARD
 71
1
 72
1
 10
32.6024539446
 20
1.273495704
 30
0.0
 11
1.0
 21
0.0
 31
0.0
 73
2
 44
0.9
  1
REV.
 40
0.08
 41
0.32
  0
MTEXT
  5
26A
100
AcDbEntity
  8
0
100
AcDbMText
 62
7
  6
CONTINUOUS
  7
STANDARD
 71
3
 72
1
 10
33.3524539446
 20
0.651938704
 30
0.0
 11
1.0
 21
0.0
 31
0.0
 73
2
 44
0.9
  1
CREO
 40
0.07
 41
0.28
  0
MTEXT
  5
26B
100
AcDbEntity
  8
0
100
AcDbMText
 62
7
  6
CONTINUOUS
  7
TEXTSTYLE_2
 71
2
 72
1
 10
19.0799181027
 20
21.5283228612
 30
0.0
 11
1.0
 21
0.0
 31
0.0
 73
2
 44
0.9
  1
4
 40
0.1
 41
0.08
  0
MTEXT
  5
26C
100
AcDbEntity
  8
0
100
AcDbMText
 62
7
  6
CONTINUOUS
  7
TEXTSTYLE_2
 71
2
 72
1
 10
19.0880840042
 20
0.6094254072
 30
0.0
 11
1.0
 21
0.0
 31
0.0
 73
2
 44
0.9
  1
4
 40
0.1
 41
0.08
  0
MTEXT
  5
26D
100
AcDbEntity
  8
0
100
AcDbMText
 62
7
  6
CONTINUOUS
  7
TEXTSTYLE_2
 71
3
 72
1
 10
0.6480386617
 20
8.5035017283
 30
0.0
 11
1.0
 21
0.0
 31
0.0
 73
2
 44
0.9
  1
B
 40
0.1
 41
0.08
  0
MTEXT
  5
26E
100
AcDbEntity
  8
0
100
AcDbMText
 62
7
  6
CONTINUOUS
  7
TEXTSTYLE_2
 71
1
 72
1
 10
33.4429590822
 20
8.5003665936
 30
0.0
 11
1.0
 21
0.0
 31
0.0
 73
2
 44
0.9
  1
B
 40
0.1
 41
0.08
  0
MTEXT
  5
26F
100
AcDbEntity
  8
0
100
AcDbMText
 62
7
  6
CONTINUOUS
  7
TEXTSTYLE_2
 71
3
 72
1
 10
0.6595840023
 20
3.3488782467
 30
0.0
 11
1.0
 21
0.0
 31
0.0
 73
2
 44
0.9
  1
A
 40
0.1
 41
0.08
  0
MTEXT
  5
270
100
AcDbEntity
  8
0
100
AcDbMText
 62
7
  6
CONTINUOUS
  7
TEXTSTYLE_2
 71
1
 72
1
 10
33.4700184742
 20
3.315436593
 30
0.0
 11
1.0
 21
0.0
 31
0.0
 73
2
 44
0.9
  1
A
 40
0.1
 41
0.08
  0
MTEXT
  5
271
100
AcDbEntity
  8
0
100
AcDbMText
 62
7
  6
CONTINUOUS
  7
TEXTSTYLE_2
 71
3
 72
1
 10
0.6364933212
 20
18.8127486917
 30
0.0
 11
1.0
 21
0.0
 31
0.0
 73
2
 44
0.9
  1
D
 40
0.1
 41
0.08
  0
MTEXT
  5
272
100
AcDbEntity
  8
0
100
AcDbMText
 62
7
  6
CONTINUOUS
  7
TEXTSTYLE_2
 71
1
 72
1
 10
33.4736263931
 20
18.8106959326
 30
0.0
 11
1.0
 21
0.0
 31
0.0
 73
2
 44
0.9
  1
D
 40
0.1
 41
0.08
  0
MTEXT
  5
273
100
AcDbEntity
  8
0
100
AcDbMText
 62
7
  6
CONTINUOUS
  7
TEXTSTYLE_2
 71
3
 72
1
 10
0.6191753104
 20
13.6638978803
 30
0.0
 11
1.0
 21
0.0
 31
0.0
 73
2
 44
0.9
  1
C
 40
0.1
 41
0.08
  0
MTEXT
  5
274
100
AcDbEntity
  8
0
100
AcDbMText
 62
7
  6
CONTINUOUS
  7
TEXTSTYLE_2
 71
1
 72
1
 10
33.453782839
 20
13.6528253239
 30
0.0
 11
1.0
 21
0.0
 31
0.0
 73
2
 44
0.9
  1
C
 40
0.1
 41
0.08
  0
MTEXT
  5
275
100
AcDbEntity
  8
0
100
AcDbMText
 62
7
  6
CONTINUOUS
  7
TEXTSTYLE_2
 71
2
 72
1
 10
23.1665713531
 20
0.6088852669
 30
0.0
 11
1.0
 21
0.0
 31
0.0
 73
2
 44
0.9
  1
3
 40
0.1
 41
0.08
  0
MTEXT
  5
276
100
AcDbEntity
  8
0
100
AcDbMText
 62
7
  6
CONTINUOUS
  7
TEXTSTYLE_2
 71
2
 72
1
 10
23.1589893446
 20
21.5290464197
 30
0.0
 11
1.0
 21
0.0
 31
0.0
 73
2
 44
0.9
  1
3
 40
0.1
 41
0.08
  0
MTEXT
  5
277
100
AcDbEntity
  8
0
100
AcDbMText
 62
7
  6
CONTINUOUS
  7
TEXTSTYLE_2
 71
2
 72
1
 10
27.2361235997
 20
21.5290464197
 30
0.0
 11
1.0
 21
0.0
 31
0.0
 73
2
 44
0.9
  1
2
 40
0.1
 41
0.08
  0
MTEXT
  5
278
100
AcDbEntity
  8
0
100
AcDbMText
 62
7
  6
CONTINUOUS
  7
TEXTSTYLE_2
 71
2
 72
1
 10
27.2374923476
 20
0.6094254072
 30
0.0
 11
1.0
 21
0.0
 31
0.0
 73
2
 44
0.9
  1
2
 40
0.1
 41
0.08
  0
MTEXT
  5
279
100
AcDbEntity
  8
0
100
AcDbMText
 62
7
  6
CONTINUOUS
  7
TEXTSTYLE_2
 71
2
 72
1
 10
31.3205521496
 20
0.6089620551
 30
0.0
 11
1.0
 21
0.0
 31
0.0
 73
2
 44
0.9
  1
1
 40
0.1
 41
0.08
  0
MTEXT
  5
27A
100
AcDbEntity
  8
0
100
AcDbMText
 62
7
  6
CONTINUOUS
  7
TEXTSTYLE_2
 71
2
 72
1
 10
31.3123769947
 20
21.5290464197
 30
0.0
 11
1.0
 21
0.0
 31
0.0
 73
2
 44
0.9
  1
1
 40
0.1
 41
0.08
  0
MTEXT
  5
27B
100
AcDbEntity
  8
0
100
AcDbMText
 62
7
  6
CONTINUOUS
  7
TEXTSTYLE_2
 71
2
 72
1
 10
2.7773437197
 20
0.6087916636
 30
0.0
 11
1.0
 21
0.0
 31
0.0
 73
2
 44
0.9
  1
8
 40
0.1
 41
0.08
  0
MTEXT
  5
27C
100
AcDbEntity
  8
0
100
AcDbMText
 62
7
  6
CONTINUOUS
  7
TEXTSTYLE_2
 71
2
 72
1
 10
6.8552201462
 20
0.60942077
 30
0.0
 11
1.0
 21
0.0
 31
0.0
 73
2
 44
0.9
  1
7
 40
0.1
 41
0.08
  0
MTEXT
  5
27D
100
AcDbEntity
  8
0
100
AcDbMText
 62
7
  6
CONTINUOUS
  7
TEXTSTYLE_2
 71
2
 72
1
 10
10.9328507889
 20
0.6085710197
 30
0.0
 11
1.0
 21
0.0
 31
0.0
 73
2
 44
0.9
  1
6
 40
0.1
 41
0.08
  0
MTEXT
  5
27E
100
AcDbEntity
  8
0
100
AcDbMText
 62
7
  6
CONTINUOUS
  7
TEXTSTYLE_2
 71
2
 72
1
 10
15.0081998089
 20
0.6094254072
 30
0.0
 11
1.0
 21
0.0
 31
0.0
 73
2
 44
0.9
  1
5
 40
0.1
 41
0.08
  0
MTEXT
  5
27F
100
AcDbEntity
  8
0
100
AcDbMText
 62
7
  6
CONTINUOUS
  7
TEXTSTYLE_2
 71
2
 72
1
 10
15.0005223841
 20
21.5287831767
 30
0.0
 11
1.0
 21
0.0
 31
0.0
 73
2
 44
0.9
  1
5
 40
0.1
 41
0.08
  0
MTEXT
  5
280
100
AcDbEntity
  8
0
100
AcDbMText
 62
7
  6
CONTINUOUS
  7
TEXTSTYLE_2
 71
2
 72
1
 10
10.9235957613
 20
21.5293152857
 30
0.0
 11
1.0
 21
0.0
 31
0.0
 73
2
 44
0.9
  1
6
 40
0.1
 41
0.08
  0
MTEXT
  5
281
100
AcDbEntity
  8
0
100
AcDbMText
 62
7
  6
CONTINUOUS
  7
TEXTSTYLE_2
 71
2
 72
1
 10
6.8472012476
 20
21.5293152857
 30
0.0
 11
1.0
 21
0.0
 31
0.0
 73
2
 44
0.9
  1
7
 40
0.1
 41
0.08
  0
MTEXT
  5
282
100
AcDbEntity
  8
0
100
AcDbMText
 62
7
  6
CONTINUOUS
  7
TEXTSTYLE_2
 71
2
 72
1
 10
2.7707198944
 20
21.5289567604
 30
0.0
 11
1.0
 21
0.0
 31
0.0
 73
2
 44
0.9
  1
8
 40
0.1
 41
0.08
  0
MTEXT
  5
283
100
AcDbEntity
  8
0
100
AcDbMText
 62
7
  6
CONTINUOUS
  7
STANDARD
 71
1
 72
1
 10
29.5773663078
 20
0.8719064971
 30
0.0
 11
1.0
 21
0.0
 31
0.0
 73
2
 44
0.9
  1
1:1
 40
0.1
 41
0.3
  0
MTEXT
  5
284
100
AcDbEntity
  8
0
100
AcDbMText
 62
7
  6
CONTINUOUS
  7
STANDARD
 71
1
 72
1
 10
31.7523663078
 20
0.8719064971
 30
0.0
 11
1.0
 21
0.0
 31
0.0
 73
2
 44
0.9
  1
1 OF 1
 40
0.1
 41
0.6
  0
MTEXT
  5
285
100
AcDbEntity
  8
0
100
AcDbMText
 62
7
  6
CONTINUOUS
  7
STANDARD
 71
1
 72
1
 10
30.7305616821
 20
1.1832781328
 30
0.0
 11
1.0
 21
0.0
 31
0.0
 73
2
 44
0.9
  1
216289
 40
0.12
 41
0.72
  0
MTEXT
  5
286
100
AcDbEntity
  8
0
100
AcDbMText
 62
7
  6
CONTINUOUS
  7
STANDARD
 71
1
 72
1
 10
1.0462021158
 20
1.4062672766
 30
0.0
 11
1.0
 21
0.0
 31
0.0
 73
2
 44
0.9
  1
NOTES:\P1. ALL DIMENSIONS ARE MILLIMETERS [INCHES] UNLESS OTHERWISE NOTED.\P2. REFER TO "www.bannerengineering.com" FOR ADDITIONAL DATA AND SPECIFICATIONS.
 40
0.1
 41
7.9
  0
MTEXT
  5
287
100
AcDbEntity
  8
0
100
AcDbMText
 62
7
  6
CONTINUOUS
  7
TEXTSTYLE_3
 71
2
 72
1
 10
32.082830104
 20
2.4898011248
 30
0.0
 11
1.0
 21
0.0
 31
0.0
 73
2
 44
0.9
  1
BANNER ENGINEERING CORP.
 40
0.12
 41
2.592
  0
MTEXT
  5
288
100
AcDbEntity
  8
0
100
AcDbMText
 62
7
  6
CONTINUOUS
  7
TEXTSTYLE_2
 71
2
 72
1
 10
32.0561063372
 20
2.2733590015
 30
0.0
 11
1.0
 21
0.0
 31
0.0
 73
2
 44
0.9
  1
www.bannerengineering.com
 40
0.1
 41
2.0
  0
MTEXT
  5
289
100
AcDbEntity
  8
0
100
AcDbMText
 62
7
  6
CONTINUOUS
  7
TEXTSTYLE_4
 71
2
 72
1
 10
28.0052134113
 20
2.5785938067
 30
0.0
 11
1.0
 21
0.0
 31
0.0
 73
2
 44
0.9
  1
This drawing is the property\Pof BANNER ENGINEERING CORP.\PAny use or reproduction,\Pin any form, without prior\Pwritten permission of\PBanner is prohibited.
 40
0.08
 41
1.904
  0
MTEXT
  5
28A
100
AcDbEntity
  8
0
100
AcDbMText
 62
7
  6
CONTINUOUS
  7
TEXTSTYLE_5
 71
2
 72
1
 10
28.023149892
 20
1.8440536882
 30
0.0
 11
1.0
 21
0.0
 31
0.0
 73
2
 44
0.9
  1
C  2015 Banner Engineering Corp.
 40
0.08
 41
1.92
  0
DIMENSION
  5
28B
100
AcDbEntity
  8
SCHEME_DIMS
100
AcDbDimension
 62
7
  6
CONTINUOUS
  2
*D0
 10
31.8430042297
 20
7.8780532353
 11
32.5848754044
 21
7.5053967024
 70
163
 71
1
 72
2
 41
0.9
 42
68.5
  1
%%c<>\P[]
  3
DIMSTYLE_1
100
AcDbDiametricDimension
 15
30.4749946661
 25
10.2021771305
  0
DIMENSION
  5
28C
100
AcDbEntity
  8
SCHEME_DIMS
100
AcDbDimension
 62
7
  6
CONTINUOUS
  2
*D1
 10
2.4117856821
 20
7.0391943125
 11
15.5535179655
 21
6.9641943125
 70
160
 71
2
 72
2
 41
0.9
 42
667.6
  1
<>\P[]
  3
DIMSTYLE_2
100
AcDbAlignedDimension
 13
28.695250249
 23
7.6314133496
 14
2.4117856821
 24
7.6977884552
 50
180.0
100
AcDbRotatedDimension
  0
DIMENSION
  5
28D
100
AcDbEntity
  8
SCHEME_DIMS
100
AcDbDimension
 62
7
  6
CONTINUOUS
  2
*D2
 10
3.7503683592
 20
11.0042242543
 11
13.0628403239
 21
10.9292242543
 70
160
 71
2
 72
2
 41
0.9
 42
600.0
  1
<>\P[]
  3
DIMSTYLE_2
100
AcDbAlignedDimension
 13
27.3724156033
 23
9.6321230569
 14
3.7503683592
 24
9.6321230569
 50
180.0
100
AcDbRotatedDimension
  0
DIMENSION
  5
28E
100
AcDbEntity
  8
SCHEME_DIMS
100
AcDbDimension
 62
7
  6
CONTINUOUS
  2
*D3
 10
28.695250249
 20
11.709091598
 11
17.2700070872
 21
11.634091598
 70
160
 71
2
 72
2
 41
0.9
 42
688.85
  1
<>\P[]
  3
DIMSTYLE_2
100
AcDbAlignedDimension
 13
1.5751715088
 23
9.2438553404
 14
28.695250249
 24
10.3098002223
100
AcDbRotatedDimension
  0
ACAD_TABLE
  5
28F
100
AcDbEntity
  8
0
 62
7
  6
CONTINUOUS
100
AcDbBlockReference
  2
*T1
 10
29.0019788236
 20
0.7034944495
 30
0.0
100
AcDbTable
342
       70C
343
232
 11
1.0
 21
0.0
 31
0.0
 90
6
 91
3
 92
5
 93
4
 94
0
 95
0
 96
0
 70
1
141
0.33
141
0.45
141
1.14
142
0.65
142
1.15
142
1.025
142
1.075
142
0.45
171
1
172
0
173
0
174
0
175
1
176
1
 91
33
178
0
145
0.0
301
CELL_VALUE
 90
4
  1
 
304
ACVALUE_END
170
1
140
0.1
171
1
172
0
173
0
174
0
175
1
176
1
 91
33
178
0
145
0.0
301
CELL_VALUE
 90
4
  1
 
304
ACVALUE_END
170
1
140
0.1
171
1
172
0
173
0
174
0
175
1
176
1
 91
33
178
0
145
0.0
301
CELL_VALUE
 90
4
  1
 
304
ACVALUE_END
170
1
140
0.1
171
1
172
0
173
0
174
0
175
1
176
1
 91
33
178
0
145
0.0
301
CELL_VALUE
 90
4
  1
 
304
ACVALUE_END
170
1
140
0.1
171
1
172
0
173
0
174
0
175
1
176
1
 91
33
178
0
145
0.0
301
CELL_VALUE
 90
4
  1
 
304
ACVALUE_END
170
1
140
0.1
171
1
172
0
173
0
174
0
175
1
176
1
 91
33
178
0
145
0.0
301
CELL_VALUE
 90
4
  1
 
304
ACVALUE_END
170
1
140
0.1
171
1
172
0
173
0
174
0
175
1
176
1
 91
33
178
0
145
0.0
301
CELL_VALUE
 90
4
  1
 
304
ACVALUE_END
170
1
140
0.1
171
1
172
0
173
0
174
0
175
1
176
1
 91
33
178
0
145
0.0
301
CELL_VALUE
 90
4
  1
 
304
ACVALUE_END
170
1
140
0.1
171
1
172
0
173
0
174
0
175
1
176
1
 91
33
178
0
145
0.0
301
CELL_VALUE
 90
4
  1
 
304
ACVALUE_END
170
1
140
0.1
171
1
172
0
173
0
174
0
175
1
176
1
 91
41
178
0
145
0.0
301
CELL_VALUE
 90
4
  1
A
304
ACVALUE_END
170
8
140
0.1
 64
7
171
1
172
0
173
0
174
0
175
5
176
1
 91
33
178
0
145
0.0
301
CELL_VALUE
 90
4
  1
WLS70X_600DPWMQ\P 
304
ACVALUE_END
170
8
140
0.1
171
1
172
0
173
1
174
0
175
1
176
1
 91
1
178
0
145
0.0
170
1
171
1
172
0
173
1
174
0
175
1
176
1
 91
1
178
0
145
0.0
170
1
171
1
172
0
173
1
174
0
175
1
176
1
 91
1
178
0
145
0.0
170
1
171
1
172
0
173
1
174
0
175
1
176
1
 91
1
178
0
145
0.0
170
8
  0
MTEXT
  5
290
100
AcDbEntity
  8
NOTES
100
AcDbMText
 62
7
  6
CONTINUOUS
  7
STANDARD
 71
2
 72
1
 10
16.5823973042
 20
15.7090909443
 30
0.0
 11
1.0
 21
0.0
 31
0.0
 73
2
 44
0.9
  1
\LDIMETRIC VIEW\P\H0.1;\lSCALE 1:1
 40
0.125
 41
1.625
  0
LEADER
  5
291
100
AcDbEntity
  8
NOTES
100
AcDbLeader
 62
7
  6
CONTINUOUS
  3
STANDARD
 71
1
 72
0
 73
0
 75
0
 40
0.1
 41
0.4
 76
3
 10
1.851782874
 20
8.8150728252
 30
0.0
 10
1.7435736755
 20
8.5490469618
 30
0.0
 10
1.6017733494
 20
8.5490469618
 30
0.0
340
292
1001
ACAD
1000
DSTYLE
1002
{
1070
77
1070
0
1002
}
  0
MTEXT
  5
292
102
{ACAD_REACTORS
330
291
102
}
100
AcDbEntity
  8
NOTES
100
AcDbMText
 62
7
  6
CONTINUOUS
  7
STANDARD
 71
3
 72
1
 10
1.6017733494
 20
8.5990469618
 30
0.0
 11
1.0
 21
0.0
 31
0.0
 73
2
 44
0.9
  1
M12 
 40
0.1
 41
0.4
  0
LINE
  5
293
100
AcDbEntity
  8
0
100
AcDbLine
 62
7
  6
CONTINUOUS
 10
0.5864933212
 20
11.1116437989
 11
0.5864933212
 21
10.9384377989
  0
LINE
  5
294
100
AcDbEntity
  8
0
100
AcDbLine
 62
7
  6
CONTINUOUS
 10
0.7364933212
 20
21.3366775222
 11
0.7364933212
 21
0.703495704
  0
LINE
  5
295
100
AcDbEntity
  8
0
100
AcDbLine
 62
7
  6
CONTINUOUS
 10
4.8131450808
 20
21.3363920353
 11
4.8131450808
 21
21.5863920353
  0
LINE
  5
296
100
AcDbEntity
  8
0
100
AcDbLine
 62
7
  6
CONTINUOUS
 10
4.8132098641
 20
0.7041934146
 11
4.8132098641
 21
0.4541934146
  0
LINE
  5
297
100
AcDbEntity
  8
0
100
AcDbLine
 62
7
  6
CONTINUOUS
 10
28.1301066922
 20
1.2501869563
 11
28.7364976922
 21
1.3195799563
  0
LINE
  5
298
100
AcDbEntity
  8
0
100
AcDbLine
 62
7
  6
CONTINUOUS
 10
16.957916919
 20
0.5535279135
 11
17.131122919
 21
0.5535279135
  0
LINE
  5
299
100
AcDbEntity
  8
0
100
AcDbLine
 62
7
  6
CONTINUOUS
 10
0.7364933212
 20
0.703495704
 11
33.3519788796
 21
0.703495704
  0
LINE
  5
29A
100
AcDbEntity
  8
0
100
AcDbLine
 62
7
  6
CONTINUOUS
 10
29.0024539446
 20
0.953495704
 11
33.3524539446
 21
0.953495704
  0
LINE
  5
29B
100
AcDbEntity
  8
0
100
AcDbLine
 62
7
  6
CONTINUOUS
 10
27.2033456922
 20
1.0674889563
 11
27.4254366922
 21
1.0674889563
  0
LINE
  5
29C
100
AcDbEntity
  8
0
100
AcDbLine
 62
7
  6
CONTINUOUS
 10
27.4754366922
 20
1.0674889563
 11
27.5754366922
 21
1.0674889563
  0
LINE
  5
29D
100
AcDbEntity
  8
0
100
AcDbLine
 62
7
  6
CONTINUOUS
 10
27.6254366922
 20
1.0674889563
 11
27.8475276922
 21
1.0674889563
  0
LINE
  5
29E
100
AcDbEntity
  8
0
100
AcDbLine
 62
7
  6
CONTINUOUS
 10
28.0301066922
 20
1.0674889563
 11
28.3082586922
 21
1.0674889563
  0
LINE
  5
29F
100
AcDbEntity
  8
0
100
AcDbLine
 62
7
  6
CONTINUOUS
 10
28.3582586922
 20
1.0674889563
 11
28.5083446922
 21
1.0674889563
  0
LINE
  5
2A0
100
AcDbEntity
  8
0
100
AcDbLine
 62
7
  6
CONTINUOUS
 10
28.5583446922
 20
1.0674889563
 11
28.8364976922
 21
1.0674889563
  0
LINE
  5
2A1
100
AcDbEntity
  8
0
100
AcDbLine
 62
7
  6
CONTINUOUS
 10
29.0024539446
 20
1.323495704
 11
33.3524539446
 21
1.323495704
  0
LINE
  5
2A2
100
AcDbEntity
  8
0
100
AcDbLine
 62
7
  6
CONTINUOUS
 10
0.5864933212
 20
10.9384377989
 11
0.7364933212
 21
11.0250407989
  0
LINE
  5
2A3
100
AcDbEntity
  8
0
100
AcDbLine
 62
7
  6
CONTINUOUS
 10
27.0024539446
 20
1.723495704
 11
29.0024539446
 21
1.723495704
  0
LINE
  5
2A4
100
AcDbEntity
  8
0
100
AcDbLine
 62
7
  6
CONTINUOUS
 10
29.0024539446
 20
2.083495704
 11
33.3524539446
 21
2.083495704
  0
LINE
  5
2A5
100
AcDbEntity
  8
0
100
AcDbLine
 62
7
  6
CONTINUOUS
 10
30.5661261778
 20
2.3081272989
 11
30.5187621516
 21
2.3081272989
  0
LINE
  5
2A6
100
AcDbEntity
  8
0
100
AcDbLine
 62
7
  6
CONTINUOUS
 10
30.4748711272
 20
2.3081272989
 11
30.3613000642
 21
2.3081272989
  0
LINE
  5
2A7
100
AcDbEntity
  8
0
100
AcDbLine
 62
7
  6
CONTINUOUS
 10
30.3323960482
 20
2.3081272989
 11
30.1291839355
 21
2.3081272989
  0
LINE
  5
2A8
100
AcDbEntity
  8
0
100
AcDbLine
 62
7
  6
CONTINUOUS
 10
30.0787109075
 20
2.3081272989
 11
30.0045048664
 21
2.3081272989
  0
LINE
  5
2A9
100
AcDbEntity
  8
0
100
AcDbLine
 62
7
  6
CONTINUOUS
 10
29.9581248406
 20
2.3081272989
 11
29.8824607987
 21
2.3081272989
  0
LINE
  5
2AA
100
AcDbEntity
  8
0
100
AcDbLine
 62
7
  6
CONTINUOUS
 10
29.8304577698
 20
2.3081272989
 11
29.7562527287
 21
2.3081272989
  0
LINE
  5
2AB
100
AcDbEntity
  8
0
100
AcDbLine
 62
7
  6
CONTINUOUS
 10
29.709871703
 20
2.3081272989
 11
29.634207661
 21
2.3081272989
  0
LINE
  5
2AC
100
AcDbEntity
  8
0
100
AcDbLine
 62
7
  6
CONTINUOUS
 10
29.1673724021
 20
2.3081272989
 11
29.3438185
 21
2.3081272989
  0
LINE
  5
2AD
100
AcDbEntity
  8
0
100
AcDbLine
 62
7
  6
CONTINUOUS
 10
29.4013555319
 20
2.3081272989
 11
29.4787315748
 21
2.3081272989
  0
LINE
  5
2AE
100
AcDbEntity
  8
0
100
AcDbLine
 62
7
  6
CONTINUOUS
 10
29.499017586
 20
2.3081272989
 11
29.6042986444
 21
2.3081272989
  0
LINE
  5
2AF
100
AcDbEntity
  8
0
100
AcDbLine
 62
7
  6
CONTINUOUS
 10
30.4502121135
 20
2.3328553126
 11
30.4748711272
 21
2.3328553126
  0
LINE
  5
2B0
100
AcDbEntity
  8
0
100
AcDbLine
 62
7
  6
CONTINUOUS
 10
29.6042986444
 20
2.3328773126
 11
29.5842826333
 21
2.3328773126
  0
LINE
  5
2B1
100
AcDbEntity
  8
0
100
AcDbLine
 62
7
  6
CONTINUOUS
 10
29.5134685941
 20
2.3328773126
 11
29.499017586
 21
2.3328773126
  0
LINE
  5
2B2
100
AcDbEntity
  8
0
100
AcDbLine
 62
7
  6
CONTINUOUS
 10
29.4787315748
 20
2.3328773126
 11
29.4674485685
 21
2.3328773126
  0
LINE
  5
2B3
100
AcDbEntity
  8
0
100
AcDbLine
 62
7
  6
CONTINUOUS
 10
29.4242165446
 20
2.3328773126
 11
29.4013555319
 21
2.3328773126
  0
LINE
  5
2B4
100
AcDbEntity
  8
0
100
AcDbLine
 62
7
  6
CONTINUOUS
 10
29.2981404746
 20
2.3328773126
 11
29.2567774517
 21
2.3328773126
  0
LINE
  5
2B5
100
AcDbEntity
  8
0
100
AcDbLine
 62
7
  6
CONTINUOUS
 10
29.1913144154
 20
2.3328773126
 11
29.1673724021
 21
2.3328773126
  0
LINE
  5
2B6
100
AcDbEntity
  8
0
100
AcDbLine
 62
7
  6
CONTINUOUS
 10
29.634207661
 20
2.3328773126
 11
29.6528546714
 21
2.3328773126
  0
LINE
  5
2B7
100
AcDbEntity
  8
0
100
AcDbLine
 62
7
  6
CONTINUOUS
 10
29.6895546917
 20
2.3328773126
 11
29.709871703
 21
2.3328773126
  0
LINE
  5
2B8
100
AcDbEntity
  8
0
100
AcDbLine
 62
7
  6
CONTINUOUS
 10
29.8824607987
 20
2.3328773126
 11
29.901106809
 21
2.3328773126
  0
LINE
  5
2B9
100
AcDbEntity
  8
0
100
AcDbLine
 62
7
  6
CONTINUOUS
 10
29.9378078294
 20
2.3328773126
 11
29.9581248406
 21
2.3328773126
  0
LINE
  5
2BA
100
AcDbEntity
  8
0
100
AcDbLine
 62
7
  6
CONTINUOUS
 10
30.1291839355
 20
2.3328773126
 11
30.1531069488
 21
2.3328773126
  0
LINE
  5
2BB
100
AcDbEntity
  8
0
100
AcDbLine
 62
7
  6
CONTINUOUS
 10
30.2201229859
 20
2.3328773126
 11
30.285127022
 21
2.3328773126
  0
LINE
  5
2BC
100
AcDbEntity
  8
0
100
AcDbLine
 62
7
  6
CONTINUOUS
 10
30.3613000642
 20
2.3328773126
 11
30.3840460768
 21
2.3328773126
  0
LINE
  5
2BD
100
AcDbEntity
  8
0
100
AcDbLine
 62
7
  6
CONTINUOUS
 10
30.5671491784
 20
2.3332643128
 11
30.568258179
 21
2.3332643128
  0
LINE
  5
2BE
100
AcDbEntity
  8
0
100
AcDbLine
 62
7
  6
CONTINUOUS
 10
30.2900770247
 20
2.3460773199
 11
30.3323960482
 21
2.3460773199
  0
LINE
  5
2BF
100
AcDbEntity
  8
0
100
AcDbLine
 62
7
  6
CONTINUOUS
 10
29.4729645716
 20
2.3465213202
 11
29.5078425909
 21
2.3465213202
  0
LINE
  5
2C0
100
AcDbEntity
  8
0
100
AcDbLine
 62
7
  6
CONTINUOUS
 10
30.579013185
 20
2.3470143205
 11
30.5911231917
 21
2.3470143205
  0
LINE
  5
2C1
100
AcDbEntity
  8
0
100
AcDbLine
 62
7
  6
CONTINUOUS
 10
30.4778191288
 20
2.3475043207
 11
30.4502121135
 21
2.3475043207
  0
LINE
  5
2C2
100
AcDbEntity
  8
0
100
AcDbLine
 62
7
  6
CONTINUOUS
 10
30.2552900054
 20
2.3493773218
 11
30.2201229859
 21
2.3493773218
  0
LINE
  5
2C3
100
AcDbEntity
  8
0
100
AcDbLine
 62
7
  6
CONTINUOUS
 10
29.2567774517
 20
2.3502023222
 11
29.2981404746
 21
2.3502023222
  0
LINE
  5
2C4
100
AcDbEntity
  8
0
100
AcDbLine
 62
7
  6
CONTINUOUS
 10
30.4841491324
 20
2.3665073313
 11
30.4502121135
 21
2.3665073313
  0
LINE
  5
2C5
100
AcDbEntity
  8
0
100
AcDbLine
 62
7
  6
CONTINUOUS
 10
29.2567774517
 20
2.3668573315
 11
29.2981404746
 21
2.3668573315
  0
LINE
  5
2C6
100
AcDbEntity
  8
0
100
AcDbLine
 62
7
  6
CONTINUOUS
 10
29.4814805763
 20
2.3674713318
 11
29.5020375877
 21
2.3674713318
  0
LINE
  5
2C7
100
AcDbEntity
  8
0
100
AcDbLine
 62
7
  6
CONTINUOUS
 10
30.2201229859
 20
2.3676823319
 11
30.2552900054
 21
2.3676823319
  0
LINE
  5
2C8
100
AcDbEntity
  8
0
100
AcDbLine
 62
7
  6
CONTINUOUS
 10
30.3309770474
 20
2.3709823337
 11
30.2891130242
 21
2.3709823337
  0
LINE
  5
2C9
100
AcDbEntity
  8
0
100
AcDbLine
 62
7
  6
CONTINUOUS
 10
29.4947785837
 20
2.3836383408
 11
29.4885975803
 21
2.3836383408
  0
LINE
  5
2CA
100
AcDbEntity
  8
0
100
AcDbLine
 62
7
  6
CONTINUOUS
 10
30.3840460768
 20
2.3841823411
 11
30.3613000642
 21
2.3841823411
  0
LINE
  5
2CB
100
AcDbEntity
  8
0
100
AcDbLine
 62
7
  6
CONTINUOUS
 10
30.2841630215
 20
2.3841823411
 11
30.2201229859
 21
2.3841823411
  0
LINE
  5
2CC
100
AcDbEntity
  8
0
100
AcDbLine
 62
7
  6
CONTINUOUS
 10
30.1531069488
 20
2.3841823411
 11
30.1291839355
 21
2.3841823411
  0
LINE
  5
2CD
100
AcDbEntity
  8
0
100
AcDbLine
 62
7
  6
CONTINUOUS
 10
30.1015939202
 20
2.3841823411
 11
30.0836609103
 21
2.3841823411
  0
LINE
  5
2CE
100
AcDbEntity
  8
0
100
AcDbLine
 62
7
  6
CONTINUOUS
 10
30.0463688896
 20
2.3841823411
 11
30.0275928792
 21
2.3841823411
  0
LINE
  5
2CF
100
AcDbEntity
  8
0
100
AcDbLine
 62
7
  6
CONTINUOUS
 10
29.901106809
 20
2.3841823411
 11
29.8824607987
 21
2.3841823411
  0
LINE
  5
2D0
100
AcDbEntity
  8
0
100
AcDbLine
 62
7
  6
CONTINUOUS
 10
29.8533407825
 20
2.3841823411
 11
29.8354077726
 21
2.3841823411
  0
LINE
  5
2D1
100
AcDbEntity
  8
0
100
AcDbLine
 62
7
  6
CONTINUOUS
 10
29.7981157519
 20
2.3841823411
 11
29.7793397415
 21
2.3841823411
  0
LINE
  5
2D2
100
AcDbEntity
  8
0
100
AcDbLine
 62
7
  6
CONTINUOUS
 10
29.6528546714
 20
2.3841823411
 11
29.634207661
 21
2.3841823411
  0
LINE
  5
2D3
100
AcDbEntity
  8
0
100
AcDbLine
 62
7
  6
CONTINUOUS
 10
29.2981404746
 20
2.3841823411
 11
29.2567774517
 21
2.3841823411
  0
LINE
  5
2D4
100
AcDbEntity
  8
0
100
AcDbLine
 62
7
  6
CONTINUOUS
 10
29.1673724021
 20
2.3841823411
 11
29.1913144154
 21
2.3841823411
  0
LINE
  5
2D5
100
AcDbEntity
  8
0
100
AcDbLine
 62
7
  6
CONTINUOUS
 10
30.4502121135
 20
2.3841823411
 11
30.4870131339
 21
2.3841823411
  0
LINE
  5
2D6
100
AcDbEntity
  8
0
100
AcDbLine
 62
7
  6
CONTINUOUS
 10
29.5323716045
 20
2.4089323548
 11
29.4751965728
 21
2.4089323548
  0
LINE
  5
2D7
100
AcDbEntity
  8
0
100
AcDbLine
 62
7
  6
CONTINUOUS
 10
29.3334354942
 20
2.4089323548
 11
29.1673724021
 21
2.4089323548
  0
LINE
  5
2D8
100
AcDbEntity
  8
0
100
AcDbLine
 62
7
  6
CONTINUOUS
 10
29.634207661
 20
2.4089323548
 11
29.7346657167
 21
2.4089323548
  0
LINE
  5
2D9
100
AcDbEntity
  8
0
100
AcDbLine
 62
7
  6
CONTINUOUS
 10
29.7793397415
 20
2.4089323548
 11
29.8533407825
 21
2.4089323548
  0
LINE
  5
2DA
100
AcDbEntity
  8
0
100
AcDbLine
 62
7
  6
CONTINUOUS
 10
29.8824607987
 20
2.4089323548
 11
29.9829188544
 21
2.4089323548
  0
LINE
  5
2DB
100
AcDbEntity
  8
0
100
AcDbLine
 62
7
  6
CONTINUOUS
 10
30.0275928792
 20
2.4089323548
 11
30.1015939202
 21
2.4089323548
  0
LINE
  5
2DC
100
AcDbEntity
  8
0
100
AcDbLine
 62
7
  6
CONTINUOUS
 10
30.1291839355
 20
2.4089323548
 11
30.3309770474
 21
2.4089323548
  0
LINE
  5
2DD
100
AcDbEntity
  8
0
100
AcDbLine
 62
7
  6
CONTINUOUS
 10
30.3613000642
 20
2.4089323548
 11
30.5108811472
 21
2.4089323548
  0
LINE
  5
2DE
100
AcDbEntity
  8
0
100
AcDbLine
 62
7
  6
CONTINUOUS
 10
29.3627025104
 20
2.3544433246
 11
29.3526515049
 21
2.3579923265
  0
LINE
  5
2DF
100
AcDbEntity
  8
0
100
AcDbLine
 62
7
  6
CONTINUOUS
 10
29.7545437277
 20
2.3088112993
 11
29.6912636927
 21
2.3691893327
  0
LINE
  5
2E0
100
AcDbEntity
  8
0
100
AcDbLine
 62
7
  6
CONTINUOUS
 10
29.7363737177
 20
2.4082483544
 11
29.796406751
 21
2.3509683226
  0
LINE
  5
2E1
100
AcDbEntity
  8
0
100
AcDbLine
 62
7
  6
CONTINUOUS
 10
30.0027968654
 20
2.3088112993
 11
29.9395168303
 21
2.3691893327
  0
LINE
  5
2E2
100
AcDbEntity
  8
0
100
AcDbLine
 62
7
  6
CONTINUOUS
 10
29.9846268553
 20
2.4082483544
 11
30.0446598886
 21
2.3509683226
  0
LINE
  5
2E3
100
AcDbEntity
  8
0
100
AcDbLine
 62
7
  6
CONTINUOUS
 10
29.5099205921
 20
2.3453903196
 11
29.5155465952
 21
2.3366973147
  0
LINE
  5
2E4
100
AcDbEntity
  8
0
100
AcDbLine
 62
7
  6
CONTINUOUS
 10
29.5041155889
 20
2.3712913339
 11
29.4968565848
 21
2.3825073401
  0
LINE
  5
2E5
100
AcDbEntity
  8
0
100
AcDbLine
 62
7
  6
CONTINUOUS
 10
29.5822056322
 20
2.3340073132
 11
29.5344496057
 21
2.4078023542
  0
LINE
  5
2E6
100
AcDbEntity
  8
0
100
AcDbLine
 62
7
  6
CONTINUOUS
 10
30.4994581408
 20
2.3261733089
 11
30.4976541398
 21
2.3322423123
  0
LINE
  5
2E7
100
AcDbEntity
  8
0
100
AcDbLine
 62
7
  6
CONTINUOUS
 10
29.1648974007
 20
2.4064573534
 11
29.1648974007
 21
2.3866573424
  0
LINE
  5
2E8
100
AcDbEntity
  8
0
100
AcDbLine
 62
7
  6
CONTINUOUS
 10
29.1648974007
 20
2.3304023112
 11
29.1648974007
 21
2.3106023003
  0
LINE
  5
2E9
100
AcDbEntity
  8
0
100
AcDbLine
 62
7
  6
CONTINUOUS
 10
29.1937894168
 20
2.3817073397
 11
29.1937894168
 21
2.335352314
  0
LINE
  5
2EA
100
AcDbEntity
  8
0
100
AcDbLine
 62
7
  6
CONTINUOUS
 10
29.2543024503
 20
2.3817073397
 11
29.2543024503
 21
2.3693323328
  0
LINE
  5
2EB
100
AcDbEntity
  8
0
100
AcDbLine
 62
7
  6
CONTINUOUS
 10
29.2543024503
 20
2.335352314
 11
29.2543024503
 21
2.3477273208
  0
LINE
  5
2EC
100
AcDbEntity
  8
0
100
AcDbLine
 62
7
  6
CONTINUOUS
 10
29.3988805305
 20
2.3304023112
 11
29.3988805305
 21
2.3106023003
  0
LINE
  5
2ED
100
AcDbEntity
  8
0
100
AcDbLine
 62
7
  6
CONTINUOUS
 10
29.4812065762
 20
2.3106023003
 11
29.4812065762
 21
2.3304023112
  0
LINE
  5
2EE
100
AcDbEntity
  8
0
100
AcDbLine
 62
7
  6
CONTINUOUS
 10
29.4965425847
 20
2.3304023112
 11
29.4965425847
 21
2.3106023003
  0
LINE
  5
2EF
100
AcDbEntity
  8
0
100
AcDbLine
 62
7
  6
CONTINUOUS
 10
29.6067736458
 20
2.3106023003
 11
29.6067736458
 21
2.3304023112
  0
LINE
  5
2F0
100
AcDbEntity
  8
0
100
AcDbLine
 62
7
  6
CONTINUOUS
 10
29.6317326596
 20
2.3106023003
 11
29.6317326596
 21
2.3304023112
  0
LINE
  5
2F1
100
AcDbEntity
  8
0
100
AcDbLine
 62
7
  6
CONTINUOUS
 10
29.6317326596
 20
2.3866573424
 11
29.6317326596
 21
2.4064573534
  0
LINE
  5
2F2
100
AcDbEntity
  8
0
100
AcDbLine
 62
7
  6
CONTINUOUS
 10
29.6553296727
 20
2.335352314
 11
29.6553296727
 21
2.3817073397
  0
LINE
  5
2F3
100
AcDbEntity
  8
0
100
AcDbLine
 62
7
  6
CONTINUOUS
 10
29.6870796903
 20
2.3673983318
 11
29.6870796903
 21
2.335352314
  0
LINE
  5
2F4
100
AcDbEntity
  8
0
100
AcDbLine
 62
7
  6
CONTINUOUS
 10
29.7123467043
 20
2.3304023112
 11
29.7123467043
 21
2.3106023003
  0
LINE
  5
2F5
100
AcDbEntity
  8
0
100
AcDbLine
 62
7
  6
CONTINUOUS
 10
29.7768647401
 20
2.3866573424
 11
29.7768647401
 21
2.4064573534
  0
LINE
  5
2F6
100
AcDbEntity
  8
0
100
AcDbLine
 62
7
  6
CONTINUOUS
 10
29.8005907533
 20
2.3527593236
 11
29.8005907533
 21
2.3817073397
  0
LINE
  5
2F7
100
AcDbEntity
  8
0
100
AcDbLine
 62
7
  6
CONTINUOUS
 10
29.8329327712
 20
2.3817073397
 11
29.8329327712
 21
2.3106023003
  0
LINE
  5
2F8
100
AcDbEntity
  8
0
100
AcDbLine
 62
7
  6
CONTINUOUS
 10
29.8558157839
 20
2.4064573534
 11
29.8558157839
 21
2.3866573424
  0
LINE
  5
2F9
100
AcDbEntity
  8
0
100
AcDbLine
 62
7
  6
CONTINUOUS
 10
29.8799857973
 20
2.3106023003
 11
29.8799857973
 21
2.3304023112
  0
LINE
  5
2FA
100
AcDbEntity
  8
0
100
AcDbLine
 62
7
  6
CONTINUOUS
 10
29.8799857973
 20
2.3866573424
 11
29.8799857973
 21
2.4064573534
  0
LINE
  5
2FB
100
AcDbEntity
  8
0
100
AcDbLine
 62
7
  6
CONTINUOUS
 10
29.9035818104
 20
2.335352314
 11
29.9035818104
 21
2.3817073397
  0
LINE
  5
2FC
100
AcDbEntity
  8
0
100
AcDbLine
 62
7
  6
CONTINUOUS
 10
29.935332828
 20
2.3673983318
 11
29.935332828
 21
2.335352314
  0
LINE
  5
2FD
100
AcDbEntity
  8
0
100
AcDbLine
 62
7
  6
CONTINUOUS
 10
29.960599842
 20
2.3304023112
 11
29.960599842
 21
2.3106023003
  0
LINE
  5
2FE
100
AcDbEntity
  8
0
100
AcDbLine
 62
7
  6
CONTINUOUS
 10
30.0251178778
 20
2.3866573424
 11
30.0251178778
 21
2.4064573534
  0
LINE
  5
2FF
100
AcDbEntity
  8
0
100
AcDbLine
 62
7
  6
CONTINUOUS
 10
30.048843891
 20
2.3527593236
 11
30.048843891
 21
2.3817073397
  0
LINE
  5
300
100
AcDbEntity
  8
0
100
AcDbLine
 62
7
  6
CONTINUOUS
 10
30.0811859089
 20
2.3817073397
 11
30.0811859089
 21
2.3106023003
  0
LINE
  5
301
100
AcDbEntity
  8
0
100
AcDbLine
 62
7
  6
CONTINUOUS
 10
30.1040689216
 20
2.4064573534
 11
30.1040689216
 21
2.3866573424
  0
LINE
  5
302
100
AcDbEntity
  8
0
100
AcDbLine
 62
7
  6
CONTINUOUS
 10
30.1267089341
 20
2.3106023003
 11
30.1267089341
 21
2.3304023112
  0
LINE
  5
303
100
AcDbEntity
  8
0
100
AcDbLine
 62
7
  6
CONTINUOUS
 10
30.1267089341
 20
2.3866573424
 11
30.1267089341
 21
2.4064573534
  0
LINE
  5
304
100
AcDbEntity
  8
0
100
AcDbLine
 62
7
  6
CONTINUOUS
 10
30.1555819501
 20
2.335352314
 11
30.1555819501
 21
2.3817073397
  0
LINE
  5
305
100
AcDbEntity
  8
0
100
AcDbLine
 62
7
  6
CONTINUOUS
 10
30.2176479846
 20
2.3817073397
 11
30.2176479846
 21
2.3701573333
  0
LINE
  5
306
100
AcDbEntity
  8
0
100
AcDbLine
 62
7
  6
CONTINUOUS
 10
30.2176479846
 20
2.3469023204
 11
30.2176479846
 21
2.335352314
  0
LINE
  5
307
100
AcDbEntity
  8
0
100
AcDbLine
 62
7
  6
CONTINUOUS
 10
30.2577650068
 20
2.3652073305
 11
30.2577650068
 21
2.3518523231
  0
LINE
  5
308
100
AcDbEntity
  8
0
100
AcDbLine
 62
7
  6
CONTINUOUS
 10
30.2866380228
 20
2.3734573351
 11
30.2866380228
 21
2.3817073397
  0
LINE
  5
309
100
AcDbEntity
  8
0
100
AcDbLine
 62
7
  6
CONTINUOUS
 10
30.2876020234
 20
2.335352314
 11
30.2876020234
 21
2.3436023186
  0
LINE
  5
30A
100
AcDbEntity
  8
0
100
AcDbLine
 62
7
  6
CONTINUOUS
 10
30.3334520488
 20
2.4064573534
 11
30.3334520488
 21
2.3734573351
  0
LINE
  5
30B
100
AcDbEntity
  8
0
100
AcDbLine
 62
7
  6
CONTINUOUS
 10
30.3348710496
 20
2.3436023186
 11
30.3348710496
 21
2.3106023003
  0
LINE
  5
30C
100
AcDbEntity
  8
0
100
AcDbLine
 62
7
  6
CONTINUOUS
 10
30.3588250629
 20
2.3106023003
 11
30.3588250629
 21
2.3304023112
  0
LINE
  5
30D
100
AcDbEntity
  8
0
100
AcDbLine
 62
7
  6
CONTINUOUS
 10
30.3588250629
 20
2.3866573424
 11
30.3588250629
 21
2.4064573534
  0
LINE
  5
30E
100
AcDbEntity
  8
0
100
AcDbLine
 62
7
  6
CONTINUOUS
 10
30.3865210782
 20
2.335352314
 11
30.3865210782
 21
2.3817073397
  0
LINE
  5
30F
100
AcDbEntity
  8
0
100
AcDbLine
 62
7
  6
CONTINUOUS
 10
30.4477371122
 20
2.3450293194
 11
30.4477371122
 21
2.335330314
  0
LINE
  5
310
100
AcDbEntity
  8
0
100
AcDbLine
 62
7
  6
CONTINUOUS
 10
30.4477371122
 20
2.3689823326
 11
30.4477371122
 21
2.3817073397
  0
LINE
  5
311
100
AcDbEntity
  8
0
100
AcDbLine
 62
7
  6
CONTINUOUS
 10
30.4773461286
 20
2.3303803112
 11
30.4773461286
 21
2.3106023003
  0
LINE
  5
312
100
AcDbEntity
  8
0
100
AcDbLine
 62
7
  6
CONTINUOUS
 10
30.5765381836
 20
2.3419133176
 11
30.5765381836
 21
2.3445393191
  0
LINE
  5
313
100
AcDbEntity
  8
0
100
AcDbLine
 62
7
  6
CONTINUOUS
 10
30.5935981931
 20
2.3445393191
 11
30.5935981931
 21
2.3329873127
  0
LINE
  5
314
100
AcDbEntity
  8
0
100
AcDbLine
 62
7
  6
CONTINUOUS
 10
30.690554488
 20
2.3519697229
 11
30.690554488
 21
2.3625869294
  0
LINE
  5
315
100
AcDbEntity
  8
0
100
AcDbLine
 62
7
  6
CONTINUOUS
 10
29.3526515049
 20
2.3579923265
 11
29.3608915094
 21
2.3627683292
  0
LINE
  5
316
100
AcDbEntity
  8
0
100
AcDbLine
 62
7
  6
CONTINUOUS
 10
29.4731065717
 20
2.4077833542
 11
29.4263065457
 21
2.3340263132
  0
LINE
  5
317
100
AcDbEntity
  8
0
100
AcDbLine
 62
7
  6
CONTINUOUS
 10
29.4865075791
 20
2.3824893401
 11
29.4793905752
 21
2.3712723339
  0
LINE
  5
318
100
AcDbEntity
  8
0
100
AcDbLine
 62
7
  6
CONTINUOUS
 10
29.4653585674
 20
2.3366783147
 11
29.4708745704
 21
2.3453723195
  0
ARC
  5
319
100
AcDbEntity
  8
0
100
AcDbCircle
 62
7
  6
CONTINUOUS
 10
29.7562520939
 20
2.310602715
 40
0.0024754162
100
AcDbArc
 50
226.3593695813
 51
270.0146919953
  0
ARC
  5
31A
100
AcDbEntity
  8
0
100
AcDbCircle
 62
7
  6
CONTINUOUS
 10
29.1673724003
 20
2.3106022984
 40
0.0024749995
100
AcDbArc
 50
179.9999571957
 51
270.0000428043
  0
ARC
  5
31B
100
AcDbEntity
  8
0
100
AcDbCircle
 62
7
  6
CONTINUOUS
 10
29.8304577717
 20
2.3106022984
 40
0.0024749995
100
AcDbArc
 50
269.9999571957
 51
0.0000428042
  0
ARC
  5
31C
100
AcDbEntity
  8
0
100
AcDbCircle
 62
7
  6
CONTINUOUS
 10
29.7098717048
 20
2.3106022984
 40
0.0024749995
100
AcDbArc
 50
269.9999571957
 51
0.0000428042
  0
ARC
  5
31D
100
AcDbEntity
  8
0
100
AcDbCircle
 62
7
  6
CONTINUOUS
 10
29.6342076592
 20
2.3106022984
 40
0.0024749995
100
AcDbArc
 50
179.9999571957
 51
270.0000428043
  0
ARC
  5
31E
100
AcDbEntity
  8
0
100
AcDbCircle
 62
7
  6
CONTINUOUS
 10
29.4990175842
 20
2.3106022984
 40
0.0024749995
100
AcDbArc
 50
179.9999571957
 51
270.0000428043
  0
ARC
  5
31F
100
AcDbEntity
  8
0
100
AcDbCircle
 62
7
  6
CONTINUOUS
 10
29.6042986463
 20
2.3106022984
 40
0.0024749995
100
AcDbArc
 50
269.9999571957
 51
0.0000428043
  0
ARC
  5
320
100
AcDbEntity
  8
0
100
AcDbCircle
 62
7
  6
CONTINUOUS
 10
29.40135553
 20
2.3106022984
 40
0.0024749995
100
AcDbArc
 50
179.9999571957
 51
270.0000428043
  0
ARC
  5
321
100
AcDbEntity
  8
0
100
AcDbCircle
 62
7
  6
CONTINUOUS
 10
29.4787315766
 20
2.3106022984
 40
0.0024749995
100
AcDbArc
 50
269.9999571958
 51
0.0000428044
  0
ARC
  5
322
100
AcDbEntity
  8
0
100
AcDbCircle
 62
7
  6
CONTINUOUS
 10
29.3334409881
 20
2.347184638
 40
0.061747717
100
AcDbArc
 50
59.5385584989
 51
90.0050977555
  0
ARC
  5
323
100
AcDbEntity
  8
0
100
AcDbCircle
 62
7
  6
CONTINUOUS
 10
29.3410971553
 20
2.3565347507
 40
0.048483885
100
AcDbArc
 50
273.21763719
 51
303.0749121182
  0
ARC
  5
324
100
AcDbEntity
  8
0
100
AcDbCircle
 62
7
  6
CONTINUOUS
 10
29.3550433609
 20
2.3335878142
 40
0.0222174455
100
AcDbArc
 50
4.0793399388
 51
69.834329283
  0
ARC
  5
325
100
AcDbEntity
  8
0
100
AcDbCircle
 62
7
  6
CONTINUOUS
 10
29.3559365494
 20
2.3337671418
 40
0.0213072145
100
AcDbArc
 50
303.0488228549
 51
355.7263138674
  0
ARC
  5
326
100
AcDbEntity
  8
0
100
AcDbCircle
 62
7
  6
CONTINUOUS
 10
29.36187305
 20
2.3337763321
 40
0.0153945295
100
AcDbArc
 50
354.0454548824
 51
5.1878013979
  0
ARC
  5
327
100
AcDbEntity
  8
0
100
AcDbCircle
 62
7
  6
CONTINUOUS
 10
29.2981404746
 20
2.3415398174
 40
0.0086625048
100
AcDbArc
 50
270.0
 51
90.0
  0
ARC
  5
328
100
AcDbEntity
  8
0
100
AcDbCircle
 62
7
  6
CONTINUOUS
 10
29.5078420513
 20
2.34404586
 40
0.0024754602
100
AcDbArc
 50
32.8959418574
 51
89.9875097203
  0
ARC
  5
329
100
AcDbEntity
  8
0
100
AcDbCircle
 62
7
  6
CONTINUOUS
 10
29.4242166149
 20
2.3353525129
 40
0.0024752003
100
AcDbArc
 50
269.9983726451
 51
327.6021653071
  0
ARC
  5
32A
100
AcDbEntity
  8
0
100
AcDbCircle
 62
7
  6
CONTINUOUS
 10
29.4729645013
 20
2.3440461199
 40
0.0024752003
100
AcDbArc
 50
89.998372645
 51
147.602165307
  0
ARC
  5
32B
100
AcDbEntity
  8
0
100
AcDbCircle
 62
7
  6
CONTINUOUS
 10
29.4674484592
 20
2.3353523527
 40
0.0024750401
100
AcDbArc
 50
147.6063258011
 51
270.0025305753
  0
ARC
  5
32C
100
AcDbEntity
  8
0
100
AcDbCircle
 62
7
  6
CONTINUOUS
 10
29.1913144172
 20
2.3353523121
 40
0.0024749995
100
AcDbArc
 50
269.9999571957
 51
0.0000428042
  0
ARC
  5
32D
100
AcDbEntity
  8
0
100
AcDbCircle
 62
7
  6
CONTINUOUS
 10
29.1673724003
 20
2.3304023131
 40
0.0024749995
100
AcDbArc
 50
89.9999571958
 51
180.0000428044
  0
ARC
  5
32E
100
AcDbEntity
  8
0
100
AcDbCircle
 62
7
  6
CONTINUOUS
 10
29.2567774499
 20
2.3477273227
 40
0.0024749995
100
AcDbArc
 50
89.9999571957
 51
180.0000428042
  0
ARC
  5
32F
100
AcDbEntity
  8
0
100
AcDbCircle
 62
7
  6
CONTINUOUS
 10
29.2567774499
 20
2.3353523121
 40
0.0024749995
100
AcDbArc
 50
179.9999571957
 51
270.0000428043
  0
ARC
  5
330
100
AcDbEntity
  8
0
100
AcDbCircle
 62
7
  6
CONTINUOUS
 10
29.4990175842
 20
2.3304023131
 40
0.0024749995
100
AcDbArc
 50
89.9999571957
 51
180.0000428043
  0
ARC
  5
331
100
AcDbEntity
  8
0
100
AcDbCircle
 62
7
  6
CONTINUOUS
 10
29.40135553
 20
2.3304023131
 40
0.0024749995
100
AcDbArc
 50
89.9999571957
 51
180.0000428042
  0
ARC
  5
332
100
AcDbEntity
  8
0
100
AcDbCircle
 62
7
  6
CONTINUOUS
 10
29.4787315766
 20
2.3304023131
 40
0.0024749995
100
AcDbArc
 50
359.9999571957
 51
90.0000428043
  0
ARC
  5
333
100
AcDbEntity
  8
0
100
AcDbCircle
 62
7
  6
CONTINUOUS
 10
29.339026127
 20
2.3995952208
 40
0.0428289026
100
AcDbArc
 50
300.6990502959
 51
319.0591802498
  0
ARC
  5
334
100
AcDbEntity
  8
0
100
AcDbCircle
 62
7
  6
CONTINUOUS
 10
29.3541031117
 20
2.3801132029
 40
0.0229166529
100
AcDbArc
 50
20.6563876465
 51
62.3316896973
  0
ARC
  5
335
100
AcDbEntity
  8
0
100
AcDbCircle
 62
7
  6
CONTINUOUS
 10
29.3590547239
 20
2.3834668674
 40
0.0171568255
100
AcDbArc
 50
315.9145124245
 51
16.0049121282
  0
ARC
  5
336
100
AcDbEntity
  8
0
100
AcDbCircle
 62
7
  6
CONTINUOUS
 10
29.2981404746
 20
2.3755198363
 40
0.0086625048
100
AcDbArc
 50
270.0
 51
90.0
  0
ARC
  5
337
100
AcDbEntity
  8
0
100
AcDbCircle
 62
7
  6
CONTINUOUS
 10
29.494778044
 20
2.3811628806
 40
0.0024754602
100
AcDbArc
 50
32.8959418574
 51
89.9875097203
  0
ARC
  5
338
100
AcDbEntity
  8
0
100
AcDbCircle
 62
7
  6
CONTINUOUS
 10
29.5020375666
 20
2.3699465389
 40
0.0024752071
100
AcDbArc
 50
270.0004896792
 51
32.9089806817
  0
ARC
  5
339
100
AcDbEntity
  8
0
100
AcDbCircle
 62
7
  6
CONTINUOUS
 10
29.48859751
 20
2.3811631405
 40
0.0024752003
100
AcDbArc
 50
89.9983726451
 51
147.6021653071
  0
ARC
  5
33A
100
AcDbEntity
  8
0
100
AcDbCircle
 62
7
  6
CONTINUOUS
 10
29.4751965025
 20
2.4064571545
 40
0.0024752003
100
AcDbArc
 50
89.998372645
 51
147.602165307
  0
ARC
  5
33B
100
AcDbEntity
  8
0
100
AcDbCircle
 62
7
  6
CONTINUOUS
 10
29.481480467
 20
2.3699463719
 40
0.0024750401
100
AcDbArc
 50
147.6063258012
 51
270.0025305754
  0
ARC
  5
33C
100
AcDbEntity
  8
0
100
AcDbCircle
 62
7
  6
CONTINUOUS
 10
29.1673724003
 20
2.4064573553
 40
0.0024749995
100
AcDbArc
 50
89.9999571958
 51
180.0000428044
  0
ARC
  5
33D
100
AcDbEntity
  8
0
100
AcDbCircle
 62
7
  6
CONTINUOUS
 10
29.1673724003
 20
2.3866573406
 40
0.0024749995
100
AcDbArc
 50
179.9999571957
 51
270.0000428043
  0
ARC
  5
33E
100
AcDbEntity
  8
0
100
AcDbCircle
 62
7
  6
CONTINUOUS
 10
29.1913144172
 20
2.3817073415
 40
0.0024749995
100
AcDbArc
 50
359.9999571957
 51
90.0000428043
  0
ARC
  5
33F
100
AcDbEntity
  8
0
100
AcDbCircle
 62
7
  6
CONTINUOUS
 10
29.2567774499
 20
2.3817073415
 40
0.0024749995
100
AcDbArc
 50
89.9999571957
 51
180.0000428042
  0
ARC
  5
340
100
AcDbEntity
  8
0
100
AcDbCircle
 62
7
  6
CONTINUOUS
 10
29.2567774499
 20
2.369332331
 40
0.0024749995
100
AcDbArc
 50
179.9999571957
 51
270.0000428043
  0
ARC
  5
341
100
AcDbEntity
  8
0
100
AcDbCircle
 62
7
  6
CONTINUOUS
 10
29.7981154519
 20
2.3527592604
 40
0.0024753014
100
AcDbArc
 50
226.3461263059
 51
0.0014637321
  0
ARC
  5
342
100
AcDbEntity
  8
0
100
AcDbCircle
 62
7
  6
CONTINUOUS
 10
29.6895549917
 20
2.367398395
 40
0.0024753014
100
AcDbArc
 50
46.3461263059
 51
180.0014637321
  0
ARC
  5
343
100
AcDbEntity
  8
0
100
AcDbCircle
 62
7
  6
CONTINUOUS
 10
29.5134685729
 20
2.3353525197
 40
0.0024752071
100
AcDbArc
 50
270.0004896794
 51
32.9089806819
  0
ARC
  5
344
100
AcDbEntity
  8
0
100
AcDbCircle
 62
7
  6
CONTINUOUS
 10
29.6895546899
 20
2.3353523121
 40
0.0024749995
100
AcDbArc
 50
179.9999571957
 51
270.0000428043
  0
ARC
  5
345
100
AcDbEntity
  8
0
100
AcDbCircle
 62
7
  6
CONTINUOUS
 10
29.7098717048
 20
2.3304023131
 40
0.0024749995
100
AcDbArc
 50
359.9999571957
 51
90.0000428043
  0
ARC
  5
346
100
AcDbEntity
  8
0
100
AcDbCircle
 62
7
  6
CONTINUOUS
 10
29.6342076592
 20
2.3304023131
 40
0.0024749995
100
AcDbArc
 50
89.9999571957
 51
180.0000428043
  0
ARC
  5
347
100
AcDbEntity
  8
0
100
AcDbCircle
 62
7
  6
CONTINUOUS
 10
29.6528546732
 20
2.3353523121
 40
0.0024749995
100
AcDbArc
 50
269.9999571957
 51
0.0000428042
  0
ARC
  5
348
100
AcDbEntity
  8
0
100
AcDbCircle
 62
7
  6
CONTINUOUS
 10
29.6042986463
 20
2.3304023131
 40
0.0024749995
100
AcDbArc
 50
359.9999571957
 51
90.0000428043
  0
ARC
  5
349
100
AcDbEntity
  8
0
100
AcDbCircle
 62
7
  6
CONTINUOUS
 10
29.5842827538
 20
2.3353513536
 40
0.002474041
100
AcDbArc
 50
212.9056413127
 51
269.9972091756
  0
ARC
  5
34A
100
AcDbEntity
  8
0
100
AcDbCircle
 62
7
  6
CONTINUOUS
 10
29.7981157538
 20
2.3817073415
 40
0.0024749995
100
AcDbArc
 50
359.9999571957
 51
90.0000428043
  0
ARC
  5
34B
100
AcDbEntity
  8
0
100
AcDbCircle
 62
7
  6
CONTINUOUS
 10
29.7793397396
 20
2.3866573406
 40
0.0024749995
100
AcDbArc
 50
179.9999571957
 51
270.0000428043
  0
ARC
  5
34C
100
AcDbEntity
  8
0
100
AcDbCircle
 62
7
  6
CONTINUOUS
 10
29.7793397396
 20
2.4064573553
 40
0.0024749995
100
AcDbArc
 50
89.9999571957
 51
180.0000428042
  0
ARC
  5
34D
100
AcDbEntity
  8
0
100
AcDbCircle
 62
7
  6
CONTINUOUS
 10
29.8533407844
 20
2.4064573553
 40
0.0024749995
100
AcDbArc
 50
359.9999571957
 51
90.0000428043
  0
ARC
  5
34E
100
AcDbEntity
  8
0
100
AcDbCircle
 62
7
  6
CONTINUOUS
 10
29.8533407844
 20
2.3866573406
 40
0.0024749995
100
AcDbArc
 50
269.9999571958
 51
0.0000428044
  0
ARC
  5
34F
100
AcDbEntity
  8
0
100
AcDbCircle
 62
7
  6
CONTINUOUS
 10
29.8354077707
 20
2.3817073415
 40
0.0024749995
100
AcDbArc
 50
89.9999571957
 51
180.0000428042
  0
ARC
  5
350
100
AcDbEntity
  8
0
100
AcDbCircle
 62
7
  6
CONTINUOUS
 10
29.6528546732
 20
2.3817073415
 40
0.0024749995
100
AcDbArc
 50
359.9999571957
 51
90.0000428043
  0
ARC
  5
351
100
AcDbEntity
  8
0
100
AcDbCircle
 62
7
  6
CONTINUOUS
 10
29.6342076592
 20
2.3866573406
 40
0.0024749995
100
AcDbArc
 50
179.9999571957
 51
270.0000428043
  0
ARC
  5
352
100
AcDbEntity
  8
0
100
AcDbCircle
 62
7
  6
CONTINUOUS
 10
29.6342076592
 20
2.4064573553
 40
0.0024749995
100
AcDbArc
 50
89.9999571957
 51
180.0000428043
  0
ARC
  5
353
100
AcDbEntity
  8
0
100
AcDbCircle
 62
7
  6
CONTINUOUS
 10
29.532371984
 20
2.4064573946
 40
0.0024749602
100
AcDbArc
 50
32.9172174468
 51
90.0087853097
  0
ARC
  5
354
100
AcDbEntity
  8
0
100
AcDbCircle
 62
7
  6
CONTINUOUS
 10
29.7346658515
 20
2.406458187
 40
0.0024741678
100
AcDbArc
 50
46.3477981899
 51
90.0031206039
  0
ARC
  5
355
100
AcDbEntity
  8
0
100
AcDbCircle
 62
7
  6
CONTINUOUS
 10
30.5082178439
 20
2.2263934443
 40
0.1825583387
100
AcDbArc
 50
79.8618509324
 51
89.1640948679
  0
ARC
  5
356
100
AcDbEntity
  8
0
100
AcDbCircle
 62
7
  6
CONTINUOUS
 10
30.4901231168
 20
2.2555010151
 40
0.117346916
100
AcDbArc
 50
58.614769177
 51
62.3737227606
  0
ARC
  5
357
100
AcDbEntity
  8
0
100
AcDbCircle
 62
7
  6
CONTINUOUS
 10
30.5189851722
 20
2.3263737837
 40
0.0459185159
100
AcDbArc
 50
15.6740290068
 51
20.9917271228
  0
ARC
  5
358
100
AcDbEntity
  8
0
100
AcDbCircle
 62
7
  6
CONTINUOUS
 10
30.4592749426
 20
2.3224452318
 40
0.0396099176
100
AcDbArc
 50
14.3201081283
 51
22.4984722084
  0
ARC
  5
359
100
AcDbEntity
  8
0
100
AcDbCircle
 62
7
  6
CONTINUOUS
 10
30.4779865962
 20
2.323137238
 40
0.0243676582
100
AcDbArc
 50
63.3666028271
 51
90.3937697637
  0
ARC
  5
35A
100
AcDbEntity
  8
0
100
AcDbCircle
 62
7
  6
CONTINUOUS
 10
30.5654812677
 20
2.3280006042
 40
0.0198837666
100
AcDbArc
 50
271.8586572978
 51
289.4131338543
  0
ARC
  5
35B
100
AcDbEntity
  8
0
100
AcDbCircle
 62
7
  6
CONTINUOUS
 10
30.5195674723
 20
2.3254494505
 40
0.0173408616
100
AcDbArc
 50
232.4713476722
 51
267.338189944
  0
ARC
  5
35C
100
AcDbEntity
  8
0
100
AcDbCircle
 62
7
  6
CONTINUOUS
 10
30.4748711291
 20
2.3106022984
 40
0.0024749995
100
AcDbArc
 50
269.9999571958
 51
0.0000428044
  0
ARC
  5
35D
100
AcDbEntity
  8
0
100
AcDbCircle
 62
7
  6
CONTINUOUS
 10
30.3613000624
 20
2.3106022984
 40
0.0024749995
100
AcDbArc
 50
179.9999571957
 51
270.0000428043
  0
ARC
  5
35E
100
AcDbEntity
  8
0
100
AcDbCircle
 62
7
  6
CONTINUOUS
 10
30.0787109094
 20
2.3106022984
 40
0.0024749995
100
AcDbArc
 50
269.9999571957
 51
0.0000428043
  0
ARC
  5
35F
100
AcDbEntity
  8
0
100
AcDbCircle
 62
7
  6
CONTINUOUS
 10
29.9581248425
 20
2.3106022984
 40
0.0024749995
100
AcDbArc
 50
269.9999571957
 51
0.0000428043
  0
ARC
  5
360
100
AcDbEntity
  8
0
100
AcDbCircle
 62
7
  6
CONTINUOUS
 10
29.8824607968
 20
2.3106022984
 40
0.0024749995
100
AcDbArc
 50
179.9999571957
 51
270.0000428043
  0
ARC
  5
361
100
AcDbEntity
  8
0
100
AcDbCircle
 62
7
  6
CONTINUOUS
 10
30.33239605
 20
2.3106022984
 40
0.0024749995
100
AcDbArc
 50
269.9999571957
 51
0.0000428042
  0
ARC
  5
362
100
AcDbEntity
  8
0
100
AcDbCircle
 62
7
  6
CONTINUOUS
 10
30.1291839337
 20
2.3106022984
 40
0.0024749995
100
AcDbArc
 50
179.9999571957
 51
270.0000428043
  0
ARC
  5
363
100
AcDbEntity
  8
0
100
AcDbCircle
 62
7
  6
CONTINUOUS
 10
30.0045047316
 20
2.3106014667
 40
0.0024741678
100
AcDbArc
 50
226.3477981898
 51
270.0031206038
  0
ARC
  5
364
100
AcDbEntity
  8
0
100
AcDbCircle
 62
7
  6
CONTINUOUS
 10
30.0463685896
 20
2.3527592604
 40
0.0024753014
100
AcDbArc
 50
226.3461263059
 51
0.0014637321
  0
ARC
  5
365
100
AcDbEntity
  8
0
100
AcDbCircle
 62
7
  6
CONTINUOUS
 10
29.9378081294
 20
2.367398395
 40
0.0024753014
100
AcDbArc
 50
46.3461263058
 51
180.0014637321
  0
ARC
  5
366
100
AcDbEntity
  8
0
100
AcDbCircle
 62
7
  6
CONTINUOUS
 10
29.9378078275
 20
2.3353523121
 40
0.0024749995
100
AcDbArc
 50
179.9999571957
 51
270.0000428043
  0
ARC
  5
367
100
AcDbEntity
  8
0
100
AcDbCircle
 62
7
  6
CONTINUOUS
 10
29.9581248425
 20
2.3304023131
 40
0.0024749995
100
AcDbArc
 50
359.9999571957
 51
90.0000428043
  0
ARC
  5
368
100
AcDbEntity
  8
0
100
AcDbCircle
 62
7
  6
CONTINUOUS
 10
29.8824607968
 20
2.3304023131
 40
0.0024749995
100
AcDbArc
 50
89.9999571957
 51
180.0000428042
  0
ARC
  5
369
100
AcDbEntity
  8
0
100
AcDbCircle
 62
7
  6
CONTINUOUS
 10
29.9011068109
 20
2.3353523121
 40
0.0024749995
100
AcDbArc
 50
269.9999571957
 51
0.0000428043
  0
ARC
  5
36A
100
AcDbEntity
  8
0
100
AcDbCircle
 62
7
  6
CONTINUOUS
 10
30.2201229841
 20
2.3469023222
 40
0.0024749995
100
AcDbArc
 50
89.9999571957
 51
180.0000428042
  0
ARC
  5
36B
100
AcDbEntity
  8
0
100
AcDbCircle
 62
7
  6
CONTINUOUS
 10
30.2201229841
 20
2.3353523121
 40
0.0024749995
100
AcDbArc
 50
179.9999571957
 51
270.0000428043
  0
ARC
  5
36C
100
AcDbEntity
  8
0
100
AcDbCircle
 62
7
  6
CONTINUOUS
 10
30.1291839337
 20
2.3304023131
 40
0.0024749995
100
AcDbArc
 50
89.9999571958
 51
180.0000428044
  0
ARC
  5
36D
100
AcDbEntity
  8
0
100
AcDbCircle
 62
7
  6
CONTINUOUS
 10
30.1531069506
 20
2.3353523121
 40
0.0024749995
100
AcDbArc
 50
269.9999571957
 51
0.0000428042
  0
ARC
  5
36E
100
AcDbEntity
  8
0
100
AcDbCircle
 62
7
  6
CONTINUOUS
 10
30.2201229841
 20
2.3701573314
 40
0.0024749995
100
AcDbArc
 50
179.9999571957
 51
270.0000428043
  0
ARC
  5
36F
100
AcDbEntity
  8
0
100
AcDbCircle
 62
7
  6
CONTINUOUS
 10
30.0463688914
 20
2.3817073415
 40
0.0024749995
100
AcDbArc
 50
359.9999571957
 51
90.0000428043
  0
ARC
  5
370
100
AcDbEntity
  8
0
100
AcDbCircle
 62
7
  6
CONTINUOUS
 10
30.0275928773
 20
2.3866573406
 40
0.0024749995
100
AcDbArc
 50
179.9999571957
 51
270.0000428043
  0
ARC
  5
371
100
AcDbEntity
  8
0
100
AcDbCircle
 62
7
  6
CONTINUOUS
 10
30.0275928773
 20
2.4064573553
 40
0.0024749995
100
AcDbArc
 50
89.9999571958
 51
180.0000428044
  0
ARC
  5
372
100
AcDbEntity
  8
0
100
AcDbCircle
 62
7
  6
CONTINUOUS
 10
30.1015939221
 20
2.4064573553
 40
0.0024749995
100
AcDbArc
 50
359.9999571957
 51
90.0000428043
  0
ARC
  5
373
100
AcDbEntity
  8
0
100
AcDbCircle
 62
7
  6
CONTINUOUS
 10
30.1015939221
 20
2.3866573406
 40
0.0024749995
100
AcDbArc
 50
269.9999571957
 51
0.0000428042
  0
ARC
  5
374
100
AcDbEntity
  8
0
100
AcDbCircle
 62
7
  6
CONTINUOUS
 10
30.0836609084
 20
2.3817073415
 40
0.0024749995
100
AcDbArc
 50
89.9999571957
 51
180.0000428042
  0
ARC
  5
375
100
AcDbEntity
  8
0
100
AcDbCircle
 62
7
  6
CONTINUOUS
 10
29.9011068109
 20
2.3817073415
 40
0.0024749995
100
AcDbArc
 50
359.9999571957
 51
90.0000428043
  0
ARC
  5
376
100
AcDbEntity
  8
0
100
AcDbCircle
 62
7
  6
CONTINUOUS
 10
29.8824607968
 20
2.3866573406
 40
0.0024749995
100
AcDbArc
 50
179.9999571957
 51
270.0000428043
  0
ARC
  5
377
100
AcDbEntity
  8
0
100
AcDbCircle
 62
7
  6
CONTINUOUS
 10
29.8824607968
 20
2.4064573553
 40
0.0024749995
100
AcDbArc
 50
89.9999571957
 51
180.0000428042
  0
ARC
  5
378
100
AcDbEntity
  8
0
100
AcDbCircle
 62
7
  6
CONTINUOUS
 10
30.1531069506
 20
2.3817073415
 40
0.0024749995
100
AcDbArc
 50
359.9999571957
 51
90.0000428043
  0
ARC
  5
379
100
AcDbEntity
  8
0
100
AcDbCircle
 62
7
  6
CONTINUOUS
 10
30.1291839337
 20
2.3866573406
 40
0.0024749995
100
AcDbArc
 50
179.9999571957
 51
270.0000428043
  0
ARC
  5
37A
100
AcDbEntity
  8
0
100
AcDbCircle
 62
7
  6
CONTINUOUS
 10
30.1291839337
 20
2.4064573553
 40
0.0024749995
100
AcDbArc
 50
89.9999571958
 51
180.0000428044
  0
ARC
  5
37B
100
AcDbEntity
  8
0
100
AcDbCircle
 62
7
  6
CONTINUOUS
 10
30.2201229841
 20
2.3817073415
 40
0.0024749995
100
AcDbArc
 50
89.9999571957
 51
180.0000428042
  0
ARC
  5
37C
100
AcDbEntity
  8
0
100
AcDbCircle
 62
7
  6
CONTINUOUS
 10
29.9829189891
 20
2.406458187
 40
0.0024741678
100
AcDbArc
 50
46.3477981898
 51
90.0031206038
  0
ARC
  5
37D
100
AcDbEntity
  8
0
100
AcDbCircle
 62
7
  6
CONTINUOUS
 10
30.5425475033
 20
2.3381486337
 40
0.044722495
100
AcDbArc
 50
195.531588407
 51
204.7624440448
  0
ARC
  5
37E
100
AcDbEntity
  8
0
100
AcDbCircle
 62
7
  6
CONTINUOUS
 10
30.5345221342
 20
2.3672169603
 40
0.039319019
100
AcDbArc
 50
59.1202086415
 51
81.4730239328
  0
ARC
  5
37F
100
AcDbEntity
  8
0
100
AcDbCircle
 62
7
  6
CONTINUOUS
 10
30.5597433003
 20
2.3455873536
 40
0.0383802683
100
AcDbArc
 50
288.7656836787
 51
309.6104317088
  0
ARC
  5
380
100
AcDbEntity
  8
0
100
AcDbCircle
 62
7
  6
CONTINUOUS
 10
30.5401815304
 20
2.3735516295
 40
0.0310192946
100
AcDbArc
 50
34.7540871
 51
62.0879016178
  0
ARC
  5
381
100
AcDbEntity
  8
0
100
AcDbCircle
 62
7
  6
CONTINUOUS
 10
30.4854682464
 20
2.3557278621
 40
0.0284963867
100
AcDbArc
 50
70.3834917948
 51
86.8922743861
  0
ARC
  5
382
100
AcDbEntity
  8
0
100
AcDbCircle
 62
7
  6
CONTINUOUS
 10
30.5667354857
 20
2.3379861357
 40
0.0280715479
100
AcDbArc
 50
308.5071794988
 51
332.2400656899
  0
ARC
  5
383
100
AcDbEntity
  8
0
100
AcDbCircle
 62
7
  6
CONTINUOUS
 10
30.5368857139
 20
2.3335551921
 40
0.0266349791
100
AcDbArc
 50
20.3630922153
 51
37.9727053099
  0
ARC
  5
384
100
AcDbEntity
  8
0
100
AcDbCircle
 62
7
  6
CONTINUOUS
 10
30.5380060695
 20
2.3336282752
 40
0.0257145923
100
AcDbArc
 50
39.3804255939
 51
59.0361096173
  0
ARC
  5
385
100
AcDbEntity
  8
0
100
AcDbCircle
 62
7
  6
CONTINUOUS
 10
30.5226660372
 20
2.3312997545
 40
0.0238935861
100
AcDbArc
 50
209.8247607259
 51
235.1255079367
  0
ARC
  5
386
100
AcDbEntity
  8
0
100
AcDbCircle
 62
7
  6
CONTINUOUS
 10
30.5760424965
 20
2.3330916303
 40
0.0175560065
100
AcDbArc
 50
332.2279060967
 51
359.6595469939
  0
ARC
  5
387
100
AcDbEntity
  8
0
100
AcDbCircle
 62
7
  6
CONTINUOUS
 10
30.4820412509
 20
2.3314168585
 40
0.0151491919
100
AcDbArc
 50
24.098260853
 51
63.0369451818
  0
ARC
  5
388
100
AcDbEntity
  8
0
100
AcDbCircle
 62
7
  6
CONTINUOUS
 10
30.5775555073
 20
2.3420167666
 40
0.0147197649
100
AcDbArc
 50
192.7054516565
 51
206.0594861022
  0
ARC
  5
389
100
AcDbEntity
  8
0
100
AcDbCircle
 62
7
  6
CONTINUOUS
 10
30.4903278565
 20
2.368769595
 40
0.0145814632
100
AcDbArc
 50
54.6746025112
 51
71.1660573124
  0
ARC
  5
38A
100
AcDbEntity
  8
0
100
AcDbCircle
 62
7
  6
CONTINUOUS
 10
30.5681966244
 20
2.3465129721
 40
0.0132488022
100
AcDbArc
 50
270.266200055
 51
281.2404888597
  0
ARC
  5
38B
100
AcDbEntity
  8
0
100
AcDbCircle
 62
7
  6
CONTINUOUS
 10
30.5645908704
 20
2.3416694937
 40
0.0119498009
100
AcDbArc
 50
340.7883861657
 51
1.1691452593
  0
ARC
  5
38C
100
AcDbEntity
  8
0
100
AcDbCircle
 62
7
  6
CONTINUOUS
 10
30.4913804799
 20
2.3798114865
 40
0.0110815393
100
AcDbArc
 50
306.758405961
 51
320.4502234234
  0
ARC
  5
38D
100
AcDbEntity
  8
0
100
AcDbCircle
 62
7
  6
CONTINUOUS
 10
30.5693908654
 20
2.3407762785
 40
0.0073895522
100
AcDbArc
 50
280.8288201977
 51
305.0837508495
  0
ARC
  5
38E
100
AcDbEntity
  8
0
100
AcDbCircle
 62
7
  6
CONTINUOUS
 10
30.5697920471
 20
2.3399254321
 40
0.0064647042
100
AcDbArc
 50
306.5086174083
 51
340.2162360092
  0
ARC
  5
38F
100
AcDbEntity
  8
0
100
AcDbCircle
 62
7
  6
CONTINUOUS
 10
30.4954573475
 20
2.3756235202
 40
0.0060275915
100
AcDbArc
 50
20.9055592135
 51
56.7851676243
  0
ARC
  5
390
100
AcDbEntity
  8
0
100
AcDbCircle
 62
7
  6
CONTINUOUS
 10
30.495551096
 20
2.3765775787
 40
0.0058087709
100
AcDbArc
 50
318.8515287446
 51
353.6422345323
  0
ARC
  5
391
100
AcDbEntity
  8
0
100
AcDbCircle
 62
7
  6
CONTINUOUS
 10
30.5690611702
 20
2.3378082802
 40
0.0052403997
100
AcDbArc
 50
205.5232099488
 51
227.5054868079
  0
ARC
  5
392
100
AcDbEntity
  8
0
100
AcDbCircle
 62
7
  6
CONTINUOUS
 10
30.4967579063
 20
2.3762838024
 40
0.0045795888
100
AcDbArc
 50
355.6235353944
 51
18.9942678268
  0
ARC
  5
393
100
AcDbEntity
  8
0
100
AcDbCircle
 62
7
  6
CONTINUOUS
 10
30.5673328709
 20
2.3359929075
 40
0.0027347709
100
AcDbArc
 50
228.5117626738
 51
266.1485845755
  0
ARC
  5
394
100
AcDbEntity
  8
0
100
AcDbCircle
 62
7
  6
CONTINUOUS
 10
30.4502121117
 20
2.3450293212
 40
0.0024749995
100
AcDbArc
 50
89.9999571958
 51
180.0000428044
  0
ARC
  5
395
100
AcDbEntity
  8
0
100
AcDbCircle
 62
7
  6
CONTINUOUS
 10
30.4502121117
 20
2.3353303121
 40
0.0024749995
100
AcDbArc
 50
179.9999571957
 51
270.0000428043
  0
ARC
  5
396
100
AcDbEntity
  8
0
100
AcDbCircle
 62
7
  6
CONTINUOUS
 10
30.4748711291
 20
2.3303803131
 40
0.0024749995
100
AcDbArc
 50
359.9999571957
 51
90.0000428043
  0
ARC
  5
397
100
AcDbEntity
  8
0
100
AcDbCircle
 62
7
  6
CONTINUOUS
 10
30.3613000624
 20
2.3304023131
 40
0.0024749995
100
AcDbArc
 50
89.9999571957
 51
180.0000428042
  0
ARC
  5
398
100
AcDbEntity
  8
0
100
AcDbCircle
 62
7
  6
CONTINUOUS
 10
30.3840460787
 20
2.3353523121
 40
0.0024749995
100
AcDbArc
 50
269.9999571957
 51
0.0000428042
  0
ARC
  5
399
100
AcDbEntity
  8
0
100
AcDbCircle
 62
7
  6
CONTINUOUS
 10
30.5790131831
 20
2.3445393209
 40
0.0024749995
100
AcDbArc
 50
89.9999571957
 51
180.0000428043
  0
ARC
  5
39A
100
AcDbEntity
  8
0
100
AcDbCircle
 62
7
  6
CONTINUOUS
 10
30.5911231935
 20
2.3445393209
 40
0.0024749995
100
AcDbArc
 50
359.9999571957
 51
90.0000428043
  0
ARC
  5
39B
100
AcDbEntity
  8
0
100
AcDbCircle
 62
7
  6
CONTINUOUS
 10
30.4502121117
 20
2.3689823308
 40
0.0024749995
100
AcDbArc
 50
179.9999571957
 51
270.0000428043
  0
ARC
  5
39C
100
AcDbEntity
  8
0
100
AcDbCircle
 62
7
  6
CONTINUOUS
 10
30.2851270238
 20
2.3353523121
 40
0.0024749995
100
AcDbArc
 50
269.9999571957
 51
0.0000428043
  0
ARC
  5
39D
100
AcDbEntity
  8
0
100
AcDbCircle
 62
7
  6
CONTINUOUS
 10
30.2900770229
 20
2.3436023204
 40
0.0024749995
100
AcDbArc
 50
89.9999571957
 51
180.0000428042
  0
ARC
  5
39E
100
AcDbEntity
  8
0
100
AcDbCircle
 62
7
  6
CONTINUOUS
 10
30.33239605
 20
2.3436023204
 40
0.0024749995
100
AcDbArc
 50
359.9999571957
 51
90.0000428043
  0
ARC
  5
39F
100
AcDbEntity
  8
0
100
AcDbCircle
 62
7
  6
CONTINUOUS
 10
30.3309770493
 20
2.3734573333
 40
0.0024749995
100
AcDbArc
 50
269.9999571957
 51
0.0000428042
  0
ARC
  5
3A0
100
AcDbEntity
  8
0
100
AcDbCircle
 62
7
  6
CONTINUOUS
 10
30.2891130223
 20
2.3734573333
 40
0.0024749995
100
AcDbArc
 50
179.9999571957
 51
270.0000428043
  0
ARC
  5
3A1
100
AcDbEntity
  8
0
100
AcDbCircle
 62
7
  6
CONTINUOUS
 10
30.2552900073
 20
2.3652073324
 40
0.0024749995
100
AcDbArc
 50
359.9999571957
 51
90.0000428043
  0
ARC
  5
3A2
100
AcDbEntity
  8
0
100
AcDbCircle
 62
7
  6
CONTINUOUS
 10
30.2552900073
 20
2.3518523213
 40
0.0024749995
100
AcDbArc
 50
269.9999571957
 51
0.0000428042
  0
ARC
  5
3A3
100
AcDbEntity
  8
0
100
AcDbCircle
 62
7
  6
CONTINUOUS
 10
30.5138242828
 20
2.4321551202
 40
0.0789082104
100
AcDbArc
 50
292.906155071
 51
305.2574666259
  0
ARC
  5
3A4
100
AcDbEntity
  8
0
100
AcDbCircle
 62
7
  6
CONTINUOUS
 10
30.5441562204
 20
2.3889482705
 40
0.0261183659
100
AcDbArc
 50
305.6373831893
 51
329.9727629745
  0
ARC
  5
3A5
100
AcDbEntity
  8
0
100
AcDbCircle
 62
7
  6
CONTINUOUS
 10
30.4838237832
 20
2.3919459623
 40
0.0254407115
100
AcDbArc
 50
270.7327484175
 51
290.441894219
  0
ARC
  5
3A6
100
AcDbEntity
  8
0
100
AcDbCircle
 62
7
  6
CONTINUOUS
 10
30.4857512889
 20
2.387552315
 40
0.0206523367
100
AcDbArc
 50
289.6883413472
 51
306.4184925496
  0
ARC
  5
3A7
100
AcDbEntity
  8
0
100
AcDbCircle
 62
7
  6
CONTINUOUS
 10
30.5518702816
 20
2.3821012306
 40
0.0165459396
100
AcDbArc
 50
1.548452892
 51
33.5033152417
  0
ARC
  5
3A8
100
AcDbEntity
  8
0
100
AcDbCircle
 62
7
  6
CONTINUOUS
 10
30.5551668767
 20
2.3822696828
 40
0.0132462337
100
AcDbArc
 50
331.1510006998
 51
1.205404301
  0
ARC
  5
3A9
100
AcDbEntity
  8
0
100
AcDbCircle
 62
7
  6
CONTINUOUS
 10
30.3840460787
 20
2.3817073415
 40
0.0024749995
100
AcDbArc
 50
359.9999571957
 51
90.0000428043
  0
ARC
  5
3AA
100
AcDbEntity
  8
0
100
AcDbCircle
 62
7
  6
CONTINUOUS
 10
30.3613000624
 20
2.3866573406
 40
0.0024749995
100
AcDbArc
 50
179.9999571957
 51
270.0000428043
  0
ARC
  5
3AB
100
AcDbEntity
  8
0
100
AcDbCircle
 62
7
  6
CONTINUOUS
 10
30.3613000624
 20
2.4064573553
 40
0.0024749995
100
AcDbArc
 50
89.9999571957
 51
180.0000428042
  0
ARC
  5
3AC
100
AcDbEntity
  8
0
100
AcDbCircle
 62
7
  6
CONTINUOUS
 10
30.4502121117
 20
2.3817073415
 40
0.0024749995
100
AcDbArc
 50
89.9999571958
 51
180.0000428044
  0
ARC
  5
3AD
100
AcDbEntity
  8
0
100
AcDbCircle
 62
7
  6
CONTINUOUS
 10
30.3309770493
 20
2.4064573553
 40
0.0024749995
100
AcDbArc
 50
359.9999571957
 51
90.0000428043
  0
ARC
  5
3AE
100
AcDbEntity
  8
0
100
AcDbCircle
 62
7
  6
CONTINUOUS
 10
30.2841630233
 20
2.3817073415
 40
0.0024749995
100
AcDbArc
 50
359.9999571957
 51
90.0000428043
  0
ELLIPSE
  5
3AF
100
AcDbEntity
  8
0
100
AcDbEllipse
 62
7
  6
CONTINUOUS
 10
29.8665327899
 20
2.3572783261
 30
0.0
 11
-0.8250004575
 21
0.0
 31
0.0
 40
0.218572
 41
0.0
 42
6.2831853072
  0
HATCH
  5
3B0
100
AcDbEntity
  8
0
100
AcDbHatch
 62
7
  6
CONTINUOUS
 10
0.0
 20
0.0
 30
0.0
210
0.0
220
0.0
230
1.0
  2
XSEC0003
 70
1
 71
1
 91
11
 92
1
 93
57
 72
2
 10
30.5195674723
 20
2.3254494505
 40
0.0173408616
 50
232.4713476722
 51
267.338189944
 73
1
 72
2
 10
30.5226660372
 20
2.3312997545
 40
0.0238935861
 50
209.8247607259
 51
235.1255079367
 73
1
 72
2
 10
30.5425475033
 20
2.3381486337
 40
0.044722495
 50
195.531588407
 51
204.7624440448
 73
1
 72
1
 10
30.4994581408
 20
2.3261733089
 11
30.4976541398
 21
2.3322423123
 72
2
 10
30.4592749426
 20
2.3224452318
 40
0.0396099176
 50
14.3201081283
 51
22.4984722084
 73
1
 72
2
 10
30.4820412509
 20
2.3314168585
 40
0.0151491919
 50
24.098260853
 51
63.0369451818
 73
1
 72
2
 10
30.4779865962
 20
2.323137238
 40
0.0243676582
 50
63.3666028271
 51
90.3937697637
 73
1
 72
1
 10
30.4778191288
 20
2.3475043207
 11
30.4502121135
 21
2.3475043207
 72
2
 10
30.4502121117
 20
2.3450293212
 40
0.0024749995
 50
89.9999571958
 51
180.0000428044
 73
1
 72
1
 10
30.4477371122
 20
2.3450293194
 11
30.4477371122
 21
2.335330314
 72
2
 10
30.4502121117
 20
2.3353303121
 40
0.0024749995
 50
179.9999571957
 51
270.0000428043
 73
1
 72
1
 10
30.4502121135
 20
2.3328553126
 11
30.4748711272
 21
2.3328553126
 72
2
 10
30.4748711291
 20
2.3303803131
 40
0.0024749995
 50
359.9999571957
 51
90.0000428042
 73
1
 72
1
 10
30.4773461286
 20
2.3303803112
 11
30.4773461286
 21
2.3106023003
 72
2
 10
30.4748711291
 20
2.3106022984
 40
0.0024749995
 50
269.9999571958
 51
0.0000428044
 73
1
 72
1
 10
30.4748711272
 20
2.3081272989
 11
30.3613000642
 21
2.3081272989
 72
2
 10
30.3613000624
 20
2.3106022984
 40
0.0024749995
 50
179.9999571957
 51
270.0000428043
 73
1
 72
1
 10
30.3588250629
 20
2.3106023003
 11
30.3588250629
 21
2.3304023112
 72
2
 10
30.3613000624
 20
2.3304023131
 40
0.0024749995
 50
89.9999571956
 51
180.0000428042
 73
1
 72
1
 10
30.3613000642
 20
2.3328773126
 11
30.3840460768
 21
2.3328773126
 72
2
 10
30.3840460787
 20
2.3353523121
 40
0.0024749995
 50
269.9999571956
 51
0.0000428042
 73
1
 72
1
 10
30.3865210782
 20
2.335352314
 11
30.3865210782
 21
2.3817073397
 72
2
 10
30.3840460787
 20
2.3817073415
 40
0.0024749995
 50
359.9999571957
 51
90.0000428042
 73
1
 72
1
 10
30.3840460768
 20
2.3841823411
 11
30.3613000642
 21
2.3841823411
 72
2
 10
30.3613000624
 20
2.3866573406
 40
0.0024749995
 50
179.9999571957
 51
270.0000428043
 73
1
 72
1
 10
30.3588250629
 20
2.3866573424
 11
30.3588250629
 21
2.4064573534
 72
2
 10
30.3613000624
 20
2.4064573553
 40
0.0024749995
 50
89.9999571956
 51
180.0000428042
 73
1
 72
1
 10
30.3613000642
 20
2.4089323548
 11
30.5108811472
 21
2.4089323548
 72
2
 10
30.5082178439
 20
2.2263934443
 40
0.1825583387
 50
79.8618509324
 51
89.1640948679
 73
1
 72
2
 10
30.5345221342
 20
2.3672169603
 40
0.039319019
 50
59.1202086415
 51
81.4730239328
 73
1
 72
2
 10
30.5401815304
 20
2.3735516295
 40
0.0310192946
 50
34.7540871
 51
62.0879016178
 73
1
 72
2
 10
30.5518702816
 20
2.3821012306
 40
0.0165459396
 50
1.548452892
 51
33.5033152417
 73
1
 72
2
 10
30.5551668767
 20
2.3822696828
 40
0.0132462337
 50
331.1510006998
 51
1.205404301
 73
1
 72
2
 10
30.5441562204
 20
2.3889482705
 40
0.0261183659
 50
305.6373831893
 51
329.9727629745
 73
1
 72
2
 10
30.5138242828
 20
2.4321551202
 40
0.0789082104
 50
292.9061550709
 51
305.2574666259
 73
1
 72
2
 10
30.4901231168
 20
2.2555010151
 40
0.117346916
 50
58.614769177
 51
62.3737227606
 73
1
 72
2
 10
30.5380060695
 20
2.3336282752
 40
0.0257145923
 50
39.3804255939
 51
59.0361096173
 73
1
 72
2
 10
30.5368857139
 20
2.3335551921
 40
0.0266349791
 50
20.3630922153
 51
37.9727053099
 73
1
 72
2
 10
30.5189851722
 20
2.3263737837
 40
0.0459185159
 50
15.6740290068
 51
20.9917271228
 73
1
 72
2
 10
30.5775555073
 20
2.3420167666
 40
0.0147197649
 50
192.7054516565
 51
206.0594861022
 73
1
 72
2
 10
30.5690611702
 20
2.3378082802
 40
0.0052403997
 50
205.5232099488
 51
227.5054868079
 73
1
 72
2
 10
30.5673328709
 20
2.3359929075
 40
0.0027347709
 50
228.5117626738
 51
266.1485845755
 73
1
 72
1
 10
30.5671491784
 20
2.3332643128
 11
30.568258179
 21
2.3332643128
 72
2
 10
30.5681966244
 20
2.3465129721
 40
0.0132488022
 50
270.266200055
 51
281.2404888597
 73
1
 72
2
 10
30.5693908654
 20
2.3407762785
 40
0.0073895522
 50
280.8288201977
 51
305.0837508495
 73
1
 72
2
 10
30.5697920471
 20
2.3399254321
 40
0.0064647042
 50
306.5086174083
 51
340.2162360092
 73
1
 72
2
 10
30.5645908704
 20
2.3416694937
 40
0.0119498009
 50
340.7883861657
 51
1.1691452593
 73
1
 72
1
 10
30.5765381836
 20
2.3419133176
 11
30.5765381836
 21
2.3445393191
 72
2
 10
30.5790131831
 20
2.3445393209
 40
0.0024749995
 50
89.9999571958
 51
180.0000428043
 73
1
 72
1
 10
30.579013185
 20
2.3470143205
 11
30.5911231917
 21
2.3470143205
 72
2
 10
30.5911231935
 20
2.3445393209
 40
0.0024749995
 50
359.9999571957
 51
90.0000428042
 73
1
 72
1
 10
30.5935981931
 20
2.3445393191
 11
30.5935981931
 21
2.3329873127
 72
2
 10
30.5760424965
 20
2.3330916303
 40
0.0175560065
 50
332.2279060967
 51
359.6595469939
 73
1
 72
2
 10
30.5667354857
 20
2.3379861357
 40
0.0280715479
 50
308.5071794988
 51
332.2400656899
 73
1
 72
2
 10
30.5597433003
 20
2.3455873536
 40
0.0383802683
 50
288.7656836787
 51
309.6104317088
 73
1
 72
2
 10
30.5654812677
 20
2.3280006042
 40
0.0198837666
 50
271.8586572978
 51
289.4131338543
 73
1
 72
1
 10
30.5661261778
 20
2.3081272989
 11
30.5187621516
 21
2.3081272989
 97
267
330
2A5
330
2A6
330
2A7
330
2A8
330
2A9
330
2AA
330
2AB
330
2AC
330
2AD
330
2AE
330
2AF
330
2B0
330
2B1
330
2B2
330
2B3
330
2B4
330
2B5
330
2B6
330
2B7
330
2B8
330
2B9
330
2BA
330
2BB
330
2BC
330
2BD
330
2BE
330
2BF
330
2C0
330
2C1
330
2C2
330
2C3
330
2C4
330
2C5
330
2C6
330
2C7
330
2C8
330
2C9
330
2CA
330
2CB
330
2CC
330
2CD
330
2CE
330
2CF
330
2D0
330
2D1
330
2D2
330
2D3
330
2D4
330
2D5
330
2D6
330
2D7
330
2D8
330
2D9
330
2DA
330
2DB
330
2DC
330
2DD
330
2DE
330
2DF
330
2E0
330
2E1
330
2E2
330
2E3
330
2E4
330
2E5
330
2E6
330
2E7
330
2E8
330
2E9
330
2EA
330
2EB
330
2EC
330
2ED
330
2EE
330
2EF
330
2F0
330
2F1
330
2F2
330
2F3
330
2F4
330
2F5
330
2F6
330
2F7
330
2F8
330
2F9
330
2FA
330
2FB
330
2FC
330
2FD
330
2FE
330
2FF
330
300
330
301
330
302
330
303
330
304
330
305
330
306
330
307
330
308
330
309
330
30A
330
30B
330
30C
330
30D
330
30E
330
30F
330
310
330
311
330
312
330
313
330
314
330
315
330
316
330
317
330
318
330
319
330
31A
330
31B
330
31C
330
31D
330
31E
330
31F
330
320
330
321
330
322
330
323
330
324
330
325
330
326
330
327
330
328
330
329
330
32A
330
32B
330
32C
330
32D
330
32E
330
32F
330
330
330
331
330
332
330
333
330
334
330
335
330
336
330
337
330
338
330
339
330
33A
330
33B
330
33C
330
33D
330
33E
330
33F
330
340
330
341
330
342
330
343
330
344
330
345
330
346
330
347
330
348
330
349
330
34A
330
34B
330
34C
330
34D
330
34E
330
34F
330
350
330
351
330
352
330
353
330
354
330
355
330
356
330
357
330
358
330
359
330
35A
330
35B
330
35C
330
35D
330
35E
330
35F
330
360
330
361
330
362
330
363
330
364
330
365
330
366
330
367
330
368
330
369
330
36A
330
36B
330
36C
330
36D
330
36E
330
36F
330
370
330
371
330
372
330
373
330
374
330
375
330
376
330
377
330
378
330
379
330
37A
330
37B
330
37C
330
37D
330
37E
330
37F
330
380
330
381
330
382
330
383
330
384
330
385
330
386
330
387
330
388
330
389
330
38A
330
38B
330
38C
330
38D
330
38E
330
38F
330
390
330
391
330
392
330
393
330
394
330
395
330
396
330
397
330
398
330
399
330
39A
330
39B
330
39C
330
39D
330
39E
330
39F
330
3A0
330
3A1
330
3A2
330
3A3
330
3A4
330
3A5
330
3A6
330
3A7
330
3A8
330
3A9
330
3AA
330
3AB
330
3AC
330
3AD
330
3AE
330
3AF
 92
1
 93
40
 72
2
 10
30.1291839337
 20
2.3106022984
 40
0.0024749995
 50
179.9999571957
 51
270.0000428043
 73
1
 72
1
 10
30.1267089341
 20
2.3106023003
 11
30.1267089341
 21
2.3304023112
 72
2
 10
30.1291839337
 20
2.3304023131
 40
0.0024749995
 50
89.9999571958
 51
180.0000428044
 73
1
 72
1
 10
30.1291839355
 20
2.3328773126
 11
30.1531069488
 21
2.3328773126
 72
2
 10
30.1531069506
 20
2.3353523121
 40
0.0024749995
 50
269.9999571956
 51
0.0000428042
 73
1
 72
1
 10
30.1555819501
 20
2.335352314
 11
30.1555819501
 21
2.3817073397
 72
2
 10
30.1531069506
 20
2.3817073415
 40
0.0024749995
 50
359.9999571957
 51
90.0000428043
 73
1
 72
1
 10
30.1531069488
 20
2.3841823411
 11
30.1291839355
 21
2.3841823411
 72
2
 10
30.1291839337
 20
2.3866573406
 40
0.0024749995
 50
179.9999571957
 51
270.0000428043
 73
1
 72
1
 10
30.1267089341
 20
2.3866573424
 11
30.1267089341
 21
2.4064573534
 72
2
 10
30.1291839337
 20
2.4064573553
 40
0.0024749995
 50
89.9999571958
 51
180.0000428044
 73
1
 72
1
 10
30.1291839355
 20
2.4089323548
 11
30.3309770474
 21
2.4089323548
 72
2
 10
30.3309770493
 20
2.4064573553
 40
0.0024749995
 50
359.9999571957
 51
90.0000428042
 73
1
 72
1
 10
30.3334520488
 20
2.4064573534
 11
30.3334520488
 21
2.3734573351
 72
2
 10
30.3309770493
 20
2.3734573333
 40
0.0024749995
 50
269.9999571957
 51
0.0000428042
 73
1
 72
1
 10
30.3309770474
 20
2.3709823337
 11
30.2891130242
 21
2.3709823337
 72
2
 10
30.2891130223
 20
2.3734573333
 40
0.0024749995
 50
179.9999571957
 51
270.0000428042
 73
1
 72
1
 10
30.2866380228
 20
2.3734573351
 11
30.2866380228
 21
2.3817073397
 72
2
 10
30.2841630233
 20
2.3817073415
 40
0.0024749995
 50
359.9999571957
 51
90.0000428042
 73
1
 72
1
 10
30.2841630215
 20
2.3841823411
 11
30.2201229859
 21
2.3841823411
 72
2
 10
30.2201229841
 20
2.3817073415
 40
0.0024749995
 50
89.9999571957
 51
180.0000428042
 73
1
 72
1
 10
30.2176479846
 20
2.3817073397
 11
30.2176479846
 21
2.3701573333
 72
2
 10
30.2201229841
 20
2.3701573314
 40
0.0024749995
 50
179.9999571957
 51
270.0000428042
 73
1
 72
1
 10
30.2201229859
 20
2.3676823319
 11
30.2552900054
 21
2.3676823319
 72
2
 10
30.2552900073
 20
2.3652073324
 40
0.0024749995
 50
359.9999571957
 51
90.0000428042
 73
1
 72
1
 10
30.2577650068
 20
2.3652073305
 11
30.2577650068
 21
2.3518523231
 72
2
 10
30.2552900073
 20
2.3518523213
 40
0.0024749995
 50
269.9999571956
 51
0.0000428042
 73
1
 72
1
 10
30.2552900054
 20
2.3493773218
 11
30.2201229859
 21
2.3493773218
 72
2
 10
30.2201229841
 20
2.3469023222
 40
0.0024749995
 50
89.9999571957
 51
180.0000428042
 73
1
 72
1
 10
30.2176479846
 20
2.3469023204
 11
30.2176479846
 21
2.335352314
 72
2
 10
30.2201229841
 20
2.3353523121
 40
0.0024749995
 50
179.9999571957
 51
270.0000428042
 73
1
 72
1
 10
30.2201229859
 20
2.3328773126
 11
30.285127022
 21
2.3328773126
 72
2
 10
30.2851270238
 20
2.3353523121
 40
0.0024749995
 50
269.9999571957
 51
0.0000428043
 73
1
 72
1
 10
30.2876020234
 20
2.335352314
 11
30.2876020234
 21
2.3436023186
 72
2
 10
30.2900770229
 20
2.3436023204
 40
0.0024749995
 50
89.9999571956
 51
180.0000428042
 73
1
 72
1
 10
30.2900770247
 20
2.3460773199
 11
30.3323960482
 21
2.3460773199
 72
2
 10
30.33239605
 20
2.3436023204
 40
0.0024749995
 50
359.9999571957
 51
90.0000428043
 73
1
 72
1
 10
30.3348710496
 20
2.3436023186
 11
30.3348710496
 21
2.3106023003
 72
2
 10
30.33239605
 20
2.3106022984
 40
0.0024749995
 50
269.9999571956
 51
0.0000428042
 73
1
 72
1
 10
30.3323960482
 20
2.3081272989
 11
30.1291839355
 21
2.3081272989
 97
267
330
2A5
330
2A6
330
2A7
330
2A8
330
2A9
330
2AA
330
2AB
330
2AC
330
2AD
330
2AE
330
2AF
330
2B0
330
2B1
330
2B2
330
2B3
330
2B4
330
2B5
330
2B6
330
2B7
330
2B8
330
2B9
330
2BA
330
2BB
330
2BC
330
2BD
330
2BE
330
2BF
330
2C0
330
2C1
330
2C2
330
2C3
330
2C4
330
2C5
330
2C6
330
2C7
330
2C8
330
2C9
330
2CA
330
2CB
330
2CC
330
2CD
330
2CE
330
2CF
330
2D0
330
2D1
330
2D2
330
2D3
330
2D4
330
2D5
330
2D6
330
2D7
330
2D8
330
2D9
330
2DA
330
2DB
330
2DC
330
2DD
330
2DE
330
2DF
330
2E0
330
2E1
330
2E2
330
2E3
330
2E4
330
2E5
330
2E6
330
2E7
330
2E8
330
2E9
330
2EA
330
2EB
330
2EC
330
2ED
330
2EE
330
2EF
330
2F0
330
2F1
330
2F2
330
2F3
330
2F4
330
2F5
330
2F6
330
2F7
330
2F8
330
2F9
330
2FA
330
2FB
330
2FC
330
2FD
330
2FE
330
2FF
330
300
330
301
330
302
330
303
330
304
330
305
330
306
330
307
330
308
330
309
330
30A
330
30B
330
30C
330
30D
330
30E
330
30F
330
310
330
311
330
312
330
313
330
314
330
315
330
316
330
317
330
318
330
319
330
31A
330
31B
330
31C
330
31D
330
31E
330
31F
330
320
330
321
330
322
330
323
330
324
330
325
330
326
330
327
330
328
330
329
330
32A
330
32B
330
32C
330
32D
330
32E
330
32F
330
330
330
331
330
332
330
333
330
334
330
335
330
336
330
337
330
338
330
339
330
33A
330
33B
330
33C
330
33D
330
33E
330
33F
330
340
330
341
330
342
330
343
330
344
330
345
330
346
330
347
330
348
330
349
330
34A
330
34B
330
34C
330
34D
330
34E
330
34F
330
350
330
351
330
352
330
353
330
354
330
355
330
356
330
357
330
358
330
359
330
35A
330
35B
330
35C
330
35D
330
35E
330
35F
330
360
330
361
330
362
330
363
330
364
330
365
330
366
330
367
330
368
330
369
330
36A
330
36B
330
36C
330
36D
330
36E
330
36F
330
370
330
371
330
372
330
373
330
374
330
375
330
376
330
377
330
378
330
379
330
37A
330
37B
330
37C
330
37D
330
37E
330
37F
330
380
330
381
330
382
330
383
330
384
330
385
330
386
330
387
330
388
330
389
330
38A
330
38B
330
38C
330
38D
330
38E
330
38F
330
390
330
391
330
392
330
393
330
394
330
395
330
396
330
397
330
398
330
399
330
39A
330
39B
330
39C
330
39D
330
39E
330
39F
330
3A0
330
3A1
330
3A2
330
3A3
330
3A4
330
3A5
330
3A6
330
3A7
330
3A8
330
3A9
330
3AA
330
3AB
330
3AC
330
3AD
330
3AE
330
3AF
 92
1
 93
40
 72
2
 10
30.0045047316
 20
2.3106014667
 40
0.0024741678
 50
226.3477981898
 51
270.0031206038
 73
1
 72
1
 10
30.0027968654
 20
2.3088112993
 11
29.9395168303
 21
2.3691893327
 72
2
 10
29.9378081294
 20
2.367398395
 40
0.0024753014
 50
46.3461263058
 51
180.0014637321
 73
1
 72
1
 10
29.935332828
 20
2.3673983318
 11
29.935332828
 21
2.335352314
 72
2
 10
29.9378078275
 20
2.3353523121
 40
0.0024749995
 50
179.9999571957
 51
270.0000428043
 73
1
 72
1
 10
29.9378078294
 20
2.3328773126
 11
29.9581248406
 21
2.3328773126
 72
2
 10
29.9581248425
 20
2.3304023131
 40
0.0024749995
 50
359.9999571957
 51
90.0000428043
 73
1
 72
1
 10
29.960599842
 20
2.3304023112
 11
29.960599842
 21
2.3106023003
 72
2
 10
29.9581248425
 20
2.3106022984
 40
0.0024749995
 50
269.9999571957
 51
0.0000428043
 73
1
 72
1
 10
29.9581248406
 20
2.3081272989
 11
29.8824607987
 21
2.3081272989
 72
2
 10
29.8824607968
 20
2.3106022984
 40
0.0024749995
 50
179.9999571957
 51
270.0000428042
 73
1
 72
1
 10
29.8799857973
 20
2.3106023003
 11
29.8799857973
 21
2.3304023112
 72
2
 10
29.8824607968
 20
2.3304023131
 40
0.0024749995
 50
89.9999571957
 51
180.0000428042
 73
1
 72
1
 10
29.8824607987
 20
2.3328773126
 11
29.901106809
 21
2.3328773126
 72
2
 10
29.9011068109
 20
2.3353523121
 40
0.0024749995
 50
269.9999571958
 51
0.0000428043
 73
1
 72
1
 10
29.9035818104
 20
2.335352314
 11
29.9035818104
 21
2.3817073397
 72
2
 10
29.9011068109
 20
2.3817073415
 40
0.0024749995
 50
359.9999571957
 51
90.0000428042
 73
1
 72
1
 10
29.901106809
 20
2.3841823411
 11
29.8824607987
 21
2.3841823411
 72
2
 10
29.8824607968
 20
2.3866573406
 40
0.0024749995
 50
179.9999571957
 51
270.0000428042
 73
1
 72
1
 10
29.8799857973
 20
2.3866573424
 11
29.8799857973
 21
2.4064573534
 72
2
 10
29.8824607968
 20
2.4064573553
 40
0.0024749995
 50
89.9999571957
 51
180.0000428042
 73
1
 72
1
 10
29.8824607987
 20
2.4089323548
 11
29.9829188544
 21
2.4089323548
 72
2
 10
29.9829189891
 20
2.406458187
 40
0.0024741678
 50
46.3477981898
 51
90.0031206038
 73
1
 72
1
 10
29.9846268553
 20
2.4082483544
 11
30.0446598886
 21
2.3509683226
 72
2
 10
30.0463685896
 20
2.3527592604
 40
0.0024753014
 50
226.3461263059
 51
0.0014637321
 73
1
 72
1
 10
30.048843891
 20
2.3527593236
 11
30.048843891
 21
2.3817073397
 72
2
 10
30.0463688914
 20
2.3817073415
 40
0.0024749995
 50
359.9999571957
 51
90.0000428042
 73
1
 72
1
 10
30.0463688896
 20
2.3841823411
 11
30.0275928792
 21
2.3841823411
 72
2
 10
30.0275928773
 20
2.3866573406
 40
0.0024749995
 50
179.9999571957
 51
270.0000428043
 73
1
 72
1
 10
30.0251178778
 20
2.3866573424
 11
30.0251178778
 21
2.4064573534
 72
2
 10
30.0275928773
 20
2.4064573553
 40
0.0024749995
 50
89.9999571958
 51
180.0000428044
 73
1
 72
1
 10
30.0275928792
 20
2.4089323548
 11
30.1015939202
 21
2.4089323548
 72
2
 10
30.1015939221
 20
2.4064573553
 40
0.0024749995
 50
359.9999571957
 51
90.0000428043
 73
1
 72
1
 10
30.1040689216
 20
2.4064573534
 11
30.1040689216
 21
2.3866573424
 72
2
 10
30.1015939221
 20
2.3866573406
 40
0.0024749995
 50
269.9999571956
 51
0.0000428042
 73
1
 72
1
 10
30.1015939202
 20
2.3841823411
 11
30.0836609103
 21
2.3841823411
 72
2
 10
30.0836609084
 20
2.3817073415
 40
0.0024749995
 50
89.9999571957
 51
180.0000428042
 73
1
 72
1
 10
30.0811859089
 20
2.3817073397
 11
30.0811859089
 21
2.3106023003
 72
2
 10
30.0787109094
 20
2.3106022984
 40
0.0024749995
 50
269.9999571958
 51
0.0000428043
 73
1
 72
1
 10
30.0787109075
 20
2.3081272989
 11
30.0045048664
 21
2.3081272989
 97
267
330
2A5
330
2A6
330
2A7
330
2A8
330
2A9
330
2AA
330
2AB
330
2AC
330
2AD
330
2AE
330
2AF
330
2B0
330
2B1
330
2B2
330
2B3
330
2B4
330
2B5
330
2B6
330
2B7
330
2B8
330
2B9
330
2BA
330
2BB
330
2BC
330
2BD
330
2BE
330
2BF
330
2C0
330
2C1
330
2C2
330
2C3
330
2C4
330
2C5
330
2C6
330
2C7
330
2C8
330
2C9
330
2CA
330
2CB
330
2CC
330
2CD
330
2CE
330
2CF
330
2D0
330
2D1
330
2D2
330
2D3
330
2D4
330
2D5
330
2D6
330
2D7
330
2D8
330
2D9
330
2DA
330
2DB
330
2DC
330
2DD
330
2DE
330
2DF
330
2E0
330
2E1
330
2E2
330
2E3
330
2E4
330
2E5
330
2E6
330
2E7
330
2E8
330
2E9
330
2EA
330
2EB
330
2EC
330
2ED
330
2EE
330
2EF
330
2F0
330
2F1
330
2F2
330
2F3
330
2F4
330
2F5
330
2F6
330
2F7
330
2F8
330
2F9
330
2FA
330
2FB
330
2FC
330
2FD
330
2FE
330
2FF
330
300
330
301
330
302
330
303
330
304
330
305
330
306
330
307
330
308
330
309
330
30A
330
30B
330
30C
330
30D
330
30E
330
30F
330
310
330
311
330
312
330
313
330
314
330
315
330
316
330
317
330
318
330
319
330
31A
330
31B
330
31C
330
31D
330
31E
330
31F
330
320
330
321
330
322
330
323
330
324
330
325
330
326
330
327
330
328
330
329
330
32A
330
32B
330
32C
330
32D
330
32E
330
32F
330
330
330
331
330
332
330
333
330
334
330
335
330
336
330
337
330
338
330
339
330
33A
330
33B
330
33C
330
33D
330
33E
330
33F
330
340
330
341
330
342
330
343
330
344
330
345
330
346
330
347
330
348
330
349
330
34A
330
34B
330
34C
330
34D
330
34E
330
34F
330
350
330
351
330
352
330
353
330
354
330
355
330
356
330
357
330
358
330
359
330
35A
330
35B
330
35C
330
35D
330
35E
330
35F
330
360
330
361
330
362
330
363
330
364
330
365
330
366
330
367
330
368
330
369
330
36A
330
36B
330
36C
330
36D
330
36E
330
36F
330
370
330
371
330
372
330
373
330
374
330
375
330
376
330
377
330
378
330
379
330
37A
330
37B
330
37C
330
37D
330
37E
330
37F
330
380
330
381
330
382
330
383
330
384
330
385
330
386
330
387
330
388
330
389
330
38A
330
38B
330
38C
330
38D
330
38E
330
38F
330
390
330
391
330
392
330
393
330
394
330
395
330
396
330
397
330
398
330
399
330
39A
330
39B
330
39C
330
39D
330
39E
330
39F
330
3A0
330
3A1
330
3A2
330
3A3
330
3A4
330
3A5
330
3A6
330
3A7
330
3A8
330
3A9
330
3AA
330
3AB
330
3AC
330
3AD
330
3AE
330
3AF
 92
1
 93
40
 72
2
 10
29.7562520939
 20
2.310602715
 40
0.0024754162
 50
226.3593695814
 51
270.0146919953
 73
1
 72
1
 10
29.7545437277
 20
2.3088112993
 11
29.6912636927
 21
2.3691893327
 72
2
 10
29.6895549917
 20
2.367398395
 40
0.0024753014
 50
46.3461263059
 51
180.0014637321
 73
1
 72
1
 10
29.6870796903
 20
2.3673983318
 11
29.6870796903
 21
2.335352314
 72
2
 10
29.6895546899
 20
2.3353523121
 40
0.0024749995
 50
179.9999571957
 51
270.0000428042
 73
1
 72
1
 10
29.6895546917
 20
2.3328773126
 11
29.709871703
 21
2.3328773126
 72
2
 10
29.7098717048
 20
2.3304023131
 40
0.0024749995
 50
359.9999571957
 51
90.0000428042
 73
1
 72
1
 10
29.7123467043
 20
2.3304023112
 11
29.7123467043
 21
2.3106023003
 72
2
 10
29.7098717048
 20
2.3106022984
 40
0.0024749995
 50
269.9999571957
 51
0.0000428042
 73
1
 72
1
 10
29.709871703
 20
2.3081272989
 11
29.634207661
 21
2.3081272989
 72
2
 10
29.6342076592
 20
2.3106022984
 40
0.0024749995
 50
179.9999571957
 51
270.0000428042
 73
1
 72
1
 10
29.6317326596
 20
2.3106023003
 11
29.6317326596
 21
2.3304023112
 72
2
 10
29.6342076592
 20
2.3304023131
 40
0.0024749995
 50
89.9999571958
 51
180.0000428043
 73
1
 72
1
 10
29.634207661
 20
2.3328773126
 11
29.6528546714
 21
2.3328773126
 72
2
 10
29.6528546732
 20
2.3353523121
 40
0.0024749995
 50
269.9999571957
 51
0.0000428042
 73
1
 72
1
 10
29.6553296727
 20
2.335352314
 11
29.6553296727
 21
2.3817073397
 72
2
 10
29.6528546732
 20
2.3817073415
 40
0.0024749995
 50
359.9999571957
 51
90.0000428042
 73
1
 72
1
 10
29.6528546714
 20
2.3841823411
 11
29.634207661
 21
2.3841823411
 72
2
 10
29.6342076592
 20
2.3866573406
 40
0.0024749995
 50
179.9999571957
 51
270.0000428042
 73
1
 72
1
 10
29.6317326596
 20
2.3866573424
 11
29.6317326596
 21
2.4064573534
 72
2
 10
29.6342076592
 20
2.4064573553
 40
0.0024749995
 50
89.9999571958
 51
180.0000428043
 73
1
 72
1
 10
29.634207661
 20
2.4089323548
 11
29.7346657167
 21
2.4089323548
 72
2
 10
29.7346658515
 20
2.406458187
 40
0.0024741678
 50
46.3477981899
 51
90.0031206039
 73
1
 72
1
 10
29.7363737177
 20
2.4082483544
 11
29.796406751
 21
2.3509683226
 72
2
 10
29.7981154519
 20
2.3527592604
 40
0.0024753014
 50
226.3461263059
 51
0.0014637321
 73
1
 72
1
 10
29.8005907533
 20
2.3527593236
 11
29.8005907533
 21
2.3817073397
 72
2
 10
29.7981157538
 20
2.3817073415
 40
0.0024749995
 50
359.9999571957
 51
90.0000428042
 73
1
 72
1
 10
29.7981157519
 20
2.3841823411
 11
29.7793397415
 21
2.3841823411
 72
2
 10
29.7793397396
 20
2.3866573406
 40
0.0024749995
 50
179.9999571957
 51
270.0000428042
 73
1
 72
1
 10
29.7768647401
 20
2.3866573424
 11
29.7768647401
 21
2.4064573534
 72
2
 10
29.7793397396
 20
2.4064573553
 40
0.0024749995
 50
89.9999571957
 51
180.0000428042
 73
1
 72
1
 10
29.7793397415
 20
2.4089323548
 11
29.8533407825
 21
2.4089323548
 72
2
 10
29.8533407844
 20
2.4064573553
 40
0.0024749995
 50
359.9999571957
 51
90.0000428042
 73
1
 72
1
 10
29.8558157839
 20
2.4064573534
 11
29.8558157839
 21
2.3866573424
 72
2
 10
29.8533407844
 20
2.3866573406
 40
0.0024749995
 50
269.9999571958
 51
0.0000428044
 73
1
 72
1
 10
29.8533407825
 20
2.3841823411
 11
29.8354077726
 21
2.3841823411
 72
2
 10
29.8354077707
 20
2.3817073415
 40
0.0024749995
 50
89.9999571956
 51
180.0000428042
 73
1
 72
1
 10
29.8329327712
 20
2.3817073397
 11
29.8329327712
 21
2.3106023003
 72
2
 10
29.8304577717
 20
2.3106022984
 40
0.0024749995
 50
269.9999571956
 51
0.0000428042
 73
1
 72
1
 10
29.8304577698
 20
2.3081272989
 11
29.7562527287
 21
2.3081272989
 97
267
330
2A5
330
2A6
330
2A7
330
2A8
330
2A9
330
2AA
330
2AB
330
2AC
330
2AD
330
2AE
330
2AF
330
2B0
330
2B1
330
2B2
330
2B3
330
2B4
330
2B5
330
2B6
330
2B7
330
2B8
330
2B9
330
2BA
330
2BB
330
2BC
330
2BD
330
2BE
330
2BF
330
2C0
330
2C1
330
2C2
330
2C3
330
2C4
330
2C5
330
2C6
330
2C7
330
2C8
330
2C9
330
2CA
330
2CB
330
2CC
330
2CD
330
2CE
330
2CF
330
2D0
330
2D1
330
2D2
330
2D3
330
2D4
330
2D5
330
2D6
330
2D7
330
2D8
330
2D9
330
2DA
330
2DB
330
2DC
330
2DD
330
2DE
330
2DF
330
2E0
330
2E1
330
2E2
330
2E3
330
2E4
330
2E5
330
2E6
330
2E7
330
2E8
330
2E9
330
2EA
330
2EB
330
2EC
330
2ED
330
2EE
330
2EF
330
2F0
330
2F1
330
2F2
330
2F3
330
2F4
330
2F5
330
2F6
330
2F7
330
2F8
330
2F9
330
2FA
330
2FB
330
2FC
330
2FD
330
2FE
330
2FF
330
300
330
301
330
302
330
303
330
304
330
305
330
306
330
307
330
308
330
309
330
30A
330
30B
330
30C
330
30D
330
30E
330
30F
330
310
330
311
330
312
330
313
330
314
330
315
330
316
330
317
330
318
330
319
330
31A
330
31B
330
31C
330
31D
330
31E
330
31F
330
320
330
321
330
322
330
323
330
324
330
325
330
326
330
327
330
328
330
329
330
32A
330
32B
330
32C
330
32D
330
32E
330
32F
330
330
330
331
330
332
330
333
330
334
330
335
330
336
330
337
330
338
330
339
330
33A
330
33B
330
33C
330
33D
330
33E
330
33F
330
340
330
341
330
342
330
343
330
344
330
345
330
346
330
347
330
348
330
349
330
34A
330
34B
330
34C
330
34D
330
34E
330
34F
330
350
330
351
330
352
330
353
330
354
330
355
330
356
330
357
330
358
330
359
330
35A
330
35B
330
35C
330
35D
330
35E
330
35F
330
360
330
361
330
362
330
363
330
364
330
365
330
366
330
367
330
368
330
369
330
36A
330
36B
330
36C
330
36D
330
36E
330
36F
330
370
330
371
330
372
330
373
330
374
330
375
330
376
330
377
330
378
330
379
330
37A
330
37B
330
37C
330
37D
330
37E
330
37F
330
380
330
381
330
382
330
383
330
384
330
385
330
386
330
387
330
388
330
389
330
38A
330
38B
330
38C
330
38D
330
38E
330
38F
330
390
330
391
330
392
330
393
330
394
330
395
330
396
330
397
330
398
330
399
330
39A
330
39B
330
39C
330
39D
330
39E
330
39F
330
3A0
330
3A1
330
3A2
330
3A3
330
3A4
330
3A5
330
3A6
330
3A7
330
3A8
330
3A9
330
3AA
330
3AB
330
3AC
330
3AD
330
3AE
330
3AF
 92
1
 93
23
 72
2
 10
29.3410971553
 20
2.3565347507
 40
0.048483885
 50
273.21763719
 51
303.0749121182
 73
1
 72
2
 10
29.3559365494
 20
2.3337671418
 40
0.0213072145
 50
303.0488228549
 51
355.7263138674
 73
1
 72
2
 10
29.36187305
 20
2.3337763321
 40
0.0153945295
 50
354.0454548824
 51
5.1878013979
 73
1
 72
2
 10
29.3550433609
 20
2.3335878142
 40
0.0222174455
 50
4.0793399388
 51
69.834329283
 73
1
 72
1
 10
29.3627025104
 20
2.3544433246
 11
29.3526515049
 21
2.3579923265
 72
1
 10
29.3526515049
 20
2.3579923265
 11
29.3608915094
 21
2.3627683292
 72
2
 10
29.339026127
 20
2.3995952208
 40
0.0428289026
 50
300.6990502959
 51
319.0591802498
 73
1
 72
2
 10
29.3590547239
 20
2.3834668674
 40
0.0171568255
 50
315.9145124245
 51
16.0049121282
 73
1
 72
2
 10
29.3541031117
 20
2.3801132029
 40
0.0229166529
 50
20.6563876465
 51
62.3316896973
 73
1
 72
2
 10
29.3334409881
 20
2.347184638
 40
0.061747717
 50
59.5385584989
 51
90.0050977555
 73
1
 72
1
 10
29.3334354942
 20
2.4089323548
 11
29.1673724021
 21
2.4089323548
 72
2
 10
29.1673724003
 20
2.4064573553
 40
0.0024749995
 50
89.9999571958
 51
180.0000428044
 73
1
 72
1
 10
29.1648974007
 20
2.4064573534
 11
29.1648974007
 21
2.3866573424
 72
2
 10
29.1673724003
 20
2.3866573406
 40
0.0024749995
 50
179.9999571957
 51
270.0000428042
 73
1
 72
1
 10
29.1673724021
 20
2.3841823411
 11
29.1913144154
 21
2.3841823411
 72
2
 10
29.1913144172
 20
2.3817073415
 40
0.0024749995
 50
359.9999571957
 51
90.0000428042
 73
1
 72
1
 10
29.1937894168
 20
2.3817073397
 11
29.1937894168
 21
2.335352314
 72
2
 10
29.1913144172
 20
2.3353523121
 40
0.0024749995
 50
269.9999571957
 51
0.0000428042
 73
1
 72
1
 10
29.1913144154
 20
2.3328773126
 11
29.1673724021
 21
2.3328773126
 72
2
 10
29.1673724003
 20
2.3304023131
 40
0.0024749995
 50
89.9999571958
 51
180.0000428044
 73
1
 72
1
 10
29.1648974007
 20
2.3304023112
 11
29.1648974007
 21
2.3106023003
 72
2
 10
29.1673724003
 20
2.3106022984
 40
0.0024749995
 50
179.9999571957
 51
270.0000428042
 73
1
 72
1
 10
29.1673724021
 20
2.3081272989
 11
29.3438185
 21
2.3081272989
 97
267
330
2A5
330
2A6
330
2A7
330
2A8
330
2A9
330
2AA
330
2AB
330
2AC
330
2AD
330
2AE
330
2AF
330
2B0
330
2B1
330
2B2
330
2B3
330
2B4
330
2B5
330
2B6
330
2B7
330
2B8
330
2B9
330
2BA
330
2BB
330
2BC
330
2BD
330
2BE
330
2BF
330
2C0
330
2C1
330
2C2
330
2C3
330
2C4
330
2C5
330
2C6
330
2C7
330
2C8
330
2C9
330
2CA
330
2CB
330
2CC
330
2CD
330
2CE
330
2CF
330
2D0
330
2D1
330
2D2
330
2D3
330
2D4
330
2D5
330
2D6
330
2D7
330
2D8
330
2D9
330
2DA
330
2DB
330
2DC
330
2DD
330
2DE
330
2DF
330
2E0
330
2E1
330
2E2
330
2E3
330
2E4
330
2E5
330
2E6
330
2E7
330
2E8
330
2E9
330
2EA
330
2EB
330
2EC
330
2ED
330
2EE
330
2EF
330
2F0
330
2F1
330
2F2
330
2F3
330
2F4
330
2F5
330
2F6
330
2F7
330
2F8
330
2F9
330
2FA
330
2FB
330
2FC
330
2FD
330
2FE
330
2FF
330
300
330
301
330
302
330
303
330
304
330
305
330
306
330
307
330
308
330
309
330
30A
330
30B
330
30C
330
30D
330
30E
330
30F
330
310
330
311
330
312
330
313
330
314
330
315
330
316
330
317
330
318
330
319
330
31A
330
31B
330
31C
330
31D
330
31E
330
31F
330
320
330
321
330
322
330
323
330
324
330
325
330
326
330
327
330
328
330
329
330
32A
330
32B
330
32C
330
32D
330
32E
330
32F
330
330
330
331
330
332
330
333
330
334
330
335
330
336
330
337
330
338
330
339
330
33A
330
33B
330
33C
330
33D
330
33E
330
33F
330
340
330
341
330
342
330
343
330
344
330
345
330
346
330
347
330
348
330
349
330
34A
330
34B
330
34C
330
34D
330
34E
330
34F
330
350
330
351
330
352
330
353
330
354
330
355
330
356
330
357
330
358
330
359
330
35A
330
35B
330
35C
330
35D
330
35E
330
35F
330
360
330
361
330
362
330
363
330
364
330
365
330
366
330
367
330
368
330
369
330
36A
330
36B
330
36C
330
36D
330
36E
330
36F
330
370
330
371
330
372
330
373
330
374
330
375
330
376
330
377
330
378
330
379
330
37A
330
37B
330
37C
330
37D
330
37E
330
37F
330
380
330
381
330
382
330
383
330
384
330
385
330
386
330
387
330
388
330
389
330
38A
330
38B
330
38C
330
38D
330
38E
330
38F
330
390
330
391
330
392
330
393
330
394
330
395
330
396
330
397
330
398
330
399
330
39A
330
39B
330
39C
330
39D
330
39E
330
39F
330
3A0
330
3A1
330
3A2
330
3A3
330
3A4
330
3A5
330
3A6
330
3A7
330
3A8
330
3A9
330
3AA
330
3AB
330
3AC
330
3AD
330
3AE
330
3AF
 92
1
 93
32
 72
2
 10
29.4787315766
 20
2.3106022984
 40
0.0024749995
 50
269.9999571958
 51
0.0000428044
 73
1
 72
1
 10
29.4812065762
 20
2.3106023003
 11
29.4812065762
 21
2.3304023112
 72
2
 10
29.4787315766
 20
2.3304023131
 40
0.0024749995
 50
359.9999571957
 51
90.0000428042
 73
1
 72
1
 10
29.4787315748
 20
2.3328773126
 11
29.4674485685
 21
2.3328773126
 72
2
 10
29.4674484592
 20
2.3353523527
 40
0.0024750401
 50
147.606325801
 51
270.0025305754
 73
1
 72
1
 10
29.4653585674
 20
2.3366783147
 11
29.4708745704
 21
2.3453723195
 72
2
 10
29.4729645013
 20
2.3440461199
 40
0.0024752003
 50
89.998372645
 51
147.602165307
 73
1
 72
1
 10
29.4729645716
 20
2.3465213202
 11
29.5078425909
 21
2.3465213202
 72
2
 10
29.5078420513
 20
2.34404586
 40
0.0024754602
 50
32.8959418574
 51
89.9875097203
 73
1
 72
1
 10
29.5099205921
 20
2.3453903196
 11
29.5155465952
 21
2.3366973147
 72
2
 10
29.5134685729
 20
2.3353525197
 40
0.0024752071
 50
270.0004896793
 51
32.9089806819
 73
1
 72
1
 10
29.5134685941
 20
2.3328773126
 11
29.499017586
 21
2.3328773126
 72
2
 10
29.4990175842
 20
2.3304023131
 40
0.0024749995
 50
89.9999571958
 51
180.0000428043
 73
1
 72
1
 10
29.4965425847
 20
2.3304023112
 11
29.4965425847
 21
2.3106023003
 72
2
 10
29.4990175842
 20
2.3106022984
 40
0.0024749995
 50
179.9999571957
 51
270.0000428042
 73
1
 72
1
 10
29.499017586
 20
2.3081272989
 11
29.6042986444
 21
2.3081272989
 72
2
 10
29.6042986463
 20
2.3106022984
 40
0.0024749995
 50
269.9999571958
 51
0.0000428043
 73
1
 72
1
 10
29.6067736458
 20
2.3106023003
 11
29.6067736458
 21
2.3304023112
 72
2
 10
29.6042986463
 20
2.3304023131
 40
0.0024749995
 50
359.9999571957
 51
90.0000428042
 73
1
 72
1
 10
29.6042986444
 20
2.3328773126
 11
29.5842826333
 21
2.3328773126
 72
2
 10
29.5842827538
 20
2.3353513536
 40
0.002474041
 50
212.9056413127
 51
269.9972091756
 73
1
 72
1
 10
29.5822056322
 20
2.3340073132
 11
29.5344496057
 21
2.4078023542
 72
2
 10
29.532371984
 20
2.4064573946
 40
0.0024749602
 50
32.9172174468
 51
90.0087853097
 73
1
 72
1
 10
29.5323716045
 20
2.4089323548
 11
29.4751965728
 21
2.4089323548
 72
2
 10
29.4751965025
 20
2.4064571545
 40
0.0024752003
 50
89.998372645
 51
147.602165307
 73
1
 72
1
 10
29.4731065717
 20
2.4077833542
 11
29.4263065457
 21
2.3340263132
 72
2
 10
29.4242166149
 20
2.3353525129
 40
0.0024752003
 50
269.9983726451
 51
327.6021653071
 73
1
 72
1
 10
29.4242165446
 20
2.3328773126
 11
29.4013555319
 21
2.3328773126
 72
2
 10
29.40135553
 20
2.3304023131
 40
0.0024749995
 50
89.9999571957
 51
180.0000428042
 73
1
 72
1
 10
29.3988805305
 20
2.3304023112
 11
29.3988805305
 21
2.3106023003
 72
2
 10
29.40135553
 20
2.3106022984
 40
0.0024749995
 50
179.9999571957
 51
270.0000428042
 73
1
 72
1
 10
29.4013555319
 20
2.3081272989
 11
29.4787315748
 21
2.3081272989
 97
267
330
2A5
330
2A6
330
2A7
330
2A8
330
2A9
330
2AA
330
2AB
330
2AC
330
2AD
330
2AE
330
2AF
330
2B0
330
2B1
330
2B2
330
2B3
330
2B4
330
2B5
330
2B6
330
2B7
330
2B8
330
2B9
330
2BA
330
2BB
330
2BC
330
2BD
330
2BE
330
2BF
330
2C0
330
2C1
330
2C2
330
2C3
330
2C4
330
2C5
330
2C6
330
2C7
330
2C8
330
2C9
330
2CA
330
2CB
330
2CC
330
2CD
330
2CE
330
2CF
330
2D0
330
2D1
330
2D2
330
2D3
330
2D4
330
2D5
330
2D6
330
2D7
330
2D8
330
2D9
330
2DA
330
2DB
330
2DC
330
2DD
330
2DE
330
2DF
330
2E0
330
2E1
330
2E2
330
2E3
330
2E4
330
2E5
330
2E6
330
2E7
330
2E8
330
2E9
330
2EA
330
2EB
330
2EC
330
2ED
330
2EE
330
2EF
330
2F0
330
2F1
330
2F2
330
2F3
330
2F4
330
2F5
330
2F6
330
2F7
330
2F8
330
2F9
330
2FA
330
2FB
330
2FC
330
2FD
330
2FE
330
2FF
330
300
330
301
330
302
330
303
330
304
330
305
330
306
330
307
330
308
330
309
330
30A
330
30B
330
30C
330
30D
330
30E
330
30F
330
310
330
311
330
312
330
313
330
314
330
315
330
316
330
317
330
318
330
319
330
31A
330
31B
330
31C
330
31D
330
31E
330
31F
330
320
330
321
330
322
330
323
330
324
330
325
330
326
330
327
330
328
330
329
330
32A
330
32B
330
32C
330
32D
330
32E
330
32F
330
330
330
331
330
332
330
333
330
334
330
335
330
336
330
337
330
338
330
339
330
33A
330
33B
330
33C
330
33D
330
33E
330
33F
330
340
330
341
330
342
330
343
330
344
330
345
330
346
330
347
330
348
330
349
330
34A
330
34B
330
34C
330
34D
330
34E
330
34F
330
350
330
351
330
352
330
353
330
354
330
355
330
356
330
357
330
358
330
359
330
35A
330
35B
330
35C
330
35D
330
35E
330
35F
330
360
330
361
330
362
330
363
330
364
330
365
330
366
330
367
330
368
330
369
330
36A
330
36B
330
36C
330
36D
330
36E
330
36F
330
370
330
371
330
372
330
373
330
374
330
375
330
376
330
377
330
378
330
379
330
37A
330
37B
330
37C
330
37D
330
37E
330
37F
330
380
330
381
330
382
330
383
330
384
330
385
330
386
330
387
330
388
330
389
330
38A
330
38B
330
38C
330
38D
330
38E
330
38F
330
390
330
391
330
392
330
393
330
394
330
395
330
396
330
397
330
398
330
399
330
39A
330
39B
330
39C
330
39D
330
39E
330
39F
330
3A0
330
3A1
330
3A2
330
3A3
330
3A4
330
3A5
330
3A6
330
3A7
330
3A8
330
3A9
330
3AA
330
3AB
330
3AC
330
3AD
330
3AE
330
3AF
 92
1
 93
6
 72
2
 10
29.2567774499
 20
2.3353523121
 40
0.0024749995
 50
179.9999571957
 51
270.0000428043
 73
1
 72
1
 10
29.2543024503
 20
2.335352314
 11
29.2543024503
 21
2.3477273208
 72
2
 10
29.2567774499
 20
2.3477273227
 40
0.0024749995
 50
89.9999571956
 51
180.0000428042
 73
1
 72
1
 10
29.2567774517
 20
2.3502023222
 11
29.2981404746
 21
2.3502023222
 72
2
 10
29.2981404746
 20
2.3415398174
 40
0.0086625048
 50
270.0
 51
90.0
 73
1
 72
1
 10
29.2981404746
 20
2.3328773126
 11
29.2567774517
 21
2.3328773126
 97
267
330
2A5
330
2A6
330
2A7
330
2A8
330
2A9
330
2AA
330
2AB
330
2AC
330
2AD
330
2AE
330
2AF
330
2B0
330
2B1
330
2B2
330
2B3
330
2B4
330
2B5
330
2B6
330
2B7
330
2B8
330
2B9
330
2BA
330
2BB
330
2BC
330
2BD
330
2BE
330
2BF
330
2C0
330
2C1
330
2C2
330
2C3
330
2C4
330
2C5
330
2C6
330
2C7
330
2C8
330
2C9
330
2CA
330
2CB
330
2CC
330
2CD
330
2CE
330
2CF
330
2D0
330
2D1
330
2D2
330
2D3
330
2D4
330
2D5
330
2D6
330
2D7
330
2D8
330
2D9
330
2DA
330
2DB
330
2DC
330
2DD
330
2DE
330
2DF
330
2E0
330
2E1
330
2E2
330
2E3
330
2E4
330
2E5
330
2E6
330
2E7
330
2E8
330
2E9
330
2EA
330
2EB
330
2EC
330
2ED
330
2EE
330
2EF
330
2F0
330
2F1
330
2F2
330
2F3
330
2F4
330
2F5
330
2F6
330
2F7
330
2F8
330
2F9
330
2FA
330
2FB
330
2FC
330
2FD
330
2FE
330
2FF
330
300
330
301
330
302
330
303
330
304
330
305
330
306
330
307
330
308
330
309
330
30A
330
30B
330
30C
330
30D
330
30E
330
30F
330
310
330
311
330
312
330
313
330
314
330
315
330
316
330
317
330
318
330
319
330
31A
330
31B
330
31C
330
31D
330
31E
330
31F
330
320
330
321
330
322
330
323
330
324
330
325
330
326
330
327
330
328
330
329
330
32A
330
32B
330
32C
330
32D
330
32E
330
32F
330
330
330
331
330
332
330
333
330
334
330
335
330
336
330
337
330
338
330
339
330
33A
330
33B
330
33C
330
33D
330
33E
330
33F
330
340
330
341
330
342
330
343
330
344
330
345
330
346
330
347
330
348
330
349
330
34A
330
34B
330
34C
330
34D
330
34E
330
34F
330
350
330
351
330
352
330
353
330
354
330
355
330
356
330
357
330
358
330
359
330
35A
330
35B
330
35C
330
35D
330
35E
330
35F
330
360
330
361
330
362
330
363
330
364
330
365
330
366
330
367
330
368
330
369
330
36A
330
36B
330
36C
330
36D
330
36E
330
36F
330
370
330
371
330
372
330
373
330
374
330
375
330
376
330
377
330
378
330
379
330
37A
330
37B
330
37C
330
37D
330
37E
330
37F
330
380
330
381
330
382
330
383
330
384
330
385
330
386
330
387
330
388
330
389
330
38A
330
38B
330
38C
330
38D
330
38E
330
38F
330
390
330
391
330
392
330
393
330
394
330
395
330
396
330
397
330
398
330
399
330
39A
330
39B
330
39C
330
39D
330
39E
330
39F
330
3A0
330
3A1
330
3A2
330
3A3
330
3A4
330
3A5
330
3A6
330
3A7
330
3A8
330
3A9
330
3AA
330
3AB
330
3AC
330
3AD
330
3AE
330
3AF
 92
1
 93
13
 72
2
 10
30.4502121117
 20
2.3689823308
 40
0.0024749995
 50
179.9999571957
 51
270.0000428043
 73
1
 72
1
 10
30.4477371122
 20
2.3689823326
 11
30.4477371122
 21
2.3817073397
 72
2
 10
30.4502121117
 20
2.3817073415
 40
0.0024749995
 50
89.9999571958
 51
180.0000428044
 73
1
 72
1
 10
30.4502121135
 20
2.3841823411
 11
30.4870131339
 21
2.3841823411
 72
2
 10
30.4854682464
 20
2.3557278621
 40
0.0284963867
 50
70.3834917948
 51
86.8922743861
 73
1
 72
2
 10
30.4903278565
 20
2.368769595
 40
0.0145814632
 50
54.6746025112
 51
71.1660573124
 73
1
 72
2
 10
30.4954573475
 20
2.3756235202
 40
0.0060275915
 50
20.9055592135
 51
56.7851676243
 73
1
 72
2
 10
30.4967579063
 20
2.3762838024
 40
0.0045795888
 50
355.6235353944
 51
18.9942678268
 73
1
 72
2
 10
30.495551096
 20
2.3765775787
 40
0.0058087709
 50
318.8515287446
 51
353.6422345323
 73
1
 72
2
 10
30.4913804799
 20
2.3798114865
 40
0.0110815393
 50
306.758405961
 51
320.4502234234
 73
1
 72
2
 10
30.4857512889
 20
2.387552315
 40
0.0206523367
 50
289.6883413472
 51
306.4184925496
 73
1
 72
2
 10
30.4838237832
 20
2.3919459623
 40
0.0254407115
 50
270.7327484175
 51
290.441894219
 73
1
 72
1
 10
30.4841491324
 20
2.3665073313
 11
30.4502121135
 21
2.3665073313
 97
267
330
2A5
330
2A6
330
2A7
330
2A8
330
2A9
330
2AA
330
2AB
330
2AC
330
2AD
330
2AE
330
2AF
330
2B0
330
2B1
330
2B2
330
2B3
330
2B4
330
2B5
330
2B6
330
2B7
330
2B8
330
2B9
330
2BA
330
2BB
330
2BC
330
2BD
330
2BE
330
2BF
330
2C0
330
2C1
330
2C2
330
2C3
330
2C4
330
2C5
330
2C6
330
2C7
330
2C8
330
2C9
330
2CA
330
2CB
330
2CC
330
2CD
330
2CE
330
2CF
330
2D0
330
2D1
330
2D2
330
2D3
330
2D4
330
2D5
330
2D6
330
2D7
330
2D8
330
2D9
330
2DA
330
2DB
330
2DC
330
2DD
330
2DE
330
2DF
330
2E0
330
2E1
330
2E2
330
2E3
330
2E4
330
2E5
330
2E6
330
2E7
330
2E8
330
2E9
330
2EA
330
2EB
330
2EC
330
2ED
330
2EE
330
2EF
330
2F0
330
2F1
330
2F2
330
2F3
330
2F4
330
2F5
330
2F6
330
2F7
330
2F8
330
2F9
330
2FA
330
2FB
330
2FC
330
2FD
330
2FE
330
2FF
330
300
330
301
330
302
330
303
330
304
330
305
330
306
330
307
330
308
330
309
330
30A
330
30B
330
30C
330
30D
330
30E
330
30F
330
310
330
311
330
312
330
313
330
314
330
315
330
316
330
317
330
318
330
319
330
31A
330
31B
330
31C
330
31D
330
31E
330
31F
330
320
330
321
330
322
330
323
330
324
330
325
330
326
330
327
330
328
330
329
330
32A
330
32B
330
32C
330
32D
330
32E
330
32F
330
330
330
331
330
332
330
333
330
334
330
335
330
336
330
337
330
338
330
339
330
33A
330
33B
330
33C
330
33D
330
33E
330
33F
330
340
330
341
330
342
330
343
330
344
330
345
330
346
330
347
330
348
330
349
330
34A
330
34B
330
34C
330
34D
330
34E
330
34F
330
350
330
351
330
352
330
353
330
354
330
355
330
356
330
357
330
358
330
359
330
35A
330
35B
330
35C
330
35D
330
35E
330
35F
330
360
330
361
330
362
330
363
330
364
330
365
330
366
330
367
330
368
330
369
330
36A
330
36B
330
36C
330
36D
330
36E
330
36F
330
370
330
371
330
372
330
373
330
374
330
375
330
376
330
377
330
378
330
379
330
37A
330
37B
330
37C
330
37D
330
37E
330
37F
330
380
330
381
330
382
330
383
330
384
330
385
330
386
330
387
330
388
330
389
330
38A
330
38B
330
38C
330
38D
330
38E
330
38F
330
390
330
391
330
392
330
393
330
394
330
395
330
396
330
397
330
398
330
399
330
39A
330
39B
330
39C
330
39D
330
39E
330
39F
330
3A0
330
3A1
330
3A2
330
3A3
330
3A4
330
3A5
330
3A6
330
3A7
330
3A8
330
3A9
330
3AA
330
3AB
330
3AC
330
3AD
330
3AE
330
3AF
 92
1
 93
6
 72
2
 10
29.2981404746
 20
2.3755198363
 40
0.0086625048
 50
270.0
 51
90.0
 73
1
 72
1
 10
29.2981404746
 20
2.3841823411
 11
29.2567774517
 21
2.3841823411
 72
2
 10
29.2567774499
 20
2.3817073415
 40
0.0024749995
 50
89.9999571956
 51
180.0000428042
 73
1
 72
1
 10
29.2543024503
 20
2.3817073397
 11
29.2543024503
 21
2.3693323328
 72
2
 10
29.2567774499
 20
2.369332331
 40
0.0024749995
 50
179.9999571957
 51
270.0000428043
 73
1
 72
1
 10
29.2567774517
 20
2.3668573315
 11
29.2981404746
 21
2.3668573315
 97
267
330
2A5
330
2A6
330
2A7
330
2A8
330
2A9
330
2AA
330
2AB
330
2AC
330
2AD
330
2AE
330
2AF
330
2B0
330
2B1
330
2B2
330
2B3
330
2B4
330
2B5
330
2B6
330
2B7
330
2B8
330
2B9
330
2BA
330
2BB
330
2BC
330
2BD
330
2BE
330
2BF
330
2C0
330
2C1
330
2C2
330
2C3
330
2C4
330
2C5
330
2C6
330
2C7
330
2C8
330
2C9
330
2CA
330
2CB
330
2CC
330
2CD
330
2CE
330
2CF
330
2D0
330
2D1
330
2D2
330
2D3
330
2D4
330
2D5
330
2D6
330
2D7
330
2D8
330
2D9
330
2DA
330
2DB
330
2DC
330
2DD
330
2DE
330
2DF
330
2E0
330
2E1
330
2E2
330
2E3
330
2E4
330
2E5
330
2E6
330
2E7
330
2E8
330
2E9
330
2EA
330
2EB
330
2EC
330
2ED
330
2EE
330
2EF
330
2F0
330
2F1
330
2F2
330
2F3
330
2F4
330
2F5
330
2F6
330
2F7
330
2F8
330
2F9
330
2FA
330
2FB
330
2FC
330
2FD
330
2FE
330
2FF
330
300
330
301
330
302
330
303
330
304
330
305
330
306
330
307
330
308
330
309
330
30A
330
30B
330
30C
330
30D
330
30E
330
30F
330
310
330
311
330
312
330
313
330
314
330
315
330
316
330
317
330
318
330
319
330
31A
330
31B
330
31C
330
31D
330
31E
330
31F
330
320
330
321
330
322
330
323
330
324
330
325
330
326
330
327
330
328
330
329
330
32A
330
32B
330
32C
330
32D
330
32E
330
32F
330
330
330
331
330
332
330
333
330
334
330
335
330
336
330
337
330
338
330
339
330
33A
330
33B
330
33C
330
33D
330
33E
330
33F
330
340
330
341
330
342
330
343
330
344
330
345
330
346
330
347
330
348
330
349
330
34A
330
34B
330
34C
330
34D
330
34E
330
34F
330
350
330
351
330
352
330
353
330
354
330
355
330
356
330
357
330
358
330
359
330
35A
330
35B
330
35C
330
35D
330
35E
330
35F
330
360
330
361
330
362
330
363
330
364
330
365
330
366
330
367
330
368
330
369
330
36A
330
36B
330
36C
330
36D
330
36E
330
36F
330
370
330
371
330
372
330
373
330
374
330
375
330
376
330
377
330
378
330
379
330
37A
330
37B
330
37C
330
37D
330
37E
330
37F
330
380
330
381
330
382
330
383
330
384
330
385
330
386
330
387
330
388
330
389
330
38A
330
38B
330
38C
330
38D
330
38E
330
38F
330
390
330
391
330
392
330
393
330
394
330
395
330
396
330
397
330
398
330
399
330
39A
330
39B
330
39C
330
39D
330
39E
330
39F
330
3A0
330
3A1
330
3A2
330
3A3
330
3A4
330
3A5
330
3A6
330
3A7
330
3A8
330
3A9
330
3AA
330
3AB
330
3AC
330
3AD
330
3AE
330
3AF
 92
1
 93
8
 72
2
 10
29.5020375666
 20
2.3699465389
 40
0.0024752071
 50
270.0004896793
 51
32.9089806817
 73
1
 72
1
 10
29.5041155889
 20
2.3712913339
 11
29.4968565848
 21
2.3825073401
 72
2
 10
29.494778044
 20
2.3811628806
 40
0.0024754602
 50
32.8959418574
 51
89.9875097203
 73
1
 72
1
 10
29.4947785837
 20
2.3836383408
 11
29.4885975803
 21
2.3836383408
 72
2
 10
29.48859751
 20
2.3811631405
 40
0.0024752003
 50
89.9983726451
 51
147.6021653071
 73
1
 72
1
 10
29.4865075791
 20
2.3824893401
 11
29.4793905752
 21
2.3712723339
 72
2
 10
29.481480467
 20
2.3699463719
 40
0.0024750401
 50
147.6063258012
 51
270.0025305754
 73
1
 72
1
 10
29.4814805763
 20
2.3674713318
 11
29.5020375877
 21
2.3674713318
 97
267
330
2A5
330
2A6
330
2A7
330
2A8
330
2A9
330
2AA
330
2AB
330
2AC
330
2AD
330
2AE
330
2AF
330
2B0
330
2B1
330
2B2
330
2B3
330
2B4
330
2B5
330
2B6
330
2B7
330
2B8
330
2B9
330
2BA
330
2BB
330
2BC
330
2BD
330
2BE
330
2BF
330
2C0
330
2C1
330
2C2
330
2C3
330
2C4
330
2C5
330
2C6
330
2C7
330
2C8
330
2C9
330
2CA
330
2CB
330
2CC
330
2CD
330
2CE
330
2CF
330
2D0
330
2D1
330
2D2
330
2D3
330
2D4
330
2D5
330
2D6
330
2D7
330
2D8
330
2D9
330
2DA
330
2DB
330
2DC
330
2DD
330
2DE
330
2DF
330
2E0
330
2E1
330
2E2
330
2E3
330
2E4
330
2E5
330
2E6
330
2E7
330
2E8
330
2E9
330
2EA
330
2EB
330
2EC
330
2ED
330
2EE
330
2EF
330
2F0
330
2F1
330
2F2
330
2F3
330
2F4
330
2F5
330
2F6
330
2F7
330
2F8
330
2F9
330
2FA
330
2FB
330
2FC
330
2FD
330
2FE
330
2FF
330
300
330
301
330
302
330
303
330
304
330
305
330
306
330
307
330
308
330
309
330
30A
330
30B
330
30C
330
30D
330
30E
330
30F
330
310
330
311
330
312
330
313
330
314
330
315
330
316
330
317
330
318
330
319
330
31A
330
31B
330
31C
330
31D
330
31E
330
31F
330
320
330
321
330
322
330
323
330
324
330
325
330
326
330
327
330
328
330
329
330
32A
330
32B
330
32C
330
32D
330
32E
330
32F
330
330
330
331
330
332
330
333
330
334
330
335
330
336
330
337
330
338
330
339
330
33A
330
33B
330
33C
330
33D
330
33E
330
33F
330
340
330
341
330
342
330
343
330
344
330
345
330
346
330
347
330
348
330
349
330
34A
330
34B
330
34C
330
34D
330
34E
330
34F
330
350
330
351
330
352
330
353
330
354
330
355
330
356
330
357
330
358
330
359
330
35A
330
35B
330
35C
330
35D
330
35E
330
35F
330
360
330
361
330
362
330
363
330
364
330
365
330
366
330
367
330
368
330
369
330
36A
330
36B
330
36C
330
36D
330
36E
330
36F
330
370
330
371
330
372
330
373
330
374
330
375
330
376
330
377
330
378
330
379
330
37A
330
37B
330
37C
330
37D
330
37E
330
37F
330
380
330
381
330
382
330
383
330
384
330
385
330
386
330
387
330
388
330
389
330
38A
330
38B
330
38C
330
38D
330
38E
330
38F
330
390
330
391
330
392
330
393
330
394
330
395
330
396
330
397
330
398
330
399
330
39A
330
39B
330
39C
330
39D
330
39E
330
39F
330
3A0
330
3A1
330
3A2
330
3A3
330
3A4
330
3A5
330
3A6
330
3A7
330
3A8
330
3A9
330
3AA
330
3AB
330
3AC
330
3AD
330
3AE
330
3AF
 92
1
 93
1
 72
3
 10
29.8665327899
 20
2.3572783261
 11
-0.8250004575
 21
0.0
 40
0.218572
 50
0.0
 51
-0.0
 73
1
 97
267
330
2A5
330
2A6
330
2A7
330
2A8
330
2A9
330
2AA
330
2AB
330
2AC
330
2AD
330
2AE
330
2AF
330
2B0
330
2B1
330
2B2
330
2B3
330
2B4
330
2B5
330
2B6
330
2B7
330
2B8
330
2B9
330
2BA
330
2BB
330
2BC
330
2BD
330
2BE
330
2BF
330
2C0
330
2C1
330
2C2
330
2C3
330
2C4
330
2C5
330
2C6
330
2C7
330
2C8
330
2C9
330
2CA
330
2CB
330
2CC
330
2CD
330
2CE
330
2CF
330
2D0
330
2D1
330
2D2
330
2D3
330
2D4
330
2D5
330
2D6
330
2D7
330
2D8
330
2D9
330
2DA
330
2DB
330
2DC
330
2DD
330
2DE
330
2DF
330
2E0
330
2E1
330
2E2
330
2E3
330
2E4
330
2E5
330
2E6
330
2E7
330
2E8
330
2E9
330
2EA
330
2EB
330
2EC
330
2ED
330
2EE
330
2EF
330
2F0
330
2F1
330
2F2
330
2F3
330
2F4
330
2F5
330
2F6
330
2F7
330
2F8
330
2F9
330
2FA
330
2FB
330
2FC
330
2FD
330
2FE
330
2FF
330
300
330
301
330
302
330
303
330
304
330
305
330
306
330
307
330
308
330
309
330
30A
330
30B
330
30C
330
30D
330
30E
330
30F
330
310
330
311
330
312
330
313
330
314
330
315
330
316
330
317
330
318
330
319
330
31A
330
31B
330
31C
330
31D
330
31E
330
31F
330
320
330
321
330
322
330
323
330
324
330
325
330
326
330
327
330
328
330
329
330
32A
330
32B
330
32C
330
32D
330
32E
330
32F
330
330
330
331
330
332
330
333
330
334
330
335
330
336
330
337
330
338
330
339
330
33A
330
33B
330
33C
330
33D
330
33E
330
33F
330
340
330
341
330
342
330
343
330
344
330
345
330
346
330
347
330
348
330
349
330
34A
330
34B
330
34C
330
34D
330
34E
330
34F
330
350
330
351
330
352
330
353
330
354
330
355
330
356
330
357
330
358
330
359
330
35A
330
35B
330
35C
330
35D
330
35E
330
35F
330
360
330
361
330
362
330
363
330
364
330
365
330
366
330
367
330
368
330
369
330
36A
330
36B
330
36C
330
36D
330
36E
330
36F
330
370
330
371
330
372
330
373
330
374
330
375
330
376
330
377
330
378
330
379
330
37A
330
37B
330
37C
330
37D
330
37E
330
37F
330
380
330
381
330
382
330
383
330
384
330
385
330
386
330
387
330
388
330
389
330
38A
330
38B
330
38C
330
38D
330
38E
330
38F
330
390
330
391
330
392
330
393
330
394
330
395
330
396
330
397
330
398
330
399
330
39A
330
39B
330
39C
330
39D
330
39E
330
39F
330
3A0
330
3A1
330
3A2
330
3A3
330
3A4
330
3A5
330
3A6
330
3A7
330
3A8
330
3A9
330
3AA
330
3AB
330
3AC
330
3AD
330
3AE
330
3AF
 75
0
 76
1
 98
1
 10
0.0
 20
0.0
  0
LINE
  5
3B1
100
AcDbEntity
  8
0
100
AcDbLine
 62
7
  6
CONTINUOUS
 10
33.3524539446
 20
2.623495704
 11
27.0024539446
 21
2.623495704
  0
LINE
  5
3B2
100
AcDbEntity
  8
0
100
AcDbLine
 62
7
  6
CONTINUOUS
 10
28.7364976922
 20
0.8153979563
 11
28.1301066922
 21
0.8847909563
  0
LINE
  5
3B3
100
AcDbEntity
  8
0
100
AcDbLine
 62
7
  6
CONTINUOUS
 10
8.889879192
 20
21.3371139065
 11
8.889879192
 21
21.5871139065
  0
LINE
  5
3B4
100
AcDbEntity
  8
0
100
AcDbLine
 62
7
  6
CONTINUOUS
 10
8.8920367907
 20
0.701125727
 11
8.8920367907
 21
0.451125727
  0
LINE
  5
3B5
100
AcDbEntity
  8
0
100
AcDbLine
 62
7
  6
CONTINUOUS
 10
0.7364933212
 20
11.0250407989
 11
0.5864933212
 21
11.1116437989
  0
LINE
  5
3B6
100
AcDbEntity
  8
0
100
AcDbLine
 62
7
  6
CONTINUOUS
 10
17.0432003286
 20
21.3366775222
 11
17.1298033286
 21
21.4866775222
  0
LINE
  5
3B7
100
AcDbEntity
  8
0
100
AcDbLine
 62
7
  6
CONTINUOUS
 10
0.7364933212
 20
5.8588719767
 11
0.4864933212
 21
5.8588719767
  0
LINE
  5
3B8
100
AcDbEntity
  8
0
100
AcDbLine
 62
7
  6
CONTINUOUS
 10
33.3609986769
 20
5.8669213906
 11
33.6109986769
 21
5.8669213906
  0
LINE
  5
3B9
100
AcDbEntity
  8
0
100
AcDbLine
 62
7
  6
CONTINUOUS
 10
17.1311228366
 20
0.5535279561
 11
17.044519919
 21
0.7035279135
  0
LINE
  5
3BA
100
AcDbEntity
  8
0
100
AcDbLine
 62
7
  6
CONTINUOUS
 10
12.9686470768
 20
21.3361454131
 11
12.9686470768
 21
21.5861454131
  0
LINE
  5
3BB
100
AcDbEntity
  8
0
100
AcDbLine
 62
7
  6
CONTINUOUS
 10
12.9686929482
 20
0.7036996999
 11
12.9686929482
 21
0.4536996999
  0
LINE
  5
3BC
100
AcDbEntity
  8
0
100
AcDbLine
 62
7
  6
CONTINUOUS
 10
17.0434505532
 20
21.3371998727
 11
17.0434505532
 21
21.5871998727
  0
LINE
  5
3BD
100
AcDbEntity
  8
0
100
AcDbLine
 62
7
  6
CONTINUOUS
 10
17.044519919
 20
0.7035279135
 11
17.044519919
 21
0.4535279135
  0
LINE
  5
3BE
100
AcDbEntity
  8
0
100
AcDbLine
 62
7
  6
CONTINUOUS
 10
33.3505254366
 20
11.0229004107
 11
33.6005254366
 21
11.0229004107
  0
LINE
  5
3BF
100
AcDbEntity
  8
0
100
AcDbLine
 62
7
  6
CONTINUOUS
 10
0.7364933212
 20
11.0250407989
 11
0.4864933212
 21
11.0250407989
  0
LINE
  5
3C0
100
AcDbEntity
  8
0
100
AcDbLine
 62
7
  6
CONTINUOUS
 10
21.1216648563
 20
21.3366775222
 11
21.1216648563
 21
21.5866775222
  0
LINE
  5
3C1
100
AcDbEntity
  8
0
100
AcDbLine
 62
7
  6
CONTINUOUS
 10
21.123273272
 20
0.7029532451
 11
21.123273272
 21
0.4529532451
  0
LINE
  5
3C2
100
AcDbEntity
  8
0
100
AcDbLine
 62
7
  6
CONTINUOUS
 10
17.044519919
 20
0.7035279135
 11
16.957916919
 21
0.5535279135
  0
LINE
  5
3C3
100
AcDbEntity
  8
0
100
AcDbLine
 62
7
  6
CONTINUOUS
 10
33.3591947174
 20
16.1718388512
 11
33.6091947174
 21
16.1718388512
  0
LINE
  5
3C4
100
AcDbEntity
  8
0
100
AcDbLine
 62
7
  6
CONTINUOUS
 10
0.7307206509
 20
16.1796642805
 11
0.4807206509
 21
16.1796642805
  0
LINE
  5
3C5
100
AcDbEntity
  8
0
100
AcDbLine
 62
7
  6
CONTINUOUS
 10
16.9565973286
 20
21.4866775222
 11
17.0432003286
 21
21.3366775222
  0
LINE
  5
3C6
100
AcDbEntity
  8
0
100
AcDbLine
 62
7
  6
CONTINUOUS
 10
25.1978890403
 20
21.3360123859
 11
25.1978890403
 21
21.5860123859
  0
LINE
  5
3C7
100
AcDbEntity
  8
0
100
AcDbLine
 62
7
  6
CONTINUOUS
 10
25.1987539847
 20
0.7030140686
 11
25.1987539847
 21
0.4530140686
  0
LINE
  5
3C8
100
AcDbEntity
  8
0
100
AcDbLine
 62
7
  6
CONTINUOUS
 10
33.5005254366
 20
11.1095034107
 11
33.3505254366
 21
11.0229004107
  0
LINE
  5
3C9
100
AcDbEntity
  8
0
100
AcDbLine
 62
7
  6
CONTINUOUS
 10
33.3505254366
 20
11.0229004107
 11
33.5005254366
 21
10.9362974107
  0
LINE
  5
3CA
100
AcDbEntity
  8
0
100
AcDbLine
 62
7
  6
CONTINUOUS
 10
27.0024539446
 20
2.623495704
 11
27.0024539446
 21
0.703495704
  0
LINE
  5
3CB
100
AcDbEntity
  8
0
100
AcDbLine
 62
7
  6
CONTINUOUS
 10
27.5254366922
 20
0.9674889563
 11
27.5254366922
 21
0.7453979563
  0
LINE
  5
3CC
100
AcDbEntity
  8
0
100
AcDbLine
 62
7
  6
CONTINUOUS
 10
27.5254366922
 20
1.0174889563
 11
27.5254366922
 21
1.1174889563
  0
LINE
  5
3CD
100
AcDbEntity
  8
0
100
AcDbLine
 62
7
  6
CONTINUOUS
 10
27.5254366922
 20
1.1674889563
 11
27.5254366922
 21
1.3895799563
  0
LINE
  5
3CE
100
AcDbEntity
  8
0
100
AcDbLine
 62
7
  6
CONTINUOUS
 10
33.3519788796
 20
21.3366775222
 11
0.7364933212
 21
21.3366775222
  0
LINE
  5
3CF
100
AcDbEntity
  8
0
100
AcDbLine
 62
7
  6
CONTINUOUS
 10
17.1298033286
 20
21.4866775222
 11
16.9565973286
 21
21.4866775222
  0
LINE
  5
3D0
100
AcDbEntity
  8
0
100
AcDbLine
 62
7
  6
CONTINUOUS
 10
28.1301066922
 20
0.8847909563
 11
28.1301066922
 21
1.2501869563
  0
LINE
  5
3D1
100
AcDbEntity
  8
0
100
AcDbLine
 62
7
  6
CONTINUOUS
 10
28.7364976922
 20
1.3195799563
 11
28.7364976922
 21
0.8153979563
  0
LINE
  5
3D2
100
AcDbEntity
  8
0
100
AcDbLine
 62
7
  6
CONTINUOUS
 10
29.0024539446
 20
2.623495704
 11
29.0024539446
 21
0.703495704
  0
LINE
  5
3D3
100
AcDbEntity
  8
0
100
AcDbLine
 62
7
  6
CONTINUOUS
 10
29.2763246158
 20
0.7031465965
 11
29.2763246158
 21
0.4531465965
  0
LINE
  5
3D4
100
AcDbEntity
  8
0
100
AcDbLine
 62
7
  6
CONTINUOUS
 10
29.2763389625
 20
21.3354056718
 11
29.2763389625
 21
21.5854056718
  0
LINE
  5
3D5
100
AcDbEntity
  8
0
100
AcDbLine
 62
7
  6
CONTINUOUS
 10
29.8024539446
 20
1.323495704
 11
29.8024539446
 21
0.953495704
  0
LINE
  5
3D6
100
AcDbEntity
  8
0
100
AcDbLine
 62
7
  6
CONTINUOUS
 10
31.1774539446
 20
0.953495704
 11
31.1774539446
 21
0.703495704
  0
LINE
  5
3D7
100
AcDbEntity
  8
0
100
AcDbLine
 62
7
  6
CONTINUOUS
 10
32.5524539446
 20
1.323495704
 11
32.5524539446
 21
0.953495704
  0
LINE
  5
3D8
100
AcDbEntity
  8
0
100
AcDbLine
 62
7
  6
CONTINUOUS
 10
33.3519788796
 20
0.703495704
 11
33.3519788796
 21
21.3366775222
  0
LINE
  5
3D9
100
AcDbEntity
  8
0
100
AcDbLine
 62
7
  6
CONTINUOUS
 10
33.5005254366
 20
10.9362974107
 11
33.5005254366
 21
11.1095034107
  0
LWPOLYLINE
  5
3DA
100
AcDbEntity
  8
AXIS_COSMETIC_THREADS
100
AcDbPolyline
 62
7
  6
CONTINUOUS
 90
4
 70
0
 10
6.7993326777
 20
17.5961303745
 10
6.8003422459
 20
17.5803968586
 10
6.8024434108
 20
17.5648745355
 10
6.8056166798
 20
17.5497074061
  0
LINE
  5
3DB
100
AcDbEntity
  8
0
100
AcDbLine
 62
7
  6
CONTINUOUS
 10
7.1493130362
 20
18.0670705384
 11
7.1482618945
 21
18.1185138467
  0
LWPOLYLINE
  5
3DC
100
AcDbEntity
  8
0
100
AcDbPolyline
 62
7
  6
CONTINUOUS
 90
3
 70
0
 10
7.0407784093
 20
18.0815902605
 10
7.0403454079
 20
18.0691451454
 10
7.0394086474
 20
18.0567810972
  0
LWPOLYLINE
  5
3DD
100
AcDbEntity
  8
0
100
AcDbPolyline
 62
7
  6
CONTINUOUS
 90
3
 70
0
 10
7.0203943967
 20
17.5821882955
 10
7.0213226541
 20
17.6077958209
 10
7.0193494368
 20
17.6332841607
  0
LINE
  5
3DE
100
AcDbEntity
  8
0
100
AcDbLine
 62
7
  6
CONTINUOUS
 10
7.0536499303
 20
17.2277391743
 11
7.0501732523
 21
17.1647694917
  0
LWPOLYLINE
  5
3DF
100
AcDbEntity
  8
0
100
AcDbPolyline
 62
7
  6
CONTINUOUS
 90
3
 70
0
 10
7.0755874995
 20
17.5683750115
 10
7.0776851562
 20
17.5973022761
 10
7.0767916149
 20
17.6263435435
  0
LWPOLYLINE
  5
3E0
100
AcDbEntity
  8
0
100
AcDbPolyline
 62
7
  6
CONTINUOUS
 90
3
 70
0
 10
6.7240726563
 20
18.1146170013
 10
6.7231358957
 20
18.1022529532
 10
6.7227028944
 20
18.0898078381
  0
LWPOLYLINE
  5
3E1
100
AcDbEntity
  8
0
100
AcDbPolyline
 62
7
  6
CONTINUOUS
 90
5
 70
0
 10
6.9947473005
 20
17.8364688527
 10
6.9952809132
 20
17.8412170747
 10
6.9983878434
 20
17.8642664235
 10
7.002138367
 20
17.8872993136
 10
7.0065893289
 20
17.9098822341
  0
LINE
  5
3E2
100
AcDbEntity
  8
0
100
AcDbLine
 62
7
  6
CONTINUOUS
 10
7.1437461852
 20
18.024935199
 11
7.1493130362
 21
18.0670705384
  0
LINE
  5
3E3
100
AcDbEntity
  8
0
100
AcDbLine
 62
7
  6
CONTINUOUS
 10
7.0165875216
 20
17.5570921265
 11
7.0203943967
 21
17.5821882955
  0
LWPOLYLINE
  5
3E4
100
AcDbEntity
  8
0
100
AcDbPolyline
 62
7
  6
CONTINUOUS
 90
3
 70
0
 10
7.0763492473
 20
17.5751433101
 10
7.0701550848
 20
17.5385266889
 10
7.0592132231
 20
17.5041023211
  0
LWPOLYLINE
  5
3E5
100
AcDbEntity
  8
0
100
AcDbPolyline
 62
7
  6
CONTINUOUS
 90
17
 70
0
 10
6.7106141284
 20
18.3521080461
 10
6.6435150428
 20
18.1937953847
 10
6.5928477579
 20
18.024901262
 10
6.5593714585
 20
17.848177141
 10
6.5437142535
 20
17.6671514842
 10
6.5460967347
 20
17.4850338293
 10
6.5664624627
 20
17.3050506211
 10
6.6044488493
 20
17.1304972815
 10
6.6594775764
 20
16.9643156322
 10
6.7305083834
 20
16.8098478262
 10
6.8164569025
 20
16.6696376273
 10
6.9154837375
 20
16.5467458779
 10
7.0259251091
 20
16.4431713484
 10
7.1451603702
 20
16.3611352513
 10
7.2714579476
 20
16.3015574913
 10
7.4020426375
 20
16.2655083639
 10
7.5346755632
 20
16.2532995376
  0
LWPOLYLINE
  5
3E6
100
AcDbEntity
  8
0
100
AcDbPolyline
 62
7
  6
CONTINUOUS
 90
6
 70
0
 10
6.9933730426
 20
17.1648800143
 10
6.9901744377
 20
17.1773081363
 10
6.9889107495
 20
17.1903910257
 10
6.9896376196
 20
17.2035561159
 10
6.9923232325
 20
17.2162271639
 10
6.9968497206
 20
17.2278496969
  0
LINE
  5
3E7
100
AcDbEntity
  8
0
100
AcDbLine
 62
7
  6
CONTINUOUS
 10
7.0193494368
 20
17.6332841607
 11
7.0145233321
 21
17.6580257071
  0
LINE
  5
3E8
100
AcDbEntity
  8
AXIS_COSMETIC_THREADS
100
AcDbLine
 62
7
  6
CONTINUOUS
 10
6.837901404
 20
17.5581584982
 11
6.8316174019
 21
17.6045814665
  0
LINE
  5
3E9
100
AcDbEntity
  8
0
100
AcDbLine
 62
7
  6
CONTINUOUS
 10
7.0767916149
 20
17.6263435435
 11
7.0729250655
 21
17.654907617
  0
LWPOLYLINE
  5
3EA
100
AcDbEntity
  8
0
100
AcDbPolyline
 62
7
  6
CONTINUOUS
 90
8
 70
0
 10
7.6986459633
 20
17.5646708714
 10
7.6987311604
 20
17.6392537877
 10
7.690795286
 20
17.7130069006
 10
7.6750156142
 20
17.7842826874
 10
7.651744637
 20
17.8514889649
 10
7.6215021894
 20
17.9131244558
 10
7.5849638378
 20
17.9678123252
 10
7.5429457885
 20
18.0143309364
  0
LINE
  5
3EB
100
AcDbEntity
  8
0
100
AcDbLine
 62
7
  6
CONTINUOUS
 10
7.6167288469
 20
18.3695124148
 11
7.613252169
 21
18.3065427322
  0
LWPOLYLINE
  5
3EC
100
AcDbEntity
  8
0
100
AcDbPolyline
 62
7
  6
CONTINUOUS
 90
11
 70
0
 10
7.6986459633
 20
17.5646708714
 10
7.6966408566
 20
17.5282836312
 10
7.6947589035
 20
17.4932252683
 10
7.693179108
 20
17.4610944471
 10
7.6920324291
 20
17.433163482
 10
7.6912992247
 20
17.4085904226
 10
7.6909395487
 20
17.3857273262
 10
7.6909837862
 20
17.3629829145
 10
7.6915451241
 20
17.339926428
 10
7.6927517344
 20
17.3168838922
 10
7.6947083144
 20
17.2942885039
  0
LINE
  5
3ED
100
AcDbEntity
  8
0
100
AcDbLine
 62
7
  6
CONTINUOUS
 10
7.8268374491
 20
17.2940314052
 11
7.8566917546
 21
17.8347533732
  0
LINE
  5
3EE
100
AcDbEntity
  8
0
100
AcDbLine
 62
7
  6
CONTINUOUS
 10
7.0838614138
 20
17.573711438
 11
7.0773476889
 21
17.5352054993
  0
LINE
  5
3EF
100
AcDbEntity
  8
0
100
AcDbLine
 62
7
  6
CONTINUOUS
 10
7.070541347
 20
17.5401506253
 11
7.0755874995
 21
17.5683750115
  0
LWPOLYLINE
  5
3F0
100
AcDbEntity
  8
0
100
AcDbPolyline
 62
7
  6
CONTINUOUS
 90
11
 70
0
 10
7.7245626199
 20
17.8350104719
 10
7.7200308935
 20
17.8119753406
 10
7.7162445705
 20
17.7886035613
 10
7.7131112225
 20
17.7651743909
 10
7.7105206895
 20
17.7418635833
 10
7.7083210282
 20
17.7182846094
 10
7.7063403931
 20
17.6932919073
 10
7.7044569038
 20
17.6657745323
 10
7.7025896325
 20
17.6351127539
 10
7.7006650522
 20
17.6011691037
 10
7.6986459633
 20
17.5646708714
  0
LWPOLYLINE
  5
3F1
100
AcDbEntity
  8
0
100
AcDbPolyline
 62
7
  6
CONTINUOUS
 90
5
 70
0
 10
7.2879661066
 20
17.5055200264
 10
7.2970004195
 20
17.5435959335
 10
7.3011826577
 20
17.583874369
 10
7.3002071951
 20
17.6250536062
 10
7.2940883092
 20
17.6652486904
  0
LINE
  5
3F2
100
AcDbEntity
  8
0
100
AcDbLine
 62
7
  6
CONTINUOUS
 10
7.0099957664
 20
17.5331252651
 11
7.0165875216
 21
17.5570921265
  0
LINE
  5
3F3
100
AcDbEntity
  8
0
100
AcDbLine
 62
7
  6
CONTINUOUS
 10
7.0626494238
 20
17.5132036846
 11
7.070541347
 21
17.5401506253
  0
LWPOLYLINE
  5
3F4
100
AcDbEntity
  8
0
100
AcDbPolyline
 62
7
  6
CONTINUOUS
 90
7
 70
0
 10
7.0773476889
 20
17.5352054993
 10
7.0658412896
 20
17.4990049417
 10
7.0497340801
 20
17.4663427488
 10
7.0295746525
 20
17.4383313553
 10
7.0060496475
 20
17.4159247697
 10
6.9799603525
 20
17.3998860483
 10
6.9521953171
 20
17.3907612757
  0
LWPOLYLINE
  5
3F5
100
AcDbEntity
  8
0
100
AcDbPolyline
 62
7
  6
CONTINUOUS
 90
9
 70
0
 10
6.8921795894
 20
17.6675748784
 10
6.8904838717
 20
17.6626225756
 10
6.8900682399
 20
17.657238861
 10
6.8909591042
 20
17.6521025752
 10
6.892951383
 20
17.6475988787
 10
6.8959100714
 20
17.6438192322
 10
6.8993795893
 20
17.6411255934
 10
6.9036408624
 20
17.6392814631
 10
6.9083863698
 20
17.6386152451
  0
LWPOLYLINE
  5
3F6
100
AcDbEntity
  8
0
100
AcDbPolyline
 62
7
  6
CONTINUOUS
 90
9
 70
0
 10
6.9106940082
 20
17.5307998962
 10
6.9089982905
 20
17.5258475934
 10
6.9085826587
 20
17.5204638789
 10
6.909473523
 20
17.5153275931
 10
6.9114658018
 20
17.5108238965
 10
6.9144244902
 20
17.5070442501
 10
6.9178940082
 20
17.5043506113
 10
6.9221552812
 20
17.5025064809
 10
6.9269007886
 20
17.5018402629
  0
LWPOLYLINE
  5
3F7
100
AcDbEntity
  8
0
100
AcDbPolyline
 62
7
  6
CONTINUOUS
 90
4
 70
0
 10
6.9908859099
 20
17.6934129866
 10
6.9891901922
 20
17.6884606837
 10
6.9887745604
 20
17.6830769692
 10
6.9896654247
 20
17.6779406834
  0
LWPOLYLINE
  5
3F8
100
AcDbEntity
  8
0
100
AcDbPolyline
 62
7
  6
CONTINUOUS
 90
4
 70
0
 10
7.0094003287
 20
17.5566380044
 10
7.007704611
 20
17.5516857016
 10
7.0072889792
 20
17.546301987
 10
7.0081798436
 20
17.5411657012
  0
LWPOLYLINE
  5
3F9
100
AcDbEntity
  8
0
100
AcDbPolyline
 62
7
  6
CONTINUOUS
 90
8
 70
0
 10
6.9933730426
 20
17.1648800143
 10
6.9964946657
 20
17.1734508746
 10
6.9989603928
 20
17.1823638972
 10
7.0005549302
 20
17.1915592433
 10
7.0010875053
 20
17.2009406986
 10
7.0005238885
 20
17.2102582909
 10
6.9990442166
 20
17.2192046895
 10
6.9968497206
 20
17.2278496969
  0
LWPOLYLINE
  5
3FA
100
AcDbEntity
  8
0
100
AcDbPolyline
 62
7
  6
CONTINUOUS
 90
8
 70
0
 10
7.5564519593
 20
18.3066532548
 10
7.5595735823
 20
18.315224115
 10
7.5620393094
 20
18.3241371377
 10
7.5636338469
 20
18.3333324838
 10
7.564166422
 20
18.3427139391
 10
7.5636028051
 20
18.3520315314
 10
7.5621231333
 20
18.3609779299
 10
7.5599286372
 20
18.3696229374
  0
LWPOLYLINE
  5
3FB
100
AcDbEntity
  8
0
100
AcDbPolyline
 62
7
  6
CONTINUOUS
 90
10
 70
0
 10
6.9201446084
 20
17.6472065637
 10
6.9217234348
 20
17.651421737
 10
6.922528558
 20
17.6560335652
 10
6.922514315
 20
17.6607800197
 10
6.921681287
 20
17.6653804228
 10
6.920077429
 20
17.6695707311
 10
6.9177961996
 20
17.6731057958
 10
6.914970098
 20
17.6757803496
 10
6.9117634714
 20
17.6774388589
 10
6.9084608378
 20
17.6779852532
  0
LWPOLYLINE
  5
3FC
100
AcDbEntity
  8
0
100
AcDbPolyline
 62
7
  6
CONTINUOUS
 90
10
 70
0
 10
6.9386590272
 20
17.5104315815
 10
6.9402378536
 20
17.5146467548
 10
6.9410429768
 20
17.519258583
 10
6.9410287338
 20
17.5240050375
 10
6.9401957058
 20
17.5286054406
 10
6.9385918478
 20
17.532795749
 10
6.9363106184
 20
17.5363308136
 10
6.9334845168
 20
17.5390053674
 10
6.9302778902
 20
17.5406638767
 10
6.9269752566
 20
17.541210271
  0
LWPOLYLINE
  5
3FD
100
AcDbEntity
  8
0
100
AcDbPolyline
 62
7
  6
CONTINUOUS
 90
14
 70
0
 10
6.8952463568
 20
17.6609607586
 10
6.8948717505
 20
17.6599618425
 10
6.8946793172
 20
17.6588637358
 10
6.8946821029
 20
17.6577332267
 10
6.8948801143
 20
17.6566372412
 10
6.8952619839
 20
17.6556388061
 10
6.8958054547
 20
17.6547965273
 10
6.8964787899
 20
17.6541595559
 10
6.8972427161
 20
17.6537649316
 10
6.8980527884
 20
17.6536355324
 10
6.8988615848
 20
17.6537787401
 10
6.899622572
 20
17.6541863069
 10
6.9002908907
 20
17.6548339681
 10
6.900826064
 20
17.6556801633
  0
LWPOLYLINE
  5
3FE
100
AcDbEntity
  8
0
100
AcDbPolyline
 62
7
  6
CONTINUOUS
 90
14
 70
0
 10
6.900826064
 20
17.6556801633
 10
6.9012006703
 20
17.6566790794
 10
6.9013931036
 20
17.6577771861
 10
6.9013903179
 20
17.6589076952
 10
6.9011923065
 20
17.6600036807
 10
6.9008104369
 20
17.6610021158
 10
6.900266966
 20
17.6618443946
 10
6.8995936308
 20
17.662481366
 10
6.8988297047
 20
17.6628759903
 10
6.8980196323
 20
17.6630053895
 10
6.8972108359
 20
17.6628621818
 10
6.8964498487
 20
17.662454615
 10
6.8957815301
 20
17.6618069537
 10
6.8952463568
 20
17.6609607586
  0
LWPOLYLINE
  5
3FF
100
AcDbEntity
  8
0
100
AcDbPolyline
 62
7
  6
CONTINUOUS
 90
14
 70
0
 10
6.9137607756
 20
17.5241857764
 10
6.9133861693
 20
17.5231868603
 10
6.913193736
 20
17.5220887537
 10
6.9131965217
 20
17.5209582446
 10
6.9133945331
 20
17.519862259
 10
6.9137764027
 20
17.5188638239
 10
6.9143198736
 20
17.5180215452
 10
6.9149932087
 20
17.5173845737
 10
6.9157571349
 20
17.5169899494
 10
6.9165672073
 20
17.5168605503
 10
6.9173760037
 20
17.5170037579
 10
6.9181369909
 20
17.5174113247
 10
6.9188053095
 20
17.518058986
 10
6.9193404828
 20
17.5189051812
  0
LWPOLYLINE
  5
400
100
AcDbEntity
  8
0
100
AcDbPolyline
 62
7
  6
CONTINUOUS
 90
14
 70
0
 10
6.9193404828
 20
17.5189051812
 10
6.9197150891
 20
17.5199040973
 10
6.9199075224
 20
17.5210022039
 10
6.9199047367
 20
17.522132713
 10
6.9197067253
 20
17.5232286986
 10
6.9193248557
 20
17.5242271336
 10
6.9187813848
 20
17.5250694124
 10
6.9181080497
 20
17.5257063838
 10
6.9173441235
 20
17.5261010081
 10
6.9165340511
 20
17.5262304073
 10
6.9157252547
 20
17.5260871997
 10
6.9149642675
 20
17.5256796329
 10
6.9142959489
 20
17.5250319716
 10
6.9137607756
 20
17.5241857764
  0
LWPOLYLINE
  5
401
100
AcDbEntity
  8
0
100
AcDbPolyline
 62
7
  6
CONTINUOUS
 90
14
 70
0
 10
6.9939526773
 20
17.6867988667
 10
6.993578071
 20
17.6857999506
 10
6.9933856377
 20
17.684701844
 10
6.9933884234
 20
17.6835713349
 10
6.9935864348
 20
17.6824753493
 10
6.9939683044
 20
17.6814769142
 10
6.9945117753
 20
17.6806346355
 10
6.9951851104
 20
17.6799976641
 10
6.9959490366
 20
17.6796030398
 10
6.996759109
 20
17.6794736406
 10
6.9975679054
 20
17.6796168482
 10
6.9983288926
 20
17.680024415
 10
6.9989972112
 20
17.6806720763
 10
6.9995323845
 20
17.6815182715
  0
LWPOLYLINE
  5
402
100
AcDbEntity
  8
0
100
AcDbPolyline
 62
7
  6
CONTINUOUS
 90
14
 70
0
 10
6.9995323845
 20
17.6815182715
 10
6.9999069908
 20
17.6825171876
 10
7.0000994241
 20
17.6836152942
 10
7.0000966384
 20
17.6847458033
 10
6.999898627
 20
17.6858417889
 10
6.9995167574
 20
17.686840224
 10
6.9989732865
 20
17.6876825027
 10
6.9982999514
 20
17.6883194742
 10
6.9975360252
 20
17.6887140984
 10
6.9967259528
 20
17.6888434976
 10
6.9959171564
 20
17.68870029
 10
6.9951561692
 20
17.6882927232
 10
6.9944878506
 20
17.6876450619
 10
6.9939526773
 20
17.6867988667
  0
LWPOLYLINE
  5
403
100
AcDbEntity
  8
0
100
AcDbPolyline
 62
7
  6
CONTINUOUS
 90
7
 70
0
 10
7.0124670961
 20
17.5500238845
 10
7.0120924898
 20
17.5490249684
 10
7.0119000565
 20
17.5479268618
 10
7.0119028422
 20
17.5467963527
 10
7.0121008536
 20
17.5457003672
 10
7.0124827232
 20
17.5447019321
 10
7.0129714479
 20
17.5439444997
  0
LWPOLYLINE
  5
404
100
AcDbEntity
  8
0
100
AcDbPolyline
 62
7
  6
CONTINUOUS
 90
9
 70
0
 10
7.0836843948
 20
17.4710385128
 10
7.0971976886
 20
17.5069408539
 10
7.1058893063
 20
17.5450593151
 10
7.1097235926
 20
17.5851365583
 10
7.1084280729
 20
17.6259467031
 10
7.1020339225
 20
17.665604321
 10
7.0909618161
 20
17.7025595813
 10
7.0754442116
 20
17.7364205563
 10
7.0557748231
 20
17.7663435662
  0
LINE
  5
405
100
AcDbEntity
  8
0
100
AcDbLine
 62
7
  6
CONTINUOUS
 10
7.0007814422
 20
17.5108778548
 11
7.0099957664
 21
17.5331252651
  0
LWPOLYLINE
  5
406
100
AcDbEntity
  8
0
100
AcDbPolyline
 62
7
  6
CONTINUOUS
 90
13
 70
0
 10
7.0248116938
 20
17.4881357956
 10
7.0353887308
 20
17.5132567288
 10
7.0432806539
 20
17.5402036695
 10
7.0483268064
 20
17.5684280558
 10
7.0504244631
 20
17.5973553204
 10
7.0495309218
 20
17.6263965877
 10
7.0456643725
 20
17.6549606612
 10
7.0389035268
 20
17.6824660589
 10
7.0293860162
 20
17.70835285
 10
7.0173055897
 20
17.7320940542
 10
7.0029081699
 20
17.753206369
 10
6.9864868468
 20
17.7712600087
 10
6.9683759112
 20
17.785887453
  0
LINE
  5
407
100
AcDbEntity
  8
0
100
AcDbLine
 62
7
  6
CONTINUOUS
 10
7.0520723868
 20
17.4880827514
 11
7.0626494238
 21
17.5132036846
  0
LWPOLYLINE
  5
408
100
AcDbEntity
  8
0
100
AcDbPolyline
 62
7
  6
CONTINUOUS
 90
12
 70
0
 10
6.7267121852
 20
18.3173873249
 10
6.6633757428
 20
18.16805395
 10
6.6152333891
 20
18.0080270455
 10
6.5832520679
 20
17.8404230246
 10
6.5680309075
 20
17.6683757191
 10
6.5698529636
 20
17.4950888519
 10
6.5886842615
 20
17.3237905964
 10
6.6241739519
 20
17.1576726134
 10
6.6756608168
 20
16.9998299265
 10
6.7421855784
 20
16.8532034136
 10
6.8225087705
 20
16.7205249806
 10
6.9151338382
 20
16.6042666491
  0
LWPOLYLINE
  5
409
100
AcDbEntity
  8
0
100
AcDbPolyline
 62
7
  6
CONTINUOUS
 90
4
 70
0
 10
7.0065893289
 20
17.9098822341
 10
7.0104823673
 20
17.9180763566
 10
7.0144768134
 20
17.9261762921
 10
7.0185714673
 20
17.9341796072
  0
LINE
  5
40A
100
AcDbEntity
  8
0
100
AcDbLine
 62
7
  6
CONTINUOUS
 10
6.7240726563
 20
18.1146170013
 11
6.8049671687
 21
18.2786548452
  0
LINE
  5
40B
100
AcDbEntity
  8
0
100
AcDbLine
 62
7
  6
CONTINUOUS
 10
7.0394086474
 20
18.0567810972
 11
6.958514135
 21
17.8927432533
  0
LWPOLYLINE
  5
40C
100
AcDbEntity
  8
0
100
AcDbPolyline
 62
7
  6
CONTINUOUS
 90
3
 70
0
 10
7.0081798436
 20
17.5411657012
 10
7.0101721223
 20
17.5366620047
 10
7.0107614402
 20
17.5359091666
  0
LWPOLYLINE
  5
40D
100
AcDbEntity
  8
0
100
AcDbPolyline
 62
7
  6
CONTINUOUS
 90
6
 70
0
 10
6.9896654247
 20
17.6779406834
 10
6.9916577035
 20
17.6734369868
 10
6.9946163919
 20
17.6696573404
 10
6.9980859099
 20
17.6669637016
 10
7.0023471829
 20
17.6651195712
 10
7.0070926903
 20
17.6644533532
  0
LWPOLYLINE
  5
40E
100
AcDbEntity
  8
0
100
AcDbPolyline
 62
7
  6
CONTINUOUS
 90
6
 70
0
 10
7.0661642199
 20
17.6824130146
 10
7.0566467093
 20
17.7082998058
 10
7.0445662827
 20
17.73204101
 10
7.030168863
 20
17.7531533248
 10
7.0137475399
 20
17.7712069644
 10
6.9956366043
 20
17.7858344088
  0
LWPOLYLINE
  5
40F
100
AcDbEntity
  8
0
100
AcDbPolyline
 62
7
  6
CONTINUOUS
 90
3
 70
0
 10
6.9859123239
 20
17.3426563422
 10
6.9811997788
 20
17.3558257208
 10
6.9767350234
 20
17.369160266
  0
LINE
  5
410
100
AcDbEntity
  8
0
100
AcDbLine
 62
7
  6
CONTINUOUS
 10
6.7846612218
 20
17.9108730001
 11
6.7227028944
 21
18.0898078381
  0
LWPOLYLINE
  5
411
100
AcDbEntity
  8
0
100
AcDbPolyline
 62
7
  6
CONTINUOUS
 90
5
 70
0
 10
7.0218672048
 20
17.3692056854
 10
7.0275739985
 20
17.3527245401
 10
7.0578164461
 20
17.2910890492
 10
7.0943547977
 20
17.2364011798
 10
7.1363728469
 20
17.1898825685
  0
LINE
  5
412
100
AcDbEntity
  8
0
100
AcDbLine
 62
7
  6
CONTINUOUS
 10
6.9788200818
 20
18.2605250985
 11
7.0407784093
 21
18.0815902605
  0
LINE
  5
413
100
AcDbEntity
  8
0
100
AcDbLine
 62
7
  6
CONTINUOUS
 10
7.1067393334
 20
18.2451356369
 11
7.1458933194
 21
18.1320594381
  0
LINE
  5
414
100
AcDbEntity
  8
0
100
AcDbLine
 62
7
  6
CONTINUOUS
 10
7.0145233321
 20
17.6580257071
 11
7.0069631746
 21
17.6814112413
  0
LWPOLYLINE
  5
415
100
AcDbEntity
  8
0
100
AcDbPolyline
 62
7
  6
CONTINUOUS
 90
5
 70
0
 10
7.2665296325
 20
17.6666470545
 10
7.2553875903
 20
17.7045426294
 10
7.2396187003
 20
17.7394818378
 10
7.2197995545
 20
17.7701571145
 10
7.1964283093
 20
17.795820286
  0
LINE
  5
416
100
AcDbEntity
  8
0
100
AcDbLine
 62
7
  6
CONTINUOUS
 10
7.2940883092
 20
17.6652486904
 11
7.2831309187
 21
17.703172019
  0
LWPOLYLINE
  5
417
100
AcDbEntity
  8
0
100
AcDbPolyline
 62
7
  6
CONTINUOUS
 90
6
 70
0
 10
7.0755329375
 20
17.2196444458
 10
7.0787315424
 20
17.2072163239
 10
7.0799952306
 20
17.1941334345
 10
7.0792683605
 20
17.1809683443
 10
7.0765827476
 20
17.1682972963
 10
7.0720562595
 20
17.1566747633
  0
LWPOLYLINE
  5
418
100
AcDbEntity
  8
0
100
AcDbPolyline
 62
7
  6
CONTINUOUS
 90
8
 70
0
 10
7.0755329375
 20
17.2196444458
 10
7.077707564
 20
17.2110632801
 10
7.0791886567
 20
17.2021425777
 10
7.079767575
 20
17.1929430024
 10
7.0792642104
 20
17.1835614903
 10
7.0776719405
 20
17.1742480929
 10
7.0752047968
 20
17.1653093742
 10
7.0720562595
 20
17.1566747633
  0
LINE
  5
419
100
AcDbEntity
  8
0
100
AcDbLine
 62
7
  6
CONTINUOUS
 10
7.0729250655
 20
17.654907617
 11
7.0661642199
 21
17.6824130146
  0
LWPOLYLINE
  5
41A
100
AcDbEntity
  8
0
100
AcDbPolyline
 62
7
  6
CONTINUOUS
 90
4
 70
0
 10
7.0651826543
 20
17.6855583526
 10
7.0738199017
 20
17.6499323401
 10
7.0775848312
 20
17.6127048697
 10
7.0763492473
 20
17.5751433101
  0
LWPOLYLINE
  5
41B
100
AcDbEntity
  8
0
100
AcDbPolyline
 62
7
  6
CONTINUOUS
 90
4
 70
0
 10
7.0721184316
 20
17.6898236211
 10
7.0812013801
 20
17.6523597203
 10
7.0851606915
 20
17.6132112537
 10
7.0838614138
 20
17.573711438
  0
LWPOLYLINE
  5
41C
100
AcDbEntity
  8
0
100
AcDbPolyline
 62
7
  6
CONTINUOUS
 90
3
 70
0
 10
7.1482618945
 20
18.1185138467
 10
7.1394724115
 20
18.1687798255
 10
7.1233982413
 20
18.2152038294
  0
LWPOLYLINE
  5
41D
100
AcDbEntity
  8
0
100
AcDbPolyline
 62
7
  6
CONTINUOUS
 90
6
 70
0
 10
7.1638072951
 20
17.6263994121
 10
7.1575081002
 20
17.6667642723
 10
7.1463878333
 20
17.7046381922
 10
7.1307277734
 20
17.7394137851
 10
7.1108180583
 20
17.7702893006
 10
7.087385537
 20
17.796032463
  0
LWPOLYLINE
  5
41E
100
AcDbEntity
  8
0
100
AcDbPolyline
 62
7
  6
CONTINUOUS
 90
11
 70
0
 10
7.1755056106
 20
17.6667292525
 10
7.1818048056
 20
17.6263643923
 10
7.1829138108
 20
17.585068834
 10
7.1788473764
 20
17.5447365014
 10
7.1698390872
 20
17.5063310689
 10
7.1559414254
 20
17.4703428053
 10
7.1377131104
 20
17.4384883209
 10
7.1160926925
 20
17.4121065695
 10
7.0916714772
 20
17.3915962389
 10
7.0648637707
 20
17.3773106967
 10
7.0366457247
 20
17.3698657314
  0
LWPOLYLINE
  5
41F
100
AcDbEntity
  8
0
100
AcDbPolyline
 62
7
  6
CONTINUOUS
 90
11
 70
0
 10
7.121068522
 20
17.6664570701
 10
7.1273224118
 20
17.626038483
 10
7.1283732457
 20
17.5846671983
 10
7.1242263581
 20
17.5442475406
 10
7.115200002
 20
17.5060545977
 10
7.1013511646
 20
17.470303609
 10
7.0831749812
 20
17.4385700139
 10
7.0615714529
 20
17.412212807
 10
7.0370998161
 20
17.3916681383
 10
7.0104504088
 20
17.3774595194
 10
6.9823323411
 20
17.3700004874
  0
LWPOLYLINE
  5
420
100
AcDbEntity
  8
0
100
AcDbPolyline
 62
7
  6
CONTINUOUS
 90
6
 70
0
 10
7.1365640536
 20
17.6262599117
 10
7.1304294628
 20
17.6659975426
 10
7.1194177484
 20
17.7038992367
 10
7.1036015753
 20
17.7392179081
 10
7.0835228565
 20
17.7703874026
 10
7.060124844
 20
17.7960855072
  0
LWPOLYLINE
  5
421
100
AcDbEntity
  8
0
100
AcDbPolyline
 62
7
  6
CONTINUOUS
 90
11
 70
0
 10
7.1484269733
 20
17.6659625228
 10
7.154561564
 20
17.6262248918
 10
7.1556732682
 20
17.5856797485
 10
7.1517168685
 20
17.5455780488
 10
7.1428529851
 20
17.5072841812
 10
7.1292589874
 20
17.4716252553
 10
7.1115541451
 20
17.4401627851
 10
7.0902933423
 20
17.4136636163
 10
7.0657507022
 20
17.3925715942
 10
7.0386747523
 20
17.3777927118
 10
7.010319111
 20
17.3700504901
  0
LINE
  5
422
100
AcDbEntity
  8
0
100
AcDbLine
 62
7
  6
CONTINUOUS
 10
7.9510837357
 20
17.2157283885
 11
7.9476070578
 21
17.152758706
  0
LWPOLYLINE
  5
423
100
AcDbEntity
  8
0
100
AcDbPolyline
 62
7
  6
CONTINUOUS
 90
8
 70
0
 10
7.8908068481
 20
17.1528692286
 10
7.8939284711
 20
17.1614400888
 10
7.8963941982
 20
17.1703531115
 10
7.8979887357
 20
17.1795484576
 10
7.8985213108
 20
17.1889299129
 10
7.8979576939
 20
17.1982475052
 10
7.8964780221
 20
17.2071939037
 10
7.894283526
 20
17.2158389111
  0
LINE
  5
424
100
AcDbEntity
  8
0
100
AcDbLine
 62
7
  6
CONTINUOUS
 10
7.5041902779
 20
16.7123616541
 11
7.4956439795
 21
16.6890428577
  0
LINE
  5
425
100
AcDbEntity
  8
0
100
AcDbLine
 62
7
  6
CONTINUOUS
 10
8.1098132072
 20
17.9404027581
 11
8.1012669088
 21
17.9170839617
  0
LWPOLYLINE
  5
426
100
AcDbEntity
  8
0
100
AcDbPolyline
 62
7
  6
CONTINUOUS
 90
9
 70
0
 10
7.4916194652
 20
16.6977230378
 10
7.4987042515
 20
16.7170364555
 10
7.5020889531
 20
16.7386090301
 10
7.5014121355
 20
16.7608263751
 10
7.4967252564
 20
16.7818820244
 10
7.4885267687
 20
16.8001179206
 10
7.4776225656
 20
16.8142703103
 10
7.464691204
 20
16.8236104319
 10
7.4500970731
 20
16.8272982459
  0
LWPOLYLINE
  5
427
100
AcDbEntity
  8
0
100
AcDbPolyline
 62
7
  6
CONTINUOUS
 90
9
 70
0
 10
8.0972423945
 20
17.9257641419
 10
8.1043271808
 20
17.9450775595
 10
8.1077118824
 20
17.9666501341
 10
8.1070350648
 20
17.9888674791
 10
8.1023481857
 20
18.0099231284
 10
8.0941496979
 20
18.0281590246
 10
8.0832454949
 20
18.0423114143
 10
8.0703141332
 20
18.0516515359
 10
8.0557200023
 20
18.0553393499
  0
LWPOLYLINE
  5
428
100
AcDbEntity
  8
0
100
AcDbPolyline
 62
7
  6
CONTINUOUS
 90
5
 70
0
 10
7.6368138919
 20
17.3208817769
 10
7.6608170633
 20
17.3771242937
 10
7.6793092627
 20
17.4371804272
 10
7.6919911386
 20
17.500056122
 10
7.6986459633
 20
17.5646708714
  0
LINE
  5
429
100
AcDbEntity
  8
0
100
AcDbLine
 62
7
  6
CONTINUOUS
 10
7.0592132231
 20
17.5041023211
 11
7.0438963183
 21
17.4730427354
  0
LINE
  5
42A
100
AcDbEntity
  8
0
100
AcDbLine
 62
7
  6
CONTINUOUS
 10
7.0836843948
 20
17.4710385128
 11
7.0657806563
 21
17.4394885168
  0
LWPOLYLINE
  5
42B
100
AcDbEntity
  8
0
100
AcDbPolyline
 62
7
  6
CONTINUOUS
 90
4
 70
0
 10
7.0248116938
 20
17.4881357956
 10
7.0117648609
 20
17.4653522596
 10
6.996513828
 20
17.445369928
 10
6.9793690622
 20
17.4285955834
  0
LWPOLYLINE
  5
42C
100
AcDbEntity
  8
0
100
AcDbPolyline
 62
7
  6
CONTINUOUS
 90
4
 70
0
 10
7.0520723868
 20
17.4880827514
 10
7.039025554
 20
17.4652992154
 10
7.0237745211
 20
17.4453168838
 10
7.0066297553
 20
17.4285425392
  0
LWPOLYLINE
  5
42D
100
AcDbEntity
  8
0
100
AcDbPolyline
 62
7
  6
CONTINUOUS
 90
8
 70
0
 10
7.0007814422
 20
17.5108778548
 10
6.9891714362
 20
17.4908977007
 10
6.9754516252
 20
17.4736767806
 10
6.9599598366
 20
17.4596391306
 10
6.9430775296
 20
17.4491304043
 10
6.9252204026
 20
17.4424093613
 10
6.9068281573
 20
17.4396414962
 10
6.9031703128
 20
17.4395708804
  0
LWPOLYLINE
  5
42E
100
AcDbEntity
  8
0
100
AcDbPolyline
 62
7
  6
CONTINUOUS
 90
5
 70
0
 10
7.0836843948
 20
17.4710385128
 10
7.0646170112
 20
17.4389153015
 10
7.041752742
 20
17.4119695054
 10
7.015813565
 20
17.3910520602
 10
6.9876185681
 20
17.3768235463
  0
LWPOLYLINE
  5
42F
100
AcDbEntity
  8
0
100
AcDbPolyline
 62
7
  6
CONTINUOUS
 90
6
 70
0
 10
7.5599286372
 20
18.3696229374
 10
7.5660984106
 20
18.3796902769
 10
7.5736425955
 20
18.3877632068
 10
7.5822311923
 20
18.3934880148
 10
7.5914882735
 20
18.3966141229
 10
7.6010085847
 20
18.3970051531
  0
LWPOLYLINE
  5
430
100
AcDbEntity
  8
0
100
AcDbPolyline
 62
7
  6
CONTINUOUS
 90
4
 70
0
 10
7.0309763121
 20
17.1292925475
 10
7.0278087201
 20
17.1352987383
 10
7.0235098494
 20
17.1412595226
 10
7.0180326927
 20
17.1470748823
  0
LWPOLYLINE
  5
431
100
AcDbEntity
  8
0
100
AcDbPolyline
 62
7
  6
CONTINUOUS
 90
8
 70
0
 10
7.0069631746
 20
17.6814112413
 10
6.9968551205
 20
17.7028649338
 10
6.9844480636
 20
17.7218585235
 10
6.970047507
 20
17.7379243252
 10
6.95400804
 20
17.7506667454
 10
6.9367246076
 20
17.7597720236
 10
6.9186227852
 20
17.7650159575
 10
6.9038061443
 20
17.76634004
  0
LWPOLYLINE
  5
432
100
AcDbEntity
  8
0
100
AcDbPolyline
 62
7
  6
CONTINUOUS
 90
4
 70
0
 10
7.2831309187
 20
17.703172019
 10
7.2673324577
 20
17.7385901397
 10
7.2472010635
 20
17.7699201317
 10
7.2236890024
 20
17.7957672418
  0
LWPOLYLINE
  5
433
100
AcDbEntity
  8
0
100
AcDbPolyline
 62
7
  6
CONTINUOUS
 90
3
 70
0
 10
7.7245626199
 20
17.8350104719
 10
7.7200978645
 20
17.8483450171
 10
7.7153853193
 20
17.8615143957
  0
LWPOLYLINE
  5
434
100
AcDbEntity
  8
0
100
AcDbPolyline
 62
7
  6
CONTINUOUS
 90
3
 70
0
 10
7.8566917546
 20
17.8347533732
 10
7.8522259565
 20
17.8480909298
 10
7.8475144541
 20
17.861257297
  0
LWPOLYLINE
  5
435
100
AcDbEntity
  8
0
100
AcDbPolyline
 62
7
  6
CONTINUOUS
 90
6
 70
0
 10
7.5564519593
 20
18.3066532548
 10
7.5532533544
 20
18.3190813768
 10
7.5519896662
 20
18.3321642662
 10
7.5527165363
 20
18.3453293564
 10
7.5554021492
 20
18.3580004044
 10
7.5599286372
 20
18.3696229374
  0
LWPOLYLINE
  5
436
100
AcDbEntity
  8
0
100
AcDbPolyline
 62
7
  6
CONTINUOUS
 90
6
 70
0
 10
7.8908068481
 20
17.1528692286
 10
7.8876082432
 20
17.1652973505
 10
7.886344555
 20
17.1783802399
 10
7.8870714251
 20
17.1915453301
 10
7.889757038
 20
17.2042163781
 10
7.894283526
 20
17.2158389111
  0
LWPOLYLINE
  5
437
100
AcDbEntity
  8
0
100
AcDbPolyline
 62
7
  6
CONTINUOUS
 90
6
 70
0
 10
7.6386118542
 20
18.3614176863
 10
7.641810459
 20
18.3489895644
 10
7.6430741472
 20
18.335906675
 10
7.6423472771
 20
18.3227415848
 10
7.6396616643
 20
18.3100705368
 10
7.6351351762
 20
18.2984480038
  0
LWPOLYLINE
  5
438
100
AcDbEntity
  8
0
100
AcDbPolyline
 62
7
  6
CONTINUOUS
 90
6
 70
0
 10
7.972966743
 20
17.2076336601
 10
7.9761653478
 20
17.1952055381
 10
7.977429036
 20
17.1821226488
 10
7.9767021659
 20
17.1689575585
 10
7.9740165531
 20
17.1562865106
 10
7.969490065
 20
17.1446639775
  0
LWPOLYLINE
  5
439
100
AcDbEntity
  8
0
100
AcDbPolyline
 62
7
  6
CONTINUOUS
 90
8
 70
0
 10
7.6386118542
 20
18.3614176863
 10
7.6407864807
 20
18.3528365206
 10
7.6422675733
 20
18.3439158182
 10
7.6428464916
 20
18.3347162429
 10
7.642343127
 20
18.3253347308
 10
7.6407508572
 20
18.3160213334
 10
7.6382837134
 20
18.3070826147
 10
7.6351351762
 20
18.2984480038
  0
LWPOLYLINE
  5
43A
100
AcDbEntity
  8
0
100
AcDbPolyline
 62
7
  6
CONTINUOUS
 90
8
 70
0
 10
7.972966743
 20
17.2076336601
 10
7.9751413695
 20
17.1990524944
 10
7.9766224621
 20
17.1901317919
 10
7.9772013804
 20
17.1809322167
 10
7.9766980158
 20
17.1715507045
 10
7.975105746
 20
17.1622373072
 10
7.9726386022
 20
17.1532985884
 10
7.969490065
 20
17.1446639775
  0
LINE
  5
43B
100
AcDbEntity
  8
0
100
AcDbLine
 62
7
  6
CONTINUOUS
 10
8.610194444
 20
17.8968556929
 11
8.6302018636
 21
17.7149531829
  0
LINE
  5
43C
100
AcDbEntity
  8
0
100
AcDbLine
 62
7
  6
CONTINUOUS
 10
8.6302018636
 20
17.7149531829
 11
8.6321486681
 21
17.5309374132
  0
LINE
  5
43D
100
AcDbEntity
  8
0
100
AcDbLine
 62
7
  6
CONTINUOUS
 10
8.6321486681
 20
17.5309374132
 11
8.6159986201
 21
17.3482353928
  0
LWPOLYLINE
  5
43E
100
AcDbEntity
  8
0
100
AcDbPolyline
 62
7
  6
CONTINUOUS
 90
3
 70
0
 10
8.6159986201
 20
17.3482353928
 10
8.5820525669
 20
17.1702509856
 10
8.5309428948
 20
17.0002997114
  0
LWPOLYLINE
  5
43F
100
AcDbEntity
  8
0
100
AcDbPolyline
 62
7
  6
CONTINUOUS
 90
17
 70
0
 10
8.2388437275
 20
16.8862692157
 10
8.30218017
 20
17.0356025905
 10
8.3503225236
 20
17.195629495
 10
8.3823038448
 20
17.3632335159
 10
8.3975250052
 20
17.5352808215
 10
8.3957029491
 20
17.7085676886
 10
8.3768716512
 20
17.8798659441
 10
8.3413819609
 20
18.0459839272
 10
8.2898950959
 20
18.203826614
 10
8.2233703344
 20
18.350453127
 10
8.1430471422
 20
18.48313156
 10
8.0504220746
 20
18.5993898915
 10
7.9472208834
 20
18.6970620452
 10
7.8353663761
 20
18.7743282299
 10
7.716942584
 20
18.8297488533
 10
7.594155925
 20
18.8622913439
 10
7.4692941206
 20
18.871349381
  0
LWPOLYLINE
  5
440
100
AcDbEntity
  8
0
100
AcDbPolyline
 62
7
  6
CONTINUOUS
 90
4
 70
0
 10
7.8268374491
 20
17.2940314052
 10
7.8229444108
 20
17.2858372827
 10
7.8189499646
 20
17.2777373471
 10
7.8148553107
 20
17.2697340321
  0
LWPOLYLINE
  5
441
100
AcDbEntity
  8
0
100
AcDbPolyline
 62
7
  6
CONTINUOUS
 90
3
 70
0
 10
7.6888306546
 20
17.2820324874
 10
7.6917980869
 20
17.2881341736
 10
7.6947083144
 20
17.2942885039
  0
LWPOLYLINE
  5
442
100
AcDbEntity
  8
0
100
AcDbPolyline
 62
7
  6
CONTINUOUS
 90
3
 70
0
 10
7.6888306546
 20
17.2820324874
 10
7.6858065153
 20
17.2759844684
 10
7.682726176
 20
17.2699911307
  0
LWPOLYLINE
  5
443
100
AcDbEntity
  8
0
100
AcDbPolyline
 62
7
  6
CONTINUOUS
 90
6
 70
0
 10
7.6351351762
 20
18.2984480038
 10
7.6289654028
 20
18.2883806643
 10
7.6214212179
 20
18.2803077344
 10
7.6128326211
 20
18.2745829264
 10
7.6035755399
 20
18.2714568183
 10
7.5940552288
 20
18.271065788
  0
LWPOLYLINE
  5
444
100
AcDbEntity
  8
0
100
AcDbPolyline
 62
7
  6
CONTINUOUS
 90
6
 70
0
 10
6.9968497206
 20
17.2278496969
 10
7.0030194939
 20
17.2379170364
 10
7.0105636789
 20
17.2459899663
 10
7.0191522757
 20
17.2517147743
 10
7.0284093568
 20
17.2548408824
 10
7.037929668
 20
17.2552319127
  0
LWPOLYLINE
  5
445
100
AcDbEntity
  8
0
100
AcDbPolyline
 62
7
  6
CONTINUOUS
 90
6
 70
0
 10
7.0720562595
 20
17.1566747633
 10
7.0658864862
 20
17.1466074238
 10
7.0583423012
 20
17.1385344939
 10
7.0497537044
 20
17.1328096859
 10
7.0404966233
 20
17.1296835778
 10
7.0309763121
 20
17.1292925475
  0
LWPOLYLINE
  5
446
100
AcDbEntity
  8
0
100
AcDbPolyline
 62
7
  6
CONTINUOUS
 90
12
 70
0
 10
7.980936468
 20
18.0309676207
 10
7.9935120477
 20
18.0504768465
 10
8.0094741222
 20
18.0650015118
 10
8.0275684422
 20
18.0732823302
 10
8.0466052126
 20
18.0747844727
 10
8.065260115
 20
18.0693966289
 10
8.0822644654
 20
18.0574876107
 10
8.0964542828
 20
18.0398718419
 10
8.1068586006
 20
18.0177559302
 10
8.1127686657
 20
17.992642121
 10
8.1137776754
 20
17.9662809707
 10
8.1098132072
 20
17.9404027581
  0
LWPOLYLINE
  5
447
100
AcDbEntity
  8
0
100
AcDbPolyline
 62
7
  6
CONTINUOUS
 90
5
 70
0
 10
8.0060490968
 20
18.0198493122
 10
8.0162778542
 20
18.0356809525
 10
8.029110995
 20
18.0473090932
 10
8.0436739012
 20
18.0539412857
 10
8.0557200023
 20
18.0553393499
  0
LWPOLYLINE
  5
448
100
AcDbEntity
  8
0
100
AcDbPolyline
 62
7
  6
CONTINUOUS
 90
4
 70
0
 10
8.0258043575
 20
18.0195349298
 10
8.035971392
 20
18.0352710504
 10
8.0487271009
 20
18.0468290571
 10
8.0632022225
 20
18.0534212923
  0
LWPOLYLINE
  5
449
100
AcDbEntity
  8
0
100
AcDbPolyline
 62
7
  6
CONTINUOUS
 90
5
 70
0
 10
8.0408719348
 20
18.0128639447
 10
8.0503515711
 20
18.0272315645
 10
8.062520855
 20
18.0374744589
 10
8.0762476178
 20
18.0425306176
 10
8.0832738321
 20
18.0422746358
  0
LINE
  5
44A
100
AcDbEntity
  8
0
100
AcDbLine
 62
7
  6
CONTINUOUS
 10
7.0438963183
 20
17.4730427354
 11
7.0247260078
 21
17.4464057106
  0
LWPOLYLINE
  5
44B
100
AcDbEntity
  8
0
100
AcDbPolyline
 62
7
  6
CONTINUOUS
 90
8
 70
0
 10
7.6351351762
 20
18.2984480038
 10
7.6321885108
 20
18.2947135923
 10
7.6283447682
 20
18.2908322761
 10
7.6234312879
 20
18.2868306677
 10
7.6173256328
 20
18.2827511236
 10
7.6101704786
 20
18.2787024004
 10
7.6023631548
 20
18.2748175901
 10
7.5940552288
 20
18.271065788
  0
LWPOLYLINE
  5
44C
100
AcDbEntity
  8
0
100
AcDbPolyline
 62
7
  6
CONTINUOUS
 90
9
 70
0
 10
7.6440168902
 20
18.2341810442
 10
7.6598837844
 20
18.2538562403
 10
7.6717844228
 20
18.2779875478
 10
7.6792465032
 20
18.3056172643
 10
7.6817001027
 20
18.3346525225
 10
7.6790512964
 20
18.3638717708
 10
7.6714783713
 20
18.3911843634
 10
7.6593577557
 20
18.4152880378
 10
7.6434571675
 20
18.4346181416
  0
LWPOLYLINE
  5
44D
100
AcDbEntity
  8
0
100
AcDbPolyline
 62
7
  6
CONTINUOUS
 90
6
 70
0
 10
6.8533019816
 20
17.7938590592
 10
6.8549616306
 20
17.7956857268
 10
6.8808326285
 20
17.8154395655
 10
6.9091061351
 20
17.8290963113
 10
6.9385504147
 20
17.8359598073
 10
6.9534253777
 20
17.8367957425
  0
LWPOLYLINE
  5
44E
100
AcDbEntity
  8
0
100
AcDbPolyline
 62
7
  6
CONTINUOUS
 90
4
 70
0
 10
6.9952941163
 20
18.6759336933
 10
6.8942145404
 20
18.5737259414
 10
6.8041057733
 20
18.4534167474
 10
6.7267121852
 20
18.3173873249
  0
LWPOLYLINE
  5
44F
100
AcDbEntity
  8
0
100
AcDbPolyline
 62
7
  6
CONTINUOUS
 90
4
 70
0
 10
6.9151338382
 20
16.6042666491
 10
7.0183350293
 20
16.5065944953
 10
7.1301895367
 20
16.4293283106
 10
7.2486133287
 20
16.3739076873
  0
LWPOLYLINE
  5
450
100
AcDbEntity
  8
0
100
AcDbPolyline
 62
7
  6
CONTINUOUS
 90
4
 70
0
 10
7.0087282104
 20
17.1400975373
 10
7.0025894752
 20
17.1470695331
 10
6.9974184131
 20
17.1554153701
 10
6.9933730426
 20
17.1648800143
  0
LWPOLYLINE
  5
451
100
AcDbEntity
  8
0
100
AcDbPolyline
 62
7
  6
CONTINUOUS
 90
4
 70
0
 10
7.0601777697
 20
17.2444269229
 10
7.0663165049
 20
17.237454927
 10
7.071487567
 20
17.2291090901
 10
7.0755329375
 20
17.2196444458
  0
LINE
  5
452
100
AcDbEntity
  8
0
100
AcDbLine
 62
7
  6
CONTINUOUS
 10
7.1233982413
 20
18.2152038294
 11
7.1006392433
 21
18.2560959425
  0
LWPOLYLINE
  5
453
100
AcDbEntity
  8
0
100
AcDbPolyline
 62
7
  6
CONTINUOUS
 90
4
 70
0
 10
7.9284101176
 20
17.1172817618
 10
7.9252425256
 20
17.1232879525
 10
7.9209436549
 20
17.1292487369
 10
7.9154664982
 20
17.1350640966
  0
LWPOLYLINE
  5
454
100
AcDbEntity
  8
0
100
AcDbPolyline
 62
7
  6
CONTINUOUS
 90
4
 70
0
 10
7.5940552288
 20
18.271065788
 10
7.5908876368
 20
18.2770719787
 10
7.5865887661
 20
18.2830327631
 10
7.5811116094
 20
18.2888481228
  0
LINE
  5
455
100
AcDbEntity
  8
0
100
AcDbLine
 62
7
  6
CONTINUOUS
 10
8.5724992374
 20
18.0732553912
 11
8.610194444
 21
17.8968556929
  0
LWPOLYLINE
  5
456
100
AcDbEntity
  8
AXIS
100
AcDbPolyline
 62
7
  6
CONTINUOUS
 90
17
 70
0
 10
8.4874691496
 20
16.841518156
 10
8.5556603821
 20
17.0026977562
 10
8.6071436451
 20
17.1753606351
 10
8.6409315339
 20
17.3561952673
 10
8.656376026
 20
17.5417334006
 10
8.6531809094
 20
17.7284165733
 10
8.6314074635
 20
17.9126643631
 10
8.5914732844
 20
18.0909430562
 10
8.5341442751
 20
18.2598334209
 10
8.4605199568
 20
18.4160962854
 10
8.3720123803
 20
18.5567346628
 10
8.2703190446
 20
18.6790512302
 10
8.1573903404
 20
18.7807000611
 10
8.0353921429
 20
18.8597316186
 10
7.9066642724
 20
18.9146301456
 10
7.7736756184
 20
18.9443427356
 10
7.6871308444
 20
18.9498485606
  0
LWPOLYLINE
  5
457
100
AcDbEntity
  8
0
100
AcDbPolyline
 62
7
  6
CONTINUOUS
 90
12
 70
0
 10
8.3402529134
 20
16.8417873719
 10
8.4075741338
 20
17.000539732
 10
8.4586838059
 20
17.1704909909
 10
8.4926298453
 20
17.348475263
 10
8.5087799077
 20
17.5311771835
 10
8.5068331164
 20
17.7151931987
 10
8.4868257391
 20
17.8970954686
 10
8.4491304755
 20
18.0734954903
 10
8.3944495172
 20
18.2411072648
 10
8.3238014677
 20
18.3968085004
 10
8.2385023665
 20
18.5376987773
 10
8.1401411751
 20
18.6611535755
  0
LWPOLYLINE
  5
458
100
AcDbEntity
  8
0
100
AcDbPolyline
 62
7
  6
CONTINUOUS
 90
11
 70
0
 10
8.381143953
 20
16.8417078056
 10
8.4484652091
 20
17.0004602647
 10
8.4995748917
 20
17.1704116137
 10
8.5335209243
 20
17.3483959802
 10
8.5496709564
 20
17.5310978524
 10
8.5477241435
 20
17.7151138401
 10
8.5277167511
 20
17.8970160735
 10
8.490021479
 20
18.0734160583
 10
8.4353405188
 20
18.2410277965
 10
8.3646924734
 20
18.3967289985
 10
8.2793933821
 20
18.5376192456
  0
LINE
  5
459
100
AcDbEntity
  8
0
100
AcDbLine
 62
7
  6
CONTINUOUS
 10
8.5309428948
 20
17.0002997114
 11
8.4636216629
 21
16.8415473193
  0
LWPOLYLINE
  5
45A
100
AcDbEntity
  8
0
100
AcDbPolyline
 62
7
  6
CONTINUOUS
 90
12
 70
0
 10
8.4695545737
 20
16.8439345557
 10
8.5364646505
 20
17.0015905603
 10
8.5873072594
 20
17.1701721553
 10
8.6211941543
 20
17.3466751103
 10
8.6375015229
 20
17.5277946721
 10
8.6359471439
 20
17.7102383187
 10
8.6165625624
 20
17.8906913188
 10
8.5797012132
 20
18.0658419179
 10
8.526006722
 20
18.2325550571
 10
8.4564736782
 20
18.3876888266
 10
8.3723107776
 20
18.5284916222
 10
8.2751308781
 20
18.6522405757
  0
LWPOLYLINE
  5
45B
100
AcDbEntity
  8
0
100
AcDbPolyline
 62
7
  6
CONTINUOUS
 90
7
 70
0
 10
8.4636216629
 20
16.8415473193
 10
8.3813429372
 20
16.6969510631
 10
8.2856394135
 20
16.5692044954
 10
8.1782937905
 20
16.4606872256
 10
8.0613057124
 20
16.3734207784
 10
7.936854749
 20
16.3090309282
 10
7.8072586144
 20
16.2687168687
  0
LWPOLYLINE
  5
45C
100
AcDbEntity
  8
0
100
AcDbPolyline
 62
7
  6
CONTINUOUS
 90
6
 70
0
 10
7.894283526
 20
17.2158389111
 10
7.9004532994
 20
17.2259062506
 10
7.9079974843
 20
17.2339791806
 10
7.9165860811
 20
17.2397039885
 10
7.9258431623
 20
17.2428300966
 10
7.9353634735
 20
17.2432211269
  0
LWPOLYLINE
  5
45D
100
AcDbEntity
  8
0
100
AcDbPolyline
 62
7
  6
CONTINUOUS
 90
6
 70
0
 10
7.969490065
 20
17.1446639775
 10
7.9633202916
 20
17.134596638
 10
7.9557761067
 20
17.1265237081
 10
7.9471875099
 20
17.1207989001
 10
7.9379304287
 20
17.117672792
 10
7.9284101176
 20
17.1172817618
  0
LWPOLYLINE
  5
45E
100
AcDbEntity
  8
0
100
AcDbPolyline
 62
7
  6
CONTINUOUS
 90
12
 70
0
 10
7.3753135387
 20
16.8029265166
 10
7.3878891185
 20
16.8224357425
 10
7.4038511929
 20
16.8369604078
 10
7.421945513
 20
16.8452412262
 10
7.4409822833
 20
16.8467433687
 10
7.4596371857
 20
16.8413555249
 10
7.4766415361
 20
16.8294465067
 10
7.4908313535
 20
16.8118307379
 10
7.5012356714
 20
16.7897148262
 10
7.5071457364
 20
16.764601017
 10
7.5081547461
 20
16.7382398667
 10
7.5041902779
 20
16.7123616541
  0
LWPOLYLINE
  5
45F
100
AcDbEntity
  8
0
100
AcDbPolyline
 62
7
  6
CONTINUOUS
 90
13
 70
0
 10
8.1012669088
 20
17.9170839617
 10
8.088691329
 20
17.8975747358
 10
8.0727292546
 20
17.8830500706
 10
8.0546349345
 20
17.8747692522
 10
8.0355981642
 20
17.8732671097
 10
8.0169432618
 20
17.8786549534
 10
7.9999389114
 20
17.8905639717
 10
7.985749094
 20
17.9081797404
 10
7.9753447761
 20
17.9302956521
 10
7.9694347111
 20
17.9554094614
 10
7.9684257014
 20
17.9817706117
 10
7.9723901696
 20
18.0076488243
 10
7.980936468
 20
18.0309676207
  0
LWPOLYLINE
  5
460
100
AcDbEntity
  8
0
100
AcDbPolyline
 62
7
  6
CONTINUOUS
 90
13
 70
0
 10
7.4956439795
 20
16.6890428577
 10
7.4830683998
 20
16.6695336318
 10
7.4671063253
 20
16.6550089666
 10
7.4490120053
 20
16.6467281482
 10
7.4299752349
 20
16.6452260057
 10
7.4113203325
 20
16.6506138494
 10
7.3943159821
 20
16.6625228677
 10
7.3801261648
 20
16.6801386364
 10
7.3697218469
 20
16.7022545481
 10
7.3638117818
 20
16.7273683574
 10
7.3628027721
 20
16.7537295077
 10
7.3667672404
 20
16.7796077203
 10
7.3753135387
 20
16.8029265166
  0
LWPOLYLINE
  5
461
100
AcDbEntity
  8
0
100
AcDbPolyline
 62
7
  6
CONTINUOUS
 90
5
 70
0
 10
7.4004261676
 20
16.7918082082
 10
7.410654925
 20
16.8076398485
 10
7.4234880658
 20
16.8192679892
 10
7.4380509719
 20
16.8259001817
 10
7.4500970731
 20
16.8272982459
  0
LWPOLYLINE
  5
462
100
AcDbEntity
  8
0
100
AcDbPolyline
 62
7
  6
CONTINUOUS
 90
4
 70
0
 10
7.4201814283
 20
16.7914938258
 10
7.4303484627
 20
16.8072299464
 10
7.4431041716
 20
16.8187879531
 10
7.4575792933
 20
16.8253801883
  0
LWPOLYLINE
  5
463
100
AcDbEntity
  8
0
100
AcDbPolyline
 62
7
  6
CONTINUOUS
 90
5
 70
0
 10
7.4352490055
 20
16.7848228407
 10
7.4447286418
 20
16.7991904605
 10
7.4568979258
 20
16.8094333549
 10
7.4706246885
 20
16.8144895136
 10
7.4776509028
 20
16.8142335318
  0
LWPOLYLINE
  5
464
100
AcDbEntity
  8
0
100
AcDbPolyline
 62
7
  6
CONTINUOUS
 90
8
 70
0
 10
7.0720562595
 20
17.1566747633
 10
7.0691095942
 20
17.1529403518
 10
7.0652658516
 20
17.1490590356
 10
7.0603523713
 20
17.1450574273
 10
7.0542467161
 20
17.1409778831
 10
7.0470915619
 20
17.1369291599
 10
7.0392842381
 20
17.1330443496
 10
7.0309763121
 20
17.1292925475
  0
LINE
  5
465
100
AcDbEntity
  8
0
100
AcDbLine
 62
7
  6
CONTINUOUS
 10
7.0657806563
 20
17.4394885168
 11
7.0442121749
 21
17.4129003567
  0
LWPOLYLINE
  5
466
100
AcDbEntity
  8
0
100
AcDbPolyline
 62
7
  6
CONTINUOUS
 90
3
 70
0
 10
6.8928452978
 20
18.2893035489
 10
6.9141432145
 20
18.3075181487
 10
6.9491502016
 20
18.3248797691
  0
LINE
  5
467
100
AcDbEntity
  8
0
100
AcDbLine
 62
7
  6
CONTINUOUS
 10
6.9330735191
 20
18.2892252722
 11
6.9337621142
 21
18.2898135691
  0
LINE
  5
468
100
AcDbEntity
  8
0
100
AcDbLine
 62
7
  6
CONTINUOUS
 10
7.0659953019
 20
17.1497956165
 11
7.0501732523
 21
17.1647694917
  0
LWPOLYLINE
  5
469
100
AcDbEntity
  8
0
100
AcDbPolyline
 62
7
  6
CONTINUOUS
 90
6
 70
0
 10
7.1363728469
 20
17.1898825685
 10
7.102012071
 20
17.222424386
 10
7.0683474678
 20
17.2546154878
 10
7.0365553154
 20
17.2860331676
 10
7.0082979487
 20
17.3159635464
 10
6.9859123239
 20
17.3426563422
  0
LWPOLYLINE
  5
46A
100
AcDbEntity
  8
0
100
AcDbPolyline
 62
7
  6
CONTINUOUS
 90
4
 70
0
 10
6.7846612218
 20
17.9108730001
 10
6.7894712551
 20
17.9059425718
 10
6.7944119915
 20
17.9012666941
 10
6.7994763775
 20
17.8968520421
  0
LWPOLYLINE
  5
46B
100
AcDbEntity
  8
0
100
AcDbPolyline
 62
7
  6
CONTINUOUS
 90
4
 70
0
 10
7.0625893181
 20
17.2374267806
 10
7.0680669303
 20
17.2316108709
 10
7.0723656769
 20
17.2256501007
 10
7.0755329375
 20
17.2196444458
  0
LINE
  5
46C
100
AcDbEntity
  8
0
100
AcDbLine
 62
7
  6
CONTINUOUS
 10
7.0557748231
 20
17.7663435662
 11
7.032816696
 21
17.7909790691
  0
LWPOLYLINE
  5
46D
100
AcDbEntity
  8
0
100
AcDbPolyline
 62
7
  6
CONTINUOUS
 90
5
 70
0
 10
7.0781223544
 20
17.7960504874
 10
7.1015203669
 20
17.7703523828
 10
7.1215990858
 20
17.7391828883
 10
7.1374152588
 20
17.7038642169
 10
7.1484269733
 20
17.6659625228
  0
LWPOLYLINE
  5
46E
100
AcDbEntity
  8
0
100
AcDbPolyline
 62
7
  6
CONTINUOUS
 90
15
 70
0
 10
7.2144258198
 20
17.7957852662
 10
7.237797065
 20
17.7701220946
 10
7.2576162108
 20
17.739446818
 10
7.2733851008
 20
17.7045076096
 10
7.284527143
 20
17.6666120347
 10
7.2908196328
 20
17.6264578988
 10
7.291983089
 20
17.5855962539
 10
7.2880728141
 20
17.545634324
 10
7.2792003796
 20
17.5071639509
 10
7.2654282194
 20
17.4710730986
 10
7.2473014355
 20
17.4390750392
 10
7.2257591499
 20
17.4125319732
 10
7.2012059303
 20
17.3917200107
 10
7.1741228522
 20
17.377184205
 10
7.1457474658
 20
17.3696616431
  0
LWPOLYLINE
  5
46F
100
AcDbEntity
  8
0
100
AcDbPolyline
 62
7
  6
CONTINUOUS
 90
5
 70
0
 10
7.1053830475
 20
17.7959974432
 10
7.1288155687
 20
17.7702542808
 10
7.1487252838
 20
17.7393787653
 10
7.1643853437
 20
17.7046031724
 10
7.1755056106
 20
17.6667292525
  0
LWPOLYLINE
  5
470
100
AcDbEntity
  8
0
100
AcDbPolyline
 62
7
  6
CONTINUOUS
 90
15
 70
0
 10
7.1599044336
 20
17.7958913547
 10
7.1833213523
 20
17.7701685676
 10
7.2031865033
 20
17.7393838157
 10
7.2188816767
 20
17.704565022
 10
7.2300170013
 20
17.6666678692
 10
7.2363162941
 20
17.6263669388
 10
7.2374446351
 20
17.5852207185
 10
7.2334434405
 20
17.5450811694
 10
7.2244861267
 20
17.506635528
 10
7.2106311203
 20
17.470592769
 10
7.1924327958
 20
17.4386717176
 10
7.1708309081
 20
17.4122214184
 10
7.1463922447
 20
17.3916260341
 10
7.1194711821
 20
17.3772386305
 10
7.0911822928
 20
17.3697617225
  0
LWPOLYLINE
  5
471
100
AcDbEntity
  8
0
100
AcDbPolyline
 62
7
  6
CONTINUOUS
 90
5
 70
0
 10
7.0508616613
 20
17.7961035316
 10
7.0743370538
 20
17.7703043586
 10
7.0943340068
 20
17.7392440605
 10
7.1100029645
 20
17.7043313318
 10
7.121068522
 20
17.6664570701
  0
LWPOLYLINE
  5
472
100
AcDbEntity
  8
0
100
AcDbPolyline
 62
7
  6
CONTINUOUS
 90
15
 70
0
 10
7.1326437406
 20
17.7959443989
 10
7.1561614451
 20
17.7700899086
 10
7.1762964781
 20
17.7387500349
 10
7.1920961107
 20
17.7033204129
 10
7.2030490196
 20
17.6653985904
 10
7.2091235746
 20
17.6256655216
 10
7.2101691318
 20
17.5848714179
 10
7.2061112896
 20
17.5447028093
 10
7.1971663787
 20
17.5064953456
 10
7.1835659689
 20
17.4710613071
 10
7.165858468
 20
17.4397347047
 10
7.1445367299
 20
17.4132686906
 10
7.1200086068
 20
17.3922824445
 10
7.0930444079
 20
17.3776252092
 10
7.064904074
 20
17.3699536452
  0
LWPOLYLINE
  5
473
100
AcDbEntity
  8
0
100
AcDbPolyline
 62
7
  6
CONTINUOUS
 90
15
 70
0
 10
7.1871651267
 20
17.7958383105
 10
7.2106860862
 20
17.7699795632
 10
7.2308232242
 20
17.7386339773
 10
7.2466232651
 20
17.7031984494
 10
7.2575737164
 20
17.6652773877
 10
7.2636675694
 20
17.6253039997
 10
7.2646710805
 20
17.5842568146
 10
7.2605339684
 20
17.544006933
 10
7.2515282129
 20
17.5058696482
 10
7.237932081
 20
17.4706251252
 10
7.2201155116
 20
17.4392381822
 10
7.198719702
 20
17.4128127291
 10
7.174206862
 20
17.3919529894
 10
7.1473813787
 20
17.3774447794
 10
7.1194447793
 20
17.3698503726
  0
LWPOLYLINE
  5
474
100
AcDbEntity
  8
0
100
AcDbPolyline
 62
7
  6
CONTINUOUS
 90
16
 70
0
 10
7.2416865129
 20
17.795732222
 10
7.2651985739
 20
17.7698851119
 10
7.2853299681
 20
17.7385551199
 10
7.3011284292
 20
17.7031369992
 10
7.3120858197
 20
17.6652136706
 10
7.3182047055
 20
17.6250185864
 10
7.3191801682
 20
17.5838393492
 10
7.31499793
 20
17.5435609137
 10
7.305963617
 20
17.5054850066
 10
7.2923468284
 20
17.4702930566
 10
7.2744551388
 20
17.4388647071
 10
7.2530231732
 20
17.4124823505
 10
7.2285321324
 20
17.391711944
 10
7.2018069141
 20
17.3773001824
 10
7.1739249426
 20
17.3697382796
 10
7.1569701818
 20
17.3685247808
  0
LWPOLYLINE
  5
475
100
AcDbEntity
  8
0
100
AcDbPolyline
 62
7
  6
CONTINUOUS
 90
11
 70
0
 10
6.8369289501
 20
17.4679865952
 10
6.8225283935
 20
17.4840523969
 10
6.8101213366
 20
17.5030459866
 10
6.8000132826
 20
17.5244996791
 10
6.7924531251
 20
17.5478852133
 10
6.7876270203
 20
17.5726267597
 10
6.785653803
 20
17.5981150994
 10
6.7865820604
 20
17.6237226249
 10
6.7903889356
 20
17.6488187939
 10
6.7969806907
 20
17.6727856553
 10
6.8061950149
 20
17.6950330656
  0
LWPOLYLINE
  5
476
100
AcDbEntity
  8
0
100
AcDbPolyline
 62
7
  6
CONTINUOUS
 90
16
 70
0
 10
7.2697172429
 20
17.7956776794
 10
7.2924594766
 20
17.7698485008
 10
7.3116150594
 20
17.7389323642
 10
7.3266019323
 20
17.7038687314
 10
7.336964798
 20
17.6657228539
 10
7.3423887487
 20
17.6256540335
 10
7.3427090176
 20
17.5848788961
 10
7.3379157109
 20
17.544636777
 10
7.328154651
 20
17.506151257
 10
7.3137223167
 20
17.4705909082
 10
7.2950572648
 20
17.4390363884
 10
7.2727268008
 20
17.4124466348
 10
7.2474086004
 20
17.3916288387
 10
7.2198729331
 20
17.3772164864
 10
7.1909564226
 20
17.3696471807
 10
7.17396199
 20
17.3684917179
  0
LWPOLYLINE
  5
477
100
AcDbEntity
  8
0
100
AcDbPolyline
 62
7
  6
CONTINUOUS
 90
16
 70
0
 10
7.2732625204
 20
17.796156769
 10
7.2960618878
 20
17.7702627024
 10
7.3152655986
 20
17.7392688919
 10
7.3302901246
 20
17.704117168
 10
7.3406790283
 20
17.6658754472
 10
7.3461166065
 20
17.6257059615
 10
7.3464376802
 20
17.584828367
 10
7.3416323307
 20
17.5444851465
 10
7.331846748
 20
17.5059029387
 10
7.3173781554
 20
17.4702532505
 10
7.2986662072
 20
17.4386194485
 10
7.2762796465
 20
17.411962897
 10
7.2508978358
 20
17.3910927954
 10
7.2232929711
 20
17.3766442252
 10
7.1943038181
 20
17.3690559058
 10
7.173958263
 20
17.368712572
  0
LWPOLYLINE
  5
478
100
AcDbEntity
  8
0
100
AcDbPolyline
 62
7
  6
CONTINUOUS
 90
4
 70
0
 10
7.9061620159
 20
17.1280867515
 10
7.9000232806
 20
17.1350587474
 10
7.8948522186
 20
17.1434045844
 10
7.8908068481
 20
17.1528692286
  0
LWPOLYLINE
  5
479
100
AcDbEntity
  8
0
100
AcDbPolyline
 62
7
  6
CONTINUOUS
 90
4
 70
0
 10
7.9576115752
 20
17.2324161371
 10
7.9637503104
 20
17.2254441413
 10
7.9689213725
 20
17.2170983043
 10
7.972966743
 20
17.2076336601
  0
LWPOLYLINE
  5
47A
100
AcDbEntity
  8
0
100
AcDbPolyline
 62
7
  6
CONTINUOUS
 90
4
 70
0
 10
7.0137475399
 20
17.7712069644
 10
7.0346249118
 20
17.747246723
 10
7.0519673762
 20
17.7183692199
 10
7.0651826543
 20
17.6855583526
  0
LWPOLYLINE
  5
47B
100
AcDbEntity
  8
0
100
AcDbPolyline
 62
7
  6
CONTINUOUS
 90
4
 70
0
 10
7.0180297874
 20
17.7798905035
 10
7.0399844911
 20
17.7546938031
 10
7.0582214753
 20
17.7243267797
 10
7.0721184316
 20
17.6898236211
  0
LINE
  5
47C
100
AcDbEntity
  8
0
100
AcDbLine
 62
7
  6
CONTINUOUS
 10
6.8638481589
 20
17.8901392176
 11
6.8711228475
 21
17.8815785704
  0
LINE
  5
47D
100
AcDbEntity
  8
0
100
AcDbLine
 62
7
  6
CONTINUOUS
 10
6.8906416281
 20
17.8819433052
 11
6.8856052758
 21
17.8878703397
  0
LINE
  5
47E
100
AcDbEntity
  8
0
100
AcDbLine
 62
7
  6
CONTINUOUS
 10
7.1006392433
 20
18.2560959425
 11
7.0722790304
 21
18.2894694362
  0
LWPOLYLINE
  5
47F
100
AcDbEntity
  8
0
100
AcDbPolyline
 62
7
  6
CONTINUOUS
 90
6
 70
0
 10
7.3924852656
 20
18.1671047101
 10
7.4148724413
 20
18.1404101844
 10
7.4431374598
 20
18.1104721832
 10
7.4749252963
 20
18.0790591285
 10
7.5085839997
 20
18.0468737152
 10
7.5429457885
 20
18.0143309364
  0
LWPOLYLINE
  5
480
100
AcDbEntity
  8
0
100
AcDbPolyline
 62
7
  6
CONTINUOUS
 90
3
 70
0
 10
8.447170268
 20
18.396568351
 10
8.5178181779
 20
18.2408674411
 10
8.5724992374
 20
18.0732553912
  0
LWPOLYLINE
  5
481
100
AcDbEntity
  8
0
100
AcDbPolyline
 62
7
  6
CONTINUOUS
 90
8
 70
0
 10
7.969490065
 20
17.1446639775
 10
7.9665433996
 20
17.1409295661
 10
7.962699657
 20
17.1370482498
 10
7.9577861768
 20
17.1330466415
 10
7.9516805216
 20
17.1289670973
 10
7.9445253674
 20
17.1249183742
 10
7.9367180436
 20
17.1210335638
 10
7.9284101176
 20
17.1172817618
  0
LINE
  5
482
100
AcDbEntity
  8
0
100
AcDbLine
 62
7
  6
CONTINUOUS
 10
7.0247260078
 20
17.4464057106
 11
7.0023552733
 21
17.4250984974
  0
LWPOLYLINE
  5
483
100
AcDbEntity
  8
0
100
AcDbPolyline
 62
7
  6
CONTINUOUS
 90
4
 70
0
 10
6.8470166205
 20
17.7462717898
 10
6.8315248319
 20
17.7322341398
 10
6.8178050209
 20
17.7150132197
 10
6.8061950149
 20
17.6950330656
  0
LWPOLYLINE
  5
484
100
AcDbEntity
  8
0
100
AcDbPolyline
 62
7
  6
CONTINUOUS
 90
8
 70
0
 10
7.0477531917
 20
17.392606614
 10
7.0722958319
 20
17.4136986361
 10
7.0935566346
 20
17.4401978049
 10
7.1112614769
 20
17.4716602751
 10
7.1248554747
 20
17.507319201
 10
7.133719358
 20
17.5456130686
 10
7.1376757577
 20
17.5857147683
 10
7.1365640536
 20
17.6262599117
  0
LWPOLYLINE
  5
485
100
AcDbEntity
  8
0
100
AcDbPolyline
 62
7
  6
CONTINUOUS
 90
11
 70
0
 10
7.0185714673
 20
17.9341796072
 10
7.0303105863
 20
17.9441783239
 10
7.0430765545
 20
17.9543587079
 10
7.0565137475
 20
17.9645451204
 10
7.0703196858
 20
17.9746145767
 10
7.0846397519
 20
17.9847568023
 10
7.1002817285
 20
17.9955875231
 10
7.1181112332
 20
18.007721234
 10
7.1385141393
 20
18.0214400669
 10
7.160758956
 20
18.0363001379
 10
7.183959143
 20
18.0517668175
  0
LINE
  5
486
100
AcDbEntity
  8
0
100
AcDbLine
 62
7
  6
CONTINUOUS
 10
7.0442121749
 20
17.4129003567
 11
7.0196566181
 21
17.3920817759
  0
LWPOLYLINE
  5
487
100
AcDbEntity
  8
0
100
AcDbPolyline
 62
7
  6
CONTINUOUS
 90
3
 70
0
 10
6.997719575
 20
17.7010301849
 10
6.9939477435
 20
17.6979156597
 10
6.9908859099
 20
17.6934129866
  0
LWPOLYLINE
  5
488
100
AcDbEntity
  8
0
100
AcDbPolyline
 62
7
  6
CONTINUOUS
 90
6
 70
0
 10
7.183959143
 20
18.0517668175
 10
7.1374127194
 20
18.0145864524
 10
7.0952336208
 20
17.968064657
 10
7.0585434237
 20
17.9133789377
 10
7.0281310644
 20
17.8517087737
 10
7.0227913554
 20
17.8363885247
  0
LWPOLYLINE
  5
489
100
AcDbEntity
  8
0
100
AcDbPolyline
 62
7
  6
CONTINUOUS
 90
8
 70
0
 10
7.4489767325
 20
16.6696021832
 10
7.435391344
 20
16.6791212215
 10
7.4240509622
 20
16.6931925399
 10
7.415728416
 20
16.7108572072
 10
7.4109908821
 20
16.7309113747
 10
7.4101612053
 20
16.7519884465
 10
7.4132959315
 20
16.7726519816
 10
7.4201814283
 20
16.7914938258
  0
LWPOLYLINE
  5
48A
100
AcDbEntity
  8
0
100
AcDbPolyline
 62
7
  6
CONTINUOUS
 90
4
 70
0
 10
6.9811782465
 20
17.0916938598
 10
6.999957903
 20
17.0782017355
 10
7.0205733161
 20
17.0713232353
 10
7.0321390321
 20
17.0705367805
  0
LWPOLYLINE
  5
48B
100
AcDbEntity
  8
0
100
AcDbPolyline
 62
7
  6
CONTINUOUS
 90
14
 70
0
 10
6.9930229667
 20
17.1082504536
 10
7.0056297255
 20
17.0986857241
 10
7.0193678951
 20
17.0927078302
 10
7.0336744858
 20
17.0905668112
 10
7.0479309148
 20
17.0923170456
 10
7.0617726025
 20
17.0979234661
 10
7.0745638115
 20
17.1071747575
 10
7.0857836272
 20
17.1196822197
 10
7.0950082371
 20
17.1349380366
 10
7.1019087941
 20
17.152363363
 10
7.1062357371
 20
17.1713146548
 10
7.1078227248
 20
17.1910926944
 10
7.106597485
 20
17.210944132
 10
7.1047435415
 20
17.2198375115
  0
LWPOLYLINE
  5
48C
100
AcDbEntity
  8
0
100
AcDbPolyline
 62
7
  6
CONTINUOUS
 90
5
 70
0
 10
6.9962439949
 20
17.098900587
 10
7.0093921939
 20
17.088788413
 10
7.0236602576
 20
17.0821993973
 10
7.0385623041
 20
17.0793579209
 10
7.0420574776
 20
17.0792472193
  0
LWPOLYLINE
  5
48D
100
AcDbEntity
  8
0
100
AcDbPolyline
 62
7
  6
CONTINUOUS
 90
6
 70
0
 10
7.3088123777
 20
17.0370660278
 10
7.2747623742
 20
17.0637832472
 10
7.2397459161
 20
17.0937343854
 10
7.2051431577
 20
17.1251529175
 10
7.1707833969
 20
17.1573396949
 10
7.1363728469
 20
17.1898825685
  0
LWPOLYLINE
  5
48E
100
AcDbEntity
  8
0
100
AcDbPolyline
 62
7
  6
CONTINUOUS
 90
8
 70
0
 10
7.1363728469
 20
17.1898825685
 10
7.18293198
 20
17.1525723644
 10
7.2329921428
 20
17.1253040157
 10
7.285435074
 20
17.1086866522
 10
7.3390892853
 20
17.1030914784
 10
7.3927562301
 20
17.1086434812
 10
7.4452370776
 20
17.1252186381
 10
7.4953594924
 20
17.1524466874
  0
LWPOLYLINE
  5
48F
100
AcDbEntity
  8
0
100
AcDbPolyline
 62
7
  6
CONTINUOUS
 90
4
 70
0
 10
7.0180326927
 20
17.1470748823
 10
7.0112179154
 20
17.1528925647
 10
7.002913634
 20
17.1588599262
 10
6.9933730426
 20
17.1648800143
  0
LWPOLYLINE
  5
490
100
AcDbEntity
  8
0
100
AcDbPolyline
 62
7
  6
CONTINUOUS
 90
3
 70
0
 10
6.8525503249
 20
17.4121960605
 10
6.8568440561
 20
17.4083684923
 10
6.8793680899
 20
17.3951556892
  0
LINE
  5
491
100
AcDbEntity
  8
0
100
AcDbLine
 62
7
  6
CONTINUOUS
 10
7.9634291074
 20
17.1377848308
 11
7.9476070578
 21
17.152758706
  0
LWPOLYLINE
  5
492
100
AcDbEntity
  8
0
100
AcDbPolyline
 62
7
  6
CONTINUOUS
 90
4
 70
0
 10
6.9788200818
 20
18.2605250985
 10
6.9740100485
 20
18.2654555267
 10
6.9690693122
 20
18.2701314044
 10
6.9640049261
 20
18.2745460564
  0
LWPOLYLINE
  5
493
100
AcDbEntity
  8
0
100
AcDbPolyline
 62
7
  6
CONTINUOUS
 90
4
 70
0
 10
7.9600231236
 20
17.2254159949
 10
7.9655007357
 20
17.2196000852
 10
7.9697994824
 20
17.213639315
 10
7.972966743
 20
17.2076336601
  0
LWPOLYLINE
  5
494
100
AcDbEntity
  8
0
100
AcDbPolyline
 62
7
  6
CONTINUOUS
 90
4
 70
0
 10
7.5718071271
 20
18.2818707778
 10
7.5656683918
 20
18.2888427736
 10
7.5604973298
 20
18.2971886106
 10
7.5564519593
 20
18.3066532548
  0
LWPOLYLINE
  5
495
100
AcDbEntity
  8
0
100
AcDbPolyline
 62
7
  6
CONTINUOUS
 90
4
 70
0
 10
7.6232566864
 20
18.3862001634
 10
7.6293954216
 20
18.3792281675
 10
7.6345664837
 20
18.3708823305
 10
7.6386118542
 20
18.3614176863
  0
LWPOLYLINE
  5
496
100
AcDbEntity
  8
0
100
AcDbPolyline
 62
7
  6
CONTINUOUS
 90
8
 70
0
 10
7.0736739668
 20
17.3916312587
 10
7.098095182
 20
17.4121415893
 10
7.1197155999
 20
17.4385233407
 10
7.1379439149
 20
17.4703778251
 10
7.1518415768
 20
17.5063660887
 10
7.1608498659
 20
17.5447715212
 10
7.1649163003
 20
17.5851038538
 10
7.1638072951
 20
17.6263994121
  0
LINE
  5
497
100
AcDbEntity
  8
0
100
AcDbLine
 62
7
  6
CONTINUOUS
 10
7.6253839032
 20
18.2204583523
 11
7.6440168902
 21
18.2341810442
  0
LWPOLYLINE
  5
498
100
AcDbEntity
  8
0
100
AcDbPolyline
 62
7
  6
CONTINUOUS
 90
3
 70
0
 10
6.958514135
 20
17.8927432533
 10
6.9505405156
 20
17.8870388383
 10
6.9423292174
 20
17.881955048
  0
LWPOLYLINE
  5
499
100
AcDbEntity
  8
0
100
AcDbPolyline
 62
7
  6
CONTINUOUS
 90
5
 70
0
 10
6.9793690622
 20
17.4285955834
 10
6.9606795815
 20
17.415370703
 10
6.9408258497
 20
17.4059645074
 10
6.9202120316
 20
17.4005684795
 10
6.9030917902
 20
17.3992163969
  0
LWPOLYLINE
  5
49A
100
AcDbEntity
  8
0
100
AcDbPolyline
 62
7
  6
CONTINUOUS
 90
5
 70
0
 10
7.0066297553
 20
17.4285425392
 10
6.9879402745
 20
17.4153176588
 10
6.9680865428
 20
17.4059114632
 10
6.9474727247
 20
17.4005154353
 10
6.9303524833
 20
17.3991633527
  0
LINE
  5
49B
100
AcDbEntity
  8
0
100
AcDbLine
 62
7
  6
CONTINUOUS
 10
7.6278258081
 20
18.376909196
 11
7.6167288469
 21
18.3695124148
  0
LWPOLYLINE
  5
49C
100
AcDbEntity
  8
0
100
AcDbPolyline
 62
7
  6
CONTINUOUS
 90
11
 70
0
 10
7.183959143
 20
18.0517668175
 10
7.2070232542
 20
18.0671380884
 10
7.2291492445
 20
18.08185481
 10
7.2497764236
 20
18.0954883073
 10
7.2685800944
 20
18.107773156
 10
7.2857317696
 20
18.118795426
 10
7.3020742726
 20
18.1290805626
 10
7.3185369528
 20
18.1391783012
 10
7.3355473083
 20
18.1492888032
 10
7.3531496281
 20
18.1593625687
 10
7.3713258266
 20
18.1693112608
  0
LWPOLYLINE
  5
49D
100
AcDbEntity
  8
0
100
AcDbPolyline
 62
7
  6
CONTINUOUS
 90
3
 70
0
 10
6.8211520863
 20
18.2894430505
 10
6.8129407881
 20
18.2843592602
 10
6.8049671687
 20
18.2786548452
  0
LWPOLYLINE
  5
49E
100
AcDbEntity
  8
0
100
AcDbPolyline
 62
7
  6
CONTINUOUS
 90
4
 70
0
 10
7.037929668
 20
17.2552319127
 10
7.0474712134
 20
17.2492111873
 10
7.0557754312
 20
17.243243767
 10
7.0625893181
 20
17.2374267806
  0
LWPOLYLINE
  5
49F
100
AcDbEntity
  8
0
100
AcDbPolyline
 62
7
  6
CONTINUOUS
 90
4
 70
0
 10
7.8786120519
 20
17.0796830741
 10
7.8973917085
 20
17.0661909497
 10
7.9180071215
 20
17.0593124496
 10
7.9295728375
 20
17.0585259948
  0
LINE
  5
4A0
100
AcDbEntity
  8
0
100
AcDbLine
 62
7
  6
CONTINUOUS
 10
7.032816696
 20
17.7909790691
 11
7.0074480255
 21
17.8096133354
  0
LWPOLYLINE
  5
4A1
100
AcDbEntity
  8
0
100
AcDbPolyline
 62
7
  6
CONTINUOUS
 90
3
 70
0
 10
6.8711228475
 20
17.8815785704
 10
6.9038760354
 20
17.8571128536
 10
6.9396487689
 20
17.8426091109
  0
LINE
  5
4A2
100
AcDbEntity
  8
0
100
AcDbLine
 62
7
  6
CONTINUOUS
 10
6.9419035462
 20
17.8758378272
 11
6.9323362673
 21
17.8829971338
  0
LWPOLYLINE
  5
4A3
100
AcDbEntity
  8
0
100
AcDbPolyline
 62
7
  6
CONTINUOUS
 90
3
 70
0
 10
7.1964283093
 20
17.795820286
 10
7.1700213599
 20
17.8157863774
 10
7.1412198203
 20
17.8293633673
  0
LINE
  5
4A4
100
AcDbEntity
  8
0
100
AcDbLine
 62
7
  6
CONTINUOUS
 10
7.0337274008
 20
17.8160458089
 11
7.060124844
 21
17.7960855072
  0
LINE
  5
4A5
100
AcDbEntity
  8
0
100
AcDbLine
 62
7
  6
CONTINUOUS
 10
7.1419069232
 20
17.7959263745
 11
7.1155347947
 21
17.8158712542
  0
LINE
  5
4A6
100
AcDbEntity
  8
0
100
AcDbLine
 62
7
  6
CONTINUOUS
 10
7.087385537
 20
17.796032463
 11
7.0611043787
 21
17.8159218682
  0
LINE
  5
4A7
100
AcDbEntity
  8
0
100
AcDbLine
 62
7
  6
CONTINUOUS
 10
7.1146462301
 20
17.7959794187
 11
7.0883934956
 21
17.8158514735
  0
LINE
  5
4A8
100
AcDbEntity
  8
0
100
AcDbLine
 62
7
  6
CONTINUOUS
 10
7.1691676163
 20
17.7958733303
 11
7.1429881213
 21
17.8157006399
  0
LWPOLYLINE
  5
4A9
100
AcDbEntity
  8
0
100
AcDbPolyline
 62
7
  6
CONTINUOUS
 90
3
 70
0
 10
7.2236890024
 20
17.7957672418
 10
7.1975100339
 20
17.8155942297
 10
7.1691061956
 20
17.8290947894
  0
LWPOLYLINE
  5
4AA
100
AcDbEntity
  8
0
100
AcDbPolyline
 62
7
  6
CONTINUOUS
 90
17
 70
0
 10
7.8904567722
 20
17.0962396678
 10
7.903063531
 20
17.0866749384
 10
7.9168017006
 20
17.0806970445
 10
7.9311082912
 20
17.0785560254
 10
7.9453647202
 20
17.0803062598
 10
7.9592064079
 20
17.0859126804
 10
7.971997617
 20
17.0951639718
 10
7.9832174327
 20
17.107671434
 10
7.9924420425
 20
17.1229272509
 10
7.9993425995
 20
17.1403525772
 10
8.0036695426
 20
17.159303869
 10
8.0052565303
 20
17.1790819087
 10
8.0040312905
 20
17.1989333462
 10
8.0000582813
 20
17.2179918974
 10
7.9934252405
 20
17.2357507381
 10
7.984384524
 20
17.2513981214
 10
7.9733168188
 20
17.2642632209
  0
LWPOLYLINE
  5
4AB
100
AcDbEntity
  8
0
100
AcDbPolyline
 62
7
  6
CONTINUOUS
 90
17
 70
0
 10
7.9733168188
 20
17.2642632209
 10
7.9607100601
 20
17.2738279503
 10
7.9469718905
 20
17.2798058442
 10
7.9326652998
 20
17.2819468632
 10
7.9184088708
 20
17.2801966289
 10
7.9045671831
 20
17.2745902083
 10
7.8917759741
 20
17.2653389169
 10
7.8805561584
 20
17.2528314547
 10
7.8713315485
 20
17.2375756378
 10
7.8644309915
 20
17.2201503115
 10
7.8601040485
 20
17.2011990196
 10
7.8585170608
 20
17.18142098
 10
7.8597423005
 20
17.1615695425
 10
7.8637153097
 20
17.1425109913
 10
7.8703483505
 20
17.1247521506
 10
7.879389067
 20
17.1091047673
 10
7.8904567722
 20
17.0962396678
  0
LWPOLYLINE
  5
4AC
100
AcDbEntity
  8
0
100
AcDbPolyline
 62
7
  6
CONTINUOUS
 90
5
 70
0
 10
7.8936778004
 20
17.0868898012
 10
7.9068259994
 20
17.0767776273
 10
7.921094063
 20
17.0701886116
 10
7.9359961096
 20
17.0673471352
 10
7.9394912831
 20
17.0672364335
  0
LINE
  5
4AD
100
AcDbEntity
  8
0
100
AcDbLine
 62
7
  6
CONTINUOUS
 10
6.9900445641
 20
17.7894372698
 11
7.0137475399
 21
17.7712069644
  0
LWPOLYLINE
  5
4AE
100
AcDbEntity
  8
0
100
AcDbPolyline
 62
7
  6
CONTINUOUS
 90
5
 70
0
 10
7.9772559893
 20
17.2801110977
 10
7.9725963199
 20
17.2836948119
 10
7.9583282563
 20
17.2902838276
 10
7.9434262097
 20
17.293125304
 10
7.9399310362
 20
17.2932360057
  0
LWPOLYLINE
  5
4AF
100
AcDbEntity
  8
0
100
AcDbPolyline
 62
7
  6
CONTINUOUS
 90
4
 70
0
 10
7.2181940687
 20
17.344108805
 10
7.2459781011
 20
17.3222473396
 10
7.2804750591
 20
17.3047504644
 10
7.3165813616
 20
17.2953676491
  0
LWPOLYLINE
  5
4B0
100
AcDbEntity
  8
0
100
AcDbPolyline
 62
7
  6
CONTINUOUS
 90
7
 70
0
 10
7.4471738795
 20
17.8410808252
 10
7.4172150744
 20
17.8646536027
 10
7.3848591249
 20
17.8810653578
 10
7.3509884244
 20
17.8898684442
 10
7.3165272578
 20
17.8908226363
 10
7.2824154072
 20
17.8839019645
 10
7.2755124491
 20
17.8815097187
  0
LWPOLYLINE
  5
4B1
100
AcDbEntity
  8
0
100
AcDbPolyline
 62
7
  6
CONTINUOUS
 90
3
 70
0
 10
7.4652781437
 20
17.8568365179
 10
7.4333405346
 20
17.8819661652
 10
7.3988435766
 20
17.8994630405
  0
LWPOLYLINE
  5
4B2
100
AcDbEntity
  8
0
100
AcDbPolyline
 62
7
  6
CONTINUOUS
 90
8
 70
0
 10
7.5429457885
 20
18.0143309364
 10
7.4963866555
 20
18.0516411406
 10
7.4463264927
 20
18.0789094893
 10
7.3938835614
 20
18.0955268528
 10
7.3402293502
 20
18.1011220266
 10
7.2865624054
 20
18.0955700237
 10
7.2340815579
 20
18.0789948669
 10
7.183959143
 20
18.0517668175
  0
LWPOLYLINE
  5
4B3
100
AcDbEntity
  8
0
100
AcDbPolyline
 62
7
  6
CONTINUOUS
 90
4
 70
0
 10
7.9154664982
 20
17.1350640966
 10
7.9086517209
 20
17.140881779
 10
7.9003474395
 20
17.1468491405
 10
7.8908068481
 20
17.1528692286
  0
LWPOLYLINE
  5
4B4
100
AcDbEntity
  8
0
100
AcDbPolyline
 62
7
  6
CONTINUOUS
 90
6
 70
0
 10
7.5429457885
 20
18.0143309364
 10
7.5773553199
 20
17.9817890241
 10
7.6117212029
 20
17.9495965577
 10
7.6463294219
 20
17.9181733984
 10
7.6813374218
 20
17.8882298841
 10
7.7153853193
 20
17.8615143957
  0
LINE
  5
4B5
100
AcDbEntity
  8
0
100
AcDbLine
 62
7
  6
CONTINUOUS
 10
7.8475144541
 20
17.861257297
 11
7.5246144003
 21
18.1668476114
  0
LINE
  5
4B6
100
AcDbEntity
  8
0
100
AcDbLine
 62
7
  6
CONTINUOUS
 10
7.6290742186
 20
18.291568857
 11
7.613252169
 21
18.3065427322
  0
LWPOLYLINE
  5
4B7
100
AcDbEntity
  8
0
100
AcDbPolyline
 62
7
  6
CONTINUOUS
 90
4
 70
0
 10
7.6256682348
 20
18.3792000211
 10
7.6311458469
 20
18.3733841114
 10
7.6354445936
 20
18.3674233412
 10
7.6386118542
 20
18.3614176863
  0
LWPOLYLINE
  5
4B8
100
AcDbEntity
  8
0
100
AcDbPolyline
 62
7
  6
CONTINUOUS
 90
4
 70
0
 10
8.2793933821
 20
18.5376192456
 10
8.1810322057
 20
18.661074019
 10
8.0714412267
 20
18.7647935898
 10
7.9526619177
 20
18.8468458588
  0
LWPOLYLINE
  5
4B9
100
AcDbEntity
  8
0
100
AcDbPolyline
 62
7
  6
CONTINUOUS
 90
4
 70
0
 10
8.054925157
 20
16.4609273794
 10
8.1622706929
 20
16.5694445817
 10
8.257974206
 20
16.6971911436
 10
8.3402529134
 20
16.8417873719
  0
LWPOLYLINE
  5
4BA
100
AcDbEntity
  8
0
100
AcDbPolyline
 62
7
  6
CONTINUOUS
 90
5
 70
0
 10
7.4953594924
 20
17.1524466874
 10
7.5363901038
 20
17.1845284368
 10
7.5740598694
 20
17.2237557705
 10
7.6077210024
 20
17.2694561332
 10
7.6368138919
 20
17.3208817769
  0
LWPOLYLINE
  5
4BB
100
AcDbEntity
  8
0
100
AcDbPolyline
 62
7
  6
CONTINUOUS
 90
7
 70
0
 10
7.0623049865
 20
17.0786851118
 10
7.0809379735
 20
17.0924078037
 10
7.0968048677
 20
17.1120829998
 10
7.1087055061
 20
17.1362143073
 10
7.1161675865
 20
17.1638440238
 10
7.1186211861
 20
17.192879282
 10
7.1172511766
 20
17.2079919938
  0
LWPOLYLINE
  5
4BC
100
AcDbEntity
  8
0
100
AcDbPolyline
 62
7
  6
CONTINUOUS
 90
10
 70
0
 10
7.959738792
 20
17.066674326
 10
7.978371779
 20
17.080397018
 10
7.9942386732
 20
17.1000722141
 10
8.0061393116
 20
17.1242035216
 10
8.013601392
 20
17.1518332381
 10
8.0160549915
 20
17.1808684962
 10
8.0134061852
 20
17.2100877446
 10
8.0058332601
 20
17.2374003372
 10
7.9937126445
 20
17.2615040116
 10
7.9778120563
 20
17.2808341153
  0
LWPOLYLINE
  5
4BD
100
AcDbEntity
  8
0
100
AcDbPolyline
 62
7
  6
CONTINUOUS
 90
11
 70
0
 10
7.4953594924
 20
17.1524466874
 10
7.4723023341
 20
17.1370754031
 10
7.450270764
 20
17.1223584978
 10
7.4299898443
 20
17.1087243267
 10
7.4119308518
 20
17.096438029
 10
7.3960068005
 20
17.0854133702
 10
7.3814836069
 20
17.0751246936
 10
7.3676405389
 20
17.0650218578
 10
7.3543037729
 20
17.0549042076
 10
7.3416654318
 20
17.0448207831
 10
7.3299718167
 20
17.0348594771
  0
LINE
  5
4BE
100
AcDbEntity
  8
0
100
AcDbLine
 62
7
  6
CONTINUOUS
 10
7.0647468914
 20
17.2351359555
 11
7.0536499303
 21
17.2277391743
  0
LINE
  5
4BF
100
AcDbEntity
  8
0
100
AcDbLine
 62
7
  6
CONTINUOUS
 10
6.8760286755
 20
17.8025321703
 11
6.8815374908
 21
17.8059187836
  0
LINE
  5
4C0
100
AcDbEntity
  8
0
100
AcDbLine
 62
7
  6
CONTINUOUS
 10
7.0023552733
 20
17.4250984974
 11
6.9775461977
 21
17.409846748
  0
LWPOLYLINE
  5
4C1
100
AcDbEntity
  8
0
100
AcDbPolyline
 62
7
  6
CONTINUOUS
 90
5
 70
0
 10
6.9337621142
 20
18.2898135691
 10
6.9660155815
 20
18.3057746523
 10
6.9999557036
 20
18.3120863077
 10
7.0340700622
 20
18.3084744552
 10
7.062169858
 20
18.2970207057
  0
LWPOLYLINE
  5
4C2
100
AcDbEntity
  8
0
100
AcDbPolyline
 62
7
  6
CONTINUOUS
 90
14
 70
0
 10
6.8580324076
 20
17.4091199908
 10
6.8386005459
 20
17.4200234673
 10
6.8204896103
 20
17.4346509117
 10
6.8040682872
 20
17.4527045513
 10
6.7896708675
 20
17.4738168662
 10
6.7775904409
 20
17.4975580704
 10
6.7680729303
 20
17.5234448615
 10
6.7613120847
 20
17.5509502592
 10
6.7574455353
 20
17.5795143327
 10
6.756551994
 20
17.6085556
 10
6.7586496507
 20
17.6374828646
 10
6.7636958032
 20
17.6657072508
 10
6.7715877264
 20
17.6926541916
 10
6.7821647633
 20
17.7177751248
  0
LINE
  5
4C3
100
AcDbEntity
  8
0
100
AcDbLine
 62
7
  6
CONTINUOUS
 10
6.8736358975
 20
17.4037871391
 11
6.8784549034
 21
17.4007685308
  0
LWPOLYLINE
  5
4C4
100
AcDbEntity
  8
0
100
AcDbPolyline
 62
7
  6
CONTINUOUS
 90
4
 70
0
 10
7.9353634735
 20
17.2432211269
 10
7.9449050189
 20
17.2372004015
 10
7.9532092367
 20
17.2312329812
 10
7.9600231236
 20
17.2254159949
  0
LWPOLYLINE
  5
4C5
100
AcDbEntity
  8
0
100
AcDbPolyline
 62
7
  6
CONTINUOUS
 90
4
 70
0
 10
7.9778120563
 20
17.2808341153
 10
7.9590323997
 20
17.2943262397
 10
7.9384169866
 20
17.3012047398
 10
7.9300465646
 20
17.3019850583
  0
LWPOLYLINE
  5
4C6
100
AcDbEntity
  8
0
100
AcDbPolyline
 62
7
  6
CONTINUOUS
 90
4
 70
0
 10
7.5442571631
 20
18.2334671003
 10
7.5630368197
 20
18.219974976
 10
7.5836522327
 20
18.2130964758
 10
7.5952179487
 20
18.212310021
  0
LWPOLYLINE
  5
4C7
100
AcDbEntity
  8
0
100
AcDbPolyline
 62
7
  6
CONTINUOUS
 90
4
 70
0
 10
7.0722790304
 20
18.2894694362
 10
7.0395258426
 20
18.313935153
 10
7.003753109
 20
18.3284388957
 10
6.9754209958
 20
18.3323634023
  0
LWPOLYLINE
  5
4C8
100
AcDbEntity
  8
0
100
AcDbPolyline
 62
7
  6
CONTINUOUS
 90
17
 70
0
 10
7.5561018834
 20
18.2500236941
 10
7.5687086422
 20
18.2404589646
 10
7.5824468118
 20
18.2344810707
 10
7.5967534024
 20
18.2323400517
 10
7.6110098314
 20
18.2340902861
 10
7.6248515191
 20
18.2396967066
 10
7.6376427282
 20
18.248947998
 10
7.6488625438
 20
18.2614554602
 10
7.6580871537
 20
18.2767112771
 10
7.6649877107
 20
18.2941366034
 10
7.6693146538
 20
18.3130878953
 10
7.6709016414
 20
18.3328659349
 10
7.6696764017
 20
18.3527173725
 10
7.6657033925
 20
18.3717759236
 10
7.6590703517
 20
18.3895347644
 10
7.6500296352
 20
18.4051821476
 10
7.63896193
 20
18.4180472471
  0
LWPOLYLINE
  5
4C9
100
AcDbEntity
  8
0
100
AcDbPolyline
 62
7
  6
CONTINUOUS
 90
17
 70
0
 10
7.63896193
 20
18.4180472471
 10
7.6263551713
 20
18.4276119765
 10
7.6126170016
 20
18.4335898704
 10
7.598310411
 20
18.4357308895
 10
7.584053982
 20
18.4339806551
 10
7.5702122943
 20
18.4283742346
 10
7.5574210853
 20
18.4191229432
 10
7.5462012696
 20
18.406615481
 10
7.5369766597
 20
18.3913596641
 10
7.5300761027
 20
18.3739343377
 10
7.5257491597
 20
18.3549830459
 10
7.524162172
 20
18.3352050063
 10
7.5253874117
 20
18.3153535687
 10
7.5293604209
 20
18.2962950176
 10
7.5359934617
 20
18.2785361768
 10
7.5450341782
 20
18.2628887936
 10
7.5561018834
 20
18.2500236941
  0
LWPOLYLINE
  5
4CA
100
AcDbEntity
  8
0
100
AcDbPolyline
 62
7
  6
CONTINUOUS
 90
5
 70
0
 10
7.5593229116
 20
18.2406738275
 10
7.5724711106
 20
18.2305616535
 10
7.5867391742
 20
18.2239726378
 10
7.6016412208
 20
18.2211311614
 10
7.6051363943
 20
18.2210204597
  0
LWPOLYLINE
  5
4CB
100
AcDbEntity
  8
0
100
AcDbPolyline
 62
7
  6
CONTINUOUS
 90
5
 70
0
 10
7.6429011004
 20
18.433895124
 10
7.6382414311
 20
18.4374788382
 10
7.6239733674
 20
18.4440678538
 10
7.6090713209
 20
18.4469093302
 10
7.6055761474
 20
18.4470200319
  0
LWPOLYLINE
  5
4CC
100
AcDbEntity
  8
0
100
AcDbPolyline
 62
7
  6
CONTINUOUS
 90
4
 70
0
 10
7.5811116094
 20
18.2888481228
 10
7.5742968321
 20
18.2946658052
 10
7.5659925507
 20
18.3006331667
 10
7.5564519593
 20
18.3066532548
  0
LWPOLYLINE
  5
4CD
100
AcDbEntity
  8
0
100
AcDbPolyline
 62
7
  6
CONTINUOUS
 90
4
 70
0
 10
8.1401411751
 20
18.6611535755
 10
8.030550177
 20
18.7648731643
 10
7.9117708461
 20
18.8469254436
 10
7.7860158169
 20
18.9057819341
  0
LWPOLYLINE
  5
4CE
100
AcDbEntity
  8
0
100
AcDbPolyline
 62
7
  6
CONTINUOUS
 90
4
 70
0
 10
8.1539188161
 20
18.7646332015
 10
8.2635100254
 20
18.6609134126
 10
8.3618710034
 20
18.5374588867
 10
8.447170268
 20
18.396568351
  0
LWPOLYLINE
  5
4CF
100
AcDbEntity
  8
0
100
AcDbPolyline
 62
7
  6
CONTINUOUS
 90
5
 70
0
 10
8.2751308781
 20
18.6522405757
 10
8.1666627839
 20
18.7567412135
 10
8.0490613814
 20
18.8399717962
 10
7.9243693442
 20
18.9005581854
 10
7.7949951109
 20
18.9373957664
  0
LINE
  5
4D0
100
AcDbEntity
  8
0
100
AcDbLine
 62
7
  6
CONTINUOUS
 10
7.9379371472
 20
16.3736609467
 11
8.054925157
 21
16.4609273794
  0
LINE
  5
4D1
100
AcDbEntity
  8
0
100
AcDbLine
 62
7
  6
CONTINUOUS
 10
7.4621009514
 20
17.0346023784
 11
7.8148553107
 21
17.2697340321
  0
LINE
  5
4D2
100
AcDbEntity
  8
0
100
AcDbLine
 62
7
  6
CONTINUOUS
 10
7.9621806969
 20
17.2231251698
 11
7.9510837357
 21
17.2157283885
  0
LWPOLYLINE
  5
4D3
100
AcDbEntity
  8
0
100
AcDbPolyline
 62
7
  6
CONTINUOUS
 90
11
 70
0
 10
7.682726176
 20
17.2699911307
 10
7.6644832932
 20
17.2600050692
 10
7.6467177786
 20
17.2498344133
 10
7.6296015457
 20
17.2396551595
 10
7.6132018153
 20
17.2295907503
 10
7.5970955122
 20
17.2194520004
 10
7.5802436184
 20
17.2086236338
 10
7.5616682971
 20
17.1964913741
 10
7.5409091075
 20
17.1827732345
 10
7.5185668063
 20
17.1679133532
 10
7.4953594924
 20
17.1524466874
  0
LINE
  5
4D4
100
AcDbEntity
  8
0
100
AcDbLine
 62
7
  6
CONTINUOUS
 10
7.0206772419
 20
17.3778277316
 11
7.0477531917
 21
17.392606614
  0
LWPOLYLINE
  5
4D5
100
AcDbEntity
  8
0
100
AcDbPolyline
 62
7
  6
CONTINUOUS
 90
14
 70
0
 10
7.0750468974
 20
17.377660229
 10
7.1020110963
 20
17.3923174643
 10
7.1265392194
 20
17.4133037104
 10
7.1478609575
 20
17.4397697245
 10
7.1655684584
 20
17.4710963269
 10
7.1791688683
 20
17.5065303654
 10
7.1881137792
 20
17.5447378291
 10
7.1921716213
 20
17.5849064377
 10
7.1911260641
 20
17.6257005414
 10
7.1850515092
 20
17.6654336103
 10
7.1740986003
 20
17.7033554328
 10
7.1582989677
 20
17.7387850547
 10
7.1381639346
 20
17.7701249284
 10
7.1146462301
 20
17.7959794187
  0
LWPOLYLINE
  5
4D6
100
AcDbEntity
  8
0
100
AcDbPolyline
 62
7
  6
CONTINUOUS
 90
14
 70
0
 10
7.1293838682
 20
17.3774797992
 10
7.1562093515
 20
17.3919880092
 10
7.1807221915
 20
17.4128477489
 10
7.2021180011
 20
17.439273202
 10
7.2199345705
 20
17.470660145
 10
7.2335307024
 20
17.5059046681
 10
7.2425364579
 20
17.5440419528
 10
7.2466735701
 20
17.5842918344
 10
7.2456700589
 20
17.6253390195
 10
7.2395762059
 20
17.6653124075
 10
7.2286257547
 20
17.7032334692
 10
7.2128257137
 20
17.7386689971
 10
7.1926885757
 20
17.770014583
 10
7.1691676163
 20
17.7958733303
  0
LINE
  5
4D7
100
AcDbEntity
  8
0
100
AcDbLine
 62
7
  6
CONTINUOUS
 10
7.0196566181
 20
17.3920817759
 11
6.9928827379
 21
17.3776657054
  0
LWPOLYLINE
  5
4D8
100
AcDbEntity
  8
0
100
AcDbPolyline
 62
7
  6
CONTINUOUS
 90
14
 70
0
 10
7.1014736717
 20
17.3772736503
 10
7.1283947343
 20
17.3916610539
 10
7.1528333976
 20
17.4122564382
 10
7.1744352853
 20
17.4387067374
 10
7.1926336099
 20
17.4706277888
 10
7.2064886162
 20
17.5066705478
 10
7.2154459301
 20
17.5451161892
 10
7.2194471246
 20
17.5852557383
 10
7.2183187836
 20
17.6264019586
 10
7.2120194908
 20
17.666702889
 10
7.2008841663
 20
17.7046000419
 10
7.1851889928
 20
17.7394188355
 10
7.1653238418
 20
17.7702035874
 10
7.1419069232
 20
17.7959263745
  0
LINE
  5
4D9
100
AcDbEntity
  8
0
100
AcDbLine
 62
7
  6
CONTINUOUS
 10
7.0468662603
 20
17.3773457165
 11
7.0736739668
 21
17.3916312587
  0
LWPOLYLINE
  5
4DA
100
AcDbEntity
  8
0
100
AcDbPolyline
 62
7
  6
CONTINUOUS
 90
6
 70
0
 10
6.8661506074
 20
17.799946413
 10
6.8462968757
 20
17.7905402174
 10
6.8276073949
 20
17.777315337
 10
6.8104626291
 20
17.7605409924
 10
6.7952115962
 20
17.7405586608
 10
6.7821647633
 20
17.7177751248
  0
LWPOLYLINE
  5
4DB
100
AcDbEntity
  8
0
100
AcDbPolyline
 62
7
  6
CONTINUOUS
 90
8
 70
0
 10
7.5599286372
 20
18.3696229374
 10
7.5681715522
 20
18.3733470433
 10
7.5759621145
 20
18.3772206798
 10
7.5830490506
 20
18.381218059
 10
7.5891839163
 20
18.3852975463
 10
7.5941831838
 20
18.3893504644
 10
7.598043692
 20
18.3932429545
 10
7.6010085847
 20
18.3970051531
  0
LWPOLYLINE
  5
4DC
100
AcDbEntity
  8
0
100
AcDbPolyline
 62
7
  6
CONTINUOUS
 90
4
 70
0
 10
7.2896388126
 20
17.9024836063
 10
7.2546401204
 20
17.8869121371
 10
7.2219603903
 20
17.8635722077
 10
7.2189854135
 20
17.860496036
  0
LINE
  5
4DD
100
AcDbEntity
  8
0
100
AcDbLine
 62
7
  6
CONTINUOUS
 10
6.8954455423
 20
17.3942498093
 11
6.8780941993
 21
17.4022634118
  0
LWPOLYLINE
  5
4DE
100
AcDbEntity
  8
0
100
AcDbPolyline
 62
7
  6
CONTINUOUS
 90
5
 70
0
 10
6.9683759112
 20
17.785887453
 10
6.9489440495
 20
17.7967909296
 10
6.9285868384
 20
17.8037484749
 10
6.907718692
 20
17.8066184535
 10
6.9038846669
 20
17.8066945235
  0
LWPOLYLINE
  5
4DF
100
AcDbEntity
  8
0
100
AcDbPolyline
 62
7
  6
CONTINUOUS
 90
5
 70
0
 10
6.9956366043
 20
17.7858344088
 10
6.9762047426
 20
17.7967378853
 10
6.9558475315
 20
17.8036954307
 10
6.9349793851
 20
17.8065654093
 10
6.93114536
 20
17.8066414793
  0
LWPOLYLINE
  5
4E0
100
AcDbEntity
  8
0
100
AcDbPolyline
 62
7
  6
CONTINUOUS
 90
4
 70
0
 10
7.6010085847
 20
18.3970051531
 10
7.6105501301
 20
18.3909844278
 10
7.6188543479
 20
18.3850170075
 10
7.6256682348
 20
18.3792000211
  0
LWPOLYLINE
  5
4E1
100
AcDbEntity
  8
0
100
AcDbPolyline
 62
7
  6
CONTINUOUS
 90
8
 70
0
 10
8.0545996617
 20
17.8976432873
 10
8.0410142733
 20
17.9071623255
 10
8.0296738915
 20
17.9212336439
 10
8.0213513453
 20
17.9388983112
 10
8.0166138113
 20
17.9589524787
 10
8.0157841345
 20
17.9800295505
 10
8.0189188608
 20
18.0006930856
 10
8.0258043575
 20
18.0195349298
  0
LWPOLYLINE
  5
4E2
100
AcDbEntity
  8
0
100
AcDbPolyline
 62
7
  6
CONTINUOUS
 90
4
 70
0
 10
7.6434571675
 20
18.4346181416
 10
7.6246775109
 20
18.4481102659
 10
7.6040620978
 20
18.4549887661
 10
7.5956916758
 20
18.4557690846
  0
LWPOLYLINE
  5
4E3
100
AcDbEntity
  8
0
100
AcDbPolyline
 62
7
  6
CONTINUOUS
 90
8
 70
0
 10
6.9968497206
 20
17.2278496969
 10
7.0050926355
 20
17.2315738029
 10
7.0128831979
 20
17.2354474393
 10
7.0199701339
 20
17.2394448185
 10
7.0261049996
 20
17.2435243058
 10
7.0311042671
 20
17.2475772239
 10
7.0349647753
 20
17.251469714
 10
7.037929668
 20
17.2552319127
  0
LWPOLYLINE
  5
4E4
100
AcDbEntity
  8
0
100
AcDbPolyline
 62
7
  6
CONTINUOUS
 90
4
 70
0
 10
7.0177898271
 20
17.565018119
 10
7.0164901709
 20
17.5644667366
 10
7.0124621623
 20
17.5611406775
 10
7.0094003287
 20
17.5566380044
  0
LINE
  5
4E5
100
AcDbEntity
  8
0
100
AcDbLine
 62
7
  6
CONTINUOUS
 10
7.1541805608
 20
17.8364051103
 11
7.2755124491
 21
17.8815097187
  0
LWPOLYLINE
  5
4E6
100
AcDbEntity
  8
0
100
AcDbPolyline
 62
7
  6
CONTINUOUS
 90
4
 70
0
 10
7.3446835696
 20
18.8567542065
 10
7.2226459462
 20
18.8187777603
 10
7.1054550699
 20
18.7581276494
 10
6.9952941163
 20
18.6759336933
  0
LWPOLYLINE
  5
4E7
100
AcDbEntity
  8
AXIS
100
AcDbPolyline
 62
7
  6
CONTINUOUS
 90
7
 70
0
 10
25.6018759077
 20
16.2273178616
 10
25.7383055249
 20
16.2630307034
 10
25.8697046193
 20
16.3252842687
 10
25.9933982842
 20
16.4128112545
 10
26.1068684734
 20
16.5238298639
 10
26.207805261
 20
16.656080078
 10
26.294153865
 20
16.8068696639
  0
LINE
  5
4E8
100
AcDbEntity
  8
0
100
AcDbLine
 62
7
  6
CONTINUOUS
 10
7.2486133287
 20
16.3739076873
 11
7.3713999877
 21
16.3413651967
  0
LINE
  5
4E9
100
AcDbEntity
  8
0
100
AcDbLine
 62
7
  6
CONTINUOUS
 10
7.4592044708
 20
16.6666390726
 11
7.4489767325
 21
16.6696021832
  0
LINE
  5
4EA
100
AcDbEntity
  8
0
100
AcDbLine
 62
7
  6
CONTINUOUS
 10
6.8783896187
 20
17.4021624455
 11
6.8580324076
 21
17.4091199908
  0
LINE
  5
4EB
100
AcDbEntity
  8
0
100
AcDbLine
 62
7
  6
CONTINUOUS
 10
7.1527022473
 20
17.3687456212
 11
7.2744256067
 21
17.3229555368
  0
LWPOLYLINE
  5
4EC
100
AcDbEntity
  8
0
100
AcDbPolyline
 62
7
  6
CONTINUOUS
 90
3
 70
0
 10
6.8784549034
 20
17.4007685308
 10
6.9019064871
 20
17.3918719802
 10
6.926024169
 20
17.3881737718
  0
LINE
  5
4ED
100
AcDbEntity
  8
0
100
AcDbLine
 62
7
  6
CONTINUOUS
 10
7.0074480255
 20
17.8096133354
 11
6.9801733124
 21
17.8220089725
  0
LINE
  5
4EE
100
AcDbEntity
  8
0
100
AcDbLine
 62
7
  6
CONTINUOUS
 10
6.9643202448
 20
17.8013179232
 11
6.9900445641
 21
17.7894372698
  0
LWPOLYLINE
  5
4EF
100
AcDbEntity
  8
0
100
AcDbPolyline
 62
7
  6
CONTINUOUS
 90
3
 70
0
 10
6.9660523009
 20
17.8115550227
 10
6.9931035658
 20
17.7990615756
 10
7.0180297874
 20
17.7798905035
  0
LINE
  5
4F0
100
AcDbEntity
  8
0
100
AcDbLine
 62
7
  6
CONTINUOUS
 10
7.1155347947
 20
17.8158712542
 11
7.0868764727
 21
17.8294084664
  0
LINE
  5
4F1
100
AcDbEntity
  8
0
100
AcDbLine
 62
7
  6
CONTINUOUS
 10
7.0052117226
 20
17.8295272584
 11
7.0337274008
 21
17.8160458089
  0
LINE
  5
4F2
100
AcDbEntity
  8
0
100
AcDbLine
 62
7
  6
CONTINUOUS
 10
7.0883934956
 20
17.8158514735
 11
7.0596663863
 21
17.8294441252
  0
LINE
  5
4F3
100
AcDbEntity
  8
0
100
AcDbLine
 62
7
  6
CONTINUOUS
 10
7.0611043787
 20
17.8159218682
 11
7.032608267
 21
17.8294273578
  0
LINE
  5
4F4
100
AcDbEntity
  8
0
100
AcDbLine
 62
7
  6
CONTINUOUS
 10
7.1429881213
 20
17.8157006399
 11
7.1144441627
 21
17.8292496196
  0
LWPOLYLINE
  5
4F5
100
AcDbEntity
  8
0
100
AcDbPolyline
 62
7
  6
CONTINUOUS
 90
6
 70
0
 10
7.8543769224
 20
16.3091913664
 10
7.9788280317
 20
16.373581283
 10
8.0958160196
 20
16.4608476586
 10
8.2031616212
 20
16.5693648858
 10
8.2988651912
 20
16.697111494
 10
8.381143953
 20
16.8417078056
  0
LWPOLYLINE
  5
4F6
100
AcDbEntity
  8
0
100
AcDbPolyline
 62
7
  6
CONTINUOUS
 90
8
 70
0
 10
7.894283526
 20
17.2158389111
 10
7.902526441
 20
17.2195630171
 10
7.9103170034
 20
17.2234366535
 10
7.9174039394
 20
17.2274340327
 10
7.9235388051
 20
17.2315135201
 10
7.9285380726
 20
17.2355664382
 10
7.9323985808
 20
17.2394589283
 10
7.9353634735
 20
17.2432211269
  0
LWPOLYLINE
  5
4F7
100
AcDbEntity
  8
0
100
AcDbPolyline
 62
7
  6
CONTINUOUS
 90
11
 70
0
 10
7.0132297515
 20
17.3107397502
 10
6.9992515107
 20
17.3058536491
 10
6.9806185237
 20
17.2921309572
 10
6.9647516296
 20
17.2724557611
 10
6.9528509911
 20
17.2483244536
 10
6.9453889107
 20
17.2206947371
 10
6.9429353112
 20
17.1916594789
 10
6.9455841175
 20
17.1624402306
 10
6.9531570426
 20
17.135127638
 10
6.9652776582
 20
17.1110239636
 10
6.9811782465
 20
17.0916938598
  0
LWPOLYLINE
  5
4F8
100
AcDbEntity
  8
0
100
AcDbPolyline
 62
7
  6
CONTINUOUS
 90
3
 70
0
 10
6.8815374908
 20
17.8059187836
 10
6.9093025261
 20
17.8150435562
 10
6.9377977105
 20
17.816943782
  0
LINE
  5
4F9
100
AcDbEntity
  8
0
100
AcDbLine
 62
7
  6
CONTINUOUS
 10
6.9775461977
 20
17.409846748
 11
6.9511435923
 21
17.4011696208
  0
LWPOLYLINE
  5
4FA
100
AcDbEntity
  8
0
100
AcDbPolyline
 62
7
  6
CONTINUOUS
 90
14
 70
0
 10
7.0221896658
 20
17.3012493532
 10
7.0163205559
 20
17.2993202854
 10
7.0025611933
 20
17.290861055
 10
6.990154317
 20
17.2790436413
 10
6.9795224282
 20
17.2642704723
 10
6.9710275831
 20
17.2470446306
 10
6.9649590635
 20
17.2279527214
 10
6.9615235256
 20
17.2076448969
 10
6.9608379625
 20
17.1868127156
 10
6.9629257201
 20
17.1661655926
 10
6.9677157025
 20
17.1464066408
 10
6.9750447925
 20
17.1282087277
 10
6.9846634068
 20
17.1121915613
 10
6.9962439949
 20
17.098900587
  0
LWPOLYLINE
  5
4FB
100
AcDbEntity
  8
0
100
AcDbPolyline
 62
7
  6
CONTINUOUS
 90
3
 70
0
 10
6.8793680899
 20
17.3951556892
 10
6.9029116676
 20
17.3875920663
 10
6.9267979764
 20
17.3858013841
  0
LWPOLYLINE
  5
4FC
100
AcDbEntity
  8
0
100
AcDbPolyline
 62
7
  6
CONTINUOUS
 90
3
 70
0
 10
25.7332096955
 20
16.23383952
 10
25.6008832182
 20
16.218349584
 10
25.5839804515
 20
16.2181811236
  0
LWPOLYLINE
  5
4FD
100
AcDbEntity
  8
0
100
AcDbPolyline
 62
7
  6
CONTINUOUS
 90
7
 70
0
 10
25.5184056476
 20
16.2185100734
 10
25.6507319084
 20
16.2339999898
 10
25.7803275991
 20
16.2743168269
 10
25.9047778429
 20
16.3387093409
 10
26.0217649535
 20
16.4259782962
 10
26.1291093665
 20
16.5344978631
 10
26.2248114669
 20
16.662246479
  0
LINE
  5
4FE
100
AcDbEntity
  8
AXIS
100
AcDbLine
 62
7
  6
CONTINUOUS
 10
25.4885680297
 20
16.2183692956
 11
25.6018759077
 21
16.2273178616
  0
LINE
  5
4FF
100
AcDbEntity
  8
0
100
AcDbLine
 62
7
  6
CONTINUOUS
 10
6.9237001327
 20
17.3888610499
 11
6.8954455423
 21
17.3942498093
  0
LWPOLYLINE
  5
500
100
AcDbEntity
  8
0
100
AcDbPolyline
 62
7
  6
CONTINUOUS
 90
4
 70
0
 10
7.0309763121
 20
17.1292925475
 10
7.0231409147
 20
17.1310717775
 10
7.0156485632
 20
17.1347105051
 10
7.0087282104
 20
17.1400975373
  0
LWPOLYLINE
  5
501
100
AcDbEntity
  8
0
100
AcDbPolyline
 62
7
  6
CONTINUOUS
 90
4
 70
0
 10
7.037929668
 20
17.2552319127
 10
7.0457650654
 20
17.2534526827
 10
7.0532574169
 20
17.2498139551
 10
7.0601777697
 20
17.2444269229
  0
LWPOLYLINE
  5
502
100
AcDbEntity
  8
0
100
AcDbPolyline
 62
7
  6
CONTINUOUS
 90
4
 70
0
 10
7.9284101176
 20
17.1172817618
 10
7.9205747202
 20
17.1190609918
 10
7.9130823687
 20
17.1226997194
 10
7.9061620159
 20
17.1280867515
  0
LWPOLYLINE
  5
503
100
AcDbEntity
  8
0
100
AcDbPolyline
 62
7
  6
CONTINUOUS
 90
4
 70
0
 10
7.9353634735
 20
17.2432211269
 10
7.9431988708
 20
17.2414418969
 10
7.9506912224
 20
17.2378031693
 10
7.9576115752
 20
17.2324161371
  0
LWPOLYLINE
  5
504
100
AcDbEntity
  8
0
100
AcDbPolyline
 62
7
  6
CONTINUOUS
 90
3
 70
0
 10
7.2744256067
 20
17.3229555368
 10
7.3076812084
 20
17.3143852397
 10
7.3421423753
 20
17.3134310479
  0
LWPOLYLINE
  5
505
100
AcDbEntity
  8
0
100
AcDbPolyline
 62
7
  6
CONTINUOUS
 90
4
 70
0
 10
7.3988435766
 20
17.8994630405
 10
7.3627372741
 20
17.9088458558
 10
7.3260019872
 20
17.9098619307
 10
7.2896388126
 20
17.9024836063
  0
LINE
  5
506
100
AcDbEntity
  8
0
100
AcDbLine
 62
7
  6
CONTINUOUS
 10
8.0648274
 20
17.8946801766
 11
8.0545996617
 21
17.8976432873
  0
LWPOLYLINE
  5
507
100
AcDbEntity
  8
0
100
AcDbPolyline
 62
7
  6
CONTINUOUS
 90
3
 70
0
 10
7.9526619177
 20
18.8468458588
 10
7.8269069126
 20
18.9057023473
 10
7.696518789
 20
18.9402666705
  0
LWPOLYLINE
  5
508
100
AcDbEntity
  8
0
100
AcDbPolyline
 62
7
  6
CONTINUOUS
 90
3
 70
0
 10
7.909384484
 20
18.9055419116
 10
8.0351397452
 20
18.8466853047
 10
8.1539188161
 20
18.7646332015
  0
LWPOLYLINE
  5
509
100
AcDbEntity
  8
0
100
AcDbPolyline
 62
7
  6
CONTINUOUS
 90
3
 70
0
 10
7.6838900663
 20
16.2689569642
 10
7.8134860273
 20
16.3092709922
 10
7.9379371472
 20
16.3736609467
  0
LINE
  5
50A
100
AcDbEntity
  8
0
100
AcDbLine
 62
7
  6
CONTINUOUS
 10
25.5015027372
 20
16.2183394381
 11
25.5184056476
 21
16.2185100734
  0
LINE
  5
50B
100
AcDbEntity
  8
AXIS
100
AcDbLine
 62
7
  6
CONTINUOUS
 10
25.4885680213
 20
16.2183646067
 11
7.6818833058
 21
16.2530130988
  0
LINE
  5
50C
100
AcDbEntity
  8
0
100
AcDbLine
 62
7
  6
CONTINUOUS
 10
7.6580443127
 20
16.253059485
 11
7.5755666028
 21
16.2532199713
  0
LINE
  5
50D
100
AcDbEntity
  8
AXIS
100
AcDbLine
 62
7
  6
CONTINUOUS
 10
7.5755666028
 20
16.2532199713
 11
7.5346755632
 21
16.2532995376
  0
LINE
  5
50E
100
AcDbEntity
  8
0
100
AcDbLine
 62
7
  6
CONTINUOUS
 10
25.5015027372
 20
16.2183394381
 11
25.583980447
 21
16.2181789519
  0
LINE
  5
50F
100
AcDbEntity
  8
AXIS
100
AcDbLine
 62
7
  6
CONTINUOUS
 10
25.583980447
 20
16.2181789519
 11
25.6248714866
 21
16.2180993855
  0
LINE
  5
510
100
AcDbEntity
  8
AXIS
100
AcDbLine
 62
7
  6
CONTINUOUS
 10
7.6622868962
 20
16.2534065956
 11
7.6818833142
 21
16.2530177878
  0
LWPOLYLINE
  5
511
100
AcDbEntity
  8
0
100
AcDbPolyline
 62
7
  6
CONTINUOUS
 90
10
 70
0
 10
7.4497805215
 20
16.6646148554
 10
7.4443911674
 20
16.6648327463
 10
7.429396171
 20
16.6691770048
 10
7.4157283648
 20
16.6787537955
 10
7.4043191878
 20
16.6929104741
 10
7.3959461507
 20
16.7106822941
 10
7.3911798635
 20
16.7308581411
 10
7.3903451403
 20
16.7520629986
 10
7.3934988749
 20
16.7728519686
 10
7.4004261676
 20
16.7918082082
  0
LWPOLYLINE
  5
512
100
AcDbEntity
  8
0
100
AcDbPolyline
 62
7
  6
CONTINUOUS
 90
9
 70
0
 10
7.3713999877
 20
16.3413651967
 10
7.4962617921
 20
16.3323071596
 10
7.6208723432
 20
16.346902334
 10
7.7429099665
 20
16.3848787803
 10
7.8601008428
 20
16.4455288911
 10
7.9702617964
 20
16.5277228472
 10
8.0713413724
 20
16.6299305991
 10
8.1614501394
 20
16.7502397932
 10
8.2388437275
 20
16.8862692157
  0
LWPOLYLINE
  5
513
100
AcDbEntity
  8
0
100
AcDbPolyline
 62
7
  6
CONTINUOUS
 90
3
 70
0
 10
7.3299718167
 20
17.0348594771
 10
7.3193816117
 20
17.0357728393
 10
7.3088123777
 20
17.0370660278
  0
LINE
  5
514
100
AcDbEntity
  8
0
100
AcDbLine
 62
7
  6
CONTINUOUS
 10
6.8992577651
 20
17.3992924669
 11
6.8783896187
 21
17.4021624455
  0
LINE
  5
515
100
AcDbEntity
  8
0
100
AcDbLine
 62
7
  6
CONTINUOUS
 10
6.9374515168
 20
17.8064423259
 11
6.9643202448
 21
17.8013179232
  0
LINE
  5
516
100
AcDbEntity
  8
0
100
AcDbLine
 62
7
  6
CONTINUOUS
 10
6.9377977105
 20
17.816943782
 11
6.9660523009
 21
17.8115550227
  0
LINE
  5
517
100
AcDbEntity
  8
0
100
AcDbLine
 62
7
  6
CONTINUOUS
 10
6.9801733124
 20
17.8220089725
 11
6.9519155362
 21
17.8277963809
  0
LWPOLYLINE
  5
518
100
AcDbEntity
  8
0
100
AcDbPolyline
 62
7
  6
CONTINUOUS
 90
4
 70
0
 10
6.9927734204
 20
17.8361482
 10
7.0228232761
 20
17.8296244971
 10
7.0517040704
 20
17.8160234808
 10
7.0781223544
 20
17.7960504874
  0
LINE
  5
519
100
AcDbEntity
  8
0
100
AcDbLine
 62
7
  6
CONTINUOUS
 10
7.1412198203
 20
17.8293633673
 11
7.1113138299
 21
17.8358951478
  0
LWPOLYLINE
  5
51A
100
AcDbEntity
  8
0
100
AcDbPolyline
 62
7
  6
CONTINUOUS
 90
4
 70
0
 10
7.1293113403
 20
17.835860128
 10
7.1592173307
 20
17.8293283475
 10
7.1880188704
 20
17.8157513576
 10
7.2144258198
 20
17.7957852662
  0
LINE
  5
51B
100
AcDbEntity
  8
0
100
AcDbLine
 62
7
  6
CONTINUOUS
 10
7.0596663863
 20
17.8294441252
 11
7.029690137
 21
17.8360385988
  0
LWPOLYLINE
  5
51C
100
AcDbEntity
  8
0
100
AcDbPolyline
 62
7
  6
CONTINUOUS
 90
4
 70
0
 10
7.0476876475
 20
17.836003579
 10
7.0776638968
 20
17.8294091054
 10
7.106391006
 20
17.8158164537
 10
7.1326437406
 20
17.7959443989
  0
LINE
  5
51D
100
AcDbEntity
  8
0
100
AcDbLine
 62
7
  6
CONTINUOUS
 10
7.0868764727
 20
17.8294084664
 11
7.057202684
 21
17.8359602122
  0
LWPOLYLINE
  5
51E
100
AcDbEntity
  8
0
100
AcDbPolyline
 62
7
  6
CONTINUOUS
 90
4
 70
0
 10
7.0752001944
 20
17.8359251924
 10
7.1048739832
 20
17.8293734466
 10
7.1335323052
 20
17.8158362344
 10
7.1599044336
 20
17.7958913547
  0
LINE
  5
51F
100
AcDbEntity
  8
0
100
AcDbLine
 62
7
  6
CONTINUOUS
 10
6.9754230573
 20
17.8361190957
 11
7.0052117226
 21
17.8295272584
  0
LINE
  5
520
100
AcDbEntity
  8
0
100
AcDbLine
 62
7
  6
CONTINUOUS
 10
7.1144441627
 20
17.8292496196
 11
7.0845421277
 21
17.8358991414
  0
LWPOLYLINE
  5
521
100
AcDbEntity
  8
0
100
AcDbPolyline
 62
7
  6
CONTINUOUS
 90
4
 70
0
 10
7.1025396382
 20
17.8358641216
 10
7.1324416731
 20
17.8292145998
 10
7.1609856317
 20
17.8156656201
 10
7.1871651267
 20
17.7958383105
  0
LINE
  5
522
100
AcDbEntity
  8
0
100
AcDbLine
 62
7
  6
CONTINUOUS
 10
7.032608267
 20
17.8294273578
 11
7.0030914464
 21
17.8360239615
  0
LWPOLYLINE
  5
523
100
AcDbEntity
  8
0
100
AcDbPolyline
 62
7
  6
CONTINUOUS
 90
4
 70
0
 10
7.0210889568
 20
17.8359889417
 10
7.0506057775
 20
17.829392338
 10
7.0791018891
 20
17.8158868484
 10
7.1053830475
 20
17.7959974432
  0
LINE
  5
524
100
AcDbEntity
  8
0
100
AcDbLine
 62
7
  6
CONTINUOUS
 10
7.1691061956
 20
17.8290947894
 11
7.1392821323
 21
17.8357705145
  0
LWPOLYLINE
  5
525
100
AcDbEntity
  8
0
100
AcDbPolyline
 62
7
  6
CONTINUOUS
 90
4
 70
0
 10
7.5940552288
 20
18.271065788
 10
7.5862198314
 20
18.272845018
 10
7.5787274799
 20
18.2764837456
 10
7.5718071271
 20
18.2818707778
  0
LWPOLYLINE
  5
526
100
AcDbEntity
  8
0
100
AcDbPolyline
 62
7
  6
CONTINUOUS
 90
9
 70
0
 10
7.6580443127
 20
16.253059485
 10
7.7768072454
 20
16.262776175
 10
7.8939495653
 20
16.2922815535
 10
8.0077724226
 20
16.3412208102
 10
8.1165621837
 20
16.408945559
 10
8.2186409502
 20
16.4944880353
 10
8.3124281576
 20
16.5965715086
 10
8.3964876605
 20
16.7136465101
 10
8.4695545737
 20
16.8439345557
  0
LWPOLYLINE
  5
527
100
AcDbEntity
  8
AXIS
100
AcDbPolyline
 62
7
  6
CONTINUOUS
 90
8
 70
0
 10
7.6818833142
 20
16.2530177878
 10
7.7951911923
 20
16.2619663537
 10
7.9316208094
 20
16.2976791955
 10
8.0630199038
 20
16.3599327608
 10
8.1867135688
 20
16.4474597467
 10
8.3001837579
 20
16.558478356
 10
8.4011205455
 20
16.6907285701
 10
8.4874691496
 20
16.841518156
  0
LINE
  5
528
100
AcDbEntity
  8
0
100
AcDbLine
 62
7
  6
CONTINUOUS
 10
7.6749321807
 20
16.2532297875
 11
7.6580443127
 21
16.253059485
  0
LINE
  5
529
100
AcDbEntity
  8
0
100
AcDbLine
 62
7
  6
CONTINUOUS
 10
7.5346755632
 20
16.2532995376
 11
7.551563397
 21
16.2534698393
  0
LINE
  5
52A
100
AcDbEntity
  8
0
100
AcDbLine
 62
7
  6
CONTINUOUS
 10
7.5755666073
 20
16.2532221397
 11
7.5924543331
 21
16.2533902707
  0
LWPOLYLINE
  5
52B
100
AcDbEntity
  8
0
100
AcDbPolyline
 62
7
  6
CONTINUOUS
 90
9
 70
0
 10
7.4767919698
 20
16.6775146554
 10
7.4679057086
 20
16.6778384031
 10
7.4543899413
 20
16.6838934711
 10
7.4426609046
 20
16.6949940317
 10
7.4336752714
 20
16.7102344933
 10
7.4281609962
 20
16.728383301
 10
7.4265702571
 20
16.7479358774
 10
7.4290333506
 20
16.7673635091
 10
7.4352490055
 20
16.7848228407
  0
LINE
  5
52C
100
AcDbEntity
  8
0
100
AcDbLine
 62
7
  6
CONTINUOUS
 10
7.0479274095
 20
17.3687369577
 11
7.037184034
 21
17.3692918685
  0
LINE
  5
52D
100
AcDbEntity
  8
0
100
AcDbLine
 62
7
  6
CONTINUOUS
 10
7.1024487956
 20
17.3686308692
 11
7.0916954614
 21
17.3691856764
  0
LINE
  5
52E
100
AcDbEntity
  8
0
100
AcDbLine
 62
7
  6
CONTINUOUS
 10
7.1569701818
 20
17.3685247808
 11
7.1462404949
 21
17.3690799787
  0
LINE
  5
52F
100
AcDbEntity
  8
0
100
AcDbLine
 62
7
  6
CONTINUOUS
 10
6.9934060233
 20
17.3688430462
 11
6.9827151235
 21
17.369399693
  0
LINE
  5
530
100
AcDbEntity
  8
0
100
AcDbLine
 62
7
  6
CONTINUOUS
 10
6.9661453302
 20
17.3688960904
 11
6.9558158573
 21
17.3694673853
  0
LINE
  5
531
100
AcDbEntity
  8
0
100
AcDbLine
 62
7
  6
CONTINUOUS
 10
7.1297094887
 20
17.368577825
 11
7.119578641
 21
17.36914446
  0
LINE
  5
532
100
AcDbEntity
  8
0
100
AcDbLine
 62
7
  6
CONTINUOUS
 10
7.0206667164
 20
17.3687900019
 11
7.0105739803
 21
17.3693571823
  0
LINE
  5
533
100
AcDbEntity
  8
0
100
AcDbLine
 62
7
  6
CONTINUOUS
 10
7.0751881025
 20
17.3686839135
 11
7.0650896547
 21
17.3692512316
  0
LWPOLYLINE
  5
534
100
AcDbEntity
  8
0
100
AcDbPolyline
 62
7
  6
CONTINUOUS
 90
6
 70
0
 10
6.9439240712
 20
17.3689393288
 10
6.9280655797
 20
17.3700053445
 10
6.8985881727
 20
17.3776310638
 10
6.8705567273
 20
17.3923697171
 10
6.84485699
 20
17.4137553725
 10
6.8406252243
 20
17.4188873933
  0
LWPOLYLINE
  5
535
100
AcDbEntity
  8
0
100
AcDbPolyline
 62
7
  6
CONTINUOUS
 90
5
 70
0
 10
6.9031703128
 20
17.4395708804
 10
6.8883536719
 20
17.4408949628
 10
6.8702518496
 20
17.4461388968
 10
6.8529684171
 20
17.455244175
 10
6.8369289501
 20
17.4679865952
  0
LINE
  5
536
100
AcDbEntity
  8
0
100
AcDbLine
 62
7
  6
CONTINUOUS
 10
6.7994763775
 20
17.8968520421
 11
6.9423292174
 21
17.881955048
  0
LWPOLYLINE
  5
537
100
AcDbEntity
  8
0
100
AcDbPolyline
 62
7
  6
CONTINUOUS
 90
3
 70
0
 10
6.9978134527
 20
17.8600051975
 10
6.9747574792
 20
17.8624462452
 10
6.9419035462
 20
17.8758378272
  0
LINE
  5
538
100
AcDbEntity
  8
0
100
AcDbLine
 62
7
  6
CONTINUOUS
 10
6.9396487689
 20
17.8426091109
 11
6.9744603808
 21
17.8386705374
  0
LWPOLYLINE
  5
539
100
AcDbEntity
  8
0
100
AcDbPolyline
 62
7
  6
CONTINUOUS
 90
4
 70
0
 10
6.9835016813
 20
17.8402842411
 10
6.9589984921
 20
17.8430592541
 10
6.9233410845
 20
17.857519662
 10
6.8906416281
 20
17.8819433052
  0
LWPOLYLINE
  5
53A
100
AcDbEntity
  8
0
100
AcDbPolyline
 62
7
  6
CONTINUOUS
 90
4
 70
0
 10
7.6010085847
 20
18.3970051531
 10
7.608843982
 20
18.3952259232
 10
7.6163363336
 20
18.3915871956
 10
7.6232566864
 20
18.3862001634
  0
LINE
  5
53B
100
AcDbEntity
  8
0
100
AcDbLine
 62
7
  6
CONTINUOUS
 10
7.7860158169
 20
18.9057819341
 11
7.6556276691
 21
18.9403462503
  0
LINE
  5
53C
100
AcDbEntity
  8
0
100
AcDbLine
 62
7
  6
CONTINUOUS
 10
7.7789966046
 20
18.9401061665
 11
7.909384484
 21
18.9055419116
  0
LINE
  5
53D
100
AcDbEntity
  8
0
100
AcDbLine
 62
7
  6
CONTINUOUS
 10
7.8072586144
 20
16.2687168687
 11
7.6749321807
 21
16.2532297875
  0
LWPOLYLINE
  5
53E
100
AcDbEntity
  8
0
100
AcDbPolyline
 62
7
  6
CONTINUOUS
 90
3
 70
0
 10
7.5924543331
 20
16.2533902707
 10
7.7247809805
 20
16.2688773711
 10
7.8543769224
 20
16.3091913664
  0
LINE
  5
53F
100
AcDbEntity
  8
0
100
AcDbLine
 62
7
  6
CONTINUOUS
 10
7.551563397
 20
16.2534698393
 11
7.6838900663
 21
16.2689569642
  0
LINE
  5
540
100
AcDbEntity
  8
0
100
AcDbLine
 62
7
  6
CONTINUOUS
 10
7.4621009514
 20
17.0346023784
 11
7.3299718167
 21
17.0348594771
  0
LINE
  5
541
100
AcDbEntity
  8
0
100
AcDbLine
 62
7
  6
CONTINUOUS
 10
7.9394912831
 20
17.0672364335
 11
7.9604466689
 21
17.0671956582
  0
LINE
  5
542
100
AcDbEntity
  8
0
100
AcDbLine
 62
7
  6
CONTINUOUS
 10
7.0420574776
 20
17.0792472193
 11
7.0630128634
 21
17.079206444
  0
LINE
  5
543
100
AcDbEntity
  8
0
100
AcDbLine
 62
7
  6
CONTINUOUS
 10
7.8908068481
 20
17.1528692286
 11
7.9476070578
 21
17.152758706
  0
LINE
  5
544
100
AcDbEntity
  8
0
100
AcDbLine
 62
7
  6
CONTINUOUS
 10
6.9933730426
 20
17.1648800143
 11
7.0501732523
 21
17.1647694917
  0
LINE
  5
545
100
AcDbEntity
  8
0
100
AcDbLine
 62
7
  6
CONTINUOUS
 10
7.894283526
 20
17.2158389111
 11
7.9510837357
 21
17.2157283885
  0
LINE
  5
546
100
AcDbEntity
  8
0
100
AcDbLine
 62
7
  6
CONTINUOUS
 10
6.9968497206
 20
17.2278496969
 11
7.0536499303
 21
17.2277391743
  0
LINE
  5
547
100
AcDbEntity
  8
0
100
AcDbLine
 62
7
  6
CONTINUOUS
 10
7.8148553107
 20
17.2697340321
 11
7.682726176
 21
17.2699911307
  0
LINE
  5
548
100
AcDbEntity
  8
0
100
AcDbLine
 62
7
  6
CONTINUOUS
 10
7.9399310362
 20
17.2932360057
 11
7.9606058891
 21
17.2931957763
  0
LINE
  5
549
100
AcDbEntity
  8
0
100
AcDbLine
 62
7
  6
CONTINUOUS
 10
7.8268374491
 20
17.2940314052
 11
7.6947083144
 21
17.2942885039
  0
LINE
  5
54A
100
AcDbEntity
  8
AXIS
100
AcDbLine
 62
7
  6
CONTINUOUS
 10
7.17396199
 20
17.3684917179
 11
7.1569701818
 21
17.3685247808
  0
LINE
  5
54B
100
AcDbEntity
  8
0
100
AcDbLine
 62
7
  6
CONTINUOUS
 10
6.9307357807
 20
17.3880653206
 11
6.9312860821
 21
17.3880642499
  0
LINE
  5
54C
100
AcDbEntity
  8
0
100
AcDbLine
 62
7
  6
CONTINUOUS
 10
6.930352482
 20
17.3991626442
 11
6.9030917889
 21
17.3992156884
  0
LINE
  5
54D
100
AcDbEntity
  8
0
100
AcDbLine
 62
7
  6
CONTINUOUS
 10
6.9954523971
 20
17.501706874
 11
6.9268986499
 21
17.5018402668
  0
LINE
  5
54E
100
AcDbEntity
  8
0
100
AcDbLine
 62
7
  6
CONTINUOUS
 10
7.0082300684
 20
17.5410521643
 11
6.9269752566
 21
17.541210271
  0
LINE
  5
54F
100
AcDbEntity
  8
AXIS_COSMETIC_THREADS
100
AcDbLine
 62
7
  6
CONTINUOUS
 10
7.0075215531
 20
17.5493145369
 11
6.8056166798
 21
17.5497074061
  0
LINE
  5
550
100
AcDbEntity
  8
AXIS_COSMETIC_THREADS
100
AcDbLine
 62
7
  6
CONTINUOUS
 10
7.0102062829
 20
17.5578232249
 11
6.837901404
 21
17.5581584982
  0
LINE
  5
551
100
AcDbEntity
  8
AXIS_COSMETIC_THREADS
100
AcDbLine
 62
7
  6
CONTINUOUS
 10
7.0211927641
 20
17.6042125881
 11
6.8316174019
 21
17.6045814665
  0
LINE
  5
552
100
AcDbEntity
  8
0
100
AcDbLine
 62
7
  6
CONTINUOUS
 10
7.0183512889
 20
17.6384012736
 11
6.9083842311
 21
17.638615249
  0
LINE
  5
553
100
AcDbEntity
  8
0
100
AcDbLine
 62
7
  6
CONTINUOUS
 10
7.0124487494
 20
17.6644429311
 11
7.0070905516
 21
17.6644533571
  0
LINE
  5
554
100
AcDbEntity
  8
0
100
AcDbLine
 62
7
  6
CONTINUOUS
 10
6.9897156495
 20
17.6778271465
 11
6.9084608378
 21
17.6779852532
  0
LINE
  5
555
100
AcDbEntity
  8
0
100
AcDbLine
 62
7
  6
CONTINUOUS
 10
6.9030917902
 20
17.3992163969
 11
6.8992577651
 21
17.3992924669
  0
LINE
  5
556
100
AcDbEntity
  8
0
100
AcDbLine
 62
7
  6
CONTINUOUS
 10
6.926024169
 20
17.3881737718
 11
6.9307357807
 21
17.3880653206
  0
LINE
  5
557
100
AcDbEntity
  8
0
100
AcDbLine
 62
7
  6
CONTINUOUS
 10
7.3165813616
 20
17.2953676491
 11
7.3533166484
 21
17.2943515743
  0
LWPOLYLINE
  5
558
100
AcDbEntity
  8
0
100
AcDbPolyline
 62
7
  6
CONTINUOUS
 90
9
 70
0
 10
8.0824148991
 20
17.9055557594
 10
8.0735286379
 20
17.9058795071
 10
8.0600128706
 20
17.9119345751
 10
8.0482838338
 20
17.9230351357
 10
8.0392982006
 20
17.9382755973
 10
8.0337839254
 20
17.956424405
 10
8.0321931863
 20
17.9759769814
 10
8.0346562799
 20
17.9954046131
 10
8.0408719348
 20
18.0128639447
  0
LWPOLYLINE
  5
559
100
AcDbEntity
  8
0
100
AcDbPolyline
 62
7
  6
CONTINUOUS
 90
10
 70
0
 10
8.0554034507
 20
17.8926559594
 10
8.0500140967
 20
17.8928738503
 10
8.0350191002
 20
17.8972181088
 10
8.021351294
 20
17.9067948995
 10
8.009942117
 20
17.9209515781
 10
8.0015690799
 20
17.9387233981
 10
7.9968027927
 20
17.9588992452
 10
7.9959680695
 20
17.9801041026
 10
7.9991218041
 20
18.0008930726
 10
8.0060490968
 20
18.0198493122
  0
LINE
  5
55A
100
AcDbEntity
  8
0
100
AcDbLine
 62
7
  6
CONTINUOUS
 10
6.9806860707
 20
17.8367426983
 11
6.9927734204
 21
17.8361482
  0
LINE
  5
55B
100
AcDbEntity
  8
0
100
AcDbLine
 62
7
  6
CONTINUOUS
 10
7.1113138299
 20
17.8358951478
 11
7.0989920257
 21
17.836512497
  0
LINE
  5
55C
100
AcDbEntity
  8
0
100
AcDbLine
 62
7
  6
CONTINUOUS
 10
7.1169895361
 20
17.8364774772
 11
7.1293113403
 21
17.835860128
  0
LINE
  5
55D
100
AcDbEntity
  8
0
100
AcDbLine
 62
7
  6
CONTINUOUS
 10
7.029690137
 20
17.8360385988
 11
7.0172099464
 21
17.8366716297
  0
LINE
  5
55E
100
AcDbEntity
  8
0
100
AcDbLine
 62
7
  6
CONTINUOUS
 10
7.0352074569
 20
17.8366366098
 11
7.0476876475
 21
17.836003579
  0
LINE
  5
55F
100
AcDbEntity
  8
0
100
AcDbLine
 62
7
  6
CONTINUOUS
 10
6.9626885603
 20
17.8367777181
 11
6.9754230573
 21
17.8361190957
  0
LINE
  5
560
100
AcDbEntity
  8
0
100
AcDbLine
 62
7
  6
CONTINUOUS
 10
7.057202684
 20
17.8359602122
 11
7.0444706395
 21
17.8366185854
  0
LINE
  5
561
100
AcDbEntity
  8
0
100
AcDbLine
 62
7
  6
CONTINUOUS
 10
7.06246815
 20
17.8365835656
 11
7.0752001944
 21
17.8359251924
  0
LINE
  5
562
100
AcDbEntity
  8
0
100
AcDbLine
 62
7
  6
CONTINUOUS
 10
7.0845421277
 20
17.8358991414
 11
7.0717313326
 21
17.8365655412
  0
LINE
  5
563
100
AcDbEntity
  8
0
100
AcDbLine
 62
7
  6
CONTINUOUS
 10
7.089728843
 20
17.8365305214
 11
7.1025396382
 21
17.8358641216
  0
LINE
  5
564
100
AcDbEntity
  8
0
100
AcDbLine
 62
7
  6
CONTINUOUS
 10
7.1392821323
 20
17.8357705145
 11
7.1262527187
 21
17.8364594527
  0
LWPOLYLINE
  5
565
100
AcDbEntity
  8
0
100
AcDbPolyline
 62
7
  6
CONTINUOUS
 90
5
 70
0
 10
7.1442502292
 20
17.8364244329
 10
7.1572796427
 20
17.8357354947
 10
7.1871037061
 20
17.8290597696
 10
7.2155075443
 20
17.8155592098
 10
7.2416865129
 20
17.795732222
  0
LWPOLYLINE
  5
566
100
AcDbEntity
  8
0
100
AcDbPolyline
 62
7
  6
CONTINUOUS
 90
5
 70
0
 10
7.1748723839
 20
17.8363648479
 10
7.1872970313
 20
17.8357058457
 10
7.2163248103
 20
17.8291143465
 10
7.2440793451
 20
17.8156351044
 10
7.2697172429
 20
17.7956776794
  0
LINE
  5
567
100
AcDbEntity
  8
0
100
AcDbLine
 62
7
  6
CONTINUOUS
 10
7.0030914464
 20
17.8360239615
 11
6.9899492534
 21
17.8367246739
  0
LINE
  5
568
100
AcDbEntity
  8
0
100
AcDbLine
 62
7
  6
CONTINUOUS
 10
7.0079467638
 20
17.8366896541
 11
7.0210889568
 21
17.8359889417
  0
LWPOLYLINE
  5
569
100
AcDbEntity
  8
0
100
AcDbPolyline
 62
7
  6
CONTINUOUS
 90
5
 70
0
 10
6.9534253777
 20
17.8367957425
 10
6.968051277
 20
17.8359307982
 10
6.9971219666
 20
17.8291353365
 10
7.0250215365
 20
17.8157227879
 10
7.0508616613
 20
17.7961035316
  0
LINE
  5
56A
100
AcDbEntity
  8
0
100
AcDbLine
 62
7
  6
CONTINUOUS
 10
25.5015027372
 20
16.2183394381
 11
25.4954579526
 21
16.2189134319
  0
LINE
  5
56B
100
AcDbEntity
  8
0
100
AcDbLine
 62
7
  6
CONTINUOUS
 10
6.9640049261
 20
18.2745460564
 11
6.8211520863
 21
18.2894430505
  0
LINE
  5
56C
100
AcDbEntity
  8
0
100
AcDbLine
 62
7
  6
CONTINUOUS
 10
7.086678045
 20
18.2743073574
 11
6.9438252051
 21
18.2892043515
  0
LWPOLYLINE
  5
56D
100
AcDbEntity
  8
0
100
AcDbPolyline
 62
7
  6
CONTINUOUS
 90
3
 70
0
 10
7.3924852656
 20
18.1671047101
 10
7.3819160315
 20
18.1683978986
 10
7.3713258266
 20
18.1693112608
  0
LWPOLYLINE
  5
56E
100
AcDbEntity
  8
0
100
AcDbPolyline
 62
7
  6
CONTINUOUS
 90
3
 70
0
 10
7.5246144003
 20
18.1668476114
 10
7.5140475705
 20
18.1681405492
 10
7.5034549613
 20
18.1690541621
  0
LWPOLYLINE
  5
56F
100
AcDbEntity
  8
0
100
AcDbPolyline
 62
7
  6
CONTINUOUS
 90
3
 70
0
 10
7.9295728375
 20
17.0585259948
 10
7.9391270081
 20
17.0594694666
 10
7.959738792
 20
17.066674326
  0
LWPOLYLINE
  5
570
100
AcDbEntity
  8
0
100
AcDbPolyline
 62
7
  6
CONTINUOUS
 90
3
 70
0
 10
7.0321390321
 20
17.0705367805
 10
7.0416932026
 20
17.0714802524
 10
7.0623049865
 20
17.0786851118
  0
LWPOLYLINE
  5
571
100
AcDbEntity
  8
0
100
AcDbPolyline
 62
7
  6
CONTINUOUS
 90
4
 70
0
 10
7.9394912831
 20
17.0672364335
 10
7.9510246677
 20
17.0683499612
 10
7.9656679579
 20
17.0731629395
 10
7.9792933896
 20
17.0815398295
  0
LWPOLYLINE
  5
572
100
AcDbEntity
  8
0
100
AcDbPolyline
 62
7
  6
CONTINUOUS
 90
4
 70
0
 10
7.0420574776
 20
17.0792472193
 10
7.0535908623
 20
17.0803607469
 10
7.0682341525
 20
17.0851737253
 10
7.0818595841
 20
17.0935506153
  0
LWPOLYLINE
  5
573
100
AcDbEntity
  8
0
100
AcDbPolyline
 62
7
  6
CONTINUOUS
 90
15
 70
0
 10
7.9399310362
 20
17.2932360057
 10
7.9283976516
 20
17.292122478
 10
7.9137543614
 20
17.2873094997
 10
7.8999949988
 20
17.2788502692
 10
7.8875881225
 20
17.2670328556
 10
7.8769562337
 20
17.2522596866
 10
7.8684613886
 20
17.2350338448
 10
7.862392869
 20
17.2159419356
 10
7.8589573311
 20
17.1956341111
 10
7.8582717679
 20
17.1748019299
 10
7.8603595256
 20
17.1541548069
 10
7.865149508
 20
17.1343958551
 10
7.872478598
 20
17.1161979419
 10
7.8820972123
 20
17.1001807755
 10
7.8936778004
 20
17.0868898012
  0
LINE
  5
574
100
AcDbEntity
  8
0
100
AcDbLine
 62
7
  6
CONTINUOUS
 10
6.9503464315
 20
17.3897529371
 11
6.9312860821
 21
17.3880642499
  0
LINE
  5
575
100
AcDbEntity
  8
0
100
AcDbLine
 62
7
  6
CONTINUOUS
 10
6.9307357807
 20
17.3880653206
 11
6.9503464315
 21
17.3897529371
  0
LINE
  5
576
100
AcDbEntity
  8
0
100
AcDbLine
 62
7
  6
CONTINUOUS
 10
25.5011985979
 20
18.9147303727
 11
25.5067502958
 21
18.9151847264
  0
LWPOLYLINE
  5
577
100
AcDbEntity
  8
0
100
AcDbPolyline
 62
7
  6
CONTINUOUS
 90
12
 70
0
 10
7.9300465646
 20
17.3019850583
 10
7.9172971001
 20
17.3010477228
 10
7.8966853162
 20
17.2938428634
 10
7.8780523292
 20
17.2801201714
 10
7.862185435
 20
17.2604449753
 10
7.8502847966
 20
17.2363136678
 10
7.8428227162
 20
17.2086839513
 10
7.8403691166
 20
17.1796486932
 10
7.843017923
 20
17.1504294448
 10
7.8505908481
 20
17.1231168522
 10
7.8627114636
 20
17.0990131778
 10
7.8786120519
 20
17.0796830741
  0
LINE
  5
578
100
AcDbEntity
  8
0
100
AcDbLine
 62
7
  6
CONTINUOUS
 10
7.1194447793
 20
17.3698503726
 11
7.1024487956
 21
17.3686308692
  0
LINE
  5
579
100
AcDbEntity
  8
0
100
AcDbLine
 62
7
  6
CONTINUOUS
 10
7.0844512851
 20
17.3686658891
 11
7.1014472688
 21
17.3698853924
  0
LINE
  5
57A
100
AcDbEntity
  8
0
100
AcDbLine
 62
7
  6
CONTINUOUS
 10
7.064904074
 20
17.3699536452
 11
7.0479274095
 21
17.3687369577
  0
LINE
  5
57B
100
AcDbEntity
  8
0
100
AcDbLine
 62
7
  6
CONTINUOUS
 10
7.029929899
 20
17.3687719775
 11
7.0469065636
 21
17.369988665
  0
LINE
  5
57C
100
AcDbEntity
  8
0
100
AcDbLine
 62
7
  6
CONTINUOUS
 10
7.1389726713
 20
17.3685598006
 11
7.1559274321
 21
17.3697732994
  0
LINE
  5
57D
100
AcDbEntity
  8
0
100
AcDbLine
 62
7
  6
CONTINUOUS
 10
7.010319111
 20
17.3700504901
 11
6.9934060233
 21
17.3688430462
  0
LINE
  5
57E
100
AcDbEntity
  8
0
100
AcDbLine
 62
7
  6
CONTINUOUS
 10
6.9754085128
 20
17.368878066
 11
6.9923216005
 21
17.3700855099
  0
LINE
  5
57F
100
AcDbEntity
  8
0
100
AcDbLine
 62
7
  6
CONTINUOUS
 10
6.9647271199
 20
17.3700906071
 11
6.9481478198
 21
17.3689311102
  0
LINE
  5
580
100
AcDbEntity
  8
0
100
AcDbLine
 62
7
  6
CONTINUOUS
 10
6.9823323411
 20
17.3700004874
 11
6.9661453302
 21
17.3688960904
  0
LINE
  5
581
100
AcDbEntity
  8
0
100
AcDbLine
 62
7
  6
CONTINUOUS
 10
7.1457474658
 20
17.3696616431
 11
7.1297094887
 21
17.368577825
  0
LINE
  5
582
100
AcDbEntity
  8
0
100
AcDbLine
 62
7
  6
CONTINUOUS
 10
7.1117119782
 20
17.3686128448
 11
7.1277499553
 21
17.3696966629
  0
LINE
  5
583
100
AcDbEntity
  8
0
100
AcDbLine
 62
7
  6
CONTINUOUS
 10
7.0911822928
 20
17.3697617225
 11
7.0751881025
 21
17.3686839135
  0
LINE
  5
584
100
AcDbEntity
  8
0
100
AcDbLine
 62
7
  6
CONTINUOUS
 10
7.0571905921
 20
17.3687189333
 11
7.0731847823
 21
17.3697967423
  0
LINE
  5
585
100
AcDbEntity
  8
0
100
AcDbLine
 62
7
  6
CONTINUOUS
 10
7.0366457247
 20
17.3698657314
 11
7.0206667164
 21
17.3687900019
  0
LINE
  5
586
100
AcDbEntity
  8
0
100
AcDbLine
 62
7
  6
CONTINUOUS
 10
7.0026692059
 20
17.3688250217
 11
7.0186482142
 21
17.3699007512
  0
LINE
  5
587
100
AcDbEntity
  8
0
100
AcDbLine
 62
7
  6
CONTINUOUS
 10
6.9521953171
 20
17.3907612757
 11
6.9237001327
 21
17.3888610499
  0
LINE
  5
588
100
AcDbEntity
  8
0
100
AcDbLine
 62
7
  6
CONTINUOUS
 10
6.9511435923
 20
17.4011696208
 11
6.9303113378
 21
17.3997803192
  0
LWPOLYLINE
  5
589
100
AcDbEntity
  8
0
100
AcDbPolyline
 62
7
  6
CONTINUOUS
 90
5
 70
0
 10
6.9519155362
 20
17.8277963809
 10
6.9233907374
 20
17.8268798752
 10
6.8951221836
 20
17.8191737183
 10
6.8682137929
 20
17.8048495815
 10
6.8571461782
 20
17.7956803423
  0
LWPOLYLINE
  5
58A
100
AcDbEntity
  8
0
100
AcDbPolyline
 62
7
  6
CONTINUOUS
 90
5
 70
0
 10
6.9038061443
 20
17.76634004
 10
6.9001482998
 20
17.7662694242
 10
6.8817560545
 20
17.7635015591
 10
6.8638989275
 20
17.7567805161
 10
6.8470166205
 20
17.7462717898
  0
LWPOLYLINE
  5
58B
100
AcDbEntity
  8
0
100
AcDbPolyline
 62
7
  6
CONTINUOUS
 90
5
 70
0
 10
7.1748782105
 20
17.8360195898
 10
7.1906352339
 20
17.8362855026
 10
7.2197359432
 20
17.829677443
 10
7.247560213
 20
17.816164333
 10
7.2732625204
 20
17.796156769
  0
LINE
  5
58C
100
AcDbEntity
  8
0
100
AcDbLine
 62
7
  6
CONTINUOUS
 10
6.9311453613
 20
17.8066421877
 11
6.9038846682
 21
17.806695232
  0
LINE
  5
58D
100
AcDbEntity
  8
0
100
AcDbLine
 62
7
  6
CONTINUOUS
 10
7.8566917546
 20
17.8347533732
 11
7.7245626199
 21
17.8350104719
  0
LINE
  5
58E
100
AcDbEntity
  8
AXIS
100
AcDbLine
 62
7
  6
CONTINUOUS
 10
7.1748723839
 20
17.8363648479
 11
7.1541805608
 21
17.8364051103
  0
LINE
  5
58F
100
AcDbEntity
  8
0
100
AcDbLine
 62
7
  6
CONTINUOUS
 10
7.8475144541
 20
17.861257297
 11
7.7153853193
 21
17.8615143957
  0
LINE
  5
590
100
AcDbEntity
  8
0
100
AcDbLine
 62
7
  6
CONTINUOUS
 10
7.0012494736
 20
17.8818404002
 11
6.9423292174
 21
17.881955048
  0
LINE
  5
591
100
AcDbEntity
  8
0
100
AcDbLine
 62
7
  6
CONTINUOUS
 10
7.0031942006
 20
17.8926563142
 11
6.958514135
 21
17.8927432533
  0
LINE
  5
592
100
AcDbEntity
  8
0
100
AcDbLine
 62
7
  6
CONTINUOUS
 10
7.147925715
 20
18.0565699432
 11
7.0394086474
 21
18.0567810972
  0
LINE
  5
593
100
AcDbEntity
  8
0
100
AcDbLine
 62
7
  6
CONTINUOUS
 10
7.1490206582
 20
18.0813796412
 11
7.0407784093
 21
18.0815902605
  0
LINE
  5
594
100
AcDbEntity
  8
0
100
AcDbLine
 62
7
  6
CONTINUOUS
 10
7.5246144003
 20
18.1668476114
 11
7.3924852656
 21
18.1671047101
  0
LINE
  5
595
100
AcDbEntity
  8
0
100
AcDbLine
 62
7
  6
CONTINUOUS
 10
7.5034549613
 20
18.1690541621
 11
7.3713258266
 21
18.1693112608
  0
LINE
  5
596
100
AcDbEntity
  8
0
100
AcDbLine
 62
7
  6
CONTINUOUS
 10
7.6051363943
 20
18.2210204597
 11
7.6260917801
 21
18.2209796845
  0
LINE
  5
597
100
AcDbEntity
  8
0
100
AcDbLine
 62
7
  6
CONTINUOUS
 10
7.0970709538
 20
18.2602950043
 11
6.9788200818
 21
18.2605250985
  0
LINE
  5
598
100
AcDbEntity
  8
0
100
AcDbLine
 62
7
  6
CONTINUOUS
 10
7.086678045
 20
18.2743073574
 11
6.9640049261
 21
18.2745460564
  0
LINE
  5
599
100
AcDbEntity
  8
0
100
AcDbLine
 62
7
  6
CONTINUOUS
 10
6.9438252051
 20
18.2892043515
 11
6.8211520863
 21
18.2894430505
  0
LINE
  5
59A
100
AcDbEntity
  8
0
100
AcDbLine
 62
7
  6
CONTINUOUS
 10
7.5564519593
 20
18.3066532548
 11
7.613252169
 21
18.3065427322
  0
LINE
  5
59B
100
AcDbEntity
  8
0
100
AcDbLine
 62
7
  6
CONTINUOUS
 10
7.6556276691
 20
18.9403462503
 11
7.5399231218
 21
18.950144826
  0
LINE
  5
59C
100
AcDbEntity
  8
0
100
AcDbLine
 62
7
  6
CONTINUOUS
 10
7.696518789
 20
18.9402666705
 11
7.580814157
 21
18.9500630912
  0
LINE
  5
59D
100
AcDbEntity
  8
0
100
AcDbLine
 62
7
  6
CONTINUOUS
 10
7.6632918713
 20
18.9499047734
 11
7.7789966046
 21
18.9401061665
  0
LINE
  5
59E
100
AcDbEntity
  8
0
100
AcDbLine
 62
7
  6
CONTINUOUS
 10
7.7949951109
 20
18.9373957664
 11
7.6632918713
 21
18.9499047734
  0
LWPOLYLINE
  5
59F
100
AcDbEntity
  8
0
100
AcDbPolyline
 62
7
  6
CONTINUOUS
 90
5
 70
0
 10
7.4497805215
 20
16.6646148554
 10
7.4622505224
 20
16.6672933493
 10
7.4734362781
 20
16.6740356506
 10
7.4833219326
 20
16.6842845775
 10
7.4916194653
 20
16.6977230381
  0
LINE
  5
5A0
100
AcDbEntity
  8
0
100
AcDbLine
 62
7
  6
CONTINUOUS
 10
6.9267979764
 20
17.3858013841
 11
6.9503464315
 21
17.3897529371
  0
LWPOLYLINE
  5
5A1
100
AcDbEntity
  8
0
100
AcDbPolyline
 62
7
  6
CONTINUOUS
 90
5
 70
0
 10
6.9269731179
 20
17.541210275
 10
6.9225398206
 20
17.5406463608
 10
6.9177838504
 20
17.5386286284
 10
6.9137558418
 20
17.5353025694
 10
6.9106940082
 20
17.5307998963
  0
LWPOLYLINE
  5
5A2
100
AcDbEntity
  8
0
100
AcDbPolyline
 62
7
  6
CONTINUOUS
 90
5
 70
0
 10
6.9084586991
 20
17.6779852571
 10
6.9040254018
 20
17.677421343
 10
6.8992694315
 20
17.6754036106
 10
6.895241423
 20
17.6720775516
 10
6.8921795894
 20
17.6675748784
  0
LWPOLYLINE
  5
5A3
100
AcDbEntity
  8
0
100
AcDbPolyline
 62
7
  6
CONTINUOUS
 90
14
 70
0
 10
7.0297133694
 20
17.2932801994
 10
7.0209750653
 20
17.2922074146
 10
7.0071333777
 20
17.2866009941
 10
6.9943421686
 20
17.2773497027
 10
6.9831223529
 20
17.2648422405
 10
6.973897743
 20
17.2495864236
 10
6.966997186
 20
17.2321610972
 10
6.962670243
 20
17.2132098054
 10
6.9610832553
 20
17.1934317658
 10
6.9623084951
 20
17.1735803282
 10
6.9662815042
 20
17.1545217771
 10
6.9729145451
 20
17.1367629363
 10
6.9819552616
 20
17.1211155531
 10
6.9930229667
 20
17.1082504536
  0
LWPOLYLINE
  5
5A4
100
AcDbEntity
  8
0
100
AcDbPolyline
 62
7
  6
CONTINUOUS
 90
3
 70
0
 10
6.9038846669
 20
17.8066945235
 10
6.8867644255
 20
17.8053424409
 10
6.8661506074
 20
17.799946413
  0
LINE
  5
5A5
100
AcDbEntity
  8
0
100
AcDbLine
 62
7
  6
CONTINUOUS
 10
6.9732009022
 20
17.8362340246
 11
6.9806860707
 21
17.8367426983
  0
LINE
  5
5A6
100
AcDbEntity
  8
0
100
AcDbLine
 62
7
  6
CONTINUOUS
 10
7.109590857
 20
17.8359814725
 11
7.1169895361
 21
17.8364774772
  0
LINE
  5
5A7
100
AcDbEntity
  8
0
100
AcDbLine
 62
7
  6
CONTINUOUS
 10
6.9311865055
 20
17.8060245127
 11
6.9374515168
 21
17.8064423259
  0
LINE
  5
5A8
100
AcDbEntity
  8
0
100
AcDbLine
 62
7
  6
CONTINUOUS
 10
7.0277171027
 20
17.8361386767
 11
7.0352074569
 21
17.8366366098
  0
LINE
  5
5A9
100
AcDbEntity
  8
0
100
AcDbLine
 62
7
  6
CONTINUOUS
 10
7.082049889
 20
17.8360287842
 11
7.089728843
 21
17.8365305214
  0
LINE
  5
5AA
100
AcDbEntity
  8
0
100
AcDbLine
 62
7
  6
CONTINUOUS
 10
7.0548247652
 20
17.8360831743
 11
7.06246815
 21
17.8365835656
  0
LINE
  5
5AB
100
AcDbEntity
  8
0
100
AcDbLine
 62
7
  6
CONTINUOUS
 10
7.1364378485
 20
17.8359209078
 11
7.1442502292
 21
17.8364244329
  0
LINE
  5
5AC
100
AcDbEntity
  8
0
100
AcDbLine
 62
7
  6
CONTINUOUS
 10
7.0000429644
 20
17.8361864998
 11
7.0079467638
 21
17.8366896541
  0
LWPOLYLINE
  5
5AD
100
AcDbEntity
  8
0
100
AcDbPolyline
 62
7
  6
CONTINUOUS
 90
5
 70
0
 10
6.9754209958
 20
18.3323634023
 10
6.9666907914
 20
18.3323045576
 10
6.9296933794
 20
18.3253724111
 10
6.8947176734
 20
18.3080257887
 10
6.8728733214
 20
18.2893424106
  0
LINE
  5
5AE
100
AcDbEntity
  8
0
100
AcDbLine
 62
7
  6
CONTINUOUS
 10
7.5599286372
 20
18.3696229374
 11
7.6167288469
 21
18.3695124148
  0
LINE
  5
5AF
100
AcDbEntity
  8
0
100
AcDbLine
 62
7
  6
CONTINUOUS
 10
7.6055761474
 20
18.4470200319
 11
7.6262510003
 21
18.4469798025
  0
LINE
  5
5B0
100
AcDbEntity
  8
AXIS
100
AcDbLine
 62
7
  6
CONTINUOUS
 10
25.4938155799
 20
18.915209895
 11
7.6871308644
 21
18.9498583871
  0
LINE
  5
5B1
100
AcDbEntity
  8
0
100
AcDbLine
 62
7
  6
CONTINUOUS
 10
7.6632918713
 20
18.9499047734
 11
7.5808141615
 21
18.9500652596
  0
LINE
  5
5B2
100
AcDbEntity
  8
AXIS
100
AcDbLine
 62
7
  6
CONTINUOUS
 10
7.5808141615
 20
18.9500652596
 11
7.5399231218
 21
18.950144826
  0
LINE
  5
5B3
100
AcDbEntity
  8
0
100
AcDbLine
 62
7
  6
CONTINUOUS
 10
25.5067502958
 20
18.9151847264
 11
25.5892280057
 21
18.9150242402
  0
LINE
  5
5B4
100
AcDbEntity
  8
AXIS
100
AcDbLine
 62
7
  6
CONTINUOUS
 10
25.5892280057
 20
18.9150242402
 11
25.6301190453
 21
18.9149446738
  0
LWPOLYLINE
  5
5B5
100
AcDbEntity
  8
0
100
AcDbPolyline
 62
7
  6
CONTINUOUS
 90
3
 70
0
 10
6.9876185681
 20
17.3768235463
 10
6.9580580847
 20
17.3697333249
 10
6.9439240712
 20
17.3689393288
  0
LWPOLYLINE
  5
5B6
100
AcDbEntity
  8
0
100
AcDbPolyline
 62
7
  6
CONTINUOUS
 90
5
 70
0
 10
8.0554034507
 20
17.8926559594
 10
8.0678734516
 20
17.8953344533
 10
8.0790592074
 20
17.9020767546
 10
8.0889448618
 20
17.9123256815
 10
8.0972423946
 20
17.9257641421
  0
LWPOLYLINE
  5
5B7
100
AcDbEntity
  8
0
100
AcDbPolyline
 62
7
  6
CONTINUOUS
 90
16
 70
0
 10
7.3533166484
 20
17.2943515743
 10
7.389679823
 20
17.3017298987
 10
7.4246785152
 20
17.3173013679
 10
7.4573582452
 20
17.3406412974
 10
7.4868275739
 20
17.371113035
 10
7.5122826958
 20
17.40788543
 10
7.5330292877
 20
17.4499554646
 10
7.5485014599
 20
17.4961756232
 10
7.5582771881
 20
17.5452851827
 10
7.5620898304
 20
17.5959446439
 10
7.5598353924
 20
17.6467721333
 10
7.5515753441
 20
17.6963814462
 10
7.537535148
 20
17.743418853
 10
7.5180974403
 20
17.7866023528
 10
7.4937887979
 20
17.8247584406
 10
7.4652781437
 20
17.8568365179
  0
LWPOLYLINE
  5
5B8
100
AcDbEntity
  8
0
100
AcDbPolyline
 62
7
  6
CONTINUOUS
 90
16
 70
0
 10
7.3421423753
 20
17.3134310479
 10
7.3762542262
 20
17.3203517201
 10
7.4090862284
 20
17.3349584789
 10
7.4397428216
 20
17.3568528917
 10
7.4673877736
 20
17.3854377361
 10
7.4912670021
 20
17.4199332923
 10
7.5107291443
 20
17.4593986117
 10
7.5252433239
 20
17.5027571835
 10
7.5344136322
 20
17.5488262999
 10
7.537989927
 20
17.5963493151
 10
7.5358746566
 20
17.6440299249
 10
7.5281255176
 20
17.69056754
 10
7.5149539015
 20
17.7346926812
 10
7.4967189894
 20
17.7752019665
 10
7.4739183592
 20
17.8109900143
 10
7.4471738795
 20
17.8410808252
  0
LINE
  5
5B9
100
AcDbEntity
  8
0
100
AcDbLine
 62
7
  6
CONTINUOUS
 10
6.9744603808
 20
17.8386705374
 11
6.9954424472
 21
17.8424154455
  0
LWPOLYLINE
  5
5BA
100
AcDbEntity
  8
0
100
AcDbPolyline
 62
7
  6
CONTINUOUS
 90
5
 70
0
 10
7.0152040791
 20
17.5520620894
 10
7.0144315753
 20
17.5519253078
 10
7.0136705881
 20
17.551517741
 10
7.0130022694
 20
17.5508700797
 10
7.0124670961
 20
17.5500238845
  0
LWPOLYLINE
  5
5BB
100
AcDbEntity
  8
0
100
AcDbPolyline
 62
7
  6
CONTINUOUS
 90
5
 70
0
 10
6.9269007886
 20
17.5018402629
 10
6.930393466
 20
17.5024383245
 10
6.933590273
 20
17.5041457626
 10
6.9363989086
 20
17.5068618885
 10
6.9386590272
 20
17.5104315815
  0
LWPOLYLINE
  5
5BC
100
AcDbEntity
  8
0
100
AcDbPolyline
 62
7
  6
CONTINUOUS
 90
5
 70
0
 10
6.9083863698
 20
17.6386152451
 10
6.9118790471
 20
17.6392133067
 10
6.9150758542
 20
17.6409207447
 10
6.9178844898
 20
17.6436368707
 10
6.9201446084
 20
17.6472065637
  0
LWPOLYLINE
  5
5BD
100
AcDbEntity
  8
0
100
AcDbPolyline
 62
7
  6
CONTINUOUS
 90
3
 70
0
 10
7.0070926903
 20
17.6644533532
 10
7.0105853677
 20
17.6650514148
 10
7.01200663
 20
17.6658105215
  0
LWPOLYLINE
  5
5BE
100
AcDbEntity
  8
0
100
AcDbPolyline
 62
7
  6
CONTINUOUS
 90
3
 70
0
 10
7.5952179487
 20
18.212310021
 10
7.6047721193
 20
18.2132534928
 10
7.6253839032
 20
18.2204583523
  0
LWPOLYLINE
  5
5BF
100
AcDbEntity
  8
0
100
AcDbPolyline
 62
7
  6
CONTINUOUS
 90
4
 70
0
 10
7.6051363943
 20
18.2210204597
 10
7.6166697789
 20
18.2221339874
 10
7.6313130691
 20
18.2269469657
 10
7.6449385008
 20
18.2353238557
  0
LWPOLYLINE
  5
5C0
100
AcDbEntity
  8
0
100
AcDbPolyline
 62
7
  6
CONTINUOUS
 90
15
 70
0
 10
7.6055761474
 20
18.4470200319
 10
7.5940427627
 20
18.4459065042
 10
7.5793994726
 20
18.4410935259
 10
7.56564011
 20
18.4326342954
 10
7.5532332337
 20
18.4208168818
 10
7.5426013449
 20
18.4060437128
 10
7.5341064998
 20
18.388817871
 10
7.5280379802
 20
18.3697259619
 10
7.5246024423
 20
18.3494181374
 10
7.5239168791
 20
18.3285859561
 10
7.5260046368
 20
18.3079388331
 10
7.5307946192
 20
18.2881798813
 10
7.5381237092
 20
18.2699819682
 10
7.5477423234
 20
18.2539648017
 10
7.5593229116
 20
18.2406738275
  0
LWPOLYLINE
  5
5C1
100
AcDbEntity
  8
0
100
AcDbPolyline
 62
7
  6
CONTINUOUS
 90
9
 70
0
 10
7.5399231218
 20
18.950144826
 10
7.4191478963
 20
18.9404849351
 10
7.2997779093
 20
18.9110502007
 10
7.1834506448
 20
18.8619864256
 10
7.0719700194
 20
18.7937290506
 10
6.9672250806
 20
18.7071327387
 10
6.8710395802
 20
18.6034989205
 10
6.7850444676
 20
18.4845073971
 10
6.7106141284
 20
18.3521080461
  0
LWPOLYLINE
  5
5C2
100
AcDbEntity
  8
0
100
AcDbPolyline
 62
7
  6
CONTINUOUS
 90
12
 70
0
 10
7.5956916758
 20
18.4557690846
 10
7.5829422113
 20
18.4548317491
 10
7.5623304274
 20
18.4476268896
 10
7.5436974404
 20
18.4339041977
 10
7.5278305462
 20
18.4142290016
 10
7.5159299078
 20
18.3900976941
 10
7.5084678274
 20
18.3624679776
 10
7.5060142278
 20
18.3334327194
 10
7.5086630342
 20
18.3042134711
 10
7.5162359593
 20
18.2769008785
 10
7.5283565748
 20
18.2527972041
 10
7.5442571631
 20
18.2334671003
  0
LINE
  5
5C3
100
AcDbEntity
  8
AXIS
100
AcDbLine
 62
7
  6
CONTINUOUS
 10
7.6871308444
 20
18.9498485606
 11
7.669765258
 21
18.9492899393
  0
LINE
  5
5C4
100
AcDbEntity
  8
AXIS
100
AcDbLine
 62
7
  6
CONTINUOUS
 10
25.5803603339
 20
18.9096942435
 11
25.4938155599
 21
18.9152000685
  0
LINE
  5
5C5
100
AcDbEntity
  8
0
100
AcDbLine
 62
7
  6
CONTINUOUS
 10
25.622440099
 20
18.9053886283
 11
25.5067502958
 21
18.9151847264
  0
LWPOLYLINE
  5
5C6
100
AcDbEntity
  8
0
100
AcDbPolyline
 62
7
  6
CONTINUOUS
 90
17
 70
0
 10
25.5892280012
 20
18.9150220685
 10
25.7049177023
 20
18.9052281599
 10
25.835306214
 20
18.8706666318
 10
25.9610618783
 20
18.8118128394
 10
26.0798421049
 20
18.7297631176
 10
26.1894342432
 20
18.6260458974
 10
26.2877967988
 20
18.5025932344
 10
26.3730974635
 20
18.3617048182
 10
26.4437472473
 20
18.2060051333
 10
26.4984300784
 20
18.0383945703
 10
26.5361273191
 20
17.8619953969
 10
26.5561367412
 20
17.6800935959
 10
26.5580856069
 20
17.4960776536
 10
26.5419376126
 20
17.313375439
 10
26.5079935649
 20
17.1353903486
 10
26.4568857772
 20
16.9654379078
 10
26.3895662908
 20
16.806684009
  0
LINE
  5
5C7
100
AcDbEntity
  8
0
100
AcDbLine
 62
7
  6
CONTINUOUS
 10
25.6301190453
 20
18.9149446738
 11
25.7458086622
 21
18.905148607
  0
LINE
  5
5C8
100
AcDbEntity
  8
0
100
AcDbLine
 62
7
  6
CONTINUOUS
 10
6.9923216005
 20
17.3700855099
 11
7.0206772419
 21
17.3778277316
  0
LINE
  5
5C9
100
AcDbEntity
  8
0
100
AcDbLine
 62
7
  6
CONTINUOUS
 10
7.0469065636
 20
17.369988665
 11
7.0750468974
 21
17.377660229
  0
LINE
  5
5CA
100
AcDbEntity
  8
0
100
AcDbLine
 62
7
  6
CONTINUOUS
 10
7.1014472688
 20
17.3698853924
 11
7.1293838682
 21
17.3774797992
  0
LWPOLYLINE
  5
5CB
100
AcDbEntity
  8
0
100
AcDbPolyline
 62
7
  6
CONTINUOUS
 90
7
 70
0
 10
7.1559274321
 20
17.3697732994
 10
7.1838094037
 20
17.3773352022
 10
7.2105346219
 20
17.3917469638
 10
7.2350256627
 20
17.4125173703
 10
7.2564576283
 20
17.438899727
 10
7.2743493179
 20
17.4703280764
 10
7.2879661066
 20
17.5055200264
  0
LINE
  5
5CC
100
AcDbEntity
  8
0
100
AcDbLine
 62
7
  6
CONTINUOUS
 10
6.9928827379
 20
17.3776657054
 11
6.9647271199
 21
17.3700906071
  0
LWPOLYLINE
  5
5CD
100
AcDbEntity
  8
0
100
AcDbPolyline
 62
7
  6
CONTINUOUS
 90
11
 70
0
 10
7.1277499553
 20
17.3696966629
 10
7.1561253418
 20
17.3772192248
 10
7.1832084199
 20
17.3917550305
 10
7.2077616394
 20
17.412566993
 10
7.229303925
 20
17.439110059
 10
7.2474307089
 20
17.4711081184
 10
7.2612028692
 20
17.5071989707
 10
7.2700753037
 20
17.5456693438
 10
7.2739855785
 20
17.5856312737
 10
7.2728221223
 20
17.6264929186
 10
7.2665296325
 20
17.6666470545
  0
LINE
  5
5CE
100
AcDbEntity
  8
0
100
AcDbLine
 62
7
  6
CONTINUOUS
 10
7.0731847823
 20
17.3697967423
 11
7.1014736717
 21
17.3772736503
  0
LINE
  5
5CF
100
AcDbEntity
  8
0
100
AcDbLine
 62
7
  6
CONTINUOUS
 10
7.0186482142
 20
17.3699007512
 11
7.0468662603
 21
17.3773457165
  0
LINE
  5
5D0
100
AcDbEntity
  8
AXIS_COSMETIC_THREADS
100
AcDbLine
 62
7
  6
CONTINUOUS
 10
6.8056166798
 20
17.5497074061
 11
6.837901404
 21
17.5581584982
  0
LINE
  5
5D1
100
AcDbEntity
  8
AXIS_COSMETIC_THREADS
100
AcDbLine
 62
7
  6
CONTINUOUS
 10
6.8316174019
 20
17.6045814665
 11
6.7993326777
 21
17.5961303745
  0
LINE
  5
5D2
100
AcDbEntity
  8
0
100
AcDbLine
 62
7
  6
CONTINUOUS
 10
6.9491502016
 20
18.3248797691
 11
6.9832893542
 21
18.3312734933
  0
LINE
  5
5D3
100
AcDbEntity
  8
0
100
AcDbLine
 62
7
  6
CONTINUOUS
 10
7.4692941206
 20
18.871349381
 11
7.3446835696
 21
18.8567542065
  0
LWPOLYLINE
  5
5D4
100
AcDbEntity
  8
0
100
AcDbPolyline
 62
7
  6
CONTINUOUS
 90
17
 70
0
 10
25.6301190453
 20
18.9149446738
 10
25.7626176778
 20
18.902760414
 10
25.8932976794
 20
18.8667012117
 10
26.0198339568
 20
18.8069937634
 10
26.1393576934
 20
18.7246783983
 10
26.2500557013
 20
18.6206922638
 10
26.3492397942
 20
18.4973220172
 10
26.4352207264
 20
18.3566385797
 10
26.5061573853
 20
18.201786271
 10
26.5609972447
 20
18.0353524807
 10
26.5987370208
 20
17.860722571
 10
26.6188450262
 20
17.6808432957
 10
26.6210041283
 20
17.499037217
 10
26.6052103556
 20
17.3185218179
 10
26.5717165053
 20
17.1423979814
 10
26.5211407289
 20
16.9740630828
 10
26.4541889356
 20
16.8161533112
  0
LINE
  5
5D5
100
AcDbEntity
  8
AXIS
100
AcDbLine
 62
7
  6
CONTINUOUS
 10
25.7133489879
 20
18.8799816535
 11
25.5803603339
 21
18.9096942435
  0
LWPOLYLINE
  5
5D6
100
AcDbEntity
  8
0
100
AcDbPolyline
 62
7
  6
CONTINUOUS
 90
16
 70
0
 10
25.7458086622
 20
18.905148607
 10
25.876197198
 20
18.8705870857
 10
26.0019528859
 20
18.8117332915
 10
26.1207331347
 20
18.7296835593
 10
26.2303252919
 20
18.6259663211
 10
26.3286878625
 20
18.5025136334
 10
26.4139885372
 20
18.361625187
 10
26.4846383252
 20
18.2059254682
 10
26.5393211541
 20
18.0383148695
 10
26.5770183864
 20
17.8619156589
 10
26.5970277933
 20
17.6800138215
 10
26.5989766374
 20
17.4959978517
 10
26.5828286127
 20
17.3132955881
 10
26.5488845579
 20
17.1353105915
 10
26.4977767806
 20
16.9653582409
 10
26.4304573304
 20
16.8066044427
  0
LINE
  5
5D7
100
AcDbEntity
  8
0
100
AcDbLine
 62
7
  6
CONTINUOUS
 10
26.2248114669
 20
16.662246479
 11
26.3070885809
 21
16.8068444953
  0
LWPOLYLINE
  5
5D8
100
AcDbEntity
  8
AXIS
100
AcDbPolyline
 62
7
  6
CONTINUOUS
 90
15
 70
0
 10
26.294153865
 20
16.8068696639
 10
26.3623450976
 20
16.9680492641
 10
26.4138283605
 20
17.140712143
 10
26.4476162494
 20
17.3215467752
 10
26.4630607415
 20
17.5070849085
 10
26.4598656248
 20
17.6937680812
 10
26.438092179
 20
17.878015871
 10
26.3981579999
 20
18.0562945641
 10
26.3408289906
 20
18.2251849287
 10
26.2672046723
 20
18.3814477933
 10
26.1786970957
 20
18.5220861707
 10
26.0770037601
 20
18.644402738
 10
25.9640750559
 20
18.746051569
 10
25.8420768584
 20
18.8250831265
 10
25.7133489879
 20
18.8799816535
  0
LWPOLYLINE
  5
5D9
100
AcDbEntity
  8
0
100
AcDbPolyline
 62
7
  6
CONTINUOUS
 90
16
 70
0
 10
26.3070885809
 20
16.8068444953
 10
26.3744080433
 20
16.9655983273
 10
26.4255158206
 20
17.1355506937
 10
26.4594598891
 20
17.3135358271
 10
26.4756078988
 20
17.4962381842
 10
26.4736590414
 20
17.680253914
 10
26.4536495925
 20
17.8621559871
 10
26.4159524166
 20
18.0385548777
 10
26.3612694871
 20
18.2061657495
 10
26.2906198379
 20
18.3618651441
 10
26.2053190006
 20
18.5027538478
 10
26.106956643
 20
18.6262062638
 10
25.9973642744
 20
18.729923702
 10
25.8785842863
 20
18.8119732577
 10
25.7528283649
 20
18.8708271688
 10
25.622440099
 20
18.9053886283
  0
LWPOLYLINE
  5
5DA
100
AcDbEntity
  8
0
100
AcDbPolyline
 62
7
  6
CONTINUOUS
 90
9
 70
0
 10
26.4541889356
 20
16.8161533112
 10
26.3797048531
 20
16.683665842
 10
26.2937370727
 20
16.56472335
 10
26.1976055865
 20
16.4611456043
 10
26.0929316228
 20
16.3745917823
 10
25.9815149071
 20
16.3063457619
 10
25.8652119896
 20
16.2572589929
 10
25.7457930477
 20
16.2277830729
 10
25.6248714866
 20
16.2180993855
  0
LWPOLYLINE
  5
5DB
100
AcDbEntity
  8
0
100
AcDbPolyline
 62
7
  6
CONTINUOUS
 90
7
 70
0
 10
26.3895662908
 20
16.806684009
 10
26.3072891404
 20
16.6620859371
 10
26.2115869937
 20
16.5343372806
 10
26.1042426005
 20
16.4258177551
 10
25.9872555838
 20
16.3385488741
 10
25.8628051903
 20
16.2741562917
 10
25.7332096955
 20
16.23383952
  0
LWPOLYLINE
  5
5DC
100
AcDbEntity
  8
0
100
AcDbPolyline
 62
7
  6
CONTINUOUS
 90
9
 70
0
 10
26.4304573304
 20
16.8066044427
 10
26.3481802337
 20
16.6620064529
 10
26.2524781436
 20
16.5342578427
 10
26.1451338165
 20
16.4257383427
 10
26.0281467783
 20
16.338469405
 10
25.9036963742
 20
16.2740767848
 10
25.7741008604
 20
16.2337599803
 10
25.6417743613
 20
16.21827002
 10
25.6248714866
 20
16.2180993855
  0
LWPOLYLINE
  5
5DD
100
AcDbEntity
  8
0
100
AcDbPolyline
 62
7
  6
CONTINUOUS
 90
10
 70
0
 10
1.6279867195
 20
9.0401151828
 10
1.6273004536
 20
9.0791379768
 10
1.6266131891
 20
9.1168198004
 10
1.6259277952
 20
9.1518974755
 10
1.625241389
 20
9.1834948546
 10
1.6245461126
 20
9.2109581759
 10
1.6238479072
 20
9.2331251496
 10
1.6231570692
 20
9.2490853245
 10
1.6224659857
 20
9.2586604983
 10
1.6219411636
 20
9.261501503
  0
LINE
  5
5DE
100
AcDbEntity
  8
0
100
AcDbLine
 62
7
  6
CONTINUOUS
 10
1.5751715088
 20
8.8363750254
 11
1.5751715088
 21
9.2438553404
  0
LINE
  5
5DF
100
AcDbEntity
  8
0
100
AcDbLine
 62
7
  6
CONTINUOUS
 10
1.6145415876
 20
9.254361309
 11
1.6145415876
 21
8.8258690567
  0
LWPOLYLINE
  5
5E0
100
AcDbEntity
  8
0
100
AcDbPolyline
 62
7
  6
CONTINUOUS
 90
10
 70
0
 10
1.791743688
 20
9.0792660644
 10
1.7940402759
 20
9.0009643014
 10
1.7951885698
 20
8.9631245901
 10
1.7963368638
 20
8.9278633081
 10
1.7974851578
 20
8.8963613621
 10
1.7986334517
 20
8.8696737581
 10
1.7997817457
 20
8.8486942689
 10
1.8009300397
 20
8.8341255015
 10
1.8020783336
 20
8.8264553667
 10
1.8027345016
 20
8.8252784687
  0
LWPOLYLINE
  5
5E1
100
AcDbEntity
  8
0
100
AcDbPolyline
 62
7
  6
CONTINUOUS
 90
9
 70
0
 10
1.7956806958
 20
9.0792660644
 10
1.7979772838
 20
9.0009643014
 10
1.7991255777
 20
8.9631245901
 10
1.8002738717
 20
8.9278633081
 10
1.8014221656
 20
8.8963613621
 10
1.8025704596
 20
8.8696737581
 10
1.8037187536
 20
8.8486942689
 10
1.8048670475
 20
8.8341255015
 10
1.8060153415
 20
8.8264553667
  0
LWPOLYLINE
  5
5E2
100
AcDbEntity
  8
0
100
AcDbPolyline
 62
7
  6
CONTINUOUS
 90
9
 70
0
 10
1.8201494383
 20
9.0804234936
 10
1.8190541254
 20
9.1198859468
 10
1.8179560779
 20
9.1570055335
 10
1.816868351
 20
9.1902493872
 10
1.8157781104
 20
9.2190408138
 10
1.8146918918
 20
9.2423536392
 10
1.8136037491
 20
9.2596290051
 10
1.8125136369
 20
9.2703140539
 10
1.8116824658
 20
9.2738008492
  0
LWPOLYLINE
  5
5E3
100
AcDbEntity
  8
0
100
AcDbPolyline
 62
7
  6
CONTINUOUS
 90
9
 70
0
 10
1.8876838931
 20
8.9997287783
 10
1.8887704043
 20
8.9605788486
 10
1.8898616064
 20
8.9236624579
 10
1.8909492297
 20
8.8903715033
 10
1.8920458112
 20
8.8613649205
 10
1.8931417611
 20
8.837830861
 10
1.8942271307
 20
8.8206055953
 10
1.8953186925
 20
8.80990886
 10
1.8961487421
 20
8.8064295166
  0
LWPOLYLINE
  5
5E4
100
AcDbEntity
  8
0
100
AcDbPolyline
 62
7
  6
CONTINUOUS
 90
10
 70
0
 10
1.6493046386
 20
9.0799281444
 10
1.6514686392
 20
8.9995368854
 10
1.6525671251
 20
8.9599754832
 10
1.6536558432
 20
8.9231864904
 10
1.6547419323
 20
8.8899939238
 10
1.6558451976
 20
8.8608875235
 10
1.6569547911
 20
8.8372054809
 10
1.6580537842
 20
8.8200034906
 10
1.6591401569
 20
8.8096355156
 10
1.6599282697
 20
8.8064295166
  0
LWPOLYLINE
  5
5E5
100
AcDbEntity
  8
0
100
AcDbPolyline
 62
7
  6
CONTINUOUS
 90
10
 70
0
 10
1.6886517828
 20
9.08077164
 10
1.6908348403
 20
8.9996794707
 10
1.6919374718
 20
8.959966085
 10
1.6930382249
 20
8.922788881
 10
1.6941242958
 20
8.8896424585
 10
1.6952088308
 20
8.8610422739
 10
1.6962962477
 20
8.8377394025
 10
1.697385616
 20
8.8204912027
 10
1.6984725522
 20
8.8098806662
 10
1.6992983484
 20
8.8064295166
  0
LWPOLYLINE
  5
5E6
100
AcDbEntity
  8
0
100
AcDbPolyline
 62
7
  6
CONTINUOUS
 90
10
 70
0
 10
1.7042145208
 20
8.9996158911
 10
1.7020351704
 20
9.0805717551
 10
1.7009418796
 20
9.1199564746
 10
1.6998578716
 20
9.1566162708
 10
1.6987736585
 20
9.1898038822
 10
1.6976727261
 20
9.2189240644
 10
1.696565349
 20
9.2426589576
 10
1.6954685014
 20
9.259950067
 10
1.6943807085
 20
9.2704633926
 10
1.6935722296
 20
9.2738008492
  0
LWPOLYLINE
  5
5E7
100
AcDbEntity
  8
0
100
AcDbPolyline
 62
7
  6
CONTINUOUS
 90
10
 70
0
 10
1.7280272977
 20
9.0805717551
 10
1.7302066481
 20
8.9996158911
 10
1.7312993409
 20
8.9602541087
 10
1.7323847614
 20
8.9235501174
 10
1.7334715591
 20
8.8902956664
 10
1.7345737262
 20
8.8611668581
 10
1.7356813097
 20
8.8374593743
 10
1.7367774848
 20
8.8202123389
 10
1.7378690641
 20
8.809707832
 10
1.7386684271
 20
8.8064295166
  0
LWPOLYLINE
  5
5E8
100
AcDbEntity
  8
0
100
AcDbPolyline
 62
7
  6
CONTINUOUS
 90
10
 70
0
 10
1.7435888695
 20
8.9994588897
 10
1.7414063763
 20
9.0805303089
 10
1.7403043952
 20
9.120221828
 10
1.7392039211
 20
9.1573933791
 10
1.7381176685
 20
9.1905505277
 10
1.7370325086
 20
9.2191716903
 10
1.7359455286
 20
9.2424699937
 10
1.7348562262
 20
9.2597239152
 10
1.7337689092
 20
9.2703443736
 10
1.7329423083
 20
9.2738008492
  0
LWPOLYLINE
  5
5E9
100
AcDbEntity
  8
0
100
AcDbPolyline
 62
7
  6
CONTINUOUS
 90
10
 70
0
 10
1.7673985035
 20
9.0805303089
 10
1.7695809968
 20
8.9994588897
 10
1.7706883946
 20
8.9595886081
 10
1.7717913754
 20
8.9223694641
 10
1.7728771855
 20
8.8892787992
 10
1.7739611891
 20
8.860749507
 10
1.7750552665
 20
8.8373870861
 10
1.7761470286
 20
8.8202191541
 10
1.777232756
 20
8.8097492172
 10
1.7780385059
 20
8.8064295166
  0
LWPOLYLINE
  5
5EA
100
AcDbEntity
  8
0
100
AcDbPolyline
 62
7
  6
CONTINUOUS
 90
10
 70
0
 10
1.7829538965
 20
8.9996446394
 10
1.7807717213
 20
9.080704372
 10
1.7796725849
 20
9.1202880876
 10
1.7785831408
 20
9.157097963
 10
1.7774970878
 20
9.1902832977
 10
1.7763937357
 20
9.2193841881
 10
1.7752841743
 20
9.2430563027
 10
1.7741853026
 20
9.2602467186
 10
1.7730995182
 20
9.2706011253
 10
1.7723123871
 20
9.2738008492
  0
LWPOLYLINE
  5
5EB
100
AcDbEntity
  8
0
100
AcDbPolyline
 62
7
  6
CONTINUOUS
 90
10
 70
0
 10
1.8067638486
 20
9.080704372
 10
1.8089460237
 20
8.9996446394
 10
1.8100358304
 20
8.9603828382
 10
1.8111228974
 20
8.9236155577
 10
1.8122104717
 20
8.8903313646
 10
1.813310959
 20
8.8612372079
 10
1.8144145382
 20
8.8375887285
 10
1.8155051834
 20
8.8203714592
 10
1.8165971584
 20
8.809786199
 10
1.8174085846
 20
8.8064295166
  0
LWPOLYLINE
  5
5EC
100
AcDbEntity
  8
0
100
AcDbPolyline
 62
7
  6
CONTINUOUS
 90
10
 70
0
 10
1.8461415656
 20
9.0804234936
 10
1.8483213175
 20
8.9994528889
 10
1.8494288803
 20
8.9595771029
 10
1.8505320038
 20
8.92235427
 10
1.8516177632
 20
8.8892668083
 10
1.8527082209
 20
8.8605848513
 10
1.8538090847
 20
8.8371330595
 10
1.854903497
 20
8.8200121021
 10
1.8559881892
 20
8.8096506328
 10
1.8567786634
 20
8.8064295166
  0
LWPOLYLINE
  5
5ED
100
AcDbEntity
  8
0
100
AcDbPolyline
 62
7
  6
CONTINUOUS
 90
10
 70
0
 10
1.8616917659
 20
8.9997287783
 10
1.8595104985
 20
9.0807551218
 10
1.8584060977
 20
9.1205210968
 10
1.8573084092
 20
9.1575790171
 10
1.8562226944
 20
9.1906994463
 10
1.8551200865
 20
9.2197149241
 10
1.8540114822
 20
9.2432945111
 10
1.8529137575
 20
9.2603942053
 10
1.8518305213
 20
9.2706593685
 10
1.8510525446
 20
9.2738008492
  0
LWPOLYLINE
  5
5EE
100
AcDbEntity
  8
0
100
AcDbPolyline
 62
7
  6
CONTINUOUS
 90
10
 70
0
 10
1.9010689015
 20
8.9994692937
 10
1.8988896167
 20
9.0804227257
 10
1.8977995357
 20
9.1197015602
 10
1.8967041712
 20
9.1567487972
 10
1.8956167181
 20
9.190014202
 10
1.8945245276
 20
9.2188901685
 10
1.8934366384
 20
9.2422674659
 10
1.8923503736
 20
9.2595454221
 10
1.8912598612
 20
9.2702736163
 10
1.8904226233
 20
9.2738008492
  0
LWPOLYLINE
  5
5EF
100
AcDbEntity
  8
0
100
AcDbPolyline
 62
7
  6
CONTINUOUS
 90
10
 70
0
 10
1.924881744
 20
9.0804227257
 10
1.9270610288
 20
8.9994692937
 10
1.9281681412
 20
8.9596085315
 10
1.9292708369
 20
8.9223969966
 10
1.9303567426
 20
8.8893004259
 10
1.931453204
 20
8.8604693958
 10
1.9325576082
 20
8.8369779673
 10
1.9336530605
 20
8.81989338
 10
1.9347365427
 20
8.8095983032
 10
1.9355188208
 20
8.8064295166
  0
LWPOLYLINE
  5
5F0
100
AcDbEntity
  8
0
100
AcDbPolyline
 62
7
  6
CONTINUOUS
 90
6
 70
0
 10
2.2050927687
 20
9.0401151829
 10
2.2051279751
 20
8.9823717232
 10
2.2056343717
 20
8.9252494594
 10
2.2076678629
 20
8.8694959327
 10
2.2125425182
 20
8.8163747342
 10
2.2209638851
 20
8.7689899406
  0
LWPOLYLINE
  5
5F1
100
AcDbEntity
  8
0
100
AcDbPolyline
 62
7
  6
CONTINUOUS
 90
11
 70
0
 10
2.2050927687
 20
8.6079548682
 10
2.2050984051
 20
8.589709822
 10
2.2051759318
 20
8.5721311414
 10
2.20545638
 20
8.5560205064
 10
2.2060274212
 20
8.5420159319
 10
2.2069278187
 20
8.5296952789
 10
2.2082312773
 20
8.5182322964
 10
2.2101085451
 20
8.5068292118
 10
2.212757414
 20
8.4952701699
 10
2.2163369773
 20
8.4837187518
 10
2.2209638851
 20
8.472392247
  0
LWPOLYLINE
  5
5F2
100
AcDbEntity
  8
0
100
AcDbPolyline
 62
7
  6
CONTINUOUS
 90
11
 70
0
 10
2.2050927687
 20
9.4722754976
 10
2.2050977894
 20
9.4545512087
 10
2.2051659705
 20
9.4375815682
 10
2.2054160056
 20
9.4218606878
 10
2.2059537403
 20
9.4076944582
 10
2.2068402117
 20
9.3949835389
 10
2.2081539412
 20
9.3831219286
 10
2.2100455721
 20
9.3714755051
 10
2.2126982836
 20
9.3598131819
 10
2.2162827896
 20
9.3481917713
 10
2.2209638851
 20
9.3367128764
  0
LINE
  5
5F3
100
AcDbEntity
  8
0
100
AcDbLine
 62
7
  6
CONTINUOUS
 10
1.9664489571
 20
9.2740521908
 11
1.9664489571
 21
8.806178175
  0
LINE
  5
5F4
100
AcDbEntity
  8
0
100
AcDbLine
 62
7
  6
CONTINUOUS
 10
1.9712232805
 20
9.2746399368
 11
1.9712232805
 21
8.805590429
  0
LINE
  5
5F5
100
AcDbEntity
  8
0
100
AcDbLine
 62
7
  6
CONTINUOUS
 10
2.1901820526
 20
8.7508507359
 11
2.1901820526
 21
9.3293796299
  0
LINE
  5
5F6
100
AcDbEntity
  8
0
100
AcDbLine
 62
7
  6
CONTINUOUS
 10
2.2050927687
 20
8.5410994349
 11
2.2050927687
 21
9.5391243324
  0
LINE
  5
5F7
100
AcDbEntity
  8
0
100
AcDbLine
 62
7
  6
CONTINUOUS
 10
2.2209638851
 20
9.6080285687
 11
2.2209638851
 21
9.6078381187
  0
LINE
  5
5F8
100
AcDbEntity
  8
0
100
AcDbLine
 62
7
  6
CONTINUOUS
 10
2.2209638851
 20
8.4722017971
 11
2.2209638851
 21
8.472392247
  0
LINE
  5
5F9
100
AcDbEntity
  8
0
100
AcDbLine
 62
7
  6
CONTINUOUS
 10
2.2209638851
 20
8.7435174894
 11
2.2209638851
 21
8.7689899406
  0
LINE
  5
5FA
100
AcDbEntity
  8
0
100
AcDbLine
 62
7
  6
CONTINUOUS
 10
2.2209638851
 20
9.3112404252
 11
2.2209638851
 21
9.3367128764
  0
LINE
  5
5FB
100
AcDbEntity
  8
0
100
AcDbLine
 62
7
  6
CONTINUOUS
 10
2.2818644222
 20
9.7015325056
 11
2.2818644222
 21
10.095233293
  0
LINE
  5
5FC
100
AcDbEntity
  8
0
100
AcDbLine
 62
7
  6
CONTINUOUS
 10
2.4117856821
 20
7.7704301437
 11
2.4117856821
 21
10.3098002221
  0
LINE
  5
5FD
100
AcDbEntity
  8
0
100
AcDbLine
 62
7
  6
CONTINUOUS
 10
2.4905258395
 20
7.6916899862
 11
2.4905258395
 21
10.3885403796
  0
LWPOLYLINE
  5
5FE
100
AcDbEntity
  8
0
100
AcDbPolyline
 62
7
  6
CONTINUOUS
 90
5
 70
0
 10
2.2059641391
 20
9.5370532775
 10
2.2054255824
 20
9.5230629936
 10
2.2051683089
 20
9.5072445028
 10
2.205097915
 20
9.4901097845
 10
2.2050927687
 20
9.4722754976
  0
LINE
  5
5FF
100
AcDbEntity
  8
0
100
AcDbLine
 62
7
  6
CONTINUOUS
 10
2.2068378245
 20
9.5495405909
 11
2.2059641391
 21
9.5370532775
  0
LWPOLYLINE
  5
600
100
AcDbEntity
  8
0
100
AcDbPolyline
 62
7
  6
CONTINUOUS
 90
6
 70
0
 10
2.2209638851
 20
9.3112404252
 10
2.2125421174
 20
9.263852561
 10
2.2076668799
 20
9.2107178356
 10
2.2056342152
 20
9.1549725178
 10
2.2051279792
 20
9.0978603483
 10
2.2050927687
 20
9.0401151829
  0
LINE
  5
601
100
AcDbEntity
  8
0
100
AcDbLine
 62
7
  6
CONTINUOUS
 10
1.6879074083
 20
8.8264471274
 11
1.6882450049
 21
8.8255520743
  0
LWPOLYLINE
  5
602
100
AcDbEntity
  8
0
100
AcDbPolyline
 62
7
  6
CONTINUOUS
 90
9
 70
0
 10
1.9098171781
 20
8.806178175
 10
1.9087444154
 20
8.8095983032
 10
1.9076609332
 20
8.81989338
 10
1.9065654809
 20
8.8369779673
 10
1.9054610767
 20
8.8604693958
 10
1.9043646154
 20
8.8893004259
 10
1.9032787096
 20
8.9223969966
 10
1.9021760139
 20
8.9596085315
 10
1.9010689015
 20
8.9994692937
  0
LWPOLYLINE
  5
603
100
AcDbEntity
  8
0
100
AcDbPolyline
 62
7
  6
CONTINUOUS
 90
9
 70
0
 10
1.7980140298
 20
9.2740521908
 10
1.7990916455
 20
9.2706011253
 10
1.8001774299
 20
9.2602467186
 10
1.8012763015
 20
9.2430563027
 10
1.802385863
 20
9.2193841881
 10
1.8034892151
 20
9.1902832977
 10
1.804575268
 20
9.157097963
 10
1.8056647122
 20
9.1202880876
 10
1.8067638486
 20
9.080704372
  0
LWPOLYLINE
  5
604
100
AcDbEntity
  8
0
100
AcDbPolyline
 62
7
  6
CONTINUOUS
 90
10
 70
0
 10
1.8310770206
 20
8.806178175
 10
1.8299960619
 20
8.8096506328
 10
1.8289113697
 20
8.8200121021
 10
1.8278169575
 20
8.8371330595
 10
1.8267160936
 20
8.8605848513
 10
1.8256256359
 20
8.8892668083
 10
1.8245398766
 20
8.92235427
 10
1.823436753
 20
8.9595771029
 10
1.8223291902
 20
8.9994528889
 10
1.8201494383
 20
9.0804234936
  0
LWPOLYLINE
  5
605
100
AcDbEntity
  8
0
100
AcDbPolyline
 62
7
  6
CONTINUOUS
 90
9
 70
0
 10
1.7129667844
 20
8.806178175
 10
1.7118769368
 20
8.809707832
 10
1.7107853576
 20
8.8202123389
 10
1.7096891825
 20
8.8374593743
 10
1.7085815989
 20
8.8611668581
 10
1.7074794319
 20
8.8902956664
 10
1.7063926341
 20
8.9235501174
 10
1.7053072136
 20
8.9602541087
 10
1.7042145208
 20
8.9996158911
  0
LWPOLYLINE
  5
606
100
AcDbEntity
  8
0
100
AcDbPolyline
 62
7
  6
CONTINUOUS
 90
9
 70
0
 10
1.7523368632
 20
8.806178175
 10
1.7512406287
 20
8.8097492172
 10
1.7501549013
 20
8.8202191541
 10
1.7490631392
 20
8.8373870861
 10
1.7479690618
 20
8.860749507
 10
1.7468850582
 20
8.8892787992
 10
1.7457992481
 20
8.9223694641
 10
1.7446962673
 20
8.9595886081
 10
1.7435888695
 20
8.9994588897
  0
LWPOLYLINE
  5
607
100
AcDbEntity
  8
0
100
AcDbPolyline
 62
7
  6
CONTINUOUS
 90
9
 70
0
 10
1.6799037936
 20
9.2740521908
 10
1.681001896
 20
9.2704689996
 10
1.6820876614
 20
9.25998692
 10
1.6831790248
 20
9.2428151922
 10
1.68427228
 20
9.2194644389
 10
1.685355934
 20
9.1909419923
 10
1.6864416348
 20
9.1578536073
 10
1.687544451
 20
9.120639598
 10
1.6886517828
 20
9.08077164
  0
LWPOLYLINE
  5
608
100
AcDbEntity
  8
0
100
AcDbPolyline
 62
7
  6
CONTINUOUS
 90
9
 70
0
 10
1.7192738723
 20
9.2740521908
 10
1.7203728357
 20
9.2704633926
 10
1.7214606287
 20
9.259950067
 10
1.7225574763
 20
9.2426589576
 10
1.7236648534
 20
9.2189240644
 10
1.7247657858
 20
9.1898038822
 10
1.7258499989
 20
9.1566162708
 10
1.7269340069
 20
9.1199564746
 10
1.7280272977
 20
9.0805717551
  0
LWPOLYLINE
  5
609
100
AcDbEntity
  8
0
100
AcDbPolyline
 62
7
  6
CONTINUOUS
 90
9
 70
0
 10
1.7917069419
 20
8.806178175
 10
1.7906050312
 20
8.809786199
 10
1.7895130561
 20
8.8203714592
 10
1.7884224109
 20
8.8375887285
 10
1.7873188317
 20
8.8612372079
 10
1.7862183445
 20
8.8903313646
 10
1.7851307701
 20
8.9236155577
 10
1.7840437031
 20
8.9603828382
 10
1.7829538965
 20
8.9996446394
  0
LWPOLYLINE
  5
60A
100
AcDbEntity
  8
0
100
AcDbPolyline
 62
7
  6
CONTINUOUS
 90
9
 70
0
 10
1.6735967057
 20
8.806178175
 10
1.672480425
 20
8.8098806662
 10
1.6713934887
 20
8.8204912027
 10
1.6703041204
 20
8.8377394025
 10
1.6692167035
 20
8.8610422739
 10
1.6681321685
 20
8.8896424585
 10
1.6670460976
 20
8.922788881
 10
1.6659453445
 20
8.959966085
 10
1.664842713
 20
8.9996794707
  0
LWPOLYLINE
  5
60B
100
AcDbEntity
  8
0
100
AcDbPolyline
 62
7
  6
CONTINUOUS
 90
9
 70
0
 10
1.7586439511
 20
9.2740521908
 10
1.7597610365
 20
9.2703443736
 10
1.7608483535
 20
9.2597239152
 10
1.7619376559
 20
9.2424699937
 10
1.7630246359
 20
9.2191716903
 10
1.7641097957
 20
9.1905505277
 10
1.7651960483
 20
9.1573933791
 10
1.7662965225
 20
9.120221828
 10
1.7673985035
 20
9.0805303089
  0
LWPOLYLINE
  5
60C
100
AcDbEntity
  8
0
100
AcDbPolyline
 62
7
  6
CONTINUOUS
 90
9
 70
0
 10
1.8704470994
 20
8.806178175
 10
1.8693265652
 20
8.80990886
 10
1.8682350035
 20
8.8206055953
 10
1.8671496338
 20
8.837830861
 10
1.8660536839
 20
8.8613649205
 10
1.8649571025
 20
8.8903715033
 10
1.8638694791
 20
8.9236624579
 10
1.862778277
 20
8.9605788486
 10
1.8616917659
 20
8.9997287783
  0
LWPOLYLINE
  5
60D
100
AcDbEntity
  8
0
100
AcDbPolyline
 62
7
  6
CONTINUOUS
 90
9
 70
0
 10
1.8373841085
 20
9.2740521908
 10
1.8385057642
 20
9.2703140539
 10
1.8395958764
 20
9.2596290051
 10
1.840684019
 20
9.2423536392
 10
1.8417702377
 20
9.2190408138
 10
1.8428604783
 20
9.1902493872
 10
1.8439482052
 20
9.1570055335
 10
1.8450462527
 20
9.1198859468
 10
1.8461415656
 20
9.0804234936
  0
LWPOLYLINE
  5
60E
100
AcDbEntity
  8
0
100
AcDbPolyline
 62
7
  6
CONTINUOUS
 90
9
 70
0
 10
1.916124266
 20
9.2740521908
 10
1.9172519885
 20
9.2702736163
 10
1.9183425008
 20
9.2595454221
 10
1.9194287657
 20
9.2422674659
 10
1.9205166549
 20
9.2188901685
 10
1.9216088454
 20
9.190014202
 10
1.9226962985
 20
9.1567487972
 10
1.923791663
 20
9.1197015602
 10
1.924881744
 20
9.0804227257
  0
LINE
  5
60F
100
AcDbEntity
  8
0
100
AcDbLine
 62
7
  6
CONTINUOUS
 10
1.8450573362
 20
8.8279234651
 11
1.8457253198
 21
8.8255520743
  0
LWPOLYLINE
  5
610
100
AcDbEntity
  8
0
100
AcDbPolyline
 62
7
  6
CONTINUOUS
 90
19
 70
0
 10
1.7439956519
 20
9.2546782915
 10
1.7446636355
 20
9.2523069006
 10
1.7458119294
 20
9.2426291835
 10
1.7469602234
 20
9.226169235
 10
1.7481085173
 20
9.203478302
 10
1.7492568113
 20
9.1753163079
 10
1.7504051053
 20
9.1426264031
 10
1.7515533992
 20
9.1065033786
 10
1.7527016932
 20
9.0681570011
 10
1.7538499872
 20
9.028871498
 10
1.7549982811
 20
8.989962548
 10
1.7561465751
 20
8.9527332189
 10
1.7572948691
 20
8.918430328
 10
1.758443163
 20
8.8882026854
 10
1.759591457
 20
8.8630626204
 10
1.7607397509
 20
8.8438520785
 10
1.7618880449
 20
8.8312144242
 10
1.7630363389
 20
8.8255728949
 10
1.7633644229
 20
8.8252784687
  0
LWPOLYLINE
  5
611
100
AcDbEntity
  8
0
100
AcDbPolyline
 62
7
  6
CONTINUOUS
 90
19
 70
0
 10
1.6258854156
 20
9.2546782915
 10
1.6265799508
 20
9.2521625847
 10
1.6277253126
 20
9.2423574209
 10
1.6288706743
 20
9.2258135777
 10
1.6300160361
 20
9.2030822932
 10
1.6311613978
 20
9.1749209702
 10
1.6323067596
 20
9.1422679397
 10
1.6334521213
 20
9.1062111954
 10
1.6345974831
 20
9.0679521424
 10
1.6357428448
 20
9.0287655663
 10
1.6368882066
 20
8.9899571576
 10
1.6380335683
 20
8.9528200064
 10
1.6391789301
 20
8.9185915167
 10
1.6403242919
 20
8.8884121765
 10
1.6414696536
 20
8.8632875565
 10
1.6426150154
 20
8.8440548052
 10
1.6437603771
 20
8.8313547547
 10
1.6449057389
 20
8.8256105689
 10
1.6452541866
 20
8.8252784687
  0
LINE
  5
612
100
AcDbEntity
  8
0
100
AcDbLine
 62
7
  6
CONTINUOUS
 10
1.6481052579
 20
8.8284967748
 11
1.6488749261
 21
8.8255520743
  0
LINE
  5
613
100
AcDbEntity
  8
0
100
AcDbLine
 62
7
  6
CONTINUOUS
 10
1.726783058
 20
8.8288759293
 11
1.7276150836
 21
8.8255520743
  0
LWPOLYLINE
  5
614
100
AcDbEntity
  8
0
100
AcDbPolyline
 62
7
  6
CONTINUOUS
 90
19
 70
0
 10
1.8621058881
 20
9.2546782915
 10
1.8629379137
 20
9.2513544364
 10
1.8640862076
 20
9.2406825341
 10
1.8652345016
 20
9.2232935942
 10
1.8663827956
 20
9.1997699754
 10
1.8675310895
 20
9.170899488
 10
1.8686793835
 20
9.1376490101
 10
1.8698276775
 20
9.1011321063
 10
1.8709759714
 20
9.0625717345
 10
1.8721242654
 20
9.0232592886
 10
1.8732725593
 20
8.9845113497
 10
1.8744208533
 20
8.9476255934
 10
1.8755691473
 20
8.9138373306
 10
1.8767174412
 20
8.8842781365
 10
1.8778657352
 20
8.8599379538
 10
1.8790140292
 20
8.8416319398
 10
1.8801623231
 20
8.8299731664
 10
1.8813106171
 20
8.8253520879
 10
1.8814746591
 20
8.8252784687
  0
LWPOLYLINE
  5
615
100
AcDbEntity
  8
0
100
AcDbPolyline
 62
7
  6
CONTINUOUS
 90
10
 70
0
 10
1.6542021509
 20
9.2738008492
 10
1.6550045939
 20
9.2705026058
 10
1.6560982653
 20
9.2599520753
 10
1.6571919578
 20
9.2427208115
 10
1.6582856573
 20
9.2193324184
 10
1.6593793214
 20
9.1904987575
 10
1.6604729936
 20
9.1570950849
 10
1.6615667286
 20
9.1201344494
 10
1.6626604816
 20
9.0807412675
 10
1.664842713
 20
8.9996794707
  0
LWPOLYLINE
  5
616
100
AcDbEntity
  8
0
100
AcDbPolyline
 62
7
  6
CONTINUOUS
 90
18
 70
0
 10
1.7046255731
 20
9.2546782915
 10
1.7056216407
 20
9.2502571994
 10
1.7067699347
 20
9.238598426
 10
1.7079182286
 20
9.220292412
 10
1.7090665226
 20
9.1959522293
 10
1.7102148166
 20
9.1663930351
 10
1.7113631105
 20
9.1326047723
 10
1.7125114045
 20
9.0957190161
 10
1.7136596984
 20
9.0569710772
 10
1.7148079924
 20
9.0176586313
 10
1.7159562864
 20
8.9790982595
 10
1.7171045803
 20
8.9425813556
 10
1.7182528743
 20
8.9093308778
 10
1.7194011683
 20
8.8804603904
 10
1.7205494622
 20
8.8569367716
 10
1.7216977562
 20
8.8395478316
 10
1.7228460502
 20
8.8288759293
 10
1.7239943441
 20
8.8252784687
  0
LINE
  5
617
100
AcDbEntity
  8
0
100
AcDbLine
 62
7
  6
CONTINUOUS
 10
1.884099331
 20
8.8299731664
 11
1.8850953986
 21
8.8255520743
  0
LINE
  5
618
100
AcDbEntity
  8
0
100
AcDbLine
 62
7
  6
CONTINUOUS
 10
1.7658250528
 20
8.8312144242
 11
1.7669851624
 21
8.8255520743
  0
LWPOLYLINE
  5
619
100
AcDbEntity
  8
0
100
AcDbPolyline
 62
7
  6
CONTINUOUS
 90
18
 70
0
 10
1.8227358093
 20
9.2546782915
 10
1.8238959189
 20
9.2490159416
 10
1.8250442129
 20
9.2363782873
 10
1.8261925068
 20
9.2171677453
 10
1.8273408008
 20
9.1920276803
 10
1.8284890948
 20
9.1618000377
 10
1.8296373887
 20
9.1274971468
 10
1.8307856827
 20
9.0902678178
 10
1.8319339767
 20
9.0513588678
 10
1.8330822706
 20
9.0120733646
 10
1.8342305646
 20
8.9737269872
 10
1.8353788586
 20
8.9376039627
 10
1.8365271525
 20
8.9049140579
 10
1.8376754465
 20
8.8767520638
 10
1.8388237404
 20
8.8540611307
 10
1.8399720344
 20
8.8376011823
 10
1.8411203284
 20
8.8279234651
 10
1.8421045803
 20
8.8252784687
  0
LWPOLYLINE
  5
61A
100
AcDbEntity
  8
0
100
AcDbPolyline
 62
7
  6
CONTINUOUS
 90
10
 70
0
 10
1.6342266269
 20
8.806178175
 10
1.63353227
 20
8.8104265613
 10
1.6328464686
 20
8.8214536157
 10
1.6321526354
 20
8.839141698
 10
1.6314513041
 20
8.8631110358
 10
1.6307533984
 20
8.8922700366
 10
1.6300658813
 20
8.9252674943
 10
1.6293762611
 20
8.9616060492
 10
1.6286798016
 20
9.0004692884
 10
1.6279867195
 20
9.0401151828
  0
LWPOLYLINE
  5
61B
100
AcDbEntity
  8
0
100
AcDbPolyline
 62
7
  6
CONTINUOUS
 90
18
 70
0
 10
1.6655222505
 20
9.2540225758
 10
1.6666676122
 20
9.2468304795
 10
1.667812974
 20
9.2327506621
 10
1.6689583357
 20
9.2122522608
 10
1.6701036975
 20
9.1860182792
 10
1.6712490592
 20
9.1549228294
 10
1.672394421
 20
9.120002007
 10
1.6735397827
 20
9.0824193681
 10
1.6746851445
 20
9.0434271605
 10
1.6758305063
 20
9.0043245983
 10
1.676975868
 20
8.9664145727
 10
1.6781212298
 20
8.9309602399
 10
1.6792665915
 20
8.8991429325
 10
1.6804119533
 20
8.8720227984
 10
1.681557315
 20
8.8505034759
 10
1.6827026768
 20
8.8353019857
 10
1.6838480385
 20
8.826924839
 10
1.6846242654
 20
8.8252784687
  0
LWPOLYLINE
  5
61C
100
AcDbEntity
  8
0
100
AcDbPolyline
 62
7
  6
CONTINUOUS
 90
8
 70
0
 10
1.7837056302
 20
9.2537749991
 10
1.7848539242
 20
9.2461048642
 10
1.7860022181
 20
9.2315360969
 10
1.7871505121
 20
9.2105566077
 10
1.7882988061
 20
9.1838690037
 10
1.7894471
 20
9.1523670577
 10
1.790595394
 20
9.1171057756
 10
1.791743688
 20
9.0792660644
  0
LWPOLYLINE
  5
61D
100
AcDbEntity
  8
0
100
AcDbPolyline
 62
7
  6
CONTINUOUS
 90
18
 70
0
 10
1.9019799084
 20
9.2531139392
 10
1.9031282024
 20
9.2444370399
 10
1.9042764963
 20
9.2289173637
 10
1.9054247903
 20
9.2070746677
 10
1.9065730843
 20
9.1796404676
 10
1.9077213782
 20
9.14753354
 10
1.9088696722
 20
9.1118291517
 10
1.9100179662
 20
9.0737230493
 10
1.9111662601
 20
9.0344914133
 10
1.9123145541
 20
8.9954481184
 10
1.9134628481
 20
8.9579007317
 10
1.914611142
 20
8.9231067222
 10
1.915759436
 20
8.8922313476
 10
1.9169077299
 20
8.8663086301
 10
1.9180560239
 20
8.8462067261
 10
1.9192043179
 20
8.8325988522
 10
1.9203526118
 20
8.8259407386
 10
1.9208447378
 20
8.8252784687
  0
LINE
  5
61E
100
AcDbEntity
  8
0
100
AcDbLine
 62
7
  6
CONTINUOUS
 10
2.688923707
 20
10.3590128205
 11
2.6883538901
 21
10.3698855756
  0
LINE
  5
61F
100
AcDbEntity
  8
0
100
AcDbLine
 62
7
  6
CONTINUOUS
 10
2.5495809576
 20
7.6916899862
 11
2.5495809576
 21
10.3885403796
  0
LINE
  5
620
100
AcDbEntity
  8
0
100
AcDbLine
 62
7
  6
CONTINUOUS
 10
2.6686958284
 20
10.3885403796
 11
2.6686958284
 21
7.6916899862
  0
LINE
  5
621
100
AcDbEntity
  8
0
100
AcDbLine
 62
7
  6
CONTINUOUS
 10
2.6883538901
 20
10.3698855756
 11
2.6883538901
 21
7.7103447902
  0
LINE
  5
622
100
AcDbEntity
  8
0
100
AcDbLine
 62
7
  6
CONTINUOUS
 10
2.688923707
 20
7.7212175451
 11
2.688923707
 21
10.3590128205
  0
LINE
  5
623
100
AcDbEntity
  8
AXIS
100
AcDbLine
 62
7
  6
CONTINUOUS
 10
2.7031242647
 20
7.691689986
 11
2.7031242647
 21
10.3885311748
  0
LINE
  5
624
100
AcDbEntity
  8
0
100
AcDbLine
 62
7
  6
CONTINUOUS
 10
2.6883538901
 20
7.7103447902
 11
2.688923707
 21
7.7212175452
  0
LWPOLYLINE
  5
625
100
AcDbEntity
  8
0
100
AcDbPolyline
 62
7
  6
CONTINUOUS
 90
11
 70
0
 10
2.2209638851
 20
8.7435174894
 10
2.2162564033
 20
8.7319641856
 10
2.2126521631
 20
8.7202428273
 10
2.2099954284
 20
8.7084933324
 10
2.2081131096
 20
8.6968037094
 10
2.2068166103
 20
8.6849800199
 10
2.2059491111
 20
8.6724477581
 10
2.2054231849
 20
8.6586498221
 10
2.2051713781
 20
8.6432754254
 10
2.2050984741
 20
8.6262555749
 10
2.2050927687
 20
8.6079548682
  0
LWPOLYLINE
  5
626
100
AcDbEntity
  8
0
100
AcDbPolyline
 62
7
  6
CONTINUOUS
 90
6
 70
0
 10
2.2209638851
 20
9.6078381187
 10
2.2162674952
 20
9.5963161102
 10
2.2126573057
 20
9.5845829374
 10
2.2100006584
 20
9.572841332
 10
2.2081276723
 20
9.5612333687
 10
2.2068378245
 20
9.5495405909
  0
LINE
  5
627
100
AcDbEntity
  8
0
100
AcDbLine
 62
7
  6
CONTINUOUS
 10
1.6402432303
 20
9.2738008492
 11
1.62938765
 21
9.2550204013
  0
LINE
  5
628
100
AcDbEntity
  8
0
100
AcDbLine
 62
7
  6
CONTINUOUS
 10
1.679613309
 20
9.2738008492
 11
1.6687577288
 21
9.2550204013
  0
LINE
  5
629
100
AcDbEntity
  8
0
100
AcDbLine
 62
7
  6
CONTINUOUS
 10
1.7189833878
 20
9.2738008492
 11
1.7081278075
 21
9.2550204013
  0
LINE
  5
62A
100
AcDbEntity
  8
0
100
AcDbLine
 62
7
  6
CONTINUOUS
 10
1.7583534665
 20
9.2738008492
 11
1.7474978863
 21
9.2550204013
  0
LINE
  5
62B
100
AcDbEntity
  8
0
100
AcDbLine
 62
7
  6
CONTINUOUS
 10
1.6490330892
 20
8.8252784687
 11
1.6599282697
 21
8.8064295166
  0
LINE
  5
62C
100
AcDbEntity
  8
0
100
AcDbLine
 62
7
  6
CONTINUOUS
 10
1.6488749261
 20
8.8255520743
 11
1.6490330892
 21
8.8252784687
  0
LINE
  5
62D
100
AcDbEntity
  8
0
100
AcDbLine
 62
7
  6
CONTINUOUS
 10
1.688403168
 20
8.8252784687
 11
1.6992983484
 21
8.8064295166
  0
LINE
  5
62E
100
AcDbEntity
  8
0
100
AcDbLine
 62
7
  6
CONTINUOUS
 10
1.6882450049
 20
8.8255520743
 11
1.688403168
 21
8.8252784687
  0
LINE
  5
62F
100
AcDbEntity
  8
0
100
AcDbLine
 62
7
  6
CONTINUOUS
 10
1.7277732467
 20
8.8252784687
 11
1.7386684271
 21
8.8064295166
  0
LINE
  5
630
100
AcDbEntity
  8
0
100
AcDbLine
 62
7
  6
CONTINUOUS
 10
1.7276150836
 20
8.8255520743
 11
1.7277732467
 21
8.8252784687
  0
LINE
  5
631
100
AcDbEntity
  8
0
100
AcDbLine
 62
7
  6
CONTINUOUS
 10
1.9242896197
 20
8.8259407386
 11
1.9244654773
 21
8.8255520743
  0
LWPOLYLINE
  5
632
100
AcDbEntity
  8
0
100
AcDbPolyline
 62
7
  6
CONTINUOUS
 90
18
 70
0
 10
1.9050967063
 20
9.2549518971
 10
1.9059169163
 20
9.2531139392
 10
1.9070652103
 20
9.2444370399
 10
1.9082135042
 20
9.2289173637
 10
1.9093617982
 20
9.2070746677
 10
1.9105100922
 20
9.1796404676
 10
1.9116583861
 20
9.14753354
 10
1.9128066801
 20
9.1118291517
 10
1.913954974
 20
9.0737230493
 10
1.915103268
 20
9.0344914133
 10
1.916251562
 20
8.9954481184
 10
1.9173998559
 20
8.9579007317
 10
1.9185481499
 20
8.9231067222
 10
1.9196964439
 20
8.8922313476
 10
1.9208447378
 20
8.8663086301
 10
1.9219930318
 20
8.8462067261
 10
1.9231413257
 20
8.8325988522
 10
1.9242896197
 20
8.8259407386
  0
LWPOLYLINE
  5
633
100
AcDbEntity
  8
0
100
AcDbPolyline
 62
7
  6
CONTINUOUS
 90
18
 70
0
 10
1.6688762339
 20
9.2549518971
 10
1.6697121395
 20
9.2530430286
 10
1.6708493438
 20
9.2443881838
 10
1.6719865481
 20
9.2290233359
 10
1.6731237524
 20
9.207453193
 10
1.6742609567
 20
9.1803862955
 10
1.675398161
 20
9.1487117427
 10
1.6765353653
 20
9.113469987
 10
1.6776725696
 20
9.0758186571
 10
1.6788097739
 20
9.0369945319
 10
1.6799469782
 20
8.9982729145
 10
1.6810841825
 20
8.9609257409
 10
1.6822213868
 20
8.9261797989
 10
1.6833585911
 20
8.8951764305
 10
1.6844957954
 20
8.8689340411
 10
1.6856329997
 20
8.8483146463
 10
1.686770204
 20
8.8339955562
 10
1.6879074083
 20
8.8264471274
  0
LINE
  5
634
100
AcDbEntity
  8
0
100
AcDbLine
 62
7
  6
CONTINUOUS
 10
1.6652554944
 20
9.2546782915
 11
1.6655222505
 21
9.2540225758
  0
LINE
  5
635
100
AcDbEntity
  8
0
100
AcDbLine
 62
7
  6
CONTINUOUS
 10
1.8060153415
 20
8.8264553667
 11
1.8063552411
 21
8.8255520743
  0
LINE
  5
636
100
AcDbEntity
  8
0
100
AcDbLine
 62
7
  6
CONTINUOUS
 10
1.7833657306
 20
9.2546782915
 11
1.7837056302
 21
9.2537749991
  0
LWPOLYLINE
  5
637
100
AcDbEntity
  8
0
100
AcDbPolyline
 62
7
  6
CONTINUOUS
 90
17
 70
0
 10
1.7476163914
 20
9.2549518971
 10
1.7486006433
 20
9.2523069006
 10
1.7497489373
 20
9.2426291835
 10
1.7508972313
 20
9.226169235
 10
1.7520455252
 20
9.203478302
 10
1.7531938192
 20
9.1753163079
 10
1.7543421131
 20
9.1426264031
 10
1.7554904071
 20
9.1065033786
 10
1.7566387011
 20
9.0681570011
 10
1.757786995
 20
9.028871498
 10
1.758935289
 20
8.989962548
 10
1.760083583
 20
8.9527332189
 10
1.7612318769
 20
8.918430328
 10
1.7623801709
 20
8.8882026854
 10
1.7635284649
 20
8.8630626204
 10
1.7646767588
 20
8.8438520785
 10
1.7658250528
 20
8.8312144242
  0
LINE
  5
638
100
AcDbEntity
  8
0
100
AcDbLine
 62
7
  6
CONTINUOUS
 10
1.9014759668
 20
9.2546782915
 11
1.9019799084
 21
9.2531139392
  0
LWPOLYLINE
  5
639
100
AcDbEntity
  8
0
100
AcDbPolyline
 62
7
  6
CONTINUOUS
 90
17
 70
0
 10
1.8657266276
 20
9.2549518971
 10
1.8668749215
 20
9.2513544364
 10
1.8680232155
 20
9.2406825341
 10
1.8691715095
 20
9.2232935942
 10
1.8703198034
 20
9.1997699754
 10
1.8714680974
 20
9.170899488
 10
1.8726163914
 20
9.1376490101
 10
1.8737646853
 20
9.1011321063
 10
1.8749129793
 20
9.0625717345
 10
1.8760612733
 20
9.0232592886
 10
1.8772095672
 20
8.9845113497
 10
1.8783578612
 20
8.9476255934
 10
1.8795061551
 20
8.9138373306
 10
1.8806544491
 20
8.8842781365
 10
1.8818027431
 20
8.8599379538
 10
1.882951037
 20
8.8416319398
 10
1.884099331
 20
8.8299731664
  0
LWPOLYLINE
  5
63A
100
AcDbEntity
  8
0
100
AcDbPolyline
 62
7
  6
CONTINUOUS
 90
10
 70
0
 10
1.8767541873
 20
9.2740521908
 10
1.8778226486
 20
9.2706593685
 10
1.8789058848
 20
9.2603942053
 10
1.8800036094
 20
9.2432945111
 10
1.8811122138
 20
9.2197149241
 10
1.8822148216
 20
9.1906994463
 10
1.8833005365
 20
9.1575790171
 10
1.884398225
 20
9.1205210968
 10
1.8855026258
 20
9.0807551218
 10
1.8876838931
 20
8.9997287783
  0
LINE
  5
63B
100
AcDbEntity
  8
0
100
AcDbLine
 62
7
  6
CONTINUOUS
 10
1.7977235453
 20
9.2738008492
 11
1.786867965
 21
9.2550204013
  0
LINE
  5
63C
100
AcDbEntity
  8
0
100
AcDbLine
 62
7
  6
CONTINUOUS
 10
1.837093624
 20
9.2738008492
 11
1.8262380438
 21
9.2550204013
  0
LINE
  5
63D
100
AcDbEntity
  8
0
100
AcDbLine
 62
7
  6
CONTINUOUS
 10
1.8764637027
 20
9.2738008492
 11
1.8656081225
 21
9.2550204013
  0
LINE
  5
63E
100
AcDbEntity
  8
0
100
AcDbLine
 62
7
  6
CONTINUOUS
 10
1.6345171115
 20
8.8064295166
 11
1.645372692
 21
8.8252099645
  0
LINE
  5
63F
100
AcDbEntity
  8
0
100
AcDbLine
 62
7
  6
CONTINUOUS
 10
1.9158337815
 20
9.2738008492
 11
1.9049782012
 21
9.2550204013
  0
LINE
  5
640
100
AcDbEntity
  8
0
100
AcDbLine
 62
7
  6
CONTINUOUS
 10
1.6738871902
 20
8.8064295166
 11
1.6847427707
 21
8.8252099645
  0
LINE
  5
641
100
AcDbEntity
  8
0
100
AcDbLine
 62
7
  6
CONTINUOUS
 10
1.713257269
 20
8.8064295166
 11
1.7241128494
 21
8.8252099645
  0
LINE
  5
642
100
AcDbEntity
  8
0
100
AcDbLine
 62
7
  6
CONTINUOUS
 10
1.7526273477
 20
8.8064295166
 11
1.7634829282
 21
8.8252099645
  0
LINE
  5
643
100
AcDbEntity
  8
0
100
AcDbLine
 62
7
  6
CONTINUOUS
 10
1.7919974264
 20
8.8064295166
 11
1.8028530069
 21
8.8252099645
  0
LINE
  5
644
100
AcDbEntity
  8
0
100
AcDbLine
 62
7
  6
CONTINUOUS
 10
1.8313675052
 20
8.8064295166
 11
1.8422230857
 21
8.8252099645
  0
LINE
  5
645
100
AcDbEntity
  8
0
100
AcDbLine
 62
7
  6
CONTINUOUS
 10
1.8707375839
 20
8.8064295166
 11
1.8815931644
 21
8.8252099645
  0
LINE
  5
646
100
AcDbEntity
  8
0
100
AcDbLine
 62
7
  6
CONTINUOUS
 10
1.9101076627
 20
8.8064295166
 11
1.9209632431
 21
8.8252099645
  0
LINE
  5
647
100
AcDbEntity
  8
0
100
AcDbLine
 62
7
  6
CONTINUOUS
 10
1.7671433254
 20
8.8252784687
 11
1.7780385059
 21
8.8064295166
  0
LINE
  5
648
100
AcDbEntity
  8
0
100
AcDbLine
 62
7
  6
CONTINUOUS
 10
1.7669851624
 20
8.8255520743
 11
1.7671433254
 21
8.8252784687
  0
LINE
  5
649
100
AcDbEntity
  8
0
100
AcDbLine
 62
7
  6
CONTINUOUS
 10
1.8065134042
 20
8.8252784687
 11
1.8174085846
 21
8.8064295166
  0
LINE
  5
64A
100
AcDbEntity
  8
0
100
AcDbLine
 62
7
  6
CONTINUOUS
 10
1.8063552411
 20
8.8255520743
 11
1.8065134042
 21
8.8252784687
  0
LINE
  5
64B
100
AcDbEntity
  8
0
100
AcDbLine
 62
7
  6
CONTINUOUS
 10
1.8458834829
 20
8.8252784687
 11
1.8567786634
 21
8.8064295166
  0
LINE
  5
64C
100
AcDbEntity
  8
0
100
AcDbLine
 62
7
  6
CONTINUOUS
 10
1.8457253198
 20
8.8255520743
 11
1.8458834829
 21
8.8252784687
  0
LINE
  5
64D
100
AcDbEntity
  8
0
100
AcDbLine
 62
7
  6
CONTINUOUS
 10
1.6257272528
 20
9.2549518971
 11
1.6219411636
 21
9.261501503
  0
LINE
  5
64E
100
AcDbEntity
  8
0
100
AcDbLine
 62
7
  6
CONTINUOUS
 10
1.6258854156
 20
9.2546782915
 11
1.6257272528
 21
9.2549518971
  0
LINE
  5
64F
100
AcDbEntity
  8
0
100
AcDbLine
 62
7
  6
CONTINUOUS
 10
1.8852535617
 20
8.8252784687
 11
1.8961487421
 21
8.8064295166
  0
LINE
  5
650
100
AcDbEntity
  8
0
100
AcDbLine
 62
7
  6
CONTINUOUS
 10
1.8850953986
 20
8.8255520743
 11
1.8852535617
 21
8.8252784687
  0
LINE
  5
651
100
AcDbEntity
  8
0
100
AcDbLine
 62
7
  6
CONTINUOUS
 10
1.6650973315
 20
9.2549518971
 11
1.6542021509
 21
9.2738008492
  0
LINE
  5
652
100
AcDbEntity
  8
0
100
AcDbLine
 62
7
  6
CONTINUOUS
 10
1.6652554944
 20
9.2546782915
 11
1.6650973315
 21
9.2549518971
  0
LINE
  5
653
100
AcDbEntity
  8
0
100
AcDbLine
 62
7
  6
CONTINUOUS
 10
1.9246236404
 20
8.8252784687
 11
1.9355188208
 21
8.8064295166
  0
LINE
  5
654
100
AcDbEntity
  8
0
100
AcDbLine
 62
7
  6
CONTINUOUS
 10
1.9244654773
 20
8.8255520743
 11
1.9246236404
 21
8.8252784687
  0
LINE
  5
655
100
AcDbEntity
  8
0
100
AcDbLine
 62
7
  6
CONTINUOUS
 10
1.7044674102
 20
9.2549518971
 11
1.6935722296
 21
9.2738008492
  0
LINE
  5
656
100
AcDbEntity
  8
0
100
AcDbLine
 62
7
  6
CONTINUOUS
 10
1.7046255731
 20
9.2546782915
 11
1.7044674102
 21
9.2549518971
  0
LINE
  5
657
100
AcDbEntity
  8
0
100
AcDbLine
 62
7
  6
CONTINUOUS
 10
1.743837489
 20
9.2549518971
 11
1.7329423083
 21
9.2738008492
  0
LINE
  5
658
100
AcDbEntity
  8
0
100
AcDbLine
 62
7
  6
CONTINUOUS
 10
1.7439956519
 20
9.2546782915
 11
1.743837489
 21
9.2549518971
  0
LINE
  5
659
100
AcDbEntity
  8
0
100
AcDbLine
 62
7
  6
CONTINUOUS
 10
1.7832075677
 20
9.2549518971
 11
1.7723123871
 21
9.2738008492
  0
LINE
  5
65A
100
AcDbEntity
  8
0
100
AcDbLine
 62
7
  6
CONTINUOUS
 10
1.7833657306
 20
9.2546782915
 11
1.7832075677
 21
9.2549518971
  0
LINE
  5
65B
100
AcDbEntity
  8
0
100
AcDbLine
 62
7
  6
CONTINUOUS
 10
1.8225776465
 20
9.2549518971
 11
1.8116824658
 21
9.2738008492
  0
LINE
  5
65C
100
AcDbEntity
  8
0
100
AcDbLine
 62
7
  6
CONTINUOUS
 10
1.8227358093
 20
9.2546782915
 11
1.8225776465
 21
9.2549518971
  0
LINE
  5
65D
100
AcDbEntity
  8
0
100
AcDbLine
 62
7
  6
CONTINUOUS
 10
1.8619477252
 20
9.2549518971
 11
1.8510525446
 21
9.2738008492
  0
LINE
  5
65E
100
AcDbEntity
  8
0
100
AcDbLine
 62
7
  6
CONTINUOUS
 10
1.8621058881
 20
9.2546782915
 11
1.8619477252
 21
9.2549518971
  0
LINE
  5
65F
100
AcDbEntity
  8
0
100
AcDbLine
 62
7
  6
CONTINUOUS
 10
1.9013178039
 20
9.2549518971
 11
1.8904226233
 21
9.2738008492
  0
LINE
  5
660
100
AcDbEntity
  8
0
100
AcDbLine
 62
7
  6
CONTINUOUS
 10
1.9014759668
 20
9.2546782915
 11
1.9013178039
 21
9.2549518971
  0
LWPOLYLINE
  5
661
100
AcDbEntity
  8
0
100
AcDbPolyline
 62
7
  6
CONTINUOUS
 90
9
 70
0
 10
1.7869864701
 20
9.2549518971
 10
1.7876426381
 20
9.2537749991
 10
1.788790932
 20
9.2461048642
 10
1.789939226
 20
9.2315360969
 10
1.79108752
 20
9.2105566077
 10
1.7922358139
 20
9.1838690037
 10
1.7933841079
 20
9.1523670577
 10
1.7945324019
 20
9.1171057756
 10
1.7956806958
 20
9.0792660644
  0
LINE
  5
662
100
AcDbEntity
  8
0
100
AcDbLine
 62
7
  6
CONTINUOUS
 10
1.6145415876
 20
9.2543671514
 11
1.6217468121
 21
9.2615723759
  0
LINE
  5
663
100
AcDbEntity
  8
0
100
AcDbLine
 62
7
  6
CONTINUOUS
 10
1.6402432303
 20
9.2738008492
 11
1.6405337148
 21
9.2740521908
  0
LINE
  5
664
100
AcDbEntity
  8
0
100
AcDbLine
 62
7
  6
CONTINUOUS
 10
1.679613309
 20
9.2738008492
 11
1.6799037936
 21
9.2740521908
  0
LINE
  5
665
100
AcDbEntity
  8
0
100
AcDbLine
 62
7
  6
CONTINUOUS
 10
1.6599282697
 20
8.8064295166
 11
1.6602187542
 21
8.806178175
  0
LINE
  5
666
100
AcDbEntity
  8
0
100
AcDbLine
 62
7
  6
CONTINUOUS
 10
1.6992983484
 20
8.8064295166
 11
1.699588833
 21
8.806178175
  0
LINE
  5
667
100
AcDbEntity
  8
0
100
AcDbLine
 62
7
  6
CONTINUOUS
 10
1.6145415876
 20
8.8258632144
 11
1.6342266269
 21
8.806178175
  0
LWPOLYLINE
  5
668
100
AcDbEntity
  8
0
100
AcDbPolyline
 62
7
  6
CONTINUOUS
 90
18
 70
0
 10
1.6295061551
 20
9.2549518971
 10
1.6299099891
 20
9.2545058702
 10
1.6310471934
 20
9.2484872866
 10
1.6321843977
 20
9.2356240519
 10
1.633321602
 20
9.2163387002
 10
1.6344588063
 20
9.1912647211
 10
1.6355960106
 20
9.1612257498
 10
1.6367332149
 20
9.1272085128
 10
1.6378704192
 20
9.0903304157
 10
1.6390076235
 20
9.0518028379
 10
1.6401448278
 20
9.0128913415
 10
1.6412820321
 20
8.9748740996
 10
1.6424192364
 20
8.9389999108
 10
1.6435564407
 20
8.9064471778
 10
1.644693645
 20
8.8782851999
 10
1.6458308493
 20
8.8554390477
 10
1.6469680536
 20
8.8386591764
 10
1.6481052579
 20
8.8284967748
  0
LINE
  5
669
100
AcDbEntity
  8
0
100
AcDbLine
 62
7
  6
CONTINUOUS
 10
1.7189833878
 20
9.2738008492
 11
1.7192738723
 21
9.2740521908
  0
LINE
  5
66A
100
AcDbEntity
  8
0
100
AcDbLine
 62
7
  6
CONTINUOUS
 10
1.7583534665
 20
9.2738008492
 11
1.7586439511
 21
9.2740521908
  0
LINE
  5
66B
100
AcDbEntity
  8
0
100
AcDbLine
 62
7
  6
CONTINUOUS
 10
1.7977235453
 20
9.2738008492
 11
1.7980140298
 21
9.2740521908
  0
LINE
  5
66C
100
AcDbEntity
  8
0
100
AcDbLine
 62
7
  6
CONTINUOUS
 10
1.837093624
 20
9.2738008492
 11
1.8373841085
 21
9.2740521908
  0
LINE
  5
66D
100
AcDbEntity
  8
0
100
AcDbLine
 62
7
  6
CONTINUOUS
 10
1.8764637027
 20
9.2738008492
 11
1.8767541873
 21
9.2740521908
  0
LINE
  5
66E
100
AcDbEntity
  8
0
100
AcDbLine
 62
7
  6
CONTINUOUS
 10
1.9158337815
 20
9.2738008492
 11
1.916124266
 21
9.2740521908
  0
LINE
  5
66F
100
AcDbEntity
  8
0
100
AcDbLine
 62
7
  6
CONTINUOUS
 10
1.6342266269
 20
8.806178175
 11
1.6345171115
 21
8.8064295166
  0
LINE
  5
670
100
AcDbEntity
  8
0
100
AcDbLine
 62
7
  6
CONTINUOUS
 10
1.6738871902
 20
8.8064295166
 11
1.6735967057
 21
8.806178175
  0
LINE
  5
671
100
AcDbEntity
  8
0
100
AcDbLine
 62
7
  6
CONTINUOUS
 10
1.713257269
 20
8.8064295166
 11
1.7129667844
 21
8.806178175
  0
LINE
  5
672
100
AcDbEntity
  8
0
100
AcDbLine
 62
7
  6
CONTINUOUS
 10
1.7526273477
 20
8.8064295166
 11
1.7523368632
 21
8.806178175
  0
LINE
  5
673
100
AcDbEntity
  8
0
100
AcDbLine
 62
7
  6
CONTINUOUS
 10
1.7919974264
 20
8.8064295166
 11
1.7917069419
 21
8.806178175
  0
LINE
  5
674
100
AcDbEntity
  8
0
100
AcDbLine
 62
7
  6
CONTINUOUS
 10
1.8313675052
 20
8.8064295166
 11
1.8310770206
 21
8.806178175
  0
LINE
  5
675
100
AcDbEntity
  8
0
100
AcDbLine
 62
7
  6
CONTINUOUS
 10
1.8707375839
 20
8.8064295166
 11
1.8704470994
 21
8.806178175
  0
LINE
  5
676
100
AcDbEntity
  8
0
100
AcDbLine
 62
7
  6
CONTINUOUS
 10
1.9101076627
 20
8.8064295166
 11
1.9098171781
 21
8.806178175
  0
LINE
  5
677
100
AcDbEntity
  8
0
100
AcDbLine
 62
7
  6
CONTINUOUS
 10
1.7386684271
 20
8.8064295166
 11
1.7389589117
 21
8.806178175
  0
LINE
  5
678
100
AcDbEntity
  8
0
100
AcDbLine
 62
7
  6
CONTINUOUS
 10
1.7780385059
 20
8.8064295166
 11
1.7783289904
 21
8.806178175
  0
LINE
  5
679
100
AcDbEntity
  8
0
100
AcDbLine
 62
7
  6
CONTINUOUS
 10
1.8174085846
 20
8.8064295166
 11
1.8176990692
 21
8.806178175
  0
LINE
  5
67A
100
AcDbEntity
  8
0
100
AcDbLine
 62
7
  6
CONTINUOUS
 10
1.8567786634
 20
8.8064295166
 11
1.8570691479
 21
8.806178175
  0
LINE
  5
67B
100
AcDbEntity
  8
0
100
AcDbLine
 62
7
  6
CONTINUOUS
 10
1.8961487421
 20
8.8064295166
 11
1.8964392267
 21
8.806178175
  0
LINE
  5
67C
100
AcDbEntity
  8
0
100
AcDbLine
 62
7
  6
CONTINUOUS
 10
1.9355188208
 20
8.8064295166
 11
1.9358093054
 21
8.806178175
  0
LINE
  5
67D
100
AcDbEntity
  8
0
100
AcDbLine
 62
7
  6
CONTINUOUS
 10
1.6539116663
 20
9.2740521908
 11
1.6542021509
 21
9.2738008492
  0
LINE
  5
67E
100
AcDbEntity
  8
0
100
AcDbLine
 62
7
  6
CONTINUOUS
 10
1.6935722296
 20
9.2738008492
 11
1.693281745
 21
9.2740521908
  0
LINE
  5
67F
100
AcDbEntity
  8
0
100
AcDbLine
 62
7
  6
CONTINUOUS
 10
1.7329423083
 20
9.2738008492
 11
1.7326518238
 21
9.2740521908
  0
LINE
  5
680
100
AcDbEntity
  8
0
100
AcDbLine
 62
7
  6
CONTINUOUS
 10
1.7723123871
 20
9.2738008492
 11
1.7720219025
 21
9.2740521908
  0
LINE
  5
681
100
AcDbEntity
  8
0
100
AcDbLine
 62
7
  6
CONTINUOUS
 10
1.8116824658
 20
9.2738008492
 11
1.8113919813
 21
9.2740521908
  0
LINE
  5
682
100
AcDbEntity
  8
0
100
AcDbLine
 62
7
  6
CONTINUOUS
 10
1.8510525446
 20
9.2738008492
 11
1.85076206
 21
9.2740521908
  0
LINE
  5
683
100
AcDbEntity
  8
0
100
AcDbLine
 62
7
  6
CONTINUOUS
 10
1.8904226233
 20
9.2738008492
 11
1.8901321387
 21
9.2740521908
  0
LWPOLYLINE
  5
684
100
AcDbEntity
  8
0
100
AcDbPolyline
 62
7
  6
CONTINUOUS
 90
18
 70
0
 10
1.8263565488
 20
9.2549518971
 10
1.8266846328
 20
9.2546574708
 10
1.8278329268
 20
9.2490159416
 10
1.8289812208
 20
9.2363782873
 10
1.8301295147
 20
9.2171677453
 10
1.8312778087
 20
9.1920276803
 10
1.8324261026
 20
9.1618000377
 10
1.8335743966
 20
9.1274971468
 10
1.8347226906
 20
9.0902678178
 10
1.8358709845
 20
9.0513588678
 10
1.8370192785
 20
9.0120733646
 10
1.8381675725
 20
8.9737269872
 10
1.8393158664
 20
8.9376039627
 10
1.8404641604
 20
8.9049140579
 10
1.8416124544
 20
8.8767520638
 10
1.8427607483
 20
8.8540611307
 10
1.8439090423
 20
8.8376011823
 10
1.8450573362
 20
8.8279234651
  0
LWPOLYLINE
  5
685
100
AcDbEntity
  8
0
100
AcDbPolyline
 62
7
  6
CONTINUOUS
 90
10
 70
0
 10
1.6405337148
 20
9.2740521908
 10
1.6406910543
 20
9.273978443
 10
1.641778624
 20
9.2694502355
 10
1.6428532438
 20
9.25820579
 10
1.6439264333
 20
9.2405899161
 10
1.6450125755
 20
9.216790968
 10
1.6460947132
 20
9.1878126996
 10
1.6471637232
 20
9.1548675242
 10
1.6482326234
 20
9.1185942576
 10
1.6493046386
 20
9.0799281444
  0
LINE
  5
686
100
AcDbEntity
  8
0
100
AcDbLine
 62
7
  6
CONTINUOUS
 10
1.6219411636
 20
9.261501503
 11
1.6217468121
 21
9.2615723759
  0
LWPOLYLINE
  5
687
100
AcDbEntity
  8
0
100
AcDbPolyline
 62
7
  6
CONTINUOUS
 90
18
 70
0
 10
1.7082463126
 20
9.2549518971
 10
1.7084103546
 20
9.2548782779
 10
1.7095586486
 20
9.2502571994
 10
1.7107069425
 20
9.238598426
 10
1.7118552365
 20
9.220292412
 10
1.7130035305
 20
9.1959522293
 10
1.7141518244
 20
9.1663930351
 10
1.7153001184
 20
9.1326047723
 10
1.7164484124
 20
9.0957190161
 10
1.7175967063
 20
9.0569710772
 10
1.7187450003
 20
9.0176586313
 10
1.7198932943
 20
8.9790982595
 10
1.7210415882
 20
8.9425813556
 10
1.7221898822
 20
8.9093308778
 10
1.7233381761
 20
8.8804603904
 10
1.7244864701
 20
8.8569367716
 10
1.7256347641
 20
8.8395478316
 10
1.726783058
 20
8.8288759293
  0
LINE
  5
688
100
AcDbEntity
  8
0
100
AcDbLine
 62
7
  6
CONTINUOUS
 10
1.9712232805
 20
8.805590429
 11
2.1901820526
 21
8.7508507359
  0
LINE
  5
689
100
AcDbEntity
  8
0
100
AcDbLine
 62
7
  6
CONTINUOUS
 10
1.9664489571
 20
8.806178175
 11
1.9712232805
 21
8.805590429
  0
LINE
  5
68A
100
AcDbEntity
  8
0
100
AcDbLine
 62
7
  6
CONTINUOUS
 10
2.4905258395
 20
7.6916899862
 11
2.6686958284
 21
7.6916899862
  0
LINE
  5
68B
100
AcDbEntity
  8
AXIS
100
AcDbLine
 62
7
  6
CONTINUOUS
 10
2.7031242647
 20
7.691689986
 11
28.4196596978
 21
7.691689986
  0
LINE
  5
68C
100
AcDbEntity
  8
0
100
AcDbLine
 62
7
  6
CONTINUOUS
 10
28.4383401027
 20
7.691689986
 11
28.6165100915
 21
7.691689986
  0
LINE
  5
68D
100
AcDbEntity
  8
0
100
AcDbLine
 62
7
  6
CONTINUOUS
 10
2.4117856821
 20
8.4722017971
 11
2.2209638851
 21
8.4722017971
  0
LINE
  5
68E
100
AcDbEntity
  8
0
100
AcDbLine
 62
7
  6
CONTINUOUS
 10
2.4117856821
 20
8.472392247
 11
2.2209638851
 21
8.472392247
  0
LINE
  5
68F
100
AcDbEntity
  8
0
100
AcDbLine
 62
7
  6
CONTINUOUS
 10
2.4117856821
 20
8.7435174894
 11
2.2209638851
 21
8.7435174894
  0
LINE
  5
690
100
AcDbEntity
  8
0
100
AcDbLine
 62
7
  6
CONTINUOUS
 10
2.4117856821
 20
8.7689899406
 11
2.2209638851
 21
8.7689899406
  0
LINE
  5
691
100
AcDbEntity
  8
AXIS
100
AcDbLine
 62
7
  6
CONTINUOUS
 10
1.9664489571
 20
8.806178175
 11
1.9358093054
 21
8.806178175
  0
LINE
  5
692
100
AcDbEntity
  8
AXIS
100
AcDbLine
 62
7
  6
CONTINUOUS
 10
1.9098171781
 20
8.806178175
 11
1.8964392267
 21
8.806178175
  0
LINE
  5
693
100
AcDbEntity
  8
AXIS
100
AcDbLine
 62
7
  6
CONTINUOUS
 10
1.8704470994
 20
8.806178175
 11
1.8570691479
 21
8.806178175
  0
LINE
  5
694
100
AcDbEntity
  8
AXIS
100
AcDbLine
 62
7
  6
CONTINUOUS
 10
1.8310770206
 20
8.806178175
 11
1.8176990692
 21
8.806178175
  0
LINE
  5
695
100
AcDbEntity
  8
AXIS
100
AcDbLine
 62
7
  6
CONTINUOUS
 10
1.7917069419
 20
8.806178175
 11
1.7783289904
 21
8.806178175
  0
LINE
  5
696
100
AcDbEntity
  8
AXIS
100
AcDbLine
 62
7
  6
CONTINUOUS
 10
1.7523368632
 20
8.806178175
 11
1.7389589117
 21
8.806178175
  0
LINE
  5
697
100
AcDbEntity
  8
AXIS
100
AcDbLine
 62
7
  6
CONTINUOUS
 10
1.7129667844
 20
8.806178175
 11
1.699588833
 21
8.806178175
  0
LINE
  5
698
100
AcDbEntity
  8
AXIS
100
AcDbLine
 62
7
  6
CONTINUOUS
 10
1.6735967057
 20
8.806178175
 11
1.6602187542
 21
8.806178175
  0
LINE
  5
699
100
AcDbEntity
  8
0
100
AcDbLine
 62
7
  6
CONTINUOUS
 10
1.6452541866
 20
8.8252784687
 11
1.6491911945
 21
8.8252784687
  0
LINE
  5
69A
100
AcDbEntity
  8
0
100
AcDbLine
 62
7
  6
CONTINUOUS
 10
1.6846242654
 20
8.8252784687
 11
1.6885612733
 21
8.8252784687
  0
LINE
  5
69B
100
AcDbEntity
  8
0
100
AcDbLine
 62
7
  6
CONTINUOUS
 10
1.7239943441
 20
8.8252784687
 11
1.727931352
 21
8.8252784687
  0
LINE
  5
69C
100
AcDbEntity
  8
0
100
AcDbLine
 62
7
  6
CONTINUOUS
 10
1.7633644229
 20
8.8252784687
 11
1.7673014307
 21
8.8252784687
  0
LINE
  5
69D
100
AcDbEntity
  8
0
100
AcDbLine
 62
7
  6
CONTINUOUS
 10
1.8027345016
 20
8.8252784687
 11
1.8066715095
 21
8.8252784687
  0
LINE
  5
69E
100
AcDbEntity
  8
0
100
AcDbLine
 62
7
  6
CONTINUOUS
 10
1.8421045803
 20
8.8252784687
 11
1.8460415882
 21
8.8252784687
  0
LINE
  5
69F
100
AcDbEntity
  8
0
100
AcDbLine
 62
7
  6
CONTINUOUS
 10
1.8814746591
 20
8.8252784687
 11
1.885411667
 21
8.8252784687
  0
LINE
  5
6A0
100
AcDbEntity
  8
0
100
AcDbLine
 62
7
  6
CONTINUOUS
 10
1.9208447378
 20
8.8252784687
 11
1.9247817457
 21
8.8252784687
  0
LINE
  5
6A1
100
AcDbEntity
  8
0
100
AcDbLine
 62
7
  6
CONTINUOUS
 10
1.5751715088
 20
8.8363750254
 11
1.6145415876
 21
8.8363750254
  0
LINE
  5
6A2
100
AcDbEntity
  8
0
100
AcDbLine
 62
7
  6
CONTINUOUS
 10
1.5751715088
 20
9.2438553404
 11
1.6145415876
 21
9.2438553404
  0
LINE
  5
6A3
100
AcDbEntity
  8
0
100
AcDbLine
 62
7
  6
CONTINUOUS
 10
1.9050967063
 20
9.2549518971
 11
1.9011596984
 21
9.2549518971
  0
LINE
  5
6A4
100
AcDbEntity
  8
0
100
AcDbLine
 62
7
  6
CONTINUOUS
 10
1.8657266276
 20
9.2549518971
 11
1.8617896197
 21
9.2549518971
  0
LINE
  5
6A5
100
AcDbEntity
  8
0
100
AcDbLine
 62
7
  6
CONTINUOUS
 10
1.8263565488
 20
9.2549518971
 11
1.822419541
 21
9.2549518971
  0
LINE
  5
6A6
100
AcDbEntity
  8
0
100
AcDbLine
 62
7
  6
CONTINUOUS
 10
1.7869864701
 20
9.2549518971
 11
1.7833657306
 21
9.2549518971
  0
LINE
  5
6A7
100
AcDbEntity
  8
0
100
AcDbLine
 62
7
  6
CONTINUOUS
 10
1.7476163914
 20
9.2549518971
 11
1.7436793835
 21
9.2549518971
  0
LINE
  5
6A8
100
AcDbEntity
  8
0
100
AcDbLine
 62
7
  6
CONTINUOUS
 10
1.7082463126
 20
9.2549518971
 11
1.7043093047
 21
9.2549518971
  0
LINE
  5
6A9
100
AcDbEntity
  8
0
100
AcDbLine
 62
7
  6
CONTINUOUS
 10
1.6688762339
 20
9.2549518971
 11
1.664939226
 21
9.2549518971
  0
LINE
  5
6AA
100
AcDbEntity
  8
0
100
AcDbLine
 62
7
  6
CONTINUOUS
 10
1.6295061551
 20
9.2549518971
 11
1.6255691473
 21
9.2549518971
  0
LINE
  5
6AB
100
AcDbEntity
  8
AXIS
100
AcDbLine
 62
7
  6
CONTINUOUS
 10
1.9664489571
 20
9.2740521908
 11
1.916124266
 21
9.2740521908
  0
LINE
  5
6AC
100
AcDbEntity
  8
AXIS
100
AcDbLine
 62
7
  6
CONTINUOUS
 10
1.8901321387
 20
9.2740521908
 11
1.8767541873
 21
9.2740521908
  0
LINE
  5
6AD
100
AcDbEntity
  8
AXIS
100
AcDbLine
 62
7
  6
CONTINUOUS
 10
1.85076206
 20
9.2740521908
 11
1.8373841085
 21
9.2740521908
  0
LINE
  5
6AE
100
AcDbEntity
  8
AXIS
100
AcDbLine
 62
7
  6
CONTINUOUS
 10
1.8113919813
 20
9.2740521908
 11
1.7980140298
 21
9.2740521908
  0
LINE
  5
6AF
100
AcDbEntity
  8
AXIS
100
AcDbLine
 62
7
  6
CONTINUOUS
 10
1.7720219025
 20
9.2740521908
 11
1.7586439511
 21
9.2740521908
  0
LINE
  5
6B0
100
AcDbEntity
  8
AXIS
100
AcDbLine
 62
7
  6
CONTINUOUS
 10
1.7326518238
 20
9.2740521908
 11
1.7192738723
 21
9.2740521908
  0
LINE
  5
6B1
100
AcDbEntity
  8
AXIS
100
AcDbLine
 62
7
  6
CONTINUOUS
 10
1.693281745
 20
9.2740521908
 11
1.6799037936
 21
9.2740521908
  0
LINE
  5
6B2
100
AcDbEntity
  8
AXIS
100
AcDbLine
 62
7
  6
CONTINUOUS
 10
1.6539116663
 20
9.2740521908
 11
1.6405337148
 21
9.2740521908
  0
LINE
  5
6B3
100
AcDbEntity
  8
0
100
AcDbLine
 62
7
  6
CONTINUOUS
 10
2.4117856821
 20
9.3112404252
 11
2.2209638851
 21
9.3112404252
  0
LINE
  5
6B4
100
AcDbEntity
  8
0
100
AcDbLine
 62
7
  6
CONTINUOUS
 10
2.4117856821
 20
9.3367128764
 11
2.2209638851
 21
9.3367128764
  0
LINE
  5
6B5
100
AcDbEntity
  8
0
100
AcDbLine
 62
7
  6
CONTINUOUS
 10
2.4117856821
 20
9.6078381187
 11
2.2209638851
 21
9.6078381187
  0
LINE
  5
6B6
100
AcDbEntity
  8
0
100
AcDbLine
 62
7
  6
CONTINUOUS
 10
2.4117856821
 20
9.6080285687
 11
2.2209638851
 21
9.6080285687
  0
LINE
  5
6B7
100
AcDbEntity
  8
0
100
AcDbLine
 62
7
  6
CONTINUOUS
 10
2.7031242647
 20
9.6321230569
 11
2.688923707
 21
9.6321230569
  0
LINE
  5
6B8
100
AcDbEntity
  8
0
100
AcDbLine
 62
7
  6
CONTINUOUS
 10
2.4117856821
 20
9.7015325056
 11
2.2818644222
 21
9.7015325056
  0
LINE
  5
6B9
100
AcDbEntity
  8
0
100
AcDbLine
 62
7
  6
CONTINUOUS
 10
2.4117856821
 20
9.7139721526
 11
2.2818644222
 21
9.7139721526
  0
LINE
  5
6BA
100
AcDbEntity
  8
0
100
AcDbLine
 62
7
  6
CONTINUOUS
 10
2.7031242647
 20
9.7305482538
 11
2.688923707
 21
9.7305482538
  0
LINE
  5
6BB
100
AcDbEntity
  8
0
100
AcDbLine
 62
7
  6
CONTINUOUS
 10
2.4117856821
 20
9.8859432523
 11
2.2818644222
 21
9.8859432523
  0
LINE
  5
6BC
100
AcDbEntity
  8
0
100
AcDbLine
 62
7
  6
CONTINUOUS
 10
2.4117856821
 20
9.9108225463
 11
2.2818644222
 21
9.9108225463
  0
LINE
  5
6BD
100
AcDbEntity
  8
0
100
AcDbLine
 62
7
  6
CONTINUOUS
 10
2.688923707
 20
9.6691612933
 11
2.7031242647
 21
9.6688767709
  0
LINE
  5
6BE
100
AcDbEntity
  8
0
100
AcDbLine
 62
7
  6
CONTINUOUS
 10
1.9664489571
 20
9.2740521908
 11
1.9712232805
 21
9.2746399368
  0
LINE
  5
6BF
100
AcDbEntity
  8
0
100
AcDbLine
 62
7
  6
CONTINUOUS
 10
2.4117856821
 20
10.082793646
 11
2.2818644222
 21
10.082793646
  0
LINE
  5
6C0
100
AcDbEntity
  8
0
100
AcDbLine
 62
7
  6
CONTINUOUS
 10
2.4117856821
 20
10.095233293
 11
2.2818644222
 21
10.095233293
  0
LINE
  5
6C1
100
AcDbEntity
  8
AXIS
100
AcDbLine
 62
7
  6
CONTINUOUS
 10
28.4196596978
 20
10.3885403797
 11
2.7031242647
 21
10.3885403797
  0
LINE
  5
6C2
100
AcDbEntity
  8
0
100
AcDbLine
 62
7
  6
CONTINUOUS
 10
2.4905258395
 20
10.3885403796
 11
2.6686958284
 21
10.3885403796
  0
LINE
  5
6C3
100
AcDbEntity
  8
0
100
AcDbLine
 62
7
  6
CONTINUOUS
 10
28.4383401027
 20
10.3885403797
 11
28.6165100915
 21
10.3885403797
  0
LINE
  5
6C4
100
AcDbEntity
  8
0
100
AcDbLine
 62
7
  6
CONTINUOUS
 10
1.9712232805
 20
9.2746399368
 11
2.1901820526
 21
9.3293796299
  0
LINE
  5
6C5
100
AcDbEntity
  8
AXIS
100
AcDbLine
 62
7
  6
CONTINUOUS
 10
28.4196596978
 20
7.691689986
 11
28.4196596978
 21
10.3885311748
  0
LINE
  5
6C6
100
AcDbEntity
  8
0
100
AcDbLine
 62
7
  6
CONTINUOUS
 10
28.4383401027
 20
7.691689986
 11
28.4383401027
 21
10.3885403797
  0
LINE
  5
6C7
100
AcDbEntity
  8
0
100
AcDbLine
 62
7
  6
CONTINUOUS
 10
28.5574549734
 20
10.3885403797
 11
28.5574549734
 21
7.691689986
  0
LINE
  5
6C8
100
AcDbEntity
  8
0
100
AcDbLine
 62
7
  6
CONTINUOUS
 10
28.6165100915
 20
10.3885403797
 11
28.6165100915
 21
7.691689986
  0
LINE
  5
6C9
100
AcDbEntity
  8
0
100
AcDbLine
 62
7
  6
CONTINUOUS
 10
28.695250249
 20
10.3098002223
 11
28.695250249
 21
7.7704301435
  0
LINE
  5
6CA
100
AcDbEntity
  8
0
100
AcDbLine
 62
7
  6
CONTINUOUS
 10
30.413220959
 20
9.2948006005
 11
30.413220959
 21
9.3579482862
  0
LINE
  5
6CB
100
AcDbEntity
  8
0
100
AcDbLine
 62
7
  6
CONTINUOUS
 10
31.1953916889
 20
8.2404771465
 11
31.1325029935
 21
8.2347638115
  0
LINE
  5
6CC
100
AcDbEntity
  8
0
100
AcDbLine
 62
7
  6
CONTINUOUS
 10
30.522595959
 20
9.3579482862
 11
30.522595959
 21
9.2948006005
  0
LINE
  5
6CD
100
AcDbEntity
  8
0
100
AcDbLine
 62
7
  6
CONTINUOUS
 10
30.413220959
 20
9.3579482862
 11
30.467908459
 21
9.389522129
  0
LINE
  5
6CE
100
AcDbEntity
  8
0
100
AcDbLine
 62
7
  6
CONTINUOUS
 10
31.1226072069
 20
8.3436902271
 11
31.1854959023
 21
8.3494035622
  0
LINE
  5
6CF
100
AcDbEntity
  8
0
100
AcDbLine
 62
7
  6
CONTINUOUS
 10
30.522595959
 20
9.2948006005
 11
30.467908459
 21
9.2632267576
  0
LINE
  5
6D0
100
AcDbEntity
  8
0
100
AcDbLine
 62
7
  6
CONTINUOUS
 10
31.1325029935
 20
8.2347638115
 11
31.0961107525
 21
8.2863703518
  0
LINE
  5
6D1
100
AcDbEntity
  8
0
100
AcDbLine
 62
7
  6
CONTINUOUS
 10
31.1854959023
 20
8.3494035622
 11
31.2218881433
 21
8.2977970219
  0
LINE
  5
6D2
100
AcDbEntity
  8
0
100
AcDbLine
 62
7
  6
CONTINUOUS
 10
30.467908459
 20
9.2632267576
 11
30.413220959
 21
9.2948006005
  0
LINE
  5
6D3
100
AcDbEntity
  8
0
100
AcDbLine
 62
7
  6
CONTINUOUS
 10
30.467908459
 20
9.389522129
 11
30.522595959
 21
9.3579482862
  0
LINE
  5
6D4
100
AcDbEntity
  8
0
100
AcDbLine
 62
7
  6
CONTINUOUS
 10
31.0961107525
 20
8.2863703518
 11
31.1226072069
 21
8.3436902271
  0
LINE
  5
6D5
100
AcDbEntity
  8
0
100
AcDbLine
 62
7
  6
CONTINUOUS
 10
31.8864826778
 20
9.274767903
 11
31.8235939824
 21
9.2690545679
  0
LINE
  5
6D6
100
AcDbEntity
  8
0
100
AcDbLine
 62
7
  6
CONTINUOUS
 10
31.2218881433
 20
8.2977970219
 11
31.1953916889
 21
8.2404771465
  0
LINE
  5
6D7
100
AcDbEntity
  8
0
100
AcDbLine
 62
7
  6
CONTINUOUS
 10
31.8136981958
 20
9.3779809836
 11
31.8765868912
 21
9.3836943187
  0
LINE
  5
6D8
100
AcDbEntity
  8
0
100
AcDbLine
 62
7
  6
CONTINUOUS
 10
31.7872017414
 20
9.3206611083
 11
31.8136981958
 21
9.3779809836
  0
LINE
  5
6D9
100
AcDbEntity
  8
0
100
AcDbLine
 62
7
  6
CONTINUOUS
 10
31.9129791322
 20
9.3320877784
 11
31.8864826778
 21
9.274767903
  0
LINE
  5
6DA
100
AcDbEntity
  8
0
100
AcDbLine
 62
7
  6
CONTINUOUS
 10
31.8235939824
 20
9.2690545679
 11
31.7872017414
 21
9.3206611083
  0
LINE
  5
6DB
100
AcDbEntity
  8
0
100
AcDbLine
 62
7
  6
CONTINUOUS
 10
31.8765868912
 20
9.3836943187
 11
31.9129791322
 21
9.3320877784
  0
CIRCLE
  5
6DC
100
AcDbEntity
  8
0
100
AcDbCircle
 62
7
  6
CONTINUOUS
 10
27.5254366922
 20
1.0674889563
 40
0.252091
  0
CIRCLE
  5
6DD
100
AcDbEntity
  8
0
100
AcDbCircle
 62
7
  6
CONTINUOUS
 10
27.5254366922
 20
1.0674889563
 40
0.182698
  0
CIRCLE
  5
6DE
100
AcDbEntity
  8
0
100
AcDbCircle
 62
7
  6
CONTINUOUS
 10
27.0942092
 20
1.8024187226
 40
0.0638444824
  0
ARC
  5
6DF
100
AcDbEntity
  8
0
100
AcDbCircle
 62
7
  6
CONTINUOUS
 10
2.3625730836
 20
9.5391309309
 40
0.157480315
100
AcDbArc
 50
154.0555202276
 51
180.0
  0
ARC
  5
6E0
100
AcDbEntity
  8
0
100
AcDbCircle
 62
7
  6
CONTINUOUS
 10
2.3625730836
 20
8.5410994349
 40
0.157480315
100
AcDbArc
 50
180.0
 51
205.9444797724
  0
ARC
  5
6E1
100
AcDbEntity
  8
0
100
AcDbCircle
 62
7
  6
CONTINUOUS
 10
28.6165100915
 20
10.3098002223
 40
0.0787401575
100
AcDbArc
 50
0.0
 51
90.0
  0
ARC
  5
6E2
100
AcDbEntity
  8
0
100
AcDbCircle
 62
7
  6
CONTINUOUS
 10
28.6165100915
 20
7.7704301435
 40
0.0787401575
100
AcDbArc
 50
270.0
 51
360.0
  0
ARC
  5
6E3
100
AcDbEntity
  8
0
100
AcDbCircle
 62
7
  6
CONTINUOUS
 10
2.4905258395
 20
10.3098002221
 40
0.0787401575
100
AcDbArc
 50
90.0
 51
180.0
  0
ARC
  5
6E4
100
AcDbEntity
  8
0
100
AcDbCircle
 62
7
  6
CONTINUOUS
 10
2.4905258395
 20
7.7704301437
 40
0.0787401575
100
AcDbArc
 50
180.0
 51
270.0
  0
ARC
  5
6E5
100
AcDbEntity
  8
0
100
AcDbCircle
 62
7
  6
CONTINUOUS
 10
28.4383401027
 20
10.3688553404
 40
0.0196850394
100
AcDbArc
 50
90.0
 51
165.0621237798
  0
ARC
  5
6E6
100
AcDbEntity
  8
0
100
AcDbCircle
 62
7
  6
CONTINUOUS
 10
28.4383401027
 20
7.7113750254
 40
0.0196850394
100
AcDbArc
 50
194.9378762202
 51
270.0
  0
ARC
  5
6E7
100
AcDbEntity
  8
0
100
AcDbCircle
 62
7
  6
CONTINUOUS
 10
2.6686958284
 20
7.7113750256
 40
0.0196850394
100
AcDbArc
 50
270.0000000004
 51
357.0000000005
  0
ARC
  5
6E8
100
AcDbEntity
  8
0
100
AcDbCircle
 62
7
  6
CONTINUOUS
 10
2.6686958284
 20
10.3688553402
 40
0.0196850394
100
AcDbArc
 50
2.9999999995
 51
89.9999999996
  0
ARC
  5
6E9
100
AcDbEntity
  8
0
100
AcDbCircle
 62
7
  6
CONTINUOUS
 10
2.1854077293
 20
8.7317534426
 40
0.0196850394
100
AcDbArc
 50
0.0
 51
75.9637565321
  0
ARC
  5
6EA
100
AcDbEntity
  8
0
100
AcDbCircle
 62
7
  6
CONTINUOUS
 10
2.1854077293
 20
9.3484769232
 40
0.0196850394
100
AcDbArc
 50
284.0362434679
 51
360.0
  0
CIRCLE
  5
6EB
100
AcDbEntity
  8
0
100
AcDbCircle
 62
7
  6
CONTINUOUS
 10
30.4156923613
 20
8.6110253925
 40
0.1010373477
  0
CIRCLE
  5
6EC
100
AcDbEntity
  8
0
100
AcDbCircle
 62
7
  6
CONTINUOUS
 10
30.4156923613
 20
8.6110253925
 40
0.0813553065
  0
CIRCLE
  5
6ED
100
AcDbEntity
  8
0
100
AcDbCircle
 62
7
  6
CONTINUOUS
 10
30.4156923613
 20
8.6110253925
 40
0.0808646666
  0
CIRCLE
  5
6EE
100
AcDbEntity
  8
0
100
AcDbCircle
 62
7
  6
CONTINUOUS
 10
30.4156923613
 20
8.6110253925
 40
0.0690554419
  0
CIRCLE
  5
6EF
100
AcDbEntity
  8
0
100
AcDbCircle
 62
7
  6
CONTINUOUS
 10
30.467908459
 20
9.3263744433
 40
0.1217524348
  0
ARC
  5
6F0
100
AcDbEntity
  8
0
100
AcDbCircle
 62
7
  6
CONTINUOUS
 10
30.467904033
 20
9.3263637577
 40
0.1193472093
100
AcDbArc
 50
0.0008859025
 51
152.3074397345
  0
CIRCLE
  5
6F1
100
AcDbEntity
  8
0
100
AcDbCircle
 62
7
  6
CONTINUOUS
 10
30.467908459
 20
9.3263744433
 40
0.1193472093
  0
CIRCLE
  5
6F2
100
AcDbEntity
  8
0
100
AcDbCircle
 62
7
  6
CONTINUOUS
 10
30.467908459
 20
9.3263744433
 40
0.113
  0
CIRCLE
  5
6F3
100
AcDbEntity
  8
0
100
AcDbCircle
 62
7
  6
CONTINUOUS
 10
30.467908459
 20
9.3263744433
 40
0.1017
  0
CIRCLE
  5
6F4
100
AcDbEntity
  8
0
100
AcDbCircle
 62
7
  6
CONTINUOUS
 10
30.467908459
 20
9.3263744433
 40
0.0631476857
  0
CIRCLE
  5
6F5
100
AcDbEntity
  8
0
100
AcDbCircle
 62
7
  6
CONTINUOUS
 10
31.1589994479
 20
8.2920836868
 40
0.1217524348
  0
ARC
  5
6F6
100
AcDbEntity
  8
0
100
AcDbCircle
 62
7
  6
CONTINUOUS
 10
31.1590110139
 20
8.2920836869
 40
0.1193472093
100
AcDbArc
 50
263.0773662062
 51
269.9976462046
  0
ARC
  5
6F7
100
AcDbEntity
  8
0
100
AcDbCircle
 62
7
  6
CONTINUOUS
 10
31.1590110139
 20
8.2920836869
 40
0.1193472093
100
AcDbArc
 50
90.0032396696
 51
180.0008859025
  0
CIRCLE
  5
6F8
100
AcDbEntity
  8
0
100
AcDbCircle
 62
7
  6
CONTINUOUS
 10
31.1589994479
 20
8.2920836868
 40
0.1193472093
  0
CIRCLE
  5
6F9
100
AcDbEntity
  8
0
100
AcDbCircle
 62
7
  6
CONTINUOUS
 10
31.1589994479
 20
8.2920836868
 40
0.113
  0
CIRCLE
  5
6FA
100
AcDbEntity
  8
0
100
AcDbCircle
 62
7
  6
CONTINUOUS
 10
31.1589994479
 20
8.2920836868
 40
0.1017
  0
CIRCLE
  5
6FB
100
AcDbEntity
  8
0
100
AcDbCircle
 62
7
  6
CONTINUOUS
 10
31.9023065345
 20
8.6110253925
 40
0.1010373477
  0
CIRCLE
  5
6FC
100
AcDbEntity
  8
0
100
AcDbCircle
 62
7
  6
CONTINUOUS
 10
31.9023065345
 20
8.6110253925
 40
0.0813553065
  0
CIRCLE
  5
6FD
100
AcDbEntity
  8
0
100
AcDbCircle
 62
7
  6
CONTINUOUS
 10
31.9023065345
 20
8.6110253925
 40
0.0808646666
  0
CIRCLE
  5
6FE
100
AcDbEntity
  8
0
100
AcDbCircle
 62
7
  6
CONTINUOUS
 10
31.9023065345
 20
8.6110253925
 40
0.0690554419
  0
CIRCLE
  5
6FF
100
AcDbEntity
  8
0
100
AcDbCircle
 62
7
  6
CONTINUOUS
 10
31.1589994479
 20
8.2920836868
 40
0.0631476857
  0
CIRCLE
  5
700
100
AcDbEntity
  8
0
100
AcDbCircle
 62
7
  6
CONTINUOUS
 10
31.1589994479
 20
9.0401151829
 40
1.3484251969
  0
CIRCLE
  5
701
100
AcDbEntity
  8
0
100
AcDbCircle
 62
7
  6
CONTINUOUS
 10
31.1589994479
 20
9.0401151829
 40
1.2696850394
  0
CIRCLE
  5
702
100
AcDbEntity
  8
0
100
AcDbCircle
 62
7
  6
CONTINUOUS
 10
31.8500904368
 20
9.3263744433
 40
0.1217524348
  0
ARC
  5
703
100
AcDbEntity
  8
0
100
AcDbCircle
 62
7
  6
CONTINUOUS
 10
31.8500860106
 20
9.3263851289
 40
0.1193472093
100
AcDbArc
 50
207.693446434
 51
0.0008859025
  0
CIRCLE
  5
704
100
AcDbEntity
  8
0
100
AcDbCircle
 62
7
  6
CONTINUOUS
 10
31.8500904368
 20
9.3263744433
 40
0.1193472093
  0
CIRCLE
  5
705
100
AcDbEntity
  8
0
100
AcDbCircle
 62
7
  6
CONTINUOUS
 10
31.8500904368
 20
9.3263744433
 40
0.113
  0
CIRCLE
  5
706
100
AcDbEntity
  8
0
100
AcDbCircle
 62
7
  6
CONTINUOUS
 10
31.8500904368
 20
9.3263744433
 40
0.1017
  0
CIRCLE
  5
707
100
AcDbEntity
  8
0
100
AcDbCircle
 62
7
  6
CONTINUOUS
 10
31.8500904368
 20
9.3263744433
 40
0.0631476857
  0
ENDSEC
  0
SECTION
  2
OBJECTS
  0
DICTIONARY
  5
C
100
AcDbDictionary
280
0
281
1
  3
ACAD_GROUP
350
D
  3
ACAD_MLINESTYLE
350
17
  3
ACAD_LAYOUT
350
1A
  3
ACAD_PLOTSETTINGS
350
19
  3
ACAD_PLOTSTYLENAME
350
E
  3
ACAD_TABLESTYLE
350
       708
  0
DICTIONARY
  5
D
102
{ACAD_REACTORS
330
C
102
}
100
AcDbDictionary
280
0
281
1
  0
ACDBDICTIONARYWDFLT
  5
E
102
{ACAD_REACTORS
330
C
102
}
100
AcDbDictionary
281
1
  3
Normal
350
F
100
AcDbDictionaryWithDefault
340
F
  0
DICTIONARY
  5
17
102
{ACAD_REACTORS
330
C
102
}
100
AcDbDictionary
280
0
281
1
  3
Standard
350
18
  0
DICTIONARY
  5
708
330
C
100
AcDbDictionary
281
1
  3
Standard
350
       70B
  3
Standard1
350
       70C
  0
DICTIONARY
  5
19
102
{ACAD_REACTORS
330
C
102
}
100
AcDbDictionary
281
1
  0
DICTIONARY
  5
1A
102
{ACAD_REACTORS
330
C
102
}
100
AcDbDictionary
281
1
  3
Model
350
709
  3
Layout1
350
70A
  0
ACDBPLACEHOLDER
  5
F
102
{ACAD_REACTORS
330
E
102
}
  0
MLINESTYLE
  5
18
102
{ACAD_REACTORS
330
17
102
}
100
AcDbMlineStyle
  2
STANDARD
 70
0
  3

 62
256
 51
90.0
 52
90.0
 71
2
 49
0.5
 62
256
  6
BYLAYER
 49
-0.5
 62
256
  6
BYLAYER
  0
LAYOUT
  5
709
102
{ACAD_REACTORS
330
1A
102
}
100
AcDbPlotSettings
  1

  2
none_device
  4
ANSI_D_(34.00_x_22.00_Inches)
  6

 40
0.0
 41
0.0
 42
0.0
 43
0.0
 44
863.6
 45
558.8
 46
0.0
 47
0.0
 48
0.0
 49
0.0
140
0.0
141
0.0
142
1.0
143
1.0
 70
1024
 72
0
 73
0
 74
0
  7

 75
0
147
1.0
148
0.0
149
0.0
100
AcDbLayout
  1
Model
 70
0
 71
0
 10
0.0
 20
0.0
 11
34.0
 21
22.0
 12
0.0
 22
0.0
 32
0.0
 14
0.0
 24
0.0
 34
0.0
 15
0.0
 25
0.0
 35
0.0
146
0.0
 13
0.0
 23
0.0
 33
0.0
 16
1.0
 26
0.0
 36
0.0
 17
0.0
 27
1.0
 37
0.0
 76
0
330
22B
345
0
346
0
  0
LAYOUT
  5
70A
102
{ACAD_REACTORS
330
1A
102
}
100
AcDbPlotSettings
  1

  2
none_device
  4
ANSI_D_(34.00_x_22.00_Inches)
  6

 40
0.0
 41
0.0
 42
0.0
 43
0.0
 44
863.6
 45
558.8
 46
0.0
 47
0.0
 48
0.0
 49
0.0
140
0.0
141
0.0
142
1.0
143
1.0
 70
0
 72
0
 73
0
 74
0
  7

 75
0
147
1.0
148
0.0
149
0.0
100
AcDbLayout
  1
Layout1
 70
0
 71
1
 10
0.0
 20
0.0
 11
34.0
 21
22.0
 12
0.0
 22
0.0
 32
0.0
 14
0.0
 24
0.0
 34
0.0
 15
0.0
 25
0.0
 35
0.0
146
0.0
 13
0.0
 23
0.0
 33
0.0
 16
1.0
 26
0.0
 36
0.0
 17
0.0
 27
1.0
 37
0.0
 76
0
330
22C
345
0
346
0
  0
TABLESTYLE
  5
70B
102
{ACAD_REACTORS
330
708
102
}
330
708
100
AcDbTableStyle
  3
Standard
 70
0
 71
0
 40
0.06
 41
0.06
280
1
281
1
  7
Standard
140
0.18
170
1
 62
0
 63
7
283
0
  7
Standard
140
0.18
170
1
 62
0
 63
7
283
0
  7
Standard
140
0.18
170
1
 62
0
 63
7
283
0
  0
TABLESTYLE
  5
70C
102
{ACAD_REACTORS
330
708
330
28F
102
}
330
708
100
AcDbTableStyle
  3
Standard1
 70
1
 71
0
 40
0.06
 41
0.06
280
1
281
1
  7
Standard
140
0.18
170
1
 62
0
 63
7
283
0
  7
Standard
140
0.18
170
1
 62
0
 63
7
283
0
  7
Standard
140
0.18
170
1
 62
0
 63
7
283
0
  0
ENDSEC
  0
EOF
