999
DXF file: 200856_1.dxf
999
Pro/ENGINEER 2016260 by Parametric Technology Corporation
  0
SECTION
  2
HEADER
  9
$ACADVER
  1
AC1027
  9
$DWGCODEPAGE
  3
ANSI_1252
  9
$EXTMAX
 10
17.0
 20
11.0
 30
0.0
  9
$EXTMIN
 10
0.0
 20
0.0
 30
0.0
  9
$LIMMIN
 10
0.0
 20
0.0
  9
$LIMMAX
 10
17.0
 20
11.0
  9
$VIEWCTR
 10
8.5
 20
5.5
  9
$VIEWSIZE
 40
11.0
  9
$CLAYER
  8
0
  9
$LTSCALE
 40
0.935
  9
$CELTYPE
  6
BYLAYER
  9
$DIMSCALE
 40
1.0
  9
$DIMASZ
 40
0.1875
  9
$DIMEXO
 40
0.0625
  9
$DIMDLI
 40
0.646
  9
$DIMEXE
 40
0.125
  9
$DIMCEN
 40
0.153
  9
$DIMLFAC
 40
1.0
  9
$DIMBLK
  1
_FILLED
  9
$DIMALT
 70
1
  9
$DIMALTD
 70
2
  9
$DIMALTTD
 70
2
  9
$DIMALTF
 40
1.0
  9
$DIMTXT
 40
0.1
  9
$DIMTOL
 70
1
  9
$DIMLIM
 70
0
  9
$DIMTFAC
 40
1.0
  9
$DIMTP
 40
0.005
  9
$DIMTM
 40
0.005
  9
$DIMGAP
 40
0.09
  9
$DIMDSEP
 70
46
  9
$AUNITS
 70
0
  9
$PDMODE
 70
3
  9
$PDSIZE
 40
0.3125
  9
$HANDSEED
  5
62D
  9
$TILEMODE
 70
1
  9
$MEASUREMENT
 70
0
  9
$INSUNITS
 70
1
  0
ENDSEC
  0
SECTION
  2
CLASSES
  0
CLASS
  1
ACDBDICTIONARYWDFLT
  2
AcDbDictionaryWithDefault
  3
AutoCAD 2000
 90
0
 91
1
280
0
281
0
  0
CLASS
  1
ACDBPLACEHOLDER
  2
AcDbPlaceHolder
  3
AutoCAD 2000
 90
0
 91
1
280
0
281
0
  0
CLASS
  1
LAYOUT
  2
AcDbLayout
  3
AutoCAD 2000
 90
0
 91
0
280
0
281
0
  0
CLASS
  1
TABLESTYLE
  2
AcDbTableStyle
  3
ObjectDBX Classes
 90
2047
 91
1
280
0
281
0
  0
CLASS
  1
ACAD_TABLE
  2
AcDbTable
  3
ObjectDBX Classes
 90
1025
 91
1
280
0
281
1
  0
ENDSEC
  0
SECTION
  2
TABLES
  0
TABLE
  2
VPORT
  5
8
100
AcDbSymbolTable
 70
2
  0
VPORT
  5
1F4
100
AcDbSymbolTableRecord
100
AcDbViewportTableRecord
  2
*ACTIVE
 70
0
 10
0.0
 20
0.0
 11
1.0
 21
1.0
 12
8.5
 22
5.5
 13
0.0
 23
0.0
 14
1.0
 24
1.0
 15
0.0
 25
0.0
 16
0.0
 26
0.0
 36
1.0
 17
0.0
 27
0.0
 37
0.0
 40
11.0
 41
1.5454545455
 42
50.0
 43
0.0
 44
0.0
 50
0.0
 51
0.0
 71
0
 72
100
 73
1
 74
1
 75
0
 76
0
 77
0
 78
0
  0
ENDTAB
  0
TABLE
  2
LTYPE
  5
5
100
AcDbSymbolTable
 70
6
  0
LTYPE
  5
14
100
AcDbSymbolTableRecord
100
AcDbLinetypeTableRecord
  2
BYBLOCK
 70
0
  3

 72
65
 73
0
 40
0.0
  0
LTYPE
  5
15
100
AcDbSymbolTableRecord
100
AcDbLinetypeTableRecord
  2
BYLAYER
 70
0
  3

 72
65
 73
0
 40
0.0
  0
LTYPE
  5
16
100
AcDbSymbolTableRecord
100
AcDbLinetypeTableRecord
  2
CONTINUOUS
 70
64
  3
Solid line
 72
65
 73
0
 40
0.0
  0
LTYPE
  5
1F5
100
AcDbSymbolTableRecord
100
AcDbLinetypeTableRecord
  2
CENTER
 70
64
  3
____ _ ____ _ ____ _ ____ _ ____ _ ____ _ ____
 72
65
 73
4
 40
0.6
 49
0.375
 74
0
 49
-0.075
 74
0
 49
0.075
 74
0
 49
-0.075
 74
0
  0
LTYPE
  5
1F6
100
AcDbSymbolTableRecord
100
AcDbLinetypeTableRecord
  2
HIDDEN
 70
64
  3
- - - - - - - - - - - - - - - - - - - -
 72
65
 73
2
 40
0.2
 49
0.1
 74
0
 49
-0.1
 74
0
  0
LTYPE
  5
1F7
100
AcDbSymbolTableRecord
100
AcDbLinetypeTableRecord
  2
PHANTOM
 70
64
  3
_____ _ _ _____ _ _ _____ _ _ _____
 72
65
 73
6
 40
0.8
 49
0.45
 74
0
 49
-0.05
 74
0
 49
0.1
 74
0
 49
-0.05
 74
0
 49
0.1
 74
0
 49
-0.05
 74
0
  0
LTYPE
  5
1F8
100
AcDbSymbolTableRecord
100
AcDbLinetypeTableRecord
  2
DOT
 70
64
  3
. . . . . . . . . . . . . . . . . . . .
 72
65
 73
2
 40
0.2
 49
0.1
 74
0
 49
-0.1
 74
0
  0
LTYPE
  5
1F9
100
AcDbSymbolTableRecord
100
AcDbLinetypeTableRecord
  2
DASHED
 70
64
  3
- - - - - - - - - - - - - - - - - - - -
 72
65
 73
2
 40
0.2
 49
0.1
 74
0
 49
-0.1
 74
0
  0
ENDTAB
  0
TABLE
  2
LAYER
  5
2
100
AcDbSymbolTable
 70
36
  0
LAYER
  5
10
100
AcDbSymbolTableRecord
100
AcDbLayerTableRecord
  2
0
 70
0
 62
7
  6
CONTINUOUS
370
-3
390
F
  0
LAYER
  5
1FA
100
AcDbSymbolTableRecord
100
AcDbLayerTableRecord
  2
DEFAULT_1
 70
0
 62
7
  6
CENTER
370
-3
390
F
  0
LAYER
  5
1FB
100
AcDbSymbolTableRecord
100
AcDbLayerTableRecord
  2
DEFAULT_2
 70
0
 62
7
  6
HIDDEN
370
-3
390
F
  0
LAYER
  5
1FC
100
AcDbSymbolTableRecord
100
AcDbLayerTableRecord
  2
DEFAULT_3
 70
0
 62
7
  6
PHANTOM
370
-3
390
F
  0
LAYER
  5
1FD
100
AcDbSymbolTableRecord
100
AcDbLayerTableRecord
  2
01___PRT_ALL_DTM_PLN
 70
0
 62
7
  6
CONTINUOUS
370
-3
390
F
  0
LAYER
  5
1FE
100
AcDbSymbolTableRecord
100
AcDbLayerTableRecord
  2
01___PRT_DEF_DTM_PLN
 70
0
 62
7
  6
CONTINUOUS
370
-3
390
F
  0
LAYER
  5
1FF
100
AcDbSymbolTableRecord
100
AcDbLayerTableRecord
  2
02___PRT_ALL_AXES
 70
0
 62
7
  6
CONTINUOUS
370
-3
390
F
  0
LAYER
  5
200
100
AcDbSymbolTableRecord
100
AcDbLayerTableRecord
  2
03___PRT_ALL_CURVES
 70
0
 62
7
  6
CONTINUOUS
370
-3
390
F
  0
LAYER
  5
201
100
AcDbSymbolTableRecord
100
AcDbLayerTableRecord
  2
04___PRT_ALL_DTM_PNT
 70
0
 62
7
  6
CONTINUOUS
370
-3
390
F
  0
LAYER
  5
202
100
AcDbSymbolTableRecord
100
AcDbLayerTableRecord
  2
05___PRT_ALL_DTM_CSYS
 70
0
 62
7
  6
CONTINUOUS
370
-3
390
F
  0
LAYER
  5
203
100
AcDbSymbolTableRecord
100
AcDbLayerTableRecord
  2
05___PRT_DEF_DTM_CSYS
 70
0
 62
7
  6
CONTINUOUS
370
-3
390
F
  0
LAYER
  5
204
100
AcDbSymbolTableRecord
100
AcDbLayerTableRecord
  2
06___PRT_ALL_SURFS
 70
0
 62
7
  6
CONTINUOUS
370
-3
390
F
  0
LAYER
  5
205
100
AcDbSymbolTableRecord
100
AcDbLayerTableRecord
  2
AXIS
 70
0
 62
7
  6
CONTINUOUS
370
-3
390
F
  0
LAYER
  5
206
100
AcDbSymbolTableRecord
100
AcDbLayerTableRecord
  2
AXIS_COSMETIC_THREADS
 70
0
 62
7
  6
CONTINUOUS
370
-3
390
F
  0
LAYER
  5
207
100
AcDbSymbolTableRecord
100
AcDbLayerTableRecord
  2
DATUM_CURVES
 70
0
 62
7
  6
CONTINUOUS
370
-3
390
F
  0
LAYER
  5
208
100
AcDbSymbolTableRecord
100
AcDbLayerTableRecord
  2
DATUM_PLANES
 70
0
 62
7
  6
CONTINUOUS
370
-3
390
F
  0
LAYER
  5
209
100
AcDbSymbolTableRecord
100
AcDbLayerTableRecord
  2
NOTES
 70
0
 62
7
  6
CONTINUOUS
370
-3
390
F
  0
LAYER
  5
20A
100
AcDbSymbolTableRecord
100
AcDbLayerTableRecord
  2
SCHEME_DIMS
 70
0
 62
7
  6
CONTINUOUS
370
-3
390
F
  0
LAYER
  5
20B
100
AcDbSymbolTableRecord
100
AcDbLayerTableRecord
  2
SYMBOLS
 70
0
 62
7
  6
CONTINUOUS
370
-3
390
F
  0
ENDTAB
  0
TABLE
  2
STYLE
  5
3
100
AcDbSymbolTable
 70
1
  0
STYLE
  5
11
100
AcDbSymbolTableRecord
100
AcDbTextStyleTableRecord
  2
STANDARD
 70
0
 40
0.0
 41
1.0
 50
0.0
 71
0
 42
0.2
  3
txt
  4

  0
STYLE
  5
20C
100
AcDbSymbolTableRecord
100
AcDbTextStyleTableRecord
  2
TEXTSTYLE_1
 70
0
 40
0.0
 41
0.8
 50
0.0
 71
0
 42
0.2
  3
gdt
  4

  0
STYLE
  5
20D
100
AcDbSymbolTableRecord
100
AcDbTextStyleTableRecord
  2
TEXTSTYLE_2
 70
0
 40
0.0
 41
0.8
 50
0.0
 71
0
 42
0.2
  3
txt
  4

  0
STYLE
  5
20E
100
AcDbSymbolTableRecord
100
AcDbTextStyleTableRecord
  2
TEXTSTYLE_3
 70
0
 40
0.0
 41
0.85
 50
0.0
 71
0
 42
0.2
  3
txt
  4

  0
STYLE
  5
20F
100
AcDbSymbolTableRecord
100
AcDbTextStyleTableRecord
  2
TEXTSTYLE_4
 70
0
 40
0.0
 41
0.9
 50
0.0
 71
0
 42
0.2
  3
txt
  4

  0
STYLE
  5
210
100
AcDbSymbolTableRecord
100
AcDbTextStyleTableRecord
  2
TEXTSTYLE_5
 70
0
 40
0.0
 41
0.75
 50
0.0
 71
0
 42
0.2
  3
txt
  4

  0
STYLE
  5
211
100
AcDbSymbolTableRecord
100
AcDbTextStyleTableRecord
  2
TEXTSTYLE_6
 70
0
 40
0.0
 41
1.0
 50
0.0
 71
0
 42
0.2
  3
gdt
  4

  0
ENDTAB
  0
TABLE
  2
VIEW
  5
6
100
AcDbSymbolTable
 70
0
  0
ENDTAB
  0
TABLE
  2
UCS
  5
7
100
AcDbSymbolTable
 70
0
  0
ENDTAB
  0
TABLE
  2
APPID
  5
9
100
AcDbSymbolTable
 70
1
  0
APPID
  5
212
100
AcDbSymbolTableRecord
100
AcDbRegAppTableRecord
  2
ACAD
 70
0
  0
ENDTAB
  0
TABLE
  2
BLOCK_RECORD
  5
1
100
AcDbSymbolTable
 70
0
  0
BLOCK_RECORD
  5
213
100
AcDbSymbolTableRecord
100
AcDbBlockTableRecord
  2
*Model_Space
  0
BLOCK_RECORD
  5
214
100
AcDbSymbolTableRecord
100
AcDbBlockTableRecord
  2
*Paper_Space
  0
BLOCK_RECORD
  5
215
100
AcDbSymbolTableRecord
100
AcDbBlockTableRecord
  2
_FILLED
  0
BLOCK_RECORD
  5
216
100
AcDbSymbolTableRecord
100
AcDbBlockTableRecord
  2
*D0
  0
BLOCK_RECORD
  5
217
100
AcDbSymbolTableRecord
100
AcDbBlockTableRecord
  2
*D1
  0
BLOCK_RECORD
  5
218
100
AcDbSymbolTableRecord
100
AcDbBlockTableRecord
  2
*D2
  0
BLOCK_RECORD
  5
219
100
AcDbSymbolTableRecord
100
AcDbBlockTableRecord
  2
*D3
  0
BLOCK_RECORD
  5
21A
100
AcDbSymbolTableRecord
100
AcDbBlockTableRecord
  2
*T1
  0
ENDTAB
  0
TABLE
  2
DIMSTYLE
  5
A
100
AcDbSymbolTable
 70
1
100
AcDbDimStyleTable
 71
0
  0
DIMSTYLE
105
21B
100
AcDbSymbolTableRecord
100
AcDbDimStyleTableRecord
  2
STANDARD
 70
0
  3

  4

 40
1.0
 41
0.1875
 42
0.0625
 43
0.38
 44
0.125
 45
0.0
 46
0.0
 47
0.005
 48
0.005
140
0.1
141
0.09
142
0.0
143
1.0
144
1.0
145
0.0
146
1.0
147
0.09
 71
1.0
 72
0.0
 73
1
 74
1
 75
0
 76
0
 77
0
 78
4
170
1
171
2
172
0
173
0
174
0
175
0
176
0
177
0
178
0
270
2
271
3
272
3
273
2
274
2
275
0
280
0
281
0
282
0
283
1
284
4
285
0
286
0
287
3
288
0
340
11
278
46
341
215
342
215
343
215
344
215
  0
DIMSTYLE
105
21C
100
AcDbSymbolTableRecord
100
AcDbDimStyleTableRecord
  2
DIMSTYLE_1
 70
0
  3
<>
  4

 40
1.0
 41
0.1875
 42
0.0625
 43
0.38
 44
0.125
 45
0.0
 46
0.0
 47
0.1
 48
0.1
140
0.1
141
0.09
142
0.0
143
1.0
144
1.0
145
0.0
146
1.0
147
0.09
 71
0.0
 72
0.0
 73
1
 74
1
 75
0
 76
0
 77
0
 78
4
170
1
171
2
172
0
173
0
174
0
175
0
176
0
177
0
178
0
270
2
271
1
272
3
273
2
274
4
275
0
280
0
281
0
282
0
283
1
284
4
285
0
286
0
287
3
288
1
340
11
278
46
289
2
341
215
342
215
343
215
344
215
  0
DIMSTYLE
105
21D
100
AcDbSymbolTableRecord
100
AcDbDimStyleTableRecord
  2
DIMSTYLE_2
 70
0
  3

  4

 40
1.0
 41
0.1875
 42
0.0625
 43
0.38
 44
0.125
 45
0.0
 46
0.0
 47
0.1
 48
0.1
140
0.1
141
0.09
142
0.0
143
1.0
144
1.0
145
0.0
146
1.0
147
0.1
 71
0.0
 72
0.0
 73
1
 74
1
 75
0
 76
0
 77
0
 78
4
170
1
171
2
172
0
173
0
174
0
175
0
176
0
177
0
178
0
270
2
271
1
272
3
273
2
274
4
275
0
280
0
281
0
282
0
283
1
284
4
285
0
286
0
287
3
288
0
340
11
278
46
341
215
342
215
343
215
344
215
  0
ENDTAB
  0
ENDSEC
  0
SECTION
  2
BLOCKS
  0
BLOCK
  5
20
100
AcDbEntity
  8
0
100
AcDbBlockBegin
  2
*Model_Space
 70
0
 10
0.0
 20
0.0
 30
0.0
  3
*Model_Space
  1

  0
ENDBLK
  5
21
100
AcDbEntity
  8
0
100
AcDbBlockEnd
  0
BLOCK
  5
1C
100
AcDbEntity
  8
0
100
AcDbBlockBegin
  2
*Paper_Space
 70
0
 10
0.0
 20
0.0
 30
0.0
  3
*Paper_Space
  1

  0
ENDBLK
  5
1D
100
AcDbEntity
  8
0
100
AcDbBlockEnd
  0
BLOCK
  5
21E
100
AcDbEntity
  8
0
100
AcDbBlockBegin
  2
_FILLED
 70
64
 10
0.0
 20
0.0
  3
_FILLED
  1

  0
SOLID
  5
21F
100
AcDbEntity
  8
0
  6
BYBLOCK
 62
0
100
AcDbTrace
 10
0.0
 20
0.0
 11
-1.0
 21
0.1666666667
 12
-1.0
 22
-0.1666666667
 13
-1.0
 23
-0.1666666667
  0
ENDBLK
  5
220
100
AcDbEntity
  8
0
  6
BYBLOCK
 62
0
100
AcDbBlockEnd
  0
BLOCK
  5
221
100
AcDbEntity
  8
SCHEME_DIMS
100
AcDbBlockBegin
 62
7
  6
CONTINUOUS
  2
*D0
 70
65
 10
0.0
 20
0.0
  3
*D0
  1

  0
MTEXT
  5
222
100
AcDbEntity
  8
SCHEME_DIMS
100
AcDbMText
 62
7
  6
CONTINUOUS
  7
TEXTSTYLE_6
 71
1
 72
1
 10
4.2278862615
 20
4.6495893854
 30
0.0
 11
1.0
 21
0.0
 31
0.0
 44
0.9
  1
{\Fgdt;n}\Ftxt;50.0\P[1.97]
 40
0.1
 41
0.6
  0
LINE
  5
223
100
AcDbEntity
  8
SCHEME_DIMS
100
AcDbLine
 62
7
  6
CONTINUOUS
 10
3.6669689264
 20
4.9640049268
 11
3.9778862615
 21
4.5995893854
  0
LINE
  5
224
100
AcDbEntity
  8
SCHEME_DIMS
100
AcDbLine
 62
7
  6
CONTINUOUS
 10
3.9778862615
 20
4.5995893854
 11
4.1278862615
 21
4.5995893854
  0
INSERT
  5
225
100
AcDbEntity
  8
SCHEME_DIMS
100
AcDbBlockReference
 62
7
  6
CONTINUOUS
  2
_FILLED
 10
3.6669689264
 20
4.9640049268
 41
0.1875
 42
0.1875
 43
0.1875
 50
130.4706282901
  0
ENDBLK
  5
226
100
AcDbEntity
  8
0
  6
BYBLOCK
 62
0
100
AcDbBlockEnd
  0
BLOCK
  5
227
100
AcDbEntity
  8
SCHEME_DIMS
100
AcDbBlockBegin
 62
7
  6
CONTINUOUS
  2
*D1
 70
65
 10
0.0
 20
0.0
  3
*D1
  1

  0
MTEXT
  5
228
100
AcDbEntity
  8
SCHEME_DIMS
100
AcDbMText
 62
7
  6
CONTINUOUS
  7
STANDARD
 71
2
 72
1
 10
6.4931446022
 20
7.2470155511
 30
0.0
 11
1.0
 21
0.0
 31
0.0
 44
0.9
  1
17.0\P[.67]
 40
0.1
 41
0.5
  0
LINE
  5
229
100
AcDbEntity
  8
SCHEME_DIMS
100
AcDbLine
 62
7
  6
CONTINUOUS
 10
6.2084773331
 20
6.6111467355
 11
6.2084773331
 21
7.3220155511
  0
LINE
  5
22A
100
AcDbEntity
  8
SCHEME_DIMS
100
AcDbLine
 62
7
  6
CONTINUOUS
 10
6.8778118712
 20
6.7201454631
 11
6.8778118712
 21
7.3220155511
  0
LINE
  5
22B
100
AcDbEntity
  8
SCHEME_DIMS
100
AcDbLine
 62
7
  6
CONTINUOUS
 10
6.2084773331
 20
7.1970155511
 11
5.8084773331
 21
7.1970155511
  0
LINE
  5
22C
100
AcDbEntity
  8
SCHEME_DIMS
100
AcDbLine
 62
7
  6
CONTINUOUS
 10
6.8778118712
 20
7.1970155511
 11
7.2778118712
 21
7.1970155511
  0
INSERT
  5
22D
100
AcDbEntity
  8
SCHEME_DIMS
100
AcDbBlockReference
 62
7
  6
CONTINUOUS
  2
_FILLED
 10
6.2084773331
 20
7.1970155511
 41
0.1875
 42
0.1875
 43
0.1875
  0
INSERT
  5
22E
100
AcDbEntity
  8
SCHEME_DIMS
100
AcDbBlockReference
 62
7
  6
CONTINUOUS
  2
_FILLED
 10
6.8778118712
 20
7.1970155511
 41
0.1875
 42
0.1875
 43
0.1875
 50
180.0
  0
ENDBLK
  5
22F
100
AcDbEntity
  8
0
  6
BYBLOCK
 62
0
100
AcDbBlockEnd
  0
BLOCK
  5
230
100
AcDbEntity
  8
SCHEME_DIMS
100
AcDbBlockBegin
 62
7
  6
CONTINUOUS
  2
*D2
 70
65
 10
0.0
 20
0.0
  3
*D2
  1

  0
MTEXT
  5
231
100
AcDbEntity
  8
SCHEME_DIMS
100
AcDbMText
 62
7
  6
CONTINUOUS
  7
STANDARD
 71
2
 72
1
 10
6.8368453896
 20
7.6835488703
 30
0.0
 11
1.0
 21
0.0
 31
0.0
 44
0.9
  1
37.0\P[1.46]
 40
0.1
 41
0.6
  0
LINE
  5
232
100
AcDbEntity
  8
SCHEME_DIMS
100
AcDbLine
 62
7
  6
CONTINUOUS
 10
6.2084773331
 20
6.1166388628
 11
6.2084773331
 21
7.7585488703
  0
LINE
  5
233
100
AcDbEntity
  8
SCHEME_DIMS
100
AcDbLine
 62
7
  6
CONTINUOUS
 10
7.665213446
 20
6.2772320865
 11
7.665213446
 21
7.7585488703
  0
LINE
  5
234
100
AcDbEntity
  8
SCHEME_DIMS
100
AcDbLine
 62
7
  6
CONTINUOUS
 10
6.2084773331
 20
7.6335488703
 11
6.5368453896
 21
7.6335488703
  0
LINE
  5
235
100
AcDbEntity
  8
SCHEME_DIMS
100
AcDbLine
 62
7
  6
CONTINUOUS
 10
7.665213446
 20
7.6335488703
 11
7.3368453896
 21
7.6335488703
  0
INSERT
  5
236
100
AcDbEntity
  8
SCHEME_DIMS
100
AcDbBlockReference
 62
7
  6
CONTINUOUS
  2
_FILLED
 10
6.2084773331
 20
7.6335488703
 41
0.1875
 42
0.1875
 43
0.1875
 50
180.0
  0
INSERT
  5
237
100
AcDbEntity
  8
SCHEME_DIMS
100
AcDbBlockReference
 62
7
  6
CONTINUOUS
  2
_FILLED
 10
7.665213446
 20
7.6335488703
 41
0.1875
 42
0.1875
 43
0.1875
  0
ENDBLK
  5
238
100
AcDbEntity
  8
0
  6
BYBLOCK
 62
0
100
AcDbBlockEnd
  0
BLOCK
  5
239
100
AcDbEntity
  8
SCHEME_DIMS
100
AcDbBlockBegin
 62
7
  6
CONTINUOUS
  2
*D3
 70
65
 10
0.0
 20
0.0
  3
*D3
  1

  0
MTEXT
  5
23A
100
AcDbEntity
  8
SCHEME_DIMS
100
AcDbMText
 62
7
  6
CONTINUOUS
  7
STANDARD
 71
2
 72
1
 10
7.0533808227
 20
8.1006037027
 30
0.0
 11
1.0
 21
0.0
 31
0.0
 44
0.9
  1
48.0\P[1.89]
 40
0.1
 41
0.6
  0
LINE
  5
23B
100
AcDbEntity
  8
SCHEME_DIMS
100
AcDbLine
 62
7
  6
CONTINUOUS
 10
6.2084773331
 20
6.2119656817
 11
6.2084773331
 21
8.1756037027
  0
LINE
  5
23C
100
AcDbEntity
  8
SCHEME_DIMS
100
AcDbLine
 62
7
  6
CONTINUOUS
 10
8.0982843122
 20
5.97900374
 11
8.0982843122
 21
8.1756037027
  0
LINE
  5
23D
100
AcDbEntity
  8
SCHEME_DIMS
100
AcDbLine
 62
7
  6
CONTINUOUS
 10
6.2084773331
 20
8.0506037027
 11
6.7533808227
 21
8.0506037027
  0
LINE
  5
23E
100
AcDbEntity
  8
SCHEME_DIMS
100
AcDbLine
 62
7
  6
CONTINUOUS
 10
8.0982843122
 20
8.0506037027
 11
7.5533808227
 21
8.0506037027
  0
INSERT
  5
23F
100
AcDbEntity
  8
SCHEME_DIMS
100
AcDbBlockReference
 62
7
  6
CONTINUOUS
  2
_FILLED
 10
6.2084773331
 20
8.0506037027
 41
0.1875
 42
0.1875
 43
0.1875
 50
180.0
  0
INSERT
  5
240
100
AcDbEntity
  8
SCHEME_DIMS
100
AcDbBlockReference
 62
7
  6
CONTINUOUS
  2
_FILLED
 10
8.0982843122
 20
8.0506037027
 41
0.1875
 42
0.1875
 43
0.1875
  0
ENDBLK
  5
241
100
AcDbEntity
  8
0
  6
BYBLOCK
 62
0
100
AcDbBlockEnd
  0
BLOCK
  5
242
100
AcDbEntity
  8
0
100
AcDbBlockBegin
  2
*T1
 70
1
 10
0.0
 20
0.0
  3
*T1
  1

  0
LINE
  5
243
100
AcDbEntity
  8
0
100
AcDbLine
 62
7
  6
CONTINUOUS
 10
4.35
 20
0.0
 11
0.0
 21
0.0
  0
LINE
  5
244
100
AcDbEntity
  8
0
100
AcDbLine
 62
7
  6
CONTINUOUS
 10
4.35
 20
0.0
 11
4.35
 21
1.92
  0
LINE
  5
245
100
AcDbEntity
  8
0
100
AcDbLine
 62
7
  6
CONTINUOUS
 10
4.35
 20
1.92
 11
0.0
 21
1.92
  0
LINE
  5
246
100
AcDbEntity
  8
0
100
AcDbLine
 62
7
  6
CONTINUOUS
 10
0.0
 20
0.0
 11
0.0
 21
1.92
  0
MTEXT
  5
247
100
AcDbEntity
  8
NOTES
100
AcDbMText
 62
7
  6
CONTINUOUS
  7
STANDARD
 71
2
 72
1
 10
4.125
 20
0.48
 30
0.0
 11
1.0
 21
0.0
 31
0.0
 44
0.9
  1
B
 40
0.1
 41
0.2
  0
MTEXT
  5
248
100
AcDbEntity
  8
NOTES
100
AcDbMText
 62
7
  6
CONTINUOUS
  7
STANDARD
 71
2
 72
1
 10
2.175
 20
0.93
 30
0.0
 11
1.0
 21
0.0
 31
0.0
 44
0.9
  1
K50C_T WEB QD 
 40
0.1
 41
2.8
  0
ENDBLK
  5
249
100
AcDbEntity
  8
0
  6
BYBLOCK
 62
0
100
AcDbBlockEnd
  0
ENDSEC
  0
SECTION
  2
ENTITIES
  0
MTEXT
  5
24A
100
AcDbEntity
  8
0
100
AcDbMText
 62
7
  6
CONTINUOUS
  7
TEXTSTYLE_2
 71
2
 72
1
 10
11.0287658475
 20
1.794867839
 30
0.0
 11
1.0
 21
0.0
 31
0.0
 44
0.9
  1
THIRD ANGLE PROJECTION
 40
0.1
 41
1.76
  0
MTEXT
  5
24B
100
AcDbEntity
  8
0
100
AcDbMText
 62
7
  6
CONTINUOUS
  7
STANDARD
 71
1
 72
1
 10
12.88
 20
1.457
 30
0.0
 11
1.0
 21
0.0
 31
0.0
 44
0.9
  1
DRAWING NO.
 40
0.08
 41
0.88
  0
MTEXT
  5
24C
100
AcDbEntity
  8
0
100
AcDbMText
 62
7
  6
CONTINUOUS
  7
TEXTSTYLE_2
 71
1
 72
1
 10
12.08
 20
2.217
 30
0.0
 11
1.0
 21
0.0
 31
0.0
 44
0.9
  1
TITLE
 40
0.1
 41
0.4
  0
MTEXT
  5
24D
100
AcDbEntity
  8
0
100
AcDbMText
 62
7
  6
CONTINUOUS
  7
STANDARD
 71
1
 72
1
 10
12.08
 20
1.457
 30
0.0
 11
1.0
 21
0.0
 31
0.0
 44
0.9
  1
SIZE
 40
0.08
 41
0.32
  0
MTEXT
  5
24E
100
AcDbEntity
  8
0
100
AcDbMText
 62
7
  6
CONTINUOUS
  7
STANDARD
 71
1
 72
1
 10
12.08
 20
1.087
 30
0.0
 11
1.0
 21
0.0
 31
0.0
 44
0.9
  1
SCALE
 40
0.08
 41
0.4
  0
MTEXT
  5
24F
100
AcDbEntity
  8
0
100
AcDbMText
 62
7
  6
CONTINUOUS
  7
TEXTSTYLE_2
 71
2
 72
1
 10
12.5
 20
1.337
 30
0.0
 11
1.0
 21
0.0
 31
0.0
 44
0.9
  1
B
 40
0.1
 41
0.08
  0
MTEXT
  5
250
100
AcDbEntity
  8
0
100
AcDbMText
 62
7
  6
CONTINUOUS
  7
TEXTSTYLE_3
 71
2
 72
1
 10
11.0340287086
 20
2.7679425959
 30
0.0
 11
1.0
 21
0.0
 31
0.0
 44
0.9
  1
This drawing is the property\Pof BANNER ENGINEERING CORP.\PAny use or reproduction,\Pin any form, without prior\Pwritten permission of\PBanner is prohibited.
 40
0.08
 41
1.904
  0
MTEXT
  5
251
100
AcDbEntity
  8
0
100
AcDbMText
 62
7
  6
CONTINUOUS
  7
STANDARD
 71
1
 72
1
 10
14.255
 20
1.087
 30
0.0
 11
1.0
 21
0.0
 31
0.0
 44
0.9
  1
SHEET
 40
0.08
 41
0.4
  0
MTEXT
  5
252
100
AcDbEntity
  8
0
100
AcDbMText
 62
7
  6
CONTINUOUS
  7
STANDARD
 71
1
 72
1
 10
15.63
 20
1.457
 30
0.0
 11
1.0
 21
0.0
 31
0.0
 44
0.9
  1
REV.
 40
0.08
 41
0.32
  0
MTEXT
  5
253
100
AcDbEntity
  8
0
100
AcDbMText
 62
7
  6
CONTINUOUS
  7
STANDARD
 71
3
 72
1
 10
16.38
 20
0.835443
 30
0.0
 11
1.0
 21
0.0
 31
0.0
 44
0.9
  1
CREO
 40
0.07
 41
0.28
  0
MTEXT
  5
254
100
AcDbEntity
  8
0
100
AcDbMText
 62
7
  6
CONTINUOUS
  7
TEXTSTYLE_4
 71
2
 72
1
 10
15.1043392653
 20
2.7174764286
 30
0.0
 11
1.0
 21
0.0
 31
0.0
 44
0.9
  1
BANNER ENGINEERING CORP.
 40
0.12
 41
2.592
  0
MTEXT
  5
255
100
AcDbEntity
  8
0
100
AcDbMText
 62
7
  6
CONTINUOUS
  7
TEXTSTYLE_2
 71
2
 72
1
 10
15.0923490612
 20
2.4764783673
 30
0.0
 11
1.0
 21
0.0
 31
0.0
 44
0.9
  1
www.bannerengineering.com
 40
0.1
 41
2.0
  0
MTEXT
  5
256
100
AcDbEntity
  8
0
100
AcDbMText
 62
7
  6
CONTINUOUS
  7
TEXTSTYLE_2
 71
2
 72
1
 10
9.485
 20
10.312
 30
0.0
 11
1.0
 21
0.0
 31
0.0
 44
0.9
  1
4
 40
0.1
 41
0.08
  0
MTEXT
  5
257
100
AcDbEntity
  8
0
100
AcDbMText
 62
7
  6
CONTINUOUS
  7
TEXTSTYLE_2
 71
2
 72
1
 10
11.455
 20
10.312
 30
0.0
 11
1.0
 21
0.0
 31
0.0
 44
0.9
  1
3
 40
0.1
 41
0.08
  0
MTEXT
  5
258
100
AcDbEntity
  8
0
100
AcDbMText
 62
7
  6
CONTINUOUS
  7
TEXTSTYLE_2
 71
2
 72
1
 10
13.425
 20
10.312
 30
0.0
 11
1.0
 21
0.0
 31
0.0
 44
0.9
  1
2
 40
0.1
 41
0.08
  0
MTEXT
  5
259
100
AcDbEntity
  8
0
100
AcDbMText
 62
7
  6
CONTINUOUS
  7
TEXTSTYLE_2
 71
2
 72
1
 10
15.395
 20
10.312
 30
0.0
 11
1.0
 21
0.0
 31
0.0
 44
0.9
  1
1
 40
0.1
 41
0.08
  0
MTEXT
  5
25A
100
AcDbEntity
  8
0
100
AcDbMText
 62
7
  6
CONTINUOUS
  7
TEXTSTYLE_2
 71
2
 72
1
 10
3.575
 20
10.312
 30
0.0
 11
1.0
 21
0.0
 31
0.0
 44
0.9
  1
7
 40
0.1
 41
0.08
  0
MTEXT
  5
25B
100
AcDbEntity
  8
0
100
AcDbMText
 62
7
  6
CONTINUOUS
  7
TEXTSTYLE_2
 71
2
 72
1
 10
5.545
 20
10.312
 30
0.0
 11
1.0
 21
0.0
 31
0.0
 44
0.9
  1
6
 40
0.1
 41
0.08
  0
MTEXT
  5
25C
100
AcDbEntity
  8
0
100
AcDbMText
 62
7
  6
CONTINUOUS
  7
TEXTSTYLE_2
 71
2
 72
1
 10
7.515
 20
10.312
 30
0.0
 11
1.0
 21
0.0
 31
0.0
 44
0.9
  1
5
 40
0.1
 41
0.08
  0
MTEXT
  5
25D
100
AcDbEntity
  8
0
100
AcDbMText
 62
7
  6
CONTINUOUS
  7
TEXTSTYLE_2
 71
2
 72
1
 10
1.605
 20
10.312
 30
0.0
 11
1.0
 21
0.0
 31
0.0
 44
0.9
  1
8
 40
0.1
 41
0.08
  0
MTEXT
  5
25E
100
AcDbEntity
  8
0
100
AcDbMText
 62
7
  6
CONTINUOUS
  7
TEXTSTYLE_2
 71
2
 72
1
 10
1.605
 20
0.787
 30
0.0
 11
1.0
 21
0.0
 31
0.0
 44
0.9
  1
8
 40
0.1
 41
0.08
  0
MTEXT
  5
25F
100
AcDbEntity
  8
0
100
AcDbMText
 62
7
  6
CONTINUOUS
  7
TEXTSTYLE_2
 71
2
 72
1
 10
3.575
 20
0.787
 30
0.0
 11
1.0
 21
0.0
 31
0.0
 44
0.9
  1
7
 40
0.1
 41
0.08
  0
MTEXT
  5
260
100
AcDbEntity
  8
0
100
AcDbMText
 62
7
  6
CONTINUOUS
  7
TEXTSTYLE_2
 71
2
 72
1
 10
5.545
 20
0.787
 30
0.0
 11
1.0
 21
0.0
 31
0.0
 44
0.9
  1
6
 40
0.1
 41
0.08
  0
MTEXT
  5
261
100
AcDbEntity
  8
0
100
AcDbMText
 62
7
  6
CONTINUOUS
  7
TEXTSTYLE_2
 71
2
 72
1
 10
7.515
 20
0.787
 30
0.0
 11
1.0
 21
0.0
 31
0.0
 44
0.9
  1
5
 40
0.1
 41
0.08
  0
MTEXT
  5
262
100
AcDbEntity
  8
0
100
AcDbMText
 62
7
  6
CONTINUOUS
  7
TEXTSTYLE_2
 71
2
 72
1
 10
9.485
 20
0.787
 30
0.0
 11
1.0
 21
0.0
 31
0.0
 44
0.9
  1
4
 40
0.1
 41
0.08
  0
MTEXT
  5
263
100
AcDbEntity
  8
0
100
AcDbMText
 62
7
  6
CONTINUOUS
  7
TEXTSTYLE_2
 71
2
 72
1
 10
11.455
 20
0.787
 30
0.0
 11
1.0
 21
0.0
 31
0.0
 44
0.9
  1
3
 40
0.1
 41
0.08
  0
MTEXT
  5
264
100
AcDbEntity
  8
0
100
AcDbMText
 62
7
  6
CONTINUOUS
  7
TEXTSTYLE_2
 71
2
 72
1
 10
13.425
 20
0.787
 30
0.0
 11
1.0
 21
0.0
 31
0.0
 44
0.9
  1
2
 40
0.1
 41
0.08
  0
MTEXT
  5
265
100
AcDbEntity
  8
0
100
AcDbMText
 62
7
  6
CONTINUOUS
  7
TEXTSTYLE_2
 71
2
 72
1
 10
15.395
 20
0.787
 30
0.0
 11
1.0
 21
0.0
 31
0.0
 44
0.9
  1
1
 40
0.1
 41
0.08
  0
MTEXT
  5
266
100
AcDbEntity
  8
0
100
AcDbMText
 62
7
  6
CONTINUOUS
  7
TEXTSTYLE_2
 71
3
 72
1
 10
0.52
 20
4.3995
 30
0.0
 11
1.0
 21
0.0
 31
0.0
 44
0.9
  1
B
 40
0.1
 41
0.08
  0
MTEXT
  5
267
100
AcDbEntity
  8
0
100
AcDbMText
 62
7
  6
CONTINUOUS
  7
TEXTSTYLE_2
 71
3
 72
1
 10
0.52
 20
2.0995
 30
0.0
 11
1.0
 21
0.0
 31
0.0
 44
0.9
  1
A
 40
0.1
 41
0.08
  0
MTEXT
  5
268
100
AcDbEntity
  8
0
100
AcDbMText
 62
7
  6
CONTINUOUS
  7
TEXTSTYLE_2
 71
3
 72
1
 10
0.52
 20
8.9995
 30
0.0
 11
1.0
 21
0.0
 31
0.0
 44
0.9
  1
D
 40
0.1
 41
0.08
  0
MTEXT
  5
269
100
AcDbEntity
  8
0
100
AcDbMText
 62
7
  6
CONTINUOUS
  7
TEXTSTYLE_2
 71
3
 72
1
 10
0.52
 20
6.6995
 30
0.0
 11
1.0
 21
0.0
 31
0.0
 44
0.9
  1
C
 40
0.1
 41
0.08
  0
MTEXT
  5
26A
100
AcDbEntity
  8
0
100
AcDbMText
 62
7
  6
CONTINUOUS
  7
TEXTSTYLE_2
 71
1
 72
1
 10
16.48
 20
8.9995
 30
0.0
 11
1.0
 21
0.0
 31
0.0
 44
0.9
  1
D
 40
0.1
 41
0.08
  0
MTEXT
  5
26B
100
AcDbEntity
  8
0
100
AcDbMText
 62
7
  6
CONTINUOUS
  7
TEXTSTYLE_2
 71
1
 72
1
 10
16.48
 20
6.6995
 30
0.0
 11
1.0
 21
0.0
 31
0.0
 44
0.9
  1
C
 40
0.1
 41
0.08
  0
MTEXT
  5
26C
100
AcDbEntity
  8
0
100
AcDbMText
 62
7
  6
CONTINUOUS
  7
TEXTSTYLE_2
 71
1
 72
1
 10
16.48
 20
4.3995
 30
0.0
 11
1.0
 21
0.0
 31
0.0
 44
0.9
  1
B
 40
0.1
 41
0.08
  0
MTEXT
  5
26D
100
AcDbEntity
  8
0
100
AcDbMText
 62
7
  6
CONTINUOUS
  7
TEXTSTYLE_2
 71
1
 72
1
 10
16.48
 20
2.0995
 30
0.0
 11
1.0
 21
0.0
 31
0.0
 44
0.9
  1
A
 40
0.1
 41
0.08
  0
MTEXT
  5
26E
100
AcDbEntity
  8
0
100
AcDbMText
 62
7
  6
CONTINUOUS
  7
STANDARD
 71
1
 72
1
 10
14.819264911
 20
1.0627941725
 30
0.0
 11
1.0
 21
0.0
 31
0.0
 44
0.9
  1
1 OF 1
 40
0.1
 41
0.6
  0
MTEXT
  5
26F
100
AcDbEntity
  8
0
100
AcDbMText
 62
7
  6
CONTINUOUS
  7
STANDARD
 71
1
 72
1
 10
13.8911999818
 20
1.3747321586
 30
0.0
 11
1.0
 21
0.0
 31
0.0
 44
0.9
  1
200856
 40
0.12
 41
0.72
  0
MTEXT
  5
270
100
AcDbEntity
  8
0
100
AcDbMText
 62
7
  6
CONTINUOUS
  7
STANDARD
 71
1
 72
1
 10
12.644264911
 20
1.0627941725
 30
0.0
 11
1.0
 21
0.0
 31
0.0
 44
0.9
  1
1:1
 40
0.1
 41
0.3
  0
MTEXT
  5
271
100
AcDbEntity
  8
0
100
AcDbMText
 62
7
  6
CONTINUOUS
  7
STANDARD
 71
1
 72
1
 10
0.8489354566
 20
1.4938330621
 30
0.0
 11
1.0
 21
0.0
 31
0.0
 44
0.9
  1
NOTES:\P1. ALL DIMENSIONS ARE MILLIMETERS [INCHES] UNLESS OTHERWISE NOTED.\P2. REFER TO "www.bannerengineering.com" FOR ADDITIONAL DATA AND SPECIFICATIONS.
 40
0.1
 41
7.9
  0
MTEXT
  5
272
100
AcDbEntity
  8
0
100
AcDbMText
 62
7
  6
CONTINUOUS
  7
TEXTSTYLE_5
 71
2
 72
1
 10
11.0519651892
 20
2.0334024775
 30
0.0
 11
1.0
 21
0.0
 31
0.0
 44
0.9
  1
C  2015 Banner Engineering Corp.
 40
0.08
 41
1.92
  0
DIMENSION
  5
273
100
AcDbEntity
  8
SCHEME_DIMS
100
AcDbDimension
 62
7
  6
CONTINUOUS
  2
*D0
 10
3.6669689264
 20
4.9640049268
 11
4.5945529281
 21
4.5245893854
 70
163
 71
1
 42
50.0
  1
%%c<>\P[]
  3
DIMSTYLE_1
100
AcDbDiametricDimension
 15
2.3892953953
 25
6.4615222383
  0
DIMENSION
  5
274
100
AcDbEntity
  8
SCHEME_DIMS
100
AcDbDimension
 62
7
  6
CONTINUOUS
  2
*D1
 10
6.8778118712
 20
7.1970155511
 11
6.5431446022
 21
7.1220155511
 70
160
 71
2
 42
17.0010972682
  1
<>\P[]
  3
DIMSTYLE_2
100
AcDbAlignedDimension
 13
6.2084773331
 23
6.5486467355
 14
6.8778118712
 24
6.6576454631
100
AcDbRotatedDimension
  0
DIMENSION
  5
275
100
AcDbEntity
  8
SCHEME_DIMS
100
AcDbDimension
 62
7
  6
CONTINUOUS
  2
*D2
 10
7.665213446
 20
7.6335488703
 11
6.9368453896
 21
7.5585488703
 70
160
 71
2
 42
37.0010972682
  1
<>\P[]
  3
DIMSTYLE_2
100
AcDbAlignedDimension
 13
6.2084773331
 23
6.0541388628
 14
7.665213446
 24
6.2147320865
100
AcDbRotatedDimension
  0
DIMENSION
  5
276
100
AcDbEntity
  8
SCHEME_DIMS
100
AcDbDimension
 62
7
  6
CONTINUOUS
  2
*D3
 10
8.0982843122
 20
8.0506037027
 11
7.1533808227
 21
7.9756037027
 70
160
 71
2
 42
48.0010972682
  1
<>\P[]
  3
DIMSTYLE_2
100
AcDbAlignedDimension
 13
6.2084773331
 23
6.1494656817
 14
8.0982843122
 24
5.91650374
100
AcDbRotatedDimension
  0
ACAD_TABLE
  5
277
100
AcDbEntity
  8
0
 62
7
  6
CONTINUOUS
100
AcDbBlockReference
  2
*T1
 10
12.03
 20
0.887
 30
0.0
100
AcDbTable
342
       62C
343
21A
 11
1.0
 21
0.0
 31
0.0
 90
6
 91
3
 92
5
 93
4
 94
0
 95
0
 96
0
 70
1
141
0.33
141
0.45
141
1.14
142
0.65
142
1.15
142
1.025
142
1.075
142
0.45
171
1
172
0
173
0
174
0
175
1
176
1
 91
33
178
0
145
0.0
301
CELL_VALUE
 90
4
  1
 
304
ACVALUE_END
170
1
140
0.1
171
1
172
0
173
0
174
0
175
1
176
1
 91
33
178
0
145
0.0
301
CELL_VALUE
 90
4
  1
 
304
ACVALUE_END
170
1
140
0.1
171
1
172
0
173
0
174
0
175
1
176
1
 91
33
178
0
145
0.0
301
CELL_VALUE
 90
4
  1
 
304
ACVALUE_END
170
1
140
0.1
171
1
172
0
173
0
174
0
175
1
176
1
 91
33
178
0
145
0.0
301
CELL_VALUE
 90
4
  1
 
304
ACVALUE_END
170
1
140
0.1
171
1
172
0
173
0
174
0
175
1
176
1
 91
33
178
0
145
0.0
301
CELL_VALUE
 90
4
  1
 
304
ACVALUE_END
170
1
140
0.1
171
1
172
0
173
0
174
0
175
1
176
1
 91
33
178
0
145
0.0
301
CELL_VALUE
 90
4
  1
 
304
ACVALUE_END
170
1
140
0.1
171
1
172
0
173
0
174
0
175
1
176
1
 91
33
178
0
145
0.0
301
CELL_VALUE
 90
4
  1
 
304
ACVALUE_END
170
1
140
0.1
171
1
172
0
173
0
174
0
175
1
176
1
 91
33
178
0
145
0.0
301
CELL_VALUE
 90
4
  1
 
304
ACVALUE_END
170
1
140
0.1
171
1
172
0
173
0
174
0
175
1
176
1
 91
33
178
0
145
0.0
301
CELL_VALUE
 90
4
  1
 
304
ACVALUE_END
170
1
140
0.1
171
1
172
0
173
0
174
0
175
1
176
1
 91
41
178
0
145
0.0
301
CELL_VALUE
 90
4
  1
B
304
ACVALUE_END
170
8
140
0.1
 64
7
171
1
172
0
173
0
174
0
175
5
176
1
 91
33
178
0
145
0.0
301
CELL_VALUE
 90
4
  1
K50C_T WEB QD 
304
ACVALUE_END
170
8
140
0.1
171
1
172
0
173
1
174
0
175
1
176
1
 91
1
178
0
145
0.0
170
1
171
1
172
0
173
1
174
0
175
1
176
1
 91
1
178
0
145
0.0
170
1
171
1
172
0
173
1
174
0
175
1
176
1
 91
1
178
0
145
0.0
170
1
171
1
172
0
173
1
174
0
175
1
176
1
 91
1
178
0
145
0.0
170
8
  0
LEADER
  5
278
100
AcDbEntity
  8
NOTES
100
AcDbLeader
 62
7
  6
CONTINUOUS
  3
STANDARD
 71
1
 72
0
 73
0
 75
0
 40
0.1
 41
0.9
 76
3
 10
7.3797544094
 20
5.1714249999
 30
0.0
 10
7.6814780469
 20
4.6322842637
 30
0.0
 10
7.9314780469
 20
4.6322842637
 30
0.0
340
279
1001
ACAD
1000
DSTYLE
1002
{
1070
77
1070
0
1002
}
  0
MTEXT
  5
279
102
{ACAD_REACTORS
330
278
102
}
100
AcDbEntity
  8
NOTES
100
AcDbMText
 62
7
  6
CONTINUOUS
  7
STANDARD
 71
1
 72
1
 10
7.9314780469
 20
4.6822842637
 30
0.0
 11
1.0
 21
0.0
 31
0.0
 44
0.9
  1
M30 X 1.5
 40
0.1
 41
0.9
  0
LEADER
  5
27A
100
AcDbEntity
  8
NOTES
100
AcDbLeader
 62
7
  6
CONTINUOUS
  3
STANDARD
 71
1
 72
0
 73
0
 75
0
 40
0.1
 41
0.7
 76
3
 10
7.8994567118
 20
5.480552498
 30
0.0
 10
8.1344919934
 20
5.0518547967
 30
0.0
 10
8.3844919934
 20
5.0518547967
 30
0.0
340
27B
1001
ACAD
1000
DSTYLE
1002
{
1070
77
1070
0
1002
}
  0
MTEXT
  5
27B
102
{ACAD_REACTORS
330
27A
102
}
100
AcDbEntity
  8
NOTES
100
AcDbMText
 62
7
  6
CONTINUOUS
  7
STANDARD
 71
1
 72
1
 10
8.3844919934
 20
5.1018547967
 30
0.0
 11
1.0
 21
0.0
 31
0.0
 44
0.9
  1
M12 X 1
 40
0.1
 41
0.7
  0
LEADER
  5
27C
100
AcDbEntity
  8
NOTES
100
AcDbLeader
 62
7
  6
CONTINUOUS
  3
STANDARD
 71
1
 72
0
 73
0
 75
0
 40
0.1
 41
1.1
 76
3
 10
11.5086649334
 20
5.9195109525
 30
0.0
 10
12.2084041158
 20
6.560423253
 30
0.0
 10
12.4584041158
 20
6.560423253
 30
0.0
340
27D
1001
ACAD
1000
DSTYLE
1002
{
1070
77
1070
0
1002
}
  0
MTEXT
  5
27D
102
{ACAD_REACTORS
330
27C
102
}
100
AcDbEntity
  8
NOTES
100
AcDbMText
 62
7
  6
CONTINUOUS
  7
STANDARD
 71
1
 72
1
 10
12.4584041158
 20
6.610423253
 30
0.0
 11
1.0
 21
0.0
 31
0.0
 44
0.9
  1
1/2-14 NPSM\PINTERNAL THREAD
 40
0.1
 41
1.5
  0
MTEXT
  5
27E
100
AcDbEntity
  8
NOTES
100
AcDbMText
 62
7
  6
CONTINUOUS
  7
STANDARD
 71
2
 72
1
 10
14.8428339199
 20
7.174463863
 30
0.0
 11
1.0
 21
0.0
 31
0.0
 44
0.9
  1
ISOMETRIC VIEW\P\H0.1;SCALE  1:1
 40
0.125
 41
1.75
  0
LINE
  5
27F
100
AcDbEntity
  8
0
100
AcDbLine
 62
7
  6
CONTINUOUS
 10
0.47
 20
5.586103
 11
0.47
 21
5.412897
  0
LINE
  5
280
100
AcDbEntity
  8
0
100
AcDbLine
 62
7
  6
CONTINUOUS
 10
0.62
 20
10.112
 11
0.62
 21
0.887
  0
LINE
  5
281
100
AcDbEntity
  8
0
100
AcDbLine
 62
7
  6
CONTINUOUS
 10
2.59
 20
0.887
 11
2.59
 21
0.637
  0
LINE
  5
282
100
AcDbEntity
  8
0
100
AcDbLine
 62
7
  6
CONTINUOUS
 10
2.59
 20
10.112
 11
2.59
 21
10.362
  0
LINE
  5
283
100
AcDbEntity
  8
0
100
AcDbLine
 62
7
  6
CONTINUOUS
 10
8.413397
 20
0.737
 11
8.586603
 21
0.737
  0
LINE
  5
284
100
AcDbEntity
  8
0
100
AcDbLine
 62
7
  6
CONTINUOUS
 10
11.1389508475
 20
1.425992839
 11
11.7453418475
 21
1.495385839
  0
LINE
  5
285
100
AcDbEntity
  8
0
100
AcDbLine
 62
7
  6
CONTINUOUS
 10
0.62
 20
0.887
 11
16.38
 21
0.887
  0
LINE
  5
286
100
AcDbEntity
  8
0
100
AcDbLine
 62
7
  6
CONTINUOUS
 10
12.03
 20
1.137
 11
16.38
 21
1.137
  0
LINE
  5
287
100
AcDbEntity
  8
0
100
AcDbLine
 62
7
  6
CONTINUOUS
 10
10.2121898475
 20
1.243294839
 11
10.4342808475
 21
1.243294839
  0
LINE
  5
288
100
AcDbEntity
  8
0
100
AcDbLine
 62
7
  6
CONTINUOUS
 10
10.4842808475
 20
1.243294839
 11
10.5842808475
 21
1.243294839
  0
LINE
  5
289
100
AcDbEntity
  8
0
100
AcDbLine
 62
7
  6
CONTINUOUS
 10
10.6342808475
 20
1.243294839
 11
10.8563718475
 21
1.243294839
  0
LINE
  5
28A
100
AcDbEntity
  8
0
100
AcDbLine
 62
7
  6
CONTINUOUS
 10
11.0389508475
 20
1.243294839
 11
11.3171028475
 21
1.243294839
  0
LINE
  5
28B
100
AcDbEntity
  8
0
100
AcDbLine
 62
7
  6
CONTINUOUS
 10
11.3671028475
 20
1.243294839
 11
11.5171888475
 21
1.243294839
  0
LINE
  5
28C
100
AcDbEntity
  8
0
100
AcDbLine
 62
7
  6
CONTINUOUS
 10
11.5671888475
 20
1.243294839
 11
11.8453418475
 21
1.243294839
  0
LINE
  5
28D
100
AcDbEntity
  8
0
100
AcDbLine
 62
7
  6
CONTINUOUS
 10
11.7453418475
 20
0.991203839
 11
11.1389508475
 21
1.060596839
  0
LINE
  5
28E
100
AcDbEntity
  8
0
100
AcDbLine
 62
7
  6
CONTINUOUS
 10
4.56
 20
0.887
 11
4.56
 21
0.637
  0
LINE
  5
28F
100
AcDbEntity
  8
0
100
AcDbLine
 62
7
  6
CONTINUOUS
 10
4.56
 20
10.112
 11
4.56
 21
10.362
  0
LINE
  5
290
100
AcDbEntity
  8
0
100
AcDbLine
 62
7
  6
CONTINUOUS
 10
0.47
 20
5.412897
 11
0.62
 21
5.4995
  0
LINE
  5
291
100
AcDbEntity
  8
0
100
AcDbLine
 62
7
  6
CONTINUOUS
 10
12.03
 20
1.507
 11
16.38
 21
1.507
  0
LINE
  5
292
100
AcDbEntity
  8
0
100
AcDbLine
 62
7
  6
CONTINUOUS
 10
10.03
 20
1.907
 11
12.03
 21
1.907
  0
LINE
  5
293
100
AcDbEntity
  8
0
100
AcDbLine
 62
7
  6
CONTINUOUS
 10
0.62
 20
5.4995
 11
0.47
 21
5.586103
  0
LINE
  5
294
100
AcDbEntity
  8
0
100
AcDbLine
 62
7
  6
CONTINUOUS
 10
12.03
 20
2.267
 11
16.38
 21
2.267
  0
LINE
  5
295
100
AcDbEntity
  8
0
100
AcDbLine
 62
7
  6
CONTINUOUS
 10
13.6042588488
 20
2.4912273132
 11
13.5568948225
 21
2.4912273132
  0
LINE
  5
296
100
AcDbEntity
  8
0
100
AcDbLine
 62
7
  6
CONTINUOUS
 10
13.5130037982
 20
2.4912273132
 11
13.3994327352
 21
2.4912273132
  0
LINE
  5
297
100
AcDbEntity
  8
0
100
AcDbLine
 62
7
  6
CONTINUOUS
 10
13.3705287192
 20
2.4912273132
 11
13.1673166065
 21
2.4912273132
  0
LINE
  5
298
100
AcDbEntity
  8
0
100
AcDbLine
 62
7
  6
CONTINUOUS
 10
13.1168435785
 20
2.4912273132
 11
13.0426375373
 21
2.4912273132
  0
LINE
  5
299
100
AcDbEntity
  8
0
100
AcDbLine
 62
7
  6
CONTINUOUS
 10
12.9962575116
 20
2.4912273132
 11
12.9205934696
 21
2.4912273132
  0
LINE
  5
29A
100
AcDbEntity
  8
0
100
AcDbLine
 62
7
  6
CONTINUOUS
 10
12.8685904408
 20
2.4912273132
 11
12.7943853997
 21
2.4912273132
  0
LINE
  5
29B
100
AcDbEntity
  8
0
100
AcDbLine
 62
7
  6
CONTINUOUS
 10
12.7480043739
 20
2.4912273132
 11
12.672340332
 21
2.4912273132
  0
LINE
  5
29C
100
AcDbEntity
  8
0
100
AcDbLine
 62
7
  6
CONTINUOUS
 10
12.2055050731
 20
2.4912273132
 11
12.3819511709
 21
2.4912273132
  0
LINE
  5
29D
100
AcDbEntity
  8
0
100
AcDbLine
 62
7
  6
CONTINUOUS
 10
12.4394882028
 20
2.4912273132
 11
12.5168642458
 21
2.4912273132
  0
LINE
  5
29E
100
AcDbEntity
  8
0
100
AcDbLine
 62
7
  6
CONTINUOUS
 10
12.537150257
 20
2.4912273132
 11
12.6424313154
 21
2.4912273132
  0
LINE
  5
29F
100
AcDbEntity
  8
0
100
AcDbLine
 62
7
  6
CONTINUOUS
 10
13.4883447845
 20
2.5159553269
 11
13.5130037982
 21
2.5159553269
  0
LINE
  5
2A0
100
AcDbEntity
  8
0
100
AcDbLine
 62
7
  6
CONTINUOUS
 10
12.6424313154
 20
2.515977327
 11
12.6224153043
 21
2.515977327
  0
LINE
  5
2A1
100
AcDbEntity
  8
0
100
AcDbLine
 62
7
  6
CONTINUOUS
 10
12.551601265
 20
2.515977327
 11
12.537150257
 21
2.515977327
  0
LINE
  5
2A2
100
AcDbEntity
  8
0
100
AcDbLine
 62
7
  6
CONTINUOUS
 10
12.5168642458
 20
2.515977327
 11
12.5055812395
 21
2.515977327
  0
LINE
  5
2A3
100
AcDbEntity
  8
0
100
AcDbLine
 62
7
  6
CONTINUOUS
 10
12.4623492155
 20
2.515977327
 11
12.4394882028
 21
2.515977327
  0
LINE
  5
2A4
100
AcDbEntity
  8
0
100
AcDbLine
 62
7
  6
CONTINUOUS
 10
12.3362731456
 20
2.515977327
 11
12.2949101227
 21
2.515977327
  0
LINE
  5
2A5
100
AcDbEntity
  8
0
100
AcDbLine
 62
7
  6
CONTINUOUS
 10
12.2294470864
 20
2.515977327
 11
12.2055050731
 21
2.515977327
  0
LINE
  5
2A6
100
AcDbEntity
  8
0
100
AcDbLine
 62
7
  6
CONTINUOUS
 10
12.672340332
 20
2.515977327
 11
12.6909873423
 21
2.515977327
  0
LINE
  5
2A7
100
AcDbEntity
  8
0
100
AcDbLine
 62
7
  6
CONTINUOUS
 10
12.7276873627
 20
2.515977327
 11
12.7480043739
 21
2.515977327
  0
LINE
  5
2A8
100
AcDbEntity
  8
0
100
AcDbLine
 62
7
  6
CONTINUOUS
 10
12.9205934696
 20
2.515977327
 11
12.93923948
 21
2.515977327
  0
LINE
  5
2A9
100
AcDbEntity
  8
0
100
AcDbLine
 62
7
  6
CONTINUOUS
 10
12.9759405003
 20
2.515977327
 11
12.9962575116
 21
2.515977327
  0
LINE
  5
2AA
100
AcDbEntity
  8
0
100
AcDbLine
 62
7
  6
CONTINUOUS
 10
13.1673166065
 20
2.515977327
 11
13.1912396197
 21
2.515977327
  0
LINE
  5
2AB
100
AcDbEntity
  8
0
100
AcDbLine
 62
7
  6
CONTINUOUS
 10
13.2582556569
 20
2.515977327
 11
13.3232596929
 21
2.515977327
  0
LINE
  5
2AC
100
AcDbEntity
  8
0
100
AcDbLine
 62
7
  6
CONTINUOUS
 10
13.3994327352
 20
2.515977327
 11
13.4221787478
 21
2.515977327
  0
LINE
  5
2AD
100
AcDbEntity
  8
0
100
AcDbLine
 62
7
  6
CONTINUOUS
 10
13.6052818493
 20
2.5163643272
 11
13.60639085
 21
2.5163643272
  0
LINE
  5
2AE
100
AcDbEntity
  8
0
100
AcDbLine
 62
7
  6
CONTINUOUS
 10
13.3282096957
 20
2.5291773343
 11
13.3705287192
 21
2.5291773343
  0
LINE
  5
2AF
100
AcDbEntity
  8
0
100
AcDbLine
 62
7
  6
CONTINUOUS
 10
12.5110972426
 20
2.5296213345
 11
12.5459752619
 21
2.5296213345
  0
LINE
  5
2B0
100
AcDbEntity
  8
0
100
AcDbLine
 62
7
  6
CONTINUOUS
 10
13.6171458559
 20
2.5301143348
 11
13.6292558626
 21
2.5301143348
  0
LINE
  5
2B1
100
AcDbEntity
  8
0
100
AcDbLine
 62
7
  6
CONTINUOUS
 10
13.5159517998
 20
2.5306043351
 11
13.4883447845
 21
2.5306043351
  0
LINE
  5
2B2
100
AcDbEntity
  8
0
100
AcDbLine
 62
7
  6
CONTINUOUS
 10
13.2934226764
 20
2.5324773361
 11
13.2582556569
 21
2.5324773361
  0
LINE
  5
2B3
100
AcDbEntity
  8
0
100
AcDbLine
 62
7
  6
CONTINUOUS
 10
12.2949101227
 20
2.5333023366
 11
12.3362731456
 21
2.5333023366
  0
LINE
  5
2B4
100
AcDbEntity
  8
0
100
AcDbLine
 62
7
  6
CONTINUOUS
 10
13.5222818033
 20
2.5496073456
 11
13.4883447845
 21
2.5496073456
  0
LINE
  5
2B5
100
AcDbEntity
  8
0
100
AcDbLine
 62
7
  6
CONTINUOUS
 10
12.2949101227
 20
2.5499573458
 11
12.3362731456
 21
2.5499573458
  0
LINE
  5
2B6
100
AcDbEntity
  8
0
100
AcDbLine
 62
7
  6
CONTINUOUS
 10
12.5196132473
 20
2.5505713461
 11
12.5401702587
 21
2.5505713461
  0
LINE
  5
2B7
100
AcDbEntity
  8
0
100
AcDbLine
 62
7
  6
CONTINUOUS
 10
13.2582556569
 20
2.5507823463
 11
13.2934226764
 21
2.5507823463
  0
LINE
  5
2B8
100
AcDbEntity
  8
0
100
AcDbLine
 62
7
  6
CONTINUOUS
 10
13.3691097184
 20
2.5540823481
 11
13.3272456952
 21
2.5540823481
  0
LINE
  5
2B9
100
AcDbEntity
  8
0
100
AcDbLine
 62
7
  6
CONTINUOUS
 10
12.5329112547
 20
2.5667383551
 11
12.5267302512
 21
2.5667383551
  0
LINE
  5
2BA
100
AcDbEntity
  8
0
100
AcDbLine
 62
7
  6
CONTINUOUS
 10
13.4221787478
 20
2.5672823554
 11
13.3994327352
 21
2.5672823554
  0
LINE
  5
2BB
100
AcDbEntity
  8
0
100
AcDbLine
 62
7
  6
CONTINUOUS
 10
13.3222956924
 20
2.5672823554
 11
13.2582556569
 21
2.5672823554
  0
LINE
  5
2BC
100
AcDbEntity
  8
0
100
AcDbLine
 62
7
  6
CONTINUOUS
 10
13.1912396197
 20
2.5672823554
 11
13.1673166065
 21
2.5672823554
  0
LINE
  5
2BD
100
AcDbEntity
  8
0
100
AcDbLine
 62
7
  6
CONTINUOUS
 10
13.1397265912
 20
2.5672823554
 11
13.1217935812
 21
2.5672823554
  0
LINE
  5
2BE
100
AcDbEntity
  8
0
100
AcDbLine
 62
7
  6
CONTINUOUS
 10
13.0845015605
 20
2.5672823554
 11
13.0657255501
 21
2.5672823554
  0
LINE
  5
2BF
100
AcDbEntity
  8
0
100
AcDbLine
 62
7
  6
CONTINUOUS
 10
12.93923948
 20
2.5672823554
 11
12.9205934696
 21
2.5672823554
  0
LINE
  5
2C0
100
AcDbEntity
  8
0
100
AcDbLine
 62
7
  6
CONTINUOUS
 10
12.8914734535
 20
2.5672823554
 11
12.8735404436
 21
2.5672823554
  0
LINE
  5
2C1
100
AcDbEntity
  8
0
100
AcDbLine
 62
7
  6
CONTINUOUS
 10
12.8362484229
 20
2.5672823554
 11
12.8174724125
 21
2.5672823554
  0
LINE
  5
2C2
100
AcDbEntity
  8
0
100
AcDbLine
 62
7
  6
CONTINUOUS
 10
12.6909873423
 20
2.5672823554
 11
12.672340332
 21
2.5672823554
  0
LINE
  5
2C3
100
AcDbEntity
  8
0
100
AcDbLine
 62
7
  6
CONTINUOUS
 10
12.3362731456
 20
2.5672823554
 11
12.2949101227
 21
2.5672823554
  0
LINE
  5
2C4
100
AcDbEntity
  8
0
100
AcDbLine
 62
7
  6
CONTINUOUS
 10
12.2055050731
 20
2.5672823554
 11
12.2294470864
 21
2.5672823554
  0
LINE
  5
2C5
100
AcDbEntity
  8
0
100
AcDbLine
 62
7
  6
CONTINUOUS
 10
13.4883447845
 20
2.5672823554
 11
13.5251458049
 21
2.5672823554
  0
LINE
  5
2C6
100
AcDbEntity
  8
0
100
AcDbLine
 62
7
  6
CONTINUOUS
 10
12.5705042755
 20
2.5920323691
 11
12.5133292438
 21
2.5920323691
  0
LINE
  5
2C7
100
AcDbEntity
  8
0
100
AcDbLine
 62
7
  6
CONTINUOUS
 10
12.3715681652
 20
2.5920323691
 11
12.2055050731
 21
2.5920323691
  0
LINE
  5
2C8
100
AcDbEntity
  8
0
100
AcDbLine
 62
7
  6
CONTINUOUS
 10
12.672340332
 20
2.5920323691
 11
12.7727983877
 21
2.5920323691
  0
LINE
  5
2C9
100
AcDbEntity
  8
0
100
AcDbLine
 62
7
  6
CONTINUOUS
 10
12.8174724125
 20
2.5920323691
 11
12.8914734535
 21
2.5920323691
  0
LINE
  5
2CA
100
AcDbEntity
  8
0
100
AcDbLine
 62
7
  6
CONTINUOUS
 10
12.9205934696
 20
2.5920323691
 11
13.0210515254
 21
2.5920323691
  0
LINE
  5
2CB
100
AcDbEntity
  8
0
100
AcDbLine
 62
7
  6
CONTINUOUS
 10
13.0657255501
 20
2.5920323691
 11
13.1397265912
 21
2.5920323691
  0
LINE
  5
2CC
100
AcDbEntity
  8
0
100
AcDbLine
 62
7
  6
CONTINUOUS
 10
13.1673166065
 20
2.5920323691
 11
13.3691097184
 21
2.5920323691
  0
LINE
  5
2CD
100
AcDbEntity
  8
0
100
AcDbLine
 62
7
  6
CONTINUOUS
 10
13.3994327352
 20
2.5920323691
 11
13.5490138181
 21
2.5920323691
  0
LINE
  5
2CE
100
AcDbEntity
  8
0
100
AcDbLine
 62
7
  6
CONTINUOUS
 10
12.4008351814
 20
2.5375433389
 11
12.3907841758
 21
2.5410923409
  0
LINE
  5
2CF
100
AcDbEntity
  8
0
100
AcDbLine
 62
7
  6
CONTINUOUS
 10
12.7926763987
 20
2.4919113136
 11
12.7293963636
 21
2.5522893471
  0
LINE
  5
2D0
100
AcDbEntity
  8
0
100
AcDbLine
 62
7
  6
CONTINUOUS
 10
12.7745063886
 20
2.5913483688
 11
12.8345394219
 21
2.534068337
  0
LINE
  5
2D1
100
AcDbEntity
  8
0
100
AcDbLine
 62
7
  6
CONTINUOUS
 10
13.0409295364
 20
2.4919113136
 11
12.9776495013
 21
2.5522893471
  0
LINE
  5
2D2
100
AcDbEntity
  8
0
100
AcDbLine
 62
7
  6
CONTINUOUS
 10
13.0227595263
 20
2.5913483688
 11
13.0827925596
 21
2.534068337
  0
LINE
  5
2D3
100
AcDbEntity
  8
0
100
AcDbLine
 62
7
  6
CONTINUOUS
 10
12.548053263
 20
2.5284903339
 11
12.5536792662
 21
2.5197973291
  0
LINE
  5
2D4
100
AcDbEntity
  8
0
100
AcDbLine
 62
7
  6
CONTINUOUS
 10
12.5422482598
 20
2.5543913483
 11
12.5349892558
 21
2.5656073545
  0
LINE
  5
2D5
100
AcDbEntity
  8
0
100
AcDbLine
 62
7
  6
CONTINUOUS
 10
12.6203383031
 20
2.5171073276
 11
12.5725822767
 21
2.5909023685
  0
LINE
  5
2D6
100
AcDbEntity
  8
0
100
AcDbLine
 62
7
  6
CONTINUOUS
 10
12.2030300717
 20
2.5895573678
 11
12.2030300717
 21
2.5697573568
  0
LINE
  5
2D7
100
AcDbEntity
  8
0
100
AcDbLine
 62
7
  6
CONTINUOUS
 10
12.2030300717
 20
2.5135023256
 11
12.2030300717
 21
2.4937023146
  0
LINE
  5
2D8
100
AcDbEntity
  8
0
100
AcDbLine
 62
7
  6
CONTINUOUS
 10
12.2319220877
 20
2.564807354
 11
12.2319220877
 21
2.5184523283
  0
LINE
  5
2D9
100
AcDbEntity
  8
0
100
AcDbLine
 62
7
  6
CONTINUOUS
 10
12.2924351213
 20
2.564807354
 11
12.2924351213
 21
2.5524323472
  0
LINE
  5
2DA
100
AcDbEntity
  8
0
100
AcDbLine
 62
7
  6
CONTINUOUS
 10
12.2924351213
 20
2.5184523283
 11
12.2924351213
 21
2.5308273352
  0
LINE
  5
2DB
100
AcDbEntity
  8
0
100
AcDbLine
 62
7
  6
CONTINUOUS
 10
12.4370132015
 20
2.5135023256
 11
12.4370132015
 21
2.4937023146
  0
LINE
  5
2DC
100
AcDbEntity
  8
0
100
AcDbLine
 62
7
  6
CONTINUOUS
 10
12.5193392471
 20
2.4937023146
 11
12.5193392471
 21
2.5135023256
  0
LINE
  5
2DD
100
AcDbEntity
  8
0
100
AcDbLine
 62
7
  6
CONTINUOUS
 10
12.5346752556
 20
2.5135023256
 11
12.5346752556
 21
2.4937023146
  0
LINE
  5
2DE
100
AcDbEntity
  8
0
100
AcDbLine
 62
7
  6
CONTINUOUS
 10
12.6449063168
 20
2.4937023146
 11
12.6449063168
 21
2.5135023256
  0
LINE
  5
2DF
100
AcDbEntity
  8
0
100
AcDbLine
 62
7
  6
CONTINUOUS
 10
12.6698653306
 20
2.4937023146
 11
12.6698653306
 21
2.5135023256
  0
LINE
  5
2E0
100
AcDbEntity
  8
0
100
AcDbLine
 62
7
  6
CONTINUOUS
 10
12.6698653306
 20
2.5697573568
 11
12.6698653306
 21
2.5895573678
  0
LINE
  5
2E1
100
AcDbEntity
  8
0
100
AcDbLine
 62
7
  6
CONTINUOUS
 10
12.6934623437
 20
2.5184523283
 11
12.6934623437
 21
2.564807354
  0
LINE
  5
2E2
100
AcDbEntity
  8
0
100
AcDbLine
 62
7
  6
CONTINUOUS
 10
12.7252123613
 20
2.5504983461
 11
12.7252123613
 21
2.5184523283
  0
LINE
  5
2E3
100
AcDbEntity
  8
0
100
AcDbLine
 62
7
  6
CONTINUOUS
 10
13.5375908118
 20
2.5092733232
 11
13.5357868108
 21
2.5153423266
  0
LINE
  5
2E4
100
AcDbEntity
  8
0
100
AcDbLine
 62
7
  6
CONTINUOUS
 10
12.7504793753
 20
2.5135023256
 11
12.7504793753
 21
2.4937023146
  0
LINE
  5
2E5
100
AcDbEntity
  8
0
100
AcDbLine
 62
7
  6
CONTINUOUS
 10
12.8149974111
 20
2.5697573568
 11
12.8149974111
 21
2.5895573678
  0
LINE
  5
2E6
100
AcDbEntity
  8
0
100
AcDbLine
 62
7
  6
CONTINUOUS
 10
12.8387234242
 20
2.535859338
 11
12.8387234242
 21
2.564807354
  0
LINE
  5
2E7
100
AcDbEntity
  8
0
100
AcDbLine
 62
7
  6
CONTINUOUS
 10
12.8710654422
 20
2.564807354
 11
12.8710654422
 21
2.4937023146
  0
LINE
  5
2E8
100
AcDbEntity
  8
0
100
AcDbLine
 62
7
  6
CONTINUOUS
 10
12.8939484549
 20
2.5895573678
 11
12.8939484549
 21
2.5697573568
  0
LINE
  5
2E9
100
AcDbEntity
  8
0
100
AcDbLine
 62
7
  6
CONTINUOUS
 10
12.9181184683
 20
2.4937023146
 11
12.9181184683
 21
2.5135023256
  0
LINE
  5
2EA
100
AcDbEntity
  8
0
100
AcDbLine
 62
7
  6
CONTINUOUS
 10
12.9181184683
 20
2.5697573568
 11
12.9181184683
 21
2.5895573678
  0
LINE
  5
2EB
100
AcDbEntity
  8
0
100
AcDbLine
 62
7
  6
CONTINUOUS
 10
12.9417144814
 20
2.5184523283
 11
12.9417144814
 21
2.564807354
  0
LINE
  5
2EC
100
AcDbEntity
  8
0
100
AcDbLine
 62
7
  6
CONTINUOUS
 10
12.973465499
 20
2.5504983461
 11
12.973465499
 21
2.5184523283
  0
LINE
  5
2ED
100
AcDbEntity
  8
0
100
AcDbLine
 62
7
  6
CONTINUOUS
 10
12.998732513
 20
2.5135023256
 11
12.998732513
 21
2.4937023146
  0
LINE
  5
2EE
100
AcDbEntity
  8
0
100
AcDbLine
 62
7
  6
CONTINUOUS
 10
13.0632505488
 20
2.5697573568
 11
13.0632505488
 21
2.5895573678
  0
LINE
  5
2EF
100
AcDbEntity
  8
0
100
AcDbLine
 62
7
  6
CONTINUOUS
 10
13.0869765619
 20
2.535859338
 11
13.0869765619
 21
2.564807354
  0
LINE
  5
2F0
100
AcDbEntity
  8
0
100
AcDbLine
 62
7
  6
CONTINUOUS
 10
13.1193185799
 20
2.564807354
 11
13.1193185799
 21
2.4937023146
  0
LINE
  5
2F1
100
AcDbEntity
  8
0
100
AcDbLine
 62
7
  6
CONTINUOUS
 10
13.1422015925
 20
2.5895573678
 11
13.1422015925
 21
2.5697573568
  0
LINE
  5
2F2
100
AcDbEntity
  8
0
100
AcDbLine
 62
7
  6
CONTINUOUS
 10
13.1648416051
 20
2.4937023146
 11
13.1648416051
 21
2.5135023256
  0
LINE
  5
2F3
100
AcDbEntity
  8
0
100
AcDbLine
 62
7
  6
CONTINUOUS
 10
13.1648416051
 20
2.5697573568
 11
13.1648416051
 21
2.5895573678
  0
LINE
  5
2F4
100
AcDbEntity
  8
0
100
AcDbLine
 62
7
  6
CONTINUOUS
 10
13.1937146211
 20
2.5184523283
 11
13.1937146211
 21
2.564807354
  0
LINE
  5
2F5
100
AcDbEntity
  8
0
100
AcDbLine
 62
7
  6
CONTINUOUS
 10
13.2557806555
 20
2.564807354
 11
13.2557806555
 21
2.5532573476
  0
LINE
  5
2F6
100
AcDbEntity
  8
0
100
AcDbLine
 62
7
  6
CONTINUOUS
 10
13.2557806555
 20
2.5300023347
 11
13.2557806555
 21
2.5184523283
  0
LINE
  5
2F7
100
AcDbEntity
  8
0
100
AcDbLine
 62
7
  6
CONTINUOUS
 10
13.2958976778
 20
2.5483073449
 11
13.2958976778
 21
2.5349523375
  0
LINE
  5
2F8
100
AcDbEntity
  8
0
100
AcDbLine
 62
7
  6
CONTINUOUS
 10
12.3907841758
 20
2.5410923409
 11
12.3990241804
 21
2.5458683435
  0
LINE
  5
2F9
100
AcDbEntity
  8
0
100
AcDbLine
 62
7
  6
CONTINUOUS
 10
13.3247706938
 20
2.5565573495
 11
13.3247706938
 21
2.564807354
  0
LINE
  5
2FA
100
AcDbEntity
  8
0
100
AcDbLine
 62
7
  6
CONTINUOUS
 10
13.3257346943
 20
2.5184523283
 11
13.3257346943
 21
2.5267023329
  0
LINE
  5
2FB
100
AcDbEntity
  8
0
100
AcDbLine
 62
7
  6
CONTINUOUS
 10
13.3715847197
 20
2.5895573678
 11
13.3715847197
 21
2.5565573495
  0
LINE
  5
2FC
100
AcDbEntity
  8
0
100
AcDbLine
 62
7
  6
CONTINUOUS
 10
13.3730037205
 20
2.5267023329
 11
13.3730037205
 21
2.4937023146
  0
LINE
  5
2FD
100
AcDbEntity
  8
0
100
AcDbLine
 62
7
  6
CONTINUOUS
 10
13.3969577338
 20
2.4937023146
 11
13.3969577338
 21
2.5135023256
  0
LINE
  5
2FE
100
AcDbEntity
  8
0
100
AcDbLine
 62
7
  6
CONTINUOUS
 10
13.3969577338
 20
2.5697573568
 11
13.3969577338
 21
2.5895573678
  0
LINE
  5
2FF
100
AcDbEntity
  8
0
100
AcDbLine
 62
7
  6
CONTINUOUS
 10
13.4246537492
 20
2.5184523283
 11
13.4246537492
 21
2.564807354
  0
LINE
  5
300
100
AcDbEntity
  8
0
100
AcDbLine
 62
7
  6
CONTINUOUS
 10
13.4858697831
 20
2.5281293337
 11
13.4858697831
 21
2.5184303283
  0
LINE
  5
301
100
AcDbEntity
  8
0
100
AcDbLine
 62
7
  6
CONTINUOUS
 10
13.4858697831
 20
2.552082347
 11
13.4858697831
 21
2.564807354
  0
LINE
  5
302
100
AcDbEntity
  8
0
100
AcDbLine
 62
7
  6
CONTINUOUS
 10
13.5154787995
 20
2.5134803256
 11
13.5154787995
 21
2.4937023146
  0
LINE
  5
303
100
AcDbEntity
  8
0
100
AcDbLine
 62
7
  6
CONTINUOUS
 10
13.6146708546
 20
2.525013332
 11
13.6146708546
 21
2.5276393334
  0
LINE
  5
304
100
AcDbEntity
  8
0
100
AcDbLine
 62
7
  6
CONTINUOUS
 10
13.631730864
 20
2.5276393334
 11
13.631730864
 21
2.516087327
  0
LINE
  5
305
100
AcDbEntity
  8
0
100
AcDbLine
 62
7
  6
CONTINUOUS
 10
13.7286871589
 20
2.5350697372
 11
13.7286871589
 21
2.5456869438
  0
LINE
  5
306
100
AcDbEntity
  8
0
100
AcDbLine
 62
7
  6
CONTINUOUS
 10
12.5112392426
 20
2.5908833685
 11
12.4644392167
 21
2.5171263276
  0
LINE
  5
307
100
AcDbEntity
  8
0
100
AcDbLine
 62
7
  6
CONTINUOUS
 10
12.5246402501
 20
2.5655893545
 11
12.5175232461
 21
2.5543723483
  0
LINE
  5
308
100
AcDbEntity
  8
0
100
AcDbLine
 62
7
  6
CONTINUOUS
 10
12.5034912383
 20
2.5197783291
 11
12.5090072414
 21
2.5284723339
  0
ARC
  5
309
100
AcDbEntity
  8
0
100
AcDbCircle
 62
7
  6
CONTINUOUS
 10
12.7943847649
 20
2.4937027294
 40
0.0024754162
100
AcDbArc
 50
226.3593695813
 51
270.0146919953
  0
ARC
  5
30A
100
AcDbEntity
  8
0
100
AcDbCircle
 62
7
  6
CONTINUOUS
 10
12.2055050712
 20
2.4937023128
 40
0.0024749995
100
AcDbArc
 50
179.9999571957
 51
270.0000428043
  0
ARC
  5
30B
100
AcDbEntity
  8
0
100
AcDbCircle
 62
7
  6
CONTINUOUS
 10
12.8685904427
 20
2.4937023128
 40
0.0024749995
100
AcDbArc
 50
269.9999571957
 51
0.0000428043
  0
ARC
  5
30C
100
AcDbEntity
  8
0
100
AcDbCircle
 62
7
  6
CONTINUOUS
 10
12.7480043758
 20
2.4937023128
 40
0.0024749995
100
AcDbArc
 50
269.9999571957
 51
0.0000428043
  0
ARC
  5
30D
100
AcDbEntity
  8
0
100
AcDbCircle
 62
7
  6
CONTINUOUS
 10
12.6723403301
 20
2.4937023128
 40
0.0024749995
100
AcDbArc
 50
179.9999571957
 51
270.0000428043
  0
ARC
  5
30E
100
AcDbEntity
  8
0
100
AcDbCircle
 62
7
  6
CONTINUOUS
 10
12.5371502552
 20
2.4937023128
 40
0.0024749995
100
AcDbArc
 50
179.9999571957
 51
270.0000428043
  0
ARC
  5
30F
100
AcDbEntity
  8
0
100
AcDbCircle
 62
7
  6
CONTINUOUS
 10
12.6424313172
 20
2.4937023128
 40
0.0024749995
100
AcDbArc
 50
269.9999571957
 51
0.0000428043
  0
ARC
  5
310
100
AcDbEntity
  8
0
100
AcDbCircle
 62
7
  6
CONTINUOUS
 10
12.439488201
 20
2.4937023128
 40
0.0024749995
100
AcDbArc
 50
179.9999571957
 51
270.0000428043
  0
ARC
  5
311
100
AcDbEntity
  8
0
100
AcDbCircle
 62
7
  6
CONTINUOUS
 10
12.5168642476
 20
2.4937023128
 40
0.0024749995
100
AcDbArc
 50
269.9999571957
 51
0.0000428043
  0
ARC
  5
312
100
AcDbEntity
  8
0
100
AcDbCircle
 62
7
  6
CONTINUOUS
 10
12.371573659
 20
2.5302846524
 40
0.061747717
100
AcDbArc
 50
59.5385584989
 51
90.0050977555
  0
ARC
  5
313
100
AcDbEntity
  8
0
100
AcDbCircle
 62
7
  6
CONTINUOUS
 10
12.3792298263
 20
2.539634765
 40
0.048483885
100
AcDbArc
 50
273.21763719
 51
303.0749121182
  0
ARC
  5
314
100
AcDbEntity
  8
0
100
AcDbCircle
 62
7
  6
CONTINUOUS
 10
12.3931760319
 20
2.5166878286
 40
0.0222174455
100
AcDbArc
 50
4.0793399388
 51
69.834329283
  0
ARC
  5
315
100
AcDbEntity
  8
0
100
AcDbCircle
 62
7
  6
CONTINUOUS
 10
12.3940692204
 20
2.5168671561
 40
0.0213072145
100
AcDbArc
 50
303.0488228549
 51
355.7263138674
  0
ARC
  5
316
100
AcDbEntity
  8
0
100
AcDbCircle
 62
7
  6
CONTINUOUS
 10
12.400005721
 20
2.5168763464
 40
0.0153945295
100
AcDbArc
 50
354.0454548824
 51
5.1878013979
  0
ARC
  5
317
100
AcDbEntity
  8
0
100
AcDbCircle
 62
7
  6
CONTINUOUS
 10
12.3362731456
 20
2.5246398318
 40
0.0086625048
100
AcDbArc
 50
270.0
 51
90.0
  0
ARC
  5
318
100
AcDbEntity
  8
0
100
AcDbCircle
 62
7
  6
CONTINUOUS
 10
12.5459747223
 20
2.5271458744
 40
0.0024754602
100
AcDbArc
 50
32.8959418573
 51
89.9875097202
  0
ARC
  5
319
100
AcDbEntity
  8
0
100
AcDbCircle
 62
7
  6
CONTINUOUS
 10
12.4623492858
 20
2.5184525273
 40
0.0024752003
100
AcDbArc
 50
269.9983726451
 51
327.602165307
  0
ARC
  5
31A
100
AcDbEntity
  8
0
100
AcDbCircle
 62
7
  6
CONTINUOUS
 10
12.5110971723
 20
2.5271461342
 40
0.0024752003
100
AcDbArc
 50
89.998372645
 51
147.602165307
  0
ARC
  5
31B
100
AcDbEntity
  8
0
100
AcDbCircle
 62
7
  6
CONTINUOUS
 10
12.5055811302
 20
2.518452367
 40
0.0024750401
100
AcDbArc
 50
147.6063258011
 51
270.0025305754
  0
ARC
  5
31C
100
AcDbEntity
  8
0
100
AcDbCircle
 62
7
  6
CONTINUOUS
 10
12.2294470882
 20
2.5184523265
 40
0.0024749995
100
AcDbArc
 50
269.9999571957
 51
0.0000428043
  0
ARC
  5
31D
100
AcDbEntity
  8
0
100
AcDbCircle
 62
7
  6
CONTINUOUS
 10
12.2055050712
 20
2.5135023274
 40
0.0024749995
100
AcDbArc
 50
89.9999571957
 51
180.0000428043
  0
ARC
  5
31E
100
AcDbEntity
  8
0
100
AcDbCircle
 62
7
  6
CONTINUOUS
 10
12.2949101208
 20
2.530827337
 40
0.0024749995
100
AcDbArc
 50
89.9999571957
 51
180.0000428043
  0
ARC
  5
31F
100
AcDbEntity
  8
0
100
AcDbCircle
 62
7
  6
CONTINUOUS
 10
12.2949101208
 20
2.5184523265
 40
0.0024749995
100
AcDbArc
 50
179.9999571957
 51
270.0000428043
  0
ARC
  5
320
100
AcDbEntity
  8
0
100
AcDbCircle
 62
7
  6
CONTINUOUS
 10
12.5371502552
 20
2.5135023274
 40
0.0024749995
100
AcDbArc
 50
89.9999571957
 51
180.0000428043
  0
ARC
  5
321
100
AcDbEntity
  8
0
100
AcDbCircle
 62
7
  6
CONTINUOUS
 10
12.439488201
 20
2.5135023274
 40
0.0024749995
100
AcDbArc
 50
89.9999571957
 51
180.0000428043
  0
ARC
  5
322
100
AcDbEntity
  8
0
100
AcDbCircle
 62
7
  6
CONTINUOUS
 10
12.5168642476
 20
2.5135023274
 40
0.0024749995
100
AcDbArc
 50
359.9999571957
 51
90.0000428043
  0
ARC
  5
323
100
AcDbEntity
  8
0
100
AcDbCircle
 62
7
  6
CONTINUOUS
 10
12.3771587979
 20
2.5826952352
 40
0.0428289026
100
AcDbArc
 50
300.6990502959
 51
319.0591802498
  0
ARC
  5
324
100
AcDbEntity
  8
0
100
AcDbCircle
 62
7
  6
CONTINUOUS
 10
12.3922357827
 20
2.5632132173
 40
0.0229166529
100
AcDbArc
 50
20.6563876465
 51
62.3316896973
  0
ARC
  5
325
100
AcDbEntity
  8
0
100
AcDbCircle
 62
7
  6
CONTINUOUS
 10
12.3971873948
 20
2.5665668817
 40
0.0171568255
100
AcDbArc
 50
315.9145124245
 51
16.0049121282
  0
ARC
  5
326
100
AcDbEntity
  8
0
100
AcDbCircle
 62
7
  6
CONTINUOUS
 10
12.3362731456
 20
2.5586198506
 40
0.0086625048
100
AcDbArc
 50
270.0
 51
90.0
  0
ARC
  5
327
100
AcDbEntity
  8
0
100
AcDbCircle
 62
7
  6
CONTINUOUS
 10
12.532910715
 20
2.564262895
 40
0.0024754602
100
AcDbArc
 50
32.8959418573
 51
89.9875097202
  0
ARC
  5
328
100
AcDbEntity
  8
0
100
AcDbCircle
 62
7
  6
CONTINUOUS
 10
12.5401702375
 20
2.5530465533
 40
0.0024752071
100
AcDbArc
 50
270.0004896793
 51
32.9089806818
  0
ARC
  5
329
100
AcDbEntity
  8
0
100
AcDbCircle
 62
7
  6
CONTINUOUS
 10
12.5267301809
 20
2.5642631548
 40
0.0024752003
100
AcDbArc
 50
89.998372645
 51
147.602165307
  0
ARC
  5
32A
100
AcDbEntity
  8
0
100
AcDbCircle
 62
7
  6
CONTINUOUS
 10
12.5133291735
 20
2.5895571688
 40
0.0024752003
100
AcDbArc
 50
89.9983726451
 51
147.602165307
  0
ARC
  5
32B
100
AcDbEntity
  8
0
100
AcDbCircle
 62
7
  6
CONTINUOUS
 10
12.519613138
 20
2.5530463862
 40
0.0024750401
100
AcDbArc
 50
147.6063258012
 51
270.0025305754
  0
ARC
  5
32C
100
AcDbEntity
  8
0
100
AcDbCircle
 62
7
  6
CONTINUOUS
 10
12.2055050712
 20
2.5895573696
 40
0.0024749995
100
AcDbArc
 50
89.9999571957
 51
180.0000428043
  0
ARC
  5
32D
100
AcDbEntity
  8
0
100
AcDbCircle
 62
7
  6
CONTINUOUS
 10
12.2055050712
 20
2.5697573549
 40
0.0024749995
100
AcDbArc
 50
179.9999571957
 51
270.0000428043
  0
ARC
  5
32E
100
AcDbEntity
  8
0
100
AcDbCircle
 62
7
  6
CONTINUOUS
 10
12.2294470882
 20
2.5648073559
 40
0.0024749995
100
AcDbArc
 50
359.9999571957
 51
90.0000428043
  0
ARC
  5
32F
100
AcDbEntity
  8
0
100
AcDbCircle
 62
7
  6
CONTINUOUS
 10
12.2949101208
 20
2.5648073559
 40
0.0024749995
100
AcDbArc
 50
89.9999571957
 51
180.0000428043
  0
ARC
  5
330
100
AcDbEntity
  8
0
100
AcDbCircle
 62
7
  6
CONTINUOUS
 10
12.2949101208
 20
2.5524323453
 40
0.0024749995
100
AcDbArc
 50
179.9999571957
 51
270.0000428043
  0
ARC
  5
331
100
AcDbEntity
  8
0
100
AcDbCircle
 62
7
  6
CONTINUOUS
 10
12.8362481229
 20
2.5358592748
 40
0.0024753014
100
AcDbArc
 50
226.3461263059
 51
0.0014637321
  0
ARC
  5
332
100
AcDbEntity
  8
0
100
AcDbCircle
 62
7
  6
CONTINUOUS
 10
12.7276876627
 20
2.5504984093
 40
0.0024753014
100
AcDbArc
 50
46.3461263059
 51
180.0014637321
  0
ARC
  5
333
100
AcDbEntity
  8
0
100
AcDbCircle
 62
7
  6
CONTINUOUS
 10
12.5516012439
 20
2.5184525341
 40
0.0024752071
100
AcDbArc
 50
270.0004896794
 51
32.9089806818
  0
ARC
  5
334
100
AcDbEntity
  8
0
100
AcDbCircle
 62
7
  6
CONTINUOUS
 10
12.7276873608
 20
2.5184523265
 40
0.0024749995
100
AcDbArc
 50
179.9999571957
 51
270.0000428043
  0
ARC
  5
335
100
AcDbEntity
  8
0
100
AcDbCircle
 62
7
  6
CONTINUOUS
 10
12.7480043758
 20
2.5135023274
 40
0.0024749995
100
AcDbArc
 50
359.9999571957
 51
90.0000428043
  0
ARC
  5
336
100
AcDbEntity
  8
0
100
AcDbCircle
 62
7
  6
CONTINUOUS
 10
12.6723403301
 20
2.5135023274
 40
0.0024749995
100
AcDbArc
 50
89.9999571957
 51
180.0000428043
  0
ARC
  5
337
100
AcDbEntity
  8
0
100
AcDbCircle
 62
7
  6
CONTINUOUS
 10
12.6909873442
 20
2.5184523265
 40
0.0024749995
100
AcDbArc
 50
269.9999571957
 51
0.0000428043
  0
ARC
  5
338
100
AcDbEntity
  8
0
100
AcDbCircle
 62
7
  6
CONTINUOUS
 10
12.6424313172
 20
2.5135023274
 40
0.0024749995
100
AcDbArc
 50
359.9999571957
 51
90.0000428043
  0
ARC
  5
339
100
AcDbEntity
  8
0
100
AcDbCircle
 62
7
  6
CONTINUOUS
 10
12.6224154248
 20
2.518451368
 40
0.002474041
100
AcDbArc
 50
212.9056413127
 51
269.9972091756
  0
ARC
  5
33A
100
AcDbEntity
  8
0
100
AcDbCircle
 62
7
  6
CONTINUOUS
 10
12.8362484247
 20
2.5648073559
 40
0.0024749995
100
AcDbArc
 50
359.9999571957
 51
90.0000428043
  0
ARC
  5
33B
100
AcDbEntity
  8
0
100
AcDbCircle
 62
7
  6
CONTINUOUS
 10
12.8174724106
 20
2.5697573549
 40
0.0024749995
100
AcDbArc
 50
179.9999571957
 51
270.0000428043
  0
ARC
  5
33C
100
AcDbEntity
  8
0
100
AcDbCircle
 62
7
  6
CONTINUOUS
 10
12.8174724106
 20
2.5895573696
 40
0.0024749995
100
AcDbArc
 50
89.9999571957
 51
180.0000428043
  0
ARC
  5
33D
100
AcDbEntity
  8
0
100
AcDbCircle
 62
7
  6
CONTINUOUS
 10
12.8914734553
 20
2.5895573696
 40
0.0024749995
100
AcDbArc
 50
359.9999571957
 51
90.0000428043
  0
ARC
  5
33E
100
AcDbEntity
  8
0
100
AcDbCircle
 62
7
  6
CONTINUOUS
 10
12.8914734553
 20
2.5697573549
 40
0.0024749995
100
AcDbArc
 50
269.9999571957
 51
0.0000428043
  0
ARC
  5
33F
100
AcDbEntity
  8
0
100
AcDbCircle
 62
7
  6
CONTINUOUS
 10
12.8735404417
 20
2.5648073559
 40
0.0024749995
100
AcDbArc
 50
89.9999571957
 51
180.0000428043
  0
ARC
  5
340
100
AcDbEntity
  8
0
100
AcDbCircle
 62
7
  6
CONTINUOUS
 10
12.6909873442
 20
2.5648073559
 40
0.0024749995
100
AcDbArc
 50
359.9999571957
 51
90.0000428043
  0
ARC
  5
341
100
AcDbEntity
  8
0
100
AcDbCircle
 62
7
  6
CONTINUOUS
 10
12.6723403301
 20
2.5697573549
 40
0.0024749995
100
AcDbArc
 50
179.9999571957
 51
270.0000428043
  0
ARC
  5
342
100
AcDbEntity
  8
0
100
AcDbCircle
 62
7
  6
CONTINUOUS
 10
12.6723403301
 20
2.5895573696
 40
0.0024749995
100
AcDbArc
 50
89.9999571957
 51
180.0000428043
  0
ARC
  5
343
100
AcDbEntity
  8
0
100
AcDbCircle
 62
7
  6
CONTINUOUS
 10
12.570504655
 20
2.589557409
 40
0.0024749602
100
AcDbArc
 50
32.9172174468
 51
90.0087853097
  0
ARC
  5
344
100
AcDbEntity
  8
0
100
AcDbCircle
 62
7
  6
CONTINUOUS
 10
12.7727985224
 20
2.5895582013
 40
0.0024741678
100
AcDbArc
 50
46.3477981899
 51
90.0031206038
  0
ARC
  5
345
100
AcDbEntity
  8
0
100
AcDbCircle
 62
7
  6
CONTINUOUS
 10
13.5463505148
 20
2.4094934586
 40
0.1825583387
100
AcDbArc
 50
79.8618509324
 51
89.1640948679
  0
ARC
  5
346
100
AcDbEntity
  8
0
100
AcDbCircle
 62
7
  6
CONTINUOUS
 10
13.5282557878
 20
2.4386010294
 40
0.117346916
100
AcDbArc
 50
58.614769177
 51
62.3737227606
  0
ARC
  5
347
100
AcDbEntity
  8
0
100
AcDbCircle
 62
7
  6
CONTINUOUS
 10
13.5571178432
 20
2.509473798
 40
0.0459185159
100
AcDbArc
 50
15.6740290068
 51
20.9917271228
  0
ARC
  5
348
100
AcDbEntity
  8
0
100
AcDbCircle
 62
7
  6
CONTINUOUS
 10
13.4974076135
 20
2.5055452462
 40
0.0396099176
100
AcDbArc
 50
14.3201081283
 51
22.4984722084
  0
ARC
  5
349
100
AcDbEntity
  8
0
100
AcDbCircle
 62
7
  6
CONTINUOUS
 10
13.5161192671
 20
2.5062372524
 40
0.0243676582
100
AcDbArc
 50
63.3666028271
 51
90.3937697637
  0
ARC
  5
34A
100
AcDbEntity
  8
0
100
AcDbCircle
 62
7
  6
CONTINUOUS
 10
13.6036139387
 20
2.5111006186
 40
0.0198837666
100
AcDbArc
 50
271.8586572978
 51
289.4131338543
  0
ARC
  5
34B
100
AcDbEntity
  8
0
100
AcDbCircle
 62
7
  6
CONTINUOUS
 10
13.5577001432
 20
2.5085494649
 40
0.0173408616
100
AcDbArc
 50
232.4713476722
 51
267.338189944
  0
ARC
  5
34C
100
AcDbEntity
  8
0
100
AcDbCircle
 62
7
  6
CONTINUOUS
 10
13.5130038
 20
2.4937023128
 40
0.0024749995
100
AcDbArc
 50
269.9999571957
 51
0.0000428043
  0
ARC
  5
34D
100
AcDbEntity
  8
0
100
AcDbCircle
 62
7
  6
CONTINUOUS
 10
13.3994327333
 20
2.4937023128
 40
0.0024749995
100
AcDbArc
 50
179.9999571957
 51
270.0000428043
  0
ARC
  5
34E
100
AcDbEntity
  8
0
100
AcDbCircle
 62
7
  6
CONTINUOUS
 10
13.1168435803
 20
2.4937023128
 40
0.0024749995
100
AcDbArc
 50
269.9999571957
 51
0.0000428043
  0
ARC
  5
34F
100
AcDbEntity
  8
0
100
AcDbCircle
 62
7
  6
CONTINUOUS
 10
12.9962575135
 20
2.4937023128
 40
0.0024749995
100
AcDbArc
 50
269.9999571957
 51
0.0000428043
  0
ARC
  5
350
100
AcDbEntity
  8
0
100
AcDbCircle
 62
7
  6
CONTINUOUS
 10
12.9205934678
 20
2.4937023128
 40
0.0024749995
100
AcDbArc
 50
179.9999571957
 51
270.0000428043
  0
ARC
  5
351
100
AcDbEntity
  8
0
100
AcDbCircle
 62
7
  6
CONTINUOUS
 10
13.370528721
 20
2.4937023128
 40
0.0024749995
100
AcDbArc
 50
269.9999571957
 51
0.0000428043
  0
ARC
  5
352
100
AcDbEntity
  8
0
100
AcDbCircle
 62
7
  6
CONTINUOUS
 10
13.1673166046
 20
2.4937023128
 40
0.0024749995
100
AcDbArc
 50
179.9999571957
 51
270.0000428043
  0
ARC
  5
353
100
AcDbEntity
  8
0
100
AcDbCircle
 62
7
  6
CONTINUOUS
 10
13.0426374026
 20
2.493701481
 40
0.0024741678
100
AcDbArc
 50
226.3477981898
 51
270.0031206038
  0
ARC
  5
354
100
AcDbEntity
  8
0
100
AcDbCircle
 62
7
  6
CONTINUOUS
 10
13.0845012605
 20
2.5358592748
 40
0.0024753014
100
AcDbArc
 50
226.3461263059
 51
0.0014637321
  0
ARC
  5
355
100
AcDbEntity
  8
0
100
AcDbCircle
 62
7
  6
CONTINUOUS
 10
12.9759408003
 20
2.5504984093
 40
0.0024753014
100
AcDbArc
 50
46.3461263059
 51
180.0014637321
  0
ARC
  5
356
100
AcDbEntity
  8
0
100
AcDbCircle
 62
7
  6
CONTINUOUS
 10
12.9759404985
 20
2.5184523265
 40
0.0024749995
100
AcDbArc
 50
179.9999571957
 51
270.0000428043
  0
ARC
  5
357
100
AcDbEntity
  8
0
100
AcDbCircle
 62
7
  6
CONTINUOUS
 10
12.9962575135
 20
2.5135023274
 40
0.0024749995
100
AcDbArc
 50
359.9999571957
 51
90.0000428043
  0
ARC
  5
358
100
AcDbEntity
  8
0
100
AcDbCircle
 62
7
  6
CONTINUOUS
 10
12.9205934678
 20
2.5135023274
 40
0.0024749995
100
AcDbArc
 50
89.9999571957
 51
180.0000428042
  0
ARC
  5
359
100
AcDbEntity
  8
0
100
AcDbCircle
 62
7
  6
CONTINUOUS
 10
12.9392394818
 20
2.5184523265
 40
0.0024749995
100
AcDbArc
 50
269.9999571957
 51
0.0000428043
  0
ARC
  5
35A
100
AcDbEntity
  8
0
100
AcDbCircle
 62
7
  6
CONTINUOUS
 10
13.2582556551
 20
2.5300023366
 40
0.0024749995
100
AcDbArc
 50
89.9999571957
 51
180.0000428043
  0
ARC
  5
35B
100
AcDbEntity
  8
0
100
AcDbCircle
 62
7
  6
CONTINUOUS
 10
13.2582556551
 20
2.5184523265
 40
0.0024749995
100
AcDbArc
 50
179.9999571957
 51
270.0000428043
  0
ARC
  5
35C
100
AcDbEntity
  8
0
100
AcDbCircle
 62
7
  6
CONTINUOUS
 10
13.1673166046
 20
2.5135023274
 40
0.0024749995
100
AcDbArc
 50
89.9999571957
 51
180.0000428043
  0
ARC
  5
35D
100
AcDbEntity
  8
0
100
AcDbCircle
 62
7
  6
CONTINUOUS
 10
13.1912396216
 20
2.5184523265
 40
0.0024749995
100
AcDbArc
 50
269.9999571957
 51
0.0000428042
  0
ARC
  5
35E
100
AcDbEntity
  8
0
100
AcDbCircle
 62
7
  6
CONTINUOUS
 10
13.2582556551
 20
2.5532573458
 40
0.0024749995
100
AcDbArc
 50
179.9999571957
 51
270.0000428043
  0
ARC
  5
35F
100
AcDbEntity
  8
0
100
AcDbCircle
 62
7
  6
CONTINUOUS
 10
13.0845015624
 20
2.5648073559
 40
0.0024749995
100
AcDbArc
 50
359.9999571957
 51
90.0000428043
  0
ARC
  5
360
100
AcDbEntity
  8
0
100
AcDbCircle
 62
7
  6
CONTINUOUS
 10
13.0657255483
 20
2.5697573549
 40
0.0024749995
100
AcDbArc
 50
179.9999571957
 51
270.0000428043
  0
ARC
  5
361
100
AcDbEntity
  8
0
100
AcDbCircle
 62
7
  6
CONTINUOUS
 10
13.0657255483
 20
2.5895573696
 40
0.0024749995
100
AcDbArc
 50
89.9999571957
 51
180.0000428043
  0
ARC
  5
362
100
AcDbEntity
  8
0
100
AcDbCircle
 62
7
  6
CONTINUOUS
 10
13.139726593
 20
2.5895573696
 40
0.0024749995
100
AcDbArc
 50
359.9999571957
 51
90.0000428043
  0
ARC
  5
363
100
AcDbEntity
  8
0
100
AcDbCircle
 62
7
  6
CONTINUOUS
 10
13.139726593
 20
2.5697573549
 40
0.0024749995
100
AcDbArc
 50
269.9999571957
 51
0.0000428042
  0
ARC
  5
364
100
AcDbEntity
  8
0
100
AcDbCircle
 62
7
  6
CONTINUOUS
 10
13.1217935794
 20
2.5648073559
 40
0.0024749995
100
AcDbArc
 50
89.9999571957
 51
180.0000428042
  0
ARC
  5
365
100
AcDbEntity
  8
0
100
AcDbCircle
 62
7
  6
CONTINUOUS
 10
12.9392394818
 20
2.5648073559
 40
0.0024749995
100
AcDbArc
 50
359.9999571957
 51
90.0000428043
  0
ARC
  5
366
100
AcDbEntity
  8
0
100
AcDbCircle
 62
7
  6
CONTINUOUS
 10
12.9205934678
 20
2.5697573549
 40
0.0024749995
100
AcDbArc
 50
179.9999571957
 51
270.0000428043
  0
ARC
  5
367
100
AcDbEntity
  8
0
100
AcDbCircle
 62
7
  6
CONTINUOUS
 10
12.9205934678
 20
2.5895573696
 40
0.0024749995
100
AcDbArc
 50
89.9999571957
 51
180.0000428042
  0
ARC
  5
368
100
AcDbEntity
  8
0
100
AcDbCircle
 62
7
  6
CONTINUOUS
 10
13.1912396216
 20
2.5648073559
 40
0.0024749995
100
AcDbArc
 50
359.9999571957
 51
90.0000428043
  0
ARC
  5
369
100
AcDbEntity
  8
0
100
AcDbCircle
 62
7
  6
CONTINUOUS
 10
13.1673166046
 20
2.5697573549
 40
0.0024749995
100
AcDbArc
 50
179.9999571957
 51
270.0000428043
  0
ARC
  5
36A
100
AcDbEntity
  8
0
100
AcDbCircle
 62
7
  6
CONTINUOUS
 10
13.1673166046
 20
2.5895573696
 40
0.0024749995
100
AcDbArc
 50
89.9999571957
 51
180.0000428043
  0
ARC
  5
36B
100
AcDbEntity
  8
0
100
AcDbCircle
 62
7
  6
CONTINUOUS
 10
13.2582556551
 20
2.5648073559
 40
0.0024749995
100
AcDbArc
 50
89.9999571957
 51
180.0000428043
  0
ARC
  5
36C
100
AcDbEntity
  8
0
100
AcDbCircle
 62
7
  6
CONTINUOUS
 10
13.0210516601
 20
2.5895582013
 40
0.0024741678
100
AcDbArc
 50
46.3477981899
 51
90.0031206038
  0
ARC
  5
36D
100
AcDbEntity
  8
0
100
AcDbCircle
 62
7
  6
CONTINUOUS
 10
13.5806801742
 20
2.5212486481
 40
0.044722495
100
AcDbArc
 50
195.531588407
 51
204.7624440448
  0
ARC
  5
36E
100
AcDbEntity
  8
0
100
AcDbCircle
 62
7
  6
CONTINUOUS
 10
13.5726548052
 20
2.5503169747
 40
0.039319019
100
AcDbArc
 50
59.1202086415
 51
81.4730239328
  0
ARC
  5
36F
100
AcDbEntity
  8
0
100
AcDbCircle
 62
7
  6
CONTINUOUS
 10
13.5978759713
 20
2.5286873679
 40
0.0383802683
100
AcDbArc
 50
288.7656836787
 51
309.6104317088
  0
ARC
  5
370
100
AcDbEntity
  8
0
100
AcDbCircle
 62
7
  6
CONTINUOUS
 10
13.5783142014
 20
2.5566516438
 40
0.0310192946
100
AcDbArc
 50
34.7540871
 51
62.0879016178
  0
ARC
  5
371
100
AcDbEntity
  8
0
100
AcDbCircle
 62
7
  6
CONTINUOUS
 10
13.5236009174
 20
2.5388278764
 40
0.0284963867
100
AcDbArc
 50
70.3834917948
 51
86.8922743861
  0
ARC
  5
372
100
AcDbEntity
  8
0
100
AcDbCircle
 62
7
  6
CONTINUOUS
 10
13.6048681567
 20
2.5210861501
 40
0.0280715479
100
AcDbArc
 50
308.5071794988
 51
332.24006569
  0
ARC
  5
373
100
AcDbEntity
  8
0
100
AcDbCircle
 62
7
  6
CONTINUOUS
 10
13.5750183849
 20
2.5166552064
 40
0.0266349791
100
AcDbArc
 50
20.3630922153
 51
37.9727053099
  0
ARC
  5
374
100
AcDbEntity
  8
0
100
AcDbCircle
 62
7
  6
CONTINUOUS
 10
13.5761387404
 20
2.5167282896
 40
0.0257145923
100
AcDbArc
 50
39.3804255939
 51
59.0361096173
  0
ARC
  5
375
100
AcDbEntity
  8
0
100
AcDbCircle
 62
7
  6
CONTINUOUS
 10
13.5607987082
 20
2.5143997688
 40
0.0238935861
100
AcDbArc
 50
209.8247607259
 51
235.1255079367
  0
ARC
  5
376
100
AcDbEntity
  8
0
100
AcDbCircle
 62
7
  6
CONTINUOUS
 10
13.6141751675
 20
2.5161916447
 40
0.0175560065
100
AcDbArc
 50
332.2279060967
 51
359.6595469939
  0
ARC
  5
377
100
AcDbEntity
  8
0
100
AcDbCircle
 62
7
  6
CONTINUOUS
 10
13.5201739219
 20
2.5145168728
 40
0.0151491919
100
AcDbArc
 50
24.098260853
 51
63.0369451818
  0
ARC
  5
378
100
AcDbEntity
  8
0
100
AcDbCircle
 62
7
  6
CONTINUOUS
 10
13.6156881783
 20
2.525116781
 40
0.0147197649
100
AcDbArc
 50
192.7054516565
 51
206.0594861022
  0
ARC
  5
379
100
AcDbEntity
  8
0
100
AcDbCircle
 62
7
  6
CONTINUOUS
 10
13.5284605274
 20
2.5518696094
 40
0.0145814632
100
AcDbArc
 50
54.6746025112
 51
71.1660573124
  0
ARC
  5
37A
100
AcDbEntity
  8
0
100
AcDbCircle
 62
7
  6
CONTINUOUS
 10
13.6063292954
 20
2.5296129864
 40
0.0132488022
100
AcDbArc
 50
270.266200055
 51
281.2404888597
  0
ARC
  5
37B
100
AcDbEntity
  8
0
100
AcDbCircle
 62
7
  6
CONTINUOUS
 10
13.6027235414
 20
2.524769508
 40
0.0119498009
100
AcDbArc
 50
340.7883861657
 51
1.1691452593
  0
ARC
  5
37C
100
AcDbEntity
  8
0
100
AcDbCircle
 62
7
  6
CONTINUOUS
 10
13.5295131508
 20
2.5629115009
 40
0.0110815393
100
AcDbArc
 50
306.758405961
 51
320.4502234234
  0
ARC
  5
37D
100
AcDbEntity
  8
0
100
AcDbCircle
 62
7
  6
CONTINUOUS
 10
13.6075235364
 20
2.5238762928
 40
0.0073895522
100
AcDbArc
 50
280.8288201977
 51
305.0837508495
  0
ARC
  5
37E
100
AcDbEntity
  8
0
100
AcDbCircle
 62
7
  6
CONTINUOUS
 10
13.607924718
 20
2.5230254464
 40
0.0064647042
100
AcDbArc
 50
306.5086174083
 51
340.2162360092
  0
ARC
  5
37F
100
AcDbEntity
  8
0
100
AcDbCircle
 62
7
  6
CONTINUOUS
 10
13.5335900184
 20
2.5587235346
 40
0.0060275915
100
AcDbArc
 50
20.9055592135
 51
56.7851676243
  0
ARC
  5
380
100
AcDbEntity
  8
0
100
AcDbCircle
 62
7
  6
CONTINUOUS
 10
13.533683767
 20
2.559677593
 40
0.0058087709
100
AcDbArc
 50
318.8515287446
 51
353.6422345323
  0
ARC
  5
381
100
AcDbEntity
  8
0
100
AcDbCircle
 62
7
  6
CONTINUOUS
 10
13.6071938412
 20
2.5209082945
 40
0.0052403997
100
AcDbArc
 50
205.5232099488
 51
227.5054868079
  0
ARC
  5
382
100
AcDbEntity
  8
0
100
AcDbCircle
 62
7
  6
CONTINUOUS
 10
13.5348905773
 20
2.5593838168
 40
0.0045795888
100
AcDbArc
 50
355.6235353944
 51
18.9942678268
  0
ARC
  5
383
100
AcDbEntity
  8
0
100
AcDbCircle
 62
7
  6
CONTINUOUS
 10
13.6054655419
 20
2.5190929218
 40
0.0027347709
100
AcDbArc
 50
228.5117626737
 51
266.1485845754
  0
ARC
  5
384
100
AcDbEntity
  8
0
100
AcDbCircle
 62
7
  6
CONTINUOUS
 10
13.4883447827
 20
2.5281293355
 40
0.0024749995
100
AcDbArc
 50
89.9999571957
 51
180.0000428043
  0
ARC
  5
385
100
AcDbEntity
  8
0
100
AcDbCircle
 62
7
  6
CONTINUOUS
 10
13.4883447827
 20
2.5184303265
 40
0.0024749995
100
AcDbArc
 50
179.9999571957
 51
270.0000428043
  0
ARC
  5
386
100
AcDbEntity
  8
0
100
AcDbCircle
 62
7
  6
CONTINUOUS
 10
13.5130038
 20
2.5134803274
 40
0.0024749995
100
AcDbArc
 50
359.9999571957
 51
90.0000428043
  0
ARC
  5
387
100
AcDbEntity
  8
0
100
AcDbCircle
 62
7
  6
CONTINUOUS
 10
13.3994327333
 20
2.5135023274
 40
0.0024749995
100
AcDbArc
 50
89.9999571957
 51
180.0000428043
  0
ARC
  5
388
100
AcDbEntity
  8
0
100
AcDbCircle
 62
7
  6
CONTINUOUS
 10
13.4221787497
 20
2.5184523265
 40
0.0024749995
100
AcDbArc
 50
269.9999571957
 51
0.0000428042
  0
ARC
  5
389
100
AcDbEntity
  8
0
100
AcDbCircle
 62
7
  6
CONTINUOUS
 10
13.6171458541
 20
2.5276393353
 40
0.0024749995
100
AcDbArc
 50
89.9999571957
 51
180.0000428043
  0
ARC
  5
38A
100
AcDbEntity
  8
0
100
AcDbCircle
 62
7
  6
CONTINUOUS
 10
13.6292558645
 20
2.5276393353
 40
0.0024749995
100
AcDbArc
 50
359.9999571957
 51
90.0000428043
  0
ARC
  5
38B
100
AcDbEntity
  8
0
100
AcDbCircle
 62
7
  6
CONTINUOUS
 10
13.4883447827
 20
2.5520823451
 40
0.0024749995
100
AcDbArc
 50
179.9999571957
 51
270.0000428043
  0
ARC
  5
38C
100
AcDbEntity
  8
0
100
AcDbCircle
 62
7
  6
CONTINUOUS
 10
13.3232596948
 20
2.5184523265
 40
0.0024749995
100
AcDbArc
 50
269.9999571957
 51
0.0000428043
  0
ARC
  5
38D
100
AcDbEntity
  8
0
100
AcDbCircle
 62
7
  6
CONTINUOUS
 10
13.3282096938
 20
2.5267023348
 40
0.0024749995
100
AcDbArc
 50
89.9999571957
 51
180.0000428043
  0
ARC
  5
38E
100
AcDbEntity
  8
0
100
AcDbCircle
 62
7
  6
CONTINUOUS
 10
13.370528721
 20
2.5267023348
 40
0.0024749995
100
AcDbArc
 50
359.9999571957
 51
90.0000428043
  0
ARC
  5
38F
100
AcDbEntity
  8
0
100
AcDbCircle
 62
7
  6
CONTINUOUS
 10
13.3691097202
 20
2.5565573476
 40
0.0024749995
100
AcDbArc
 50
269.9999571957
 51
0.0000428042
  0
ARC
  5
390
100
AcDbEntity
  8
0
100
AcDbCircle
 62
7
  6
CONTINUOUS
 10
13.3272456933
 20
2.5565573476
 40
0.0024749995
100
AcDbArc
 50
179.9999571957
 51
270.0000428043
  0
ARC
  5
391
100
AcDbEntity
  8
0
100
AcDbCircle
 62
7
  6
CONTINUOUS
 10
13.2934226783
 20
2.5483073467
 40
0.0024749995
100
AcDbArc
 50
359.9999571957
 51
90.0000428043
  0
ARC
  5
392
100
AcDbEntity
  8
0
100
AcDbCircle
 62
7
  6
CONTINUOUS
 10
13.2934226783
 20
2.5349523356
 40
0.0024749995
100
AcDbArc
 50
269.9999571957
 51
0.0000428042
  0
ARC
  5
393
100
AcDbEntity
  8
0
100
AcDbCircle
 62
7
  6
CONTINUOUS
 10
13.5519569538
 20
2.6152551345
 40
0.0789082104
100
AcDbArc
 50
292.906155071
 51
305.2574666259
  0
ARC
  5
394
100
AcDbEntity
  8
0
100
AcDbCircle
 62
7
  6
CONTINUOUS
 10
13.5822888914
 20
2.5720482849
 40
0.0261183659
100
AcDbArc
 50
305.6373831893
 51
329.9727629745
  0
ARC
  5
395
100
AcDbEntity
  8
0
100
AcDbCircle
 62
7
  6
CONTINUOUS
 10
13.5219564542
 20
2.5750459767
 40
0.0254407115
100
AcDbArc
 50
270.7327484175
 51
290.441894219
  0
ARC
  5
396
100
AcDbEntity
  8
0
100
AcDbCircle
 62
7
  6
CONTINUOUS
 10
13.5238839599
 20
2.5706523294
 40
0.0206523367
100
AcDbArc
 50
289.6883413472
 51
306.4184925496
  0
ARC
  5
397
100
AcDbEntity
  8
0
100
AcDbCircle
 62
7
  6
CONTINUOUS
 10
13.5900029525
 20
2.565201245
 40
0.0165459396
100
AcDbArc
 50
1.548452892
 51
33.5033152417
  0
ARC
  5
398
100
AcDbEntity
  8
0
100
AcDbCircle
 62
7
  6
CONTINUOUS
 10
13.5932995477
 20
2.5653696972
 40
0.0132462337
100
AcDbArc
 50
331.1510006998
 51
1.205404301
  0
ARC
  5
399
100
AcDbEntity
  8
0
100
AcDbCircle
 62
7
  6
CONTINUOUS
 10
13.4221787497
 20
2.5648073559
 40
0.0024749995
100
AcDbArc
 50
359.9999571957
 51
90.0000428043
  0
ARC
  5
39A
100
AcDbEntity
  8
0
100
AcDbCircle
 62
7
  6
CONTINUOUS
 10
13.3994327333
 20
2.5697573549
 40
0.0024749995
100
AcDbArc
 50
179.9999571957
 51
270.0000428043
  0
ARC
  5
39B
100
AcDbEntity
  8
0
100
AcDbCircle
 62
7
  6
CONTINUOUS
 10
13.3994327333
 20
2.5895573696
 40
0.0024749995
100
AcDbArc
 50
89.9999571957
 51
180.0000428043
  0
ARC
  5
39C
100
AcDbEntity
  8
0
100
AcDbCircle
 62
7
  6
CONTINUOUS
 10
13.4883447827
 20
2.5648073559
 40
0.0024749995
100
AcDbArc
 50
89.9999571957
 51
180.0000428043
  0
ARC
  5
39D
100
AcDbEntity
  8
0
100
AcDbCircle
 62
7
  6
CONTINUOUS
 10
13.3691097202
 20
2.5895573696
 40
0.0024749995
100
AcDbArc
 50
359.9999571957
 51
90.0000428043
  0
ARC
  5
39E
100
AcDbEntity
  8
0
100
AcDbCircle
 62
7
  6
CONTINUOUS
 10
13.3222956943
 20
2.5648073559
 40
0.0024749995
100
AcDbArc
 50
359.9999571957
 51
90.0000428043
  0
ELLIPSE
  5
39F
100
AcDbEntity
  8
0
100
AcDbEllipse
 62
7
  6
CONTINUOUS
 10
12.9046654608
 20
2.5403783405
 30
0.0
 11
-0.8250004575
 21
0.0
 31
0.0
 40
0.218572
 41
0.0
 42
6.2831853072
  0
HATCH
  5
3A0
100
AcDbEntity
  8
0
100
AcDbHatch
 62
7
  6
CONTINUOUS
 10
0.0
 20
0.0
 30
0.0
210
0.0
220
0.0
230
1.0
  2
XSEC0001
 70
1
 71
1
 91
11
 92
1
 93
57
 72
2
 10
13.5577001432
 20
2.5085494649
 40
0.0173408616
 50
232.4713476722
 51
267.338189944
 73
1
 72
2
 10
13.5607987082
 20
2.5143997688
 40
0.0238935861
 50
209.8247607259
 51
235.1255079367
 73
1
 72
2
 10
13.5806801742
 20
2.5212486481
 40
0.044722495
 50
195.531588407
 51
204.7624440448
 73
1
 72
1
 10
13.5375908118
 20
2.5092733232
 11
13.5357868108
 21
2.5153423266
 72
2
 10
13.4974076135
 20
2.5055452462
 40
0.0396099176
 50
14.3201081283
 51
22.4984722084
 73
1
 72
2
 10
13.5201739219
 20
2.5145168728
 40
0.0151491919
 50
24.098260853
 51
63.0369451818
 73
1
 72
2
 10
13.5161192671
 20
2.5062372524
 40
0.0243676582
 50
63.3666028271
 51
90.3937697637
 73
1
 72
1
 10
13.5159517998
 20
2.5306043351
 11
13.4883447845
 21
2.5306043351
 72
2
 10
13.4883447827
 20
2.5281293355
 40
0.0024749995
 50
89.9999571958
 51
180.0000428043
 73
1
 72
1
 10
13.4858697831
 20
2.5281293337
 11
13.4858697831
 21
2.5184303283
 72
2
 10
13.4883447827
 20
2.5184303265
 40
0.0024749995
 50
179.9999571957
 51
270.0000428042
 73
1
 72
1
 10
13.4883447845
 20
2.5159553269
 11
13.5130037982
 21
2.5159553269
 72
2
 10
13.5130038
 20
2.5134803274
 40
0.0024749995
 50
359.9999571957
 51
90.0000428042
 73
1
 72
1
 10
13.5154787995
 20
2.5134803256
 11
13.5154787995
 21
2.4937023146
 72
2
 10
13.5130038
 20
2.4937023128
 40
0.0024749995
 50
269.9999571958
 51
0.0000428043
 73
1
 72
1
 10
13.5130037982
 20
2.4912273132
 11
13.3994327352
 21
2.4912273132
 72
2
 10
13.3994327333
 20
2.4937023128
 40
0.0024749995
 50
179.9999571957
 51
270.0000428043
 73
1
 72
1
 10
13.3969577338
 20
2.4937023146
 11
13.3969577338
 21
2.5135023256
 72
2
 10
13.3994327333
 20
2.5135023274
 40
0.0024749995
 50
89.9999571957
 51
180.0000428043
 73
1
 72
1
 10
13.3994327352
 20
2.515977327
 11
13.4221787478
 21
2.515977327
 72
2
 10
13.4221787497
 20
2.5184523265
 40
0.0024749995
 50
269.9999571956
 51
0.0000428042
 73
1
 72
1
 10
13.4246537492
 20
2.5184523283
 11
13.4246537492
 21
2.564807354
 72
2
 10
13.4221787497
 20
2.5648073559
 40
0.0024749995
 50
359.9999571957
 51
90.0000428043
 73
1
 72
1
 10
13.4221787478
 20
2.5672823554
 11
13.3994327352
 21
2.5672823554
 72
2
 10
13.3994327333
 20
2.5697573549
 40
0.0024749995
 50
179.9999571957
 51
270.0000428043
 73
1
 72
1
 10
13.3969577338
 20
2.5697573568
 11
13.3969577338
 21
2.5895573678
 72
2
 10
13.3994327333
 20
2.5895573696
 40
0.0024749995
 50
89.9999571957
 51
180.0000428043
 73
1
 72
1
 10
13.3994327352
 20
2.5920323691
 11
13.5490138181
 21
2.5920323691
 72
2
 10
13.5463505148
 20
2.4094934586
 40
0.1825583387
 50
79.8618509324
 51
89.1640948679
 73
1
 72
2
 10
13.5726548052
 20
2.5503169747
 40
0.039319019
 50
59.1202086415
 51
81.4730239328
 73
1
 72
2
 10
13.5783142014
 20
2.5566516438
 40
0.0310192946
 50
34.7540871
 51
62.0879016178
 73
1
 72
2
 10
13.5900029525
 20
2.565201245
 40
0.0165459396
 50
1.548452892
 51
33.5033152417
 73
1
 72
2
 10
13.5932995477
 20
2.5653696972
 40
0.0132462337
 50
331.1510006998
 51
1.205404301
 73
1
 72
2
 10
13.5822888914
 20
2.5720482849
 40
0.0261183659
 50
305.6373831893
 51
329.9727629745
 73
1
 72
2
 10
13.5519569538
 20
2.6152551345
 40
0.0789082104
 50
292.906155071
 51
305.2574666259
 73
1
 72
2
 10
13.5282557878
 20
2.4386010294
 40
0.117346916
 50
58.614769177
 51
62.3737227606
 73
1
 72
2
 10
13.5761387404
 20
2.5167282896
 40
0.0257145923
 50
39.3804255939
 51
59.0361096173
 73
1
 72
2
 10
13.5750183849
 20
2.5166552064
 40
0.0266349791
 50
20.3630922153
 51
37.9727053099
 73
1
 72
2
 10
13.5571178432
 20
2.509473798
 40
0.0459185159
 50
15.6740290068
 51
20.9917271228
 73
1
 72
2
 10
13.6156881783
 20
2.525116781
 40
0.0147197649
 50
192.7054516565
 51
206.0594861022
 73
1
 72
2
 10
13.6071938412
 20
2.5209082945
 40
0.0052403997
 50
205.5232099488
 51
227.5054868079
 73
1
 72
2
 10
13.6054655419
 20
2.5190929218
 40
0.0027347709
 50
228.5117626737
 51
266.1485845754
 73
1
 72
1
 10
13.6052818493
 20
2.5163643272
 11
13.60639085
 21
2.5163643272
 72
2
 10
13.6063292954
 20
2.5296129864
 40
0.0132488022
 50
270.266200055
 51
281.2404888597
 73
1
 72
2
 10
13.6075235364
 20
2.5238762928
 40
0.0073895522
 50
280.8288201977
 51
305.0837508495
 73
1
 72
2
 10
13.607924718
 20
2.5230254464
 40
0.0064647042
 50
306.5086174083
 51
340.2162360092
 73
1
 72
2
 10
13.6027235414
 20
2.524769508
 40
0.0119498009
 50
340.7883861657
 51
1.1691452593
 73
1
 72
1
 10
13.6146708546
 20
2.525013332
 11
13.6146708546
 21
2.5276393334
 72
2
 10
13.6171458541
 20
2.5276393353
 40
0.0024749995
 50
89.9999571958
 51
180.0000428043
 73
1
 72
1
 10
13.6171458559
 20
2.5301143348
 11
13.6292558626
 21
2.5301143348
 72
2
 10
13.6292558645
 20
2.5276393353
 40
0.0024749995
 50
359.9999571957
 51
90.0000428042
 73
1
 72
1
 10
13.631730864
 20
2.5276393334
 11
13.631730864
 21
2.516087327
 72
2
 10
13.6141751675
 20
2.5161916447
 40
0.0175560065
 50
332.2279060967
 51
359.6595469939
 73
1
 72
2
 10
13.6048681567
 20
2.5210861501
 40
0.0280715479
 50
308.5071794988
 51
332.2400656899
 73
1
 72
2
 10
13.5978759713
 20
2.5286873679
 40
0.0383802683
 50
288.7656836787
 51
309.6104317088
 73
1
 72
2
 10
13.6036139387
 20
2.5111006186
 40
0.0198837666
 50
271.8586572978
 51
289.4131338543
 73
1
 72
1
 10
13.6042588488
 20
2.4912273132
 11
13.5568948225
 21
2.4912273132
 97
267
330
295
330
296
330
297
330
298
330
299
330
29A
330
29B
330
29C
330
29D
330
29E
330
29F
330
2A0
330
2A1
330
2A2
330
2A3
330
2A4
330
2A5
330
2A6
330
2A7
330
2A8
330
2A9
330
2AA
330
2AB
330
2AC
330
2AD
330
2AE
330
2AF
330
2B0
330
2B1
330
2B2
330
2B3
330
2B4
330
2B5
330
2B6
330
2B7
330
2B8
330
2B9
330
2BA
330
2BB
330
2BC
330
2BD
330
2BE
330
2BF
330
2C0
330
2C1
330
2C2
330
2C3
330
2C4
330
2C5
330
2C6
330
2C7
330
2C8
330
2C9
330
2CA
330
2CB
330
2CC
330
2CD
330
2CE
330
2CF
330
2D0
330
2D1
330
2D2
330
2D3
330
2D4
330
2D5
330
2D6
330
2D7
330
2D8
330
2D9
330
2DA
330
2DB
330
2DC
330
2DD
330
2DE
330
2DF
330
2E0
330
2E1
330
2E2
330
2E3
330
2E4
330
2E5
330
2E6
330
2E7
330
2E8
330
2E9
330
2EA
330
2EB
330
2EC
330
2ED
330
2EE
330
2EF
330
2F0
330
2F1
330
2F2
330
2F3
330
2F4
330
2F5
330
2F6
330
2F7
330
2F8
330
2F9
330
2FA
330
2FB
330
2FC
330
2FD
330
2FE
330
2FF
330
300
330
301
330
302
330
303
330
304
330
305
330
306
330
307
330
308
330
309
330
30A
330
30B
330
30C
330
30D
330
30E
330
30F
330
310
330
311
330
312
330
313
330
314
330
315
330
316
330
317
330
318
330
319
330
31A
330
31B
330
31C
330
31D
330
31E
330
31F
330
320
330
321
330
322
330
323
330
324
330
325
330
326
330
327
330
328
330
329
330
32A
330
32B
330
32C
330
32D
330
32E
330
32F
330
330
330
331
330
332
330
333
330
334
330
335
330
336
330
337
330
338
330
339
330
33A
330
33B
330
33C
330
33D
330
33E
330
33F
330
340
330
341
330
342
330
343
330
344
330
345
330
346
330
347
330
348
330
349
330
34A
330
34B
330
34C
330
34D
330
34E
330
34F
330
350
330
351
330
352
330
353
330
354
330
355
330
356
330
357
330
358
330
359
330
35A
330
35B
330
35C
330
35D
330
35E
330
35F
330
360
330
361
330
362
330
363
330
364
330
365
330
366
330
367
330
368
330
369
330
36A
330
36B
330
36C
330
36D
330
36E
330
36F
330
370
330
371
330
372
330
373
330
374
330
375
330
376
330
377
330
378
330
379
330
37A
330
37B
330
37C
330
37D
330
37E
330
37F
330
380
330
381
330
382
330
383
330
384
330
385
330
386
330
387
330
388
330
389
330
38A
330
38B
330
38C
330
38D
330
38E
330
38F
330
390
330
391
330
392
330
393
330
394
330
395
330
396
330
397
330
398
330
399
330
39A
330
39B
330
39C
330
39D
330
39E
330
39F
 92
1
 93
40
 72
2
 10
13.1673166046
 20
2.4937023128
 40
0.0024749995
 50
179.9999571957
 51
270.0000428042
 73
1
 72
1
 10
13.1648416051
 20
2.4937023146
 11
13.1648416051
 21
2.5135023256
 72
2
 10
13.1673166046
 20
2.5135023274
 40
0.0024749995
 50
89.9999571958
 51
180.0000428043
 73
1
 72
1
 10
13.1673166065
 20
2.515977327
 11
13.1912396197
 21
2.515977327
 72
2
 10
13.1912396216
 20
2.5184523265
 40
0.0024749995
 50
269.9999571956
 51
0.0000428042
 73
1
 72
1
 10
13.1937146211
 20
2.5184523283
 11
13.1937146211
 21
2.564807354
 72
2
 10
13.1912396216
 20
2.5648073559
 40
0.0024749995
 50
359.9999571957
 51
90.0000428043
 73
1
 72
1
 10
13.1912396197
 20
2.5672823554
 11
13.1673166065
 21
2.5672823554
 72
2
 10
13.1673166046
 20
2.5697573549
 40
0.0024749995
 50
179.9999571957
 51
270.0000428043
 73
1
 72
1
 10
13.1648416051
 20
2.5697573568
 11
13.1648416051
 21
2.5895573678
 72
2
 10
13.1673166046
 20
2.5895573696
 40
0.0024749995
 50
89.9999571958
 51
180.0000428043
 73
1
 72
1
 10
13.1673166065
 20
2.5920323691
 11
13.3691097184
 21
2.5920323691
 72
2
 10
13.3691097202
 20
2.5895573696
 40
0.0024749995
 50
359.9999571957
 51
90.0000428042
 73
1
 72
1
 10
13.3715847197
 20
2.5895573678
 11
13.3715847197
 21
2.5565573495
 72
2
 10
13.3691097202
 20
2.5565573476
 40
0.0024749995
 50
269.9999571956
 51
0.0000428042
 73
1
 72
1
 10
13.3691097184
 20
2.5540823481
 11
13.3272456952
 21
2.5540823481
 72
2
 10
13.3272456933
 20
2.5565573476
 40
0.0024749995
 50
179.9999571957
 51
270.0000428043
 73
1
 72
1
 10
13.3247706938
 20
2.5565573495
 11
13.3247706938
 21
2.564807354
 72
2
 10
13.3222956943
 20
2.5648073559
 40
0.0024749995
 50
359.9999571957
 51
90.0000428043
 73
1
 72
1
 10
13.3222956924
 20
2.5672823554
 11
13.2582556569
 21
2.5672823554
 72
2
 10
13.2582556551
 20
2.5648073559
 40
0.0024749995
 50
89.9999571957
 51
180.0000428043
 73
1
 72
1
 10
13.2557806555
 20
2.564807354
 11
13.2557806555
 21
2.5532573476
 72
2
 10
13.2582556551
 20
2.5532573458
 40
0.0024749995
 50
179.9999571957
 51
270.0000428042
 73
1
 72
1
 10
13.2582556569
 20
2.5507823463
 11
13.2934226764
 21
2.5507823463
 72
2
 10
13.2934226783
 20
2.5483073467
 40
0.0024749995
 50
359.9999571957
 51
90.0000428042
 73
1
 72
1
 10
13.2958976778
 20
2.5483073449
 11
13.2958976778
 21
2.5349523375
 72
2
 10
13.2934226783
 20
2.5349523356
 40
0.0024749995
 50
269.9999571956
 51
0.0000428042
 73
1
 72
1
 10
13.2934226764
 20
2.5324773361
 11
13.2582556569
 21
2.5324773361
 72
2
 10
13.2582556551
 20
2.5300023366
 40
0.0024749995
 50
89.9999571957
 51
180.0000428043
 73
1
 72
1
 10
13.2557806555
 20
2.5300023347
 11
13.2557806555
 21
2.5184523283
 72
2
 10
13.2582556551
 20
2.5184523265
 40
0.0024749995
 50
179.9999571957
 51
270.0000428043
 73
1
 72
1
 10
13.2582556569
 20
2.515977327
 11
13.3232596929
 21
2.515977327
 72
2
 10
13.3232596948
 20
2.5184523265
 40
0.0024749995
 50
269.9999571958
 51
0.0000428043
 73
1
 72
1
 10
13.3257346943
 20
2.5184523283
 11
13.3257346943
 21
2.5267023329
 72
2
 10
13.3282096938
 20
2.5267023348
 40
0.0024749995
 50
89.9999571957
 51
180.0000428043
 73
1
 72
1
 10
13.3282096957
 20
2.5291773343
 11
13.3705287192
 21
2.5291773343
 72
2
 10
13.370528721
 20
2.5267023348
 40
0.0024749995
 50
359.9999571957
 51
90.0000428043
 73
1
 72
1
 10
13.3730037205
 20
2.5267023329
 11
13.3730037205
 21
2.4937023146
 72
2
 10
13.370528721
 20
2.4937023128
 40
0.0024749995
 50
269.9999571957
 51
0.0000428043
 73
1
 72
1
 10
13.3705287192
 20
2.4912273132
 11
13.1673166065
 21
2.4912273132
 97
267
330
295
330
296
330
297
330
298
330
299
330
29A
330
29B
330
29C
330
29D
330
29E
330
29F
330
2A0
330
2A1
330
2A2
330
2A3
330
2A4
330
2A5
330
2A6
330
2A7
330
2A8
330
2A9
330
2AA
330
2AB
330
2AC
330
2AD
330
2AE
330
2AF
330
2B0
330
2B1
330
2B2
330
2B3
330
2B4
330
2B5
330
2B6
330
2B7
330
2B8
330
2B9
330
2BA
330
2BB
330
2BC
330
2BD
330
2BE
330
2BF
330
2C0
330
2C1
330
2C2
330
2C3
330
2C4
330
2C5
330
2C6
330
2C7
330
2C8
330
2C9
330
2CA
330
2CB
330
2CC
330
2CD
330
2CE
330
2CF
330
2D0
330
2D1
330
2D2
330
2D3
330
2D4
330
2D5
330
2D6
330
2D7
330
2D8
330
2D9
330
2DA
330
2DB
330
2DC
330
2DD
330
2DE
330
2DF
330
2E0
330
2E1
330
2E2
330
2E3
330
2E4
330
2E5
330
2E6
330
2E7
330
2E8
330
2E9
330
2EA
330
2EB
330
2EC
330
2ED
330
2EE
330
2EF
330
2F0
330
2F1
330
2F2
330
2F3
330
2F4
330
2F5
330
2F6
330
2F7
330
2F8
330
2F9
330
2FA
330
2FB
330
2FC
330
2FD
330
2FE
330
2FF
330
300
330
301
330
302
330
303
330
304
330
305
330
306
330
307
330
308
330
309
330
30A
330
30B
330
30C
330
30D
330
30E
330
30F
330
310
330
311
330
312
330
313
330
314
330
315
330
316
330
317
330
318
330
319
330
31A
330
31B
330
31C
330
31D
330
31E
330
31F
330
320
330
321
330
322
330
323
330
324
330
325
330
326
330
327
330
328
330
329
330
32A
330
32B
330
32C
330
32D
330
32E
330
32F
330
330
330
331
330
332
330
333
330
334
330
335
330
336
330
337
330
338
330
339
330
33A
330
33B
330
33C
330
33D
330
33E
330
33F
330
340
330
341
330
342
330
343
330
344
330
345
330
346
330
347
330
348
330
349
330
34A
330
34B
330
34C
330
34D
330
34E
330
34F
330
350
330
351
330
352
330
353
330
354
330
355
330
356
330
357
330
358
330
359
330
35A
330
35B
330
35C
330
35D
330
35E
330
35F
330
360
330
361
330
362
330
363
330
364
330
365
330
366
330
367
330
368
330
369
330
36A
330
36B
330
36C
330
36D
330
36E
330
36F
330
370
330
371
330
372
330
373
330
374
330
375
330
376
330
377
330
378
330
379
330
37A
330
37B
330
37C
330
37D
330
37E
330
37F
330
380
330
381
330
382
330
383
330
384
330
385
330
386
330
387
330
388
330
389
330
38A
330
38B
330
38C
330
38D
330
38E
330
38F
330
390
330
391
330
392
330
393
330
394
330
395
330
396
330
397
330
398
330
399
330
39A
330
39B
330
39C
330
39D
330
39E
330
39F
 92
1
 93
40
 72
2
 10
13.0426374026
 20
2.493701481
 40
0.0024741678
 50
226.3477981898
 51
270.0031206038
 73
1
 72
1
 10
13.0409295364
 20
2.4919113136
 11
12.9776495013
 21
2.5522893471
 72
2
 10
12.9759408003
 20
2.5504984093
 40
0.0024753014
 50
46.3461263059
 51
180.0014637321
 73
1
 72
1
 10
12.973465499
 20
2.5504983461
 11
12.973465499
 21
2.5184523283
 72
2
 10
12.9759404985
 20
2.5184523265
 40
0.0024749995
 50
179.9999571957
 51
270.0000428043
 73
1
 72
1
 10
12.9759405003
 20
2.515977327
 11
12.9962575116
 21
2.515977327
 72
2
 10
12.9962575135
 20
2.5135023274
 40
0.0024749995
 50
359.9999571957
 51
90.0000428043
 73
1
 72
1
 10
12.998732513
 20
2.5135023256
 11
12.998732513
 21
2.4937023146
 72
2
 10
12.9962575135
 20
2.4937023128
 40
0.0024749995
 50
269.9999571957
 51
0.0000428043
 73
1
 72
1
 10
12.9962575116
 20
2.4912273132
 11
12.9205934696
 21
2.4912273132
 72
2
 10
12.9205934678
 20
2.4937023128
 40
0.0024749995
 50
179.9999571957
 51
270.0000428043
 73
1
 72
1
 10
12.9181184683
 20
2.4937023146
 11
12.9181184683
 21
2.5135023256
 72
2
 10
12.9205934678
 20
2.5135023274
 40
0.0024749995
 50
89.9999571956
 51
180.0000428042
 73
1
 72
1
 10
12.9205934696
 20
2.515977327
 11
12.93923948
 21
2.515977327
 72
2
 10
12.9392394818
 20
2.5184523265
 40
0.0024749995
 50
269.9999571957
 51
0.0000428043
 73
1
 72
1
 10
12.9417144814
 20
2.5184523283
 11
12.9417144814
 21
2.564807354
 72
2
 10
12.9392394818
 20
2.5648073559
 40
0.0024749995
 50
359.9999571957
 51
90.0000428043
 73
1
 72
1
 10
12.93923948
 20
2.5672823554
 11
12.9205934696
 21
2.5672823554
 72
2
 10
12.9205934678
 20
2.5697573549
 40
0.0024749995
 50
179.9999571957
 51
270.0000428043
 73
1
 72
1
 10
12.9181184683
 20
2.5697573568
 11
12.9181184683
 21
2.5895573678
 72
2
 10
12.9205934678
 20
2.5895573696
 40
0.0024749995
 50
89.9999571956
 51
180.0000428042
 73
1
 72
1
 10
12.9205934696
 20
2.5920323691
 11
13.0210515254
 21
2.5920323691
 72
2
 10
13.0210516601
 20
2.5895582013
 40
0.0024741678
 50
46.3477981898
 51
90.0031206038
 73
1
 72
1
 10
13.0227595263
 20
2.5913483688
 11
13.0827925596
 21
2.534068337
 72
2
 10
13.0845012605
 20
2.5358592748
 40
0.0024753014
 50
226.3461263059
 51
0.0014637321
 73
1
 72
1
 10
13.0869765619
 20
2.535859338
 11
13.0869765619
 21
2.564807354
 72
2
 10
13.0845015624
 20
2.5648073559
 40
0.0024749995
 50
359.9999571957
 51
90.0000428043
 73
1
 72
1
 10
13.0845015605
 20
2.5672823554
 11
13.0657255501
 21
2.5672823554
 72
2
 10
13.0657255483
 20
2.5697573549
 40
0.0024749995
 50
179.9999571957
 51
270.0000428043
 73
1
 72
1
 10
13.0632505488
 20
2.5697573568
 11
13.0632505488
 21
2.5895573678
 72
2
 10
13.0657255483
 20
2.5895573696
 40
0.0024749995
 50
89.9999571957
 51
180.0000428043
 73
1
 72
1
 10
13.0657255501
 20
2.5920323691
 11
13.1397265912
 21
2.5920323691
 72
2
 10
13.139726593
 20
2.5895573696
 40
0.0024749995
 50
359.9999571957
 51
90.0000428043
 73
1
 72
1
 10
13.1422015925
 20
2.5895573678
 11
13.1422015925
 21
2.5697573568
 72
2
 10
13.139726593
 20
2.5697573549
 40
0.0024749995
 50
269.9999571956
 51
0.0000428042
 73
1
 72
1
 10
13.1397265912
 20
2.5672823554
 11
13.1217935812
 21
2.5672823554
 72
2
 10
13.1217935794
 20
2.5648073559
 40
0.0024749995
 50
89.9999571957
 51
180.0000428042
 73
1
 72
1
 10
13.1193185799
 20
2.564807354
 11
13.1193185799
 21
2.4937023146
 72
2
 10
13.1168435803
 20
2.4937023128
 40
0.0024749995
 50
269.9999571957
 51
0.0000428043
 73
1
 72
1
 10
13.1168435785
 20
2.4912273132
 11
13.0426375373
 21
2.4912273132
 97
267
330
295
330
296
330
297
330
298
330
299
330
29A
330
29B
330
29C
330
29D
330
29E
330
29F
330
2A0
330
2A1
330
2A2
330
2A3
330
2A4
330
2A5
330
2A6
330
2A7
330
2A8
330
2A9
330
2AA
330
2AB
330
2AC
330
2AD
330
2AE
330
2AF
330
2B0
330
2B1
330
2B2
330
2B3
330
2B4
330
2B5
330
2B6
330
2B7
330
2B8
330
2B9
330
2BA
330
2BB
330
2BC
330
2BD
330
2BE
330
2BF
330
2C0
330
2C1
330
2C2
330
2C3
330
2C4
330
2C5
330
2C6
330
2C7
330
2C8
330
2C9
330
2CA
330
2CB
330
2CC
330
2CD
330
2CE
330
2CF
330
2D0
330
2D1
330
2D2
330
2D3
330
2D4
330
2D5
330
2D6
330
2D7
330
2D8
330
2D9
330
2DA
330
2DB
330
2DC
330
2DD
330
2DE
330
2DF
330
2E0
330
2E1
330
2E2
330
2E3
330
2E4
330
2E5
330
2E6
330
2E7
330
2E8
330
2E9
330
2EA
330
2EB
330
2EC
330
2ED
330
2EE
330
2EF
330
2F0
330
2F1
330
2F2
330
2F3
330
2F4
330
2F5
330
2F6
330
2F7
330
2F8
330
2F9
330
2FA
330
2FB
330
2FC
330
2FD
330
2FE
330
2FF
330
300
330
301
330
302
330
303
330
304
330
305
330
306
330
307
330
308
330
309
330
30A
330
30B
330
30C
330
30D
330
30E
330
30F
330
310
330
311
330
312
330
313
330
314
330
315
330
316
330
317
330
318
330
319
330
31A
330
31B
330
31C
330
31D
330
31E
330
31F
330
320
330
321
330
322
330
323
330
324
330
325
330
326
330
327
330
328
330
329
330
32A
330
32B
330
32C
330
32D
330
32E
330
32F
330
330
330
331
330
332
330
333
330
334
330
335
330
336
330
337
330
338
330
339
330
33A
330
33B
330
33C
330
33D
330
33E
330
33F
330
340
330
341
330
342
330
343
330
344
330
345
330
346
330
347
330
348
330
349
330
34A
330
34B
330
34C
330
34D
330
34E
330
34F
330
350
330
351
330
352
330
353
330
354
330
355
330
356
330
357
330
358
330
359
330
35A
330
35B
330
35C
330
35D
330
35E
330
35F
330
360
330
361
330
362
330
363
330
364
330
365
330
366
330
367
330
368
330
369
330
36A
330
36B
330
36C
330
36D
330
36E
330
36F
330
370
330
371
330
372
330
373
330
374
330
375
330
376
330
377
330
378
330
379
330
37A
330
37B
330
37C
330
37D
330
37E
330
37F
330
380
330
381
330
382
330
383
330
384
330
385
330
386
330
387
330
388
330
389
330
38A
330
38B
330
38C
330
38D
330
38E
330
38F
330
390
330
391
330
392
330
393
330
394
330
395
330
396
330
397
330
398
330
399
330
39A
330
39B
330
39C
330
39D
330
39E
330
39F
 92
1
 93
40
 72
2
 10
12.7943847649
 20
2.4937027294
 40
0.0024754162
 50
226.3593695813
 51
270.0146919953
 73
1
 72
1
 10
12.7926763987
 20
2.4919113136
 11
12.7293963636
 21
2.5522893471
 72
2
 10
12.7276876627
 20
2.5504984093
 40
0.0024753014
 50
46.3461263059
 51
180.0014637321
 73
1
 72
1
 10
12.7252123613
 20
2.5504983461
 11
12.7252123613
 21
2.5184523283
 72
2
 10
12.7276873608
 20
2.5184523265
 40
0.0024749995
 50
179.9999571957
 51
270.0000428043
 73
1
 72
1
 10
12.7276873627
 20
2.515977327
 11
12.7480043739
 21
2.515977327
 72
2
 10
12.7480043758
 20
2.5135023274
 40
0.0024749995
 50
359.9999571957
 51
90.0000428043
 73
1
 72
1
 10
12.7504793753
 20
2.5135023256
 11
12.7504793753
 21
2.4937023146
 72
2
 10
12.7480043758
 20
2.4937023128
 40
0.0024749995
 50
269.9999571958
 51
0.0000428043
 73
1
 72
1
 10
12.7480043739
 20
2.4912273132
 11
12.672340332
 21
2.4912273132
 72
2
 10
12.6723403301
 20
2.4937023128
 40
0.0024749995
 50
179.9999571957
 51
270.0000428042
 73
1
 72
1
 10
12.6698653306
 20
2.4937023146
 11
12.6698653306
 21
2.5135023256
 72
2
 10
12.6723403301
 20
2.5135023274
 40
0.0024749995
 50
89.9999571957
 51
180.0000428043
 73
1
 72
1
 10
12.672340332
 20
2.515977327
 11
12.6909873423
 21
2.515977327
 72
2
 10
12.6909873442
 20
2.5184523265
 40
0.0024749995
 50
269.9999571957
 51
0.0000428043
 73
1
 72
1
 10
12.6934623437
 20
2.5184523283
 11
12.6934623437
 21
2.564807354
 72
2
 10
12.6909873442
 20
2.5648073559
 40
0.0024749995
 50
359.9999571957
 51
90.0000428043
 73
1
 72
1
 10
12.6909873423
 20
2.5672823554
 11
12.672340332
 21
2.5672823554
 72
2
 10
12.6723403301
 20
2.5697573549
 40
0.0024749995
 50
179.9999571957
 51
270.0000428043
 73
1
 72
1
 10
12.6698653306
 20
2.5697573568
 11
12.6698653306
 21
2.5895573678
 72
2
 10
12.6723403301
 20
2.5895573696
 40
0.0024749995
 50
89.9999571957
 51
180.0000428043
 73
1
 72
1
 10
12.672340332
 20
2.5920323691
 11
12.7727983877
 21
2.5920323691
 72
2
 10
12.7727985224
 20
2.5895582013
 40
0.0024741678
 50
46.3477981899
 51
90.0031206038
 73
1
 72
1
 10
12.7745063886
 20
2.5913483688
 11
12.8345394219
 21
2.534068337
 72
2
 10
12.8362481229
 20
2.5358592748
 40
0.0024753014
 50
226.3461263059
 51
0.0014637321
 73
1
 72
1
 10
12.8387234242
 20
2.535859338
 11
12.8387234242
 21
2.564807354
 72
2
 10
12.8362484247
 20
2.5648073559
 40
0.0024749995
 50
359.9999571957
 51
90.0000428043
 73
1
 72
1
 10
12.8362484229
 20
2.5672823554
 11
12.8174724125
 21
2.5672823554
 72
2
 10
12.8174724106
 20
2.5697573549
 40
0.0024749995
 50
179.9999571957
 51
270.0000428043
 73
1
 72
1
 10
12.8149974111
 20
2.5697573568
 11
12.8149974111
 21
2.5895573678
 72
2
 10
12.8174724106
 20
2.5895573696
 40
0.0024749995
 50
89.9999571958
 51
180.0000428043
 73
1
 72
1
 10
12.8174724125
 20
2.5920323691
 11
12.8914734535
 21
2.5920323691
 72
2
 10
12.8914734553
 20
2.5895573696
 40
0.0024749995
 50
359.9999571957
 51
90.0000428042
 73
1
 72
1
 10
12.8939484549
 20
2.5895573678
 11
12.8939484549
 21
2.5697573568
 72
2
 10
12.8914734553
 20
2.5697573549
 40
0.0024749995
 50
269.9999571958
 51
0.0000428043
 73
1
 72
1
 10
12.8914734535
 20
2.5672823554
 11
12.8735404436
 21
2.5672823554
 72
2
 10
12.8735404417
 20
2.5648073559
 40
0.0024749995
 50
89.9999571957
 51
180.0000428043
 73
1
 72
1
 10
12.8710654422
 20
2.564807354
 11
12.8710654422
 21
2.4937023146
 72
2
 10
12.8685904427
 20
2.4937023128
 40
0.0024749995
 50
269.9999571957
 51
0.0000428043
 73
1
 72
1
 10
12.8685904408
 20
2.4912273132
 11
12.7943853997
 21
2.4912273132
 97
267
330
295
330
296
330
297
330
298
330
299
330
29A
330
29B
330
29C
330
29D
330
29E
330
29F
330
2A0
330
2A1
330
2A2
330
2A3
330
2A4
330
2A5
330
2A6
330
2A7
330
2A8
330
2A9
330
2AA
330
2AB
330
2AC
330
2AD
330
2AE
330
2AF
330
2B0
330
2B1
330
2B2
330
2B3
330
2B4
330
2B5
330
2B6
330
2B7
330
2B8
330
2B9
330
2BA
330
2BB
330
2BC
330
2BD
330
2BE
330
2BF
330
2C0
330
2C1
330
2C2
330
2C3
330
2C4
330
2C5
330
2C6
330
2C7
330
2C8
330
2C9
330
2CA
330
2CB
330
2CC
330
2CD
330
2CE
330
2CF
330
2D0
330
2D1
330
2D2
330
2D3
330
2D4
330
2D5
330
2D6
330
2D7
330
2D8
330
2D9
330
2DA
330
2DB
330
2DC
330
2DD
330
2DE
330
2DF
330
2E0
330
2E1
330
2E2
330
2E3
330
2E4
330
2E5
330
2E6
330
2E7
330
2E8
330
2E9
330
2EA
330
2EB
330
2EC
330
2ED
330
2EE
330
2EF
330
2F0
330
2F1
330
2F2
330
2F3
330
2F4
330
2F5
330
2F6
330
2F7
330
2F8
330
2F9
330
2FA
330
2FB
330
2FC
330
2FD
330
2FE
330
2FF
330
300
330
301
330
302
330
303
330
304
330
305
330
306
330
307
330
308
330
309
330
30A
330
30B
330
30C
330
30D
330
30E
330
30F
330
310
330
311
330
312
330
313
330
314
330
315
330
316
330
317
330
318
330
319
330
31A
330
31B
330
31C
330
31D
330
31E
330
31F
330
320
330
321
330
322
330
323
330
324
330
325
330
326
330
327
330
328
330
329
330
32A
330
32B
330
32C
330
32D
330
32E
330
32F
330
330
330
331
330
332
330
333
330
334
330
335
330
336
330
337
330
338
330
339
330
33A
330
33B
330
33C
330
33D
330
33E
330
33F
330
340
330
341
330
342
330
343
330
344
330
345
330
346
330
347
330
348
330
349
330
34A
330
34B
330
34C
330
34D
330
34E
330
34F
330
350
330
351
330
352
330
353
330
354
330
355
330
356
330
357
330
358
330
359
330
35A
330
35B
330
35C
330
35D
330
35E
330
35F
330
360
330
361
330
362
330
363
330
364
330
365
330
366
330
367
330
368
330
369
330
36A
330
36B
330
36C
330
36D
330
36E
330
36F
330
370
330
371
330
372
330
373
330
374
330
375
330
376
330
377
330
378
330
379
330
37A
330
37B
330
37C
330
37D
330
37E
330
37F
330
380
330
381
330
382
330
383
330
384
330
385
330
386
330
387
330
388
330
389
330
38A
330
38B
330
38C
330
38D
330
38E
330
38F
330
390
330
391
330
392
330
393
330
394
330
395
330
396
330
397
330
398
330
399
330
39A
330
39B
330
39C
330
39D
330
39E
330
39F
 92
1
 93
23
 72
2
 10
12.3792298263
 20
2.539634765
 40
0.048483885
 50
273.21763719
 51
303.0749121182
 73
1
 72
2
 10
12.3940692204
 20
2.5168671561
 40
0.0213072145
 50
303.0488228549
 51
355.7263138674
 73
1
 72
2
 10
12.400005721
 20
2.5168763464
 40
0.0153945295
 50
354.0454548824
 51
5.1878013979
 73
1
 72
2
 10
12.3931760319
 20
2.5166878286
 40
0.0222174455
 50
4.0793399388
 51
69.834329283
 73
1
 72
1
 10
12.4008351814
 20
2.5375433389
 11
12.3907841758
 21
2.5410923409
 72
1
 10
12.3907841758
 20
2.5410923409
 11
12.3990241804
 21
2.5458683435
 72
2
 10
12.3771587979
 20
2.5826952352
 40
0.0428289026
 50
300.6990502959
 51
319.0591802498
 73
1
 72
2
 10
12.3971873948
 20
2.5665668817
 40
0.0171568255
 50
315.9145124245
 51
16.0049121282
 73
1
 72
2
 10
12.3922357827
 20
2.5632132173
 40
0.0229166529
 50
20.6563876465
 51
62.3316896973
 73
1
 72
2
 10
12.371573659
 20
2.5302846524
 40
0.061747717
 50
59.5385584989
 51
90.0050977555
 73
1
 72
1
 10
12.3715681652
 20
2.5920323691
 11
12.2055050731
 21
2.5920323691
 72
2
 10
12.2055050712
 20
2.5895573696
 40
0.0024749995
 50
89.9999571957
 51
180.0000428043
 73
1
 72
1
 10
12.2030300717
 20
2.5895573678
 11
12.2030300717
 21
2.5697573568
 72
2
 10
12.2055050712
 20
2.5697573549
 40
0.0024749995
 50
179.9999571957
 51
270.0000428043
 73
1
 72
1
 10
12.2055050731
 20
2.5672823554
 11
12.2294470864
 21
2.5672823554
 72
2
 10
12.2294470882
 20
2.5648073559
 40
0.0024749995
 50
359.9999571957
 51
90.0000428043
 73
1
 72
1
 10
12.2319220877
 20
2.564807354
 11
12.2319220877
 21
2.5184523283
 72
2
 10
12.2294470882
 20
2.5184523265
 40
0.0024749995
 50
269.9999571957
 51
0.0000428043
 73
1
 72
1
 10
12.2294470864
 20
2.515977327
 11
12.2055050731
 21
2.515977327
 72
2
 10
12.2055050712
 20
2.5135023274
 40
0.0024749995
 50
89.9999571957
 51
180.0000428043
 73
1
 72
1
 10
12.2030300717
 20
2.5135023256
 11
12.2030300717
 21
2.4937023146
 72
2
 10
12.2055050712
 20
2.4937023128
 40
0.0024749995
 50
179.9999571957
 51
270.0000428043
 73
1
 72
1
 10
12.2055050731
 20
2.4912273132
 11
12.3819511709
 21
2.4912273132
 97
267
330
295
330
296
330
297
330
298
330
299
330
29A
330
29B
330
29C
330
29D
330
29E
330
29F
330
2A0
330
2A1
330
2A2
330
2A3
330
2A4
330
2A5
330
2A6
330
2A7
330
2A8
330
2A9
330
2AA
330
2AB
330
2AC
330
2AD
330
2AE
330
2AF
330
2B0
330
2B1
330
2B2
330
2B3
330
2B4
330
2B5
330
2B6
330
2B7
330
2B8
330
2B9
330
2BA
330
2BB
330
2BC
330
2BD
330
2BE
330
2BF
330
2C0
330
2C1
330
2C2
330
2C3
330
2C4
330
2C5
330
2C6
330
2C7
330
2C8
330
2C9
330
2CA
330
2CB
330
2CC
330
2CD
330
2CE
330
2CF
330
2D0
330
2D1
330
2D2
330
2D3
330
2D4
330
2D5
330
2D6
330
2D7
330
2D8
330
2D9
330
2DA
330
2DB
330
2DC
330
2DD
330
2DE
330
2DF
330
2E0
330
2E1
330
2E2
330
2E3
330
2E4
330
2E5
330
2E6
330
2E7
330
2E8
330
2E9
330
2EA
330
2EB
330
2EC
330
2ED
330
2EE
330
2EF
330
2F0
330
2F1
330
2F2
330
2F3
330
2F4
330
2F5
330
2F6
330
2F7
330
2F8
330
2F9
330
2FA
330
2FB
330
2FC
330
2FD
330
2FE
330
2FF
330
300
330
301
330
302
330
303
330
304
330
305
330
306
330
307
330
308
330
309
330
30A
330
30B
330
30C
330
30D
330
30E
330
30F
330
310
330
311
330
312
330
313
330
314
330
315
330
316
330
317
330
318
330
319
330
31A
330
31B
330
31C
330
31D
330
31E
330
31F
330
320
330
321
330
322
330
323
330
324
330
325
330
326
330
327
330
328
330
329
330
32A
330
32B
330
32C
330
32D
330
32E
330
32F
330
330
330
331
330
332
330
333
330
334
330
335
330
336
330
337
330
338
330
339
330
33A
330
33B
330
33C
330
33D
330
33E
330
33F
330
340
330
341
330
342
330
343
330
344
330
345
330
346
330
347
330
348
330
349
330
34A
330
34B
330
34C
330
34D
330
34E
330
34F
330
350
330
351
330
352
330
353
330
354
330
355
330
356
330
357
330
358
330
359
330
35A
330
35B
330
35C
330
35D
330
35E
330
35F
330
360
330
361
330
362
330
363
330
364
330
365
330
366
330
367
330
368
330
369
330
36A
330
36B
330
36C
330
36D
330
36E
330
36F
330
370
330
371
330
372
330
373
330
374
330
375
330
376
330
377
330
378
330
379
330
37A
330
37B
330
37C
330
37D
330
37E
330
37F
330
380
330
381
330
382
330
383
330
384
330
385
330
386
330
387
330
388
330
389
330
38A
330
38B
330
38C
330
38D
330
38E
330
38F
330
390
330
391
330
392
330
393
330
394
330
395
330
396
330
397
330
398
330
399
330
39A
330
39B
330
39C
330
39D
330
39E
330
39F
 92
1
 93
32
 72
2
 10
12.5168642476
 20
2.4937023128
 40
0.0024749995
 50
269.9999571957
 51
0.0000428043
 73
1
 72
1
 10
12.5193392471
 20
2.4937023146
 11
12.5193392471
 21
2.5135023256
 72
2
 10
12.5168642476
 20
2.5135023274
 40
0.0024749995
 50
359.9999571957
 51
90.0000428043
 73
1
 72
1
 10
12.5168642458
 20
2.515977327
 11
12.5055812395
 21
2.515977327
 72
2
 10
12.5055811302
 20
2.518452367
 40
0.0024750401
 50
147.6063258011
 51
270.0025305754
 73
1
 72
1
 10
12.5034912383
 20
2.5197783291
 11
12.5090072414
 21
2.5284723339
 72
2
 10
12.5110971723
 20
2.5271461342
 40
0.0024752003
 50
89.998372645
 51
147.602165307
 73
1
 72
1
 10
12.5110972426
 20
2.5296213345
 11
12.5459752619
 21
2.5296213345
 72
2
 10
12.5459747223
 20
2.5271458744
 40
0.0024754602
 50
32.8959418573
 51
89.9875097202
 73
1
 72
1
 10
12.548053263
 20
2.5284903339
 11
12.5536792662
 21
2.5197973291
 72
2
 10
12.5516012439
 20
2.5184525341
 40
0.0024752071
 50
270.0004896794
 51
32.9089806818
 73
1
 72
1
 10
12.551601265
 20
2.515977327
 11
12.537150257
 21
2.515977327
 72
2
 10
12.5371502552
 20
2.5135023274
 40
0.0024749995
 50
89.9999571958
 51
180.0000428043
 73
1
 72
1
 10
12.5346752556
 20
2.5135023256
 11
12.5346752556
 21
2.4937023146
 72
2
 10
12.5371502552
 20
2.4937023128
 40
0.0024749995
 50
179.9999571957
 51
270.0000428042
 73
1
 72
1
 10
12.537150257
 20
2.4912273132
 11
12.6424313154
 21
2.4912273132
 72
2
 10
12.6424313172
 20
2.4937023128
 40
0.0024749995
 50
269.9999571957
 51
0.0000428043
 73
1
 72
1
 10
12.6449063168
 20
2.4937023146
 11
12.6449063168
 21
2.5135023256
 72
2
 10
12.6424313172
 20
2.5135023274
 40
0.0024749995
 50
359.9999571957
 51
90.0000428043
 73
1
 72
1
 10
12.6424313154
 20
2.515977327
 11
12.6224153043
 21
2.515977327
 72
2
 10
12.6224154248
 20
2.518451368
 40
0.002474041
 50
212.9056413127
 51
269.9972091756
 73
1
 72
1
 10
12.6203383031
 20
2.5171073276
 11
12.5725822767
 21
2.5909023685
 72
2
 10
12.570504655
 20
2.589557409
 40
0.0024749602
 50
32.9172174468
 51
90.0087853097
 73
1
 72
1
 10
12.5705042755
 20
2.5920323691
 11
12.5133292438
 21
2.5920323691
 72
2
 10
12.5133291735
 20
2.5895571688
 40
0.0024752003
 50
89.9983726451
 51
147.602165307
 73
1
 72
1
 10
12.5112392426
 20
2.5908833685
 11
12.4644392167
 21
2.5171263276
 72
2
 10
12.4623492858
 20
2.5184525273
 40
0.0024752003
 50
269.9983726451
 51
327.602165307
 73
1
 72
1
 10
12.4623492155
 20
2.515977327
 11
12.4394882028
 21
2.515977327
 72
2
 10
12.439488201
 20
2.5135023274
 40
0.0024749995
 50
89.9999571958
 51
180.0000428043
 73
1
 72
1
 10
12.4370132015
 20
2.5135023256
 11
12.4370132015
 21
2.4937023146
 72
2
 10
12.439488201
 20
2.4937023128
 40
0.0024749995
 50
179.9999571957
 51
270.0000428042
 73
1
 72
1
 10
12.4394882028
 20
2.4912273132
 11
12.5168642458
 21
2.4912273132
 97
267
330
295
330
296
330
297
330
298
330
299
330
29A
330
29B
330
29C
330
29D
330
29E
330
29F
330
2A0
330
2A1
330
2A2
330
2A3
330
2A4
330
2A5
330
2A6
330
2A7
330
2A8
330
2A9
330
2AA
330
2AB
330
2AC
330
2AD
330
2AE
330
2AF
330
2B0
330
2B1
330
2B2
330
2B3
330
2B4
330
2B5
330
2B6
330
2B7
330
2B8
330
2B9
330
2BA
330
2BB
330
2BC
330
2BD
330
2BE
330
2BF
330
2C0
330
2C1
330
2C2
330
2C3
330
2C4
330
2C5
330
2C6
330
2C7
330
2C8
330
2C9
330
2CA
330
2CB
330
2CC
330
2CD
330
2CE
330
2CF
330
2D0
330
2D1
330
2D2
330
2D3
330
2D4
330
2D5
330
2D6
330
2D7
330
2D8
330
2D9
330
2DA
330
2DB
330
2DC
330
2DD
330
2DE
330
2DF
330
2E0
330
2E1
330
2E2
330
2E3
330
2E4
330
2E5
330
2E6
330
2E7
330
2E8
330
2E9
330
2EA
330
2EB
330
2EC
330
2ED
330
2EE
330
2EF
330
2F0
330
2F1
330
2F2
330
2F3
330
2F4
330
2F5
330
2F6
330
2F7
330
2F8
330
2F9
330
2FA
330
2FB
330
2FC
330
2FD
330
2FE
330
2FF
330
300
330
301
330
302
330
303
330
304
330
305
330
306
330
307
330
308
330
309
330
30A
330
30B
330
30C
330
30D
330
30E
330
30F
330
310
330
311
330
312
330
313
330
314
330
315
330
316
330
317
330
318
330
319
330
31A
330
31B
330
31C
330
31D
330
31E
330
31F
330
320
330
321
330
322
330
323
330
324
330
325
330
326
330
327
330
328
330
329
330
32A
330
32B
330
32C
330
32D
330
32E
330
32F
330
330
330
331
330
332
330
333
330
334
330
335
330
336
330
337
330
338
330
339
330
33A
330
33B
330
33C
330
33D
330
33E
330
33F
330
340
330
341
330
342
330
343
330
344
330
345
330
346
330
347
330
348
330
349
330
34A
330
34B
330
34C
330
34D
330
34E
330
34F
330
350
330
351
330
352
330
353
330
354
330
355
330
356
330
357
330
358
330
359
330
35A
330
35B
330
35C
330
35D
330
35E
330
35F
330
360
330
361
330
362
330
363
330
364
330
365
330
366
330
367
330
368
330
369
330
36A
330
36B
330
36C
330
36D
330
36E
330
36F
330
370
330
371
330
372
330
373
330
374
330
375
330
376
330
377
330
378
330
379
330
37A
330
37B
330
37C
330
37D
330
37E
330
37F
330
380
330
381
330
382
330
383
330
384
330
385
330
386
330
387
330
388
330
389
330
38A
330
38B
330
38C
330
38D
330
38E
330
38F
330
390
330
391
330
392
330
393
330
394
330
395
330
396
330
397
330
398
330
399
330
39A
330
39B
330
39C
330
39D
330
39E
330
39F
 92
1
 93
6
 72
2
 10
12.2949101208
 20
2.5184523265
 40
0.0024749995
 50
179.9999571957
 51
270.0000428043
 73
1
 72
1
 10
12.2924351213
 20
2.5184523283
 11
12.2924351213
 21
2.5308273352
 72
2
 10
12.2949101208
 20
2.530827337
 40
0.0024749995
 50
89.9999571957
 51
180.0000428043
 73
1
 72
1
 10
12.2949101227
 20
2.5333023366
 11
12.3362731456
 21
2.5333023366
 72
2
 10
12.3362731456
 20
2.5246398318
 40
0.0086625048
 50
270.0
 51
90.0
 73
1
 72
1
 10
12.3362731456
 20
2.515977327
 11
12.2949101227
 21
2.515977327
 97
267
330
295
330
296
330
297
330
298
330
299
330
29A
330
29B
330
29C
330
29D
330
29E
330
29F
330
2A0
330
2A1
330
2A2
330
2A3
330
2A4
330
2A5
330
2A6
330
2A7
330
2A8
330
2A9
330
2AA
330
2AB
330
2AC
330
2AD
330
2AE
330
2AF
330
2B0
330
2B1
330
2B2
330
2B3
330
2B4
330
2B5
330
2B6
330
2B7
330
2B8
330
2B9
330
2BA
330
2BB
330
2BC
330
2BD
330
2BE
330
2BF
330
2C0
330
2C1
330
2C2
330
2C3
330
2C4
330
2C5
330
2C6
330
2C7
330
2C8
330
2C9
330
2CA
330
2CB
330
2CC
330
2CD
330
2CE
330
2CF
330
2D0
330
2D1
330
2D2
330
2D3
330
2D4
330
2D5
330
2D6
330
2D7
330
2D8
330
2D9
330
2DA
330
2DB
330
2DC
330
2DD
330
2DE
330
2DF
330
2E0
330
2E1
330
2E2
330
2E3
330
2E4
330
2E5
330
2E6
330
2E7
330
2E8
330
2E9
330
2EA
330
2EB
330
2EC
330
2ED
330
2EE
330
2EF
330
2F0
330
2F1
330
2F2
330
2F3
330
2F4
330
2F5
330
2F6
330
2F7
330
2F8
330
2F9
330
2FA
330
2FB
330
2FC
330
2FD
330
2FE
330
2FF
330
300
330
301
330
302
330
303
330
304
330
305
330
306
330
307
330
308
330
309
330
30A
330
30B
330
30C
330
30D
330
30E
330
30F
330
310
330
311
330
312
330
313
330
314
330
315
330
316
330
317
330
318
330
319
330
31A
330
31B
330
31C
330
31D
330
31E
330
31F
330
320
330
321
330
322
330
323
330
324
330
325
330
326
330
327
330
328
330
329
330
32A
330
32B
330
32C
330
32D
330
32E
330
32F
330
330
330
331
330
332
330
333
330
334
330
335
330
336
330
337
330
338
330
339
330
33A
330
33B
330
33C
330
33D
330
33E
330
33F
330
340
330
341
330
342
330
343
330
344
330
345
330
346
330
347
330
348
330
349
330
34A
330
34B
330
34C
330
34D
330
34E
330
34F
330
350
330
351
330
352
330
353
330
354
330
355
330
356
330
357
330
358
330
359
330
35A
330
35B
330
35C
330
35D
330
35E
330
35F
330
360
330
361
330
362
330
363
330
364
330
365
330
366
330
367
330
368
330
369
330
36A
330
36B
330
36C
330
36D
330
36E
330
36F
330
370
330
371
330
372
330
373
330
374
330
375
330
376
330
377
330
378
330
379
330
37A
330
37B
330
37C
330
37D
330
37E
330
37F
330
380
330
381
330
382
330
383
330
384
330
385
330
386
330
387
330
388
330
389
330
38A
330
38B
330
38C
330
38D
330
38E
330
38F
330
390
330
391
330
392
330
393
330
394
330
395
330
396
330
397
330
398
330
399
330
39A
330
39B
330
39C
330
39D
330
39E
330
39F
 92
1
 93
13
 72
2
 10
13.4883447827
 20
2.5520823451
 40
0.0024749995
 50
179.9999571957
 51
270.0000428042
 73
1
 72
1
 10
13.4858697831
 20
2.552082347
 11
13.4858697831
 21
2.564807354
 72
2
 10
13.4883447827
 20
2.5648073559
 40
0.0024749995
 50
89.9999571958
 51
180.0000428043
 73
1
 72
1
 10
13.4883447845
 20
2.5672823554
 11
13.5251458049
 21
2.5672823554
 72
2
 10
13.5236009174
 20
2.5388278764
 40
0.0284963867
 50
70.3834917948
 51
86.8922743861
 73
1
 72
2
 10
13.5284605274
 20
2.5518696094
 40
0.0145814632
 50
54.6746025112
 51
71.1660573124
 73
1
 72
2
 10
13.5335900184
 20
2.5587235346
 40
0.0060275915
 50
20.9055592135
 51
56.7851676243
 73
1
 72
2
 10
13.5348905773
 20
2.5593838168
 40
0.0045795888
 50
355.6235353944
 51
18.9942678268
 73
1
 72
2
 10
13.533683767
 20
2.559677593
 40
0.0058087709
 50
318.8515287446
 51
353.6422345323
 73
1
 72
2
 10
13.5295131508
 20
2.5629115009
 40
0.0110815393
 50
306.758405961
 51
320.4502234234
 73
1
 72
2
 10
13.5238839599
 20
2.5706523294
 40
0.0206523367
 50
289.6883413472
 51
306.4184925496
 73
1
 72
2
 10
13.5219564542
 20
2.5750459767
 40
0.0254407115
 50
270.7327484175
 51
290.441894219
 73
1
 72
1
 10
13.5222818033
 20
2.5496073456
 11
13.4883447845
 21
2.5496073456
 97
267
330
295
330
296
330
297
330
298
330
299
330
29A
330
29B
330
29C
330
29D
330
29E
330
29F
330
2A0
330
2A1
330
2A2
330
2A3
330
2A4
330
2A5
330
2A6
330
2A7
330
2A8
330
2A9
330
2AA
330
2AB
330
2AC
330
2AD
330
2AE
330
2AF
330
2B0
330
2B1
330
2B2
330
2B3
330
2B4
330
2B5
330
2B6
330
2B7
330
2B8
330
2B9
330
2BA
330
2BB
330
2BC
330
2BD
330
2BE
330
2BF
330
2C0
330
2C1
330
2C2
330
2C3
330
2C4
330
2C5
330
2C6
330
2C7
330
2C8
330
2C9
330
2CA
330
2CB
330
2CC
330
2CD
330
2CE
330
2CF
330
2D0
330
2D1
330
2D2
330
2D3
330
2D4
330
2D5
330
2D6
330
2D7
330
2D8
330
2D9
330
2DA
330
2DB
330
2DC
330
2DD
330
2DE
330
2DF
330
2E0
330
2E1
330
2E2
330
2E3
330
2E4
330
2E5
330
2E6
330
2E7
330
2E8
330
2E9
330
2EA
330
2EB
330
2EC
330
2ED
330
2EE
330
2EF
330
2F0
330
2F1
330
2F2
330
2F3
330
2F4
330
2F5
330
2F6
330
2F7
330
2F8
330
2F9
330
2FA
330
2FB
330
2FC
330
2FD
330
2FE
330
2FF
330
300
330
301
330
302
330
303
330
304
330
305
330
306
330
307
330
308
330
309
330
30A
330
30B
330
30C
330
30D
330
30E
330
30F
330
310
330
311
330
312
330
313
330
314
330
315
330
316
330
317
330
318
330
319
330
31A
330
31B
330
31C
330
31D
330
31E
330
31F
330
320
330
321
330
322
330
323
330
324
330
325
330
326
330
327
330
328
330
329
330
32A
330
32B
330
32C
330
32D
330
32E
330
32F
330
330
330
331
330
332
330
333
330
334
330
335
330
336
330
337
330
338
330
339
330
33A
330
33B
330
33C
330
33D
330
33E
330
33F
330
340
330
341
330
342
330
343
330
344
330
345
330
346
330
347
330
348
330
349
330
34A
330
34B
330
34C
330
34D
330
34E
330
34F
330
350
330
351
330
352
330
353
330
354
330
355
330
356
330
357
330
358
330
359
330
35A
330
35B
330
35C
330
35D
330
35E
330
35F
330
360
330
361
330
362
330
363
330
364
330
365
330
366
330
367
330
368
330
369
330
36A
330
36B
330
36C
330
36D
330
36E
330
36F
330
370
330
371
330
372
330
373
330
374
330
375
330
376
330
377
330
378
330
379
330
37A
330
37B
330
37C
330
37D
330
37E
330
37F
330
380
330
381
330
382
330
383
330
384
330
385
330
386
330
387
330
388
330
389
330
38A
330
38B
330
38C
330
38D
330
38E
330
38F
330
390
330
391
330
392
330
393
330
394
330
395
330
396
330
397
330
398
330
399
330
39A
330
39B
330
39C
330
39D
330
39E
330
39F
 92
1
 93
6
 72
2
 10
12.3362731456
 20
2.5586198506
 40
0.0086625048
 50
270.0
 51
90.0
 73
1
 72
1
 10
12.3362731456
 20
2.5672823554
 11
12.2949101227
 21
2.5672823554
 72
2
 10
12.2949101208
 20
2.5648073559
 40
0.0024749995
 50
89.9999571957
 51
180.0000428043
 73
1
 72
1
 10
12.2924351213
 20
2.564807354
 11
12.2924351213
 21
2.5524323472
 72
2
 10
12.2949101208
 20
2.5524323453
 40
0.0024749995
 50
179.9999571957
 51
270.0000428043
 73
1
 72
1
 10
12.2949101227
 20
2.5499573458
 11
12.3362731456
 21
2.5499573458
 97
267
330
295
330
296
330
297
330
298
330
299
330
29A
330
29B
330
29C
330
29D
330
29E
330
29F
330
2A0
330
2A1
330
2A2
330
2A3
330
2A4
330
2A5
330
2A6
330
2A7
330
2A8
330
2A9
330
2AA
330
2AB
330
2AC
330
2AD
330
2AE
330
2AF
330
2B0
330
2B1
330
2B2
330
2B3
330
2B4
330
2B5
330
2B6
330
2B7
330
2B8
330
2B9
330
2BA
330
2BB
330
2BC
330
2BD
330
2BE
330
2BF
330
2C0
330
2C1
330
2C2
330
2C3
330
2C4
330
2C5
330
2C6
330
2C7
330
2C8
330
2C9
330
2CA
330
2CB
330
2CC
330
2CD
330
2CE
330
2CF
330
2D0
330
2D1
330
2D2
330
2D3
330
2D4
330
2D5
330
2D6
330
2D7
330
2D8
330
2D9
330
2DA
330
2DB
330
2DC
330
2DD
330
2DE
330
2DF
330
2E0
330
2E1
330
2E2
330
2E3
330
2E4
330
2E5
330
2E6
330
2E7
330
2E8
330
2E9
330
2EA
330
2EB
330
2EC
330
2ED
330
2EE
330
2EF
330
2F0
330
2F1
330
2F2
330
2F3
330
2F4
330
2F5
330
2F6
330
2F7
330
2F8
330
2F9
330
2FA
330
2FB
330
2FC
330
2FD
330
2FE
330
2FF
330
300
330
301
330
302
330
303
330
304
330
305
330
306
330
307
330
308
330
309
330
30A
330
30B
330
30C
330
30D
330
30E
330
30F
330
310
330
311
330
312
330
313
330
314
330
315
330
316
330
317
330
318
330
319
330
31A
330
31B
330
31C
330
31D
330
31E
330
31F
330
320
330
321
330
322
330
323
330
324
330
325
330
326
330
327
330
328
330
329
330
32A
330
32B
330
32C
330
32D
330
32E
330
32F
330
330
330
331
330
332
330
333
330
334
330
335
330
336
330
337
330
338
330
339
330
33A
330
33B
330
33C
330
33D
330
33E
330
33F
330
340
330
341
330
342
330
343
330
344
330
345
330
346
330
347
330
348
330
349
330
34A
330
34B
330
34C
330
34D
330
34E
330
34F
330
350
330
351
330
352
330
353
330
354
330
355
330
356
330
357
330
358
330
359
330
35A
330
35B
330
35C
330
35D
330
35E
330
35F
330
360
330
361
330
362
330
363
330
364
330
365
330
366
330
367
330
368
330
369
330
36A
330
36B
330
36C
330
36D
330
36E
330
36F
330
370
330
371
330
372
330
373
330
374
330
375
330
376
330
377
330
378
330
379
330
37A
330
37B
330
37C
330
37D
330
37E
330
37F
330
380
330
381
330
382
330
383
330
384
330
385
330
386
330
387
330
388
330
389
330
38A
330
38B
330
38C
330
38D
330
38E
330
38F
330
390
330
391
330
392
330
393
330
394
330
395
330
396
330
397
330
398
330
399
330
39A
330
39B
330
39C
330
39D
330
39E
330
39F
 92
1
 93
8
 72
2
 10
12.5401702375
 20
2.5530465533
 40
0.0024752071
 50
270.0004896793
 51
32.9089806818
 73
1
 72
1
 10
12.5422482598
 20
2.5543913483
 11
12.5349892558
 21
2.5656073545
 72
2
 10
12.532910715
 20
2.564262895
 40
0.0024754602
 50
32.8959418573
 51
89.9875097202
 73
1
 72
1
 10
12.5329112547
 20
2.5667383551
 11
12.5267302512
 21
2.5667383551
 72
2
 10
12.5267301809
 20
2.5642631548
 40
0.0024752003
 50
89.998372645
 51
147.602165307
 73
1
 72
1
 10
12.5246402501
 20
2.5655893545
 11
12.5175232461
 21
2.5543723483
 72
2
 10
12.519613138
 20
2.5530463862
 40
0.0024750401
 50
147.6063258012
 51
270.0025305754
 73
1
 72
1
 10
12.5196132473
 20
2.5505713461
 11
12.5401702587
 21
2.5505713461
 97
267
330
295
330
296
330
297
330
298
330
299
330
29A
330
29B
330
29C
330
29D
330
29E
330
29F
330
2A0
330
2A1
330
2A2
330
2A3
330
2A4
330
2A5
330
2A6
330
2A7
330
2A8
330
2A9
330
2AA
330
2AB
330
2AC
330
2AD
330
2AE
330
2AF
330
2B0
330
2B1
330
2B2
330
2B3
330
2B4
330
2B5
330
2B6
330
2B7
330
2B8
330
2B9
330
2BA
330
2BB
330
2BC
330
2BD
330
2BE
330
2BF
330
2C0
330
2C1
330
2C2
330
2C3
330
2C4
330
2C5
330
2C6
330
2C7
330
2C8
330
2C9
330
2CA
330
2CB
330
2CC
330
2CD
330
2CE
330
2CF
330
2D0
330
2D1
330
2D2
330
2D3
330
2D4
330
2D5
330
2D6
330
2D7
330
2D8
330
2D9
330
2DA
330
2DB
330
2DC
330
2DD
330
2DE
330
2DF
330
2E0
330
2E1
330
2E2
330
2E3
330
2E4
330
2E5
330
2E6
330
2E7
330
2E8
330
2E9
330
2EA
330
2EB
330
2EC
330
2ED
330
2EE
330
2EF
330
2F0
330
2F1
330
2F2
330
2F3
330
2F4
330
2F5
330
2F6
330
2F7
330
2F8
330
2F9
330
2FA
330
2FB
330
2FC
330
2FD
330
2FE
330
2FF
330
300
330
301
330
302
330
303
330
304
330
305
330
306
330
307
330
308
330
309
330
30A
330
30B
330
30C
330
30D
330
30E
330
30F
330
310
330
311
330
312
330
313
330
314
330
315
330
316
330
317
330
318
330
319
330
31A
330
31B
330
31C
330
31D
330
31E
330
31F
330
320
330
321
330
322
330
323
330
324
330
325
330
326
330
327
330
328
330
329
330
32A
330
32B
330
32C
330
32D
330
32E
330
32F
330
330
330
331
330
332
330
333
330
334
330
335
330
336
330
337
330
338
330
339
330
33A
330
33B
330
33C
330
33D
330
33E
330
33F
330
340
330
341
330
342
330
343
330
344
330
345
330
346
330
347
330
348
330
349
330
34A
330
34B
330
34C
330
34D
330
34E
330
34F
330
350
330
351
330
352
330
353
330
354
330
355
330
356
330
357
330
358
330
359
330
35A
330
35B
330
35C
330
35D
330
35E
330
35F
330
360
330
361
330
362
330
363
330
364
330
365
330
366
330
367
330
368
330
369
330
36A
330
36B
330
36C
330
36D
330
36E
330
36F
330
370
330
371
330
372
330
373
330
374
330
375
330
376
330
377
330
378
330
379
330
37A
330
37B
330
37C
330
37D
330
37E
330
37F
330
380
330
381
330
382
330
383
330
384
330
385
330
386
330
387
330
388
330
389
330
38A
330
38B
330
38C
330
38D
330
38E
330
38F
330
390
330
391
330
392
330
393
330
394
330
395
330
396
330
397
330
398
330
399
330
39A
330
39B
330
39C
330
39D
330
39E
330
39F
 92
1
 93
1
 72
3
 10
12.9046654608
 20
2.5403783405
 11
-0.8250004575
 21
0.0
 40
0.218572
 50
0.0
 51
-0.0
 73
1
 97
267
330
295
330
296
330
297
330
298
330
299
330
29A
330
29B
330
29C
330
29D
330
29E
330
29F
330
2A0
330
2A1
330
2A2
330
2A3
330
2A4
330
2A5
330
2A6
330
2A7
330
2A8
330
2A9
330
2AA
330
2AB
330
2AC
330
2AD
330
2AE
330
2AF
330
2B0
330
2B1
330
2B2
330
2B3
330
2B4
330
2B5
330
2B6
330
2B7
330
2B8
330
2B9
330
2BA
330
2BB
330
2BC
330
2BD
330
2BE
330
2BF
330
2C0
330
2C1
330
2C2
330
2C3
330
2C4
330
2C5
330
2C6
330
2C7
330
2C8
330
2C9
330
2CA
330
2CB
330
2CC
330
2CD
330
2CE
330
2CF
330
2D0
330
2D1
330
2D2
330
2D3
330
2D4
330
2D5
330
2D6
330
2D7
330
2D8
330
2D9
330
2DA
330
2DB
330
2DC
330
2DD
330
2DE
330
2DF
330
2E0
330
2E1
330
2E2
330
2E3
330
2E4
330
2E5
330
2E6
330
2E7
330
2E8
330
2E9
330
2EA
330
2EB
330
2EC
330
2ED
330
2EE
330
2EF
330
2F0
330
2F1
330
2F2
330
2F3
330
2F4
330
2F5
330
2F6
330
2F7
330
2F8
330
2F9
330
2FA
330
2FB
330
2FC
330
2FD
330
2FE
330
2FF
330
300
330
301
330
302
330
303
330
304
330
305
330
306
330
307
330
308
330
309
330
30A
330
30B
330
30C
330
30D
330
30E
330
30F
330
310
330
311
330
312
330
313
330
314
330
315
330
316
330
317
330
318
330
319
330
31A
330
31B
330
31C
330
31D
330
31E
330
31F
330
320
330
321
330
322
330
323
330
324
330
325
330
326
330
327
330
328
330
329
330
32A
330
32B
330
32C
330
32D
330
32E
330
32F
330
330
330
331
330
332
330
333
330
334
330
335
330
336
330
337
330
338
330
339
330
33A
330
33B
330
33C
330
33D
330
33E
330
33F
330
340
330
341
330
342
330
343
330
344
330
345
330
346
330
347
330
348
330
349
330
34A
330
34B
330
34C
330
34D
330
34E
330
34F
330
350
330
351
330
352
330
353
330
354
330
355
330
356
330
357
330
358
330
359
330
35A
330
35B
330
35C
330
35D
330
35E
330
35F
330
360
330
361
330
362
330
363
330
364
330
365
330
366
330
367
330
368
330
369
330
36A
330
36B
330
36C
330
36D
330
36E
330
36F
330
370
330
371
330
372
330
373
330
374
330
375
330
376
330
377
330
378
330
379
330
37A
330
37B
330
37C
330
37D
330
37E
330
37F
330
380
330
381
330
382
330
383
330
384
330
385
330
386
330
387
330
388
330
389
330
38A
330
38B
330
38C
330
38D
330
38E
330
38F
330
390
330
391
330
392
330
393
330
394
330
395
330
396
330
397
330
398
330
399
330
39A
330
39B
330
39C
330
39D
330
39E
330
39F
 75
0
 76
1
 98
1
 10
0.0
 20
0.0
  0
LINE
  5
3A1
100
AcDbEntity
  8
0
100
AcDbLine
 62
7
  6
CONTINUOUS
 10
8.5
 20
10.112
 11
8.586603
 21
10.262
  0
LINE
  5
3A2
100
AcDbEntity
  8
0
100
AcDbLine
 62
7
  6
CONTINUOUS
 10
16.38
 20
2.807
 11
10.03
 21
2.807
  0
LINE
  5
3A3
100
AcDbEntity
  8
0
100
AcDbLine
 62
7
  6
CONTINUOUS
 10
0.62
 20
3.1995
 11
0.37
 21
3.1995
  0
LINE
  5
3A4
100
AcDbEntity
  8
0
100
AcDbLine
 62
7
  6
CONTINUOUS
 10
16.38
 20
3.1995
 11
16.63
 21
3.1995
  0
LINE
  5
3A5
100
AcDbEntity
  8
0
100
AcDbLine
 62
7
  6
CONTINUOUS
 10
8.586603
 20
0.737
 11
8.5
 21
0.887
  0
LINE
  5
3A6
100
AcDbEntity
  8
0
100
AcDbLine
 62
7
  6
CONTINUOUS
 10
6.53
 20
0.887
 11
6.53
 21
0.637
  0
LINE
  5
3A7
100
AcDbEntity
  8
0
100
AcDbLine
 62
7
  6
CONTINUOUS
 10
6.53
 20
10.112
 11
6.53
 21
10.362
  0
LINE
  5
3A8
100
AcDbEntity
  8
0
100
AcDbLine
 62
7
  6
CONTINUOUS
 10
8.5
 20
0.887
 11
8.5
 21
0.637
  0
LINE
  5
3A9
100
AcDbEntity
  8
0
100
AcDbLine
 62
7
  6
CONTINUOUS
 10
8.5
 20
10.112
 11
8.5
 21
10.362
  0
LINE
  5
3AA
100
AcDbEntity
  8
0
100
AcDbLine
 62
7
  6
CONTINUOUS
 10
0.62
 20
5.4995
 11
0.37
 21
5.4995
  0
LINE
  5
3AB
100
AcDbEntity
  8
0
100
AcDbLine
 62
7
  6
CONTINUOUS
 10
16.38
 20
5.4995
 11
16.63
 21
5.4995
  0
LINE
  5
3AC
100
AcDbEntity
  8
0
100
AcDbLine
 62
7
  6
CONTINUOUS
 10
10.03
 20
2.807
 11
10.03
 21
0.887
  0
LINE
  5
3AD
100
AcDbEntity
  8
0
100
AcDbLine
 62
7
  6
CONTINUOUS
 10
10.47
 20
0.887
 11
10.47
 21
0.637
  0
LINE
  5
3AE
100
AcDbEntity
  8
0
100
AcDbLine
 62
7
  6
CONTINUOUS
 10
10.47
 20
10.112
 11
10.47
 21
10.362
  0
LINE
  5
3AF
100
AcDbEntity
  8
0
100
AcDbLine
 62
7
  6
CONTINUOUS
 10
10.5342808475
 20
1.143294839
 11
10.5342808475
 21
0.921203839
  0
LINE
  5
3B0
100
AcDbEntity
  8
0
100
AcDbLine
 62
7
  6
CONTINUOUS
 10
10.5342808475
 20
1.193294839
 11
10.5342808475
 21
1.293294839
  0
LINE
  5
3B1
100
AcDbEntity
  8
0
100
AcDbLine
 62
7
  6
CONTINUOUS
 10
10.5342808475
 20
1.343294839
 11
10.5342808475
 21
1.565385839
  0
LINE
  5
3B2
100
AcDbEntity
  8
0
100
AcDbLine
 62
7
  6
CONTINUOUS
 10
8.5
 20
0.887
 11
8.413397
 21
0.737
  0
LINE
  5
3B3
100
AcDbEntity
  8
0
100
AcDbLine
 62
7
  6
CONTINUOUS
 10
0.62
 20
7.7995
 11
0.37
 21
7.7995
  0
LINE
  5
3B4
100
AcDbEntity
  8
0
100
AcDbLine
 62
7
  6
CONTINUOUS
 10
16.38
 20
7.7995
 11
16.63
 21
7.7995
  0
LINE
  5
3B5
100
AcDbEntity
  8
0
100
AcDbLine
 62
7
  6
CONTINUOUS
 10
8.413397
 20
10.262
 11
8.5
 21
10.112
  0
LINE
  5
3B6
100
AcDbEntity
  8
0
100
AcDbLine
 62
7
  6
CONTINUOUS
 10
11.1389508475
 20
1.060596839
 11
11.1389508475
 21
1.425992839
  0
LINE
  5
3B7
100
AcDbEntity
  8
0
100
AcDbLine
 62
7
  6
CONTINUOUS
 10
11.7453418475
 20
1.495385839
 11
11.7453418475
 21
0.991203839
  0
LINE
  5
3B8
100
AcDbEntity
  8
0
100
AcDbLine
 62
7
  6
CONTINUOUS
 10
12.44
 20
0.887
 11
12.44
 21
0.637
  0
LINE
  5
3B9
100
AcDbEntity
  8
0
100
AcDbLine
 62
7
  6
CONTINUOUS
 10
12.44
 20
10.112
 11
12.44
 21
10.362
  0
LINE
  5
3BA
100
AcDbEntity
  8
0
100
AcDbLine
 62
7
  6
CONTINUOUS
 10
16.53
 20
5.586103
 11
16.38
 21
5.4995
  0
LINE
  5
3BB
100
AcDbEntity
  8
0
100
AcDbLine
 62
7
  6
CONTINUOUS
 10
16.38
 20
5.4995
 11
16.53
 21
5.412897
  0
LINE
  5
3BC
100
AcDbEntity
  8
0
100
AcDbLine
 62
7
  6
CONTINUOUS
 10
12.83
 20
1.507
 11
12.83
 21
1.137
  0
LINE
  5
3BD
100
AcDbEntity
  8
0
100
AcDbLine
 62
7
  6
CONTINUOUS
 10
16.38
 20
10.112
 11
0.62
 21
10.112
  0
LINE
  5
3BE
100
AcDbEntity
  8
0
100
AcDbLine
 62
7
  6
CONTINUOUS
 10
8.586603
 20
10.262
 11
8.413397
 21
10.262
  0
LINE
  5
3BF
100
AcDbEntity
  8
0
100
AcDbLine
 62
7
  6
CONTINUOUS
 10
14.205
 20
1.137
 11
14.205
 21
0.887
  0
LINE
  5
3C0
100
AcDbEntity
  8
0
100
AcDbLine
 62
7
  6
CONTINUOUS
 10
14.41
 20
0.887
 11
14.41
 21
0.637
  0
LINE
  5
3C1
100
AcDbEntity
  8
0
100
AcDbLine
 62
7
  6
CONTINUOUS
 10
14.41
 20
10.112
 11
14.41
 21
10.362
  0
LINE
  5
3C2
100
AcDbEntity
  8
0
100
AcDbLine
 62
7
  6
CONTINUOUS
 10
15.58
 20
1.507
 11
15.58
 21
1.137
  0
LINE
  5
3C3
100
AcDbEntity
  8
0
100
AcDbLine
 62
7
  6
CONTINUOUS
 10
16.38
 20
0.887
 11
16.38
 21
10.112
  0
LINE
  5
3C4
100
AcDbEntity
  8
0
100
AcDbLine
 62
7
  6
CONTINUOUS
 10
16.53
 20
5.412897
 11
16.53
 21
5.586103
  0
LINE
  5
3C5
100
AcDbEntity
  8
0
100
AcDbLine
 62
7
  6
CONTINUOUS
 10
6.3660008476
 20
4.7285116141
 11
6.2867468426
 21
4.7292032533
  0
LINE
  5
3C6
100
AcDbEntity
  8
AXIS
100
AcDbLine
 62
7
  6
CONTINUOUS
 10
6.3660008476
 20
4.7285116141
 11
6.2867468426
 21
4.7292032533
  0
LINE
  5
3C7
100
AcDbEntity
  8
AXIS
100
AcDbLine
 62
7
  6
CONTINUOUS
 10
6.2084773331
 20
5.6752425373
 11
6.2084773331
 21
5.7502846278
  0
LINE
  5
3C8
100
AcDbEntity
  8
0
100
AcDbLine
 62
7
  6
CONTINUOUS
 10
6.2282070711
 20
4.7882561228
 11
6.2282070711
 21
6.6372710424
  0
LINE
  5
3C9
100
AcDbEntity
  8
0
100
AcDbLine
 62
7
  6
CONTINUOUS
 10
6.8384417925
 20
4.7285116141
 11
6.3660008476
 21
4.7285116141
  0
LINE
  5
3CA
100
AcDbEntity
  8
02___PRT_ALL_AXES
100
AcDbLine
 62
7
  6
CONTINUOUS
 10
6.3660008476
 20
4.7285116141
 11
6.8384417925
 21
4.7285116141
  0
LINE
  5
3CB
100
AcDbEntity
  8
0
100
AcDbLine
 62
7
  6
CONTINUOUS
 10
6.2867468426
 20
4.7292032533
 11
6.2867468426
 21
6.6963239118
  0
LINE
  5
3CC
100
AcDbEntity
  8
02___PRT_ALL_AXES
100
AcDbLine
 62
7
  6
CONTINUOUS
 10
6.3660008476
 20
6.6970155511
 11
6.3660008476
 21
4.7285116141
  0
LINE
  5
3CD
100
AcDbEntity
  8
AXIS
100
AcDbLine
 62
7
  6
CONTINUOUS
 10
6.3660008476
 20
6.6970155511
 11
6.3660008476
 21
4.7285116141
  0
LINE
  5
3CE
100
AcDbEntity
  8
0
100
AcDbLine
 62
7
  6
CONTINUOUS
 10
6.91718195
 20
5.1714249999
 11
6.999522547
 21
5.1714249999
  0
LINE
  5
3CF
100
AcDbEntity
  8
02___PRT_ALL_AXES
100
AcDbLine
 62
7
  6
CONTINUOUS
 10
6.999522547
 20
5.1714249999
 11
7.5793150857
 21
5.1714249999
  0
LINE
  5
3D0
100
AcDbEntity
  8
0
100
AcDbLine
 62
7
  6
CONTINUOUS
 10
7.5793150857
 20
5.1714249999
 11
7.6258433673
 21
5.1714249999
  0
LINE
  5
3D1
100
AcDbEntity
  8
0
100
AcDbLine
 62
7
  6
CONTINUOUS
 10
6.8384417925
 20
4.7285116141
 11
6.8384417925
 21
6.6970155511
  0
LINE
  5
3D2
100
AcDbEntity
  8
0
100
AcDbLine
 62
7
  6
CONTINUOUS
 10
6.8778118712
 20
4.7678816928
 11
6.8778118712
 21
6.6576454723
  0
LINE
  5
3D3
100
AcDbEntity
  8
0
100
AcDbLine
 62
7
  6
CONTINUOUS
 10
6.91718195
 20
6.2541021652
 11
6.91718195
 21
5.1714249999
  0
LINE
  5
3D4
100
AcDbEntity
  8
0
100
AcDbLine
 62
7
  6
CONTINUOUS
 10
7.980174076
 20
5.468491929
 11
7.9762370681
 21
5.468491929
  0
LINE
  5
3D5
100
AcDbEntity
  8
0
100
AcDbLine
 62
7
  6
CONTINUOUS
 10
7.9408039972
 20
5.468491929
 11
7.9368669894
 21
5.468491929
  0
LINE
  5
3D6
100
AcDbEntity
  8
0
100
AcDbLine
 62
7
  6
CONTINUOUS
 10
7.9014339185
 20
5.468491929
 11
7.8974969106
 21
5.468491929
  0
LINE
  5
3D7
100
AcDbEntity
  8
0
100
AcDbLine
 62
7
  6
CONTINUOUS
 10
7.8620638397
 20
5.468491929
 11
7.8581268319
 21
5.468491929
  0
LINE
  5
3D8
100
AcDbEntity
  8
0
100
AcDbLine
 62
7
  6
CONTINUOUS
 10
7.822693761
 20
5.468491929
 11
7.8187567531
 21
5.468491929
  0
LINE
  5
3D9
100
AcDbEntity
  8
0
100
AcDbLine
 62
7
  6
CONTINUOUS
 10
7.7833236823
 20
5.468491929
 11
7.7793866744
 21
5.468491929
  0
LINE
  5
3DA
100
AcDbEntity
  8
0
100
AcDbLine
 62
7
  6
CONTINUOUS
 10
7.7439536035
 20
5.468491929
 11
7.7400165957
 21
5.468491929
  0
LINE
  5
3DB
100
AcDbEntity
  8
0
100
AcDbLine
 62
7
  6
CONTINUOUS
 10
7.7045835248
 20
5.468491929
 11
7.6803939887
 21
5.468491929
  0
LINE
  5
3DC
100
AcDbEntity
  8
02___PRT_ALL_AXES
100
AcDbLine
 62
7
  6
CONTINUOUS
 10
7.6803939887
 20
5.468491929
 11
7.7045835248
 21
5.468491929
  0
LINE
  5
3DD
100
AcDbEntity
  8
02___PRT_ALL_AXES
100
AcDbLine
 62
7
  6
CONTINUOUS
 10
7.7400165957
 20
5.468491929
 11
7.7439536035
 21
5.468491929
  0
LINE
  5
3DE
100
AcDbEntity
  8
02___PRT_ALL_AXES
100
AcDbLine
 62
7
  6
CONTINUOUS
 10
7.7793866744
 20
5.468491929
 11
7.7833236823
 21
5.468491929
  0
LINE
  5
3DF
100
AcDbEntity
  8
02___PRT_ALL_AXES
100
AcDbLine
 62
7
  6
CONTINUOUS
 10
7.8187567531
 20
5.468491929
 11
7.822693761
 21
5.468491929
  0
LINE
  5
3E0
100
AcDbEntity
  8
02___PRT_ALL_AXES
100
AcDbLine
 62
7
  6
CONTINUOUS
 10
7.8581268319
 20
5.468491929
 11
7.8620638397
 21
5.468491929
  0
LINE
  5
3E1
100
AcDbEntity
  8
02___PRT_ALL_AXES
100
AcDbLine
 62
7
  6
CONTINUOUS
 10
7.8974969106
 20
5.468491929
 11
7.9014339185
 21
5.468491929
  0
LINE
  5
3E2
100
AcDbEntity
  8
02___PRT_ALL_AXES
100
AcDbLine
 62
7
  6
CONTINUOUS
 10
7.9368669894
 20
5.468491929
 11
7.9408039972
 21
5.468491929
  0
LINE
  5
3E3
100
AcDbEntity
  8
02___PRT_ALL_AXES
100
AcDbLine
 62
7
  6
CONTINUOUS
 10
7.9762370681
 20
5.468491929
 11
7.980174076
 21
5.468491929
  0
LINE
  5
3E4
100
AcDbEntity
  8
02___PRT_ALL_AXES
100
AcDbLine
 62
7
  6
CONTINUOUS
 10
8.0156071468
 20
5.468491929
 11
8.0195441547
 21
5.468491929
  0
LINE
  5
3E5
100
AcDbEntity
  8
0
100
AcDbLine
 62
7
  6
CONTINUOUS
 10
8.0982843122
 20
5.5090234251
 11
8.0589142334
 21
5.5090234251
  0
LWPOLYLINE
  5
3E6
100
AcDbEntity
  8
02___PRT_ALL_AXES
100
AcDbPolyline
 62
7
  6
CONTINUOUS
 90
10
 70
0
 10
6.9735527512
 20
6.2541021652
 10
6.9749868711
 20
6.2320515353
 10
6.9764187341
 20
6.1979972041
 10
6.9778527061
 20
6.1526285617
 10
6.9792968217
 20
6.0966143813
 10
6.9807581157
 20
6.0307339617
 10
6.982217433
 20
5.9572867927
 10
6.9836585599
 20
5.878974117
 10
6.9850888542
 20
5.7973892956
 10
6.9879611207
 20
5.6296056042
  0
LWPOLYLINE
  5
3E7
100
AcDbEntity
  8
02___PRT_ALL_AXES
100
AcDbPolyline
 62
7
  6
CONTINUOUS
 90
9
 70
0
 10
7.0478190227
 20
5.1714249999
 10
7.0463691976
 20
5.1937851012
 10
7.0449288791
 20
5.2282036085
 10
7.0434998018
 20
5.2735803617
 10
7.0420550538
 20
5.3297510588
 10
7.0405937045
 20
5.395749725
 10
7.0391344824
 20
5.4692846115
 10
7.0376935453
 20
5.5476531574
 10
7.0362575965
 20
5.6296056042
  0
LWPOLYLINE
  5
3E8
100
AcDbEntity
  8
02___PRT_ALL_AXES
100
AcDbPolyline
 62
7
  6
CONTINUOUS
 90
9
 70
0
 10
7.0326078693
 20
6.2541021652
 10
7.034068543
 20
6.231527447
 10
7.0355247454
 20
6.1965744747
 10
7.0369630094
 20
6.1506708261
 10
7.0383963531
 20
6.0947409919
 10
7.0398321101
 20
6.0298291289
 10
7.0412612307
 20
5.9578815727
 10
7.042692119
 20
5.880179112
 10
7.0441334386
 20
5.7979996452
  0
LWPOLYLINE
  5
3E9
100
AcDbEntity
  8
02___PRT_ALL_AXES
100
AcDbPolyline
 62
7
  6
CONTINUOUS
 90
9
 70
0
 10
7.1068741409
 20
5.1714249999
 10
7.1054134886
 20
5.1939992935
 10
7.1039572291
 20
5.2289536956
 10
7.1025188994
 20
5.274859949
 10
7.1010853845
 20
5.3307976989
 10
7.0996492473
 20
5.3957293546
 10
7.0982201876
 20
5.4676766791
 10
7.0967894576
 20
5.5453722791
 10
7.0953481961
 20
5.6275492724
  0
LWPOLYLINE
  5
3EA
100
AcDbEntity
  8
02___PRT_ALL_AXES
100
AcDbPolyline
 62
7
  6
CONTINUOUS
 90
7
 70
0
 10
7.0180418109
 20
5.1714249999
 10
7.0165688951
 20
5.2133280716
 10
7.0150959793
 20
5.2674714123
 10
7.0136230634
 20
5.3325280656
 10
7.0121501476
 20
5.4069036096
 10
7.0106772317
 20
5.4887752332
 10
7.0092043159
 20
5.5761364095
  0
LWPOLYLINE
  5
3EB
100
AcDbEntity
  8
02___PRT_ALL_AXES
100
AcDbPolyline
 62
7
  6
CONTINUOUS
 90
7
 70
0
 10
7.0254237007
 20
5.1714249999
 10
7.0239507849
 20
5.2133280716
 10
7.022477869
 20
5.2674714123
 10
7.0210049532
 20
5.3325280656
 10
7.0195320373
 20
5.4069036096
 10
7.0180591215
 20
5.4887752332
 10
7.0165862056
 20
5.5761364095
  0
LWPOLYLINE
  5
3EC
100
AcDbEntity
  8
02___PRT_ALL_AXES
100
AcDbPolyline
 62
7
  6
CONTINUOUS
 90
7
 70
0
 10
7.0770969291
 20
5.1714249999
 10
7.0756240132
 20
5.2133280716
 10
7.0741510974
 20
5.2674714123
 10
7.0726781815
 20
5.3325280656
 10
7.0712052657
 20
5.4069036096
 10
7.0697323498
 20
5.4887752332
 10
7.068259434
 20
5.5761364095
  0
LWPOLYLINE
  5
3ED
100
AcDbEntity
  8
02___PRT_ALL_AXES
100
AcDbPolyline
 62
7
  6
CONTINUOUS
 90
5
 70
0
 10
7.0844788188
 20
5.1714249999
 10
7.083005903
 20
5.2133280716
 10
7.0815329871
 20
5.2674714123
 10
7.0800600713
 20
5.3325280656
 10
7.0785871554
 20
5.4069036096
  0
LWPOLYLINE
  5
3EE
100
AcDbEntity
  8
02___PRT_ALL_AXES
100
AcDbPolyline
 62
7
  6
CONTINUOUS
 90
3
 70
0
 10
7.0785871554
 20
5.4069036096
 10
7.0771142396
 20
5.4887752332
 10
7.0756413238
 20
5.5761364095
  0
LWPOLYLINE
  5
3EF
100
AcDbEntity
  8
02___PRT_ALL_AXES
100
AcDbPolyline
 62
7
  6
CONTINUOUS
 90
9
 70
0
 10
6.9879611207
 20
5.6296056042
 10
6.9893970695
 20
5.5476531574
 10
6.9908380066
 20
5.4692846115
 10
6.9922972288
 20
5.395749725
 10
6.9937585781
 20
5.3297510588
 10
6.9952033261
 20
5.2735803617
 10
6.9966324034
 20
5.2282036085
 10
6.9980727219
 20
5.1937851012
 10
6.999522547
 20
5.1714249999
  0
LWPOLYLINE
  5
3F0
100
AcDbEntity
  8
02___PRT_ALL_AXES
100
AcDbPolyline
 62
7
  6
CONTINUOUS
 90
10
 70
0
 10
7.0362575965
 20
5.6296056042
 10
7.03338533
 20
5.7973892956
 10
7.0319550357
 20
5.878974117
 10
7.0305139088
 20
5.9572867927
 10
7.0290545914
 20
6.0307339617
 10
7.0275932975
 20
6.0966143813
 10
7.0261491818
 20
6.1526285617
 10
7.0247152099
 20
6.1979972041
 10
7.0232833469
 20
6.2320515353
 10
7.021849227
 20
6.2541021652
  0
LWPOLYLINE
  5
3F1
100
AcDbEntity
  8
02___PRT_ALL_AXES
100
AcDbPolyline
 62
7
  6
CONTINUOUS
 90
10
 70
0
 10
7.0441334386
 20
5.7979996452
 10
7.0470517204
 20
5.6275492724
 10
7.0484929818
 20
5.5453722791
 10
7.0499237119
 20
5.4676766791
 10
7.0513527715
 20
5.3957293546
 10
7.0527889087
 20
5.3307976989
 10
7.0542224236
 20
5.274859949
 10
7.0556607533
 20
5.2289536956
 10
7.0571170128
 20
5.1939992935
 10
7.0585776651
 20
5.1714249999
  0
LWPOLYLINE
  5
3F2
100
AcDbEntity
  8
02___PRT_ALL_AXES
100
AcDbPolyline
 62
7
  6
CONTINUOUS
 90
7
 70
0
 10
7.0047855683
 20
5.8493907556
 10
7.0033126525
 20
5.936751932
 10
7.0018397367
 20
6.0186235555
 10
7.0003668208
 20
6.0929990995
 10
6.998893905
 20
6.1580557528
 10
6.9974209891
 20
6.2121990935
 10
6.9959480733
 20
6.2541021652
  0
LWPOLYLINE
  5
3F3
100
AcDbEntity
  8
02___PRT_ALL_AXES
100
AcDbPolyline
 62
7
  6
CONTINUOUS
 90
7
 70
0
 10
7.0121674581
 20
5.8493907556
 10
7.0106945423
 20
5.936751932
 10
7.0092216264
 20
6.0186235555
 10
7.0077487106
 20
6.0929990995
 10
7.0062757947
 20
6.1580557528
 10
7.0048028789
 20
6.2121990935
 10
7.003329963
 20
6.2541021652
  0
LWPOLYLINE
  5
3F4
100
AcDbEntity
  8
02___PRT_ALL_AXES
100
AcDbPolyline
 62
7
  6
CONTINUOUS
 90
7
 70
0
 10
7.0638406865
 20
5.8493907556
 10
7.0623677706
 20
5.936751932
 10
7.0608948548
 20
6.0186235555
 10
7.0594219389
 20
6.0929990995
 10
7.0579490231
 20
6.1580557528
 10
7.0564761072
 20
6.2121990935
 10
7.0550031914
 20
6.2541021652
  0
LWPOLYLINE
  5
3F5
100
AcDbEntity
  8
02___PRT_ALL_AXES
100
AcDbPolyline
 62
7
  6
CONTINUOUS
 90
7
 70
0
 10
7.0712225762
 20
5.8493907556
 10
7.0697496604
 20
5.936751932
 10
7.0682767445
 20
6.0186235555
 10
7.0668038287
 20
6.0929990995
 10
7.0653309128
 20
6.1580557528
 10
7.063857997
 20
6.2121990935
 10
7.0623850811
 20
6.2541021652
  0
LINE
  5
3F6
100
AcDbEntity
  8
02___PRT_ALL_AXES
100
AcDbLine
 62
7
  6
CONTINUOUS
 10
7.0092043159
 20
5.5761364095
 11
7.0047855683
 21
5.8493907556
  0
LINE
  5
3F7
100
AcDbEntity
  8
02___PRT_ALL_AXES
100
AcDbLine
 62
7
  6
CONTINUOUS
 10
7.0165862056
 20
5.5761364095
 11
7.0121674581
 21
5.8493907556
  0
LINE
  5
3F8
100
AcDbEntity
  8
02___PRT_ALL_AXES
100
AcDbLine
 62
7
  6
CONTINUOUS
 10
7.068259434
 20
5.5761364095
 11
7.0638406865
 21
5.8493907556
  0
LINE
  5
3F9
100
AcDbEntity
  8
02___PRT_ALL_AXES
100
AcDbLine
 62
7
  6
CONTINUOUS
 10
7.0756413238
 20
5.5761364095
 11
7.0712225762
 21
5.8493907556
  0
LWPOLYLINE
  5
3FA
100
AcDbEntity
  8
02___PRT_ALL_AXES
100
AcDbPolyline
 62
7
  6
CONTINUOUS
 90
9
 70
0
 10
7.165929259
 20
5.1714249999
 10
7.1644947432
 20
5.1934834133
 10
7.1630630751
 20
5.2275355528
 10
7.1616291404
 20
5.2729043911
 10
7.160184977
 20
5.3289216829
 10
7.158723612
 20
5.394806735
 10
7.1572641433
 20
5.4682631793
 10
7.1558228512
 20
5.5465865446
 10
7.1543923034
 20
5.628187275
  0
LWPOLYLINE
  5
3FB
100
AcDbEntity
  8
02___PRT_ALL_AXES
100
AcDbPolyline
 62
7
  6
CONTINUOUS
 90
10
 70
0
 10
7.0916629875
 20
6.2541021652
 10
7.0931124494
 20
6.2317492364
 10
7.0945522364
 20
6.1973485601
 10
7.0959813858
 20
6.1519759476
 10
7.0974263073
 20
6.0958034758
 10
7.0988877906
 20
6.029802151
 10
7.1003470691
 20
5.9562666872
 10
7.1017880599
 20
5.8778966718
 10
7.1032239645
 20
5.7959476045
 10
7.1060958277
 20
5.628187275
  0
LWPOLYLINE
  5
3FC
100
AcDbEntity
  8
02___PRT_ALL_AXES
100
AcDbPolyline
 62
7
  6
CONTINUOUS
 90
7
 70
0
 10
7.1361520472
 20
5.1714249999
 10
7.1346791313
 20
5.2133280716
 10
7.1332062155
 20
5.2674714123
 10
7.1317332996
 20
5.3325280656
 10
7.1302603838
 20
5.4069036096
 10
7.1287874679
 20
5.4887752332
 10
7.1273145521
 20
5.5761364095
  0
LWPOLYLINE
  5
3FD
100
AcDbEntity
  8
02___PRT_ALL_AXES
100
AcDbPolyline
 62
7
  6
CONTINUOUS
 90
7
 70
0
 10
7.1435339369
 20
5.1714249999
 10
7.1420610211
 20
5.2133280716
 10
7.1405881052
 20
5.2674714123
 10
7.1391151894
 20
5.3325280656
 10
7.1376422736
 20
5.4069036096
 10
7.1361693577
 20
5.4887752332
 10
7.1346964419
 20
5.5761364095
  0
LWPOLYLINE
  5
3FE
100
AcDbEntity
  8
02___PRT_ALL_AXES
100
AcDbPolyline
 62
7
  6
CONTINUOUS
 90
9
 70
0
 10
7.1060958277
 20
5.628187275
 10
7.1075263754
 20
5.5465865446
 10
7.1089676675
 20
5.4682631793
 10
7.1104271363
 20
5.394806735
 10
7.1118885012
 20
5.3289216829
 10
7.1133326646
 20
5.2729043911
 10
7.1147665993
 20
5.2275355528
 10
7.1161982674
 20
5.1934834133
 10
7.1176327832
 20
5.1714249999
  0
LWPOLYLINE
  5
3FF
100
AcDbEntity
  8
02___PRT_ALL_AXES
100
AcDbPolyline
 62
7
  6
CONTINUOUS
 90
9
 70
0
 10
7.1651723668
 20
5.6269461769
 10
7.1666113556
 20
5.5449176702
 10
7.1680443128
 20
5.4671324067
 10
7.169483061
 20
5.3947680968
 10
7.1709126008
 20
5.3302292016
 10
7.1723390307
 20
5.2746331634
 10
7.1737749402
 20
5.2288427429
 10
7.1752292622
 20
5.193959415
 10
7.1766879013
 20
5.1714249999
  0
LWPOLYLINE
  5
400
100
AcDbEntity
  8
02___PRT_ALL_AXES
100
AcDbPolyline
 62
7
  6
CONTINUOUS
 90
10
 70
0
 10
7.0953481961
 20
5.6275492724
 10
7.0924299144
 20
5.7979996452
 10
7.0909885948
 20
5.880179112
 10
7.0895577065
 20
5.9578815727
 10
7.0881285858
 20
6.0298291289
 10
7.0866928288
 20
6.0947409919
 10
7.0852594852
 20
6.1506708261
 10
7.0838212211
 20
6.1965744747
 10
7.0823650188
 20
6.231527447
 10
7.0809043451
 20
6.2541021652
  0
LWPOLYLINE
  5
401
100
AcDbEntity
  8
02___PRT_ALL_AXES
100
AcDbPolyline
 62
7
  6
CONTINUOUS
 90
10
 70
0
 10
7.1543923034
 20
5.628187275
 10
7.1515204403
 20
5.7959476045
 10
7.1500845356
 20
5.8778966718
 10
7.1486435448
 20
5.9562666872
 10
7.1471842663
 20
6.029802151
 10
7.1457227831
 20
6.0958034758
 10
7.1442778616
 20
6.1519759476
 10
7.1428487121
 20
6.1973485601
 10
7.1414089252
 20
6.2317492364
 10
7.1399594632
 20
6.2541021652
  0
LWPOLYLINE
  5
402
100
AcDbEntity
  8
02___PRT_ALL_AXES
100
AcDbPolyline
 62
7
  6
CONTINUOUS
 90
7
 70
0
 10
7.1228958046
 20
5.8493907556
 10
7.1214228887
 20
5.936751932
 10
7.1199499729
 20
6.0186235555
 10
7.118477057
 20
6.0929990995
 10
7.1170041412
 20
6.1580557528
 10
7.1155312253
 20
6.2121990935
 10
7.1140583095
 20
6.2541021652
  0
LWPOLYLINE
  5
403
100
AcDbEntity
  8
02___PRT_ALL_AXES
100
AcDbPolyline
 62
7
  6
CONTINUOUS
 90
7
 70
0
 10
7.1302776943
 20
5.8493907556
 10
7.1288047785
 20
5.936751932
 10
7.1273318626
 20
6.0186235555
 10
7.1258589468
 20
6.0929990995
 10
7.1243860309
 20
6.1580557528
 10
7.1229131151
 20
6.2121990935
 10
7.1214401993
 20
6.2541021652
  0
LINE
  5
404
100
AcDbEntity
  8
02___PRT_ALL_AXES
100
AcDbLine
 62
7
  6
CONTINUOUS
 10
7.1273145521
 20
5.5761364095
 11
7.1228958046
 21
5.8493907556
  0
LINE
  5
405
100
AcDbEntity
  8
02___PRT_ALL_AXES
100
AcDbLine
 62
7
  6
CONTINUOUS
 10
7.1346964419
 20
5.5761364095
 11
7.1302776943
 21
5.8493907556
  0
LWPOLYLINE
  5
406
100
AcDbEntity
  8
02___PRT_ALL_AXES
100
AcDbPolyline
 62
7
  6
CONTINUOUS
 90
9
 70
0
 10
7.2840394952
 20
5.1714249999
 10
7.2826067663
 20
5.193448289
 10
7.2811668031
 20
5.2277167046
 10
7.2797340573
 20
5.2730924408
 10
7.2782948889
 20
5.3289353312
 10
7.276838278
 20
5.3945945785
 10
7.2753835102
 20
5.4677834088
 10
7.2739466485
 20
5.5458284617
 10
7.2725198871
 20
5.62718216
  0
LWPOLYLINE
  5
407
100
AcDbEntity
  8
02___PRT_ALL_AXES
100
AcDbPolyline
 62
7
  6
CONTINUOUS
 90
10
 70
0
 10
7.1507181056
 20
6.2541021652
 10
7.1521767628
 20
6.2315673911
 10
7.1536309391
 20
6.1966880019
 10
7.1550677982
 20
6.1508647495
 10
7.1565048959
 20
6.0948125786
 10
7.1579527553
 20
6.0293296242
 10
7.1593928192
 20
5.9567594138
 10
7.1608183982
 20
5.8792825104
 10
7.1622580932
 20
5.7971641807
 10
7.1651723668
 20
5.6269461769
  0
LWPOLYLINE
  5
408
100
AcDbEntity
  8
02___PRT_ALL_AXES
100
AcDbPolyline
 62
7
  6
CONTINUOUS
 90
9
 70
0
 10
7.2249843771
 20
5.1714249999
 10
7.223525738
 20
5.193959415
 10
7.222071416
 20
5.2288427429
 10
7.2206355065
 20
5.2746331634
 10
7.2192090766
 20
5.3302292016
 10
7.2177795368
 20
5.3947680968
 10
7.2163407885
 20
5.4671324067
 10
7.2149078314
 20
5.5449176702
 10
7.2134688426
 20
5.6269461769
  0
LWPOLYLINE
  5
409
100
AcDbEntity
  8
02___PRT_ALL_AXES
100
AcDbPolyline
 62
7
  6
CONTINUOUS
 90
10
 70
0
 10
7.2097732237
 20
6.2541021652
 10
7.2112305757
 20
6.2315932331
 10
7.2126834952
 20
6.1967599061
 10
7.2141187279
 20
6.1510137537
 10
7.2155524063
 20
6.095134029
 10
7.2170047981
 20
6.0294772446
 10
7.218456721
 20
5.956297425
 10
7.2198923661
 20
5.8782284183
 10
7.2213285269
 20
5.7962765051
 10
7.2242234113
 20
5.62718216
  0
LWPOLYLINE
  5
40A
100
AcDbEntity
  8
02___PRT_ALL_AXES
100
AcDbPolyline
 62
7
  6
CONTINUOUS
 90
7
 70
0
 10
7.1952071653
 20
5.1714249999
 10
7.1937342494
 20
5.2133280716
 10
7.1922613336
 20
5.2674714123
 10
7.1907884177
 20
5.3325280656
 10
7.1893155019
 20
5.4069036096
 10
7.1878425861
 20
5.4887752332
 10
7.1863696702
 20
5.5761364095
  0
LWPOLYLINE
  5
40B
100
AcDbEntity
  8
02___PRT_ALL_AXES
100
AcDbPolyline
 62
7
  6
CONTINUOUS
 90
7
 70
0
 10
7.202589055
 20
5.1714249999
 10
7.2011161392
 20
5.2133280716
 10
7.1996432233
 20
5.2674714123
 10
7.1981703075
 20
5.3325280656
 10
7.1966973917
 20
5.4069036096
 10
7.1952244758
 20
5.4887752332
 10
7.19375156
 20
5.5761364095
  0
LWPOLYLINE
  5
40C
100
AcDbEntity
  8
02___PRT_ALL_AXES
100
AcDbPolyline
 62
7
  6
CONTINUOUS
 90
7
 70
0
 10
7.2542622834
 20
5.1714249999
 10
7.2527893675
 20
5.2133280716
 10
7.2513164517
 20
5.2674714123
 10
7.2498435359
 20
5.3325280656
 10
7.24837062
 20
5.4069036096
 10
7.2468977042
 20
5.4887752332
 10
7.2454247883
 20
5.5761364095
  0
LWPOLYLINE
  5
40D
100
AcDbEntity
  8
02___PRT_ALL_AXES
100
AcDbPolyline
 62
7
  6
CONTINUOUS
 90
7
 70
0
 10
7.2616441731
 20
5.1714249999
 10
7.2601712573
 20
5.2133280716
 10
7.2586983415
 20
5.2674714123
 10
7.2572254256
 20
5.3325280656
 10
7.2557525098
 20
5.4069036096
 10
7.2542795939
 20
5.4887752332
 10
7.2528066781
 20
5.5761364095
  0
LWPOLYLINE
  5
40E
100
AcDbEntity
  8
02___PRT_ALL_AXES
100
AcDbPolyline
 62
7
  6
CONTINUOUS
 90
9
 70
0
 10
7.2242234113
 20
5.62718216
 10
7.2256501727
 20
5.5458284617
 10
7.2270870344
 20
5.4677834088
 10
7.2285418022
 20
5.3945945785
 10
7.2299984132
 20
5.3289353312
 10
7.2314375815
 20
5.2730924408
 10
7.2328703274
 20
5.2277167046
 10
7.2343102906
 20
5.193448289
 10
7.2357430194
 20
5.1714249999
  0
LWPOLYLINE
  5
40F
100
AcDbEntity
  8
02___PRT_ALL_AXES
100
AcDbPolyline
 62
7
  6
CONTINUOUS
 90
10
 70
0
 10
7.2134688426
 20
5.6269461769
 10
7.210554569
 20
5.7971641807
 10
7.2091148739
 20
5.8792825104
 10
7.207689295
 20
5.9567594138
 10
7.2062492311
 20
6.0293296242
 10
7.2048013716
 20
6.0948125786
 10
7.203364274
 20
6.1508647495
 10
7.2019274149
 20
6.1966880019
 10
7.2004732385
 20
6.2315673911
 10
7.1990145813
 20
6.2541021652
  0
LWPOLYLINE
  5
410
100
AcDbEntity
  8
02___PRT_ALL_AXES
100
AcDbPolyline
 62
7
  6
CONTINUOUS
 90
7
 70
0
 10
7.1819509227
 20
5.8493907556
 10
7.1804780068
 20
5.936751932
 10
7.179005091
 20
6.0186235555
 10
7.1775321751
 20
6.0929990995
 10
7.1760592593
 20
6.1580557528
 10
7.1745863434
 20
6.2121990935
 10
7.1731134276
 20
6.2541021652
  0
LWPOLYLINE
  5
411
100
AcDbEntity
  8
02___PRT_ALL_AXES
100
AcDbPolyline
 62
7
  6
CONTINUOUS
 90
7
 70
0
 10
7.1893328124
 20
5.8493907556
 10
7.1878598966
 20
5.936751932
 10
7.1863869807
 20
6.0186235555
 10
7.1849140649
 20
6.0929990995
 10
7.1834411491
 20
6.1580557528
 10
7.1819682332
 20
6.2121990935
 10
7.1804953174
 20
6.2541021652
  0
LWPOLYLINE
  5
412
100
AcDbEntity
  8
02___PRT_ALL_AXES
100
AcDbPolyline
 62
7
  6
CONTINUOUS
 90
7
 70
0
 10
7.2410060408
 20
5.8493907556
 10
7.2395331249
 20
5.936751932
 10
7.2380602091
 20
6.0186235555
 10
7.2365872932
 20
6.0929990995
 10
7.2351143774
 20
6.1580557528
 10
7.2336414616
 20
6.2121990935
 10
7.2321685457
 20
6.2541021652
  0
LWPOLYLINE
  5
413
100
AcDbEntity
  8
02___PRT_ALL_AXES
100
AcDbPolyline
 62
7
  6
CONTINUOUS
 90
7
 70
0
 10
7.2483879305
 20
5.8493907556
 10
7.2469150147
 20
5.936751932
 10
7.2454420989
 20
6.0186235555
 10
7.243969183
 20
6.0929990995
 10
7.2424962672
 20
6.1580557528
 10
7.2410233513
 20
6.2121990935
 10
7.2395504355
 20
6.2541021652
  0
LINE
  5
414
100
AcDbEntity
  8
02___PRT_ALL_AXES
100
AcDbLine
 62
7
  6
CONTINUOUS
 10
7.1863696702
 20
5.5761364095
 11
7.1819509227
 21
5.8493907556
  0
LINE
  5
415
100
AcDbEntity
  8
02___PRT_ALL_AXES
100
AcDbLine
 62
7
  6
CONTINUOUS
 10
7.19375156
 20
5.5761364095
 11
7.1893328124
 21
5.8493907556
  0
LINE
  5
416
100
AcDbEntity
  8
02___PRT_ALL_AXES
100
AcDbLine
 62
7
  6
CONTINUOUS
 10
7.2454247883
 20
5.5761364095
 11
7.2410060408
 21
5.8493907556
  0
LINE
  5
417
100
AcDbEntity
  8
02___PRT_ALL_AXES
100
AcDbLine
 62
7
  6
CONTINUOUS
 10
7.2528066781
 20
5.5761364095
 11
7.2483879305
 21
5.8493907556
  0
LINE
  5
418
100
AcDbEntity
  8
0
100
AcDbLine
 62
7
  6
CONTINUOUS
 10
8.0307872619
 20
5.9494810516
 11
8.0309690713
 21
5.9495473814
  0
LINE
  5
419
100
AcDbEntity
  8
0
100
AcDbLine
 62
7
  6
CONTINUOUS
 10
8.0432569922
 20
5.4885295833
 11
8.0434488851
 21
5.4884596004
  0
LWPOLYLINE
  5
41A
100
AcDbEntity
  8
02___PRT_ALL_AXES
100
AcDbPolyline
 62
7
  6
CONTINUOUS
 90
9
 70
0
 10
7.2688283418
 20
6.2541021652
 10
7.2702616128
 20
6.2320682204
 10
7.2717018596
 20
6.1977874583
 10
7.2731346517
 20
6.1524038808
 10
7.2745738411
 20
6.0965542452
 10
7.2760304435
 20
6.0308902323
 10
7.2774851071
 20
5.9577027655
 10
7.2789218598
 20
5.879661187
 10
7.2803490521
 20
5.7982811477
  0
LWPOLYLINE
  5
41B
100
AcDbEntity
  8
02___PRT_ALL_AXES
100
AcDbPolyline
 62
7
  6
CONTINUOUS
 90
10
 70
0
 10
7.3430946133
 20
5.1714249999
 10
7.34163733
 20
5.1939325714
 10
7.3401843923
 20
5.2287658418
 10
7.3387492402
 20
5.2745087468
 10
7.3373163908
 20
5.3303525856
 10
7.3358647146
 20
5.3959695011
 10
7.3344131461
 20
5.4691229424
 10
7.3329775895
 20
5.5471802415
 10
7.3315413986
 20
5.6291295945
 10
7.3286455279
 20
5.7982811477
  0
LWPOLYLINE
  5
41C
100
AcDbEntity
  8
02___PRT_ALL_AXES
100
AcDbPolyline
 62
7
  6
CONTINUOUS
 90
7
 70
0
 10
7.3133174015
 20
5.1714249999
 10
7.3118444857
 20
5.2133280716
 10
7.3103715698
 20
5.2674714123
 10
7.308898654
 20
5.3325280656
 10
7.3074257381
 20
5.4069036096
 10
7.3059528223
 20
5.4887752332
 10
7.3044799064
 20
5.5761364095
  0
LWPOLYLINE
  5
41D
100
AcDbEntity
  8
02___PRT_ALL_AXES
100
AcDbPolyline
 62
7
  6
CONTINUOUS
 90
6
 70
0
 10
7.3206992913
 20
5.1714249999
 10
7.3192263754
 20
5.2133280716
 10
7.3177534596
 20
5.2674714123
 10
7.3162805437
 20
5.3325280656
 10
7.3148076279
 20
5.4069036096
 10
7.313334712
 20
5.4887752332
  0
LWPOLYLINE
  5
41E
100
AcDbEntity
  8
02___PRT_ALL_AXES
100
AcDbPolyline
 62
7
  6
CONTINUOUS
 90
6
 70
0
 10
7.3059701328
 20
5.936751932
 10
7.304497217
 20
6.0186235555
 10
7.3030243011
 20
6.0929990995
 10
7.3015513853
 20
6.1580557528
 10
7.3000784694
 20
6.2121990935
 10
7.2986055536
 20
6.2541021652
  0
LWPOLYLINE
  5
41F
100
AcDbEntity
  8
02___PRT_ALL_AXES
100
AcDbPolyline
 62
7
  6
CONTINUOUS
 90
9
 70
0
 10
7.3286455279
 20
5.7982811477
 10
7.3272183355
 20
5.879661187
 10
7.3257815829
 20
5.9577027655
 10
7.3243269192
 20
6.0308902323
 10
7.3228703169
 20
6.0965542452
 10
7.3214311275
 20
6.1524038808
 10
7.3199983354
 20
6.1977874583
 10
7.3185580886
 20
6.2320682204
 10
7.3171248176
 20
6.2541021652
  0
LWPOLYLINE
  5
420
100
AcDbEntity
  8
02___PRT_ALL_AXES
100
AcDbPolyline
 62
7
  6
CONTINUOUS
 90
10
 70
0
 10
7.2725198871
 20
5.62718216
 10
7.2696250027
 20
5.7962765051
 10
7.2681888419
 20
5.8782284183
 10
7.2667531968
 20
5.956297425
 10
7.2653012738
 20
6.0294772446
 10
7.2638488821
 20
6.095134029
 10
7.2624152037
 20
6.1510137537
 10
7.260979971
 20
6.1967599061
 10
7.2595270514
 20
6.2315932331
 10
7.2580696994
 20
6.2541021652
  0
LWPOLYLINE
  5
421
100
AcDbEntity
  8
02___PRT_ALL_AXES
100
AcDbPolyline
 62
7
  6
CONTINUOUS
 90
10
 70
0
 10
7.2803490521
 20
5.7982811477
 10
7.2832449229
 20
5.6291295945
 10
7.2846811137
 20
5.5471802415
 10
7.2861166703
 20
5.4691229424
 10
7.2875682388
 20
5.3959695011
 10
7.289019915
 20
5.3303525856
 10
7.2904527644
 20
5.2745087468
 10
7.2918879165
 20
5.2287658418
 10
7.2933408543
 20
5.1939325714
 10
7.2947981375
 20
5.1714249999
  0
LWPOLYLINE
  5
422
100
AcDbEntity
  8
02___PRT_ALL_AXES
100
AcDbPolyline
 62
7
  6
CONTINUOUS
 90
10
 70
0
 10
7.3393988378
 20
5.7985900577
 10
7.3423129014
 20
5.6283842324
 10
7.3437524638
 20
5.5462725633
 10
7.3451780858
 20
5.4687917401
 10
7.3466187169
 20
5.3961922115
 10
7.3480668869
 20
5.3306967689
 10
7.3495040894
 20
5.2746436831
 10
7.3509408103
 20
5.2288282657
 10
7.3523948587
 20
5.1939546209
 10
7.3538532556
 20
5.1714249999
  0
LWPOLYLINE
  5
423
100
AcDbEntity
  8
02___PRT_ALL_AXES
100
AcDbPolyline
 62
7
  6
CONTINUOUS
 90
7
 70
0
 10
7.3000611589
 20
5.8493907556
 10
7.298588243
 20
5.936751932
 10
7.2971153272
 20
6.0186235555
 10
7.2956424114
 20
6.0929990995
 10
7.2941694955
 20
6.1580557528
 10
7.2926965797
 20
6.2121990935
 10
7.2912236638
 20
6.2541021652
  0
LINE
  5
424
100
AcDbEntity
  8
02___PRT_ALL_AXES
100
AcDbLine
 62
7
  6
CONTINUOUS
 10
7.313334712
 20
5.4887752332
 11
7.3111774542
 21
5.6182816762
  0
LINE
  5
425
100
AcDbEntity
  8
02___PRT_ALL_AXES
100
AcDbLine
 62
7
  6
CONTINUOUS
 10
7.3081280392
 20
5.8072055445
 11
7.3059701328
 21
5.936751932
  0
LINE
  5
426
100
AcDbEntity
  8
02___PRT_ALL_AXES
100
AcDbLine
 62
7
  6
CONTINUOUS
 10
7.3044799064
 20
5.5761364095
 11
7.3000611589
 21
5.8493907556
  0
LINE
  5
427
100
AcDbEntity
  8
02___PRT_ALL_AXES
100
AcDbLine
 62
7
  6
CONTINUOUS
 10
7.3111774542
 20
5.6182816762
 11
7.3081280392
 21
5.8072055445
  0
LWPOLYLINE
  5
428
100
AcDbEntity
  8
02___PRT_ALL_AXES
100
AcDbPolyline
 62
7
  6
CONTINUOUS
 90
9
 70
0
 10
7.386938578
 20
6.2541021652
 10
7.3883726979
 20
6.2320515353
 10
7.3898045609
 20
6.1979972041
 10
7.3912385328
 20
6.1526285617
 10
7.3926826485
 20
6.0966143813
 10
7.3941439424
 20
6.0307339617
 10
7.3956032598
 20
5.9572867927
 10
7.3970443867
 20
5.878974117
 10
7.398474681
 20
5.7973892956
  0
LWPOLYLINE
  5
429
100
AcDbEntity
  8
02___PRT_ALL_AXES
100
AcDbPolyline
 62
7
  6
CONTINUOUS
 90
10
 70
0
 10
7.4612048495
 20
5.1714249999
 10
7.4597550244
 20
5.1937851012
 10
7.4583147059
 20
5.2282036085
 10
7.4568856286
 20
5.2735803617
 10
7.4554408806
 20
5.3297510588
 10
7.4539795313
 20
5.395749725
 10
7.4525203092
 20
5.4692846115
 10
7.451079372
 20
5.5476531574
 10
7.4496434232
 20
5.6296056042
 10
7.4467711567
 20
5.7973892956
  0
LWPOLYLINE
  5
42A
100
AcDbEntity
  8
02___PRT_ALL_AXES
100
AcDbPolyline
 62
7
  6
CONTINUOUS
 90
9
 70
0
 10
7.3278834599
 20
6.2541021652
 10
7.3293420144
 20
6.2315694246
 10
7.3307961754
 20
6.1966913151
 10
7.3322319138
 20
6.1509088274
 10
7.3336581184
 20
6.0953250684
 10
7.3350879059
 20
6.0307779545
 10
7.3365269287
 20
5.9584010439
 10
7.3379599378
 20
5.880613281
 10
7.3393988378
 20
5.7985900577
  0
LWPOLYLINE
  5
42B
100
AcDbEntity
  8
02___PRT_ALL_AXES
100
AcDbPolyline
 62
7
  6
CONTINUOUS
 90
10
 70
0
 10
7.4021497314
 20
5.1714249999
 10
7.4006913344
 20
5.1939546209
 10
7.3992372861
 20
5.2288282657
 10
7.3978005652
 20
5.2746436831
 10
7.3963633626
 20
5.3306967689
 10
7.3949151926
 20
5.3961922115
 10
7.3934745616
 20
5.4687917401
 10
7.3920489396
 20
5.5462725633
 10
7.3906093771
 20
5.6283842324
 10
7.3876953136
 20
5.7985900577
  0
LWPOLYLINE
  5
42C
100
AcDbEntity
  8
02___PRT_ALL_AXES
100
AcDbPolyline
 62
7
  6
CONTINUOUS
 90
7
 70
0
 10
7.3723725196
 20
5.1714249999
 10
7.3708996038
 20
5.2133280716
 10
7.3694266879
 20
5.2674714123
 10
7.3679537721
 20
5.3325280656
 10
7.3664808562
 20
5.4069036096
 10
7.3650079404
 20
5.4887752332
 10
7.3635350245
 20
5.5761364095
  0
LWPOLYLINE
  5
42D
100
AcDbEntity
  8
02___PRT_ALL_AXES
100
AcDbPolyline
 62
7
  6
CONTINUOUS
 90
7
 70
0
 10
7.3797544094
 20
5.1714249999
 10
7.3782814935
 20
5.2133280716
 10
7.3768085777
 20
5.2674714123
 10
7.3753356618
 20
5.3325280656
 10
7.373862746
 20
5.4069036096
 10
7.3723898301
 20
5.4887752332
 10
7.3709169143
 20
5.5761364095
  0
LWPOLYLINE
  5
42E
100
AcDbEntity
  8
02___PRT_ALL_AXES
100
AcDbPolyline
 62
7
  6
CONTINUOUS
 90
7
 70
0
 10
7.4314276377
 20
5.1714249999
 10
7.4299547219
 20
5.2133280716
 10
7.428481806
 20
5.2674714123
 10
7.4270088902
 20
5.3325280656
 10
7.4255359743
 20
5.4069036096
 10
7.4240630585
 20
5.4887752332
 10
7.4225901426
 20
5.5761364095
  0
LWPOLYLINE
  5
42F
100
AcDbEntity
  8
02___PRT_ALL_AXES
100
AcDbPolyline
 62
7
  6
CONTINUOUS
 90
7
 70
0
 10
7.4388095275
 20
5.1714249999
 10
7.4373366116
 20
5.2133280716
 10
7.4358636958
 20
5.2674714123
 10
7.4343907799
 20
5.3325280656
 10
7.4329178641
 20
5.4069036096
 10
7.4314449483
 20
5.4887752332
 10
7.4299720324
 20
5.5761364095
  0
LWPOLYLINE
  5
430
100
AcDbEntity
  8
02___PRT_ALL_AXES
100
AcDbPolyline
 62
7
  6
CONTINUOUS
 90
9
 70
0
 10
7.3876953136
 20
5.7985900577
 10
7.3862564136
 20
5.880613281
 10
7.3848234045
 20
5.9584010439
 10
7.3833843817
 20
6.0307779545
 10
7.3819545942
 20
6.0953250684
 10
7.3805283896
 20
6.1509088274
 10
7.3790926512
 20
6.1966913151
 10
7.3776384902
 20
6.2315694246
 10
7.3761799357
 20
6.2541021652
  0
LWPOLYLINE
  5
431
100
AcDbEntity
  8
02___PRT_ALL_AXES
100
AcDbPolyline
 62
7
  6
CONTINUOUS
 90
10
 70
0
 10
7.398474681
 20
5.7973892956
 10
7.4013469475
 20
5.6296056042
 10
7.4027828963
 20
5.5476531574
 10
7.4042238334
 20
5.4692846115
 10
7.4056830555
 20
5.395749725
 10
7.4071444048
 20
5.3297510588
 10
7.4085891528
 20
5.2735803617
 10
7.4100182301
 20
5.2282036085
 10
7.4114585486
 20
5.1937851012
 10
7.4129083738
 20
5.1714249999
  0
LWPOLYLINE
  5
432
100
AcDbEntity
  8
02___PRT_ALL_AXES
100
AcDbPolyline
 62
7
  6
CONTINUOUS
 90
7
 70
0
 10
7.359116277
 20
5.8493907556
 10
7.3576433612
 20
5.936751932
 10
7.3561704453
 20
6.0186235555
 10
7.3546975295
 20
6.0929990995
 10
7.3532246136
 20
6.1580557528
 10
7.3517516978
 20
6.2121990935
 10
7.3502787819
 20
6.2541021652
  0
LWPOLYLINE
  5
433
100
AcDbEntity
  8
02___PRT_ALL_AXES
100
AcDbPolyline
 62
7
  6
CONTINUOUS
 90
7
 70
0
 10
7.3664981668
 20
5.8493907556
 10
7.3650252509
 20
5.936751932
 10
7.3635523351
 20
6.0186235555
 10
7.3620794192
 20
6.0929990995
 10
7.3606065034
 20
6.1580557528
 10
7.3591335875
 20
6.2121990935
 10
7.3576606717
 20
6.2541021652
  0
LWPOLYLINE
  5
434
100
AcDbEntity
  8
02___PRT_ALL_AXES
100
AcDbPolyline
 62
7
  6
CONTINUOUS
 90
7
 70
0
 10
7.4181713951
 20
5.8493907556
 10
7.4166984793
 20
5.936751932
 10
7.4152255634
 20
6.0186235555
 10
7.4137526476
 20
6.0929990995
 10
7.4122797317
 20
6.1580557528
 10
7.4108068159
 20
6.2121990935
 10
7.4093339
 20
6.2541021652
  0
LWPOLYLINE
  5
435
100
AcDbEntity
  8
02___PRT_ALL_AXES
100
AcDbPolyline
 62
7
  6
CONTINUOUS
 90
7
 70
0
 10
7.4255532849
 20
5.8493907556
 10
7.424080369
 20
5.936751932
 10
7.4226074532
 20
6.0186235555
 10
7.4211345373
 20
6.0929990995
 10
7.4196616215
 20
6.1580557528
 10
7.4181887057
 20
6.2121990935
 10
7.4167157898
 20
6.2541021652
  0
LINE
  5
436
100
AcDbEntity
  8
02___PRT_ALL_AXES
100
AcDbLine
 62
7
  6
CONTINUOUS
 10
7.3635350245
 20
5.5761364095
 11
7.359116277
 21
5.8493907556
  0
LINE
  5
437
100
AcDbEntity
  8
02___PRT_ALL_AXES
100
AcDbLine
 62
7
  6
CONTINUOUS
 10
7.3709169143
 20
5.5761364095
 11
7.3664981668
 21
5.8493907556
  0
LINE
  5
438
100
AcDbEntity
  8
02___PRT_ALL_AXES
100
AcDbLine
 62
7
  6
CONTINUOUS
 10
7.4225901426
 20
5.5761364095
 11
7.4181713951
 21
5.8493907556
  0
LINE
  5
439
100
AcDbEntity
  8
02___PRT_ALL_AXES
100
AcDbLine
 62
7
  6
CONTINUOUS
 10
7.4299720324
 20
5.5761364095
 11
7.4255532849
 21
5.8493907556
  0
LINE
  5
43A
100
AcDbEntity
  8
0
100
AcDbLine
 62
7
  6
CONTINUOUS
 10
7.7594234239
 20
5.9567944964
 11
7.759701635
 21
5.9570352361
  0
LINE
  5
43B
100
AcDbEntity
  8
0
100
AcDbLine
 62
7
  6
CONTINUOUS
 10
7.7987935027
 20
5.9567944964
 11
7.7990717138
 21
5.9570352361
  0
LINE
  5
43C
100
AcDbEntity
  8
0
100
AcDbLine
 62
7
  6
CONTINUOUS
 10
7.8381635814
 20
5.9567944964
 11
7.8384417925
 21
5.9570352361
  0
LINE
  5
43D
100
AcDbEntity
  8
0
100
AcDbLine
 62
7
  6
CONTINUOUS
 10
8.0982843122
 20
5.91650374
 11
8.0589142334
 21
5.91650374
  0
LINE
  5
43E
100
AcDbEntity
  8
02___PRT_ALL_AXES
100
AcDbLine
 62
7
  6
CONTINUOUS
 10
7.6803939887
 20
5.9570352361
 11
7.6848984854
 21
5.9570352361
  0
LINE
  5
43F
100
AcDbEntity
  8
02___PRT_ALL_AXES
100
AcDbLine
 62
7
  6
CONTINUOUS
 10
7.7203315563
 20
5.9570352361
 11
7.7242685642
 21
5.9570352361
  0
LINE
  5
440
100
AcDbEntity
  8
02___PRT_ALL_AXES
100
AcDbLine
 62
7
  6
CONTINUOUS
 10
7.759701635
 20
5.9570352361
 11
7.7636386429
 21
5.9570352361
  0
LINE
  5
441
100
AcDbEntity
  8
02___PRT_ALL_AXES
100
AcDbLine
 62
7
  6
CONTINUOUS
 10
7.7990717138
 20
5.9570352361
 11
7.8030087216
 21
5.9570352361
  0
LINE
  5
442
100
AcDbEntity
  8
02___PRT_ALL_AXES
100
AcDbLine
 62
7
  6
CONTINUOUS
 10
7.8384417925
 20
5.9570352361
 11
7.8423788004
 21
5.9570352361
  0
LINE
  5
443
100
AcDbEntity
  8
02___PRT_ALL_AXES
100
AcDbLine
 62
7
  6
CONTINUOUS
 10
7.8778118712
 20
5.9570352361
 11
7.8817488791
 21
5.9570352361
  0
LINE
  5
444
100
AcDbEntity
  8
02___PRT_ALL_AXES
100
AcDbLine
 62
7
  6
CONTINUOUS
 10
7.91718195
 20
5.9570352361
 11
7.9211189579
 21
5.9570352361
  0
LINE
  5
445
100
AcDbEntity
  8
02___PRT_ALL_AXES
100
AcDbLine
 62
7
  6
CONTINUOUS
 10
7.9565520287
 20
5.9570352361
 11
7.9604890366
 21
5.9570352361
  0
LINE
  5
446
100
AcDbEntity
  8
02___PRT_ALL_AXES
100
AcDbLine
 62
7
  6
CONTINUOUS
 10
7.9959221075
 20
5.9570352361
 11
7.9998591153
 21
5.9570352361
  0
LINE
  5
447
100
AcDbEntity
  8
0
100
AcDbLine
 62
7
  6
CONTINUOUS
 10
7.7397383846
 20
5.4687326687
 11
7.7400165957
 21
5.468491929
  0
LINE
  5
448
100
AcDbEntity
  8
0
100
AcDbLine
 62
7
  6
CONTINUOUS
 10
7.7791084633
 20
5.4687326687
 11
7.7793866744
 21
5.468491929
  0
LINE
  5
449
100
AcDbEntity
  8
0
100
AcDbLine
 62
7
  6
CONTINUOUS
 10
7.818478542
 20
5.4687326687
 11
7.8187567531
 21
5.468491929
  0
LINE
  5
44A
100
AcDbEntity
  8
0
100
AcDbLine
 62
7
  6
CONTINUOUS
 10
7.8578486208
 20
5.4687326687
 11
7.8581268319
 21
5.468491929
  0
LWPOLYLINE
  5
44B
100
AcDbEntity
  8
02___PRT_ALL_AXES
100
AcDbPolyline
 62
7
  6
CONTINUOUS
 90
9
 70
0
 10
7.4459936961
 20
6.2541021652
 10
7.4474543698
 20
6.231527447
 10
7.4489105721
 20
6.1965744747
 10
7.4503488362
 20
6.1506708261
 10
7.4517821798
 20
6.0947409919
 10
7.4532179368
 20
6.0298291289
 10
7.4546470575
 20
5.9578815727
 10
7.4560779458
 20
5.880179112
 10
7.4575192654
 20
5.7979996452
  0
LWPOLYLINE
  5
44C
100
AcDbEntity
  8
02___PRT_ALL_AXES
100
AcDbPolyline
 62
7
  6
CONTINUOUS
 90
9
 70
0
 10
7.5202599676
 20
5.1714249999
 10
7.5187993154
 20
5.1939992935
 10
7.5173430558
 20
5.2289536956
 10
7.5159047262
 20
5.274859949
 10
7.5144712113
 20
5.3307976989
 10
7.513035074
 20
5.3957293546
 10
7.5116060144
 20
5.4676766791
 10
7.5101752844
 20
5.5453722791
 10
7.5087340229
 20
5.6275492724
  0
LWPOLYLINE
  5
44D
100
AcDbEntity
  8
02___PRT_ALL_AXES
100
AcDbPolyline
 62
7
  6
CONTINUOUS
 90
7
 70
0
 10
7.4904827558
 20
5.1714249999
 10
7.48900984
 20
5.2133280716
 10
7.4875369241
 20
5.2674714123
 10
7.4860640083
 20
5.3325280656
 10
7.4845910924
 20
5.4069036096
 10
7.4831181766
 20
5.4887752332
 10
7.4816452608
 20
5.5761364095
  0
LWPOLYLINE
  5
44E
100
AcDbEntity
  8
02___PRT_ALL_AXES
100
AcDbPolyline
 62
7
  6
CONTINUOUS
 90
7
 70
0
 10
7.4978646456
 20
5.1714249999
 10
7.4963917297
 20
5.2133280716
 10
7.4949188139
 20
5.2674714123
 10
7.4934458981
 20
5.3325280656
 10
7.4919729822
 20
5.4069036096
 10
7.4905000664
 20
5.4887752332
 10
7.4890271505
 20
5.5761364095
  0
LWPOLYLINE
  5
44F
100
AcDbEntity
  8
02___PRT_ALL_AXES
100
AcDbPolyline
 62
7
  6
CONTINUOUS
 90
9
 70
0
 10
7.4467711567
 20
5.7973892956
 10
7.4453408625
 20
5.878974117
 10
7.4438997355
 20
5.9572867927
 10
7.4424404182
 20
6.0307339617
 10
7.4409791243
 20
6.0966143813
 10
7.4395350086
 20
6.1526285617
 10
7.4381010367
 20
6.1979972041
 10
7.4366691737
 20
6.2320515353
 10
7.4352350538
 20
6.2541021652
  0
LWPOLYLINE
  5
450
100
AcDbEntity
  8
02___PRT_ALL_AXES
100
AcDbPolyline
 62
7
  6
CONTINUOUS
 90
9
 70
0
 10
7.5194816544
 20
5.628187275
 10
7.5209122022
 20
5.5465865446
 10
7.5223534943
 20
5.4682631793
 10
7.523812963
 20
5.394806735
 10
7.525274328
 20
5.3289216829
 10
7.5267184914
 20
5.2729043911
 10
7.5281524261
 20
5.2275355528
 10
7.5295840942
 20
5.1934834133
 10
7.53101861
 20
5.1714249999
  0
LWPOLYLINE
  5
451
100
AcDbEntity
  8
02___PRT_ALL_AXES
100
AcDbPolyline
 62
7
  6
CONTINUOUS
 90
10
 70
0
 10
7.4575192654
 20
5.7979996452
 10
7.4604375471
 20
5.6275492724
 10
7.4618788086
 20
5.5453722791
 10
7.4633095386
 20
5.4676766791
 10
7.4647385983
 20
5.3957293546
 10
7.4661747355
 20
5.3307976989
 10
7.4676082504
 20
5.274859949
 10
7.4690465801
 20
5.2289536956
 10
7.4705028396
 20
5.1939992935
 10
7.4719634919
 20
5.1714249999
  0
LWPOLYLINE
  5
452
100
AcDbEntity
  8
02___PRT_ALL_AXES
100
AcDbPolyline
 62
7
  6
CONTINUOUS
 90
10
 70
0
 10
7.5087340229
 20
5.6275492724
 10
7.5058157412
 20
5.7979996452
 10
7.5043744215
 20
5.880179112
 10
7.5029435333
 20
5.9578815727
 10
7.5015144126
 20
6.0298291289
 10
7.5000786556
 20
6.0947409919
 10
7.498645312
 20
6.1506708261
 10
7.4972070479
 20
6.1965744747
 10
7.4957508456
 20
6.231527447
 10
7.4942901719
 20
6.2541021652
  0
LWPOLYLINE
  5
453
100
AcDbEntity
  8
02___PRT_ALL_AXES
100
AcDbPolyline
 62
7
  6
CONTINUOUS
 90
7
 70
0
 10
7.4772265132
 20
5.8493907556
 10
7.4757535974
 20
5.936751932
 10
7.4742806815
 20
6.0186235555
 10
7.4728077657
 20
6.0929990995
 10
7.4713348498
 20
6.1580557528
 10
7.469861934
 20
6.2121990935
 10
7.4683890182
 20
6.2541021652
  0
LWPOLYLINE
  5
454
100
AcDbEntity
  8
02___PRT_ALL_AXES
100
AcDbPolyline
 62
7
  6
CONTINUOUS
 90
7
 70
0
 10
7.484608403
 20
5.8493907556
 10
7.4831354871
 20
5.936751932
 10
7.4816625713
 20
6.0186235555
 10
7.4801896555
 20
6.0929990995
 10
7.4787167396
 20
6.1580557528
 10
7.4772438238
 20
6.2121990935
 10
7.4757709079
 20
6.2541021652
  0
LINE
  5
455
100
AcDbEntity
  8
02___PRT_ALL_AXES
100
AcDbLine
 62
7
  6
CONTINUOUS
 10
7.4816452608
 20
5.5761364095
 11
7.4772265132
 21
5.8493907556
  0
LINE
  5
456
100
AcDbEntity
  8
02___PRT_ALL_AXES
100
AcDbLine
 62
7
  6
CONTINUOUS
 10
7.4890271505
 20
5.5761364095
 11
7.484608403
 21
5.8493907556
  0
LINE
  5
457
100
AcDbEntity
  8
0
100
AcDbLine
 62
7
  6
CONTINUOUS
 10
7.7203315563
 20
5.9570352361
 11
7.7026944882
 21
5.9264869381
  0
LINE
  5
458
100
AcDbEntity
  8
0
100
AcDbLine
 62
7
  6
CONTINUOUS
 10
7.7153052173
 20
5.952746143
 11
7.7016112583
 21
5.9294861103
  0
LWPOLYLINE
  5
459
100
AcDbEntity
  8
0
100
AcDbPolyline
 62
7
  6
CONTINUOUS
 90
3
 70
0
 10
7.7153052173
 20
5.952746143
 10
7.7164814187
 20
5.954515579
 10
7.7203315563
 20
5.9570352361
  0
LINE
  5
45A
100
AcDbEntity
  8
0
100
AcDbLine
 62
7
  6
CONTINUOUS
 10
7.8775336602
 20
5.9567944964
 11
7.8778118712
 21
5.9570352361
  0
LINE
  5
45B
100
AcDbEntity
  8
0
100
AcDbLine
 62
7
  6
CONTINUOUS
 10
7.9169037389
 20
5.9567944964
 11
7.91718195
 21
5.9570352361
  0
LINE
  5
45C
100
AcDbEntity
  8
0
100
AcDbLine
 62
7
  6
CONTINUOUS
 10
7.9562738176
 20
5.9567944964
 11
7.9565520287
 21
5.9570352361
  0
LINE
  5
45D
100
AcDbEntity
  8
0
100
AcDbLine
 62
7
  6
CONTINUOUS
 10
7.9956438964
 20
5.9567944964
 11
7.9959221075
 21
5.9570352361
  0
LINE
  5
45E
100
AcDbEntity
  8
0
100
AcDbLine
 62
7
  6
CONTINUOUS
 10
7.8972186995
 20
5.4687326687
 11
7.8974969106
 21
5.468491929
  0
LINE
  5
45F
100
AcDbEntity
  8
0
100
AcDbLine
 62
7
  6
CONTINUOUS
 10
7.9365887783
 20
5.4687326687
 11
7.9368669894
 21
5.468491929
  0
LINE
  5
460
100
AcDbEntity
  8
0
100
AcDbLine
 62
7
  6
CONTINUOUS
 10
7.975958857
 20
5.4687326687
 11
7.9762370681
 21
5.468491929
  0
LWPOLYLINE
  5
461
100
AcDbEntity
  8
02___PRT_ALL_AXES
100
AcDbPolyline
 62
7
  6
CONTINUOUS
 90
9
 70
0
 10
7.5793150857
 20
5.1714249999
 10
7.5778805699
 20
5.1934834133
 10
7.5764489018
 20
5.2275355528
 10
7.5750149671
 20
5.2729043911
 10
7.5735708038
 20
5.3289216829
 10
7.5721094388
 20
5.394806735
 10
7.57064997
 20
5.4682631793
 10
7.569208678
 20
5.5465865446
 10
7.5677781302
 20
5.628187275
  0
LWPOLYLINE
  5
462
100
AcDbEntity
  8
02___PRT_ALL_AXES
100
AcDbPolyline
 62
7
  6
CONTINUOUS
 90
10
 70
0
 10
7.5050488142
 20
6.2541021652
 10
7.5064982762
 20
6.2317492364
 10
7.5079380631
 20
6.1973485601
 10
7.5093672126
 20
6.1519759476
 10
7.5108121341
 20
6.0958034758
 10
7.5122736173
 20
6.029802151
 10
7.5137328958
 20
5.9562666872
 10
7.5151738866
 20
5.8778966718
 10
7.5166097913
 20
5.7959476045
 10
7.5194816544
 20
5.628187275
  0
LWPOLYLINE
  5
463
100
AcDbEntity
  8
02___PRT_ALL_AXES
100
AcDbPolyline
 62
7
  6
CONTINUOUS
 90
7
 70
0
 10
7.5495378739
 20
5.1714249999
 10
7.5480649581
 20
5.2133280716
 10
7.5465920422
 20
5.2674714123
 10
7.5451191264
 20
5.3325280656
 10
7.5436462106
 20
5.4069036096
 10
7.5421732947
 20
5.4887752332
 10
7.5407003789
 20
5.5761364095
  0
LWPOLYLINE
  5
464
100
AcDbEntity
  8
02___PRT_ALL_AXES
100
AcDbPolyline
 62
7
  6
CONTINUOUS
 90
7
 70
0
 10
7.5569197637
 20
5.1714249999
 10
7.5554468479
 20
5.2133280716
 10
7.553973932
 20
5.2674714123
 10
7.5525010162
 20
5.3325280656
 10
7.5510281003
 20
5.4069036096
 10
7.5495551845
 20
5.4887752332
 10
7.5480822686
 20
5.5761364095
  0
LWPOLYLINE
  5
465
100
AcDbEntity
  8
02___PRT_ALL_AXES
100
AcDbPolyline
 62
7
  6
CONTINUOUS
 90
10
 70
0
 10
7.5677781302
 20
5.628187275
 10
7.564906267
 20
5.7959476045
 10
7.5634703624
 20
5.8778966718
 10
7.5620293716
 20
5.9562666872
 10
7.5605700931
 20
6.029802151
 10
7.5591086099
 20
6.0958034758
 10
7.5576636884
 20
6.1519759476
 10
7.5562345389
 20
6.1973485601
 10
7.554794752
 20
6.2317492364
 10
7.55334529
 20
6.2541021652
  0
LWPOLYLINE
  5
466
100
AcDbEntity
  8
02___PRT_ALL_AXES
100
AcDbPolyline
 62
7
  6
CONTINUOUS
 90
7
 70
0
 10
7.5362816313
 20
5.8493907556
 10
7.5348087155
 20
5.936751932
 10
7.5333357996
 20
6.0186235555
 10
7.5318628838
 20
6.0929990995
 10
7.530389968
 20
6.1580557528
 10
7.5289170521
 20
6.2121990935
 10
7.5274441363
 20
6.2541021652
  0
LWPOLYLINE
  5
467
100
AcDbEntity
  8
02___PRT_ALL_AXES
100
AcDbPolyline
 62
7
  6
CONTINUOUS
 90
7
 70
0
 10
7.5436635211
 20
5.8493907556
 10
7.5421906053
 20
5.936751932
 10
7.5407176894
 20
6.0186235555
 10
7.5392447736
 20
6.0929990995
 10
7.5377718577
 20
6.1580557528
 10
7.5362989419
 20
6.2121990935
 10
7.534826026
 20
6.2541021652
  0
LINE
  5
468
100
AcDbEntity
  8
02___PRT_ALL_AXES
100
AcDbLine
 62
7
  6
CONTINUOUS
 10
7.5407003789
 20
5.5761364095
 11
7.5362816313
 21
5.8493907556
  0
LINE
  5
469
100
AcDbEntity
  8
02___PRT_ALL_AXES
100
AcDbLine
 62
7
  6
CONTINUOUS
 10
7.5480822686
 20
5.5761364095
 11
7.5436635211
 21
5.8493907556
  0
LINE
  5
46A
100
AcDbEntity
  8
0
100
AcDbLine
 62
7
  6
CONTINUOUS
 10
7.7594234239
 20
5.9567944964
 11
7.7419850995
 21
5.9266244097
  0
LINE
  5
46B
100
AcDbEntity
  8
0
100
AcDbLine
 62
7
  6
CONTINUOUS
 10
7.7987935027
 20
5.9567944964
 11
7.7813551782
 21
5.9266244097
  0
LINE
  5
46C
100
AcDbEntity
  8
0
100
AcDbLine
 62
7
  6
CONTINUOUS
 10
8.0156071583
 20
5.468491929
 11
8.0153289357
 21
5.4687326687
  0
LINE
  5
46D
100
AcDbEntity
  8
0
100
AcDbLine
 62
7
  6
CONTINUOUS
 10
7.7219819427
 20
5.4994530703
 11
7.7397383846
 21
5.4687326687
  0
LINE
  5
46E
100
AcDbEntity
  8
0
100
AcDbLine
 62
7
  6
CONTINUOUS
 10
7.7613520215
 20
5.4994530703
 11
7.7791084633
 21
5.4687326687
  0
LINE
  5
46F
100
AcDbEntity
  8
0
100
AcDbLine
 62
7
  6
CONTINUOUS
 10
7.8007221002
 20
5.4994530703
 11
7.818478542
 21
5.4687326687
  0
LWPOLYLINE
  5
470
100
AcDbEntity
  8
0
100
AcDbPolyline
 62
7
  6
CONTINUOUS
 90
10
 70
0
 10
7.7219819427
 20
5.4994530703
 10
7.7217179757
 20
5.5000988038
 10
7.720712557
 20
5.5059961399
 10
7.7197071384
 20
5.5172056369
 10
7.7187017197
 20
5.5334393063
 10
7.717696301
 20
5.5542800811
 10
7.7166908823
 20
5.5791925311
 10
7.7156854637
 20
5.6075366186
 10
7.714680045
 20
5.6385841421
 10
7.7136746263
 20
5.6715374451
  0
LWPOLYLINE
  5
471
100
AcDbEntity
  8
0
100
AcDbPolyline
 62
7
  6
CONTINUOUS
 90
9
 70
0
 10
7.7045835248
 20
5.468491929
 10
7.7036022544
 20
5.4714811624
 10
7.702608541
 20
5.4805256199
 10
7.7016147393
 20
5.4954003551
 10
7.7006327696
 20
5.5154591478
 10
7.6996538253
 20
5.5402702436
 10
7.6986705432
 20
5.5694199965
 10
7.6976941804
 20
5.6018520068
 10
7.6967198458
 20
5.6368963464
  0
LWPOLYLINE
  5
472
100
AcDbEntity
  8
0
100
AcDbPolyline
 62
7
  6
CONTINUOUS
 90
8
 70
0
 10
7.6927646769
 20
5.7885377094
 10
7.6917899533
 20
5.8236013973
 10
7.6908145123
 20
5.8560110246
 10
7.6898323779
 20
5.8851411453
 10
7.6888537877
 20
5.9099634578
 10
7.6878716474
 20
5.9300489115
 10
7.6868770174
 20
5.9449586278
 10
7.6858817893
 20
5.9540336259
  0
LINE
  5
473
100
AcDbEntity
  8
0
100
AcDbLine
 62
7
  6
CONTINUOUS
 10
7.6967198458
 20
5.6368963464
 11
7.6927646769
 21
5.7885377094
  0
LINE
  5
474
100
AcDbEntity
  8
0
100
AcDbLine
 62
7
  6
CONTINUOUS
 10
7.6258433673
 20
5.1714249999
 11
7.6258433673
 21
6.2541021652
  0
LINE
  5
475
100
AcDbEntity
  8
0
100
AcDbLine
 62
7
  6
CONTINUOUS
 10
7.665213446
 20
5.2107950786
 11
7.665213446
 21
6.2147320865
  0
LINE
  5
476
100
AcDbEntity
  8
0
100
AcDbLine
 62
7
  6
CONTINUOUS
 10
7.6803939887
 20
5.9570352361
 11
7.6803939887
 21
5.468491929
  0
LINE
  5
477
100
AcDbEntity
  8
0
100
AcDbLine
 62
7
  6
CONTINUOUS
 10
7.8381635814
 20
5.9567944964
 11
7.820725257
 21
5.9266244097
  0
LINE
  5
478
100
AcDbEntity
  8
0
100
AcDbLine
 62
7
  6
CONTINUOUS
 10
7.8775336602
 20
5.9567944964
 11
7.8600953357
 21
5.9266244097
  0
LINE
  5
479
100
AcDbEntity
  8
0
100
AcDbLine
 62
7
  6
CONTINUOUS
 10
7.9169037389
 20
5.9567944964
 11
7.8994654144
 21
5.9266244097
  0
LINE
  5
47A
100
AcDbEntity
  8
0
100
AcDbLine
 62
7
  6
CONTINUOUS
 10
7.7048617359
 20
5.4687326688
 11
7.7045835248
 21
5.468491929
  0
LINE
  5
47B
100
AcDbEntity
  8
0
100
AcDbLine
 62
7
  6
CONTINUOUS
 10
6.91718195
 20
6.2541021652
 11
6.9735527512
 21
6.2541021652
  0
LINE
  5
47C
100
AcDbEntity
  8
02___PRT_ALL_AXES
100
AcDbLine
 62
7
  6
CONTINUOUS
 10
6.9735527512
 20
6.2541021652
 11
7.55334529
 21
6.2541021652
  0
LINE
  5
47D
100
AcDbEntity
  8
0
100
AcDbLine
 62
7
  6
CONTINUOUS
 10
7.55334529
 20
6.2541021652
 11
7.6258433673
 21
6.2541021652
  0
LINE
  5
47E
100
AcDbEntity
  8
0
100
AcDbLine
 62
7
  6
CONTINUOUS
 10
7.6863336099
 20
5.955797635
 11
7.6848984854
 21
5.9570352361
  0
LINE
  5
47F
100
AcDbEntity
  8
0
100
AcDbLine
 62
7
  6
CONTINUOUS
 10
7.8400921789
 20
5.4994530703
 11
7.8578486208
 21
5.4687326687
  0
LINE
  5
480
100
AcDbEntity
  8
0
100
AcDbLine
 62
7
  6
CONTINUOUS
 10
7.8794622577
 20
5.4994530703
 11
7.8972186995
 21
5.4687326687
  0
LINE
  5
481
100
AcDbEntity
  8
0
100
AcDbLine
 62
7
  6
CONTINUOUS
 10
7.9188323364
 20
5.4994530703
 11
7.9365887783
 21
5.4687326687
  0
LWPOLYLINE
  5
482
100
AcDbEntity
  8
0
100
AcDbPolyline
 62
7
  6
CONTINUOUS
 90
10
 70
0
 10
7.7613520215
 20
5.4994530703
 10
7.7609293041
 20
5.5006689665
 10
7.7599238855
 20
5.5074187038
 10
7.7589184668
 20
5.5194440542
 10
7.7579130481
 20
5.5364360688
 10
7.7569076294
 20
5.5579581976
 10
7.7559022108
 20
5.5834575052
 10
7.7548967921
 20
5.612278877
 10
7.7538913734
 20
5.6436818491
 10
7.7528859547
 20
5.676859633
  0
LWPOLYLINE
  5
483
100
AcDbEntity
  8
0
100
AcDbPolyline
 62
7
  6
CONTINUOUS
 90
10
 70
0
 10
7.822693761
 20
5.468491929
 10
7.8217592984
 20
5.4712033007
 10
7.8208130062
 20
5.4794131597
 10
7.8198655446
 20
5.4929549314
 10
7.8189274036
 20
5.5113071079
 10
7.8179963219
 20
5.5339791216
 10
7.817059309
 20
5.5607724114
 10
7.8161263964
 20
5.5908197315
 10
7.8151981873
 20
5.6233945318
 10
7.8142675135
 20
5.6580205094
  0
LWPOLYLINE
  5
484
100
AcDbEntity
  8
0
100
AcDbPolyline
 62
7
  6
CONTINUOUS
 90
9
 70
0
 10
7.7439536035
 20
5.468491929
 10
7.7429716814
 20
5.471485127
 10
7.7419774704
 20
5.4805395139
 10
7.7409834044
 20
5.4954255044
 10
7.7400014088
 20
5.5154922395
 10
7.7390226206
 20
5.5403056734
 10
7.7380397264
 20
5.5694482662
 10
7.7370637222
 20
5.6018706564
 10
7.7360893292
 20
5.636918407
  0
LWPOLYLINE
  5
485
100
AcDbEntity
  8
0
100
AcDbPolyline
 62
7
  6
CONTINUOUS
 90
9
 70
0
 10
7.7833236823
 20
5.468491929
 10
7.7823410224
 20
5.471489617
 10
7.7813462594
 20
5.4805551142
 10
7.780351876
 20
5.4954541113
 10
7.7793698048
 20
5.5155309334
 10
7.7783911167
 20
5.5403493731
 10
7.7774085572
 20
5.569487665
 10
7.7764328275
 20
5.6019044694
 10
7.775458324
 20
5.6369585768
  0
LWPOLYLINE
  5
486
100
AcDbEntity
  8
0
100
AcDbPolyline
 62
7
  6
CONTINUOUS
 90
9
 70
0
 10
7.8007221002
 20
5.4994530703
 10
7.8001406326
 20
5.501375262
 10
7.7991352139
 20
5.5089730682
 10
7.7981297952
 20
5.5218065536
 10
7.7971243765
 20
5.5395460071
 10
7.7961189579
 20
5.5617356758
 10
7.7951135392
 20
5.5878054744
 10
7.7941081205
 20
5.6170856314
 10
7.7931027018
 20
5.6488238962
  0
LWPOLYLINE
  5
487
100
AcDbEntity
  8
0
100
AcDbPolyline
 62
7
  6
CONTINUOUS
 90
9
 70
0
 10
7.7498696987
 20
5.7784220081
 10
7.74886428
 20
5.8100507618
 10
7.7478588613
 20
5.8391800642
 10
7.7468534427
 20
5.8650615406
 10
7.745848024
 20
5.8870302575
 10
7.7448426053
 20
5.9045218062
 10
7.7438371866
 20
5.917086803
 10
7.7428317679
 20
5.9244024347
 10
7.7423032171
 20
5.9260740949
  0
LWPOLYLINE
  5
488
100
AcDbEntity
  8
0
100
AcDbPolyline
 62
7
  6
CONTINUOUS
 90
9
 70
0
 10
7.7106583703
 20
5.7732522329
 10
7.7096529516
 20
5.8052027215
 10
7.7086475329
 20
5.8347783122
 10
7.7076421142
 20
5.8612191643
 10
7.7066366956
 20
5.8838459733
 10
7.7056312769
 20
5.902077423
 10
7.7046258582
 20
5.9154451207
 10
7.7036204395
 20
5.9236056304
 10
7.7029331383
 20
5.9260740949
  0
LWPOLYLINE
  5
489
100
AcDbEntity
  8
0
100
AcDbPolyline
 62
7
  6
CONTINUOUS
 90
10
 70
0
 10
7.7900864458
 20
5.7504443243
 10
7.7890810271
 20
5.7835496405
 10
7.7880756084
 20
5.8148363584
 10
7.7870701898
 20
5.8435006759
 10
7.7860647711
 20
5.8688061645
 10
7.7850593524
 20
5.8901026887
 10
7.7840539337
 20
5.9068431095
 10
7.783048515
 20
5.9185973406
 10
7.7820430964
 20
5.9250633986
 10
7.7816732958
 20
5.9260740949
  0
LINE
  5
48A
100
AcDbEntity
  8
0
100
AcDbLine
 62
7
  6
CONTINUOUS
 10
7.7136746263
 20
5.6715374451
 11
7.7106583703
 21
5.7732522329
  0
LINE
  5
48B
100
AcDbEntity
  8
0
100
AcDbLine
 62
7
  6
CONTINUOUS
 10
7.7528859547
 20
5.676859633
 11
7.7498696987
 21
5.7784220081
  0
LINE
  5
48C
100
AcDbEntity
  8
0
100
AcDbLine
 62
7
  6
CONTINUOUS
 10
7.7931027018
 20
5.6488238962
 11
7.7900864458
 21
5.7504443243
  0
LWPOLYLINE
  5
48D
100
AcDbEntity
  8
0
100
AcDbPolyline
 62
7
  6
CONTINUOUS
 90
9
 70
0
 10
7.7321529167
 20
5.6368963464
 10
7.7331272512
 20
5.6018520068
 10
7.7341036141
 20
5.5694199965
 10
7.7350868961
 20
5.5402702436
 10
7.7360658405
 20
5.5154591478
 10
7.7370478102
 20
5.4954003551
 10
7.7380416119
 20
5.4805256199
 10
7.7390353253
 20
5.4714811624
 10
7.7397383846
 20
5.4687326687
  0
LWPOLYLINE
  5
48E
100
AcDbEntity
  8
0
100
AcDbPolyline
 62
7
  6
CONTINUOUS
 90
9
 70
0
 10
7.7321343698
 20
5.7885520066
 10
7.7311598094
 20
5.82360913
 10
7.7301841974
 20
5.8560234541
 10
7.7292017819
 20
5.8851597811
 10
7.728223133
 20
5.9099803293
 10
7.7272410634
 20
5.9300607141
 10
7.726246583
 20
5.944964839
 10
7.725251578
 20
5.9540353928
 10
7.7245467753
 20
5.9567944964
  0
LWPOLYLINE
  5
48F
100
AcDbEntity
  8
0
100
AcDbPolyline
 62
7
  6
CONTINUOUS
 90
9
 70
0
 10
7.7715224001
 20
5.636918407
 10
7.772496793
 20
5.6018706564
 10
7.7734727973
 20
5.5694482662
 10
7.7744556915
 20
5.5403056734
 10
7.7754344796
 20
5.5154922395
 10
7.7764164753
 20
5.4954255044
 10
7.7774105412
 20
5.4805395139
 10
7.7784047522
 20
5.471485127
 10
7.7791084633
 20
5.4687326687
  0
LWPOLYLINE
  5
490
100
AcDbEntity
  8
0
100
AcDbPolyline
 62
7
  6
CONTINUOUS
 90
9
 70
0
 10
7.7715033602
 20
5.7885923423
 10
7.7705289084
 20
5.8236431641
 10
7.7695530341
 20
5.8560626702
 10
7.7685702813
 20
5.8852033932
 10
7.7675915291
 20
5.9100190269
 10
7.7666095319
 20
5.9300893823
 10
7.7656153656
 20
5.9449805209
 10
7.7646209093
 20
5.9540399434
 10
7.763916854
 20
5.9567944964
  0
LINE
  5
491
100
AcDbEntity
  8
0
100
AcDbLine
 62
7
  6
CONTINUOUS
 10
7.7281977477
 20
5.7885377094
 11
7.7321529167
 21
5.6368963464
  0
LINE
  5
492
100
AcDbEntity
  8
0
100
AcDbLine
 62
7
  6
CONTINUOUS
 10
7.7360893292
 20
5.636918407
 11
7.7321343698
 21
5.7885520066
  0
LINE
  5
493
100
AcDbEntity
  8
0
100
AcDbLine
 62
7
  6
CONTINUOUS
 10
7.7675674407
 20
5.7885520066
 11
7.7715224001
 21
5.636918407
  0
LINE
  5
494
100
AcDbEntity
  8
0
100
AcDbLine
 62
7
  6
CONTINUOUS
 10
7.775458324
 20
5.6369585768
 11
7.7715033602
 21
5.7885923423
  0
LINE
  5
495
100
AcDbEntity
  8
0
100
AcDbLine
 62
7
  6
CONTINUOUS
 10
7.9562738176
 20
5.9567944964
 11
7.9388354932
 21
5.9266244097
  0
LINE
  5
496
100
AcDbEntity
  8
0
100
AcDbLine
 62
7
  6
CONTINUOUS
 10
7.7048617359
 20
5.4687326688
 11
7.7223000601
 21
5.4989027554
  0
LINE
  5
497
100
AcDbEntity
  8
0
100
AcDbLine
 62
7
  6
CONTINUOUS
 10
7.9956438964
 20
5.9567944964
 11
7.9782055719
 21
5.9266244097
  0
LINE
  5
498
100
AcDbEntity
  8
0
100
AcDbLine
 62
7
  6
CONTINUOUS
 10
7.7442318146
 20
5.4687326688
 11
7.7616701388
 21
5.4989027554
  0
LINE
  5
499
100
AcDbEntity
  8
0
100
AcDbLine
 62
7
  6
CONTINUOUS
 10
8.0307872619
 20
5.9494810516
 11
8.0175756507
 21
5.9266244097
  0
LINE
  5
49A
100
AcDbEntity
  8
0
100
AcDbLine
 62
7
  6
CONTINUOUS
 10
7.7442318146
 20
5.4687326688
 11
7.7439536035
 21
5.468491929
  0
LINE
  5
49B
100
AcDbEntity
  8
0
100
AcDbLine
 62
7
  6
CONTINUOUS
 10
7.7836018934
 20
5.4687326688
 11
7.7833236823
 21
5.468491929
  0
LINE
  5
49C
100
AcDbEntity
  8
0
100
AcDbLine
 62
7
  6
CONTINUOUS
 10
7.8229719721
 20
5.4687326688
 11
7.822693761
 21
5.468491929
  0
LINE
  5
49D
100
AcDbEntity
  8
0
100
AcDbLine
 62
7
  6
CONTINUOUS
 10
7.8623420508
 20
5.4687326688
 11
7.8620638397
 21
5.468491929
  0
LWPOLYLINE
  5
49E
100
AcDbEntity
  8
0
100
AcDbPolyline
 62
7
  6
CONTINUOUS
 90
3
 70
0
 10
8.0195441733
 20
5.468491929
 10
8.019702797
 20
5.4685702152
 10
8.0198223658
 20
5.4687326688
  0
LINE
  5
49F
100
AcDbEntity
  8
0
100
AcDbLine
 62
7
  6
CONTINUOUS
 10
7.7245467753
 20
5.9567944964
 11
7.7242685642
 21
5.9570352361
  0
LINE
  5
4A0
100
AcDbEntity
  8
0
100
AcDbLine
 62
7
  6
CONTINUOUS
 10
7.763916854
 20
5.9567944964
 11
7.7636386429
 21
5.9570352361
  0
LINE
  5
4A1
100
AcDbEntity
  8
0
100
AcDbLine
 62
7
  6
CONTINUOUS
 10
7.8032869327
 20
5.9567944964
 11
7.8030087216
 21
5.9570352361
  0
LINE
  5
4A2
100
AcDbEntity
  8
0
100
AcDbLine
 62
7
  6
CONTINUOUS
 10
7.8426570115
 20
5.9567944964
 11
7.8423788004
 21
5.9570352361
  0
LINE
  5
4A3
100
AcDbEntity
  8
0
100
AcDbLine
 62
7
  6
CONTINUOUS
 10
7.7019072807
 20
5.928976523
 11
7.6863336099
 21
5.955797635
  0
LINE
  5
4A4
100
AcDbEntity
  8
0
100
AcDbLine
 62
7
  6
CONTINUOUS
 10
7.7029331383
 20
5.9260740949
 11
7.6851766965
 21
5.9567944964
  0
LINE
  5
4A5
100
AcDbEntity
  8
0
100
AcDbLine
 62
7
  6
CONTINUOUS
 10
7.9582024152
 20
5.4994530703
 11
7.975958857
 21
5.4687326687
  0
LINE
  5
4A6
100
AcDbEntity
  8
0
100
AcDbLine
 62
7
  6
CONTINUOUS
 10
7.7423032171
 20
5.9260740949
 11
7.7245467753
 21
5.9567944964
  0
LINE
  5
4A7
100
AcDbEntity
  8
0
100
AcDbLine
 62
7
  6
CONTINUOUS
 10
7.9975724939
 20
5.4994530703
 11
8.0153289357
 21
5.4687326687
  0
LWPOLYLINE
  5
4A8
100
AcDbEntity
  8
0
100
AcDbPolyline
 62
7
  6
CONTINUOUS
 90
9
 70
0
 10
7.8620638397
 20
5.468491929
 10
7.8610820381
 20
5.4714843939
 10
7.8600879198
 20
5.4805369365
 10
7.8590939074
 20
5.4954207583
 10
7.858111925
 20
5.5154858029
 10
7.8571331208
 20
5.5402983862
 10
7.8561501714
 20
5.5694416751
 10
7.8551741188
 20
5.6018650852
 10
7.8541997449
 20
5.6369117562
  0
LWPOLYLINE
  5
4A9
100
AcDbEntity
  8
0
100
AcDbPolyline
 62
7
  6
CONTINUOUS
 90
9
 70
0
 10
7.9014339185
 20
5.468491929
 10
7.9004513833
 20
5.4714888578
 10
7.8994567118
 20
5.480552498
 10
7.8984623809
 20
5.4954493279
 10
7.8974803218
 20
5.5155244756
 10
7.8965016166
 20
5.5403420926
 10
7.8955190009
 20
5.5694811161
 10
7.8945432273
 20
5.601898788
 10
7.8935687418
 20
5.6369518503
  0
LWPOLYLINE
  5
4AA
100
AcDbEntity
  8
0
100
AcDbPolyline
 62
7
  6
CONTINUOUS
 90
9
 70
0
 10
7.7203315563
 20
5.9570352361
 10
7.7213148601
 20
5.9540336259
 10
7.7223100883
 20
5.9449586278
 10
7.7233047183
 20
5.9300489115
 10
7.7242868586
 20
5.9099634578
 10
7.7252654487
 20
5.8851411453
 10
7.7262475831
 20
5.8560110246
 10
7.7272230241
 20
5.8236013973
 10
7.7281977477
 20
5.7885377094
  0
LINE
  5
4AB
100
AcDbEntity
  8
0
100
AcDbLine
 62
7
  6
CONTINUOUS
 10
7.7026150208
 20
5.9263492966
 11
7.7019072807
 21
5.928976523
  0
LWPOLYLINE
  5
4AC
100
AcDbEntity
  8
0
100
AcDbPolyline
 62
7
  6
CONTINUOUS
 90
9
 70
0
 10
7.8400921789
 20
5.4994530703
 10
7.839351961
 20
5.5022172369
 10
7.8383465423
 20
5.5106582354
 10
7.8373411236
 20
5.5242916186
 10
7.836335705
 20
5.5427671249
 10
7.8353302863
 20
5.5656100912
 10
7.8343248676
 20
5.5922336479
 10
7.8333194489
 20
5.6219537967
 10
7.8323140302
 20
5.6540069829
  0
LINE
  5
4AD
100
AcDbEntity
  8
0
100
AcDbLine
 62
7
  6
CONTINUOUS
 10
7.6858817893
 20
5.9540336259
 11
7.6851766965
 21
5.9567944964
  0
LWPOLYLINE
  5
4AE
100
AcDbEntity
  8
0
100
AcDbPolyline
 62
7
  6
CONTINUOUS
 90
8
 70
0
 10
7.8272869369
 20
5.8195564396
 10
7.8262815182
 20
5.8477373741
 10
7.8252760995
 20
5.8724506326
 10
7.8242706808
 20
5.893061295
 10
7.8232652621
 20
5.9090398429
 10
7.8222598435
 20
5.9199757639
 10
7.8212544248
 20
5.9255880981
 10
7.8210433745
 20
5.9260740949
  0
LWPOLYLINE
  5
4AF
100
AcDbEntity
  8
0
100
AcDbPolyline
 62
7
  6
CONTINUOUS
 90
8
 70
0
 10
7.8095704014
 20
5.8348994093
 10
7.8086387464
 20
5.8648898268
 10
7.8077027519
 20
5.8916385701
 10
7.8067724728
 20
5.9142775003
 10
7.8058352452
 20
5.9326010109
 10
7.8048884779
 20
5.9461255116
 10
7.8039427363
 20
5.9543264589
 10
7.8032869327
 20
5.9567944964
  0
LWPOLYLINE
  5
4B0
100
AcDbEntity
  8
0
100
AcDbPolyline
 62
7
  6
CONTINUOUS
 90
9
 70
0
 10
7.8685091026
 20
5.7610442211
 10
7.867503684
 20
5.7936653413
 10
7.8664982653
 20
5.8242079759
 10
7.8654928466
 20
5.8518874394
 10
7.8644874279
 20
5.8759926056
 10
7.8634820092
 20
5.8959041772
 10
7.8624765906
 20
5.9111105966
 10
7.8614711719
 20
5.9212211882
 10
7.8604134533
 20
5.9260740949
  0
LWPOLYLINE
  5
4B1
100
AcDbEntity
  8
0
100
AcDbPolyline
 62
7
  6
CONTINUOUS
 90
3
 70
0
 10
7.8292977742
 20
5.7557580707
 10
7.8282923555
 20
5.7886318389
 10
7.8272869369
 20
5.8195564396
  0
LINE
  5
4B2
100
AcDbEntity
  8
0
100
AcDbLine
 62
7
  6
CONTINUOUS
 10
7.8323140302
 20
5.6540069829
 11
7.8292977742
 21
5.7557580707
  0
LINE
  5
4B3
100
AcDbEntity
  8
0
100
AcDbLine
 62
7
  6
CONTINUOUS
 10
7.8715253587
 20
5.6592277825
 11
7.8685091026
 21
5.7610442211
  0
LWPOLYLINE
  5
4B4
100
AcDbEntity
  8
0
100
AcDbPolyline
 62
7
  6
CONTINUOUS
 90
3
 70
0
 10
7.8450034723
 20
5.8348994093
 10
7.8459321926
 20
5.8023203108
 10
7.8468628421
 20
5.7677041165
  0
LWPOLYLINE
  5
4B5
100
AcDbEntity
  8
0
100
AcDbPolyline
 62
7
  6
CONTINUOUS
 90
9
 70
0
 10
7.8108913949
 20
5.6369585768
 10
7.8118658984
 20
5.6019044694
 10
7.8128416281
 20
5.569487665
 10
7.8138241876
 20
5.5403493731
 10
7.8148028757
 20
5.5155309334
 10
7.8157849469
 20
5.4954541113
 10
7.8167793302
 20
5.4805551142
 10
7.8177740932
 20
5.471489617
 10
7.818478542
 20
5.4687326687
  0
LWPOLYLINE
  5
4B6
100
AcDbEntity
  8
0
100
AcDbPolyline
 62
7
  6
CONTINUOUS
 90
9
 70
0
 10
7.8502447886
 20
5.7885452404
 10
7.8492702108
 20
5.8236033937
 10
7.8482946398
 20
5.8560169431
 10
7.8473122811
 20
5.8851525168
 10
7.8463336501
 20
5.9099738678
 10
7.8453515692
 20
5.9300559147
 10
7.844357037
 20
5.9449622028
 10
7.8433619412
 20
5.9540346191
 10
7.8426570115
 20
5.9567944964
  0
LWPOLYLINE
  5
4B7
100
AcDbEntity
  8
0
100
AcDbPolyline
 62
7
  6
CONTINUOUS
 90
9
 70
0
 10
7.8896328158
 20
5.6369117562
 10
7.8906071897
 20
5.6018650852
 10
7.8915832423
 20
5.5694416751
 10
7.8925661916
 20
5.5402983862
 10
7.8935449958
 20
5.5154858029
 10
7.8945269783
 20
5.4954207583
 10
7.8955209906
 20
5.4805369365
 10
7.8965151089
 20
5.4714843939
 10
7.8972186995
 20
5.4687326687
  0
LWPOLYLINE
  5
4B8
100
AcDbEntity
  8
0
100
AcDbPolyline
 62
7
  6
CONTINUOUS
 90
9
 70
0
 10
7.8896137769
 20
5.7885856508
 10
7.8886393066
 20
5.8236375374
 10
7.8876634779
 20
5.8560561164
 10
7.8866807809
 20
5.8851961213
 10
7.8857020455
 20
5.9100125858
 10
7.8847200357
 20
5.9300846196
 10
7.8837258166
 20
5.9449779233
 10
7.8827312683
 20
5.9540391958
 10
7.8820270902
 20
5.9567944964
  0
LWPOLYLINE
  5
4B9
100
AcDbEntity
  8
0
100
AcDbPolyline
 62
7
  6
CONTINUOUS
 90
3
 70
0
 10
7.8114297713
 20
5.7677041165
 10
7.8104991217
 20
5.8023203108
 10
7.8095704014
 20
5.8348994093
  0
LWPOLYLINE
  5
4BA
100
AcDbEntity
  8
0
100
AcDbPolyline
 62
7
  6
CONTINUOUS
 90
10
 70
0
 10
7.8497005844
 20
5.6580205094
 10
7.8506312581
 20
5.6233945318
 10
7.8515594673
 20
5.5908197315
 10
7.8524923799
 20
5.5607724114
 10
7.8534293927
 20
5.5339791216
 10
7.8543604744
 20
5.5113071079
 10
7.8552986155
 20
5.4929549314
 10
7.8562460771
 20
5.4794131597
 10
7.8571923692
 20
5.4712033007
 10
7.8578486208
 20
5.4687326687
  0
LINE
  5
4BB
100
AcDbEntity
  8
0
100
AcDbLine
 62
7
  6
CONTINUOUS
 10
7.806936431
 20
5.7885923423
 11
7.8108913949
 21
5.6369585768
  0
LINE
  5
4BC
100
AcDbEntity
  8
0
100
AcDbLine
 62
7
  6
CONTINUOUS
 10
7.8142675135
 20
5.6580205094
 11
7.8114297713
 21
5.7677041165
  0
LINE
  5
4BD
100
AcDbEntity
  8
0
100
AcDbLine
 62
7
  6
CONTINUOUS
 10
7.8468628421
 20
5.7677041165
 11
7.8497005844
 21
5.6580205094
  0
LINE
  5
4BE
100
AcDbEntity
  8
0
100
AcDbLine
 62
7
  6
CONTINUOUS
 10
7.8541997449
 20
5.6369117562
 11
7.8502447886
 21
5.7885452404
  0
LINE
  5
4BF
100
AcDbEntity
  8
0
100
AcDbLine
 62
7
  6
CONTINUOUS
 10
7.8856778595
 20
5.7885452404
 11
7.8896328158
 21
5.6369117562
  0
LINE
  5
4C0
100
AcDbEntity
  8
0
100
AcDbLine
 62
7
  6
CONTINUOUS
 10
7.8935687418
 20
5.6369518503
 11
7.8896137769
 21
5.7885856508
  0
LINE
  5
4C1
100
AcDbEntity
  8
0
100
AcDbLine
 62
7
  6
CONTINUOUS
 10
7.7836018934
 20
5.4687326688
 11
7.8010402176
 21
5.4989027554
  0
LINE
  5
4C2
100
AcDbEntity
  8
0
100
AcDbLine
 62
7
  6
CONTINUOUS
 10
7.8229719721
 20
5.4687326688
 11
7.8404102963
 21
5.4989027554
  0
LINE
  5
4C3
100
AcDbEntity
  8
0
100
AcDbLine
 62
7
  6
CONTINUOUS
 10
7.8623420508
 20
5.4687326688
 11
7.8797803751
 21
5.4989027554
  0
LINE
  5
4C4
100
AcDbEntity
  8
0
100
AcDbLine
 62
7
  6
CONTINUOUS
 10
7.9017121296
 20
5.4687326688
 11
7.9014339185
 21
5.468491929
  0
LINE
  5
4C5
100
AcDbEntity
  8
0
100
AcDbLine
 62
7
  6
CONTINUOUS
 10
7.9410822083
 20
5.4687326688
 11
7.9408039972
 21
5.468491929
  0
LINE
  5
4C6
100
AcDbEntity
  8
0
100
AcDbLine
 62
7
  6
CONTINUOUS
 10
7.9804522871
 20
5.4687326688
 11
7.980174076
 21
5.468491929
  0
LINE
  5
4C7
100
AcDbEntity
  8
0
100
AcDbLine
 62
7
  6
CONTINUOUS
 10
7.8820270902
 20
5.9567944964
 11
7.8817488791
 21
5.9570352361
  0
LINE
  5
4C8
100
AcDbEntity
  8
0
100
AcDbLine
 62
7
  6
CONTINUOUS
 10
7.921397169
 20
5.9567944964
 11
7.9211189579
 21
5.9570352361
  0
LINE
  5
4C9
100
AcDbEntity
  8
0
100
AcDbLine
 62
7
  6
CONTINUOUS
 10
7.9607672477
 20
5.9567944964
 11
7.9604890366
 21
5.9570352361
  0
LINE
  5
4CA
100
AcDbEntity
  8
0
100
AcDbLine
 62
7
  6
CONTINUOUS
 10
7.9998591153
 20
5.9570352361
 11
8.0001373264
 21
5.9567944964
  0
LINE
  5
4CB
100
AcDbEntity
  8
0
100
AcDbLine
 62
7
  6
CONTINUOUS
 10
7.7816732958
 20
5.9260740949
 11
7.763916854
 21
5.9567944964
  0
LINE
  5
4CC
100
AcDbEntity
  8
0
100
AcDbLine
 62
7
  6
CONTINUOUS
 10
8.0369425726
 20
5.4994530703
 11
8.0432569922
 21
5.4885295833
  0
LINE
  5
4CD
100
AcDbEntity
  8
0
100
AcDbLine
 62
7
  6
CONTINUOUS
 10
7.8210433745
 20
5.9260740949
 11
7.8032869327
 21
5.9567944964
  0
LINE
  5
4CE
100
AcDbEntity
  8
0
100
AcDbLine
 62
7
  6
CONTINUOUS
 10
7.8604134533
 20
5.9260740949
 11
7.8426570115
 21
5.9567944964
  0
LWPOLYLINE
  5
4CF
100
AcDbEntity
  8
0
100
AcDbPolyline
 62
7
  6
CONTINUOUS
 90
8
 70
0
 10
7.9582024152
 20
5.4994530703
 10
7.9579711057
 20
5.4999984298
 10
7.9569690636
 20
5.5056916879
 10
7.9559670214
 20
5.5166693321
 10
7.9549649793
 20
5.5326512177
 10
7.9539629371
 20
5.5532294937
 10
7.952960895
 20
5.5778790113
 10
7.9519588529
 20
5.6059707255
  0
LWPOLYLINE
  5
4D0
100
AcDbEntity
  8
0
100
AcDbPolyline
 62
7
  6
CONTINUOUS
 90
8
 70
0
 10
7.9408039972
 20
5.468491929
 10
7.9398704101
 20
5.4711982316
 10
7.9389249788
 20
5.4793931542
 10
7.9379783235
 20
5.4929117134
 10
7.9370411482
 20
5.5112297904
 10
7.9361105962
 20
5.5338718914
 10
7.935174319
 20
5.5606267689
 10
7.9342423174
 20
5.5906277558
  0
LWPOLYLINE
  5
4D1
100
AcDbEntity
  8
0
100
AcDbPolyline
 62
7
  6
CONTINUOUS
 90
8
 70
0
 10
7.8384417925
 20
5.9570352361
 10
7.8393758071
 20
5.9543264589
 10
7.8403215488
 20
5.9461255116
 10
7.8412683161
 20
5.9326010109
 10
7.8422055436
 20
5.9142775003
 10
7.8431358228
 20
5.8916385701
 10
7.8440718173
 20
5.8648898268
 10
7.8450034723
 20
5.8348994093
  0
LWPOLYLINE
  5
4D2
100
AcDbEntity
  8
0
100
AcDbPolyline
 62
7
  6
CONTINUOUS
 90
10
 70
0
 10
8.0153289357
 20
5.4687326687
 10
8.0149294846
 20
5.4699190915
 10
8.0139791109
 20
5.4766907927
 10
8.0130287372
 20
5.4888828671
 10
8.012078378
 20
5.5062150753
 10
8.0111280283
 20
5.5282893742
 10
8.0101776775
 20
5.5545991319
 10
8.0092273288
 20
5.584540194
 10
8.0082769862
 20
5.6174249702
 10
8.0073266402
 20
5.6524987647
  0
LWPOLYLINE
  5
4D3
100
AcDbEntity
  8
0
100
AcDbPolyline
 62
7
  6
CONTINUOUS
 90
9
 70
0
 10
7.980174076
 20
5.468491929
 10
7.9791923918
 20
5.4714836788
 10
7.9781983641
 20
5.4805344199
 10
7.9772044033
 20
5.4954161377
 10
7.9762224322
 20
5.5154795716
 10
7.9752436099
 20
5.5402914041
 10
7.9742606034
 20
5.5694354962
 10
7.9732844995
 20
5.6018600668
 10
7.9723101427
 20
5.6369057685
  0
LWPOLYLINE
  5
4D4
100
AcDbEntity
  8
0
100
AcDbPolyline
 62
7
  6
CONTINUOUS
 90
9
 70
0
 10
7.7990717138
 20
5.9570352361
 10
7.8000539802
 20
5.9540399434
 10
7.8010484365
 20
5.9449805209
 10
7.8020426028
 20
5.9300893823
 10
7.8030246
 20
5.9100190269
 10
7.8040033522
 20
5.8852033932
 10
7.8049861049
 20
5.8560626702
 10
7.8059619793
 20
5.8236431641
 10
7.806936431
 20
5.7885923423
  0
LWPOLYLINE
  5
4D5
100
AcDbEntity
  8
0
100
AcDbPolyline
 62
7
  6
CONTINUOUS
 90
9
 70
0
 10
7.759701635
 20
5.9570352361
 10
7.7606846488
 20
5.9540353928
 10
7.7616796539
 20
5.944964839
 10
7.7626741343
 20
5.9300607141
 10
7.7636562039
 20
5.9099803293
 10
7.7646348528
 20
5.8851597811
 10
7.7656172683
 20
5.8560234541
 10
7.7665928803
 20
5.82360913
 10
7.7675674407
 20
5.7885520066
  0
LWPOLYLINE
  5
4D6
100
AcDbEntity
  8
0
100
AcDbPolyline
 62
7
  6
CONTINUOUS
 90
9
 70
0
 10
7.9975724939
 20
5.4994530703
 10
7.997050749
 20
5.5010936031
 10
7.9960487069
 20
5.5083395267
 10
7.9950466647
 20
5.5208022647
 10
7.9940446226
 20
5.5381637733
 10
7.9930425805
 20
5.5599809944
 10
7.9920405383
 20
5.5856971617
 10
7.9910384962
 20
5.6146560097
 10
7.9900364541
 20
5.646118521
  0
LWPOLYLINE
  5
4D7
100
AcDbEntity
  8
0
100
AcDbPolyline
 62
7
  6
CONTINUOUS
 90
9
 70
0
 10
7.8794622577
 20
5.4994530703
 10
7.8785632894
 20
5.503194351
 10
7.8775578707
 20
5.5124731238
 10
7.8765524521
 20
5.5268976543
 10
7.8755470334
 20
5.5460973549
 10
7.8745416147
 20
5.569578957
 10
7.873536196
 20
5.5967391835
 10
7.8725307773
 20
5.6268802482
 10
7.8715253587
 20
5.6592277825
  0
LWPOLYLINE
  5
4D8
100
AcDbEntity
  8
0
100
AcDbPolyline
 62
7
  6
CONTINUOUS
 90
9
 70
0
 10
7.9188323364
 20
5.4994530703
 10
7.9177746178
 20
5.5043059769
 10
7.9167691992
 20
5.5144165686
 10
7.9157637805
 20
5.5296229879
 10
7.9147583618
 20
5.5495345595
 10
7.9137529431
 20
5.5736397257
 10
7.9127475244
 20
5.6013191893
 10
7.9117421058
 20
5.6318618238
 10
7.9107366871
 20
5.664482944
  0
LWPOLYLINE
  5
4D9
100
AcDbEntity
  8
0
100
AcDbPolyline
 62
7
  6
CONTINUOUS
 90
3
 70
0
 10
7.9519588529
 20
5.6059707255
 10
7.9509534342
 20
5.6368953262
 10
7.9499480155
 20
5.6697690944
  0
LWPOLYLINE
  5
4DA
100
AcDbEntity
  8
0
100
AcDbPolyline
 62
7
  6
CONTINUOUS
 90
9
 70
0
 10
7.9469317595
 20
5.7715201822
 10
7.9459263408
 20
5.8035733684
 10
7.9449209221
 20
5.8332935172
 10
7.9439155035
 20
5.8599170739
 10
7.9429100848
 20
5.8827600402
 10
7.9419046661
 20
5.9012355465
 10
7.9408992474
 20
5.9148689297
 10
7.9398938287
 20
5.9233099282
 10
7.9391536108
 20
5.9260740949
  0
LWPOLYLINE
  5
4DB
100
AcDbEntity
  8
0
100
AcDbPolyline
 62
7
  6
CONTINUOUS
 90
9
 70
0
 10
7.9077204311
 20
5.7662993826
 10
7.9067150124
 20
5.798646917
 10
7.9057095937
 20
5.8287879816
 10
7.904704175
 20
5.8559482081
 10
7.9036987563
 20
5.8794298102
 10
7.9026933377
 20
5.8986295108
 10
7.901687919
 20
5.9130540413
 10
7.9006825003
 20
5.9223328142
 10
7.899783532
 20
5.9260740949
  0
LWPOLYLINE
  5
4DC
100
AcDbEntity
  8
0
100
AcDbPolyline
 62
7
  6
CONTINUOUS
 90
8
 70
0
 10
7.9696753883
 20
5.5906277558
 10
7.9706073899
 20
5.5606267689
 10
7.9715436671
 20
5.5338718914
 10
7.9724742191
 20
5.5112297904
 10
7.9734113944
 20
5.4929117134
 10
7.9743580497
 20
5.4793931542
 10
7.975303481
 20
5.4711982316
 10
7.975958857
 20
5.4687326687
  0
LINE
  5
4DD
100
AcDbEntity
  8
0
100
AcDbLine
 62
7
  6
CONTINUOUS
 10
7.9107366871
 20
5.664482944
 11
7.9077204311
 21
5.7662993826
  0
LINE
  5
4DE
100
AcDbEntity
  8
0
100
AcDbLine
 62
7
  6
CONTINUOUS
 10
7.9499480155
 20
5.6697690944
 11
7.9469317595
 21
5.7715201822
  0
LWPOLYLINE
  5
4DF
100
AcDbEntity
  8
0
100
AcDbPolyline
 62
7
  6
CONTINUOUS
 90
3
 70
0
 10
7.9342423174
 20
5.5906277558
 10
7.9333137333
 20
5.6232019168
 10
7.9323831909
 20
5.6578138043
  0
LWPOLYLINE
  5
4E0
100
AcDbEntity
  8
0
100
AcDbPolyline
 62
7
  6
CONTINUOUS
 90
9
 70
0
 10
7.9290018126
 20
5.6369518503
 10
7.9299762981
 20
5.601898788
 10
7.9309520717
 20
5.5694811161
 10
7.9319346874
 20
5.5403420926
 10
7.9329133927
 20
5.5155244756
 10
7.9338954518
 20
5.4954493279
 10
7.9348897827
 20
5.480552498
 10
7.9358844542
 20
5.4714888578
 10
7.9365887783
 20
5.4687326687
  0
LWPOLYLINE
  5
4E1
100
AcDbEntity
  8
0
100
AcDbPolyline
 62
7
  6
CONTINUOUS
 90
9
 70
0
 10
7.9683551814
 20
5.7885394375
 10
7.9673805841
 20
5.8235986321
 10
7.966405051
 20
5.8560114167
 10
7.9654227471
 20
5.8851461722
 10
7.9644441322
 20
5.9099682112
 10
7.9634620399
 20
5.930051738
 10
7.9624674621
 20
5.9449599168
 10
7.9614722875
 20
5.9540339484
 10
7.9607672477
 20
5.9567944964
  0
LWPOLYLINE
  5
4E2
100
AcDbEntity
  8
0
100
AcDbPolyline
 62
7
  6
CONTINUOUS
 90
10
 70
0
 10
7.9295455568
 20
5.7674933054
 10
7.9286149159
 20
5.8021186896
 10
7.9276866848
 20
5.8346951933
 10
7.9267541145
 20
5.8647332475
 10
7.9258173454
 20
5.8915228482
 10
7.9248864025
 20
5.9141960836
 10
7.923948213
 20
5.9325545661
 10
7.9230005794
 20
5.9461040134
 10
7.922053913
 20
5.9543210111
 10
7.921397169
 20
5.9567944964
  0
LWPOLYLINE
  5
4E3
100
AcDbEntity
  8
0
100
AcDbPolyline
 62
7
  6
CONTINUOUS
 90
3
 70
0
 10
7.9678162618
 20
5.6578138043
 10
7.9687468042
 20
5.6232019168
 10
7.9696753883
 20
5.5906277558
  0
LINE
  5
4E4
100
AcDbEntity
  8
0
100
AcDbLine
 62
7
  6
CONTINUOUS
 10
7.9250468478
 20
5.7885856508
 11
7.9290018126
 21
5.6369518503
  0
LINE
  5
4E5
100
AcDbEntity
  8
0
100
AcDbLine
 62
7
  6
CONTINUOUS
 10
7.9323831909
 20
5.6578138043
 11
7.9295455568
 21
5.7674933054
  0
LINE
  5
4E6
100
AcDbEntity
  8
0
100
AcDbLine
 62
7
  6
CONTINUOUS
 10
7.9649786276
 20
5.7674933054
 11
7.9678162618
 21
5.6578138043
  0
LINE
  5
4E7
100
AcDbEntity
  8
0
100
AcDbLine
 62
7
  6
CONTINUOUS
 10
7.9723101427
 20
5.6369057685
 11
7.9683551814
 21
5.7885394375
  0
LINE
  5
4E8
100
AcDbEntity
  8
0
100
AcDbLine
 62
7
  6
CONTINUOUS
 10
7.9017121296
 20
5.4687326688
 11
7.9191504538
 21
5.4989027554
  0
LINE
  5
4E9
100
AcDbEntity
  8
0
100
AcDbLine
 62
7
  6
CONTINUOUS
 10
7.9410822083
 20
5.4687326688
 11
7.9585205325
 21
5.4989027554
  0
LINE
  5
4EA
100
AcDbEntity
  8
0
100
AcDbLine
 62
7
  6
CONTINUOUS
 10
8.0589142573
 20
5.5039249761
 11
8.0434488851
 21
5.4884596004
  0
LINE
  5
4EB
100
AcDbEntity
  8
0
100
AcDbLine
 62
7
  6
CONTINUOUS
 10
8.0589142573
 20
5.9216021891
 11
8.0309690713
 21
5.9495473814
  0
LINE
  5
4EC
100
AcDbEntity
  8
0
100
AcDbLine
 62
7
  6
CONTINUOUS
 10
7.899783532
 20
5.9260740949
 11
7.8820270902
 21
5.9567944964
  0
LINE
  5
4ED
100
AcDbEntity
  8
0
100
AcDbLine
 62
7
  6
CONTINUOUS
 10
7.9391536108
 20
5.9260740949
 11
7.921397169
 21
5.9567944964
  0
LINE
  5
4EE
100
AcDbEntity
  8
0
100
AcDbLine
 62
7
  6
CONTINUOUS
 10
7.9785236895
 20
5.9260740949
 11
7.9607672477
 21
5.9567944964
  0
LWPOLYLINE
  5
4EF
100
AcDbEntity
  8
0
100
AcDbPolyline
 62
7
  6
CONTINUOUS
 90
9
 70
0
 10
7.91718195
 20
5.9570352361
 10
7.9181643392
 20
5.9540391958
 10
7.9191588875
 20
5.9449779233
 10
7.9201531066
 20
5.9300846196
 10
7.9211351163
 20
5.9100125858
 10
7.9221138518
 20
5.8851961213
 10
7.9230965487
 20
5.8560561164
 10
7.9240723775
 20
5.8236375374
 10
7.9250468478
 20
5.7885856508
  0
LWPOLYLINE
  5
4F0
100
AcDbEntity
  8
0
100
AcDbPolyline
 62
7
  6
CONTINUOUS
 90
9
 70
0
 10
7.8778118712
 20
5.9570352361
 10
7.8787950121
 20
5.9540346191
 10
7.8797901079
 20
5.9449622028
 10
7.88078464
 20
5.9300559147
 10
7.881766721
 20
5.9099738678
 10
7.882745352
 20
5.8851525168
 10
7.8837277107
 20
5.8560169431
 10
7.8847032816
 20
5.8236033937
 10
7.8856778595
 20
5.7885452404
  0
LWPOLYLINE
  5
4F1
100
AcDbEntity
  8
0
100
AcDbPolyline
 62
7
  6
CONTINUOUS
 90
9
 70
0
 10
8.0369425726
 20
5.4994530703
 10
8.0361303923
 20
5.5026434584
 10
8.0351283502
 20
5.5114264827
 10
8.0341263081
 20
5.5253475437
 10
8.0331242659
 20
5.5440513817
 10
8.0321222238
 20
5.5670606829
 10
8.0311201817
 20
5.5937882598
 10
8.0301181395
 20
5.6235520359
 10
8.0291160974
 20
5.6555924526
  0
LINE
  5
4F2
100
AcDbEntity
  8
0
100
AcDbLine
 62
7
  6
CONTINUOUS
 10
8.0428220554
 20
5.4906272459
 11
8.0432569922
 21
5.4885295833
  0
LWPOLYLINE
  5
4F3
100
AcDbEntity
  8
0
100
AcDbPolyline
 62
7
  6
CONTINUOUS
 90
9
 70
0
 10
7.9860282855
 20
5.7804261065
 10
7.9850262434
 20
5.811821973
 10
7.9840242012
 20
5.8406899119
 10
7.9830221591
 20
5.8662932256
 10
7.982020117
 20
5.8879785285
 10
7.9810180748
 20
5.9051924209
 10
7.9800160327
 20
5.9174956118
 10
7.9790139906
 20
5.9245741289
 10
7.9785236895
 20
5.9260740949
  0
LWPOLYLINE
  5
4F4
100
AcDbEntity
  8
0
100
AcDbPolyline
 62
7
  6
CONTINUOUS
 90
10
 70
0
 10
8.026109971
 20
5.7570326216
 10
8.0251079288
 20
5.7897401724
 10
8.0241058867
 20
5.8204833137
 10
8.0231038446
 20
5.8484774934
 10
8.0221018024
 20
5.8730083123
 10
8.0210997603
 20
5.8934497542
 10
8.0200977182
 20
5.9092801624
 10
8.019095676
 20
5.9200955516
 10
8.0180936339
 20
5.9256199176
 10
8.0178937682
 20
5.9260740949
  0
LWPOLYLINE
  5
4F5
100
AcDbEntity
  8
0
100
AcDbPolyline
 62
7
  6
CONTINUOUS
 90
3
 70
0
 10
7.9900364541
 20
5.646118521
 10
7.9880323698
 20
5.7132994916
 10
7.9860282855
 20
5.7804261065
  0
LINE
  5
4F6
100
AcDbEntity
  8
0
100
AcDbLine
 62
7
  6
CONTINUOUS
 10
8.0291160974
 20
5.6555924526
 11
8.026109971
 21
5.7570326216
  0
LWPOLYLINE
  5
4F7
100
AcDbEntity
  8
0
100
AcDbPolyline
 62
7
  6
CONTINUOUS
 90
10
 70
0
 10
8.01119845
 20
5.654965098
 10
8.0121433642
 20
5.6199660331
 10
8.0130882734
 20
5.5870734559
 10
8.014033188
 20
5.5570336108
 10
8.0149781089
 20
5.5305283735
 10
8.0159230285
 20
5.5081596069
 10
8.0168679583
 20
5.4904348429
 10
8.0178129108
 20
5.477756434
 10
8.0187578702
 20
5.4704126299
 10
8.0195441733
 20
5.468491929
  0
LWPOLYLINE
  5
4F8
100
AcDbEntity
  8
0
100
AcDbPolyline
 62
7
  6
CONTINUOUS
 90
9
 70
0
 10
8.0044755279
 20
5.762664101
 10
8.0035251676
 20
5.7982199324
 10
8.0025748175
 20
5.8318133418
 10
8.0016244629
 20
5.8626735711
 10
8.0006740934
 20
5.8900923146
 10
7.9997237275
 20
5.9134394407
 10
7.9987733496
 20
5.932179208
 10
7.9978229351
 20
5.9458814424
 10
7.9968725085
 20
5.9542307632
  0
LINE
  5
4F9
100
AcDbEntity
  8
0
100
AcDbLine
 62
7
  6
CONTINUOUS
 10
8.0073266402
 20
5.6524987647
 11
8.0044755279
 21
5.762664101
  0
LINE
  5
4FA
100
AcDbEntity
  8
0
100
AcDbLine
 62
7
  6
CONTINUOUS
 10
8.0083636452
 20
5.7645283224
 11
8.01119845
 21
5.654965098
  0
LWPOLYLINE
  5
4FB
100
AcDbEntity
  8
0
100
AcDbPolyline
 62
7
  6
CONTINUOUS
 90
8
 70
0
 10
8.0384427424
 20
5.6426838295
 10
8.0390615245
 20
5.6099375641
 10
8.0396815222
 20
5.5797966958
 10
8.0403063905
 20
5.5528498235
 10
8.0409293192
 20
5.530054881
 10
8.0415544331
 20
5.5118036547
 10
8.0421879014
 20
5.4984678486
 10
8.0428220554
 20
5.4906272459
  0
LINE
  5
4FC
100
AcDbEntity
  8
0
100
AcDbLine
 62
7
  6
CONTINUOUS
 10
8.0359354611
 20
5.7858148497
 11
8.0384427424
 21
5.6426838295
  0
LINE
  5
4FD
100
AcDbEntity
  8
0
100
AcDbLine
 62
7
  6
CONTINUOUS
 10
8.0589142334
 20
5.5039249999
 11
8.0589142334
 21
5.9216021652
  0
LINE
  5
4FE
100
AcDbEntity
  8
0
100
AcDbLine
 62
7
  6
CONTINUOUS
 10
7.9804522871
 20
5.4687326688
 11
7.9978906113
 21
5.4989027554
  0
LINE
  5
4FF
100
AcDbEntity
  8
0
100
AcDbLine
 62
7
  6
CONTINUOUS
 10
8.0198223658
 20
5.4687326688
 11
8.03726069
 21
5.4989027554
  0
LINE
  5
500
100
AcDbEntity
  8
0
100
AcDbLine
 62
7
  6
CONTINUOUS
 10
8.0178937682
 20
5.9260740949
 11
8.0001373264
 21
5.9567944964
  0
LWPOLYLINE
  5
501
100
AcDbEntity
  8
0
100
AcDbPolyline
 62
7
  6
CONTINUOUS
 90
10
 70
0
 10
7.9565520287
 20
5.9570352361
 10
7.9574869838
 20
5.9543210111
 10
7.9584336502
 20
5.9461040134
 10
7.9593812839
 20
5.9325545661
 10
7.9603194734
 20
5.9141960836
 10
7.9612504163
 20
5.8915228482
 10
7.9621871854
 20
5.8647332475
 10
7.9631197557
 20
5.8346951933
 10
7.9640479868
 20
5.8021186896
 10
7.9649786276
 20
5.7674933054
  0
LINE
  5
502
100
AcDbEntity
  8
0
100
AcDbLine
 62
7
  6
CONTINUOUS
 10
7.9968725085
 20
5.9542307632
 11
7.9959221075
 21
5.9570352361
  0
LWPOLYLINE
  5
503
100
AcDbEntity
  8
0
100
AcDbPolyline
 62
7
  6
CONTINUOUS
 90
10
 70
0
 10
8.0001373264
 20
5.9567944964
 10
8.0008040883
 20
5.9542626456
 10
8.0017490849
 20
5.9460075407
 10
8.0026940678
 20
5.9324575623
 10
8.0036390141
 20
5.9139210431
 10
8.0045839478
 20
5.8908186652
 10
8.0055288839
 20
5.8636745426
 10
8.0064738054
 20
5.8331053709
 10
8.0074187212
 20
5.7998048405
 10
8.0083636452
 20
5.7645283224
  0
LWPOLYLINE
  5
504
100
AcDbEntity
  8
0
100
AcDbPolyline
 62
7
  6
CONTINUOUS
 90
9
 70
0
 10
8.0309690713
 20
5.9495473814
 10
8.0315880315
 20
5.9460674369
 10
8.0322150422
 20
5.9368101774
 10
8.0328422623
 20
5.9220377331
 10
8.0334623025
 20
5.902403284
 10
8.0340803438
 20
5.8783556933
 10
8.0347014401
 20
5.8502965894
 10
8.0353186922
 20
5.8192401473
 10
8.0359354611
 20
5.7858148497
  0
LINE
  5
505
100
AcDbEntity
  8
0
100
AcDbLine
 62
7
  6
CONTINUOUS
 10
8.0982843122
 20
5.91650374
 11
8.0982843122
 21
5.5090234251
  0
LINE
  5
506
100
AcDbEntity
  8
0
100
AcDbLine
 62
7
  6
CONTINUOUS
 10
6.3660008476
 20
6.6970155511
 11
6.2867468426
 21
6.6963239118
  0
LINE
  5
507
100
AcDbEntity
  8
AXIS
100
AcDbLine
 62
7
  6
CONTINUOUS
 10
6.3660008476
 20
6.6970155511
 11
6.2867468426
 21
6.6963239118
  0
LINE
  5
508
100
AcDbEntity
  8
0
100
AcDbLine
 62
7
  6
CONTINUOUS
 10
6.8384417925
 20
6.6970155511
 11
6.3660008476
 21
6.6970155511
  0
LINE
  5
509
100
AcDbEntity
  8
02___PRT_ALL_AXES
100
AcDbLine
 62
7
  6
CONTINUOUS
 10
6.3660008476
 20
6.6970155511
 11
6.8384417925
 21
6.6970155511
  0
LINE
  5
50A
100
AcDbEntity
  8
0
100
AcDbLine
 62
7
  6
CONTINUOUS
 10
11.2101130075
 20
5.1320549211
 11
11.424851435
 21
5.1320549211
  0
LWPOLYLINE
  5
50B
100
AcDbEntity
  8
02___PRT_ALL_AXES
100
AcDbPolyline
 62
7
  6
CONTINUOUS
 90
16
 70
0
 10
11.0914983122
 20
5.1714249999
 10
11.0097804847
 20
5.2133280716
 10
10.935603875
 20
5.2674714123
 10
10.8707864189
 20
5.3325280656
 10
10.8169166759
 20
5.4069036096
 10
10.7753148969
 20
5.4887752332
 10
10.7470006669
 20
5.5761364095
 10
10.7326679169
 20
5.6668460729
 10
10.7326679169
 20
5.7586810922
 10
10.7470006669
 20
5.8493907556
 10
10.7753148969
 20
5.936751932
 10
10.8169166759
 20
6.0186235555
 10
10.8707864189
 20
6.0929990995
 10
10.935603875
 20
6.1580557528
 10
11.0097804847
 20
6.2121990935
 10
11.0914983122
 20
6.2541021652
  0
LINE
  5
50C
100
AcDbEntity
  8
02___PRT_ALL_AXES
100
AcDbLine
 62
7
  6
CONTINUOUS
 10
11.0914983122
 20
5.1714249999
 11
11.2137848418
 21
5.1714249999
  0
LINE
  5
50D
100
AcDbEntity
  8
0
100
AcDbLine
 62
7
  6
CONTINUOUS
 10
11.2137848418
 20
5.1714249999
 11
11.4211796007
 21
5.1714249999
  0
LINE
  5
50E
100
AcDbEntity
  8
02___PRT_ALL_AXES
100
AcDbLine
 62
7
  6
CONTINUOUS
 10
11.4211796007
 20
5.1714249999
 11
11.5434661302
 21
5.1714249999
  0
LINE
  5
50F
100
AcDbEntity
  8
0
100
AcDbLine
 62
7
  6
CONTINUOUS
 10
11.2175915562
 20
5.2107950786
 11
11.4173728862
 21
5.2107950786
  0
LWPOLYLINE
  5
510
100
AcDbEntity
  8
0
100
AcDbPolyline
 62
7
  6
CONTINUOUS
 90
20
 70
0
 10
11.3282512848
 20
5.2775091592
 10
11.2587170631
 20
5.2845620735
 10
11.19163718
 20
5.3025961403
 10
11.1284324111
 20
5.3311845746
 10
11.071340606
 20
5.3691706048
 10
11.0211255007
 20
5.4159261204
 10
10.9795702186
 20
5.4697020205
 10
10.9474799663
 20
5.5291877188
 10
10.9255901609
 20
5.5928892702
 10
10.9145030406
 20
5.6586124033
 10
10.9143096978
 20
5.7251949769
 10
10.9249293177
 20
5.7902761229
 10
10.9459821255
 20
5.8524391677
 10
10.9768130985
 20
5.9099830287
 10
11.0163752238
 20
5.9612313821
 10
11.0636652009
 20
6.0050642137
 10
11.117157051
 20
6.0401970457
 10
11.175276409
 20
6.0657792867
 10
11.2365392769
 20
6.0812777617
 10
11.2989857512
 20
6.086321691
  0
LWPOLYLINE
  5
511
100
AcDbEntity
  8
0
100
AcDbPolyline
 62
7
  6
CONTINUOUS
 90
19
 70
0
 10
11.3174822212
 20
5.4884596004
 10
11.3506571887
 20
5.4915243435
 10
11.3833390245
 20
5.4995908746
 10
11.4143981601
 20
5.5124645759
 10
11.4427966266
 20
5.5296108337
 10
11.4681519761
 20
5.5506359741
 10
11.4901473286
 20
5.5752460966
 10
11.5081171255
 20
5.6026636911
 10
11.5217490403
 20
5.6322677114
 10
11.5308637969
 20
5.6636406506
 10
11.5352269449
 20
5.6963416417
 10
11.5345996026
 20
5.7294681685
 10
11.5290239288
 20
5.7618346084
 10
11.5188005855
 20
5.7925829865
 10
11.5042166528
 20
5.8212742834
 10
11.4854872361
 20
5.8475307887
 10
11.4629949767
 20
5.8707412388
 10
11.437416646
 20
5.8902206249
 10
11.4091212991
 20
5.9056913842
  0
LINE
  5
512
100
AcDbEntity
  8
0
100
AcDbLine
 62
7
  6
CONTINUOUS
 10
11.2130711948
 20
6.2616467743
 11
11.2175915562
 21
6.2147320865
  0
LINE
  5
513
100
AcDbEntity
  8
0
100
AcDbLine
 62
7
  6
CONTINUOUS
 10
11.2101130075
 20
6.293472244
 11
11.2130711948
 21
6.2616467743
  0
LINE
  5
514
100
AcDbEntity
  8
0
100
AcDbLine
 62
7
  6
CONTINUOUS
 10
11.2101130075
 20
5.1320549211
 11
11.213968859
 21
5.1733620213
  0
LWPOLYLINE
  5
515
100
AcDbEntity
  8
0
100
AcDbPolyline
 62
7
  6
CONTINUOUS
 90
3
 70
0
 10
11.213968859
 20
5.1733620213
 10
11.216403047
 20
5.1986612697
 10
11.2175915562
 20
5.2107950786
  0
LINE
  5
516
100
AcDbEntity
  8
0
100
AcDbLine
 62
7
  6
CONTINUOUS
 10
11.4173728862
 20
5.2107950786
 11
11.4213631812
 21
5.1694891476
  0
LWPOLYLINE
  5
517
100
AcDbEntity
  8
0
100
AcDbPolyline
 62
7
  6
CONTINUOUS
 90
3
 70
0
 10
11.4213631812
 20
5.1694891476
 10
11.4237327823
 20
5.1441944106
 10
11.424851435
 20
5.1320549211
  0
LINE
  5
518
100
AcDbEntity
  8
0
100
AcDbLine
 62
7
  6
CONTINUOUS
 10
11.424851435
 20
6.293472244
 11
11.4209955835
 21
6.2521651438
  0
LWPOLYLINE
  5
519
100
AcDbEntity
  8
0
100
AcDbPolyline
 62
7
  6
CONTINUOUS
 90
3
 70
0
 10
11.4209955835
 20
6.2521651438
 10
11.4185613955
 20
6.2268658954
 10
11.4173728862
 20
6.2147320865
  0
LWPOLYLINE
  5
51A
100
AcDbEntity
  8
0
100
AcDbPolyline
 62
7
  6
CONTINUOUS
 90
13
 70
0
 10
11.5497990403
 20
5.6372815564
 10
11.5580990474
 20
5.6744294922
 10
11.5605050039
 20
5.7128197465
 10
11.5568363908
 20
5.7510310456
 10
11.5473586071
 20
5.7876684263
 10
11.5324628916
 20
5.822031081
 10
11.5124328039
 20
5.8536629285
 10
11.4875971647
 20
5.8819380491
 10
11.4588299269
 20
5.9058502388
 10
11.4266512609
 20
5.9250039395
 10
11.3914991474
 20
5.9390034004
 10
11.3546408458
 20
5.9472456812
 10
11.3174822212
 20
5.9495473814
  0
LWPOLYLINE
  5
51B
100
AcDbEntity
  8
0
100
AcDbPolyline
 62
7
  6
CONTINUOUS
 90
21
 70
0
 10
11.3174822212
 20
5.9495473814
 10
11.2808333128
 20
5.9460674369
 10
11.2448104137
 20
5.9368101774
 10
11.2107708188
 20
5.9220377331
 10
11.1799000513
 20
5.902403284
 10
11.1526122662
 20
5.8783556933
 10
11.1293396139
 20
5.8502965894
 10
11.1108705377
 20
5.8192401473
 10
11.0974758054
 20
5.7858148497
 10
11.0893898592
 20
5.7505156822
 10
11.086920431
 20
5.713992625
 10
11.0902525878
 20
5.6776018118
 10
11.0991431223
 20
5.6426838295
 10
11.1132114679
 20
5.6099375641
 10
11.1321815308
 20
5.5797966958
 10
11.1557432655
 20
5.5528498235
 10
11.1830707165
 20
5.530054881
 10
11.213651401
 20
5.5118036547
 10
11.2470770198
 20
5.4984678486
 10
11.2821365266
 20
5.4906272459
 10
11.3174822212
 20
5.4884596004
  0
LWPOLYLINE
  5
51C
100
AcDbEntity
  8
0
100
AcDbPolyline
 62
7
  6
CONTINUOUS
 90
15
 70
0
 10
11.4091212991
 20
5.9056913842
 10
11.4380245051
 20
5.8917564589
 10
11.4648072494
 20
5.8734638312
 10
11.4888376937
 20
5.8511054158
 10
11.509337769
 20
5.8253164751
 10
11.5258377243
 20
5.796687377
 10
11.5380596305
 20
5.7655876891
 10
11.5456643179
 20
5.7324070359
 10
11.5482567985
 20
5.697960554
 10
11.5456670841
 20
5.663437166
 10
11.5380402489
 20
5.6298423503
 10
11.5255772378
 20
5.5977014826
 10
11.5083709294
 20
5.5673777444
 10
11.4866686391
 20
5.539568923
 10
11.4610632542
 20
5.5151449405
  0
LWPOLYLINE
  5
51D
100
AcDbEntity
  8
0
100
AcDbPolyline
 62
7
  6
CONTINUOUS
 90
20
 70
0
 10
11.3174822212
 20
6.0867793306
 10
11.3801454746
 20
6.0848247454
 10
11.4422524356
 20
6.072323054
 10
11.501457869
 20
6.0496606969
 10
11.5567588664
 20
6.0170993959
 10
11.6059648984
 20
5.975786729
 10
11.64809325
 20
5.9264335309
 10
11.6817086341
 20
5.8704612789
 10
11.7057412612
 20
5.8095291638
 10
11.7195793415
 20
5.7448656587
 10
11.722647523
 20
5.6786417417
 10
11.7147903794
 20
5.6122551869
 10
11.69609045
 20
5.5476582623
 10
11.6670038548
 20
5.4867152396
 10
11.6280927078
 20
5.4308685231
 10
11.5804319522
 20
5.3818661061
 10
11.5251844428
 20
5.3410088992
 10
11.4635509495
 20
5.3093602416
 10
11.3974969505
 20
5.2880264335
 10
11.3282512848
 20
5.2775091592
  0
LINE
  5
51E
100
AcDbEntity
  8
0
100
AcDbLine
 62
7
  6
CONTINUOUS
 10
11.4173728862
 20
6.2147320865
 11
11.2175915562
 21
6.2147320865
  0
LINE
  5
51F
100
AcDbEntity
  8
02___PRT_ALL_AXES
100
AcDbLine
 62
7
  6
CONTINUOUS
 10
11.5434661302
 20
6.2541021652
 11
11.4211796007
 21
6.2541021652
  0
LINE
  5
520
100
AcDbEntity
  8
0
100
AcDbLine
 62
7
  6
CONTINUOUS
 10
11.4211796007
 20
6.2541021652
 11
11.2137848418
 21
6.2541021652
  0
LINE
  5
521
100
AcDbEntity
  8
02___PRT_ALL_AXES
100
AcDbLine
 62
7
  6
CONTINUOUS
 10
11.2137848418
 20
6.2541021652
 11
11.0914983122
 21
6.2541021652
  0
LINE
  5
522
100
AcDbEntity
  8
0
100
AcDbLine
 62
7
  6
CONTINUOUS
 10
11.424851435
 20
6.293472244
 11
11.2101130075
 21
6.293472244
  0
LWPOLYLINE
  5
523
100
AcDbEntity
  8
02___PRT_ALL_AXES
100
AcDbPolyline
 62
7
  6
CONTINUOUS
 90
16
 70
0
 10
11.5434661302
 20
6.2541021652
 10
11.6251839578
 20
6.2121990935
 10
11.6993605675
 20
6.1580557528
 10
11.7641780236
 20
6.0929990995
 10
11.8180477666
 20
6.0186235555
 10
11.8596495455
 20
5.936751932
 10
11.8879637755
 20
5.8493907556
 10
11.9022965256
 20
5.7586810922
 10
11.9022965256
 20
5.6668460729
 10
11.8879637755
 20
5.5761364095
 10
11.8596495456
 20
5.4887752332
 10
11.8180477666
 20
5.4069036096
 10
11.7641780236
 20
5.3325280656
 10
11.6993605675
 20
5.2674714123
 10
11.6251839578
 20
5.2133280716
 10
11.5434661302
 20
5.1714249999
  0
LWPOLYLINE
  5
524
100
AcDbEntity
  8
0
100
AcDbPolyline
 62
7
  6
CONTINUOUS
 90
8
 70
0
 10
13.9473232806
 20
8.5234687729
 10
13.9477946725
 20
8.5058838549
 10
13.9610238323
 20
8.4289857603
 10
13.9923833873
 20
8.3535000443
 10
14.0404686382
 20
8.2821695458
 10
14.1012719563
 20
8.2183237842
 10
14.1687558199
 20
8.1643738946
 10
14.2356069054
 20
8.1216536609
  0
LWPOLYLINE
  5
525
100
AcDbEntity
  8
AXIS
100
AcDbPolyline
 62
7
  6
CONTINUOUS
 90
10
 70
0
 10
13.9473433596
 20
8.9127179073
 10
13.9476021235
 20
8.8956925392
 10
13.9542845106
 20
8.8417534881
 10
13.9698173938
 20
8.7884254056
 10
13.9940601052
 20
8.736191239
 10
14.0267930989
 20
8.6855240291
 10
14.0677199398
 20
8.6368826259
 10
14.1164699882
 20
8.5907075336
 10
14.1726017561
 20
8.5474169209
 10
14.2356069054
 20
8.5074028343
  0
LINE
  5
526
100
AcDbEntity
  8
02___PRT_ALL_AXES
100
AcDbLine
 62
7
  6
CONTINUOUS
 10
13.9473232806
 20
8.9092179464
 11
13.9473232806
 21
8.5234687729
  0
LINE
  5
527
100
AcDbEntity
  8
AXIS
100
AcDbLine
 62
7
  6
CONTINUOUS
 10
13.9473420197
 20
8.9127244439
 11
13.9480336458
 21
8.9774330665
  0
LINE
  5
528
100
AcDbEntity
  8
02___PRT_ALL_AXES
100
AcDbLine
 62
7
  6
CONTINUOUS
 10
13.947369661
 20
8.9109874088
 11
13.9473256555
 21
8.9092319456
  0
LWPOLYLINE
  5
529
100
AcDbEntity
  8
0
100
AcDbPolyline
 62
7
  6
CONTINUOUS
 90
7
 70
0
 10
14.9947983876
 20
7.4925222812
 10
15.0289439829
 20
7.5001631499
 10
15.0610198336
 20
7.510664324
 10
15.0906453872
 20
7.5240067567
 10
15.1168041873
 20
7.5398703105
 10
15.1386104783
 20
7.5577365776
 10
15.1533427966
 20
7.5745326926
  0
LWPOLYLINE
  5
52A
100
AcDbEntity
  8
0
100
AcDbPolyline
 62
7
  6
CONTINUOUS
 90
9
 70
0
 10
14.9700952508
 20
7.456806206
 10
15.0070533643
 20
7.4627399654
 10
15.042122806
 20
7.4719028039
 10
15.074783176
 20
7.48421503
 10
15.1042699804
 20
7.4995369021
 10
15.1294132072
 20
7.5173686374
 10
15.1493624775
 20
7.5370246738
 10
15.1638702146
 20
7.5580697625
 10
15.1725370763
 20
7.5795977989
  0
LWPOLYLINE
  5
52B
100
AcDbEntity
  8
0
100
AcDbPolyline
 62
7
  6
CONTINUOUS
 90
7
 70
0
 10
14.9947983876
 20
7.4635910932
 10
14.9591344613
 20
7.4589249723
 10
14.9226953701
 20
7.4573532801
 10
14.886673543
 20
7.4589033665
 10
14.8513962652
 20
7.4635486745
 10
14.8175822713
 20
7.4712601514
 10
14.7864035961
 20
7.4817978109
  0
LINE
  5
52C
100
AcDbEntity
  8
0
100
AcDbLine
 62
7
  6
CONTINUOUS
 10
14.7994950775
 20
7.4349739633
 11
14.7729690426
 21
7.4480067797
  0
LWPOLYLINE
  5
52D
100
AcDbEntity
  8
0
100
AcDbPolyline
 62
7
  6
CONTINUOUS
 90
12
 70
0
 10
14.783904686
 20
7.4416929444
 10
14.8074246202
 20
7.4299977192
 10
14.8337866586
 20
7.4204137181
 10
14.8623926489
 20
7.4131868635
 10
14.8925719021
 20
7.4085002369
 10
14.9236179062
 20
7.4064663454
 10
14.9548355761
 20
7.4071289874
 10
14.9855329878
 20
7.4104726789
 10
15.0150254547
 20
7.4164232013
 10
15.0426496345
 20
7.424846957
 10
15.0677885363
 20
7.4355557323
 10
15.0792478492
 20
7.4416961016
  0
LINE
  5
52E
100
AcDbEntity
  8
0
100
AcDbLine
 62
7
  6
CONTINUOUS
 10
13.9480336458
 20
8.9774330665
 11
13.9531718868
 21
8.9158558247
  0
LWPOLYLINE
  5
52F
100
AcDbEntity
  8
02___PRT_ALL_AXES
100
AcDbPolyline
 62
7
  6
CONTINUOUS
 90
8
 70
0
 10
13.9473256555
 20
8.9092319456
 10
13.9510690137
 20
8.8596893374
 10
13.967658143
 20
8.7943054909
 10
13.9972825976
 20
8.7304756381
 10
14.0395417575
 20
8.6690629685
 10
14.0938641401
 20
8.610897983
 10
14.1595151284
 20
8.5567672632
 10
14.2356069054
 20
8.5074028343
  0
LWPOLYLINE
  5
530
100
AcDbEntity
  8
02___PRT_ALL_AXES
100
AcDbPolyline
 62
7
  6
CONTINUOUS
 90
14
 70
0
 10
14.7085880799
 20
7.6235756196
 10
14.7960013733
 20
7.6085243955
 10
14.8867373393
 20
7.601548822
 10
14.9785722021
 20
7.6028493325
 10
15.0692552538
 20
7.6124235284
 10
15.1565640155
 20
7.6300662378
 10
15.2383587059
 20
7.6553745441
 10
15.3126346839
 20
7.6877576605
 10
15.3775715784
 20
7.7264514096
 10
15.4315779025
 20
7.7705369514
 10
15.4733300582
 20
7.8189633029
 10
15.5018047748
 20
7.8705730956
 10
15.5163041883
 20
7.9241309405
 10
15.5181894224
 20
7.9518768668
  0
LWPOLYLINE
  5
531
100
AcDbEntity
  8
02___PRT_ALL_AXES
100
AcDbPolyline
 62
7
  6
CONTINUOUS
 90
4
 70
0
 10
14.7085880799
 20
7.6235756196
 10
14.679638933
 20
7.6329357634
 10
14.6507973222
 20
7.6434661906
 10
14.6221180856
 20
7.6552121301
  0
LWPOLYLINE
  5
532
100
AcDbEntity
  8
0
100
AcDbPolyline
 62
7
  6
CONTINUOUS
 90
14
 70
0
 10
14.6221180856
 20
7.6172216758
 10
14.6954944708
 20
7.5930009489
 10
14.7744208028
 20
7.5755424963
 10
14.8570479179
 20
7.5652558693
 10
14.9414287769
 20
7.5623843296
 10
15.0255767038
 20
7.5669954612
 10
15.1075133136
 20
7.5789806049
 10
15.185312738
 20
7.5980580272
 10
15.2571449694
 20
7.6237790632
 10
15.3213205827
 20
7.6555387884
 10
15.3763303529
 20
7.6925903006
 10
15.4208806029
 20
7.7340622581
 10
15.4539235567
 20
7.7789792611
 10
15.4695406226
 20
7.8145681157
  0
LWPOLYLINE
  5
533
100
AcDbEntity
  8
0
100
AcDbPolyline
 62
7
  6
CONTINUOUS
 90
7
 70
0
 10
14.7588498256
 20
7.4915191293
 10
14.7879158217
 20
7.4779825041
 10
14.8209295853
 20
7.4671238187
 10
14.8567196054
 20
7.4594231272
 10
14.8939273918
 20
7.4551248923
 10
14.931935162
 20
7.4542392055
 10
14.9700952508
 20
7.456806206
  0
LINE
  5
534
100
AcDbEntity
  8
0
100
AcDbLine
 62
7
  6
CONTINUOUS
 10
14.7879426564
 20
7.5133322757
 11
14.7588498256
 21
7.5268794702
  0
LWPOLYLINE
  5
535
100
AcDbEntity
  8
0
100
AcDbPolyline
 62
7
  6
CONTINUOUS
 90
11
 70
0
 10
14.7588498256
 20
7.5558106582
 10
14.7879426564
 20
7.5422634637
 10
14.8209815417
 20
7.5314013322
 10
14.8567888127
 20
7.5237033222
 10
14.8940026184
 20
7.519411248
 10
14.9320067309
 20
7.5185323004
 10
14.9701508776
 20
7.5211040472
 10
15.007094693
 20
7.527040159
 10
15.0421660325
 20
7.5362080168
 10
15.074823203
 20
7.5485243211
 10
15.101105001
 20
7.5621862578
  0
LINE
  5
536
100
AcDbEntity
  8
0
100
AcDbLine
 62
7
  6
CONTINUOUS
 10
14.7879195283
 20
7.5454871494
 11
14.7588498256
 21
7.5590252346
  0
LINE
  5
537
100
AcDbEntity
  8
0
100
AcDbLine
 62
7
  6
CONTINUOUS
 10
14.7864035961
 20
7.4817978109
 11
14.7588498256
 21
7.4947337057
  0
LWPOLYLINE
  5
538
100
AcDbEntity
  8
0
100
AcDbPolyline
 62
7
  6
CONTINUOUS
 90
8
 70
0
 10
14.7588498256
 20
7.5236648937
 10
14.7864035961
 20
7.5107289989
 10
14.8175822713
 20
7.5001913394
 10
14.8513962652
 20
7.4924798625
 10
14.886673543
 20
7.4878345545
 10
14.9226953701
 20
7.4862844682
 10
14.9591344613
 20
7.4878561603
 10
14.9947983876
 20
7.4925222812
  0
LINE
  5
539
100
AcDbEntity
  8
0
100
AcDbLine
 62
7
  6
CONTINUOUS
 10
14.6294946142
 20
7.5996474787
 11
14.6309544191
 21
7.5989467873
  0
LINE
  5
53A
100
AcDbEntity
  8
0
100
AcDbLine
 62
7
  6
CONTINUOUS
 10
14.7839009215
 20
7.4416950789
 11
14.7729650887
 21
7.4480090625
  0
LINE
  5
53B
100
AcDbEntity
  8
0
100
AcDbLine
 62
7
  6
CONTINUOUS
 10
14.629470194
 20
7.5996615773
 11
14.4844231829
 21
7.6834026137
  0
LINE
  5
53C
100
AcDbEntity
  8
0
100
AcDbLine
 62
7
  6
CONTINUOUS
 10
14.6221180856
 20
7.6172216758
 11
14.4754672346
 21
7.7018886686
  0
LWPOLYLINE
  5
53D
100
AcDbEntity
  8
0
100
AcDbPolyline
 62
7
  6
CONTINUOUS
 90
4
 70
0
 10
14.7588498256
 20
7.5268794702
 10
14.7340070187
 20
7.542864714
 10
14.7137903562
 20
7.5611185549
 10
14.7033000983
 20
7.5752466225
  0
LINE
  5
53E
100
AcDbEntity
  8
0
100
AcDbLine
 62
7
  6
CONTINUOUS
 10
14.7339871985
 20
7.5075194074
 11
14.7588498256
 21
7.4915191293
  0
LWPOLYLINE
  5
53F
100
AcDbEntity
  8
0
100
AcDbPolyline
 62
7
  6
CONTINUOUS
 90
6
 70
0
 10
14.7588498256
 20
7.4947337057
 10
14.7339779542
 20
7.5107409975
 10
14.7137513337
 20
7.5290153565
 10
14.6990152845
 20
7.5488841172
 10
14.6902009069
 20
7.5695700892
 10
14.6887509991
 20
7.5800127925
  0
LINE
  5
540
100
AcDbEntity
  8
0
100
AcDbLine
 62
7
  6
CONTINUOUS
 10
14.7339779542
 20
7.5396721855
 11
14.7588498256
 21
7.5236648937
  0
LWPOLYLINE
  5
541
100
AcDbEntity
  8
0
100
AcDbPolyline
 62
7
  6
CONTINUOUS
 90
3
 70
0
 10
14.7729651147
 20
7.4480090476
 10
14.7516777921
 20
7.462318547
 10
14.7461360258
 20
7.4674592422
  0
LINE
  5
542
100
AcDbEntity
  8
0
100
AcDbLine
 62
7
  6
CONTINUOUS
 10
14.4820587272
 20
7.6850699954
 11
14.4844009473
 21
7.6834154513
  0
LWPOLYLINE
  5
543
100
AcDbEntity
  8
0
100
AcDbPolyline
 62
7
  6
CONTINUOUS
 90
4
 70
0
 10
14.4820592758
 20
7.685069685
 10
14.4378044384
 20
7.7300542564
 10
14.405710116
 20
7.7788566458
 10
14.400407401
 20
7.7929318031
  0
LWPOLYLINE
  5
544
100
AcDbEntity
  8
02___PRT_ALL_AXES
100
AcDbPolyline
 62
7
  6
CONTINUOUS
 90
13
 70
0
 10
14.7085880799
 20
7.6296029505
 10
14.7960013733
 20
7.6145517263
 10
14.8867373393
 20
7.6075761528
 10
14.9785722021
 20
7.6088766634
 10
15.0692552538
 20
7.6184508592
 10
15.1565640155
 20
7.6360935686
 10
15.2383587059
 20
7.6614018749
 10
15.3126346839
 20
7.6937849914
 10
15.3775715784
 20
7.7324787404
 10
15.4315779025
 20
7.7765642822
 10
15.4733300582
 20
7.8249906337
 10
15.5018047748
 20
7.8766004264
 10
15.5163041883
 20
7.9301582713
  0
LWPOLYLINE
  5
545
100
AcDbEntity
  8
02___PRT_ALL_AXES
100
AcDbPolyline
 62
7
  6
CONTINUOUS
 90
11
 70
0
 10
14.7085880799
 20
7.6717942663
 10
14.7960013733
 20
7.6567430422
 10
14.8867373393
 20
7.6497674687
 10
14.9785722021
 20
7.6510679792
 10
15.0692552538
 20
7.6606421751
 10
15.1565640155
 20
7.6782848845
 10
15.2383587059
 20
7.7035931907
 10
15.3126346839
 20
7.7359763072
 10
15.3775715784
 20
7.7746700563
 10
15.4315779025
 20
7.8187555981
 10
15.4733300582
 20
7.8671819496
  0
LWPOLYLINE
  5
546
100
AcDbEntity
  8
02___PRT_ALL_AXES
100
AcDbPolyline
 62
7
  6
CONTINUOUS
 90
11
 70
0
 10
14.7085880799
 20
7.6778215971
 10
14.7960013733
 20
7.662770373
 10
14.8867373393
 20
7.6557947995
 10
14.9785722021
 20
7.6570953101
 10
15.0692552538
 20
7.6666695059
 10
15.1565640155
 20
7.6843122153
 10
15.2383587059
 20
7.7096205216
 10
15.3126346839
 20
7.742003638
 10
15.3775715784
 20
7.7806973871
 10
15.4315779025
 20
7.8247829289
 10
15.4733300582
 20
7.8732092804
  0
LWPOLYLINE
  5
547
100
AcDbEntity
  8
02___PRT_ALL_AXES
100
AcDbPolyline
 62
7
  6
CONTINUOUS
 90
6
 70
0
 10
14.7085880799
 20
7.720012913
 10
14.7960013733
 20
7.7049616888
 10
14.8867373393
 20
7.6979861154
 10
14.9785722021
 20
7.6992866259
 10
15.0692552538
 20
7.7088608218
 10
15.1565640155
 20
7.7265035312
  0
LWPOLYLINE
  5
548
100
AcDbEntity
  8
02___PRT_ALL_AXES
100
AcDbPolyline
 62
7
  6
CONTINUOUS
 90
6
 70
0
 10
14.7085880799
 20
7.7260402438
 10
14.7960013733
 20
7.7109890197
 10
14.8867373393
 20
7.7040134462
 10
14.9785722021
 20
7.7053139567
 10
15.0692552538
 20
7.7148881526
 10
15.1565640155
 20
7.732530862
  0
LWPOLYLINE
  5
549
100
AcDbEntity
  8
02___PRT_ALL_AXES
100
AcDbPolyline
 62
7
  6
CONTINUOUS
 90
3
 70
0
 10
14.7761920438
 20
7.703265119
 10
14.6964450233
 20
7.7195773787
 10
14.6221180856
 20
7.742864966
  0
LWPOLYLINE
  5
54A
100
AcDbEntity
  8
02___PRT_ALL_AXES
100
AcDbPolyline
 62
7
  6
CONTINUOUS
 90
3
 70
0
 10
14.7733401377
 20
7.655493677
 10
14.6950596747
 20
7.6717159982
 10
14.6221180856
 20
7.6946463193
  0
LWPOLYLINE
  5
54B
100
AcDbEntity
  8
02___PRT_ALL_AXES
100
AcDbPolyline
 62
7
  6
CONTINUOUS
 90
3
 70
0
 10
14.7085880799
 20
7.6717942663
 10
14.6796127884
 20
7.6811633978
 10
14.6507766459
 20
7.6916928384
  0
LWPOLYLINE
  5
54C
100
AcDbEntity
  8
02___PRT_ALL_AXES
100
AcDbPolyline
 62
7
  6
CONTINUOUS
 90
4
 70
0
 10
14.3889972403
 20
7.8080449004
 10
14.4179681803
 20
7.7986772648
 10
14.4468039938
 20
7.7881481395
 10
14.4754672346
 20
7.7764083899
  0
LWPOLYLINE
  5
54D
100
AcDbEntity
  8
02___PRT_ALL_AXES
100
AcDbPolyline
 62
7
  6
CONTINUOUS
 90
3
 70
0
 10
14.7085880799
 20
7.720012913
 10
14.6796127884
 20
7.7293820445
 10
14.6507766459
 20
7.7399114851
  0
LINE
  5
54E
100
AcDbEntity
  8
02___PRT_ALL_AXES
100
AcDbLine
 62
7
  6
CONTINUOUS
 10
14.6507766459
 20
7.6916928384
 11
14.6221180856
 21
7.7034307768
  0
LINE
  5
54F
100
AcDbEntity
  8
02___PRT_ALL_AXES
100
AcDbLine
 62
7
  6
CONTINUOUS
 10
14.6507766459
 20
7.7399114851
 11
14.6221180856
 21
7.7516494235
  0
LINE
  5
550
100
AcDbEntity
  8
0
100
AcDbLine
 62
7
  6
CONTINUOUS
 10
14.741744826
 20
7.5668169663
 11
14.7588498256
 21
7.5558106582
  0
LINE
  5
551
100
AcDbEntity
  8
0
100
AcDbLine
 62
7
  6
CONTINUOUS
 10
14.7588498256
 20
7.5590252346
 11
14.7492849315
 21
7.5651805695
  0
LWPOLYLINE
  5
552
100
AcDbEntity
  8
02___PRT_ALL_AXES
100
AcDbPolyline
 62
7
  6
CONTINUOUS
 90
5
 70
0
 10
14.4754672346
 20
7.7851928473
 10
14.4540755214
 20
7.8001904534
 10
14.4320278425
 20
7.8164211325
 10
14.410052496
 20
7.8333483754
 10
14.3889972403
 20
7.8502362162
  0
LWPOLYLINE
  5
553
100
AcDbEntity
  8
02___PRT_ALL_AXES
100
AcDbPolyline
 62
7
  6
CONTINUOUS
 90
4
 70
0
 10
14.4754672346
 20
7.7369742007
 10
14.4468092997
 20
7.7572356383
 10
14.4179709056
 20
7.7789462068
 10
14.3889972403
 20
7.8020175696
  0
LWPOLYLINE
  5
554
100
AcDbEntity
  8
02___PRT_ALL_AXES
100
AcDbPolyline
 62
7
  6
CONTINUOUS
 90
4
 70
0
 10
14.6221180856
 20
7.6946463193
 10
14.6508039837
 20
7.6743644611
 10
14.6796480755
 20
7.6526482257
 10
14.7085880799
 20
7.6296029505
  0
LWPOLYLINE
  5
555
100
AcDbEntity
  8
02___PRT_ALL_AXES
100
AcDbPolyline
 62
7
  6
CONTINUOUS
 90
4
 70
0
 10
14.4754672346
 20
7.833411494
 10
14.4468092997
 20
7.8536729317
 10
14.4179709056
 20
7.8753835002
 10
14.3889972403
 20
7.8984548629
  0
LWPOLYLINE
  5
556
100
AcDbEntity
  8
02___PRT_ALL_AXES
100
AcDbPolyline
 62
7
  6
CONTINUOUS
 90
4
 70
0
 10
14.6221180856
 20
7.742864966
 10
14.6507809137
 20
7.7225999551
 10
14.6796189384
 20
7.700889454
 10
14.7085880799
 20
7.6778215971
  0
LINE
  5
557
100
AcDbEntity
  8
02___PRT_ALL_AXES
100
AcDbLine
 62
7
  6
CONTINUOUS
 10
14.4754672346
 20
7.8246270366
 11
14.4426577415
 21
7.8567983723
  0
LINE
  5
558
100
AcDbEntity
  8
02___PRT_ALL_AXES
100
AcDbLine
 62
7
  6
CONTINUOUS
 10
14.4754672346
 20
7.7764083899
 11
14.4430020416
 21
7.8083423363
  0
LINE
  5
559
100
AcDbEntity
  8
02___PRT_ALL_AXES
100
AcDbLine
 62
7
  6
CONTINUOUS
 10
14.3608435926
 20
7.8512821619
 11
14.3889972403
 21
7.8020175696
  0
LINE
  5
55A
100
AcDbEntity
  8
02___PRT_ALL_AXES
100
AcDbLine
 62
7
  6
CONTINUOUS
 10
14.3608435926
 20
7.8995008085
 11
14.3889972403
 21
7.8502362162
  0
LINE
  5
55B
100
AcDbEntity
  8
02___PRT_ALL_AXES
100
AcDbLine
 62
7
  6
CONTINUOUS
 10
14.3608435926
 20
7.9055281394
 11
14.3889972403
 21
7.8562635471
  0
LWPOLYLINE
  5
55C
100
AcDbEntity
  8
0
100
AcDbPolyline
 62
7
  6
CONTINUOUS
 90
3
 70
0
 10
13.9531718868
 20
8.9158558247
 10
13.9759814132
 20
8.8394797967
 10
14.0165918571
 20
8.7656082939
  0
LWPOLYLINE
  5
55D
100
AcDbEntity
  8
02___PRT_ALL_AXES
100
AcDbPolyline
 62
7
  6
CONTINUOUS
 90
11
 70
0
 10
14.7085880799
 20
7.7682315597
 10
14.7960013733
 20
7.7531803355
 10
14.8867373393
 20
7.7462047621
 10
14.9785722021
 20
7.7475052726
 10
15.0692552538
 20
7.7570794685
 10
15.1565640155
 20
7.7747221778
 10
15.2383587059
 20
7.8000304841
 10
15.3126346839
 20
7.8324136006
 10
15.3775715784
 20
7.8711073496
 10
15.4315779025
 20
7.9151928914
 10
15.4733300582
 20
7.9636192429
  0
LWPOLYLINE
  5
55E
100
AcDbEntity
  8
02___PRT_ALL_AXES
100
AcDbPolyline
 62
7
  6
CONTINUOUS
 90
6
 70
0
 10
14.7085880799
 20
7.7742588905
 10
14.7960013733
 20
7.7592076664
 10
14.8867373393
 20
7.7522320929
 10
14.9785722021
 20
7.7535326034
 10
15.0692552538
 20
7.7631067993
 10
15.1565640155
 20
7.7807495087
  0
LWPOLYLINE
  5
55F
100
AcDbEntity
  8
02___PRT_ALL_AXES
100
AcDbPolyline
 62
7
  6
CONTINUOUS
 90
11
 70
0
 10
14.7085880799
 20
7.8164502063
 10
14.7960013733
 20
7.8013989822
 10
14.8867373393
 20
7.7944234087
 10
14.9785722021
 20
7.7957239193
 10
15.0692552538
 20
7.8052981151
 10
15.1565640155
 20
7.8229408245
 10
15.2383587059
 20
7.8482491308
 10
15.3126346839
 20
7.8806322472
 10
15.3775715784
 20
7.9193259963
 10
15.4315779025
 20
7.9634115381
 10
15.4733300582
 20
8.0118378896
  0
LWPOLYLINE
  5
560
100
AcDbEntity
  8
02___PRT_ALL_AXES
100
AcDbPolyline
 62
7
  6
CONTINUOUS
 90
12
 70
0
 10
14.7085880799
 20
7.8224775372
 10
14.7960013733
 20
7.807426313
 10
14.8867373393
 20
7.8004507396
 10
14.9785722021
 20
7.8017512501
 10
15.0692552538
 20
7.811325446
 10
15.1565640155
 20
7.8289681554
 10
15.2383587059
 20
7.8542764616
 10
15.3126346839
 20
7.8866595781
 10
15.3775715784
 20
7.9253533271
 10
15.4315779025
 20
7.969438869
 10
15.4733300582
 20
8.0178652205
 10
15.485048384
 20
8.0391044263
  0
LWPOLYLINE
  5
561
100
AcDbEntity
  8
02___PRT_ALL_AXES
100
AcDbPolyline
 62
7
  6
CONTINUOUS
 90
3
 70
0
 10
14.7759407585
 20
7.7997414306
 10
14.6963254121
 20
7.8160454123
 10
14.6221180856
 20
7.8393022594
  0
LWPOLYLINE
  5
562
100
AcDbEntity
  8
02___PRT_ALL_AXES
100
AcDbPolyline
 62
7
  6
CONTINUOUS
 90
3
 70
0
 10
14.7746865755
 20
7.75171864
 10
14.6958709161
 20
7.7679437544
 10
14.6221180856
 20
7.7910836127
  0
LWPOLYLINE
  5
563
100
AcDbEntity
  8
02___PRT_ALL_AXES
100
AcDbPolyline
 62
7
  6
CONTINUOUS
 90
5
 70
0
 10
14.3889972403
 20
7.8562635471
 10
14.4100637361
 20
7.8495684247
 10
14.4319392605
 20
7.8419500283
 10
14.4539535695
 20
7.8335603114
 10
14.4754672346
 20
7.8246270366
  0
LWPOLYLINE
  5
564
100
AcDbEntity
  8
02___PRT_ALL_AXES
100
AcDbPolyline
 62
7
  6
CONTINUOUS
 90
3
 70
0
 10
14.7085880799
 20
7.7682315597
 10
14.6796127884
 20
7.7776006912
 10
14.6507766459
 20
7.7881301318
  0
LWPOLYLINE
  5
565
100
AcDbEntity
  8
02___PRT_ALL_AXES
100
AcDbPolyline
 62
7
  6
CONTINUOUS
 90
4
 70
0
 10
14.3889972403
 20
7.9044821938
 10
14.4179681803
 20
7.8951145582
 10
14.4468039938
 20
7.8845854329
 10
14.4754672346
 20
7.8728456832
  0
LWPOLYLINE
  5
566
100
AcDbEntity
  8
02___PRT_ALL_AXES
100
AcDbPolyline
 62
7
  6
CONTINUOUS
 90
3
 70
0
 10
14.7085880799
 20
7.8164502063
 10
14.6796127884
 20
7.8258193379
 10
14.6507766459
 20
7.8363487785
  0
LINE
  5
567
100
AcDbEntity
  8
02___PRT_ALL_AXES
100
AcDbLine
 62
7
  6
CONTINUOUS
 10
14.6507766459
 20
7.7881301318
 11
14.6221180856
 21
7.7998680702
  0
LINE
  5
568
100
AcDbEntity
  8
02___PRT_ALL_AXES
100
AcDbLine
 62
7
  6
CONTINUOUS
 10
14.6507766459
 20
7.8363487785
 11
14.6221180856
 21
7.8480867169
  0
LWPOLYLINE
  5
569
100
AcDbEntity
  8
0
100
AcDbPolyline
 62
7
  6
CONTINUOUS
 90
7
 70
0
 10
14.2437609338
 20
8.1036305842
 10
14.155818819
 20
8.1617768491
 10
14.0817392158
 20
8.2266071482
 10
14.0230669263
 20
8.2967875866
 10
13.9809093244
 20
8.370676908
 10
13.9556911481
 20
8.4466483411
 10
13.9473232806
 20
8.5234687729
  0
LWPOLYLINE
  5
56A
100
AcDbEntity
  8
02___PRT_ALL_AXES
100
AcDbPolyline
 62
7
  6
CONTINUOUS
 90
4
 70
0
 10
14.4754672346
 20
7.8816301407
 10
14.4468092997
 20
7.9018915784
 10
14.4179709056
 20
7.9236021468
 10
14.3889972403
 20
7.9466735096
  0
LWPOLYLINE
  5
56B
100
AcDbEntity
  8
02___PRT_ALL_AXES
100
AcDbPolyline
 62
7
  6
CONTINUOUS
 90
4
 70
0
 10
14.6221180856
 20
7.7910836127
 10
14.6507809137
 20
7.7708186018
 10
14.6796189384
 20
7.7491081007
 10
14.7085880799
 20
7.7260402438
  0
LWPOLYLINE
  5
56C
100
AcDbEntity
  8
02___PRT_ALL_AXES
100
AcDbPolyline
 62
7
  6
CONTINUOUS
 90
4
 70
0
 10
14.4754672346
 20
7.9298487874
 10
14.4468092997
 20
7.950110225
 10
14.4179709056
 20
7.9718207935
 10
14.3889972403
 20
7.9948921563
  0
LWPOLYLINE
  5
56D
100
AcDbEntity
  8
02___PRT_ALL_AXES
100
AcDbPolyline
 62
7
  6
CONTINUOUS
 90
4
 70
0
 10
14.6221180856
 20
7.8393022594
 10
14.6507809137
 20
7.8190372485
 10
14.6796189384
 20
7.7973267474
 10
14.7085880799
 20
7.7742588905
  0
LINE
  5
56E
100
AcDbEntity
  8
02___PRT_ALL_AXES
100
AcDbLine
 62
7
  6
CONTINUOUS
 10
14.4754672346
 20
7.9692829766
 11
14.4429398642
 21
8.0012419203
  0
LINE
  5
56F
100
AcDbEntity
  8
02___PRT_ALL_AXES
100
AcDbLine
 62
7
  6
CONTINUOUS
 10
14.4754672346
 20
7.8728456832
 11
14.4430758973
 21
7.9047022164
  0
LINE
  5
570
100
AcDbEntity
  8
02___PRT_ALL_AXES
100
AcDbLine
 62
7
  6
CONTINUOUS
 10
14.4754672346
 20
7.9210643299
 11
14.44309831
 21
7.95290399
  0
LWPOLYLINE
  5
571
100
AcDbEntity
  8
0
100
AcDbPolyline
 62
7
  6
CONTINUOUS
 90
3
 70
0
 10
14.7001566495
 20
7.5762763915
 10
14.7137513337
 20
7.5579465445
 10
14.7339779542
 20
7.5396721855
  0
LINE
  5
572
100
AcDbEntity
  8
02___PRT_ALL_AXES
100
AcDbLine
 62
7
  6
CONTINUOUS
 10
14.3608435926
 20
7.9477194552
 11
14.3889972403
 21
7.8984548629
  0
LINE
  5
573
100
AcDbEntity
  8
02___PRT_ALL_AXES
100
AcDbLine
 62
7
  6
CONTINUOUS
 10
14.3608435926
 20
7.9959381019
 11
14.3889972403
 21
7.9466735096
  0
LINE
  5
574
100
AcDbEntity
  8
02___PRT_ALL_AXES
100
AcDbLine
 62
7
  6
CONTINUOUS
 10
14.3608435926
 20
8.0441567486
 11
14.3889972403
 21
7.9948921563
  0
LINE
  5
575
100
AcDbEntity
  8
02___PRT_ALL_AXES
100
AcDbLine
 62
7
  6
CONTINUOUS
 10
14.3634664709
 20
8.0455944422
 11
14.3889972403
 21
8.0009194871
  0
LWPOLYLINE
  5
576
100
AcDbEntity
  8
0
100
AcDbPolyline
 62
7
  6
CONTINUOUS
 90
4
 70
0
 10
14.4028333014
 20
7.7910000893
 10
14.4032742575
 20
7.789819507
 10
14.4335145176
 20
7.7442517087
 10
14.4754672346
 20
7.7018886686
  0
LINE
  5
577
100
AcDbEntity
  8
02___PRT_ALL_AXES
100
AcDbLine
 62
7
  6
CONTINUOUS
 10
14.3466775544
 20
7.9506837866
 11
14.3608435926
 21
7.8995008085
  0
LINE
  5
578
100
AcDbEntity
  8
02___PRT_ALL_AXES
100
AcDbLine
 62
7
  6
CONTINUOUS
 10
14.3466775544
 20
7.9989024333
 11
14.3608435926
 21
7.9477194552
  0
LINE
  5
579
100
AcDbEntity
  8
02___PRT_ALL_AXES
100
AcDbLine
 62
7
  6
CONTINUOUS
 10
14.3466775544
 20
8.0471210799
 11
14.3608435926
 21
7.9959381019
  0
LWPOLYLINE
  5
57A
100
AcDbEntity
  8
02___PRT_ALL_AXES
100
AcDbPolyline
 62
7
  6
CONTINUOUS
 90
3
 70
0
 10
14.3470498256
 20
8.0518033666
 10
14.3608435926
 20
8.0019654327
 10
14.3889972403
 20
7.9527008404
  0
LWPOLYLINE
  5
57B
100
AcDbEntity
  8
02___PRT_ALL_AXES
100
AcDbPolyline
 62
7
  6
CONTINUOUS
 90
3
 70
0
 10
14.3449610759
 20
7.9277675434
 10
14.3466775544
 20
7.9024651399
 10
14.3608435926
 20
7.8512821619
  0
LWPOLYLINE
  5
57C
100
AcDbEntity
  8
02___PRT_ALL_AXES
100
AcDbPolyline
 62
7
  6
CONTINUOUS
 90
4
 70
0
 10
14.3449610759
 20
7.9337948743
 10
14.3466775544
 20
7.9084924707
 10
14.3608435926
 20
7.8573094927
 10
14.3889972403
 20
7.8080449004
  0
LINE
  5
57D
100
AcDbEntity
  8
02___PRT_ALL_AXES
100
AcDbLine
 62
7
  6
CONTINUOUS
 10
14.3449610759
 20
7.9759861901
 11
14.3466775544
 21
7.9506837866
  0
LWPOLYLINE
  5
57E
100
AcDbEntity
  8
02___PRT_ALL_AXES
100
AcDbPolyline
 62
7
  6
CONTINUOUS
 90
3
 70
0
 10
14.3449610759
 20
7.982013521
 10
14.3466775544
 20
7.9567111174
 10
14.3608435926
 20
7.9055281394
  0
LINE
  5
57F
100
AcDbEntity
  8
02___PRT_ALL_AXES
100
AcDbLine
 62
7
  6
CONTINUOUS
 10
14.3449610759
 20
8.0242048368
 11
14.3466775544
 21
7.9989024333
  0
LWPOLYLINE
  5
580
100
AcDbEntity
  8
02___PRT_ALL_AXES
100
AcDbPolyline
 62
7
  6
CONTINUOUS
 90
4
 70
0
 10
14.3449610759
 20
8.0302321676
 10
14.3466775544
 20
8.0049297641
 10
14.3608435926
 20
7.953746786
 10
14.3889972403
 20
7.9044821938
  0
LINE
  5
581
100
AcDbEntity
  8
02___PRT_ALL_AXES
100
AcDbLine
 62
7
  6
CONTINUOUS
 10
14.3463356032
 20
8.0521617416
 11
14.3466775544
 21
8.0471210799
  0
LWPOLYLINE
  5
582
100
AcDbEntity
  8
02___PRT_ALL_AXES
100
AcDbPolyline
 62
7
  6
CONTINUOUS
 90
11
 70
0
 10
14.7085880799
 20
7.864668853
 10
14.7960013733
 20
7.8496176289
 10
14.8867373393
 20
7.8426420554
 10
14.9785722021
 20
7.8439425659
 10
15.0692552538
 20
7.8535167618
 10
15.1565640155
 20
7.8711594712
 10
15.2383587059
 20
7.8964677775
 10
15.3126346839
 20
7.9288508939
 10
15.3775715784
 20
7.967544643
 10
15.4315779025
 20
8.0116301848
 10
15.4424455836
 20
8.0242350943
  0
LWPOLYLINE
  5
583
100
AcDbEntity
  8
02___PRT_ALL_AXES
100
AcDbPolyline
 62
7
  6
CONTINUOUS
 90
11
 70
0
 10
14.7085880799
 20
7.8706961839
 10
14.7960013733
 20
7.8556449597
 10
14.8867373393
 20
7.8486693862
 10
14.9785722021
 20
7.8499698968
 10
15.0692552538
 20
7.8595440926
 10
15.1565640155
 20
7.877186802
 10
15.2383587059
 20
7.9024951083
 10
15.3126346839
 20
7.9348782248
 10
15.3775715784
 20
7.9735719738
 10
15.4315779025
 20
8.0176575156
 10
15.4350120544
 20
8.0216406261
  0
LWPOLYLINE
  5
584
100
AcDbEntity
  8
02___PRT_ALL_AXES
100
AcDbPolyline
 62
7
  6
CONTINUOUS
 90
9
 70
0
 10
14.7085880799
 20
7.9128874997
 10
14.7960013733
 20
7.8978362756
 10
14.8867373393
 20
7.8908607021
 10
14.9785722021
 20
7.8921612126
 10
15.0692552538
 20
7.9017354085
 10
15.1565640155
 20
7.9193781179
 10
15.2383587059
 20
7.9446864241
 10
15.3126346839
 20
7.9770695406
 10
15.335868062
 20
7.9909135427
  0
LWPOLYLINE
  5
585
100
AcDbEntity
  8
02___PRT_ALL_AXES
100
AcDbPolyline
 62
7
  6
CONTINUOUS
 90
9
 70
0
 10
14.7085880799
 20
7.9189148305
 10
14.7960013733
 20
7.9038636064
 10
14.8867373393
 20
7.8968880329
 10
14.9785722021
 20
7.8981885435
 10
15.0692552538
 20
7.9077627393
 10
15.1565640155
 20
7.9254054487
 10
15.2383587059
 20
7.950713755
 10
15.3126346839
 20
7.9830968714
 10
15.3186140368
 20
7.9866597702
  0
LWPOLYLINE
  5
586
100
AcDbEntity
  8
02___PRT_ALL_AXES
100
AcDbPolyline
 62
7
  6
CONTINUOUS
 90
3
 70
0
 10
14.7758156304
 20
7.8479795343
 10
14.6962663499
 20
7.8642792454
 10
14.6221180856
 20
7.8875209061
  0
LWPOLYLINE
  5
587
100
AcDbEntity
  8
02___PRT_ALL_AXES
100
AcDbPolyline
 62
7
  6
CONTINUOUS
 90
3
 70
0
 10
14.7737057684
 20
7.8965290392
 10
14.6949650247
 20
7.9128337392
 10
14.6221180856
 20
7.9357395528
  0
LWPOLYLINE
  5
588
100
AcDbEntity
  8
02___PRT_ALL_AXES
100
AcDbPolyline
 62
7
  6
CONTINUOUS
 90
4
 70
0
 10
14.7085880799
 20
7.864668853
 10
14.6875491926
 20
7.8713547971
 10
14.6655817526
 20
7.8790058052
 10
14.6435291786
 20
7.8874129332
  0
LWPOLYLINE
  5
589
100
AcDbEntity
  8
02___PRT_ALL_AXES
100
AcDbPolyline
 62
7
  6
CONTINUOUS
 90
4
 70
0
 10
14.3889972403
 20
7.9527008404
 10
14.4179681803
 20
7.9433332049
 10
14.4468039938
 20
7.9328040796
 10
14.4754672346
 20
7.9210643299
  0
LWPOLYLINE
  5
58A
100
AcDbEntity
  8
02___PRT_ALL_AXES
100
AcDbPolyline
 62
7
  6
CONTINUOUS
 90
4
 70
0
 10
14.3889972403
 20
8.0009194871
 10
14.4179681803
 20
7.9915518516
 10
14.4468039938
 20
7.9810227263
 10
14.4754672346
 20
7.9692829766
  0
LWPOLYLINE
  5
58B
100
AcDbEntity
  8
02___PRT_ALL_AXES
100
AcDbPolyline
 62
7
  6
CONTINUOUS
 90
3
 70
0
 10
14.7085880799
 20
7.9128874997
 10
14.6796127884
 20
7.9222566313
 10
14.6507766459
 20
7.9327860718
  0
LINE
  5
58C
100
AcDbEntity
  8
02___PRT_ALL_AXES
100
AcDbLine
 62
7
  6
CONTINUOUS
 10
14.6507766459
 20
7.9327860718
 11
14.6221180856
 21
7.9445240102
  0
LINE
  5
58D
100
AcDbEntity
  8
02___PRT_ALL_AXES
100
AcDbLine
 62
7
  6
CONTINUOUS
 10
14.6435291786
 20
7.8874129332
 11
14.6221180856
 21
7.8963053635
  0
LWPOLYLINE
  5
58E
100
AcDbEntity
  8
0
100
AcDbPolyline
 62
7
  6
CONTINUOUS
 90
3
 70
0
 10
14.2356069054
 20
8.1216536609
 10
14.3095472609
 20
8.0830839095
 10
14.4029386067
 20
8.0441374575
  0
LWPOLYLINE
  5
58F
100
AcDbEntity
  8
02___PRT_ALL_AXES
100
AcDbPolyline
 62
7
  6
CONTINUOUS
 90
5
 70
0
 10
14.6221180856
 20
7.9357395528
 10
14.6436091678
 20
7.9206705343
 10
14.6656136654
 20
7.9044689274
 10
14.6874961209
 20
7.8876129014
 10
14.7085880799
 20
7.8706961839
  0
LWPOLYLINE
  5
590
100
AcDbEntity
  8
02___PRT_ALL_AXES
100
AcDbPolyline
 62
7
  6
CONTINUOUS
 90
4
 70
0
 10
14.4754672346
 20
7.9780674341
 10
14.4468092997
 20
7.9983288717
 10
14.4179709056
 20
8.0200394402
 10
14.4057821473
 20
8.029745194
  0
LWPOLYLINE
  5
591
100
AcDbEntity
  8
02___PRT_ALL_AXES
100
AcDbPolyline
 62
7
  6
CONTINUOUS
 90
4
 70
0
 10
14.6221180856
 20
7.8875209061
 10
14.6507809137
 20
7.8672558952
 10
14.6796189384
 20
7.8455453941
 10
14.7085880799
 20
7.8224775372
  0
LWPOLYLINE
  5
592
100
AcDbEntity
  8
02___PRT_ALL_AXES
100
AcDbPolyline
 62
7
  6
CONTINUOUS
 90
4
 70
0
 10
14.6501302286
 20
7.9641532318
 10
14.6507809137
 20
7.9636931885
 10
14.6796189384
 20
7.9419826874
 10
14.7085880799
 20
7.9189148305
  0
LINE
  5
593
100
AcDbEntity
  8
02___PRT_ALL_AXES
100
AcDbLine
 62
7
  6
CONTINUOUS
 10
14.3600963127
 20
8.0468567279
 11
14.3608435926
 21
8.0441567486
  0
LINE
  5
594
100
AcDbEntity
  8
02___PRT_ALL_AXES
100
AcDbLine
 62
7
  6
CONTINUOUS
 10
14.3889972403
 20
7.8020175696
 11
14.3889972403
 21
7.8080449004
  0
LINE
  5
595
100
AcDbEntity
  8
02___PRT_ALL_AXES
100
AcDbLine
 62
7
  6
CONTINUOUS
 10
14.3889972403
 20
7.8502362162
 11
14.3889972403
 21
7.8562635471
  0
LINE
  5
596
100
AcDbEntity
  8
02___PRT_ALL_AXES
100
AcDbLine
 62
7
  6
CONTINUOUS
 10
14.3889972403
 20
7.8984548629
 11
14.3889972403
 21
7.9044821938
  0
LINE
  5
597
100
AcDbEntity
  8
02___PRT_ALL_AXES
100
AcDbLine
 62
7
  6
CONTINUOUS
 10
14.3889972403
 20
7.9466735096
 11
14.3889972403
 21
7.9527008404
  0
LINE
  5
598
100
AcDbEntity
  8
02___PRT_ALL_AXES
100
AcDbLine
 62
7
  6
CONTINUOUS
 10
14.3889972403
 20
7.9948921563
 11
14.3889972403
 21
8.0009194871
  0
LINE
  5
599
100
AcDbEntity
  8
02___PRT_ALL_AXES
100
AcDbLine
 62
7
  6
CONTINUOUS
 10
14.3464257729
 20
8.0508325605
 11
14.3449610759
 21
8.0302321676
  0
LINE
  5
59A
100
AcDbEntity
  8
02___PRT_ALL_AXES
100
AcDbLine
 62
7
  6
CONTINUOUS
 10
14.3464257729
 20
8.0026139138
 11
14.3449610759
 21
7.982013521
  0
LINE
  5
59B
100
AcDbEntity
  8
02___PRT_ALL_AXES
100
AcDbLine
 62
7
  6
CONTINUOUS
 10
14.3464257729
 20
7.9543952671
 11
14.3449610759
 21
7.9337948743
  0
LWPOLYLINE
  5
59C
100
AcDbEntity
  8
02___PRT_ALL_AXES
100
AcDbPolyline
 62
7
  6
CONTINUOUS
 90
6
 70
0
 10
15.0568232717
 20
7.944643192
 10
15.0250597784
 20
7.9395632458
 10
14.9416807325
 20
7.9338390342
 10
14.8582491106
 20
7.9354493932
 10
14.7759697714
 20
7.9443928619
 10
14.7511633197
 20
7.949472181
  0
LWPOLYLINE
  5
59D
100
AcDbEntity
  8
02___PRT_ALL_AXES
100
AcDbPolyline
 62
7
  6
CONTINUOUS
 90
3
 70
0
 10
14.868853331
 20
7.9404542304
 10
14.8867373393
 20
7.9390793488
 10
14.9382049408
 20
7.9398082022
  0
LWPOLYLINE
  5
59E
100
AcDbEntity
  8
0
100
AcDbPolyline
 62
7
  6
CONTINUOUS
 90
5
 70
0
 10
14.7148761096
 20
7.95276524
 10
14.5852650773
 20
7.9755622018
 10
14.4620605088
 20
8.0086662514
 10
14.3475222629
 20
8.0515663119
 10
14.2437609338
 20
8.1036305842
  0
LWPOLYLINE
  5
59F
100
AcDbEntity
  8
0
100
AcDbPolyline
 62
7
  6
CONTINUOUS
 90
16
 70
0
 10
14.5134818153
 20
8.0090347416
 10
14.6370065859
 20
7.9812646223
 10
14.7677454804
 20
7.9631460047
 10
14.900938026
 20
7.9554941177
 10
15.0345064932
 20
7.9583346587
 10
15.1663550647
 20
7.9716220993
 10
15.2939211699
 20
7.9951275237
 10
15.4147419699
 20
8.0283994734
 10
15.5266089334
 20
8.0708212731
 10
15.627483064
 20
8.1216187183
 10
15.7154864801
 20
8.179848347
 10
15.7889846204
 20
8.2444261068
 10
15.8466361164
 20
8.3141748892
 10
15.887372561
 20
8.3878198906
 10
15.9104115113
 20
8.4639394931
 10
15.9158272176
 20
8.5234634507
  0
LINE
  5
5A0
100
AcDbEntity
  8
0
100
AcDbLine
 62
7
  6
CONTINUOUS
 10
14.4029386067
 20
8.0441374575
 11
14.5134818153
 21
8.0090347416
  0
LWPOLYLINE
  5
5A1
100
AcDbEntity
  8
0
100
AcDbPolyline
 62
7
  6
CONTINUOUS
 90
4
 70
0
 10
14.0165918571
 20
8.7656082939
 10
14.0742466693
 20
8.6956174669
 10
14.1478718753
 20
8.630811053
 10
14.2360959662
 20
8.5723962786
  0
LWPOLYLINE
  5
5A2
100
AcDbEntity
  8
0
100
AcDbPolyline
 62
7
  6
CONTINUOUS
 90
16
 70
0
 10
14.6895361562
 20
7.5399608547
 10
14.6972913643
 20
7.5198454819
 10
14.7104240799
 20
7.5006459351
 10
14.7286328583
 20
7.4828209712
 10
14.7514992465
 20
7.4667978785
 10
14.7785030074
 20
7.4529599928
 10
14.8090224435
 20
7.441644938
 10
14.8423557642
 20
7.4331309574
 10
14.8777370661
 20
7.4276314135
 10
14.9143541177
 20
7.4252902468
 10
14.9513666009
 20
7.4261789575
 10
14.9879246024
 20
7.4302949485
 10
15.0231886382
 20
7.4375614773
 10
15.0563494276
 20
7.4478295842
 10
15.0866459217
 20
7.4608815307
 10
15.1133824026
 20
7.4764356007
  0
LWPOLYLINE
  5
5A3
100
AcDbEntity
  8
0
100
AcDbPolyline
 62
7
  6
CONTINUOUS
 90
4
 70
0
 10
14.4754672346
 20
7.7018886686
 10
14.4769670303
 20
7.6926453589
 10
14.4813132954
 20
7.6857487946
 10
14.4820587272
 20
7.6850699954
  0
LINE
  5
5A4
100
AcDbEntity
  8
02___PRT_ALL_AXES
100
AcDbLine
 62
7
  6
CONTINUOUS
 10
14.4754672346
 20
7.9780674341
 11
14.4754672346
 21
7.9692829766
  0
LINE
  5
5A5
100
AcDbEntity
  8
02___PRT_ALL_AXES
100
AcDbLine
 62
7
  6
CONTINUOUS
 10
14.4754672346
 20
7.9298487874
 11
14.4754672346
 21
7.9210643299
  0
LINE
  5
5A6
100
AcDbEntity
  8
02___PRT_ALL_AXES
100
AcDbLine
 62
7
  6
CONTINUOUS
 10
14.4754672346
 20
7.8816301407
 11
14.4754672346
 21
7.8728456832
  0
LINE
  5
5A7
100
AcDbEntity
  8
02___PRT_ALL_AXES
100
AcDbLine
 62
7
  6
CONTINUOUS
 10
14.4754672346
 20
7.833411494
 11
14.4754672346
 21
7.8246270366
  0
LINE
  5
5A8
100
AcDbEntity
  8
02___PRT_ALL_AXES
100
AcDbLine
 62
7
  6
CONTINUOUS
 10
14.4754672346
 20
7.7851928473
 11
14.4754672346
 21
7.7764083899
  0
LINE
  5
5A9
100
AcDbEntity
  8
0
100
AcDbLine
 62
7
  6
CONTINUOUS
 10
14.4754672346
 20
7.7369742007
 11
14.4754672346
 21
7.7018886686
  0
LWPOLYLINE
  5
5AA
100
AcDbEntity
  8
0
100
AcDbPolyline
 62
7
  6
CONTINUOUS
 90
6
 70
0
 10
14.7303698439
 20
7.478319007
 10
14.7324913731
 20
7.4698002545
 10
14.740681261
 20
7.4536971653
 10
14.7527572001
 20
7.4384308991
 10
14.768473359
 20
7.4243122329
 10
14.787509802
 20
7.4116285822
  0
LWPOLYLINE
  5
5AB
100
AcDbEntity
  8
0
100
AcDbPolyline
 62
7
  6
CONTINUOUS
 90
4
 70
0
 10
14.6221180856
 20
7.6172216758
 10
14.6233576405
 20
7.6081286127
 10
14.6269473555
 20
7.6016688329
 10
14.6294946142
 20
7.5996474787
  0
LINE
  5
5AC
100
AcDbEntity
  8
02___PRT_ALL_AXES
100
AcDbLine
 62
7
  6
CONTINUOUS
 10
14.6221180856
 20
7.9445240102
 11
14.6221180856
 21
7.9357395528
  0
LINE
  5
5AD
100
AcDbEntity
  8
02___PRT_ALL_AXES
100
AcDbLine
 62
7
  6
CONTINUOUS
 10
14.6221180856
 20
7.8963053635
 11
14.6221180856
 21
7.8875209061
  0
LINE
  5
5AE
100
AcDbEntity
  8
02___PRT_ALL_AXES
100
AcDbLine
 62
7
  6
CONTINUOUS
 10
14.6221180856
 20
7.8480867169
 11
14.6221180856
 21
7.8393022594
  0
LINE
  5
5AF
100
AcDbEntity
  8
02___PRT_ALL_AXES
100
AcDbLine
 62
7
  6
CONTINUOUS
 10
14.6221180856
 20
7.7998680702
 11
14.6221180856
 21
7.7910836127
  0
LINE
  5
5B0
100
AcDbEntity
  8
02___PRT_ALL_AXES
100
AcDbLine
 62
7
  6
CONTINUOUS
 10
14.6221180856
 20
7.7516494235
 11
14.6221180856
 21
7.742864966
  0
LINE
  5
5B1
100
AcDbEntity
  8
02___PRT_ALL_AXES
100
AcDbLine
 62
7
  6
CONTINUOUS
 10
14.6221180856
 20
7.7034307768
 11
14.6221180856
 21
7.6946463193
  0
LINE
  5
5B2
100
AcDbEntity
  8
0
100
AcDbLine
 62
7
  6
CONTINUOUS
 10
14.6221180856
 20
7.6552121301
 11
14.6221180856
 21
7.6172216758
  0
LINE
  5
5B3
100
AcDbEntity
  8
02___PRT_ALL_AXES
100
AcDbLine
 62
7
  6
CONTINUOUS
 10
14.3211104603
 20
8.4634722655
 11
14.2356069054
 21
8.5074028343
  0
LWPOLYLINE
  5
5B4
100
AcDbEntity
  8
0
100
AcDbPolyline
 62
7
  6
CONTINUOUS
 90
5
 70
0
 10
14.6882844344
 20
7.5801656354
 10
14.6902066764
 20
7.5663348759
 10
14.6990259347
 20
7.5456511391
 10
14.7137637592
 20
7.5257872222
 10
14.7339871985
 20
7.5075194074
  0
LINE
  5
5B5
100
AcDbEntity
  8
0
100
AcDbLine
 62
7
  6
CONTINUOUS
 10
14.6873035956
 20
7.5582921882
 11
14.6895361562
 21
7.5399608547
  0
LWPOLYLINE
  5
5B6
100
AcDbEntity
  8
0
100
AcDbPolyline
 62
7
  6
CONTINUOUS
 90
3
 70
0
 10
14.6873035956
 20
7.5558814468
 10
14.6874239803
 20
7.5514541423
 10
14.6903108043
 20
7.5338201913
  0
LINE
  5
5B7
100
AcDbEntity
  8
02___PRT_ALL_AXES
100
AcDbLine
 62
7
  6
CONTINUOUS
 10
14.7085880799
 20
7.9189148305
 11
14.7085880799
 21
7.9128874997
  0
LINE
  5
5B8
100
AcDbEntity
  8
02___PRT_ALL_AXES
100
AcDbLine
 62
7
  6
CONTINUOUS
 10
14.7085880799
 20
7.8706961839
 11
14.7085880799
 21
7.864668853
  0
LINE
  5
5B9
100
AcDbEntity
  8
02___PRT_ALL_AXES
100
AcDbLine
 62
7
  6
CONTINUOUS
 10
14.7085880799
 20
7.8224775372
 11
14.7085880799
 21
7.8164502063
  0
LINE
  5
5BA
100
AcDbEntity
  8
02___PRT_ALL_AXES
100
AcDbLine
 62
7
  6
CONTINUOUS
 10
14.7085880799
 20
7.7742588905
 11
14.7085880799
 21
7.7682315597
  0
LINE
  5
5BB
100
AcDbEntity
  8
02___PRT_ALL_AXES
100
AcDbLine
 62
7
  6
CONTINUOUS
 10
14.7085880799
 20
7.7260402438
 11
14.7085880799
 21
7.720012913
  0
LINE
  5
5BC
100
AcDbEntity
  8
02___PRT_ALL_AXES
100
AcDbLine
 62
7
  6
CONTINUOUS
 10
14.7085880799
 20
7.6778215971
 11
14.7085880799
 21
7.6717942663
  0
LINE
  5
5BD
100
AcDbEntity
  8
02___PRT_ALL_AXES
100
AcDbLine
 62
7
  6
CONTINUOUS
 10
14.7085880799
 20
7.6296029505
 11
14.7085880799
 21
7.6235756196
  0
LWPOLYLINE
  5
5BE
100
AcDbEntity
  8
0
100
AcDbPolyline
 62
7
  6
CONTINUOUS
 90
3
 70
0
 10
14.2360959662
 20
8.5723962786
 10
14.3372755053
 20
8.5214612902
 10
14.4495257248
 20
8.478954905
  0
LWPOLYLINE
  5
5BF
100
AcDbEntity
  8
0
100
AcDbPolyline
 62
7
  6
CONTINUOUS
 90
3
 70
0
 10
14.6893397682
 20
7.5725723833
 10
14.6873361969
 20
7.5605126143
 10
14.6873035956
 20
7.5582921882
  0
LWPOLYLINE
  5
5C0
100
AcDbEntity
  8
0
100
AcDbPolyline
 62
7
  6
CONTINUOUS
 90
12
 70
0
 10
14.4495257248
 20
8.478954905
 10
14.570755606
 20
8.4456689425
 10
14.6987069689
 20
8.4222234422
 10
14.830996211
 20
8.4090551803
 10
14.965159055
 20
8.4064094526
 10
15.0986962954
 20
8.4143355447
 10
15.2291203858
 20
8.4326858082
 10
15.3540017711
 20
8.4611184125
 10
15.471014147
 20
8.4991037116
 10
15.5779777935
 20
8.5459341112
 10
15.6729001795
 20
8.6007372491
 10
15.7540130798
 20
8.6624922463
  0
LWPOLYLINE
  5
5C1
100
AcDbEntity
  8
0
100
AcDbPolyline
 62
7
  6
CONTINUOUS
 90
24
 70
0
 10
14.2778524768
 20
8.6443021323
 10
14.3728607098
 20
8.5964675283
 10
14.4783680618
 20
8.5565033948
 10
14.5923253312
 20
8.5252048644
 10
14.7126019586
 20
8.5031578172
 10
14.8369581795
 20
8.4907725773
 10
14.963077348
 20
8.4882798522
 10
15.0886095915
 20
8.4957260976
 10
15.2112160596
 20
8.5129725831
 10
15.3286123866
 20
8.5396979831
 10
15.4386112764
 20
8.5754043602
 10
15.5391632648
 20
8.6194264448
 10
15.6283949094
 20
8.6709440356
 10
15.7046436786
 20
8.7289972751
 10
15.7664889354
 20
8.7925045367
 10
15.8127784073
 20
8.8602825819
 10
15.8426496439
 20
8.9310685918
 10
15.8555460973
 20
9.0035436954
 10
15.8512274955
 20
9.076357576
 10
15.8297743216
 20
9.1481535545
 10
15.7915861985
 20
9.2175941314
 10
15.7373738535
 20
9.2833862055
 10
15.668151983
 20
9.3442998008
 10
15.5852980215
 20
9.3991516636
  0
LWPOLYLINE
  5
5C2
100
AcDbEntity
  8
0
100
AcDbPolyline
 62
7
  6
CONTINUOUS
 90
3
 70
0
 10
15.1758469027
 20
7.5743650566
 10
15.1757577452
 20
7.5783132802
 10
15.1754056159
 20
7.580354767
  0
LWPOLYLINE
  5
5C3
100
AcDbEntity
  8
0
100
AcDbPolyline
 62
7
  6
CONTINUOUS
 90
21
 70
0
 10
15.1758469027
 20
7.5711504775
 10
15.1741062294
 20
7.5537331912
 10
15.1669805184
 20
7.5321164352
 10
15.1545115732
 20
7.5113544278
 10
15.1369822155
 20
7.4919006207
 10
15.1147900623
 20
7.4741790126
 10
15.0884390413
 20
7.4585746344
 10
15.0585277153
 20
7.4454243511
 10
15.0257352172
 20
7.4350090664
 10
14.9908056557
 20
7.4275475001
 10
14.9545314861
 20
7.4231914248
 10
14.9177360092
 20
7.4220222564
 10
14.8812547085
 20
7.4240490553
 10
14.8459152288
 20
7.4292083723
 10
14.8125193549
 20
7.4373658104
 10
14.7818258266
 20
7.4483186845
 10
14.7545325194
 20
7.4618002937
 10
14.7312648408
 20
7.4774819106
 10
14.7125403186
 20
7.4949950796
 10
14.6987849786
 20
7.513923934
 10
14.6903108043
 20
7.5338201913
  0
LINE
  5
5C4
100
AcDbEntity
  8
0
100
AcDbLine
 62
7
  6
CONTINUOUS
 10
15.1739515623
 20
7.5561931807
 11
15.1758469027
 21
7.5743650566
  0
LWPOLYLINE
  5
5C5
100
AcDbEntity
  8
0
100
AcDbPolyline
 62
7
  6
CONTINUOUS
 90
17
 70
0
 10
15.133335367
 20
7.4805465353
 10
15.1306594858
 20
7.4698012115
 10
15.1224698301
 20
7.453698083
 10
15.1103941112
 20
7.4384317587
 10
15.094678156
 20
7.424313017
 10
15.0756418959
 20
7.4116292748
 10
15.0536728543
 20
7.4006387364
 10
15.0292182576
 20
7.3915651376
 10
15.0027759309
 20
7.3845931906
 10
14.9748841636
 20
7.3798648242
 10
14.9461107516
 20
7.3774762942
 10
14.9170414388
 20
7.3774762244
 10
14.8882679924
 20
7.379864616
 10
14.8603761569
 20
7.3845928483
 10
14.8339337296
 20
7.3915646682
 10
14.809479002
 20
7.4006381495
 10
14.787509802
 20
7.4116285822
  0
LWPOLYLINE
  5
5C6
100
AcDbEntity
  8
0
100
AcDbPolyline
 62
7
  6
CONTINUOUS
 90
9
 70
0
 10
15.1708424561
 20
7.579150612
 10
15.1674626875
 20
7.568534808
 10
15.1555142039
 20
7.5480770963
 10
15.1386104783
 20
7.5288053896
 10
15.1168041873
 20
7.5109391225
 10
15.0906453872
 20
7.4950755687
 10
15.0610198336
 20
7.481733136
 10
15.0289439829
 20
7.4712319619
 10
14.9947983876
 20
7.4635910932
  0
LWPOLYLINE
  5
5C7
100
AcDbEntity
  8
0
100
AcDbPolyline
 62
7
  6
CONTINUOUS
 90
6
 70
0
 10
15.7540130798
 20
8.6624922463
 10
15.8198055142
 20
8.7300487237
 10
15.8690518934
 20
8.8021482312
 10
15.9008348505
 20
8.877447691
 10
15.9145623289
 20
8.9545444166
 10
15.9151168525
 20
8.9774330665
  0
LINE
  5
5C8
100
AcDbEntity
  8
02___PRT_ALL_AXES
100
AcDbLine
 62
7
  6
CONTINUOUS
 10
15.5181894224
 20
7.9579041976
 11
15.516789698
 21
7.9794950747
  0
LINE
  5
5C9
100
AcDbEntity
  8
02___PRT_ALL_AXES
100
AcDbLine
 62
7
  6
CONTINUOUS
 10
15.5181894224
 20
8.0061228443
 11
15.516789698
 21
8.0277137214
  0
LWPOLYLINE
  5
5CA
100
AcDbEntity
  8
0
100
AcDbPolyline
 62
7
  6
CONTINUOUS
 90
5
 70
0
 10
15.158146513
 20
7.5174069563
 10
15.1529623674
 20
7.5053370168
 10
15.1387987566
 20
7.4857194656
 10
15.1195562311
 20
7.4674999626
 10
15.0945981555
 20
7.4505568343
  0
LINE
  5
5CB
100
AcDbEntity
  8
02___PRT_ALL_AXES
100
AcDbLine
 62
7
  6
CONTINUOUS
 10
15.5163041883
 20
8.0265955647
 11
15.5181672533
 21
8.0540152184
  0
LINE
  5
5CC
100
AcDbEntity
  8
02___PRT_ALL_AXES
100
AcDbLine
 62
7
  6
CONTINUOUS
 10
15.5163041883
 20
7.978376918
 11
15.5181894224
 21
8.0061228443
  0
LINE
  5
5CD
100
AcDbEntity
  8
02___PRT_ALL_AXES
100
AcDbLine
 62
7
  6
CONTINUOUS
 10
15.5163041883
 20
7.9301582713
 11
15.5181894224
 21
7.9579041976
  0
LINE
  5
5CE
100
AcDbEntity
  8
02___PRT_ALL_AXES
100
AcDbLine
 62
7
  6
CONTINUOUS
 10
15.5018047748
 20
7.9730377198
 11
15.5163041883
 21
8.0265955647
  0
LWPOLYLINE
  5
5CF
100
AcDbEntity
  8
02___PRT_ALL_AXES
100
AcDbPolyline
 62
7
  6
CONTINUOUS
 90
3
 70
0
 10
15.5018047748
 20
7.9670103889
 10
15.5163041883
 20
8.0205682338
 10
15.5181894224
 20
8.0483141601
  0
LINE
  5
5D0
100
AcDbEntity
  8
02___PRT_ALL_AXES
100
AcDbLine
 62
7
  6
CONTINUOUS
 10
15.5018047748
 20
7.9248190731
 11
15.5163041883
 21
7.978376918
  0
LWPOLYLINE
  5
5D1
100
AcDbEntity
  8
02___PRT_ALL_AXES
100
AcDbPolyline
 62
7
  6
CONTINUOUS
 90
3
 70
0
 10
15.5018047748
 20
7.9187917422
 10
15.5163041883
 20
7.9723495872
 10
15.5181894224
 20
8.0000955135
  0
LINE
  5
5D2
100
AcDbEntity
  8
02___PRT_ALL_AXES
100
AcDbLine
 62
7
  6
CONTINUOUS
 10
15.4733300582
 20
8.0118378896
 11
15.4891669453
 21
8.0405418964
  0
LWPOLYLINE
  5
5D3
100
AcDbEntity
  8
0
100
AcDbPolyline
 62
7
  6
CONTINUOUS
 90
13
 70
0
 10
15.1502915157
 20
7.5737275015
 10
15.1493844884
 20
7.5724110574
 10
15.1294422254
 20
7.5527531525
 10
15.1043051627
 20
7.534918594
 10
15.074823203
 20
7.5195931331
 10
15.0421660325
 20
7.5072768288
 10
15.007094693
 20
7.498108971
 10
14.9701508776
 20
7.4921728591
 10
14.9320067309
 20
7.4896011124
 10
14.8940026184
 20
7.49048006
 10
14.8567888127
 20
7.4947721342
 10
14.8209815417
 20
7.5024701442
 10
14.7879426564
 20
7.5133322757
  0
LWPOLYLINE
  5
5D4
100
AcDbEntity
  8
02___PRT_ALL_AXES
100
AcDbPolyline
 62
7
  6
CONTINUOUS
 90
8
 70
0
 10
15.2719135917
 20
7.8628785144
 10
15.2570616878
 20
7.8552471837
 10
15.1853886112
 20
7.8284086519
 10
15.1085474321
 20
7.8083462405
 10
15.0267756851
 20
7.7951036612
 10
14.9423296927
 20
7.7891992226
 10
14.858266294
 20
7.790792363
 10
14.7759407585
 20
7.7997414306
  0
LWPOLYLINE
  5
5D5
100
AcDbEntity
  8
02___PRT_ALL_AXES
100
AcDbPolyline
 62
7
  6
CONTINUOUS
 90
8
 70
0
 10
15.27153749
 20
7.9591518335
 10
15.2560790603
 20
7.9512533753
 10
15.184974935
 20
7.924715688
 10
15.1074815766
 20
7.9045599436
 10
15.0248503815
 20
7.891320859
 10
14.939880979
 20
7.885577969
 10
14.8557255135
 20
7.8873942785
 10
14.7737057684
 20
7.8965290392
  0
LWPOLYLINE
  5
5D6
100
AcDbEntity
  8
0
100
AcDbPolyline
 62
7
  6
CONTINUOUS
 90
8
 70
0
 10
15.5972639375
 20
8.091249729
 10
15.4906332098
 20
8.0410536556
 10
15.3736922615
 20
8.0002386444
 10
15.2486066687
 20
7.9694002952
 10
15.1177647393
 20
7.9490168361
 10
14.9835658066
 20
7.939385654
 10
14.8484393958
 20
7.9406443915
 10
14.7148761096
 20
7.95276524
  0
LWPOLYLINE
  5
5D7
100
AcDbEntity
  8
02___PRT_ALL_AXES
100
AcDbPolyline
 62
7
  6
CONTINUOUS
 90
7
 70
0
 10
15.2385317956
 20
7.8965432418
 10
15.1862331962
 20
7.8768940442
 10
15.1088971342
 20
7.8566385535
 10
15.0265076564
 20
7.8432914232
 10
14.9418520562
 20
7.8374059558
 10
14.8580458342
 20
7.8390250193
 10
14.7758156304
 20
7.8479795343
  0
LWPOLYLINE
  5
5D8
100
AcDbEntity
  8
0
100
AcDbPolyline
 62
7
  6
CONTINUOUS
 90
14
 70
0
 10
15.4719045577
 20
7.8173099323
 10
15.4579520036
 20
7.7798615349
 10
15.4266402238
 20
7.7316554582
 10
15.3829980538
 20
7.6867080472
 10
15.3282136049
 20
7.6465501032
 10
15.2640926848
 20
7.6123712722
 10
15.192426672
 20
7.5848463896
 10
15.114984602
 20
7.5644104927
 10
15.0335342081
 20
7.5513578977
 10
14.9498716694
 20
7.5458742303
 10
14.8658644524
 20
7.5480338421
 10
14.783331948
 20
7.5577914913
 10
14.7040793719
 20
7.5749913386
 10
14.6309556305
 20
7.5989460988
  0
LWPOLYLINE
  5
5D9
100
AcDbEntity
  8
02___PRT_ALL_AXES
100
AcDbPolyline
 62
7
  6
CONTINUOUS
 90
3
 70
0
 10
15.4733300582
 20
7.9636192429
 10
15.5018047748
 20
8.0152290356
 10
15.511268938
 20
8.0501877039
  0
LINE
  5
5DA
100
AcDbEntity
  8
02___PRT_ALL_AXES
100
AcDbLine
 62
7
  6
CONTINUOUS
 10
15.4733300582
 20
7.8732092804
 11
15.5018047748
 21
7.9248190731
  0
LINE
  5
5DB
100
AcDbEntity
  8
02___PRT_ALL_AXES
100
AcDbLine
 62
7
  6
CONTINUOUS
 10
15.4733300582
 20
7.8671819496
 11
15.5018047748
 21
7.9187917422
  0
LWPOLYLINE
  5
5DC
100
AcDbEntity
  8
02___PRT_ALL_AXES
100
AcDbPolyline
 62
7
  6
CONTINUOUS
 90
7
 70
0
 10
15.2387235787
 20
7.8001895627
 10
15.1866727567
 20
7.7805960058
 10
15.1090677627
 20
7.760237259
 10
15.0262430453
 20
7.7468237166
 10
14.9410163166
 20
7.7409483924
 10
14.8565261846
 20
7.7426857136
 10
14.7746865755
 20
7.75171864
  0
LWPOLYLINE
  5
5DD
100
AcDbEntity
  8
02___PRT_ALL_AXES
100
AcDbPolyline
 62
7
  6
CONTINUOUS
 90
7
 70
0
 10
15.1973302376
 20
7.7364764639
 10
15.1845497011
 20
7.7317074745
 10
15.107368652
 20
7.7116617506
 10
15.0262185136
 20
7.6986022543
 10
14.9424696801
 20
7.6927654662
 10
14.8586194126
 20
7.6943327387
 10
14.7761920438
 20
7.703265119
  0
LWPOLYLINE
  5
5DE
100
AcDbEntity
  8
02___PRT_ALL_AXES
100
AcDbPolyline
 62
7
  6
CONTINUOUS
 90
8
 70
0
 10
15.1565640155
 20
7.7807495087
 10
15.2383587059
 20
7.8060578149
 10
15.3126346839
 20
7.8384409314
 10
15.3775715784
 20
7.8771346805
 10
15.4315779025
 20
7.9212202223
 10
15.4733300582
 20
7.9696465738
 10
15.5018047748
 20
8.0212563664
 10
15.5095788677
 20
8.0499722634
  0
LWPOLYLINE
  5
5DF
100
AcDbEntity
  8
02___PRT_ALL_AXES
100
AcDbPolyline
 62
7
  6
CONTINUOUS
 90
7
 70
0
 10
15.1565640155
 20
7.732530862
 10
15.2383587059
 20
7.7578391683
 10
15.3126346839
 20
7.7902222847
 10
15.3775715784
 20
7.8289160338
 10
15.4315779025
 20
7.8730015756
 10
15.4733300582
 20
7.9214279271
 10
15.5018047748
 20
7.9730377198
  0
LWPOLYLINE
  5
5E0
100
AcDbEntity
  8
02___PRT_ALL_AXES
100
AcDbPolyline
 62
7
  6
CONTINUOUS
 90
7
 70
0
 10
15.1565640155
 20
7.7265035312
 10
15.2383587059
 20
7.7518118374
 10
15.3126346839
 20
7.7841949539
 10
15.3775715784
 20
7.8228887029
 10
15.4315779025
 20
7.8669742448
 10
15.4733300582
 20
7.9154005963
 10
15.5018047748
 20
7.9670103889
  0
LWPOLYLINE
  5
5E1
100
AcDbEntity
  8
0
100
AcDbPolyline
 62
7
  6
CONTINUOUS
 90
4
 70
0
 10
15.1359444772
 20
7.4941523006
 10
15.1538138274
 20
7.5136423101
 10
15.166580481
 20
7.5344760068
 10
15.1739515623
 20
7.5561931807
  0
LINE
  5
5E2
100
AcDbEntity
  8
0
100
AcDbLine
 62
7
  6
CONTINUOUS
 10
15.1133824026
 20
7.4764356007
 11
15.1359444772
 21
7.4941523006
  0
LWPOLYLINE
  5
5E3
100
AcDbEntity
  8
0
100
AcDbPolyline
 62
7
  6
CONTINUOUS
 90
10
 70
0
 10
15.0921663673
 20
7.5607538232
 10
15.0747883333
 20
7.5517234236
 10
15.0421284231
 20
7.5394106871
 10
15.007058721
 20
7.5302471936
 10
14.9701027857
 20
7.5243131659
 10
14.9319450216
 20
7.5217455259
 10
14.8939378327
 20
7.5226302788
 10
14.8567292423
 20
7.5269276536
 10
14.82093682
 20
7.5346279719
 10
14.7879195283
 20
7.5454871494
  0
LWPOLYLINE
  5
5E4
100
AcDbEntity
  8
02___PRT_ALL_AXES
100
AcDbPolyline
 62
7
  6
CONTINUOUS
 90
8
 70
0
 10
15.2721050692
 20
7.7183060554
 10
15.2569008177
 20
7.7105205328
 10
15.1856809054
 20
7.6838449049
 10
15.1079889434
 20
7.6635729674
 10
15.0251063961
 20
7.6502566576
 10
14.9398619635
 20
7.6444843055
 10
14.8554165555
 20
7.6463215358
 10
14.7733401377
 20
7.655493677
  0
LINE
  5
5E5
100
AcDbEntity
  8
AXIS
100
AcDbLine
 62
7
  6
CONTINUOUS
 10
15.9158084785
 20
8.9127244439
 11
15.9151168525
 21
8.9774330665
  0
LINE
  5
5E6
100
AcDbEntity
  8
0
100
AcDbLine
 62
7
  6
CONTINUOUS
 10
15.9158272176
 20
8.5234634507
 11
15.9158272176
 21
8.5234687729
  0
LINE
  5
5E7
100
AcDbEntity
  8
02___PRT_ALL_AXES
100
AcDbLine
 62
7
  6
CONTINUOUS
 10
15.9158272176
 20
8.9092179464
 11
15.9158272176
 21
8.5234687729
  0
LINE
  5
5E8
100
AcDbEntity
  8
02___PRT_ALL_AXES
100
AcDbLine
 62
7
  6
CONTINUOUS
 10
15.9158248427
 20
8.9092039471
 11
15.9154109491
 21
8.8926929194
  0
LWPOLYLINE
  5
5E9
100
AcDbEntity
  8
AXIS
100
AcDbPolyline
 62
7
  6
CONTINUOUS
 90
26
 70
0
 10
15.9158077057
 20
8.9127322078
 10
15.9133197488
 20
8.8686818143
 10
15.9022002926
 20
8.8149873765
 10
15.8822907057
 20
8.7621463053
 10
15.8537712924
 20
8.7106371377
 10
15.8169003289
 20
8.6609263486
 10
15.7720117245
 20
8.6134641267
 10
15.7195119971
 20
8.5686802972
 10
15.6598765926
 20
8.5269804294
 10
15.5936455783
 20
8.4887421637
 10
15.5214187526
 20
8.4543117918
 10
15.4438502127
 20
8.4240011205
 10
15.3616424315
 20
8.398084648
 10
15.2755398953
 20
8.3767970777
 10
15.186322362
 20
8.3603311932
 10
15.0947977993
 20
8.3488361122
 10
15.001795068
 20
8.3424159359
 10
14.9081564151
 20
8.3411288063
 10
14.8147298469
 20
8.3449863799
 10
14.7223614486
 20
8.353953722
 10
14.631887723
 20
8.3679496229
 10
14.544128014
 20
8.3868473336
 10
14.4598770871
 20
8.4104757134
 10
14.3798979319
 20
8.4386207801
 10
14.3049148519
 20
8.4710276476
 10
14.2356069054
 20
8.5074028343
  0
LWPOLYLINE
  5
5EA
100
AcDbEntity
  8
0
100
AcDbPolyline
 62
7
  6
CONTINUOUS
 90
7
 70
0
 10
15.9158272176
 20
8.5234687729
 10
15.9067946735
 20
8.4436708789
 10
15.8794895851
 20
8.364667001
 10
15.8340375383
 20
8.2883258202
 10
15.7708873833
 20
8.2161555956
 10
15.6913711883
 20
8.1499879216
 10
15.5972639375
 20
8.091249729
  0
LWPOLYLINE
  5
5EB
100
AcDbEntity
  8
02___PRT_ALL_AXES
100
AcDbPolyline
 62
7
  6
CONTINUOUS
 90
20
 70
0
 10
15.9154109491
 20
8.8926929194
 10
15.9054357235
 20
8.826862756
 10
15.8822907057
 20
8.7621463053
 10
15.8462888922
 20
8.6994187463
 10
15.7979171459
 20
8.6395283615
 10
15.7378296116
 20
8.5832850657
 10
15.6668388702
 20
8.531449453
 10
15.5859049497
 20
8.4847225111
 10
15.4961223424
 20
8.4437361417
 10
15.3987052042
 20
8.4090446153
 10
15.2949709347
 20
8.3811170751
 10
15.186322362
 20
8.3603311932
 10
15.0742287715
 20
8.3469680631
 10
14.9602060369
 20
8.3412083981
 10
14.84579612
 20
8.3431300878
 10
14.7325462187
 20
8.3527071447
 10
14.6219878435
 20
8.3698100556
 10
14.515616107
 20
8.3942075328
 10
14.4148695043
 20
8.4255696423
 10
14.3211104603
 20
8.4634722655
  0
LINE
  5
5EC
100
AcDbEntity
  8
0
100
AcDbLine
 62
7
  6
CONTINUOUS
 10
15.0792495769
 20
7.441695079
 11
15.0945979038
 21
7.450556689
  0
LWPOLYLINE
  5
5ED
100
AcDbEntity
  8
0
100
AcDbPolyline
 62
7
  6
CONTINUOUS
 90
10
 70
0
 10
15.0945981555
 20
7.4505568343
 10
15.0673885097
 20
7.4370555283
 10
15.0364112871
 20
7.4259205288
 10
15.0033084131
 20
7.4177900924
 10
14.9685817736
 20
7.4127233822
 10
14.932866805
 20
7.410831133
 10
14.8974249073
 20
7.4121727874
 10
14.8628954958
 20
7.4166957057
 10
14.829830116
 20
7.4243799123
 10
14.7994950775
 20
7.4349739633
  0
LINE
  5
5EE
100
AcDbEntity
  8
02___PRT_ALL_AXES
100
AcDbLine
 62
7
  6
CONTINUOUS
 10
15.9157010015
 20
8.9108429619
 11
15.9158248427
 21
8.9092039471
  0
LWPOLYLINE
  5
5EF
100
AcDbEntity
  8
AXIS
100
AcDbPolyline
 62
7
  6
CONTINUOUS
 90
31
 70
0
 10
15.5153383598
 20
9.3587606752
 10
15.4511200754
 20
9.3921436984
 10
15.3812095492
 20
9.4214683576
 10
15.3063727355
 20
9.4464133657
 10
15.2274295621
 20
9.4667054199
 10
15.145244947
 20
9.4821221964
 10
15.0607193219
 20
9.4924947857
 10
14.9747787673
 20
9.4977095434
 10
14.888364866
 20
9.4977093357
 10
14.8024243867
 20
9.4924941648
 10
14.7178989112
 20
9.4821211692
 10
14.6357145184
 20
9.4667039976
 10
14.5567716377
 20
9.4464115638
 10
14.4819351838
 20
9.421466196
 10
14.4120250805
 20
9.3921412007
 10
14.3478072776
 20
9.3587578688
 10
14.2899853587
 20
9.3216819551
 10
14.239192833
 20
9.281319671
 10
14.1959861939
 20
9.2381132341
 10
14.1608388224
 20
9.1925360233
 10
14.1341358005
 20
9.145087392
 10
14.1161696921
 20
9.0962871972
 10
14.1071373376
 20
9.0466701042
 10
14.1071376974
 20
8.9967797283
 10
14.1161707675
 20
8.9471626787
 10
14.1341375797
 20
8.8983625703
 10
14.160841286
 20
8.8509140674
 10
14.1959893148
 20
8.8053370255
 10
14.239196577
 20
8.7621307964
 10
14.2899896849
 20
8.7217687565
 10
14.3478121385
 20
8.6846931207
  0
LINE
  5
5F0
100
AcDbEntity
  8
AXIS
100
AcDbLine
 62
7
  6
CONTINUOUS
 10
15.5153383598
 20
9.3587606752
 11
15.5731608134
 21
9.3216850395
  0
LWPOLYLINE
  5
5F1
100
AcDbEntity
  8
AXIS
100
AcDbPolyline
 62
7
  6
CONTINUOUS
 90
30
 70
0
 10
15.5731608134
 20
9.3216850395
 10
15.6239539212
 20
9.2813229995
 10
15.6671611835
 20
9.2381167704
 10
15.7023092123
 20
9.1925397285
 10
15.7290129185
 20
9.1450912256
 10
15.7469797308
 20
9.0962911172
 10
15.7560128009
 20
9.0466740676
 10
15.7560131607
 20
8.9967836917
 10
15.7469808062
 20
8.9471665987
 10
15.7290146977
 20
8.898366404
 10
15.7023116758
 20
8.8509177726
 10
15.6671643044
 20
8.8053405618
 10
15.6239576653
 20
8.7621341249
 10
15.5731651395
 20
8.7217718408
 10
15.5153432207
 20
8.6846959271
 10
15.4511254178
 20
8.6513125952
 10
15.3812153145
 20
8.6219875999
 10
15.3063788606
 20
8.5970422321
 10
15.2274359799
 20
8.5767497983
 10
15.1452515871
 20
8.5613326267
 10
15.0607261116
 20
8.5509596311
 10
14.9747856323
 20
8.5457444602
 10
14.8883717309
 20
8.5457442525
 10
14.8024311764
 20
8.5509590102
 10
14.7179055513
 20
8.5613315995
 10
14.6357209361
 20
8.576748376
 10
14.5567777628
 20
8.5970404303
 10
14.4819409491
 20
8.6219854384
 10
14.4120304229
 20
8.6513100975
 10
14.3478121385
 20
8.6846931207
  0
LWPOLYLINE
  5
5F2
100
AcDbEntity
  8
0
100
AcDbPolyline
 62
7
  6
CONTINUOUS
 90
7
 70
0
 10
15.9151168525
 20
8.9774330665
 10
15.9060854956
 20
9.0548244956
 10
15.8804136977
 20
9.131551652
 10
15.8377866613
 20
9.2064017896
 10
15.7784617356
 20
9.2776177109
 10
15.7035650963
 20
9.3433421372
 10
15.6148250795
 20
9.4020765387
  0
LWPOLYLINE
  5
5F3
100
AcDbEntity
  8
0
100
AcDbPolyline
 62
7
  6
CONTINUOUS
 90
18
 70
0
 10
15.6148250795
 20
9.4020765387
 10
15.5106254569
 20
9.4543252211
 10
15.3957782917
 20
9.4972282259
 10
15.2724988786
 20
9.5301679237
 10
15.1431288945
 20
9.5526789142
 10
15.0101165663
 20
9.5644596784
 10
14.8757337048
 20
9.5653805605
 10
14.7424092374
 20
9.555440157
 10
14.6124817073
 20
9.5347818394
 10
14.4882425152
 20
9.5036792004
 10
14.3720759494
 20
9.4625933559
 10
14.2660550845
 20
9.4120587086
 10
14.1723909025
 20
9.3528689838
 10
14.093289481
 20
9.2862265496
 10
14.0304710838
 20
9.2136000783
 10
13.9851798606
 20
9.1368974265
 10
13.9576899164
 20
9.0575686913
 10
13.9480336458
 20
8.9774330665
  0
LWPOLYLINE
  5
5F4
100
AcDbEntity
  8
0
100
AcDbPolyline
 62
7
  6
CONTINUOUS
 90
24
 70
0
 10
15.5852980215
 20
9.3991516636
 10
15.4902897885
 20
9.4469862676
 10
15.3847824364
 20
9.4869504011
 10
15.2708251671
 20
9.5182489315
 10
15.1505485396
 20
9.5402959787
 10
15.0261923188
 20
9.5526812186
 10
14.9000731502
 20
9.5551739437
 10
14.7745409068
 20
9.5477276983
 10
14.6519344387
 20
9.5304812128
 10
14.5345381117
 20
9.5037558128
 10
14.4245392219
 20
9.4680494357
 10
14.3239872334
 20
9.4240273511
 10
14.2347555888
 20
9.3725097603
 10
14.1585068196
 20
9.3144565208
 10
14.0966615629
 20
9.2509492592
 10
14.050372091
 20
9.183171214
 10
14.0205008543
 20
9.1123852041
 10
14.0076044009
 20
9.0399101005
 10
14.0119230027
 20
8.9670962199
 10
14.0333761767
 20
8.8953002414
 10
14.0715642997
 20
8.8258596645
 10
14.1257766448
 20
8.7600675904
 10
14.1949985153
 20
8.6991539951
 10
14.2778524768
 20
8.6443021323
  0
CIRCLE
  5
5F5
100
AcDbEntity
  8
0
100
AcDbCircle
 62
7
  6
CONTINUOUS
 10
10.5342808475
 20
1.243294839
 40
0.252091
  0
CIRCLE
  5
5F6
100
AcDbEntity
  8
0
100
AcDbCircle
 62
7
  6
CONTINUOUS
 10
10.5342808475
 20
1.243294839
 40
0.182698
  0
CIRCLE
  5
5F7
100
AcDbEntity
  8
0
100
AcDbCircle
 62
7
  6
CONTINUOUS
 10
10.1225539079
 20
1.9935547577
 40
0.0638444824
  0
CIRCLE
  5
5F8
100
AcDbEntity
  8
02___PRT_ALL_AXES
100
AcDbCircle
 62
7
  6
CONTINUOUS
 10
3.0281321609
 20
5.7127635826
 40
0.9842519685
  0
CIRCLE
  5
5F9
100
AcDbEntity
  8
AXIS
100
AcDbCircle
 62
7
  6
CONTINUOUS
 10
3.0281321609
 20
5.7127635826
 40
0.9842519685
  0
CIRCLE
  5
5FA
100
AcDbEntity
  8
0
100
AcDbCircle
 62
7
  6
CONTINUOUS
 10
3.0281321609
 20
5.7127635826
 40
0.9835603293
  0
CIRCLE
  5
5FB
100
AcDbEntity
  8
0
100
AcDbCircle
 62
7
  6
CONTINUOUS
 10
3.0281321609
 20
5.7127635826
 40
0.9245074598
  0
CIRCLE
  5
5FC
100
AcDbEntity
  8
AXIS
100
AcDbCircle
 62
7
  6
CONTINUOUS
 10
3.0281321609
 20
5.7127635826
 40
0.8255691455
  0
ARC
  5
5FD
100
AcDbEntity
  8
0
100
AcDbCircle
 62
7
  6
CONTINUOUS
 10
7.6803939887
 20
5.3503816928
 40
0.1181102362
100
AcDbArc
 50
90.0
 51
97.3852386189
  0
ARC
  5
5FE
100
AcDbEntity
  8
0
100
AcDbCircle
 62
7
  6
CONTINUOUS
 10
6.2872621892
 20
4.7882561228
 40
0.0590551181
100
AcDbArc
 50
180.0
 51
269.5
  0
ARC
  5
5FF
100
AcDbEntity
  8
0
100
AcDbCircle
 62
7
  6
CONTINUOUS
 10
6.91718195
 20
5.1320549211
 40
0.0393700787
100
AcDbArc
 50
90.0
 51
180.0
  0
ARC
  5
600
100
AcDbEntity
  8
0
100
AcDbCircle
 62
7
  6
CONTINUOUS
 10
7.6258433673
 20
5.2107950786
 40
0.0393700787
100
AcDbArc
 50
270.0
 51
360.0
  0
ARC
  5
601
100
AcDbEntity
  8
0
100
AcDbCircle
 62
7
  6
CONTINUOUS
 10
6.8384417925
 20
4.7678816928
 40
0.0393700787
100
AcDbArc
 50
270.0
 51
360.0
  0
ARC
  5
602
100
AcDbEntity
  8
0
100
AcDbCircle
 62
7
  6
CONTINUOUS
 10
6.91718195
 20
6.293472244
 40
0.0393700787
100
AcDbArc
 50
180.0
 51
270.0
  0
ARC
  5
603
100
AcDbEntity
  8
0
100
AcDbCircle
 62
7
  6
CONTINUOUS
 10
6.2872621892
 20
6.6372710424
 40
0.0590551181
100
AcDbArc
 50
90.5
 51
180.0
  0
ARC
  5
604
100
AcDbEntity
  8
0
100
AcDbCircle
 62
7
  6
CONTINUOUS
 10
6.8384417925
 20
6.6576454723
 40
0.0393700787
100
AcDbArc
 50
0.0
 51
90.0
  0
ARC
  5
605
100
AcDbEntity
  8
0
100
AcDbCircle
 62
7
  6
CONTINUOUS
 10
7.6803939887
 20
6.0751454723
 40
0.1181102362
100
AcDbArc
 50
262.6147613811
 51
270.0
  0
ARC
  5
606
100
AcDbEntity
  8
0
100
AcDbCircle
 62
7
  6
CONTINUOUS
 10
7.6258433673
 20
6.2147320865
 40
0.0393700787
100
AcDbArc
 50
0.0
 51
90.0
  0
ARC
  5
607
100
AcDbEntity
  8
AXIS
100
AcDbCircle
 62
7
  6
CONTINUOUS
 10
21.9565088292
 20
5.6752425373
 40
15.7480314961
100
AcDbArc
 50
180.0
 51
182.8683391727
  0
ARC
  5
608
100
AcDbEntity
  8
AXIS
100
AcDbCircle
 62
7
  6
CONTINUOUS
 10
21.9565088292
 20
5.7502846278
 40
15.7480314961
100
AcDbArc
 50
177.1316608273
 51
180.0
  0
ARC
  5
609
100
AcDbEntity
  8
0
100
AcDbCircle
 62
7
  6
CONTINUOUS
 10
10.98808851
 20
5.6537084644
 40
0.0354330709
100
AcDbArc
 50
190.1642486217
 51
10.1642486217
  0
ARC
  5
60A
100
AcDbEntity
  8
0
100
AcDbCircle
 62
7
  6
CONTINUOUS
 10
10.98808851
 20
5.7718187007
 40
0.0354330709
100
AcDbArc
 50
349.8357513783
 51
169.8357513783
  0
ARC
  5
60B
100
AcDbEntity
  8
0
100
AcDbCircle
 62
7
  6
CONTINUOUS
 10
11.6468759325
 20
5.6537084644
 40
0.0354330709
100
AcDbArc
 50
169.8357513783
 51
349.8357513783
  0
ARC
  5
60C
100
AcDbEntity
  8
AXIS
100
AcDbCircle
 62
7
  6
CONTINUOUS
 10
11.3174822212
 20
5.7127635826
 40
0.9842519685
100
AcDbArc
 50
95.6369305145
 51
264.3652698301
  0
CIRCLE
  5
60D
100
AcDbEntity
  8
0
100
AcDbCircle
 62
7
  6
CONTINUOUS
 10
11.3174822212
 20
5.7127635826
 40
0.9842519685
  0
CIRCLE
  5
60E
100
AcDbEntity
  8
0
100
AcDbCircle
 62
7
  6
CONTINUOUS
 10
11.3174822212
 20
5.7127635826
 40
0.9448818805
  0
ARC
  5
60F
100
AcDbEntity
  8
0
100
AcDbCircle
 62
7
  6
CONTINUOUS
 10
11.3174822212
 20
5.7127635826
 40
0.5905511811
100
AcDbArc
 50
280.4753138432
 51
79.5246861568
  0
ARC
  5
610
100
AcDbEntity
  8
0
100
AcDbCircle
 62
7
  6
CONTINUOUS
 10
11.3174822212
 20
5.7127635826
 40
0.5905511811
100
AcDbArc
 50
100.4753138432
 51
259.5246861568
  0
ARC
  5
611
100
AcDbEntity
  8
0
100
AcDbCircle
 62
7
  6
CONTINUOUS
 10
11.3174822212
 20
5.7127635826
 40
0.5511811024
100
AcDbArc
 50
100.8440625637
 51
259.1559374363
  0
ARC
  5
612
100
AcDbEntity
  8
0
100
AcDbCircle
 62
7
  6
CONTINUOUS
 10
11.3174822212
 20
5.7127635826
 40
0.5511811024
100
AcDbArc
 50
280.8440625637
 51
79.1559374363
  0
ARC
  5
613
100
AcDbEntity
  8
0
100
AcDbCircle
 62
7
  6
CONTINUOUS
 10
11.3174822212
 20
5.7127635826
 40
0.5118110236
100
AcDbArc
 50
281.2547126182
 51
78.7452873818
  0
ARC
  5
614
100
AcDbEntity
  8
0
100
AcDbCircle
 62
7
  6
CONTINUOUS
 10
11.3174822212
 20
5.7127635826
 40
0.5118110236
100
AcDbArc
 50
101.2547126182
 51
258.7452873818
  0
CIRCLE
  5
615
100
AcDbEntity
  8
0
100
AcDbCircle
 62
7
  6
CONTINUOUS
 10
11.3174822212
 20
5.7127635826
 40
0.374015748
  0
ARC
  5
616
100
AcDbEntity
  8
02___PRT_ALL_AXES
100
AcDbCircle
 62
7
  6
CONTINUOUS
 10
11.3174822212
 20
5.7127635826
 40
0.3700787402
100
AcDbArc
 50
349.8357513783
 51
10.1642486217
  0
ARC
  5
617
100
AcDbEntity
  8
02___PRT_ALL_AXES
100
AcDbCircle
 62
7
  6
CONTINUOUS
 10
11.3174822212
 20
5.7127635826
 40
0.3700787402
100
AcDbArc
 50
169.8357513783
 51
190.1642486217
  0
ARC
  5
618
100
AcDbEntity
  8
0
100
AcDbCircle
 62
7
  6
CONTINUOUS
 10
11.3174822212
 20
5.7127635826
 40
0.3051181102
100
AcDbArc
 50
193.6751727363
 51
346.3247435443
  0
ARC
  5
619
100
AcDbEntity
  8
0
100
AcDbCircle
 62
7
  6
CONTINUOUS
 10
11.3174822212
 20
5.7127635826
 40
0.3051181102
100
AcDbArc
 50
13.675172742
 51
166.3247435506
  0
ARC
  5
61A
100
AcDbEntity
  8
0
100
AcDbCircle
 62
7
  6
CONTINUOUS
 10
11.3174822212
 20
5.7127635826
 40
0.2992125984
100
AcDbArc
 50
349.8357513783
 51
10.1642486217
  0
ARC
  5
61B
100
AcDbEntity
  8
0
100
AcDbCircle
 62
7
  6
CONTINUOUS
 10
11.3174822212
 20
5.7127635826
 40
0.2992125984
100
AcDbArc
 50
169.8357513783
 51
190.1642486217
  0
CIRCLE
  5
61C
100
AcDbEntity
  8
0
100
AcDbCircle
 62
7
  6
CONTINUOUS
 10
11.3174822212
 20
5.7127635826
 40
0.2854330709
  0
ARC
  5
61D
100
AcDbEntity
  8
02___PRT_ALL_AXES
100
AcDbCircle
 62
7
  6
CONTINUOUS
 10
11.3174822212
 20
5.7127635826
 40
0.2854330709
100
AcDbArc
 50
280.1560818979
 51
358.3494205318
  0
ARC
  5
61E
100
AcDbEntity
  8
02___PRT_ALL_AXES
100
AcDbCircle
 62
7
  6
CONTINUOUS
 10
11.3174822212
 20
5.7127635826
 40
0.2854330709
100
AcDbArc
 50
181.67351085
 51
259.8683374486
  0
ARC
  5
61F
100
AcDbEntity
  8
02___PRT_ALL_AXES
100
AcDbCircle
 62
7
  6
CONTINUOUS
 10
11.3174822212
 20
5.7127635826
 40
0.2854330709
100
AcDbArc
 50
1.6735108502
 51
79.8683374487
  0
ARC
  5
620
100
AcDbEntity
  8
02___PRT_ALL_AXES
100
AcDbCircle
 62
7
  6
CONTINUOUS
 10
11.3174822212
 20
5.7127635826
 40
0.2854330709
100
AcDbArc
 50
100.1560818979
 51
178.3494205317
  0
CIRCLE
  5
621
100
AcDbEntity
  8
0
100
AcDbCircle
 62
7
  6
CONTINUOUS
 10
11.3174822212
 20
5.7127635826
 40
0.2815942195
  0
CIRCLE
  5
622
100
AcDbEntity
  8
0
100
AcDbCircle
 62
7
  6
CONTINUOUS
 10
11.3174822212
 20
5.7127635826
 40
0.2481105049
  0
ARC
  5
623
100
AcDbEntity
  8
0
100
AcDbCircle
 62
7
  6
CONTINUOUS
 10
11.3174822212
 20
5.7127635826
 40
0.2442716535
100
AcDbArc
 50
342.3463568424
 51
342.0005095346
  0
CIRCLE
  5
624
100
AcDbEntity
  8
0
100
AcDbCircle
 62
7
  6
CONTINUOUS
 10
11.3174822212
 20
5.7127635826
 40
0.208838596
  0
CIRCLE
  5
625
100
AcDbEntity
  8
0
100
AcDbCircle
 62
7
  6
CONTINUOUS
 10
11.3174822212
 20
5.7127635826
 40
0.2037401575
  0
CIRCLE
  5
626
100
AcDbEntity
  8
0
100
AcDbCircle
 62
7
  6
CONTINUOUS
 10
11.3174822212
 20
5.7127635826
 40
0.1633858268
  0
ARC
  5
627
100
AcDbEntity
  8
0
100
AcDbCircle
 62
7
  6
CONTINUOUS
 10
11.6468759325
 20
5.7718187007
 40
0.0354330709
100
AcDbArc
 50
10.1642486217
 51
190.1642486217
  0
ENDSEC
  0
SECTION
  2
OBJECTS
  0
DICTIONARY
  5
C
100
AcDbDictionary
280
0
281
1
  3
ACAD_GROUP
350
D
  3
ACAD_MLINESTYLE
350
17
  3
ACAD_LAYOUT
350
1A
  3
ACAD_PLOTSETTINGS
350
19
  3
ACAD_PLOTSTYLENAME
350
E
  3
ACAD_TABLESTYLE
350
       628
  0
DICTIONARY
  5
D
102
{ACAD_REACTORS
330
C
102
}
100
AcDbDictionary
280
0
281
1
  0
ACDBDICTIONARYWDFLT
  5
E
102
{ACAD_REACTORS
330
C
102
}
100
AcDbDictionary
281
1
  3
Normal
350
F
100
AcDbDictionaryWithDefault
340
F
  0
DICTIONARY
  5
17
102
{ACAD_REACTORS
330
C
102
}
100
AcDbDictionary
280
0
281
1
  3
Standard
350
18
  0
DICTIONARY
  5
628
330
C
100
AcDbDictionary
281
1
  3
Standard
350
       62B
  3
Standard1
350
       62C
  0
DICTIONARY
  5
19
102
{ACAD_REACTORS
330
C
102
}
100
AcDbDictionary
281
1
  0
DICTIONARY
  5
1A
102
{ACAD_REACTORS
330
C
102
}
100
AcDbDictionary
281
1
  3
Model
350
629
  3
Layout1
350
62A
  0
ACDBPLACEHOLDER
  5
F
102
{ACAD_REACTORS
330
E
102
}
  0
MLINESTYLE
  5
18
102
{ACAD_REACTORS
330
17
102
}
100
AcDbMlineStyle
  2
STANDARD
 70
0
  3

 62
256
 51
90.0
 52
90.0
 71
2
 49
0.5
 62
256
  6
BYLAYER
 49
-0.5
 62
256
  6
BYLAYER
  0
LAYOUT
  5
629
102
{ACAD_REACTORS
330
1A
102
}
100
AcDbPlotSettings
  1

  2
none_device
  4
ANSI_B_(17.00_x_11.00_Inches)
  6

 40
0.0
 41
0.0
 42
0.0
 43
0.0
 44
431.8
 45
279.4
 46
0.0
 47
0.0
 48
0.0
 49
0.0
140
0.0
141
0.0
142
1.0
143
1.0
 70
1024
 72
0
 73
0
 74
0
  7

 75
0
147
1.0
148
0.0
149
0.0
100
AcDbLayout
  1
Model
 70
0
 71
0
 10
0.0
 20
0.0
 11
17.0
 21
11.0
 12
0.0
 22
0.0
 32
0.0
 14
0.0
 24
0.0
 34
0.0
 15
0.0
 25
0.0
 35
0.0
146
0.0
 13
0.0
 23
0.0
 33
0.0
 16
1.0
 26
0.0
 36
0.0
 17
0.0
 27
1.0
 37
0.0
 76
0
330
213
345
0
346
0
  0
LAYOUT
  5
62A
102
{ACAD_REACTORS
330
1A
102
}
100
AcDbPlotSettings
  1

  2
none_device
  4
ANSI_B_(17.00_x_11.00_Inches)
  6

 40
0.0
 41
0.0
 42
0.0
 43
0.0
 44
431.8
 45
279.4
 46
0.0
 47
0.0
 48
0.0
 49
0.0
140
0.0
141
0.0
142
1.0
143
1.0
 70
0
 72
0
 73
0
 74
0
  7

 75
0
147
1.0
148
0.0
149
0.0
100
AcDbLayout
  1
Layout1
 70
0
 71
1
 10
0.0
 20
0.0
 11
17.0
 21
11.0
 12
0.0
 22
0.0
 32
0.0
 14
0.0
 24
0.0
 34
0.0
 15
0.0
 25
0.0
 35
0.0
146
0.0
 13
0.0
 23
0.0
 33
0.0
 16
1.0
 26
0.0
 36
0.0
 17
0.0
 27
1.0
 37
0.0
 76
0
330
214
345
0
346
0
  0
TABLESTYLE
  5
62B
102
{ACAD_REACTORS
330
628
102
}
330
628
100
AcDbTableStyle
  3
Standard
 70
0
 71
0
 40
0.06
 41
0.06
280
1
281
1
  7
Standard
140
0.18
170
1
 62
0
 63
7
283
0
  7
Standard
140
0.18
170
1
 62
0
 63
7
283
0
  7
Standard
140
0.18
170
1
 62
0
 63
7
283
0
  0
TABLESTYLE
  5
62C
102
{ACAD_REACTORS
330
628
330
277
102
}
330
628
100
AcDbTableStyle
  3
Standard1
 70
1
 71
0
 40
0.06
 41
0.06
280
1
281
1
  7
Standard
140
0.18
170
1
 62
0
 63
7
283
0
  7
Standard
140
0.18
170
1
 62
0
 63
7
283
0
  7
Standard
140
0.18
170
1
 62
0
 63
7
283
0
  0
ENDSEC
  0
EOF
