999
DXF file: 195845_1.dxf
999
Pro/ENGINEER 2016010 by Parametric Technology Corporation
  0
SECTION
  2
HEADER
  9
$ACADVER
  1
AC1018
  9
$DWGCODEPAGE
  3
ANSI_1252
  9
$EXTMAX
 10
17.0
 20
11.0
 30
0.0
  9
$EXTMIN
 10
0.0
 20
0.0
 30
0.0
  9
$LIMMIN
 10
0.0
 20
0.0
  9
$LIMMAX
 10
17.0
 20
11.0
  9
$VIEWCTR
 10
8.5
 20
5.5
  9
$VIEWSIZE
 40
11.0
  9
$CLAYER
  8
0
  9
$LTSCALE
 40
0.935
  9
$CELTYPE
  6
BYLAYER
  9
$DIMSCALE
 40
1.0
  9
$DIMASZ
 40
0.1875
  9
$DIMEXO
 40
0.0625
  9
$DIMDLI
 40
0.646
  9
$DIMEXE
 40
0.125
  9
$DIMCEN
 40
0.153
  9
$DIMLFAC
 40
1.0
  9
$DIMBLK
  1
_FILLED
  9
$DIMALT
 70
0
  9
$DIMALTF
 40
25.4
  9
$DIMTXT
 40
0.1
  9
$DIMTOL
 70
1
  9
$DIMLIM
 70
0
  9
$DIMTFAC
 40
1.0
  9
$DIMTP
 40
0.01
  9
$DIMTM
 40
0.01
  9
$DIMGAP
 40
0.09
  9
$DIMDSEP
 70
46
  9
$AUNITS
 70
0
  9
$PDMODE
 70
3
  9
$PDSIZE
 40
0.3125
  9
$HANDSEED
  5
658
  9
$TILEMODE
 70
1
  9
$MEASUREMENT
 70
0
  9
$INSUNITS
 70
1
  0
ENDSEC
  0
SECTION
  2
CLASSES
  0
CLASS
  1
ACDBDICTIONARYWDFLT
  2
AcDbDictionaryWithDefault
  3
AutoCAD 2000
 90
0
 91
1
280
0
281
0
  0
CLASS
  1
ACDBPLACEHOLDER
  2
AcDbPlaceHolder
  3
AutoCAD 2000
 90
0
 91
1
280
0
281
0
  0
CLASS
  1
LAYOUT
  2
AcDbLayout
  3
AutoCAD 2000
 90
0
 91
0
280
0
281
0
  0
CLASS
  1
TABLESTYLE
  2
AcDbTableStyle
  3
ObjectDBX Classes
 90
2047
 91
1
280
0
281
0
  0
CLASS
  1
ACAD_TABLE
  2
AcDbTable
  3
ObjectDBX Classes
 90
1025
 91
1
280
0
281
1
  0
ENDSEC
  0
SECTION
  2
TABLES
  0
TABLE
  2
VPORT
  5
8
100
AcDbSymbolTable
 70
2
  0
VPORT
  5
1F4
100
AcDbSymbolTableRecord
100
AcDbViewportTableRecord
  2
*ACTIVE
 70
0
 10
0.0
 20
0.0
 11
1.0
 21
1.0
 12
8.5
 22
5.5
 13
0.0
 23
0.0
 14
1.0
 24
1.0
 15
0.0
 25
0.0
 16
0.0
 26
0.0
 36
1.0
 17
0.0
 27
0.0
 37
0.0
 40
11.0
 41
1.5454545455
 42
50.0
 43
0.0
 44
0.0
 50
0.0
 51
0.0
 71
0
 72
100
 73
1
 74
1
 75
0
 76
0
 77
0
 78
0
  0
ENDTAB
  0
TABLE
  2
LTYPE
  5
5
100
AcDbSymbolTable
 70
6
  0
LTYPE
  5
14
100
AcDbSymbolTableRecord
100
AcDbLinetypeTableRecord
  2
BYBLOCK
 70
0
  3

 72
65
 73
0
 40
0.0
  0
LTYPE
  5
15
100
AcDbSymbolTableRecord
100
AcDbLinetypeTableRecord
  2
BYLAYER
 70
0
  3

 72
65
 73
0
 40
0.0
  0
LTYPE
  5
16
100
AcDbSymbolTableRecord
100
AcDbLinetypeTableRecord
  2
CONTINUOUS
 70
64
  3
Solid line
 72
65
 73
0
 40
0.0
  0
LTYPE
  5
1F5
100
AcDbSymbolTableRecord
100
AcDbLinetypeTableRecord
  2
CENTER
 70
64
  3
____ _ ____ _ ____ _ ____ _ ____ _ ____ _ ____
 72
65
 73
4
 40
0.6
 49
0.375
 74
0
 49
-0.075
 74
0
 49
0.075
 74
0
 49
-0.075
 74
0
  0
LTYPE
  5
1F6
100
AcDbSymbolTableRecord
100
AcDbLinetypeTableRecord
  2
HIDDEN
 70
64
  3
- - - - - - - - - - - - - - - - - - - -
 72
65
 73
2
 40
0.2
 49
0.1
 74
0
 49
-0.1
 74
0
  0
LTYPE
  5
1F7
100
AcDbSymbolTableRecord
100
AcDbLinetypeTableRecord
  2
PHANTOM
 70
64
  3
_____ _ _ _____ _ _ _____ _ _ _____
 72
65
 73
6
 40
0.8
 49
0.45
 74
0
 49
-0.05
 74
0
 49
0.1
 74
0
 49
-0.05
 74
0
 49
0.1
 74
0
 49
-0.05
 74
0
  0
LTYPE
  5
1F8
100
AcDbSymbolTableRecord
100
AcDbLinetypeTableRecord
  2
DOT
 70
64
  3
. . . . . . . . . . . . . . . . . . . .
 72
65
 73
2
 40
0.2
 49
0.1
 74
0
 49
-0.1
 74
0
  0
LTYPE
  5
1F9
100
AcDbSymbolTableRecord
100
AcDbLinetypeTableRecord
  2
DASHED
 70
64
  3
- - - - - - - - - - - - - - - - - - - -
 72
65
 73
2
 40
0.2
 49
0.1
 74
0
 49
-0.1
 74
0
  0
ENDTAB
  0
TABLE
  2
LAYER
  5
2
100
AcDbSymbolTable
 70
36
  0
LAYER
  5
10
100
AcDbSymbolTableRecord
100
AcDbLayerTableRecord
  2
0
 70
0
 62
7
  6
CONTINUOUS
370
-3
390
F
  0
LAYER
  5
1FA
100
AcDbSymbolTableRecord
100
AcDbLayerTableRecord
  2
DEFAULT_1
 70
0
 62
7
  6
CENTER
370
-3
390
F
  0
LAYER
  5
1FB
100
AcDbSymbolTableRecord
100
AcDbLayerTableRecord
  2
DEFAULT_2
 70
0
 62
7
  6
HIDDEN
370
-3
390
F
  0
LAYER
  5
1FC
100
AcDbSymbolTableRecord
100
AcDbLayerTableRecord
  2
DEFAULT_3
 70
0
 62
7
  6
PHANTOM
370
-3
390
F
  0
LAYER
  5
1FD
100
AcDbSymbolTableRecord
100
AcDbLayerTableRecord
  2
AXIS
 70
0
 62
7
  6
CONTINUOUS
370
-3
390
F
  0
LAYER
  5
1FE
100
AcDbSymbolTableRecord
100
AcDbLayerTableRecord
  2
DATUM_CURVES
 70
0
 62
7
  6
CONTINUOUS
370
-3
390
F
  0
LAYER
  5
1FF
100
AcDbSymbolTableRecord
100
AcDbLayerTableRecord
  2
DATUM_PLANES
 70
0
 62
7
  6
CONTINUOUS
370
-3
390
F
  0
LAYER
  5
200
100
AcDbSymbolTableRecord
100
AcDbLayerTableRecord
  2
DRIVEN_DIMS
 70
0
 62
7
  6
CONTINUOUS
370
-3
390
F
  0
LAYER
  5
201
100
AcDbSymbolTableRecord
100
AcDbLayerTableRecord
  2
INTF_1
 70
0
 62
7
  6
CONTINUOUS
370
-3
390
F
  0
LAYER
  5
202
100
AcDbSymbolTableRecord
100
AcDbLayerTableRecord
  2
INTF_YELLOW
 70
0
 62
7
  6
CONTINUOUS
370
-3
390
F
  0
LAYER
  5
203
100
AcDbSymbolTableRecord
100
AcDbLayerTableRecord
  2
NOTES
 70
0
 62
7
  6
CONTINUOUS
370
-3
390
F
  0
LAYER
  5
204
100
AcDbSymbolTableRecord
100
AcDbLayerTableRecord
  2
QUILTS
 70
0
 62
7
  6
CONTINUOUS
370
-3
390
F
  0
LAYER
  5
205
100
AcDbSymbolTableRecord
100
AcDbLayerTableRecord
  2
SCHEME_DIMS
 70
0
 62
7
  6
CONTINUOUS
370
-3
390
F
  0
LAYER
  5
206
100
AcDbSymbolTableRecord
100
AcDbLayerTableRecord
  2
SYMBOLS
 70
0
 62
7
  6
CONTINUOUS
370
-3
390
F
  0
LAYER
  5
207
100
AcDbSymbolTableRecord
100
AcDbLayerTableRecord
  2
XSEC_DATUMS
 70
0
 62
7
  6
CONTINUOUS
370
-3
390
F
  0
ENDTAB
  0
TABLE
  2
STYLE
  5
3
100
AcDbSymbolTable
 70
1
  0
STYLE
  5
11
100
AcDbSymbolTableRecord
100
AcDbTextStyleTableRecord
  2
STANDARD
 70
0
 40
0.0
 41
1.0
 50
0.0
 71
0
 42
0.2
  3
txt
  4

  0
STYLE
  5
208
100
AcDbSymbolTableRecord
100
AcDbTextStyleTableRecord
  2
TEXTSTYLE_1
 70
0
 40
0.0
 41
0.8
 50
0.0
 71
0
 42
0.2
  3
gdt
  4

  0
STYLE
  5
209
100
AcDbSymbolTableRecord
100
AcDbTextStyleTableRecord
  2
TEXTSTYLE_2
 70
0
 40
0.0
 41
0.8
 50
0.0
 71
0
 42
0.2
  3
txt
  4

  0
STYLE
  5
20A
100
AcDbSymbolTableRecord
100
AcDbTextStyleTableRecord
  2
TEXTSTYLE_3
 70
0
 40
0.0
 41
0.85
 50
0.0
 71
0
 42
0.2
  3
txt
  4

  0
STYLE
  5
20B
100
AcDbSymbolTableRecord
100
AcDbTextStyleTableRecord
  2
TEXTSTYLE_4
 70
0
 40
0.0
 41
0.9
 50
0.0
 71
0
 42
0.2
  3
txt
  4

  0
STYLE
  5
20C
100
AcDbSymbolTableRecord
100
AcDbTextStyleTableRecord
  2
TEXTSTYLE_5
 70
0
 40
0.0
 41
0.75
 50
0.0
 71
0
 42
0.2
  3
txt
  4

  0
STYLE
  5
20D
100
AcDbSymbolTableRecord
100
AcDbTextStyleTableRecord
  2
TEXTSTYLE_6
 70
0
 40
0.0
 41
1.0
 50
0.0
 71
0
 42
0.2
  3
gdt
  4

  0
ENDTAB
  0
TABLE
  2
VIEW
  5
6
100
AcDbSymbolTable
 70
0
  0
ENDTAB
  0
TABLE
  2
UCS
  5
7
100
AcDbSymbolTable
 70
0
  0
ENDTAB
  0
TABLE
  2
APPID
  5
9
100
AcDbSymbolTable
 70
1
  0
APPID
  5
20E
100
AcDbSymbolTableRecord
100
AcDbRegAppTableRecord
  2
ACAD
 70
0
  0
ENDTAB
  0
TABLE
  2
BLOCK_RECORD
  5
1
100
AcDbSymbolTable
 70
0
  0
BLOCK_RECORD
  5
20F
100
AcDbSymbolTableRecord
100
AcDbBlockTableRecord
  2
*Model_Space
  0
BLOCK_RECORD
  5
210
100
AcDbSymbolTableRecord
100
AcDbBlockTableRecord
  2
*Paper_Space
  0
BLOCK_RECORD
  5
211
100
AcDbSymbolTableRecord
100
AcDbBlockTableRecord
  2
_FILLED
  0
BLOCK_RECORD
  5
212
100
AcDbSymbolTableRecord
100
AcDbBlockTableRecord
  2
*D0
  0
BLOCK_RECORD
  5
213
100
AcDbSymbolTableRecord
100
AcDbBlockTableRecord
  2
*D1
  0
BLOCK_RECORD
  5
214
100
AcDbSymbolTableRecord
100
AcDbBlockTableRecord
  2
*T1
  0
ENDTAB
  0
TABLE
  2
DIMSTYLE
  5
A
100
AcDbSymbolTable
 70
1
100
AcDbDimStyleTable
 71
0
  0
DIMSTYLE
105
215
100
AcDbSymbolTableRecord
100
AcDbDimStyleTableRecord
  2
STANDARD
 70
0
  3

  4

 40
1.0
 41
0.1875
 42
0.0625
 43
0.38
 44
0.125
 45
0.0
 46
0.0
 47
0.01
 48
0.01
140
0.1
141
0.09
142
0.0
143
25.4
144
1.0
145
0.0
146
1.0
147
0.09
 71
1.0
 72
0.0
 73
1
 74
1
 75
0
 76
0
 77
0
 78
4
170
0
171
2
172
0
173
0
174
0
175
0
176
0
177
0
178
0
270
2
271
2
272
2
273
2
274
2
275
0
280
0
281
0
282
0
283
1
284
4
285
0
286
0
287
3
288
0
340
11
278
46
341
211
342
211
343
211
344
211
  0
DIMSTYLE
105
216
100
AcDbSymbolTableRecord
100
AcDbDimStyleTableRecord
  2
DIMSTYLE_1
 70
0
  3
<>
  4

 40
1.0
 41
0.1875
 42
0.0625
 43
0.38
 44
0.125
 45
0.0
 46
0.0
 47
0.005
 48
0.005
140
0.1
141
0.09
142
0.0
143
25.4
144
1.0
145
0.0
146
1.0
147
0.09
 71
0.0
 72
0.0
 73
1
 74
1
 75
0
 76
0
 77
0
 78
4
170
0
171
2
172
1
173
0
174
0
175
0
176
0
177
0
178
0
270
2
271
1
272
1
273
2
274
2
275
0
280
0
281
0
282
0
283
1
284
4
285
0
286
0
287
3
288
1
340
11
278
46
289
2
341
211
342
211
343
211
344
211
  0
DIMSTYLE
105
217
100
AcDbSymbolTableRecord
100
AcDbDimStyleTableRecord
  2
DIMSTYLE_2
 70
0
  3

  4

 40
1.0
 41
0.1875
 42
0.0625
 43
0.38
 44
0.125
 45
0.0
 46
0.0
 47
0.005
 48
0.005
140
0.1
141
0.09
142
0.0
143
25.4
144
1.0
145
0.0
146
1.0
147
0.1
 71
0.0
 72
0.0
 73
1
 74
1
 75
0
 76
0
 77
0
 78
4
170
0
171
2
172
0
173
0
174
0
175
0
176
0
177
0
178
0
270
2
271
1
272
1
273
2
274
2
275
0
280
0
281
0
282
0
283
1
284
4
285
0
286
0
287
3
288
0
340
11
278
46
341
211
342
211
343
211
344
211
  0
ENDTAB
  0
ENDSEC
  0
SECTION
  2
BLOCKS
  0
BLOCK
  5
20
100
AcDbEntity
  8
0
100
AcDbBlockBegin
  2
*Model_Space
 70
0
 10
0.0
 20
0.0
 30
0.0
  3
*Model_Space
  1

  0
ENDBLK
  5
21
100
AcDbEntity
  8
0
100
AcDbBlockEnd
  0
BLOCK
  5
1C
100
AcDbEntity
  8
0
100
AcDbBlockBegin
  2
*Paper_Space
 70
0
 10
0.0
 20
0.0
 30
0.0
  3
*Paper_Space
  1

  0
ENDBLK
  5
1D
100
AcDbEntity
  8
0
100
AcDbBlockEnd
  0
BLOCK
  5
218
100
AcDbEntity
  8
0
100
AcDbBlockBegin
  2
_FILLED
 70
64
 10
0.0
 20
0.0
  3
_FILLED
  1

  0
SOLID
  5
219
100
AcDbEntity
  8
0
  6
BYBLOCK
 62
0
100
AcDbTrace
 10
0.0
 20
0.0
 11
-1.0
 21
0.1666666667
 12
-1.0
 22
-0.1666666667
 13
-1.0
 23
-0.1666666667
  0
ENDBLK
  5
21A
100
AcDbEntity
  8
0
  6
BYBLOCK
 62
0
100
AcDbBlockEnd
  0
BLOCK
  5
21B
100
AcDbEntity
  8
DRIVEN_DIMS
100
AcDbBlockBegin
 62
7
  6
CONTINUOUS
  2
*D0
 70
65
 10
0.0
 20
0.0
  3
*D0
  1

  0
MTEXT
  5
21C
100
AcDbEntity
  8
DRIVEN_DIMS
100
AcDbMText
 62
7
  6
CONTINUOUS
  7
TEXTSTYLE_6
 71
1
 72
1
 10
6.4867643834
 20
6.8434811719
 30
0.0
 11
1.0
 21
0.0
 31
0.0
 44
0.9
  1
{\Fgdt;n}\Ftxt;70.0\P[2.76]
 40
0.1
 41
0.6
  0
LINE
  5
21D
100
AcDbEntity
  8
DRIVEN_DIMS
100
AcDbLine
 62
7
  6
CONTINUOUS
 10
5.964860825
 20
6.9927130475
 11
4.8533530881
 21
7.8071480346
  0
LINE
  5
21E
100
AcDbEntity
  8
DRIVEN_DIMS
100
AcDbLine
 62
7
  6
CONTINUOUS
 10
4.8533530881
 20
7.8071480346
 11
6.2367643834
 21
6.7934811719
  0
LINE
  5
21F
100
AcDbEntity
  8
DRIVEN_DIMS
100
AcDbLine
 62
7
  6
CONTINUOUS
 10
6.2367643834
 20
6.7934811719
 11
6.3867643834
 21
6.7934811719
  0
LINE
  5
220
100
AcDbEntity
  8
DRIVEN_DIMS
100
AcDbLine
 62
7
  6
CONTINUOUS
 10
3.7418453512
 20
8.6215830218
 11
4.8533530881
 21
7.8071480346
  0
INSERT
  5
221
100
AcDbEntity
  8
DRIVEN_DIMS
100
AcDbBlockReference
 62
7
  6
CONTINUOUS
  2
_FILLED
 10
5.964860825
 20
6.9927130475
 41
0.1875
 42
0.1875
 43
0.1875
 50
323.7686507958
  0
INSERT
  5
222
100
AcDbEntity
  8
DRIVEN_DIMS
100
AcDbBlockReference
 62
7
  6
CONTINUOUS
  2
_FILLED
 10
3.7418453512
 20
8.6215830218
 41
0.1875
 42
0.1875
 43
0.1875
 50
143.7686507958
  0
ENDBLK
  5
223
100
AcDbEntity
  8
0
  6
BYBLOCK
 62
0
100
AcDbBlockEnd
  0
BLOCK
  5
224
100
AcDbEntity
  8
DRIVEN_DIMS
100
AcDbBlockBegin
 62
7
  6
CONTINUOUS
  2
*D1
 70
65
 10
0.0
 20
0.0
  3
*D1
  1

  0
MTEXT
  5
225
100
AcDbEntity
  8
DRIVEN_DIMS
100
AcDbMText
 62
7
  6
CONTINUOUS
  7
STANDARD
 71
2
 72
1
 10
6.6509908834
 20
3.9831351422
 30
0.0
 11
1.0
 21
0.0
 31
0.0
 44
0.9
  1
72.0\P[2.84]
 40
0.1
 41
0.6
  0
LINE
  5
226
100
AcDbEntity
  8
DRIVEN_DIMS
100
AcDbLine
 62
7
  6
CONTINUOUS
 10
4.9158530881
 20
5.2758341455
 11
6.8759908834
 21
5.2758341455
  0
LINE
  5
227
100
AcDbEntity
  8
DRIVEN_DIMS
100
AcDbLine
 62
7
  6
CONTINUOUS
 10
6.293805844
 20
2.440436139
 11
6.8759908834
 21
2.440436139
  0
LINE
  5
228
100
AcDbEntity
  8
DRIVEN_DIMS
100
AcDbLine
 62
7
  6
CONTINUOUS
 10
6.7509908834
 20
5.2758341455
 11
6.7509908834
 21
4.0831351422
  0
LINE
  5
229
100
AcDbEntity
  8
DRIVEN_DIMS
100
AcDbLine
 62
7
  6
CONTINUOUS
 10
6.7509908834
 20
2.440436139
 11
6.7509908834
 21
3.6331351422
  0
INSERT
  5
22A
100
AcDbEntity
  8
DRIVEN_DIMS
100
AcDbBlockReference
 62
7
  6
CONTINUOUS
  2
_FILLED
 10
6.7509908834
 20
5.2758341455
 41
0.1875
 42
0.1875
 43
0.1875
 50
90.0
  0
INSERT
  5
22B
100
AcDbEntity
  8
DRIVEN_DIMS
100
AcDbBlockReference
 62
7
  6
CONTINUOUS
  2
_FILLED
 10
6.7509908834
 20
2.440436139
 41
0.1875
 42
0.1875
 43
0.1875
 50
270.0
  0
ENDBLK
  5
22C
100
AcDbEntity
  8
0
  6
BYBLOCK
 62
0
100
AcDbBlockEnd
  0
BLOCK
  5
22D
100
AcDbEntity
  8
0
100
AcDbBlockBegin
  2
*T1
 70
1
 10
0.0
 20
0.0
  3
*T1
  1

  0
LINE
  5
22E
100
AcDbEntity
  8
0
100
AcDbLine
 62
7
  6
CONTINUOUS
 10
4.35
 20
0.0
 11
0.0
 21
0.0
  0
LINE
  5
22F
100
AcDbEntity
  8
0
100
AcDbLine
 62
7
  6
CONTINUOUS
 10
4.35
 20
0.0
 11
4.35
 21
1.92
  0
LINE
  5
230
100
AcDbEntity
  8
0
100
AcDbLine
 62
7
  6
CONTINUOUS
 10
4.35
 20
1.92
 11
0.0
 21
1.92
  0
LINE
  5
231
100
AcDbEntity
  8
0
100
AcDbLine
 62
7
  6
CONTINUOUS
 10
0.0
 20
0.0
 11
0.0
 21
1.92
  0
MTEXT
  5
232
100
AcDbEntity
  8
NOTES
100
AcDbMText
 62
7
  6
CONTINUOUS
  7
STANDARD
 71
2
 72
1
 10
4.125
 20
0.48
 30
0.0
 11
1.0
 21
0.0
 31
0.0
 44
0.9
  1
A
 40
0.1
 41
0.2
  0
MTEXT
  5
233
100
AcDbEntity
  8
NOTES
100
AcDbMText
 62
7
  6
CONTINUOUS
  7
STANDARD
 71
2
 72
1
 10
2.175
 20
0.93
 30
0.0
 11
1.0
 21
0.0
 31
0.0
 44
0.9
  1
SG-TL70-AL_
 40
0.1
 41
2.2
  0
ENDBLK
  5
234
100
AcDbEntity
  8
0
  6
BYBLOCK
 62
0
100
AcDbBlockEnd
  0
ENDSEC
  0
SECTION
  2
ENTITIES
  0
MTEXT
  5
235
100
AcDbEntity
  8
0
100
AcDbMText
 62
7
  6
CONTINUOUS
  7
TEXTSTYLE_2
 71
2
 72
1
 10
11.0287658475
 20
1.794867839
 30
0.0
 11
1.0
 21
0.0
 31
0.0
 44
0.9
  1
THIRD ANGLE PROJECTION
 40
0.1
 41
1.76
  0
MTEXT
  5
236
100
AcDbEntity
  8
0
100
AcDbMText
 62
7
  6
CONTINUOUS
  7
STANDARD
 71
1
 72
1
 10
12.88
 20
1.457
 30
0.0
 11
1.0
 21
0.0
 31
0.0
 44
0.9
  1
DRAWING NO.
 40
0.08
 41
0.88
  0
MTEXT
  5
237
100
AcDbEntity
  8
0
100
AcDbMText
 62
7
  6
CONTINUOUS
  7
TEXTSTYLE_2
 71
1
 72
1
 10
12.08
 20
2.217
 30
0.0
 11
1.0
 21
0.0
 31
0.0
 44
0.9
  1
TITLE
 40
0.1
 41
0.4
  0
MTEXT
  5
238
100
AcDbEntity
  8
0
100
AcDbMText
 62
7
  6
CONTINUOUS
  7
STANDARD
 71
1
 72
1
 10
12.08
 20
1.457
 30
0.0
 11
1.0
 21
0.0
 31
0.0
 44
0.9
  1
SIZE
 40
0.08
 41
0.32
  0
MTEXT
  5
239
100
AcDbEntity
  8
0
100
AcDbMText
 62
7
  6
CONTINUOUS
  7
STANDARD
 71
1
 72
1
 10
12.08
 20
1.087
 30
0.0
 11
1.0
 21
0.0
 31
0.0
 44
0.9
  1
SCALE
 40
0.08
 41
0.4
  0
MTEXT
  5
23A
100
AcDbEntity
  8
0
100
AcDbMText
 62
7
  6
CONTINUOUS
  7
TEXTSTYLE_2
 71
2
 72
1
 10
12.5
 20
1.337
 30
0.0
 11
1.0
 21
0.0
 31
0.0
 44
0.9
  1
B
 40
0.1
 41
0.08
  0
MTEXT
  5
23B
100
AcDbEntity
  8
0
100
AcDbMText
 62
7
  6
CONTINUOUS
  7
TEXTSTYLE_3
 71
2
 72
1
 10
11.0340287086
 20
2.7679425959
 30
0.0
 11
1.0
 21
0.0
 31
0.0
 44
0.9
  1
This drawing is the property\Pof BANNER ENGINEERING CORP.\PAny use or reproduction,\Pin any form, without prior\Pwritten permission of\PBanner is prohibited.
 40
0.08
 41
1.904
  0
MTEXT
  5
23C
100
AcDbEntity
  8
0
100
AcDbMText
 62
7
  6
CONTINUOUS
  7
STANDARD
 71
1
 72
1
 10
14.255
 20
1.087
 30
0.0
 11
1.0
 21
0.0
 31
0.0
 44
0.9
  1
SHEET
 40
0.08
 41
0.4
  0
MTEXT
  5
23D
100
AcDbEntity
  8
0
100
AcDbMText
 62
7
  6
CONTINUOUS
  7
STANDARD
 71
1
 72
1
 10
15.63
 20
1.457
 30
0.0
 11
1.0
 21
0.0
 31
0.0
 44
0.9
  1
REV.
 40
0.08
 41
0.32
  0
MTEXT
  5
23E
100
AcDbEntity
  8
0
100
AcDbMText
 62
7
  6
CONTINUOUS
  7
STANDARD
 71
3
 72
1
 10
16.38
 20
0.835443
 30
0.0
 11
1.0
 21
0.0
 31
0.0
 44
0.9
  1
CREO
 40
0.07
 41
0.28
  0
MTEXT
  5
23F
100
AcDbEntity
  8
0
100
AcDbMText
 62
7
  6
CONTINUOUS
  7
TEXTSTYLE_4
 71
2
 72
1
 10
15.1043392653
 20
2.7174764286
 30
0.0
 11
1.0
 21
0.0
 31
0.0
 44
0.9
  1
BANNER ENGINEERING CORP.
 40
0.12
 41
2.592
  0
MTEXT
  5
240
100
AcDbEntity
  8
0
100
AcDbMText
 62
7
  6
CONTINUOUS
  7
TEXTSTYLE_2
 71
2
 72
1
 10
15.0923490612
 20
2.4764783673
 30
0.0
 11
1.0
 21
0.0
 31
0.0
 44
0.9
  1
www.bannerengineering.com
 40
0.1
 41
2.0
  0
MTEXT
  5
241
100
AcDbEntity
  8
0
100
AcDbMText
 62
7
  6
CONTINUOUS
  7
TEXTSTYLE_2
 71
2
 72
1
 10
9.485
 20
10.312
 30
0.0
 11
1.0
 21
0.0
 31
0.0
 44
0.9
  1
4
 40
0.1
 41
0.08
  0
MTEXT
  5
242
100
AcDbEntity
  8
0
100
AcDbMText
 62
7
  6
CONTINUOUS
  7
TEXTSTYLE_2
 71
2
 72
1
 10
11.455
 20
10.312
 30
0.0
 11
1.0
 21
0.0
 31
0.0
 44
0.9
  1
3
 40
0.1
 41
0.08
  0
MTEXT
  5
243
100
AcDbEntity
  8
0
100
AcDbMText
 62
7
  6
CONTINUOUS
  7
TEXTSTYLE_2
 71
2
 72
1
 10
13.425
 20
10.312
 30
0.0
 11
1.0
 21
0.0
 31
0.0
 44
0.9
  1
2
 40
0.1
 41
0.08
  0
MTEXT
  5
244
100
AcDbEntity
  8
0
100
AcDbMText
 62
7
  6
CONTINUOUS
  7
TEXTSTYLE_2
 71
2
 72
1
 10
15.395
 20
10.312
 30
0.0
 11
1.0
 21
0.0
 31
0.0
 44
0.9
  1
1
 40
0.1
 41
0.08
  0
MTEXT
  5
245
100
AcDbEntity
  8
0
100
AcDbMText
 62
7
  6
CONTINUOUS
  7
TEXTSTYLE_2
 71
2
 72
1
 10
3.575
 20
10.312
 30
0.0
 11
1.0
 21
0.0
 31
0.0
 44
0.9
  1
7
 40
0.1
 41
0.08
  0
MTEXT
  5
246
100
AcDbEntity
  8
0
100
AcDbMText
 62
7
  6
CONTINUOUS
  7
TEXTSTYLE_2
 71
2
 72
1
 10
5.545
 20
10.312
 30
0.0
 11
1.0
 21
0.0
 31
0.0
 44
0.9
  1
6
 40
0.1
 41
0.08
  0
MTEXT
  5
247
100
AcDbEntity
  8
0
100
AcDbMText
 62
7
  6
CONTINUOUS
  7
TEXTSTYLE_2
 71
2
 72
1
 10
7.515
 20
10.312
 30
0.0
 11
1.0
 21
0.0
 31
0.0
 44
0.9
  1
5
 40
0.1
 41
0.08
  0
MTEXT
  5
248
100
AcDbEntity
  8
0
100
AcDbMText
 62
7
  6
CONTINUOUS
  7
TEXTSTYLE_2
 71
2
 72
1
 10
1.605
 20
10.312
 30
0.0
 11
1.0
 21
0.0
 31
0.0
 44
0.9
  1
8
 40
0.1
 41
0.08
  0
MTEXT
  5
249
100
AcDbEntity
  8
0
100
AcDbMText
 62
7
  6
CONTINUOUS
  7
TEXTSTYLE_2
 71
2
 72
1
 10
1.605
 20
0.787
 30
0.0
 11
1.0
 21
0.0
 31
0.0
 44
0.9
  1
8
 40
0.1
 41
0.08
  0
MTEXT
  5
24A
100
AcDbEntity
  8
0
100
AcDbMText
 62
7
  6
CONTINUOUS
  7
TEXTSTYLE_2
 71
2
 72
1
 10
3.575
 20
0.787
 30
0.0
 11
1.0
 21
0.0
 31
0.0
 44
0.9
  1
7
 40
0.1
 41
0.08
  0
MTEXT
  5
24B
100
AcDbEntity
  8
0
100
AcDbMText
 62
7
  6
CONTINUOUS
  7
TEXTSTYLE_2
 71
2
 72
1
 10
5.545
 20
0.787
 30
0.0
 11
1.0
 21
0.0
 31
0.0
 44
0.9
  1
6
 40
0.1
 41
0.08
  0
MTEXT
  5
24C
100
AcDbEntity
  8
0
100
AcDbMText
 62
7
  6
CONTINUOUS
  7
TEXTSTYLE_2
 71
2
 72
1
 10
7.515
 20
0.787
 30
0.0
 11
1.0
 21
0.0
 31
0.0
 44
0.9
  1
5
 40
0.1
 41
0.08
  0
MTEXT
  5
24D
100
AcDbEntity
  8
0
100
AcDbMText
 62
7
  6
CONTINUOUS
  7
TEXTSTYLE_2
 71
2
 72
1
 10
9.485
 20
0.787
 30
0.0
 11
1.0
 21
0.0
 31
0.0
 44
0.9
  1
4
 40
0.1
 41
0.08
  0
MTEXT
  5
24E
100
AcDbEntity
  8
0
100
AcDbMText
 62
7
  6
CONTINUOUS
  7
TEXTSTYLE_2
 71
2
 72
1
 10
11.455
 20
0.787
 30
0.0
 11
1.0
 21
0.0
 31
0.0
 44
0.9
  1
3
 40
0.1
 41
0.08
  0
MTEXT
  5
24F
100
AcDbEntity
  8
0
100
AcDbMText
 62
7
  6
CONTINUOUS
  7
TEXTSTYLE_2
 71
2
 72
1
 10
13.425
 20
0.787
 30
0.0
 11
1.0
 21
0.0
 31
0.0
 44
0.9
  1
2
 40
0.1
 41
0.08
  0
MTEXT
  5
250
100
AcDbEntity
  8
0
100
AcDbMText
 62
7
  6
CONTINUOUS
  7
TEXTSTYLE_2
 71
2
 72
1
 10
15.395
 20
0.787
 30
0.0
 11
1.0
 21
0.0
 31
0.0
 44
0.9
  1
1
 40
0.1
 41
0.08
  0
MTEXT
  5
251
100
AcDbEntity
  8
0
100
AcDbMText
 62
7
  6
CONTINUOUS
  7
TEXTSTYLE_2
 71
3
 72
1
 10
0.52
 20
4.3995
 30
0.0
 11
1.0
 21
0.0
 31
0.0
 44
0.9
  1
B
 40
0.1
 41
0.08
  0
MTEXT
  5
252
100
AcDbEntity
  8
0
100
AcDbMText
 62
7
  6
CONTINUOUS
  7
TEXTSTYLE_2
 71
3
 72
1
 10
0.52
 20
2.0995
 30
0.0
 11
1.0
 21
0.0
 31
0.0
 44
0.9
  1
A
 40
0.1
 41
0.08
  0
MTEXT
  5
253
100
AcDbEntity
  8
0
100
AcDbMText
 62
7
  6
CONTINUOUS
  7
TEXTSTYLE_2
 71
3
 72
1
 10
0.52
 20
8.9995
 30
0.0
 11
1.0
 21
0.0
 31
0.0
 44
0.9
  1
D
 40
0.1
 41
0.08
  0
MTEXT
  5
254
100
AcDbEntity
  8
0
100
AcDbMText
 62
7
  6
CONTINUOUS
  7
TEXTSTYLE_2
 71
3
 72
1
 10
0.52
 20
6.6995
 30
0.0
 11
1.0
 21
0.0
 31
0.0
 44
0.9
  1
C
 40
0.1
 41
0.08
  0
MTEXT
  5
255
100
AcDbEntity
  8
0
100
AcDbMText
 62
7
  6
CONTINUOUS
  7
TEXTSTYLE_2
 71
1
 72
1
 10
16.48
 20
8.9995
 30
0.0
 11
1.0
 21
0.0
 31
0.0
 44
0.9
  1
D
 40
0.1
 41
0.08
  0
MTEXT
  5
256
100
AcDbEntity
  8
0
100
AcDbMText
 62
7
  6
CONTINUOUS
  7
TEXTSTYLE_2
 71
1
 72
1
 10
16.48
 20
6.6995
 30
0.0
 11
1.0
 21
0.0
 31
0.0
 44
0.9
  1
C
 40
0.1
 41
0.08
  0
MTEXT
  5
257
100
AcDbEntity
  8
0
100
AcDbMText
 62
7
  6
CONTINUOUS
  7
TEXTSTYLE_2
 71
1
 72
1
 10
16.48
 20
4.3995
 30
0.0
 11
1.0
 21
0.0
 31
0.0
 44
0.9
  1
B
 40
0.1
 41
0.08
  0
MTEXT
  5
258
100
AcDbEntity
  8
0
100
AcDbMText
 62
7
  6
CONTINUOUS
  7
TEXTSTYLE_2
 71
1
 72
1
 10
16.48
 20
2.0995
 30
0.0
 11
1.0
 21
0.0
 31
0.0
 44
0.9
  1
A
 40
0.1
 41
0.08
  0
MTEXT
  5
259
100
AcDbEntity
  8
0
100
AcDbMText
 62
7
  6
CONTINUOUS
  7
STANDARD
 71
1
 72
1
 10
14.819264911
 20
1.0627941725
 30
0.0
 11
1.0
 21
0.0
 31
0.0
 44
0.9
  1
1 OF 1
 40
0.1
 41
0.6
  0
MTEXT
  5
25A
100
AcDbEntity
  8
0
100
AcDbMText
 62
7
  6
CONTINUOUS
  7
STANDARD
 71
1
 72
1
 10
13.8911999818
 20
1.3747321586
 30
0.0
 11
1.0
 21
0.0
 31
0.0
 44
0.9
  1
195845
 40
0.12
 41
0.72
  0
MTEXT
  5
25B
100
AcDbEntity
  8
0
100
AcDbMText
 62
7
  6
CONTINUOUS
  7
STANDARD
 71
1
 72
1
 10
12.644264911
 20
1.0627941725
 30
0.0
 11
1.0
 21
0.0
 31
0.0
 44
0.9
  1
1:1
 40
0.1
 41
0.3
  0
MTEXT
  5
25C
100
AcDbEntity
  8
0
100
AcDbMText
 62
7
  6
CONTINUOUS
  7
STANDARD
 71
1
 72
1
 10
0.8489354566
 20
1.4938330621
 30
0.0
 11
1.0
 21
0.0
 31
0.0
 44
0.9
  1
NOTES:\P1. ALL DIMENSIONS ARE MILLIMETERS [INCHES] UNLESS OTHERWISE NOTED.\P2. REFER TO "www.bannerengineering.com" FOR ADDITIONAL DATA AND SPECIFICATIONS.
 40
0.1
 41
7.9
  0
MTEXT
  5
25D
100
AcDbEntity
  8
0
100
AcDbMText
 62
7
  6
CONTINUOUS
  7
TEXTSTYLE_5
 71
2
 72
1
 10
11.0519651892
 20
2.0334024775
 30
0.0
 11
1.0
 21
0.0
 31
0.0
 44
0.9
  1
C  2015 Banner Engineering Corp.
 40
0.08
 41
1.92
  0
DIMENSION
  5
25E
100
AcDbEntity
  8
DRIVEN_DIMS
100
AcDbDimension
 62
7
  6
CONTINUOUS
  2
*D0
 10
5.964860825
 20
6.9927130475
 11
6.8534310501
 21
6.7184811719
 70
163
 71
1
 42
70.0
  1
%%c<>
  3
DIMSTYLE_1
100
AcDbDiametricDimension
 15
3.7418453512
 25
8.6215830218
  0
DIMENSION
  5
25F
100
AcDbEntity
  8
DRIVEN_DIMS
100
AcDbDimension
 62
7
  6
CONTINUOUS
  2
*D1
 10
6.7509908834
 20
2.440436139
 11
6.7509908834
 21
3.8581351422
 70
160
 71
2
 42
72.0191093642
  3
DIMSTYLE_2
100
AcDbAlignedDimension
 13
4.8533530881
 23
5.2758341455
 14
6.231305844
 24
2.440436139
 50
270.0
100
AcDbRotatedDimension
  0
ACAD_TABLE
  5
260
100
AcDbEntity
  8
0
 62
7
  6
CONTINUOUS
100
AcDbBlockReference
  2
*T1
 10
12.03
 20
0.887
 30
0.0
100
AcDbTable
342
       657
343
214
 11
1.0
 21
0.0
 31
0.0
 90
6
 91
3
 92
5
 93
4
 94
0
 95
0
 96
0
 70
1
141
0.33
141
0.45
141
1.14
142
0.65
142
1.15
142
1.025
142
1.075
142
0.45
171
1
172
0
173
0
174
0
175
1
176
1
177
33
178
0
145
0.0
  1
 
170
1
140
0.1
171
1
172
0
173
0
174
0
175
1
176
1
177
33
178
0
145
0.0
  1
 
170
1
140
0.1
171
1
172
0
173
0
174
0
175
1
176
1
177
33
178
0
145
0.0
  1
 
170
1
140
0.1
171
1
172
0
173
0
174
0
175
1
176
1
177
33
178
0
145
0.0
  1
 
170
1
140
0.1
171
1
172
0
173
0
174
0
175
1
176
1
177
33
178
0
145
0.0
  1
 
170
1
140
0.1
171
1
172
0
173
0
174
0
175
1
176
1
177
33
178
0
145
0.0
  1
 
170
1
140
0.1
171
1
172
0
173
0
174
0
175
1
176
1
177
33
178
0
145
0.0
  1
 
170
1
140
0.1
171
1
172
0
173
0
174
0
175
1
176
1
177
33
178
0
145
0.0
  1
 
170
1
140
0.1
171
1
172
0
173
0
174
0
175
1
176
1
177
33
178
0
145
0.0
  1
 
170
1
140
0.1
171
1
172
0
173
0
174
0
175
1
176
1
177
41
178
0
145
0.0
  1
A
170
8
140
0.1
 64
7
171
1
172
0
173
0
174
0
175
5
176
1
177
33
178
0
145
0.0
  1
SG-TL70-AL_
170
8
140
0.1
171
1
172
0
173
1
174
0
175
1
176
1
177
1
178
0
145
0.0
170
1
171
1
172
0
173
1
174
0
175
1
176
1
177
1
178
0
145
0.0
170
1
171
1
172
0
173
1
174
0
175
1
176
1
177
1
178
0
145
0.0
170
1
171
1
172
0
173
1
174
0
175
1
176
1
177
1
178
0
145
0.0
170
8
  0
MTEXT
  5
261
100
AcDbEntity
  8
NOTES
100
AcDbMText
 62
7
  6
CONTINUOUS
  7
STANDARD
 71
2
 72
1
 10
12.6223835602
 20
3.9376324619
 30
0.0
 11
1.0
 21
0.0
 31
0.0
 44
0.9
  1
ISOMETRIC VIEW\P\H0.1;SCALE  1:1
 40
0.125
 41
1.75
  0
LINE
  5
262
100
AcDbEntity
  8
0
100
AcDbLine
 62
7
  6
CONTINUOUS
 10
0.47
 20
5.586103
 11
0.47
 21
5.412897
  0
LINE
  5
263
100
AcDbEntity
  8
0
100
AcDbLine
 62
7
  6
CONTINUOUS
 10
0.62
 20
10.112
 11
0.62
 21
0.887
  0
LINE
  5
264
100
AcDbEntity
  8
0
100
AcDbLine
 62
7
  6
CONTINUOUS
 10
2.59
 20
0.887
 11
2.59
 21
0.637
  0
LINE
  5
265
100
AcDbEntity
  8
0
100
AcDbLine
 62
7
  6
CONTINUOUS
 10
2.59
 20
10.112
 11
2.59
 21
10.362
  0
LINE
  5
266
100
AcDbEntity
  8
0
100
AcDbLine
 62
7
  6
CONTINUOUS
 10
8.413397
 20
0.737
 11
8.586603
 21
0.737
  0
LINE
  5
267
100
AcDbEntity
  8
0
100
AcDbLine
 62
7
  6
CONTINUOUS
 10
11.1389508475
 20
1.425992839
 11
11.7453418475
 21
1.495385839
  0
LINE
  5
268
100
AcDbEntity
  8
0
100
AcDbLine
 62
7
  6
CONTINUOUS
 10
0.62
 20
0.887
 11
16.38
 21
0.887
  0
LINE
  5
269
100
AcDbEntity
  8
0
100
AcDbLine
 62
7
  6
CONTINUOUS
 10
12.03
 20
1.137
 11
16.38
 21
1.137
  0
LINE
  5
26A
100
AcDbEntity
  8
0
100
AcDbLine
 62
7
  6
CONTINUOUS
 10
10.2121898475
 20
1.243294839
 11
10.4342808475
 21
1.243294839
  0
LINE
  5
26B
100
AcDbEntity
  8
0
100
AcDbLine
 62
7
  6
CONTINUOUS
 10
10.4842808475
 20
1.243294839
 11
10.5842808475
 21
1.243294839
  0
LINE
  5
26C
100
AcDbEntity
  8
0
100
AcDbLine
 62
7
  6
CONTINUOUS
 10
10.6342808475
 20
1.243294839
 11
10.8563718475
 21
1.243294839
  0
LINE
  5
26D
100
AcDbEntity
  8
0
100
AcDbLine
 62
7
  6
CONTINUOUS
 10
11.0389508475
 20
1.243294839
 11
11.3171028475
 21
1.243294839
  0
LINE
  5
26E
100
AcDbEntity
  8
0
100
AcDbLine
 62
7
  6
CONTINUOUS
 10
11.3671028475
 20
1.243294839
 11
11.5171888475
 21
1.243294839
  0
LINE
  5
26F
100
AcDbEntity
  8
0
100
AcDbLine
 62
7
  6
CONTINUOUS
 10
11.5671888475
 20
1.243294839
 11
11.8453418475
 21
1.243294839
  0
LINE
  5
270
100
AcDbEntity
  8
0
100
AcDbLine
 62
7
  6
CONTINUOUS
 10
11.7453418475
 20
0.991203839
 11
11.1389508475
 21
1.060596839
  0
LINE
  5
271
100
AcDbEntity
  8
0
100
AcDbLine
 62
7
  6
CONTINUOUS
 10
4.56
 20
0.887
 11
4.56
 21
0.637
  0
LINE
  5
272
100
AcDbEntity
  8
0
100
AcDbLine
 62
7
  6
CONTINUOUS
 10
4.56
 20
10.112
 11
4.56
 21
10.362
  0
LINE
  5
273
100
AcDbEntity
  8
0
100
AcDbLine
 62
7
  6
CONTINUOUS
 10
0.47
 20
5.412897
 11
0.62
 21
5.4995
  0
LINE
  5
274
100
AcDbEntity
  8
0
100
AcDbLine
 62
7
  6
CONTINUOUS
 10
12.03
 20
1.507
 11
16.38
 21
1.507
  0
LINE
  5
275
100
AcDbEntity
  8
0
100
AcDbLine
 62
7
  6
CONTINUOUS
 10
10.03
 20
1.907
 11
12.03
 21
1.907
  0
LINE
  5
276
100
AcDbEntity
  8
0
100
AcDbLine
 62
7
  6
CONTINUOUS
 10
0.62
 20
5.4995
 11
0.47
 21
5.586103
  0
LINE
  5
277
100
AcDbEntity
  8
0
100
AcDbLine
 62
7
  6
CONTINUOUS
 10
12.03
 20
2.267
 11
16.38
 21
2.267
  0
LINE
  5
278
100
AcDbEntity
  8
0
100
AcDbLine
 62
7
  6
CONTINUOUS
 10
13.6042588488
 20
2.4912273132
 11
13.5568948225
 21
2.4912273132
  0
LINE
  5
279
100
AcDbEntity
  8
0
100
AcDbLine
 62
7
  6
CONTINUOUS
 10
13.5130037982
 20
2.4912273132
 11
13.3994327352
 21
2.4912273132
  0
LINE
  5
27A
100
AcDbEntity
  8
0
100
AcDbLine
 62
7
  6
CONTINUOUS
 10
13.3705287192
 20
2.4912273132
 11
13.1673166065
 21
2.4912273132
  0
LINE
  5
27B
100
AcDbEntity
  8
0
100
AcDbLine
 62
7
  6
CONTINUOUS
 10
13.1168435785
 20
2.4912273132
 11
13.0426375373
 21
2.4912273132
  0
LINE
  5
27C
100
AcDbEntity
  8
0
100
AcDbLine
 62
7
  6
CONTINUOUS
 10
12.9962575116
 20
2.4912273132
 11
12.9205934696
 21
2.4912273132
  0
LINE
  5
27D
100
AcDbEntity
  8
0
100
AcDbLine
 62
7
  6
CONTINUOUS
 10
12.8685904408
 20
2.4912273132
 11
12.7943853997
 21
2.4912273132
  0
LINE
  5
27E
100
AcDbEntity
  8
0
100
AcDbLine
 62
7
  6
CONTINUOUS
 10
12.7480043739
 20
2.4912273132
 11
12.672340332
 21
2.4912273132
  0
LINE
  5
27F
100
AcDbEntity
  8
0
100
AcDbLine
 62
7
  6
CONTINUOUS
 10
12.2055050731
 20
2.4912273132
 11
12.3819511709
 21
2.4912273132
  0
LINE
  5
280
100
AcDbEntity
  8
0
100
AcDbLine
 62
7
  6
CONTINUOUS
 10
12.4394882028
 20
2.4912273132
 11
12.5168642458
 21
2.4912273132
  0
LINE
  5
281
100
AcDbEntity
  8
0
100
AcDbLine
 62
7
  6
CONTINUOUS
 10
12.537150257
 20
2.4912273132
 11
12.6424313154
 21
2.4912273132
  0
LINE
  5
282
100
AcDbEntity
  8
0
100
AcDbLine
 62
7
  6
CONTINUOUS
 10
13.4883447845
 20
2.5159553269
 11
13.5130037982
 21
2.5159553269
  0
LINE
  5
283
100
AcDbEntity
  8
0
100
AcDbLine
 62
7
  6
CONTINUOUS
 10
12.6424313154
 20
2.515977327
 11
12.6224153043
 21
2.515977327
  0
LINE
  5
284
100
AcDbEntity
  8
0
100
AcDbLine
 62
7
  6
CONTINUOUS
 10
12.551601265
 20
2.515977327
 11
12.537150257
 21
2.515977327
  0
LINE
  5
285
100
AcDbEntity
  8
0
100
AcDbLine
 62
7
  6
CONTINUOUS
 10
12.5168642458
 20
2.515977327
 11
12.5055812395
 21
2.515977327
  0
LINE
  5
286
100
AcDbEntity
  8
0
100
AcDbLine
 62
7
  6
CONTINUOUS
 10
12.4623492155
 20
2.515977327
 11
12.4394882028
 21
2.515977327
  0
LINE
  5
287
100
AcDbEntity
  8
0
100
AcDbLine
 62
7
  6
CONTINUOUS
 10
12.3362731456
 20
2.515977327
 11
12.2949101227
 21
2.515977327
  0
LINE
  5
288
100
AcDbEntity
  8
0
100
AcDbLine
 62
7
  6
CONTINUOUS
 10
12.2294470864
 20
2.515977327
 11
12.2055050731
 21
2.515977327
  0
LINE
  5
289
100
AcDbEntity
  8
0
100
AcDbLine
 62
7
  6
CONTINUOUS
 10
12.672340332
 20
2.515977327
 11
12.6909873423
 21
2.515977327
  0
LINE
  5
28A
100
AcDbEntity
  8
0
100
AcDbLine
 62
7
  6
CONTINUOUS
 10
12.7276873627
 20
2.515977327
 11
12.7480043739
 21
2.515977327
  0
LINE
  5
28B
100
AcDbEntity
  8
0
100
AcDbLine
 62
7
  6
CONTINUOUS
 10
12.9205934696
 20
2.515977327
 11
12.93923948
 21
2.515977327
  0
LINE
  5
28C
100
AcDbEntity
  8
0
100
AcDbLine
 62
7
  6
CONTINUOUS
 10
12.9759405003
 20
2.515977327
 11
12.9962575116
 21
2.515977327
  0
LINE
  5
28D
100
AcDbEntity
  8
0
100
AcDbLine
 62
7
  6
CONTINUOUS
 10
13.1673166065
 20
2.515977327
 11
13.1912396197
 21
2.515977327
  0
LINE
  5
28E
100
AcDbEntity
  8
0
100
AcDbLine
 62
7
  6
CONTINUOUS
 10
13.2582556569
 20
2.515977327
 11
13.3232596929
 21
2.515977327
  0
LINE
  5
28F
100
AcDbEntity
  8
0
100
AcDbLine
 62
7
  6
CONTINUOUS
 10
13.3994327352
 20
2.515977327
 11
13.4221787478
 21
2.515977327
  0
LINE
  5
290
100
AcDbEntity
  8
0
100
AcDbLine
 62
7
  6
CONTINUOUS
 10
13.6052818493
 20
2.5163643272
 11
13.60639085
 21
2.5163643272
  0
LINE
  5
291
100
AcDbEntity
  8
0
100
AcDbLine
 62
7
  6
CONTINUOUS
 10
13.3282096957
 20
2.5291773343
 11
13.3705287192
 21
2.5291773343
  0
LINE
  5
292
100
AcDbEntity
  8
0
100
AcDbLine
 62
7
  6
CONTINUOUS
 10
12.5110972426
 20
2.5296213345
 11
12.5459752619
 21
2.5296213345
  0
LINE
  5
293
100
AcDbEntity
  8
0
100
AcDbLine
 62
7
  6
CONTINUOUS
 10
13.6171458559
 20
2.5301143348
 11
13.6292558626
 21
2.5301143348
  0
LINE
  5
294
100
AcDbEntity
  8
0
100
AcDbLine
 62
7
  6
CONTINUOUS
 10
13.5159517998
 20
2.5306043351
 11
13.4883447845
 21
2.5306043351
  0
LINE
  5
295
100
AcDbEntity
  8
0
100
AcDbLine
 62
7
  6
CONTINUOUS
 10
13.2934226764
 20
2.5324773361
 11
13.2582556569
 21
2.5324773361
  0
LINE
  5
296
100
AcDbEntity
  8
0
100
AcDbLine
 62
7
  6
CONTINUOUS
 10
12.2949101227
 20
2.5333023366
 11
12.3362731456
 21
2.5333023366
  0
LINE
  5
297
100
AcDbEntity
  8
0
100
AcDbLine
 62
7
  6
CONTINUOUS
 10
13.5222818033
 20
2.5496073456
 11
13.4883447845
 21
2.5496073456
  0
LINE
  5
298
100
AcDbEntity
  8
0
100
AcDbLine
 62
7
  6
CONTINUOUS
 10
12.2949101227
 20
2.5499573458
 11
12.3362731456
 21
2.5499573458
  0
LINE
  5
299
100
AcDbEntity
  8
0
100
AcDbLine
 62
7
  6
CONTINUOUS
 10
12.5196132473
 20
2.5505713461
 11
12.5401702587
 21
2.5505713461
  0
LINE
  5
29A
100
AcDbEntity
  8
0
100
AcDbLine
 62
7
  6
CONTINUOUS
 10
13.2582556569
 20
2.5507823463
 11
13.2934226764
 21
2.5507823463
  0
LINE
  5
29B
100
AcDbEntity
  8
0
100
AcDbLine
 62
7
  6
CONTINUOUS
 10
13.3691097184
 20
2.5540823481
 11
13.3272456952
 21
2.5540823481
  0
LINE
  5
29C
100
AcDbEntity
  8
0
100
AcDbLine
 62
7
  6
CONTINUOUS
 10
12.5329112547
 20
2.5667383551
 11
12.5267302512
 21
2.5667383551
  0
LINE
  5
29D
100
AcDbEntity
  8
0
100
AcDbLine
 62
7
  6
CONTINUOUS
 10
13.4221787478
 20
2.5672823554
 11
13.3994327352
 21
2.5672823554
  0
LINE
  5
29E
100
AcDbEntity
  8
0
100
AcDbLine
 62
7
  6
CONTINUOUS
 10
13.3222956924
 20
2.5672823554
 11
13.2582556569
 21
2.5672823554
  0
LINE
  5
29F
100
AcDbEntity
  8
0
100
AcDbLine
 62
7
  6
CONTINUOUS
 10
13.1912396197
 20
2.5672823554
 11
13.1673166065
 21
2.5672823554
  0
LINE
  5
2A0
100
AcDbEntity
  8
0
100
AcDbLine
 62
7
  6
CONTINUOUS
 10
13.1397265912
 20
2.5672823554
 11
13.1217935812
 21
2.5672823554
  0
LINE
  5
2A1
100
AcDbEntity
  8
0
100
AcDbLine
 62
7
  6
CONTINUOUS
 10
13.0845015605
 20
2.5672823554
 11
13.0657255501
 21
2.5672823554
  0
LINE
  5
2A2
100
AcDbEntity
  8
0
100
AcDbLine
 62
7
  6
CONTINUOUS
 10
12.93923948
 20
2.5672823554
 11
12.9205934696
 21
2.5672823554
  0
LINE
  5
2A3
100
AcDbEntity
  8
0
100
AcDbLine
 62
7
  6
CONTINUOUS
 10
12.8914734535
 20
2.5672823554
 11
12.8735404436
 21
2.5672823554
  0
LINE
  5
2A4
100
AcDbEntity
  8
0
100
AcDbLine
 62
7
  6
CONTINUOUS
 10
12.8362484229
 20
2.5672823554
 11
12.8174724125
 21
2.5672823554
  0
LINE
  5
2A5
100
AcDbEntity
  8
0
100
AcDbLine
 62
7
  6
CONTINUOUS
 10
12.6909873423
 20
2.5672823554
 11
12.672340332
 21
2.5672823554
  0
LINE
  5
2A6
100
AcDbEntity
  8
0
100
AcDbLine
 62
7
  6
CONTINUOUS
 10
12.3362731456
 20
2.5672823554
 11
12.2949101227
 21
2.5672823554
  0
LINE
  5
2A7
100
AcDbEntity
  8
0
100
AcDbLine
 62
7
  6
CONTINUOUS
 10
12.2055050731
 20
2.5672823554
 11
12.2294470864
 21
2.5672823554
  0
LINE
  5
2A8
100
AcDbEntity
  8
0
100
AcDbLine
 62
7
  6
CONTINUOUS
 10
13.4883447845
 20
2.5672823554
 11
13.5251458049
 21
2.5672823554
  0
LINE
  5
2A9
100
AcDbEntity
  8
0
100
AcDbLine
 62
7
  6
CONTINUOUS
 10
12.5705042755
 20
2.5920323691
 11
12.5133292438
 21
2.5920323691
  0
LINE
  5
2AA
100
AcDbEntity
  8
0
100
AcDbLine
 62
7
  6
CONTINUOUS
 10
12.3715681652
 20
2.5920323691
 11
12.2055050731
 21
2.5920323691
  0
LINE
  5
2AB
100
AcDbEntity
  8
0
100
AcDbLine
 62
7
  6
CONTINUOUS
 10
12.672340332
 20
2.5920323691
 11
12.7727983877
 21
2.5920323691
  0
LINE
  5
2AC
100
AcDbEntity
  8
0
100
AcDbLine
 62
7
  6
CONTINUOUS
 10
12.8174724125
 20
2.5920323691
 11
12.8914734535
 21
2.5920323691
  0
LINE
  5
2AD
100
AcDbEntity
  8
0
100
AcDbLine
 62
7
  6
CONTINUOUS
 10
12.9205934696
 20
2.5920323691
 11
13.0210515254
 21
2.5920323691
  0
LINE
  5
2AE
100
AcDbEntity
  8
0
100
AcDbLine
 62
7
  6
CONTINUOUS
 10
13.0657255501
 20
2.5920323691
 11
13.1397265912
 21
2.5920323691
  0
LINE
  5
2AF
100
AcDbEntity
  8
0
100
AcDbLine
 62
7
  6
CONTINUOUS
 10
13.1673166065
 20
2.5920323691
 11
13.3691097184
 21
2.5920323691
  0
LINE
  5
2B0
100
AcDbEntity
  8
0
100
AcDbLine
 62
7
  6
CONTINUOUS
 10
13.3994327352
 20
2.5920323691
 11
13.5490138181
 21
2.5920323691
  0
LINE
  5
2B1
100
AcDbEntity
  8
0
100
AcDbLine
 62
7
  6
CONTINUOUS
 10
12.4008351814
 20
2.5375433389
 11
12.3907841758
 21
2.5410923409
  0
LINE
  5
2B2
100
AcDbEntity
  8
0
100
AcDbLine
 62
7
  6
CONTINUOUS
 10
12.7926763987
 20
2.4919113136
 11
12.7293963636
 21
2.5522893471
  0
LINE
  5
2B3
100
AcDbEntity
  8
0
100
AcDbLine
 62
7
  6
CONTINUOUS
 10
12.7745063886
 20
2.5913483688
 11
12.8345394219
 21
2.534068337
  0
LINE
  5
2B4
100
AcDbEntity
  8
0
100
AcDbLine
 62
7
  6
CONTINUOUS
 10
13.0409295364
 20
2.4919113136
 11
12.9776495013
 21
2.5522893471
  0
LINE
  5
2B5
100
AcDbEntity
  8
0
100
AcDbLine
 62
7
  6
CONTINUOUS
 10
13.0227595263
 20
2.5913483688
 11
13.0827925596
 21
2.534068337
  0
LINE
  5
2B6
100
AcDbEntity
  8
0
100
AcDbLine
 62
7
  6
CONTINUOUS
 10
12.548053263
 20
2.5284903339
 11
12.5536792662
 21
2.5197973291
  0
LINE
  5
2B7
100
AcDbEntity
  8
0
100
AcDbLine
 62
7
  6
CONTINUOUS
 10
12.5422482598
 20
2.5543913483
 11
12.5349892558
 21
2.5656073545
  0
LINE
  5
2B8
100
AcDbEntity
  8
0
100
AcDbLine
 62
7
  6
CONTINUOUS
 10
12.6203383031
 20
2.5171073276
 11
12.5725822767
 21
2.5909023685
  0
LINE
  5
2B9
100
AcDbEntity
  8
0
100
AcDbLine
 62
7
  6
CONTINUOUS
 10
12.2030300717
 20
2.5895573678
 11
12.2030300717
 21
2.5697573568
  0
LINE
  5
2BA
100
AcDbEntity
  8
0
100
AcDbLine
 62
7
  6
CONTINUOUS
 10
12.2030300717
 20
2.5135023256
 11
12.2030300717
 21
2.4937023146
  0
LINE
  5
2BB
100
AcDbEntity
  8
0
100
AcDbLine
 62
7
  6
CONTINUOUS
 10
12.2319220877
 20
2.564807354
 11
12.2319220877
 21
2.5184523283
  0
LINE
  5
2BC
100
AcDbEntity
  8
0
100
AcDbLine
 62
7
  6
CONTINUOUS
 10
12.2924351213
 20
2.564807354
 11
12.2924351213
 21
2.5524323472
  0
LINE
  5
2BD
100
AcDbEntity
  8
0
100
AcDbLine
 62
7
  6
CONTINUOUS
 10
12.2924351213
 20
2.5184523283
 11
12.2924351213
 21
2.5308273352
  0
LINE
  5
2BE
100
AcDbEntity
  8
0
100
AcDbLine
 62
7
  6
CONTINUOUS
 10
12.4370132015
 20
2.5135023256
 11
12.4370132015
 21
2.4937023146
  0
LINE
  5
2BF
100
AcDbEntity
  8
0
100
AcDbLine
 62
7
  6
CONTINUOUS
 10
12.5193392471
 20
2.4937023146
 11
12.5193392471
 21
2.5135023256
  0
LINE
  5
2C0
100
AcDbEntity
  8
0
100
AcDbLine
 62
7
  6
CONTINUOUS
 10
12.5346752556
 20
2.5135023256
 11
12.5346752556
 21
2.4937023146
  0
LINE
  5
2C1
100
AcDbEntity
  8
0
100
AcDbLine
 62
7
  6
CONTINUOUS
 10
12.6449063168
 20
2.4937023146
 11
12.6449063168
 21
2.5135023256
  0
LINE
  5
2C2
100
AcDbEntity
  8
0
100
AcDbLine
 62
7
  6
CONTINUOUS
 10
12.6698653306
 20
2.4937023146
 11
12.6698653306
 21
2.5135023256
  0
LINE
  5
2C3
100
AcDbEntity
  8
0
100
AcDbLine
 62
7
  6
CONTINUOUS
 10
12.6698653306
 20
2.5697573568
 11
12.6698653306
 21
2.5895573678
  0
LINE
  5
2C4
100
AcDbEntity
  8
0
100
AcDbLine
 62
7
  6
CONTINUOUS
 10
12.6934623437
 20
2.5184523283
 11
12.6934623437
 21
2.564807354
  0
LINE
  5
2C5
100
AcDbEntity
  8
0
100
AcDbLine
 62
7
  6
CONTINUOUS
 10
12.7252123613
 20
2.5504983461
 11
12.7252123613
 21
2.5184523283
  0
LINE
  5
2C6
100
AcDbEntity
  8
0
100
AcDbLine
 62
7
  6
CONTINUOUS
 10
13.5375908118
 20
2.5092733232
 11
13.5357868108
 21
2.5153423266
  0
LINE
  5
2C7
100
AcDbEntity
  8
0
100
AcDbLine
 62
7
  6
CONTINUOUS
 10
12.7504793753
 20
2.5135023256
 11
12.7504793753
 21
2.4937023146
  0
LINE
  5
2C8
100
AcDbEntity
  8
0
100
AcDbLine
 62
7
  6
CONTINUOUS
 10
12.8149974111
 20
2.5697573568
 11
12.8149974111
 21
2.5895573678
  0
LINE
  5
2C9
100
AcDbEntity
  8
0
100
AcDbLine
 62
7
  6
CONTINUOUS
 10
12.8387234242
 20
2.535859338
 11
12.8387234242
 21
2.564807354
  0
LINE
  5
2CA
100
AcDbEntity
  8
0
100
AcDbLine
 62
7
  6
CONTINUOUS
 10
12.8710654422
 20
2.564807354
 11
12.8710654422
 21
2.4937023146
  0
LINE
  5
2CB
100
AcDbEntity
  8
0
100
AcDbLine
 62
7
  6
CONTINUOUS
 10
12.8939484549
 20
2.5895573678
 11
12.8939484549
 21
2.5697573568
  0
LINE
  5
2CC
100
AcDbEntity
  8
0
100
AcDbLine
 62
7
  6
CONTINUOUS
 10
12.9181184683
 20
2.4937023146
 11
12.9181184683
 21
2.5135023256
  0
LINE
  5
2CD
100
AcDbEntity
  8
0
100
AcDbLine
 62
7
  6
CONTINUOUS
 10
12.9181184683
 20
2.5697573568
 11
12.9181184683
 21
2.5895573678
  0
LINE
  5
2CE
100
AcDbEntity
  8
0
100
AcDbLine
 62
7
  6
CONTINUOUS
 10
12.9417144814
 20
2.5184523283
 11
12.9417144814
 21
2.564807354
  0
LINE
  5
2CF
100
AcDbEntity
  8
0
100
AcDbLine
 62
7
  6
CONTINUOUS
 10
12.973465499
 20
2.5504983461
 11
12.973465499
 21
2.5184523283
  0
LINE
  5
2D0
100
AcDbEntity
  8
0
100
AcDbLine
 62
7
  6
CONTINUOUS
 10
12.998732513
 20
2.5135023256
 11
12.998732513
 21
2.4937023146
  0
LINE
  5
2D1
100
AcDbEntity
  8
0
100
AcDbLine
 62
7
  6
CONTINUOUS
 10
13.0632505488
 20
2.5697573568
 11
13.0632505488
 21
2.5895573678
  0
LINE
  5
2D2
100
AcDbEntity
  8
0
100
AcDbLine
 62
7
  6
CONTINUOUS
 10
13.0869765619
 20
2.535859338
 11
13.0869765619
 21
2.564807354
  0
LINE
  5
2D3
100
AcDbEntity
  8
0
100
AcDbLine
 62
7
  6
CONTINUOUS
 10
13.1193185799
 20
2.564807354
 11
13.1193185799
 21
2.4937023146
  0
LINE
  5
2D4
100
AcDbEntity
  8
0
100
AcDbLine
 62
7
  6
CONTINUOUS
 10
13.1422015925
 20
2.5895573678
 11
13.1422015925
 21
2.5697573568
  0
LINE
  5
2D5
100
AcDbEntity
  8
0
100
AcDbLine
 62
7
  6
CONTINUOUS
 10
13.1648416051
 20
2.4937023146
 11
13.1648416051
 21
2.5135023256
  0
LINE
  5
2D6
100
AcDbEntity
  8
0
100
AcDbLine
 62
7
  6
CONTINUOUS
 10
13.1648416051
 20
2.5697573568
 11
13.1648416051
 21
2.5895573678
  0
LINE
  5
2D7
100
AcDbEntity
  8
0
100
AcDbLine
 62
7
  6
CONTINUOUS
 10
13.1937146211
 20
2.5184523283
 11
13.1937146211
 21
2.564807354
  0
LINE
  5
2D8
100
AcDbEntity
  8
0
100
AcDbLine
 62
7
  6
CONTINUOUS
 10
13.2557806555
 20
2.564807354
 11
13.2557806555
 21
2.5532573476
  0
LINE
  5
2D9
100
AcDbEntity
  8
0
100
AcDbLine
 62
7
  6
CONTINUOUS
 10
13.2557806555
 20
2.5300023347
 11
13.2557806555
 21
2.5184523283
  0
LINE
  5
2DA
100
AcDbEntity
  8
0
100
AcDbLine
 62
7
  6
CONTINUOUS
 10
13.2958976778
 20
2.5483073449
 11
13.2958976778
 21
2.5349523375
  0
LINE
  5
2DB
100
AcDbEntity
  8
0
100
AcDbLine
 62
7
  6
CONTINUOUS
 10
12.3907841758
 20
2.5410923409
 11
12.3990241804
 21
2.5458683435
  0
LINE
  5
2DC
100
AcDbEntity
  8
0
100
AcDbLine
 62
7
  6
CONTINUOUS
 10
13.3247706938
 20
2.5565573495
 11
13.3247706938
 21
2.564807354
  0
LINE
  5
2DD
100
AcDbEntity
  8
0
100
AcDbLine
 62
7
  6
CONTINUOUS
 10
13.3257346943
 20
2.5184523283
 11
13.3257346943
 21
2.5267023329
  0
LINE
  5
2DE
100
AcDbEntity
  8
0
100
AcDbLine
 62
7
  6
CONTINUOUS
 10
13.3715847197
 20
2.5895573678
 11
13.3715847197
 21
2.5565573495
  0
LINE
  5
2DF
100
AcDbEntity
  8
0
100
AcDbLine
 62
7
  6
CONTINUOUS
 10
13.3730037205
 20
2.5267023329
 11
13.3730037205
 21
2.4937023146
  0
LINE
  5
2E0
100
AcDbEntity
  8
0
100
AcDbLine
 62
7
  6
CONTINUOUS
 10
13.3969577338
 20
2.4937023146
 11
13.3969577338
 21
2.5135023256
  0
LINE
  5
2E1
100
AcDbEntity
  8
0
100
AcDbLine
 62
7
  6
CONTINUOUS
 10
13.3969577338
 20
2.5697573568
 11
13.3969577338
 21
2.5895573678
  0
LINE
  5
2E2
100
AcDbEntity
  8
0
100
AcDbLine
 62
7
  6
CONTINUOUS
 10
13.4246537492
 20
2.5184523283
 11
13.4246537492
 21
2.564807354
  0
LINE
  5
2E3
100
AcDbEntity
  8
0
100
AcDbLine
 62
7
  6
CONTINUOUS
 10
13.4858697831
 20
2.5281293337
 11
13.4858697831
 21
2.5184303283
  0
LINE
  5
2E4
100
AcDbEntity
  8
0
100
AcDbLine
 62
7
  6
CONTINUOUS
 10
13.4858697831
 20
2.552082347
 11
13.4858697831
 21
2.564807354
  0
LINE
  5
2E5
100
AcDbEntity
  8
0
100
AcDbLine
 62
7
  6
CONTINUOUS
 10
13.5154787995
 20
2.5134803256
 11
13.5154787995
 21
2.4937023146
  0
LINE
  5
2E6
100
AcDbEntity
  8
0
100
AcDbLine
 62
7
  6
CONTINUOUS
 10
13.6146708546
 20
2.525013332
 11
13.6146708546
 21
2.5276393334
  0
LINE
  5
2E7
100
AcDbEntity
  8
0
100
AcDbLine
 62
7
  6
CONTINUOUS
 10
13.631730864
 20
2.5276393334
 11
13.631730864
 21
2.516087327
  0
LINE
  5
2E8
100
AcDbEntity
  8
0
100
AcDbLine
 62
7
  6
CONTINUOUS
 10
13.7286871589
 20
2.5350697372
 11
13.7286871589
 21
2.5456869438
  0
LINE
  5
2E9
100
AcDbEntity
  8
0
100
AcDbLine
 62
7
  6
CONTINUOUS
 10
12.5112392426
 20
2.5908833685
 11
12.4644392167
 21
2.5171263276
  0
LINE
  5
2EA
100
AcDbEntity
  8
0
100
AcDbLine
 62
7
  6
CONTINUOUS
 10
12.5246402501
 20
2.5655893545
 11
12.5175232461
 21
2.5543723483
  0
LINE
  5
2EB
100
AcDbEntity
  8
0
100
AcDbLine
 62
7
  6
CONTINUOUS
 10
12.5034912383
 20
2.5197783291
 11
12.5090072414
 21
2.5284723339
  0
ARC
  5
2EC
100
AcDbEntity
  8
0
100
AcDbCircle
 62
7
  6
CONTINUOUS
 10
12.7943847649
 20
2.4937027294
 40
0.0024754162
100
AcDbArc
 50
226.3593695813
 51
270.0146919953
  0
ARC
  5
2ED
100
AcDbEntity
  8
0
100
AcDbCircle
 62
7
  6
CONTINUOUS
 10
12.2055050712
 20
2.4937023128
 40
0.0024749995
100
AcDbArc
 50
179.9999571957
 51
270.0000428043
  0
ARC
  5
2EE
100
AcDbEntity
  8
0
100
AcDbCircle
 62
7
  6
CONTINUOUS
 10
12.8685904427
 20
2.4937023128
 40
0.0024749995
100
AcDbArc
 50
269.9999571957
 51
0.0000428043
  0
ARC
  5
2EF
100
AcDbEntity
  8
0
100
AcDbCircle
 62
7
  6
CONTINUOUS
 10
12.7480043758
 20
2.4937023128
 40
0.0024749995
100
AcDbArc
 50
269.9999571957
 51
0.0000428043
  0
ARC
  5
2F0
100
AcDbEntity
  8
0
100
AcDbCircle
 62
7
  6
CONTINUOUS
 10
12.6723403301
 20
2.4937023128
 40
0.0024749995
100
AcDbArc
 50
179.9999571957
 51
270.0000428043
  0
ARC
  5
2F1
100
AcDbEntity
  8
0
100
AcDbCircle
 62
7
  6
CONTINUOUS
 10
12.5371502552
 20
2.4937023128
 40
0.0024749995
100
AcDbArc
 50
179.9999571957
 51
270.0000428043
  0
ARC
  5
2F2
100
AcDbEntity
  8
0
100
AcDbCircle
 62
7
  6
CONTINUOUS
 10
12.6424313172
 20
2.4937023128
 40
0.0024749995
100
AcDbArc
 50
269.9999571957
 51
0.0000428043
  0
ARC
  5
2F3
100
AcDbEntity
  8
0
100
AcDbCircle
 62
7
  6
CONTINUOUS
 10
12.439488201
 20
2.4937023128
 40
0.0024749995
100
AcDbArc
 50
179.9999571957
 51
270.0000428043
  0
ARC
  5
2F4
100
AcDbEntity
  8
0
100
AcDbCircle
 62
7
  6
CONTINUOUS
 10
12.5168642476
 20
2.4937023128
 40
0.0024749995
100
AcDbArc
 50
269.9999571957
 51
0.0000428043
  0
ARC
  5
2F5
100
AcDbEntity
  8
0
100
AcDbCircle
 62
7
  6
CONTINUOUS
 10
12.371573659
 20
2.5302846524
 40
0.061747717
100
AcDbArc
 50
59.5385584989
 51
90.0050977555
  0
ARC
  5
2F6
100
AcDbEntity
  8
0
100
AcDbCircle
 62
7
  6
CONTINUOUS
 10
12.3792298263
 20
2.539634765
 40
0.048483885
100
AcDbArc
 50
273.21763719
 51
303.0749121182
  0
ARC
  5
2F7
100
AcDbEntity
  8
0
100
AcDbCircle
 62
7
  6
CONTINUOUS
 10
12.3931760319
 20
2.5166878286
 40
0.0222174455
100
AcDbArc
 50
4.0793399388
 51
69.834329283
  0
ARC
  5
2F8
100
AcDbEntity
  8
0
100
AcDbCircle
 62
7
  6
CONTINUOUS
 10
12.3940692204
 20
2.5168671561
 40
0.0213072145
100
AcDbArc
 50
303.0488228549
 51
355.7263138674
  0
ARC
  5
2F9
100
AcDbEntity
  8
0
100
AcDbCircle
 62
7
  6
CONTINUOUS
 10
12.400005721
 20
2.5168763464
 40
0.0153945295
100
AcDbArc
 50
354.0454548824
 51
5.1878013979
  0
ARC
  5
2FA
100
AcDbEntity
  8
0
100
AcDbCircle
 62
7
  6
CONTINUOUS
 10
12.3362731456
 20
2.5246398318
 40
0.0086625048
100
AcDbArc
 50
270.0
 51
90.0
  0
ARC
  5
2FB
100
AcDbEntity
  8
0
100
AcDbCircle
 62
7
  6
CONTINUOUS
 10
12.5459747223
 20
2.5271458744
 40
0.0024754602
100
AcDbArc
 50
32.8959418573
 51
89.9875097202
  0
ARC
  5
2FC
100
AcDbEntity
  8
0
100
AcDbCircle
 62
7
  6
CONTINUOUS
 10
12.4623492858
 20
2.5184525273
 40
0.0024752003
100
AcDbArc
 50
269.9983726451
 51
327.602165307
  0
ARC
  5
2FD
100
AcDbEntity
  8
0
100
AcDbCircle
 62
7
  6
CONTINUOUS
 10
12.5110971723
 20
2.5271461342
 40
0.0024752003
100
AcDbArc
 50
89.998372645
 51
147.602165307
  0
ARC
  5
2FE
100
AcDbEntity
  8
0
100
AcDbCircle
 62
7
  6
CONTINUOUS
 10
12.5055811302
 20
2.518452367
 40
0.0024750401
100
AcDbArc
 50
147.6063258011
 51
270.0025305754
  0
ARC
  5
2FF
100
AcDbEntity
  8
0
100
AcDbCircle
 62
7
  6
CONTINUOUS
 10
12.2294470882
 20
2.5184523265
 40
0.0024749995
100
AcDbArc
 50
269.9999571957
 51
0.0000428043
  0
ARC
  5
300
100
AcDbEntity
  8
0
100
AcDbCircle
 62
7
  6
CONTINUOUS
 10
12.2055050712
 20
2.5135023274
 40
0.0024749995
100
AcDbArc
 50
89.9999571957
 51
180.0000428043
  0
ARC
  5
301
100
AcDbEntity
  8
0
100
AcDbCircle
 62
7
  6
CONTINUOUS
 10
12.2949101208
 20
2.530827337
 40
0.0024749995
100
AcDbArc
 50
89.9999571957
 51
180.0000428043
  0
ARC
  5
302
100
AcDbEntity
  8
0
100
AcDbCircle
 62
7
  6
CONTINUOUS
 10
12.2949101208
 20
2.5184523265
 40
0.0024749995
100
AcDbArc
 50
179.9999571957
 51
270.0000428043
  0
ARC
  5
303
100
AcDbEntity
  8
0
100
AcDbCircle
 62
7
  6
CONTINUOUS
 10
12.5371502552
 20
2.5135023274
 40
0.0024749995
100
AcDbArc
 50
89.9999571957
 51
180.0000428043
  0
ARC
  5
304
100
AcDbEntity
  8
0
100
AcDbCircle
 62
7
  6
CONTINUOUS
 10
12.439488201
 20
2.5135023274
 40
0.0024749995
100
AcDbArc
 50
89.9999571957
 51
180.0000428043
  0
ARC
  5
305
100
AcDbEntity
  8
0
100
AcDbCircle
 62
7
  6
CONTINUOUS
 10
12.5168642476
 20
2.5135023274
 40
0.0024749995
100
AcDbArc
 50
359.9999571957
 51
90.0000428043
  0
ARC
  5
306
100
AcDbEntity
  8
0
100
AcDbCircle
 62
7
  6
CONTINUOUS
 10
12.3771587979
 20
2.5826952352
 40
0.0428289026
100
AcDbArc
 50
300.6990502959
 51
319.0591802498
  0
ARC
  5
307
100
AcDbEntity
  8
0
100
AcDbCircle
 62
7
  6
CONTINUOUS
 10
12.3922357827
 20
2.5632132173
 40
0.0229166529
100
AcDbArc
 50
20.6563876465
 51
62.3316896973
  0
ARC
  5
308
100
AcDbEntity
  8
0
100
AcDbCircle
 62
7
  6
CONTINUOUS
 10
12.3971873948
 20
2.5665668817
 40
0.0171568255
100
AcDbArc
 50
315.9145124245
 51
16.0049121282
  0
ARC
  5
309
100
AcDbEntity
  8
0
100
AcDbCircle
 62
7
  6
CONTINUOUS
 10
12.3362731456
 20
2.5586198506
 40
0.0086625048
100
AcDbArc
 50
270.0
 51
90.0
  0
ARC
  5
30A
100
AcDbEntity
  8
0
100
AcDbCircle
 62
7
  6
CONTINUOUS
 10
12.532910715
 20
2.564262895
 40
0.0024754602
100
AcDbArc
 50
32.8959418573
 51
89.9875097202
  0
ARC
  5
30B
100
AcDbEntity
  8
0
100
AcDbCircle
 62
7
  6
CONTINUOUS
 10
12.5401702375
 20
2.5530465533
 40
0.0024752071
100
AcDbArc
 50
270.0004896793
 51
32.9089806818
  0
ARC
  5
30C
100
AcDbEntity
  8
0
100
AcDbCircle
 62
7
  6
CONTINUOUS
 10
12.5267301809
 20
2.5642631548
 40
0.0024752003
100
AcDbArc
 50
89.998372645
 51
147.602165307
  0
ARC
  5
30D
100
AcDbEntity
  8
0
100
AcDbCircle
 62
7
  6
CONTINUOUS
 10
12.5133291735
 20
2.5895571688
 40
0.0024752003
100
AcDbArc
 50
89.9983726451
 51
147.602165307
  0
ARC
  5
30E
100
AcDbEntity
  8
0
100
AcDbCircle
 62
7
  6
CONTINUOUS
 10
12.519613138
 20
2.5530463862
 40
0.0024750401
100
AcDbArc
 50
147.6063258012
 51
270.0025305754
  0
ARC
  5
30F
100
AcDbEntity
  8
0
100
AcDbCircle
 62
7
  6
CONTINUOUS
 10
12.2055050712
 20
2.5895573696
 40
0.0024749995
100
AcDbArc
 50
89.9999571957
 51
180.0000428043
  0
ARC
  5
310
100
AcDbEntity
  8
0
100
AcDbCircle
 62
7
  6
CONTINUOUS
 10
12.2055050712
 20
2.5697573549
 40
0.0024749995
100
AcDbArc
 50
179.9999571957
 51
270.0000428043
  0
ARC
  5
311
100
AcDbEntity
  8
0
100
AcDbCircle
 62
7
  6
CONTINUOUS
 10
12.2294470882
 20
2.5648073559
 40
0.0024749995
100
AcDbArc
 50
359.9999571957
 51
90.0000428043
  0
ARC
  5
312
100
AcDbEntity
  8
0
100
AcDbCircle
 62
7
  6
CONTINUOUS
 10
12.2949101208
 20
2.5648073559
 40
0.0024749995
100
AcDbArc
 50
89.9999571957
 51
180.0000428043
  0
ARC
  5
313
100
AcDbEntity
  8
0
100
AcDbCircle
 62
7
  6
CONTINUOUS
 10
12.2949101208
 20
2.5524323453
 40
0.0024749995
100
AcDbArc
 50
179.9999571957
 51
270.0000428043
  0
ARC
  5
314
100
AcDbEntity
  8
0
100
AcDbCircle
 62
7
  6
CONTINUOUS
 10
12.8362481229
 20
2.5358592748
 40
0.0024753014
100
AcDbArc
 50
226.3461263059
 51
0.0014637321
  0
ARC
  5
315
100
AcDbEntity
  8
0
100
AcDbCircle
 62
7
  6
CONTINUOUS
 10
12.7276876627
 20
2.5504984093
 40
0.0024753014
100
AcDbArc
 50
46.3461263059
 51
180.0014637321
  0
ARC
  5
316
100
AcDbEntity
  8
0
100
AcDbCircle
 62
7
  6
CONTINUOUS
 10
12.5516012439
 20
2.5184525341
 40
0.0024752071
100
AcDbArc
 50
270.0004896794
 51
32.9089806818
  0
ARC
  5
317
100
AcDbEntity
  8
0
100
AcDbCircle
 62
7
  6
CONTINUOUS
 10
12.7276873608
 20
2.5184523265
 40
0.0024749995
100
AcDbArc
 50
179.9999571957
 51
270.0000428043
  0
ARC
  5
318
100
AcDbEntity
  8
0
100
AcDbCircle
 62
7
  6
CONTINUOUS
 10
12.7480043758
 20
2.5135023274
 40
0.0024749995
100
AcDbArc
 50
359.9999571957
 51
90.0000428043
  0
ARC
  5
319
100
AcDbEntity
  8
0
100
AcDbCircle
 62
7
  6
CONTINUOUS
 10
12.6723403301
 20
2.5135023274
 40
0.0024749995
100
AcDbArc
 50
89.9999571957
 51
180.0000428043
  0
ARC
  5
31A
100
AcDbEntity
  8
0
100
AcDbCircle
 62
7
  6
CONTINUOUS
 10
12.6909873442
 20
2.5184523265
 40
0.0024749995
100
AcDbArc
 50
269.9999571957
 51
0.0000428043
  0
ARC
  5
31B
100
AcDbEntity
  8
0
100
AcDbCircle
 62
7
  6
CONTINUOUS
 10
12.6424313172
 20
2.5135023274
 40
0.0024749995
100
AcDbArc
 50
359.9999571957
 51
90.0000428043
  0
ARC
  5
31C
100
AcDbEntity
  8
0
100
AcDbCircle
 62
7
  6
CONTINUOUS
 10
12.6224154248
 20
2.518451368
 40
0.002474041
100
AcDbArc
 50
212.9056413127
 51
269.9972091756
  0
ARC
  5
31D
100
AcDbEntity
  8
0
100
AcDbCircle
 62
7
  6
CONTINUOUS
 10
12.8362484247
 20
2.5648073559
 40
0.0024749995
100
AcDbArc
 50
359.9999571957
 51
90.0000428043
  0
ARC
  5
31E
100
AcDbEntity
  8
0
100
AcDbCircle
 62
7
  6
CONTINUOUS
 10
12.8174724106
 20
2.5697573549
 40
0.0024749995
100
AcDbArc
 50
179.9999571957
 51
270.0000428043
  0
ARC
  5
31F
100
AcDbEntity
  8
0
100
AcDbCircle
 62
7
  6
CONTINUOUS
 10
12.8174724106
 20
2.5895573696
 40
0.0024749995
100
AcDbArc
 50
89.9999571957
 51
180.0000428043
  0
ARC
  5
320
100
AcDbEntity
  8
0
100
AcDbCircle
 62
7
  6
CONTINUOUS
 10
12.8914734553
 20
2.5895573696
 40
0.0024749995
100
AcDbArc
 50
359.9999571957
 51
90.0000428043
  0
ARC
  5
321
100
AcDbEntity
  8
0
100
AcDbCircle
 62
7
  6
CONTINUOUS
 10
12.8914734553
 20
2.5697573549
 40
0.0024749995
100
AcDbArc
 50
269.9999571957
 51
0.0000428043
  0
ARC
  5
322
100
AcDbEntity
  8
0
100
AcDbCircle
 62
7
  6
CONTINUOUS
 10
12.8735404417
 20
2.5648073559
 40
0.0024749995
100
AcDbArc
 50
89.9999571957
 51
180.0000428043
  0
ARC
  5
323
100
AcDbEntity
  8
0
100
AcDbCircle
 62
7
  6
CONTINUOUS
 10
12.6909873442
 20
2.5648073559
 40
0.0024749995
100
AcDbArc
 50
359.9999571957
 51
90.0000428043
  0
ARC
  5
324
100
AcDbEntity
  8
0
100
AcDbCircle
 62
7
  6
CONTINUOUS
 10
12.6723403301
 20
2.5697573549
 40
0.0024749995
100
AcDbArc
 50
179.9999571957
 51
270.0000428043
  0
ARC
  5
325
100
AcDbEntity
  8
0
100
AcDbCircle
 62
7
  6
CONTINUOUS
 10
12.6723403301
 20
2.5895573696
 40
0.0024749995
100
AcDbArc
 50
89.9999571957
 51
180.0000428043
  0
ARC
  5
326
100
AcDbEntity
  8
0
100
AcDbCircle
 62
7
  6
CONTINUOUS
 10
12.570504655
 20
2.589557409
 40
0.0024749602
100
AcDbArc
 50
32.9172174468
 51
90.0087853097
  0
ARC
  5
327
100
AcDbEntity
  8
0
100
AcDbCircle
 62
7
  6
CONTINUOUS
 10
12.7727985224
 20
2.5895582013
 40
0.0024741678
100
AcDbArc
 50
46.3477981899
 51
90.0031206038
  0
ARC
  5
328
100
AcDbEntity
  8
0
100
AcDbCircle
 62
7
  6
CONTINUOUS
 10
13.5463505148
 20
2.4094934586
 40
0.1825583387
100
AcDbArc
 50
79.8618509324
 51
89.1640948679
  0
ARC
  5
329
100
AcDbEntity
  8
0
100
AcDbCircle
 62
7
  6
CONTINUOUS
 10
13.5282557878
 20
2.4386010294
 40
0.117346916
100
AcDbArc
 50
58.614769177
 51
62.3737227606
  0
ARC
  5
32A
100
AcDbEntity
  8
0
100
AcDbCircle
 62
7
  6
CONTINUOUS
 10
13.5571178432
 20
2.509473798
 40
0.0459185159
100
AcDbArc
 50
15.6740290068
 51
20.9917271228
  0
ARC
  5
32B
100
AcDbEntity
  8
0
100
AcDbCircle
 62
7
  6
CONTINUOUS
 10
13.4974076135
 20
2.5055452462
 40
0.0396099176
100
AcDbArc
 50
14.3201081283
 51
22.4984722084
  0
ARC
  5
32C
100
AcDbEntity
  8
0
100
AcDbCircle
 62
7
  6
CONTINUOUS
 10
13.5161192671
 20
2.5062372524
 40
0.0243676582
100
AcDbArc
 50
63.3666028271
 51
90.3937697637
  0
ARC
  5
32D
100
AcDbEntity
  8
0
100
AcDbCircle
 62
7
  6
CONTINUOUS
 10
13.6036139387
 20
2.5111006186
 40
0.0198837666
100
AcDbArc
 50
271.8586572978
 51
289.4131338543
  0
ARC
  5
32E
100
AcDbEntity
  8
0
100
AcDbCircle
 62
7
  6
CONTINUOUS
 10
13.5577001432
 20
2.5085494649
 40
0.0173408616
100
AcDbArc
 50
232.4713476722
 51
267.338189944
  0
ARC
  5
32F
100
AcDbEntity
  8
0
100
AcDbCircle
 62
7
  6
CONTINUOUS
 10
13.5130038
 20
2.4937023128
 40
0.0024749995
100
AcDbArc
 50
269.9999571957
 51
0.0000428043
  0
ARC
  5
330
100
AcDbEntity
  8
0
100
AcDbCircle
 62
7
  6
CONTINUOUS
 10
13.3994327333
 20
2.4937023128
 40
0.0024749995
100
AcDbArc
 50
179.9999571957
 51
270.0000428043
  0
ARC
  5
331
100
AcDbEntity
  8
0
100
AcDbCircle
 62
7
  6
CONTINUOUS
 10
13.1168435803
 20
2.4937023128
 40
0.0024749995
100
AcDbArc
 50
269.9999571957
 51
0.0000428043
  0
ARC
  5
332
100
AcDbEntity
  8
0
100
AcDbCircle
 62
7
  6
CONTINUOUS
 10
12.9962575135
 20
2.4937023128
 40
0.0024749995
100
AcDbArc
 50
269.9999571957
 51
0.0000428043
  0
ARC
  5
333
100
AcDbEntity
  8
0
100
AcDbCircle
 62
7
  6
CONTINUOUS
 10
12.9205934678
 20
2.4937023128
 40
0.0024749995
100
AcDbArc
 50
179.9999571957
 51
270.0000428043
  0
ARC
  5
334
100
AcDbEntity
  8
0
100
AcDbCircle
 62
7
  6
CONTINUOUS
 10
13.370528721
 20
2.4937023128
 40
0.0024749995
100
AcDbArc
 50
269.9999571957
 51
0.0000428043
  0
ARC
  5
335
100
AcDbEntity
  8
0
100
AcDbCircle
 62
7
  6
CONTINUOUS
 10
13.1673166046
 20
2.4937023128
 40
0.0024749995
100
AcDbArc
 50
179.9999571957
 51
270.0000428043
  0
ARC
  5
336
100
AcDbEntity
  8
0
100
AcDbCircle
 62
7
  6
CONTINUOUS
 10
13.0426374026
 20
2.493701481
 40
0.0024741678
100
AcDbArc
 50
226.3477981898
 51
270.0031206038
  0
ARC
  5
337
100
AcDbEntity
  8
0
100
AcDbCircle
 62
7
  6
CONTINUOUS
 10
13.0845012605
 20
2.5358592748
 40
0.0024753014
100
AcDbArc
 50
226.3461263059
 51
0.0014637321
  0
ARC
  5
338
100
AcDbEntity
  8
0
100
AcDbCircle
 62
7
  6
CONTINUOUS
 10
12.9759408003
 20
2.5504984093
 40
0.0024753014
100
AcDbArc
 50
46.3461263059
 51
180.0014637321
  0
ARC
  5
339
100
AcDbEntity
  8
0
100
AcDbCircle
 62
7
  6
CONTINUOUS
 10
12.9759404985
 20
2.5184523265
 40
0.0024749995
100
AcDbArc
 50
179.9999571957
 51
270.0000428043
  0
ARC
  5
33A
100
AcDbEntity
  8
0
100
AcDbCircle
 62
7
  6
CONTINUOUS
 10
12.9962575135
 20
2.5135023274
 40
0.0024749995
100
AcDbArc
 50
359.9999571957
 51
90.0000428043
  0
ARC
  5
33B
100
AcDbEntity
  8
0
100
AcDbCircle
 62
7
  6
CONTINUOUS
 10
12.9205934678
 20
2.5135023274
 40
0.0024749995
100
AcDbArc
 50
89.9999571957
 51
180.0000428042
  0
ARC
  5
33C
100
AcDbEntity
  8
0
100
AcDbCircle
 62
7
  6
CONTINUOUS
 10
12.9392394818
 20
2.5184523265
 40
0.0024749995
100
AcDbArc
 50
269.9999571957
 51
0.0000428043
  0
ARC
  5
33D
100
AcDbEntity
  8
0
100
AcDbCircle
 62
7
  6
CONTINUOUS
 10
13.2582556551
 20
2.5300023366
 40
0.0024749995
100
AcDbArc
 50
89.9999571957
 51
180.0000428043
  0
ARC
  5
33E
100
AcDbEntity
  8
0
100
AcDbCircle
 62
7
  6
CONTINUOUS
 10
13.2582556551
 20
2.5184523265
 40
0.0024749995
100
AcDbArc
 50
179.9999571957
 51
270.0000428043
  0
ARC
  5
33F
100
AcDbEntity
  8
0
100
AcDbCircle
 62
7
  6
CONTINUOUS
 10
13.1673166046
 20
2.5135023274
 40
0.0024749995
100
AcDbArc
 50
89.9999571957
 51
180.0000428043
  0
ARC
  5
340
100
AcDbEntity
  8
0
100
AcDbCircle
 62
7
  6
CONTINUOUS
 10
13.1912396216
 20
2.5184523265
 40
0.0024749995
100
AcDbArc
 50
269.9999571957
 51
0.0000428042
  0
ARC
  5
341
100
AcDbEntity
  8
0
100
AcDbCircle
 62
7
  6
CONTINUOUS
 10
13.2582556551
 20
2.5532573458
 40
0.0024749995
100
AcDbArc
 50
179.9999571957
 51
270.0000428043
  0
ARC
  5
342
100
AcDbEntity
  8
0
100
AcDbCircle
 62
7
  6
CONTINUOUS
 10
13.0845015624
 20
2.5648073559
 40
0.0024749995
100
AcDbArc
 50
359.9999571957
 51
90.0000428043
  0
ARC
  5
343
100
AcDbEntity
  8
0
100
AcDbCircle
 62
7
  6
CONTINUOUS
 10
13.0657255483
 20
2.5697573549
 40
0.0024749995
100
AcDbArc
 50
179.9999571957
 51
270.0000428043
  0
ARC
  5
344
100
AcDbEntity
  8
0
100
AcDbCircle
 62
7
  6
CONTINUOUS
 10
13.0657255483
 20
2.5895573696
 40
0.0024749995
100
AcDbArc
 50
89.9999571957
 51
180.0000428043
  0
ARC
  5
345
100
AcDbEntity
  8
0
100
AcDbCircle
 62
7
  6
CONTINUOUS
 10
13.139726593
 20
2.5895573696
 40
0.0024749995
100
AcDbArc
 50
359.9999571957
 51
90.0000428043
  0
ARC
  5
346
100
AcDbEntity
  8
0
100
AcDbCircle
 62
7
  6
CONTINUOUS
 10
13.139726593
 20
2.5697573549
 40
0.0024749995
100
AcDbArc
 50
269.9999571957
 51
0.0000428042
  0
ARC
  5
347
100
AcDbEntity
  8
0
100
AcDbCircle
 62
7
  6
CONTINUOUS
 10
13.1217935794
 20
2.5648073559
 40
0.0024749995
100
AcDbArc
 50
89.9999571957
 51
180.0000428042
  0
ARC
  5
348
100
AcDbEntity
  8
0
100
AcDbCircle
 62
7
  6
CONTINUOUS
 10
12.9392394818
 20
2.5648073559
 40
0.0024749995
100
AcDbArc
 50
359.9999571957
 51
90.0000428043
  0
ARC
  5
349
100
AcDbEntity
  8
0
100
AcDbCircle
 62
7
  6
CONTINUOUS
 10
12.9205934678
 20
2.5697573549
 40
0.0024749995
100
AcDbArc
 50
179.9999571957
 51
270.0000428043
  0
ARC
  5
34A
100
AcDbEntity
  8
0
100
AcDbCircle
 62
7
  6
CONTINUOUS
 10
12.9205934678
 20
2.5895573696
 40
0.0024749995
100
AcDbArc
 50
89.9999571957
 51
180.0000428042
  0
ARC
  5
34B
100
AcDbEntity
  8
0
100
AcDbCircle
 62
7
  6
CONTINUOUS
 10
13.1912396216
 20
2.5648073559
 40
0.0024749995
100
AcDbArc
 50
359.9999571957
 51
90.0000428043
  0
ARC
  5
34C
100
AcDbEntity
  8
0
100
AcDbCircle
 62
7
  6
CONTINUOUS
 10
13.1673166046
 20
2.5697573549
 40
0.0024749995
100
AcDbArc
 50
179.9999571957
 51
270.0000428043
  0
ARC
  5
34D
100
AcDbEntity
  8
0
100
AcDbCircle
 62
7
  6
CONTINUOUS
 10
13.1673166046
 20
2.5895573696
 40
0.0024749995
100
AcDbArc
 50
89.9999571957
 51
180.0000428043
  0
ARC
  5
34E
100
AcDbEntity
  8
0
100
AcDbCircle
 62
7
  6
CONTINUOUS
 10
13.2582556551
 20
2.5648073559
 40
0.0024749995
100
AcDbArc
 50
89.9999571957
 51
180.0000428043
  0
ARC
  5
34F
100
AcDbEntity
  8
0
100
AcDbCircle
 62
7
  6
CONTINUOUS
 10
13.0210516601
 20
2.5895582013
 40
0.0024741678
100
AcDbArc
 50
46.3477981899
 51
90.0031206038
  0
ARC
  5
350
100
AcDbEntity
  8
0
100
AcDbCircle
 62
7
  6
CONTINUOUS
 10
13.5806801742
 20
2.5212486481
 40
0.044722495
100
AcDbArc
 50
195.531588407
 51
204.7624440448
  0
ARC
  5
351
100
AcDbEntity
  8
0
100
AcDbCircle
 62
7
  6
CONTINUOUS
 10
13.5726548052
 20
2.5503169747
 40
0.039319019
100
AcDbArc
 50
59.1202086415
 51
81.4730239328
  0
ARC
  5
352
100
AcDbEntity
  8
0
100
AcDbCircle
 62
7
  6
CONTINUOUS
 10
13.5978759713
 20
2.5286873679
 40
0.0383802683
100
AcDbArc
 50
288.7656836787
 51
309.6104317088
  0
ARC
  5
353
100
AcDbEntity
  8
0
100
AcDbCircle
 62
7
  6
CONTINUOUS
 10
13.5783142014
 20
2.5566516438
 40
0.0310192946
100
AcDbArc
 50
34.7540871
 51
62.0879016178
  0
ARC
  5
354
100
AcDbEntity
  8
0
100
AcDbCircle
 62
7
  6
CONTINUOUS
 10
13.5236009174
 20
2.5388278764
 40
0.0284963867
100
AcDbArc
 50
70.3834917948
 51
86.8922743861
  0
ARC
  5
355
100
AcDbEntity
  8
0
100
AcDbCircle
 62
7
  6
CONTINUOUS
 10
13.6048681567
 20
2.5210861501
 40
0.0280715479
100
AcDbArc
 50
308.5071794988
 51
332.24006569
  0
ARC
  5
356
100
AcDbEntity
  8
0
100
AcDbCircle
 62
7
  6
CONTINUOUS
 10
13.5750183849
 20
2.5166552064
 40
0.0266349791
100
AcDbArc
 50
20.3630922153
 51
37.9727053099
  0
ARC
  5
357
100
AcDbEntity
  8
0
100
AcDbCircle
 62
7
  6
CONTINUOUS
 10
13.5761387404
 20
2.5167282896
 40
0.0257145923
100
AcDbArc
 50
39.3804255939
 51
59.0361096173
  0
ARC
  5
358
100
AcDbEntity
  8
0
100
AcDbCircle
 62
7
  6
CONTINUOUS
 10
13.5607987082
 20
2.5143997688
 40
0.0238935861
100
AcDbArc
 50
209.8247607259
 51
235.1255079367
  0
ARC
  5
359
100
AcDbEntity
  8
0
100
AcDbCircle
 62
7
  6
CONTINUOUS
 10
13.6141751675
 20
2.5161916447
 40
0.0175560065
100
AcDbArc
 50
332.2279060967
 51
359.6595469939
  0
ARC
  5
35A
100
AcDbEntity
  8
0
100
AcDbCircle
 62
7
  6
CONTINUOUS
 10
13.5201739219
 20
2.5145168728
 40
0.0151491919
100
AcDbArc
 50
24.098260853
 51
63.0369451818
  0
ARC
  5
35B
100
AcDbEntity
  8
0
100
AcDbCircle
 62
7
  6
CONTINUOUS
 10
13.6156881783
 20
2.525116781
 40
0.0147197649
100
AcDbArc
 50
192.7054516565
 51
206.0594861022
  0
ARC
  5
35C
100
AcDbEntity
  8
0
100
AcDbCircle
 62
7
  6
CONTINUOUS
 10
13.5284605274
 20
2.5518696094
 40
0.0145814632
100
AcDbArc
 50
54.6746025112
 51
71.1660573124
  0
ARC
  5
35D
100
AcDbEntity
  8
0
100
AcDbCircle
 62
7
  6
CONTINUOUS
 10
13.6063292954
 20
2.5296129864
 40
0.0132488022
100
AcDbArc
 50
270.266200055
 51
281.2404888597
  0
ARC
  5
35E
100
AcDbEntity
  8
0
100
AcDbCircle
 62
7
  6
CONTINUOUS
 10
13.6027235414
 20
2.524769508
 40
0.0119498009
100
AcDbArc
 50
340.7883861657
 51
1.1691452593
  0
ARC
  5
35F
100
AcDbEntity
  8
0
100
AcDbCircle
 62
7
  6
CONTINUOUS
 10
13.5295131508
 20
2.5629115009
 40
0.0110815393
100
AcDbArc
 50
306.758405961
 51
320.4502234234
  0
ARC
  5
360
100
AcDbEntity
  8
0
100
AcDbCircle
 62
7
  6
CONTINUOUS
 10
13.6075235364
 20
2.5238762928
 40
0.0073895522
100
AcDbArc
 50
280.8288201977
 51
305.0837508495
  0
ARC
  5
361
100
AcDbEntity
  8
0
100
AcDbCircle
 62
7
  6
CONTINUOUS
 10
13.607924718
 20
2.5230254464
 40
0.0064647042
100
AcDbArc
 50
306.5086174083
 51
340.2162360092
  0
ARC
  5
362
100
AcDbEntity
  8
0
100
AcDbCircle
 62
7
  6
CONTINUOUS
 10
13.5335900184
 20
2.5587235346
 40
0.0060275915
100
AcDbArc
 50
20.9055592135
 51
56.7851676243
  0
ARC
  5
363
100
AcDbEntity
  8
0
100
AcDbCircle
 62
7
  6
CONTINUOUS
 10
13.533683767
 20
2.559677593
 40
0.0058087709
100
AcDbArc
 50
318.8515287446
 51
353.6422345323
  0
ARC
  5
364
100
AcDbEntity
  8
0
100
AcDbCircle
 62
7
  6
CONTINUOUS
 10
13.6071938412
 20
2.5209082945
 40
0.0052403997
100
AcDbArc
 50
205.5232099488
 51
227.5054868079
  0
ARC
  5
365
100
AcDbEntity
  8
0
100
AcDbCircle
 62
7
  6
CONTINUOUS
 10
13.5348905773
 20
2.5593838168
 40
0.0045795888
100
AcDbArc
 50
355.6235353944
 51
18.9942678268
  0
ARC
  5
366
100
AcDbEntity
  8
0
100
AcDbCircle
 62
7
  6
CONTINUOUS
 10
13.6054655419
 20
2.5190929218
 40
0.0027347709
100
AcDbArc
 50
228.5117626737
 51
266.1485845754
  0
ARC
  5
367
100
AcDbEntity
  8
0
100
AcDbCircle
 62
7
  6
CONTINUOUS
 10
13.4883447827
 20
2.5281293355
 40
0.0024749995
100
AcDbArc
 50
89.9999571957
 51
180.0000428043
  0
ARC
  5
368
100
AcDbEntity
  8
0
100
AcDbCircle
 62
7
  6
CONTINUOUS
 10
13.4883447827
 20
2.5184303265
 40
0.0024749995
100
AcDbArc
 50
179.9999571957
 51
270.0000428043
  0
ARC
  5
369
100
AcDbEntity
  8
0
100
AcDbCircle
 62
7
  6
CONTINUOUS
 10
13.5130038
 20
2.5134803274
 40
0.0024749995
100
AcDbArc
 50
359.9999571957
 51
90.0000428043
  0
ARC
  5
36A
100
AcDbEntity
  8
0
100
AcDbCircle
 62
7
  6
CONTINUOUS
 10
13.3994327333
 20
2.5135023274
 40
0.0024749995
100
AcDbArc
 50
89.9999571957
 51
180.0000428043
  0
ARC
  5
36B
100
AcDbEntity
  8
0
100
AcDbCircle
 62
7
  6
CONTINUOUS
 10
13.4221787497
 20
2.5184523265
 40
0.0024749995
100
AcDbArc
 50
269.9999571957
 51
0.0000428042
  0
ARC
  5
36C
100
AcDbEntity
  8
0
100
AcDbCircle
 62
7
  6
CONTINUOUS
 10
13.6171458541
 20
2.5276393353
 40
0.0024749995
100
AcDbArc
 50
89.9999571957
 51
180.0000428043
  0
ARC
  5
36D
100
AcDbEntity
  8
0
100
AcDbCircle
 62
7
  6
CONTINUOUS
 10
13.6292558645
 20
2.5276393353
 40
0.0024749995
100
AcDbArc
 50
359.9999571957
 51
90.0000428043
  0
ARC
  5
36E
100
AcDbEntity
  8
0
100
AcDbCircle
 62
7
  6
CONTINUOUS
 10
13.4883447827
 20
2.5520823451
 40
0.0024749995
100
AcDbArc
 50
179.9999571957
 51
270.0000428043
  0
ARC
  5
36F
100
AcDbEntity
  8
0
100
AcDbCircle
 62
7
  6
CONTINUOUS
 10
13.3232596948
 20
2.5184523265
 40
0.0024749995
100
AcDbArc
 50
269.9999571957
 51
0.0000428043
  0
ARC
  5
370
100
AcDbEntity
  8
0
100
AcDbCircle
 62
7
  6
CONTINUOUS
 10
13.3282096938
 20
2.5267023348
 40
0.0024749995
100
AcDbArc
 50
89.9999571957
 51
180.0000428043
  0
ARC
  5
371
100
AcDbEntity
  8
0
100
AcDbCircle
 62
7
  6
CONTINUOUS
 10
13.370528721
 20
2.5267023348
 40
0.0024749995
100
AcDbArc
 50
359.9999571957
 51
90.0000428043
  0
ARC
  5
372
100
AcDbEntity
  8
0
100
AcDbCircle
 62
7
  6
CONTINUOUS
 10
13.3691097202
 20
2.5565573476
 40
0.0024749995
100
AcDbArc
 50
269.9999571957
 51
0.0000428042
  0
ARC
  5
373
100
AcDbEntity
  8
0
100
AcDbCircle
 62
7
  6
CONTINUOUS
 10
13.3272456933
 20
2.5565573476
 40
0.0024749995
100
AcDbArc
 50
179.9999571957
 51
270.0000428043
  0
ARC
  5
374
100
AcDbEntity
  8
0
100
AcDbCircle
 62
7
  6
CONTINUOUS
 10
13.2934226783
 20
2.5483073467
 40
0.0024749995
100
AcDbArc
 50
359.9999571957
 51
90.0000428043
  0
ARC
  5
375
100
AcDbEntity
  8
0
100
AcDbCircle
 62
7
  6
CONTINUOUS
 10
13.2934226783
 20
2.5349523356
 40
0.0024749995
100
AcDbArc
 50
269.9999571957
 51
0.0000428042
  0
ARC
  5
376
100
AcDbEntity
  8
0
100
AcDbCircle
 62
7
  6
CONTINUOUS
 10
13.5519569538
 20
2.6152551345
 40
0.0789082104
100
AcDbArc
 50
292.906155071
 51
305.2574666259
  0
ARC
  5
377
100
AcDbEntity
  8
0
100
AcDbCircle
 62
7
  6
CONTINUOUS
 10
13.5822888914
 20
2.5720482849
 40
0.0261183659
100
AcDbArc
 50
305.6373831893
 51
329.9727629745
  0
ARC
  5
378
100
AcDbEntity
  8
0
100
AcDbCircle
 62
7
  6
CONTINUOUS
 10
13.5219564542
 20
2.5750459767
 40
0.0254407115
100
AcDbArc
 50
270.7327484175
 51
290.441894219
  0
ARC
  5
379
100
AcDbEntity
  8
0
100
AcDbCircle
 62
7
  6
CONTINUOUS
 10
13.5238839599
 20
2.5706523294
 40
0.0206523367
100
AcDbArc
 50
289.6883413472
 51
306.4184925496
  0
ARC
  5
37A
100
AcDbEntity
  8
0
100
AcDbCircle
 62
7
  6
CONTINUOUS
 10
13.5900029525
 20
2.565201245
 40
0.0165459396
100
AcDbArc
 50
1.548452892
 51
33.5033152417
  0
ARC
  5
37B
100
AcDbEntity
  8
0
100
AcDbCircle
 62
7
  6
CONTINUOUS
 10
13.5932995477
 20
2.5653696972
 40
0.0132462337
100
AcDbArc
 50
331.1510006998
 51
1.205404301
  0
ARC
  5
37C
100
AcDbEntity
  8
0
100
AcDbCircle
 62
7
  6
CONTINUOUS
 10
13.4221787497
 20
2.5648073559
 40
0.0024749995
100
AcDbArc
 50
359.9999571957
 51
90.0000428043
  0
ARC
  5
37D
100
AcDbEntity
  8
0
100
AcDbCircle
 62
7
  6
CONTINUOUS
 10
13.3994327333
 20
2.5697573549
 40
0.0024749995
100
AcDbArc
 50
179.9999571957
 51
270.0000428043
  0
ARC
  5
37E
100
AcDbEntity
  8
0
100
AcDbCircle
 62
7
  6
CONTINUOUS
 10
13.3994327333
 20
2.5895573696
 40
0.0024749995
100
AcDbArc
 50
89.9999571957
 51
180.0000428043
  0
ARC
  5
37F
100
AcDbEntity
  8
0
100
AcDbCircle
 62
7
  6
CONTINUOUS
 10
13.4883447827
 20
2.5648073559
 40
0.0024749995
100
AcDbArc
 50
89.9999571957
 51
180.0000428043
  0
ARC
  5
380
100
AcDbEntity
  8
0
100
AcDbCircle
 62
7
  6
CONTINUOUS
 10
13.3691097202
 20
2.5895573696
 40
0.0024749995
100
AcDbArc
 50
359.9999571957
 51
90.0000428043
  0
ARC
  5
381
100
AcDbEntity
  8
0
100
AcDbCircle
 62
7
  6
CONTINUOUS
 10
13.3222956943
 20
2.5648073559
 40
0.0024749995
100
AcDbArc
 50
359.9999571957
 51
90.0000428043
  0
ELLIPSE
  5
382
100
AcDbEntity
  8
0
100
AcDbEllipse
 62
7
  6
CONTINUOUS
 10
12.9046654608
 20
2.5403783405
 30
0.0
 11
-0.8250004575
 21
0.0
 31
0.0
 40
0.218572
 41
0.0
 42
6.2831853072
  0
HATCH
  5
383
100
AcDbEntity
  8
0
100
AcDbHatch
 62
7
  6
CONTINUOUS
 10
0.0
 20
0.0
 30
0.0
210
0.0
220
0.0
230
1.0
  2
XSEC0001
 70
1
 71
1
 91
11
 92
1
 93
57
 72
2
 10
13.5577001432
 20
2.5085494649
 40
0.0173408616
 50
232.4713476722
 51
267.338189944
 73
1
 72
2
 10
13.5607987082
 20
2.5143997688
 40
0.0238935861
 50
209.8247607259
 51
235.1255079367
 73
1
 72
2
 10
13.5806801742
 20
2.5212486481
 40
0.044722495
 50
195.531588407
 51
204.7624440448
 73
1
 72
1
 10
13.5375908118
 20
2.5092733232
 11
13.5357868108
 21
2.5153423266
 72
2
 10
13.4974076135
 20
2.5055452462
 40
0.0396099176
 50
14.3201081283
 51
22.4984722084
 73
1
 72
2
 10
13.5201739219
 20
2.5145168728
 40
0.0151491919
 50
24.098260853
 51
63.0369451818
 73
1
 72
2
 10
13.5161192671
 20
2.5062372524
 40
0.0243676582
 50
63.3666028271
 51
90.3937697637
 73
1
 72
1
 10
13.5159517998
 20
2.5306043351
 11
13.4883447845
 21
2.5306043351
 72
2
 10
13.4883447827
 20
2.5281293355
 40
0.0024749995
 50
89.9999571958
 51
180.0000428043
 73
1
 72
1
 10
13.4858697831
 20
2.5281293337
 11
13.4858697831
 21
2.5184303283
 72
2
 10
13.4883447827
 20
2.5184303265
 40
0.0024749995
 50
179.9999571957
 51
270.0000428042
 73
1
 72
1
 10
13.4883447845
 20
2.5159553269
 11
13.5130037982
 21
2.5159553269
 72
2
 10
13.5130038
 20
2.5134803274
 40
0.0024749995
 50
359.9999571957
 51
90.0000428042
 73
1
 72
1
 10
13.5154787995
 20
2.5134803256
 11
13.5154787995
 21
2.4937023146
 72
2
 10
13.5130038
 20
2.4937023128
 40
0.0024749995
 50
269.9999571958
 51
0.0000428043
 73
1
 72
1
 10
13.5130037982
 20
2.4912273132
 11
13.3994327352
 21
2.4912273132
 72
2
 10
13.3994327333
 20
2.4937023128
 40
0.0024749995
 50
179.9999571957
 51
270.0000428043
 73
1
 72
1
 10
13.3969577338
 20
2.4937023146
 11
13.3969577338
 21
2.5135023256
 72
2
 10
13.3994327333
 20
2.5135023274
 40
0.0024749995
 50
89.9999571957
 51
180.0000428043
 73
1
 72
1
 10
13.3994327352
 20
2.515977327
 11
13.4221787478
 21
2.515977327
 72
2
 10
13.4221787497
 20
2.5184523265
 40
0.0024749995
 50
269.9999571956
 51
0.0000428042
 73
1
 72
1
 10
13.4246537492
 20
2.5184523283
 11
13.4246537492
 21
2.564807354
 72
2
 10
13.4221787497
 20
2.5648073559
 40
0.0024749995
 50
359.9999571957
 51
90.0000428043
 73
1
 72
1
 10
13.4221787478
 20
2.5672823554
 11
13.3994327352
 21
2.5672823554
 72
2
 10
13.3994327333
 20
2.5697573549
 40
0.0024749995
 50
179.9999571957
 51
270.0000428043
 73
1
 72
1
 10
13.3969577338
 20
2.5697573568
 11
13.3969577338
 21
2.5895573678
 72
2
 10
13.3994327333
 20
2.5895573696
 40
0.0024749995
 50
89.9999571957
 51
180.0000428043
 73
1
 72
1
 10
13.3994327352
 20
2.5920323691
 11
13.5490138181
 21
2.5920323691
 72
2
 10
13.5463505148
 20
2.4094934586
 40
0.1825583387
 50
79.8618509324
 51
89.1640948679
 73
1
 72
2
 10
13.5726548052
 20
2.5503169747
 40
0.039319019
 50
59.1202086415
 51
81.4730239328
 73
1
 72
2
 10
13.5783142014
 20
2.5566516438
 40
0.0310192946
 50
34.7540871
 51
62.0879016178
 73
1
 72
2
 10
13.5900029525
 20
2.565201245
 40
0.0165459396
 50
1.548452892
 51
33.5033152417
 73
1
 72
2
 10
13.5932995477
 20
2.5653696972
 40
0.0132462337
 50
331.1510006998
 51
1.205404301
 73
1
 72
2
 10
13.5822888914
 20
2.5720482849
 40
0.0261183659
 50
305.6373831893
 51
329.9727629745
 73
1
 72
2
 10
13.5519569538
 20
2.6152551345
 40
0.0789082104
 50
292.906155071
 51
305.2574666259
 73
1
 72
2
 10
13.5282557878
 20
2.4386010294
 40
0.117346916
 50
58.614769177
 51
62.3737227606
 73
1
 72
2
 10
13.5761387404
 20
2.5167282896
 40
0.0257145923
 50
39.3804255939
 51
59.0361096173
 73
1
 72
2
 10
13.5750183849
 20
2.5166552064
 40
0.0266349791
 50
20.3630922153
 51
37.9727053099
 73
1
 72
2
 10
13.5571178432
 20
2.509473798
 40
0.0459185159
 50
15.6740290068
 51
20.9917271228
 73
1
 72
2
 10
13.6156881783
 20
2.525116781
 40
0.0147197649
 50
192.7054516565
 51
206.0594861022
 73
1
 72
2
 10
13.6071938412
 20
2.5209082945
 40
0.0052403997
 50
205.5232099488
 51
227.5054868079
 73
1
 72
2
 10
13.6054655419
 20
2.5190929218
 40
0.0027347709
 50
228.5117626737
 51
266.1485845754
 73
1
 72
1
 10
13.6052818493
 20
2.5163643272
 11
13.60639085
 21
2.5163643272
 72
2
 10
13.6063292954
 20
2.5296129864
 40
0.0132488022
 50
270.266200055
 51
281.2404888597
 73
1
 72
2
 10
13.6075235364
 20
2.5238762928
 40
0.0073895522
 50
280.8288201977
 51
305.0837508495
 73
1
 72
2
 10
13.607924718
 20
2.5230254464
 40
0.0064647042
 50
306.5086174083
 51
340.2162360092
 73
1
 72
2
 10
13.6027235414
 20
2.524769508
 40
0.0119498009
 50
340.7883861657
 51
1.1691452593
 73
1
 72
1
 10
13.6146708546
 20
2.525013332
 11
13.6146708546
 21
2.5276393334
 72
2
 10
13.6171458541
 20
2.5276393353
 40
0.0024749995
 50
89.9999571958
 51
180.0000428043
 73
1
 72
1
 10
13.6171458559
 20
2.5301143348
 11
13.6292558626
 21
2.5301143348
 72
2
 10
13.6292558645
 20
2.5276393353
 40
0.0024749995
 50
359.9999571957
 51
90.0000428042
 73
1
 72
1
 10
13.631730864
 20
2.5276393334
 11
13.631730864
 21
2.516087327
 72
2
 10
13.6141751675
 20
2.5161916447
 40
0.0175560065
 50
332.2279060967
 51
359.6595469939
 73
1
 72
2
 10
13.6048681567
 20
2.5210861501
 40
0.0280715479
 50
308.5071794988
 51
332.2400656899
 73
1
 72
2
 10
13.5978759713
 20
2.5286873679
 40
0.0383802683
 50
288.7656836787
 51
309.6104317088
 73
1
 72
2
 10
13.6036139387
 20
2.5111006186
 40
0.0198837666
 50
271.8586572978
 51
289.4131338543
 73
1
 72
1
 10
13.6042588488
 20
2.4912273132
 11
13.5568948225
 21
2.4912273132
 97
267
330
278
330
279
330
27A
330
27B
330
27C
330
27D
330
27E
330
27F
330
280
330
281
330
282
330
283
330
284
330
285
330
286
330
287
330
288
330
289
330
28A
330
28B
330
28C
330
28D
330
28E
330
28F
330
290
330
291
330
292
330
293
330
294
330
295
330
296
330
297
330
298
330
299
330
29A
330
29B
330
29C
330
29D
330
29E
330
29F
330
2A0
330
2A1
330
2A2
330
2A3
330
2A4
330
2A5
330
2A6
330
2A7
330
2A8
330
2A9
330
2AA
330
2AB
330
2AC
330
2AD
330
2AE
330
2AF
330
2B0
330
2B1
330
2B2
330
2B3
330
2B4
330
2B5
330
2B6
330
2B7
330
2B8
330
2B9
330
2BA
330
2BB
330
2BC
330
2BD
330
2BE
330
2BF
330
2C0
330
2C1
330
2C2
330
2C3
330
2C4
330
2C5
330
2C6
330
2C7
330
2C8
330
2C9
330
2CA
330
2CB
330
2CC
330
2CD
330
2CE
330
2CF
330
2D0
330
2D1
330
2D2
330
2D3
330
2D4
330
2D5
330
2D6
330
2D7
330
2D8
330
2D9
330
2DA
330
2DB
330
2DC
330
2DD
330
2DE
330
2DF
330
2E0
330
2E1
330
2E2
330
2E3
330
2E4
330
2E5
330
2E6
330
2E7
330
2E8
330
2E9
330
2EA
330
2EB
330
2EC
330
2ED
330
2EE
330
2EF
330
2F0
330
2F1
330
2F2
330
2F3
330
2F4
330
2F5
330
2F6
330
2F7
330
2F8
330
2F9
330
2FA
330
2FB
330
2FC
330
2FD
330
2FE
330
2FF
330
300
330
301
330
302
330
303
330
304
330
305
330
306
330
307
330
308
330
309
330
30A
330
30B
330
30C
330
30D
330
30E
330
30F
330
310
330
311
330
312
330
313
330
314
330
315
330
316
330
317
330
318
330
319
330
31A
330
31B
330
31C
330
31D
330
31E
330
31F
330
320
330
321
330
322
330
323
330
324
330
325
330
326
330
327
330
328
330
329
330
32A
330
32B
330
32C
330
32D
330
32E
330
32F
330
330
330
331
330
332
330
333
330
334
330
335
330
336
330
337
330
338
330
339
330
33A
330
33B
330
33C
330
33D
330
33E
330
33F
330
340
330
341
330
342
330
343
330
344
330
345
330
346
330
347
330
348
330
349
330
34A
330
34B
330
34C
330
34D
330
34E
330
34F
330
350
330
351
330
352
330
353
330
354
330
355
330
356
330
357
330
358
330
359
330
35A
330
35B
330
35C
330
35D
330
35E
330
35F
330
360
330
361
330
362
330
363
330
364
330
365
330
366
330
367
330
368
330
369
330
36A
330
36B
330
36C
330
36D
330
36E
330
36F
330
370
330
371
330
372
330
373
330
374
330
375
330
376
330
377
330
378
330
379
330
37A
330
37B
330
37C
330
37D
330
37E
330
37F
330
380
330
381
330
382
 92
1
 93
40
 72
2
 10
13.1673166046
 20
2.4937023128
 40
0.0024749995
 50
179.9999571957
 51
270.0000428042
 73
1
 72
1
 10
13.1648416051
 20
2.4937023146
 11
13.1648416051
 21
2.5135023256
 72
2
 10
13.1673166046
 20
2.5135023274
 40
0.0024749995
 50
89.9999571958
 51
180.0000428043
 73
1
 72
1
 10
13.1673166065
 20
2.515977327
 11
13.1912396197
 21
2.515977327
 72
2
 10
13.1912396216
 20
2.5184523265
 40
0.0024749995
 50
269.9999571956
 51
0.0000428042
 73
1
 72
1
 10
13.1937146211
 20
2.5184523283
 11
13.1937146211
 21
2.564807354
 72
2
 10
13.1912396216
 20
2.5648073559
 40
0.0024749995
 50
359.9999571957
 51
90.0000428043
 73
1
 72
1
 10
13.1912396197
 20
2.5672823554
 11
13.1673166065
 21
2.5672823554
 72
2
 10
13.1673166046
 20
2.5697573549
 40
0.0024749995
 50
179.9999571957
 51
270.0000428043
 73
1
 72
1
 10
13.1648416051
 20
2.5697573568
 11
13.1648416051
 21
2.5895573678
 72
2
 10
13.1673166046
 20
2.5895573696
 40
0.0024749995
 50
89.9999571958
 51
180.0000428043
 73
1
 72
1
 10
13.1673166065
 20
2.5920323691
 11
13.3691097184
 21
2.5920323691
 72
2
 10
13.3691097202
 20
2.5895573696
 40
0.0024749995
 50
359.9999571957
 51
90.0000428042
 73
1
 72
1
 10
13.3715847197
 20
2.5895573678
 11
13.3715847197
 21
2.5565573495
 72
2
 10
13.3691097202
 20
2.5565573476
 40
0.0024749995
 50
269.9999571956
 51
0.0000428042
 73
1
 72
1
 10
13.3691097184
 20
2.5540823481
 11
13.3272456952
 21
2.5540823481
 72
2
 10
13.3272456933
 20
2.5565573476
 40
0.0024749995
 50
179.9999571957
 51
270.0000428043
 73
1
 72
1
 10
13.3247706938
 20
2.5565573495
 11
13.3247706938
 21
2.564807354
 72
2
 10
13.3222956943
 20
2.5648073559
 40
0.0024749995
 50
359.9999571957
 51
90.0000428043
 73
1
 72
1
 10
13.3222956924
 20
2.5672823554
 11
13.2582556569
 21
2.5672823554
 72
2
 10
13.2582556551
 20
2.5648073559
 40
0.0024749995
 50
89.9999571957
 51
180.0000428043
 73
1
 72
1
 10
13.2557806555
 20
2.564807354
 11
13.2557806555
 21
2.5532573476
 72
2
 10
13.2582556551
 20
2.5532573458
 40
0.0024749995
 50
179.9999571957
 51
270.0000428042
 73
1
 72
1
 10
13.2582556569
 20
2.5507823463
 11
13.2934226764
 21
2.5507823463
 72
2
 10
13.2934226783
 20
2.5483073467
 40
0.0024749995
 50
359.9999571957
 51
90.0000428042
 73
1
 72
1
 10
13.2958976778
 20
2.5483073449
 11
13.2958976778
 21
2.5349523375
 72
2
 10
13.2934226783
 20
2.5349523356
 40
0.0024749995
 50
269.9999571956
 51
0.0000428042
 73
1
 72
1
 10
13.2934226764
 20
2.5324773361
 11
13.2582556569
 21
2.5324773361
 72
2
 10
13.2582556551
 20
2.5300023366
 40
0.0024749995
 50
89.9999571957
 51
180.0000428043
 73
1
 72
1
 10
13.2557806555
 20
2.5300023347
 11
13.2557806555
 21
2.5184523283
 72
2
 10
13.2582556551
 20
2.5184523265
 40
0.0024749995
 50
179.9999571957
 51
270.0000428043
 73
1
 72
1
 10
13.2582556569
 20
2.515977327
 11
13.3232596929
 21
2.515977327
 72
2
 10
13.3232596948
 20
2.5184523265
 40
0.0024749995
 50
269.9999571958
 51
0.0000428043
 73
1
 72
1
 10
13.3257346943
 20
2.5184523283
 11
13.3257346943
 21
2.5267023329
 72
2
 10
13.3282096938
 20
2.5267023348
 40
0.0024749995
 50
89.9999571957
 51
180.0000428043
 73
1
 72
1
 10
13.3282096957
 20
2.5291773343
 11
13.3705287192
 21
2.5291773343
 72
2
 10
13.370528721
 20
2.5267023348
 40
0.0024749995
 50
359.9999571957
 51
90.0000428043
 73
1
 72
1
 10
13.3730037205
 20
2.5267023329
 11
13.3730037205
 21
2.4937023146
 72
2
 10
13.370528721
 20
2.4937023128
 40
0.0024749995
 50
269.9999571957
 51
0.0000428043
 73
1
 72
1
 10
13.3705287192
 20
2.4912273132
 11
13.1673166065
 21
2.4912273132
 97
267
330
278
330
279
330
27A
330
27B
330
27C
330
27D
330
27E
330
27F
330
280
330
281
330
282
330
283
330
284
330
285
330
286
330
287
330
288
330
289
330
28A
330
28B
330
28C
330
28D
330
28E
330
28F
330
290
330
291
330
292
330
293
330
294
330
295
330
296
330
297
330
298
330
299
330
29A
330
29B
330
29C
330
29D
330
29E
330
29F
330
2A0
330
2A1
330
2A2
330
2A3
330
2A4
330
2A5
330
2A6
330
2A7
330
2A8
330
2A9
330
2AA
330
2AB
330
2AC
330
2AD
330
2AE
330
2AF
330
2B0
330
2B1
330
2B2
330
2B3
330
2B4
330
2B5
330
2B6
330
2B7
330
2B8
330
2B9
330
2BA
330
2BB
330
2BC
330
2BD
330
2BE
330
2BF
330
2C0
330
2C1
330
2C2
330
2C3
330
2C4
330
2C5
330
2C6
330
2C7
330
2C8
330
2C9
330
2CA
330
2CB
330
2CC
330
2CD
330
2CE
330
2CF
330
2D0
330
2D1
330
2D2
330
2D3
330
2D4
330
2D5
330
2D6
330
2D7
330
2D8
330
2D9
330
2DA
330
2DB
330
2DC
330
2DD
330
2DE
330
2DF
330
2E0
330
2E1
330
2E2
330
2E3
330
2E4
330
2E5
330
2E6
330
2E7
330
2E8
330
2E9
330
2EA
330
2EB
330
2EC
330
2ED
330
2EE
330
2EF
330
2F0
330
2F1
330
2F2
330
2F3
330
2F4
330
2F5
330
2F6
330
2F7
330
2F8
330
2F9
330
2FA
330
2FB
330
2FC
330
2FD
330
2FE
330
2FF
330
300
330
301
330
302
330
303
330
304
330
305
330
306
330
307
330
308
330
309
330
30A
330
30B
330
30C
330
30D
330
30E
330
30F
330
310
330
311
330
312
330
313
330
314
330
315
330
316
330
317
330
318
330
319
330
31A
330
31B
330
31C
330
31D
330
31E
330
31F
330
320
330
321
330
322
330
323
330
324
330
325
330
326
330
327
330
328
330
329
330
32A
330
32B
330
32C
330
32D
330
32E
330
32F
330
330
330
331
330
332
330
333
330
334
330
335
330
336
330
337
330
338
330
339
330
33A
330
33B
330
33C
330
33D
330
33E
330
33F
330
340
330
341
330
342
330
343
330
344
330
345
330
346
330
347
330
348
330
349
330
34A
330
34B
330
34C
330
34D
330
34E
330
34F
330
350
330
351
330
352
330
353
330
354
330
355
330
356
330
357
330
358
330
359
330
35A
330
35B
330
35C
330
35D
330
35E
330
35F
330
360
330
361
330
362
330
363
330
364
330
365
330
366
330
367
330
368
330
369
330
36A
330
36B
330
36C
330
36D
330
36E
330
36F
330
370
330
371
330
372
330
373
330
374
330
375
330
376
330
377
330
378
330
379
330
37A
330
37B
330
37C
330
37D
330
37E
330
37F
330
380
330
381
330
382
 92
1
 93
40
 72
2
 10
13.0426374026
 20
2.493701481
 40
0.0024741678
 50
226.3477981898
 51
270.0031206038
 73
1
 72
1
 10
13.0409295364
 20
2.4919113136
 11
12.9776495013
 21
2.5522893471
 72
2
 10
12.9759408003
 20
2.5504984093
 40
0.0024753014
 50
46.3461263059
 51
180.0014637321
 73
1
 72
1
 10
12.973465499
 20
2.5504983461
 11
12.973465499
 21
2.5184523283
 72
2
 10
12.9759404985
 20
2.5184523265
 40
0.0024749995
 50
179.9999571957
 51
270.0000428043
 73
1
 72
1
 10
12.9759405003
 20
2.515977327
 11
12.9962575116
 21
2.515977327
 72
2
 10
12.9962575135
 20
2.5135023274
 40
0.0024749995
 50
359.9999571957
 51
90.0000428043
 73
1
 72
1
 10
12.998732513
 20
2.5135023256
 11
12.998732513
 21
2.4937023146
 72
2
 10
12.9962575135
 20
2.4937023128
 40
0.0024749995
 50
269.9999571957
 51
0.0000428043
 73
1
 72
1
 10
12.9962575116
 20
2.4912273132
 11
12.9205934696
 21
2.4912273132
 72
2
 10
12.9205934678
 20
2.4937023128
 40
0.0024749995
 50
179.9999571957
 51
270.0000428043
 73
1
 72
1
 10
12.9181184683
 20
2.4937023146
 11
12.9181184683
 21
2.5135023256
 72
2
 10
12.9205934678
 20
2.5135023274
 40
0.0024749995
 50
89.9999571956
 51
180.0000428042
 73
1
 72
1
 10
12.9205934696
 20
2.515977327
 11
12.93923948
 21
2.515977327
 72
2
 10
12.9392394818
 20
2.5184523265
 40
0.0024749995
 50
269.9999571957
 51
0.0000428043
 73
1
 72
1
 10
12.9417144814
 20
2.5184523283
 11
12.9417144814
 21
2.564807354
 72
2
 10
12.9392394818
 20
2.5648073559
 40
0.0024749995
 50
359.9999571957
 51
90.0000428043
 73
1
 72
1
 10
12.93923948
 20
2.5672823554
 11
12.9205934696
 21
2.5672823554
 72
2
 10
12.9205934678
 20
2.5697573549
 40
0.0024749995
 50
179.9999571957
 51
270.0000428043
 73
1
 72
1
 10
12.9181184683
 20
2.5697573568
 11
12.9181184683
 21
2.5895573678
 72
2
 10
12.9205934678
 20
2.5895573696
 40
0.0024749995
 50
89.9999571956
 51
180.0000428042
 73
1
 72
1
 10
12.9205934696
 20
2.5920323691
 11
13.0210515254
 21
2.5920323691
 72
2
 10
13.0210516601
 20
2.5895582013
 40
0.0024741678
 50
46.3477981898
 51
90.0031206038
 73
1
 72
1
 10
13.0227595263
 20
2.5913483688
 11
13.0827925596
 21
2.534068337
 72
2
 10
13.0845012605
 20
2.5358592748
 40
0.0024753014
 50
226.3461263059
 51
0.0014637321
 73
1
 72
1
 10
13.0869765619
 20
2.535859338
 11
13.0869765619
 21
2.564807354
 72
2
 10
13.0845015624
 20
2.5648073559
 40
0.0024749995
 50
359.9999571957
 51
90.0000428043
 73
1
 72
1
 10
13.0845015605
 20
2.5672823554
 11
13.0657255501
 21
2.5672823554
 72
2
 10
13.0657255483
 20
2.5697573549
 40
0.0024749995
 50
179.9999571957
 51
270.0000428043
 73
1
 72
1
 10
13.0632505488
 20
2.5697573568
 11
13.0632505488
 21
2.5895573678
 72
2
 10
13.0657255483
 20
2.5895573696
 40
0.0024749995
 50
89.9999571957
 51
180.0000428043
 73
1
 72
1
 10
13.0657255501
 20
2.5920323691
 11
13.1397265912
 21
2.5920323691
 72
2
 10
13.139726593
 20
2.5895573696
 40
0.0024749995
 50
359.9999571957
 51
90.0000428043
 73
1
 72
1
 10
13.1422015925
 20
2.5895573678
 11
13.1422015925
 21
2.5697573568
 72
2
 10
13.139726593
 20
2.5697573549
 40
0.0024749995
 50
269.9999571956
 51
0.0000428042
 73
1
 72
1
 10
13.1397265912
 20
2.5672823554
 11
13.1217935812
 21
2.5672823554
 72
2
 10
13.1217935794
 20
2.5648073559
 40
0.0024749995
 50
89.9999571957
 51
180.0000428042
 73
1
 72
1
 10
13.1193185799
 20
2.564807354
 11
13.1193185799
 21
2.4937023146
 72
2
 10
13.1168435803
 20
2.4937023128
 40
0.0024749995
 50
269.9999571957
 51
0.0000428043
 73
1
 72
1
 10
13.1168435785
 20
2.4912273132
 11
13.0426375373
 21
2.4912273132
 97
267
330
278
330
279
330
27A
330
27B
330
27C
330
27D
330
27E
330
27F
330
280
330
281
330
282
330
283
330
284
330
285
330
286
330
287
330
288
330
289
330
28A
330
28B
330
28C
330
28D
330
28E
330
28F
330
290
330
291
330
292
330
293
330
294
330
295
330
296
330
297
330
298
330
299
330
29A
330
29B
330
29C
330
29D
330
29E
330
29F
330
2A0
330
2A1
330
2A2
330
2A3
330
2A4
330
2A5
330
2A6
330
2A7
330
2A8
330
2A9
330
2AA
330
2AB
330
2AC
330
2AD
330
2AE
330
2AF
330
2B0
330
2B1
330
2B2
330
2B3
330
2B4
330
2B5
330
2B6
330
2B7
330
2B8
330
2B9
330
2BA
330
2BB
330
2BC
330
2BD
330
2BE
330
2BF
330
2C0
330
2C1
330
2C2
330
2C3
330
2C4
330
2C5
330
2C6
330
2C7
330
2C8
330
2C9
330
2CA
330
2CB
330
2CC
330
2CD
330
2CE
330
2CF
330
2D0
330
2D1
330
2D2
330
2D3
330
2D4
330
2D5
330
2D6
330
2D7
330
2D8
330
2D9
330
2DA
330
2DB
330
2DC
330
2DD
330
2DE
330
2DF
330
2E0
330
2E1
330
2E2
330
2E3
330
2E4
330
2E5
330
2E6
330
2E7
330
2E8
330
2E9
330
2EA
330
2EB
330
2EC
330
2ED
330
2EE
330
2EF
330
2F0
330
2F1
330
2F2
330
2F3
330
2F4
330
2F5
330
2F6
330
2F7
330
2F8
330
2F9
330
2FA
330
2FB
330
2FC
330
2FD
330
2FE
330
2FF
330
300
330
301
330
302
330
303
330
304
330
305
330
306
330
307
330
308
330
309
330
30A
330
30B
330
30C
330
30D
330
30E
330
30F
330
310
330
311
330
312
330
313
330
314
330
315
330
316
330
317
330
318
330
319
330
31A
330
31B
330
31C
330
31D
330
31E
330
31F
330
320
330
321
330
322
330
323
330
324
330
325
330
326
330
327
330
328
330
329
330
32A
330
32B
330
32C
330
32D
330
32E
330
32F
330
330
330
331
330
332
330
333
330
334
330
335
330
336
330
337
330
338
330
339
330
33A
330
33B
330
33C
330
33D
330
33E
330
33F
330
340
330
341
330
342
330
343
330
344
330
345
330
346
330
347
330
348
330
349
330
34A
330
34B
330
34C
330
34D
330
34E
330
34F
330
350
330
351
330
352
330
353
330
354
330
355
330
356
330
357
330
358
330
359
330
35A
330
35B
330
35C
330
35D
330
35E
330
35F
330
360
330
361
330
362
330
363
330
364
330
365
330
366
330
367
330
368
330
369
330
36A
330
36B
330
36C
330
36D
330
36E
330
36F
330
370
330
371
330
372
330
373
330
374
330
375
330
376
330
377
330
378
330
379
330
37A
330
37B
330
37C
330
37D
330
37E
330
37F
330
380
330
381
330
382
 92
1
 93
40
 72
2
 10
12.7943847649
 20
2.4937027294
 40
0.0024754162
 50
226.3593695813
 51
270.0146919953
 73
1
 72
1
 10
12.7926763987
 20
2.4919113136
 11
12.7293963636
 21
2.5522893471
 72
2
 10
12.7276876627
 20
2.5504984093
 40
0.0024753014
 50
46.3461263059
 51
180.0014637321
 73
1
 72
1
 10
12.7252123613
 20
2.5504983461
 11
12.7252123613
 21
2.5184523283
 72
2
 10
12.7276873608
 20
2.5184523265
 40
0.0024749995
 50
179.9999571957
 51
270.0000428043
 73
1
 72
1
 10
12.7276873627
 20
2.515977327
 11
12.7480043739
 21
2.515977327
 72
2
 10
12.7480043758
 20
2.5135023274
 40
0.0024749995
 50
359.9999571957
 51
90.0000428043
 73
1
 72
1
 10
12.7504793753
 20
2.5135023256
 11
12.7504793753
 21
2.4937023146
 72
2
 10
12.7480043758
 20
2.4937023128
 40
0.0024749995
 50
269.9999571958
 51
0.0000428043
 73
1
 72
1
 10
12.7480043739
 20
2.4912273132
 11
12.672340332
 21
2.4912273132
 72
2
 10
12.6723403301
 20
2.4937023128
 40
0.0024749995
 50
179.9999571957
 51
270.0000428042
 73
1
 72
1
 10
12.6698653306
 20
2.4937023146
 11
12.6698653306
 21
2.5135023256
 72
2
 10
12.6723403301
 20
2.5135023274
 40
0.0024749995
 50
89.9999571957
 51
180.0000428043
 73
1
 72
1
 10
12.672340332
 20
2.515977327
 11
12.6909873423
 21
2.515977327
 72
2
 10
12.6909873442
 20
2.5184523265
 40
0.0024749995
 50
269.9999571957
 51
0.0000428043
 73
1
 72
1
 10
12.6934623437
 20
2.5184523283
 11
12.6934623437
 21
2.564807354
 72
2
 10
12.6909873442
 20
2.5648073559
 40
0.0024749995
 50
359.9999571957
 51
90.0000428043
 73
1
 72
1
 10
12.6909873423
 20
2.5672823554
 11
12.672340332
 21
2.5672823554
 72
2
 10
12.6723403301
 20
2.5697573549
 40
0.0024749995
 50
179.9999571957
 51
270.0000428043
 73
1
 72
1
 10
12.6698653306
 20
2.5697573568
 11
12.6698653306
 21
2.5895573678
 72
2
 10
12.6723403301
 20
2.5895573696
 40
0.0024749995
 50
89.9999571957
 51
180.0000428043
 73
1
 72
1
 10
12.672340332
 20
2.5920323691
 11
12.7727983877
 21
2.5920323691
 72
2
 10
12.7727985224
 20
2.5895582013
 40
0.0024741678
 50
46.3477981899
 51
90.0031206038
 73
1
 72
1
 10
12.7745063886
 20
2.5913483688
 11
12.8345394219
 21
2.534068337
 72
2
 10
12.8362481229
 20
2.5358592748
 40
0.0024753014
 50
226.3461263059
 51
0.0014637321
 73
1
 72
1
 10
12.8387234242
 20
2.535859338
 11
12.8387234242
 21
2.564807354
 72
2
 10
12.8362484247
 20
2.5648073559
 40
0.0024749995
 50
359.9999571957
 51
90.0000428043
 73
1
 72
1
 10
12.8362484229
 20
2.5672823554
 11
12.8174724125
 21
2.5672823554
 72
2
 10
12.8174724106
 20
2.5697573549
 40
0.0024749995
 50
179.9999571957
 51
270.0000428043
 73
1
 72
1
 10
12.8149974111
 20
2.5697573568
 11
12.8149974111
 21
2.5895573678
 72
2
 10
12.8174724106
 20
2.5895573696
 40
0.0024749995
 50
89.9999571958
 51
180.0000428043
 73
1
 72
1
 10
12.8174724125
 20
2.5920323691
 11
12.8914734535
 21
2.5920323691
 72
2
 10
12.8914734553
 20
2.5895573696
 40
0.0024749995
 50
359.9999571957
 51
90.0000428042
 73
1
 72
1
 10
12.8939484549
 20
2.5895573678
 11
12.8939484549
 21
2.5697573568
 72
2
 10
12.8914734553
 20
2.5697573549
 40
0.0024749995
 50
269.9999571958
 51
0.0000428043
 73
1
 72
1
 10
12.8914734535
 20
2.5672823554
 11
12.8735404436
 21
2.5672823554
 72
2
 10
12.8735404417
 20
2.5648073559
 40
0.0024749995
 50
89.9999571957
 51
180.0000428043
 73
1
 72
1
 10
12.8710654422
 20
2.564807354
 11
12.8710654422
 21
2.4937023146
 72
2
 10
12.8685904427
 20
2.4937023128
 40
0.0024749995
 50
269.9999571957
 51
0.0000428043
 73
1
 72
1
 10
12.8685904408
 20
2.4912273132
 11
12.7943853997
 21
2.4912273132
 97
267
330
278
330
279
330
27A
330
27B
330
27C
330
27D
330
27E
330
27F
330
280
330
281
330
282
330
283
330
284
330
285
330
286
330
287
330
288
330
289
330
28A
330
28B
330
28C
330
28D
330
28E
330
28F
330
290
330
291
330
292
330
293
330
294
330
295
330
296
330
297
330
298
330
299
330
29A
330
29B
330
29C
330
29D
330
29E
330
29F
330
2A0
330
2A1
330
2A2
330
2A3
330
2A4
330
2A5
330
2A6
330
2A7
330
2A8
330
2A9
330
2AA
330
2AB
330
2AC
330
2AD
330
2AE
330
2AF
330
2B0
330
2B1
330
2B2
330
2B3
330
2B4
330
2B5
330
2B6
330
2B7
330
2B8
330
2B9
330
2BA
330
2BB
330
2BC
330
2BD
330
2BE
330
2BF
330
2C0
330
2C1
330
2C2
330
2C3
330
2C4
330
2C5
330
2C6
330
2C7
330
2C8
330
2C9
330
2CA
330
2CB
330
2CC
330
2CD
330
2CE
330
2CF
330
2D0
330
2D1
330
2D2
330
2D3
330
2D4
330
2D5
330
2D6
330
2D7
330
2D8
330
2D9
330
2DA
330
2DB
330
2DC
330
2DD
330
2DE
330
2DF
330
2E0
330
2E1
330
2E2
330
2E3
330
2E4
330
2E5
330
2E6
330
2E7
330
2E8
330
2E9
330
2EA
330
2EB
330
2EC
330
2ED
330
2EE
330
2EF
330
2F0
330
2F1
330
2F2
330
2F3
330
2F4
330
2F5
330
2F6
330
2F7
330
2F8
330
2F9
330
2FA
330
2FB
330
2FC
330
2FD
330
2FE
330
2FF
330
300
330
301
330
302
330
303
330
304
330
305
330
306
330
307
330
308
330
309
330
30A
330
30B
330
30C
330
30D
330
30E
330
30F
330
310
330
311
330
312
330
313
330
314
330
315
330
316
330
317
330
318
330
319
330
31A
330
31B
330
31C
330
31D
330
31E
330
31F
330
320
330
321
330
322
330
323
330
324
330
325
330
326
330
327
330
328
330
329
330
32A
330
32B
330
32C
330
32D
330
32E
330
32F
330
330
330
331
330
332
330
333
330
334
330
335
330
336
330
337
330
338
330
339
330
33A
330
33B
330
33C
330
33D
330
33E
330
33F
330
340
330
341
330
342
330
343
330
344
330
345
330
346
330
347
330
348
330
349
330
34A
330
34B
330
34C
330
34D
330
34E
330
34F
330
350
330
351
330
352
330
353
330
354
330
355
330
356
330
357
330
358
330
359
330
35A
330
35B
330
35C
330
35D
330
35E
330
35F
330
360
330
361
330
362
330
363
330
364
330
365
330
366
330
367
330
368
330
369
330
36A
330
36B
330
36C
330
36D
330
36E
330
36F
330
370
330
371
330
372
330
373
330
374
330
375
330
376
330
377
330
378
330
379
330
37A
330
37B
330
37C
330
37D
330
37E
330
37F
330
380
330
381
330
382
 92
1
 93
23
 72
2
 10
12.3792298263
 20
2.539634765
 40
0.048483885
 50
273.21763719
 51
303.0749121182
 73
1
 72
2
 10
12.3940692204
 20
2.5168671561
 40
0.0213072145
 50
303.0488228549
 51
355.7263138674
 73
1
 72
2
 10
12.400005721
 20
2.5168763464
 40
0.0153945295
 50
354.0454548824
 51
5.1878013979
 73
1
 72
2
 10
12.3931760319
 20
2.5166878286
 40
0.0222174455
 50
4.0793399388
 51
69.834329283
 73
1
 72
1
 10
12.4008351814
 20
2.5375433389
 11
12.3907841758
 21
2.5410923409
 72
1
 10
12.3907841758
 20
2.5410923409
 11
12.3990241804
 21
2.5458683435
 72
2
 10
12.3771587979
 20
2.5826952352
 40
0.0428289026
 50
300.6990502959
 51
319.0591802498
 73
1
 72
2
 10
12.3971873948
 20
2.5665668817
 40
0.0171568255
 50
315.9145124245
 51
16.0049121282
 73
1
 72
2
 10
12.3922357827
 20
2.5632132173
 40
0.0229166529
 50
20.6563876465
 51
62.3316896973
 73
1
 72
2
 10
12.371573659
 20
2.5302846524
 40
0.061747717
 50
59.5385584989
 51
90.0050977555
 73
1
 72
1
 10
12.3715681652
 20
2.5920323691
 11
12.2055050731
 21
2.5920323691
 72
2
 10
12.2055050712
 20
2.5895573696
 40
0.0024749995
 50
89.9999571957
 51
180.0000428043
 73
1
 72
1
 10
12.2030300717
 20
2.5895573678
 11
12.2030300717
 21
2.5697573568
 72
2
 10
12.2055050712
 20
2.5697573549
 40
0.0024749995
 50
179.9999571957
 51
270.0000428043
 73
1
 72
1
 10
12.2055050731
 20
2.5672823554
 11
12.2294470864
 21
2.5672823554
 72
2
 10
12.2294470882
 20
2.5648073559
 40
0.0024749995
 50
359.9999571957
 51
90.0000428043
 73
1
 72
1
 10
12.2319220877
 20
2.564807354
 11
12.2319220877
 21
2.5184523283
 72
2
 10
12.2294470882
 20
2.5184523265
 40
0.0024749995
 50
269.9999571957
 51
0.0000428043
 73
1
 72
1
 10
12.2294470864
 20
2.515977327
 11
12.2055050731
 21
2.515977327
 72
2
 10
12.2055050712
 20
2.5135023274
 40
0.0024749995
 50
89.9999571957
 51
180.0000428043
 73
1
 72
1
 10
12.2030300717
 20
2.5135023256
 11
12.2030300717
 21
2.4937023146
 72
2
 10
12.2055050712
 20
2.4937023128
 40
0.0024749995
 50
179.9999571957
 51
270.0000428043
 73
1
 72
1
 10
12.2055050731
 20
2.4912273132
 11
12.3819511709
 21
2.4912273132
 97
267
330
278
330
279
330
27A
330
27B
330
27C
330
27D
330
27E
330
27F
330
280
330
281
330
282
330
283
330
284
330
285
330
286
330
287
330
288
330
289
330
28A
330
28B
330
28C
330
28D
330
28E
330
28F
330
290
330
291
330
292
330
293
330
294
330
295
330
296
330
297
330
298
330
299
330
29A
330
29B
330
29C
330
29D
330
29E
330
29F
330
2A0
330
2A1
330
2A2
330
2A3
330
2A4
330
2A5
330
2A6
330
2A7
330
2A8
330
2A9
330
2AA
330
2AB
330
2AC
330
2AD
330
2AE
330
2AF
330
2B0
330
2B1
330
2B2
330
2B3
330
2B4
330
2B5
330
2B6
330
2B7
330
2B8
330
2B9
330
2BA
330
2BB
330
2BC
330
2BD
330
2BE
330
2BF
330
2C0
330
2C1
330
2C2
330
2C3
330
2C4
330
2C5
330
2C6
330
2C7
330
2C8
330
2C9
330
2CA
330
2CB
330
2CC
330
2CD
330
2CE
330
2CF
330
2D0
330
2D1
330
2D2
330
2D3
330
2D4
330
2D5
330
2D6
330
2D7
330
2D8
330
2D9
330
2DA
330
2DB
330
2DC
330
2DD
330
2DE
330
2DF
330
2E0
330
2E1
330
2E2
330
2E3
330
2E4
330
2E5
330
2E6
330
2E7
330
2E8
330
2E9
330
2EA
330
2EB
330
2EC
330
2ED
330
2EE
330
2EF
330
2F0
330
2F1
330
2F2
330
2F3
330
2F4
330
2F5
330
2F6
330
2F7
330
2F8
330
2F9
330
2FA
330
2FB
330
2FC
330
2FD
330
2FE
330
2FF
330
300
330
301
330
302
330
303
330
304
330
305
330
306
330
307
330
308
330
309
330
30A
330
30B
330
30C
330
30D
330
30E
330
30F
330
310
330
311
330
312
330
313
330
314
330
315
330
316
330
317
330
318
330
319
330
31A
330
31B
330
31C
330
31D
330
31E
330
31F
330
320
330
321
330
322
330
323
330
324
330
325
330
326
330
327
330
328
330
329
330
32A
330
32B
330
32C
330
32D
330
32E
330
32F
330
330
330
331
330
332
330
333
330
334
330
335
330
336
330
337
330
338
330
339
330
33A
330
33B
330
33C
330
33D
330
33E
330
33F
330
340
330
341
330
342
330
343
330
344
330
345
330
346
330
347
330
348
330
349
330
34A
330
34B
330
34C
330
34D
330
34E
330
34F
330
350
330
351
330
352
330
353
330
354
330
355
330
356
330
357
330
358
330
359
330
35A
330
35B
330
35C
330
35D
330
35E
330
35F
330
360
330
361
330
362
330
363
330
364
330
365
330
366
330
367
330
368
330
369
330
36A
330
36B
330
36C
330
36D
330
36E
330
36F
330
370
330
371
330
372
330
373
330
374
330
375
330
376
330
377
330
378
330
379
330
37A
330
37B
330
37C
330
37D
330
37E
330
37F
330
380
330
381
330
382
 92
1
 93
32
 72
2
 10
12.5168642476
 20
2.4937023128
 40
0.0024749995
 50
269.9999571957
 51
0.0000428043
 73
1
 72
1
 10
12.5193392471
 20
2.4937023146
 11
12.5193392471
 21
2.5135023256
 72
2
 10
12.5168642476
 20
2.5135023274
 40
0.0024749995
 50
359.9999571957
 51
90.0000428043
 73
1
 72
1
 10
12.5168642458
 20
2.515977327
 11
12.5055812395
 21
2.515977327
 72
2
 10
12.5055811302
 20
2.518452367
 40
0.0024750401
 50
147.6063258011
 51
270.0025305754
 73
1
 72
1
 10
12.5034912383
 20
2.5197783291
 11
12.5090072414
 21
2.5284723339
 72
2
 10
12.5110971723
 20
2.5271461342
 40
0.0024752003
 50
89.998372645
 51
147.602165307
 73
1
 72
1
 10
12.5110972426
 20
2.5296213345
 11
12.5459752619
 21
2.5296213345
 72
2
 10
12.5459747223
 20
2.5271458744
 40
0.0024754602
 50
32.8959418573
 51
89.9875097202
 73
1
 72
1
 10
12.548053263
 20
2.5284903339
 11
12.5536792662
 21
2.5197973291
 72
2
 10
12.5516012439
 20
2.5184525341
 40
0.0024752071
 50
270.0004896794
 51
32.9089806818
 73
1
 72
1
 10
12.551601265
 20
2.515977327
 11
12.537150257
 21
2.515977327
 72
2
 10
12.5371502552
 20
2.5135023274
 40
0.0024749995
 50
89.9999571958
 51
180.0000428043
 73
1
 72
1
 10
12.5346752556
 20
2.5135023256
 11
12.5346752556
 21
2.4937023146
 72
2
 10
12.5371502552
 20
2.4937023128
 40
0.0024749995
 50
179.9999571957
 51
270.0000428042
 73
1
 72
1
 10
12.537150257
 20
2.4912273132
 11
12.6424313154
 21
2.4912273132
 72
2
 10
12.6424313172
 20
2.4937023128
 40
0.0024749995
 50
269.9999571957
 51
0.0000428043
 73
1
 72
1
 10
12.6449063168
 20
2.4937023146
 11
12.6449063168
 21
2.5135023256
 72
2
 10
12.6424313172
 20
2.5135023274
 40
0.0024749995
 50
359.9999571957
 51
90.0000428043
 73
1
 72
1
 10
12.6424313154
 20
2.515977327
 11
12.6224153043
 21
2.515977327
 72
2
 10
12.6224154248
 20
2.518451368
 40
0.002474041
 50
212.9056413127
 51
269.9972091756
 73
1
 72
1
 10
12.6203383031
 20
2.5171073276
 11
12.5725822767
 21
2.5909023685
 72
2
 10
12.570504655
 20
2.589557409
 40
0.0024749602
 50
32.9172174468
 51
90.0087853097
 73
1
 72
1
 10
12.5705042755
 20
2.5920323691
 11
12.5133292438
 21
2.5920323691
 72
2
 10
12.5133291735
 20
2.5895571688
 40
0.0024752003
 50
89.9983726451
 51
147.602165307
 73
1
 72
1
 10
12.5112392426
 20
2.5908833685
 11
12.4644392167
 21
2.5171263276
 72
2
 10
12.4623492858
 20
2.5184525273
 40
0.0024752003
 50
269.9983726451
 51
327.602165307
 73
1
 72
1
 10
12.4623492155
 20
2.515977327
 11
12.4394882028
 21
2.515977327
 72
2
 10
12.439488201
 20
2.5135023274
 40
0.0024749995
 50
89.9999571958
 51
180.0000428043
 73
1
 72
1
 10
12.4370132015
 20
2.5135023256
 11
12.4370132015
 21
2.4937023146
 72
2
 10
12.439488201
 20
2.4937023128
 40
0.0024749995
 50
179.9999571957
 51
270.0000428042
 73
1
 72
1
 10
12.4394882028
 20
2.4912273132
 11
12.5168642458
 21
2.4912273132
 97
267
330
278
330
279
330
27A
330
27B
330
27C
330
27D
330
27E
330
27F
330
280
330
281
330
282
330
283
330
284
330
285
330
286
330
287
330
288
330
289
330
28A
330
28B
330
28C
330
28D
330
28E
330
28F
330
290
330
291
330
292
330
293
330
294
330
295
330
296
330
297
330
298
330
299
330
29A
330
29B
330
29C
330
29D
330
29E
330
29F
330
2A0
330
2A1
330
2A2
330
2A3
330
2A4
330
2A5
330
2A6
330
2A7
330
2A8
330
2A9
330
2AA
330
2AB
330
2AC
330
2AD
330
2AE
330
2AF
330
2B0
330
2B1
330
2B2
330
2B3
330
2B4
330
2B5
330
2B6
330
2B7
330
2B8
330
2B9
330
2BA
330
2BB
330
2BC
330
2BD
330
2BE
330
2BF
330
2C0
330
2C1
330
2C2
330
2C3
330
2C4
330
2C5
330
2C6
330
2C7
330
2C8
330
2C9
330
2CA
330
2CB
330
2CC
330
2CD
330
2CE
330
2CF
330
2D0
330
2D1
330
2D2
330
2D3
330
2D4
330
2D5
330
2D6
330
2D7
330
2D8
330
2D9
330
2DA
330
2DB
330
2DC
330
2DD
330
2DE
330
2DF
330
2E0
330
2E1
330
2E2
330
2E3
330
2E4
330
2E5
330
2E6
330
2E7
330
2E8
330
2E9
330
2EA
330
2EB
330
2EC
330
2ED
330
2EE
330
2EF
330
2F0
330
2F1
330
2F2
330
2F3
330
2F4
330
2F5
330
2F6
330
2F7
330
2F8
330
2F9
330
2FA
330
2FB
330
2FC
330
2FD
330
2FE
330
2FF
330
300
330
301
330
302
330
303
330
304
330
305
330
306
330
307
330
308
330
309
330
30A
330
30B
330
30C
330
30D
330
30E
330
30F
330
310
330
311
330
312
330
313
330
314
330
315
330
316
330
317
330
318
330
319
330
31A
330
31B
330
31C
330
31D
330
31E
330
31F
330
320
330
321
330
322
330
323
330
324
330
325
330
326
330
327
330
328
330
329
330
32A
330
32B
330
32C
330
32D
330
32E
330
32F
330
330
330
331
330
332
330
333
330
334
330
335
330
336
330
337
330
338
330
339
330
33A
330
33B
330
33C
330
33D
330
33E
330
33F
330
340
330
341
330
342
330
343
330
344
330
345
330
346
330
347
330
348
330
349
330
34A
330
34B
330
34C
330
34D
330
34E
330
34F
330
350
330
351
330
352
330
353
330
354
330
355
330
356
330
357
330
358
330
359
330
35A
330
35B
330
35C
330
35D
330
35E
330
35F
330
360
330
361
330
362
330
363
330
364
330
365
330
366
330
367
330
368
330
369
330
36A
330
36B
330
36C
330
36D
330
36E
330
36F
330
370
330
371
330
372
330
373
330
374
330
375
330
376
330
377
330
378
330
379
330
37A
330
37B
330
37C
330
37D
330
37E
330
37F
330
380
330
381
330
382
 92
1
 93
6
 72
2
 10
12.2949101208
 20
2.5184523265
 40
0.0024749995
 50
179.9999571957
 51
270.0000428043
 73
1
 72
1
 10
12.2924351213
 20
2.5184523283
 11
12.2924351213
 21
2.5308273352
 72
2
 10
12.2949101208
 20
2.530827337
 40
0.0024749995
 50
89.9999571957
 51
180.0000428043
 73
1
 72
1
 10
12.2949101227
 20
2.5333023366
 11
12.3362731456
 21
2.5333023366
 72
2
 10
12.3362731456
 20
2.5246398318
 40
0.0086625048
 50
270.0
 51
90.0
 73
1
 72
1
 10
12.3362731456
 20
2.515977327
 11
12.2949101227
 21
2.515977327
 97
267
330
278
330
279
330
27A
330
27B
330
27C
330
27D
330
27E
330
27F
330
280
330
281
330
282
330
283
330
284
330
285
330
286
330
287
330
288
330
289
330
28A
330
28B
330
28C
330
28D
330
28E
330
28F
330
290
330
291
330
292
330
293
330
294
330
295
330
296
330
297
330
298
330
299
330
29A
330
29B
330
29C
330
29D
330
29E
330
29F
330
2A0
330
2A1
330
2A2
330
2A3
330
2A4
330
2A5
330
2A6
330
2A7
330
2A8
330
2A9
330
2AA
330
2AB
330
2AC
330
2AD
330
2AE
330
2AF
330
2B0
330
2B1
330
2B2
330
2B3
330
2B4
330
2B5
330
2B6
330
2B7
330
2B8
330
2B9
330
2BA
330
2BB
330
2BC
330
2BD
330
2BE
330
2BF
330
2C0
330
2C1
330
2C2
330
2C3
330
2C4
330
2C5
330
2C6
330
2C7
330
2C8
330
2C9
330
2CA
330
2CB
330
2CC
330
2CD
330
2CE
330
2CF
330
2D0
330
2D1
330
2D2
330
2D3
330
2D4
330
2D5
330
2D6
330
2D7
330
2D8
330
2D9
330
2DA
330
2DB
330
2DC
330
2DD
330
2DE
330
2DF
330
2E0
330
2E1
330
2E2
330
2E3
330
2E4
330
2E5
330
2E6
330
2E7
330
2E8
330
2E9
330
2EA
330
2EB
330
2EC
330
2ED
330
2EE
330
2EF
330
2F0
330
2F1
330
2F2
330
2F3
330
2F4
330
2F5
330
2F6
330
2F7
330
2F8
330
2F9
330
2FA
330
2FB
330
2FC
330
2FD
330
2FE
330
2FF
330
300
330
301
330
302
330
303
330
304
330
305
330
306
330
307
330
308
330
309
330
30A
330
30B
330
30C
330
30D
330
30E
330
30F
330
310
330
311
330
312
330
313
330
314
330
315
330
316
330
317
330
318
330
319
330
31A
330
31B
330
31C
330
31D
330
31E
330
31F
330
320
330
321
330
322
330
323
330
324
330
325
330
326
330
327
330
328
330
329
330
32A
330
32B
330
32C
330
32D
330
32E
330
32F
330
330
330
331
330
332
330
333
330
334
330
335
330
336
330
337
330
338
330
339
330
33A
330
33B
330
33C
330
33D
330
33E
330
33F
330
340
330
341
330
342
330
343
330
344
330
345
330
346
330
347
330
348
330
349
330
34A
330
34B
330
34C
330
34D
330
34E
330
34F
330
350
330
351
330
352
330
353
330
354
330
355
330
356
330
357
330
358
330
359
330
35A
330
35B
330
35C
330
35D
330
35E
330
35F
330
360
330
361
330
362
330
363
330
364
330
365
330
366
330
367
330
368
330
369
330
36A
330
36B
330
36C
330
36D
330
36E
330
36F
330
370
330
371
330
372
330
373
330
374
330
375
330
376
330
377
330
378
330
379
330
37A
330
37B
330
37C
330
37D
330
37E
330
37F
330
380
330
381
330
382
 92
1
 93
13
 72
2
 10
13.4883447827
 20
2.5520823451
 40
0.0024749995
 50
179.9999571957
 51
270.0000428042
 73
1
 72
1
 10
13.4858697831
 20
2.552082347
 11
13.4858697831
 21
2.564807354
 72
2
 10
13.4883447827
 20
2.5648073559
 40
0.0024749995
 50
89.9999571958
 51
180.0000428043
 73
1
 72
1
 10
13.4883447845
 20
2.5672823554
 11
13.5251458049
 21
2.5672823554
 72
2
 10
13.5236009174
 20
2.5388278764
 40
0.0284963867
 50
70.3834917948
 51
86.8922743861
 73
1
 72
2
 10
13.5284605274
 20
2.5518696094
 40
0.0145814632
 50
54.6746025112
 51
71.1660573124
 73
1
 72
2
 10
13.5335900184
 20
2.5587235346
 40
0.0060275915
 50
20.9055592135
 51
56.7851676243
 73
1
 72
2
 10
13.5348905773
 20
2.5593838168
 40
0.0045795888
 50
355.6235353944
 51
18.9942678268
 73
1
 72
2
 10
13.533683767
 20
2.559677593
 40
0.0058087709
 50
318.8515287446
 51
353.6422345323
 73
1
 72
2
 10
13.5295131508
 20
2.5629115009
 40
0.0110815393
 50
306.758405961
 51
320.4502234234
 73
1
 72
2
 10
13.5238839599
 20
2.5706523294
 40
0.0206523367
 50
289.6883413472
 51
306.4184925496
 73
1
 72
2
 10
13.5219564542
 20
2.5750459767
 40
0.0254407115
 50
270.7327484175
 51
290.441894219
 73
1
 72
1
 10
13.5222818033
 20
2.5496073456
 11
13.4883447845
 21
2.5496073456
 97
267
330
278
330
279
330
27A
330
27B
330
27C
330
27D
330
27E
330
27F
330
280
330
281
330
282
330
283
330
284
330
285
330
286
330
287
330
288
330
289
330
28A
330
28B
330
28C
330
28D
330
28E
330
28F
330
290
330
291
330
292
330
293
330
294
330
295
330
296
330
297
330
298
330
299
330
29A
330
29B
330
29C
330
29D
330
29E
330
29F
330
2A0
330
2A1
330
2A2
330
2A3
330
2A4
330
2A5
330
2A6
330
2A7
330
2A8
330
2A9
330
2AA
330
2AB
330
2AC
330
2AD
330
2AE
330
2AF
330
2B0
330
2B1
330
2B2
330
2B3
330
2B4
330
2B5
330
2B6
330
2B7
330
2B8
330
2B9
330
2BA
330
2BB
330
2BC
330
2BD
330
2BE
330
2BF
330
2C0
330
2C1
330
2C2
330
2C3
330
2C4
330
2C5
330
2C6
330
2C7
330
2C8
330
2C9
330
2CA
330
2CB
330
2CC
330
2CD
330
2CE
330
2CF
330
2D0
330
2D1
330
2D2
330
2D3
330
2D4
330
2D5
330
2D6
330
2D7
330
2D8
330
2D9
330
2DA
330
2DB
330
2DC
330
2DD
330
2DE
330
2DF
330
2E0
330
2E1
330
2E2
330
2E3
330
2E4
330
2E5
330
2E6
330
2E7
330
2E8
330
2E9
330
2EA
330
2EB
330
2EC
330
2ED
330
2EE
330
2EF
330
2F0
330
2F1
330
2F2
330
2F3
330
2F4
330
2F5
330
2F6
330
2F7
330
2F8
330
2F9
330
2FA
330
2FB
330
2FC
330
2FD
330
2FE
330
2FF
330
300
330
301
330
302
330
303
330
304
330
305
330
306
330
307
330
308
330
309
330
30A
330
30B
330
30C
330
30D
330
30E
330
30F
330
310
330
311
330
312
330
313
330
314
330
315
330
316
330
317
330
318
330
319
330
31A
330
31B
330
31C
330
31D
330
31E
330
31F
330
320
330
321
330
322
330
323
330
324
330
325
330
326
330
327
330
328
330
329
330
32A
330
32B
330
32C
330
32D
330
32E
330
32F
330
330
330
331
330
332
330
333
330
334
330
335
330
336
330
337
330
338
330
339
330
33A
330
33B
330
33C
330
33D
330
33E
330
33F
330
340
330
341
330
342
330
343
330
344
330
345
330
346
330
347
330
348
330
349
330
34A
330
34B
330
34C
330
34D
330
34E
330
34F
330
350
330
351
330
352
330
353
330
354
330
355
330
356
330
357
330
358
330
359
330
35A
330
35B
330
35C
330
35D
330
35E
330
35F
330
360
330
361
330
362
330
363
330
364
330
365
330
366
330
367
330
368
330
369
330
36A
330
36B
330
36C
330
36D
330
36E
330
36F
330
370
330
371
330
372
330
373
330
374
330
375
330
376
330
377
330
378
330
379
330
37A
330
37B
330
37C
330
37D
330
37E
330
37F
330
380
330
381
330
382
 92
1
 93
6
 72
2
 10
12.3362731456
 20
2.5586198506
 40
0.0086625048
 50
270.0
 51
90.0
 73
1
 72
1
 10
12.3362731456
 20
2.5672823554
 11
12.2949101227
 21
2.5672823554
 72
2
 10
12.2949101208
 20
2.5648073559
 40
0.0024749995
 50
89.9999571957
 51
180.0000428043
 73
1
 72
1
 10
12.2924351213
 20
2.564807354
 11
12.2924351213
 21
2.5524323472
 72
2
 10
12.2949101208
 20
2.5524323453
 40
0.0024749995
 50
179.9999571957
 51
270.0000428043
 73
1
 72
1
 10
12.2949101227
 20
2.5499573458
 11
12.3362731456
 21
2.5499573458
 97
267
330
278
330
279
330
27A
330
27B
330
27C
330
27D
330
27E
330
27F
330
280
330
281
330
282
330
283
330
284
330
285
330
286
330
287
330
288
330
289
330
28A
330
28B
330
28C
330
28D
330
28E
330
28F
330
290
330
291
330
292
330
293
330
294
330
295
330
296
330
297
330
298
330
299
330
29A
330
29B
330
29C
330
29D
330
29E
330
29F
330
2A0
330
2A1
330
2A2
330
2A3
330
2A4
330
2A5
330
2A6
330
2A7
330
2A8
330
2A9
330
2AA
330
2AB
330
2AC
330
2AD
330
2AE
330
2AF
330
2B0
330
2B1
330
2B2
330
2B3
330
2B4
330
2B5
330
2B6
330
2B7
330
2B8
330
2B9
330
2BA
330
2BB
330
2BC
330
2BD
330
2BE
330
2BF
330
2C0
330
2C1
330
2C2
330
2C3
330
2C4
330
2C5
330
2C6
330
2C7
330
2C8
330
2C9
330
2CA
330
2CB
330
2CC
330
2CD
330
2CE
330
2CF
330
2D0
330
2D1
330
2D2
330
2D3
330
2D4
330
2D5
330
2D6
330
2D7
330
2D8
330
2D9
330
2DA
330
2DB
330
2DC
330
2DD
330
2DE
330
2DF
330
2E0
330
2E1
330
2E2
330
2E3
330
2E4
330
2E5
330
2E6
330
2E7
330
2E8
330
2E9
330
2EA
330
2EB
330
2EC
330
2ED
330
2EE
330
2EF
330
2F0
330
2F1
330
2F2
330
2F3
330
2F4
330
2F5
330
2F6
330
2F7
330
2F8
330
2F9
330
2FA
330
2FB
330
2FC
330
2FD
330
2FE
330
2FF
330
300
330
301
330
302
330
303
330
304
330
305
330
306
330
307
330
308
330
309
330
30A
330
30B
330
30C
330
30D
330
30E
330
30F
330
310
330
311
330
312
330
313
330
314
330
315
330
316
330
317
330
318
330
319
330
31A
330
31B
330
31C
330
31D
330
31E
330
31F
330
320
330
321
330
322
330
323
330
324
330
325
330
326
330
327
330
328
330
329
330
32A
330
32B
330
32C
330
32D
330
32E
330
32F
330
330
330
331
330
332
330
333
330
334
330
335
330
336
330
337
330
338
330
339
330
33A
330
33B
330
33C
330
33D
330
33E
330
33F
330
340
330
341
330
342
330
343
330
344
330
345
330
346
330
347
330
348
330
349
330
34A
330
34B
330
34C
330
34D
330
34E
330
34F
330
350
330
351
330
352
330
353
330
354
330
355
330
356
330
357
330
358
330
359
330
35A
330
35B
330
35C
330
35D
330
35E
330
35F
330
360
330
361
330
362
330
363
330
364
330
365
330
366
330
367
330
368
330
369
330
36A
330
36B
330
36C
330
36D
330
36E
330
36F
330
370
330
371
330
372
330
373
330
374
330
375
330
376
330
377
330
378
330
379
330
37A
330
37B
330
37C
330
37D
330
37E
330
37F
330
380
330
381
330
382
 92
1
 93
8
 72
2
 10
12.5401702375
 20
2.5530465533
 40
0.0024752071
 50
270.0004896793
 51
32.9089806818
 73
1
 72
1
 10
12.5422482598
 20
2.5543913483
 11
12.5349892558
 21
2.5656073545
 72
2
 10
12.532910715
 20
2.564262895
 40
0.0024754602
 50
32.8959418573
 51
89.9875097202
 73
1
 72
1
 10
12.5329112547
 20
2.5667383551
 11
12.5267302512
 21
2.5667383551
 72
2
 10
12.5267301809
 20
2.5642631548
 40
0.0024752003
 50
89.998372645
 51
147.602165307
 73
1
 72
1
 10
12.5246402501
 20
2.5655893545
 11
12.5175232461
 21
2.5543723483
 72
2
 10
12.519613138
 20
2.5530463862
 40
0.0024750401
 50
147.6063258012
 51
270.0025305754
 73
1
 72
1
 10
12.5196132473
 20
2.5505713461
 11
12.5401702587
 21
2.5505713461
 97
267
330
278
330
279
330
27A
330
27B
330
27C
330
27D
330
27E
330
27F
330
280
330
281
330
282
330
283
330
284
330
285
330
286
330
287
330
288
330
289
330
28A
330
28B
330
28C
330
28D
330
28E
330
28F
330
290
330
291
330
292
330
293
330
294
330
295
330
296
330
297
330
298
330
299
330
29A
330
29B
330
29C
330
29D
330
29E
330
29F
330
2A0
330
2A1
330
2A2
330
2A3
330
2A4
330
2A5
330
2A6
330
2A7
330
2A8
330
2A9
330
2AA
330
2AB
330
2AC
330
2AD
330
2AE
330
2AF
330
2B0
330
2B1
330
2B2
330
2B3
330
2B4
330
2B5
330
2B6
330
2B7
330
2B8
330
2B9
330
2BA
330
2BB
330
2BC
330
2BD
330
2BE
330
2BF
330
2C0
330
2C1
330
2C2
330
2C3
330
2C4
330
2C5
330
2C6
330
2C7
330
2C8
330
2C9
330
2CA
330
2CB
330
2CC
330
2CD
330
2CE
330
2CF
330
2D0
330
2D1
330
2D2
330
2D3
330
2D4
330
2D5
330
2D6
330
2D7
330
2D8
330
2D9
330
2DA
330
2DB
330
2DC
330
2DD
330
2DE
330
2DF
330
2E0
330
2E1
330
2E2
330
2E3
330
2E4
330
2E5
330
2E6
330
2E7
330
2E8
330
2E9
330
2EA
330
2EB
330
2EC
330
2ED
330
2EE
330
2EF
330
2F0
330
2F1
330
2F2
330
2F3
330
2F4
330
2F5
330
2F6
330
2F7
330
2F8
330
2F9
330
2FA
330
2FB
330
2FC
330
2FD
330
2FE
330
2FF
330
300
330
301
330
302
330
303
330
304
330
305
330
306
330
307
330
308
330
309
330
30A
330
30B
330
30C
330
30D
330
30E
330
30F
330
310
330
311
330
312
330
313
330
314
330
315
330
316
330
317
330
318
330
319
330
31A
330
31B
330
31C
330
31D
330
31E
330
31F
330
320
330
321
330
322
330
323
330
324
330
325
330
326
330
327
330
328
330
329
330
32A
330
32B
330
32C
330
32D
330
32E
330
32F
330
330
330
331
330
332
330
333
330
334
330
335
330
336
330
337
330
338
330
339
330
33A
330
33B
330
33C
330
33D
330
33E
330
33F
330
340
330
341
330
342
330
343
330
344
330
345
330
346
330
347
330
348
330
349
330
34A
330
34B
330
34C
330
34D
330
34E
330
34F
330
350
330
351
330
352
330
353
330
354
330
355
330
356
330
357
330
358
330
359
330
35A
330
35B
330
35C
330
35D
330
35E
330
35F
330
360
330
361
330
362
330
363
330
364
330
365
330
366
330
367
330
368
330
369
330
36A
330
36B
330
36C
330
36D
330
36E
330
36F
330
370
330
371
330
372
330
373
330
374
330
375
330
376
330
377
330
378
330
379
330
37A
330
37B
330
37C
330
37D
330
37E
330
37F
330
380
330
381
330
382
 92
1
 93
1
 72
3
 10
12.9046654608
 20
2.5403783405
 11
-0.8250004575
 21
0.0
 40
0.218572
 50
0.0
 51
-0.0
 73
1
 97
267
330
278
330
279
330
27A
330
27B
330
27C
330
27D
330
27E
330
27F
330
280
330
281
330
282
330
283
330
284
330
285
330
286
330
287
330
288
330
289
330
28A
330
28B
330
28C
330
28D
330
28E
330
28F
330
290
330
291
330
292
330
293
330
294
330
295
330
296
330
297
330
298
330
299
330
29A
330
29B
330
29C
330
29D
330
29E
330
29F
330
2A0
330
2A1
330
2A2
330
2A3
330
2A4
330
2A5
330
2A6
330
2A7
330
2A8
330
2A9
330
2AA
330
2AB
330
2AC
330
2AD
330
2AE
330
2AF
330
2B0
330
2B1
330
2B2
330
2B3
330
2B4
330
2B5
330
2B6
330
2B7
330
2B8
330
2B9
330
2BA
330
2BB
330
2BC
330
2BD
330
2BE
330
2BF
330
2C0
330
2C1
330
2C2
330
2C3
330
2C4
330
2C5
330
2C6
330
2C7
330
2C8
330
2C9
330
2CA
330
2CB
330
2CC
330
2CD
330
2CE
330
2CF
330
2D0
330
2D1
330
2D2
330
2D3
330
2D4
330
2D5
330
2D6
330
2D7
330
2D8
330
2D9
330
2DA
330
2DB
330
2DC
330
2DD
330
2DE
330
2DF
330
2E0
330
2E1
330
2E2
330
2E3
330
2E4
330
2E5
330
2E6
330
2E7
330
2E8
330
2E9
330
2EA
330
2EB
330
2EC
330
2ED
330
2EE
330
2EF
330
2F0
330
2F1
330
2F2
330
2F3
330
2F4
330
2F5
330
2F6
330
2F7
330
2F8
330
2F9
330
2FA
330
2FB
330
2FC
330
2FD
330
2FE
330
2FF
330
300
330
301
330
302
330
303
330
304
330
305
330
306
330
307
330
308
330
309
330
30A
330
30B
330
30C
330
30D
330
30E
330
30F
330
310
330
311
330
312
330
313
330
314
330
315
330
316
330
317
330
318
330
319
330
31A
330
31B
330
31C
330
31D
330
31E
330
31F
330
320
330
321
330
322
330
323
330
324
330
325
330
326
330
327
330
328
330
329
330
32A
330
32B
330
32C
330
32D
330
32E
330
32F
330
330
330
331
330
332
330
333
330
334
330
335
330
336
330
337
330
338
330
339
330
33A
330
33B
330
33C
330
33D
330
33E
330
33F
330
340
330
341
330
342
330
343
330
344
330
345
330
346
330
347
330
348
330
349
330
34A
330
34B
330
34C
330
34D
330
34E
330
34F
330
350
330
351
330
352
330
353
330
354
330
355
330
356
330
357
330
358
330
359
330
35A
330
35B
330
35C
330
35D
330
35E
330
35F
330
360
330
361
330
362
330
363
330
364
330
365
330
366
330
367
330
368
330
369
330
36A
330
36B
330
36C
330
36D
330
36E
330
36F
330
370
330
371
330
372
330
373
330
374
330
375
330
376
330
377
330
378
330
379
330
37A
330
37B
330
37C
330
37D
330
37E
330
37F
330
380
330
381
330
382
 75
0
 76
1
 98
1
 10
0.0
 20
0.0
  0
LINE
  5
384
100
AcDbEntity
  8
0
100
AcDbLine
 62
7
  6
CONTINUOUS
 10
8.5
 20
10.112
 11
8.586603
 21
10.262
  0
LINE
  5
385
100
AcDbEntity
  8
0
100
AcDbLine
 62
7
  6
CONTINUOUS
 10
16.38
 20
2.807
 11
10.03
 21
2.807
  0
LINE
  5
386
100
AcDbEntity
  8
0
100
AcDbLine
 62
7
  6
CONTINUOUS
 10
0.62
 20
3.1995
 11
0.37
 21
3.1995
  0
LINE
  5
387
100
AcDbEntity
  8
0
100
AcDbLine
 62
7
  6
CONTINUOUS
 10
16.38
 20
3.1995
 11
16.63
 21
3.1995
  0
LINE
  5
388
100
AcDbEntity
  8
0
100
AcDbLine
 62
7
  6
CONTINUOUS
 10
8.586603
 20
0.737
 11
8.5
 21
0.887
  0
LINE
  5
389
100
AcDbEntity
  8
0
100
AcDbLine
 62
7
  6
CONTINUOUS
 10
6.53
 20
0.887
 11
6.53
 21
0.637
  0
LINE
  5
38A
100
AcDbEntity
  8
0
100
AcDbLine
 62
7
  6
CONTINUOUS
 10
6.53
 20
10.112
 11
6.53
 21
10.362
  0
LINE
  5
38B
100
AcDbEntity
  8
0
100
AcDbLine
 62
7
  6
CONTINUOUS
 10
8.5
 20
0.887
 11
8.5
 21
0.637
  0
LINE
  5
38C
100
AcDbEntity
  8
0
100
AcDbLine
 62
7
  6
CONTINUOUS
 10
8.5
 20
10.112
 11
8.5
 21
10.362
  0
LINE
  5
38D
100
AcDbEntity
  8
0
100
AcDbLine
 62
7
  6
CONTINUOUS
 10
0.62
 20
5.4995
 11
0.37
 21
5.4995
  0
LINE
  5
38E
100
AcDbEntity
  8
0
100
AcDbLine
 62
7
  6
CONTINUOUS
 10
16.38
 20
5.4995
 11
16.63
 21
5.4995
  0
LINE
  5
38F
100
AcDbEntity
  8
0
100
AcDbLine
 62
7
  6
CONTINUOUS
 10
10.03
 20
2.807
 11
10.03
 21
0.887
  0
LINE
  5
390
100
AcDbEntity
  8
0
100
AcDbLine
 62
7
  6
CONTINUOUS
 10
10.47
 20
0.887
 11
10.47
 21
0.637
  0
LINE
  5
391
100
AcDbEntity
  8
0
100
AcDbLine
 62
7
  6
CONTINUOUS
 10
10.47
 20
10.112
 11
10.47
 21
10.362
  0
LINE
  5
392
100
AcDbEntity
  8
0
100
AcDbLine
 62
7
  6
CONTINUOUS
 10
10.5342808475
 20
1.143294839
 11
10.5342808475
 21
0.921203839
  0
LINE
  5
393
100
AcDbEntity
  8
0
100
AcDbLine
 62
7
  6
CONTINUOUS
 10
10.5342808475
 20
1.193294839
 11
10.5342808475
 21
1.293294839
  0
LINE
  5
394
100
AcDbEntity
  8
0
100
AcDbLine
 62
7
  6
CONTINUOUS
 10
10.5342808475
 20
1.343294839
 11
10.5342808475
 21
1.565385839
  0
LINE
  5
395
100
AcDbEntity
  8
0
100
AcDbLine
 62
7
  6
CONTINUOUS
 10
8.5
 20
0.887
 11
8.413397
 21
0.737
  0
LINE
  5
396
100
AcDbEntity
  8
0
100
AcDbLine
 62
7
  6
CONTINUOUS
 10
0.62
 20
7.7995
 11
0.37
 21
7.7995
  0
LINE
  5
397
100
AcDbEntity
  8
0
100
AcDbLine
 62
7
  6
CONTINUOUS
 10
16.38
 20
7.7995
 11
16.63
 21
7.7995
  0
LINE
  5
398
100
AcDbEntity
  8
0
100
AcDbLine
 62
7
  6
CONTINUOUS
 10
8.413397
 20
10.262
 11
8.5
 21
10.112
  0
LINE
  5
399
100
AcDbEntity
  8
0
100
AcDbLine
 62
7
  6
CONTINUOUS
 10
11.1389508475
 20
1.060596839
 11
11.1389508475
 21
1.425992839
  0
LINE
  5
39A
100
AcDbEntity
  8
0
100
AcDbLine
 62
7
  6
CONTINUOUS
 10
11.7453418475
 20
1.495385839
 11
11.7453418475
 21
0.991203839
  0
LINE
  5
39B
100
AcDbEntity
  8
0
100
AcDbLine
 62
7
  6
CONTINUOUS
 10
12.44
 20
0.887
 11
12.44
 21
0.637
  0
LINE
  5
39C
100
AcDbEntity
  8
0
100
AcDbLine
 62
7
  6
CONTINUOUS
 10
12.44
 20
10.112
 11
12.44
 21
10.362
  0
LINE
  5
39D
100
AcDbEntity
  8
0
100
AcDbLine
 62
7
  6
CONTINUOUS
 10
16.53
 20
5.586103
 11
16.38
 21
5.4995
  0
LINE
  5
39E
100
AcDbEntity
  8
0
100
AcDbLine
 62
7
  6
CONTINUOUS
 10
16.38
 20
5.4995
 11
16.53
 21
5.412897
  0
LINE
  5
39F
100
AcDbEntity
  8
0
100
AcDbLine
 62
7
  6
CONTINUOUS
 10
12.83
 20
1.507
 11
12.83
 21
1.137
  0
LINE
  5
3A0
100
AcDbEntity
  8
0
100
AcDbLine
 62
7
  6
CONTINUOUS
 10
16.38
 20
10.112
 11
0.62
 21
10.112
  0
LINE
  5
3A1
100
AcDbEntity
  8
0
100
AcDbLine
 62
7
  6
CONTINUOUS
 10
8.586603
 20
10.262
 11
8.413397
 21
10.262
  0
LINE
  5
3A2
100
AcDbEntity
  8
0
100
AcDbLine
 62
7
  6
CONTINUOUS
 10
14.205
 20
1.137
 11
14.205
 21
0.887
  0
LINE
  5
3A3
100
AcDbEntity
  8
0
100
AcDbLine
 62
7
  6
CONTINUOUS
 10
14.41
 20
0.887
 11
14.41
 21
0.637
  0
LINE
  5
3A4
100
AcDbEntity
  8
0
100
AcDbLine
 62
7
  6
CONTINUOUS
 10
14.41
 20
10.112
 11
14.41
 21
10.362
  0
LINE
  5
3A5
100
AcDbEntity
  8
0
100
AcDbLine
 62
7
  6
CONTINUOUS
 10
15.58
 20
1.507
 11
15.58
 21
1.137
  0
LINE
  5
3A6
100
AcDbEntity
  8
0
100
AcDbLine
 62
7
  6
CONTINUOUS
 10
16.38
 20
0.887
 11
16.38
 21
10.112
  0
LINE
  5
3A7
100
AcDbEntity
  8
0
100
AcDbLine
 62
7
  6
CONTINUOUS
 10
16.53
 20
5.412897
 11
16.53
 21
5.586103
  0
LINE
  5
3A8
100
AcDbEntity
  8
0
100
AcDbLine
 62
7
  6
CONTINUOUS
 10
3.4754003322
 20
3.2398629253
 11
3.4754003322
 21
2.440436139
  0
LINE
  5
3A9
100
AcDbEntity
  8
0
100
AcDbLine
 62
7
  6
CONTINUOUS
 10
3.4754003322
 20
5.1138786733
 11
3.4754003322
 21
5.123721193
  0
LINE
  5
3AA
100
AcDbEntity
  8
AXIS
100
AcDbLine
 62
7
  6
CONTINUOUS
 10
3.4754003322
 20
3.2398629253
 11
3.4754003322
 21
5.1138786733
  0
LINE
  5
3AB
100
AcDbEntity
  8
0
100
AcDbLine
 62
7
  6
CONTINUOUS
 10
3.5437414752
 20
4.1859130308
 11
3.5437414752
 21
3.2792330041
  0
LINE
  5
3AC
100
AcDbEntity
  8
0
100
AcDbLine
 62
7
  6
CONTINUOUS
 10
4.8533530881
 20
2.4524613505
 11
3.4754003322
 21
2.440436139
  0
LINE
  5
3AD
100
AcDbEntity
  8
0
100
AcDbLine
 62
7
  6
CONTINUOUS
 10
4.8633362152
 20
2.503604583
 11
4.8828806472
 21
2.503604583
  0
LINE
  5
3AE
100
AcDbEntity
  8
0
100
AcDbLine
 62
7
  6
CONTINUOUS
 10
6.231305844
 20
2.440436139
 11
4.8533530881
 21
2.4524613505
  0
LINE
  5
3AF
100
AcDbEntity
  8
0
100
AcDbLine
 62
7
  6
CONTINUOUS
 10
4.8633362152
 20
2.6375385904
 11
4.8828806472
 21
2.6375385904
  0
LINE
  5
3B0
100
AcDbEntity
  8
0
100
AcDbLine
 62
7
  6
CONTINUOUS
 10
4.5487215012
 20
2.6591542639
 11
4.4904685863
 21
2.6591542639
  0
LINE
  5
3B1
100
AcDbEntity
  8
0
100
AcDbLine
 62
7
  6
CONTINUOUS
 10
4.5003103538
 20
2.6689967836
 11
4.5391299837
 21
2.6689967836
  0
LINE
  5
3B2
100
AcDbEntity
  8
0
100
AcDbLine
 62
7
  6
CONTINUOUS
 10
4.7225990557
 20
2.5449999705
 11
4.8385893086
 21
2.4780329668
  0
LINE
  5
3B3
100
AcDbEntity
  8
0
100
AcDbLine
 62
7
  6
CONTINUOUS
 10
3.7030902459
 20
4.1859130308
 11
3.7030902459
 21
3.2792330041
  0
LINE
  5
3B4
100
AcDbEntity
  8
0
100
AcDbLine
 62
7
  6
CONTINUOUS
 10
3.7037878133
 20
3.2792330041
 11
3.7037878133
 21
4.1859077365
  0
LINE
  5
3B5
100
AcDbEntity
  8
0
100
AcDbLine
 62
7
  6
CONTINUOUS
 10
3.7836261936
 20
3.3021245312
 11
3.7836261936
 21
4.1839584087
  0
LINE
  5
3B6
100
AcDbEntity
  8
0
100
AcDbLine
 62
7
  6
CONTINUOUS
 10
3.8638814746
 20
4.1773678752
 11
3.8638814746
 21
3.7488626629
  0
LINE
  5
3B7
100
AcDbEntity
  8
0
100
AcDbLine
 62
7
  6
CONTINUOUS
 10
3.8664624667
 20
4.1768677989
 11
3.8664624667
 21
3.7516764944
  0
LINE
  5
3B8
100
AcDbEntity
  8
AXIS
100
AcDbLine
 62
7
  6
CONTINUOUS
 10
3.9005971826
 20
4.1768707993
 11
3.9005971826
 21
4.19689939
  0
LINE
  5
3B9
100
AcDbEntity
  8
0
100
AcDbLine
 62
7
  6
CONTINUOUS
 10
3.849411541
 20
3.7054672144
 11
3.7836261936
 21
3.3021245312
  0
LINE
  5
3BA
100
AcDbEntity
  8
0
100
AcDbLine
 62
7
  6
CONTINUOUS
 10
3.8879212891
 20
3.681500229
 11
3.8255823166
 21
3.299287937
  0
LINE
  5
3BB
100
AcDbEntity
  8
AXIS
100
AcDbLine
 62
7
  6
CONTINUOUS
 10
3.9478412771
 20
4.1768707993
 11
3.9478412771
 21
4.19689939
  0
LINE
  5
3BC
100
AcDbEntity
  8
0
100
AcDbLine
 62
7
  6
CONTINUOUS
 10
3.6074753492
 20
3.1217526891
 11
6.099230827
 21
3.1217526891
  0
LINE
  5
3BD
100
AcDbEntity
  8
0
100
AcDbLine
 62
7
  6
CONTINUOUS
 10
4.5507859064
 20
4.5365106338
 11
4.5198353481
 21
4.453272386
  0
LINE
  5
3BE
100
AcDbEntity
  8
0
100
AcDbLine
 62
7
  6
CONTINUOUS
 10
4.5224261575
 20
4.423466898
 11
4.5655882236
 21
4.5337031185
  0
LINE
  5
3BF
100
AcDbEntity
  8
0
100
AcDbLine
 62
7
  6
CONTINUOUS
 10
3.7142648697
 20
3.2398629253
 11
5.9924413065
 21
3.2398629253
  0
LINE
  5
3C0
100
AcDbEntity
  8
0
100
AcDbLine
 62
7
  6
CONTINUOUS
 10
3.5437414752
 20
3.2792330033
 11
3.779980573
 21
3.2792330041
  0
LINE
  5
3C1
100
AcDbEntity
  8
0
100
AcDbLine
 62
7
  6
CONTINUOUS
 10
5.9267256032
 20
3.2792330041
 11
6.162964701
 21
3.2792330041
  0
LINE
  5
3C2
100
AcDbEntity
  8
AXIS
100
AcDbLine
 62
7
  6
CONTINUOUS
 10
4.4904685863
 20
2.6591542639
 11
4.4904685863
 21
2.4492945054
  0
LINE
  5
3C3
100
AcDbEntity
  8
0
100
AcDbLine
 62
7
  6
CONTINUOUS
 10
4.5487215012
 20
2.6591542639
 11
4.5487215012
 21
2.4498028709
  0
LINE
  5
3C4
100
AcDbEntity
  8
0
100
AcDbLine
 62
7
  6
CONTINUOUS
 10
4.5777625369
 20
4.0686030828
 11
4.5777625369
 21
4.1965858245
  0
LINE
  5
3C5
100
AcDbEntity
  8
0
100
AcDbLine
 62
7
  6
CONTINUOUS
 10
4.7094079044
 20
4.5351385159
 11
4.7094079044
 21
4.4249022954
  0
LINE
  5
3C6
100
AcDbEntity
  8
0
100
AcDbLine
 62
7
  6
CONTINUOUS
 10
4.7250377911
 20
4.4388402705
 11
4.7250377911
 21
4.5351385159
  0
LINE
  5
3C7
100
AcDbEntity
  8
0
100
AcDbLine
 62
7
  6
CONTINUOUS
 10
3.8879212891
 20
3.681500229
 11
4.7509408369
 21
3.681500229
  0
LINE
  5
3C8
100
AcDbEntity
  8
0
100
AcDbLine
 62
7
  6
CONTINUOUS
 10
4.9557653393
 20
3.681500229
 11
5.8187848871
 21
3.681500229
  0
LINE
  5
3C9
100
AcDbEntity
  8
0
100
AcDbLine
 62
7
  6
CONTINUOUS
 10
4.8206420121
 20
3.70678495
 11
4.8860631354
 21
3.70678495
  0
LINE
  5
3CA
100
AcDbEntity
  8
0
100
AcDbLine
 62
7
  6
CONTINUOUS
 10
3.9056717557
 20
3.7123064157
 11
5.8010344206
 21
3.7123064157
  0
LINE
  5
3CB
100
AcDbEntity
  8
0
100
AcDbLine
 62
7
  6
CONTINUOUS
 10
4.4617287819
 20
4.5337161552
 11
4.504439679
 21
4.4234799348
  0
LINE
  5
3CC
100
AcDbEntity
  8
0
100
AcDbLine
 62
7
  6
CONTINUOUS
 10
4.5072669989
 20
4.453272386
 11
4.4775052563
 21
4.5364646592
  0
LINE
  5
3CD
100
AcDbEntity
  8
0
100
AcDbLine
 62
7
  6
CONTINUOUS
 10
4.7509408369
 20
3.7123064157
 11
4.7509408369
 21
3.681500229
  0
LINE
  5
3CE
100
AcDbEntity
  8
0
100
AcDbLine
 62
7
  6
CONTINUOUS
 10
4.7832066679
 20
4.4249022954
 11
4.7832066679
 21
4.4309662547
  0
LINE
  5
3CF
100
AcDbEntity
  8
0
100
AcDbLine
 62
7
  6
CONTINUOUS
 10
4.8040733529
 20
4.4335443777
 11
4.8040733529
 21
4.4249022954
  0
LINE
  5
3D0
100
AcDbEntity
  8
0
100
AcDbLine
 62
7
  6
CONTINUOUS
 10
4.8205894527
 20
4.4249022954
 11
4.8205894527
 21
4.4335443777
  0
LINE
  5
3D1
100
AcDbEntity
  8
0
100
AcDbLine
 62
7
  6
CONTINUOUS
 10
4.8633362152
 20
2.503604583
 11
4.8633362152
 21
2.6375385904
  0
LINE
  5
3D2
100
AcDbEntity
  8
0
100
AcDbLine
 62
7
  6
CONTINUOUS
 10
5.8403643019
 20
3.7516764944
 11
5.8402437096
 21
3.7516764944
  0
LINE
  5
3D3
100
AcDbEntity
  8
0
100
AcDbLine
 62
7
  6
CONTINUOUS
 10
3.8664624667
 20
3.7516764944
 11
3.8663418744
 21
3.7516764944
  0
LINE
  5
3D4
100
AcDbEntity
  8
0
100
AcDbLine
 62
7
  6
CONTINUOUS
 10
4.882874623
 20
2.503604583
 11
4.882874623
 21
2.6375385904
  0
LINE
  5
3D5
100
AcDbEntity
  8
0
100
AcDbLine
 62
7
  6
CONTINUOUS
 10
4.9557653393
 20
3.7123064157
 11
4.9557653393
 21
3.681500229
  0
LINE
  5
3D6
100
AcDbEntity
  8
0
100
AcDbLine
 62
7
  6
CONTINUOUS
 10
5.1289436393
 20
4.0686030828
 11
5.1289436393
 21
4.1965558387
  0
LINE
  5
3D7
100
AcDbEntity
  8
0
100
AcDbLine
 62
7
  6
CONTINUOUS
 10
5.9230799826
 20
4.1839584087
 11
5.8428247016
 21
4.1773678752
  0
LINE
  5
3D8
100
AcDbEntity
  8
0
100
AcDbLine
 62
7
  6
CONTINUOUS
 10
5.9038251086
 20
4.20364045
 11
5.8235698276
 21
4.1970499165
  0
LINE
  5
3D9
100
AcDbEntity
  8
0
100
AcDbLine
 62
7
  6
CONTINUOUS
 10
5.1289436393
 20
4.0686030828
 11
4.5777625369
 21
4.0686030828
  0
LINE
  5
3DA
100
AcDbEntity
  8
0
100
AcDbLine
 62
7
  6
CONTINUOUS
 10
3.8638814746
 20
4.1773678752
 11
3.7836261936
 21
4.1839584087
  0
LINE
  5
3DB
100
AcDbEntity
  8
0
100
AcDbLine
 62
7
  6
CONTINUOUS
 10
3.8831363487
 20
4.1970499165
 11
3.8028810677
 21
4.20364045
  0
LINE
  5
3DC
100
AcDbEntity
  8
0
100
AcDbLine
 62
7
  6
CONTINUOUS
 10
5.2384975942
 20
4.4504928466
 11
5.2384975942
 21
4.5012573228
  0
LINE
  5
3DD
100
AcDbEntity
  8
0
100
AcDbLine
 62
7
  6
CONTINUOUS
 10
5.2470538755
 20
4.4504928466
 11
5.2470538755
 21
4.5012573228
  0
LINE
  5
3DE
100
AcDbEntity
  8
0
100
AcDbLine
 62
7
  6
CONTINUOUS
 10
6.0036159303
 20
4.1859130308
 11
6.002918363
 21
4.1859077365
  0
LINE
  5
3DF
100
AcDbEntity
  8
0
100
AcDbLine
 62
7
  6
CONTINUOUS
 10
6.0016231648
 20
4.2056395219
 11
5.9950689718
 21
4.2055897777
  0
LINE
  5
3E0
100
AcDbEntity
  8
AXIS
100
AcDbLine
 62
7
  6
CONTINUOUS
 10
5.8061089936
 20
4.1768707993
 11
5.7588648991
 21
4.1768707993
  0
LINE
  5
3E1
100
AcDbEntity
  8
AXIS
100
AcDbLine
 62
7
  6
CONTINUOUS
 10
3.9478412771
 20
4.1768707993
 11
3.9005971826
 21
4.1768707993
  0
LINE
  5
3E2
100
AcDbEntity
  8
0
100
AcDbLine
 62
7
  6
CONTINUOUS
 10
3.7030902459
 20
4.1859130308
 11
3.5437414752
 21
4.1859130308
  0
LINE
  5
3E3
100
AcDbEntity
  8
0
100
AcDbLine
 62
7
  6
CONTINUOUS
 10
6.0036159303
 20
4.1859130308
 11
6.162964701
 21
4.1859130309
  0
LINE
  5
3E4
100
AcDbEntity
  8
0
100
AcDbLine
 62
7
  6
CONTINUOUS
 10
5.8205590955
 20
4.1965558388
 11
5.8061089936
 21
4.1965558387
  0
LINE
  5
3E5
100
AcDbEntity
  8
0
100
AcDbLine
 62
7
  6
CONTINUOUS
 10
3.9005971826
 20
4.1965558387
 11
3.8861471061
 21
4.196555839
  0
LINE
  5
3E6
100
AcDbEntity
  8
AXIS
100
AcDbLine
 62
7
  6
CONTINUOUS
 10
3.9478412771
 20
4.1965558387
 11
3.9872113558
 21
4.1965558387
  0
LINE
  5
3E7
100
AcDbEntity
  8
AXIS
100
AcDbLine
 62
7
  6
CONTINUOUS
 10
5.1289436393
 20
4.1965558387
 11
5.7588648991
 21
4.1965558387
  0
LINE
  5
3E8
100
AcDbEntity
  8
0
100
AcDbLine
 62
7
  6
CONTINUOUS
 10
4.4202824837
 20
4.1965858245
 11
4.5777625369
 21
4.1965858245
  0
LINE
  5
3E9
100
AcDbEntity
  8
0
100
AcDbLine
 62
7
  6
CONTINUOUS
 10
4.42025549
 20
4.1966158058
 11
4.5777839513
 21
4.1966158058
  0
LINE
  5
3EA
100
AcDbEntity
  8
AXIS
100
AcDbLine
 62
7
  6
CONTINUOUS
 10
5.8061089936
 20
4.19689939
 11
5.7588648991
 21
4.19689939
  0
LINE
  5
3EB
100
AcDbEntity
  8
AXIS
100
AcDbLine
 62
7
  6
CONTINUOUS
 10
3.9478412771
 20
4.19689939
 11
3.9005971826
 21
4.19689939
  0
LINE
  5
3EC
100
AcDbEntity
  8
0
100
AcDbLine
 62
7
  6
CONTINUOUS
 10
3.7037878133
 20
4.1859077365
 11
3.7030902459
 21
4.1859130308
  0
LINE
  5
3ED
100
AcDbEntity
  8
0
100
AcDbLine
 62
7
  6
CONTINUOUS
 10
3.7116372044
 20
4.2055897777
 11
3.7050830114
 21
4.2056395219
  0
LINE
  5
3EE
100
AcDbEntity
  8
0
100
AcDbLine
 62
7
  6
CONTINUOUS
 10
5.2103648315
 20
4.5299032627
 11
4.9544593197
 21
4.4659268848
  0
LINE
  5
3EF
100
AcDbEntity
  8
0
100
AcDbLine
 62
7
  6
CONTINUOUS
 10
4.5081107716
 20
4.4209652875
 11
4.5187601425
 21
4.4209652875
  0
LINE
  5
3F0
100
AcDbEntity
  8
0
100
AcDbLine
 62
7
  6
CONTINUOUS
 10
4.7133449123
 20
4.4209652875
 11
4.77926966
 21
4.4209652875
  0
LINE
  5
3F1
100
AcDbEntity
  8
0
100
AcDbLine
 62
7
  6
CONTINUOUS
 10
4.8080103608
 20
4.4209652875
 11
4.8166524448
 21
4.4209652875
  0
LINE
  5
3F2
100
AcDbEntity
  8
0
100
AcDbLine
 62
7
  6
CONTINUOUS
 10
4.9616208047
 20
4.4209652875
 11
5.2175263165
 21
4.4209652875
  0
LINE
  5
3F3
100
AcDbEntity
  8
0
100
AcDbLine
 62
7
  6
CONTINUOUS
 10
4.9625435409
 20
4.4327763111
 11
5.2206300656
 21
4.4327763111
  0
LINE
  5
3F4
100
AcDbEntity
  8
0
100
AcDbLine
 62
7
  6
CONTINUOUS
 10
4.77926966
 20
4.4349032626
 11
4.7289747989
 21
4.4349032626
  0
LINE
  5
3F5
100
AcDbEntity
  8
0
100
AcDbLine
 62
7
  6
CONTINUOUS
 10
4.8166524448
 20
4.4374813855
 11
4.8080103608
 21
4.4374813855
  0
LINE
  5
3F6
100
AcDbEntity
  8
0
100
AcDbLine
 62
7
  6
CONTINUOUS
 10
5.2384975942
 20
4.4504928466
 11
5.2470538755
 21
4.4504928466
  0
LINE
  5
3F7
100
AcDbEntity
  8
0
100
AcDbLine
 62
7
  6
CONTINUOUS
 10
5.2384975942
 20
4.5012573228
 11
5.2470538755
 21
4.5012573228
  0
LINE
  5
3F8
100
AcDbEntity
  8
0
100
AcDbLine
 62
7
  6
CONTINUOUS
 10
4.7211007832
 20
4.5390755237
 11
4.7133449123
 21
4.5390755237
  0
LINE
  5
3F9
100
AcDbEntity
  8
0
100
AcDbLine
 62
7
  6
CONTINUOUS
 10
4.5619222087
 20
4.5390755237
 11
4.5544760722
 21
4.5390755237
  0
LINE
  5
3FA
100
AcDbEntity
  8
0
100
AcDbLine
 62
7
  6
CONTINUOUS
 10
4.4737983203
 20
4.5390755237
 11
4.4653998745
 21
4.5390755237
  0
LINE
  5
3FB
100
AcDbEntity
  8
AXIS
100
AcDbLine
 62
7
  6
CONTINUOUS
 10
5.7588648991
 20
4.1768707993
 11
5.7588648991
 21
4.19689939
  0
LINE
  5
3FC
100
AcDbEntity
  8
0
100
AcDbLine
 62
7
  6
CONTINUOUS
 10
5.8811238596
 20
3.299287937
 11
5.8187848871
 21
3.681500229
  0
LINE
  5
3FD
100
AcDbEntity
  8
AXIS
100
AcDbLine
 62
7
  6
CONTINUOUS
 10
5.8061089936
 20
4.1768707993
 11
5.8061089936
 21
4.19689939
  0
LINE
  5
3FE
100
AcDbEntity
  8
0
100
AcDbLine
 62
7
  6
CONTINUOUS
 10
5.8402437096
 20
4.1768677984
 11
5.8402437096
 21
3.7516764944
  0
LINE
  5
3FF
100
AcDbEntity
  8
0
100
AcDbLine
 62
7
  6
CONTINUOUS
 10
5.8428247016
 20
4.1773678752
 11
5.8428247016
 21
3.7488626629
  0
LINE
  5
400
100
AcDbEntity
  8
0
100
AcDbLine
 62
7
  6
CONTINUOUS
 10
5.9230799826
 20
3.3021245312
 11
5.9230799826
 21
4.1839584087
  0
LINE
  5
401
100
AcDbEntity
  8
0
100
AcDbLine
 62
7
  6
CONTINUOUS
 10
4.8385893086
 20
2.6631102067
 11
4.7225990557
 21
2.596143203
  0
LINE
  5
402
100
AcDbEntity
  8
0
100
AcDbLine
 62
7
  6
CONTINUOUS
 10
5.9230799826
 20
3.3021245312
 11
5.8572946352
 21
3.7054672144
  0
LINE
  5
403
100
AcDbEntity
  8
0
100
AcDbLine
 62
7
  6
CONTINUOUS
 10
6.002918363
 20
3.2792330041
 11
6.002918363
 21
4.1859077365
  0
LINE
  5
404
100
AcDbEntity
  8
0
100
AcDbLine
 62
7
  6
CONTINUOUS
 10
6.0036159303
 20
3.2792330041
 11
6.0036159303
 21
4.1859130308
  0
LINE
  5
405
100
AcDbEntity
  8
0
100
AcDbLine
 62
7
  6
CONTINUOUS
 10
6.162964701
 20
3.2792330041
 11
6.162964701
 21
4.1859130308
  0
LINE
  5
406
100
AcDbEntity
  8
AXIS
100
AcDbLine
 62
7
  6
CONTINUOUS
 10
6.231305844
 20
5.1138786733
 11
3.4754003322
 21
5.1138786733
  0
LINE
  5
407
100
AcDbEntity
  8
0
100
AcDbLine
 62
7
  6
CONTINUOUS
 10
3.4754003322
 20
5.123721193
 11
6.231305844
 21
5.123721193
  0
LINE
  5
408
100
AcDbEntity
  8
0
100
AcDbLine
 62
7
  6
CONTINUOUS
 10
3.54429797
 20
5.1926188308
 11
6.1624082062
 21
5.1926188308
  0
LINE
  5
409
100
AcDbEntity
  8
0
100
AcDbLine
 62
7
  6
CONTINUOUS
 10
6.231305844
 20
2.440436139
 11
6.231305844
 21
3.2398629253
  0
LINE
  5
40A
100
AcDbEntity
  8
0
100
AcDbLine
 62
7
  6
CONTINUOUS
 10
6.231305844
 20
5.1138786733
 11
6.231305844
 21
5.123721193
  0
LINE
  5
40B
100
AcDbEntity
  8
AXIS
100
AcDbLine
 62
7
  6
CONTINUOUS
 10
6.231305844
 20
3.2398629253
 11
6.231305844
 21
5.1138786733
  0
LINE
  5
40C
100
AcDbEntity
  8
0
100
AcDbLine
 62
7
  6
CONTINUOUS
 10
4.4614628666
 20
6.4655767689
 11
4.4614628666
 21
6.486096994
  0
LINE
  5
40D
100
AcDbEntity
  8
0
100
AcDbLine
 62
7
  6
CONTINUOUS
 10
4.4653998745
 20
6.4644329826
 11
4.4653998745
 21
6.4849354566
  0
LINE
  5
40E
100
AcDbEntity
  8
0
100
AcDbLine
 62
7
  6
CONTINUOUS
 10
4.4737983203
 20
6.4620348108
 11
4.4737983203
 21
6.4825001661
  0
LINE
  5
40F
100
AcDbEntity
  8
0
100
AcDbLine
 62
7
  6
CONTINUOUS
 10
4.4775052563
 20
6.4609943235
 11
4.4775052563
 21
6.4814436163
  0
LINE
  5
410
100
AcDbEntity
  8
0
100
AcDbLine
 62
7
  6
CONTINUOUS
 10
4.5072669989
 20
6.4530373207
 11
4.5072669989
 21
6.4733646128
  0
LINE
  5
411
100
AcDbEntity
  8
0
100
AcDbLine
 62
7
  6
CONTINUOUS
 10
4.5097552108
 20
6.4727214551
 11
4.5097552108
 21
6.4524038132
  0
LINE
  5
412
100
AcDbEntity
  8
0
100
AcDbLine
 62
7
  6
CONTINUOUS
 10
4.5172174939
 20
6.4708222286
 11
4.5172174939
 21
6.4505330306
  0
LINE
  5
413
100
AcDbEntity
  8
0
100
AcDbLine
 62
7
  6
CONTINUOUS
 10
4.5198353481
 20
6.4498870708
 11
4.5198353481
 21
6.4701664661
  0
LINE
  5
414
100
AcDbEntity
  8
0
100
AcDbLine
 62
7
  6
CONTINUOUS
 10
4.5507859064
 20
6.4426538033
 11
4.5507859064
 21
6.4628240789
  0
LINE
  5
415
100
AcDbEntity
  8
0
100
AcDbLine
 62
7
  6
CONTINUOUS
 10
4.5544760722
 20
6.4418407666
 11
4.5544760722
 21
6.4619988508
  0
LINE
  5
416
100
AcDbEntity
  8
0
100
AcDbLine
 62
7
  6
CONTINUOUS
 10
4.5619222087
 20
6.4402319987
 11
4.5619222087
 21
6.4603660033
  0
LINE
  5
417
100
AcDbEntity
  8
0
100
AcDbLine
 62
7
  6
CONTINUOUS
 10
4.5658592166
 20
6.4393985398
 11
4.5658592166
 21
6.4595200922
  0
LINE
  5
418
100
AcDbEntity
  8
0
100
AcDbLine
 62
7
  6
CONTINUOUS
 10
4.5769568751
 20
6.4371128014
 11
4.5769568751
 21
6.4572002836
  0
LINE
  5
419
100
AcDbEntity
  8
0
100
AcDbLine
 62
7
  6
CONTINUOUS
 10
4.5927266293
 20
6.4340255872
 11
4.5927266293
 21
6.4540672365
  0
LINE
  5
41A
100
AcDbEntity
  8
0
100
AcDbLine
 62
7
  6
CONTINUOUS
 10
4.6335144413
 20
6.4269080641
 11
4.6335144413
 21
6.446844846
  0
LINE
  5
41B
100
AcDbEntity
  8
0
100
AcDbLine
 62
7
  6
CONTINUOUS
 10
4.6629736325
 20
6.4225372338
 11
4.6629736325
 21
6.4424101622
  0
LINE
  5
41C
100
AcDbEntity
  8
0
100
AcDbLine
 62
7
  6
CONTINUOUS
 10
4.6829821631
 20
6.4199331433
 11
4.6829821631
 21
6.4397682241
  0
LINE
  5
41D
100
AcDbEntity
  8
0
100
AcDbLine
 62
7
  6
CONTINUOUS
 10
4.6899108637
 20
6.419099748
 11
4.6899108637
 21
6.4389227473
  0
LINE
  5
41E
100
AcDbEntity
  8
0
100
AcDbLine
 62
7
  6
CONTINUOUS
 10
4.7078352762
 20
6.4349527401
 11
4.7078352762
 21
6.4369004051
  0
LINE
  5
41F
100
AcDbEntity
  8
0
100
AcDbLine
 62
7
  6
CONTINUOUS
 10
4.7094079044
 20
6.4169425855
 11
4.7094079044
 21
6.4367343812
  0
LINE
  5
420
100
AcDbEntity
  8
0
100
AcDbLine
 62
7
  6
CONTINUOUS
 10
4.7133449123
 20
6.4165405712
 11
4.7133449123
 21
6.4363265626
  0
LINE
  5
421
100
AcDbEntity
  8
0
100
AcDbLine
 62
7
  6
CONTINUOUS
 10
4.7211007832
 20
6.4157815356
 11
4.7211007832
 21
6.4355565775
  0
LINE
  5
422
100
AcDbEntity
  8
0
100
AcDbLine
 62
7
  6
CONTINUOUS
 10
4.7250377911
 20
6.4154129336
 11
4.7250377911
 21
6.4351826626
  0
LINE
  5
423
100
AcDbEntity
  8
0
100
AcDbLine
 62
7
  6
CONTINUOUS
 10
4.7289747989
 20
6.4348201443
 11
4.7289747989
 21
6.4150555636
  0
LINE
  5
424
100
AcDbEntity
  8
0
100
AcDbLine
 62
7
  6
CONTINUOUS
 10
4.77926966
 20
6.4114750599
 11
4.77926966
 21
6.4311882085
  0
LINE
  5
425
100
AcDbEntity
  8
0
100
AcDbLine
 62
7
  6
CONTINUOUS
 10
4.7832066679
 20
6.4112716481
 11
4.7832066679
 21
6.4309818829
  0
LINE
  5
426
100
AcDbEntity
  8
0
100
AcDbLine
 62
7
  6
CONTINUOUS
 10
4.8040733529
 20
6.4103792941
 11
4.8040733529
 21
6.4300767564
  0
LINE
  5
427
100
AcDbEntity
  8
0
100
AcDbLine
 62
7
  6
CONTINUOUS
 10
4.8080103608
 20
6.4102459465
 11
4.8080103608
 21
6.4299415016
  0
LINE
  5
428
100
AcDbEntity
  8
0
100
AcDbLine
 62
7
  6
CONTINUOUS
 10
4.8166524448
 20
6.4099921845
 11
4.8166524448
 21
6.4296841112
  0
LINE
  5
429
100
AcDbEntity
  8
0
100
AcDbLine
 62
7
  6
CONTINUOUS
 10
4.8205894527
 20
6.4098943172
 11
4.8205894527
 21
6.4295848449
  0
LINE
  5
42A
100
AcDbEntity
  8
0
100
AcDbLine
 62
7
  6
CONTINUOUS
 10
4.9328416306
 20
6.4243122917
 11
4.9328416775
 21
6.4314898788
  0
LINE
  5
42B
100
AcDbEntity
  8
0
100
AcDbLine
 62
7
  6
CONTINUOUS
 10
4.9544593197
 20
6.4252269412
 11
4.9544593197
 21
6.432909581
  0
LINE
  5
42C
100
AcDbEntity
  8
0
100
AcDbLine
 62
7
  6
CONTINUOUS
 10
5.2103648315
 20
6.4688637364
 11
5.2103648315
 21
6.4762474326
  0
LINE
  5
42D
100
AcDbEntity
  8
0
100
AcDbLine
 62
7
  6
CONTINUOUS
 10
5.2470538755
 20
6.4749783572
 11
5.2470538755
 21
6.4866354495
  0
LWPOLYLINE
  5
42E
100
AcDbEntity
  8
0
100
AcDbPolyline
 62
7
  6
CONTINUOUS
 90
5
 70
0
 10
13.5659612101
 20
4.6546398996
 10
13.5676789568
 20
4.6545490979
 10
13.5766315411
 20
4.6560718387
 10
13.5850735513
 20
4.6609270608
 10
13.5918686657
 20
4.6684713613
  0
LINE
  5
42F
100
AcDbEntity
  8
0
100
AcDbLine
 62
7
  6
CONTINUOUS
 10
13.5659612101
 20
4.6546398996
 11
13.5659219576
 21
4.6546434099
  0
LWPOLYLINE
  5
430
100
AcDbEntity
  8
0
100
AcDbPolyline
 62
7
  6
CONTINUOUS
 90
4
 70
0
 10
13.4794224389
 20
4.664216291
 10
13.5070779861
 20
4.6608059202
 10
13.5391552053
 20
4.657252215
 10
13.5659219576
 20
4.6546434099
  0
LINE
  5
431
100
AcDbEntity
  8
0
100
AcDbLine
 62
7
  6
CONTINUOUS
 10
13.479425167
 20
4.6642159399
 11
13.4794224389
 21
4.664216291
  0
LWPOLYLINE
  5
432
100
AcDbEntity
  8
0
100
AcDbPolyline
 62
7
  6
CONTINUOUS
 90
4
 70
0
 10
11.2188768301
 20
6.7374379578
 10
11.2210675661
 20
6.6879846315
 10
11.2379290629
 20
6.59250948
 10
11.2716203654
 20
6.4980526722
  0
LINE
  5
433
100
AcDbEntity
  8
0
100
AcDbLine
 62
7
  6
CONTINUOUS
 10
11.3549044635
 20
6.2945658345
 11
11.3549919818
 21
6.2905057948
  0
LINE
  5
434
100
AcDbEntity
  8
AXIS
100
AcDbLine
 62
7
  6
CONTINUOUS
 10
11.2188766089
 20
7.3850806069
 11
11.2188766089
 21
6.7371962751
  0
LINE
  5
435
100
AcDbEntity
  8
AXIS
100
AcDbLine
 62
7
  6
CONTINUOUS
 10
11.2188766089
 20
5.7504684844
 11
11.2188766089
 21
5.1970477089
  0
LINE
  5
436
100
AcDbEntity
  8
0
100
AcDbLine
 62
7
  6
CONTINUOUS
 10
11.3549919818
 20
5.5501993983
 11
11.3549919818
 21
6.2905057904
  0
LINE
  5
437
100
AcDbEntity
  8
0
100
AcDbLine
 62
7
  6
CONTINUOUS
 10
11.3549919818
 20
5.5502020735
 11
11.3549919818
 21
5.5501993983
  0
LINE
  5
438
100
AcDbEntity
  8
0
100
AcDbLine
 62
7
  6
CONTINUOUS
 10
11.367752798
 20
5.5193695098
 11
11.367752798
 21
6.2596759432
  0
LINE
  5
439
100
AcDbEntity
  8
0
100
AcDbLine
 62
7
  6
CONTINUOUS
 10
11.2188766089
 20
6.7371962194
 11
11.2188766712
 21
6.7374392385
  0
LWPOLYLINE
  5
43A
100
AcDbEntity
  8
0
100
AcDbPolyline
 62
7
  6
CONTINUOUS
 90
3
 70
0
 10
11.3549919818
 20
5.5502020735
 10
11.3549295626
 20
5.5465955238
 10
11.3547197936
 20
5.5430843043
  0
LWPOLYLINE
  5
43B
100
AcDbEntity
  8
0
100
AcDbPolyline
 62
7
  6
CONTINUOUS
 90
3
 70
0
 10
11.3547197936
 20
5.5430843043
 10
11.3544828507
 20
5.5409603439
 10
11.3544063188
 20
5.5404682061
  0
LINE
  5
43C
100
AcDbEntity
  8
0
100
AcDbLine
 62
7
  6
CONTINUOUS
 10
11.3544094228
 20
5.5404864239
 11
11.354372501
 21
5.5402802876
  0
LWPOLYLINE
  5
43D
100
AcDbEntity
  8
0
100
AcDbPolyline
 62
7
  6
CONTINUOUS
 90
3
 70
0
 10
13.4705246917
 20
4.6672117728
 10
13.4736984174
 20
4.6656825179
 10
13.4794251669
 20
4.6642159399
  0
LINE
  5
43E
100
AcDbEntity
  8
0
100
AcDbLine
 62
7
  6
CONTINUOUS
 10
11.2716203654
 20
6.4980526722
 11
11.3188432522
 21
6.4111067142
  0
LINE
  5
43F
100
AcDbEntity
  8
0
100
AcDbLine
 62
7
  6
CONTINUOUS
 10
13.4705261073
 20
4.6672109518
 11
13.4695940133
 21
4.6677490844
  0
LINE
  5
440
100
AcDbEntity
  8
0
100
AcDbLine
 62
7
  6
CONTINUOUS
 10
13.4749781402
 20
4.7075608566
 11
13.4743399153
 21
4.7079293276
  0
LINE
  5
441
100
AcDbEntity
  8
0
100
AcDbLine
 62
7
  6
CONTINUOUS
 10
11.3188432522
 20
6.4111067142
 11
11.3188316802
 21
6.4111248242
  0
LWPOLYLINE
  5
442
100
AcDbEntity
  8
0
100
AcDbPolyline
 62
7
  6
CONTINUOUS
 90
10
 70
0
 10
11.3188316802
 20
6.4111248242
 10
11.3198018229
 20
6.4095630709
 10
11.3246219037
 20
6.4007747835
 10
11.3310240929
 20
6.3870759998
 10
11.3379096827
 20
6.3697578879
 10
11.3443621654
 20
6.3503020208
 10
11.3496148755
 20
6.3304308601
 10
11.3531307806
 20
6.3120664621
 10
11.3547563744
 20
6.2973869385
 10
11.354906014
 20
6.2945285845
  0
LINE
  5
443
100
AcDbEntity
  8
0
100
AcDbLine
 62
7
  6
CONTINUOUS
 10
11.9738431381
 20
5.9097574384
 11
11.9738431381
 21
5.169451005
  0
LINE
  5
444
100
AcDbEntity
  8
0
100
AcDbLine
 62
7
  6
CONTINUOUS
 10
12.1371339765
 20
5.9342862335
 11
12.1371339765
 21
5.205282453
  0
LINE
  5
445
100
AcDbEntity
  8
0
100
AcDbLine
 62
7
  6
CONTINUOUS
 10
12.137412755
 20
5.2056910547
 11
12.137412755
 21
5.9342416459
  0
LINE
  5
446
100
AcDbEntity
  8
0
100
AcDbLine
 62
7
  6
CONTINUOUS
 10
12.1470006751
 20
5.2348477524
 11
12.1470006751
 21
5.932708163
  0
LINE
  5
447
100
AcDbEntity
  8
0
100
AcDbLine
 62
7
  6
CONTINUOUS
 10
13.7828638981
 20
6.0922083792
 11
13.7775661236
 21
6.0910035389
  0
LINE
  5
448
100
AcDbEntity
  8
0
100
AcDbLine
 62
7
  6
CONTINUOUS
 10
12.1277630424
 20
5.9357850119
 11
12.1277592816
 21
5.9357857812
  0
LINE
  5
449
100
AcDbEntity
  8
0
100
AcDbLine
 62
7
  6
CONTINUOUS
 10
13.7638445156
 20
6.1444586145
 11
13.7631367889
 21
6.1442976606
  0
LWPOLYLINE
  5
44A
100
AcDbEntity
  8
0
100
AcDbPolyline
 62
7
  6
CONTINUOUS
 90
15
 70
0
 10
12.1277630427
 20
5.9357850118
 10
12.3070152993
 20
5.9071155745
 10
12.4985108352
 20
5.892848641
 10
12.6919539938
 20
5.8945671013
 10
12.8836982372
 20
5.9122577366
 10
13.0700792898
 20
5.94568051
 10
13.2475488233
 20
5.994386205
 10
13.412704965
 20
6.0577468128
 10
13.5620559343
 20
6.1348356219
 10
13.6923574793
 20
6.224466868
 10
13.8007778874
 20
6.3252853568
 10
13.8839852907
 20
6.4343752801
 10
13.9401693711
 20
6.5480364479
 10
13.969656435
 20
6.6639842641
 10
13.9747816741
 20
6.7377056994
  0
LWPOLYLINE
  5
44B
100
AcDbEntity
  8
0
100
AcDbPolyline
 62
7
  6
CONTINUOUS
 90
5
 70
0
 10
12.1194206898
 20
5.9367028386
 10
12.1188149937
 20
5.9365699514
 10
12.1206126572
 20
5.9366419585
 10
12.1259296344
 20
5.9361251628
 10
12.1277592816
 20
5.9357857812
  0
LINE
  5
44C
100
AcDbEntity
  8
0
100
AcDbLine
 62
7
  6
CONTINUOUS
 10
12.1470006751
 20
5.8909825878
 11
12.203594157
 21
5.9236566547
  0
LINE
  5
44D
100
AcDbEntity
  8
0
100
AcDbLine
 62
7
  6
CONTINUOUS
 10
12.1371339765
 20
5.205282453
 11
12.137412755
 21
5.2056910547
  0
LINE
  5
44E
100
AcDbEntity
  8
0
100
AcDbLine
 62
7
  6
CONTINUOUS
 10
12.1719565978
 20
5.1621561674
 11
12.174043428
 21
5.1652148052
  0
LINE
  5
44F
100
AcDbEntity
  8
0
100
AcDbLine
 62
7
  6
CONTINUOUS
 10
13.4353482726
 20
6.2653178646
 11
13.4272307994
 21
6.2681437089
  0
LINE
  5
450
100
AcDbEntity
  8
0
100
AcDbLine
 62
7
  6
CONTINUOUS
 10
13.3078919158
 20
6.1175404129
 11
13.2935129283
 21
6.1258419374
  0
LINE
  5
451
100
AcDbEntity
  8
0
100
AcDbLine
 62
7
  6
CONTINUOUS
 10
13.3071030188
 20
6.1183831718
 11
13.2927215673
 21
6.1266861188
  0
LINE
  5
452
100
AcDbEntity
  8
0
100
AcDbLine
 62
7
  6
CONTINUOUS
 10
13.3082896837
 20
6.1465141967
 11
13.3184222589
 21
6.140664284
  0
LINE
  5
453
100
AcDbEntity
  8
0
100
AcDbLine
 62
7
  6
CONTINUOUS
 10
13.3207301182
 20
6.1474116279
 11
13.3063903605
 21
6.1556905035
  0
LINE
  5
454
100
AcDbEntity
  8
0
100
AcDbLine
 62
7
  6
CONTINUOUS
 10
13.2686033102
 20
6.1957459688
 11
13.2540941123
 21
6.2041226686
  0
LINE
  5
455
100
AcDbEntity
  8
0
100
AcDbLine
 62
7
  6
CONTINUOUS
 10
13.2719530302
 20
6.2011853674
 11
13.2574555315
 21
6.2095553128
  0
LINE
  5
456
100
AcDbEntity
  8
0
100
AcDbLine
 62
7
  6
CONTINUOUS
 10
13.279587374
 20
6.2036349523
 11
13.2651161223
 21
6.2119897444
  0
LINE
  5
457
100
AcDbEntity
  8
0
100
AcDbLine
 62
7
  6
CONTINUOUS
 10
13.2821091007
 20
6.2035105286
 11
13.2676463915
 21
6.2118603887
  0
LINE
  5
458
100
AcDbEntity
  8
0
100
AcDbLine
 62
7
  6
CONTINUOUS
 10
13.3702685203
 20
6.164005615
 11
13.3844379246
 21
6.1558250907
  0
LINE
  5
459
100
AcDbEntity
  8
0
100
AcDbLine
 62
7
  6
CONTINUOUS
 10
13.3758789101
 20
6.1642308015
 11
13.3616889919
 21
6.1724231692
  0
LINE
  5
45A
100
AcDbEntity
  8
0
100
AcDbLine
 62
7
  6
CONTINUOUS
 10
13.3701537792
 20
6.1861061335
 11
13.3559497252
 21
6.1943066624
  0
LINE
  5
45B
100
AcDbEntity
  8
0
100
AcDbLine
 62
7
  6
CONTINUOUS
 10
13.4172296192
 20
6.1672807048
 11
13.4031318601
 21
6.1754198657
  0
LINE
  5
45C
100
AcDbEntity
  8
0
100
AcDbLine
 62
7
  6
CONTINUOUS
 10
13.3477300905
 20
6.2250583283
 11
13.3334674925
 21
6.2332926568
  0
LINE
  5
45D
100
AcDbEntity
  8
0
100
AcDbLine
 62
7
  6
CONTINUOUS
 10
13.350914327
 20
6.228327141
 11
13.3366603496
 21
6.2365564925
  0
LINE
  5
45E
100
AcDbEntity
  8
0
100
AcDbLine
 62
7
  6
CONTINUOUS
 10
13.3573170942
 20
6.2307102181
 11
13.3430801437
 21
6.2389297393
  0
LINE
  5
45F
100
AcDbEntity
  8
0
100
AcDbLine
 62
7
  6
CONTINUOUS
 10
13.3597031577
 20
6.2306641178
 11
13.3454724474
 21
6.2388800363
  0
LINE
  5
460
100
AcDbEntity
  8
0
100
AcDbLine
 62
7
  6
CONTINUOUS
 10
13.4408033229
 20
6.1874837832
 11
13.4267501378
 21
6.1955972099
  0
LINE
  5
461
100
AcDbEntity
  8
0
100
AcDbLine
 62
7
  6
CONTINUOUS
 10
13.3834876321
 20
6.2288620166
 11
13.369315987
 21
6.2370438347
  0
LINE
  5
462
100
AcDbEntity
  8
0
100
AcDbLine
 62
7
  6
CONTINUOUS
 10
13.4789724566
 20
6.186339132
 11
13.4649786997
 21
6.1944182485
  0
LINE
  5
463
100
AcDbEntity
  8
0
100
AcDbLine
 62
7
  6
CONTINUOUS
 10
13.4780729661
 20
6.1881899866
 11
13.4640779949
 21
6.1962698042
  0
LINE
  5
464
100
AcDbEntity
  8
0
100
AcDbLine
 62
7
  6
CONTINUOUS
 10
13.394259878
 20
6.1669627929
 11
13.393364669
 21
6.1675082169
  0
LWPOLYLINE
  5
465
100
AcDbEntity
  8
0
100
AcDbPolyline
 62
7
  6
CONTINUOUS
 90
5
 70
0
 10
13.6361898686
 20
6.2896299117
 10
13.6383775231
 20
6.2885646035
 10
13.6463281901
 20
6.2873907995
 10
13.6543845533
 20
6.2897905166
 10
13.6569350398
 20
6.2913139458
  0
LINE
  5
466
100
AcDbEntity
  8
0
100
AcDbLine
 62
7
  6
CONTINUOUS
 10
13.4499586687
 20
6.2202845521
 11
13.4359211927
 21
6.2283889093
  0
LINE
  5
467
100
AcDbEntity
  8
0
100
AcDbLine
 62
7
  6
CONTINUOUS
 10
13.490206579
 20
6.2053266219
 11
13.4932431238
 21
6.2035735115
  0
LINE
  5
468
100
AcDbEntity
  8
0
100
AcDbLine
 62
7
  6
CONTINUOUS
 10
13.4460271242
 20
6.2390659135
 11
13.4319830127
 21
6.2471741016
  0
LINE
  5
469
100
AcDbEntity
  8
0
100
AcDbLine
 62
7
  6
CONTINUOUS
 10
13.4173617202
 20
6.2562083057
 11
13.4032642279
 21
6.2643473126
  0
LINE
  5
46A
100
AcDbEntity
  8
0
100
AcDbLine
 62
7
  6
CONTINUOUS
 10
13.441283084
 20
6.2600307685
 11
13.4272307431
 21
6.2681437078
  0
LINE
  5
46B
100
AcDbEntity
  8
0
100
AcDbLine
 62
7
  6
CONTINUOUS
 10
13.4493883561
 20
6.257215413
 11
13.4353499279
 21
6.2653203199
  0
LINE
  5
46C
100
AcDbEntity
  8
0
100
AcDbLine
 62
7
  6
CONTINUOUS
 10
13.5313386221
 20
6.222644387
 11
13.517399263
 21
6.2306920977
  0
LINE
  5
46D
100
AcDbEntity
  8
0
100
AcDbLine
 62
7
  6
CONTINUOUS
 10
13.533409613
 20
6.2227801899
 11
13.5194717225
 21
6.2308270527
  0
LINE
  5
46E
100
AcDbEntity
  8
0
100
AcDbLine
 62
7
  6
CONTINUOUS
 10
13.5504960696
 20
6.2223384772
 11
13.5365682091
 21
6.2303795493
  0
LINE
  5
46F
100
AcDbEntity
  8
0
100
AcDbLine
 62
7
  6
CONTINUOUS
 10
13.5496522351
 20
6.2241571995
 11
13.535723968
 21
6.2321985064
  0
LINE
  5
470
100
AcDbEntity
  8
0
100
AcDbLine
 62
7
  6
CONTINUOUS
 10
13.5496522351
 20
6.2312134806
 11
13.535723968
 21
6.2392547875
  0
LINE
  5
471
100
AcDbEntity
  8
0
100
AcDbLine
 62
7
  6
CONTINUOUS
 10
13.4780729661
 20
6.2781981271
 11
13.4640779949
 21
6.2862779447
  0
LINE
  5
472
100
AcDbEntity
  8
0
100
AcDbLine
 62
7
  6
CONTINUOUS
 10
13.5525303999
 20
6.2359808795
 11
13.5386034814
 21
6.2440214078
  0
LINE
  5
473
100
AcDbEntity
  8
0
100
AcDbLine
 62
7
  6
CONTINUOUS
 10
13.4811411077
 20
6.2828558453
 11
13.4671502408
 21
6.2909332934
  0
LINE
  5
474
100
AcDbEntity
  8
0
100
AcDbLine
 62
7
  6
CONTINUOUS
 10
13.5588206883
 20
6.2394053638
 11
13.5448963354
 21
6.2474444108
  0
LINE
  5
475
100
AcDbEntity
  8
0
100
AcDbLine
 62
7
  6
CONTINUOUS
 10
13.5608389049
 20
6.2395716352
 11
13.5469152631
 21
6.2476102717
  0
LINE
  5
476
100
AcDbEntity
  8
0
100
AcDbLine
 62
7
  6
CONTINUOUS
 10
13.4871620352
 20
6.285712265
 11
13.4731789108
 21
6.2937852431
  0
LINE
  5
477
100
AcDbEntity
  8
0
100
AcDbLine
 62
7
  6
CONTINUOUS
 10
13.4893156279
 20
6.2858003788
 11
13.475335172
 21
6.2938718162
  0
LINE
  5
478
100
AcDbEntity
  8
0
100
AcDbLine
 62
7
  6
CONTINUOUS
 10
13.3071030188
 20
6.1183831718
 11
13.3078940539
 21
6.117543189
  0
LINE
  5
479
100
AcDbEntity
  8
0
100
AcDbLine
 62
7
  6
CONTINUOUS
 10
13.2935175984
 20
6.1258392415
 11
13.2927215673
 21
6.1266861188
  0
LINE
  5
47A
100
AcDbEntity
  8
0
100
AcDbLine
 62
7
  6
CONTINUOUS
 10
13.2829443015
 20
6.2025917407
 11
13.2821088125
 21
6.2035101521
  0
LINE
  5
47B
100
AcDbEntity
  8
0
100
AcDbLine
 62
7
  6
CONTINUOUS
 10
13.3126693502
 20
6.1374428001
 11
13.3118228013
 21
6.1384173278
  0
LINE
  5
47C
100
AcDbEntity
  8
0
100
AcDbLine
 62
7
  6
CONTINUOUS
 10
13.6362126412
 20
6.2896166889
 11
13.6310247224
 21
6.2926118674
  0
LINE
  5
47D
100
AcDbEntity
  8
0
100
AcDbLine
 62
7
  6
CONTINUOUS
 10
13.6308526204
 20
6.2979149187
 11
13.6257773119
 21
6.3008452883
  0
LINE
  5
47E
100
AcDbEntity
  8
0
100
AcDbLine
 62
7
  6
CONTINUOUS
 10
13.6454918136
 20
6.3251094823
 11
13.6400593443
 21
6.328245849
  0
LINE
  5
47F
100
AcDbEntity
  8
0
100
AcDbLine
 62
7
  6
CONTINUOUS
 10
13.281060933
 20
4.6822148877
 11
13.281060933
 21
4.5108706945
  0
LINE
  5
480
100
AcDbEntity
  8
AXIS
100
AcDbLine
 62
7
  6
CONTINUOUS
 10
13.3360599761
 20
4.6908379936
 11
13.3360599761
 21
4.5198461663
  0
LINE
  5
481
100
AcDbEntity
  8
0
100
AcDbLine
 62
7
  6
CONTINUOUS
 10
13.8121358881
 20
6.5066316797
 11
13.8120620335
 21
6.5066737036
  0
LINE
  5
482
100
AcDbEntity
  8
0
100
AcDbLine
 62
7
  6
CONTINUOUS
 10
13.7955875807
 20
6.4996325969
 11
13.7903664974
 21
6.5026469226
  0
LINE
  5
483
100
AcDbEntity
  8
0
100
AcDbLine
 62
7
  6
CONTINUOUS
 10
13.8121355173
 20
6.5066318938
 11
13.8046500186
 21
6.5109535507
  0
LINE
  5
484
100
AcDbEntity
  8
0
100
AcDbLine
 62
7
  6
CONTINUOUS
 10
13.6375859128
 20
6.1702872788
 11
13.6304224429
 21
6.1818632712
  0
LWPOLYLINE
  5
485
100
AcDbEntity
  8
0
100
AcDbPolyline
 62
7
  6
CONTINUOUS
 90
5
 70
0
 10
13.5978130255
 20
4.7966033241
 10
13.5977107176
 20
4.7990136661
 10
13.5950030179
 20
4.8085900479
 10
13.5889313699
 20
4.8160935234
 10
13.5857112315
 20
4.8182814593
  0
LINE
  5
486
100
AcDbEntity
  8
0
100
AcDbLine
 62
7
  6
CONTINUOUS
 10
13.4640779949
 20
6.2862779447
 11
13.4640779949
 21
6.1962698042
  0
LINE
  5
487
100
AcDbEntity
  8
0
100
AcDbLine
 62
7
  6
CONTINUOUS
 10
13.4780729661
 20
6.2781981271
 11
13.4780729661
 21
6.1881899866
  0
LINE
  5
488
100
AcDbEntity
  8
0
100
AcDbLine
 62
7
  6
CONTINUOUS
 10
13.4902065506
 20
6.2053267206
 11
13.4902065506
 21
6.2839544707
  0
LINE
  5
489
100
AcDbEntity
  8
0
100
AcDbLine
 62
7
  6
CONTINUOUS
 10
13.5342663299
 20
6.2160027926
 11
13.5342663299
 21
6.22095403
  0
LINE
  5
48A
100
AcDbEntity
  8
0
100
AcDbLine
 62
7
  6
CONTINUOUS
 10
13.535723968
 20
6.2392547875
 11
13.535723968
 21
6.2321985064
  0
LINE
  5
48B
100
AcDbEntity
  8
0
100
AcDbLine
 62
7
  6
CONTINUOUS
 10
13.5496522351
 20
6.2312134806
 11
13.5496522351
 21
6.2241571995
  0
LINE
  5
48C
100
AcDbEntity
  8
0
100
AcDbLine
 62
7
  6
CONTINUOUS
 10
13.5616737646
 20
6.2307018133
 11
13.5616737646
 21
6.2377580944
  0
LWPOLYLINE
  5
48D
100
AcDbEntity
  8
0
100
AcDbPolyline
 62
7
  6
CONTINUOUS
 90
6
 70
0
 10
13.8081792821
 20
6.4153735328
 10
13.8115560416
 20
6.4194020849
 10
13.8160733633
 20
6.4273940763
 10
13.8191902332
 20
6.4363965452
 10
13.8206073352
 20
6.445369678
 10
13.8206661535
 20
6.4474724684
  0
LINE
  5
48E
100
AcDbEntity
  8
0
100
AcDbLine
 62
7
  6
CONTINUOUS
 10
13.8832237909
 20
6.0580440319
 11
13.8832355233
 21
6.058025117
  0
LINE
  5
48F
100
AcDbEntity
  8
0
100
AcDbLine
 62
7
  6
CONTINUOUS
 10
13.5921465379
 20
4.6792664625
 11
13.5921465379
 21
4.7886239033
  0
LINE
  5
490
100
AcDbEntity
  8
0
100
AcDbLine
 62
7
  6
CONTINUOUS
 10
13.5978130256
 20
4.6872450906
 11
13.5978130256
 21
4.7966025335
  0
LINE
  5
491
100
AcDbEntity
  8
0
100
AcDbLine
 62
7
  6
CONTINUOUS
 10
13.6375859128
 20
6.1702872788
 11
13.6375859128
 21
6.1867908469
  0
LWPOLYLINE
  5
492
100
AcDbEntity
  8
0
100
AcDbPolyline
 62
7
  6
CONTINUOUS
 90
10
 70
0
 10
13.8832355232
 20
6.0580251172
 10
13.8810891858
 20
6.0616385581
 10
13.8742520306
 20
6.0747848974
 10
13.8659620265
 20
6.0934572789
 10
13.8576057315
 20
6.1155558568
 10
13.8501474984
 20
6.1392291902
 10
13.8442854
 20
6.1627348027
 10
13.8404818763
 20
6.1842101723
 10
13.838824473
 20
6.2015529043
 10
13.8386667322
 20
6.2079387882
  0
LWPOLYLINE
  5
493
100
AcDbEntity
  8
0
100
AcDbPolyline
 62
7
  6
CONTINUOUS
 90
5
 70
0
 10
13.8206661486
 20
6.4888687878
 10
13.8205757165
 20
6.4913521125
 10
13.8186872012
 20
6.4992173753
 10
13.8141258603
 20
6.5052567246
 10
13.8120612433
 20
6.506674133
  0
LINE
  5
494
100
AcDbEntity
  8
0
100
AcDbLine
 62
7
  6
CONTINUOUS
 10
13.7631367889
 20
6.1442976606
 11
13.7631367889
 21
6.2902834717
  0
LINE
  5
495
100
AcDbEntity
  8
0
100
AcDbLine
 62
7
  6
CONTINUOUS
 10
13.7638445156
 20
6.1444586145
 11
13.7638445156
 21
6.290941576
  0
LINE
  5
496
100
AcDbEntity
  8
0
100
AcDbLine
 62
7
  6
CONTINUOUS
 10
13.8191849824
 20
6.4441400227
 11
13.8191849824
 21
6.4855893403
  0
LINE
  5
497
100
AcDbEntity
  8
0
100
AcDbLine
 62
7
  6
CONTINUOUS
 10
13.8206662402
 20
6.447446344
 11
13.8206662402
 21
6.488895652
  0
LINE
  5
498
100
AcDbEntity
  8
0
100
AcDbLine
 62
7
  6
CONTINUOUS
 10
13.8386667478
 20
6.2079036861
 11
13.8386667478
 21
6.3749599376
  0
LINE
  5
499
100
AcDbEntity
  8
0
100
AcDbLine
 62
7
  6
CONTINUOUS
 10
13.9747818303
 20
6.7377044907
 11
13.9747821207
 21
6.7371962309
  0
LINE
  5
49A
100
AcDbEntity
  8
AXIS
100
AcDbLine
 62
7
  6
CONTINUOUS
 10
13.9747821207
 20
7.3850806069
 11
13.9747821207
 21
6.7371962757
  0
LINE
  5
49B
100
AcDbEntity
  8
AXIS
100
AcDbLine
 62
7
  6
CONTINUOUS
 10
13.9747821207
 20
5.7504684844
 11
13.9747821207
 21
5.1970477089
  0
LWPOLYLINE
  5
49C
100
AcDbEntity
  8
0
100
AcDbPolyline
 62
7
  6
CONTINUOUS
 90
3
 70
0
 10
13.5918686657
 20
4.6684713613
 10
13.5963013428
 20
4.6776975673
 10
13.5978130252
 20
4.6872472092
  0
CIRCLE
  5
49D
100
AcDbEntity
  8
0
100
AcDbCircle
 62
7
  6
CONTINUOUS
 10
10.5342808475
 20
1.243294839
 40
0.252091
  0
CIRCLE
  5
49E
100
AcDbEntity
  8
0
100
AcDbCircle
 62
7
  6
CONTINUOUS
 10
10.5342808475
 20
1.243294839
 40
0.182698
  0
CIRCLE
  5
49F
100
AcDbEntity
  8
0
100
AcDbCircle
 62
7
  6
CONTINUOUS
 10
10.1225539079
 20
1.9935547577
 40
0.0638444824
  0
ARC
  5
4A0
100
AcDbEntity
  8
AXIS
100
AcDbCircle
 62
7
  6
CONTINUOUS
 10
4.8533530881
 20
-2.5981816026
 40
7.874015748
100
AcDbArc
 50
81.6627208111
 51
98.3372791889
  0
ARC
  5
4A1
100
AcDbEntity
  8
0
100
AcDbCircle
 62
7
  6
CONTINUOUS
 10
3.424362811
 20
3.3476034416
 40
0.3621305143
100
AcDbArc
 50
349.1172064919
 51
352.7853403882
  0
ARC
  5
4A2
100
AcDbEntity
  8
0
100
AcDbCircle
 62
7
  6
CONTINUOUS
 10
4.2152170431
 20
4.3487737696
 40
0.3101824262
100
AcDbArc
 50
18.2746459732
 51
19.6877558868
  0
ARC
  5
4A3
100
AcDbEntity
  8
0
100
AcDbCircle
 62
7
  6
CONTINUOUS
 10
4.7772227342
 20
4.35657916
 40
0.2749506255
100
AcDbArc
 50
159.4102079656
 51
161.0219771508
  0
ARC
  5
4A4
100
AcDbEntity
  8
0
100
AcDbCircle
 62
7
  6
CONTINUOUS
 10
3.54429797
 20
5.123721193
 40
0.0688976378
100
AcDbArc
 50
90.0
 51
180.0
  0
ARC
  5
4A5
100
AcDbEntity
  8
0
100
AcDbCircle
 62
7
  6
CONTINUOUS
 10
4.6297379033
 20
4.470487855
 40
0.0507454944
100
AcDbArc
 50
224.7161006836
 51
227.8913802399
  0
ARC
  5
4A6
100
AcDbEntity
  8
0
100
AcDbCircle
 62
7
  6
CONTINUOUS
 10
3.8213533613
 20
3.2792337278
 40
0.0413727883
100
AcDbArc
 50
180.0010022358
 51
185.6458417914
  0
ARC
  5
4A7
100
AcDbEntity
  8
0
100
AcDbCircle
 62
7
  6
CONTINUOUS
 10
3.906209062
 20
3.7517735554
 40
0.0398713758
100
AcDbArc
 50
184.494867819
 51
199.8768796068
  0
ARC
  5
4A8
100
AcDbEntity
  8
0
100
AcDbCircle
 62
7
  6
CONTINUOUS
 10
3.9059028416
 20
3.7517929139
 40
0.0395975092
100
AcDbArc
 50
208.3866931414
 51
220.6609026258
  0
ARC
  5
4A9
100
AcDbEntity
  8
0
100
AcDbCircle
 62
7
  6
CONTINUOUS
 10
3.9058175354
 20
3.7518194994
 40
0.0395558703
100
AcDbArc
 50
229.3036100344
 51
242.1559988989
  0
ARC
  5
4AA
100
AcDbEntity
  8
0
100
AcDbCircle
 62
7
  6
CONTINUOUS
 10
3.9058325454
 20
3.7516764944
 40
0.0393700787
100
AcDbArc
 50
180.0
 51
270.0
  0
ARC
  5
4AB
100
AcDbEntity
  8
0
100
AcDbCircle
 62
7
  6
CONTINUOUS
 10
3.9056325479
 20
3.7515806819
 40
0.0392541867
100
AcDbArc
 50
220.6829770113
 51
229.2810325971
  0
ARC
  5
4AC
100
AcDbEntity
  8
0
100
AcDbCircle
 62
7
  6
CONTINUOUS
 10
3.9054617781
 20
3.7515398206
 40
0.0390891562
100
AcDbArc
 50
199.9271064127
 51
208.3676810314
  0
ARC
  5
4AD
100
AcDbEntity
  8
0
100
AcDbCircle
 62
7
  6
CONTINUOUS
 10
3.9055318453
 20
3.751312823
 40
0.0389744229
100
AcDbArc
 50
242.1794649839
 51
249.8060590625
  0
ARC
  5
4AE
100
AcDbEntity
  8
0
100
AcDbCircle
 62
7
  6
CONTINUOUS
 10
3.9052599609
 20
3.7516828311
 40
0.038918087
100
AcDbArc
 50
180.009328887
 51
184.4712175497
  0
ARC
  5
4AF
100
AcDbEntity
  8
0
100
AcDbCircle
 62
7
  6
CONTINUOUS
 10
3.9056720497
 20
3.7507287221
 40
0.0384223065
100
AcDbArc
 50
269.0642459678
 51
269.9995614758
  0
ARC
  5
4B0
100
AcDbEntity
  8
0
100
AcDbCircle
 62
7
  6
CONTINUOUS
 10
4.7373628353
 20
2.5705715867
 40
0.0295275591
100
AcDbArc
 50
120.0
 51
240.0
  0
ARC
  5
4B1
100
AcDbEntity
  8
0
100
AcDbCircle
 62
7
  6
CONTINUOUS
 10
4.500311106
 20
2.6591542639
 40
0.0098425197
100
AcDbArc
 50
90.0
 51
180.0
  0
ARC
  5
4B2
100
AcDbEntity
  8
0
100
AcDbCircle
 62
7
  6
CONTINUOUS
 10
4.5134937226
 20
4.4472727104
 40
0.0039370079
100
AcDbArc
 50
198.2714176443
 51
341.0562790042
  0
ARC
  5
4B3
100
AcDbEntity
  8
0
100
AcDbCircle
 62
7
  6
CONTINUOUS
 10
4.7289747989
 20
4.4388402705
 40
0.0039370079
100
AcDbArc
 50
180.0
 51
270.0
  0
ARC
  5
4B4
100
AcDbEntity
  8
0
100
AcDbCircle
 62
7
  6
CONTINUOUS
 10
4.8080103608
 20
4.4249022954
 40
0.0039370079
100
AcDbArc
 50
180.0
 51
270.0
  0
ARC
  5
4B5
100
AcDbEntity
  8
0
100
AcDbCircle
 62
7
  6
CONTINUOUS
 10
4.8080103608
 20
4.4335443777
 40
0.0039370079
100
AcDbArc
 50
90.0
 51
180.0
  0
ARC
  5
4B6
100
AcDbEntity
  8
0
100
AcDbCircle
 62
7
  6
CONTINUOUS
 10
4.8166524448
 20
4.4335443777
 40
0.0039370079
100
AcDbArc
 50
0.0
 51
90.0
  0
ARC
  5
4B7
100
AcDbEntity
  8
0
100
AcDbCircle
 62
7
  6
CONTINUOUS
 10
4.8166524448
 20
4.4249022954
 40
0.0039370079
100
AcDbArc
 50
270.0
 51
360.0
  0
ARC
  5
4B8
100
AcDbEntity
  8
0
100
AcDbCircle
 62
7
  6
CONTINUOUS
 10
4.7133449123
 20
4.5351385159
 40
0.0039370079
100
AcDbArc
 50
90.0
 51
180.0
  0
ARC
  5
4B9
100
AcDbEntity
  8
0
100
AcDbCircle
 62
7
  6
CONTINUOUS
 10
4.7211007832
 20
4.5351385159
 40
0.0039370079
100
AcDbArc
 50
0.0
 51
90.0
  0
ARC
  5
4BA
100
AcDbEntity
  8
0
100
AcDbCircle
 62
7
  6
CONTINUOUS
 10
4.77926966
 20
4.4309662547
 40
0.0039370079
100
AcDbArc
 50
0.0
 51
90.0
  0
ARC
  5
4BB
100
AcDbEntity
  8
0
100
AcDbCircle
 62
7
  6
CONTINUOUS
 10
4.77926966
 20
4.4249022954
 40
0.0039370079
100
AcDbArc
 50
270.0
 51
360.0
  0
ARC
  5
4BC
100
AcDbEntity
  8
0
100
AcDbCircle
 62
7
  6
CONTINUOUS
 10
4.7133449123
 20
4.4249022954
 40
0.0039370079
100
AcDbArc
 50
180.0
 51
270.0
  0
ARC
  5
4BD
100
AcDbEntity
  8
0
100
AcDbCircle
 62
7
  6
CONTINUOUS
 10
4.5619222087
 20
4.5351385159
 40
0.0039370079
100
AcDbArc
 50
338.6175901652
 51
90.0
  0
ARC
  5
4BE
100
AcDbEntity
  8
0
100
AcDbCircle
 62
7
  6
CONTINUOUS
 10
4.5187601425
 20
4.4249022954
 40
0.0039370079
100
AcDbArc
 50
270.0
 51
338.6175901652
  0
ARC
  5
4BF
100
AcDbEntity
  8
0
100
AcDbCircle
 62
7
  6
CONTINUOUS
 10
4.5081107716
 20
4.4249022954
 40
0.0039370079
100
AcDbArc
 50
201.1788015063
 51
270.0
  0
ARC
  5
4C0
100
AcDbEntity
  8
0
100
AcDbCircle
 62
7
  6
CONTINUOUS
 10
4.4653998745
 20
4.5351385159
 40
0.0039370079
100
AcDbArc
 50
90.0
 51
201.1788015063
  0
ARC
  5
4C1
100
AcDbEntity
  8
0
100
AcDbCircle
 62
7
  6
CONTINUOUS
 10
4.4737983203
 20
4.5351385159
 40
0.0039370079
100
AcDbArc
 50
19.6844907184
 51
90.0
  0
ARC
  5
4C2
100
AcDbEntity
  8
0
100
AcDbCircle
 62
7
  6
CONTINUOUS
 10
4.5544760722
 20
4.5351385159
 40
0.0039370079
100
AcDbArc
 50
90.0
 51
159.6033069505
  0
ARC
  5
4C3
100
AcDbEntity
  8
0
100
AcDbCircle
 62
7
  6
CONTINUOUS
 10
6.282369802
 20
3.3476076518
 40
0.3621572705
100
AcDbArc
 50
187.2147951591
 51
190.8826579608
  0
ARC
  5
4C4
100
AcDbEntity
  8
0
100
AcDbCircle
 62
7
  6
CONTINUOUS
 10
6.1624082062
 20
5.123721193
 40
0.0688976378
100
AcDbArc
 50
0.0
 51
90.0
  0
ARC
  5
4C5
100
AcDbEntity
  8
0
100
AcDbCircle
 62
7
  6
CONTINUOUS
 10
5.8853528149
 20
3.2792337278
 40
0.0413727883
100
AcDbArc
 50
354.3541582085
 51
359.9989977642
  0
ARC
  5
4C6
100
AcDbEntity
  8
0
100
AcDbCircle
 62
7
  6
CONTINUOUS
 10
5.8004971232
 20
3.7517735513
 40
0.0398713668
100
AcDbArc
 50
340.1231753753
 51
355.5050523377
  0
ARC
  5
4C7
100
AcDbEntity
  8
0
100
AcDbCircle
 62
7
  6
CONTINUOUS
 10
5.8008033362
 20
3.7517929124
 40
0.0395975079
100
AcDbArc
 50
319.3391440482
 51
331.6133668927
  0
ARC
  5
4C8
100
AcDbEntity
  8
0
100
AcDbCircle
 62
7
  6
CONTINUOUS
 10
5.8008886419
 20
3.7518194998
 40
0.0395558707
100
AcDbArc
 50
297.8440078754
 51
310.6964351598
  0
ARC
  5
4C9
100
AcDbEntity
  8
0
100
AcDbCircle
 62
7
  6
CONTINUOUS
 10
5.8008736308
 20
3.7516764944
 40
0.0393700787
100
AcDbArc
 50
270.0
 51
360.0
  0
ARC
  5
4CA
100
AcDbEntity
  8
0
100
AcDbCircle
 62
7
  6
CONTINUOUS
 10
5.801073633
 20
3.7515806784
 40
0.0392541816
100
AcDbArc
 50
310.7190126921
 51
319.3170693216
  0
ARC
  5
4CB
100
AcDbEntity
  8
0
100
AcDbCircle
 62
7
  6
CONTINUOUS
 10
5.8012443995
 20
3.75153982
 40
0.0390891554
100
AcDbArc
 50
331.6323786975
 51
340.072948666
  0
ARC
  5
4CC
100
AcDbEntity
  8
0
100
AcDbCircle
 62
7
  6
CONTINUOUS
 10
5.8011743324
 20
3.7513128231
 40
0.0389744227
100
AcDbArc
 50
290.1939530982
 51
297.8205415614
  0
ARC
  5
4CD
100
AcDbEntity
  8
0
100
AcDbCircle
 62
7
  6
CONTINUOUS
 10
5.8014462035
 20
3.7516828285
 40
0.0389180989
100
AcDbArc
 50
355.528700846
 51
359.9906748733
  0
ARC
  5
4CE
100
AcDbEntity
  8
0
100
AcDbCircle
 62
7
  6
CONTINUOUS
 10
5.8010341265
 20
3.750728726
 40
0.0384223103
100
AcDbArc
 50
270.0004385194
 51
270.9357493775
  0
ARC
  5
4CF
100
AcDbEntity
  8
0
100
AcDbCircle
 62
7
  6
CONTINUOUS
 10
5.2175263165
 20
4.5012573228
 40
0.0295275591
100
AcDbArc
 50
0.0
 51
104.0362434679
  0
ARC
  5
4D0
100
AcDbEntity
  8
0
100
AcDbCircle
 62
7
  6
CONTINUOUS
 10
5.2175263165
 20
4.4504928466
 40
0.0295275591
100
AcDbArc
 50
270.0
 51
360.0
  0
ARC
  5
4D1
100
AcDbEntity
  8
0
100
AcDbCircle
 62
7
  6
CONTINUOUS
 10
4.9616208047
 20
4.4504928466
 40
0.0295275591
100
AcDbArc
 50
192.928072719
 51
270.0
  0
ARC
  5
4D2
100
AcDbEntity
  8
0
100
AcDbCircle
 62
7
  6
CONTINUOUS
 10
4.9616208047
 20
4.4372809448
 40
0.0295275591
100
AcDbArc
 50
104.0362434679
 51
167.0726954993
  0
ARC
  5
4D3
100
AcDbEntity
  8
0
100
AcDbCircle
 62
7
  6
CONTINUOUS
 10
4.5199961454
 20
6.4701263646
 40
0.0295275591
100
AcDbArc
 50
207.6478197454
 51
304.3550222988
  0
ARC
  5
4D4
100
AcDbEntity
  8
0
100
AcDbCircle
 62
7
  6
CONTINUOUS
 10
4.7275203268
 20
6.4349527445
 40
0.0196850394
100
AcDbArc
 50
180.0000128878
 51
199.6200336295
  0
ARC
  5
4D5
100
AcDbEntity
  8
0
100
AcDbCircle
 62
7
  6
CONTINUOUS
 10
4.8631956078
 20
6.429230431
 40
0.0196850394
100
AcDbArc
 50
270.4092590481
 51
360.0
  0
ARC
  5
4D6
100
AcDbEntity
  8
0
100
AcDbCircle
 62
7
  6
CONTINUOUS
 10
4.8533530881
 20
7.8071480346
 40
1.3976377953
100
AcDbArc
 50
273.7993653387
 51
285.9958769424
  0
ARC
  5
4D7
100
AcDbEntity
  8
0
100
AcDbCircle
 62
7
  6
CONTINUOUS
 10
4.8533530881
 20
7.8071480346
 40
1.3976377953
100
AcDbArc
 50
253.7163296405
 51
258.1294279603
  0
ARC
  5
4D8
100
AcDbEntity
  8
0
100
AcDbCircle
 62
7
  6
CONTINUOUS
 10
4.8533530881
 20
7.8071480346
 40
1.3976377953
100
AcDbArc
 50
258.5940262515
 51
263.2843644709
  0
ARC
  5
4D9
100
AcDbEntity
  8
0
100
AcDbCircle
 62
7
  6
CONTINUOUS
 10
4.8533530881
 20
7.8071480346
 40
1.3976377953
100
AcDbArc
 50
264.0885241429
 51
267.9763163559
  0
ARC
  5
4DA
100
AcDbEntity
  8
0
100
AcDbCircle
 62
7
  6
CONTINUOUS
 10
4.8533530881
 20
7.8071480346
 40
1.3976377953
100
AcDbArc
 50
267.9793718934
 51
270.4092590481
  0
ARC
  5
4DB
100
AcDbEntity
  8
0
100
AcDbCircle
 62
7
  6
CONTINUOUS
 10
4.8504886606
 20
7.8071470584
 40
1.3858257857
100
AcDbArc
 50
274.3026205815
 51
285.0512864345
  0
ARC
  5
4DC
100
AcDbEntity
  8
AXIS
100
AcDbCircle
 62
7
  6
CONTINUOUS
 10
4.8533530881
 20
7.8071480346
 40
1.3779527559
100
AcDbArc
 50
7.8257799921
 51
172.1742199847
  0
ARC
  5
4DD
100
AcDbEntity
  8
AXIS
100
AcDbCircle
 62
7
  6
CONTINUOUS
 10
4.8533530881
 20
7.8071480346
 40
1.3779527559
100
AcDbArc
 50
187.8257799921
 51
352.1742199847
  0
CIRCLE
  5
4DE
100
AcDbEntity
  8
0
100
AcDbCircle
 62
7
  6
CONTINUOUS
 10
4.8533530881
 20
7.8071480346
 40
1.3779527559
  0
ARC
  5
4DF
100
AcDbEntity
  8
DRIVEN_DIMS
100
AcDbCircle
 62
7
  6
CONTINUOUS
 10
4.8533530881
 20
7.8071480346
 40
1.3779527559
100
AcDbArc
 50
141.1716578689
 51
180.0
  0
CIRCLE
  5
4E0
100
AcDbEntity
  8
0
100
AcDbCircle
 62
7
  6
CONTINUOUS
 10
4.8533530881
 20
7.8071480346
 40
1.3090551181
  0
CIRCLE
  5
4E1
100
AcDbEntity
  8
AXIS
100
AcDbCircle
 62
7
  6
CONTINUOUS
 10
4.8533530881
 20
7.8071480346
 40
1.1417322835
  0
ARC
  5
4E2
100
AcDbEntity
  8
0
100
AcDbCircle
 62
7
  6
CONTINUOUS
 10
4.7831005873
 20
10.2193570717
 40
3.7979977965
100
AcDbArc
 50
272.2595468813
 51
272.5859589111
  0
ARC
  5
4E3
100
AcDbEntity
  8
0
100
AcDbCircle
 62
7
  6
CONTINUOUS
 10
5.2352428519
 20
6.4749783572
 40
0.0118110236
100
AcDbArc
 50
285.995876939
 51
359.999999998
  0
ARC
  5
4E4
100
AcDbEntity
  8
0
100
AcDbCircle
 62
7
  6
CONTINUOUS
 10
11.8432497503
 20
6.2110848407
 40
2.2180918879
100
AcDbArc
 50
317.337420047
 51
320.741785252
  0
ARC
  5
4E5
100
AcDbEntity
  8
0
100
AcDbCircle
 62
7
  6
CONTINUOUS
 10
11.8651571088
 20
6.1871661781
 40
2.2135222366
100
AcDbArc
 50
317.4022123206
 51
320.8435475004
  0
ARC
  5
4E6
100
AcDbEntity
  8
0
100
AcDbCircle
 62
7
  6
CONTINUOUS
 10
11.876368168
 20
6.1666825624
 40
2.1643913684
100
AcDbArc
 50
317.6119204715
 51
321.0971184301
  0
ARC
  5
4E7
100
AcDbEntity
  8
0
100
AcDbCircle
 62
7
  6
CONTINUOUS
 10
11.7119730576
 20
6.7394920411
 40
0.4932539444
100
AcDbArc
 50
189.2579931566
 51
192.1771258991
  0
ARC
  5
4E8
100
AcDbEntity
  8
0
100
AcDbCircle
 62
7
  6
CONTINUOUS
 10
11.7019566202
 20
6.7378658676
 40
0.4831063626
100
AcDbArc
 50
183.9634860236
 51
189.2587588529
  0
ARC
  5
4E9
100
AcDbEntity
  8
0
100
AcDbCircle
 62
7
  6
CONTINUOUS
 10
11.6942471276
 20
6.7372153451
 40
0.4753703585
100
AcDbArc
 50
180.0022982142
 51
183.9494949368
  0
ARC
  5
4EA
100
AcDbEntity
  8
0
100
AcDbCircle
 62
7
  6
CONTINUOUS
 10
11.1703061026
 20
6.2596175044
 40
0.197446704
100
AcDbArc
 50
0.0169579783
 51
2.6070893935
  0
ARC
  5
4EB
100
AcDbEntity
  8
0
100
AcDbCircle
 62
7
  6
CONTINUOUS
 10
12.0739331792
 20
5.9922692584
 40
0.0787551521
100
AcDbArc
 50
310.0351232086
 51
313.9476074085
  0
ARC
  5
4EC
100
AcDbEntity
  8
AXIS
100
AcDbCircle
 62
7
  6
CONTINUOUS
 10
12.1290803482
 20
7.72404928
 40
1.0403185821
100
AcDbArc
 50
231.8947115763
 51
233.5915548531
  0
ARC
  5
4ED
100
AcDbEntity
  8
AXIS
100
AcDbCircle
 62
7
  6
CONTINUOUS
 10
11.985361659
 20
7.5613658928
 40
0.8230512137
100
AcDbArc
 50
223.8239160968
 51
224.3434522496
  0
ARC
  5
4EE
100
AcDbEntity
  8
AXIS
100
AcDbCircle
 62
7
  6
CONTINUOUS
 10
11.8555766788
 20
7.454403612
 40
0.6546712361
100
AcDbArc
 50
213.2904076704
 51
215.5813054823
  0
ARC
  5
4EF
100
AcDbEntity
  8
AXIS
100
AcDbCircle
 62
7
  6
CONTINUOUS
 10
11.7514987996
 20
7.3969637711
 40
0.5355983044
100
AcDbArc
 50
201.9564064133
 51
203.1532783271
  0
ARC
  5
4F0
100
AcDbEntity
  8
0
100
AcDbCircle
 62
7
  6
CONTINUOUS
 10
11.7252120739
 20
7.3850429889
 40
0.506335659
100
AcDbArc
 50
175.5308293246
 51
179.6548707355
  0
ARC
  5
4F1
100
AcDbEntity
  8
0
100
AcDbCircle
 62
7
  6
CONTINUOUS
 10
11.7234816023
 20
7.3850805332
 40
0.5046049934
100
AcDbArc
 50
179.6579500934
 51
179.9999916357
  0
ARC
  5
4F2
100
AcDbEntity
  8
AXIS
100
AcDbCircle
 62
7
  6
CONTINUOUS
 10
11.6923630132
 20
7.3786909978
 40
0.473592487
100
AcDbArc
 50
188.5724570911
 51
191.6955707906
  0
ARC
  5
4F3
100
AcDbEntity
  8
AXIS
100
AcDbCircle
 62
7
  6
CONTINUOUS
 10
11.6807321176
 20
7.3771025879
 40
0.4618547905
100
AcDbArc
 50
180.0072473549
 51
188.5926827922
  0
ARC
  5
4F4
100
AcDbEntity
  8
0
100
AcDbCircle
 62
7
  6
CONTINUOUS
 10
12.7238082438
 20
6.3785138221
 40
1.777851723
100
AcDbArc
 50
288.5563618884
 51
289.7075059514
  0
ARC
  5
4F5
100
AcDbEntity
  8
0
100
AcDbCircle
 62
7
  6
CONTINUOUS
 10
12.9373944631
 20
6.9610426218
 40
1.1712987769
100
AcDbArc
 50
57.0065991323
 51
60.0325626594
  0
ARC
  5
4F6
100
AcDbEntity
  8
0
100
AcDbCircle
 62
7
  6
CONTINUOUS
 10
13.0962892442
 20
6.0648572842
 40
0.8135281762
100
AcDbArc
 50
310.858416017
 51
314.6867722585
  0
ARC
  5
4F7
100
AcDbEntity
  8
0
100
AcDbCircle
 62
7
  6
CONTINUOUS
 10
14.1206252503
 20
6.4151167659
 40
0.5415426846
100
AcDbArc
 50
206.8782652405
 51
209.6144697213
  0
ARC
  5
4F8
100
AcDbEntity
  8
0
100
AcDbCircle
 62
7
  6
CONTINUOUS
 10
13.5029431675
 20
6.741265127
 40
0.4721851292
100
AcDbArc
 50
345.5106731738
 51
348.2095085385
  0
ARC
  5
4F9
100
AcDbEntity
  8
0
100
AcDbCircle
 62
7
  6
CONTINUOUS
 10
13.5176528135
 20
6.7383413099
 40
0.457188426
100
AcDbArc
 50
348.1915189893
 51
353.7207075943
  0
ARC
  5
4FA
100
AcDbEntity
  8
0
100
AcDbCircle
 62
7
  6
CONTINUOUS
 10
13.5272104847
 20
6.7372751381
 40
0.4475714832
100
AcDbArc
 50
353.7225515716
 51
359.9899046627
  0
ARC
  5
4FB
100
AcDbEntity
  8
0
100
AcDbCircle
 62
7
  6
CONTINUOUS
 10
13.7989721297
 20
5.8390507186
 40
0.3426230281
100
AcDbArc
 50
115.8051511306
 51
116.4563900393
  0
ARC
  5
4FC
100
AcDbEntity
  8
0
100
AcDbCircle
 62
7
  6
CONTINUOUS
 10
13.6213829532
 20
6.0436110427
 40
0.33433836
100
AcDbArc
 50
160.4136208297
 51
160.9197280129
  0
ARC
  5
4FD
100
AcDbEntity
  8
0
100
AcDbCircle
 62
7
  6
CONTINUOUS
 10
13.6099553905
 20
6.0447167503
 40
0.3069161058
100
AcDbArc
 50
160.4516357251
 51
161.7829188636
  0
ARC
  5
4FE
100
AcDbEntity
  8
0
100
AcDbCircle
 62
7
  6
CONTINUOUS
 10
13.7170842811
 20
6.3570878232
 40
0.2728715808
100
AcDbArc
 50
279.975533754
 51
282.805933069
  0
ARC
  5
4FF
100
AcDbEntity
  8
0
100
AcDbCircle
 62
7
  6
CONTINUOUS
 10
13.1580534461
 20
6.0755492008
 40
0.1661247002
100
AcDbArc
 50
22.2370471451
 51
24.1694477865
  0
ARC
  5
500
100
AcDbEntity
  8
0
100
AcDbCircle
 62
7
  6
CONTINUOUS
 10
13.6081230774
 20
6.0667365713
 40
0.0878201764
100
AcDbArc
 50
61.7218672122
 51
64.2499226603
  0
ARC
  5
501
100
AcDbEntity
  8
0
100
AcDbCircle
 62
7
  6
CONTINUOUS
 10
13.3896517328
 20
6.2237133281
 40
0.0723927333
100
AcDbArc
 50
314.7225588835
 51
322.5562254158
  0
ARC
  5
502
100
AcDbEntity
  8
0
100
AcDbCircle
 62
7
  6
CONTINUOUS
 10
13.3901895125
 20
6.2232686048
 40
0.0716953836
100
AcDbArc
 50
322.5771053653
 51
324.9758467723
  0
ARC
  5
503
100
AcDbEntity
  8
0
100
AcDbCircle
 62
7
  6
CONTINUOUS
 10
13.4269997429
 20
6.1956061118
 40
0.0709959459
100
AcDbArc
 50
152.3830003523
 51
157.352272188
  0
ARC
  5
504
100
AcDbEntity
  8
0
100
AcDbCircle
 62
7
  6
CONTINUOUS
 10
13.3914485617
 20
6.2180553362
 40
0.0668646294
100
AcDbArc
 50
292.7405402075
 51
300.7056730378
  0
ARC
  5
505
100
AcDbEntity
  8
0
100
AcDbCircle
 62
7
  6
CONTINUOUS
 10
13.5867080597
 20
6.1475586133
 40
0.0631161614
100
AcDbArc
 50
356.8370564721
 51
359.953377628
  0
ARC
  5
506
100
AcDbEntity
  8
0
100
AcDbCircle
 62
7
  6
CONTINUOUS
 10
13.4136382995
 20
6.2371194159
 40
0.020919518
100
AcDbArc
 50
28.7274185467
 51
31.4660311984
  0
ARC
  5
507
100
AcDbEntity
  8
0
100
AcDbCircle
 62
7
  6
CONTINUOUS
 10
13.8040510224
 20
6.4195375177
 40
0.0058648855
100
AcDbArc
 50
315.3220446773
 51
323.0511448084
  0
ARC
  5
508
100
AcDbEntity
  8
0
100
AcDbCircle
 62
7
  6
CONTINUOUS
 10
13.7752993147
 20
7.0032145375
 40
2.3450474151
100
AcDbArc
 50
263.1248440462
 51
265.2614405522
  0
ARC
  5
509
100
AcDbEntity
  8
0
100
AcDbCircle
 62
7
  6
CONTINUOUS
 10
12.7036427328
 20
7.9854950636
 40
1.8726285499
100
AcDbArc
 50
287.6669004903
 51
287.9122141115
  0
ARC
  5
50A
100
AcDbEntity
  8
0
100
AcDbCircle
 62
7
  6
CONTINUOUS
 10
12.6998324233
 20
7.9775360295
 40
1.8538336887
100
AcDbArc
 50
287.505333112
 51
287.7537641188
  0
ARC
  5
50B
100
AcDbEntity
  8
0
100
AcDbCircle
 62
7
  6
CONTINUOUS
 10
12.723288095
 20
7.830116097
 40
1.8104979129
100
AcDbArc
 50
288.9208887524
 51
289.236269606
  0
ARC
  5
50C
100
AcDbEntity
  8
0
100
AcDbCircle
 62
7
  6
CONTINUOUS
 10
12.7450502703
 20
7.8659341463
 40
1.7460893331
100
AcDbArc
 50
290.3029184973
 51
290.5270981605
  0
ARC
  5
50D
100
AcDbEntity
  8
0
100
AcDbCircle
 62
7
  6
CONTINUOUS
 10
12.7408709598
 20
7.858076937
 40
1.7275107956
100
AcDbArc
 50
290.174663856
 51
290.4016705511
  0
ARC
  5
50E
100
AcDbEntity
  8
0
100
AcDbCircle
 62
7
  6
CONTINUOUS
 10
12.8352662882
 20
7.6520421732
 40
1.5138776314
100
AcDbArc
 50
295.2542660149
 51
295.5064839855
  0
ARC
  5
50F
100
AcDbEntity
  8
0
100
AcDbCircle
 62
7
  6
CONTINUOUS
 10
12.8397140231
 20
7.5462444084
 40
1.5035142382
100
AcDbArc
 50
295.2531562887
 51
295.9698050437
  0
ARC
  5
510
100
AcDbEntity
  8
0
100
AcDbCircle
 62
7
  6
CONTINUOUS
 10
12.8307093699
 20
7.6440887573
 40
1.4953550386
100
AcDbArc
 50
295.1893996336
 51
295.4449365434
  0
ARC
  5
511
100
AcDbEntity
  8
0
100
AcDbCircle
 62
7
  6
CONTINUOUS
 10
12.8584369971
 20
7.5078848395
 40
1.4608292874
100
AcDbArc
 50
295.9684376144
 51
297.4277602278
  0
ARC
  5
512
100
AcDbEntity
  8
0
100
AcDbCircle
 62
7
  6
CONTINUOUS
 10
12.8614798347
 20
7.5131526104
 40
1.454002156
100
AcDbArc
 50
295.7534540365
 51
297.4322861912
  0
ARC
  5
513
100
AcDbEntity
  8
0
100
AcDbCircle
 62
7
  6
CONTINUOUS
 10
12.8608033039
 20
7.497490128
 40
1.4268481009
100
AcDbArc
 50
296.1766470044
 51
297.398225665
  0
ARC
  5
514
100
AcDbEntity
  8
0
100
AcDbCircle
 62
7
  6
CONTINUOUS
 10
12.8976981873
 20
7.4328180782
 40
1.3761126777
100
AcDbArc
 50
298.4151336938
 51
298.7133324873
  0
ARC
  5
515
100
AcDbEntity
  8
0
100
AcDbCircle
 62
7
  6
CONTINUOUS
 10
12.8976981873
 20
7.446303512
 40
1.3761126776
100
AcDbArc
 50
298.4151336938
 51
298.7133324874
  0
ARC
  5
516
100
AcDbEntity
  8
0
100
AcDbCircle
 62
7
  6
CONTINUOUS
 10
12.8437572089
 20
8.0901559194
 40
1.3641405396
100
AcDbArc
 50
296.5389479943
 51
296.7212313828
  0
ARC
  5
517
100
AcDbEntity
  8
0
100
AcDbCircle
 62
7
  6
CONTINUOUS
 10
12.8930647855
 20
7.4382766335
 40
1.3575587472
100
AcDbArc
 50
298.3928460571
 51
298.6951856127
  0
ARC
  5
518
100
AcDbEntity
  8
0
100
AcDbCircle
 62
7
  6
CONTINUOUS
 10
13.2913098943
 20
7.5215865371
 40
0.6337666179
100
AcDbArc
 50
324.7761061416
 51
325.1176077447
  0
ARC
  5
519
100
AcDbEntity
  8
AXIS
100
AcDbCircle
 62
7
  6
CONTINUOUS
 10
13.1689081667
 20
7.5363184068
 40
0.5946633989
100
AcDbArc
 50
319.4739999099
 51
323.1227111631
  0
ARC
  5
51A
100
AcDbEntity
  8
0
100
AcDbCircle
 62
7
  6
CONTINUOUS
 10
13.463216956
 20
7.3846064371
 40
0.5115834048
100
AcDbArc
 50
4.3021901734
 51
8.7295443044
  0
ARC
  5
51B
100
AcDbEntity
  8
0
100
AcDbCircle
 62
7
  6
CONTINUOUS
 10
13.4686166256
 20
7.3850524123
 40
0.5061654959
100
AcDbArc
 50
0.0031915103
 51
4.2977016904
  0
ARC
  5
51C
100
AcDbEntity
  8
AXIS
100
AcDbCircle
 62
7
  6
CONTINUOUS
 10
13.2614051908
 20
7.4748727425
 40
0.4834785927
100
AcDbArc
 50
331.5367968342
 51
332.2812331097
  0
ARC
  5
51D
100
AcDbEntity
  8
AXIS
100
AcDbCircle
 62
7
  6
CONTINUOUS
 10
13.5152853621
 20
7.3770304933
 40
0.4594960368
100
AcDbArc
 50
357.5094572285
 51
0.0017046095
  0
ARC
  5
51E
100
AcDbEntity
  8
0
100
AcDbCircle
 62
7
  6
CONTINUOUS
 10
13.5154213946
 20
7.385064875
 40
0.4593600329
100
AcDbArc
 50
359.2365403977
 51
0.0019622313
  0
SPLINE
  5
51F
100
AcDbEntity
  8
0
100
AcDbSpline
 62
7
  6
CONTINUOUS
 70
0
 71
3
 72
11
 73
7
 74
0
 42
0.0000001
 43
0.0000001
 44
0.0000000001
 40
0.0
 40
0.0
 40
0.0
 40
0.0
 40
0.2500139136
 40
0.4999960501
 40
0.7499695452
 40
1.0
 40
1.0
 40
1.0
 40
1.0
 10
4.838588
 20
2.4780337219
 30
0.0
 10
4.8430004867
 20
2.4754861944
 30
0.0
 10
4.8533744323
 20
2.4726818199
 30
0.0
 10
4.8687982903
 20
2.4768474641
 30
0.0
 10
4.8801219959
 20
2.4881210959
 30
0.0
 10
4.8828746226
 20
2.4985091566
 30
0.0
 10
4.882874623
 20
2.503604583
 30
0.0
  0
SPLINE
  5
520
100
AcDbEntity
  8
0
100
AcDbSpline
 62
7
  6
CONTINUOUS
 70
0
 71
3
 72
11
 73
7
 74
0
 42
0.0000001
 43
0.0000001
 44
0.0000000001
 40
0.0
 40
0.0
 40
0.0
 40
0.0
 40
0.2500034426
 40
0.499977369
 40
0.7499595019
 40
1.0
 40
1.0
 40
1.0
 40
1.0
 10
4.882874623
 20
2.6375385904
 30
0.0
 10
4.8828746032
 20
2.6426334648
 30
0.0
 10
4.8801224341
 20
2.6530209071
 30
0.0
 10
4.8687998127
 20
2.6642948137
 30
0.0
 10
4.8533756731
 20
2.6684616043
 30
0.0
 10
4.8430009712
 20
2.6656572812
 30
0.0
 10
4.8385880264
 20
2.6631094668
 30
0.0
  0
SPLINE
  5
521
100
AcDbEntity
  8
0
100
AcDbSpline
 62
7
  6
CONTINUOUS
 70
0
 71
3
 72
8
 73
4
 74
0
 42
0.0000001
 43
0.0000001
 44
0.0000000001
 40
0.0
 40
0.0
 40
0.0
 40
0.0
 40
1.0
 40
1.0
 40
1.0
 40
1.0
 10
4.4202824837
 20
4.1965858245
 30
0.0
 10
4.4202734858
 20
4.1965958183
 30
0.0
 10
4.4202644879
 20
4.1966058121
 30
0.0
 10
4.42025549
 20
4.1966158058
 30
0.0
  0
SPLINE
  5
522
100
AcDbEntity
  8
0
100
AcDbSpline
 62
7
  6
CONTINUOUS
 70
0
 71
3
 72
11
 73
7
 74
0
 42
0.0000001
 43
0.0000001
 44
0.0000000001
 40
0.0
 40
0.0
 40
0.0
 40
0.0
 40
0.2499861933
 40
0.4999891796
 40
0.7500035917
 40
1.0
 40
1.0
 40
1.0
 40
1.0
 10
5.8402437027
 20
4.1768678007
 30
0.0
 10
5.8402437026
 20
4.1794280733
 30
0.0
 10
5.8392196985
 20
4.1846048192
 30
0.0
 10
5.8348395338
 20
4.1911489655
 30
0.0
 10
5.8282964862
 20
4.1955311456
 30
0.0
 10
5.8231194677
 20
4.1965558407
 30
0.0
 10
5.8205590905
 20
4.1965558407
 30
0.0
  0
SPLINE
  5
523
100
AcDbEntity
  8
0
100
AcDbSpline
 62
7
  6
CONTINUOUS
 70
0
 71
3
 72
11
 73
7
 74
0
 42
0.0000001
 43
0.0000001
 44
0.0000000001
 40
0.0
 40
0.0
 40
0.0
 40
0.0
 40
0.2499861914
 40
0.4999891756
 40
0.7500035877
 40
1.0
 40
1.0
 40
1.0
 40
1.0
 10
3.8664624915
 20
4.1768678007
 30
0.0
 10
3.8664624917
 20
4.1794280735
 30
0.0
 10
3.8674865048
 20
4.1846048179
 30
0.0
 10
3.8718666643
 20
4.1911489665
 30
0.0
 10
3.8784097117
 20
4.1955311495
 30
0.0
 10
3.8835867306
 20
4.1965558457
 30
0.0
 10
3.8861471081
 20
4.1965558457
 30
0.0
  0
SPLINE
  5
524
100
AcDbEntity
  8
0
100
AcDbSpline
 62
7
  6
CONTINUOUS
 70
0
 71
3
 72
8
 73
4
 74
0
 42
0.0000001
 43
0.0000001
 44
0.0000000001
 40
0.0
 40
0.0
 40
0.0
 40
0.0
 40
1.0
 40
1.0
 40
1.0
 40
1.0
 10
4.5769568751
 20
4.4784896457
 30
0.0
 10
4.5769568751
 20
4.4680965891
 30
0.0
 10
4.5792127326
 20
4.4582674969
 30
0.0
 10
4.5837086276
 20
4.4489947153
 30
0.0
  0
SPLINE
  5
525
100
AcDbEntity
  8
0
100
AcDbSpline
 62
7
  6
CONTINUOUS
 70
0
 71
3
 72
8
 73
4
 74
0
 42
0.0000001
 43
0.0000001
 44
0.0000000001
 40
0.0
 40
0.0
 40
0.0
 40
0.0
 40
1.0
 40
1.0
 40
1.0
 40
1.0
 10
4.5927266293
 20
4.5245131468
 30
0.0
 10
4.5821936876
 20
4.5133748645
 30
0.0
 10
4.5769568751
 20
4.4980672653
 30
0.0
 10
4.5769568751
 20
4.4784896457
 30
0.0
  0
SPLINE
  5
526
100
AcDbEntity
  8
0
100
AcDbSpline
 62
7
  6
CONTINUOUS
 70
0
 71
3
 72
8
 73
4
 74
0
 42
0.0000001
 43
0.0000001
 44
0.0000000001
 40
0.0
 40
0.0
 40
0.0
 40
0.0
 40
1.0
 40
1.0
 40
1.0
 40
1.0
 10
4.6335144413
 20
4.5411702515
 30
0.0
 10
4.6168372119
 20
4.5411702515
 30
0.0
 10
4.6032215023
 20
4.5356111727
 30
0.0
 10
4.5927266293
 20
4.5245131468
 30
0.0
  0
SPLINE
  5
527
100
AcDbEntity
  8
0
100
AcDbSpline
 62
7
  6
CONTINUOUS
 70
0
 71
3
 72
8
 73
4
 74
0
 42
0.0000001
 43
0.0000001
 44
0.0000000001
 40
0.0
 40
0.0
 40
0.0
 40
0.0
 40
1.0
 40
1.0
 40
1.0
 40
1.0
 10
4.6629736325
 20
4.5333077779
 30
0.0
 10
4.6542199826
 20
4.5385115629
 30
0.0
 10
4.6443908904
 20
4.5411702515
 30
0.0
 10
4.6335144413
 20
4.5411702515
 30
0.0
  0
SPLINE
  5
528
100
AcDbEntity
  8
0
100
AcDbSpline
 62
7
  6
CONTINUOUS
 70
0
 71
3
 72
8
 73
4
 74
0
 42
0.0000001
 43
0.0000001
 44
0.0000000001
 40
0.0
 40
0.0
 40
0.0
 40
0.0
 40
1.0
 40
1.0
 40
1.0
 40
1.0
 10
4.6829821631
 20
4.5115218389
 30
0.0
 10
4.6783898819
 20
4.5208675344
 30
0.0
 10
4.6717028744
 20
4.5281185028
 30
0.0
 10
4.6629736325
 20
4.5333077779
 30
0.0
  0
SPLINE
  5
529
100
AcDbEntity
  8
0
100
AcDbSpline
 62
7
  6
CONTINUOUS
 70
0
 71
3
 72
8
 73
4
 74
0
 42
0.0000001
 43
0.0000001
 44
0.0000000001
 40
0.0
 40
0.0
 40
0.0
 40
0.0
 40
1.0
 40
1.0
 40
1.0
 40
1.0
 10
4.6899108637
 20
4.4798592725
 30
0.0
 10
4.6899108637
 20
4.4916219593
 30
0.0
 10
4.6875744414
 20
4.502176149
 30
0.0
 10
4.6829821631
 20
4.5115218389
 30
0.0
  0
SPLINE
  5
52A
100
AcDbEntity
  8
0
100
AcDbSpline
 62
7
  6
CONTINUOUS
 70
0
 71
3
 72
8
 73
4
 74
0
 42
0.0000001
 43
0.0000001
 44
0.0000000001
 40
0.0
 40
0.0
 40
0.0
 40
0.0
 40
1.0
 40
1.0
 40
1.0
 40
1.0
 10
4.6826762058
 20
4.447704966
 30
0.0
 10
4.6874938766
 20
4.4571395682
 30
0.0
 10
4.6899108637
 20
4.4678548911
 30
0.0
 10
4.6899108637
 20
4.4798592725
 30
0.0
  0
SPLINE
  5
52B
100
AcDbEntity
  8
0
100
AcDbSpline
 62
7
  6
CONTINUOUS
 70
0
 71
3
 72
8
 73
4
 74
0
 42
0.0000001
 43
0.0000001
 44
0.0000000001
 40
0.0
 40
0.0
 40
0.0
 40
0.0
 40
1.0
 40
1.0
 40
1.0
 40
1.0
 10
4.6621154782
 20
4.4262020959
 30
0.0
 10
4.6709777769
 20
4.4310360786
 30
0.0
 10
4.6778259141
 20
4.4382064813
 30
0.0
 10
4.6826762058
 20
4.447704966
 30
0.0
  0
SPLINE
  5
52C
100
AcDbEntity
  8
0
100
AcDbSpline
 62
7
  6
CONTINUOUS
 70
0
 71
3
 72
8
 73
4
 74
0
 42
0.0000001
 43
0.0000001
 44
0.0000000001
 40
0.0
 40
0.0
 40
0.0
 40
0.0
 40
1.0
 40
1.0
 40
1.0
 40
1.0
 10
4.6334338624
 20
4.4189511294
 30
0.0
 10
4.6436657928
 20
4.4189511294
 30
0.0
 10
4.6532531906
 20
4.4213681191
 30
0.0
 10
4.6621154782
 20
4.4262020959
 30
0.0
  0
SPLINE
  5
52D
100
AcDbEntity
  8
0
100
AcDbSpline
 62
7
  6
CONTINUOUS
 70
0
 71
3
 72
8
 73
4
 74
0
 42
0.0000001
 43
0.0000001
 44
0.0000000001
 40
0.0
 40
0.0
 40
0.0
 40
0.0
 40
1.0
 40
1.0
 40
1.0
 40
1.0
 10
4.6035952531
 20
4.4269606131
 30
0.0
 10
4.612325497
 20
4.4216098181
 30
0.0
 10
4.6223157188
 20
4.4189511294
 30
0.0
 10
4.6334338624
 20
4.4189511294
 30
0.0
  0
SPLINE
  5
52E
100
AcDbEntity
  8
0
100
AcDbSpline
 62
7
  6
CONTINUOUS
 70
0
 71
3
 72
8
 73
4
 74
0
 42
0.0000001
 43
0.0000001
 44
0.0000000001
 40
0.0
 40
0.0
 40
0.0
 40
0.0
 40
1.0
 40
1.0
 40
1.0
 40
1.0
 10
4.5837086276
 20
4.4489947153
 30
0.0
 10
4.5863303394
 20
4.4435874358
 30
0.0
 10
4.5896491294
 20
4.4388529561
 30
0.0
 10
4.5936780644
 20
4.4347836085
 30
0.0
  0
SPLINE
  5
52F
100
AcDbEntity
  8
0
100
AcDbSpline
 62
7
  6
CONTINUOUS
 70
0
 71
3
 72
8
 73
4
 74
0
 42
0.0000001
 43
0.0000001
 44
0.0000000001
 40
0.0
 40
0.0
 40
0.0
 40
0.0
 40
1.0
 40
1.0
 40
1.0
 40
1.0
 10
4.5957111089
 20
4.4328410428
 30
0.0
 10
4.5981122452
 20
4.4306705909
 30
0.0
 10
4.6007395141
 20
4.4287109049
 30
0.0
 10
4.6035952531
 20
4.4269606131
 30
0.0
  0
SPLINE
  5
530
100
AcDbEntity
  8
0
100
AcDbSpline
 62
7
  6
CONTINUOUS
 70
0
 71
3
 72
8
 73
4
 74
0
 42
0.0000001
 43
0.0000001
 44
0.0000000001
 40
0.0
 40
0.0
 40
0.0
 40
0.0
 40
1.0
 40
1.0
 40
1.0
 40
1.0
 10
4.5930701367
 20
4.4782479477
 30
0.0
 10
4.5930701367
 20
4.4959725375
 30
0.0
 10
4.5970178837
 20
4.5087020199
 30
0.0
 10
4.6049939534
 20
4.5162752582
 30
0.0
  0
SPLINE
  5
531
100
AcDbEntity
  8
0
100
AcDbSpline
 62
7
  6
CONTINUOUS
 70
0
 71
3
 72
8
 73
4
 74
0
 42
0.0000001
 43
0.0000001
 44
0.0000000001
 40
0.0
 40
0.0
 40
0.0
 40
0.0
 40
1.0
 40
1.0
 40
1.0
 40
1.0
 10
4.6045105541
 20
4.4445712212
 30
0.0
 10
4.5968567541
 20
4.4527889865
 30
0.0
 10
4.5930701367
 20
4.4639877054
 30
0.0
 10
4.5930701367
 20
4.4782479477
 30
0.0
  0
SPLINE
  5
532
100
AcDbEntity
  8
0
100
AcDbSpline
 62
7
  6
CONTINUOUS
 70
0
 71
3
 72
8
 73
4
 74
0
 42
0.0000001
 43
0.0000001
 44
0.0000000001
 40
0.0
 40
0.0
 40
0.0
 40
0.0
 40
1.0
 40
1.0
 40
1.0
 40
1.0
 10
4.6333532976
 20
4.4323251397
 30
0.0
 10
4.621751751
 20
4.4323251397
 30
0.0
 10
4.6121643532
 20
4.4363534568
 30
0.0
 10
4.6045105541
 20
4.4445712212
 30
0.0
  0
SPLINE
  5
533
100
AcDbEntity
  8
0
100
AcDbSpline
 62
7
  6
CONTINUOUS
 70
0
 71
3
 72
8
 73
4
 74
0
 42
0.0000001
 43
0.0000001
 44
0.0000000001
 40
0.0
 40
0.0
 40
0.0
 40
0.0
 40
1.0
 40
1.0
 40
1.0
 40
1.0
 10
4.6623772739
 20
4.4447139759
 30
0.0
 10
4.6547839505
 20
4.4364340216
 30
0.0
 10
4.6451159879
 20
4.4323251397
 30
0.0
 10
4.6333532976
 20
4.4323251397
 30
0.0
  0
SPLINE
  5
534
100
AcDbEntity
  8
0
100
AcDbSpline
 62
7
  6
CONTINUOUS
 70
0
 71
3
 72
8
 73
4
 74
0
 42
0.0000001
 43
0.0000001
 44
0.0000000001
 40
0.0
 40
0.0
 40
0.0
 40
0.0
 40
1.0
 40
1.0
 40
1.0
 40
1.0
 10
4.6737976022
 20
4.4799398408
 30
0.0
 10
4.6737976022
 20
4.4647128029
 30
0.0
 10
4.66993042
 20
4.4529501196
 30
0.0
 10
4.6623772739
 20
4.4447139759
 30
0.0
  0
SPLINE
  5
535
100
AcDbEntity
  8
0
100
AcDbSpline
 62
7
  6
CONTINUOUS
 70
0
 71
3
 72
8
 73
4
 74
0
 42
0.0000001
 43
0.0000001
 44
0.0000000001
 40
0.0
 40
0.0
 40
0.0
 40
0.0
 40
1.0
 40
1.0
 40
1.0
 40
1.0
 10
4.6688830549
 20
4.5050765348
 30
0.0
 10
4.6721057126
 20
4.4979061286
 30
0.0
 10
4.6737976022
 20
4.4895272315
 30
0.0
 10
4.6737976022
 20
4.4799398408
 30
0.0
  0
SPLINE
  5
536
100
AcDbEntity
  8
0
100
AcDbSpline
 62
7
  6
CONTINUOUS
 70
0
 71
3
 72
8
 73
4
 74
0
 42
0.0000001
 43
0.0000001
 44
0.0000000001
 40
0.0
 40
0.0
 40
0.0
 40
0.0
 40
1.0
 40
1.0
 40
1.0
 40
1.0
 10
4.6546228103
 20
4.5217537673
 30
0.0
 10
4.6609069901
 20
4.5178060146
 30
0.0
 10
4.6656603996
 20
4.5122469357
 30
0.0
 10
4.6688830549
 20
4.5050765348
 30
0.0
  0
SPLINE
  5
537
100
AcDbEntity
  8
0
100
AcDbSpline
 62
7
  6
CONTINUOUS
 70
0
 71
3
 72
8
 73
4
 74
0
 42
0.0000001
 43
0.0000001
 44
0.0000000001
 40
0.0
 40
0.0
 40
0.0
 40
0.0
 40
1.0
 40
1.0
 40
1.0
 40
1.0
 10
4.6335950061
 20
4.5277156716
 30
0.0
 10
4.6413293706
 20
4.5277156716
 30
0.0
 10
4.6483386374
 20
4.5257015157
 30
0.0
 10
4.6546228103
 20
4.5217537673
 30
0.0
  0
SPLINE
  5
538
100
AcDbEntity
  8
0
100
AcDbSpline
 62
7
  6
CONTINUOUS
 70
0
 71
3
 72
8
 73
4
 74
0
 42
0.0000001
 43
0.0000001
 44
0.0000000001
 40
0.0
 40
0.0
 40
0.0
 40
0.0
 40
1.0
 40
1.0
 40
1.0
 40
1.0
 10
4.6049939534
 20
4.5162752582
 30
0.0
 10
4.6129700156
 20
4.5238484894
 30
0.0
 10
4.6224768485
 20
4.5277156716
 30
0.0
 10
4.6335950061
 20
4.5277156716
 30
0.0
  0
SPLINE
  5
539
100
AcDbEntity
  8
0
100
AcDbSpline
 62
7
  6
CONTINUOUS
 70
0
 71
3
 72
9
 73
5
 74
0
 42
0.0000001
 43
0.0000001
 44
0.0000000001
 40
0.0
 40
0.0
 40
0.0
 40
0.0
 40
0.5016817313
 40
1.0
 40
1.0
 40
1.0
 40
1.0
 10
4.8860631354
 20
3.70678495
 30
0.0
 10
4.8979690048
 20
3.7033131559
 30
0.0
 10
4.9212680125
 20
3.6949653928
 30
0.0
 10
4.9443063416
 20
3.6860211868
 30
0.0
 10
4.9557653393
 20
3.681500229
 30
0.0
  0
SPLINE
  5
53A
100
AcDbEntity
  8
0
100
AcDbSpline
 62
7
  6
CONTINUOUS
 70
0
 71
3
 72
14
 73
10
 74
0
 42
0.0000001
 43
0.0000001
 44
0.0000000001
 40
0.0
 40
0.0
 40
0.0
 40
0.0
 40
0.062615293
 40
0.1251597423
 40
0.2501804542
 40
0.3751681381
 40
0.5001429332
 40
0.7500762315
 40
1.0
 40
1.0
 40
1.0
 40
1.0
 10
4.9557653393
 20
3.681500229
 30
0.0
 10
4.9752037854
 20
3.6738311092
 30
0.0
 10
5.0139329748
 20
3.6581841541
 30
0.0
 10
5.0912069985
 20
3.6265656315
 30
0.0
 10
5.1876300075
 20
3.5867800784
 30
0.0
 10
5.3032663582
 20
3.53893612
 30
0.0
 10
5.4573905384
 20
3.4750760556
 30
0.0
 10
5.6500067591
 20
3.3951899997
 30
0.0
 10
5.8040866843
 20
3.3312570003
 30
0.0
 10
5.8811238596
 20
3.299287937
 30
0.0
  0
SPLINE
  5
53B
100
AcDbEntity
  8
0
100
AcDbSpline
 62
7
  6
CONTINUOUS
 70
0
 71
3
 72
9
 73
5
 74
0
 42
0.0000001
 43
0.0000001
 44
0.0000000001
 40
0.0
 40
0.0
 40
0.0
 40
0.0
 40
0.2157404677
 40
1.0
 40
1.0
 40
1.0
 40
1.0
 10
5.9091393215
 20
3.2860196533
 30
0.0
 10
5.9071804303
 20
3.2870847862
 30
0.0
 10
5.8980242478
 20
3.2918804953
 30
0.0
 10
5.8886103907
 20
3.2961811592
 30
0.0
 10
5.8811238596
 20
3.299287937
 30
0.0
  0
SPLINE
  5
53C
100
AcDbEntity
  8
0
100
AcDbSpline
 62
7
  6
CONTINUOUS
 70
0
 71
3
 72
9
 73
5
 74
0
 42
0.0000001
 43
0.0000001
 44
0.0000000001
 40
0.0
 40
0.0
 40
0.0
 40
0.0
 40
0.2138908654
 40
1.0
 40
1.0
 40
1.0
 40
1.0
 10
5.9252566117
 20
3.2761463997
 30
0.0
 10
5.9241606657
 20
3.2769313775
 30
0.0
 10
5.9189521677
 20
3.2804830158
 30
0.0
 10
5.9134920055
 20
3.2836529021
 30
0.0
 10
5.9091393215
 20
3.2860196533
 30
0.0
  0
SPLINE
  5
53D
100
AcDbEntity
  8
0
100
AcDbSpline
 62
7
  6
CONTINUOUS
 70
0
 71
3
 72
9
 73
5
 74
0
 42
0.0000001
 43
0.0000001
 44
0.0000000001
 40
0.0
 40
0.0
 40
0.0
 40
0.0
 40
0.4953642868
 40
1.0
 40
1.0
 40
1.0
 40
1.0
 10
4.5391299837
 20
2.6689967836
 30
0.0
 10
4.54158598
 20
2.6689967836
 30
0.0
 10
4.5467337116
 20
2.6668334508
 30
0.0
 10
4.5487215012
 20
2.6616562276
 30
0.0
 10
4.5487215012
 20
2.6591542639
 30
0.0
  0
SPLINE
  5
53E
100
AcDbEntity
  8
0
100
AcDbSpline
 62
7
  6
CONTINUOUS
 70
0
 71
3
 72
14
 73
10
 74
0
 42
0.0000001
 43
0.0000001
 44
0.0000000001
 40
0.0
 40
0.0
 40
0.0
 40
0.0
 40
0.3824830027
 40
0.5540038345
 40
0.7037910327
 40
0.8266208065
 40
0.9183770506
 40
0.975939047
 40
1.0
 40
1.0
 40
1.0
 40
1.0
 10
4.7307142681
 20
2.5620477146
 30
0.0
 10
4.7295104266
 20
2.5599464209
 30
0.0
 10
4.7278064636
 20
2.5568774074
 30
0.0
 10
4.7257461232
 20
2.5529310738
 30
0.0
 10
4.72449406
 20
2.5504009655
 30
0.0
 10
4.7235384839
 20
2.5483331536
 30
0.0
 10
4.7228634715
 20
2.5466695381
 30
0.0
 10
4.7225741865
 20
2.5457493118
 30
0.0
 10
4.7224671228
 20
2.545076142
 30
0.0
 10
4.7225990557
 20
2.5449999705
 30
0.0
  0
SPLINE
  5
53F
100
AcDbEntity
  8
0
100
AcDbSpline
 62
7
  6
CONTINUOUS
 70
0
 71
3
 72
14
 73
10
 74
0
 42
0.0000001
 43
0.0000001
 44
0.0000000001
 40
0.0
 40
0.0
 40
0.0
 40
0.0
 40
0.3824829775
 40
0.5540037961
 40
0.7037909769
 40
0.8266207341
 40
0.9183769709
 40
0.9759389801
 40
1.0
 40
1.0
 40
1.0
 40
1.0
 10
4.7307142681
 20
2.5790954588
 30
0.0
 10
4.7295104255
 20
2.581196752
 30
0.0
 10
4.72780646
 20
2.5842657642
 30
0.0
 10
4.7257461181
 20
2.5882120972
 30
0.0
 10
4.724494055
 20
2.5907422055
 30
0.0
 10
4.7235384789
 20
2.5928100176
 30
0.0
 10
4.7228634683
 20
2.5944736333
 30
0.0
 10
4.7225741828
 20
2.5953938613
 30
0.0
 10
4.7224671225
 20
2.5960670313
 30
0.0
 10
4.7225990557
 20
2.596143203
 30
0.0
  0
LINE
  5
540
100
AcDbEntity
  8
0
100
AcDbLine
 62
7
  6
CONTINUOUS
 10
4.8483615246
 20
2.6460624625
 11
4.8385893086
 21
2.6631102067
  0
LINE
  5
541
100
AcDbEntity
  8
0
100
AcDbLine
 62
7
  6
CONTINUOUS
 10
4.8483615246
 20
2.4950807109
 11
4.8385893086
 21
2.4780329668
  0
LINE
  5
542
100
AcDbEntity
  8
0
100
AcDbLine
 62
7
  6
CONTINUOUS
 10
5.9265249041
 20
3.2751635084
 11
5.9252566117
 21
3.2761463997
  0
SPLINE
  5
543
100
AcDbEntity
  8
0
100
AcDbSpline
 62
7
  6
CONTINUOUS
 70
0
 71
3
 72
25
 73
21
 74
0
 42
0.0000001
 43
0.0000001
 44
0.0000000001
 40
0.0
 40
0.0
 40
0.0
 40
0.0
 40
0.0119636503
 40
0.0203702252
 40
0.0261953894
 40
0.0313506873
 40
0.037749605
 40
0.0459557606
 40
0.0672050112
 40
0.0936525445
 40
0.1237757253
 40
0.1911626989
 40
0.2639739289
 40
0.339292066
 40
0.4153443535
 40
0.4909406666
 40
0.5652080762
 40
0.6374610562
 40
0.7736865795
 40
1.0
 40
1.0
 40
1.0
 40
1.0
 10
5.9746163587
 20
3.2398629253
 30
0.0
 10
5.9748662196
 20
3.2398629253
 30
0.0
 10
5.9752935877
 20
3.2398860805
 30
0.0
 10
5.9758273519
 20
3.2400168528
 30
0.0
 10
5.9761737923
 20
3.2402776822
 30
0.0
 10
5.9762294322
 20
3.2406654764
 30
0.0
 10
5.9760679648
 20
3.2410543723
 30
0.0
 10
5.9756447079
 20
3.2416734097
 30
0.0
 10
5.9748113357
 20
3.2425021872
 30
0.0
 10
5.9735630569
 20
3.2435413862
 30
0.0
 10
5.9714881506
 20
3.2450922015
 30
0.0
 10
5.9685438536
 20
3.2470895853
 30
0.0
 10
5.9647593
 20
3.2495264043
 30
0.0
 10
5.9607932373
 20
3.2520148259
 30
0.0
 10
5.9567680827
 20
3.2545183289
 30
0.0
 10
5.9527633819
 20
3.2570132478
 30
0.0
 10
5.9488369429
 20
3.2594834535
 30
0.0
 10
5.9438605851
 20
3.2626634907
 30
0.0
 10
5.936290443
 20
3.2676727608
 30
0.0
 10
5.9301205802
 20
3.2720956984
 30
0.0
 10
5.9265249041
 20
3.2751635084
 30
0.0
  0
SPLINE
  5
544
100
AcDbEntity
  8
0
100
AcDbSpline
 62
7
  6
CONTINUOUS
 70
0
 71
3
 72
25
 73
21
 74
0
 42
0.0000001
 43
0.0000001
 44
0.0000000001
 40
0.0
 40
0.0
 40
0.0
 40
0.0
 40
0.226315639
 40
0.3625423782
 40
0.4347958052
 40
0.509063842
 40
0.5846608055
 40
0.6607134495
 40
0.7360317228
 40
0.8088428303
 40
0.8762294962
 40
0.9063536111
 40
0.9327984159
 40
0.9540450886
 40
0.9622494753
 40
0.9686487296
 40
0.9738040287
 40
0.9796286162
 40
0.9880357547
 40
1.0
 40
1.0
 40
1.0
 40
1.0
 10
3.7801812721
 20
3.2751635084
 30
0.0
 10
3.7765855612
 20
3.2720956688
 30
0.0
 10
3.7704156397
 20
3.2676726909
 30
0.0
 10
3.7628454247
 20
3.2626633866
 30
0.0
 10
3.7578690299
 20
3.2594833201
 30
0.0
 10
3.7539425576
 20
3.2570131009
 30
0.0
 10
3.749937826
 20
3.2545181682
 30
0.0
 10
3.7459126524
 20
3.2520146515
 30
0.0
 10
3.7419465913
 20
3.2495262155
 30
0.0
 10
3.7381620343
 20
3.2470894094
 30
0.0
 10
3.7352177773
 20
3.2450919592
 30
0.0
 10
3.7331428443
 20
3.2435412444
 30
0.0
 10
3.7318947248
 20
3.242502006
 30
0.0
 10
3.7310614176
 20
3.2416733627
 30
0.0
 10
3.7306383244
 20
3.2410543034
 30
0.0
 10
3.7304768546
 20
3.2406654772
 30
0.0
 10
3.7305323053
 20
3.2402776509
 30
0.0
 10
3.7308787698
 20
3.2400167945
 30
0.0
 10
3.7314125528
 20
3.2398860848
 30
0.0
 10
3.7318399442
 20
3.2398629253
 30
0.0
 10
3.7320898175
 20
3.2398629253
 30
0.0
  0
LINE
  5
545
100
AcDbEntity
  8
0
100
AcDbLine
 62
7
  6
CONTINUOUS
 10
3.7814494979
 20
3.2761463827
 11
3.7801812721
 21
3.2751635084
  0
SPLINE
  5
546
100
AcDbEntity
  8
0
100
AcDbSpline
 62
7
  6
CONTINUOUS
 70
0
 71
3
 72
9
 73
5
 74
0
 42
0.0000001
 43
0.0000001
 44
0.0000000001
 40
0.0
 40
0.0
 40
0.0
 40
0.0
 40
0.2867509941
 40
1.0
 40
1.0
 40
1.0
 40
1.0
 10
3.7975668551
 20
3.2860196536
 30
0.0
 10
3.7959791826
 20
3.285156362
 30
0.0
 10
3.790479873
 20
3.2820802377
 30
0.0
 10
3.785103951
 20
3.278763865
 30
0.0
 10
3.7814494979
 20
3.2761463827
 30
0.0
  0
SPLINE
  5
547
100
AcDbEntity
  8
0
100
AcDbSpline
 62
7
  6
CONTINUOUS
 70
0
 71
3
 72
17
 73
13
 74
0
 42
0.0000001
 43
0.0000001
 44
0.0000000001
 40
0.0
 40
0.0
 40
0.0
 40
0.0
 40
0.0373826189
 40
0.0842477502
 40
0.2024169957
 40
0.344874106
 40
0.4999940926
 40
0.6551145749
 40
0.797573068
 40
0.915744544
 40
0.9626116702
 40
1.0
 40
1.0
 40
1.0
 40
1.0
 10
6.1092734845
 20
4.3237317694
 30
0.0
 10
6.0779906235
 20
4.3248377096
 30
0.0
 10
6.0074721979
 20
4.3268282964
 30
0.0
 10
5.8380142484
 20
4.3303647061
 30
0.0
 10
5.5805535241
 20
4.333682719
 30
0.0
 10
5.2324351807
 20
4.3361268374
 30
0.0
 10
4.8533675129
 20
4.3369602524
 30
0.0
 10
4.4742986869
 20
4.3361269636
 30
0.0
 10
4.1261769017
 20
4.3336829553
 30
0.0
 10
3.8687114803
 20
4.3303650144
 30
0.0
 10
3.6992452091
 20
4.3268285952
 30
0.0
 10
3.6287203321
 20
4.3248378704
 30
0.0
 10
3.5974326917
 20
4.3237317694
 30
0.0
  0
SPLINE
  5
548
100
AcDbEntity
  8
0
100
AcDbSpline
 62
7
  6
CONTINUOUS
 70
0
 71
3
 72
13
 73
9
 74
0
 42
0.0000001
 43
0.0000001
 44
0.0000000001
 40
0.0
 40
0.0
 40
0.0
 40
0.0
 40
0.1193175922
 40
0.2397988146
 40
0.3619709061
 40
0.486340104
 40
0.7403733041
 40
1.0
 40
1.0
 40
1.0
 40
1.0
 10
3.7050830114
 20
4.2056395219
 30
0.0
 10
3.6980700444
 20
4.2056947631
 30
0.0
 10
3.6839430002
 20
4.2073357146
 30
0.0
 10
3.6636601533
 20
4.2142371407
 30
0.0
 10
3.6449766852
 20
4.2253298313
 30
0.0
 10
3.6230353179
 20
4.2451849959
 30
0.0
 10
3.6031193097
 20
4.2780504836
 30
0.0
 10
3.5975325708
 20
4.3084718995
 30
0.0
 10
3.5974326917
 20
4.3237317694
 30
0.0
  0
SPLINE
  5
549
100
AcDbEntity
  8
0
100
AcDbSpline
 62
7
  6
CONTINUOUS
 70
0
 71
3
 72
13
 73
9
 74
0
 42
0.0000001
 43
0.0000001
 44
0.0000000001
 40
0.0
 40
0.0
 40
0.0
 40
0.0
 40
0.1193175741
 40
0.2397987842
 40
0.3619708676
 40
0.4863400655
 40
0.7403732854
 40
1.0
 40
1.0
 40
1.0
 40
1.0
 10
6.0016231648
 20
4.2056395219
 30
0.0
 10
6.0086361303
 20
4.2056947632
 30
0.0
 10
6.0227631719
 20
4.2073357151
 30
0.0
 10
6.0430460148
 20
4.2142371418
 30
0.0
 10
6.0617294796
 20
4.2253298332
 30
0.0
 10
6.0836708441
 20
4.2451849991
 30
0.0
 10
6.1035868521
 20
4.2780504858
 30
0.0
 10
6.1091735994
 20
4.3084718994
 30
0.0
 10
6.1092734845
 20
4.3237317694
 30
0.0
  0
SPLINE
  5
54A
100
AcDbEntity
  8
0
100
AcDbSpline
 62
7
  6
CONTINUOUS
 70
0
 71
3
 72
15
 73
11
 74
0
 42
0.0000001
 43
0.0000001
 44
0.0000000001
 40
0.0
 40
0.0
 40
0.0
 40
0.0
 40
0.0729423775
 40
0.1538015034
 40
0.2501779566
 40
0.3659406682
 40
0.5018119264
 40
0.6559427565
 40
0.824150535
 40
1.0
 40
1.0
 40
1.0
 40
1.0
 10
3.5974326917
 20
4.3237317694
 30
0.0
 10
3.593584338
 20
4.3235953658
 30
0.0
 10
3.5854500713
 20
4.321492113
 30
0.0
 10
3.5747820036
 20
4.3132824386
 30
0.0
 10
3.5656115136
 20
4.3006519605
 30
0.0
 10
3.5578867668
 20
4.2838947979
 30
0.0
 10
3.5516905357
 20
4.263337115
 30
0.0
 10
3.5471427649
 20
4.2395441076
 30
0.0
 10
3.5443614091
 20
4.2133666837
 30
0.0
 10
3.5437418791
 20
4.1951964669
 30
0.0
 10
3.5437414752
 20
4.1859130308
 30
0.0
  0
SPLINE
  5
54B
100
AcDbEntity
  8
0
100
AcDbSpline
 62
7
  6
CONTINUOUS
 70
0
 71
3
 72
13
 73
9
 74
0
 42
0.0000001
 43
0.0000001
 44
0.0000000001
 40
0.0
 40
0.0
 40
0.0
 40
0.0
 40
0.1189815517
 40
0.2390388322
 40
0.3608203916
 40
0.4849421539
 40
0.7391679918
 40
1.0
 40
1.0
 40
1.0
 40
1.0
 10
5.9924413065
 20
3.2398629253
 30
0.0
 10
5.9994247325
 20
3.2398629253
 30
0.0
 10
6.0135008786
 20
3.2383210178
 30
0.0
 10
6.0337167125
 20
3.2315136813
 30
0.0
 10
6.0523212156
 20
3.2204627635
 30
0.0
 10
6.0741544104
 20
3.200582697
 30
0.0
 10
6.0938681055
 20
3.1675611576
 30
0.0
 10
6.0992308485
 20
3.1370617937
 30
0.0
 10
6.0992308276
 20
3.1217526891
 30
0.0
  0
SPLINE
  5
54C
100
AcDbEntity
  8
0
100
AcDbSpline
 62
7
  6
CONTINUOUS
 70
0
 71
3
 72
13
 73
9
 74
0
 42
0.0000001
 43
0.0000001
 44
0.0000000001
 40
0.0
 40
0.0
 40
0.0
 40
0.0
 40
0.1189814304
 40
0.2390386427
 40
0.3608201754
 40
0.4849419537
 40
0.7391679019
 40
1.0
 40
1.0
 40
1.0
 40
1.0
 10
3.7142648697
 20
3.2398629253
 30
0.0
 10
3.7072814526
 20
3.2398629253
 30
0.0
 10
3.6932053213
 20
3.2383210162
 30
0.0
 10
3.672989507
 20
3.2315136782
 30
0.0
 10
3.654385017
 20
3.2204627584
 30
0.0
 10
3.6325518282
 20
3.2005826884
 30
0.0
 10
3.6128381251
 20
3.1675611542
 30
0.0
 10
3.6074753492
 20
3.1370617951
 30
0.0
 10
3.6074753492
 20
3.1217526891
 30
0.0
  0
LINE
  5
54D
100
AcDbEntity
  8
0
100
AcDbLine
 62
7
  6
CONTINUOUS
 10
5.9267256033
 20
3.2792330037
 11
5.9252765412
 21
3.2761092556
  0
SPLINE
  5
54E
100
AcDbEntity
  8
0
100
AcDbSpline
 62
7
  6
CONTINUOUS
 70
0
 71
3
 72
9
 73
5
 74
0
 42
0.0000001
 43
0.0000001
 44
0.0000000001
 40
0.0
 40
0.0
 40
0.0
 40
0.0
 40
0.2187330354
 40
1.0
 40
1.0
 40
1.0
 40
1.0
 10
5.9230799826
 20
3.3021245312
 30
0.0
 10
5.9226762171
 20
3.3006010877
 30
0.0
 10
5.9198390889
 20
3.2938903654
 30
0.0
 10
5.9139671337
 20
3.2889146499
 30
0.0
 10
5.9091393215
 20
3.2860196533
 30
0.0
  0
SPLINE
  5
54F
100
AcDbEntity
  8
0
100
AcDbSpline
 62
7
  6
CONTINUOUS
 70
0
 71
3
 72
10
 73
6
 74
0
 42
0.0000001
 43
0.0000001
 44
0.0000000001
 40
0.0
 40
0.0
 40
0.0
 40
0.0
 40
0.4349752207
 40
0.7095411133
 40
1.0
 40
1.0
 40
1.0
 40
1.0
 10
5.8572946352
 20
3.7054672144
 30
0.0
 10
5.8555384615
 20
3.6988410131
 30
0.0
 10
5.8464685733
 20
3.690141356
 30
0.0
 10
5.8321705003
 20
3.6838468159
 30
0.0
 10
5.8233384322
 20
3.681967682
 30
0.0
 10
5.8187848871
 20
3.681500229
 30
0.0
  0
SPLINE
  5
550
100
AcDbEntity
  8
0
100
AcDbSpline
 62
7
  6
CONTINUOUS
 70
0
 71
3
 72
11
 73
7
 74
0
 42
0.0000001
 43
0.0000001
 44
0.0000000001
 40
0.0
 40
0.0
 40
0.0
 40
0.0
 40
0.2483683887
 40
0.4996856578
 40
0.7511839555
 40
1.0
 40
1.0
 40
1.0
 40
1.0
 10
5.8428247016
 20
3.7488626629
 30
0.0
 10
5.8426031098
 20
3.7439603627
 30
0.0
 10
5.8402288531
 20
3.7340945795
 30
0.0
 10
5.8315917355
 20
3.721632862
 30
0.0
 10
5.8191047824
 20
3.7130180693
 30
0.0
 10
5.8092261296
 20
3.7106516311
 30
0.0
 10
5.8043149535
 20
3.710430528
 30
0.0
  0
SPLINE
  5
551
100
AcDbEntity
  8
0
100
AcDbSpline
 62
7
  6
CONTINUOUS
 70
0
 71
3
 72
8
 73
4
 74
0
 42
0.0000001
 43
0.0000001
 44
0.0000000001
 40
0.0
 40
0.0
 40
0.0
 40
0.0
 40
1.0
 40
1.0
 40
1.0
 40
1.0
 10
5.81462827
 20
3.7147341792
 30
0.0
 10
5.8105012937
 20
3.7132170146
 30
0.0
 10
5.8060580352
 20
3.7123833158
 30
0.0
 10
5.8016616082
 20
3.7123115398
 30
0.0
  0
LINE
  5
552
100
AcDbEntity
  8
0
100
AcDbLine
 62
7
  6
CONTINUOUS
 10
3.7799805729
 20
3.2792330037
 11
3.7814296446
 21
3.2761092459
  0
SPLINE
  5
553
100
AcDbEntity
  8
0
100
AcDbSpline
 62
7
  6
CONTINUOUS
 70
0
 71
3
 72
8
 73
4
 74
0
 42
0.0000001
 43
0.0000001
 44
0.0000000001
 40
0.0
 40
0.0
 40
0.0
 40
0.0
 40
1.0
 40
1.0
 40
1.0
 40
1.0
 10
3.8920779154
 20
3.7147341761
 30
0.0
 10
3.8962048881
 20
3.7132170138
 30
0.0
 10
3.9006481422
 20
3.7123833161
 30
0.0
 10
3.905044565
 20
3.7123115398
 30
0.0
  0
SPLINE
  5
554
100
AcDbEntity
  8
0
100
AcDbSpline
 62
7
  6
CONTINUOUS
 70
0
 71
3
 72
11
 73
7
 74
0
 42
0.0000001
 43
0.0000001
 44
0.0000000001
 40
0.0
 40
0.0
 40
0.0
 40
0.0
 40
0.2483682884
 40
0.4996856694
 40
0.7511840275
 40
1.0
 40
1.0
 40
1.0
 40
1.0
 10
3.8638814746
 20
3.7488626629
 30
0.0
 10
3.8641030761
 20
3.7439603673
 30
0.0
 10
3.8664773473
 20
3.7340945936
 30
0.0
 10
3.8751144644
 20
3.7216328849
 30
0.0
 10
3.8876014047
 20
3.7130180837
 30
0.0
 10
3.8974800505
 20
3.7106516368
 30
0.0
 10
3.9023912227
 20
3.710430528
 30
0.0
  0
SPLINE
  5
555
100
AcDbEntity
  8
0
100
AcDbSpline
 62
7
  6
CONTINUOUS
 70
0
 71
3
 72
9
 73
5
 74
0
 42
0.0000001
 43
0.0000001
 44
0.0000000001
 40
0.0
 40
0.0
 40
0.0
 40
0.0
 40
0.2865169735
 40
1.0
 40
1.0
 40
1.0
 40
1.0
 10
3.7975668551
 20
3.2860196536
 30
0.0
 10
3.7958007264
 20
3.2870787122
 30
0.0
 10
3.7899182553
 20
3.2911225528
 30
0.0
 10
3.7849399644
 20
3.2971675564
 30
0.0
 10
3.7836261936
 20
3.3021245312
 30
0.0
  0
SPLINE
  5
556
100
AcDbEntity
  8
0
100
AcDbSpline
 62
7
  6
CONTINUOUS
 70
0
 71
3
 72
10
 73
6
 74
0
 42
0.0000001
 43
0.0000001
 44
0.0000000001
 40
0.0
 40
0.0
 40
0.0
 40
0.0
 40
0.434975221
 40
0.7095411134
 40
1.0
 40
1.0
 40
1.0
 40
1.0
 10
3.849411541
 20
3.7054672144
 30
0.0
 10
3.8511677147
 20
3.6988410131
 30
0.0
 10
3.860237603
 20
3.690141356
 30
0.0
 10
3.8745356759
 20
3.6838468159
 30
0.0
 10
3.883367744
 20
3.681967682
 30
0.0
 10
3.8879212891
 20
3.681500229
 30
0.0
  0
SPLINE
  5
557
100
AcDbEntity
  8
0
100
AcDbSpline
 62
7
  6
CONTINUOUS
 70
0
 71
3
 72
14
 73
10
 74
0
 42
0.0000001
 43
0.0000001
 44
0.0000000001
 40
0.0
 40
0.0
 40
0.0
 40
0.0
 40
0.0830583826
 40
0.1646052726
 40
0.2587098457
 40
0.3726156183
 40
0.5071412671
 40
0.6598195611
 40
1.0
 40
1.0
 40
1.0
 40
1.0
 10
5.9924413065
 20
3.2398629253
 30
0.0
 10
5.9936710724
 20
3.239863021
 30
0.0
 10
5.9961714523
 20
3.2403250613
 30
0.0
 10
5.9992160727
 20
3.2428774367
 30
0.0
 10
6.0011717604
 20
3.246771114
 30
0.0
 10
6.0023942357
 20
3.251711368
 30
0.0
 10
6.0030963133
 20
3.2576176018
 30
0.0
 10
6.0035782124
 20
3.2668964308
 30
0.0
 10
6.0036160135
 20
3.2741962782
 30
0.0
 10
6.0036159303
 20
3.2792330041
 30
0.0
  0
SPLINE
  5
558
100
AcDbEntity
  8
0
100
AcDbSpline
 62
7
  6
CONTINUOUS
 70
0
 71
3
 72
14
 73
10
 74
0
 42
0.0000001
 43
0.0000001
 44
0.0000000001
 40
0.0
 40
0.0
 40
0.0
 40
0.0
 40
0.3345056153
 40
0.4884916923
 40
0.62737619
 40
0.7478590468
 40
0.8482965937
 40
0.9302359271
 40
1.0
 40
1.0
 40
1.0
 40
1.0
 10
6.002918363
 20
3.2792330041
 30
0.0
 10
6.002918363
 20
3.274194555
 30
0.0
 10
6.002374818
 20
3.2668128732
 30
0.0
 10
6.0004421581
 20
3.2575515151
 30
0.0
 10
5.9985406349
 20
3.2516083229
 30
0.0
 10
5.9962264858
 20
3.2466851976
 30
0.0
 10
5.993559496
 20
3.2429430046
 30
0.0
 10
5.9905703038
 20
3.2404919988
 30
0.0
 10
5.9882703934
 20
3.2398629253
 30
0.0
 10
5.9872195807
 20
3.2398629253
 30
0.0
  0
SPLINE
  5
559
100
AcDbEntity
  8
0
100
AcDbSpline
 62
7
  6
CONTINUOUS
 70
0
 71
3
 72
14
 73
10
 74
0
 42
0.0000001
 43
0.0000001
 44
0.0000000001
 40
0.0
 40
0.0
 40
0.0
 40
0.0
 40
0.3401697107
 40
0.4928491881
 40
0.6273813173
 40
0.7412929892
 40
0.8354018729
 40
0.9169437144
 40
1.0
 40
1.0
 40
1.0
 40
1.0
 10
3.7030902459
 20
3.2792330041
 30
0.0
 10
3.7030901735
 20
3.2741964323
 30
0.0
 10
3.7031281888
 20
3.2668967297
 30
0.0
 10
3.7036098235
 20
3.2576179168
 30
0.0
 10
3.7043118666
 20
3.2517114884
 30
0.0
 10
3.7055343826
 20
3.2467709218
 30
0.0
 10
3.707490443
 20
3.2428774367
 30
0.0
 10
3.7105347372
 20
3.2403246833
 30
0.0
 10
3.7130351337
 20
3.2398630204
 30
0.0
 10
3.7142648697
 20
3.2398629253
 30
0.0
  0
SPLINE
  5
55A
100
AcDbEntity
  8
0
100
AcDbSpline
 62
7
  6
CONTINUOUS
 70
0
 71
3
 72
14
 73
10
 74
0
 42
0.0000001
 43
0.0000001
 44
0.0000000001
 40
0.0
 40
0.0
 40
0.0
 40
0.0
 40
0.0697640729
 40
0.1517034063
 40
0.2521409532
 40
0.37262381
 40
0.5115083077
 40
0.6654943847
 40
1.0
 40
1.0
 40
1.0
 40
1.0
 10
3.7194865955
 20
3.2398629253
 30
0.0
 10
3.7184357829
 20
3.2398629253
 30
0.0
 10
3.7161358724
 20
3.2404919988
 30
0.0
 10
3.7131466802
 20
3.2429430046
 30
0.0
 10
3.7104796905
 20
3.2466851976
 30
0.0
 10
3.7081655414
 20
3.2516083229
 30
0.0
 10
3.7062640182
 20
3.2575515151
 30
0.0
 10
3.7043313583
 20
3.2668128732
 30
0.0
 10
3.7037878133
 20
3.274194555
 30
0.0
 10
3.7037878133
 20
3.2792330041
 30
0.0
  0
SPLINE
  5
55B
100
AcDbEntity
  8
0
100
AcDbSpline
 62
7
  6
CONTINUOUS
 70
0
 71
3
 72
14
 73
10
 74
0
 42
0.0000001
 43
0.0000001
 44
0.0000000001
 40
0.0
 40
0.0
 40
0.0
 40
0.0
 40
0.3536919996
 40
0.509567445
 40
0.6454400335
 40
0.7586119066
 40
0.8483534248
 40
0.9217682574
 40
1.0
 40
1.0
 40
1.0
 40
1.0
 10
6.0036159303
 20
4.1859130308
 30
0.0
 10
6.003708571
 20
4.1884353309
 30
0.0
 10
6.0040113197
 20
4.192062876
 30
0.0
 10
6.004509082
 20
4.1966404797
 30
0.0
 10
6.0047590818
 20
4.1995218448
 30
0.0
 10
6.0047685297
 20
4.2019399235
 30
0.0
 10
6.0044241722
 20
4.2039136085
 30
0.0
 10
6.0033156203
 20
4.2053688242
 30
0.0
 10
6.0021811568
 20
4.2056217858
 30
0.0
 10
6.0016231648
 20
4.2056395219
 30
0.0
  0
SPLINE
  5
55C
100
AcDbEntity
  8
0
100
AcDbSpline
 62
7
  6
CONTINUOUS
 70
0
 71
3
 72
12
 73
8
 74
0
 42
0.0000001
 43
0.0000001
 44
0.0000000001
 40
0.0
 40
0.0
 40
0.0
 40
0.0
 40
0.1503340624
 40
0.2519731033
 40
0.3731965853
 40
0.6662350766
 40
1.0
 40
1.0
 40
1.0
 40
1.0
 10
5.9950689718
 20
4.2055897777
 30
0.0
 10
5.9961921553
 20
4.2055447025
 30
0.0
 10
5.9979552206
 20
4.2043574245
 30
0.0
 10
5.9995188082
 20
4.202075474
 30
0.0
 10
6.0011787884
 20
4.1985631145
 30
0.0
 10
6.0025205182
 20
4.193093395
 30
0.0
 10
6.0029024338
 20
4.1884033344
 30
0.0
 10
6.002918363
 20
4.1859077365
 30
0.0
  0
SPLINE
  5
55D
100
AcDbEntity
  8
0
100
AcDbSpline
 62
7
  6
CONTINUOUS
 70
0
 71
3
 72
11
 73
7
 74
0
 42
0.0000001
 43
0.0000001
 44
0.0000000001
 40
0.0
 40
0.0
 40
0.0
 40
0.0
 40
0.2473465817
 40
0.4964296357
 40
0.747601087
 40
1.0
 40
1.0
 40
1.0
 40
1.0
 10
5.9038251086
 20
4.20364045
 30
0.0
 10
5.906327635
 20
4.203631168
 30
0.0
 10
5.911402168
 20
4.2025831443
 30
0.0
 10
5.9177892193
 20
4.1981840181
 30
0.0
 10
5.922061082
 20
4.1916567499
 30
0.0
 10
5.9230709177
 20
4.1865120535
 30
0.0
 10
5.9230799826
 20
4.1839584087
 30
0.0
  0
SPLINE
  5
55E
100
AcDbEntity
  8
0
100
AcDbSpline
 62
7
  6
CONTINUOUS
 70
0
 71
3
 72
11
 73
7
 74
0
 42
0.0000001
 43
0.0000001
 44
0.0000000001
 40
0.0
 40
0.0
 40
0.0
 40
0.0
 40
0.2473465893
 40
0.4964296467
 40
0.747601093
 40
1.0
 40
1.0
 40
1.0
 40
1.0
 10
5.8235698276
 20
4.1970499165
 30
0.0
 10
5.826072354
 20
4.1970406345
 30
0.0
 10
5.8311468871
 20
4.1959926107
 30
0.0
 10
5.8375339385
 20
4.1915934844
 30
0.0
 10
5.8418058011
 20
4.1850662162
 30
0.0
 10
5.8428156366
 20
4.17992152
 30
0.0
 10
5.8428247016
 20
4.1773678752
 30
0.0
  0
SPLINE
  5
55F
100
AcDbEntity
  8
0
100
AcDbSpline
 62
7
  6
CONTINUOUS
 70
0
 71
3
 72
12
 73
8
 74
0
 42
0.0000001
 43
0.0000001
 44
0.0000000001
 40
0.0
 40
0.0
 40
0.0
 40
0.0
 40
0.1503340625
 40
0.2519731035
 40
0.3731965855
 40
0.6662350768
 40
1.0
 40
1.0
 40
1.0
 40
1.0
 10
3.7116372044
 20
4.2055897777
 30
0.0
 10
3.7105140209
 20
4.2055447025
 30
0.0
 10
3.7087509556
 20
4.2043574245
 30
0.0
 10
3.707187368
 20
4.202075474
 30
0.0
 10
3.7055273878
 20
4.1985631145
 30
0.0
 10
3.704185658
 20
4.193093395
 30
0.0
 10
3.7038037424
 20
4.1884033344
 30
0.0
 10
3.7037878133
 20
4.1859077365
 30
0.0
  0
SPLINE
  5
560
100
AcDbEntity
  8
0
100
AcDbSpline
 62
7
  6
CONTINUOUS
 70
0
 71
3
 72
14
 73
10
 74
0
 42
0.0000001
 43
0.0000001
 44
0.0000000001
 40
0.0
 40
0.0
 40
0.0
 40
0.0
 40
0.0782409569
 40
0.1516096389
 40
0.2413026486
 40
0.354447225
 40
0.490292052
 40
0.6461712803
 40
1.0
 40
1.0
 40
1.0
 40
1.0
 10
3.7050830114
 20
4.2056395219
 30
0.0
 10
3.7045249412
 20
4.2056218052
 30
0.0
 10
3.7033904077
 20
4.2053698804
 30
0.0
 10
3.7022823798
 20
4.2039147166
 30
0.0
 10
3.7019385607
 20
4.2019419822
 30
0.0
 10
3.7019461031
 20
4.1995245498
 30
0.0
 10
3.7021980586
 20
4.1966436146
 30
0.0
 10
3.7026915857
 20
4.1920647209
 30
0.0
 10
3.70299819
 20
4.188436382
 30
0.0
 10
3.7030902459
 20
4.1859130308
 30
0.0
  0
SPLINE
  5
561
100
AcDbEntity
  8
0
100
AcDbSpline
 62
7
  6
CONTINUOUS
 70
0
 71
3
 72
11
 73
7
 74
0
 42
0.0000001
 43
0.0000001
 44
0.0000000001
 40
0.0
 40
0.0
 40
0.0
 40
0.0
 40
0.2473465816
 40
0.4964296355
 40
0.7476010869
 40
1.0
 40
1.0
 40
1.0
 40
1.0
 10
3.8028810677
 20
4.20364045
 30
0.0
 10
3.8003785413
 20
4.203631168
 30
0.0
 10
3.7953040083
 20
4.2025831443
 30
0.0
 10
3.7889169569
 20
4.1981840181
 30
0.0
 10
3.7846450942
 20
4.1916567499
 30
0.0
 10
3.7836352586
 20
4.1865120535
 30
0.0
 10
3.7836261936
 20
4.1839584087
 30
0.0
  0
SPLINE
  5
562
100
AcDbEntity
  8
0
100
AcDbSpline
 62
7
  6
CONTINUOUS
 70
0
 71
3
 72
11
 73
7
 74
0
 42
0.0000001
 43
0.0000001
 44
0.0000000001
 40
0.0
 40
0.0
 40
0.0
 40
0.0
 40
0.2473465817
 40
0.4964296357
 40
0.747601087
 40
1.0
 40
1.0
 40
1.0
 40
1.0
 10
3.8831363487
 20
4.1970499165
 30
0.0
 10
3.8806338223
 20
4.1970406345
 30
0.0
 10
3.8755592893
 20
4.1959926107
 30
0.0
 10
3.869172238
 20
4.1915934846
 30
0.0
 10
3.8649003752
 20
4.1850662164
 30
0.0
 10
3.8638905396
 20
4.17992152
 30
0.0
 10
3.8638814746
 20
4.1773678752
 30
0.0
  0
SPLINE
  5
563
100
AcDbEntity
  8
0
100
AcDbSpline
 62
7
  6
CONTINUOUS
 70
0
 71
3
 72
15
 73
11
 74
0
 42
0.0000001
 43
0.0000001
 44
0.0000000001
 40
0.0
 40
0.0
 40
0.0
 40
0.0
 40
0.1756949239
 40
0.3435973866
 40
0.4972561444
 40
0.6324723993
 40
0.7475677098
 40
0.843626003
 40
0.9250697011
 40
1.0
 40
1.0
 40
1.0
 40
1.0
 10
3.5437414752
 20
3.2792330041
 30
0.0
 10
3.5437418314
 20
3.2685158854
 30
0.0
 10
3.5444632824
 20
3.2475489558
 30
0.0
 10
3.5477108759
 20
3.2173620619
 30
0.0
 10
3.5530393341
 20
3.1899714601
 30
0.0
 10
3.5603367492
 20
3.1663694889
 30
0.0
 10
3.5694892227
 20
3.1472149702
 30
0.0
 10
3.5804346906
 20
3.1328872015
 30
0.0
 10
3.5932541474
 20
3.1237951154
 30
0.0
 10
3.6029047169
 20
3.1217533054
 30
0.0
 10
3.6074753492
 20
3.1217526891
 30
0.0
  0
SPLINE
  5
564
100
AcDbEntity
  8
0
100
AcDbSpline
 62
7
  6
CONTINUOUS
 70
0
 71
3
 72
11
 73
7
 74
0
 42
0.0000001
 43
0.0000001
 44
0.0000000001
 40
0.0
 40
0.0
 40
0.0
 40
0.0
 40
0.0771683036
 40
0.2658131354
 40
0.5733491407
 40
1.0
 40
1.0
 40
1.0
 40
1.0
 10
3.8664624667
 20
4.1768678007
 30
0.0
 10
3.8664624732
 20
4.1769361341
 30
0.0
 10
3.8661705667
 20
4.1770443199
 30
0.0
 10
3.8657369282
 20
4.1771421138
 30
0.0
 10
3.8648927554
 20
4.1772656574
 30
0.0
 10
3.8642575567
 20
4.1773318454
 30
0.0
 10
3.8638814746
 20
4.1773678752
 30
0.0
  0
SPLINE
  5
565
100
AcDbEntity
  8
0
100
AcDbSpline
 62
7
  6
CONTINUOUS
 70
0
 71
3
 72
15
 73
11
 74
0
 42
0.0000001
 43
0.0000001
 44
0.0000000001
 40
0.0
 40
0.0
 40
0.0
 40
0.0
 40
0.0749341668
 40
0.1563795871
 40
0.2524342982
 40
0.3675249498
 40
0.5027344821
 40
0.6563898295
 40
0.8243019637
 40
1.0
 40
1.0
 40
1.0
 40
1.0
 10
6.099230827
 20
3.1217526891
 30
0.0
 10
6.1038016932
 20
3.1217533221
 30
0.0
 10
6.1134524565
 20
3.1237958144
 30
0.0
 10
6.1262721997
 20
3.1328875601
 30
0.0
 10
6.1372170643
 20
3.1472153725
 30
0.0
 10
6.1463692053
 20
3.1663689536
 30
0.0
 10
6.153666421
 20
3.1899700467
 30
0.0
 10
6.1589951443
 20
3.2173605464
 30
0.0
 10
6.1622428346
 20
3.2475480041
 30
0.0
 10
6.1629643063
 20
3.2685157003
 30
0.0
 10
6.162964701
 20
3.2792330041
 30
0.0
  0
SPLINE
  5
566
100
AcDbEntity
  8
0
100
AcDbSpline
 62
7
  6
CONTINUOUS
 70
0
 71
3
 72
11
 73
7
 74
0
 42
0.0000001
 43
0.0000001
 44
0.0000000001
 40
0.0
 40
0.0
 40
0.0
 40
0.0
 40
0.0985425944
 40
0.2979796621
 40
0.5999023511
 40
1.0
 40
1.0
 40
1.0
 40
1.0
 10
3.8663418744
 20
3.7516764944
 30
0.0
 10
3.8662181615
 20
3.7516764806
 30
0.0
 10
3.865904545
 20
3.7513997919
 30
0.0
 10
3.865404889
 20
3.7508790237
 30
0.0
 10
3.8646940109
 20
3.7499761335
 30
0.0
 10
3.8641742038
 20
3.749270839
 30
0.0
 10
3.8638814746
 20
3.7488626629
 30
0.0
  0
SPLINE
  5
567
100
AcDbEntity
  8
0
100
AcDbSpline
 62
7
  6
CONTINUOUS
 70
0
 71
3
 72
11
 73
7
 74
0
 42
0.0000001
 43
0.0000001
 44
0.0000000001
 40
0.0
 40
0.0
 40
0.0
 40
0.0
 40
0.4001195015
 40
0.7020624498
 40
0.9014850286
 40
1.0
 40
1.0
 40
1.0
 40
1.0
 10
5.8428247016
 20
3.7488626629
 30
0.0
 10
5.8425319603
 20
3.7492708652
 30
0.0
 10
5.8420121281
 20
3.7499762109
 30
0.0
 10
5.8413011901
 20
3.7508790958
 30
0.0
 10
5.8408015896
 20
3.7513998893
 30
0.0
 10
5.8404879803
 20
3.7516764904
 30
0.0
 10
5.8403643019
 20
3.7516764944
 30
0.0
  0
SPLINE
  5
568
100
AcDbEntity
  8
0
100
AcDbSpline
 62
7
  6
CONTINUOUS
 70
0
 71
3
 72
11
 73
7
 74
0
 42
0.0000001
 43
0.0000001
 44
0.0000000001
 40
0.0
 40
0.0
 40
0.0
 40
0.0
 40
0.4266522882
 40
0.7341681448
 40
0.9228152802
 40
1.0
 40
1.0
 40
1.0
 40
1.0
 10
5.8428247016
 20
4.1773678752
 30
0.0
 10
5.8424486192
 20
4.1773318447
 30
0.0
 10
5.841813444
 20
4.1772656584
 30
0.0
 10
5.8409692687
 20
4.1771421423
 30
0.0
 10
5.8405356707
 20
4.1770442991
 30
0.0
 10
5.8402436982
 20
4.1769361485
 30
0.0
 10
5.8402437096
 20
4.1768678007
 30
0.0
  0
SPLINE
  5
569
100
AcDbEntity
  8
0
100
AcDbSpline
 62
7
  6
CONTINUOUS
 70
0
 71
3
 72
11
 73
7
 74
0
 42
0.0000001
 43
0.0000001
 44
0.0000000001
 40
0.0
 40
0.0
 40
0.0
 40
0.0
 40
0.3361408776
 40
0.6175795998
 40
0.8391279216
 40
1.0
 40
1.0
 40
1.0
 40
1.0
 10
5.8572946352
 20
3.7054672144
 30
0.0
 10
5.8564615213
 20
3.7105745928
 30
0.0
 10
5.8546864798
 20
3.7199197051
 30
0.0
 10
5.8513357448
 20
3.7324230045
 30
0.0
 10
5.8476429055
 20
3.7419554819
 30
0.0
 10
5.8445361325
 20
3.7470725064
 30
0.0
 10
5.8428247016
 20
3.7488626629
 30
0.0
  0
SPLINE
  5
56A
100
AcDbEntity
  8
0
100
AcDbSpline
 62
7
  6
CONTINUOUS
 70
0
 71
3
 72
11
 73
7
 74
0
 42
0.0000001
 43
0.0000001
 44
0.0000000001
 40
0.0
 40
0.0
 40
0.0
 40
0.0
 40
0.1321944554
 40
0.3518304404
 40
0.6466172027
 40
1.0
 40
1.0
 40
1.0
 40
1.0
 10
3.7836261936
 20
4.1839584087
 30
0.0
 10
3.780122075
 20
4.1842872662
 30
0.0
 10
3.7707579899
 20
4.1846936778
 30
0.0
 10
3.7535536093
 20
4.1852190217
 30
0.0
 10
3.7304510821
 20
4.1856286689
 30
0.0
 10
3.7131958455
 20
4.1858261329
 30
0.0
 10
3.7037878133
 20
4.1859077365
 30
0.0
  0
SPLINE
  5
56B
100
AcDbEntity
  8
0
100
AcDbSpline
 62
7
  6
CONTINUOUS
 70
0
 71
3
 72
11
 73
7
 74
0
 42
0.0000001
 43
0.0000001
 44
0.0000000001
 40
0.0
 40
0.0
 40
0.0
 40
0.0
 40
0.3533695368
 40
0.6481633767
 40
0.8677981015
 40
1.0
 40
1.0
 40
1.0
 40
1.0
 10
6.002918363
 20
4.1859077365
 30
0.0
 10
5.9935106838
 20
4.1858261356
 30
0.0
 10
5.9762556117
 20
4.1856286757
 30
0.0
 10
5.9531532825
 20
4.1852190392
 30
0.0
 10
5.935948549
 20
4.1846936898
 30
0.0
 10
5.9265842988
 20
4.1842872814
 30
0.0
 10
5.9230799826
 20
4.1839584087
 30
0.0
  0
SPLINE
  5
56C
100
AcDbEntity
  8
0
100
AcDbSpline
 62
7
  6
CONTINUOUS
 70
0
 71
3
 72
11
 73
7
 74
0
 42
0.0000001
 43
0.0000001
 44
0.0000000001
 40
0.0
 40
0.0
 40
0.0
 40
0.0
 40
0.1608279182
 40
0.3822894265
 40
0.6637487014
 40
1.0
 40
1.0
 40
1.0
 40
1.0
 10
3.8638814746
 20
3.7488626629
 30
0.0
 10
3.8621704969
 20
3.7470730105
 30
0.0
 10
3.8590643096
 20
3.74195806
 30
0.0
 10
3.8553718609
 20
3.7324271933
 30
0.0
 10
3.8520204944
 20
3.7199233648
 30
0.0
 10
3.8502449268
 20
3.7105762758
 30
0.0
 10
3.849411541
 20
3.7054672144
 30
0.0
  0
SPLINE
  5
56D
100
AcDbEntity
  8
0
100
AcDbSpline
 62
7
  6
CONTINUOUS
 70
0
 71
3
 72
9
 73
5
 74
0
 42
0.0000001
 43
0.0000001
 44
0.0000000001
 40
0.0
 40
0.0
 40
0.0
 40
0.0
 40
0.4815820063
 40
1.0
 40
1.0
 40
1.0
 40
1.0
 10
4.8702463696
 20
3.7123064157
 30
0.0
 10
4.8729688201
 20
3.7123064157
 30
0.0
 10
4.8786571408
 20
3.7112833859
 30
0.0
 10
4.8836840157
 20
3.7085063999
 30
0.0
 10
4.8860572887
 20
3.7067869478
 30
0.0
  0
SPLINE
  5
56E
100
AcDbEntity
  8
0
100
AcDbSpline
 62
7
  6
CONTINUOUS
 70
0
 71
3
 72
9
 73
5
 74
0
 42
0.0000001
 43
0.0000001
 44
0.0000000001
 40
0.0
 40
0.0
 40
0.0
 40
0.0
 40
0.4815841807
 40
1.0
 40
1.0
 40
1.0
 40
1.0
 10
4.8364598066
 20
3.7123064157
 30
0.0
 10
4.8337361861
 20
3.7123064157
 30
0.0
 10
4.8280454569
 20
3.7112830115
 30
0.0
 10
4.8230163404
 20
3.7085050488
 30
0.0
 10
4.820642012
 20
3.70678495
 30
0.0
  0
SPLINE
  5
56F
100
AcDbEntity
  8
0
100
AcDbSpline
 62
7
  6
CONTINUOUS
 70
0
 71
3
 72
10
 73
6
 74
0
 42
0.0000001
 43
0.0000001
 44
0.0000000001
 40
0.0
 40
0.0
 40
0.0
 40
0.0
 40
0.6742455581
 40
0.8814797222
 40
1.0
 40
1.0
 40
1.0
 40
1.0
 10
5.8043149535
 20
3.710430528
 30
0.0
 10
5.8036148913
 20
3.7109187437
 30
0.0
 10
5.8026877654
 20
3.7115579864
 30
0.0
 10
5.8015803015
 20
3.7121451962
 30
0.0
 10
5.8011844484
 20
3.7123064149
 30
0.0
 10
5.8010344206
 20
3.7123064157
 30
0.0
  0
SPLINE
  5
570
100
AcDbEntity
  8
0
100
AcDbSpline
 62
7
  6
CONTINUOUS
 70
0
 71
3
 72
10
 73
6
 74
0
 42
0.0000001
 43
0.0000001
 44
0.0000000001
 40
0.0
 40
0.0
 40
0.0
 40
0.0
 40
0.5986223525
 40
0.8232659673
 40
1.0
 40
1.0
 40
1.0
 40
1.0
 10
5.8187848871
 20
3.681500229
 30
0.0
 10
5.8172278649
 20
3.6878667535
 30
0.0
 10
5.8145246701
 20
3.6965887753
 30
0.0
 10
5.808976453
 20
3.7060700571
 30
0.0
 10
5.8059018689
 20
3.7093232897
 30
0.0
 10
5.8043149535
 20
3.710430528
 30
0.0
  0
SPLINE
  5
571
100
AcDbEntity
  8
0
100
AcDbSpline
 62
7
  6
CONTINUOUS
 70
0
 71
3
 72
10
 73
6
 74
0
 42
0.0000001
 43
0.0000001
 44
0.0000000001
 40
0.0
 40
0.0
 40
0.0
 40
0.0
 40
0.1185465762
 40
0.3258020639
 40
1.0
 40
1.0
 40
1.0
 40
1.0
 10
3.9056717557
 20
3.7123064157
 30
0.0
 10
3.9055216946
 20
3.7123064125
 30
0.0
 10
3.9051257986
 20
3.7121451233
 30
0.0
 10
3.9040182975
 20
3.711558002
 30
0.0
 10
3.903091251
 20
3.7109186862
 30
0.0
 10
3.9023912227
 20
3.710430528
 30
0.0
  0
SPLINE
  5
572
100
AcDbEntity
  8
0
100
AcDbSpline
 62
7
  6
CONTINUOUS
 70
0
 71
3
 72
10
 73
6
 74
0
 42
0.0000001
 43
0.0000001
 44
0.0000000001
 40
0.0
 40
0.0
 40
0.0
 40
0.0
 40
0.1766924784
 40
0.4012501845
 40
1.0
 40
1.0
 40
1.0
 40
1.0
 10
3.9023912227
 20
3.710430528
 30
0.0
 10
3.900804592
 20
3.7093236762
 30
0.0
 10
3.8977307464
 20
3.7060716535
 30
0.0
 10
3.8921824374
 20
3.6965904766
 30
0.0
 10
3.8894781835
 20
3.6878682227
 30
0.0
 10
3.8879212891
 20
3.681500229
 30
0.0
  0
SPLINE
  5
573
100
AcDbEntity
  8
0
100
AcDbSpline
 62
7
  6
CONTINUOUS
 70
0
 71
3
 72
14
 73
10
 74
0
 42
0.0000001
 43
0.0000001
 44
0.0000000001
 40
0.0
 40
0.0
 40
0.0
 40
0.0
 40
0.3787680607
 40
0.5508379487
 40
0.7012912846
 40
0.8250322703
 40
0.9173757599
 40
0.9755828971
 40
1.0
 40
1.0
 40
1.0
 40
1.0
 10
4.9625435409
 20
4.4327763111
 30
0.0
 10
4.9625435409
 20
4.4312714614
 30
0.0
 10
4.962511471
 20
4.4290815446
 30
0.0
 10
4.9623998353
 20
4.4263002628
 30
0.0
 10
4.9622883162
 20
4.4245237759
 30
0.0
 10
4.9621599604
 20
4.4230919414
 30
0.0
 10
4.9620042367
 20
4.4219664991
 30
0.0
 10
4.9618697006
 20
4.4213720828
 30
0.0
 10
4.9617178141
 20
4.4209652875
 30
0.0
 10
4.9616208047
 20
4.4209652875
 30
0.0
  0
SPLINE
  5
574
100
AcDbEntity
  8
0
100
AcDbSpline
 62
7
  6
CONTINUOUS
 70
0
 71
3
 72
12
 73
8
 74
0
 42
0.0000001
 43
0.0000001
 44
0.0000000001
 40
0.0
 40
0.0
 40
0.0
 40
0.0
 40
0.3569480487
 40
0.664691114
 40
0.7864354041
 40
0.8823652079
 40
1.0
 40
1.0
 40
1.0
 40
1.0
 10
5.2206300656
 20
4.4327763111
 30
0.0
 10
5.2206300645
 20
4.4312695754
 30
0.0
 10
5.2204854891
 20
4.4284591111
 30
0.0
 10
5.2199799598
 20
4.4251800389
 30
0.0
 10
5.2193107266
 20
4.4230347397
 30
0.0
 10
5.2187514487
 20
4.4217937641
 30
0.0
 10
5.2180228721
 20
4.4209652875
 30
0.0
 10
5.2175263165
 20
4.4209652875
 30
0.0
  0
SPLINE
  5
575
100
AcDbEntity
  8
0
100
AcDbSpline
 62
7
  6
CONTINUOUS
 70
0
 71
3
 72
12
 73
8
 74
0
 42
0.0000001
 43
0.0000001
 44
0.0000000001
 40
0.0
 40
0.0
 40
0.0
 40
0.0
 40
0.3551725791
 40
0.6654888327
 40
0.7886142509
 40
0.8851967986
 40
1.0
 40
1.0
 40
1.0
 40
1.0
 10
5.2162965533
 20
4.5184448867
 30
0.0
 10
5.2159378328
 20
4.5199835279
 30
0.0
 10
5.2151141292
 20
4.5228371695
 30
0.0
 10
5.2138190966
 20
4.5260903351
 30
0.0
 10
5.2126283001
 20
4.5281663951
 30
0.0
 10
5.2117836109
 20
4.5293076523
 30
0.0
 10
5.2108602598
 20
4.5300271198
 30
0.0
 10
5.2103648315
 20
4.5299032627
 30
0.0
  0
SPLINE
  5
576
100
AcDbEntity
  8
0
100
AcDbSpline
 62
7
  6
CONTINUOUS
 70
0
 71
3
 72
14
 73
10
 74
0
 42
0.0000001
 43
0.0000001
 44
0.0000000001
 40
0.0
 40
0.0
 40
0.0
 40
0.0
 40
0.3778630621
 40
0.5501406757
 40
0.7010016362
 40
0.8251945366
 40
0.9178724836
 40
0.9761437426
 40
1.0
 40
1.0
 40
1.0
 40
1.0
 10
4.9582100286
 20
4.4544685088
 30
0.0
 10
4.9578417355
 20
4.4559500187
 30
0.0
 10
4.957275328
 20
4.4581010753
 30
0.0
 10
4.9564900316
 20
4.4608189098
 30
0.0
 10
4.9559502976
 20
4.4625518902
 30
0.0
 10
4.9554786198
 20
4.4639383869
 30
0.0
 10
4.9550596553
 20
4.4650239133
 30
0.0
 10
4.9547871015
 20
4.4655705106
 30
0.0
 10
4.9545528235
 20
4.4659502607
 30
0.0
 10
4.9544593197
 20
4.4659268848
 30
0.0
  0
LINE
  5
577
100
AcDbEntity
  8
0
100
AcDbLine
 62
7
  6
CONTINUOUS
 10
4.9328420946
 20
4.4438867981
 11
4.9459645488
 21
4.4438868957
  0
SPLINE
  5
578
100
AcDbEntity
  8
0
100
AcDbSpline
 62
7
  6
CONTINUOUS
 70
0
 71
3
 72
9
 73
5
 74
0
 42
0.0000001
 43
0.0000001
 44
0.0000000001
 40
0.0
 40
0.0
 40
0.0
 40
0.0
 40
0.5003649764
 40
1.0
 40
1.0
 40
1.0
 40
1.0
 10
4.9459645487
 20
4.4438868957
 30
0.0
 10
4.9472716656
 20
4.4406613373
 30
0.0
 10
4.9519511048
 20
4.4348803276
 30
0.0
 10
4.959068276
 20
4.432776348
 30
0.0
 10
4.9625435409
 20
4.4327763111
 30
0.0
  0
SPLINE
  5
579
100
AcDbEntity
  8
0
100
AcDbSpline
 62
7
  6
CONTINUOUS
 70
0
 71
3
 72
11
 73
7
 74
0
 42
0.0000001
 43
0.0000001
 44
0.0000000001
 40
0.0
 40
0.0
 40
0.0
 40
0.0
 40
0.2463241794
 40
0.4944913108
 40
0.7459121428
 40
1.0
 40
1.0
 40
1.0
 40
1.0
 10
5.2206300656
 20
4.4327763111
 30
0.0
 10
5.2229100729
 20
4.4327764307
 30
0.0
 10
5.2275346692
 20
4.4336650694
 30
0.0
 10
5.2334661112
 20
4.437519354
 30
0.0
 10
5.2375315921
 20
4.4434077462
 30
0.0
 10
5.2384975662
 20
4.4481409777
 30
0.0
 10
5.2384975942
 20
4.4504928466
 30
0.0
  0
SPLINE
  5
57A
100
AcDbEntity
  8
0
100
AcDbSpline
 62
7
  6
CONTINUOUS
 70
0
 71
3
 72
11
 73
7
 74
0
 42
0.0000001
 43
0.0000001
 44
0.0000000001
 40
0.0
 40
0.0
 40
0.0
 40
0.0
 40
0.2547868594
 40
0.505991751
 40
0.7535371102
 40
1.0
 40
1.0
 40
1.0
 40
1.0
 10
5.2384975942
 20
4.5012573228
 30
0.0
 10
5.2384973538
 20
4.5039790994
 30
0.0
 10
5.237193534
 20
4.509468117
 30
0.0
 10
5.2318295125
 20
4.5158364808
 30
0.0
 10
5.224332193
 20
4.5192060584
 30
0.0
 10
5.2188520695
 20
4.519078341
 30
0.0
 10
5.2162965533
 20
4.5184448867
 30
0.0
  0
LINE
  5
57B
100
AcDbEntity
  8
0
100
AcDbLine
 62
7
  6
CONTINUOUS
 10
5.2162965533
 20
4.5184448867
 11
4.9582100286
 21
4.4544685088
  0
SPLINE
  5
57C
100
AcDbEntity
  8
0
100
AcDbSpline
 62
7
  6
CONTINUOUS
 70
0
 71
3
 72
11
 73
7
 74
0
 42
0.0000001
 43
0.0000001
 44
0.0000000001
 40
0.0
 40
0.0
 40
0.0
 40
0.0
 40
0.2503766145
 40
0.5004881881
 40
0.7503201356
 40
1.0
 40
1.0
 40
1.0
 40
1.0
 10
4.8483615246
 20
2.4950807109
 30
0.0
 10
4.8498526308
 20
2.4942321712
 30
0.0
 10
4.8533416313
 20
2.493302709
 30
0.0
 10
4.8585314296
 20
2.4946641007
 30
0.0
 10
4.8623851876
 20
2.4984034588
 30
0.0
 10
4.8633361932
 20
2.5018937182
 30
0.0
 10
4.8633362152
 20
2.503604583
 30
0.0
  0
LINE
  5
57D
100
AcDbEntity
  8
0
100
AcDbLine
 62
7
  6
CONTINUOUS
 10
4.7307142681
 20
2.5620477146
 11
4.8483615246
 21
2.4950807109
  0
SPLINE
  5
57E
100
AcDbEntity
  8
0
100
AcDbSpline
 62
7
  6
CONTINUOUS
 70
0
 71
3
 72
11
 73
7
 74
0
 42
0.0000001
 43
0.0000001
 44
0.0000000001
 40
0.0
 40
0.0
 40
0.0
 40
0.0
 40
0.2501550534
 40
0.5003511299
 40
0.7503528996
 40
1.0
 40
1.0
 40
1.0
 40
1.0
 10
4.7307142681
 20
2.5790954588
 30
0.0
 10
4.7292315166
 20
2.5782512283
 30
0.0
 10
4.7266569082
 20
2.5757378775
 30
0.0
 10
4.7252539635
 20
2.5705650837
 30
0.0
 10
4.7266628082
 20
2.5653981696
 30
0.0
 10
4.7292344429
 20
2.5628900825
 30
0.0
 10
4.7307142681
 20
2.5620477146
 30
0.0
  0
LINE
  5
57F
100
AcDbEntity
  8
0
100
AcDbLine
 62
7
  6
CONTINUOUS
 10
4.8483615246
 20
2.6460624625
 11
4.7307142681
 21
2.5790954588
  0
SPLINE
  5
580
100
AcDbEntity
  8
0
100
AcDbSpline
 62
7
  6
CONTINUOUS
 70
0
 71
3
 72
11
 73
7
 74
0
 42
0.0000001
 43
0.0000001
 44
0.0000000001
 40
0.0
 40
0.0
 40
0.0
 40
0.0
 40
0.2501954088
 40
0.5002075242
 40
0.7501281369
 40
1.0
 40
1.0
 40
1.0
 40
1.0
 10
4.8633362152
 20
2.6375385904
 30
0.0
 10
4.8633360154
 20
2.639252986
 30
0.0
 10
4.8623817131
 20
2.6427483806
 30
0.0
 10
4.8585201002
 20
2.6464853975
 30
0.0
 10
4.853332565
 20
2.6478390453
 30
0.0
 10
4.8498495372
 20
2.6469094417
 30
0.0
 10
4.8483615246
 20
2.6460624625
 30
0.0
  0
SPLINE
  5
581
100
AcDbEntity
  8
0
100
AcDbSpline
 62
7
  6
CONTINUOUS
 70
0
 71
3
 72
17
 73
13
 74
0
 42
0.0000001
 43
0.0000001
 44
0.0000000001
 40
0.0
 40
0.0
 40
0.0
 40
0.0
 40
0.0373847215
 40
0.0842506962
 40
0.2024196104
 40
0.3448754586
 40
0.4999940927
 40
0.6551132225
 40
0.7975704535
 40
0.9157415981
 40
0.9626095712
 40
1.0
 40
1.0
 40
1.0
 40
1.0
 10
6.0016231648
 20
4.2056395219
 30
0.0
 10
5.9730231072
 20
4.2067454107
 30
0.0
 10
5.9085505506
 20
4.2087359742
 30
0.0
 10
5.7536194794
 20
4.2122723683
 30
0.0
 10
5.5182266444
 20
4.2155904298
 30
0.0
 10
5.1999452996
 20
4.2180345789
 30
0.0
 10
4.8533662764
 20
4.2188680107
 30
0.0
 10
4.5067861942
 20
4.2180347054
 30
0.0
 10
4.1885017027
 20
4.2155906647
 30
0.0
 10
3.9531045702
 20
4.2122726796
 30
0.0
 10
3.7981658906
 20
4.2087362688
 30
0.0
 10
3.7336874354
 20
4.206745574
 30
0.0
 10
3.7050830114
 20
4.2056395219
 30
0.0
  0
SPLINE
  5
582
100
AcDbEntity
  8
0
100
AcDbSpline
 62
7
  6
CONTINUOUS
 70
0
 71
3
 72
11
 73
7
 74
0
 42
0.0000001
 43
0.0000001
 44
0.0000000001
 40
0.0
 40
0.0
 40
0.0
 40
0.0
 40
0.3533930591
 40
0.6482024198
 40
0.8678357316
 40
1.0
 40
1.0
 40
1.0
 40
1.0
 10
5.9950689718
 20
4.2055897777
 30
0.0
 10
5.9843175676
 20
4.2055081762
 30
0.0
 10
5.9645978074
 20
4.2053107055
 30
0.0
 10
5.9381960819
 20
4.2049011525
 30
0.0
 10
5.9185332107
 20
4.2043756749
 30
0.0
 10
5.9078326164
 20
4.2039695357
 30
0.0
 10
5.9038251086
 20
4.20364045
 30
0.0
  0
SPLINE
  5
583
100
AcDbEntity
  8
0
100
AcDbSpline
 62
7
  6
CONTINUOUS
 70
0
 71
3
 72
11
 73
7
 74
0
 42
0.0000001
 43
0.0000001
 44
0.0000000001
 40
0.0
 40
0.0
 40
0.0
 40
0.0
 40
0.4252021881
 40
0.7328295293
 40
0.9227707614
 40
1.0
 40
1.0
 40
1.0
 40
1.0
 10
5.8235698276
 20
4.1970499165
 30
0.0
 10
5.8231357296
 20
4.1970142668
 30
0.0
 10
5.8224014276
 20
4.196945277
 30
0.0
 10
5.8214217091
 20
4.1968337014
 30
0.0
 10
5.8209167559
 20
4.1967181712
 30
0.0
 10
5.8205702607
 20
4.1966341574
 30
0.0
 10
5.8205590955
 20
4.1965558388
 30
0.0
  0
SPLINE
  5
584
100
AcDbEntity
  8
0
100
AcDbSpline
 62
7
  6
CONTINUOUS
 70
0
 71
3
 72
15
 73
11
 74
0
 42
0.0000001
 43
0.0000001
 44
0.0000000001
 40
0.0
 40
0.0
 40
0.0
 40
0.0
 40
0.1757926615
 40
0.3439346766
 40
0.4980789998
 40
0.633968875
 40
0.7497526698
 40
0.8461517962
 40
0.9270455498
 40
1.0
 40
1.0
 40
1.0
 40
1.0
 10
6.162964701
 20
4.1859130308
 30
0.0
 10
6.1629644231
 20
4.1951934516
 30
0.0
 10
6.1623455682
 20
4.2133571934
 30
0.0
 10
6.1595651139
 20
4.2395288153
 30
0.0
 10
6.1550201822
 20
4.2633205061
 30
0.0
 10
6.1488244649
 20
4.2838812417
 30
0.0
 10
6.1411005148
 20
4.3006422994
 30
0.0
 10
6.1319292748
 20
4.3132774401
 30
0.0
 10
6.1212589226
 20
4.3214902177
 30
0.0
 10
6.1131224648
 20
4.3235952447
 30
0.0
 10
6.1092734845
 20
4.3237317694
 30
0.0
  0
SPLINE
  5
585
100
AcDbEntity
  8
0
100
AcDbSpline
 62
7
  6
CONTINUOUS
 70
0
 71
3
 72
9
 73
5
 74
0
 42
0.0000001
 43
0.0000001
 44
0.0000000001
 40
0.0
 40
0.0
 40
0.0
 40
0.0
 40
0.2841931197
 40
1.0
 40
1.0
 40
1.0
 40
1.0
 10
3.8255823166
 20
3.299287937
 30
0.0
 10
3.8228693801
 20
3.2981621163
 30
0.0
 10
3.8133803158
 20
3.2940661488
 30
0.0
 10
3.8040663535
 20
3.2895537085
 30
0.0
 10
3.7975668551
 20
3.2860196536
 30
0.0
  0
SPLINE
  5
586
100
AcDbEntity
  8
0
100
AcDbSpline
 62
7
  6
CONTINUOUS
 70
0
 71
3
 72
11
 73
7
 74
0
 42
0.0000001
 43
0.0000001
 44
0.0000000001
 40
0.0
 40
0.0
 40
0.0
 40
0.0
 40
0.0772409078
 40
0.2672135571
 40
0.5748321475
 40
1.0
 40
1.0
 40
1.0
 40
1.0
 10
3.8861471061
 20
4.196555839
 30
0.0
 10
3.8861359367
 20
4.1966341694
 30
0.0
 10
3.885789356
 20
4.196718146
 30
0.0
 10
3.8852843872
 20
4.196833682
 30
0.0
 10
3.8843046729
 20
4.1969452692
 30
0.0
 10
3.8835704133
 20
4.1970142681
 30
0.0
 10
3.8831363487
 20
4.1970499165
 30
0.0
  0
SPLINE
  5
587
100
AcDbEntity
  8
0
100
AcDbSpline
 62
7
  6
CONTINUOUS
 70
0
 71
3
 72
11
 73
7
 74
0
 42
0.0000001
 43
0.0000001
 44
0.0000000001
 40
0.0
 40
0.0
 40
0.0
 40
0.0
 40
0.132156824
 40
0.3517913968
 40
0.6465936799
 40
1.0
 40
1.0
 40
1.0
 40
1.0
 10
3.8028810677
 20
4.20364045
 30
0.0
 10
3.7988737858
 20
4.2039695195
 30
0.0
 10
3.7881733801
 20
4.2043756636
 30
0.0
 10
3.7685109122
 20
4.2049011347
 30
0.0
 10
3.7421089604
 20
4.2053106991
 30
0.0
 10
3.7223890121
 20
4.2055081725
 30
0.0
 10
3.7116372044
 20
4.2055897777
 30
0.0
  0
SPLINE
  5
588
100
AcDbEntity
  8
0
100
AcDbSpline
 62
7
  6
CONTINUOUS
 70
0
 71
3
 72
8
 73
4
 74
0
 42
0.0000001
 43
0.0000001
 44
0.0000000001
 40
0.0
 40
0.0
 40
0.0
 40
0.0
 40
1.0
 40
1.0
 40
1.0
 40
1.0
 10
4.5777839513
 20
4.1966158058
 30
0.0
 10
4.5777768132
 20
4.1966058121
 30
0.0
 10
4.5777696751
 20
4.1965958183
 30
0.0
 10
4.5777625369
 20
4.1965858245
 30
0.0
  0
SPLINE
  5
589
100
AcDbEntity
  8
0
100
AcDbSpline
 62
7
  6
CONTINUOUS
 70
0
 71
3
 72
14
 73
10
 74
0
 42
0.0000001
 43
0.0000001
 44
0.0000000001
 40
0.0
 40
0.0
 40
0.0
 40
0.0
 40
0.2499237685
 40
0.4998570667
 40
0.6248318617
 40
0.7498195456
 40
0.8748402576
 40
0.9373847068
 40
1.0
 40
1.0
 40
1.0
 40
1.0
 10
3.8255823166
 20
3.299287937
 30
0.0
 10
3.902619492
 20
3.3312570002
 30
0.0
 10
4.0566994171
 20
3.3951899997
 30
0.0
 10
4.2493156378
 20
3.4750760556
 30
0.0
 10
4.403439818
 20
3.5389361198
 30
0.0
 10
4.5190761681
 20
3.5867800796
 30
0.0
 10
4.6154991787
 20
3.6265656286
 30
0.0
 10
4.6927731995
 20
3.6581841587
 30
0.0
 10
4.7315023944
 20
3.6738311
 30
0.0
 10
4.7509408369
 20
3.681500229
 30
0.0
  0
SPLINE
  5
58A
100
AcDbEntity
  8
0
100
AcDbSpline
 62
7
  6
CONTINUOUS
 70
0
 71
3
 72
9
 73
5
 74
0
 42
0.0000001
 43
0.0000001
 44
0.0000000001
 40
0.0
 40
0.0
 40
0.0
 40
0.0
 40
0.4983179778
 40
1.0
 40
1.0
 40
1.0
 40
1.0
 10
4.7509391649
 20
3.6814995514
 30
0.0
 10
4.7623982806
 20
3.6860205677
 30
0.0
 10
4.7854371928
 20
3.6949637219
 30
0.0
 10
4.8087352852
 20
3.7033155738
 30
0.0
 10
4.8206420121
 20
3.70678495
 30
0.0
  0
SPLINE
  5
58B
100
AcDbEntity
  8
0
100
AcDbSpline
 62
7
  6
CONTINUOUS
 70
0
 71
3
 72
9
 73
5
 74
0
 42
0.0000001
 43
0.0000001
 44
0.0000000001
 40
0.0
 40
0.0
 40
0.0
 40
0.0
 40
0.4998500206
 40
1.0
 40
1.0
 40
1.0
 40
1.0
 10
4.9582100286
 20
4.4544685088
 30
0.0
 10
4.9555184487
 20
4.4538005894
 30
0.0
 10
4.9503712362
 20
4.4511683331
 30
0.0
 10
4.9470078519
 20
4.4464581737
 30
0.0
 10
4.9459645487
 20
4.4438868957
 30
0.0
  0
SPLINE
  5
58C
100
AcDbEntity
  8
0
100
AcDbSpline
 62
7
  6
CONTINUOUS
 70
0
 71
3
 72
11
 73
7
 74
0
 42
0.0000001
 43
0.0000001
 44
0.0000000001
 40
0.0
 40
0.0
 40
0.0
 40
0.0
 40
0.2498959959
 40
0.4998044686
 40
0.7498469822
 40
1.0
 40
1.0
 40
1.0
 40
1.0
 10
4.9328420946
 20
6.4243122946
 30
0.0
 10
4.9328420961
 20
6.4226773167
 30
0.0
 10
4.933560781
 20
6.4193646829
 30
0.0
 10
4.9365912001
 20
6.4153249004
 30
0.0
 10
4.9409878259
 20
6.4128548095
 30
0.0
 10
4.9443314846
 20
6.4124735382
 30
0.0
 10
4.9459645488
 20
6.4125819626
 30
0.0
  0
SPLINE
  5
58D
100
AcDbEntity
  8
0
100
AcDbSpline
 62
7
  6
CONTINUOUS
 70
0
 71
3
 72
12
 73
8
 74
0
 42
0.0000001
 43
0.0000001
 44
0.0000000001
 40
0.0
 40
0.0
 40
0.0
 40
0.0
 40
0.112677588
 40
0.2082819635
 40
0.3306113092
 40
0.6408644265
 40
1.0
 40
1.0
 40
1.0
 40
1.0
 10
4.9582100286
 20
6.4134492046
 30
0.0
 10
4.9577319865
 20
6.4134132384
 30
0.0
 10
4.9569955869
 20
6.4142386878
 30
0.0
 10
4.9563956574
 20
6.4154368437
 30
0.0
 10
4.9556130039
 20
6.4175803671
 30
0.0
 10
4.9549058087
 20
6.4208658085
 30
0.0
 10
4.9545672452
 20
6.4237027949
 30
0.0
 10
4.9544593197
 20
6.4252269412
 30
0.0
  0
SPLINE
  5
58E
100
AcDbEntity
  8
0
100
AcDbSpline
 62
7
  6
CONTINUOUS
 70
0
 71
3
 72
12
 73
8
 74
0
 42
0.0000001
 43
0.0000001
 44
0.0000000001
 40
0.0
 40
0.0
 40
0.0
 40
0.0
 40
0.1108449058
 40
0.2069794317
 40
0.330319102
 40
0.6423421051
 40
1.0
 40
1.0
 40
1.0
 40
1.0
 10
5.2162965533
 20
6.4574579043
 30
0.0
 10
5.2158237508
 20
6.4573307636
 30
0.0
 10
5.2149371798
 20
6.4580726601
 30
0.0
 10
5.214122037
 20
6.4591878317
 30
0.0
 10
5.2129367528
 20
6.4612602624
 30
0.0
 10
5.2116190153
 20
6.4644932993
 30
0.0
 10
5.2107524338
 20
6.4673322597
 30
0.0
 10
5.2103648315
 20
6.4688637364
 30
0.0
  0
SPLINE
  5
58F
100
AcDbEntity
  8
0
100
AcDbSpline
 62
7
  6
CONTINUOUS
 70
0
 71
3
 72
12
 73
8
 74
0
 42
0.0000001
 43
0.0000001
 44
0.0000000001
 40
0.0
 40
0.0
 40
0.0
 40
0.0
 40
0.1709741714
 40
0.276070668
 40
0.396856739
 40
0.6807396068
 40
1.0
 40
1.0
 40
1.0
 40
1.0
 10
4.8483615246
 20
6.4095191529
 30
0.0
 10
4.8470119824
 20
6.4095239727
 30
0.0
 10
4.8448428873
 20
6.4105495704
 30
0.0
 10
4.8427708694
 20
6.4128984659
 30
0.0
 10
4.8407058839
 20
6.4163830637
 30
0.0
 10
4.8390200831
 20
6.4219130785
 30
0.0
 10
4.8385825585
 20
6.4266840571
 30
0.0
 10
4.8385893086
 20
6.4292040667
 30
0.0
  0
LINE
  5
590
100
AcDbEntity
  8
0
100
AcDbLine
 62
7
  6
CONTINUOUS
 10
5.2470538755
 20
6.4749783572
 11
5.2103648315
 21
6.4688637364
  0
LINE
  5
591
100
AcDbEntity
  8
0
100
AcDbLine
 62
7
  6
CONTINUOUS
 10
4.7094070336
 20
6.4349048175
 11
4.7078353101
 21
6.4349527423
  0
SPLINE
  5
592
100
AcDbEntity
  8
0
100
AcDbSpline
 62
7
  6
CONTINUOUS
 70
0
 71
3
 72
14
 73
10
 74
0
 42
0.0000001
 43
0.0000001
 44
0.0000000001
 40
0.0
 40
0.0
 40
0.0
 40
0.0
 40
0.2787524772
 40
0.4098534724
 40
0.5357330502
 40
0.6569081666
 40
0.7740819661
 40
0.8881383623
 40
1.0
 40
1.0
 40
1.0
 40
1.0
 10
13.5569154963
 20
7.979162148
 30
0.0
 10
13.6118733942
 20
7.9474329087
 30
0.0
 10
13.6895830124
 20
7.8947394424
 30
0.0
 10
13.7801592352
 20
7.812837023
 30
0.0
 10
13.8379886394
 20
7.7488373238
 30
0.0
 10
13.8865159888
 20
7.6813737291
 30
0.0
 10
13.9251818319
 20
7.6108258216
 30
0.0
 10
13.9533981123
 20
7.5377442101
 30
0.0
 10
13.9650110631
 20
7.4874209392
 30
0.0
 10
13.968874055
 20
7.4622497125
 30
0.0
  0
SPLINE
  5
593
100
AcDbEntity
  8
0
100
AcDbSpline
 62
7
  6
CONTINUOUS
 70
0
 71
3
 72
25
 73
21
 74
0
 42
0.0000001
 43
0.0000001
 44
0.0000000001
 40
0.0
 40
0.0
 40
0.0
 40
0.0
 40
0.022950698
 40
0.0461485088
 40
0.069744173
 40
0.0938622054
 40
0.1440953211
 40
0.1976855116
 40
0.255041864
 40
0.3162165221
 40
0.3809457056
 40
0.4487114211
 40
0.5188035531
 40
0.5903782094
 40
0.6625115133
 40
0.7342504232
 40
0.8046622486
 40
0.8728860604
 40
0.9381831
 40
1.0
 40
1.0
 40
1.0
 40
1.0
 10
11.220415976
 20
7.4244980153
 30
0.0
 10
11.2220347292
 20
7.4452168422
 30
0.0
 10
11.2278573315
 20
7.4867206625
 30
0.0
 10
11.2441198715
 20
7.5478878231
 30
0.0
 10
11.2676911322
 20
7.6077662127
 30
0.0
 10
11.3090691123
 20
7.6863835843
 30
0.0
 10
11.3787204597
 20
7.7799355025
 30
0.0
 10
11.4854014233
 20
7.8804124058
 30
0.0
 10
11.6138146278
 20
7.9696069769
 30
0.0
 10
11.7613639771
 20
8.0463823234
 30
0.0
 10
11.9252547174
 20
8.1096824197
 30
0.0
 10
12.1023670003
 20
8.1585114155
 30
0.0
 10
12.2892738886
 20
8.1920411837
 30
0.0
 10
12.4822999252
 20
8.2096724858
 30
0.0
 10
12.6776098775
 20
8.2110820905
 30
0.0
 10
12.8713089117
 20
8.1962430611
 30
0.0
 10
13.0595419602
 20
8.1654308885
 30
0.0
 10
13.2386077452
 20
8.1191923384
 30
0.0
 10
13.4049978296
 20
8.0583428671
 30
0.0
 10
13.5084390181
 20
8.0071494226
 30
0.0
 10
13.5569154963
 20
7.979162148
 30
0.0
  0
SPLINE
  5
594
100
AcDbEntity
  8
AXIS
100
AcDbSpline
 62
7
  6
CONTINUOUS
 70
0
 71
3
 72
14
 73
10
 74
0
 42
0.0000001
 43
0.0000001
 44
0.0000000001
 40
0.0
 40
0.0
 40
0.0
 40
0.0
 40
0.108046698
 40
0.2181304944
 40
0.332104466
 40
0.4515007985
 40
0.5774610468
 40
0.7107276664
 40
1.0
 40
1.0
 40
1.0
 40
1.0
 10
11.2188767402
 20
7.3770441658
 30
0.0
 10
11.2188769961
 20
7.3509575859
 30
0.0
 10
11.2234074084
 20
7.2981867125
 30
0.0
 10
11.2436278439
 20
7.2202424374
 30
0.0
 10
11.2770052356
 20
7.1439767197
 30
0.0
 10
11.3231151309
 20
7.070164964
 30
0.0
 10
11.3814462728
 20
6.9994644132
 30
0.0
 10
11.4772818401
 20
6.9077431235
 30
0.0
 10
11.5619889695
 20
6.8494230848
 30
0.0
 10
11.6224736836
 20
6.8145030089
 30
0.0
  0
SPLINE
  5
595
100
AcDbEntity
  8
AXIS
100
AcDbSpline
 62
7
  6
CONTINUOUS
 70
0
 71
3
 72
25
 73
21
 74
0
 42
0.0000001
 43
0.0000001
 44
0.0000000001
 40
0.0
 40
0.0
 40
0.0
 40
0.0
 40
0.0213318
 40
0.0428920195
 40
0.0648971497
 40
0.0875416768
 40
0.1353164693
 40
0.1872171049
 40
0.2436545592
 40
0.3046024055
 40
0.3696902
 40
0.4382876801
 40
0.5095744614
 40
0.5825990574
 40
0.6563309145
 40
0.7297083055
 40
0.801685084
 40
0.8712778134
 40
0.9376160195
 40
1.0
 40
1.0
 40
1.0
 40
1.0
 10
13.9747819894
 20
7.3770441657
 30
0.0
 10
13.9747821812
 20
7.3574964474
 30
0.0
 10
13.9722587292
 20
7.3181463551
 30
0.0
 10
13.9609540346
 20
7.2596119534
 30
0.0
 10
13.9421988553
 20
7.2017533504
 30
0.0
 10
13.9068210392
 20
7.1246205709
 30
0.0
 10
13.8433337125
 20
7.03119905
 30
0.0
 10
13.7419160477
 20
6.9293745885
 30
0.0
 10
13.6162298426
 20
6.8375269293
 30
0.0
 10
13.4689685535
 20
6.757435269
 30
0.0
 10
13.3032114086
 20
6.6906565913
 30
0.0
 10
13.1224421691
 20
6.6385590829
 30
0.0
 10
12.9304819032
 20
6.6022281059
 30
0.0
 10
12.7314089821
 20
6.5824309126
 30
0.0
 10
12.529465376
 20
6.5795889802
 30
0.0
 10
12.3289582739
 20
6.5937632567
 30
0.0
 10
12.1341655077
 20
6.624649682
 30
0.0
 10
11.9492202002
 20
6.6716007357
 30
0.0
 10
11.778075872
 20
6.7336104288
 30
0.0
 10
11.6719816103
 20
6.7859202407
 30
0.0
 10
11.6224736836
 20
6.8145030089
 30
0.0
  0
SPLINE
  5
596
100
AcDbEntity
  8
AXIS
100
AcDbSpline
 62
7
  6
CONTINUOUS
 70
0
 71
3
 72
29
 73
25
 74
0
 42
0.0000001
 43
0.0000001
 44
0.0000000001
 40
0.0
 40
0.0
 40
0.0
 40
0.0
 40
0.0665361573
 40
0.1383281167
 40
0.2138961241
 40
0.2914310351
 40
0.3689659039
 40
0.4445337878
 40
0.5163255527
 40
0.5828614624
 40
0.6431946883
 40
0.6709898148
 40
0.6972612245
 40
0.7221635729
 40
0.7459350135
 40
0.7688951012
 40
0.7914303349
 40
0.813965587
 40
0.8369257279
 40
0.8606972519
 40
0.8855997076
 40
0.9118712411
 40
0.9396665011
 40
1.0
 40
1.0
 40
1.0
 40
1.0
 10
13.4041526435
 20
7.9074412247
 30
0.0
 10
13.3488846908
 20
7.9393494702
 30
0.0
 10
13.2280314948
 20
7.9956256494
 30
0.0
 10
13.0312288851
 20
8.0554413202
 30
0.0
 10
12.8181583779
 20
8.092259832
 30
0.0
 10
12.5968256904
 20
8.1046824204
 30
0.0
 10
12.3754869428
 20
8.0922566742
 30
0.0
 10
12.1624348951
 20
8.0554472686
 30
0.0
 10
11.9655723793
 20
7.9955951326
 30
0.0
 10
11.7922106152
 20
7.9148909573
 30
0.0
 10
11.6692167125
 20
7.830191567
 30
0.0
 10
11.5897909174
 20
7.7541816474
 30
0.0
 10
11.5414639463
 20
7.6956039805
 30
0.0
 10
11.5032585347
 20
7.6344440351
 30
0.0
 10
11.4756039107
 20
7.5712571009
 30
0.0
 10
11.4588505767
 20
7.506659741
 30
0.0
 10
11.453237622
 20
7.4413329209
 30
0.0
 10
11.4588515387
 20
7.3760061209
 30
0.0
 10
11.4756057524
 20
7.3114088874
 30
0.0
 10
11.5032615157
 20
7.2482219656
 30
0.0
 10
11.5414668896
 20
7.1870627534
 30
0.0
 10
11.5897984019
 20
7.1284831567
 30
0.0
 10
11.6692046652
 20
7.0524857227
 30
0.0
 10
11.739390343
 20
7.0041638479
 30
0.0
 10
11.7895060861
 20
6.9752301647
 30
0.0
  0
SPLINE
  5
597
100
AcDbEntity
  8
AXIS
100
AcDbSpline
 62
7
  6
CONTINUOUS
 70
0
 71
3
 72
15
 73
11
 74
0
 42
0.0000001
 43
0.0000001
 44
0.0000000001
 40
0.0
 40
0.0
 40
0.0
 40
0.0
 40
0.1519791195
 40
0.2929911623
 40
0.4234768423
 40
0.5448372502
 40
0.6595425567
 40
0.7710192775
 40
0.8832269768
 40
1.0
 40
1.0
 40
1.0
 40
1.0
 10
13.4041526435
 20
7.9074412247
 30
0.0
 10
13.4392101588
 20
7.8872012167
 30
0.0
 10
13.5047021817
 20
7.8443317658
 30
0.0
 10
13.5902659858
 20
7.7702545509
 30
0.0
 10
13.6580583895
 20
7.6898861659
 30
0.0
 10
13.7066714603
 20
7.6044897238
 30
0.0
 10
13.7348817742
 20
7.5155243981
 30
0.0
 10
13.7417601556
 20
7.424804778
 30
0.0
 10
13.7270631328
 20
7.3345165696
 30
0.0
 10
13.7038671748
 20
7.2775255081
 30
0.0
 10
13.6894004193
 20
7.2499913651
 30
0.0
  0
SPLINE
  5
598
100
AcDbEntity
  8
AXIS
100
AcDbSpline
 62
7
  6
CONTINUOUS
 70
0
 71
3
 72
9
 73
5
 74
0
 42
0.0000001
 43
0.0000001
 44
0.0000000001
 40
0.0
 40
0.0
 40
0.0
 40
0.0
 40
0.2449884196
 40
1.0
 40
1.0
 40
1.0
 40
1.0
 10
13.686442523
 20
7.244449619
 30
0.0
 10
13.6834325745
 20
7.2388972968
 30
0.0
 10
13.6707062651
 20
7.2164738865
 30
0.0
 10
13.6562697178
 20
7.1950312124
 30
0.0
 10
13.6445928547
 20
7.1794590009
 30
0.0
  0
SPLINE
  5
599
100
AcDbEntity
  8
AXIS
100
AcDbSpline
 62
7
  6
CONTINUOUS
 70
0
 71
3
 72
19
 73
15
 74
0
 42
0.0000001
 43
0.0000001
 44
0.0000000001
 40
0.0
 40
0.0
 40
0.0
 40
0.0
 40
0.100706406
 40
0.1563233981
 40
0.2152336075
 40
0.2771363707
 40
0.3416159218
 40
0.476133701
 40
0.6141802399
 40
0.7506299347
 40
0.8167343429
 40
0.8806389529
 40
0.9418568173
 40
1.0
 40
1.0
 40
1.0
 40
1.0
 10
13.6209184623
 20
7.1499102667
 30
0.0
 10
13.5782741072
 20
7.0999592267
 30
0.0
 10
13.4997840264
 20
7.0326028474
 30
0.0
 10
13.3798667857
 20
6.9595094497
 30
0.0
 10
13.2759803308
 20
6.9095518049
 30
0.0
 10
13.1627089082
 20
6.86705385
 30
0.0
 10
12.9989073558
 20
6.8204219147
 30
0.0
 10
12.7811621707
 20
6.7846756494
 30
0.0
 10
12.5137493031
 20
6.7778379059
 30
0.0
 10
12.292150235
 20
6.8022515034
 30
0.0
 10
12.1223977515
 20
6.8400778129
 30
0.0
 10
12.0029881876
 20
6.8765445778
 30
0.0
 10
11.8918440963
 20
6.9208795882
 30
0.0
 10
11.8223456298
 20
6.9562706742
 30
0.0
 10
11.7895060861
 20
6.9752301647
 30
0.0
  0
SPLINE
  5
59A
100
AcDbEntity
  8
0
100
AcDbSpline
 62
7
  6
CONTINUOUS
 70
0
 71
3
 72
25
 73
21
 74
0
 42
0.0000001
 43
0.0000001
 44
0.0000000001
 40
0.0
 40
0.0
 40
0.0
 40
0.0
 40
0.062312142
 40
0.1285624005
 40
0.1980595803
 40
0.2699390096
 40
0.3432265447
 40
0.4168842395
 40
0.4898583649
 40
0.5611249602
 40
0.6297372448
 40
0.6948766524
 40
0.7559107438
 40
0.8124617585
 40
0.8644888236
 40
0.9123801895
 40
0.9350693342
 40
0.9571050407
 40
0.9786775398
 40
1.0
 40
1.0
 40
1.0
 40
1.0
 10
11.6224736836
 20
6.82253945
 30
0.0
 10
11.6718146091
 20
6.7940530978
 30
0.0
 10
11.7775281186
 20
6.7419018398
 30
0.0
 10
11.9480380353
 20
6.6800209322
 30
0.0
 10
12.1322841967
 20
6.6330923452
 30
0.0
 10
12.3263552086
 20
6.6021172777
 30
0.0
 10
12.5261583086
 20
6.5877399018
 30
0.0
 10
12.7274588944
 20
6.5902670014
 30
0.0
 10
12.925990916
 20
6.6096441092
 30
0.0
 10
13.1175509366
 20
6.6454621664
 30
0.0
 10
13.2980948754
 20
6.696968594
 30
0.0
 10
13.4638301862
 20
6.7630968474
 30
0.0
 10
13.6112945369
 20
6.8424997871
 30
0.0
 10
13.7374250629
 20
6.9336394048
 30
0.0
 10
13.8395377935
 20
7.0347581748
 30
0.0
 10
13.9038508601
 20
7.1276090387
 30
0.0
 10
13.9400281236
 20
7.204352125
 30
0.0
 10
13.9594341154
 20
7.2619350233
 30
0.0
 10
13.9714440329
 20
7.3202227568
 30
0.0
 10
13.9744808736
 20
7.3594501678
 30
0.0
 10
13.9747406479
 20
7.3789441371
 30
0.0
  0
LINE
  5
59B
100
AcDbEntity
  8
0
100
AcDbLine
 62
7
  6
CONTINUOUS
 10
11.2188773023
 20
7.3850806069
 11
11.2188821585
 21
7.3829839311
  0
SPLINE
  5
59C
100
AcDbEntity
  8
0
100
AcDbSpline
 62
7
  6
CONTINUOUS
 70
0
 71
3
 72
14
 73
10
 74
0
 42
0.0000001
 43
0.0000001
 44
0.0000000001
 40
0.0
 40
0.0
 40
0.0
 40
0.0
 40
0.1080224736
 40
0.2181207629
 40
0.3321278802
 40
0.4515599214
 40
0.5775441637
 40
0.7108027377
 40
1.0
 40
1.0
 40
1.0
 40
1.0
 10
11.2188821585
 20
7.3829839311
 30
0.0
 10
11.2190017313
 20
7.3569786783
 30
0.0
 10
11.2237421125
 20
7.3043842869
 30
0.0
 10
11.2441840368
 20
7.2267351469
 30
0.0
 10
11.277684025
 20
7.1507671998
 30
0.0
 10
11.3238228953
 20
7.0772462883
 30
0.0
 10
11.3820942658
 20
7.0068259246
 30
0.0
 10
11.477723244
 20
6.9154657459
 30
0.0
 10
11.5621790281
 20
6.857349798
 30
0.0
 10
11.6224736836
 20
6.82253945
 30
0.0
  0
SPLINE
  5
59D
100
AcDbEntity
  8
0
100
AcDbSpline
 62
7
  6
CONTINUOUS
 70
0
 71
3
 72
16
 73
12
 74
0
 42
0.0000001
 43
0.0000001
 44
0.0000000001
 40
0.0
 40
0.0
 40
0.0
 40
0.0
 40
0.1158499825
 40
0.2413423945
 40
0.3733996323
 40
0.5082783424
 40
0.6419761766
 40
0.7705984361
 40
0.8319536827
 40
0.8908285899
 40
1.0
 40
1.0
 40
1.0
 40
1.0
 10
13.5224672619
 20
7.9757497937
 30
0.0
 10
13.4538574203
 20
8.0153608081
 30
0.0
 10
13.3029248023
 20
8.0843490719
 30
0.0
 10
13.0567300476
 20
8.1548668665
 30
0.0
 10
12.790559366
 20
8.1944142038
 30
0.0
 10
12.5160009393
 20
8.2012413245
 30
0.0
 10
12.2449760734
 20
8.175069787
 30
0.0
 10
12.0284093365
 20
8.1259377225
 30
0.0
 10
11.8673164981
 20
8.0705684996
 30
0.0
 10
11.7232587127
 20
8.0082951009
 30
0.0
 10
11.6233499323
 20
7.949756697
 30
0.0
 10
11.5634106398
 20
7.905250073
 30
0.0
  0
SPLINE
  5
59E
100
AcDbEntity
  8
0
100
AcDbSpline
 62
7
  6
CONTINUOUS
 70
0
 71
3
 72
16
 73
12
 74
0
 42
0.0000001
 43
0.0000001
 44
0.0000000001
 40
0.0
 40
0.0
 40
0.0
 40
0.0
 40
0.1459306885
 40
0.2148958196
 40
0.2813128272
 40
0.4071845616
 40
0.5259420297
 40
0.6408207859
 40
0.7556588996
 40
0.8743008506
 40
1.0
 40
1.0
 40
1.0
 40
1.0
 10
11.5634106398
 20
7.905250073
 30
0.0
 10
11.5293904814
 20
7.879989141
 30
0.0
 10
11.481496742
 20
7.8395671448
 30
0.0
 10
11.4254963806
 20
7.7799997761
 30
0.0
 10
11.3781699081
 20
7.7206280092
 30
0.0
 10
11.3311660578
 20
7.6428423661
 30
0.0
 10
11.2959341269
 20
7.543745165
 30
0.0
 10
11.2838830178
 20
7.4423840642
 30
0.0
 10
11.2954508982
 20
7.3409943741
 30
0.0
 10
11.3302056382
 20
7.2418453351
 30
0.0
 10
11.366914765
 20
7.1805563844
 30
0.0
 10
11.3882584573
 20
7.1509489927
 30
0.0
  0
LINE
  5
59F
100
AcDbEntity
  8
0
100
AcDbLine
 62
7
  6
CONTINUOUS
 10
11.3882584573
 20
7.1509489927
 11
11.3895225059
 21
7.1492017147
  0
SPLINE
  5
5A0
100
AcDbEntity
  8
0
100
AcDbSpline
 62
7
  6
CONTINUOUS
 70
0
 71
3
 72
10
 73
6
 74
0
 42
0.0000001
 43
0.0000001
 44
0.0000000001
 40
0.0
 40
0.0
 40
0.0
 40
0.0
 40
0.4722036765
 40
0.7291885029
 40
1.0
 40
1.0
 40
1.0
 40
1.0
 10
11.3895225059
 20
7.1492017147
 30
0.0
 10
11.4240849466
 20
7.1015943545
 30
0.0
 10
11.4876195979
 20
7.0351721769
 30
0.0
 10
11.5863156992
 20
6.9590398289
 30
0.0
 10
11.6419719483
 20
6.9237911113
 30
0.0
 10
11.6711914677
 20
6.9069215956
 30
0.0
  0
SPLINE
  5
5A1
100
AcDbEntity
  8
0
100
AcDbSpline
 62
7
  6
CONTINUOUS
 70
0
 71
3
 72
15
 73
11
 74
0
 42
0.0000001
 43
0.0000001
 44
0.0000000001
 40
0.0
 40
0.0
 40
0.0
 40
0.0
 40
0.1133222893
 40
0.2352916164
 40
0.3636627153
 40
0.4956646131
 40
0.62826303
 40
0.7583811994
 40
0.8831213495
 40
1.0
 40
1.0
 40
1.0
 40
1.0
 10
11.6711914677
 20
6.9069215956
 30
0.0
 10
11.7315333503
 20
6.8720839816
 30
0.0
 10
11.8630062334
 20
6.8102050874
 30
0.0
 10
12.0768356473
 20
6.7429998507
 30
0.0
 10
12.3084265284
 20
6.6996581513
 30
0.0
 10
12.5498479876
 20
6.6816849042
 30
0.0
 10
12.7928749818
 20
6.6896717345
 30
0.0
 10
13.0292204254
 20
6.7233631961
 30
0.0
 10
13.2507726553
 20
6.7815852677
 30
0.0
 10
13.3889726208
 20
6.8376447775
 30
0.0
 10
13.4532634689
 20
6.869753719
 30
0.0
  0
LINE
  5
5A2
100
AcDbEntity
  8
0
100
AcDbLine
 62
7
  6
CONTINUOUS
 10
13.4571430206
 20
6.8716990027
 11
13.4585795029
 21
6.8724232136
  0
SPLINE
  5
5A3
100
AcDbEntity
  8
0
100
AcDbSpline
 62
7
  6
CONTINUOUS
 70
0
 71
3
 72
9
 73
5
 74
0
 42
0.0000001
 43
0.0000001
 44
0.0000000001
 40
0.0
 40
0.0
 40
0.0
 40
0.0
 40
0.2570060969
 40
1.0
 40
1.0
 40
1.0
 40
1.0
 10
13.4585795029
 20
6.8724232136
 30
0.0
 10
13.470632325
 20
6.8785086664
 30
0.0
 10
13.5171712398
 20
6.9028843188
 30
0.0
 10
13.5622413412
 20
6.9301049075
 30
0.0
 10
13.594523921
 20
6.9520471045
 30
0.0
  0
SPLINE
  5
5A4
100
AcDbEntity
  8
0
100
AcDbSpline
 62
7
  6
CONTINUOUS
 70
0
 71
3
 72
9
 73
5
 74
0
 42
0.0000001
 43
0.0000001
 44
0.0000000001
 40
0.0
 40
0.0
 40
0.0
 40
0.0
 40
0.2677143834
 40
1.0
 40
1.0
 40
1.0
 40
1.0
 10
13.594523921
 20
6.9520471045
 30
0.0
 10
13.6164344532
 20
6.9669395083
 30
0.0
 10
13.6961632038
 20
7.0254695488
 30
0.0
 10
13.767240602
 20
7.0968493343
 30
0.0
 10
13.8090366582
 20
7.15604704
 30
0.0
  0
SPLINE
  5
5A5
100
AcDbEntity
  8
0
100
AcDbSpline
 62
7
  6
CONTINUOUS
 70
0
 71
3
 72
15
 73
11
 74
0
 42
0.0000001
 43
0.0000001
 44
0.0000000001
 40
0.0
 40
0.0
 40
0.0
 40
0.0
 40
0.1261358938
 40
0.2456005078
 40
0.3613936292
 40
0.4770372563
 40
0.5960757008
 40
0.7215668477
 40
0.855760296
 40
1.0
 40
1.0
 40
1.0
 40
1.0
 10
13.8112061842
 20
7.1591393357
 30
0.0
 10
13.8310312869
 20
7.1875767894
 30
0.0
 10
13.8651727212
 20
7.246307383
 30
0.0
 10
13.8978080359
 20
7.3408223959
 30
0.0
 10
13.9093996679
 20
7.4373413877
 30
0.0
 10
13.8995722578
 20
7.5339351057
 30
0.0
 10
13.8686353136
 20
7.6286992112
 30
0.0
 10
13.8174049489
 20
7.7199817127
 30
0.0
 10
13.7469929542
 20
7.8063971114
 30
0.0
 10
13.6901720655
 20
7.8580748362
 30
0.0
 10
13.6592480764
 20
7.8828769188
 30
0.0
  0
SPLINE
  5
5A6
100
AcDbEntity
  8
0
100
AcDbSpline
 62
7
  6
CONTINUOUS
 70
0
 71
3
 72
9
 73
5
 74
0
 42
0.0000001
 43
0.0000001
 44
0.0000000001
 40
0.0
 40
0.0
 40
0.0
 40
0.0
 40
0.2447459092
 40
1.0
 40
1.0
 40
1.0
 40
1.0
 10
13.6592480764
 20
7.8828769188
 30
0.0
 10
13.6526540202
 20
7.8881655744
 30
0.0
 10
13.6254242614
 20
7.9094147577
 30
0.0
 10
13.5970915599
 20
7.9292415039
 30
0.0
 10
13.5752163525
 20
7.9434499009
 30
0.0
  0
SPLINE
  5
5A7
100
AcDbEntity
  8
0
100
AcDbSpline
 62
7
  6
CONTINUOUS
 70
0
 71
3
 72
9
 73
5
 74
0
 42
0.0000001
 43
0.0000001
 44
0.0000000001
 40
0.0
 40
0.0
 40
0.0
 40
0.0
 40
0.2405220377
 40
1.0
 40
1.0
 40
1.0
 40
1.0
 10
13.808220456
 20
6.415414694
 30
0.0
 10
13.7971699677
 20
6.4042586904
 30
0.0
 10
13.7499498791
 20
6.3591455333
 30
0.0
 10
13.6980203702
 20
6.3190682284
 30
0.0
 10
13.6569338746
 20
6.2913131584
 30
0.0
  0
SPLINE
  5
5A8
100
AcDbEntity
  8
0
100
AcDbSpline
 62
7
  6
CONTINUOUS
 70
0
 71
3
 72
9
 73
5
 74
0
 42
0.0000001
 43
0.0000001
 44
0.0000000001
 40
0.0
 40
0.0
 40
0.0
 40
0.0
 40
0.2301555252
 40
1.0
 40
1.0
 40
1.0
 40
1.0
 10
13.3078931026
 20
6.1175419289
 30
0.0
 10
13.308060155
 20
6.1174446934
 30
0.0
 10
13.3088472866
 20
6.1171236699
 30
0.0
 10
13.3097527449
 20
6.1172348011
 30
0.0
 10
13.3103643451
 20
6.1174444504
 30
0.0
  0
SPLINE
  5
5A9
100
AcDbEntity
  8
0
100
AcDbSpline
 62
7
  6
CONTINUOUS
 70
0
 71
3
 72
9
 73
5
 74
0
 42
0.0000001
 43
0.0000001
 44
0.0000000001
 40
0.0
 40
0.0
 40
0.0
 40
0.0
 40
0.224756086
 40
1.0
 40
1.0
 40
1.0
 40
1.0
 10
13.4789721503
 20
6.1863386646
 30
0.0
 10
13.4791163775
 20
6.186255412
 30
0.0
 10
13.4798204203
 20
6.1859864857
 30
0.0
 10
13.4806215995
 20
6.186173487
 30
0.0
 10
13.4811411077
 20
6.186418552
 30
0.0
  0
SPLINE
  5
5AA
100
AcDbEntity
  8
0
100
AcDbSpline
 62
7
  6
CONTINUOUS
 70
0
 71
3
 72
9
 73
5
 74
0
 42
0.0000001
 43
0.0000001
 44
0.0000000001
 40
0.0
 40
0.0
 40
0.0
 40
0.0
 40
0.2223697962
 40
1.0
 40
1.0
 40
1.0
 40
1.0
 10
13.5504957828
 20
6.2223380041
 30
0.0
 10
13.5506303738
 20
6.2222603039
 30
0.0
 10
13.5512994063
 20
6.2220130238
 30
0.0
 10
13.5520524077
 20
6.2222368306
 30
0.0
 10
13.5525303999
 20
6.2224954456
 30
0.0
  0
SPLINE
  5
5AB
100
AcDbEntity
  8
0
100
AcDbSpline
 62
7
  6
CONTINUOUS
 70
0
 71
3
 72
9
 73
5
 74
0
 42
0.0000001
 43
0.0000001
 44
0.0000000001
 40
0.0
 40
0.0
 40
0.0
 40
0.0
 40
0.2301167808
 40
1.0
 40
1.0
 40
1.0
 40
1.0
 10
13.4910964902
 20
6.2034807384
 30
0.0
 10
13.4909563773
 20
6.2035616244
 30
0.0
 10
13.4903987647
 20
6.2040117638
 30
0.0
 10
13.4902065506
 20
6.2047854518
 30
0.0
 10
13.4902065506
 20
6.2053267206
 30
0.0
  0
SPLINE
  5
5AC
100
AcDbEntity
  8
0
100
AcDbSpline
 62
7
  6
CONTINUOUS
 70
0
 71
3
 72
9
 73
5
 74
0
 42
0.0000001
 43
0.0000001
 44
0.0000000001
 40
0.0
 40
0.0
 40
0.0
 40
0.0
 40
0.500985507
 40
1.0
 40
1.0
 40
1.0
 40
1.0
 10
13.3300425092
 20
4.703962211
 30
0.0
 10
13.3318378036
 20
4.7022756915
 30
0.0
 10
13.3349018872
 20
4.6982655433
 30
0.0
 10
13.3360599761
 20
4.6932915181
 30
0.0
 10
13.3360599761
 20
4.6908379936
 30
0.0
  0
SPLINE
  5
5AD
100
AcDbEntity
  8
0
100
AcDbSpline
 62
7
  6
CONTINUOUS
 70
0
 71
3
 72
11
 73
7
 74
0
 42
0.0000001
 43
0.0000001
 44
0.0000000001
 40
0.0
 40
0.0
 40
0.0
 40
0.0
 40
0.2560120678
 40
0.506847667
 40
0.7542107163
 40
1.0
 40
1.0
 40
1.0
 40
1.0
 10
13.8832237909
 20
6.0580440319
 30
0.0
 10
13.897840901
 20
6.0344868736
 30
0.0
 10
13.9240017419
 20
5.9860383312
 30
0.0
 10
13.9530297802
 20
5.9094303742
 30
0.0
 10
13.9707984081
 20
5.8305722598
 30
0.0
 10
13.9747821207
 20
5.7770850849
 30
0.0
 10
13.9747821207
 20
5.7504684844
 30
0.0
  0
SPLINE
  5
5AE
100
AcDbEntity
  8
0
100
AcDbSpline
 62
7
  6
CONTINUOUS
 70
0
 71
3
 72
11
 73
7
 74
0
 42
0.0000001
 43
0.0000001
 44
0.0000000001
 40
0.0
 40
0.0
 40
0.0
 40
0.0
 40
0.2437216312
 40
0.4898100734
 40
0.7411179358
 40
1.0
 40
1.0
 40
1.0
 40
1.0
 10
11.2188766089
 20
5.7504684844
 30
0.0
 10
11.2188766089
 20
5.7830172438
 30
0.0
 10
11.2248643894
 20
5.8485820403
 30
0.0
 10
11.2514189424
 20
5.9444266248
 30
0.0
 10
11.2944457468
 20
6.0362782232
 30
0.0
 10
11.3326514457
 20
6.0930337355
 30
0.0
 10
11.3538510349
 20
6.1203448816
 30
0.0
  0
SPLINE
  5
5AF
100
AcDbEntity
  8
0
100
AcDbSpline
 62
7
  6
CONTINUOUS
 70
0
 71
3
 72
9
 73
5
 74
0
 42
0.0000001
 43
0.0000001
 44
0.0000000001
 40
0.0
 40
0.0
 40
0.0
 40
0.0
 40
0.245637619
 40
1.0
 40
1.0
 40
1.0
 40
1.0
 10
13.3844381326
 20
6.1558253602
 30
0.0
 10
13.3850563129
 20
6.1554682029
 30
0.0
 10
13.3876382185
 20
6.1541276527
 30
0.0
 10
13.390449795
 20
6.153251276
 30
0.0
 10
13.3926001286
 20
6.1528231842
 30
0.0
  0
SPLINE
  5
5B0
100
AcDbEntity
  8
0
100
AcDbSpline
 62
7
  6
CONTINUOUS
 70
0
 71
3
 72
9
 73
5
 74
0
 42
0.0000001
 43
0.0000001
 44
0.0000000001
 40
0.0
 40
0.0
 40
0.0
 40
0.0
 40
0.5046871677
 40
1.0
 40
1.0
 40
1.0
 40
1.0
 10
13.4572725705
 20
6.2493477664
 30
0.0
 10
13.4562899872
 20
6.2509610273
 30
0.0
 10
13.4539967467
 20
6.253968861
 30
0.0
 10
13.4509933239
 20
6.2562876574
 30
0.0
 10
13.4493881178
 20
6.257215059
 30
0.0
  0
SPLINE
  5
5B1
100
AcDbEntity
  8
0
100
AcDbSpline
 62
7
  6
CONTINUOUS
 70
0
 71
3
 72
9
 73
5
 74
0
 42
0.0000001
 43
0.0000001
 44
0.0000000001
 40
0.0
 40
0.0
 40
0.0
 40
0.0
 40
0.2704711144
 40
1.0
 40
1.0
 40
1.0
 40
1.0
 10
13.4627611832
 20
6.22598358
 30
0.0
 10
13.4627611832
 20
6.2281608397
 30
0.0
 10
13.4624248122
 20
6.2361786974
 30
0.0
 10
13.4603273783
 20
6.24433221
 30
0.0
 10
13.4572725705
 20
6.2493477664
 30
0.0
  0
SPLINE
  5
5B2
100
AcDbEntity
  8
0
100
AcDbSpline
 62
7
  6
CONTINUOUS
 70
0
 71
3
 72
9
 73
5
 74
0
 42
0.0000001
 43
0.0000001
 44
0.0000000001
 40
0.0
 40
0.0
 40
0.0
 40
0.0
 40
0.5207424947
 40
1.0
 40
1.0
 40
1.0
 40
1.0
 10
13.4570296322
 20
6.1971315843
 30
0.0
 10
13.4589585925
 20
6.2018853224
 30
0.0
 10
13.4618236274
 20
6.2113876152
 30
0.0
 10
13.4627611832
 20
6.2212620812
 30
0.0
 10
13.4627611832
 20
6.22598358
 30
0.0
  0
SPLINE
  5
5B3
100
AcDbEntity
  8
0
100
AcDbSpline
 62
7
  6
CONTINUOUS
 70
0
 71
3
 72
9
 73
5
 74
0
 42
0.0000001
 43
0.0000001
 44
0.0000000001
 40
0.0
 40
0.0
 40
0.0
 40
0.0
 40
0.2537273789
 40
1.0
 40
1.0
 40
1.0
 40
1.0
 10
13.4489015919
 20
6.1821210682
 30
0.0
 10
13.4497312754
 20
6.18330473
 30
0.0
 10
13.4528624088
 20
6.1880663701
 30
0.0
 10
13.4554310558
 20
6.1931920458
 30
0.0
 10
13.4570296322
 20
6.1971315843
 30
0.0
  0
SPLINE
  5
5B4
100
AcDbEntity
  8
0
100
AcDbSpline
 62
7
  6
CONTINUOUS
 70
0
 71
3
 72
9
 73
5
 74
0
 42
0.0000001
 43
0.0000001
 44
0.0000000001
 40
0.0
 40
0.0
 40
0.0
 40
0.0
 40
0.2435310429
 40
1.0
 40
1.0
 40
1.0
 40
1.0
 10
13.4255915171
 20
6.160565013
 30
0.0
 10
13.4269225679
 20
6.1613536935
 30
0.0
 10
13.4322793883
 20
6.1647746946
 30
0.0
 10
13.4371783938
 20
6.1688944606
 30
0.0
 10
13.4405926539
 20
6.1722766641
 30
0.0
  0
SPLINE
  5
5B5
100
AcDbEntity
  8
0
100
AcDbSpline
 62
7
  6
CONTINUOUS
 70
0
 71
3
 72
9
 73
5
 74
0
 42
0.0000001
 43
0.0000001
 44
0.0000000001
 40
0.0
 40
0.0
 40
0.0
 40
0.0
 40
0.4732619121
 40
1.0
 40
1.0
 40
1.0
 40
1.0
 10
13.3926001286
 20
6.1528231842
 30
0.0
 10
13.3965032035
 20
6.1520461538
 30
0.0
 10
13.4051139246
 20
6.1521173141
 30
0.0
 10
13.4132099151
 20
6.1546779445
 30
0.0
 10
13.4172956657
 20
6.1563884417
 30
0.0
  0
SPLINE
  5
5B6
100
AcDbEntity
  8
0
100
AcDbSpline
 62
7
  6
CONTINUOUS
 70
0
 71
3
 72
9
 73
5
 74
0
 42
0.0000001
 43
0.0000001
 44
0.0000000001
 40
0.0
 40
0.0
 40
0.0
 40
0.0
 40
0.2359492676
 40
1.0
 40
1.0
 40
1.0
 40
1.0
 10
13.3837765993
 20
6.1912000056
 30
0.0
 10
13.3837765993
 20
6.1934188794
 30
0.0
 10
13.3840988465
 20
6.2028013603
 30
0.0
 10
13.3861534446
 20
6.2122831373
 30
0.0
 10
13.3892594762
 20
6.2187622593
 30
0.0
  0
SPLINE
  5
5B7
100
AcDbEntity
  8
0
100
AcDbSpline
 62
7
  6
CONTINUOUS
 70
0
 71
3
 72
9
 73
5
 74
0
 42
0.0000001
 43
0.0000001
 44
0.0000000001
 40
0.0
 40
0.0
 40
0.0
 40
0.0
 40
0.2468931668
 40
1.0
 40
1.0
 40
1.0
 40
1.0
 10
13.3892594762
 20
6.2187622593
 30
0.0
 10
13.3895696781
 20
6.2194093346
 30
0.0
 10
13.3908872543
 20
6.2220001985
 30
0.0
 10
13.3924524732
 20
6.2244671568
 30
0.0
 10
13.3937682673
 20
6.2262164107
 30
0.0
  0
SPLINE
  5
5B8
100
AcDbEntity
  8
0
100
AcDbSpline
 62
7
  6
CONTINUOUS
 70
0
 71
3
 72
11
 73
7
 74
0
 42
0.0000001
 43
0.0000001
 44
0.0000000001
 40
0.0
 40
0.0
 40
0.0
 40
0.0
 40
0.2304611346
 40
0.4704563716
 40
0.7272047876
 40
1.0
 40
1.0
 40
1.0
 40
1.0
 10
13.393364669
 20
6.1675082169
 30
0.0
 10
13.3916507431
 20
6.1686212581
 30
0.0
 10
13.3885373849
 20
6.1715529137
 30
0.0
 10
13.3855585216
 20
6.1773764746
 30
0.0
 10
13.3840360104
 20
6.1840760002
 30
0.0
 10
13.3837765993
 20
6.1887809813
 30
0.0
 10
13.3837765993
 20
6.1912000056
 30
0.0
  0
SPLINE
  5
5B9
100
AcDbEntity
  8
0
100
AcDbSpline
 62
7
  6
CONTINUOUS
 70
0
 71
3
 72
9
 73
5
 74
0
 42
0.0000001
 43
0.0000001
 44
0.0000000001
 40
0.0
 40
0.0
 40
0.0
 40
0.0
 40
0.2561497556
 40
1.0
 40
1.0
 40
1.0
 40
1.0
 10
13.4345481159
 20
6.2476669467
 30
0.0
 10
13.4350083511
 20
6.2475739923
 30
0.0
 10
13.4367909155
 20
6.2471466029
 30
0.0
 10
13.4385114913
 20
6.2464428576
 30
0.0
 10
13.4396921417
 20
6.2457608146
 30
0.0
  0
SPLINE
  5
5BA
100
AcDbEntity
  8
0
100
AcDbSpline
 62
7
  6
CONTINUOUS
 70
0
 71
3
 72
9
 73
5
 74
0
 42
0.0000001
 43
0.0000001
 44
0.0000000001
 40
0.0
 40
0.0
 40
0.0
 40
0.0
 40
0.5313693718
 40
1.0
 40
1.0
 40
1.0
 40
1.0
 10
13.4174277599
 20
6.2452502613
 30
0.0
 10
13.4202844768
 20
6.246446518
 30
0.0
 10
13.4259056145
 20
6.2482137434
 30
0.0
 10
13.4318707758
 20
6.2482076933
 30
0.0
 10
13.4345481159
 20
6.2476669467
 30
0.0
  0
SPLINE
  5
5BB
100
AcDbEntity
  8
0
100
AcDbSpline
 62
7
  6
CONTINUOUS
 70
0
 71
3
 72
9
 73
5
 74
0
 42
0.0000001
 43
0.0000001
 44
0.0000000001
 40
0.0
 40
0.0
 40
0.0
 40
0.0
 40
0.5168941242
 40
1.0
 40
1.0
 40
1.0
 40
1.0
 10
13.3937682673
 20
6.2262164107
 30
0.0
 10
13.3969417989
 20
6.2304353933
 30
0.0
 10
13.403994783
 20
6.2379870498
 30
0.0
 10
13.4128764788
 20
6.2433444018
 30
0.0
 10
13.4174277599
 20
6.2452502613
 30
0.0
  0
SPLINE
  5
5BC
100
AcDbEntity
  8
0
100
AcDbSpline
 62
7
  6
CONTINUOUS
 70
0
 71
3
 72
9
 73
5
 74
0
 42
0.0000001
 43
0.0000001
 44
0.0000000001
 40
0.0
 40
0.0
 40
0.0
 40
0.0
 40
0.2915324838
 40
1.0
 40
1.0
 40
1.0
 40
1.0
 10
13.5616737646
 20
6.2377580944
 30
0.0
 10
13.5616737646
 20
6.2379567337
 30
0.0
 10
13.5616254071
 20
6.2386295294
 30
0.0
 10
13.5612572461
 20
6.2393307576
 30
0.0
 10
13.5608391884
 20
6.2395721068
 30
0.0
  0
SPLINE
  5
5BD
100
AcDbEntity
  8
0
100
AcDbSpline
 62
7
  6
CONTINUOUS
 70
0
 71
3
 72
9
 73
5
 74
0
 42
0.0000001
 43
0.0000001
 44
0.0000000001
 40
0.0
 40
0.0
 40
0.0
 40
0.0
 40
0.501632279
 40
1.0
 40
1.0
 40
1.0
 40
1.0
 10
13.5588206883
 20
6.2259199299
 30
0.0
 10
13.5596615294
 20
6.2263805356
 30
0.0
 10
13.5610040468
 20
6.2278619506
 30
0.0
 10
13.5616737646
 20
6.2297493184
 30
0.0
 10
13.5616737646
 20
6.2307018133
 30
0.0
  0
SPLINE
  5
5BE
100
AcDbEntity
  8
0
100
AcDbSpline
 62
7
  6
CONTINUOUS
 70
0
 71
3
 72
9
 73
5
 74
0
 42
0.0000001
 43
0.0000001
 44
0.0000000001
 40
0.0
 40
0.0
 40
0.0
 40
0.0
 40
0.2850730802
 40
1.0
 40
1.0
 40
1.0
 40
1.0
 10
13.4902065506
 20
6.2839544707
 30
0.0
 10
13.4902065506
 20
6.2841540667
 30
0.0
 10
13.4901524566
 20
6.2848477831
 30
0.0
 10
13.4897494453
 20
6.2855505919
 30
0.0
 10
13.4893159271
 20
6.2858008388
 30
0.0
  0
SPLINE
  5
5BF
100
AcDbEntity
  8
0
100
AcDbSpline
 62
7
  6
CONTINUOUS
 70
0
 71
3
 72
9
 73
5
 74
0
 42
0.0000001
 43
0.0000001
 44
0.0000000001
 40
0.0
 40
0.0
 40
0.0
 40
0.0
 40
0.2889544495
 40
1.0
 40
1.0
 40
1.0
 40
1.0
 10
13.5342663299
 20
6.22095403
 30
0.0
 10
13.5342663299
 20
6.2211530238
 30
0.0
 10
13.5342158287
 20
6.2218339767
 30
0.0
 10
13.5338339836
 20
6.2225358372
 30
0.0
 10
13.5334099028
 20
6.2227806566
 30
0.0
  0
SPLINE
  5
5C0
100
AcDbEntity
  8
0
100
AcDbSpline
 62
7
  6
CONTINUOUS
 70
0
 71
3
 72
9
 73
5
 74
0
 42
0.0000001
 43
0.0000001
 44
0.0000000001
 40
0.0
 40
0.0
 40
0.0
 40
0.0
 40
0.5033246267
 40
1.0
 40
1.0
 40
1.0
 40
1.0
 10
13.5313386221
 20
6.2112639967
 30
0.0
 10
13.5321939377
 20
6.2117080288
 30
0.0
 10
13.533574685
 20
6.2131611163
 30
0.0
 10
13.5342663299
 20
6.2150518178
 30
0.0
 10
13.5342663299
 20
6.2160027926
 30
0.0
  0
SPLINE
  5
5C1
100
AcDbEntity
  8
0
100
AcDbSpline
 62
7
  6
CONTINUOUS
 70
0
 71
3
 72
9
 73
5
 74
0
 42
0.0000001
 43
0.0000001
 44
0.0000000001
 40
0.0
 40
0.0
 40
0.0
 40
0.0
 40
0.5491153627
 40
1.0
 40
1.0
 40
1.0
 40
1.0
 10
13.3604583966
 20
6.2275032789
 30
0.0
 10
13.3606707294
 20
6.2281005984
 30
0.0
 10
13.3608787532
 20
6.2293189786
 30
0.0
 10
13.3601538996
 20
6.2304037979
 30
0.0
 10
13.3597030284
 20
6.2306639309
 30
0.0
  0
SPLINE
  5
5C2
100
AcDbEntity
  8
0
100
AcDbSpline
 62
7
  6
CONTINUOUS
 70
0
 71
3
 72
9
 73
5
 74
0
 42
0.0000001
 43
0.0000001
 44
0.0000000001
 40
0.0
 40
0.0
 40
0.0
 40
0.0
 40
0.2438775214
 40
1.0
 40
1.0
 40
1.0
 40
1.0
 10
13.3197826922
 20
6.1207019026
 30
0.0
 10
13.3201358929
 20
6.1208251524
 30
0.0
 10
13.3215134614
 20
6.1215101661
 30
0.0
 10
13.3226104938
 20
6.1227855271
 30
0.0
 10
13.3230104075
 20
6.1238742269
 30
0.0
  0
SPLINE
  5
5C3
100
AcDbEntity
  8
0
100
AcDbSpline
 62
7
  6
CONTINUOUS
 70
0
 71
3
 72
9
 73
5
 74
0
 42
0.0000001
 43
0.0000001
 44
0.0000000001
 40
0.0
 40
0.0
 40
0.0
 40
0.0
 40
0.5120302201
 40
1.0
 40
1.0
 40
1.0
 40
1.0
 10
11.3078764464
 20
6.4506120076
 30
0.0
 10
11.28933018
 20
6.4795639347
 30
0.0
 10
11.2574424475
 20
6.5390637303
 30
0.0
 10
11.2367264035
 20
6.6034172778
 30
0.0
 10
11.2298172365
 20
6.6354477337
 30
0.0
  0
SPLINE
  5
5C4
100
AcDbEntity
  8
0
100
AcDbSpline
 62
7
  6
CONTINUOUS
 70
0
 71
3
 72
11
 73
7
 74
0
 42
0.0000001
 43
0.0000001
 44
0.0000000001
 40
0.0
 40
0.0
 40
0.0
 40
0.0
 40
0.1919534087
 40
0.4187903003
 40
0.6911264733
 40
1.0
 40
1.0
 40
1.0
 40
1.0
 10
13.5857106133
 20
4.8182803795
 30
0.0
 10
13.5840788794
 20
4.8191867484
 30
0.0
 10
13.5798597569
 20
4.8200357234
 30
0.0
 10
13.5732490812
 20
4.818151933
 30
0.0
 10
13.5665846693
 20
4.8138495792
 30
0.0
 10
13.5625964022
 20
4.8097797319
 30
0.0
 10
13.5606967897
 20
4.8074532569
 30
0.0
  0
SPLINE
  5
5C5
100
AcDbEntity
  8
0
100
AcDbSpline
 62
7
  6
CONTINUOUS
 70
0
 71
3
 72
11
 73
7
 74
0
 42
0.0000001
 43
0.0000001
 44
0.0000000001
 40
0.0
 40
0.0
 40
0.0
 40
0.0
 40
0.2418009112
 40
0.5022461168
 40
0.7607842253
 40
1.0
 40
1.0
 40
1.0
 40
1.0
 10
11.3675484392
 20
6.2685986824
 30
0.0
 10
11.3669963271
 20
6.2809378449
 30
0.0
 10
11.3637250298
 20
6.3064786013
 30
0.0
 10
11.3545642459
 20
6.3442978845
 30
0.0
 10
11.3421827877
 20
6.3810395975
 30
0.0
 10
11.3322459828
 20
6.4044750791
 30
0.0
 10
11.3270079927
 20
6.4155149418
 30
0.0
  0
SPLINE
  5
5C6
100
AcDbEntity
  8
0
100
AcDbSpline
 62
7
  6
CONTINUOUS
 70
0
 71
3
 72
9
 73
5
 74
0
 42
0.0000001
 43
0.0000001
 44
0.0000000001
 40
0.0
 40
0.0
 40
0.0
 40
0.0
 40
0.274054537
 40
1.0
 40
1.0
 40
1.0
 40
1.0
 10
11.3270079927
 20
6.4155149418
 30
0.0
 10
11.3254421728
 20
6.4188151459
 30
0.0
 10
11.3195701702
 20
6.430779155
 30
0.0
 10
11.3130957825
 20
6.4424643963
 30
0.0
 10
11.3078764464
 20
6.4506120076
 30
0.0
  0
SPLINE
  5
5C7
100
AcDbEntity
  8
0
100
AcDbSpline
 62
7
  6
CONTINUOUS
 70
0
 71
3
 72
15
 73
11
 74
0
 42
0.0000001
 43
0.0000001
 44
0.0000000001
 40
0.0
 40
0.0
 40
0.0
 40
0.0
 40
0.1619364261
 40
0.2980340649
 40
0.4103749962
 40
0.5060362032
 40
0.5986320208
 40
0.7047877795
 40
0.8367318886
 40
1.0
 40
1.0
 40
1.0
 40
1.0
 10
11.299604094
 20
5.4821687641
 30
0.0
 10
11.3024536151
 20
5.4775771157
 30
0.0
 10
11.3081880496
 20
5.4694038969
 30
0.0
 10
11.3178739601
 20
5.4596017221
 30
0.0
 10
11.3278064971
 20
5.4535200392
 30
0.0
 10
11.3380158021
 20
5.4516824075
 30
0.0
 10
11.3477027392
 20
5.4549883216
 30
0.0
 10
11.3556555448
 20
5.4630401579
 30
0.0
 10
11.3617489753
 20
5.4751136602
 30
0.0
 10
11.3642623692
 20
5.484702431
 30
0.0
 10
11.3652792478
 20
5.4900551163
 30
0.0
  0
SPLINE
  5
5C8
100
AcDbEntity
  8
0
100
AcDbSpline
 62
7
  6
CONTINUOUS
 70
0
 71
3
 72
9
 73
5
 74
0
 42
0.0000001
 43
0.0000001
 44
0.0000000001
 40
0.0
 40
0.0
 40
0.0
 40
0.0
 40
0.4611508794
 40
1.0
 40
1.0
 40
1.0
 40
1.0
 10
13.631024777
 20
6.2926119778
 30
0.0
 10
13.6296953967
 20
6.2933787124
 30
0.0
 10
13.6272728713
 20
6.2958777589
 30
0.0
 10
13.6261511851
 20
6.2990914831
 30
0.0
 10
13.6257773119
 20
6.3008452883
 30
0.0
  0
SPLINE
  5
5C9
100
AcDbEntity
  8
0
100
AcDbSpline
 62
7
  6
CONTINUOUS
 70
0
 71
3
 72
13
 73
9
 74
0
 42
0.0000001
 43
0.0000001
 44
0.0000000001
 40
0.0
 40
0.0
 40
0.0
 40
0.0
 40
0.0946312327
 40
0.1945043049
 40
0.3047550827
 40
0.4273684054
 40
0.7038595266
 40
1.0
 40
1.0
 40
1.0
 40
1.0
 10
13.4695949238
 20
4.667750581
 30
0.0
 10
13.4683558609
 20
4.6684642713
 30
0.0
 10
13.4660646687
 20
4.6704262408
 30
0.0
 10
13.4637928989
 20
4.6745224781
 30
0.0
 10
13.4627321028
 20
4.6794984944
 30
0.0
 10
13.4629461617
 20
4.687247612
 30
0.0
 10
13.466326146
 20
4.6974187882
 30
0.0
 10
13.471308068
 20
4.7046382082
 30
0.0
 10
13.4743399153
 20
4.7079293276
 30
0.0
  0
SPLINE
  5
5CA
100
AcDbEntity
  8
0
100
AcDbSpline
 62
7
  6
CONTINUOUS
 70
0
 71
3
 72
14
 73
10
 74
0
 42
0.0000001
 43
0.0000001
 44
0.0000000001
 40
0.0
 40
0.0
 40
0.0
 40
0.0
 40
0.071519871
 40
0.1519471514
 40
0.2473141194
 40
0.3606816027
 40
0.4931757211
 40
0.6447338727
 40
1.0
 40
1.0
 40
1.0
 40
1.0
 10
12.1277596471
 20
5.9357875687
 30
0.0
 10
12.1264061239
 20
5.9360648538
 30
0.0
 10
12.1236332523
 20
5.9372586148
 30
0.0
 10
12.120123054
 20
5.9405983271
 30
0.0
 10
12.1171136131
 20
5.9453493373
 30
0.0
 10
12.1145840759
 20
5.9514610455
 30
0.0
 10
12.1125413508
 20
5.9588767882
 30
0.0
 10
12.1103859739
 20
5.9710501817
 30
0.0
 10
12.1097745847
 20
5.9808563257
 30
0.0
 10
12.1096500201
 20
5.987718291
 30
0.0
  0
SPLINE
  5
5CB
100
AcDbEntity
  8
0
100
AcDbSpline
 62
7
  6
CONTINUOUS
 70
0
 71
3
 72
9
 73
5
 74
0
 42
0.0000001
 43
0.0000001
 44
0.0000000001
 40
0.0
 40
0.0
 40
0.0
 40
0.0
 40
0.2535097848
 40
1.0
 40
1.0
 40
1.0
 40
1.0
 10
13.3616889889
 20
6.1724231687
 30
0.0
 10
13.3622302292
 20
6.1715571017
 30
0.0
 10
13.3645440459
 20
6.1682579063
 30
0.0
 10
13.3676630532
 20
6.1655072223
 30
0.0
 10
13.3702693305
 20
6.1640068661
 30
0.0
  0
SPLINE
  5
5CC
100
AcDbEntity
  8
0
100
AcDbSpline
 62
7
  6
CONTINUOUS
 70
0
 71
3
 72
9
 73
5
 74
0
 42
0.0000001
 43
0.0000001
 44
0.0000000001
 40
0.0
 40
0.0
 40
0.0
 40
0.0
 40
0.4911104906
 40
1.0
 40
1.0
 40
1.0
 40
1.0
 10
11.3188316926
 20
6.4111248321
 30
0.0
 10
11.31518263
 20
6.4168382515
 30
0.0
 10
11.3095139136
 20
6.4296853052
 30
0.0
 10
11.3078275397
 20
6.4435874627
 30
0.0
 10
11.3078764464
 20
6.4506120076
 30
0.0
  0
SPLINE
  5
5CD
100
AcDbEntity
  8
0
100
AcDbSpline
 62
7
  6
CONTINUOUS
 70
0
 71
3
 72
9
 73
5
 74
0
 42
0.0000001
 43
0.0000001
 44
0.0000000001
 40
0.0
 40
0.0
 40
0.0
 40
0.0
 40
0.4768732491
 40
1.0
 40
1.0
 40
1.0
 40
1.0
 10
11.3549920889
 20
6.2905057905
 30
0.0
 10
11.3549924636
 20
6.2851126285
 30
0.0
 10
11.3574436464
 20
6.2737169808
 30
0.0
 10
11.363849466
 20
6.2641218584
 30
0.0
 10
11.367752798
 20
6.2596759433
 30
0.0
  0
SPLINE
  5
5CE
100
AcDbEntity
  8
0
100
AcDbSpline
 62
7
  6
CONTINUOUS
 70
0
 71
3
 72
9
 73
5
 74
0
 42
0.0000001
 43
0.0000001
 44
0.0000000001
 40
0.0
 40
0.0
 40
0.0
 40
0.0
 40
0.4768732172
 40
1.0
 40
1.0
 40
1.0
 40
1.0
 10
11.3549920889
 20
5.5501993983
 30
0.0
 10
11.3549924636
 20
5.5448062308
 30
0.0
 10
11.3574436469
 20
5.533410571
 30
0.0
 10
11.3638494658
 20
5.5238154338
 30
0.0
 10
11.367752798
 20
5.5193695098
 30
0.0
  0
SPLINE
  5
5CF
100
AcDbEntity
  8
AXIS
100
AcDbSpline
 62
7
  6
CONTINUOUS
 70
0
 71
3
 72
9
 73
5
 74
0
 42
0.0000001
 43
0.0000001
 44
0.0000000001
 40
0.0
 40
0.0
 40
0.0
 40
0.0
 40
0.2445606213
 40
1.0
 40
1.0
 40
1.0
 40
1.0
 10
11.6224736836
 20
6.8145030089
 30
0.0
 10
11.632403969
 20
6.8087698856
 30
0.0
 10
11.6733189637
 20
6.785867344
 30
0.0
 10
11.7154104684
 20
6.7650814769
 30
0.0
 10
11.7476886015
 20
6.750498641
 30
0.0
  0
SPLINE
  5
5D0
100
AcDbEntity
  8
AXIS
100
AcDbSpline
 62
7
  6
CONTINUOUS
 70
0
 71
3
 72
23
 73
19
 74
0
 42
0.0000001
 43
0.0000001
 44
0.0000000001
 40
0.0
 40
0.0
 40
0.0
 40
0.0
 40
0.0653222526
 40
0.1338548413
 40
0.204872804
 40
0.2775409215
 40
0.3509593623
 40
0.4241982524
 40
0.4963355654
 40
0.5664913557
 40
0.6338677836
 40
0.6977885932
 40
0.7577487793
 40
0.8134687531
 40
0.8649627858
 40
0.9126097882
 40
0.9572136983
 40
1.0
 40
1.0
 40
1.0
 40
1.0
 10
11.7476886015
 20
6.750498641
 30
0.0
 10
11.7990490353
 20
6.7272946727
 30
0.0
 10
11.9069510023
 20
6.6854776687
 30
0.0
 10
12.0773090313
 20
6.6374927507
 30
0.0
 10
12.2574360306
 20
6.6034114903
 30
0.0
 10
12.4439337889
 20
6.583879807
 30
0.0
 10
12.6333069322
 20
6.5792606301
 30
0.0
 10
12.8219940824
 20
6.5896416226
 30
0.0
 10
13.0064493473
 20
6.6148276428
 30
0.0
 10
13.1832120712
 20
6.6543474574
 30
0.0
 10
13.3489754324
 20
6.7074666642
 30
0.0
 10
13.5006532572
 20
6.7732109803
 30
0.0
 10
13.6354350982
 20
6.8503982732
 30
0.0
 10
13.7508270106
 20
6.9376879589
 30
0.0
 10
13.8446546242
 20
7.0336158097
 30
0.0
 10
13.9150184487
 20
7.1366556421
 30
0.0
 10
13.9602159815
 20
7.244986426
 30
0.0
 10
13.9727432308
 20
7.3201829676
 30
0.0
 10
13.9743473626
 20
7.35706333
 30
0.0
  0
SPLINE
  5
5D1
100
AcDbEntity
  8
0
100
AcDbSpline
 62
7
  6
CONTINUOUS
 70
0
 71
3
 72
9
 73
5
 74
0
 42
0.0000001
 43
0.0000001
 44
0.0000000001
 40
0.0
 40
0.0
 40
0.0
 40
0.0
 40
0.2283653718
 40
1.0
 40
1.0
 40
1.0
 40
1.0
 10
13.4272307994
 20
6.2681437089
 30
0.0
 10
13.4253941417
 20
6.268449364
 30
0.0
 10
13.4172166981
 20
6.2690254839
 30
0.0
 10
13.4090714933
 20
6.2667672067
 30
0.0
 10
13.4032641869
 20
6.2643473068
 30
0.0
  0
SPLINE
  5
5D2
100
AcDbEntity
  8
0
100
AcDbSpline
 62
7
  6
CONTINUOUS
 70
0
 71
3
 72
9
 73
5
 74
0
 42
0.0000001
 43
0.0000001
 44
0.0000000001
 40
0.0
 40
0.0
 40
0.0
 40
0.0
 40
0.482945183
 40
1.0
 40
1.0
 40
1.0
 40
1.0
 10
13.4032641869
 20
6.2643473068
 30
0.0
 10
13.3967241082
 20
6.2616220613
 30
0.0
 10
13.3838477561
 20
6.2541578666
 30
0.0
 10
13.3736945401
 20
6.2432382559
 30
0.0
 10
13.3693160412
 20
6.2370439211
 30
0.0
  0
SPLINE
  5
5D3
100
AcDbEntity
  8
0
100
AcDbSpline
 62
7
  6
CONTINUOUS
 70
0
 71
3
 72
9
 73
5
 74
0
 42
0.0000001
 43
0.0000001
 44
0.0000000001
 40
0.0
 40
0.0
 40
0.0
 40
0.0
 40
0.7523610901
 40
1.0
 40
1.0
 40
1.0
 40
1.0
 10
13.3693160412
 20
6.2370439211
 30
0.0
 10
13.3678678998
 20
6.2349952116
 30
0.0
 10
13.3660714795
 20
6.2321768548
 30
0.0
 10
13.3644752879
 20
6.2292486997
 30
0.0
 10
13.3640926434
 20
6.228516918
 30
0.0
  0
SPLINE
  5
5D4
100
AcDbEntity
  8
0
100
AcDbSpline
 62
7
  6
CONTINUOUS
 70
0
 71
3
 72
9
 73
5
 74
0
 42
0.0000001
 43
0.0000001
 44
0.0000000001
 40
0.0
 40
0.0
 40
0.0
 40
0.0
 40
0.5190179226
 40
1.0
 40
1.0
 40
1.0
 40
1.0
 10
13.3614783103
 20
6.222944111
 30
0.0
 10
13.3595268349
 20
6.2182636402
 30
0.0
 10
13.3567558865
 20
6.2087999364
 30
0.0
 10
13.3559497251
 20
6.1990060348
 30
0.0
 10
13.3559497251
 20
6.1943066573
 30
0.0
  0
LINE
  5
5D5
100
AcDbEntity
  8
0
100
AcDbLine
 62
7
  6
CONTINUOUS
 10
12.1470003521
 20
5.3646990401
 11
12.4398978199
 21
5.8972156271
  0
SPLINE
  5
5D6
100
AcDbEntity
  8
0
100
AcDbSpline
 62
7
  6
CONTINUOUS
 70
0
 71
3
 72
15
 73
11
 74
0
 42
0.0000001
 43
0.0000001
 44
0.0000000001
 40
0.0
 40
0.0
 40
0.0
 40
0.0
 40
0.2456706971
 40
0.4914941578
 40
0.6145960875
 40
0.738151401
 40
0.8005539292
 40
0.8640468517
 40
0.9299240566
 40
1.0
 40
1.0
 40
1.0
 40
1.0
 10
12.1470358905
 20
5.2389494956
 30
0.0
 10
12.1493093974
 20
5.2331784375
 30
0.0
 10
12.1532784155
 20
5.2214038956
 30
0.0
 10
12.1573907458
 20
5.2064401813
 30
0.0
 10
12.1610248656
 20
5.1945502892
 30
0.0
 10
12.1638318802
 20
5.1872447723
 30
0.0
 10
12.1668601013
 20
5.1817079903
 30
0.0
 10
12.1697759831
 20
5.1778111845
 30
0.0
 10
12.1736561647
 20
5.1745092951
 30
0.0
 10
12.1769214239
 20
5.1732015024
 30
0.0
 10
12.1786540567
 20
5.1728432154
 30
0.0
  0
SPLINE
  5
5D7
100
AcDbEntity
  8
0
100
AcDbSpline
 62
7
  6
CONTINUOUS
 70
0
 71
3
 72
9
 73
5
 74
0
 42
0.0000001
 43
0.0000001
 44
0.0000000001
 40
0.0
 40
0.0
 40
0.0
 40
0.0
 40
0.2517523435
 40
1.0
 40
1.0
 40
1.0
 40
1.0
 10
13.6149826885
 20
6.1588049976
 30
0.0
 10
13.6139460708
 20
6.1591630563
 30
0.0
 10
13.6098182642
 20
6.1605554537
 30
0.0
 10
13.6056482742
 20
6.1618241646
 30
0.0
 10
13.6025055946
 20
6.1626893852
 30
0.0
  0
SPLINE
  5
5D8
100
AcDbEntity
  8
0
100
AcDbSpline
 62
7
  6
CONTINUOUS
 70
0
 71
3
 72
9
 73
5
 74
0
 42
0.0000001
 43
0.0000001
 44
0.0000000001
 40
0.0
 40
0.0
 40
0.0
 40
0.0
 40
0.2487351471
 40
1.0
 40
1.0
 40
1.0
 40
1.0
 10
13.6462762433
 20
6.145835998
 30
0.0
 10
13.6437456483
 20
6.147056254
 30
0.0
 10
13.6335038136
 20
6.1518185877
 30
0.0
 10
13.6230031598
 20
6.1560346167
 30
0.0
 10
13.6149826885
 20
6.1588049976
 30
0.0
  0
SPLINE
  5
5D9
100
AcDbEntity
  8
0
100
AcDbSpline
 62
7
  6
CONTINUOUS
 70
0
 71
3
 72
17
 73
13
 74
0
 42
0.0000001
 43
0.0000001
 44
0.0000000001
 40
0.0
 40
0.0
 40
0.0
 40
0.0
 40
0.0230105889
 40
0.0500773096
 40
0.1102416966
 40
0.1732625723
 40
0.2370071995
 40
0.3648639314
 40
0.4927592413
 40
0.6205938192
 40
0.7481241049
 40
1.0
 40
1.0
 40
1.0
 40
1.0
 10
13.764353179
 20
6.0883415657
 30
0.0
 10
13.7638357117
 20
6.0891756566
 30
0.0
 10
13.7624124989
 20
6.0908004972
 30
0.0
 10
13.7587915963
 20
6.0938103836
 30
0.0
 10
13.7532829048
 20
6.0971389215
 30
0.0
 10
13.7461692348
 20
6.1007375822
 30
0.0
 10
13.7362741132
 20
6.1052247534
 30
0.0
 10
13.723693936
 20
6.1104686026
 30
0.0
 10
13.7085568873
 20
6.1166818054
 30
0.0
 10
13.6934937832
 20
6.1230393782
 30
0.0
 10
13.6737245709
 20
6.1318353287
 30
0.0
 10
13.6591871709
 20
6.1389803923
 30
0.0
 10
13.6497280736
 20
6.1440761321
 30
0.0
  0
SPLINE
  5
5DA
100
AcDbEntity
  8
0
100
AcDbSpline
 62
7
  6
CONTINUOUS
 70
0
 71
3
 72
14
 73
10
 74
0
 42
0.0000001
 43
0.0000001
 44
0.0000000001
 40
0.0
 40
0.0
 40
0.0
 40
0.0
 40
0.2816197106
 40
0.4113345376
 40
0.5333168935
 40
0.6492502755
 40
0.7626079247
 40
0.8780924661
 40
1.0
 40
1.0
 40
1.0
 40
1.0
 10
12.1096500202
 20
5.9877182909
 30
0.0
 10
12.0929884095
 20
5.9911422173
 30
0.0
 10
12.0677563468
 20
5.9932439752
 30
0.0
 10
12.0358525409
 20
5.9878293779
 30
0.0
 10
12.0149500809
 20
5.9798229408
 30
0.0
 10
11.9972943398
 20
5.9676386894
 30
0.0
 10
11.9838481113
 20
5.9513561927
 30
0.0
 10
11.9755503111
 20
5.9315509182
 30
0.0
 10
11.973843834
 20
5.9171206306
 30
0.0
 10
11.9738431381
 20
5.9097574384
 30
0.0
  0
SPLINE
  5
5DB
100
AcDbEntity
  8
0
100
AcDbSpline
 62
7
  6
CONTINUOUS
 70
0
 71
3
 72
12
 73
8
 74
0
 42
0.0000001
 43
0.0000001
 44
0.0000000001
 40
0.0
 40
0.0
 40
0.0
 40
0.0
 40
0.2283776135
 40
0.3532417173
 40
0.4821710726
 40
0.7433607188
 40
1.0
 40
1.0
 40
1.0
 40
1.0
 10
11.9738431381
 20
5.169451005
 30
0.0
 10
11.9738446
 20
5.1506749655
 30
0.0
 10
11.9815162031
 20
5.1214823227
 30
0.0
 10
12.0013017895
 20
5.08706384
 30
0.0
 10
12.028198555
 20
5.054118301
 30
0.0
 10
12.0709540481
 20
5.0211661257
 30
0.0
 10
12.1114627548
 20
5.0057982575
 30
0.0
 10
12.1321247758
 20
5.001523598
 30
0.0
  0
SPLINE
  5
5DC
100
AcDbEntity
  8
0
100
AcDbSpline
 62
7
  6
CONTINUOUS
 70
0
 71
3
 72
11
 73
7
 74
0
 42
0.0000001
 43
0.0000001
 44
0.0000000001
 40
0.0
 40
0.0
 40
0.0
 40
0.0
 40
0.2525076459
 40
0.5093959082
 40
0.7614547886
 40
1.0
 40
1.0
 40
1.0
 40
1.0
 10
12.1321247758
 20
5.001523598
 30
0.0
 10
12.2349509093
 20
4.9802570532
 30
0.0
 10
12.4457771588
 20
4.9525988935
 30
0.0
 10
12.7633124138
 20
4.9536383095
 30
0.0
 10
13.0721449479
 20
4.9962159671
 30
0.0
 10
13.2691048408
 20
5.0530604899
 30
0.0
 10
13.3616697165
 20
5.0887203335
 30
0.0
  0
SPLINE
  5
5DD
100
AcDbEntity
  8
0
100
AcDbSpline
 62
7
  6
CONTINUOUS
 70
0
 71
3
 72
15
 73
11
 74
0
 42
0.0000001
 43
0.0000001
 44
0.0000000001
 40
0.0
 40
0.0
 40
0.0
 40
0.0
 40
0.1537561195
 40
0.2990670215
 40
0.4353519905
 40
0.5625071785
 40
0.6810151097
 40
0.7920475087
 40
0.8975158701
 40
1.0
 40
1.0
 40
1.0
 40
1.0
 10
13.3616697165
 20
5.0887203335
 30
0.0
 10
13.4074013974
 20
5.1063380808
 30
0.0
 10
13.4949350207
 20
5.1444878532
 30
0.0
 10
13.6162895337
 20
5.2122782881
 30
0.0
 10
13.722537976
 20
5.288207821
 30
0.0
 10
13.812088996
 20
5.3712341805
 30
0.0
 10
13.8835650723
 20
5.46024782
 30
0.0
 10
13.9357521669
 20
5.5540774027
 30
0.0
 10
13.9676017622
 20
5.6513171727
 30
0.0
 10
13.9747796973
 20
5.7178029275
 30
0.0
 10
13.9747800812
 20
5.7504684844
 30
0.0
  0
SPLINE
  5
5DE
100
AcDbEntity
  8
0
100
AcDbSpline
 62
7
  6
CONTINUOUS
 70
0
 71
3
 72
9
 73
5
 74
0
 42
0.0000001
 43
0.0000001
 44
0.0000000001
 40
0.0
 40
0.0
 40
0.0
 40
0.0
 40
0.499948097
 40
1.0
 40
1.0
 40
1.0
 40
1.0
 10
11.3519020992
 20
5.9584934844
 30
0.0
 10
11.3421037331
 20
5.9220555923
 30
0.0
 10
11.3317618238
 20
5.8462671666
 30
0.0
 10
11.3423293167
 20
5.7705112686
 30
0.0
 10
11.3522319507
 20
5.7340934557
 30
0.0
  0
SPLINE
  5
5DF
100
AcDbEntity
  8
0
100
AcDbSpline
 62
7
  6
CONTINUOUS
 70
0
 71
3
 72
13
 73
9
 74
0
 42
0.0000001
 43
0.0000001
 44
0.0000000001
 40
0.0
 40
0.0
 40
0.0
 40
0.0
 40
0.2554500633
 40
0.5146617997
 40
0.6421654168
 40
0.7663598589
 40
0.8859955473
 40
1.0
 40
1.0
 40
1.0
 40
1.0
 10
12.1719565978
 20
5.1621561674
 30
0.0
 10
12.2767104271
 20
5.1404909357
 30
0.0
 10
12.4915946853
 20
5.1140942213
 30
0.0
 10
12.7614424445
 20
5.1209682871
 30
0.0
 10
12.9735014374
 20
5.1506917009
 30
0.0
 10
13.125476493
 20
5.1844487023
 30
0.0
 10
13.2686671323
 20
5.2292050622
 30
0.0
 10
13.359147137
 20
5.2669120937
 30
0.0
 10
13.4021865484
 20
5.2875688425
 30
0.0
  0
SPLINE
  5
5E0
100
AcDbEntity
  8
0
100
AcDbSpline
 62
7
  6
CONTINUOUS
 70
0
 71
3
 72
9
 73
5
 74
0
 42
0.0000001
 43
0.0000001
 44
0.0000000001
 40
0.0
 40
0.0
 40
0.0
 40
0.0
 40
0.5226766429
 40
1.0
 40
1.0
 40
1.0
 40
1.0
 10
13.4021865484
 20
5.2875688425
 30
0.0
 10
13.454864018
 20
5.3128513735
 30
0.0
 10
13.552712127
 20
5.3677556269
 30
0.0
 10
13.6408964867
 20
5.437551623
 30
0.0
 10
13.6792127677
 20
5.4746891445
 30
0.0
  0
SPLINE
  5
5E1
100
AcDbEntity
  8
0
100
AcDbSpline
 62
7
  6
CONTINUOUS
 70
0
 71
3
 72
15
 73
11
 74
0
 42
0.0000001
 43
0.0000001
 44
0.0000000001
 40
0.0
 40
0.0
 40
0.0
 40
0.0
 40
0.1402993094
 40
0.2722164648
 40
0.3971558615
 40
0.5171294881
 40
0.6346578752
 40
0.7525265606
 40
0.8735191136
 40
1.0
 40
1.0
 40
1.0
 40
1.0
 10
13.6792127677
 20
5.4746891445
 30
0.0
 10
13.7021332022
 20
5.4969044564
 30
0.0
 10
13.7440645682
 20
5.5427717387
 30
0.0
 10
13.7951782524
 20
5.6176830863
 30
0.0
 10
13.8317735242
 20
5.6956661434
 30
0.0
 10
13.8532333132
 20
5.7757651939
 30
0.0
 10
13.8591427464
 20
5.8568974028
 30
0.0
 10
13.8493846797
 20
5.937890711
 30
0.0
 10
13.8241590461
 20
6.0175476227
 30
0.0
 10
13.7980357758
 20
6.0677571418
 30
0.0
 10
13.7828638981
 20
6.0922083792
 30
0.0
  0
SPLINE
  5
5E2
100
AcDbEntity
  8
0
100
AcDbSpline
 62
7
  6
CONTINUOUS
 70
0
 71
3
 72
9
 73
5
 74
0
 42
0.0000001
 43
0.0000001
 44
0.0000000001
 40
0.0
 40
0.0
 40
0.0
 40
0.0
 40
0.4939672708
 40
1.0
 40
1.0
 40
1.0
 40
1.0
 10
13.4396921417
 20
6.2457608146
 30
0.0
 10
13.4410189944
 20
6.2449943129
 30
0.0
 10
13.4434807737
 20
6.2430195504
 30
0.0
 10
13.4452730092
 20
6.240442678
 30
0.0
 10
13.4460271242
 20
6.2390659135
 30
0.0
  0
SPLINE
  5
5E3
100
AcDbEntity
  8
0
100
AcDbSpline
 62
7
  6
CONTINUOUS
 70
0
 71
3
 72
9
 73
5
 74
0
 42
0.0000001
 43
0.0000001
 44
0.0000000001
 40
0.0
 40
0.0
 40
0.0
 40
0.0
 40
0.2444007908
 40
1.0
 40
1.0
 40
1.0
 40
1.0
 10
13.4493881178
 20
6.257215059
 30
0.0
 10
13.4487809405
 20
6.2575658533
 30
0.0
 10
13.4462254248
 20
6.2588778505
 30
0.0
 10
13.4434218674
 20
6.2596763808
 30
0.0
 10
13.441283084
 20
6.2600307685
 30
0.0
  0
SPLINE
  5
5E4
100
AcDbEntity
  8
0
100
AcDbSpline
 62
7
  6
CONTINUOUS
 70
0
 71
3
 72
9
 73
5
 74
0
 42
0.0000001
 43
0.0000001
 44
0.0000000001
 40
0.0
 40
0.0
 40
0.0
 40
0.0
 40
0.2538765431
 40
1.0
 40
1.0
 40
1.0
 40
1.0
 10
12.174043428
 20
5.1652148052
 30
0.0
 10
12.1744686772
 20
5.165838087
 30
0.0
 10
12.1761106898
 20
5.1683154431
 30
0.0
 10
12.1776176798
 20
5.1708827904
 30
0.0
 10
12.1786540567
 20
5.1728432154
 30
0.0
  0
SPLINE
  5
5E5
100
AcDbEntity
  8
0
100
AcDbSpline
 62
7
  6
CONTINUOUS
 70
0
 71
3
 72
15
 73
11
 74
0
 42
0.0000001
 43
0.0000001
 44
0.0000000001
 40
0.0
 40
0.0
 40
0.0
 40
0.0
 40
0.088168856
 40
0.19138221
 40
0.3147698032
 40
0.4548054354
 40
0.6031570269
 40
0.7495375942
 40
0.8841450161
 40
1.0
 40
1.0
 40
1.0
 40
1.0
 10
13.336059866
 20
4.6908379936
 30
0.0
 10
13.3360598698
 20
4.6889436472
 30
0.0
 10
13.3347525557
 20
4.6847986251
 30
0.0
 10
13.3298486955
 20
4.6799089725
 30
0.0
 10
13.3227758284
 20
4.6762532797
 30
0.0
 10
13.31413738
 20
4.6740651301
 30
0.0
 10
13.3047596099
 20
4.67352949
 30
0.0
 10
13.2955506934
 20
4.6747013208
 30
0.0
 10
13.2874217386
 20
4.6774582111
 30
0.0
 10
13.2828346705
 20
4.6804684778
 30
0.0
 10
13.281060933
 20
4.6822148877
 30
0.0
  0
SPLINE
  5
5E6
100
AcDbEntity
  8
0
100
AcDbSpline
 62
7
  6
CONTINUOUS
 70
0
 71
3
 72
13
 73
9
 74
0
 42
0.0000001
 43
0.0000001
 44
0.0000000001
 40
0.0
 40
0.0
 40
0.0
 40
0.0
 40
0.2558884841
 40
0.5154376858
 40
0.6429744804
 40
0.7670644928
 40
0.8864343192
 40
1.0
 40
1.0
 40
1.0
 40
1.0
 10
12.1786540567
 20
5.1728432154
 30
0.0
 10
12.2831549567
 20
5.1512337244
 30
0.0
 10
12.497527458
 20
5.12513895
 30
0.0
 10
12.7666062253
 20
5.1327803234
 30
0.0
 10
12.9777665022
 20
5.1633724089
 30
0.0
 10
13.1287805256
 20
5.1978588507
 30
0.0
 10
13.2707241541
 20
5.2434055598
 30
0.0
 10
13.3602030719
 20
5.2817087138
 30
0.0
 10
13.4026718055
 20
5.3026693078
 30
0.0
  0
SPLINE
  5
5E7
100
AcDbEntity
  8
0
100
AcDbSpline
 62
7
  6
CONTINUOUS
 70
0
 71
3
 72
9
 73
5
 74
0
 42
0.0000001
 43
0.0000001
 44
0.0000000001
 40
0.0
 40
0.0
 40
0.0
 40
0.0
 40
0.5181109508
 40
1.0
 40
1.0
 40
1.0
 40
1.0
 10
13.4026718055
 20
5.3026693078
 30
0.0
 10
13.4444762462
 20
5.3233020378
 30
0.0
 10
13.5231304704
 20
5.3674519114
 30
0.0
 10
13.5957069939
 20
5.4211876676
 30
0.0
 10
13.6284929176
 20
5.4495627665
 30
0.0
  0
SPLINE
  5
5E8
100
AcDbEntity
  8
0
100
AcDbSpline
 62
7
  6
CONTINUOUS
 70
0
 71
3
 72
15
 73
11
 74
0
 42
0.0000001
 43
0.0000001
 44
0.0000000001
 40
0.0
 40
0.0
 40
0.0
 40
0.0
 40
0.1398104728
 40
0.2714015346
 40
0.3961924791
 40
0.5161887525
 40
0.6338795028
 40
0.7519986785
 40
0.873270041
 40
1.0
 40
1.0
 40
1.0
 40
1.0
 10
13.6683871382
 20
5.4864697903
 30
0.0
 10
13.690345941
 20
5.5082288576
 30
0.0
 10
13.7304798565
 20
5.5531201091
 30
0.0
 10
13.7792395317
 20
5.6262816396
 30
0.0
 10
13.8139795149
 20
5.7023378327
 30
0.0
 10
13.8341240607
 20
5.7803713671
 30
0.0
 10
13.8392921268
 20
5.8593476106
 30
0.0
 10
13.829385624
 20
5.9381533873
 30
0.0
 10
13.8046007718
 20
6.0156540414
 30
0.0
 10
13.7791255329
 20
6.0645304288
 30
0.0
 10
13.764353179
 20
6.0883415657
 30
0.0
  0
SPLINE
  5
5E9
100
AcDbEntity
  8
0
100
AcDbSpline
 62
7
  6
CONTINUOUS
 70
0
 71
3
 72
11
 73
7
 74
0
 42
0.0000001
 43
0.0000001
 44
0.0000000001
 40
0.0
 40
0.0
 40
0.0
 40
0.0
 40
0.2009714513
 40
0.4586920994
 40
0.741434893
 40
1.0
 40
1.0
 40
1.0
 40
1.0
 10
13.5815767855
 20
4.6661824536
 30
0.0
 10
13.5827895083
 20
4.6660835762
 30
0.0
 10
13.5855960065
 20
4.6670744377
 30
0.0
 10
13.5888882834
 20
4.6702033609
 30
0.0
 10
13.5913642876
 20
4.6744272847
 30
0.0
 10
13.5921465206
 20
4.6777010245
 30
0.0
 10
13.5921465379
 20
4.6792664625
 30
0.0
  0
SPLINE
  5
5EA
100
AcDbEntity
  8
0
100
AcDbSpline
 62
7
  6
CONTINUOUS
 70
0
 71
3
 72
12
 73
8
 74
0
 42
0.0000001
 43
0.0000001
 44
0.0000000001
 40
0.0
 40
0.0
 40
0.0
 40
0.0
 40
0.3062763235
 40
0.5840313709
 40
0.8037998312
 40
0.9008268172
 40
1.0
 40
1.0
 40
1.0
 40
1.0
 10
13.4945822302
 20
4.6889490825
 30
0.0
 10
13.4934258554
 20
4.6876908327
 30
0.0
 10
13.4916030216
 20
4.6849114417
 30
0.0
 10
13.4903879783
 20
4.6805112958
 30
0.0
 10
13.4911574219
 20
4.6770065726
 30
0.0
 10
13.4929520372
 20
4.6754204586
 30
0.0
 10
13.4940328341
 20
4.6750956079
 30
0.0
 10
13.4945822302
 20
4.6750295582
 30
0.0
  0
SPLINE
  5
5EB
100
AcDbEntity
  8
0
100
AcDbSpline
 62
7
  6
CONTINUOUS
 70
0
 71
3
 72
13
 73
9
 74
0
 42
0.0000001
 43
0.0000001
 44
0.0000000001
 40
0.0
 40
0.0
 40
0.0
 40
0.0
 40
0.2409609861
 40
0.341531535
 40
0.4426793247
 40
0.5562313968
 40
0.6878999995
 40
1.0
 40
1.0
 40
1.0
 40
1.0
 10
13.5921465379
 20
4.7886239033
 30
0.0
 10
13.5921464168
 20
4.7898303147
 30
0.0
 10
13.5918104177
 20
4.7916782509
 30
0.0
 10
13.5901217571
 20
4.7932320591
 30
0.0
 10
13.58854331
 20
4.7936513742
 30
0.0
 10
13.5867930933
 20
4.7934034181
 30
0.0
 10
13.5842313324
 20
4.7922381093
 30
0.0
 10
13.5825633952
 20
4.7906711367
 30
0.0
 10
13.5815767855
 20
4.7894594188
 30
0.0
  0
SPLINE
  5
5EC
100
AcDbEntity
  8
0
100
AcDbSpline
 62
7
  6
CONTINUOUS
 70
0
 71
3
 72
9
 73
5
 74
0
 42
0.0000001
 43
0.0000001
 44
0.0000000001
 40
0.0
 40
0.0
 40
0.0
 40
0.0
 40
0.5212890424
 40
1.0
 40
1.0
 40
1.0
 40
1.0
 10
13.3701537792
 20
6.1861061335
 30
0.0
 10
13.3701537792
 20
6.1821374082
 30
0.0
 10
13.370956279
 20
6.1744729714
 30
0.0
 10
13.373949591
 20
6.1673228216
 30
0.0
 10
13.3758789101
 20
6.1642308015
 30
0.0
  0
SPLINE
  5
5ED
100
AcDbEntity
  8
0
100
AcDbSpline
 62
7
  6
CONTINUOUS
 70
0
 71
3
 72
9
 73
5
 74
0
 42
0.0000001
 43
0.0000001
 44
0.0000000001
 40
0.0
 40
0.0
 40
0.0
 40
0.0
 40
0.5271211045
 40
1.0
 40
1.0
 40
1.0
 40
1.0
 10
13.3834876321
 20
6.2288620166
 30
0.0
 10
13.3788988858
 20
6.2223486424
 30
0.0
 10
13.3720782822
 20
6.2084787284
 30
0.0
 10
13.3701537792
 20
6.1932537322
 30
0.0
 10
13.3701537792
 20
6.1861061335
 30
0.0
  0
SPLINE
  5
5EE
100
AcDbEntity
  8
0
100
AcDbSpline
 62
7
  6
CONTINUOUS
 70
0
 71
3
 72
9
 73
5
 74
0
 42
0.0000001
 43
0.0000001
 44
0.0000000001
 40
0.0
 40
0.0
 40
0.0
 40
0.0
 40
0.4828884412
 40
1.0
 40
1.0
 40
1.0
 40
1.0
 10
13.4173617202
 20
6.2562083057
 30
0.0
 10
13.4108316908
 20
6.2534741767
 30
0.0
 10
13.3979782423
 20
6.2459906055
 30
0.0
 10
13.3878538185
 20
6.2350594842
 30
0.0
 10
13.3834876321
 20
6.2288620166
 30
0.0
  0
SPLINE
  5
5EF
100
AcDbEntity
  8
0
100
AcDbSpline
 62
7
  6
CONTINUOUS
 70
0
 71
3
 72
9
 73
5
 74
0
 42
0.0000001
 43
0.0000001
 44
0.0000000001
 40
0.0
 40
0.0
 40
0.0
 40
0.0
 40
0.2284178114
 40
1.0
 40
1.0
 40
1.0
 40
1.0
 10
13.441283084
 20
6.2600307685
 30
0.0
 10
13.439448728
 20
6.2603347139
 30
0.0
 10
13.4312841469
 20
6.2609118834
 30
0.0
 10
13.4231552202
 20
6.2586340492
 30
0.0
 10
13.4173617202
 20
6.2562083057
 30
0.0
  0
SPLINE
  5
5F0
100
AcDbEntity
  8
0
100
AcDbSpline
 62
7
  6
CONTINUOUS
 70
0
 71
3
 72
9
 73
5
 74
0
 42
0.0000001
 43
0.0000001
 44
0.0000000001
 40
0.0
 40
0.0
 40
0.0
 40
0.0
 40
0.5029127595
 40
1.0
 40
1.0
 40
1.0
 40
1.0
 10
13.3758789101
 20
6.1642308015
 30
0.0
 10
13.3769517304
 20
6.1625114477
 30
0.0
 10
13.3794585429
 20
6.1593030004
 30
0.0
 10
13.3827036777
 20
6.1568274518
 30
0.0
 10
13.3844381326
 20
6.1558253602
 30
0.0
  0
SPLINE
  5
5F1
100
AcDbEntity
  8
0
100
AcDbSpline
 62
7
  6
CONTINUOUS
 70
0
 71
3
 72
10
 73
6
 74
0
 42
0.0000001
 43
0.0000001
 44
0.0000000001
 40
0.0
 40
0.0
 40
0.0
 40
0.0
 40
0.535939202
 40
0.7751082175
 40
1.0
 40
1.0
 40
1.0
 40
1.0
 10
13.4172296192
 20
6.1672807048
 30
0.0
 10
13.413318277
 20
6.1656434247
 30
0.0
 10
13.4072223268
 20
6.1639051332
 30
0.0
 10
13.3992556644
 20
6.1646669903
 30
0.0
 10
13.3958001859
 20
6.166072549
 30
0.0
 10
13.3942585451
 20
6.1669609072
 30
0.0
  0
SPLINE
  5
5F2
100
AcDbEntity
  8
0
100
AcDbSpline
 62
7
  6
CONTINUOUS
 70
0
 71
3
 72
8
 73
4
 74
0
 42
0.0000001
 43
0.0000001
 44
0.0000000001
 40
0.0
 40
0.0
 40
0.0
 40
0.0
 40
1.0
 40
1.0
 40
1.0
 40
1.0
 10
13.4408033229
 20
6.1874837832
 30
0.0
 10
13.4388378
 20
6.1844492479
 30
0.0
 10
13.4366067276
 20
6.1815644853
 30
0.0
 10
13.4341137899
 20
6.1789459081
 30
0.0
  0
SPLINE
  5
5F3
100
AcDbEntity
  8
0
100
AcDbSpline
 62
7
  6
CONTINUOUS
 70
0
 71
3
 72
9
 73
5
 74
0
 42
0.0000001
 43
0.0000001
 44
0.0000000001
 40
0.0
 40
0.0
 40
0.0
 40
0.0
 40
0.5163130407
 40
1.0
 40
1.0
 40
1.0
 40
1.0
 10
13.4341137899
 20
6.1789459081
 30
0.0
 10
13.4316650894
 20
6.1763737976
 30
0.0
 10
13.426399565
 20
6.1718553456
 30
0.0
 10
13.4202985064
 20
6.1685653349
 30
0.0
 10
13.4172296192
 20
6.1672807048
 30
0.0
  0
SPLINE
  5
5F4
100
AcDbEntity
  8
0
100
AcDbSpline
 62
7
  6
CONTINUOUS
 70
0
 71
3
 72
9
 73
5
 74
0
 42
0.0000001
 43
0.0000001
 44
0.0000000001
 40
0.0
 40
0.0
 40
0.0
 40
0.0
 40
0.4729490511
 40
1.0
 40
1.0
 40
1.0
 40
1.0
 10
13.4499586687
 20
6.2202845521
 30
0.0
 10
13.4499586687
 20
6.2148588747
 30
0.0
 10
13.4487157205
 20
6.2033289121
 30
0.0
 10
13.4440903594
 20
6.1925585797
 30
0.0
 10
13.4408033229
 20
6.1874837832
 30
0.0
  0
SPLINE
  5
5F5
100
AcDbEntity
  8
0
100
AcDbSpline
 62
7
  6
CONTINUOUS
 70
0
 71
3
 72
9
 73
5
 74
0
 42
0.0000001
 43
0.0000001
 44
0.0000000001
 40
0.0
 40
0.0
 40
0.0
 40
0.0
 40
0.2332805951
 40
1.0
 40
1.0
 40
1.0
 40
1.0
 10
13.4460271242
 20
6.2390659135
 30
0.0
 10
13.4467486033
 20
6.2377487313
 30
0.0
 10
13.4493028289
 20
6.2318026571
 30
0.0
 10
13.4499586687
 20
6.2252206
 30
0.0
 10
13.4499586687
 20
6.2202845521
 30
0.0
  0
SPLINE
  5
5F6
100
AcDbEntity
  8
0
100
AcDbSpline
 62
7
  6
CONTINUOUS
 70
0
 71
3
 72
9
 73
5
 74
0
 42
0.0000001
 43
0.0000001
 44
0.0000000001
 40
0.0
 40
0.0
 40
0.0
 40
0.0
 40
0.2904826215
 40
1.0
 40
1.0
 40
1.0
 40
1.0
 10
13.5496522351
 20
6.2241571995
 30
0.0
 10
13.5496522351
 20
6.2239584067
 30
0.0
 10
13.549701566
 20
6.2232822802
 30
0.0
 10
13.5500752667
 20
6.2225807706
 30
0.0
 10
13.5504957828
 20
6.2223380041
 30
0.0
  0
SPLINE
  5
5F7
100
AcDbEntity
  8
0
100
AcDbSpline
 62
7
  6
CONTINUOUS
 70
0
 71
3
 72
9
 73
5
 74
0
 42
0.0000001
 43
0.0000001
 44
0.0000000001
 40
0.0
 40
0.0
 40
0.0
 40
0.0
 40
0.5022098558
 40
1.0
 40
1.0
 40
1.0
 40
1.0
 10
13.5525303999
 20
6.2359808795
 30
0.0
 10
13.5516858455
 20
6.2355239381
 30
0.0
 10
13.5503318494
 20
6.2340529626
 30
0.0
 10
13.5496522351
 20
6.2321652735
 30
0.0
 10
13.5496522351
 20
6.2312134806
 30
0.0
  0
SPLINE
  5
5F8
100
AcDbEntity
  8
0
100
AcDbSpline
 62
7
  6
CONTINUOUS
 70
0
 71
3
 72
9
 73
5
 74
0
 42
0.0000001
 43
0.0000001
 44
0.0000000001
 40
0.0
 40
0.0
 40
0.0
 40
0.0
 40
0.7619733983
 40
1.0
 40
1.0
 40
1.0
 40
1.0
 10
13.4811411077
 20
6.2828558453
 30
0.0
 10
13.4798263525
 20
6.2822356424
 30
0.0
 10
13.4784483124
 20
6.2805397704
 30
0.0
 10
13.4780729661
 20
6.2786522353
 30
0.0
 10
13.4780729661
 20
6.2781981271
 30
0.0
  0
SPLINE
  5
5F9
100
AcDbEntity
  8
0
100
AcDbSpline
 62
7
  6
CONTINUOUS
 70
0
 71
3
 72
9
 73
5
 74
0
 42
0.0000001
 43
0.0000001
 44
0.0000000001
 40
0.0
 40
0.0
 40
0.0
 40
0.0
 40
0.2295385732
 40
1.0
 40
1.0
 40
1.0
 40
1.0
 10
13.2821091925
 20
6.2035106452
 30
0.0
 10
13.2819390442
 20
6.2036091234
 30
0.0
 10
13.281136579
 20
6.2039352581
 30
0.0
 10
13.2802152629
 20
6.2038379043
 30
0.0
 10
13.279587374
 20
6.2036349523
 30
0.0
  0
SPLINE
  5
5FA
100
AcDbEntity
  8
0
100
AcDbSpline
 62
7
  6
CONTINUOUS
 70
0
 71
3
 72
9
 73
5
 74
0
 42
0.0000001
 43
0.0000001
 44
0.0000000001
 40
0.0
 40
0.0
 40
0.0
 40
0.0
 40
0.2277622376
 40
1.0
 40
1.0
 40
1.0
 40
1.0
 10
13.3597030284
 20
6.2306639309
 30
0.0
 10
13.3595429876
 20
6.2307562676
 30
0.0
 10
13.3587797423
 20
6.2310610963
 30
0.0
 10
13.3579037804
 20
6.2309298888
 30
0.0
 10
13.3573170942
 20
6.2307102181
 30
0.0
  0
SPLINE
  5
5FB
100
AcDbEntity
  8
0
100
AcDbSpline
 62
7
  6
CONTINUOUS
 70
0
 71
3
 72
9
 73
5
 74
0
 42
0.0000001
 43
0.0000001
 44
0.0000000001
 40
0.0
 40
0.0
 40
0.0
 40
0.0
 40
0.2841463209
 40
1.0
 40
1.0
 40
1.0
 40
1.0
 10
13.4780729661
 20
6.1881899866
 30
0.0
 10
13.4780729661
 20
6.1879902203
 30
0.0
 10
13.4781281184
 20
6.1872933277
 30
0.0
 10
13.47853628
 20
6.1865902632
 30
0.0
 10
13.4789721503
 20
6.1863386646
 30
0.0
  0
SPLINE
  5
5FC
100
AcDbEntity
  8
0
100
AcDbSpline
 62
7
  6
CONTINUOUS
 70
0
 71
3
 72
11
 73
7
 74
0
 42
0.0000001
 43
0.0000001
 44
0.0000000001
 40
0.0
 40
0.0
 40
0.0
 40
0.0
 40
0.1900556408
 40
0.4096968391
 40
0.6791034501
 40
1.0
 40
1.0
 40
1.0
 40
1.0
 10
13.8120615672
 20
6.5066739473
 30
0.0
 10
13.8110023598
 20
6.5072679591
 30
0.0
 10
13.8083054769
 20
6.5078753389
 30
0.0
 10
13.804019682
 20
6.5066803072
 30
0.0
 10
13.7996349268
 20
6.5038463059
 30
0.0
 10
13.7969373254
 20
6.501176126
 30
0.0
 10
13.7955875807
 20
6.4996325969
 30
0.0
  0
SPLINE
  5
5FD
100
AcDbEntity
  8
0
100
AcDbSpline
 62
7
  6
CONTINUOUS
 70
0
 71
3
 72
9
 73
5
 74
0
 42
0.0000001
 43
0.0000001
 44
0.0000000001
 40
0.0
 40
0.0
 40
0.0
 40
0.0
 40
0.5402859583
 40
1.0
 40
1.0
 40
1.0
 40
1.0
 10
13.2719530302
 20
6.2011853674
 30
0.0
 10
13.2707693314
 20
6.2008083513
 30
0.0
 10
13.2687933
 20
6.1993662945
 30
0.0
 10
13.2681287827
 20
6.1966904974
 30
0.0
 10
13.2686033102
 20
6.1957459688
 30
0.0
  0
SPLINE
  5
5FE
100
AcDbEntity
  8
0
100
AcDbSpline
 62
7
  6
CONTINUOUS
 70
0
 71
3
 72
9
 73
5
 74
0
 42
0.0000001
 43
0.0000001
 44
0.0000000001
 40
0.0
 40
0.0
 40
0.0
 40
0.0
 40
0.2428880719
 40
1.0
 40
1.0
 40
1.0
 40
1.0
 10
13.350914327
 20
6.228327141
 30
0.0
 10
13.350561985
 20
6.2281967845
 30
0.0
 10
13.3491879333
 20
6.2274757157
 30
0.0
 10
13.348110714
 20
6.2261657955
 30
0.0
 10
13.3477300905
 20
6.2250583283
 30
0.0
  0
SPLINE
  5
5FF
100
AcDbEntity
  8
0
100
AcDbSpline
 62
7
  6
CONTINUOUS
 70
0
 71
3
 72
9
 73
5
 74
0
 42
0.0000001
 43
0.0000001
 44
0.0000000001
 40
0.0
 40
0.0
 40
0.0
 40
0.0
 40
0.4911184129
 40
1.0
 40
1.0
 40
1.0
 40
1.0
 10
13.6564721064
 20
6.3124767436
 30
0.0
 10
13.6545704933
 20
6.3106109843
 30
0.0
 10
13.6512951619
 20
6.3061968031
 30
0.0
 10
13.6491453289
 20
6.3011488206
 30
0.0
 10
13.6484265145
 20
6.2984836425
 30
0.0
  0
SPLINE
  5
600
100
AcDbEntity
  8
0
100
AcDbSpline
 62
7
  6
CONTINUOUS
 70
0
 71
3
 72
9
 73
5
 74
0
 42
0.0000001
 43
0.0000001
 44
0.0000000001
 40
0.0
 40
0.0
 40
0.0
 40
0.0
 40
0.2441874253
 40
1.0
 40
1.0
 40
1.0
 40
1.0
 10
13.8078470988
 20
6.4880420705
 30
0.0
 10
13.7968387823
 20
6.4727009972
 30
0.0
 10
13.7503002925
 20
6.4109280829
 30
0.0
 10
13.698196505
 20
6.3534007431
 30
0.0
 10
13.6564721064
 20
6.3124767436
 30
0.0
  0
SPLINE
  5
601
100
AcDbEntity
  8
0
100
AcDbSpline
 62
7
  6
CONTINUOUS
 70
0
 71
3
 72
14
 73
10
 74
0
 42
0.0000001
 43
0.0000001
 44
0.0000000001
 40
0.0
 40
0.0
 40
0.0
 40
0.0
 40
0.1632016133
 40
0.2952465432
 40
0.3984969244
 40
0.4858225762
 40
0.6893410029
 40
0.8313208314
 40
1.0
 40
1.0
 40
1.0
 40
1.0
 10
13.8191849824
 20
6.4855893403
 30
0.0
 10
13.8191849258
 20
6.4866216885
 30
0.0
 10
13.8190655405
 20
6.4884965589
 30
0.0
 10
13.8184107302
 20
6.4909491871
 30
0.0
 10
13.8172894514
 20
6.4927276434
 30
0.0
 10
13.8149243221
 20
6.4939184549
 30
0.0
 10
13.812076883
 20
6.4926114133
 30
0.0
 10
13.8097225083
 20
6.4904523752
 30
0.0
 10
13.8084691676
 20
6.4889089692
 30
0.0
 10
13.8078470988
 20
6.4880420705
 30
0.0
  0
SPLINE
  5
602
100
AcDbEntity
  8
0
100
AcDbSpline
 62
7
  6
CONTINUOUS
 70
0
 71
3
 72
11
 73
7
 74
0
 42
0.0000001
 43
0.0000001
 44
0.0000000001
 40
0.0
 40
0.0
 40
0.0
 40
0.0
 40
0.2199999528
 40
0.480381722
 40
0.7523973402
 40
1.0
 40
1.0
 40
1.0
 40
1.0
 10
13.8100820538
 20
6.4203413814
 30
0.0
 10
13.811421575
 20
6.4216938053
 30
0.0
 10
13.8138687849
 20
6.4251114378
 30
0.0
 10
13.8166677321
 20
6.4310128542
 30
0.0
 10
13.8186037832
 20
6.4375027324
 30
0.0
 10
13.8191849666
 20
6.4419976801
 30
0.0
 10
13.8191849824
 20
6.4441400227
 30
0.0
  0
SPLINE
  5
603
100
AcDbEntity
  8
0
100
AcDbSpline
 62
7
  6
CONTINUOUS
 70
0
 71
3
 72
9
 73
5
 74
0
 42
0.0000001
 43
0.0000001
 44
0.0000000001
 40
0.0
 40
0.0
 40
0.0
 40
0.0
 40
0.2601087435
 40
1.0
 40
1.0
 40
1.0
 40
1.0
 10
13.6593010128
 20
6.2966700114
 30
0.0
 10
13.6733240649
 20
6.3061429729
 30
0.0
 10
13.7264303148
 20
6.3437243395
 30
0.0
 10
13.776205583
 20
6.3861414418
 30
0.0
 10
13.8100820538
 20
6.4203413814
 30
0.0
  0
SPLINE
  5
604
100
AcDbEntity
  8
0
100
AcDbSpline
 62
7
  6
CONTINUOUS
 70
0
 71
3
 72
11
 73
7
 74
0
 42
0.0000001
 43
0.0000001
 44
0.0000000001
 40
0.0
 40
0.0
 40
0.0
 40
0.0
 40
0.2409501014
 40
0.4613167646
 40
0.7052943533
 40
1.0
 40
1.0
 40
1.0
 40
1.0
 10
13.6484265145
 20
6.2984836425
 30
0.0
 10
13.6488245116
 20
6.2975313603
 30
0.0
 10
13.6499401347
 20
6.2957856376
 30
0.0
 10
13.6528385629
 20
6.2944601128
 30
0.0
 10
13.6561831887
 20
6.2948725637
 30
0.0
 10
13.6582549511
 20
6.2959633816
 30
0.0
 10
13.6593010128
 20
6.2966700114
 30
0.0
  0
SPLINE
  5
605
100
AcDbEntity
  8
0
100
AcDbSpline
 62
7
  6
CONTINUOUS
 70
0
 71
3
 72
9
 73
5
 74
0
 42
0.0000001
 43
0.0000001
 44
0.0000000001
 40
0.0
 40
0.0
 40
0.0
 40
0.0
 40
0.2442141113
 40
1.0
 40
1.0
 40
1.0
 40
1.0
 10
13.7955875807
 20
6.4996325969
 30
0.0
 10
13.7846724906
 20
6.484385022
 30
0.0
 10
13.7385318616
 20
6.4229912657
 30
0.0
 10
13.6868676729
 20
6.3658007962
 30
0.0
 10
13.6454918136
 20
6.3251094823
 30
0.0
  0
SPLINE
  5
606
100
AcDbEntity
  8
0
100
AcDbSpline
 62
7
  6
CONTINUOUS
 70
0
 71
3
 72
9
 73
5
 74
0
 42
0.0000001
 43
0.0000001
 44
0.0000000001
 40
0.0
 40
0.0
 40
0.0
 40
0.0
 40
0.2313077735
 40
1.0
 40
1.0
 40
1.0
 40
1.0
 10
13.4649783932
 20
6.194417781
 30
0.0
 10
13.4648368666
 20
6.1944994745
 30
0.0
 10
13.4642756298
 20
6.1949501484
 30
0.0
 10
13.4640779949
 20
6.1957267451
 30
0.0
 10
13.4640779949
 20
6.1962698042
 30
0.0
  0
SPLINE
  5
607
100
AcDbEntity
  8
0
100
AcDbSpline
 62
7
  6
CONTINUOUS
 70
0
 71
3
 72
9
 73
5
 74
0
 42
0.0000001
 43
0.0000001
 44
0.0000000001
 40
0.0
 40
0.0
 40
0.0
 40
0.0
 40
0.2294006078
 40
1.0
 40
1.0
 40
1.0
 40
1.0
 10
11.3652792478
 20
5.4900551163
 30
0.0
 10
11.3656991036
 20
5.4922670752
 30
0.0
 10
11.3672429855
 20
5.5019636699
 30
0.0
 10
11.367752785
 20
5.5118064593
 30
0.0
 10
11.367752798
 20
5.5193695098
 30
0.0
  0
SPLINE
  5
608
100
AcDbEntity
  8
0
100
AcDbSpline
 62
7
  6
CONTINUOUS
 70
0
 71
3
 72
9
 73
5
 74
0
 42
0.0000001
 43
0.0000001
 44
0.0000000001
 40
0.0
 40
0.0
 40
0.0
 40
0.0
 40
0.2227320929
 40
1.0
 40
1.0
 40
1.0
 40
1.0
 10
13.5334099028
 20
6.2227806566
 30
0.0
 10
13.5332729128
 20
6.2228597401
 30
0.0
 10
13.5325943593
 20
6.2231125656
 30
0.0
 10
13.5318285335
 20
6.2228987217
 30
0.0
 10
13.5313386221
 20
6.222644387
 30
0.0
  0
SPLINE
  5
609
100
AcDbEntity
  8
0
100
AcDbSpline
 62
7
  6
CONTINUOUS
 70
0
 71
3
 72
11
 73
7
 74
0
 42
0.0000001
 43
0.0000001
 44
0.0000000001
 40
0.0
 40
0.0
 40
0.0
 40
0.0
 40
0.2415679347
 40
0.4866501584
 40
0.7385796887
 40
1.0
 40
1.0
 40
1.0
 40
1.0
 10
11.2188786484
 20
5.7504684844
 30
0.0
 10
11.21887838
 20
5.7276287791
 30
0.0
 10
11.2223335447
 20
5.681545819
 30
0.0
 10
11.237801397
 20
5.6132084834
 30
0.0
 10
11.2634054329
 20
5.5459930749
 30
0.0
 10
11.2865723697
 20
5.5031708965
 30
0.0
 10
11.299604094
 20
5.4821687641
 30
0.0
  0
SPLINE
  5
60A
100
AcDbEntity
  8
0
100
AcDbSpline
 62
7
  6
CONTINUOUS
 70
0
 71
3
 72
9
 73
5
 74
0
 42
0.0000001
 43
0.0000001
 44
0.0000000001
 40
0.0
 40
0.0
 40
0.0
 40
0.0
 40
0.224196707
 40
1.0
 40
1.0
 40
1.0
 40
1.0
 10
13.4893159271
 20
6.2858008388
 30
0.0
 10
13.4891729977
 20
6.2858833443
 30
0.0
 10
13.4884728302
 20
6.2861494997
 30
0.0
 10
13.4876774512
 20
6.2859581792
 30
0.0
 10
13.4871620352
 20
6.285712265
 30
0.0
  0
SPLINE
  5
60B
100
AcDbEntity
  8
AXIS
100
AcDbSpline
 62
7
  6
CONTINUOUS
 70
0
 71
3
 72
9
 73
5
 74
0
 42
0.0000001
 43
0.0000001
 44
0.0000000001
 40
0.0
 40
0.0
 40
0.0
 40
0.0
 40
0.2469839626
 40
1.0
 40
1.0
 40
1.0
 40
1.0
 10
11.2286030241
 20
7.2826883086
 30
0.0
 10
11.2301034296
 20
7.275437279
 30
0.0
 10
11.2368580116
 20
7.2462224071
 30
0.0
 10
11.2463077293
 20
7.217641402
 30
0.0
 10
11.2547481867
 20
7.1967030103
 30
0.0
  0
SPLINE
  5
60C
100
AcDbEntity
  8
AXIS
100
AcDbSpline
 62
7
  6
CONTINUOUS
 70
0
 71
3
 72
9
 73
5
 74
0
 42
0.0000001
 43
0.0000001
 44
0.0000000001
 40
0.0
 40
0.0
 40
0.0
 40
0.0
 40
0.2448223667
 40
1.0
 40
1.0
 40
1.0
 40
1.0
 10
11.2590395791
 20
7.1863706566
 30
0.0
 10
11.2623713494
 20
7.1785789277
 30
0.0
 10
11.2767276578
 20
7.1470752142
 30
0.0
 10
11.2939916752
 20
7.1169167886
 30
0.0
 10
11.3083374732
 20
7.0950657777
 30
0.0
  0
SPLINE
  5
60D
100
AcDbEntity
  8
AXIS
100
AcDbSpline
 62
7
  6
CONTINUOUS
 70
0
 71
3
 72
9
 73
5
 74
0
 42
0.0000001
 43
0.0000001
 44
0.0000000001
 40
0.0
 40
0.0
 40
0.0
 40
0.0
 40
0.2440605427
 40
1.0
 40
1.0
 40
1.0
 40
1.0
 10
11.3231386815
 20
7.0734781517
 30
0.0
 10
11.3281957102
 20
7.0664061314
 30
0.0
 10
11.3494760064
 20
7.0378320789
 30
0.0
 10
11.3729075324
 20
7.0108770602
 30
0.0
 10
11.3915538673
 20
6.9914486998
 30
0.0
  0
SPLINE
  5
60E
100
AcDbEntity
  8
AXIS
100
AcDbSpline
 62
7
  6
CONTINUOUS
 70
0
 71
3
 72
9
 73
5
 74
0
 42
0.0000001
 43
0.0000001
 44
0.0000000001
 40
0.0
 40
0.0
 40
0.0
 40
0.0
 40
0.2435874558
 40
1.0
 40
1.0
 40
1.0
 40
1.0
 10
11.3967459988
 20
6.9860877819
 30
0.0
 10
11.4036215354
 20
6.9790527017
 30
0.0
 10
11.4323609572
 20
6.9506753772
 30
0.0
 10
11.4630555359
 20
6.9242974552
 30
0.0
 10
11.4870909013
 20
6.9054454061
 30
0.0
  0
SPLINE
  5
60F
100
AcDbEntity
  8
AXIS
100
AcDbSpline
 62
7
  6
CONTINUOUS
 70
0
 71
3
 72
9
 73
5
 74
0
 42
0.0000001
 43
0.0000001
 44
0.0000000001
 40
0.0
 40
0.0
 40
0.0
 40
0.0
 40
0.2441022096
 40
1.0
 40
1.0
 40
1.0
 40
1.0
 10
11.5116122391
 20
6.886794309
 30
0.0
 10
11.520280521
 20
6.8803990472
 30
0.0
 10
11.5561854374
 20
6.8547362863
 30
0.0
 10
11.5935851513
 20
6.8311814334
 30
0.0
 10
11.6224736836
 20
6.8145030089
 30
0.0
  0
SPLINE
  5
610
100
AcDbEntity
  8
0
100
AcDbSpline
 62
7
  6
CONTINUOUS
 70
0
 71
3
 72
9
 73
5
 74
0
 42
0.0000001
 43
0.0000001
 44
0.0000000001
 40
0.0
 40
0.0
 40
0.0
 40
0.0
 40
0.2217196903
 40
1.0
 40
1.0
 40
1.0
 40
1.0
 10
13.5608391884
 20
6.2395721068
 30
0.0
 10
13.5607059551
 20
6.2396490239
 30
0.0
 10
13.5600408867
 20
6.2398933202
 30
0.0
 10
13.5592942998
 20
6.2396648042
 30
0.0
 10
13.5588206883
 20
6.2394053638
 30
0.0
  0
SPLINE
  5
611
100
AcDbEntity
  8
0
100
AcDbSpline
 62
7
  6
CONTINUOUS
 70
0
 71
3
 72
19
 73
15
 74
0
 42
0.0000001
 43
0.0000001
 44
0.0000000001
 40
0.0
 40
0.0
 40
0.0
 40
0.0
 40
0.043282757
 40
0.0888539219
 40
0.1373483281
 40
0.1891620681
 40
0.2444710353
 40
0.3032619106
 40
0.3653648781
 40
0.4304836186
 40
0.5680126363
 40
0.711936066
 40
0.8575512101
 40
1.0
 40
1.0
 40
1.0
 40
1.0
 10
13.9601101016
 20
6.6231245723
 30
0.0
 10
13.9525049602
 20
6.5936841071
 30
0.0
 10
13.9310447678
 20
6.5346365825
 30
0.0
 10
13.8828036852
 20
6.4506113946
 30
0.0
 10
13.8186220208
 20
6.3702583797
 30
0.0
 10
13.7393916229
 20
6.2945213958
 30
0.0
 10
13.6461168109
 20
6.2242361539
 30
0.0
 10
13.5399486277
 20
6.1602127263
 30
0.0
 10
13.4221798144
 20
6.1031943014
 30
0.0
 10
13.24847259
 20
6.0362327331
 30
0.0
 10
13.0118521491
 20
5.9751312066
 30
0.0
 10
12.7131992241
 20
5.9391100292
 30
0.0
 10
12.4089695022
 20
5.9407758612
 30
0.0
 10
12.2076740694
 20
5.9675727186
 30
0.0
 10
12.1096500202
 20
5.9877182909
 30
0.0
  0
SPLINE
  5
612
100
AcDbEntity
  8
0
100
AcDbSpline
 62
7
  6
CONTINUOUS
 70
0
 71
3
 72
9
 73
5
 74
0
 42
0.0000001
 43
0.0000001
 44
0.0000000001
 40
0.0
 40
0.0
 40
0.0
 40
0.0
 40
0.224534576
 40
1.0
 40
1.0
 40
1.0
 40
1.0
 10
13.5365679235
 20
6.2303790755
 30
0.0
 10
13.536434124
 20
6.2304563185
 30
0.0
 10
13.5358927542
 20
6.2309044046
 30
0.0
 10
13.535723968
 20
6.2316649328
 30
0.0
 10
13.535723968
 20
6.2321985064
 30
0.0
  0
SPLINE
  5
613
100
AcDbEntity
  8
0
100
AcDbSpline
 62
7
  6
CONTINUOUS
 70
0
 71
3
 72
9
 73
5
 74
0
 42
0.0000001
 43
0.0000001
 44
0.0000000001
 40
0.0
 40
0.0
 40
0.0
 40
0.0
 40
0.5211249879
 40
1.0
 40
1.0
 40
1.0
 40
1.0
 10
13.3559497251
 20
6.1943066573
 30
0.0
 10
13.3559497251
 20
6.1903370431
 30
0.0
 10
13.3567546347
 20
6.1826681648
 30
0.0
 10
13.3597558022
 20
6.1755165624
 30
0.0
 10
13.3616889889
 20
6.1724231687
 30
0.0
  0
SPLINE
  5
614
100
AcDbEntity
  8
0
100
AcDbSpline
 62
7
  6
CONTINUOUS
 70
0
 71
3
 72
9
 73
5
 74
0
 42
0.0000001
 43
0.0000001
 44
0.0000000001
 40
0.0
 40
0.0
 40
0.0
 40
0.0
 40
0.5385420265
 40
1.0
 40
1.0
 40
1.0
 40
1.0
 10
13.6593010128
 20
6.2966700114
 30
0.0
 10
13.6593010128
 20
6.295586611
 30
0.0
 10
13.6589967424
 20
6.2935354712
 30
0.0
 10
13.6577050003
 20
6.2918325554
 30
0.0
 10
13.6569358922
 20
6.2913126841
 30
0.0
  0
SPLINE
  5
615
100
AcDbEntity
  8
0
100
AcDbSpline
 62
7
  6
CONTINUOUS
 70
0
 71
3
 72
9
 73
5
 74
0
 42
0.0000001
 43
0.0000001
 44
0.0000000001
 40
0.0
 40
0.0
 40
0.0
 40
0.0
 40
0.264501938
 40
1.0
 40
1.0
 40
1.0
 40
1.0
 10
13.8100820538
 20
6.4203413814
 30
0.0
 10
13.8100820536
 20
6.4199379366
 30
0.0
 10
13.8099786456
 20
6.4184168524
 30
0.0
 10
13.8094123559
 20
6.4169087326
 30
0.0
 10
13.808738077
 20
6.416012124
 30
0.0
  0
SPLINE
  5
616
100
AcDbEntity
  8
0
100
AcDbSpline
 62
7
  6
CONTINUOUS
 70
0
 71
3
 72
9
 73
5
 74
0
 42
0.0000001
 43
0.0000001
 44
0.0000000001
 40
0.0
 40
0.0
 40
0.0
 40
0.0
 40
0.2733524475
 40
1.0
 40
1.0
 40
1.0
 40
1.0
 10
13.8191849824
 20
6.4441400227
 30
0.0
 10
13.8194166848
 20
6.4443813144
 30
0.0
 10
13.8202000165
 20
6.4453183126
 30
0.0
 10
13.8206663446
 20
6.4465570797
 30
0.0
 10
13.8206668902
 20
6.4474463438
 30
0.0
  0
SPLINE
  5
617
100
AcDbEntity
  8
0
100
AcDbSpline
 62
7
  6
CONTINUOUS
 70
0
 71
3
 72
9
 73
5
 74
0
 42
0.0000001
 43
0.0000001
 44
0.0000000001
 40
0.0
 40
0.0
 40
0.0
 40
0.0
 40
0.2732148363
 40
1.0
 40
1.0
 40
1.0
 40
1.0
 10
13.8191849824
 20
6.4855893403
 30
0.0
 10
13.819414943
 20
6.4858288168
 30
0.0
 10
13.8201931473
 20
6.4867589594
 30
0.0
 10
13.8206601689
 20
6.4879856226
 30
0.0
 10
13.8206667814
 20
6.4888687864
 30
0.0
  0
SPLINE
  5
618
100
AcDbEntity
  8
0
100
AcDbSpline
 62
7
  6
CONTINUOUS
 70
0
 71
3
 72
10
 73
6
 74
0
 42
0.0000001
 43
0.0000001
 44
0.0000000001
 40
0.0
 40
0.0
 40
0.0
 40
0.0
 40
0.2127370727
 40
0.468425748
 40
1.0
 40
1.0
 40
1.0
 40
1.0
 10
13.8078470988
 20
6.4880420705
 30
0.0
 10
13.8076354684
 20
6.4892637194
 30
0.0
 10
13.8064747229
 20
6.4918241776
 30
0.0
 10
13.8026837325
 20
6.4962716654
 30
0.0
 10
13.798566344
 20
6.4987812104
 30
0.0
 10
13.7955875807
 20
6.4996325969
 30
0.0
  0
SPLINE
  5
619
100
AcDbEntity
  8
0
100
AcDbSpline
 62
7
  6
CONTINUOUS
 70
0
 71
3
 72
10
 73
6
 74
0
 42
0.0000001
 43
0.0000001
 44
0.0000000001
 40
0.0
 40
0.0
 40
0.0
 40
0.0
 40
0.2195720226
 40
0.4804841259
 40
1.0
 40
1.0
 40
1.0
 40
1.0
 10
13.6564721064
 20
6.3124767436
 30
0.0
 10
13.6561916028
 20
6.3136973866
 30
0.0
 10
13.6550554096
 20
6.3162443188
 30
0.0
 10
13.6516962931
 20
6.3208553888
 30
0.0
 10
13.6481613822
 20
6.3238230401
 30
0.0
 10
13.6454918137
 20
6.3251094823
 30
0.0
  0
SPLINE
  5
61A
100
AcDbEntity
  8
0
100
AcDbSpline
 62
7
  6
CONTINUOUS
 70
0
 71
3
 72
10
 73
6
 74
0
 42
0.0000001
 43
0.0000001
 44
0.0000000001
 40
0.0
 40
0.0
 40
0.0
 40
0.0
 40
0.2415423769
 40
0.5088307626
 40
1.0
 40
1.0
 40
1.0
 40
1.0
 10
13.6308529464
 20
6.2979151965
 30
0.0
 10
13.6321236465
 20
6.2971815664
 30
0.0
 10
13.6351086853
 20
6.2961555923
 30
0.0
 10
13.6411700148
 20
6.2956814646
 30
0.0
 10
13.6459354422
 20
6.2968414594
 30
0.0
 10
13.6484265159
 20
6.2984836418
 30
0.0
  0
SPLINE
  5
61B
100
AcDbEntity
  8
0
100
AcDbSpline
 62
7
  6
CONTINUOUS
 70
0
 71
3
 72
9
 73
5
 74
0
 42
0.0000001
 43
0.0000001
 44
0.0000000001
 40
0.0
 40
0.0
 40
0.0
 40
0.0
 40
0.2332419911
 40
1.0
 40
1.0
 40
1.0
 40
1.0
 10
13.4319829649
 20
6.2471742399
 30
0.0
 10
13.4327051642
 20
6.2458572811
 30
0.0
 10
13.4352596462
 20
6.239909485
 30
0.0
 10
13.435921193
 20
6.2333265221
 30
0.0
 10
13.435921193
 20
6.2283889151
 30
0.0
  0
SPLINE
  5
61C
100
AcDbEntity
  8
0
100
AcDbSpline
 62
7
  6
CONTINUOUS
 70
0
 71
3
 72
9
 73
5
 74
0
 42
0.0000001
 43
0.0000001
 44
0.0000000001
 40
0.0
 40
0.0
 40
0.0
 40
0.0
 40
0.4731756896
 40
1.0
 40
1.0
 40
1.0
 40
1.0
 10
13.435921193
 20
6.2283889151
 30
0.0
 10
13.435921193
 20
6.2229611293
 30
0.0
 10
13.4346745589
 20
6.2114320138
 30
0.0
 10
13.4300410117
 20
6.20066562
 30
0.0
 10
13.426750075
 20
6.1955971041
 30
0.0
  0
SPLINE
  5
61D
100
AcDbEntity
  8
0
100
AcDbSpline
 62
7
  6
CONTINUOUS
 70
0
 71
3
 72
9
 73
5
 74
0
 42
0.0000001
 43
0.0000001
 44
0.0000000001
 40
0.0
 40
0.0
 40
0.0
 40
0.0
 40
0.5173187956
 40
1.0
 40
1.0
 40
1.0
 40
1.0
 10
13.426750075
 20
6.1955971041
 30
0.0
 10
13.4237984183
 20
6.1910511283
 30
0.0
 10
13.4169163028
 20
6.1829187571
 30
0.0
 10
13.4078001332
 20
6.1773646226
 30
0.0
 10
13.4031317828
 20
6.1754198105
 30
0.0
  0
SPLINE
  5
61E
100
AcDbEntity
  8
0
100
AcDbSpline
 62
7
  6
CONTINUOUS
 70
0
 71
3
 72
9
 73
5
 74
0
 42
0.0000001
 43
0.0000001
 44
0.0000000001
 40
0.0
 40
0.0
 40
0.0
 40
0.0
 40
0.2677585719
 40
1.0
 40
1.0
 40
1.0
 40
1.0
 10
13.4031317828
 20
6.1754198105
 30
0.0
 10
13.4018549511
 20
6.1748878886
 30
0.0
 10
13.3970227188
 20
6.1730952049
 30
0.0
 10
13.3917346187
 20
6.1722365504
 30
0.0
 10
13.3879708795
 20
6.1726142734
 30
0.0
  0
SPLINE
  5
61F
100
AcDbEntity
  8
0
100
AcDbSpline
 62
7
  6
CONTINUOUS
 70
0
 71
3
 72
9
 73
5
 74
0
 42
0.0000001
 43
0.0000001
 44
0.0000000001
 40
0.0
 40
0.0
 40
0.0
 40
0.0
 40
0.5034666875
 40
1.0
 40
1.0
 40
1.0
 40
1.0
 10
13.7631367889
 20
6.1442976606
 30
0.0
 10
13.744443144
 20
6.14004628
 30
0.0
 10
13.7060945261
 20
6.1366037995
 30
0.0
 10
13.667955279
 20
6.1421465028
 30
0.0
 10
13.6498242001
 20
6.1475072548
 30
0.0
  0
SPLINE
  5
620
100
AcDbEntity
  8
0
100
AcDbSpline
 62
7
  6
CONTINUOUS
 70
0
 71
3
 72
9
 73
5
 74
0
 42
0.0000001
 43
0.0000001
 44
0.0000000001
 40
0.0
 40
0.0
 40
0.0
 40
0.0
 40
0.5157627669
 40
1.0
 40
1.0
 40
1.0
 40
1.0
 10
12.137412755
 20
5.2056910547
 30
0.0
 10
12.1404210358
 20
5.2101002497
 30
0.0
 10
12.1452483463
 20
5.2194274828
 30
0.0
 10
12.1470006824
 20
5.2298363397
 30
0.0
 10
12.1470006599
 20
5.2348477524
 30
0.0
  0
SPLINE
  5
621
100
AcDbEntity
  8
0
100
AcDbSpline
 62
7
  6
CONTINUOUS
 70
0
 71
3
 72
9
 73
5
 74
0
 42
0.0000001
 43
0.0000001
 44
0.0000000001
 40
0.0
 40
0.0
 40
0.0
 40
0.0
 40
0.4595776303
 40
1.0
 40
1.0
 40
1.0
 40
1.0
 10
13.2540941123
 20
6.2041226686
 30
0.0
 10
13.2536185249
 20
6.2050669566
 30
0.0
 10
13.2542859086
 20
6.2077468565
 30
0.0
 10
13.2562698304
 20
6.2091813384
 30
0.0
 10
13.2574555315
 20
6.2095553128
 30
0.0
  0
SPLINE
  5
622
100
AcDbEntity
  8
0
100
AcDbSpline
 62
7
  6
CONTINUOUS
 70
0
 71
3
 72
9
 73
5
 74
0
 42
0.0000001
 43
0.0000001
 44
0.0000000001
 40
0.0
 40
0.0
 40
0.0
 40
0.0
 40
0.2764153118
 40
1.0
 40
1.0
 40
1.0
 40
1.0
 10
13.2651161223
 20
6.2119897444
 30
0.0
 10
13.2653417705
 20
6.2120619918
 30
0.0
 10
13.2661709148
 20
6.2122621641
 30
0.0
 10
13.2671096833
 20
6.2121711967
 30
0.0
 10
13.2676464833
 20
6.2118605069
 30
0.0
  0
SPLINE
  5
623
100
AcDbEntity
  8
0
100
AcDbSpline
 62
7
  6
CONTINUOUS
 70
0
 71
3
 72
9
 73
5
 74
0
 42
0.0000001
 43
0.0000001
 44
0.0000000001
 40
0.0
 40
0.0
 40
0.0
 40
0.0
 40
0.7569450801
 40
1.0
 40
1.0
 40
1.0
 40
1.0
 10
13.3334674925
 20
6.2332926568
 30
0.0
 10
13.3338493641
 20
6.2344001392
 30
0.0
 10
13.3349307168
 20
6.2357087401
 30
0.0
 10
13.3363072699
 20
6.2364267609
 30
0.0
 10
13.3366603496
 20
6.2365564925
 30
0.0
  0
SPLINE
  5
624
100
AcDbEntity
  8
0
100
AcDbSpline
 62
7
  6
CONTINUOUS
 70
0
 71
3
 72
9
 73
5
 74
0
 42
0.0000001
 43
0.0000001
 44
0.0000000001
 40
0.0
 40
0.0
 40
0.0
 40
0.0
 40
0.2795287284
 40
1.0
 40
1.0
 40
1.0
 40
1.0
 10
13.3430801437
 20
6.2389297393
 30
0.0
 10
13.343292575
 20
6.2390087493
 30
0.0
 10
13.3440668524
 20
6.2392333287
 30
0.0
 10
13.3449663139
 20
6.2391717896
 30
0.0
 10
13.3454723128
 20
6.2388798541
 30
0.0
  0
SPLINE
  5
625
100
AcDbEntity
  8
0
100
AcDbSpline
 62
7
  6
CONTINUOUS
 70
0
 71
3
 72
9
 73
5
 74
0
 42
0.0000001
 43
0.0000001
 44
0.0000000001
 40
0.0
 40
0.0
 40
0.0
 40
0.0
 40
0.2897662483
 40
1.0
 40
1.0
 40
1.0
 40
1.0
 10
13.517399263
 20
6.2306920977
 30
0.0
 10
13.5175812001
 20
6.2307864053
 30
0.0
 10
13.5182246766
 20
6.2310630722
 30
0.0
 10
13.5190370066
 20
6.2310786447
 30
0.0
 10
13.5194720113
 20
6.2308275199
 30
0.0
  0
SPLINE
  5
626
100
AcDbEntity
  8
0
100
AcDbSpline
 62
7
  6
CONTINUOUS
 70
0
 71
3
 72
11
 73
7
 74
0
 42
0.0000001
 43
0.0000001
 44
0.0000000001
 40
0.0
 40
0.0
 40
0.0
 40
0.0
 40
0.2594064039
 40
0.5224114822
 40
0.7727911738
 40
1.0
 40
1.0
 40
1.0
 40
1.0
 10
12.174043428
 20
5.1652148052
 30
0.0
 10
12.1691322026
 20
5.1663317077
 30
0.0
 10
12.1595689038
 20
5.1702451423
 30
0.0
 10
12.1477563596
 20
5.1798271714
 30
0.0
 10
12.1396210401
 20
5.1919654436
 30
0.0
 10
12.137412755
 20
5.2012795753
 30
0.0
 10
12.137412755
 20
5.2056910547
 30
0.0
  0
SPLINE
  5
627
100
AcDbEntity
  8
0
100
AcDbSpline
 62
7
  6
CONTINUOUS
 70
0
 71
3
 72
11
 73
7
 74
0
 42
0.0000001
 43
0.0000001
 44
0.0000000001
 40
0.0
 40
0.0
 40
0.0
 40
0.0
 40
0.2308374555
 40
0.4852256616
 40
0.7443225981
 40
1.0
 40
1.0
 40
1.0
 40
1.0
 10
12.1371339765
 20
5.205282453
 30
0.0
 10
12.1371340839
 20
5.2006942346
 30
0.0
 10
12.1390553583
 20
5.1910377139
 30
0.0
 10
12.1459458593
 20
5.1777431607
 30
0.0
 10
12.1570396937
 20
5.1667561456
 30
0.0
 10
12.1669300319
 20
5.1629043807
 30
0.0
 10
12.1719565978
 20
5.1621561674
 30
0.0
  0
SPLINE
  5
628
100
AcDbEntity
  8
0
100
AcDbSpline
 62
7
  6
CONTINUOUS
 70
0
 71
3
 72
11
 73
7
 74
0
 42
0.0000001
 43
0.0000001
 44
0.0000000001
 40
0.0
 40
0.0
 40
0.0
 40
0.0
 40
0.2501626229
 40
0.5250122893
 40
0.7866916481
 40
1.0
 40
1.0
 40
1.0
 40
1.0
 10
13.7631367889
 20
6.1442976606
 30
0.0
 10
13.7631367889
 20
6.13964552
 30
0.0
 10
13.7640231974
 20
6.1298831592
 30
0.0
 10
13.7670263819
 20
6.1155343941
 30
0.0
 10
13.7714165709
 20
6.1022793371
 30
0.0
 10
13.7753304319
 20
6.0942802809
 30
0.0
 10
13.7775661236
 20
6.0910035389
 30
0.0
  0
SPLINE
  5
629
100
AcDbEntity
  8
0
100
AcDbSpline
 62
7
  6
CONTINUOUS
 70
0
 71
3
 72
11
 73
7
 74
0
 42
0.0000001
 43
0.0000001
 44
0.0000000001
 40
0.0
 40
0.0
 40
0.0
 40
0.0
 40
0.2118779345
 40
0.4775110542
 40
0.7519992342
 40
1.0
 40
1.0
 40
1.0
 40
1.0
 10
13.7828638981
 20
6.0922083792
 30
0.0
 10
13.7812508628
 20
6.0958196604
 30
0.0
 10
13.777272453
 20
6.1037991761
 30
0.0
 10
13.7710346583
 20
6.1163798676
 30
0.0
 10
13.7656417676
 20
6.1300913809
 30
0.0
 10
13.7638447636
 20
6.139829152
 30
0.0
 10
13.7638445156
 20
6.1444586145
 30
0.0
  0
SPLINE
  5
62A
100
AcDbEntity
  8
0
100
AcDbSpline
 62
7
  6
CONTINUOUS
 70
0
 71
3
 72
9
 73
5
 74
0
 42
0.0000001
 43
0.0000001
 44
0.0000000001
 40
0.0
 40
0.0
 40
0.0
 40
0.0
 40
0.2866505182
 40
1.0
 40
1.0
 40
1.0
 40
1.0
 10
13.4731789108
 20
6.2937852431
 30
0.0
 10
13.4733688601
 20
6.2938756209
 30
0.0
 10
13.474047193
 20
6.2941391423
 30
0.0
 10
13.4748821024
 20
6.2941339806
 30
0.0
 10
13.475335471
 20
6.2938722762
 30
0.0
  0
SPLINE
  5
62B
100
AcDbEntity
  8
0
100
AcDbSpline
 62
7
  6
CONTINUOUS
 70
0
 71
3
 72
9
 73
5
 74
0
 42
0.0000001
 43
0.0000001
 44
0.0000000001
 40
0.0
 40
0.0
 40
0.0
 40
0.0
 40
0.2379938947
 40
1.0
 40
1.0
 40
1.0
 40
1.0
 10
13.4640779949
 20
6.2862779447
 30
0.0
 10
13.4640779949
 20
6.2867320444
 30
0.0
 10
13.464453923
 20
6.2886198452
 30
0.0
 10
13.4658345717
 20
6.2903144793
 30
0.0
 10
13.4671502408
 20
6.2909332934
 30
0.0
  0
SPLINE
  5
62C
100
AcDbEntity
  8
0
100
AcDbSpline
 62
7
  6
CONTINUOUS
 70
0
 71
3
 72
9
 73
5
 74
0
 42
0.0000001
 43
0.0000001
 44
0.0000000001
 40
0.0
 40
0.0
 40
0.0
 40
0.0
 40
0.4977593597
 40
1.0
 40
1.0
 40
1.0
 40
1.0
 10
13.535723968
 20
6.2392547875
 30
0.0
 10
13.535723968
 20
6.2402065508
 30
0.0
 10
13.536403995
 20
6.2420942926
 30
0.0
 10
13.5377586715
 20
6.2435647528
 30
0.0
 10
13.5386034814
 20
6.2440214078
 30
0.0
  0
SPLINE
  5
62D
100
AcDbEntity
  8
0
100
AcDbSpline
 62
7
  6
CONTINUOUS
 70
0
 71
3
 72
9
 73
5
 74
0
 42
0.0000001
 43
0.0000001
 44
0.0000000001
 40
0.0
 40
0.0
 40
0.0
 40
0.0
 40
0.2919158539
 40
1.0
 40
1.0
 40
1.0
 40
1.0
 10
13.5448963354
 20
6.2474444108
 30
0.0
 10
13.545073133
 20
6.2475411863
 30
0.0
 10
13.5456941511
 20
6.247825896
 30
0.0
 10
13.5464921452
 20
6.2478551768
 30
0.0
 10
13.5469155453
 20
6.247610744
 30
0.0
  0
SPLINE
  5
62E
100
AcDbEntity
  8
0
100
AcDbSpline
 62
7
  6
CONTINUOUS
 70
0
 71
3
 72
10
 73
6
 74
0
 42
0.0000001
 43
0.0000001
 44
0.0000000001
 40
0.0
 40
0.0
 40
0.0
 40
0.0
 40
0.2717563236
 40
0.5496969803
 40
1.0
 40
1.0
 40
1.0
 40
1.0
 10
13.3184222589
 20
6.140664284
 30
0.0
 10
13.3182187195
 20
6.1400446569
 30
0.0
 10
13.3175067652
 20
6.1388782264
 30
0.0
 10
13.3157060493
 20
6.137327896
 30
0.0
 10
13.3136031197
 20
6.1368999261
 30
0.0
 10
13.3126689691
 20
6.1374433255
 30
0.0
  0
SPLINE
  5
62F
100
AcDbEntity
  8
0
100
AcDbSpline
 62
7
  6
CONTINUOUS
 70
0
 71
3
 72
9
 73
5
 74
0
 42
0.0000001
 43
0.0000001
 44
0.0000000001
 40
0.0
 40
0.0
 40
0.0
 40
0.0
 40
0.2867246437
 40
1.0
 40
1.0
 40
1.0
 40
1.0
 10
13.4932431238
 20
6.2035735115
 30
0.0
 10
13.4930544311
 20
6.2034824407
 30
0.0
 10
13.49238031
 20
6.2032165431
 30
0.0
 10
13.491547889
 20
6.2032201496
 30
0.0
 10
13.4910964902
 20
6.2034807384
 30
0.0
  0
SPLINE
  5
630
100
AcDbEntity
  8
0
100
AcDbSpline
 62
7
  6
CONTINUOUS
 70
0
 71
3
 72
9
 73
5
 74
0
 42
0.0000001
 43
0.0000001
 44
0.0000000001
 40
0.0
 40
0.0
 40
0.0
 40
0.0
 40
0.539706948
 40
1.0
 40
1.0
 40
1.0
 40
1.0
 10
13.3233328978
 20
4.7047973173
 30
0.0
 10
13.3245229106
 20
4.7052236143
 30
0.0
 10
13.3269205335
 20
4.7056627929
 30
0.0
 10
13.3292566856
 20
4.7047002685
 30
0.0
 10
13.3300422841
 20
4.7039619845
 30
0.0
  0
SPLINE
  5
631
100
AcDbEntity
  8
0
100
AcDbSpline
 62
7
  6
CONTINUOUS
 70
0
 71
3
 72
16
 73
12
 74
0
 42
0.0000001
 43
0.0000001
 44
0.0000000001
 40
0.0
 40
0.0
 40
0.0
 40
0.0
 40
0.1235133249
 40
0.2691498774
 40
0.4245859233
 40
0.5741484063
 40
0.7041228547
 40
0.8088571084
 40
0.8548623588
 40
0.9001443412
 40
1.0
 40
1.0
 40
1.0
 40
1.0
 10
13.289587099
 20
4.6930907191
 30
0.0
 10
13.2910479349
 20
4.6916640917
 30
0.0
 10
13.2949727871
 20
4.6893277362
 30
0.0
 10
13.3018218188
 20
4.687555732
 30
0.0
 10
13.3093322515
 20
4.6873405242
 30
0.0
 10
13.3164546935
 20
4.6887446691
 30
0.0
 10
13.3222455973
 20
4.6915451236
 30
0.0
 10
13.3255069699
 20
4.6951577153
 30
0.0
 10
13.3263310723
 20
4.6983573112
 30
0.0
 10
13.3260167626
 20
4.7015627695
 30
0.0
 10
13.3245324174
 20
4.7036631888
 30
0.0
 10
13.3233328978
 20
4.7047973173
 30
0.0
  0
SPLINE
  5
632
100
AcDbEntity
  8
0
100
AcDbSpline
 62
7
  6
CONTINUOUS
 70
0
 71
3
 72
9
 73
5
 74
0
 42
0.0000001
 43
0.0000001
 44
0.0000000001
 40
0.0
 40
0.0
 40
0.0
 40
0.0
 40
0.4838366174
 40
1.0
 40
1.0
 40
1.0
 40
1.0
 10
13.281060933
 20
4.6822148877
 30
0.0
 10
13.281060933
 20
4.6845396872
 30
0.0
 10
13.2831737951
 20
4.689282284
 30
0.0
 10
13.2872359712
 20
4.6923012703
 30
0.0
 10
13.289587099
 20
4.6930907191
 30
0.0
  0
SPLINE
  5
633
100
AcDbEntity
  8
0
100
AcDbSpline
 62
7
  6
CONTINUOUS
 70
0
 71
3
 72
9
 73
5
 74
0
 42
0.0000001
 43
0.0000001
 44
0.0000000001
 40
0.0
 40
0.0
 40
0.0
 40
0.0
 40
0.4587948583
 40
1.0
 40
1.0
 40
1.0
 40
1.0
 10
13.6375859128
 20
6.1702872788
 30
0.0
 10
13.633969352
 20
6.1688811417
 30
0.0
 10
13.6262955857
 20
6.1652865902
 30
0.0
 10
13.6189077387
 20
6.1611599066
 30
0.0
 10
13.6149826885
 20
6.1588049976
 30
0.0
  0
SPLINE
  5
634
100
AcDbEntity
  8
0
100
AcDbSpline
 62
7
  6
CONTINUOUS
 70
0
 71
3
 72
11
 73
7
 74
0
 42
0.0000001
 43
0.0000001
 44
0.0000000001
 40
0.0
 40
0.0
 40
0.0
 40
0.0
 40
0.2681834355
 40
0.5270853472
 40
0.7716233899
 40
1.0
 40
1.0
 40
1.0
 40
1.0
 10
11.3549749484
 20
5.5770251748
 30
0.0
 10
11.3466905272
 20
5.5711400155
 30
0.0
 10
11.3315061064
 20
5.5579188553
 30
0.0
 10
11.3137720747
 20
5.5343897772
 30
0.0
 10
11.3024169312
 20
5.5088080151
 30
0.0
 10
11.2996041059
 20
5.4908224247
 30
0.0
 10
11.2996040945
 20
5.4821687634
 30
0.0
  0
SPLINE
  5
635
100
AcDbEntity
  8
0
100
AcDbSpline
 62
7
  6
CONTINUOUS
 70
0
 71
3
 72
11
 73
7
 74
0
 42
0.0000001
 43
0.0000001
 44
0.0000000001
 40
0.0
 40
0.0
 40
0.0
 40
0.0
 40
0.2804278889
 40
0.540027806
 40
0.7771401026
 40
1.0
 40
1.0
 40
1.0
 40
1.0
 10
13.4945822302
 20
4.6750295582
 30
0.0
 10
13.4938507911
 20
4.6733207423
 30
0.0
 10
13.4920563572
 20
4.6701742467
 30
0.0
 10
13.488369047
 20
4.6664761277
 30
0.0
 10
13.4840266279
 20
4.6642831815
 30
0.0
 10
13.4808901806
 20
4.6640266165
 30
0.0
 10
13.4794252898
 20
4.6642168893
 30
0.0
  0
SPLINE
  5
636
100
AcDbEntity
  8
0
100
AcDbSpline
 62
7
  6
CONTINUOUS
 70
0
 71
3
 72
10
 73
6
 74
0
 42
0.0000001
 43
0.0000001
 44
0.0000000001
 40
0.0
 40
0.0
 40
0.0
 40
0.0
 40
0.214121619
 40
0.476856687
 40
1.0
 40
1.0
 40
1.0
 40
1.0
 10
13.4945822302
 20
4.6889490825
 30
0.0
 10
13.4934408147
 20
4.6905111101
 30
0.0
 10
13.4906287599
 20
4.6937900271
 30
0.0
 10
13.484260259
 20
4.7001963106
 30
0.0
 10
13.478839148
 20
4.7048342995
 30
0.0
 10
13.4749781402
 20
4.7075608566
 30
0.0
  0
SPLINE
  5
637
100
AcDbEntity
  8
0
100
AcDbSpline
 62
7
  6
CONTINUOUS
 70
0
 71
3
 72
10
 73
6
 74
0
 42
0.0000001
 43
0.0000001
 44
0.0000000001
 40
0.0
 40
0.0
 40
0.0
 40
0.0
 40
0.2086511528
 40
0.4703591233
 40
1.0
 40
1.0
 40
1.0
 40
1.0
 10
13.5815767855
 20
4.7894594188
 30
0.0
 10
13.580469922
 20
4.7910308249
 30
0.0
 10
13.5775841056
 20
4.7942914372
 30
0.0
 10
13.5708415968
 20
4.8005626754
 30
0.0
 10
13.564963877
 20
4.8049707339
 30
0.0
 10
13.5607474201
 20
4.8074256771
 30
0.0
  0
SPLINE
  5
638
100
AcDbEntity
  8
0
100
AcDbSpline
 62
7
  6
CONTINUOUS
 70
0
 71
3
 72
9
 73
5
 74
0
 42
0.0000001
 43
0.0000001
 44
0.0000000001
 40
0.0
 40
0.0
 40
0.0
 40
0.0
 40
0.5501448958
 40
1.0
 40
1.0
 40
1.0
 40
1.0
 10
13.5921465379
 20
4.7886239033
 30
0.0
 10
13.5937491313
 20
4.7895624694
 30
0.0
 10
13.5965013425
 20
4.7916984892
 30
0.0
 10
13.5978129449
 20
4.7950838912
 30
0.0
 10
13.5978130245
 20
4.7966025335
 30
0.0
  0
SPLINE
  5
639
100
AcDbEntity
  8
0
100
AcDbSpline
 62
7
  6
CONTINUOUS
 70
0
 71
3
 72
9
 73
5
 74
0
 42
0.0000001
 43
0.0000001
 44
0.0000000001
 40
0.0
 40
0.0
 40
0.0
 40
0.0
 40
0.5501448756
 40
1.0
 40
1.0
 40
1.0
 40
1.0
 10
13.5921465379
 20
4.6792664625
 30
0.0
 10
13.5937491312
 20
4.6802050279
 30
0.0
 10
13.5965013426
 20
4.6823410469
 30
0.0
 10
13.5978129449
 20
4.6857264485
 30
0.0
 10
13.5978130245
 20
4.6872450906
 30
0.0
  0
SPLINE
  5
63A
100
AcDbEntity
  8
0
100
AcDbSpline
 62
7
  6
CONTINUOUS
 70
0
 71
3
 72
10
 73
6
 74
0
 42
0.0000001
 43
0.0000001
 44
0.0000000001
 40
0.0
 40
0.0
 40
0.0
 40
0.0
 40
0.5298551475
 40
0.7706437048
 40
1.0
 40
1.0
 40
1.0
 40
1.0
 10
13.5815767855
 20
4.6661824536
 30
0.0
 10
13.5802541064
 20
4.6627882353
 30
0.0
 10
13.5770375627
 20
4.6581060282
 30
0.0
 10
13.5708402269
 20
4.6548707408
 30
0.0
 10
13.5675319083
 20
4.6545006659
 30
0.0
 10
13.5659612662
 20
4.6546405241
 30
0.0
  0
SPLINE
  5
63B
100
AcDbEntity
  8
0
100
AcDbSpline
 62
7
  6
CONTINUOUS
 70
0
 71
3
 72
12
 73
8
 74
0
 42
0.0000001
 43
0.0000001
 44
0.0000000001
 40
0.0
 40
0.0
 40
0.0
 40
0.0
 40
0.2032407028
 40
0.3232604536
 40
0.4530777629
 40
0.7285245376
 40
1.0
 40
1.0
 40
1.0
 40
1.0
 10
12.1371339765
 20
5.205282453
 30
0.0
 10
12.1304240155
 20
5.1954477921
 30
0.0
 10
12.114929188
 20
5.1831550542
 30
0.0
 10
12.0907707143
 20
5.1722203088
 30
0.0
 10
12.0610682119
 20
5.1637059652
 30
0.0
 10
12.0211926267
 20
5.1603239901
 30
0.0
 10
11.9891058028
 20
5.1649846003
 30
0.0
 10
11.9738431382
 20
5.1694510044
 30
0.0
  0
SPLINE
  5
63C
100
AcDbEntity
  8
0
100
AcDbSpline
 62
7
  6
CONTINUOUS
 70
0
 71
3
 72
12
 73
8
 74
0
 42
0.0000001
 43
0.0000001
 44
0.0000000001
 40
0.0
 40
0.0
 40
0.0
 40
0.0
 40
0.0978312362
 40
0.2119803768
 40
0.4735472026
 40
0.7490828678
 40
1.0
 40
1.0
 40
1.0
 40
1.0
 10
12.1719565978
 20
5.1621561674
 30
0.0
 10
12.1690852069
 20
5.1575284672
 30
0.0
 10
12.1635607612
 20
5.1470684022
 30
0.0
 10
12.1533411416
 20
5.1227475237
 30
0.0
 10
12.1428543296
 20
5.0879334275
 30
0.0
 10
12.1345697223
 20
5.0448013459
 30
0.0
 10
12.1321247758
 20
5.0154918469
 30
0.0
 10
12.1321247758
 20
5.001523598
 30
0.0
  0
SPLINE
  5
63D
100
AcDbEntity
  8
0
100
AcDbSpline
 62
7
  6
CONTINUOUS
 70
0
 71
3
 72
11
 73
7
 74
0
 42
0.0000001
 43
0.0000001
 44
0.0000000001
 40
0.0
 40
0.0
 40
0.0
 40
0.0
 40
0.2755877561
 40
0.5327589765
 40
0.77202381
 40
1.0
 40
1.0
 40
1.0
 40
1.0
 10
13.7828638981
 20
6.0922083792
 30
0.0
 10
13.7929805868
 20
6.094300793
 30
0.0
 10
13.8131006994
 20
6.0961497187
 30
0.0
 10
13.8419937765
 20
6.0911822632
 30
0.0
 10
13.8665693861
 20
6.0785523064
 30
0.0
 10
13.8787182254
 20
6.0653058716
 30
0.0
 10
13.8832237317
 20
6.0580439951
 30
0.0
  0
SPLINE
  5
63E
100
AcDbEntity
  8
0
100
AcDbSpline
 62
7
  6
CONTINUOUS
 70
0
 71
3
 72
13
 73
9
 74
0
 42
0.0000001
 43
0.0000001
 44
0.0000000001
 40
0.0
 40
0.0
 40
0.0
 40
0.0
 40
0.3054177661
 40
0.5733915603
 40
0.6920086368
 40
0.8010421067
 40
0.9026004741
 40
1.0
 40
1.0
 40
1.0
 40
1.0
 10
13.7638445156
 20
6.1444586145
 30
0.0
 10
13.7742767851
 20
6.1468311614
 30
0.0
 10
13.7935271973
 20
6.1530309001
 30
0.0
 10
13.8146392686
 20
6.1655982985
 30
0.0
 10
13.8270623898
 20
6.177843586
 30
0.0
 10
13.8336662188
 20
6.1873973176
 30
0.0
 10
13.8377376033
 20
6.1974922326
 30
0.0
 10
13.8386668777
 20
6.2044918219
 30
0.0
 10
13.8386666407
 20
6.2079036861
 30
0.0
  0
SPLINE
  5
63F
100
AcDbEntity
  8
0
100
AcDbSpline
 62
7
  6
CONTINUOUS
 70
0
 71
3
 72
11
 73
7
 74
0
 42
0.0000001
 43
0.0000001
 44
0.0000000001
 40
0.0
 40
0.0
 40
0.0
 40
0.0
 40
0.3386323305
 40
0.613694115
 40
0.8252200166
 40
1.0
 40
1.0
 40
1.0
 40
1.0
 10
13.7903664974
 20
6.5026469226
 30
0.0
 10
13.7915357061
 20
6.5042781374
 30
0.0
 10
13.7938481913
 20
6.5071123666
 30
0.0
 10
13.7976101177
 20
6.5102798043
 30
0.0
 10
13.8013175482
 20
6.5118886051
 30
0.0
 10
13.803752014
 20
6.5114696889
 30
0.0
 10
13.8046497437
 20
6.5109528738
 30
0.0
  0
SPLINE
  5
640
100
AcDbEntity
  8
0
100
AcDbSpline
 62
7
  6
CONTINUOUS
 70
0
 71
3
 72
9
 73
5
 74
0
 42
0.0000001
 43
0.0000001
 44
0.0000000001
 40
0.0
 40
0.0
 40
0.0
 40
0.0
 40
0.536118523
 40
1.0
 40
1.0
 40
1.0
 40
1.0
 10
13.6308527096
 20
6.2979149581
 30
0.0
 10
13.6312342625
 20
6.2961553093
 30
0.0
 10
13.6323875589
 20
6.2929174031
 30
0.0
 10
13.6348430169
 20
6.2904126359
 30
0.0
 10
13.6361899963
 20
6.2896298168
 30
0.0
  0
SPLINE
  5
641
100
AcDbEntity
  8
0
100
AcDbSpline
 62
7
  6
CONTINUOUS
 70
0
 71
3
 72
11
 73
7
 74
0
 42
0.0000001
 43
0.0000001
 44
0.0000000001
 40
0.0
 40
0.0
 40
0.0
 40
0.0
 40
0.2187298486
 40
0.4711071859
 40
0.7389969804
 40
1.0
 40
1.0
 40
1.0
 40
1.0
 10
12.1245929889
 20
5.9319703557
 30
0.0
 10
12.1158125017
 20
5.9245848936
 30
0.0
 10
12.0936947918
 20
5.9125044938
 30
0.0
 10
12.0558377544
 20
5.9029858971
 30
0.0
 10
12.0146156886
 20
5.9013659424
 30
0.0
 10
11.9869830483
 20
5.9059122003
 30
0.0
 10
11.9738431381
 20
5.9097574384
 30
0.0
  0
SPLINE
  5
642
100
AcDbEntity
  8
0
100
AcDbSpline
 62
7
  6
CONTINUOUS
 70
0
 71
3
 72
9
 73
5
 74
0
 42
0.0000001
 43
0.0000001
 44
0.0000000001
 40
0.0
 40
0.0
 40
0.0
 40
0.0
 40
0.5021583411
 40
1.0
 40
1.0
 40
1.0
 40
1.0
 10
13.6257773119
 20
6.3008452883
 30
0.0
 10
13.6266388859
 20
6.3060037285
 30
0.0
 10
13.6302524338
 20
6.3159628855
 30
0.0
 10
13.6363574002
 20
6.3246155323
 30
0.0
 10
13.6400593443
 20
6.328245849
 30
0.0
  0
SPLINE
  5
643
100
AcDbEntity
  8
0
100
AcDbSpline
 62
7
  6
CONTINUOUS
 70
0
 71
3
 72
13
 73
9
 74
0
 42
0.0000001
 43
0.0000001
 44
0.0000000001
 40
0.0
 40
0.0
 40
0.0
 40
0.0
 40
0.2988943455
 40
0.5793307042
 40
0.7029113764
 40
0.8126367607
 40
0.9099788754
 40
1.0
 40
1.0
 40
1.0
 40
1.0
 10
13.4749781402
 20
4.7075608566
 30
0.0
 10
13.4721029222
 20
4.7041312171
 30
0.0
 10
13.4674366387
 20
4.6966887855
 30
0.0
 10
13.4643157075
 20
4.6864478263
 30
0.0
 10
13.4641169431
 20
4.6787104536
 30
0.0
 10
13.4650949764
 20
4.6738035463
 30
0.0
 10
13.467193097
 20
4.6697958972
 30
0.0
 10
13.4693572769
 20
4.6678860933
 30
0.0
 10
13.4705244625
 20
4.6672119058
 30
0.0
  0
SPLINE
  5
644
100
AcDbEntity
  8
0
100
AcDbSpline
 62
7
  6
CONTINUOUS
 70
0
 71
3
 72
9
 73
5
 74
0
 42
0.0000001
 43
0.0000001
 44
0.0000000001
 40
0.0
 40
0.0
 40
0.0
 40
0.0
 40
0.4990297878
 40
1.0
 40
1.0
 40
1.0
 40
1.0
 10
13.6454918136
 20
6.3251094823
 30
0.0
 10
13.6416923709
 20
6.321560845
 30
0.0
 10
13.6354233514
 20
6.3130037678
 30
0.0
 10
13.6317298174
 20
6.303059792
 30
0.0
 10
13.6308526204
 20
6.2979149187
 30
0.0
  0
ELLIPSE
  5
645
100
AcDbEntity
  8
0
100
AcDbEllipse
 62
7
  6
CONTINUOUS
 10
4.2037467889
 20
4.1965564144
 30
0.0
 11
0.2165354356
 21
-0.0
 31
0.0
 40
0.0174550651
 41
0.0157141423
 42
3.1417449816
  0
ELLIPSE
  5
646
100
AcDbEntity
  8
0
100
AcDbEllipse
 62
7
  6
CONTINUOUS
 10
5.1781562377
 20
4.2063762076
 30
0.0
 11
0.2166211316
 21
-0.0
 31
0.0
 40
0.0174550651
 41
0.0
 42
6.2831853072
  0
ELLIPSE
  5
647
100
AcDbEntity
  8
0
100
AcDbEllipse
 62
7
  6
CONTINUOUS
 10
4.8533530881
 20
4.1965558387
 30
0.0
 11
0.2755905512
 21
-0.0
 31
0.0
 40
0.0174550649
 41
-0.0
 42
3.1291263261
  0
ELLIPSE
  5
648
100
AcDbEntity
  8
0
100
AcDbEllipse
 62
7
  6
CONTINUOUS
 10
12.5968293648
 20
5.2039904887
 30
0.0
 11
1.3779391735
 21
0.0105057941
 31
0.0
 40
0.5823581608
 41
-1.0089011852
 42
-0.7898340325
  0
ELLIPSE
  5
649
100
AcDbEntity
  8
0
100
AcDbEllipse
 62
7
  6
CONTINUOUS
 10
13.3065324171
 20
4.5196973925
 30
0.0
 11
0.029527268
 21
0.0002251242
 31
0.0
 40
0.5823581608
 41
-2.6156909453
 42
-0.0044408144
  0
ELLIPSE
  5
64A
100
AcDbEntity
  8
0
100
AcDbEllipse
 62
7
  6
CONTINUOUS
 10
12.5968293648
 20
7.5034207217
 30
0.0
 11
0.9010426026
 21
3.5209423565
 31
0.0
 40
0.3034461535
 41
4.3885661684
 42
4.4202352739
  0
ELLIPSE
  5
64B
100
AcDbEntity
  8
0
100
AcDbEllipse
 62
7
  6
CONTINUOUS
 10
12.5968293648
 20
6.0477681949
 30
0.0
 11
-1.251330135
 21
2.6647569341
 31
0.0
 40
0.2336222929
 41
4.6388638019
 42
4.6609064857
  0
ELLIPSE
  5
64C
100
AcDbEntity
  8
0
100
AcDbEllipse
 62
7
  6
CONTINUOUS
 10
12.5968293648
 20
5.2039904887
 30
0.0
 11
1.3779391735
 21
0.0105057941
 31
0.0
 40
0.5823581608
 41
3.1371526211
 42
5.227576198
  0
ELLIPSE
  5
64D
100
AcDbEntity
  8
0
100
AcDbEllipse
 62
7
  6
CONTINUOUS
 10
12.5968293648
 20
5.2039904887
 30
0.0
 11
1.3779400894
 21
-0.0103240319
 31
0.0
 40
0.5722818953
 41
-0.7811062807
 42
0.0042877193
  0
ELLIPSE
  5
64E
100
AcDbEntity
  8
0
100
AcDbEllipse
 62
7
  6
CONTINUOUS
 10
12.5968293648
 20
7.5700280595
 30
0.0
 11
0.8888327299
 21
3.6230111859
 31
0.0
 40
0.2906318852
 41
-1.8995828807
 42
-1.8764977205
  0
ELLIPSE
  5
64F
100
AcDbEntity
  8
0
100
AcDbEllipse
 62
7
  6
CONTINUOUS
 10
12.5968293648
 20
6.0780383775
 30
0.0
 11
-1.2552187985
 21
2.3893693665
 31
0.0
 40
0.2379242204
 41
-1.6749370895
 42
-1.6427559508
  0
ELLIPSE
  5
650
100
AcDbEntity
  8
0
100
AcDbEllipse
 62
7
  6
CONTINUOUS
 10
12.5968293648
 20
6.8273515936
 30
0.0
 11
1.3511950702
 21
0.3900506116
 31
0.0
 40
0.6928142967
 41
-0.909344789
 42
-0.7207066425
  0
ELLIPSE
  5
651
100
AcDbEntity
  8
0
100
AcDbEllipse
 62
7
  6
CONTINUOUS
 10
12.5968293648
 20
6.0780383775
 30
0.0
 11
-1.2731504956
 21
2.4235032146
 31
0.0
 40
0.2379242204
 41
-1.6786218188
 42
-1.6469284718
  0
ELLIPSE
  5
652
100
AcDbEntity
  8
0
100
AcDbEllipse
 62
7
  6
CONTINUOUS
 10
12.5968293648
 20
7.5700280595
 30
0.0
 11
0.9015303403
 21
3.6747684885
 31
0.0
 40
0.2906318852
 41
-1.8960709505
 42
-1.8733288433
  0
ENDSEC
  0
SECTION
  2
OBJECTS
  0
DICTIONARY
  5
C
100
AcDbDictionary
280
0
281
1
  3
ACAD_GROUP
350
D
  3
ACAD_MLINESTYLE
350
17
  3
ACAD_LAYOUT
350
1A
  3
ACAD_PLOTSETTINGS
350
19
  3
ACAD_PLOTSTYLENAME
350
E
  3
ACAD_TABLESTYLE
350
       653
  0
DICTIONARY
  5
D
102
{ACAD_REACTORS
330
C
102
}
100
AcDbDictionary
280
0
281
1
  0
ACDBDICTIONARYWDFLT
  5
E
102
{ACAD_REACTORS
330
C
102
}
100
AcDbDictionary
281
1
  3
Normal
350
F
100
AcDbDictionaryWithDefault
340
F
  0
DICTIONARY
  5
17
102
{ACAD_REACTORS
330
C
102
}
100
AcDbDictionary
280
0
281
1
  3
Standard
350
18
  0
DICTIONARY
  5
653
330
C
100
AcDbDictionary
281
1
  3
Standard
350
       656
  3
Standard1
350
       657
  0
DICTIONARY
  5
19
102
{ACAD_REACTORS
330
C
102
}
100
AcDbDictionary
281
1
  0
DICTIONARY
  5
1A
102
{ACAD_REACTORS
330
C
102
}
100
AcDbDictionary
281
1
  3
Model
350
654
  3
Layout1
350
655
  0
ACDBPLACEHOLDER
  5
F
102
{ACAD_REACTORS
330
E
102
}
  0
MLINESTYLE
  5
18
102
{ACAD_REACTORS
330
17
102
}
100
AcDbMlineStyle
  2
STANDARD
 70
0
  3

 62
256
 51
90.0
 52
90.0
 71
2
 49
0.5
 62
256
  6
BYLAYER
 49
-0.5
 62
256
  6
BYLAYER
  0
LAYOUT
  5
654
102
{ACAD_REACTORS
330
1A
102
}
100
AcDbPlotSettings
  1

  2
none_device
  4
ANSI_B_(17.00_x_11.00_Inches)
  6

 40
0.0
 41
0.0
 42
0.0
 43
0.0
 44
431.8
 45
279.4
 46
0.0
 47
0.0
 48
0.0
 49
0.0
140
0.0
141
0.0
142
1.0
143
1.0
 70
1024
 72
0
 73
0
 74
0
  7

 75
0
147
1.0
148
0.0
149
0.0
100
AcDbLayout
  1
Model
 70
0
 71
0
 10
0.0
 20
0.0
 11
17.0
 21
11.0
 12
0.0
 22
0.0
 32
0.0
 14
0.0
 24
0.0
 34
0.0
 15
0.0
 25
0.0
 35
0.0
146
0.0
 13
0.0
 23
0.0
 33
0.0
 16
1.0
 26
0.0
 36
0.0
 17
0.0
 27
1.0
 37
0.0
 76
0
330
20F
345
0
346
0
  0
LAYOUT
  5
655
102
{ACAD_REACTORS
330
1A
102
}
100
AcDbPlotSettings
  1

  2
none_device
  4
ANSI_B_(17.00_x_11.00_Inches)
  6

 40
0.0
 41
0.0
 42
0.0
 43
0.0
 44
431.8
 45
279.4
 46
0.0
 47
0.0
 48
0.0
 49
0.0
140
0.0
141
0.0
142
1.0
143
1.0
 70
0
 72
0
 73
0
 74
0
  7

 75
0
147
1.0
148
0.0
149
0.0
100
AcDbLayout
  1
Layout1
 70
0
 71
1
 10
0.0
 20
0.0
 11
17.0
 21
11.0
 12
0.0
 22
0.0
 32
0.0
 14
0.0
 24
0.0
 34
0.0
 15
0.0
 25
0.0
 35
0.0
146
0.0
 13
0.0
 23
0.0
 33
0.0
 16
1.0
 26
0.0
 36
0.0
 17
0.0
 27
1.0
 37
0.0
 76
0
330
210
345
0
346
0
  0
TABLESTYLE
  5
656
102
{ACAD_REACTORS
330
653
102
}
330
653
100
AcDbTableStyle
  3
Standard
 70
0
 71
0
 40
0.06
 41
0.06
280
1
281
1
  7
Standard
140
0.18
170
1
 62
0
 63
7
283
0
  7
Standard
140
0.18
170
1
 62
0
 63
7
283
0
  7
Standard
140
0.18
170
1
 62
0
 63
7
283
0
  0
TABLESTYLE
  5
657
102
{ACAD_REACTORS
330
653
330
260
102
}
330
653
100
AcDbTableStyle
  3
Standard1
 70
1
 71
0
 40
0.06
 41
0.06
280
1
281
1
  7
Standard
140
0.18
170
1
 62
0
 63
7
283
0
  7
Standard
140
0.18
170
1
 62
0
 63
7
283
0
  7
Standard
140
0.18
170
1
 62
0
 63
7
283
0
  0
ENDSEC
  0
EOF
