999
DXF file: 194685_1.dxf
999
Pro/ENGINEER 2016010 by Parametric Technology Corporation
  0
SECTION
  2
HEADER
  9
$ACADVER
  1
AC1018
  9
$DWGCODEPAGE
  3
ANSI_1252
  9
$EXTMAX
 10
34.0
 20
22.0
 30
0.0
  9
$EXTMIN
 10
0.0
 20
0.0
 30
0.0
  9
$LIMMIN
 10
0.0
 20
0.0
  9
$LIMMAX
 10
34.0
 20
22.0
  9
$VIEWCTR
 10
17.0
 20
11.0
  9
$VIEWSIZE
 40
22.0
  9
$CLAYER
  8
0
  9
$LTSCALE
 40
1.87
  9
$CELTYPE
  6
BYLAYER
  9
$DIMSCALE
 40
1.0
  9
$DIMASZ
 40
0.1875
  9
$DIMEXO
 40
0.0625
  9
$DIMDLI
 40
1.292
  9
$DIMEXE
 40
0.125
  9
$DIMCEN
 40
0.306
  9
$DIMLFAC
 40
1.0
  9
$DIMBLK
  1
_FILLED
  9
$DIMALT
 70
0
  9
$DIMALTF
 40
25.4
  9
$DIMTXT
 40
0.1
  9
$DIMTOL
 70
1
  9
$DIMLIM
 70
0
  9
$DIMTFAC
 40
1.0
  9
$DIMTP
 40
0.01
  9
$DIMTM
 40
0.01
  9
$DIMGAP
 40
0.09
  9
$DIMDSEP
 70
46
  9
$AUNITS
 70
0
  9
$PDMODE
 70
3
  9
$PDSIZE
 40
0.3125
  9
$HANDSEED
  5
770
  9
$TILEMODE
 70
1
  9
$MEASUREMENT
 70
0
  9
$INSUNITS
 70
1
  0
ENDSEC
  0
SECTION
  2
CLASSES
  0
CLASS
  1
ACDBDICTIONARYWDFLT
  2
AcDbDictionaryWithDefault
  3
AutoCAD 2000
 90
0
 91
1
280
0
281
0
  0
CLASS
  1
ACDBPLACEHOLDER
  2
AcDbPlaceHolder
  3
AutoCAD 2000
 90
0
 91
1
280
0
281
0
  0
CLASS
  1
LAYOUT
  2
AcDbLayout
  3
AutoCAD 2000
 90
0
 91
0
280
0
281
0
  0
CLASS
  1
TABLESTYLE
  2
AcDbTableStyle
  3
ObjectDBX Classes
 90
2047
 91
1
280
0
281
0
  0
CLASS
  1
ACAD_TABLE
  2
AcDbTable
  3
ObjectDBX Classes
 90
1025
 91
1
280
0
281
1
  0
ENDSEC
  0
SECTION
  2
TABLES
  0
TABLE
  2
VPORT
  5
8
100
AcDbSymbolTable
 70
2
  0
VPORT
  5
1F4
100
AcDbSymbolTableRecord
100
AcDbViewportTableRecord
  2
*ACTIVE
 70
0
 10
0.0
 20
0.0
 11
1.0
 21
1.0
 12
17.0
 22
11.0
 13
0.0
 23
0.0
 14
1.0
 24
1.0
 15
0.0
 25
0.0
 16
0.0
 26
0.0
 36
1.0
 17
0.0
 27
0.0
 37
0.0
 40
22.0
 41
1.5454545455
 42
50.0
 43
0.0
 44
0.0
 50
0.0
 51
0.0
 71
0
 72
100
 73
1
 74
1
 75
0
 76
0
 77
0
 78
0
  0
ENDTAB
  0
TABLE
  2
LTYPE
  5
5
100
AcDbSymbolTable
 70
6
  0
LTYPE
  5
14
100
AcDbSymbolTableRecord
100
AcDbLinetypeTableRecord
  2
BYBLOCK
 70
0
  3

 72
65
 73
0
 40
0.0
  0
LTYPE
  5
15
100
AcDbSymbolTableRecord
100
AcDbLinetypeTableRecord
  2
BYLAYER
 70
0
  3

 72
65
 73
0
 40
0.0
  0
LTYPE
  5
16
100
AcDbSymbolTableRecord
100
AcDbLinetypeTableRecord
  2
CONTINUOUS
 70
64
  3
Solid line
 72
65
 73
0
 40
0.0
  0
LTYPE
  5
1F5
100
AcDbSymbolTableRecord
100
AcDbLinetypeTableRecord
  2
CENTER
 70
64
  3
____ _ ____ _ ____ _ ____ _ ____ _ ____ _ ____
 72
65
 73
4
 40
0.6
 49
0.375
 74
0
 49
-0.075
 74
0
 49
0.075
 74
0
 49
-0.075
 74
0
  0
LTYPE
  5
1F6
100
AcDbSymbolTableRecord
100
AcDbLinetypeTableRecord
  2
HIDDEN
 70
64
  3
- - - - - - - - - - - - - - - - - - - -
 72
65
 73
2
 40
0.2
 49
0.1
 74
0
 49
-0.1
 74
0
  0
LTYPE
  5
1F7
100
AcDbSymbolTableRecord
100
AcDbLinetypeTableRecord
  2
PHANTOM
 70
64
  3
_____ _ _ _____ _ _ _____ _ _ _____
 72
65
 73
6
 40
0.8
 49
0.45
 74
0
 49
-0.05
 74
0
 49
0.1
 74
0
 49
-0.05
 74
0
 49
0.1
 74
0
 49
-0.05
 74
0
  0
LTYPE
  5
1F8
100
AcDbSymbolTableRecord
100
AcDbLinetypeTableRecord
  2
DOT
 70
64
  3
. . . . . . . . . . . . . . . . . . . .
 72
65
 73
2
 40
0.2
 49
0.1
 74
0
 49
-0.1
 74
0
  0
LTYPE
  5
1F9
100
AcDbSymbolTableRecord
100
AcDbLinetypeTableRecord
  2
DASHED
 70
64
  3
- - - - - - - - - - - - - - - - - - - -
 72
65
 73
2
 40
0.2
 49
0.1
 74
0
 49
-0.1
 74
0
  0
ENDTAB
  0
TABLE
  2
LAYER
  5
2
100
AcDbSymbolTable
 70
36
  0
LAYER
  5
10
100
AcDbSymbolTableRecord
100
AcDbLayerTableRecord
  2
0
 70
0
 62
7
  6
CONTINUOUS
370
-3
390
F
  0
LAYER
  5
1FA
100
AcDbSymbolTableRecord
100
AcDbLayerTableRecord
  2
DEFAULT_1
 70
0
 62
7
  6
CENTER
370
-3
390
F
  0
LAYER
  5
1FB
100
AcDbSymbolTableRecord
100
AcDbLayerTableRecord
  2
DEFAULT_2
 70
0
 62
7
  6
HIDDEN
370
-3
390
F
  0
LAYER
  5
1FC
100
AcDbSymbolTableRecord
100
AcDbLayerTableRecord
  2
DEFAULT_3
 70
0
 62
7
  6
PHANTOM
370
-3
390
F
  0
LAYER
  5
1FD
100
AcDbSymbolTableRecord
100
AcDbLayerTableRecord
  2
1_ALL_PLANES
 70
0
 62
7
  6
CONTINUOUS
370
-3
390
F
  0
LAYER
  5
1FE
100
AcDbSymbolTableRecord
100
AcDbLayerTableRecord
  2
1__DEF_PRT_PLN
 70
0
 62
7
  6
CONTINUOUS
370
-3
390
F
  0
LAYER
  5
1FF
100
AcDbSymbolTableRecord
100
AcDbLayerTableRecord
  2
2_ALL_CSYS
 70
0
 62
7
  6
CONTINUOUS
370
-3
390
F
  0
LAYER
  5
200
100
AcDbSymbolTableRecord
100
AcDbLayerTableRecord
  2
2__DEF_PRT_CSYS
 70
0
 62
7
  6
CONTINUOUS
370
-3
390
F
  0
LAYER
  5
201
100
AcDbSymbolTableRecord
100
AcDbLayerTableRecord
  2
3_ALL_AXES
 70
0
 62
7
  6
CONTINUOUS
370
-3
390
F
  0
LAYER
  5
202
100
AcDbSymbolTableRecord
100
AcDbLayerTableRecord
  2
5_ALL_CURVES
 70
0
 62
7
  6
CONTINUOUS
370
-3
390
F
  0
LAYER
  5
203
100
AcDbSymbolTableRecord
100
AcDbLayerTableRecord
  2
AXIS
 70
0
 62
7
  6
CONTINUOUS
370
-3
390
F
  0
LAYER
  5
204
100
AcDbSymbolTableRecord
100
AcDbLayerTableRecord
  2
COLOR5
 70
0
 62
7
  6
CONTINUOUS
370
-3
390
F
  0
LAYER
  5
205
100
AcDbSymbolTableRecord
100
AcDbLayerTableRecord
  2
DATUM_CURVES
 70
0
 62
7
  6
CONTINUOUS
370
-3
390
F
  0
LAYER
  5
206
100
AcDbSymbolTableRecord
100
AcDbLayerTableRecord
  2
DATUM_PLANES
 70
0
 62
7
  6
CONTINUOUS
370
-3
390
F
  0
LAYER
  5
207
100
AcDbSymbolTableRecord
100
AcDbLayerTableRecord
  2
DRIVEN_DIMS
 70
0
 62
7
  6
CONTINUOUS
370
-3
390
F
  0
LAYER
  5
208
100
AcDbSymbolTableRecord
100
AcDbLayerTableRecord
  2
GEOMETRIC_TOLERANCES
 70
0
 62
7
  6
CONTINUOUS
370
-3
390
F
  0
LAYER
  5
209
100
AcDbSymbolTableRecord
100
AcDbLayerTableRecord
  2
NONE
 70
0
 62
7
  6
CONTINUOUS
370
-3
390
F
  0
LAYER
  5
20A
100
AcDbSymbolTableRecord
100
AcDbLayerTableRecord
  2
NOTES
 70
0
 62
7
  6
CONTINUOUS
370
-3
390
F
  0
LAYER
  5
20B
100
AcDbSymbolTableRecord
100
AcDbLayerTableRecord
  2
QUILTS
 70
0
 62
7
  6
CONTINUOUS
370
-3
390
F
  0
LAYER
  5
20C
100
AcDbSymbolTableRecord
100
AcDbLayerTableRecord
  2
SCHEME_DIMS
 70
0
 62
7
  6
CONTINUOUS
370
-3
390
F
  0
LAYER
  5
20D
100
AcDbSymbolTableRecord
100
AcDbLayerTableRecord
  2
SYMBOLS
 70
0
 62
7
  6
CONTINUOUS
370
-3
390
F
  0
LAYER
  5
20E
100
AcDbSymbolTableRecord
100
AcDbLayerTableRecord
  2
XSEC_DATUMS
 70
0
 62
7
  6
CONTINUOUS
370
-3
390
F
  0
LAYER
  5
20F
100
AcDbSymbolTableRecord
100
AcDbLayerTableRecord
  2
_2554
 70
0
 62
7
  6
CONTINUOUS
370
-3
390
F
  0
ENDTAB
  0
TABLE
  2
STYLE
  5
3
100
AcDbSymbolTable
 70
1
  0
STYLE
  5
11
100
AcDbSymbolTableRecord
100
AcDbTextStyleTableRecord
  2
STANDARD
 70
0
 40
0.0
 41
1.0
 50
0.0
 71
0
 42
0.2
  3
txt
  4

  0
STYLE
  5
210
100
AcDbSymbolTableRecord
100
AcDbTextStyleTableRecord
  2
TEXTSTYLE_1
 70
0
 40
0.0
 41
0.8
 50
0.0
 71
0
 42
0.2
  3
gdt
  4

  0
STYLE
  5
211
100
AcDbSymbolTableRecord
100
AcDbTextStyleTableRecord
  2
TEXTSTYLE_2
 70
0
 40
0.0
 41
0.8
 50
0.0
 71
0
 42
0.2
  3
txt
  4

  0
STYLE
  5
212
100
AcDbSymbolTableRecord
100
AcDbTextStyleTableRecord
  2
TEXTSTYLE_3
 70
0
 40
0.0
 41
0.9
 50
0.0
 71
0
 42
0.2
  3
txt
  4

  0
STYLE
  5
213
100
AcDbSymbolTableRecord
100
AcDbTextStyleTableRecord
  2
TEXTSTYLE_4
 70
0
 40
0.0
 41
0.85
 50
0.0
 71
0
 42
0.2
  3
txt
  4

  0
STYLE
  5
214
100
AcDbSymbolTableRecord
100
AcDbTextStyleTableRecord
  2
TEXTSTYLE_5
 70
0
 40
0.0
 41
0.75
 50
0.0
 71
0
 42
0.2
  3
txt
  4

  0
ENDTAB
  0
TABLE
  2
VIEW
  5
6
100
AcDbSymbolTable
 70
0
  0
ENDTAB
  0
TABLE
  2
UCS
  5
7
100
AcDbSymbolTable
 70
0
  0
ENDTAB
  0
TABLE
  2
APPID
  5
9
100
AcDbSymbolTable
 70
1
  0
APPID
  5
215
100
AcDbSymbolTableRecord
100
AcDbRegAppTableRecord
  2
ACAD
 70
0
  0
ENDTAB
  0
TABLE
  2
BLOCK_RECORD
  5
1
100
AcDbSymbolTable
 70
0
  0
BLOCK_RECORD
  5
216
100
AcDbSymbolTableRecord
100
AcDbBlockTableRecord
  2
*Model_Space
  0
BLOCK_RECORD
  5
217
100
AcDbSymbolTableRecord
100
AcDbBlockTableRecord
  2
*Paper_Space
  0
BLOCK_RECORD
  5
218
100
AcDbSymbolTableRecord
100
AcDbBlockTableRecord
  2
_FILLED
  0
BLOCK_RECORD
  5
219
100
AcDbSymbolTableRecord
100
AcDbBlockTableRecord
  2
*D0
  0
BLOCK_RECORD
  5
21A
100
AcDbSymbolTableRecord
100
AcDbBlockTableRecord
  2
*D1
  0
BLOCK_RECORD
  5
21B
100
AcDbSymbolTableRecord
100
AcDbBlockTableRecord
  2
*D2
  0
BLOCK_RECORD
  5
21C
100
AcDbSymbolTableRecord
100
AcDbBlockTableRecord
  2
*D3
  0
BLOCK_RECORD
  5
21D
100
AcDbSymbolTableRecord
100
AcDbBlockTableRecord
  2
*D4
  0
BLOCK_RECORD
  5
21E
100
AcDbSymbolTableRecord
100
AcDbBlockTableRecord
  2
*D5
  0
BLOCK_RECORD
  5
21F
100
AcDbSymbolTableRecord
100
AcDbBlockTableRecord
  2
*D6
  0
BLOCK_RECORD
  5
220
100
AcDbSymbolTableRecord
100
AcDbBlockTableRecord
  2
*T1
  0
ENDTAB
  0
TABLE
  2
DIMSTYLE
  5
A
100
AcDbSymbolTable
 70
1
100
AcDbDimStyleTable
 71
0
  0
DIMSTYLE
105
221
100
AcDbSymbolTableRecord
100
AcDbDimStyleTableRecord
  2
STANDARD
 70
0
  3

  4

 40
1.0
 41
0.1875
 42
0.0625
 43
0.38
 44
0.125
 45
0.0
 46
0.0
 47
0.01
 48
0.01
140
0.1
141
0.09
142
0.0
143
25.4
144
1.0
145
0.0
146
1.0
147
0.09
 71
1.0
 72
0.0
 73
1
 74
1
 75
0
 76
0
 77
0
 78
4
170
0
171
2
172
0
173
0
174
0
175
0
176
0
177
0
178
0
270
2
271
2
272
2
273
2
274
2
275
0
280
0
281
0
282
0
283
1
284
4
285
0
286
0
287
3
288
0
340
11
278
46
341
218
342
218
343
218
344
218
  0
DIMSTYLE
105
222
100
AcDbSymbolTableRecord
100
AcDbDimStyleTableRecord
  2
DIMSTYLE_1
 70
0
  3

  4

 40
1.0
 41
0.1875
 42
0.0625
 43
0.38
 44
0.125
 45
0.0
 46
0.0
 47
0.005
 48
0.005
140
0.1
141
0.09
142
0.0
143
25.4
144
1.0
145
0.0
146
1.0
147
0.1
 71
0.0
 72
0.0
 73
1
 74
1
 75
0
 76
0
 77
0
 78
4
170
0
171
2
172
0
173
0
174
0
175
0
176
0
177
0
178
0
270
2
271
1
272
1
273
2
274
2
275
0
280
0
281
0
282
0
283
1
284
4
285
0
286
0
287
3
288
0
340
11
278
46
341
218
342
218
343
218
344
218
  0
ENDTAB
  0
ENDSEC
  0
SECTION
  2
BLOCKS
  0
BLOCK
  5
20
100
AcDbEntity
  8
0
100
AcDbBlockBegin
  2
*Model_Space
 70
0
 10
0.0
 20
0.0
 30
0.0
  3
*Model_Space
  1

  0
ENDBLK
  5
21
100
AcDbEntity
  8
0
100
AcDbBlockEnd
  0
BLOCK
  5
1C
100
AcDbEntity
  8
0
100
AcDbBlockBegin
  2
*Paper_Space
 70
0
 10
0.0
 20
0.0
 30
0.0
  3
*Paper_Space
  1

  0
ENDBLK
  5
1D
100
AcDbEntity
  8
0
100
AcDbBlockEnd
  0
BLOCK
  5
223
100
AcDbEntity
  8
0
100
AcDbBlockBegin
  2
_FILLED
 70
64
 10
0.0
 20
0.0
  3
_FILLED
  1

  0
SOLID
  5
224
100
AcDbEntity
  8
0
  6
BYBLOCK
 62
0
100
AcDbTrace
 10
0.0
 20
0.0
 11
-1.0
 21
0.1666666667
 12
-1.0
 22
-0.1666666667
 13
-1.0
 23
-0.1666666667
  0
ENDBLK
  5
225
100
AcDbEntity
  8
0
  6
BYBLOCK
 62
0
100
AcDbBlockEnd
  0
BLOCK
  5
226
100
AcDbEntity
  8
DRIVEN_DIMS
100
AcDbBlockBegin
 62
7
  6
CONTINUOUS
  2
*D0
 70
65
 10
0.0
 20
0.0
  3
*D0
  1

  0
MTEXT
  5
227
100
AcDbEntity
  8
DRIVEN_DIMS
100
AcDbMText
 62
7
  6
CONTINUOUS
  7
STANDARD
 71
2
 72
1
 10
3.8451123393
 20
5.9486120978
 30
0.0
 11
1.0
 21
0.0
 31
0.0
 44
0.9
  1
50.1\P[1.97]
 40
0.1
 41
0.6
  0
LINE
  5
228
100
AcDbEntity
  8
DRIVEN_DIMS
100
AcDbLine
 62
7
  6
CONTINUOUS
 10
5.8963540531
 20
6.8845426019
 11
3.8201123393
 21
6.8845426019
  0
LINE
  5
229
100
AcDbEntity
  8
DRIVEN_DIMS
100
AcDbLine
 62
7
  6
CONTINUOUS
 10
4.3826089393
 20
4.9126815937
 11
3.8201123393
 21
4.9126815937
  0
LINE
  5
22A
100
AcDbEntity
  8
DRIVEN_DIMS
100
AcDbLine
 62
7
  6
CONTINUOUS
 10
3.9451123393
 20
6.8845426019
 11
3.9451123393
 21
6.0486120978
  0
LINE
  5
22B
100
AcDbEntity
  8
DRIVEN_DIMS
100
AcDbLine
 62
7
  6
CONTINUOUS
 10
3.9451123393
 20
4.9126815937
 11
3.9451123393
 21
5.5986120978
  0
INSERT
  5
22C
100
AcDbEntity
  8
DRIVEN_DIMS
100
AcDbBlockReference
 62
7
  6
CONTINUOUS
  2
_FILLED
 10
3.9451123393
 20
6.8845426019
 41
0.1875
 42
0.1875
 43
0.1875
 50
90.0
  0
INSERT
  5
22D
100
AcDbEntity
  8
DRIVEN_DIMS
100
AcDbBlockReference
 62
7
  6
CONTINUOUS
  2
_FILLED
 10
3.9451123393
 20
4.9126815937
 41
0.1875
 42
0.1875
 43
0.1875
 50
270.0
  0
ENDBLK
  5
22E
100
AcDbEntity
  8
0
  6
BYBLOCK
 62
0
100
AcDbBlockEnd
  0
BLOCK
  5
22F
100
AcDbEntity
  8
DRIVEN_DIMS
100
AcDbBlockBegin
 62
7
  6
CONTINUOUS
  2
*D1
 70
65
 10
0.0
 20
0.0
  3
*D1
  1

  0
MTEXT
  5
230
100
AcDbEntity
  8
DRIVEN_DIMS
100
AcDbMText
 62
7
  6
CONTINUOUS
  7
STANDARD
 71
2
 72
1
 10
1.127991871
 20
5.9034402397
 30
0.0
 11
1.0
 21
0.0
 31
0.0
 44
0.9
  1
48.0\P[1.89]
 40
0.1
 41
0.6
  0
LINE
  5
231
100
AcDbEntity
  8
DRIVEN_DIMS
100
AcDbLine
 62
7
  6
CONTINUOUS
 10
1.7227628594
 20
6.7983221295
 11
1.102991871
 21
6.7983221295
  0
LINE
  5
232
100
AcDbEntity
  8
DRIVEN_DIMS
100
AcDbLine
 62
7
  6
CONTINUOUS
 10
1.7886638693
 20
4.90855835
 11
1.102991871
 21
4.90855835
  0
LINE
  5
233
100
AcDbEntity
  8
DRIVEN_DIMS
100
AcDbLine
 62
7
  6
CONTINUOUS
 10
1.227991871
 20
6.7983221295
 11
1.227991871
 21
6.0034402397
  0
LINE
  5
234
100
AcDbEntity
  8
DRIVEN_DIMS
100
AcDbLine
 62
7
  6
CONTINUOUS
 10
1.227991871
 20
4.90855835
 11
1.227991871
 21
5.5534402397
  0
INSERT
  5
235
100
AcDbEntity
  8
DRIVEN_DIMS
100
AcDbBlockReference
 62
7
  6
CONTINUOUS
  2
_FILLED
 10
1.227991871
 20
6.7983221295
 41
0.1875
 42
0.1875
 43
0.1875
 50
90.0
  0
INSERT
  5
236
100
AcDbEntity
  8
DRIVEN_DIMS
100
AcDbBlockReference
 62
7
  6
CONTINUOUS
  2
_FILLED
 10
1.227991871
 20
4.90855835
 41
0.1875
 42
0.1875
 43
0.1875
 50
270.0
  0
ENDBLK
  5
237
100
AcDbEntity
  8
0
  6
BYBLOCK
 62
0
100
AcDbBlockEnd
  0
BLOCK
  5
238
100
AcDbEntity
  8
DRIVEN_DIMS
100
AcDbBlockBegin
 62
7
  6
CONTINUOUS
  2
*D2
 70
65
 10
0.0
 20
0.0
  3
*D2
  1

  0
MTEXT
  5
239
100
AcDbEntity
  8
DRIVEN_DIMS
100
AcDbMText
 62
7
  6
CONTINUOUS
  7
STANDARD
 71
2
 72
1
 10
32.8158405423
 20
5.864070161
 30
0.0
 11
1.0
 21
0.0
 31
0.0
 44
0.9
  1
46.0\P[1.81]
 40
0.1
 41
0.6
  0
LINE
  5
23A
100
AcDbEntity
  8
DRIVEN_DIMS
100
AcDbLine
 62
7
  6
CONTINUOUS
 10
31.7252472841
 20
6.719581972
 11
33.0408405423
 21
6.719581972
  0
LINE
  5
23B
100
AcDbEntity
  8
DRIVEN_DIMS
100
AcDbLine
 62
7
  6
CONTINUOUS
 10
32.355168544
 20
4.90855835
 11
33.0408405423
 21
4.90855835
  0
LINE
  5
23C
100
AcDbEntity
  8
DRIVEN_DIMS
100
AcDbLine
 62
7
  6
CONTINUOUS
 10
32.9158405423
 20
6.719581972
 11
32.9158405423
 21
5.964070161
  0
LINE
  5
23D
100
AcDbEntity
  8
DRIVEN_DIMS
100
AcDbLine
 62
7
  6
CONTINUOUS
 10
32.9158405423
 20
4.90855835
 11
32.9158405423
 21
5.514070161
  0
INSERT
  5
23E
100
AcDbEntity
  8
DRIVEN_DIMS
100
AcDbBlockReference
 62
7
  6
CONTINUOUS
  2
_FILLED
 10
32.9158405423
 20
6.719581972
 41
0.1875
 42
0.1875
 43
0.1875
 50
90.0
  0
INSERT
  5
23F
100
AcDbEntity
  8
DRIVEN_DIMS
100
AcDbBlockReference
 62
7
  6
CONTINUOUS
  2
_FILLED
 10
32.9158405423
 20
4.90855835
 41
0.1875
 42
0.1875
 43
0.1875
 50
270.0
  0
ENDBLK
  5
240
100
AcDbEntity
  8
0
  6
BYBLOCK
 62
0
100
AcDbBlockEnd
  0
BLOCK
  5
241
100
AcDbEntity
  8
DRIVEN_DIMS
100
AcDbBlockBegin
 62
7
  6
CONTINUOUS
  2
*D3
 70
65
 10
0.0
 20
0.0
  3
*D3
  1

  0
MTEXT
  5
242
100
AcDbEntity
  8
DRIVEN_DIMS
100
AcDbMText
 62
7
  6
CONTINUOUS
  7
STANDARD
 71
2
 72
1
 10
2.3810885292
 20
7.4345426019
 30
0.0
 11
1.0
 21
0.0
 31
0.0
 44
0.9
  1
38.3\P[1.51]
 40
0.1
 41
0.6
  0
LINE
  5
243
100
AcDbEntity
  8
DRIVEN_DIMS
100
AcDbLine
 62
7
  6
CONTINUOUS
 10
1.727991871
 20
6.8507265095
 11
1.727991871
 21
7.5095426019
  0
LINE
  5
244
100
AcDbEntity
  8
DRIVEN_DIMS
100
AcDbLine
 62
7
  6
CONTINUOUS
 10
3.2341851874
 20
6.8507265095
 11
3.2341851874
 21
7.5095426019
  0
LINE
  5
245
100
AcDbEntity
  8
DRIVEN_DIMS
100
AcDbLine
 62
7
  6
CONTINUOUS
 10
1.727991871
 20
7.3845426019
 11
2.0810885292
 21
7.3845426019
  0
LINE
  5
246
100
AcDbEntity
  8
DRIVEN_DIMS
100
AcDbLine
 62
7
  6
CONTINUOUS
 10
3.2341851874
 20
7.3845426019
 11
2.8810885292
 21
7.3845426019
  0
INSERT
  5
247
100
AcDbEntity
  8
DRIVEN_DIMS
100
AcDbBlockReference
 62
7
  6
CONTINUOUS
  2
_FILLED
 10
1.727991871
 20
7.3845426019
 41
0.1875
 42
0.1875
 43
0.1875
 50
180.0
  0
INSERT
  5
248
100
AcDbEntity
  8
DRIVEN_DIMS
100
AcDbBlockReference
 62
7
  6
CONTINUOUS
  2
_FILLED
 10
3.2341851874
 20
7.3845426019
 41
0.1875
 42
0.1875
 43
0.1875
  0
ENDBLK
  5
249
100
AcDbEntity
  8
0
  6
BYBLOCK
 62
0
100
AcDbBlockEnd
  0
BLOCK
  5
24A
100
AcDbEntity
  8
DRIVEN_DIMS
100
AcDbBlockBegin
 62
7
  6
CONTINUOUS
  2
*D4
 70
65
 10
0.0
 20
0.0
  3
*D4
  1

  0
MTEXT
  5
24B
100
AcDbEntity
  8
DRIVEN_DIMS
100
AcDbMText
 62
7
  6
CONTINUOUS
  7
STANDARD
 71
2
 72
1
 10
31.5627438841
 20
4.45855835
 30
0.0
 11
1.0
 21
0.0
 31
0.0
 44
0.9
  1
32.0\P[1.26]
 40
0.1
 41
0.6
  0
LINE
  5
24C
100
AcDbEntity
  8
DRIVEN_DIMS
100
AcDbLine
 62
7
  6
CONTINUOUS
 10
32.292665144
 20
4.84605835
 11
32.292665144
 21
4.28355835
  0
LINE
  5
24D
100
AcDbEntity
  8
DRIVEN_DIMS
100
AcDbLine
 62
7
  6
CONTINUOUS
 10
31.0328226243
 20
4.84605835
 11
31.0328226243
 21
4.28355835
  0
LINE
  5
24E
100
AcDbEntity
  8
DRIVEN_DIMS
100
AcDbLine
 62
7
  6
CONTINUOUS
 10
32.292665144
 20
4.40855835
 11
32.692665144
 21
4.40855835
  0
LINE
  5
24F
100
AcDbEntity
  8
DRIVEN_DIMS
100
AcDbLine
 62
7
  6
CONTINUOUS
 10
31.0328226243
 20
4.40855835
 11
30.6328226243
 21
4.40855835
  0
INSERT
  5
250
100
AcDbEntity
  8
DRIVEN_DIMS
100
AcDbBlockReference
 62
7
  6
CONTINUOUS
  2
_FILLED
 10
32.292665144
 20
4.40855835
 41
0.1875
 42
0.1875
 43
0.1875
 50
180.0
  0
INSERT
  5
251
100
AcDbEntity
  8
DRIVEN_DIMS
100
AcDbBlockReference
 62
7
  6
CONTINUOUS
  2
_FILLED
 10
31.0328226243
 20
4.40855835
 41
0.1875
 42
0.1875
 43
0.1875
  0
ENDBLK
  5
252
100
AcDbEntity
  8
0
  6
BYBLOCK
 62
0
100
AcDbBlockEnd
  0
BLOCK
  5
253
100
AcDbEntity
  8
DRIVEN_DIMS
100
AcDbBlockBegin
 62
7
  6
CONTINUOUS
  2
*D5
 70
65
 10
0.0
 20
0.0
  3
*D5
  1

  0
MTEXT
  5
254
100
AcDbEntity
  8
DRIVEN_DIMS
100
AcDbMText
 62
7
  6
CONTINUOUS
  7
STANDARD
 71
2
 72
1
 10
17.1403879299
 20
4.45855835
 30
0.0
 11
1.0
 21
0.0
 31
0.0
 44
0.9
  1
650.0\P[25.59]
 40
0.1
 41
0.7
  0
LINE
  5
255
100
AcDbEntity
  8
DRIVEN_DIMS
100
AcDbLine
 62
7
  6
CONTINUOUS
 10
4.4451123393
 20
4.8501815937
 11
4.4451123393
 21
4.28355835
  0
LINE
  5
256
100
AcDbEntity
  8
DRIVEN_DIMS
100
AcDbLine
 62
7
  6
CONTINUOUS
 10
30.0356635204
 20
4.8501815937
 11
30.0356635204
 21
4.28355835
  0
LINE
  5
257
100
AcDbEntity
  8
DRIVEN_DIMS
100
AcDbLine
 62
7
  6
CONTINUOUS
 10
4.4451123393
 20
4.40855835
 11
16.7903879299
 21
4.40855835
  0
LINE
  5
258
100
AcDbEntity
  8
DRIVEN_DIMS
100
AcDbLine
 62
7
  6
CONTINUOUS
 10
30.0356635204
 20
4.40855835
 11
17.6903879299
 21
4.40855835
  0
INSERT
  5
259
100
AcDbEntity
  8
DRIVEN_DIMS
100
AcDbBlockReference
 62
7
  6
CONTINUOUS
  2
_FILLED
 10
4.4451123393
 20
4.40855835
 41
0.1875
 42
0.1875
 43
0.1875
 50
180.0
  0
INSERT
  5
25A
100
AcDbEntity
  8
DRIVEN_DIMS
100
AcDbBlockReference
 62
7
  6
CONTINUOUS
  2
_FILLED
 10
30.0356635204
 20
4.40855835
 41
0.1875
 42
0.1875
 43
0.1875
  0
ENDBLK
  5
25B
100
AcDbEntity
  8
0
  6
BYBLOCK
 62
0
100
AcDbBlockEnd
  0
BLOCK
  5
25C
100
AcDbEntity
  8
DRIVEN_DIMS
100
AcDbBlockBegin
 62
7
  6
CONTINUOUS
  2
*D6
 70
65
 10
0.0
 20
0.0
  3
*D6
  1

  0
MTEXT
  5
25D
100
AcDbEntity
  8
DRIVEN_DIMS
100
AcDbMText
 62
7
  6
CONTINUOUS
  7
STANDARD
 71
2
 72
1
 10
5.1521989535
 20
12.5667064306
 30
0.0
 11
1.0
 21
0.0
 31
0.0
 44
0.9
  1
41.0\P[1.61]
 40
0.1
 41
0.6
  0
LINE
  5
25E
100
AcDbEntity
  8
DRIVEN_DIMS
100
AcDbLine
 62
7
  6
CONTINUOUS
 10
6.0592855677
 20
11.9249576264
 11
6.0592855677
 21
12.6417064306
  0
LINE
  5
25F
100
AcDbEntity
  8
DRIVEN_DIMS
100
AcDbLine
 62
7
  6
CONTINUOUS
 10
4.4451123393
 20
11.9519077885
 11
4.4451123393
 21
12.6417064306
  0
LINE
  5
260
100
AcDbEntity
  8
DRIVEN_DIMS
100
AcDbLine
 62
7
  6
CONTINUOUS
 10
6.0592855677
 20
12.5167064306
 11
5.6521989535
 21
12.5167064306
  0
LINE
  5
261
100
AcDbEntity
  8
DRIVEN_DIMS
100
AcDbLine
 62
7
  6
CONTINUOUS
 10
4.4451123393
 20
12.5167064306
 11
4.8521989535
 21
12.5167064306
  0
INSERT
  5
262
100
AcDbEntity
  8
DRIVEN_DIMS
100
AcDbBlockReference
 62
7
  6
CONTINUOUS
  2
_FILLED
 10
6.0592855677
 20
12.5167064306
 41
0.1875
 42
0.1875
 43
0.1875
  0
INSERT
  5
263
100
AcDbEntity
  8
DRIVEN_DIMS
100
AcDbBlockReference
 62
7
  6
CONTINUOUS
  2
_FILLED
 10
4.4451123393
 20
12.5167064306
 41
0.1875
 42
0.1875
 43
0.1875
 50
180.0
  0
ENDBLK
  5
264
100
AcDbEntity
  8
0
  6
BYBLOCK
 62
0
100
AcDbBlockEnd
  0
BLOCK
  5
265
100
AcDbEntity
  8
0
100
AcDbBlockBegin
  2
*T1
 70
1
 10
0.0
 20
0.0
  3
*T1
  1

  0
LINE
  5
266
100
AcDbEntity
  8
0
100
AcDbLine
 62
7
  6
CONTINUOUS
 10
4.35
 20
0.0
 11
-0.0
 21
0.0
  0
LINE
  5
267
100
AcDbEntity
  8
0
100
AcDbLine
 62
7
  6
CONTINUOUS
 10
4.35
 20
0.0
 11
4.35
 21
1.92
  0
LINE
  5
268
100
AcDbEntity
  8
0
100
AcDbLine
 62
7
  6
CONTINUOUS
 10
4.35
 20
1.92
 11
-0.0
 21
1.92
  0
LINE
  5
269
100
AcDbEntity
  8
0
100
AcDbLine
 62
7
  6
CONTINUOUS
 10
-0.0
 20
0.0
 11
-0.0
 21
1.92
  0
MTEXT
  5
26A
100
AcDbEntity
  8
NOTES
100
AcDbMText
 62
7
  6
CONTINUOUS
  7
STANDARD
 71
2
 72
1
 10
4.125
 20
0.48
 30
0.0
 11
1.0
 21
0.0
 31
0.0
 44
0.9
  1
A
 40
0.1
 41
0.2
  0
MTEXT
  5
26B
100
AcDbEntity
  8
NOTES
100
AcDbMText
 62
7
  6
CONTINUOUS
  7
STANDARD
 71
2
 72
1
 10
2.175
 20
1.08
 30
0.0
 11
1.0
 21
0.0
 31
0.0
 44
0.9
  1
WLB32ZC570EMQM\P 
 40
0.1
 41
2.8
  0
ENDBLK
  5
26C
100
AcDbEntity
  8
0
  6
BYBLOCK
 62
0
100
AcDbBlockEnd
  0
ENDSEC
  0
SECTION
  2
ENTITIES
  0
MTEXT
  5
26D
100
AcDbEntity
  8
0
100
AcDbMText
 62
7
  6
CONTINUOUS
  7
TEXTSTYLE_2
 71
2
 72
1
 10
28.0199216922
 20
1.6190619563
 30
0.0
 11
1.0
 21
0.0
 31
0.0
 44
0.9
  1
THIRD ANGLE PROJECTION
 40
0.1
 41
1.76
  0
MTEXT
  5
26E
100
AcDbEntity
  8
0
100
AcDbMText
 62
7
  6
CONTINUOUS
  7
STANDARD
 71
1
 72
1
 10
29.8524539446
 20
1.273495704
 30
0.0
 11
1.0
 21
0.0
 31
0.0
 44
0.9
  1
DRAWING NO.
 40
0.08
 41
0.88
  0
MTEXT
  5
26F
100
AcDbEntity
  8
0
100
AcDbMText
 62
7
  6
CONTINUOUS
  7
TEXTSTYLE_2
 71
1
 72
1
 10
29.0524539446
 20
2.033495704
 30
0.0
 11
1.0
 21
0.0
 31
0.0
 44
0.9
  1
TITLE
 40
0.1
 41
0.4
  0
MTEXT
  5
270
100
AcDbEntity
  8
0
100
AcDbMText
 62
7
  6
CONTINUOUS
  7
STANDARD
 71
1
 72
1
 10
29.0524539446
 20
1.273495704
 30
0.0
 11
1.0
 21
0.0
 31
0.0
 44
0.9
  1
SIZE
 40
0.08
 41
0.32
  0
MTEXT
  5
271
100
AcDbEntity
  8
0
100
AcDbMText
 62
7
  6
CONTINUOUS
  7
STANDARD
 71
1
 72
1
 10
29.0524539446
 20
0.903495704
 30
0.0
 11
1.0
 21
0.0
 31
0.0
 44
0.9
  1
SCALE
 40
0.08
 41
0.4
  0
MTEXT
  5
272
100
AcDbEntity
  8
0
100
AcDbMText
 62
7
  6
CONTINUOUS
  7
TEXTSTYLE_2
 71
2
 72
1
 10
29.4724539446
 20
1.153495704
 30
0.0
 11
1.0
 21
0.0
 31
0.0
 44
0.9
  1
D
 40
0.1
 41
0.08
  0
MTEXT
  5
273
100
AcDbEntity
  8
0
100
AcDbMText
 62
7
  6
CONTINUOUS
  7
STANDARD
 71
1
 72
1
 10
31.2274539446
 20
0.903495704
 30
0.0
 11
1.0
 21
0.0
 31
0.0
 44
0.9
  1
SHEET
 40
0.08
 41
0.4
  0
MTEXT
  5
274
100
AcDbEntity
  8
0
100
AcDbMText
 62
7
  6
CONTINUOUS
  7
STANDARD
 71
1
 72
1
 10
32.6024539446
 20
1.273495704
 30
0.0
 11
1.0
 21
0.0
 31
0.0
 44
0.9
  1
REV.
 40
0.08
 41
0.32
  0
MTEXT
  5
275
100
AcDbEntity
  8
0
100
AcDbMText
 62
7
  6
CONTINUOUS
  7
STANDARD
 71
3
 72
1
 10
33.3524539446
 20
0.651938704
 30
0.0
 11
1.0
 21
0.0
 31
0.0
 44
0.9
  1
CREO
 40
0.07
 41
0.28
  0
MTEXT
  5
276
100
AcDbEntity
  8
0
100
AcDbMText
 62
7
  6
CONTINUOUS
  7
TEXTSTYLE_2
 71
2
 72
1
 10
19.0799181027
 20
21.5283228612
 30
0.0
 11
1.0
 21
0.0
 31
0.0
 44
0.9
  1
4
 40
0.1
 41
0.08
  0
MTEXT
  5
277
100
AcDbEntity
  8
0
100
AcDbMText
 62
7
  6
CONTINUOUS
  7
TEXTSTYLE_2
 71
2
 72
1
 10
19.0880840042
 20
0.6094254072
 30
0.0
 11
1.0
 21
0.0
 31
0.0
 44
0.9
  1
4
 40
0.1
 41
0.08
  0
MTEXT
  5
278
100
AcDbEntity
  8
0
100
AcDbMText
 62
7
  6
CONTINUOUS
  7
TEXTSTYLE_2
 71
3
 72
1
 10
0.6480386617
 20
8.5035017283
 30
0.0
 11
1.0
 21
0.0
 31
0.0
 44
0.9
  1
B
 40
0.1
 41
0.08
  0
MTEXT
  5
279
100
AcDbEntity
  8
0
100
AcDbMText
 62
7
  6
CONTINUOUS
  7
TEXTSTYLE_2
 71
1
 72
1
 10
33.4429590822
 20
8.5003665936
 30
0.0
 11
1.0
 21
0.0
 31
0.0
 44
0.9
  1
B
 40
0.1
 41
0.08
  0
MTEXT
  5
27A
100
AcDbEntity
  8
0
100
AcDbMText
 62
7
  6
CONTINUOUS
  7
TEXTSTYLE_2
 71
3
 72
1
 10
0.6595840023
 20
3.3488782467
 30
0.0
 11
1.0
 21
0.0
 31
0.0
 44
0.9
  1
A
 40
0.1
 41
0.08
  0
MTEXT
  5
27B
100
AcDbEntity
  8
0
100
AcDbMText
 62
7
  6
CONTINUOUS
  7
TEXTSTYLE_2
 71
1
 72
1
 10
33.4700184742
 20
3.315436593
 30
0.0
 11
1.0
 21
0.0
 31
0.0
 44
0.9
  1
A
 40
0.1
 41
0.08
  0
MTEXT
  5
27C
100
AcDbEntity
  8
0
100
AcDbMText
 62
7
  6
CONTINUOUS
  7
TEXTSTYLE_2
 71
3
 72
1
 10
0.6364933212
 20
18.8127486917
 30
0.0
 11
1.0
 21
0.0
 31
0.0
 44
0.9
  1
D
 40
0.1
 41
0.08
  0
MTEXT
  5
27D
100
AcDbEntity
  8
0
100
AcDbMText
 62
7
  6
CONTINUOUS
  7
TEXTSTYLE_2
 71
1
 72
1
 10
33.4736263931
 20
18.8106959326
 30
0.0
 11
1.0
 21
0.0
 31
0.0
 44
0.9
  1
D
 40
0.1
 41
0.08
  0
MTEXT
  5
27E
100
AcDbEntity
  8
0
100
AcDbMText
 62
7
  6
CONTINUOUS
  7
TEXTSTYLE_2
 71
3
 72
1
 10
0.6191753104
 20
13.6638978803
 30
0.0
 11
1.0
 21
0.0
 31
0.0
 44
0.9
  1
C
 40
0.1
 41
0.08
  0
MTEXT
  5
27F
100
AcDbEntity
  8
0
100
AcDbMText
 62
7
  6
CONTINUOUS
  7
TEXTSTYLE_2
 71
1
 72
1
 10
33.453782839
 20
13.6528253239
 30
0.0
 11
1.0
 21
0.0
 31
0.0
 44
0.9
  1
C
 40
0.1
 41
0.08
  0
MTEXT
  5
280
100
AcDbEntity
  8
0
100
AcDbMText
 62
7
  6
CONTINUOUS
  7
TEXTSTYLE_2
 71
2
 72
1
 10
23.1665713531
 20
0.6088852669
 30
0.0
 11
1.0
 21
0.0
 31
0.0
 44
0.9
  1
3
 40
0.1
 41
0.08
  0
MTEXT
  5
281
100
AcDbEntity
  8
0
100
AcDbMText
 62
7
  6
CONTINUOUS
  7
TEXTSTYLE_2
 71
2
 72
1
 10
23.1589893446
 20
21.5290464197
 30
0.0
 11
1.0
 21
0.0
 31
0.0
 44
0.9
  1
3
 40
0.1
 41
0.08
  0
MTEXT
  5
282
100
AcDbEntity
  8
0
100
AcDbMText
 62
7
  6
CONTINUOUS
  7
TEXTSTYLE_2
 71
2
 72
1
 10
27.2361235997
 20
21.5290464197
 30
0.0
 11
1.0
 21
0.0
 31
0.0
 44
0.9
  1
2
 40
0.1
 41
0.08
  0
MTEXT
  5
283
100
AcDbEntity
  8
0
100
AcDbMText
 62
7
  6
CONTINUOUS
  7
TEXTSTYLE_2
 71
2
 72
1
 10
27.2374923476
 20
0.6094254072
 30
0.0
 11
1.0
 21
0.0
 31
0.0
 44
0.9
  1
2
 40
0.1
 41
0.08
  0
MTEXT
  5
284
100
AcDbEntity
  8
0
100
AcDbMText
 62
7
  6
CONTINUOUS
  7
TEXTSTYLE_2
 71
2
 72
1
 10
31.3205521496
 20
0.6089620551
 30
0.0
 11
1.0
 21
0.0
 31
0.0
 44
0.9
  1
1
 40
0.1
 41
0.08
  0
MTEXT
  5
285
100
AcDbEntity
  8
0
100
AcDbMText
 62
7
  6
CONTINUOUS
  7
TEXTSTYLE_2
 71
2
 72
1
 10
31.3123769947
 20
21.5290464197
 30
0.0
 11
1.0
 21
0.0
 31
0.0
 44
0.9
  1
1
 40
0.1
 41
0.08
  0
MTEXT
  5
286
100
AcDbEntity
  8
0
100
AcDbMText
 62
7
  6
CONTINUOUS
  7
TEXTSTYLE_2
 71
2
 72
1
 10
2.7773437197
 20
0.6087916636
 30
0.0
 11
1.0
 21
0.0
 31
0.0
 44
0.9
  1
8
 40
0.1
 41
0.08
  0
MTEXT
  5
287
100
AcDbEntity
  8
0
100
AcDbMText
 62
7
  6
CONTINUOUS
  7
TEXTSTYLE_2
 71
2
 72
1
 10
6.8552201462
 20
0.60942077
 30
0.0
 11
1.0
 21
0.0
 31
0.0
 44
0.9
  1
7
 40
0.1
 41
0.08
  0
MTEXT
  5
288
100
AcDbEntity
  8
0
100
AcDbMText
 62
7
  6
CONTINUOUS
  7
TEXTSTYLE_2
 71
2
 72
1
 10
10.9328507889
 20
0.6085710197
 30
0.0
 11
1.0
 21
0.0
 31
0.0
 44
0.9
  1
6
 40
0.1
 41
0.08
  0
MTEXT
  5
289
100
AcDbEntity
  8
0
100
AcDbMText
 62
7
  6
CONTINUOUS
  7
TEXTSTYLE_2
 71
2
 72
1
 10
15.0081998089
 20
0.6094254072
 30
0.0
 11
1.0
 21
0.0
 31
0.0
 44
0.9
  1
5
 40
0.1
 41
0.08
  0
MTEXT
  5
28A
100
AcDbEntity
  8
0
100
AcDbMText
 62
7
  6
CONTINUOUS
  7
TEXTSTYLE_2
 71
2
 72
1
 10
15.0005223841
 20
21.5287831767
 30
0.0
 11
1.0
 21
0.0
 31
0.0
 44
0.9
  1
5
 40
0.1
 41
0.08
  0
MTEXT
  5
28B
100
AcDbEntity
  8
0
100
AcDbMText
 62
7
  6
CONTINUOUS
  7
TEXTSTYLE_2
 71
2
 72
1
 10
10.9235957613
 20
21.5293152857
 30
0.0
 11
1.0
 21
0.0
 31
0.0
 44
0.9
  1
6
 40
0.1
 41
0.08
  0
MTEXT
  5
28C
100
AcDbEntity
  8
0
100
AcDbMText
 62
7
  6
CONTINUOUS
  7
TEXTSTYLE_2
 71
2
 72
1
 10
6.8472012476
 20
21.5293152857
 30
0.0
 11
1.0
 21
0.0
 31
0.0
 44
0.9
  1
7
 40
0.1
 41
0.08
  0
MTEXT
  5
28D
100
AcDbEntity
  8
0
100
AcDbMText
 62
7
  6
CONTINUOUS
  7
TEXTSTYLE_2
 71
2
 72
1
 10
2.7707198944
 20
21.5289567604
 30
0.0
 11
1.0
 21
0.0
 31
0.0
 44
0.9
  1
8
 40
0.1
 41
0.08
  0
MTEXT
  5
28E
100
AcDbEntity
  8
0
100
AcDbMText
 62
7
  6
CONTINUOUS
  7
STANDARD
 71
1
 72
1
 10
29.5773663078
 20
0.8719064971
 30
0.0
 11
1.0
 21
0.0
 31
0.0
 44
0.9
  1
1:1
 40
0.1
 41
0.3
  0
MTEXT
  5
28F
100
AcDbEntity
  8
0
100
AcDbMText
 62
7
  6
CONTINUOUS
  7
STANDARD
 71
1
 72
1
 10
31.7523663078
 20
0.8719064971
 30
0.0
 11
1.0
 21
0.0
 31
0.0
 44
0.9
  1
1 OF 1
 40
0.1
 41
0.6
  0
MTEXT
  5
290
100
AcDbEntity
  8
0
100
AcDbMText
 62
7
  6
CONTINUOUS
  7
STANDARD
 71
1
 72
1
 10
30.7305616821
 20
1.1832781328
 30
0.0
 11
1.0
 21
0.0
 31
0.0
 44
0.9
  1
194685
 40
0.12
 41
0.72
  0
MTEXT
  5
291
100
AcDbEntity
  8
0
100
AcDbMText
 62
7
  6
CONTINUOUS
  7
STANDARD
 71
1
 72
1
 10
1.0462021158
 20
1.4062672766
 30
0.0
 11
1.0
 21
0.0
 31
0.0
 44
0.9
  1
NOTES:\P1. ALL DIMENSIONS ARE MILLIMETERS [INCHES] UNLESS OTHERWISE NOTED.\P2. REFER TO "www.bannerengineering.com" FOR ADDITIONAL DATA AND SPECIFICATIONS.
 40
0.1
 41
7.9
  0
MTEXT
  5
292
100
AcDbEntity
  8
0
100
AcDbMText
 62
7
  6
CONTINUOUS
  7
TEXTSTYLE_3
 71
2
 72
1
 10
32.082830104
 20
2.4898011248
 30
0.0
 11
1.0
 21
0.0
 31
0.0
 44
0.9
  1
BANNER ENGINEERING CORP.
 40
0.12
 41
2.592
  0
MTEXT
  5
293
100
AcDbEntity
  8
0
100
AcDbMText
 62
7
  6
CONTINUOUS
  7
TEXTSTYLE_2
 71
2
 72
1
 10
32.0561063372
 20
2.2733590015
 30
0.0
 11
1.0
 21
0.0
 31
0.0
 44
0.9
  1
www.bannerengineering.com
 40
0.1
 41
2.0
  0
MTEXT
  5
294
100
AcDbEntity
  8
0
100
AcDbMText
 62
7
  6
CONTINUOUS
  7
TEXTSTYLE_4
 71
2
 72
1
 10
28.0052134113
 20
2.5785938067
 30
0.0
 11
1.0
 21
0.0
 31
0.0
 44
0.9
  1
This drawing is the property\Pof BANNER ENGINEERING CORP.\PAny use or reproduction,\Pin any form, without prior\Pwritten permission of\PBanner is prohibited.
 40
0.08
 41
1.904
  0
MTEXT
  5
295
100
AcDbEntity
  8
0
100
AcDbMText
 62
7
  6
CONTINUOUS
  7
TEXTSTYLE_5
 71
2
 72
1
 10
28.023149892
 20
1.8440536882
 30
0.0
 11
1.0
 21
0.0
 31
0.0
 44
0.9
  1
C  2015 Banner Engineering Corp.
 40
0.08
 41
1.92
  0
DIMENSION
  5
296
100
AcDbEntity
  8
DRIVEN_DIMS
100
AcDbDimension
 62
7
  6
CONTINUOUS
  2
*D0
 10
3.9451123393
 20
4.9126815937
 11
3.9451123393
 21
5.8236120978
 70
160
 71
2
 42
50.0852696104
  3
DIMSTYLE_1
100
AcDbAlignedDimension
 13
5.9588540531
 23
6.8845426019
 14
4.4451089393
 24
4.9126815937
 50
270.0
100
AcDbRotatedDimension
  0
DIMENSION
  5
297
100
AcDbEntity
  8
DRIVEN_DIMS
100
AcDbDimension
 62
7
  6
CONTINUOUS
  2
*D1
 10
1.227991871
 20
4.90855835
 11
1.227991871
 21
5.7784402397
 70
160
 71
2
 42
48.0
  3
DIMSTYLE_1
100
AcDbAlignedDimension
 13
1.7852628594
 23
6.7983221295
 14
1.8511638693
 24
4.90855835
 50
270.0
100
AcDbRotatedDimension
  0
DIMENSION
  5
298
100
AcDbEntity
  8
DRIVEN_DIMS
100
AcDbDimension
 62
7
  6
CONTINUOUS
  2
*D2
 10
32.9158405423
 20
4.90855835
 11
32.9158405423
 21
5.739070161
 70
160
 71
2
 42
46.0
  3
DIMSTYLE_1
100
AcDbAlignedDimension
 13
31.6627472841
 23
6.719581972
 14
32.292668544
 24
4.90855835
 50
270.0
100
AcDbRotatedDimension
  0
DIMENSION
  5
299
100
AcDbEntity
  8
DRIVEN_DIMS
100
AcDbDimension
 62
7
  6
CONTINUOUS
  2
*D3
 10
3.2341851874
 20
7.3845426019
 11
2.4810885292
 21
7.3095426019
 70
160
 71
2
 42
38.2573102367
  3
DIMSTYLE_1
100
AcDbAlignedDimension
 13
1.727991871
 23
6.7882265095
 14
3.2341851874
 24
6.7882265095
100
AcDbRotatedDimension
  0
DIMENSION
  5
29A
100
AcDbEntity
  8
DRIVEN_DIMS
100
AcDbDimension
 62
7
  6
CONTINUOUS
  2
*D4
 10
31.0328226243
 20
4.40855835
 11
31.6627438841
 21
4.33355835
 70
160
 71
2
 42
32.0
  3
DIMSTYLE_1
100
AcDbAlignedDimension
 13
32.292665144
 23
4.90855835
 14
31.0328226243
 24
4.90855835
 50
180.0
100
AcDbRotatedDimension
  0
DIMENSION
  5
29B
100
AcDbEntity
  8
DRIVEN_DIMS
100
AcDbDimension
 62
7
  6
CONTINUOUS
  2
*D5
 10
30.0356635204
 20
4.40855835
 11
17.2403879299
 21
4.33355835
 70
160
 71
2
 42
650.0
  3
DIMSTYLE_1
100
AcDbAlignedDimension
 13
4.4451123393
 23
4.9126815937
 14
30.0356635204
 24
4.9126815937
100
AcDbRotatedDimension
  0
DIMENSION
  5
29C
100
AcDbEntity
  8
DRIVEN_DIMS
100
AcDbDimension
 62
7
  6
CONTINUOUS
  2
*D6
 10
4.4451123393
 20
12.5167064306
 11
5.2521989535
 21
12.4417064306
 70
160
 71
2
 42
41.0
  3
DIMSTYLE_1
100
AcDbAlignedDimension
 13
6.0592855677
 23
11.8624576264
 14
4.4451123393
 24
11.8894077885
 50
180.0
100
AcDbRotatedDimension
  0
ACAD_TABLE
  5
29D
100
AcDbEntity
  8
0
 62
7
  6
CONTINUOUS
100
AcDbBlockReference
  2
*T1
 10
29.0019788236
 20
0.7034944495
 30
0.0
100
AcDbTable
342
       76F
343
220
 11
1.0
 21
0.0
 31
0.0
 90
6
 91
3
 92
5
 93
4
 94
0
 95
0
 96
0
 70
1
141
0.33
141
0.45
141
1.14
142
0.65
142
1.15
142
1.025
142
1.075
142
0.45
171
1
172
0
173
0
174
0
175
1
176
1
177
33
178
0
145
0.0
  1
 
170
1
140
0.1
171
1
172
0
173
0
174
0
175
1
176
1
177
33
178
0
145
0.0
  1
 
170
1
140
0.1
171
1
172
0
173
0
174
0
175
1
176
1
177
33
178
0
145
0.0
  1
 
170
1
140
0.1
171
1
172
0
173
0
174
0
175
1
176
1
177
33
178
0
145
0.0
  1
 
170
1
140
0.1
171
1
172
0
173
0
174
0
175
1
176
1
177
33
178
0
145
0.0
  1
 
170
1
140
0.1
171
1
172
0
173
0
174
0
175
1
176
1
177
33
178
0
145
0.0
  1
 
170
1
140
0.1
171
1
172
0
173
0
174
0
175
1
176
1
177
33
178
0
145
0.0
  1
 
170
1
140
0.1
171
1
172
0
173
0
174
0
175
1
176
1
177
33
178
0
145
0.0
  1
 
170
1
140
0.1
171
1
172
0
173
0
174
0
175
1
176
1
177
33
178
0
145
0.0
  1
 
170
1
140
0.1
171
1
172
0
173
0
174
0
175
1
176
1
177
41
178
0
145
0.0
  1
A
170
8
140
0.1
 64
7
171
1
172
0
173
0
174
0
175
5
176
1
177
33
178
0
145
0.0
  1
WLB32ZC570EMQM\P 
170
8
140
0.1
171
1
172
0
173
1
174
0
175
1
176
1
177
1
178
0
145
0.0
170
1
171
1
172
0
173
1
174
0
175
1
176
1
177
1
178
0
145
0.0
170
1
171
1
172
0
173
1
174
0
175
1
176
1
177
1
178
0
145
0.0
170
1
171
1
172
0
173
1
174
0
175
1
176
1
177
1
178
0
145
0.0
170
8
  0
MTEXT
  5
29E
100
AcDbEntity
  8
NOTES
100
AcDbMText
 62
7
  6
CONTINUOUS
  7
STANDARD
 71
2
 72
1
 10
17.446124143
 20
15.7054873692
 30
0.0
 11
1.0
 21
0.0
 31
0.0
 44
0.9
  1
ISOMETRIC VIEW\P\H0.1;SCALE  1:1
 40
0.125
 41
1.75
  0
LINE
  5
29F
100
AcDbEntity
  8
0
100
AcDbLine
 62
7
  6
CONTINUOUS
 10
0.5864933212
 20
11.1116437989
 11
0.5864933212
 21
10.9384377989
  0
LINE
  5
2A0
100
AcDbEntity
  8
0
100
AcDbLine
 62
7
  6
CONTINUOUS
 10
0.7364933212
 20
21.3366775222
 11
0.7364933212
 21
0.703495704
  0
LINE
  5
2A1
100
AcDbEntity
  8
0
100
AcDbLine
 62
7
  6
CONTINUOUS
 10
4.8131450808
 20
21.3363920353
 11
4.8131450808
 21
21.5863920353
  0
LINE
  5
2A2
100
AcDbEntity
  8
0
100
AcDbLine
 62
7
  6
CONTINUOUS
 10
4.8132098641
 20
0.7041934146
 11
4.8132098641
 21
0.4541934146
  0
LINE
  5
2A3
100
AcDbEntity
  8
0
100
AcDbLine
 62
7
  6
CONTINUOUS
 10
28.1301066922
 20
1.2501869563
 11
28.7364976922
 21
1.3195799563
  0
LINE
  5
2A4
100
AcDbEntity
  8
0
100
AcDbLine
 62
7
  6
CONTINUOUS
 10
16.957916919
 20
0.5535279135
 11
17.131122919
 21
0.5535279135
  0
LINE
  5
2A5
100
AcDbEntity
  8
0
100
AcDbLine
 62
7
  6
CONTINUOUS
 10
0.7364933212
 20
0.703495704
 11
33.3519788796
 21
0.703495704
  0
LINE
  5
2A6
100
AcDbEntity
  8
0
100
AcDbLine
 62
7
  6
CONTINUOUS
 10
29.0024539446
 20
0.953495704
 11
33.3524539446
 21
0.953495704
  0
LINE
  5
2A7
100
AcDbEntity
  8
0
100
AcDbLine
 62
7
  6
CONTINUOUS
 10
27.2033456922
 20
1.0674889563
 11
27.4254366922
 21
1.0674889563
  0
LINE
  5
2A8
100
AcDbEntity
  8
0
100
AcDbLine
 62
7
  6
CONTINUOUS
 10
27.4754366922
 20
1.0674889563
 11
27.5754366922
 21
1.0674889563
  0
LINE
  5
2A9
100
AcDbEntity
  8
0
100
AcDbLine
 62
7
  6
CONTINUOUS
 10
27.6254366922
 20
1.0674889563
 11
27.8475276922
 21
1.0674889563
  0
LINE
  5
2AA
100
AcDbEntity
  8
0
100
AcDbLine
 62
7
  6
CONTINUOUS
 10
28.0301066922
 20
1.0674889563
 11
28.3082586922
 21
1.0674889563
  0
LINE
  5
2AB
100
AcDbEntity
  8
0
100
AcDbLine
 62
7
  6
CONTINUOUS
 10
28.3582586922
 20
1.0674889563
 11
28.5083446922
 21
1.0674889563
  0
LINE
  5
2AC
100
AcDbEntity
  8
0
100
AcDbLine
 62
7
  6
CONTINUOUS
 10
28.5583446922
 20
1.0674889563
 11
28.8364976922
 21
1.0674889563
  0
LINE
  5
2AD
100
AcDbEntity
  8
0
100
AcDbLine
 62
7
  6
CONTINUOUS
 10
29.0024539446
 20
1.323495704
 11
33.3524539446
 21
1.323495704
  0
LINE
  5
2AE
100
AcDbEntity
  8
0
100
AcDbLine
 62
7
  6
CONTINUOUS
 10
0.5864933212
 20
10.9384377989
 11
0.7364933212
 21
11.0250407989
  0
LINE
  5
2AF
100
AcDbEntity
  8
0
100
AcDbLine
 62
7
  6
CONTINUOUS
 10
27.0024539446
 20
1.723495704
 11
29.0024539446
 21
1.723495704
  0
LINE
  5
2B0
100
AcDbEntity
  8
0
100
AcDbLine
 62
7
  6
CONTINUOUS
 10
29.0024539446
 20
2.083495704
 11
33.3524539446
 21
2.083495704
  0
LINE
  5
2B1
100
AcDbEntity
  8
0
100
AcDbLine
 62
7
  6
CONTINUOUS
 10
30.5661261778
 20
2.3081272989
 11
30.5187621516
 21
2.3081272989
  0
LINE
  5
2B2
100
AcDbEntity
  8
0
100
AcDbLine
 62
7
  6
CONTINUOUS
 10
30.4748711272
 20
2.3081272989
 11
30.3613000642
 21
2.3081272989
  0
LINE
  5
2B3
100
AcDbEntity
  8
0
100
AcDbLine
 62
7
  6
CONTINUOUS
 10
30.3323960482
 20
2.3081272989
 11
30.1291839355
 21
2.3081272989
  0
LINE
  5
2B4
100
AcDbEntity
  8
0
100
AcDbLine
 62
7
  6
CONTINUOUS
 10
30.0787109075
 20
2.3081272989
 11
30.0045048664
 21
2.3081272989
  0
LINE
  5
2B5
100
AcDbEntity
  8
0
100
AcDbLine
 62
7
  6
CONTINUOUS
 10
29.9581248406
 20
2.3081272989
 11
29.8824607987
 21
2.3081272989
  0
LINE
  5
2B6
100
AcDbEntity
  8
0
100
AcDbLine
 62
7
  6
CONTINUOUS
 10
29.8304577698
 20
2.3081272989
 11
29.7562527287
 21
2.3081272989
  0
LINE
  5
2B7
100
AcDbEntity
  8
0
100
AcDbLine
 62
7
  6
CONTINUOUS
 10
29.709871703
 20
2.3081272989
 11
29.634207661
 21
2.3081272989
  0
LINE
  5
2B8
100
AcDbEntity
  8
0
100
AcDbLine
 62
7
  6
CONTINUOUS
 10
29.1673724021
 20
2.3081272989
 11
29.3438185
 21
2.3081272989
  0
LINE
  5
2B9
100
AcDbEntity
  8
0
100
AcDbLine
 62
7
  6
CONTINUOUS
 10
29.4013555319
 20
2.3081272989
 11
29.4787315748
 21
2.3081272989
  0
LINE
  5
2BA
100
AcDbEntity
  8
0
100
AcDbLine
 62
7
  6
CONTINUOUS
 10
29.499017586
 20
2.3081272989
 11
29.6042986444
 21
2.3081272989
  0
LINE
  5
2BB
100
AcDbEntity
  8
0
100
AcDbLine
 62
7
  6
CONTINUOUS
 10
30.4502121135
 20
2.3328553126
 11
30.4748711272
 21
2.3328553126
  0
LINE
  5
2BC
100
AcDbEntity
  8
0
100
AcDbLine
 62
7
  6
CONTINUOUS
 10
29.6042986444
 20
2.3328773126
 11
29.5842826333
 21
2.3328773126
  0
LINE
  5
2BD
100
AcDbEntity
  8
0
100
AcDbLine
 62
7
  6
CONTINUOUS
 10
29.5134685941
 20
2.3328773126
 11
29.499017586
 21
2.3328773126
  0
LINE
  5
2BE
100
AcDbEntity
  8
0
100
AcDbLine
 62
7
  6
CONTINUOUS
 10
29.4787315748
 20
2.3328773126
 11
29.4674485685
 21
2.3328773126
  0
LINE
  5
2BF
100
AcDbEntity
  8
0
100
AcDbLine
 62
7
  6
CONTINUOUS
 10
29.4242165446
 20
2.3328773126
 11
29.4013555319
 21
2.3328773126
  0
LINE
  5
2C0
100
AcDbEntity
  8
0
100
AcDbLine
 62
7
  6
CONTINUOUS
 10
29.2981404746
 20
2.3328773126
 11
29.2567774517
 21
2.3328773126
  0
LINE
  5
2C1
100
AcDbEntity
  8
0
100
AcDbLine
 62
7
  6
CONTINUOUS
 10
29.1913144154
 20
2.3328773126
 11
29.1673724021
 21
2.3328773126
  0
LINE
  5
2C2
100
AcDbEntity
  8
0
100
AcDbLine
 62
7
  6
CONTINUOUS
 10
29.634207661
 20
2.3328773126
 11
29.6528546714
 21
2.3328773126
  0
LINE
  5
2C3
100
AcDbEntity
  8
0
100
AcDbLine
 62
7
  6
CONTINUOUS
 10
29.6895546917
 20
2.3328773126
 11
29.709871703
 21
2.3328773126
  0
LINE
  5
2C4
100
AcDbEntity
  8
0
100
AcDbLine
 62
7
  6
CONTINUOUS
 10
29.8824607987
 20
2.3328773126
 11
29.901106809
 21
2.3328773126
  0
LINE
  5
2C5
100
AcDbEntity
  8
0
100
AcDbLine
 62
7
  6
CONTINUOUS
 10
29.9378078294
 20
2.3328773126
 11
29.9581248406
 21
2.3328773126
  0
LINE
  5
2C6
100
AcDbEntity
  8
0
100
AcDbLine
 62
7
  6
CONTINUOUS
 10
30.1291839355
 20
2.3328773126
 11
30.1531069488
 21
2.3328773126
  0
LINE
  5
2C7
100
AcDbEntity
  8
0
100
AcDbLine
 62
7
  6
CONTINUOUS
 10
30.2201229859
 20
2.3328773126
 11
30.285127022
 21
2.3328773126
  0
LINE
  5
2C8
100
AcDbEntity
  8
0
100
AcDbLine
 62
7
  6
CONTINUOUS
 10
30.3613000642
 20
2.3328773126
 11
30.3840460768
 21
2.3328773126
  0
LINE
  5
2C9
100
AcDbEntity
  8
0
100
AcDbLine
 62
7
  6
CONTINUOUS
 10
30.5671491784
 20
2.3332643128
 11
30.568258179
 21
2.3332643128
  0
LINE
  5
2CA
100
AcDbEntity
  8
0
100
AcDbLine
 62
7
  6
CONTINUOUS
 10
30.2900770247
 20
2.3460773199
 11
30.3323960482
 21
2.3460773199
  0
LINE
  5
2CB
100
AcDbEntity
  8
0
100
AcDbLine
 62
7
  6
CONTINUOUS
 10
29.4729645716
 20
2.3465213202
 11
29.5078425909
 21
2.3465213202
  0
LINE
  5
2CC
100
AcDbEntity
  8
0
100
AcDbLine
 62
7
  6
CONTINUOUS
 10
30.579013185
 20
2.3470143205
 11
30.5911231917
 21
2.3470143205
  0
LINE
  5
2CD
100
AcDbEntity
  8
0
100
AcDbLine
 62
7
  6
CONTINUOUS
 10
30.4778191288
 20
2.3475043207
 11
30.4502121135
 21
2.3475043207
  0
LINE
  5
2CE
100
AcDbEntity
  8
0
100
AcDbLine
 62
7
  6
CONTINUOUS
 10
30.2552900054
 20
2.3493773218
 11
30.2201229859
 21
2.3493773218
  0
LINE
  5
2CF
100
AcDbEntity
  8
0
100
AcDbLine
 62
7
  6
CONTINUOUS
 10
29.2567774517
 20
2.3502023222
 11
29.2981404746
 21
2.3502023222
  0
LINE
  5
2D0
100
AcDbEntity
  8
0
100
AcDbLine
 62
7
  6
CONTINUOUS
 10
30.4841491324
 20
2.3665073313
 11
30.4502121135
 21
2.3665073313
  0
LINE
  5
2D1
100
AcDbEntity
  8
0
100
AcDbLine
 62
7
  6
CONTINUOUS
 10
29.2567774517
 20
2.3668573315
 11
29.2981404746
 21
2.3668573315
  0
LINE
  5
2D2
100
AcDbEntity
  8
0
100
AcDbLine
 62
7
  6
CONTINUOUS
 10
29.4814805763
 20
2.3674713318
 11
29.5020375877
 21
2.3674713318
  0
LINE
  5
2D3
100
AcDbEntity
  8
0
100
AcDbLine
 62
7
  6
CONTINUOUS
 10
30.2201229859
 20
2.3676823319
 11
30.2552900054
 21
2.3676823319
  0
LINE
  5
2D4
100
AcDbEntity
  8
0
100
AcDbLine
 62
7
  6
CONTINUOUS
 10
30.3309770474
 20
2.3709823337
 11
30.2891130242
 21
2.3709823337
  0
LINE
  5
2D5
100
AcDbEntity
  8
0
100
AcDbLine
 62
7
  6
CONTINUOUS
 10
29.4947785837
 20
2.3836383408
 11
29.4885975803
 21
2.3836383408
  0
LINE
  5
2D6
100
AcDbEntity
  8
0
100
AcDbLine
 62
7
  6
CONTINUOUS
 10
30.3840460768
 20
2.3841823411
 11
30.3613000642
 21
2.3841823411
  0
LINE
  5
2D7
100
AcDbEntity
  8
0
100
AcDbLine
 62
7
  6
CONTINUOUS
 10
30.2841630215
 20
2.3841823411
 11
30.2201229859
 21
2.3841823411
  0
LINE
  5
2D8
100
AcDbEntity
  8
0
100
AcDbLine
 62
7
  6
CONTINUOUS
 10
30.1531069488
 20
2.3841823411
 11
30.1291839355
 21
2.3841823411
  0
LINE
  5
2D9
100
AcDbEntity
  8
0
100
AcDbLine
 62
7
  6
CONTINUOUS
 10
30.1015939202
 20
2.3841823411
 11
30.0836609103
 21
2.3841823411
  0
LINE
  5
2DA
100
AcDbEntity
  8
0
100
AcDbLine
 62
7
  6
CONTINUOUS
 10
30.0463688896
 20
2.3841823411
 11
30.0275928792
 21
2.3841823411
  0
LINE
  5
2DB
100
AcDbEntity
  8
0
100
AcDbLine
 62
7
  6
CONTINUOUS
 10
29.901106809
 20
2.3841823411
 11
29.8824607987
 21
2.3841823411
  0
LINE
  5
2DC
100
AcDbEntity
  8
0
100
AcDbLine
 62
7
  6
CONTINUOUS
 10
29.8533407825
 20
2.3841823411
 11
29.8354077726
 21
2.3841823411
  0
LINE
  5
2DD
100
AcDbEntity
  8
0
100
AcDbLine
 62
7
  6
CONTINUOUS
 10
29.7981157519
 20
2.3841823411
 11
29.7793397415
 21
2.3841823411
  0
LINE
  5
2DE
100
AcDbEntity
  8
0
100
AcDbLine
 62
7
  6
CONTINUOUS
 10
29.6528546714
 20
2.3841823411
 11
29.634207661
 21
2.3841823411
  0
LINE
  5
2DF
100
AcDbEntity
  8
0
100
AcDbLine
 62
7
  6
CONTINUOUS
 10
29.2981404746
 20
2.3841823411
 11
29.2567774517
 21
2.3841823411
  0
LINE
  5
2E0
100
AcDbEntity
  8
0
100
AcDbLine
 62
7
  6
CONTINUOUS
 10
29.1673724021
 20
2.3841823411
 11
29.1913144154
 21
2.3841823411
  0
LINE
  5
2E1
100
AcDbEntity
  8
0
100
AcDbLine
 62
7
  6
CONTINUOUS
 10
30.4502121135
 20
2.3841823411
 11
30.4870131339
 21
2.3841823411
  0
LINE
  5
2E2
100
AcDbEntity
  8
0
100
AcDbLine
 62
7
  6
CONTINUOUS
 10
29.5323716045
 20
2.4089323548
 11
29.4751965728
 21
2.4089323548
  0
LINE
  5
2E3
100
AcDbEntity
  8
0
100
AcDbLine
 62
7
  6
CONTINUOUS
 10
29.3334354942
 20
2.4089323548
 11
29.1673724021
 21
2.4089323548
  0
LINE
  5
2E4
100
AcDbEntity
  8
0
100
AcDbLine
 62
7
  6
CONTINUOUS
 10
29.634207661
 20
2.4089323548
 11
29.7346657167
 21
2.4089323548
  0
LINE
  5
2E5
100
AcDbEntity
  8
0
100
AcDbLine
 62
7
  6
CONTINUOUS
 10
29.7793397415
 20
2.4089323548
 11
29.8533407825
 21
2.4089323548
  0
LINE
  5
2E6
100
AcDbEntity
  8
0
100
AcDbLine
 62
7
  6
CONTINUOUS
 10
29.8824607987
 20
2.4089323548
 11
29.9829188544
 21
2.4089323548
  0
LINE
  5
2E7
100
AcDbEntity
  8
0
100
AcDbLine
 62
7
  6
CONTINUOUS
 10
30.0275928792
 20
2.4089323548
 11
30.1015939202
 21
2.4089323548
  0
LINE
  5
2E8
100
AcDbEntity
  8
0
100
AcDbLine
 62
7
  6
CONTINUOUS
 10
30.1291839355
 20
2.4089323548
 11
30.3309770474
 21
2.4089323548
  0
LINE
  5
2E9
100
AcDbEntity
  8
0
100
AcDbLine
 62
7
  6
CONTINUOUS
 10
30.3613000642
 20
2.4089323548
 11
30.5108811472
 21
2.4089323548
  0
LINE
  5
2EA
100
AcDbEntity
  8
0
100
AcDbLine
 62
7
  6
CONTINUOUS
 10
29.3627025104
 20
2.3544433246
 11
29.3526515049
 21
2.3579923265
  0
LINE
  5
2EB
100
AcDbEntity
  8
0
100
AcDbLine
 62
7
  6
CONTINUOUS
 10
29.7545437277
 20
2.3088112993
 11
29.6912636927
 21
2.3691893327
  0
LINE
  5
2EC
100
AcDbEntity
  8
0
100
AcDbLine
 62
7
  6
CONTINUOUS
 10
29.7363737177
 20
2.4082483544
 11
29.796406751
 21
2.3509683226
  0
LINE
  5
2ED
100
AcDbEntity
  8
0
100
AcDbLine
 62
7
  6
CONTINUOUS
 10
30.0027968654
 20
2.3088112993
 11
29.9395168303
 21
2.3691893327
  0
LINE
  5
2EE
100
AcDbEntity
  8
0
100
AcDbLine
 62
7
  6
CONTINUOUS
 10
29.9846268553
 20
2.4082483544
 11
30.0446598886
 21
2.3509683226
  0
LINE
  5
2EF
100
AcDbEntity
  8
0
100
AcDbLine
 62
7
  6
CONTINUOUS
 10
29.5099205921
 20
2.3453903196
 11
29.5155465952
 21
2.3366973147
  0
LINE
  5
2F0
100
AcDbEntity
  8
0
100
AcDbLine
 62
7
  6
CONTINUOUS
 10
29.5041155889
 20
2.3712913339
 11
29.4968565848
 21
2.3825073401
  0
LINE
  5
2F1
100
AcDbEntity
  8
0
100
AcDbLine
 62
7
  6
CONTINUOUS
 10
29.5822056322
 20
2.3340073132
 11
29.5344496057
 21
2.4078023542
  0
LINE
  5
2F2
100
AcDbEntity
  8
0
100
AcDbLine
 62
7
  6
CONTINUOUS
 10
30.4994581408
 20
2.3261733089
 11
30.4976541398
 21
2.3322423123
  0
LINE
  5
2F3
100
AcDbEntity
  8
0
100
AcDbLine
 62
7
  6
CONTINUOUS
 10
29.1648974007
 20
2.4064573534
 11
29.1648974007
 21
2.3866573424
  0
LINE
  5
2F4
100
AcDbEntity
  8
0
100
AcDbLine
 62
7
  6
CONTINUOUS
 10
29.1648974007
 20
2.3304023112
 11
29.1648974007
 21
2.3106023003
  0
LINE
  5
2F5
100
AcDbEntity
  8
0
100
AcDbLine
 62
7
  6
CONTINUOUS
 10
29.1937894168
 20
2.3817073397
 11
29.1937894168
 21
2.335352314
  0
LINE
  5
2F6
100
AcDbEntity
  8
0
100
AcDbLine
 62
7
  6
CONTINUOUS
 10
29.2543024503
 20
2.3817073397
 11
29.2543024503
 21
2.3693323328
  0
LINE
  5
2F7
100
AcDbEntity
  8
0
100
AcDbLine
 62
7
  6
CONTINUOUS
 10
29.2543024503
 20
2.335352314
 11
29.2543024503
 21
2.3477273208
  0
LINE
  5
2F8
100
AcDbEntity
  8
0
100
AcDbLine
 62
7
  6
CONTINUOUS
 10
29.3988805305
 20
2.3304023112
 11
29.3988805305
 21
2.3106023003
  0
LINE
  5
2F9
100
AcDbEntity
  8
0
100
AcDbLine
 62
7
  6
CONTINUOUS
 10
29.4812065762
 20
2.3106023003
 11
29.4812065762
 21
2.3304023112
  0
LINE
  5
2FA
100
AcDbEntity
  8
0
100
AcDbLine
 62
7
  6
CONTINUOUS
 10
29.4965425847
 20
2.3304023112
 11
29.4965425847
 21
2.3106023003
  0
LINE
  5
2FB
100
AcDbEntity
  8
0
100
AcDbLine
 62
7
  6
CONTINUOUS
 10
29.6067736458
 20
2.3106023003
 11
29.6067736458
 21
2.3304023112
  0
LINE
  5
2FC
100
AcDbEntity
  8
0
100
AcDbLine
 62
7
  6
CONTINUOUS
 10
29.6317326596
 20
2.3106023003
 11
29.6317326596
 21
2.3304023112
  0
LINE
  5
2FD
100
AcDbEntity
  8
0
100
AcDbLine
 62
7
  6
CONTINUOUS
 10
29.6317326596
 20
2.3866573424
 11
29.6317326596
 21
2.4064573534
  0
LINE
  5
2FE
100
AcDbEntity
  8
0
100
AcDbLine
 62
7
  6
CONTINUOUS
 10
29.6553296727
 20
2.335352314
 11
29.6553296727
 21
2.3817073397
  0
LINE
  5
2FF
100
AcDbEntity
  8
0
100
AcDbLine
 62
7
  6
CONTINUOUS
 10
29.6870796903
 20
2.3673983318
 11
29.6870796903
 21
2.335352314
  0
LINE
  5
300
100
AcDbEntity
  8
0
100
AcDbLine
 62
7
  6
CONTINUOUS
 10
29.7123467043
 20
2.3304023112
 11
29.7123467043
 21
2.3106023003
  0
LINE
  5
301
100
AcDbEntity
  8
0
100
AcDbLine
 62
7
  6
CONTINUOUS
 10
29.7768647401
 20
2.3866573424
 11
29.7768647401
 21
2.4064573534
  0
LINE
  5
302
100
AcDbEntity
  8
0
100
AcDbLine
 62
7
  6
CONTINUOUS
 10
29.8005907533
 20
2.3527593236
 11
29.8005907533
 21
2.3817073397
  0
LINE
  5
303
100
AcDbEntity
  8
0
100
AcDbLine
 62
7
  6
CONTINUOUS
 10
29.8329327712
 20
2.3817073397
 11
29.8329327712
 21
2.3106023003
  0
LINE
  5
304
100
AcDbEntity
  8
0
100
AcDbLine
 62
7
  6
CONTINUOUS
 10
29.8558157839
 20
2.4064573534
 11
29.8558157839
 21
2.3866573424
  0
LINE
  5
305
100
AcDbEntity
  8
0
100
AcDbLine
 62
7
  6
CONTINUOUS
 10
29.8799857973
 20
2.3106023003
 11
29.8799857973
 21
2.3304023112
  0
LINE
  5
306
100
AcDbEntity
  8
0
100
AcDbLine
 62
7
  6
CONTINUOUS
 10
29.8799857973
 20
2.3866573424
 11
29.8799857973
 21
2.4064573534
  0
LINE
  5
307
100
AcDbEntity
  8
0
100
AcDbLine
 62
7
  6
CONTINUOUS
 10
29.9035818104
 20
2.335352314
 11
29.9035818104
 21
2.3817073397
  0
LINE
  5
308
100
AcDbEntity
  8
0
100
AcDbLine
 62
7
  6
CONTINUOUS
 10
29.935332828
 20
2.3673983318
 11
29.935332828
 21
2.335352314
  0
LINE
  5
309
100
AcDbEntity
  8
0
100
AcDbLine
 62
7
  6
CONTINUOUS
 10
29.960599842
 20
2.3304023112
 11
29.960599842
 21
2.3106023003
  0
LINE
  5
30A
100
AcDbEntity
  8
0
100
AcDbLine
 62
7
  6
CONTINUOUS
 10
30.0251178778
 20
2.3866573424
 11
30.0251178778
 21
2.4064573534
  0
LINE
  5
30B
100
AcDbEntity
  8
0
100
AcDbLine
 62
7
  6
CONTINUOUS
 10
30.048843891
 20
2.3527593236
 11
30.048843891
 21
2.3817073397
  0
LINE
  5
30C
100
AcDbEntity
  8
0
100
AcDbLine
 62
7
  6
CONTINUOUS
 10
30.0811859089
 20
2.3817073397
 11
30.0811859089
 21
2.3106023003
  0
LINE
  5
30D
100
AcDbEntity
  8
0
100
AcDbLine
 62
7
  6
CONTINUOUS
 10
30.1040689216
 20
2.4064573534
 11
30.1040689216
 21
2.3866573424
  0
LINE
  5
30E
100
AcDbEntity
  8
0
100
AcDbLine
 62
7
  6
CONTINUOUS
 10
30.1267089341
 20
2.3106023003
 11
30.1267089341
 21
2.3304023112
  0
LINE
  5
30F
100
AcDbEntity
  8
0
100
AcDbLine
 62
7
  6
CONTINUOUS
 10
30.1267089341
 20
2.3866573424
 11
30.1267089341
 21
2.4064573534
  0
LINE
  5
310
100
AcDbEntity
  8
0
100
AcDbLine
 62
7
  6
CONTINUOUS
 10
30.1555819501
 20
2.335352314
 11
30.1555819501
 21
2.3817073397
  0
LINE
  5
311
100
AcDbEntity
  8
0
100
AcDbLine
 62
7
  6
CONTINUOUS
 10
30.2176479846
 20
2.3817073397
 11
30.2176479846
 21
2.3701573333
  0
LINE
  5
312
100
AcDbEntity
  8
0
100
AcDbLine
 62
7
  6
CONTINUOUS
 10
30.2176479846
 20
2.3469023204
 11
30.2176479846
 21
2.335352314
  0
LINE
  5
313
100
AcDbEntity
  8
0
100
AcDbLine
 62
7
  6
CONTINUOUS
 10
30.2577650068
 20
2.3652073305
 11
30.2577650068
 21
2.3518523231
  0
LINE
  5
314
100
AcDbEntity
  8
0
100
AcDbLine
 62
7
  6
CONTINUOUS
 10
30.2866380228
 20
2.3734573351
 11
30.2866380228
 21
2.3817073397
  0
LINE
  5
315
100
AcDbEntity
  8
0
100
AcDbLine
 62
7
  6
CONTINUOUS
 10
30.2876020234
 20
2.335352314
 11
30.2876020234
 21
2.3436023186
  0
LINE
  5
316
100
AcDbEntity
  8
0
100
AcDbLine
 62
7
  6
CONTINUOUS
 10
30.3334520488
 20
2.4064573534
 11
30.3334520488
 21
2.3734573351
  0
LINE
  5
317
100
AcDbEntity
  8
0
100
AcDbLine
 62
7
  6
CONTINUOUS
 10
30.3348710496
 20
2.3436023186
 11
30.3348710496
 21
2.3106023003
  0
LINE
  5
318
100
AcDbEntity
  8
0
100
AcDbLine
 62
7
  6
CONTINUOUS
 10
30.3588250629
 20
2.3106023003
 11
30.3588250629
 21
2.3304023112
  0
LINE
  5
319
100
AcDbEntity
  8
0
100
AcDbLine
 62
7
  6
CONTINUOUS
 10
30.3588250629
 20
2.3866573424
 11
30.3588250629
 21
2.4064573534
  0
LINE
  5
31A
100
AcDbEntity
  8
0
100
AcDbLine
 62
7
  6
CONTINUOUS
 10
30.3865210782
 20
2.335352314
 11
30.3865210782
 21
2.3817073397
  0
LINE
  5
31B
100
AcDbEntity
  8
0
100
AcDbLine
 62
7
  6
CONTINUOUS
 10
30.4477371122
 20
2.3450293194
 11
30.4477371122
 21
2.335330314
  0
LINE
  5
31C
100
AcDbEntity
  8
0
100
AcDbLine
 62
7
  6
CONTINUOUS
 10
30.4477371122
 20
2.3689823326
 11
30.4477371122
 21
2.3817073397
  0
LINE
  5
31D
100
AcDbEntity
  8
0
100
AcDbLine
 62
7
  6
CONTINUOUS
 10
30.4773461286
 20
2.3303803112
 11
30.4773461286
 21
2.3106023003
  0
LINE
  5
31E
100
AcDbEntity
  8
0
100
AcDbLine
 62
7
  6
CONTINUOUS
 10
30.5765381836
 20
2.3419133176
 11
30.5765381836
 21
2.3445393191
  0
LINE
  5
31F
100
AcDbEntity
  8
0
100
AcDbLine
 62
7
  6
CONTINUOUS
 10
30.5935981931
 20
2.3445393191
 11
30.5935981931
 21
2.3329873127
  0
LINE
  5
320
100
AcDbEntity
  8
0
100
AcDbLine
 62
7
  6
CONTINUOUS
 10
30.690554488
 20
2.3519697229
 11
30.690554488
 21
2.3625869294
  0
LINE
  5
321
100
AcDbEntity
  8
0
100
AcDbLine
 62
7
  6
CONTINUOUS
 10
29.3526515049
 20
2.3579923265
 11
29.3608915094
 21
2.3627683292
  0
LINE
  5
322
100
AcDbEntity
  8
0
100
AcDbLine
 62
7
  6
CONTINUOUS
 10
29.4731065717
 20
2.4077833542
 11
29.4263065457
 21
2.3340263132
  0
LINE
  5
323
100
AcDbEntity
  8
0
100
AcDbLine
 62
7
  6
CONTINUOUS
 10
29.4865075791
 20
2.3824893401
 11
29.4793905752
 21
2.3712723339
  0
LINE
  5
324
100
AcDbEntity
  8
0
100
AcDbLine
 62
7
  6
CONTINUOUS
 10
29.4653585674
 20
2.3366783147
 11
29.4708745704
 21
2.3453723195
  0
ARC
  5
325
100
AcDbEntity
  8
0
100
AcDbCircle
 62
7
  6
CONTINUOUS
 10
29.7562520939
 20
2.310602715
 40
0.0024754162
100
AcDbArc
 50
226.3593695813
 51
270.0146919953
  0
ARC
  5
326
100
AcDbEntity
  8
0
100
AcDbCircle
 62
7
  6
CONTINUOUS
 10
29.1673724003
 20
2.3106022984
 40
0.0024749995
100
AcDbArc
 50
179.9999571957
 51
270.0000428043
  0
ARC
  5
327
100
AcDbEntity
  8
0
100
AcDbCircle
 62
7
  6
CONTINUOUS
 10
29.8304577717
 20
2.3106022984
 40
0.0024749995
100
AcDbArc
 50
269.9999571957
 51
0.0000428042
  0
ARC
  5
328
100
AcDbEntity
  8
0
100
AcDbCircle
 62
7
  6
CONTINUOUS
 10
29.7098717048
 20
2.3106022984
 40
0.0024749995
100
AcDbArc
 50
269.9999571957
 51
0.0000428042
  0
ARC
  5
329
100
AcDbEntity
  8
0
100
AcDbCircle
 62
7
  6
CONTINUOUS
 10
29.6342076592
 20
2.3106022984
 40
0.0024749995
100
AcDbArc
 50
179.9999571957
 51
270.0000428043
  0
ARC
  5
32A
100
AcDbEntity
  8
0
100
AcDbCircle
 62
7
  6
CONTINUOUS
 10
29.4990175842
 20
2.3106022984
 40
0.0024749995
100
AcDbArc
 50
179.9999571957
 51
270.0000428043
  0
ARC
  5
32B
100
AcDbEntity
  8
0
100
AcDbCircle
 62
7
  6
CONTINUOUS
 10
29.6042986463
 20
2.3106022984
 40
0.0024749995
100
AcDbArc
 50
269.9999571957
 51
0.0000428043
  0
ARC
  5
32C
100
AcDbEntity
  8
0
100
AcDbCircle
 62
7
  6
CONTINUOUS
 10
29.40135553
 20
2.3106022984
 40
0.0024749995
100
AcDbArc
 50
179.9999571957
 51
270.0000428043
  0
ARC
  5
32D
100
AcDbEntity
  8
0
100
AcDbCircle
 62
7
  6
CONTINUOUS
 10
29.4787315766
 20
2.3106022984
 40
0.0024749995
100
AcDbArc
 50
269.9999571958
 51
0.0000428044
  0
ARC
  5
32E
100
AcDbEntity
  8
0
100
AcDbCircle
 62
7
  6
CONTINUOUS
 10
29.3334409881
 20
2.347184638
 40
0.061747717
100
AcDbArc
 50
59.5385584989
 51
90.0050977555
  0
ARC
  5
32F
100
AcDbEntity
  8
0
100
AcDbCircle
 62
7
  6
CONTINUOUS
 10
29.3410971553
 20
2.3565347507
 40
0.048483885
100
AcDbArc
 50
273.21763719
 51
303.0749121182
  0
ARC
  5
330
100
AcDbEntity
  8
0
100
AcDbCircle
 62
7
  6
CONTINUOUS
 10
29.3550433609
 20
2.3335878142
 40
0.0222174455
100
AcDbArc
 50
4.0793399388
 51
69.834329283
  0
ARC
  5
331
100
AcDbEntity
  8
0
100
AcDbCircle
 62
7
  6
CONTINUOUS
 10
29.3559365494
 20
2.3337671418
 40
0.0213072145
100
AcDbArc
 50
303.0488228549
 51
355.7263138674
  0
ARC
  5
332
100
AcDbEntity
  8
0
100
AcDbCircle
 62
7
  6
CONTINUOUS
 10
29.36187305
 20
2.3337763321
 40
0.0153945295
100
AcDbArc
 50
354.0454548824
 51
5.1878013979
  0
ARC
  5
333
100
AcDbEntity
  8
0
100
AcDbCircle
 62
7
  6
CONTINUOUS
 10
29.2981404746
 20
2.3415398174
 40
0.0086625048
100
AcDbArc
 50
270.0
 51
90.0
  0
ARC
  5
334
100
AcDbEntity
  8
0
100
AcDbCircle
 62
7
  6
CONTINUOUS
 10
29.5078420513
 20
2.34404586
 40
0.0024754602
100
AcDbArc
 50
32.8959418574
 51
89.9875097203
  0
ARC
  5
335
100
AcDbEntity
  8
0
100
AcDbCircle
 62
7
  6
CONTINUOUS
 10
29.4242166149
 20
2.3353525129
 40
0.0024752003
100
AcDbArc
 50
269.9983726451
 51
327.6021653071
  0
ARC
  5
336
100
AcDbEntity
  8
0
100
AcDbCircle
 62
7
  6
CONTINUOUS
 10
29.4729645013
 20
2.3440461199
 40
0.0024752003
100
AcDbArc
 50
89.998372645
 51
147.602165307
  0
ARC
  5
337
100
AcDbEntity
  8
0
100
AcDbCircle
 62
7
  6
CONTINUOUS
 10
29.4674484592
 20
2.3353523527
 40
0.0024750401
100
AcDbArc
 50
147.6063258011
 51
270.0025305753
  0
ARC
  5
338
100
AcDbEntity
  8
0
100
AcDbCircle
 62
7
  6
CONTINUOUS
 10
29.1913144172
 20
2.3353523121
 40
0.0024749995
100
AcDbArc
 50
269.9999571957
 51
0.0000428042
  0
ARC
  5
339
100
AcDbEntity
  8
0
100
AcDbCircle
 62
7
  6
CONTINUOUS
 10
29.1673724003
 20
2.3304023131
 40
0.0024749995
100
AcDbArc
 50
89.9999571958
 51
180.0000428044
  0
ARC
  5
33A
100
AcDbEntity
  8
0
100
AcDbCircle
 62
7
  6
CONTINUOUS
 10
29.2567774499
 20
2.3477273227
 40
0.0024749995
100
AcDbArc
 50
89.9999571957
 51
180.0000428042
  0
ARC
  5
33B
100
AcDbEntity
  8
0
100
AcDbCircle
 62
7
  6
CONTINUOUS
 10
29.2567774499
 20
2.3353523121
 40
0.0024749995
100
AcDbArc
 50
179.9999571957
 51
270.0000428043
  0
ARC
  5
33C
100
AcDbEntity
  8
0
100
AcDbCircle
 62
7
  6
CONTINUOUS
 10
29.4990175842
 20
2.3304023131
 40
0.0024749995
100
AcDbArc
 50
89.9999571957
 51
180.0000428043
  0
ARC
  5
33D
100
AcDbEntity
  8
0
100
AcDbCircle
 62
7
  6
CONTINUOUS
 10
29.40135553
 20
2.3304023131
 40
0.0024749995
100
AcDbArc
 50
89.9999571957
 51
180.0000428042
  0
ARC
  5
33E
100
AcDbEntity
  8
0
100
AcDbCircle
 62
7
  6
CONTINUOUS
 10
29.4787315766
 20
2.3304023131
 40
0.0024749995
100
AcDbArc
 50
359.9999571957
 51
90.0000428043
  0
ARC
  5
33F
100
AcDbEntity
  8
0
100
AcDbCircle
 62
7
  6
CONTINUOUS
 10
29.339026127
 20
2.3995952208
 40
0.0428289026
100
AcDbArc
 50
300.6990502959
 51
319.0591802498
  0
ARC
  5
340
100
AcDbEntity
  8
0
100
AcDbCircle
 62
7
  6
CONTINUOUS
 10
29.3541031117
 20
2.3801132029
 40
0.0229166529
100
AcDbArc
 50
20.6563876465
 51
62.3316896973
  0
ARC
  5
341
100
AcDbEntity
  8
0
100
AcDbCircle
 62
7
  6
CONTINUOUS
 10
29.3590547239
 20
2.3834668674
 40
0.0171568255
100
AcDbArc
 50
315.9145124245
 51
16.0049121282
  0
ARC
  5
342
100
AcDbEntity
  8
0
100
AcDbCircle
 62
7
  6
CONTINUOUS
 10
29.2981404746
 20
2.3755198363
 40
0.0086625048
100
AcDbArc
 50
270.0
 51
90.0
  0
ARC
  5
343
100
AcDbEntity
  8
0
100
AcDbCircle
 62
7
  6
CONTINUOUS
 10
29.494778044
 20
2.3811628806
 40
0.0024754602
100
AcDbArc
 50
32.8959418574
 51
89.9875097203
  0
ARC
  5
344
100
AcDbEntity
  8
0
100
AcDbCircle
 62
7
  6
CONTINUOUS
 10
29.5020375666
 20
2.3699465389
 40
0.0024752071
100
AcDbArc
 50
270.0004896792
 51
32.9089806817
  0
ARC
  5
345
100
AcDbEntity
  8
0
100
AcDbCircle
 62
7
  6
CONTINUOUS
 10
29.48859751
 20
2.3811631405
 40
0.0024752003
100
AcDbArc
 50
89.9983726451
 51
147.6021653071
  0
ARC
  5
346
100
AcDbEntity
  8
0
100
AcDbCircle
 62
7
  6
CONTINUOUS
 10
29.4751965025
 20
2.4064571545
 40
0.0024752003
100
AcDbArc
 50
89.998372645
 51
147.602165307
  0
ARC
  5
347
100
AcDbEntity
  8
0
100
AcDbCircle
 62
7
  6
CONTINUOUS
 10
29.481480467
 20
2.3699463719
 40
0.0024750401
100
AcDbArc
 50
147.6063258012
 51
270.0025305754
  0
ARC
  5
348
100
AcDbEntity
  8
0
100
AcDbCircle
 62
7
  6
CONTINUOUS
 10
29.1673724003
 20
2.4064573553
 40
0.0024749995
100
AcDbArc
 50
89.9999571958
 51
180.0000428044
  0
ARC
  5
349
100
AcDbEntity
  8
0
100
AcDbCircle
 62
7
  6
CONTINUOUS
 10
29.1673724003
 20
2.3866573406
 40
0.0024749995
100
AcDbArc
 50
179.9999571957
 51
270.0000428043
  0
ARC
  5
34A
100
AcDbEntity
  8
0
100
AcDbCircle
 62
7
  6
CONTINUOUS
 10
29.1913144172
 20
2.3817073415
 40
0.0024749995
100
AcDbArc
 50
359.9999571957
 51
90.0000428043
  0
ARC
  5
34B
100
AcDbEntity
  8
0
100
AcDbCircle
 62
7
  6
CONTINUOUS
 10
29.2567774499
 20
2.3817073415
 40
0.0024749995
100
AcDbArc
 50
89.9999571957
 51
180.0000428042
  0
ARC
  5
34C
100
AcDbEntity
  8
0
100
AcDbCircle
 62
7
  6
CONTINUOUS
 10
29.2567774499
 20
2.369332331
 40
0.0024749995
100
AcDbArc
 50
179.9999571957
 51
270.0000428043
  0
ARC
  5
34D
100
AcDbEntity
  8
0
100
AcDbCircle
 62
7
  6
CONTINUOUS
 10
29.7981154519
 20
2.3527592604
 40
0.0024753014
100
AcDbArc
 50
226.3461263059
 51
0.0014637321
  0
ARC
  5
34E
100
AcDbEntity
  8
0
100
AcDbCircle
 62
7
  6
CONTINUOUS
 10
29.6895549917
 20
2.367398395
 40
0.0024753014
100
AcDbArc
 50
46.3461263059
 51
180.0014637321
  0
ARC
  5
34F
100
AcDbEntity
  8
0
100
AcDbCircle
 62
7
  6
CONTINUOUS
 10
29.5134685729
 20
2.3353525197
 40
0.0024752071
100
AcDbArc
 50
270.0004896794
 51
32.9089806819
  0
ARC
  5
350
100
AcDbEntity
  8
0
100
AcDbCircle
 62
7
  6
CONTINUOUS
 10
29.6895546899
 20
2.3353523121
 40
0.0024749995
100
AcDbArc
 50
179.9999571957
 51
270.0000428043
  0
ARC
  5
351
100
AcDbEntity
  8
0
100
AcDbCircle
 62
7
  6
CONTINUOUS
 10
29.7098717048
 20
2.3304023131
 40
0.0024749995
100
AcDbArc
 50
359.9999571957
 51
90.0000428043
  0
ARC
  5
352
100
AcDbEntity
  8
0
100
AcDbCircle
 62
7
  6
CONTINUOUS
 10
29.6342076592
 20
2.3304023131
 40
0.0024749995
100
AcDbArc
 50
89.9999571957
 51
180.0000428043
  0
ARC
  5
353
100
AcDbEntity
  8
0
100
AcDbCircle
 62
7
  6
CONTINUOUS
 10
29.6528546732
 20
2.3353523121
 40
0.0024749995
100
AcDbArc
 50
269.9999571957
 51
0.0000428042
  0
ARC
  5
354
100
AcDbEntity
  8
0
100
AcDbCircle
 62
7
  6
CONTINUOUS
 10
29.6042986463
 20
2.3304023131
 40
0.0024749995
100
AcDbArc
 50
359.9999571957
 51
90.0000428043
  0
ARC
  5
355
100
AcDbEntity
  8
0
100
AcDbCircle
 62
7
  6
CONTINUOUS
 10
29.5842827538
 20
2.3353513536
 40
0.002474041
100
AcDbArc
 50
212.9056413127
 51
269.9972091756
  0
ARC
  5
356
100
AcDbEntity
  8
0
100
AcDbCircle
 62
7
  6
CONTINUOUS
 10
29.7981157538
 20
2.3817073415
 40
0.0024749995
100
AcDbArc
 50
359.9999571957
 51
90.0000428043
  0
ARC
  5
357
100
AcDbEntity
  8
0
100
AcDbCircle
 62
7
  6
CONTINUOUS
 10
29.7793397396
 20
2.3866573406
 40
0.0024749995
100
AcDbArc
 50
179.9999571957
 51
270.0000428043
  0
ARC
  5
358
100
AcDbEntity
  8
0
100
AcDbCircle
 62
7
  6
CONTINUOUS
 10
29.7793397396
 20
2.4064573553
 40
0.0024749995
100
AcDbArc
 50
89.9999571957
 51
180.0000428042
  0
ARC
  5
359
100
AcDbEntity
  8
0
100
AcDbCircle
 62
7
  6
CONTINUOUS
 10
29.8533407844
 20
2.4064573553
 40
0.0024749995
100
AcDbArc
 50
359.9999571957
 51
90.0000428043
  0
ARC
  5
35A
100
AcDbEntity
  8
0
100
AcDbCircle
 62
7
  6
CONTINUOUS
 10
29.8533407844
 20
2.3866573406
 40
0.0024749995
100
AcDbArc
 50
269.9999571958
 51
0.0000428044
  0
ARC
  5
35B
100
AcDbEntity
  8
0
100
AcDbCircle
 62
7
  6
CONTINUOUS
 10
29.8354077707
 20
2.3817073415
 40
0.0024749995
100
AcDbArc
 50
89.9999571957
 51
180.0000428042
  0
ARC
  5
35C
100
AcDbEntity
  8
0
100
AcDbCircle
 62
7
  6
CONTINUOUS
 10
29.6528546732
 20
2.3817073415
 40
0.0024749995
100
AcDbArc
 50
359.9999571957
 51
90.0000428043
  0
ARC
  5
35D
100
AcDbEntity
  8
0
100
AcDbCircle
 62
7
  6
CONTINUOUS
 10
29.6342076592
 20
2.3866573406
 40
0.0024749995
100
AcDbArc
 50
179.9999571957
 51
270.0000428043
  0
ARC
  5
35E
100
AcDbEntity
  8
0
100
AcDbCircle
 62
7
  6
CONTINUOUS
 10
29.6342076592
 20
2.4064573553
 40
0.0024749995
100
AcDbArc
 50
89.9999571957
 51
180.0000428043
  0
ARC
  5
35F
100
AcDbEntity
  8
0
100
AcDbCircle
 62
7
  6
CONTINUOUS
 10
29.532371984
 20
2.4064573946
 40
0.0024749602
100
AcDbArc
 50
32.9172174468
 51
90.0087853097
  0
ARC
  5
360
100
AcDbEntity
  8
0
100
AcDbCircle
 62
7
  6
CONTINUOUS
 10
29.7346658515
 20
2.406458187
 40
0.0024741678
100
AcDbArc
 50
46.3477981899
 51
90.0031206039
  0
ARC
  5
361
100
AcDbEntity
  8
0
100
AcDbCircle
 62
7
  6
CONTINUOUS
 10
30.5082178439
 20
2.2263934443
 40
0.1825583387
100
AcDbArc
 50
79.8618509324
 51
89.1640948679
  0
ARC
  5
362
100
AcDbEntity
  8
0
100
AcDbCircle
 62
7
  6
CONTINUOUS
 10
30.4901231168
 20
2.2555010151
 40
0.117346916
100
AcDbArc
 50
58.614769177
 51
62.3737227606
  0
ARC
  5
363
100
AcDbEntity
  8
0
100
AcDbCircle
 62
7
  6
CONTINUOUS
 10
30.5189851722
 20
2.3263737837
 40
0.0459185159
100
AcDbArc
 50
15.6740290068
 51
20.9917271228
  0
ARC
  5
364
100
AcDbEntity
  8
0
100
AcDbCircle
 62
7
  6
CONTINUOUS
 10
30.4592749426
 20
2.3224452318
 40
0.0396099176
100
AcDbArc
 50
14.3201081283
 51
22.4984722084
  0
ARC
  5
365
100
AcDbEntity
  8
0
100
AcDbCircle
 62
7
  6
CONTINUOUS
 10
30.4779865962
 20
2.323137238
 40
0.0243676582
100
AcDbArc
 50
63.3666028271
 51
90.3937697637
  0
ARC
  5
366
100
AcDbEntity
  8
0
100
AcDbCircle
 62
7
  6
CONTINUOUS
 10
30.5654812677
 20
2.3280006042
 40
0.0198837666
100
AcDbArc
 50
271.8586572978
 51
289.4131338543
  0
ARC
  5
367
100
AcDbEntity
  8
0
100
AcDbCircle
 62
7
  6
CONTINUOUS
 10
30.5195674723
 20
2.3254494505
 40
0.0173408616
100
AcDbArc
 50
232.4713476722
 51
267.338189944
  0
ARC
  5
368
100
AcDbEntity
  8
0
100
AcDbCircle
 62
7
  6
CONTINUOUS
 10
30.4748711291
 20
2.3106022984
 40
0.0024749995
100
AcDbArc
 50
269.9999571958
 51
0.0000428044
  0
ARC
  5
369
100
AcDbEntity
  8
0
100
AcDbCircle
 62
7
  6
CONTINUOUS
 10
30.3613000624
 20
2.3106022984
 40
0.0024749995
100
AcDbArc
 50
179.9999571957
 51
270.0000428043
  0
ARC
  5
36A
100
AcDbEntity
  8
0
100
AcDbCircle
 62
7
  6
CONTINUOUS
 10
30.0787109094
 20
2.3106022984
 40
0.0024749995
100
AcDbArc
 50
269.9999571957
 51
0.0000428043
  0
ARC
  5
36B
100
AcDbEntity
  8
0
100
AcDbCircle
 62
7
  6
CONTINUOUS
 10
29.9581248425
 20
2.3106022984
 40
0.0024749995
100
AcDbArc
 50
269.9999571957
 51
0.0000428043
  0
ARC
  5
36C
100
AcDbEntity
  8
0
100
AcDbCircle
 62
7
  6
CONTINUOUS
 10
29.8824607968
 20
2.3106022984
 40
0.0024749995
100
AcDbArc
 50
179.9999571957
 51
270.0000428043
  0
ARC
  5
36D
100
AcDbEntity
  8
0
100
AcDbCircle
 62
7
  6
CONTINUOUS
 10
30.33239605
 20
2.3106022984
 40
0.0024749995
100
AcDbArc
 50
269.9999571957
 51
0.0000428042
  0
ARC
  5
36E
100
AcDbEntity
  8
0
100
AcDbCircle
 62
7
  6
CONTINUOUS
 10
30.1291839337
 20
2.3106022984
 40
0.0024749995
100
AcDbArc
 50
179.9999571957
 51
270.0000428043
  0
ARC
  5
36F
100
AcDbEntity
  8
0
100
AcDbCircle
 62
7
  6
CONTINUOUS
 10
30.0045047316
 20
2.3106014667
 40
0.0024741678
100
AcDbArc
 50
226.3477981898
 51
270.0031206038
  0
ARC
  5
370
100
AcDbEntity
  8
0
100
AcDbCircle
 62
7
  6
CONTINUOUS
 10
30.0463685896
 20
2.3527592604
 40
0.0024753014
100
AcDbArc
 50
226.3461263059
 51
0.0014637321
  0
ARC
  5
371
100
AcDbEntity
  8
0
100
AcDbCircle
 62
7
  6
CONTINUOUS
 10
29.9378081294
 20
2.367398395
 40
0.0024753014
100
AcDbArc
 50
46.3461263058
 51
180.0014637321
  0
ARC
  5
372
100
AcDbEntity
  8
0
100
AcDbCircle
 62
7
  6
CONTINUOUS
 10
29.9378078275
 20
2.3353523121
 40
0.0024749995
100
AcDbArc
 50
179.9999571957
 51
270.0000428043
  0
ARC
  5
373
100
AcDbEntity
  8
0
100
AcDbCircle
 62
7
  6
CONTINUOUS
 10
29.9581248425
 20
2.3304023131
 40
0.0024749995
100
AcDbArc
 50
359.9999571957
 51
90.0000428043
  0
ARC
  5
374
100
AcDbEntity
  8
0
100
AcDbCircle
 62
7
  6
CONTINUOUS
 10
29.8824607968
 20
2.3304023131
 40
0.0024749995
100
AcDbArc
 50
89.9999571957
 51
180.0000428042
  0
ARC
  5
375
100
AcDbEntity
  8
0
100
AcDbCircle
 62
7
  6
CONTINUOUS
 10
29.9011068109
 20
2.3353523121
 40
0.0024749995
100
AcDbArc
 50
269.9999571957
 51
0.0000428043
  0
ARC
  5
376
100
AcDbEntity
  8
0
100
AcDbCircle
 62
7
  6
CONTINUOUS
 10
30.2201229841
 20
2.3469023222
 40
0.0024749995
100
AcDbArc
 50
89.9999571957
 51
180.0000428042
  0
ARC
  5
377
100
AcDbEntity
  8
0
100
AcDbCircle
 62
7
  6
CONTINUOUS
 10
30.2201229841
 20
2.3353523121
 40
0.0024749995
100
AcDbArc
 50
179.9999571957
 51
270.0000428043
  0
ARC
  5
378
100
AcDbEntity
  8
0
100
AcDbCircle
 62
7
  6
CONTINUOUS
 10
30.1291839337
 20
2.3304023131
 40
0.0024749995
100
AcDbArc
 50
89.9999571958
 51
180.0000428044
  0
ARC
  5
379
100
AcDbEntity
  8
0
100
AcDbCircle
 62
7
  6
CONTINUOUS
 10
30.1531069506
 20
2.3353523121
 40
0.0024749995
100
AcDbArc
 50
269.9999571957
 51
0.0000428042
  0
ARC
  5
37A
100
AcDbEntity
  8
0
100
AcDbCircle
 62
7
  6
CONTINUOUS
 10
30.2201229841
 20
2.3701573314
 40
0.0024749995
100
AcDbArc
 50
179.9999571957
 51
270.0000428043
  0
ARC
  5
37B
100
AcDbEntity
  8
0
100
AcDbCircle
 62
7
  6
CONTINUOUS
 10
30.0463688914
 20
2.3817073415
 40
0.0024749995
100
AcDbArc
 50
359.9999571957
 51
90.0000428043
  0
ARC
  5
37C
100
AcDbEntity
  8
0
100
AcDbCircle
 62
7
  6
CONTINUOUS
 10
30.0275928773
 20
2.3866573406
 40
0.0024749995
100
AcDbArc
 50
179.9999571957
 51
270.0000428043
  0
ARC
  5
37D
100
AcDbEntity
  8
0
100
AcDbCircle
 62
7
  6
CONTINUOUS
 10
30.0275928773
 20
2.4064573553
 40
0.0024749995
100
AcDbArc
 50
89.9999571958
 51
180.0000428044
  0
ARC
  5
37E
100
AcDbEntity
  8
0
100
AcDbCircle
 62
7
  6
CONTINUOUS
 10
30.1015939221
 20
2.4064573553
 40
0.0024749995
100
AcDbArc
 50
359.9999571957
 51
90.0000428043
  0
ARC
  5
37F
100
AcDbEntity
  8
0
100
AcDbCircle
 62
7
  6
CONTINUOUS
 10
30.1015939221
 20
2.3866573406
 40
0.0024749995
100
AcDbArc
 50
269.9999571957
 51
0.0000428042
  0
ARC
  5
380
100
AcDbEntity
  8
0
100
AcDbCircle
 62
7
  6
CONTINUOUS
 10
30.0836609084
 20
2.3817073415
 40
0.0024749995
100
AcDbArc
 50
89.9999571957
 51
180.0000428042
  0
ARC
  5
381
100
AcDbEntity
  8
0
100
AcDbCircle
 62
7
  6
CONTINUOUS
 10
29.9011068109
 20
2.3817073415
 40
0.0024749995
100
AcDbArc
 50
359.9999571957
 51
90.0000428043
  0
ARC
  5
382
100
AcDbEntity
  8
0
100
AcDbCircle
 62
7
  6
CONTINUOUS
 10
29.8824607968
 20
2.3866573406
 40
0.0024749995
100
AcDbArc
 50
179.9999571957
 51
270.0000428043
  0
ARC
  5
383
100
AcDbEntity
  8
0
100
AcDbCircle
 62
7
  6
CONTINUOUS
 10
29.8824607968
 20
2.4064573553
 40
0.0024749995
100
AcDbArc
 50
89.9999571957
 51
180.0000428042
  0
ARC
  5
384
100
AcDbEntity
  8
0
100
AcDbCircle
 62
7
  6
CONTINUOUS
 10
30.1531069506
 20
2.3817073415
 40
0.0024749995
100
AcDbArc
 50
359.9999571957
 51
90.0000428043
  0
ARC
  5
385
100
AcDbEntity
  8
0
100
AcDbCircle
 62
7
  6
CONTINUOUS
 10
30.1291839337
 20
2.3866573406
 40
0.0024749995
100
AcDbArc
 50
179.9999571957
 51
270.0000428043
  0
ARC
  5
386
100
AcDbEntity
  8
0
100
AcDbCircle
 62
7
  6
CONTINUOUS
 10
30.1291839337
 20
2.4064573553
 40
0.0024749995
100
AcDbArc
 50
89.9999571958
 51
180.0000428044
  0
ARC
  5
387
100
AcDbEntity
  8
0
100
AcDbCircle
 62
7
  6
CONTINUOUS
 10
30.2201229841
 20
2.3817073415
 40
0.0024749995
100
AcDbArc
 50
89.9999571957
 51
180.0000428042
  0
ARC
  5
388
100
AcDbEntity
  8
0
100
AcDbCircle
 62
7
  6
CONTINUOUS
 10
29.9829189891
 20
2.406458187
 40
0.0024741678
100
AcDbArc
 50
46.3477981898
 51
90.0031206038
  0
ARC
  5
389
100
AcDbEntity
  8
0
100
AcDbCircle
 62
7
  6
CONTINUOUS
 10
30.5425475033
 20
2.3381486337
 40
0.044722495
100
AcDbArc
 50
195.531588407
 51
204.7624440448
  0
ARC
  5
38A
100
AcDbEntity
  8
0
100
AcDbCircle
 62
7
  6
CONTINUOUS
 10
30.5345221342
 20
2.3672169603
 40
0.039319019
100
AcDbArc
 50
59.1202086415
 51
81.4730239328
  0
ARC
  5
38B
100
AcDbEntity
  8
0
100
AcDbCircle
 62
7
  6
CONTINUOUS
 10
30.5597433003
 20
2.3455873536
 40
0.0383802683
100
AcDbArc
 50
288.7656836787
 51
309.6104317088
  0
ARC
  5
38C
100
AcDbEntity
  8
0
100
AcDbCircle
 62
7
  6
CONTINUOUS
 10
30.5401815304
 20
2.3735516295
 40
0.0310192946
100
AcDbArc
 50
34.7540871
 51
62.0879016178
  0
ARC
  5
38D
100
AcDbEntity
  8
0
100
AcDbCircle
 62
7
  6
CONTINUOUS
 10
30.4854682464
 20
2.3557278621
 40
0.0284963867
100
AcDbArc
 50
70.3834917948
 51
86.8922743861
  0
ARC
  5
38E
100
AcDbEntity
  8
0
100
AcDbCircle
 62
7
  6
CONTINUOUS
 10
30.5667354857
 20
2.3379861357
 40
0.0280715479
100
AcDbArc
 50
308.5071794988
 51
332.2400656899
  0
ARC
  5
38F
100
AcDbEntity
  8
0
100
AcDbCircle
 62
7
  6
CONTINUOUS
 10
30.5368857139
 20
2.3335551921
 40
0.0266349791
100
AcDbArc
 50
20.3630922153
 51
37.9727053099
  0
ARC
  5
390
100
AcDbEntity
  8
0
100
AcDbCircle
 62
7
  6
CONTINUOUS
 10
30.5380060695
 20
2.3336282752
 40
0.0257145923
100
AcDbArc
 50
39.3804255939
 51
59.0361096173
  0
ARC
  5
391
100
AcDbEntity
  8
0
100
AcDbCircle
 62
7
  6
CONTINUOUS
 10
30.5226660372
 20
2.3312997545
 40
0.0238935861
100
AcDbArc
 50
209.8247607259
 51
235.1255079367
  0
ARC
  5
392
100
AcDbEntity
  8
0
100
AcDbCircle
 62
7
  6
CONTINUOUS
 10
30.5760424965
 20
2.3330916303
 40
0.0175560065
100
AcDbArc
 50
332.2279060967
 51
359.6595469939
  0
ARC
  5
393
100
AcDbEntity
  8
0
100
AcDbCircle
 62
7
  6
CONTINUOUS
 10
30.4820412509
 20
2.3314168585
 40
0.0151491919
100
AcDbArc
 50
24.098260853
 51
63.0369451818
  0
ARC
  5
394
100
AcDbEntity
  8
0
100
AcDbCircle
 62
7
  6
CONTINUOUS
 10
30.5775555073
 20
2.3420167666
 40
0.0147197649
100
AcDbArc
 50
192.7054516565
 51
206.0594861022
  0
ARC
  5
395
100
AcDbEntity
  8
0
100
AcDbCircle
 62
7
  6
CONTINUOUS
 10
30.4903278565
 20
2.368769595
 40
0.0145814632
100
AcDbArc
 50
54.6746025112
 51
71.1660573124
  0
ARC
  5
396
100
AcDbEntity
  8
0
100
AcDbCircle
 62
7
  6
CONTINUOUS
 10
30.5681966244
 20
2.3465129721
 40
0.0132488022
100
AcDbArc
 50
270.266200055
 51
281.2404888597
  0
ARC
  5
397
100
AcDbEntity
  8
0
100
AcDbCircle
 62
7
  6
CONTINUOUS
 10
30.5645908704
 20
2.3416694937
 40
0.0119498009
100
AcDbArc
 50
340.7883861657
 51
1.1691452593
  0
ARC
  5
398
100
AcDbEntity
  8
0
100
AcDbCircle
 62
7
  6
CONTINUOUS
 10
30.4913804799
 20
2.3798114865
 40
0.0110815393
100
AcDbArc
 50
306.758405961
 51
320.4502234234
  0
ARC
  5
399
100
AcDbEntity
  8
0
100
AcDbCircle
 62
7
  6
CONTINUOUS
 10
30.5693908654
 20
2.3407762785
 40
0.0073895522
100
AcDbArc
 50
280.8288201977
 51
305.0837508495
  0
ARC
  5
39A
100
AcDbEntity
  8
0
100
AcDbCircle
 62
7
  6
CONTINUOUS
 10
30.5697920471
 20
2.3399254321
 40
0.0064647042
100
AcDbArc
 50
306.5086174083
 51
340.2162360092
  0
ARC
  5
39B
100
AcDbEntity
  8
0
100
AcDbCircle
 62
7
  6
CONTINUOUS
 10
30.4954573475
 20
2.3756235202
 40
0.0060275915
100
AcDbArc
 50
20.9055592135
 51
56.7851676243
  0
ARC
  5
39C
100
AcDbEntity
  8
0
100
AcDbCircle
 62
7
  6
CONTINUOUS
 10
30.495551096
 20
2.3765775787
 40
0.0058087709
100
AcDbArc
 50
318.8515287446
 51
353.6422345323
  0
ARC
  5
39D
100
AcDbEntity
  8
0
100
AcDbCircle
 62
7
  6
CONTINUOUS
 10
30.5690611702
 20
2.3378082802
 40
0.0052403997
100
AcDbArc
 50
205.5232099488
 51
227.5054868079
  0
ARC
  5
39E
100
AcDbEntity
  8
0
100
AcDbCircle
 62
7
  6
CONTINUOUS
 10
30.4967579063
 20
2.3762838024
 40
0.0045795888
100
AcDbArc
 50
355.6235353944
 51
18.9942678268
  0
ARC
  5
39F
100
AcDbEntity
  8
0
100
AcDbCircle
 62
7
  6
CONTINUOUS
 10
30.5673328709
 20
2.3359929075
 40
0.0027347709
100
AcDbArc
 50
228.5117626738
 51
266.1485845755
  0
ARC
  5
3A0
100
AcDbEntity
  8
0
100
AcDbCircle
 62
7
  6
CONTINUOUS
 10
30.4502121117
 20
2.3450293212
 40
0.0024749995
100
AcDbArc
 50
89.9999571958
 51
180.0000428044
  0
ARC
  5
3A1
100
AcDbEntity
  8
0
100
AcDbCircle
 62
7
  6
CONTINUOUS
 10
30.4502121117
 20
2.3353303121
 40
0.0024749995
100
AcDbArc
 50
179.9999571957
 51
270.0000428043
  0
ARC
  5
3A2
100
AcDbEntity
  8
0
100
AcDbCircle
 62
7
  6
CONTINUOUS
 10
30.4748711291
 20
2.3303803131
 40
0.0024749995
100
AcDbArc
 50
359.9999571957
 51
90.0000428043
  0
ARC
  5
3A3
100
AcDbEntity
  8
0
100
AcDbCircle
 62
7
  6
CONTINUOUS
 10
30.3613000624
 20
2.3304023131
 40
0.0024749995
100
AcDbArc
 50
89.9999571957
 51
180.0000428042
  0
ARC
  5
3A4
100
AcDbEntity
  8
0
100
AcDbCircle
 62
7
  6
CONTINUOUS
 10
30.3840460787
 20
2.3353523121
 40
0.0024749995
100
AcDbArc
 50
269.9999571957
 51
0.0000428042
  0
ARC
  5
3A5
100
AcDbEntity
  8
0
100
AcDbCircle
 62
7
  6
CONTINUOUS
 10
30.5790131831
 20
2.3445393209
 40
0.0024749995
100
AcDbArc
 50
89.9999571957
 51
180.0000428043
  0
ARC
  5
3A6
100
AcDbEntity
  8
0
100
AcDbCircle
 62
7
  6
CONTINUOUS
 10
30.5911231935
 20
2.3445393209
 40
0.0024749995
100
AcDbArc
 50
359.9999571957
 51
90.0000428043
  0
ARC
  5
3A7
100
AcDbEntity
  8
0
100
AcDbCircle
 62
7
  6
CONTINUOUS
 10
30.4502121117
 20
2.3689823308
 40
0.0024749995
100
AcDbArc
 50
179.9999571957
 51
270.0000428043
  0
ARC
  5
3A8
100
AcDbEntity
  8
0
100
AcDbCircle
 62
7
  6
CONTINUOUS
 10
30.2851270238
 20
2.3353523121
 40
0.0024749995
100
AcDbArc
 50
269.9999571957
 51
0.0000428043
  0
ARC
  5
3A9
100
AcDbEntity
  8
0
100
AcDbCircle
 62
7
  6
CONTINUOUS
 10
30.2900770229
 20
2.3436023204
 40
0.0024749995
100
AcDbArc
 50
89.9999571957
 51
180.0000428042
  0
ARC
  5
3AA
100
AcDbEntity
  8
0
100
AcDbCircle
 62
7
  6
CONTINUOUS
 10
30.33239605
 20
2.3436023204
 40
0.0024749995
100
AcDbArc
 50
359.9999571957
 51
90.0000428043
  0
ARC
  5
3AB
100
AcDbEntity
  8
0
100
AcDbCircle
 62
7
  6
CONTINUOUS
 10
30.3309770493
 20
2.3734573333
 40
0.0024749995
100
AcDbArc
 50
269.9999571957
 51
0.0000428042
  0
ARC
  5
3AC
100
AcDbEntity
  8
0
100
AcDbCircle
 62
7
  6
CONTINUOUS
 10
30.2891130223
 20
2.3734573333
 40
0.0024749995
100
AcDbArc
 50
179.9999571957
 51
270.0000428043
  0
ARC
  5
3AD
100
AcDbEntity
  8
0
100
AcDbCircle
 62
7
  6
CONTINUOUS
 10
30.2552900073
 20
2.3652073324
 40
0.0024749995
100
AcDbArc
 50
359.9999571957
 51
90.0000428043
  0
ARC
  5
3AE
100
AcDbEntity
  8
0
100
AcDbCircle
 62
7
  6
CONTINUOUS
 10
30.2552900073
 20
2.3518523213
 40
0.0024749995
100
AcDbArc
 50
269.9999571957
 51
0.0000428042
  0
ARC
  5
3AF
100
AcDbEntity
  8
0
100
AcDbCircle
 62
7
  6
CONTINUOUS
 10
30.5138242828
 20
2.4321551202
 40
0.0789082104
100
AcDbArc
 50
292.906155071
 51
305.2574666259
  0
ARC
  5
3B0
100
AcDbEntity
  8
0
100
AcDbCircle
 62
7
  6
CONTINUOUS
 10
30.5441562204
 20
2.3889482705
 40
0.0261183659
100
AcDbArc
 50
305.6373831893
 51
329.9727629745
  0
ARC
  5
3B1
100
AcDbEntity
  8
0
100
AcDbCircle
 62
7
  6
CONTINUOUS
 10
30.4838237832
 20
2.3919459623
 40
0.0254407115
100
AcDbArc
 50
270.7327484175
 51
290.441894219
  0
ARC
  5
3B2
100
AcDbEntity
  8
0
100
AcDbCircle
 62
7
  6
CONTINUOUS
 10
30.4857512889
 20
2.387552315
 40
0.0206523367
100
AcDbArc
 50
289.6883413472
 51
306.4184925496
  0
ARC
  5
3B3
100
AcDbEntity
  8
0
100
AcDbCircle
 62
7
  6
CONTINUOUS
 10
30.5518702816
 20
2.3821012306
 40
0.0165459396
100
AcDbArc
 50
1.548452892
 51
33.5033152417
  0
ARC
  5
3B4
100
AcDbEntity
  8
0
100
AcDbCircle
 62
7
  6
CONTINUOUS
 10
30.5551668767
 20
2.3822696828
 40
0.0132462337
100
AcDbArc
 50
331.1510006998
 51
1.205404301
  0
ARC
  5
3B5
100
AcDbEntity
  8
0
100
AcDbCircle
 62
7
  6
CONTINUOUS
 10
30.3840460787
 20
2.3817073415
 40
0.0024749995
100
AcDbArc
 50
359.9999571957
 51
90.0000428043
  0
ARC
  5
3B6
100
AcDbEntity
  8
0
100
AcDbCircle
 62
7
  6
CONTINUOUS
 10
30.3613000624
 20
2.3866573406
 40
0.0024749995
100
AcDbArc
 50
179.9999571957
 51
270.0000428043
  0
ARC
  5
3B7
100
AcDbEntity
  8
0
100
AcDbCircle
 62
7
  6
CONTINUOUS
 10
30.3613000624
 20
2.4064573553
 40
0.0024749995
100
AcDbArc
 50
89.9999571957
 51
180.0000428042
  0
ARC
  5
3B8
100
AcDbEntity
  8
0
100
AcDbCircle
 62
7
  6
CONTINUOUS
 10
30.4502121117
 20
2.3817073415
 40
0.0024749995
100
AcDbArc
 50
89.9999571958
 51
180.0000428044
  0
ARC
  5
3B9
100
AcDbEntity
  8
0
100
AcDbCircle
 62
7
  6
CONTINUOUS
 10
30.3309770493
 20
2.4064573553
 40
0.0024749995
100
AcDbArc
 50
359.9999571957
 51
90.0000428043
  0
ARC
  5
3BA
100
AcDbEntity
  8
0
100
AcDbCircle
 62
7
  6
CONTINUOUS
 10
30.2841630233
 20
2.3817073415
 40
0.0024749995
100
AcDbArc
 50
359.9999571957
 51
90.0000428043
  0
ELLIPSE
  5
3BB
100
AcDbEntity
  8
0
100
AcDbEllipse
 62
7
  6
CONTINUOUS
 10
29.8665327899
 20
2.3572783261
 30
0.0
 11
-0.8250004575
 21
0.0
 31
0.0
 40
0.218572
 41
0.0
 42
6.2831853072
  0
HATCH
  5
3BC
100
AcDbEntity
  8
0
100
AcDbHatch
 62
7
  6
CONTINUOUS
 10
0.0
 20
0.0
 30
0.0
210
0.0
220
0.0
230
1.0
  2
XSEC0003
 70
1
 71
1
 91
11
 92
1
 93
57
 72
2
 10
30.5195674723
 20
2.3254494505
 40
0.0173408616
 50
232.4713476722
 51
267.338189944
 73
1
 72
2
 10
30.5226660372
 20
2.3312997545
 40
0.0238935861
 50
209.8247607259
 51
235.1255079367
 73
1
 72
2
 10
30.5425475033
 20
2.3381486337
 40
0.044722495
 50
195.531588407
 51
204.7624440448
 73
1
 72
1
 10
30.4994581408
 20
2.3261733089
 11
30.4976541398
 21
2.3322423123
 72
2
 10
30.4592749426
 20
2.3224452318
 40
0.0396099176
 50
14.3201081283
 51
22.4984722084
 73
1
 72
2
 10
30.4820412509
 20
2.3314168585
 40
0.0151491919
 50
24.098260853
 51
63.0369451818
 73
1
 72
2
 10
30.4779865962
 20
2.323137238
 40
0.0243676582
 50
63.3666028271
 51
90.3937697637
 73
1
 72
1
 10
30.4778191288
 20
2.3475043207
 11
30.4502121135
 21
2.3475043207
 72
2
 10
30.4502121117
 20
2.3450293212
 40
0.0024749995
 50
89.9999571958
 51
180.0000428044
 73
1
 72
1
 10
30.4477371122
 20
2.3450293194
 11
30.4477371122
 21
2.335330314
 72
2
 10
30.4502121117
 20
2.3353303121
 40
0.0024749995
 50
179.9999571957
 51
270.0000428043
 73
1
 72
1
 10
30.4502121135
 20
2.3328553126
 11
30.4748711272
 21
2.3328553126
 72
2
 10
30.4748711291
 20
2.3303803131
 40
0.0024749995
 50
359.9999571957
 51
90.0000428042
 73
1
 72
1
 10
30.4773461286
 20
2.3303803112
 11
30.4773461286
 21
2.3106023003
 72
2
 10
30.4748711291
 20
2.3106022984
 40
0.0024749995
 50
269.9999571958
 51
0.0000428044
 73
1
 72
1
 10
30.4748711272
 20
2.3081272989
 11
30.3613000642
 21
2.3081272989
 72
2
 10
30.3613000624
 20
2.3106022984
 40
0.0024749995
 50
179.9999571957
 51
270.0000428043
 73
1
 72
1
 10
30.3588250629
 20
2.3106023003
 11
30.3588250629
 21
2.3304023112
 72
2
 10
30.3613000624
 20
2.3304023131
 40
0.0024749995
 50
89.9999571956
 51
180.0000428042
 73
1
 72
1
 10
30.3613000642
 20
2.3328773126
 11
30.3840460768
 21
2.3328773126
 72
2
 10
30.3840460787
 20
2.3353523121
 40
0.0024749995
 50
269.9999571956
 51
0.0000428042
 73
1
 72
1
 10
30.3865210782
 20
2.335352314
 11
30.3865210782
 21
2.3817073397
 72
2
 10
30.3840460787
 20
2.3817073415
 40
0.0024749995
 50
359.9999571957
 51
90.0000428042
 73
1
 72
1
 10
30.3840460768
 20
2.3841823411
 11
30.3613000642
 21
2.3841823411
 72
2
 10
30.3613000624
 20
2.3866573406
 40
0.0024749995
 50
179.9999571957
 51
270.0000428043
 73
1
 72
1
 10
30.3588250629
 20
2.3866573424
 11
30.3588250629
 21
2.4064573534
 72
2
 10
30.3613000624
 20
2.4064573553
 40
0.0024749995
 50
89.9999571956
 51
180.0000428042
 73
1
 72
1
 10
30.3613000642
 20
2.4089323548
 11
30.5108811472
 21
2.4089323548
 72
2
 10
30.5082178439
 20
2.2263934443
 40
0.1825583387
 50
79.8618509324
 51
89.1640948679
 73
1
 72
2
 10
30.5345221342
 20
2.3672169603
 40
0.039319019
 50
59.1202086415
 51
81.4730239328
 73
1
 72
2
 10
30.5401815304
 20
2.3735516295
 40
0.0310192946
 50
34.7540871
 51
62.0879016178
 73
1
 72
2
 10
30.5518702816
 20
2.3821012306
 40
0.0165459396
 50
1.548452892
 51
33.5033152417
 73
1
 72
2
 10
30.5551668767
 20
2.3822696828
 40
0.0132462337
 50
331.1510006998
 51
1.205404301
 73
1
 72
2
 10
30.5441562204
 20
2.3889482705
 40
0.0261183659
 50
305.6373831893
 51
329.9727629745
 73
1
 72
2
 10
30.5138242828
 20
2.4321551202
 40
0.0789082104
 50
292.9061550709
 51
305.2574666259
 73
1
 72
2
 10
30.4901231168
 20
2.2555010151
 40
0.117346916
 50
58.614769177
 51
62.3737227606
 73
1
 72
2
 10
30.5380060695
 20
2.3336282752
 40
0.0257145923
 50
39.3804255939
 51
59.0361096173
 73
1
 72
2
 10
30.5368857139
 20
2.3335551921
 40
0.0266349791
 50
20.3630922153
 51
37.9727053099
 73
1
 72
2
 10
30.5189851722
 20
2.3263737837
 40
0.0459185159
 50
15.6740290068
 51
20.9917271228
 73
1
 72
2
 10
30.5775555073
 20
2.3420167666
 40
0.0147197649
 50
192.7054516565
 51
206.0594861022
 73
1
 72
2
 10
30.5690611702
 20
2.3378082802
 40
0.0052403997
 50
205.5232099488
 51
227.5054868079
 73
1
 72
2
 10
30.5673328709
 20
2.3359929075
 40
0.0027347709
 50
228.5117626738
 51
266.1485845755
 73
1
 72
1
 10
30.5671491784
 20
2.3332643128
 11
30.568258179
 21
2.3332643128
 72
2
 10
30.5681966244
 20
2.3465129721
 40
0.0132488022
 50
270.266200055
 51
281.2404888597
 73
1
 72
2
 10
30.5693908654
 20
2.3407762785
 40
0.0073895522
 50
280.8288201977
 51
305.0837508495
 73
1
 72
2
 10
30.5697920471
 20
2.3399254321
 40
0.0064647042
 50
306.5086174083
 51
340.2162360092
 73
1
 72
2
 10
30.5645908704
 20
2.3416694937
 40
0.0119498009
 50
340.7883861657
 51
1.1691452593
 73
1
 72
1
 10
30.5765381836
 20
2.3419133176
 11
30.5765381836
 21
2.3445393191
 72
2
 10
30.5790131831
 20
2.3445393209
 40
0.0024749995
 50
89.9999571958
 51
180.0000428043
 73
1
 72
1
 10
30.579013185
 20
2.3470143205
 11
30.5911231917
 21
2.3470143205
 72
2
 10
30.5911231935
 20
2.3445393209
 40
0.0024749995
 50
359.9999571957
 51
90.0000428042
 73
1
 72
1
 10
30.5935981931
 20
2.3445393191
 11
30.5935981931
 21
2.3329873127
 72
2
 10
30.5760424965
 20
2.3330916303
 40
0.0175560065
 50
332.2279060967
 51
359.6595469939
 73
1
 72
2
 10
30.5667354857
 20
2.3379861357
 40
0.0280715479
 50
308.5071794988
 51
332.2400656899
 73
1
 72
2
 10
30.5597433003
 20
2.3455873536
 40
0.0383802683
 50
288.7656836787
 51
309.6104317088
 73
1
 72
2
 10
30.5654812677
 20
2.3280006042
 40
0.0198837666
 50
271.8586572978
 51
289.4131338543
 73
1
 72
1
 10
30.5661261778
 20
2.3081272989
 11
30.5187621516
 21
2.3081272989
 97
267
330
2B1
330
2B2
330
2B3
330
2B4
330
2B5
330
2B6
330
2B7
330
2B8
330
2B9
330
2BA
330
2BB
330
2BC
330
2BD
330
2BE
330
2BF
330
2C0
330
2C1
330
2C2
330
2C3
330
2C4
330
2C5
330
2C6
330
2C7
330
2C8
330
2C9
330
2CA
330
2CB
330
2CC
330
2CD
330
2CE
330
2CF
330
2D0
330
2D1
330
2D2
330
2D3
330
2D4
330
2D5
330
2D6
330
2D7
330
2D8
330
2D9
330
2DA
330
2DB
330
2DC
330
2DD
330
2DE
330
2DF
330
2E0
330
2E1
330
2E2
330
2E3
330
2E4
330
2E5
330
2E6
330
2E7
330
2E8
330
2E9
330
2EA
330
2EB
330
2EC
330
2ED
330
2EE
330
2EF
330
2F0
330
2F1
330
2F2
330
2F3
330
2F4
330
2F5
330
2F6
330
2F7
330
2F8
330
2F9
330
2FA
330
2FB
330
2FC
330
2FD
330
2FE
330
2FF
330
300
330
301
330
302
330
303
330
304
330
305
330
306
330
307
330
308
330
309
330
30A
330
30B
330
30C
330
30D
330
30E
330
30F
330
310
330
311
330
312
330
313
330
314
330
315
330
316
330
317
330
318
330
319
330
31A
330
31B
330
31C
330
31D
330
31E
330
31F
330
320
330
321
330
322
330
323
330
324
330
325
330
326
330
327
330
328
330
329
330
32A
330
32B
330
32C
330
32D
330
32E
330
32F
330
330
330
331
330
332
330
333
330
334
330
335
330
336
330
337
330
338
330
339
330
33A
330
33B
330
33C
330
33D
330
33E
330
33F
330
340
330
341
330
342
330
343
330
344
330
345
330
346
330
347
330
348
330
349
330
34A
330
34B
330
34C
330
34D
330
34E
330
34F
330
350
330
351
330
352
330
353
330
354
330
355
330
356
330
357
330
358
330
359
330
35A
330
35B
330
35C
330
35D
330
35E
330
35F
330
360
330
361
330
362
330
363
330
364
330
365
330
366
330
367
330
368
330
369
330
36A
330
36B
330
36C
330
36D
330
36E
330
36F
330
370
330
371
330
372
330
373
330
374
330
375
330
376
330
377
330
378
330
379
330
37A
330
37B
330
37C
330
37D
330
37E
330
37F
330
380
330
381
330
382
330
383
330
384
330
385
330
386
330
387
330
388
330
389
330
38A
330
38B
330
38C
330
38D
330
38E
330
38F
330
390
330
391
330
392
330
393
330
394
330
395
330
396
330
397
330
398
330
399
330
39A
330
39B
330
39C
330
39D
330
39E
330
39F
330
3A0
330
3A1
330
3A2
330
3A3
330
3A4
330
3A5
330
3A6
330
3A7
330
3A8
330
3A9
330
3AA
330
3AB
330
3AC
330
3AD
330
3AE
330
3AF
330
3B0
330
3B1
330
3B2
330
3B3
330
3B4
330
3B5
330
3B6
330
3B7
330
3B8
330
3B9
330
3BA
330
3BB
 92
1
 93
40
 72
2
 10
30.1291839337
 20
2.3106022984
 40
0.0024749995
 50
179.9999571957
 51
270.0000428043
 73
1
 72
1
 10
30.1267089341
 20
2.3106023003
 11
30.1267089341
 21
2.3304023112
 72
2
 10
30.1291839337
 20
2.3304023131
 40
0.0024749995
 50
89.9999571958
 51
180.0000428044
 73
1
 72
1
 10
30.1291839355
 20
2.3328773126
 11
30.1531069488
 21
2.3328773126
 72
2
 10
30.1531069506
 20
2.3353523121
 40
0.0024749995
 50
269.9999571956
 51
0.0000428042
 73
1
 72
1
 10
30.1555819501
 20
2.335352314
 11
30.1555819501
 21
2.3817073397
 72
2
 10
30.1531069506
 20
2.3817073415
 40
0.0024749995
 50
359.9999571957
 51
90.0000428043
 73
1
 72
1
 10
30.1531069488
 20
2.3841823411
 11
30.1291839355
 21
2.3841823411
 72
2
 10
30.1291839337
 20
2.3866573406
 40
0.0024749995
 50
179.9999571957
 51
270.0000428043
 73
1
 72
1
 10
30.1267089341
 20
2.3866573424
 11
30.1267089341
 21
2.4064573534
 72
2
 10
30.1291839337
 20
2.4064573553
 40
0.0024749995
 50
89.9999571958
 51
180.0000428044
 73
1
 72
1
 10
30.1291839355
 20
2.4089323548
 11
30.3309770474
 21
2.4089323548
 72
2
 10
30.3309770493
 20
2.4064573553
 40
0.0024749995
 50
359.9999571957
 51
90.0000428042
 73
1
 72
1
 10
30.3334520488
 20
2.4064573534
 11
30.3334520488
 21
2.3734573351
 72
2
 10
30.3309770493
 20
2.3734573333
 40
0.0024749995
 50
269.9999571957
 51
0.0000428042
 73
1
 72
1
 10
30.3309770474
 20
2.3709823337
 11
30.2891130242
 21
2.3709823337
 72
2
 10
30.2891130223
 20
2.3734573333
 40
0.0024749995
 50
179.9999571957
 51
270.0000428042
 73
1
 72
1
 10
30.2866380228
 20
2.3734573351
 11
30.2866380228
 21
2.3817073397
 72
2
 10
30.2841630233
 20
2.3817073415
 40
0.0024749995
 50
359.9999571957
 51
90.0000428042
 73
1
 72
1
 10
30.2841630215
 20
2.3841823411
 11
30.2201229859
 21
2.3841823411
 72
2
 10
30.2201229841
 20
2.3817073415
 40
0.0024749995
 50
89.9999571957
 51
180.0000428042
 73
1
 72
1
 10
30.2176479846
 20
2.3817073397
 11
30.2176479846
 21
2.3701573333
 72
2
 10
30.2201229841
 20
2.3701573314
 40
0.0024749995
 50
179.9999571957
 51
270.0000428042
 73
1
 72
1
 10
30.2201229859
 20
2.3676823319
 11
30.2552900054
 21
2.3676823319
 72
2
 10
30.2552900073
 20
2.3652073324
 40
0.0024749995
 50
359.9999571957
 51
90.0000428042
 73
1
 72
1
 10
30.2577650068
 20
2.3652073305
 11
30.2577650068
 21
2.3518523231
 72
2
 10
30.2552900073
 20
2.3518523213
 40
0.0024749995
 50
269.9999571956
 51
0.0000428042
 73
1
 72
1
 10
30.2552900054
 20
2.3493773218
 11
30.2201229859
 21
2.3493773218
 72
2
 10
30.2201229841
 20
2.3469023222
 40
0.0024749995
 50
89.9999571957
 51
180.0000428042
 73
1
 72
1
 10
30.2176479846
 20
2.3469023204
 11
30.2176479846
 21
2.335352314
 72
2
 10
30.2201229841
 20
2.3353523121
 40
0.0024749995
 50
179.9999571957
 51
270.0000428042
 73
1
 72
1
 10
30.2201229859
 20
2.3328773126
 11
30.285127022
 21
2.3328773126
 72
2
 10
30.2851270238
 20
2.3353523121
 40
0.0024749995
 50
269.9999571957
 51
0.0000428043
 73
1
 72
1
 10
30.2876020234
 20
2.335352314
 11
30.2876020234
 21
2.3436023186
 72
2
 10
30.2900770229
 20
2.3436023204
 40
0.0024749995
 50
89.9999571956
 51
180.0000428042
 73
1
 72
1
 10
30.2900770247
 20
2.3460773199
 11
30.3323960482
 21
2.3460773199
 72
2
 10
30.33239605
 20
2.3436023204
 40
0.0024749995
 50
359.9999571957
 51
90.0000428043
 73
1
 72
1
 10
30.3348710496
 20
2.3436023186
 11
30.3348710496
 21
2.3106023003
 72
2
 10
30.33239605
 20
2.3106022984
 40
0.0024749995
 50
269.9999571956
 51
0.0000428042
 73
1
 72
1
 10
30.3323960482
 20
2.3081272989
 11
30.1291839355
 21
2.3081272989
 97
267
330
2B1
330
2B2
330
2B3
330
2B4
330
2B5
330
2B6
330
2B7
330
2B8
330
2B9
330
2BA
330
2BB
330
2BC
330
2BD
330
2BE
330
2BF
330
2C0
330
2C1
330
2C2
330
2C3
330
2C4
330
2C5
330
2C6
330
2C7
330
2C8
330
2C9
330
2CA
330
2CB
330
2CC
330
2CD
330
2CE
330
2CF
330
2D0
330
2D1
330
2D2
330
2D3
330
2D4
330
2D5
330
2D6
330
2D7
330
2D8
330
2D9
330
2DA
330
2DB
330
2DC
330
2DD
330
2DE
330
2DF
330
2E0
330
2E1
330
2E2
330
2E3
330
2E4
330
2E5
330
2E6
330
2E7
330
2E8
330
2E9
330
2EA
330
2EB
330
2EC
330
2ED
330
2EE
330
2EF
330
2F0
330
2F1
330
2F2
330
2F3
330
2F4
330
2F5
330
2F6
330
2F7
330
2F8
330
2F9
330
2FA
330
2FB
330
2FC
330
2FD
330
2FE
330
2FF
330
300
330
301
330
302
330
303
330
304
330
305
330
306
330
307
330
308
330
309
330
30A
330
30B
330
30C
330
30D
330
30E
330
30F
330
310
330
311
330
312
330
313
330
314
330
315
330
316
330
317
330
318
330
319
330
31A
330
31B
330
31C
330
31D
330
31E
330
31F
330
320
330
321
330
322
330
323
330
324
330
325
330
326
330
327
330
328
330
329
330
32A
330
32B
330
32C
330
32D
330
32E
330
32F
330
330
330
331
330
332
330
333
330
334
330
335
330
336
330
337
330
338
330
339
330
33A
330
33B
330
33C
330
33D
330
33E
330
33F
330
340
330
341
330
342
330
343
330
344
330
345
330
346
330
347
330
348
330
349
330
34A
330
34B
330
34C
330
34D
330
34E
330
34F
330
350
330
351
330
352
330
353
330
354
330
355
330
356
330
357
330
358
330
359
330
35A
330
35B
330
35C
330
35D
330
35E
330
35F
330
360
330
361
330
362
330
363
330
364
330
365
330
366
330
367
330
368
330
369
330
36A
330
36B
330
36C
330
36D
330
36E
330
36F
330
370
330
371
330
372
330
373
330
374
330
375
330
376
330
377
330
378
330
379
330
37A
330
37B
330
37C
330
37D
330
37E
330
37F
330
380
330
381
330
382
330
383
330
384
330
385
330
386
330
387
330
388
330
389
330
38A
330
38B
330
38C
330
38D
330
38E
330
38F
330
390
330
391
330
392
330
393
330
394
330
395
330
396
330
397
330
398
330
399
330
39A
330
39B
330
39C
330
39D
330
39E
330
39F
330
3A0
330
3A1
330
3A2
330
3A3
330
3A4
330
3A5
330
3A6
330
3A7
330
3A8
330
3A9
330
3AA
330
3AB
330
3AC
330
3AD
330
3AE
330
3AF
330
3B0
330
3B1
330
3B2
330
3B3
330
3B4
330
3B5
330
3B6
330
3B7
330
3B8
330
3B9
330
3BA
330
3BB
 92
1
 93
40
 72
2
 10
30.0045047316
 20
2.3106014667
 40
0.0024741678
 50
226.3477981898
 51
270.0031206038
 73
1
 72
1
 10
30.0027968654
 20
2.3088112993
 11
29.9395168303
 21
2.3691893327
 72
2
 10
29.9378081294
 20
2.367398395
 40
0.0024753014
 50
46.3461263058
 51
180.0014637321
 73
1
 72
1
 10
29.935332828
 20
2.3673983318
 11
29.935332828
 21
2.335352314
 72
2
 10
29.9378078275
 20
2.3353523121
 40
0.0024749995
 50
179.9999571957
 51
270.0000428043
 73
1
 72
1
 10
29.9378078294
 20
2.3328773126
 11
29.9581248406
 21
2.3328773126
 72
2
 10
29.9581248425
 20
2.3304023131
 40
0.0024749995
 50
359.9999571957
 51
90.0000428043
 73
1
 72
1
 10
29.960599842
 20
2.3304023112
 11
29.960599842
 21
2.3106023003
 72
2
 10
29.9581248425
 20
2.3106022984
 40
0.0024749995
 50
269.9999571957
 51
0.0000428043
 73
1
 72
1
 10
29.9581248406
 20
2.3081272989
 11
29.8824607987
 21
2.3081272989
 72
2
 10
29.8824607968
 20
2.3106022984
 40
0.0024749995
 50
179.9999571957
 51
270.0000428042
 73
1
 72
1
 10
29.8799857973
 20
2.3106023003
 11
29.8799857973
 21
2.3304023112
 72
2
 10
29.8824607968
 20
2.3304023131
 40
0.0024749995
 50
89.9999571957
 51
180.0000428042
 73
1
 72
1
 10
29.8824607987
 20
2.3328773126
 11
29.901106809
 21
2.3328773126
 72
2
 10
29.9011068109
 20
2.3353523121
 40
0.0024749995
 50
269.9999571958
 51
0.0000428043
 73
1
 72
1
 10
29.9035818104
 20
2.335352314
 11
29.9035818104
 21
2.3817073397
 72
2
 10
29.9011068109
 20
2.3817073415
 40
0.0024749995
 50
359.9999571957
 51
90.0000428042
 73
1
 72
1
 10
29.901106809
 20
2.3841823411
 11
29.8824607987
 21
2.3841823411
 72
2
 10
29.8824607968
 20
2.3866573406
 40
0.0024749995
 50
179.9999571957
 51
270.0000428042
 73
1
 72
1
 10
29.8799857973
 20
2.3866573424
 11
29.8799857973
 21
2.4064573534
 72
2
 10
29.8824607968
 20
2.4064573553
 40
0.0024749995
 50
89.9999571957
 51
180.0000428042
 73
1
 72
1
 10
29.8824607987
 20
2.4089323548
 11
29.9829188544
 21
2.4089323548
 72
2
 10
29.9829189891
 20
2.406458187
 40
0.0024741678
 50
46.3477981898
 51
90.0031206038
 73
1
 72
1
 10
29.9846268553
 20
2.4082483544
 11
30.0446598886
 21
2.3509683226
 72
2
 10
30.0463685896
 20
2.3527592604
 40
0.0024753014
 50
226.3461263059
 51
0.0014637321
 73
1
 72
1
 10
30.048843891
 20
2.3527593236
 11
30.048843891
 21
2.3817073397
 72
2
 10
30.0463688914
 20
2.3817073415
 40
0.0024749995
 50
359.9999571957
 51
90.0000428042
 73
1
 72
1
 10
30.0463688896
 20
2.3841823411
 11
30.0275928792
 21
2.3841823411
 72
2
 10
30.0275928773
 20
2.3866573406
 40
0.0024749995
 50
179.9999571957
 51
270.0000428043
 73
1
 72
1
 10
30.0251178778
 20
2.3866573424
 11
30.0251178778
 21
2.4064573534
 72
2
 10
30.0275928773
 20
2.4064573553
 40
0.0024749995
 50
89.9999571958
 51
180.0000428044
 73
1
 72
1
 10
30.0275928792
 20
2.4089323548
 11
30.1015939202
 21
2.4089323548
 72
2
 10
30.1015939221
 20
2.4064573553
 40
0.0024749995
 50
359.9999571957
 51
90.0000428043
 73
1
 72
1
 10
30.1040689216
 20
2.4064573534
 11
30.1040689216
 21
2.3866573424
 72
2
 10
30.1015939221
 20
2.3866573406
 40
0.0024749995
 50
269.9999571956
 51
0.0000428042
 73
1
 72
1
 10
30.1015939202
 20
2.3841823411
 11
30.0836609103
 21
2.3841823411
 72
2
 10
30.0836609084
 20
2.3817073415
 40
0.0024749995
 50
89.9999571957
 51
180.0000428042
 73
1
 72
1
 10
30.0811859089
 20
2.3817073397
 11
30.0811859089
 21
2.3106023003
 72
2
 10
30.0787109094
 20
2.3106022984
 40
0.0024749995
 50
269.9999571958
 51
0.0000428043
 73
1
 72
1
 10
30.0787109075
 20
2.3081272989
 11
30.0045048664
 21
2.3081272989
 97
267
330
2B1
330
2B2
330
2B3
330
2B4
330
2B5
330
2B6
330
2B7
330
2B8
330
2B9
330
2BA
330
2BB
330
2BC
330
2BD
330
2BE
330
2BF
330
2C0
330
2C1
330
2C2
330
2C3
330
2C4
330
2C5
330
2C6
330
2C7
330
2C8
330
2C9
330
2CA
330
2CB
330
2CC
330
2CD
330
2CE
330
2CF
330
2D0
330
2D1
330
2D2
330
2D3
330
2D4
330
2D5
330
2D6
330
2D7
330
2D8
330
2D9
330
2DA
330
2DB
330
2DC
330
2DD
330
2DE
330
2DF
330
2E0
330
2E1
330
2E2
330
2E3
330
2E4
330
2E5
330
2E6
330
2E7
330
2E8
330
2E9
330
2EA
330
2EB
330
2EC
330
2ED
330
2EE
330
2EF
330
2F0
330
2F1
330
2F2
330
2F3
330
2F4
330
2F5
330
2F6
330
2F7
330
2F8
330
2F9
330
2FA
330
2FB
330
2FC
330
2FD
330
2FE
330
2FF
330
300
330
301
330
302
330
303
330
304
330
305
330
306
330
307
330
308
330
309
330
30A
330
30B
330
30C
330
30D
330
30E
330
30F
330
310
330
311
330
312
330
313
330
314
330
315
330
316
330
317
330
318
330
319
330
31A
330
31B
330
31C
330
31D
330
31E
330
31F
330
320
330
321
330
322
330
323
330
324
330
325
330
326
330
327
330
328
330
329
330
32A
330
32B
330
32C
330
32D
330
32E
330
32F
330
330
330
331
330
332
330
333
330
334
330
335
330
336
330
337
330
338
330
339
330
33A
330
33B
330
33C
330
33D
330
33E
330
33F
330
340
330
341
330
342
330
343
330
344
330
345
330
346
330
347
330
348
330
349
330
34A
330
34B
330
34C
330
34D
330
34E
330
34F
330
350
330
351
330
352
330
353
330
354
330
355
330
356
330
357
330
358
330
359
330
35A
330
35B
330
35C
330
35D
330
35E
330
35F
330
360
330
361
330
362
330
363
330
364
330
365
330
366
330
367
330
368
330
369
330
36A
330
36B
330
36C
330
36D
330
36E
330
36F
330
370
330
371
330
372
330
373
330
374
330
375
330
376
330
377
330
378
330
379
330
37A
330
37B
330
37C
330
37D
330
37E
330
37F
330
380
330
381
330
382
330
383
330
384
330
385
330
386
330
387
330
388
330
389
330
38A
330
38B
330
38C
330
38D
330
38E
330
38F
330
390
330
391
330
392
330
393
330
394
330
395
330
396
330
397
330
398
330
399
330
39A
330
39B
330
39C
330
39D
330
39E
330
39F
330
3A0
330
3A1
330
3A2
330
3A3
330
3A4
330
3A5
330
3A6
330
3A7
330
3A8
330
3A9
330
3AA
330
3AB
330
3AC
330
3AD
330
3AE
330
3AF
330
3B0
330
3B1
330
3B2
330
3B3
330
3B4
330
3B5
330
3B6
330
3B7
330
3B8
330
3B9
330
3BA
330
3BB
 92
1
 93
40
 72
2
 10
29.7562520939
 20
2.310602715
 40
0.0024754162
 50
226.3593695814
 51
270.0146919953
 73
1
 72
1
 10
29.7545437277
 20
2.3088112993
 11
29.6912636927
 21
2.3691893327
 72
2
 10
29.6895549917
 20
2.367398395
 40
0.0024753014
 50
46.3461263059
 51
180.0014637321
 73
1
 72
1
 10
29.6870796903
 20
2.3673983318
 11
29.6870796903
 21
2.335352314
 72
2
 10
29.6895546899
 20
2.3353523121
 40
0.0024749995
 50
179.9999571957
 51
270.0000428042
 73
1
 72
1
 10
29.6895546917
 20
2.3328773126
 11
29.709871703
 21
2.3328773126
 72
2
 10
29.7098717048
 20
2.3304023131
 40
0.0024749995
 50
359.9999571957
 51
90.0000428042
 73
1
 72
1
 10
29.7123467043
 20
2.3304023112
 11
29.7123467043
 21
2.3106023003
 72
2
 10
29.7098717048
 20
2.3106022984
 40
0.0024749995
 50
269.9999571957
 51
0.0000428042
 73
1
 72
1
 10
29.709871703
 20
2.3081272989
 11
29.634207661
 21
2.3081272989
 72
2
 10
29.6342076592
 20
2.3106022984
 40
0.0024749995
 50
179.9999571957
 51
270.0000428042
 73
1
 72
1
 10
29.6317326596
 20
2.3106023003
 11
29.6317326596
 21
2.3304023112
 72
2
 10
29.6342076592
 20
2.3304023131
 40
0.0024749995
 50
89.9999571958
 51
180.0000428043
 73
1
 72
1
 10
29.634207661
 20
2.3328773126
 11
29.6528546714
 21
2.3328773126
 72
2
 10
29.6528546732
 20
2.3353523121
 40
0.0024749995
 50
269.9999571957
 51
0.0000428042
 73
1
 72
1
 10
29.6553296727
 20
2.335352314
 11
29.6553296727
 21
2.3817073397
 72
2
 10
29.6528546732
 20
2.3817073415
 40
0.0024749995
 50
359.9999571957
 51
90.0000428042
 73
1
 72
1
 10
29.6528546714
 20
2.3841823411
 11
29.634207661
 21
2.3841823411
 72
2
 10
29.6342076592
 20
2.3866573406
 40
0.0024749995
 50
179.9999571957
 51
270.0000428042
 73
1
 72
1
 10
29.6317326596
 20
2.3866573424
 11
29.6317326596
 21
2.4064573534
 72
2
 10
29.6342076592
 20
2.4064573553
 40
0.0024749995
 50
89.9999571958
 51
180.0000428043
 73
1
 72
1
 10
29.634207661
 20
2.4089323548
 11
29.7346657167
 21
2.4089323548
 72
2
 10
29.7346658515
 20
2.406458187
 40
0.0024741678
 50
46.3477981899
 51
90.0031206039
 73
1
 72
1
 10
29.7363737177
 20
2.4082483544
 11
29.796406751
 21
2.3509683226
 72
2
 10
29.7981154519
 20
2.3527592604
 40
0.0024753014
 50
226.3461263059
 51
0.0014637321
 73
1
 72
1
 10
29.8005907533
 20
2.3527593236
 11
29.8005907533
 21
2.3817073397
 72
2
 10
29.7981157538
 20
2.3817073415
 40
0.0024749995
 50
359.9999571957
 51
90.0000428042
 73
1
 72
1
 10
29.7981157519
 20
2.3841823411
 11
29.7793397415
 21
2.3841823411
 72
2
 10
29.7793397396
 20
2.3866573406
 40
0.0024749995
 50
179.9999571957
 51
270.0000428042
 73
1
 72
1
 10
29.7768647401
 20
2.3866573424
 11
29.7768647401
 21
2.4064573534
 72
2
 10
29.7793397396
 20
2.4064573553
 40
0.0024749995
 50
89.9999571957
 51
180.0000428042
 73
1
 72
1
 10
29.7793397415
 20
2.4089323548
 11
29.8533407825
 21
2.4089323548
 72
2
 10
29.8533407844
 20
2.4064573553
 40
0.0024749995
 50
359.9999571957
 51
90.0000428042
 73
1
 72
1
 10
29.8558157839
 20
2.4064573534
 11
29.8558157839
 21
2.3866573424
 72
2
 10
29.8533407844
 20
2.3866573406
 40
0.0024749995
 50
269.9999571958
 51
0.0000428044
 73
1
 72
1
 10
29.8533407825
 20
2.3841823411
 11
29.8354077726
 21
2.3841823411
 72
2
 10
29.8354077707
 20
2.3817073415
 40
0.0024749995
 50
89.9999571956
 51
180.0000428042
 73
1
 72
1
 10
29.8329327712
 20
2.3817073397
 11
29.8329327712
 21
2.3106023003
 72
2
 10
29.8304577717
 20
2.3106022984
 40
0.0024749995
 50
269.9999571956
 51
0.0000428042
 73
1
 72
1
 10
29.8304577698
 20
2.3081272989
 11
29.7562527287
 21
2.3081272989
 97
267
330
2B1
330
2B2
330
2B3
330
2B4
330
2B5
330
2B6
330
2B7
330
2B8
330
2B9
330
2BA
330
2BB
330
2BC
330
2BD
330
2BE
330
2BF
330
2C0
330
2C1
330
2C2
330
2C3
330
2C4
330
2C5
330
2C6
330
2C7
330
2C8
330
2C9
330
2CA
330
2CB
330
2CC
330
2CD
330
2CE
330
2CF
330
2D0
330
2D1
330
2D2
330
2D3
330
2D4
330
2D5
330
2D6
330
2D7
330
2D8
330
2D9
330
2DA
330
2DB
330
2DC
330
2DD
330
2DE
330
2DF
330
2E0
330
2E1
330
2E2
330
2E3
330
2E4
330
2E5
330
2E6
330
2E7
330
2E8
330
2E9
330
2EA
330
2EB
330
2EC
330
2ED
330
2EE
330
2EF
330
2F0
330
2F1
330
2F2
330
2F3
330
2F4
330
2F5
330
2F6
330
2F7
330
2F8
330
2F9
330
2FA
330
2FB
330
2FC
330
2FD
330
2FE
330
2FF
330
300
330
301
330
302
330
303
330
304
330
305
330
306
330
307
330
308
330
309
330
30A
330
30B
330
30C
330
30D
330
30E
330
30F
330
310
330
311
330
312
330
313
330
314
330
315
330
316
330
317
330
318
330
319
330
31A
330
31B
330
31C
330
31D
330
31E
330
31F
330
320
330
321
330
322
330
323
330
324
330
325
330
326
330
327
330
328
330
329
330
32A
330
32B
330
32C
330
32D
330
32E
330
32F
330
330
330
331
330
332
330
333
330
334
330
335
330
336
330
337
330
338
330
339
330
33A
330
33B
330
33C
330
33D
330
33E
330
33F
330
340
330
341
330
342
330
343
330
344
330
345
330
346
330
347
330
348
330
349
330
34A
330
34B
330
34C
330
34D
330
34E
330
34F
330
350
330
351
330
352
330
353
330
354
330
355
330
356
330
357
330
358
330
359
330
35A
330
35B
330
35C
330
35D
330
35E
330
35F
330
360
330
361
330
362
330
363
330
364
330
365
330
366
330
367
330
368
330
369
330
36A
330
36B
330
36C
330
36D
330
36E
330
36F
330
370
330
371
330
372
330
373
330
374
330
375
330
376
330
377
330
378
330
379
330
37A
330
37B
330
37C
330
37D
330
37E
330
37F
330
380
330
381
330
382
330
383
330
384
330
385
330
386
330
387
330
388
330
389
330
38A
330
38B
330
38C
330
38D
330
38E
330
38F
330
390
330
391
330
392
330
393
330
394
330
395
330
396
330
397
330
398
330
399
330
39A
330
39B
330
39C
330
39D
330
39E
330
39F
330
3A0
330
3A1
330
3A2
330
3A3
330
3A4
330
3A5
330
3A6
330
3A7
330
3A8
330
3A9
330
3AA
330
3AB
330
3AC
330
3AD
330
3AE
330
3AF
330
3B0
330
3B1
330
3B2
330
3B3
330
3B4
330
3B5
330
3B6
330
3B7
330
3B8
330
3B9
330
3BA
330
3BB
 92
1
 93
23
 72
2
 10
29.3410971553
 20
2.3565347507
 40
0.048483885
 50
273.21763719
 51
303.0749121182
 73
1
 72
2
 10
29.3559365494
 20
2.3337671418
 40
0.0213072145
 50
303.0488228549
 51
355.7263138674
 73
1
 72
2
 10
29.36187305
 20
2.3337763321
 40
0.0153945295
 50
354.0454548824
 51
5.1878013979
 73
1
 72
2
 10
29.3550433609
 20
2.3335878142
 40
0.0222174455
 50
4.0793399388
 51
69.834329283
 73
1
 72
1
 10
29.3627025104
 20
2.3544433246
 11
29.3526515049
 21
2.3579923265
 72
1
 10
29.3526515049
 20
2.3579923265
 11
29.3608915094
 21
2.3627683292
 72
2
 10
29.339026127
 20
2.3995952208
 40
0.0428289026
 50
300.6990502959
 51
319.0591802498
 73
1
 72
2
 10
29.3590547239
 20
2.3834668674
 40
0.0171568255
 50
315.9145124245
 51
16.0049121282
 73
1
 72
2
 10
29.3541031117
 20
2.3801132029
 40
0.0229166529
 50
20.6563876465
 51
62.3316896973
 73
1
 72
2
 10
29.3334409881
 20
2.347184638
 40
0.061747717
 50
59.5385584989
 51
90.0050977555
 73
1
 72
1
 10
29.3334354942
 20
2.4089323548
 11
29.1673724021
 21
2.4089323548
 72
2
 10
29.1673724003
 20
2.4064573553
 40
0.0024749995
 50
89.9999571958
 51
180.0000428044
 73
1
 72
1
 10
29.1648974007
 20
2.4064573534
 11
29.1648974007
 21
2.3866573424
 72
2
 10
29.1673724003
 20
2.3866573406
 40
0.0024749995
 50
179.9999571957
 51
270.0000428042
 73
1
 72
1
 10
29.1673724021
 20
2.3841823411
 11
29.1913144154
 21
2.3841823411
 72
2
 10
29.1913144172
 20
2.3817073415
 40
0.0024749995
 50
359.9999571957
 51
90.0000428042
 73
1
 72
1
 10
29.1937894168
 20
2.3817073397
 11
29.1937894168
 21
2.335352314
 72
2
 10
29.1913144172
 20
2.3353523121
 40
0.0024749995
 50
269.9999571957
 51
0.0000428042
 73
1
 72
1
 10
29.1913144154
 20
2.3328773126
 11
29.1673724021
 21
2.3328773126
 72
2
 10
29.1673724003
 20
2.3304023131
 40
0.0024749995
 50
89.9999571958
 51
180.0000428044
 73
1
 72
1
 10
29.1648974007
 20
2.3304023112
 11
29.1648974007
 21
2.3106023003
 72
2
 10
29.1673724003
 20
2.3106022984
 40
0.0024749995
 50
179.9999571957
 51
270.0000428042
 73
1
 72
1
 10
29.1673724021
 20
2.3081272989
 11
29.3438185
 21
2.3081272989
 97
267
330
2B1
330
2B2
330
2B3
330
2B4
330
2B5
330
2B6
330
2B7
330
2B8
330
2B9
330
2BA
330
2BB
330
2BC
330
2BD
330
2BE
330
2BF
330
2C0
330
2C1
330
2C2
330
2C3
330
2C4
330
2C5
330
2C6
330
2C7
330
2C8
330
2C9
330
2CA
330
2CB
330
2CC
330
2CD
330
2CE
330
2CF
330
2D0
330
2D1
330
2D2
330
2D3
330
2D4
330
2D5
330
2D6
330
2D7
330
2D8
330
2D9
330
2DA
330
2DB
330
2DC
330
2DD
330
2DE
330
2DF
330
2E0
330
2E1
330
2E2
330
2E3
330
2E4
330
2E5
330
2E6
330
2E7
330
2E8
330
2E9
330
2EA
330
2EB
330
2EC
330
2ED
330
2EE
330
2EF
330
2F0
330
2F1
330
2F2
330
2F3
330
2F4
330
2F5
330
2F6
330
2F7
330
2F8
330
2F9
330
2FA
330
2FB
330
2FC
330
2FD
330
2FE
330
2FF
330
300
330
301
330
302
330
303
330
304
330
305
330
306
330
307
330
308
330
309
330
30A
330
30B
330
30C
330
30D
330
30E
330
30F
330
310
330
311
330
312
330
313
330
314
330
315
330
316
330
317
330
318
330
319
330
31A
330
31B
330
31C
330
31D
330
31E
330
31F
330
320
330
321
330
322
330
323
330
324
330
325
330
326
330
327
330
328
330
329
330
32A
330
32B
330
32C
330
32D
330
32E
330
32F
330
330
330
331
330
332
330
333
330
334
330
335
330
336
330
337
330
338
330
339
330
33A
330
33B
330
33C
330
33D
330
33E
330
33F
330
340
330
341
330
342
330
343
330
344
330
345
330
346
330
347
330
348
330
349
330
34A
330
34B
330
34C
330
34D
330
34E
330
34F
330
350
330
351
330
352
330
353
330
354
330
355
330
356
330
357
330
358
330
359
330
35A
330
35B
330
35C
330
35D
330
35E
330
35F
330
360
330
361
330
362
330
363
330
364
330
365
330
366
330
367
330
368
330
369
330
36A
330
36B
330
36C
330
36D
330
36E
330
36F
330
370
330
371
330
372
330
373
330
374
330
375
330
376
330
377
330
378
330
379
330
37A
330
37B
330
37C
330
37D
330
37E
330
37F
330
380
330
381
330
382
330
383
330
384
330
385
330
386
330
387
330
388
330
389
330
38A
330
38B
330
38C
330
38D
330
38E
330
38F
330
390
330
391
330
392
330
393
330
394
330
395
330
396
330
397
330
398
330
399
330
39A
330
39B
330
39C
330
39D
330
39E
330
39F
330
3A0
330
3A1
330
3A2
330
3A3
330
3A4
330
3A5
330
3A6
330
3A7
330
3A8
330
3A9
330
3AA
330
3AB
330
3AC
330
3AD
330
3AE
330
3AF
330
3B0
330
3B1
330
3B2
330
3B3
330
3B4
330
3B5
330
3B6
330
3B7
330
3B8
330
3B9
330
3BA
330
3BB
 92
1
 93
32
 72
2
 10
29.4787315766
 20
2.3106022984
 40
0.0024749995
 50
269.9999571958
 51
0.0000428044
 73
1
 72
1
 10
29.4812065762
 20
2.3106023003
 11
29.4812065762
 21
2.3304023112
 72
2
 10
29.4787315766
 20
2.3304023131
 40
0.0024749995
 50
359.9999571957
 51
90.0000428042
 73
1
 72
1
 10
29.4787315748
 20
2.3328773126
 11
29.4674485685
 21
2.3328773126
 72
2
 10
29.4674484592
 20
2.3353523527
 40
0.0024750401
 50
147.606325801
 51
270.0025305754
 73
1
 72
1
 10
29.4653585674
 20
2.3366783147
 11
29.4708745704
 21
2.3453723195
 72
2
 10
29.4729645013
 20
2.3440461199
 40
0.0024752003
 50
89.998372645
 51
147.602165307
 73
1
 72
1
 10
29.4729645716
 20
2.3465213202
 11
29.5078425909
 21
2.3465213202
 72
2
 10
29.5078420513
 20
2.34404586
 40
0.0024754602
 50
32.8959418574
 51
89.9875097203
 73
1
 72
1
 10
29.5099205921
 20
2.3453903196
 11
29.5155465952
 21
2.3366973147
 72
2
 10
29.5134685729
 20
2.3353525197
 40
0.0024752071
 50
270.0004896793
 51
32.9089806819
 73
1
 72
1
 10
29.5134685941
 20
2.3328773126
 11
29.499017586
 21
2.3328773126
 72
2
 10
29.4990175842
 20
2.3304023131
 40
0.0024749995
 50
89.9999571958
 51
180.0000428043
 73
1
 72
1
 10
29.4965425847
 20
2.3304023112
 11
29.4965425847
 21
2.3106023003
 72
2
 10
29.4990175842
 20
2.3106022984
 40
0.0024749995
 50
179.9999571957
 51
270.0000428042
 73
1
 72
1
 10
29.499017586
 20
2.3081272989
 11
29.6042986444
 21
2.3081272989
 72
2
 10
29.6042986463
 20
2.3106022984
 40
0.0024749995
 50
269.9999571958
 51
0.0000428043
 73
1
 72
1
 10
29.6067736458
 20
2.3106023003
 11
29.6067736458
 21
2.3304023112
 72
2
 10
29.6042986463
 20
2.3304023131
 40
0.0024749995
 50
359.9999571957
 51
90.0000428042
 73
1
 72
1
 10
29.6042986444
 20
2.3328773126
 11
29.5842826333
 21
2.3328773126
 72
2
 10
29.5842827538
 20
2.3353513536
 40
0.002474041
 50
212.9056413127
 51
269.9972091756
 73
1
 72
1
 10
29.5822056322
 20
2.3340073132
 11
29.5344496057
 21
2.4078023542
 72
2
 10
29.532371984
 20
2.4064573946
 40
0.0024749602
 50
32.9172174468
 51
90.0087853097
 73
1
 72
1
 10
29.5323716045
 20
2.4089323548
 11
29.4751965728
 21
2.4089323548
 72
2
 10
29.4751965025
 20
2.4064571545
 40
0.0024752003
 50
89.998372645
 51
147.602165307
 73
1
 72
1
 10
29.4731065717
 20
2.4077833542
 11
29.4263065457
 21
2.3340263132
 72
2
 10
29.4242166149
 20
2.3353525129
 40
0.0024752003
 50
269.9983726451
 51
327.6021653071
 73
1
 72
1
 10
29.4242165446
 20
2.3328773126
 11
29.4013555319
 21
2.3328773126
 72
2
 10
29.40135553
 20
2.3304023131
 40
0.0024749995
 50
89.9999571957
 51
180.0000428042
 73
1
 72
1
 10
29.3988805305
 20
2.3304023112
 11
29.3988805305
 21
2.3106023003
 72
2
 10
29.40135553
 20
2.3106022984
 40
0.0024749995
 50
179.9999571957
 51
270.0000428042
 73
1
 72
1
 10
29.4013555319
 20
2.3081272989
 11
29.4787315748
 21
2.3081272989
 97
267
330
2B1
330
2B2
330
2B3
330
2B4
330
2B5
330
2B6
330
2B7
330
2B8
330
2B9
330
2BA
330
2BB
330
2BC
330
2BD
330
2BE
330
2BF
330
2C0
330
2C1
330
2C2
330
2C3
330
2C4
330
2C5
330
2C6
330
2C7
330
2C8
330
2C9
330
2CA
330
2CB
330
2CC
330
2CD
330
2CE
330
2CF
330
2D0
330
2D1
330
2D2
330
2D3
330
2D4
330
2D5
330
2D6
330
2D7
330
2D8
330
2D9
330
2DA
330
2DB
330
2DC
330
2DD
330
2DE
330
2DF
330
2E0
330
2E1
330
2E2
330
2E3
330
2E4
330
2E5
330
2E6
330
2E7
330
2E8
330
2E9
330
2EA
330
2EB
330
2EC
330
2ED
330
2EE
330
2EF
330
2F0
330
2F1
330
2F2
330
2F3
330
2F4
330
2F5
330
2F6
330
2F7
330
2F8
330
2F9
330
2FA
330
2FB
330
2FC
330
2FD
330
2FE
330
2FF
330
300
330
301
330
302
330
303
330
304
330
305
330
306
330
307
330
308
330
309
330
30A
330
30B
330
30C
330
30D
330
30E
330
30F
330
310
330
311
330
312
330
313
330
314
330
315
330
316
330
317
330
318
330
319
330
31A
330
31B
330
31C
330
31D
330
31E
330
31F
330
320
330
321
330
322
330
323
330
324
330
325
330
326
330
327
330
328
330
329
330
32A
330
32B
330
32C
330
32D
330
32E
330
32F
330
330
330
331
330
332
330
333
330
334
330
335
330
336
330
337
330
338
330
339
330
33A
330
33B
330
33C
330
33D
330
33E
330
33F
330
340
330
341
330
342
330
343
330
344
330
345
330
346
330
347
330
348
330
349
330
34A
330
34B
330
34C
330
34D
330
34E
330
34F
330
350
330
351
330
352
330
353
330
354
330
355
330
356
330
357
330
358
330
359
330
35A
330
35B
330
35C
330
35D
330
35E
330
35F
330
360
330
361
330
362
330
363
330
364
330
365
330
366
330
367
330
368
330
369
330
36A
330
36B
330
36C
330
36D
330
36E
330
36F
330
370
330
371
330
372
330
373
330
374
330
375
330
376
330
377
330
378
330
379
330
37A
330
37B
330
37C
330
37D
330
37E
330
37F
330
380
330
381
330
382
330
383
330
384
330
385
330
386
330
387
330
388
330
389
330
38A
330
38B
330
38C
330
38D
330
38E
330
38F
330
390
330
391
330
392
330
393
330
394
330
395
330
396
330
397
330
398
330
399
330
39A
330
39B
330
39C
330
39D
330
39E
330
39F
330
3A0
330
3A1
330
3A2
330
3A3
330
3A4
330
3A5
330
3A6
330
3A7
330
3A8
330
3A9
330
3AA
330
3AB
330
3AC
330
3AD
330
3AE
330
3AF
330
3B0
330
3B1
330
3B2
330
3B3
330
3B4
330
3B5
330
3B6
330
3B7
330
3B8
330
3B9
330
3BA
330
3BB
 92
1
 93
6
 72
2
 10
29.2567774499
 20
2.3353523121
 40
0.0024749995
 50
179.9999571957
 51
270.0000428043
 73
1
 72
1
 10
29.2543024503
 20
2.335352314
 11
29.2543024503
 21
2.3477273208
 72
2
 10
29.2567774499
 20
2.3477273227
 40
0.0024749995
 50
89.9999571956
 51
180.0000428042
 73
1
 72
1
 10
29.2567774517
 20
2.3502023222
 11
29.2981404746
 21
2.3502023222
 72
2
 10
29.2981404746
 20
2.3415398174
 40
0.0086625048
 50
270.0
 51
90.0
 73
1
 72
1
 10
29.2981404746
 20
2.3328773126
 11
29.2567774517
 21
2.3328773126
 97
267
330
2B1
330
2B2
330
2B3
330
2B4
330
2B5
330
2B6
330
2B7
330
2B8
330
2B9
330
2BA
330
2BB
330
2BC
330
2BD
330
2BE
330
2BF
330
2C0
330
2C1
330
2C2
330
2C3
330
2C4
330
2C5
330
2C6
330
2C7
330
2C8
330
2C9
330
2CA
330
2CB
330
2CC
330
2CD
330
2CE
330
2CF
330
2D0
330
2D1
330
2D2
330
2D3
330
2D4
330
2D5
330
2D6
330
2D7
330
2D8
330
2D9
330
2DA
330
2DB
330
2DC
330
2DD
330
2DE
330
2DF
330
2E0
330
2E1
330
2E2
330
2E3
330
2E4
330
2E5
330
2E6
330
2E7
330
2E8
330
2E9
330
2EA
330
2EB
330
2EC
330
2ED
330
2EE
330
2EF
330
2F0
330
2F1
330
2F2
330
2F3
330
2F4
330
2F5
330
2F6
330
2F7
330
2F8
330
2F9
330
2FA
330
2FB
330
2FC
330
2FD
330
2FE
330
2FF
330
300
330
301
330
302
330
303
330
304
330
305
330
306
330
307
330
308
330
309
330
30A
330
30B
330
30C
330
30D
330
30E
330
30F
330
310
330
311
330
312
330
313
330
314
330
315
330
316
330
317
330
318
330
319
330
31A
330
31B
330
31C
330
31D
330
31E
330
31F
330
320
330
321
330
322
330
323
330
324
330
325
330
326
330
327
330
328
330
329
330
32A
330
32B
330
32C
330
32D
330
32E
330
32F
330
330
330
331
330
332
330
333
330
334
330
335
330
336
330
337
330
338
330
339
330
33A
330
33B
330
33C
330
33D
330
33E
330
33F
330
340
330
341
330
342
330
343
330
344
330
345
330
346
330
347
330
348
330
349
330
34A
330
34B
330
34C
330
34D
330
34E
330
34F
330
350
330
351
330
352
330
353
330
354
330
355
330
356
330
357
330
358
330
359
330
35A
330
35B
330
35C
330
35D
330
35E
330
35F
330
360
330
361
330
362
330
363
330
364
330
365
330
366
330
367
330
368
330
369
330
36A
330
36B
330
36C
330
36D
330
36E
330
36F
330
370
330
371
330
372
330
373
330
374
330
375
330
376
330
377
330
378
330
379
330
37A
330
37B
330
37C
330
37D
330
37E
330
37F
330
380
330
381
330
382
330
383
330
384
330
385
330
386
330
387
330
388
330
389
330
38A
330
38B
330
38C
330
38D
330
38E
330
38F
330
390
330
391
330
392
330
393
330
394
330
395
330
396
330
397
330
398
330
399
330
39A
330
39B
330
39C
330
39D
330
39E
330
39F
330
3A0
330
3A1
330
3A2
330
3A3
330
3A4
330
3A5
330
3A6
330
3A7
330
3A8
330
3A9
330
3AA
330
3AB
330
3AC
330
3AD
330
3AE
330
3AF
330
3B0
330
3B1
330
3B2
330
3B3
330
3B4
330
3B5
330
3B6
330
3B7
330
3B8
330
3B9
330
3BA
330
3BB
 92
1
 93
13
 72
2
 10
30.4502121117
 20
2.3689823308
 40
0.0024749995
 50
179.9999571957
 51
270.0000428043
 73
1
 72
1
 10
30.4477371122
 20
2.3689823326
 11
30.4477371122
 21
2.3817073397
 72
2
 10
30.4502121117
 20
2.3817073415
 40
0.0024749995
 50
89.9999571958
 51
180.0000428044
 73
1
 72
1
 10
30.4502121135
 20
2.3841823411
 11
30.4870131339
 21
2.3841823411
 72
2
 10
30.4854682464
 20
2.3557278621
 40
0.0284963867
 50
70.3834917948
 51
86.8922743861
 73
1
 72
2
 10
30.4903278565
 20
2.368769595
 40
0.0145814632
 50
54.6746025112
 51
71.1660573124
 73
1
 72
2
 10
30.4954573475
 20
2.3756235202
 40
0.0060275915
 50
20.9055592135
 51
56.7851676243
 73
1
 72
2
 10
30.4967579063
 20
2.3762838024
 40
0.0045795888
 50
355.6235353944
 51
18.9942678268
 73
1
 72
2
 10
30.495551096
 20
2.3765775787
 40
0.0058087709
 50
318.8515287446
 51
353.6422345323
 73
1
 72
2
 10
30.4913804799
 20
2.3798114865
 40
0.0110815393
 50
306.758405961
 51
320.4502234234
 73
1
 72
2
 10
30.4857512889
 20
2.387552315
 40
0.0206523367
 50
289.6883413472
 51
306.4184925496
 73
1
 72
2
 10
30.4838237832
 20
2.3919459623
 40
0.0254407115
 50
270.7327484175
 51
290.441894219
 73
1
 72
1
 10
30.4841491324
 20
2.3665073313
 11
30.4502121135
 21
2.3665073313
 97
267
330
2B1
330
2B2
330
2B3
330
2B4
330
2B5
330
2B6
330
2B7
330
2B8
330
2B9
330
2BA
330
2BB
330
2BC
330
2BD
330
2BE
330
2BF
330
2C0
330
2C1
330
2C2
330
2C3
330
2C4
330
2C5
330
2C6
330
2C7
330
2C8
330
2C9
330
2CA
330
2CB
330
2CC
330
2CD
330
2CE
330
2CF
330
2D0
330
2D1
330
2D2
330
2D3
330
2D4
330
2D5
330
2D6
330
2D7
330
2D8
330
2D9
330
2DA
330
2DB
330
2DC
330
2DD
330
2DE
330
2DF
330
2E0
330
2E1
330
2E2
330
2E3
330
2E4
330
2E5
330
2E6
330
2E7
330
2E8
330
2E9
330
2EA
330
2EB
330
2EC
330
2ED
330
2EE
330
2EF
330
2F0
330
2F1
330
2F2
330
2F3
330
2F4
330
2F5
330
2F6
330
2F7
330
2F8
330
2F9
330
2FA
330
2FB
330
2FC
330
2FD
330
2FE
330
2FF
330
300
330
301
330
302
330
303
330
304
330
305
330
306
330
307
330
308
330
309
330
30A
330
30B
330
30C
330
30D
330
30E
330
30F
330
310
330
311
330
312
330
313
330
314
330
315
330
316
330
317
330
318
330
319
330
31A
330
31B
330
31C
330
31D
330
31E
330
31F
330
320
330
321
330
322
330
323
330
324
330
325
330
326
330
327
330
328
330
329
330
32A
330
32B
330
32C
330
32D
330
32E
330
32F
330
330
330
331
330
332
330
333
330
334
330
335
330
336
330
337
330
338
330
339
330
33A
330
33B
330
33C
330
33D
330
33E
330
33F
330
340
330
341
330
342
330
343
330
344
330
345
330
346
330
347
330
348
330
349
330
34A
330
34B
330
34C
330
34D
330
34E
330
34F
330
350
330
351
330
352
330
353
330
354
330
355
330
356
330
357
330
358
330
359
330
35A
330
35B
330
35C
330
35D
330
35E
330
35F
330
360
330
361
330
362
330
363
330
364
330
365
330
366
330
367
330
368
330
369
330
36A
330
36B
330
36C
330
36D
330
36E
330
36F
330
370
330
371
330
372
330
373
330
374
330
375
330
376
330
377
330
378
330
379
330
37A
330
37B
330
37C
330
37D
330
37E
330
37F
330
380
330
381
330
382
330
383
330
384
330
385
330
386
330
387
330
388
330
389
330
38A
330
38B
330
38C
330
38D
330
38E
330
38F
330
390
330
391
330
392
330
393
330
394
330
395
330
396
330
397
330
398
330
399
330
39A
330
39B
330
39C
330
39D
330
39E
330
39F
330
3A0
330
3A1
330
3A2
330
3A3
330
3A4
330
3A5
330
3A6
330
3A7
330
3A8
330
3A9
330
3AA
330
3AB
330
3AC
330
3AD
330
3AE
330
3AF
330
3B0
330
3B1
330
3B2
330
3B3
330
3B4
330
3B5
330
3B6
330
3B7
330
3B8
330
3B9
330
3BA
330
3BB
 92
1
 93
6
 72
2
 10
29.2981404746
 20
2.3755198363
 40
0.0086625048
 50
270.0
 51
90.0
 73
1
 72
1
 10
29.2981404746
 20
2.3841823411
 11
29.2567774517
 21
2.3841823411
 72
2
 10
29.2567774499
 20
2.3817073415
 40
0.0024749995
 50
89.9999571956
 51
180.0000428042
 73
1
 72
1
 10
29.2543024503
 20
2.3817073397
 11
29.2543024503
 21
2.3693323328
 72
2
 10
29.2567774499
 20
2.369332331
 40
0.0024749995
 50
179.9999571957
 51
270.0000428043
 73
1
 72
1
 10
29.2567774517
 20
2.3668573315
 11
29.2981404746
 21
2.3668573315
 97
267
330
2B1
330
2B2
330
2B3
330
2B4
330
2B5
330
2B6
330
2B7
330
2B8
330
2B9
330
2BA
330
2BB
330
2BC
330
2BD
330
2BE
330
2BF
330
2C0
330
2C1
330
2C2
330
2C3
330
2C4
330
2C5
330
2C6
330
2C7
330
2C8
330
2C9
330
2CA
330
2CB
330
2CC
330
2CD
330
2CE
330
2CF
330
2D0
330
2D1
330
2D2
330
2D3
330
2D4
330
2D5
330
2D6
330
2D7
330
2D8
330
2D9
330
2DA
330
2DB
330
2DC
330
2DD
330
2DE
330
2DF
330
2E0
330
2E1
330
2E2
330
2E3
330
2E4
330
2E5
330
2E6
330
2E7
330
2E8
330
2E9
330
2EA
330
2EB
330
2EC
330
2ED
330
2EE
330
2EF
330
2F0
330
2F1
330
2F2
330
2F3
330
2F4
330
2F5
330
2F6
330
2F7
330
2F8
330
2F9
330
2FA
330
2FB
330
2FC
330
2FD
330
2FE
330
2FF
330
300
330
301
330
302
330
303
330
304
330
305
330
306
330
307
330
308
330
309
330
30A
330
30B
330
30C
330
30D
330
30E
330
30F
330
310
330
311
330
312
330
313
330
314
330
315
330
316
330
317
330
318
330
319
330
31A
330
31B
330
31C
330
31D
330
31E
330
31F
330
320
330
321
330
322
330
323
330
324
330
325
330
326
330
327
330
328
330
329
330
32A
330
32B
330
32C
330
32D
330
32E
330
32F
330
330
330
331
330
332
330
333
330
334
330
335
330
336
330
337
330
338
330
339
330
33A
330
33B
330
33C
330
33D
330
33E
330
33F
330
340
330
341
330
342
330
343
330
344
330
345
330
346
330
347
330
348
330
349
330
34A
330
34B
330
34C
330
34D
330
34E
330
34F
330
350
330
351
330
352
330
353
330
354
330
355
330
356
330
357
330
358
330
359
330
35A
330
35B
330
35C
330
35D
330
35E
330
35F
330
360
330
361
330
362
330
363
330
364
330
365
330
366
330
367
330
368
330
369
330
36A
330
36B
330
36C
330
36D
330
36E
330
36F
330
370
330
371
330
372
330
373
330
374
330
375
330
376
330
377
330
378
330
379
330
37A
330
37B
330
37C
330
37D
330
37E
330
37F
330
380
330
381
330
382
330
383
330
384
330
385
330
386
330
387
330
388
330
389
330
38A
330
38B
330
38C
330
38D
330
38E
330
38F
330
390
330
391
330
392
330
393
330
394
330
395
330
396
330
397
330
398
330
399
330
39A
330
39B
330
39C
330
39D
330
39E
330
39F
330
3A0
330
3A1
330
3A2
330
3A3
330
3A4
330
3A5
330
3A6
330
3A7
330
3A8
330
3A9
330
3AA
330
3AB
330
3AC
330
3AD
330
3AE
330
3AF
330
3B0
330
3B1
330
3B2
330
3B3
330
3B4
330
3B5
330
3B6
330
3B7
330
3B8
330
3B9
330
3BA
330
3BB
 92
1
 93
8
 72
2
 10
29.5020375666
 20
2.3699465389
 40
0.0024752071
 50
270.0004896793
 51
32.9089806817
 73
1
 72
1
 10
29.5041155889
 20
2.3712913339
 11
29.4968565848
 21
2.3825073401
 72
2
 10
29.494778044
 20
2.3811628806
 40
0.0024754602
 50
32.8959418574
 51
89.9875097203
 73
1
 72
1
 10
29.4947785837
 20
2.3836383408
 11
29.4885975803
 21
2.3836383408
 72
2
 10
29.48859751
 20
2.3811631405
 40
0.0024752003
 50
89.9983726451
 51
147.6021653071
 73
1
 72
1
 10
29.4865075791
 20
2.3824893401
 11
29.4793905752
 21
2.3712723339
 72
2
 10
29.481480467
 20
2.3699463719
 40
0.0024750401
 50
147.6063258012
 51
270.0025305754
 73
1
 72
1
 10
29.4814805763
 20
2.3674713318
 11
29.5020375877
 21
2.3674713318
 97
267
330
2B1
330
2B2
330
2B3
330
2B4
330
2B5
330
2B6
330
2B7
330
2B8
330
2B9
330
2BA
330
2BB
330
2BC
330
2BD
330
2BE
330
2BF
330
2C0
330
2C1
330
2C2
330
2C3
330
2C4
330
2C5
330
2C6
330
2C7
330
2C8
330
2C9
330
2CA
330
2CB
330
2CC
330
2CD
330
2CE
330
2CF
330
2D0
330
2D1
330
2D2
330
2D3
330
2D4
330
2D5
330
2D6
330
2D7
330
2D8
330
2D9
330
2DA
330
2DB
330
2DC
330
2DD
330
2DE
330
2DF
330
2E0
330
2E1
330
2E2
330
2E3
330
2E4
330
2E5
330
2E6
330
2E7
330
2E8
330
2E9
330
2EA
330
2EB
330
2EC
330
2ED
330
2EE
330
2EF
330
2F0
330
2F1
330
2F2
330
2F3
330
2F4
330
2F5
330
2F6
330
2F7
330
2F8
330
2F9
330
2FA
330
2FB
330
2FC
330
2FD
330
2FE
330
2FF
330
300
330
301
330
302
330
303
330
304
330
305
330
306
330
307
330
308
330
309
330
30A
330
30B
330
30C
330
30D
330
30E
330
30F
330
310
330
311
330
312
330
313
330
314
330
315
330
316
330
317
330
318
330
319
330
31A
330
31B
330
31C
330
31D
330
31E
330
31F
330
320
330
321
330
322
330
323
330
324
330
325
330
326
330
327
330
328
330
329
330
32A
330
32B
330
32C
330
32D
330
32E
330
32F
330
330
330
331
330
332
330
333
330
334
330
335
330
336
330
337
330
338
330
339
330
33A
330
33B
330
33C
330
33D
330
33E
330
33F
330
340
330
341
330
342
330
343
330
344
330
345
330
346
330
347
330
348
330
349
330
34A
330
34B
330
34C
330
34D
330
34E
330
34F
330
350
330
351
330
352
330
353
330
354
330
355
330
356
330
357
330
358
330
359
330
35A
330
35B
330
35C
330
35D
330
35E
330
35F
330
360
330
361
330
362
330
363
330
364
330
365
330
366
330
367
330
368
330
369
330
36A
330
36B
330
36C
330
36D
330
36E
330
36F
330
370
330
371
330
372
330
373
330
374
330
375
330
376
330
377
330
378
330
379
330
37A
330
37B
330
37C
330
37D
330
37E
330
37F
330
380
330
381
330
382
330
383
330
384
330
385
330
386
330
387
330
388
330
389
330
38A
330
38B
330
38C
330
38D
330
38E
330
38F
330
390
330
391
330
392
330
393
330
394
330
395
330
396
330
397
330
398
330
399
330
39A
330
39B
330
39C
330
39D
330
39E
330
39F
330
3A0
330
3A1
330
3A2
330
3A3
330
3A4
330
3A5
330
3A6
330
3A7
330
3A8
330
3A9
330
3AA
330
3AB
330
3AC
330
3AD
330
3AE
330
3AF
330
3B0
330
3B1
330
3B2
330
3B3
330
3B4
330
3B5
330
3B6
330
3B7
330
3B8
330
3B9
330
3BA
330
3BB
 92
1
 93
1
 72
3
 10
29.8665327899
 20
2.3572783261
 11
-0.8250004575
 21
0.0
 40
0.218572
 50
0.0
 51
-0.0
 73
1
 97
267
330
2B1
330
2B2
330
2B3
330
2B4
330
2B5
330
2B6
330
2B7
330
2B8
330
2B9
330
2BA
330
2BB
330
2BC
330
2BD
330
2BE
330
2BF
330
2C0
330
2C1
330
2C2
330
2C3
330
2C4
330
2C5
330
2C6
330
2C7
330
2C8
330
2C9
330
2CA
330
2CB
330
2CC
330
2CD
330
2CE
330
2CF
330
2D0
330
2D1
330
2D2
330
2D3
330
2D4
330
2D5
330
2D6
330
2D7
330
2D8
330
2D9
330
2DA
330
2DB
330
2DC
330
2DD
330
2DE
330
2DF
330
2E0
330
2E1
330
2E2
330
2E3
330
2E4
330
2E5
330
2E6
330
2E7
330
2E8
330
2E9
330
2EA
330
2EB
330
2EC
330
2ED
330
2EE
330
2EF
330
2F0
330
2F1
330
2F2
330
2F3
330
2F4
330
2F5
330
2F6
330
2F7
330
2F8
330
2F9
330
2FA
330
2FB
330
2FC
330
2FD
330
2FE
330
2FF
330
300
330
301
330
302
330
303
330
304
330
305
330
306
330
307
330
308
330
309
330
30A
330
30B
330
30C
330
30D
330
30E
330
30F
330
310
330
311
330
312
330
313
330
314
330
315
330
316
330
317
330
318
330
319
330
31A
330
31B
330
31C
330
31D
330
31E
330
31F
330
320
330
321
330
322
330
323
330
324
330
325
330
326
330
327
330
328
330
329
330
32A
330
32B
330
32C
330
32D
330
32E
330
32F
330
330
330
331
330
332
330
333
330
334
330
335
330
336
330
337
330
338
330
339
330
33A
330
33B
330
33C
330
33D
330
33E
330
33F
330
340
330
341
330
342
330
343
330
344
330
345
330
346
330
347
330
348
330
349
330
34A
330
34B
330
34C
330
34D
330
34E
330
34F
330
350
330
351
330
352
330
353
330
354
330
355
330
356
330
357
330
358
330
359
330
35A
330
35B
330
35C
330
35D
330
35E
330
35F
330
360
330
361
330
362
330
363
330
364
330
365
330
366
330
367
330
368
330
369
330
36A
330
36B
330
36C
330
36D
330
36E
330
36F
330
370
330
371
330
372
330
373
330
374
330
375
330
376
330
377
330
378
330
379
330
37A
330
37B
330
37C
330
37D
330
37E
330
37F
330
380
330
381
330
382
330
383
330
384
330
385
330
386
330
387
330
388
330
389
330
38A
330
38B
330
38C
330
38D
330
38E
330
38F
330
390
330
391
330
392
330
393
330
394
330
395
330
396
330
397
330
398
330
399
330
39A
330
39B
330
39C
330
39D
330
39E
330
39F
330
3A0
330
3A1
330
3A2
330
3A3
330
3A4
330
3A5
330
3A6
330
3A7
330
3A8
330
3A9
330
3AA
330
3AB
330
3AC
330
3AD
330
3AE
330
3AF
330
3B0
330
3B1
330
3B2
330
3B3
330
3B4
330
3B5
330
3B6
330
3B7
330
3B8
330
3B9
330
3BA
330
3BB
 75
0
 76
1
 98
1
 10
0.0
 20
0.0
  0
LINE
  5
3BD
100
AcDbEntity
  8
0
100
AcDbLine
 62
7
  6
CONTINUOUS
 10
33.3524539446
 20
2.623495704
 11
27.0024539446
 21
2.623495704
  0
LINE
  5
3BE
100
AcDbEntity
  8
0
100
AcDbLine
 62
7
  6
CONTINUOUS
 10
28.7364976922
 20
0.8153979563
 11
28.1301066922
 21
0.8847909563
  0
LINE
  5
3BF
100
AcDbEntity
  8
0
100
AcDbLine
 62
7
  6
CONTINUOUS
 10
8.889879192
 20
21.3371139065
 11
8.889879192
 21
21.5871139065
  0
LINE
  5
3C0
100
AcDbEntity
  8
0
100
AcDbLine
 62
7
  6
CONTINUOUS
 10
8.8920367907
 20
0.701125727
 11
8.8920367907
 21
0.451125727
  0
LINE
  5
3C1
100
AcDbEntity
  8
0
100
AcDbLine
 62
7
  6
CONTINUOUS
 10
0.7364933212
 20
11.0250407989
 11
0.5864933212
 21
11.1116437989
  0
LINE
  5
3C2
100
AcDbEntity
  8
0
100
AcDbLine
 62
7
  6
CONTINUOUS
 10
17.0432003286
 20
21.3366775222
 11
17.1298033286
 21
21.4866775222
  0
LINE
  5
3C3
100
AcDbEntity
  8
0
100
AcDbLine
 62
7
  6
CONTINUOUS
 10
0.7364933212
 20
5.8588719767
 11
0.4864933212
 21
5.8588719767
  0
LINE
  5
3C4
100
AcDbEntity
  8
0
100
AcDbLine
 62
7
  6
CONTINUOUS
 10
33.3609986769
 20
5.8669213906
 11
33.6109986769
 21
5.8669213906
  0
LINE
  5
3C5
100
AcDbEntity
  8
0
100
AcDbLine
 62
7
  6
CONTINUOUS
 10
17.1311228366
 20
0.5535279561
 11
17.044519919
 21
0.7035279135
  0
LINE
  5
3C6
100
AcDbEntity
  8
0
100
AcDbLine
 62
7
  6
CONTINUOUS
 10
12.9686470768
 20
21.3361454131
 11
12.9686470768
 21
21.5861454131
  0
LINE
  5
3C7
100
AcDbEntity
  8
0
100
AcDbLine
 62
7
  6
CONTINUOUS
 10
12.9686929482
 20
0.7036996999
 11
12.9686929482
 21
0.4536996999
  0
LINE
  5
3C8
100
AcDbEntity
  8
0
100
AcDbLine
 62
7
  6
CONTINUOUS
 10
17.0434505532
 20
21.3371998727
 11
17.0434505532
 21
21.5871998727
  0
LINE
  5
3C9
100
AcDbEntity
  8
0
100
AcDbLine
 62
7
  6
CONTINUOUS
 10
17.044519919
 20
0.7035279135
 11
17.044519919
 21
0.4535279135
  0
LINE
  5
3CA
100
AcDbEntity
  8
0
100
AcDbLine
 62
7
  6
CONTINUOUS
 10
33.3505254366
 20
11.0229004107
 11
33.6005254366
 21
11.0229004107
  0
LINE
  5
3CB
100
AcDbEntity
  8
0
100
AcDbLine
 62
7
  6
CONTINUOUS
 10
0.7364933212
 20
11.0250407989
 11
0.4864933212
 21
11.0250407989
  0
LINE
  5
3CC
100
AcDbEntity
  8
0
100
AcDbLine
 62
7
  6
CONTINUOUS
 10
21.1216648563
 20
21.3366775222
 11
21.1216648563
 21
21.5866775222
  0
LINE
  5
3CD
100
AcDbEntity
  8
0
100
AcDbLine
 62
7
  6
CONTINUOUS
 10
21.123273272
 20
0.7029532451
 11
21.123273272
 21
0.4529532451
  0
LINE
  5
3CE
100
AcDbEntity
  8
0
100
AcDbLine
 62
7
  6
CONTINUOUS
 10
17.044519919
 20
0.7035279135
 11
16.957916919
 21
0.5535279135
  0
LINE
  5
3CF
100
AcDbEntity
  8
0
100
AcDbLine
 62
7
  6
CONTINUOUS
 10
33.3591947174
 20
16.1718388512
 11
33.6091947174
 21
16.1718388512
  0
LINE
  5
3D0
100
AcDbEntity
  8
0
100
AcDbLine
 62
7
  6
CONTINUOUS
 10
0.7307206509
 20
16.1796642805
 11
0.4807206509
 21
16.1796642805
  0
LINE
  5
3D1
100
AcDbEntity
  8
0
100
AcDbLine
 62
7
  6
CONTINUOUS
 10
16.9565973286
 20
21.4866775222
 11
17.0432003286
 21
21.3366775222
  0
LINE
  5
3D2
100
AcDbEntity
  8
0
100
AcDbLine
 62
7
  6
CONTINUOUS
 10
25.1978890403
 20
21.3360123859
 11
25.1978890403
 21
21.5860123859
  0
LINE
  5
3D3
100
AcDbEntity
  8
0
100
AcDbLine
 62
7
  6
CONTINUOUS
 10
25.1987539847
 20
0.7030140686
 11
25.1987539847
 21
0.4530140686
  0
LINE
  5
3D4
100
AcDbEntity
  8
0
100
AcDbLine
 62
7
  6
CONTINUOUS
 10
33.5005254366
 20
11.1095034107
 11
33.3505254366
 21
11.0229004107
  0
LINE
  5
3D5
100
AcDbEntity
  8
0
100
AcDbLine
 62
7
  6
CONTINUOUS
 10
33.3505254366
 20
11.0229004107
 11
33.5005254366
 21
10.9362974107
  0
LINE
  5
3D6
100
AcDbEntity
  8
0
100
AcDbLine
 62
7
  6
CONTINUOUS
 10
27.0024539446
 20
2.623495704
 11
27.0024539446
 21
0.703495704
  0
LINE
  5
3D7
100
AcDbEntity
  8
0
100
AcDbLine
 62
7
  6
CONTINUOUS
 10
27.5254366922
 20
0.9674889563
 11
27.5254366922
 21
0.7453979563
  0
LINE
  5
3D8
100
AcDbEntity
  8
0
100
AcDbLine
 62
7
  6
CONTINUOUS
 10
27.5254366922
 20
1.0174889563
 11
27.5254366922
 21
1.1174889563
  0
LINE
  5
3D9
100
AcDbEntity
  8
0
100
AcDbLine
 62
7
  6
CONTINUOUS
 10
27.5254366922
 20
1.1674889563
 11
27.5254366922
 21
1.3895799563
  0
LINE
  5
3DA
100
AcDbEntity
  8
0
100
AcDbLine
 62
7
  6
CONTINUOUS
 10
33.3519788796
 20
21.3366775222
 11
0.7364933212
 21
21.3366775222
  0
LINE
  5
3DB
100
AcDbEntity
  8
0
100
AcDbLine
 62
7
  6
CONTINUOUS
 10
17.1298033286
 20
21.4866775222
 11
16.9565973286
 21
21.4866775222
  0
LINE
  5
3DC
100
AcDbEntity
  8
0
100
AcDbLine
 62
7
  6
CONTINUOUS
 10
28.1301066922
 20
0.8847909563
 11
28.1301066922
 21
1.2501869563
  0
LINE
  5
3DD
100
AcDbEntity
  8
0
100
AcDbLine
 62
7
  6
CONTINUOUS
 10
28.7364976922
 20
1.3195799563
 11
28.7364976922
 21
0.8153979563
  0
LINE
  5
3DE
100
AcDbEntity
  8
0
100
AcDbLine
 62
7
  6
CONTINUOUS
 10
29.0024539446
 20
2.623495704
 11
29.0024539446
 21
0.703495704
  0
LINE
  5
3DF
100
AcDbEntity
  8
0
100
AcDbLine
 62
7
  6
CONTINUOUS
 10
29.2763246158
 20
0.7031465965
 11
29.2763246158
 21
0.4531465965
  0
LINE
  5
3E0
100
AcDbEntity
  8
0
100
AcDbLine
 62
7
  6
CONTINUOUS
 10
29.2763389625
 20
21.3354056718
 11
29.2763389625
 21
21.5854056718
  0
LINE
  5
3E1
100
AcDbEntity
  8
0
100
AcDbLine
 62
7
  6
CONTINUOUS
 10
29.8024539446
 20
1.323495704
 11
29.8024539446
 21
0.953495704
  0
LINE
  5
3E2
100
AcDbEntity
  8
0
100
AcDbLine
 62
7
  6
CONTINUOUS
 10
31.1774539446
 20
0.953495704
 11
31.1774539446
 21
0.703495704
  0
LINE
  5
3E3
100
AcDbEntity
  8
0
100
AcDbLine
 62
7
  6
CONTINUOUS
 10
32.5524539446
 20
1.323495704
 11
32.5524539446
 21
0.953495704
  0
LINE
  5
3E4
100
AcDbEntity
  8
0
100
AcDbLine
 62
7
  6
CONTINUOUS
 10
33.3519788796
 20
0.703495704
 11
33.3519788796
 21
21.3366775222
  0
LINE
  5
3E5
100
AcDbEntity
  8
0
100
AcDbLine
 62
7
  6
CONTINUOUS
 10
33.5005254366
 20
10.9362974107
 11
33.5005254366
 21
11.1095034107
  0
LINE
  5
3E6
100
AcDbEntity
  8
0
100
AcDbLine
 62
7
  6
CONTINUOUS
 10
4.4451123393
 20
4.9126815937
 11
4.4451123393
 21
6.7154587283
  0
LINE
  5
3E7
100
AcDbEntity
  8
0
100
AcDbLine
 62
7
  6
CONTINUOUS
 10
4.5238524968
 20
4.9113071791
 11
4.5238524968
 21
5.0922233055
  0
LINE
  5
3E8
100
AcDbEntity
  8
0
100
AcDbLine
 62
7
  6
CONTINUOUS
 10
4.6813328118
 20
4.90855835
 11
4.6813328118
 21
6.719581972
  0
LINE
  5
3E9
100
AcDbEntity
  8
0
100
AcDbLine
 62
7
  6
CONTINUOUS
 10
5.6538918863
 20
6.5128890586
 11
5.6572495694
 21
6.6047493433
  0
LINE
  5
3EA
100
AcDbEntity
  8
0
100
AcDbLine
 62
7
  6
CONTINUOUS
 10
6.4646792491
 20
6.5128890586
 11
6.461321566
 21
6.6047493433
  0
LINE
  5
3EB
100
AcDbEntity
  8
0
100
AcDbLine
 62
7
  6
CONTINUOUS
 10
7.4372383236
 20
5.940054413
 11
7.4372383236
 21
6.7195773237
  0
LINE
  5
3EC
100
AcDbEntity
  8
0
100
AcDbLine
 62
7
  6
CONTINUOUS
 10
7.456923363
 20
5.940054413
 11
7.456923363
 21
6.719581972
  0
LINE
  5
3ED
100
AcDbEntity
  8
0
100
AcDbLine
 62
7
  6
CONTINUOUS
 10
7.4667658826
 20
5.940054413
 11
7.4667658826
 21
6.7983221295
  0
LINE
  5
3EE
100
AcDbEntity
  8
0
100
AcDbLine
 62
7
  6
CONTINUOUS
 10
6.9344480698
 20
6.6200917447
 11
7.2344532103
 21
6.7176520287
  0
LINE
  5
3EF
100
AcDbEntity
  8
0
100
AcDbLine
 62
7
  6
CONTINUOUS
 10
6.9323502129
 20
6.6194095314
 11
6.9344698264
 21
6.6200985722
  0
LWPOLYLINE
  5
3F0
100
AcDbEntity
  8
0
100
AcDbPolyline
 62
7
  6
CONTINUOUS
 90
12
 70
0
 10
6.9344698264
 20
6.6200985722
 10
6.931460012
 20
6.6191280121
 10
6.9210176067
 20
6.6157962662
 10
6.9022347643
 20
6.6098945379
 10
6.8756282896
 20
6.6017030748
 10
6.8419408606
 20
6.5916014353
 10
6.8026493335
 20
6.5802079074
 10
6.7593254332
 20
6.5681604842
 10
6.712214138
 20
6.5557289354
 10
6.6590742977
 20
6.5426366289
 10
6.5967902948
 20
6.5287168002
 10
6.5254495861
 20
6.5149751384
  0
LINE
  5
3F1
100
AcDbEntity
  8
0
100
AcDbLine
 62
7
  6
CONTINUOUS
 10
5.2164111831
 20
6.6098711309
 11
5.1975536322
 21
6.6157962297
  0
LINE
  5
3F2
100
AcDbEntity
  8
0
100
AcDbLine
 62
7
  6
CONTINUOUS
 10
5.1975987701
 20
6.6157818442
 11
5.1863154929
 21
6.6193838674
  0
LINE
  5
3F3
100
AcDbEntity
  8
0
100
AcDbLine
 62
7
  6
CONTINUOUS
 10
5.1862239041
 20
6.6194085617
 11
4.8841179251
 21
6.7176520287
  0
LWPOLYLINE
  5
3F4
100
AcDbEntity
  8
0
100
AcDbPolyline
 62
7
  6
CONTINUOUS
 90
8
 70
0
 10
5.5218616864
 20
6.5286995284
 10
5.4595950165
 20
6.5426131137
 10
5.4064443834
 20
6.5557063109
 10
5.3593254416
 20
6.5681385981
 10
5.3159791821
 20
6.5801913854
 10
5.2766824879
 20
6.5915858699
 10
5.2430237932
 20
6.6016783187
 10
5.2164111831
 20
6.6098711309
  0
LINE
  5
3F5
100
AcDbEntity
  8
0
100
AcDbLine
 62
7
  6
CONTINUOUS
 10
29.799443048
 20
4.90855835
 11
30.0356635204
 21
4.9126815937
  0
LINE
  5
3F6
100
AcDbEntity
  8
0
100
AcDbLine
 62
7
  6
CONTINUOUS
 10
30.0356635204
 20
5.09359772
 11
29.956923363
 21
5.0922233055
  0
LINE
  5
3F7
100
AcDbEntity
  8
0
100
AcDbLine
 62
7
  6
CONTINUOUS
 10
29.799443048
 20
4.90855835
 11
4.6813328118
 21
4.90855835
  0
LINE
  5
3F8
100
AcDbEntity
  8
0
100
AcDbLine
 62
7
  6
CONTINUOUS
 10
29.799443048
 20
4.9282433893
 11
4.6813328118
 21
4.9282433893
  0
LINE
  5
3F9
100
AcDbEntity
  8
0
100
AcDbLine
 62
7
  6
CONTINUOUS
 10
30.0356635204
 20
5.0069835468
 11
29.956923363
 21
5.0069835468
  0
LINE
  5
3FA
100
AcDbEntity
  8
0
100
AcDbLine
 62
7
  6
CONTINUOUS
 10
4.4451123393
 20
5.0069835468
 11
4.5238524968
 21
5.0069835468
  0
LINE
  5
3FB
100
AcDbEntity
  8
AXIS
100
AcDbLine
 62
7
  6
CONTINUOUS
 10
29.799443048
 20
5.0497310444
 11
4.6813328118
 21
5.0497310444
  0
LINE
  5
3FC
100
AcDbEntity
  8
0
100
AcDbLine
 62
7
  6
CONTINUOUS
 10
4.4451123393
 20
4.9126815937
 11
4.6813328118
 21
4.90855835
  0
LINE
  5
3FD
100
AcDbEntity
  8
0
100
AcDbLine
 62
7
  6
CONTINUOUS
 10
4.4451123393
 20
5.09359772
 11
4.5238524968
 21
5.0922233055
  0
LINE
  5
3FE
100
AcDbEntity
  8
0
100
AcDbLine
 62
7
  6
CONTINUOUS
 10
5.6068974442
 20
6.5128890586
 11
5.5931214834
 21
6.5149751335
  0
LINE
  5
3FF
100
AcDbEntity
  8
0
100
AcDbLine
 62
7
  6
CONTINUOUS
 10
5.6704890264
 20
6.5032597414
 11
5.5931689013
 21
6.5149665291
  0
LWPOLYLINE
  5
400
100
AcDbEntity
  8
0
100
AcDbPolyline
 62
7
  6
CONTINUOUS
 90
9
 70
0
 10
5.5931689013
 20
6.5149665291
 10
5.5217811784
 20
6.5287167162
 10
5.4594967545
 20
6.542636634
 10
5.4063567628
 20
6.5557289844
 10
5.3592456364
 20
6.5681604913
 10
5.3159213978
 20
6.5802080138
 10
5.2766306889
 20
6.5916013069
 10
5.2429434283
 20
6.6017028917
 10
5.2163362189
 20
6.60989458
  0
LINE
  5
401
100
AcDbEntity
  8
AXIS
100
AcDbLine
 62
7
  6
CONTINUOUS
 10
29.799443048
 20
5.161086443
 11
4.6813328118
 21
5.161086443
  0
LINE
  5
402
100
AcDbEntity
  8
0
100
AcDbLine
 62
7
  6
CONTINUOUS
 10
29.799443048
 20
5.9225986778
 11
4.6813328118
 21
5.9225986778
  0
LINE
  5
403
100
AcDbEntity
  8
0
100
AcDbLine
 62
7
  6
CONTINUOUS
 10
29.799443048
 20
5.9344097014
 11
4.6813328118
 21
5.9344097014
  0
LINE
  5
404
100
AcDbEntity
  8
0
100
AcDbLine
 62
7
  6
CONTINUOUS
 10
4.6813328118
 20
5.9349371605
 11
29.799443048
 21
5.9349371605
  0
LINE
  5
405
100
AcDbEntity
  8
0
100
AcDbLine
 62
7
  6
CONTINUOUS
 10
4.6813328118
 20
5.940054413
 11
7.4372383236
 21
5.940054413
  0
LINE
  5
406
100
AcDbEntity
  8
0
100
AcDbLine
 62
7
  6
CONTINUOUS
 10
7.456923363
 20
5.940054413
 11
29.7896005283
 21
5.940054413
  0
LINE
  5
407
100
AcDbEntity
  8
0
100
AcDbLine
 62
7
  6
CONTINUOUS
 10
7.456923363
 20
5.9518654366
 11
29.7896005283
 21
5.9518654366
  0
LINE
  5
408
100
AcDbEntity
  8
0
100
AcDbLine
 62
7
  6
CONTINUOUS
 10
29.799443048
 20
5.972638622
 11
29.7896005283
 21
5.972638622
  0
LINE
  5
409
100
AcDbEntity
  8
0
100
AcDbLine
 62
7
  6
CONTINUOUS
 10
7.456923363
 20
5.972638622
 11
7.4372383236
 21
5.972638622
  0
LINE
  5
40A
100
AcDbEntity
  8
0
100
AcDbLine
 62
7
  6
CONTINUOUS
 10
29.799443048
 20
5.973166081
 11
29.7896005283
 21
5.973166081
  0
LINE
  5
40B
100
AcDbEntity
  8
0
100
AcDbLine
 62
7
  6
CONTINUOUS
 10
7.456923363
 20
5.973166081
 11
7.4372383236
 21
5.973166081
  0
LINE
  5
40C
100
AcDbEntity
  8
0
100
AcDbLine
 62
7
  6
CONTINUOUS
 10
29.799443048
 20
6.0093049496
 11
29.7896005283
 21
6.0093049496
  0
LINE
  5
40D
100
AcDbEntity
  8
0
100
AcDbLine
 62
7
  6
CONTINUOUS
 10
7.456923363
 20
6.0093049496
 11
7.4372383236
 21
6.0093049496
  0
LINE
  5
40E
100
AcDbEntity
  8
0
100
AcDbLine
 62
7
  6
CONTINUOUS
 10
29.799443048
 20
6.0098324087
 11
29.7896005283
 21
6.0098324087
  0
LINE
  5
40F
100
AcDbEntity
  8
0
100
AcDbLine
 62
7
  6
CONTINUOUS
 10
7.456923363
 20
6.0098324087
 11
7.4372383236
 21
6.0098324087
  0
LINE
  5
410
100
AcDbEntity
  8
0
100
AcDbLine
 62
7
  6
CONTINUOUS
 10
6.3129002181
 20
6.4932721487
 11
6.3124689309
 21
6.4932670907
  0
LINE
  5
411
100
AcDbEntity
  8
0
100
AcDbLine
 62
7
  6
CONTINUOUS
 10
29.799443048
 20
6.031013585
 11
29.7896005283
 21
6.031013585
  0
LINE
  5
412
100
AcDbEntity
  8
0
100
AcDbLine
 62
7
  6
CONTINUOUS
 10
7.456923363
 20
6.031013585
 11
7.4372383236
 21
6.031013585
  0
LINE
  5
413
100
AcDbEntity
  8
0
100
AcDbLine
 62
7
  6
CONTINUOUS
 10
29.799443048
 20
6.0480613292
 11
29.7896005283
 21
6.0480613292
  0
LINE
  5
414
100
AcDbEntity
  8
0
100
AcDbLine
 62
7
  6
CONTINUOUS
 10
7.456923363
 20
6.0480613292
 11
7.4372383236
 21
6.0480613292
  0
LINE
  5
415
100
AcDbEntity
  8
0
100
AcDbLine
 62
7
  6
CONTINUOUS
 10
7.4667658826
 20
6.0793274055
 11
29.7896005283
 21
6.0793274055
  0
LINE
  5
416
100
AcDbEntity
  8
0
100
AcDbLine
 62
7
  6
CONTINUOUS
 10
29.799443048
 20
6.0815069019
 11
29.7896005283
 21
6.0815069019
  0
LINE
  5
417
100
AcDbEntity
  8
0
100
AcDbLine
 62
7
  6
CONTINUOUS
 10
7.456923363
 20
6.0815069019
 11
7.4372383236
 21
6.0815069019
  0
LINE
  5
418
100
AcDbEntity
  8
0
100
AcDbLine
 62
7
  6
CONTINUOUS
 10
4.6813328118
 20
6.0896607122
 11
4.4451123393
 21
6.0896607122
  0
LINE
  5
419
100
AcDbEntity
  8
0
100
AcDbLine
 62
7
  6
CONTINUOUS
 10
7.456923363
 20
6.0896607122
 11
7.4667658826
 21
6.0896607122
  0
LINE
  5
41A
100
AcDbEntity
  8
0
100
AcDbLine
 62
7
  6
CONTINUOUS
 10
29.799443048
 20
6.0896607122
 11
30.0356635204
 21
6.0896607122
  0
LINE
  5
41B
100
AcDbEntity
  8
0
100
AcDbLine
 62
7
  6
CONTINUOUS
 10
29.799443048
 20
6.0954263267
 11
29.7896005283
 21
6.0954263267
  0
LINE
  5
41C
100
AcDbEntity
  8
0
100
AcDbLine
 62
7
  6
CONTINUOUS
 10
7.456923363
 20
6.0954263267
 11
7.4372383236
 21
6.0954263267
  0
LINE
  5
41D
100
AcDbEntity
  8
0
100
AcDbLine
 62
7
  6
CONTINUOUS
 10
7.4667658826
 20
6.0998370327
 11
29.7896005283
 21
6.0998370327
  0
LINE
  5
41E
100
AcDbEntity
  8
0
100
AcDbLine
 62
7
  6
CONTINUOUS
 10
7.4372383236
 20
6.1487158303
 11
7.456923363
 21
6.1487158303
  0
LINE
  5
41F
100
AcDbEntity
  8
0
100
AcDbLine
 62
7
  6
CONTINUOUS
 10
29.7896005283
 20
6.1487158303
 11
29.799443048
 21
6.1487158303
  0
LINE
  5
420
100
AcDbEntity
  8
0
100
AcDbLine
 62
7
  6
CONTINUOUS
 10
29.7896005283
 20
6.1504031194
 11
29.799443048
 21
6.1504031194
  0
LINE
  5
421
100
AcDbEntity
  8
0
100
AcDbLine
 62
7
  6
CONTINUOUS
 10
29.7896005283
 20
6.1526528382
 11
29.799443048
 21
6.1526528382
  0
LINE
  5
422
100
AcDbEntity
  8
0
100
AcDbLine
 62
7
  6
CONTINUOUS
 10
7.4372383236
 20
6.1554087437
 11
7.456923363
 21
6.1554087437
  0
LINE
  5
423
100
AcDbEntity
  8
0
100
AcDbLine
 62
7
  6
CONTINUOUS
 10
7.4372383236
 20
6.166733431
 11
7.456923363
 21
6.166733431
  0
LINE
  5
424
100
AcDbEntity
  8
0
100
AcDbLine
 62
7
  6
CONTINUOUS
 10
4.6813328118
 20
6.1925695612
 11
7.4372383236
 21
6.1925695612
  0
LINE
  5
425
100
AcDbEntity
  8
0
100
AcDbLine
 62
7
  6
CONTINUOUS
 10
4.6813328118
 20
6.1979645555
 11
7.4372383236
 21
6.1979645555
  0
LINE
  5
426
100
AcDbEntity
  8
0
100
AcDbLine
 62
7
  6
CONTINUOUS
 10
6.1352014094
 20
6.4932040206
 11
5.9833664299
 21
6.4932040193
  0
LINE
  5
427
100
AcDbEntity
  8
0
100
AcDbLine
 62
7
  6
CONTINUOUS
 10
5.6068900245
 20
6.5128890586
 11
6.5116735796
 21
6.5128890586
  0
LINE
  5
428
100
AcDbEntity
  8
AXIS
100
AcDbLine
 62
7
  6
CONTINUOUS
 10
7.4372383236
 20
6.6014717358
 11
7.456923363
 21
6.6014717358
  0
LINE
  5
429
100
AcDbEntity
  8
0
100
AcDbLine
 62
7
  6
CONTINUOUS
 10
5.6572495694
 20
6.6047493433
 11
6.461321566
 21
6.6047493433
  0
LINE
  5
42A
100
AcDbEntity
  8
AXIS
100
AcDbLine
 62
7
  6
CONTINUOUS
 10
29.799443048
 20
6.6408418145
 11
29.7896005283
 21
6.6408418145
  0
LINE
  5
42B
100
AcDbEntity
  8
AXIS
100
AcDbLine
 62
7
  6
CONTINUOUS
 10
4.6813328118
 20
6.719581972
 11
4.8719425662
 21
6.719581972
  0
LINE
  5
42C
100
AcDbEntity
  8
AXIS
100
AcDbLine
 62
7
  6
CONTINUOUS
 10
7.2466285691
 20
6.719581972
 11
7.4372383236
 21
6.719581972
  0
LINE
  5
42D
100
AcDbEntity
  8
AXIS
100
AcDbLine
 62
7
  6
CONTINUOUS
 10
7.456923363
 20
6.719581972
 11
7.4667658826
 21
6.719581972
  0
LINE
  5
42E
100
AcDbEntity
  8
0
100
AcDbLine
 62
7
  6
CONTINUOUS
 10
29.7896005283
 20
6.7882231095
 11
7.4667658826
 21
6.7882231095
  0
LINE
  5
42F
100
AcDbEntity
  8
0
100
AcDbLine
 62
7
  6
CONTINUOUS
 10
29.7896005283
 20
6.7983221295
 11
7.4667658826
 21
6.7983221295
  0
LINE
  5
430
100
AcDbEntity
  8
0
100
AcDbLine
 62
7
  6
CONTINUOUS
 10
5.8060595096
 20
6.4932675499
 11
5.8056684666
 21
6.4932721325
  0
LWPOLYLINE
  5
431
100
AcDbEntity
  8
0
100
AcDbPolyline
 62
7
  6
CONTINUOUS
 90
3
 70
0
 10
5.8056685313
 20
6.4932721315
 10
5.7549571601
 20
6.4951789325
 10
5.6704890264
 20
6.5032597414
  0
LINE
  5
432
100
AcDbEntity
  8
0
100
AcDbLine
 62
7
  6
CONTINUOUS
 10
4.6813328118
 20
6.719581972
 11
4.4451123393
 21
6.7154587283
  0
LINE
  5
433
100
AcDbEntity
  8
0
100
AcDbLine
 62
7
  6
CONTINUOUS
 10
29.799443048
 20
6.719581972
 11
30.0356635204
 21
6.7154587283
  0
LWPOLYLINE
  5
434
100
AcDbEntity
  8
0
100
AcDbPolyline
 62
7
  6
CONTINUOUS
 90
4
 70
0
 10
6.5254495861
 20
6.5149751384
 10
6.4481054768
 20
6.5032630371
 10
6.3636172769
 20
6.4951793191
 10
6.3128986627
 20
6.4932721268
  0
LINE
  5
435
100
AcDbEntity
  8
0
100
AcDbLine
 62
7
  6
CONTINUOUS
 10
29.7797580086
 20
5.940054413
 11
29.7797580086
 21
6.0896607122
  0
LINE
  5
436
100
AcDbEntity
  8
0
100
AcDbLine
 62
7
  6
CONTINUOUS
 10
29.7896005283
 20
5.940054413
 11
29.7896005283
 21
6.7983221295
  0
LINE
  5
437
100
AcDbEntity
  8
0
100
AcDbLine
 62
7
  6
CONTINUOUS
 10
29.799443048
 20
4.90855835
 11
29.799443048
 21
6.719581972
  0
LINE
  5
438
100
AcDbEntity
  8
0
100
AcDbLine
 62
7
  6
CONTINUOUS
 10
29.956923363
 20
4.9113071791
 11
29.956923363
 21
5.0922233055
  0
LINE
  5
439
100
AcDbEntity
  8
0
100
AcDbLine
 62
7
  6
CONTINUOUS
 10
30.0356635204
 20
4.9126815937
 11
30.0356635204
 21
6.7154587283
  0
LINE
  5
43A
100
AcDbEntity
  8
0
100
AcDbLine
 62
7
  6
CONTINUOUS
 10
31.0328226243
 20
4.90855835
 11
32.292665144
 21
4.90855835
  0
LINE
  5
43B
100
AcDbEntity
  8
0
100
AcDbLine
 62
7
  6
CONTINUOUS
 10
31.0355714534
 20
4.9113071791
 11
31.2164875798
 21
4.9113071791
  0
LINE
  5
43C
100
AcDbEntity
  8
0
100
AcDbLine
 62
7
  6
CONTINUOUS
 10
32.1090001884
 20
4.9113071791
 11
32.2899163148
 21
4.9113071791
  0
LINE
  5
43D
100
AcDbEntity
  8
0
100
AcDbLine
 62
7
  6
CONTINUOUS
 10
31.2178619943
 20
4.9126815937
 11
32.1076257739
 21
4.9126815937
  0
LINE
  5
43E
100
AcDbEntity
  8
0
100
AcDbLine
 62
7
  6
CONTINUOUS
 10
31.1498447145
 20
4.9747727827
 11
31.1548698684
 21
4.9660689608
  0
LINE
  5
43F
100
AcDbEntity
  8
0
100
AcDbLine
 62
7
  6
CONTINUOUS
 10
31.2178619943
 20
5.0069835468
 11
31.2164875798
 21
5.0069835468
  0
LINE
  5
440
100
AcDbEntity
  8
0
100
AcDbLine
 62
7
  6
CONTINUOUS
 10
32.1076257739
 20
5.0069835468
 11
32.1090001884
 21
5.0069835468
  0
LINE
  5
441
100
AcDbEntity
  8
0
100
AcDbLine
 62
7
  6
CONTINUOUS
 10
31.18075991
 20
6.4961933394
 11
31.1777705898
 21
6.4932040193
  0
LINE
  5
442
100
AcDbEntity
  8
0
100
AcDbLine
 62
7
  6
CONTINUOUS
 10
32.2899163148
 20
5.0922233055
 11
32.1942399471
 21
5.0922233055
  0
LINE
  5
443
100
AcDbEntity
  8
0
100
AcDbLine
 62
7
  6
CONTINUOUS
 10
31.1312478211
 20
5.0922233055
 11
31.0355714534
 21
5.0922233055
  0
LINE
  5
444
100
AcDbEntity
  8
0
100
AcDbLine
 62
7
  6
CONTINUOUS
 10
32.2885419003
 20
5.09359772
 11
32.1942399471
 21
5.09359772
  0
LINE
  5
445
100
AcDbEntity
  8
0
100
AcDbLine
 62
7
  6
CONTINUOUS
 10
31.0369458679
 20
5.09359772
 11
31.1312478211
 21
5.09359772
  0
LINE
  5
446
100
AcDbEntity
  8
0
100
AcDbLine
 62
7
  6
CONTINUOUS
 10
31.7826791016
 20
5.2157884868
 11
31.5428086666
 21
5.2157884868
  0
LINE
  5
447
100
AcDbEntity
  8
0
100
AcDbLine
 62
7
  6
CONTINUOUS
 10
31.7773536508
 20
5.2211139376
 11
31.5481341174
 21
5.2211139376
  0
LINE
  5
448
100
AcDbEntity
  8
0
100
AcDbLine
 62
7
  6
CONTINUOUS
 10
31.5505391597
 20
5.2235189799
 11
31.5481341174
 21
5.2235189799
  0
LINE
  5
449
100
AcDbEntity
  8
0
100
AcDbLine
 62
7
  6
CONTINUOUS
 10
31.7749486085
 20
5.2235189799
 11
31.7773536508
 21
5.2235189799
  0
LINE
  5
44A
100
AcDbEntity
  8
0
100
AcDbLine
 62
7
  6
CONTINUOUS
 10
31.7749486085
 20
5.2292516683
 11
31.5505391597
 21
5.2292516683
  0
LINE
  5
44B
100
AcDbEntity
  8
0
100
AcDbLine
 62
7
  6
CONTINUOUS
 10
31.7690430967
 20
5.2294244917
 11
31.5564446715
 21
5.2294244917
  0
LINE
  5
44C
100
AcDbEntity
  8
0
100
AcDbLine
 62
7
  6
CONTINUOUS
 10
31.0328226243
 20
4.90855835
 11
31.0328226243
 21
6.0896607122
  0
LINE
  5
44D
100
AcDbEntity
  8
0
100
AcDbLine
 62
7
  6
CONTINUOUS
 10
31.0355714534
 20
4.9113071791
 11
31.0355714534
 21
5.0922233055
  0
LINE
  5
44E
100
AcDbEntity
  8
0
100
AcDbLine
 62
7
  6
CONTINUOUS
 10
31.0369458679
 20
5.09359772
 11
31.0369458679
 21
6.0896607122
  0
LINE
  5
44F
100
AcDbEntity
  8
0
100
AcDbLine
 62
7
  6
CONTINUOUS
 10
31.7414840416
 20
5.2609205547
 11
31.5879407345
 21
5.2609205547
  0
LINE
  5
450
100
AcDbEntity
  8
0
100
AcDbLine
 62
7
  6
CONTINUOUS
 10
31.5879407345
 20
5.3160386649
 11
31.666680892
 21
5.3160386649
  0
LINE
  5
451
100
AcDbEntity
  8
0
100
AcDbLine
 62
7
  6
CONTINUOUS
 10
31.6745549077
 20
5.3160386649
 11
31.7414840416
 21
5.3160386649
  0
LINE
  5
452
100
AcDbEntity
  8
0
100
AcDbLine
 62
7
  6
CONTINUOUS
 10
31.7414840416
 20
5.3199756728
 11
31.6745549077
 21
5.3199756728
  0
LINE
  5
453
100
AcDbEntity
  8
0
100
AcDbLine
 62
7
  6
CONTINUOUS
 10
31.6627438841
 20
5.3199756728
 11
31.5879407345
 21
5.3199756728
  0
LINE
  5
454
100
AcDbEntity
  8
0
100
AcDbLine
 62
7
  6
CONTINUOUS
 10
30.9096472259
 20
6.7882231095
 11
31.0310282644
 21
6.0998370327
  0
LINE
  5
455
100
AcDbEntity
  8
0
100
AcDbLine
 62
7
  6
CONTINUOUS
 10
31.1312478211
 20
5.09359772
 11
31.1312478211
 21
5.0922233055
  0
LINE
  5
456
100
AcDbEntity
  8
0
100
AcDbLine
 62
7
  6
CONTINUOUS
 10
31.1312478211
 20
5.9832295992
 11
31.1312478211
 21
6.0068516465
  0
LINE
  5
457
100
AcDbEntity
  8
0
100
AcDbLine
 62
7
  6
CONTINUOUS
 10
31.7414840416
 20
5.4105268539
 11
31.5879407345
 21
5.4105268539
  0
LINE
  5
458
100
AcDbEntity
  8
0
100
AcDbLine
 62
7
  6
CONTINUOUS
 10
31.0598640686
 20
6.2712192782
 11
30.9669216143
 21
6.7983221295
  0
LINE
  5
459
100
AcDbEntity
  8
0
100
AcDbLine
 62
7
  6
CONTINUOUS
 10
31.2164875798
 20
4.9113071791
 11
31.2164875798
 21
5.0069835468
  0
LINE
  5
45A
100
AcDbEntity
  8
0
100
AcDbLine
 62
7
  6
CONTINUOUS
 10
31.2178619943
 20
4.9126815937
 11
31.2178619943
 21
5.0069835468
  0
LINE
  5
45B
100
AcDbEntity
  8
0
100
AcDbLine
 62
7
  6
CONTINUOUS
 10
31.2607078858
 20
6.6047493433
 11
31.2595662254
 21
6.5735155292
  0
LINE
  5
45C
100
AcDbEntity
  8
0
100
AcDbLine
 62
7
  6
CONTINUOUS
 10
31.353688766
 20
5.4243063815
 11
31.5505391597
 21
5.4243063815
  0
LINE
  5
45D
100
AcDbEntity
  8
0
100
AcDbLine
 62
7
  6
CONTINUOUS
 10
31.7414840416
 20
5.4262748854
 11
31.5879407345
 21
5.4262748854
  0
LINE
  5
45E
100
AcDbEntity
  8
0
100
AcDbLine
 62
7
  6
CONTINUOUS
 10
31.353688766
 20
5.4321803972
 11
31.4717990022
 21
5.4321803972
  0
LINE
  5
45F
100
AcDbEntity
  8
0
100
AcDbLine
 62
7
  6
CONTINUOUS
 10
31.5564446715
 20
5.4341489011
 11
31.5013265613
 21
5.4341489011
  0
LINE
  5
460
100
AcDbEntity
  8
0
100
AcDbLine
 62
7
  6
CONTINUOUS
 10
31.3340037266
 20
5.4439914208
 11
31.3418777424
 21
5.4439914208
  0
LINE
  5
461
100
AcDbEntity
  8
0
100
AcDbLine
 62
7
  6
CONTINUOUS
 10
31.5879407345
 20
5.469581972
 11
31.6627438841
 21
5.469581972
  0
LINE
  5
462
100
AcDbEntity
  8
0
100
AcDbLine
 62
7
  6
CONTINUOUS
 10
31.6745549077
 20
5.469581972
 11
31.6843974274
 21
5.469581972
  0
LINE
  5
463
100
AcDbEntity
  8
0
100
AcDbLine
 62
7
  6
CONTINUOUS
 10
31.6843974274
 20
5.4735189799
 11
31.6745549077
 21
5.4735189799
  0
LINE
  5
464
100
AcDbEntity
  8
0
100
AcDbLine
 62
7
  6
CONTINUOUS
 10
31.666680892
 20
5.4735189799
 11
31.5879407345
 21
5.4735189799
  0
LINE
  5
465
100
AcDbEntity
  8
0
100
AcDbLine
 62
7
  6
CONTINUOUS
 10
31.5879407345
 20
5.4813929956
 11
31.666680892
 21
5.4813929956
  0
LINE
  5
466
100
AcDbEntity
  8
0
100
AcDbLine
 62
7
  6
CONTINUOUS
 10
31.6745549077
 20
5.4813929956
 11
31.6843974274
 21
5.4813929956
  0
LINE
  5
467
100
AcDbEntity
  8
0
100
AcDbLine
 62
7
  6
CONTINUOUS
 10
31.6627438841
 20
5.4853300035
 11
31.5879407345
 21
5.4853300035
  0
LINE
  5
468
100
AcDbEntity
  8
0
100
AcDbLine
 62
7
  6
CONTINUOUS
 10
31.6627438841
 20
5.3199756728
 11
31.666680892
 21
5.3160386649
  0
LINE
  5
469
100
AcDbEntity
  8
0
100
AcDbLine
 62
7
  6
CONTINUOUS
 10
31.3340037266
 20
5.5581646492
 11
31.3340037266
 21
5.4439914208
  0
LINE
  5
46A
100
AcDbEntity
  8
0
100
AcDbLine
 62
7
  6
CONTINUOUS
 10
31.3418777424
 20
5.5581646492
 11
31.3418777424
 21
5.4439914208
  0
LINE
  5
46B
100
AcDbEntity
  8
0
100
AcDbLine
 62
7
  6
CONTINUOUS
 10
31.12534846
 20
5.9798218349
 11
31.1312478211
 21
5.9832295992
  0
LINE
  5
46C
100
AcDbEntity
  8
0
100
AcDbLine
 62
7
  6
CONTINUOUS
 10
31.1249080509
 20
5.9795817635
 11
31.1253423093
 21
5.9798324827
  0
LINE
  5
46D
100
AcDbEntity
  8
0
100
AcDbLine
 62
7
  6
CONTINUOUS
 10
31.1384071357
 20
5.972638622
 11
31.1297033139
 21
5.9676134681
  0
LINE
  5
46E
100
AcDbEntity
  8
0
100
AcDbLine
 62
7
  6
CONTINUOUS
 10
31.4717990022
 20
5.5547087496
 11
31.5013265613
 21
5.5557398747
  0
LINE
  5
46F
100
AcDbEntity
  8
0
100
AcDbLine
 62
7
  6
CONTINUOUS
 10
31.3340037266
 20
5.5581646492
 11
31.3418777424
 21
5.5581646492
  0
LINE
  5
470
100
AcDbEntity
  8
0
100
AcDbLine
 62
7
  6
CONTINUOUS
 10
31.5013265613
 20
5.5584207999
 11
31.479673018
 21
5.5584207999
  0
LINE
  5
471
100
AcDbEntity
  8
0
100
AcDbLine
 62
7
  6
CONTINUOUS
 10
31.5564446715
 20
5.5680071689
 11
31.5013265613
 21
5.5680071689
  0
LINE
  5
472
100
AcDbEntity
  8
0
100
AcDbLine
 62
7
  6
CONTINUOUS
 10
31.4717990022
 20
5.5699756728
 11
31.353688766
 21
5.5699756728
  0
LINE
  5
473
100
AcDbEntity
  8
0
100
AcDbLine
 62
7
  6
CONTINUOUS
 10
31.7414840416
 20
5.5758811846
 11
31.5879407345
 21
5.5758811846
  0
LINE
  5
474
100
AcDbEntity
  8
0
100
AcDbLine
 62
7
  6
CONTINUOUS
 10
31.7773536508
 20
5.2211139376
 11
31.7826791016
 21
5.2157884868
  0
LINE
  5
475
100
AcDbEntity
  8
0
100
AcDbLine
 62
7
  6
CONTINUOUS
 10
32.1076257739
 20
4.9126815937
 11
32.1090001884
 21
4.9113071791
  0
LINE
  5
476
100
AcDbEntity
  8
0
100
AcDbLine
 62
7
  6
CONTINUOUS
 10
31.479673018
 20
5.5584207999
 11
31.4717990022
 21
5.5671431644
  0
LINE
  5
477
100
AcDbEntity
  8
0
100
AcDbLine
 62
7
  6
CONTINUOUS
 10
31.353688766
 20
5.5778496885
 11
31.353688766
 21
5.5699756728
  0
LINE
  5
478
100
AcDbEntity
  8
0
100
AcDbLine
 62
7
  6
CONTINUOUS
 10
31.353688766
 20
5.4243063815
 11
31.353688766
 21
5.4321803972
  0
LINE
  5
479
100
AcDbEntity
  8
0
100
AcDbLine
 62
7
  6
CONTINUOUS
 10
31.353688766
 20
5.5778496885
 11
31.5505391597
 21
5.5778496885
  0
LINE
  5
47A
100
AcDbEntity
  8
0
100
AcDbLine
 62
7
  6
CONTINUOUS
 10
31.7099879786
 20
5.5916292161
 11
31.5879407345
 21
5.5916292161
  0
LINE
  5
47B
100
AcDbEntity
  8
0
100
AcDbLine
 62
7
  6
CONTINUOUS
 10
31.5879407345
 20
5.6349363027
 11
31.6627438841
 21
5.6349363027
  0
LINE
  5
47C
100
AcDbEntity
  8
0
100
AcDbLine
 62
7
  6
CONTINUOUS
 10
31.7060509707
 20
5.6349363027
 11
31.7414840416
 21
5.6349363027
  0
LINE
  5
47D
100
AcDbEntity
  8
0
100
AcDbLine
 62
7
  6
CONTINUOUS
 10
31.7414840416
 20
5.6388733106
 11
31.6745549077
 21
5.6388733106
  0
LINE
  5
47E
100
AcDbEntity
  8
0
100
AcDbLine
 62
7
  6
CONTINUOUS
 10
31.666680892
 20
5.6388733106
 11
31.5879407345
 21
5.6388733106
  0
LINE
  5
47F
100
AcDbEntity
  8
0
100
AcDbLine
 62
7
  6
CONTINUOUS
 10
31.6784919156
 20
5.469581972
 11
31.6745549077
 21
5.4735189799
  0
LINE
  5
480
100
AcDbEntity
  8
0
100
AcDbLine
 62
7
  6
CONTINUOUS
 10
31.6627438841
 20
5.4853300035
 11
31.666680892
 21
5.4813929956
  0
LINE
  5
481
100
AcDbEntity
  8
0
100
AcDbLine
 62
7
  6
CONTINUOUS
 10
31.6745549077
 20
5.5168260665
 11
31.6843974274
 21
5.5069835468
  0
LINE
  5
482
100
AcDbEntity
  8
0
100
AcDbLine
 62
7
  6
CONTINUOUS
 10
32.292665144
 20
4.90855835
 11
32.2899163148
 21
4.9113071791
  0
LINE
  5
483
100
AcDbEntity
  8
0
100
AcDbLine
 62
7
  6
CONTINUOUS
 10
31.7690430967
 20
5.4135714495
 11
31.7785896596
 21
5.4029963371
  0
LINE
  5
484
100
AcDbEntity
  8
0
100
AcDbLine
 62
7
  6
CONTINUOUS
 10
31.4717990022
 20
5.5778496885
 11
31.4717990022
 21
5.4243063815
  0
LINE
  5
485
100
AcDbEntity
  8
0
100
AcDbLine
 62
7
  6
CONTINUOUS
 10
31.5013265613
 20
5.5680071689
 11
31.5013265613
 21
5.4341489011
  0
LINE
  5
486
100
AcDbEntity
  8
0
100
AcDbLine
 62
7
  6
CONTINUOUS
 10
31.5879407345
 20
5.7058024445
 11
31.7414840416
 21
5.7058024445
  0
LINE
  5
487
100
AcDbEntity
  8
0
100
AcDbLine
 62
7
  6
CONTINUOUS
 10
31.5879407345
 20
5.7256603072
 11
31.7255631867
 21
5.7256603072
  0
LINE
  5
488
100
AcDbEntity
  8
0
100
AcDbLine
 62
7
  6
CONTINUOUS
 10
31.7122940895
 20
5.7389294045
 11
31.5879407345
 21
5.7389294045
  0
LINE
  5
489
100
AcDbEntity
  8
0
100
AcDbLine
 62
7
  6
CONTINUOUS
 10
31.7099879786
 20
5.7412355153
 11
31.5879407345
 21
5.7412355153
  0
LINE
  5
48A
100
AcDbEntity
  8
0
100
AcDbLine
 62
7
  6
CONTINUOUS
 10
31.1273252284
 20
6.0091163564
 11
31.1312478211
 21
6.0068516465
  0
LINE
  5
48B
100
AcDbEntity
  8
0
100
AcDbLine
 62
7
  6
CONTINUOUS
 10
31.1297033139
 20
6.0148575626
 11
31.1384071357
 21
6.0098324087
  0
LINE
  5
48C
100
AcDbEntity
  8
0
100
AcDbLine
 62
7
  6
CONTINUOUS
 10
31.6922714432
 20
5.6211567752
 11
31.6745549077
 21
5.6388733106
  0
LINE
  5
48D
100
AcDbEntity
  8
0
100
AcDbLine
 62
7
  6
CONTINUOUS
 10
31.5481341174
 20
5.7810421324
 11
31.5428086666
 21
5.7863675832
  0
LINE
  5
48E
100
AcDbEntity
  8
0
100
AcDbLine
 62
7
  6
CONTINUOUS
 10
31.509200577
 20
5.5680071689
 11
31.509200577
 21
5.5778496885
  0
LINE
  5
48F
100
AcDbEntity
  8
0
100
AcDbLine
 62
7
  6
CONTINUOUS
 10
31.5428086666
 20
5.2157884868
 11
31.5428086666
 21
5.4243063815
  0
LINE
  5
490
100
AcDbEntity
  8
0
100
AcDbLine
 62
7
  6
CONTINUOUS
 10
31.5428086666
 20
5.5778496885
 11
31.5428086666
 21
5.7863675832
  0
LINE
  5
491
100
AcDbEntity
  8
0
100
AcDbLine
 62
7
  6
CONTINUOUS
 10
31.5481341174
 20
5.2211139376
 11
31.5481341174
 21
5.2235189799
  0
LINE
  5
492
100
AcDbEntity
  8
0
100
AcDbLine
 62
7
  6
CONTINUOUS
 10
31.5481341174
 20
5.7786370901
 11
31.5481341174
 21
5.7810421324
  0
LINE
  5
493
100
AcDbEntity
  8
0
100
AcDbLine
 62
7
  6
CONTINUOUS
 10
31.5564446715
 20
5.7727315783
 11
31.5564446715
 21
5.2294244917
  0
LINE
  5
494
100
AcDbEntity
  8
0
100
AcDbLine
 62
7
  6
CONTINUOUS
 10
31.5879407345
 20
5.7412355153
 11
31.5879407345
 21
5.5916292161
  0
LINE
  5
495
100
AcDbEntity
  8
0
100
AcDbLine
 62
7
  6
CONTINUOUS
 10
31.5879407345
 20
5.5758811846
 11
31.5879407345
 21
5.4262748854
  0
LINE
  5
496
100
AcDbEntity
  8
0
100
AcDbLine
 62
7
  6
CONTINUOUS
 10
31.5879407345
 20
5.4105268539
 11
31.5879407345
 21
5.2609205547
  0
LINE
  5
497
100
AcDbEntity
  8
0
100
AcDbLine
 62
7
  6
CONTINUOUS
 10
31.7690430967
 20
5.7727315783
 11
31.5564446715
 21
5.7727315783
  0
LINE
  5
498
100
AcDbEntity
  8
0
100
AcDbLine
 62
7
  6
CONTINUOUS
 10
31.5505391597
 20
5.7786370901
 11
31.5481341174
 21
5.7786370901
  0
LINE
  5
499
100
AcDbEntity
  8
0
100
AcDbLine
 62
7
  6
CONTINUOUS
 10
31.7749486085
 20
5.7786370901
 11
31.7773536508
 21
5.7786370901
  0
LINE
  5
49A
100
AcDbEntity
  8
0
100
AcDbLine
 62
7
  6
CONTINUOUS
 10
31.5481341174
 20
5.7810421324
 11
31.7773536508
 21
5.7810421324
  0
LINE
  5
49B
100
AcDbEntity
  8
0
100
AcDbLine
 62
7
  6
CONTINUOUS
 10
31.5428086666
 20
5.7863675832
 11
31.7826791016
 21
5.7863675832
  0
LINE
  5
49C
100
AcDbEntity
  8
0
100
AcDbLine
 62
7
  6
CONTINUOUS
 10
32.2885419003
 20
5.09359772
 11
32.2899163148
 21
5.0922233055
  0
LINE
  5
49D
100
AcDbEntity
  8
0
100
AcDbLine
 62
7
  6
CONTINUOUS
 10
31.7414840416
 20
5.7097394523
 11
31.7099879786
 21
5.7412355153
  0
LINE
  5
49E
100
AcDbEntity
  8
0
100
AcDbLine
 62
7
  6
CONTINUOUS
 10
31.6627438841
 20
5.6349363027
 11
31.6627438841
 21
5.5916292161
  0
LINE
  5
49F
100
AcDbEntity
  8
0
100
AcDbLine
 62
7
  6
CONTINUOUS
 10
31.6627438841
 20
5.5758811846
 11
31.6627438841
 21
5.4853300035
  0
LINE
  5
4A0
100
AcDbEntity
  8
0
100
AcDbLine
 62
7
  6
CONTINUOUS
 10
31.6627438841
 20
5.469581972
 11
31.6627438841
 21
5.4262748854
  0
LINE
  5
4A1
100
AcDbEntity
  8
0
100
AcDbLine
 62
7
  6
CONTINUOUS
 10
31.6627438841
 20
5.4105268539
 11
31.6627438841
 21
5.3199756728
  0
LINE
  5
4A2
100
AcDbEntity
  8
0
100
AcDbLine
 62
7
  6
CONTINUOUS
 10
31.666680892
 20
5.3160386649
 11
31.666680892
 21
5.4105268539
  0
LINE
  5
4A3
100
AcDbEntity
  8
0
100
AcDbLine
 62
7
  6
CONTINUOUS
 10
31.666680892
 20
5.4262748854
 11
31.666680892
 21
5.4735189799
  0
LINE
  5
4A4
100
AcDbEntity
  8
0
100
AcDbLine
 62
7
  6
CONTINUOUS
 10
31.666680892
 20
5.4813929956
 11
31.666680892
 21
5.5758811846
  0
LINE
  5
4A5
100
AcDbEntity
  8
0
100
AcDbLine
 62
7
  6
CONTINUOUS
 10
31.666680892
 20
5.5916292161
 11
31.666680892
 21
5.6388733106
  0
LINE
  5
4A6
100
AcDbEntity
  8
0
100
AcDbLine
 62
7
  6
CONTINUOUS
 10
31.1076257739
 20
4.9660689608
 11
31.1126509278
 21
4.9747727827
  0
LINE
  5
4A7
100
AcDbEntity
  8
0
100
AcDbLine
 62
7
  6
CONTINUOUS
 10
31.7690430967
 20
5.7372985074
 11
31.7336100258
 21
5.7727315783
  0
LINE
  5
4A8
100
AcDbEntity
  8
0
100
AcDbLine
 62
7
  6
CONTINUOUS
 10
31.6745549077
 20
5.3160386649
 11
31.6745549077
 21
5.4105268539
  0
LINE
  5
4A9
100
AcDbEntity
  8
0
100
AcDbLine
 62
7
  6
CONTINUOUS
 10
31.6745549077
 20
5.4262748854
 11
31.6745549077
 21
5.4735189799
  0
LINE
  5
4AA
100
AcDbEntity
  8
0
100
AcDbLine
 62
7
  6
CONTINUOUS
 10
31.6745549077
 20
5.4813929956
 11
31.6745549077
 21
5.5758811846
  0
LINE
  5
4AB
100
AcDbEntity
  8
0
100
AcDbLine
 62
7
  6
CONTINUOUS
 10
31.6745549077
 20
5.5916292161
 11
31.6745549077
 21
5.6388733106
  0
LINE
  5
4AC
100
AcDbEntity
  8
0
100
AcDbLine
 62
7
  6
CONTINUOUS
 10
31.6843974274
 20
5.4262748854
 11
31.6843974274
 21
5.5758811846
  0
LINE
  5
4AD
100
AcDbEntity
  8
0
100
AcDbLine
 62
7
  6
CONTINUOUS
 10
31.7414840416
 20
5.7097394523
 11
31.7414840416
 21
5.6231252791
  0
LINE
  5
4AE
100
AcDbEntity
  8
0
100
AcDbLine
 62
7
  6
CONTINUOUS
 10
31.7414840416
 20
5.5758811846
 11
31.7414840416
 21
5.4262748854
  0
LINE
  5
4AF
100
AcDbEntity
  8
0
100
AcDbLine
 62
7
  6
CONTINUOUS
 10
31.7414840416
 20
5.4105268539
 11
31.7414840416
 21
5.2609205547
  0
LINE
  5
4B0
100
AcDbEntity
  8
0
100
AcDbLine
 62
7
  6
CONTINUOUS
 10
32.2128368404
 20
4.9747727827
 11
32.2178619943
 21
4.9660689608
  0
LINE
  5
4B1
100
AcDbEntity
  8
0
100
AcDbLine
 62
7
  6
CONTINUOUS
 10
31.7788139074
 20
5.6195317702
 11
31.7749486085
 21
5.6349988558
  0
LINE
  5
4B2
100
AcDbEntity
  8
0
100
AcDbLine
 62
7
  6
CONTINUOUS
 10
31.7690430967
 20
5.7727315783
 11
31.7690430967
 21
5.2294244917
  0
LINE
  5
4B3
100
AcDbEntity
  8
0
100
AcDbLine
 62
7
  6
CONTINUOUS
 10
31.7749486085
 20
5.6349988558
 11
31.7749486085
 21
5.7786370901
  0
LINE
  5
4B4
100
AcDbEntity
  8
0
100
AcDbLine
 62
7
  6
CONTINUOUS
 10
31.7773536508
 20
5.7810421324
 11
31.7773536508
 21
5.7786370901
  0
LINE
  5
4B5
100
AcDbEntity
  8
0
100
AcDbLine
 62
7
  6
CONTINUOUS
 10
31.7773536508
 20
5.2235189799
 11
31.7773536508
 21
5.2211139376
  0
LINE
  5
4B6
100
AcDbEntity
  8
0
100
AcDbLine
 62
7
  6
CONTINUOUS
 10
31.7788997494
 20
5.6093456088
 11
31.7788997494
 21
5.3928104612
  0
LINE
  5
4B7
100
AcDbEntity
  8
0
100
AcDbLine
 62
7
  6
CONTINUOUS
 10
31.7826791016
 20
5.7863675832
 11
31.7826791016
 21
5.2157884868
  0
LINE
  5
4B8
100
AcDbEntity
  8
0
100
AcDbLine
 62
7
  6
CONTINUOUS
 10
31.0369458679
 20
5.09359772
 11
31.0355714534
 21
5.0922233055
  0
LINE
  5
4B9
100
AcDbEntity
  8
0
100
AcDbLine
 62
7
  6
CONTINUOUS
 10
31.7826791016
 20
5.7863675832
 11
31.7773536508
 21
5.7810421324
  0
LINE
  5
4BA
100
AcDbEntity
  8
0
100
AcDbLine
 62
7
  6
CONTINUOUS
 10
32.1870806325
 20
6.0098324087
 11
32.1957844544
 21
6.0148575626
  0
LINE
  5
4BB
100
AcDbEntity
  8
0
100
AcDbLine
 62
7
  6
CONTINUOUS
 10
32.1942399471
 20
6.0068516465
 11
32.1981625398
 21
6.0091163564
  0
LINE
  5
4BC
100
AcDbEntity
  8
0
100
AcDbLine
 62
7
  6
CONTINUOUS
 10
31.6627438841
 20
5.6349363027
 11
31.666680892
 21
5.6388733106
  0
LINE
  5
4BD
100
AcDbEntity
  8
0
100
AcDbLine
 62
7
  6
CONTINUOUS
 10
31.6745549077
 20
5.6034402397
 11
31.7060509707
 21
5.6349363027
  0
LINE
  5
4BE
100
AcDbEntity
  8
0
100
AcDbLine
 62
7
  6
CONTINUOUS
 10
31.7414840416
 20
5.6231252791
 11
31.7099879786
 21
5.5916292161
  0
LINE
  5
4BF
100
AcDbEntity
  8
0
100
AcDbLine
 62
7
  6
CONTINUOUS
 10
31.0328226243
 20
4.90855835
 11
31.0355714534
 21
4.9113071791
  0
LINE
  5
4C0
100
AcDbEntity
  8
0
100
AcDbLine
 62
7
  6
CONTINUOUS
 10
32.292665144
 20
6.0896607122
 11
32.2885419003
 21
6.0896607122
  0
LINE
  5
4C1
100
AcDbEntity
  8
0
100
AcDbLine
 62
7
  6
CONTINUOUS
 10
31.0328226243
 20
6.0896607122
 11
31.0369458679
 21
6.0896607122
  0
LINE
  5
4C2
100
AcDbEntity
  8
0
100
AcDbLine
 62
7
  6
CONTINUOUS
 10
31.7690430967
 20
5.5885846205
 11
31.7785896596
 21
5.5991597329
  0
LINE
  5
4C3
100
AcDbEntity
  8
0
100
AcDbLine
 62
7
  6
CONTINUOUS
 10
31.6843974274
 20
5.4912355153
 11
31.6745549077
 21
5.4813929956
  0
LINE
  5
4C4
100
AcDbEntity
  8
0
100
AcDbLine
 62
7
  6
CONTINUOUS
 10
31.6627438841
 20
5.469581972
 11
31.666680892
 21
5.4735189799
  0
LINE
  5
4C5
100
AcDbEntity
  8
0
100
AcDbLine
 62
7
  6
CONTINUOUS
 10
32.1957844544
 20
5.9676134681
 11
32.1870806325
 21
5.972638622
  0
LINE
  5
4C6
100
AcDbEntity
  8
0
100
AcDbLine
 62
7
  6
CONTINUOUS
 10
32.2001454589
 20
5.9798324827
 11
32.2005797173
 21
5.9795817635
  0
LINE
  5
4C7
100
AcDbEntity
  8
0
100
AcDbLine
 62
7
  6
CONTINUOUS
 10
32.1942399471
 20
5.9832295992
 11
32.2001393082
 21
5.9798218349
  0
LINE
  5
4C8
100
AcDbEntity
  8
0
100
AcDbLine
 62
7
  6
CONTINUOUS
 10
31.2178619943
 20
4.9126815937
 11
31.2164875798
 21
4.9113071791
  0
LINE
  5
4C9
100
AcDbEntity
  8
0
100
AcDbLine
 62
7
  6
CONTINUOUS
 10
31.5481341174
 20
5.2211139376
 11
31.5428086666
 21
5.2157884868
  0
LINE
  5
4CA
100
AcDbEntity
  8
0
100
AcDbLine
 62
7
  6
CONTINUOUS
 10
31.6784919156
 20
5.3199756728
 11
31.6745549077
 21
5.3160386649
  0
LINE
  5
4CB
100
AcDbEntity
  8
0
100
AcDbLine
 62
7
  6
CONTINUOUS
 10
32.0647798824
 20
6.6047493433
 11
32.0659198014
 21
6.5735631707
  0
LINE
  5
4CC
100
AcDbEntity
  8
0
100
AcDbLine
 62
7
  6
CONTINUOUS
 10
32.1076257739
 20
4.9126815937
 11
32.1076257739
 21
5.0069835468
  0
LINE
  5
4CD
100
AcDbEntity
  8
0
100
AcDbLine
 62
7
  6
CONTINUOUS
 10
32.1090001884
 20
5.0069835468
 11
32.1090001884
 21
4.9113071791
  0
LINE
  5
4CE
100
AcDbEntity
  8
0
100
AcDbLine
 62
7
  6
CONTINUOUS
 10
32.1942399471
 20
5.09359772
 11
32.1942399471
 21
5.0922233055
  0
LINE
  5
4CF
100
AcDbEntity
  8
0
100
AcDbLine
 62
7
  6
CONTINUOUS
 10
32.1942399471
 20
5.9832295992
 11
32.1942399471
 21
6.0068516465
  0
LINE
  5
4D0
100
AcDbEntity
  8
0
100
AcDbLine
 62
7
  6
CONTINUOUS
 10
32.3585661539
 20
6.7983221295
 11
32.2656236996
 21
6.2712192782
  0
LINE
  5
4D1
100
AcDbEntity
  8
0
100
AcDbLine
 62
7
  6
CONTINUOUS
 10
32.2944595038
 20
6.0998370327
 11
32.4158405423
 21
6.7882231095
  0
LINE
  5
4D2
100
AcDbEntity
  8
0
100
AcDbLine
 62
7
  6
CONTINUOUS
 10
32.2885419003
 20
5.09359772
 11
32.2885419003
 21
6.0896607122
  0
LINE
  5
4D3
100
AcDbEntity
  8
0
100
AcDbLine
 62
7
  6
CONTINUOUS
 10
32.2899163148
 20
4.9113071791
 11
32.2899163148
 21
5.0922233055
  0
LINE
  5
4D4
100
AcDbEntity
  8
0
100
AcDbLine
 62
7
  6
CONTINUOUS
 10
32.292665144
 20
4.90855835
 11
32.292665144
 21
6.0896607122
  0
LINE
  5
4D5
100
AcDbEntity
  8
0
100
AcDbLine
 62
7
  6
CONTINUOUS
 10
32.1477171785
 20
6.4932040192
 11
32.1463981682
 21
6.4932040193
  0
LINE
  5
4D6
100
AcDbEntity
  8
0
100
AcDbLine
 62
7
  6
CONTINUOUS
 10
31.1790834496
 20
6.4932040194
 11
31.1777705897
 21
6.4932040192
  0
LINE
  5
4D7
100
AcDbEntity
  8
0
100
AcDbLine
 62
7
  6
CONTINUOUS
 10
31.2607078858
 20
6.6047493433
 11
31.3005283891
 21
6.6047493433
  0
LINE
  5
4D8
100
AcDbEntity
  8
0
100
AcDbLine
 62
7
  6
CONTINUOUS
 10
32.0250307585
 20
6.6047493433
 11
32.0647798824
 21
6.6047493433
  0
LINE
  5
4D9
100
AcDbEntity
  8
0
100
AcDbLine
 62
7
  6
CONTINUOUS
 10
32.1389757974
 20
6.5019454003
 11
32.1477171784
 21
6.4932040193
  0
LINE
  5
4DA
100
AcDbEntity
  8
0
100
AcDbLine
 62
7
  6
CONTINUOUS
 10
32.1706178999
 20
4.9660689608
 11
32.1756430538
 21
4.9747727827
  0
LINE
  5
4DB
100
AcDbEntity
  8
0
100
AcDbLine
 62
7
  6
CONTINUOUS
 10
30.9669216143
 20
6.7983221295
 11
30.9096472259
 21
6.7882231095
  0
LINE
  5
4DC
100
AcDbEntity
  8
0
100
AcDbLine
 62
7
  6
CONTINUOUS
 10
32.4158405423
 20
6.7882231095
 11
32.3585661539
 21
6.7983221295
  0
LINE
  5
4DD
100
AcDbEntity
  8
0
100
AcDbLine
 62
7
  6
CONTINUOUS
 10
1.8511672693
 20
4.90855835
 11
3.111009789
 21
4.90855835
  0
LINE
  5
4DE
100
AcDbEntity
  8
0
100
AcDbLine
 62
7
  6
CONTINUOUS
 10
1.8539160984
 20
4.9113071791
 11
2.0348322248
 21
4.9113071791
  0
LINE
  5
4DF
100
AcDbEntity
  8
0
100
AcDbLine
 62
7
  6
CONTINUOUS
 10
2.9273448335
 20
4.9113071791
 11
3.1082609599
 21
4.9113071791
  0
LINE
  5
4E0
100
AcDbEntity
  8
0
100
AcDbLine
 62
7
  6
CONTINUOUS
 10
2.0362066394
 20
4.9126815937
 11
2.9259704189
 21
4.9126815937
  0
LINE
  5
4E1
100
AcDbEntity
  8
0
100
AcDbLine
 62
7
  6
CONTINUOUS
 10
1.9732145134
 20
4.9660689608
 11
1.9681893595
 21
4.9747727827
  0
LINE
  5
4E2
100
AcDbEntity
  8
0
100
AcDbLine
 62
7
  6
CONTINUOUS
 10
2.0362066394
 20
5.0069835468
 11
2.0348322248
 21
5.0069835468
  0
LINE
  5
4E3
100
AcDbEntity
  8
0
100
AcDbLine
 62
7
  6
CONTINUOUS
 10
2.9259704189
 20
5.0069835468
 11
2.9273448335
 21
5.0069835468
  0
LINE
  5
4E4
100
AcDbEntity
  8
0
100
AcDbLine
 62
7
  6
CONTINUOUS
 10
2.0048566159
 20
6.5019454003
 11
1.9961152348
 21
6.4932040193
  0
LINE
  5
4E5
100
AcDbEntity
  8
0
100
AcDbLine
 62
7
  6
CONTINUOUS
 10
3.1082609599
 20
5.0922233055
 11
3.0125845922
 21
5.0922233055
  0
LINE
  5
4E6
100
AcDbEntity
  8
0
100
AcDbLine
 62
7
  6
CONTINUOUS
 10
1.9495924662
 20
5.0922233055
 11
1.8539160984
 21
5.0922233055
  0
LINE
  5
4E7
100
AcDbEntity
  8
0
100
AcDbLine
 62
7
  6
CONTINUOUS
 10
3.1068865453
 20
5.09359772
 11
3.0125845922
 21
5.09359772
  0
LINE
  5
4E8
100
AcDbEntity
  8
0
100
AcDbLine
 62
7
  6
CONTINUOUS
 10
1.855290513
 20
5.09359772
 11
1.9495924662
 21
5.09359772
  0
LINE
  5
4E9
100
AcDbEntity
  8
0
100
AcDbLine
 62
7
  6
CONTINUOUS
 10
1.8511672693
 20
4.90855835
 11
1.8511672693
 21
6.0896607122
  0
LINE
  5
4EA
100
AcDbEntity
  8
0
100
AcDbLine
 62
7
  6
CONTINUOUS
 10
1.8539160984
 20
4.9113071791
 11
1.8539160984
 21
5.0922233055
  0
LINE
  5
4EB
100
AcDbEntity
  8
0
100
AcDbLine
 62
7
  6
CONTINUOUS
 10
1.855290513
 20
5.09359772
 11
1.855290513
 21
6.0896607122
  0
LINE
  5
4EC
100
AcDbEntity
  8
0
100
AcDbLine
 62
7
  6
CONTINUOUS
 10
2.683838343
 20
5.2747061739
 11
2.2783387153
 21
5.2747061739
  0
LINE
  5
4ED
100
AcDbEntity
  8
0
100
AcDbLine
 62
7
  6
CONTINUOUS
 10
2.2862066394
 20
5.282574098
 11
2.6759704189
 21
5.282574098
  0
LINE
  5
4EE
100
AcDbEntity
  8
0
100
AcDbLine
 62
7
  6
CONTINUOUS
 10
2.6700649071
 20
5.2884796098
 11
2.2921121512
 21
5.2884796098
  0
LINE
  5
4EF
100
AcDbEntity
  8
0
100
AcDbLine
 62
7
  6
CONTINUOUS
 10
2.3157341985
 20
5.3199756728
 11
2.4692775055
 21
5.3199756728
  0
LINE
  5
4F0
100
AcDbEntity
  8
0
100
AcDbLine
 62
7
  6
CONTINUOUS
 10
2.4810885292
 20
5.3199756728
 11
2.6031357733
 21
5.3199756728
  0
LINE
  5
4F1
100
AcDbEntity
  8
0
100
AcDbLine
 62
7
  6
CONTINUOUS
 10
1.8493729094
 20
6.0998370327
 11
1.727991871
 21
6.7882231095
  0
LINE
  5
4F2
100
AcDbEntity
  8
0
100
AcDbLine
 62
7
  6
CONTINUOUS
 10
1.9495924662
 20
5.09359772
 11
1.9495924662
 21
5.0922233055
  0
LINE
  5
4F3
100
AcDbEntity
  8
0
100
AcDbLine
 62
7
  6
CONTINUOUS
 10
1.9495924662
 20
5.9832295992
 11
1.9495924662
 21
6.0068516465
  0
LINE
  5
4F4
100
AcDbEntity
  8
0
100
AcDbLine
 62
7
  6
CONTINUOUS
 10
2.2862066394
 20
5.3869048067
 11
2.2921121512
 21
5.3869048067
  0
LINE
  5
4F5
100
AcDbEntity
  8
0
100
AcDbLine
 62
7
  6
CONTINUOUS
 10
2.5854192378
 20
5.3964911757
 11
2.6346318362
 21
5.3964911757
  0
LINE
  5
4F6
100
AcDbEntity
  8
0
100
AcDbLine
 62
7
  6
CONTINUOUS
 10
2.0893562457
 20
5.4006843342
 11
2.2862066394
 21
5.4006843342
  0
LINE
  5
4F7
100
AcDbEntity
  8
0
100
AcDbLine
 62
7
  6
CONTINUOUS
 10
2.0893562457
 20
5.40855835
 11
2.2074664819
 21
5.40855835
  0
LINE
  5
4F8
100
AcDbEntity
  8
0
100
AcDbLine
 62
7
  6
CONTINUOUS
 10
2.5558916788
 20
5.4105268539
 11
2.4810885292
 21
5.4105268539
  0
LINE
  5
4F9
100
AcDbEntity
  8
0
100
AcDbLine
 62
7
  6
CONTINUOUS
 10
2.4692775055
 20
5.4105268539
 11
2.4023483717
 21
5.4105268539
  0
LINE
  5
4FA
100
AcDbEntity
  8
0
100
AcDbLine
 62
7
  6
CONTINUOUS
 10
2.236994041
 20
5.4105268539
 11
2.2921121512
 21
5.4105268539
  0
LINE
  5
4FB
100
AcDbEntity
  8
0
100
AcDbLine
 62
7
  6
CONTINUOUS
 10
1.7852662594
 20
6.7983221295
 11
1.8782087137
 21
6.2712192782
  0
LINE
  5
4FC
100
AcDbEntity
  8
0
100
AcDbLine
 62
7
  6
CONTINUOUS
 10
2.0348322248
 20
4.9113071791
 11
2.0348322248
 21
5.0069835468
  0
LINE
  5
4FD
100
AcDbEntity
  8
0
100
AcDbLine
 62
7
  6
CONTINUOUS
 10
2.0362066394
 20
4.9126815937
 11
2.0362066394
 21
5.0069835468
  0
LINE
  5
4FE
100
AcDbEntity
  8
0
100
AcDbLine
 62
7
  6
CONTINUOUS
 10
2.0696712063
 20
5.5345426019
 11
2.0696712063
 21
5.4203693736
  0
LINE
  5
4FF
100
AcDbEntity
  8
0
100
AcDbLine
 62
7
  6
CONTINUOUS
 10
2.0775452221
 20
5.5345426019
 11
2.0775452221
 21
5.4203693736
  0
LINE
  5
500
100
AcDbEntity
  8
0
100
AcDbLine
 62
7
  6
CONTINUOUS
 10
2.0790525308
 20
6.6047493433
 11
2.0779108812
 21
6.5735158229
  0
LINE
  5
501
100
AcDbEntity
  8
0
100
AcDbLine
 62
7
  6
CONTINUOUS
 10
2.5598286866
 20
5.4144638618
 11
2.4810885292
 21
5.4144638618
  0
LINE
  5
502
100
AcDbEntity
  8
0
100
AcDbLine
 62
7
  6
CONTINUOUS
 10
2.4692775055
 20
5.4144638618
 11
2.4023483717
 21
5.4144638618
  0
LINE
  5
503
100
AcDbEntity
  8
0
100
AcDbLine
 62
7
  6
CONTINUOUS
 10
2.0696712063
 20
5.4203693736
 11
2.0775452221
 21
5.4203693736
  0
LINE
  5
504
100
AcDbEntity
  8
0
100
AcDbLine
 62
7
  6
CONTINUOUS
 10
2.5598286866
 20
5.4223378775
 11
2.4810885292
 21
5.4223378775
  0
LINE
  5
505
100
AcDbEntity
  8
0
100
AcDbLine
 62
7
  6
CONTINUOUS
 10
2.4692775055
 20
5.4223378775
 11
2.4594349859
 21
5.4223378775
  0
LINE
  5
506
100
AcDbEntity
  8
0
100
AcDbLine
 62
7
  6
CONTINUOUS
 10
2.3266815885
 20
5.424061657
 11
2.3660516673
 21
5.424061657
  0
LINE
  5
507
100
AcDbEntity
  8
0
100
AcDbLine
 62
7
  6
CONTINUOUS
 10
2.5558916788
 20
5.4262748854
 11
2.4810885292
 21
5.4262748854
  0
LINE
  5
508
100
AcDbEntity
  8
0
100
AcDbLine
 62
7
  6
CONTINUOUS
 10
2.4692775055
 20
5.4262748854
 11
2.4594349859
 21
5.4262748854
  0
LINE
  5
509
100
AcDbEntity
  8
0
100
AcDbLine
 62
7
  6
CONTINUOUS
 10
2.6031357733
 20
5.469581972
 11
2.4810885292
 21
5.469581972
  0
LINE
  5
50A
100
AcDbEntity
  8
0
100
AcDbLine
 62
7
  6
CONTINUOUS
 10
2.4692775055
 20
5.469581972
 11
2.3157341985
 21
5.469581972
  0
LINE
  5
50B
100
AcDbEntity
  8
0
100
AcDbLine
 62
7
  6
CONTINUOUS
 10
2.3157341985
 20
5.4853300035
 11
2.4377814425
 21
5.4853300035
  0
LINE
  5
50C
100
AcDbEntity
  8
0
100
AcDbLine
 62
7
  6
CONTINUOUS
 10
2.4810885292
 20
5.4853300035
 11
2.6346318362
 21
5.4853300035
  0
LINE
  5
50D
100
AcDbEntity
  8
0
100
AcDbLine
 62
7
  6
CONTINUOUS
 10
2.3660516673
 20
5.424061657
 11
2.4594349859
 21
5.4208006396
  0
LINE
  5
50E
100
AcDbEntity
  8
0
100
AcDbLine
 62
7
  6
CONTINUOUS
 10
2.0893562457
 20
5.5542276413
 11
2.0893562457
 21
5.5463536256
  0
LINE
  5
50F
100
AcDbEntity
  8
0
100
AcDbLine
 62
7
  6
CONTINUOUS
 10
2.0893562457
 20
5.4006843342
 11
2.0893562457
 21
5.40855835
  0
LINE
  5
510
100
AcDbEntity
  8
0
100
AcDbLine
 62
7
  6
CONTINUOUS
 10
1.9432544493
 20
5.9795684455
 11
1.9495924662
 21
5.9832295992
  0
LINE
  5
511
100
AcDbEntity
  8
0
100
AcDbLine
 62
7
  6
CONTINUOUS
 10
1.9480479589
 20
5.9676134681
 11
1.9567517808
 21
5.972638622
  0
LINE
  5
512
100
AcDbEntity
  8
0
100
AcDbLine
 62
7
  6
CONTINUOUS
 10
2.0696712063
 20
5.5345426019
 11
2.0775452221
 21
5.5345426019
  0
LINE
  5
513
100
AcDbEntity
  8
0
100
AcDbLine
 62
7
  6
CONTINUOUS
 10
2.236994041
 20
5.5443851216
 11
2.2921121512
 21
5.5443851216
  0
LINE
  5
514
100
AcDbEntity
  8
0
100
AcDbLine
 62
7
  6
CONTINUOUS
 10
2.2074664819
 20
5.5463536256
 11
2.0893562457
 21
5.5463536256
  0
LINE
  5
515
100
AcDbEntity
  8
0
100
AcDbLine
 62
7
  6
CONTINUOUS
 10
2.0893562457
 20
5.5542276413
 11
2.2862066394
 21
5.5542276413
  0
LINE
  5
516
100
AcDbEntity
  8
0
100
AcDbLine
 62
7
  6
CONTINUOUS
 10
2.5854192378
 20
5.5584207999
 11
2.6346318362
 21
5.5584207999
  0
LINE
  5
517
100
AcDbEntity
  8
0
100
AcDbLine
 62
7
  6
CONTINUOUS
 10
2.6346318362
 20
5.5680071689
 11
2.5873877418
 21
5.5680071689
  0
LINE
  5
518
100
AcDbEntity
  8
0
100
AcDbLine
 62
7
  6
CONTINUOUS
 10
2.2862066394
 20
5.5680071689
 11
2.2921121512
 21
5.5680071689
  0
LINE
  5
519
100
AcDbEntity
  8
0
100
AcDbLine
 62
7
  6
CONTINUOUS
 10
2.5558916788
 20
5.5758811846
 11
2.4810885292
 21
5.5758811846
  0
LINE
  5
51A
100
AcDbEntity
  8
0
100
AcDbLine
 62
7
  6
CONTINUOUS
 10
2.4692775055
 20
5.5758811846
 11
2.4594349859
 21
5.5758811846
  0
LINE
  5
51B
100
AcDbEntity
  8
0
100
AcDbLine
 62
7
  6
CONTINUOUS
 10
2.4023483717
 20
5.4144638618
 11
2.4062853796
 21
5.4105268539
  0
LINE
  5
51C
100
AcDbEntity
  8
0
100
AcDbLine
 62
7
  6
CONTINUOUS
 10
2.9259704189
 20
4.9126815937
 11
2.9273448335
 21
4.9113071791
  0
LINE
  5
51D
100
AcDbEntity
  8
0
100
AcDbLine
 62
7
  6
CONTINUOUS
 10
2.3157341985
 20
5.5902212781
 11
2.3266815885
 21
5.578094413
  0
LINE
  5
51E
100
AcDbEntity
  8
0
100
AcDbLine
 62
7
  6
CONTINUOUS
 10
2.2074664819
 20
5.5542276413
 11
2.2074664819
 21
5.4006843342
  0
LINE
  5
51F
100
AcDbEntity
  8
0
100
AcDbLine
 62
7
  6
CONTINUOUS
 10
2.236994041
 20
5.4105268539
 11
2.236994041
 21
5.5443851216
  0
LINE
  5
520
100
AcDbEntity
  8
0
100
AcDbLine
 62
7
  6
CONTINUOUS
 10
2.3660516673
 20
5.578094413
 11
2.4594349859
 21
5.5813554304
  0
LINE
  5
521
100
AcDbEntity
  8
0
100
AcDbLine
 62
7
  6
CONTINUOUS
 10
2.6346318362
 20
5.5778496885
 11
2.5932932536
 21
5.5778496885
  0
LINE
  5
522
100
AcDbEntity
  8
0
100
AcDbLine
 62
7
  6
CONTINUOUS
 10
2.3266815885
 20
5.578094413
 11
2.3660516673
 21
5.578094413
  0
LINE
  5
523
100
AcDbEntity
  8
0
100
AcDbLine
 62
7
  6
CONTINUOUS
 10
2.5598286866
 20
5.5798181925
 11
2.4810885292
 21
5.5798181925
  0
LINE
  5
524
100
AcDbEntity
  8
0
100
AcDbLine
 62
7
  6
CONTINUOUS
 10
2.4692775055
 20
5.5798181925
 11
2.4594349859
 21
5.5798181925
  0
LINE
  5
525
100
AcDbEntity
  8
0
100
AcDbLine
 62
7
  6
CONTINUOUS
 10
2.5598286866
 20
5.5876922082
 11
2.4810885292
 21
5.5876922082
  0
LINE
  5
526
100
AcDbEntity
  8
0
100
AcDbLine
 62
7
  6
CONTINUOUS
 10
2.4692775055
 20
5.5876922082
 11
2.4023483717
 21
5.5876922082
  0
LINE
  5
527
100
AcDbEntity
  8
0
100
AcDbLine
 62
7
  6
CONTINUOUS
 10
2.6267578205
 20
5.5916292161
 11
2.5873877418
 21
5.5916292161
  0
LINE
  5
528
100
AcDbEntity
  8
0
100
AcDbLine
 62
7
  6
CONTINUOUS
 10
2.5558916788
 20
5.5916292161
 11
2.4810885292
 21
5.5916292161
  0
LINE
  5
529
100
AcDbEntity
  8
0
100
AcDbLine
 62
7
  6
CONTINUOUS
 10
2.4692775055
 20
5.5916292161
 11
2.4338444347
 21
5.5916292161
  0
LINE
  5
52A
100
AcDbEntity
  8
0
100
AcDbLine
 62
7
  6
CONTINUOUS
 10
2.6346318362
 20
5.6349363027
 11
2.4810885292
 21
5.6349363027
  0
LINE
  5
52B
100
AcDbEntity
  8
0
100
AcDbLine
 62
7
  6
CONTINUOUS
 10
2.4377814425
 20
5.6349363027
 11
2.3157341985
 21
5.6349363027
  0
LINE
  5
52C
100
AcDbEntity
  8
0
100
AcDbLine
 62
7
  6
CONTINUOUS
 10
2.6759704189
 20
5.282574098
 11
2.683838343
 21
5.2747061739
  0
LINE
  5
52D
100
AcDbEntity
  8
0
100
AcDbLine
 62
7
  6
CONTINUOUS
 10
2.2862066394
 20
5.6723378775
 11
2.2783387153
 21
5.6802058016
  0
LINE
  5
52E
100
AcDbEntity
  8
0
100
AcDbLine
 62
7
  6
CONTINUOUS
 10
2.5558916788
 20
5.4262748854
 11
2.5598286866
 21
5.4223378775
  0
LINE
  5
52F
100
AcDbEntity
  8
0
100
AcDbLine
 62
7
  6
CONTINUOUS
 10
3.111009789
 20
4.90855835
 11
3.1082609599
 21
4.9113071791
  0
LINE
  5
530
100
AcDbEntity
  8
0
100
AcDbLine
 62
7
  6
CONTINUOUS
 10
2.4023483717
 20
5.6231252791
 11
2.4338444347
 21
5.5916292161
  0
LINE
  5
531
100
AcDbEntity
  8
0
100
AcDbLine
 62
7
  6
CONTINUOUS
 10
2.2783387153
 20
5.2747061739
 11
2.2783387153
 21
5.4006843342
  0
LINE
  5
532
100
AcDbEntity
  8
0
100
AcDbLine
 62
7
  6
CONTINUOUS
 10
2.2783387153
 20
5.5542276413
 11
2.2783387153
 21
5.6802058016
  0
LINE
  5
533
100
AcDbEntity
  8
0
100
AcDbLine
 62
7
  6
CONTINUOUS
 10
2.2826102366
 20
5.5542276413
 11
2.2826102366
 21
5.5443851216
  0
LINE
  5
534
100
AcDbEntity
  8
0
100
AcDbLine
 62
7
  6
CONTINUOUS
 10
2.2826102366
 20
5.4105268539
 11
2.2826102366
 21
5.4006843342
  0
LINE
  5
535
100
AcDbEntity
  8
0
100
AcDbLine
 62
7
  6
CONTINUOUS
 10
2.2862066394
 20
5.6723378775
 11
2.2862066394
 21
5.5542276413
  0
LINE
  5
536
100
AcDbEntity
  8
0
100
AcDbLine
 62
7
  6
CONTINUOUS
 10
2.2862066394
 20
5.4006843342
 11
2.2862066394
 21
5.282574098
  0
LINE
  5
537
100
AcDbEntity
  8
0
100
AcDbLine
 62
7
  6
CONTINUOUS
 10
2.2921121512
 20
5.2884796098
 11
2.2921121512
 21
5.6664323657
  0
LINE
  5
538
100
AcDbEntity
  8
0
100
AcDbLine
 62
7
  6
CONTINUOUS
 10
2.3157341985
 20
5.6349363027
 11
2.3157341985
 21
5.4853300035
  0
LINE
  5
539
100
AcDbEntity
  8
0
100
AcDbLine
 62
7
  6
CONTINUOUS
 10
2.3157341985
 20
5.469581972
 11
2.3157341985
 21
5.3199756728
  0
LINE
  5
53A
100
AcDbEntity
  8
0
100
AcDbLine
 62
7
  6
CONTINUOUS
 10
2.2921121512
 20
5.6664323657
 11
2.6700649071
 21
5.6664323657
  0
LINE
  5
53B
100
AcDbEntity
  8
0
100
AcDbLine
 62
7
  6
CONTINUOUS
 10
2.6759704189
 20
5.6723378775
 11
2.2862066394
 21
5.6723378775
  0
LINE
  5
53C
100
AcDbEntity
  8
0
100
AcDbLine
 62
7
  6
CONTINUOUS
 10
2.2783387153
 20
5.6802058016
 11
2.683838343
 21
5.6802058016
  0
LINE
  5
53D
100
AcDbEntity
  8
0
100
AcDbLine
 62
7
  6
CONTINUOUS
 10
1.9495924662
 20
6.0068516465
 11
1.9456698735
 21
6.0091163564
  0
LINE
  5
53E
100
AcDbEntity
  8
0
100
AcDbLine
 62
7
  6
CONTINUOUS
 10
1.9567517808
 20
6.0098324087
 11
1.9480479589
 21
6.0148575626
  0
LINE
  5
53F
100
AcDbEntity
  8
0
100
AcDbLine
 62
7
  6
CONTINUOUS
 10
2.6346318362
 20
5.438085909
 11
2.6031357733
 21
5.469581972
  0
LINE
  5
540
100
AcDbEntity
  8
0
100
AcDbLine
 62
7
  6
CONTINUOUS
 10
2.4692775055
 20
5.6034402397
 11
2.4377814425
 21
5.6349363027
  0
LINE
  5
541
100
AcDbEntity
  8
0
100
AcDbLine
 62
7
  6
CONTINUOUS
 10
2.5558916788
 20
5.5916292161
 11
2.5598286866
 21
5.5876922082
  0
LINE
  5
542
100
AcDbEntity
  8
0
100
AcDbLine
 62
7
  6
CONTINUOUS
 10
2.6700649071
 20
5.3899494023
 11
2.67961147
 21
5.3793742899
  0
LINE
  5
543
100
AcDbEntity
  8
0
100
AcDbLine
 62
7
  6
CONTINUOUS
 10
2.3266815885
 20
5.424061657
 11
2.3266815885
 21
5.469581972
  0
LINE
  5
544
100
AcDbEntity
  8
0
100
AcDbLine
 62
7
  6
CONTINUOUS
 10
2.3266815885
 20
5.4853300035
 11
2.3266815885
 21
5.578094413
  0
LINE
  5
545
100
AcDbEntity
  8
0
100
AcDbLine
 62
7
  6
CONTINUOUS
 10
2.3660516673
 20
5.424061657
 11
2.3660516673
 21
5.469581972
  0
LINE
  5
546
100
AcDbEntity
  8
0
100
AcDbLine
 62
7
  6
CONTINUOUS
 10
2.3660516673
 20
5.4853300035
 11
2.3660516673
 21
5.578094413
  0
LINE
  5
547
100
AcDbEntity
  8
0
100
AcDbLine
 62
7
  6
CONTINUOUS
 10
2.4023483717
 20
5.6349363027
 11
2.4023483717
 21
5.5876922082
  0
LINE
  5
548
100
AcDbEntity
  8
0
100
AcDbLine
 62
7
  6
CONTINUOUS
 10
2.4023483717
 20
5.4144638618
 11
2.4023483717
 21
5.3199756728
  0
LINE
  5
549
100
AcDbEntity
  8
0
100
AcDbLine
 62
7
  6
CONTINUOUS
 10
3.1068865453
 20
5.09359772
 11
3.1082609599
 21
5.0922233055
  0
LINE
  5
54A
100
AcDbEntity
  8
0
100
AcDbLine
 62
7
  6
CONTINUOUS
 10
2.4594349859
 20
5.4201132229
 11
2.4594349859
 21
5.469581972
  0
LINE
  5
54B
100
AcDbEntity
  8
0
100
AcDbLine
 62
7
  6
CONTINUOUS
 10
2.4594349859
 20
5.5069835468
 11
2.4594349859
 21
5.5820428471
  0
LINE
  5
54C
100
AcDbEntity
  8
0
100
AcDbLine
 62
7
  6
CONTINUOUS
 10
2.4692775055
 20
5.3199756728
 11
2.4692775055
 21
5.469581972
  0
LINE
  5
54D
100
AcDbEntity
  8
0
100
AcDbLine
 62
7
  6
CONTINUOUS
 10
2.4692775055
 20
5.5168260665
 11
2.4692775055
 21
5.6034402397
  0
LINE
  5
54E
100
AcDbEntity
  8
0
100
AcDbLine
 62
7
  6
CONTINUOUS
 10
2.4810885292
 20
5.6349363027
 11
2.4810885292
 21
5.4853300035
  0
LINE
  5
54F
100
AcDbEntity
  8
0
100
AcDbLine
 62
7
  6
CONTINUOUS
 10
2.4810885292
 20
5.469581972
 11
2.4810885292
 21
5.3199756728
  0
LINE
  5
550
100
AcDbEntity
  8
0
100
AcDbLine
 62
7
  6
CONTINUOUS
 10
1.9309955728
 20
4.9747727827
 11
1.9259704189
 21
4.9660689608
  0
LINE
  5
551
100
AcDbEntity
  8
0
100
AcDbLine
 62
7
  6
CONTINUOUS
 10
2.5558916788
 20
5.6349363027
 11
2.5558916788
 21
5.5916292161
  0
LINE
  5
552
100
AcDbEntity
  8
0
100
AcDbLine
 62
7
  6
CONTINUOUS
 10
2.5558916788
 20
5.5758811846
 11
2.5558916788
 21
5.4853300035
  0
LINE
  5
553
100
AcDbEntity
  8
0
100
AcDbLine
 62
7
  6
CONTINUOUS
 10
2.5558916788
 20
5.469581972
 11
2.5558916788
 21
5.4262748854
  0
LINE
  5
554
100
AcDbEntity
  8
0
100
AcDbLine
 62
7
  6
CONTINUOUS
 10
2.5558916788
 20
5.4105268539
 11
2.5558916788
 21
5.3199756728
  0
LINE
  5
555
100
AcDbEntity
  8
0
100
AcDbLine
 62
7
  6
CONTINUOUS
 10
2.5598286866
 20
5.6349363027
 11
2.5598286866
 21
5.5876922082
  0
LINE
  5
556
100
AcDbEntity
  8
0
100
AcDbLine
 62
7
  6
CONTINUOUS
 10
2.5598286866
 20
5.5798181925
 11
2.5598286866
 21
5.4853300035
  0
LINE
  5
557
100
AcDbEntity
  8
0
100
AcDbLine
 62
7
  6
CONTINUOUS
 10
2.5598286866
 20
5.469581972
 11
2.5598286866
 21
5.4223378775
  0
LINE
  5
558
100
AcDbEntity
  8
0
100
AcDbLine
 62
7
  6
CONTINUOUS
 10
2.5598286866
 20
5.4144638618
 11
2.5598286866
 21
5.3199756728
  0
LINE
  5
559
100
AcDbEntity
  8
0
100
AcDbLine
 62
7
  6
CONTINUOUS
 10
3.0362066394
 20
4.9660689608
 11
3.0311814855
 21
4.9747727827
  0
LINE
  5
55A
100
AcDbEntity
  8
0
100
AcDbLine
 62
7
  6
CONTINUOUS
 10
2.5854192378
 20
5.3964911757
 11
2.5854192378
 21
5.469581972
  0
LINE
  5
55B
100
AcDbEntity
  8
0
100
AcDbLine
 62
7
  6
CONTINUOUS
 10
2.5854192378
 20
5.4853300035
 11
2.5854192378
 21
5.5584207999
  0
LINE
  5
55C
100
AcDbEntity
  8
0
100
AcDbLine
 62
7
  6
CONTINUOUS
 10
2.5873877418
 20
5.5916292161
 11
2.5873877418
 21
5.5584207999
  0
LINE
  5
55D
100
AcDbEntity
  8
0
100
AcDbLine
 62
7
  6
CONTINUOUS
 10
2.5932932536
 20
5.5916292161
 11
2.5932932536
 21
5.5778496885
  0
LINE
  5
55E
100
AcDbEntity
  8
0
100
AcDbLine
 62
7
  6
CONTINUOUS
 10
2.6267578205
 20
5.6349363027
 11
2.6267578205
 21
5.5916292161
  0
LINE
  5
55F
100
AcDbEntity
  8
0
100
AcDbLine
 62
7
  6
CONTINUOUS
 10
2.6267578205
 20
5.3964911757
 11
2.6267578205
 21
5.34359772
  0
LINE
  5
560
100
AcDbEntity
  8
0
100
AcDbLine
 62
7
  6
CONTINUOUS
 10
2.6346318362
 20
5.3514717358
 11
2.6346318362
 21
5.438085909
  0
LINE
  5
561
100
AcDbEntity
  8
0
100
AcDbLine
 62
7
  6
CONTINUOUS
 10
2.6346318362
 20
5.4853300035
 11
2.6346318362
 21
5.6349363027
  0
LINE
  5
562
100
AcDbEntity
  8
0
100
AcDbLine
 62
7
  6
CONTINUOUS
 10
1.855290513
 20
5.09359772
 11
1.8539160984
 21
5.0922233055
  0
LINE
  5
563
100
AcDbEntity
  8
0
100
AcDbLine
 62
7
  6
CONTINUOUS
 10
2.4200649071
 20
5.6054087437
 11
2.4023483717
 21
5.5876922082
  0
LINE
  5
564
100
AcDbEntity
  8
0
100
AcDbLine
 62
7
  6
CONTINUOUS
 10
3.0141290994
 20
6.0148575626
 11
3.0054252775
 21
6.0098324087
  0
LINE
  5
565
100
AcDbEntity
  8
0
100
AcDbLine
 62
7
  6
CONTINUOUS
 10
3.0165071849
 20
6.0091163564
 11
3.0125845922
 21
6.0068516465
  0
LINE
  5
566
100
AcDbEntity
  8
0
100
AcDbLine
 62
7
  6
CONTINUOUS
 10
2.6798357178
 20
5.595909723
 11
2.6759704189
 21
5.6113768086
  0
LINE
  5
567
100
AcDbEntity
  8
0
100
AcDbLine
 62
7
  6
CONTINUOUS
 10
2.6700649071
 20
5.2884796098
 11
2.6700649071
 21
5.6664323657
  0
LINE
  5
568
100
AcDbEntity
  8
0
100
AcDbLine
 62
7
  6
CONTINUOUS
 10
2.6759704189
 20
5.282574098
 11
2.6759704189
 21
5.3435351669
  0
LINE
  5
569
100
AcDbEntity
  8
0
100
AcDbLine
 62
7
  6
CONTINUOUS
 10
2.6759704189
 20
5.6113768086
 11
2.6759704189
 21
5.6723378775
  0
LINE
  5
56A
100
AcDbEntity
  8
0
100
AcDbLine
 62
7
  6
CONTINUOUS
 10
2.6799215599
 20
5.5857235614
 11
2.6799215599
 21
5.3691884142
  0
LINE
  5
56B
100
AcDbEntity
  8
0
100
AcDbLine
 62
7
  6
CONTINUOUS
 10
2.683838343
 20
5.6802058016
 11
2.683838343
 21
5.2747061739
  0
LINE
  5
56C
100
AcDbEntity
  8
0
100
AcDbLine
 62
7
  6
CONTINUOUS
 10
2.3157341985
 20
5.4119347919
 11
2.3266815885
 21
5.424061657
  0
LINE
  5
56D
100
AcDbEntity
  8
0
100
AcDbLine
 62
7
  6
CONTINUOUS
 10
1.8511672693
 20
4.90855835
 11
1.8539160984
 21
4.9113071791
  0
LINE
  5
56E
100
AcDbEntity
  8
0
100
AcDbLine
 62
7
  6
CONTINUOUS
 10
3.111009789
 20
6.0896607122
 11
3.1068865453
 21
6.0896607122
  0
LINE
  5
56F
100
AcDbEntity
  8
0
100
AcDbLine
 62
7
  6
CONTINUOUS
 10
1.8511672693
 20
6.0896607122
 11
1.855290513
 21
6.0896607122
  0
LINE
  5
570
100
AcDbEntity
  8
0
100
AcDbLine
 62
7
  6
CONTINUOUS
 10
2.6798357178
 20
5.3590022526
 11
2.6759704189
 21
5.3435351669
  0
LINE
  5
571
100
AcDbEntity
  8
0
100
AcDbLine
 62
7
  6
CONTINUOUS
 10
2.4377814425
 20
5.4853300035
 11
2.4692775055
 21
5.5168260665
  0
LINE
  5
572
100
AcDbEntity
  8
0
100
AcDbLine
 62
7
  6
CONTINUOUS
 10
2.5598286866
 20
5.5798181925
 11
2.5558916788
 21
5.5758811846
  0
LINE
  5
573
100
AcDbEntity
  8
0
100
AcDbLine
 62
7
  6
CONTINUOUS
 10
2.683838343
 20
5.6802058016
 11
2.6759704189
 21
5.6723378775
  0
LINE
  5
574
100
AcDbEntity
  8
0
100
AcDbLine
 62
7
  6
CONTINUOUS
 10
2.2862066394
 20
5.282574098
 11
2.2783387153
 21
5.2747061739
  0
LINE
  5
575
100
AcDbEntity
  8
0
100
AcDbLine
 62
7
  6
CONTINUOUS
 10
3.0054252775
 20
5.972638622
 11
3.0141290994
 21
5.9676134681
  0
LINE
  5
576
100
AcDbEntity
  8
0
100
AcDbLine
 62
7
  6
CONTINUOUS
 10
3.0125845922
 20
5.9832295992
 11
3.018922609
 21
5.9795684455
  0
LINE
  5
577
100
AcDbEntity
  8
0
100
AcDbLine
 62
7
  6
CONTINUOUS
 10
2.6779667813
 20
5.5737157976
 11
2.67961147
 21
5.5755376856
  0
LINE
  5
578
100
AcDbEntity
  8
0
100
AcDbLine
 62
7
  6
CONTINUOUS
 10
2.0362066394
 20
4.9126815937
 11
2.0348322248
 21
4.9113071791
  0
LINE
  5
579
100
AcDbEntity
  8
0
100
AcDbLine
 62
7
  6
CONTINUOUS
 10
2.5598286866
 20
5.4144638618
 11
2.5558916788
 21
5.4105268539
  0
LINE
  5
57A
100
AcDbEntity
  8
0
100
AcDbLine
 62
7
  6
CONTINUOUS
 10
2.8831245275
 20
6.6047493433
 11
2.8842644534
 21
6.5735629801
  0
LINE
  5
57B
100
AcDbEntity
  8
0
100
AcDbLine
 62
7
  6
CONTINUOUS
 10
2.9259704189
 20
4.9126815937
 11
2.9259704189
 21
5.0069835468
  0
LINE
  5
57C
100
AcDbEntity
  8
0
100
AcDbLine
 62
7
  6
CONTINUOUS
 10
2.9273448335
 20
5.0069835468
 11
2.9273448335
 21
4.9113071791
  0
LINE
  5
57D
100
AcDbEntity
  8
0
100
AcDbLine
 62
7
  6
CONTINUOUS
 10
2.6031357733
 20
5.3199756728
 11
2.6346318362
 21
5.3514717358
  0
LINE
  5
57E
100
AcDbEntity
  8
0
100
AcDbLine
 62
7
  6
CONTINUOUS
 10
3.0125845922
 20
6.0068516465
 11
3.0125845922
 21
5.9832295992
  0
LINE
  5
57F
100
AcDbEntity
  8
0
100
AcDbLine
 62
7
  6
CONTINUOUS
 10
3.0125845922
 20
5.09359772
 11
3.0125845922
 21
5.0922233055
  0
LINE
  5
580
100
AcDbEntity
  8
0
100
AcDbLine
 62
7
  6
CONTINUOUS
 10
3.0839683447
 20
6.2712192782
 11
3.176910799
 21
6.7983221295
  0
LINE
  5
581
100
AcDbEntity
  8
0
100
AcDbLine
 62
7
  6
CONTINUOUS
 10
3.2341851874
 20
6.7882231095
 11
3.1128041489
 21
6.0998370327
  0
LINE
  5
582
100
AcDbEntity
  8
0
100
AcDbLine
 62
7
  6
CONTINUOUS
 10
2.6700649071
 20
5.3239126807
 11
2.6346318362
 21
5.2884796098
  0
LINE
  5
583
100
AcDbEntity
  8
0
100
AcDbLine
 62
7
  6
CONTINUOUS
 10
3.1068865453
 20
5.09359772
 11
3.1068865453
 21
6.0896607122
  0
LINE
  5
584
100
AcDbEntity
  8
0
100
AcDbLine
 62
7
  6
CONTINUOUS
 10
3.1082609599
 20
4.9113071791
 11
3.1082609599
 21
5.0922233055
  0
LINE
  5
585
100
AcDbEntity
  8
0
100
AcDbLine
 62
7
  6
CONTINUOUS
 10
3.111009789
 20
4.90855835
 11
3.111009789
 21
6.0896607122
  0
LINE
  5
586
100
AcDbEntity
  8
0
100
AcDbLine
 62
7
  6
CONTINUOUS
 10
2.9660618236
 20
6.4932040192
 11
2.9647428257
 21
6.4932040193
  0
LINE
  5
587
100
AcDbEntity
  8
0
100
AcDbLine
 62
7
  6
CONTINUOUS
 10
1.9974282392
 20
6.4932040194
 11
1.9961152348
 21
6.4932040192
  0
LINE
  5
588
100
AcDbEntity
  8
0
100
AcDbLine
 62
7
  6
CONTINUOUS
 10
2.0790525308
 20
6.6047493433
 11
2.118873592
 21
6.6047493433
  0
LINE
  5
589
100
AcDbEntity
  8
0
100
AcDbLine
 62
7
  6
CONTINUOUS
 10
2.8433752011
 20
6.6047493433
 11
2.8831245275
 21
6.6047493433
  0
LINE
  5
58A
100
AcDbEntity
  8
0
100
AcDbLine
 62
7
  6
CONTINUOUS
 10
2.9573204425
 20
6.5019454003
 11
2.9660618235
 21
6.4932040193
  0
LINE
  5
58B
100
AcDbEntity
  8
0
100
AcDbLine
 62
7
  6
CONTINUOUS
 10
2.9939876988
 20
4.9747727827
 11
2.9889625449
 21
4.9660689608
  0
LINE
  5
58C
100
AcDbEntity
  8
0
100
AcDbLine
 62
7
  6
CONTINUOUS
 10
1.727991871
 20
6.7882231095
 11
1.7852662594
 21
6.7983221295
  0
LINE
  5
58D
100
AcDbEntity
  8
0
100
AcDbLine
 62
7
  6
CONTINUOUS
 10
3.176910799
 20
6.7983221295
 11
3.2341851874
 21
6.7882231095
  0
LINE
  5
58E
100
AcDbEntity
  8
0
100
AcDbLine
 62
7
  6
CONTINUOUS
 10
4.4451123393
 20
10.6378117562
 11
4.4451123393
 21
11.8894077885
  0
LINE
  5
58F
100
AcDbEntity
  8
0
100
AcDbLine
 62
7
  6
CONTINUOUS
 10
4.6813328118
 20
10.6336885125
 11
4.6813328118
 21
11.8935310322
  0
LINE
  5
590
100
AcDbEntity
  8
0
100
AcDbLine
 62
7
  6
CONTINUOUS
 10
5.6518052527
 20
11.3128223708
 11
5.6518052527
 21
11.2143971739
  0
LINE
  5
591
100
AcDbEntity
  8
AXIS
100
AcDbLine
 62
7
  6
CENTER
 10
6.0592855677
 20
11.2636097724
 11
6.0592855677
 21
10.6647619183
  0
LINE
  5
592
100
AcDbEntity
  8
AXIS
100
AcDbLine
 62
7
  6
CENTER
 10
6.0592855677
 20
11.2636097724
 11
6.0592855677
 21
11.8624576264
  0
LINE
  5
593
100
AcDbEntity
  8
0
100
AcDbLine
 62
7
  6
CONTINUOUS
 10
6.4667658826
 20
11.2143971739
 11
6.4667658826
 21
11.3128223708
  0
LINE
  5
594
100
AcDbEntity
  8
0
100
AcDbLine
 62
7
  6
CONTINUOUS
 10
7.4372383236
 20
10.6336885125
 11
7.4372383236
 21
11.8935310322
  0
LINE
  5
595
100
AcDbEntity
  8
0
100
AcDbLine
 62
7
  6
CONTINUOUS
 10
7.456923363
 20
11.8935310322
 11
7.456923363
 21
10.6336885125
  0
LINE
  5
596
100
AcDbEntity
  8
0
100
AcDbLine
 62
7
  6
CONTINUOUS
 10
7.4667658826
 20
12.0167064306
 11
7.4667658826
 21
10.5105131142
  0
LINE
  5
597
100
AcDbEntity
  8
0
100
AcDbLine
 62
7
  6
CONTINUOUS
 10
5.6557822915
 20
11.3186445606
 11
5.6555184921
 21
11.3184947041
  0
LINE
  5
598
100
AcDbEntity
  8
0
100
AcDbLine
 62
7
  6
CONTINUOUS
 10
6.4627888439
 20
11.2085749842
 11
6.4630526433
 21
11.2087248406
  0
LINE
  5
599
100
AcDbEntity
  8
0
100
AcDbLine
 62
7
  6
CONTINUOUS
 10
5.6555184921
 20
11.2087248406
 11
5.6557822915
 21
11.2085749842
  0
LINE
  5
59A
100
AcDbEntity
  8
0
100
AcDbLine
 62
7
  6
CONTINUOUS
 10
6.4630526433
 20
11.3184947041
 11
6.4627888439
 21
11.3186445606
  0
LINE
  5
59B
100
AcDbEntity
  8
0
100
AcDbLine
 62
7
  6
CONTINUOUS
 10
29.799443048
 20
10.6336885125
 11
30.0356635204
 21
10.6378117562
  0
LINE
  5
59C
100
AcDbEntity
  8
0
100
AcDbLine
 62
7
  6
CONTINUOUS
 10
29.7896005283
 20
10.5105131142
 11
7.4667658826
 21
10.5105131142
  0
LINE
  5
59D
100
AcDbEntity
  8
0
100
AcDbLine
 62
7
  6
CONTINUOUS
 10
4.6813328118
 20
10.6336885125
 11
4.4451123393
 21
10.6378117562
  0
LINE
  5
59E
100
AcDbEntity
  8
0
100
AcDbLine
 62
7
  6
CONTINUOUS
 10
29.7896005283
 20
10.5677875026
 11
7.4667658826
 21
10.5677875026
  0
LINE
  5
59F
100
AcDbEntity
  8
0
100
AcDbLine
 62
7
  6
CONTINUOUS
 10
29.799443048
 20
10.6336885125
 11
29.7896005283
 21
10.6336885125
  0
LINE
  5
5A0
100
AcDbEntity
  8
0
100
AcDbLine
 62
7
  6
CONTINUOUS
 10
4.6813328118
 20
10.6336885125
 11
7.4667658826
 21
10.6336885125
  0
LINE
  5
5A1
100
AcDbEntity
  8
0
100
AcDbLine
 62
7
  6
CONTINUOUS
 10
4.6813328118
 20
10.6425065358
 11
7.4372383236
 21
10.6425065358
  0
LINE
  5
5A2
100
AcDbEntity
  8
0
100
AcDbLine
 62
7
  6
CONTINUOUS
 10
4.6813328118
 20
10.6430688219
 11
7.4372383236
 21
10.6430688219
  0
LINE
  5
5A3
100
AcDbEntity
  8
0
100
AcDbLine
 62
7
  6
CONTINUOUS
 10
29.799443048
 20
10.6454995361
 11
29.7896005283
 21
10.6454995361
  0
LINE
  5
5A4
100
AcDbEntity
  8
0
100
AcDbLine
 62
7
  6
CONTINUOUS
 10
7.456923363
 20
10.6454995361
 11
7.4372383236
 21
10.6454995361
  0
LINE
  5
5A5
100
AcDbEntity
  8
0
100
AcDbLine
 62
7
  6
CONTINUOUS
 10
7.4667658826
 20
10.6606157868
 11
29.7896005283
 21
10.6606157868
  0
LINE
  5
5A6
100
AcDbEntity
  8
0
100
AcDbLine
 62
7
  6
CONTINUOUS
 10
7.4372383236
 20
10.6720036732
 11
7.456923363
 21
10.6720036732
  0
LINE
  5
5A7
100
AcDbEntity
  8
0
100
AcDbLine
 62
7
  6
CONTINUOUS
 10
29.7896005283
 20
10.6720036732
 11
29.799443048
 21
10.6720036732
  0
LINE
  5
5A8
100
AcDbEntity
  8
0
100
AcDbLine
 62
7
  6
CONTINUOUS
 10
7.4372383236
 20
10.6739721771
 11
7.456923363
 21
10.6739721771
  0
LINE
  5
5A9
100
AcDbEntity
  8
0
100
AcDbLine
 62
7
  6
CONTINUOUS
 10
29.7896005283
 20
10.6739721771
 11
29.799443048
 21
10.6739721771
  0
LINE
  5
5AA
100
AcDbEntity
  8
0
100
AcDbLine
 62
7
  6
CONTINUOUS
 10
29.799443048
 20
10.6927436306
 11
29.7896005283
 21
10.6927436306
  0
LINE
  5
5AB
100
AcDbEntity
  8
0
100
AcDbLine
 62
7
  6
CONTINUOUS
 10
7.456923363
 20
10.6927436306
 11
7.4372383236
 21
10.6927436306
  0
LINE
  5
5AC
100
AcDbEntity
  8
0
100
AcDbLine
 62
7
  6
CONTINUOUS
 10
29.799443048
 20
10.6985092452
 11
29.7896005283
 21
10.6985092452
  0
LINE
  5
5AD
100
AcDbEntity
  8
0
100
AcDbLine
 62
7
  6
CONTINUOUS
 10
7.456923363
 20
10.6985092452
 11
7.4372383236
 21
10.6985092452
  0
LINE
  5
5AE
100
AcDbEntity
  8
0
100
AcDbLine
 62
7
  6
CONTINUOUS
 10
29.7896005283
 20
10.7160400511
 11
29.799443048
 21
10.7160400511
  0
LINE
  5
5AF
100
AcDbEntity
  8
0
100
AcDbLine
 62
7
  6
CONTINUOUS
 10
7.4372383236
 20
10.7517987487
 11
7.456923363
 21
10.7517987487
  0
LINE
  5
5B0
100
AcDbEntity
  8
0
100
AcDbLine
 62
7
  6
CONTINUOUS
 10
7.4372383236
 20
10.7575229101
 11
7.456923363
 21
10.7575229101
  0
LINE
  5
5B1
100
AcDbEntity
  8
0
100
AcDbLine
 62
7
  6
CONTINUOUS
 10
7.4372383236
 20
10.7576351486
 11
7.456923363
 21
10.7576351486
  0
LINE
  5
5B2
100
AcDbEntity
  8
0
100
AcDbLine
 62
7
  6
CONTINUOUS
 10
6.2104392517
 20
10.8807357566
 11
6.1985970949
 21
10.8807357566
  0
LINE
  5
5B3
100
AcDbEntity
  8
0
100
AcDbLine
 62
7
  6
CONTINUOUS
 10
5.9198970233
 20
10.8807357566
 11
5.9081318837
 21
10.8807357566
  0
LINE
  5
5B4
100
AcDbEntity
  8
0
100
AcDbLine
 62
7
  6
CONTINUOUS
 10
6.2307644293
 20
10.8886097724
 11
6.2163691043
 21
10.8886097724
  0
LINE
  5
5B5
100
AcDbEntity
  8
0
100
AcDbLine
 62
7
  6
CONTINUOUS
 10
5.9021631761
 20
10.8886097724
 11
5.8878067061
 21
10.8886097724
  0
LINE
  5
5B6
100
AcDbEntity
  8
0
100
AcDbLine
 62
7
  6
CONTINUOUS
 10
5.8703047266
 20
10.8964837881
 11
5.8844293288
 21
10.8964837881
  0
LINE
  5
5B7
100
AcDbEntity
  8
0
100
AcDbLine
 62
7
  6
CONTINUOUS
 10
6.2341411138
 20
10.8964837881
 11
6.2482664088
 21
10.8964837881
  0
LINE
  5
5B8
100
AcDbEntity
  8
0
100
AcDbLine
 62
7
  6
CONTINUOUS
 10
5.6598005002
 20
11.1651845755
 11
5.6593304773
 21
11.1651845755
  0
LINE
  5
5B9
100
AcDbEntity
  8
0
100
AcDbLine
 62
7
  6
CONTINUOUS
 10
6.4587706352
 20
11.1651845755
 11
6.4592406581
 21
11.1651845755
  0
LINE
  5
5BA
100
AcDbEntity
  8
AXIS
100
AcDbLine
 62
7
  6
CENTER
 10
6.0592855677
 20
11.2636097724
 11
5.4604377137
 21
11.2636097724
  0
LINE
  5
5BB
100
AcDbEntity
  8
AXIS
100
AcDbLine
 62
7
  6
CENTER
 10
6.0592855677
 20
11.2636097724
 11
6.6581334217
 21
11.2636097724
  0
LINE
  5
5BC
100
AcDbEntity
  8
0
100
AcDbLine
 62
7
  6
CONTINUOUS
 10
7.2466285691
 20
11.2636097724
 11
6.5399927512
 21
11.2636097724
  0
LINE
  5
5BD
100
AcDbEntity
  8
0
100
AcDbLine
 62
7
  6
CONTINUOUS
 10
5.5785783842
 20
11.2636097793
 11
4.8719425662
 21
11.2636097723
  0
LINE
  5
5BE
100
AcDbEntity
  8
0
100
AcDbLine
 62
7
  6
CONTINUOUS
 10
6.4592406581
 20
11.3620349692
 11
6.4587706352
 21
11.3620349692
  0
LINE
  5
5BF
100
AcDbEntity
  8
0
100
AcDbLine
 62
7
  6
CONTINUOUS
 10
5.6593304773
 20
11.3620349692
 11
5.6598005002
 21
11.3620349692
  0
LINE
  5
5C0
100
AcDbEntity
  8
0
100
AcDbLine
 62
7
  6
CONTINUOUS
 10
4.6813328118
 20
11.8935310322
 11
4.4451123393
 21
11.8894077885
  0
LINE
  5
5C1
100
AcDbEntity
  8
0
100
AcDbLine
 62
7
  6
CONTINUOUS
 10
5.8703047266
 20
11.6307357566
 11
5.8844300216
 21
11.6307357566
  0
LINE
  5
5C2
100
AcDbEntity
  8
0
100
AcDbLine
 62
7
  6
CONTINUOUS
 10
6.2341418065
 20
11.6307357566
 11
6.2482664088
 21
11.6307357566
  0
LINE
  5
5C3
100
AcDbEntity
  8
0
100
AcDbLine
 62
7
  6
CONTINUOUS
 10
5.8878067061
 20
11.6386097724
 11
5.902202031
 21
11.6386097724
  0
LINE
  5
5C4
100
AcDbEntity
  8
0
100
AcDbLine
 62
7
  6
CONTINUOUS
 10
6.2164079593
 20
11.6386097724
 11
6.2307644293
 21
11.6386097724
  0
LINE
  5
5C5
100
AcDbEntity
  8
0
100
AcDbLine
 62
7
  6
CONTINUOUS
 10
5.9081318837
 20
11.6464837881
 11
5.9199740405
 21
11.6464837881
  0
LINE
  5
5C6
100
AcDbEntity
  8
0
100
AcDbLine
 62
7
  6
CONTINUOUS
 10
6.1986741121
 20
11.6464837881
 11
6.2104392517
 21
11.6464837881
  0
LINE
  5
5C7
100
AcDbEntity
  8
0
100
AcDbLine
 62
7
  6
CONTINUOUS
 10
7.456923363
 20
11.7695843961
 11
7.4372383236
 21
11.7695843961
  0
LINE
  5
5C8
100
AcDbEntity
  8
0
100
AcDbLine
 62
7
  6
CONTINUOUS
 10
7.456923363
 20
11.7696966346
 11
7.4372383236
 21
11.7696966346
  0
LINE
  5
5C9
100
AcDbEntity
  8
0
100
AcDbLine
 62
7
  6
CONTINUOUS
 10
7.4372383236
 20
11.775420796
 11
7.456923363
 21
11.775420796
  0
LINE
  5
5CA
100
AcDbEntity
  8
0
100
AcDbLine
 62
7
  6
CONTINUOUS
 10
29.7896005283
 20
11.8111794936
 11
29.799443048
 21
11.8111794936
  0
LINE
  5
5CB
100
AcDbEntity
  8
0
100
AcDbLine
 62
7
  6
CONTINUOUS
 10
7.4372383236
 20
11.8287102995
 11
7.456923363
 21
11.8287102995
  0
LINE
  5
5CC
100
AcDbEntity
  8
0
100
AcDbLine
 62
7
  6
CONTINUOUS
 10
29.7896005283
 20
11.8287102995
 11
29.799443048
 21
11.8287102995
  0
LINE
  5
5CD
100
AcDbEntity
  8
0
100
AcDbLine
 62
7
  6
CONTINUOUS
 10
7.4372383236
 20
11.8344759141
 11
7.456923363
 21
11.8344759141
  0
LINE
  5
5CE
100
AcDbEntity
  8
0
100
AcDbLine
 62
7
  6
CONTINUOUS
 10
29.7896005283
 20
11.8344759141
 11
29.799443048
 21
11.8344759141
  0
LINE
  5
5CF
100
AcDbEntity
  8
0
100
AcDbLine
 62
7
  6
CONTINUOUS
 10
7.4372383236
 20
11.8532473676
 11
7.456923363
 21
11.8532473676
  0
LINE
  5
5D0
100
AcDbEntity
  8
0
100
AcDbLine
 62
7
  6
CONTINUOUS
 10
29.7896005283
 20
11.8532473676
 11
29.799443048
 21
11.8532473676
  0
LINE
  5
5D1
100
AcDbEntity
  8
0
100
AcDbLine
 62
7
  6
CONTINUOUS
 10
7.4372383236
 20
11.8552158715
 11
7.456923363
 21
11.8552158715
  0
LINE
  5
5D2
100
AcDbEntity
  8
0
100
AcDbLine
 62
7
  6
CONTINUOUS
 10
29.7896005283
 20
11.8552158715
 11
29.799443048
 21
11.8552158715
  0
LINE
  5
5D3
100
AcDbEntity
  8
0
100
AcDbLine
 62
7
  6
CONTINUOUS
 10
7.4667658826
 20
11.8666037579
 11
29.7896005283
 21
11.8666037579
  0
LINE
  5
5D4
100
AcDbEntity
  8
0
100
AcDbLine
 62
7
  6
CONTINUOUS
 10
7.4372383236
 20
11.8817200086
 11
7.456923363
 21
11.8817200086
  0
LINE
  5
5D5
100
AcDbEntity
  8
0
100
AcDbLine
 62
7
  6
CONTINUOUS
 10
29.7896005283
 20
11.8817200086
 11
29.799443048
 21
11.8817200086
  0
LINE
  5
5D6
100
AcDbEntity
  8
0
100
AcDbLine
 62
7
  6
CONTINUOUS
 10
7.4372383236
 20
11.8841507228
 11
4.6813328118
 21
11.8841507228
  0
LINE
  5
5D7
100
AcDbEntity
  8
0
100
AcDbLine
 62
7
  6
CONTINUOUS
 10
7.4372383236
 20
11.8847130089
 11
4.6813328118
 21
11.8847130089
  0
LINE
  5
5D8
100
AcDbEntity
  8
0
100
AcDbLine
 62
7
  6
CONTINUOUS
 10
4.6813328118
 20
11.8935310322
 11
7.4667658826
 21
11.8935310322
  0
LINE
  5
5D9
100
AcDbEntity
  8
0
100
AcDbLine
 62
7
  6
CONTINUOUS
 10
29.7896005283
 20
11.8935310322
 11
29.799443048
 21
11.8935310322
  0
LINE
  5
5DA
100
AcDbEntity
  8
0
100
AcDbLine
 62
7
  6
CONTINUOUS
 10
29.7896005283
 20
11.9594320421
 11
7.4667658826
 21
11.9594320421
  0
LINE
  5
5DB
100
AcDbEntity
  8
0
100
AcDbLine
 62
7
  6
CONTINUOUS
 10
29.7896005283
 20
12.0167064306
 11
7.4667658826
 21
12.0167064306
  0
LINE
  5
5DC
100
AcDbEntity
  8
0
100
AcDbLine
 62
7
  6
CONTINUOUS
 10
29.799443048
 20
11.8935310322
 11
30.0356635204
 21
11.8894077885
  0
LINE
  5
5DD
100
AcDbEntity
  8
0
100
AcDbLine
 62
7
  6
CONTINUOUS
 10
29.7797580086
 20
11.8344759141
 11
29.7797580086
 21
10.6927436306
  0
LINE
  5
5DE
100
AcDbEntity
  8
0
100
AcDbLine
 62
7
  6
CONTINUOUS
 10
29.7896005283
 20
12.0167064306
 11
29.7896005283
 21
10.5105131142
  0
LINE
  5
5DF
100
AcDbEntity
  8
0
100
AcDbLine
 62
7
  6
CONTINUOUS
 10
29.799443048
 20
11.8935310322
 11
29.799443048
 21
10.6336885125
  0
LINE
  5
5E0
100
AcDbEntity
  8
0
100
AcDbLine
 62
7
  6
CONTINUOUS
 10
30.0356635204
 20
11.8894077885
 11
30.0356635204
 21
10.6378117562
  0
LINE
  5
5E1
100
AcDbEntity
  8
0
100
AcDbLine
 62
7
  6
CONTINUOUS
 10
4.8027921993
 20
18.3793942096
 11
4.8027921993
 21
19.1926820503
  0
LINE
  5
5E2
100
AcDbEntity
  8
0
100
AcDbLine
 62
7
  6
CONTINUOUS
 10
4.8496160109
 20
18.3325672849
 11
4.8496160109
 21
18.3709485174
  0
LINE
  5
5E3
100
AcDbEntity
  8
0
100
AcDbLine
 62
7
  6
CONTINUOUS
 10
4.8784937167
 20
18.218021341
 11
4.8784937167
 21
18.3657397955
  0
LINE
  5
5E4
100
AcDbEntity
  8
0
100
AcDbLine
 62
7
  6
CONTINUOUS
 10
5.0298967515
 20
18.1907125127
 11
5.0298967515
 21
19.1550854464
  0
LINE
  5
5E5
100
AcDbEntity
  8
0
100
AcDbLine
 62
7
  6
CONTINUOUS
 10
5.0321789884
 20
19.244028319
 11
5.0298967515
 21
19.0329315414
  0
LINE
  5
5E6
100
AcDbEntity
  8
0
100
AcDbLine
 62
7
  6
CONTINUOUS
 10
6.1220297801
 20
19.7270436615
 11
6.116765639
 21
19.6094922137
  0
LINE
  5
5E7
100
AcDbEntity
  8
0
100
AcDbLine
 62
7
  6
CONTINUOUS
 10
5.0333260373
 20
18.1981016141
 11
5.0298967515
 21
18.1907125127
  0
LINE
  5
5E8
100
AcDbEntity
  8
0
100
AcDbLine
 62
7
  6
CONTINUOUS
 10
6.1178355262
 20
19.6333834393
 11
6.1175983176
 21
19.6328723246
  0
LINE
  5
5E9
100
AcDbEntity
  8
0
100
AcDbLine
 62
7
  6
CONTINUOUS
 10
6.1359355624
 20
19.7818497135
 11
6.1355940893
 21
19.7811187106
  0
LINE
  5
5EA
100
AcDbEntity
  8
0
100
AcDbLine
 62
7
  6
CONTINUOUS
 10
6.9258331726
 20
19.7270436615
 11
6.931045642
 21
19.6106460753
  0
LINE
  5
5EB
100
AcDbEntity
  8
0
100
AcDbLine
 62
7
  6
CONTINUOUS
 10
7.6885418499
 20
19.2405593408
 11
7.7199570862
 21
18.7461810314
  0
LINE
  5
5EC
100
AcDbEntity
  8
0
100
AcDbLine
 62
7
  6
CONTINUOUS
 10
7.7071843816
 20
18.7271636934
 11
7.7071843816
 21
18.77621813
  0
LINE
  5
5ED
100
AcDbEntity
  8
0
100
AcDbLine
 62
7
  6
CONTINUOUS
 10
7.710914339
 20
18.6278332429
 11
7.710914339
 21
18.7403434185
  0
LINE
  5
5EE
100
AcDbEntity
  8
0
100
AcDbLine
 62
7
  6
CONTINUOUS
 10
7.7204214935
 20
18.6263625265
 11
7.7204214935
 21
18.7304355322
  0
LINE
  5
5EF
100
AcDbEntity
  8
0
100
AcDbLine
 62
7
  6
CONTINUOUS
 10
7.6941822667
 20
18.832227724
 11
7.6919000298
 21
18.6211309464
  0
LINE
  5
5F0
100
AcDbEntity
  8
0
100
AcDbLine
 62
7
  6
CONTINUOUS
 10
8.0635438364
 20
20.0568241023
 11
8.0458660911
 21
19.7024505876
  0
LINE
  5
5F1
100
AcDbEntity
  8
0
100
AcDbLine
 62
7
  6
CONTINUOUS
 10
7.6980125815
 20
18.6342710879
 11
7.710914339
 21
18.6855821368
  0
LINE
  5
5F2
100
AcDbEntity
  8
0
100
AcDbLine
 62
7
  6
CONTINUOUS
 10
7.7033653221
 20
19.2807454338
 11
7.6885418499
 21
19.2405593408
  0
LINE
  5
5F3
100
AcDbEntity
  8
0
100
AcDbLine
 62
7
  6
CONTINUOUS
 10
8.0783673086
 20
20.0805184469
 11
8.0635438364
 21
20.0568241023
  0
LINE
  5
5F4
100
AcDbEntity
  8
0
100
AcDbLine
 62
7
  6
CONTINUOUS
 10
7.6919000298
 20
18.6211309464
 11
7.69800698
 21
18.6342896263
  0
LINE
  5
5F5
100
AcDbEntity
  8
0
100
AcDbLine
 62
7
  6
CONTINUOUS
 10
7.7071843816
 20
18.7271636934
 11
7.710914339
 21
18.7284068774
  0
LINE
  5
5F6
100
AcDbEntity
  8
0
100
AcDbLine
 62
7
  6
CONTINUOUS
 10
29.6558481645
 20
15.1233013981
 11
29.5991711322
 21
15.111396559
  0
LINE
  5
5F7
100
AcDbEntity
  8
0
100
AcDbLine
 62
7
  6
CONTINUOUS
 10
29.6558481645
 20
15.2325969973
 11
29.6517155929
 21
15.2317289631
  0
LINE
  5
5F8
100
AcDbEntity
  8
0
100
AcDbLine
 62
7
  6
CONTINUOUS
 10
6.0499407748
 20
19.7048153091
 11
5.3888054339
 21
19.9888290576
  0
LINE
  5
5F9
100
AcDbEntity
  8
0
100
AcDbLine
 62
7
  6
CONTINUOUS
 10
29.2921552025
 20
14.4374442323
 11
29.4449811138
 21
14.4176901354
  0
LINE
  5
5FA
100
AcDbEntity
  8
0
100
AcDbLine
 62
7
  6
CONTINUOUS
 10
29.568217881
 20
14.5087046167
 11
29.4918049253
 21
14.5185816652
  0
LINE
  5
5FB
100
AcDbEntity
  8
0
100
AcDbLine
 62
7
  6
CONTINUOUS
 10
29.5213940695
 20
14.5555315415
 11
29.4449811138
 21
14.5654085899
  0
LINE
  5
5FC
100
AcDbEntity
  8
0
100
AcDbLine
 62
7
  6
CONTINUOUS
 10
29.568217881
 20
14.5857023894
 11
29.537451708
 21
14.5901310255
  0
LINE
  5
5FD
100
AcDbEntity
  8
0
100
AcDbLine
 62
7
  6
CONTINUOUS
 10
29.2921552025
 20
14.4453638296
 11
5.0319821392
 21
18.1983095094
  0
LINE
  5
5FE
100
AcDbEntity
  8
0
100
AcDbLine
 62
7
  6
CONTINUOUS
 10
29.2921552025
 20
14.4535171146
 11
5.0298967515
 21
18.206785395
  0
LINE
  5
5FF
100
AcDbEntity
  8
AXIS
100
AcDbLine
 62
7
  6
CONTINUOUS
 10
29.2921552025
 20
14.5527120785
 11
5.0298967515
 21
18.3059803589
  0
LINE
  5
600
100
AcDbEntity
  8
AXIS
100
AcDbLine
 62
7
  6
CONTINUOUS
 10
29.2921552025
 20
14.6436340307
 11
5.0298967515
 21
18.3969023111
  0
LINE
  5
601
100
AcDbEntity
  8
0
100
AcDbLine
 62
7
  6
CONTINUOUS
 10
5.0298967515
 20
18.1907125127
 11
4.8784937167
 21
18.218021341
  0
LINE
  5
602
100
AcDbEntity
  8
0
100
AcDbLine
 62
7
  6
CONTINUOUS
 10
4.8496160109
 20
18.3325672849
 11
4.8784937167
 21
18.3273585629
  0
LINE
  5
603
100
AcDbEntity
  8
0
100
AcDbLine
 62
7
  6
CONTINUOUS
 10
4.8027921993
 20
18.3793942096
 11
4.8784937167
 21
18.3657397955
  0
LINE
  5
604
100
AcDbEntity
  8
0
100
AcDbLine
 62
7
  6
CONTINUOUS
 10
29.2921552025
 20
15.401817166
 11
29.5213940695
 21
15.3688193822
  0
LINE
  5
605
100
AcDbEntity
  8
0
100
AcDbLine
 62
7
  6
CONTINUOUS
 10
29.6558481645
 20
14.956143423
 11
29.6523189616
 21
14.9566893757
  0
LINE
  5
606
100
AcDbEntity
  8
0
100
AcDbLine
 62
7
  6
CONTINUOUS
 10
29.5985216953
 20
15.0029443381
 11
29.6033718901
 21
15.0021940336
  0
LINE
  5
607
100
AcDbEntity
  8
0
100
AcDbLine
 62
7
  6
CONTINUOUS
 10
29.7037391335
 20
15.0850509744
 11
29.6639998188
 21
15.0911984775
  0
LINE
  5
608
100
AcDbEntity
  8
0
100
AcDbLine
 62
7
  6
CONTINUOUS
 10
29.2921552025
 20
15.2654106111
 11
5.0298967515
 21
19.0186788915
  0
LINE
  5
609
100
AcDbEntity
  8
0
100
AcDbLine
 62
7
  6
CONTINUOUS
 10
5.0298967515
 20
19.0329315414
 11
7.6919000298
 21
18.6211309464
  0
LINE
  5
60A
100
AcDbEntity
  8
0
100
AcDbLine
 62
7
  6
CONTINUOUS
 10
29.2921552025
 20
15.282113881
 11
7.6929611793
 21
18.6234174111
  0
LINE
  5
60B
100
AcDbEntity
  8
0
100
AcDbLine
 62
7
  6
CONTINUOUS
 10
29.7037391335
 20
15.2200631851
 11
29.6639998188
 21
15.2262106882
  0
LINE
  5
60C
100
AcDbEntity
  8
0
100
AcDbLine
 62
7
  6
CONTINUOUS
 10
7.7121655716
 20
18.6227477116
 11
29.2838992805
 21
15.2856921754
  0
LINE
  5
60D
100
AcDbEntity
  8
0
100
AcDbLine
 62
7
  6
CONTINUOUS
 10
29.6558481645
 20
15.2325969973
 11
29.6523361704
 21
15.2331402878
  0
LINE
  5
60E
100
AcDbEntity
  8
0
100
AcDbLine
 62
7
  6
CONTINUOUS
 10
7.710914339
 20
18.6278332429
 11
29.2826480479
 21
15.2907777068
  0
LINE
  5
60F
100
AcDbEntity
  8
0
100
AcDbLine
 62
7
  6
CONTINUOUS
 10
7.6990307014
 20
18.6383202104
 11
7.710914339
 21
18.6364818622
  0
LINE
  5
610
100
AcDbEntity
  8
0
100
AcDbLine
 62
7
  6
CONTINUOUS
 10
29.2897720669
 20
15.2983242706
 11
29.2921552025
 21
15.2979556096
  0
LINE
  5
611
100
AcDbEntity
  8
0
100
AcDbLine
 62
7
  6
CONTINUOUS
 10
7.6994197036
 20
18.6398672951
 11
7.710914339
 21
18.6380891239
  0
LINE
  5
612
100
AcDbEntity
  8
0
100
AcDbLine
 62
7
  6
CONTINUOUS
 10
29.2901611581
 20
15.2998713415
 11
29.2921552025
 21
15.2995628713
  0
LINE
  5
613
100
AcDbEntity
  8
0
100
AcDbLine
 62
7
  6
CONTINUOUS
 10
7.710914339
 20
18.7315591211
 11
7.7071843816
 21
18.7321361296
  0
LINE
  5
614
100
AcDbEntity
  8
0
100
AcDbLine
 62
7
  6
CONTINUOUS
 10
7.7204214935
 20
18.7304355322
 11
29.2826480479
 21
15.3948507125
  0
LINE
  5
615
100
AcDbEntity
  8
0
100
AcDbLine
 62
7
  6
CONTINUOUS
 10
7.710914339
 20
18.7335218397
 11
7.7071843816
 21
18.7340988483
  0
LINE
  5
616
100
AcDbEntity
  8
0
100
AcDbLine
 62
7
  6
CONTINUOUS
 10
29.6955874792
 20
15.3375109805
 11
29.6639998188
 21
15.3423974573
  0
LINE
  5
617
100
AcDbEntity
  8
0
100
AcDbLine
 62
7
  6
CONTINUOUS
 10
7.710914339
 20
18.7403434185
 11
29.2731408933
 21
15.4047585988
  0
LINE
  5
618
100
AcDbEntity
  8
0
100
AcDbLine
 62
7
  6
CONTINUOUS
 10
7.7109356442
 20
18.7416718289
 11
7.7071843816
 21
18.7422521333
  0
LINE
  5
619
100
AcDbEntity
  8
0
100
AcDbLine
 62
7
  6
CONTINUOUS
 10
7.7199570862
 20
18.7461810314
 11
29.2821836406
 21
15.4105962117
  0
LINE
  5
61A
100
AcDbEntity
  8
0
100
AcDbLine
 62
7
  6
CONTINUOUS
 10
7.7113725362
 20
18.7689126345
 11
7.7071843816
 21
18.7695605242
  0
LINE
  5
61B
100
AcDbEntity
  8
0
100
AcDbLine
 62
7
  6
CONTINUOUS
 10
29.7037391335
 20
15.3807920073
 11
29.6639998188
 21
15.3869395104
  0
LINE
  5
61C
100
AcDbEntity
  8
0
100
AcDbLine
 62
7
  6
CONTINUOUS
 10
7.7116094957
 20
18.7836873745
 11
7.7073863093
 21
18.7843406835
  0
LINE
  5
61D
100
AcDbEntity
  8
0
100
AcDbLine
 62
7
  6
CONTINUOUS
 10
29.6558481645
 20
15.3997549724
 11
29.6523189616
 21
15.4003009251
  0
LINE
  5
61E
100
AcDbEntity
  8
0
100
AcDbLine
 62
7
  6
CONTINUOUS
 10
5.0321789884
 20
19.244028319
 11
7.6941822667
 21
18.832227724
  0
LINE
  5
61F
100
AcDbEntity
  8
0
100
AcDbLine
 62
7
  6
CONTINUOUS
 10
5.0323245165
 20
19.2487469151
 11
7.6943277948
 21
18.8369463201
  0
LINE
  5
620
100
AcDbEntity
  8
0
100
AcDbLine
 62
7
  6
CONTINUOUS
 10
29.7037391335
 20
15.4515126891
 11
29.6926035154
 21
15.4532353219
  0
LINE
  5
621
100
AcDbEntity
  8
0
100
AcDbLine
 62
7
  6
CONTINUOUS
 10
7.7093445041
 20
18.8594003179
 11
7.712796508
 21
18.8588663075
  0
LINE
  5
622
100
AcDbEntity
  8
0
100
AcDbLine
 62
7
  6
CONTINUOUS
 10
7.7101412953
 20
18.8710429586
 11
7.712041422
 21
18.8707490171
  0
LINE
  5
623
100
AcDbEntity
  8
0
100
AcDbLine
 62
7
  6
CONTINUOUS
 10
7.710214437
 20
18.8721116972
 11
7.7119721087
 21
18.8718397929
  0
LINE
  5
624
100
AcDbEntity
  8
0
100
AcDbLine
 62
7
  6
CONTINUOUS
 10
7.7105770066
 20
18.877409531
 11
7.7116285166
 21
18.8772468669
  0
LINE
  5
625
100
AcDbEntity
  8
0
100
AcDbLine
 62
7
  6
CONTINUOUS
 10
29.7095840578
 20
15.0719284541
 11
29.7144010339
 21
15.0711737886
  0
LINE
  5
626
100
AcDbEntity
  8
0
100
AcDbLine
 62
7
  6
CONTINUOUS
 10
29.6523189616
 20
15.1076605636
 11
29.6120668615
 21
15.1141052679
  0
LINE
  5
627
100
AcDbEntity
  8
0
100
AcDbLine
 62
7
  6
CONTINUOUS
 10
5.0298967515
 20
19.1550854464
 11
4.8027921993
 21
19.1926820503
  0
LINE
  5
628
100
AcDbEntity
  8
0
100
AcDbLine
 62
7
  6
CONTINUOUS
 10
7.4429097368
 20
19.7957252975
 11
7.4433883521
 21
19.7956513334
  0
LINE
  5
629
100
AcDbEntity
  8
0
100
AcDbLine
 62
7
  6
CONTINUOUS
 10
29.7017012199
 20
15.4985548084
 11
29.6968801303
 21
15.4993006105
  0
LINE
  5
62A
100
AcDbEntity
  8
0
100
AcDbLine
 62
7
  6
CONTINUOUS
 10
29.2507684043
 20
15.9049745211
 11
7.6885418499
 21
19.2405593408
  0
LINE
  5
62B
100
AcDbEntity
  8
0
100
AcDbLine
 62
7
  6
CONTINUOUS
 10
29.2655918765
 20
15.9451606141
 11
7.7033653221
 21
19.2807454338
  0
LINE
  5
62C
100
AcDbEntity
  8
AXIS
100
AcDbLine
 62
7
  6
CONTINUOUS
 10
5.2892305168
 20
20.1288903967
 11
5.79706287
 21
20.0503308897
  0
LINE
  5
62D
100
AcDbEntity
  8
AXIS
100
AcDbLine
 62
7
  6
CONTINUOUS
 10
7.4434021462
 20
19.7956491997
 11
7.9512337951
 21
19.7170898017
  0
LINE
  5
62E
100
AcDbEntity
  8
AXIS
100
AcDbLine
 62
7
  6
CONTINUOUS
 10
7.9702481042
 20
19.7141483688
 11
29.5419818132
 21
16.3770928327
  0
LINE
  5
62F
100
AcDbEntity
  8
0
100
AcDbLine
 62
7
  6
CONTINUOUS
 10
5.7970652301
 20
20.0503305245
 11
5.798410873
 21
20.0501219553
  0
LWPOLYLINE
  5
630
100
AcDbEntity
  8
0
100
AcDbPolyline
 62
7
  6
CONTINUOUS
 90
5
 70
0
 10
6.2793511113
 20
19.950393619
 10
6.2327889144
 20
19.9606327926
 10
6.0299179984
 20
20.0058921217
 10
5.8458578995
 20
20.0423130831
 10
5.7984075764
 20
20.0501224588
  0
LWPOLYLINE
  5
631
100
AcDbEntity
  8
0
100
AcDbPolyline
 62
7
  6
CONTINUOUS
 90
3
 70
0
 10
6.9764643971
 20
19.8390904754
 10
6.9408321875
 20
19.8426147945
 10
6.8687756728
 20
19.8523821197
  0
LINE
  5
632
100
AcDbEntity
  8
0
100
AcDbLine
 62
7
  6
CONTINUOUS
 10
5.2887333681
 20
20.1289627644
 11
5.0599345622
 21
20.1601847089
  0
LWPOLYLINE
  5
633
100
AcDbEntity
  8
0
100
AcDbPolyline
 62
7
  6
CONTINUOUS
 90
5
 70
0
 10
7.4429294968
 20
19.7957223486
 10
7.3886479797
 20
19.8032358178
 10
7.2352669708
 20
19.8184438108
 10
7.0662639395
 20
19.8316013886
 10
6.976467023
 20
19.8391218299
  0
LINE
  5
634
100
AcDbEntity
  8
0
100
AcDbLine
 62
7
  6
CONTINUOUS
 10
29.6257703908
 20
16.7212392826
 11
8.0635438364
 21
20.0568241023
  0
LINE
  5
635
100
AcDbEntity
  8
0
100
AcDbLine
 62
7
  6
CONTINUOUS
 10
29.640593863
 20
16.7449336272
 11
8.0783673086
 21
20.0805184469
  0
LINE
  5
636
100
AcDbEntity
  8
0
100
AcDbLine
 62
7
  6
CONTINUOUS
 10
29.5519847448
 20
16.3755408826
 11
29.7795228588
 21
16.3361694448
  0
LINE
  5
637
100
AcDbEntity
  8
0
100
AcDbLine
 62
7
  6
CONTINUOUS
 10
6.9979221779
 20
19.5581666145
 11
7.6590575189
 21
19.6376307074
  0
LINE
  5
638
100
AcDbEntity
  8
0
100
AcDbLine
 62
7
  6
CONTINUOUS
 10
29.7037391335
 20
15.4515126891
 11
29.6955874792
 21
15.4596648854
  0
LINE
  5
639
100
AcDbEntity
  8
0
100
AcDbLine
 62
7
  6
CONTINUOUS
 10
29.710871831
 20
15.4893835876
 11
29.7017012199
 21
15.4985548084
  0
LINE
  5
63A
100
AcDbEntity
  8
0
100
AcDbLine
 62
7
  6
CONTINUOUS
 10
29.640593863
 20
16.7449336272
 11
29.6257703908
 21
16.7212392826
  0
LINE
  5
63B
100
AcDbEntity
  8
0
100
AcDbLine
 62
7
  6
CONTINUOUS
 10
29.2507684043
 20
15.9049745211
 11
29.2821836406
 21
15.4105962117
  0
LINE
  5
63C
100
AcDbEntity
  8
0
100
AcDbLine
 62
7
  6
CONTINUOUS
 10
29.2945071203
 20
15.4901244277
 11
29.2655918765
 21
15.9451606141
  0
LINE
  5
63D
100
AcDbEntity
  8
0
100
AcDbLine
 62
7
  6
CONTINUOUS
 10
29.2731408933
 20
15.2922484232
 11
29.2731408933
 21
15.4047585988
  0
LINE
  5
63E
100
AcDbEntity
  8
0
100
AcDbLine
 62
7
  6
CONTINUOUS
 10
29.2826480479
 20
15.2907777068
 11
29.2826480479
 21
15.3948507125
  0
LINE
  5
63F
100
AcDbEntity
  8
0
100
AcDbLine
 62
7
  6
CONTINUOUS
 10
29.2921552025
 20
14.4374442323
 11
29.2921552025
 21
15.401817166
  0
LINE
  5
640
100
AcDbEntity
  8
0
100
AcDbLine
 62
7
  6
CONTINUOUS
 10
29.4449811138
 20
14.4176901354
 11
29.4449811138
 21
14.5654085899
  0
LINE
  5
641
100
AcDbEntity
  8
0
100
AcDbLine
 62
7
  6
CONTINUOUS
 10
29.4918049253
 20
14.5185816652
 11
29.4918049253
 21
14.5593561993
  0
LINE
  5
642
100
AcDbEntity
  8
0
100
AcDbLine
 62
7
  6
CONTINUOUS
 10
29.5213940695
 20
14.5555315415
 11
29.5213940695
 21
15.3688193822
  0
LINE
  5
643
100
AcDbEntity
  8
0
100
AcDbLine
 62
7
  6
CONTINUOUS
 10
29.568217881
 20
14.5087046167
 11
29.568217881
 21
14.5857023894
  0
LINE
  5
644
100
AcDbEntity
  8
0
100
AcDbLine
 62
7
  6
CONTINUOUS
 10
29.5982771062
 20
15.1005118732
 11
29.5982771062
 21
15.0072891563
  0
LINE
  5
645
100
AcDbEntity
  8
0
100
AcDbLine
 62
7
  6
CONTINUOUS
 10
29.6523189616
 20
14.9374051986
 11
29.6523189616
 21
15.1076605636
  0
LINE
  5
646
100
AcDbEntity
  8
0
100
AcDbLine
 62
7
  6
CONTINUOUS
 10
29.6523189616
 20
15.233029045
 11
29.6523189616
 21
15.40328441
  0
LINE
  5
647
100
AcDbEntity
  8
0
100
AcDbLine
 62
7
  6
CONTINUOUS
 10
29.6558481645
 20
15.3997549724
 11
29.6558481645
 21
14.956143423
  0
LINE
  5
648
100
AcDbEntity
  8
0
100
AcDbLine
 62
7
  6
CONTINUOUS
 10
29.6639998188
 20
15.3916027762
 11
29.6639998188
 21
15.2694488712
  0
LINE
  5
649
100
AcDbEntity
  8
0
100
AcDbLine
 62
7
  6
CONTINUOUS
 10
29.6639998188
 20
15.2565905655
 11
29.6639998188
 21
15.1344366605
  0
LINE
  5
64A
100
AcDbEntity
  8
0
100
AcDbLine
 62
7
  6
CONTINUOUS
 10
29.6639998188
 20
15.1215783548
 11
29.6639998188
 21
14.9994244498
  0
LINE
  5
64B
100
AcDbEntity
  8
0
100
AcDbLine
 62
7
  6
CONTINUOUS
 10
29.7037391335
 20
15.4515126891
 11
29.7037391335
 21
15.3807920073
  0
LINE
  5
64C
100
AcDbEntity
  8
0
100
AcDbLine
 62
7
  6
CONTINUOUS
 10
29.7037391335
 20
15.34221709
 11
29.7037391335
 21
15.2200631851
  0
LINE
  5
64D
100
AcDbEntity
  8
0
100
AcDbLine
 62
7
  6
CONTINUOUS
 10
29.7037391335
 20
15.2072048793
 11
29.7037391335
 21
15.0850509744
  0
LINE
  5
64E
100
AcDbEntity
  8
0
100
AcDbLine
 62
7
  6
CONTINUOUS
 10
29.710871831
 20
15.4893835876
 11
29.710871831
 21
15.0747032262
  0
LINE
  5
64F
100
AcDbEntity
  8
0
100
AcDbLine
 62
7
  6
CONTINUOUS
 10
29.7144010339
 20
15.537053
 11
29.7144010339
 21
15.0711737886
  0
LINE
  5
650
100
AcDbEntity
  8
0
100
AcDbLine
 62
7
  6
CONTINUOUS
 10
29.7985021145
 20
15.0048993487
 11
29.7985021145
 21
15.0818971214
  0
LINE
  5
651
100
AcDbEntity
  8
0
100
AcDbLine
 62
7
  6
CONTINUOUS
 10
29.8453259261
 20
15.2535093329
 11
29.8453259261
 21
16.0667971736
  0
LINE
  5
652
100
AcDbEntity
  8
0
100
AcDbLine
 62
7
  6
CONTINUOUS
 10
29.6257703908
 20
16.7212392826
 11
29.6080415378
 21
16.3658412481
  0
LINE
  5
653
100
AcDbEntity
  8
0
100
AcDbLine
 62
7
  6
CONTINUOUS
 10
29.6215662889
 20
16.3635010296
 11
29.640593863
 21
16.7449336272
  0
LINE
  5
654
100
AcDbEntity
  8
0
100
AcDbLine
 62
7
  6
CONTINUOUS
 10
29.7037391335
 20
15.3807920073
 11
29.6955874792
 21
15.3375109805
  0
LINE
  5
655
100
AcDbEntity
  8
0
100
AcDbLine
 62
7
  6
CONTINUOUS
 10
29.2894711379
 20
15.2971277424
 11
29.2921552025
 21
15.3077998897
  0
LINE
  5
656
100
AcDbEntity
  8
0
100
AcDbLine
 62
7
  6
CONTINUOUS
 10
29.2655918765
 20
15.9451606141
 11
29.2507684043
 21
15.9049745211
  0
LINE
  5
657
100
AcDbEntity
  8
0
100
AcDbLine
 62
7
  6
CONTINUOUS
 10
29.2857049183
 20
15.2877206332
 11
29.2879427027
 21
15.2925423998
  0
LINE
  5
658
100
AcDbEntity
  8
0
100
AcDbLine
 62
7
  6
CONTINUOUS
 10
29.6523189616
 20
15.40328441
 11
29.7144010339
 21
15.537053
  0
LINE
  5
659
100
AcDbEntity
  8
0
100
AcDbLine
 62
7
  6
CONTINUOUS
 10
29.7017012199
 20
15.4985548084
 11
29.6558481645
 21
15.3997549724
  0
LINE
  5
65A
100
AcDbEntity
  8
0
100
AcDbLine
 62
7
  6
CONTINUOUS
 10
29.6955874792
 20
15.4596648854
 11
29.6639998188
 21
15.3916027762
  0
LINE
  5
65B
100
AcDbEntity
  8
0
100
AcDbLine
 62
7
  6
CONTINUOUS
 10
29.6955874792
 20
15.3375109805
 11
29.6639998188
 21
15.2694488712
  0
LINE
  5
65C
100
AcDbEntity
  8
0
100
AcDbLine
 62
7
  6
CONTINUOUS
 10
29.6523189616
 20
15.233029045
 11
29.6033718901
 21
15.127562515
  0
LINE
  5
65D
100
AcDbEntity
  8
0
100
AcDbLine
 62
7
  6
CONTINUOUS
 10
29.7037391335
 20
15.34221709
 11
29.6639998188
 21
15.2565905655
  0
LINE
  5
65E
100
AcDbEntity
  8
0
100
AcDbLine
 62
7
  6
CONTINUOUS
 10
29.7037391335
 20
15.2200631851
 11
29.6639998188
 21
15.1344366605
  0
LINE
  5
65F
100
AcDbEntity
  8
0
100
AcDbLine
 62
7
  6
CONTINUOUS
 10
29.6033718901
 20
15.0021940336
 11
29.6523189616
 21
15.1076605636
  0
LINE
  5
660
100
AcDbEntity
  8
0
100
AcDbLine
 62
7
  6
CONTINUOUS
 10
29.7037391335
 20
15.2072048793
 11
29.6639998188
 21
15.1215783548
  0
LINE
  5
661
100
AcDbEntity
  8
0
100
AcDbLine
 62
7
  6
CONTINUOUS
 10
29.7037391335
 20
15.0850509744
 11
29.6639998188
 21
14.9994244498
  0
LINE
  5
662
100
AcDbEntity
  8
0
100
AcDbLine
 62
7
  6
CONTINUOUS
 10
29.710871831
 20
15.0747032262
 11
29.6558481645
 21
14.956143423
  0
LINE
  5
663
100
AcDbEntity
  8
0
100
AcDbLine
 62
7
  6
CONTINUOUS
 10
29.7144010339
 20
15.0711737886
 11
29.6523189616
 21
14.9374051986
  0
LINE
  5
664
100
AcDbEntity
  8
0
100
AcDbLine
 62
7
  6
CONTINUOUS
 10
29.4449811138
 20
14.4176901354
 11
29.4918049253
 21
14.5185816652
  0
LINE
  5
665
100
AcDbEntity
  8
0
100
AcDbLine
 62
7
  6
CONTINUOUS
 10
29.8453259261
 20
15.2535093329
 11
29.8209191638
 21
15.2009199452
  0
LINE
  5
666
100
AcDbEntity
  8
0
100
AcDbLine
 62
7
  6
CONTINUOUS
 10
29.5213940695
 20
14.5555315415
 11
29.5458008317
 21
14.6081209292
  0
LINE
  5
667
100
AcDbEntity
  8
0
100
AcDbLine
 62
7
  6
CONTINUOUS
 10
29.568217881
 20
14.5087046167
 11
29.7985021145
 21
15.0048993487
  0
CIRCLE
  5
668
100
AcDbEntity
  8
0
100
AcDbCircle
 62
7
  6
CONTINUOUS
 10
27.5254366922
 20
1.0674889563
 40
0.252091
  0
CIRCLE
  5
669
100
AcDbEntity
  8
0
100
AcDbCircle
 62
7
  6
CONTINUOUS
 10
27.5254366922
 20
1.0674889563
 40
0.182698
  0
CIRCLE
  5
66A
100
AcDbEntity
  8
0
100
AcDbCircle
 62
7
  6
CONTINUOUS
 10
27.0942092
 20
1.8024187226
 40
0.0638444824
  0
ARC
  5
66B
100
AcDbEntity
  8
0
100
AcDbCircle
 62
7
  6
CONTINUOUS
 10
6.4778309901
 20
-8.1719151109
 40
14.6690401911
100
AcDbArc
 50
90.3795923409
 51
90.6435686876
  0
ARC
  5
66C
100
AcDbEntity
  8
0
100
AcDbCircle
 62
7
  6
CONTINUOUS
 10
5.6501868403
 20
-7.1102778926
 40
13.6073640616
100
AcDbArc
 50
89.3488125767
 51
89.6310676918
  0
ARC
  5
66D
100
AcDbEntity
  8
0
100
AcDbCircle
 62
7
  6
CONTINUOUS
 10
5.9162166541
 20
9.1581344262
 40
2.7411740272
100
AcDbArc
 50
283.1937627684
 51
283.3227637633
  0
ARC
  5
66E
100
AcDbEntity
  8
0
100
AcDbCircle
 62
7
  6
CONTINUOUS
 10
5.9441214107
 20
9.0378838342
 40
2.6177284961
100
AcDbArc
 50
281.6672271147
 51
283.1998564213
  0
ARC
  5
66F
100
AcDbEntity
  8
0
100
AcDbCircle
 62
7
  6
CONTINUOUS
 10
6.1663962832
 20
9.0015179869
 40
2.5804855491
100
AcDbArc
 50
256.7350515646
 51
258.3657337617
  0
ARC
  5
670
100
AcDbEntity
  8
0
100
AcDbCircle
 62
7
  6
CONTINUOUS
 10
6.1454306247
 20
8.9010154544
 40
2.477819861
100
AcDbArc
 50
258.3719123476
 51
258.495575593
  0
ARC
  5
671
100
AcDbEntity
  8
0
100
AcDbCircle
 62
7
  6
CONTINUOUS
 10
5.9753081478
 20
8.8904728312
 40
2.4670564993
100
AcDbArc
 50
281.2542567816
 51
281.6281928991
  0
ARC
  5
672
100
AcDbEntity
  8
0
100
AcDbCircle
 62
7
  6
CONTINUOUS
 10
6.1416835197
 20
8.8825792581
 40
2.4590067245
100
AcDbArc
 50
258.4954553993
 51
258.7461676775
  0
ARC
  5
673
100
AcDbEntity
  8
0
100
AcDbCircle
 62
7
  6
CONTINUOUS
 10
6.0592855677
 20
6.4558024445
 40
0.4287401575
100
AcDbArc
 50
20.3287357161
 51
159.6712642839
  0
ARC
  5
674
100
AcDbEntity
  8
0
100
AcDbCircle
 62
7
  6
CONTINUOUS
 10
4.8719425662
 20
6.6802118933
 40
0.0393700787
100
AcDbArc
 50
71.9857142771
 51
89.9999999999
  0
ARC
  5
675
100
AcDbEntity
  8
0
100
AcDbCircle
 62
7
  6
CONTINUOUS
 10
7.2466285691
 20
6.6802118933
 40
0.0393700787
100
AcDbArc
 50
90.0000000001
 51
108.0142857229
  0
ARC
  5
676
100
AcDbEntity
  8
0
100
AcDbCircle
 62
7
  6
CONTINUOUS
 10
31.1312478211
 20
5.0069835468
 40
0.0866141732
100
AcDbArc
 50
0.0
 51
90.0
  0
ARC
  5
677
100
AcDbEntity
  8
0
100
AcDbCircle
 62
7
  6
CONTINUOUS
 10
31.1312478211
 20
5.0069835468
 40
0.0852397587
100
AcDbArc
 50
0.0
 51
90.0
  0
CIRCLE
  5
678
100
AcDbEntity
  8
AXIS
100
AcDbCircle
 62
7
  6
CONTINUOUS
 10
31.1312478211
 20
5.0069835468
 40
0.0472440945
  0
ARC
  5
679
100
AcDbEntity
  8
0
100
AcDbCircle
 62
7
  6
CONTINUOUS
 10
31.1312478211
 20
5.0069835468
 40
0.0334645669
100
AcDbArc
 50
306.0423284191
 51
233.9576715809
  0
ARC
  5
67A
100
AcDbEntity
  8
0
100
AcDbCircle
 62
7
  6
CONTINUOUS
 10
31.353688766
 20
5.5581646492
 40
0.0196850394
100
AcDbArc
 50
90.0
 51
180.0
  0
ARC
  5
67B
100
AcDbEntity
  8
0
100
AcDbCircle
 62
7
  6
CONTINUOUS
 10
31.353688766
 20
5.4439914208
 40
0.0196850394
100
AcDbArc
 50
180.0
 51
270.0
  0
ARC
  5
67C
100
AcDbEntity
  8
0
100
AcDbCircle
 62
7
  6
CONTINUOUS
 10
31.353688766
 20
5.5581646492
 40
0.0118110236
100
AcDbArc
 50
90.0
 51
180.0
  0
ARC
  5
67D
100
AcDbEntity
  8
0
100
AcDbCircle
 62
7
  6
CONTINUOUS
 10
31.353688766
 20
5.4439914208
 40
0.0118110236
100
AcDbArc
 50
180.0
 51
270.0
  0
ARC
  5
67E
100
AcDbEntity
  8
0
100
AcDbCircle
 62
7
  6
CONTINUOUS
 10
31.1092413789
 20
4.9767412866
 40
0.0039370079
100
AcDbArc
 50
330.0
 51
53.9576715809
  0
ARC
  5
67F
100
AcDbEntity
  8
0
100
AcDbCircle
 62
7
  6
CONTINUOUS
 10
31.1532542633
 20
4.9767412866
 40
0.0039370079
100
AcDbArc
 50
126.0423284191
 51
210.0
  0
ARC
  5
680
100
AcDbEntity
  8
0
100
AcDbCircle
 62
7
  6
CONTINUOUS
 10
30.914712388
 20
6.0793274055
 40
0.1181102362
100
AcDbArc
 50
0.0
 51
10.0
  0
CIRCLE
  5
681
100
AcDbEntity
  8
0
100
AcDbCircle
 62
7
  6
CONTINUOUS
 10
31.1706178999
 20
5.9912355153
 40
0.0866141732
  0
CIRCLE
  5
682
100
AcDbEntity
  8
0
100
AcDbCircle
 62
7
  6
CONTINUOUS
 10
31.1706178999
 20
5.9912355153
 40
0.0852397587
  0
CIRCLE
  5
683
100
AcDbEntity
  8
AXIS
100
AcDbCircle
 62
7
  6
CONTINUOUS
 10
31.1706178999
 20
5.9912355153
 40
0.0472440945
  0
ARC
  5
684
100
AcDbEntity
  8
0
100
AcDbCircle
 62
7
  6
CONTINUOUS
 10
31.1706178999
 20
5.9912355153
 40
0.0334645669
100
AcDbArc
 50
216.0423284191
 51
143.9576715809
  0
ARC
  5
685
100
AcDbEntity
  8
0
100
AcDbCircle
 62
7
  6
CONTINUOUS
 10
31.1194367975
 20
6.0000449811
 40
0.0118110236
100
AcDbArc
 50
0.0
 51
48.6057664877
  0
ARC
  5
686
100
AcDbEntity
  8
0
100
AcDbCircle
 62
7
  6
CONTINUOUS
 10
31.1194367975
 20
5.9900611292
 40
0.0118110236
100
AcDbArc
 50
300.0
 51
360.0
  0
ARC
  5
687
100
AcDbEntity
  8
0
100
AcDbCircle
 62
7
  6
CONTINUOUS
 10
31.1403756397
 20
6.0132419575
 40
0.0039370079
100
AcDbArc
 50
240.0
 51
323.9576715809
  0
ARC
  5
688
100
AcDbEntity
  8
0
100
AcDbCircle
 62
7
  6
CONTINUOUS
 10
31.1403756397
 20
5.9692290732
 40
0.0039370079
100
AcDbArc
 50
36.0423284191
 51
120.0000000001
  0
ARC
  5
689
100
AcDbEntity
  8
0
100
AcDbCircle
 62
7
  6
CONTINUOUS
 10
32.1942399471
 20
5.0069835468
 40
0.0866141732
100
AcDbArc
 50
90.0
 51
180.0
  0
ARC
  5
68A
100
AcDbEntity
  8
0
100
AcDbCircle
 62
7
  6
CONTINUOUS
 10
32.1942399471
 20
5.0069835468
 40
0.0852397587
100
AcDbArc
 50
90.0
 51
180.0
  0
CIRCLE
  5
68B
100
AcDbEntity
  8
AXIS
100
AcDbCircle
 62
7
  6
CONTINUOUS
 10
32.1942399471
 20
5.0069835468
 40
0.0472440945
  0
ARC
  5
68C
100
AcDbEntity
  8
0
100
AcDbCircle
 62
7
  6
CONTINUOUS
 10
32.1942399471
 20
5.0069835468
 40
0.0334645669
100
AcDbArc
 50
306.0423284191
 51
233.9576715809
  0
ARC
  5
68D
100
AcDbEntity
  8
0
100
AcDbCircle
 62
7
  6
CONTINUOUS
 10
32.1722335049
 20
4.9767412866
 40
0.0039370079
100
AcDbArc
 50
330.0
 51
53.957671581
  0
ARC
  5
68E
100
AcDbEntity
  8
0
100
AcDbCircle
 62
7
  6
CONTINUOUS
 10
32.2162463893
 20
4.9767412866
 40
0.0039370079
100
AcDbArc
 50
126.0423284191
 51
210.0
  0
ARC
  5
68F
100
AcDbEntity
  8
0
100
AcDbCircle
 62
7
  6
CONTINUOUS
 10
31.6627438841
 20
6.0896607122
 40
0.6299212598
100
AcDbArc
 50
0.0
 51
180.0
  0
ARC
  5
690
100
AcDbEntity
  8
0
100
AcDbCircle
 62
7
  6
CONTINUOUS
 10
31.6627438841
 20
6.0896607122
 40
0.6257980162
100
AcDbArc
 50
0.0
 51
180.0
  0
ARC
  5
691
100
AcDbEntity
  8
0
100
AcDbCircle
 62
7
  6
CONTINUOUS
 10
31.6627438841
 20
6.4558024445
 40
0.4287401575
100
AcDbArc
 50
20.3306138089
 51
159.6693861911
  0
ARC
  5
692
100
AcDbEntity
  8
0
100
AcDbCircle
 62
7
  6
CONTINUOUS
 10
32.4107753802
 20
6.0793274055
 40
0.1181102362
100
AcDbArc
 50
170.0
 51
180.0
  0
CIRCLE
  5
693
100
AcDbEntity
  8
0
100
AcDbCircle
 62
7
  6
CONTINUOUS
 10
32.1548698684
 20
5.9912355153
 40
0.0866141732
  0
CIRCLE
  5
694
100
AcDbEntity
  8
0
100
AcDbCircle
 62
7
  6
CONTINUOUS
 10
32.1548698684
 20
5.9912355153
 40
0.0852397587
  0
CIRCLE
  5
695
100
AcDbEntity
  8
AXIS
100
AcDbCircle
 62
7
  6
CONTINUOUS
 10
32.1548698684
 20
5.9912355153
 40
0.0472440945
  0
ARC
  5
696
100
AcDbEntity
  8
0
100
AcDbCircle
 62
7
  6
CONTINUOUS
 10
32.1548698684
 20
5.9912355153
 40
0.0334645669
100
AcDbArc
 50
36.0423284191
 51
323.9576715809
  0
ARC
  5
697
100
AcDbEntity
  8
0
100
AcDbCircle
 62
7
  6
CONTINUOUS
 10
32.2060509707
 20
5.9900611292
 40
0.0118110236
100
AcDbArc
 50
180.0
 51
240.0
  0
ARC
  5
698
100
AcDbEntity
  8
0
100
AcDbCircle
 62
7
  6
CONTINUOUS
 10
32.2060509707
 20
6.0000449811
 40
0.0118110236
100
AcDbArc
 50
131.3942335123
 51
180.0
  0
ARC
  5
699
100
AcDbEntity
  8
0
100
AcDbCircle
 62
7
  6
CONTINUOUS
 10
32.1851121285
 20
5.9692290732
 40
0.0039370079
100
AcDbArc
 50
60.0
 51
143.9576715809
  0
ARC
  5
69A
100
AcDbEntity
  8
0
100
AcDbCircle
 62
7
  6
CONTINUOUS
 10
32.1851121285
 20
6.0132419575
 40
0.0039370079
100
AcDbArc
 50
216.042328419
 51
300.0
  0
ARC
  5
69B
100
AcDbEntity
  8
0
100
AcDbCircle
 62
7
  6
CONTINUOUS
 10
1.9495924662
 20
5.0069835468
 40
0.0866141732
100
AcDbArc
 50
0.0
 51
90.0
  0
ARC
  5
69C
100
AcDbEntity
  8
0
100
AcDbCircle
 62
7
  6
CONTINUOUS
 10
1.9495924662
 20
5.0069835468
 40
0.0852397587
100
AcDbArc
 50
0.0
 51
90.0
  0
CIRCLE
  5
69D
100
AcDbEntity
  8
AXIS
100
AcDbCircle
 62
7
  6
CONTINUOUS
 10
1.9495924662
 20
5.0069835468
 40
0.0472440945
  0
ARC
  5
69E
100
AcDbEntity
  8
0
100
AcDbCircle
 62
7
  6
CONTINUOUS
 10
1.9495924662
 20
5.0069835468
 40
0.0334645669
100
AcDbArc
 50
306.0423284191
 51
233.9576715809
  0
ARC
  5
69F
100
AcDbEntity
  8
0
100
AcDbCircle
 62
7
  6
CONTINUOUS
 10
2.0893562457
 20
5.5345426019
 40
0.0196850394
100
AcDbArc
 50
90.0
 51
180.0
  0
ARC
  5
6A0
100
AcDbEntity
  8
0
100
AcDbCircle
 62
7
  6
CONTINUOUS
 10
2.0893562457
 20
5.4203693736
 40
0.0196850394
100
AcDbArc
 50
180.0
 51
270.0
  0
ARC
  5
6A1
100
AcDbEntity
  8
0
100
AcDbCircle
 62
7
  6
CONTINUOUS
 10
2.0893562457
 20
5.5345426019
 40
0.0118110236
100
AcDbArc
 50
90.0
 51
180.0
  0
ARC
  5
6A2
100
AcDbEntity
  8
0
100
AcDbCircle
 62
7
  6
CONTINUOUS
 10
2.0893562457
 20
5.4203693736
 40
0.0118110236
100
AcDbArc
 50
180.0
 51
270.0
  0
ARC
  5
6A3
100
AcDbEntity
  8
0
100
AcDbCircle
 62
7
  6
CONTINUOUS
 10
1.9715989083
 20
4.9767412866
 40
0.0039370079
100
AcDbArc
 50
126.0423284191
 51
210.0
  0
ARC
  5
6A4
100
AcDbEntity
  8
0
100
AcDbCircle
 62
7
  6
CONTINUOUS
 10
1.927586024
 20
4.9767412866
 40
0.0039370079
100
AcDbArc
 50
330.0
 51
53.9576715809
  0
ARC
  5
6A5
100
AcDbEntity
  8
0
100
AcDbCircle
 62
7
  6
CONTINUOUS
 10
1.7330570331
 20
6.0793274055
 40
0.1181102362
100
AcDbArc
 50
3.3333333333
 51
10.0
  0
CIRCLE
  5
6A6
100
AcDbEntity
  8
0
100
AcDbCircle
 62
7
  6
CONTINUOUS
 10
1.9889625449
 20
5.9912355153
 40
0.0866141732
  0
CIRCLE
  5
6A7
100
AcDbEntity
  8
0
100
AcDbCircle
 62
7
  6
CONTINUOUS
 10
1.9889625449
 20
5.9912355153
 40
0.0852397587
  0
CIRCLE
  5
6A8
100
AcDbEntity
  8
AXIS
100
AcDbCircle
 62
7
  6
CONTINUOUS
 10
1.9889625449
 20
5.9912355153
 40
0.0472440945
  0
ARC
  5
6A9
100
AcDbEntity
  8
0
100
AcDbCircle
 62
7
  6
CONTINUOUS
 10
1.9889625449
 20
5.9912355153
 40
0.0334645669
100
AcDbArc
 50
216.042328419
 51
143.9576715809
  0
ARC
  5
6AA
100
AcDbEntity
  8
0
100
AcDbCircle
 62
7
  6
CONTINUOUS
 10
1.9587202847
 20
5.9692290732
 40
0.0039370079
100
AcDbArc
 50
36.0423284191
 51
120.0
  0
ARC
  5
6AB
100
AcDbEntity
  8
0
100
AcDbCircle
 62
7
  6
CONTINUOUS
 10
1.9587202847
 20
6.0132419575
 40
0.0039370079
100
AcDbArc
 50
240.0
 51
323.957671581
  0
ARC
  5
6AC
100
AcDbEntity
  8
0
100
AcDbCircle
 62
7
  6
CONTINUOUS
 10
3.0125845922
 20
5.0069835468
 40
0.0866141732
100
AcDbArc
 50
90.0
 51
180.0
  0
ARC
  5
6AD
100
AcDbEntity
  8
0
100
AcDbCircle
 62
7
  6
CONTINUOUS
 10
3.0125845922
 20
5.0069835468
 40
0.0852397587
100
AcDbArc
 50
90.0
 51
180.0
  0
CIRCLE
  5
6AE
100
AcDbEntity
  8
AXIS
100
AcDbCircle
 62
7
  6
CONTINUOUS
 10
3.0125845922
 20
5.0069835468
 40
0.0472440945
  0
ARC
  5
6AF
100
AcDbEntity
  8
0
100
AcDbCircle
 62
7
  6
CONTINUOUS
 10
3.0125845922
 20
5.0069835468
 40
0.0334645669
100
AcDbArc
 50
306.0423284191
 51
233.9576715809
  0
ARC
  5
6B0
100
AcDbEntity
  8
0
100
AcDbCircle
 62
7
  6
CONTINUOUS
 10
2.6700649071
 20
5.377062287
 40
0.0157480315
100
AcDbArc
 50
270.0
 51
308.8769563266
  0
ARC
  5
6B1
100
AcDbEntity
  8
0
100
AcDbCircle
 62
7
  6
CONTINUOUS
 10
2.6700649071
 20
5.5601331531
 40
0.0157480315
100
AcDbArc
 50
58.2352941176
 51
90.0
  0
ARC
  5
6B2
100
AcDbEntity
  8
0
100
AcDbCircle
 62
7
  6
CONTINUOUS
 10
3.0345910343
 20
4.9767412866
 40
0.0039370079
100
AcDbArc
 50
126.0423284191
 51
210.0
  0
ARC
  5
6B3
100
AcDbEntity
  8
0
100
AcDbCircle
 62
7
  6
CONTINUOUS
 10
2.99057815
 20
4.9767412866
 40
0.0039370079
100
AcDbArc
 50
330.0
 51
53.9576715809
  0
ARC
  5
6B4
100
AcDbEntity
  8
0
100
AcDbCircle
 62
7
  6
CONTINUOUS
 10
2.4810885292
 20
6.0896607122
 40
0.6299212598
100
AcDbArc
 50
0.0
 51
180.0
  0
ARC
  5
6B5
100
AcDbEntity
  8
0
100
AcDbCircle
 62
7
  6
CONTINUOUS
 10
2.4810885292
 20
6.0896607122
 40
0.6257980162
100
AcDbArc
 50
0.0
 51
180.0
  0
ARC
  5
6B6
100
AcDbEntity
  8
0
100
AcDbCircle
 62
7
  6
CONTINUOUS
 10
2.4810885292
 20
6.4558024445
 40
0.4287401575
100
AcDbArc
 50
20.3306138089
 51
159.6693861911
  0
ARC
  5
6B7
100
AcDbEntity
  8
0
100
AcDbCircle
 62
7
  6
CONTINUOUS
 10
3.2291200252
 20
6.0793274055
 40
0.1181102362
100
AcDbArc
 50
170.0
 51
176.6666666667
  0
CIRCLE
  5
6B8
100
AcDbEntity
  8
0
100
AcDbCircle
 62
7
  6
CONTINUOUS
 10
2.9732145134
 20
5.9912355153
 40
0.0866141732
  0
CIRCLE
  5
6B9
100
AcDbEntity
  8
0
100
AcDbCircle
 62
7
  6
CONTINUOUS
 10
2.9732145134
 20
5.9912355153
 40
0.0852397587
  0
CIRCLE
  5
6BA
100
AcDbEntity
  8
AXIS
100
AcDbCircle
 62
7
  6
CONTINUOUS
 10
2.9732145134
 20
5.9912355153
 40
0.0472440945
  0
ARC
  5
6BB
100
AcDbEntity
  8
0
100
AcDbCircle
 62
7
  6
CONTINUOUS
 10
2.9732145134
 20
5.9912355153
 40
0.0334645669
100
AcDbArc
 50
36.0423284191
 51
323.957671581
  0
ARC
  5
6BC
100
AcDbEntity
  8
0
100
AcDbCircle
 62
7
  6
CONTINUOUS
 10
3.0034567736
 20
6.0132419575
 40
0.0039370079
100
AcDbArc
 50
216.042328419
 51
300.0
  0
ARC
  5
6BD
100
AcDbEntity
  8
0
100
AcDbCircle
 62
7
  6
CONTINUOUS
 10
3.0034567736
 20
5.9692290732
 40
0.0039370079
100
AcDbArc
 50
60.0
 51
143.9576715809
  0
ARC
  5
6BE
100
AcDbEntity
  8
0
100
AcDbCircle
 62
7
  6
CONTINUOUS
 10
6.0592855677
 20
11.2636097724
 40
0.4849732943
100
AcDbArc
 50
80.9937135048
 51
99.0059137731
  0
ARC
  5
6BF
100
AcDbEntity
  8
0
100
AcDbCircle
 62
7
  6
CONTINUOUS
 10
6.0592855677
 20
11.2636097724
 40
0.4849732943
100
AcDbArc
 50
260.9937082144
 51
279.0058975389
  0
CIRCLE
  5
6C0
100
AcDbEntity
  8
0
100
AcDbCircle
 62
7
  6
CONTINUOUS
 10
6.0592855677
 20
11.2636097724
 40
0.4652882549
  0
ARC
  5
6C1
100
AcDbEntity
  8
0
100
AcDbCircle
 62
7
  6
CONTINUOUS
 10
6.0515525845
 20
11.2659536898
 40
0.4152199139
100
AcDbArc
 50
352.0569515829
 51
359.6765634698
  0
ARC
  5
6C2
100
AcDbEntity
  8
0
100
AcDbCircle
 62
7
  6
CONTINUOUS
 10
6.0665629368
 20
11.2612986526
 40
0.414764123
100
AcDbArc
 50
172.0527463882
 51
179.6807387904
  0
CIRCLE
  5
6C3
100
AcDbEntity
  8
AXIS
100
AcDbCircle
 62
7
  6
CONTINUOUS
 10
6.0592855677
 20
11.2636097724
 40
0.4133858268
  0
ARC
  5
6C4
100
AcDbEntity
  8
0
100
AcDbCircle
 62
7
  6
CONTINUOUS
 10
6.0649712409
 20
11.2658057428
 40
0.4131718239
100
AcDbArc
 50
180.3045232568
 51
187.9619616904
  0
ARC
  5
6C5
100
AcDbEntity
  8
0
100
AcDbCircle
 62
7
  6
CONTINUOUS
 10
6.0535998944
 20
11.2614138019
 40
0.4131718239
100
AcDbArc
 50
0.3045232569
 51
7.9619616904
  0
ARC
  5
6C6
100
AcDbEntity
  8
0
100
AcDbCircle
 62
7
  6
CONTINUOUS
 10
6.0592855677
 20
11.2636097724
 40
0.407480315
100
AcDbArc
 50
7.7408943018
 51
172.2591056982
  0
ARC
  5
6C7
100
AcDbEntity
  8
0
100
AcDbCircle
 62
7
  6
CONTINUOUS
 10
6.0592855677
 20
11.2636097724
 40
0.407480315
100
AcDbArc
 50
187.7408943018
 51
352.2591056982
  0
CIRCLE
  5
6C8
100
AcDbEntity
  8
0
100
AcDbCircle
 62
7
  6
CONTINUOUS
 10
6.0592855677
 20
11.2636097724
 40
0.4020359983
  0
ARC
  5
6C9
100
AcDbEntity
  8
0
100
AcDbCircle
 62
7
  6
CONTINUOUS
 10
5.6598005002
 20
11.369908985
 40
0.0078740157
100
AcDbArc
 50
270.0
 51
304.0520114384
  0
ARC
  5
6CA
100
AcDbEntity
  8
0
100
AcDbCircle
 62
7
  6
CONTINUOUS
 10
5.6598005002
 20
11.1573105598
 40
0.0078740157
100
AcDbArc
 50
55.9479885616
 51
90.0
  0
ARC
  5
6CB
100
AcDbEntity
  8
0
100
AcDbCircle
 62
7
  6
CONTINUOUS
 10
6.4587706352
 20
11.1573105598
 40
0.0078740157
100
AcDbArc
 50
90.0
 51
124.0520114384
  0
ARC
  5
6CC
100
AcDbEntity
  8
0
100
AcDbCircle
 62
7
  6
CONTINUOUS
 10
6.4587706352
 20
11.369908985
 40
0.0078740157
100
AcDbArc
 50
235.9479885616
 51
270.0
  0
ARC
  5
6CD
100
AcDbEntity
  8
0
100
AcDbCircle
 62
7
  6
CONTINUOUS
 10
5.4372395449
 20
17.5392676653
 40
2.5299543707
100
AcDbArc
 50
81.6577575585
 51
81.8137902024
  0
ARC
  5
6CE
100
AcDbEntity
  8
0
100
AcDbCircle
 62
7
  6
CONTINUOUS
 10
7.2947587761
 20
19.1367765886
 40
2.2652033484
100
AcDbArc
 50
176.185743563
 51
177.1779011921
  0
ARC
  5
6CF
100
AcDbEntity
  8
0
100
AcDbCircle
 62
7
  6
CONTINUOUS
 10
7.1957978486
 20
19.1417949855
 40
2.1661153622
100
AcDbArc
 50
177.181603508
 51
177.3039188401
  0
ARC
  5
6D0
100
AcDbEntity
  8
0
100
AcDbCircle
 62
7
  6
CONTINUOUS
 10
31.062362645
 20
15.4010430255
 40
1.7702076118
100
AcDbArc
 50
178.6770131095
 51
179.9749436266
  0
ARC
  5
6D1
100
AcDbEntity
  8
0
100
AcDbCircle
 62
7
  6
CONTINUOUS
 10
6.3491075982
 20
19.550034596
 40
0.3242067739
100
AcDbArc
 50
128.3743891651
 51
132.7725885545
  0
ARC
  5
6D2
100
AcDbEntity
  8
0
100
AcDbCircle
 62
7
  6
CONTINUOUS
 10
6.7035120648
 20
19.5555768296
 40
0.3169076583
100
AcDbArc
 50
47.1860689817
 51
51.4450236562
  0
ARC
  5
6D3
100
AcDbEntity
  8
0
100
AcDbCircle
 62
7
  6
CONTINUOUS
 10
6.261993776
 20
19.6109985131
 40
0.1517883035
100
AcDbArc
 50
160.7734531467
 51
163.6651627797
  0
ARC
  5
6D4
100
AcDbEntity
  8
AXIS
100
AcDbCircle
 62
7
  6
CONTINUOUS
 10
6.2606346805
 20
19.6436157413
 40
0.1503483346
100
AcDbArc
 50
160.3318368633
 51
166.6315772299
  0
ARC
  5
6D5
100
AcDbEntity
  8
0
100
AcDbCircle
 62
7
  6
CONTINUOUS
 10
6.2574893217
 20
19.6123188924
 40
0.1470943169
100
AcDbArc
 50
163.6652417033
 51
167.0688988103
  0
ARC
  5
6D6
100
AcDbEntity
  8
0
100
AcDbCircle
 62
7
  6
CONTINUOUS
 10
6.2529497778
 20
19.6133491112
 40
0.1424393554
100
AcDbArc
 50
167.0641671201
 51
172.3750127956
  0
ARC
  5
6D7
100
AcDbEntity
  8
AXIS
100
AcDbCircle
 62
7
  6
CONTINUOUS
 10
6.2511176651
 20
19.6458517315
 40
0.1405722125
100
AcDbArc
 50
166.6213698964
 51
179.9230910142
  0
ARC
  5
6D8
100
AcDbEntity
  8
0
100
AcDbCircle
 62
7
  6
CONTINUOUS
 10
5.1524681514
 20
19.2426799751
 40
0.1202967197
100
AcDbArc
 50
177.1091682235
 51
179.357787725
  0
ARC
  5
6D9
100
AcDbEntity
  8
0
100
AcDbCircle
 62
7
  6
CONTINUOUS
 10
7.8144714298
 20
18.8308793801
 40
0.1202967197
100
AcDbArc
 50
177.1091682235
 51
179.357787725
  0
ARC
  5
6DA
100
AcDbEntity
  8
0
100
AcDbCircle
 62
7
  6
CONTINUOUS
 10
29.5473365804
 20
16.344237525
 40
0.0317264726
100
AcDbArc
 50
97.2538291087
 51
98.3602134761
  0
ARC
  5
6DB
100
AcDbEntity
  8
0
100
AcDbCircle
 62
7
  6
CONTINUOUS
 10
29.5375774346
 20
16.3487892517
 40
0.0286440833
100
AcDbArc
 50
70.7462187309
 51
81.155024222
  0
ARC
  5
6DC
100
AcDbEntity
  8
0
100
AcDbCircle
 62
7
  6
CONTINUOUS
 10
5.2848888648
 20
20.1007154426
 40
0.0285075062
100
AcDbArc
 50
82.2448690821
 51
90.0297062032
  0
ARC
  5
6DD
100
AcDbEntity
  8
0
100
AcDbCircle
 62
7
  6
CONTINUOUS
 10
5.2849266046
 20
20.101084566
 40
0.0281366689
100
AcDbArc
 50
81.201323967
 51
81.9829335161
  0
ARC
  5
6DE
100
AcDbEntity
  8
0
100
AcDbCircle
 62
7
  6
CONTINUOUS
 10
6.1160072104
 20
19.6434661765
 40
0.010712671
100
AcDbArc
 50
278.5414994017
 51
279.9587680262
  0
ARC
  5
6DF
100
AcDbEntity
  8
0
100
AcDbCircle
 62
7
  6
CONTINUOUS
 10
6.1142286192
 20
19.6273000458
 40
0.0065119242
100
AcDbArc
 50
56.3191898266
 51
58.8375821628
  0
LINE
  5
6E0
100
AcDbEntity
  8
0
100
AcDbLine
 62
7
  6
CONTINUOUS
 10
7.2466285691
 20
6.719581972
 11
7.233913534
 21
6.7147499488
  0
SPLINE
  5
6E1
100
AcDbEntity
  8
0
100
AcDbSpline
 62
7
  6
CONTINUOUS
 70
0
 71
3
 72
10
 73
6
 74
0
 42
0.0000001
 43
0.0000001
 44
0.0000000001
 40
0.0
 40
0.0
 40
0.0
 40
0.0
 40
0.432678131
 40
0.710822001
 40
1.0
 40
1.0
 40
1.0
 40
1.0
 10
7.233913534
 20
6.7147499488
 30
0.0
 10
7.1369585614
 20
6.677952941
 30
0.0
 10
6.9770823115
 20
6.6189822937
 30
0.0
 10
6.7494149898
 20
6.5439581985
 30
0.0
 10
6.6183114392
 20
6.5074919672
 30
0.0
 10
6.5508853663
 20
6.4914453254
 30
0.0
  0
LINE
  5
6E2
100
AcDbEntity
  8
0
100
AcDbLine
 62
7
  6
CONTINUOUS
 10
6.5508853663
 20
6.4914453254
 11
6.5488200098
 21
6.4909546319
  0
LINE
  5
6E3
100
AcDbEntity
  8
0
100
AcDbLine
 62
7
  6
CONTINUOUS
 10
6.5488200098
 20
6.4909546319
 11
6.5478828343
 21
6.4907325285
  0
LINE
  5
6E4
100
AcDbEntity
  8
0
100
AcDbLine
 62
7
  6
CONTINUOUS
 10
6.4734971889
 20
6.4742411594
 11
6.4725678227
 21
6.4740497336
  0
SPLINE
  5
6E5
100
AcDbEntity
  8
0
100
AcDbSpline
 62
7
  6
CONTINUOUS
 70
0
 71
3
 72
9
 73
5
 74
0
 42
0.0000001
 43
0.0000001
 44
0.0000000001
 40
0.0
 40
0.0
 40
0.0
 40
0.0
 40
0.4999998809
 40
1.0
 40
1.0
 40
1.0
 40
1.0
 10
6.4567867611
 20
6.4708558955
 30
0.0
 10
6.326128724
 20
6.4448573352
 30
0.0
 10
6.0592904942
 20
6.4138194341
 30
0.0
 10
5.7924519717
 20
6.4448555792
 30
0.0
 10
5.6617937927
 20
6.4708537511
 30
0.0
  0
LINE
  5
6E6
100
AcDbEntity
  8
0
100
AcDbLine
 62
7
  6
CONTINUOUS
 10
5.5742926819
 20
6.4898812707
 11
5.5706374209
 21
6.4907443067
  0
LINE
  5
6E7
100
AcDbEntity
  8
0
100
AcDbLine
 62
7
  6
CONTINUOUS
 10
5.5706374209
 20
6.4907443067
 11
5.5676858376
 21
6.4914450454
  0
SPLINE
  5
6E8
100
AcDbEntity
  8
0
100
AcDbSpline
 62
7
  6
CONTINUOUS
 70
0
 71
3
 72
10
 73
6
 74
0
 42
0.0000001
 43
0.0000001
 44
0.0000000001
 40
0.0
 40
0.0
 40
0.0
 40
0.0
 40
0.2878603672
 40
0.5648929345
 40
1.0
 40
1.0
 40
1.0
 40
1.0
 10
5.5676858376
 20
6.4914450454
 30
0.0
 10
5.5007869691
 20
6.5073664101
 30
0.0
 10
5.3706631282
 20
6.5435189611
 30
0.0
 10
5.1437082168
 20
6.6181957507
 30
0.0
 10
4.9840466383
 20
6.6770467197
 30
0.0
 10
4.886861114
 20
6.7139138593
 30
0.0
  0
LINE
  5
6E9
100
AcDbEntity
  8
0
100
AcDbLine
 62
7
  6
CONTINUOUS
 10
4.886861114
 20
6.7139138593
 11
4.8795443301
 21
6.716691507
  0
LINE
  5
6EA
100
AcDbEntity
  8
0
100
AcDbLine
 62
7
  6
CONTINUOUS
 10
4.8795443301
 20
6.716691507
 11
4.8719425662
 21
6.719581972
  0
SPLINE
  5
6EB
100
AcDbEntity
  8
0
100
AcDbSpline
 62
7
  6
CONTINUOUS
 70
0
 71
3
 72
9
 73
5
 74
0
 42
0.0000001
 43
0.0000001
 44
0.0000000001
 40
0.0
 40
0.0
 40
0.0
 40
0.0
 40
0.4832287844
 40
1.0
 40
1.0
 40
1.0
 40
1.0
 10
6.3124675082
 20
6.4932670439
 30
0.0
 10
6.2839150969
 20
6.4929328814
 30
0.0
 10
6.2248266915
 20
6.4921486714
 30
0.0
 10
6.1657346236
 20
6.4927742616
 30
0.0
 10
6.1352012327
 20
6.4932040206
 30
0.0
  0
SPLINE
  5
6EC
100
AcDbEntity
  8
0
100
AcDbSpline
 62
7
  6
CONTINUOUS
 70
0
 71
3
 72
9
 73
5
 74
0
 42
0.0000001
 43
0.0000001
 44
0.0000000001
 40
0.0
 40
0.0
 40
0.0
 40
0.0
 40
0.5188533151
 40
1.0
 40
1.0
 40
1.0
 40
1.0
 10
5.9833664299
 20
6.4932040193
 30
0.0
 10
5.9527012525
 20
6.4936478263
 30
0.0
 10
5.8936065301
 20
6.4949246765
 30
0.0
 10
5.834505489
 20
6.4958641651
 30
0.0
 10
5.8060677671
 20
6.4961931546
 30
0.0
  0
LINE
  5
6ED
100
AcDbEntity
  8
0
100
AcDbLine
 62
7
  6
CONTINUOUS
 10
5.8060677671
 20
6.4961931546
 11
5.8056856855
 21
6.4961975684
  0
LINE
  5
6EE
100
AcDbEntity
  8
0
100
AcDbLine
 62
7
  6
CONTINUOUS
 10
5.8056856855
 20
6.4961975684
 11
5.8048361644
 21
6.4962073365
  0
LINE
  5
6EF
100
AcDbEntity
  8
0
100
AcDbLine
 62
7
  6
CONTINUOUS
 10
6.3130660369
 20
6.4961997182
 11
6.3126270521
 21
6.4961946561
  0
SPLINE
  5
6F0
100
AcDbEntity
  8
0
100
AcDbSpline
 62
7
  6
CONTINUOUS
 70
0
 71
3
 72
9
 73
5
 74
0
 42
0.0000001
 43
0.0000001
 44
0.0000000001
 40
0.0
 40
0.0
 40
0.0
 40
0.0
 40
0.481118499
 40
1.0
 40
1.0
 40
1.0
 40
1.0
 10
6.3126270521
 20
6.4961946561
 30
0.0
 10
6.284170626
 20
6.4958659727
 30
0.0
 10
6.2250272472
 20
6.4949264626
 30
0.0
 10
6.1658902206
 20
6.4936477375
 30
0.0
 10
6.1352014094
 20
6.4932040206
 30
0.0
  0
SPLINE
  5
6F1
100
AcDbEntity
  8
0
100
AcDbSpline
 62
7
  6
CONTINUOUS
 70
0
 71
3
 72
26
 73
22
 74
0
 42
0.0000001
 43
0.0000001
 44
0.0000000001
 40
0.0
 40
0.0
 40
0.0
 40
0.0
 40
0.0004525308
 40
0.0018057751
 40
0.0040533649
 40
0.0071864681
 40
0.0160383298
 40
0.0282022377
 40
0.0434698921
 40
0.061612074
 40
0.0823849104
 40
0.1055446964
 40
0.15811203
 40
0.2176439547
 40
0.2827639316
 40
0.3523899846
 40
0.4256760357
 40
0.5019517428
 40
0.6615419519
 40
0.8281957173
 40
1.0
 40
1.0
 40
1.0
 40
1.0
 10
7.2344532103
 20
6.7176520287
 30
0.0
 10
7.2344220928
 20
6.7176160475
 30
0.0
 10
7.2342100769
 20
6.7176007634
 30
0.0
 10
7.2338408
 20
6.7174107543
 30
0.0
 10
7.2331560728
 20
6.717199143
 30
0.0
 10
7.2317578485
 20
6.7166803991
 30
0.0
 10
7.2293588936
 20
6.7158391421
 30
0.0
 10
7.2257699872
 20
6.7145528616
 30
0.0
 10
7.2212555839
 20
6.7129473797
 30
0.0
 10
7.2158899929
 20
6.7110370998
 30
0.0
 10
7.2097412873
 20
6.7088520175
 30
0.0
 10
7.2001814526
 20
6.7054589741
 30
0.0
 10
7.1867781285
 20
6.7007136393
 30
0.0
 10
7.1692095521
 20
6.6945168287
 30
0.0
 10
7.1499404076
 20
6.6877503652
 30
0.0
 10
7.1292956792
 20
6.680537421
 30
0.0
 10
7.1075305072
 20
6.6729760407
 30
0.0
 10
7.0768112244
 20
6.6623710533
 30
0.0
 10
7.0367694934
 20
6.6486933663
 30
0.0
 10
6.9871396547
 20
6.6320208503
 30
0.0
 10
6.9533459343
 20
6.6208912184
 30
0.0
 10
6.936172922
 20
6.6153002951
 30
0.0
  0
LINE
  5
6F2
100
AcDbEntity
  8
0
100
AcDbLine
 62
7
  6
CONTINUOUS
 10
6.936172922
 20
6.6153002951
 11
6.9339693719
 21
6.6145832539
  0
SPLINE
  5
6F3
100
AcDbEntity
  8
0
100
AcDbSpline
 62
7
  6
CONTINUOUS
 70
0
 71
3
 72
9
 73
5
 74
0
 42
0.0000001
 43
0.0000001
 44
0.0000000001
 40
0.0
 40
0.0
 40
0.0
 40
0.0
 40
0.4916560218
 40
1.0
 40
1.0
 40
1.0
 40
1.0
 10
6.9339693719
 20
6.6145832539
 30
0.0
 10
6.87134825
 20
6.5942163215
 30
0.0
 10
6.7434603504
 20
6.5543536855
 30
0.0
 10
6.6141110024
 20
6.5194107696
 30
0.0
 10
6.5479804835
 20
6.5032141739
 30
0.0
  0
LINE
  5
6F4
100
AcDbEntity
  8
0
100
AcDbLine
 62
7
  6
CONTINUOUS
 10
6.5479804835
 20
6.5032141739
 11
6.5434188936
 21
6.5020994954
  0
LINE
  5
6F5
100
AcDbEntity
  8
0
100
AcDbLine
 62
7
  6
CONTINUOUS
 10
6.5434188936
 20
6.5020994954
 11
6.5391397306
 21
6.5010584478
  0
SPLINE
  5
6F6
100
AcDbEntity
  8
0
100
AcDbSpline
 62
7
  6
CONTINUOUS
 70
0
 71
3
 72
15
 73
11
 74
0
 42
0.0000001
 43
0.0000001
 44
0.0000000001
 40
0.0
 40
0.0
 40
0.0
 40
0.0
 40
0.123565445
 40
0.2482556023
 40
0.3738930108
 40
0.4999975392
 40
0.6261024269
 40
0.7517409197
 40
0.8764328121
 40
1.0
 40
1.0
 40
1.0
 40
1.0
 10
6.5391397306
 20
6.5010584478
 30
0.0
 10
6.5002362891
 20
6.4916142416
 30
0.0
 10
6.4218271234
 20
6.4736474642
 30
0.0
 10
6.3028764797
 20
6.45052884
 30
0.0
 10
6.1818335258
 20
6.4347048814
 30
0.0
 10
6.0593783349
 20
6.4291154828
 30
0.0
 10
5.936921961
 20
6.4346878978
 30
0.0
 10
5.8158761075
 20
6.4504985304
 30
0.0
 10
5.6969223301
 20
6.4736092015
 30
0.0
 10
5.6185113974
 20
6.4915733168
 30
0.0
 10
5.5796069443
 20
6.5010157492
 30
0.0
  0
LINE
  5
6F7
100
AcDbEntity
  8
0
100
AcDbLine
 62
7
  6
CONTINUOUS
 10
5.5796069443
 20
6.5010157492
 11
5.5735228445
 21
6.5024969359
  0
LINE
  5
6F8
100
AcDbEntity
  8
0
100
AcDbLine
 62
7
  6
CONTINUOUS
 10
5.5735228445
 20
6.5024969359
 11
5.5705782139
 21
6.503217065
  0
SPLINE
  5
6F9
100
AcDbEntity
  8
0
100
AcDbSpline
 62
7
  6
CONTINUOUS
 70
0
 71
3
 72
9
 73
5
 74
0
 42
0.0000001
 43
0.0000001
 44
0.0000000001
 40
0.0
 40
0.0
 40
0.0
 40
0.0
 40
0.508340496
 40
1.0
 40
1.0
 40
1.0
 40
1.0
 10
5.5705782139
 20
6.503217065
 30
0.0
 10
5.5044687817
 20
6.5194084027
 30
0.0
 10
5.3751597935
 20
6.5543401688
 30
0.0
 10
5.2473112602
 20
6.5941884629
 30
0.0
 10
5.184709004
 20
6.6145484087
 30
0.0
  0
SPLINE
  5
6FA
100
AcDbEntity
  8
0
100
AcDbSpline
 62
7
  6
CONTINUOUS
 70
0
 71
3
 72
22
 73
18
 74
0
 42
0.0000001
 43
0.0000001
 44
0.0000000001
 40
0.0
 40
0.0
 40
0.0
 40
0.0
 40
0.1716241726
 40
0.3381351127
 40
0.4976314786
 40
0.6471640089
 40
0.7168029931
 40
0.781957201
 40
0.8415411551
 40
0.8941791471
 40
0.9381968416
 40
0.9563827614
 40
0.9716948849
 40
0.9838966299
 40
0.9927829643
 40
0.998182724
 40
1.0
 40
1.0
 40
1.0
 40
1.0
 10
5.184709004
 20
6.6145484087
 30
0.0
 10
5.1674200912
 20
6.6201712304
 30
0.0
 10
5.1333955034
 20
6.631366935
 30
0.0
 10
5.0834216891
 20
6.6481437466
 30
0.0
 10
5.0357492947
 20
6.6644204883
 30
0.0
 10
4.9978444931
 20
6.6775450374
 30
0.0
 10
4.9694103906
 20
6.6874771755
 30
0.0
 10
4.9499825533
 20
6.6942983751
 30
0.0
 10
4.9322625114
 20
6.7005473737
 30
0.0
 10
4.916661083
 20
6.7060714237
 30
0.0
 10
4.9051964707
 20
6.7101408787
 30
0.0
 10
4.8974616806
 20
6.7128965898
 30
0.0
 10
4.8928983815
 20
6.714514529
 30
0.0
 10
4.8892741847
 20
6.7158263588
 30
0.0
 10
4.886613334
 20
6.716729677
 30
0.0
 10
4.8850390558
 20
6.7173735108
 30
0.0
 10
4.8842852684
 20
6.7175568732
 30
0.0
 10
4.8841179251
 20
6.7176520287
 30
0.0
  0
SPLINE
  5
6FB
100
AcDbEntity
  8
0
100
AcDbSpline
 62
7
  6
CONTINUOUS
 70
0
 71
3
 72
9
 73
5
 74
0
 42
0.0000001
 43
0.0000001
 44
0.0000000001
 40
0.0
 40
0.0
 40
0.0
 40
0.0
 40
0.5167730404
 40
1.0
 40
1.0
 40
1.0
 40
1.0
 10
5.9833664299
 20
6.4932040193
 30
0.0
 10
5.9528259641
 20
6.4927745993
 30
0.0
 10
5.8937204354
 20
6.4921482844
 30
0.0
 10
5.8346185526
 20
6.4929326258
 30
0.0
 10
5.8060597437
 20
6.493267196
 30
0.0
  0
SPLINE
  5
6FC
100
AcDbEntity
  8
0
100
AcDbSpline
 62
7
  6
CONTINUOUS
 70
0
 71
3
 72
9
 73
5
 74
0
 42
0.0000001
 43
0.0000001
 44
0.0000000001
 40
0.0
 40
0.0
 40
0.0
 40
0.0
 40
0.4999962101
 40
1.0
 40
1.0
 40
1.0
 40
1.0
 10
5.6555184921
 20
11.3184947041
 30
0.0
 10
5.6553626405
 20
11.3173477333
 30
0.0
 10
5.6545063826
 20
11.3151056063
 30
0.0
 10
5.6527938989
 20
11.31342441
 30
0.0
 10
5.6518052527
 20
11.3128223708
 30
0.0
  0
SPLINE
  5
6FD
100
AcDbEntity
  8
0
100
AcDbSpline
 62
7
  6
CONTINUOUS
 70
0
 71
3
 72
9
 73
5
 74
0
 42
0.0000001
 43
0.0000001
 44
0.0000000001
 40
0.0
 40
0.0
 40
0.0
 40
0.0
 40
0.5263126847
 40
1.0
 40
1.0
 40
1.0
 40
1.0
 10
5.6518052527
 20
11.3128223708
 30
0.0
 10
5.6528849506
 20
11.3134798562
 30
0.0
 10
5.6546547037
 20
11.315234876
 30
0.0
 10
5.6555853407
 20
11.3175240024
 30
0.0
 10
5.6557822917
 20
11.3186445605
 30
0.0
  0
SPLINE
  5
6FE
100
AcDbEntity
  8
0
100
AcDbSpline
 62
7
  6
CONTINUOUS
 70
0
 71
3
 72
9
 73
5
 74
0
 42
0.0000001
 43
0.0000001
 44
0.0000000001
 40
0.0
 40
0.0
 40
0.0
 40
0.0
 40
0.4999962101
 40
1.0
 40
1.0
 40
1.0
 40
1.0
 10
6.4630526433
 20
11.2087248406
 30
0.0
 10
6.4632084949
 20
11.2098718114
 30
0.0
 10
6.4640647528
 20
11.2121139384
 30
0.0
 10
6.4657772364
 20
11.2137951347
 30
0.0
 10
6.4667658826
 20
11.2143971739
 30
0.0
  0
SPLINE
  5
6FF
100
AcDbEntity
  8
0
100
AcDbSpline
 62
7
  6
CONTINUOUS
 70
0
 71
3
 72
9
 73
5
 74
0
 42
0.0000001
 43
0.0000001
 44
0.0000000001
 40
0.0
 40
0.0
 40
0.0
 40
0.0
 40
0.5263114687
 40
1.0
 40
1.0
 40
1.0
 40
1.0
 10
6.4667658826
 20
11.2143971739
 30
0.0
 10
6.4656861872
 20
11.21373969
 30
0.0
 10
6.4639164119
 20
11.2119846765
 30
0.0
 10
6.4629858299
 20
11.2096955392
 30
0.0
 10
6.4627888436
 20
11.2085749842
 30
0.0
  0
SPLINE
  5
700
100
AcDbEntity
  8
0
100
AcDbSpline
 62
7
  6
CONTINUOUS
 70
0
 71
3
 72
9
 73
5
 74
0
 42
0.0000001
 43
0.0000001
 44
0.0000000001
 40
0.0
 40
0.0
 40
0.0
 40
0.0
 40
0.4737065774
 40
1.0
 40
1.0
 40
1.0
 40
1.0
 10
5.6557822917
 20
11.2085749842
 30
0.0
 10
5.6555852979
 20
11.2096955822
 30
0.0
 10
5.6546547004
 20
11.2119847221
 30
0.0
 10
5.6528849115
 20
11.2137397124
 30
0.0
 10
5.6518052527
 20
11.2143971739
 30
0.0
  0
SPLINE
  5
701
100
AcDbEntity
  8
0
100
AcDbSpline
 62
7
  6
CONTINUOUS
 70
0
 71
3
 72
9
 73
5
 74
0
 42
0.0000001
 43
0.0000001
 44
0.0000000001
 40
0.0
 40
0.0
 40
0.0
 40
0.0
 40
0.4737065774
 40
1.0
 40
1.0
 40
1.0
 40
1.0
 10
6.4627888436
 20
11.3186445605
 30
0.0
 10
6.4629858374
 20
11.3175239625
 30
0.0
 10
6.4639164349
 20
11.3152348226
 30
0.0
 10
6.4656862239
 20
11.3134798324
 30
0.0
 10
6.4667658826
 20
11.3128223708
 30
0.0
  0
SPLINE
  5
702
100
AcDbEntity
  8
0
100
AcDbSpline
 62
7
  6
CONTINUOUS
 70
0
 71
3
 72
39
 73
35
 74
0
 42
0.0000001
 43
0.0000001
 44
0.0000000001
 40
0.0
 40
0.0
 40
0.0
 40
0.0
 40
0.0159824725
 40
0.031896912
 40
0.0477051627
 40
0.063403357
 40
0.0945002256
 40
0.1253848917
 40
0.1561627577
 40
0.1869077241
 40
0.2176749855
 40
0.248508099
 40
0.3104824308
 40
0.3416623051
 40
0.3729739172
 40
0.4044478929
 40
0.4361300653
 40
0.5000072317
 40
0.5638842726
 40
0.595566361
 40
0.6270402635
 40
0.6583518376
 40
0.6895316663
 40
0.7515058904
 40
0.7823389373
 40
0.8131061047
 40
0.843850454
 40
0.8746266582
 40
0.9055088242
 40
0.9366015572
 40
0.9522962203
 40
0.9681001432
 40
0.9840120084
 40
1.0
 40
1.0
 40
1.0
 40
1.0
 10
7.2344532103
 20
11.2636097724
 30
0.0
 10
7.2344531867
 20
11.2489457811
 30
0.0
 10
7.2313890464
 20
11.2195963857
 30
0.0
 10
7.2183359415
 20
11.1775718808
 30
0.0
 10
7.1985235822
 20
11.1386372718
 30
0.0
 10
7.1655231937
 20
11.0914515032
 30
0.0
 10
7.1151796944
 20
11.0403447721
 30
0.0
 10
7.0469189618
 20
10.989200852
 30
0.0
 10
6.9739142574
 20
10.9458410316
 30
0.0
 10
6.8977843505
 20
10.9086110487
 30
0.0
 10
6.8194034735
 20
10.8763124762
 30
0.0
 10
6.7124299878
 20
10.83862441
 30
0.0
 10
6.602824275
 20
10.8077224334
 30
0.0
 10
6.4916206646
 20
10.7817161867
 30
0.0
 10
6.4070909184
 20
10.7646655077
 30
0.0
 10
6.3214861356
 20
10.7509040976
 30
0.0
 10
6.2056184489
 20
10.7379044601
 30
0.0
 10
6.0592658254
 20
10.731770221
 30
0.0
 10
5.9129134298
 20
10.7379076994
 30
0.0
 10
5.797046253
 20
10.7509095799
 30
0.0
 10
5.7114419578
 20
10.7646728793
 30
0.0
 10
5.6269126171
 20
10.781724801
 30
0.0
 10
5.5157094441
 20
10.8077321244
 30
0.0
 10
5.4061043443
 20
10.8386357141
 30
0.0
 10
5.2991320878
 20
10.8763264792
 30
0.0
 10
5.2207523664
 20
10.9086260491
 30
0.0
 10
5.1446259979
 20
10.9458583184
 30
0.0
 10
5.0716264147
 20
10.9892182316
 30
0.0
 10
5.0033745061
 20
11.0403611257
 30
0.0
 10
4.953038786
 20
11.0914623471
 30
0.0
 10
4.9200465394
 20
11.1386402828
 30
0.0
 10
4.9002378908
 20
11.1775658898
 30
0.0
 10
4.8871836681
 20
11.2195885946
 30
0.0
 10
4.884117993
 20
11.2489407173
 30
0.0
 10
4.8841179251
 20
11.2636097724
 30
0.0
  0
SPLINE
  5
703
100
AcDbEntity
  8
0
100
AcDbSpline
 62
7
  6
CONTINUOUS
 70
0
 71
3
 72
33
 73
29
 74
0
 42
0.0000001
 43
0.0000001
 44
0.0000000001
 40
0.0
 40
0.0
 40
0.0
 40
0.0
 40
0.0160005828
 40
0.0319345753
 40
0.0633978374
 40
0.0944825173
 40
0.1253092629
 40
0.155995522
 40
0.1866295314
 40
0.2172802636
 40
0.248006579
 40
0.3098671602
 40
0.372531677
 40
0.4360057243
 40
0.5000076206
 40
0.5640094308
 40
0.6274833359
 40
0.6901476755
 40
0.7520080823
 40
0.7827343089
 40
0.8133848987
 40
0.8440180389
 40
0.8747025352
 40
0.9055263753
 40
0.9366066185
 40
0.9680623803
 40
0.983994206
 40
1.0
 40
1.0
 40
1.0
 40
1.0
 10
7.2466285691
 20
11.2636097724
 30
0.0
 10
7.2466285856
 20
11.2486787604
 30
0.0
 10
7.2438051307
 20
11.2188060413
 30
0.0
 10
7.2277071183
 20
11.1616067576
 30
0.0
 10
7.1912937139
 20
11.0968839816
 30
0.0
 10
7.1324433763
 20
11.0320368492
 30
0.0
 10
7.0649827038
 20
10.9776325892
 30
0.0
 10
6.9921821238
 20
10.9316108206
 30
0.0
 10
6.9157563271
 20
10.8923635696
 30
0.0
 10
6.8366638054
 20
10.8587849874
 30
0.0
 10
6.7281714868
 20
10.8204767872
 30
0.0
 10
6.5878378423
 20
10.7834417358
 30
0.0
 10
6.4147141768
 20
10.7539957062
 30
0.0
 10
6.2379695929
 20
10.7369848216
 30
0.0
 10
6.0592642373
 20
10.7311776847
 30
0.0
 10
5.8805591452
 20
10.7369879172
 30
0.0
 10
5.7038151114
 20
10.7540008034
 30
0.0
 10
5.5306925443
 20
10.7834505624
 30
0.0
 10
5.390359978
 20
10.8204883012
 30
0.0
 10
5.2818692894
 20
10.8587999091
 30
0.0
 10
5.2027783701
 20
10.892379779
 30
0.0
 10
5.1263572682
 20
10.9316304368
 30
0.0
 10
5.0535620018
 20
10.9776509586
 30
0.0
 10
4.9861112711
 20
11.032054008
 30
0.0
 10
4.9272722994
 20
11.0968925527
 30
0.0
 10
4.890866479
 20
11.1616038305
 30
0.0
 10
4.8747672224
 20
11.2187982739
 30
0.0
 10
4.8719425328
 20
11.2486738976
 30
0.0
 10
4.8719425662
 20
11.2636097724
 30
0.0
  0
SPLINE
  5
704
100
AcDbEntity
  8
0
100
AcDbSpline
 62
7
  6
CONTINUOUS
 70
0
 71
3
 72
15
 73
11
 74
0
 42
0.0000001
 43
0.0000001
 44
0.0000000001
 40
0.0
 40
0.0
 40
0.0
 40
0.0
 40
0.124944346
 40
0.2499205088
 40
0.3749201725
 40
0.4999422979
 40
0.6249842275
 40
0.7500120614
 40
0.875015344
 40
1.0
 40
1.0
 40
1.0
 40
1.0
 10
6.1352046613
 20
11.7426039137
 30
0.0
 10
6.1631131904
 20
11.7377713315
 30
0.0
 10
6.2181344932
 20
11.7228299051
 30
0.0
 10
6.2955018076
 20
11.6867483202
 30
0.0
 10
6.3657634255
 20
11.6381534452
 30
0.0
 10
6.4266243313
 20
11.5781657905
 30
0.0
 10
6.4761127453
 20
11.5084829869
 30
0.0
 10
6.5126204434
 20
11.4311982323
 30
0.0
 10
6.5349793562
 20
11.3487402338
 30
0.0
 10
6.5399926708
 20
11.2919427522
 30
0.0
 10
6.5399927512
 20
11.2636097754
 30
0.0
  0
SPLINE
  5
705
100
AcDbEntity
  8
0
100
AcDbSpline
 62
7
  6
CONTINUOUS
 70
0
 71
3
 72
15
 73
11
 74
0
 42
0.0000001
 43
0.0000001
 44
0.0000000001
 40
0.0
 40
0.0
 40
0.0
 40
0.0
 40
0.1249820419
 40
0.2499814854
 40
0.3750041887
 40
0.5000422181
 40
0.6250656771
 40
0.7500680584
 40
0.8750475161
 40
1.0
 40
1.0
 40
1.0
 40
1.0
 10
5.5785783842
 20
11.2636097758
 30
0.0
 10
5.5785784429
 20
11.291942292
 30
0.0
 10
5.5835916912
 20
11.3487385466
 30
0.0
 10
5.6059493988
 20
11.4311945527
 30
0.0
 10
5.6424554648
 20
11.508477174
 30
0.0
 10
5.6919411072
 20
11.5781603193
 30
0.0
 10
5.7528022886
 20
11.6381483568
 30
0.0
 10
5.8230645192
 20
11.6867459245
 30
0.0
 10
5.9004349734
 20
11.722829456
 30
0.0
 10
5.9554590513
 20
11.7377718458
 30
0.0
 10
5.9833695903
 20
11.7426044062
 30
0.0
  0
SPLINE
  5
706
100
AcDbEntity
  8
0
100
AcDbSpline
 62
7
  6
CONTINUOUS
 70
0
 71
3
 72
15
 73
11
 74
0
 42
0.0000001
 43
0.0000001
 44
0.0000000001
 40
0.0
 40
0.0
 40
0.0
 40
0.0
 40
0.124982045
 40
0.2499814925
 40
0.3750041998
 40
0.5000422274
 40
0.6250656815
 40
0.7500680603
 40
0.8750475169
 40
1.0
 40
1.0
 40
1.0
 40
1.0
 10
6.5399927512
 20
11.2636097754
 30
0.0
 10
6.5399926928
 20
11.2352772526
 30
0.0
 10
6.5349794428
 20
11.1784809844
 30
0.0
 10
6.5126217259
 20
11.0960249595
 30
0.0
 10
6.4761156438
 20
11.0187423242
 30
0.0
 10
6.4266299821
 20
10.9490591712
 30
0.0
 10
6.3657687797
 20
10.8890711326
 30
0.0
 10
6.2955065263
 20
10.8404735693
 30
0.0
 10
6.2181360483
 20
10.8043900499
 30
0.0
 10
6.163111956
 20
10.789447667
 30
0.0
 10
6.1352014094
 20
10.784615117
 30
0.0
  0
SPLINE
  5
707
100
AcDbEntity
  8
0
100
AcDbSpline
 62
7
  6
CONTINUOUS
 70
0
 71
3
 72
15
 73
11
 74
0
 42
0.0000001
 43
0.0000001
 44
0.0000000001
 40
0.0
 40
0.0
 40
0.0
 40
0.0
 40
0.1249484127
 40
0.2499274846
 40
0.3749280406
 40
0.4999482652
 40
0.6249849342
 40
0.7500101396
 40
0.8750132776
 40
1.0
 40
1.0
 40
1.0
 40
1.0
 10
5.9833664299
 20
10.784615638
 30
0.0
 10
5.9554569963
 20
10.7894483813
 30
0.0
 10
5.9004342177
 20
10.8043904187
 30
0.0
 10
5.8230653755
 20
10.840473112
 30
0.0
 10
5.7528044204
 20
10.8890696102
 30
0.0
 10
5.6919443381
 20
10.9490560477
 30
0.0
 10
5.6424583259
 20
11.0187378066
 30
0.0
 10
5.6059509434
 20
11.0960205967
 30
0.0
 10
5.5835919811
 20
11.1784784373
 30
0.0
 10
5.5785784642
 20
11.2352763338
 30
0.0
 10
5.5785783842
 20
11.2636097758
 30
0.0
  0
SPLINE
  5
708
100
AcDbEntity
  8
0
100
AcDbSpline
 62
7
  6
CONTINUOUS
 70
0
 71
3
 72
33
 73
29
 74
0
 42
0.0000001
 43
0.0000001
 44
0.0000000001
 40
0.0
 40
0.0
 40
0.0
 40
0.0
 40
0.0160005863
 40
0.0319345823
 40
0.0633978485
 40
0.0944825311
 40
0.1253092791
 40
0.1559955379
 40
0.1866295475
 40
0.2172802795
 40
0.2480065939
 40
0.3098671746
 40
0.3725316896
 40
0.4360057354
 40
0.5000076322
 40
0.5640094385
 40
0.6274833411
 40
0.6901476788
 40
0.7520080849
 40
0.7827343107
 40
0.8133848996
 40
0.8440180392
 40
0.8747025352
 40
0.905526375
 40
0.9366066183
 40
0.968062381
 40
0.9839942065
 40
1.0
 40
1.0
 40
1.0
 40
1.0
 10
4.8719425662
 20
11.2636097724
 30
0.0
 10
4.8719425495
 20
11.2785407876
 30
0.0
 10
4.8747660067
 20
11.3084135133
 30
0.0
 10
4.8908640227
 20
11.3656128069
 30
0.0
 10
4.9272774375
 20
11.4303355888
 30
0.0
 10
4.9861277849
 20
11.4951827247
 30
0.0
 10
5.053588471
 20
11.5495869748
 30
0.0
 10
5.1263890457
 20
11.5956087558
 30
0.0
 10
5.20281485
 20
11.6348559931
 30
0.0
 10
5.2819073708
 20
11.6684345741
 30
0.0
 10
5.3903996846
 20
11.7067427854
 30
0.0
 10
5.5307333333
 20
11.7437778123
 30
0.0
 10
5.7038569941
 20
11.7732238463
 30
0.0
 10
5.8806015734
 20
11.7902347472
 30
0.0
 10
6.0593069255
 20
11.796041925
 30
0.0
 10
6.2380120099
 20
11.790231608
 30
0.0
 10
6.4147560379
 20
11.7732187485
 30
0.0
 10
6.5878785985
 20
11.7437689741
 30
0.0
 10
6.7282111658
 20
11.7067312516
 30
0.0
 10
6.8367018513
 20
11.6684196396
 30
0.0
 10
6.9157927657
 20
11.6348397635
 30
0.0
 10
6.9922138691
 20
11.5955891114
 30
0.0
 10
7.0650091324
 20
11.5495685858
 30
0.0
 10
7.1324598632
 20
11.4951655375
 30
0.0
 10
7.1912988357
 20
11.4303269921
 30
0.0
 10
7.2277046559
 20
11.3656157134
 30
0.0
 10
7.2438039142
 20
11.30842127
 30
0.0
 10
7.2466286031
 20
11.2785456468
 30
0.0
 10
7.2466285691
 20
11.2636097724
 30
0.0
  0
SPLINE
  5
709
100
AcDbEntity
  8
0
100
AcDbSpline
 62
7
  6
CONTINUOUS
 70
0
 71
3
 72
15
 73
11
 74
0
 42
0.0000001
 43
0.0000001
 44
0.0000000001
 40
0.0
 40
0.0
 40
0.0
 40
0.0
 40
0.1249856456
 40
0.2499870406
 40
0.3750084882
 40
0.5000413362
 40
0.6250566954
 40
0.7500407023
 40
0.8750072696
 40
1.0
 40
1.0
 40
1.0
 40
1.0
 10
5.5685748321
 20
11.2636097724
 30
0.0
 10
5.5685749044
 20
11.2923979533
 30
0.0
 10
5.5736903818
 20
11.3501070256
 30
0.0
 10
5.5964481179
 20
11.4338765433
 30
0.0
 10
5.6335931029
 20
11.5123762463
 30
0.0
 10
5.6840108977
 20
11.5830907908
 30
0.0
 10
5.7462004402
 20
11.643708126
 30
0.0
 10
5.8183641888
 20
11.6920846649
 30
0.0
 10
5.8983793332
 20
11.7258866408
 30
0.0
 10
5.9548749082
 20
11.7384939178
 30
0.0
 10
5.983369767
 20
11.7426044342
 30
0.0
  0
SPLINE
  5
70A
100
AcDbEntity
  8
0
100
AcDbSpline
 62
7
  6
CONTINUOUS
 70
0
 71
3
 72
15
 73
11
 74
0
 42
0.0000001
 43
0.0000001
 44
0.0000000001
 40
0.0
 40
0.0
 40
0.0
 40
0.0
 40
0.1249817688
 40
0.2499426275
 40
0.3749237623
 40
0.4999399529
 40
0.6249815349
 40
0.7500100959
 40
0.8750145949
 40
1.0
 40
1.0
 40
1.0
 40
1.0
 10
6.1352046613
 20
11.7426039137
 30
0.0
 10
6.1636968322
 20
11.7384933959
 30
0.0
 10
6.2201883906
 20
11.7258874428
 30
0.0
 10
6.3001993343
 20
11.6920882836
 30
0.0
 10
6.3723624804
 20
11.643714924
 30
0.0
 10
6.4345544438
 20
11.5830983602
 30
0.0
 10
6.4849751435
 20
11.512381583
 30
0.0
 10
6.5221226783
 20
11.4338786459
 30
0.0
 10
6.544880774
 20
11.3501072086
 30
0.0
 10
6.549996204
 20
11.2923977626
 30
0.0
 10
6.5499963033
 20
11.2636097724
 30
0.0
  0
SPLINE
  5
70B
100
AcDbEntity
  8
0
100
AcDbSpline
 62
7
  6
CONTINUOUS
 70
0
 71
3
 72
39
 73
35
 74
0
 42
0.0000001
 43
0.0000001
 44
0.0000000001
 40
0.0
 40
0.0
 40
0.0
 40
0.0
 40
0.0159824765
 40
0.0318969196
 40
0.0477051724
 40
0.0634033689
 40
0.0945002395
 40
0.1253849081
 40
0.1561627735
 40
0.1869077406
 40
0.2176750016
 40
0.248508114
 40
0.310482445
 40
0.3416623195
 40
0.3729739311
 40
0.4044479052
 40
0.4361300771
 40
0.5000072449
 40
0.5638842805
 40
0.5955663664
 40
0.627040268
 40
0.6583518412
 40
0.6895316694
 40
0.7515058931
 40
0.782338939
 40
0.8131061056
 40
0.8438504544
 40
0.8746266583
 40
0.9055088239
 40
0.9366015569
 40
0.9522962204
 40
0.9681001438
 40
0.9840120088
 40
1.0
 40
1.0
 40
1.0
 40
1.0
 10
4.8841179251
 20
11.2636097724
 30
0.0
 10
4.8841179486
 20
11.2782737673
 30
0.0
 10
4.887182091
 20
11.3076231694
 30
0.0
 10
4.9002351997
 20
11.3496476827
 30
0.0
 10
4.9200475682
 20
11.3885822952
 30
0.0
 10
4.9530479606
 20
11.4357680679
 30
0.0
 10
5.0033914688
 20
11.4868748005
 30
0.0
 10
5.0716522168
 20
11.5380187045
 30
0.0
 10
5.1446569107
 20
11.581378547
 30
0.0
 10
5.2207868289
 20
11.618608508
 30
0.0
 10
5.2991677064
 20
11.6509070767
 30
0.0
 10
5.4061411945
 20
11.6885951279
 30
0.0
 10
5.5157468916
 20
11.7194971571
 30
0.0
 10
5.6269505149
 20
11.7455033464
 30
0.0
 10
5.7114802585
 20
11.7625540262
 30
0.0
 10
5.7970850345
 20
11.7763154635
 30
0.0
 10
5.9129527182
 20
11.7893151219
 30
0.0
 10
6.059305339
 20
11.7954493832
 30
0.0
 10
6.2056577262
 20
11.7893118381
 30
0.0
 10
6.3215248939
 20
11.7763099544
 30
0.0
 10
6.4071291858
 20
11.7625466575
 30
0.0
 10
6.4916585221
 20
11.7454947249
 30
0.0
 10
6.6028616968
 20
11.7194874179
 30
0.0
 10
6.7124667996
 20
11.6885838401
 30
0.0
 10
6.8194390446
 20
11.6508930495
 30
0.0
 10
6.8978187715
 20
11.6185934984
 30
0.0
 10
6.9739451328
 20
11.5813612177
 30
0.0
 10
7.0469447214
 20
11.5380013157
 30
0.0
 10
7.1151966235
 20
11.4868584137
 30
0.0
 10
7.1655323483
 20
11.4357571977
 30
0.0
 10
7.1985245966
 20
11.3885792617
 30
0.0
 10
7.2183332435
 20
11.3496536533
 30
0.0
 10
7.2313874692
 20
11.3076309495
 30
0.0
 10
7.2344531428
 20
11.278278827
 30
0.0
 10
7.2344532103
 20
11.2636097724
 30
0.0
  0
SPLINE
  5
70C
100
AcDbEntity
  8
0
100
AcDbSpline
 62
7
  6
CONTINUOUS
 70
0
 71
3
 72
15
 73
11
 74
0
 42
0.0000001
 43
0.0000001
 44
0.0000000001
 40
0.0
 40
0.0
 40
0.0
 40
0.0
 40
0.1249829532
 40
0.2499838068
 40
0.3750073354
 40
0.5000447781
 40
0.6250627964
 40
0.7500466941
 40
0.8750111042
 40
1.0
 40
1.0
 40
1.0
 40
1.0
 10
6.5499963033
 20
11.2636097724
 30
0.0
 10
6.549996231
 20
11.2348222034
 30
0.0
 10
6.5448808551
 20
11.1771138996
 30
0.0
 10
6.5221239224
 20
11.0933443746
 30
0.0
 10
6.4849779988
 20
11.0148435425
 30
0.0
 10
6.4345596851
 20
10.9441266505
 30
0.0
 10
6.3723679654
 20
10.8835089884
 30
0.0
 10
6.3002034414
 20
10.8351334968
 30
0.0
 10
6.220189445
 20
10.8013324962
 30
0.0
 10
6.1636952273
 20
10.788725467
 30
0.0
 10
6.1352012327
 20
10.784615089
 30
0.0
  0
SPLINE
  5
70D
100
AcDbEntity
  8
0
100
AcDbSpline
 62
7
  6
CONTINUOUS
 70
0
 71
3
 72
15
 73
11
 74
0
 42
0.0000001
 43
0.0000001
 44
0.0000000001
 40
0.0
 40
0.0
 40
0.0
 40
0.0
 40
0.1249817686
 40
0.2499426278
 40
0.3749237639
 40
0.4999399571
 40
0.6249815405
 40
0.7500100994
 40
0.8750145964
 40
1.0
 40
1.0
 40
1.0
 40
1.0
 10
5.9833664299
 20
10.784615638
 30
0.0
 10
5.9548742614
 20
10.7887261599
 30
0.0
 10
5.8983827067
 20
10.8013321116
 30
0.0
 10
5.8183717706
 20
10.8351312768
 30
0.0
 10
5.7462086315
 20
10.8835046384
 30
0.0
 10
5.6840166749
 20
10.9441212032
 30
0.0
 10
5.633595982
 20
11.0148379788
 30
0.0
 10
5.5964484524
 20
11.0933409116
 30
0.0
 10
5.5736903606
 20
11.1771123428
 30
0.0
 10
5.5685749314
 20
11.2348217843
 30
0.0
 10
5.5685748321
 20
11.2636097724
 30
0.0
  0
SPLINE
  5
70E
100
AcDbEntity
  8
0
100
AcDbSpline
 62
7
  6
CONTINUOUS
 70
0
 71
3
 72
9
 73
5
 74
0
 42
0.0000001
 43
0.0000001
 44
0.0000000001
 40
0.0
 40
0.0
 40
0.0
 40
0.0
 40
0.5079239208
 40
1.0
 40
1.0
 40
1.0
 40
1.0
 10
6.1355940893
 20
19.7811187106
 30
0.0
 10
6.131601401
 20
19.7725156428
 30
0.0
 10
6.12521813
 20
19.7548356414
 30
0.0
 10
6.1224409976
 20
19.7362229571
 30
0.0
 10
6.1220298334
 20
19.7270436607
 30
0.0
  0
SPLINE
  5
70F
100
AcDbEntity
  8
0
100
AcDbSpline
 62
7
  6
CONTINUOUS
 70
0
 71
3
 72
21
 73
17
 74
0
 42
0.0000001
 43
0.0000001
 44
0.0000000001
 40
0.0
 40
0.0
 40
0.0
 40
0.0
 40
0.0625527447
 40
0.1250922215
 40
0.1876422123
 40
0.2501863082
 40
0.3127289398
 40
0.3752684225
 40
0.5000298978
 40
0.6247856229
 40
0.6873221346
 40
0.749852782
 40
0.8123890854
 40
0.8749239635
 40
0.9374608794
 40
1.0
 40
1.0
 40
1.0
 40
1.0
 10
6.9119075145
 20
19.7818897299
 30
0.0
 10
6.9033115279
 20
19.8001655525
 30
0.0
 10
6.8835104023
 20
19.8355500043
 30
0.0
 10
6.8466407638
 20
19.8838661442
 30
0.0
 10
6.8033278485
 20
19.926515776
 30
0.0
 10
6.7544379596
 20
19.962630109
 30
0.0
 10
6.700937125
 20
19.9914927444
 30
0.0
 10
6.6250491844
 20
20.019502744
 30
0.0
 10
6.5238811869
 20
20.0339497837
 30
0.0
 10
6.4227176412
 20
20.0194793312
 30
0.0
 10
6.346842344
 20
19.9914545753
 30
0.0
 10
6.2933538531
 20
19.9625846438
 30
0.0
 10
6.2444802719
 20
19.9264675482
 30
0.0
 10
6.2011782876
 20
19.8838184779
 30
0.0
 10
6.1643245492
 20
19.8355031702
 30
0.0
 10
6.1445268909
 20
19.8001228656
 30
0.0
 10
6.1359355624
 20
19.7818497135
 30
0.0
  0
SPLINE
  5
710
100
AcDbEntity
  8
0
100
AcDbSpline
 62
7
  6
CONTINUOUS
 70
0
 71
3
 72
9
 73
5
 74
0
 42
0.0000001
 43
0.0000001
 44
0.0000000001
 40
0.0
 40
0.0
 40
0.0
 40
0.0
 40
0.4918337087
 40
1.0
 40
1.0
 40
1.0
 40
1.0
 10
6.9258331603
 20
19.7270436614
 30
0.0
 10
6.9254157755
 20
19.7363572781
 30
0.0
 10
6.9225677485
 20
19.7552517134
 30
0.0
 10
6.9160087334
 20
19.7731739673
 30
0.0
 10
6.9119080717
 20
19.7818900863
 30
0.0
  0
SPLINE
  5
711
100
AcDbEntity
  8
0
100
AcDbSpline
 62
7
  6
CONTINUOUS
 70
0
 71
3
 72
24
 73
20
 74
0
 42
0.0000001
 43
0.0000001
 44
0.0000000001
 40
0.0
 40
0.0
 40
0.0
 40
0.0
 40
0.0220318859
 40
0.044322463
 40
0.0908738583
 40
0.1418999775
 40
0.19851286
 40
0.2609025792
 40
0.3285542394
 40
0.4004488386
 40
0.4752262513
 40
0.5513197493
 40
0.6270742834
 40
0.700857522
 40
0.7711703077
 40
0.8367659223
 40
0.8968036091
 40
0.9510293861
 40
1.0
 40
1.0
 40
1.0
 40
1.0
 10
6.1220298334
 20
19.7270436607
 30
0.0
 10
6.1217153657
 20
19.7200231278
 30
0.0
 10
6.1222026002
 20
19.7058233219
 30
0.0
 10
6.1277208346
 20
19.6772643746
 30
0.0
 10
6.1436055152
 20
19.6418599376
 30
0.0
 10
6.1748640251
 20
19.6033394683
 30
0.0
 10
6.2172551662
 20
19.569001567
 30
0.0
 10
6.2693830104
 20
19.5397560978
 30
0.0
 10
6.3296121134
 20
19.5164073501
 30
0.0
 10
6.3960512768
 20
19.499659191
 30
0.0
 10
6.4665910999
 20
19.4900325267
 30
0.0
 10
6.538975846
 20
19.4878340792
 30
0.0
 10
6.610883502
 20
19.4931355302
 30
0.0
 10
6.6800078007
 20
19.5057698433
 30
0.0
 10
6.7441393094
 20
19.5253412841
 30
0.0
 10
6.8012411681
 20
19.5512431323
 30
0.0
 10
6.8495222127
 20
19.5827320412
 30
0.0
 10
6.8874385459
 20
19.6188991044
 30
0.0
 10
6.9056931399
 20
19.6468016749
 30
0.0
 10
6.9122688635
 20
19.6609704235
 30
0.0
  0
SPLINE
  5
712
100
AcDbEntity
  8
0
100
AcDbSpline
 62
7
  6
CONTINUOUS
 70
0
 71
3
 72
9
 73
5
 74
0
 42
0.0000001
 43
0.0000001
 44
0.0000000001
 40
0.0
 40
0.0
 40
0.0
 40
0.0
 40
0.5080620251
 40
1.0
 40
1.0
 40
1.0
 40
1.0
 10
6.9122688635
 20
19.6609704235
 30
0.0
 10
6.9171130139
 20
19.6714081417
 30
0.0
 10
6.9244753252
 20
19.6930700325
 30
0.0
 10
6.9263319751
 20
19.7159129937
 30
0.0
 10
6.9258331603
 20
19.7270436614
 30
0.0
  0
SPLINE
  5
713
100
AcDbEntity
  8
0
100
AcDbSpline
 62
7
  6
CONTINUOUS
 70
0
 71
3
 72
22
 73
18
 74
0
 42
0.0000001
 43
0.0000001
 44
0.0000000001
 40
0.0
 40
0.0
 40
0.0
 40
0.0
 40
0.1474200505
 40
0.3100078068
 40
0.4761689371
 40
0.6339992881
 40
0.7062535558
 40
0.7723516743
 40
0.8311903401
 40
0.8818643331
 40
0.9237413495
 40
0.9413069082
 40
0.9566500272
 40
0.9698804103
 40
0.9812150445
 40
0.9910468369
 40
1.0
 40
1.0
 40
1.0
 40
1.0
 10
4.8027921993
 20
19.1926820503
 30
0.0
 10
4.8027921993
 20
19.243317955
 30
0.0
 10
4.8075979971
 20
19.3498084488
 30
0.0
 10
4.8252312505
 20
19.5124927014
 30
0.0
 10
4.8526693038
 20
19.6774438439
 30
0.0
 10
4.8827699141
 20
19.810282998
 30
0.0
 10
4.9105844897
 20
19.9081639203
 30
0.0
 10
4.9317907703
 20
19.9725130192
 30
0.0
 10
4.9535385416
 20
20.0288133157
 30
0.0
 10
4.9754111438
 20
20.0760293016
 30
0.0
 10
4.9943402563
 20
20.1088871303
 30
0.0
 10
5.0095412394
 20
20.1296274051
 30
0.0
 10
5.0200648275
 20
20.1415152238
 30
0.0
 10
5.0303560262
 20
20.150636714
 30
0.0
 10
5.0404293528
 20
20.1569493629
 30
0.0
 10
5.050309492
 20
20.1603775918
 30
0.0
 10
5.0568874922
 20
20.1606000529
 30
0.0
 10
5.0599344664
 20
20.1601840869
 30
0.0
  0
SPLINE
  5
714
100
AcDbEntity
  8
0
100
AcDbSpline
 62
7
  6
CONTINUOUS
 70
0
 71
3
 72
9
 73
5
 74
0
 42
0.0000001
 43
0.0000001
 44
0.0000000001
 40
0.0
 40
0.0
 40
0.0
 40
0.0
 40
0.2410257089
 40
1.0
 40
1.0
 40
1.0
 40
1.0
 10
5.0298967515
 20
19.1550854464
 30
0.0
 10
5.0298967515
 20
19.1620345603
 30
0.0
 10
5.0300828489
 20
19.1908658594
 30
0.0
 10
5.0309732125
 20
19.2196911332
 30
0.0
 10
5.0319807128
 20
19.2415502354
 30
0.0
  0
LINE
  5
715
100
AcDbEntity
  8
0
100
AcDbLine
 62
7
  6
CONTINUOUS
 10
5.0319807128
 20
19.2415502354
 11
5.0320801712
 21
19.2436850012
  0
SPLINE
  5
716
100
AcDbEntity
  8
0
100
AcDbSpline
 62
7
  6
CONTINUOUS
 70
0
 71
3
 72
22
 73
18
 74
0
 42
0.0000001
 43
0.0000001
 44
0.0000000001
 40
0.0
 40
0.0
 40
0.0
 40
0.0
 40
0.1639936729
 40
0.3337937691
 40
0.499759548
 40
0.5783544328
 40
0.6525323865
 40
0.7212728707
 40
0.7836588583
 40
0.8389053517
 40
0.8863993048
 40
0.9257680508
 40
0.9570224918
 40
0.9698253009
 40
0.9809895732
 40
0.9908719329
 40
1.0
 40
1.0
 40
1.0
 40
1.0
 10
5.0345729732
 20
19.2874628378
 30
0.0
 10
5.0378524742
 20
19.3367918558
 30
0.0
 10
5.0475947295
 20
19.4370076253
 30
0.0
 10
5.0698676938
 20
19.5860672188
 30
0.0
 10
5.0945901596
 20
19.708580218
 30
0.0
 10
5.1176636722
 20
19.8018694169
 30
0.0
 10
5.1357461498
 20
19.8661659748
 30
0.0
 10
5.1546413459
 20
19.9251186232
 30
0.0
 10
5.1740622436
 20
19.9778627769
 30
0.0
 10
5.1937084664
 20
20.0236294645
 30
0.0
 10
5.2132833227
 20
20.0617965066
 30
0.0
 10
5.2324899629
 20
20.09183856
 30
0.0
 10
5.2489766098
 20
20.1110697057
 30
0.0
 10
5.2620387085
 20
20.121476055
 30
0.0
 10
5.2709961782
 20
20.1264861586
 30
0.0
 10
5.2797712684
 20
20.1291809277
 30
0.0
 10
5.2855910301
 20
20.129347236
 30
0.0
 10
5.2883226831
 20
20.1290151209
 30
0.0
  0
SPLINE
  5
717
100
AcDbEntity
  8
0
100
AcDbSpline
 62
7
  6
CONTINUOUS
 70
0
 71
3
 72
14
 73
10
 74
0
 42
0.0000001
 43
0.0000001
 44
0.0000000001
 40
0.0
 40
0.0
 40
0.0
 40
0.0
 40
0.3775638408
 40
0.5361094432
 40
0.6721822332
 40
0.7850089588
 40
0.8749311166
 40
0.9442918997
 40
1.0
 40
1.0
 40
1.0
 40
1.0
 10
29.7883125467
 20
15.8635857136
 30
0.0
 10
29.7883125467
 20
15.8585587717
 30
0.0
 10
29.7885354048
 20
15.8514110385
 30
0.0
 10
29.7895627995
 20
15.8425154973
 30
0.0
 10
29.790566769
 20
15.8371785922
 30
0.0
 10
29.7918321358
 20
15.832837105
 30
0.0
 10
29.7933504861
 20
15.8295290939
 30
0.0
 10
29.7951353558
 20
15.827234141
 30
0.0
 10
29.7966893237
 20
15.8264299531
 30
0.0
 10
29.7974201103
 20
15.8263031506
 30
0.0
  0
SPLINE
  5
718
100
AcDbEntity
  8
0
100
AcDbSpline
 62
7
  6
CONTINUOUS
 70
0
 71
3
 72
14
 73
10
 74
0
 42
0.0000001
 43
0.0000001
 44
0.0000000001
 40
0.0
 40
0.0
 40
0.0
 40
0.0
 40
0.3775638408
 40
0.5361094432
 40
0.6721822332
 40
0.7850089588
 40
0.8749311166
 40
0.9442918997
 40
1.0
 40
1.0
 40
1.0
 40
1.0
 10
29.5335733503
 20
15.3146977358
 30
0.0
 10
29.5335733503
 20
15.3096707938
 30
0.0
 10
29.5337962084
 20
15.3025230607
 30
0.0
 10
29.5348236031
 20
15.2936275195
 30
0.0
 10
29.5358275726
 20
15.2882906144
 30
0.0
 10
29.5370929394
 20
15.2839491272
 30
0.0
 10
29.5386112897
 20
15.2806411161
 30
0.0
 10
29.5403961594
 20
15.2783461632
 30
0.0
 10
29.5419501273
 20
15.2775419752
 30
0.0
 10
29.5426809138
 20
15.2774151728
 30
0.0
  0
SPLINE
  5
719
100
AcDbEntity
  8
0
100
AcDbSpline
 62
7
  6
CONTINUOUS
 70
0
 71
3
 72
10
 73
6
 74
0
 42
0.0000001
 43
0.0000001
 44
0.0000000001
 40
0.0
 40
0.0
 40
0.0
 40
0.0
 40
0.2084373189
 40
0.4700748496
 40
1.0
 40
1.0
 40
1.0
 40
1.0
 10
29.6033718901
 20
15.127562515
 30
0.0
 10
29.6025629315
 20
15.1258194473
 30
0.0
 10
29.6011839023
 20
15.1216879214
 30
0.0
 10
29.5991375076
 20
15.1127027306
 30
0.0
 10
29.5982771062
 20
15.1053973955
 30
0.0
 10
29.5982771062
 20
15.1005118732
 30
0.0
  0
SPLINE
  5
71A
100
AcDbEntity
  8
0
100
AcDbSpline
 62
7
  6
CONTINUOUS
 70
0
 71
3
 72
10
 73
6
 74
0
 42
0.0000001
 43
0.0000001
 44
0.0000000001
 40
0.0
 40
0.0
 40
0.0
 40
0.0
 40
0.6750170662
 40
0.8775539887
 40
1.0
 40
1.0
 40
1.0
 40
1.0
 10
29.5982771062
 20
15.0072891563
 30
0.0
 10
29.5982771062
 20
15.0052528038
 30
0.0
 10
29.5984122504
 20
15.0025595661
 30
0.0
 10
29.5992275262
 20
14.9996744854
 30
0.0
 10
29.5999975202
 20
14.9988702076
 30
0.0
 10
29.6003624965
 20
14.9988132879
 30
0.0
  0
SPLINE
  5
71B
100
AcDbEntity
  8
0
100
AcDbSpline
 62
7
  6
CONTINUOUS
 70
0
 71
3
 72
17
 73
13
 74
0
 42
0.0000001
 43
0.0000001
 44
0.0000000001
 40
0.0
 40
0.0
 40
0.0
 40
0.0
 40
0.1981050307
 40
0.3773754354
 40
0.535745131
 40
0.6717385545
 40
0.7845084619
 40
0.8743400518
 40
0.9113679934
 40
0.943887052
 40
0.9729332268
 40
1.0
 40
1.0
 40
1.0
 40
1.0
 10
29.8453259261
 20
16.0667971736
 30
0.0
 10
29.8453259261
 20
16.0858692387
 30
0.0
 10
29.8446883845
 20
16.1222053983
 30
0.0
 10
29.8415375514
 20
16.1737068293
 30
0.0
 10
29.8362904437
 20
16.2190273507
 30
0.0
 10
29.8290393919
 20
16.2575990764
 30
0.0
 10
29.8198956072
 20
16.2889390013
 30
0.0
 10
29.8102405227
 20
16.3100827565
 30
0.0
 10
29.8012771612
 20
16.322598544
 30
0.0
 10
29.7945278165
 20
16.329350557
 30
0.0
 10
29.7873044476
 20
16.3340326059
 30
0.0
 10
29.7820903746
 20
16.3357244261
 30
0.0
 10
29.7795227555
 20
16.336168781
 30
0.0
  0
SPLINE
  5
71C
100
AcDbEntity
  8
0
100
AcDbSpline
 62
7
  6
CONTINUOUS
 70
0
 71
3
 72
12
 73
8
 74
0
 42
0.0000001
 43
0.0000001
 44
0.0000000001
 40
0.0
 40
0.0
 40
0.0
 40
0.0
 40
0.0955501814
 40
0.2084163205
 40
0.4698998567
 40
0.747176681
 40
1.0
 40
1.0
 40
1.0
 40
1.0
 10
29.8209191638
 20
15.2009199452
 30
0.0
 10
29.8192863945
 20
15.1974018079
 30
0.0
 10
29.8161679683
 20
15.1895228212
 30
0.0
 10
29.81040972
 20
15.1713299677
 30
0.0
 10
29.8045241124
 20
15.145494612
 30
0.0
 10
29.7998766591
 20
15.1136785056
 30
0.0
 10
29.7985021145
 20
15.0921596907
 30
0.0
 10
29.7985021145
 20
15.0818971214
 30
0.0
  0
SPLINE
  5
71D
100
AcDbEntity
  8
AXIS
100
AcDbSpline
 62
7
  6
CONTINUOUS
 70
0
 71
3
 72
12
 73
8
 74
0
 42
0.0000001
 43
0.0000001
 44
0.0000000001
 40
0.0
 40
0.0
 40
0.0
 40
0.0
 40
0.3794034104
 40
0.6749005837
 40
0.7878988005
 40
0.8777897666
 40
1.0
 40
1.0
 40
1.0
 40
1.0
 10
29.4575161137
 20
14.5228193557
 30
0.0
 10
29.4575161137
 20
14.5200677194
 30
0.0
 10
29.4576834165
 20
14.5151696986
 30
0.0
 10
29.4584225426
 20
14.5094904003
 30
0.0
 10
29.4594618027
 20
14.5059989659
 30
0.0
 10
29.4604067197
 20
14.5038827051
 30
0.0
 10
29.4616452365
 20
14.5026134223
 30
0.0
 10
29.4625211178
 20
14.5024777029
 30
0.0
  0
SPLINE
  5
71E
100
AcDbEntity
  8
0
100
AcDbSpline
 62
7
  6
CONTINUOUS
 70
0
 71
3
 72
9
 73
5
 74
0
 42
0.0000001
 43
0.0000001
 44
0.0000000001
 40
0.0
 40
0.0
 40
0.0
 40
0.0
 40
0.247427698
 40
1.0
 40
1.0
 40
1.0
 40
1.0
 10
29.5519846409
 20
16.3755402145
 30
0.0
 10
29.5512797186
 20
16.3756622091
 30
0.0
 10
29.5484126109
 20
16.3760472926
 30
0.0
 10
29.545489173
 20
16.3759847637
 30
0.0
 10
29.5433306289
 20
16.3757100752
 30
0.0
  0
SPLINE
  5
71F
100
AcDbEntity
  8
0
100
AcDbSpline
 62
7
  6
CONTINUOUS
 70
0
 71
3
 72
20
 73
16
 74
0
 42
0.0000001
 43
0.0000001
 44
0.0000000001
 40
0.0
 40
0.0
 40
0.0
 40
0.0
 40
0.0201927966
 40
0.0326870557
 40
0.0470834518
 40
0.0819708944
 40
0.125165675
 40
0.1763839461
 40
0.2350327212
 40
0.3003089475
 40
0.3712525825
 40
0.5257062486
 40
0.6888096654
 40
0.8502888248
 40
1.0
 40
1.0
 40
1.0
 40
1.0
 10
29.542723677
 20
16.3756268573
 30
0.0
 10
29.5361390805
 20
16.37465938
 30
0.0
 10
29.5260225431
 20
16.3697549077
 30
0.0
 10
29.5140396282
 20
16.3599386631
 30
0.0
 10
29.499950671
 20
16.3451483884
 30
0.0
 10
29.4823370455
 20
16.3201263175
 30
0.0
 10
29.4618290169
 20
16.2827147159
 30
0.0
 10
29.4411429468
 20
16.2366574716
 30
0.0
 10
29.4206161858
 20
16.1826796653
 30
0.0
 10
29.4006029571
 20
16.1216302511
 30
0.0
 10
29.3743144697
 20
16.0294858124
 30
0.0
 10
29.3455028669
 20
15.9046334743
 30
0.0
 10
29.3185174774
 20
15.7489987298
 30
0.0
 10
29.3000352908
 20
15.5937034874
 30
0.0
 10
29.2937595451
 20
15.4912442595
 30
0.0
 10
29.2926269232
 20
15.4419143319
 30
0.0
  0
SPLINE
  5
720
100
AcDbEntity
  8
0
100
AcDbSpline
 62
7
  6
CONTINUOUS
 70
0
 71
3
 72
10
 73
6
 74
0
 42
0.0000001
 43
0.0000001
 44
0.0000000001
 40
0.0
 40
0.0
 40
0.0
 40
0.0
 40
0.3467045962
 40
0.6326801625
 40
1.0
 40
1.0
 40
1.0
 40
1.0
 10
29.5589738027
 20
14.6230061427
 30
0.0
 10
29.556621002
 20
14.6233273439
 30
0.0
 10
29.5525943197
 20
14.6199317646
 30
0.0
 10
29.5489574596
 20
14.6144468447
 30
0.0
 10
29.5468599246
 20
14.6104029627
 30
0.0
 10
29.5458008317
 20
14.6081209292
 30
0.0
  0
SPLINE
  5
721
100
AcDbEntity
  8
0
100
AcDbSpline
 62
7
  6
CONTINUOUS
 70
0
 71
3
 72
17
 73
13
 74
0
 42
0.0000001
 43
0.0000001
 44
0.0000000001
 40
0.0
 40
0.0
 40
0.0
 40
0.0
 40
0.0420188113
 40
0.0749443023
 40
0.1168790967
 40
0.167626767
 40
0.2265518464
 40
0.3650761615
 40
0.5231351437
 40
0.6895419285
 40
0.8523565491
 40
1.0
 40
1.0
 40
1.0
 40
1.0
 10
29.5691633679
 20
15.448605763
 30
0.0
 10
29.5671871437
 20
15.4488762557
 30
0.0
 10
29.5637329372
 20
15.4464685766
 30
0.0
 10
29.5604898524
 20
15.4421570497
 30
0.0
 10
29.5574500477
 20
15.4369511512
 30
0.0
 10
29.5544421604
 20
15.4304255962
 30
0.0
 10
29.5501887586
 20
15.4194236569
 30
0.0
 10
29.5453440208
 20
15.4032382996
 30
0.0
 10
29.5404747612
 20
15.3817928244
 30
0.0
 10
29.5366798646
 20
15.3589613229
 30
0.0
 10
29.5342382585
 20
15.3364453319
 30
0.0
 10
29.5335733503
 20
15.3217064302
 30
0.0
 10
29.5335733503
 20
15.3146977358
 30
0.0
  0
SPLINE
  5
722
100
AcDbEntity
  8
0
100
AcDbSpline
 62
7
  6
CONTINUOUS
 70
0
 71
3
 72
17
 73
13
 74
0
 42
0.0000001
 43
0.0000001
 44
0.0000000001
 40
0.0
 40
0.0
 40
0.0
 40
0.0
 40
0.0420188113
 40
0.0749443023
 40
0.1168790967
 40
0.167626767
 40
0.2265518464
 40
0.3650761615
 40
0.5231351437
 40
0.6895419285
 40
0.8523565491
 40
1.0
 40
1.0
 40
1.0
 40
1.0
 10
29.8239025644
 20
15.9974937408
 30
0.0
 10
29.8219263401
 20
15.9977642336
 30
0.0
 10
29.8184721336
 20
15.9953565544
 30
0.0
 10
29.8152290488
 20
15.9910450275
 30
0.0
 10
29.8121892441
 20
15.985839129
 30
0.0
 10
29.8091813568
 20
15.979313574
 30
0.0
 10
29.804927955
 20
15.9683116347
 30
0.0
 10
29.8000832173
 20
15.9521262775
 30
0.0
 10
29.7952139576
 20
15.9306808022
 30
0.0
 10
29.791419061
 20
15.9078493007
 30
0.0
 10
29.7889774549
 20
15.8853333098
 30
0.0
 10
29.7883125467
 20
15.870594408
 30
0.0
 10
29.7883125467
 20
15.8635857136
 30
0.0
  0
SPLINE
  5
723
100
AcDbEntity
  8
AXIS
100
AcDbSpline
 62
7
  6
CONTINUOUS
 70
0
 71
3
 72
9
 73
5
 74
0
 42
0.0000001
 43
0.0000001
 44
0.0000000001
 40
0.0
 40
0.0
 40
0.0
 40
0.0
 40
0.5197909777
 40
1.0
 40
1.0
 40
1.0
 40
1.0
 10
29.4622051552
 20
14.5632940091
 30
0.0
 10
29.4607112878
 20
14.5563850572
 30
0.0
 10
29.4585133614
 20
14.5429457109
 30
0.0
 10
29.4575161137
 20
14.5293496935
 30
0.0
 10
29.4575161137
 20
14.5228193557
 30
0.0
  0
SPLINE
  5
724
100
AcDbEntity
  8
0
100
AcDbSpline
 62
7
  6
CONTINUOUS
 70
0
 71
3
 72
19
 73
15
 74
0
 42
0.0000001
 43
0.0000001
 44
0.0000000001
 40
0.0
 40
0.0
 40
0.0
 40
0.0
 40
0.0184585297
 40
0.0426242504
 40
0.0751814293
 40
0.1167850755
 40
0.1672629201
 40
0.2259857727
 40
0.2920488756
 40
0.3643430709
 40
0.5224403458
 40
0.6890463919
 40
0.8521253957
 40
1.0
 40
1.0
 40
1.0
 40
1.0
 10
29.7974201103
 20
15.8263031506
 30
0.0
 10
29.7982852429
 20
15.8261530371
 30
0.0
 10
29.8004082551
 20
15.8265813416
 30
0.0
 10
29.8032326702
 20
15.8288709303
 30
0.0
 10
29.8061423053
 20
15.8325548369
 30
0.0
 10
29.8091328776
 20
15.8376909242
 30
0.0
 10
29.8121696153
 20
15.8441965075
 30
0.0
 10
29.8151911703
 20
15.8519721259
 30
0.0
 10
29.8181397122
 20
15.8608746851
 30
0.0
 10
29.8220099513
 20
15.8744387327
 30
0.0
 10
29.8262000529
 20
15.8928679158
 30
0.0
 10
29.8300202313
 20
15.9157670895
 30
0.0
 10
29.8324768831
 20
15.9383626173
 30
0.0
 10
29.8331466453
 20
15.9531557046
 30
0.0
 10
29.8331466453
 20
15.9601899977
 30
0.0
  0
SPLINE
  5
725
100
AcDbEntity
  8
0
100
AcDbSpline
 62
7
  6
CONTINUOUS
 70
0
 71
3
 72
14
 73
10
 74
0
 42
0.0000001
 43
0.0000001
 44
0.0000000001
 40
0.0
 40
0.0
 40
0.0
 40
0.0
 40
0.3790077563
 40
0.5378473565
 40
0.6739013419
 40
0.7864029554
 40
0.8757551661
 40
0.9444924717
 40
1.0
 40
1.0
 40
1.0
 40
1.0
 10
29.8331466453
 20
15.9601899977
 30
0.0
 10
29.8331466453
 20
15.9652532718
 30
0.0
 10
29.8329211004
 20
15.9724487169
 30
0.0
 10
29.8318771014
 20
15.9813961956
 30
0.0
 10
29.8308580437
 20
15.9867484262
 30
0.0
 10
29.8295737223
 20
15.9910882699
 30
0.0
 10
29.8280332779
 20
15.9943776095
 30
0.0
 10
29.8262155164
 20
15.9966411751
 30
0.0
 10
29.8246372554
 20
15.997393181
 30
0.0
 10
29.8239025644
 20
15.9974937408
 30
0.0
  0
SPLINE
  5
726
100
AcDbEntity
  8
AXIS
100
AcDbSpline
 62
7
  6
CONTINUOUS
 70
0
 71
3
 72
15
 73
11
 74
0
 42
0.0000001
 43
0.0000001
 44
0.0000000001
 40
0.0
 40
0.0
 40
0.0
 40
0.0
 40
0.0415792523
 40
0.0720120193
 40
0.1102463565
 40
0.210118752
 40
0.3384841515
 40
0.4895490132
 40
0.6558680132
 40
1.0
 40
1.0
 40
1.0
 40
1.0
 10
29.4625211178
 20
14.5024777029
 30
0.0
 10
29.4633844027
 20
14.5023439354
 30
0.0
 10
29.4649258274
 20
14.5031533226
 30
0.0
 10
29.4664508657
 20
14.5048458423
 30
0.0
 10
29.4684686897
 20
14.5077888587
 30
0.0
 10
29.4708638685
 20
14.5128641385
 30
0.0
 10
29.4735565632
 20
14.5203735835
 30
0.0
 10
29.4760706887
 20
14.529402175
 30
0.0
 10
29.4790470378
 20
14.5429820995
 30
0.0
 10
29.4805799172
 20
14.553620508
 30
0.0
 10
29.4812419911
 20
14.5608204025
 30
0.0
  0
SPLINE
  5
727
100
AcDbEntity
  8
0
100
AcDbSpline
 62
7
  6
CONTINUOUS
 70
0
 71
3
 72
23
 73
19
 74
0
 42
0.0000001
 43
0.0000001
 44
0.0000000001
 40
0.0
 40
0.0
 40
0.0
 40
0.0
 40
0.0089273719
 40
0.0186573597
 40
0.0298457242
 40
0.0429107239
 40
0.0580854073
 40
0.0754889677
 40
0.1170813236
 40
0.1675408604
 40
0.2262426557
 40
0.2922814428
 40
0.3645493159
 40
0.4417850041
 40
0.5226125736
 40
0.6891556762
 40
0.8521868708
 40
1.0
 40
1.0
 40
1.0
 40
1.0
 10
29.7795227555
 20
16.336168781
 30
0.0
 10
29.7764983234
 20
16.3366921926
 30
0.0
 10
29.769951016
 20
16.3367050485
 30
0.0
 10
29.7600525249
 20
16.3335763956
 30
0.0
 10
29.7499648261
 20
16.3275284193
 30
0.0
 10
29.7396610527
 20
16.3186478319
 30
0.0
 10
29.7291225451
 20
16.3069791972
 30
0.0
 10
29.7138807793
 20
16.2864990114
 30
0.0
 10
29.6948963196
 20
16.2538884087
 30
0.0
 10
29.672955331
 20
16.2068883232
 30
0.0
 10
29.6511229986
 20
16.1507075111
 30
0.0
 10
29.6298230216
 20
16.0863854237
 30
0.0
 10
29.6094757415
 20
16.0151070057
 30
0.0
 10
29.5904742699
 20
15.9382125129
 30
0.0
 10
29.5672010956
 20
15.8290456338
 30
0.0
 10
29.5439844918
 20
15.6897736145
 30
0.0
 10
29.5262329934
 20
15.5265240574
 30
0.0
 10
29.5213940695
 20
15.4196401607
 30
0.0
 10
29.5213940695
 20
15.3688193822
 30
0.0
  0
SPLINE
  5
728
100
AcDbEntity
  8
0
100
AcDbSpline
 62
7
  6
CONTINUOUS
 70
0
 71
3
 72
14
 73
10
 74
0
 42
0.0000001
 43
0.0000001
 44
0.0000000001
 40
0.0
 40
0.0
 40
0.0
 40
0.0
 40
0.3790077563
 40
0.5378473565
 40
0.6739013419
 40
0.7864029554
 40
0.8757551661
 40
0.9444924717
 40
1.0
 40
1.0
 40
1.0
 40
1.0
 10
29.5784074488
 20
15.4113020199
 30
0.0
 10
29.5784074488
 20
15.416365294
 30
0.0
 10
29.578181904
 20
15.4235607391
 30
0.0
 10
29.577137905
 20
15.4325082178
 30
0.0
 10
29.5761188473
 20
15.4378604484
 30
0.0
 10
29.5748345259
 20
15.4422002921
 30
0.0
 10
29.5732940815
 20
15.4454896317
 30
0.0
 10
29.57147632
 20
15.4477531973
 30
0.0
 10
29.569898059
 20
15.4485052032
 30
0.0
 10
29.5691633679
 20
15.448605763
 30
0.0
  0
SPLINE
  5
729
100
AcDbEntity
  8
0
100
AcDbSpline
 62
7
  6
CONTINUOUS
 70
0
 71
3
 72
10
 73
6
 74
0
 42
0.0000001
 43
0.0000001
 44
0.0000000001
 40
0.0
 40
0.0
 40
0.0
 40
0.0
 40
0.3456359902
 40
0.632382567
 40
1.0
 40
1.0
 40
1.0
 40
1.0
 10
29.6003624965
 20
14.9988132879
 30
0.0
 10
29.6008956066
 20
14.9987301469
 30
0.0
 10
29.6018235039
 20
14.9995009583
 30
0.0
 10
29.6026498105
 20
15.0007507656
 30
0.0
 10
29.6031303069
 20
15.0016734931
 30
0.0
 10
29.6033718901
 20
15.0021940336
 30
0.0
  0
SPLINE
  5
72A
100
AcDbEntity
  8
0
100
AcDbSpline
 62
7
  6
CONTINUOUS
 70
0
 71
3
 72
14
 73
10
 74
0
 42
0.0000001
 43
0.0000001
 44
0.0000000001
 40
0.0
 40
0.0
 40
0.0
 40
0.0
 40
0.3790186838
 40
0.5378095415
 40
0.6738909575
 40
0.7864228665
 40
0.8757541516
 40
0.9444973612
 40
1.0
 40
1.0
 40
1.0
 40
1.0
 10
29.568217881
 20
14.5857023894
 30
0.0
 10
29.568217881
 20
14.590765854
 30
0.0
 10
29.567992342
 20
14.597960829
 30
0.0
 10
29.5669484408
 20
14.6069083183
 30
0.0
 10
29.5659289434
 20
14.6122605282
 30
0.0
 10
29.5646458077
 20
14.6166014452
 30
0.0
 10
29.5631038936
 20
14.6198901904
 30
0.0
 10
29.5612872066
 20
14.6221544142
 30
0.0
 10
29.5597084705
 20
14.6229058468
 30
0.0
 10
29.5589738027
 20
14.6230061427
 30
0.0
  0
SPLINE
  5
72B
100
AcDbEntity
  8
0
100
AcDbSpline
 62
7
  6
CONTINUOUS
 70
0
 71
3
 72
19
 73
15
 74
0
 42
0.0000001
 43
0.0000001
 44
0.0000000001
 40
0.0
 40
0.0
 40
0.0
 40
0.0
 40
0.0184585297
 40
0.0426242504
 40
0.0751814293
 40
0.1167850755
 40
0.1672629201
 40
0.2259857727
 40
0.2920488756
 40
0.3643430709
 40
0.5224403458
 40
0.6890463919
 40
0.8521253957
 40
1.0
 40
1.0
 40
1.0
 40
1.0
 10
29.5426809138
 20
15.2774151728
 30
0.0
 10
29.5435460465
 20
15.2772650593
 30
0.0
 10
29.5456690586
 20
15.2776933638
 30
0.0
 10
29.5484934738
 20
15.2799829525
 30
0.0
 10
29.5514031089
 20
15.2836668591
 30
0.0
 10
29.5543936812
 20
15.2888029464
 30
0.0
 10
29.5574304189
 20
15.2953085297
 30
0.0
 10
29.5604519739
 20
15.3030841481
 30
0.0
 10
29.5634005158
 20
15.3119867073
 30
0.0
 10
29.5672707548
 20
15.3255507549
 30
0.0
 10
29.5714608565
 20
15.343979938
 30
0.0
 10
29.5752810348
 20
15.3668791117
 30
0.0
 10
29.5777376867
 20
15.3894746395
 30
0.0
 10
29.5784074488
 20
15.4042677268
 30
0.0
 10
29.5784074488
 20
15.4113020199
 30
0.0
  0
SPLINE
  5
72C
100
AcDbEntity
  8
0
100
AcDbSpline
 62
7
  6
CONTINUOUS
 70
0
 71
3
 72
9
 73
5
 74
0
 42
0.0000001
 43
0.0000001
 44
0.0000000001
 40
0.0
 40
0.0
 40
0.0
 40
0.0
 40
0.256778707
 40
1.0
 40
1.0
 40
1.0
 40
1.0
 10
7.9608372501
 20
19.7138055387
 30
0.0
 10
7.9600709596
 20
19.7142198107
 30
0.0
 10
7.9570259163
 20
19.715716876
 30
0.0
 10
7.953725408
 20
19.7167038548
 30
0.0
 10
7.9512337522
 20
19.7170895252
 30
0.0
  0
SPLINE
  5
72D
100
AcDbEntity
  8
0
100
AcDbSpline
 62
7
  6
CONTINUOUS
 70
0
 71
3
 72
9
 73
5
 74
0
 42
0.0000001
 43
0.0000001
 44
0.0000000001
 40
0.0
 40
0.0
 40
0.0
 40
0.0
 40
0.2384273304
 40
1.0
 40
1.0
 40
1.0
 40
1.0
 10
7.7071843816
 20
18.77621813
 30
0.0
 10
7.7071843816
 20
18.7848430274
 30
0.0
 10
7.707504519
 20
18.821016914
 30
0.0
 10
7.7090093978
 20
18.8571762531
 30
0.0
 10
7.7106880636
 20
18.8846742786
 30
0.0
  0
SPLINE
  5
72E
100
AcDbEntity
  8
0
100
AcDbSpline
 62
7
  6
CONTINUOUS
 70
0
 71
3
 72
10
 73
6
 74
0
 42
0.0000001
 43
0.0000001
 44
0.0000000001
 40
0.0
 40
0.0
 40
0.0
 40
0.0
 40
0.5499516372
 40
0.7901527503
 40
1.0
 40
1.0
 40
1.0
 40
1.0
 10
7.7652435152
 20
19.2717239404
 30
0.0
 10
7.7767330626
 20
19.3241698693
 30
0.0
 10
7.7956511362
 20
19.3990754522
 30
0.0
 10
7.8262240933
 20
19.4918223835
 30
0.0
 10
7.8423904271
 20
19.5327232463
 30
0.0
 10
7.8507280262
 20
19.5514364812
 30
0.0
  0
SPLINE
  5
72F
100
AcDbEntity
  8
AXIS
100
AcDbSpline
 62
7
  6
CONTINUOUS
 70
0
 71
3
 72
9
 73
5
 74
0
 42
0.0000001
 43
0.0000001
 44
0.0000000001
 40
0.0
 40
0.0
 40
0.0
 40
0.0
 40
0.2533280578
 40
1.0
 40
1.0
 40
1.0
 40
1.0
 10
6.9232319681
 20
19.5842703333
 30
0.0
 10
6.9240514571
 20
19.5860360908
 30
0.0
 10
6.9271631858
 20
19.5930626391
 30
0.0
 10
6.9297714614
 20
19.6003136701
 30
0.0
 10
6.9314006604
 20
19.6058151726
 30
0.0
  0
SPLINE
  5
730
100
AcDbEntity
  8
AXIS
100
AcDbSpline
 62
7
  6
CONTINUOUS
 70
0
 71
3
 72
9
 73
5
 74
0
 42
0.0000001
 43
0.0000001
 44
0.0000000001
 40
0.0
 40
0.0
 40
0.0
 40
0.0
 40
0.2534025257
 40
1.0
 40
1.0
 40
1.0
 40
1.0
 10
6.9314006604
 20
19.6058151726
 30
0.0
 10
6.9323777157
 20
19.6091145068
 30
0.0
 10
6.9357882895
 20
19.6222616378
 30
0.0
 10
6.9373176576
 20
19.6359023374
 30
0.0
 10
6.9373173735
 20
19.6460404215
 30
0.0
  0
SPLINE
  5
731
100
AcDbEntity
  8
AXIS
100
AcDbSpline
 62
7
  6
CONTINUOUS
 70
0
 71
3
 72
9
 73
5
 74
0
 42
0.0000001
 43
0.0000001
 44
0.0000000001
 40
0.0
 40
0.0
 40
0.0
 40
0.0
 40
0.2481360878
 40
1.0
 40
1.0
 40
1.0
 40
1.0
 10
6.1105455792
 20
19.6460404236
 30
0.0
 10
6.1105456736
 20
19.6426739706
 30
0.0
 10
6.1110400346
 20
19.6291099749
 30
0.0
 10
6.1135553745
 20
19.6156321014
 30
0.0
 10
6.1164503538
 20
19.6058510233
 30
0.0
  0
SPLINE
  5
732
100
AcDbEntity
  8
AXIS
100
AcDbSpline
 62
7
  6
CONTINUOUS
 70
0
 71
3
 72
20
 73
16
 74
0
 42
0.0000001
 43
0.0000001
 44
0.0000000001
 40
0.0
 40
0.0
 40
0.0
 40
0.0
 40
0.0457567348
 40
0.0956209579
 40
0.1505695454
 40
0.2108331582
 40
0.2760550053
 40
0.3454462451
 40
0.4919820637
 40
0.640057869
 40
0.7786797494
 40
0.8417288245
 40
0.8995940681
 40
0.9521700646
 40
1.0
 40
1.0
 40
1.0
 40
1.0
 10
6.1164503538
 20
19.6058510233
 30
0.0
 10
6.1205047703
 20
19.5921526304
 30
0.0
 10
6.1331671981
 20
19.5646687341
 30
0.0
 10
6.1627109241
 20
19.5276573077
 30
0.0
 10
6.2023433551
 20
19.4942746805
 30
0.0
 10
6.2509095737
 20
19.4653312865
 30
0.0
 10
6.3070814914
 20
19.4415206689
 30
0.0
 10
6.3915467565
 20
19.417046135
 30
0.0
 10
6.5052174457
 20
19.4032390672
 30
0.0
 10
6.6408853914
 20
19.4125690331
 30
0.0
 10
6.7471843189
 20
19.4417887188
 30
0.0
 10
6.819999815
 20
19.4778553938
 30
0.0
 10
6.8646733614
 20
19.5089130057
 30
0.0
 10
6.8998564951
 20
19.5440187412
 30
0.0
 10
6.9169455411
 20
19.5707249337
 30
0.0
 10
6.9232319681
 20
19.5842703333
 30
0.0
  0
LINE
  5
733
100
AcDbEntity
  8
0
100
AcDbLine
 62
7
  6
CONTINUOUS
 10
5.2888507713
 20
20.1289462431
 11
5.2887356581
 21
20.1289622139
  0
SPLINE
  5
734
100
AcDbEntity
  8
0
100
AcDbSpline
 62
7
  6
CONTINUOUS
 70
0
 71
3
 72
21
 73
17
 74
0
 42
0.0000001
 43
0.0000001
 44
0.0000000001
 40
0.0
 40
0.0
 40
0.0
 40
0.0
 40
0.0193036485
 40
0.0310098881
 40
0.0444796586
 40
0.0598830677
 40
0.0773071779
 40
0.1183033367
 40
0.1673747301
 40
0.2240537901
 40
0.2876489754
 40
0.3573047229
 40
0.5107514052
 40
0.6755196234
 40
0.8418820975
 40
1.0
 40
1.0
 40
1.0
 40
1.0
 10
5.2848740845
 20
20.1292229449
 30
0.0
 10
5.2788282175
 20
20.1292215331
 30
0.0
 10
5.2691257777
 20
20.1260298369
 30
0.0
 10
5.257608411
 20
20.1182134529
 30
0.0
 10
5.2481519671
 20
20.1096472374
 30
0.0
 10
5.2385304181
 20
20.0987769512
 30
0.0
 10
5.2247019281
 20
20.0802180029
 30
0.0
 10
5.2074406179
 20
20.0512234771
 30
0.0
 10
5.1874067835
 20
20.0098224275
 30
0.0
 10
5.1673971103
 20
19.960670509
 30
0.0
 10
5.1477251742
 20
19.9045115037
 30
0.0
 10
5.1215243053
 20
19.8186051476
 30
0.0
 10
5.092279245
 20
19.7006068609
 30
0.0
 10
5.0639500846
 20
19.5514378053
 30
0.0
 10
5.0431602495
 20
19.399558182
 30
0.0
 10
5.0347694453
 20
19.2982087602
 30
0.0
 10
5.0323245165
 20
19.2487469151
 30
0.0
  0
LINE
  5
735
100
AcDbEntity
  8
0
100
AcDbLine
 62
7
  6
CONTINUOUS
 10
6.1289419567
 20
19.7880201472
 11
6.1283745994
 21
19.7874926631
  0
SPLINE
  5
736
100
AcDbEntity
  8
0
100
AcDbSpline
 62
7
  6
CONTINUOUS
 70
0
 71
3
 72
9
 73
5
 74
0
 42
0.0000001
 43
0.0000001
 44
0.0000000001
 40
0.0
 40
0.0
 40
0.0
 40
0.0
 40
0.2661154178
 40
1.0
 40
1.0
 40
1.0
 40
1.0
 10
6.1283745994
 20
19.7874926631
 30
0.0
 10
6.122523729
 20
19.7820389354
 30
0.0
 10
6.1013710893
 20
19.7607043035
 30
0.0
 10
6.0837828483
 20
19.7355742196
 30
0.0
 10
6.0744970329
 20
19.7155660211
 30
0.0
  0
SPLINE
  5
737
100
AcDbEntity
  8
0
100
AcDbSpline
 62
7
  6
CONTINUOUS
 70
0
 71
3
 72
17
 73
13
 74
0
 42
0.0000001
 43
0.0000001
 44
0.0000000001
 40
0.0
 40
0.0
 40
0.0
 40
0.0
 40
0.0469787617
 40
0.0954841749
 40
0.1466176514
 40
0.2007963694
 40
0.3176674654
 40
0.4438954783
 40
0.5768463492
 40
0.7146267461
 40
0.855964216
 40
1.0
 40
1.0
 40
1.0
 40
1.0
 10
5.3770449272
 20
19.9922241614
 30
0.0
 10
5.3799809262
 20
19.9985503912
 30
0.0
 10
5.3876005248
 20
20.0107029622
 30
0.0
 10
5.4032701554
 20
20.0260435175
 30
0.0
 10
5.4224844095
 20
20.0386001445
 30
0.0
 10
5.4526361974
 20
20.0522124066
 30
0.0
 10
5.4957492609
 20
20.0629668255
 30
0.0
 10
5.5513629413
 20
20.0687505137
 30
0.0
 10
5.6103569628
 20
20.0693557499
 30
0.0
 10
5.6714668883
 20
20.0659775291
 30
0.0
 10
5.7339701779
 20
20.0594981327
 30
0.0
 10
5.7759313116
 20
20.0536000158
 30
0.0
 10
5.7970630653
 20
20.0503308731
 30
0.0
  0
SPLINE
  5
738
100
AcDbEntity
  8
AXIS
100
AcDbSpline
 62
7
  6
CONTINUOUS
 70
0
 71
3
 72
9
 73
5
 74
0
 42
0.0000001
 43
0.0000001
 44
0.0000000001
 40
0.0
 40
0.0
 40
0.0
 40
0.0
 40
0.2474076575
 40
1.0
 40
1.0
 40
1.0
 40
1.0
 10
6.9373173735
 20
19.6460404215
 30
0.0
 10
6.937317262
 20
19.6500208923
 30
0.0
 10
6.9366254322
 20
19.6661056667
 30
0.0
 10
6.9330842581
 20
19.6820394638
 30
0.0
 10
6.9290724675
 20
19.693463783
 30
0.0
  0
SPLINE
  5
739
100
AcDbEntity
  8
0
100
AcDbSpline
 62
7
  6
CONTINUOUS
 70
0
 71
3
 72
34
 73
30
 74
0
 42
0.0000001
 43
0.0000001
 44
0.0000000001
 40
0.0
 40
0.0
 40
0.0
 40
0.0
 40
0.0111100247
 40
0.0238910288
 40
0.0380098478
 40
0.0530768211
 40
0.0848661175
 40
0.1177322509
 40
0.1509855783
 40
0.1843204154
 40
0.2507421933
 40
0.3166238655
 40
0.3820197788
 40
0.4471550389
 40
0.5122513477
 40
0.5774371491
 40
0.6426732688
 40
0.7077749384
 40
0.7724273138
 40
0.8044370332
 40
0.8360980171
 40
0.8672526824
 40
0.8976524687
 40
0.9268830518
 40
0.9542365599
 40
0.9669064578
 40
0.9787186672
 40
0.9896611369
 40
1.0
 40
1.0
 40
1.0
 40
1.0
 10
7.6708180256
 20
19.6373872104
 30
0.0
 10
7.6666213811
 20
19.6283446198
 30
0.0
 10
7.6550503962
 20
19.6100787191
 30
0.0
 10
7.6322319998
 20
19.5846172284
 30
0.0
 10
7.6040112021
 20
19.5595883772
 30
0.0
 10
7.5601653124
 20
19.5267916499
 30
0.0
 10
7.4990243181
 20
19.4893930003
 30
0.0
 10
7.4207150078
 20
19.449461989
 30
0.0
 10
7.3389512508
 20
19.4135954722
 30
0.0
 10
7.2274540939
 20
19.3709295878
 30
0.0
 10
7.0853754614
 20
19.3266872939
 30
0.0
 10
6.9120220591
 20
19.2880013164
 30
0.0
 10
6.7368450165
 20
19.2661360862
 30
0.0
 10
6.561021758
 20
19.2624056587
 30
0.0
 10
6.3859719707
 20
19.2783797523
 30
0.0
 10
6.2141966724
 20
19.3160789494
 30
0.0
 10
6.0477736968
 20
19.372637135
 30
0.0
 10
5.8885773824
 20
19.4459450015
 30
0.0
 10
5.7632883644
 20
19.5197352961
 30
0.0
 10
5.6685260231
 20
19.5852068824
 30
0.0
 10
5.6010354596
 20
19.6370908066
 30
0.0
 10
5.5376678687
 20
19.6917573292
 30
0.0
 10
5.4796554026
 20
19.7490724668
 30
0.0
 10
5.4291494912
 20
19.8087065958
 30
0.0
 10
5.3951606233
 20
19.8611665231
 30
0.0
 10
5.3767880154
 20
19.9040369788
 30
0.0
 10
5.3689371257
 20
19.9350246926
 30
0.0
 10
5.36802435
 20
19.9650133058
 30
0.0
 10
5.3731395341
 20
19.9838092492
 30
0.0
 10
5.3770449272
 20
19.9922241614
 30
0.0
  0
SPLINE
  5
73A
100
AcDbEntity
  8
0
100
AcDbSpline
 62
7
  6
CONTINUOUS
 70
0
 71
3
 72
11
 73
7
 74
0
 42
0.0000001
 43
0.0000001
 44
0.0000000001
 40
0.0
 40
0.0
 40
0.0
 40
0.0
 40
0.2649256563
 40
0.5211182217
 40
0.7671714827
 40
1.0
 40
1.0
 40
1.0
 40
1.0
 10
6.9764649454
 20
19.8390903537
 30
0.0
 10
7.017655758
 20
19.8354397533
 30
0.0
 10
7.0986709506
 20
19.828166665
 30
0.0
 10
7.2179157486
 20
19.8171787649
 30
0.0
 10
7.3320442899
 20
19.8053776156
 30
0.0
 10
7.4061378334
 20
19.795171428
 30
0.0
 10
7.441930963
 20
19.7888778651
 30
0.0
  0
LINE
  5
73B
100
AcDbEntity
  8
0
100
AcDbLine
 62
7
  6
CONTINUOUS
 10
7.441930963
 20
19.7888778651
 11
7.4424011706
 21
19.7887951049
  0
SPLINE
  5
73C
100
AcDbEntity
  8
0
100
AcDbSpline
 62
7
  6
CONTINUOUS
 70
0
 71
3
 72
17
 73
13
 74
0
 42
0.0000001
 43
0.0000001
 44
0.0000000001
 40
0.0
 40
0.0
 40
0.0
 40
0.0
 40
0.2985511273
 40
0.4365492469
 40
0.5647916554
 40
0.6813868683
 40
0.7351497326
 40
0.7862451296
 40
0.8357997872
 40
0.8859614509
 40
0.9397254969
 40
1.0
 40
1.0
 40
1.0
 40
1.0
 10
7.4424011706
 20
19.7887951049
 30
0.0
 10
7.4720348379
 20
19.7835741271
 30
0.0
 10
7.5152116769
 20
19.7746554559
 30
0.0
 10
7.5696404533
 20
19.7577823362
 30
0.0
 10
7.6053053825
 20
19.7429010697
 30
0.0
 10
7.631293847
 20
19.727274725
 30
0.0
 10
7.6479211164
 20
19.7122684968
 30
0.0
 10
7.6576130099
 20
19.6999698235
 30
0.0
 10
7.6642716847
 20
19.6861390521
 30
0.0
 10
7.6671248408
 20
19.6707318537
 30
0.0
 10
7.6655222502
 20
19.6540664605
 30
0.0
 10
7.6616148526
 20
19.6431410889
 30
0.0
 10
7.6590575189
 20
19.6376307074
 30
0.0
  0
SPLINE
  5
73D
100
AcDbEntity
  8
0
100
AcDbSpline
 62
7
  6
CONTINUOUS
 70
0
 71
3
 72
17
 73
13
 74
0
 42
0.0000001
 43
0.0000001
 44
0.0000000001
 40
0.0
 40
0.0
 40
0.0
 40
0.0
 40
0.1087047203
 40
0.1510652863
 40
0.2000773474
 40
0.255702651
 40
0.3177695226
 40
0.3860020535
 40
0.4600496199
 40
0.6238688357
 40
0.8053542518
 40
1.0
 40
1.0
 40
1.0
 40
1.0
 10
7.9512337522
 20
19.7170895252
 30
0.0
 10
7.9332897799
 20
19.7198669792
 30
0.0
 10
7.9094243631
 20
19.6989648024
 30
0.0
 10
7.8900257024
 20
19.6729924559
 30
0.0
 10
7.8768173979
 20
19.6520058581
 30
0.0
 10
7.8636581798
 20
19.6275277087
 30
0.0
 10
7.8503605597
 20
19.5994257358
 30
0.0
 10
7.8371007759
 20
19.5679707945
 30
0.0
 10
7.8189411255
 20
19.5201624876
 30
0.0
 10
7.7971871588
 20
19.4535383906
 30
0.0
 10
7.7733078819
 20
19.3665392576
 30
0.0
 10
7.7591523652
 20
19.3053079176
 30
0.0
 10
7.7523954824
 20
19.2735048383
 30
0.0
  0
SPLINE
  5
73E
100
AcDbEntity
  8
0
100
AcDbSpline
 62
7
  6
CONTINUOUS
 70
0
 71
3
 72
9
 73
5
 74
0
 42
0.0000001
 43
0.0000001
 44
0.0000000001
 40
0.0
 40
0.0
 40
0.0
 40
0.0
 40
0.2570100061
 40
1.0
 40
1.0
 40
1.0
 40
1.0
 10
7.7051566308
 20
18.9750023936
 30
0.0
 10
7.703913624
 20
18.9632032599
 30
0.0
 10
7.6993731909
 20
18.9172637691
 30
0.0
 10
7.6960211407
 20
18.8712033544
 30
0.0
 10
7.6943277948
 20
18.8369463201
 30
0.0
  0
SPLINE
  5
73F
100
AcDbEntity
  8
0
100
AcDbSpline
 62
7
  6
CONTINUOUS
 70
0
 71
3
 72
16
 73
12
 74
0
 42
0.0000001
 43
0.0000001
 44
0.0000000001
 40
0.0
 40
0.0
 40
0.0
 40
0.0
 40
0.3009010612
 40
0.4388199693
 40
0.5662132937
 40
0.681426607
 40
0.7344945138
 40
0.7850750207
 40
0.8344774729
 40
0.8849731468
 40
1.0
 40
1.0
 40
1.0
 40
1.0
 10
7.4434016881
 20
19.7956493815
 30
0.0
 10
7.4750721541
 20
19.7907504128
 30
0.0
 10
7.521121328
 20
19.7821488822
 30
0.0
 10
7.5790051453
 20
19.7649791087
 30
0.0
 10
7.6165656681
 20
19.7495651984
 30
0.0
 10
7.6437206256
 20
19.7330904068
 30
0.0
 10
7.6608451919
 20
19.7171429238
 30
0.0
 10
7.6706961473
 20
19.7040200965
 30
0.0
 10
7.6772798451
 20
19.6892277019
 30
0.0
 10
7.6808722767
 20
19.6663525185
 30
0.0
 10
7.6759753312
 20
19.6484995644
 30
0.0
 10
7.6708180256
 20
19.6373872104
 30
0.0
  0
SPLINE
  5
740
100
AcDbEntity
  8
0
100
AcDbSpline
 62
7
  6
CONTINUOUS
 70
0
 71
3
 72
23
 73
19
 74
0
 42
0.0000001
 43
0.0000001
 44
0.0000000001
 40
0.0
 40
0.0
 40
0.0
 40
0.0
 40
0.0461208634
 40
0.0911095442
 40
0.1383131897
 40
0.1903507357
 40
0.2485782898
 40
0.313167941
 40
0.3834039459
 40
0.4579584187
 40
0.5351104539
 40
0.6129262166
 40
0.6894199569
 40
0.7627105527
 40
0.8311864925
 40
0.8936979683
 40
0.949788321
 40
1.0
 40
1.0
 40
1.0
 40
1.0
 10
6.0744970329
 20
19.7155660211
 30
0.0
 10
6.0669136755
 20
19.6992261193
 30
0.0
 10
6.0565647612
 20
19.6643969561
 30
0.0
 10
6.0598274638
 20
19.6094075621
 30
0.0
 10
6.0819518333
 20
19.5565894816
 30
0.0
 10
6.1210256968
 20
19.5082601116
 30
0.0
 10
6.1750386527
 20
19.4657354072
 30
0.0
 10
6.2419314092
 20
19.4302320803
 30
0.0
 10
6.31927872
 20
19.4028959217
 30
0.0
 10
6.4042514084
 20
19.384687374
 30
0.0
 10
6.4936983094
 20
19.3762719154
 30
0.0
 10
6.5842771382
 20
19.3779627243
 30
0.0
 10
6.6725970964
 20
19.3896956866
 30
0.0
 10
6.7553645962
 20
19.4110387979
 30
0.0
 10
6.8295214988
 20
19.4412107051
 30
0.0
 10
6.8923723281
 20
19.479203872
 30
0.0
 10
6.9416112303
 20
19.5237474822
 30
0.0
 10
6.9651099367
 20
19.5587256098
 30
0.0
 10
6.9733659199
 20
19.576514824
 30
0.0
  0
SPLINE
  5
741
100
AcDbEntity
  8
0
100
AcDbSpline
 62
7
  6
CONTINUOUS
 70
0
 71
3
 72
11
 73
7
 74
0
 42
0.0000001
 43
0.0000001
 44
0.0000000001
 40
0.0
 40
0.0
 40
0.0
 40
0.0
 40
0.2403962019
 40
0.4754125159
 40
0.7239000587
 40
1.0
 40
1.0
 40
1.0
 40
1.0
 10
6.9733659199
 20
19.576514824
 30
0.0
 10
6.9812607092
 20
19.593525771
 30
0.0
 10
6.9918431644
 20
19.6299630895
 30
0.0
 10
6.9871083992
 20
19.6874538198
 30
0.0
 10
6.9619438733
 20
19.7422083229
 30
0.0
 10
6.9346837486
 20
19.7734051376
 30
0.0
 10
6.9188887477
 20
19.7880490825
 30
0.0
  0
SPLINE
  5
742
100
AcDbEntity
  8
0
100
AcDbSpline
 62
7
  6
CONTINUOUS
 70
0
 71
3
 72
13
 73
9
 74
0
 42
0.0000001
 43
0.0000001
 44
0.0000000001
 40
0.0
 40
0.0
 40
0.0
 40
0.0
 40
0.2842451106
 40
0.534419579
 40
0.651228784
 40
0.7657101075
 40
0.8809617672
 40
1.0
 40
1.0
 40
1.0
 40
1.0
 10
6.8991035987
 20
19.8070671378
 30
0.0
 10
6.9210070143
 20
19.7913342743
 30
0.0
 10
6.9593696732
 20
19.7572650444
 30
0.0
 10
6.9921697061
 20
19.7033657265
 30
0.0
 10
7.0038288264
 20
19.6589044818
 30
0.0
 10
7.0056345519
 20
19.6258408615
 30
0.0
 10
7.0006317009
 20
19.592911199
 30
0.0
 10
6.9930138684
 20
19.5718657064
 30
0.0
 10
6.9882594786
 20
19.5616212631
 30
0.0
  0
SPLINE
  5
743
100
AcDbEntity
  8
0
100
AcDbSpline
 62
7
  6
CONTINUOUS
 70
0
 71
3
 72
8
 73
4
 74
0
 42
0.0000001
 43
0.0000001
 44
0.0000000001
 40
0.0
 40
0.0
 40
0.0
 40
0.0
 40
1.0
 40
1.0
 40
1.0
 40
1.0
 10
5.3770449272
 20
19.9922241614
 30
0.0
 10
5.3810772183
 20
19.9916003822
 30
0.0
 10
5.3850564654
 20
19.9904395568
 30
0.0
 10
5.3888054339
 20
19.9888290576
 30
0.0
  0
SPLINE
  5
744
100
AcDbEntity
  8
0
100
AcDbSpline
 62
7
  6
CONTINUOUS
 70
0
 71
3
 72
9
 73
5
 74
0
 42
0.0000001
 43
0.0000001
 44
0.0000000001
 40
0.0
 40
0.0
 40
0.0
 40
0.0
 40
0.2552654078
 40
1.0
 40
1.0
 40
1.0
 40
1.0
 10
7.6708180256
 20
19.6373872104
 30
0.0
 10
7.6698271919
 20
19.6375404884
 30
0.0
 10
7.665927854
 20
19.6380158698
 30
0.0
 10
7.6619617492
 20
19.6379797772
 30
0.0
 10
7.6590575189
 20
19.6376307074
 30
0.0
  0
SPLINE
  5
745
100
AcDbEntity
  8
0
100
AcDbSpline
 62
7
  6
CONTINUOUS
 70
0
 71
3
 72
13
 73
9
 74
0
 42
0.0000001
 43
0.0000001
 44
0.0000000001
 40
0.0
 40
0.0
 40
0.0
 40
0.0
 40
0.2878335767
 40
0.538548903
 40
0.6547461675
 40
0.7681876227
 40
0.8821838878
 40
1.0
 40
1.0
 40
1.0
 40
1.0
 10
6.8946077024
 20
19.814705824
 30
0.0
 10
6.9190898675
 20
19.7989704206
 30
0.0
 10
6.9619879496
 20
19.7643053166
 30
0.0
 10
6.9993355742
 20
19.7078597149
 30
0.0
 10
7.0130904574
 20
19.6609413124
 30
0.0
 10
7.0157394064
 20
19.6260291649
 30
0.0
 10
7.0108935724
 20
19.5912060268
 30
0.0
 10
7.0029369277
 20
19.5689720669
 30
0.0
 10
6.9979221779
 20
19.5581666145
 30
0.0
  0
SPLINE
  5
746
100
AcDbEntity
  8
0
100
AcDbSpline
 62
7
  6
CONTINUOUS
 70
0
 71
3
 72
9
 73
5
 74
0
 42
0.0000001
 43
0.0000001
 44
0.0000000001
 40
0.0
 40
0.0
 40
0.0
 40
0.0
 40
0.253805112
 40
1.0
 40
1.0
 40
1.0
 40
1.0
 10
6.9882594778
 20
19.5616212614
 30
0.0
 10
6.9888846137
 20
19.5609961254
 30
0.0
 10
6.991619269
 20
19.5588256997
 30
0.0
 10
6.9953415415
 20
19.5578564391
 30
0.0
 10
6.9979221779
 20
19.5581666145
 30
0.0
  0
SPLINE
  5
747
100
AcDbEntity
  8
0
100
AcDbSpline
 62
7
  6
CONTINUOUS
 70
0
 71
3
 72
9
 73
5
 74
0
 42
0.0000001
 43
0.0000001
 44
0.0000000001
 40
0.0
 40
0.0
 40
0.0
 40
0.0
 40
0.4738639774
 40
1.0
 40
1.0
 40
1.0
 40
1.0
 10
6.0596034767
 20
19.7052804026
 30
0.0
 10
6.0583068192
 20
19.7043849191
 30
0.0
 10
6.0549175769
 20
19.7034190532
 30
0.0
 10
6.0515483668
 20
19.7041247127
 30
0.0
 10
6.0499407748
 20
19.7048153091
 30
0.0
  0
SPLINE
  5
748
100
AcDbEntity
  8
0
100
AcDbSpline
 62
7
  6
CONTINUOUS
 70
0
 71
3
 72
15
 73
11
 74
0
 42
0.0000001
 43
0.0000001
 44
0.0000000001
 40
0.0
 40
0.0
 40
0.0
 40
0.0
 40
0.1612328461
 40
0.3118649965
 40
0.4501245055
 40
0.5754175269
 40
0.6888898627
 40
0.7938067273
 40
0.8954555941
 40
1.0
 40
1.0
 40
1.0
 40
1.0
 10
6.3266282605
 20
19.3741909936
 30
0.0
 10
6.3016079352
 20
19.3811938533
 30
0.0
 10
6.2540396905
 20
19.3978902504
 30
0.0
 10
6.1888659648
 20
19.4301347541
 30
0.0
 10
6.1334357415
 20
19.4677822205
 30
0.0
 10
6.089552315
 20
19.5103501835
 30
0.0
 10
6.058804169
 20
19.5570660509
 30
0.0
 10
6.0427000789
 20
19.606835834
 30
0.0
 10
6.0424200945
 20
19.6577621638
 30
0.0
 10
6.0525114826
 20
19.6899990954
 30
0.0
 10
6.0596034758
 20
19.7052804007
 30
0.0
  0
SPLINE
  5
749
100
AcDbEntity
  8
0
100
AcDbSpline
 62
7
  6
CONTINUOUS
 70
0
 71
3
 72
15
 73
11
 74
0
 42
0.0000001
 43
0.0000001
 44
0.0000000001
 40
0.0
 40
0.0
 40
0.0
 40
0.0
 40
0.0935775417
 40
0.1969237858
 40
0.3111039727
 40
0.4357360745
 40
0.5693423295
 40
0.709721661
 40
0.854231284
 40
1.0
 40
1.0
 40
1.0
 40
1.0
 10
6.9882594786
 20
19.5616212631
 30
0.0
 10
6.9806036105
 20
19.5451252764
 30
0.0
 10
6.9595471395
 20
19.5126088103
 30
0.0
 10
6.9159581598
 20
19.4701763432
 30
0.0
 10
6.8605002698
 20
19.4329391234
 30
0.0
 10
6.7948878295
 20
19.4018685501
 30
0.0
 10
6.7211041036
 20
19.37769258
 30
0.0
 10
6.6413886768
 20
19.3608689229
 30
0.0
 10
6.5581242271
 20
19.3514056741
 30
0.0
 10
6.5015951496
 20
19.3503528639
 30
0.0
 10
6.4732896173
 20
19.3515027947
 30
0.0
  0
SPLINE
  5
74A
100
AcDbEntity
  8
0
100
AcDbSpline
 62
7
  6
CONTINUOUS
 70
0
 71
3
 72
9
 73
5
 74
0
 42
0.0000001
 43
0.0000001
 44
0.0000000001
 40
0.0
 40
0.0
 40
0.0
 40
0.0
 40
0.2547783015
 40
1.0
 40
1.0
 40
1.0
 40
1.0
 10
6.4732896171
 20
19.3515027927
 30
0.0
 10
6.4606986655
 20
19.3522660383
 30
0.0
 10
6.4113588961
 20
19.3563977183
 30
0.0
 10
6.3623618534
 20
19.3650030894
 30
0.0
 10
6.3266282605
 20
19.3741909936
 30
0.0
  0
SPLINE
  5
74B
100
AcDbEntity
  8
0
100
AcDbSpline
 62
7
  6
CONTINUOUS
 70
0
 71
3
 72
9
 73
5
 74
0
 42
0.0000001
 43
0.0000001
 44
0.0000000001
 40
0.0
 40
0.0
 40
0.0
 40
0.0
 40
0.4706136705
 40
1.0
 40
1.0
 40
1.0
 40
1.0
 10
6.0596034759
 20
19.7052804007
 30
0.0
 10
6.0686936251
 20
19.7248668568
 30
0.0
 10
6.095071095
 20
19.7633176186
 30
0.0
 10
6.1300646255
 20
19.7936123051
 30
0.0
 10
6.1498211986
 20
19.8077426889
 30
0.0
  0
SPLINE
  5
74C
100
AcDbEntity
  8
0
100
AcDbSpline
 62
7
  6
CONTINUOUS
 70
0
 71
3
 72
40
 73
36
 74
0
 42
0.0000001
 43
0.0000001
 44
0.0000000001
 40
0.0
 40
0.0
 40
0.0
 40
0.0
 40
0.0111512742
 40
0.0240773157
 40
0.0383736881
 40
0.0535963275
 40
0.0855712288
 40
0.1184852284
 40
0.151711322
 40
0.1849903929
 40
0.2513366289
 40
0.3173050834
 40
0.350170977
 40
0.3829522558
 40
0.4156266213
 40
0.4481988625
 40
0.5131827063
 40
0.5782261832
 40
0.610758814
 40
0.6432219041
 40
0.6755919174
 40
0.7078759823
 40
0.7400680402
 40
0.7721286677
 40
0.8039896694
 40
0.8355515527
 40
0.8666665181
 40
0.897100248
 40
0.9264554083
 40
0.9405342167
 40
0.9540476303
 40
0.9668338205
 40
0.9787312939
 40
0.9896923809
 40
1.0
 40
1.0
 40
1.0
 40
1.0
 10
7.6590575189
 20
19.6376307074
 30
0.0
 10
7.6549124978
 20
19.6286994404
 30
0.0
 10
7.6431434982
 20
19.6107289157
 30
0.0
 10
7.6197850912
 20
19.5860614474
 30
0.0
 10
7.590918537
 20
19.5620529261
 30
0.0
 10
7.5463578825
 20
19.530955148
 30
0.0
 10
7.4847438443
 20
19.4959413792
 30
0.0
 10
7.4063921603
 20
19.4588769134
 30
0.0
 10
7.3250526337
 20
19.4257594915
 30
0.0
 10
7.2145299815
 20
19.3863716813
 30
0.0
 10
7.074094442
 20
19.3451901326
 30
0.0
 10
6.9316163821
 20
19.3135346116
 30
0.0
 10
6.8171001457
 20
19.2936597728
 30
0.0
 10
6.7311164295
 20
19.281549295
 30
0.0
 10
6.6449276363
 20
19.2731440806
 30
0.0
 10
6.5299522624
 20
19.2688798648
 30
0.0
 10
6.3861373619
 20
19.2793539559
 30
0.0
 10
6.2459132978
 20
19.3128132795
 30
0.0
 10
6.1377566964
 20
19.3515582015
 30
0.0
 10
6.0587213971
 20
19.3855024563
 30
0.0
 10
5.9815155165
 20
19.4228634157
 30
0.0
 10
5.9058447152
 20
19.4627250618
 30
0.0
 10
5.8317901441
 20
19.5049687364
 30
0.0
 10
5.7596158814
 20
19.5496495937
 30
0.0
 10
5.6896923977
 20
19.596795262
 30
0.0
 10
5.6225357711
 20
19.6464207342
 30
0.0
 10
5.5589037424
 20
19.6985486181
 30
0.0
 10
5.5000238446
 20
19.753177397
 30
0.0
 10
5.4559035557
 20
19.8013916001
 30
0.0
 10
5.4255868058
 20
19.8415580989
 30
0.0
 10
5.4064884259
 20
19.8717266166
 30
0.0
 10
5.3916612646
 20
19.9021227125
 30
0.0
 10
5.3823759458
 20
19.9323846131
 30
0.0
 10
5.3802379689
 20
19.961934711
 30
0.0
 10
5.3849740887
 20
19.9805734518
 30
0.0
 10
5.3888054339
 20
19.9888290576
 30
0.0
  0
SPLINE
  5
74D
100
AcDbEntity
  8
0
100
AcDbSpline
 62
7
  6
CONTINUOUS
 70
0
 71
3
 72
15
 73
11
 74
0
 42
0.0000001
 43
0.0000001
 44
0.0000000001
 40
0.0
 40
0.0
 40
0.0
 40
0.0
 40
0.1613653223
 40
0.3129774316
 40
0.4517922145
 40
0.5770690073
 40
0.6902431705
 40
0.7947626141
 40
0.8959682692
 40
1.0
 40
1.0
 40
1.0
 40
1.0
 10
6.3266282605
 20
19.3741909936
 30
0.0
 10
6.3007780726
 20
19.3802708053
 30
0.0
 10
6.2511323659
 20
19.3945751325
 30
0.0
 10
6.1831645141
 20
19.4254149367
 30
0.0
 10
6.1258083167
 20
19.46327914
 30
0.0
 10
6.0807078051
 20
19.506541456
 30
0.0
 10
6.0492635026
 20
19.5540920524
 30
0.0
 10
6.0328309082
 20
19.6047258748
 30
0.0
 10
6.0324995135
 20
19.6565063235
 30
0.0
 10
6.0427336864
 20
19.689285932
 30
0.0
 10
6.0499407748
 20
19.7048153091
 30
0.0
  0
SPLINE
  5
74E
100
AcDbEntity
  8
0
100
AcDbSpline
 62
7
  6
CONTINUOUS
 70
0
 71
3
 72
15
 73
11
 74
0
 42
0.0000001
 43
0.0000001
 44
0.0000000001
 40
0.0
 40
0.0
 40
0.0
 40
0.0
 40
0.0934602957
 40
0.196711545
 40
0.310809737
 40
0.4354257217
 40
0.5691612459
 40
0.7098264299
 40
0.8544848123
 40
1.0
 40
1.0
 40
1.0
 40
1.0
 10
6.9979221779
 20
19.5581666145
 30
0.0
 10
6.9901405411
 20
19.5413996392
 30
0.0
 10
6.9687198652
 20
19.5083516454
 30
0.0
 10
6.9243968415
 20
19.4652158777
 30
0.0
 10
6.8679870037
 20
19.4273424572
 30
0.0
 10
6.8011842819
 20
19.3957589808
 30
0.0
 10
6.72594594
 20
19.3713245589
 30
0.0
 10
6.6445535843
 20
19.3548086032
 30
0.0
 10
6.5594746286
 20
19.3473031627
 30
0.0
 10
6.50197754
 20
19.349201756
 30
0.0
 10
6.4732894394
 20
19.3515028054
 30
0.0
  0
SPLINE
  5
74F
100
AcDbEntity
  8
0
100
AcDbSpline
 62
7
  6
CONTINUOUS
 70
0
 71
3
 72
17
 73
13
 74
0
 42
0.0000001
 43
0.0000001
 44
0.0000000001
 40
0.0
 40
0.0
 40
0.0
 40
0.0
 40
0.046538939
 40
0.0949419537
 40
0.1462996706
 40
0.2009089625
 40
0.3187732243
 40
0.4456923022
 40
0.5788554351
 40
0.7163732302
 40
0.8570234017
 40
1.0
 40
1.0
 40
1.0
 40
1.0
 10
5.3888054339
 20
19.9888290576
 30
0.0
 10
5.3916170597
 20
19.9948872282
 30
0.0
 10
5.3990523218
 20
20.0065205312
 30
0.0
 10
5.4144638349
 20
20.0210225301
 30
0.0
 10
5.4333795063
 20
20.0327735568
 30
0.0
 10
5.4630177735
 20
20.0453930678
 30
0.0
 10
5.5051318519
 20
20.0551819874
 30
0.0
 10
5.559196124
 20
20.060347428
 30
0.0
 10
5.6163101813
 20
20.0607940147
 30
0.0
 10
5.6752812311
 20
20.0576747302
 30
0.0
 10
5.7354504508
 20
20.0518218931
 30
0.0
 10
5.7758169035
 20
20.0465477428
 30
0.0
 10
5.7961280939
 20
20.0436374531
 30
0.0
  0
LINE
  5
750
100
AcDbEntity
  8
0
100
AcDbLine
 62
7
  6
CONTINUOUS
 10
5.7961280939
 20
20.0436374531
 11
5.7974815334
 21
20.0434431438
  0
SPLINE
  5
751
100
AcDbEntity
  8
0
100
AcDbSpline
 62
7
  6
CONTINUOUS
 70
0
 71
3
 72
11
 73
7
 74
0
 42
0.0000001
 43
0.0000001
 44
0.0000000001
 40
0.0
 40
0.0
 40
0.0
 40
0.0
 40
0.2458321317
 40
0.4952112217
 40
0.7468750574
 40
1.0
 40
1.0
 40
1.0
 40
1.0
 10
5.8042997686
 20
20.0424528182
 30
0.0
 10
5.8435070161
 20
20.0367038957
 30
0.0
 10
5.9222244996
 20
20.0233315039
 30
0.0
 10
6.0403697878
 20
20.0001695406
 30
0.0
 10
6.1593931155
 20
19.9754263048
 30
0.0
 10
6.2390014641
 20
19.9585933166
 30
0.0
 10
6.278904885
 20
19.9500772562
 30
0.0
  0
SPLINE
  5
752
100
AcDbEntity
  8
0
100
AcDbSpline
 62
7
  6
CONTINUOUS
 70
0
 71
3
 72
9
 73
5
 74
0
 42
0.0000001
 43
0.0000001
 44
0.0000000001
 40
0.0
 40
0.0
 40
0.0
 40
0.0
 40
0.467325452
 40
1.0
 40
1.0
 40
1.0
 40
1.0
 10
6.0499407748
 20
19.7048153091
 30
0.0
 10
6.0602269512
 20
19.7269787589
 30
0.0
 10
6.0912414422
 20
19.7703388916
 30
0.0
 10
6.1324962115
 20
19.8032870795
 30
0.0
 10
6.155840217
 20
19.8184767796
 30
0.0
  0
SPLINE
  5
753
100
AcDbEntity
  8
0
100
AcDbSpline
 62
7
  6
CONTINUOUS
 70
0
 71
3
 72
21
 73
17
 74
0
 42
0.0000001
 43
0.0000001
 44
0.0000000001
 40
0.0
 40
0.0
 40
0.0
 40
0.0
 40
0.0108905943
 40
0.0221623424
 40
0.0470911674
 40
0.0768727298
 40
0.1125971442
 40
0.1547737774
 40
0.2035729539
 40
0.2589583986
 40
0.3207563936
 40
0.3886936912
 40
0.4624203863
 40
0.6255260502
 40
0.8062155517
 40
1.0
 40
1.0
 40
1.0
 40
1.0
 10
7.9797552381
 20
19.7126775188
 30
0.0
 10
7.9779487702
 20
19.7129569096
 30
0.0
 10
7.9742070526
 20
19.7131631021
 30
0.0
 10
7.9663341478
 20
19.7120955759
 30
0.0
 10
7.9559620885
 20
19.707717879
 30
0.0
 10
7.9437508609
 20
19.698555178
 30
0.0
 10
7.9312243761
 20
19.6854449223
 30
0.0
 10
7.9184096342
 20
19.6684313183
 30
0.0
 10
7.9053544223
 20
19.6475944234
 30
0.0
 10
7.8921407392
 20
19.6230501384
 30
0.0
 10
7.8788551169
 20
19.5949493251
 30
0.0
 10
7.8655869111
 20
19.5634723936
 30
0.0
 10
7.8474248225
 20
19.5156412425
 30
0.0
 10
7.8256652452
 20
19.4489834931
 30
0.0
 10
7.8017831313
 20
19.361944853
 30
0.0
 10
7.7876263607
 20
19.3006865404
 30
0.0
 10
7.7808695719
 20
19.2688700916
 30
0.0
  0
SPLINE
  5
754
100
AcDbEntity
  8
0
100
AcDbSpline
 62
7
  6
CONTINUOUS
 70
0
 71
3
 72
25
 73
21
 74
0
 42
0.0000001
 43
0.0000001
 44
0.0000000001
 40
0.0
 40
0.0
 40
0.0
 40
0.0
 40
0.0091733057
 40
0.0190064702
 40
0.0300332217
 40
0.0426230391
 40
0.0570067534
 40
0.0733186564
 40
0.0916276946
 40
0.1119579599
 40
0.1586210195
 40
0.2130151548
 40
0.2745869557
 40
0.342611626
 40
0.4162331535
 40
0.494492151
 40
0.5763484229
 40
0.6607012995
 40
0.8322946739
 40
1.0
 40
1.0
 40
1.0
 40
1.0
 10
29.5419817925
 20
16.3770926991
 30
0.0
 10
29.5393410766
 20
16.3775011158
 30
0.0
 10
29.5337191456
 20
16.3775461114
 30
0.0
 10
29.5251871899
 20
16.3752704416
 30
0.0
 10
29.5164786683
 20
16.370770022
 30
0.0
 10
29.5075916858
 20
16.364107905
 30
0.0
 10
29.4985179408
 20
16.3553165436
 30
0.0
 10
29.4892700312
 20
16.3444198171
 30
0.0
 10
29.4798694446
 20
16.3314487559
 30
0.0
 10
29.4665527587
 20
16.3104558982
 30
0.0
 10
29.4499742653
 20
16.2791677994
 30
0.0
 10
29.4307717891
 20
16.235834682
 30
0.0
 10
29.4117318725
 20
16.1857121414
 30
0.0
 10
29.3931303071
 20
16.1294992009
 30
0.0
 10
29.3752392023
 20
16.0679787863
 30
0.0
 10
29.3583178532
 20
16.0020188108
 30
0.0
 10
29.342609405
 20
15.932551738
 30
0.0
 10
29.3234796561
 20
15.8360199282
 30
0.0
 10
29.3041219692
 20
15.7140880761
 30
0.0
 10
29.2934836465
 20
15.6157741119
 30
0.0
 10
29.289617231
 20
15.5670761059
 30
0.0
  0
SPLINE
  5
755
100
AcDbEntity
  8
0
100
AcDbSpline
 62
7
  6
CONTINUOUS
 70
0
 71
3
 72
12
 73
8
 74
0
 42
0.0000001
 43
0.0000001
 44
0.0000000001
 40
0.0
 40
0.0
 40
0.0
 40
0.0
 40
0.1222024006
 40
0.2120910378
 40
0.3251285974
 40
0.620555084
 40
1.0
 40
1.0
 40
1.0
 40
1.0
 10
7.7121655736
 20
18.6227477245
 30
0.0
 10
7.7119466055
 20
18.6227816073
 30
0.0
 10
7.7116369613
 20
18.6230989349
 30
0.0
 10
7.7114007075
 20
18.6236280549
 30
0.0
 10
7.7111410521
 20
18.6245009219
 30
0.0
 10
7.7109560776
 20
18.6259207485
 30
0.0
 10
7.710914339
 20
18.6271452438
 30
0.0
 10
7.710914339
 20
18.6278332429
 30
0.0
  0
SPLINE
  5
756
100
AcDbEntity
  8
0
100
AcDbSpline
 62
7
  6
CONTINUOUS
 70
0
 71
3
 72
21
 73
17
 74
0
 42
0.0000001
 43
0.0000001
 44
0.0000000001
 40
0.0
 40
0.0
 40
0.0
 40
0.0
 40
0.0108914734
 40
0.0221640287
 40
0.0470941066
 40
0.0768759725
 40
0.1126000008
 40
0.1547760904
 40
0.2035745835
 40
0.2589587912
 40
0.3207550401
 40
0.3886906769
 40
0.4624162543
 40
0.6255205854
 40
0.8062107024
 40
1.0
 40
1.0
 40
1.0
 40
1.0
 10
7.9702481037
 20
19.7141483654
 30
0.0
 10
7.9684418904
 20
19.7144278048
 30
0.0
 10
7.9647006656
 20
19.7146336387
 30
0.0
 10
7.9568289458
 20
19.7135667309
 30
0.0
 10
7.9464585267
 20
19.7091902752
 30
0.0
 10
7.9342489935
 20
19.7000305103
 30
0.0
 10
7.9217242763
 20
19.6869240443
 30
0.0
 10
7.9089114235
 20
19.669915069
 30
0.0
 10
7.8958581598
 20
19.6490836557
 30
0.0
 10
7.8826463402
 20
19.6245458533
 30
0.0
 10
7.8693624635
 20
19.5964524445
 30
0.0
 10
7.8560959136
 20
19.5649835813
 30
0.0
 10
7.8379359866
 20
19.517164074
 30
0.0
 10
7.8161785754
 20
19.4505217517
 30
0.0
 10
7.7922978108
 20
19.3635020771
 30
0.0
 10
7.7781417027
 20
19.3022565007
 30
0.0
 10
7.7713848676
 20
19.2704463563
 30
0.0
  0
SPLINE
  5
757
100
AcDbEntity
  8
0
100
AcDbSpline
 62
7
  6
CONTINUOUS
 70
0
 71
3
 72
9
 73
5
 74
0
 42
0.0000001
 43
0.0000001
 44
0.0000000001
 40
0.0
 40
0.0
 40
0.0
 40
0.0
 40
0.2595649618
 40
1.0
 40
1.0
 40
1.0
 40
1.0
 10
7.7137287132
 20
18.8415621515
 30
0.0
 10
7.7132660984
 20
18.8328128228
 30
0.0
 10
7.7116838182
 20
18.7990952634
 30
0.0
 10
7.710914339
 20
18.7653366182
 30
0.0
 10
7.710914339
 20
18.7403434185
 30
0.0
  0
SPLINE
  5
758
100
AcDbEntity
  8
0
100
AcDbSpline
 62
7
  6
CONTINUOUS
 70
0
 71
3
 72
12
 73
8
 74
0
 42
0.0000001
 43
0.0000001
 44
0.0000000001
 40
0.0
 40
0.0
 40
0.0
 40
0.0
 40
0.379444916
 40
0.6748714026
 40
0.7879089622
 40
0.8777975994
 40
1.0
 40
1.0
 40
1.0
 40
1.0
 10
29.2731408933
 20
15.2922484232
 30
0.0
 10
29.2731408933
 20
15.2915604241
 30
0.0
 10
29.273182632
 20
15.2903359287
 30
0.0
 10
29.2733676064
 20
15.2889161022
 30
0.0
 10
29.2736272619
 20
15.2880432352
 30
0.0
 10
29.2738635157
 20
15.2875141152
 30
0.0
 10
29.2741731599
 20
15.2871967876
 30
0.0
 10
29.274392128
 20
15.2871629048
 30
0.0
  0
SPLINE
  5
759
100
AcDbEntity
  8
0
100
AcDbSpline
 62
7
  6
CONTINUOUS
 70
0
 71
3
 72
25
 73
21
 74
0
 42
0.0000001
 43
0.0000001
 44
0.0000000001
 40
0.0
 40
0.0
 40
0.0
 40
0.0
 40
0.0093292033
 40
0.01926461
 40
0.0303067255
 40
0.0428114813
 40
0.0570106165
 40
0.0730439081
 40
0.0909891997
 40
0.1108807292
 40
0.1564833663
 40
0.2096522319
 40
0.2699353301
 40
0.3367173421
 40
0.4092583547
 40
0.4867195985
 40
0.5681834568
 40
0.6526708905
 40
0.8265776579
 40
1.0
 40
1.0
 40
1.0
 40
1.0
 10
29.5324746581
 20
16.3785635457
 30
0.0
 10
29.5299737161
 20
16.3789504666
 30
0.0
 10
29.5246756762
 20
16.3790345385
 30
0.0
 10
29.516621032
 20
16.3770632814
 30
0.0
 10
29.5083971883
 20
16.3730843411
 30
0.0
 10
29.5000069172
 20
16.3671549933
 30
0.0
 10
29.4914452818
 20
16.3593029802
 30
0.0
 10
29.4827211591
 20
16.3495501121
 30
0.0
 10
29.4738520627
 20
16.3379211697
 30
0.0
 10
29.4612873965
 20
16.3190803048
 30
0.0
 10
29.4456074897
 20
16.2909134642
 30
0.0
 10
29.4273859325
 20
16.251777639
 30
0.0
 10
29.4092344047
 20
16.2063579684
 30
0.0
 10
29.3913889241
 20
16.1552218661
 30
0.0
 10
29.374083918
 20
16.0990072666
 30
0.0
 10
29.3575449149
 20
16.0384259962
 30
0.0
 10
29.3419856358
 20
15.9742471211
 30
0.0
 10
29.3226325164
 20
15.8841003158
 30
0.0
 10
29.3023249006
 20
15.7686895649
 30
0.0
 10
29.2903487815
 20
15.6751928961
 30
0.0
 10
29.2855580931
 20
15.6283938845
 30
0.0
  0
SPLINE
  5
75A
100
AcDbEntity
  8
0
100
AcDbSpline
 62
7
  6
CONTINUOUS
 70
0
 71
3
 72
9
 73
5
 74
0
 42
0.0000001
 43
0.0000001
 44
0.0000000001
 40
0.0
 40
0.0
 40
0.0
 40
0.0
 40
0.2115256786
 40
1.0
 40
1.0
 40
1.0
 40
1.0
 10
29.2879427027
 20
15.2925423998
 30
0.0
 10
29.2880862874
 20
15.2928517826
 30
0.0
 10
29.2887078429
 20
15.2943408467
 30
0.0
 10
29.2891610384
 20
15.2958947514
 30
0.0
 10
29.2894711379
 20
15.2971277424
 30
0.0
  0
SPLINE
  5
75B
100
AcDbEntity
  8
0
100
AcDbSpline
 62
7
  6
CONTINUOUS
 70
0
 71
3
 72
12
 73
8
 74
0
 42
0.0000001
 43
0.0000001
 44
0.0000000001
 40
0.0
 40
0.0
 40
0.0
 40
0.0
 40
0.1222024006
 40
0.2120910378
 40
0.3251285974
 40
0.620555084
 40
1.0
 40
1.0
 40
1.0
 40
1.0
 10
7.7216727281
 20
18.6212770081
 30
0.0
 10
7.7214537601
 20
18.6213108909
 30
0.0
 10
7.7211441159
 20
18.6216282185
 30
0.0
 10
7.7209078621
 20
18.6221573385
 30
0.0
 10
7.7206482066
 20
18.6230302055
 30
0.0
 10
7.7204632322
 20
18.6244500321
 30
0.0
 10
7.7204214935
 20
18.6256745274
 30
0.0
 10
7.7204214935
 20
18.6263625265
 30
0.0
  0
SPLINE
  5
75C
100
AcDbEntity
  8
0
100
AcDbSpline
 62
7
  6
CONTINUOUS
 70
0
 71
3
 72
10
 73
6
 74
0
 42
0.0000001
 43
0.0000001
 44
0.0000000001
 40
0.0
 40
0.0
 40
0.0
 40
0.0
 40
0.3456391368
 40
0.6317709947
 40
1.0
 40
1.0
 40
1.0
 40
1.0
 10
29.2838992825
 20
15.2856921883
 30
0.0
 10
29.2842192145
 20
15.2856426824
 30
0.0
 10
29.2847752186
 20
15.2861043423
 30
0.0
 10
29.285271883
 20
15.2868539093
 30
0.0
 10
29.2855597254
 20
15.2874077853
 30
0.0
 10
29.2857049183
 20
15.2877206332
 30
0.0
  0
SPLINE
  5
75D
100
AcDbEntity
  8
0
100
AcDbSpline
 62
7
  6
CONTINUOUS
 70
0
 71
3
 72
9
 73
5
 74
0
 42
0.0000001
 43
0.0000001
 44
0.0000000001
 40
0.0
 40
0.0
 40
0.0
 40
0.0
 40
0.2630409897
 40
1.0
 40
1.0
 40
1.0
 40
1.0
 10
7.7204214935
 20
18.7304355322
 30
0.0
 10
7.7204214935
 20
18.7318168275
 30
0.0
 10
7.7203855282
 20
18.7370679041
 30
0.0
 10
7.7202025076
 20
18.7423188615
 30
0.0
 10
7.7199570862
 20
18.7461810314
 30
0.0
  0
SPLINE
  5
75E
100
AcDbEntity
  8
0
100
AcDbSpline
 62
7
  6
CONTINUOUS
 70
0
 71
3
 72
9
 73
5
 74
0
 42
0.0000001
 43
0.0000001
 44
0.0000000001
 40
0.0
 40
0.0
 40
0.0
 40
0.0
 40
0.2365692738
 40
1.0
 40
1.0
 40
1.0
 40
1.0
 10
29.2821836406
 20
15.4105962117
 30
0.0
 10
29.2822624232
 20
15.4093564185
 30
0.0
 10
29.2825462469
 20
15.4041125961
 30
0.0
 10
29.2826480479
 20
15.3988597084
 30
0.0
 10
29.2826480479
 20
15.3948507125
 30
0.0
  0
SPLINE
  5
75F
100
AcDbEntity
  8
0
100
AcDbSpline
 62
7
  6
CONTINUOUS
 70
0
 71
3
 72
12
 73
8
 74
0
 42
0.0000001
 43
0.0000001
 44
0.0000000001
 40
0.0
 40
0.0
 40
0.0
 40
0.0
 40
0.379444916
 40
0.6748714026
 40
0.7879089622
 40
0.8777975994
 40
1.0
 40
1.0
 40
1.0
 40
1.0
 10
29.2826480479
 20
15.2907777068
 30
0.0
 10
29.2826480479
 20
15.2900897077
 30
0.0
 10
29.2826897866
 20
15.2888652123
 30
0.0
 10
29.282874761
 20
15.2874453858
 30
0.0
 10
29.2831344165
 20
15.2865725188
 30
0.0
 10
29.2833706703
 20
15.2860433988
 30
0.0
 10
29.2836803145
 20
15.2857260712
 30
0.0
 10
29.2838992825
 20
15.2856921883
 30
0.0
  0
LINE
  5
760
100
AcDbEntity
  8
0
100
AcDbLine
 62
7
  6
CONTINUOUS
 10
5.0310244678
 20
19.0285895379
 11
5.0320715726
 21
19.0325985321
  0
SPLINE
  5
761
100
AcDbEntity
  8
0
100
AcDbSpline
 62
7
  6
CONTINUOUS
 70
0
 71
3
 72
15
 73
11
 74
0
 42
0.0000001
 43
0.0000001
 44
0.0000000001
 40
0.0
 40
0.0
 40
0.0
 40
0.0
 40
0.0555922387
 40
0.1246397312
 40
0.2142483294
 40
0.3269338523
 40
0.4630092442
 40
0.6216473678
 40
0.8013191848
 40
1.0
 40
1.0
 40
1.0
 40
1.0
 10
5.0319821393
 20
18.19830951
 30
0.0
 10
5.0318155986
 20
18.1983352735
 30
0.0
 10
5.0314595567
 20
18.1985120942
 30
0.0
 10
5.0310504333
 20
18.1990302459
 30
0.0
 10
5.0307025209
 20
18.1997798424
 30
0.0
 10
5.0304130388
 20
18.2007666028
 30
0.0
 10
5.030183114
 20
18.2019812889
 30
0.0
 10
5.0300168559
 20
18.2034106426
 30
0.0
 10
5.0299169375
 20
18.2050360015
 30
0.0
 10
5.0298967515
 20
18.2061831161
 30
0.0
 10
5.0298967515
 20
18.206785395
 30
0.0
  0
SPLINE
  5
762
100
AcDbEntity
  8
AXIS
100
AcDbSpline
 62
7
  6
CONTINUOUS
 70
0
 71
3
 72
18
 73
14
 74
0
 42
0.0000001
 43
0.0000001
 44
0.0000000001
 40
0.0
 40
0.0
 40
0.0
 40
0.0
 40
0.1353180356
 40
0.2826929686
 40
0.4344478735
 40
0.5826294339
 40
0.719509488
 40
0.781493306
 40
0.8381188934
 40
0.8887210592
 40
0.9327643617
 40
0.9698889643
 40
1.0
 40
1.0
 40
1.0
 40
1.0
 10
5.0298967515
 20
18.3059803589
 30
0.0
 10
5.0310993225
 20
18.3099128696
 30
0.0
 10
5.0333091102
 20
18.3182217245
 30
0.0
 10
5.0360012138
 20
18.3311522523
 30
0.0
 10
5.0381134622
 20
18.3445866015
 30
0.0
 10
5.039529705
 20
18.357790755
 30
0.0
 10
5.0400901117
 20
18.3683298671
 30
0.0
 10
5.0400976114
 20
18.3760957218
 30
0.0
 10
5.0398960699
 20
18.3812357882
 30
0.0
 10
5.039492329
 20
18.3858171761
 30
0.0
 10
5.038893158
 20
18.389780521
 30
0.0
 10
5.0381090275
 20
18.393073896
 30
0.0
 10
5.037397507
 20
18.395000477
 30
0.0
 10
5.0369907112
 20
18.3958201492
 30
0.0
  0
ELLIPSE
  5
763
100
AcDbEntity
  8
0
100
AcDbEllipse
 62
7
  6
CONTINUOUS
 10
31.7788108032
 20
5.3928103185
 30
0.0
 11
0.0
 21
0.0101922275
 31
0.0
 40
0.0087268678
 41
-3.1066860685
 42
-1.5707823253
  0
ELLIPSE
  5
764
100
AcDbEntity
  8
0
100
AcDbEllipse
 62
7
  6
CONTINUOUS
 10
31.7785784463
 20
5.3928103185
 30
0.0
 11
-0.0
 21
0.0101922275
 31
0.0
 40
0.0315243291
 41
-1.5707823253
 42
-0.034906585
  0
ELLIPSE
  5
765
100
AcDbEntity
  8
0
100
AcDbEllipse
 62
7
  6
CONTINUOUS
 10
31.7785784463
 20
5.6093457515
 30
0.0
 11
0.0
 21
0.0101922275
 31
0.0
 40
0.0315243291
 41
-3.1066860685
 42
-1.5708103283
  0
ELLIPSE
  5
766
100
AcDbEntity
  8
0
100
AcDbEllipse
 62
7
  6
CONTINUOUS
 10
31.7788108032
 20
5.6093457515
 30
0.0
 11
0.0
 21
0.0101922275
 31
0.0
 40
0.0087268678
 41
-1.5708103283
 42
-0.034906585
  0
ELLIPSE
  5
767
100
AcDbEntity
  8
0
100
AcDbEllipse
 62
7
  6
CONTINUOUS
 10
2.6798326136
 20
5.3691882712
 30
0.0
 11
0.0
 21
0.0101922275
 31
0.0
 40
0.0087268678
 41
-3.1066860686
 42
-1.5707823012
  0
ELLIPSE
  5
768
100
AcDbEntity
  8
0
100
AcDbEllipse
 62
7
  6
CONTINUOUS
 10
2.6796002567
 20
5.3691882712
 30
0.0
 11
0.0
 21
0.0101922275
 31
0.0
 40
0.0315243291
 41
-1.5707823012
 42
-0.034906585
  0
ELLIPSE
  5
769
100
AcDbEntity
  8
0
100
AcDbEllipse
 62
7
  6
CONTINUOUS
 10
2.6796002567
 20
5.5857237043
 30
0.0
 11
0.0
 21
0.0101922275
 31
0.0
 40
0.0315243291
 41
-3.1066860685
 42
-1.5708103498
  0
ELLIPSE
  5
76A
100
AcDbEntity
  8
0
100
AcDbEllipse
 62
7
  6
CONTINUOUS
 10
2.6798326136
 20
5.5857237043
 30
0.0
 11
0.0
 21
0.0101922275
 31
0.0
 40
0.0087268678
 41
-1.5708103498
 42
-0.034906585
  0
ENDSEC
  0
SECTION
  2
OBJECTS
  0
DICTIONARY
  5
C
100
AcDbDictionary
280
0
281
1
  3
ACAD_GROUP
350
D
  3
ACAD_MLINESTYLE
350
17
  3
ACAD_LAYOUT
350
1A
  3
ACAD_PLOTSETTINGS
350
19
  3
ACAD_PLOTSTYLENAME
350
E
  3
ACAD_TABLESTYLE
350
       76B
  0
DICTIONARY
  5
D
102
{ACAD_REACTORS
330
C
102
}
100
AcDbDictionary
280
0
281
1
  0
ACDBDICTIONARYWDFLT
  5
E
102
{ACAD_REACTORS
330
C
102
}
100
AcDbDictionary
281
1
  3
Normal
350
F
100
AcDbDictionaryWithDefault
340
F
  0
DICTIONARY
  5
17
102
{ACAD_REACTORS
330
C
102
}
100
AcDbDictionary
280
0
281
1
  3
Standard
350
18
  0
DICTIONARY
  5
76B
330
C
100
AcDbDictionary
281
1
  3
Standard
350
       76E
  3
Standard1
350
       76F
  0
DICTIONARY
  5
19
102
{ACAD_REACTORS
330
C
102
}
100
AcDbDictionary
281
1
  0
DICTIONARY
  5
1A
102
{ACAD_REACTORS
330
C
102
}
100
AcDbDictionary
281
1
  3
Model
350
76C
  3
Layout1
350
76D
  0
ACDBPLACEHOLDER
  5
F
102
{ACAD_REACTORS
330
E
102
}
  0
MLINESTYLE
  5
18
102
{ACAD_REACTORS
330
17
102
}
100
AcDbMlineStyle
  2
STANDARD
 70
0
  3

 62
256
 51
90.0
 52
90.0
 71
2
 49
0.5
 62
256
  6
BYLAYER
 49
-0.5
 62
256
  6
BYLAYER
  0
LAYOUT
  5
76C
102
{ACAD_REACTORS
330
1A
102
}
100
AcDbPlotSettings
  1

  2
none_device
  4
ANSI_D_(34.00_x_22.00_Inches)
  6

 40
0.0
 41
0.0
 42
0.0
 43
0.0
 44
863.6
 45
558.8
 46
0.0
 47
0.0
 48
0.0
 49
0.0
140
0.0
141
0.0
142
1.0
143
1.0
 70
1024
 72
0
 73
0
 74
0
  7

 75
0
147
1.0
148
0.0
149
0.0
100
AcDbLayout
  1
Model
 70
0
 71
0
 10
0.0
 20
0.0
 11
34.0
 21
22.0
 12
0.0
 22
0.0
 32
0.0
 14
0.0
 24
0.0
 34
0.0
 15
0.0
 25
0.0
 35
0.0
146
0.0
 13
0.0
 23
0.0
 33
0.0
 16
1.0
 26
0.0
 36
0.0
 17
0.0
 27
1.0
 37
0.0
 76
0
330
216
345
0
346
0
  0
LAYOUT
  5
76D
102
{ACAD_REACTORS
330
1A
102
}
100
AcDbPlotSettings
  1

  2
none_device
  4
ANSI_D_(34.00_x_22.00_Inches)
  6

 40
0.0
 41
0.0
 42
0.0
 43
0.0
 44
863.6
 45
558.8
 46
0.0
 47
0.0
 48
0.0
 49
0.0
140
0.0
141
0.0
142
1.0
143
1.0
 70
0
 72
0
 73
0
 74
0
  7

 75
0
147
1.0
148
0.0
149
0.0
100
AcDbLayout
  1
Layout1
 70
0
 71
1
 10
0.0
 20
0.0
 11
34.0
 21
22.0
 12
0.0
 22
0.0
 32
0.0
 14
0.0
 24
0.0
 34
0.0
 15
0.0
 25
0.0
 35
0.0
146
0.0
 13
0.0
 23
0.0
 33
0.0
 16
1.0
 26
0.0
 36
0.0
 17
0.0
 27
1.0
 37
0.0
 76
0
330
217
345
0
346
0
  0
TABLESTYLE
  5
76E
102
{ACAD_REACTORS
330
76B
102
}
330
76B
100
AcDbTableStyle
  3
Standard
 70
0
 71
0
 40
0.06
 41
0.06
280
1
281
1
  7
Standard
140
0.18
170
1
 62
0
 63
7
283
0
  7
Standard
140
0.18
170
1
 62
0
 63
7
283
0
  7
Standard
140
0.18
170
1
 62
0
 63
7
283
0
  0
TABLESTYLE
  5
76F
102
{ACAD_REACTORS
330
76B
330
29D
102
}
330
76B
100
AcDbTableStyle
  3
Standard1
 70
1
 71
0
 40
0.06
 41
0.06
280
1
281
1
  7
Standard
140
0.18
170
1
 62
0
 63
7
283
0
  7
Standard
140
0.18
170
1
 62
0
 63
7
283
0
  7
Standard
140
0.18
170
1
 62
0
 63
7
283
0
  0
ENDSEC
  0
EOF
