999
DXF file: 192826_1.dxf
999
Pro/ENGINEER 2013230 by Parametric Technology Corporation
  0
SECTION
  2
HEADER
  9
$ACADVER
  1
AC1018
  9
$DWGCODEPAGE
  3
ANSI_1252
  9
$EXTMAX
 10
22.0
 20
17.0
 30
0.0
  9
$EXTMIN
 10
0.0
 20
0.0
 30
0.0
  9
$LIMMIN
 10
0.0
 20
0.0
  9
$LIMMAX
 10
22.0
 20
17.0
  9
$VIEWCTR
 10
11.0
 20
8.5
  9
$VIEWSIZE
 40
17.0
  9
$CLAYER
  8
0
  9
$LTSCALE
 40
1.21
  9
$CELTYPE
  6
BYLAYER
  9
$DIMSCALE
 40
1.0
  9
$DIMASZ
 40
0.1875
  9
$DIMEXO
 40
0.0625
  9
$DIMDLI
 40
0.836
  9
$DIMEXE
 40
0.125
  9
$DIMCEN
 40
0.198
  9
$DIMLFAC
 40
1.0
  9
$DIMBLK
  1
_FILLED
  9
$DIMTXT
 40
0.1
  9
$DIMTOL
 70
1
  9
$DIMLIM
 70
0
  9
$DIMTFAC
 40
1.0
  9
$DIMTP
 40
0.01
  9
$DIMTM
 40
0.01
  9
$DIMGAP
 40
0.09
  9
$DIMDSEP
 70
46
  9
$PDMODE
 70
3
  9
$PDSIZE
 40
0.3125
  9
$HANDSEED
  5
5F0
  9
$TILEMODE
 70
1
  9
$MEASUREMENT
 70
0
  9
$INSUNITS
 70
1
  0
ENDSEC
  0
SECTION
  2
CLASSES
  0
CLASS
  1
ACDBDICTIONARYWDFLT
  2
AcDbDictionaryWithDefault
  3
AutoCAD 2000
 90
0
 91
1
280
0
281
0
  0
CLASS
  1
ACDBPLACEHOLDER
  2
AcDbPlaceHolder
  3
AutoCAD 2000
 90
0
 91
1
280
0
281
0
  0
CLASS
  1
LAYOUT
  2
AcDbLayout
  3
AutoCAD 2000
 90
0
 91
0
280
0
281
0
  0
CLASS
  1
TABLESTYLE
  2
AcDbTableStyle
  3
ObjectDBX Classes
 90
2047
 91
1
280
0
281
0
  0
CLASS
  1
ACAD_TABLE
  2
AcDbTable
  3
ObjectDBX Classes
 90
1025
 91
1
280
0
281
1
  0
ENDSEC
  0
SECTION
  2
TABLES
  0
TABLE
  2
VPORT
  5
8
100
AcDbSymbolTable
 70
2
  0
VPORT
  5
1F4
100
AcDbSymbolTableRecord
100
AcDbViewportTableRecord
  2
*ACTIVE
 70
0
 10
0.0
 20
0.0
 11
1.0
 21
1.0
 12
11.0
 22
8.5
 13
0.0
 23
0.0
 14
1.0
 24
1.0
 15
0.0
 25
0.0
 16
0.0
 26
0.0
 36
1.0
 17
0.0
 27
0.0
 37
0.0
 40
17.0
 41
1.2941176471
 42
50.0
 43
0.0
 44
0.0
 50
0.0
 51
0.0
 71
0
 72
100
 73
1
 74
1
 75
0
 76
0
 77
0
 78
0
  0
ENDTAB
  0
TABLE
  2
LTYPE
  5
5
100
AcDbSymbolTable
 70
6
  0
LTYPE
  5
14
100
AcDbSymbolTableRecord
100
AcDbLinetypeTableRecord
  2
BYBLOCK
 70
0
  3

 72
65
 73
0
 40
0.0
  0
LTYPE
  5
15
100
AcDbSymbolTableRecord
100
AcDbLinetypeTableRecord
  2
BYLAYER
 70
0
  3

 72
65
 73
0
 40
0.0
  0
LTYPE
  5
16
100
AcDbSymbolTableRecord
100
AcDbLinetypeTableRecord
  2
CONTINUOUS
 70
64
  3
Solid line
 72
65
 73
0
 40
0.0
  0
LTYPE
  5
1F5
100
AcDbSymbolTableRecord
100
AcDbLinetypeTableRecord
  2
CENTER
 70
64
  3
____ _ ____ _ ____ _ ____ _ ____ _ ____ _ ____
 72
65
 73
4
 40
0.6
 49
0.375
 74
0
 49
-0.075
 74
0
 49
0.075
 74
0
 49
-0.075
 74
0
  0
LTYPE
  5
1F6
100
AcDbSymbolTableRecord
100
AcDbLinetypeTableRecord
  2
HIDDEN
 70
64
  3
- - - - - - - - - - - - - - - - - - - -
 72
65
 73
2
 40
0.2
 49
0.1
 74
0
 49
-0.1
 74
0
  0
LTYPE
  5
1F7
100
AcDbSymbolTableRecord
100
AcDbLinetypeTableRecord
  2
PHANTOM
 70
64
  3
_____ _ _ _____ _ _ _____ _ _ _____
 72
65
 73
6
 40
0.8
 49
0.45
 74
0
 49
-0.05
 74
0
 49
0.1
 74
0
 49
-0.05
 74
0
 49
0.1
 74
0
 49
-0.05
 74
0
  0
LTYPE
  5
1F8
100
AcDbSymbolTableRecord
100
AcDbLinetypeTableRecord
  2
DOT
 70
64
  3
. . . . . . . . . . . . . . . . . . . .
 72
65
 73
2
 40
0.2
 49
0.1
 74
0
 49
-0.1
 74
0
  0
LTYPE
  5
1F9
100
AcDbSymbolTableRecord
100
AcDbLinetypeTableRecord
  2
DASHED
 70
64
  3
- - - - - - - - - - - - - - - - - - - -
 72
65
 73
2
 40
0.2
 49
0.1
 74
0
 49
-0.1
 74
0
  0
ENDTAB
  0
TABLE
  2
LAYER
  5
2
100
AcDbSymbolTable
 70
36
  0
LAYER
  5
10
100
AcDbSymbolTableRecord
100
AcDbLayerTableRecord
  2
0
 70
0
 62
7
  6
CONTINUOUS
370
-3
390
F
  0
LAYER
  5
1FA
100
AcDbSymbolTableRecord
100
AcDbLayerTableRecord
  2
DEFAULT_1
 70
0
 62
7
  6
CENTER
370
-3
390
F
  0
LAYER
  5
1FB
100
AcDbSymbolTableRecord
100
AcDbLayerTableRecord
  2
DEFAULT_2
 70
0
 62
7
  6
HIDDEN
370
-3
390
F
  0
LAYER
  5
1FC
100
AcDbSymbolTableRecord
100
AcDbLayerTableRecord
  2
DEFAULT_3
 70
0
 62
7
  6
PHANTOM
370
-3
390
F
  0
LAYER
  5
1FD
100
AcDbSymbolTableRecord
100
AcDbLayerTableRecord
  2
01_ALL_DTM_PLN
 70
0
 62
7
  6
CONTINUOUS
370
-3
390
F
  0
LAYER
  5
1FE
100
AcDbSymbolTableRecord
100
AcDbLayerTableRecord
  2
01__ASM_ALL_DTM_PLN
 70
0
 62
7
  6
CONTINUOUS
370
-3
390
F
  0
LAYER
  5
1FF
100
AcDbSymbolTableRecord
100
AcDbLayerTableRecord
  2
01__ASM_DEF_DTM_PLN
 70
0
 62
7
  6
CONTINUOUS
370
-3
390
F
  0
LAYER
  5
200
100
AcDbSymbolTableRecord
100
AcDbLayerTableRecord
  2
01___PRT_ALL_DTM_PLN
 70
0
 62
7
  6
CONTINUOUS
370
-3
390
F
  0
LAYER
  5
201
100
AcDbSymbolTableRecord
100
AcDbLayerTableRecord
  2
01___PRT_DEF_DTM_PLN
 70
0
 62
7
  6
CONTINUOUS
370
-3
390
F
  0
LAYER
  5
202
100
AcDbSymbolTableRecord
100
AcDbLayerTableRecord
  2
02_ALL_AXES
 70
0
 62
7
  6
CONTINUOUS
370
-3
390
F
  0
LAYER
  5
203
100
AcDbSymbolTableRecord
100
AcDbLayerTableRecord
  2
02__ASM_ALL_AXES
 70
0
 62
7
  6
CONTINUOUS
370
-3
390
F
  0
LAYER
  5
204
100
AcDbSymbolTableRecord
100
AcDbLayerTableRecord
  2
02___PRT_ALL_AXES
 70
0
 62
7
  6
CONTINUOUS
370
-3
390
F
  0
LAYER
  5
205
100
AcDbSymbolTableRecord
100
AcDbLayerTableRecord
  2
03_ALL_CURVES
 70
0
 62
7
  6
CONTINUOUS
370
-3
390
F
  0
LAYER
  5
206
100
AcDbSymbolTableRecord
100
AcDbLayerTableRecord
  2
03__ASM_ALL_CURVES
 70
0
 62
7
  6
CONTINUOUS
370
-3
390
F
  0
LAYER
  5
207
100
AcDbSymbolTableRecord
100
AcDbLayerTableRecord
  2
03___PRT_ALL_CURVES
 70
0
 62
7
  6
CONTINUOUS
370
-3
390
F
  0
LAYER
  5
208
100
AcDbSymbolTableRecord
100
AcDbLayerTableRecord
  2
04_ALL_DTM_PNT
 70
0
 62
7
  6
CONTINUOUS
370
-3
390
F
  0
LAYER
  5
209
100
AcDbSymbolTableRecord
100
AcDbLayerTableRecord
  2
04__ASM_ALL_DTM_PNT
 70
0
 62
7
  6
CONTINUOUS
370
-3
390
F
  0
LAYER
  5
20A
100
AcDbSymbolTableRecord
100
AcDbLayerTableRecord
  2
04___PRT_ALL_DTM_PNT
 70
0
 62
7
  6
CONTINUOUS
370
-3
390
F
  0
LAYER
  5
20B
100
AcDbSymbolTableRecord
100
AcDbLayerTableRecord
  2
05_ALL_DTM_CSYS
 70
0
 62
7
  6
CONTINUOUS
370
-3
390
F
  0
LAYER
  5
20C
100
AcDbSymbolTableRecord
100
AcDbLayerTableRecord
  2
05__ASM_ALL_DTM_CSYS
 70
0
 62
7
  6
CONTINUOUS
370
-3
390
F
  0
LAYER
  5
20D
100
AcDbSymbolTableRecord
100
AcDbLayerTableRecord
  2
05__ASM_DEF_DTM_CSYS
 70
0
 62
7
  6
CONTINUOUS
370
-3
390
F
  0
LAYER
  5
20E
100
AcDbSymbolTableRecord
100
AcDbLayerTableRecord
  2
05___PRT_ALL_DTM_CSYS
 70
0
 62
7
  6
CONTINUOUS
370
-3
390
F
  0
LAYER
  5
20F
100
AcDbSymbolTableRecord
100
AcDbLayerTableRecord
  2
05___PRT_DEF_DTM_CSYS
 70
0
 62
7
  6
CONTINUOUS
370
-3
390
F
  0
LAYER
  5
210
100
AcDbSymbolTableRecord
100
AcDbLayerTableRecord
  2
06_ALL_SURFS
 70
0
 62
7
  6
CONTINUOUS
370
-3
390
F
  0
LAYER
  5
211
100
AcDbSymbolTableRecord
100
AcDbLayerTableRecord
  2
06__ASM_ALL_SURFS
 70
0
 62
7
  6
CONTINUOUS
370
-3
390
F
  0
LAYER
  5
212
100
AcDbSymbolTableRecord
100
AcDbLayerTableRecord
  2
06___PRT_ALL_SURFS
 70
0
 62
7
  6
CONTINUOUS
370
-3
390
F
  0
LAYER
  5
213
100
AcDbSymbolTableRecord
100
AcDbLayerTableRecord
  2
07__ASM_ALL_SKELETONS
 70
0
 62
7
  6
CONTINUOUS
370
-3
390
F
  0
LAYER
  5
214
100
AcDbSymbolTableRecord
100
AcDbLayerTableRecord
  2
60420
 70
0
 62
7
  6
CONTINUOUS
370
-3
390
F
  0
LAYER
  5
215
100
AcDbSymbolTableRecord
100
AcDbLayerTableRecord
  2
AXIS
 70
0
 62
7
  6
CONTINUOUS
370
-3
390
F
  0
LAYER
  5
216
100
AcDbSymbolTableRecord
100
AcDbLayerTableRecord
  2
AXIS_COSMETIC_THREADS
 70
0
 62
7
  6
CONTINUOUS
370
-3
390
F
  0
LAYER
  5
217
100
AcDbSymbolTableRecord
100
AcDbLayerTableRecord
  2
DATUM_CURVES
 70
0
 62
7
  6
CONTINUOUS
370
-3
390
F
  0
LAYER
  5
218
100
AcDbSymbolTableRecord
100
AcDbLayerTableRecord
  2
DATUM_PLANES
 70
0
 62
7
  6
CONTINUOUS
370
-3
390
F
  0
LAYER
  5
219
100
AcDbSymbolTableRecord
100
AcDbLayerTableRecord
  2
DRIVEN_DIMS
 70
0
 62
7
  6
CONTINUOUS
370
-3
390
F
  0
LAYER
  5
21A
100
AcDbSymbolTableRecord
100
AcDbLayerTableRecord
  2
G_DATUM
 70
0
 62
7
  6
CONTINUOUS
370
-3
390
F
  0
LAYER
  5
21B
100
AcDbSymbolTableRecord
100
AcDbLayerTableRecord
  2
NOTES
 70
0
 62
7
  6
CONTINUOUS
370
-3
390
F
  0
LAYER
  5
21C
100
AcDbSymbolTableRecord
100
AcDbLayerTableRecord
  2
QUILTS
 70
0
 62
7
  6
CONTINUOUS
370
-3
390
F
  0
LAYER
  5
21D
100
AcDbSymbolTableRecord
100
AcDbLayerTableRecord
  2
SCHEME_DIMS
 70
0
 62
7
  6
CONTINUOUS
370
-3
390
F
  0
LAYER
  5
21E
100
AcDbSymbolTableRecord
100
AcDbLayerTableRecord
  2
SURFACE
 70
0
 62
7
  6
CONTINUOUS
370
-3
390
F
  0
LAYER
  5
21F
100
AcDbSymbolTableRecord
100
AcDbLayerTableRecord
  2
SYMBOLS
 70
0
 62
7
  6
CONTINUOUS
370
-3
390
F
  0
ENDTAB
  0
TABLE
  2
STYLE
  5
3
100
AcDbSymbolTable
 70
1
  0
STYLE
  5
11
100
AcDbSymbolTableRecord
100
AcDbTextStyleTableRecord
  2
STANDARD
 70
0
 40
0.0
 41
1.0
 50
0.0
 71
0
 42
0.2
  3
txt
  4

  0
STYLE
  5
220
100
AcDbSymbolTableRecord
100
AcDbTextStyleTableRecord
  2
TEXTSTYLE_1
 70
0
 40
0.0
 41
0.8
 50
0.0
 71
0
 42
0.2
  3
gdt
  4

  0
STYLE
  5
221
100
AcDbSymbolTableRecord
100
AcDbTextStyleTableRecord
  2
TEXTSTYLE_2
 70
0
 40
0.0
 41
0.8
 50
0.0
 71
0
 42
0.2
  3
txt
  4

  0
STYLE
  5
222
100
AcDbSymbolTableRecord
100
AcDbTextStyleTableRecord
  2
TEXTSTYLE_3
 70
0
 40
0.0
 41
0.9
 50
0.0
 71
0
 42
0.2
  3
txt
  4

  0
STYLE
  5
223
100
AcDbSymbolTableRecord
100
AcDbTextStyleTableRecord
  2
TEXTSTYLE_4
 70
0
 40
0.0
 41
0.85
 50
0.0
 71
0
 42
0.2
  3
txt
  4

  0
STYLE
  5
224
100
AcDbSymbolTableRecord
100
AcDbTextStyleTableRecord
  2
TEXTSTYLE_5
 70
0
 40
0.0
 41
0.75
 50
0.0
 71
0
 42
0.2
  3
txt
  4

  0
ENDTAB
  0
TABLE
  2
VIEW
  5
6
100
AcDbSymbolTable
 70
0
  0
ENDTAB
  0
TABLE
  2
UCS
  5
7
100
AcDbSymbolTable
 70
0
  0
ENDTAB
  0
TABLE
  2
APPID
  5
9
100
AcDbSymbolTable
 70
1
  0
APPID
  5
225
100
AcDbSymbolTableRecord
100
AcDbRegAppTableRecord
  2
ACAD
 70
0
  0
ENDTAB
  0
TABLE
  2
BLOCK_RECORD
  5
1
100
AcDbSymbolTable
 70
0
  0
BLOCK_RECORD
  5
226
100
AcDbSymbolTableRecord
100
AcDbBlockTableRecord
  2
*Model_Space
  0
BLOCK_RECORD
  5
227
100
AcDbSymbolTableRecord
100
AcDbBlockTableRecord
  2
*Paper_Space
  0
BLOCK_RECORD
  5
228
100
AcDbSymbolTableRecord
100
AcDbBlockTableRecord
  2
_FILLED
  0
BLOCK_RECORD
  5
229
100
AcDbSymbolTableRecord
100
AcDbBlockTableRecord
  2
*D0
  0
BLOCK_RECORD
  5
22A
100
AcDbSymbolTableRecord
100
AcDbBlockTableRecord
  2
*D1
  0
BLOCK_RECORD
  5
22B
100
AcDbSymbolTableRecord
100
AcDbBlockTableRecord
  2
*D2
  0
BLOCK_RECORD
  5
22C
100
AcDbSymbolTableRecord
100
AcDbBlockTableRecord
  2
*D3
  0
BLOCK_RECORD
  5
22D
100
AcDbSymbolTableRecord
100
AcDbBlockTableRecord
  2
*D4
  0
BLOCK_RECORD
  5
22E
100
AcDbSymbolTableRecord
100
AcDbBlockTableRecord
  2
*D5
  0
BLOCK_RECORD
  5
22F
100
AcDbSymbolTableRecord
100
AcDbBlockTableRecord
  2
*D6
  0
BLOCK_RECORD
  5
230
100
AcDbSymbolTableRecord
100
AcDbBlockTableRecord
  2
*T1
  0
ENDTAB
  0
TABLE
  2
DIMSTYLE
  5
A
100
AcDbSymbolTable
 70
1
100
AcDbDimStyleTable
 71
0
  0
DIMSTYLE
105
231
100
AcDbSymbolTableRecord
100
AcDbDimStyleTableRecord
  2
STANDARD
 70
0
  3

  4

 40
1.0
 41
0.1875
 42
0.0625
 43
0.38
 44
0.125
 45
0.0
 46
0.0
 47
0.01
 48
0.01
140
0.1
141
0.09
142
0.0
143
25.4
144
1.0
145
0.0
146
1.0
147
0.09
 71
1.0
 72
0.0
 73
1
 74
1
 75
0
 76
0
 77
0
 78
4
170
0
171
2
172
0
173
0
174
0
175
0
176
0
177
0
178
0
270
2
271
2
272
2
273
2
274
2
275
0
280
0
281
0
282
0
283
1
284
4
285
0
286
0
287
3
288
0
340
11
278
46
341
228
342
228
343
228
344
228
  0
DIMSTYLE
105
232
100
AcDbSymbolTableRecord
100
AcDbDimStyleTableRecord
  2
DIMSTYLE_1
 70
0
  3

  4

 40
1.0
 41
0.1875
 42
0.0625
 43
0.38
 44
0.125
 45
0.0
 46
0.0
 47
0.005
 48
0.005
140
0.1
141
0.09
142
0.0
143
25.4
144
1.0
145
0.0
146
1.0
147
0.1
 71
0.0
 72
0.0
 73
1
 74
1
 75
0
 76
0
 77
0
 78
4
170
0
171
2
172
0
173
0
174
0
175
0
176
0
177
0
178
0
270
2
271
1
272
1
273
2
274
2
275
0
280
0
281
0
282
0
283
1
284
4
285
0
286
0
287
3
288
0
340
11
278
46
341
228
342
228
343
228
344
228
  0
ENDTAB
  0
ENDSEC
  0
SECTION
  2
BLOCKS
  0
BLOCK
  5
20
100
AcDbEntity
  8
0
100
AcDbBlockBegin
  2
*Model_Space
 70
0
 10
0.0
 20
0.0
 30
0.0
  3
*Model_Space
  1

  0
ENDBLK
  5
21
100
AcDbEntity
  8
0
100
AcDbBlockEnd
  0
BLOCK
  5
1C
100
AcDbEntity
  8
0
100
AcDbBlockBegin
  2
*Paper_Space
 70
0
 10
0.0
 20
0.0
 30
0.0
  3
*Paper_Space
  1

  0
ENDBLK
  5
1D
100
AcDbEntity
  8
0
100
AcDbBlockEnd
  0
BLOCK
  5
233
100
AcDbEntity
  8
0
100
AcDbBlockBegin
  2
_FILLED
 70
64
 10
0.0
 20
0.0
  3
_FILLED
  1

  0
SOLID
  5
234
100
AcDbEntity
  8
0
  6
BYBLOCK
 62
0
100
AcDbTrace
 10
0.0
 20
0.0
 11
-1.0
 21
0.1666666667
 12
-1.0
 22
-0.1666666667
 13
-1.0
 23
-0.1666666667
  0
ENDBLK
  5
235
100
AcDbEntity
  8
0
  6
BYBLOCK
 62
0
100
AcDbBlockEnd
  0
BLOCK
  5
236
100
AcDbEntity
  8
DRIVEN_DIMS
100
AcDbBlockBegin
 62
7
  6
CONTINUOUS
  2
*D0
 70
65
 10
0.0
 20
0.0
  3
*D0
  1

  0
MTEXT
  5
237
100
AcDbEntity
  8
DRIVEN_DIMS
100
AcDbMText
 62
7
  6
CONTINUOUS
  7
STANDARD
 71
2
 72
1
 10
2.4767039002
 20
8.8402366648
 30
0.0
 11
1.0
 21
0.0
 31
0.0
 44
0.9
  1
14.6\P[.58]
 40
0.1
 41
0.5
  0
LINE
  5
238
100
AcDbEntity
  8
DRIVEN_DIMS
100
AcDbLine
 62
7
  6
CONTINUOUS
 10
2.9642039002
 20
8.9801004991
 11
2.4017039002
 21
8.9801004991
  0
LINE
  5
239
100
AcDbEntity
  8
DRIVEN_DIMS
100
AcDbLine
 62
7
  6
CONTINUOUS
 10
3.0602039002
 20
8.4051004991
 11
2.4017039002
 21
8.4051004991
  0
LINE
  5
23A
100
AcDbEntity
  8
DRIVEN_DIMS
100
AcDbLine
 62
7
  6
CONTINUOUS
 10
2.5267039002
 20
8.9801004991
 11
2.5267039002
 21
9.3801004991
  0
LINE
  5
23B
100
AcDbEntity
  8
DRIVEN_DIMS
100
AcDbLine
 62
7
  6
CONTINUOUS
 10
2.5267039002
 20
8.4051004991
 11
2.5267039002
 21
8.0051004991
  0
INSERT
  5
23C
100
AcDbEntity
  8
DRIVEN_DIMS
100
AcDbBlockReference
 62
7
  6
CONTINUOUS
  2
_FILLED
 10
2.5267039002
 20
8.9801004991
 41
0.1875
 42
0.1875
 43
0.1875
 50
270.0
  0
INSERT
  5
23D
100
AcDbEntity
  8
DRIVEN_DIMS
100
AcDbBlockReference
 62
7
  6
CONTINUOUS
  2
_FILLED
 10
2.5267039002
 20
8.4051004991
 41
0.1875
 42
0.1875
 43
0.1875
 50
90.0
  0
ENDBLK
  5
23E
100
AcDbEntity
  8
0
  6
BYBLOCK
 62
0
100
AcDbBlockEnd
  0
BLOCK
  5
23F
100
AcDbEntity
  8
DRIVEN_DIMS
100
AcDbBlockBegin
 62
7
  6
CONTINUOUS
  2
*D1
 70
65
 10
0.0
 20
0.0
  3
*D1
  1

  0
MTEXT
  5
240
100
AcDbEntity
  8
DRIVEN_DIMS
100
AcDbMText
 62
7
  6
CONTINUOUS
  7
STANDARD
 71
2
 72
1
 10
2.4267039002
 20
12.2189196319
 30
0.0
 11
1.0
 21
0.0
 31
0.0
 44
0.9
  1
66.7\P[2.63]
 40
0.1
 41
0.6
  0
LINE
  5
241
100
AcDbEntity
  8
DRIVEN_DIMS
100
AcDbLine
 62
7
  6
CONTINUOUS
 10
2.9642039002
 20
13.4819196319
 11
2.4017039002
 21
13.4819196319
  0
LINE
  5
242
100
AcDbEntity
  8
DRIVEN_DIMS
100
AcDbLine
 62
7
  6
CONTINUOUS
 10
2.9642039002
 20
10.8559196319
 11
2.4017039002
 21
10.8559196319
  0
LINE
  5
243
100
AcDbEntity
  8
DRIVEN_DIMS
100
AcDbLine
 62
7
  6
CONTINUOUS
 10
2.5267039002
 20
13.4819196319
 11
2.5267039002
 21
12.3189196319
  0
LINE
  5
244
100
AcDbEntity
  8
DRIVEN_DIMS
100
AcDbLine
 62
7
  6
CONTINUOUS
 10
2.5267039002
 20
10.8559196319
 11
2.5267039002
 21
11.8689196319
  0
INSERT
  5
245
100
AcDbEntity
  8
DRIVEN_DIMS
100
AcDbBlockReference
 62
7
  6
CONTINUOUS
  2
_FILLED
 10
2.5267039002
 20
13.4819196319
 41
0.1875
 42
0.1875
 43
0.1875
 50
90.0
  0
INSERT
  5
246
100
AcDbEntity
  8
DRIVEN_DIMS
100
AcDbBlockReference
 62
7
  6
CONTINUOUS
  2
_FILLED
 10
2.5267039002
 20
10.8559196319
 41
0.1875
 42
0.1875
 43
0.1875
 50
270.0
  0
ENDBLK
  5
247
100
AcDbEntity
  8
0
  6
BYBLOCK
 62
0
100
AcDbBlockEnd
  0
BLOCK
  5
248
100
AcDbEntity
  8
DRIVEN_DIMS
100
AcDbBlockBegin
 62
7
  6
CONTINUOUS
  2
*D2
 70
65
 10
0.0
 20
0.0
  3
*D2
  1

  0
MTEXT
  5
249
100
AcDbEntity
  8
DRIVEN_DIMS
100
AcDbMText
 62
7
  6
CONTINUOUS
  7
STANDARD
 71
2
 72
1
 10
4.2397039002
 20
14.0319196319
 30
0.0
 11
1.0
 21
0.0
 31
0.0
 44
0.9
  1
66.7\P[2.63]
 40
0.1
 41
0.6
  0
LINE
  5
24A
100
AcDbEntity
  8
DRIVEN_DIMS
100
AcDbLine
 62
7
  6
CONTINUOUS
 10
3.0267039002
 20
13.4964196319
 11
3.0267039002
 21
14.1069196319
  0
LINE
  5
24B
100
AcDbEntity
  8
DRIVEN_DIMS
100
AcDbLine
 62
7
  6
CONTINUOUS
 10
5.6527039002
 20
13.4964196319
 11
5.6527039002
 21
14.1069196319
  0
LINE
  5
24C
100
AcDbEntity
  8
DRIVEN_DIMS
100
AcDbLine
 62
7
  6
CONTINUOUS
 10
3.0267039002
 20
13.9819196319
 11
3.9397039002
 21
13.9819196319
  0
LINE
  5
24D
100
AcDbEntity
  8
DRIVEN_DIMS
100
AcDbLine
 62
7
  6
CONTINUOUS
 10
5.6527039002
 20
13.9819196319
 11
4.7397039002
 21
13.9819196319
  0
INSERT
  5
24E
100
AcDbEntity
  8
DRIVEN_DIMS
100
AcDbBlockReference
 62
7
  6
CONTINUOUS
  2
_FILLED
 10
3.0267039002
 20
13.9819196319
 41
0.1875
 42
0.1875
 43
0.1875
 50
180.0
  0
INSERT
  5
24F
100
AcDbEntity
  8
DRIVEN_DIMS
100
AcDbBlockReference
 62
7
  6
CONTINUOUS
  2
_FILLED
 10
5.6527039002
 20
13.9819196319
 41
0.1875
 42
0.1875
 43
0.1875
  0
ENDBLK
  5
250
100
AcDbEntity
  8
0
  6
BYBLOCK
 62
0
100
AcDbBlockEnd
  0
BLOCK
  5
251
100
AcDbEntity
  8
DRIVEN_DIMS
100
AcDbBlockBegin
 62
7
  6
CONTINUOUS
  2
*D3
 70
65
 10
0.0
 20
0.0
  3
*D3
  1

  0
MTEXT
  5
252
100
AcDbEntity
  8
DRIVEN_DIMS
100
AcDbMText
 62
7
  6
CONTINUOUS
  7
STANDARD
 71
3
 72
1
 10
12.5810685032
 20
9.0908030591
 30
0.0
 11
1.0
 21
0.0
 31
0.0
 44
0.9
  1
5.7\P[.23]
 40
0.1
 41
0.5
  0
LINE
  5
253
100
AcDbEntity
  8
DRIVEN_DIMS
100
AcDbLine
 62
7
  6
CONTINUOUS
 10
14.470397594
 20
8.6301004991
 11
12.9060685032
 21
8.6301004991
  0
LINE
  5
254
100
AcDbEntity
  8
DRIVEN_DIMS
100
AcDbLine
 62
7
  6
CONTINUOUS
 10
13.443397594
 20
8.4051004991
 11
12.9060685032
 21
8.4051004991
  0
LINE
  5
255
100
AcDbEntity
  8
DRIVEN_DIMS
100
AcDbLine
 62
7
  6
CONTINUOUS
 10
13.0310685032
 20
8.6301004991
 11
13.0310685032
 21
9.0408030591
  0
LINE
  5
256
100
AcDbEntity
  8
DRIVEN_DIMS
100
AcDbLine
 62
7
  6
CONTINUOUS
 10
13.0310685032
 20
9.0408030591
 11
12.8810685032
 21
9.0408030591
  0
LINE
  5
257
100
AcDbEntity
  8
DRIVEN_DIMS
100
AcDbLine
 62
7
  6
CONTINUOUS
 10
13.0310685032
 20
8.4051004991
 11
13.0310685032
 21
8.0051004991
  0
INSERT
  5
258
100
AcDbEntity
  8
DRIVEN_DIMS
100
AcDbBlockReference
 62
7
  6
CONTINUOUS
  2
_FILLED
 10
13.0310685032
 20
8.6301004991
 41
0.1875
 42
0.1875
 43
0.1875
 50
270.0
  0
INSERT
  5
259
100
AcDbEntity
  8
DRIVEN_DIMS
100
AcDbBlockReference
 62
7
  6
CONTINUOUS
  2
_FILLED
 10
13.0310685032
 20
8.4051004991
 41
0.1875
 42
0.1875
 43
0.1875
 50
90.0
  0
ENDBLK
  5
25A
100
AcDbEntity
  8
0
  6
BYBLOCK
 62
0
100
AcDbBlockEnd
  0
BLOCK
  5
25B
100
AcDbEntity
  8
DRIVEN_DIMS
100
AcDbBlockBegin
 62
7
  6
CONTINUOUS
  2
*D4
 70
65
 10
0.0
 20
0.0
  3
*D4
  1

  0
MTEXT
  5
25C
100
AcDbEntity
  8
DRIVEN_DIMS
100
AcDbMText
 62
7
  6
CONTINUOUS
  7
STANDARD
 71
2
 72
1
 10
13.966397594
 20
7.9551004991
 30
0.0
 11
1.0
 21
0.0
 31
0.0
 44
0.9
  1
33.4\P[1.31]
 40
0.1
 41
0.6
  0
LINE
  5
25D
100
AcDbEntity
  8
DRIVEN_DIMS
100
AcDbLine
 62
7
  6
CONTINUOUS
 10
14.722897594
 20
8.3776004991
 11
14.722897594
 21
7.7801004991
  0
LINE
  5
25E
100
AcDbEntity
  8
DRIVEN_DIMS
100
AcDbLine
 62
7
  6
CONTINUOUS
 10
13.409897594
 20
8.4406004991
 11
13.409897594
 21
7.7801004991
  0
LINE
  5
25F
100
AcDbEntity
  8
DRIVEN_DIMS
100
AcDbLine
 62
7
  6
CONTINUOUS
 10
14.722897594
 20
7.9051004991
 11
14.466397594
 21
7.9051004991
  0
LINE
  5
260
100
AcDbEntity
  8
DRIVEN_DIMS
100
AcDbLine
 62
7
  6
CONTINUOUS
 10
13.409897594
 20
7.9051004991
 11
13.666397594
 21
7.9051004991
  0
INSERT
  5
261
100
AcDbEntity
  8
DRIVEN_DIMS
100
AcDbBlockReference
 62
7
  6
CONTINUOUS
  2
_FILLED
 10
14.722897594
 20
7.9051004991
 41
0.1875
 42
0.1875
 43
0.1875
  0
INSERT
  5
262
100
AcDbEntity
  8
DRIVEN_DIMS
100
AcDbBlockReference
 62
7
  6
CONTINUOUS
  2
_FILLED
 10
13.409897594
 20
7.9051004991
 41
0.1875
 42
0.1875
 43
0.1875
 50
180.0
  0
ENDBLK
  5
263
100
AcDbEntity
  8
0
  6
BYBLOCK
 62
0
100
AcDbBlockEnd
  0
BLOCK
  5
264
100
AcDbEntity
  8
DRIVEN_DIMS
100
AcDbBlockBegin
 62
7
  6
CONTINUOUS
  2
*D5
 70
65
 10
0.0
 20
0.0
  3
*D5
  1

  0
MTEXT
  5
265
100
AcDbEntity
  8
DRIVEN_DIMS
100
AcDbMText
 62
7
  6
CONTINUOUS
  7
STANDARD
 71
2
 72
1
 10
2.4267039002
 20
4.9084367964
 30
0.0
 11
1.0
 21
0.0
 31
0.0
 44
0.9
  1
33.4\P[1.31]
 40
0.1
 41
0.6
  0
LINE
  5
266
100
AcDbEntity
  8
DRIVEN_DIMS
100
AcDbLine
 62
7
  6
CONTINUOUS
 10
3.9572039002
 20
5.4399367964
 11
2.4017039002
 21
5.4399367964
  0
LINE
  5
267
100
AcDbEntity
  8
DRIVEN_DIMS
100
AcDbLine
 62
7
  6
CONTINUOUS
 10
3.0602039002
 20
4.1269367964
 11
2.4017039002
 21
4.1269367964
  0
LINE
  5
268
100
AcDbEntity
  8
DRIVEN_DIMS
100
AcDbLine
 62
7
  6
CONTINUOUS
 10
2.5267039002
 20
5.4399367964
 11
2.5267039002
 21
5.0084367964
  0
LINE
  5
269
100
AcDbEntity
  8
DRIVEN_DIMS
100
AcDbLine
 62
7
  6
CONTINUOUS
 10
2.5267039002
 20
4.1269367964
 11
2.5267039002
 21
4.5584367964
  0
INSERT
  5
26A
100
AcDbEntity
  8
DRIVEN_DIMS
100
AcDbBlockReference
 62
7
  6
CONTINUOUS
  2
_FILLED
 10
2.5267039002
 20
5.4399367964
 41
0.1875
 42
0.1875
 43
0.1875
 50
90.0
  0
INSERT
  5
26B
100
AcDbEntity
  8
DRIVEN_DIMS
100
AcDbBlockReference
 62
7
  6
CONTINUOUS
  2
_FILLED
 10
2.5267039002
 20
4.1269367964
 41
0.1875
 42
0.1875
 43
0.1875
 50
270.0
  0
ENDBLK
  5
26C
100
AcDbEntity
  8
0
  6
BYBLOCK
 62
0
100
AcDbBlockEnd
  0
BLOCK
  5
26D
100
AcDbEntity
  8
DRIVEN_DIMS
100
AcDbBlockBegin
 62
7
  6
CONTINUOUS
  2
*D6
 70
65
 10
0.0
 20
0.0
  3
*D6
  1

  0
MTEXT
  5
26E
100
AcDbEntity
  8
DRIVEN_DIMS
100
AcDbMText
 62
7
  6
CONTINUOUS
  7
STANDARD
 71
2
 72
1
 10
3.5832039002
 20
3.6769367964
 30
0.0
 11
1.0
 21
0.0
 31
0.0
 44
0.9
  1
33.4\P[1.31]
 40
0.1
 41
0.6
  0
LINE
  5
26F
100
AcDbEntity
  8
DRIVEN_DIMS
100
AcDbLine
 62
7
  6
CONTINUOUS
 10
4.3397039002
 20
5.0574367964
 11
4.3397039002
 21
3.5019367964
  0
LINE
  5
270
100
AcDbEntity
  8
DRIVEN_DIMS
100
AcDbLine
 62
7
  6
CONTINUOUS
 10
3.0267039002
 20
4.1604367964
 11
3.0267039002
 21
3.5019367964
  0
LINE
  5
271
100
AcDbEntity
  8
DRIVEN_DIMS
100
AcDbLine
 62
7
  6
CONTINUOUS
 10
4.3397039002
 20
3.6269367964
 11
4.0832039002
 21
3.6269367964
  0
LINE
  5
272
100
AcDbEntity
  8
DRIVEN_DIMS
100
AcDbLine
 62
7
  6
CONTINUOUS
 10
3.0267039002
 20
3.6269367964
 11
3.2832039002
 21
3.6269367964
  0
INSERT
  5
273
100
AcDbEntity
  8
DRIVEN_DIMS
100
AcDbBlockReference
 62
7
  6
CONTINUOUS
  2
_FILLED
 10
4.3397039002
 20
3.6269367964
 41
0.1875
 42
0.1875
 43
0.1875
  0
INSERT
  5
274
100
AcDbEntity
  8
DRIVEN_DIMS
100
AcDbBlockReference
 62
7
  6
CONTINUOUS
  2
_FILLED
 10
3.0267039002
 20
3.6269367964
 41
0.1875
 42
0.1875
 43
0.1875
 50
180.0
  0
ENDBLK
  5
275
100
AcDbEntity
  8
0
  6
BYBLOCK
 62
0
100
AcDbBlockEnd
  0
BLOCK
  5
276
100
AcDbEntity
  8
0
100
AcDbBlockBegin
  2
*T1
 70
1
 10
0.0
 20
0.0
  3
*T1
  1

  0
LINE
  5
277
100
AcDbEntity
  8
0
100
AcDbLine
 62
7
  6
CONTINUOUS
 10
4.35
 20
0.0
 11
0.0
 21
0.0
  0
LINE
  5
278
100
AcDbEntity
  8
0
100
AcDbLine
 62
7
  6
CONTINUOUS
 10
4.35
 20
0.0
 11
4.35
 21
1.92
  0
LINE
  5
279
100
AcDbEntity
  8
0
100
AcDbLine
 62
7
  6
CONTINUOUS
 10
4.35
 20
1.92
 11
0.0
 21
1.92
  0
LINE
  5
27A
100
AcDbEntity
  8
0
100
AcDbLine
 62
7
  6
CONTINUOUS
 10
0.0
 20
0.0
 11
0.0
 21
1.92
  0
MTEXT
  5
27B
100
AcDbEntity
  8
NOTES
100
AcDbMText
 62
7
  6
CONTINUOUS
  7
STANDARD
 71
2
 72
1
 10
4.125
 20
0.48
 30
0.0
 11
1.0
 21
0.0
 31
0.0
 44
0.9
  1
A
 40
0.1
 41
0.2
  0
MTEXT
  5
27C
100
AcDbEntity
  8
NOTES
100
AcDbMText
 62
7
  6
CONTINUOUS
  7
STANDARD
 71
2
 72
1
 10
2.175
 20
1.08
 30
0.0
 11
1.0
 21
0.0
 31
0.0
 44
0.9
  1
LED(N)A62X62W SERIES\PWEB CAD DRAWINGS 2D/3D
 40
0.1
 41
4.4
  0
ENDBLK
  5
27D
100
AcDbEntity
  8
0
  6
BYBLOCK
 62
0
100
AcDbBlockEnd
  0
ENDSEC
  0
SECTION
  2
ENTITIES
  0
MTEXT
  5
27E
100
AcDbEntity
  8
0
100
AcDbMText
 62
7
  6
CONTINUOUS
  7
TEXTSTYLE_2
 71
2
 72
1
 10
15.7174677477
 20
1.6655662523
 30
0.0
 11
1.0
 21
0.0
 31
0.0
 44
0.9
  1
THIRD ANGLE PROJECTION
 40
0.1
 41
1.76
  0
MTEXT
  5
27F
100
AcDbEntity
  8
0
100
AcDbMText
 62
7
  6
CONTINUOUS
  7
STANDARD
 71
1
 72
1
 10
17.55
 20
1.32
 30
0.0
 11
1.0
 21
0.0
 31
0.0
 44
0.9
  1
DRAWING NO.
 40
0.08
 41
0.88
  0
MTEXT
  5
280
100
AcDbEntity
  8
0
100
AcDbMText
 62
7
  6
CONTINUOUS
  7
TEXTSTYLE_2
 71
1
 72
1
 10
16.75
 20
2.08
 30
0.0
 11
1.0
 21
0.0
 31
0.0
 44
0.9
  1
TITLE
 40
0.1
 41
0.4
  0
MTEXT
  5
281
100
AcDbEntity
  8
0
100
AcDbMText
 62
7
  6
CONTINUOUS
  7
STANDARD
 71
1
 72
1
 10
16.75
 20
1.32
 30
0.0
 11
1.0
 21
0.0
 31
0.0
 44
0.9
  1
SIZE
 40
0.08
 41
0.32
  0
MTEXT
  5
282
100
AcDbEntity
  8
0
100
AcDbMText
 62
7
  6
CONTINUOUS
  7
STANDARD
 71
1
 72
1
 10
16.75
 20
0.95
 30
0.0
 11
1.0
 21
0.0
 31
0.0
 44
0.9
  1
SCALE
 40
0.08
 41
0.4
  0
MTEXT
  5
283
100
AcDbEntity
  8
0
100
AcDbMText
 62
7
  6
CONTINUOUS
  7
TEXTSTYLE_2
 71
2
 72
1
 10
17.17
 20
1.2
 30
0.0
 11
1.0
 21
0.0
 31
0.0
 44
0.9
  1
C
 40
0.1
 41
0.08
  0
MTEXT
  5
284
100
AcDbEntity
  8
0
100
AcDbMText
 62
7
  6
CONTINUOUS
  7
STANDARD
 71
1
 72
1
 10
18.925
 20
0.95
 30
0.0
 11
1.0
 21
0.0
 31
0.0
 44
0.9
  1
SHEET
 40
0.08
 41
0.4
  0
MTEXT
  5
285
100
AcDbEntity
  8
0
100
AcDbMText
 62
7
  6
CONTINUOUS
  7
STANDARD
 71
1
 72
1
 10
20.3
 20
1.32
 30
0.0
 11
1.0
 21
0.0
 31
0.0
 44
0.9
  1
REV.
 40
0.08
 41
0.32
  0
MTEXT
  5
286
100
AcDbEntity
  8
0
100
AcDbMText
 62
7
  6
CONTINUOUS
  7
STANDARD
 71
3
 72
1
 10
21.05
 20
0.698443
 30
0.0
 11
1.0
 21
0.0
 31
0.0
 44
0.9
  1
CREO
 40
0.07
 41
0.28
  0
MTEXT
  5
287
100
AcDbEntity
  8
0
100
AcDbMText
 62
7
  6
CONTINUOUS
  7
TEXTSTYLE_2
 71
2
 72
1
 10
12.257
 20
15.95
 30
0.0
 11
1.0
 21
0.0
 31
0.0
 44
0.9
  1
4
 40
0.1
 41
0.08
  0
MTEXT
  5
288
100
AcDbEntity
  8
0
100
AcDbMText
 62
7
  6
CONTINUOUS
  7
TEXTSTYLE_2
 71
2
 72
1
 10
12.257
 20
0.65
 30
0.0
 11
1.0
 21
0.0
 31
0.0
 44
0.9
  1
4
 40
0.1
 41
0.08
  0
MTEXT
  5
289
100
AcDbEntity
  8
0
100
AcDbMText
 62
7
  6
CONTINUOUS
  7
TEXTSTYLE_2
 71
3
 72
1
 10
0.864
 20
6.375
 30
0.0
 11
1.0
 21
0.0
 31
0.0
 44
0.9
  1
B
 40
0.1
 41
0.08
  0
MTEXT
  5
28A
100
AcDbEntity
  8
0
100
AcDbMText
 62
7
  6
CONTINUOUS
  7
TEXTSTYLE_2
 71
1
 72
1
 10
21.15
 20
6.375
 30
0.0
 11
1.0
 21
0.0
 31
0.0
 44
0.9
  1
B
 40
0.1
 41
0.08
  0
MTEXT
  5
28B
100
AcDbEntity
  8
0
100
AcDbMText
 62
7
  6
CONTINUOUS
  7
TEXTSTYLE_2
 71
3
 72
1
 10
0.864
 20
2.525
 30
0.0
 11
1.0
 21
0.0
 31
0.0
 44
0.9
  1
A
 40
0.1
 41
0.08
  0
MTEXT
  5
28C
100
AcDbEntity
  8
0
100
AcDbMText
 62
7
  6
CONTINUOUS
  7
TEXTSTYLE_2
 71
1
 72
1
 10
21.15
 20
2.525
 30
0.0
 11
1.0
 21
0.0
 31
0.0
 44
0.9
  1
A
 40
0.1
 41
0.08
  0
MTEXT
  5
28D
100
AcDbEntity
  8
0
100
AcDbMText
 62
7
  6
CONTINUOUS
  7
TEXTSTYLE_2
 71
3
 72
1
 10
0.864
 20
14.075
 30
0.0
 11
1.0
 21
0.0
 31
0.0
 44
0.9
  1
D
 40
0.1
 41
0.08
  0
MTEXT
  5
28E
100
AcDbEntity
  8
0
100
AcDbMText
 62
7
  6
CONTINUOUS
  7
TEXTSTYLE_2
 71
1
 72
1
 10
21.15
 20
14.075
 30
0.0
 11
1.0
 21
0.0
 31
0.0
 44
0.9
  1
D
 40
0.1
 41
0.08
  0
MTEXT
  5
28F
100
AcDbEntity
  8
0
100
AcDbMText
 62
7
  6
CONTINUOUS
  7
TEXTSTYLE_2
 71
3
 72
1
 10
0.864
 20
10.225
 30
0.0
 11
1.0
 21
0.0
 31
0.0
 44
0.9
  1
C
 40
0.1
 41
0.08
  0
MTEXT
  5
290
100
AcDbEntity
  8
0
100
AcDbMText
 62
7
  6
CONTINUOUS
  7
TEXTSTYLE_2
 71
1
 72
1
 10
21.15
 20
10.225
 30
0.0
 11
1.0
 21
0.0
 31
0.0
 44
0.9
  1
C
 40
0.1
 41
0.08
  0
MTEXT
  5
291
100
AcDbEntity
  8
0
100
AcDbMText
 62
7
  6
CONTINUOUS
  7
TEXTSTYLE_2
 71
2
 72
1
 10
14.757
 20
0.65
 30
0.0
 11
1.0
 21
0.0
 31
0.0
 44
0.9
  1
3
 40
0.1
 41
0.08
  0
MTEXT
  5
292
100
AcDbEntity
  8
0
100
AcDbMText
 62
7
  6
CONTINUOUS
  7
TEXTSTYLE_2
 71
2
 72
1
 10
14.757
 20
15.95
 30
0.0
 11
1.0
 21
0.0
 31
0.0
 44
0.9
  1
3
 40
0.1
 41
0.08
  0
MTEXT
  5
293
100
AcDbEntity
  8
0
100
AcDbMText
 62
7
  6
CONTINUOUS
  7
TEXTSTYLE_2
 71
2
 72
1
 10
17.257
 20
15.95
 30
0.0
 11
1.0
 21
0.0
 31
0.0
 44
0.9
  1
2
 40
0.1
 41
0.08
  0
MTEXT
  5
294
100
AcDbEntity
  8
0
100
AcDbMText
 62
7
  6
CONTINUOUS
  7
TEXTSTYLE_2
 71
2
 72
1
 10
17.257
 20
0.65
 30
0.0
 11
1.0
 21
0.0
 31
0.0
 44
0.9
  1
2
 40
0.1
 41
0.08
  0
MTEXT
  5
295
100
AcDbEntity
  8
0
100
AcDbMText
 62
7
  6
CONTINUOUS
  7
TEXTSTYLE_2
 71
2
 72
1
 10
19.757
 20
0.65
 30
0.0
 11
1.0
 21
0.0
 31
0.0
 44
0.9
  1
1
 40
0.1
 41
0.08
  0
MTEXT
  5
296
100
AcDbEntity
  8
0
100
AcDbMText
 62
7
  6
CONTINUOUS
  7
TEXTSTYLE_2
 71
2
 72
1
 10
19.757
 20
15.95
 30
0.0
 11
1.0
 21
0.0
 31
0.0
 44
0.9
  1
1
 40
0.1
 41
0.08
  0
MTEXT
  5
297
100
AcDbEntity
  8
0
100
AcDbMText
 62
7
  6
CONTINUOUS
  7
TEXTSTYLE_2
 71
2
 72
1
 10
2.257
 20
0.65
 30
0.0
 11
1.0
 21
0.0
 31
0.0
 44
0.9
  1
8
 40
0.1
 41
0.08
  0
MTEXT
  5
298
100
AcDbEntity
  8
0
100
AcDbMText
 62
7
  6
CONTINUOUS
  7
TEXTSTYLE_2
 71
2
 72
1
 10
4.757
 20
0.65
 30
0.0
 11
1.0
 21
0.0
 31
0.0
 44
0.9
  1
7
 40
0.1
 41
0.08
  0
MTEXT
  5
299
100
AcDbEntity
  8
0
100
AcDbMText
 62
7
  6
CONTINUOUS
  7
TEXTSTYLE_2
 71
2
 72
1
 10
7.257
 20
0.65
 30
0.0
 11
1.0
 21
0.0
 31
0.0
 44
0.9
  1
6
 40
0.1
 41
0.08
  0
MTEXT
  5
29A
100
AcDbEntity
  8
0
100
AcDbMText
 62
7
  6
CONTINUOUS
  7
TEXTSTYLE_2
 71
2
 72
1
 10
9.757
 20
0.65
 30
0.0
 11
1.0
 21
0.0
 31
0.0
 44
0.9
  1
5
 40
0.1
 41
0.08
  0
MTEXT
  5
29B
100
AcDbEntity
  8
0
100
AcDbMText
 62
7
  6
CONTINUOUS
  7
TEXTSTYLE_2
 71
2
 72
1
 10
9.757
 20
15.95
 30
0.0
 11
1.0
 21
0.0
 31
0.0
 44
0.9
  1
5
 40
0.1
 41
0.08
  0
MTEXT
  5
29C
100
AcDbEntity
  8
0
100
AcDbMText
 62
7
  6
CONTINUOUS
  7
TEXTSTYLE_2
 71
2
 72
1
 10
7.257
 20
15.95
 30
0.0
 11
1.0
 21
0.0
 31
0.0
 44
0.9
  1
6
 40
0.1
 41
0.08
  0
MTEXT
  5
29D
100
AcDbEntity
  8
0
100
AcDbMText
 62
7
  6
CONTINUOUS
  7
TEXTSTYLE_2
 71
2
 72
1
 10
4.757
 20
15.95
 30
0.0
 11
1.0
 21
0.0
 31
0.0
 44
0.9
  1
7
 40
0.1
 41
0.08
  0
MTEXT
  5
29E
100
AcDbEntity
  8
0
100
AcDbMText
 62
7
  6
CONTINUOUS
  7
TEXTSTYLE_2
 71
2
 72
1
 10
2.257
 20
15.95
 30
0.0
 11
1.0
 21
0.0
 31
0.0
 44
0.9
  1
8
 40
0.1
 41
0.08
  0
MTEXT
  5
29F
100
AcDbEntity
  8
0
100
AcDbMText
 62
7
  6
CONTINUOUS
  7
STANDARD
 71
1
 72
1
 10
17.2749123633
 20
0.9184107931
 30
0.0
 11
1.0
 21
0.0
 31
0.0
 44
0.9
  1
1:1
 40
0.1
 41
0.3
  0
MTEXT
  5
2A0
100
AcDbEntity
  8
0
100
AcDbMText
 62
7
  6
CONTINUOUS
  7
STANDARD
 71
1
 72
1
 10
19.4499123633
 20
0.9184107931
 30
0.0
 11
1.0
 21
0.0
 31
0.0
 44
0.9
  1
1 OF 1
 40
0.1
 41
0.6
  0
MTEXT
  5
2A1
100
AcDbEntity
  8
0
100
AcDbMText
 62
7
  6
CONTINUOUS
  7
STANDARD
 71
1
 72
1
 10
18.5204017884
 20
1.2400373234
 30
0.0
 11
1.0
 21
0.0
 31
0.0
 44
0.9
  1
192826
 40
0.12
 41
0.72
  0
MTEXT
  5
2A2
100
AcDbEntity
  8
0
100
AcDbMText
 62
7
  6
CONTINUOUS
  7
STANDARD
 71
1
 72
1
 10
1.2857894151
 20
1.4458068967
 30
0.0
 11
1.0
 21
0.0
 31
0.0
 44
0.9
  1
NOTES:\P1. ALL DIMENSIONS ARE MILLIMETERS [INCHES] UNLESS OTHERWISE NOTED.\P2. REFER TO "www.bannerengineering.com" FOR ADDITIONAL DATA AND SPECIFICATIONS.
 40
0.1
 41
7.9
  0
MTEXT
  5
2A3
100
AcDbEntity
  8
0
100
AcDbMText
 62
7
  6
CONTINUOUS
  7
TEXTSTYLE_3
 71
2
 72
1
 10
19.7555637832
 20
2.555409194
 30
0.0
 11
1.0
 21
0.0
 31
0.0
 44
0.9
  1
BANNER ENGINEERING CORP.
 40
0.12
 41
2.592
  0
MTEXT
  5
2A4
100
AcDbEntity
  8
0
100
AcDbMText
 62
7
  6
CONTINUOUS
  7
TEXTSTYLE_2
 71
2
 72
1
 10
19.6690932526
 20
2.3442032634
 30
0.0
 11
1.0
 21
0.0
 31
0.0
 44
0.9
  1
www.bannerengineering.com
 40
0.1
 41
2.0
  0
MTEXT
  5
2A5
100
AcDbEntity
  8
0
100
AcDbMText
 62
7
  6
CONTINUOUS
  7
TEXTSTYLE_4
 71
2
 72
1
 10
15.7104628329
 20
2.6377571551
 30
0.0
 11
1.0
 21
0.0
 31
0.0
 44
0.9
  1
This drawing is the property\Pof BANNER ENGINEERING CORP.\PAny use or reproduction,\Pin any form, without prior\Pwritten permission of\PBanner is prohibited.
 40
0.08
 41
1.904
  0
MTEXT
  5
2A6
100
AcDbEntity
  8
0
100
AcDbMText
 62
7
  6
CONTINUOUS
  7
TEXTSTYLE_5
 71
2
 72
1
 10
15.7283993136
 20
1.9032170366
 30
0.0
 11
1.0
 21
0.0
 31
0.0
 44
0.9
  1
C  2015 Banner Engineering Corp.
 40
0.08
 41
1.92
  0
DIMENSION
  5
2A7
100
AcDbEntity
  8
DRIVEN_DIMS
100
AcDbDimension
 62
7
  6
CONTINUOUS
  2
*D0
 10
2.5267039002
 20
8.4051004991
 11
2.5267039002
 21
8.7152366648
 70
160
 71
2
 42
14.605
  3
DIMSTYLE_1
100
AcDbAlignedDimension
 13
3.0267039002
 23
8.9801004991
 14
3.1227039002
 24
8.4051004991
 50
270.0
100
AcDbRotatedDimension
  0
DIMENSION
  5
2A8
100
AcDbEntity
  8
DRIVEN_DIMS
100
AcDbDimension
 62
7
  6
CONTINUOUS
  2
*D1
 10
2.5267039002
 20
10.8559196319
 11
2.5267039002
 21
12.0939196319
 70
160
 71
2
 42
66.7004
  3
DIMSTYLE_1
100
AcDbAlignedDimension
 13
3.0267039002
 23
13.4819196319
 14
3.0267039002
 24
10.8559196319
 50
270.0
100
AcDbRotatedDimension
  0
DIMENSION
  5
2A9
100
AcDbEntity
  8
DRIVEN_DIMS
100
AcDbDimension
 62
7
  6
CONTINUOUS
  2
*D2
 10
5.6527039002
 20
13.9819196319
 11
4.3397039002
 21
13.9069196319
 70
160
 71
2
 42
66.7004
  3
DIMSTYLE_1
100
AcDbAlignedDimension
 13
3.0267039002
 23
13.4339196319
 14
5.6527039002
 24
13.4339196319
100
AcDbRotatedDimension
  0
DIMENSION
  5
2AA
100
AcDbEntity
  8
DRIVEN_DIMS
100
AcDbDimension
 62
7
  6
CONTINUOUS
  2
*D3
 10
13.0310685032
 20
8.4051004991
 11
12.5310685032
 21
8.9658030591
 70
160
 71
3
 42
5.715
  3
DIMSTYLE_1
100
AcDbAlignedDimension
 13
14.532897594
 23
8.6301004991
 14
13.505897594
 24
8.4051004991
 50
270.0
100
AcDbRotatedDimension
  0
DIMENSION
  5
2AB
100
AcDbEntity
  8
DRIVEN_DIMS
100
AcDbDimension
 62
7
  6
CONTINUOUS
  2
*D4
 10
13.409897594
 20
7.9051004991
 11
14.066397594
 21
7.8301004991
 70
160
 71
2
 42
33.3502
  3
DIMSTYLE_1
100
AcDbAlignedDimension
 13
14.722897594
 23
8.4401004991
 14
13.409897594
 24
8.5031004991
 50
180.0
100
AcDbRotatedDimension
  0
DIMENSION
  5
2AC
100
AcDbEntity
  8
DRIVEN_DIMS
100
AcDbDimension
 62
7
  6
CONTINUOUS
  2
*D5
 10
2.5267039002
 20
4.1269367964
 11
2.5267039002
 21
4.7834367964
 70
160
 71
2
 42
33.3502
  3
DIMSTYLE_1
100
AcDbAlignedDimension
 13
4.0197039002
 23
5.4399367964
 14
3.1227039002
 24
4.1269367964
 50
270.0
100
AcDbRotatedDimension
  0
DIMENSION
  5
2AD
100
AcDbEntity
  8
DRIVEN_DIMS
100
AcDbDimension
 62
7
  6
CONTINUOUS
  2
*D6
 10
3.0267039002
 20
3.6269367964
 11
3.6832039002
 21
3.5519367964
 70
160
 71
2
 42
33.3502
  3
DIMSTYLE_1
100
AcDbAlignedDimension
 13
4.3397039002
 23
5.1199367964
 14
3.0267039002
 24
4.2229367964
 50
180.0
100
AcDbRotatedDimension
  0
ACAD_TABLE
  5
2AE
100
AcDbEntity
  8
0
 62
7
  6
CONTINUOUS
100
AcDbBlockReference
  2
*T1
 10
16.7
 20
0.75
 30
0.0
100
AcDbTable
342
       5EF
343
230
 11
1.0
 21
0.0
 31
0.0
 90
6
 91
3
 92
5
 93
4
 94
0
 95
0
 96
0
 70
1
141
0.33
141
0.45
141
1.14
142
0.65
142
1.15
142
1.025
142
1.075
142
0.45
171
1
172
0
173
0
174
0
175
1
176
1
177
33
178
0
145
0.0
  1
 
170
1
140
0.1
171
1
172
0
173
0
174
0
175
1
176
1
177
33
178
0
145
0.0
  1
 
170
1
140
0.1
171
1
172
0
173
0
174
0
175
1
176
1
177
33
178
0
145
0.0
  1
 
170
1
140
0.1
171
1
172
0
173
0
174
0
175
1
176
1
177
33
178
0
145
0.0
  1
 
170
1
140
0.1
171
1
172
0
173
0
174
0
175
1
176
1
177
33
178
0
145
0.0
  1
 
170
1
140
0.1
171
1
172
0
173
0
174
0
175
1
176
1
177
33
178
0
145
0.0
  1
 
170
1
140
0.1
171
1
172
0
173
0
174
0
175
1
176
1
177
33
178
0
145
0.0
  1
 
170
1
140
0.1
171
1
172
0
173
0
174
0
175
1
176
1
177
33
178
0
145
0.0
  1
 
170
1
140
0.1
171
1
172
0
173
0
174
0
175
1
176
1
177
33
178
0
145
0.0
  1
 
170
1
140
0.1
171
1
172
0
173
0
174
0
175
1
176
1
177
41
178
0
145
0.0
  1
A
170
8
140
0.1
 64
7
171
1
172
0
173
0
174
0
175
5
176
1
177
33
178
0
145
0.0
  1
LED(N)A62X62W SERIES\PWEB CAD DRAWINGS 2D/3D
170
8
140
0.1
171
1
172
0
173
1
174
0
175
1
176
1
177
1
178
0
145
0.0
170
1
171
1
172
0
173
1
174
0
175
1
176
1
177
1
178
0
145
0.0
170
1
171
1
172
0
173
1
174
0
175
1
176
1
177
1
178
0
145
0.0
170
1
171
1
172
0
173
1
174
0
175
1
176
1
177
1
178
0
145
0.0
170
8
  0
MTEXT
  5
2AF
100
AcDbEntity
  8
NOTES
100
AcDbMText
 62
7
  6
CONTINUOUS
  7
STANDARD
 71
2
 72
1
 10
18.6117534162
 20
12.4834089231
 30
0.0
 11
1.0
 21
0.0
 31
0.0
 44
0.9
  1
ISOMETRIC VIEW\P\H0.1;SCALE  1:1
 40
0.125
 41
1.75
  0
LINE
  5
2B0
100
AcDbEntity
  8
0
100
AcDbLine
 62
7
  6
CONTINUOUS
 10
0.814
 20
8.336603
 11
0.814
 21
8.163397
  0
LINE
  5
2B1
100
AcDbEntity
  8
0
100
AcDbLine
 62
7
  6
CONTINUOUS
 10
0.964
 20
15.75
 11
0.964
 21
0.75
  0
LINE
  5
2B2
100
AcDbEntity
  8
0
100
AcDbLine
 62
7
  6
CONTINUOUS
 10
15.8276527477
 20
1.2966912523
 11
16.4340437477
 21
1.3660842523
  0
LINE
  5
2B3
100
AcDbEntity
  8
0
100
AcDbLine
 62
7
  6
CONTINUOUS
 10
10.920397
 20
0.6
 11
11.093603
 21
0.6
  0
LINE
  5
2B4
100
AcDbEntity
  8
0
100
AcDbLine
 62
7
  6
CONTINUOUS
 10
0.964
 20
0.75
 11
21.05
 21
0.75
  0
LINE
  5
2B5
100
AcDbEntity
  8
0
100
AcDbLine
 62
7
  6
CONTINUOUS
 10
3.507
 20
0.75
 11
3.507
 21
0.5
  0
LINE
  5
2B6
100
AcDbEntity
  8
0
100
AcDbLine
 62
7
  6
CONTINUOUS
 10
3.507
 20
15.75
 11
3.507
 21
16.0
  0
LINE
  5
2B7
100
AcDbEntity
  8
0
100
AcDbLine
 62
7
  6
CONTINUOUS
 10
16.7
 20
1.0
 11
21.05
 21
1.0
  0
LINE
  5
2B8
100
AcDbEntity
  8
0
100
AcDbLine
 62
7
  6
CONTINUOUS
 10
14.9008917477
 20
1.1139932523
 11
15.1229827477
 21
1.1139932523
  0
LINE
  5
2B9
100
AcDbEntity
  8
0
100
AcDbLine
 62
7
  6
CONTINUOUS
 10
15.1729827477
 20
1.1139932523
 11
15.2729827477
 21
1.1139932523
  0
LINE
  5
2BA
100
AcDbEntity
  8
0
100
AcDbLine
 62
7
  6
CONTINUOUS
 10
15.3229827477
 20
1.1139932523
 11
15.5450737477
 21
1.1139932523
  0
LINE
  5
2BB
100
AcDbEntity
  8
0
100
AcDbLine
 62
7
  6
CONTINUOUS
 10
15.7276527477
 20
1.1139932523
 11
16.0058047477
 21
1.1139932523
  0
LINE
  5
2BC
100
AcDbEntity
  8
0
100
AcDbLine
 62
7
  6
CONTINUOUS
 10
16.0558047477
 20
1.1139932523
 11
16.2058907477
 21
1.1139932523
  0
LINE
  5
2BD
100
AcDbEntity
  8
0
100
AcDbLine
 62
7
  6
CONTINUOUS
 10
16.2558907477
 20
1.1139932523
 11
16.5340437477
 21
1.1139932523
  0
LINE
  5
2BE
100
AcDbEntity
  8
0
100
AcDbLine
 62
7
  6
CONTINUOUS
 10
16.7
 20
1.37
 11
21.05
 21
1.37
  0
LINE
  5
2BF
100
AcDbEntity
  8
0
100
AcDbLine
 62
7
  6
CONTINUOUS
 10
16.4340437477
 20
0.8619022523
 11
15.8276527477
 21
0.9312952523
  0
LINE
  5
2C0
100
AcDbEntity
  8
0
100
AcDbLine
 62
7
  6
CONTINUOUS
 10
14.7
 20
1.77
 11
16.7
 21
1.77
  0
LINE
  5
2C1
100
AcDbEntity
  8
0
100
AcDbLine
 62
7
  6
CONTINUOUS
 10
16.7
 20
2.13
 11
21.05
 21
2.13
  0
LINE
  5
2C2
100
AcDbEntity
  8
0
100
AcDbLine
 62
7
  6
CONTINUOUS
 10
18.273144232
 20
2.3543254011
 11
18.2257802057
 21
2.3543254011
  0
LINE
  5
2C3
100
AcDbEntity
  8
0
100
AcDbLine
 62
7
  6
CONTINUOUS
 10
18.1818891814
 20
2.3543254011
 11
18.0683181184
 21
2.3543254011
  0
LINE
  5
2C4
100
AcDbEntity
  8
0
100
AcDbLine
 62
7
  6
CONTINUOUS
 10
18.0394141024
 20
2.3543254011
 11
17.8362019897
 21
2.3543254011
  0
LINE
  5
2C5
100
AcDbEntity
  8
0
100
AcDbLine
 62
7
  6
CONTINUOUS
 10
17.7857289617
 20
2.3543254011
 11
17.7115229205
 21
2.3543254011
  0
LINE
  5
2C6
100
AcDbEntity
  8
0
100
AcDbLine
 62
7
  6
CONTINUOUS
 10
17.6651428948
 20
2.3543254011
 11
17.5894788529
 21
2.3543254011
  0
LINE
  5
2C7
100
AcDbEntity
  8
0
100
AcDbLine
 62
7
  6
CONTINUOUS
 10
17.537475824
 20
2.3543254011
 11
17.4632707829
 21
2.3543254011
  0
LINE
  5
2C8
100
AcDbEntity
  8
0
100
AcDbLine
 62
7
  6
CONTINUOUS
 10
17.4168897572
 20
2.3543254011
 11
17.3412257152
 21
2.3543254011
  0
LINE
  5
2C9
100
AcDbEntity
  8
0
100
AcDbLine
 62
7
  6
CONTINUOUS
 10
16.8743904563
 20
2.3543254011
 11
17.0508365542
 21
2.3543254011
  0
LINE
  5
2CA
100
AcDbEntity
  8
0
100
AcDbLine
 62
7
  6
CONTINUOUS
 10
17.1083735861
 20
2.3543254011
 11
17.185749629
 21
2.3543254011
  0
LINE
  5
2CB
100
AcDbEntity
  8
0
100
AcDbLine
 62
7
  6
CONTINUOUS
 10
17.2060356402
 20
2.3543254011
 11
17.3113166986
 21
2.3543254011
  0
LINE
  5
2CC
100
AcDbEntity
  8
0
100
AcDbLine
 62
7
  6
CONTINUOUS
 10
18.1572301677
 20
2.3790534148
 11
18.1818891814
 21
2.3790534148
  0
LINE
  5
2CD
100
AcDbEntity
  8
0
100
AcDbLine
 62
7
  6
CONTINUOUS
 10
17.3113166986
 20
2.3790754148
 11
17.2913006875
 21
2.3790754148
  0
LINE
  5
2CE
100
AcDbEntity
  8
0
100
AcDbLine
 62
7
  6
CONTINUOUS
 10
17.2204866482
 20
2.3790754148
 11
17.2060356402
 21
2.3790754148
  0
LINE
  5
2CF
100
AcDbEntity
  8
0
100
AcDbLine
 62
7
  6
CONTINUOUS
 10
17.185749629
 20
2.3790754148
 11
17.1744666227
 21
2.3790754148
  0
LINE
  5
2D0
100
AcDbEntity
  8
0
100
AcDbLine
 62
7
  6
CONTINUOUS
 10
17.1312345987
 20
2.3790754148
 11
17.1083735861
 21
2.3790754148
  0
LINE
  5
2D1
100
AcDbEntity
  8
0
100
AcDbLine
 62
7
  6
CONTINUOUS
 10
17.0051585288
 20
2.3790754148
 11
16.9637955059
 21
2.3790754148
  0
LINE
  5
2D2
100
AcDbEntity
  8
0
100
AcDbLine
 62
7
  6
CONTINUOUS
 10
16.8983324696
 20
2.3790754148
 11
16.8743904563
 21
2.3790754148
  0
LINE
  5
2D3
100
AcDbEntity
  8
0
100
AcDbLine
 62
7
  6
CONTINUOUS
 10
17.3412257152
 20
2.3790754148
 11
17.3598727255
 21
2.3790754148
  0
LINE
  5
2D4
100
AcDbEntity
  8
0
100
AcDbLine
 62
7
  6
CONTINUOUS
 10
17.3965727459
 20
2.3790754148
 11
17.4168897572
 21
2.3790754148
  0
LINE
  5
2D5
100
AcDbEntity
  8
0
100
AcDbLine
 62
7
  6
CONTINUOUS
 10
17.5894788529
 20
2.3790754148
 11
17.6081248632
 21
2.3790754148
  0
LINE
  5
2D6
100
AcDbEntity
  8
0
100
AcDbLine
 62
7
  6
CONTINUOUS
 10
17.6448258836
 20
2.3790754148
 11
17.6651428948
 21
2.3790754148
  0
LINE
  5
2D7
100
AcDbEntity
  8
0
100
AcDbLine
 62
7
  6
CONTINUOUS
 10
17.8362019897
 20
2.3790754148
 11
17.860125003
 21
2.3790754148
  0
LINE
  5
2D8
100
AcDbEntity
  8
0
100
AcDbLine
 62
7
  6
CONTINUOUS
 10
17.9271410401
 20
2.3790754148
 11
17.9921450762
 21
2.3790754148
  0
LINE
  5
2D9
100
AcDbEntity
  8
0
100
AcDbLine
 62
7
  6
CONTINUOUS
 10
18.0683181184
 20
2.3790754148
 11
18.091064131
 21
2.3790754148
  0
LINE
  5
2DA
100
AcDbEntity
  8
0
100
AcDbLine
 62
7
  6
CONTINUOUS
 10
18.2741672326
 20
2.379462415
 11
18.2752762332
 21
2.379462415
  0
LINE
  5
2DB
100
AcDbEntity
  8
0
100
AcDbLine
 62
7
  6
CONTINUOUS
 10
17.9970950789
 20
2.3922754221
 11
18.0394141024
 21
2.3922754221
  0
LINE
  5
2DC
100
AcDbEntity
  8
0
100
AcDbLine
 62
7
  6
CONTINUOUS
 10
17.1799826258
 20
2.3927194224
 11
17.2148606451
 21
2.3927194224
  0
LINE
  5
2DD
100
AcDbEntity
  8
0
100
AcDbLine
 62
7
  6
CONTINUOUS
 10
18.2860312391
 20
2.3932124227
 11
18.2981412459
 21
2.3932124227
  0
LINE
  5
2DE
100
AcDbEntity
  8
0
100
AcDbLine
 62
7
  6
CONTINUOUS
 10
18.184837183
 20
2.3937024229
 11
18.1572301677
 21
2.3937024229
  0
LINE
  5
2DF
100
AcDbEntity
  8
0
100
AcDbLine
 62
7
  6
CONTINUOUS
 10
17.9623080596
 20
2.395575424
 11
17.9271410401
 21
2.395575424
  0
LINE
  5
2E0
100
AcDbEntity
  8
0
100
AcDbLine
 62
7
  6
CONTINUOUS
 10
16.9637955059
 20
2.3964004244
 11
17.0051585288
 21
2.3964004244
  0
LINE
  5
2E1
100
AcDbEntity
  8
0
100
AcDbLine
 62
7
  6
CONTINUOUS
 10
18.1911671865
 20
2.4127054335
 11
18.1572301677
 21
2.4127054335
  0
LINE
  5
2E2
100
AcDbEntity
  8
0
100
AcDbLine
 62
7
  6
CONTINUOUS
 10
16.9637955059
 20
2.4130554337
 11
17.0051585288
 21
2.4130554337
  0
LINE
  5
2E3
100
AcDbEntity
  8
0
100
AcDbLine
 62
7
  6
CONTINUOUS
 10
17.1884986305
 20
2.413669434
 11
17.2090556419
 21
2.413669434
  0
LINE
  5
2E4
100
AcDbEntity
  8
0
100
AcDbLine
 62
7
  6
CONTINUOUS
 10
17.9271410401
 20
2.4138804341
 11
17.9623080596
 21
2.4138804341
  0
LINE
  5
2E5
100
AcDbEntity
  8
0
100
AcDbLine
 62
7
  6
CONTINUOUS
 10
18.0379951016
 20
2.4171804359
 11
17.9961310784
 21
2.4171804359
  0
LINE
  5
2E6
100
AcDbEntity
  8
0
100
AcDbLine
 62
7
  6
CONTINUOUS
 10
17.2017966379
 20
2.429836443
 11
17.1956156344
 21
2.429836443
  0
LINE
  5
2E7
100
AcDbEntity
  8
0
100
AcDbLine
 62
7
  6
CONTINUOUS
 10
18.091064131
 20
2.4303804433
 11
18.0683181184
 21
2.4303804433
  0
LINE
  5
2E8
100
AcDbEntity
  8
0
100
AcDbLine
 62
7
  6
CONTINUOUS
 10
17.9911810756
 20
2.4303804433
 11
17.9271410401
 21
2.4303804433
  0
LINE
  5
2E9
100
AcDbEntity
  8
0
100
AcDbLine
 62
7
  6
CONTINUOUS
 10
17.860125003
 20
2.4303804433
 11
17.8362019897
 21
2.4303804433
  0
LINE
  5
2EA
100
AcDbEntity
  8
0
100
AcDbLine
 62
7
  6
CONTINUOUS
 10
17.8086119744
 20
2.4303804433
 11
17.7906789644
 21
2.4303804433
  0
LINE
  5
2EB
100
AcDbEntity
  8
0
100
AcDbLine
 62
7
  6
CONTINUOUS
 10
17.7533869438
 20
2.4303804433
 11
17.7346109333
 21
2.4303804433
  0
LINE
  5
2EC
100
AcDbEntity
  8
0
100
AcDbLine
 62
7
  6
CONTINUOUS
 10
17.6081248632
 20
2.4303804433
 11
17.5894788529
 21
2.4303804433
  0
LINE
  5
2ED
100
AcDbEntity
  8
0
100
AcDbLine
 62
7
  6
CONTINUOUS
 10
17.5603588367
 20
2.4303804433
 11
17.5424258268
 21
2.4303804433
  0
LINE
  5
2EE
100
AcDbEntity
  8
0
100
AcDbLine
 62
7
  6
CONTINUOUS
 10
17.5051338061
 20
2.4303804433
 11
17.4863577957
 21
2.4303804433
  0
LINE
  5
2EF
100
AcDbEntity
  8
0
100
AcDbLine
 62
7
  6
CONTINUOUS
 10
17.3598727255
 20
2.4303804433
 11
17.3412257152
 21
2.4303804433
  0
LINE
  5
2F0
100
AcDbEntity
  8
0
100
AcDbLine
 62
7
  6
CONTINUOUS
 10
17.0051585288
 20
2.4303804433
 11
16.9637955059
 21
2.4303804433
  0
LINE
  5
2F1
100
AcDbEntity
  8
0
100
AcDbLine
 62
7
  6
CONTINUOUS
 10
16.8743904563
 20
2.4303804433
 11
16.8983324696
 21
2.4303804433
  0
LINE
  5
2F2
100
AcDbEntity
  8
0
100
AcDbLine
 62
7
  6
CONTINUOUS
 10
18.1572301677
 20
2.4303804433
 11
18.1940311881
 21
2.4303804433
  0
LINE
  5
2F3
100
AcDbEntity
  8
0
100
AcDbLine
 62
7
  6
CONTINUOUS
 10
17.2393896587
 20
2.455130457
 11
17.182214627
 21
2.455130457
  0
LINE
  5
2F4
100
AcDbEntity
  8
0
100
AcDbLine
 62
7
  6
CONTINUOUS
 10
17.0404535484
 20
2.455130457
 11
16.8743904563
 21
2.455130457
  0
LINE
  5
2F5
100
AcDbEntity
  8
0
100
AcDbLine
 62
7
  6
CONTINUOUS
 10
17.3412257152
 20
2.455130457
 11
17.4416837709
 21
2.455130457
  0
LINE
  5
2F6
100
AcDbEntity
  8
0
100
AcDbLine
 62
7
  6
CONTINUOUS
 10
17.4863577957
 20
2.455130457
 11
17.5603588367
 21
2.455130457
  0
LINE
  5
2F7
100
AcDbEntity
  8
0
100
AcDbLine
 62
7
  6
CONTINUOUS
 10
17.5894788529
 20
2.455130457
 11
17.6899369086
 21
2.455130457
  0
LINE
  5
2F8
100
AcDbEntity
  8
0
100
AcDbLine
 62
7
  6
CONTINUOUS
 10
17.7346109333
 20
2.455130457
 11
17.8086119744
 21
2.455130457
  0
LINE
  5
2F9
100
AcDbEntity
  8
0
100
AcDbLine
 62
7
  6
CONTINUOUS
 10
17.8362019897
 20
2.455130457
 11
18.0379951016
 21
2.455130457
  0
LINE
  5
2FA
100
AcDbEntity
  8
0
100
AcDbLine
 62
7
  6
CONTINUOUS
 10
18.0683181184
 20
2.455130457
 11
18.2178992014
 21
2.455130457
  0
LINE
  5
2FB
100
AcDbEntity
  8
0
100
AcDbLine
 62
7
  6
CONTINUOUS
 10
17.0697205646
 20
2.4006414268
 11
17.059669559
 21
2.4041904287
  0
LINE
  5
2FC
100
AcDbEntity
  8
0
100
AcDbLine
 62
7
  6
CONTINUOUS
 10
17.4615617819
 20
2.3550094015
 11
17.3982817468
 21
2.415387435
  0
LINE
  5
2FD
100
AcDbEntity
  8
0
100
AcDbLine
 62
7
  6
CONTINUOUS
 10
17.4433917718
 20
2.4544464566
 11
17.5034248051
 21
2.3971664249
  0
LINE
  5
2FE
100
AcDbEntity
  8
0
100
AcDbLine
 62
7
  6
CONTINUOUS
 10
17.7098149196
 20
2.3550094015
 11
17.6465348845
 21
2.415387435
  0
LINE
  5
2FF
100
AcDbEntity
  8
0
100
AcDbLine
 62
7
  6
CONTINUOUS
 10
17.6916449095
 20
2.4544464566
 11
17.7516779428
 21
2.3971664249
  0
LINE
  5
300
100
AcDbEntity
  8
0
100
AcDbLine
 62
7
  6
CONTINUOUS
 10
17.2169386463
 20
2.3915884218
 11
17.2225646494
 21
2.3828954169
  0
LINE
  5
301
100
AcDbEntity
  8
0
100
AcDbLine
 62
7
  6
CONTINUOUS
 10
17.211133643
 20
2.4174894361
 11
17.203874639
 21
2.4287054423
  0
LINE
  5
302
100
AcDbEntity
  8
0
100
AcDbLine
 62
7
  6
CONTINUOUS
 10
17.2892236864
 20
2.3802054154
 11
17.2414676599
 21
2.4540004564
  0
LINE
  5
303
100
AcDbEntity
  8
0
100
AcDbLine
 62
7
  6
CONTINUOUS
 10
18.206476195
 20
2.3723714111
 11
18.204672194
 21
2.3784404145
  0
LINE
  5
304
100
AcDbEntity
  8
0
100
AcDbLine
 62
7
  6
CONTINUOUS
 10
16.8719154549
 20
2.4526554556
 11
16.8719154549
 21
2.4328554446
  0
LINE
  5
305
100
AcDbEntity
  8
0
100
AcDbLine
 62
7
  6
CONTINUOUS
 10
16.8719154549
 20
2.3766004134
 11
16.8719154549
 21
2.3568004025
  0
LINE
  5
306
100
AcDbEntity
  8
0
100
AcDbLine
 62
7
  6
CONTINUOUS
 10
16.9008074709
 20
2.4279054419
 11
16.9008074709
 21
2.3815504162
  0
LINE
  5
307
100
AcDbEntity
  8
0
100
AcDbLine
 62
7
  6
CONTINUOUS
 10
16.9613205045
 20
2.4279054419
 11
16.9613205045
 21
2.415530435
  0
LINE
  5
308
100
AcDbEntity
  8
0
100
AcDbLine
 62
7
  6
CONTINUOUS
 10
16.9613205045
 20
2.3815504162
 11
16.9613205045
 21
2.3939254231
  0
LINE
  5
309
100
AcDbEntity
  8
0
100
AcDbLine
 62
7
  6
CONTINUOUS
 10
17.1058985847
 20
2.3766004134
 11
17.1058985847
 21
2.3568004025
  0
LINE
  5
30A
100
AcDbEntity
  8
0
100
AcDbLine
 62
7
  6
CONTINUOUS
 10
17.1882246303
 20
2.3568004025
 11
17.1882246303
 21
2.3766004134
  0
LINE
  5
30B
100
AcDbEntity
  8
0
100
AcDbLine
 62
7
  6
CONTINUOUS
 10
17.2035606388
 20
2.3766004134
 11
17.2035606388
 21
2.3568004025
  0
LINE
  5
30C
100
AcDbEntity
  8
0
100
AcDbLine
 62
7
  6
CONTINUOUS
 10
17.3137917
 20
2.3568004025
 11
17.3137917
 21
2.3766004134
  0
LINE
  5
30D
100
AcDbEntity
  8
0
100
AcDbLine
 62
7
  6
CONTINUOUS
 10
17.3387507138
 20
2.3568004025
 11
17.3387507138
 21
2.3766004134
  0
LINE
  5
30E
100
AcDbEntity
  8
0
100
AcDbLine
 62
7
  6
CONTINUOUS
 10
17.3387507138
 20
2.4328554446
 11
17.3387507138
 21
2.4526554556
  0
LINE
  5
30F
100
AcDbEntity
  8
0
100
AcDbLine
 62
7
  6
CONTINUOUS
 10
17.3623477269
 20
2.3815504162
 11
17.3623477269
 21
2.4279054419
  0
LINE
  5
310
100
AcDbEntity
  8
0
100
AcDbLine
 62
7
  6
CONTINUOUS
 10
17.3940977445
 20
2.413596434
 11
17.3940977445
 21
2.3815504162
  0
LINE
  5
311
100
AcDbEntity
  8
0
100
AcDbLine
 62
7
  6
CONTINUOUS
 10
17.4193647585
 20
2.3766004134
 11
17.4193647585
 21
2.3568004025
  0
LINE
  5
312
100
AcDbEntity
  8
0
100
AcDbLine
 62
7
  6
CONTINUOUS
 10
17.4838827943
 20
2.4328554446
 11
17.4838827943
 21
2.4526554556
  0
LINE
  5
313
100
AcDbEntity
  8
0
100
AcDbLine
 62
7
  6
CONTINUOUS
 10
17.5076088075
 20
2.3989574258
 11
17.5076088075
 21
2.4279054419
  0
LINE
  5
314
100
AcDbEntity
  8
0
100
AcDbLine
 62
7
  6
CONTINUOUS
 10
17.5399508254
 20
2.4279054419
 11
17.5399508254
 21
2.3568004025
  0
LINE
  5
315
100
AcDbEntity
  8
0
100
AcDbLine
 62
7
  6
CONTINUOUS
 10
17.5628338381
 20
2.4526554556
 11
17.5628338381
 21
2.4328554446
  0
LINE
  5
316
100
AcDbEntity
  8
0
100
AcDbLine
 62
7
  6
CONTINUOUS
 10
17.5870038515
 20
2.3568004025
 11
17.5870038515
 21
2.3766004134
  0
LINE
  5
317
100
AcDbEntity
  8
0
100
AcDbLine
 62
7
  6
CONTINUOUS
 10
17.5870038515
 20
2.4328554446
 11
17.5870038515
 21
2.4526554556
  0
LINE
  5
318
100
AcDbEntity
  8
0
100
AcDbLine
 62
7
  6
CONTINUOUS
 10
17.6105998646
 20
2.3815504162
 11
17.6105998646
 21
2.4279054419
  0
LINE
  5
319
100
AcDbEntity
  8
0
100
AcDbLine
 62
7
  6
CONTINUOUS
 10
17.6423508822
 20
2.413596434
 11
17.6423508822
 21
2.3815504162
  0
LINE
  5
31A
100
AcDbEntity
  8
0
100
AcDbLine
 62
7
  6
CONTINUOUS
 10
17.6676178962
 20
2.3766004134
 11
17.6676178962
 21
2.3568004025
  0
LINE
  5
31B
100
AcDbEntity
  8
0
100
AcDbLine
 62
7
  6
CONTINUOUS
 10
17.732135932
 20
2.4328554446
 11
17.732135932
 21
2.4526554556
  0
LINE
  5
31C
100
AcDbEntity
  8
0
100
AcDbLine
 62
7
  6
CONTINUOUS
 10
17.7558619451
 20
2.3989574258
 11
17.7558619451
 21
2.4279054419
  0
LINE
  5
31D
100
AcDbEntity
  8
0
100
AcDbLine
 62
7
  6
CONTINUOUS
 10
17.7882039631
 20
2.4279054419
 11
17.7882039631
 21
2.3568004025
  0
LINE
  5
31E
100
AcDbEntity
  8
0
100
AcDbLine
 62
7
  6
CONTINUOUS
 10
17.8110869758
 20
2.4526554556
 11
17.8110869758
 21
2.4328554446
  0
LINE
  5
31F
100
AcDbEntity
  8
0
100
AcDbLine
 62
7
  6
CONTINUOUS
 10
17.8337269883
 20
2.3568004025
 11
17.8337269883
 21
2.3766004134
  0
LINE
  5
320
100
AcDbEntity
  8
0
100
AcDbLine
 62
7
  6
CONTINUOUS
 10
17.8337269883
 20
2.4328554446
 11
17.8337269883
 21
2.4526554556
  0
LINE
  5
321
100
AcDbEntity
  8
0
100
AcDbLine
 62
7
  6
CONTINUOUS
 10
17.8626000043
 20
2.3815504162
 11
17.8626000043
 21
2.4279054419
  0
LINE
  5
322
100
AcDbEntity
  8
0
100
AcDbLine
 62
7
  6
CONTINUOUS
 10
17.9246660387
 20
2.4279054419
 11
17.9246660387
 21
2.4163554355
  0
LINE
  5
323
100
AcDbEntity
  8
0
100
AcDbLine
 62
7
  6
CONTINUOUS
 10
17.9246660387
 20
2.3931004226
 11
17.9246660387
 21
2.3815504162
  0
LINE
  5
324
100
AcDbEntity
  8
0
100
AcDbLine
 62
7
  6
CONTINUOUS
 10
17.964783061
 20
2.4114054327
 11
17.964783061
 21
2.3980504253
  0
LINE
  5
325
100
AcDbEntity
  8
0
100
AcDbLine
 62
7
  6
CONTINUOUS
 10
17.993656077
 20
2.4196554373
 11
17.993656077
 21
2.4279054419
  0
LINE
  5
326
100
AcDbEntity
  8
0
100
AcDbLine
 62
7
  6
CONTINUOUS
 10
17.9946200775
 20
2.3815504162
 11
17.9946200775
 21
2.3898004208
  0
LINE
  5
327
100
AcDbEntity
  8
0
100
AcDbLine
 62
7
  6
CONTINUOUS
 10
18.040470103
 20
2.4526554556
 11
18.040470103
 21
2.4196554373
  0
LINE
  5
328
100
AcDbEntity
  8
0
100
AcDbLine
 62
7
  6
CONTINUOUS
 10
18.0418891038
 20
2.3898004208
 11
18.0418891038
 21
2.3568004025
  0
LINE
  5
329
100
AcDbEntity
  8
0
100
AcDbLine
 62
7
  6
CONTINUOUS
 10
18.065843117
 20
2.3568004025
 11
18.065843117
 21
2.3766004134
  0
LINE
  5
32A
100
AcDbEntity
  8
0
100
AcDbLine
 62
7
  6
CONTINUOUS
 10
18.065843117
 20
2.4328554446
 11
18.065843117
 21
2.4526554556
  0
LINE
  5
32B
100
AcDbEntity
  8
0
100
AcDbLine
 62
7
  6
CONTINUOUS
 10
18.0935391324
 20
2.3815504162
 11
18.0935391324
 21
2.4279054419
  0
LINE
  5
32C
100
AcDbEntity
  8
0
100
AcDbLine
 62
7
  6
CONTINUOUS
 10
18.1547551663
 20
2.3912274216
 11
18.1547551663
 21
2.3815284162
  0
LINE
  5
32D
100
AcDbEntity
  8
0
100
AcDbLine
 62
7
  6
CONTINUOUS
 10
18.1547551663
 20
2.4151804348
 11
18.1547551663
 21
2.4279054419
  0
LINE
  5
32E
100
AcDbEntity
  8
0
100
AcDbLine
 62
7
  6
CONTINUOUS
 10
18.1843641828
 20
2.3765784134
 11
18.1843641828
 21
2.3568004025
  0
LINE
  5
32F
100
AcDbEntity
  8
0
100
AcDbLine
 62
7
  6
CONTINUOUS
 10
18.2835562378
 20
2.3881114198
 11
18.2835562378
 21
2.3907374213
  0
LINE
  5
330
100
AcDbEntity
  8
0
100
AcDbLine
 62
7
  6
CONTINUOUS
 10
18.3006162472
 20
2.3907374213
 11
18.3006162472
 21
2.3791854149
  0
LINE
  5
331
100
AcDbEntity
  8
0
100
AcDbLine
 62
7
  6
CONTINUOUS
 10
18.3975725422
 20
2.3981678251
 11
18.3975725422
 21
2.4087850316
  0
LINE
  5
332
100
AcDbEntity
  8
0
100
AcDbLine
 62
7
  6
CONTINUOUS
 10
17.1801246258
 20
2.4539814564
 11
17.1333245999
 21
2.3802244155
  0
LINE
  5
333
100
AcDbEntity
  8
0
100
AcDbLine
 62
7
  6
CONTINUOUS
 10
17.1935256333
 20
2.4286874423
 11
17.1864086293
 21
2.4174704361
  0
LINE
  5
334
100
AcDbEntity
  8
0
100
AcDbLine
 62
7
  6
CONTINUOUS
 10
17.1723766216
 20
2.3828764169
 11
17.1778926246
 21
2.3915704217
  0
LINE
  5
335
100
AcDbEntity
  8
0
100
AcDbLine
 62
7
  6
CONTINUOUS
 10
17.059669559
 20
2.4041904287
 11
17.0679095636
 21
2.4089664314
  0
ARC
  5
336
100
AcDbEntity
  8
0
100
AcDbCircle
 62
7
  6
CONTINUOUS
 10
17.4632701481
 20
2.3568008172
 40
0.0024754162
100
AcDbArc
 50
226.3593695814
 51
270.0146919953
  0
ARC
  5
337
100
AcDbEntity
  8
0
100
AcDbCircle
 62
7
  6
CONTINUOUS
 10
16.8743904545
 20
2.3568004006
 40
0.0024749995
100
AcDbArc
 50
179.9999571957
 51
270.0000428043
  0
ARC
  5
338
100
AcDbEntity
  8
0
100
AcDbCircle
 62
7
  6
CONTINUOUS
 10
17.5374758259
 20
2.3568004006
 40
0.0024749995
100
AcDbArc
 50
269.9999571957
 51
0.0000428043
  0
ARC
  5
339
100
AcDbEntity
  8
0
100
AcDbCircle
 62
7
  6
CONTINUOUS
 10
17.416889759
 20
2.3568004006
 40
0.0024749995
100
AcDbArc
 50
269.9999571957
 51
0.0000428043
  0
ARC
  5
33A
100
AcDbEntity
  8
0
100
AcDbCircle
 62
7
  6
CONTINUOUS
 10
17.3412257133
 20
2.3568004006
 40
0.0024749995
100
AcDbArc
 50
179.9999571957
 51
270.0000428043
  0
ARC
  5
33B
100
AcDbEntity
  8
0
100
AcDbCircle
 62
7
  6
CONTINUOUS
 10
17.2060356384
 20
2.3568004006
 40
0.0024749995
100
AcDbArc
 50
179.9999571957
 51
270.0000428043
  0
ARC
  5
33C
100
AcDbEntity
  8
0
100
AcDbCircle
 62
7
  6
CONTINUOUS
 10
17.3113167005
 20
2.3568004006
 40
0.0024749995
100
AcDbArc
 50
269.9999571957
 51
0.0000428043
  0
ARC
  5
33D
100
AcDbEntity
  8
0
100
AcDbCircle
 62
7
  6
CONTINUOUS
 10
17.1083735842
 20
2.3568004006
 40
0.0024749995
100
AcDbArc
 50
179.9999571957
 51
270.0000428043
  0
ARC
  5
33E
100
AcDbEntity
  8
0
100
AcDbCircle
 62
7
  6
CONTINUOUS
 10
17.1857496308
 20
2.3568004006
 40
0.0024749995
100
AcDbArc
 50
269.9999571958
 51
0.0000428044
  0
ARC
  5
33F
100
AcDbEntity
  8
0
100
AcDbCircle
 62
7
  6
CONTINUOUS
 10
17.0404590422
 20
2.3933827403
 40
0.061747717
100
AcDbArc
 50
59.5385584989
 51
90.0050977555
  0
ARC
  5
340
100
AcDbEntity
  8
0
100
AcDbCircle
 62
7
  6
CONTINUOUS
 10
17.0481152095
 20
2.4027328529
 40
0.048483885
100
AcDbArc
 50
273.21763719
 51
303.0749121182
  0
ARC
  5
341
100
AcDbEntity
  8
0
100
AcDbCircle
 62
7
  6
CONTINUOUS
 10
17.0620614151
 20
2.3797859164
 40
0.0222174455
100
AcDbArc
 50
4.0793399388
 51
69.834329283
  0
ARC
  5
342
100
AcDbEntity
  8
0
100
AcDbCircle
 62
7
  6
CONTINUOUS
 10
17.0629546036
 20
2.379965244
 40
0.0213072145
100
AcDbArc
 50
303.0488228549
 51
355.7263138674
  0
ARC
  5
343
100
AcDbEntity
  8
0
100
AcDbCircle
 62
7
  6
CONTINUOUS
 10
17.0688911042
 20
2.3799744343
 40
0.0153945295
100
AcDbArc
 50
354.0454548824
 51
5.1878013979
  0
ARC
  5
344
100
AcDbEntity
  8
0
100
AcDbCircle
 62
7
  6
CONTINUOUS
 10
17.0051585288
 20
2.3877379196
 40
0.0086625048
100
AcDbArc
 50
270.0
 51
90.0
  0
ARC
  5
345
100
AcDbEntity
  8
0
100
AcDbCircle
 62
7
  6
CONTINUOUS
 10
17.2148601055
 20
2.3902439622
 40
0.0024754602
100
AcDbArc
 50
32.8959418573
 51
89.9875097202
  0
ARC
  5
346
100
AcDbEntity
  8
0
100
AcDbCircle
 62
7
  6
CONTINUOUS
 10
17.131234669
 20
2.3815506151
 40
0.0024752003
100
AcDbArc
 50
269.9983726451
 51
327.602165307
  0
ARC
  5
347
100
AcDbEntity
  8
0
100
AcDbCircle
 62
7
  6
CONTINUOUS
 10
17.1799825555
 20
2.3902442221
 40
0.0024752003
100
AcDbArc
 50
89.998372645
 51
147.602165307
  0
ARC
  5
348
100
AcDbEntity
  8
0
100
AcDbCircle
 62
7
  6
CONTINUOUS
 10
17.1744665134
 20
2.3815504549
 40
0.0024750401
100
AcDbArc
 50
147.6063258011
 51
270.0025305754
  0
ARC
  5
349
100
AcDbEntity
  8
0
100
AcDbCircle
 62
7
  6
CONTINUOUS
 10
16.8983324714
 20
2.3815504143
 40
0.0024749995
100
AcDbArc
 50
269.9999571957
 51
0.0000428043
  0
ARC
  5
34A
100
AcDbEntity
  8
0
100
AcDbCircle
 62
7
  6
CONTINUOUS
 10
16.8743904545
 20
2.3766004153
 40
0.0024749995
100
AcDbArc
 50
89.9999571957
 51
180.0000428043
  0
ARC
  5
34B
100
AcDbEntity
  8
0
100
AcDbCircle
 62
7
  6
CONTINUOUS
 10
16.963795504
 20
2.3939254249
 40
0.0024749995
100
AcDbArc
 50
89.9999571957
 51
180.0000428043
  0
ARC
  5
34C
100
AcDbEntity
  8
0
100
AcDbCircle
 62
7
  6
CONTINUOUS
 10
16.963795504
 20
2.3815504143
 40
0.0024749995
100
AcDbArc
 50
179.9999571957
 51
270.0000428043
  0
ARC
  5
34D
100
AcDbEntity
  8
0
100
AcDbCircle
 62
7
  6
CONTINUOUS
 10
17.2060356384
 20
2.3766004153
 40
0.0024749995
100
AcDbArc
 50
89.9999571957
 51
180.0000428043
  0
ARC
  5
34E
100
AcDbEntity
  8
0
100
AcDbCircle
 62
7
  6
CONTINUOUS
 10
17.1083735842
 20
2.3766004153
 40
0.0024749995
100
AcDbArc
 50
89.9999571957
 51
180.0000428043
  0
ARC
  5
34F
100
AcDbEntity
  8
0
100
AcDbCircle
 62
7
  6
CONTINUOUS
 10
17.1857496308
 20
2.3766004153
 40
0.0024749995
100
AcDbArc
 50
359.9999571957
 51
90.0000428043
  0
ARC
  5
350
100
AcDbEntity
  8
0
100
AcDbCircle
 62
7
  6
CONTINUOUS
 10
17.0460441811
 20
2.445793323
 40
0.0428289026
100
AcDbArc
 50
300.6990502959
 51
319.0591802498
  0
ARC
  5
351
100
AcDbEntity
  8
0
100
AcDbCircle
 62
7
  6
CONTINUOUS
 10
17.0611211659
 20
2.4263113051
 40
0.0229166529
100
AcDbArc
 50
20.6563876465
 51
62.3316896973
  0
ARC
  5
352
100
AcDbEntity
  8
0
100
AcDbCircle
 62
7
  6
CONTINUOUS
 10
17.0660727781
 20
2.4296649696
 40
0.0171568255
100
AcDbArc
 50
315.9145124245
 51
16.0049121283
  0
ARC
  5
353
100
AcDbEntity
  8
0
100
AcDbCircle
 62
7
  6
CONTINUOUS
 10
17.0051585288
 20
2.4217179385
 40
0.0086625048
100
AcDbArc
 50
270.0
 51
90.0
  0
ARC
  5
354
100
AcDbEntity
  8
0
100
AcDbCircle
 62
7
  6
CONTINUOUS
 10
17.2017960982
 20
2.4273609828
 40
0.0024754602
100
AcDbArc
 50
32.8959418573
 51
89.9875097202
  0
ARC
  5
355
100
AcDbEntity
  8
0
100
AcDbCircle
 62
7
  6
CONTINUOUS
 10
17.2090556207
 20
2.4161446411
 40
0.0024752071
100
AcDbArc
 50
270.0004896793
 51
32.9089806818
  0
ARC
  5
356
100
AcDbEntity
  8
0
100
AcDbCircle
 62
7
  6
CONTINUOUS
 10
17.1956155641
 20
2.4273612427
 40
0.0024752003
100
AcDbArc
 50
89.998372645
 51
147.602165307
  0
ARC
  5
357
100
AcDbEntity
  8
0
100
AcDbCircle
 62
7
  6
CONTINUOUS
 10
17.1822145567
 20
2.4526552567
 40
0.0024752003
100
AcDbArc
 50
89.998372645
 51
147.602165307
  0
ARC
  5
358
100
AcDbEntity
  8
0
100
AcDbCircle
 62
7
  6
CONTINUOUS
 10
17.1884985212
 20
2.4161444741
 40
0.0024750401
100
AcDbArc
 50
147.6063258012
 51
270.0025305754
  0
ARC
  5
359
100
AcDbEntity
  8
0
100
AcDbCircle
 62
7
  6
CONTINUOUS
 10
16.8743904545
 20
2.4526554575
 40
0.0024749995
100
AcDbArc
 50
89.9999571957
 51
180.0000428043
  0
ARC
  5
35A
100
AcDbEntity
  8
0
100
AcDbCircle
 62
7
  6
CONTINUOUS
 10
16.8743904545
 20
2.4328554428
 40
0.0024749995
100
AcDbArc
 50
179.9999571957
 51
270.0000428043
  0
ARC
  5
35B
100
AcDbEntity
  8
0
100
AcDbCircle
 62
7
  6
CONTINUOUS
 10
16.8983324714
 20
2.4279054437
 40
0.0024749995
100
AcDbArc
 50
359.9999571957
 51
90.0000428043
  0
ARC
  5
35C
100
AcDbEntity
  8
0
100
AcDbCircle
 62
7
  6
CONTINUOUS
 10
16.963795504
 20
2.4279054437
 40
0.0024749995
100
AcDbArc
 50
89.9999571957
 51
180.0000428043
  0
ARC
  5
35D
100
AcDbEntity
  8
0
100
AcDbCircle
 62
7
  6
CONTINUOUS
 10
16.963795504
 20
2.4155304332
 40
0.0024749995
100
AcDbArc
 50
179.9999571957
 51
270.0000428043
  0
ARC
  5
35E
100
AcDbEntity
  8
0
100
AcDbCircle
 62
7
  6
CONTINUOUS
 10
17.5051335061
 20
2.3989573626
 40
0.0024753014
100
AcDbArc
 50
226.3461263059
 51
0.0014637321
  0
ARC
  5
35F
100
AcDbEntity
  8
0
100
AcDbCircle
 62
7
  6
CONTINUOUS
 10
17.3965730459
 20
2.4135964972
 40
0.0024753014
100
AcDbArc
 50
46.3461263059
 51
180.0014637321
  0
ARC
  5
360
100
AcDbEntity
  8
0
100
AcDbCircle
 62
7
  6
CONTINUOUS
 10
17.2204866271
 20
2.3815506219
 40
0.0024752071
100
AcDbArc
 50
270.0004896793
 51
32.9089806818
  0
ARC
  5
361
100
AcDbEntity
  8
0
100
AcDbCircle
 62
7
  6
CONTINUOUS
 10
17.396572744
 20
2.3815504143
 40
0.0024749995
100
AcDbArc
 50
179.9999571957
 51
270.0000428043
  0
ARC
  5
362
100
AcDbEntity
  8
0
100
AcDbCircle
 62
7
  6
CONTINUOUS
 10
17.416889759
 20
2.3766004153
 40
0.0024749995
100
AcDbArc
 50
359.9999571957
 51
90.0000428043
  0
ARC
  5
363
100
AcDbEntity
  8
0
100
AcDbCircle
 62
7
  6
CONTINUOUS
 10
17.3412257133
 20
2.3766004153
 40
0.0024749995
100
AcDbArc
 50
89.9999571957
 51
180.0000428043
  0
ARC
  5
364
100
AcDbEntity
  8
0
100
AcDbCircle
 62
7
  6
CONTINUOUS
 10
17.3598727274
 20
2.3815504143
 40
0.0024749995
100
AcDbArc
 50
269.9999571957
 51
0.0000428043
  0
ARC
  5
365
100
AcDbEntity
  8
0
100
AcDbCircle
 62
7
  6
CONTINUOUS
 10
17.3113167005
 20
2.3766004153
 40
0.0024749995
100
AcDbArc
 50
359.9999571957
 51
90.0000428043
  0
ARC
  5
366
100
AcDbEntity
  8
0
100
AcDbCircle
 62
7
  6
CONTINUOUS
 10
17.291300808
 20
2.3815494558
 40
0.002474041
100
AcDbArc
 50
212.9056413127
 51
269.9972091755
  0
ARC
  5
367
100
AcDbEntity
  8
0
100
AcDbCircle
 62
7
  6
CONTINUOUS
 10
17.5051338079
 20
2.4279054437
 40
0.0024749995
100
AcDbArc
 50
359.9999571957
 51
90.0000428043
  0
ARC
  5
368
100
AcDbEntity
  8
0
100
AcDbCircle
 62
7
  6
CONTINUOUS
 10
17.4863577938
 20
2.4328554428
 40
0.0024749995
100
AcDbArc
 50
179.9999571957
 51
270.0000428043
  0
ARC
  5
369
100
AcDbEntity
  8
0
100
AcDbCircle
 62
7
  6
CONTINUOUS
 10
17.4863577938
 20
2.4526554575
 40
0.0024749995
100
AcDbArc
 50
89.9999571957
 51
180.0000428043
  0
ARC
  5
36A
100
AcDbEntity
  8
0
100
AcDbCircle
 62
7
  6
CONTINUOUS
 10
17.5603588386
 20
2.4526554575
 40
0.0024749995
100
AcDbArc
 50
359.9999571957
 51
90.0000428043
  0
ARC
  5
36B
100
AcDbEntity
  8
0
100
AcDbCircle
 62
7
  6
CONTINUOUS
 10
17.5603588386
 20
2.4328554428
 40
0.0024749995
100
AcDbArc
 50
269.9999571957
 51
0.0000428043
  0
ARC
  5
36C
100
AcDbEntity
  8
0
100
AcDbCircle
 62
7
  6
CONTINUOUS
 10
17.5424258249
 20
2.4279054437
 40
0.0024749995
100
AcDbArc
 50
89.9999571957
 51
180.0000428043
  0
ARC
  5
36D
100
AcDbEntity
  8
0
100
AcDbCircle
 62
7
  6
CONTINUOUS
 10
17.3598727274
 20
2.4279054437
 40
0.0024749995
100
AcDbArc
 50
359.9999571957
 51
90.0000428043
  0
ARC
  5
36E
100
AcDbEntity
  8
0
100
AcDbCircle
 62
7
  6
CONTINUOUS
 10
17.3412257133
 20
2.4328554428
 40
0.0024749995
100
AcDbArc
 50
179.9999571957
 51
270.0000428043
  0
ARC
  5
36F
100
AcDbEntity
  8
0
100
AcDbCircle
 62
7
  6
CONTINUOUS
 10
17.3412257133
 20
2.4526554575
 40
0.0024749995
100
AcDbArc
 50
89.9999571957
 51
180.0000428043
  0
ARC
  5
370
100
AcDbEntity
  8
0
100
AcDbCircle
 62
7
  6
CONTINUOUS
 10
17.2393900382
 20
2.4526554968
 40
0.0024749602
100
AcDbArc
 50
32.9172174468
 51
90.0087853097
  0
ARC
  5
371
100
AcDbEntity
  8
0
100
AcDbCircle
 62
7
  6
CONTINUOUS
 10
17.4416839057
 20
2.4526562892
 40
0.0024741678
100
AcDbArc
 50
46.3477981899
 51
90.0031206038
  0
ARC
  5
372
100
AcDbEntity
  8
0
100
AcDbCircle
 62
7
  6
CONTINUOUS
 10
18.2152358981
 20
2.2725915465
 40
0.1825583387
100
AcDbArc
 50
79.8618509324
 51
89.1640948679
  0
ARC
  5
373
100
AcDbEntity
  8
0
100
AcDbCircle
 62
7
  6
CONTINUOUS
 10
18.197141171
 20
2.3016991173
 40
0.117346916
100
AcDbArc
 50
58.614769177
 51
62.3737227606
  0
ARC
  5
374
100
AcDbEntity
  8
0
100
AcDbCircle
 62
7
  6
CONTINUOUS
 10
18.2260032264
 20
2.3725718859
 40
0.0459185159
100
AcDbArc
 50
15.6740290068
 51
20.9917271228
  0
ARC
  5
375
100
AcDbEntity
  8
0
100
AcDbCircle
 62
7
  6
CONTINUOUS
 10
18.1662929967
 20
2.368643334
 40
0.0396099176
100
AcDbArc
 50
14.3201081283
 51
22.4984722084
  0
ARC
  5
376
100
AcDbEntity
  8
0
100
AcDbCircle
 62
7
  6
CONTINUOUS
 10
18.1850046504
 20
2.3693353402
 40
0.0243676582
100
AcDbArc
 50
63.3666028271
 51
90.3937697637
  0
ARC
  5
377
100
AcDbEntity
  8
0
100
AcDbCircle
 62
7
  6
CONTINUOUS
 10
18.2724993219
 20
2.3741987064
 40
0.0198837666
100
AcDbArc
 50
271.8586572978
 51
289.4131338543
  0
ARC
  5
378
100
AcDbEntity
  8
0
100
AcDbCircle
 62
7
  6
CONTINUOUS
 10
18.2265855264
 20
2.3716475527
 40
0.0173408616
100
AcDbArc
 50
232.4713476722
 51
267.338189944
  0
ARC
  5
379
100
AcDbEntity
  8
0
100
AcDbCircle
 62
7
  6
CONTINUOUS
 10
18.1818891832
 20
2.3568004006
 40
0.0024749995
100
AcDbArc
 50
269.9999571957
 51
0.0000428043
  0
ARC
  5
37A
100
AcDbEntity
  8
0
100
AcDbCircle
 62
7
  6
CONTINUOUS
 10
18.0683181166
 20
2.3568004006
 40
0.0024749995
100
AcDbArc
 50
179.9999571957
 51
270.0000428043
  0
ARC
  5
37B
100
AcDbEntity
  8
0
100
AcDbCircle
 62
7
  6
CONTINUOUS
 10
17.7857289635
 20
2.3568004006
 40
0.0024749995
100
AcDbArc
 50
269.9999571957
 51
0.0000428043
  0
ARC
  5
37C
100
AcDbEntity
  8
0
100
AcDbCircle
 62
7
  6
CONTINUOUS
 10
17.6651428967
 20
2.3568004006
 40
0.0024749995
100
AcDbArc
 50
269.9999571957
 51
0.0000428043
  0
ARC
  5
37D
100
AcDbEntity
  8
0
100
AcDbCircle
 62
7
  6
CONTINUOUS
 10
17.589478851
 20
2.3568004006
 40
0.0024749995
100
AcDbArc
 50
179.9999571957
 51
270.0000428043
  0
ARC
  5
37E
100
AcDbEntity
  8
0
100
AcDbCircle
 62
7
  6
CONTINUOUS
 10
18.0394141042
 20
2.3568004006
 40
0.0024749995
100
AcDbArc
 50
269.9999571957
 51
0.0000428043
  0
ARC
  5
37F
100
AcDbEntity
  8
0
100
AcDbCircle
 62
7
  6
CONTINUOUS
 10
17.8362019878
 20
2.3568004006
 40
0.0024749995
100
AcDbArc
 50
179.9999571957
 51
270.0000428043
  0
ARC
  5
380
100
AcDbEntity
  8
0
100
AcDbCircle
 62
7
  6
CONTINUOUS
 10
17.7115227858
 20
2.3567995689
 40
0.0024741678
100
AcDbArc
 50
226.3477981898
 51
270.0031206038
  0
ARC
  5
381
100
AcDbEntity
  8
0
100
AcDbCircle
 62
7
  6
CONTINUOUS
 10
17.7533866437
 20
2.3989573626
 40
0.0024753014
100
AcDbArc
 50
226.3461263059
 51
0.0014637321
  0
ARC
  5
382
100
AcDbEntity
  8
0
100
AcDbCircle
 62
7
  6
CONTINUOUS
 10
17.6448261836
 20
2.4135964972
 40
0.0024753014
100
AcDbArc
 50
46.3461263058
 51
180.0014637321
  0
ARC
  5
383
100
AcDbEntity
  8
0
100
AcDbCircle
 62
7
  6
CONTINUOUS
 10
17.6448258817
 20
2.3815504143
 40
0.0024749995
100
AcDbArc
 50
179.9999571957
 51
270.0000428043
  0
ARC
  5
384
100
AcDbEntity
  8
0
100
AcDbCircle
 62
7
  6
CONTINUOUS
 10
17.6651428967
 20
2.3766004153
 40
0.0024749995
100
AcDbArc
 50
359.9999571957
 51
90.0000428043
  0
ARC
  5
385
100
AcDbEntity
  8
0
100
AcDbCircle
 62
7
  6
CONTINUOUS
 10
17.589478851
 20
2.3766004153
 40
0.0024749995
100
AcDbArc
 50
89.9999571957
 51
180.0000428043
  0
ARC
  5
386
100
AcDbEntity
  8
0
100
AcDbCircle
 62
7
  6
CONTINUOUS
 10
17.6081248651
 20
2.3815504143
 40
0.0024749995
100
AcDbArc
 50
269.9999571957
 51
0.0000428043
  0
ARC
  5
387
100
AcDbEntity
  8
0
100
AcDbCircle
 62
7
  6
CONTINUOUS
 10
17.9271410383
 20
2.3931004244
 40
0.0024749995
100
AcDbArc
 50
89.9999571957
 51
180.0000428043
  0
ARC
  5
388
100
AcDbEntity
  8
0
100
AcDbCircle
 62
7
  6
CONTINUOUS
 10
17.9271410383
 20
2.3815504143
 40
0.0024749995
100
AcDbArc
 50
179.9999571957
 51
270.0000428043
  0
ARC
  5
389
100
AcDbEntity
  8
0
100
AcDbCircle
 62
7
  6
CONTINUOUS
 10
17.8362019878
 20
2.3766004153
 40
0.0024749995
100
AcDbArc
 50
89.9999571957
 51
180.0000428043
  0
ARC
  5
38A
100
AcDbEntity
  8
0
100
AcDbCircle
 62
7
  6
CONTINUOUS
 10
17.8601250048
 20
2.3815504143
 40
0.0024749995
100
AcDbArc
 50
269.9999571956
 51
0.0000428042
  0
ARC
  5
38B
100
AcDbEntity
  8
0
100
AcDbCircle
 62
7
  6
CONTINUOUS
 10
17.9271410383
 20
2.4163554336
 40
0.0024749995
100
AcDbArc
 50
179.9999571957
 51
270.0000428043
  0
ARC
  5
38C
100
AcDbEntity
  8
0
100
AcDbCircle
 62
7
  6
CONTINUOUS
 10
17.7533869456
 20
2.4279054437
 40
0.0024749995
100
AcDbArc
 50
359.9999571957
 51
90.0000428043
  0
ARC
  5
38D
100
AcDbEntity
  8
0
100
AcDbCircle
 62
7
  6
CONTINUOUS
 10
17.7346109315
 20
2.4328554428
 40
0.0024749995
100
AcDbArc
 50
179.9999571957
 51
270.0000428043
  0
ARC
  5
38E
100
AcDbEntity
  8
0
100
AcDbCircle
 62
7
  6
CONTINUOUS
 10
17.7346109315
 20
2.4526554575
 40
0.0024749995
100
AcDbArc
 50
89.9999571957
 51
180.0000428043
  0
ARC
  5
38F
100
AcDbEntity
  8
0
100
AcDbCircle
 62
7
  6
CONTINUOUS
 10
17.8086119762
 20
2.4526554575
 40
0.0024749995
100
AcDbArc
 50
359.9999571957
 51
90.0000428043
  0
ARC
  5
390
100
AcDbEntity
  8
0
100
AcDbCircle
 62
7
  6
CONTINUOUS
 10
17.8086119762
 20
2.4328554428
 40
0.0024749995
100
AcDbArc
 50
269.9999571956
 51
0.0000428042
  0
ARC
  5
391
100
AcDbEntity
  8
0
100
AcDbCircle
 62
7
  6
CONTINUOUS
 10
17.7906789626
 20
2.4279054437
 40
0.0024749995
100
AcDbArc
 50
89.9999571957
 51
180.0000428043
  0
ARC
  5
392
100
AcDbEntity
  8
0
100
AcDbCircle
 62
7
  6
CONTINUOUS
 10
17.6081248651
 20
2.4279054437
 40
0.0024749995
100
AcDbArc
 50
359.9999571957
 51
90.0000428043
  0
ARC
  5
393
100
AcDbEntity
  8
0
100
AcDbCircle
 62
7
  6
CONTINUOUS
 10
17.589478851
 20
2.4328554428
 40
0.0024749995
100
AcDbArc
 50
179.9999571957
 51
270.0000428043
  0
ARC
  5
394
100
AcDbEntity
  8
0
100
AcDbCircle
 62
7
  6
CONTINUOUS
 10
17.589478851
 20
2.4526554575
 40
0.0024749995
100
AcDbArc
 50
89.9999571957
 51
180.0000428043
  0
ARC
  5
395
100
AcDbEntity
  8
0
100
AcDbCircle
 62
7
  6
CONTINUOUS
 10
17.8601250048
 20
2.4279054437
 40
0.0024749995
100
AcDbArc
 50
359.9999571957
 51
90.0000428043
  0
ARC
  5
396
100
AcDbEntity
  8
0
100
AcDbCircle
 62
7
  6
CONTINUOUS
 10
17.8362019878
 20
2.4328554428
 40
0.0024749995
100
AcDbArc
 50
179.9999571957
 51
270.0000428043
  0
ARC
  5
397
100
AcDbEntity
  8
0
100
AcDbCircle
 62
7
  6
CONTINUOUS
 10
17.8362019878
 20
2.4526554575
 40
0.0024749995
100
AcDbArc
 50
89.9999571957
 51
180.0000428043
  0
ARC
  5
398
100
AcDbEntity
  8
0
100
AcDbCircle
 62
7
  6
CONTINUOUS
 10
17.9271410383
 20
2.4279054437
 40
0.0024749995
100
AcDbArc
 50
89.9999571957
 51
180.0000428043
  0
ARC
  5
399
100
AcDbEntity
  8
0
100
AcDbCircle
 62
7
  6
CONTINUOUS
 10
17.6899370433
 20
2.4526562892
 40
0.0024741678
100
AcDbArc
 50
46.3477981899
 51
90.0031206038
  0
ARC
  5
39A
100
AcDbEntity
  8
0
100
AcDbCircle
 62
7
  6
CONTINUOUS
 10
18.2495655574
 20
2.384346736
 40
0.044722495
100
AcDbArc
 50
195.531588407
 51
204.7624440448
  0
ARC
  5
39B
100
AcDbEntity
  8
0
100
AcDbCircle
 62
7
  6
CONTINUOUS
 10
18.2415401884
 20
2.4134150625
 40
0.039319019
100
AcDbArc
 50
59.1202086415
 51
81.4730239328
  0
ARC
  5
39C
100
AcDbEntity
  8
0
100
AcDbCircle
 62
7
  6
CONTINUOUS
 10
18.2667613545
 20
2.3917854558
 40
0.0383802683
100
AcDbArc
 50
288.7656836787
 51
309.6104317088
  0
ARC
  5
39D
100
AcDbEntity
  8
0
100
AcDbCircle
 62
7
  6
CONTINUOUS
 10
18.2471995846
 20
2.4197497317
 40
0.0310192946
100
AcDbArc
 50
34.7540871
 51
62.0879016178
  0
ARC
  5
39E
100
AcDbEntity
  8
0
100
AcDbCircle
 62
7
  6
CONTINUOUS
 10
18.1924863006
 20
2.4019259643
 40
0.0284963867
100
AcDbArc
 50
70.3834917948
 51
86.8922743861
  0
ARC
  5
39F
100
AcDbEntity
  8
0
100
AcDbCircle
 62
7
  6
CONTINUOUS
 10
18.2737535399
 20
2.384184238
 40
0.0280715479
100
AcDbArc
 50
308.5071794988
 51
332.2400656899
  0
ARC
  5
3A0
100
AcDbEntity
  8
0
100
AcDbCircle
 62
7
  6
CONTINUOUS
 10
18.2439037681
 20
2.3797532943
 40
0.0266349791
100
AcDbArc
 50
20.3630922153
 51
37.9727053099
  0
ARC
  5
3A1
100
AcDbEntity
  8
0
100
AcDbCircle
 62
7
  6
CONTINUOUS
 10
18.2450241237
 20
2.3798263774
 40
0.0257145923
100
AcDbArc
 50
39.3804255939
 51
59.0361096173
  0
ARC
  5
3A2
100
AcDbEntity
  8
0
100
AcDbCircle
 62
7
  6
CONTINUOUS
 10
18.2296840914
 20
2.3774978567
 40
0.0238935861
100
AcDbArc
 50
209.8247607259
 51
235.1255079367
  0
ARC
  5
3A3
100
AcDbEntity
  8
0
100
AcDbCircle
 62
7
  6
CONTINUOUS
 10
18.2830605507
 20
2.3792897325
 40
0.0175560065
100
AcDbArc
 50
332.2279060967
 51
359.6595469939
  0
ARC
  5
3A4
100
AcDbEntity
  8
0
100
AcDbCircle
 62
7
  6
CONTINUOUS
 10
18.1890593051
 20
2.3776149607
 40
0.0151491919
100
AcDbArc
 50
24.098260853
 51
63.0369451818
  0
ARC
  5
3A5
100
AcDbEntity
  8
0
100
AcDbCircle
 62
7
  6
CONTINUOUS
 10
18.2845735615
 20
2.3882148688
 40
0.0147197649
100
AcDbArc
 50
192.7054516565
 51
206.0594861022
  0
ARC
  5
3A6
100
AcDbEntity
  8
0
100
AcDbCircle
 62
7
  6
CONTINUOUS
 10
18.1973459106
 20
2.4149676972
 40
0.0145814632
100
AcDbArc
 50
54.6746025112
 51
71.1660573124
  0
ARC
  5
3A7
100
AcDbEntity
  8
0
100
AcDbCircle
 62
7
  6
CONTINUOUS
 10
18.2752146786
 20
2.3927110743
 40
0.0132488022
100
AcDbArc
 50
270.266200055
 51
281.2404888597
  0
ARC
  5
3A8
100
AcDbEntity
  8
0
100
AcDbCircle
 62
7
  6
CONTINUOUS
 10
18.2716089246
 20
2.3878675959
 40
0.0119498009
100
AcDbArc
 50
340.7883861657
 51
1.1691452593
  0
ARC
  5
3A9
100
AcDbEntity
  8
0
100
AcDbCircle
 62
7
  6
CONTINUOUS
 10
18.198398534
 20
2.4260095887
 40
0.0110815393
100
AcDbArc
 50
306.758405961
 51
320.4502234234
  0
ARC
  5
3AA
100
AcDbEntity
  8
0
100
AcDbCircle
 62
7
  6
CONTINUOUS
 10
18.2764089196
 20
2.3869743807
 40
0.0073895522
100
AcDbArc
 50
280.8288201977
 51
305.0837508495
  0
ARC
  5
3AB
100
AcDbEntity
  8
0
100
AcDbCircle
 62
7
  6
CONTINUOUS
 10
18.2768101012
 20
2.3861235343
 40
0.0064647042
100
AcDbArc
 50
306.5086174083
 51
340.2162360092
  0
ARC
  5
3AC
100
AcDbEntity
  8
0
100
AcDbCircle
 62
7
  6
CONTINUOUS
 10
18.2024754016
 20
2.4218216224
 40
0.0060275915
100
AcDbArc
 50
20.9055592135
 51
56.7851676243
  0
ARC
  5
3AD
100
AcDbEntity
  8
0
100
AcDbCircle
 62
7
  6
CONTINUOUS
 10
18.2025691502
 20
2.4227756809
 40
0.0058087709
100
AcDbArc
 50
318.8515287446
 51
353.6422345323
  0
ARC
  5
3AE
100
AcDbEntity
  8
0
100
AcDbCircle
 62
7
  6
CONTINUOUS
 10
18.2760792244
 20
2.3840063824
 40
0.0052403997
100
AcDbArc
 50
205.5232099488
 51
227.5054868079
  0
ARC
  5
3AF
100
AcDbEntity
  8
0
100
AcDbCircle
 62
7
  6
CONTINUOUS
 10
18.2037759605
 20
2.4224819047
 40
0.0045795888
100
AcDbArc
 50
355.6235353944
 51
18.9942678268
  0
ARC
  5
3B0
100
AcDbEntity
  8
0
100
AcDbCircle
 62
7
  6
CONTINUOUS
 10
18.2743509251
 20
2.3821910097
 40
0.0027347709
100
AcDbArc
 50
228.5117626738
 51
266.1485845754
  0
ARC
  5
3B1
100
AcDbEntity
  8
0
100
AcDbCircle
 62
7
  6
CONTINUOUS
 10
18.1572301659
 20
2.3912274234
 40
0.0024749995
100
AcDbArc
 50
89.9999571957
 51
180.0000428043
  0
ARC
  5
3B2
100
AcDbEntity
  8
0
100
AcDbCircle
 62
7
  6
CONTINUOUS
 10
18.1572301659
 20
2.3815284143
 40
0.0024749995
100
AcDbArc
 50
179.9999571957
 51
270.0000428043
  0
ARC
  5
3B3
100
AcDbEntity
  8
0
100
AcDbCircle
 62
7
  6
CONTINUOUS
 10
18.1818891832
 20
2.3765784153
 40
0.0024749995
100
AcDbArc
 50
359.9999571957
 51
90.0000428043
  0
ARC
  5
3B4
100
AcDbEntity
  8
0
100
AcDbCircle
 62
7
  6
CONTINUOUS
 10
18.0683181166
 20
2.3766004153
 40
0.0024749995
100
AcDbArc
 50
89.9999571957
 51
180.0000428043
  0
ARC
  5
3B5
100
AcDbEntity
  8
0
100
AcDbCircle
 62
7
  6
CONTINUOUS
 10
18.0910641329
 20
2.3815504143
 40
0.0024749995
100
AcDbArc
 50
269.9999571957
 51
0.0000428043
  0
ARC
  5
3B6
100
AcDbEntity
  8
0
100
AcDbCircle
 62
7
  6
CONTINUOUS
 10
18.2860312373
 20
2.3907374231
 40
0.0024749995
100
AcDbArc
 50
89.9999571957
 51
180.0000428043
  0
ARC
  5
3B7
100
AcDbEntity
  8
0
100
AcDbCircle
 62
7
  6
CONTINUOUS
 10
18.2981412477
 20
2.3907374231
 40
0.0024749995
100
AcDbArc
 50
359.9999571957
 51
90.0000428043
  0
ARC
  5
3B8
100
AcDbEntity
  8
0
100
AcDbCircle
 62
7
  6
CONTINUOUS
 10
18.1572301659
 20
2.415180433
 40
0.0024749995
100
AcDbArc
 50
179.9999571957
 51
270.0000428043
  0
ARC
  5
3B9
100
AcDbEntity
  8
0
100
AcDbCircle
 62
7
  6
CONTINUOUS
 10
17.992145078
 20
2.3815504143
 40
0.0024749995
100
AcDbArc
 50
269.9999571957
 51
0.0000428043
  0
ARC
  5
3BA
100
AcDbEntity
  8
0
100
AcDbCircle
 62
7
  6
CONTINUOUS
 10
17.9970950771
 20
2.3898004226
 40
0.0024749995
100
AcDbArc
 50
89.9999571957
 51
180.0000428043
  0
ARC
  5
3BB
100
AcDbEntity
  8
0
100
AcDbCircle
 62
7
  6
CONTINUOUS
 10
18.0394141042
 20
2.3898004226
 40
0.0024749995
100
AcDbArc
 50
359.9999571957
 51
90.0000428043
  0
ARC
  5
3BC
100
AcDbEntity
  8
0
100
AcDbCircle
 62
7
  6
CONTINUOUS
 10
18.0379951034
 20
2.4196554355
 40
0.0024749995
100
AcDbArc
 50
269.9999571956
 51
0.0000428042
  0
ARC
  5
3BD
100
AcDbEntity
  8
0
100
AcDbCircle
 62
7
  6
CONTINUOUS
 10
17.9961310765
 20
2.4196554355
 40
0.0024749995
100
AcDbArc
 50
179.9999571957
 51
270.0000428043
  0
ARC
  5
3BE
100
AcDbEntity
  8
0
100
AcDbCircle
 62
7
  6
CONTINUOUS
 10
17.9623080615
 20
2.4114054346
 40
0.0024749995
100
AcDbArc
 50
359.9999571957
 51
90.0000428043
  0
ARC
  5
3BF
100
AcDbEntity
  8
0
100
AcDbCircle
 62
7
  6
CONTINUOUS
 10
17.9623080615
 20
2.3980504235
 40
0.0024749995
100
AcDbArc
 50
269.9999571956
 51
0.0000428042
  0
ARC
  5
3C0
100
AcDbEntity
  8
0
100
AcDbCircle
 62
7
  6
CONTINUOUS
 10
18.220842337
 20
2.4783532224
 40
0.0789082104
100
AcDbArc
 50
292.906155071
 51
305.2574666259
  0
ARC
  5
3C1
100
AcDbEntity
  8
0
100
AcDbCircle
 62
7
  6
CONTINUOUS
 10
18.2511742746
 20
2.4351463727
 40
0.0261183659
100
AcDbArc
 50
305.6373831893
 51
329.9727629745
  0
ARC
  5
3C2
100
AcDbEntity
  8
0
100
AcDbCircle
 62
7
  6
CONTINUOUS
 10
18.1908418374
 20
2.4381440645
 40
0.0254407115
100
AcDbArc
 50
270.7327484175
 51
290.441894219
  0
ARC
  5
3C3
100
AcDbEntity
  8
0
100
AcDbCircle
 62
7
  6
CONTINUOUS
 10
18.1927693431
 20
2.4337504172
 40
0.0206523367
100
AcDbArc
 50
289.6883413472
 51
306.4184925496
  0
ARC
  5
3C4
100
AcDbEntity
  8
0
100
AcDbCircle
 62
7
  6
CONTINUOUS
 10
18.2588883357
 20
2.4282993328
 40
0.0165459396
100
AcDbArc
 50
1.548452892
 51
33.5033152417
  0
ARC
  5
3C5
100
AcDbEntity
  8
0
100
AcDbCircle
 62
7
  6
CONTINUOUS
 10
18.2621849309
 20
2.428467785
 40
0.0132462337
100
AcDbArc
 50
331.1510006998
 51
1.205404301
  0
ARC
  5
3C6
100
AcDbEntity
  8
0
100
AcDbCircle
 62
7
  6
CONTINUOUS
 10
18.0910641329
 20
2.4279054437
 40
0.0024749995
100
AcDbArc
 50
359.9999571957
 51
90.0000428043
  0
ARC
  5
3C7
100
AcDbEntity
  8
0
100
AcDbCircle
 62
7
  6
CONTINUOUS
 10
18.0683181166
 20
2.4328554428
 40
0.0024749995
100
AcDbArc
 50
179.9999571957
 51
270.0000428043
  0
ARC
  5
3C8
100
AcDbEntity
  8
0
100
AcDbCircle
 62
7
  6
CONTINUOUS
 10
18.0683181166
 20
2.4526554575
 40
0.0024749995
100
AcDbArc
 50
89.9999571957
 51
180.0000428043
  0
ARC
  5
3C9
100
AcDbEntity
  8
0
100
AcDbCircle
 62
7
  6
CONTINUOUS
 10
18.1572301659
 20
2.4279054437
 40
0.0024749995
100
AcDbArc
 50
89.9999571957
 51
180.0000428043
  0
ARC
  5
3CA
100
AcDbEntity
  8
0
100
AcDbCircle
 62
7
  6
CONTINUOUS
 10
18.0379951034
 20
2.4526554575
 40
0.0024749995
100
AcDbArc
 50
359.9999571957
 51
90.0000428043
  0
ARC
  5
3CB
100
AcDbEntity
  8
0
100
AcDbCircle
 62
7
  6
CONTINUOUS
 10
17.9911810775
 20
2.4279054437
 40
0.0024749995
100
AcDbArc
 50
359.9999571957
 51
90.0000428043
  0
ELLIPSE
  5
3CC
100
AcDbEntity
  8
0
100
AcDbEllipse
 62
7
  6
CONTINUOUS
 10
17.573550844
 20
2.4034764283
 30
0.0
 11
-0.8250004575
 21
0.0
 31
0.0
 40
0.218572
 41
0.0
 42
6.2831853072
  0
HATCH
  5
3CD
100
AcDbEntity
  8
0
100
AcDbHatch
 62
7
  6
CONTINUOUS
 10
0.0
 20
0.0
 30
0.0
210
0.0
220
0.0
230
1.0
  2
XSEC0002
 70
1
 71
1
 91
11
 92
1
 93
57
 72
2
 10
18.2265855264
 20
2.3716475527
 40
0.0173408616
 50
232.4713476722
 51
267.338189944
 73
1
 72
2
 10
18.2296840914
 20
2.3774978567
 40
0.0238935861
 50
209.8247607259
 51
235.1255079367
 73
1
 72
2
 10
18.2495655574
 20
2.384346736
 40
0.044722495
 50
195.531588407
 51
204.7624440448
 73
1
 72
1
 10
18.206476195
 20
2.3723714111
 11
18.204672194
 21
2.3784404145
 72
2
 10
18.1662929967
 20
2.368643334
 40
0.0396099176
 50
14.3201081283
 51
22.4984722084
 73
1
 72
2
 10
18.1890593051
 20
2.3776149607
 40
0.0151491919
 50
24.098260853
 51
63.0369451818
 73
1
 72
2
 10
18.1850046504
 20
2.3693353402
 40
0.0243676582
 50
63.3666028271
 51
90.3937697637
 73
1
 72
1
 10
18.184837183
 20
2.3937024229
 11
18.1572301677
 21
2.3937024229
 72
2
 10
18.1572301659
 20
2.3912274234
 40
0.0024749995
 50
89.9999571957
 51
180.0000428043
 73
1
 72
1
 10
18.1547551663
 20
2.3912274216
 11
18.1547551663
 21
2.3815284162
 72
2
 10
18.1572301659
 20
2.3815284143
 40
0.0024749995
 50
179.9999571957
 51
270.0000428043
 73
1
 72
1
 10
18.1572301677
 20
2.3790534148
 11
18.1818891814
 21
2.3790534148
 72
2
 10
18.1818891832
 20
2.3765784153
 40
0.0024749995
 50
359.9999571957
 51
90.0000428042
 73
1
 72
1
 10
18.1843641828
 20
2.3765784134
 11
18.1843641828
 21
2.3568004025
 72
2
 10
18.1818891832
 20
2.3568004006
 40
0.0024749995
 50
269.9999571958
 51
0.0000428043
 73
1
 72
1
 10
18.1818891814
 20
2.3543254011
 11
18.0683181184
 21
2.3543254011
 72
2
 10
18.0683181166
 20
2.3568004006
 40
0.0024749995
 50
179.9999571957
 51
270.0000428042
 73
1
 72
1
 10
18.065843117
 20
2.3568004025
 11
18.065843117
 21
2.3766004134
 72
2
 10
18.0683181166
 20
2.3766004153
 40
0.0024749995
 50
89.9999571958
 51
180.0000428043
 73
1
 72
1
 10
18.0683181184
 20
2.3790754148
 11
18.091064131
 21
2.3790754148
 72
2
 10
18.0910641329
 20
2.3815504143
 40
0.0024749995
 50
269.9999571957
 51
0.0000428043
 73
1
 72
1
 10
18.0935391324
 20
2.3815504162
 11
18.0935391324
 21
2.4279054419
 72
2
 10
18.0910641329
 20
2.4279054437
 40
0.0024749995
 50
359.9999571957
 51
90.0000428043
 73
1
 72
1
 10
18.091064131
 20
2.4303804433
 11
18.0683181184
 21
2.4303804433
 72
2
 10
18.0683181166
 20
2.4328554428
 40
0.0024749995
 50
179.9999571957
 51
270.0000428043
 73
1
 72
1
 10
18.065843117
 20
2.4328554446
 11
18.065843117
 21
2.4526554556
 72
2
 10
18.0683181166
 20
2.4526554575
 40
0.0024749995
 50
89.9999571958
 51
180.0000428043
 73
1
 72
1
 10
18.0683181184
 20
2.455130457
 11
18.2178992014
 21
2.455130457
 72
2
 10
18.2152358981
 20
2.2725915465
 40
0.1825583387
 50
79.8618509324
 51
89.1640948679
 73
1
 72
2
 10
18.2415401884
 20
2.4134150625
 40
0.039319019
 50
59.1202086415
 51
81.4730239328
 73
1
 72
2
 10
18.2471995846
 20
2.4197497317
 40
0.0310192946
 50
34.7540871
 51
62.0879016178
 73
1
 72
2
 10
18.2588883357
 20
2.4282993328
 40
0.0165459396
 50
1.548452892
 51
33.5033152417
 73
1
 72
2
 10
18.2621849309
 20
2.428467785
 40
0.0132462337
 50
331.1510006998
 51
1.205404301
 73
1
 72
2
 10
18.2511742746
 20
2.4351463727
 40
0.0261183659
 50
305.6373831893
 51
329.9727629745
 73
1
 72
2
 10
18.220842337
 20
2.4783532224
 40
0.0789082104
 50
292.906155071
 51
305.2574666259
 73
1
 72
2
 10
18.197141171
 20
2.3016991173
 40
0.117346916
 50
58.614769177
 51
62.3737227606
 73
1
 72
2
 10
18.2450241237
 20
2.3798263774
 40
0.0257145923
 50
39.3804255939
 51
59.0361096173
 73
1
 72
2
 10
18.2439037681
 20
2.3797532943
 40
0.0266349791
 50
20.3630922153
 51
37.9727053099
 73
1
 72
2
 10
18.2260032264
 20
2.3725718859
 40
0.0459185159
 50
15.6740290068
 51
20.9917271228
 73
1
 72
2
 10
18.2845735615
 20
2.3882148688
 40
0.0147197649
 50
192.7054516565
 51
206.0594861022
 73
1
 72
2
 10
18.2760792244
 20
2.3840063824
 40
0.0052403997
 50
205.5232099488
 51
227.5054868079
 73
1
 72
2
 10
18.2743509251
 20
2.3821910097
 40
0.0027347709
 50
228.5117626738
 51
266.1485845755
 73
1
 72
1
 10
18.2741672326
 20
2.379462415
 11
18.2752762332
 21
2.379462415
 72
2
 10
18.2752146786
 20
2.3927110743
 40
0.0132488022
 50
270.266200055
 51
281.2404888597
 73
1
 72
2
 10
18.2764089196
 20
2.3869743807
 40
0.0073895522
 50
280.8288201977
 51
305.0837508495
 73
1
 72
2
 10
18.2768101012
 20
2.3861235343
 40
0.0064647042
 50
306.5086174083
 51
340.2162360092
 73
1
 72
2
 10
18.2716089246
 20
2.3878675959
 40
0.0119498009
 50
340.7883861657
 51
1.1691452593
 73
1
 72
1
 10
18.2835562378
 20
2.3881114198
 11
18.2835562378
 21
2.3907374213
 72
2
 10
18.2860312373
 20
2.3907374231
 40
0.0024749995
 50
89.9999571957
 51
180.0000428043
 73
1
 72
1
 10
18.2860312391
 20
2.3932124227
 11
18.2981412459
 21
2.3932124227
 72
2
 10
18.2981412477
 20
2.3907374231
 40
0.0024749995
 50
359.9999571957
 51
90.0000428043
 73
1
 72
1
 10
18.3006162472
 20
2.3907374213
 11
18.3006162472
 21
2.3791854149
 72
2
 10
18.2830605507
 20
2.3792897325
 40
0.0175560065
 50
332.2279060967
 51
359.6595469939
 73
1
 72
2
 10
18.2737535399
 20
2.384184238
 40
0.0280715479
 50
308.5071794988
 51
332.2400656899
 73
1
 72
2
 10
18.2667613545
 20
2.3917854558
 40
0.0383802683
 50
288.7656836787
 51
309.6104317088
 73
1
 72
2
 10
18.2724993219
 20
2.3741987064
 40
0.0198837666
 50
271.8586572978
 51
289.4131338543
 73
1
 72
1
 10
18.273144232
 20
2.3543254011
 11
18.2257802057
 21
2.3543254011
 97
267
330
2C2
330
2C3
330
2C4
330
2C5
330
2C6
330
2C7
330
2C8
330
2C9
330
2CA
330
2CB
330
2CC
330
2CD
330
2CE
330
2CF
330
2D0
330
2D1
330
2D2
330
2D3
330
2D4
330
2D5
330
2D6
330
2D7
330
2D8
330
2D9
330
2DA
330
2DB
330
2DC
330
2DD
330
2DE
330
2DF
330
2E0
330
2E1
330
2E2
330
2E3
330
2E4
330
2E5
330
2E6
330
2E7
330
2E8
330
2E9
330
2EA
330
2EB
330
2EC
330
2ED
330
2EE
330
2EF
330
2F0
330
2F1
330
2F2
330
2F3
330
2F4
330
2F5
330
2F6
330
2F7
330
2F8
330
2F9
330
2FA
330
2FB
330
2FC
330
2FD
330
2FE
330
2FF
330
300
330
301
330
302
330
303
330
304
330
305
330
306
330
307
330
308
330
309
330
30A
330
30B
330
30C
330
30D
330
30E
330
30F
330
310
330
311
330
312
330
313
330
314
330
315
330
316
330
317
330
318
330
319
330
31A
330
31B
330
31C
330
31D
330
31E
330
31F
330
320
330
321
330
322
330
323
330
324
330
325
330
326
330
327
330
328
330
329
330
32A
330
32B
330
32C
330
32D
330
32E
330
32F
330
330
330
331
330
332
330
333
330
334
330
335
330
336
330
337
330
338
330
339
330
33A
330
33B
330
33C
330
33D
330
33E
330
33F
330
340
330
341
330
342
330
343
330
344
330
345
330
346
330
347
330
348
330
349
330
34A
330
34B
330
34C
330
34D
330
34E
330
34F
330
350
330
351
330
352
330
353
330
354
330
355
330
356
330
357
330
358
330
359
330
35A
330
35B
330
35C
330
35D
330
35E
330
35F
330
360
330
361
330
362
330
363
330
364
330
365
330
366
330
367
330
368
330
369
330
36A
330
36B
330
36C
330
36D
330
36E
330
36F
330
370
330
371
330
372
330
373
330
374
330
375
330
376
330
377
330
378
330
379
330
37A
330
37B
330
37C
330
37D
330
37E
330
37F
330
380
330
381
330
382
330
383
330
384
330
385
330
386
330
387
330
388
330
389
330
38A
330
38B
330
38C
330
38D
330
38E
330
38F
330
390
330
391
330
392
330
393
330
394
330
395
330
396
330
397
330
398
330
399
330
39A
330
39B
330
39C
330
39D
330
39E
330
39F
330
3A0
330
3A1
330
3A2
330
3A3
330
3A4
330
3A5
330
3A6
330
3A7
330
3A8
330
3A9
330
3AA
330
3AB
330
3AC
330
3AD
330
3AE
330
3AF
330
3B0
330
3B1
330
3B2
330
3B3
330
3B4
330
3B5
330
3B6
330
3B7
330
3B8
330
3B9
330
3BA
330
3BB
330
3BC
330
3BD
330
3BE
330
3BF
330
3C0
330
3C1
330
3C2
330
3C3
330
3C4
330
3C5
330
3C6
330
3C7
330
3C8
330
3C9
330
3CA
330
3CB
330
3CC
 92
1
 93
40
 72
2
 10
17.8362019878
 20
2.3568004006
 40
0.0024749995
 50
179.9999571957
 51
270.0000428042
 73
1
 72
1
 10
17.8337269883
 20
2.3568004025
 11
17.8337269883
 21
2.3766004134
 72
2
 10
17.8362019878
 20
2.3766004153
 40
0.0024749995
 50
89.9999571958
 51
180.0000428043
 73
1
 72
1
 10
17.8362019897
 20
2.3790754148
 11
17.860125003
 21
2.3790754148
 72
2
 10
17.8601250048
 20
2.3815504143
 40
0.0024749995
 50
269.9999571956
 51
0.0000428042
 73
1
 72
1
 10
17.8626000043
 20
2.3815504162
 11
17.8626000043
 21
2.4279054419
 72
2
 10
17.8601250048
 20
2.4279054437
 40
0.0024749995
 50
359.9999571957
 51
90.0000428043
 73
1
 72
1
 10
17.860125003
 20
2.4303804433
 11
17.8362019897
 21
2.4303804433
 72
2
 10
17.8362019878
 20
2.4328554428
 40
0.0024749995
 50
179.9999571957
 51
270.0000428043
 73
1
 72
1
 10
17.8337269883
 20
2.4328554446
 11
17.8337269883
 21
2.4526554556
 72
2
 10
17.8362019878
 20
2.4526554575
 40
0.0024749995
 50
89.9999571958
 51
180.0000428043
 73
1
 72
1
 10
17.8362019897
 20
2.455130457
 11
18.0379951016
 21
2.455130457
 72
2
 10
18.0379951034
 20
2.4526554575
 40
0.0024749995
 50
359.9999571957
 51
90.0000428042
 73
1
 72
1
 10
18.040470103
 20
2.4526554556
 11
18.040470103
 21
2.4196554373
 72
2
 10
18.0379951034
 20
2.4196554355
 40
0.0024749995
 50
269.9999571956
 51
0.0000428042
 73
1
 72
1
 10
18.0379951016
 20
2.4171804359
 11
17.9961310784
 21
2.4171804359
 72
2
 10
17.9961310765
 20
2.4196554355
 40
0.0024749995
 50
179.9999571957
 51
270.0000428043
 73
1
 72
1
 10
17.993656077
 20
2.4196554373
 11
17.993656077
 21
2.4279054419
 72
2
 10
17.9911810775
 20
2.4279054437
 40
0.0024749995
 50
359.9999571957
 51
90.0000428043
 73
1
 72
1
 10
17.9911810756
 20
2.4303804433
 11
17.9271410401
 21
2.4303804433
 72
2
 10
17.9271410383
 20
2.4279054437
 40
0.0024749995
 50
89.9999571958
 51
180.0000428043
 73
1
 72
1
 10
17.9246660387
 20
2.4279054419
 11
17.9246660387
 21
2.4163554355
 72
2
 10
17.9271410383
 20
2.4163554336
 40
0.0024749995
 50
179.9999571957
 51
270.0000428042
 73
1
 72
1
 10
17.9271410401
 20
2.4138804341
 11
17.9623080596
 21
2.4138804341
 72
2
 10
17.9623080615
 20
2.4114054346
 40
0.0024749995
 50
359.9999571957
 51
90.0000428042
 73
1
 72
1
 10
17.964783061
 20
2.4114054327
 11
17.964783061
 21
2.3980504253
 72
2
 10
17.9623080615
 20
2.3980504235
 40
0.0024749995
 50
269.9999571956
 51
0.0000428042
 73
1
 72
1
 10
17.9623080596
 20
2.395575424
 11
17.9271410401
 21
2.395575424
 72
2
 10
17.9271410383
 20
2.3931004244
 40
0.0024749995
 50
89.9999571958
 51
180.0000428043
 73
1
 72
1
 10
17.9246660387
 20
2.3931004226
 11
17.9246660387
 21
2.3815504162
 72
2
 10
17.9271410383
 20
2.3815504143
 40
0.0024749995
 50
179.9999571957
 51
270.0000428043
 73
1
 72
1
 10
17.9271410401
 20
2.3790754148
 11
17.9921450762
 21
2.3790754148
 72
2
 10
17.992145078
 20
2.3815504143
 40
0.0024749995
 50
269.9999571958
 51
0.0000428043
 73
1
 72
1
 10
17.9946200775
 20
2.3815504162
 11
17.9946200775
 21
2.3898004208
 72
2
 10
17.9970950771
 20
2.3898004226
 40
0.0024749995
 50
89.9999571958
 51
180.0000428043
 73
1
 72
1
 10
17.9970950789
 20
2.3922754221
 11
18.0394141024
 21
2.3922754221
 72
2
 10
18.0394141042
 20
2.3898004226
 40
0.0024749995
 50
359.9999571957
 51
90.0000428043
 73
1
 72
1
 10
18.0418891038
 20
2.3898004208
 11
18.0418891038
 21
2.3568004025
 72
2
 10
18.0394141042
 20
2.3568004006
 40
0.0024749995
 50
269.9999571958
 51
0.0000428043
 73
1
 72
1
 10
18.0394141024
 20
2.3543254011
 11
17.8362019897
 21
2.3543254011
 97
267
330
2C2
330
2C3
330
2C4
330
2C5
330
2C6
330
2C7
330
2C8
330
2C9
330
2CA
330
2CB
330
2CC
330
2CD
330
2CE
330
2CF
330
2D0
330
2D1
330
2D2
330
2D3
330
2D4
330
2D5
330
2D6
330
2D7
330
2D8
330
2D9
330
2DA
330
2DB
330
2DC
330
2DD
330
2DE
330
2DF
330
2E0
330
2E1
330
2E2
330
2E3
330
2E4
330
2E5
330
2E6
330
2E7
330
2E8
330
2E9
330
2EA
330
2EB
330
2EC
330
2ED
330
2EE
330
2EF
330
2F0
330
2F1
330
2F2
330
2F3
330
2F4
330
2F5
330
2F6
330
2F7
330
2F8
330
2F9
330
2FA
330
2FB
330
2FC
330
2FD
330
2FE
330
2FF
330
300
330
301
330
302
330
303
330
304
330
305
330
306
330
307
330
308
330
309
330
30A
330
30B
330
30C
330
30D
330
30E
330
30F
330
310
330
311
330
312
330
313
330
314
330
315
330
316
330
317
330
318
330
319
330
31A
330
31B
330
31C
330
31D
330
31E
330
31F
330
320
330
321
330
322
330
323
330
324
330
325
330
326
330
327
330
328
330
329
330
32A
330
32B
330
32C
330
32D
330
32E
330
32F
330
330
330
331
330
332
330
333
330
334
330
335
330
336
330
337
330
338
330
339
330
33A
330
33B
330
33C
330
33D
330
33E
330
33F
330
340
330
341
330
342
330
343
330
344
330
345
330
346
330
347
330
348
330
349
330
34A
330
34B
330
34C
330
34D
330
34E
330
34F
330
350
330
351
330
352
330
353
330
354
330
355
330
356
330
357
330
358
330
359
330
35A
330
35B
330
35C
330
35D
330
35E
330
35F
330
360
330
361
330
362
330
363
330
364
330
365
330
366
330
367
330
368
330
369
330
36A
330
36B
330
36C
330
36D
330
36E
330
36F
330
370
330
371
330
372
330
373
330
374
330
375
330
376
330
377
330
378
330
379
330
37A
330
37B
330
37C
330
37D
330
37E
330
37F
330
380
330
381
330
382
330
383
330
384
330
385
330
386
330
387
330
388
330
389
330
38A
330
38B
330
38C
330
38D
330
38E
330
38F
330
390
330
391
330
392
330
393
330
394
330
395
330
396
330
397
330
398
330
399
330
39A
330
39B
330
39C
330
39D
330
39E
330
39F
330
3A0
330
3A1
330
3A2
330
3A3
330
3A4
330
3A5
330
3A6
330
3A7
330
3A8
330
3A9
330
3AA
330
3AB
330
3AC
330
3AD
330
3AE
330
3AF
330
3B0
330
3B1
330
3B2
330
3B3
330
3B4
330
3B5
330
3B6
330
3B7
330
3B8
330
3B9
330
3BA
330
3BB
330
3BC
330
3BD
330
3BE
330
3BF
330
3C0
330
3C1
330
3C2
330
3C3
330
3C4
330
3C5
330
3C6
330
3C7
330
3C8
330
3C9
330
3CA
330
3CB
330
3CC
 92
1
 93
40
 72
2
 10
17.7115227858
 20
2.3567995689
 40
0.0024741678
 50
226.3477981898
 51
270.0031206038
 73
1
 72
1
 10
17.7098149196
 20
2.3550094015
 11
17.6465348845
 21
2.415387435
 72
2
 10
17.6448261836
 20
2.4135964972
 40
0.0024753014
 50
46.3461263058
 51
180.0014637321
 73
1
 72
1
 10
17.6423508822
 20
2.413596434
 11
17.6423508822
 21
2.3815504162
 72
2
 10
17.6448258817
 20
2.3815504143
 40
0.0024749995
 50
179.9999571957
 51
270.0000428043
 73
1
 72
1
 10
17.6448258836
 20
2.3790754148
 11
17.6651428948
 21
2.3790754148
 72
2
 10
17.6651428967
 20
2.3766004153
 40
0.0024749995
 50
359.9999571957
 51
90.0000428043
 73
1
 72
1
 10
17.6676178962
 20
2.3766004134
 11
17.6676178962
 21
2.3568004025
 72
2
 10
17.6651428967
 20
2.3568004006
 40
0.0024749995
 50
269.9999571958
 51
0.0000428043
 73
1
 72
1
 10
17.6651428948
 20
2.3543254011
 11
17.5894788529
 21
2.3543254011
 72
2
 10
17.589478851
 20
2.3568004006
 40
0.0024749995
 50
179.9999571957
 51
270.0000428042
 73
1
 72
1
 10
17.5870038515
 20
2.3568004025
 11
17.5870038515
 21
2.3766004134
 72
2
 10
17.589478851
 20
2.3766004153
 40
0.0024749995
 50
89.9999571957
 51
180.0000428043
 73
1
 72
1
 10
17.5894788529
 20
2.3790754148
 11
17.6081248632
 21
2.3790754148
 72
2
 10
17.6081248651
 20
2.3815504143
 40
0.0024749995
 50
269.9999571957
 51
0.0000428043
 73
1
 72
1
 10
17.6105998646
 20
2.3815504162
 11
17.6105998646
 21
2.4279054419
 72
2
 10
17.6081248651
 20
2.4279054437
 40
0.0024749995
 50
359.9999571957
 51
90.0000428043
 73
1
 72
1
 10
17.6081248632
 20
2.4303804433
 11
17.5894788529
 21
2.4303804433
 72
2
 10
17.589478851
 20
2.4328554428
 40
0.0024749995
 50
179.9999571957
 51
270.0000428043
 73
1
 72
1
 10
17.5870038515
 20
2.4328554446
 11
17.5870038515
 21
2.4526554556
 72
2
 10
17.589478851
 20
2.4526554575
 40
0.0024749995
 50
89.9999571957
 51
180.0000428043
 73
1
 72
1
 10
17.5894788529
 20
2.455130457
 11
17.6899369086
 21
2.455130457
 72
2
 10
17.6899370433
 20
2.4526562892
 40
0.0024741678
 50
46.3477981899
 51
90.0031206038
 73
1
 72
1
 10
17.6916449095
 20
2.4544464566
 11
17.7516779428
 21
2.3971664249
 72
2
 10
17.7533866437
 20
2.3989573626
 40
0.0024753014
 50
226.3461263059
 51
0.0014637321
 73
1
 72
1
 10
17.7558619451
 20
2.3989574258
 11
17.7558619451
 21
2.4279054419
 72
2
 10
17.7533869456
 20
2.4279054437
 40
0.0024749995
 50
359.9999571957
 51
90.0000428043
 73
1
 72
1
 10
17.7533869438
 20
2.4303804433
 11
17.7346109333
 21
2.4303804433
 72
2
 10
17.7346109315
 20
2.4328554428
 40
0.0024749995
 50
179.9999571957
 51
270.0000428043
 73
1
 72
1
 10
17.732135932
 20
2.4328554446
 11
17.732135932
 21
2.4526554556
 72
2
 10
17.7346109315
 20
2.4526554575
 40
0.0024749995
 50
89.9999571958
 51
180.0000428043
 73
1
 72
1
 10
17.7346109333
 20
2.455130457
 11
17.8086119744
 21
2.455130457
 72
2
 10
17.8086119762
 20
2.4526554575
 40
0.0024749995
 50
359.9999571957
 51
90.0000428043
 73
1
 72
1
 10
17.8110869758
 20
2.4526554556
 11
17.8110869758
 21
2.4328554446
 72
2
 10
17.8086119762
 20
2.4328554428
 40
0.0024749995
 50
269.9999571956
 51
0.0000428042
 73
1
 72
1
 10
17.8086119744
 20
2.4303804433
 11
17.7906789644
 21
2.4303804433
 72
2
 10
17.7906789626
 20
2.4279054437
 40
0.0024749995
 50
89.9999571957
 51
180.0000428043
 73
1
 72
1
 10
17.7882039631
 20
2.4279054419
 11
17.7882039631
 21
2.3568004025
 72
2
 10
17.7857289635
 20
2.3568004006
 40
0.0024749995
 50
269.9999571957
 51
0.0000428043
 73
1
 72
1
 10
17.7857289617
 20
2.3543254011
 11
17.7115229205
 21
2.3543254011
 97
267
330
2C2
330
2C3
330
2C4
330
2C5
330
2C6
330
2C7
330
2C8
330
2C9
330
2CA
330
2CB
330
2CC
330
2CD
330
2CE
330
2CF
330
2D0
330
2D1
330
2D2
330
2D3
330
2D4
330
2D5
330
2D6
330
2D7
330
2D8
330
2D9
330
2DA
330
2DB
330
2DC
330
2DD
330
2DE
330
2DF
330
2E0
330
2E1
330
2E2
330
2E3
330
2E4
330
2E5
330
2E6
330
2E7
330
2E8
330
2E9
330
2EA
330
2EB
330
2EC
330
2ED
330
2EE
330
2EF
330
2F0
330
2F1
330
2F2
330
2F3
330
2F4
330
2F5
330
2F6
330
2F7
330
2F8
330
2F9
330
2FA
330
2FB
330
2FC
330
2FD
330
2FE
330
2FF
330
300
330
301
330
302
330
303
330
304
330
305
330
306
330
307
330
308
330
309
330
30A
330
30B
330
30C
330
30D
330
30E
330
30F
330
310
330
311
330
312
330
313
330
314
330
315
330
316
330
317
330
318
330
319
330
31A
330
31B
330
31C
330
31D
330
31E
330
31F
330
320
330
321
330
322
330
323
330
324
330
325
330
326
330
327
330
328
330
329
330
32A
330
32B
330
32C
330
32D
330
32E
330
32F
330
330
330
331
330
332
330
333
330
334
330
335
330
336
330
337
330
338
330
339
330
33A
330
33B
330
33C
330
33D
330
33E
330
33F
330
340
330
341
330
342
330
343
330
344
330
345
330
346
330
347
330
348
330
349
330
34A
330
34B
330
34C
330
34D
330
34E
330
34F
330
350
330
351
330
352
330
353
330
354
330
355
330
356
330
357
330
358
330
359
330
35A
330
35B
330
35C
330
35D
330
35E
330
35F
330
360
330
361
330
362
330
363
330
364
330
365
330
366
330
367
330
368
330
369
330
36A
330
36B
330
36C
330
36D
330
36E
330
36F
330
370
330
371
330
372
330
373
330
374
330
375
330
376
330
377
330
378
330
379
330
37A
330
37B
330
37C
330
37D
330
37E
330
37F
330
380
330
381
330
382
330
383
330
384
330
385
330
386
330
387
330
388
330
389
330
38A
330
38B
330
38C
330
38D
330
38E
330
38F
330
390
330
391
330
392
330
393
330
394
330
395
330
396
330
397
330
398
330
399
330
39A
330
39B
330
39C
330
39D
330
39E
330
39F
330
3A0
330
3A1
330
3A2
330
3A3
330
3A4
330
3A5
330
3A6
330
3A7
330
3A8
330
3A9
330
3AA
330
3AB
330
3AC
330
3AD
330
3AE
330
3AF
330
3B0
330
3B1
330
3B2
330
3B3
330
3B4
330
3B5
330
3B6
330
3B7
330
3B8
330
3B9
330
3BA
330
3BB
330
3BC
330
3BD
330
3BE
330
3BF
330
3C0
330
3C1
330
3C2
330
3C3
330
3C4
330
3C5
330
3C6
330
3C7
330
3C8
330
3C9
330
3CA
330
3CB
330
3CC
 92
1
 93
40
 72
2
 10
17.4632701481
 20
2.3568008172
 40
0.0024754162
 50
226.3593695814
 51
270.0146919954
 73
1
 72
1
 10
17.4615617819
 20
2.3550094015
 11
17.3982817468
 21
2.415387435
 72
2
 10
17.3965730459
 20
2.4135964972
 40
0.0024753014
 50
46.3461263058
 51
180.0014637321
 73
1
 72
1
 10
17.3940977445
 20
2.413596434
 11
17.3940977445
 21
2.3815504162
 72
2
 10
17.396572744
 20
2.3815504143
 40
0.0024749995
 50
179.9999571957
 51
270.0000428043
 73
1
 72
1
 10
17.3965727459
 20
2.3790754148
 11
17.4168897572
 21
2.3790754148
 72
2
 10
17.416889759
 20
2.3766004153
 40
0.0024749995
 50
359.9999571957
 51
90.0000428043
 73
1
 72
1
 10
17.4193647585
 20
2.3766004134
 11
17.4193647585
 21
2.3568004025
 72
2
 10
17.416889759
 20
2.3568004006
 40
0.0024749995
 50
269.9999571957
 51
0.0000428043
 73
1
 72
1
 10
17.4168897572
 20
2.3543254011
 11
17.3412257152
 21
2.3543254011
 72
2
 10
17.3412257133
 20
2.3568004006
 40
0.0024749995
 50
179.9999571957
 51
270.0000428043
 73
1
 72
1
 10
17.3387507138
 20
2.3568004025
 11
17.3387507138
 21
2.3766004134
 72
2
 10
17.3412257133
 20
2.3766004153
 40
0.0024749995
 50
89.9999571957
 51
180.0000428043
 73
1
 72
1
 10
17.3412257152
 20
2.3790754148
 11
17.3598727255
 21
2.3790754148
 72
2
 10
17.3598727274
 20
2.3815504143
 40
0.0024749995
 50
269.9999571957
 51
0.0000428043
 73
1
 72
1
 10
17.3623477269
 20
2.3815504162
 11
17.3623477269
 21
2.4279054419
 72
2
 10
17.3598727274
 20
2.4279054437
 40
0.0024749995
 50
359.9999571957
 51
90.0000428044
 73
1
 72
1
 10
17.3598727255
 20
2.4303804433
 11
17.3412257152
 21
2.4303804433
 72
2
 10
17.3412257133
 20
2.4328554428
 40
0.0024749995
 50
179.9999571957
 51
270.0000428043
 73
1
 72
1
 10
17.3387507138
 20
2.4328554446
 11
17.3387507138
 21
2.4526554556
 72
2
 10
17.3412257133
 20
2.4526554575
 40
0.0024749995
 50
89.9999571957
 51
180.0000428043
 73
1
 72
1
 10
17.3412257152
 20
2.455130457
 11
17.4416837709
 21
2.455130457
 72
2
 10
17.4416839057
 20
2.4526562892
 40
0.0024741678
 50
46.3477981899
 51
90.0031206038
 73
1
 72
1
 10
17.4433917718
 20
2.4544464566
 11
17.5034248051
 21
2.3971664249
 72
2
 10
17.5051335061
 20
2.3989573626
 40
0.0024753014
 50
226.3461263059
 51
0.0014637321
 73
1
 72
1
 10
17.5076088075
 20
2.3989574258
 11
17.5076088075
 21
2.4279054419
 72
2
 10
17.5051338079
 20
2.4279054437
 40
0.0024749995
 50
359.9999571957
 51
90.0000428043
 73
1
 72
1
 10
17.5051338061
 20
2.4303804433
 11
17.4863577957
 21
2.4303804433
 72
2
 10
17.4863577938
 20
2.4328554428
 40
0.0024749995
 50
179.9999571957
 51
270.0000428043
 73
1
 72
1
 10
17.4838827943
 20
2.4328554446
 11
17.4838827943
 21
2.4526554556
 72
2
 10
17.4863577938
 20
2.4526554575
 40
0.0024749995
 50
89.9999571957
 51
180.0000428043
 73
1
 72
1
 10
17.4863577957
 20
2.455130457
 11
17.5603588367
 21
2.455130457
 72
2
 10
17.5603588386
 20
2.4526554575
 40
0.0024749995
 50
359.9999571957
 51
90.0000428042
 73
1
 72
1
 10
17.5628338381
 20
2.4526554556
 11
17.5628338381
 21
2.4328554446
 72
2
 10
17.5603588386
 20
2.4328554428
 40
0.0024749995
 50
269.9999571958
 51
0.0000428043
 73
1
 72
1
 10
17.5603588367
 20
2.4303804433
 11
17.5424258268
 21
2.4303804433
 72
2
 10
17.5424258249
 20
2.4279054437
 40
0.0024749995
 50
89.9999571958
 51
180.0000428043
 73
1
 72
1
 10
17.5399508254
 20
2.4279054419
 11
17.5399508254
 21
2.3568004025
 72
2
 10
17.5374758259
 20
2.3568004006
 40
0.0024749995
 50
269.9999571958
 51
0.0000428043
 73
1
 72
1
 10
17.537475824
 20
2.3543254011
 11
17.4632707829
 21
2.3543254011
 97
267
330
2C2
330
2C3
330
2C4
330
2C5
330
2C6
330
2C7
330
2C8
330
2C9
330
2CA
330
2CB
330
2CC
330
2CD
330
2CE
330
2CF
330
2D0
330
2D1
330
2D2
330
2D3
330
2D4
330
2D5
330
2D6
330
2D7
330
2D8
330
2D9
330
2DA
330
2DB
330
2DC
330
2DD
330
2DE
330
2DF
330
2E0
330
2E1
330
2E2
330
2E3
330
2E4
330
2E5
330
2E6
330
2E7
330
2E8
330
2E9
330
2EA
330
2EB
330
2EC
330
2ED
330
2EE
330
2EF
330
2F0
330
2F1
330
2F2
330
2F3
330
2F4
330
2F5
330
2F6
330
2F7
330
2F8
330
2F9
330
2FA
330
2FB
330
2FC
330
2FD
330
2FE
330
2FF
330
300
330
301
330
302
330
303
330
304
330
305
330
306
330
307
330
308
330
309
330
30A
330
30B
330
30C
330
30D
330
30E
330
30F
330
310
330
311
330
312
330
313
330
314
330
315
330
316
330
317
330
318
330
319
330
31A
330
31B
330
31C
330
31D
330
31E
330
31F
330
320
330
321
330
322
330
323
330
324
330
325
330
326
330
327
330
328
330
329
330
32A
330
32B
330
32C
330
32D
330
32E
330
32F
330
330
330
331
330
332
330
333
330
334
330
335
330
336
330
337
330
338
330
339
330
33A
330
33B
330
33C
330
33D
330
33E
330
33F
330
340
330
341
330
342
330
343
330
344
330
345
330
346
330
347
330
348
330
349
330
34A
330
34B
330
34C
330
34D
330
34E
330
34F
330
350
330
351
330
352
330
353
330
354
330
355
330
356
330
357
330
358
330
359
330
35A
330
35B
330
35C
330
35D
330
35E
330
35F
330
360
330
361
330
362
330
363
330
364
330
365
330
366
330
367
330
368
330
369
330
36A
330
36B
330
36C
330
36D
330
36E
330
36F
330
370
330
371
330
372
330
373
330
374
330
375
330
376
330
377
330
378
330
379
330
37A
330
37B
330
37C
330
37D
330
37E
330
37F
330
380
330
381
330
382
330
383
330
384
330
385
330
386
330
387
330
388
330
389
330
38A
330
38B
330
38C
330
38D
330
38E
330
38F
330
390
330
391
330
392
330
393
330
394
330
395
330
396
330
397
330
398
330
399
330
39A
330
39B
330
39C
330
39D
330
39E
330
39F
330
3A0
330
3A1
330
3A2
330
3A3
330
3A4
330
3A5
330
3A6
330
3A7
330
3A8
330
3A9
330
3AA
330
3AB
330
3AC
330
3AD
330
3AE
330
3AF
330
3B0
330
3B1
330
3B2
330
3B3
330
3B4
330
3B5
330
3B6
330
3B7
330
3B8
330
3B9
330
3BA
330
3BB
330
3BC
330
3BD
330
3BE
330
3BF
330
3C0
330
3C1
330
3C2
330
3C3
330
3C4
330
3C5
330
3C6
330
3C7
330
3C8
330
3C9
330
3CA
330
3CB
330
3CC
 92
1
 93
23
 72
2
 10
17.0481152095
 20
2.4027328529
 40
0.048483885
 50
273.21763719
 51
303.0749121182
 73
1
 72
2
 10
17.0629546036
 20
2.379965244
 40
0.0213072145
 50
303.0488228549
 51
355.7263138674
 73
1
 72
2
 10
17.0688911042
 20
2.3799744343
 40
0.0153945295
 50
354.0454548824
 51
5.1878013979
 73
1
 72
2
 10
17.0620614151
 20
2.3797859164
 40
0.0222174455
 50
4.0793399388
 51
69.834329283
 73
1
 72
1
 10
17.0697205646
 20
2.4006414268
 11
17.059669559
 21
2.4041904287
 72
1
 10
17.059669559
 20
2.4041904287
 11
17.0679095636
 21
2.4089664314
 72
2
 10
17.0460441811
 20
2.445793323
 40
0.0428289026
 50
300.6990502959
 51
319.0591802498
 73
1
 72
2
 10
17.0660727781
 20
2.4296649696
 40
0.0171568255
 50
315.9145124245
 51
16.0049121283
 73
1
 72
2
 10
17.0611211659
 20
2.4263113051
 40
0.0229166529
 50
20.6563876465
 51
62.3316896973
 73
1
 72
2
 10
17.0404590422
 20
2.3933827403
 40
0.061747717
 50
59.5385584989
 51
90.0050977555
 73
1
 72
1
 10
17.0404535484
 20
2.455130457
 11
16.8743904563
 21
2.455130457
 72
2
 10
16.8743904545
 20
2.4526554575
 40
0.0024749995
 50
89.9999571958
 51
180.0000428043
 73
1
 72
1
 10
16.8719154549
 20
2.4526554556
 11
16.8719154549
 21
2.4328554446
 72
2
 10
16.8743904545
 20
2.4328554428
 40
0.0024749995
 50
179.9999571957
 51
270.0000428043
 73
1
 72
1
 10
16.8743904563
 20
2.4303804433
 11
16.8983324696
 21
2.4303804433
 72
2
 10
16.8983324714
 20
2.4279054437
 40
0.0024749995
 50
359.9999571957
 51
90.0000428043
 73
1
 72
1
 10
16.9008074709
 20
2.4279054419
 11
16.9008074709
 21
2.3815504162
 72
2
 10
16.8983324714
 20
2.3815504143
 40
0.0024749995
 50
269.9999571958
 51
0.0000428043
 73
1
 72
1
 10
16.8983324696
 20
2.3790754148
 11
16.8743904563
 21
2.3790754148
 72
2
 10
16.8743904545
 20
2.3766004153
 40
0.0024749995
 50
89.9999571958
 51
180.0000428043
 73
1
 72
1
 10
16.8719154549
 20
2.3766004134
 11
16.8719154549
 21
2.3568004025
 72
2
 10
16.8743904545
 20
2.3568004006
 40
0.0024749995
 50
179.9999571957
 51
270.0000428042
 73
1
 72
1
 10
16.8743904563
 20
2.3543254011
 11
17.0508365542
 21
2.3543254011
 97
267
330
2C2
330
2C3
330
2C4
330
2C5
330
2C6
330
2C7
330
2C8
330
2C9
330
2CA
330
2CB
330
2CC
330
2CD
330
2CE
330
2CF
330
2D0
330
2D1
330
2D2
330
2D3
330
2D4
330
2D5
330
2D6
330
2D7
330
2D8
330
2D9
330
2DA
330
2DB
330
2DC
330
2DD
330
2DE
330
2DF
330
2E0
330
2E1
330
2E2
330
2E3
330
2E4
330
2E5
330
2E6
330
2E7
330
2E8
330
2E9
330
2EA
330
2EB
330
2EC
330
2ED
330
2EE
330
2EF
330
2F0
330
2F1
330
2F2
330
2F3
330
2F4
330
2F5
330
2F6
330
2F7
330
2F8
330
2F9
330
2FA
330
2FB
330
2FC
330
2FD
330
2FE
330
2FF
330
300
330
301
330
302
330
303
330
304
330
305
330
306
330
307
330
308
330
309
330
30A
330
30B
330
30C
330
30D
330
30E
330
30F
330
310
330
311
330
312
330
313
330
314
330
315
330
316
330
317
330
318
330
319
330
31A
330
31B
330
31C
330
31D
330
31E
330
31F
330
320
330
321
330
322
330
323
330
324
330
325
330
326
330
327
330
328
330
329
330
32A
330
32B
330
32C
330
32D
330
32E
330
32F
330
330
330
331
330
332
330
333
330
334
330
335
330
336
330
337
330
338
330
339
330
33A
330
33B
330
33C
330
33D
330
33E
330
33F
330
340
330
341
330
342
330
343
330
344
330
345
330
346
330
347
330
348
330
349
330
34A
330
34B
330
34C
330
34D
330
34E
330
34F
330
350
330
351
330
352
330
353
330
354
330
355
330
356
330
357
330
358
330
359
330
35A
330
35B
330
35C
330
35D
330
35E
330
35F
330
360
330
361
330
362
330
363
330
364
330
365
330
366
330
367
330
368
330
369
330
36A
330
36B
330
36C
330
36D
330
36E
330
36F
330
370
330
371
330
372
330
373
330
374
330
375
330
376
330
377
330
378
330
379
330
37A
330
37B
330
37C
330
37D
330
37E
330
37F
330
380
330
381
330
382
330
383
330
384
330
385
330
386
330
387
330
388
330
389
330
38A
330
38B
330
38C
330
38D
330
38E
330
38F
330
390
330
391
330
392
330
393
330
394
330
395
330
396
330
397
330
398
330
399
330
39A
330
39B
330
39C
330
39D
330
39E
330
39F
330
3A0
330
3A1
330
3A2
330
3A3
330
3A4
330
3A5
330
3A6
330
3A7
330
3A8
330
3A9
330
3AA
330
3AB
330
3AC
330
3AD
330
3AE
330
3AF
330
3B0
330
3B1
330
3B2
330
3B3
330
3B4
330
3B5
330
3B6
330
3B7
330
3B8
330
3B9
330
3BA
330
3BB
330
3BC
330
3BD
330
3BE
330
3BF
330
3C0
330
3C1
330
3C2
330
3C3
330
3C4
330
3C5
330
3C6
330
3C7
330
3C8
330
3C9
330
3CA
330
3CB
330
3CC
 92
1
 93
32
 72
2
 10
17.1857496308
 20
2.3568004006
 40
0.0024749995
 50
269.9999571958
 51
0.0000428044
 73
1
 72
1
 10
17.1882246303
 20
2.3568004025
 11
17.1882246303
 21
2.3766004134
 72
2
 10
17.1857496308
 20
2.3766004153
 40
0.0024749995
 50
359.9999571957
 51
90.0000428043
 73
1
 72
1
 10
17.185749629
 20
2.3790754148
 11
17.1744666227
 21
2.3790754148
 72
2
 10
17.1744665134
 20
2.3815504549
 40
0.0024750401
 50
147.6063258011
 51
270.0025305754
 73
1
 72
1
 10
17.1723766216
 20
2.3828764169
 11
17.1778926246
 21
2.3915704217
 72
2
 10
17.1799825555
 20
2.3902442221
 40
0.0024752003
 50
89.998372645
 51
147.602165307
 73
1
 72
1
 10
17.1799826258
 20
2.3927194224
 11
17.2148606451
 21
2.3927194224
 72
2
 10
17.2148601055
 20
2.3902439622
 40
0.0024754602
 50
32.8959418574
 51
89.9875097202
 73
1
 72
1
 10
17.2169386463
 20
2.3915884218
 11
17.2225646494
 21
2.3828954169
 72
2
 10
17.2204866271
 20
2.3815506219
 40
0.0024752071
 50
270.0004896793
 51
32.9089806818
 73
1
 72
1
 10
17.2204866482
 20
2.3790754148
 11
17.2060356402
 21
2.3790754148
 72
2
 10
17.2060356384
 20
2.3766004153
 40
0.0024749995
 50
89.9999571958
 51
180.0000428043
 73
1
 72
1
 10
17.2035606388
 20
2.3766004134
 11
17.2035606388
 21
2.3568004025
 72
2
 10
17.2060356384
 20
2.3568004006
 40
0.0024749995
 50
179.9999571957
 51
270.0000428042
 73
1
 72
1
 10
17.2060356402
 20
2.3543254011
 11
17.3113166986
 21
2.3543254011
 72
2
 10
17.3113167005
 20
2.3568004006
 40
0.0024749995
 50
269.9999571957
 51
0.0000428043
 73
1
 72
1
 10
17.3137917
 20
2.3568004025
 11
17.3137917
 21
2.3766004134
 72
2
 10
17.3113167005
 20
2.3766004153
 40
0.0024749995
 50
359.9999571957
 51
90.0000428043
 73
1
 72
1
 10
17.3113166986
 20
2.3790754148
 11
17.2913006875
 21
2.3790754148
 72
2
 10
17.291300808
 20
2.3815494558
 40
0.002474041
 50
212.9056413127
 51
269.9972091756
 73
1
 72
1
 10
17.2892236864
 20
2.3802054154
 11
17.2414676599
 21
2.4540004564
 72
2
 10
17.2393900382
 20
2.4526554968
 40
0.0024749602
 50
32.9172174468
 51
90.0087853096
 73
1
 72
1
 10
17.2393896587
 20
2.455130457
 11
17.182214627
 21
2.455130457
 72
2
 10
17.1822145567
 20
2.4526552567
 40
0.0024752003
 50
89.998372645
 51
147.602165307
 73
1
 72
1
 10
17.1801246258
 20
2.4539814564
 11
17.1333245999
 21
2.3802244155
 72
2
 10
17.131234669
 20
2.3815506151
 40
0.0024752003
 50
269.998372645
 51
327.602165307
 73
1
 72
1
 10
17.1312345987
 20
2.3790754148
 11
17.1083735861
 21
2.3790754148
 72
2
 10
17.1083735842
 20
2.3766004153
 40
0.0024749995
 50
89.9999571957
 51
180.0000428043
 73
1
 72
1
 10
17.1058985847
 20
2.3766004134
 11
17.1058985847
 21
2.3568004025
 72
2
 10
17.1083735842
 20
2.3568004006
 40
0.0024749995
 50
179.9999571957
 51
270.0000428043
 73
1
 72
1
 10
17.1083735861
 20
2.3543254011
 11
17.185749629
 21
2.3543254011
 97
267
330
2C2
330
2C3
330
2C4
330
2C5
330
2C6
330
2C7
330
2C8
330
2C9
330
2CA
330
2CB
330
2CC
330
2CD
330
2CE
330
2CF
330
2D0
330
2D1
330
2D2
330
2D3
330
2D4
330
2D5
330
2D6
330
2D7
330
2D8
330
2D9
330
2DA
330
2DB
330
2DC
330
2DD
330
2DE
330
2DF
330
2E0
330
2E1
330
2E2
330
2E3
330
2E4
330
2E5
330
2E6
330
2E7
330
2E8
330
2E9
330
2EA
330
2EB
330
2EC
330
2ED
330
2EE
330
2EF
330
2F0
330
2F1
330
2F2
330
2F3
330
2F4
330
2F5
330
2F6
330
2F7
330
2F8
330
2F9
330
2FA
330
2FB
330
2FC
330
2FD
330
2FE
330
2FF
330
300
330
301
330
302
330
303
330
304
330
305
330
306
330
307
330
308
330
309
330
30A
330
30B
330
30C
330
30D
330
30E
330
30F
330
310
330
311
330
312
330
313
330
314
330
315
330
316
330
317
330
318
330
319
330
31A
330
31B
330
31C
330
31D
330
31E
330
31F
330
320
330
321
330
322
330
323
330
324
330
325
330
326
330
327
330
328
330
329
330
32A
330
32B
330
32C
330
32D
330
32E
330
32F
330
330
330
331
330
332
330
333
330
334
330
335
330
336
330
337
330
338
330
339
330
33A
330
33B
330
33C
330
33D
330
33E
330
33F
330
340
330
341
330
342
330
343
330
344
330
345
330
346
330
347
330
348
330
349
330
34A
330
34B
330
34C
330
34D
330
34E
330
34F
330
350
330
351
330
352
330
353
330
354
330
355
330
356
330
357
330
358
330
359
330
35A
330
35B
330
35C
330
35D
330
35E
330
35F
330
360
330
361
330
362
330
363
330
364
330
365
330
366
330
367
330
368
330
369
330
36A
330
36B
330
36C
330
36D
330
36E
330
36F
330
370
330
371
330
372
330
373
330
374
330
375
330
376
330
377
330
378
330
379
330
37A
330
37B
330
37C
330
37D
330
37E
330
37F
330
380
330
381
330
382
330
383
330
384
330
385
330
386
330
387
330
388
330
389
330
38A
330
38B
330
38C
330
38D
330
38E
330
38F
330
390
330
391
330
392
330
393
330
394
330
395
330
396
330
397
330
398
330
399
330
39A
330
39B
330
39C
330
39D
330
39E
330
39F
330
3A0
330
3A1
330
3A2
330
3A3
330
3A4
330
3A5
330
3A6
330
3A7
330
3A8
330
3A9
330
3AA
330
3AB
330
3AC
330
3AD
330
3AE
330
3AF
330
3B0
330
3B1
330
3B2
330
3B3
330
3B4
330
3B5
330
3B6
330
3B7
330
3B8
330
3B9
330
3BA
330
3BB
330
3BC
330
3BD
330
3BE
330
3BF
330
3C0
330
3C1
330
3C2
330
3C3
330
3C4
330
3C5
330
3C6
330
3C7
330
3C8
330
3C9
330
3CA
330
3CB
330
3CC
 92
1
 93
6
 72
2
 10
16.963795504
 20
2.3815504143
 40
0.0024749995
 50
179.9999571957
 51
270.0000428043
 73
1
 72
1
 10
16.9613205045
 20
2.3815504162
 11
16.9613205045
 21
2.3939254231
 72
2
 10
16.963795504
 20
2.3939254249
 40
0.0024749995
 50
89.9999571957
 51
180.0000428043
 73
1
 72
1
 10
16.9637955059
 20
2.3964004244
 11
17.0051585288
 21
2.3964004244
 72
2
 10
17.0051585288
 20
2.3877379196
 40
0.0086625048
 50
270.0
 51
90.0
 73
1
 72
1
 10
17.0051585288
 20
2.3790754148
 11
16.9637955059
 21
2.3790754148
 97
267
330
2C2
330
2C3
330
2C4
330
2C5
330
2C6
330
2C7
330
2C8
330
2C9
330
2CA
330
2CB
330
2CC
330
2CD
330
2CE
330
2CF
330
2D0
330
2D1
330
2D2
330
2D3
330
2D4
330
2D5
330
2D6
330
2D7
330
2D8
330
2D9
330
2DA
330
2DB
330
2DC
330
2DD
330
2DE
330
2DF
330
2E0
330
2E1
330
2E2
330
2E3
330
2E4
330
2E5
330
2E6
330
2E7
330
2E8
330
2E9
330
2EA
330
2EB
330
2EC
330
2ED
330
2EE
330
2EF
330
2F0
330
2F1
330
2F2
330
2F3
330
2F4
330
2F5
330
2F6
330
2F7
330
2F8
330
2F9
330
2FA
330
2FB
330
2FC
330
2FD
330
2FE
330
2FF
330
300
330
301
330
302
330
303
330
304
330
305
330
306
330
307
330
308
330
309
330
30A
330
30B
330
30C
330
30D
330
30E
330
30F
330
310
330
311
330
312
330
313
330
314
330
315
330
316
330
317
330
318
330
319
330
31A
330
31B
330
31C
330
31D
330
31E
330
31F
330
320
330
321
330
322
330
323
330
324
330
325
330
326
330
327
330
328
330
329
330
32A
330
32B
330
32C
330
32D
330
32E
330
32F
330
330
330
331
330
332
330
333
330
334
330
335
330
336
330
337
330
338
330
339
330
33A
330
33B
330
33C
330
33D
330
33E
330
33F
330
340
330
341
330
342
330
343
330
344
330
345
330
346
330
347
330
348
330
349
330
34A
330
34B
330
34C
330
34D
330
34E
330
34F
330
350
330
351
330
352
330
353
330
354
330
355
330
356
330
357
330
358
330
359
330
35A
330
35B
330
35C
330
35D
330
35E
330
35F
330
360
330
361
330
362
330
363
330
364
330
365
330
366
330
367
330
368
330
369
330
36A
330
36B
330
36C
330
36D
330
36E
330
36F
330
370
330
371
330
372
330
373
330
374
330
375
330
376
330
377
330
378
330
379
330
37A
330
37B
330
37C
330
37D
330
37E
330
37F
330
380
330
381
330
382
330
383
330
384
330
385
330
386
330
387
330
388
330
389
330
38A
330
38B
330
38C
330
38D
330
38E
330
38F
330
390
330
391
330
392
330
393
330
394
330
395
330
396
330
397
330
398
330
399
330
39A
330
39B
330
39C
330
39D
330
39E
330
39F
330
3A0
330
3A1
330
3A2
330
3A3
330
3A4
330
3A5
330
3A6
330
3A7
330
3A8
330
3A9
330
3AA
330
3AB
330
3AC
330
3AD
330
3AE
330
3AF
330
3B0
330
3B1
330
3B2
330
3B3
330
3B4
330
3B5
330
3B6
330
3B7
330
3B8
330
3B9
330
3BA
330
3BB
330
3BC
330
3BD
330
3BE
330
3BF
330
3C0
330
3C1
330
3C2
330
3C3
330
3C4
330
3C5
330
3C6
330
3C7
330
3C8
330
3C9
330
3CA
330
3CB
330
3CC
 92
1
 93
13
 72
2
 10
18.1572301659
 20
2.415180433
 40
0.0024749995
 50
179.9999571957
 51
270.0000428043
 73
1
 72
1
 10
18.1547551663
 20
2.4151804348
 11
18.1547551663
 21
2.4279054419
 72
2
 10
18.1572301659
 20
2.4279054437
 40
0.0024749995
 50
89.9999571957
 51
180.0000428043
 73
1
 72
1
 10
18.1572301677
 20
2.4303804433
 11
18.1940311881
 21
2.4303804433
 72
2
 10
18.1924863006
 20
2.4019259643
 40
0.0284963867
 50
70.3834917948
 51
86.8922743861
 73
1
 72
2
 10
18.1973459106
 20
2.4149676972
 40
0.0145814632
 50
54.6746025112
 51
71.1660573124
 73
1
 72
2
 10
18.2024754016
 20
2.4218216224
 40
0.0060275915
 50
20.9055592135
 51
56.7851676243
 73
1
 72
2
 10
18.2037759605
 20
2.4224819047
 40
0.0045795888
 50
355.6235353944
 51
18.9942678268
 73
1
 72
2
 10
18.2025691502
 20
2.4227756809
 40
0.0058087709
 50
318.8515287446
 51
353.6422345323
 73
1
 72
2
 10
18.198398534
 20
2.4260095887
 40
0.0110815393
 50
306.758405961
 51
320.4502234234
 73
1
 72
2
 10
18.1927693431
 20
2.4337504172
 40
0.0206523367
 50
289.6883413472
 51
306.4184925496
 73
1
 72
2
 10
18.1908418374
 20
2.4381440645
 40
0.0254407115
 50
270.7327484175
 51
290.441894219
 73
1
 72
1
 10
18.1911671865
 20
2.4127054335
 11
18.1572301677
 21
2.4127054335
 97
267
330
2C2
330
2C3
330
2C4
330
2C5
330
2C6
330
2C7
330
2C8
330
2C9
330
2CA
330
2CB
330
2CC
330
2CD
330
2CE
330
2CF
330
2D0
330
2D1
330
2D2
330
2D3
330
2D4
330
2D5
330
2D6
330
2D7
330
2D8
330
2D9
330
2DA
330
2DB
330
2DC
330
2DD
330
2DE
330
2DF
330
2E0
330
2E1
330
2E2
330
2E3
330
2E4
330
2E5
330
2E6
330
2E7
330
2E8
330
2E9
330
2EA
330
2EB
330
2EC
330
2ED
330
2EE
330
2EF
330
2F0
330
2F1
330
2F2
330
2F3
330
2F4
330
2F5
330
2F6
330
2F7
330
2F8
330
2F9
330
2FA
330
2FB
330
2FC
330
2FD
330
2FE
330
2FF
330
300
330
301
330
302
330
303
330
304
330
305
330
306
330
307
330
308
330
309
330
30A
330
30B
330
30C
330
30D
330
30E
330
30F
330
310
330
311
330
312
330
313
330
314
330
315
330
316
330
317
330
318
330
319
330
31A
330
31B
330
31C
330
31D
330
31E
330
31F
330
320
330
321
330
322
330
323
330
324
330
325
330
326
330
327
330
328
330
329
330
32A
330
32B
330
32C
330
32D
330
32E
330
32F
330
330
330
331
330
332
330
333
330
334
330
335
330
336
330
337
330
338
330
339
330
33A
330
33B
330
33C
330
33D
330
33E
330
33F
330
340
330
341
330
342
330
343
330
344
330
345
330
346
330
347
330
348
330
349
330
34A
330
34B
330
34C
330
34D
330
34E
330
34F
330
350
330
351
330
352
330
353
330
354
330
355
330
356
330
357
330
358
330
359
330
35A
330
35B
330
35C
330
35D
330
35E
330
35F
330
360
330
361
330
362
330
363
330
364
330
365
330
366
330
367
330
368
330
369
330
36A
330
36B
330
36C
330
36D
330
36E
330
36F
330
370
330
371
330
372
330
373
330
374
330
375
330
376
330
377
330
378
330
379
330
37A
330
37B
330
37C
330
37D
330
37E
330
37F
330
380
330
381
330
382
330
383
330
384
330
385
330
386
330
387
330
388
330
389
330
38A
330
38B
330
38C
330
38D
330
38E
330
38F
330
390
330
391
330
392
330
393
330
394
330
395
330
396
330
397
330
398
330
399
330
39A
330
39B
330
39C
330
39D
330
39E
330
39F
330
3A0
330
3A1
330
3A2
330
3A3
330
3A4
330
3A5
330
3A6
330
3A7
330
3A8
330
3A9
330
3AA
330
3AB
330
3AC
330
3AD
330
3AE
330
3AF
330
3B0
330
3B1
330
3B2
330
3B3
330
3B4
330
3B5
330
3B6
330
3B7
330
3B8
330
3B9
330
3BA
330
3BB
330
3BC
330
3BD
330
3BE
330
3BF
330
3C0
330
3C1
330
3C2
330
3C3
330
3C4
330
3C5
330
3C6
330
3C7
330
3C8
330
3C9
330
3CA
330
3CB
330
3CC
 92
1
 93
6
 72
2
 10
17.0051585288
 20
2.4217179385
 40
0.0086625048
 50
270.0
 51
90.0
 73
1
 72
1
 10
17.0051585288
 20
2.4303804433
 11
16.9637955059
 21
2.4303804433
 72
2
 10
16.963795504
 20
2.4279054437
 40
0.0024749995
 50
89.9999571957
 51
180.0000428043
 73
1
 72
1
 10
16.9613205045
 20
2.4279054419
 11
16.9613205045
 21
2.415530435
 72
2
 10
16.963795504
 20
2.4155304332
 40
0.0024749995
 50
179.9999571957
 51
270.0000428043
 73
1
 72
1
 10
16.9637955059
 20
2.4130554337
 11
17.0051585288
 21
2.4130554337
 97
267
330
2C2
330
2C3
330
2C4
330
2C5
330
2C6
330
2C7
330
2C8
330
2C9
330
2CA
330
2CB
330
2CC
330
2CD
330
2CE
330
2CF
330
2D0
330
2D1
330
2D2
330
2D3
330
2D4
330
2D5
330
2D6
330
2D7
330
2D8
330
2D9
330
2DA
330
2DB
330
2DC
330
2DD
330
2DE
330
2DF
330
2E0
330
2E1
330
2E2
330
2E3
330
2E4
330
2E5
330
2E6
330
2E7
330
2E8
330
2E9
330
2EA
330
2EB
330
2EC
330
2ED
330
2EE
330
2EF
330
2F0
330
2F1
330
2F2
330
2F3
330
2F4
330
2F5
330
2F6
330
2F7
330
2F8
330
2F9
330
2FA
330
2FB
330
2FC
330
2FD
330
2FE
330
2FF
330
300
330
301
330
302
330
303
330
304
330
305
330
306
330
307
330
308
330
309
330
30A
330
30B
330
30C
330
30D
330
30E
330
30F
330
310
330
311
330
312
330
313
330
314
330
315
330
316
330
317
330
318
330
319
330
31A
330
31B
330
31C
330
31D
330
31E
330
31F
330
320
330
321
330
322
330
323
330
324
330
325
330
326
330
327
330
328
330
329
330
32A
330
32B
330
32C
330
32D
330
32E
330
32F
330
330
330
331
330
332
330
333
330
334
330
335
330
336
330
337
330
338
330
339
330
33A
330
33B
330
33C
330
33D
330
33E
330
33F
330
340
330
341
330
342
330
343
330
344
330
345
330
346
330
347
330
348
330
349
330
34A
330
34B
330
34C
330
34D
330
34E
330
34F
330
350
330
351
330
352
330
353
330
354
330
355
330
356
330
357
330
358
330
359
330
35A
330
35B
330
35C
330
35D
330
35E
330
35F
330
360
330
361
330
362
330
363
330
364
330
365
330
366
330
367
330
368
330
369
330
36A
330
36B
330
36C
330
36D
330
36E
330
36F
330
370
330
371
330
372
330
373
330
374
330
375
330
376
330
377
330
378
330
379
330
37A
330
37B
330
37C
330
37D
330
37E
330
37F
330
380
330
381
330
382
330
383
330
384
330
385
330
386
330
387
330
388
330
389
330
38A
330
38B
330
38C
330
38D
330
38E
330
38F
330
390
330
391
330
392
330
393
330
394
330
395
330
396
330
397
330
398
330
399
330
39A
330
39B
330
39C
330
39D
330
39E
330
39F
330
3A0
330
3A1
330
3A2
330
3A3
330
3A4
330
3A5
330
3A6
330
3A7
330
3A8
330
3A9
330
3AA
330
3AB
330
3AC
330
3AD
330
3AE
330
3AF
330
3B0
330
3B1
330
3B2
330
3B3
330
3B4
330
3B5
330
3B6
330
3B7
330
3B8
330
3B9
330
3BA
330
3BB
330
3BC
330
3BD
330
3BE
330
3BF
330
3C0
330
3C1
330
3C2
330
3C3
330
3C4
330
3C5
330
3C6
330
3C7
330
3C8
330
3C9
330
3CA
330
3CB
330
3CC
 92
1
 93
8
 72
2
 10
17.2090556207
 20
2.4161446411
 40
0.0024752071
 50
270.0004896793
 51
32.9089806818
 73
1
 72
1
 10
17.211133643
 20
2.4174894361
 11
17.203874639
 21
2.4287054423
 72
2
 10
17.2017960982
 20
2.4273609828
 40
0.0024754602
 50
32.8959418573
 51
89.9875097202
 73
1
 72
1
 10
17.2017966379
 20
2.429836443
 11
17.1956156344
 21
2.429836443
 72
2
 10
17.1956155641
 20
2.4273612427
 40
0.0024752003
 50
89.998372645
 51
147.6021653069
 73
1
 72
1
 10
17.1935256333
 20
2.4286874423
 11
17.1864086293
 21
2.4174704361
 72
2
 10
17.1884985212
 20
2.4161444741
 40
0.0024750401
 50
147.6063258012
 51
270.0025305753
 73
1
 72
1
 10
17.1884986305
 20
2.413669434
 11
17.2090556419
 21
2.413669434
 97
267
330
2C2
330
2C3
330
2C4
330
2C5
330
2C6
330
2C7
330
2C8
330
2C9
330
2CA
330
2CB
330
2CC
330
2CD
330
2CE
330
2CF
330
2D0
330
2D1
330
2D2
330
2D3
330
2D4
330
2D5
330
2D6
330
2D7
330
2D8
330
2D9
330
2DA
330
2DB
330
2DC
330
2DD
330
2DE
330
2DF
330
2E0
330
2E1
330
2E2
330
2E3
330
2E4
330
2E5
330
2E6
330
2E7
330
2E8
330
2E9
330
2EA
330
2EB
330
2EC
330
2ED
330
2EE
330
2EF
330
2F0
330
2F1
330
2F2
330
2F3
330
2F4
330
2F5
330
2F6
330
2F7
330
2F8
330
2F9
330
2FA
330
2FB
330
2FC
330
2FD
330
2FE
330
2FF
330
300
330
301
330
302
330
303
330
304
330
305
330
306
330
307
330
308
330
309
330
30A
330
30B
330
30C
330
30D
330
30E
330
30F
330
310
330
311
330
312
330
313
330
314
330
315
330
316
330
317
330
318
330
319
330
31A
330
31B
330
31C
330
31D
330
31E
330
31F
330
320
330
321
330
322
330
323
330
324
330
325
330
326
330
327
330
328
330
329
330
32A
330
32B
330
32C
330
32D
330
32E
330
32F
330
330
330
331
330
332
330
333
330
334
330
335
330
336
330
337
330
338
330
339
330
33A
330
33B
330
33C
330
33D
330
33E
330
33F
330
340
330
341
330
342
330
343
330
344
330
345
330
346
330
347
330
348
330
349
330
34A
330
34B
330
34C
330
34D
330
34E
330
34F
330
350
330
351
330
352
330
353
330
354
330
355
330
356
330
357
330
358
330
359
330
35A
330
35B
330
35C
330
35D
330
35E
330
35F
330
360
330
361
330
362
330
363
330
364
330
365
330
366
330
367
330
368
330
369
330
36A
330
36B
330
36C
330
36D
330
36E
330
36F
330
370
330
371
330
372
330
373
330
374
330
375
330
376
330
377
330
378
330
379
330
37A
330
37B
330
37C
330
37D
330
37E
330
37F
330
380
330
381
330
382
330
383
330
384
330
385
330
386
330
387
330
388
330
389
330
38A
330
38B
330
38C
330
38D
330
38E
330
38F
330
390
330
391
330
392
330
393
330
394
330
395
330
396
330
397
330
398
330
399
330
39A
330
39B
330
39C
330
39D
330
39E
330
39F
330
3A0
330
3A1
330
3A2
330
3A3
330
3A4
330
3A5
330
3A6
330
3A7
330
3A8
330
3A9
330
3AA
330
3AB
330
3AC
330
3AD
330
3AE
330
3AF
330
3B0
330
3B1
330
3B2
330
3B3
330
3B4
330
3B5
330
3B6
330
3B7
330
3B8
330
3B9
330
3BA
330
3BB
330
3BC
330
3BD
330
3BE
330
3BF
330
3C0
330
3C1
330
3C2
330
3C3
330
3C4
330
3C5
330
3C6
330
3C7
330
3C8
330
3C9
330
3CA
330
3CB
330
3CC
 92
1
 93
1
 72
3
 10
17.573550844
 20
2.4034764283
 11
-0.8250004575
 21
0.0
 40
0.218572
 50
0.0
 51
360.0
 73
1
 97
267
330
2C2
330
2C3
330
2C4
330
2C5
330
2C6
330
2C7
330
2C8
330
2C9
330
2CA
330
2CB
330
2CC
330
2CD
330
2CE
330
2CF
330
2D0
330
2D1
330
2D2
330
2D3
330
2D4
330
2D5
330
2D6
330
2D7
330
2D8
330
2D9
330
2DA
330
2DB
330
2DC
330
2DD
330
2DE
330
2DF
330
2E0
330
2E1
330
2E2
330
2E3
330
2E4
330
2E5
330
2E6
330
2E7
330
2E8
330
2E9
330
2EA
330
2EB
330
2EC
330
2ED
330
2EE
330
2EF
330
2F0
330
2F1
330
2F2
330
2F3
330
2F4
330
2F5
330
2F6
330
2F7
330
2F8
330
2F9
330
2FA
330
2FB
330
2FC
330
2FD
330
2FE
330
2FF
330
300
330
301
330
302
330
303
330
304
330
305
330
306
330
307
330
308
330
309
330
30A
330
30B
330
30C
330
30D
330
30E
330
30F
330
310
330
311
330
312
330
313
330
314
330
315
330
316
330
317
330
318
330
319
330
31A
330
31B
330
31C
330
31D
330
31E
330
31F
330
320
330
321
330
322
330
323
330
324
330
325
330
326
330
327
330
328
330
329
330
32A
330
32B
330
32C
330
32D
330
32E
330
32F
330
330
330
331
330
332
330
333
330
334
330
335
330
336
330
337
330
338
330
339
330
33A
330
33B
330
33C
330
33D
330
33E
330
33F
330
340
330
341
330
342
330
343
330
344
330
345
330
346
330
347
330
348
330
349
330
34A
330
34B
330
34C
330
34D
330
34E
330
34F
330
350
330
351
330
352
330
353
330
354
330
355
330
356
330
357
330
358
330
359
330
35A
330
35B
330
35C
330
35D
330
35E
330
35F
330
360
330
361
330
362
330
363
330
364
330
365
330
366
330
367
330
368
330
369
330
36A
330
36B
330
36C
330
36D
330
36E
330
36F
330
370
330
371
330
372
330
373
330
374
330
375
330
376
330
377
330
378
330
379
330
37A
330
37B
330
37C
330
37D
330
37E
330
37F
330
380
330
381
330
382
330
383
330
384
330
385
330
386
330
387
330
388
330
389
330
38A
330
38B
330
38C
330
38D
330
38E
330
38F
330
390
330
391
330
392
330
393
330
394
330
395
330
396
330
397
330
398
330
399
330
39A
330
39B
330
39C
330
39D
330
39E
330
39F
330
3A0
330
3A1
330
3A2
330
3A3
330
3A4
330
3A5
330
3A6
330
3A7
330
3A8
330
3A9
330
3AA
330
3AB
330
3AC
330
3AD
330
3AE
330
3AF
330
3B0
330
3B1
330
3B2
330
3B3
330
3B4
330
3B5
330
3B6
330
3B7
330
3B8
330
3B9
330
3BA
330
3BB
330
3BC
330
3BD
330
3BE
330
3BF
330
3C0
330
3C1
330
3C2
330
3C3
330
3C4
330
3C5
330
3C6
330
3C7
330
3C8
330
3C9
330
3CA
330
3CB
330
3CC
 75
0
 76
1
 98
1
 10
0.0
 20
0.0
  0
LINE
  5
3CE
100
AcDbEntity
  8
0
100
AcDbLine
 62
7
  6
CONTINUOUS
 10
21.05
 20
2.67
 11
14.7
 21
2.67
  0
LINE
  5
3CF
100
AcDbEntity
  8
0
100
AcDbLine
 62
7
  6
CONTINUOUS
 10
6.007
 20
0.75
 11
6.007
 21
0.5
  0
LINE
  5
3D0
100
AcDbEntity
  8
0
100
AcDbLine
 62
7
  6
CONTINUOUS
 10
6.007
 20
15.75
 11
6.007
 21
16.0
  0
LINE
  5
3D1
100
AcDbEntity
  8
0
100
AcDbLine
 62
7
  6
CONTINUOUS
 10
0.814
 20
8.163397
 11
0.964
 21
8.25
  0
LINE
  5
3D2
100
AcDbEntity
  8
0
100
AcDbLine
 62
7
  6
CONTINUOUS
 10
0.964
 20
8.25
 11
0.814
 21
8.336603
  0
LINE
  5
3D3
100
AcDbEntity
  8
0
100
AcDbLine
 62
7
  6
CONTINUOUS
 10
0.964
 20
4.4
 11
0.714
 21
4.4
  0
LINE
  5
3D4
100
AcDbEntity
  8
0
100
AcDbLine
 62
7
  6
CONTINUOUS
 10
21.05
 20
4.4
 11
21.3
 21
4.4
  0
LINE
  5
3D5
100
AcDbEntity
  8
0
100
AcDbLine
 62
7
  6
CONTINUOUS
 10
11.093603
 20
0.6
 11
11.007
 21
0.75
  0
LINE
  5
3D6
100
AcDbEntity
  8
0
100
AcDbLine
 62
7
  6
CONTINUOUS
 10
11.007
 20
15.75
 11
11.093603
 21
15.9
  0
LINE
  5
3D7
100
AcDbEntity
  8
0
100
AcDbLine
 62
7
  6
CONTINUOUS
 10
8.507
 20
0.75
 11
8.507
 21
0.5
  0
LINE
  5
3D8
100
AcDbEntity
  8
0
100
AcDbLine
 62
7
  6
CONTINUOUS
 10
8.507
 20
15.75
 11
8.507
 21
16.0
  0
LINE
  5
3D9
100
AcDbEntity
  8
0
100
AcDbLine
 62
7
  6
CONTINUOUS
 10
11.007
 20
0.75
 11
11.007
 21
0.5
  0
LINE
  5
3DA
100
AcDbEntity
  8
0
100
AcDbLine
 62
7
  6
CONTINUOUS
 10
11.007
 20
15.75
 11
11.007
 21
16.0
  0
LINE
  5
3DB
100
AcDbEntity
  8
0
100
AcDbLine
 62
7
  6
CONTINUOUS
 10
0.964
 20
8.25
 11
0.714
 21
8.25
  0
LINE
  5
3DC
100
AcDbEntity
  8
0
100
AcDbLine
 62
7
  6
CONTINUOUS
 10
21.05
 20
8.25
 11
21.3
 21
8.25
  0
LINE
  5
3DD
100
AcDbEntity
  8
0
100
AcDbLine
 62
7
  6
CONTINUOUS
 10
13.507
 20
0.75
 11
13.507
 21
0.5
  0
LINE
  5
3DE
100
AcDbEntity
  8
0
100
AcDbLine
 62
7
  6
CONTINUOUS
 10
13.507
 20
15.75
 11
13.507
 21
16.0
  0
LINE
  5
3DF
100
AcDbEntity
  8
0
100
AcDbLine
 62
7
  6
CONTINUOUS
 10
14.7
 20
2.67
 11
14.7
 21
0.75
  0
LINE
  5
3E0
100
AcDbEntity
  8
0
100
AcDbLine
 62
7
  6
CONTINUOUS
 10
11.007
 20
0.75
 11
10.920397
 21
0.6
  0
LINE
  5
3E1
100
AcDbEntity
  8
0
100
AcDbLine
 62
7
  6
CONTINUOUS
 10
0.964
 20
12.1
 11
0.714
 21
12.1
  0
LINE
  5
3E2
100
AcDbEntity
  8
0
100
AcDbLine
 62
7
  6
CONTINUOUS
 10
21.05
 20
12.1
 11
21.3
 21
12.1
  0
LINE
  5
3E3
100
AcDbEntity
  8
0
100
AcDbLine
 62
7
  6
CONTINUOUS
 10
10.920397
 20
15.9
 11
11.007
 21
15.75
  0
LINE
  5
3E4
100
AcDbEntity
  8
0
100
AcDbLine
 62
7
  6
CONTINUOUS
 10
15.2229827477
 20
1.0139932523
 11
15.2229827477
 21
0.7919022523
  0
LINE
  5
3E5
100
AcDbEntity
  8
0
100
AcDbLine
 62
7
  6
CONTINUOUS
 10
15.2229827477
 20
1.0639932523
 11
15.2229827477
 21
1.1639932523
  0
LINE
  5
3E6
100
AcDbEntity
  8
0
100
AcDbLine
 62
7
  6
CONTINUOUS
 10
15.2229827477
 20
1.2139932523
 11
15.2229827477
 21
1.4360842523
  0
LINE
  5
3E7
100
AcDbEntity
  8
0
100
AcDbLine
 62
7
  6
CONTINUOUS
 10
15.8276527477
 20
0.9312952523
 11
15.8276527477
 21
1.2966912523
  0
LINE
  5
3E8
100
AcDbEntity
  8
0
100
AcDbLine
 62
7
  6
CONTINUOUS
 10
16.007
 20
0.75
 11
16.007
 21
0.5
  0
LINE
  5
3E9
100
AcDbEntity
  8
0
100
AcDbLine
 62
7
  6
CONTINUOUS
 10
16.007
 20
15.75
 11
16.007
 21
16.0
  0
LINE
  5
3EA
100
AcDbEntity
  8
0
100
AcDbLine
 62
7
  6
CONTINUOUS
 10
16.4340437477
 20
1.3660842523
 11
16.4340437477
 21
0.8619022523
  0
LINE
  5
3EB
100
AcDbEntity
  8
0
100
AcDbLine
 62
7
  6
CONTINUOUS
 10
21.2
 20
8.336603
 11
21.05
 21
8.25
  0
LINE
  5
3EC
100
AcDbEntity
  8
0
100
AcDbLine
 62
7
  6
CONTINUOUS
 10
21.05
 20
8.25
 11
21.2
 21
8.163397
  0
LINE
  5
3ED
100
AcDbEntity
  8
0
100
AcDbLine
 62
7
  6
CONTINUOUS
 10
16.7
 20
2.67
 11
16.7
 21
0.75
  0
LINE
  5
3EE
100
AcDbEntity
  8
0
100
AcDbLine
 62
7
  6
CONTINUOUS
 10
17.5
 20
1.37
 11
17.5
 21
1.0
  0
LINE
  5
3EF
100
AcDbEntity
  8
0
100
AcDbLine
 62
7
  6
CONTINUOUS
 10
18.507
 20
0.75
 11
18.507
 21
0.5
  0
LINE
  5
3F0
100
AcDbEntity
  8
0
100
AcDbLine
 62
7
  6
CONTINUOUS
 10
18.507
 20
15.75
 11
18.507
 21
16.0
  0
LINE
  5
3F1
100
AcDbEntity
  8
0
100
AcDbLine
 62
7
  6
CONTINUOUS
 10
21.05
 20
15.75
 11
0.964
 21
15.75
  0
LINE
  5
3F2
100
AcDbEntity
  8
0
100
AcDbLine
 62
7
  6
CONTINUOUS
 10
11.093603
 20
15.9
 11
10.920397
 21
15.9
  0
LINE
  5
3F3
100
AcDbEntity
  8
0
100
AcDbLine
 62
7
  6
CONTINUOUS
 10
18.875
 20
1.0
 11
18.875
 21
0.75
  0
LINE
  5
3F4
100
AcDbEntity
  8
0
100
AcDbLine
 62
7
  6
CONTINUOUS
 10
20.25
 20
1.37
 11
20.25
 21
1.0
  0
LINE
  5
3F5
100
AcDbEntity
  8
0
100
AcDbLine
 62
7
  6
CONTINUOUS
 10
21.05
 20
0.75
 11
21.05
 21
15.75
  0
LINE
  5
3F6
100
AcDbEntity
  8
0
100
AcDbLine
 62
7
  6
CONTINUOUS
 10
21.2
 20
8.163397
 11
21.2
 21
8.336603
  0
LINE
  5
3F7
100
AcDbEntity
  8
SURFACE
100
AcDbLine
 62
7
  6
CONTINUOUS
 10
3.0267039002
 20
8.9801004991
 11
3.0267039002
 21
8.5031004991
  0
LINE
  5
3F8
100
AcDbEntity
  8
0
100
AcDbLine
 62
7
  6
CONTINUOUS
 10
3.0267039002
 20
8.5011004991
 11
3.0267039002
 21
8.5031004991
  0
LINE
  5
3F9
100
AcDbEntity
  8
0
100
AcDbLine
 62
7
  6
CONTINUOUS
 10
3.0747039002
 20
8.5011004991
 11
3.0747039002
 21
8.5031004991
  0
LINE
  5
3FA
100
AcDbEntity
  8
SURFACE
100
AcDbLine
 62
7
  6
CONTINUOUS
 10
3.1227039002
 20
8.5031004991
 11
3.1227039002
 21
8.5011004991
  0
LINE
  5
3FB
100
AcDbEntity
  8
0
100
AcDbLine
 62
7
  6
CONTINUOUS
 10
3.1227039002
 20
8.5011004991
 11
3.1227039002
 21
8.4051004991
  0
LINE
  5
3FC
100
AcDbEntity
  8
0
100
AcDbLine
 62
7
  6
CONTINUOUS
 10
5.5567039002
 20
8.5011004991
 11
5.5567039002
 21
8.4051004991
  0
LINE
  5
3FD
100
AcDbEntity
  8
SURFACE
100
AcDbLine
 62
7
  6
CONTINUOUS
 10
5.5567039002
 20
8.5011004991
 11
5.5567039002
 21
8.5031004991
  0
LINE
  5
3FE
100
AcDbEntity
  8
0
100
AcDbLine
 62
7
  6
CONTINUOUS
 10
5.6047039002
 20
8.5031004991
 11
5.6047039002
 21
8.5011004991
  0
LINE
  5
3FF
100
AcDbEntity
  8
0
100
AcDbLine
 62
7
  6
CONTINUOUS
 10
5.6527039002
 20
8.5031004991
 11
5.6527039002
 21
8.5011004991
  0
LINE
  5
400
100
AcDbEntity
  8
SURFACE
100
AcDbLine
 62
7
  6
CONTINUOUS
 10
5.6527039002
 20
8.5031004991
 11
5.6527039002
 21
8.9801004991
  0
LINE
  5
401
100
AcDbEntity
  8
60420
100
AcDbLine
 62
7
  6
CONTINUOUS
 10
5.6952550813
 20
8.510021759
 11
5.6952550813
 21
8.7501792393
  0
LINE
  5
402
100
AcDbEntity
  8
60420
100
AcDbLine
 62
7
  6
CONTINUOUS
 10
5.8330503569
 20
8.539549318
 11
5.8330503569
 21
8.7206516802
  0
LINE
  5
403
100
AcDbEntity
  8
60420
100
AcDbLine
 62
7
  6
CONTINUOUS
 10
6.1913180734
 20
8.539549318
 11
6.1913180734
 21
8.7206516802
  0
LINE
  5
404
100
AcDbEntity
  8
0
100
AcDbLine
 62
7
  6
CONTINUOUS
 10
3.1227039002
 20
8.4051004991
 11
5.5567039002
 21
8.4051004991
  0
LINE
  5
405
100
AcDbEntity
  8
AXIS
100
AcDbLine
 62
7
  6
CONTINUOUS
 10
6.203129097
 20
8.7201004991
 11
6.203129097
 21
8.5401004991
  0
LINE
  5
406
100
AcDbEntity
  8
60420
100
AcDbLine
 62
7
  6
CONTINUOUS
 10
6.1913180734
 20
8.539549318
 11
6.203129097
 21
8.5513603416
  0
LINE
  5
407
100
AcDbEntity
  8
60420
100
AcDbLine
 62
7
  6
CONTINUOUS
 10
5.8330503569
 20
8.539549318
 11
5.6952550813
 21
8.510021759
  0
LINE
  5
408
100
AcDbEntity
  8
0
100
AcDbLine
 62
7
  6
CONTINUOUS
 10
3.0747039002
 20
8.5011004991
 11
3.0267039002
 21
8.5011004991
  0
LINE
  5
409
100
AcDbEntity
  8
0
100
AcDbLine
 62
7
  6
CONTINUOUS
 10
3.1227039002
 20
8.5011004991
 11
5.5567039002
 21
8.5011004991
  0
LINE
  5
40A
100
AcDbEntity
  8
0
100
AcDbLine
 62
7
  6
CONTINUOUS
 10
5.6047039002
 20
8.5011004991
 11
5.6527039002
 21
8.5011004991
  0
LINE
  5
40B
100
AcDbEntity
  8
SURFACE
100
AcDbLine
 62
7
  6
CONTINUOUS
 10
3.0267039002
 20
8.5031004991
 11
3.1227039002
 21
8.5031004991
  0
LINE
  5
40C
100
AcDbEntity
  8
SURFACE
100
AcDbLine
 62
7
  6
CONTINUOUS
 10
5.5567039002
 20
8.5031004991
 11
5.6527039002
 21
8.5031004991
  0
LINE
  5
40D
100
AcDbEntity
  8
60420
100
AcDbLine
 62
7
  6
CONTINUOUS
 10
5.6952550813
 20
8.5257697904
 11
5.6527039002
 21
8.5257697904
  0
LINE
  5
40E
100
AcDbEntity
  8
60420
100
AcDbLine
 62
7
  6
CONTINUOUS
 10
6.1913180734
 20
8.539549318
 11
5.8330503569
 21
8.539549318
  0
LINE
  5
40F
100
AcDbEntity
  8
AXIS
100
AcDbLine
 62
7
  6
CONTINUOUS
 10
6.203129097
 20
8.5401004991
 11
8.9590346088
 21
8.5401004991
  0
LINE
  5
410
100
AcDbEntity
  8
AXIS
100
AcDbLine
 62
7
  6
CONTINUOUS
 10
9.23462516
 20
8.6051004991
 11
8.9590346088
 21
8.6051004991
  0
LINE
  5
411
100
AcDbEntity
  8
AXIS
100
AcDbLine
 62
7
  6
CONTINUOUS
 10
9.7464361836
 20
8.6201004991
 11
9.23462516
 21
8.6201004991
  0
LINE
  5
412
100
AcDbEntity
  8
AXIS
100
AcDbLine
 62
7
  6
CONTINUOUS
 10
9.7464361836
 20
8.6401004991
 11
9.23462516
 21
8.6401004991
  0
LINE
  5
413
100
AcDbEntity
  8
AXIS
100
AcDbLine
 62
7
  6
CONTINUOUS
 10
9.23462516
 20
8.6551004991
 11
8.9590346088
 21
8.6551004991
  0
LINE
  5
414
100
AcDbEntity
  8
AXIS
100
AcDbLine
 62
7
  6
CONTINUOUS
 10
6.203129097
 20
8.7201004991
 11
8.9590346088
 21
8.7201004991
  0
LINE
  5
415
100
AcDbEntity
  8
60420
100
AcDbLine
 62
7
  6
CONTINUOUS
 10
6.1913180734
 20
8.7206516802
 11
5.8330503569
 21
8.7206516802
  0
LINE
  5
416
100
AcDbEntity
  8
60420
100
AcDbLine
 62
7
  6
CONTINUOUS
 10
5.8330503569
 20
8.7206516802
 11
5.6952550813
 21
8.7501792393
  0
LINE
  5
417
100
AcDbEntity
  8
60420
100
AcDbLine
 62
7
  6
CONTINUOUS
 10
6.1913180734
 20
8.7206516802
 11
6.203129097
 21
8.7088406566
  0
LINE
  5
418
100
AcDbEntity
  8
60420
100
AcDbLine
 62
7
  6
CONTINUOUS
 10
5.6952550813
 20
8.7344312078
 11
5.6527039002
 21
8.7344312078
  0
LINE
  5
419
100
AcDbEntity
  8
SURFACE
100
AcDbLine
 62
7
  6
CONTINUOUS
 10
5.6527039002
 20
8.9801004991
 11
3.0267039002
 21
8.9801004991
  0
LINE
  5
41A
100
AcDbEntity
  8
AXIS
100
AcDbLine
 62
7
  6
CONTINUOUS
 10
8.9590346088
 20
8.7201004991
 11
8.9590346088
 21
8.5401004991
  0
LINE
  5
41B
100
AcDbEntity
  8
AXIS
100
AcDbLine
 62
7
  6
CONTINUOUS
 10
9.23462516
 20
8.6551004991
 11
9.23462516
 21
8.6051004991
  0
LINE
  5
41C
100
AcDbEntity
  8
AXIS
100
AcDbLine
 62
7
  6
CONTINUOUS
 10
9.7464361836
 20
8.6201004991
 11
9.7464361836
 21
8.6401004991
  0
LINE
  5
41D
100
AcDbEntity
  8
SURFACE
100
AcDbLine
 62
7
  6
CONTINUOUS
 10
3.0267039002
 20
10.8559196319
 11
3.0267039002
 21
13.4819196319
  0
LINE
  5
41E
100
AcDbEntity
  8
SURFACE
100
AcDbLine
 62
7
  6
CONTINUOUS
 10
3.0747039002
 20
10.9039196319
 11
3.0747039002
 21
13.4339196319
  0
LINE
  5
41F
100
AcDbEntity
  8
0
100
AcDbLine
 62
7
  6
CONTINUOUS
 10
3.0997039002
 20
10.9289196319
 11
3.0997039002
 21
13.4089196319
  0
LINE
  5
420
100
AcDbEntity
  8
0
100
AcDbLine
 62
7
  6
CONTINUOUS
 10
3.1227039002
 20
13.4339196319
 11
3.1227039002
 21
13.4089196319
  0
LINE
  5
421
100
AcDbEntity
  8
0
100
AcDbLine
 62
7
  6
CONTINUOUS
 10
3.1227039002
 20
10.9039196319
 11
3.1227039002
 21
10.9289196319
  0
LINE
  5
422
100
AcDbEntity
  8
0
100
AcDbLine
 62
7
  6
CONTINUOUS
 10
3.1897039002
 20
13.2839196319
 11
3.1897039002
 21
13.2539196319
  0
LINE
  5
423
100
AcDbEntity
  8
0
100
AcDbLine
 62
7
  6
CONTINUOUS
 10
3.1897039002
 20
11.0839196319
 11
3.1897039002
 21
11.0539196319
  0
LINE
  5
424
100
AcDbEntity
  8
0
100
AcDbLine
 62
7
  6
CONTINUOUS
 10
3.2247039002
 20
13.3189196319
 11
3.2247039002
 21
13.2839196319
  0
LINE
  5
425
100
AcDbEntity
  8
0
100
AcDbLine
 62
7
  6
CONTINUOUS
 10
3.2247039002
 20
13.2539196319
 11
3.2247039002
 21
13.2189196319
  0
LINE
  5
426
100
AcDbEntity
  8
0
100
AcDbLine
 62
7
  6
CONTINUOUS
 10
3.2247039002
 20
11.1189196319
 11
3.2247039002
 21
11.0839196319
  0
LINE
  5
427
100
AcDbEntity
  8
0
100
AcDbLine
 62
7
  6
CONTINUOUS
 10
3.2247039002
 20
11.0539196319
 11
3.2247039002
 21
11.0189196319
  0
LINE
  5
428
100
AcDbEntity
  8
0
100
AcDbLine
 62
7
  6
CONTINUOUS
 10
3.2547039002
 20
11.0189196319
 11
3.2547039002
 21
11.0539196319
  0
LINE
  5
429
100
AcDbEntity
  8
0
100
AcDbLine
 62
7
  6
CONTINUOUS
 10
3.2547039002
 20
11.0839196319
 11
3.2547039002
 21
11.1189196319
  0
LINE
  5
42A
100
AcDbEntity
  8
0
100
AcDbLine
 62
7
  6
CONTINUOUS
 10
3.2547039002
 20
13.2189196319
 11
3.2547039002
 21
13.2539196319
  0
LINE
  5
42B
100
AcDbEntity
  8
0
100
AcDbLine
 62
7
  6
CONTINUOUS
 10
3.2547039002
 20
13.2839196319
 11
3.2547039002
 21
13.3189196319
  0
LINE
  5
42C
100
AcDbEntity
  8
0
100
AcDbLine
 62
7
  6
CONTINUOUS
 10
3.2897039002
 20
11.0539196319
 11
3.2897039002
 21
11.0839196319
  0
LINE
  5
42D
100
AcDbEntity
  8
0
100
AcDbLine
 62
7
  6
CONTINUOUS
 10
3.2897039002
 20
13.2539196319
 11
3.2897039002
 21
13.2839196319
  0
LINE
  5
42E
100
AcDbEntity
  8
SURFACE
100
AcDbLine
 62
7
  6
CONTINUOUS
 10
5.6527039002
 20
10.8559196319
 11
3.0267039002
 21
10.8559196319
  0
LINE
  5
42F
100
AcDbEntity
  8
SURFACE
100
AcDbLine
 62
7
  6
CONTINUOUS
 10
5.6527039002
 20
10.9039196319
 11
3.0267039002
 21
10.9039196319
  0
LINE
  5
430
100
AcDbEntity
  8
0
100
AcDbLine
 62
7
  6
CONTINUOUS
 10
5.5797039002
 20
10.9289196319
 11
3.0997039002
 21
10.9289196319
  0
LINE
  5
431
100
AcDbEntity
  8
0
100
AcDbLine
 62
7
  6
CONTINUOUS
 10
3.0997039002
 20
10.9519196319
 11
3.0747039002
 21
10.9519196319
  0
LINE
  5
432
100
AcDbEntity
  8
0
100
AcDbLine
 62
7
  6
CONTINUOUS
 10
5.5797039002
 20
10.9519196319
 11
5.6047039002
 21
10.9519196319
  0
LINE
  5
433
100
AcDbEntity
  8
0
100
AcDbLine
 62
7
  6
CONTINUOUS
 10
5.3897039002
 20
13.2839196319
 11
5.3897039002
 21
13.2539196319
  0
LINE
  5
434
100
AcDbEntity
  8
0
100
AcDbLine
 62
7
  6
CONTINUOUS
 10
5.3897039002
 20
11.0839196319
 11
5.3897039002
 21
11.0539196319
  0
LINE
  5
435
100
AcDbEntity
  8
0
100
AcDbLine
 62
7
  6
CONTINUOUS
 10
5.4247039002
 20
13.3189196319
 11
5.4247039002
 21
13.2839196319
  0
LINE
  5
436
100
AcDbEntity
  8
0
100
AcDbLine
 62
7
  6
CONTINUOUS
 10
5.4247039002
 20
13.2539196319
 11
5.4247039002
 21
13.2189196319
  0
LINE
  5
437
100
AcDbEntity
  8
0
100
AcDbLine
 62
7
  6
CONTINUOUS
 10
5.4247039002
 20
11.1189196319
 11
5.4247039002
 21
11.0839196319
  0
LINE
  5
438
100
AcDbEntity
  8
0
100
AcDbLine
 62
7
  6
CONTINUOUS
 10
5.4247039002
 20
11.0539196319
 11
5.4247039002
 21
11.0189196319
  0
LINE
  5
439
100
AcDbEntity
  8
0
100
AcDbLine
 62
7
  6
CONTINUOUS
 10
5.4547039002
 20
11.0189196319
 11
5.4547039002
 21
11.0539196319
  0
LINE
  5
43A
100
AcDbEntity
  8
0
100
AcDbLine
 62
7
  6
CONTINUOUS
 10
5.4547039002
 20
11.0839196319
 11
5.4547039002
 21
11.1189196319
  0
LINE
  5
43B
100
AcDbEntity
  8
0
100
AcDbLine
 62
7
  6
CONTINUOUS
 10
5.4547039002
 20
13.2189196319
 11
5.4547039002
 21
13.2539196319
  0
LINE
  5
43C
100
AcDbEntity
  8
0
100
AcDbLine
 62
7
  6
CONTINUOUS
 10
5.4547039002
 20
13.2839196319
 11
5.4547039002
 21
13.3189196319
  0
LINE
  5
43D
100
AcDbEntity
  8
0
100
AcDbLine
 62
7
  6
CONTINUOUS
 10
3.2247039002
 20
11.0189196319
 11
3.2547039002
 21
11.0189196319
  0
LINE
  5
43E
100
AcDbEntity
  8
0
100
AcDbLine
 62
7
  6
CONTINUOUS
 10
5.4247039002
 20
11.0189196319
 11
5.4547039002
 21
11.0189196319
  0
LINE
  5
43F
100
AcDbEntity
  8
0
100
AcDbLine
 62
7
  6
CONTINUOUS
 10
3.1897039002
 20
11.0539196319
 11
3.2247039002
 21
11.0539196319
  0
LINE
  5
440
100
AcDbEntity
  8
0
100
AcDbLine
 62
7
  6
CONTINUOUS
 10
3.2547039002
 20
11.0539196319
 11
3.2897039002
 21
11.0539196319
  0
LINE
  5
441
100
AcDbEntity
  8
0
100
AcDbLine
 62
7
  6
CONTINUOUS
 10
5.3897039002
 20
11.0539196319
 11
5.4247039002
 21
11.0539196319
  0
LINE
  5
442
100
AcDbEntity
  8
0
100
AcDbLine
 62
7
  6
CONTINUOUS
 10
5.4547039002
 20
11.0539196319
 11
5.4897039002
 21
11.0539196319
  0
LINE
  5
443
100
AcDbEntity
  8
0
100
AcDbLine
 62
7
  6
CONTINUOUS
 10
5.4897039002
 20
11.0839196319
 11
5.4547039002
 21
11.0839196319
  0
LINE
  5
444
100
AcDbEntity
  8
0
100
AcDbLine
 62
7
  6
CONTINUOUS
 10
5.4247039002
 20
11.0839196319
 11
5.3897039002
 21
11.0839196319
  0
LINE
  5
445
100
AcDbEntity
  8
0
100
AcDbLine
 62
7
  6
CONTINUOUS
 10
3.2897039002
 20
11.0839196319
 11
3.2547039002
 21
11.0839196319
  0
LINE
  5
446
100
AcDbEntity
  8
0
100
AcDbLine
 62
7
  6
CONTINUOUS
 10
3.2247039002
 20
11.0839196319
 11
3.1897039002
 21
11.0839196319
  0
LINE
  5
447
100
AcDbEntity
  8
0
100
AcDbLine
 62
7
  6
CONTINUOUS
 10
5.4547039002
 20
11.1189196319
 11
5.4247039002
 21
11.1189196319
  0
LINE
  5
448
100
AcDbEntity
  8
0
100
AcDbLine
 62
7
  6
CONTINUOUS
 10
3.2547039002
 20
11.1189196319
 11
3.2247039002
 21
11.1189196319
  0
LINE
  5
449
100
AcDbEntity
  8
0
100
AcDbLine
 62
7
  6
CONTINUOUS
 10
5.4897039002
 20
11.0539196319
 11
5.4897039002
 21
11.0839196319
  0
LINE
  5
44A
100
AcDbEntity
  8
0
100
AcDbLine
 62
7
  6
CONTINUOUS
 10
5.4897039002
 20
13.2539196319
 11
5.4897039002
 21
13.2839196319
  0
LINE
  5
44B
100
AcDbEntity
  8
0
100
AcDbLine
 62
7
  6
CONTINUOUS
 10
5.5567039002
 20
13.4339196319
 11
5.5567039002
 21
13.4089196319
  0
LINE
  5
44C
100
AcDbEntity
  8
0
100
AcDbLine
 62
7
  6
CONTINUOUS
 10
5.5567039002
 20
10.9039196319
 11
5.5567039002
 21
10.9289196319
  0
LINE
  5
44D
100
AcDbEntity
  8
0
100
AcDbLine
 62
7
  6
CONTINUOUS
 10
5.5797039002
 20
13.4089196319
 11
5.5797039002
 21
10.9289196319
  0
LINE
  5
44E
100
AcDbEntity
  8
SURFACE
100
AcDbLine
 62
7
  6
CONTINUOUS
 10
5.6047039002
 20
13.4339196319
 11
5.6047039002
 21
10.9039196319
  0
LINE
  5
44F
100
AcDbEntity
  8
SURFACE
100
AcDbLine
 62
7
  6
CONTINUOUS
 10
5.6527039002
 20
10.8559196319
 11
5.6527039002
 21
13.4819196319
  0
LINE
  5
450
100
AcDbEntity
  8
60420
100
AcDbLine
 62
7
  6
CONTINUOUS
 10
5.6952550813
 20
12.0488408917
 11
5.6952550813
 21
12.288998372
  0
LINE
  5
451
100
AcDbEntity
  8
60420
100
AcDbLine
 62
7
  6
CONTINUOUS
 10
5.8330503569
 20
12.0783684508
 11
5.8330503569
 21
12.259470813
  0
LINE
  5
452
100
AcDbEntity
  8
60420
100
AcDbLine
 62
7
  6
CONTINUOUS
 10
6.1913180734
 20
12.0783684508
 11
6.1913180734
 21
12.259470813
  0
LINE
  5
453
100
AcDbEntity
  8
AXIS
100
AcDbLine
 62
7
  6
CONTINUOUS
 10
6.203129097
 20
12.2589196319
 11
6.203129097
 21
12.0789196319
  0
LINE
  5
454
100
AcDbEntity
  8
60420
100
AcDbLine
 62
7
  6
CONTINUOUS
 10
6.1913180734
 20
12.0783684508
 11
6.203129097
 21
12.0901794744
  0
LINE
  5
455
100
AcDbEntity
  8
60420
100
AcDbLine
 62
7
  6
CONTINUOUS
 10
5.6952550813
 20
12.0488408917
 11
5.8330503569
 21
12.0783684508
  0
LINE
  5
456
100
AcDbEntity
  8
60420
100
AcDbLine
 62
7
  6
CONTINUOUS
 10
5.6047039002
 20
12.038998372
 11
5.5797039002
 21
12.038998372
  0
LINE
  5
457
100
AcDbEntity
  8
60420
100
AcDbLine
 62
7
  6
CONTINUOUS
 10
5.6047039002
 20
12.0547464035
 11
5.5797039002
 21
12.0547464035
  0
LINE
  5
458
100
AcDbEntity
  8
60420
100
AcDbLine
 62
7
  6
CONTINUOUS
 10
5.6527039002
 20
12.0645889232
 11
5.6952550813
 21
12.0645889232
  0
LINE
  5
459
100
AcDbEntity
  8
60420
100
AcDbLine
 62
7
  6
CONTINUOUS
 10
5.8330503569
 20
12.0783684508
 11
6.1913180734
 21
12.0783684508
  0
LINE
  5
45A
100
AcDbEntity
  8
AXIS
100
AcDbLine
 62
7
  6
CONTINUOUS
 10
6.203129097
 20
12.0789196319
 11
8.9590346088
 21
12.0789196319
  0
LINE
  5
45B
100
AcDbEntity
  8
AXIS
100
AcDbLine
 62
7
  6
CONTINUOUS
 10
8.9590346088
 20
12.1189196319
 11
9.23462516
 21
12.1189196319
  0
LINE
  5
45C
100
AcDbEntity
  8
AXIS
100
AcDbLine
 62
7
  6
CONTINUOUS
 10
9.23462516
 20
12.1339196319
 11
9.7464361836
 21
12.1339196319
  0
LINE
  5
45D
100
AcDbEntity
  8
AXIS
100
AcDbLine
 62
7
  6
CONTINUOUS
 10
9.23462516
 20
12.1539196319
 11
9.7464361836
 21
12.1539196319
  0
LINE
  5
45E
100
AcDbEntity
  8
AXIS
100
AcDbLine
 62
7
  6
CONTINUOUS
 10
8.9590346088
 20
12.1689196319
 11
9.23462516
 21
12.1689196319
  0
LINE
  5
45F
100
AcDbEntity
  8
AXIS
100
AcDbLine
 62
7
  6
CONTINUOUS
 10
8.9590346088
 20
12.1696676634
 11
9.23462516
 21
12.1696676634
  0
LINE
  5
460
100
AcDbEntity
  8
AXIS
100
AcDbLine
 62
7
  6
CONTINUOUS
 10
9.23462516
 20
12.1846676634
 11
9.7464361836
 21
12.1846676634
  0
LINE
  5
461
100
AcDbEntity
  8
60420
100
AcDbLine
 62
7
  6
CONTINUOUS
 10
5.6952550813
 20
12.288998372
 11
5.8330503569
 21
12.259470813
  0
LINE
  5
462
100
AcDbEntity
  8
60420
100
AcDbLine
 62
7
  6
CONTINUOUS
 10
6.1913180734
 20
12.259470813
 11
6.203129097
 21
12.2476597894
  0
LINE
  5
463
100
AcDbEntity
  8
AXIS
100
AcDbLine
 62
7
  6
CONTINUOUS
 10
9.23462516
 20
12.2046676634
 11
9.7464361836
 21
12.2046676634
  0
LINE
  5
464
100
AcDbEntity
  8
AXIS
100
AcDbLine
 62
7
  6
CONTINUOUS
 10
8.9590346088
 20
12.2196676634
 11
9.23462516
 21
12.2196676634
  0
LINE
  5
465
100
AcDbEntity
  8
AXIS
100
AcDbLine
 62
7
  6
CONTINUOUS
 10
6.203129097
 20
12.2589196319
 11
8.9590346088
 21
12.2589196319
  0
LINE
  5
466
100
AcDbEntity
  8
60420
100
AcDbLine
 62
7
  6
CONTINUOUS
 10
5.8330503569
 20
12.259470813
 11
6.1913180734
 21
12.259470813
  0
LINE
  5
467
100
AcDbEntity
  8
60420
100
AcDbLine
 62
7
  6
CONTINUOUS
 10
5.6527039002
 20
12.2732503406
 11
5.6952550813
 21
12.2732503406
  0
LINE
  5
468
100
AcDbEntity
  8
60420
100
AcDbLine
 62
7
  6
CONTINUOUS
 10
5.6047039002
 20
12.2830928602
 11
5.5797039002
 21
12.2830928602
  0
LINE
  5
469
100
AcDbEntity
  8
60420
100
AcDbLine
 62
7
  6
CONTINUOUS
 10
5.6047039002
 20
12.2988408917
 11
5.5797039002
 21
12.2988408917
  0
LINE
  5
46A
100
AcDbEntity
  8
0
100
AcDbLine
 62
7
  6
CONTINUOUS
 10
3.2247039002
 20
13.2189196319
 11
3.2547039002
 21
13.2189196319
  0
LINE
  5
46B
100
AcDbEntity
  8
0
100
AcDbLine
 62
7
  6
CONTINUOUS
 10
5.4247039002
 20
13.2189196319
 11
5.4547039002
 21
13.2189196319
  0
LINE
  5
46C
100
AcDbEntity
  8
0
100
AcDbLine
 62
7
  6
CONTINUOUS
 10
3.1897039002
 20
13.2539196319
 11
3.2247039002
 21
13.2539196319
  0
LINE
  5
46D
100
AcDbEntity
  8
0
100
AcDbLine
 62
7
  6
CONTINUOUS
 10
3.2547039002
 20
13.2539196319
 11
3.2897039002
 21
13.2539196319
  0
LINE
  5
46E
100
AcDbEntity
  8
0
100
AcDbLine
 62
7
  6
CONTINUOUS
 10
5.3897039002
 20
13.2539196319
 11
5.4247039002
 21
13.2539196319
  0
LINE
  5
46F
100
AcDbEntity
  8
0
100
AcDbLine
 62
7
  6
CONTINUOUS
 10
5.4547039002
 20
13.2539196319
 11
5.4897039002
 21
13.2539196319
  0
LINE
  5
470
100
AcDbEntity
  8
0
100
AcDbLine
 62
7
  6
CONTINUOUS
 10
5.4897039002
 20
13.2839196319
 11
5.4547039002
 21
13.2839196319
  0
LINE
  5
471
100
AcDbEntity
  8
0
100
AcDbLine
 62
7
  6
CONTINUOUS
 10
5.4247039002
 20
13.2839196319
 11
5.3897039002
 21
13.2839196319
  0
LINE
  5
472
100
AcDbEntity
  8
0
100
AcDbLine
 62
7
  6
CONTINUOUS
 10
3.2897039002
 20
13.2839196319
 11
3.2547039002
 21
13.2839196319
  0
LINE
  5
473
100
AcDbEntity
  8
0
100
AcDbLine
 62
7
  6
CONTINUOUS
 10
3.2247039002
 20
13.2839196319
 11
3.1897039002
 21
13.2839196319
  0
LINE
  5
474
100
AcDbEntity
  8
0
100
AcDbLine
 62
7
  6
CONTINUOUS
 10
5.4547039002
 20
13.3189196319
 11
5.4247039002
 21
13.3189196319
  0
LINE
  5
475
100
AcDbEntity
  8
0
100
AcDbLine
 62
7
  6
CONTINUOUS
 10
3.2547039002
 20
13.3189196319
 11
3.2247039002
 21
13.3189196319
  0
LINE
  5
476
100
AcDbEntity
  8
0
100
AcDbLine
 62
7
  6
CONTINUOUS
 10
3.0997039002
 20
13.3859196319
 11
3.0747039002
 21
13.3859196319
  0
LINE
  5
477
100
AcDbEntity
  8
0
100
AcDbLine
 62
7
  6
CONTINUOUS
 10
5.5797039002
 20
13.3859196319
 11
5.6047039002
 21
13.3859196319
  0
LINE
  5
478
100
AcDbEntity
  8
0
100
AcDbLine
 62
7
  6
CONTINUOUS
 10
3.0997039002
 20
13.4089196319
 11
5.5797039002
 21
13.4089196319
  0
LINE
  5
479
100
AcDbEntity
  8
SURFACE
100
AcDbLine
 62
7
  6
CONTINUOUS
 10
3.0267039002
 20
13.4339196319
 11
5.6527039002
 21
13.4339196319
  0
LINE
  5
47A
100
AcDbEntity
  8
SURFACE
100
AcDbLine
 62
7
  6
CONTINUOUS
 10
3.0267039002
 20
13.4819196319
 11
5.6527039002
 21
13.4819196319
  0
LINE
  5
47B
100
AcDbEntity
  8
AXIS
100
AcDbLine
 62
7
  6
CONTINUOUS
 10
8.9590346088
 20
12.2589196319
 11
8.9590346088
 21
12.0789196319
  0
LINE
  5
47C
100
AcDbEntity
  8
AXIS
100
AcDbLine
 62
7
  6
CONTINUOUS
 10
9.23462516
 20
12.2196590521
 11
9.23462516
 21
12.1696762747
  0
LINE
  5
47D
100
AcDbEntity
  8
AXIS
100
AcDbLine
 62
7
  6
CONTINUOUS
 10
9.23462516
 20
12.1689110206
 11
9.23462516
 21
12.1189282432
  0
LINE
  5
47E
100
AcDbEntity
  8
AXIS
100
AcDbLine
 62
7
  6
CONTINUOUS
 10
9.7464361836
 20
12.1339289822
 11
9.7464361836
 21
12.1539102816
  0
LINE
  5
47F
100
AcDbEntity
  8
AXIS
100
AcDbLine
 62
7
  6
CONTINUOUS
 10
9.7464361836
 20
12.1846770137
 11
9.7464361836
 21
12.204658313
  0
LINE
  5
480
100
AcDbEntity
  8
SURFACE
100
AcDbLine
 62
7
  6
CONTINUOUS
 10
3.0267039002
 20
4.1749367964
 11
3.0267039002
 21
4.1269367964
  0
LINE
  5
481
100
AcDbEntity
  8
0
100
AcDbLine
 62
7
  6
CONTINUOUS
 10
3.0267039002
 20
4.1749367964
 11
3.0267039002
 21
6.7049367964
  0
LINE
  5
482
100
AcDbEntity
  8
SURFACE
100
AcDbLine
 62
7
  6
CONTINUOUS
 10
3.0267039002
 20
6.7049367964
 11
3.0267039002
 21
6.7529367964
  0
LINE
  5
483
100
AcDbEntity
  8
0
100
AcDbLine
 62
7
  6
CONTINUOUS
 10
3.0747039002
 20
6.7049367964
 11
3.0747039002
 21
6.6569367964
  0
LINE
  5
484
100
AcDbEntity
  8
0
100
AcDbLine
 62
7
  6
CONTINUOUS
 10
3.0747039002
 20
4.1749367964
 11
3.0747039002
 21
4.2229367964
  0
LINE
  5
485
100
AcDbEntity
  8
0
100
AcDbLine
 62
7
  6
CONTINUOUS
 10
3.0997039002
 20
6.6799367964
 11
3.0997039002
 21
6.6569367964
  0
LINE
  5
486
100
AcDbEntity
  8
0
100
AcDbLine
 62
7
  6
CONTINUOUS
 10
3.0997039002
 20
4.2229367964
 11
3.0997039002
 21
4.1999367964
  0
LINE
  5
487
100
AcDbEntity
  8
0
100
AcDbLine
 62
7
  6
CONTINUOUS
 10
3.1227039002
 20
6.7529367964
 11
3.1227039002
 21
6.6569367964
  0
LINE
  5
488
100
AcDbEntity
  8
0
100
AcDbLine
 62
7
  6
CONTINUOUS
 10
3.1227039002
 20
4.1269367964
 11
3.1227039002
 21
4.2229367964
  0
LINE
  5
489
100
AcDbEntity
  8
0
100
AcDbLine
 62
7
  6
CONTINUOUS
 10
3.1227039002
 20
4.2229367964
 11
3.1227039002
 21
6.6569367964
  0
LINE
  5
48A
100
AcDbEntity
  8
DEFAULT_1
100
AcDbLine
 62
7
  6
CENTER
 10
4.3397039002
 20
5.4399367964
 11
4.3397039002
 21
5.1199367964
  0
LINE
  5
48B
100
AcDbEntity
  8
DEFAULT_1
100
AcDbLine
 62
7
  6
CENTER
 10
4.3397039002
 20
5.4399367964
 11
4.3397039002
 21
5.7599367964
  0
LINE
  5
48C
100
AcDbEntity
  8
SURFACE
100
AcDbLine
 62
7
  6
CONTINUOUS
 10
5.6527039002
 20
4.1269367964
 11
5.5567039002
 21
4.1269367964
  0
LINE
  5
48D
100
AcDbEntity
  8
0
100
AcDbLine
 62
7
  6
CONTINUOUS
 10
5.5567039002
 20
4.1269367964
 11
3.1227039002
 21
4.1269367964
  0
LINE
  5
48E
100
AcDbEntity
  8
SURFACE
100
AcDbLine
 62
7
  6
CONTINUOUS
 10
3.1227039002
 20
4.1269367964
 11
3.0267039002
 21
4.1269367964
  0
LINE
  5
48F
100
AcDbEntity
  8
SURFACE
100
AcDbLine
 62
7
  6
CONTINUOUS
 10
5.6047039002
 20
4.1749367964
 11
5.5567039002
 21
4.1749367964
  0
LINE
  5
490
100
AcDbEntity
  8
SURFACE
100
AcDbLine
 62
7
  6
CONTINUOUS
 10
3.1227039002
 20
4.1749367964
 11
3.0747039002
 21
4.1749367964
  0
LINE
  5
491
100
AcDbEntity
  8
0
100
AcDbLine
 62
7
  6
CONTINUOUS
 10
3.0747039002
 20
4.1749367964
 11
3.0267039002
 21
4.1749367964
  0
LINE
  5
492
100
AcDbEntity
  8
0
100
AcDbLine
 62
7
  6
CONTINUOUS
 10
5.6047039002
 20
4.1749367964
 11
5.6527039002
 21
4.1749367964
  0
LINE
  5
493
100
AcDbEntity
  8
0
100
AcDbLine
 62
7
  6
CONTINUOUS
 10
3.0997039002
 20
4.1999367964
 11
3.1227039002
 21
4.1999367964
  0
LINE
  5
494
100
AcDbEntity
  8
0
100
AcDbLine
 62
7
  6
CONTINUOUS
 10
5.5567039002
 20
4.1999367964
 11
5.5797039002
 21
4.1999367964
  0
LINE
  5
495
100
AcDbEntity
  8
0
100
AcDbLine
 62
7
  6
CONTINUOUS
 10
5.5567039002
 20
4.2229367964
 11
3.1227039002
 21
4.2229367964
  0
LINE
  5
496
100
AcDbEntity
  8
0
100
AcDbLine
 62
7
  6
CONTINUOUS
 10
3.1227039002
 20
4.2229367964
 11
3.0267039002
 21
4.2229367964
  0
LINE
  5
497
100
AcDbEntity
  8
0
100
AcDbLine
 62
7
  6
CONTINUOUS
 10
5.5567039002
 20
4.2229367964
 11
5.6527039002
 21
4.2229367964
  0
LINE
  5
498
100
AcDbEntity
  8
0
100
AcDbLine
 62
7
  6
CONTINUOUS
 10
5.5567039002
 20
6.7529367964
 11
5.5567039002
 21
6.6569367964
  0
LINE
  5
499
100
AcDbEntity
  8
0
100
AcDbLine
 62
7
  6
CONTINUOUS
 10
5.5567039002
 20
6.6569367964
 11
5.5567039002
 21
4.2229367964
  0
LINE
  5
49A
100
AcDbEntity
  8
0
100
AcDbLine
 62
7
  6
CONTINUOUS
 10
5.5567039002
 20
4.1269367964
 11
5.5567039002
 21
4.2229367964
  0
LINE
  5
49B
100
AcDbEntity
  8
0
100
AcDbLine
 62
7
  6
CONTINUOUS
 10
5.5797039002
 20
4.1999367964
 11
5.5797039002
 21
4.2229367964
  0
LINE
  5
49C
100
AcDbEntity
  8
0
100
AcDbLine
 62
7
  6
CONTINUOUS
 10
5.5797039002
 20
6.6569367964
 11
5.5797039002
 21
6.6799367964
  0
LINE
  5
49D
100
AcDbEntity
  8
0
100
AcDbLine
 62
7
  6
CONTINUOUS
 10
5.6047039002
 20
6.7049367964
 11
5.6047039002
 21
6.6569367964
  0
LINE
  5
49E
100
AcDbEntity
  8
0
100
AcDbLine
 62
7
  6
CONTINUOUS
 10
5.6047039002
 20
4.1749367964
 11
5.6047039002
 21
4.2229367964
  0
LINE
  5
49F
100
AcDbEntity
  8
SURFACE
100
AcDbLine
 62
7
  6
CONTINUOUS
 10
5.6527039002
 20
4.1749367964
 11
5.6527039002
 21
4.1269367964
  0
LINE
  5
4A0
100
AcDbEntity
  8
0
100
AcDbLine
 62
7
  6
CONTINUOUS
 10
5.6527039002
 20
4.1749367964
 11
5.6527039002
 21
6.7049367964
  0
LINE
  5
4A1
100
AcDbEntity
  8
SURFACE
100
AcDbLine
 62
7
  6
CONTINUOUS
 10
5.6527039002
 20
6.7049367964
 11
5.6527039002
 21
6.7529367964
  0
LINE
  5
4A2
100
AcDbEntity
  8
60420
100
AcDbLine
 62
7
  6
CONTINUOUS
 10
5.6952550813
 20
5.3198580563
 11
5.6952550813
 21
5.5600155366
  0
LINE
  5
4A3
100
AcDbEntity
  8
60420
100
AcDbLine
 62
7
  6
CONTINUOUS
 10
5.8330503569
 20
5.3493856153
 11
5.8330503569
 21
5.5304879776
  0
LINE
  5
4A4
100
AcDbEntity
  8
60420
100
AcDbLine
 62
7
  6
CONTINUOUS
 10
6.1913180734
 20
5.3493856153
 11
6.1913180734
 21
5.5304879776
  0
LINE
  5
4A5
100
AcDbEntity
  8
AXIS
100
AcDbLine
 62
7
  6
CONTINUOUS
 10
6.203129097
 20
5.5299367964
 11
6.203129097
 21
5.3499367964
  0
LINE
  5
4A6
100
AcDbEntity
  8
60420
100
AcDbLine
 62
7
  6
CONTINUOUS
 10
6.1913180734
 20
5.3493856153
 11
6.203129097
 21
5.361196639
  0
LINE
  5
4A7
100
AcDbEntity
  8
60420
100
AcDbLine
 62
7
  6
CONTINUOUS
 10
5.6952550813
 20
5.3198580563
 11
5.8330503569
 21
5.3493856153
  0
LINE
  5
4A8
100
AcDbEntity
  8
60420
100
AcDbLine
 62
7
  6
CONTINUOUS
 10
5.6527039002
 20
5.3356060878
 11
5.6952550813
 21
5.3356060878
  0
LINE
  5
4A9
100
AcDbEntity
  8
60420
100
AcDbLine
 62
7
  6
CONTINUOUS
 10
5.8330503569
 20
5.3493856153
 11
6.1913180734
 21
5.3493856153
  0
LINE
  5
4AA
100
AcDbEntity
  8
AXIS
100
AcDbLine
 62
7
  6
CONTINUOUS
 10
6.203129097
 20
5.3499367964
 11
8.9590346088
 21
5.3499367964
  0
LINE
  5
4AB
100
AcDbEntity
  8
AXIS
100
AcDbLine
 62
7
  6
CONTINUOUS
 10
8.9590346088
 20
5.389188765
 11
9.23462516
 21
5.389188765
  0
LINE
  5
4AC
100
AcDbEntity
  8
AXIS
100
AcDbLine
 62
7
  6
CONTINUOUS
 10
9.23462516
 20
5.404188765
 11
9.7464361836
 21
5.404188765
  0
LINE
  5
4AD
100
AcDbEntity
  8
AXIS
100
AcDbLine
 62
7
  6
CONTINUOUS
 10
9.23462516
 20
5.424188765
 11
9.7464361836
 21
5.424188765
  0
LINE
  5
4AE
100
AcDbEntity
  8
AXIS
100
AcDbLine
 62
7
  6
CONTINUOUS
 10
8.9590346088
 20
5.439188765
 11
9.23462516
 21
5.439188765
  0
LINE
  5
4AF
100
AcDbEntity
  8
DEFAULT_1
100
AcDbLine
 62
7
  6
CENTER
 10
4.3397039002
 20
5.4399367964
 11
4.0197039002
 21
5.4399367964
  0
LINE
  5
4B0
100
AcDbEntity
  8
DEFAULT_1
100
AcDbLine
 62
7
  6
CENTER
 10
4.3397039002
 20
5.4399367964
 11
4.6597039002
 21
5.4399367964
  0
LINE
  5
4B1
100
AcDbEntity
  8
AXIS
100
AcDbLine
 62
7
  6
CONTINUOUS
 10
8.9590346088
 20
5.4399367964
 11
9.23462516
 21
5.4399367964
  0
LINE
  5
4B2
100
AcDbEntity
  8
AXIS
100
AcDbLine
 62
7
  6
CONTINUOUS
 10
9.23462516
 20
5.4549367964
 11
9.7464361836
 21
5.4549367964
  0
LINE
  5
4B3
100
AcDbEntity
  8
60420
100
AcDbLine
 62
7
  6
CONTINUOUS
 10
5.6952550813
 20
5.5600155366
 11
5.8330503569
 21
5.5304879776
  0
LINE
  5
4B4
100
AcDbEntity
  8
60420
100
AcDbLine
 62
7
  6
CONTINUOUS
 10
6.1913180734
 20
5.5304879776
 11
6.203129097
 21
5.5186769539
  0
LINE
  5
4B5
100
AcDbEntity
  8
AXIS
100
AcDbLine
 62
7
  6
CONTINUOUS
 10
9.23462516
 20
5.4749367964
 11
9.7464361836
 21
5.4749367964
  0
LINE
  5
4B6
100
AcDbEntity
  8
AXIS
100
AcDbLine
 62
7
  6
CONTINUOUS
 10
8.9590346088
 20
5.4899367964
 11
9.23462516
 21
5.4899367964
  0
LINE
  5
4B7
100
AcDbEntity
  8
AXIS
100
AcDbLine
 62
7
  6
CONTINUOUS
 10
6.203129097
 20
5.5299367964
 11
8.9590346088
 21
5.5299367964
  0
LINE
  5
4B8
100
AcDbEntity
  8
60420
100
AcDbLine
 62
7
  6
CONTINUOUS
 10
5.8330503569
 20
5.5304879776
 11
6.1913180734
 21
5.5304879776
  0
LINE
  5
4B9
100
AcDbEntity
  8
60420
100
AcDbLine
 62
7
  6
CONTINUOUS
 10
5.6527039002
 20
5.5442675051
 11
5.6952550813
 21
5.5442675051
  0
LINE
  5
4BA
100
AcDbEntity
  8
0
100
AcDbLine
 62
7
  6
CONTINUOUS
 10
3.1227039002
 20
6.6569367964
 11
3.0267039002
 21
6.6569367964
  0
LINE
  5
4BB
100
AcDbEntity
  8
0
100
AcDbLine
 62
7
  6
CONTINUOUS
 10
3.1227039002
 20
6.6569367964
 11
5.5567039002
 21
6.6569367964
  0
LINE
  5
4BC
100
AcDbEntity
  8
0
100
AcDbLine
 62
7
  6
CONTINUOUS
 10
5.5567039002
 20
6.6569367964
 11
5.6527039002
 21
6.6569367964
  0
LINE
  5
4BD
100
AcDbEntity
  8
0
100
AcDbLine
 62
7
  6
CONTINUOUS
 10
5.5797039002
 20
6.6799367964
 11
5.5567039002
 21
6.6799367964
  0
LINE
  5
4BE
100
AcDbEntity
  8
0
100
AcDbLine
 62
7
  6
CONTINUOUS
 10
3.1227039002
 20
6.6799367964
 11
3.0997039002
 21
6.6799367964
  0
LINE
  5
4BF
100
AcDbEntity
  8
0
100
AcDbLine
 62
7
  6
CONTINUOUS
 10
3.0747039002
 20
6.7049367964
 11
3.0267039002
 21
6.7049367964
  0
LINE
  5
4C0
100
AcDbEntity
  8
SURFACE
100
AcDbLine
 62
7
  6
CONTINUOUS
 10
3.0747039002
 20
6.7049367964
 11
3.1227039002
 21
6.7049367964
  0
LINE
  5
4C1
100
AcDbEntity
  8
SURFACE
100
AcDbLine
 62
7
  6
CONTINUOUS
 10
5.5567039002
 20
6.7049367964
 11
5.6047039002
 21
6.7049367964
  0
LINE
  5
4C2
100
AcDbEntity
  8
0
100
AcDbLine
 62
7
  6
CONTINUOUS
 10
5.6047039002
 20
6.7049367964
 11
5.6527039002
 21
6.7049367964
  0
LINE
  5
4C3
100
AcDbEntity
  8
SURFACE
100
AcDbLine
 62
7
  6
CONTINUOUS
 10
3.0267039002
 20
6.7529367964
 11
3.1227039002
 21
6.7529367964
  0
LINE
  5
4C4
100
AcDbEntity
  8
0
100
AcDbLine
 62
7
  6
CONTINUOUS
 10
3.1227039002
 20
6.7529367964
 11
5.5567039002
 21
6.7529367964
  0
LINE
  5
4C5
100
AcDbEntity
  8
SURFACE
100
AcDbLine
 62
7
  6
CONTINUOUS
 10
5.5567039002
 20
6.7529367964
 11
5.6527039002
 21
6.7529367964
  0
LINE
  5
4C6
100
AcDbEntity
  8
AXIS
100
AcDbLine
 62
7
  6
CONTINUOUS
 10
8.9590346088
 20
5.5299367964
 11
8.9590346088
 21
5.3499367964
  0
LINE
  5
4C7
100
AcDbEntity
  8
AXIS
100
AcDbLine
 62
7
  6
CONTINUOUS
 10
9.23462516
 20
5.4899281851
 11
9.23462516
 21
5.4399454078
  0
LINE
  5
4C8
100
AcDbEntity
  8
AXIS
100
AcDbLine
 62
7
  6
CONTINUOUS
 10
9.23462516
 20
5.4391801536
 11
9.23462516
 21
5.3891973763
  0
LINE
  5
4C9
100
AcDbEntity
  8
AXIS
100
AcDbLine
 62
7
  6
CONTINUOUS
 10
9.7464361836
 20
5.4041981153
 11
9.7464361836
 21
5.4241794146
  0
LINE
  5
4CA
100
AcDbEntity
  8
AXIS
100
AcDbLine
 62
7
  6
CONTINUOUS
 10
9.7464361836
 20
5.4549461468
 11
9.7464361836
 21
5.4749274461
  0
LINE
  5
4CB
100
AcDbEntity
  8
SURFACE
100
AcDbLine
 62
7
  6
CONTINUOUS
 10
13.409897594
 20
8.5011004991
 11
13.409897594
 21
8.9801004991
  0
LINE
  5
4CC
100
AcDbEntity
  8
0
100
AcDbLine
 62
7
  6
CONTINUOUS
 10
13.457897594
 20
8.9801004991
 11
13.457897594
 21
8.5011004991
  0
LINE
  5
4CD
100
AcDbEntity
  8
SURFACE
100
AcDbLine
 62
7
  6
CONTINUOUS
 10
13.457897594
 20
8.5031004991
 11
13.457897594
 21
8.9801004991
  0
LINE
  5
4CE
100
AcDbEntity
  8
0
100
AcDbLine
 62
7
  6
CONTINUOUS
 10
13.505897594
 20
8.4051004991
 11
13.505897594
 21
8.5011004991
  0
LINE
  5
4CF
100
AcDbEntity
  8
0
100
AcDbLine
 62
7
  6
CONTINUOUS
 10
13.4728799598
 20
8.4662603523
 11
13.4398623256
 21
8.4314202055
  0
LINE
  5
4D0
100
AcDbEntity
  8
0
100
AcDbLine
 62
7
  6
CONTINUOUS
 10
13.505897594
 20
8.4051004991
 11
15.939897594
 21
8.4051004991
  0
LINE
  5
4D1
100
AcDbEntity
  8
0
100
AcDbLine
 62
7
  6
CONTINUOUS
 10
15.987897594
 20
8.5011004991
 11
15.939897594
 21
8.5011004991
  0
LINE
  5
4D2
100
AcDbEntity
  8
0
100
AcDbLine
 62
7
  6
CONTINUOUS
 10
13.457897594
 20
8.5011004991
 11
13.409897594
 21
8.5011004991
  0
LINE
  5
4D3
100
AcDbEntity
  8
0
100
AcDbLine
 62
7
  6
CONTINUOUS
 10
13.457897594
 20
8.5011004991
 11
13.505897594
 21
8.5011004991
  0
LINE
  5
4D4
100
AcDbEntity
  8
0
100
AcDbLine
 62
7
  6
CONTINUOUS
 10
13.505897594
 20
8.5011004991
 11
15.939897594
 21
8.5011004991
  0
LINE
  5
4D5
100
AcDbEntity
  8
0
100
AcDbLine
 62
7
  6
CONTINUOUS
 10
15.987897594
 20
8.5011004991
 11
16.035897594
 21
8.5011004991
  0
LINE
  5
4D6
100
AcDbEntity
  8
SURFACE
100
AcDbLine
 62
7
  6
CONTINUOUS
 10
13.457897594
 20
8.5031004991
 11
13.409897594
 21
8.5031004991
  0
LINE
  5
4D7
100
AcDbEntity
  8
SURFACE
100
AcDbLine
 62
7
  6
CONTINUOUS
 10
15.987897594
 20
8.5031004991
 11
16.035897594
 21
8.5031004991
  0
LINE
  5
4D8
100
AcDbEntity
  8
AXIS
100
AcDbLine
 62
7
  6
CENTER
 10
14.722897594
 20
8.6301004991
 11
14.722897594
 21
8.4401004991
  0
LINE
  5
4D9
100
AcDbEntity
  8
AXIS
100
AcDbLine
 62
7
  6
CENTER
 10
14.722897594
 20
8.6301004991
 11
14.722897594
 21
8.8201004991
  0
LINE
  5
4DA
100
AcDbEntity
  8
AXIS
100
AcDbLine
 62
7
  6
CENTER
 10
14.722897594
 20
8.6301004991
 11
14.532897594
 21
8.6301004991
  0
LINE
  5
4DB
100
AcDbEntity
  8
AXIS
100
AcDbLine
 62
7
  6
CENTER
 10
14.722897594
 20
8.6301004991
 11
14.912897594
 21
8.6301004991
  0
LINE
  5
4DC
100
AcDbEntity
  8
SURFACE
100
AcDbLine
 62
7
  6
CONTINUOUS
 10
13.409897594
 20
8.9801004991
 11
16.035897594
 21
8.9801004991
  0
LINE
  5
4DD
100
AcDbEntity
  8
0
100
AcDbLine
 62
7
  6
CONTINUOUS
 10
15.9729152353
 20
8.466260359
 11
16.0059328766
 21
8.4314202188
  0
LINE
  5
4DE
100
AcDbEntity
  8
0
100
AcDbLine
 62
7
  6
CONTINUOUS
 10
15.939897594
 20
8.4051004991
 11
15.939897594
 21
8.5011004991
  0
LINE
  5
4DF
100
AcDbEntity
  8
SURFACE
100
AcDbLine
 62
7
  6
CONTINUOUS
 10
15.987897594
 20
8.9801004991
 11
15.987897594
 21
8.5031004991
  0
LINE
  5
4E0
100
AcDbEntity
  8
0
100
AcDbLine
 62
7
  6
CONTINUOUS
 10
15.987897594
 20
8.5011004991
 11
15.987897594
 21
8.9801004991
  0
LINE
  5
4E1
100
AcDbEntity
  8
SURFACE
100
AcDbLine
 62
7
  6
CONTINUOUS
 10
16.035897594
 20
8.9801004991
 11
16.035897594
 21
8.5011004991
  0
LINE
  5
4E2
100
AcDbEntity
  8
SURFACE
100
AcDbLine
 62
7
  6
CONTINUOUS
 10
14.462532829
 20
13.0429805145
 11
14.462532829
 21
13.4560746321
  0
LINE
  5
4E3
100
AcDbEntity
  8
0
100
AcDbLine
 62
7
  6
CONTINUOUS
 10
14.4964739545
 20
13.4391040693
 11
14.4964739545
 21
13.0242779009
  0
LINE
  5
4E4
100
AcDbEntity
  8
SURFACE
100
AcDbLine
 62
7
  6
CONTINUOUS
 10
14.4964739545
 20
13.0260099517
 11
14.4964739545
 21
13.4391040693
  0
LINE
  5
4E5
100
AcDbEntity
  8
0
100
AcDbLine
 62
7
  6
CONTINUOUS
 10
14.7390115805
 20
13.4643331706
 11
14.7390115805
 21
13.4431199672
  0
LINE
  5
4E6
100
AcDbEntity
  8
0
100
AcDbLine
 62
7
  6
CONTINUOUS
 10
14.7425471144
 20
13.4413522002
 11
14.7425471144
 21
13.4201389968
  0
LINE
  5
4E7
100
AcDbEntity
  8
0
100
AcDbLine
 62
7
  6
CONTINUOUS
 10
14.7637603178
 20
13.4519588019
 11
14.7637603178
 21
13.4307455985
  0
LINE
  5
4E8
100
AcDbEntity
  8
0
100
AcDbLine
 62
7
  6
CONTINUOUS
 10
14.7849735213
 20
13.4413522002
 11
14.7849735213
 21
13.4201389968
  0
LINE
  5
4E9
100
AcDbEntity
  8
0
100
AcDbLine
 62
7
  6
CONTINUOUS
 10
14.7885090552
 20
13.4643331706
 11
14.7885090552
 21
13.4431199672
  0
LINE
  5
4EA
100
AcDbEntity
  8
AXIS_COSMETIC_THREADS
100
AcDbLine
 62
7
  6
CONTINUOUS
 10
14.8732603178
 20
13.393720803
 11
14.8732603178
 21
13.3764002949
  0
LINE
  5
4EB
100
AcDbEntity
  8
0
100
AcDbLine
 62
7
  6
CONTINUOUS
 10
15.3379310241
 20
12.6459846109
 11
15.3379310241
 21
12.6936160081
  0
LINE
  5
4EC
100
AcDbEntity
  8
0
100
AcDbLine
 62
7
  6
CONTINUOUS
 10
15.3718721496
 20
12.6629551736
 11
15.3718721496
 21
12.6766454453
  0
LINE
  5
4ED
100
AcDbEntity
  8
0
100
AcDbLine
 62
7
  6
CONTINUOUS
 10
15.4439970413
 20
12.5929516023
 11
15.4439970413
 21
12.6405829995
  0
LINE
  5
4EE
100
AcDbEntity
  8
0
100
AcDbLine
 62
7
  6
CONTINUOUS
 10
14.5553648259
 20
12.9553834533
 11
16.2764627313
 21
12.0948345006
  0
LINE
  5
4EF
100
AcDbEntity
  8
0
100
AcDbLine
 62
7
  6
CONTINUOUS
 10
16.2854541109
 20
12.1297878227
 11
16.2515129854
 21
12.1467583855
  0
LINE
  5
4F0
100
AcDbEntity
  8
0
100
AcDbLine
 62
7
  6
CONTINUOUS
 10
14.4964739545
 20
13.0242779009
 11
14.53041508
 21
13.0073073382
  0
LINE
  5
4F1
100
AcDbEntity
  8
0
100
AcDbLine
 62
7
  6
CONTINUOUS
 10
14.53041508
 20
13.0073073382
 11
16.2515129854
 21
12.1467583855
  0
LINE
  5
4F2
100
AcDbEntity
  8
SURFACE
100
AcDbLine
 62
7
  6
CONTINUOUS
 10
14.4964739545
 20
13.0260099517
 11
14.462532829
 21
13.0429805145
  0
LINE
  5
4F3
100
AcDbEntity
  8
SURFACE
100
AcDbLine
 62
7
  6
CONTINUOUS
 10
16.2854541109
 20
12.1315198735
 11
16.3193952364
 21
12.1145493108
  0
LINE
  5
4F4
100
AcDbEntity
  8
0
100
AcDbLine
 62
7
  6
CONTINUOUS
 10
15.3379310241
 20
12.6459846109
 11
15.4439970413
 21
12.5929516023
  0
LINE
  5
4F5
100
AcDbEntity
  8
0
100
AcDbLine
 62
7
  6
CONTINUOUS
 10
16.3855454366
 20
12.1476244109
 11
16.3872774874
 21
12.1467583855
  0
LINE
  5
4F6
100
AcDbEntity
  8
0
100
AcDbLine
 62
7
  6
CONTINUOUS
 10
15.3718721496
 20
12.6629551736
 11
15.4439970413
 21
12.6268927278
  0
LINE
  5
4F7
100
AcDbEntity
  8
0
100
AcDbLine
 62
7
  6
CONTINUOUS
 10
15.4439970413
 20
12.6405829995
 11
15.3379310241
 21
12.6936160081
  0
LINE
  5
4F8
100
AcDbEntity
  8
0
100
AcDbLine
 62
7
  6
CONTINUOUS
 10
16.3482521988
 20
12.1289777919
 11
16.3660892325
 21
12.09700762
  0
LINE
  5
4F9
100
AcDbEntity
  8
SURFACE
100
AcDbLine
 62
7
  6
CONTINUOUS
 10
14.462532829
 20
13.4560746321
 11
16.3193952364
 21
12.5276434284
  0
LINE
  5
4FA
100
AcDbEntity
  8
SURFACE
100
AcDbLine
 62
7
  6
CONTINUOUS
 10
16.3193952364
 20
12.5615845539
 11
14.53041508
 21
13.4560746321
  0
LINE
  5
4FB
100
AcDbEntity
  8
0
100
AcDbLine
 62
7
  6
CONTINUOUS
 10
14.717798377
 20
13.4289778315
 11
14.7390115805
 21
13.4183712298
  0
LINE
  5
4FC
100
AcDbEntity
  8
0
100
AcDbLine
 62
7
  6
CONTINUOUS
 10
16.2734332957
 20
12.6511603722
 11
16.2946464991
 21
12.6405537705
  0
LINE
  5
4FD
100
AcDbEntity
  8
0
100
AcDbLine
 62
7
  6
CONTINUOUS
 10
16.3059674237
 20
12.6462142328
 11
16.298182033
 21
12.6501069282
  0
LINE
  5
4FE
100
AcDbEntity
  8
0
100
AcDbLine
 62
7
  6
CONTINUOUS
 10
14.7503325051
 20
13.4240316921
 11
14.7425471144
 21
13.4279243875
  0
LINE
  5
4FF
100
AcDbEntity
  8
0
100
AcDbLine
 62
7
  6
CONTINUOUS
 10
14.717798377
 20
13.4537265689
 11
14.7425471144
 21
13.4413522002
  0
LINE
  5
500
100
AcDbEntity
  8
0
100
AcDbLine
 62
7
  6
CONTINUOUS
 10
14.7637603178
 20
13.4307455985
 11
14.7885090552
 21
13.4183712298
  0
LINE
  5
501
100
AcDbEntity
  8
0
100
AcDbLine
 62
7
  6
CONTINUOUS
 10
16.2734332957
 20
12.6759091096
 11
16.298182033
 21
12.6635347409
  0
LINE
  5
502
100
AcDbEntity
  8
0
100
AcDbLine
 62
7
  6
CONTINUOUS
 10
16.3193952364
 20
12.6529281392
 11
16.3441439738
 21
12.6405537705
  0
LINE
  5
503
100
AcDbEntity
  8
0
100
AcDbLine
 62
7
  6
CONTINUOUS
 10
16.3653571772
 20
12.6511603722
 11
16.3406084399
 21
12.6635347409
  0
LINE
  5
504
100
AcDbEntity
  8
0
100
AcDbLine
 62
7
  6
CONTINUOUS
 10
16.3193952364
 20
12.6741413426
 11
16.2946464991
 21
12.6865157113
  0
LINE
  5
505
100
AcDbEntity
  8
0
100
AcDbLine
 62
7
  6
CONTINUOUS
 10
14.8097222586
 20
13.4289778315
 11
14.7849735213
 21
13.4413522002
  0
LINE
  5
506
100
AcDbEntity
  8
0
100
AcDbLine
 62
7
  6
CONTINUOUS
 10
14.7637603178
 20
13.4519588019
 11
14.7390115805
 21
13.4643331706
  0
LINE
  5
507
100
AcDbEntity
  8
AXIS_COSMETIC_THREADS
100
AcDbLine
 62
7
  6
CONTINUOUS
 10
16.2098952364
 20
14.1715382623
 11
16.2098952364
 21
14.1542177542
  0
LINE
  5
508
100
AcDbEntity
  8
SURFACE
100
AcDbLine
 62
7
  6
CONTINUOUS
 10
14.462532829
 20
13.4560746321
 11
16.3193952364
 21
14.3845058358
  0
LINE
  5
509
100
AcDbEntity
  8
SURFACE
100
AcDbLine
 62
7
  6
CONTINUOUS
 10
14.4964739545
 20
13.4391040693
 11
16.3533363619
 21
14.367535273
  0
LINE
  5
50A
100
AcDbEntity
  8
0
100
AcDbLine
 62
7
  6
CONTINUOUS
 10
16.3653571772
 20
12.6759091096
 11
16.3441439738
 21
12.6865157113
  0
LINE
  5
50B
100
AcDbEntity
  8
0
100
AcDbLine
 62
7
  6
CONTINUOUS
 10
14.8097222586
 20
13.4537265689
 11
14.7885090552
 21
13.4643331706
  0
LINE
  5
50C
100
AcDbEntity
  8
SURFACE
100
AcDbLine
 62
7
  6
CONTINUOUS
 10
16.2854541109
 20
12.5446139911
 11
16.2854541109
 21
12.1315198735
  0
LINE
  5
50D
100
AcDbEntity
  8
0
100
AcDbLine
 62
7
  6
CONTINUOUS
 10
16.2854541109
 20
12.1297878227
 11
16.2854541109
 21
12.5446139911
  0
LINE
  5
50E
100
AcDbEntity
  8
0
100
AcDbLine
 62
7
  6
CONTINUOUS
 10
16.2946464991
 20
14.2421506299
 11
16.2946464991
 21
14.2209374265
  0
LINE
  5
50F
100
AcDbEntity
  8
0
100
AcDbLine
 62
7
  6
CONTINUOUS
 10
16.2946464991
 20
12.6865157113
 11
16.2946464991
 21
12.6653025079
  0
LINE
  5
510
100
AcDbEntity
  8
0
100
AcDbLine
 62
7
  6
CONTINUOUS
 10
16.298182033
 20
14.2191696595
 11
16.298182033
 21
14.1979564561
  0
LINE
  5
511
100
AcDbEntity
  8
0
100
AcDbLine
 62
7
  6
CONTINUOUS
 10
16.298182033
 20
12.6635347409
 11
16.298182033
 21
12.6423215375
  0
LINE
  5
512
100
AcDbEntity
  8
0
100
AcDbLine
 62
7
  6
CONTINUOUS
 10
16.3193952364
 20
14.2297762612
 11
16.3193952364
 21
14.2085630578
  0
LINE
  5
513
100
AcDbEntity
  8
0
100
AcDbLine
 62
7
  6
CONTINUOUS
 10
16.3193952364
 20
12.6741413426
 11
16.3193952364
 21
12.6529281392
  0
LINE
  5
514
100
AcDbEntity
  8
SURFACE
100
AcDbLine
 62
7
  6
CONTINUOUS
 10
16.3193952364
 20
12.5276434284
 11
16.3193952364
 21
12.1145493108
  0
LINE
  5
515
100
AcDbEntity
  8
0
100
AcDbLine
 62
7
  6
CONTINUOUS
 10
16.3193952364
 20
12.1145493108
 11
16.3193952364
 21
12.0975610722
  0
LINE
  5
516
100
AcDbEntity
  8
0
100
AcDbLine
 62
7
  6
CONTINUOUS
 10
16.3193952364
 20
14.2561885896
 11
16.3193952364
 21
14.3505647103
  0
LINE
  5
517
100
AcDbEntity
  8
0
100
AcDbLine
 62
7
  6
CONTINUOUS
 10
16.3406084399
 20
14.2191696595
 11
16.3406084399
 21
14.1979564561
  0
LINE
  5
518
100
AcDbEntity
  8
0
100
AcDbLine
 62
7
  6
CONTINUOUS
 10
16.3406084399
 20
12.6635347409
 11
16.3406084399
 21
12.6423215375
  0
LINE
  5
519
100
AcDbEntity
  8
0
100
AcDbLine
 62
7
  6
CONTINUOUS
 10
16.3441439738
 20
14.2421506299
 11
16.3441439738
 21
14.2209374265
  0
LINE
  5
51A
100
AcDbEntity
  8
0
100
AcDbLine
 62
7
  6
CONTINUOUS
 10
16.3441439738
 20
12.6865157113
 11
16.3441439738
 21
12.6653025079
  0
LINE
  5
51B
100
AcDbEntity
  8
SURFACE
100
AcDbLine
 62
7
  6
CONTINUOUS
 10
16.3872774874
 20
12.1484904363
 11
16.3872774874
 21
12.1467583855
  0
LINE
  5
51C
100
AcDbEntity
  8
AXIS_COSMETIC_THREADS
100
AcDbLine
 62
7
  6
CONTINUOUS
 10
16.4288952364
 20
14.1715382623
 11
16.4288952364
 21
14.1542177542
  0
LINE
  5
51D
100
AcDbEntity
  8
0
100
AcDbLine
 62
7
  6
CONTINUOUS
 10
16.2946464991
 20
14.2421506299
 11
16.2734332957
 21
14.2315440282
  0
LINE
  5
51E
100
AcDbEntity
  8
0
100
AcDbLine
 62
7
  6
CONTINUOUS
 10
14.7390115805
 20
13.4643331706
 11
14.717798377
 21
13.4537265689
  0
LINE
  5
51F
100
AcDbEntity
  8
0
100
AcDbLine
 62
7
  6
CONTINUOUS
 10
14.6277670867
 20
13.4073986287
 11
14.6611803083
 21
13.4241052395
  0
LINE
  5
520
100
AcDbEntity
  8
0
100
AcDbLine
 62
7
  6
CONTINUOUS
 10
14.7694581586
 20
13.4782441647
 11
16.2168152269
 21
14.2019226988
  0
LINE
  5
521
100
AcDbEntity
  8
0
100
AcDbLine
 62
7
  6
CONTINUOUS
 10
16.3441439738
 20
14.2421506299
 11
16.3193952364
 21
14.2297762612
  0
LINE
  5
522
100
AcDbEntity
  8
0
100
AcDbLine
 62
7
  6
CONTINUOUS
 10
16.298182033
 20
14.2191696595
 11
16.2734332957
 21
14.2067952908
  0
LINE
  5
523
100
AcDbEntity
  8
0
100
AcDbLine
 62
7
  6
CONTINUOUS
 10
14.7885090552
 20
13.4643331706
 11
14.7637603178
 21
13.4519588019
  0
LINE
  5
524
100
AcDbEntity
  8
0
100
AcDbLine
 62
7
  6
CONTINUOUS
 10
14.7425471144
 20
13.4413522002
 11
14.717798377
 21
13.4289778315
  0
LINE
  5
525
100
AcDbEntity
  8
0
100
AcDbLine
 62
7
  6
CONTINUOUS
 10
14.7390115805
 20
13.4183712298
 11
14.7637603178
 21
13.4307455985
  0
LINE
  5
526
100
AcDbEntity
  8
0
100
AcDbLine
 62
7
  6
CONTINUOUS
 10
14.7849735213
 20
13.4413522002
 11
14.8097222586
 21
13.4537265689
  0
LINE
  5
527
100
AcDbEntity
  8
0
100
AcDbLine
 62
7
  6
CONTINUOUS
 10
16.2946464991
 20
14.1961886891
 11
16.3193952364
 21
14.2085630578
  0
LINE
  5
528
100
AcDbEntity
  8
0
100
AcDbLine
 62
7
  6
CONTINUOUS
 10
16.3406084399
 20
14.2191696595
 11
16.3653571772
 21
14.2315440282
  0
LINE
  5
529
100
AcDbEntity
  8
0
100
AcDbLine
 62
7
  6
CONTINUOUS
 10
16.3406084399
 20
14.2057418468
 11
16.3328230491
 21
14.2018491514
  0
LINE
  5
52A
100
AcDbEntity
  8
0
100
AcDbLine
 62
7
  6
CONTINUOUS
 10
14.7849735213
 20
13.4279243875
 11
14.7771881305
 21
13.4240316921
  0
LINE
  5
52B
100
AcDbEntity
  8
0
100
AcDbLine
 62
7
  6
CONTINUOUS
 10
14.7885090552
 20
13.4183712298
 11
14.8097222586
 21
13.4289778315
  0
LINE
  5
52C
100
AcDbEntity
  8
0
100
AcDbLine
 62
7
  6
CONTINUOUS
 10
16.3441439738
 20
14.1961886891
 11
16.3653571772
 21
14.2067952908
  0
LINE
  5
52D
100
AcDbEntity
  8
60420
100
AcDbLine
 62
7
  6
CONTINUOUS
 10
17.4496960333
 20
13.8193554374
 11
17.5881884552
 21
13.8886016483
  0
LINE
  5
52E
100
AcDbEntity
  8
AXIS
100
AcDbLine
 62
7
  6
CONTINUOUS
 10
17.5967866058
 20
13.8922844844
 11
19.5455060815
 21
14.8666442223
  0
LINE
  5
52F
100
AcDbEntity
  8
AXIS
100
AcDbLine
 62
7
  6
CONTINUOUS
 10
19.6106241242
 20
14.844737642
 11
19.7512403051
 21
14.9150457325
  0
LINE
  5
530
100
AcDbEntity
  8
AXIS
100
AcDbLine
 62
7
  6
CONTINUOUS
 10
19.7702935291
 20
14.9078018347
 11
20.1198535545
 21
15.0825818473
  0
LINE
  5
531
100
AcDbEntity
  8
AXIS
100
AcDbLine
 62
7
  6
CONTINUOUS
 10
19.6306729963
 20
14.8188778008
 11
19.7871245823
 21
14.8971035939
  0
LINE
  5
532
100
AcDbEntity
  8
AXIS
100
AcDbLine
 62
7
  6
CONTINUOUS
 10
19.7944106247
 20
14.8974997027
 11
20.1287978264
 21
15.0646933035
  0
LINE
  5
533
100
AcDbEntity
  8
AXIS
100
AcDbLine
 62
7
  6
CONTINUOUS
 10
19.8061778063
 20
14.8898596961
 11
20.1557378317
 21
15.0646397087
  0
LINE
  5
534
100
AcDbEntity
  8
0
100
AcDbLine
 62
7
  6
CONTINUOUS
 10
15.3379310241
 20
12.6459846109
 11
15.3718721496
 21
12.6629551736
  0
LINE
  5
535
100
AcDbEntity
  8
AXIS
100
AcDbLine
 62
7
  6
CONTINUOUS
 10
19.8151483475
 20
14.8719842869
 11
20.1646821036
 21
15.0467511649
  0
LINE
  5
536
100
AcDbEntity
  8
AXIS
100
AcDbLine
 62
7
  6
CONTINUOUS
 10
19.6476467513
 20
14.7714629789
 11
19.8094852621
 21
14.8523822343
  0
LINE
  5
537
100
AcDbEntity
  8
AXIS
100
AcDbLine
 62
7
  6
CONTINUOUS
 10
17.677285053
 20
13.73128759
 11
19.6260045287
 21
14.7056473279
  0
LINE
  5
538
100
AcDbEntity
  8
60420
100
AcDbLine
 62
7
  6
CONTINUOUS
 10
17.6521746296
 20
13.7181161392
 11
17.6691798937
 21
13.7266187712
  0
LINE
  5
539
100
AcDbEntity
  8
0
100
AcDbLine
 62
7
  6
CONTINUOUS
 10
16.2734332957
 20
14.2067952908
 11
16.2946464991
 21
14.1961886891
  0
LINE
  5
53A
100
AcDbEntity
  8
0
100
AcDbLine
 62
7
  6
CONTINUOUS
 10
17.8290682143
 20
13.4289778315
 11
17.8502814177
 21
13.4183712298
  0
LINE
  5
53B
100
AcDbEntity
  8
0
100
AcDbLine
 62
7
  6
CONTINUOUS
 10
17.8616023423
 20
13.4240316921
 11
17.8538169516
 21
13.4279243875
  0
LINE
  5
53C
100
AcDbEntity
  8
0
100
AcDbLine
 62
7
  6
CONTINUOUS
 10
16.3059674237
 20
14.2018491514
 11
16.298182033
 21
14.2057418468
  0
LINE
  5
53D
100
AcDbEntity
  8
0
100
AcDbLine
 62
7
  6
CONTINUOUS
 10
16.2734332957
 20
14.2315440282
 11
16.298182033
 21
14.2191696595
  0
LINE
  5
53E
100
AcDbEntity
  8
0
100
AcDbLine
 62
7
  6
CONTINUOUS
 10
16.3193952364
 20
14.2085630578
 11
16.3441439738
 21
14.1961886891
  0
LINE
  5
53F
100
AcDbEntity
  8
0
100
AcDbLine
 62
7
  6
CONTINUOUS
 10
17.8290682143
 20
13.4537265689
 11
17.8538169516
 21
13.4413522002
  0
LINE
  5
540
100
AcDbEntity
  8
0
100
AcDbLine
 62
7
  6
CONTINUOUS
 10
17.875030155
 20
13.4307455985
 11
17.8997788924
 21
13.4183712298
  0
LINE
  5
541
100
AcDbEntity
  8
0
100
AcDbLine
 62
7
  6
CONTINUOUS
 10
17.9209920958
 20
13.4289778315
 11
17.8962433585
 21
13.4413522002
  0
LINE
  5
542
100
AcDbEntity
  8
0
100
AcDbLine
 62
7
  6
CONTINUOUS
 10
17.875030155
 20
13.4519588019
 11
17.8502814177
 21
13.4643331706
  0
LINE
  5
543
100
AcDbEntity
  8
0
100
AcDbLine
 62
7
  6
CONTINUOUS
 10
16.3653571772
 20
14.2067952908
 11
16.3406084399
 21
14.2191696595
  0
LINE
  5
544
100
AcDbEntity
  8
0
100
AcDbLine
 62
7
  6
CONTINUOUS
 10
16.3193952364
 20
14.2297762612
 11
16.2946464991
 21
14.2421506299
  0
LINE
  5
545
100
AcDbEntity
  8
0
100
AcDbLine
 62
7
  6
CONTINUOUS
 10
16.4220162465
 20
14.2019021985
 11
17.8694470488
 21
13.4781867974
  0
LINE
  5
546
100
AcDbEntity
  8
0
100
AcDbLine
 62
7
  6
CONTINUOUS
 10
17.9776511651
 20
13.4240847392
 11
18.0110233862
 21
13.4073986287
  0
LINE
  5
547
100
AcDbEntity
  8
0
100
AcDbLine
 62
7
  6
CONTINUOUS
 10
17.9209920958
 20
13.4537265689
 11
17.8997788924
 21
13.4643331706
  0
LINE
  5
548
100
AcDbEntity
  8
0
100
AcDbLine
 62
7
  6
CONTINUOUS
 10
16.3653571772
 20
14.2315440282
 11
16.3441439738
 21
14.2421506299
  0
LINE
  5
549
100
AcDbEntity
  8
SURFACE
100
AcDbLine
 62
7
  6
CONTINUOUS
 10
16.3193952364
 20
14.3505647103
 11
18.1083753928
 21
13.4560746321
  0
LINE
  5
54A
100
AcDbEntity
  8
60420
100
AcDbLine
 62
7
  6
CONTINUOUS
 10
17.6927135287
 20
13.7755955327
 11
17.6927135287
 21
13.7839471876
  0
LINE
  5
54B
100
AcDbEntity
  8
AXIS_COSMETIC_THREADS
100
AcDbLine
 62
7
  6
CONTINUOUS
 10
17.765530155
 20
13.393720803
 11
17.765530155
 21
13.3764002949
  0
LINE
  5
54C
100
AcDbEntity
  8
0
100
AcDbLine
 62
7
  6
CONTINUOUS
 10
17.8502814177
 20
13.4643331706
 11
17.8290682143
 21
13.4537265689
  0
LINE
  5
54D
100
AcDbEntity
  8
0
100
AcDbLine
 62
7
  6
CONTINUOUS
 10
16.2946464991
 20
12.6865157113
 11
16.2734332957
 21
12.6759091096
  0
LINE
  5
54E
100
AcDbEntity
  8
0
100
AcDbLine
 62
7
  6
CONTINUOUS
 10
17.8997788924
 20
13.4643331706
 11
17.875030155
 21
13.4519588019
  0
LINE
  5
54F
100
AcDbEntity
  8
0
100
AcDbLine
 62
7
  6
CONTINUOUS
 10
17.8538169516
 20
13.4413522002
 11
17.8290682143
 21
13.4289778315
  0
LINE
  5
550
100
AcDbEntity
  8
0
100
AcDbLine
 62
7
  6
CONTINUOUS
 10
16.3441439738
 20
12.6865157113
 11
16.3193952364
 21
12.6741413426
  0
LINE
  5
551
100
AcDbEntity
  8
0
100
AcDbLine
 62
7
  6
CONTINUOUS
 10
16.298182033
 20
12.6635347409
 11
16.2734332957
 21
12.6511603722
  0
LINE
  5
552
100
AcDbEntity
  8
0
100
AcDbLine
 62
7
  6
CONTINUOUS
 10
16.2946464991
 20
12.6405537705
 11
16.3193952364
 21
12.6529281392
  0
LINE
  5
553
100
AcDbEntity
  8
0
100
AcDbLine
 62
7
  6
CONTINUOUS
 10
16.3406084399
 20
12.6635347409
 11
16.3653571772
 21
12.6759091096
  0
LINE
  5
554
100
AcDbEntity
  8
0
100
AcDbLine
 62
7
  6
CONTINUOUS
 10
17.8502814177
 20
13.4183712298
 11
17.875030155
 21
13.4307455985
  0
LINE
  5
555
100
AcDbEntity
  8
0
100
AcDbLine
 62
7
  6
CONTINUOUS
 10
17.8962433585
 20
13.4413522002
 11
17.9209920958
 21
13.4537265689
  0
LINE
  5
556
100
AcDbEntity
  8
0
100
AcDbLine
 62
7
  6
CONTINUOUS
 10
17.8962433585
 20
13.4279243875
 11
17.8884579678
 21
13.4240316921
  0
LINE
  5
557
100
AcDbEntity
  8
0
100
AcDbLine
 62
7
  6
CONTINUOUS
 10
16.3406084399
 20
12.6501069282
 11
16.3328230491
 21
12.6462142328
  0
LINE
  5
558
100
AcDbEntity
  8
0
100
AcDbLine
 62
7
  6
CONTINUOUS
 10
16.3441439738
 20
12.6405537705
 11
16.3653571772
 21
12.6511603722
  0
LINE
  5
559
100
AcDbEntity
  8
0
100
AcDbLine
 62
7
  6
CONTINUOUS
 10
17.8997788924
 20
13.4183712298
 11
17.9209920958
 21
13.4289778315
  0
LINE
  5
55A
100
AcDbEntity
  8
SURFACE
100
AcDbLine
 62
7
  6
CONTINUOUS
 10
16.3193952364
 20
14.3845058358
 11
18.1762576438
 21
13.4560746321
  0
LINE
  5
55B
100
AcDbEntity
  8
60420
100
AcDbLine
 62
7
  6
CONTINUOUS
 10
17.6414900453
 20
13.8780424994
 11
17.6286841745
 21
13.8860298329
  0
LINE
  5
55C
100
AcDbEntity
  8
60420
100
AcDbLine
 62
7
  6
CONTINUOUS
 10
17.6414900453
 20
13.8780424994
 11
17.6481713692
 21
13.8730315064
  0
LINE
  5
55D
100
AcDbEntity
  8
0
100
AcDbLine
 62
7
  6
CONTINUOUS
 10
17.8502814177
 20
13.4643331706
 11
17.8502814177
 21
13.4431199672
  0
LINE
  5
55E
100
AcDbEntity
  8
0
100
AcDbLine
 62
7
  6
CONTINUOUS
 10
17.8538169516
 20
13.4413522002
 11
17.8538169516
 21
13.4201389968
  0
LINE
  5
55F
100
AcDbEntity
  8
0
100
AcDbLine
 62
7
  6
CONTINUOUS
 10
17.875030155
 20
13.4519588019
 11
17.875030155
 21
13.4307455985
  0
LINE
  5
560
100
AcDbEntity
  8
0
100
AcDbLine
 62
7
  6
CONTINUOUS
 10
17.8962433585
 20
13.4413522002
 11
17.8962433585
 21
13.4201389968
  0
LINE
  5
561
100
AcDbEntity
  8
0
100
AcDbLine
 62
7
  6
CONTINUOUS
 10
17.8997788924
 20
13.4643331706
 11
17.8997788924
 21
13.4431199672
  0
LINE
  5
562
100
AcDbEntity
  8
SURFACE
100
AcDbLine
 62
7
  6
CONTINUOUS
 10
18.1423165183
 20
13.4730451948
 11
16.2854541109
 21
12.5446139911
  0
LINE
  5
563
100
AcDbEntity
  8
SURFACE
100
AcDbLine
 62
7
  6
CONTINUOUS
 10
18.1762576438
 20
13.4560746321
 11
16.3193952364
 21
12.5276434284
  0
LINE
  5
564
100
AcDbEntity
  8
SURFACE
100
AcDbLine
 62
7
  6
CONTINUOUS
 10
18.1083753928
 20
13.0073073382
 11
18.1083753928
 21
13.009039389
  0
LINE
  5
565
100
AcDbEntity
  8
SURFACE
100
AcDbLine
 62
7
  6
CONTINUOUS
 10
18.1762576438
 20
13.0429805145
 11
18.1762576438
 21
13.4560746321
  0
LINE
  5
566
100
AcDbEntity
  8
0
100
AcDbLine
 62
7
  6
CONTINUOUS
 10
16.3660892325
 20
12.09700762
 11
16.3622729163
 21
12.0948207004
  0
LINE
  5
567
100
AcDbEntity
  8
0
100
AcDbLine
 62
7
  6
CONTINUOUS
 10
16.2871861617
 20
12.1306538481
 11
16.2854541109
 21
12.1297878227
  0
LINE
  5
568
100
AcDbEntity
  8
SURFACE
100
AcDbLine
 62
7
  6
CONTINUOUS
 10
16.3193952364
 20
12.1145493108
 11
16.3872774874
 21
12.1484904363
  0
LINE
  5
569
100
AcDbEntity
  8
SURFACE
100
AcDbLine
 62
7
  6
CONTINUOUS
 10
18.1083753928
 20
13.009039389
 11
18.1762576438
 21
13.0429805145
  0
LINE
  5
56A
100
AcDbEntity
  8
0
100
AcDbLine
 62
7
  6
CONTINUOUS
 10
16.3872774874
 20
12.1467583855
 11
18.1083753928
 21
13.0073073382
  0
LINE
  5
56B
100
AcDbEntity
  8
0
100
AcDbLine
 62
7
  6
CONTINUOUS
 10
18.0871871379
 20
12.9575565728
 11
18.0833708217
 21
12.9553696531
  0
LINE
  5
56C
100
AcDbEntity
  8
0
100
AcDbLine
 62
7
  6
CONTINUOUS
 10
16.3662061715
 20
12.0967737156
 11
18.083425647
 21
12.9553834533
  0
CIRCLE
  5
56D
100
AcDbEntity
  8
0
100
AcDbCircle
 62
7
  6
CONTINUOUS
 10
15.2229827477
 20
1.1139932523
 40
0.252091
  0
CIRCLE
  5
56E
100
AcDbEntity
  8
0
100
AcDbCircle
 62
7
  6
CONTINUOUS
 10
15.2229827477
 20
1.1139932523
 40
0.182698
  0
CIRCLE
  5
56F
100
AcDbEntity
  8
0
100
AcDbCircle
 62
7
  6
CONTINUOUS
 10
14.8013422688
 20
1.8652439144
 40
0.0638444824
  0
ARC
  5
570
100
AcDbEntity
  8
0
100
AcDbCircle
 62
7
  6
CONTINUOUS
 10
3.1227039002
 20
8.5011004991
 40
0.096
100
AcDbArc
 50
180.0
 51
270.0
  0
ARC
  5
571
100
AcDbEntity
  8
0
100
AcDbCircle
 62
7
  6
CONTINUOUS
 10
5.5567039002
 20
8.5011004991
 40
0.096
100
AcDbArc
 50
270.0
 51
360.0
  0
ARC
  5
572
100
AcDbEntity
  8
0
100
AcDbCircle
 62
7
  6
CONTINUOUS
 10
3.1227039002
 20
8.5011004991
 40
0.048
100
AcDbArc
 50
180.0
 51
270.0
  0
ARC
  5
573
100
AcDbEntity
  8
0
100
AcDbCircle
 62
7
  6
CONTINUOUS
 10
5.5567039002
 20
8.5011004991
 40
0.048
100
AcDbArc
 50
270.0
 51
360.0
  0
CIRCLE
  5
574
100
AcDbEntity
  8
AXIS_COSMETIC_THREADS
100
AcDbCircle
 62
7
  6
CONTINUOUS
 10
5.4397039002
 20
13.2689196319
 40
0.1095
  0
CIRCLE
  5
575
100
AcDbEntity
  8
AXIS_COSMETIC_THREADS
100
AcDbCircle
 62
7
  6
CONTINUOUS
 10
5.4397039002
 20
11.0689196319
 40
0.1095
  0
CIRCLE
  5
576
100
AcDbEntity
  8
AXIS_COSMETIC_THREADS
100
AcDbCircle
 62
7
  6
CONTINUOUS
 10
3.2397039002
 20
13.2689196319
 40
0.1095
  0
CIRCLE
  5
577
100
AcDbEntity
  8
AXIS_COSMETIC_THREADS
100
AcDbCircle
 62
7
  6
CONTINUOUS
 10
3.2397039002
 20
11.0689196319
 40
0.1095
  0
CIRCLE
  5
578
100
AcDbEntity
  8
AXIS_COSMETIC_THREADS
100
AcDbCircle
 62
7
  6
CONTINUOUS
 10
5.4397039002
 20
13.2689196319
 40
0.0734791576
  0
CIRCLE
  5
579
100
AcDbEntity
  8
AXIS_COSMETIC_THREADS
100
AcDbCircle
 62
7
  6
CONTINUOUS
 10
5.4397039002
 20
11.0689196319
 40
0.0734791576
  0
CIRCLE
  5
57A
100
AcDbEntity
  8
AXIS_COSMETIC_THREADS
100
AcDbCircle
 62
7
  6
CONTINUOUS
 10
3.2397039002
 20
13.2689196319
 40
0.0734791576
  0
CIRCLE
  5
57B
100
AcDbEntity
  8
AXIS_COSMETIC_THREADS
100
AcDbCircle
 62
7
  6
CONTINUOUS
 10
3.2397039002
 20
11.0689196319
 40
0.0734791576
  0
CIRCLE
  5
57C
100
AcDbEntity
  8
AXIS_COSMETIC_THREADS
100
AcDbCircle
 62
7
  6
CONTINUOUS
 10
4.3397039002
 20
5.4399367964
 40
0.172
  0
CIRCLE
  5
57D
100
AcDbEntity
  8
0
100
AcDbCircle
 62
7
  6
CONTINUOUS
 10
4.3397039002
 20
5.4399367964
 40
0.125
  0
CIRCLE
  5
57E
100
AcDbEntity
  8
AXIS_COSMETIC_THREADS
100
AcDbCircle
 62
7
  6
CONTINUOUS
 10
3.2397039002
 20
6.5399367964
 40
0.088
  0
CIRCLE
  5
57F
100
AcDbEntity
  8
AXIS_COSMETIC_THREADS
100
AcDbCircle
 62
7
  6
CONTINUOUS
 10
5.4397039002
 20
6.5399367964
 40
0.088
  0
CIRCLE
  5
580
100
AcDbEntity
  8
AXIS_COSMETIC_THREADS
100
AcDbCircle
 62
7
  6
CONTINUOUS
 10
5.4397039002
 20
4.3399367964
 40
0.088
  0
CIRCLE
  5
581
100
AcDbEntity
  8
AXIS_COSMETIC_THREADS
100
AcDbCircle
 62
7
  6
CONTINUOUS
 10
3.2397039002
 20
4.3399367964
 40
0.088
  0
CIRCLE
  5
582
100
AcDbEntity
  8
0
100
AcDbCircle
 62
7
  6
CONTINUOUS
 10
3.2397039002
 20
4.3399367964
 40
0.0755000002
  0
CIRCLE
  5
583
100
AcDbEntity
  8
0
100
AcDbCircle
 62
7
  6
CONTINUOUS
 10
5.4397039002
 20
4.3399367964
 40
0.0755000002
  0
CIRCLE
  5
584
100
AcDbEntity
  8
0
100
AcDbCircle
 62
7
  6
CONTINUOUS
 10
3.2397039002
 20
6.5399367964
 40
0.0755000002
  0
CIRCLE
  5
585
100
AcDbEntity
  8
0
100
AcDbCircle
 62
7
  6
CONTINUOUS
 10
5.4397039002
 20
6.5399367964
 40
0.0755000002
  0
CIRCLE
  5
586
100
AcDbEntity
  8
60420
100
AcDbCircle
 62
7
  6
CONTINUOUS
 10
14.722897594
 20
8.6301004991
 40
0.1200787402
  0
ARC
  5
587
100
AcDbEntity
  8
0
100
AcDbCircle
 62
7
  6
CONTINUOUS
 10
13.505897594
 20
8.5011004991
 40
0.096
100
AcDbArc
 50
180.0
 51
270.0
  0
ARC
  5
588
100
AcDbEntity
  8
0
100
AcDbCircle
 62
7
  6
CONTINUOUS
 10
15.939897594
 20
8.5011004991
 40
0.096
100
AcDbArc
 50
270.0
 51
360.0
  0
CIRCLE
  5
589
100
AcDbEntity
  8
60420
100
AcDbCircle
 62
7
  6
CONTINUOUS
 10
14.722897594
 20
8.6301004991
 40
0.0905511811
  0
CIRCLE
  5
58A
100
AcDbEntity
  8
AXIS
100
AcDbCircle
 62
7
  6
CONTINUOUS
 10
14.722897594
 20
8.6301004991
 40
0.09
  0
ARC
  5
58B
100
AcDbEntity
  8
0
100
AcDbCircle
 62
7
  6
CONTINUOUS
 10
13.505897594
 20
8.5011004991
 40
0.048
100
AcDbArc
 50
180.0
 51
270.0
  0
ARC
  5
58C
100
AcDbEntity
  8
0
100
AcDbCircle
 62
7
  6
CONTINUOUS
 10
15.939897594
 20
8.5011004991
 40
0.048
100
AcDbArc
 50
270.0
 51
360.0
  0
CIRCLE
  5
58D
100
AcDbEntity
  8
AXIS
100
AcDbCircle
 62
7
  6
CONTINUOUS
 10
14.697897594
 20
8.6301004991
 40
0.025
  0
CIRCLE
  5
58E
100
AcDbEntity
  8
AXIS
100
AcDbCircle
 62
7
  6
CONTINUOUS
 10
14.7486456255
 20
8.6301004991
 40
0.025
  0
CIRCLE
  5
58F
100
AcDbEntity
  8
AXIS
100
AcDbCircle
 62
7
  6
CONTINUOUS
 10
14.7486456255
 20
8.6301004991
 40
0.01
  0
CIRCLE
  5
590
100
AcDbEntity
  8
AXIS
100
AcDbCircle
 62
7
  6
CONTINUOUS
 10
14.697897594
 20
8.6301004991
 40
0.01
  0
ARC
  5
591
100
AcDbEntity
  8
AXIS_COSMETIC_THREADS
100
AcDbCircle
 62
7
  6
CONTINUOUS
 10
16.3193961289
 20
14.0973047539
 40
0.1589834945
100
AcDbArc
 50
89.1180498162
 51
90.0357443418
  0
ARC
  5
592
100
AcDbEntity
  8
AXIS
100
AcDbCircle
 62
7
  6
CONTINUOUS
 10
19.5038309991
 20
14.7451861721
 40
0.1467064353
100
AcDbArc
 50
23.1367643973
 51
30.1558558035
  0
ARC
  5
593
100
AcDbEntity
  8
60420
100
AcDbCircle
 62
7
  6
CONTINUOUS
 10
17.5795911711
 20
13.795715505
 40
0.1030010171
100
AcDbArc
 50
48.4986262482
 51
53.0617425475
  0
ARC
  5
594
100
AcDbEntity
  8
60420
100
AcDbCircle
 62
7
  6
CONTINUOUS
 10
17.5917065666
 20
13.7755517807
 40
0.1010069715
100
AcDbArc
 50
0.0248181312
 51
4.6743877511
  0
ARC
  5
595
100
AcDbEntity
  8
AXIS
100
AcDbCircle
 62
7
  6
CONTINUOUS
 10
17.662116273
 20
13.7616430997
 40
0.0339330817
100
AcDbArc
 50
292.3646743249
 51
296.5667989222
  0
ARC
  5
596
100
AcDbEntity
  8
AXIS
100
AcDbCircle
 62
7
  6
CONTINUOUS
 10
17.6119384833
 20
13.861969534
 40
0.0338892457
100
AcDbArc
 50
116.5719081349
 51
121.4129235376
  0
SPLINE
  5
597
100
AcDbEntity
  8
AXIS_COSMETIC_THREADS
100
AcDbSpline
 62
7
  6
CONTINUOUS
 70
0
 71
3
 72
23
 73
19
 74
0
 42
0.0000001
 43
0.0000001
 44
0.0000000001
 40
0.0
 40
0.0
 40
0.0
 40
0.0
 40
0.0791654767
 40
0.1559402809
 40
0.2302459295
 40
0.3020456748
 40
0.3713502915
 40
0.4381921367
 40
0.5026280145
 40
0.5647403629
 40
0.6246464739
 40
0.6825036576
 40
0.7385037853
 40
0.7928795952
 40
0.8458998734
 40
0.8978676917
 40
0.9491165965
 40
1.0
 40
1.0
 40
1.0
 40
1.0
 10
16.2419670439
 20
14.115503658
 30
0.0
 10
16.2407194624
 20
14.1161274487
 30
0.0
 10
16.2382854421
 20
14.1174039389
 30
0.0
 10
16.2347731822
 20
14.1194364441
 30
0.0
 10
16.2314637466
 20
14.1215530023
 30
0.0
 10
16.2283658998
 20
14.1237483905
 30
0.0
 10
16.2254868225
 20
14.1260171444
 30
0.0
 10
16.2228333775
 20
14.1283543622
 30
0.0
 10
16.2204116708
 20
14.1307543707
 30
0.0
 10
16.2182276912
 20
14.1332116582
 30
0.0
 10
16.2162870577
 20
14.1357206349
 30
0.0
 10
16.2145942625
 20
14.1382751776
 30
0.0
 10
16.2131540068
 20
14.1408696003
 30
0.0
 10
16.2119698701
 20
14.143497602
 30
0.0
 10
16.2110450679
 20
14.1461528513
 30
0.0
 10
16.210382655
 20
14.1488289941
 30
0.0
 10
16.2099840984
 20
14.1515187921
 30
0.0
 10
16.2098953046
 20
14.1533195262
 30
0.0
 10
16.2098952769
 20
14.154216055
 30
0.0
  0
SPLINE
  5
598
100
AcDbEntity
  8
AXIS_COSMETIC_THREADS
100
AcDbSpline
 62
7
  6
CONTINUOUS
 70
0
 71
3
 72
11
 73
7
 74
0
 42
0.0000001
 43
0.0000001
 44
0.0000000001
 40
0.0
 40
0.0
 40
0.0
 40
0.0
 40
0.2353807936
 40
0.4810965385
 40
0.7362571461
 40
1.0
 40
1.0
 40
1.0
 40
1.0
 10
16.2419670439
 20
14.115503658
 30
0.0
 10
16.2440483739
 20
14.114462993
 30
0.0
 10
16.2483717877
 20
14.1124725634
 30
0.0
 10
16.2551503607
 20
14.109811538
 30
0.0
 10
16.2623263047
 20
14.1074251889
 30
0.0
 10
16.2672703222
 20
14.1060481219
 30
0.0
 10
16.2697974463
 20
14.1054061606
 30
0.0
  0
SPLINE
  5
599
100
AcDbEntity
  8
AXIS_COSMETIC_THREADS
100
AcDbSpline
 62
7
  6
CONTINUOUS
 70
0
 71
3
 72
18
 73
14
 74
0
 42
0.0000001
 43
0.0000001
 44
0.0000000001
 40
0.0
 40
0.0
 40
0.0
 40
0.0
 40
0.1204687093
 40
0.2447728419
 40
0.3716915365
 40
0.4999361181
 40
0.6281860366
 40
0.6919064286
 40
0.7551347796
 40
0.8177111923
 40
0.8794803045
 40
0.9402910796
 40
1.0
 40
1.0
 40
1.0
 40
1.0
 10
16.2697974463
 20
14.1054061606
 30
0.0
 10
16.2736914671
 20
14.1044169687
 30
0.0
 10
16.2816763841
 20
14.1026853451
 30
0.0
 10
16.2939418224
 20
14.1008389712
 30
0.0
 10
16.3065554405
 20
14.0997195554
 30
0.0
 10
16.3193440254
 20
14.0993427524
 30
0.0
 10
16.3300256163
 20
14.09965241
 30
0.0
 10
16.3385147278
 20
14.1002769702
 30
0.0
 10
16.3448027204
 20
14.1009296862
 30
0.0
 10
16.3510032973
 20
14.1017656139
 30
0.0
 10
16.3570952826
 20
14.1027815687
 30
0.0
 10
16.3630575862
 20
14.1039744102
 30
0.0
 10
16.3669713844
 20
14.1048937181
 30
0.0
 10
16.368901683
 20
14.1053829263
 30
0.0
  0
SPLINE
  5
59A
100
AcDbEntity
  8
AXIS_COSMETIC_THREADS
100
AcDbSpline
 62
7
  6
CONTINUOUS
 70
0
 71
3
 72
26
 73
22
 74
0
 42
0.0000001
 43
0.0000001
 44
0.0000000001
 40
0.0
 40
0.0
 40
0.0
 40
0.0
 40
0.082900096
 40
0.1634878895
 40
0.2415375599
 40
0.3168532301
 40
0.3892699713
 40
0.4586616079
 40
0.5249458675
 40
0.5880907081
 40
0.6481249466
 40
0.7051432276
 40
0.7593207839
 40
0.7854304116
 40
0.810935372
 40
0.8603046199
 40
0.9078946709
 40
0.9311997846
 40
0.9542670446
 40
0.9771738958
 40
1.0
 40
1.0
 40
1.0
 40
1.0
 10
16.368901683
 20
14.1053829263
 30
0.0
 10
16.3711145248
 20
14.1059437413
 30
0.0
 10
16.3754569014
 20
14.1071374334
 30
0.0
 10
16.3817909359
 20
14.1091734612
 30
0.0
 10
16.3878304983
 20
14.1114224338
 30
0.0
 10
16.3935471599
 20
14.1138734237
 30
0.0
 10
16.3989140398
 20
14.1165152435
 30
0.0
 10
16.403906019
 20
14.1193354929
 30
0.0
 10
16.4084997467
 20
14.1223211769
 30
0.0
 10
16.4126735984
 20
14.1254587805
 30
0.0
 10
16.4164082199
 20
14.1287339644
 30
0.0
 10
16.4196853621
 20
14.1321321768
 30
0.0
 10
16.4220511744
 20
14.135090025
 30
0.0
 10
16.423688845
 20
14.1375008364
 30
0.0
 10
16.4251260062
 20
14.1398827479
 30
0.0
 10
16.4266246301
 20
14.1429127429
 30
0.0
 10
16.4277213624
 20
14.1460477998
 30
0.0
 10
16.4283316179
 20
14.1485639025
 30
0.0
 10
16.4286566974
 20
14.150445267
 30
0.0
 10
16.4288518166
 20
14.152331127
 30
0.0
 10
16.4288952153
 20
14.1535908962
 30
0.0
 10
16.4288951959
 20
14.1542194535
 30
0.0
  0
SPLINE
  5
59B
100
AcDbEntity
  8
AXIS_COSMETIC_THREADS
100
AcDbSpline
 62
7
  6
CONTINUOUS
 70
0
 71
3
 72
13
 73
9
 74
0
 42
0.0000001
 43
0.0000001
 44
0.0000000001
 40
0.0
 40
0.0
 40
0.0
 40
0.0
 40
0.2505113081
 40
0.3756644796
 40
0.5007712466
 40
0.6258073349
 40
0.7507278428
 40
1.0
 40
1.0
 40
1.0
 40
1.0
 10
16.2098952364
 20
14.1715382623
 30
0.0
 10
16.2098952364
 20
14.1741648328
 30
0.0
 10
16.2101103733
 20
14.1781080257
 30
0.0
 10
16.210822384
 20
14.183311777
 30
0.0
 10
16.2115667165
 20
14.1871777381
 30
0.0
 10
16.2125170535
 20
14.1909957076
 30
0.0
 10
16.2140512611
 20
14.1960019536
 30
0.0
 10
16.2155002111
 20
14.1996582492
 30
0.0
 10
16.2165879963
 20
14.2020346992
 30
0.0
  0
SPLINE
  5
59C
100
AcDbEntity
  8
AXIS_COSMETIC_THREADS
100
AcDbSpline
 62
7
  6
CONTINUOUS
 70
0
 71
3
 72
28
 73
24
 74
0
 42
0.0000001
 43
0.0000001
 44
0.0000000001
 40
0.0
 40
0.0
 40
0.0
 40
0.0
 40
0.0309936032
 40
0.0619338131
 40
0.092820173
 40
0.1236527541
 40
0.1544277755
 40
0.1851459638
 40
0.2464273018
 40
0.2770123321
 40
0.3075693152
 40
0.3686554526
 40
0.429811037
 40
0.4911956056
 40
0.5529547721
 40
0.6152094049
 40
0.6465564846
 40
0.678056581
 40
0.7415050814
 40
0.8055337538
 40
0.8700546574
 40
0.934932715
 40
1.0
 40
1.0
 40
1.0
 40
1.0
 10
16.2165879963
 20
14.2020346992
 30
0.0
 10
16.2171152274
 20
14.2031865244
 30
0.0
 10
16.2182269596
 20
14.2054620675
 30
0.0
 10
16.2200615521
 20
14.208784377
 30
0.0
 10
16.2220540613
 20
14.2120067672
 30
0.0
 10
16.2241960447
 20
14.2151234783
 30
0.0
 10
16.2264798686
 20
14.2181292518
 30
0.0
 10
16.22970026
 20
14.2219793553
 30
0.0
 10
16.2331754516
 20
14.2255994627
 30
0.0
 10
16.2368701479
 20
14.2289754341
 30
0.0
 10
16.2406989071
 20
14.2321864524
 30
0.0
 10
16.2457288668
 20
14.2359002598
 30
0.0
 10
16.2521002586
 20
14.2398796413
 30
0.0
 10
16.2587692436
 20
14.2433953733
 30
0.0
 10
16.2657028008
 20
14.2464656616
 30
0.0
 10
16.2716662458
 20
14.2486597898
 30
0.0
 10
16.2765404587
 20
14.2502064729
 30
0.0
 10
16.2815049433
 20
14.2516227612
 30
0.0
 10
16.2878279703
 20
14.2531351119
 30
0.0
 10
16.2955519627
 20
14.254541024
 30
0.0
 10
16.3033972037
 20
14.255545729
 30
0.0
 10
16.3113255847
 20
14.2561501142
 30
0.0
 10
16.3166375445
 20
14.2562865606
 30
0.0
 10
16.3192969461
 20
14.2562882175
 30
0.0
  0
SPLINE
  5
59D
100
AcDbEntity
  8
AXIS_COSMETIC_THREADS
100
AcDbSpline
 62
7
  6
CONTINUOUS
 70
0
 71
3
 72
15
 73
11
 74
0
 42
0.0000001
 43
0.0000001
 44
0.0000000001
 40
0.0
 40
0.0
 40
0.0
 40
0.0
 40
0.1280270103
 40
0.255595693
 40
0.3823918981
 40
0.508169383
 40
0.6327714953
 40
0.7562526296
 40
0.8786908225
 40
1.0
 40
1.0
 40
1.0
 40
1.0
 10
16.3218432548
 20
14.2562694138
 30
0.0
 10
16.324463647
 20
14.2562290723
 30
0.0
 10
16.3296940012
 20
14.2560191888
 30
0.0
 10
16.3374929803
 20
14.255315302
 30
0.0
 10
16.3452008075
 20
14.2542220321
 30
0.0
 10
16.3527813763
 20
14.2527383329
 30
0.0
 10
16.3602045693
 20
14.2508612003
 30
0.0
 10
16.367443177
 20
14.2485818661
 30
0.0
 10
16.3744683041
 20
14.2458942737
 30
0.0
 10
16.3790088058
 20
14.2438153026
 30
0.0
 10
16.3812298378
 20
14.2427047866
 30
0.0
  0
SPLINE
  5
59E
100
AcDbEntity
  8
AXIS_COSMETIC_THREADS
100
AcDbSpline
 62
7
  6
CONTINUOUS
 70
0
 71
3
 72
18
 73
14
 74
0
 42
0.0000001
 43
0.0000001
 44
0.0000000001
 40
0.0
 40
0.0
 40
0.0
 40
0.0
 40
0.1249821289
 40
0.2493653461
 40
0.3737060985
 40
0.4982056506
 40
0.623005359
 40
0.6855590379
 40
0.7482258844
 40
0.8110101169
 40
0.8739022048
 40
0.9368992669
 40
1.0
 40
1.0
 40
1.0
 40
1.0
 10
16.3812298378
 20
14.2427047866
 30
0.0
 10
16.3834242296
 20
14.2416075907
 30
0.0
 10
16.3877306367
 20
14.2392704408
 30
0.0
 10
16.3939134529
 20
14.2353102343
 30
0.0
 10
16.3997683446
 20
14.2308933114
 30
0.0
 10
16.4052529515
 20
14.2260110648
 30
0.0
 10
16.409465376
 20
14.2215572389
 30
0.0
 10
16.4125920144
 20
14.2177723388
 30
0.0
 10
16.4148103636
 20
14.2148212052
 30
0.0
 10
16.416892323
 20
14.2117643227
 30
0.0
 10
16.4188308097
 20
14.208606792
 30
0.0
 10
16.4206179866
 20
14.2053541766
 30
0.0
 10
16.4217028285
 20
14.2031279434
 30
0.0
 10
16.4222178331
 20
14.2020014116
 30
0.0
  0
SPLINE
  5
59F
100
AcDbEntity
  8
AXIS_COSMETIC_THREADS
100
AcDbSpline
 62
7
  6
CONTINUOUS
 70
0
 71
3
 72
13
 73
9
 74
0
 42
0.0000001
 43
0.0000001
 44
0.0000000001
 40
0.0
 40
0.0
 40
0.0
 40
0.0
 40
0.2492495214
 40
0.3741687579
 40
0.499207224
 40
0.6243180595
 40
0.7494774078
 40
1.0
 40
1.0
 40
1.0
 40
1.0
 10
16.4222178331
 20
14.2020014116
 30
0.0
 10
16.4233031225
 20
14.1996274271
 30
0.0
 10
16.4247486068
 20
14.1959749719
 30
0.0
 10
16.4262791928
 20
14.1909742377
 30
0.0
 10
16.4272274764
 20
14.1871604283
 30
0.0
 10
16.4279701827
 20
14.1832986906
 30
0.0
 10
16.4286805615
 20
14.1781006649
 30
0.0
 10
16.4288952364
 20
14.1741618926
 30
0.0
 10
16.4288952364
 20
14.1715382623
 30
0.0
  0
SPLINE
  5
5A0
100
AcDbEntity
  8
AXIS_COSMETIC_THREADS
100
AcDbSpline
 62
7
  6
CONTINUOUS
 70
0
 71
3
 72
43
 73
39
 74
0
 42
0.0000001
 43
0.0000001
 44
0.0000000001
 40
0.0
 40
0.0
 40
0.0
 40
0.0
 40
0.0306642597
 40
0.0625953553
 40
0.0956908143
 40
0.1298542652
 40
0.1649734537
 40
0.2009216822
 40
0.2375644599
 40
0.2747611385
 40
0.3123645931
 40
0.3502241168
 40
0.3881864097
 40
0.4260973128
 40
0.4638030156
 40
0.5011517948
 40
0.5379953431
 40
0.5741902298
 40
0.6095999924
 40
0.64409585
 40
0.6775599515
 40
0.7098858643
 40
0.7409820341
 40
0.7707738905
 40
0.7992062876
 40
0.8262484732
 40
0.8518960291
 40
0.8761776469
 40
0.8991586467
 40
0.9101973925
 40
0.9209551663
 40
0.9417047669
 40
0.9517568113
 40
0.9616291774
 40
0.9713542191
 40
0.9809664563
 40
0.9905024442
 40
1.0
 40
1.0
 40
1.0
 40
1.0
 10
16.2419670439
 20
14.132824166
 30
0.0
 10
16.2439081803
 20
14.1318535978
 30
0.0
 10
16.2479309168
 20
14.1299911074
 30
0.0
 10
16.2542236772
 20
14.1274798657
 30
0.0
 10
16.2608685156
 20
14.1252065767
 30
0.0
 10
16.2678287079
 20
14.1231834924
 30
0.0
 10
16.2750672345
 20
14.1214211087
 30
0.0
 10
16.2825451877
 20
14.1199293316
 30
0.0
 10
16.2902220932
 20
14.1187158893
 30
0.0
 10
16.2980565693
 20
14.1177876283
 30
0.0
 10
16.3060063165
 20
14.1171493736
 30
0.0
 10
16.3140283917
 20
14.1168046334
 30
0.0
 10
16.322079463
 20
14.1167554021
 30
0.0
 10
16.3301160339
 20
14.1170016783
 30
0.0
 10
16.3380946806
 20
14.1175424605
 30
0.0
 10
16.3459723219
 20
14.1183745213
 30
0.0
 10
16.3537064053
 20
14.1194935277
 30
0.0
 10
16.3612551861
 20
14.1208934247
 30
0.0
 10
16.3685779697
 20
14.1225664674
 30
0.0
 10
16.3756352305
 20
14.1245039367
 30
0.0
 10
16.3823890486
 20
14.1266950378
 30
0.0
 10
16.3888030368
 20
14.1291282965
 30
0.0
 10
16.3948428048
 20
14.131790542
 30
0.0
 10
16.400476019
 20
14.134667557
 30
0.0
 10
16.4056724384
 20
14.1377443913
 30
0.0
 10
16.4104044736
 20
14.1410045549
 30
0.0
 10
16.4146466399
 20
14.144431707
 30
0.0
 10
16.4183760339
 20
14.1480077333
 30
0.0
 10
16.4210752807
 20
14.1511387784
 30
0.0
 10
16.4229457397
 20
14.1536989499
 30
0.0
 10
16.424584095
 20
14.1562267379
 30
0.0
 10
16.425967284
 20
14.158832687
 30
0.0
 10
16.4270628912
 20
14.1614966006
 30
0.0
 10
16.4277300427
 20
14.1634879387
 30
0.0
 10
16.4282500931
 20
14.165490496
 30
0.0
 10
16.4286220804
 20
14.1675016765
 30
0.0
 10
16.4288454325
 20
14.1695184594
 30
0.0
 10
16.4288951749
 20
14.1708660748
 30
0.0
 10
16.4288951959
 20
14.1715382623
 30
0.0
  0
SPLINE
  5
5A1
100
AcDbEntity
  8
AXIS_COSMETIC_THREADS
100
AcDbSpline
 62
7
  6
CONTINUOUS
 70
0
 71
3
 72
23
 73
19
 74
0
 42
0.0000001
 43
0.0000001
 44
0.0000000001
 40
0.0
 40
0.0
 40
0.0
 40
0.0
 40
0.0791660154
 40
0.1559412427
 40
0.2302471936
 40
0.3020471233
 40
0.3713518107
 40
0.4381936199
 40
0.5026293655
 40
0.5647414994
 40
0.6246473367
 40
0.6825042126
 40
0.7385040291
 40
0.7928795612
 40
0.8458996337
 40
0.8978673616
 40
0.9491163329
 40
1.0
 40
1.0
 40
1.0
 40
1.0
 10
16.2419670439
 20
14.132824166
 30
0.0
 10
16.2407194139
 20
14.133447981
 30
0.0
 10
16.2382853012
 20
14.134724522
 30
0.0
 10
16.2347729142
 20
14.1367571124
 30
0.0
 10
16.2314633681
 20
14.1388737622
 30
0.0
 10
16.2283654286
 20
14.1410692475
 30
0.0
 10
16.2254862766
 20
14.1433381035
 30
0.0
 10
16.2228327762
 20
14.1456754279
 30
0.0
 10
16.2204110337
 20
14.1480755466
 30
0.0
 10
16.2182270387
 20
14.1505329474
 30
0.0
 10
16.2162864105
 20
14.1530420397
 30
0.0
 10
16.2145936419
 20
14.1555966997
 30
0.0
 10
16.2131534343
 20
14.1581912405
 30
0.0
 10
16.2119693675
 20
14.1608193603
 30
0.0
 10
16.2110446572
 20
14.163474727
 30
0.0
 10
16.2103823582
 20
14.1661509856
 30
0.0
 10
16.2099839373
 20
14.1688408967
 30
0.0
 10
16.2098952489
 20
14.1706417001
 30
0.0
 10
16.2098952769
 20
14.1715382623
 30
0.0
  0
SPLINE
  5
5A2
100
AcDbEntity
  8
AXIS_COSMETIC_THREADS
100
AcDbSpline
 62
7
  6
CONTINUOUS
 70
0
 71
3
 72
14
 73
10
 74
0
 42
0.0000001
 43
0.0000001
 44
0.0000000001
 40
0.0
 40
0.0
 40
0.0
 40
0.0
 40
0.1130193456
 40
0.2300146337
 40
0.3507061309
 40
0.4748317954
 40
0.6021351788
 40
0.7323268231
 40
1.0
 40
1.0
 40
1.0
 40
1.0
 10
16.2674376258
 20
14.1931908542
 30
0.0
 10
16.2685191879
 20
14.1926500731
 30
0.0
 10
16.2707481777
 20
14.1916043912
 30
0.0
 10
16.2742152884
 20
14.1901665437
 30
0.0
 10
16.2778523472
 20
14.1888375504
 30
0.0
 10
16.2816449079
 20
14.1876226096
 30
0.0
 10
16.2855790194
 20
14.1865260793
 30
0.0
 10
16.29104383
 20
14.1852154535
 30
0.0
 10
16.2952341321
 20
14.1844415121
 30
0.0
 10
16.2980656553
 20
14.1840120637
 30
0.0
  0
SPLINE
  5
5A3
100
AcDbEntity
  8
AXIS_COSMETIC_THREADS
100
AcDbSpline
 62
7
  6
CONTINUOUS
 70
0
 71
3
 72
11
 73
7
 74
0
 42
0.0000001
 43
0.0000001
 44
0.0000000001
 40
0.0
 40
0.0
 40
0.0
 40
0.0
 40
0.2479620245
 40
0.4999997719
 40
0.7520373258
 40
1.0
 40
1.0
 40
1.0
 40
1.0
 10
16.2980656553
 20
14.1840120637
 30
0.0
 10
16.3015637691
 20
14.1834815156
 30
0.0
 10
16.3086624857
 20
14.1826911215
 30
0.0
 10
16.3193952223
 20
14.1822985576
 30
0.0
 10
16.3301279691
 20
14.1826911137
 30
0.0
 10
16.3372266909
 20
14.1834815199
 30
0.0
 10
16.3407248137
 20
14.1840120701
 30
0.0
  0
SPLINE
  5
5A4
100
AcDbEntity
  8
AXIS_COSMETIC_THREADS
100
AcDbSpline
 62
7
  6
CONTINUOUS
 70
0
 71
3
 72
25
 73
21
 74
0
 42
0.0000001
 43
0.0000001
 44
0.0000000001
 40
0.0
 40
0.0
 40
0.0
 40
0.0
 40
0.0817349313
 40
0.1617618101
 40
0.2397735404
 40
0.3154845159
 40
0.3886384045
 40
0.4590111585
 40
0.5264186274
 40
0.5907233211
 40
0.6518416929
 40
0.7097563108
 40
0.7645231711
 40
0.816289291
 40
0.8652991414
 40
0.9119119214
 40
0.9344749124
 40
0.9566255582
 40
0.978440159
 40
1.0
 40
1.0
 40
1.0
 40
1.0
 10
16.3407248137
 20
14.1840120701
 30
0.0
 10
16.3424744657
 20
14.1842774348
 30
0.0
 10
16.3459272153
 20
14.1848715458
 30
0.0
 10
16.3510037321
 20
14.1859647501
 30
0.0
 10
16.3559017772
 20
14.1872453117
 30
0.0
 10
16.3605935693
 20
14.1887063105
 30
0.0
 10
16.3650527934
 20
14.1903392705
 30
0.0
 10
16.3692543301
 20
14.1921352264
 30
0.0
 10
16.3731746543
 20
14.1940840636
 30
0.0
 10
16.3767918197
 20
14.1961750179
 30
0.0
 10
16.3800855625
 20
14.1983967125
 30
0.0
 10
16.3830375647
 20
14.2007369818
 30
0.0
 10
16.3856309975
 20
14.2031835881
 30
0.0
 10
16.3878513168
 20
14.2057235058
 30
0.0
 10
16.3896847313
 20
14.2083434798
 30
0.0
 10
16.3908940706
 20
14.2106070695
 30
0.0
 10
16.3916475983
 20
14.212436602
 30
0.0
 10
16.392104064
 20
14.2138040642
 30
0.0
 10
16.3924571803
 20
14.2151793006
 30
0.0
 10
16.3926240844
 20
14.2161044851
 30
0.0
 10
16.3926897369
 20
14.2165666421
 30
0.0
  0
SPLINE
  5
5A5
100
AcDbEntity
  8
AXIS_COSMETIC_THREADS
100
AcDbSpline
 62
7
  6
CONTINUOUS
 70
0
 71
3
 72
22
 73
18
 74
0
 42
0.0000001
 43
0.0000001
 44
0.0000000001
 40
0.0
 40
0.0
 40
0.0
 40
0.0
 40
0.0517848378
 40
0.1034260334
 40
0.1553652866
 40
0.2080344484
 40
0.2618377748
 40
0.3171444515
 40
0.4334045457
 40
0.4949591421
 40
0.5590057466
 40
0.6256690709
 40
0.6950371408
 40
0.7671630315
 40
0.842069152
 40
0.9197121071
 40
1.0
 40
1.0
 40
1.0
 40
1.0
 10
16.3926897369
 20
14.2165666421
 30
0.0
 10
16.3927821766
 20
14.2172173655
 30
0.0
 10
16.3928983806
 20
14.2185278483
 30
0.0
 10
16.3928612481
 20
14.2205030127
 30
0.0
 10
16.3926119909
 20
14.2224742311
 30
0.0
 10
16.3921513721
 20
14.224434949
 30
0.0
 10
16.3914815203
 20
14.2263795663
 30
0.0
 10
16.3902928249
 20
14.2289852488
 30
0.0
 10
16.3886973147
 20
14.231497043
 30
0.0
 10
16.3867629965
 20
14.2338827766
 30
0.0
 10
16.3850919731
 20
14.2356641448
 30
0.0
 10
16.3832337284
 20
14.2373973365
 30
0.0
 10
16.3811931716
 20
14.2390778898
 30
0.0
 10
16.3789761383
 20
14.2407014246
 30
0.0
 10
16.3765886968
 20
14.2422630781
 30
0.0
 10
16.3740385149
 20
14.2437583634
 30
0.0
 10
16.3722642854
 20
14.2446927457
 30
0.0
 10
16.3713528471
 20
14.2451484648
 30
0.0
  0
SPLINE
  5
5A6
100
AcDbEntity
  8
AXIS_COSMETIC_THREADS
100
AcDbSpline
 62
7
  6
CONTINUOUS
 70
0
 71
3
 72
19
 73
15
 74
0
 42
0.0000001
 43
0.0000001
 44
0.0000000001
 40
0.0
 40
0.0
 40
0.0
 40
0.0
 40
0.1535427744
 40
0.2983527034
 40
0.3674149062
 40
0.4342574546
 40
0.5614048624
 40
0.6803753161
 40
0.737098381
 40
0.7921644904
 40
0.8457599113
 40
0.8980991942
 40
0.9494248347
 40
1.0
 40
1.0
 40
1.0
 40
1.0
 10
16.2674376258
 20
14.1931908542
 30
0.0
 10
16.265933564
 20
14.1939428851
 30
0.0
 10
16.2630603587
 20
14.1955061789
 30
0.0
 10
16.2596851667
 20
14.1977065726
 30
0.0
 10
16.2572302692
 20
14.1995591356
 30
0.0
 10
16.2550161561
 20
14.2014037886
 30
0.0
 10
16.2525514282
 20
14.2037955872
 30
0.0
 10
16.2504517003
 20
14.2063754954
 30
0.0
 10
16.2490637227
 20
14.2084896954
 30
0.0
 10
16.2481791997
 20
14.2100722208
 30
0.0
 10
16.2474367729
 20
14.211673509
 30
0.0
 10
16.2468382531
 20
14.213290536
 30
0.0
 10
16.2463847501
 20
14.2149197304
 30
0.0
 10
16.2461786391
 20
14.2160182514
 30
0.0
 10
16.2461007359
 20
14.2165666421
 30
0.0
  0
SPLINE
  5
5A7
100
AcDbEntity
  8
AXIS_COSMETIC_THREADS
100
AcDbSpline
 62
7
  6
CONTINUOUS
 70
0
 71
3
 72
30
 73
26
 74
0
 42
0.0000001
 43
0.0000001
 44
0.0000000001
 40
0.0
 40
0.0
 40
0.0
 40
0.0
 40
0.0206431295
 40
0.0412243712
 40
0.0619055576
 40
0.0828456233
 40
0.1041943856
 40
0.1260897404
 40
0.1719526047
 40
0.1961513743
 40
0.2212807637
 40
0.2745019158
 40
0.302679777
 40
0.3319117652
 40
0.362197786
 40
0.393524983
 40
0.4591992853
 40
0.5286875174
 40
0.5647553331
 40
0.6016300253
 40
0.6775521659
 40
0.755940913
 40
0.8362230587
 40
0.9177879706
 40
1.0
 40
1.0
 40
1.0
 40
1.0
 10
16.2461007359
 20
14.2165666421
 30
0.0
 10
16.246012109
 20
14.217190521
 30
0.0
 10
16.2458979911
 20
14.2184463265
 30
0.0
 10
16.2459209498
 20
14.2203390614
 30
0.0
 10
16.246138675
 20
14.222228665
 30
0.0
 10
16.2465507069
 20
14.2241093807
 30
0.0
 10
16.2471552364
 20
14.2259762731
 30
0.0
 10
16.2482318013
 20
14.2284777007
 30
0.0
 10
16.2496846139
 20
14.230897413
 30
0.0
 10
16.2514539561
 20
14.2332044342
 30
0.0
 10
16.2535328952
 20
14.2355480379
 30
0.0
 10
16.2559319414
 20
14.2377576166
 30
0.0
 10
16.2585983819
 20
14.2398315316
 30
0.0
 10
16.260796041
 20
14.2413623468
 30
0.0
 10
16.2631473646
 20
14.2428344111
 30
0.0
 10
16.2665324153
 20
14.2447442952
 30
0.0
 10
16.2711171287
 20
14.246951212
 30
0.0
 10
16.2759885286
 20
14.2488584283
 30
0.0
 10
16.2801125668
 20
14.2502372341
 30
0.0
 10
16.2844676125
 20
14.2515370722
 30
0.0
 10
16.2901363273
 20
14.2529407983
 30
0.0
 10
16.2971791036
 20
14.254257045
 30
0.0
 10
16.3044542435
 20
14.2552072628
 30
0.0
 10
16.3118853291
 20
14.255781356
 30
0.0
 10
16.3168856705
 20
14.2559091989
 30
0.0
 10
16.3193952364
 20
14.255909199
 30
0.0
  0
SPLINE
  5
5A8
100
AcDbEntity
  8
AXIS_COSMETIC_THREADS
100
AcDbSpline
 62
7
  6
CONTINUOUS
 70
0
 71
3
 72
16
 73
12
 74
0
 42
0.0000001
 43
0.0000001
 44
0.0000000001
 40
0.0
 40
0.0
 40
0.0
 40
0.0
 40
0.1346543448
 40
0.2683380486
 40
0.4000957213
 40
0.5290092962
 40
0.6542059466
 40
0.7748800495
 40
0.8903564088
 40
0.945951898
 40
1.0
 40
1.0
 40
1.0
 40
1.0
 10
16.3193952364
 20
14.255909199
 30
0.0
 10
16.3217966983
 20
14.2559091992
 30
0.0
 10
16.3265831534
 20
14.2557920893
 30
0.0
 10
16.3337019606
 20
14.2552660326
 30
0.0
 10
16.3406839647
 20
14.2543948426
 30
0.0
 10
16.3474621131
 20
14.2531869825
 30
0.0
 10
16.3539716787
 20
14.25165403
 30
0.0
 10
16.3601507387
 20
14.2498106007
 30
0.0
 10
16.3650361233
 20
14.2480077752
 30
0.0
 10
16.3687241088
 20
14.2464192202
 30
0.0
 10
16.3704907011
 20
14.2455795378
 30
0.0
 10
16.3713528471
 20
14.2451484648
 30
0.0
  0
SPLINE
  5
5A9
100
AcDbEntity
  8
AXIS_COSMETIC_THREADS
100
AcDbSpline
 62
7
  6
CONTINUOUS
 70
0
 71
3
 72
23
 73
19
 74
0
 42
0.0000001
 43
0.0000001
 44
0.0000000001
 40
0.0
 40
0.0
 40
0.0
 40
0.0
 40
0.0791654767
 40
0.1559402809
 40
0.2302459295
 40
0.3020456748
 40
0.3713502915
 40
0.4381921367
 40
0.5026280145
 40
0.5647403629
 40
0.6246464739
 40
0.6825036576
 40
0.7385037853
 40
0.7928795952
 40
0.8458998734
 40
0.8978676917
 40
0.9491165965
 40
1.0
 40
1.0
 40
1.0
 40
1.0
 10
17.7976019625
 20
13.3376861987
 30
0.0
 10
17.796354381
 20
13.3383099894
 30
0.0
 10
17.7939203607
 20
13.3395864796
 30
0.0
 10
17.7904081008
 20
13.3416189848
 30
0.0
 10
17.7870986652
 20
13.343735543
 30
0.0
 10
17.7840008185
 20
13.3459309312
 30
0.0
 10
17.7811217411
 20
13.3481996851
 30
0.0
 10
17.7784682961
 20
13.3505369029
 30
0.0
 10
17.7760465895
 20
13.3529369114
 30
0.0
 10
17.7738626098
 20
13.3553941989
 30
0.0
 10
17.7719219763
 20
13.3579031756
 30
0.0
 10
17.7702291811
 20
13.3604577183
 30
0.0
 10
17.7687889254
 20
13.363052141
 30
0.0
 10
17.7676047888
 20
13.3656801427
 30
0.0
 10
17.7666799865
 20
13.368335392
 30
0.0
 10
17.7660175736
 20
13.3710115348
 30
0.0
 10
17.765619017
 20
13.3737013328
 30
0.0
 10
17.7655302232
 20
13.3755020669
 30
0.0
 10
17.7655301955
 20
13.3763985957
 30
0.0
  0
SPLINE
  5
5AA
100
AcDbEntity
  8
AXIS_COSMETIC_THREADS
100
AcDbSpline
 62
7
  6
CONTINUOUS
 70
0
 71
3
 72
11
 73
7
 74
0
 42
0.0000001
 43
0.0000001
 44
0.0000000001
 40
0.0
 40
0.0
 40
0.0
 40
0.0
 40
0.2353807936
 40
0.4810965385
 40
0.7362571461
 40
1.0
 40
1.0
 40
1.0
 40
1.0
 10
17.7976019625
 20
13.3376861987
 30
0.0
 10
17.7996832925
 20
13.3366455337
 30
0.0
 10
17.8040067063
 20
13.3346551041
 30
0.0
 10
17.8107852793
 20
13.3319940787
 30
0.0
 10
17.8179612233
 20
13.3296077296
 30
0.0
 10
17.8229052408
 20
13.3282306626
 30
0.0
 10
17.8254323649
 20
13.3275887013
 30
0.0
  0
SPLINE
  5
5AB
100
AcDbEntity
  8
AXIS_COSMETIC_THREADS
100
AcDbSpline
 62
7
  6
CONTINUOUS
 70
0
 71
3
 72
9
 73
5
 74
0
 42
0.0000001
 43
0.0000001
 44
0.0000000001
 40
0.0
 40
0.0
 40
0.0
 40
0.0
 40
0.4934379669
 40
1.0
 40
1.0
 40
1.0
 40
1.0
 10
17.8254323649
 20
13.3275887013
 30
0.0
 10
17.828455665
 20
13.3268206972
 30
0.0
 10
17.834626204
 20
13.3254318171
 30
0.0
 10
17.8408589047
 20
13.3243582836
 30
0.0
 10
17.8440268659
 20
13.3238906626
 30
0.0
  0
SPLINE
  5
5AC
100
AcDbEntity
  8
AXIS_COSMETIC_THREADS
100
AcDbSpline
 62
7
  6
CONTINUOUS
 70
0
 71
3
 72
30
 73
26
 74
0
 42
0.0000001
 43
0.0000001
 44
0.0000000001
 40
0.0
 40
0.0
 40
0.0
 40
0.0
 40
0.0312986777
 40
0.0625606667
 40
0.0938034055
 40
0.1250299288
 40
0.1562263079
 40
0.1873780069
 40
0.2184789541
 40
0.2495209145
 40
0.2804969715
 40
0.3114079531
 40
0.3422495234
 40
0.3730235196
 40
0.4037412948
 40
0.4344073235
 40
0.4956296688
 40
0.5568833679
 40
0.6183766691
 40
0.6803297693
 40
0.7429159471
 40
0.8062355934
 40
0.8702760947
 40
0.9349303523
 40
1.0
 40
1.0
 40
1.0
 40
1.0
 10
17.765530155
 20
13.393720803
 30
0.0
 10
17.765530155
 20
13.3952707724
 30
0.0
 10
17.7656298632
 20
13.3983698109
 30
0.0
 10
17.7660766662
 20
13.4029966325
 30
0.0
 10
17.7668182318
 20
13.4075820113
 30
0.0
 10
17.7678493693
 20
13.4121076144
 30
0.0
 10
17.7691623338
 20
13.4165549163
 30
0.0
 10
17.7707503484
 20
13.4209049058
 30
0.0
 10
17.7726013592
 20
13.4251411976
 30
0.0
 10
17.7747036597
 20
13.4292487359
 30
0.0
 10
17.777045416
 20
13.4332135795
 30
0.0
 10
17.7796112372
 20
13.4370251233
 30
0.0
 10
17.7823872949
 20
13.4406737084
 30
0.0
 10
17.785359371
 20
13.4441516772
 30
0.0
 10
17.7885120576
 20
13.4474547436
 30
0.0
 10
17.792934801
 20
13.4516181471
 30
0.0
 10
17.7988557302
 20
13.4563795563
 30
0.0
 10
17.8064841567
 20
13.4613836977
 30
0.0
 10
17.8145617484
 20
13.4656992642
 30
0.0
 10
17.823027648
 20
13.4693573071
 30
0.0
 10
17.8318341585
 20
13.4723825605
 30
0.0
 10
17.840933189
 20
13.4747973011
 30
0.0
 10
17.8502742269
 20
13.4766127816
 30
0.0
 10
17.8597975406
 20
13.4778365881
 30
0.0
 10
17.8662126269
 20
13.4782586059
 30
0.0
 10
17.8694329966
 20
13.4783721712
 30
0.0
  0
SPLINE
  5
5AD
100
AcDbEntity
  8
AXIS_COSMETIC_THREADS
100
AcDbSpline
 62
7
  6
CONTINUOUS
 70
0
 71
3
 72
15
 73
11
 74
0
 42
0.0000001
 43
0.0000001
 44
0.0000000001
 40
0.0
 40
0.0
 40
0.0
 40
0.0
 40
0.1277776564
 40
0.2553843944
 40
0.3823890926
 40
0.5084189543
 40
0.6331964212
 40
0.756672405
 40
0.8789631468
 40
1.0
 40
1.0
 40
1.0
 40
1.0
 10
17.8694329966
 20
13.4783721712
 30
0.0
 10
17.8723893375
 20
13.4784764255
 30
0.0
 10
17.8783052097
 20
13.4785195642
 30
0.0
 10
17.8871518854
 20
13.4780903015
 30
0.0
 10
17.8959204577
 20
13.4771667763
 30
0.0
 10
17.9045563856
 20
13.4757476181
 30
0.0
 10
17.9130123647
 20
13.4738309866
 30
0.0
 10
17.9212476645
 20
13.4714069353
 30
0.0
 10
17.9292206673
 20
13.4684656508
 30
0.0
 10
17.934358462
 20
13.4661404745
 30
0.0
 10
17.9368647564
 20
13.4648873273
 30
0.0
  0
SPLINE
  5
5AE
100
AcDbEntity
  8
AXIS_COSMETIC_THREADS
100
AcDbSpline
 62
7
  6
CONTINUOUS
 70
0
 71
3
 72
18
 73
14
 74
0
 42
0.0000001
 43
0.0000001
 44
0.0000000001
 40
0.0
 40
0.0
 40
0.0
 40
0.0
 40
0.1249821289
 40
0.2493653461
 40
0.3737060985
 40
0.4982056506
 40
0.623005359
 40
0.6855590379
 40
0.7482258844
 40
0.8110101169
 40
0.8739022048
 40
0.9368992669
 40
1.0
 40
1.0
 40
1.0
 40
1.0
 10
17.9368647564
 20
13.4648873273
 30
0.0
 10
17.9390591482
 20
13.4637901314
 30
0.0
 10
17.9433655553
 20
13.4614529815
 30
0.0
 10
17.9495483715
 20
13.457492775
 30
0.0
 10
17.9554032632
 20
13.4530758521
 30
0.0
 10
17.9608878701
 20
13.4481936055
 30
0.0
 10
17.9651002946
 20
13.4437397796
 30
0.0
 10
17.968226933
 20
13.4399548795
 30
0.0
 10
17.9704452822
 20
13.4370037459
 30
0.0
 10
17.9725272416
 20
13.4339468634
 30
0.0
 10
17.9744657283
 20
13.4307893327
 30
0.0
 10
17.9762529052
 20
13.4275367173
 30
0.0
 10
17.9773377471
 20
13.4253104841
 30
0.0
 10
17.9778527517
 20
13.4241839523
 30
0.0
  0
SPLINE
  5
5AF
100
AcDbEntity
  8
AXIS_COSMETIC_THREADS
100
AcDbSpline
 62
7
  6
CONTINUOUS
 70
0
 71
3
 72
13
 73
9
 74
0
 42
0.0000001
 43
0.0000001
 44
0.0000000001
 40
0.0
 40
0.0
 40
0.0
 40
0.0
 40
0.2492572709
 40
0.3741768239
 40
0.4992159954
 40
0.6243288126
 40
0.7494890168
 40
1.0
 40
1.0
 40
1.0
 40
1.0
 10
17.9778527517
 20
13.4241839523
 30
0.0
 10
17.9789237346
 20
13.4218412622
 30
0.0
 10
17.9803525396
 20
13.4182382038
 30
0.0
 10
17.9818715886
 20
13.4133061628
 30
0.0
 10
17.9828166027
 20
13.409545081
 30
0.0
 10
17.9835616797
 20
13.4057367501
 30
0.0
 10
17.9842828142
 20
13.4006103348
 30
0.0
 10
17.9845140827
 20
13.3967250936
 30
0.0
 10
17.984528961
 20
13.3941362917
 30
0.0
  0
SPLINE
  5
5B0
100
AcDbEntity
  8
AXIS_COSMETIC_THREADS
100
AcDbSpline
 62
7
  6
CONTINUOUS
 70
0
 71
3
 72
16
 73
12
 74
0
 42
0.0000001
 43
0.0000001
 44
0.0000000001
 40
0.0
 40
0.0
 40
0.0
 40
0.0
 40
0.0540843
 40
0.1096982843
 40
0.2251728249
 40
0.34582708
 40
0.4709867367
 40
0.5998604088
 40
0.7315955025
 40
0.8652879299
 40
1.0
 40
1.0
 40
1.0
 40
1.0
 10
17.7976019625
 20
13.3550067067
 30
0.0
 10
17.7988759393
 20
13.3543697183
 30
0.0
 10
17.8014857141
 20
13.3531286768
 30
0.0
 10
17.806931899
 20
13.3507797735
 30
0.0
 10
17.8141436816
 20
13.3481114927
 30
0.0
 10
17.8232631472
 20
13.345377918
 30
0.0
 10
17.8328693637
 20
13.3430984896
 30
0.0
 10
17.8428723157
 20
13.3412949674
 30
0.0
 10
17.8531780421
 20
13.3399842391
 30
0.0
 10
17.8636892632
 20
13.3391786864
 30
0.0
 10
17.8707585101
 20
13.3389837132
 30
0.0
 10
17.874306231
 20
13.338972014
 30
0.0
  0
SPLINE
  5
5B1
100
AcDbEntity
  8
AXIS_COSMETIC_THREADS
100
AcDbSpline
 62
7
  6
CONTINUOUS
 70
0
 71
3
 72
23
 73
19
 74
0
 42
0.0000001
 43
0.0000001
 44
0.0000000001
 40
0.0
 40
0.0
 40
0.0
 40
0.0
 40
0.0791660154
 40
0.1559412427
 40
0.2302471936
 40
0.3020471233
 40
0.3713518107
 40
0.4381936199
 40
0.5026293655
 40
0.5647414994
 40
0.6246473367
 40
0.6825042126
 40
0.7385040291
 40
0.7928795612
 40
0.8458996337
 40
0.8978673616
 40
0.9491163329
 40
1.0
 40
1.0
 40
1.0
 40
1.0
 10
17.7976019625
 20
13.3550067067
 30
0.0
 10
17.7963543325
 20
13.3556305217
 30
0.0
 10
17.7939202198
 20
13.3569070627
 30
0.0
 10
17.7904078328
 20
13.3589396531
 30
0.0
 10
17.7870982868
 20
13.3610563029
 30
0.0
 10
17.7840003472
 20
13.3632517882
 30
0.0
 10
17.7811211952
 20
13.3655206442
 30
0.0
 10
17.7784676948
 20
13.3678579686
 30
0.0
 10
17.7760459523
 20
13.3702580873
 30
0.0
 10
17.7738619573
 20
13.3727154881
 30
0.0
 10
17.7719213291
 20
13.3752245804
 30
0.0
 10
17.7702285605
 20
13.3777792404
 30
0.0
 10
17.7687883529
 20
13.3803737812
 30
0.0
 10
17.7676042861
 20
13.383001901
 30
0.0
 10
17.7666795758
 20
13.3856572677
 30
0.0
 10
17.7660172768
 20
13.3883335263
 30
0.0
 10
17.7656188559
 20
13.3910234374
 30
0.0
 10
17.7655301675
 20
13.3928242408
 30
0.0
 10
17.7655301955
 20
13.393720803
 30
0.0
  0
SPLINE
  5
5B2
100
AcDbEntity
  8
AXIS_COSMETIC_THREADS
100
AcDbSpline
 62
7
  6
CONTINUOUS
 70
0
 71
3
 72
14
 73
10
 74
0
 42
0.0000001
 43
0.0000001
 44
0.0000000001
 40
0.0
 40
0.0
 40
0.0
 40
0.0
 40
0.1130193456
 40
0.2300146337
 40
0.3507061309
 40
0.4748317954
 40
0.6021351788
 40
0.7323268231
 40
1.0
 40
1.0
 40
1.0
 40
1.0
 10
17.8230725444
 20
13.4153733949
 30
0.0
 10
17.8241541066
 20
13.4148326138
 30
0.0
 10
17.8263830963
 20
13.4137869319
 30
0.0
 10
17.829850207
 20
13.4123490844
 30
0.0
 10
17.8334872658
 20
13.4110200911
 30
0.0
 10
17.8372798265
 20
13.4098051503
 30
0.0
 10
17.841213938
 20
13.40870862
 30
0.0
 10
17.8466787486
 20
13.4073979942
 30
0.0
 10
17.8508690507
 20
13.4066240528
 30
0.0
 10
17.8537005739
 20
13.4061946044
 30
0.0
  0
SPLINE
  5
5B3
100
AcDbEntity
  8
AXIS_COSMETIC_THREADS
100
AcDbSpline
 62
7
  6
CONTINUOUS
 70
0
 71
3
 72
11
 73
7
 74
0
 42
0.0000001
 43
0.0000001
 44
0.0000000001
 40
0.0
 40
0.0
 40
0.0
 40
0.0
 40
0.2479620245
 40
0.4999997719
 40
0.7520373258
 40
1.0
 40
1.0
 40
1.0
 40
1.0
 10
17.8537005739
 20
13.4061946044
 30
0.0
 10
17.8571986877
 20
13.4056640563
 30
0.0
 10
17.8642974043
 20
13.4048736622
 30
0.0
 10
17.8750301409
 20
13.4044810983
 30
0.0
 10
17.8857628877
 20
13.4048736544
 30
0.0
 10
17.8928616096
 20
13.4056640606
 30
0.0
 10
17.8963597323
 20
13.4061946108
 30
0.0
  0
SPLINE
  5
5B4
100
AcDbEntity
  8
AXIS_COSMETIC_THREADS
100
AcDbSpline
 62
7
  6
CONTINUOUS
 70
0
 71
3
 72
25
 73
21
 74
0
 42
0.0000001
 43
0.0000001
 44
0.0000000001
 40
0.0
 40
0.0
 40
0.0
 40
0.0
 40
0.0817349313
 40
0.1617618101
 40
0.2397735404
 40
0.3154845159
 40
0.3886384045
 40
0.4590111585
 40
0.5264186274
 40
0.5907233211
 40
0.6518416929
 40
0.7097563108
 40
0.7645231711
 40
0.816289291
 40
0.8652991414
 40
0.9119119214
 40
0.9344749124
 40
0.9566255582
 40
0.978440159
 40
1.0
 40
1.0
 40
1.0
 40
1.0
 10
17.8963597323
 20
13.4061946108
 30
0.0
 10
17.8981093843
 20
13.4064599755
 30
0.0
 10
17.9015621339
 20
13.4070540865
 30
0.0
 10
17.9066386507
 20
13.4081472908
 30
0.0
 10
17.9115366959
 20
13.4094278524
 30
0.0
 10
17.9162284879
 20
13.4108888512
 30
0.0
 10
17.920687712
 20
13.4125218112
 30
0.0
 10
17.9248892487
 20
13.4143177671
 30
0.0
 10
17.928809573
 20
13.4162666043
 30
0.0
 10
17.9324267383
 20
13.4183575586
 30
0.0
 10
17.9357204811
 20
13.4205792532
 30
0.0
 10
17.9386724833
 20
13.4229195225
 30
0.0
 10
17.9412659161
 20
13.4253661288
 30
0.0
 10
17.9434862354
 20
13.4279060465
 30
0.0
 10
17.9453196499
 20
13.4305260205
 30
0.0
 10
17.9465289892
 20
13.4327896101
 30
0.0
 10
17.9472825169
 20
13.4346191427
 30
0.0
 10
17.9477389826
 20
13.4359866049
 30
0.0
 10
17.9480920989
 20
13.4373618413
 30
0.0
 10
17.948259003
 20
13.4382870258
 30
0.0
 10
17.9483246556
 20
13.4387491828
 30
0.0
  0
SPLINE
  5
5B5
100
AcDbEntity
  8
AXIS_COSMETIC_THREADS
100
AcDbSpline
 62
7
  6
CONTINUOUS
 70
0
 71
3
 72
22
 73
18
 74
0
 42
0.0000001
 43
0.0000001
 44
0.0000000001
 40
0.0
 40
0.0
 40
0.0
 40
0.0
 40
0.0517848378
 40
0.1034260334
 40
0.1553652866
 40
0.2080344484
 40
0.2618377748
 40
0.3171444515
 40
0.4334045457
 40
0.4949591421
 40
0.5590057466
 40
0.6256690709
 40
0.6950371408
 40
0.7671630315
 40
0.842069152
 40
0.9197121071
 40
1.0
 40
1.0
 40
1.0
 40
1.0
 10
17.9483246556
 20
13.4387491828
 30
0.0
 10
17.9484170952
 20
13.4393999062
 30
0.0
 10
17.9485332992
 20
13.440710389
 30
0.0
 10
17.9484961667
 20
13.4426855534
 30
0.0
 10
17.9482469095
 20
13.4446567718
 30
0.0
 10
17.9477862907
 20
13.4466174897
 30
0.0
 10
17.9471164389
 20
13.448562107
 30
0.0
 10
17.9459277435
 20
13.4511677895
 30
0.0
 10
17.9443322333
 20
13.4536795837
 30
0.0
 10
17.9423979151
 20
13.4560653173
 30
0.0
 10
17.9407268917
 20
13.4578466855
 30
0.0
 10
17.938868647
 20
13.4595798772
 30
0.0
 10
17.9368280902
 20
13.4612604305
 30
0.0
 10
17.9346110569
 20
13.4628839653
 30
0.0
 10
17.9322236154
 20
13.4644456188
 30
0.0
 10
17.9296734335
 20
13.4659409041
 30
0.0
 10
17.927899204
 20
13.4668752864
 30
0.0
 10
17.9269877657
 20
13.4673310055
 30
0.0
  0
SPLINE
  5
5B6
100
AcDbEntity
  8
AXIS_COSMETIC_THREADS
100
AcDbSpline
 62
7
  6
CONTINUOUS
 70
0
 71
3
 72
39
 73
35
 74
0
 42
0.0000001
 43
0.0000001
 44
0.0000000001
 40
0.0
 40
0.0
 40
0.0
 40
0.0
 40
0.0340260111
 40
0.0665295695
 40
0.0974578561
 40
0.1268184557
 40
0.1546562965
 40
0.1810521403
 40
0.2061288232
 40
0.2300629558
 40
0.2530804383
 40
0.2754556941
 40
0.2974994795
 40
0.3195440444
 40
0.341921594
 40
0.3649428246
 40
0.3888820006
 40
0.4139643731
 40
0.4403661562
 40
0.4682116641
 40
0.4975820093
 40
0.5285152385
 40
0.5610168476
 40
0.5950593618
 40
0.6305919418
 40
0.6675389652
 40
0.7058081845
 40
0.7452888454
 40
0.7858584403
 40
0.8273809479
 40
0.8697122826
 40
0.9126990911
 40
0.9561829514
 40
1.0
 40
1.0
 40
1.0
 40
1.0
 10
17.8230725444
 20
13.4153733949
 30
0.0
 10
17.8218630583
 20
13.4159781379
 30
0.0
 10
17.8195305502
 20
13.4172270258
 30
0.0
 10
17.8162338829
 20
13.4192650558
 30
0.0
 10
17.8132349458
 20
13.4214166439
 30
0.0
 10
17.810549263
 20
13.4236703625
 30
0.0
 10
17.8081904568
 20
13.4260159703
 30
0.0
 10
17.8061701227
 20
13.4284419388
 30
0.0
 10
17.8044999214
 20
13.4309373815
 30
0.0
 10
17.8031888533
 20
13.4334898382
 30
0.0
 10
17.8022459879
 20
13.4360870101
 30
0.0
 10
17.8016772355
 20
13.4387148085
 30
0.0
 10
17.8014880241
 20
13.4413584409
 30
0.0
 10
17.801679031
 20
13.4440020342
 30
0.0
 10
17.8022495556
 20
13.4466297228
 30
0.0
 10
17.803194178
 20
13.4492267217
 30
0.0
 10
17.8045069807
 20
13.4517789288
 30
0.0
 10
17.8061788318
 20
13.4542740564
 30
0.0
 10
17.8082007482
 20
13.4566997005
 30
0.0
 10
17.8105612164
 20
13.4590449513
 30
0.0
 10
17.8132485035
 20
13.4612981431
 30
0.0
 10
17.8162485081
 20
13.4634490546
 30
0.0
 10
17.8195464718
 20
13.465486658
 30
0.0
 10
17.8231254931
 20
13.4674015155
 30
0.0
 10
17.826967816
 20
13.469183551
 30
0.0
 10
17.8310538573
 20
13.4708244128
 30
0.0
 10
17.8353631619
 20
13.4723152997
 30
0.0
 10
17.8398737895
 20
13.4736492208
 30
0.0
 10
17.8445630155
 20
13.4748188941
 30
0.0
 10
17.8494069714
 20
13.4758188986
 30
0.0
 10
17.8543811488
 20
13.4766436449
 30
0.0
 10
17.8594602548
 20
13.4772894348
 30
0.0
 10
17.8646184456
 20
13.477752484
 30
0.0
 10
17.8680838598
 20
13.4779376465
 30
0.0
 10
17.8698241203
 20
13.4779994505
 30
0.0
  0
SPLINE
  5
5B7
100
AcDbEntity
  8
AXIS_COSMETIC_THREADS
100
AcDbSpline
 62
7
  6
CONTINUOUS
 70
0
 71
3
 72
16
 73
12
 74
0
 42
0.0000001
 43
0.0000001
 44
0.0000000001
 40
0.0
 40
0.0
 40
0.0
 40
0.0
 40
0.1338902491
 40
0.2673924863
 40
0.3993659634
 40
0.5287022716
 40
0.6543473084
 40
0.7753197691
 40
0.8907859651
 40
0.9462270934
 40
1.0
 40
1.0
 40
1.0
 40
1.0
 10
17.8698241203
 20
13.4779994505
 30
0.0
 10
17.8724426209
 20
13.4780924444
 30
0.0
 10
17.8776780855
 20
13.4781377686
 30
0.0
 10
17.8854891811
 20
13.4777881688
 30
0.0
 10
17.8931816011
 20
13.477025174
 30
0.0
 10
17.9006676399
 20
13.4758574535
 30
0.0
 10
17.9078623519
 20
13.4742981652
 30
0.0
 10
17.914684394
 20
13.4723653693
 30
0.0
 10
17.9200663426
 20
13.4704356762
 30
0.0
 10
17.9241139115
 20
13.4687159072
 30
0.0
 10
17.9260465569
 20
13.4678016099
 30
0.0
 10
17.9269877657
 20
13.4673310055
 30
0.0
  0
SPLINE
  5
5B8
100
AcDbEntity
  8
AXIS_COSMETIC_THREADS
100
AcDbSpline
 62
7
  6
CONTINUOUS
 70
0
 71
3
 72
9
 73
5
 74
0
 42
0.0000001
 43
0.0000001
 44
0.0000000001
 40
0.0
 40
0.0
 40
0.0
 40
0.0
 40
0.5065478184
 40
1.0
 40
1.0
 40
1.0
 40
1.0
 10
14.7946659075
 20
13.3238763028
 30
0.0
 10
14.7978347636
 20
13.3243424449
 30
0.0
 10
14.8040694804
 20
13.3254130874
 30
0.0
 10
14.8102422333
 20
13.3267989402
 30
0.0
 10
14.8132667644
 20
13.327565467
 30
0.0
  0
SPLINE
  5
5B9
100
AcDbEntity
  8
AXIS_COSMETIC_THREADS
100
AcDbSpline
 62
7
  6
CONTINUOUS
 70
0
 71
3
 72
26
 73
22
 74
0
 42
0.0000001
 43
0.0000001
 44
0.0000000001
 40
0.0
 40
0.0
 40
0.0
 40
0.0
 40
0.082900096
 40
0.1634878895
 40
0.2415375599
 40
0.3168532301
 40
0.3892699713
 40
0.4586616079
 40
0.5249458675
 40
0.5880907081
 40
0.6481249466
 40
0.7051432276
 40
0.7593207839
 40
0.7854304116
 40
0.810935372
 40
0.8603046199
 40
0.9078946709
 40
0.9311997846
 40
0.9542670446
 40
0.9771738958
 40
1.0
 40
1.0
 40
1.0
 40
1.0
 10
14.8132667644
 20
13.327565467
 30
0.0
 10
14.8154796062
 20
13.328126282
 30
0.0
 10
14.8198219828
 20
13.3293199741
 30
0.0
 10
14.8261560173
 20
13.3313560019
 30
0.0
 10
14.8321955797
 20
13.3336049745
 30
0.0
 10
14.8379122413
 20
13.3360559644
 30
0.0
 10
14.8432791212
 20
13.3386977842
 30
0.0
 10
14.8482711004
 20
13.3415180336
 30
0.0
 10
14.852864828
 20
13.3445037176
 30
0.0
 10
14.8570386798
 20
13.3476413212
 30
0.0
 10
14.8607733013
 20
13.3509165051
 30
0.0
 10
14.8640504434
 20
13.3543147175
 30
0.0
 10
14.8664162558
 20
13.3572725657
 30
0.0
 10
14.8680539264
 20
13.3596833771
 30
0.0
 10
14.8694910876
 20
13.3620652886
 30
0.0
 10
14.8709897115
 20
13.3650952836
 30
0.0
 10
14.8720864438
 20
13.3682303405
 30
0.0
 10
14.8726966993
 20
13.3707464432
 30
0.0
 10
14.8730217788
 20
13.3726278077
 30
0.0
 10
14.873216898
 20
13.3745136677
 30
0.0
 10
14.8732602967
 20
13.3757734369
 30
0.0
 10
14.8732602773
 20
13.3764019942
 30
0.0
  0
SPLINE
  5
5BA
100
AcDbEntity
  8
AXIS_COSMETIC_THREADS
100
AcDbSpline
 62
7
  6
CONTINUOUS
 70
0
 71
3
 72
12
 73
8
 74
0
 42
0.0000001
 43
0.0000001
 44
0.0000000001
 40
0.0
 40
0.0
 40
0.0
 40
0.0
 40
0.2505208945
 40
0.3756859868
 40
0.500805651
 40
0.7506982587
 40
1.0
 40
1.0
 40
1.0
 40
1.0
 10
14.6542615132
 20
13.3941365614
 30
0.0
 10
14.6542764165
 20
13.3967282762
 30
0.0
 10
14.6545081713
 20
13.4006178675
 30
0.0
 10
14.655230975
 20
13.4057500377
 30
0.0
 10
14.6562259771
 20
13.4108303716
 30
0.0
 10
14.6579696102
 20
13.4170623455
 30
0.0
 10
14.6598796238
 20
13.4218720991
 30
0.0
 10
14.6609530777
 20
13.4242172399
 30
0.0
  0
SPLINE
  5
5BB
100
AcDbEntity
  8
AXIS_COSMETIC_THREADS
100
AcDbSpline
 62
7
  6
CONTINUOUS
 70
0
 71
3
 72
27
 73
23
 74
0
 42
0.0000001
 43
0.0000001
 44
0.0000000001
 40
0.0
 40
0.0
 40
0.0
 40
0.0
 40
0.0309370955
 40
0.0618183423
 40
0.0926435448
 40
0.1234122765
 40
0.1541202532
 40
0.1847709341
 40
0.2459142442
 40
0.2764316034
 40
0.3069279988
 40
0.3679111997
 40
0.4290070099
 40
0.4903952075
 40
0.5522219244
 40
0.6146099815
 40
0.6776293561
 40
0.7412730452
 40
0.805481551
 40
0.8701229813
 40
0.9350300719
 40
1.0
 40
1.0
 40
1.0
 40
1.0
 10
14.6609530777
 20
13.4242172399
 30
0.0
 10
14.6615042586
 20
13.4254213875
 30
0.0
 10
14.6626692195
 20
13.4277989792
 30
0.0
 10
14.6645988642
 20
13.4312655104
 30
0.0
 10
14.6667002722
 20
13.4346222463
 30
0.0
 10
14.6689638361
 20
13.4378626543
 30
0.0
 10
14.6713809975
 20
13.4409807963
 30
0.0
 10
14.6747925927
 20
13.4449652019
 30
0.0
 10
14.6784779113
 20
13.4486967888
 30
0.0
 10
14.6823971487
 20
13.4521603738
 30
0.0
 10
14.6864593514
 20
13.455444559
 30
0.0
 10
14.6917964183
 20
13.4592231874
 30
0.0
 10
14.6985546184
 20
13.4632387112
 30
0.0
 10
14.7056258954
 20
13.4667533445
 30
0.0
 10
14.7129752369
 20
13.4697873996
 30
0.0
 10
14.720573276
 20
13.4723550894
 30
0.0
 10
14.7283893777
 20
13.4744708608
 30
0.0
 10
14.7363918108
 20
13.4761414326
 30
0.0
 10
14.7445434383
 20
13.4773724562
 30
0.0
 10
14.7528034607
 20
13.4781655766
 30
0.0
 10
14.7611260892
 20
13.4785218514
 30
0.0
 10
14.7666883944
 20
13.4784682279
 30
0.0
 10
14.7694677161
 20
13.4783682937
 30
0.0
  0
SPLINE
  5
5BC
100
AcDbEntity
  8
AXIS_COSMETIC_THREADS
100
AcDbSpline
 62
7
  6
CONTINUOUS
 70
0
 71
3
 72
15
 73
11
 74
0
 42
0.0000001
 43
0.0000001
 44
0.0000000001
 40
0.0
 40
0.0
 40
0.0
 40
0.0
 40
0.1280638676
 40
0.2555784514
 40
0.3822803031
 40
0.5079614894
 40
0.6325211637
 40
0.7560334806
 40
0.8785553464
 40
1.0
 40
1.0
 40
1.0
 40
1.0
 10
14.7694677161
 20
13.4783682937
 30
0.0
 10
14.7719484334
 20
13.4782790962
 30
0.0
 10
14.7768958585
 20
13.4779847517
 30
0.0
 10
14.7842660785
 20
13.4771929177
 30
0.0
 10
14.7915437263
 20
13.4760506303
 30
0.0
 10
14.7986991197
 20
13.4745570491
 30
0.0
 10
14.8057074553
 20
13.4727083688
 30
0.0
 10
14.8125460378
 20
13.4704970279
 30
0.0
 10
14.8191899303
 20
13.4679179668
 30
0.0
 10
14.8234894223
 20
13.4659400757
 30
0.0
 10
14.8255949192
 20
13.4648873273
 30
0.0
  0
SPLINE
  5
5BD
100
AcDbEntity
  8
AXIS_COSMETIC_THREADS
100
AcDbSpline
 62
7
  6
CONTINUOUS
 70
0
 71
3
 72
24
 73
20
 74
0
 42
0.0000001
 43
0.0000001
 44
0.0000000001
 40
0.0
 40
0.0
 40
0.0
 40
0.0
 40
0.0622317842
 40
0.1241831347
 40
0.1860298378
 40
0.2479037938
 40
0.3098391501
 40
0.3718821349
 40
0.4340582007
 40
0.4963963757
 40
0.5589082045
 40
0.6215801159
 40
0.6529801596
 40
0.6844153589
 40
0.7473714091
 40
0.810439591
 40
0.8735726041
 40
0.9367463638
 40
1.0
 40
1.0
 40
1.0
 40
1.0
 10
14.8255949192
 20
13.4648873273
 30
0.0
 10
14.8272705568
 20
13.4640495085
 30
0.0
 10
14.8305721228
 20
13.4622915037
 30
0.0
 10
14.8353673233
 20
13.4593932842
 30
0.0
 10
14.8399810911
 20
13.4562324738
 30
0.0
 10
14.8443990352
 20
13.4528036942
 30
0.0
 10
14.8486006599
 20
13.4491035354
 30
0.0
 10
14.8525601056
 20
13.4451320111
 30
0.0
 10
14.8562525625
 20
13.4408946394
 30
0.0
 10
14.8596505618
 20
13.4363995399
 30
0.0
 10
14.8627273325
 20
13.4316608467
 30
0.0
 10
14.8650008049
 20
13.4275261824
 30
0.0
 10
14.8666327322
 20
13.4241176748
 30
0.0
 10
14.8681386877
 20
13.4206423598
 30
0.0
 10
14.8697741134
 20
13.4161878853
 30
0.0
 10
14.8713193879
 20
13.4107014227
 30
0.0
 10
14.87243593
 20
13.4051048701
 30
0.0
 10
14.8731097918
 20
13.3994326387
 30
0.0
 10
14.8732603178
 20
13.3956249845
 30
0.0
 10
14.8732603178
 20
13.393720803
 30
0.0
  0
SPLINE
  5
5BE
100
AcDbEntity
  8
AXIS_COSMETIC_THREADS
100
AcDbSpline
 62
7
  6
CONTINUOUS
 70
0
 71
3
 72
34
 73
30
 74
0
 42
0.0000001
 43
0.0000001
 44
0.0000000001
 40
0.0
 40
0.0
 40
0.0
 40
0.0
 40
0.081047294
 40
0.1614781132
 40
0.2407232304
 40
0.3182340857
 40
0.3934930665
 40
0.4301314615
 40
0.4660330284
 40
0.5011463433
 40
0.5354256276
 40
0.5688289001
 40
0.6013196436
 40
0.6328681626
 40
0.6634498785
 40
0.6930490548
 40
0.7216574428
 40
0.7492754421
 40
0.7759149057
 40
0.8015972178
 40
0.8263571309
 40
0.850242509
 40
0.8733146445
 40
0.8956510857
 40
0.9173434081
 40
0.9384985538
 40
0.9592371611
 40
0.9796908338
 40
1.0
 40
1.0
 40
1.0
 40
1.0
 10
14.7644404079
 20
13.3389718843
 30
0.0
 10
14.7680041186
 20
13.3389829764
 30
0.0
 10
14.7751051417
 20
13.3391780393
 30
0.0
 10
14.7856630323
 20
13.3399885766
 30
0.0
 10
14.7960131474
 20
13.3413087723
 30
0.0
 10
14.8060566505
 20
13.3431260159
 30
0.0
 10
14.814163245
 20
13.3450570842
 30
0.0
 10
14.8204128848
 20
13.3468426081
 30
0.0
 10
14.8249233211
 20
13.3482815768
 30
0.0
 10
14.8292877877
 20
13.3498290979
 30
0.0
 10
14.8334960037
 20
13.3514812473
 30
0.0
 10
14.8375379272
 20
13.3532341853
 30
0.0
 10
14.8414038868
 20
13.3550838828
 30
0.0
 10
14.8450848177
 20
13.3570256722
 30
0.0
 10
14.848571829
 20
13.3590552893
 30
0.0
 10
14.8518567295
 20
13.3611677495
 30
0.0
 10
14.8549317469
 20
13.3633580797
 30
0.0
 10
14.8577894021
 20
13.3656213903
 30
0.0
 10
14.8604231302
 20
13.367952078
 30
0.0
 10
14.8628264198
 20
13.3703450227
 30
0.0
 10
14.8649935432
 20
13.3727945872
 30
0.0
 10
14.866919374
 20
13.3752950153
 30
0.0
 10
14.8685987785
 20
13.3778408028
 30
0.0
 10
14.8700278772
 20
13.3804257508
 30
0.0
 10
14.8712026624
 20
13.3830439815
 30
0.0
 10
14.8721198701
 20
13.3856891794
 30
0.0
 10
14.8727772228
 20
13.3883548805
 30
0.0
 10
14.8731722259
 20
13.3910341934
 30
0.0
 10
14.8732602494
 20
13.3928277893
 30
0.0
 10
14.8732602773
 20
13.393720803
 30
0.0
  0
SPLINE
  5
5BF
100
AcDbEntity
  8
AXIS_COSMETIC_THREADS
100
AcDbSpline
 62
7
  6
CONTINUOUS
 70
0
 71
3
 72
14
 73
10
 74
0
 42
0.0000001
 43
0.0000001
 44
0.0000000001
 40
0.0
 40
0.0
 40
0.0
 40
0.0
 40
0.1130193456
 40
0.2300146337
 40
0.3507061309
 40
0.4748317954
 40
0.6021351788
 40
0.7323268231
 40
1.0
 40
1.0
 40
1.0
 40
1.0
 10
14.7118027072
 20
13.4153733949
 30
0.0
 10
14.7128842693
 20
13.4148326138
 30
0.0
 10
14.7151132591
 20
13.4137869319
 30
0.0
 10
14.7185803698
 20
13.4123490844
 30
0.0
 10
14.7222174286
 20
13.4110200911
 30
0.0
 10
14.7260099893
 20
13.4098051503
 30
0.0
 10
14.7299441008
 20
13.40870862
 30
0.0
 10
14.7354089114
 20
13.4073979942
 30
0.0
 10
14.7395992135
 20
13.4066240528
 30
0.0
 10
14.7424307367
 20
13.4061946044
 30
0.0
  0
SPLINE
  5
5C0
100
AcDbEntity
  8
AXIS_COSMETIC_THREADS
100
AcDbSpline
 62
7
  6
CONTINUOUS
 70
0
 71
3
 72
11
 73
7
 74
0
 42
0.0000001
 43
0.0000001
 44
0.0000000001
 40
0.0
 40
0.0
 40
0.0
 40
0.0
 40
0.2479620245
 40
0.4999997719
 40
0.7520373258
 40
1.0
 40
1.0
 40
1.0
 40
1.0
 10
14.7424307367
 20
13.4061946044
 30
0.0
 10
14.7459288504
 20
13.4056640563
 30
0.0
 10
14.7530275671
 20
13.4048736622
 30
0.0
 10
14.7637603037
 20
13.4044810983
 30
0.0
 10
14.7744930504
 20
13.4048736544
 30
0.0
 10
14.7815917723
 20
13.4056640606
 30
0.0
 10
14.7850898951
 20
13.4061946108
 30
0.0
  0
SPLINE
  5
5C1
100
AcDbEntity
  8
AXIS_COSMETIC_THREADS
100
AcDbSpline
 62
7
  6
CONTINUOUS
 70
0
 71
3
 72
38
 73
34
 74
0
 42
0.0000001
 43
0.0000001
 44
0.0000000001
 40
0.0
 40
0.0
 40
0.0
 40
0.0
 40
0.0874810016
 40
0.1299561711
 40
0.1714255625
 40
0.211782927
 40
0.2509304102
 40
0.2887832418
 40
0.3252695419
 40
0.3603329553
 40
0.3939360877
 40
0.4260604598
 40
0.4567137879
 40
0.4859281768
 40
0.5137694471
 40
0.5403353273
 40
0.5657630905
 40
0.5902277827
 40
0.6139433653
 40
0.6371571994
 40
0.6601413122
 40
0.683179715
 40
0.7065538306
 40
0.7305270867
 40
0.7553354533
 40
0.7811780386
 40
0.8082164308
 40
0.8365712239
 40
0.8663259816
 40
0.897535466
 40
0.9302285959
 40
0.9644006765
 40
1.0
 40
1.0
 40
1.0
 40
1.0
 10
14.7850898951
 20
13.4061946108
 30
0.0
 10
14.788060289
 20
13.4066451219
 30
0.0
 10
14.7924528043
 20
13.4074634791
 30
0.0
 10
14.7981726036
 20
13.4088620134
 30
0.0
 10
14.8022783323
 20
13.4100353076
 30
0.0
 10
14.8062247033
 20
13.4113379475
 30
0.0
 10
14.809995496
 20
13.4127648527
 30
0.0
 10
14.8135751699
 20
13.4143100271
 30
0.0
 10
14.8169490307
 20
13.4159671201
 30
0.0
 10
14.8201031206
 20
13.4177295522
 30
0.0
 10
14.8230246595
 20
13.4195898658
 30
0.0
 10
14.8257013984
 20
13.4215410117
 30
0.0
 10
14.828122659
 20
13.423574708
 30
0.0
 10
14.830278017
 20
13.425683457
 30
0.0
 10
14.8321588449
 20
13.4278585166
 30
0.0
 10
14.8337566232
 20
13.4300918216
 30
0.0
 10
14.8350644601
 20
13.4323743338
 30
0.0
 10
14.8360758586
 20
13.4346970715
 30
0.0
 10
14.8367854974
 20
13.4370502946
 30
0.0
 10
14.8371895343
 20
13.4394236276
 30
0.0
 10
14.8372850125
 20
13.4418061315
 30
0.0
 10
14.8370719677
 20
13.4441864956
 30
0.0
 10
14.8365509717
 20
13.4465533876
 30
0.0
 10
14.8357259988
 20
13.4488962383
 30
0.0
 10
14.834600874
 20
13.4512046963
 30
0.0
 10
14.833181907
 20
13.4534695997
 30
0.0
 10
14.8314752825
 20
13.4556816793
 30
0.0
 10
14.8294889339
 20
13.457832456
 30
0.0
 10
14.827231296
 20
13.4599135495
 30
0.0
 10
14.824711485
 20
13.4619167852
 30
0.0
 10
14.8219397391
 20
13.4638344519
 30
0.0
 10
14.818928047
 20
13.4656581944
 30
0.0
 10
14.8168114453
 20
13.4667842471
 30
0.0
 10
14.8157179284
 20
13.4673310055
 30
0.0
  0
SPLINE
  5
5C2
100
AcDbEntity
  8
AXIS_COSMETIC_THREADS
100
AcDbSpline
 62
7
  6
CONTINUOUS
 70
0
 71
3
 72
19
 73
15
 74
0
 42
0.0000001
 43
0.0000001
 44
0.0000000001
 40
0.0
 40
0.0
 40
0.0
 40
0.0
 40
0.1535427744
 40
0.2983527034
 40
0.3674149062
 40
0.4342574546
 40
0.5614048624
 40
0.6803753161
 40
0.737098381
 40
0.7921644904
 40
0.8457599113
 40
0.8980991942
 40
0.9494248347
 40
1.0
 40
1.0
 40
1.0
 40
1.0
 10
14.7118027072
 20
13.4153733949
 30
0.0
 10
14.7102986454
 20
13.4161254258
 30
0.0
 10
14.7074254401
 20
13.4176887196
 30
0.0
 10
14.7040502481
 20
13.4198891133
 30
0.0
 10
14.7015953506
 20
13.4217416763
 30
0.0
 10
14.6993812375
 20
13.4235863293
 30
0.0
 10
14.6969165096
 20
13.4259781279
 30
0.0
 10
14.6948167817
 20
13.4285580361
 30
0.0
 10
14.6934288041
 20
13.4306722361
 30
0.0
 10
14.6925442811
 20
13.4322547615
 30
0.0
 10
14.6918018543
 20
13.4338560497
 30
0.0
 10
14.6912033344
 20
13.4354730767
 30
0.0
 10
14.6907498315
 20
13.4371022711
 30
0.0
 10
14.6905437205
 20
13.4382007921
 30
0.0
 10
14.6904658173
 20
13.4387491828
 30
0.0
  0
SPLINE
  5
5C3
100
AcDbEntity
  8
AXIS_COSMETIC_THREADS
100
AcDbSpline
 62
7
  6
CONTINUOUS
 70
0
 71
3
 72
32
 73
28
 74
0
 42
0.0000001
 43
0.0000001
 44
0.0000000001
 40
0.0
 40
0.0
 40
0.0
 40
0.0
 40
0.0203719884
 40
0.0406874524
 40
0.0611201533
 40
0.0818399894
 40
0.1030060475
 40
0.1247636228
 40
0.147239479
 40
0.1705405315
 40
0.1947552924
 40
0.2199508803
 40
0.2461775041
 40
0.2734689164
 40
0.3018418466
 40
0.3313016327
 40
0.3618399205
 40
0.3934372401
 40
0.4260662233
 40
0.4596885625
 40
0.5297168808
 40
0.6030980831
 40
0.6793089099
 40
0.7577593775
 40
0.8378097417
 40
0.9187871441
 40
1.0
 40
1.0
 40
1.0
 40
1.0
 10
14.6904658173
 20
13.4387491828
 30
0.0
 10
14.6903733769
 20
13.4393999066
 30
0.0
 10
14.6902571728
 20
13.4407103894
 30
0.0
 10
14.6902943081
 20
13.4426855551
 30
0.0
 10
14.6905435595
 20
13.4446567657
 30
0.0
 10
14.6910041891
 20
13.446617507
 30
0.0
 10
14.6916739835
 20
13.4485620375
 30
0.0
 10
14.6925510592
 20
13.450484454
 30
0.0
 10
14.6936322307
 20
13.4523793234
 30
0.0
 10
14.6949139385
 20
13.4542414732
 30
0.0
 10
14.6963926187
 20
13.4560654834
 30
0.0
 10
14.6980635101
 20
13.4578466444
 30
0.0
 10
14.699921919
 20
13.4595799438
 30
0.0
 10
14.7019625694
 20
13.4612604811
 30
0.0
 10
14.7041794135
 20
13.4628839078
 30
0.0
 10
14.7065663605
 20
13.464445388
 30
0.0
 10
14.7091165155
 20
13.465940696
 30
0.0
 10
14.7118225842
 20
13.4673657343
 30
0.0
 10
14.7146770405
 20
13.4687161995
 30
0.0
 10
14.7187246033
 20
13.4704359005
 30
0.0
 10
14.7241062216
 20
13.4723653002
 30
0.0
 10
14.7309280371
 20
13.4742982051
 30
0.0
 10
14.7381228573
 20
13.475857443
 30
0.0
 10
14.7456088701
 20
13.4770251707
 30
0.0
 10
14.7533012892
 20
13.477788173
 30
0.0
 10
14.7611123886
 20
13.4781377666
 30
0.0
 10
14.7663478513
 20
13.4780924451
 30
0.0
 10
14.7689663526
 20
13.4779994505
 30
0.0
  0
SPLINE
  5
5C4
100
AcDbEntity
  8
AXIS_COSMETIC_THREADS
100
AcDbSpline
 62
7
  6
CONTINUOUS
 70
0
 71
3
 72
15
 73
11
 74
0
 42
0.0000001
 43
0.0000001
 44
0.0000000001
 40
0.0
 40
0.0
 40
0.0
 40
0.0
 40
0.1351555348
 40
0.2688646228
 40
0.4003468044
 40
0.5288536077
 40
0.6536756928
 40
0.7741700346
 40
0.8897952139
 40
1.0
 40
1.0
 40
1.0
 40
1.0
 10
14.7689663526
 20
13.4779994505
 30
0.0
 10
14.7711408236
 20
13.4779222253
 30
0.0
 10
14.7754637157
 20
13.4776720218
 30
0.0
 10
14.7818766767
 20
13.4770078231
 30
0.0
 10
14.7881460875
 20
13.4760611461
 30
0.0
 10
14.7942220091
 20
13.4748393529
 30
0.0
 10
14.8000564204
 20
13.4733525787
 30
0.0
 10
14.8056036854
 20
13.471612114
 30
0.0
 10
14.8108190139
 20
13.4696317663
 30
0.0
 10
14.8141310673
 20
13.4681244361
 30
0.0
 10
14.8157179284
 20
13.4673310055
 30
0.0
  0
SPLINE
  5
5C5
100
AcDbEntity
  8
AXIS_COSMETIC_THREADS
100
AcDbSpline
 62
7
  6
CONTINUOUS
 70
0
 71
3
 72
44
 73
40
 74
0
 42
0.0000001
 43
0.0000001
 44
0.0000000001
 40
0.0
 40
0.0
 40
0.0
 40
0.0
 40
0.0310734999
 40
0.0465975738
 40
0.0621162436
 40
0.0776292834
 40
0.0931330115
 40
0.1086231428
 40
0.1240963084
 40
0.1395513637
 40
0.1549864452
 40
0.1703987711
 40
0.1857870662
 40
0.21648584
 40
0.2318008563
 40
0.247091239
 40
0.2776045566
 40
0.308046552
 40
0.338456915
 40
0.368880286
 40
0.3993688017
 40
0.4299877087
 40
0.4607880412
 40
0.4918154197
 40
0.5231028579
 40
0.5546582178
 40
0.5864722304
 40
0.6185173464
 40
0.6507441795
 40
0.6830946626
 40
0.7154975456
 40
0.747879332
 40
0.780170056
 40
0.8123034563
 40
0.8442255155
 40
0.875892543
 40
0.9072932209
 40
0.9384482006
 40
1.0
 40
1.0
 40
1.0
 40
1.0
 10
16.2098964319
 20
12.6163191021
 30
0.0
 10
16.2099093928
 20
12.6185730405
 30
0.0
 10
16.2100871492
 20
12.6219549114
 30
0.0
 10
16.210637488
 20
12.6264279878
 30
0.0
 10
16.2112057162
 20
12.6297581971
 30
0.0
 10
16.211927195
 20
12.6330569249
 30
0.0
 10
16.2127989781
 20
12.6363170335
 30
0.0
 10
16.2138183569
 20
12.6395310011
 30
0.0
 10
16.2149823297
 20
12.6426916903
 30
0.0
 10
16.21628608
 20
12.6457929729
 30
0.0
 10
16.217725014
 20
12.6488289634
 30
0.0
 10
16.2192948268
 20
12.6517939899
 30
0.0
 10
16.2215536236
 20
12.6556420789
 30
0.0
 10
16.2240550746
 20
12.6593349514
 30
0.0
 10
16.2267761706
 20
12.6628532707
 30
0.0
 10
16.2296314105
 20
12.6662462315
 30
0.0
 10
16.2334457812
 20
12.6702597146
 30
0.0
 10
16.2383742189
 20
12.6746998375
 30
0.0
 10
16.2436117991
 20
12.6787593805
 30
0.0
 10
16.2491230018
 20
12.6824438147
 30
0.0
 10
16.2548794789
 20
12.6857612838
 30
0.0
 10
16.2608569153
 20
12.6887227215
 30
0.0
 10
16.2670345638
 20
12.6913407503
 30
0.0
 10
16.2733948878
 20
12.6936237552
 30
0.0
 10
16.2799197284
 20
12.6955811007
 30
0.0
 10
16.2865906602
 20
12.6972184767
 30
0.0
 10
16.2933871898
 20
12.6985394188
 30
0.0
 10
16.3002863042
 20
12.6995467759
 30
0.0
 10
16.307262913
 20
12.7002412418
 30
0.0
 10
16.3142894996
 20
12.7006234485
 30
0.0
 10
16.3213373398
 20
12.7006935523
 30
0.0
 10
16.3283770456
 20
12.7004515426
 30
0.0
 10
16.335379507
 20
12.6998972548
 30
0.0
 10
16.3423166553
 20
12.6990304447
 30
0.0
 10
16.3491616779
 20
12.6978503647
 30
0.0
 10
16.3558906819
 20
12.696356267
 30
0.0
 10
16.3624839761
 20
12.6945434394
 30
0.0
 10
16.371030091
 20
12.6917062998
 30
0.0
 10
16.3772364196
 20
12.6890665771
 30
0.0
 10
16.3812298378
 20
12.687069868
 30
0.0
  0
SPLINE
  5
5C6
100
AcDbEntity
  8
AXIS_COSMETIC_THREADS
100
AcDbSpline
 62
7
  6
CONTINUOUS
 70
0
 71
3
 72
23
 73
19
 74
0
 42
0.0000001
 43
0.0000001
 44
0.0000000001
 40
0.0
 40
0.0
 40
0.0
 40
0.0
 40
0.0622368565
 40
0.1241937812
 40
0.1860449008
 40
0.2479224293
 40
0.309860414
 40
0.3719045869
 40
0.4340807738
 40
0.4964172476
 40
0.5589271345
 40
0.621596573
 40
0.6844183635
 40
0.7473722458
 40
0.810439692
 40
0.873574536
 40
0.9367492569
 40
1.0
 40
1.0
 40
1.0
 40
1.0
 10
16.3812298378
 20
12.687069868
 30
0.0
 10
16.3828978888
 20
12.6862358425
 30
0.0
 10
16.3861847069
 20
12.6844861804
 30
0.0
 10
16.3909592565
 20
12.6816028951
 30
0.0
 10
16.3955541373
 20
12.6784594597
 30
0.0
 10
16.3999552196
 20
12.6750505345
 30
0.0
 10
16.4041423756
 20
12.6713727209
 30
0.0
 10
16.4080901367
 20
12.6674259521
 30
0.0
 10
16.4117740046
 20
12.6632155377
 30
0.0
 10
16.4151669854
 20
12.6587494566
 30
0.0
 10
16.4182426107
 20
12.6540412281
 30
0.0
 10
16.4209751779
 20
12.6491090104
 30
0.0
 10
16.4233385489
 20
12.6439747565
 30
0.0
 10
16.4253120815
 20
12.6386654705
 30
0.0
 10
16.426874202
 20
12.6332110573
 30
0.0
 10
16.4280122748
 20
12.6276457213
 30
0.0
 10
16.4287122983
 20
12.622003232
 30
0.0
 10
16.4288831499
 20
12.6182141201
 30
0.0
 10
16.4288940424
 20
12.6163188324
 30
0.0
  0
SPLINE
  5
5C7
100
AcDbEntity
  8
AXIS_COSMETIC_THREADS
100
AcDbSpline
 62
7
  6
CONTINUOUS
 70
0
 71
3
 72
14
 73
10
 74
0
 42
0.0000001
 43
0.0000001
 44
0.0000000001
 40
0.0
 40
0.0
 40
0.0
 40
0.0
 40
0.1130193456
 40
0.2300146337
 40
0.3507061309
 40
0.4748317954
 40
0.6021351788
 40
0.7323268231
 40
1.0
 40
1.0
 40
1.0
 40
1.0
 10
16.2674376258
 20
12.6375559356
 30
0.0
 10
16.2685191879
 20
12.6370151545
 30
0.0
 10
16.2707481777
 20
12.6359694726
 30
0.0
 10
16.2742152884
 20
12.6345316251
 30
0.0
 10
16.2778523472
 20
12.6332026318
 30
0.0
 10
16.2816449079
 20
12.631987691
 30
0.0
 10
16.2855790194
 20
12.6308911607
 30
0.0
 10
16.29104383
 20
12.6295805349
 30
0.0
 10
16.2952341321
 20
12.6288065935
 30
0.0
 10
16.2980656553
 20
12.6283771451
 30
0.0
  0
SPLINE
  5
5C8
100
AcDbEntity
  8
AXIS_COSMETIC_THREADS
100
AcDbSpline
 62
7
  6
CONTINUOUS
 70
0
 71
3
 72
11
 73
7
 74
0
 42
0.0000001
 43
0.0000001
 44
0.0000000001
 40
0.0
 40
0.0
 40
0.0
 40
0.0
 40
0.2479620245
 40
0.4999997719
 40
0.7520373258
 40
1.0
 40
1.0
 40
1.0
 40
1.0
 10
16.2980656553
 20
12.6283771451
 30
0.0
 10
16.3015637691
 20
12.627846597
 30
0.0
 10
16.3086624857
 20
12.6270562028
 30
0.0
 10
16.3193952223
 20
12.626663639
 30
0.0
 10
16.3301279691
 20
12.6270561951
 30
0.0
 10
16.3372266909
 20
12.6278466013
 30
0.0
 10
16.3407248137
 20
12.6283771515
 30
0.0
  0
SPLINE
  5
5C9
100
AcDbEntity
  8
AXIS_COSMETIC_THREADS
100
AcDbSpline
 62
7
  6
CONTINUOUS
 70
0
 71
3
 72
38
 73
34
 74
0
 42
0.0000001
 43
0.0000001
 44
0.0000000001
 40
0.0
 40
0.0
 40
0.0
 40
0.0
 40
0.0874810016
 40
0.1299561711
 40
0.1714255625
 40
0.211782927
 40
0.2509304102
 40
0.2887832418
 40
0.3252695419
 40
0.3603329553
 40
0.3939360877
 40
0.4260604598
 40
0.4567137879
 40
0.4859281768
 40
0.5137694471
 40
0.5403353273
 40
0.5657630905
 40
0.5902277827
 40
0.6139433653
 40
0.6371571994
 40
0.6601413122
 40
0.683179715
 40
0.7065538306
 40
0.7305270867
 40
0.7553354533
 40
0.7811780386
 40
0.8082164308
 40
0.8365712239
 40
0.8663259816
 40
0.897535466
 40
0.9302285959
 40
0.9644006765
 40
1.0
 40
1.0
 40
1.0
 40
1.0
 10
16.3407248137
 20
12.6283771515
 30
0.0
 10
16.3436952077
 20
12.6288276626
 30
0.0
 10
16.3480877229
 20
12.6296460198
 30
0.0
 10
16.3538075222
 20
12.6310445541
 30
0.0
 10
16.3579132509
 20
12.6322178483
 30
0.0
 10
16.3618596219
 20
12.6335204882
 30
0.0
 10
16.3656304146
 20
12.6349473934
 30
0.0
 10
16.3692100885
 20
12.6364925678
 30
0.0
 10
16.3725839493
 20
12.6381496608
 30
0.0
 10
16.3757380392
 20
12.6399120929
 30
0.0
 10
16.3786595781
 20
12.6417724065
 30
0.0
 10
16.381336317
 20
12.6437235524
 30
0.0
 10
16.3837575776
 20
12.6457572487
 30
0.0
 10
16.3859129356
 20
12.6478659977
 30
0.0
 10
16.3877937635
 20
12.6500410573
 30
0.0
 10
16.3893915418
 20
12.6522743623
 30
0.0
 10
16.3906993787
 20
12.6545568745
 30
0.0
 10
16.3917107772
 20
12.6568796122
 30
0.0
 10
16.392420416
 20
12.6592328353
 30
0.0
 10
16.3928244529
 20
12.6616061683
 30
0.0
 10
16.3929199311
 20
12.6639886722
 30
0.0
 10
16.3927068863
 20
12.6663690363
 30
0.0
 10
16.3921858903
 20
12.6687359282
 30
0.0
 10
16.3913609174
 20
12.671078779
 30
0.0
 10
16.3902357926
 20
12.673387237
 30
0.0
 10
16.3888168256
 20
12.6756521404
 30
0.0
 10
16.3871102011
 20
12.67786422
 30
0.0
 10
16.3851238525
 20
12.6800149967
 30
0.0
 10
16.3828662146
 20
12.6820960902
 30
0.0
 10
16.3803464037
 20
12.6840993259
 30
0.0
 10
16.3775746577
 20
12.6860169926
 30
0.0
 10
16.3745629656
 20
12.6878407351
 30
0.0
 10
16.3724463639
 20
12.6889667878
 30
0.0
 10
16.3713528471
 20
12.6895135462
 30
0.0
  0
SPLINE
  5
5CA
100
AcDbEntity
  8
AXIS_COSMETIC_THREADS
100
AcDbSpline
 62
7
  6
CONTINUOUS
 70
0
 71
3
 72
53
 73
49
 74
0
 42
0.0000001
 43
0.0000001
 44
0.0000000001
 40
0.0
 40
0.0
 40
0.0
 40
0.0
 40
0.0157790742
 40
0.0310835291
 40
0.0602035241
 40
0.074019063
 40
0.0873430436
 40
0.1001872139
 40
0.1125689261
 40
0.136028669
 40
0.147191993
 40
0.1580313506
 40
0.1686004163
 40
0.1789599561
 40
0.1891760788
 40
0.1993194156
 40
0.2094627489
 40
0.2196788593
 40
0.2300383856
 40
0.2406074609
 40
0.2514468772
 40
0.2626102602
 40
0.2860696789
 40
0.2984511677
 40
0.3112956437
 40
0.3246207571
 40
0.3384370653
 40
0.367551097
 40
0.3828531041
 40
0.3986388439
 40
0.4148967241
 40
0.4316107593
 40
0.4663262795
 40
0.5026125673
 40
0.5402568478
 40
0.5790183036
 40
0.6186354167
 40
0.6588315041
 40
0.6993194218
 40
0.739807368
 40
0.7800034613
 40
0.8196204346
 40
0.8583822428
 40
0.8960264441
 40
0.9323108032
 40
0.9670323016
 40
0.9837487855
 40
1.0
 40
1.0
 40
1.0
 40
1.0
 10
16.2674376258
 20
12.6375559356
 30
0.0
 10
16.2666005275
 20
12.6379744848
 30
0.0
 10
16.2649671926
 20
12.6388310874
 30
0.0
 10
16.261876081
 20
12.6406199913
 30
0.0
 10
16.2590002531
 20
12.6425450809
 30
0.0
 10
16.2563782865
 20
12.644611302
 30
0.0
 10
16.2545976577
 20
12.646179617
 30
0.0
 10
16.252972623
 20
12.6477904174
 30
0.0
 10
16.2510534378
 20
12.6499496763
 30
0.0
 10
16.2494125117
 20
12.652218457
 30
0.0
 10
16.2481024933
 20
12.6545782642
 30
0.0
 10
16.2473078422
 20
12.6563418894
 30
0.0
 10
16.246687534
 20
12.6581238066
 30
0.0
 10
16.2462429012
 20
12.6599195979
 30
0.0
 10
16.2459756048
 20
12.6617248085
 30
0.0
 10
16.2458865397
 20
12.6635347414
 30
0.0
 10
16.245975606
 20
12.6653446734
 30
0.0
 10
16.2462428997
 20
12.6671498826
 30
0.0
 10
16.2466875287
 20
12.6689456738
 30
0.0
 10
16.2473078387
 20
12.6707275941
 30
0.0
 10
16.2481025021
 20
12.6724912224
 30
0.0
 10
16.2494125268
 20
12.6748510114
 30
0.0
 10
16.251053408
 20
12.677119786
 30
0.0
 10
16.2529725631
 20
12.6792790535
 30
0.0
 10
16.2545976629
 20
12.6808898924
 30
0.0
 10
16.2563784344
 20
12.6824582436
 30
0.0
 10
16.2590002434
 20
12.6845242758
 30
0.0
 10
16.2618755698
 20
12.686449255
 30
0.0
 10
16.2649666267
 20
12.6882381549
 30
0.0
 10
16.2674543639
 20
12.6895427765
 30
0.0
 10
16.2700668931
 20
12.6907846086
 30
0.0
 10
16.2737548503
 20
12.6923731167
 30
0.0
 10
16.2786399066
 20
12.6941756225
 30
0.0
 10
16.2848187067
 20
12.6960191262
 30
0.0
 10
16.2913283721
 20
12.6975520777
 30
0.0
 10
16.2981065263
 20
12.6987599104
 30
0.0
 10
16.3050884778
 20
12.6996311194
 30
0.0
 10
16.3122074342
 20
12.7001571705
 30
0.0
 10
16.3193952367
 20
12.7003330471
 30
0.0
 10
16.3265830398
 20
12.7001571708
 30
0.0
 10
16.3337019891
 20
12.6996311141
 30
0.0
 10
16.3406839562
 20
12.6987599241
 30
0.0
 10
16.3474621145
 20
12.697552064
 30
0.0
 10
16.3539716777
 20
12.6960191115
 30
0.0
 10
16.3601507385
 20
12.6941756822
 30
0.0
 10
16.3650361231
 20
12.6923728566
 30
0.0
 10
16.3687241088
 20
12.6907843017
 30
0.0
 10
16.3704907011
 20
12.6899446192
 30
0.0
 10
16.3713528471
 20
12.6895135462
 30
0.0
  0
SPLINE
  5
5CB
100
AcDbEntity
  8
60420
100
AcDbSpline
 62
7
  6
CONTINUOUS
 70
0
 71
3
 72
11
 73
7
 74
0
 42
0.0000001
 43
0.0000001
 44
0.0000000001
 40
0.0
 40
0.0
 40
0.0
 40
0.0
 40
0.2409305685
 40
0.5000023616
 40
0.7590740426
 40
1.0
 40
1.0
 40
1.0
 40
1.0
 10
17.6927135287
 20
13.7839471876
 30
0.0
 10
17.6927135287
 20
13.7921874525
 30
0.0
 10
17.6902325555
 20
13.8093171445
 30
0.0
 10
17.6809701473
 20
13.833754642
 30
0.0
 10
17.6669771124
 20
13.8558263952
 30
0.0
 10
17.6547622212
 20
13.868089192
 30
0.0
 10
17.648169752
 20
13.873032745
 30
0.0
  0
SPLINE
  5
5CC
100
AcDbEntity
  8
60420
100
AcDbSpline
 62
7
  6
CONTINUOUS
 70
0
 71
3
 72
13
 73
9
 74
0
 42
0.0000001
 43
0.0000001
 44
0.0000000001
 40
0.0
 40
0.0
 40
0.0
 40
0.0
 40
0.107760342
 40
0.2176711883
 40
0.3316549824
 40
0.4512603247
 40
0.7107040311
 40
1.0
 40
1.0
 40
1.0
 40
1.0
 10
17.6691797605
 20
13.7266190376
 30
0.0
 10
17.6710145734
 20
13.7275364686
 30
0.0
 10
17.6745598405
 20
13.7297328026
 30
0.0
 10
17.6792715649
 20
13.7339806605
 30
0.0
 10
17.6833462601
 20
13.739132029
 30
0.0
 10
17.6879855939
 20
13.7473275196
 30
0.0
 10
17.6918276327
 20
13.7596076
 30
0.0
 10
17.6927135287
 20
13.7700883114
 30
0.0
 10
17.6927135287
 20
13.7755955327
 30
0.0
  0
SPLINE
  5
5CD
100
AcDbEntity
  8
60420
100
AcDbSpline
 62
7
  6
CONTINUOUS
 70
0
 71
3
 72
11
 73
7
 74
0
 42
0.0000001
 43
0.0000001
 44
0.0000000001
 40
0.0
 40
0.0
 40
0.0
 40
0.0
 40
0.2271154211
 40
0.4646631346
 40
0.720793923
 40
1.0
 40
1.0
 40
1.0
 40
1.0
 10
17.5881885884
 20
13.8886013819
 30
0.0
 10
17.591032319
 20
13.8900232852
 30
0.0
 10
17.5972989125
 20
13.8921081029
 30
0.0
 10
17.6074808524
 20
13.8926184318
 30
0.0
 10
17.6181962968
 20
13.8906042815
 30
0.0
 10
17.6251881939
 20
13.8877778232
 30
0.0
 10
17.6286841745
 20
13.8860298329
 30
0.0
  0
SPLINE
  5
5CE
100
AcDbEntity
  8
60420
100
AcDbSpline
 62
7
  6
CONTINUOUS
 70
0
 71
3
 72
11
 73
7
 74
0
 42
0.0000001
 43
0.0000001
 44
0.0000000001
 40
0.0
 40
0.0
 40
0.0
 40
0.0
 40
0.2434183546
 40
0.5000011743
 40
0.7565852662
 40
1.0
 40
1.0
 40
1.0
 40
1.0
 10
17.6923775804
 20
13.7837831403
 30
0.0
 10
17.6917149968
 20
13.7920085132
 30
0.0
 10
17.6884408824
 20
13.8087775125
 30
0.0
 10
17.6789616903
 20
13.8327455418
 30
0.0
 10
17.665475709
 20
13.8547101131
 30
0.0
 10
17.6540258396
 20
13.8673914349
 30
0.0
 10
17.6478435596
 20
13.8728570696
 30
0.0
  0
SPLINE
  5
5CF
100
AcDbEntity
  8
AXIS
100
AcDbSpline
 62
7
  6
CONTINUOUS
 70
0
 71
3
 72
9
 73
5
 74
0
 42
0.0000001
 43
0.0000001
 44
0.0000000001
 40
0.0
 40
0.0
 40
0.0
 40
0.0
 40
0.5357621669
 40
1.0
 40
1.0
 40
1.0
 40
1.0
 10
20.1243256905
 20
15.0822978295
 30
0.0
 10
20.1235897848
 20
15.0826657823
 30
0.0
 10
20.1220894325
 20
15.0831633363
 30
0.0
 10
20.1204900639
 20
15.0829002879
 30
0.0
 10
20.1198525433
 20
15.0825811739
 30
0.0
  0
SPLINE
  5
5D0
100
AcDbEntity
  8
AXIS
100
AcDbSpline
 62
7
  6
CONTINUOUS
 70
0
 71
3
 72
9
 73
5
 74
0
 42
0.0000001
 43
0.0000001
 44
0.0000000001
 40
0.0
 40
0.0
 40
0.0
 40
0.0
 40
0.5357621669
 40
1.0
 40
1.0
 40
1.0
 40
1.0
 10
20.1602099677
 20
15.0643556909
 30
0.0
 10
20.159474062
 20
15.0647236437
 30
0.0
 10
20.1579737097
 20
15.0652211977
 30
0.0
 10
20.1563743411
 20
15.0649581493
 30
0.0
 10
20.1557368205
 20
15.0646390353
 30
0.0
  0
SPLINE
  5
5D1
100
AcDbEntity
  8
AXIS
100
AcDbSpline
 62
7
  6
CONTINUOUS
 70
0
 71
3
 72
9
 73
5
 74
0
 42
0.0000001
 43
0.0000001
 44
0.0000000001
 40
0.0
 40
0.0
 40
0.0
 40
0.0
 40
0.2343305219
 40
1.0
 40
1.0
 40
1.0
 40
1.0
 10
19.5857553051
 20
14.8640880614
 30
0.0
 10
19.5879531416
 20
14.8629891432
 30
0.0
 10
19.5970912203
 20
14.857819656
 30
0.0
 10
19.605230517
 20
14.8509862593
 30
0.0
 10
19.6108367739
 20
14.8452386389
 30
0.0
  0
SPLINE
  5
5D2
100
AcDbEntity
  8
AXIS
100
AcDbSpline
 62
7
  6
CONTINUOUS
 70
0
 71
3
 72
9
 73
5
 74
0
 42
0.0000001
 43
0.0000001
 44
0.0000000001
 40
0.0
 40
0.0
 40
0.0
 40
0.0
 40
0.2431152592
 40
1.0
 40
1.0
 40
1.0
 40
1.0
 10
19.6108367739
 20
14.8452386389
 30
0.0
 10
19.6127062263
 20
14.8433220477
 30
0.0
 10
19.6201277573
 20
14.8351795426
 30
0.0
 10
19.6264942219
 20
14.8260913713
 30
0.0
 10
19.630682494
 20
14.8188847231
 30
0.0
  0
SPLINE
  5
5D3
100
AcDbEntity
  8
AXIS
100
AcDbSpline
 62
7
  6
CONTINUOUS
 70
0
 71
3
 72
9
 73
5
 74
0
 42
0.0000001
 43
0.0000001
 44
0.0000000001
 40
0.0
 40
0.0
 40
0.0
 40
0.0
 40
0.2558268074
 40
1.0
 40
1.0
 40
1.0
 40
1.0
 10
19.6387377714
 20
14.8028311281
 30
0.0
 10
19.639837573
 20
14.8002574216
 30
0.0
 10
19.6438440741
 20
14.7900764364
 30
0.0
 10
19.6466848104
 20
14.779422255
 30
0.0
 10
19.647978655
 20
14.7713841783
 30
0.0
  0
SPLINE
  5
5D4
100
AcDbEntity
  8
AXIS
100
AcDbSpline
 62
7
  6
CONTINUOUS
 70
0
 71
3
 72
11
 73
7
 74
0
 42
0.0000001
 43
0.0000001
 44
0.0000000001
 40
0.0
 40
0.0
 40
0.0
 40
0.0
 40
0.2977706226
 40
0.5620206054
 40
0.7922628266
 40
1.0
 40
1.0
 40
1.0
 40
1.0
 10
19.647978655
 20
14.7713841783
 30
0.0
 10
19.6491407557
 20
14.7641645681
 30
0.0
 10
19.6501104121
 20
14.7502817781
 30
0.0
 10
19.6469583092
 20
14.7308659875
 30
0.0
 10
19.639120757
 20
14.7151173337
 30
0.0
 10
19.6305747825
 20
14.7079344579
 30
0.0
 10
19.62601201
 20
14.7056526295
 30
0.0
  0
SPLINE
  5
5D5
100
AcDbEntity
  8
AXIS
100
AcDbSpline
 62
7
  6
CONTINUOUS
 70
0
 71
3
 72
9
 73
5
 74
0
 42
0.0000001
 43
0.0000001
 44
0.0000000001
 40
0.0
 40
0.0
 40
0.0
 40
0.0
 40
0.2322914485
 40
1.0
 40
1.0
 40
1.0
 40
1.0
 10
19.762420645
 20
14.9143356878
 30
0.0
 10
19.7631283374
 20
14.9139818416
 30
0.0
 10
19.766083207
 20
14.9122763185
 30
0.0
 10
19.7686613404
 20
14.9099623632
 30
0.0
 10
19.7704029041
 20
14.9080117485
 30
0.0
  0
SPLINE
  5
5D6
100
AcDbEntity
  8
AXIS
100
AcDbSpline
 62
7
  6
CONTINUOUS
 70
0
 71
3
 72
9
 73
5
 74
0
 42
0.0000001
 43
0.0000001
 44
0.0000000001
 40
0.0
 40
0.0
 40
0.0
 40
0.0
 40
0.245679582
 40
1.0
 40
1.0
 40
1.0
 40
1.0
 10
19.7704029041
 20
14.9080117485
 30
0.0
 10
19.7713535253
 20
14.9069470181
 30
0.0
 10
19.7749533597
 20
14.902379536
 30
0.0
 10
19.7775354736
 20
14.8970130706
 30
0.0
 10
19.778752592
 20
14.8928030171
 30
0.0
  0
SPLINE
  5
5D7
100
AcDbEntity
  8
AXIS
100
AcDbSpline
 62
7
  6
CONTINUOUS
 70
0
 71
3
 72
9
 73
5
 74
0
 42
0.0000001
 43
0.0000001
 44
0.0000000001
 40
0.0
 40
0.0
 40
0.0
 40
0.0
 40
0.2322914485
 40
1.0
 40
1.0
 40
1.0
 40
1.0
 10
19.7983049222
 20
14.8963935492
 30
0.0
 10
19.7990126146
 20
14.896039703
 30
0.0
 10
19.8019674842
 20
14.8943341799
 30
0.0
 10
19.8045456176
 20
14.8920202246
 30
0.0
 10
19.8062871813
 20
14.8900696099
 30
0.0
  0
SPLINE
  5
5D8
100
AcDbEntity
  8
AXIS
100
AcDbSpline
 62
7
  6
CONTINUOUS
 70
0
 71
3
 72
9
 73
5
 74
0
 42
0.0000001
 43
0.0000001
 44
0.0000000001
 40
0.0
 40
0.0
 40
0.0
 40
0.0
 40
0.2475830225
 40
1.0
 40
1.0
 40
1.0
 40
1.0
 10
19.8062871813
 20
14.8900696099
 30
0.0
 10
19.8074077316
 20
14.8888145528
 30
0.0
 10
19.8115605329
 20
14.8834262629
 30
0.0
 10
19.8143402106
 20
14.8769632758
 30
0.0
 10
19.8153515311
 20
14.8719510905
 30
0.0
  0
SPLINE
  5
5D9
100
AcDbEntity
  8
AXIS
100
AcDbSpline
 62
7
  6
CONTINUOUS
 70
0
 71
3
 72
11
 73
7
 74
0
 42
0.0000001
 43
0.0000001
 44
0.0000000001
 40
0.0
 40
0.0
 40
0.0
 40
0.0
 40
0.299286388
 40
0.5647614535
 40
0.7945148817
 40
1.0
 40
1.0
 40
1.0
 40
1.0
 10
19.8153515311
 20
14.8719510905
 30
0.0
 10
19.8157813248
 20
14.8698209984
 30
0.0
 10
19.8162219167
 20
14.8657087214
 30
0.0
 10
19.8154884031
 20
14.8599219517
 30
0.0
 10
19.8133134315
 20
14.8552033101
 30
0.0
 10
19.8108226343
 20
14.8530518613
 30
0.0
 10
19.8094885874
 20
14.8523838325
 30
0.0
  0
SPLINE
  5
5DA
100
AcDbEntity
  8
AXIS
100
AcDbSpline
 62
7
  6
CONTINUOUS
 70
0
 71
3
 72
11
 73
7
 74
0
 42
0.0000001
 43
0.0000001
 44
0.0000000001
 40
0.0
 40
0.0
 40
0.0
 40
0.0
 40
0.2271025309
 40
0.464626809
 40
0.7209205669
 40
1.0
 40
1.0
 40
1.0
 40
1.0
 10
19.5454986002
 20
14.8666389206
 30
0.0
 10
19.548325353
 20
14.8680525709
 30
0.0
 10
19.5545529176
 20
14.8701295069
 30
0.0
 10
19.5646774662
 20
14.8706377685
 30
0.0
 10
19.5753292544
 20
14.8686322729
 30
0.0
 10
19.5822814593
 20
14.8658249843
 30
0.0
 10
19.5857553051
 20
14.8640880614
 30
0.0
  0
SPLINE
  5
5DB
100
AcDbEntity
  8
AXIS
100
AcDbSpline
 62
7
  6
CONTINUOUS
 70
0
 71
3
 72
9
 73
5
 74
0
 42
0.0000001
 43
0.0000001
 44
0.0000000001
 40
0.0
 40
0.0
 40
0.0
 40
0.0
 40
0.4637223486
 40
1.0
 40
1.0
 40
1.0
 40
1.0
 10
19.7512369797
 20
14.9150441343
 30
0.0
 10
19.7528292229
 20
14.9158414559
 30
0.0
 10
19.7568274463
 20
14.9165066119
 30
0.0
 10
19.7605787195
 20
14.9152566505
 30
0.0
 10
19.762420645
 20
14.9143356878
 30
0.0
  0
SPLINE
  5
5DC
100
AcDbEntity
  8
AXIS
100
AcDbSpline
 62
7
  6
CONTINUOUS
 70
0
 71
3
 72
13
 73
9
 74
0
 42
0.0000001
 43
0.0000001
 44
0.0000000001
 40
0.0
 40
0.0
 40
0.0
 40
0.0
 40
0.0912598907
 40
0.1945382488
 40
0.314852393
 40
0.4503660491
 40
0.7392879655
 40
1.0
 40
1.0
 40
1.0
 40
1.0
 10
20.1646831149
 20
15.0467518384
 30
0.0
 10
20.1652519886
 20
15.0470365909
 30
0.0
 10
20.1663090321
 20
15.047983449
 30
0.0
 10
20.1671708613
 20
15.0500556278
 30
0.0
 10
20.1673789219
 20
15.0525801561
 30
0.0
 10
20.1667887982
 20
15.0563593288
 30
0.0
 10
20.1647005266
 20
15.0607594229
 30
0.0
 10
20.1618354919
 20
15.0635429287
 30
0.0
 10
20.1602099677
 20
15.0643556909
 30
0.0
  0
SPLINE
  5
5DD
100
AcDbEntity
  8
AXIS
100
AcDbSpline
 62
7
  6
CONTINUOUS
 70
0
 71
3
 72
9
 73
5
 74
0
 42
0.0000001
 43
0.0000001
 44
0.0000000001
 40
0.0
 40
0.0
 40
0.0
 40
0.0
 40
0.4805738587
 40
1.0
 40
1.0
 40
1.0
 40
1.0
 10
19.7871212569
 20
14.8971019957
 30
0.0
 10
19.7881782521
 20
14.8976312899
 30
0.0
 10
19.7906113853
 20
14.8983059315
 30
0.0
 10
19.7931081677
 20
14.8980934122
 30
0.0
 10
19.7943560578
 20
14.8978191121
 30
0.0
  0
SPLINE
  5
5DE
100
AcDbEntity
  8
AXIS
100
AcDbSpline
 62
7
  6
CONTINUOUS
 70
0
 71
3
 72
9
 73
5
 74
0
 42
0.0000001
 43
0.0000001
 44
0.0000000001
 40
0.0
 40
0.0
 40
0.0
 40
0.0
 40
0.24019305
 40
1.0
 40
1.0
 40
1.0
 40
1.0
 10
19.7943560578
 20
14.8978191121
 30
0.0
 10
19.7946848349
 20
14.8977468432
 30
0.0
 10
19.7960430229
 20
14.89739828
 30
0.0
 10
19.7973524863
 20
14.8968697671
 30
0.0
 10
19.7983049222
 20
14.8963935492
 30
0.0
  0
SPLINE
  5
5DF
100
AcDbEntity
  8
AXIS
100
AcDbSpline
 62
7
  6
CONTINUOUS
 70
0
 71
3
 72
13
 73
9
 74
0
 42
0.0000001
 43
0.0000001
 44
0.0000000001
 40
0.0
 40
0.0
 40
0.0
 40
0.0
 40
0.0912598907
 40
0.1945382488
 40
0.314852393
 40
0.4503660491
 40
0.7392879655
 40
1.0
 40
1.0
 40
1.0
 40
1.0
 10
20.1287988377
 20
15.064693977
 30
0.0
 10
20.1293677114
 20
15.0649787295
 30
0.0
 10
20.1304247549
 20
15.0659255876
 30
0.0
 10
20.1312865841
 20
15.0679977664
 30
0.0
 10
20.1314946447
 20
15.0705222947
 30
0.0
 10
20.130904521
 20
15.0743014674
 30
0.0
 10
20.1288162494
 20
15.0787015615
 30
0.0
 10
20.1259512147
 20
15.0814850673
 30
0.0
 10
20.1243256905
 20
15.0822978295
 30
0.0
  0
SPLINE
  5
5E0
100
AcDbEntity
  8
AXIS
100
AcDbSpline
 62
7
  6
CONTINUOUS
 70
0
 71
3
 72
9
 73
5
 74
0
 42
0.0000001
 43
0.0000001
 44
0.0000000001
 40
0.0
 40
0.0
 40
0.0
 40
0.0
 40
0.2437859246
 40
1.0
 40
1.0
 40
1.0
 40
1.0
 10
17.6370358294
 20
13.8897283235
 30
0.0
 10
17.637755258
 20
13.8893686092
 30
0.0
 10
17.6406814171
 20
13.8878435205
 30
0.0
 10
17.643507612
 20
13.8861287046
 30
0.0
 10
17.6455842029
 20
13.8847455803
 30
0.0
  0
SPLINE
  5
5E1
100
AcDbEntity
  8
AXIS
100
AcDbSpline
 62
7
  6
CONTINUOUS
 70
0
 71
3
 72
9
 73
5
 74
0
 42
0.0000001
 43
0.0000001
 44
0.0000000001
 40
0.0
 40
0.0
 40
0.0
 40
0.0
 40
0.2449549183
 40
1.0
 40
1.0
 40
1.0
 40
1.0
 10
17.6455842029
 20
13.8847455803
 30
0.0
 10
17.6462791704
 20
13.8842826936
 30
0.0
 10
17.6490893669
 20
13.8823527803
 30
0.0
 10
17.6517920191
 20
13.8802671814
 30
0.0
 10
17.6537690706
 20
13.8786191996
 30
0.0
  0
SPLINE
  5
5E2
100
AcDbEntity
  8
AXIS
100
AcDbSpline
 62
7
  6
CONTINUOUS
 70
0
 71
3
 72
15
 73
11
 74
0
 42
0.0000001
 43
0.0000001
 44
0.0000000001
 40
0.0
 40
0.0
 40
0.0
 40
0.0
 40
0.1353397754
 40
0.278874834
 40
0.4241940204
 40
0.5646024424
 40
0.6942262536
 40
0.8092619708
 40
0.9095173301
 40
1.0
 40
1.0
 40
1.0
 40
1.0
 10
17.6537690706
 20
13.8786191996
 30
0.0
 10
17.6596199013
 20
13.8737422086
 30
0.0
 10
17.6705900028
 20
13.8623536981
 30
0.0
 10
17.6839280456
 20
13.8424283351
 30
0.0
 10
17.6939362088
 20
13.8203161075
 30
0.0
 10
17.6998957258
 20
13.7975880137
 30
0.0
 10
17.7013823212
 20
13.7758142678
 30
0.0
 10
17.6982158025
 20
13.7564406344
 30
0.0
 10
17.690378503
 20
13.7407350299
 30
0.0
 10
17.6818470974
 20
13.7335706145
 30
0.0
 10
17.6772925343
 20
13.7312928917
 30
0.0
  0
SPLINE
  5
5E3
100
AcDbEntity
  8
AXIS
100
AcDbSpline
 62
7
  6
CONTINUOUS
 70
0
 71
3
 72
9
 73
5
 74
0
 42
0.0000001
 43
0.0000001
 44
0.0000000001
 40
0.0
 40
0.0
 40
0.0
 40
0.0
 40
0.4714424191
 40
1.0
 40
1.0
 40
1.0
 40
1.0
 10
17.5967791244
 20
13.8922791828
 30
0.0
 10
17.6016401911
 20
13.8947101871
 30
0.0
 10
17.6133748562
 20
13.8972550692
 30
0.0
 10
17.6249113287
 20
13.8946812
 30
0.0
 10
17.6306158077
 20
13.8925388406
 30
0.0
  0
LINE
  5
5E4
100
AcDbEntity
  8
AXIS
100
AcDbLine
 62
7
  6
CONTINUOUS
 10
17.6306158077
 20
13.8925388406
 11
17.6370358294
 21
13.8897283235
  0
SPLINE
  5
5E5
100
AcDbEntity
  8
0
100
AcDbSpline
 62
7
  6
CONTINUOUS
 70
0
 71
3
 72
15
 73
11
 74
0
 42
0.0000001
 43
0.0000001
 44
0.0000000001
 40
0.0
 40
0.0
 40
0.0
 40
0.0
 40
0.1076727695
 40
0.2174998831
 40
0.3313821129
 40
0.4508569326
 40
0.5770461927
 40
0.7106506394
 40
0.8518082218
 40
1.0
 40
1.0
 40
1.0
 40
1.0
 10
14.5553567653
 20
12.9553889476
 30
0.0
 10
14.5534118524
 20
12.9563615974
 30
0.0
 10
14.5496534423
 20
12.9586898187
 30
0.0
 10
14.5446615615
 20
12.9631957538
 30
0.0
 10
14.5403424769
 20
12.9686551238
 30
0.0
 10
14.5367530681
 20
12.9749970219
 30
0.0
 10
14.5339258444
 20
12.9821392384
 30
0.0
 10
14.5318926963
 20
12.9899966878
 30
0.0
 10
14.530675022
 20
12.9984663991
 30
0.0
 10
14.53041508
 20
13.0043144487
 30
0.0
 10
14.53041508
 20
13.0073073382
 30
0.0
  0
SPLINE
  5
5E6
100
AcDbEntity
  8
0
100
AcDbSpline
 62
7
  6
CONTINUOUS
 70
0
 71
3
 72
15
 73
11
 74
0
 42
0.0000001
 43
0.0000001
 44
0.0000000001
 40
0.0
 40
0.0
 40
0.0
 40
0.0
 40
0.1465837112
 40
0.2868691409
 40
0.4203652197
 40
0.5470260136
 40
0.6673839921
 40
0.782276036
 40
0.8927432168
 40
1.0
 40
1.0
 40
1.0
 40
1.0
 10
18.1083753928
 20
13.0073073382
 30
0.0
 10
18.1083753928
 20
13.0045582309
 30
0.0
 10
18.1081551119
 20
12.999174813
 30
0.0
 10
18.1071277379
 20
12.9913471186
 30
0.0
 10
18.1054169641
 20
12.9840202517
 30
0.0
 10
18.1030313329
 20
12.9772774707
 30
0.0
 10
18.0999974141
 20
12.9711849366
 30
0.0
 10
18.096334575
 20
12.9658080642
 30
0.0
 10
18.0920881789
 20
12.9612073504
 30
0.0
 10
18.0888654629
 20
12.9586654049
 30
0.0
 10
18.087187128
 20
12.9575565662
 30
0.0
  0
SPLINE
  5
5E7
100
AcDbEntity
  8
0
100
AcDbSpline
 62
7
  6
CONTINUOUS
 70
0
 71
3
 72
15
 73
11
 74
0
 42
0.0000001
 43
0.0000001
 44
0.0000000001
 40
0.0
 40
0.0
 40
0.0
 40
0.0
 40
0.112971381
 40
0.2273604765
 40
0.344314664
 40
0.4649765526
 40
0.5903347817
 40
0.7211391527
 40
0.8576838224
 40
1.0
 40
1.0
 40
1.0
 40
1.0
 10
16.3622775888
 20
12.0948113378
 30
0.0
 10
16.360775778
 20
12.0940642045
 30
0.0
 10
16.3576438564
 20
12.0927704389
 30
0.0
 10
16.3526809997
 20
12.0914818132
 30
0.0
 10
16.3474769715
 20
12.0908549355
 30
0.0
 10
16.3420743887
 20
12.0908900608
 30
0.0
 10
16.3365104534
 20
12.0915839633
 30
0.0
 10
16.3308268092
 20
12.0929325472
 30
0.0
 10
16.3250675335
 20
12.0949162727
 30
0.0
 10
16.321285252
 20
12.0966160644
 30
0.0
 10
16.3193952364
 20
12.0975610722
 30
0.0
  0
SPLINE
  5
5E8
100
AcDbEntity
  8
0
100
AcDbSpline
 62
7
  6
CONTINUOUS
 70
0
 71
3
 72
15
 73
11
 74
0
 42
0.0000001
 43
0.0000001
 44
0.0000000001
 40
0.0
 40
0.0
 40
0.0
 40
0.0
 40
0.1423340764
 40
0.2789005573
 40
0.409742272
 40
0.5351440561
 40
0.6558241115
 40
0.7727413144
 40
0.8870385021
 40
1.0
 40
1.0
 40
1.0
 40
1.0
 10
16.3193952364
 20
12.0975610722
 30
0.0
 10
16.3175022343
 20
12.0966145711
 30
0.0
 10
16.3137137999
 20
12.094912261
 30
0.0
 10
16.3079445523
 20
12.0929266647
 30
0.0
 10
16.302250506
 20
12.0915782518
 30
0.0
 10
16.2966763593
 20
12.0908876935
 30
0.0
 10
16.2912654993
 20
12.0908585512
 30
0.0
 10
16.2860562026
 20
12.091491395
 30
0.0
 10
16.2810895321
 20
12.092787276
 30
0.0
 10
16.2779569663
 20
12.0940886977
 30
0.0
 10
16.2764546708
 20
12.0948399948
 30
0.0
  0
SPLINE
  5
5E9
100
AcDbEntity
  8
0
100
AcDbSpline
 62
7
  6
CONTINUOUS
 70
0
 71
3
 72
15
 73
11
 74
0
 42
0.0000001
 43
0.0000001
 44
0.0000000001
 40
0.0
 40
0.0
 40
0.0
 40
0.0
 40
0.1076727695
 40
0.2174998831
 40
0.3313821129
 40
0.4508569326
 40
0.5770461927
 40
0.7106506394
 40
0.8518082218
 40
1.0
 40
1.0
 40
1.0
 40
1.0
 10
16.2764546708
 20
12.0948399948
 30
0.0
 10
16.2745097578
 20
12.0958126447
 30
0.0
 10
16.2707513477
 20
12.098140866
 30
0.0
 10
16.2657594669
 20
12.1026468011
 30
0.0
 10
16.2614403823
 20
12.1081061711
 30
0.0
 10
16.2578509736
 20
12.1144480692
 30
0.0
 10
16.2550237498
 20
12.1215902857
 30
0.0
 10
16.2529906017
 20
12.1294477351
 30
0.0
 10
16.2517729275
 20
12.1379174464
 30
0.0
 10
16.2515129854
 20
12.143765496
 30
0.0
 10
16.2515129854
 20
12.1467583855
 30
0.0
  0
SPLINE
  5
5EA
100
AcDbEntity
  8
0
100
AcDbSpline
 62
7
  6
CONTINUOUS
 70
0
 71
3
 72
15
 73
11
 74
0
 42
0.0000001
 43
0.0000001
 44
0.0000000001
 40
0.0
 40
0.0
 40
0.0
 40
0.0
 40
0.1465837112
 40
0.2868691409
 40
0.4203652197
 40
0.5470260136
 40
0.6673839921
 40
0.782276036
 40
0.8927432168
 40
1.0
 40
1.0
 40
1.0
 40
1.0
 10
16.3872774874
 20
12.1467583855
 30
0.0
 10
16.3872774874
 20
12.1440092782
 30
0.0
 10
16.3870572064
 20
12.1386258603
 30
0.0
 10
16.3860298325
 20
12.1307981659
 30
0.0
 10
16.3843190587
 20
12.123471299
 30
0.0
 10
16.3819334275
 20
12.116728518
 30
0.0
 10
16.3788995087
 20
12.1106359839
 30
0.0
 10
16.3752366696
 20
12.1052591115
 30
0.0
 10
16.3709902735
 20
12.1006583977
 30
0.0
 10
16.3677675575
 20
12.0981164522
 30
0.0
 10
16.3660892226
 20
12.0970076135
 30
0.0
  0
ENDSEC
  0
SECTION
  2
OBJECTS
  0
DICTIONARY
  5
C
100
AcDbDictionary
280
0
281
1
  3
ACAD_GROUP
350
D
  3
ACAD_MLINESTYLE
350
17
  3
ACAD_LAYOUT
350
1A
  3
ACAD_PLOTSETTINGS
350
19
  3
ACAD_PLOTSTYLENAME
350
E
  3
ACAD_TABLESTYLE
350
       5EB
  0
DICTIONARY
  5
D
102
{ACAD_REACTORS
330
C
102
}
100
AcDbDictionary
280
0
281
1
  0
ACDBDICTIONARYWDFLT
  5
E
102
{ACAD_REACTORS
330
C
102
}
100
AcDbDictionary
281
1
  3
Normal
350
F
100
AcDbDictionaryWithDefault
340
F
  0
DICTIONARY
  5
17
102
{ACAD_REACTORS
330
C
102
}
100
AcDbDictionary
280
0
281
1
  3
Standard
350
18
  0
DICTIONARY
  5
5EB
330
C
100
AcDbDictionary
281
1
  3
Standard
350
       5EE
  3
Standard1
350
       5EF
  0
DICTIONARY
  5
19
102
{ACAD_REACTORS
330
C
102
}
100
AcDbDictionary
281
1
  0
DICTIONARY
  5
1A
102
{ACAD_REACTORS
330
C
102
}
100
AcDbDictionary
281
1
  3
Model
350
5EC
  3
Layout1
350
5ED
  0
ACDBPLACEHOLDER
  5
F
102
{ACAD_REACTORS
330
E
102
}
  0
MLINESTYLE
  5
18
102
{ACAD_REACTORS
330
17
102
}
100
AcDbMlineStyle
  2
STANDARD
 70
0
  3

 62
256
 51
90.0
 52
90.0
 71
2
 49
0.5
 62
256
  6
BYLAYER
 49
-0.5
 62
256
  6
BYLAYER
  0
LAYOUT
  5
5EC
102
{ACAD_REACTORS
330
1A
102
}
100
AcDbPlotSettings
  1

  2
none_device
  4
ANSI_C_(22.00_x_17.00_Inches)
  6

 40
0.0
 41
0.0
 42
0.0
 43
0.0
 44
558.8
 45
431.8
 46
0.0
 47
0.0
 48
0.0
 49
0.0
140
0.0
141
0.0
142
1.0
143
1.0
 70
1024
 72
0
 73
0
 74
0
  7

 75
0
147
1.0
148
0.0
149
0.0
100
AcDbLayout
  1
Model
 70
0
 71
0
 10
0.0
 20
0.0
 11
22.0
 21
17.0
 12
0.0
 22
0.0
 32
0.0
 14
0.0
 24
0.0
 34
0.0
 15
0.0
 25
0.0
 35
0.0
146
0.0
 13
0.0
 23
0.0
 33
0.0
 16
1.0
 26
0.0
 36
0.0
 17
0.0
 27
1.0
 37
0.0
 76
0
330
226
345
0
346
0
  0
LAYOUT
  5
5ED
102
{ACAD_REACTORS
330
1A
102
}
100
AcDbPlotSettings
  1

  2
none_device
  4
ANSI_C_(22.00_x_17.00_Inches)
  6

 40
0.0
 41
0.0
 42
0.0
 43
0.0
 44
558.8
 45
431.8
 46
0.0
 47
0.0
 48
0.0
 49
0.0
140
0.0
141
0.0
142
1.0
143
1.0
 70
0
 72
0
 73
0
 74
0
  7

 75
0
147
1.0
148
0.0
149
0.0
100
AcDbLayout
  1
Layout1
 70
0
 71
1
 10
0.0
 20
0.0
 11
22.0
 21
17.0
 12
0.0
 22
0.0
 32
0.0
 14
0.0
 24
0.0
 34
0.0
 15
0.0
 25
0.0
 35
0.0
146
0.0
 13
0.0
 23
0.0
 33
0.0
 16
1.0
 26
0.0
 36
0.0
 17
0.0
 27
1.0
 37
0.0
 76
0
330
227
345
0
346
0
  0
TABLESTYLE
  5
5EE
102
{ACAD_REACTORS
330
5EB
102
}
330
5EB
100
AcDbTableStyle
  3
Standard
 70
0
 71
0
 40
0.06
 41
0.06
280
1
281
1
  7
Standard
140
0.18
170
1
 62
0
 63
7
283
0
  7
Standard
140
0.18
170
1
 62
0
 63
7
283
0
  7
Standard
140
0.18
170
1
 62
0
 63
7
283
0
  0
TABLESTYLE
  5
5EF
102
{ACAD_REACTORS
330
5EB
330
2AE
102
}
330
5EB
100
AcDbTableStyle
  3
Standard1
 70
1
 71
0
 40
0.06
 41
0.06
280
1
281
1
  7
Standard
140
0.18
170
1
 62
0
 63
7
283
0
  7
Standard
140
0.18
170
1
 62
0
 63
7
283
0
  7
Standard
140
0.18
170
1
 62
0
 63
7
283
0
  0
ENDSEC
  0
EOF
