999
DXF file: 192821_1.dxf
999
Pro/ENGINEER 2013230 by Parametric Technology Corporation
  0
SECTION
  2
HEADER
  9
$ACADVER
  1
AC1018
  9
$DWGCODEPAGE
  3
ANSI_1252
  9
$EXTMAX
 10
22.0
 20
17.0
 30
0.0
  9
$EXTMIN
 10
0.0
 20
0.0
 30
0.0
  9
$LIMMIN
 10
0.0
 20
0.0
  9
$LIMMAX
 10
22.0
 20
17.0
  9
$VIEWCTR
 10
11.0
 20
8.5
  9
$VIEWSIZE
 40
17.0
  9
$CLAYER
  8
0
  9
$LTSCALE
 40
1.21
  9
$CELTYPE
  6
BYLAYER
  9
$DIMSCALE
 40
1.0
  9
$DIMASZ
 40
0.1875
  9
$DIMEXO
 40
0.0625
  9
$DIMDLI
 40
0.836
  9
$DIMEXE
 40
0.125
  9
$DIMCEN
 40
0.198
  9
$DIMLFAC
 40
1.0
  9
$DIMBLK
  1
_FILLED
  9
$DIMTXT
 40
0.1
  9
$DIMTOL
 70
1
  9
$DIMLIM
 70
0
  9
$DIMTFAC
 40
1.0
  9
$DIMTP
 40
0.01
  9
$DIMTM
 40
0.01
  9
$DIMGAP
 40
0.09
  9
$DIMDSEP
 70
46
  9
$PDMODE
 70
3
  9
$PDSIZE
 40
0.3125
  9
$HANDSEED
  5
614
  9
$TILEMODE
 70
1
  9
$MEASUREMENT
 70
0
  9
$INSUNITS
 70
1
  0
ENDSEC
  0
SECTION
  2
CLASSES
  0
CLASS
  1
ACDBDICTIONARYWDFLT
  2
AcDbDictionaryWithDefault
  3
AutoCAD 2000
 90
0
 91
1
280
0
281
0
  0
CLASS
  1
ACDBPLACEHOLDER
  2
AcDbPlaceHolder
  3
AutoCAD 2000
 90
0
 91
1
280
0
281
0
  0
CLASS
  1
LAYOUT
  2
AcDbLayout
  3
AutoCAD 2000
 90
0
 91
0
280
0
281
0
  0
CLASS
  1
TABLESTYLE
  2
AcDbTableStyle
  3
ObjectDBX Classes
 90
2047
 91
1
280
0
281
0
  0
CLASS
  1
ACAD_TABLE
  2
AcDbTable
  3
ObjectDBX Classes
 90
1025
 91
1
280
0
281
1
  0
ENDSEC
  0
SECTION
  2
TABLES
  0
TABLE
  2
VPORT
  5
8
100
AcDbSymbolTable
 70
2
  0
VPORT
  5
1F4
100
AcDbSymbolTableRecord
100
AcDbViewportTableRecord
  2
*ACTIVE
 70
0
 10
0.0
 20
0.0
 11
1.0
 21
1.0
 12
11.0
 22
8.5
 13
0.0
 23
0.0
 14
1.0
 24
1.0
 15
0.0
 25
0.0
 16
0.0
 26
0.0
 36
1.0
 17
0.0
 27
0.0
 37
0.0
 40
17.0
 41
1.2941176471
 42
50.0
 43
0.0
 44
0.0
 50
0.0
 51
0.0
 71
0
 72
100
 73
1
 74
1
 75
0
 76
0
 77
0
 78
0
  0
ENDTAB
  0
TABLE
  2
LTYPE
  5
5
100
AcDbSymbolTable
 70
6
  0
LTYPE
  5
14
100
AcDbSymbolTableRecord
100
AcDbLinetypeTableRecord
  2
BYBLOCK
 70
0
  3

 72
65
 73
0
 40
0.0
  0
LTYPE
  5
15
100
AcDbSymbolTableRecord
100
AcDbLinetypeTableRecord
  2
BYLAYER
 70
0
  3

 72
65
 73
0
 40
0.0
  0
LTYPE
  5
16
100
AcDbSymbolTableRecord
100
AcDbLinetypeTableRecord
  2
CONTINUOUS
 70
64
  3
Solid line
 72
65
 73
0
 40
0.0
  0
LTYPE
  5
1F5
100
AcDbSymbolTableRecord
100
AcDbLinetypeTableRecord
  2
CENTER
 70
64
  3
____ _ ____ _ ____ _ ____ _ ____ _ ____ _ ____
 72
65
 73
4
 40
0.6
 49
0.375
 74
0
 49
-0.075
 74
0
 49
0.075
 74
0
 49
-0.075
 74
0
  0
LTYPE
  5
1F6
100
AcDbSymbolTableRecord
100
AcDbLinetypeTableRecord
  2
HIDDEN
 70
64
  3
- - - - - - - - - - - - - - - - - - - -
 72
65
 73
2
 40
0.2
 49
0.1
 74
0
 49
-0.1
 74
0
  0
LTYPE
  5
1F7
100
AcDbSymbolTableRecord
100
AcDbLinetypeTableRecord
  2
PHANTOM
 70
64
  3
_____ _ _ _____ _ _ _____ _ _ _____
 72
65
 73
6
 40
0.8
 49
0.45
 74
0
 49
-0.05
 74
0
 49
0.1
 74
0
 49
-0.05
 74
0
 49
0.1
 74
0
 49
-0.05
 74
0
  0
LTYPE
  5
1F8
100
AcDbSymbolTableRecord
100
AcDbLinetypeTableRecord
  2
DOT
 70
64
  3
. . . . . . . . . . . . . . . . . . . .
 72
65
 73
2
 40
0.2
 49
0.1
 74
0
 49
-0.1
 74
0
  0
LTYPE
  5
1F9
100
AcDbSymbolTableRecord
100
AcDbLinetypeTableRecord
  2
DASHED
 70
64
  3
- - - - - - - - - - - - - - - - - - - -
 72
65
 73
2
 40
0.2
 49
0.1
 74
0
 49
-0.1
 74
0
  0
ENDTAB
  0
TABLE
  2
LAYER
  5
2
100
AcDbSymbolTable
 70
36
  0
LAYER
  5
10
100
AcDbSymbolTableRecord
100
AcDbLayerTableRecord
  2
0
 70
0
 62
7
  6
CONTINUOUS
370
-3
390
F
  0
LAYER
  5
1FA
100
AcDbSymbolTableRecord
100
AcDbLayerTableRecord
  2
DEFAULT_1
 70
0
 62
7
  6
CENTER
370
-3
390
F
  0
LAYER
  5
1FB
100
AcDbSymbolTableRecord
100
AcDbLayerTableRecord
  2
DEFAULT_2
 70
0
 62
7
  6
HIDDEN
370
-3
390
F
  0
LAYER
  5
1FC
100
AcDbSymbolTableRecord
100
AcDbLayerTableRecord
  2
DEFAULT_3
 70
0
 62
7
  6
PHANTOM
370
-3
390
F
  0
LAYER
  5
1FD
100
AcDbSymbolTableRecord
100
AcDbLayerTableRecord
  2
01___PRT_ALL_DTM_PLN
 70
0
 62
7
  6
CONTINUOUS
370
-3
390
F
  0
LAYER
  5
1FE
100
AcDbSymbolTableRecord
100
AcDbLayerTableRecord
  2
01___PRT_DEF_DTM_PLN
 70
0
 62
7
  6
CONTINUOUS
370
-3
390
F
  0
LAYER
  5
1FF
100
AcDbSymbolTableRecord
100
AcDbLayerTableRecord
  2
02___PRT_ALL_AXES
 70
0
 62
7
  6
CONTINUOUS
370
-3
390
F
  0
LAYER
  5
200
100
AcDbSymbolTableRecord
100
AcDbLayerTableRecord
  2
03___PRT_ALL_CURVES
 70
0
 62
7
  6
CONTINUOUS
370
-3
390
F
  0
LAYER
  5
201
100
AcDbSymbolTableRecord
100
AcDbLayerTableRecord
  2
04___PRT_ALL_DTM_PNT
 70
0
 62
7
  6
CONTINUOUS
370
-3
390
F
  0
LAYER
  5
202
100
AcDbSymbolTableRecord
100
AcDbLayerTableRecord
  2
05___PRT_ALL_DTM_CSYS
 70
0
 62
7
  6
CONTINUOUS
370
-3
390
F
  0
LAYER
  5
203
100
AcDbSymbolTableRecord
100
AcDbLayerTableRecord
  2
05___PRT_DEF_DTM_CSYS
 70
0
 62
7
  6
CONTINUOUS
370
-3
390
F
  0
LAYER
  5
204
100
AcDbSymbolTableRecord
100
AcDbLayerTableRecord
  2
06___PRT_ALL_SURFS
 70
0
 62
7
  6
CONTINUOUS
370
-3
390
F
  0
LAYER
  5
205
100
AcDbSymbolTableRecord
100
AcDbLayerTableRecord
  2
61501
 70
0
 62
7
  6
CONTINUOUS
370
-3
390
F
  0
LAYER
  5
206
100
AcDbSymbolTableRecord
100
AcDbLayerTableRecord
  2
61584
 70
0
 62
7
  6
CONTINUOUS
370
-3
390
F
  0
LAYER
  5
207
100
AcDbSymbolTableRecord
100
AcDbLayerTableRecord
  2
61585
 70
0
 62
7
  6
CONTINUOUS
370
-3
390
F
  0
LAYER
  5
208
100
AcDbSymbolTableRecord
100
AcDbLayerTableRecord
  2
AXIS
 70
0
 62
7
  6
CONTINUOUS
370
-3
390
F
  0
LAYER
  5
209
100
AcDbSymbolTableRecord
100
AcDbLayerTableRecord
  2
AXIS_COSMETIC_THREADS
 70
0
 62
7
  6
CONTINUOUS
370
-3
390
F
  0
LAYER
  5
20A
100
AcDbSymbolTableRecord
100
AcDbLayerTableRecord
  2
DATUM_PLANES
 70
0
 62
7
  6
CONTINUOUS
370
-3
390
F
  0
LAYER
  5
20B
100
AcDbSymbolTableRecord
100
AcDbLayerTableRecord
  2
DRIVEN_DIMS
 70
0
 62
7
  6
CONTINUOUS
370
-3
390
F
  0
LAYER
  5
20C
100
AcDbSymbolTableRecord
100
AcDbLayerTableRecord
  2
G_DATUM
 70
0
 62
7
  6
CONTINUOUS
370
-3
390
F
  0
LAYER
  5
20D
100
AcDbSymbolTableRecord
100
AcDbLayerTableRecord
  2
NOTES
 70
0
 62
7
  6
CONTINUOUS
370
-3
390
F
  0
LAYER
  5
20E
100
AcDbSymbolTableRecord
100
AcDbLayerTableRecord
  2
QUILTS
 70
0
 62
7
  6
CONTINUOUS
370
-3
390
F
  0
LAYER
  5
20F
100
AcDbSymbolTableRecord
100
AcDbLayerTableRecord
  2
SCHEME_DIMS
 70
0
 62
7
  6
CONTINUOUS
370
-3
390
F
  0
LAYER
  5
210
100
AcDbSymbolTableRecord
100
AcDbLayerTableRecord
  2
SURFACE
 70
0
 62
7
  6
CONTINUOUS
370
-3
390
F
  0
LAYER
  5
211
100
AcDbSymbolTableRecord
100
AcDbLayerTableRecord
  2
SYMBOLS
 70
0
 62
7
  6
CONTINUOUS
370
-3
390
F
  0
LAYER
  5
212
100
AcDbSymbolTableRecord
100
AcDbLayerTableRecord
  2
XSEC_DATUMS
 70
0
 62
7
  6
CONTINUOUS
370
-3
390
F
  0
ENDTAB
  0
TABLE
  2
STYLE
  5
3
100
AcDbSymbolTable
 70
1
  0
STYLE
  5
11
100
AcDbSymbolTableRecord
100
AcDbTextStyleTableRecord
  2
STANDARD
 70
0
 40
0.0
 41
1.0
 50
0.0
 71
0
 42
0.2
  3
txt
  4

  0
STYLE
  5
213
100
AcDbSymbolTableRecord
100
AcDbTextStyleTableRecord
  2
TEXTSTYLE_1
 70
0
 40
0.0
 41
0.8
 50
0.0
 71
0
 42
0.2
  3
gdt
  4

  0
STYLE
  5
214
100
AcDbSymbolTableRecord
100
AcDbTextStyleTableRecord
  2
TEXTSTYLE_2
 70
0
 40
0.0
 41
0.8
 50
0.0
 71
0
 42
0.2
  3
txt
  4

  0
STYLE
  5
215
100
AcDbSymbolTableRecord
100
AcDbTextStyleTableRecord
  2
TEXTSTYLE_3
 70
0
 40
0.0
 41
0.9
 50
0.0
 71
0
 42
0.2
  3
txt
  4

  0
STYLE
  5
216
100
AcDbSymbolTableRecord
100
AcDbTextStyleTableRecord
  2
TEXTSTYLE_4
 70
0
 40
0.0
 41
0.85
 50
0.0
 71
0
 42
0.2
  3
txt
  4

  0
STYLE
  5
217
100
AcDbSymbolTableRecord
100
AcDbTextStyleTableRecord
  2
TEXTSTYLE_5
 70
0
 40
0.0
 41
0.75
 50
0.0
 71
0
 42
0.2
  3
txt
  4

  0
ENDTAB
  0
TABLE
  2
VIEW
  5
6
100
AcDbSymbolTable
 70
0
  0
ENDTAB
  0
TABLE
  2
UCS
  5
7
100
AcDbSymbolTable
 70
0
  0
ENDTAB
  0
TABLE
  2
APPID
  5
9
100
AcDbSymbolTable
 70
1
  0
APPID
  5
218
100
AcDbSymbolTableRecord
100
AcDbRegAppTableRecord
  2
ACAD
 70
0
  0
ENDTAB
  0
TABLE
  2
BLOCK_RECORD
  5
1
100
AcDbSymbolTable
 70
0
  0
BLOCK_RECORD
  5
219
100
AcDbSymbolTableRecord
100
AcDbBlockTableRecord
  2
*Model_Space
  0
BLOCK_RECORD
  5
21A
100
AcDbSymbolTableRecord
100
AcDbBlockTableRecord
  2
*Paper_Space
  0
BLOCK_RECORD
  5
21B
100
AcDbSymbolTableRecord
100
AcDbBlockTableRecord
  2
_FILLED
  0
BLOCK_RECORD
  5
21C
100
AcDbSymbolTableRecord
100
AcDbBlockTableRecord
  2
*D0
  0
BLOCK_RECORD
  5
21D
100
AcDbSymbolTableRecord
100
AcDbBlockTableRecord
  2
*D1
  0
BLOCK_RECORD
  5
21E
100
AcDbSymbolTableRecord
100
AcDbBlockTableRecord
  2
*D2
  0
BLOCK_RECORD
  5
21F
100
AcDbSymbolTableRecord
100
AcDbBlockTableRecord
  2
*D3
  0
BLOCK_RECORD
  5
220
100
AcDbSymbolTableRecord
100
AcDbBlockTableRecord
  2
*D4
  0
BLOCK_RECORD
  5
221
100
AcDbSymbolTableRecord
100
AcDbBlockTableRecord
  2
*D5
  0
BLOCK_RECORD
  5
222
100
AcDbSymbolTableRecord
100
AcDbBlockTableRecord
  2
*D6
  0
BLOCK_RECORD
  5
223
100
AcDbSymbolTableRecord
100
AcDbBlockTableRecord
  2
*D7
  0
BLOCK_RECORD
  5
224
100
AcDbSymbolTableRecord
100
AcDbBlockTableRecord
  2
*D8
  0
BLOCK_RECORD
  5
225
100
AcDbSymbolTableRecord
100
AcDbBlockTableRecord
  2
*T1
  0
ENDTAB
  0
TABLE
  2
DIMSTYLE
  5
A
100
AcDbSymbolTable
 70
1
100
AcDbDimStyleTable
 71
0
  0
DIMSTYLE
105
226
100
AcDbSymbolTableRecord
100
AcDbDimStyleTableRecord
  2
STANDARD
 70
0
  3

  4

 40
1.0
 41
0.1875
 42
0.0625
 43
0.38
 44
0.125
 45
0.0
 46
0.0
 47
0.01
 48
0.01
140
0.1
141
0.09
142
0.0
143
25.4
144
1.0
145
0.0
146
1.0
147
0.09
 71
1.0
 72
0.0
 73
1
 74
1
 75
0
 76
0
 77
0
 78
4
170
0
171
2
172
0
173
0
174
0
175
0
176
0
177
0
178
0
270
2
271
2
272
2
273
2
274
2
275
0
280
0
281
0
282
0
283
1
284
4
285
0
286
0
287
3
288
0
340
11
278
46
341
21B
342
21B
343
21B
344
21B
  0
DIMSTYLE
105
227
100
AcDbSymbolTableRecord
100
AcDbDimStyleTableRecord
  2
DIMSTYLE_1
 70
0
  3

  4

 40
1.0
 41
0.1875
 42
0.0625
 43
0.38
 44
0.125
 45
0.0
 46
0.0
 47
0.005
 48
0.005
140
0.1
141
0.09
142
0.0
143
25.4
144
1.0
145
0.0
146
1.0
147
0.1
 71
0.0
 72
0.0
 73
1
 74
1
 75
0
 76
0
 77
0
 78
4
170
0
171
2
172
0
173
0
174
0
175
0
176
0
177
0
178
0
270
2
271
1
272
1
273
2
274
2
275
0
280
0
281
0
282
0
283
1
284
4
285
0
286
0
287
3
288
0
340
11
278
46
341
21B
342
21B
343
21B
344
21B
  0
ENDTAB
  0
ENDSEC
  0
SECTION
  2
BLOCKS
  0
BLOCK
  5
20
100
AcDbEntity
  8
0
100
AcDbBlockBegin
  2
*Model_Space
 70
0
 10
0.0
 20
0.0
 30
0.0
  3
*Model_Space
  1

  0
ENDBLK
  5
21
100
AcDbEntity
  8
0
100
AcDbBlockEnd
  0
BLOCK
  5
1C
100
AcDbEntity
  8
0
100
AcDbBlockBegin
  2
*Paper_Space
 70
0
 10
0.0
 20
0.0
 30
0.0
  3
*Paper_Space
  1

  0
ENDBLK
  5
1D
100
AcDbEntity
  8
0
100
AcDbBlockEnd
  0
BLOCK
  5
228
100
AcDbEntity
  8
0
100
AcDbBlockBegin
  2
_FILLED
 70
64
 10
0.0
 20
0.0
  3
_FILLED
  1

  0
SOLID
  5
229
100
AcDbEntity
  8
0
  6
BYBLOCK
 62
0
100
AcDbTrace
 10
0.0
 20
0.0
 11
-1.0
 21
0.1666666667
 12
-1.0
 22
-0.1666666667
 13
-1.0
 23
-0.1666666667
  0
ENDBLK
  5
22A
100
AcDbEntity
  8
0
  6
BYBLOCK
 62
0
100
AcDbBlockEnd
  0
BLOCK
  5
22B
100
AcDbEntity
  8
DRIVEN_DIMS
100
AcDbBlockBegin
 62
7
  6
CONTINUOUS
  2
*D0
 70
65
 10
0.0
 20
0.0
  3
*D0
  1

  0
MTEXT
  5
22C
100
AcDbEntity
  8
DRIVEN_DIMS
100
AcDbMText
 62
7
  6
CONTINUOUS
  7
STANDARD
 71
2
 72
1
 10
4.8228422875
 20
2.1942698634
 30
0.0
 11
1.0
 21
0.0
 31
0.0
 44
0.9
  1
94.0\P[3.70]
 40
0.1
 41
0.6
  0
LINE
  5
22D
100
AcDbEntity
  8
DRIVEN_DIMS
100
AcDbLine
 62
7
  6
CONTINUOUS
 10
3.0728422875
 20
2.9482738004
 11
3.0728422875
 21
2.0192698634
  0
LINE
  5
22E
100
AcDbEntity
  8
DRIVEN_DIMS
100
AcDbLine
 62
7
  6
CONTINUOUS
 10
6.7728422875
 20
2.9482738004
 11
6.7728422875
 21
2.0192698634
  0
LINE
  5
22F
100
AcDbEntity
  8
DRIVEN_DIMS
100
AcDbLine
 62
7
  6
CONTINUOUS
 10
3.0728422875
 20
2.1442698634
 11
4.5228422875
 21
2.1442698634
  0
LINE
  5
230
100
AcDbEntity
  8
DRIVEN_DIMS
100
AcDbLine
 62
7
  6
CONTINUOUS
 10
6.7728422875
 20
2.1442698634
 11
5.3228422875
 21
2.1442698634
  0
INSERT
  5
231
100
AcDbEntity
  8
DRIVEN_DIMS
100
AcDbBlockReference
 62
7
  6
CONTINUOUS
  2
_FILLED
 10
3.0728422875
 20
2.1442698634
 41
0.1875
 42
0.1875
 43
0.1875
 50
180.0
  0
INSERT
  5
232
100
AcDbEntity
  8
DRIVEN_DIMS
100
AcDbBlockReference
 62
7
  6
CONTINUOUS
  2
_FILLED
 10
6.7728422875
 20
2.1442698634
 41
0.1875
 42
0.1875
 43
0.1875
  0
ENDBLK
  5
233
100
AcDbEntity
  8
0
  6
BYBLOCK
 62
0
100
AcDbBlockEnd
  0
BLOCK
  5
234
100
AcDbEntity
  8
DRIVEN_DIMS
100
AcDbBlockBegin
 62
7
  6
CONTINUOUS
  2
*D1
 70
65
 10
0.0
 20
0.0
  3
*D1
  1

  0
MTEXT
  5
235
100
AcDbEntity
  8
DRIVEN_DIMS
100
AcDbMText
 62
7
  6
CONTINUOUS
  7
STANDARD
 71
1
 72
1
 10
7.6859535702
 20
2.1942698634
 30
0.0
 11
1.0
 21
0.0
 31
0.0
 44
0.9
  1
8.2\P[.32]
 40
0.1
 41
0.5
  0
LINE
  5
236
100
AcDbEntity
  8
DRIVEN_DIMS
100
AcDbLine
 62
7
  6
CONTINUOUS
 10
6.7728422875
 20
2.9482738004
 11
6.7728422875
 21
2.0192698634
  0
LINE
  5
237
100
AcDbEntity
  8
DRIVEN_DIMS
100
AcDbLine
 62
7
  6
CONTINUOUS
 10
7.0958422875
 20
2.6297698634
 11
7.0958422875
 21
2.0192698634
  0
LINE
  5
238
100
AcDbEntity
  8
DRIVEN_DIMS
100
AcDbLine
 62
7
  6
CONTINUOUS
 10
6.7728422875
 20
2.1442698634
 11
6.3728422875
 21
2.1442698634
  0
LINE
  5
239
100
AcDbEntity
  8
DRIVEN_DIMS
100
AcDbLine
 62
7
  6
CONTINUOUS
 10
7.0958422875
 20
2.1442698634
 11
7.5859535702
 21
2.1442698634
  0
INSERT
  5
23A
100
AcDbEntity
  8
DRIVEN_DIMS
100
AcDbBlockReference
 62
7
  6
CONTINUOUS
  2
_FILLED
 10
6.7728422875
 20
2.1442698634
 41
0.1875
 42
0.1875
 43
0.1875
  0
INSERT
  5
23B
100
AcDbEntity
  8
DRIVEN_DIMS
100
AcDbBlockReference
 62
7
  6
CONTINUOUS
  2
_FILLED
 10
7.0958422875
 20
2.1442698634
 41
0.1875
 42
0.1875
 43
0.1875
 50
180.0
  0
ENDBLK
  5
23C
100
AcDbEntity
  8
0
  6
BYBLOCK
 62
0
100
AcDbBlockEnd
  0
BLOCK
  5
23D
100
AcDbEntity
  8
DRIVEN_DIMS
100
AcDbBlockBegin
 62
7
  6
CONTINUOUS
  2
*D2
 70
65
 10
0.0
 20
0.0
  3
*D2
  1

  0
MTEXT
  5
23E
100
AcDbEntity
  8
DRIVEN_DIMS
100
AcDbMText
 62
7
  6
CONTINUOUS
  7
STANDARD
 71
2
 72
1
 10
2.1998422875
 20
3.0057698634
 30
0.0
 11
1.0
 21
0.0
 31
0.0
 44
0.9
  1
15.8\P[.62]
 40
0.1
 41
0.5
  0
LINE
  5
23F
100
AcDbEntity
  8
DRIVEN_DIMS
100
AcDbLine
 62
7
  6
CONTINUOUS
 10
2.7538462245
 20
3.2672698634
 11
2.1248422875
 21
3.2672698634
  0
LINE
  5
240
100
AcDbEntity
  8
DRIVEN_DIMS
100
AcDbLine
 62
7
  6
CONTINUOUS
 10
2.7773422875
 20
2.6442698634
 11
2.1248422875
 21
2.6442698634
  0
LINE
  5
241
100
AcDbEntity
  8
DRIVEN_DIMS
100
AcDbLine
 62
7
  6
CONTINUOUS
 10
2.2498422875
 20
3.2672698634
 11
2.2498422875
 21
3.6672698634
  0
LINE
  5
242
100
AcDbEntity
  8
DRIVEN_DIMS
100
AcDbLine
 62
7
  6
CONTINUOUS
 10
2.2498422875
 20
2.6442698634
 11
2.2498422875
 21
2.2442698634
  0
INSERT
  5
243
100
AcDbEntity
  8
DRIVEN_DIMS
100
AcDbBlockReference
 62
7
  6
CONTINUOUS
  2
_FILLED
 10
2.2498422875
 20
3.2672698634
 41
0.1875
 42
0.1875
 43
0.1875
 50
270.0
  0
INSERT
  5
244
100
AcDbEntity
  8
DRIVEN_DIMS
100
AcDbBlockReference
 62
7
  6
CONTINUOUS
  2
_FILLED
 10
2.2498422875
 20
2.6442698634
 41
0.1875
 42
0.1875
 43
0.1875
 50
90.0
  0
ENDBLK
  5
245
100
AcDbEntity
  8
0
  6
BYBLOCK
 62
0
100
AcDbBlockEnd
  0
BLOCK
  5
246
100
AcDbEntity
  8
DRIVEN_DIMS
100
AcDbBlockBegin
 62
7
  6
CONTINUOUS
  2
*D3
 70
65
 10
0.0
 20
0.0
  3
*D3
  1

  0
MTEXT
  5
247
100
AcDbEntity
  8
DRIVEN_DIMS
100
AcDbMText
 62
7
  6
CONTINUOUS
  7
STANDARD
 71
2
 72
1
 10
2.1498422875
 20
4.5922698634
 30
0.0
 11
1.0
 21
0.0
 31
0.0
 44
0.9
  1
61.0\P[2.40]
 40
0.1
 41
0.6
  0
LINE
  5
248
100
AcDbEntity
  8
DRIVEN_DIMS
100
AcDbLine
 62
7
  6
CONTINUOUS
 10
2.7538462245
 20
3.2672698634
 11
2.1248422875
 21
3.2672698634
  0
LINE
  5
249
100
AcDbEntity
  8
DRIVEN_DIMS
100
AcDbLine
 62
7
  6
CONTINUOUS
 10
2.7538462245
 20
5.6672698634
 11
2.1248422875
 21
5.6672698634
  0
LINE
  5
24A
100
AcDbEntity
  8
DRIVEN_DIMS
100
AcDbLine
 62
7
  6
CONTINUOUS
 10
2.2498422875
 20
3.2672698634
 11
2.2498422875
 21
4.2422698634
  0
LINE
  5
24B
100
AcDbEntity
  8
DRIVEN_DIMS
100
AcDbLine
 62
7
  6
CONTINUOUS
 10
2.2498422875
 20
5.6672698634
 11
2.2498422875
 21
4.6922698634
  0
INSERT
  5
24C
100
AcDbEntity
  8
DRIVEN_DIMS
100
AcDbBlockReference
 62
7
  6
CONTINUOUS
  2
_FILLED
 10
2.2498422875
 20
3.2672698634
 41
0.1875
 42
0.1875
 43
0.1875
 50
270.0
  0
INSERT
  5
24D
100
AcDbEntity
  8
DRIVEN_DIMS
100
AcDbBlockReference
 62
7
  6
CONTINUOUS
  2
_FILLED
 10
2.2498422875
 20
5.6672698634
 41
0.1875
 42
0.1875
 43
0.1875
 50
90.0
  0
ENDBLK
  5
24E
100
AcDbEntity
  8
0
  6
BYBLOCK
 62
0
100
AcDbBlockEnd
  0
BLOCK
  5
24F
100
AcDbEntity
  8
DRIVEN_DIMS
100
AcDbBlockBegin
 62
7
  6
CONTINUOUS
  2
*D4
 70
65
 10
0.0
 20
0.0
  3
*D4
  1

  0
MTEXT
  5
250
100
AcDbEntity
  8
DRIVEN_DIMS
100
AcDbMText
 62
7
  6
CONTINUOUS
  7
STANDARD
 71
2
 72
1
 10
2.1998422875
 20
8.4111301243
 30
0.0
 11
1.0
 21
0.0
 31
0.0
 44
0.9
  1
25.0\P[.99]
 40
0.1
 41
0.5
  0
LINE
  5
251
100
AcDbEntity
  8
DRIVEN_DIMS
100
AcDbLine
 62
7
  6
CONTINUOUS
 10
2.7773422875
 20
7.7936301243
 11
2.1248422875
 21
7.7936301243
  0
LINE
  5
252
100
AcDbEntity
  8
DRIVEN_DIMS
100
AcDbLine
 62
7
  6
CONTINUOUS
 10
2.6873422875
 20
8.7786301243
 11
2.1248422875
 21
8.7786301243
  0
LINE
  5
253
100
AcDbEntity
  8
DRIVEN_DIMS
100
AcDbLine
 62
7
  6
CONTINUOUS
 10
2.2498422875
 20
7.7936301243
 11
2.2498422875
 21
8.0611301243
  0
LINE
  5
254
100
AcDbEntity
  8
DRIVEN_DIMS
100
AcDbLine
 62
7
  6
CONTINUOUS
 10
2.2498422875
 20
8.7786301243
 11
2.2498422875
 21
8.5111301243
  0
INSERT
  5
255
100
AcDbEntity
  8
DRIVEN_DIMS
100
AcDbBlockReference
 62
7
  6
CONTINUOUS
  2
_FILLED
 10
2.2498422875
 20
7.7936301243
 41
0.1875
 42
0.1875
 43
0.1875
 50
270.0
  0
INSERT
  5
256
100
AcDbEntity
  8
DRIVEN_DIMS
100
AcDbBlockReference
 62
7
  6
CONTINUOUS
  2
_FILLED
 10
2.2498422875
 20
8.7786301243
 41
0.1875
 42
0.1875
 43
0.1875
 50
90.0
  0
ENDBLK
  5
257
100
AcDbEntity
  8
0
  6
BYBLOCK
 62
0
100
AcDbBlockEnd
  0
BLOCK
  5
258
100
AcDbEntity
  8
DRIVEN_DIMS
100
AcDbBlockBegin
 62
7
  6
CONTINUOUS
  2
*D5
 70
65
 10
0.0
 20
0.0
  3
*D5
  1

  0
MTEXT
  5
259
100
AcDbEntity
  8
DRIVEN_DIMS
100
AcDbMText
 62
7
  6
CONTINUOUS
  7
STANDARD
 71
2
 72
1
 10
13.9326332488
 20
8.1515759232
 30
0.0
 11
1.0
 21
0.0
 31
0.0
 44
0.9
  1
11.2\P[.44]
 40
0.1
 41
0.5
  0
LINE
  5
25A
100
AcDbEntity
  8
DRIVEN_DIMS
100
AcDbLine
 62
7
  6
CONTINUOUS
 10
15.9431332488
 20
8.2336301243
 11
13.8576332488
 21
8.2336301243
  0
LINE
  5
25B
100
AcDbEntity
  8
DRIVEN_DIMS
100
AcDbLine
 62
7
  6
CONTINUOUS
 10
14.5041332488
 20
7.7936301243
 11
13.8576332488
 21
7.7936301243
  0
LINE
  5
25C
100
AcDbEntity
  8
DRIVEN_DIMS
100
AcDbLine
 62
7
  6
CONTINUOUS
 10
13.9826332488
 20
8.2336301243
 11
13.9826332488
 21
8.6336301243
  0
LINE
  5
25D
100
AcDbEntity
  8
DRIVEN_DIMS
100
AcDbLine
 62
7
  6
CONTINUOUS
 10
13.9826332488
 20
7.7936301243
 11
13.9826332488
 21
7.3936301243
  0
INSERT
  5
25E
100
AcDbEntity
  8
DRIVEN_DIMS
100
AcDbBlockReference
 62
7
  6
CONTINUOUS
  2
_FILLED
 10
13.9826332488
 20
8.2336301243
 41
0.1875
 42
0.1875
 43
0.1875
 50
270.0
  0
INSERT
  5
25F
100
AcDbEntity
  8
DRIVEN_DIMS
100
AcDbBlockReference
 62
7
  6
CONTINUOUS
  2
_FILLED
 10
13.9826332488
 20
7.7936301243
 41
0.1875
 42
0.1875
 43
0.1875
 50
90.0
  0
ENDBLK
  5
260
100
AcDbEntity
  8
0
  6
BYBLOCK
 62
0
100
AcDbBlockEnd
  0
BLOCK
  5
261
100
AcDbEntity
  8
DRIVEN_DIMS
100
AcDbBlockBegin
 62
7
  6
CONTINUOUS
  2
*D6
 70
65
 10
0.0
 20
0.0
  3
*D6
  1

  0
MTEXT
  5
262
100
AcDbEntity
  8
DRIVEN_DIMS
100
AcDbMText
 62
7
  6
CONTINUOUS
  7
STANDARD
 71
2
 72
1
 10
15.2941332488
 20
7.3436301243
 30
0.0
 11
1.0
 21
0.0
 31
0.0
 44
0.9
  1
46.3\P[1.82]
 40
0.1
 41
0.6
  0
LINE
  5
263
100
AcDbEntity
  8
DRIVEN_DIMS
100
AcDbLine
 62
7
  6
CONTINUOUS
 10
14.4826332488
 20
7.8291301243
 11
14.4826332488
 21
7.1686301243
  0
LINE
  5
264
100
AcDbEntity
  8
DRIVEN_DIMS
100
AcDbLine
 62
7
  6
CONTINUOUS
 10
16.3056332488
 20
7.8711301243
 11
16.3056332488
 21
7.1686301243
  0
LINE
  5
265
100
AcDbEntity
  8
DRIVEN_DIMS
100
AcDbLine
 62
7
  6
CONTINUOUS
 10
14.4826332488
 20
7.2936301243
 11
14.9941332488
 21
7.2936301243
  0
LINE
  5
266
100
AcDbEntity
  8
DRIVEN_DIMS
100
AcDbLine
 62
7
  6
CONTINUOUS
 10
16.3056332488
 20
7.2936301243
 11
15.7941332488
 21
7.2936301243
  0
INSERT
  5
267
100
AcDbEntity
  8
DRIVEN_DIMS
100
AcDbBlockReference
 62
7
  6
CONTINUOUS
  2
_FILLED
 10
14.4826332488
 20
7.2936301243
 41
0.1875
 42
0.1875
 43
0.1875
 50
180.0
  0
INSERT
  5
268
100
AcDbEntity
  8
DRIVEN_DIMS
100
AcDbBlockReference
 62
7
  6
CONTINUOUS
  2
_FILLED
 10
16.3056332488
 20
7.2936301243
 41
0.1875
 42
0.1875
 43
0.1875
  0
ENDBLK
  5
269
100
AcDbEntity
  8
0
  6
BYBLOCK
 62
0
100
AcDbBlockEnd
  0
BLOCK
  5
26A
100
AcDbEntity
  8
DRIVEN_DIMS
100
AcDbBlockBegin
 62
7
  6
CONTINUOUS
  2
*D7
 70
65
 10
0.0
 20
0.0
  3
*D7
  1

  0
MTEXT
  5
26B
100
AcDbEntity
  8
DRIVEN_DIMS
100
AcDbMText
 62
7
  6
CONTINUOUS
  7
STANDARD
 71
2
 72
1
 10
2.1498422875
 20
12.4309830304
 30
0.0
 11
1.0
 21
0.0
 31
0.0
 44
0.9
  1
92.6\P[3.65]
 40
0.1
 41
0.6
  0
LINE
  5
26C
100
AcDbEntity
  8
DRIVEN_DIMS
100
AcDbLine
 62
7
  6
CONTINUOUS
 10
2.6873422875
 20
10.4829830304
 11
2.1248422875
 21
10.4829830304
  0
LINE
  5
26D
100
AcDbEntity
  8
DRIVEN_DIMS
100
AcDbLine
 62
7
  6
CONTINUOUS
 10
2.6873422875
 20
14.1289830304
 11
2.1248422875
 21
14.1289830304
  0
LINE
  5
26E
100
AcDbEntity
  8
DRIVEN_DIMS
100
AcDbLine
 62
7
  6
CONTINUOUS
 10
2.2498422875
 20
10.4829830304
 11
2.2498422875
 21
12.0809830304
  0
LINE
  5
26F
100
AcDbEntity
  8
DRIVEN_DIMS
100
AcDbLine
 62
7
  6
CONTINUOUS
 10
2.2498422875
 20
14.1289830304
 11
2.2498422875
 21
12.5309830304
  0
INSERT
  5
270
100
AcDbEntity
  8
DRIVEN_DIMS
100
AcDbBlockReference
 62
7
  6
CONTINUOUS
  2
_FILLED
 10
2.2498422875
 20
10.4829830304
 41
0.1875
 42
0.1875
 43
0.1875
 50
270.0
  0
INSERT
  5
271
100
AcDbEntity
  8
DRIVEN_DIMS
100
AcDbBlockReference
 62
7
  6
CONTINUOUS
  2
_FILLED
 10
2.2498422875
 20
14.1289830304
 41
0.1875
 42
0.1875
 43
0.1875
 50
90.0
  0
ENDBLK
  5
272
100
AcDbEntity
  8
0
  6
BYBLOCK
 62
0
100
AcDbBlockEnd
  0
BLOCK
  5
273
100
AcDbEntity
  8
DRIVEN_DIMS
100
AcDbBlockBegin
 62
7
  6
CONTINUOUS
  2
*D8
 70
65
 10
0.0
 20
0.0
  3
*D8
  1

  0
MTEXT
  5
274
100
AcDbEntity
  8
DRIVEN_DIMS
100
AcDbMText
 62
7
  6
CONTINUOUS
  7
STANDARD
 71
2
 72
1
 10
4.8728422875
 20
14.6789830304
 30
0.0
 11
1.0
 21
0.0
 31
0.0
 44
0.9
  1
110.4\P[4.35]
 40
0.1
 41
0.6
  0
LINE
  5
275
100
AcDbEntity
  8
DRIVEN_DIMS
100
AcDbLine
 62
7
  6
CONTINUOUS
 10
2.7498422875
 20
14.1434830304
 11
2.7498422875
 21
14.7539830304
  0
LINE
  5
276
100
AcDbEntity
  8
DRIVEN_DIMS
100
AcDbLine
 62
7
  6
CONTINUOUS
 10
7.0958422875
 20
14.1434830304
 11
7.0958422875
 21
14.7539830304
  0
LINE
  5
277
100
AcDbEntity
  8
DRIVEN_DIMS
100
AcDbLine
 62
7
  6
CONTINUOUS
 10
2.7498422875
 20
14.6289830304
 11
4.5228422875
 21
14.6289830304
  0
LINE
  5
278
100
AcDbEntity
  8
DRIVEN_DIMS
100
AcDbLine
 62
7
  6
CONTINUOUS
 10
7.0958422875
 20
14.6289830304
 11
5.3228422875
 21
14.6289830304
  0
INSERT
  5
279
100
AcDbEntity
  8
DRIVEN_DIMS
100
AcDbBlockReference
 62
7
  6
CONTINUOUS
  2
_FILLED
 10
2.7498422875
 20
14.6289830304
 41
0.1875
 42
0.1875
 43
0.1875
 50
180.0
  0
INSERT
  5
27A
100
AcDbEntity
  8
DRIVEN_DIMS
100
AcDbBlockReference
 62
7
  6
CONTINUOUS
  2
_FILLED
 10
7.0958422875
 20
14.6289830304
 41
0.1875
 42
0.1875
 43
0.1875
  0
ENDBLK
  5
27B
100
AcDbEntity
  8
0
  6
BYBLOCK
 62
0
100
AcDbBlockEnd
  0
BLOCK
  5
27C
100
AcDbEntity
  8
0
100
AcDbBlockBegin
  2
*T1
 70
1
 10
0.0
 20
0.0
  3
*T1
  1

  0
LINE
  5
27D
100
AcDbEntity
  8
0
100
AcDbLine
 62
7
  6
CONTINUOUS
 10
4.35
 20
0.0
 11
0.0
 21
0.0
  0
LINE
  5
27E
100
AcDbEntity
  8
0
100
AcDbLine
 62
7
  6
CONTINUOUS
 10
4.35
 20
0.0
 11
4.35
 21
1.92
  0
LINE
  5
27F
100
AcDbEntity
  8
0
100
AcDbLine
 62
7
  6
CONTINUOUS
 10
4.35
 20
1.92
 11
0.0
 21
1.92
  0
LINE
  5
280
100
AcDbEntity
  8
0
100
AcDbLine
 62
7
  6
CONTINUOUS
 10
0.0
 20
0.0
 11
0.0
 21
1.92
  0
MTEXT
  5
281
100
AcDbEntity
  8
NOTES
100
AcDbMText
 62
7
  6
CONTINUOUS
  7
STANDARD
 71
2
 72
1
 10
4.125
 20
0.48
 30
0.0
 11
1.0
 21
0.0
 31
0.0
 44
0.9
  1
A
 40
0.1
 41
0.2
  0
MTEXT
  5
282
100
AcDbEntity
  8
NOTES
100
AcDbMText
 62
7
  6
CONTINUOUS
  7
STANDARD
 71
2
 72
1
 10
2.175
 20
1.08
 30
0.0
 11
1.0
 21
0.0
 31
0.0
 44
0.9
  1
LED(N)B70X70W SERIES\PWEB CAD DRAWINGS 2D/3D
 40
0.1
 41
4.4
  0
ENDBLK
  5
283
100
AcDbEntity
  8
0
  6
BYBLOCK
 62
0
100
AcDbBlockEnd
  0
ENDSEC
  0
SECTION
  2
ENTITIES
  0
MTEXT
  5
284
100
AcDbEntity
  8
0
100
AcDbMText
 62
7
  6
CONTINUOUS
  7
TEXTSTYLE_2
 71
2
 72
1
 10
15.7174677477
 20
1.6655662523
 30
0.0
 11
1.0
 21
0.0
 31
0.0
 44
0.9
  1
THIRD ANGLE PROJECTION
 40
0.1
 41
1.76
  0
MTEXT
  5
285
100
AcDbEntity
  8
0
100
AcDbMText
 62
7
  6
CONTINUOUS
  7
STANDARD
 71
1
 72
1
 10
17.55
 20
1.32
 30
0.0
 11
1.0
 21
0.0
 31
0.0
 44
0.9
  1
DRAWING NO.
 40
0.08
 41
0.88
  0
MTEXT
  5
286
100
AcDbEntity
  8
0
100
AcDbMText
 62
7
  6
CONTINUOUS
  7
TEXTSTYLE_2
 71
1
 72
1
 10
16.75
 20
2.08
 30
0.0
 11
1.0
 21
0.0
 31
0.0
 44
0.9
  1
TITLE
 40
0.1
 41
0.4
  0
MTEXT
  5
287
100
AcDbEntity
  8
0
100
AcDbMText
 62
7
  6
CONTINUOUS
  7
STANDARD
 71
1
 72
1
 10
16.75
 20
1.32
 30
0.0
 11
1.0
 21
0.0
 31
0.0
 44
0.9
  1
SIZE
 40
0.08
 41
0.32
  0
MTEXT
  5
288
100
AcDbEntity
  8
0
100
AcDbMText
 62
7
  6
CONTINUOUS
  7
STANDARD
 71
1
 72
1
 10
16.75
 20
0.95
 30
0.0
 11
1.0
 21
0.0
 31
0.0
 44
0.9
  1
SCALE
 40
0.08
 41
0.4
  0
MTEXT
  5
289
100
AcDbEntity
  8
0
100
AcDbMText
 62
7
  6
CONTINUOUS
  7
TEXTSTYLE_2
 71
2
 72
1
 10
17.17
 20
1.2
 30
0.0
 11
1.0
 21
0.0
 31
0.0
 44
0.9
  1
C
 40
0.1
 41
0.08
  0
MTEXT
  5
28A
100
AcDbEntity
  8
0
100
AcDbMText
 62
7
  6
CONTINUOUS
  7
STANDARD
 71
1
 72
1
 10
18.925
 20
0.95
 30
0.0
 11
1.0
 21
0.0
 31
0.0
 44
0.9
  1
SHEET
 40
0.08
 41
0.4
  0
MTEXT
  5
28B
100
AcDbEntity
  8
0
100
AcDbMText
 62
7
  6
CONTINUOUS
  7
STANDARD
 71
1
 72
1
 10
20.3
 20
1.32
 30
0.0
 11
1.0
 21
0.0
 31
0.0
 44
0.9
  1
REV.
 40
0.08
 41
0.32
  0
MTEXT
  5
28C
100
AcDbEntity
  8
0
100
AcDbMText
 62
7
  6
CONTINUOUS
  7
STANDARD
 71
3
 72
1
 10
21.05
 20
0.698443
 30
0.0
 11
1.0
 21
0.0
 31
0.0
 44
0.9
  1
CREO
 40
0.07
 41
0.28
  0
MTEXT
  5
28D
100
AcDbEntity
  8
0
100
AcDbMText
 62
7
  6
CONTINUOUS
  7
TEXTSTYLE_2
 71
2
 72
1
 10
12.257
 20
15.95
 30
0.0
 11
1.0
 21
0.0
 31
0.0
 44
0.9
  1
4
 40
0.1
 41
0.08
  0
MTEXT
  5
28E
100
AcDbEntity
  8
0
100
AcDbMText
 62
7
  6
CONTINUOUS
  7
TEXTSTYLE_2
 71
2
 72
1
 10
12.257
 20
0.65
 30
0.0
 11
1.0
 21
0.0
 31
0.0
 44
0.9
  1
4
 40
0.1
 41
0.08
  0
MTEXT
  5
28F
100
AcDbEntity
  8
0
100
AcDbMText
 62
7
  6
CONTINUOUS
  7
TEXTSTYLE_2
 71
3
 72
1
 10
0.864
 20
6.375
 30
0.0
 11
1.0
 21
0.0
 31
0.0
 44
0.9
  1
B
 40
0.1
 41
0.08
  0
MTEXT
  5
290
100
AcDbEntity
  8
0
100
AcDbMText
 62
7
  6
CONTINUOUS
  7
TEXTSTYLE_2
 71
1
 72
1
 10
21.15
 20
6.375
 30
0.0
 11
1.0
 21
0.0
 31
0.0
 44
0.9
  1
B
 40
0.1
 41
0.08
  0
MTEXT
  5
291
100
AcDbEntity
  8
0
100
AcDbMText
 62
7
  6
CONTINUOUS
  7
TEXTSTYLE_2
 71
3
 72
1
 10
0.864
 20
2.525
 30
0.0
 11
1.0
 21
0.0
 31
0.0
 44
0.9
  1
A
 40
0.1
 41
0.08
  0
MTEXT
  5
292
100
AcDbEntity
  8
0
100
AcDbMText
 62
7
  6
CONTINUOUS
  7
TEXTSTYLE_2
 71
1
 72
1
 10
21.15
 20
2.525
 30
0.0
 11
1.0
 21
0.0
 31
0.0
 44
0.9
  1
A
 40
0.1
 41
0.08
  0
MTEXT
  5
293
100
AcDbEntity
  8
0
100
AcDbMText
 62
7
  6
CONTINUOUS
  7
TEXTSTYLE_2
 71
3
 72
1
 10
0.864
 20
14.075
 30
0.0
 11
1.0
 21
0.0
 31
0.0
 44
0.9
  1
D
 40
0.1
 41
0.08
  0
MTEXT
  5
294
100
AcDbEntity
  8
0
100
AcDbMText
 62
7
  6
CONTINUOUS
  7
TEXTSTYLE_2
 71
1
 72
1
 10
21.15
 20
14.075
 30
0.0
 11
1.0
 21
0.0
 31
0.0
 44
0.9
  1
D
 40
0.1
 41
0.08
  0
MTEXT
  5
295
100
AcDbEntity
  8
0
100
AcDbMText
 62
7
  6
CONTINUOUS
  7
TEXTSTYLE_2
 71
3
 72
1
 10
0.864
 20
10.225
 30
0.0
 11
1.0
 21
0.0
 31
0.0
 44
0.9
  1
C
 40
0.1
 41
0.08
  0
MTEXT
  5
296
100
AcDbEntity
  8
0
100
AcDbMText
 62
7
  6
CONTINUOUS
  7
TEXTSTYLE_2
 71
1
 72
1
 10
21.15
 20
10.225
 30
0.0
 11
1.0
 21
0.0
 31
0.0
 44
0.9
  1
C
 40
0.1
 41
0.08
  0
MTEXT
  5
297
100
AcDbEntity
  8
0
100
AcDbMText
 62
7
  6
CONTINUOUS
  7
TEXTSTYLE_2
 71
2
 72
1
 10
14.757
 20
0.65
 30
0.0
 11
1.0
 21
0.0
 31
0.0
 44
0.9
  1
3
 40
0.1
 41
0.08
  0
MTEXT
  5
298
100
AcDbEntity
  8
0
100
AcDbMText
 62
7
  6
CONTINUOUS
  7
TEXTSTYLE_2
 71
2
 72
1
 10
14.757
 20
15.95
 30
0.0
 11
1.0
 21
0.0
 31
0.0
 44
0.9
  1
3
 40
0.1
 41
0.08
  0
MTEXT
  5
299
100
AcDbEntity
  8
0
100
AcDbMText
 62
7
  6
CONTINUOUS
  7
TEXTSTYLE_2
 71
2
 72
1
 10
17.257
 20
15.95
 30
0.0
 11
1.0
 21
0.0
 31
0.0
 44
0.9
  1
2
 40
0.1
 41
0.08
  0
MTEXT
  5
29A
100
AcDbEntity
  8
0
100
AcDbMText
 62
7
  6
CONTINUOUS
  7
TEXTSTYLE_2
 71
2
 72
1
 10
17.257
 20
0.65
 30
0.0
 11
1.0
 21
0.0
 31
0.0
 44
0.9
  1
2
 40
0.1
 41
0.08
  0
MTEXT
  5
29B
100
AcDbEntity
  8
0
100
AcDbMText
 62
7
  6
CONTINUOUS
  7
TEXTSTYLE_2
 71
2
 72
1
 10
19.757
 20
0.65
 30
0.0
 11
1.0
 21
0.0
 31
0.0
 44
0.9
  1
1
 40
0.1
 41
0.08
  0
MTEXT
  5
29C
100
AcDbEntity
  8
0
100
AcDbMText
 62
7
  6
CONTINUOUS
  7
TEXTSTYLE_2
 71
2
 72
1
 10
19.757
 20
15.95
 30
0.0
 11
1.0
 21
0.0
 31
0.0
 44
0.9
  1
1
 40
0.1
 41
0.08
  0
MTEXT
  5
29D
100
AcDbEntity
  8
0
100
AcDbMText
 62
7
  6
CONTINUOUS
  7
TEXTSTYLE_2
 71
2
 72
1
 10
2.257
 20
0.65
 30
0.0
 11
1.0
 21
0.0
 31
0.0
 44
0.9
  1
8
 40
0.1
 41
0.08
  0
MTEXT
  5
29E
100
AcDbEntity
  8
0
100
AcDbMText
 62
7
  6
CONTINUOUS
  7
TEXTSTYLE_2
 71
2
 72
1
 10
4.757
 20
0.65
 30
0.0
 11
1.0
 21
0.0
 31
0.0
 44
0.9
  1
7
 40
0.1
 41
0.08
  0
MTEXT
  5
29F
100
AcDbEntity
  8
0
100
AcDbMText
 62
7
  6
CONTINUOUS
  7
TEXTSTYLE_2
 71
2
 72
1
 10
7.257
 20
0.65
 30
0.0
 11
1.0
 21
0.0
 31
0.0
 44
0.9
  1
6
 40
0.1
 41
0.08
  0
MTEXT
  5
2A0
100
AcDbEntity
  8
0
100
AcDbMText
 62
7
  6
CONTINUOUS
  7
TEXTSTYLE_2
 71
2
 72
1
 10
9.757
 20
0.65
 30
0.0
 11
1.0
 21
0.0
 31
0.0
 44
0.9
  1
5
 40
0.1
 41
0.08
  0
MTEXT
  5
2A1
100
AcDbEntity
  8
0
100
AcDbMText
 62
7
  6
CONTINUOUS
  7
TEXTSTYLE_2
 71
2
 72
1
 10
9.757
 20
15.95
 30
0.0
 11
1.0
 21
0.0
 31
0.0
 44
0.9
  1
5
 40
0.1
 41
0.08
  0
MTEXT
  5
2A2
100
AcDbEntity
  8
0
100
AcDbMText
 62
7
  6
CONTINUOUS
  7
TEXTSTYLE_2
 71
2
 72
1
 10
7.257
 20
15.95
 30
0.0
 11
1.0
 21
0.0
 31
0.0
 44
0.9
  1
6
 40
0.1
 41
0.08
  0
MTEXT
  5
2A3
100
AcDbEntity
  8
0
100
AcDbMText
 62
7
  6
CONTINUOUS
  7
TEXTSTYLE_2
 71
2
 72
1
 10
4.757
 20
15.95
 30
0.0
 11
1.0
 21
0.0
 31
0.0
 44
0.9
  1
7
 40
0.1
 41
0.08
  0
MTEXT
  5
2A4
100
AcDbEntity
  8
0
100
AcDbMText
 62
7
  6
CONTINUOUS
  7
TEXTSTYLE_2
 71
2
 72
1
 10
2.257
 20
15.95
 30
0.0
 11
1.0
 21
0.0
 31
0.0
 44
0.9
  1
8
 40
0.1
 41
0.08
  0
MTEXT
  5
2A5
100
AcDbEntity
  8
0
100
AcDbMText
 62
7
  6
CONTINUOUS
  7
STANDARD
 71
1
 72
1
 10
17.2749123633
 20
0.9184107931
 30
0.0
 11
1.0
 21
0.0
 31
0.0
 44
0.9
  1
1:1
 40
0.1
 41
0.3
  0
MTEXT
  5
2A6
100
AcDbEntity
  8
0
100
AcDbMText
 62
7
  6
CONTINUOUS
  7
STANDARD
 71
1
 72
1
 10
19.4499123633
 20
0.9184107931
 30
0.0
 11
1.0
 21
0.0
 31
0.0
 44
0.9
  1
1 OF 1
 40
0.1
 41
0.6
  0
MTEXT
  5
2A7
100
AcDbEntity
  8
0
100
AcDbMText
 62
7
  6
CONTINUOUS
  7
STANDARD
 71
1
 72
1
 10
18.5204017884
 20
1.2400373234
 30
0.0
 11
1.0
 21
0.0
 31
0.0
 44
0.9
  1
192821
 40
0.12
 41
0.72
  0
MTEXT
  5
2A8
100
AcDbEntity
  8
0
100
AcDbMText
 62
7
  6
CONTINUOUS
  7
STANDARD
 71
1
 72
1
 10
1.2857894151
 20
1.4458068967
 30
0.0
 11
1.0
 21
0.0
 31
0.0
 44
0.9
  1
NOTES:\P1. ALL DIMENSIONS ARE MILLIMETERS [INCHES] UNLESS OTHERWISE NOTED.\P2. REFER TO "www.bannerengineering.com" FOR ADDITIONAL DATA AND SPECIFICATIONS.
 40
0.1
 41
7.9
  0
MTEXT
  5
2A9
100
AcDbEntity
  8
0
100
AcDbMText
 62
7
  6
CONTINUOUS
  7
TEXTSTYLE_3
 71
2
 72
1
 10
19.7555637832
 20
2.555409194
 30
0.0
 11
1.0
 21
0.0
 31
0.0
 44
0.9
  1
BANNER ENGINEERING CORP.
 40
0.12
 41
2.592
  0
MTEXT
  5
2AA
100
AcDbEntity
  8
0
100
AcDbMText
 62
7
  6
CONTINUOUS
  7
TEXTSTYLE_2
 71
2
 72
1
 10
19.6690932526
 20
2.3442032634
 30
0.0
 11
1.0
 21
0.0
 31
0.0
 44
0.9
  1
www.bannerengineering.com
 40
0.1
 41
2.0
  0
MTEXT
  5
2AB
100
AcDbEntity
  8
0
100
AcDbMText
 62
7
  6
CONTINUOUS
  7
TEXTSTYLE_4
 71
2
 72
1
 10
15.7104628329
 20
2.6377571551
 30
0.0
 11
1.0
 21
0.0
 31
0.0
 44
0.9
  1
This drawing is the property\Pof BANNER ENGINEERING CORP.\PAny use or reproduction,\Pin any form, without prior\Pwritten permission of\PBanner is prohibited.
 40
0.08
 41
1.904
  0
MTEXT
  5
2AC
100
AcDbEntity
  8
0
100
AcDbMText
 62
7
  6
CONTINUOUS
  7
TEXTSTYLE_5
 71
2
 72
1
 10
15.7283993136
 20
1.9032170366
 30
0.0
 11
1.0
 21
0.0
 31
0.0
 44
0.9
  1
C  2015 Banner Engineering Corp.
 40
0.08
 41
1.92
  0
DIMENSION
  5
2AD
100
AcDbEntity
  8
DRIVEN_DIMS
100
AcDbDimension
 62
7
  6
CONTINUOUS
  2
*D0
 10
6.7728422875
 20
2.1442698634
 11
4.9228422875
 21
2.0692698634
 70
160
 71
2
 42
93.98
  3
DIMSTYLE_1
100
AcDbAlignedDimension
 13
3.0728422875
 23
3.0107738004
 14
6.7728422875
 24
3.0107738004
100
AcDbRotatedDimension
  0
DIMENSION
  5
2AE
100
AcDbEntity
  8
DRIVEN_DIMS
100
AcDbDimension
 62
7
  6
CONTINUOUS
  2
*D1
 10
7.0958422875
 20
2.1442698634
 11
7.9359535702
 21
2.0692698634
 70
160
 71
1
 42
8.2042
  3
DIMSTYLE_1
100
AcDbAlignedDimension
 13
6.7728422875
 23
3.0107738004
 14
7.0958422875
 24
2.6922698634
100
AcDbRotatedDimension
  0
DIMENSION
  5
2AF
100
AcDbEntity
  8
DRIVEN_DIMS
100
AcDbDimension
 62
7
  6
CONTINUOUS
  2
*D2
 10
2.2498422875
 20
2.6442698634
 11
2.2498422875
 21
2.8807698634
 70
160
 71
2
 42
15.8242
  3
DIMSTYLE_1
100
AcDbAlignedDimension
 13
2.8163462245
 23
3.2672698634
 14
2.8398422875
 24
2.6442698634
 50
270.0
100
AcDbRotatedDimension
  0
DIMENSION
  5
2B0
100
AcDbEntity
  8
DRIVEN_DIMS
100
AcDbDimension
 62
7
  6
CONTINUOUS
  2
*D3
 10
2.2498422875
 20
5.6672698634
 11
2.2498422875
 21
4.4672698634
 70
160
 71
2
 42
60.96
  3
DIMSTYLE_1
100
AcDbAlignedDimension
 13
2.8163462245
 23
3.2672698634
 14
2.8163462245
 24
5.6672698634
 50
90.0
100
AcDbRotatedDimension
  0
DIMENSION
  5
2B1
100
AcDbEntity
  8
DRIVEN_DIMS
100
AcDbDimension
 62
7
  6
CONTINUOUS
  2
*D4
 10
2.2498422875
 20
8.7786301243
 11
2.2498422875
 21
8.2861301243
 70
160
 71
2
 42
25.019
  3
DIMSTYLE_1
100
AcDbAlignedDimension
 13
2.8398422875
 23
7.7936301243
 14
2.7498422875
 24
8.7786301243
 50
90.0
100
AcDbRotatedDimension
  0
DIMENSION
  5
2B2
100
AcDbEntity
  8
DRIVEN_DIMS
100
AcDbDimension
 62
7
  6
CONTINUOUS
  2
*D5
 10
13.9826332488
 20
7.7936301243
 11
13.9826332488
 21
8.0265759232
 70
160
 71
2
 42
11.176
  3
DIMSTYLE_1
100
AcDbAlignedDimension
 13
16.0056332488
 23
8.2336301243
 14
14.5666332488
 24
7.7936301243
 50
270.0
100
AcDbRotatedDimension
  0
DIMENSION
  5
2B3
100
AcDbEntity
  8
DRIVEN_DIMS
100
AcDbDimension
 62
7
  6
CONTINUOUS
  2
*D6
 10
16.3056332488
 20
7.2936301243
 11
15.3941332488
 21
7.2186301243
 70
160
 71
2
 42
46.3042
  3
DIMSTYLE_1
100
AcDbAlignedDimension
 13
14.4826332488
 23
7.8916301243
 14
16.3056332488
 24
7.9336301243
100
AcDbRotatedDimension
  0
DIMENSION
  5
2B4
100
AcDbEntity
  8
DRIVEN_DIMS
100
AcDbDimension
 62
7
  6
CONTINUOUS
  2
*D7
 10
2.2498422875
 20
14.1289830304
 11
2.2498422875
 21
12.3059830304
 70
160
 71
2
 42
92.6084
  3
DIMSTYLE_1
100
AcDbAlignedDimension
 13
2.7498422875
 23
10.4829830304
 14
2.7498422875
 24
14.1289830304
 50
90.0
100
AcDbRotatedDimension
  0
DIMENSION
  5
2B5
100
AcDbEntity
  8
DRIVEN_DIMS
100
AcDbDimension
 62
7
  6
CONTINUOUS
  2
*D8
 10
7.0958422875
 20
14.6289830304
 11
4.9228422875
 21
14.5539830304
 70
160
 71
2
 42
110.3884
  3
DIMSTYLE_1
100
AcDbAlignedDimension
 13
2.7498422875
 23
14.0809830304
 14
7.0958422875
 24
14.0809830304
100
AcDbRotatedDimension
  0
ACAD_TABLE
  5
2B6
100
AcDbEntity
  8
0
 62
7
  6
CONTINUOUS
100
AcDbBlockReference
  2
*T1
 10
16.7
 20
0.75
 30
0.0
100
AcDbTable
342
       613
343
225
 11
1.0
 21
0.0
 31
0.0
 90
6
 91
3
 92
5
 93
4
 94
0
 95
0
 96
0
 70
1
141
0.33
141
0.45
141
1.14
142
0.65
142
1.15
142
1.025
142
1.075
142
0.45
171
1
172
0
173
0
174
0
175
1
176
1
177
33
178
0
145
0.0
  1
 
170
1
140
0.1
171
1
172
0
173
0
174
0
175
1
176
1
177
33
178
0
145
0.0
  1
 
170
1
140
0.1
171
1
172
0
173
0
174
0
175
1
176
1
177
33
178
0
145
0.0
  1
 
170
1
140
0.1
171
1
172
0
173
0
174
0
175
1
176
1
177
33
178
0
145
0.0
  1
 
170
1
140
0.1
171
1
172
0
173
0
174
0
175
1
176
1
177
33
178
0
145
0.0
  1
 
170
1
140
0.1
171
1
172
0
173
0
174
0
175
1
176
1
177
33
178
0
145
0.0
  1
 
170
1
140
0.1
171
1
172
0
173
0
174
0
175
1
176
1
177
33
178
0
145
0.0
  1
 
170
1
140
0.1
171
1
172
0
173
0
174
0
175
1
176
1
177
33
178
0
145
0.0
  1
 
170
1
140
0.1
171
1
172
0
173
0
174
0
175
1
176
1
177
33
178
0
145
0.0
  1
 
170
1
140
0.1
171
1
172
0
173
0
174
0
175
1
176
1
177
41
178
0
145
0.0
  1
A
170
8
140
0.1
 64
7
171
1
172
0
173
0
174
0
175
5
176
1
177
33
178
0
145
0.0
  1
LED(N)B70X70W SERIES\PWEB CAD DRAWINGS 2D/3D
170
8
140
0.1
171
1
172
0
173
1
174
0
175
1
176
1
177
1
178
0
145
0.0
170
1
171
1
172
0
173
1
174
0
175
1
176
1
177
1
178
0
145
0.0
170
1
171
1
172
0
173
1
174
0
175
1
176
1
177
1
178
0
145
0.0
170
1
171
1
172
0
173
1
174
0
175
1
176
1
177
1
178
0
145
0.0
170
8
  0
LEADER
  5
2B7
100
AcDbEntity
  8
NOTES
100
AcDbLeader
 62
7
  6
CONTINUOUS
  3
STANDARD
 71
1
 72
0
 73
0
 75
0
 40
0.1
 41
1.5
 76
3
 10
6.8422575253
 20
5.7473793183
 30
0.0
 10
7.4459606173
 20
6.1638517955
 30
0.0
 10
7.6959606173
 20
6.1638517955
 30
0.0
340
2B8
1001
ACAD
1000
DSTYLE
1002
{
1070
77
1070
0
1002
}
  0
MTEXT
  5
2B8
102
{ACAD_REACTORS
330
2B7
102
}
100
AcDbEntity
  8
NOTES
100
AcDbMText
 62
7
  6
CONTINUOUS
  7
STANDARD
 71
1
 72
1
 10
7.6959606173
 20
6.2138517955
 30
0.0
 11
1.0
 21
0.0
 31
0.0
 44
0.9
  1
4X M4-1 PEM NUT
 40
0.1
 41
1.5
  0
MTEXT
  5
2B9
100
AcDbEntity
  8
NOTES
100
AcDbMText
 62
7
  6
CONTINUOUS
  7
STANDARD
 71
2
 72
1
 10
15.7562560992
 20
12.7602419334
 30
0.0
 11
1.0
 21
0.0
 31
0.0
 44
0.9
  1
ISOMETRIC VIEW\P\H0.1;SCALE  3:4
 40
0.125
 41
1.75
  0
LINE
  5
2BA
100
AcDbEntity
  8
0
100
AcDbLine
 62
7
  6
CONTINUOUS
 10
0.814
 20
8.336603
 11
0.814
 21
8.163397
  0
LINE
  5
2BB
100
AcDbEntity
  8
0
100
AcDbLine
 62
7
  6
CONTINUOUS
 10
0.964
 20
15.75
 11
0.964
 21
0.75
  0
LINE
  5
2BC
100
AcDbEntity
  8
0
100
AcDbLine
 62
7
  6
CONTINUOUS
 10
15.8276527477
 20
1.2966912523
 11
16.4340437477
 21
1.3660842523
  0
LINE
  5
2BD
100
AcDbEntity
  8
0
100
AcDbLine
 62
7
  6
CONTINUOUS
 10
10.920397
 20
0.6
 11
11.093603
 21
0.6
  0
LINE
  5
2BE
100
AcDbEntity
  8
0
100
AcDbLine
 62
7
  6
CONTINUOUS
 10
0.964
 20
0.75
 11
21.05
 21
0.75
  0
LINE
  5
2BF
100
AcDbEntity
  8
0
100
AcDbLine
 62
7
  6
CONTINUOUS
 10
3.507
 20
0.75
 11
3.507
 21
0.5
  0
LINE
  5
2C0
100
AcDbEntity
  8
0
100
AcDbLine
 62
7
  6
CONTINUOUS
 10
3.507
 20
15.75
 11
3.507
 21
16.0
  0
LINE
  5
2C1
100
AcDbEntity
  8
0
100
AcDbLine
 62
7
  6
CONTINUOUS
 10
16.7
 20
1.0
 11
21.05
 21
1.0
  0
LINE
  5
2C2
100
AcDbEntity
  8
0
100
AcDbLine
 62
7
  6
CONTINUOUS
 10
14.9008917477
 20
1.1139932523
 11
15.1229827477
 21
1.1139932523
  0
LINE
  5
2C3
100
AcDbEntity
  8
0
100
AcDbLine
 62
7
  6
CONTINUOUS
 10
15.1729827477
 20
1.1139932523
 11
15.2729827477
 21
1.1139932523
  0
LINE
  5
2C4
100
AcDbEntity
  8
0
100
AcDbLine
 62
7
  6
CONTINUOUS
 10
15.3229827477
 20
1.1139932523
 11
15.5450737477
 21
1.1139932523
  0
LINE
  5
2C5
100
AcDbEntity
  8
0
100
AcDbLine
 62
7
  6
CONTINUOUS
 10
15.7276527477
 20
1.1139932523
 11
16.0058047477
 21
1.1139932523
  0
LINE
  5
2C6
100
AcDbEntity
  8
0
100
AcDbLine
 62
7
  6
CONTINUOUS
 10
16.0558047477
 20
1.1139932523
 11
16.2058907477
 21
1.1139932523
  0
LINE
  5
2C7
100
AcDbEntity
  8
0
100
AcDbLine
 62
7
  6
CONTINUOUS
 10
16.2558907477
 20
1.1139932523
 11
16.5340437477
 21
1.1139932523
  0
LINE
  5
2C8
100
AcDbEntity
  8
0
100
AcDbLine
 62
7
  6
CONTINUOUS
 10
16.7
 20
1.37
 11
21.05
 21
1.37
  0
LINE
  5
2C9
100
AcDbEntity
  8
0
100
AcDbLine
 62
7
  6
CONTINUOUS
 10
16.4340437477
 20
0.8619022523
 11
15.8276527477
 21
0.9312952523
  0
LINE
  5
2CA
100
AcDbEntity
  8
0
100
AcDbLine
 62
7
  6
CONTINUOUS
 10
14.7
 20
1.77
 11
16.7
 21
1.77
  0
LINE
  5
2CB
100
AcDbEntity
  8
0
100
AcDbLine
 62
7
  6
CONTINUOUS
 10
16.7
 20
2.13
 11
21.05
 21
2.13
  0
LINE
  5
2CC
100
AcDbEntity
  8
0
100
AcDbLine
 62
7
  6
CONTINUOUS
 10
18.273144232
 20
2.3543254011
 11
18.2257802057
 21
2.3543254011
  0
LINE
  5
2CD
100
AcDbEntity
  8
0
100
AcDbLine
 62
7
  6
CONTINUOUS
 10
18.1818891814
 20
2.3543254011
 11
18.0683181184
 21
2.3543254011
  0
LINE
  5
2CE
100
AcDbEntity
  8
0
100
AcDbLine
 62
7
  6
CONTINUOUS
 10
18.0394141024
 20
2.3543254011
 11
17.8362019897
 21
2.3543254011
  0
LINE
  5
2CF
100
AcDbEntity
  8
0
100
AcDbLine
 62
7
  6
CONTINUOUS
 10
17.7857289617
 20
2.3543254011
 11
17.7115229205
 21
2.3543254011
  0
LINE
  5
2D0
100
AcDbEntity
  8
0
100
AcDbLine
 62
7
  6
CONTINUOUS
 10
17.6651428948
 20
2.3543254011
 11
17.5894788529
 21
2.3543254011
  0
LINE
  5
2D1
100
AcDbEntity
  8
0
100
AcDbLine
 62
7
  6
CONTINUOUS
 10
17.537475824
 20
2.3543254011
 11
17.4632707829
 21
2.3543254011
  0
LINE
  5
2D2
100
AcDbEntity
  8
0
100
AcDbLine
 62
7
  6
CONTINUOUS
 10
17.4168897572
 20
2.3543254011
 11
17.3412257152
 21
2.3543254011
  0
LINE
  5
2D3
100
AcDbEntity
  8
0
100
AcDbLine
 62
7
  6
CONTINUOUS
 10
16.8743904563
 20
2.3543254011
 11
17.0508365542
 21
2.3543254011
  0
LINE
  5
2D4
100
AcDbEntity
  8
0
100
AcDbLine
 62
7
  6
CONTINUOUS
 10
17.1083735861
 20
2.3543254011
 11
17.185749629
 21
2.3543254011
  0
LINE
  5
2D5
100
AcDbEntity
  8
0
100
AcDbLine
 62
7
  6
CONTINUOUS
 10
17.2060356402
 20
2.3543254011
 11
17.3113166986
 21
2.3543254011
  0
LINE
  5
2D6
100
AcDbEntity
  8
0
100
AcDbLine
 62
7
  6
CONTINUOUS
 10
18.1572301677
 20
2.3790534148
 11
18.1818891814
 21
2.3790534148
  0
LINE
  5
2D7
100
AcDbEntity
  8
0
100
AcDbLine
 62
7
  6
CONTINUOUS
 10
17.3113166986
 20
2.3790754148
 11
17.2913006875
 21
2.3790754148
  0
LINE
  5
2D8
100
AcDbEntity
  8
0
100
AcDbLine
 62
7
  6
CONTINUOUS
 10
17.2204866482
 20
2.3790754148
 11
17.2060356402
 21
2.3790754148
  0
LINE
  5
2D9
100
AcDbEntity
  8
0
100
AcDbLine
 62
7
  6
CONTINUOUS
 10
17.185749629
 20
2.3790754148
 11
17.1744666227
 21
2.3790754148
  0
LINE
  5
2DA
100
AcDbEntity
  8
0
100
AcDbLine
 62
7
  6
CONTINUOUS
 10
17.1312345987
 20
2.3790754148
 11
17.1083735861
 21
2.3790754148
  0
LINE
  5
2DB
100
AcDbEntity
  8
0
100
AcDbLine
 62
7
  6
CONTINUOUS
 10
17.0051585288
 20
2.3790754148
 11
16.9637955059
 21
2.3790754148
  0
LINE
  5
2DC
100
AcDbEntity
  8
0
100
AcDbLine
 62
7
  6
CONTINUOUS
 10
16.8983324696
 20
2.3790754148
 11
16.8743904563
 21
2.3790754148
  0
LINE
  5
2DD
100
AcDbEntity
  8
0
100
AcDbLine
 62
7
  6
CONTINUOUS
 10
17.3412257152
 20
2.3790754148
 11
17.3598727255
 21
2.3790754148
  0
LINE
  5
2DE
100
AcDbEntity
  8
0
100
AcDbLine
 62
7
  6
CONTINUOUS
 10
17.3965727459
 20
2.3790754148
 11
17.4168897572
 21
2.3790754148
  0
LINE
  5
2DF
100
AcDbEntity
  8
0
100
AcDbLine
 62
7
  6
CONTINUOUS
 10
17.5894788529
 20
2.3790754148
 11
17.6081248632
 21
2.3790754148
  0
LINE
  5
2E0
100
AcDbEntity
  8
0
100
AcDbLine
 62
7
  6
CONTINUOUS
 10
17.6448258836
 20
2.3790754148
 11
17.6651428948
 21
2.3790754148
  0
LINE
  5
2E1
100
AcDbEntity
  8
0
100
AcDbLine
 62
7
  6
CONTINUOUS
 10
17.8362019897
 20
2.3790754148
 11
17.860125003
 21
2.3790754148
  0
LINE
  5
2E2
100
AcDbEntity
  8
0
100
AcDbLine
 62
7
  6
CONTINUOUS
 10
17.9271410401
 20
2.3790754148
 11
17.9921450762
 21
2.3790754148
  0
LINE
  5
2E3
100
AcDbEntity
  8
0
100
AcDbLine
 62
7
  6
CONTINUOUS
 10
18.0683181184
 20
2.3790754148
 11
18.091064131
 21
2.3790754148
  0
LINE
  5
2E4
100
AcDbEntity
  8
0
100
AcDbLine
 62
7
  6
CONTINUOUS
 10
18.2741672326
 20
2.379462415
 11
18.2752762332
 21
2.379462415
  0
LINE
  5
2E5
100
AcDbEntity
  8
0
100
AcDbLine
 62
7
  6
CONTINUOUS
 10
17.9970950789
 20
2.3922754221
 11
18.0394141024
 21
2.3922754221
  0
LINE
  5
2E6
100
AcDbEntity
  8
0
100
AcDbLine
 62
7
  6
CONTINUOUS
 10
17.1799826258
 20
2.3927194224
 11
17.2148606451
 21
2.3927194224
  0
LINE
  5
2E7
100
AcDbEntity
  8
0
100
AcDbLine
 62
7
  6
CONTINUOUS
 10
18.2860312391
 20
2.3932124227
 11
18.2981412459
 21
2.3932124227
  0
LINE
  5
2E8
100
AcDbEntity
  8
0
100
AcDbLine
 62
7
  6
CONTINUOUS
 10
18.184837183
 20
2.3937024229
 11
18.1572301677
 21
2.3937024229
  0
LINE
  5
2E9
100
AcDbEntity
  8
0
100
AcDbLine
 62
7
  6
CONTINUOUS
 10
17.9623080596
 20
2.395575424
 11
17.9271410401
 21
2.395575424
  0
LINE
  5
2EA
100
AcDbEntity
  8
0
100
AcDbLine
 62
7
  6
CONTINUOUS
 10
16.9637955059
 20
2.3964004244
 11
17.0051585288
 21
2.3964004244
  0
LINE
  5
2EB
100
AcDbEntity
  8
0
100
AcDbLine
 62
7
  6
CONTINUOUS
 10
18.1911671865
 20
2.4127054335
 11
18.1572301677
 21
2.4127054335
  0
LINE
  5
2EC
100
AcDbEntity
  8
0
100
AcDbLine
 62
7
  6
CONTINUOUS
 10
16.9637955059
 20
2.4130554337
 11
17.0051585288
 21
2.4130554337
  0
LINE
  5
2ED
100
AcDbEntity
  8
0
100
AcDbLine
 62
7
  6
CONTINUOUS
 10
17.1884986305
 20
2.413669434
 11
17.2090556419
 21
2.413669434
  0
LINE
  5
2EE
100
AcDbEntity
  8
0
100
AcDbLine
 62
7
  6
CONTINUOUS
 10
17.9271410401
 20
2.4138804341
 11
17.9623080596
 21
2.4138804341
  0
LINE
  5
2EF
100
AcDbEntity
  8
0
100
AcDbLine
 62
7
  6
CONTINUOUS
 10
18.0379951016
 20
2.4171804359
 11
17.9961310784
 21
2.4171804359
  0
LINE
  5
2F0
100
AcDbEntity
  8
0
100
AcDbLine
 62
7
  6
CONTINUOUS
 10
17.2017966379
 20
2.429836443
 11
17.1956156344
 21
2.429836443
  0
LINE
  5
2F1
100
AcDbEntity
  8
0
100
AcDbLine
 62
7
  6
CONTINUOUS
 10
18.091064131
 20
2.4303804433
 11
18.0683181184
 21
2.4303804433
  0
LINE
  5
2F2
100
AcDbEntity
  8
0
100
AcDbLine
 62
7
  6
CONTINUOUS
 10
17.9911810756
 20
2.4303804433
 11
17.9271410401
 21
2.4303804433
  0
LINE
  5
2F3
100
AcDbEntity
  8
0
100
AcDbLine
 62
7
  6
CONTINUOUS
 10
17.860125003
 20
2.4303804433
 11
17.8362019897
 21
2.4303804433
  0
LINE
  5
2F4
100
AcDbEntity
  8
0
100
AcDbLine
 62
7
  6
CONTINUOUS
 10
17.8086119744
 20
2.4303804433
 11
17.7906789644
 21
2.4303804433
  0
LINE
  5
2F5
100
AcDbEntity
  8
0
100
AcDbLine
 62
7
  6
CONTINUOUS
 10
17.7533869438
 20
2.4303804433
 11
17.7346109333
 21
2.4303804433
  0
LINE
  5
2F6
100
AcDbEntity
  8
0
100
AcDbLine
 62
7
  6
CONTINUOUS
 10
17.6081248632
 20
2.4303804433
 11
17.5894788529
 21
2.4303804433
  0
LINE
  5
2F7
100
AcDbEntity
  8
0
100
AcDbLine
 62
7
  6
CONTINUOUS
 10
17.5603588367
 20
2.4303804433
 11
17.5424258268
 21
2.4303804433
  0
LINE
  5
2F8
100
AcDbEntity
  8
0
100
AcDbLine
 62
7
  6
CONTINUOUS
 10
17.5051338061
 20
2.4303804433
 11
17.4863577957
 21
2.4303804433
  0
LINE
  5
2F9
100
AcDbEntity
  8
0
100
AcDbLine
 62
7
  6
CONTINUOUS
 10
17.3598727255
 20
2.4303804433
 11
17.3412257152
 21
2.4303804433
  0
LINE
  5
2FA
100
AcDbEntity
  8
0
100
AcDbLine
 62
7
  6
CONTINUOUS
 10
17.0051585288
 20
2.4303804433
 11
16.9637955059
 21
2.4303804433
  0
LINE
  5
2FB
100
AcDbEntity
  8
0
100
AcDbLine
 62
7
  6
CONTINUOUS
 10
16.8743904563
 20
2.4303804433
 11
16.8983324696
 21
2.4303804433
  0
LINE
  5
2FC
100
AcDbEntity
  8
0
100
AcDbLine
 62
7
  6
CONTINUOUS
 10
18.1572301677
 20
2.4303804433
 11
18.1940311881
 21
2.4303804433
  0
LINE
  5
2FD
100
AcDbEntity
  8
0
100
AcDbLine
 62
7
  6
CONTINUOUS
 10
17.2393896587
 20
2.455130457
 11
17.182214627
 21
2.455130457
  0
LINE
  5
2FE
100
AcDbEntity
  8
0
100
AcDbLine
 62
7
  6
CONTINUOUS
 10
17.0404535484
 20
2.455130457
 11
16.8743904563
 21
2.455130457
  0
LINE
  5
2FF
100
AcDbEntity
  8
0
100
AcDbLine
 62
7
  6
CONTINUOUS
 10
17.3412257152
 20
2.455130457
 11
17.4416837709
 21
2.455130457
  0
LINE
  5
300
100
AcDbEntity
  8
0
100
AcDbLine
 62
7
  6
CONTINUOUS
 10
17.4863577957
 20
2.455130457
 11
17.5603588367
 21
2.455130457
  0
LINE
  5
301
100
AcDbEntity
  8
0
100
AcDbLine
 62
7
  6
CONTINUOUS
 10
17.5894788529
 20
2.455130457
 11
17.6899369086
 21
2.455130457
  0
LINE
  5
302
100
AcDbEntity
  8
0
100
AcDbLine
 62
7
  6
CONTINUOUS
 10
17.7346109333
 20
2.455130457
 11
17.8086119744
 21
2.455130457
  0
LINE
  5
303
100
AcDbEntity
  8
0
100
AcDbLine
 62
7
  6
CONTINUOUS
 10
17.8362019897
 20
2.455130457
 11
18.0379951016
 21
2.455130457
  0
LINE
  5
304
100
AcDbEntity
  8
0
100
AcDbLine
 62
7
  6
CONTINUOUS
 10
18.0683181184
 20
2.455130457
 11
18.2178992014
 21
2.455130457
  0
LINE
  5
305
100
AcDbEntity
  8
0
100
AcDbLine
 62
7
  6
CONTINUOUS
 10
17.0697205646
 20
2.4006414268
 11
17.059669559
 21
2.4041904287
  0
LINE
  5
306
100
AcDbEntity
  8
0
100
AcDbLine
 62
7
  6
CONTINUOUS
 10
17.4615617819
 20
2.3550094015
 11
17.3982817468
 21
2.415387435
  0
LINE
  5
307
100
AcDbEntity
  8
0
100
AcDbLine
 62
7
  6
CONTINUOUS
 10
17.4433917718
 20
2.4544464566
 11
17.5034248051
 21
2.3971664249
  0
LINE
  5
308
100
AcDbEntity
  8
0
100
AcDbLine
 62
7
  6
CONTINUOUS
 10
17.7098149196
 20
2.3550094015
 11
17.6465348845
 21
2.415387435
  0
LINE
  5
309
100
AcDbEntity
  8
0
100
AcDbLine
 62
7
  6
CONTINUOUS
 10
17.6916449095
 20
2.4544464566
 11
17.7516779428
 21
2.3971664249
  0
LINE
  5
30A
100
AcDbEntity
  8
0
100
AcDbLine
 62
7
  6
CONTINUOUS
 10
17.2169386463
 20
2.3915884218
 11
17.2225646494
 21
2.3828954169
  0
LINE
  5
30B
100
AcDbEntity
  8
0
100
AcDbLine
 62
7
  6
CONTINUOUS
 10
17.211133643
 20
2.4174894361
 11
17.203874639
 21
2.4287054423
  0
LINE
  5
30C
100
AcDbEntity
  8
0
100
AcDbLine
 62
7
  6
CONTINUOUS
 10
17.2892236864
 20
2.3802054154
 11
17.2414676599
 21
2.4540004564
  0
LINE
  5
30D
100
AcDbEntity
  8
0
100
AcDbLine
 62
7
  6
CONTINUOUS
 10
18.206476195
 20
2.3723714111
 11
18.204672194
 21
2.3784404145
  0
LINE
  5
30E
100
AcDbEntity
  8
0
100
AcDbLine
 62
7
  6
CONTINUOUS
 10
16.8719154549
 20
2.4526554556
 11
16.8719154549
 21
2.4328554446
  0
LINE
  5
30F
100
AcDbEntity
  8
0
100
AcDbLine
 62
7
  6
CONTINUOUS
 10
16.8719154549
 20
2.3766004134
 11
16.8719154549
 21
2.3568004025
  0
LINE
  5
310
100
AcDbEntity
  8
0
100
AcDbLine
 62
7
  6
CONTINUOUS
 10
16.9008074709
 20
2.4279054419
 11
16.9008074709
 21
2.3815504162
  0
LINE
  5
311
100
AcDbEntity
  8
0
100
AcDbLine
 62
7
  6
CONTINUOUS
 10
16.9613205045
 20
2.4279054419
 11
16.9613205045
 21
2.415530435
  0
LINE
  5
312
100
AcDbEntity
  8
0
100
AcDbLine
 62
7
  6
CONTINUOUS
 10
16.9613205045
 20
2.3815504162
 11
16.9613205045
 21
2.3939254231
  0
LINE
  5
313
100
AcDbEntity
  8
0
100
AcDbLine
 62
7
  6
CONTINUOUS
 10
17.1058985847
 20
2.3766004134
 11
17.1058985847
 21
2.3568004025
  0
LINE
  5
314
100
AcDbEntity
  8
0
100
AcDbLine
 62
7
  6
CONTINUOUS
 10
17.1882246303
 20
2.3568004025
 11
17.1882246303
 21
2.3766004134
  0
LINE
  5
315
100
AcDbEntity
  8
0
100
AcDbLine
 62
7
  6
CONTINUOUS
 10
17.2035606388
 20
2.3766004134
 11
17.2035606388
 21
2.3568004025
  0
LINE
  5
316
100
AcDbEntity
  8
0
100
AcDbLine
 62
7
  6
CONTINUOUS
 10
17.3137917
 20
2.3568004025
 11
17.3137917
 21
2.3766004134
  0
LINE
  5
317
100
AcDbEntity
  8
0
100
AcDbLine
 62
7
  6
CONTINUOUS
 10
17.3387507138
 20
2.3568004025
 11
17.3387507138
 21
2.3766004134
  0
LINE
  5
318
100
AcDbEntity
  8
0
100
AcDbLine
 62
7
  6
CONTINUOUS
 10
17.3387507138
 20
2.4328554446
 11
17.3387507138
 21
2.4526554556
  0
LINE
  5
319
100
AcDbEntity
  8
0
100
AcDbLine
 62
7
  6
CONTINUOUS
 10
17.3623477269
 20
2.3815504162
 11
17.3623477269
 21
2.4279054419
  0
LINE
  5
31A
100
AcDbEntity
  8
0
100
AcDbLine
 62
7
  6
CONTINUOUS
 10
17.3940977445
 20
2.413596434
 11
17.3940977445
 21
2.3815504162
  0
LINE
  5
31B
100
AcDbEntity
  8
0
100
AcDbLine
 62
7
  6
CONTINUOUS
 10
17.4193647585
 20
2.3766004134
 11
17.4193647585
 21
2.3568004025
  0
LINE
  5
31C
100
AcDbEntity
  8
0
100
AcDbLine
 62
7
  6
CONTINUOUS
 10
17.4838827943
 20
2.4328554446
 11
17.4838827943
 21
2.4526554556
  0
LINE
  5
31D
100
AcDbEntity
  8
0
100
AcDbLine
 62
7
  6
CONTINUOUS
 10
17.5076088075
 20
2.3989574258
 11
17.5076088075
 21
2.4279054419
  0
LINE
  5
31E
100
AcDbEntity
  8
0
100
AcDbLine
 62
7
  6
CONTINUOUS
 10
17.5399508254
 20
2.4279054419
 11
17.5399508254
 21
2.3568004025
  0
LINE
  5
31F
100
AcDbEntity
  8
0
100
AcDbLine
 62
7
  6
CONTINUOUS
 10
17.5628338381
 20
2.4526554556
 11
17.5628338381
 21
2.4328554446
  0
LINE
  5
320
100
AcDbEntity
  8
0
100
AcDbLine
 62
7
  6
CONTINUOUS
 10
17.5870038515
 20
2.3568004025
 11
17.5870038515
 21
2.3766004134
  0
LINE
  5
321
100
AcDbEntity
  8
0
100
AcDbLine
 62
7
  6
CONTINUOUS
 10
17.5870038515
 20
2.4328554446
 11
17.5870038515
 21
2.4526554556
  0
LINE
  5
322
100
AcDbEntity
  8
0
100
AcDbLine
 62
7
  6
CONTINUOUS
 10
17.6105998646
 20
2.3815504162
 11
17.6105998646
 21
2.4279054419
  0
LINE
  5
323
100
AcDbEntity
  8
0
100
AcDbLine
 62
7
  6
CONTINUOUS
 10
17.6423508822
 20
2.413596434
 11
17.6423508822
 21
2.3815504162
  0
LINE
  5
324
100
AcDbEntity
  8
0
100
AcDbLine
 62
7
  6
CONTINUOUS
 10
17.6676178962
 20
2.3766004134
 11
17.6676178962
 21
2.3568004025
  0
LINE
  5
325
100
AcDbEntity
  8
0
100
AcDbLine
 62
7
  6
CONTINUOUS
 10
17.732135932
 20
2.4328554446
 11
17.732135932
 21
2.4526554556
  0
LINE
  5
326
100
AcDbEntity
  8
0
100
AcDbLine
 62
7
  6
CONTINUOUS
 10
17.7558619451
 20
2.3989574258
 11
17.7558619451
 21
2.4279054419
  0
LINE
  5
327
100
AcDbEntity
  8
0
100
AcDbLine
 62
7
  6
CONTINUOUS
 10
17.7882039631
 20
2.4279054419
 11
17.7882039631
 21
2.3568004025
  0
LINE
  5
328
100
AcDbEntity
  8
0
100
AcDbLine
 62
7
  6
CONTINUOUS
 10
17.8110869758
 20
2.4526554556
 11
17.8110869758
 21
2.4328554446
  0
LINE
  5
329
100
AcDbEntity
  8
0
100
AcDbLine
 62
7
  6
CONTINUOUS
 10
17.8337269883
 20
2.3568004025
 11
17.8337269883
 21
2.3766004134
  0
LINE
  5
32A
100
AcDbEntity
  8
0
100
AcDbLine
 62
7
  6
CONTINUOUS
 10
17.8337269883
 20
2.4328554446
 11
17.8337269883
 21
2.4526554556
  0
LINE
  5
32B
100
AcDbEntity
  8
0
100
AcDbLine
 62
7
  6
CONTINUOUS
 10
17.8626000043
 20
2.3815504162
 11
17.8626000043
 21
2.4279054419
  0
LINE
  5
32C
100
AcDbEntity
  8
0
100
AcDbLine
 62
7
  6
CONTINUOUS
 10
17.9246660387
 20
2.4279054419
 11
17.9246660387
 21
2.4163554355
  0
LINE
  5
32D
100
AcDbEntity
  8
0
100
AcDbLine
 62
7
  6
CONTINUOUS
 10
17.9246660387
 20
2.3931004226
 11
17.9246660387
 21
2.3815504162
  0
LINE
  5
32E
100
AcDbEntity
  8
0
100
AcDbLine
 62
7
  6
CONTINUOUS
 10
17.964783061
 20
2.4114054327
 11
17.964783061
 21
2.3980504253
  0
LINE
  5
32F
100
AcDbEntity
  8
0
100
AcDbLine
 62
7
  6
CONTINUOUS
 10
17.993656077
 20
2.4196554373
 11
17.993656077
 21
2.4279054419
  0
LINE
  5
330
100
AcDbEntity
  8
0
100
AcDbLine
 62
7
  6
CONTINUOUS
 10
17.9946200775
 20
2.3815504162
 11
17.9946200775
 21
2.3898004208
  0
LINE
  5
331
100
AcDbEntity
  8
0
100
AcDbLine
 62
7
  6
CONTINUOUS
 10
18.040470103
 20
2.4526554556
 11
18.040470103
 21
2.4196554373
  0
LINE
  5
332
100
AcDbEntity
  8
0
100
AcDbLine
 62
7
  6
CONTINUOUS
 10
18.0418891038
 20
2.3898004208
 11
18.0418891038
 21
2.3568004025
  0
LINE
  5
333
100
AcDbEntity
  8
0
100
AcDbLine
 62
7
  6
CONTINUOUS
 10
18.065843117
 20
2.3568004025
 11
18.065843117
 21
2.3766004134
  0
LINE
  5
334
100
AcDbEntity
  8
0
100
AcDbLine
 62
7
  6
CONTINUOUS
 10
18.065843117
 20
2.4328554446
 11
18.065843117
 21
2.4526554556
  0
LINE
  5
335
100
AcDbEntity
  8
0
100
AcDbLine
 62
7
  6
CONTINUOUS
 10
18.0935391324
 20
2.3815504162
 11
18.0935391324
 21
2.4279054419
  0
LINE
  5
336
100
AcDbEntity
  8
0
100
AcDbLine
 62
7
  6
CONTINUOUS
 10
18.1547551663
 20
2.3912274216
 11
18.1547551663
 21
2.3815284162
  0
LINE
  5
337
100
AcDbEntity
  8
0
100
AcDbLine
 62
7
  6
CONTINUOUS
 10
18.1547551663
 20
2.4151804348
 11
18.1547551663
 21
2.4279054419
  0
LINE
  5
338
100
AcDbEntity
  8
0
100
AcDbLine
 62
7
  6
CONTINUOUS
 10
18.1843641828
 20
2.3765784134
 11
18.1843641828
 21
2.3568004025
  0
LINE
  5
339
100
AcDbEntity
  8
0
100
AcDbLine
 62
7
  6
CONTINUOUS
 10
18.2835562378
 20
2.3881114198
 11
18.2835562378
 21
2.3907374213
  0
LINE
  5
33A
100
AcDbEntity
  8
0
100
AcDbLine
 62
7
  6
CONTINUOUS
 10
18.3006162472
 20
2.3907374213
 11
18.3006162472
 21
2.3791854149
  0
LINE
  5
33B
100
AcDbEntity
  8
0
100
AcDbLine
 62
7
  6
CONTINUOUS
 10
18.3975725422
 20
2.3981678251
 11
18.3975725422
 21
2.4087850316
  0
LINE
  5
33C
100
AcDbEntity
  8
0
100
AcDbLine
 62
7
  6
CONTINUOUS
 10
17.1801246258
 20
2.4539814564
 11
17.1333245999
 21
2.3802244155
  0
LINE
  5
33D
100
AcDbEntity
  8
0
100
AcDbLine
 62
7
  6
CONTINUOUS
 10
17.1935256333
 20
2.4286874423
 11
17.1864086293
 21
2.4174704361
  0
LINE
  5
33E
100
AcDbEntity
  8
0
100
AcDbLine
 62
7
  6
CONTINUOUS
 10
17.1723766216
 20
2.3828764169
 11
17.1778926246
 21
2.3915704217
  0
LINE
  5
33F
100
AcDbEntity
  8
0
100
AcDbLine
 62
7
  6
CONTINUOUS
 10
17.059669559
 20
2.4041904287
 11
17.0679095636
 21
2.4089664314
  0
ARC
  5
340
100
AcDbEntity
  8
0
100
AcDbCircle
 62
7
  6
CONTINUOUS
 10
17.4632701481
 20
2.3568008172
 40
0.0024754162
100
AcDbArc
 50
226.3593695814
 51
270.0146919953
  0
ARC
  5
341
100
AcDbEntity
  8
0
100
AcDbCircle
 62
7
  6
CONTINUOUS
 10
16.8743904545
 20
2.3568004006
 40
0.0024749995
100
AcDbArc
 50
179.9999571957
 51
270.0000428043
  0
ARC
  5
342
100
AcDbEntity
  8
0
100
AcDbCircle
 62
7
  6
CONTINUOUS
 10
17.5374758259
 20
2.3568004006
 40
0.0024749995
100
AcDbArc
 50
269.9999571957
 51
0.0000428043
  0
ARC
  5
343
100
AcDbEntity
  8
0
100
AcDbCircle
 62
7
  6
CONTINUOUS
 10
17.416889759
 20
2.3568004006
 40
0.0024749995
100
AcDbArc
 50
269.9999571957
 51
0.0000428043
  0
ARC
  5
344
100
AcDbEntity
  8
0
100
AcDbCircle
 62
7
  6
CONTINUOUS
 10
17.3412257133
 20
2.3568004006
 40
0.0024749995
100
AcDbArc
 50
179.9999571957
 51
270.0000428043
  0
ARC
  5
345
100
AcDbEntity
  8
0
100
AcDbCircle
 62
7
  6
CONTINUOUS
 10
17.2060356384
 20
2.3568004006
 40
0.0024749995
100
AcDbArc
 50
179.9999571957
 51
270.0000428043
  0
ARC
  5
346
100
AcDbEntity
  8
0
100
AcDbCircle
 62
7
  6
CONTINUOUS
 10
17.3113167005
 20
2.3568004006
 40
0.0024749995
100
AcDbArc
 50
269.9999571957
 51
0.0000428043
  0
ARC
  5
347
100
AcDbEntity
  8
0
100
AcDbCircle
 62
7
  6
CONTINUOUS
 10
17.1083735842
 20
2.3568004006
 40
0.0024749995
100
AcDbArc
 50
179.9999571957
 51
270.0000428043
  0
ARC
  5
348
100
AcDbEntity
  8
0
100
AcDbCircle
 62
7
  6
CONTINUOUS
 10
17.1857496308
 20
2.3568004006
 40
0.0024749995
100
AcDbArc
 50
269.9999571958
 51
0.0000428044
  0
ARC
  5
349
100
AcDbEntity
  8
0
100
AcDbCircle
 62
7
  6
CONTINUOUS
 10
17.0404590422
 20
2.3933827403
 40
0.061747717
100
AcDbArc
 50
59.5385584989
 51
90.0050977555
  0
ARC
  5
34A
100
AcDbEntity
  8
0
100
AcDbCircle
 62
7
  6
CONTINUOUS
 10
17.0481152095
 20
2.4027328529
 40
0.048483885
100
AcDbArc
 50
273.21763719
 51
303.0749121182
  0
ARC
  5
34B
100
AcDbEntity
  8
0
100
AcDbCircle
 62
7
  6
CONTINUOUS
 10
17.0620614151
 20
2.3797859164
 40
0.0222174455
100
AcDbArc
 50
4.0793399388
 51
69.834329283
  0
ARC
  5
34C
100
AcDbEntity
  8
0
100
AcDbCircle
 62
7
  6
CONTINUOUS
 10
17.0629546036
 20
2.379965244
 40
0.0213072145
100
AcDbArc
 50
303.0488228549
 51
355.7263138674
  0
ARC
  5
34D
100
AcDbEntity
  8
0
100
AcDbCircle
 62
7
  6
CONTINUOUS
 10
17.0688911042
 20
2.3799744343
 40
0.0153945295
100
AcDbArc
 50
354.0454548824
 51
5.1878013979
  0
ARC
  5
34E
100
AcDbEntity
  8
0
100
AcDbCircle
 62
7
  6
CONTINUOUS
 10
17.0051585288
 20
2.3877379196
 40
0.0086625048
100
AcDbArc
 50
270.0
 51
90.0
  0
ARC
  5
34F
100
AcDbEntity
  8
0
100
AcDbCircle
 62
7
  6
CONTINUOUS
 10
17.2148601055
 20
2.3902439622
 40
0.0024754602
100
AcDbArc
 50
32.8959418573
 51
89.9875097202
  0
ARC
  5
350
100
AcDbEntity
  8
0
100
AcDbCircle
 62
7
  6
CONTINUOUS
 10
17.131234669
 20
2.3815506151
 40
0.0024752003
100
AcDbArc
 50
269.9983726451
 51
327.602165307
  0
ARC
  5
351
100
AcDbEntity
  8
0
100
AcDbCircle
 62
7
  6
CONTINUOUS
 10
17.1799825555
 20
2.3902442221
 40
0.0024752003
100
AcDbArc
 50
89.998372645
 51
147.602165307
  0
ARC
  5
352
100
AcDbEntity
  8
0
100
AcDbCircle
 62
7
  6
CONTINUOUS
 10
17.1744665134
 20
2.3815504549
 40
0.0024750401
100
AcDbArc
 50
147.6063258011
 51
270.0025305754
  0
ARC
  5
353
100
AcDbEntity
  8
0
100
AcDbCircle
 62
7
  6
CONTINUOUS
 10
16.8983324714
 20
2.3815504143
 40
0.0024749995
100
AcDbArc
 50
269.9999571957
 51
0.0000428043
  0
ARC
  5
354
100
AcDbEntity
  8
0
100
AcDbCircle
 62
7
  6
CONTINUOUS
 10
16.8743904545
 20
2.3766004153
 40
0.0024749995
100
AcDbArc
 50
89.9999571957
 51
180.0000428043
  0
ARC
  5
355
100
AcDbEntity
  8
0
100
AcDbCircle
 62
7
  6
CONTINUOUS
 10
16.963795504
 20
2.3939254249
 40
0.0024749995
100
AcDbArc
 50
89.9999571957
 51
180.0000428043
  0
ARC
  5
356
100
AcDbEntity
  8
0
100
AcDbCircle
 62
7
  6
CONTINUOUS
 10
16.963795504
 20
2.3815504143
 40
0.0024749995
100
AcDbArc
 50
179.9999571957
 51
270.0000428043
  0
ARC
  5
357
100
AcDbEntity
  8
0
100
AcDbCircle
 62
7
  6
CONTINUOUS
 10
17.2060356384
 20
2.3766004153
 40
0.0024749995
100
AcDbArc
 50
89.9999571957
 51
180.0000428043
  0
ARC
  5
358
100
AcDbEntity
  8
0
100
AcDbCircle
 62
7
  6
CONTINUOUS
 10
17.1083735842
 20
2.3766004153
 40
0.0024749995
100
AcDbArc
 50
89.9999571957
 51
180.0000428043
  0
ARC
  5
359
100
AcDbEntity
  8
0
100
AcDbCircle
 62
7
  6
CONTINUOUS
 10
17.1857496308
 20
2.3766004153
 40
0.0024749995
100
AcDbArc
 50
359.9999571957
 51
90.0000428043
  0
ARC
  5
35A
100
AcDbEntity
  8
0
100
AcDbCircle
 62
7
  6
CONTINUOUS
 10
17.0460441811
 20
2.445793323
 40
0.0428289026
100
AcDbArc
 50
300.6990502959
 51
319.0591802498
  0
ARC
  5
35B
100
AcDbEntity
  8
0
100
AcDbCircle
 62
7
  6
CONTINUOUS
 10
17.0611211659
 20
2.4263113051
 40
0.0229166529
100
AcDbArc
 50
20.6563876465
 51
62.3316896973
  0
ARC
  5
35C
100
AcDbEntity
  8
0
100
AcDbCircle
 62
7
  6
CONTINUOUS
 10
17.0660727781
 20
2.4296649696
 40
0.0171568255
100
AcDbArc
 50
315.9145124245
 51
16.0049121283
  0
ARC
  5
35D
100
AcDbEntity
  8
0
100
AcDbCircle
 62
7
  6
CONTINUOUS
 10
17.0051585288
 20
2.4217179385
 40
0.0086625048
100
AcDbArc
 50
270.0
 51
90.0
  0
ARC
  5
35E
100
AcDbEntity
  8
0
100
AcDbCircle
 62
7
  6
CONTINUOUS
 10
17.2017960982
 20
2.4273609828
 40
0.0024754602
100
AcDbArc
 50
32.8959418573
 51
89.9875097202
  0
ARC
  5
35F
100
AcDbEntity
  8
0
100
AcDbCircle
 62
7
  6
CONTINUOUS
 10
17.2090556207
 20
2.4161446411
 40
0.0024752071
100
AcDbArc
 50
270.0004896793
 51
32.9089806818
  0
ARC
  5
360
100
AcDbEntity
  8
0
100
AcDbCircle
 62
7
  6
CONTINUOUS
 10
17.1956155641
 20
2.4273612427
 40
0.0024752003
100
AcDbArc
 50
89.998372645
 51
147.602165307
  0
ARC
  5
361
100
AcDbEntity
  8
0
100
AcDbCircle
 62
7
  6
CONTINUOUS
 10
17.1822145567
 20
2.4526552567
 40
0.0024752003
100
AcDbArc
 50
89.998372645
 51
147.602165307
  0
ARC
  5
362
100
AcDbEntity
  8
0
100
AcDbCircle
 62
7
  6
CONTINUOUS
 10
17.1884985212
 20
2.4161444741
 40
0.0024750401
100
AcDbArc
 50
147.6063258012
 51
270.0025305754
  0
ARC
  5
363
100
AcDbEntity
  8
0
100
AcDbCircle
 62
7
  6
CONTINUOUS
 10
16.8743904545
 20
2.4526554575
 40
0.0024749995
100
AcDbArc
 50
89.9999571957
 51
180.0000428043
  0
ARC
  5
364
100
AcDbEntity
  8
0
100
AcDbCircle
 62
7
  6
CONTINUOUS
 10
16.8743904545
 20
2.4328554428
 40
0.0024749995
100
AcDbArc
 50
179.9999571957
 51
270.0000428043
  0
ARC
  5
365
100
AcDbEntity
  8
0
100
AcDbCircle
 62
7
  6
CONTINUOUS
 10
16.8983324714
 20
2.4279054437
 40
0.0024749995
100
AcDbArc
 50
359.9999571957
 51
90.0000428043
  0
ARC
  5
366
100
AcDbEntity
  8
0
100
AcDbCircle
 62
7
  6
CONTINUOUS
 10
16.963795504
 20
2.4279054437
 40
0.0024749995
100
AcDbArc
 50
89.9999571957
 51
180.0000428043
  0
ARC
  5
367
100
AcDbEntity
  8
0
100
AcDbCircle
 62
7
  6
CONTINUOUS
 10
16.963795504
 20
2.4155304332
 40
0.0024749995
100
AcDbArc
 50
179.9999571957
 51
270.0000428043
  0
ARC
  5
368
100
AcDbEntity
  8
0
100
AcDbCircle
 62
7
  6
CONTINUOUS
 10
17.5051335061
 20
2.3989573626
 40
0.0024753014
100
AcDbArc
 50
226.3461263059
 51
0.0014637321
  0
ARC
  5
369
100
AcDbEntity
  8
0
100
AcDbCircle
 62
7
  6
CONTINUOUS
 10
17.3965730459
 20
2.4135964972
 40
0.0024753014
100
AcDbArc
 50
46.3461263059
 51
180.0014637321
  0
ARC
  5
36A
100
AcDbEntity
  8
0
100
AcDbCircle
 62
7
  6
CONTINUOUS
 10
17.2204866271
 20
2.3815506219
 40
0.0024752071
100
AcDbArc
 50
270.0004896793
 51
32.9089806818
  0
ARC
  5
36B
100
AcDbEntity
  8
0
100
AcDbCircle
 62
7
  6
CONTINUOUS
 10
17.396572744
 20
2.3815504143
 40
0.0024749995
100
AcDbArc
 50
179.9999571957
 51
270.0000428043
  0
ARC
  5
36C
100
AcDbEntity
  8
0
100
AcDbCircle
 62
7
  6
CONTINUOUS
 10
17.416889759
 20
2.3766004153
 40
0.0024749995
100
AcDbArc
 50
359.9999571957
 51
90.0000428043
  0
ARC
  5
36D
100
AcDbEntity
  8
0
100
AcDbCircle
 62
7
  6
CONTINUOUS
 10
17.3412257133
 20
2.3766004153
 40
0.0024749995
100
AcDbArc
 50
89.9999571957
 51
180.0000428043
  0
ARC
  5
36E
100
AcDbEntity
  8
0
100
AcDbCircle
 62
7
  6
CONTINUOUS
 10
17.3598727274
 20
2.3815504143
 40
0.0024749995
100
AcDbArc
 50
269.9999571957
 51
0.0000428043
  0
ARC
  5
36F
100
AcDbEntity
  8
0
100
AcDbCircle
 62
7
  6
CONTINUOUS
 10
17.3113167005
 20
2.3766004153
 40
0.0024749995
100
AcDbArc
 50
359.9999571957
 51
90.0000428043
  0
ARC
  5
370
100
AcDbEntity
  8
0
100
AcDbCircle
 62
7
  6
CONTINUOUS
 10
17.291300808
 20
2.3815494558
 40
0.002474041
100
AcDbArc
 50
212.9056413127
 51
269.9972091755
  0
ARC
  5
371
100
AcDbEntity
  8
0
100
AcDbCircle
 62
7
  6
CONTINUOUS
 10
17.5051338079
 20
2.4279054437
 40
0.0024749995
100
AcDbArc
 50
359.9999571957
 51
90.0000428043
  0
ARC
  5
372
100
AcDbEntity
  8
0
100
AcDbCircle
 62
7
  6
CONTINUOUS
 10
17.4863577938
 20
2.4328554428
 40
0.0024749995
100
AcDbArc
 50
179.9999571957
 51
270.0000428043
  0
ARC
  5
373
100
AcDbEntity
  8
0
100
AcDbCircle
 62
7
  6
CONTINUOUS
 10
17.4863577938
 20
2.4526554575
 40
0.0024749995
100
AcDbArc
 50
89.9999571957
 51
180.0000428043
  0
ARC
  5
374
100
AcDbEntity
  8
0
100
AcDbCircle
 62
7
  6
CONTINUOUS
 10
17.5603588386
 20
2.4526554575
 40
0.0024749995
100
AcDbArc
 50
359.9999571957
 51
90.0000428043
  0
ARC
  5
375
100
AcDbEntity
  8
0
100
AcDbCircle
 62
7
  6
CONTINUOUS
 10
17.5603588386
 20
2.4328554428
 40
0.0024749995
100
AcDbArc
 50
269.9999571957
 51
0.0000428043
  0
ARC
  5
376
100
AcDbEntity
  8
0
100
AcDbCircle
 62
7
  6
CONTINUOUS
 10
17.5424258249
 20
2.4279054437
 40
0.0024749995
100
AcDbArc
 50
89.9999571957
 51
180.0000428043
  0
ARC
  5
377
100
AcDbEntity
  8
0
100
AcDbCircle
 62
7
  6
CONTINUOUS
 10
17.3598727274
 20
2.4279054437
 40
0.0024749995
100
AcDbArc
 50
359.9999571957
 51
90.0000428043
  0
ARC
  5
378
100
AcDbEntity
  8
0
100
AcDbCircle
 62
7
  6
CONTINUOUS
 10
17.3412257133
 20
2.4328554428
 40
0.0024749995
100
AcDbArc
 50
179.9999571957
 51
270.0000428043
  0
ARC
  5
379
100
AcDbEntity
  8
0
100
AcDbCircle
 62
7
  6
CONTINUOUS
 10
17.3412257133
 20
2.4526554575
 40
0.0024749995
100
AcDbArc
 50
89.9999571957
 51
180.0000428043
  0
ARC
  5
37A
100
AcDbEntity
  8
0
100
AcDbCircle
 62
7
  6
CONTINUOUS
 10
17.2393900382
 20
2.4526554968
 40
0.0024749602
100
AcDbArc
 50
32.9172174468
 51
90.0087853097
  0
ARC
  5
37B
100
AcDbEntity
  8
0
100
AcDbCircle
 62
7
  6
CONTINUOUS
 10
17.4416839057
 20
2.4526562892
 40
0.0024741678
100
AcDbArc
 50
46.3477981899
 51
90.0031206038
  0
ARC
  5
37C
100
AcDbEntity
  8
0
100
AcDbCircle
 62
7
  6
CONTINUOUS
 10
18.2152358981
 20
2.2725915465
 40
0.1825583387
100
AcDbArc
 50
79.8618509324
 51
89.1640948679
  0
ARC
  5
37D
100
AcDbEntity
  8
0
100
AcDbCircle
 62
7
  6
CONTINUOUS
 10
18.197141171
 20
2.3016991173
 40
0.117346916
100
AcDbArc
 50
58.614769177
 51
62.3737227606
  0
ARC
  5
37E
100
AcDbEntity
  8
0
100
AcDbCircle
 62
7
  6
CONTINUOUS
 10
18.2260032264
 20
2.3725718859
 40
0.0459185159
100
AcDbArc
 50
15.6740290068
 51
20.9917271228
  0
ARC
  5
37F
100
AcDbEntity
  8
0
100
AcDbCircle
 62
7
  6
CONTINUOUS
 10
18.1662929967
 20
2.368643334
 40
0.0396099176
100
AcDbArc
 50
14.3201081283
 51
22.4984722084
  0
ARC
  5
380
100
AcDbEntity
  8
0
100
AcDbCircle
 62
7
  6
CONTINUOUS
 10
18.1850046504
 20
2.3693353402
 40
0.0243676582
100
AcDbArc
 50
63.3666028271
 51
90.3937697637
  0
ARC
  5
381
100
AcDbEntity
  8
0
100
AcDbCircle
 62
7
  6
CONTINUOUS
 10
18.2724993219
 20
2.3741987064
 40
0.0198837666
100
AcDbArc
 50
271.8586572978
 51
289.4131338543
  0
ARC
  5
382
100
AcDbEntity
  8
0
100
AcDbCircle
 62
7
  6
CONTINUOUS
 10
18.2265855264
 20
2.3716475527
 40
0.0173408616
100
AcDbArc
 50
232.4713476722
 51
267.338189944
  0
ARC
  5
383
100
AcDbEntity
  8
0
100
AcDbCircle
 62
7
  6
CONTINUOUS
 10
18.1818891832
 20
2.3568004006
 40
0.0024749995
100
AcDbArc
 50
269.9999571957
 51
0.0000428043
  0
ARC
  5
384
100
AcDbEntity
  8
0
100
AcDbCircle
 62
7
  6
CONTINUOUS
 10
18.0683181166
 20
2.3568004006
 40
0.0024749995
100
AcDbArc
 50
179.9999571957
 51
270.0000428043
  0
ARC
  5
385
100
AcDbEntity
  8
0
100
AcDbCircle
 62
7
  6
CONTINUOUS
 10
17.7857289635
 20
2.3568004006
 40
0.0024749995
100
AcDbArc
 50
269.9999571957
 51
0.0000428043
  0
ARC
  5
386
100
AcDbEntity
  8
0
100
AcDbCircle
 62
7
  6
CONTINUOUS
 10
17.6651428967
 20
2.3568004006
 40
0.0024749995
100
AcDbArc
 50
269.9999571957
 51
0.0000428043
  0
ARC
  5
387
100
AcDbEntity
  8
0
100
AcDbCircle
 62
7
  6
CONTINUOUS
 10
17.589478851
 20
2.3568004006
 40
0.0024749995
100
AcDbArc
 50
179.9999571957
 51
270.0000428043
  0
ARC
  5
388
100
AcDbEntity
  8
0
100
AcDbCircle
 62
7
  6
CONTINUOUS
 10
18.0394141042
 20
2.3568004006
 40
0.0024749995
100
AcDbArc
 50
269.9999571957
 51
0.0000428043
  0
ARC
  5
389
100
AcDbEntity
  8
0
100
AcDbCircle
 62
7
  6
CONTINUOUS
 10
17.8362019878
 20
2.3568004006
 40
0.0024749995
100
AcDbArc
 50
179.9999571957
 51
270.0000428043
  0
ARC
  5
38A
100
AcDbEntity
  8
0
100
AcDbCircle
 62
7
  6
CONTINUOUS
 10
17.7115227858
 20
2.3567995689
 40
0.0024741678
100
AcDbArc
 50
226.3477981898
 51
270.0031206038
  0
ARC
  5
38B
100
AcDbEntity
  8
0
100
AcDbCircle
 62
7
  6
CONTINUOUS
 10
17.7533866437
 20
2.3989573626
 40
0.0024753014
100
AcDbArc
 50
226.3461263059
 51
0.0014637321
  0
ARC
  5
38C
100
AcDbEntity
  8
0
100
AcDbCircle
 62
7
  6
CONTINUOUS
 10
17.6448261836
 20
2.4135964972
 40
0.0024753014
100
AcDbArc
 50
46.3461263058
 51
180.0014637321
  0
ARC
  5
38D
100
AcDbEntity
  8
0
100
AcDbCircle
 62
7
  6
CONTINUOUS
 10
17.6448258817
 20
2.3815504143
 40
0.0024749995
100
AcDbArc
 50
179.9999571957
 51
270.0000428043
  0
ARC
  5
38E
100
AcDbEntity
  8
0
100
AcDbCircle
 62
7
  6
CONTINUOUS
 10
17.6651428967
 20
2.3766004153
 40
0.0024749995
100
AcDbArc
 50
359.9999571957
 51
90.0000428043
  0
ARC
  5
38F
100
AcDbEntity
  8
0
100
AcDbCircle
 62
7
  6
CONTINUOUS
 10
17.589478851
 20
2.3766004153
 40
0.0024749995
100
AcDbArc
 50
89.9999571957
 51
180.0000428043
  0
ARC
  5
390
100
AcDbEntity
  8
0
100
AcDbCircle
 62
7
  6
CONTINUOUS
 10
17.6081248651
 20
2.3815504143
 40
0.0024749995
100
AcDbArc
 50
269.9999571957
 51
0.0000428043
  0
ARC
  5
391
100
AcDbEntity
  8
0
100
AcDbCircle
 62
7
  6
CONTINUOUS
 10
17.9271410383
 20
2.3931004244
 40
0.0024749995
100
AcDbArc
 50
89.9999571957
 51
180.0000428043
  0
ARC
  5
392
100
AcDbEntity
  8
0
100
AcDbCircle
 62
7
  6
CONTINUOUS
 10
17.9271410383
 20
2.3815504143
 40
0.0024749995
100
AcDbArc
 50
179.9999571957
 51
270.0000428043
  0
ARC
  5
393
100
AcDbEntity
  8
0
100
AcDbCircle
 62
7
  6
CONTINUOUS
 10
17.8362019878
 20
2.3766004153
 40
0.0024749995
100
AcDbArc
 50
89.9999571957
 51
180.0000428043
  0
ARC
  5
394
100
AcDbEntity
  8
0
100
AcDbCircle
 62
7
  6
CONTINUOUS
 10
17.8601250048
 20
2.3815504143
 40
0.0024749995
100
AcDbArc
 50
269.9999571956
 51
0.0000428042
  0
ARC
  5
395
100
AcDbEntity
  8
0
100
AcDbCircle
 62
7
  6
CONTINUOUS
 10
17.9271410383
 20
2.4163554336
 40
0.0024749995
100
AcDbArc
 50
179.9999571957
 51
270.0000428043
  0
ARC
  5
396
100
AcDbEntity
  8
0
100
AcDbCircle
 62
7
  6
CONTINUOUS
 10
17.7533869456
 20
2.4279054437
 40
0.0024749995
100
AcDbArc
 50
359.9999571957
 51
90.0000428043
  0
ARC
  5
397
100
AcDbEntity
  8
0
100
AcDbCircle
 62
7
  6
CONTINUOUS
 10
17.7346109315
 20
2.4328554428
 40
0.0024749995
100
AcDbArc
 50
179.9999571957
 51
270.0000428043
  0
ARC
  5
398
100
AcDbEntity
  8
0
100
AcDbCircle
 62
7
  6
CONTINUOUS
 10
17.7346109315
 20
2.4526554575
 40
0.0024749995
100
AcDbArc
 50
89.9999571957
 51
180.0000428043
  0
ARC
  5
399
100
AcDbEntity
  8
0
100
AcDbCircle
 62
7
  6
CONTINUOUS
 10
17.8086119762
 20
2.4526554575
 40
0.0024749995
100
AcDbArc
 50
359.9999571957
 51
90.0000428043
  0
ARC
  5
39A
100
AcDbEntity
  8
0
100
AcDbCircle
 62
7
  6
CONTINUOUS
 10
17.8086119762
 20
2.4328554428
 40
0.0024749995
100
AcDbArc
 50
269.9999571956
 51
0.0000428042
  0
ARC
  5
39B
100
AcDbEntity
  8
0
100
AcDbCircle
 62
7
  6
CONTINUOUS
 10
17.7906789626
 20
2.4279054437
 40
0.0024749995
100
AcDbArc
 50
89.9999571957
 51
180.0000428043
  0
ARC
  5
39C
100
AcDbEntity
  8
0
100
AcDbCircle
 62
7
  6
CONTINUOUS
 10
17.6081248651
 20
2.4279054437
 40
0.0024749995
100
AcDbArc
 50
359.9999571957
 51
90.0000428043
  0
ARC
  5
39D
100
AcDbEntity
  8
0
100
AcDbCircle
 62
7
  6
CONTINUOUS
 10
17.589478851
 20
2.4328554428
 40
0.0024749995
100
AcDbArc
 50
179.9999571957
 51
270.0000428043
  0
ARC
  5
39E
100
AcDbEntity
  8
0
100
AcDbCircle
 62
7
  6
CONTINUOUS
 10
17.589478851
 20
2.4526554575
 40
0.0024749995
100
AcDbArc
 50
89.9999571957
 51
180.0000428043
  0
ARC
  5
39F
100
AcDbEntity
  8
0
100
AcDbCircle
 62
7
  6
CONTINUOUS
 10
17.8601250048
 20
2.4279054437
 40
0.0024749995
100
AcDbArc
 50
359.9999571957
 51
90.0000428043
  0
ARC
  5
3A0
100
AcDbEntity
  8
0
100
AcDbCircle
 62
7
  6
CONTINUOUS
 10
17.8362019878
 20
2.4328554428
 40
0.0024749995
100
AcDbArc
 50
179.9999571957
 51
270.0000428043
  0
ARC
  5
3A1
100
AcDbEntity
  8
0
100
AcDbCircle
 62
7
  6
CONTINUOUS
 10
17.8362019878
 20
2.4526554575
 40
0.0024749995
100
AcDbArc
 50
89.9999571957
 51
180.0000428043
  0
ARC
  5
3A2
100
AcDbEntity
  8
0
100
AcDbCircle
 62
7
  6
CONTINUOUS
 10
17.9271410383
 20
2.4279054437
 40
0.0024749995
100
AcDbArc
 50
89.9999571957
 51
180.0000428043
  0
ARC
  5
3A3
100
AcDbEntity
  8
0
100
AcDbCircle
 62
7
  6
CONTINUOUS
 10
17.6899370433
 20
2.4526562892
 40
0.0024741678
100
AcDbArc
 50
46.3477981899
 51
90.0031206038
  0
ARC
  5
3A4
100
AcDbEntity
  8
0
100
AcDbCircle
 62
7
  6
CONTINUOUS
 10
18.2495655574
 20
2.384346736
 40
0.044722495
100
AcDbArc
 50
195.531588407
 51
204.7624440448
  0
ARC
  5
3A5
100
AcDbEntity
  8
0
100
AcDbCircle
 62
7
  6
CONTINUOUS
 10
18.2415401884
 20
2.4134150625
 40
0.039319019
100
AcDbArc
 50
59.1202086415
 51
81.4730239328
  0
ARC
  5
3A6
100
AcDbEntity
  8
0
100
AcDbCircle
 62
7
  6
CONTINUOUS
 10
18.2667613545
 20
2.3917854558
 40
0.0383802683
100
AcDbArc
 50
288.7656836787
 51
309.6104317088
  0
ARC
  5
3A7
100
AcDbEntity
  8
0
100
AcDbCircle
 62
7
  6
CONTINUOUS
 10
18.2471995846
 20
2.4197497317
 40
0.0310192946
100
AcDbArc
 50
34.7540871
 51
62.0879016178
  0
ARC
  5
3A8
100
AcDbEntity
  8
0
100
AcDbCircle
 62
7
  6
CONTINUOUS
 10
18.1924863006
 20
2.4019259643
 40
0.0284963867
100
AcDbArc
 50
70.3834917948
 51
86.8922743861
  0
ARC
  5
3A9
100
AcDbEntity
  8
0
100
AcDbCircle
 62
7
  6
CONTINUOUS
 10
18.2737535399
 20
2.384184238
 40
0.0280715479
100
AcDbArc
 50
308.5071794988
 51
332.2400656899
  0
ARC
  5
3AA
100
AcDbEntity
  8
0
100
AcDbCircle
 62
7
  6
CONTINUOUS
 10
18.2439037681
 20
2.3797532943
 40
0.0266349791
100
AcDbArc
 50
20.3630922153
 51
37.9727053099
  0
ARC
  5
3AB
100
AcDbEntity
  8
0
100
AcDbCircle
 62
7
  6
CONTINUOUS
 10
18.2450241237
 20
2.3798263774
 40
0.0257145923
100
AcDbArc
 50
39.3804255939
 51
59.0361096173
  0
ARC
  5
3AC
100
AcDbEntity
  8
0
100
AcDbCircle
 62
7
  6
CONTINUOUS
 10
18.2296840914
 20
2.3774978567
 40
0.0238935861
100
AcDbArc
 50
209.8247607259
 51
235.1255079367
  0
ARC
  5
3AD
100
AcDbEntity
  8
0
100
AcDbCircle
 62
7
  6
CONTINUOUS
 10
18.2830605507
 20
2.3792897325
 40
0.0175560065
100
AcDbArc
 50
332.2279060967
 51
359.6595469939
  0
ARC
  5
3AE
100
AcDbEntity
  8
0
100
AcDbCircle
 62
7
  6
CONTINUOUS
 10
18.1890593051
 20
2.3776149607
 40
0.0151491919
100
AcDbArc
 50
24.098260853
 51
63.0369451818
  0
ARC
  5
3AF
100
AcDbEntity
  8
0
100
AcDbCircle
 62
7
  6
CONTINUOUS
 10
18.2845735615
 20
2.3882148688
 40
0.0147197649
100
AcDbArc
 50
192.7054516565
 51
206.0594861022
  0
ARC
  5
3B0
100
AcDbEntity
  8
0
100
AcDbCircle
 62
7
  6
CONTINUOUS
 10
18.1973459106
 20
2.4149676972
 40
0.0145814632
100
AcDbArc
 50
54.6746025112
 51
71.1660573124
  0
ARC
  5
3B1
100
AcDbEntity
  8
0
100
AcDbCircle
 62
7
  6
CONTINUOUS
 10
18.2752146786
 20
2.3927110743
 40
0.0132488022
100
AcDbArc
 50
270.266200055
 51
281.2404888597
  0
ARC
  5
3B2
100
AcDbEntity
  8
0
100
AcDbCircle
 62
7
  6
CONTINUOUS
 10
18.2716089246
 20
2.3878675959
 40
0.0119498009
100
AcDbArc
 50
340.7883861657
 51
1.1691452593
  0
ARC
  5
3B3
100
AcDbEntity
  8
0
100
AcDbCircle
 62
7
  6
CONTINUOUS
 10
18.198398534
 20
2.4260095887
 40
0.0110815393
100
AcDbArc
 50
306.758405961
 51
320.4502234234
  0
ARC
  5
3B4
100
AcDbEntity
  8
0
100
AcDbCircle
 62
7
  6
CONTINUOUS
 10
18.2764089196
 20
2.3869743807
 40
0.0073895522
100
AcDbArc
 50
280.8288201977
 51
305.0837508495
  0
ARC
  5
3B5
100
AcDbEntity
  8
0
100
AcDbCircle
 62
7
  6
CONTINUOUS
 10
18.2768101012
 20
2.3861235343
 40
0.0064647042
100
AcDbArc
 50
306.5086174083
 51
340.2162360092
  0
ARC
  5
3B6
100
AcDbEntity
  8
0
100
AcDbCircle
 62
7
  6
CONTINUOUS
 10
18.2024754016
 20
2.4218216224
 40
0.0060275915
100
AcDbArc
 50
20.9055592135
 51
56.7851676243
  0
ARC
  5
3B7
100
AcDbEntity
  8
0
100
AcDbCircle
 62
7
  6
CONTINUOUS
 10
18.2025691502
 20
2.4227756809
 40
0.0058087709
100
AcDbArc
 50
318.8515287446
 51
353.6422345323
  0
ARC
  5
3B8
100
AcDbEntity
  8
0
100
AcDbCircle
 62
7
  6
CONTINUOUS
 10
18.2760792244
 20
2.3840063824
 40
0.0052403997
100
AcDbArc
 50
205.5232099488
 51
227.5054868079
  0
ARC
  5
3B9
100
AcDbEntity
  8
0
100
AcDbCircle
 62
7
  6
CONTINUOUS
 10
18.2037759605
 20
2.4224819047
 40
0.0045795888
100
AcDbArc
 50
355.6235353944
 51
18.9942678268
  0
ARC
  5
3BA
100
AcDbEntity
  8
0
100
AcDbCircle
 62
7
  6
CONTINUOUS
 10
18.2743509251
 20
2.3821910097
 40
0.0027347709
100
AcDbArc
 50
228.5117626738
 51
266.1485845754
  0
ARC
  5
3BB
100
AcDbEntity
  8
0
100
AcDbCircle
 62
7
  6
CONTINUOUS
 10
18.1572301659
 20
2.3912274234
 40
0.0024749995
100
AcDbArc
 50
89.9999571957
 51
180.0000428043
  0
ARC
  5
3BC
100
AcDbEntity
  8
0
100
AcDbCircle
 62
7
  6
CONTINUOUS
 10
18.1572301659
 20
2.3815284143
 40
0.0024749995
100
AcDbArc
 50
179.9999571957
 51
270.0000428043
  0
ARC
  5
3BD
100
AcDbEntity
  8
0
100
AcDbCircle
 62
7
  6
CONTINUOUS
 10
18.1818891832
 20
2.3765784153
 40
0.0024749995
100
AcDbArc
 50
359.9999571957
 51
90.0000428043
  0
ARC
  5
3BE
100
AcDbEntity
  8
0
100
AcDbCircle
 62
7
  6
CONTINUOUS
 10
18.0683181166
 20
2.3766004153
 40
0.0024749995
100
AcDbArc
 50
89.9999571957
 51
180.0000428043
  0
ARC
  5
3BF
100
AcDbEntity
  8
0
100
AcDbCircle
 62
7
  6
CONTINUOUS
 10
18.0910641329
 20
2.3815504143
 40
0.0024749995
100
AcDbArc
 50
269.9999571957
 51
0.0000428043
  0
ARC
  5
3C0
100
AcDbEntity
  8
0
100
AcDbCircle
 62
7
  6
CONTINUOUS
 10
18.2860312373
 20
2.3907374231
 40
0.0024749995
100
AcDbArc
 50
89.9999571957
 51
180.0000428043
  0
ARC
  5
3C1
100
AcDbEntity
  8
0
100
AcDbCircle
 62
7
  6
CONTINUOUS
 10
18.2981412477
 20
2.3907374231
 40
0.0024749995
100
AcDbArc
 50
359.9999571957
 51
90.0000428043
  0
ARC
  5
3C2
100
AcDbEntity
  8
0
100
AcDbCircle
 62
7
  6
CONTINUOUS
 10
18.1572301659
 20
2.415180433
 40
0.0024749995
100
AcDbArc
 50
179.9999571957
 51
270.0000428043
  0
ARC
  5
3C3
100
AcDbEntity
  8
0
100
AcDbCircle
 62
7
  6
CONTINUOUS
 10
17.992145078
 20
2.3815504143
 40
0.0024749995
100
AcDbArc
 50
269.9999571957
 51
0.0000428043
  0
ARC
  5
3C4
100
AcDbEntity
  8
0
100
AcDbCircle
 62
7
  6
CONTINUOUS
 10
17.9970950771
 20
2.3898004226
 40
0.0024749995
100
AcDbArc
 50
89.9999571957
 51
180.0000428043
  0
ARC
  5
3C5
100
AcDbEntity
  8
0
100
AcDbCircle
 62
7
  6
CONTINUOUS
 10
18.0394141042
 20
2.3898004226
 40
0.0024749995
100
AcDbArc
 50
359.9999571957
 51
90.0000428043
  0
ARC
  5
3C6
100
AcDbEntity
  8
0
100
AcDbCircle
 62
7
  6
CONTINUOUS
 10
18.0379951034
 20
2.4196554355
 40
0.0024749995
100
AcDbArc
 50
269.9999571956
 51
0.0000428042
  0
ARC
  5
3C7
100
AcDbEntity
  8
0
100
AcDbCircle
 62
7
  6
CONTINUOUS
 10
17.9961310765
 20
2.4196554355
 40
0.0024749995
100
AcDbArc
 50
179.9999571957
 51
270.0000428043
  0
ARC
  5
3C8
100
AcDbEntity
  8
0
100
AcDbCircle
 62
7
  6
CONTINUOUS
 10
17.9623080615
 20
2.4114054346
 40
0.0024749995
100
AcDbArc
 50
359.9999571957
 51
90.0000428043
  0
ARC
  5
3C9
100
AcDbEntity
  8
0
100
AcDbCircle
 62
7
  6
CONTINUOUS
 10
17.9623080615
 20
2.3980504235
 40
0.0024749995
100
AcDbArc
 50
269.9999571956
 51
0.0000428042
  0
ARC
  5
3CA
100
AcDbEntity
  8
0
100
AcDbCircle
 62
7
  6
CONTINUOUS
 10
18.220842337
 20
2.4783532224
 40
0.0789082104
100
AcDbArc
 50
292.906155071
 51
305.2574666259
  0
ARC
  5
3CB
100
AcDbEntity
  8
0
100
AcDbCircle
 62
7
  6
CONTINUOUS
 10
18.2511742746
 20
2.4351463727
 40
0.0261183659
100
AcDbArc
 50
305.6373831893
 51
329.9727629745
  0
ARC
  5
3CC
100
AcDbEntity
  8
0
100
AcDbCircle
 62
7
  6
CONTINUOUS
 10
18.1908418374
 20
2.4381440645
 40
0.0254407115
100
AcDbArc
 50
270.7327484175
 51
290.441894219
  0
ARC
  5
3CD
100
AcDbEntity
  8
0
100
AcDbCircle
 62
7
  6
CONTINUOUS
 10
18.1927693431
 20
2.4337504172
 40
0.0206523367
100
AcDbArc
 50
289.6883413472
 51
306.4184925496
  0
ARC
  5
3CE
100
AcDbEntity
  8
0
100
AcDbCircle
 62
7
  6
CONTINUOUS
 10
18.2588883357
 20
2.4282993328
 40
0.0165459396
100
AcDbArc
 50
1.548452892
 51
33.5033152417
  0
ARC
  5
3CF
100
AcDbEntity
  8
0
100
AcDbCircle
 62
7
  6
CONTINUOUS
 10
18.2621849309
 20
2.428467785
 40
0.0132462337
100
AcDbArc
 50
331.1510006998
 51
1.205404301
  0
ARC
  5
3D0
100
AcDbEntity
  8
0
100
AcDbCircle
 62
7
  6
CONTINUOUS
 10
18.0910641329
 20
2.4279054437
 40
0.0024749995
100
AcDbArc
 50
359.9999571957
 51
90.0000428043
  0
ARC
  5
3D1
100
AcDbEntity
  8
0
100
AcDbCircle
 62
7
  6
CONTINUOUS
 10
18.0683181166
 20
2.4328554428
 40
0.0024749995
100
AcDbArc
 50
179.9999571957
 51
270.0000428043
  0
ARC
  5
3D2
100
AcDbEntity
  8
0
100
AcDbCircle
 62
7
  6
CONTINUOUS
 10
18.0683181166
 20
2.4526554575
 40
0.0024749995
100
AcDbArc
 50
89.9999571957
 51
180.0000428043
  0
ARC
  5
3D3
100
AcDbEntity
  8
0
100
AcDbCircle
 62
7
  6
CONTINUOUS
 10
18.1572301659
 20
2.4279054437
 40
0.0024749995
100
AcDbArc
 50
89.9999571957
 51
180.0000428043
  0
ARC
  5
3D4
100
AcDbEntity
  8
0
100
AcDbCircle
 62
7
  6
CONTINUOUS
 10
18.0379951034
 20
2.4526554575
 40
0.0024749995
100
AcDbArc
 50
359.9999571957
 51
90.0000428043
  0
ARC
  5
3D5
100
AcDbEntity
  8
0
100
AcDbCircle
 62
7
  6
CONTINUOUS
 10
17.9911810775
 20
2.4279054437
 40
0.0024749995
100
AcDbArc
 50
359.9999571957
 51
90.0000428043
  0
ELLIPSE
  5
3D6
100
AcDbEntity
  8
0
100
AcDbEllipse
 62
7
  6
CONTINUOUS
 10
17.573550844
 20
2.4034764283
 30
0.0
 11
-0.8250004575
 21
0.0
 31
0.0
 40
0.218572
 41
0.0
 42
6.2831853072
  0
HATCH
  5
3D7
100
AcDbEntity
  8
0
100
AcDbHatch
 62
7
  6
CONTINUOUS
 10
0.0
 20
0.0
 30
0.0
210
0.0
220
0.0
230
1.0
  2
XSEC0002
 70
1
 71
1
 91
11
 92
1
 93
57
 72
2
 10
18.2265855264
 20
2.3716475527
 40
0.0173408616
 50
232.4713476722
 51
267.338189944
 73
1
 72
2
 10
18.2296840914
 20
2.3774978567
 40
0.0238935861
 50
209.8247607259
 51
235.1255079367
 73
1
 72
2
 10
18.2495655574
 20
2.384346736
 40
0.044722495
 50
195.531588407
 51
204.7624440448
 73
1
 72
1
 10
18.206476195
 20
2.3723714111
 11
18.204672194
 21
2.3784404145
 72
2
 10
18.1662929967
 20
2.368643334
 40
0.0396099176
 50
14.3201081283
 51
22.4984722084
 73
1
 72
2
 10
18.1890593051
 20
2.3776149607
 40
0.0151491919
 50
24.098260853
 51
63.0369451818
 73
1
 72
2
 10
18.1850046504
 20
2.3693353402
 40
0.0243676582
 50
63.3666028271
 51
90.3937697637
 73
1
 72
1
 10
18.184837183
 20
2.3937024229
 11
18.1572301677
 21
2.3937024229
 72
2
 10
18.1572301659
 20
2.3912274234
 40
0.0024749995
 50
89.9999571957
 51
180.0000428043
 73
1
 72
1
 10
18.1547551663
 20
2.3912274216
 11
18.1547551663
 21
2.3815284162
 72
2
 10
18.1572301659
 20
2.3815284143
 40
0.0024749995
 50
179.9999571957
 51
270.0000428043
 73
1
 72
1
 10
18.1572301677
 20
2.3790534148
 11
18.1818891814
 21
2.3790534148
 72
2
 10
18.1818891832
 20
2.3765784153
 40
0.0024749995
 50
359.9999571957
 51
90.0000428042
 73
1
 72
1
 10
18.1843641828
 20
2.3765784134
 11
18.1843641828
 21
2.3568004025
 72
2
 10
18.1818891832
 20
2.3568004006
 40
0.0024749995
 50
269.9999571958
 51
0.0000428043
 73
1
 72
1
 10
18.1818891814
 20
2.3543254011
 11
18.0683181184
 21
2.3543254011
 72
2
 10
18.0683181166
 20
2.3568004006
 40
0.0024749995
 50
179.9999571957
 51
270.0000428042
 73
1
 72
1
 10
18.065843117
 20
2.3568004025
 11
18.065843117
 21
2.3766004134
 72
2
 10
18.0683181166
 20
2.3766004153
 40
0.0024749995
 50
89.9999571958
 51
180.0000428043
 73
1
 72
1
 10
18.0683181184
 20
2.3790754148
 11
18.091064131
 21
2.3790754148
 72
2
 10
18.0910641329
 20
2.3815504143
 40
0.0024749995
 50
269.9999571957
 51
0.0000428043
 73
1
 72
1
 10
18.0935391324
 20
2.3815504162
 11
18.0935391324
 21
2.4279054419
 72
2
 10
18.0910641329
 20
2.4279054437
 40
0.0024749995
 50
359.9999571957
 51
90.0000428043
 73
1
 72
1
 10
18.091064131
 20
2.4303804433
 11
18.0683181184
 21
2.4303804433
 72
2
 10
18.0683181166
 20
2.4328554428
 40
0.0024749995
 50
179.9999571957
 51
270.0000428043
 73
1
 72
1
 10
18.065843117
 20
2.4328554446
 11
18.065843117
 21
2.4526554556
 72
2
 10
18.0683181166
 20
2.4526554575
 40
0.0024749995
 50
89.9999571958
 51
180.0000428043
 73
1
 72
1
 10
18.0683181184
 20
2.455130457
 11
18.2178992014
 21
2.455130457
 72
2
 10
18.2152358981
 20
2.2725915465
 40
0.1825583387
 50
79.8618509324
 51
89.1640948679
 73
1
 72
2
 10
18.2415401884
 20
2.4134150625
 40
0.039319019
 50
59.1202086415
 51
81.4730239328
 73
1
 72
2
 10
18.2471995846
 20
2.4197497317
 40
0.0310192946
 50
34.7540871
 51
62.0879016178
 73
1
 72
2
 10
18.2588883357
 20
2.4282993328
 40
0.0165459396
 50
1.548452892
 51
33.5033152417
 73
1
 72
2
 10
18.2621849309
 20
2.428467785
 40
0.0132462337
 50
331.1510006998
 51
1.205404301
 73
1
 72
2
 10
18.2511742746
 20
2.4351463727
 40
0.0261183659
 50
305.6373831893
 51
329.9727629745
 73
1
 72
2
 10
18.220842337
 20
2.4783532224
 40
0.0789082104
 50
292.906155071
 51
305.2574666259
 73
1
 72
2
 10
18.197141171
 20
2.3016991173
 40
0.117346916
 50
58.614769177
 51
62.3737227606
 73
1
 72
2
 10
18.2450241237
 20
2.3798263774
 40
0.0257145923
 50
39.3804255939
 51
59.0361096173
 73
1
 72
2
 10
18.2439037681
 20
2.3797532943
 40
0.0266349791
 50
20.3630922153
 51
37.9727053099
 73
1
 72
2
 10
18.2260032264
 20
2.3725718859
 40
0.0459185159
 50
15.6740290068
 51
20.9917271228
 73
1
 72
2
 10
18.2845735615
 20
2.3882148688
 40
0.0147197649
 50
192.7054516565
 51
206.0594861022
 73
1
 72
2
 10
18.2760792244
 20
2.3840063824
 40
0.0052403997
 50
205.5232099488
 51
227.5054868079
 73
1
 72
2
 10
18.2743509251
 20
2.3821910097
 40
0.0027347709
 50
228.5117626738
 51
266.1485845755
 73
1
 72
1
 10
18.2741672326
 20
2.379462415
 11
18.2752762332
 21
2.379462415
 72
2
 10
18.2752146786
 20
2.3927110743
 40
0.0132488022
 50
270.266200055
 51
281.2404888597
 73
1
 72
2
 10
18.2764089196
 20
2.3869743807
 40
0.0073895522
 50
280.8288201977
 51
305.0837508495
 73
1
 72
2
 10
18.2768101012
 20
2.3861235343
 40
0.0064647042
 50
306.5086174083
 51
340.2162360092
 73
1
 72
2
 10
18.2716089246
 20
2.3878675959
 40
0.0119498009
 50
340.7883861657
 51
1.1691452593
 73
1
 72
1
 10
18.2835562378
 20
2.3881114198
 11
18.2835562378
 21
2.3907374213
 72
2
 10
18.2860312373
 20
2.3907374231
 40
0.0024749995
 50
89.9999571957
 51
180.0000428043
 73
1
 72
1
 10
18.2860312391
 20
2.3932124227
 11
18.2981412459
 21
2.3932124227
 72
2
 10
18.2981412477
 20
2.3907374231
 40
0.0024749995
 50
359.9999571957
 51
90.0000428043
 73
1
 72
1
 10
18.3006162472
 20
2.3907374213
 11
18.3006162472
 21
2.3791854149
 72
2
 10
18.2830605507
 20
2.3792897325
 40
0.0175560065
 50
332.2279060967
 51
359.6595469939
 73
1
 72
2
 10
18.2737535399
 20
2.384184238
 40
0.0280715479
 50
308.5071794988
 51
332.2400656899
 73
1
 72
2
 10
18.2667613545
 20
2.3917854558
 40
0.0383802683
 50
288.7656836787
 51
309.6104317088
 73
1
 72
2
 10
18.2724993219
 20
2.3741987064
 40
0.0198837666
 50
271.8586572978
 51
289.4131338543
 73
1
 72
1
 10
18.273144232
 20
2.3543254011
 11
18.2257802057
 21
2.3543254011
 97
267
330
2CC
330
2CD
330
2CE
330
2CF
330
2D0
330
2D1
330
2D2
330
2D3
330
2D4
330
2D5
330
2D6
330
2D7
330
2D8
330
2D9
330
2DA
330
2DB
330
2DC
330
2DD
330
2DE
330
2DF
330
2E0
330
2E1
330
2E2
330
2E3
330
2E4
330
2E5
330
2E6
330
2E7
330
2E8
330
2E9
330
2EA
330
2EB
330
2EC
330
2ED
330
2EE
330
2EF
330
2F0
330
2F1
330
2F2
330
2F3
330
2F4
330
2F5
330
2F6
330
2F7
330
2F8
330
2F9
330
2FA
330
2FB
330
2FC
330
2FD
330
2FE
330
2FF
330
300
330
301
330
302
330
303
330
304
330
305
330
306
330
307
330
308
330
309
330
30A
330
30B
330
30C
330
30D
330
30E
330
30F
330
310
330
311
330
312
330
313
330
314
330
315
330
316
330
317
330
318
330
319
330
31A
330
31B
330
31C
330
31D
330
31E
330
31F
330
320
330
321
330
322
330
323
330
324
330
325
330
326
330
327
330
328
330
329
330
32A
330
32B
330
32C
330
32D
330
32E
330
32F
330
330
330
331
330
332
330
333
330
334
330
335
330
336
330
337
330
338
330
339
330
33A
330
33B
330
33C
330
33D
330
33E
330
33F
330
340
330
341
330
342
330
343
330
344
330
345
330
346
330
347
330
348
330
349
330
34A
330
34B
330
34C
330
34D
330
34E
330
34F
330
350
330
351
330
352
330
353
330
354
330
355
330
356
330
357
330
358
330
359
330
35A
330
35B
330
35C
330
35D
330
35E
330
35F
330
360
330
361
330
362
330
363
330
364
330
365
330
366
330
367
330
368
330
369
330
36A
330
36B
330
36C
330
36D
330
36E
330
36F
330
370
330
371
330
372
330
373
330
374
330
375
330
376
330
377
330
378
330
379
330
37A
330
37B
330
37C
330
37D
330
37E
330
37F
330
380
330
381
330
382
330
383
330
384
330
385
330
386
330
387
330
388
330
389
330
38A
330
38B
330
38C
330
38D
330
38E
330
38F
330
390
330
391
330
392
330
393
330
394
330
395
330
396
330
397
330
398
330
399
330
39A
330
39B
330
39C
330
39D
330
39E
330
39F
330
3A0
330
3A1
330
3A2
330
3A3
330
3A4
330
3A5
330
3A6
330
3A7
330
3A8
330
3A9
330
3AA
330
3AB
330
3AC
330
3AD
330
3AE
330
3AF
330
3B0
330
3B1
330
3B2
330
3B3
330
3B4
330
3B5
330
3B6
330
3B7
330
3B8
330
3B9
330
3BA
330
3BB
330
3BC
330
3BD
330
3BE
330
3BF
330
3C0
330
3C1
330
3C2
330
3C3
330
3C4
330
3C5
330
3C6
330
3C7
330
3C8
330
3C9
330
3CA
330
3CB
330
3CC
330
3CD
330
3CE
330
3CF
330
3D0
330
3D1
330
3D2
330
3D3
330
3D4
330
3D5
330
3D6
 92
1
 93
40
 72
2
 10
17.8362019878
 20
2.3568004006
 40
0.0024749995
 50
179.9999571957
 51
270.0000428042
 73
1
 72
1
 10
17.8337269883
 20
2.3568004025
 11
17.8337269883
 21
2.3766004134
 72
2
 10
17.8362019878
 20
2.3766004153
 40
0.0024749995
 50
89.9999571958
 51
180.0000428043
 73
1
 72
1
 10
17.8362019897
 20
2.3790754148
 11
17.860125003
 21
2.3790754148
 72
2
 10
17.8601250048
 20
2.3815504143
 40
0.0024749995
 50
269.9999571956
 51
0.0000428042
 73
1
 72
1
 10
17.8626000043
 20
2.3815504162
 11
17.8626000043
 21
2.4279054419
 72
2
 10
17.8601250048
 20
2.4279054437
 40
0.0024749995
 50
359.9999571957
 51
90.0000428043
 73
1
 72
1
 10
17.860125003
 20
2.4303804433
 11
17.8362019897
 21
2.4303804433
 72
2
 10
17.8362019878
 20
2.4328554428
 40
0.0024749995
 50
179.9999571957
 51
270.0000428043
 73
1
 72
1
 10
17.8337269883
 20
2.4328554446
 11
17.8337269883
 21
2.4526554556
 72
2
 10
17.8362019878
 20
2.4526554575
 40
0.0024749995
 50
89.9999571958
 51
180.0000428043
 73
1
 72
1
 10
17.8362019897
 20
2.455130457
 11
18.0379951016
 21
2.455130457
 72
2
 10
18.0379951034
 20
2.4526554575
 40
0.0024749995
 50
359.9999571957
 51
90.0000428042
 73
1
 72
1
 10
18.040470103
 20
2.4526554556
 11
18.040470103
 21
2.4196554373
 72
2
 10
18.0379951034
 20
2.4196554355
 40
0.0024749995
 50
269.9999571956
 51
0.0000428042
 73
1
 72
1
 10
18.0379951016
 20
2.4171804359
 11
17.9961310784
 21
2.4171804359
 72
2
 10
17.9961310765
 20
2.4196554355
 40
0.0024749995
 50
179.9999571957
 51
270.0000428043
 73
1
 72
1
 10
17.993656077
 20
2.4196554373
 11
17.993656077
 21
2.4279054419
 72
2
 10
17.9911810775
 20
2.4279054437
 40
0.0024749995
 50
359.9999571957
 51
90.0000428043
 73
1
 72
1
 10
17.9911810756
 20
2.4303804433
 11
17.9271410401
 21
2.4303804433
 72
2
 10
17.9271410383
 20
2.4279054437
 40
0.0024749995
 50
89.9999571958
 51
180.0000428043
 73
1
 72
1
 10
17.9246660387
 20
2.4279054419
 11
17.9246660387
 21
2.4163554355
 72
2
 10
17.9271410383
 20
2.4163554336
 40
0.0024749995
 50
179.9999571957
 51
270.0000428042
 73
1
 72
1
 10
17.9271410401
 20
2.4138804341
 11
17.9623080596
 21
2.4138804341
 72
2
 10
17.9623080615
 20
2.4114054346
 40
0.0024749995
 50
359.9999571957
 51
90.0000428042
 73
1
 72
1
 10
17.964783061
 20
2.4114054327
 11
17.964783061
 21
2.3980504253
 72
2
 10
17.9623080615
 20
2.3980504235
 40
0.0024749995
 50
269.9999571956
 51
0.0000428042
 73
1
 72
1
 10
17.9623080596
 20
2.395575424
 11
17.9271410401
 21
2.395575424
 72
2
 10
17.9271410383
 20
2.3931004244
 40
0.0024749995
 50
89.9999571958
 51
180.0000428043
 73
1
 72
1
 10
17.9246660387
 20
2.3931004226
 11
17.9246660387
 21
2.3815504162
 72
2
 10
17.9271410383
 20
2.3815504143
 40
0.0024749995
 50
179.9999571957
 51
270.0000428043
 73
1
 72
1
 10
17.9271410401
 20
2.3790754148
 11
17.9921450762
 21
2.3790754148
 72
2
 10
17.992145078
 20
2.3815504143
 40
0.0024749995
 50
269.9999571958
 51
0.0000428043
 73
1
 72
1
 10
17.9946200775
 20
2.3815504162
 11
17.9946200775
 21
2.3898004208
 72
2
 10
17.9970950771
 20
2.3898004226
 40
0.0024749995
 50
89.9999571958
 51
180.0000428043
 73
1
 72
1
 10
17.9970950789
 20
2.3922754221
 11
18.0394141024
 21
2.3922754221
 72
2
 10
18.0394141042
 20
2.3898004226
 40
0.0024749995
 50
359.9999571957
 51
90.0000428043
 73
1
 72
1
 10
18.0418891038
 20
2.3898004208
 11
18.0418891038
 21
2.3568004025
 72
2
 10
18.0394141042
 20
2.3568004006
 40
0.0024749995
 50
269.9999571958
 51
0.0000428043
 73
1
 72
1
 10
18.0394141024
 20
2.3543254011
 11
17.8362019897
 21
2.3543254011
 97
267
330
2CC
330
2CD
330
2CE
330
2CF
330
2D0
330
2D1
330
2D2
330
2D3
330
2D4
330
2D5
330
2D6
330
2D7
330
2D8
330
2D9
330
2DA
330
2DB
330
2DC
330
2DD
330
2DE
330
2DF
330
2E0
330
2E1
330
2E2
330
2E3
330
2E4
330
2E5
330
2E6
330
2E7
330
2E8
330
2E9
330
2EA
330
2EB
330
2EC
330
2ED
330
2EE
330
2EF
330
2F0
330
2F1
330
2F2
330
2F3
330
2F4
330
2F5
330
2F6
330
2F7
330
2F8
330
2F9
330
2FA
330
2FB
330
2FC
330
2FD
330
2FE
330
2FF
330
300
330
301
330
302
330
303
330
304
330
305
330
306
330
307
330
308
330
309
330
30A
330
30B
330
30C
330
30D
330
30E
330
30F
330
310
330
311
330
312
330
313
330
314
330
315
330
316
330
317
330
318
330
319
330
31A
330
31B
330
31C
330
31D
330
31E
330
31F
330
320
330
321
330
322
330
323
330
324
330
325
330
326
330
327
330
328
330
329
330
32A
330
32B
330
32C
330
32D
330
32E
330
32F
330
330
330
331
330
332
330
333
330
334
330
335
330
336
330
337
330
338
330
339
330
33A
330
33B
330
33C
330
33D
330
33E
330
33F
330
340
330
341
330
342
330
343
330
344
330
345
330
346
330
347
330
348
330
349
330
34A
330
34B
330
34C
330
34D
330
34E
330
34F
330
350
330
351
330
352
330
353
330
354
330
355
330
356
330
357
330
358
330
359
330
35A
330
35B
330
35C
330
35D
330
35E
330
35F
330
360
330
361
330
362
330
363
330
364
330
365
330
366
330
367
330
368
330
369
330
36A
330
36B
330
36C
330
36D
330
36E
330
36F
330
370
330
371
330
372
330
373
330
374
330
375
330
376
330
377
330
378
330
379
330
37A
330
37B
330
37C
330
37D
330
37E
330
37F
330
380
330
381
330
382
330
383
330
384
330
385
330
386
330
387
330
388
330
389
330
38A
330
38B
330
38C
330
38D
330
38E
330
38F
330
390
330
391
330
392
330
393
330
394
330
395
330
396
330
397
330
398
330
399
330
39A
330
39B
330
39C
330
39D
330
39E
330
39F
330
3A0
330
3A1
330
3A2
330
3A3
330
3A4
330
3A5
330
3A6
330
3A7
330
3A8
330
3A9
330
3AA
330
3AB
330
3AC
330
3AD
330
3AE
330
3AF
330
3B0
330
3B1
330
3B2
330
3B3
330
3B4
330
3B5
330
3B6
330
3B7
330
3B8
330
3B9
330
3BA
330
3BB
330
3BC
330
3BD
330
3BE
330
3BF
330
3C0
330
3C1
330
3C2
330
3C3
330
3C4
330
3C5
330
3C6
330
3C7
330
3C8
330
3C9
330
3CA
330
3CB
330
3CC
330
3CD
330
3CE
330
3CF
330
3D0
330
3D1
330
3D2
330
3D3
330
3D4
330
3D5
330
3D6
 92
1
 93
40
 72
2
 10
17.7115227858
 20
2.3567995689
 40
0.0024741678
 50
226.3477981898
 51
270.0031206038
 73
1
 72
1
 10
17.7098149196
 20
2.3550094015
 11
17.6465348845
 21
2.415387435
 72
2
 10
17.6448261836
 20
2.4135964972
 40
0.0024753014
 50
46.3461263058
 51
180.0014637321
 73
1
 72
1
 10
17.6423508822
 20
2.413596434
 11
17.6423508822
 21
2.3815504162
 72
2
 10
17.6448258817
 20
2.3815504143
 40
0.0024749995
 50
179.9999571957
 51
270.0000428043
 73
1
 72
1
 10
17.6448258836
 20
2.3790754148
 11
17.6651428948
 21
2.3790754148
 72
2
 10
17.6651428967
 20
2.3766004153
 40
0.0024749995
 50
359.9999571957
 51
90.0000428043
 73
1
 72
1
 10
17.6676178962
 20
2.3766004134
 11
17.6676178962
 21
2.3568004025
 72
2
 10
17.6651428967
 20
2.3568004006
 40
0.0024749995
 50
269.9999571958
 51
0.0000428043
 73
1
 72
1
 10
17.6651428948
 20
2.3543254011
 11
17.5894788529
 21
2.3543254011
 72
2
 10
17.589478851
 20
2.3568004006
 40
0.0024749995
 50
179.9999571957
 51
270.0000428042
 73
1
 72
1
 10
17.5870038515
 20
2.3568004025
 11
17.5870038515
 21
2.3766004134
 72
2
 10
17.589478851
 20
2.3766004153
 40
0.0024749995
 50
89.9999571957
 51
180.0000428043
 73
1
 72
1
 10
17.5894788529
 20
2.3790754148
 11
17.6081248632
 21
2.3790754148
 72
2
 10
17.6081248651
 20
2.3815504143
 40
0.0024749995
 50
269.9999571957
 51
0.0000428043
 73
1
 72
1
 10
17.6105998646
 20
2.3815504162
 11
17.6105998646
 21
2.4279054419
 72
2
 10
17.6081248651
 20
2.4279054437
 40
0.0024749995
 50
359.9999571957
 51
90.0000428043
 73
1
 72
1
 10
17.6081248632
 20
2.4303804433
 11
17.5894788529
 21
2.4303804433
 72
2
 10
17.589478851
 20
2.4328554428
 40
0.0024749995
 50
179.9999571957
 51
270.0000428043
 73
1
 72
1
 10
17.5870038515
 20
2.4328554446
 11
17.5870038515
 21
2.4526554556
 72
2
 10
17.589478851
 20
2.4526554575
 40
0.0024749995
 50
89.9999571957
 51
180.0000428043
 73
1
 72
1
 10
17.5894788529
 20
2.455130457
 11
17.6899369086
 21
2.455130457
 72
2
 10
17.6899370433
 20
2.4526562892
 40
0.0024741678
 50
46.3477981899
 51
90.0031206038
 73
1
 72
1
 10
17.6916449095
 20
2.4544464566
 11
17.7516779428
 21
2.3971664249
 72
2
 10
17.7533866437
 20
2.3989573626
 40
0.0024753014
 50
226.3461263059
 51
0.0014637321
 73
1
 72
1
 10
17.7558619451
 20
2.3989574258
 11
17.7558619451
 21
2.4279054419
 72
2
 10
17.7533869456
 20
2.4279054437
 40
0.0024749995
 50
359.9999571957
 51
90.0000428043
 73
1
 72
1
 10
17.7533869438
 20
2.4303804433
 11
17.7346109333
 21
2.4303804433
 72
2
 10
17.7346109315
 20
2.4328554428
 40
0.0024749995
 50
179.9999571957
 51
270.0000428043
 73
1
 72
1
 10
17.732135932
 20
2.4328554446
 11
17.732135932
 21
2.4526554556
 72
2
 10
17.7346109315
 20
2.4526554575
 40
0.0024749995
 50
89.9999571958
 51
180.0000428043
 73
1
 72
1
 10
17.7346109333
 20
2.455130457
 11
17.8086119744
 21
2.455130457
 72
2
 10
17.8086119762
 20
2.4526554575
 40
0.0024749995
 50
359.9999571957
 51
90.0000428043
 73
1
 72
1
 10
17.8110869758
 20
2.4526554556
 11
17.8110869758
 21
2.4328554446
 72
2
 10
17.8086119762
 20
2.4328554428
 40
0.0024749995
 50
269.9999571956
 51
0.0000428042
 73
1
 72
1
 10
17.8086119744
 20
2.4303804433
 11
17.7906789644
 21
2.4303804433
 72
2
 10
17.7906789626
 20
2.4279054437
 40
0.0024749995
 50
89.9999571957
 51
180.0000428043
 73
1
 72
1
 10
17.7882039631
 20
2.4279054419
 11
17.7882039631
 21
2.3568004025
 72
2
 10
17.7857289635
 20
2.3568004006
 40
0.0024749995
 50
269.9999571957
 51
0.0000428043
 73
1
 72
1
 10
17.7857289617
 20
2.3543254011
 11
17.7115229205
 21
2.3543254011
 97
267
330
2CC
330
2CD
330
2CE
330
2CF
330
2D0
330
2D1
330
2D2
330
2D3
330
2D4
330
2D5
330
2D6
330
2D7
330
2D8
330
2D9
330
2DA
330
2DB
330
2DC
330
2DD
330
2DE
330
2DF
330
2E0
330
2E1
330
2E2
330
2E3
330
2E4
330
2E5
330
2E6
330
2E7
330
2E8
330
2E9
330
2EA
330
2EB
330
2EC
330
2ED
330
2EE
330
2EF
330
2F0
330
2F1
330
2F2
330
2F3
330
2F4
330
2F5
330
2F6
330
2F7
330
2F8
330
2F9
330
2FA
330
2FB
330
2FC
330
2FD
330
2FE
330
2FF
330
300
330
301
330
302
330
303
330
304
330
305
330
306
330
307
330
308
330
309
330
30A
330
30B
330
30C
330
30D
330
30E
330
30F
330
310
330
311
330
312
330
313
330
314
330
315
330
316
330
317
330
318
330
319
330
31A
330
31B
330
31C
330
31D
330
31E
330
31F
330
320
330
321
330
322
330
323
330
324
330
325
330
326
330
327
330
328
330
329
330
32A
330
32B
330
32C
330
32D
330
32E
330
32F
330
330
330
331
330
332
330
333
330
334
330
335
330
336
330
337
330
338
330
339
330
33A
330
33B
330
33C
330
33D
330
33E
330
33F
330
340
330
341
330
342
330
343
330
344
330
345
330
346
330
347
330
348
330
349
330
34A
330
34B
330
34C
330
34D
330
34E
330
34F
330
350
330
351
330
352
330
353
330
354
330
355
330
356
330
357
330
358
330
359
330
35A
330
35B
330
35C
330
35D
330
35E
330
35F
330
360
330
361
330
362
330
363
330
364
330
365
330
366
330
367
330
368
330
369
330
36A
330
36B
330
36C
330
36D
330
36E
330
36F
330
370
330
371
330
372
330
373
330
374
330
375
330
376
330
377
330
378
330
379
330
37A
330
37B
330
37C
330
37D
330
37E
330
37F
330
380
330
381
330
382
330
383
330
384
330
385
330
386
330
387
330
388
330
389
330
38A
330
38B
330
38C
330
38D
330
38E
330
38F
330
390
330
391
330
392
330
393
330
394
330
395
330
396
330
397
330
398
330
399
330
39A
330
39B
330
39C
330
39D
330
39E
330
39F
330
3A0
330
3A1
330
3A2
330
3A3
330
3A4
330
3A5
330
3A6
330
3A7
330
3A8
330
3A9
330
3AA
330
3AB
330
3AC
330
3AD
330
3AE
330
3AF
330
3B0
330
3B1
330
3B2
330
3B3
330
3B4
330
3B5
330
3B6
330
3B7
330
3B8
330
3B9
330
3BA
330
3BB
330
3BC
330
3BD
330
3BE
330
3BF
330
3C0
330
3C1
330
3C2
330
3C3
330
3C4
330
3C5
330
3C6
330
3C7
330
3C8
330
3C9
330
3CA
330
3CB
330
3CC
330
3CD
330
3CE
330
3CF
330
3D0
330
3D1
330
3D2
330
3D3
330
3D4
330
3D5
330
3D6
 92
1
 93
40
 72
2
 10
17.4632701481
 20
2.3568008172
 40
0.0024754162
 50
226.3593695814
 51
270.0146919954
 73
1
 72
1
 10
17.4615617819
 20
2.3550094015
 11
17.3982817468
 21
2.415387435
 72
2
 10
17.3965730459
 20
2.4135964972
 40
0.0024753014
 50
46.3461263058
 51
180.0014637321
 73
1
 72
1
 10
17.3940977445
 20
2.413596434
 11
17.3940977445
 21
2.3815504162
 72
2
 10
17.396572744
 20
2.3815504143
 40
0.0024749995
 50
179.9999571957
 51
270.0000428043
 73
1
 72
1
 10
17.3965727459
 20
2.3790754148
 11
17.4168897572
 21
2.3790754148
 72
2
 10
17.416889759
 20
2.3766004153
 40
0.0024749995
 50
359.9999571957
 51
90.0000428043
 73
1
 72
1
 10
17.4193647585
 20
2.3766004134
 11
17.4193647585
 21
2.3568004025
 72
2
 10
17.416889759
 20
2.3568004006
 40
0.0024749995
 50
269.9999571957
 51
0.0000428043
 73
1
 72
1
 10
17.4168897572
 20
2.3543254011
 11
17.3412257152
 21
2.3543254011
 72
2
 10
17.3412257133
 20
2.3568004006
 40
0.0024749995
 50
179.9999571957
 51
270.0000428043
 73
1
 72
1
 10
17.3387507138
 20
2.3568004025
 11
17.3387507138
 21
2.3766004134
 72
2
 10
17.3412257133
 20
2.3766004153
 40
0.0024749995
 50
89.9999571957
 51
180.0000428043
 73
1
 72
1
 10
17.3412257152
 20
2.3790754148
 11
17.3598727255
 21
2.3790754148
 72
2
 10
17.3598727274
 20
2.3815504143
 40
0.0024749995
 50
269.9999571957
 51
0.0000428043
 73
1
 72
1
 10
17.3623477269
 20
2.3815504162
 11
17.3623477269
 21
2.4279054419
 72
2
 10
17.3598727274
 20
2.4279054437
 40
0.0024749995
 50
359.9999571957
 51
90.0000428044
 73
1
 72
1
 10
17.3598727255
 20
2.4303804433
 11
17.3412257152
 21
2.4303804433
 72
2
 10
17.3412257133
 20
2.4328554428
 40
0.0024749995
 50
179.9999571957
 51
270.0000428043
 73
1
 72
1
 10
17.3387507138
 20
2.4328554446
 11
17.3387507138
 21
2.4526554556
 72
2
 10
17.3412257133
 20
2.4526554575
 40
0.0024749995
 50
89.9999571957
 51
180.0000428043
 73
1
 72
1
 10
17.3412257152
 20
2.455130457
 11
17.4416837709
 21
2.455130457
 72
2
 10
17.4416839057
 20
2.4526562892
 40
0.0024741678
 50
46.3477981899
 51
90.0031206038
 73
1
 72
1
 10
17.4433917718
 20
2.4544464566
 11
17.5034248051
 21
2.3971664249
 72
2
 10
17.5051335061
 20
2.3989573626
 40
0.0024753014
 50
226.3461263059
 51
0.0014637321
 73
1
 72
1
 10
17.5076088075
 20
2.3989574258
 11
17.5076088075
 21
2.4279054419
 72
2
 10
17.5051338079
 20
2.4279054437
 40
0.0024749995
 50
359.9999571957
 51
90.0000428043
 73
1
 72
1
 10
17.5051338061
 20
2.4303804433
 11
17.4863577957
 21
2.4303804433
 72
2
 10
17.4863577938
 20
2.4328554428
 40
0.0024749995
 50
179.9999571957
 51
270.0000428043
 73
1
 72
1
 10
17.4838827943
 20
2.4328554446
 11
17.4838827943
 21
2.4526554556
 72
2
 10
17.4863577938
 20
2.4526554575
 40
0.0024749995
 50
89.9999571957
 51
180.0000428043
 73
1
 72
1
 10
17.4863577957
 20
2.455130457
 11
17.5603588367
 21
2.455130457
 72
2
 10
17.5603588386
 20
2.4526554575
 40
0.0024749995
 50
359.9999571957
 51
90.0000428042
 73
1
 72
1
 10
17.5628338381
 20
2.4526554556
 11
17.5628338381
 21
2.4328554446
 72
2
 10
17.5603588386
 20
2.4328554428
 40
0.0024749995
 50
269.9999571958
 51
0.0000428043
 73
1
 72
1
 10
17.5603588367
 20
2.4303804433
 11
17.5424258268
 21
2.4303804433
 72
2
 10
17.5424258249
 20
2.4279054437
 40
0.0024749995
 50
89.9999571958
 51
180.0000428043
 73
1
 72
1
 10
17.5399508254
 20
2.4279054419
 11
17.5399508254
 21
2.3568004025
 72
2
 10
17.5374758259
 20
2.3568004006
 40
0.0024749995
 50
269.9999571958
 51
0.0000428043
 73
1
 72
1
 10
17.537475824
 20
2.3543254011
 11
17.4632707829
 21
2.3543254011
 97
267
330
2CC
330
2CD
330
2CE
330
2CF
330
2D0
330
2D1
330
2D2
330
2D3
330
2D4
330
2D5
330
2D6
330
2D7
330
2D8
330
2D9
330
2DA
330
2DB
330
2DC
330
2DD
330
2DE
330
2DF
330
2E0
330
2E1
330
2E2
330
2E3
330
2E4
330
2E5
330
2E6
330
2E7
330
2E8
330
2E9
330
2EA
330
2EB
330
2EC
330
2ED
330
2EE
330
2EF
330
2F0
330
2F1
330
2F2
330
2F3
330
2F4
330
2F5
330
2F6
330
2F7
330
2F8
330
2F9
330
2FA
330
2FB
330
2FC
330
2FD
330
2FE
330
2FF
330
300
330
301
330
302
330
303
330
304
330
305
330
306
330
307
330
308
330
309
330
30A
330
30B
330
30C
330
30D
330
30E
330
30F
330
310
330
311
330
312
330
313
330
314
330
315
330
316
330
317
330
318
330
319
330
31A
330
31B
330
31C
330
31D
330
31E
330
31F
330
320
330
321
330
322
330
323
330
324
330
325
330
326
330
327
330
328
330
329
330
32A
330
32B
330
32C
330
32D
330
32E
330
32F
330
330
330
331
330
332
330
333
330
334
330
335
330
336
330
337
330
338
330
339
330
33A
330
33B
330
33C
330
33D
330
33E
330
33F
330
340
330
341
330
342
330
343
330
344
330
345
330
346
330
347
330
348
330
349
330
34A
330
34B
330
34C
330
34D
330
34E
330
34F
330
350
330
351
330
352
330
353
330
354
330
355
330
356
330
357
330
358
330
359
330
35A
330
35B
330
35C
330
35D
330
35E
330
35F
330
360
330
361
330
362
330
363
330
364
330
365
330
366
330
367
330
368
330
369
330
36A
330
36B
330
36C
330
36D
330
36E
330
36F
330
370
330
371
330
372
330
373
330
374
330
375
330
376
330
377
330
378
330
379
330
37A
330
37B
330
37C
330
37D
330
37E
330
37F
330
380
330
381
330
382
330
383
330
384
330
385
330
386
330
387
330
388
330
389
330
38A
330
38B
330
38C
330
38D
330
38E
330
38F
330
390
330
391
330
392
330
393
330
394
330
395
330
396
330
397
330
398
330
399
330
39A
330
39B
330
39C
330
39D
330
39E
330
39F
330
3A0
330
3A1
330
3A2
330
3A3
330
3A4
330
3A5
330
3A6
330
3A7
330
3A8
330
3A9
330
3AA
330
3AB
330
3AC
330
3AD
330
3AE
330
3AF
330
3B0
330
3B1
330
3B2
330
3B3
330
3B4
330
3B5
330
3B6
330
3B7
330
3B8
330
3B9
330
3BA
330
3BB
330
3BC
330
3BD
330
3BE
330
3BF
330
3C0
330
3C1
330
3C2
330
3C3
330
3C4
330
3C5
330
3C6
330
3C7
330
3C8
330
3C9
330
3CA
330
3CB
330
3CC
330
3CD
330
3CE
330
3CF
330
3D0
330
3D1
330
3D2
330
3D3
330
3D4
330
3D5
330
3D6
 92
1
 93
23
 72
2
 10
17.0481152095
 20
2.4027328529
 40
0.048483885
 50
273.21763719
 51
303.0749121182
 73
1
 72
2
 10
17.0629546036
 20
2.379965244
 40
0.0213072145
 50
303.0488228549
 51
355.7263138674
 73
1
 72
2
 10
17.0688911042
 20
2.3799744343
 40
0.0153945295
 50
354.0454548824
 51
5.1878013979
 73
1
 72
2
 10
17.0620614151
 20
2.3797859164
 40
0.0222174455
 50
4.0793399388
 51
69.834329283
 73
1
 72
1
 10
17.0697205646
 20
2.4006414268
 11
17.059669559
 21
2.4041904287
 72
1
 10
17.059669559
 20
2.4041904287
 11
17.0679095636
 21
2.4089664314
 72
2
 10
17.0460441811
 20
2.445793323
 40
0.0428289026
 50
300.6990502959
 51
319.0591802498
 73
1
 72
2
 10
17.0660727781
 20
2.4296649696
 40
0.0171568255
 50
315.9145124245
 51
16.0049121283
 73
1
 72
2
 10
17.0611211659
 20
2.4263113051
 40
0.0229166529
 50
20.6563876465
 51
62.3316896973
 73
1
 72
2
 10
17.0404590422
 20
2.3933827403
 40
0.061747717
 50
59.5385584989
 51
90.0050977555
 73
1
 72
1
 10
17.0404535484
 20
2.455130457
 11
16.8743904563
 21
2.455130457
 72
2
 10
16.8743904545
 20
2.4526554575
 40
0.0024749995
 50
89.9999571958
 51
180.0000428043
 73
1
 72
1
 10
16.8719154549
 20
2.4526554556
 11
16.8719154549
 21
2.4328554446
 72
2
 10
16.8743904545
 20
2.4328554428
 40
0.0024749995
 50
179.9999571957
 51
270.0000428043
 73
1
 72
1
 10
16.8743904563
 20
2.4303804433
 11
16.8983324696
 21
2.4303804433
 72
2
 10
16.8983324714
 20
2.4279054437
 40
0.0024749995
 50
359.9999571957
 51
90.0000428043
 73
1
 72
1
 10
16.9008074709
 20
2.4279054419
 11
16.9008074709
 21
2.3815504162
 72
2
 10
16.8983324714
 20
2.3815504143
 40
0.0024749995
 50
269.9999571958
 51
0.0000428043
 73
1
 72
1
 10
16.8983324696
 20
2.3790754148
 11
16.8743904563
 21
2.3790754148
 72
2
 10
16.8743904545
 20
2.3766004153
 40
0.0024749995
 50
89.9999571958
 51
180.0000428043
 73
1
 72
1
 10
16.8719154549
 20
2.3766004134
 11
16.8719154549
 21
2.3568004025
 72
2
 10
16.8743904545
 20
2.3568004006
 40
0.0024749995
 50
179.9999571957
 51
270.0000428042
 73
1
 72
1
 10
16.8743904563
 20
2.3543254011
 11
17.0508365542
 21
2.3543254011
 97
267
330
2CC
330
2CD
330
2CE
330
2CF
330
2D0
330
2D1
330
2D2
330
2D3
330
2D4
330
2D5
330
2D6
330
2D7
330
2D8
330
2D9
330
2DA
330
2DB
330
2DC
330
2DD
330
2DE
330
2DF
330
2E0
330
2E1
330
2E2
330
2E3
330
2E4
330
2E5
330
2E6
330
2E7
330
2E8
330
2E9
330
2EA
330
2EB
330
2EC
330
2ED
330
2EE
330
2EF
330
2F0
330
2F1
330
2F2
330
2F3
330
2F4
330
2F5
330
2F6
330
2F7
330
2F8
330
2F9
330
2FA
330
2FB
330
2FC
330
2FD
330
2FE
330
2FF
330
300
330
301
330
302
330
303
330
304
330
305
330
306
330
307
330
308
330
309
330
30A
330
30B
330
30C
330
30D
330
30E
330
30F
330
310
330
311
330
312
330
313
330
314
330
315
330
316
330
317
330
318
330
319
330
31A
330
31B
330
31C
330
31D
330
31E
330
31F
330
320
330
321
330
322
330
323
330
324
330
325
330
326
330
327
330
328
330
329
330
32A
330
32B
330
32C
330
32D
330
32E
330
32F
330
330
330
331
330
332
330
333
330
334
330
335
330
336
330
337
330
338
330
339
330
33A
330
33B
330
33C
330
33D
330
33E
330
33F
330
340
330
341
330
342
330
343
330
344
330
345
330
346
330
347
330
348
330
349
330
34A
330
34B
330
34C
330
34D
330
34E
330
34F
330
350
330
351
330
352
330
353
330
354
330
355
330
356
330
357
330
358
330
359
330
35A
330
35B
330
35C
330
35D
330
35E
330
35F
330
360
330
361
330
362
330
363
330
364
330
365
330
366
330
367
330
368
330
369
330
36A
330
36B
330
36C
330
36D
330
36E
330
36F
330
370
330
371
330
372
330
373
330
374
330
375
330
376
330
377
330
378
330
379
330
37A
330
37B
330
37C
330
37D
330
37E
330
37F
330
380
330
381
330
382
330
383
330
384
330
385
330
386
330
387
330
388
330
389
330
38A
330
38B
330
38C
330
38D
330
38E
330
38F
330
390
330
391
330
392
330
393
330
394
330
395
330
396
330
397
330
398
330
399
330
39A
330
39B
330
39C
330
39D
330
39E
330
39F
330
3A0
330
3A1
330
3A2
330
3A3
330
3A4
330
3A5
330
3A6
330
3A7
330
3A8
330
3A9
330
3AA
330
3AB
330
3AC
330
3AD
330
3AE
330
3AF
330
3B0
330
3B1
330
3B2
330
3B3
330
3B4
330
3B5
330
3B6
330
3B7
330
3B8
330
3B9
330
3BA
330
3BB
330
3BC
330
3BD
330
3BE
330
3BF
330
3C0
330
3C1
330
3C2
330
3C3
330
3C4
330
3C5
330
3C6
330
3C7
330
3C8
330
3C9
330
3CA
330
3CB
330
3CC
330
3CD
330
3CE
330
3CF
330
3D0
330
3D1
330
3D2
330
3D3
330
3D4
330
3D5
330
3D6
 92
1
 93
32
 72
2
 10
17.1857496308
 20
2.3568004006
 40
0.0024749995
 50
269.9999571958
 51
0.0000428044
 73
1
 72
1
 10
17.1882246303
 20
2.3568004025
 11
17.1882246303
 21
2.3766004134
 72
2
 10
17.1857496308
 20
2.3766004153
 40
0.0024749995
 50
359.9999571957
 51
90.0000428043
 73
1
 72
1
 10
17.185749629
 20
2.3790754148
 11
17.1744666227
 21
2.3790754148
 72
2
 10
17.1744665134
 20
2.3815504549
 40
0.0024750401
 50
147.6063258011
 51
270.0025305754
 73
1
 72
1
 10
17.1723766216
 20
2.3828764169
 11
17.1778926246
 21
2.3915704217
 72
2
 10
17.1799825555
 20
2.3902442221
 40
0.0024752003
 50
89.998372645
 51
147.602165307
 73
1
 72
1
 10
17.1799826258
 20
2.3927194224
 11
17.2148606451
 21
2.3927194224
 72
2
 10
17.2148601055
 20
2.3902439622
 40
0.0024754602
 50
32.8959418574
 51
89.9875097202
 73
1
 72
1
 10
17.2169386463
 20
2.3915884218
 11
17.2225646494
 21
2.3828954169
 72
2
 10
17.2204866271
 20
2.3815506219
 40
0.0024752071
 50
270.0004896793
 51
32.9089806818
 73
1
 72
1
 10
17.2204866482
 20
2.3790754148
 11
17.2060356402
 21
2.3790754148
 72
2
 10
17.2060356384
 20
2.3766004153
 40
0.0024749995
 50
89.9999571958
 51
180.0000428043
 73
1
 72
1
 10
17.2035606388
 20
2.3766004134
 11
17.2035606388
 21
2.3568004025
 72
2
 10
17.2060356384
 20
2.3568004006
 40
0.0024749995
 50
179.9999571957
 51
270.0000428042
 73
1
 72
1
 10
17.2060356402
 20
2.3543254011
 11
17.3113166986
 21
2.3543254011
 72
2
 10
17.3113167005
 20
2.3568004006
 40
0.0024749995
 50
269.9999571957
 51
0.0000428043
 73
1
 72
1
 10
17.3137917
 20
2.3568004025
 11
17.3137917
 21
2.3766004134
 72
2
 10
17.3113167005
 20
2.3766004153
 40
0.0024749995
 50
359.9999571957
 51
90.0000428043
 73
1
 72
1
 10
17.3113166986
 20
2.3790754148
 11
17.2913006875
 21
2.3790754148
 72
2
 10
17.291300808
 20
2.3815494558
 40
0.002474041
 50
212.9056413127
 51
269.9972091756
 73
1
 72
1
 10
17.2892236864
 20
2.3802054154
 11
17.2414676599
 21
2.4540004564
 72
2
 10
17.2393900382
 20
2.4526554968
 40
0.0024749602
 50
32.9172174468
 51
90.0087853096
 73
1
 72
1
 10
17.2393896587
 20
2.455130457
 11
17.182214627
 21
2.455130457
 72
2
 10
17.1822145567
 20
2.4526552567
 40
0.0024752003
 50
89.998372645
 51
147.602165307
 73
1
 72
1
 10
17.1801246258
 20
2.4539814564
 11
17.1333245999
 21
2.3802244155
 72
2
 10
17.131234669
 20
2.3815506151
 40
0.0024752003
 50
269.998372645
 51
327.602165307
 73
1
 72
1
 10
17.1312345987
 20
2.3790754148
 11
17.1083735861
 21
2.3790754148
 72
2
 10
17.1083735842
 20
2.3766004153
 40
0.0024749995
 50
89.9999571957
 51
180.0000428043
 73
1
 72
1
 10
17.1058985847
 20
2.3766004134
 11
17.1058985847
 21
2.3568004025
 72
2
 10
17.1083735842
 20
2.3568004006
 40
0.0024749995
 50
179.9999571957
 51
270.0000428043
 73
1
 72
1
 10
17.1083735861
 20
2.3543254011
 11
17.185749629
 21
2.3543254011
 97
267
330
2CC
330
2CD
330
2CE
330
2CF
330
2D0
330
2D1
330
2D2
330
2D3
330
2D4
330
2D5
330
2D6
330
2D7
330
2D8
330
2D9
330
2DA
330
2DB
330
2DC
330
2DD
330
2DE
330
2DF
330
2E0
330
2E1
330
2E2
330
2E3
330
2E4
330
2E5
330
2E6
330
2E7
330
2E8
330
2E9
330
2EA
330
2EB
330
2EC
330
2ED
330
2EE
330
2EF
330
2F0
330
2F1
330
2F2
330
2F3
330
2F4
330
2F5
330
2F6
330
2F7
330
2F8
330
2F9
330
2FA
330
2FB
330
2FC
330
2FD
330
2FE
330
2FF
330
300
330
301
330
302
330
303
330
304
330
305
330
306
330
307
330
308
330
309
330
30A
330
30B
330
30C
330
30D
330
30E
330
30F
330
310
330
311
330
312
330
313
330
314
330
315
330
316
330
317
330
318
330
319
330
31A
330
31B
330
31C
330
31D
330
31E
330
31F
330
320
330
321
330
322
330
323
330
324
330
325
330
326
330
327
330
328
330
329
330
32A
330
32B
330
32C
330
32D
330
32E
330
32F
330
330
330
331
330
332
330
333
330
334
330
335
330
336
330
337
330
338
330
339
330
33A
330
33B
330
33C
330
33D
330
33E
330
33F
330
340
330
341
330
342
330
343
330
344
330
345
330
346
330
347
330
348
330
349
330
34A
330
34B
330
34C
330
34D
330
34E
330
34F
330
350
330
351
330
352
330
353
330
354
330
355
330
356
330
357
330
358
330
359
330
35A
330
35B
330
35C
330
35D
330
35E
330
35F
330
360
330
361
330
362
330
363
330
364
330
365
330
366
330
367
330
368
330
369
330
36A
330
36B
330
36C
330
36D
330
36E
330
36F
330
370
330
371
330
372
330
373
330
374
330
375
330
376
330
377
330
378
330
379
330
37A
330
37B
330
37C
330
37D
330
37E
330
37F
330
380
330
381
330
382
330
383
330
384
330
385
330
386
330
387
330
388
330
389
330
38A
330
38B
330
38C
330
38D
330
38E
330
38F
330
390
330
391
330
392
330
393
330
394
330
395
330
396
330
397
330
398
330
399
330
39A
330
39B
330
39C
330
39D
330
39E
330
39F
330
3A0
330
3A1
330
3A2
330
3A3
330
3A4
330
3A5
330
3A6
330
3A7
330
3A8
330
3A9
330
3AA
330
3AB
330
3AC
330
3AD
330
3AE
330
3AF
330
3B0
330
3B1
330
3B2
330
3B3
330
3B4
330
3B5
330
3B6
330
3B7
330
3B8
330
3B9
330
3BA
330
3BB
330
3BC
330
3BD
330
3BE
330
3BF
330
3C0
330
3C1
330
3C2
330
3C3
330
3C4
330
3C5
330
3C6
330
3C7
330
3C8
330
3C9
330
3CA
330
3CB
330
3CC
330
3CD
330
3CE
330
3CF
330
3D0
330
3D1
330
3D2
330
3D3
330
3D4
330
3D5
330
3D6
 92
1
 93
6
 72
2
 10
16.963795504
 20
2.3815504143
 40
0.0024749995
 50
179.9999571957
 51
270.0000428043
 73
1
 72
1
 10
16.9613205045
 20
2.3815504162
 11
16.9613205045
 21
2.3939254231
 72
2
 10
16.963795504
 20
2.3939254249
 40
0.0024749995
 50
89.9999571957
 51
180.0000428043
 73
1
 72
1
 10
16.9637955059
 20
2.3964004244
 11
17.0051585288
 21
2.3964004244
 72
2
 10
17.0051585288
 20
2.3877379196
 40
0.0086625048
 50
270.0
 51
90.0
 73
1
 72
1
 10
17.0051585288
 20
2.3790754148
 11
16.9637955059
 21
2.3790754148
 97
267
330
2CC
330
2CD
330
2CE
330
2CF
330
2D0
330
2D1
330
2D2
330
2D3
330
2D4
330
2D5
330
2D6
330
2D7
330
2D8
330
2D9
330
2DA
330
2DB
330
2DC
330
2DD
330
2DE
330
2DF
330
2E0
330
2E1
330
2E2
330
2E3
330
2E4
330
2E5
330
2E6
330
2E7
330
2E8
330
2E9
330
2EA
330
2EB
330
2EC
330
2ED
330
2EE
330
2EF
330
2F0
330
2F1
330
2F2
330
2F3
330
2F4
330
2F5
330
2F6
330
2F7
330
2F8
330
2F9
330
2FA
330
2FB
330
2FC
330
2FD
330
2FE
330
2FF
330
300
330
301
330
302
330
303
330
304
330
305
330
306
330
307
330
308
330
309
330
30A
330
30B
330
30C
330
30D
330
30E
330
30F
330
310
330
311
330
312
330
313
330
314
330
315
330
316
330
317
330
318
330
319
330
31A
330
31B
330
31C
330
31D
330
31E
330
31F
330
320
330
321
330
322
330
323
330
324
330
325
330
326
330
327
330
328
330
329
330
32A
330
32B
330
32C
330
32D
330
32E
330
32F
330
330
330
331
330
332
330
333
330
334
330
335
330
336
330
337
330
338
330
339
330
33A
330
33B
330
33C
330
33D
330
33E
330
33F
330
340
330
341
330
342
330
343
330
344
330
345
330
346
330
347
330
348
330
349
330
34A
330
34B
330
34C
330
34D
330
34E
330
34F
330
350
330
351
330
352
330
353
330
354
330
355
330
356
330
357
330
358
330
359
330
35A
330
35B
330
35C
330
35D
330
35E
330
35F
330
360
330
361
330
362
330
363
330
364
330
365
330
366
330
367
330
368
330
369
330
36A
330
36B
330
36C
330
36D
330
36E
330
36F
330
370
330
371
330
372
330
373
330
374
330
375
330
376
330
377
330
378
330
379
330
37A
330
37B
330
37C
330
37D
330
37E
330
37F
330
380
330
381
330
382
330
383
330
384
330
385
330
386
330
387
330
388
330
389
330
38A
330
38B
330
38C
330
38D
330
38E
330
38F
330
390
330
391
330
392
330
393
330
394
330
395
330
396
330
397
330
398
330
399
330
39A
330
39B
330
39C
330
39D
330
39E
330
39F
330
3A0
330
3A1
330
3A2
330
3A3
330
3A4
330
3A5
330
3A6
330
3A7
330
3A8
330
3A9
330
3AA
330
3AB
330
3AC
330
3AD
330
3AE
330
3AF
330
3B0
330
3B1
330
3B2
330
3B3
330
3B4
330
3B5
330
3B6
330
3B7
330
3B8
330
3B9
330
3BA
330
3BB
330
3BC
330
3BD
330
3BE
330
3BF
330
3C0
330
3C1
330
3C2
330
3C3
330
3C4
330
3C5
330
3C6
330
3C7
330
3C8
330
3C9
330
3CA
330
3CB
330
3CC
330
3CD
330
3CE
330
3CF
330
3D0
330
3D1
330
3D2
330
3D3
330
3D4
330
3D5
330
3D6
 92
1
 93
13
 72
2
 10
18.1572301659
 20
2.415180433
 40
0.0024749995
 50
179.9999571957
 51
270.0000428043
 73
1
 72
1
 10
18.1547551663
 20
2.4151804348
 11
18.1547551663
 21
2.4279054419
 72
2
 10
18.1572301659
 20
2.4279054437
 40
0.0024749995
 50
89.9999571957
 51
180.0000428043
 73
1
 72
1
 10
18.1572301677
 20
2.4303804433
 11
18.1940311881
 21
2.4303804433
 72
2
 10
18.1924863006
 20
2.4019259643
 40
0.0284963867
 50
70.3834917948
 51
86.8922743861
 73
1
 72
2
 10
18.1973459106
 20
2.4149676972
 40
0.0145814632
 50
54.6746025112
 51
71.1660573124
 73
1
 72
2
 10
18.2024754016
 20
2.4218216224
 40
0.0060275915
 50
20.9055592135
 51
56.7851676243
 73
1
 72
2
 10
18.2037759605
 20
2.4224819047
 40
0.0045795888
 50
355.6235353944
 51
18.9942678268
 73
1
 72
2
 10
18.2025691502
 20
2.4227756809
 40
0.0058087709
 50
318.8515287446
 51
353.6422345323
 73
1
 72
2
 10
18.198398534
 20
2.4260095887
 40
0.0110815393
 50
306.758405961
 51
320.4502234234
 73
1
 72
2
 10
18.1927693431
 20
2.4337504172
 40
0.0206523367
 50
289.6883413472
 51
306.4184925496
 73
1
 72
2
 10
18.1908418374
 20
2.4381440645
 40
0.0254407115
 50
270.7327484175
 51
290.441894219
 73
1
 72
1
 10
18.1911671865
 20
2.4127054335
 11
18.1572301677
 21
2.4127054335
 97
267
330
2CC
330
2CD
330
2CE
330
2CF
330
2D0
330
2D1
330
2D2
330
2D3
330
2D4
330
2D5
330
2D6
330
2D7
330
2D8
330
2D9
330
2DA
330
2DB
330
2DC
330
2DD
330
2DE
330
2DF
330
2E0
330
2E1
330
2E2
330
2E3
330
2E4
330
2E5
330
2E6
330
2E7
330
2E8
330
2E9
330
2EA
330
2EB
330
2EC
330
2ED
330
2EE
330
2EF
330
2F0
330
2F1
330
2F2
330
2F3
330
2F4
330
2F5
330
2F6
330
2F7
330
2F8
330
2F9
330
2FA
330
2FB
330
2FC
330
2FD
330
2FE
330
2FF
330
300
330
301
330
302
330
303
330
304
330
305
330
306
330
307
330
308
330
309
330
30A
330
30B
330
30C
330
30D
330
30E
330
30F
330
310
330
311
330
312
330
313
330
314
330
315
330
316
330
317
330
318
330
319
330
31A
330
31B
330
31C
330
31D
330
31E
330
31F
330
320
330
321
330
322
330
323
330
324
330
325
330
326
330
327
330
328
330
329
330
32A
330
32B
330
32C
330
32D
330
32E
330
32F
330
330
330
331
330
332
330
333
330
334
330
335
330
336
330
337
330
338
330
339
330
33A
330
33B
330
33C
330
33D
330
33E
330
33F
330
340
330
341
330
342
330
343
330
344
330
345
330
346
330
347
330
348
330
349
330
34A
330
34B
330
34C
330
34D
330
34E
330
34F
330
350
330
351
330
352
330
353
330
354
330
355
330
356
330
357
330
358
330
359
330
35A
330
35B
330
35C
330
35D
330
35E
330
35F
330
360
330
361
330
362
330
363
330
364
330
365
330
366
330
367
330
368
330
369
330
36A
330
36B
330
36C
330
36D
330
36E
330
36F
330
370
330
371
330
372
330
373
330
374
330
375
330
376
330
377
330
378
330
379
330
37A
330
37B
330
37C
330
37D
330
37E
330
37F
330
380
330
381
330
382
330
383
330
384
330
385
330
386
330
387
330
388
330
389
330
38A
330
38B
330
38C
330
38D
330
38E
330
38F
330
390
330
391
330
392
330
393
330
394
330
395
330
396
330
397
330
398
330
399
330
39A
330
39B
330
39C
330
39D
330
39E
330
39F
330
3A0
330
3A1
330
3A2
330
3A3
330
3A4
330
3A5
330
3A6
330
3A7
330
3A8
330
3A9
330
3AA
330
3AB
330
3AC
330
3AD
330
3AE
330
3AF
330
3B0
330
3B1
330
3B2
330
3B3
330
3B4
330
3B5
330
3B6
330
3B7
330
3B8
330
3B9
330
3BA
330
3BB
330
3BC
330
3BD
330
3BE
330
3BF
330
3C0
330
3C1
330
3C2
330
3C3
330
3C4
330
3C5
330
3C6
330
3C7
330
3C8
330
3C9
330
3CA
330
3CB
330
3CC
330
3CD
330
3CE
330
3CF
330
3D0
330
3D1
330
3D2
330
3D3
330
3D4
330
3D5
330
3D6
 92
1
 93
6
 72
2
 10
17.0051585288
 20
2.4217179385
 40
0.0086625048
 50
270.0
 51
90.0
 73
1
 72
1
 10
17.0051585288
 20
2.4303804433
 11
16.9637955059
 21
2.4303804433
 72
2
 10
16.963795504
 20
2.4279054437
 40
0.0024749995
 50
89.9999571957
 51
180.0000428043
 73
1
 72
1
 10
16.9613205045
 20
2.4279054419
 11
16.9613205045
 21
2.415530435
 72
2
 10
16.963795504
 20
2.4155304332
 40
0.0024749995
 50
179.9999571957
 51
270.0000428043
 73
1
 72
1
 10
16.9637955059
 20
2.4130554337
 11
17.0051585288
 21
2.4130554337
 97
267
330
2CC
330
2CD
330
2CE
330
2CF
330
2D0
330
2D1
330
2D2
330
2D3
330
2D4
330
2D5
330
2D6
330
2D7
330
2D8
330
2D9
330
2DA
330
2DB
330
2DC
330
2DD
330
2DE
330
2DF
330
2E0
330
2E1
330
2E2
330
2E3
330
2E4
330
2E5
330
2E6
330
2E7
330
2E8
330
2E9
330
2EA
330
2EB
330
2EC
330
2ED
330
2EE
330
2EF
330
2F0
330
2F1
330
2F2
330
2F3
330
2F4
330
2F5
330
2F6
330
2F7
330
2F8
330
2F9
330
2FA
330
2FB
330
2FC
330
2FD
330
2FE
330
2FF
330
300
330
301
330
302
330
303
330
304
330
305
330
306
330
307
330
308
330
309
330
30A
330
30B
330
30C
330
30D
330
30E
330
30F
330
310
330
311
330
312
330
313
330
314
330
315
330
316
330
317
330
318
330
319
330
31A
330
31B
330
31C
330
31D
330
31E
330
31F
330
320
330
321
330
322
330
323
330
324
330
325
330
326
330
327
330
328
330
329
330
32A
330
32B
330
32C
330
32D
330
32E
330
32F
330
330
330
331
330
332
330
333
330
334
330
335
330
336
330
337
330
338
330
339
330
33A
330
33B
330
33C
330
33D
330
33E
330
33F
330
340
330
341
330
342
330
343
330
344
330
345
330
346
330
347
330
348
330
349
330
34A
330
34B
330
34C
330
34D
330
34E
330
34F
330
350
330
351
330
352
330
353
330
354
330
355
330
356
330
357
330
358
330
359
330
35A
330
35B
330
35C
330
35D
330
35E
330
35F
330
360
330
361
330
362
330
363
330
364
330
365
330
366
330
367
330
368
330
369
330
36A
330
36B
330
36C
330
36D
330
36E
330
36F
330
370
330
371
330
372
330
373
330
374
330
375
330
376
330
377
330
378
330
379
330
37A
330
37B
330
37C
330
37D
330
37E
330
37F
330
380
330
381
330
382
330
383
330
384
330
385
330
386
330
387
330
388
330
389
330
38A
330
38B
330
38C
330
38D
330
38E
330
38F
330
390
330
391
330
392
330
393
330
394
330
395
330
396
330
397
330
398
330
399
330
39A
330
39B
330
39C
330
39D
330
39E
330
39F
330
3A0
330
3A1
330
3A2
330
3A3
330
3A4
330
3A5
330
3A6
330
3A7
330
3A8
330
3A9
330
3AA
330
3AB
330
3AC
330
3AD
330
3AE
330
3AF
330
3B0
330
3B1
330
3B2
330
3B3
330
3B4
330
3B5
330
3B6
330
3B7
330
3B8
330
3B9
330
3BA
330
3BB
330
3BC
330
3BD
330
3BE
330
3BF
330
3C0
330
3C1
330
3C2
330
3C3
330
3C4
330
3C5
330
3C6
330
3C7
330
3C8
330
3C9
330
3CA
330
3CB
330
3CC
330
3CD
330
3CE
330
3CF
330
3D0
330
3D1
330
3D2
330
3D3
330
3D4
330
3D5
330
3D6
 92
1
 93
8
 72
2
 10
17.2090556207
 20
2.4161446411
 40
0.0024752071
 50
270.0004896793
 51
32.9089806818
 73
1
 72
1
 10
17.211133643
 20
2.4174894361
 11
17.203874639
 21
2.4287054423
 72
2
 10
17.2017960982
 20
2.4273609828
 40
0.0024754602
 50
32.8959418573
 51
89.9875097202
 73
1
 72
1
 10
17.2017966379
 20
2.429836443
 11
17.1956156344
 21
2.429836443
 72
2
 10
17.1956155641
 20
2.4273612427
 40
0.0024752003
 50
89.998372645
 51
147.6021653069
 73
1
 72
1
 10
17.1935256333
 20
2.4286874423
 11
17.1864086293
 21
2.4174704361
 72
2
 10
17.1884985212
 20
2.4161444741
 40
0.0024750401
 50
147.6063258012
 51
270.0025305753
 73
1
 72
1
 10
17.1884986305
 20
2.413669434
 11
17.2090556419
 21
2.413669434
 97
267
330
2CC
330
2CD
330
2CE
330
2CF
330
2D0
330
2D1
330
2D2
330
2D3
330
2D4
330
2D5
330
2D6
330
2D7
330
2D8
330
2D9
330
2DA
330
2DB
330
2DC
330
2DD
330
2DE
330
2DF
330
2E0
330
2E1
330
2E2
330
2E3
330
2E4
330
2E5
330
2E6
330
2E7
330
2E8
330
2E9
330
2EA
330
2EB
330
2EC
330
2ED
330
2EE
330
2EF
330
2F0
330
2F1
330
2F2
330
2F3
330
2F4
330
2F5
330
2F6
330
2F7
330
2F8
330
2F9
330
2FA
330
2FB
330
2FC
330
2FD
330
2FE
330
2FF
330
300
330
301
330
302
330
303
330
304
330
305
330
306
330
307
330
308
330
309
330
30A
330
30B
330
30C
330
30D
330
30E
330
30F
330
310
330
311
330
312
330
313
330
314
330
315
330
316
330
317
330
318
330
319
330
31A
330
31B
330
31C
330
31D
330
31E
330
31F
330
320
330
321
330
322
330
323
330
324
330
325
330
326
330
327
330
328
330
329
330
32A
330
32B
330
32C
330
32D
330
32E
330
32F
330
330
330
331
330
332
330
333
330
334
330
335
330
336
330
337
330
338
330
339
330
33A
330
33B
330
33C
330
33D
330
33E
330
33F
330
340
330
341
330
342
330
343
330
344
330
345
330
346
330
347
330
348
330
349
330
34A
330
34B
330
34C
330
34D
330
34E
330
34F
330
350
330
351
330
352
330
353
330
354
330
355
330
356
330
357
330
358
330
359
330
35A
330
35B
330
35C
330
35D
330
35E
330
35F
330
360
330
361
330
362
330
363
330
364
330
365
330
366
330
367
330
368
330
369
330
36A
330
36B
330
36C
330
36D
330
36E
330
36F
330
370
330
371
330
372
330
373
330
374
330
375
330
376
330
377
330
378
330
379
330
37A
330
37B
330
37C
330
37D
330
37E
330
37F
330
380
330
381
330
382
330
383
330
384
330
385
330
386
330
387
330
388
330
389
330
38A
330
38B
330
38C
330
38D
330
38E
330
38F
330
390
330
391
330
392
330
393
330
394
330
395
330
396
330
397
330
398
330
399
330
39A
330
39B
330
39C
330
39D
330
39E
330
39F
330
3A0
330
3A1
330
3A2
330
3A3
330
3A4
330
3A5
330
3A6
330
3A7
330
3A8
330
3A9
330
3AA
330
3AB
330
3AC
330
3AD
330
3AE
330
3AF
330
3B0
330
3B1
330
3B2
330
3B3
330
3B4
330
3B5
330
3B6
330
3B7
330
3B8
330
3B9
330
3BA
330
3BB
330
3BC
330
3BD
330
3BE
330
3BF
330
3C0
330
3C1
330
3C2
330
3C3
330
3C4
330
3C5
330
3C6
330
3C7
330
3C8
330
3C9
330
3CA
330
3CB
330
3CC
330
3CD
330
3CE
330
3CF
330
3D0
330
3D1
330
3D2
330
3D3
330
3D4
330
3D5
330
3D6
 92
1
 93
1
 72
3
 10
17.573550844
 20
2.4034764283
 11
-0.8250004575
 21
0.0
 40
0.218572
 50
0.0
 51
360.0
 73
1
 97
267
330
2CC
330
2CD
330
2CE
330
2CF
330
2D0
330
2D1
330
2D2
330
2D3
330
2D4
330
2D5
330
2D6
330
2D7
330
2D8
330
2D9
330
2DA
330
2DB
330
2DC
330
2DD
330
2DE
330
2DF
330
2E0
330
2E1
330
2E2
330
2E3
330
2E4
330
2E5
330
2E6
330
2E7
330
2E8
330
2E9
330
2EA
330
2EB
330
2EC
330
2ED
330
2EE
330
2EF
330
2F0
330
2F1
330
2F2
330
2F3
330
2F4
330
2F5
330
2F6
330
2F7
330
2F8
330
2F9
330
2FA
330
2FB
330
2FC
330
2FD
330
2FE
330
2FF
330
300
330
301
330
302
330
303
330
304
330
305
330
306
330
307
330
308
330
309
330
30A
330
30B
330
30C
330
30D
330
30E
330
30F
330
310
330
311
330
312
330
313
330
314
330
315
330
316
330
317
330
318
330
319
330
31A
330
31B
330
31C
330
31D
330
31E
330
31F
330
320
330
321
330
322
330
323
330
324
330
325
330
326
330
327
330
328
330
329
330
32A
330
32B
330
32C
330
32D
330
32E
330
32F
330
330
330
331
330
332
330
333
330
334
330
335
330
336
330
337
330
338
330
339
330
33A
330
33B
330
33C
330
33D
330
33E
330
33F
330
340
330
341
330
342
330
343
330
344
330
345
330
346
330
347
330
348
330
349
330
34A
330
34B
330
34C
330
34D
330
34E
330
34F
330
350
330
351
330
352
330
353
330
354
330
355
330
356
330
357
330
358
330
359
330
35A
330
35B
330
35C
330
35D
330
35E
330
35F
330
360
330
361
330
362
330
363
330
364
330
365
330
366
330
367
330
368
330
369
330
36A
330
36B
330
36C
330
36D
330
36E
330
36F
330
370
330
371
330
372
330
373
330
374
330
375
330
376
330
377
330
378
330
379
330
37A
330
37B
330
37C
330
37D
330
37E
330
37F
330
380
330
381
330
382
330
383
330
384
330
385
330
386
330
387
330
388
330
389
330
38A
330
38B
330
38C
330
38D
330
38E
330
38F
330
390
330
391
330
392
330
393
330
394
330
395
330
396
330
397
330
398
330
399
330
39A
330
39B
330
39C
330
39D
330
39E
330
39F
330
3A0
330
3A1
330
3A2
330
3A3
330
3A4
330
3A5
330
3A6
330
3A7
330
3A8
330
3A9
330
3AA
330
3AB
330
3AC
330
3AD
330
3AE
330
3AF
330
3B0
330
3B1
330
3B2
330
3B3
330
3B4
330
3B5
330
3B6
330
3B7
330
3B8
330
3B9
330
3BA
330
3BB
330
3BC
330
3BD
330
3BE
330
3BF
330
3C0
330
3C1
330
3C2
330
3C3
330
3C4
330
3C5
330
3C6
330
3C7
330
3C8
330
3C9
330
3CA
330
3CB
330
3CC
330
3CD
330
3CE
330
3CF
330
3D0
330
3D1
330
3D2
330
3D3
330
3D4
330
3D5
330
3D6
 75
0
 76
1
 98
1
 10
0.0
 20
0.0
  0
LINE
  5
3D8
100
AcDbEntity
  8
0
100
AcDbLine
 62
7
  6
CONTINUOUS
 10
21.05
 20
2.67
 11
14.7
 21
2.67
  0
LINE
  5
3D9
100
AcDbEntity
  8
0
100
AcDbLine
 62
7
  6
CONTINUOUS
 10
6.007
 20
0.75
 11
6.007
 21
0.5
  0
LINE
  5
3DA
100
AcDbEntity
  8
0
100
AcDbLine
 62
7
  6
CONTINUOUS
 10
6.007
 20
15.75
 11
6.007
 21
16.0
  0
LINE
  5
3DB
100
AcDbEntity
  8
0
100
AcDbLine
 62
7
  6
CONTINUOUS
 10
0.814
 20
8.163397
 11
0.964
 21
8.25
  0
LINE
  5
3DC
100
AcDbEntity
  8
0
100
AcDbLine
 62
7
  6
CONTINUOUS
 10
0.964
 20
8.25
 11
0.814
 21
8.336603
  0
LINE
  5
3DD
100
AcDbEntity
  8
0
100
AcDbLine
 62
7
  6
CONTINUOUS
 10
0.964
 20
4.4
 11
0.714
 21
4.4
  0
LINE
  5
3DE
100
AcDbEntity
  8
0
100
AcDbLine
 62
7
  6
CONTINUOUS
 10
21.05
 20
4.4
 11
21.3
 21
4.4
  0
LINE
  5
3DF
100
AcDbEntity
  8
0
100
AcDbLine
 62
7
  6
CONTINUOUS
 10
11.093603
 20
0.6
 11
11.007
 21
0.75
  0
LINE
  5
3E0
100
AcDbEntity
  8
0
100
AcDbLine
 62
7
  6
CONTINUOUS
 10
11.007
 20
15.75
 11
11.093603
 21
15.9
  0
LINE
  5
3E1
100
AcDbEntity
  8
0
100
AcDbLine
 62
7
  6
CONTINUOUS
 10
8.507
 20
0.75
 11
8.507
 21
0.5
  0
LINE
  5
3E2
100
AcDbEntity
  8
0
100
AcDbLine
 62
7
  6
CONTINUOUS
 10
8.507
 20
15.75
 11
8.507
 21
16.0
  0
LINE
  5
3E3
100
AcDbEntity
  8
0
100
AcDbLine
 62
7
  6
CONTINUOUS
 10
11.007
 20
0.75
 11
11.007
 21
0.5
  0
LINE
  5
3E4
100
AcDbEntity
  8
0
100
AcDbLine
 62
7
  6
CONTINUOUS
 10
11.007
 20
15.75
 11
11.007
 21
16.0
  0
LINE
  5
3E5
100
AcDbEntity
  8
0
100
AcDbLine
 62
7
  6
CONTINUOUS
 10
0.964
 20
8.25
 11
0.714
 21
8.25
  0
LINE
  5
3E6
100
AcDbEntity
  8
0
100
AcDbLine
 62
7
  6
CONTINUOUS
 10
21.05
 20
8.25
 11
21.3
 21
8.25
  0
LINE
  5
3E7
100
AcDbEntity
  8
0
100
AcDbLine
 62
7
  6
CONTINUOUS
 10
13.507
 20
0.75
 11
13.507
 21
0.5
  0
LINE
  5
3E8
100
AcDbEntity
  8
0
100
AcDbLine
 62
7
  6
CONTINUOUS
 10
13.507
 20
15.75
 11
13.507
 21
16.0
  0
LINE
  5
3E9
100
AcDbEntity
  8
0
100
AcDbLine
 62
7
  6
CONTINUOUS
 10
14.7
 20
2.67
 11
14.7
 21
0.75
  0
LINE
  5
3EA
100
AcDbEntity
  8
0
100
AcDbLine
 62
7
  6
CONTINUOUS
 10
11.007
 20
0.75
 11
10.920397
 21
0.6
  0
LINE
  5
3EB
100
AcDbEntity
  8
0
100
AcDbLine
 62
7
  6
CONTINUOUS
 10
0.964
 20
12.1
 11
0.714
 21
12.1
  0
LINE
  5
3EC
100
AcDbEntity
  8
0
100
AcDbLine
 62
7
  6
CONTINUOUS
 10
21.05
 20
12.1
 11
21.3
 21
12.1
  0
LINE
  5
3ED
100
AcDbEntity
  8
0
100
AcDbLine
 62
7
  6
CONTINUOUS
 10
10.920397
 20
15.9
 11
11.007
 21
15.75
  0
LINE
  5
3EE
100
AcDbEntity
  8
0
100
AcDbLine
 62
7
  6
CONTINUOUS
 10
15.2229827477
 20
1.0139932523
 11
15.2229827477
 21
0.7919022523
  0
LINE
  5
3EF
100
AcDbEntity
  8
0
100
AcDbLine
 62
7
  6
CONTINUOUS
 10
15.2229827477
 20
1.0639932523
 11
15.2229827477
 21
1.1639932523
  0
LINE
  5
3F0
100
AcDbEntity
  8
0
100
AcDbLine
 62
7
  6
CONTINUOUS
 10
15.2229827477
 20
1.2139932523
 11
15.2229827477
 21
1.4360842523
  0
LINE
  5
3F1
100
AcDbEntity
  8
0
100
AcDbLine
 62
7
  6
CONTINUOUS
 10
15.8276527477
 20
0.9312952523
 11
15.8276527477
 21
1.2966912523
  0
LINE
  5
3F2
100
AcDbEntity
  8
0
100
AcDbLine
 62
7
  6
CONTINUOUS
 10
16.007
 20
0.75
 11
16.007
 21
0.5
  0
LINE
  5
3F3
100
AcDbEntity
  8
0
100
AcDbLine
 62
7
  6
CONTINUOUS
 10
16.007
 20
15.75
 11
16.007
 21
16.0
  0
LINE
  5
3F4
100
AcDbEntity
  8
0
100
AcDbLine
 62
7
  6
CONTINUOUS
 10
16.4340437477
 20
1.3660842523
 11
16.4340437477
 21
0.8619022523
  0
LINE
  5
3F5
100
AcDbEntity
  8
0
100
AcDbLine
 62
7
  6
CONTINUOUS
 10
21.2
 20
8.336603
 11
21.05
 21
8.25
  0
LINE
  5
3F6
100
AcDbEntity
  8
0
100
AcDbLine
 62
7
  6
CONTINUOUS
 10
21.05
 20
8.25
 11
21.2
 21
8.163397
  0
LINE
  5
3F7
100
AcDbEntity
  8
0
100
AcDbLine
 62
7
  6
CONTINUOUS
 10
16.7
 20
2.67
 11
16.7
 21
0.75
  0
LINE
  5
3F8
100
AcDbEntity
  8
0
100
AcDbLine
 62
7
  6
CONTINUOUS
 10
17.5
 20
1.37
 11
17.5
 21
1.0
  0
LINE
  5
3F9
100
AcDbEntity
  8
0
100
AcDbLine
 62
7
  6
CONTINUOUS
 10
18.507
 20
0.75
 11
18.507
 21
0.5
  0
LINE
  5
3FA
100
AcDbEntity
  8
0
100
AcDbLine
 62
7
  6
CONTINUOUS
 10
18.507
 20
15.75
 11
18.507
 21
16.0
  0
LINE
  5
3FB
100
AcDbEntity
  8
0
100
AcDbLine
 62
7
  6
CONTINUOUS
 10
21.05
 20
15.75
 11
0.964
 21
15.75
  0
LINE
  5
3FC
100
AcDbEntity
  8
0
100
AcDbLine
 62
7
  6
CONTINUOUS
 10
11.093603
 20
15.9
 11
10.920397
 21
15.9
  0
LINE
  5
3FD
100
AcDbEntity
  8
0
100
AcDbLine
 62
7
  6
CONTINUOUS
 10
18.875
 20
1.0
 11
18.875
 21
0.75
  0
LINE
  5
3FE
100
AcDbEntity
  8
0
100
AcDbLine
 62
7
  6
CONTINUOUS
 10
20.25
 20
1.37
 11
20.25
 21
1.0
  0
LINE
  5
3FF
100
AcDbEntity
  8
0
100
AcDbLine
 62
7
  6
CONTINUOUS
 10
21.05
 20
0.75
 11
21.05
 21
15.75
  0
LINE
  5
400
100
AcDbEntity
  8
0
100
AcDbLine
 62
7
  6
CONTINUOUS
 10
21.2
 20
8.163397
 11
21.2
 21
8.336603
  0
LINE
  5
401
100
AcDbEntity
  8
SURFACE
100
AcDbLine
 62
7
  6
CONTINUOUS
 10
2.7498422875
 20
7.8836301243
 11
2.7498422875
 21
8.7786301243
  0
LINE
  5
402
100
AcDbEntity
  8
SURFACE
100
AcDbLine
 62
7
  6
CONTINUOUS
 10
2.7978422875
 20
7.8836301243
 11
2.7978422875
 21
7.8916301243
  0
LINE
  5
403
100
AcDbEntity
  8
SURFACE
100
AcDbLine
 62
7
  6
CONTINUOUS
 10
2.8398422875
 20
7.8916301243
 11
2.8398422875
 21
7.7936301243
  0
LINE
  5
404
100
AcDbEntity
  8
SURFACE
100
AcDbLine
 62
7
  6
CONTINUOUS
 10
2.8398422875
 20
7.7936301243
 11
7.0058422875
 21
7.7936301243
  0
LINE
  5
405
100
AcDbEntity
  8
SURFACE
100
AcDbLine
 62
7
  6
CONTINUOUS
 10
2.8398422875
 20
7.8776301243
 11
7.0058422875
 21
7.8776301243
  0
LINE
  5
406
100
AcDbEntity
  8
SURFACE
100
AcDbLine
 62
7
  6
CONTINUOUS
 10
2.7978422875
 20
7.8836301243
 11
2.7498422875
 21
7.8836301243
  0
LINE
  5
407
100
AcDbEntity
  8
SURFACE
100
AcDbLine
 62
7
  6
CONTINUOUS
 10
7.0478422875
 20
7.8836301243
 11
7.0958422875
 21
7.8836301243
  0
LINE
  5
408
100
AcDbEntity
  8
SURFACE
100
AcDbLine
 62
7
  6
CONTINUOUS
 10
2.7498422875
 20
7.8916301243
 11
2.8398422875
 21
7.8916301243
  0
LINE
  5
409
100
AcDbEntity
  8
SURFACE
100
AcDbLine
 62
7
  6
CONTINUOUS
 10
7.0058422875
 20
7.8916301243
 11
7.0958422875
 21
7.8916301243
  0
LINE
  5
40A
100
AcDbEntity
  8
AXIS_COSMETIC_THREADS
100
AcDbLine
 62
7
  6
CONTINUOUS
 10
7.1228422875
 20
8.0336301243
 11
7.1138422875
 21
8.0336301243
  0
LINE
  5
40B
100
AcDbEntity
  8
SURFACE
100
AcDbLine
 62
7
  6
CONTINUOUS
 10
7.0058422875
 20
7.7936301243
 11
7.0058422875
 21
7.8916301243
  0
LINE
  5
40C
100
AcDbEntity
  8
AXIS_COSMETIC_THREADS
100
AcDbLine
 62
7
  6
CONTINUOUS
 10
7.1138422875
 20
8.0986301243
 11
7.0958422875
 21
8.0986301243
  0
LINE
  5
40D
100
AcDbEntity
  8
02___PRT_ALL_AXES
100
AcDbLine
 62
7
  6
CONTINUOUS
 10
7.1828422875
 20
8.1706379983
 11
9.6953777206
 21
8.1706379983
  0
LINE
  5
40E
100
AcDbEntity
  8
02___PRT_ALL_AXES
100
AcDbLine
 62
7
  6
CONTINUOUS
 10
9.6953777206
 20
8.1944568959
 11
10.9552202403
 21
8.1944568959
  0
LINE
  5
40F
100
AcDbEntity
  8
02___PRT_ALL_AXES
100
AcDbLine
 62
7
  6
CONTINUOUS
 10
10.9552202403
 20
8.2039450849
 11
11.1914407127
 21
8.2039450849
  0
LINE
  5
410
100
AcDbEntity
  8
02___PRT_ALL_AXES
100
AcDbLine
 62
7
  6
CONTINUOUS
 10
10.9552202403
 20
8.2239450849
 11
11.1914407127
 21
8.2239450849
  0
LINE
  5
411
100
AcDbEntity
  8
02___PRT_ALL_AXES
100
AcDbLine
 62
7
  6
CONTINUOUS
 10
9.6953777206
 20
8.2334332739
 11
10.9552202403
 21
8.2334332739
  0
LINE
  5
412
100
AcDbEntity
  8
02___PRT_ALL_AXES
100
AcDbLine
 62
7
  6
CONTINUOUS
 10
9.6953777206
 20
8.2338269747
 11
10.9552202403
 21
8.2338269747
  0
LINE
  5
413
100
AcDbEntity
  8
02___PRT_ALL_AXES
100
AcDbLine
 62
7
  6
CONTINUOUS
 10
10.9552202403
 20
8.2433151636
 11
11.1914407127
 21
8.2433151636
  0
LINE
  5
414
100
AcDbEntity
  8
02___PRT_ALL_AXES
100
AcDbLine
 62
7
  6
CONTINUOUS
 10
10.9552202403
 20
8.2633151636
 11
11.1914407127
 21
8.2633151636
  0
LINE
  5
415
100
AcDbEntity
  8
02___PRT_ALL_AXES
100
AcDbLine
 62
7
  6
CONTINUOUS
 10
9.6953777206
 20
8.2728033526
 11
10.9552202403
 21
8.2728033526
  0
LINE
  5
416
100
AcDbEntity
  8
02___PRT_ALL_AXES
100
AcDbLine
 62
7
  6
CONTINUOUS
 10
7.1828422875
 20
8.2966222503
 11
9.6953777206
 21
8.2966222503
  0
LINE
  5
417
100
AcDbEntity
  8
SURFACE
100
AcDbLine
 62
7
  6
CONTINUOUS
 10
7.0478422875
 20
7.8916301243
 11
7.0478422875
 21
7.8836301243
  0
LINE
  5
418
100
AcDbEntity
  8
SURFACE
100
AcDbLine
 62
7
  6
CONTINUOUS
 10
7.0958422875
 20
7.8836301243
 11
7.0958422875
 21
8.7786301243
  0
LINE
  5
419
100
AcDbEntity
  8
AXIS_COSMETIC_THREADS
100
AcDbLine
 62
7
  6
CONTINUOUS
 10
7.1138422875
 20
8.4336301243
 11
7.1138422875
 21
8.0336301243
  0
LINE
  5
41A
100
AcDbEntity
  8
AXIS_COSMETIC_THREADS
100
AcDbLine
 62
7
  6
CONTINUOUS
 10
7.1228422875
 20
8.4336301243
 11
7.1228422875
 21
8.0336301243
  0
LINE
  5
41B
100
AcDbEntity
  8
AXIS_COSMETIC_THREADS
100
AcDbLine
 62
7
  6
CONTINUOUS
 10
7.1828422875
 20
8.3736301243
 11
7.1828422875
 21
8.0936301243
  0
LINE
  5
41C
100
AcDbEntity
  8
AXIS_COSMETIC_THREADS
100
AcDbLine
 62
7
  6
CONTINUOUS
 10
7.1138422875
 20
8.3686301243
 11
7.0958422875
 21
8.3686301243
  0
LINE
  5
41D
100
AcDbEntity
  8
AXIS_COSMETIC_THREADS
100
AcDbLine
 62
7
  6
CONTINUOUS
 10
7.1228422875
 20
8.4336301243
 11
7.1138422875
 21
8.4336301243
  0
LINE
  5
41E
100
AcDbEntity
  8
SURFACE
100
AcDbLine
 62
7
  6
CONTINUOUS
 10
7.0958422875
 20
8.7786301243
 11
2.7498422875
 21
8.7786301243
  0
LINE
  5
41F
100
AcDbEntity
  8
02___PRT_ALL_AXES
100
AcDbLine
 62
7
  6
CONTINUOUS
 10
9.6953777206
 20
8.2966222503
 11
9.6953777206
 21
8.1706379983
  0
LINE
  5
420
100
AcDbEntity
  8
02___PRT_ALL_AXES
100
AcDbLine
 62
7
  6
CONTINUOUS
 10
10.9552202403
 20
8.2727851305
 11
10.9552202403
 21
8.194475118
  0
LINE
  5
421
100
AcDbEntity
  8
02___PRT_ALL_AXES
100
AcDbLine
 62
7
  6
CONTINUOUS
 10
11.1914407127
 20
8.2633151636
 11
11.1914407127
 21
8.2433151636
  0
LINE
  5
422
100
AcDbEntity
  8
02___PRT_ALL_AXES
100
AcDbLine
 62
7
  6
CONTINUOUS
 10
11.1914407127
 20
8.2239450849
 11
11.1914407127
 21
8.2039450849
  0
LINE
  5
423
100
AcDbEntity
  8
SURFACE
100
AcDbLine
 62
7
  6
CONTINUOUS
 10
2.7498422875
 20
10.4829830304
 11
2.7498422875
 21
14.1289830304
  0
LINE
  5
424
100
AcDbEntity
  8
SURFACE
100
AcDbLine
 62
7
  6
CONTINUOUS
 10
2.7978422875
 20
10.5309830304
 11
2.7978422875
 21
14.0809830304
  0
LINE
  5
425
100
AcDbEntity
  8
0
100
AcDbLine
 62
7
  6
CONTINUOUS
 10
2.8228422875
 20
14.0559830304
 11
2.8228422875
 21
10.5559830304
  0
LINE
  5
426
100
AcDbEntity
  8
SURFACE
100
AcDbLine
 62
7
  6
CONTINUOUS
 10
2.8398422875
 20
14.0809830304
 11
2.8398422875
 21
14.0559830304
  0
LINE
  5
427
100
AcDbEntity
  8
SURFACE
100
AcDbLine
 62
7
  6
CONTINUOUS
 10
2.8398422875
 20
10.5309830304
 11
2.8398422875
 21
10.5559830304
  0
LINE
  5
428
100
AcDbEntity
  8
0
100
AcDbLine
 62
7
  6
CONTINUOUS
 10
3.2978422875
 20
10.7159830304
 11
3.2978422875
 21
10.7459830304
  0
LINE
  5
429
100
AcDbEntity
  8
0
100
AcDbLine
 62
7
  6
CONTINUOUS
 10
3.2978422875
 20
13.8659830304
 11
3.2978422875
 21
13.8959830304
  0
LINE
  5
42A
100
AcDbEntity
  8
0
100
AcDbLine
 62
7
  6
CONTINUOUS
 10
3.3328422875
 20
10.6809830304
 11
3.3328422875
 21
10.7159830304
  0
LINE
  5
42B
100
AcDbEntity
  8
0
100
AcDbLine
 62
7
  6
CONTINUOUS
 10
3.3328422875
 20
10.7459830304
 11
3.3328422875
 21
10.7809830304
  0
LINE
  5
42C
100
AcDbEntity
  8
0
100
AcDbLine
 62
7
  6
CONTINUOUS
 10
3.3328422875
 20
13.8309830304
 11
3.3328422875
 21
13.8659830304
  0
LINE
  5
42D
100
AcDbEntity
  8
0
100
AcDbLine
 62
7
  6
CONTINUOUS
 10
3.3328422875
 20
13.8959830304
 11
3.3328422875
 21
13.9309830304
  0
LINE
  5
42E
100
AcDbEntity
  8
0
100
AcDbLine
 62
7
  6
CONTINUOUS
 10
3.3628422875
 20
13.9309830304
 11
3.3628422875
 21
13.8959830304
  0
LINE
  5
42F
100
AcDbEntity
  8
0
100
AcDbLine
 62
7
  6
CONTINUOUS
 10
3.3628422875
 20
13.8659830304
 11
3.3628422875
 21
13.8309830304
  0
LINE
  5
430
100
AcDbEntity
  8
0
100
AcDbLine
 62
7
  6
CONTINUOUS
 10
3.3628422875
 20
10.7809830304
 11
3.3628422875
 21
10.7459830304
  0
LINE
  5
431
100
AcDbEntity
  8
0
100
AcDbLine
 62
7
  6
CONTINUOUS
 10
3.3628422875
 20
10.7159830304
 11
3.3628422875
 21
10.6809830304
  0
LINE
  5
432
100
AcDbEntity
  8
0
100
AcDbLine
 62
7
  6
CONTINUOUS
 10
3.3978422875
 20
13.8959830304
 11
3.3978422875
 21
13.8659830304
  0
LINE
  5
433
100
AcDbEntity
  8
0
100
AcDbLine
 62
7
  6
CONTINUOUS
 10
3.3978422875
 20
10.7459830304
 11
3.3978422875
 21
10.7159830304
  0
LINE
  5
434
100
AcDbEntity
  8
SURFACE
100
AcDbLine
 62
7
  6
CONTINUOUS
 10
7.0958422875
 20
10.4829830304
 11
2.7498422875
 21
10.4829830304
  0
LINE
  5
435
100
AcDbEntity
  8
SURFACE
100
AcDbLine
 62
7
  6
CONTINUOUS
 10
7.0958422875
 20
10.5309830304
 11
2.7498422875
 21
10.5309830304
  0
LINE
  5
436
100
AcDbEntity
  8
0
100
AcDbLine
 62
7
  6
CONTINUOUS
 10
2.8228422875
 20
10.5559830304
 11
7.0228422875
 21
10.5559830304
  0
LINE
  5
437
100
AcDbEntity
  8
0
100
AcDbLine
 62
7
  6
CONTINUOUS
 10
6.5128422875
 20
10.6809830304
 11
6.4828422875
 21
10.6809830304
  0
LINE
  5
438
100
AcDbEntity
  8
0
100
AcDbLine
 62
7
  6
CONTINUOUS
 10
3.3628422875
 20
10.6809830304
 11
3.3328422875
 21
10.6809830304
  0
LINE
  5
439
100
AcDbEntity
  8
0
100
AcDbLine
 62
7
  6
CONTINUOUS
 10
6.5478422875
 20
10.7159830304
 11
6.5128422875
 21
10.7159830304
  0
LINE
  5
43A
100
AcDbEntity
  8
0
100
AcDbLine
 62
7
  6
CONTINUOUS
 10
6.4828422875
 20
10.7159830304
 11
6.4478422875
 21
10.7159830304
  0
LINE
  5
43B
100
AcDbEntity
  8
0
100
AcDbLine
 62
7
  6
CONTINUOUS
 10
3.3978422875
 20
10.7159830304
 11
3.3628422875
 21
10.7159830304
  0
LINE
  5
43C
100
AcDbEntity
  8
0
100
AcDbLine
 62
7
  6
CONTINUOUS
 10
3.3328422875
 20
10.7159830304
 11
3.2978422875
 21
10.7159830304
  0
LINE
  5
43D
100
AcDbEntity
  8
0
100
AcDbLine
 62
7
  6
CONTINUOUS
 10
3.2978422875
 20
10.7459830304
 11
3.3328422875
 21
10.7459830304
  0
LINE
  5
43E
100
AcDbEntity
  8
0
100
AcDbLine
 62
7
  6
CONTINUOUS
 10
3.3628422875
 20
10.7459830304
 11
3.3978422875
 21
10.7459830304
  0
LINE
  5
43F
100
AcDbEntity
  8
0
100
AcDbLine
 62
7
  6
CONTINUOUS
 10
6.4478422875
 20
10.7459830304
 11
6.4828422875
 21
10.7459830304
  0
LINE
  5
440
100
AcDbEntity
  8
0
100
AcDbLine
 62
7
  6
CONTINUOUS
 10
6.5128422875
 20
10.7459830304
 11
6.5478422875
 21
10.7459830304
  0
LINE
  5
441
100
AcDbEntity
  8
0
100
AcDbLine
 62
7
  6
CONTINUOUS
 10
3.3328422875
 20
10.7809830304
 11
3.3628422875
 21
10.7809830304
  0
LINE
  5
442
100
AcDbEntity
  8
0
100
AcDbLine
 62
7
  6
CONTINUOUS
 10
6.4828422875
 20
10.7809830304
 11
6.5128422875
 21
10.7809830304
  0
LINE
  5
443
100
AcDbEntity
  8
0
100
AcDbLine
 62
7
  6
CONTINUOUS
 10
6.4478422875
 20
10.7159830304
 11
6.4478422875
 21
10.7459830304
  0
LINE
  5
444
100
AcDbEntity
  8
0
100
AcDbLine
 62
7
  6
CONTINUOUS
 10
6.4478422875
 20
13.8659830304
 11
6.4478422875
 21
13.8959830304
  0
LINE
  5
445
100
AcDbEntity
  8
0
100
AcDbLine
 62
7
  6
CONTINUOUS
 10
6.4828422875
 20
10.6809830304
 11
6.4828422875
 21
10.7159830304
  0
LINE
  5
446
100
AcDbEntity
  8
0
100
AcDbLine
 62
7
  6
CONTINUOUS
 10
6.4828422875
 20
10.7459830304
 11
6.4828422875
 21
10.7809830304
  0
LINE
  5
447
100
AcDbEntity
  8
0
100
AcDbLine
 62
7
  6
CONTINUOUS
 10
6.4828422875
 20
13.8309830304
 11
6.4828422875
 21
13.8659830304
  0
LINE
  5
448
100
AcDbEntity
  8
0
100
AcDbLine
 62
7
  6
CONTINUOUS
 10
6.4828422875
 20
13.8959830304
 11
6.4828422875
 21
13.9309830304
  0
LINE
  5
449
100
AcDbEntity
  8
0
100
AcDbLine
 62
7
  6
CONTINUOUS
 10
6.5128422875
 20
13.9309830304
 11
6.5128422875
 21
13.8959830304
  0
LINE
  5
44A
100
AcDbEntity
  8
0
100
AcDbLine
 62
7
  6
CONTINUOUS
 10
6.5128422875
 20
13.8659830304
 11
6.5128422875
 21
13.8309830304
  0
LINE
  5
44B
100
AcDbEntity
  8
0
100
AcDbLine
 62
7
  6
CONTINUOUS
 10
6.5128422875
 20
10.7809830304
 11
6.5128422875
 21
10.7459830304
  0
LINE
  5
44C
100
AcDbEntity
  8
0
100
AcDbLine
 62
7
  6
CONTINUOUS
 10
6.5128422875
 20
10.7159830304
 11
6.5128422875
 21
10.6809830304
  0
LINE
  5
44D
100
AcDbEntity
  8
0
100
AcDbLine
 62
7
  6
CONTINUOUS
 10
6.5478422875
 20
13.8959830304
 11
6.5478422875
 21
13.8659830304
  0
LINE
  5
44E
100
AcDbEntity
  8
0
100
AcDbLine
 62
7
  6
CONTINUOUS
 10
6.5478422875
 20
10.7459830304
 11
6.5478422875
 21
10.7159830304
  0
LINE
  5
44F
100
AcDbEntity
  8
SURFACE
100
AcDbLine
 62
7
  6
CONTINUOUS
 10
7.0058422875
 20
14.0809830304
 11
7.0058422875
 21
14.0559830304
  0
LINE
  5
450
100
AcDbEntity
  8
SURFACE
100
AcDbLine
 62
7
  6
CONTINUOUS
 10
7.0058422875
 20
10.5309830304
 11
7.0058422875
 21
10.5559830304
  0
LINE
  5
451
100
AcDbEntity
  8
AXIS_COSMETIC_THREADS
100
AcDbLine
 62
7
  6
CONTINUOUS
 10
7.1228422875
 20
12.1059830304
 11
7.1138422875
 21
12.1059830304
  0
LINE
  5
452
100
AcDbEntity
  8
AXIS_COSMETIC_THREADS
100
AcDbLine
 62
7
  6
CONTINUOUS
 10
7.0478422875
 20
12.1059830304
 11
7.0388422875
 21
12.1059830304
  0
LINE
  5
453
100
AcDbEntity
  8
AXIS_COSMETIC_THREADS
100
AcDbLine
 62
7
  6
CONTINUOUS
 10
7.1138422875
 20
12.1709830304
 11
7.0958422875
 21
12.1709830304
  0
LINE
  5
454
100
AcDbEntity
  8
02___PRT_ALL_AXES
100
AcDbLine
 62
7
  6
CONTINUOUS
 10
7.1828422875
 20
12.2429909044
 11
9.6953777206
 21
12.2429909044
  0
LINE
  5
455
100
AcDbEntity
  8
02___PRT_ALL_AXES
100
AcDbLine
 62
7
  6
CONTINUOUS
 10
9.6953777206
 20
12.2864948414
 11
10.9552202403
 21
12.2864948414
  0
LINE
  5
456
100
AcDbEntity
  8
02___PRT_ALL_AXES
100
AcDbLine
 62
7
  6
CONTINUOUS
 10
11.1914407127
 20
12.2959830304
 11
10.9552202403
 21
12.2959830304
  0
LINE
  5
457
100
AcDbEntity
  8
02___PRT_ALL_AXES
100
AcDbLine
 62
7
  6
CONTINUOUS
 10
11.1914407127
 20
12.3159830304
 11
10.9552202403
 21
12.3159830304
  0
LINE
  5
458
100
AcDbEntity
  8
02___PRT_ALL_AXES
100
AcDbLine
 62
7
  6
CONTINUOUS
 10
9.6953777206
 20
12.3254712194
 11
10.9552202403
 21
12.3254712194
  0
LINE
  5
459
100
AcDbEntity
  8
0
100
AcDbLine
 62
7
  6
CONTINUOUS
 10
7.0228422875
 20
10.5559830304
 11
7.0228422875
 21
14.0559830304
  0
LINE
  5
45A
100
AcDbEntity
  8
AXIS_COSMETIC_THREADS
100
AcDbLine
 62
7
  6
CONTINUOUS
 10
7.0388422875
 20
12.1059830304
 11
7.0388422875
 21
12.5059830304
  0
LINE
  5
45B
100
AcDbEntity
  8
SURFACE
100
AcDbLine
 62
7
  6
CONTINUOUS
 10
7.0478422875
 20
14.0809830304
 11
7.0478422875
 21
10.5309830304
  0
LINE
  5
45C
100
AcDbEntity
  8
SURFACE
100
AcDbLine
 62
7
  6
CONTINUOUS
 10
7.0958422875
 20
10.4829830304
 11
7.0958422875
 21
14.1289830304
  0
LINE
  5
45D
100
AcDbEntity
  8
AXIS_COSMETIC_THREADS
100
AcDbLine
 62
7
  6
CONTINUOUS
 10
7.1138422875
 20
12.1059836754
 11
7.1138422875
 21
12.5059823855
  0
LINE
  5
45E
100
AcDbEntity
  8
AXIS_COSMETIC_THREADS
100
AcDbLine
 62
7
  6
CONTINUOUS
 10
7.1228422875
 20
12.1059830304
 11
7.1228422875
 21
12.5059830304
  0
LINE
  5
45F
100
AcDbEntity
  8
AXIS_COSMETIC_THREADS
100
AcDbLine
 62
7
  6
CONTINUOUS
 10
7.1828422875
 20
12.1659830304
 11
7.1828422875
 21
12.4459830304
  0
LINE
  5
460
100
AcDbEntity
  8
02___PRT_ALL_AXES
100
AcDbLine
 62
7
  6
CONTINUOUS
 10
7.1828422875
 20
12.3689751564
 11
9.6953777206
 21
12.3689751564
  0
LINE
  5
461
100
AcDbEntity
  8
AXIS_COSMETIC_THREADS
100
AcDbLine
 62
7
  6
CONTINUOUS
 10
7.1138422875
 20
12.4409830304
 11
7.0958422875
 21
12.4409830304
  0
LINE
  5
462
100
AcDbEntity
  8
AXIS_COSMETIC_THREADS
100
AcDbLine
 62
7
  6
CONTINUOUS
 10
7.1228422875
 20
12.5059830304
 11
7.1138422875
 21
12.5059830304
  0
LINE
  5
463
100
AcDbEntity
  8
AXIS_COSMETIC_THREADS
100
AcDbLine
 62
7
  6
CONTINUOUS
 10
7.0478422875
 20
12.5059830304
 11
7.0388422875
 21
12.5059830304
  0
LINE
  5
464
100
AcDbEntity
  8
0
100
AcDbLine
 62
7
  6
CONTINUOUS
 10
6.5128422875
 20
13.8309830304
 11
6.4828422875
 21
13.8309830304
  0
LINE
  5
465
100
AcDbEntity
  8
0
100
AcDbLine
 62
7
  6
CONTINUOUS
 10
3.3628422875
 20
13.8309830304
 11
3.3328422875
 21
13.8309830304
  0
LINE
  5
466
100
AcDbEntity
  8
0
100
AcDbLine
 62
7
  6
CONTINUOUS
 10
6.5478422875
 20
13.8659830304
 11
6.5128422875
 21
13.8659830304
  0
LINE
  5
467
100
AcDbEntity
  8
0
100
AcDbLine
 62
7
  6
CONTINUOUS
 10
6.4828422875
 20
13.8659830304
 11
6.4478422875
 21
13.8659830304
  0
LINE
  5
468
100
AcDbEntity
  8
0
100
AcDbLine
 62
7
  6
CONTINUOUS
 10
3.3978422875
 20
13.8659830304
 11
3.3628422875
 21
13.8659830304
  0
LINE
  5
469
100
AcDbEntity
  8
0
100
AcDbLine
 62
7
  6
CONTINUOUS
 10
3.3328422875
 20
13.8659830304
 11
3.2978422875
 21
13.8659830304
  0
LINE
  5
46A
100
AcDbEntity
  8
0
100
AcDbLine
 62
7
  6
CONTINUOUS
 10
3.2978422875
 20
13.8959830304
 11
3.3328422875
 21
13.8959830304
  0
LINE
  5
46B
100
AcDbEntity
  8
0
100
AcDbLine
 62
7
  6
CONTINUOUS
 10
3.3628422875
 20
13.8959830304
 11
3.3978422875
 21
13.8959830304
  0
LINE
  5
46C
100
AcDbEntity
  8
0
100
AcDbLine
 62
7
  6
CONTINUOUS
 10
6.4478422875
 20
13.8959830304
 11
6.4828422875
 21
13.8959830304
  0
LINE
  5
46D
100
AcDbEntity
  8
0
100
AcDbLine
 62
7
  6
CONTINUOUS
 10
6.5128422875
 20
13.8959830304
 11
6.5478422875
 21
13.8959830304
  0
LINE
  5
46E
100
AcDbEntity
  8
0
100
AcDbLine
 62
7
  6
CONTINUOUS
 10
3.3328422875
 20
13.9309830304
 11
3.3628422875
 21
13.9309830304
  0
LINE
  5
46F
100
AcDbEntity
  8
0
100
AcDbLine
 62
7
  6
CONTINUOUS
 10
6.4828422875
 20
13.9309830304
 11
6.5128422875
 21
13.9309830304
  0
LINE
  5
470
100
AcDbEntity
  8
0
100
AcDbLine
 62
7
  6
CONTINUOUS
 10
7.0228422875
 20
14.0559830304
 11
2.8228422875
 21
14.0559830304
  0
LINE
  5
471
100
AcDbEntity
  8
SURFACE
100
AcDbLine
 62
7
  6
CONTINUOUS
 10
2.7498422875
 20
14.0809830304
 11
7.0958422875
 21
14.0809830304
  0
LINE
  5
472
100
AcDbEntity
  8
SURFACE
100
AcDbLine
 62
7
  6
CONTINUOUS
 10
2.7498422875
 20
14.1289830304
 11
7.0958422875
 21
14.1289830304
  0
LINE
  5
473
100
AcDbEntity
  8
02___PRT_ALL_AXES
100
AcDbLine
 62
7
  6
CONTINUOUS
 10
9.6953777206
 20
12.3689751564
 11
9.6953777206
 21
12.2429909044
  0
LINE
  5
474
100
AcDbEntity
  8
02___PRT_ALL_AXES
100
AcDbLine
 62
7
  6
CONTINUOUS
 10
10.9552202403
 20
12.3254712194
 11
10.9552202403
 21
12.2864948414
  0
LINE
  5
475
100
AcDbEntity
  8
02___PRT_ALL_AXES
100
AcDbLine
 62
7
  6
CONTINUOUS
 10
11.1914407127
 20
12.3159830304
 11
11.1914407127
 21
12.2959830304
  0
LINE
  5
476
100
AcDbEntity
  8
SURFACE
100
AcDbLine
 62
7
  6
CONTINUOUS
 10
2.7498422875
 20
2.6442698634
 11
2.7498422875
 21
6.2902698634
  0
LINE
  5
477
100
AcDbEntity
  8
SURFACE
100
AcDbLine
 62
7
  6
CONTINUOUS
 10
2.8398422875
 20
2.6442698634
 11
2.8398422875
 21
2.7282698634
  0
LINE
  5
478
100
AcDbEntity
  8
SURFACE
100
AcDbLine
 62
7
  6
CONTINUOUS
 10
2.8398422875
 20
2.7282698634
 11
2.8398422875
 21
6.2062698634
  0
LINE
  5
479
100
AcDbEntity
  8
SURFACE
100
AcDbLine
 62
7
  6
CONTINUOUS
 10
2.8398422875
 20
6.2062698634
 11
2.8398422875
 21
6.2902698634
  0
LINE
  5
47A
100
AcDbEntity
  8
AXIS_COSMETIC_THREADS
100
AcDbLine
 62
7
  6
CENTER
 10
3.0728422875
 20
5.6672698634
 11
3.0728422875
 21
3.4268861987
  0
LINE
  5
47B
100
AcDbEntity
  8
AXIS_COSMETIC_THREADS
100
AcDbLine
 62
7
  6
CENTER
 10
3.0728422875
 20
3.2672698634
 11
3.0728422875
 21
3.0107738004
  0
LINE
  5
47C
100
AcDbEntity
  8
AXIS_COSMETIC_THREADS
100
AcDbLine
 62
7
  6
CENTER
 10
3.0728422875
 20
3.2672698634
 11
3.0728422875
 21
3.4268861987
  0
LINE
  5
47D
100
AcDbEntity
  8
AXIS_COSMETIC_THREADS
100
AcDbLine
 62
7
  6
CENTER
 10
3.0728422875
 20
5.6672698634
 11
3.0728422875
 21
5.9237659264
  0
LINE
  5
47E
100
AcDbEntity
  8
SURFACE
100
AcDbLine
 62
7
  6
CONTINUOUS
 10
7.0958422875
 20
2.6442698634
 11
2.7498422875
 21
2.6442698634
  0
LINE
  5
47F
100
AcDbEntity
  8
SURFACE
100
AcDbLine
 62
7
  6
CONTINUOUS
 10
7.0958422875
 20
2.6922698634
 11
7.0058422875
 21
2.6922698634
  0
LINE
  5
480
100
AcDbEntity
  8
SURFACE
100
AcDbLine
 62
7
  6
CONTINUOUS
 10
2.7498422875
 20
2.6922698634
 11
2.8398422875
 21
2.6922698634
  0
LINE
  5
481
100
AcDbEntity
  8
SURFACE
100
AcDbLine
 62
7
  6
CONTINUOUS
 10
7.0058422875
 20
2.7282698634
 11
2.8398422875
 21
2.7282698634
  0
LINE
  5
482
100
AcDbEntity
  8
AXIS_COSMETIC_THREADS
100
AcDbLine
 62
7
  6
CENTER
 10
6.7728422875
 20
3.2672698634
 11
3.3162729884
 21
3.2672698634
  0
LINE
  5
483
100
AcDbEntity
  8
AXIS_COSMETIC_THREADS
100
AcDbLine
 62
7
  6
CENTER
 10
3.0728422875
 20
3.2672698634
 11
2.8163462245
 21
3.2672698634
  0
LINE
  5
484
100
AcDbEntity
  8
AXIS_COSMETIC_THREADS
100
AcDbLine
 62
7
  6
CENTER
 10
3.0728422875
 20
3.2672698634
 11
3.3162729884
 21
3.2672698634
  0
LINE
  5
485
100
AcDbEntity
  8
AXIS_COSMETIC_THREADS
100
AcDbLine
 62
7
  6
CENTER
 10
6.7728422875
 20
3.2672698634
 11
7.0293383505
 21
3.2672698634
  0
LINE
  5
486
100
AcDbEntity
  8
AXIS_COSMETIC_THREADS
100
AcDbLine
 62
7
  6
CENTER
 10
6.7728422875
 20
5.6672698634
 11
6.7728422875
 21
5.4107738004
  0
LINE
  5
487
100
AcDbEntity
  8
AXIS_COSMETIC_THREADS
100
AcDbLine
 62
7
  6
CENTER
 10
6.7728422875
 20
3.2672698634
 11
6.7728422875
 21
3.0107738004
  0
LINE
  5
488
100
AcDbEntity
  8
AXIS_COSMETIC_THREADS
100
AcDbLine
 62
7
  6
CENTER
 10
6.7728422875
 20
3.2672698634
 11
6.7728422875
 21
5.4107738004
  0
LINE
  5
489
100
AcDbEntity
  8
AXIS_COSMETIC_THREADS
100
AcDbLine
 62
7
  6
CENTER
 10
6.7728422875
 20
5.6672698634
 11
6.7728422875
 21
5.9237659264
  0
LINE
  5
48A
100
AcDbEntity
  8
SURFACE
100
AcDbLine
 62
7
  6
CONTINUOUS
 10
7.0058422875
 20
6.2902698634
 11
7.0058422875
 21
6.2062698634
  0
LINE
  5
48B
100
AcDbEntity
  8
SURFACE
100
AcDbLine
 62
7
  6
CONTINUOUS
 10
7.0058422875
 20
6.2062698634
 11
7.0058422875
 21
2.7282698634
  0
LINE
  5
48C
100
AcDbEntity
  8
SURFACE
100
AcDbLine
 62
7
  6
CONTINUOUS
 10
7.0058422875
 20
2.6442698634
 11
7.0058422875
 21
2.7282698634
  0
LINE
  5
48D
100
AcDbEntity
  8
AXIS_COSMETIC_THREADS
100
AcDbLine
 62
7
  6
CONTINUOUS
 10
7.1228422875
 20
4.2672698634
 11
7.1138422875
 21
4.2672698634
  0
LINE
  5
48E
100
AcDbEntity
  8
AXIS_COSMETIC_THREADS
100
AcDbLine
 62
7
  6
CONTINUOUS
 10
7.1138422875
 20
4.3322698634
 11
7.0958422875
 21
4.3322698634
  0
LINE
  5
48F
100
AcDbEntity
  8
02___PRT_ALL_AXES
100
AcDbLine
 62
7
  6
CONTINUOUS
 10
7.1828422875
 20
4.4042777374
 11
9.6953777206
 21
4.4042777374
  0
LINE
  5
490
100
AcDbEntity
  8
02___PRT_ALL_AXES
100
AcDbLine
 62
7
  6
CONTINUOUS
 10
9.6953777206
 20
4.4477816744
 11
10.9552202403
 21
4.4477816744
  0
LINE
  5
491
100
AcDbEntity
  8
02___PRT_ALL_AXES
100
AcDbLine
 62
7
  6
CONTINUOUS
 10
11.1914407127
 20
4.4572698634
 11
10.9552202403
 21
4.4572698634
  0
LINE
  5
492
100
AcDbEntity
  8
02___PRT_ALL_AXES
100
AcDbLine
 62
7
  6
CONTINUOUS
 10
11.1914407127
 20
4.4772698634
 11
10.9552202403
 21
4.4772698634
  0
LINE
  5
493
100
AcDbEntity
  8
02___PRT_ALL_AXES
100
AcDbLine
 62
7
  6
CONTINUOUS
 10
9.6953777206
 20
4.4867580524
 11
10.9552202403
 21
4.4867580524
  0
LINE
  5
494
100
AcDbEntity
  8
SURFACE
100
AcDbLine
 62
7
  6
CONTINUOUS
 10
7.0958422875
 20
2.6442698634
 11
7.0958422875
 21
6.2902698634
  0
LINE
  5
495
100
AcDbEntity
  8
AXIS_COSMETIC_THREADS
100
AcDbLine
 62
7
  6
CONTINUOUS
 10
7.1138422875
 20
4.2672705084
 11
7.1138422875
 21
4.6672692185
  0
LINE
  5
496
100
AcDbEntity
  8
AXIS_COSMETIC_THREADS
100
AcDbLine
 62
7
  6
CONTINUOUS
 10
7.1228422875
 20
4.2672698634
 11
7.1228422875
 21
4.6672698634
  0
LINE
  5
497
100
AcDbEntity
  8
AXIS_COSMETIC_THREADS
100
AcDbLine
 62
7
  6
CONTINUOUS
 10
7.1828422875
 20
4.3272698634
 11
7.1828422875
 21
4.6072698634
  0
LINE
  5
498
100
AcDbEntity
  8
02___PRT_ALL_AXES
100
AcDbLine
 62
7
  6
CONTINUOUS
 10
7.1828422875
 20
4.5302619894
 11
9.6953777206
 21
4.5302619894
  0
LINE
  5
499
100
AcDbEntity
  8
AXIS_COSMETIC_THREADS
100
AcDbLine
 62
7
  6
CONTINUOUS
 10
7.1138422875
 20
4.6022698634
 11
7.0958422875
 21
4.6022698634
  0
LINE
  5
49A
100
AcDbEntity
  8
AXIS_COSMETIC_THREADS
100
AcDbLine
 62
7
  6
CONTINUOUS
 10
7.1228422875
 20
4.6672698634
 11
7.1138422875
 21
4.6672698634
  0
LINE
  5
49B
100
AcDbEntity
  8
AXIS_COSMETIC_THREADS
100
AcDbLine
 62
7
  6
CENTER
 10
6.7728422875
 20
5.6672698634
 11
6.5163462245
 21
5.6672698634
  0
LINE
  5
49C
100
AcDbEntity
  8
AXIS_COSMETIC_THREADS
100
AcDbLine
 62
7
  6
CENTER
 10
3.0728422875
 20
5.6672698634
 11
2.8163462245
 21
5.6672698634
  0
LINE
  5
49D
100
AcDbEntity
  8
AXIS_COSMETIC_THREADS
100
AcDbLine
 62
7
  6
CENTER
 10
3.0728422875
 20
5.6672698634
 11
6.5163462245
 21
5.6672698634
  0
LINE
  5
49E
100
AcDbEntity
  8
AXIS_COSMETIC_THREADS
100
AcDbLine
 62
7
  6
CENTER
 10
6.7728422875
 20
5.6672698634
 11
7.0293383505
 21
5.6672698634
  0
LINE
  5
49F
100
AcDbEntity
  8
SURFACE
100
AcDbLine
 62
7
  6
CONTINUOUS
 10
2.8398422875
 20
6.2062698634
 11
7.0058422875
 21
6.2062698634
  0
LINE
  5
4A0
100
AcDbEntity
  8
SURFACE
100
AcDbLine
 62
7
  6
CONTINUOUS
 10
7.0958422875
 20
6.2422698634
 11
7.0058422875
 21
6.2422698634
  0
LINE
  5
4A1
100
AcDbEntity
  8
SURFACE
100
AcDbLine
 62
7
  6
CONTINUOUS
 10
2.7498422875
 20
6.2422698634
 11
2.8398422875
 21
6.2422698634
  0
LINE
  5
4A2
100
AcDbEntity
  8
SURFACE
100
AcDbLine
 62
7
  6
CONTINUOUS
 10
2.7498422875
 20
6.2902698634
 11
7.0958422875
 21
6.2902698634
  0
LINE
  5
4A3
100
AcDbEntity
  8
02___PRT_ALL_AXES
100
AcDbLine
 62
7
  6
CONTINUOUS
 10
9.6953777206
 20
4.5302619894
 11
9.6953777206
 21
4.4042777374
  0
LINE
  5
4A4
100
AcDbEntity
  8
02___PRT_ALL_AXES
100
AcDbLine
 62
7
  6
CONTINUOUS
 10
10.9552202403
 20
4.4867580524
 11
10.9552202403
 21
4.4477816744
  0
LINE
  5
4A5
100
AcDbEntity
  8
02___PRT_ALL_AXES
100
AcDbLine
 62
7
  6
CONTINUOUS
 10
11.1914407127
 20
4.4772698634
 11
11.1914407127
 21
4.4572698634
  0
LINE
  5
4A6
100
AcDbEntity
  8
SURFACE
100
AcDbLine
 62
7
  6
CONTINUOUS
 10
14.4826332488
 20
7.8776301243
 11
14.4826332488
 21
8.7786301243
  0
LINE
  5
4A7
100
AcDbEntity
  8
SURFACE
100
AcDbLine
 62
7
  6
CONTINUOUS
 10
14.5306332488
 20
7.8916301243
 11
14.5306332488
 21
7.7936301243
  0
LINE
  5
4A8
100
AcDbEntity
  8
SURFACE
100
AcDbLine
 62
7
  6
CONTINUOUS
 10
14.5306332488
 20
7.8916301243
 11
14.5306332488
 21
8.7786301243
  0
LINE
  5
4A9
100
AcDbEntity
  8
SURFACE
100
AcDbLine
 62
7
  6
CONTINUOUS
 10
14.5306332488
 20
7.8350662452
 11
14.5123877831
 21
7.8134941013
  0
LINE
  5
4AA
100
AcDbEntity
  8
SURFACE
100
AcDbLine
 62
7
  6
CONTINUOUS
 10
14.5306332488
 20
7.7936301243
 11
18.0806332488
 21
7.7936301243
  0
LINE
  5
4AB
100
AcDbEntity
  8
SURFACE
100
AcDbLine
 62
7
  6
CONTINUOUS
 10
14.5306332488
 20
7.8776301243
 11
14.4826332488
 21
7.8776301243
  0
LINE
  5
4AC
100
AcDbEntity
  8
SURFACE
100
AcDbLine
 62
7
  6
CONTINUOUS
 10
18.0806332488
 20
7.8776301243
 11
18.1286332488
 21
7.8776301243
  0
LINE
  5
4AD
100
AcDbEntity
  8
SURFACE
100
AcDbLine
 62
7
  6
CONTINUOUS
 10
14.5306332488
 20
7.8836301243
 11
18.0806332488
 21
7.8836301243
  0
LINE
  5
4AE
100
AcDbEntity
  8
SURFACE
100
AcDbLine
 62
7
  6
CONTINUOUS
 10
14.5306332488
 20
7.8916301243
 11
14.4826332488
 21
7.8916301243
  0
LINE
  5
4AF
100
AcDbEntity
  8
SURFACE
100
AcDbLine
 62
7
  6
CONTINUOUS
 10
18.0806332488
 20
7.8916301243
 11
18.1286332488
 21
7.8916301243
  0
LINE
  5
4B0
100
AcDbEntity
  8
0
100
AcDbLine
 62
7
  6
CONTINUOUS
 10
16.3677531554
 20
8.1686301243
 11
16.2435133423
 21
8.1686301243
  0
LINE
  5
4B1
100
AcDbEntity
  8
AXIS_COSMETIC_THREADS
100
AcDbLine
 62
7
  6
CENTER
 10
16.3056332488
 20
8.2336301243
 11
16.3056332488
 21
7.9336301243
  0
LINE
  5
4B2
100
AcDbEntity
  8
AXIS_COSMETIC_THREADS
100
AcDbLine
 62
7
  6
CENTER
 10
16.3056332488
 20
8.2336301243
 11
16.3056332488
 21
8.5336301243
  0
LINE
  5
4B3
100
AcDbEntity
  8
AXIS_COSMETIC_THREADS
100
AcDbLine
 62
7
  6
CENTER
 10
16.3056332488
 20
8.2336301243
 11
16.0056332488
 21
8.2336301243
  0
LINE
  5
4B4
100
AcDbEntity
  8
AXIS_COSMETIC_THREADS
100
AcDbLine
 62
7
  6
CENTER
 10
16.3056332488
 20
8.2336301243
 11
16.6056332488
 21
8.2336301243
  0
LINE
  5
4B5
100
AcDbEntity
  8
SURFACE
100
AcDbLine
 62
7
  6
CONTINUOUS
 10
14.4826332488
 20
8.7786301243
 11
18.1286332488
 21
8.7786301243
  0
LINE
  5
4B6
100
AcDbEntity
  8
SURFACE
100
AcDbLine
 62
7
  6
CONTINUOUS
 10
18.0806332488
 20
7.8350662452
 11
18.0988787146
 21
7.8134941013
  0
LINE
  5
4B7
100
AcDbEntity
  8
SURFACE
100
AcDbLine
 62
7
  6
CONTINUOUS
 10
18.0806332488
 20
8.7786301243
 11
18.0806332488
 21
7.8916301243
  0
LINE
  5
4B8
100
AcDbEntity
  8
SURFACE
100
AcDbLine
 62
7
  6
CONTINUOUS
 10
18.0806332488
 20
7.7936301243
 11
18.0806332488
 21
7.8916301243
  0
LINE
  5
4B9
100
AcDbEntity
  8
SURFACE
100
AcDbLine
 62
7
  6
CONTINUOUS
 10
18.1286332488
 20
8.7786301243
 11
18.1286332488
 21
7.8776301243
  0
LINE
  5
4BA
100
AcDbEntity
  8
SURFACE
100
AcDbLine
 62
7
  6
CONTINUOUS
 10
15.3900954282
 20
14.433647714
 11
15.3900954282
 21
13.890469481
  0
LINE
  5
4BB
100
AcDbEntity
  8
SURFACE
100
AcDbLine
 62
7
  6
CONTINUOUS
 10
15.4378253346
 20
13.8629132301
 11
15.4378253346
 21
13.8543399547
  0
LINE
  5
4BC
100
AcDbEntity
  8
SURFACE
100
AcDbLine
 62
7
  6
CONTINUOUS
 10
15.4632810728
 20
13.8183360225
 11
15.4632810728
 21
13.817597092
  0
LINE
  5
4BD
100
AcDbEntity
  8
AXIS_COSMETIC_THREADS
100
AcDbLine
 62
7
  6
CONTINUOUS
 10
15.7566304536
 20
14.2708979756
 11
15.7566304536
 21
14.2514267401
  0
LINE
  5
4BE
100
AcDbEntity
  8
0
100
AcDbLine
 62
7
  6
CONTINUOUS
 10
15.8201937571
 20
14.3128203857
 11
15.8201937571
 21
14.297054727
  0
LINE
  5
4BF
100
AcDbEntity
  8
0
100
AcDbLine
 62
7
  6
CONTINUOUS
 10
15.822845551
 20
14.2957410849
 11
15.822845551
 21
14.2751284963
  0
LINE
  5
4C0
100
AcDbEntity
  8
0
100
AcDbLine
 62
7
  6
CONTINUOUS
 10
15.8387553874
 20
14.3049265783
 11
15.8387553874
 21
14.2865556679
  0
LINE
  5
4C1
100
AcDbEntity
  8
0
100
AcDbLine
 62
7
  6
CONTINUOUS
 10
15.8546653562
 20
14.2957411614
 11
15.8546653562
 21
14.2751277679
  0
LINE
  5
4C2
100
AcDbEntity
  8
0
100
AcDbLine
 62
7
  6
CONTINUOUS
 10
15.8573168631
 20
14.3128204749
 11
15.8573168631
 21
14.2970546139
  0
LINE
  5
4C3
100
AcDbEntity
  8
AXIS_COSMETIC_THREADS
100
AcDbLine
 62
7
  6
CONTINUOUS
 10
15.9208804536
 20
14.2708979756
 11
15.9208804536
 21
14.250208071
  0
LINE
  5
4C4
100
AcDbEntity
  8
SURFACE
100
AcDbLine
 62
7
  6
CONTINUOUS
 10
15.3900954282
 20
14.433647714
 11
17.323670871
 21
15.5499913528
  0
LINE
  5
4C5
100
AcDbEntity
  8
SURFACE
100
AcDbLine
 62
7
  6
CONTINUOUS
 10
15.4410071164
 20
14.4336478364
 11
17.323671083
 21
15.5205978961
  0
LINE
  5
4C6
100
AcDbEntity
  8
0
100
AcDbLine
 62
7
  6
CONTINUOUS
 10
17.3236711934
 20
15.4290117269
 11
15.5203242547
 21
14.3878551012
  0
LINE
  5
4C7
100
AcDbEntity
  8
0
100
AcDbLine
 62
7
  6
CONTINUOUS
 10
17.5251981716
 20
15.2544890982
 11
17.5138876598
 21
15.2479590101
  0
LINE
  5
4C8
100
AcDbEntity
  8
0
100
AcDbLine
 62
7
  6
CONTINUOUS
 10
15.8546653562
 20
14.2900122847
 11
15.8433548444
 21
14.2834821966
  0
LINE
  5
4C9
100
AcDbEntity
  8
SURFACE
100
AcDbLine
 62
7
  6
CONTINUOUS
 10
15.4639210145
 20
13.8179665603
 11
15.4632810728
 21
13.817597092
  0
LINE
  5
4CA
100
AcDbEntity
  8
SURFACE
100
AcDbLine
 62
7
  6
CONTINUOUS
 10
17.6602194131
 20
12.5499665358
 11
17.6629693298
 21
12.5486266399
  0
LINE
  5
4CB
100
AcDbEntity
  8
SURFACE
100
AcDbLine
 62
7
  6
CONTINUOUS
 10
15.4508734108
 20
13.8254994274
 11
17.660237747
 21
12.5499511899
  0
LINE
  5
4CC
100
AcDbEntity
  8
SURFACE
100
AcDbLine
 62
7
  6
CONTINUOUS
 10
15.4378253346
 20
13.8543399547
 11
17.6471896708
 21
12.5787917172
  0
LINE
  5
4CD
100
AcDbEntity
  8
SURFACE
100
AcDbLine
 62
7
  6
CONTINUOUS
 10
15.3900954282
 20
13.890469481
 11
15.4378253346
 21
13.8629132301
  0
LINE
  5
4CE
100
AcDbEntity
  8
SURFACE
100
AcDbLine
 62
7
  6
CONTINUOUS
 10
17.6471896708
 20
12.5873649926
 11
17.6949195773
 21
12.5598087417
  0
LINE
  5
4CF
100
AcDbEntity
  8
SURFACE
100
AcDbLine
 62
7
  6
CONTINUOUS
 10
17.7161325838
 20
12.5720560035
 11
17.7203753154
 21
12.5696065167
  0
LINE
  5
4D0
100
AcDbEntity
  8
SURFACE
100
AcDbLine
 62
7
  6
CONTINUOUS
 10
17.323671083
 20
15.5205978961
 11
17.323671083
 21
15.4290117269
  0
LINE
  5
4D1
100
AcDbEntity
  8
AXIS_COSMETIC_THREADS
100
AcDbLine
 62
7
  6
CONTINUOUS
 10
17.427163269
 20
15.2353747891
 11
17.427163269
 21
15.2146848846
  0
LINE
  5
4D2
100
AcDbEntity
  8
AXIS_COSMETIC_THREADS
100
AcDbLine
 62
7
  6
CONTINUOUS
 10
17.4271771793
 20
13.3064291931
 11
17.4271771793
 21
13.2869579575
  0
LINE
  5
4D3
100
AcDbEntity
  8
0
100
AcDbLine
 62
7
  6
CONTINUOUS
 10
17.4907265725
 20
15.2772971992
 11
17.4907265725
 21
15.2615315405
  0
LINE
  5
4D4
100
AcDbEntity
  8
0
100
AcDbLine
 62
7
  6
CONTINUOUS
 10
17.4907404827
 20
13.3483516031
 11
17.4907404827
 21
13.3325859444
  0
LINE
  5
4D5
100
AcDbEntity
  8
0
100
AcDbLine
 62
7
  6
CONTINUOUS
 10
17.4933783665
 20
15.2602178984
 11
17.4933783665
 21
15.2396053098
  0
LINE
  5
4D6
100
AcDbEntity
  8
0
100
AcDbLine
 62
7
  6
CONTINUOUS
 10
17.4933922767
 20
13.3312723023
 11
17.4933922767
 21
13.3106597137
  0
LINE
  5
4D7
100
AcDbEntity
  8
SURFACE
100
AcDbLine
 62
7
  6
CONTINUOUS
 10
17.6949195773
 20
13.1029869747
 11
15.3900954282
 21
14.433647714
  0
LINE
  5
4D8
100
AcDbEntity
  8
SURFACE
100
AcDbLine
 62
7
  6
CONTINUOUS
 10
17.7203753154
 20
13.1176837642
 11
15.4155511663
 21
14.4483445036
  0
LINE
  5
4D9
100
AcDbEntity
  8
0
100
AcDbLine
 62
7
  6
CONTINUOUS
 10
17.5047042329
 20
13.3190124595
 11
17.4933922767
 21
13.3255432727
  0
LINE
  5
4DA
100
AcDbEntity
  8
0
100
AcDbLine
 62
7
  6
CONTINUOUS
 10
15.8341575072
 20
14.283481242
 11
15.822845551
 21
14.2900120552
  0
LINE
  5
4DB
100
AcDbEntity
  8
0
100
AcDbLine
 62
7
  6
CONTINUOUS
 10
17.5092882028
 20
15.2694033918
 11
17.5092882028
 21
15.2510324814
  0
LINE
  5
4DC
100
AcDbEntity
  8
0
100
AcDbLine
 62
7
  6
CONTINUOUS
 10
17.509302113
 20
13.3404577958
 11
17.509302113
 21
13.3220868853
  0
LINE
  5
4DD
100
AcDbEntity
  8
0
100
AcDbLine
 62
7
  6
CONTINUOUS
 10
17.5251981716
 20
15.2602179749
 11
17.5251981716
 21
15.2396045814
  0
LINE
  5
4DE
100
AcDbEntity
  8
0
100
AcDbLine
 62
7
  6
CONTINUOUS
 10
17.5252120819
 20
13.3312723788
 11
17.5252120819
 21
13.3106589854
  0
LINE
  5
4DF
100
AcDbEntity
  8
0
100
AcDbLine
 62
7
  6
CONTINUOUS
 10
17.5278496785
 20
15.2772972884
 11
17.5278496785
 21
15.2615314274
  0
LINE
  5
4E0
100
AcDbEntity
  8
0
100
AcDbLine
 62
7
  6
CONTINUOUS
 10
17.5278635888
 20
13.3483516924
 11
17.5278635888
 21
13.3325858313
  0
LINE
  5
4E1
100
AcDbEntity
  8
AXIS_COSMETIC_THREADS
100
AcDbLine
 62
7
  6
CONTINUOUS
 10
17.591413269
 20
15.2353747891
 11
17.591413269
 21
15.2146848846
  0
LINE
  5
4E2
100
AcDbEntity
  8
AXIS_COSMETIC_THREADS
100
AcDbLine
 62
7
  6
CONTINUOUS
 10
17.5914271793
 20
13.3064291931
 11
17.5914271793
 21
13.2857392885
  0
LINE
  5
4E3
100
AcDbEntity
  8
SURFACE
100
AcDbLine
 62
7
  6
CONTINUOUS
 10
17.6471896708
 20
12.5787917172
 11
17.6471896708
 21
12.5873649926
  0
LINE
  5
4E4
100
AcDbEntity
  8
SURFACE
100
AcDbLine
 62
7
  6
CONTINUOUS
 10
17.672645409
 20
12.5714429415
 11
17.672645409
 21
12.5420488545
  0
LINE
  5
4E5
100
AcDbEntity
  8
SURFACE
100
AcDbLine
 62
7
  6
CONTINUOUS
 10
17.6949195773
 20
12.5598087417
 11
17.6949195773
 21
13.1029869747
  0
LINE
  5
4E6
100
AcDbEntity
  8
SURFACE
100
AcDbLine
 62
7
  6
CONTINUOUS
 10
17.7203753154
 20
12.5745055312
 11
17.7203753154
 21
12.5696065167
  0
LINE
  5
4E7
100
AcDbEntity
  8
SURFACE
100
AcDbLine
 62
7
  6
CONTINUOUS
 10
17.7203753154
 20
12.5745055312
 11
17.7203753154
 21
13.1176837642
  0
LINE
  5
4E8
100
AcDbEntity
  8
AXIS_COSMETIC_THREADS
100
AcDbLine
 62
7
  6
CONTINUOUS
 10
18.6010275432
 20
13.1892420105
 11
18.5962545525
 21
13.1919976356
  0
LINE
  5
4E9
100
AcDbEntity
  8
02___PRT_ALL_AXES
100
AcDbLine
 62
7
  6
CONTINUOUS
 10
18.6602501607
 20
13.2737022182
 11
20.0167032415
 21
12.4905713837
  0
LINE
  5
4EA
100
AcDbEntity
  8
02___PRT_ALL_AXES
100
AcDbLine
 62
7
  6
CONTINUOUS
 10
20.033016941
 20
12.5067735178
 11
20.7011521144
 21
12.1210342222
  0
LINE
  5
4EB
100
AcDbEntity
  8
02___PRT_ALL_AXES
100
AcDbLine
 62
7
  6
CONTINUOUS
 10
20.7047101249
 20
12.1271970165
 11
20.8299854699
 21
12.0548708986
  0
LINE
  5
4EC
100
AcDbEntity
  8
02___PRT_ALL_AXES
100
AcDbLine
 62
7
  6
CONTINUOUS
 10
20.033016941
 20
12.5308828411
 11
20.7011521144
 21
12.1451435455
  0
LINE
  5
4ED
100
AcDbEntity
  8
02___PRT_ALL_AXES
100
AcDbLine
 62
7
  6
CONTINUOUS
 10
20.7122099976
 20
12.1401874711
 11
20.8374853426
 21
12.0678613531
  0
LINE
  5
4EE
100
AcDbEntity
  8
02___PRT_ALL_AXES
100
AcDbLine
 62
7
  6
CONTINUOUS
 10
20.7047101249
 20
12.1513063399
 11
20.8299854699
 21
12.078980222
  0
LINE
  5
4EF
100
AcDbEntity
  8
02___PRT_ALL_AXES
100
AcDbLine
 62
7
  6
CONTINUOUS
 10
20.7122099976
 20
12.1642967944
 11
20.8374853426
 21
12.0919706765
  0
LINE
  5
4F0
100
AcDbEntity
  8
02___PRT_ALL_AXES
100
AcDbLine
 62
7
  6
CONTINUOUS
 10
20.0476328348
 20
12.5561988844
 11
20.7157680081
 21
12.1704595888
  0
LINE
  5
4F1
100
AcDbEntity
  8
02___PRT_ALL_AXES
100
AcDbLine
 62
7
  6
CONTINUOUS
 10
18.7076031002
 20
13.3554685499
 11
20.0639465344
 21
12.5724010185
  0
LINE
  5
4F2
100
AcDbEntity
  8
AXIS_COSMETIC_THREADS
100
AcDbLine
 62
7
  6
CONTINUOUS
 10
18.7510249981
 20
13.449051101
 11
18.7462520075
 21
13.4518067261
  0
LINE
  5
4F3
100
AcDbEntity
  8
SURFACE
100
AcDbLine
 62
7
  6
CONTINUOUS
 10
17.672645409
 20
12.5674233742
 11
17.6629693298
 21
12.5486266399
  0
LINE
  5
4F4
100
AcDbEntity
  8
0
100
AcDbLine
 62
7
  6
CONTINUOUS
 10
19.1957448973
 20
14.2900203156
 11
19.1844343854
 21
14.2834902276
  0
LINE
  5
4F5
100
AcDbEntity
  8
0
100
AcDbLine
 62
7
  6
CONTINUOUS
 10
17.5252120819
 20
13.3255435021
 11
17.51390157
 21
13.319013414
  0
LINE
  5
4F6
100
AcDbEntity
  8
SURFACE
100
AcDbLine
 62
7
  6
CONTINUOUS
 10
19.5775833319
 20
14.219330491
 11
17.6949193653
 21
13.1323804314
  0
LINE
  5
4F7
100
AcDbEntity
  8
SURFACE
100
AcDbLine
 62
7
  6
CONTINUOUS
 10
17.6949195773
 20
13.1029869747
 11
19.6284950201
 21
14.2193306134
  0
LINE
  5
4F8
100
AcDbEntity
  8
SURFACE
100
AcDbLine
 62
7
  6
CONTINUOUS
 10
17.6546144512
 20
12.5830783906
 11
17.6471896708
 21
12.5787917172
  0
LINE
  5
4F9
100
AcDbEntity
  8
SURFACE
100
AcDbLine
 62
7
  6
CONTINUOUS
 10
17.672645409
 20
12.5714429415
 11
17.6737067437
 21
12.5720556997
  0
LINE
  5
4FA
100
AcDbEntity
  8
SURFACE
100
AcDbLine
 62
7
  6
CONTINUOUS
 10
17.7203753154
 20
12.5745055312
 11
17.6949195773
 21
12.5598087417
  0
LINE
  5
4FB
100
AcDbEntity
  8
SURFACE
100
AcDbLine
 62
7
  6
CONTINUOUS
 10
19.603039282
 20
13.6614555909
 11
19.6284950201
 21
13.6761523804
  0
LINE
  5
4FC
100
AcDbEntity
  8
SURFACE
100
AcDbLine
 62
7
  6
CONTINUOUS
 10
17.7203753154
 20
12.5696065167
 11
18.8000823064
 21
13.1929719176
  0
LINE
  5
4FD
100
AcDbEntity
  8
SURFACE
100
AcDbLine
 62
7
  6
CONTINUOUS
 10
18.8945713118
 20
13.2475248447
 11
19.603039282
 21
13.6565565764
  0
LINE
  5
4FE
100
AcDbEntity
  8
SURFACE
100
AcDbLine
 62
7
  6
CONTINUOUS
 10
17.7063952579
 20
12.5387059656
 11
18.8198532642
 21
13.181557408
  0
LINE
  5
4FF
100
AcDbEntity
  8
SURFACE
100
AcDbLine
 62
7
  6
CONTINUOUS
 10
18.9143422696
 20
13.2361103351
 11
19.5890592245
 21
13.6256560253
  0
LINE
  5
500
100
AcDbEntity
  8
AXIS_COSMETIC_THREADS
100
AcDbLine
 62
7
  6
CONTINUOUS
 10
19.0977099947
 20
14.2709060066
 11
19.0977099947
 21
14.250216102
  0
LINE
  5
501
100
AcDbEntity
  8
0
100
AcDbLine
 62
7
  6
CONTINUOUS
 10
19.1612732982
 20
14.3128284167
 11
19.1612732982
 21
14.2970627579
  0
LINE
  5
502
100
AcDbEntity
  8
0
100
AcDbLine
 62
7
  6
CONTINUOUS
 10
19.1639250921
 20
14.2957491158
 11
19.1639250921
 21
14.2751365273
  0
LINE
  5
503
100
AcDbEntity
  8
0
100
AcDbLine
 62
7
  6
CONTINUOUS
 10
19.1798349285
 20
14.3049346093
 11
19.1798349285
 21
14.2865636989
  0
LINE
  5
504
100
AcDbEntity
  8
0
100
AcDbLine
 62
7
  6
CONTINUOUS
 10
19.1957448973
 20
14.2957491923
 11
19.1957448973
 21
14.2751357989
  0
LINE
  5
505
100
AcDbEntity
  8
0
100
AcDbLine
 62
7
  6
CONTINUOUS
 10
19.1983964042
 20
14.3128285059
 11
19.1983964042
 21
14.2970626449
  0
LINE
  5
506
100
AcDbEntity
  8
0
100
AcDbLine
 62
7
  6
CONTINUOUS
 10
19.1752370483
 20
14.283489273
 11
19.1639250921
 21
14.2900200862
  0
LINE
  5
507
100
AcDbEntity
  8
0
100
AcDbLine
 62
7
  6
CONTINUOUS
 10
17.5046903226
 20
15.2479580555
 11
17.4933783665
 21
15.2544888687
  0
LINE
  5
508
100
AcDbEntity
  8
0
100
AcDbLine
 62
7
  6
CONTINUOUS
 10
19.498266304
 20
14.173537057
 11
17.3236711934
 21
15.4290117269
  0
LINE
  5
509
100
AcDbEntity
  8
SURFACE
100
AcDbLine
 62
7
  6
CONTINUOUS
 10
17.2982151329
 20
15.5352945632
 11
19.603039282
 21
14.2046338239
  0
LINE
  5
50A
100
AcDbEntity
  8
AXIS_COSMETIC_THREADS
100
AcDbLine
 62
7
  6
CONTINUOUS
 10
19.2619599947
 20
14.2709060066
 11
19.2619599947
 21
14.250216102
  0
LINE
  5
50B
100
AcDbEntity
  8
SURFACE
100
AcDbLine
 62
7
  6
CONTINUOUS
 10
17.323670871
 20
15.5499913528
 11
19.6284950201
 21
14.2193306134
  0
LINE
  5
50C
100
AcDbEntity
  8
SURFACE
100
AcDbLine
 62
7
  6
CONTINUOUS
 10
19.603039282
 20
14.2046338239
 11
19.603039282
 21
13.6614555909
  0
LINE
  5
50D
100
AcDbEntity
  8
SURFACE
100
AcDbLine
 62
7
  6
CONTINUOUS
 10
19.603039282
 20
13.6565565764
 11
19.603039282
 21
13.6614555909
  0
LINE
  5
50E
100
AcDbEntity
  8
SURFACE
100
AcDbLine
 62
7
  6
CONTINUOUS
 10
19.6284950201
 20
14.2193306134
 11
19.6284950201
 21
13.6761523804
  0
CIRCLE
  5
50F
100
AcDbEntity
  8
0
100
AcDbCircle
 62
7
  6
CONTINUOUS
 10
15.2229827477
 20
1.1139932523
 40
0.252091
  0
CIRCLE
  5
510
100
AcDbEntity
  8
0
100
AcDbCircle
 62
7
  6
CONTINUOUS
 10
15.2229827477
 20
1.1139932523
 40
0.182698
  0
CIRCLE
  5
511
100
AcDbEntity
  8
0
100
AcDbCircle
 62
7
  6
CONTINUOUS
 10
14.8013422688
 20
1.8652439144
 40
0.0638444824
  0
ARC
  5
512
100
AcDbEntity
  8
SURFACE
100
AcDbCircle
 62
7
  6
CONTINUOUS
 10
7.0058422875
 20
7.8836301243
 40
0.09
100
AcDbArc
 50
270.0
 51
360.0
  0
ARC
  5
513
100
AcDbEntity
  8
SURFACE
100
AcDbCircle
 62
7
  6
CONTINUOUS
 10
2.8398422875
 20
7.8836301243
 40
0.09
100
AcDbArc
 50
180.0
 51
270.0
  0
ARC
  5
514
100
AcDbEntity
  8
AXIS_COSMETIC_THREADS
100
AcDbCircle
 62
7
  6
CONTINUOUS
 10
7.1228422875
 20
8.3736301243
 40
0.06
100
AcDbArc
 50
0.0
 51
90.0
  0
ARC
  5
515
100
AcDbEntity
  8
AXIS_COSMETIC_THREADS
100
AcDbCircle
 62
7
  6
CONTINUOUS
 10
7.1228422875
 20
8.0936301243
 40
0.06
100
AcDbArc
 50
270.0
 51
360.0
  0
ARC
  5
516
100
AcDbEntity
  8
SURFACE
100
AcDbCircle
 62
7
  6
CONTINUOUS
 10
7.0058422875
 20
7.8836301243
 40
0.042
100
AcDbArc
 50
270.0
 51
360.0
  0
ARC
  5
517
100
AcDbEntity
  8
SURFACE
100
AcDbCircle
 62
7
  6
CONTINUOUS
 10
2.8398422875
 20
7.8836301243
 40
0.042
100
AcDbArc
 50
180.0
 51
270.0
  0
CIRCLE
  5
518
100
AcDbEntity
  8
0
100
AcDbCircle
 62
7
  6
CONTINUOUS
 10
3.3478422875
 20
13.8809830304
 40
0.1095
  0
CIRCLE
  5
519
100
AcDbEntity
  8
0
100
AcDbCircle
 62
7
  6
CONTINUOUS
 10
6.4978422875
 20
13.8809830304
 40
0.1095
  0
CIRCLE
  5
51A
100
AcDbEntity
  8
0
100
AcDbCircle
 62
7
  6
CONTINUOUS
 10
3.3478422875
 20
10.7309830304
 40
0.1095
  0
CIRCLE
  5
51B
100
AcDbEntity
  8
0
100
AcDbCircle
 62
7
  6
CONTINUOUS
 10
6.4978422875
 20
10.7309830304
 40
0.1095
  0
CIRCLE
  5
51C
100
AcDbEntity
  8
0
100
AcDbCircle
 62
7
  6
CONTINUOUS
 10
3.3478422875
 20
13.8809830304
 40
0.0938888887
  0
CIRCLE
  5
51D
100
AcDbEntity
  8
0
100
AcDbCircle
 62
7
  6
CONTINUOUS
 10
6.4978422875
 20
13.8809830304
 40
0.0938888887
  0
CIRCLE
  5
51E
100
AcDbEntity
  8
0
100
AcDbCircle
 62
7
  6
CONTINUOUS
 10
3.3478422875
 20
10.7309830304
 40
0.0938888887
  0
CIRCLE
  5
51F
100
AcDbEntity
  8
0
100
AcDbCircle
 62
7
  6
CONTINUOUS
 10
6.4978422875
 20
10.7309830304
 40
0.0938888887
  0
ARC
  5
520
100
AcDbEntity
  8
AXIS_COSMETIC_THREADS
100
AcDbCircle
 62
7
  6
CONTINUOUS
 10
7.1228422875
 20
12.1659830304
 40
0.06
100
AcDbArc
 50
270.0
 51
360.0
  0
ARC
  5
521
100
AcDbEntity
  8
AXIS_COSMETIC_THREADS
100
AcDbCircle
 62
7
  6
CONTINUOUS
 10
7.0388422875
 20
12.1659830304
 40
0.06
100
AcDbArc
 50
254.4754170544
 51
270.0
  0
ARC
  5
522
100
AcDbEntity
  8
AXIS_COSMETIC_THREADS
100
AcDbCircle
 62
7
  6
CONTINUOUS
 10
7.0388422875
 20
12.4459830304
 40
0.06
100
AcDbArc
 50
90.0
 51
105.5245829456
  0
ARC
  5
523
100
AcDbEntity
  8
AXIS_COSMETIC_THREADS
100
AcDbCircle
 62
7
  6
CONTINUOUS
 10
7.1228422875
 20
12.4459830304
 40
0.06
100
AcDbArc
 50
0.0
 51
90.0
  0
CIRCLE
  5
524
100
AcDbEntity
  8
AXIS_COSMETIC_THREADS
100
AcDbCircle
 62
7
  6
CONTINUOUS
 10
3.0728422875
 20
3.2672698634
 40
0.106
  0
CIRCLE
  5
525
100
AcDbEntity
  8
DEFAULT_2
100
AcDbCircle
 62
7
  6
HIDDEN
 10
3.0728422875
 20
3.2672698634
 40
0.0787401575
  0
CIRCLE
  5
526
100
AcDbEntity
  8
0
100
AcDbCircle
 62
7
  6
CONTINUOUS
 10
3.3478422875
 20
2.8922698634
 40
0.0754999999
  0
CIRCLE
  5
527
100
AcDbEntity
  8
0
100
AcDbCircle
 62
7
  6
CONTINUOUS
 10
3.3478422875
 20
2.8922698634
 40
0.0625
  0
CIRCLE
  5
528
100
AcDbEntity
  8
AXIS_COSMETIC_THREADS
100
AcDbCircle
 62
7
  6
CONTINUOUS
 10
3.0728422875
 20
3.2672698634
 40
0.0590551181
  0
CIRCLE
  5
529
100
AcDbEntity
  8
AXIS_COSMETIC_THREADS
100
AcDbCircle
 62
7
  6
CONTINUOUS
 10
3.0728422875
 20
5.6672698634
 40
0.106
  0
CIRCLE
  5
52A
100
AcDbEntity
  8
DEFAULT_2
100
AcDbCircle
 62
7
  6
HIDDEN
 10
3.0728422875
 20
5.6672698634
 40
0.0787401575
  0
CIRCLE
  5
52B
100
AcDbEntity
  8
0
100
AcDbCircle
 62
7
  6
CONTINUOUS
 10
3.3478422875
 20
6.0422698634
 40
0.0754999999
  0
CIRCLE
  5
52C
100
AcDbEntity
  8
0
100
AcDbCircle
 62
7
  6
CONTINUOUS
 10
3.3478422875
 20
6.0422698634
 40
0.0625
  0
CIRCLE
  5
52D
100
AcDbEntity
  8
AXIS_COSMETIC_THREADS
100
AcDbCircle
 62
7
  6
CONTINUOUS
 10
3.0728422875
 20
5.6672698634
 40
0.0590551181
  0
CIRCLE
  5
52E
100
AcDbEntity
  8
AXIS_COSMETIC_THREADS
100
AcDbCircle
 62
7
  6
CONTINUOUS
 10
6.7728422875
 20
3.2672698634
 40
0.106
  0
CIRCLE
  5
52F
100
AcDbEntity
  8
DEFAULT_2
100
AcDbCircle
 62
7
  6
HIDDEN
 10
6.7728422875
 20
3.2672698634
 40
0.0787401575
  0
CIRCLE
  5
530
100
AcDbEntity
  8
0
100
AcDbCircle
 62
7
  6
CONTINUOUS
 10
6.4978422875
 20
2.8922698634
 40
0.0754999999
  0
CIRCLE
  5
531
100
AcDbEntity
  8
0
100
AcDbCircle
 62
7
  6
CONTINUOUS
 10
6.4978422875
 20
2.8922698634
 40
0.0625
  0
ARC
  5
532
100
AcDbEntity
  8
AXIS_COSMETIC_THREADS
100
AcDbCircle
 62
7
  6
CONTINUOUS
 10
7.1228422875
 20
4.3272698634
 40
0.06
100
AcDbArc
 50
270.0
 51
360.0
  0
CIRCLE
  5
533
100
AcDbEntity
  8
AXIS_COSMETIC_THREADS
100
AcDbCircle
 62
7
  6
CONTINUOUS
 10
6.7728422875
 20
3.2672698634
 40
0.0590551181
  0
CIRCLE
  5
534
100
AcDbEntity
  8
AXIS_COSMETIC_THREADS
100
AcDbCircle
 62
7
  6
CONTINUOUS
 10
6.7728422875
 20
5.6672698634
 40
0.106
  0
CIRCLE
  5
535
100
AcDbEntity
  8
DEFAULT_2
100
AcDbCircle
 62
7
  6
HIDDEN
 10
6.7728422875
 20
5.6672698634
 40
0.0787401575
  0
CIRCLE
  5
536
100
AcDbEntity
  8
0
100
AcDbCircle
 62
7
  6
CONTINUOUS
 10
6.4978422875
 20
6.0422698634
 40
0.0754999999
  0
CIRCLE
  5
537
100
AcDbEntity
  8
0
100
AcDbCircle
 62
7
  6
CONTINUOUS
 10
6.4978422875
 20
6.0422698634
 40
0.0625
  0
ARC
  5
538
100
AcDbEntity
  8
AXIS_COSMETIC_THREADS
100
AcDbCircle
 62
7
  6
CONTINUOUS
 10
7.1228422875
 20
4.6072698634
 40
0.06
100
AcDbArc
 50
0.0
 51
90.0
  0
CIRCLE
  5
539
100
AcDbEntity
  8
AXIS_COSMETIC_THREADS
100
AcDbCircle
 62
7
  6
CONTINUOUS
 10
6.7728422875
 20
5.6672698634
 40
0.0590551181
  0
CIRCLE
  5
53A
100
AcDbEntity
  8
AXIS_COSMETIC_THREADS
100
AcDbCircle
 62
7
  6
CONTINUOUS
 10
16.3056332488
 20
8.2336301243
 40
0.2
  0
CIRCLE
  5
53B
100
AcDbEntity
  8
AXIS_COSMETIC_THREADS
100
AcDbCircle
 62
7
  6
CONTINUOUS
 10
16.3056332488
 20
8.2336301243
 40
0.14
  0
CIRCLE
  5
53C
100
AcDbEntity
  8
AXIS_COSMETIC_THREADS
100
AcDbCircle
 62
7
  6
CONTINUOUS
 10
16.3056332488
 20
8.2336301243
 40
0.09
  0
ARC
  5
53D
100
AcDbEntity
  8
SURFACE
100
AcDbCircle
 62
7
  6
CONTINUOUS
 10
18.0446332488
 20
7.8776301243
 40
0.084
100
AcDbArc
 50
295.4460199192
 51
360.0
  0
ARC
  5
53E
100
AcDbEntity
  8
SURFACE
100
AcDbCircle
 62
7
  6
CONTINUOUS
 10
14.5666332488
 20
7.8776301243
 40
0.084
100
AcDbArc
 50
180.0
 51
244.5539800808
  0
CIRCLE
  5
53F
100
AcDbEntity
  8
02___PRT_ALL_AXES
100
AcDbCircle
 62
7
  6
CONTINUOUS
 10
16.3056332488
 20
8.2336301243
 40
0.062992126
  0
CIRCLE
  5
540
100
AcDbEntity
  8
02___PRT_ALL_AXES
100
AcDbCircle
 62
7
  6
CONTINUOUS
 10
16.3056332488
 20
8.2139450849
 40
0.019488189
  0
CIRCLE
  5
541
100
AcDbEntity
  8
02___PRT_ALL_AXES
100
AcDbCircle
 62
7
  6
CONTINUOUS
 10
16.3056332488
 20
8.2533151636
 40
0.019488189
  0
CIRCLE
  5
542
100
AcDbEntity
  8
02___PRT_ALL_AXES
100
AcDbCircle
 62
7
  6
CONTINUOUS
 10
16.3056332488
 20
8.2139450849
 40
0.01
  0
CIRCLE
  5
543
100
AcDbEntity
  8
02___PRT_ALL_AXES
100
AcDbCircle
 62
7
  6
CONTINUOUS
 10
16.3056332488
 20
8.2533151636
 40
0.01
  0
ARC
  5
544
100
AcDbEntity
  8
0
100
AcDbCircle
 62
7
  6
CONTINUOUS
 10
17.3835930742
 20
13.1312038782
 40
0.2286154425
100
AcDbArc
 50
50.8713899866
 51
51.7223304923
  0
ARC
  5
545
100
AcDbEntity
  8
0
100
AcDbCircle
 62
7
  6
CONTINUOUS
 10
17.634449234
 20
13.1319081667
 40
0.2277141643
100
AcDbArc
 50
128.2764231777
 51
129.1306943913
  0
ARC
  5
546
100
AcDbEntity
  8
0
100
AcDbCircle
 62
7
  6
CONTINUOUS
 10
17.3956073873
 20
13.1468155705
 40
0.2089175785
100
AcDbArc
 50
51.6566273324
 51
57.0293635996
  0
ARC
  5
547
100
AcDbEntity
  8
0
100
AcDbCircle
 62
7
  6
CONTINUOUS
 10
17.6229983009
 20
13.1468164999
 40
0.2089174503
100
AcDbArc
 50
122.9710505762
 51
128.3438109752
  0
ARC
  5
548
100
AcDbEntity
  8
0
100
AcDbCircle
 62
7
  6
CONTINUOUS
 10
17.5741461096
 20
13.1860092498
 40
0.1825392696
100
AcDbArc
 50
120.0329549384
 51
122.9616284188
  0
ARC
  5
549
100
AcDbEntity
  8
0
100
AcDbCircle
 62
7
  6
CONTINUOUS
 10
17.6257750188
 20
13.1576830786
 40
0.1798522518
100
AcDbArc
 50
120.0110726704
 51
122.9835106868
  0
ARC
  5
54A
100
AcDbEntity
  8
0
100
AcDbCircle
 62
7
  6
CONTINUOUS
 10
17.5661133851
 20
13.1997817276
 40
0.1665955651
100
AcDbArc
 50
116.8997247521
 51
120.0119295791
  0
ARC
  5
54B
100
AcDbEntity
  8
0
100
AcDbCircle
 62
7
  6
CONTINUOUS
 10
17.6179040035
 20
13.1714564894
 40
0.1639886507
100
AcDbArc
 50
116.8749812871
 51
120.0366730441
  0
ARC
  5
54C
100
AcDbEntity
  8
0
100
AcDbCircle
 62
7
  6
CONTINUOUS
 10
17.512422027
 20
13.3808655429
 40
0.1215824902
100
AcDbArc
 50
281.9884215312
 51
285.7750945159
  0
ARC
  5
54D
100
AcDbEntity
  8
SURFACE
100
AcDbCircle
 62
7
  6
CONTINUOUS
 10
15.5303550665
 20
13.9114360214
 40
0.1164218425
100
AcDbArc
 50
207.4577127253
 51
211.855825156
  0
ARC
  5
54E
100
AcDbEntity
  8
0
100
AcDbCircle
 62
7
  6
CONTINUOUS
 10
17.5145401509
 20
13.373104965
 40
0.1135383898
100
AcDbArc
 50
285.8111551741
 51
287.5699805524
  0
ARC
  5
54F
100
AcDbEntity
  8
0
100
AcDbCircle
 62
7
  6
CONTINUOUS
 10
15.7130463486
 20
14.0956726609
 40
0.2286154424
100
AcDbArc
 50
50.8713899865
 51
51.7223304925
  0
ARC
  5
550
100
AcDbEntity
  8
0
100
AcDbCircle
 62
7
  6
CONTINUOUS
 10
17.383579164
 20
15.0601494744
 40
0.2286154424
100
AcDbArc
 50
50.8713899863
 51
51.7223304925
  0
ARC
  5
551
100
AcDbEntity
  8
0
100
AcDbCircle
 62
7
  6
CONTINUOUS
 10
15.9639025084
 20
14.0963769491
 40
0.2277141645
100
AcDbArc
 50
128.2764231779
 51
129.130694391
  0
ARC
  5
552
100
AcDbEntity
  8
0
100
AcDbCircle
 62
7
  6
CONTINUOUS
 10
17.6344353238
 20
15.0608537627
 40
0.2277141644
100
AcDbArc
 50
128.2764231777
 51
129.1306943912
  0
ARC
  5
553
100
AcDbEntity
  8
0
100
AcDbCircle
 62
7
  6
CONTINUOUS
 10
17.3955934771
 20
15.0757611665
 40
0.2089175785
100
AcDbArc
 50
51.6566273324
 51
57.0293635996
  0
ARC
  5
554
100
AcDbEntity
  8
0
100
AcDbCircle
 62
7
  6
CONTINUOUS
 10
15.7250606616
 20
14.111284353
 40
0.2089175785
100
AcDbArc
 50
51.6566273324
 51
57.0293635996
  0
ARC
  5
555
100
AcDbEntity
  8
0
100
AcDbCircle
 62
7
  6
CONTINUOUS
 10
17.6229843907
 20
15.075762096
 40
0.2089174503
100
AcDbArc
 50
122.9710505762
 51
128.3438109752
  0
ARC
  5
556
100
AcDbEntity
  8
0
100
AcDbCircle
 62
7
  6
CONTINUOUS
 10
15.9524515753
 20
14.1112852825
 40
0.2089174503
100
AcDbArc
 50
122.9710505762
 51
128.3438109752
  0
ARC
  5
557
100
AcDbEntity
  8
0
100
AcDbCircle
 62
7
  6
CONTINUOUS
 10
17.5741321994
 20
15.1149548459
 40
0.1825392696
100
AcDbArc
 50
120.0329549384
 51
122.9616284188
  0
ARC
  5
558
100
AcDbEntity
  8
0
100
AcDbCircle
 62
7
  6
CONTINUOUS
 10
15.9035993839
 20
14.1504780324
 40
0.1825392696
100
AcDbArc
 50
120.0329549384
 51
122.9616284188
  0
ARC
  5
559
100
AcDbEntity
  8
0
100
AcDbCircle
 62
7
  6
CONTINUOUS
 10
17.6257611086
 20
15.0866286747
 40
0.1798522518
100
AcDbArc
 50
120.0110726704
 51
122.9835106868
  0
ARC
  5
55A
100
AcDbEntity
  8
0
100
AcDbCircle
 62
7
  6
CONTINUOUS
 10
15.9552282932
 20
14.1221518611
 40
0.1798522518
100
AcDbArc
 50
120.0110726703
 51
122.9835106869
  0
ARC
  5
55B
100
AcDbEntity
  8
0
100
AcDbCircle
 62
7
  6
CONTINUOUS
 10
17.5660994748
 20
15.1287273237
 40
0.1665955651
100
AcDbArc
 50
116.8997247521
 51
120.0119295791
  0
ARC
  5
55C
100
AcDbEntity
  8
0
100
AcDbCircle
 62
7
  6
CONTINUOUS
 10
15.8955666594
 20
14.1642505102
 40
0.1665955651
100
AcDbArc
 50
116.8997247521
 51
120.0119295791
  0
ARC
  5
55D
100
AcDbEntity
  8
0
100
AcDbCircle
 62
7
  6
CONTINUOUS
 10
17.6178900933
 20
15.1004020855
 40
0.1639886507
100
AcDbArc
 50
116.874981287
 51
120.0366730442
  0
ARC
  5
55E
100
AcDbEntity
  8
0
100
AcDbCircle
 62
7
  6
CONTINUOUS
 10
15.9473572779
 20
14.1359252719
 40
0.1639886507
100
AcDbArc
 50
116.8749812871
 51
120.0366730441
  0
ARC
  5
55F
100
AcDbEntity
  8
0
100
AcDbCircle
 62
7
  6
CONTINUOUS
 10
17.5124081167
 20
15.309811139
 40
0.1215824902
100
AcDbArc
 50
281.9884215312
 51
285.7750945158
  0
ARC
  5
560
100
AcDbEntity
  8
0
100
AcDbCircle
 62
7
  6
CONTINUOUS
 10
15.8418753013
 20
14.3453343255
 40
0.1215824902
100
AcDbArc
 50
281.9884215313
 51
285.7750945157
  0
ARC
  5
561
100
AcDbEntity
  8
AXIS_COSMETIC_THREADS
100
AcDbCircle
 62
7
  6
CONTINUOUS
 10
17.5044656123
 20
15.2828002229
 40
0.1150367121
100
AcDbArc
 50
253.6895207585
 51
254.2638708305
  0
ARC
  5
562
100
AcDbEntity
  8
0
100
AcDbCircle
 62
7
  6
CONTINUOUS
 10
17.5145262407
 20
15.3020505611
 40
0.1135383899
100
AcDbArc
 50
285.8111551744
 51
287.5699805521
  0
ARC
  5
563
100
AcDbEntity
  8
0
100
AcDbCircle
 62
7
  6
CONTINUOUS
 10
15.8439934253
 20
14.3375737475
 40
0.1135383898
100
AcDbArc
 50
285.8111551741
 51
287.5699805524
  0
ARC
  5
564
100
AcDbEntity
  8
AXIS_COSMETIC_THREADS
100
AcDbCircle
 62
7
  6
CONTINUOUS
 10
18.7887826264
 20
13.2482439088
 40
0.2248072569
100
AcDbArc
 50
160.8366211181
 51
165.9526911869
  0
ARC
  5
565
100
AcDbEntity
  8
AXIS_COSMETIC_THREADS
100
AcDbCircle
 62
7
  6
CONTINUOUS
 10
18.7923355533
 20
13.2583441076
 40
0.2227809568
100
AcDbArc
 50
134.0215368312
 51
139.1850632762
  0
ARC
  5
566
100
AcDbEntity
  8
AXIS_COSMETIC_THREADS
100
AcDbCircle
 62
7
  6
CONTINUOUS
 10
18.7555646524
 20
13.3038902016
 40
0.0954087475
100
AcDbArc
 50
117.1072628685
 51
120.0097573214
  0
ARC
  5
567
100
AcDbEntity
  8
AXIS_COSMETIC_THREADS
100
AcDbCircle
 62
7
  6
CONTINUOUS
 10
18.7531248064
 20
13.3085506441
 40
0.0901485093
100
AcDbArc
 50
116.5335885491
 51
117.0765809893
  0
ARC
  5
568
100
AcDbEntity
  8
AXIS_COSMETIC_THREADS
100
AcDbCircle
 62
7
  6
CONTINUOUS
 10
18.7397527033
 20
13.3006263119
 40
0.0638126892
100
AcDbArc
 50
120.0001559847
 51
120.4705550919
  0
ARC
  5
569
100
AcDbEntity
  8
02___PRT_ALL_AXES
100
AcDbCircle
 62
7
  6
CONTINUOUS
 10
20.0110179764
 20
12.5418201175
 40
0.0570541727
100
AcDbArc
 50
306.6550993239
 51
310.1063237692
  0
ARC
  5
56A
100
AcDbEntity
  8
AXIS_COSMETIC_THREADS
100
AcDbCircle
 62
7
  6
CONTINUOUS
 10
18.6261591479
 20
13.2327560646
 40
0.050250049
100
AcDbArc
 50
233.7221522184
 51
239.9913558991
  0
ARC
  5
56B
100
AcDbEntity
  8
AXIS_COSMETIC_THREADS
100
AcDbCircle
 62
7
  6
CONTINUOUS
 10
18.7259248889
 20
13.4055629559
 40
0.0502118632
100
AcDbArc
 50
60.0076912322
 51
66.2398219847
  0
ARC
  5
56C
100
AcDbEntity
  8
0
100
AcDbCircle
 62
7
  6
CONTINUOUS
 10
19.0541258896
 20
14.0956806918
 40
0.2286154424
100
AcDbArc
 50
50.8713899864
 51
51.7223304925
  0
ARC
  5
56D
100
AcDbEntity
  8
0
100
AcDbCircle
 62
7
  6
CONTINUOUS
 10
19.3049820495
 20
14.0963849801
 40
0.2277141645
100
AcDbArc
 50
128.2764231779
 51
129.130694391
  0
ARC
  5
56E
100
AcDbEntity
  8
0
100
AcDbCircle
 62
7
  6
CONTINUOUS
 10
19.0661402027
 20
14.111292384
 40
0.2089175785
100
AcDbArc
 50
51.6566273324
 51
57.0293635996
  0
ARC
  5
56F
100
AcDbEntity
  8
0
100
AcDbCircle
 62
7
  6
CONTINUOUS
 10
19.2935311164
 20
14.1112933134
 40
0.2089174503
100
AcDbArc
 50
122.9710505762
 51
128.3438109752
  0
ARC
  5
570
100
AcDbEntity
  8
0
100
AcDbCircle
 62
7
  6
CONTINUOUS
 10
19.244678925
 20
14.1504860633
 40
0.1825392696
100
AcDbArc
 50
120.0329549384
 51
122.9616284188
  0
ARC
  5
571
100
AcDbEntity
  8
0
100
AcDbCircle
 62
7
  6
CONTINUOUS
 10
19.2963078343
 20
14.1221598921
 40
0.1798522518
100
AcDbArc
 50
120.0110726703
 51
122.9835106869
  0
ARC
  5
572
100
AcDbEntity
  8
0
100
AcDbCircle
 62
7
  6
CONTINUOUS
 10
19.2366462005
 20
14.1642585412
 40
0.1665955651
100
AcDbArc
 50
116.8997247521
 51
120.0119295791
  0
ARC
  5
573
100
AcDbEntity
  8
0
100
AcDbCircle
 62
7
  6
CONTINUOUS
 10
19.2884368189
 20
14.1359333029
 40
0.1639886507
100
AcDbArc
 50
116.874981287
 51
120.0366730442
  0
ARC
  5
574
100
AcDbEntity
  8
0
100
AcDbCircle
 62
7
  6
CONTINUOUS
 10
19.1829548424
 20
14.3453423565
 40
0.1215824902
100
AcDbArc
 50
281.9884215313
 51
285.7750945157
  0
ARC
  5
575
100
AcDbEntity
  8
AXIS_COSMETIC_THREADS
100
AcDbCircle
 62
7
  6
CONTINUOUS
 10
19.1750123379
 20
14.3183314404
 40
0.1150367121
100
AcDbArc
 50
253.6895207583
 51
254.2638708304
  0
ARC
  5
576
100
AcDbEntity
  8
0
100
AcDbCircle
 62
7
  6
CONTINUOUS
 10
19.1850729664
 20
14.3375817785
 40
0.1135383899
100
AcDbArc
 50
285.8111551743
 51
287.5699805522
  0
SPLINE
  5
577
100
AcDbEntity
  8
AXIS_COSMETIC_THREADS
100
AcDbSpline
 62
7
  6
CONTINUOUS
 70
0
 71
3
 72
11
 73
7
 74
0
 42
0.0000001
 43
0.0000001
 44
0.0000000001
 40
0.0
 40
0.0
 40
0.0
 40
0.0
 40
0.2375217529
 40
0.4838414541
 40
0.7382320154
 40
1.0
 40
1.0
 40
1.0
 40
1.0
 10
17.5673596552
 20
15.1811581126
 30
0.0
 10
17.5658045245
 20
15.1802602628
 30
0.0
 10
17.5625722644
 20
15.178541007
 30
0.0
 10
17.5574863956
 20
15.1762345242
 30
0.0
 10
17.552102447
 20
15.1741662683
 30
0.0
 10
17.5483856169
 20
15.1729704299
 30
0.0
 10
17.5464866114
 20
15.1724134087
 30
0.0
  0
SPLINE
  5
578
100
AcDbEntity
  8
AXIS_COSMETIC_THREADS
100
AcDbSpline
 62
7
  6
CONTINUOUS
 70
0
 71
3
 72
16
 73
12
 74
0
 42
0.0000001
 43
0.0000001
 44
0.0000000001
 40
0.0
 40
0.0
 40
0.0
 40
0.0
 40
0.1208848909
 40
0.2451090933
 40
0.3716408248
 40
0.4993818356
 40
0.6272016756
 40
0.7539676257
 40
0.8166176832
 40
0.8785946844
 40
1.0
 40
1.0
 40
1.0
 40
1.0
 10
17.5464866114
 20
15.1724134087
 30
0.0
 10
17.5436207983
 20
15.1715728011
 30
0.0
 10
17.5377412646
 20
15.1700954165
 30
0.0
 10
17.528691129
 20
15.1685050326
 30
0.0
 10
17.5193842662
 20
15.1675245875
 30
0.0
 10
17.5099441273
 20
15.1671672509
 30
0.0
 10
17.5004955091
 20
15.1674376816
 30
0.0
 10
17.4926872071
 20
15.1681861127
 30
0.0
 10
17.4865424921
 20
15.1690981648
 30
0.0
 10
17.4805641543
 20
15.1702011478
 30
0.0
 10
17.4761537917
 20
15.1712615005
 30
0.0
 10
17.4732668001
 20
15.1720749808
 30
0.0
  0
SPLINE
  5
579
100
AcDbEntity
  8
AXIS_COSMETIC_THREADS
100
AcDbSpline
 62
7
  6
CONTINUOUS
 70
0
 71
3
 72
23
 73
19
 74
0
 42
0.0000001
 43
0.0000001
 44
0.0000000001
 40
0.0
 40
0.0
 40
0.0
 40
0.0
 40
0.0787897829
 40
0.1556745202
 40
0.2304768769
 40
0.3030471871
 40
0.3732645526
 40
0.4410431463
 40
0.5063363223
 40
0.5691410164
 40
0.6295052629
 40
0.6875301981
 40
0.7433790021
 40
0.7972758035
 40
0.8495108319
 40
0.900433972
 40
0.950449235
 40
1.0
 40
1.0
 40
1.0
 40
1.0
 10
17.4721584432
 20
15.1723932849
 30
0.0
 10
17.4704960539
 20
15.172879765
 30
0.0
 10
17.4672327709
 20
15.1739158723
 30
0.0
 10
17.462480964
 20
15.1756801276
 30
0.0
 10
17.4579500069
 20
15.1776290059
 30
0.0
 10
17.4536612574
 20
15.1797530694
 30
0.0
 10
17.4496349453
 20
15.182042638
 30
0.0
 10
17.4458899786
 20
15.1844869785
 30
0.0
 10
17.4424439847
 20
15.1870748026
 30
0.0
 10
17.4393133268
 20
15.1897943257
 30
0.0
 10
17.4365127108
 20
15.1926329099
 30
0.0
 10
17.4340558649
 20
15.1955778835
 30
0.0
 10
17.4319544671
 20
15.1986155006
 30
0.0
 10
17.43021953
 20
15.2017321287
 30
0.0
 10
17.4288597
 20
15.2049129223
 30
0.0
 10
17.4278828898
 20
15.2081430718
 30
0.0
 10
17.4272943635
 20
15.2114059645
 30
0.0
 10
17.4271632703
 20
15.2135970358
 30
0.0
 10
17.4271632994
 20
15.2146863562
 30
0.0
  0
SPLINE
  5
57A
100
AcDbEntity
  8
0
100
AcDbSpline
 62
7
  6
CONTINUOUS
 70
0
 71
3
 72
9
 73
5
 74
0
 42
0.0000001
 43
0.0000001
 44
0.0000000001
 40
0.0
 40
0.0
 40
0.0
 40
0.0
 40
0.5098067771
 40
1.0
 40
1.0
 40
1.0
 40
1.0
 10
17.4933783665
 20
15.2602178984
 30
0.0
 10
17.4903202649
 20
15.2617708152
 30
0.0
 10
17.4842224698
 20
15.2646262828
 30
0.0
 10
17.477937914
 20
15.2670467878
 30
0.0
 10
17.4748167362
 20
15.2681117058
 30
0.0
  0
SPLINE
  5
57B
100
AcDbEntity
  8
0
100
AcDbSpline
 62
7
  6
CONTINUOUS
 70
0
 71
3
 72
9
 73
5
 74
0
 42
0.0000001
 43
0.0000001
 44
0.0000000001
 40
0.0
 40
0.0
 40
0.0
 40
0.0
 40
0.5076563864
 40
1.0
 40
1.0
 40
1.0
 40
1.0
 10
17.4907268595
 20
15.2374935599
 30
0.0
 10
17.4881172687
 20
15.2391850473
 30
0.0
 10
17.4828938556
 20
15.2423910901
 30
0.0
 10
17.477507489
 20
15.2453162067
 30
0.0
 10
17.4748168907
 20
15.2466789769
 30
0.0
  0
SPLINE
  5
57C
100
AcDbEntity
  8
AXIS_COSMETIC_THREADS
100
AcDbSpline
 62
7
  6
CONTINUOUS
 70
0
 71
3
 72
20
 73
16
 74
0
 42
0.0000001
 43
0.0000001
 44
0.0000000001
 40
0.0
 40
0.0
 40
0.0
 40
0.0
 40
0.0752246502
 40
0.1485766399
 40
0.2894315572
 40
0.4225979126
 40
0.5484723996
 40
0.6089213513
 40
0.6678571038
 40
0.725434258
 40
0.7818338421
 40
0.8372587699
 40
0.8919323419
 40
0.9460954852
 40
1.0
 40
1.0
 40
1.0
 40
1.0
 10
17.5673596552
 20
15.1811581126
 30
0.0
 10
17.5682976962
 20
15.1816996876
 30
0.0
 10
17.5701282782
 20
15.1828085044
 30
0.0
 10
17.5735938919
 20
15.1851249247
 30
0.0
 10
17.5775562314
 20
15.1881920321
 30
0.0
 10
17.5817239341
 20
15.1921812124
 30
0.0
 10
17.5846601111
 20
15.1957399144
 30
0.0
 10
17.586625874
 20
15.1986765566
 30
0.0
 10
17.5878945148
 20
15.200888884
 30
0.0
 10
17.5889735284
 20
15.2031352179
 30
0.0
 10
17.5898603868
 20
15.2054101172
 30
0.0
 10
17.5905527826
 20
15.2077080418
 30
0.0
 10
17.5910485739
 20
15.2100234804
 30
0.0
 10
17.59134681
 20
15.2123503806
 30
0.0
 10
17.5914132179
 20
15.2139072453
 30
0.0
 10
17.5914132387
 20
15.2146834129
 30
0.0
  0
SPLINE
  5
57D
100
AcDbEntity
  8
0
100
AcDbSpline
 62
7
  6
CONTINUOUS
 70
0
 71
3
 72
9
 73
5
 74
0
 42
0.0000001
 43
0.0000001
 44
0.0000000001
 40
0.0
 40
0.0
 40
0.0
 40
0.0
 40
0.4901934393
 40
1.0
 40
1.0
 40
1.0
 40
1.0
 10
17.5437596473
 20
15.2681118715
 30
0.0
 10
17.540638492
 20
15.2670469373
 30
0.0
 10
17.5343539866
 20
15.2646264009
 30
0.0
 10
17.5282562444
 20
15.2617709047
 30
0.0
 10
17.5251981716
 20
15.2602179749
 30
0.0
  0
SPLINE
  5
57E
100
AcDbEntity
  8
0
100
AcDbSpline
 62
7
  6
CONTINUOUS
 70
0
 71
3
 72
42
 73
38
 74
0
 42
0.0000001
 43
0.0000001
 44
0.0000000001
 40
0.0
 40
0.0
 40
0.0
 40
0.0
 40
0.0305590132
 40
0.0617444954
 40
0.125786473
 40
0.158614662
 40
0.1919097869
 40
0.2255994013
 40
0.2596025449
 40
0.2938319018
 40
0.3281937641
 40
0.3625897836
 40
0.3969217556
 40
0.4310924572
 40
0.4650095638
 40
0.4985867885
 40
0.531747202
 40
0.5644256797
 40
0.5965700921
 40
0.6281460545
 40
0.6591346048
 40
0.689538682
 40
0.7193779403
 40
0.7486924084
 40
0.7775396151
 40
0.8059873356
 40
0.8341177922
 40
0.8620040195
 40
0.875886159
 40
0.8897346653
 40
0.9035580181
 40
0.9173661097
 40
0.9311603752
 40
0.9449387152
 40
0.9587009868
 40
0.9724551034
 40
1.0
 40
1.0
 40
1.0
 40
1.0
 10
17.4551002322
 20
15.2774850473
 30
0.0
 10
17.4565624094
 20
15.2783292307
 30
0.0
 10
17.4595726891
 20
15.2799398401
 30
0.0
 10
17.4658882882
 20
15.2828472013
 30
0.0
 10
17.4725596157
 20
15.2852520194
 30
0.0
 10
17.4794924182
 20
15.2871709993
 30
0.0
 10
17.4848751873
 20
15.2883805228
 30
0.0
 10
17.4903728291
 20
15.2893444972
 30
0.0
 10
17.495960268
 20
15.2900605161
 30
0.0
 10
17.501611304
 20
15.2905262869
 30
0.0
 10
17.50729915
 20
15.2907405424
 30
0.0
 10
17.5129965649
 20
15.2907024471
 30
0.0
 10
17.5186761447
 20
15.2904121561
 30
0.0
 10
17.5243107549
 20
15.2898706455
 30
0.0
 10
17.5298737118
 20
15.2890795193
 30
0.0
 10
17.535339164
 20
15.2880412511
 30
0.0
 10
17.5406822031
 20
15.2867584435
 30
0.0
 10
17.5458792041
 20
15.2852344
 30
0.0
 10
17.5509077915
 20
15.2834719455
 30
0.0
 10
17.5557469491
 20
15.2814740665
 30
0.0
 10
17.560376864
 20
15.2792428756
 30
0.0
 10
17.5647783784
 20
15.2767796987
 30
0.0
 10
17.5689329421
 20
15.2740853031
 30
0.0
 10
17.5728209217
 20
15.2711588727
 30
0.0
 10
17.576421951
 20
15.2680004054
 30
0.0
 10
17.5797123149
 20
15.2646090483
 30
0.0
 10
17.582665327
 20
15.2609878637
 30
0.0
 10
17.5848238485
 20
15.2577777917
 30
0.0
 10
17.5863468662
 20
15.2551077387
 30
0.0
 10
17.5873832755
 20
15.2530579887
 30
0.0
 10
17.5883108505
 20
15.250961204
 30
0.0
 10
17.5891247509
 20
15.2488208803
 30
0.0
 10
17.5898214706
 20
15.2466421751
 30
0.0
 10
17.5903975966
 20
15.2444311383
 30
0.0
 10
17.5908493815
 20
15.2421934607
 30
0.0
 10
17.5912821934
 20
15.239181199
 30
0.0
 10
17.591413269
 20
15.2368966344
 30
0.0
 10
17.591413269
 20
15.2353747889
 30
0.0
  0
SPLINE
  5
57F
100
AcDbEntity
  8
0
100
AcDbSpline
 62
7
  6
CONTINUOUS
 70
0
 71
3
 72
20
 73
16
 74
0
 42
0.0000001
 43
0.0000001
 44
0.0000000001
 40
0.0
 40
0.0
 40
0.0
 40
0.0
 40
0.0609401649
 40
0.1217431877
 40
0.1825782244
 40
0.2435166113
 40
0.3045472054
 40
0.365680275
 40
0.4269971898
 40
0.4885634463
 40
0.612725663
 40
0.6755444087
 40
0.7389591495
 40
0.8678951125
 40
1.0
 40
1.0
 40
1.0
 40
1.0
 10
17.427163269
 20
15.2353747889
 30
0.0
 10
17.427163269
 20
15.2364506777
 30
0.0
 10
17.4272503181
 20
15.2386010432
 30
0.0
 10
17.4276400758
 20
15.2418041126
 30
0.0
 10
17.4282847779
 20
15.2449658366
 30
0.0
 10
17.4291757326
 20
15.2480711191
 30
0.0
 10
17.4303029132
 20
15.2511041902
 30
0.0
 10
17.4316567758
 20
15.2540502043
 30
0.0
 10
17.4332236174
 20
15.2568993974
 30
0.0
 10
17.4355866115
 20
15.2605686409
 30
0.0
 10
17.4383281522
 20
15.2640129694
 30
0.0
 10
17.4413838973
 20
15.2672099409
 30
0.0
 10
17.4446812028
 20
15.270283015
 30
0.0
 10
17.4491892123
 20
15.2738351024
 30
0.0
 10
17.4530804064
 20
15.2763189073
 30
0.0
 10
17.4551002322
 20
15.2774850473
 30
0.0
  0
SPLINE
  5
580
100
AcDbEntity
  8
0
100
AcDbSpline
 62
7
  6
CONTINUOUS
 70
0
 71
3
 72
50
 73
46
 74
0
 42
0.0000001
 43
0.0000001
 44
0.0000000001
 40
0.0
 40
0.0
 40
0.0
 40
0.0
 40
0.030980706
 40
0.060363468
 40
0.0881394942
 40
0.1014552877
 40
0.1144071414
 40
0.1270161715
 40
0.1393091554
 40
0.1513189377
 40
0.1630829382
 40
0.1746436149
 40
0.1860477744
 40
0.1973453635
 40
0.2085890724
 40
0.2198327864
 40
0.2311304031
 40
0.2425345967
 40
0.2540953334
 40
0.2658594634
 40
0.2778693585
 40
0.2901623537
 40
0.3027712205
 40
0.3157229204
 40
0.3290390759
 40
0.3427369001
 40
0.3568279717
 40
0.3862055048
 40
0.4171908559
 40
0.4497341695
 40
0.4837358306
 40
0.5190562369
 40
0.5555230197
 40
0.5929368193
 40
0.6310781975
 40
0.6697129272
 40
0.7085966077
 40
0.7474803042
 40
0.7861149898
 40
0.8242561402
 40
0.8616701906
 40
0.8981367918
 40
0.9334548658
 40
0.9674614852
 40
1.0
 40
1.0
 40
1.0
 40
1.0
 10
17.5590805788
 20
15.2208166048
 30
0.0
 10
17.5606687124
 20
15.2217335087
 30
0.0
 10
17.5636913359
 20
15.2236493635
 30
0.0
 10
17.5678232685
 20
15.2268474596
 30
0.0
 10
17.5708437738
 20
15.2297386853
 30
0.0
 10
17.5729490795
 20
15.2321495147
 30
0.0
 10
17.5743531143
 20
15.2339747795
 30
0.0
 10
17.5756005643
 20
15.2358381093
 30
0.0
 10
17.5766881364
 20
15.2377352075
 30
0.0
 10
17.5776134115
 20
15.2396613307
 30
0.0
 10
17.5783738188
 20
15.2416119903
 30
0.0
 10
17.5789672541
 20
15.2435824592
 30
0.0
 10
17.5793924897
 20
15.2455678055
 30
0.0
 10
17.5796480487
 20
15.2475631976
 30
0.0
 10
17.5797331986
 20
15.2495636055
 30
0.0
 10
17.5796480504
 20
15.251564016
 30
0.0
 10
17.579392462
 20
15.2535594082
 30
0.0
 10
17.5789672338
 20
15.2555447626
 30
0.0
 10
17.5783737934
 20
15.2575152451
 30
0.0
 10
17.577613343
 20
15.2594659069
 30
0.0
 10
17.5766880538
 20
15.26139204
 30
0.0
 10
17.5756004808
 20
15.2632891319
 30
0.0
 10
17.5743530403
 20
15.2651524583
 30
0.0
 10
17.5729490466
 20
15.2669777069
 30
0.0
 10
17.5713920536
 20
15.2687606522
 30
0.0
 10
17.5696855564
 20
15.2704968738
 30
0.0
 10
17.5671821795
 20
15.2727757155
 30
0.0
 10
17.5636907739
 20
15.2754783032
 30
0.0
 10
17.559039927
 20
15.2784259495
 30
0.0
 10
17.5539141587
 20
15.2810957435
 30
0.0
 10
17.5483626387
 20
15.2834628192
 30
0.0
 10
17.5424379754
 20
15.2855051123
 30
0.0
 10
17.5361965248
 20
15.287203129
 30
0.0
 10
17.5296978331
 20
15.2885409007
 30
0.0
 10
17.5230039617
 20
15.2895057629
 30
0.0
 10
17.5161788655
 20
15.2900883257
 30
0.0
 10
17.5092878381
 20
15.290283078
 30
0.0
 10
17.5023968142
 20
15.2900882819
 30
0.0
 10
17.4955717384
 20
15.2895056557
 30
0.0
 10
17.4888778737
 20
15.2885407723
 30
0.0
 10
17.4823791969
 20
15.2872029265
 30
0.0
 10
17.4761379287
 20
15.2855048705
 30
0.0
 10
17.4702130003
 20
15.2834625934
 30
0.0
 10
17.4646620145
 20
15.2810954614
 30
0.0
 10
17.4611639492
 20
15.2792735198
 30
0.0
 10
17.4594959592
 20
15.2783105111
 30
0.0
  0
SPLINE
  5
581
100
AcDbEntity
  8
0
100
AcDbSpline
 62
7
  6
CONTINUOUS
 70
0
 71
3
 72
21
 73
17
 74
0
 42
0.0000001
 43
0.0000001
 44
0.0000000001
 40
0.0
 40
0.0
 40
0.0
 40
0.0
 40
0.0752099469
 40
0.1485560739
 40
0.2894150281
 40
0.4225716386
 40
0.486406778
 40
0.5484972475
 40
0.6089442829
 40
0.6678762333
 40
0.7254505265
 40
0.7818465316
 40
0.8372677762
 40
0.8919386315
 40
0.9460985159
 40
1.0
 40
1.0
 40
1.0
 40
1.0
 10
17.5673596552
 20
15.201848017
 30
0.0
 10
17.5682975804
 20
15.2023895251
 30
0.0
 10
17.5701280178
 20
15.203498283
 30
0.0
 10
17.5735937147
 20
15.2058148161
 30
0.0
 10
17.5775559221
 20
15.208881578
 30
0.0
 10
17.5810784231
 20
15.2122532532
 30
0.0
 10
17.5835337767
 20
15.215064867
 30
0.0
 10
17.5851712462
 20
15.217193553
 30
0.0
 10
17.5866261131
 20
15.2193666352
 30
0.0
 10
17.5878945326
 20
15.2215790963
 30
0.0
 10
17.5889736828
 20
15.2238254069
 30
0.0
 10
17.589860563
 20
15.2261003376
 30
0.0
 10
17.590552718
 20
15.2283983596
 30
0.0
 10
17.5910487173
 20
15.2307137815
 30
0.0
 10
17.5913468396
 20
15.2330407456
 30
0.0
 10
17.5914131531
 20
15.2345976309
 30
0.0
 10
17.5914131827
 20
15.2353738107
 30
0.0
  0
SPLINE
  5
582
100
AcDbEntity
  8
0
100
AcDbSpline
 62
7
  6
CONTINUOUS
 70
0
 71
3
 72
33
 73
29
 74
0
 42
0.0000001
 43
0.0000001
 44
0.0000000001
 40
0.0
 40
0.0
 40
0.0
 40
0.0
 40
0.0738658525
 40
0.1438349095
 40
0.2098944262
 40
0.2415364332
 40
0.2722986595
 40
0.3022355664
 40
0.3314168304
 40
0.3599266413
 40
0.3878608394
 40
0.4153281803
 40
0.4424473856
 40
0.4693449208
 40
0.4961533557
 40
0.5230070276
 40
0.5500395279
 40
0.5773796526
 40
0.6051488337
 40
0.6334595867
 40
0.6624116333
 40
0.6920927363
 40
0.7225779194
 40
0.7861579323
 40
0.8193666272
 40
0.8535446449
 40
0.9248261676
 40
1.0
 40
1.0
 40
1.0
 40
1.0
 10
17.4594959592
 20
15.2783105111
 30
0.0
 10
17.4578746171
 20
15.2773744343
 30
0.0
 10
17.4547921058
 20
15.275416922
 30
0.0
 10
17.4505885814
 20
15.2721426752
 30
0.0
 10
17.4475283386
 20
15.2691789992
 30
0.0
 10
17.4454062418
 20
15.2667071218
 30
0.0
 10
17.4439974051
 20
15.2648360503
 30
0.0
 10
17.4427526144
 20
15.2629259711
 30
0.0
 10
17.4416751659
 20
15.2609815818
 30
0.0
 10
17.4407676107
 20
15.2590079013
 30
0.0
 10
17.4400327319
 20
15.2570097031
 30
0.0
 10
17.4394724497
 20
15.2549921437
 30
0.0
 10
17.4390880944
 20
15.2529604427
 30
0.0
 10
17.4388812251
 20
15.2509197957
 30
0.0
 10
17.4388521627
 20
15.2488756129
 30
0.0
 10
17.4390008674
 20
15.2468332128
 30
0.0
 10
17.4393273446
 20
15.2447980005
 30
0.0
 10
17.4398302477
 20
15.24277524
 30
0.0
 10
17.4405081921
 20
15.2407701136
 30
0.0
 10
17.4413596211
 20
15.2387878748
 30
0.0
 10
17.4423817883
 20
15.2368333814
 30
0.0
 10
17.4435721948
 20
15.2349114757
 30
0.0
 10
17.4454049725
 20
15.2323638441
 30
0.0
 10
17.447545211
 20
15.2299371566
 30
0.0
 10
17.449947575
 20
15.2276448732
 30
0.0
 10
17.4526208352
 20
15.2253605719
 30
0.0
 10
17.4563311899
 20
15.2226651428
 30
0.0
 10
17.459527811
 20
15.2207677132
 30
0.0
 10
17.4612045815
 20
15.2198629154
 30
0.0
  0
SPLINE
  5
583
100
AcDbEntity
  8
0
100
AcDbSpline
 62
7
  6
CONTINUOUS
 70
0
 71
3
 72
23
 73
19
 74
0
 42
0.0000001
 43
0.0000001
 44
0.0000000001
 40
0.0
 40
0.0
 40
0.0
 40
0.0
 40
0.0565455062
 40
0.1154651779
 40
0.17651137
 40
0.2393879948
 40
0.3037589934
 40
0.3692574542
 40
0.4354952702
 40
0.5020698475
 40
0.5685724742
 40
0.6345959062
 40
0.6997411881
 40
0.7636280837
 40
0.8258979055
 40
0.8862245159
 40
0.9443443542
 40
1.0
 40
1.0
 40
1.0
 40
1.0
 10
17.4612045815
 20
15.2198629154
 30
0.0
 10
17.4628888585
 20
15.2189540669
 30
0.0
 10
17.4664053889
 20
15.2172386079
 30
0.0
 10
17.4719569741
 20
15.2150190151
 30
0.0
 10
17.4778504065
 20
15.2131160446
 30
0.0
 10
17.4840315225
 20
15.2115473453
 30
0.0
 10
17.490443992
 20
15.2103272308
 30
0.0
 10
17.4970290706
 20
15.2094666426
 30
0.0
 10
17.5037264869
 20
15.2089735312
 30
0.0
 10
17.5104748802
 20
15.2088525527
 30
0.0
 10
17.5172123972
 20
15.2091046073
 30
0.0
 10
17.5238772918
 20
15.209727441
 30
0.0
 10
17.5304085207
 20
15.210715484
 30
0.0
 10
17.5367462848
 20
15.2120595863
 30
0.0
 10
17.5428324946
 20
15.2137473909
 30
0.0
 10
17.5486121112
 20
15.2157637851
 30
0.0
 10
17.5540312637
 20
15.2180904183
 30
0.0
 10
17.557449223
 20
15.2198747467
 30
0.0
 10
17.5590805788
 20
15.2208166048
 30
0.0
  0
SPLINE
  5
584
100
AcDbEntity
  8
0
100
AcDbSpline
 62
7
  6
CONTINUOUS
 70
0
 71
3
 72
9
 73
5
 74
0
 42
0.0000001
 43
0.0000001
 44
0.0000000001
 40
0.0
 40
0.0
 40
0.0
 40
0.0
 40
0.4924317693
 40
1.0
 40
1.0
 40
1.0
 40
1.0
 10
17.5251981716
 20
15.2602179749
 30
0.0
 10
17.5283657542
 20
15.25816896
 30
0.0
 10
17.5346772505
 20
15.2538184751
 30
0.0
 10
17.5407433358
 20
15.2491329876
 30
0.0
 10
17.5437598019
 20
15.2466791426
 30
0.0
  0
SPLINE
  5
585
100
AcDbEntity
  8
0
100
AcDbSpline
 62
7
  6
CONTINUOUS
 70
0
 71
3
 72
9
 73
5
 74
0
 42
0.0000001
 43
0.0000001
 44
0.0000000001
 40
0.0
 40
0.0
 40
0.0
 40
0.0
 40
0.4923436136
 40
1.0
 40
1.0
 40
1.0
 40
1.0
 10
17.5278496785
 20
15.2772972884
 30
0.0
 10
17.5305402768
 20
15.2759345183
 30
0.0
 10
17.5359266434
 20
15.2730094016
 30
0.0
 10
17.5411500565
 20
15.2698033588
 30
0.0
 10
17.5437596473
 20
15.2681118715
 30
0.0
  0
SPLINE
  5
586
100
AcDbEntity
  8
0
100
AcDbSpline
 62
7
  6
CONTINUOUS
 70
0
 71
3
 72
9
 73
5
 74
0
 42
0.0000001
 43
0.0000001
 44
0.0000000001
 40
0.0
 40
0.0
 40
0.0
 40
0.0
 40
0.5098074499
 40
1.0
 40
1.0
 40
1.0
 40
1.0
 10
17.5092882028
 20
15.2694033918
 30
0.0
 10
17.512346281
 20
15.2709563244
 30
0.0
 10
17.5184440232
 20
15.2738118204
 30
0.0
 10
17.5247285288
 20
15.2762323562
 30
0.0
 10
17.5278496785
 20
15.2772972884
 30
0.0
  0
SPLINE
  5
587
100
AcDbEntity
  8
0
100
AcDbSpline
 62
7
  6
CONTINUOUS
 70
0
 71
3
 72
9
 73
5
 74
0
 42
0.0000001
 43
0.0000001
 44
0.0000000001
 40
0.0
 40
0.0
 40
0.0
 40
0.0
 40
0.4901932229
 40
1.0
 40
1.0
 40
1.0
 40
1.0
 10
17.4907265725
 20
15.2772971992
 30
0.0
 10
17.4938477504
 20
15.2762322813
 30
0.0
 10
17.5001323062
 20
15.2738117762
 30
0.0
 10
17.5062301012
 20
15.2709563087
 30
0.0
 10
17.5092882028
 20
15.2694033918
 30
0.0
  0
SPLINE
  5
588
100
AcDbEntity
  8
0
100
AcDbSpline
 62
7
  6
CONTINUOUS
 70
0
 71
3
 72
9
 73
5
 74
0
 42
0.0000001
 43
0.0000001
 44
0.0000000001
 40
0.0
 40
0.0
 40
0.0
 40
0.0
 40
0.5075687381
 40
1.0
 40
1.0
 40
1.0
 40
1.0
 10
17.4748168907
 20
15.2466789769
 30
0.0
 10
17.4778333332
 20
15.2491328376
 30
0.0
 10
17.4838993665
 20
15.253818353
 30
0.0
 10
17.4902108118
 20
15.2581688694
 30
0.0
 10
17.4933783665
 20
15.2602178984
 30
0.0
  0
SPLINE
  5
589
100
AcDbEntity
  8
0
100
AcDbSpline
 62
7
  6
CONTINUOUS
 70
0
 71
3
 72
26
 73
22
 74
0
 42
0.0000001
 43
0.0000001
 44
0.0000000001
 40
0.0
 40
0.0
 40
0.0
 40
0.0
 40
0.0240737965
 40
0.04821713
 40
0.0724988113
 40
0.0969852992
 40
0.1217401665
 40
0.1468239031
 40
0.1981760917
 40
0.2514548988
 40
0.3069691838
 40
0.3649418078
 40
0.4255165691
 40
0.4887623171
 40
0.5546816003
 40
0.6232189661
 40
0.6942665021
 40
0.767673894
 40
0.843250534
 40
0.9207759923
 40
1.0
 40
1.0
 40
1.0
 40
1.0
 10
17.4271633554
 20
15.2353747891
 30
0.0
 10
17.4271633539
 20
15.2347728115
 30
0.0
 10
17.4272031383
 20
15.233566741
 30
0.0
 10
17.4273821221
 20
15.2317614835
 30
0.0
 10
17.4276803312
 20
15.2299615305
 30
0.0
 10
17.428097033
 20
15.228169636
 30
0.0
 10
17.4286315813
 20
15.2263883288
 30
0.0
 10
17.4295071763
 20
15.2240128918
 30
0.0
 10
17.4309031255
 20
15.2210761668
 30
0.0
 10
17.4330193874
 20
15.2176677239
 30
0.0
 10
17.4355770494
 20
15.2143654167
 30
0.0
 10
17.4385601159
 20
15.2111877831
 30
0.0
 10
17.4419510424
 20
15.2081523634
 30
0.0
 10
17.4457300461
 20
15.2052760327
 30
0.0
 10
17.4498752178
 20
15.2025746862
 30
0.0
 10
17.4543628514
 20
15.2000637573
 30
0.0
 10
17.4591669849
 20
15.1977570621
 30
0.0
 10
17.4642601946
 20
15.1956681806
 30
0.0
 10
17.4696130435
 20
15.1938084767
 30
0.0
 10
17.4751947351
 20
15.1921892415
 30
0.0
 10
17.4790103526
 20
15.1912844967
 30
0.0
 10
17.480948213
 20
15.1908731531
 30
0.0
  0
SPLINE
  5
58A
100
AcDbEntity
  8
0
100
AcDbSpline
 62
7
  6
CONTINUOUS
 70
0
 71
3
 72
15
 73
11
 74
0
 42
0.0000001
 43
0.0000001
 44
0.0000000001
 40
0.0
 40
0.0
 40
0.0
 40
0.0
 40
0.1227526931
 40
0.2474243399
 40
0.3733925304
 40
0.5000129832
 40
0.6266318847
 40
0.7525952182
 40
0.8772583014
 40
1.0
 40
1.0
 40
1.0
 40
1.0
 10
17.480948213
 20
15.1908731531
 30
0.0
 10
17.4832340919
 20
15.1903879366
 30
0.0
 10
17.4878697331
 20
15.1895381485
 30
0.0
 10
17.4949226867
 20
15.1886294731
 30
0.0
 10
17.5020867901
 20
15.1880817523
 30
0.0
 10
17.5093064595
 20
15.1878994483
 30
0.0
 10
17.5165259902
 20
15.1880835914
 30
0.0
 10
17.5236896664
 20
15.1886331592
 30
0.0
 10
17.5307419229
 20
15.1895436082
 30
0.0
 10
17.5353769666
 20
15.190394598
 30
0.0
 10
17.5376625046
 20
15.190880412
 30
0.0
  0
SPLINE
  5
58B
100
AcDbEntity
  8
0
100
AcDbSpline
 62
7
  6
CONTINUOUS
 70
0
 71
3
 72
11
 73
7
 74
0
 42
0.0000001
 43
0.0000001
 44
0.0000000001
 40
0.0
 40
0.0
 40
0.0
 40
0.0
 40
0.2608695352
 40
0.5148851897
 40
0.7614747405
 40
1.0
 40
1.0
 40
1.0
 40
1.0
 10
17.548800124
 20
15.1938088552
 30
0.0
 10
17.5504798018
 20
15.194341042
 30
0.0
 10
17.5537705651
 20
15.1954708448
 30
0.0
 10
17.5585461588
 20
15.1973864171
 30
0.0
 10
17.563075062
 20
15.1994925409
 30
0.0
 10
17.5659644408
 20
15.2010424944
 30
0.0
 10
17.5673596552
 20
15.201848017
 30
0.0
  0
SPLINE
  5
58C
100
AcDbEntity
  8
AXIS_COSMETIC_THREADS
100
AcDbSpline
 62
7
  6
CONTINUOUS
 70
0
 71
3
 72
11
 73
7
 74
0
 42
0.0000001
 43
0.0000001
 44
0.0000000001
 40
0.0
 40
0.0
 40
0.0
 40
0.0
 40
0.2375217529
 40
0.4838414541
 40
0.7382320154
 40
1.0
 40
1.0
 40
1.0
 40
1.0
 10
19.2379063809
 20
14.21668933
 30
0.0
 10
19.2363512502
 20
14.2157914803
 30
0.0
 10
19.2331189901
 20
14.2140722245
 30
0.0
 10
19.2280331213
 20
14.2117657417
 30
0.0
 10
19.2226491726
 20
14.2096974858
 30
0.0
 10
19.2189323426
 20
14.2085016473
 30
0.0
 10
19.2170333371
 20
14.2079446262
 30
0.0
  0
SPLINE
  5
58D
100
AcDbEntity
  8
AXIS_COSMETIC_THREADS
100
AcDbSpline
 62
7
  6
CONTINUOUS
 70
0
 71
3
 72
16
 73
12
 74
0
 42
0.0000001
 43
0.0000001
 44
0.0000000001
 40
0.0
 40
0.0
 40
0.0
 40
0.0
 40
0.1208848909
 40
0.2451090933
 40
0.3716408248
 40
0.4993818356
 40
0.6272016756
 40
0.7539676257
 40
0.8166176832
 40
0.8785946844
 40
1.0
 40
1.0
 40
1.0
 40
1.0
 10
19.2170333371
 20
14.2079446262
 30
0.0
 10
19.214167524
 20
14.2071040186
 30
0.0
 10
19.2082879903
 20
14.205626634
 30
0.0
 10
19.1992378547
 20
14.20403625
 30
0.0
 10
19.1899309918
 20
14.2030558049
 30
0.0
 10
19.1804908529
 20
14.2026984683
 30
0.0
 10
19.1710422347
 20
14.202968899
 30
0.0
 10
19.1632339328
 20
14.2037173301
 30
0.0
 10
19.1570892178
 20
14.2046293823
 30
0.0
 10
19.1511108799
 20
14.2057323652
 30
0.0
 10
19.1467005173
 20
14.2067927179
 30
0.0
 10
19.1438135258
 20
14.2076061982
 30
0.0
  0
SPLINE
  5
58E
100
AcDbEntity
  8
AXIS_COSMETIC_THREADS
100
AcDbSpline
 62
7
  6
CONTINUOUS
 70
0
 71
3
 72
23
 73
19
 74
0
 42
0.0000001
 43
0.0000001
 44
0.0000000001
 40
0.0
 40
0.0
 40
0.0
 40
0.0
 40
0.0787897829
 40
0.1556745202
 40
0.2304768769
 40
0.3030471871
 40
0.3732645526
 40
0.4410431463
 40
0.5063363223
 40
0.5691410164
 40
0.6295052629
 40
0.6875301981
 40
0.7433790021
 40
0.7972758035
 40
0.8495108319
 40
0.900433972
 40
0.950449235
 40
1.0
 40
1.0
 40
1.0
 40
1.0
 10
19.1427051689
 20
14.2079245024
 30
0.0
 10
19.1410427796
 20
14.2084109824
 30
0.0
 10
19.1377794966
 20
14.2094470897
 30
0.0
 10
19.1330276897
 20
14.2112113451
 30
0.0
 10
19.1284967326
 20
14.2131602233
 30
0.0
 10
19.1242079831
 20
14.2152842868
 30
0.0
 10
19.120181671
 20
14.2175738555
 30
0.0
 10
19.1164367043
 20
14.2200181959
 30
0.0
 10
19.1129907103
 20
14.22260602
 30
0.0
 10
19.1098600524
 20
14.2253255432
 30
0.0
 10
19.1070594365
 20
14.2281641273
 30
0.0
 10
19.1046025905
 20
14.2311091009
 30
0.0
 10
19.1025011928
 20
14.234146718
 30
0.0
 10
19.1007662556
 20
14.2372633461
 30
0.0
 10
19.0994064257
 20
14.2404441398
 30
0.0
 10
19.0984296155
 20
14.2436742893
 30
0.0
 10
19.0978410891
 20
14.246937182
 30
0.0
 10
19.097709996
 20
14.2491282533
 30
0.0
 10
19.0977100251
 20
14.2502175737
 30
0.0
  0
SPLINE
  5
58F
100
AcDbEntity
  8
0
100
AcDbSpline
 62
7
  6
CONTINUOUS
 70
0
 71
3
 72
9
 73
5
 74
0
 42
0.0000001
 43
0.0000001
 44
0.0000000001
 40
0.0
 40
0.0
 40
0.0
 40
0.0
 40
0.5098067771
 40
1.0
 40
1.0
 40
1.0
 40
1.0
 10
19.1639250921
 20
14.2957491158
 30
0.0
 10
19.1608669906
 20
14.2973020326
 30
0.0
 10
19.1547691955
 20
14.3001575002
 30
0.0
 10
19.1484846397
 20
14.3025780052
 30
0.0
 10
19.1453634618
 20
14.3036429232
 30
0.0
  0
SPLINE
  5
590
100
AcDbEntity
  8
0
100
AcDbSpline
 62
7
  6
CONTINUOUS
 70
0
 71
3
 72
9
 73
5
 74
0
 42
0.0000001
 43
0.0000001
 44
0.0000000001
 40
0.0
 40
0.0
 40
0.0
 40
0.0
 40
0.5076563864
 40
1.0
 40
1.0
 40
1.0
 40
1.0
 10
19.1612735852
 20
14.2730247774
 30
0.0
 10
19.1586639944
 20
14.2747162647
 30
0.0
 10
19.1534405813
 20
14.2779223075
 30
0.0
 10
19.1480542147
 20
14.2808474242
 30
0.0
 10
19.1453636164
 20
14.2822101944
 30
0.0
  0
SPLINE
  5
591
100
AcDbEntity
  8
AXIS_COSMETIC_THREADS
100
AcDbSpline
 62
7
  6
CONTINUOUS
 70
0
 71
3
 72
20
 73
16
 74
0
 42
0.0000001
 43
0.0000001
 44
0.0000000001
 40
0.0
 40
0.0
 40
0.0
 40
0.0
 40
0.0752246502
 40
0.1485766399
 40
0.2894315572
 40
0.4225979126
 40
0.5484723996
 40
0.6089213513
 40
0.6678571038
 40
0.725434258
 40
0.7818338421
 40
0.8372587699
 40
0.8919323419
 40
0.9460954852
 40
1.0
 40
1.0
 40
1.0
 40
1.0
 10
19.2379063809
 20
14.21668933
 30
0.0
 10
19.2388444219
 20
14.2172309051
 30
0.0
 10
19.2406750038
 20
14.2183397219
 30
0.0
 10
19.2441406175
 20
14.2206561422
 30
0.0
 10
19.2481029571
 20
14.2237232495
 30
0.0
 10
19.2522706598
 20
14.2277124299
 30
0.0
 10
19.2552068367
 20
14.2312711319
 30
0.0
 10
19.2571725997
 20
14.2342077741
 30
0.0
 10
19.2584412405
 20
14.2364201014
 30
0.0
 10
19.259520254
 20
14.2386664354
 30
0.0
 10
19.2604071124
 20
14.2409413346
 30
0.0
 10
19.2610995083
 20
14.2432392593
 30
0.0
 10
19.2615952996
 20
14.2455546978
 30
0.0
 10
19.2618935356
 20
14.247881598
 30
0.0
 10
19.2619599436
 20
14.2494384628
 30
0.0
 10
19.2619599643
 20
14.2502146304
 30
0.0
  0
SPLINE
  5
592
100
AcDbEntity
  8
0
100
AcDbSpline
 62
7
  6
CONTINUOUS
 70
0
 71
3
 72
9
 73
5
 74
0
 42
0.0000001
 43
0.0000001
 44
0.0000000001
 40
0.0
 40
0.0
 40
0.0
 40
0.0
 40
0.4901934393
 40
1.0
 40
1.0
 40
1.0
 40
1.0
 10
19.214306373
 20
14.3036430889
 30
0.0
 10
19.2111852177
 20
14.3025781548
 30
0.0
 10
19.2049007122
 20
14.3001576183
 30
0.0
 10
19.1988029701
 20
14.2973021222
 30
0.0
 10
19.1957448973
 20
14.2957491923
 30
0.0
  0
SPLINE
  5
593
100
AcDbEntity
  8
0
100
AcDbSpline
 62
7
  6
CONTINUOUS
 70
0
 71
3
 72
42
 73
38
 74
0
 42
0.0000001
 43
0.0000001
 44
0.0000000001
 40
0.0
 40
0.0
 40
0.0
 40
0.0
 40
0.0305590132
 40
0.0617444954
 40
0.125786473
 40
0.158614662
 40
0.1919097869
 40
0.2255994013
 40
0.2596025449
 40
0.2938319018
 40
0.3281937641
 40
0.3625897836
 40
0.3969217556
 40
0.4310924572
 40
0.4650095638
 40
0.4985867885
 40
0.531747202
 40
0.5644256797
 40
0.5965700921
 40
0.6281460545
 40
0.6591346048
 40
0.689538682
 40
0.7193779403
 40
0.7486924084
 40
0.7775396151
 40
0.8059873356
 40
0.8341177922
 40
0.8620040195
 40
0.875886159
 40
0.8897346653
 40
0.9035580181
 40
0.9173661097
 40
0.9311603752
 40
0.9449387152
 40
0.9587009868
 40
0.9724551034
 40
1.0
 40
1.0
 40
1.0
 40
1.0
 10
19.1256469578
 20
14.3130162648
 30
0.0
 10
19.1271091351
 20
14.3138604482
 30
0.0
 10
19.1301194147
 20
14.3154710575
 30
0.0
 10
19.1364350138
 20
14.3183784188
 30
0.0
 10
19.1431063414
 20
14.3207832368
 30
0.0
 10
19.1500391438
 20
14.3227022167
 30
0.0
 10
19.155421913
 20
14.3239117402
 30
0.0
 10
19.1609195547
 20
14.3248757146
 30
0.0
 10
19.1665069936
 20
14.3255917336
 30
0.0
 10
19.1721580297
 20
14.3260575044
 30
0.0
 10
19.1778458757
 20
14.3262717598
 30
0.0
 10
19.1835432906
 20
14.3262336646
 30
0.0
 10
19.1892228704
 20
14.3259433736
 30
0.0
 10
19.1948574805
 20
14.3254018629
 30
0.0
 10
19.2004204375
 20
14.3246107368
 30
0.0
 10
19.2058858896
 20
14.3235724685
 30
0.0
 10
19.2112289287
 20
14.322289661
 30
0.0
 10
19.2164259298
 20
14.3207656175
 30
0.0
 10
19.2214545172
 20
14.3190031629
 30
0.0
 10
19.2262936747
 20
14.317005284
 30
0.0
 10
19.2309235897
 20
14.3147740931
 30
0.0
 10
19.2353251041
 20
14.3123109161
 30
0.0
 10
19.2394796678
 20
14.3096165205
 30
0.0
 10
19.2433676474
 20
14.3066900901
 30
0.0
 10
19.2469686767
 20
14.3035316228
 30
0.0
 10
19.2502590405
 20
14.3001402658
 30
0.0
 10
19.2532120526
 20
14.2965190812
 30
0.0
 10
19.2553705742
 20
14.2933090092
 30
0.0
 10
19.2568935918
 20
14.2906389562
 30
0.0
 10
19.2579300012
 20
14.2885892061
 30
0.0
 10
19.2588575762
 20
14.2864924215
 30
0.0
 10
19.2596714766
 20
14.2843520978
 30
0.0
 10
19.2603681962
 20
14.2821733926
 30
0.0
 10
19.2609443223
 20
14.2799623557
 30
0.0
 10
19.2613961072
 20
14.2777246782
 30
0.0
 10
19.2618289191
 20
14.2747124165
 30
0.0
 10
19.2619599947
 20
14.2724278519
 30
0.0
 10
19.2619599947
 20
14.2709060064
 30
0.0
  0
SPLINE
  5
594
100
AcDbEntity
  8
0
100
AcDbSpline
 62
7
  6
CONTINUOUS
 70
0
 71
3
 72
20
 73
16
 74
0
 42
0.0000001
 43
0.0000001
 44
0.0000000001
 40
0.0
 40
0.0
 40
0.0
 40
0.0
 40
0.0609401649
 40
0.1217431877
 40
0.1825782244
 40
0.2435166113
 40
0.3045472054
 40
0.365680275
 40
0.4269971898
 40
0.4885634463
 40
0.612725663
 40
0.6755444087
 40
0.7389591495
 40
0.8678951125
 40
1.0
 40
1.0
 40
1.0
 40
1.0
 10
19.0977099947
 20
14.2709060064
 30
0.0
 10
19.0977099947
 20
14.2719818951
 30
0.0
 10
19.0977970438
 20
14.2741322606
 30
0.0
 10
19.0981868014
 20
14.2773353301
 30
0.0
 10
19.0988315035
 20
14.280497054
 30
0.0
 10
19.0997224583
 20
14.2836023365
 30
0.0
 10
19.1008496388
 20
14.2866354077
 30
0.0
 10
19.1022035015
 20
14.2895814217
 30
0.0
 10
19.1037703431
 20
14.2924306148
 30
0.0
 10
19.1061333371
 20
14.2960998583
 30
0.0
 10
19.1088748779
 20
14.2995441869
 30
0.0
 10
19.111930623
 20
14.3027411584
 30
0.0
 10
19.1152279285
 20
14.3058142324
 30
0.0
 10
19.1197359379
 20
14.3093663198
 30
0.0
 10
19.1236271321
 20
14.3118501248
 30
0.0
 10
19.1256469578
 20
14.3130162648
 30
0.0
  0
SPLINE
  5
595
100
AcDbEntity
  8
0
100
AcDbSpline
 62
7
  6
CONTINUOUS
 70
0
 71
3
 72
50
 73
46
 74
0
 42
0.0000001
 43
0.0000001
 44
0.0000000001
 40
0.0
 40
0.0
 40
0.0
 40
0.0
 40
0.030980706
 40
0.060363468
 40
0.0881394942
 40
0.1014552877
 40
0.1144071414
 40
0.1270161715
 40
0.1393091554
 40
0.1513189377
 40
0.1630829382
 40
0.1746436149
 40
0.1860477744
 40
0.1973453635
 40
0.2085890724
 40
0.2198327864
 40
0.2311304031
 40
0.2425345967
 40
0.2540953334
 40
0.2658594634
 40
0.2778693585
 40
0.2901623537
 40
0.3027712205
 40
0.3157229204
 40
0.3290390759
 40
0.3427369001
 40
0.3568279717
 40
0.3862055048
 40
0.4171908559
 40
0.4497341695
 40
0.4837358306
 40
0.5190562369
 40
0.5555230197
 40
0.5929368193
 40
0.6310781975
 40
0.6697129272
 40
0.7085966077
 40
0.7474803042
 40
0.7861149898
 40
0.8242561402
 40
0.8616701906
 40
0.8981367918
 40
0.9334548658
 40
0.9674614852
 40
1.0
 40
1.0
 40
1.0
 40
1.0
 10
19.2296273045
 20
14.2563478223
 30
0.0
 10
19.231215438
 20
14.2572647261
 30
0.0
 10
19.2342380616
 20
14.259180581
 30
0.0
 10
19.2383699942
 20
14.2623786771
 30
0.0
 10
19.2413904995
 20
14.2652699027
 30
0.0
 10
19.2434958052
 20
14.2676807321
 30
0.0
 10
19.2448998399
 20
14.269505997
 30
0.0
 10
19.24614729
 20
14.2713693268
 30
0.0
 10
19.247234862
 20
14.2732664249
 30
0.0
 10
19.2481601372
 20
14.2751925481
 30
0.0
 10
19.2489205445
 20
14.2771432077
 30
0.0
 10
19.2495139797
 20
14.2791136766
 30
0.0
 10
19.2499392154
 20
14.2810990229
 30
0.0
 10
19.2501947744
 20
14.283094415
 30
0.0
 10
19.2502799242
 20
14.2850948229
 30
0.0
 10
19.250194776
 20
14.2870952334
 30
0.0
 10
19.2499391876
 20
14.2890906257
 30
0.0
 10
19.2495139595
 20
14.2910759801
 30
0.0
 10
19.2489205191
 20
14.2930464625
 30
0.0
 10
19.2481600686
 20
14.2949971244
 30
0.0
 10
19.2472347794
 20
14.2969232574
 30
0.0
 10
19.2461472065
 20
14.2988203494
 30
0.0
 10
19.2448997659
 20
14.3006836757
 30
0.0
 10
19.2434957722
 20
14.3025089243
 30
0.0
 10
19.2419387793
 20
14.3042918697
 30
0.0
 10
19.240232282
 20
14.3060280912
 30
0.0
 10
19.2377289052
 20
14.308306933
 30
0.0
 10
19.2342374995
 20
14.3110095206
 30
0.0
 10
19.2295866527
 20
14.3139571669
 30
0.0
 10
19.2244608844
 20
14.3166269609
 30
0.0
 10
19.2189093644
 20
14.3189940366
 30
0.0
 10
19.212984701
 20
14.3210363297
 30
0.0
 10
19.2067432505
 20
14.3227343464
 30
0.0
 10
19.2002445588
 20
14.3240721181
 30
0.0
 10
19.1935506874
 20
14.3250369803
 30
0.0
 10
19.1867255912
 20
14.3256195431
 30
0.0
 10
19.1798345638
 20
14.3258142955
 30
0.0
 10
19.1729435399
 20
14.3256194994
 30
0.0
 10
19.1661184641
 20
14.3250368732
 30
0.0
 10
19.1594245994
 20
14.3240719898
 30
0.0
 10
19.1529259225
 20
14.3227341439
 30
0.0
 10
19.1466846543
 20
14.3210360879
 30
0.0
 10
19.140759726
 20
14.3189938108
 30
0.0
 10
19.1352087402
 20
14.3166266789
 30
0.0
 10
19.1317106748
 20
14.3148047372
 30
0.0
 10
19.1300426849
 20
14.3138417285
 30
0.0
  0
SPLINE
  5
596
100
AcDbEntity
  8
0
100
AcDbSpline
 62
7
  6
CONTINUOUS
 70
0
 71
3
 72
21
 73
17
 74
0
 42
0.0000001
 43
0.0000001
 44
0.0000000001
 40
0.0
 40
0.0
 40
0.0
 40
0.0
 40
0.0752099469
 40
0.1485560739
 40
0.2894150281
 40
0.4225716386
 40
0.486406778
 40
0.5484972475
 40
0.6089442829
 40
0.6678762333
 40
0.7254505265
 40
0.7818465316
 40
0.8372677762
 40
0.8919386315
 40
0.9460985159
 40
1.0
 40
1.0
 40
1.0
 40
1.0
 10
19.2379063809
 20
14.2373792344
 30
0.0
 10
19.238844306
 20
14.2379207426
 30
0.0
 10
19.2406747434
 20
14.2390295005
 30
0.0
 10
19.2441404403
 20
14.2413460336
 30
0.0
 10
19.2481026478
 20
14.2444127955
 30
0.0
 10
19.2516251488
 20
14.2477844706
 30
0.0
 10
19.2540805024
 20
14.2505960844
 30
0.0
 10
19.2557179719
 20
14.2527247704
 30
0.0
 10
19.2571728388
 20
14.2548978526
 30
0.0
 10
19.2584412582
 20
14.2571103138
 30
0.0
 10
19.2595204085
 20
14.2593566244
 30
0.0
 10
19.2604072887
 20
14.261631555
 30
0.0
 10
19.2610994437
 20
14.263929577
 30
0.0
 10
19.261595443
 20
14.2662449989
 30
0.0
 10
19.2618935652
 20
14.2685719631
 30
0.0
 10
19.2619598788
 20
14.2701288483
 30
0.0
 10
19.2619599083
 20
14.2709050281
 30
0.0
  0
SPLINE
  5
597
100
AcDbEntity
  8
0
100
AcDbSpline
 62
7
  6
CONTINUOUS
 70
0
 71
3
 72
33
 73
29
 74
0
 42
0.0000001
 43
0.0000001
 44
0.0000000001
 40
0.0
 40
0.0
 40
0.0
 40
0.0
 40
0.0738658525
 40
0.1438349095
 40
0.2098944262
 40
0.2415364332
 40
0.2722986595
 40
0.3022355664
 40
0.3314168304
 40
0.3599266413
 40
0.3878608394
 40
0.4153281803
 40
0.4424473856
 40
0.4693449208
 40
0.4961533557
 40
0.5230070276
 40
0.5500395279
 40
0.5773796526
 40
0.6051488337
 40
0.6334595867
 40
0.6624116333
 40
0.6920927363
 40
0.7225779194
 40
0.7861579323
 40
0.8193666272
 40
0.8535446449
 40
0.9248261676
 40
1.0
 40
1.0
 40
1.0
 40
1.0
 10
19.1300426849
 20
14.3138417285
 30
0.0
 10
19.1284213427
 20
14.3129056518
 30
0.0
 10
19.1253388315
 20
14.3109481395
 30
0.0
 10
19.121135307
 20
14.3076738927
 30
0.0
 10
19.1180750642
 20
14.3047102167
 30
0.0
 10
19.1159529674
 20
14.3022383392
 30
0.0
 10
19.1145441308
 20
14.3003672677
 30
0.0
 10
19.1132993401
 20
14.2984571886
 30
0.0
 10
19.1122218915
 20
14.2965127992
 30
0.0
 10
19.1113143363
 20
14.2945391187
 30
0.0
 10
19.1105794576
 20
14.2925409206
 30
0.0
 10
19.1100191754
 20
14.2905233612
 30
0.0
 10
19.10963482
 20
14.2884916601
 30
0.0
 10
19.1094279508
 20
14.2864510132
 30
0.0
 10
19.1093988883
 20
14.2844068304
 30
0.0
 10
19.1095475931
 20
14.2823644303
 30
0.0
 10
19.1098740703
 20
14.280329218
 30
0.0
 10
19.1103769734
 20
14.2783064575
 30
0.0
 10
19.1110549178
 20
14.276301331
 30
0.0
 10
19.1119063468
 20
14.2743190922
 30
0.0
 10
19.112928514
 20
14.2723645989
 30
0.0
 10
19.1141189205
 20
14.2704426931
 30
0.0
 10
19.1159516982
 20
14.2678950616
 30
0.0
 10
19.1180919366
 20
14.2654683741
 30
0.0
 10
19.1204943007
 20
14.2631760906
 30
0.0
 10
19.1231675608
 20
14.2608917893
 30
0.0
 10
19.1268779155
 20
14.2581963602
 30
0.0
 10
19.1300745367
 20
14.2562989306
 30
0.0
 10
19.1317513071
 20
14.2553941328
 30
0.0
  0
SPLINE
  5
598
100
AcDbEntity
  8
0
100
AcDbSpline
 62
7
  6
CONTINUOUS
 70
0
 71
3
 72
23
 73
19
 74
0
 42
0.0000001
 43
0.0000001
 44
0.0000000001
 40
0.0
 40
0.0
 40
0.0
 40
0.0
 40
0.0565455062
 40
0.1154651779
 40
0.17651137
 40
0.2393879948
 40
0.3037589934
 40
0.3692574542
 40
0.4354952702
 40
0.5020698475
 40
0.5685724742
 40
0.6345959062
 40
0.6997411881
 40
0.7636280837
 40
0.8258979055
 40
0.8862245159
 40
0.9443443542
 40
1.0
 40
1.0
 40
1.0
 40
1.0
 10
19.1317513071
 20
14.2553941328
 30
0.0
 10
19.1334355842
 20
14.2544852843
 30
0.0
 10
19.1369521145
 20
14.2527698253
 30
0.0
 10
19.1425036998
 20
14.2505502325
 30
0.0
 10
19.1483971321
 20
14.248647262
 30
0.0
 10
19.1545782482
 20
14.2470785627
 30
0.0
 10
19.1609907176
 20
14.2458584483
 30
0.0
 10
19.1675757963
 20
14.2449978601
 30
0.0
 10
19.1742732125
 20
14.2445047486
 30
0.0
 10
19.1810216059
 20
14.2443837702
 30
0.0
 10
19.1877591228
 20
14.2446358248
 30
0.0
 10
19.1944240174
 20
14.2452586585
 30
0.0
 10
19.2009552463
 20
14.2462467014
 30
0.0
 10
19.2072930105
 20
14.2475908037
 30
0.0
 10
19.2133792202
 20
14.2492786083
 30
0.0
 10
19.2191588369
 20
14.2512950025
 30
0.0
 10
19.2245779893
 20
14.2536216357
 30
0.0
 10
19.2279959487
 20
14.2554059642
 30
0.0
 10
19.2296273045
 20
14.2563478223
 30
0.0
  0
SPLINE
  5
599
100
AcDbEntity
  8
0
100
AcDbSpline
 62
7
  6
CONTINUOUS
 70
0
 71
3
 72
9
 73
5
 74
0
 42
0.0000001
 43
0.0000001
 44
0.0000000001
 40
0.0
 40
0.0
 40
0.0
 40
0.0
 40
0.4924317693
 40
1.0
 40
1.0
 40
1.0
 40
1.0
 10
19.1957448973
 20
14.2957491923
 30
0.0
 10
19.1989124798
 20
14.2937001775
 30
0.0
 10
19.2052239762
 20
14.2893496925
 30
0.0
 10
19.2112900615
 20
14.284664205
 30
0.0
 10
19.2143065276
 20
14.2822103601
 30
0.0
  0
SPLINE
  5
59A
100
AcDbEntity
  8
0
100
AcDbSpline
 62
7
  6
CONTINUOUS
 70
0
 71
3
 72
9
 73
5
 74
0
 42
0.0000001
 43
0.0000001
 44
0.0000000001
 40
0.0
 40
0.0
 40
0.0
 40
0.0
 40
0.4923436136
 40
1.0
 40
1.0
 40
1.0
 40
1.0
 10
19.1983964042
 20
14.3128285059
 30
0.0
 10
19.2010870025
 20
14.3114657357
 30
0.0
 10
19.2064733691
 20
14.3085406191
 30
0.0
 10
19.2116967822
 20
14.3053345762
 30
0.0
 10
19.214306373
 20
14.3036430889
 30
0.0
  0
SPLINE
  5
59B
100
AcDbEntity
  8
0
100
AcDbSpline
 62
7
  6
CONTINUOUS
 70
0
 71
3
 72
9
 73
5
 74
0
 42
0.0000001
 43
0.0000001
 44
0.0000000001
 40
0.0
 40
0.0
 40
0.0
 40
0.0
 40
0.5098074499
 40
1.0
 40
1.0
 40
1.0
 40
1.0
 10
19.1798349285
 20
14.3049346093
 30
0.0
 10
19.1828930066
 20
14.3064875419
 30
0.0
 10
19.1889907489
 20
14.3093430378
 30
0.0
 10
19.1952752545
 20
14.3117635737
 30
0.0
 10
19.1983964042
 20
14.3128285059
 30
0.0
  0
SPLINE
  5
59C
100
AcDbEntity
  8
0
100
AcDbSpline
 62
7
  6
CONTINUOUS
 70
0
 71
3
 72
9
 73
5
 74
0
 42
0.0000001
 43
0.0000001
 44
0.0000000001
 40
0.0
 40
0.0
 40
0.0
 40
0.0
 40
0.4901932229
 40
1.0
 40
1.0
 40
1.0
 40
1.0
 10
19.1612732982
 20
14.3128284167
 30
0.0
 10
19.164394476
 20
14.3117634987
 30
0.0
 10
19.1706790318
 20
14.3093429937
 30
0.0
 10
19.1767768269
 20
14.3064875261
 30
0.0
 10
19.1798349285
 20
14.3049346093
 30
0.0
  0
SPLINE
  5
59D
100
AcDbEntity
  8
0
100
AcDbSpline
 62
7
  6
CONTINUOUS
 70
0
 71
3
 72
9
 73
5
 74
0
 42
0.0000001
 43
0.0000001
 44
0.0000000001
 40
0.0
 40
0.0
 40
0.0
 40
0.0
 40
0.5075687381
 40
1.0
 40
1.0
 40
1.0
 40
1.0
 10
19.1453636164
 20
14.2822101944
 30
0.0
 10
19.1483800589
 20
14.284664055
 30
0.0
 10
19.1544460921
 20
14.2893495704
 30
0.0
 10
19.1607575375
 20
14.2937000868
 30
0.0
 10
19.1639250921
 20
14.2957491158
 30
0.0
  0
SPLINE
  5
59E
100
AcDbEntity
  8
0
100
AcDbSpline
 62
7
  6
CONTINUOUS
 70
0
 71
3
 72
26
 73
22
 74
0
 42
0.0000001
 43
0.0000001
 44
0.0000000001
 40
0.0
 40
0.0
 40
0.0
 40
0.0
 40
0.0240737965
 40
0.04821713
 40
0.0724988113
 40
0.0969852992
 40
0.1217401665
 40
0.1468239031
 40
0.1981760917
 40
0.2514548988
 40
0.3069691838
 40
0.3649418078
 40
0.4255165691
 40
0.4887623171
 40
0.5546816003
 40
0.6232189661
 40
0.6942665021
 40
0.767673894
 40
0.843250534
 40
0.9207759923
 40
1.0
 40
1.0
 40
1.0
 40
1.0
 10
19.097710081
 20
14.2709060065
 30
0.0
 10
19.0977100796
 20
14.270304029
 30
0.0
 10
19.097749864
 20
14.2690979584
 30
0.0
 10
19.0979288478
 20
14.2672927009
 30
0.0
 10
19.0982270569
 20
14.2654927479
 30
0.0
 10
19.0986437587
 20
14.2637008534
 30
0.0
 10
19.099178307
 20
14.2619195463
 30
0.0
 10
19.1000539019
 20
14.2595441093
 30
0.0
 10
19.1014498511
 20
14.2566073842
 30
0.0
 10
19.1035661131
 20
14.2531989413
 30
0.0
 10
19.1061237751
 20
14.2498966341
 30
0.0
 10
19.1091068415
 20
14.2467190005
 30
0.0
 10
19.1124977681
 20
14.2436835809
 30
0.0
 10
19.1162767717
 20
14.2408072501
 30
0.0
 10
19.1204219435
 20
14.2381059036
 30
0.0
 10
19.1249095771
 20
14.2355949748
 30
0.0
 10
19.1297137106
 20
14.2332882795
 30
0.0
 10
19.1348069203
 20
14.231199398
 30
0.0
 10
19.1401597691
 20
14.2293396941
 30
0.0
 10
19.1457414608
 20
14.2277204589
 30
0.0
 10
19.1495570783
 20
14.2268157142
 30
0.0
 10
19.1514949387
 20
14.2264043705
 30
0.0
  0
SPLINE
  5
59F
100
AcDbEntity
  8
0
100
AcDbSpline
 62
7
  6
CONTINUOUS
 70
0
 71
3
 72
15
 73
11
 74
0
 42
0.0000001
 43
0.0000001
 44
0.0000000001
 40
0.0
 40
0.0
 40
0.0
 40
0.0
 40
0.1227526931
 40
0.2474243399
 40
0.3733925304
 40
0.5000129832
 40
0.6266318847
 40
0.7525952182
 40
0.8772583014
 40
1.0
 40
1.0
 40
1.0
 40
1.0
 10
19.1514949387
 20
14.2264043705
 30
0.0
 10
19.1537808175
 20
14.2259191541
 30
0.0
 10
19.1584164588
 20
14.2250693659
 30
0.0
 10
19.1654694123
 20
14.2241606906
 30
0.0
 10
19.1726335158
 20
14.2236129697
 30
0.0
 10
19.1798531851
 20
14.2234306658
 30
0.0
 10
19.1870727159
 20
14.2236148089
 30
0.0
 10
19.1942363921
 20
14.2241643766
 30
0.0
 10
19.2012886486
 20
14.2250748256
 30
0.0
 10
19.2059236923
 20
14.2259258155
 30
0.0
 10
19.2082092302
 20
14.2264116294
 30
0.0
  0
SPLINE
  5
5A0
100
AcDbEntity
  8
0
100
AcDbSpline
 62
7
  6
CONTINUOUS
 70
0
 71
3
 72
11
 73
7
 74
0
 42
0.0000001
 43
0.0000001
 44
0.0000000001
 40
0.0
 40
0.0
 40
0.0
 40
0.0
 40
0.2608695352
 40
0.5148851897
 40
0.7614747405
 40
1.0
 40
1.0
 40
1.0
 40
1.0
 10
19.2193468496
 20
14.2293400726
 30
0.0
 10
19.2210265275
 20
14.2298722595
 30
0.0
 10
19.2243172907
 20
14.2310020623
 30
0.0
 10
19.2290928845
 20
14.2329176345
 30
0.0
 10
19.2336217876
 20
14.2350237584
 30
0.0
 10
19.2365111664
 20
14.2365737118
 30
0.0
 10
19.2379063809
 20
14.2373792344
 30
0.0
  0
SPLINE
  5
5A1
100
AcDbEntity
  8
AXIS_COSMETIC_THREADS
100
AcDbSpline
 62
7
  6
CONTINUOUS
 70
0
 71
3
 72
11
 73
7
 74
0
 42
0.0000001
 43
0.0000001
 44
0.0000000001
 40
0.0
 40
0.0
 40
0.0
 40
0.0
 40
0.2375217529
 40
0.4838414541
 40
0.7382320154
 40
1.0
 40
1.0
 40
1.0
 40
1.0
 10
15.8968268398
 20
14.2166812991
 30
0.0
 10
15.8952717091
 20
14.2157834493
 30
0.0
 10
15.892039449
 20
14.2140641935
 30
0.0
 10
15.8869535802
 20
14.2117577107
 30
0.0
 10
15.8815696315
 20
14.2096894548
 30
0.0
 10
15.8778528015
 20
14.2084936164
 30
0.0
 10
15.875953796
 20
14.2079365952
 30
0.0
  0
SPLINE
  5
5A2
100
AcDbEntity
  8
AXIS_COSMETIC_THREADS
100
AcDbSpline
 62
7
  6
CONTINUOUS
 70
0
 71
3
 72
11
 73
7
 74
0
 42
0.0000001
 43
0.0000001
 44
0.0000000001
 40
0.0
 40
0.0
 40
0.0
 40
0.0
 40
0.2421648219
 40
0.4908471688
 40
0.7441369075
 40
1.0
 40
1.0
 40
1.0
 40
1.0
 10
15.875953796
 20
14.2079365952
 30
0.0
 10
15.8731950729
 20
14.2071273995
 30
0.0
 10
15.8675397588
 20
14.2056976031
 30
0.0
 10
15.8588385057
 20
14.2041330416
 30
0.0
 10
15.8498909744
 20
14.2031334433
 30
0.0
 10
15.8438479791
 20
14.2028525944
 30
0.0
 10
15.8408107195
 20
14.2028087094
 30
0.0
  0
SPLINE
  5
5A3
100
AcDbEntity
  8
0
100
AcDbSpline
 62
7
  6
CONTINUOUS
 70
0
 71
3
 72
9
 73
5
 74
0
 42
0.0000001
 43
0.0000001
 44
0.0000000001
 40
0.0
 40
0.0
 40
0.0
 40
0.0
 40
0.5098067771
 40
1.0
 40
1.0
 40
1.0
 40
1.0
 10
15.822845551
 20
14.2957410849
 30
0.0
 10
15.8197874495
 20
14.2972940017
 30
0.0
 10
15.8136896544
 20
14.3001494692
 30
0.0
 10
15.8074050986
 20
14.3025699743
 30
0.0
 10
15.8042839208
 20
14.3036348922
 30
0.0
  0
SPLINE
  5
5A4
100
AcDbEntity
  8
0
100
AcDbSpline
 62
7
  6
CONTINUOUS
 70
0
 71
3
 72
9
 73
5
 74
0
 42
0.0000001
 43
0.0000001
 44
0.0000000001
 40
0.0
 40
0.0
 40
0.0
 40
0.0
 40
0.5076563864
 40
1.0
 40
1.0
 40
1.0
 40
1.0
 10
15.8201940441
 20
14.2730167464
 30
0.0
 10
15.8175844533
 20
14.2747082337
 30
0.0
 10
15.8123610402
 20
14.2779142766
 30
0.0
 10
15.8069746736
 20
14.2808393932
 30
0.0
 10
15.8042840753
 20
14.2822021634
 30
0.0
  0
SPLINE
  5
5A5
100
AcDbEntity
  8
AXIS_COSMETIC_THREADS
100
AcDbSpline
 62
7
  6
CONTINUOUS
 70
0
 71
3
 72
20
 73
16
 74
0
 42
0.0000001
 43
0.0000001
 44
0.0000000001
 40
0.0
 40
0.0
 40
0.0
 40
0.0
 40
0.0752246502
 40
0.1485766399
 40
0.2894315572
 40
0.4225979126
 40
0.5484723996
 40
0.6089213513
 40
0.6678571038
 40
0.725434258
 40
0.7818338421
 40
0.8372587699
 40
0.8919323419
 40
0.9460954852
 40
1.0
 40
1.0
 40
1.0
 40
1.0
 10
15.8968268398
 20
14.2166812991
 30
0.0
 10
15.8977648808
 20
14.2172228741
 30
0.0
 10
15.8995954628
 20
14.2183316909
 30
0.0
 10
15.9030610765
 20
14.2206481112
 30
0.0
 10
15.907023416
 20
14.2237152186
 30
0.0
 10
15.9111911187
 20
14.2277043989
 30
0.0
 10
15.9141272957
 20
14.2312631009
 30
0.0
 10
15.9160930586
 20
14.2341997431
 30
0.0
 10
15.9173616994
 20
14.2364120704
 30
0.0
 10
15.9184407129
 20
14.2386584044
 30
0.0
 10
15.9193275713
 20
14.2409333037
 30
0.0
 10
15.9200199672
 20
14.2432312283
 30
0.0
 10
15.9205157585
 20
14.2455466669
 30
0.0
 10
15.9208139945
 20
14.247873567
 30
0.0
 10
15.9208804025
 20
14.2494304318
 30
0.0
 10
15.9208804232
 20
14.2502065994
 30
0.0
  0
SPLINE
  5
5A6
100
AcDbEntity
  8
0
100
AcDbSpline
 62
7
  6
CONTINUOUS
 70
0
 71
3
 72
9
 73
5
 74
0
 42
0.0000001
 43
0.0000001
 44
0.0000000001
 40
0.0
 40
0.0
 40
0.0
 40
0.0
 40
0.4901934393
 40
1.0
 40
1.0
 40
1.0
 40
1.0
 10
15.8732268319
 20
14.3036350579
 30
0.0
 10
15.8701056766
 20
14.3025701238
 30
0.0
 10
15.8638211712
 20
14.3001495874
 30
0.0
 10
15.857723429
 20
14.2972940912
 30
0.0
 10
15.8546653562
 20
14.2957411614
 30
0.0
  0
SPLINE
  5
5A7
100
AcDbEntity
  8
0
100
AcDbSpline
 62
7
  6
CONTINUOUS
 70
0
 71
3
 72
42
 73
38
 74
0
 42
0.0000001
 43
0.0000001
 44
0.0000000001
 40
0.0
 40
0.0
 40
0.0
 40
0.0
 40
0.0305590132
 40
0.0617444954
 40
0.125786473
 40
0.158614662
 40
0.1919097869
 40
0.2255994013
 40
0.2596025449
 40
0.2938319018
 40
0.3281937641
 40
0.3625897836
 40
0.3969217556
 40
0.4310924572
 40
0.4650095638
 40
0.4985867885
 40
0.531747202
 40
0.5644256797
 40
0.5965700921
 40
0.6281460545
 40
0.6591346048
 40
0.689538682
 40
0.7193779403
 40
0.7486924084
 40
0.7775396151
 40
0.8059873356
 40
0.8341177922
 40
0.8620040195
 40
0.875886159
 40
0.8897346653
 40
0.9035580181
 40
0.9173661097
 40
0.9311603752
 40
0.9449387152
 40
0.9587009868
 40
0.9724551034
 40
1.0
 40
1.0
 40
1.0
 40
1.0
 10
15.7845674167
 20
14.3130082338
 30
0.0
 10
15.786029594
 20
14.3138524172
 30
0.0
 10
15.7890398737
 20
14.3154630265
 30
0.0
 10
15.7953554728
 20
14.3183703878
 30
0.0
 10
15.8020268003
 20
14.3207752058
 30
0.0
 10
15.8089596028
 20
14.3226941857
 30
0.0
 10
15.8143423719
 20
14.3239037093
 30
0.0
 10
15.8198400137
 20
14.3248676836
 30
0.0
 10
15.8254274526
 20
14.3255837026
 30
0.0
 10
15.8310784886
 20
14.3260494734
 30
0.0
 10
15.8367663346
 20
14.3262637288
 30
0.0
 10
15.8424637495
 20
14.3262256336
 30
0.0
 10
15.8481433293
 20
14.3259353426
 30
0.0
 10
15.8537779394
 20
14.3253938319
 30
0.0
 10
15.8593408964
 20
14.3246027058
 30
0.0
 10
15.8648063485
 20
14.3235644375
 30
0.0
 10
15.8701493877
 20
14.32228163
 30
0.0
 10
15.8753463887
 20
14.3207575865
 30
0.0
 10
15.8803749761
 20
14.318995132
 30
0.0
 10
15.8852141337
 20
14.316997253
 30
0.0
 10
15.8898440486
 20
14.3147660621
 30
0.0
 10
15.894245563
 20
14.3123028851
 30
0.0
 10
15.8984001267
 20
14.3096084896
 30
0.0
 10
15.9022881063
 20
14.3066820592
 30
0.0
 10
15.9058891356
 20
14.3035235918
 30
0.0
 10
15.9091794994
 20
14.3001322348
 30
0.0
 10
15.9121325115
 20
14.2965110502
 30
0.0
 10
15.9142910331
 20
14.2933009782
 30
0.0
 10
15.9158140508
 20
14.2906309252
 30
0.0
 10
15.9168504601
 20
14.2885811752
 30
0.0
 10
15.9177780351
 20
14.2864843905
 30
0.0
 10
15.9185919355
 20
14.2843440668
 30
0.0
 10
15.9192886552
 20
14.2821653616
 30
0.0
 10
15.9198647812
 20
14.2799543248
 30
0.0
 10
15.9203165661
 20
14.2777166472
 30
0.0
 10
15.920749378
 20
14.2747043855
 30
0.0
 10
15.9208804536
 20
14.2724198209
 30
0.0
 10
15.9208804536
 20
14.2708979754
 30
0.0
  0
SPLINE
  5
5A8
100
AcDbEntity
  8
0
100
AcDbSpline
 62
7
  6
CONTINUOUS
 70
0
 71
3
 72
20
 73
16
 74
0
 42
0.0000001
 43
0.0000001
 44
0.0000000001
 40
0.0
 40
0.0
 40
0.0
 40
0.0
 40
0.0609401649
 40
0.1217431877
 40
0.1825782244
 40
0.2435166113
 40
0.3045472054
 40
0.365680275
 40
0.4269971898
 40
0.4885634463
 40
0.612725663
 40
0.6755444087
 40
0.7389591495
 40
0.8678951125
 40
1.0
 40
1.0
 40
1.0
 40
1.0
 10
15.7566304536
 20
14.2708979754
 30
0.0
 10
15.7566304536
 20
14.2719738641
 30
0.0
 10
15.7567175027
 20
14.2741242297
 30
0.0
 10
15.7571072604
 20
14.2773272991
 30
0.0
 10
15.7577519625
 20
14.2804890231
 30
0.0
 10
15.7586429172
 20
14.2835943056
 30
0.0
 10
15.7597700978
 20
14.2866273767
 30
0.0
 10
15.7611239604
 20
14.2895733908
 30
0.0
 10
15.762690802
 20
14.2924225838
 30
0.0
 10
15.765053796
 20
14.2960918273
 30
0.0
 10
15.7677953368
 20
14.2995361559
 30
0.0
 10
15.7708510819
 20
14.3027331274
 30
0.0
 10
15.7741483874
 20
14.3058062015
 30
0.0
 10
15.7786563969
 20
14.3093582889
 30
0.0
 10
15.782547591
 20
14.3118420938
 30
0.0
 10
15.7845674167
 20
14.3130082338
 30
0.0
  0
SPLINE
  5
5A9
100
AcDbEntity
  8
0
100
AcDbSpline
 62
7
  6
CONTINUOUS
 70
0
 71
3
 72
50
 73
46
 74
0
 42
0.0000001
 43
0.0000001
 44
0.0000000001
 40
0.0
 40
0.0
 40
0.0
 40
0.0
 40
0.030980706
 40
0.060363468
 40
0.0881394942
 40
0.1014552877
 40
0.1144071414
 40
0.1270161715
 40
0.1393091554
 40
0.1513189377
 40
0.1630829382
 40
0.1746436149
 40
0.1860477744
 40
0.1973453635
 40
0.2085890724
 40
0.2198327864
 40
0.2311304031
 40
0.2425345967
 40
0.2540953334
 40
0.2658594634
 40
0.2778693585
 40
0.2901623537
 40
0.3027712205
 40
0.3157229204
 40
0.3290390759
 40
0.3427369001
 40
0.3568279717
 40
0.3862055048
 40
0.4171908559
 40
0.4497341695
 40
0.4837358306
 40
0.5190562369
 40
0.5555230197
 40
0.5929368193
 40
0.6310781975
 40
0.6697129272
 40
0.7085966077
 40
0.7474803042
 40
0.7861149898
 40
0.8242561402
 40
0.8616701906
 40
0.8981367918
 40
0.9334548658
 40
0.9674614852
 40
1.0
 40
1.0
 40
1.0
 40
1.0
 10
15.8885477634
 20
14.2563397913
 30
0.0
 10
15.890135897
 20
14.2572566951
 30
0.0
 10
15.8931585205
 20
14.25917255
 30
0.0
 10
15.8972904531
 20
14.2623706461
 30
0.0
 10
15.9003109584
 20
14.2652618718
 30
0.0
 10
15.9024162641
 20
14.2676727011
 30
0.0
 10
15.9038202989
 20
14.269497966
 30
0.0
 10
15.9050677489
 20
14.2713612958
 30
0.0
 10
15.906155321
 20
14.273258394
 30
0.0
 10
15.9070805961
 20
14.2751845171
 30
0.0
 10
15.9078410034
 20
14.2771351768
 30
0.0
 10
15.9084344387
 20
14.2791056456
 30
0.0
 10
15.9088596743
 20
14.2810909919
 30
0.0
 10
15.9091152333
 20
14.2830863841
 30
0.0
 10
15.9092003832
 20
14.285086792
 30
0.0
 10
15.9091152349
 20
14.2870872025
 30
0.0
 10
15.9088596466
 20
14.2890825947
 30
0.0
 10
15.9084344184
 20
14.2910679491
 30
0.0
 10
15.907840978
 20
14.2930384315
 30
0.0
 10
15.9070805276
 20
14.2949890934
 30
0.0
 10
15.9061552383
 20
14.2969152265
 30
0.0
 10
15.9050676654
 20
14.2988123184
 30
0.0
 10
15.9038202249
 20
14.3006756447
 30
0.0
 10
15.9024162312
 20
14.3025008933
 30
0.0
 10
15.9008592382
 20
14.3042838387
 30
0.0
 10
15.899152741
 20
14.3060200603
 30
0.0
 10
15.8966493641
 20
14.308298902
 30
0.0
 10
15.8931579584
 20
14.3110014897
 30
0.0
 10
15.8885071116
 20
14.313949136
 30
0.0
 10
15.8833813433
 20
14.31661893
 30
0.0
 10
15.8778298233
 20
14.3189860056
 30
0.0
 10
15.8719051599
 20
14.3210282988
 30
0.0
 10
15.8656637094
 20
14.3227263155
 30
0.0
 10
15.8591650177
 20
14.3240640872
 30
0.0
 10
15.8524711463
 20
14.3250289494
 30
0.0
 10
15.8456460501
 20
14.3256115121
 30
0.0
 10
15.8387550227
 20
14.3258062645
 30
0.0
 10
15.8318639988
 20
14.3256114684
 30
0.0
 10
15.825038923
 20
14.3250288422
 30
0.0
 10
15.8183450583
 20
14.3240639588
 30
0.0
 10
15.8118463814
 20
14.322726113
 30
0.0
 10
15.8056051133
 20
14.321028057
 30
0.0
 10
15.7996801849
 20
14.3189857798
 30
0.0
 10
15.7941291991
 20
14.3166186479
 30
0.0
 10
15.7906311338
 20
14.3147967063
 30
0.0
 10
15.7889631438
 20
14.3138336976
 30
0.0
  0
SPLINE
  5
5AA
100
AcDbEntity
  8
0
100
AcDbSpline
 62
7
  6
CONTINUOUS
 70
0
 71
3
 72
21
 73
17
 74
0
 42
0.0000001
 43
0.0000001
 44
0.0000000001
 40
0.0
 40
0.0
 40
0.0
 40
0.0
 40
0.0752099469
 40
0.1485560739
 40
0.2894150281
 40
0.4225716386
 40
0.486406778
 40
0.5484972475
 40
0.6089442829
 40
0.6678762333
 40
0.7254505265
 40
0.7818465316
 40
0.8372677762
 40
0.8919386315
 40
0.9460985159
 40
1.0
 40
1.0
 40
1.0
 40
1.0
 10
15.8968268398
 20
14.2373712035
 30
0.0
 10
15.8977647649
 20
14.2379127116
 30
0.0
 10
15.8995952024
 20
14.2390214695
 30
0.0
 10
15.9030608993
 20
14.2413380026
 30
0.0
 10
15.9070231067
 20
14.2444047645
 30
0.0
 10
15.9105456077
 20
14.2477764396
 30
0.0
 10
15.9130009613
 20
14.2505880535
 30
0.0
 10
15.9146384308
 20
14.2527167395
 30
0.0
 10
15.9160932977
 20
14.2548898216
 30
0.0
 10
15.9173617172
 20
14.2571022828
 30
0.0
 10
15.9184408674
 20
14.2593485934
 30
0.0
 10
15.9193277476
 20
14.2616235241
 30
0.0
 10
15.9200199026
 20
14.263921546
 30
0.0
 10
15.9205159019
 20
14.266236968
 30
0.0
 10
15.9208140242
 20
14.2685639321
 30
0.0
 10
15.9208803377
 20
14.2701208173
 30
0.0
 10
15.9208803673
 20
14.2708969972
 30
0.0
  0
SPLINE
  5
5AB
100
AcDbEntity
  8
0
100
AcDbSpline
 62
7
  6
CONTINUOUS
 70
0
 71
3
 72
33
 73
29
 74
0
 42
0.0000001
 43
0.0000001
 44
0.0000000001
 40
0.0
 40
0.0
 40
0.0
 40
0.0
 40
0.0738658525
 40
0.1438349095
 40
0.2098944262
 40
0.2415364332
 40
0.2722986595
 40
0.3022355664
 40
0.3314168304
 40
0.3599266413
 40
0.3878608394
 40
0.4153281803
 40
0.4424473856
 40
0.4693449208
 40
0.4961533557
 40
0.5230070276
 40
0.5500395279
 40
0.5773796526
 40
0.6051488337
 40
0.6334595867
 40
0.6624116333
 40
0.6920927363
 40
0.7225779194
 40
0.7861579323
 40
0.8193666272
 40
0.8535446449
 40
0.9248261676
 40
1.0
 40
1.0
 40
1.0
 40
1.0
 10
15.7889631438
 20
14.3138336976
 30
0.0
 10
15.7873418017
 20
14.3128976208
 30
0.0
 10
15.7842592904
 20
14.3109401085
 30
0.0
 10
15.780055766
 20
14.3076658617
 30
0.0
 10
15.7769955232
 20
14.3047021857
 30
0.0
 10
15.7748734263
 20
14.3022303083
 30
0.0
 10
15.7734645897
 20
14.3003592367
 30
0.0
 10
15.772219799
 20
14.2984491576
 30
0.0
 10
15.7711423504
 20
14.2965047683
 30
0.0
 10
15.7702347953
 20
14.2945310877
 30
0.0
 10
15.7694999165
 20
14.2925328896
 30
0.0
 10
15.7689396343
 20
14.2905153302
 30
0.0
 10
15.768555279
 20
14.2884836291
 30
0.0
 10
15.7683484097
 20
14.2864429822
 30
0.0
 10
15.7683193473
 20
14.2843987994
 30
0.0
 10
15.768468052
 20
14.2823563993
 30
0.0
 10
15.7687945292
 20
14.280321187
 30
0.0
 10
15.7692974323
 20
14.2782984265
 30
0.0
 10
15.7699753767
 20
14.2762933001
 30
0.0
 10
15.7708268057
 20
14.2743110612
 30
0.0
 10
15.7718489729
 20
14.2723565679
 30
0.0
 10
15.7730393794
 20
14.2704346622
 30
0.0
 10
15.7748721571
 20
14.2678870306
 30
0.0
 10
15.7770123955
 20
14.2654603431
 30
0.0
 10
15.7794147596
 20
14.2631680596
 30
0.0
 10
15.7820880197
 20
14.2608837583
 30
0.0
 10
15.7857983744
 20
14.2581883292
 30
0.0
 10
15.7889949956
 20
14.2562908997
 30
0.0
 10
15.790671766
 20
14.2553861018
 30
0.0
  0
SPLINE
  5
5AC
100
AcDbEntity
  8
0
100
AcDbSpline
 62
7
  6
CONTINUOUS
 70
0
 71
3
 72
23
 73
19
 74
0
 42
0.0000001
 43
0.0000001
 44
0.0000000001
 40
0.0
 40
0.0
 40
0.0
 40
0.0
 40
0.0565455062
 40
0.1154651779
 40
0.17651137
 40
0.2393879948
 40
0.3037589934
 40
0.3692574542
 40
0.4354952702
 40
0.5020698475
 40
0.5685724742
 40
0.6345959062
 40
0.6997411881
 40
0.7636280837
 40
0.8258979055
 40
0.8862245159
 40
0.9443443542
 40
1.0
 40
1.0
 40
1.0
 40
1.0
 10
15.790671766
 20
14.2553861018
 30
0.0
 10
15.7923560431
 20
14.2544772534
 30
0.0
 10
15.7958725735
 20
14.2527617944
 30
0.0
 10
15.8014241587
 20
14.2505422015
 30
0.0
 10
15.807317591
 20
14.248639231
 30
0.0
 10
15.8134987071
 20
14.2470705318
 30
0.0
 10
15.8199111766
 20
14.2458504173
 30
0.0
 10
15.8264962552
 20
14.2449898291
 30
0.0
 10
15.8331936714
 20
14.2444967177
 30
0.0
 10
15.8399420648
 20
14.2443757392
 30
0.0
 10
15.8466795818
 20
14.2446277938
 30
0.0
 10
15.8533444763
 20
14.2452506275
 30
0.0
 10
15.8598757053
 20
14.2462386705
 30
0.0
 10
15.8662134694
 20
14.2475827728
 30
0.0
 10
15.8722996792
 20
14.2492705773
 30
0.0
 10
15.8780792958
 20
14.2512869715
 30
0.0
 10
15.8834984483
 20
14.2536136048
 30
0.0
 10
15.8869164076
 20
14.2553979332
 30
0.0
 10
15.8885477634
 20
14.2563397913
 30
0.0
  0
SPLINE
  5
5AD
100
AcDbEntity
  8
0
100
AcDbSpline
 62
7
  6
CONTINUOUS
 70
0
 71
3
 72
9
 73
5
 74
0
 42
0.0000001
 43
0.0000001
 44
0.0000000001
 40
0.0
 40
0.0
 40
0.0
 40
0.0
 40
0.4924317693
 40
1.0
 40
1.0
 40
1.0
 40
1.0
 10
15.8546653562
 20
14.2957411614
 30
0.0
 10
15.8578329388
 20
14.2936921465
 30
0.0
 10
15.8641444351
 20
14.2893416615
 30
0.0
 10
15.8702105204
 20
14.284656174
 30
0.0
 10
15.8732269865
 20
14.2822023291
 30
0.0
  0
SPLINE
  5
5AE
100
AcDbEntity
  8
0
100
AcDbSpline
 62
7
  6
CONTINUOUS
 70
0
 71
3
 72
9
 73
5
 74
0
 42
0.0000001
 43
0.0000001
 44
0.0000000001
 40
0.0
 40
0.0
 40
0.0
 40
0.0
 40
0.4923436136
 40
1.0
 40
1.0
 40
1.0
 40
1.0
 10
15.8573168631
 20
14.3128204749
 30
0.0
 10
15.8600074614
 20
14.3114577047
 30
0.0
 10
15.865393828
 20
14.3085325881
 30
0.0
 10
15.8706172411
 20
14.3053265453
 30
0.0
 10
15.8732268319
 20
14.3036350579
 30
0.0
  0
SPLINE
  5
5AF
100
AcDbEntity
  8
0
100
AcDbSpline
 62
7
  6
CONTINUOUS
 70
0
 71
3
 72
9
 73
5
 74
0
 42
0.0000001
 43
0.0000001
 44
0.0000000001
 40
0.0
 40
0.0
 40
0.0
 40
0.0
 40
0.5098074499
 40
1.0
 40
1.0
 40
1.0
 40
1.0
 10
15.8387553874
 20
14.3049265783
 30
0.0
 10
15.8418134655
 20
14.3064795109
 30
0.0
 10
15.8479112078
 20
14.3093350069
 30
0.0
 10
15.8541957134
 20
14.3117555427
 30
0.0
 10
15.8573168631
 20
14.3128204749
 30
0.0
  0
SPLINE
  5
5B0
100
AcDbEntity
  8
0
100
AcDbSpline
 62
7
  6
CONTINUOUS
 70
0
 71
3
 72
9
 73
5
 74
0
 42
0.0000001
 43
0.0000001
 44
0.0000000001
 40
0.0
 40
0.0
 40
0.0
 40
0.0
 40
0.4901932229
 40
1.0
 40
1.0
 40
1.0
 40
1.0
 10
15.8201937571
 20
14.3128203857
 30
0.0
 10
15.8233149349
 20
14.3117554677
 30
0.0
 10
15.8295994908
 20
14.3093349627
 30
0.0
 10
15.8356972858
 20
14.3064794951
 30
0.0
 10
15.8387553874
 20
14.3049265783
 30
0.0
  0
SPLINE
  5
5B1
100
AcDbEntity
  8
0
100
AcDbSpline
 62
7
  6
CONTINUOUS
 70
0
 71
3
 72
9
 73
5
 74
0
 42
0.0000001
 43
0.0000001
 44
0.0000000001
 40
0.0
 40
0.0
 40
0.0
 40
0.0
 40
0.5075687381
 40
1.0
 40
1.0
 40
1.0
 40
1.0
 10
15.8042840753
 20
14.2822021634
 30
0.0
 10
15.8073005178
 20
14.2846560241
 30
0.0
 10
15.813366551
 20
14.2893415394
 30
0.0
 10
15.8196779964
 20
14.2936920558
 30
0.0
 10
15.822845551
 20
14.2957410849
 30
0.0
  0
SPLINE
  5
5B2
100
AcDbEntity
  8
0
100
AcDbSpline
 62
7
  6
CONTINUOUS
 70
0
 71
3
 72
20
 73
16
 74
0
 42
0.0000001
 43
0.0000001
 44
0.0000000001
 40
0.0
 40
0.0
 40
0.0
 40
0.0
 40
0.0544329361
 40
0.1091039585
 40
0.1642463672
 40
0.2200822448
 40
0.2768208818
 40
0.334654062
 40
0.3937517477
 40
0.4542647818
 40
0.5163215591
 40
0.5800255163
 40
0.7126426073
 40
0.8525932122
 40
1.0
 40
1.0
 40
1.0
 40
1.0
 10
15.7566305399
 20
14.2708979755
 30
0.0
 10
15.7566305382
 20
14.2701567201
 30
0.0
 10
15.7566909371
 20
14.2686702634
 30
0.0
 10
15.7569626888
 20
14.2664478406
 30
0.0
 10
15.7574149529
 20
14.2642354343
 30
0.0
 10
15.7580462811
 20
14.2620381459
 30
0.0
 10
15.7588554747
 20
14.2598609156
 30
0.0
 10
15.7598406066
 20
14.2577086314
 30
0.0
 10
15.7609990548
 20
14.2555858582
 30
0.0
 10
15.7623284046
 20
14.2534973662
 30
0.0
 10
15.7638257123
 20
14.2514476945
 30
0.0
 10
15.7660709248
 20
14.248736268
 30
0.0
 10
15.7692960292
 20
14.2454709575
 30
0.0
 10
15.7737190455
 20
14.2418321204
 30
0.0
 10
15.7769633775
 20
14.2396334105
 30
0.0
 10
15.7786696831
 20
14.2385760627
 30
0.0
  0
SPLINE
  5
5B3
100
AcDbEntity
  8
0
100
AcDbSpline
 62
7
  6
CONTINUOUS
 70
0
 71
3
 72
11
 73
7
 74
0
 42
0.0000001
 43
0.0000001
 44
0.0000000001
 40
0.0
 40
0.0
 40
0.0
 40
0.0
 40
0.2358780307
 40
0.4819563586
 40
0.7371120011
 40
1.0
 40
1.0
 40
1.0
 40
1.0
 10
15.7827489868
 20
14.2362200288
 30
0.0
 10
15.7847879062
 20
14.2351224617
 30
0.0
 10
15.789050608
 20
14.2330559502
 30
0.0
 10
15.7957879511
 20
14.2303995952
 30
0.0
 10
15.8029471385
 20
14.2281415998
 30
0.0
 10
15.8078909266
 20
14.2269322013
 30
0.0
 10
15.8104153976
 20
14.2263963396
 30
0.0
  0
SPLINE
  5
5B4
100
AcDbEntity
  8
0
100
AcDbSpline
 62
7
  6
CONTINUOUS
 70
0
 71
3
 72
15
 73
11
 74
0
 42
0.0000001
 43
0.0000001
 44
0.0000000001
 40
0.0
 40
0.0
 40
0.0
 40
0.0
 40
0.1227526931
 40
0.2474243399
 40
0.3733925304
 40
0.5000129832
 40
0.6266318847
 40
0.7525952182
 40
0.8772583014
 40
1.0
 40
1.0
 40
1.0
 40
1.0
 10
15.8104153976
 20
14.2263963396
 30
0.0
 10
15.8127012764
 20
14.2259111231
 30
0.0
 10
15.8173369177
 20
14.2250613349
 30
0.0
 10
15.8243898713
 20
14.2241526596
 30
0.0
 10
15.8315539747
 20
14.2236049387
 30
0.0
 10
15.838773644
 20
14.2234226348
 30
0.0
 10
15.8459931748
 20
14.2236067779
 30
0.0
 10
15.853156851
 20
14.2241563457
 30
0.0
 10
15.8602091075
 20
14.2250667947
 30
0.0
 10
15.8648441512
 20
14.2259177845
 30
0.0
 10
15.8671296892
 20
14.2264035985
 30
0.0
  0
SPLINE
  5
5B5
100
AcDbEntity
  8
0
100
AcDbSpline
 62
7
  6
CONTINUOUS
 70
0
 71
3
 72
11
 73
7
 74
0
 42
0.0000001
 43
0.0000001
 44
0.0000000001
 40
0.0
 40
0.0
 40
0.0
 40
0.0
 40
0.2608695352
 40
0.5148851897
 40
0.7614747405
 40
1.0
 40
1.0
 40
1.0
 40
1.0
 10
15.8782673086
 20
14.2293320417
 30
0.0
 10
15.8799469864
 20
14.2298642285
 30
0.0
 10
15.8832377496
 20
14.2309940313
 30
0.0
 10
15.8880133434
 20
14.2329096036
 30
0.0
 10
15.8925422465
 20
14.2350157274
 30
0.0
 10
15.8954316254
 20
14.2365656809
 30
0.0
 10
15.8968268398
 20
14.2373712035
 30
0.0
  0
SPLINE
  5
5B6
100
AcDbEntity
  8
AXIS_COSMETIC_THREADS
100
AcDbSpline
 62
7
  6
CONTINUOUS
 70
0
 71
3
 72
11
 73
7
 74
0
 42
0.0000001
 43
0.0000001
 44
0.0000000001
 40
0.0
 40
0.0
 40
0.0
 40
0.0
 40
0.2375217529
 40
0.4838414541
 40
0.7382320154
 40
1.0
 40
1.0
 40
1.0
 40
1.0
 10
17.5673735655
 20
13.2522125165
 30
0.0
 10
17.5658184348
 20
13.2513146668
 30
0.0
 10
17.5625861747
 20
13.249595411
 30
0.0
 10
17.5575003059
 20
13.2472889281
 30
0.0
 10
17.5521163572
 20
13.2452206723
 30
0.0
 10
17.5483995271
 20
13.2440248338
 30
0.0
 10
17.5465005217
 20
13.2434678127
 30
0.0
  0
SPLINE
  5
5B7
100
AcDbEntity
  8
AXIS_COSMETIC_THREADS
100
AcDbSpline
 62
7
  6
CONTINUOUS
 70
0
 71
3
 72
11
 73
7
 74
0
 42
0.0000001
 43
0.0000001
 44
0.0000000001
 40
0.0
 40
0.0
 40
0.0
 40
0.0
 40
0.2421648219
 40
0.4908471688
 40
0.7441369075
 40
1.0
 40
1.0
 40
1.0
 40
1.0
 10
17.5465005217
 20
13.2434678127
 30
0.0
 10
17.5437417985
 20
13.242658617
 30
0.0
 10
17.5380864845
 20
13.2412288206
 30
0.0
 10
17.5293852314
 20
13.2396642591
 30
0.0
 10
17.5204377
 20
13.2386646607
 30
0.0
 10
17.5143947048
 20
13.2383838119
 30
0.0
 10
17.5113574452
 20
13.2383399269
 30
0.0
  0
SPLINE
  5
5B8
100
AcDbEntity
  8
0
100
AcDbSpline
 62
7
  6
CONTINUOUS
 70
0
 71
3
 72
9
 73
5
 74
0
 42
0.0000001
 43
0.0000001
 44
0.0000000001
 40
0.0
 40
0.0
 40
0.0
 40
0.0
 40
0.5098067771
 40
1.0
 40
1.0
 40
1.0
 40
1.0
 10
17.4933922767
 20
13.3312723023
 30
0.0
 10
17.4903341752
 20
13.3328252191
 30
0.0
 10
17.4842363801
 20
13.3356806867
 30
0.0
 10
17.4779518243
 20
13.3381011917
 30
0.0
 10
17.4748306464
 20
13.3391661097
 30
0.0
  0
SPLINE
  5
5B9
100
AcDbEntity
  8
0
100
AcDbSpline
 62
7
  6
CONTINUOUS
 70
0
 71
3
 72
9
 73
5
 74
0
 42
0.0000001
 43
0.0000001
 44
0.0000000001
 40
0.0
 40
0.0
 40
0.0
 40
0.0
 40
0.5076563864
 40
1.0
 40
1.0
 40
1.0
 40
1.0
 10
17.4907407698
 20
13.3085479639
 30
0.0
 10
17.488131179
 20
13.3102394512
 30
0.0
 10
17.4829077659
 20
13.313445494
 30
0.0
 10
17.4775213993
 20
13.3163706107
 30
0.0
 10
17.474830801
 20
13.3177333808
 30
0.0
  0
SPLINE
  5
5BA
100
AcDbEntity
  8
AXIS_COSMETIC_THREADS
100
AcDbSpline
 62
7
  6
CONTINUOUS
 70
0
 71
3
 72
20
 73
16
 74
0
 42
0.0000001
 43
0.0000001
 44
0.0000000001
 40
0.0
 40
0.0
 40
0.0
 40
0.0
 40
0.0752246502
 40
0.1485766399
 40
0.2894315572
 40
0.4225979126
 40
0.5484723996
 40
0.6089213513
 40
0.6678571038
 40
0.725434258
 40
0.7818338421
 40
0.8372587699
 40
0.8919323419
 40
0.9460954852
 40
1.0
 40
1.0
 40
1.0
 40
1.0
 10
17.5673735655
 20
13.2522125165
 30
0.0
 10
17.5683116065
 20
13.2527540915
 30
0.0
 10
17.5701421884
 20
13.2538629084
 30
0.0
 10
17.5736078021
 20
13.2561793287
 30
0.0
 10
17.5775701416
 20
13.259246436
 30
0.0
 10
17.5817378443
 20
13.2632356163
 30
0.0
 10
17.5846740213
 20
13.2667943183
 30
0.0
 10
17.5866397843
 20
13.2697309606
 30
0.0
 10
17.587908425
 20
13.2719432879
 30
0.0
 10
17.5889874386
 20
13.2741896219
 30
0.0
 10
17.589874297
 20
13.2764645211
 30
0.0
 10
17.5905666929
 20
13.2787624458
 30
0.0
 10
17.5910624841
 20
13.2810778843
 30
0.0
 10
17.5913607202
 20
13.2834047845
 30
0.0
 10
17.5914271282
 20
13.2849616492
 30
0.0
 10
17.5914271489
 20
13.2857378168
 30
0.0
  0
SPLINE
  5
5BB
100
AcDbEntity
  8
0
100
AcDbSpline
 62
7
  6
CONTINUOUS
 70
0
 71
3
 72
9
 73
5
 74
0
 42
0.0000001
 43
0.0000001
 44
0.0000000001
 40
0.0
 40
0.0
 40
0.0
 40
0.0
 40
0.4901934393
 40
1.0
 40
1.0
 40
1.0
 40
1.0
 10
17.5437735576
 20
13.3391662754
 30
0.0
 10
17.5406524022
 20
13.3381013412
 30
0.0
 10
17.5343678968
 20
13.3356808048
 30
0.0
 10
17.5282701547
 20
13.3328253087
 30
0.0
 10
17.5252120819
 20
13.3312723788
 30
0.0
  0
SPLINE
  5
5BC
100
AcDbEntity
  8
0
100
AcDbSpline
 62
7
  6
CONTINUOUS
 70
0
 71
3
 72
42
 73
38
 74
0
 42
0.0000001
 43
0.0000001
 44
0.0000000001
 40
0.0
 40
0.0
 40
0.0
 40
0.0
 40
0.0305590132
 40
0.0617444954
 40
0.125786473
 40
0.158614662
 40
0.1919097869
 40
0.2255994013
 40
0.2596025449
 40
0.2938319018
 40
0.3281937641
 40
0.3625897836
 40
0.3969217556
 40
0.4310924572
 40
0.4650095638
 40
0.4985867885
 40
0.531747202
 40
0.5644256797
 40
0.5965700921
 40
0.6281460545
 40
0.6591346048
 40
0.689538682
 40
0.7193779403
 40
0.7486924084
 40
0.7775396151
 40
0.8059873356
 40
0.8341177922
 40
0.8620040195
 40
0.875886159
 40
0.8897346653
 40
0.9035580181
 40
0.9173661097
 40
0.9311603752
 40
0.9449387152
 40
0.9587009868
 40
0.9724551034
 40
1.0
 40
1.0
 40
1.0
 40
1.0
 10
17.4551141424
 20
13.3485394513
 30
0.0
 10
17.4565763197
 20
13.3493836347
 30
0.0
 10
17.4595865993
 20
13.350994244
 30
0.0
 10
17.4659021984
 20
13.3539016052
 30
0.0
 10
17.472573526
 20
13.3563064233
 30
0.0
 10
17.4795063284
 20
13.3582254032
 30
0.0
 10
17.4848890976
 20
13.3594349267
 30
0.0
 10
17.4903867393
 20
13.3603989011
 30
0.0
 10
17.4959741782
 20
13.36111492
 30
0.0
 10
17.5016252143
 20
13.3615806909
 30
0.0
 10
17.5073130603
 20
13.3617949463
 30
0.0
 10
17.5130104751
 20
13.361756851
 30
0.0
 10
17.518690055
 20
13.3614665601
 30
0.0
 10
17.5243246651
 20
13.3609250494
 30
0.0
 10
17.5298876221
 20
13.3601339232
 30
0.0
 10
17.5353530742
 20
13.359095655
 30
0.0
 10
17.5406961133
 20
13.3578128474
 30
0.0
 10
17.5458931144
 20
13.356288804
 30
0.0
 10
17.5509217017
 20
13.3545263494
 30
0.0
 10
17.5557608593
 20
13.3525284704
 30
0.0
 10
17.5603907742
 20
13.3502972796
 30
0.0
 10
17.5647922886
 20
13.3478341026
 30
0.0
 10
17.5689468523
 20
13.345139707
 30
0.0
 10
17.572834832
 20
13.3422132766
 30
0.0
 10
17.5764358612
 20
13.3390548093
 30
0.0
 10
17.5797262251
 20
13.3356634522
 30
0.0
 10
17.5826792372
 20
13.3320422676
 30
0.0
 10
17.5848377588
 20
13.3288321956
 30
0.0
 10
17.5863607764
 20
13.3261621427
 30
0.0
 10
17.5873971858
 20
13.3241123926
 30
0.0
 10
17.5883247608
 20
13.322015608
 30
0.0
 10
17.5891386612
 20
13.3198752842
 30
0.0
 10
17.5898353808
 20
13.3176965791
 30
0.0
 10
17.5904115069
 20
13.3154855422
 30
0.0
 10
17.5908632917
 20
13.3132478646
 30
0.0
 10
17.5912961037
 20
13.3102356029
 30
0.0
 10
17.5914271793
 20
13.3079510384
 30
0.0
 10
17.5914271793
 20
13.3064291928
 30
0.0
  0
SPLINE
  5
5BD
100
AcDbEntity
  8
0
100
AcDbSpline
 62
7
  6
CONTINUOUS
 70
0
 71
3
 72
20
 73
16
 74
0
 42
0.0000001
 43
0.0000001
 44
0.0000000001
 40
0.0
 40
0.0
 40
0.0
 40
0.0
 40
0.0609401649
 40
0.1217431877
 40
0.1825782244
 40
0.2435166113
 40
0.3045472054
 40
0.365680275
 40
0.4269971898
 40
0.4885634463
 40
0.612725663
 40
0.6755444087
 40
0.7389591495
 40
0.8678951125
 40
1.0
 40
1.0
 40
1.0
 40
1.0
 10
17.4271771793
 20
13.3064291928
 30
0.0
 10
17.4271771793
 20
13.3075050816
 30
0.0
 10
17.4272642284
 20
13.3096554471
 30
0.0
 10
17.427653986
 20
13.3128585165
 30
0.0
 10
17.4282986881
 20
13.3160202405
 30
0.0
 10
17.4291896429
 20
13.319125523
 30
0.0
 10
17.4303168234
 20
13.3221585942
 30
0.0
 10
17.4316706861
 20
13.3251046082
 30
0.0
 10
17.4332375277
 20
13.3279538013
 30
0.0
 10
17.4356005217
 20
13.3316230448
 30
0.0
 10
17.4383420624
 20
13.3350673734
 30
0.0
 10
17.4413978076
 20
13.3382643449
 30
0.0
 10
17.4446951131
 20
13.3413374189
 30
0.0
 10
17.4492031225
 20
13.3448895063
 30
0.0
 10
17.4530943166
 20
13.3473733113
 30
0.0
 10
17.4551141424
 20
13.3485394513
 30
0.0
  0
SPLINE
  5
5BE
100
AcDbEntity
  8
0
100
AcDbSpline
 62
7
  6
CONTINUOUS
 70
0
 71
3
 72
50
 73
46
 74
0
 42
0.0000001
 43
0.0000001
 44
0.0000000001
 40
0.0
 40
0.0
 40
0.0
 40
0.0
 40
0.030980706
 40
0.060363468
 40
0.0881394942
 40
0.1014552877
 40
0.1144071414
 40
0.1270161715
 40
0.1393091554
 40
0.1513189377
 40
0.1630829382
 40
0.1746436149
 40
0.1860477744
 40
0.1973453635
 40
0.2085890724
 40
0.2198327864
 40
0.2311304031
 40
0.2425345967
 40
0.2540953334
 40
0.2658594634
 40
0.2778693585
 40
0.2901623537
 40
0.3027712205
 40
0.3157229204
 40
0.3290390759
 40
0.3427369001
 40
0.3568279717
 40
0.3862055048
 40
0.4171908559
 40
0.4497341695
 40
0.4837358306
 40
0.5190562369
 40
0.5555230197
 40
0.5929368193
 40
0.6310781975
 40
0.6697129272
 40
0.7085966077
 40
0.7474803042
 40
0.7861149898
 40
0.8242561402
 40
0.8616701906
 40
0.8981367918
 40
0.9334548658
 40
0.9674614852
 40
1.0
 40
1.0
 40
1.0
 40
1.0
 10
17.5590944891
 20
13.2918710087
 30
0.0
 10
17.5606826226
 20
13.2927879126
 30
0.0
 10
17.5637052461
 20
13.2947037674
 30
0.0
 10
17.5678371787
 20
13.2979018635
 30
0.0
 10
17.570857684
 20
13.3007930892
 30
0.0
 10
17.5729629898
 20
13.3032039186
 30
0.0
 10
17.5743670245
 20
13.3050291834
 30
0.0
 10
17.5756144745
 20
13.3068925133
 30
0.0
 10
17.5767020466
 20
13.3087896114
 30
0.0
 10
17.5776273218
 20
13.3107157346
 30
0.0
 10
17.578387729
 20
13.3126663942
 30
0.0
 10
17.5789811643
 20
13.3146368631
 30
0.0
 10
17.5794064
 20
13.3166222094
 30
0.0
 10
17.579661959
 20
13.3186176015
 30
0.0
 10
17.5797471088
 20
13.3206180094
 30
0.0
 10
17.5796619606
 20
13.3226184199
 30
0.0
 10
17.5794063722
 20
13.3246138121
 30
0.0
 10
17.578981144
 20
13.3265991665
 30
0.0
 10
17.5783877037
 20
13.328569649
 30
0.0
 10
17.5776272532
 20
13.3305203108
 30
0.0
 10
17.576701964
 20
13.3324464439
 30
0.0
 10
17.5756143911
 20
13.3343435359
 30
0.0
 10
17.5743669505
 20
13.3362068622
 30
0.0
 10
17.5729629568
 20
13.3380321108
 30
0.0
 10
17.5714059639
 20
13.3398150562
 30
0.0
 10
17.5696994666
 20
13.3415512777
 30
0.0
 10
17.5671960898
 20
13.3438301195
 30
0.0
 10
17.5637046841
 20
13.3465327071
 30
0.0
 10
17.5590538373
 20
13.3494803534
 30
0.0
 10
17.5539280689
 20
13.3521501474
 30
0.0
 10
17.5483765489
 20
13.3545172231
 30
0.0
 10
17.5424518856
 20
13.3565595162
 30
0.0
 10
17.5362104351
 20
13.3582575329
 30
0.0
 10
17.5297117434
 20
13.3595953046
 30
0.0
 10
17.523017872
 20
13.3605601668
 30
0.0
 10
17.5161927757
 20
13.3611427296
 30
0.0
 10
17.5093017483
 20
13.361337482
 30
0.0
 10
17.5024107245
 20
13.3611426858
 30
0.0
 10
17.4955856486
 20
13.3605600597
 30
0.0
 10
17.488891784
 20
13.3595951762
 30
0.0
 10
17.4823931071
 20
13.3582573304
 30
0.0
 10
17.4761518389
 20
13.3565592744
 30
0.0
 10
17.4702269105
 20
13.3545169973
 30
0.0
 10
17.4646759248
 20
13.3521498654
 30
0.0
 10
17.4611778594
 20
13.3503279237
 30
0.0
 10
17.4595098695
 20
13.349364915
 30
0.0
  0
SPLINE
  5
5BF
100
AcDbEntity
  8
0
100
AcDbSpline
 62
7
  6
CONTINUOUS
 70
0
 71
3
 72
21
 73
17
 74
0
 42
0.0000001
 43
0.0000001
 44
0.0000000001
 40
0.0
 40
0.0
 40
0.0
 40
0.0
 40
0.0752099469
 40
0.1485560739
 40
0.2894150281
 40
0.4225716386
 40
0.486406778
 40
0.5484972475
 40
0.6089442829
 40
0.6678762333
 40
0.7254505265
 40
0.7818465316
 40
0.8372677762
 40
0.8919386315
 40
0.9460985159
 40
1.0
 40
1.0
 40
1.0
 40
1.0
 10
17.5673735655
 20
13.2729024209
 30
0.0
 10
17.5683114906
 20
13.273443929
 30
0.0
 10
17.570141928
 20
13.2745526869
 30
0.0
 10
17.5736076249
 20
13.27686922
 30
0.0
 10
17.5775698323
 20
13.279935982
 30
0.0
 10
17.5810923333
 20
13.2833076571
 30
0.0
 10
17.5835476869
 20
13.2861192709
 30
0.0
 10
17.5851851565
 20
13.2882479569
 30
0.0
 10
17.5866400234
 20
13.2904210391
 30
0.0
 10
17.5879084428
 20
13.2926335003
 30
0.0
 10
17.5889875931
 20
13.2948798108
 30
0.0
 10
17.5898744733
 20
13.2971547415
 30
0.0
 10
17.5905666283
 20
13.2994527635
 30
0.0
 10
17.5910626276
 20
13.3017681854
 30
0.0
 10
17.5913607498
 20
13.3040951496
 30
0.0
 10
17.5914270633
 20
13.3056520348
 30
0.0
 10
17.5914270929
 20
13.3064282146
 30
0.0
  0
SPLINE
  5
5C0
100
AcDbEntity
  8
0
100
AcDbSpline
 62
7
  6
CONTINUOUS
 70
0
 71
3
 72
33
 73
29
 74
0
 42
0.0000001
 43
0.0000001
 44
0.0000000001
 40
0.0
 40
0.0
 40
0.0
 40
0.0
 40
0.0738658525
 40
0.1438349095
 40
0.2098944262
 40
0.2415364332
 40
0.2722986595
 40
0.3022355664
 40
0.3314168304
 40
0.3599266413
 40
0.3878608394
 40
0.4153281803
 40
0.4424473856
 40
0.4693449208
 40
0.4961533557
 40
0.5230070276
 40
0.5500395279
 40
0.5773796526
 40
0.6051488337
 40
0.6334595867
 40
0.6624116333
 40
0.6920927363
 40
0.7225779194
 40
0.7861579323
 40
0.8193666272
 40
0.8535446449
 40
0.9248261676
 40
1.0
 40
1.0
 40
1.0
 40
1.0
 10
17.4595098695
 20
13.349364915
 30
0.0
 10
17.4578885273
 20
13.3484288383
 30
0.0
 10
17.454806016
 20
13.3464713259
 30
0.0
 10
17.4506024916
 20
13.3431970792
 30
0.0
 10
17.4475422488
 20
13.3402334032
 30
0.0
 10
17.445420152
 20
13.3377615257
 30
0.0
 10
17.4440113153
 20
13.3358904542
 30
0.0
 10
17.4427665247
 20
13.333980375
 30
0.0
 10
17.4416890761
 20
13.3320359857
 30
0.0
 10
17.4407815209
 20
13.3300623052
 30
0.0
 10
17.4400466422
 20
13.328064107
 30
0.0
 10
17.43948636
 20
13.3260465476
 30
0.0
 10
17.4391020046
 20
13.3240148466
 30
0.0
 10
17.4388951353
 20
13.3219741996
 30
0.0
 10
17.4388660729
 20
13.3199300168
 30
0.0
 10
17.4390147777
 20
13.3178876168
 30
0.0
 10
17.4393412549
 20
13.3158524045
 30
0.0
 10
17.439844158
 20
13.313829644
 30
0.0
 10
17.4405221023
 20
13.3118245175
 30
0.0
 10
17.4413735313
 20
13.3098422787
 30
0.0
 10
17.4423956986
 20
13.3078877854
 30
0.0
 10
17.4435861051
 20
13.3059658796
 30
0.0
 10
17.4454188828
 20
13.303418248
 30
0.0
 10
17.4475591212
 20
13.3009915605
 30
0.0
 10
17.4499614853
 20
13.2986992771
 30
0.0
 10
17.4526347454
 20
13.2964149758
 30
0.0
 10
17.4563451001
 20
13.2937195467
 30
0.0
 10
17.4595417213
 20
13.2918221171
 30
0.0
 10
17.4612184917
 20
13.2909173193
 30
0.0
  0
SPLINE
  5
5C1
100
AcDbEntity
  8
0
100
AcDbSpline
 62
7
  6
CONTINUOUS
 70
0
 71
3
 72
23
 73
19
 74
0
 42
0.0000001
 43
0.0000001
 44
0.0000000001
 40
0.0
 40
0.0
 40
0.0
 40
0.0
 40
0.0565455062
 40
0.1154651779
 40
0.17651137
 40
0.2393879948
 40
0.3037589934
 40
0.3692574542
 40
0.4354952702
 40
0.5020698475
 40
0.5685724742
 40
0.6345959062
 40
0.6997411881
 40
0.7636280837
 40
0.8258979055
 40
0.8862245159
 40
0.9443443542
 40
1.0
 40
1.0
 40
1.0
 40
1.0
 10
17.4612184917
 20
13.2909173193
 30
0.0
 10
17.4629027687
 20
13.2900084708
 30
0.0
 10
17.4664192991
 20
13.2882930118
 30
0.0
 10
17.4719708844
 20
13.286073419
 30
0.0
 10
17.4778643167
 20
13.2841704485
 30
0.0
 10
17.4840454327
 20
13.2826017492
 30
0.0
 10
17.4904579022
 20
13.2813816348
 30
0.0
 10
17.4970429809
 20
13.2805210465
 30
0.0
 10
17.5037403971
 20
13.2800279351
 30
0.0
 10
17.5104887905
 20
13.2799069567
 30
0.0
 10
17.5172263074
 20
13.2801590112
 30
0.0
 10
17.523891202
 20
13.2807818449
 30
0.0
 10
17.5304224309
 20
13.2817698879
 30
0.0
 10
17.5367601951
 20
13.2831139902
 30
0.0
 10
17.5428464048
 20
13.2848017948
 30
0.0
 10
17.5486260215
 20
13.286818189
 30
0.0
 10
17.5540451739
 20
13.2891448222
 30
0.0
 10
17.5574631333
 20
13.2909291506
 30
0.0
 10
17.5590944891
 20
13.2918710087
 30
0.0
  0
SPLINE
  5
5C2
100
AcDbEntity
  8
0
100
AcDbSpline
 62
7
  6
CONTINUOUS
 70
0
 71
3
 72
9
 73
5
 74
0
 42
0.0000001
 43
0.0000001
 44
0.0000000001
 40
0.0
 40
0.0
 40
0.0
 40
0.0
 40
0.4924317693
 40
1.0
 40
1.0
 40
1.0
 40
1.0
 10
17.5252120819
 20
13.3312723788
 30
0.0
 10
17.5283796644
 20
13.329223364
 30
0.0
 10
17.5346911608
 20
13.324872879
 30
0.0
 10
17.5407572461
 20
13.3201873915
 30
0.0
 10
17.5437737121
 20
13.3177335465
 30
0.0
  0
SPLINE
  5
5C3
100
AcDbEntity
  8
0
100
AcDbSpline
 62
7
  6
CONTINUOUS
 70
0
 71
3
 72
9
 73
5
 74
0
 42
0.0000001
 43
0.0000001
 44
0.0000000001
 40
0.0
 40
0.0
 40
0.0
 40
0.0
 40
0.4923436136
 40
1.0
 40
1.0
 40
1.0
 40
1.0
 10
17.5278635888
 20
13.3483516924
 30
0.0
 10
17.5305541871
 20
13.3469889222
 30
0.0
 10
17.5359405537
 20
13.3440638055
 30
0.0
 10
17.5411639668
 20
13.3408577627
 30
0.0
 10
17.5437735576
 20
13.3391662754
 30
0.0
  0
SPLINE
  5
5C4
100
AcDbEntity
  8
0
100
AcDbSpline
 62
7
  6
CONTINUOUS
 70
0
 71
3
 72
9
 73
5
 74
0
 42
0.0000001
 43
0.0000001
 44
0.0000000001
 40
0.0
 40
0.0
 40
0.0
 40
0.0
 40
0.5098074499
 40
1.0
 40
1.0
 40
1.0
 40
1.0
 10
17.509302113
 20
13.3404577958
 30
0.0
 10
17.5123601912
 20
13.3420107283
 30
0.0
 10
17.5184579335
 20
13.3448662243
 30
0.0
 10
17.5247424391
 20
13.3472867601
 30
0.0
 10
17.5278635888
 20
13.3483516924
 30
0.0
  0
SPLINE
  5
5C5
100
AcDbEntity
  8
0
100
AcDbSpline
 62
7
  6
CONTINUOUS
 70
0
 71
3
 72
9
 73
5
 74
0
 42
0.0000001
 43
0.0000001
 44
0.0000000001
 40
0.0
 40
0.0
 40
0.0
 40
0.0
 40
0.4901932229
 40
1.0
 40
1.0
 40
1.0
 40
1.0
 10
17.4907404827
 20
13.3483516031
 30
0.0
 10
17.4938616606
 20
13.3472866852
 30
0.0
 10
17.5001462164
 20
13.3448661801
 30
0.0
 10
17.5062440115
 20
13.3420107126
 30
0.0
 10
17.509302113
 20
13.3404577958
 30
0.0
  0
SPLINE
  5
5C6
100
AcDbEntity
  8
0
100
AcDbSpline
 62
7
  6
CONTINUOUS
 70
0
 71
3
 72
9
 73
5
 74
0
 42
0.0000001
 43
0.0000001
 44
0.0000000001
 40
0.0
 40
0.0
 40
0.0
 40
0.0
 40
0.5075687381
 40
1.0
 40
1.0
 40
1.0
 40
1.0
 10
17.474830801
 20
13.3177333808
 30
0.0
 10
17.4778472434
 20
13.3201872415
 30
0.0
 10
17.4839132767
 20
13.3248727569
 30
0.0
 10
17.4902247221
 20
13.3292232733
 30
0.0
 10
17.4933922767
 20
13.3312723023
 30
0.0
  0
SPLINE
  5
5C7
100
AcDbEntity
  8
0
100
AcDbSpline
 62
7
  6
CONTINUOUS
 70
0
 71
3
 72
20
 73
16
 74
0
 42
0.0000001
 43
0.0000001
 44
0.0000000001
 40
0.0
 40
0.0
 40
0.0
 40
0.0
 40
0.0544329361
 40
0.1091039585
 40
0.1642463672
 40
0.2200822448
 40
0.2768208818
 40
0.334654062
 40
0.3937517477
 40
0.4542647818
 40
0.5163215591
 40
0.5800255163
 40
0.7126426073
 40
0.8525932122
 40
1.0
 40
1.0
 40
1.0
 40
1.0
 10
17.4271772656
 20
13.306429193
 30
0.0
 10
17.4271772638
 20
13.3056879376
 30
0.0
 10
17.4272376627
 20
13.3042014809
 30
0.0
 10
17.4275094144
 20
13.301979058
 30
0.0
 10
17.4279616786
 20
13.2997666517
 30
0.0
 10
17.4285930068
 20
13.2975693634
 30
0.0
 10
17.4294022003
 20
13.295392133
 30
0.0
 10
17.4303873322
 20
13.2932398488
 30
0.0
 10
17.4315457804
 20
13.2911170757
 30
0.0
 10
17.4328751302
 20
13.2890285837
 30
0.0
 10
17.4343724379
 20
13.2869789119
 30
0.0
 10
17.4366176505
 20
13.2842674855
 30
0.0
 10
17.4398427549
 20
13.281002175
 30
0.0
 10
17.4442657712
 20
13.2773633379
 30
0.0
 10
17.4475101032
 20
13.2751646279
 30
0.0
 10
17.4492164088
 20
13.2741072801
 30
0.0
  0
SPLINE
  5
5C8
100
AcDbEntity
  8
0
100
AcDbSpline
 62
7
  6
CONTINUOUS
 70
0
 71
3
 72
11
 73
7
 74
0
 42
0.0000001
 43
0.0000001
 44
0.0000000001
 40
0.0
 40
0.0
 40
0.0
 40
0.0
 40
0.2358780307
 40
0.4819563586
 40
0.7371120011
 40
1.0
 40
1.0
 40
1.0
 40
1.0
 10
17.4532957125
 20
13.2717512462
 30
0.0
 10
17.4553346319
 20
13.2706536792
 30
0.0
 10
17.4595973336
 20
13.2685871677
 30
0.0
 10
17.4663346768
 20
13.2659308126
 30
0.0
 10
17.4734938642
 20
13.2636728172
 30
0.0
 10
17.4784376522
 20
13.2624634187
 30
0.0
 10
17.4809621232
 20
13.261927557
 30
0.0
  0
SPLINE
  5
5C9
100
AcDbEntity
  8
0
100
AcDbSpline
 62
7
  6
CONTINUOUS
 70
0
 71
3
 72
15
 73
11
 74
0
 42
0.0000001
 43
0.0000001
 44
0.0000000001
 40
0.0
 40
0.0
 40
0.0
 40
0.0
 40
0.1227526931
 40
0.2474243399
 40
0.3733925304
 40
0.5000129832
 40
0.6266318847
 40
0.7525952182
 40
0.8772583014
 40
1.0
 40
1.0
 40
1.0
 40
1.0
 10
17.4809621232
 20
13.261927557
 30
0.0
 10
17.4832480021
 20
13.2614423405
 30
0.0
 10
17.4878836434
 20
13.2605925524
 30
0.0
 10
17.4949365969
 20
13.2596838771
 30
0.0
 10
17.5021007004
 20
13.2591361562
 30
0.0
 10
17.5093203697
 20
13.2589538522
 30
0.0
 10
17.5165399005
 20
13.2591379954
 30
0.0
 10
17.5237035767
 20
13.2596875631
 30
0.0
 10
17.5307558332
 20
13.2605980121
 30
0.0
 10
17.5353908768
 20
13.2614490019
 30
0.0
 10
17.5376764148
 20
13.2619348159
 30
0.0
  0
SPLINE
  5
5CA
100
AcDbEntity
  8
0
100
AcDbSpline
 62
7
  6
CONTINUOUS
 70
0
 71
3
 72
11
 73
7
 74
0
 42
0.0000001
 43
0.0000001
 44
0.0000000001
 40
0.0
 40
0.0
 40
0.0
 40
0.0
 40
0.2608695352
 40
0.5148851897
 40
0.7614747405
 40
1.0
 40
1.0
 40
1.0
 40
1.0
 10
17.5488140342
 20
13.2648632591
 30
0.0
 10
17.5504937121
 20
13.265395446
 30
0.0
 10
17.5537844753
 20
13.2665252487
 30
0.0
 10
17.558560069
 20
13.268440821
 30
0.0
 10
17.5630889722
 20
13.2705469449
 30
0.0
 10
17.565978351
 20
13.2720968983
 30
0.0
 10
17.5673735655
 20
13.2729024209
 30
0.0
  0
SPLINE
  5
5CB
100
AcDbEntity
  8
AXIS_COSMETIC_THREADS
100
AcDbSpline
 62
7
  6
CONTINUOUS
 70
0
 71
3
 72
17
 73
13
 74
0
 42
0.0000001
 43
0.0000001
 44
0.0000000001
 40
0.0
 40
0.0
 40
0.0
 40
0.0
 40
0.1485499019
 40
0.2894512721
 40
0.4226410191
 40
0.5485345902
 40
0.6678734998
 40
0.7817908977
 40
0.8372261865
 40
0.8919107931
 40
0.9460848647
 40
1.0
 40
1.0
 40
1.0
 40
1.0
 10
18.7078462083
 20
13.355889635
 30
0.0
 10
18.709368395
 20
13.3567684646
 30
0.0
 10
18.7124073245
 20
13.3583592635
 30
0.0
 10
18.7170426531
 20
13.3602566673
 30
0.0
 10
18.7215955128
 20
13.3615840685
 30
0.0
 10
18.7260228201
 20
13.3623267212
 30
0.0
 10
18.7302828833
 20
13.3624753654
 30
0.0
 10
18.7336922485
 20
13.3620951016
 30
0.0
 10
18.7362750865
 20
13.3614875453
 30
0.0
 10
18.7381270313
 20
13.3608890171
 30
0.0
 10
18.7399058942
 20
13.3601451895
 30
0.0
 10
18.7410413595
 20
13.359552682
 30
0.0
 10
18.7415938432
 20
13.3592337462
 30
0.0
  0
SPLINE
  5
5CC
100
AcDbEntity
  8
AXIS_COSMETIC_THREADS
100
AcDbSpline
 62
7
  6
CONTINUOUS
 70
0
 71
3
 72
21
 73
17
 74
0
 42
0.0000001
 43
0.0000001
 44
0.0000000001
 40
0.0
 40
0.0
 40
0.0
 40
0.0
 40
0.1293541706
 40
0.2563897844
 40
0.3192183929
 40
0.3816915004
 40
0.4438799703
 40
0.5058633534
 40
0.5677082945
 40
0.6294659623
 40
0.6911913728
 40
0.752917067
 40
0.8146701558
 40
0.8764164194
 40
0.9381538095
 40
1.0
 40
1.0
 40
1.0
 40
1.0
 10
18.6985261699
 20
13.1944426006
 30
0.0
 10
18.6947044614
 20
13.1922361494
 30
0.0
 10
18.6869231526
 20
13.1882078717
 30
0.0
 10
18.6767725283
 20
13.1842023192
 30
0.0
 10
18.6685232547
 20
13.1817268443
 30
0.0
 10
18.6622958817
 20
13.1802496973
 30
0.0
 10
18.65601788
 20
13.179161872
 30
0.0
 10
18.6497039604
 20
13.178481121
 30
0.0
 10
18.643373053
 20
13.1782234803
 30
0.0
 10
18.6370479176
 20
13.1784044231
 30
0.0
 10
18.6307557548
 20
13.1790379267
 30
0.0
 10
18.6245271708
 20
13.1801333256
 30
0.0
 10
18.6183986971
 20
13.1816980752
 30
0.0
 10
18.6124075678
 20
13.1837283264
 30
0.0
 10
18.6065911059
 20
13.1862227111
 30
0.0
 10
18.6028547676
 20
13.1881870859
 30
0.0
 10
18.6010275432
 20
13.1892420105
 30
0.0
  0
SPLINE
  5
5CD
100
AcDbEntity
  8
AXIS_COSMETIC_THREADS
100
AcDbSpline
 62
7
  6
CONTINUOUS
 70
0
 71
3
 72
22
 73
18
 74
0
 42
0.0000001
 43
0.0000001
 44
0.0000000001
 40
0.0
 40
0.0
 40
0.0
 40
0.0
 40
0.0752253815
 40
0.1485687885
 40
0.2199769577
 40
0.2894428577
 40
0.3569886133
 40
0.422651914
 40
0.5485128635
 40
0.6089562292
 40
0.6678861519
 40
0.7254586181
 40
0.7818528723
 40
0.8372727836
 40
0.8919416061
 40
0.9461000295
 40
1.0
 40
1.0
 40
1.0
 40
1.0
 10
18.67125328
 20
13.4443775434
 30
0.0
 10
18.6729667936
 20
13.4453668351
 30
0.0
 10
18.6763925154
 20
13.4472498567
 30
0.0
 10
18.6815838271
 20
13.4498089558
 30
0.0
 10
18.6867512546
 20
13.4520604617
 30
0.0
 10
18.6918815068
 20
13.453998725
 30
0.0
 10
18.6969630996
 20
13.4556191108
 30
0.0
 10
18.7035622483
 20
13.4573262875
 30
0.0
 10
18.710118558
 20
13.4584259859
 30
0.0
 10
18.7165586916
 20
13.4588537357
 30
0.0
 10
18.7212167917
 20
13.45883971
 30
0.0
 10
18.7257554638
 20
13.4584952382
 30
0.0
 10
18.7301638298
 20
13.4578203283
 30
0.0
 10
18.7344310019
 20
13.4568168852
 30
0.0
 10
18.73854639
 20
13.455486601
 30
0.0
 10
18.7424994105
 20
13.4538331347
 30
0.0
 10
18.7450227289
 20
13.4525163713
 30
0.0
 10
18.7462505012
 20
13.4518075608
 30
0.0
  0
SPLINE
  5
5CE
100
AcDbEntity
  8
AXIS_COSMETIC_THREADS
100
AcDbSpline
 62
7
  6
CONTINUOUS
 70
0
 71
3
 72
23
 73
19
 74
0
 42
0.0000001
 43
0.0000001
 44
0.0000000001
 40
0.0
 40
0.0
 40
0.0
 40
0.0
 40
0.0559953144
 40
0.1144591217
 40
0.1751234675
 40
0.2377136178
 40
0.3018911422
 40
0.3672845327
 40
0.4335012261
 40
0.5001310553
 40
0.5667565163
 40
0.6329597099
 40
0.698331361
 40
0.7624780567
 40
0.8250305211
 40
0.8856542406
 40
0.9440567315
 40
1.0
 40
1.0
 40
1.0
 40
1.0
 10
18.7073935761
 20
13.3556258227
 30
0.0
 10
18.7058125767
 20
13.3546956706
 30
0.0
 10
18.7026606154
 20
13.352656226
 30
0.0
 10
18.6980899446
 20
13.3491814932
 30
0.0
 10
18.6936111129
 20
13.3452532414
 30
0.0
 10
18.6892663607
 20
13.3409089477
 30
0.0
 10
18.6850955809
 20
13.3361889159
 30
0.0
 10
18.6811379492
 20
13.3311372594
 30
0.0
 10
18.6774306174
 20
13.3258011964
 30
0.0
 10
18.674008039
 20
13.3202308217
 30
0.0
 10
18.6709023784
 20
13.3144782321
 30
0.0
 10
18.6681428562
 20
13.3085972393
 30
0.0
 10
18.6657550403
 20
13.3026430287
 30
0.0
 10
18.6637614554
 20
13.2966712095
 30
0.0
 10
18.6621808351
 20
13.2907376118
 30
0.0
 10
18.6610277076
 20
13.2848974964
 30
0.0
 10
18.6603132293
 20
13.2792056964
 30
0.0
 10
18.6601297301
 20
13.2754596585
 30
0.0
 10
18.6601180624
 20
13.2736270773
 30
0.0
  0
SPLINE
  5
5CF
100
AcDbEntity
  8
AXIS_COSMETIC_THREADS
100
AcDbSpline
 62
7
  6
CONTINUOUS
 70
0
 71
3
 72
18
 73
14
 74
0
 42
0.0000001
 43
0.0000001
 44
0.0000000001
 40
0.0
 40
0.0
 40
0.0
 40
0.0
 40
0.1487982331
 40
0.289837328
 40
0.4231394487
 40
0.5490626642
 40
0.6683415595
 40
0.7258727476
 40
0.7822075246
 40
0.8375531162
 40
0.8921354952
 40
0.9461988206
 40
1.0
 40
1.0
 40
1.0
 40
1.0
 10
18.6601180624
 20
13.2736270773
 30
0.0
 10
18.6601067219
 20
13.2718458792
 30
0.0
 10
18.6602282053
 20
13.2683730227
 30
0.0
 10
18.6608812438
 20
13.2633419205
 30
0.0
 10
18.6619954772
 20
13.2586714497
 30
0.0
 10
18.6635616618
 20
13.2544077061
 30
0.0
 10
18.6652552289
 20
13.2511890123
 30
0.0
 10
18.6668221949
 20
13.2488766885
 30
0.0
 10
18.6680851032
 20
13.2472902656
 30
0.0
 10
18.6694461434
 20
13.2458351247
 30
0.0
 10
18.6709022394
 20
13.2445150183
 30
0.0
 10
18.672449718
 20
13.2433336923
 30
0.0
 10
18.6735407977
 20
13.2426396882
 30
0.0
 10
18.6740985733
 20
13.2423176974
 30
0.0
  0
SPLINE
  5
5D0
100
AcDbEntity
  8
AXIS_COSMETIC_THREADS
100
AcDbSpline
 62
7
  6
CONTINUOUS
 70
0
 71
3
 72
11
 73
7
 74
0
 42
0.0000001
 43
0.0000001
 44
0.0000000001
 40
0.0
 40
0.0
 40
0.0
 40
0.0
 40
0.237276222
 40
0.4835139453
 40
0.738006638
 40
1.0
 40
1.0
 40
1.0
 40
1.0
 10
18.67125328
 20
13.4443775434
 30
0.0
 10
18.6683360809
 20
13.4426933078
 30
0.0
 10
18.6625124193
 20
13.4390481771
 30
0.0
 10
18.6540040418
 20
13.4329234921
 30
0.0
 10
18.6456087968
 20
13.4260754491
 30
0.0
 10
18.6401954674
 20
13.4211234899
 30
0.0
 10
18.6375186697
 20
13.418541134
 30
0.0
  0
SPLINE
  5
5D1
100
AcDbEntity
  8
AXIS_COSMETIC_THREADS
100
AcDbSpline
 62
7
  6
CONTINUOUS
 70
0
 71
3
 72
15
 73
11
 74
0
 42
0.0000001
 43
0.0000001
 44
0.0000000001
 40
0.0
 40
0.0
 40
0.0
 40
0.0
 40
0.1231318993
 40
0.2478575597
 40
0.3736574042
 40
0.4999979967
 40
0.6263389186
 40
0.7521395432
 40
0.8768663301
 40
1.0
 40
1.0
 40
1.0
 40
1.0
 10
18.6237294256
 20
13.4039577347
 30
0.0
 10
18.6211749268
 20
13.4010045142
 30
0.0
 10
18.6161803596
 20
13.3949306085
 30
0.0
 10
18.6091000815
 20
13.3854239347
 30
0.0
 10
18.6024173896
 20
13.3755105114
 30
0.0
 10
18.5961752878
 20
13.3652540612
 30
0.0
 10
18.5904136849
 20
13.3547201566
 30
0.0
 10
18.5851694983
 20
13.3439761076
 30
0.0
 10
18.5804763713
 20
13.3330910534
 30
0.0
 10
18.5777131434
 20
13.3257287119
 30
0.0
 10
18.5764327545
 20
13.3220398072
 30
0.0
  0
SPLINE
  5
5D2
100
AcDbEntity
  8
AXIS_COSMETIC_THREADS
100
AcDbSpline
 62
7
  6
CONTINUOUS
 70
0
 71
3
 72
24
 73
20
 74
0
 42
0.0000001
 43
0.0000001
 44
0.0000000001
 40
0.0
 40
0.0
 40
0.0
 40
0.0
 40
0.0788309718
 40
0.1557664989
 40
0.2306256587
 40
0.3032540669
 40
0.3735266654
 40
0.4413538274
 40
0.5066853657
 40
0.5695151322
 40
0.6298882977
 40
0.659189274
 40
0.6879189516
 40
0.7437404487
 40
0.7975924073
 40
0.8497653189
 40
0.9006123021
 40
0.9505411529
 40
1.0
 40
1.0
 40
1.0
 40
1.0
 10
18.5706980862
 20
13.3028097963
 30
0.0
 10
18.5699270552
 20
13.2997114225
 30
0.0
 10
18.5685427277
 20
13.293553394
 30
0.0
 10
18.56693486
 20
13.2843481558
 30
0.0
 10
18.5658265469
 20
13.2753220364
 30
0.0
 10
18.5652230875
 20
13.2665183129
 30
0.0
 10
18.5651277356
 20
13.2579787878
 30
0.0
 10
18.5655410336
 20
13.249744112
 30
0.0
 10
18.5664613263
 20
13.2418532569
 30
0.0
 10
18.5678848947
 20
13.2343441038
 30
0.0
 10
18.5695013625
 20
13.2283749491
 30
0.0
 10
18.5710458376
 20
13.2238333476
 30
0.0
 10
18.5727193104
 20
13.2195351169
 30
0.0
 10
18.5751033305
 20
13.214451851
 30
0.0
 10
18.5784572744
 20
13.2088068423
 30
0.0
 10
18.582262408
 20
13.2037031641
 30
0.0
 10
18.5865014253
 20
13.1991672822
 30
0.0
 10
18.5911528591
 20
13.195223441
 30
0.0
 10
18.5945211944
 20
13.1929983629
 30
0.0
 10
18.5962560588
 20
13.1919968009
 30
0.0
  0
SPLINE
  5
5D3
100
AcDbEntity
  8
AXIS_COSMETIC_THREADS
100
AcDbSpline
 62
7
  6
CONTINUOUS
 70
0
 71
3
 72
28
 73
24
 74
0
 42
0.0000001
 43
0.0000001
 44
0.0000000001
 40
0.0
 40
0.0
 40
0.0
 40
0.0
 40
0.0300825236
 40
0.0601003845
 40
0.0900930534
 40
0.1200929999
 40
0.1501031653
 40
0.1801138193
 40
0.2101146564
 40
0.2401142999
 40
0.3001385539
 40
0.3603086664
 40
0.4207673403
 40
0.4816679635
 40
0.5431822626
 40
0.6054639315
 40
0.6369426914
 40
0.6686607741
 40
0.7328473584
 40
0.7980905995
 40
0.8643963598
 40
0.9317271273
 40
1.0
 40
1.0
 40
1.0
 40
1.0
 10
18.7510249981
 20
13.449051101
 30
0.0
 10
18.7523744195
 20
13.4482720298
 30
0.0
 10
18.7550255521
 20
13.4466364149
 30
0.0
 10
18.7588496026
 20
13.4439575695
 30
0.0
 10
18.7625086666
 20
13.4410640839
 30
0.0
 10
18.7659943097
 20
13.4379646278
 30
0.0
 10
18.7692991795
 20
13.4346718834
 30
0.0
 10
18.7724148556
 20
13.431199622
 30
0.0
 10
18.7753328774
 20
13.4275603052
 30
0.0
 10
18.7789543806
 20
13.4225041046
 30
0.0
 10
18.7829758947
 20
13.4158267541
 30
0.0
 10
18.7869759929
 20
13.4073515422
 30
0.0
 10
18.790168746
 20
13.3984933565
 30
0.0
 10
18.7925751939
 20
13.3893197506
 30
0.0
 10
18.794225987
 20
13.3798863292
 30
0.0
 10
18.7949932696
 20
13.3718721659
 30
0.0
 10
18.7952611399
 20
13.3653772325
 30
0.0
 10
18.7953021332
 20
13.3587781533
 30
0.0
 10
18.7949273497
 20
13.3504330675
 30
0.0
 10
18.7938286847
 20
13.3403481052
 30
0.0
 10
18.7921002964
 20
13.3301868175
 30
0.0
 10
18.7897616954
 20
13.3199881838
 30
0.0
 10
18.787821398
 20
13.3132336434
 30
0.0
 10
18.7867571168
 20
13.3098613024
 30
0.0
  0
SPLINE
  5
5D4
100
AcDbEntity
  8
AXIS_COSMETIC_THREADS
100
AcDbSpline
 62
7
  6
CONTINUOUS
 70
0
 71
3
 72
11
 73
7
 74
0
 42
0.0000001
 43
0.0000001
 44
0.0000000001
 40
0.0
 40
0.0
 40
0.0
 40
0.0
 40
0.2573784094
 40
0.5100104261
 40
0.7576875387
 40
1.0
 40
1.0
 40
1.0
 40
1.0
 10
18.7394171598
 20
13.227875674
 30
0.0
 10
18.7363451307
 20
13.2245221621
 30
0.0
 10
18.7300337331
 20
13.2180776802
 30
0.0
 10
18.7200038243
 20
13.2091915693
 30
0.0
 10
18.7095422335
 20
13.2012493049
 30
0.0
 10
18.702234223
 20
13.1965834333
 30
0.0
 10
18.6985261699
 20
13.1944426006
 30
0.0
  0
SPLINE
  5
5D5
100
AcDbEntity
  8
AXIS_COSMETIC_THREADS
100
AcDbSpline
 62
7
  6
CONTINUOUS
 70
0
 71
3
 72
14
 73
10
 74
0
 42
0.0000001
 43
0.0000001
 44
0.0000000001
 40
0.0
 40
0.0
 40
0.0
 40
0.0
 40
0.1151041987
 40
0.2334215304
 40
0.3547596303
 40
0.4789523964
 40
0.6058119071
 40
0.7351119377
 40
1.0
 40
1.0
 40
1.0
 40
1.0
 10
18.6760262706
 20
13.4416219183
 30
0.0
 10
18.6739440264
 20
13.4404197412
 30
0.0
 10
18.6697829867
 20
13.4378737294
 30
0.0
 10
18.6636503078
 20
13.4337094218
 30
0.0
 10
18.6575594158
 20
13.4291593363
 30
0.0
 10
18.6515312134
 20
13.4242395998
 30
0.0
 10
18.6455854697
 20
13.4189662766
 30
0.0
 10
18.6377321781
 20
13.4114277793
 30
0.0
 10
18.6321222237
 20
13.4053869186
 30
0.0
 10
18.6285024162
 20
13.4012021096
 30
0.0
  0
SPLINE
  5
5D6
100
AcDbEntity
  8
AXIS_COSMETIC_THREADS
100
AcDbSpline
 62
7
  6
CONTINUOUS
 70
0
 71
3
 72
15
 73
11
 74
0
 42
0.0000001
 43
0.0000001
 44
0.0000000001
 40
0.0
 40
0.0
 40
0.0
 40
0.0
 40
0.1231318993
 40
0.2478575597
 40
0.3736574042
 40
0.4999979967
 40
0.6263389186
 40
0.7521395432
 40
0.8768663301
 40
1.0
 40
1.0
 40
1.0
 40
1.0
 10
18.6285024162
 20
13.4012021096
 30
0.0
 10
18.6259479174
 20
13.3982488891
 30
0.0
 10
18.6209533503
 20
13.3921749834
 30
0.0
 10
18.6138730721
 20
13.3826683096
 30
0.0
 10
18.6071903802
 20
13.3727548863
 30
0.0
 10
18.6009482785
 20
13.3624984361
 30
0.0
 10
18.5951866756
 20
13.3519645315
 30
0.0
 10
18.5899424889
 20
13.3412204825
 30
0.0
 10
18.5852493619
 20
13.3303354283
 30
0.0
 10
18.5824861341
 20
13.3229730868
 30
0.0
 10
18.5812057451
 20
13.3192841821
 30
0.0
  0
SPLINE
  5
5D7
100
AcDbEntity
  8
AXIS_COSMETIC_THREADS
100
AcDbSpline
 62
7
  6
CONTINUOUS
 70
0
 71
3
 72
25
 73
21
 74
0
 42
0.0000001
 43
0.0000001
 44
0.0000000001
 40
0.0
 40
0.0
 40
0.0
 40
0.0
 40
0.0783185087
 40
0.1551260946
 40
0.2301814236
 40
0.3032654952
 40
0.3741860018
 40
0.4427829614
 40
0.5089330426
 40
0.572555176
 40
0.6336179826
 40
0.6921456352
 40
0.748224462
 40
0.8020105697
 40
0.8537342932
 40
0.9037019042
 40
0.9281542985
 40
0.952315954
 40
0.9762444323
 40
1.0
 40
1.0
 40
1.0
 40
1.0
 10
18.5812057451
 20
13.3192841821
 30
0.0
 10
18.5800408347
 20
13.3159279805
 30
0.0
 10
18.5778839944
 20
13.309226831
 30
0.0
 10
18.5751588686
 20
13.2991433872
 30
0.0
 10
18.5729861003
 20
13.2891690272
 30
0.0
 10
18.5713777844
 20
13.2793584522
 30
0.0
 10
18.5703428806
 20
13.2697650803
 30
0.0
 10
18.5698870493
 20
13.2604411825
 30
0.0
 10
18.5700130315
 20
13.2514374313
 30
0.0
 10
18.5707207019
 20
13.2428027148
 30
0.0
 10
18.5720066496
 20
13.2345838677
 30
0.0
 10
18.5738647073
 20
13.2268254677
 30
0.0
 10
18.5762860822
 20
13.2195698905
 30
0.0
 10
18.5792591164
 20
13.2128568929
 30
0.0
 10
18.5827686698
 20
13.206724474
 30
0.0
 10
18.5861519069
 20
13.202092608
 30
0.0
 10
18.5891024457
 20
13.198729336
 30
0.0
 10
18.5914199487
 20
13.196390199
 30
0.0
 10
18.5938540242
 20
13.1942200839
 30
0.0
 10
18.5955573727
 20
13.1928841752
 30
0.0
 10
18.5964261166
 20
13.1922466302
 30
0.0
  0
SPLINE
  5
5D8
100
AcDbEntity
  8
AXIS_COSMETIC_THREADS
100
AcDbSpline
 62
7
  6
CONTINUOUS
 70
0
 71
3
 72
18
 73
14
 74
0
 42
0.0000001
 43
0.0000001
 44
0.0000000001
 40
0.0
 40
0.0
 40
0.0
 40
0.0
 40
0.0538011794
 40
0.1078645048
 40
0.1624468838
 40
0.2177924754
 40
0.2741272524
 40
0.3316584405
 40
0.4509373358
 40
0.5768605513
 40
0.710162672
 40
0.8512017669
 40
1.0
 40
1.0
 40
1.0
 40
1.0
 10
18.7415938432
 20
13.3592337462
 30
0.0
 10
18.7421516189
 20
13.3589117554
 30
0.0
 10
18.7432426985
 20
13.3582177513
 30
0.0
 10
18.7447901771
 20
13.3570364253
 30
0.0
 10
18.7462462731
 20
13.3557163189
 30
0.0
 10
18.7476073133
 20
13.354261178
 30
0.0
 10
18.7488702217
 20
13.3526747551
 30
0.0
 10
18.7504371876
 20
13.3503624313
 30
0.0
 10
18.7521307548
 20
13.3471437375
 30
0.0
 10
18.7536969394
 20
13.3428799939
 30
0.0
 10
18.7548111727
 20
13.3382095231
 30
0.0
 10
18.7554642112
 20
13.3331784209
 30
0.0
 10
18.7555856946
 20
13.3297055644
 30
0.0
 10
18.7555743541
 20
13.3279243663
 30
0.0
  0
SPLINE
  5
5D9
100
AcDbEntity
  8
AXIS_COSMETIC_THREADS
100
AcDbSpline
 62
7
  6
CONTINUOUS
 70
0
 71
3
 72
17
 73
13
 74
0
 42
0.0000001
 43
0.0000001
 44
0.0000000001
 40
0.0
 40
0.0
 40
0.0
 40
0.0
 40
0.1471132491
 40
0.2872383711
 40
0.420354809
 40
0.5467276221
 40
0.6668789662
 40
0.7816427854
 40
0.8373843915
 40
0.8922318831
 40
0.9463706595
 40
1.0
 40
1.0
 40
1.0
 40
1.0
 10
18.6760262706
 20
13.4416219183
 30
0.0
 10
18.6791448911
 20
13.4434224439
 30
0.0
 10
18.6853715182
 20
13.4467078208
 30
0.0
 10
18.69486159
 20
13.450718846
 30
0.0
 10
18.7042070065
 20
13.4536626391
 30
0.0
 10
18.7133334132
 20
13.4555129192
 30
0.0
 10
18.7221677283
 20
13.456250912
 30
0.0
 10
18.7292989612
 20
13.455925544
 30
0.0
 10
18.7347557148
 20
13.4550902868
 30
0.0
 10
18.7386905415
 20
13.4541919903
 30
0.0
 10
18.7424975524
 20
13.4530172949
 30
0.0
 10
18.7449542766
 20
13.4520478743
 30
0.0
 10
18.7461557145
 20
13.4515188577
 30
0.0
  0
SPLINE
  5
5DA
100
AcDbEntity
  8
AXIS_COSMETIC_THREADS
100
AcDbSpline
 62
7
  6
CONTINUOUS
 70
0
 71
3
 72
11
 73
7
 74
0
 42
0.0000001
 43
0.0000001
 44
0.0000000001
 40
0.0
 40
0.0
 40
0.0
 40
0.0
 40
0.2374434691
 40
0.4837516782
 40
0.7381729438
 40
1.0
 40
1.0
 40
1.0
 40
1.0
 10
18.7078462083
 20
13.3865084756
 30
0.0
 10
18.7058430723
 20
13.3853519714
 30
0.0
 10
18.7018435434
 20
13.3828521818
 30
0.0
 10
18.6959964516
 20
13.3786592781
 30
0.0
 10
18.6902242419
 20
13.3739772698
 30
0.0
 10
18.686499287
 20
13.3705943529
 30
0.0
 10
18.6846566008
 20
13.3688308901
 30
0.0
  0
SPLINE
  5
5DB
100
AcDbEntity
  8
AXIS_COSMETIC_THREADS
100
AcDbSpline
 62
7
  6
CONTINUOUS
 70
0
 71
3
 72
15
 73
11
 74
0
 42
0.0000001
 43
0.0000001
 44
0.0000000001
 40
0.0
 40
0.0
 40
0.0
 40
0.0
 40
0.1210535032
 40
0.2454566063
 40
0.3721484528
 40
0.5000005227
 40
0.627852596
 40
0.7545443651
 40
0.8789477527
 40
1.0
 40
1.0
 40
1.0
 40
1.0
 10
18.6846566008
 20
13.3688308901
 30
0.0
 10
18.6818616375
 20
13.366156092
 30
0.0
 10
18.676407124
 20
13.3605062384
 30
0.0
 10
18.6687865223
 20
13.3513630332
 30
0.0
 10
18.6616941522
 20
13.3415347476
 30
0.0
 10
18.6552266654
 20
13.3311548841
 30
0.0
 10
18.6494714053
 20
13.3203638299
 30
0.0
 10
18.6445062514
 20
13.3093074132
 30
0.0
 10
18.6403985774
 20
13.2981361125
 30
0.0
 10
18.6382330303
 20
13.2905874389
 30
0.0
 10
18.6373141512
 20
13.2868295518
 30
0.0
  0
SPLINE
  5
5DC
100
AcDbEntity
  8
AXIS_COSMETIC_THREADS
100
AcDbSpline
 62
7
  6
CONTINUOUS
 70
0
 71
3
 72
11
 73
7
 74
0
 42
0.0000001
 43
0.0000001
 44
0.0000000001
 40
0.0
 40
0.0
 40
0.0
 40
0.0
 40
0.2649842592
 40
0.5206461695
 40
0.7659172005
 40
1.0
 40
1.0
 40
1.0
 40
1.0
 10
18.6373141512
 20
13.2868295518
 30
0.0
 10
18.6365817834
 20
13.2838344295
 30
0.0
 10
18.6353282075
 20
13.2779020247
 30
0.0
 10
18.6340852449
 20
13.2690694748
 30
0.0
 10
18.633521633
 20
13.2605274123
 30
0.0
 10
18.6336047544
 20
13.2549422411
 30
0.0
 10
18.6337695444
 20
13.2522234387
 30
0.0
  0
SPLINE
  5
5DD
100
AcDbEntity
  8
AXIS_COSMETIC_THREADS
100
AcDbSpline
 62
7
  6
CONTINUOUS
 70
0
 71
3
 72
31
 73
27
 74
0
 42
0.0000001
 43
0.0000001
 44
0.0000000001
 40
0.0
 40
0.0
 40
0.0
 40
0.0
 40
0.0723608584
 40
0.1409949033
 40
0.2060118567
 40
0.2676800442
 40
0.3264404989
 40
0.3549361123
 40
0.3829513225
 40
0.4105880731
 40
0.4379565072
 40
0.4651723197
 40
0.492354329
 40
0.5196223376
 40
0.5470939722
 40
0.5748829855
 40
0.6030959713
 40
0.6318312611
 40
0.6611781578
 40
0.721975334
 40
0.7535812645
 40
0.7860429517
 40
0.8193941323
 40
0.8536603152
 40
0.9249792206
 40
1.0
 40
1.0
 40
1.0
 40
1.0
 10
18.6337695444
 20
13.2522234387
 30
0.0
 10
18.6339224353
 20
13.2497009554
 30
0.0
 10
18.6344290381
 20
13.2447949329
 30
0.0
 10
18.6358558066
 20
13.2377309851
 30
0.0
 10
18.6379199837
 20
13.2312139059
 30
0.0
 10
18.6406059735
 20
13.2253025193
 30
0.0
 10
18.6433763234
 20
13.2208786704
 30
0.0
 10
18.6458774786
 20
13.2177201095
 30
0.0
 10
18.6478720303
 20
13.2155578361
 30
0.0
 10
18.6499998799
 20
13.213584006
 30
0.0
 10
18.6522563099
 20
13.2118031033
 30
0.0
 10
18.6546359925
 20
13.2102189839
 30
0.0
 10
18.6571337837
 20
13.2088357116
 30
0.0
 10
18.6597437887
 20
13.2076562504
 30
0.0
 10
18.6624599735
 20
13.2066830546
 30
0.0
 10
18.6652762713
 20
13.2059187176
 30
0.0
 10
18.6681860719
 20
13.2053644031
 30
0.0
 10
18.6711830188
 20
13.2050212655
 30
0.0
 10
18.6753337756
 20
13.2048443926
 30
0.0
 10
18.6795922272
 20
13.2051041151
 30
0.0
 10
18.6839040159
 20
13.2057667816
 30
0.0
 10
18.6872328198
 20
13.2064795625
 30
0.0
 10
18.6906062278
 20
13.2074003551
 30
0.0
 10
18.6952154037
 20
13.2089228096
 30
0.0
 10
18.7010473944
 20
13.2113516218
 30
0.0
 10
18.7055772123
 20
13.2137329704
 30
0.0
 10
18.7078462083
 20
13.215042968
 30
0.0
  0
SPLINE
  5
5DE
100
AcDbEntity
  8
AXIS_COSMETIC_THREADS
100
AcDbSpline
 62
7
  6
CONTINUOUS
 70
0
 71
3
 72
17
 73
13
 74
0
 42
0.0000001
 43
0.0000001
 44
0.0000000001
 40
0.0
 40
0.0
 40
0.0
 40
0.0
 40
0.0539151353
 40
0.1080892069
 40
0.1627738135
 40
0.2182091023
 40
0.3321265002
 40
0.4514654098
 40
0.5773589809
 40
0.7105487279
 40
0.8514500981
 40
1.0
 40
1.0
 40
1.0
 40
1.0
 10
18.6740985733
 20
13.2423176974
 30
0.0
 10
18.6746510571
 20
13.2419987616
 30
0.0
 10
18.6757865223
 20
13.2414062541
 30
0.0
 10
18.6775653853
 20
13.2406624265
 30
0.0
 10
18.6794173301
 20
13.2400638983
 30
0.0
 10
18.682000168
 20
13.239456342
 30
0.0
 10
18.6854095332
 20
13.2390760782
 30
0.0
 10
18.6896695965
 20
13.2392247224
 30
0.0
 10
18.6940969038
 20
13.2399673752
 30
0.0
 10
18.6986497635
 20
13.2412947763
 30
0.0
 10
18.703285092
 20
13.2431921801
 30
0.0
 10
18.7063240216
 20
13.244782979
 30
0.0
 10
18.7078462083
 20
13.2456618086
 30
0.0
  0
SPLINE
  5
5DF
100
AcDbEntity
  8
AXIS_COSMETIC_THREADS
100
AcDbSpline
 62
7
  6
CONTINUOUS
 70
0
 71
3
 72
35
 73
31
 74
0
 42
0.0000001
 43
0.0000001
 44
0.0000000001
 40
0.0
 40
0.0
 40
0.0
 40
0.0
 40
0.0681585351
 40
0.1320430726
 40
0.1624675089
 40
0.1919332381
 40
0.2205104529
 40
0.2482901597
 40
0.2753808963
 40
0.3019097868
 40
0.328018567
 40
0.3538621832
 40
0.3796034598
 40
0.4054087292
 40
0.4314419723
 40
0.4578605067
 40
0.4848093694
 40
0.5124194204
 40
0.540803415
 40
0.5700560285
 40
0.6002530889
 40
0.6314512752
 40
0.6636908527
 40
0.6969938766
 40
0.7313689843
 40
0.7668092142
 40
0.8032961413
 40
0.8407994402
 40
0.9186656249
 40
1.0
 40
1.0
 40
1.0
 40
1.0
 10
18.7128534503
 20
13.3892040483
 30
0.0
 10
18.7155771943
 20
13.3905639858
 30
0.0
 10
18.7209935329
 20
13.3929323143
 30
0.0
 10
18.7279620287
 20
13.3950330729
 30
0.0
 10
18.7333962043
 20
13.3960726276
 30
0.0
 10
18.7373248144
 20
13.3965312535
 30
0.0
 10
18.7411593862
 20
13.3966791461
 30
0.0
 10
18.7448875601
 20
13.3965160801
 30
0.0
 10
18.7484970794
 20
13.3960414176
 30
0.0
 10
18.7519760289
 20
13.3952570341
 30
0.0
 10
18.7553125637
 20
13.3941645362
 30
0.0
 10
18.7584953562
 20
13.3927676919
 30
0.0
 10
18.7615134943
 20
13.3910710193
 30
0.0
 10
18.7643564683
 20
13.3890801163
 30
0.0
 10
18.7670149899
 20
13.3868023179
 30
0.0
 10
18.7694797297
 20
13.3842450348
 30
0.0
 10
18.771743279
 20
13.3814176729
 30
0.0
 10
18.7737979034
 20
13.37832943
 30
0.0
 10
18.7756376767
 20
13.374991013
 30
0.0
 10
18.7772567464
 20
13.371413319
 30
0.0
 10
18.7786501922
 20
13.3676080963
 30
0.0
 10
18.7798141025
 20
13.3635877546
 30
0.0
 10
18.7807444898
 20
13.359365174
 30
0.0
 10
18.7814391828
 20
13.3549540418
 30
0.0
 10
18.7818954719
 20
13.3503684535
 30
0.0
 10
18.7821125523
 20
13.345623195
 30
0.0
 10
18.7820894629
 20
13.3407334187
 30
0.0
 10
18.7817343041
 20
13.3339577049
 30
0.0
 10
18.7806740409
 20
13.3252242113
 30
0.0
 10
18.7792411577
 20
13.3182508126
 30
0.0
 10
18.7783782654
 20
13.3147218918
 30
0.0
  0
SPLINE
  5
5E0
100
AcDbEntity
  8
AXIS_COSMETIC_THREADS
100
AcDbSpline
 62
7
  6
CONTINUOUS
 70
0
 71
3
 72
11
 73
7
 74
0
 42
0.0000001
 43
0.0000001
 44
0.0000000001
 40
0.0
 40
0.0
 40
0.0
 40
0.0
 40
0.2618270562
 40
0.5162483218
 40
0.7625565309
 40
1.0
 40
1.0
 40
1.0
 40
1.0
 10
18.7310358158
 20
13.2327205535
 30
0.0
 10
18.7291931295
 20
13.2309570907
 30
0.0
 10
18.7254681747
 20
13.2275741738
 30
0.0
 10
18.7196959649
 20
13.2228921655
 30
0.0
 10
18.7138488731
 20
13.2186992618
 30
0.0
 10
18.7098493443
 20
13.2161994722
 30
0.0
 10
18.7078462083
 20
13.215042968
 30
0.0
  0
SPLINE
  5
5E1
100
AcDbEntity
  8
02___PRT_ALL_AXES
100
AcDbSpline
 62
7
  6
CONTINUOUS
 70
0
 71
3
 72
10
 73
6
 74
0
 42
0.0000001
 43
0.0000001
 44
0.0000000001
 40
0.0
 40
0.0
 40
0.0
 40
0.0
 40
0.4226145376
 40
0.7223324009
 40
1.0
 40
1.0
 40
1.0
 40
1.0
 10
20.8299856241
 20
12.0548711599
 30
0.0
 10
20.8317522183
 20
12.0538521367
 30
0.0
 10
20.8358983707
 20
12.0563318064
 30
0.0
 10
20.8382436403
 20
12.0602788877
 30
0.0
 10
20.8390386851
 20
12.0630880059
 30
0.0
 10
20.8390386851
 20
12.064427957
 30
0.0
  0
SPLINE
  5
5E2
100
AcDbEntity
  8
02___PRT_ALL_AXES
100
AcDbSpline
 62
7
  6
CONTINUOUS
 70
0
 71
3
 72
9
 73
5
 74
0
 42
0.0000001
 43
0.0000001
 44
0.0000000001
 40
0.0
 40
0.0
 40
0.0
 40
0.0
 40
0.5507501794
 40
1.0
 40
1.0
 40
1.0
 40
1.0
 10
20.0737313684
 20
12.5507733265
 30
0.0
 10
20.0737313684
 20
12.5552849978
 30
0.0
 10
20.0726365574
 20
12.5636688142
 30
0.0
 10
20.0671336686
 20
12.57056091
 30
0.0
 10
20.0639465086
 20
12.572400975
 30
0.0
  0
SPLINE
  5
5E3
100
AcDbEntity
  8
02___PRT_ALL_AXES
100
AcDbSpline
 62
7
  6
CONTINUOUS
 70
0
 71
3
 72
10
 73
6
 74
0
 42
0.0000001
 43
0.0000001
 44
0.0000000001
 40
0.0
 40
0.0
 40
0.0
 40
0.0
 40
0.4226145376
 40
0.7223324009
 40
1.0
 40
1.0
 40
1.0
 40
1.0
 10
20.8299856241
 20
12.0789804832
 30
0.0
 10
20.8317522183
 20
12.0779614601
 30
0.0
 10
20.8358983707
 20
12.0804411297
 30
0.0
 10
20.8382436403
 20
12.0843882111
 30
0.0
 10
20.8390386851
 20
12.0871973292
 30
0.0
 10
20.8390386851
 20
12.0885372804
 30
0.0
  0
SPLINE
  5
5E4
100
AcDbEntity
  8
02___PRT_ALL_AXES
100
AcDbSpline
 62
7
  6
CONTINUOUS
 70
0
 71
3
 72
9
 73
5
 74
0
 42
0.0000001
 43
0.0000001
 44
0.0000000001
 40
0.0
 40
0.0
 40
0.0
 40
0.0
 40
0.4307667476
 40
1.0
 40
1.0
 40
1.0
 40
1.0
 10
20.7011625954
 20
12.1210282358
 30
0.0
 10
20.7024808392
 20
12.1202707784
 30
0.0
 10
20.7064197028
 20
12.1201959623
 30
0.0
 10
20.7094379357
 20
12.1222386403
 30
0.0
 10
20.7109570707
 20
12.1235534045
 30
0.0
  0
LINE
  5
5E5
100
AcDbEntity
  8
02___PRT_ALL_AXES
100
AcDbLine
 62
7
  6
CONTINUOUS
 10
20.7185179441
 20
12.1367659902
 11
20.7187951912
 21
12.1396591982
  0
SPLINE
  5
5E6
100
AcDbEntity
  8
02___PRT_ALL_AXES
100
AcDbSpline
 62
7
  6
CONTINUOUS
 70
0
 71
3
 72
9
 73
5
 74
0
 42
0.0000001
 43
0.0000001
 44
0.0000000001
 40
0.0
 40
0.0
 40
0.0
 40
0.0
 40
0.4492525763
 40
1.0
 40
1.0
 40
1.0
 40
1.0
 10
20.7011523769
 20
12.1451433938
 30
0.0
 10
20.7021383717
 20
12.1445742246
 30
0.0
 10
20.7048359586
 20
12.1441661307
 30
0.0
 10
20.7072513599
 20
12.1451696122
 30
0.0
 10
20.7084600613
 20
12.1458674521
 30
0.0
  0
SPLINE
  5
5E7
100
AcDbEntity
  8
02___PRT_ALL_AXES
100
AcDbSpline
 62
7
  6
CONTINUOUS
 70
0
 71
3
 72
9
 73
5
 74
0
 42
0.0000001
 43
0.0000001
 44
0.0000000001
 40
0.0
 40
0.0
 40
0.0
 40
0.0
 40
0.2939132928
 40
1.0
 40
1.0
 40
1.0
 40
1.0
 10
20.8390386851
 20
12.0885372804
 30
0.0
 10
20.8390386851
 20
12.0889150987
 30
0.0
 10
20.8389507133
 20
12.090182901
 30
0.0
 10
20.8382714199
 20
12.091516894
 30
0.0
 10
20.8374851885
 20
12.0919704152
 30
0.0
  0
SPLINE
  5
5E8
100
AcDbEntity
  8
02___PRT_ALL_AXES
100
AcDbSpline
 62
7
  6
CONTINUOUS
 70
0
 71
3
 72
9
 73
5
 74
0
 42
0.0000001
 43
0.0000001
 44
0.0000000001
 40
0.0
 40
0.0
 40
0.0
 40
0.0
 40
0.2939132928
 40
1.0
 40
1.0
 40
1.0
 40
1.0
 10
20.8390386851
 20
12.064427957
 30
0.0
 10
20.8390386851
 20
12.0648057753
 30
0.0
 10
20.8389507133
 20
12.0660735776
 30
0.0
 10
20.8382714199
 20
12.0674075707
 30
0.0
 10
20.8374851885
 20
12.0678610919
 30
0.0
  0
SPLINE
  5
5E9
100
AcDbEntity
  8
02___PRT_ALL_AXES
100
AcDbSpline
 62
7
  6
CONTINUOUS
 70
0
 71
3
 72
9
 73
5
 74
0
 42
0.0000001
 43
0.0000001
 44
0.0000000001
 40
0.0
 40
0.0
 40
0.0
 40
0.0
 40
0.5505625036
 40
1.0
 40
1.0
 40
1.0
 40
1.0
 10
20.7187951912
 20
12.1637685216
 30
0.0
 10
20.7187951912
 20
12.1651658586
 30
0.0
 10
20.7184543283
 20
12.1677633047
 30
0.0
 10
20.7167465625
 20
12.1698972795
 30
0.0
 10
20.7157575271
 20
12.1704655751
 30
0.0
  0
LINE
  5
5EA
100
AcDbEntity
  8
02___PRT_ALL_AXES
100
AcDbLine
 62
7
  6
CONTINUOUS
 10
20.7084600613
 20
12.1458674521
 11
20.7108697691
 21
12.1475891839
  0
LINE
  5
5EB
100
AcDbEntity
  8
02___PRT_ALL_AXES
100
AcDbLine
 62
7
  6
CONTINUOUS
 10
20.7185094728
 20
12.1608237283
 11
20.7187951912
 21
12.1637685216
  0
SPLINE
  5
5EC
100
AcDbEntity
  8
02___PRT_ALL_AXES
100
AcDbSpline
 62
7
  6
CONTINUOUS
 70
0
 71
3
 72
9
 73
5
 74
0
 42
0.0000001
 43
0.0000001
 44
0.0000000001
 40
0.0
 40
0.0
 40
0.0
 40
0.0
 40
0.2695359047
 40
1.0
 40
1.0
 40
1.0
 40
1.0
 10
20.7187951912
 20
12.1396591982
 30
0.0
 10
20.7187951912
 20
12.1400244921
 30
0.0
 10
20.7187399978
 20
12.1413775361
 30
0.0
 10
20.7184525502
 20
12.1427334354
 30
0.0
 10
20.7180643604
 20
12.143644128
 30
0.0
  0
SPLINE
  5
5ED
100
AcDbEntity
  8
02___PRT_ALL_AXES
100
AcDbSpline
 62
7
  6
CONTINUOUS
 70
0
 71
3
 72
9
 73
5
 74
0
 42
0.0000001
 43
0.0000001
 44
0.0000000001
 40
0.0
 40
0.0
 40
0.0
 40
0.0
 40
0.4501624419
 40
1.0
 40
1.0
 40
1.0
 40
1.0
 10
20.0167032672
 20
12.4905714271
 30
0.0
 10
20.0198439668
 20
12.4887581855
 30
0.0
 10
20.0283983472
 20
12.4874135857
 30
0.0
 10
20.0361067353
 20
12.4905264449
 30
0.0
 10
20.0399635502
 20
12.4927049264
 30
0.0
  0
LINE
  5
5EE
100
AcDbEntity
  8
02___PRT_ALL_AXES
100
AcDbLine
 62
7
  6
CONTINUOUS
 10
20.0399635502
 20
12.4927049264
 11
20.0450791258
 21
12.4960487649
  0
SPLINE
  5
5EF
100
AcDbEntity
  8
02___PRT_ALL_AXES
100
AcDbSpline
 62
7
  6
CONTINUOUS
 70
0
 71
3
 72
9
 73
5
 74
0
 42
0.0000001
 43
0.0000001
 44
0.0000000001
 40
0.0
 40
0.0
 40
0.0
 40
0.0
 40
0.259190726
 40
1.0
 40
1.0
 40
1.0
 40
1.0
 10
20.0728907423
 20
12.5416888246
 30
0.0
 10
20.0730287596
 20
12.5424654364
 30
0.0
 10
20.0735018832
 20
12.5454716285
 30
0.0
 10
20.0737313684
 20
12.5485188635
 30
0.0
 10
20.0737313684
 20
12.5507733265
 30
0.0
  0
SPLINE
  5
5F0
100
AcDbEntity
  8
02___PRT_ALL_AXES
100
AcDbSpline
 62
7
  6
CONTINUOUS
 70
0
 71
3
 72
9
 73
5
 74
0
 42
0.0000001
 43
0.0000001
 44
0.0000000001
 40
0.0
 40
0.0
 40
0.0
 40
0.0
 40
0.2939132928
 40
1.0
 40
1.0
 40
1.0
 40
1.0
 10
20.8284321275
 20
12.0583042947
 30
0.0
 10
20.8284321275
 20
12.0579264764
 30
0.0
 10
20.8285200992
 20
12.0566586741
 30
0.0
 10
20.8291993927
 20
12.0553246811
 30
0.0
 10
20.8299856241
 20
12.0548711599
 30
0.0
  0
SPLINE
  5
5F1
100
AcDbEntity
  8
02___PRT_ALL_AXES
100
AcDbSpline
 62
7
  6
CONTINUOUS
 70
0
 71
3
 72
10
 73
6
 74
0
 42
0.0000001
 43
0.0000001
 44
0.0000000001
 40
0.0
 40
0.0
 40
0.0
 40
0.0
 40
0.4226145376
 40
0.7223324009
 40
1.0
 40
1.0
 40
1.0
 40
1.0
 10
20.8374851885
 20
12.0678610919
 30
0.0
 10
20.8357185943
 20
12.068880115
 30
0.0
 10
20.8315724419
 20
12.0664004454
 30
0.0
 10
20.8292271723
 20
12.062453364
 30
0.0
 10
20.8284321275
 20
12.0596442459
 30
0.0
 10
20.8284321275
 20
12.0583042947
 30
0.0
  0
SPLINE
  5
5F2
100
AcDbEntity
  8
02___PRT_ALL_AXES
100
AcDbSpline
 62
7
  6
CONTINUOUS
 70
0
 71
3
 72
9
 73
5
 74
0
 42
0.0000001
 43
0.0000001
 44
0.0000000001
 40
0.0
 40
0.0
 40
0.0
 40
0.0
 40
0.2212865627
 40
1.0
 40
1.0
 40
1.0
 40
1.0
 10
20.7046950851
 20
12.1272053595
 30
0.0
 10
20.7044491245
 20
12.1273490791
 30
0.0
 10
20.7034502608
 20
12.1282063087
 30
0.0
 10
20.7031567825
 20
12.1296279408
 30
0.0
 10
20.7031567825
 20
12.1306304126
 30
0.0
  0
SPLINE
  5
5F3
100
AcDbEntity
  8
02___PRT_ALL_AXES
100
AcDbSpline
 62
7
  6
CONTINUOUS
 70
0
 71
3
 72
9
 73
5
 74
0
 42
0.0000001
 43
0.0000001
 44
0.0000000001
 40
0.0
 40
0.0
 40
0.0
 40
0.0
 40
0.5507652739
 40
1.0
 40
1.0
 40
1.0
 40
1.0
 10
20.6981249314
 20
12.1518346127
 30
0.0
 10
20.6981249314
 20
12.1504387221
 30
0.0
 10
20.6984636821
 20
12.1478448648
 30
0.0
 10
20.7001663087
 20
12.1457126054
 30
0.0
 10
20.7011523769
 20
12.1451433938
 30
0.0
  0
SPLINE
  5
5F4
100
AcDbEntity
  8
02___PRT_ALL_AXES
100
AcDbSpline
 62
7
  6
CONTINUOUS
 70
0
 71
3
 72
9
 73
5
 74
0
 42
0.0000001
 43
0.0000001
 44
0.0000000001
 40
0.0
 40
0.0
 40
0.0
 40
0.0
 40
0.5507590232
 40
1.0
 40
1.0
 40
1.0
 40
1.0
 10
20.029989758
 20
12.5375739083
 30
0.0
 10
20.029989758
 20
12.5361780305
 30
0.0
 10
20.0303307613
 20
12.5335880409
 30
0.0
 10
20.0320275
 20
12.531445594
 30
0.0
 10
20.0330171665
 20
12.530882625
 30
0.0
  0
SPLINE
  5
5F5
100
AcDbEntity
  8
02___PRT_ALL_AXES
100
AcDbSpline
 62
7
  6
CONTINUOUS
 70
0
 71
3
 72
10
 73
6
 74
0
 42
0.0000001
 43
0.0000001
 44
0.0000000001
 40
0.0
 40
0.0
 40
0.0
 40
0.0
 40
0.2414829393
 40
0.5041005409
 40
1.0
 40
1.0
 40
1.0
 40
1.0
 10
20.7084600613
 20
12.1458674521
 30
0.0
 10
20.7069617595
 20
12.1450024123
 30
0.0
 10
20.7043220829
 20
12.1424250441
 30
0.0
 10
20.699985621
 20
12.1367608823
 30
0.0
 10
20.6981249314
 20
12.1312781257
 30
0.0
 10
20.6981249314
 20
12.1277252894
 30
0.0
  0
SPLINE
  5
5F6
100
AcDbEntity
  8
02___PRT_ALL_AXES
100
AcDbSpline
 62
7
  6
CONTINUOUS
 70
0
 71
3
 72
9
 73
5
 74
0
 42
0.0000001
 43
0.0000001
 44
0.0000000001
 40
0.0
 40
0.0
 40
0.0
 40
0.0
 40
0.5505625036
 40
1.0
 40
1.0
 40
1.0
 40
1.0
 10
20.6981249314
 20
12.1277252894
 30
0.0
 10
20.6981249314
 20
12.1263279523
 30
0.0
 10
20.6984657943
 20
12.1237305063
 30
0.0
 10
20.70017356
 20
12.1215965314
 30
0.0
 10
20.7011625954
 20
12.1210282358
 30
0.0
  0
SPLINE
  5
5F7
100
AcDbEntity
  8
02___PRT_ALL_AXES
100
AcDbSpline
 62
7
  6
CONTINUOUS
 70
0
 71
3
 72
9
 73
5
 74
0
 42
0.0000001
 43
0.0000001
 44
0.0000000001
 40
0.0
 40
0.0
 40
0.0
 40
0.0
 40
0.4542645359
 40
1.0
 40
1.0
 40
1.0
 40
1.0
 10
20.7157575271
 20
12.1704655751
 30
0.0
 10
20.7148487269
 20
12.170987768
 30
0.0
 10
20.7124251667
 20
12.171422358
 30
0.0
 10
20.7101823755
 20
12.1706341035
 30
0.0
 10
20.7090609079
 20
12.1700614884
 30
0.0
  0
SPLINE
  5
5F8
100
AcDbEntity
  8
02___PRT_ALL_AXES
100
AcDbSpline
 62
7
  6
CONTINUOUS
 70
0
 71
3
 72
9
 73
5
 74
0
 42
0.0000001
 43
0.0000001
 44
0.0000000001
 40
0.0
 40
0.0
 40
0.0
 40
0.0
 40
0.4960116947
 40
1.0
 40
1.0
 40
1.0
 40
1.0
 10
20.7090609079
 20
12.1700614884
 30
0.0
 10
20.705835168
 20
12.1684144436
 30
0.0
 10
20.7006943802
 20
12.1627085202
 30
0.0
 10
20.6981249314
 20
12.1555147576
 30
0.0
 10
20.6981249314
 20
12.1518346127
 30
0.0
  0
SPLINE
  5
5F9
100
AcDbEntity
  8
02___PRT_ALL_AXES
100
AcDbSpline
 62
7
  6
CONTINUOUS
 70
0
 71
3
 72
10
 73
6
 74
0
 42
0.0000001
 43
0.0000001
 44
0.0000000001
 40
0.0
 40
0.0
 40
0.0
 40
0.0
 40
0.2778056756
 40
0.5779096156
 40
1.0
 40
1.0
 40
1.0
 40
1.0
 10
20.7031567825
 20
12.154739736
 30
0.0
 10
20.7031567825
 20
12.1560816071
 30
0.0
 10
20.7039564264
 20
12.1588949398
 30
0.0
 10
20.7063004185
 20
12.1628475815
 30
0.0
 10
20.7104647191
 20
12.1653170402
 30
0.0
 10
20.7122250374
 20
12.1642884515
 30
0.0
  0
SPLINE
  5
5FA
100
AcDbEntity
  8
02___PRT_ALL_AXES
100
AcDbSpline
 62
7
  6
CONTINUOUS
 70
0
 71
3
 72
12
 73
8
 74
0
 42
0.0000001
 43
0.0000001
 44
0.0000000001
 40
0.0
 40
0.0
 40
0.0
 40
0.0
 40
0.1833389237
 40
0.3015889077
 40
0.4363321231
 40
0.7289455851
 40
1.0
 40
1.0
 40
1.0
 40
1.0
 10
20.0476223537
 20
12.5562048708
 30
0.0
 10
20.04609189
 20
12.5570842688
 30
0.0
 10
20.0427454747
 20
12.5569063461
 30
0.0
 10
20.0391080258
 20
12.554840992
 30
0.0
 10
20.0351268824
 20
12.5513383216
 30
0.0
 10
20.0314270285
 20
12.5455919058
 30
0.0
 10
20.029989758
 20
12.5401835258
 30
0.0
 10
20.029989758
 20
12.5375739083
 30
0.0
  0
SPLINE
  5
5FB
100
AcDbEntity
  8
02___PRT_ALL_AXES
100
AcDbSpline
 62
7
  6
CONTINUOUS
 70
0
 71
3
 72
10
 73
6
 74
0
 42
0.0000001
 43
0.0000001
 44
0.0000000001
 40
0.0
 40
0.0
 40
0.0
 40
0.0
 40
0.2778056756
 40
0.5779096156
 40
1.0
 40
1.0
 40
1.0
 40
1.0
 10
20.7031567825
 20
12.1306304126
 30
0.0
 10
20.7031567825
 20
12.1319722838
 30
0.0
 10
20.7039564264
 20
12.1347856164
 30
0.0
 10
20.7063004185
 20
12.1387382582
 30
0.0
 10
20.7104647191
 20
12.1412077169
 30
0.0
 10
20.7122250374
 20
12.1401791281
 30
0.0
  0
SPLINE
  5
5FC
100
AcDbEntity
  8
02___PRT_ALL_AXES
100
AcDbSpline
 62
7
  6
CONTINUOUS
 70
0
 71
3
 72
9
 73
5
 74
0
 42
0.0000001
 43
0.0000001
 44
0.0000000001
 40
0.0
 40
0.0
 40
0.0
 40
0.0
 40
0.25796294
 40
1.0
 40
1.0
 40
1.0
 40
1.0
 10
20.0368855315
 20
12.528712277
 30
0.0
 10
20.0358619207
 20
12.5276755621
 30
0.0
 10
20.0322698052
 20
12.5233363315
 30
0.0
 10
20.029989758
 20
12.5176553947
 30
0.0
 10
20.029989758
 20
12.513464585
 30
0.0
  0
SPLINE
  5
5FD
100
AcDbEntity
  8
02___PRT_ALL_AXES
100
AcDbSpline
 62
7
  6
CONTINUOUS
 70
0
 71
3
 72
13
 73
9
 74
0
 42
0.0000001
 43
0.0000001
 44
0.0000000001
 40
0.0
 40
0.0
 40
0.0
 40
0.0
 40
0.087146993
 40
0.1868618098
 40
0.3045409447
 40
0.4386837206
 40
0.7301350018
 40
1.0
 40
1.0
 40
1.0
 40
1.0
 10
20.0639465086
 20
12.572400975
 30
0.0
 10
20.0615865629
 20
12.5737634587
 30
0.0
 10
20.0556574355
 20
12.575287108
 30
0.0
 10
20.0461144906
 20
12.573375337
 30
0.0
 10
20.0363627538
 20
12.5680510043
 30
0.0
 10
20.0235718165
 20
12.5567041115
 30
0.0
 10
20.0115578369
 20
12.5381323189
 30
0.0
 10
20.0069184074
 20
12.520637532
 30
0.0
 10
20.0069184074
 20
12.5121990757
 30
0.0
  0
SPLINE
  5
5FE
100
AcDbEntity
  8
02___PRT_ALL_AXES
100
AcDbSpline
 62
7
  6
CONTINUOUS
 70
0
 71
3
 72
9
 73
5
 74
0
 42
0.0000001
 43
0.0000001
 44
0.0000000001
 40
0.0
 40
0.0
 40
0.0
 40
0.0
 40
0.5505625036
 40
1.0
 40
1.0
 40
1.0
 40
1.0
 10
20.029989758
 20
12.513464585
 30
0.0
 10
20.029989758
 20
12.5120672479
 30
0.0
 10
20.0303306209
 20
12.5094698019
 30
0.0
 10
20.0320383866
 20
12.507335827
 30
0.0
 10
20.0330274221
 20
12.5067675314
 30
0.0
  0
SPLINE
  5
5FF
100
AcDbEntity
  8
02___PRT_ALL_AXES
100
AcDbSpline
 62
7
  6
CONTINUOUS
 70
0
 71
3
 72
9
 73
5
 74
0
 42
0.0000001
 43
0.0000001
 44
0.0000000001
 40
0.0
 40
0.0
 40
0.0
 40
0.0
 40
0.2325588273
 40
1.0
 40
1.0
 40
1.0
 40
1.0
 10
20.7122593155
 20
12.1469926202
 30
0.0
 10
20.7119512442
 20
12.1469738176
 30
0.0
 10
20.7106311334
 20
12.1468336813
 30
0.0
 10
20.7093421295
 20
12.1463767114
 30
0.0
 10
20.7084600613
 20
12.1458674521
 30
0.0
  0
SPLINE
  5
600
100
AcDbEntity
  8
02___PRT_ALL_AXES
100
AcDbSpline
 62
7
  6
CONTINUOUS
 70
0
 71
3
 72
9
 73
5
 74
0
 42
0.0000001
 43
0.0000001
 44
0.0000000001
 40
0.0
 40
0.0
 40
0.0
 40
0.0
 40
0.2212865627
 40
1.0
 40
1.0
 40
1.0
 40
1.0
 10
20.7046950851
 20
12.1513146828
 30
0.0
 10
20.7044491245
 20
12.1514584025
 30
0.0
 10
20.7034502608
 20
12.1523156321
 30
0.0
 10
20.7031567825
 20
12.1537372642
 30
0.0
 10
20.7031567825
 20
12.154739736
 30
0.0
  0
SPLINE
  5
601
100
AcDbEntity
  8
02___PRT_ALL_AXES
100
AcDbSpline
 62
7
  6
CONTINUOUS
 70
0
 71
3
 72
9
 73
5
 74
0
 42
0.0000001
 43
0.0000001
 44
0.0000000001
 40
0.0
 40
0.0
 40
0.0
 40
0.0
 40
0.5507501794
 40
1.0
 40
1.0
 40
1.0
 40
1.0
 10
20.0069184074
 20
12.5121990757
 30
0.0
 10
20.0069184074
 20
12.5076874044
 30
0.0
 10
20.0080132184
 20
12.499303588
 30
0.0
 10
20.0135161072
 20
12.4924114922
 30
0.0
 10
20.0167032672
 20
12.4905714271
 30
0.0
  0
SPLINE
  5
602
100
AcDbEntity
  8
02___PRT_ALL_AXES
100
AcDbSpline
 62
7
  6
CONTINUOUS
 70
0
 71
3
 72
9
 73
5
 74
0
 42
0.0000001
 43
0.0000001
 44
0.0000000001
 40
0.0
 40
0.0
 40
0.0
 40
0.0
 40
0.2939132928
 40
1.0
 40
1.0
 40
1.0
 40
1.0
 10
20.8284321275
 20
12.0824136181
 30
0.0
 10
20.8284321275
 20
12.0820357998
 30
0.0
 10
20.8285200992
 20
12.0807679975
 30
0.0
 10
20.8291993927
 20
12.0794340044
 30
0.0
 10
20.8299856241
 20
12.0789804832
 30
0.0
  0
SPLINE
  5
603
100
AcDbEntity
  8
02___PRT_ALL_AXES
100
AcDbSpline
 62
7
  6
CONTINUOUS
 70
0
 71
3
 72
10
 73
6
 74
0
 42
0.0000001
 43
0.0000001
 44
0.0000000001
 40
0.0
 40
0.0
 40
0.0
 40
0.0
 40
0.4226145376
 40
0.7223324009
 40
1.0
 40
1.0
 40
1.0
 40
1.0
 10
20.8374851885
 20
12.0919704152
 30
0.0
 10
20.8357185943
 20
12.0929894383
 30
0.0
 10
20.8315724419
 20
12.0905097687
 30
0.0
 10
20.8292271723
 20
12.0865626874
 30
0.0
 10
20.8284321275
 20
12.0837535692
 30
0.0
 10
20.8284321275
 20
12.0824136181
 30
0.0
  0
SPLINE
  5
604
100
AcDbEntity
  8
SURFACE
100
AcDbSpline
 62
7
  6
CONTINUOUS
 70
0
 71
3
 72
14
 73
10
 74
0
 42
0.0000001
 43
0.0000001
 44
0.0000000001
 40
0.0
 40
0.0
 40
0.0
 40
0.0
 40
0.1484684878
 40
0.2895297773
 40
0.5484750712
 40
0.6678627069
 40
0.7818285561
 40
0.8919295489
 40
1.0
 40
1.0
 40
1.0
 40
1.0
 10
19.603039282
 20
13.6565565764
 30
0.0
 10
19.603039282
 20
13.6548008484
 30
0.0
 10
19.602896017
 20
13.651373616
 30
0.0
 10
19.6020236562
 20
13.6449423965
 30
0.0
 10
19.6002647572
 20
13.6389854563
 30
0.0
 10
19.597523339
 20
13.6338304097
 30
0.0
 10
19.5951046701
 20
13.630547234
 30
0.0
 10
19.592293133
 20
13.627780948
 30
0.0
 10
19.5901660075
 20
13.6262950231
 30
0.0
 10
19.5890592278
 20
13.6256560272
 30
0.0
  0
SPLINE
  5
605
100
AcDbEntity
  8
SURFACE
100
AcDbSpline
 62
7
  6
CONTINUOUS
 70
0
 71
3
 72
9
 73
5
 74
0
 42
0.0000001
 43
0.0000001
 44
0.0000000001
 40
0.0
 40
0.0
 40
0.0
 40
0.0
 40
0.2466856253
 40
1.0
 40
1.0
 40
1.0
 40
1.0
 10
15.4205883945
 20
13.8727154169
 30
0.0
 10
15.4210271298
 20
13.8714485915
 30
0.0
 10
15.4229036188
 20
13.8663475226
 30
0.0
 10
15.4251602565
 20
13.8613874312
 30
0.0
 10
15.4270479832
 20
13.8577546285
 30
0.0
  0
SPLINE
  5
606
100
AcDbEntity
  8
SURFACE
100
AcDbSpline
 62
7
  6
CONTINUOUS
 70
0
 71
3
 72
9
 73
5
 74
0
 42
0.0000001
 43
0.0000001
 44
0.0000000001
 40
0.0
 40
0.0
 40
0.0
 40
0.0
 40
0.2526343519
 40
1.0
 40
1.0
 40
1.0
 40
1.0
 10
15.4314688148
 20
13.8499904795
 30
0.0
 10
15.4322119307
 20
13.8487945595
 30
0.0
 10
15.4352389005
 20
13.8441146197
 30
0.0
 10
15.438603695
 20
13.8396516563
 30
0.0
 10
15.4413015078
 20
13.8364781499
 30
0.0
  0
LINE
  5
607
100
AcDbEntity
  8
SURFACE
100
AcDbLine
 62
7
  6
CONTINUOUS
 10
15.4583803431
 20
13.8207190913
 11
15.4632810728
 21
13.817597092
  0
SPLINE
  5
608
100
AcDbEntity
  8
SURFACE
100
AcDbSpline
 62
7
  6
CONTINUOUS
 70
0
 71
3
 72
9
 73
5
 74
0
 42
0.0000001
 43
0.0000001
 44
0.0000000001
 40
0.0
 40
0.0
 40
0.0
 40
0.0
 40
0.4876485768
 40
1.0
 40
1.0
 40
1.0
 40
1.0
 10
17.6629693298
 20
12.5486266399
 30
0.0
 10
17.6644507564
 20
12.5480351124
 30
0.0
 10
17.6676340174
 20
12.5471650897
 30
0.0
 10
17.6709215906
 20
12.5469642719
 30
0.0
 10
17.6725969098
 20
12.5470107611
 30
0.0
  0
SPLINE
  5
609
100
AcDbEntity
  8
SURFACE
100
AcDbSpline
 62
7
  6
CONTINUOUS
 70
0
 71
3
 72
10
 73
6
 74
0
 42
0.0000001
 43
0.0000001
 44
0.0000000001
 40
0.0
 40
0.0
 40
0.0
 40
0.0
 40
0.2710371021
 40
0.5282720459
 40
1.0
 40
1.0
 40
1.0
 40
1.0
 10
15.4378253346
 20
13.8543399547
 30
0.0
 10
15.4378253346
 20
13.8526885464
 30
0.0
 10
15.4379605455
 20
13.8494664293
 30
0.0
 10
15.4387857571
 20
13.843426614
 30
0.0
 10
15.4400711703
 20
13.8391178711
 30
0.0
 10
15.4412658989
 20
13.8365037436
 30
0.0
  0
SPLINE
  5
60A
100
AcDbEntity
  8
SURFACE
100
AcDbSpline
 62
7
  6
CONTINUOUS
 70
0
 71
3
 72
11
 73
7
 74
0
 42
0.0000001
 43
0.0000001
 44
0.0000000001
 40
0.0
 40
0.0
 40
0.0
 40
0.0
 40
0.2641465676
 40
0.5165052456
 40
0.7604763577
 40
1.0
 40
1.0
 40
1.0
 40
1.0
 10
15.4412658989
 20
13.8365037436
 30
0.0
 10
15.4418079183
 20
13.8353177774
 30
0.0
 10
15.4430177097
 20
13.8330627187
 30
0.0
 10
15.4452590239
 20
13.8300336948
 30
0.0
 10
15.4478619898
 20
13.8274778801
 30
0.0
 10
15.4498301369
 20
13.8261043362
 30
0.0
 10
15.4508533609
 20
13.8255118039
 30
0.0
  0
SPLINE
  5
60B
100
AcDbEntity
  8
SURFACE
100
AcDbSpline
 62
7
  6
CONTINUOUS
 70
0
 71
3
 72
14
 73
10
 74
0
 42
0.0000001
 43
0.0000001
 44
0.0000000001
 40
0.0
 40
0.0
 40
0.0
 40
0.0
 40
0.1080709609
 40
0.218172379
 40
0.3321385117
 40
0.4515262526
 40
0.7104712027
 40
0.8515320578
 40
1.0
 40
1.0
 40
1.0
 40
1.0
 10
17.7063952612
 20
12.5387059676
 30
0.0
 10
17.7052885057
 20
12.5380669857
 30
0.0
 10
17.702938144
 20
12.536967835
 30
0.0
 10
17.69913679
 20
12.5359161369
 30
0.0
 10
17.6950842421
 20
12.5354630929
 30
0.0
 10
17.6892492855
 20
12.5356664388
 30
0.0
 10
17.683211132
 20
12.537121567
 30
0.0
 10
17.6772055036
 20
12.5395815638
 30
0.0
 10
17.6741658766
 20
12.5411710319
 30
0.0
 10
17.672645409
 20
12.5420488545
 30
0.0
  0
SPLINE
  5
60C
100
AcDbEntity
  8
SURFACE
100
AcDbSpline
 62
7
  6
CONTINUOUS
 70
0
 71
3
 72
14
 73
10
 74
0
 42
0.0000001
 43
0.0000001
 44
0.0000000001
 40
0.0
 40
0.0
 40
0.0
 40
0.0
 40
0.1484684878
 40
0.2895297773
 40
0.5484750712
 40
0.6678627069
 40
0.7818285561
 40
0.8919295489
 40
1.0
 40
1.0
 40
1.0
 40
1.0
 10
17.7203753154
 20
12.5696065167
 30
0.0
 10
17.7203753154
 20
12.5678507887
 30
0.0
 10
17.7202320504
 20
12.5644235563
 30
0.0
 10
17.7193596896
 20
12.5579923369
 30
0.0
 10
17.7176007906
 20
12.5520353966
 30
0.0
 10
17.7148593725
 20
12.54688035
 30
0.0
 10
17.7124407035
 20
12.5435971743
 30
0.0
 10
17.7096291664
 20
12.5408308883
 30
0.0
 10
17.7075020409
 20
12.5393449634
 30
0.0
 10
17.7063952612
 20
12.5387059676
 30
0.0
  0
SPLINE
  5
60D
100
AcDbEntity
  8
SURFACE
100
AcDbSpline
 62
7
  6
CONTINUOUS
 70
0
 71
3
 72
14
 73
10
 74
0
 42
0.0000001
 43
0.0000001
 44
0.0000000001
 40
0.0
 40
0.0
 40
0.0
 40
0.0
 40
0.2892099869
 40
0.4225130826
 40
0.5484548364
 40
0.6678211205
 40
0.7817899919
 40
0.8919144379
 40
1.0
 40
1.0
 40
1.0
 40
1.0
 10
17.6471896708
 20
12.5787917172
 30
0.0
 10
17.6471896708
 20
12.575601459
 30
0.0
 10
17.6475620978
 20
12.5709179208
 30
0.0
 10
17.6490002815
 20
12.5650307661
 30
0.0
 10
17.6504637478
 20
12.5611072778
 30
0.0
 10
17.6523288029
 20
12.5575962462
 30
0.0
 10
17.6545814099
 20
12.5545314757
 30
0.0
 10
17.6572018222
 20
12.5519478392
 30
0.0
 10
17.6591859229
 20
12.55056105
 30
0.0
 10
17.6602176971
 20
12.5499635664
 30
0.0
  0
SPLINE
  5
60E
100
AcDbEntity
  8
SURFACE
100
AcDbSpline
 62
7
  6
CONTINUOUS
 70
0
 71
3
 72
9
 73
5
 74
0
 42
0.0000001
 43
0.0000001
 44
0.0000000001
 40
0.0
 40
0.0
 40
0.0
 40
0.0
 40
0.4793684681
 40
1.0
 40
1.0
 40
1.0
 40
1.0
 10
17.6793547295
 20
12.5687640384
 30
0.0
 10
17.6782222913
 20
12.5690053803
 30
0.0
 10
17.6759066426
 20
12.5697385596
 30
0.0
 10
17.6737344739
 20
12.5708141838
 30
0.0
 10
17.672645409
 20
12.5714429415
 30
0.0
  0
ENDSEC
  0
SECTION
  2
OBJECTS
  0
DICTIONARY
  5
C
100
AcDbDictionary
280
0
281
1
  3
ACAD_GROUP
350
D
  3
ACAD_MLINESTYLE
350
17
  3
ACAD_LAYOUT
350
1A
  3
ACAD_PLOTSETTINGS
350
19
  3
ACAD_PLOTSTYLENAME
350
E
  3
ACAD_TABLESTYLE
350
       60F
  0
DICTIONARY
  5
D
102
{ACAD_REACTORS
330
C
102
}
100
AcDbDictionary
280
0
281
1
  0
ACDBDICTIONARYWDFLT
  5
E
102
{ACAD_REACTORS
330
C
102
}
100
AcDbDictionary
281
1
  3
Normal
350
F
100
AcDbDictionaryWithDefault
340
F
  0
DICTIONARY
  5
17
102
{ACAD_REACTORS
330
C
102
}
100
AcDbDictionary
280
0
281
1
  3
Standard
350
18
  0
DICTIONARY
  5
60F
330
C
100
AcDbDictionary
281
1
  3
Standard
350
       612
  3
Standard1
350
       613
  0
DICTIONARY
  5
19
102
{ACAD_REACTORS
330
C
102
}
100
AcDbDictionary
281
1
  0
DICTIONARY
  5
1A
102
{ACAD_REACTORS
330
C
102
}
100
AcDbDictionary
281
1
  3
Model
350
610
  3
Layout1
350
611
  0
ACDBPLACEHOLDER
  5
F
102
{ACAD_REACTORS
330
E
102
}
  0
MLINESTYLE
  5
18
102
{ACAD_REACTORS
330
17
102
}
100
AcDbMlineStyle
  2
STANDARD
 70
0
  3

 62
256
 51
90.0
 52
90.0
 71
2
 49
0.5
 62
256
  6
BYLAYER
 49
-0.5
 62
256
  6
BYLAYER
  0
LAYOUT
  5
610
102
{ACAD_REACTORS
330
1A
102
}
100
AcDbPlotSettings
  1

  2
none_device
  4
ANSI_C_(22.00_x_17.00_Inches)
  6

 40
0.0
 41
0.0
 42
0.0
 43
0.0
 44
558.8
 45
431.8
 46
0.0
 47
0.0
 48
0.0
 49
0.0
140
0.0
141
0.0
142
1.0
143
1.0
 70
1024
 72
0
 73
0
 74
0
  7

 75
0
147
1.0
148
0.0
149
0.0
100
AcDbLayout
  1
Model
 70
0
 71
0
 10
0.0
 20
0.0
 11
22.0
 21
17.0
 12
0.0
 22
0.0
 32
0.0
 14
0.0
 24
0.0
 34
0.0
 15
0.0
 25
0.0
 35
0.0
146
0.0
 13
0.0
 23
0.0
 33
0.0
 16
1.0
 26
0.0
 36
0.0
 17
0.0
 27
1.0
 37
0.0
 76
0
330
219
345
0
346
0
  0
LAYOUT
  5
611
102
{ACAD_REACTORS
330
1A
102
}
100
AcDbPlotSettings
  1

  2
none_device
  4
ANSI_C_(22.00_x_17.00_Inches)
  6

 40
0.0
 41
0.0
 42
0.0
 43
0.0
 44
558.8
 45
431.8
 46
0.0
 47
0.0
 48
0.0
 49
0.0
140
0.0
141
0.0
142
1.0
143
1.0
 70
0
 72
0
 73
0
 74
0
  7

 75
0
147
1.0
148
0.0
149
0.0
100
AcDbLayout
  1
Layout1
 70
0
 71
1
 10
0.0
 20
0.0
 11
22.0
 21
17.0
 12
0.0
 22
0.0
 32
0.0
 14
0.0
 24
0.0
 34
0.0
 15
0.0
 25
0.0
 35
0.0
146
0.0
 13
0.0
 23
0.0
 33
0.0
 16
1.0
 26
0.0
 36
0.0
 17
0.0
 27
1.0
 37
0.0
 76
0
330
21A
345
0
346
0
  0
TABLESTYLE
  5
612
102
{ACAD_REACTORS
330
60F
102
}
330
60F
100
AcDbTableStyle
  3
Standard
 70
0
 71
0
 40
0.06
 41
0.06
280
1
281
1
  7
Standard
140
0.18
170
1
 62
0
 63
7
283
0
  7
Standard
140
0.18
170
1
 62
0
 63
7
283
0
  7
Standard
140
0.18
170
1
 62
0
 63
7
283
0
  0
TABLESTYLE
  5
613
102
{ACAD_REACTORS
330
60F
330
2B6
102
}
330
60F
100
AcDbTableStyle
  3
Standard1
 70
1
 71
0
 40
0.06
 41
0.06
280
1
281
1
  7
Standard
140
0.18
170
1
 62
0
 63
7
283
0
  7
Standard
140
0.18
170
1
 62
0
 63
7
283
0
  7
Standard
140
0.18
170
1
 62
0
 63
7
283
0
  0
ENDSEC
  0
EOF
