999
DXF file: 192817_1.dxf
999
Pro/ENGINEER 2013230 by Parametric Technology Corporation
  0
SECTION
  2
HEADER
  9
$ACADVER
  1
AC1018
  9
$DWGCODEPAGE
  3
ANSI_1252
  9
$EXTMAX
 10
22.0
 20
17.0
 30
0.0
  9
$EXTMIN
 10
0.0
 20
0.0
 30
0.0
  9
$LIMMIN
 10
0.0
 20
0.0
  9
$LIMMAX
 10
22.0
 20
17.0
  9
$VIEWCTR
 10
11.0
 20
8.5
  9
$VIEWSIZE
 40
17.0
  9
$CLAYER
  8
0
  9
$LTSCALE
 40
1.21
  9
$CELTYPE
  6
BYLAYER
  9
$DIMSCALE
 40
1.0
  9
$DIMASZ
 40
0.1875
  9
$DIMEXO
 40
0.0625
  9
$DIMDLI
 40
0.836
  9
$DIMEXE
 40
0.125
  9
$DIMCEN
 40
0.198
  9
$DIMLFAC
 40
1.0
  9
$DIMBLK
  1
_FILLED
  9
$DIMTXT
 40
0.1
  9
$DIMTOL
 70
1
  9
$DIMLIM
 70
0
  9
$DIMTFAC
 40
1.0
  9
$DIMTP
 40
0.01
  9
$DIMTM
 40
0.01
  9
$DIMGAP
 40
0.09
  9
$DIMDSEP
 70
46
  9
$PDMODE
 70
3
  9
$PDSIZE
 40
0.3125
  9
$HANDSEED
  5
5C6
  9
$TILEMODE
 70
1
  9
$MEASUREMENT
 70
0
  9
$INSUNITS
 70
1
  0
ENDSEC
  0
SECTION
  2
CLASSES
  0
CLASS
  1
ACDBDICTIONARYWDFLT
  2
AcDbDictionaryWithDefault
  3
AutoCAD 2000
 90
0
 91
1
280
0
281
0
  0
CLASS
  1
ACDBPLACEHOLDER
  2
AcDbPlaceHolder
  3
AutoCAD 2000
 90
0
 91
1
280
0
281
0
  0
CLASS
  1
LAYOUT
  2
AcDbLayout
  3
AutoCAD 2000
 90
0
 91
0
280
0
281
0
  0
CLASS
  1
TABLESTYLE
  2
AcDbTableStyle
  3
ObjectDBX Classes
 90
2047
 91
1
280
0
281
0
  0
CLASS
  1
ACAD_TABLE
  2
AcDbTable
  3
ObjectDBX Classes
 90
1025
 91
1
280
0
281
1
  0
ENDSEC
  0
SECTION
  2
TABLES
  0
TABLE
  2
VPORT
  5
8
100
AcDbSymbolTable
 70
2
  0
VPORT
  5
1F4
100
AcDbSymbolTableRecord
100
AcDbViewportTableRecord
  2
*ACTIVE
 70
0
 10
0.0
 20
0.0
 11
1.0
 21
1.0
 12
11.0
 22
8.5
 13
0.0
 23
0.0
 14
1.0
 24
1.0
 15
0.0
 25
0.0
 16
0.0
 26
0.0
 36
1.0
 17
0.0
 27
0.0
 37
0.0
 40
17.0
 41
1.2941176471
 42
50.0
 43
0.0
 44
0.0
 50
0.0
 51
0.0
 71
0
 72
100
 73
1
 74
1
 75
0
 76
0
 77
0
 78
0
  0
ENDTAB
  0
TABLE
  2
LTYPE
  5
5
100
AcDbSymbolTable
 70
6
  0
LTYPE
  5
14
100
AcDbSymbolTableRecord
100
AcDbLinetypeTableRecord
  2
BYBLOCK
 70
0
  3

 72
65
 73
0
 40
0.0
  0
LTYPE
  5
15
100
AcDbSymbolTableRecord
100
AcDbLinetypeTableRecord
  2
BYLAYER
 70
0
  3

 72
65
 73
0
 40
0.0
  0
LTYPE
  5
16
100
AcDbSymbolTableRecord
100
AcDbLinetypeTableRecord
  2
CONTINUOUS
 70
64
  3
Solid line
 72
65
 73
0
 40
0.0
  0
LTYPE
  5
1F5
100
AcDbSymbolTableRecord
100
AcDbLinetypeTableRecord
  2
CENTER
 70
64
  3
____ _ ____ _ ____ _ ____ _ ____ _ ____ _ ____
 72
65
 73
4
 40
0.6
 49
0.375
 74
0
 49
-0.075
 74
0
 49
0.075
 74
0
 49
-0.075
 74
0
  0
LTYPE
  5
1F6
100
AcDbSymbolTableRecord
100
AcDbLinetypeTableRecord
  2
HIDDEN
 70
64
  3
- - - - - - - - - - - - - - - - - - - -
 72
65
 73
2
 40
0.2
 49
0.1
 74
0
 49
-0.1
 74
0
  0
LTYPE
  5
1F7
100
AcDbSymbolTableRecord
100
AcDbLinetypeTableRecord
  2
PHANTOM
 70
64
  3
_____ _ _ _____ _ _ _____ _ _ _____
 72
65
 73
6
 40
0.8
 49
0.45
 74
0
 49
-0.05
 74
0
 49
0.1
 74
0
 49
-0.05
 74
0
 49
0.1
 74
0
 49
-0.05
 74
0
  0
LTYPE
  5
1F8
100
AcDbSymbolTableRecord
100
AcDbLinetypeTableRecord
  2
DOT
 70
64
  3
. . . . . . . . . . . . . . . . . . . .
 72
65
 73
2
 40
0.2
 49
0.1
 74
0
 49
-0.1
 74
0
  0
LTYPE
  5
1F9
100
AcDbSymbolTableRecord
100
AcDbLinetypeTableRecord
  2
DASHED
 70
64
  3
- - - - - - - - - - - - - - - - - - - -
 72
65
 73
2
 40
0.2
 49
0.1
 74
0
 49
-0.1
 74
0
  0
ENDTAB
  0
TABLE
  2
LAYER
  5
2
100
AcDbSymbolTable
 70
36
  0
LAYER
  5
10
100
AcDbSymbolTableRecord
100
AcDbLayerTableRecord
  2
0
 70
0
 62
7
  6
CONTINUOUS
370
-3
390
F
  0
LAYER
  5
1FA
100
AcDbSymbolTableRecord
100
AcDbLayerTableRecord
  2
DEFAULT_1
 70
0
 62
7
  6
CENTER
370
-3
390
F
  0
LAYER
  5
1FB
100
AcDbSymbolTableRecord
100
AcDbLayerTableRecord
  2
DEFAULT_2
 70
0
 62
7
  6
HIDDEN
370
-3
390
F
  0
LAYER
  5
1FC
100
AcDbSymbolTableRecord
100
AcDbLayerTableRecord
  2
DEFAULT_3
 70
0
 62
7
  6
PHANTOM
370
-3
390
F
  0
LAYER
  5
1FD
100
AcDbSymbolTableRecord
100
AcDbLayerTableRecord
  2
01_ALL_DTM_PLN
 70
0
 62
7
  6
CONTINUOUS
370
-3
390
F
  0
LAYER
  5
1FE
100
AcDbSymbolTableRecord
100
AcDbLayerTableRecord
  2
01__ASM_ALL_DTM_PLN
 70
0
 62
7
  6
CONTINUOUS
370
-3
390
F
  0
LAYER
  5
1FF
100
AcDbSymbolTableRecord
100
AcDbLayerTableRecord
  2
01__ASM_DEF_DTM_PLN
 70
0
 62
7
  6
CONTINUOUS
370
-3
390
F
  0
LAYER
  5
200
100
AcDbSymbolTableRecord
100
AcDbLayerTableRecord
  2
01___PRT_ALL_DTM_PLN
 70
0
 62
7
  6
CONTINUOUS
370
-3
390
F
  0
LAYER
  5
201
100
AcDbSymbolTableRecord
100
AcDbLayerTableRecord
  2
01___PRT_DEF_DTM_PLN
 70
0
 62
7
  6
CONTINUOUS
370
-3
390
F
  0
LAYER
  5
202
100
AcDbSymbolTableRecord
100
AcDbLayerTableRecord
  2
02_ALL_AXES
 70
0
 62
7
  6
CONTINUOUS
370
-3
390
F
  0
LAYER
  5
203
100
AcDbSymbolTableRecord
100
AcDbLayerTableRecord
  2
02__ASM_ALL_AXES
 70
0
 62
7
  6
CONTINUOUS
370
-3
390
F
  0
LAYER
  5
204
100
AcDbSymbolTableRecord
100
AcDbLayerTableRecord
  2
02___PRT_ALL_AXES
 70
0
 62
7
  6
CONTINUOUS
370
-3
390
F
  0
LAYER
  5
205
100
AcDbSymbolTableRecord
100
AcDbLayerTableRecord
  2
03_ALL_CURVES
 70
0
 62
7
  6
CONTINUOUS
370
-3
390
F
  0
LAYER
  5
206
100
AcDbSymbolTableRecord
100
AcDbLayerTableRecord
  2
03__ASM_ALL_CURVES
 70
0
 62
7
  6
CONTINUOUS
370
-3
390
F
  0
LAYER
  5
207
100
AcDbSymbolTableRecord
100
AcDbLayerTableRecord
  2
03___PRT_ALL_CURVES
 70
0
 62
7
  6
CONTINUOUS
370
-3
390
F
  0
LAYER
  5
208
100
AcDbSymbolTableRecord
100
AcDbLayerTableRecord
  2
04_ALL_DTM_PNT
 70
0
 62
7
  6
CONTINUOUS
370
-3
390
F
  0
LAYER
  5
209
100
AcDbSymbolTableRecord
100
AcDbLayerTableRecord
  2
04__ASM_ALL_DTM_PNT
 70
0
 62
7
  6
CONTINUOUS
370
-3
390
F
  0
LAYER
  5
20A
100
AcDbSymbolTableRecord
100
AcDbLayerTableRecord
  2
04___PRT_ALL_DTM_PNT
 70
0
 62
7
  6
CONTINUOUS
370
-3
390
F
  0
LAYER
  5
20B
100
AcDbSymbolTableRecord
100
AcDbLayerTableRecord
  2
05_ALL_DTM_CSYS
 70
0
 62
7
  6
CONTINUOUS
370
-3
390
F
  0
LAYER
  5
20C
100
AcDbSymbolTableRecord
100
AcDbLayerTableRecord
  2
05__ASM_ALL_DTM_CSYS
 70
0
 62
7
  6
CONTINUOUS
370
-3
390
F
  0
LAYER
  5
20D
100
AcDbSymbolTableRecord
100
AcDbLayerTableRecord
  2
05__ASM_DEF_DTM_CSYS
 70
0
 62
7
  6
CONTINUOUS
370
-3
390
F
  0
LAYER
  5
20E
100
AcDbSymbolTableRecord
100
AcDbLayerTableRecord
  2
05___PRT_ALL_DTM_CSYS
 70
0
 62
7
  6
CONTINUOUS
370
-3
390
F
  0
LAYER
  5
20F
100
AcDbSymbolTableRecord
100
AcDbLayerTableRecord
  2
05___PRT_DEF_DTM_CSYS
 70
0
 62
7
  6
CONTINUOUS
370
-3
390
F
  0
LAYER
  5
210
100
AcDbSymbolTableRecord
100
AcDbLayerTableRecord
  2
06_ALL_SURFS
 70
0
 62
7
  6
CONTINUOUS
370
-3
390
F
  0
LAYER
  5
211
100
AcDbSymbolTableRecord
100
AcDbLayerTableRecord
  2
06__ASM_ALL_SURFS
 70
0
 62
7
  6
CONTINUOUS
370
-3
390
F
  0
LAYER
  5
212
100
AcDbSymbolTableRecord
100
AcDbLayerTableRecord
  2
06___PRT_ALL_SURFS
 70
0
 62
7
  6
CONTINUOUS
370
-3
390
F
  0
LAYER
  5
213
100
AcDbSymbolTableRecord
100
AcDbLayerTableRecord
  2
07__ASM_ALL_SKELETONS
 70
0
 62
7
  6
CONTINUOUS
370
-3
390
F
  0
LAYER
  5
214
100
AcDbSymbolTableRecord
100
AcDbLayerTableRecord
  2
61501
 70
0
 62
7
  6
CONTINUOUS
370
-3
390
F
  0
LAYER
  5
215
100
AcDbSymbolTableRecord
100
AcDbLayerTableRecord
  2
61584
 70
0
 62
7
  6
CONTINUOUS
370
-3
390
F
  0
LAYER
  5
216
100
AcDbSymbolTableRecord
100
AcDbLayerTableRecord
  2
61585
 70
0
 62
7
  6
CONTINUOUS
370
-3
390
F
  0
LAYER
  5
217
100
AcDbSymbolTableRecord
100
AcDbLayerTableRecord
  2
AXIS
 70
0
 62
7
  6
CONTINUOUS
370
-3
390
F
  0
LAYER
  5
218
100
AcDbSymbolTableRecord
100
AcDbLayerTableRecord
  2
AXIS_COSMETIC_THREADS
 70
0
 62
7
  6
CONTINUOUS
370
-3
390
F
  0
LAYER
  5
219
100
AcDbSymbolTableRecord
100
AcDbLayerTableRecord
  2
DATUM_PLANES
 70
0
 62
7
  6
CONTINUOUS
370
-3
390
F
  0
LAYER
  5
21A
100
AcDbSymbolTableRecord
100
AcDbLayerTableRecord
  2
DRIVEN_DIMS
 70
0
 62
7
  6
CONTINUOUS
370
-3
390
F
  0
LAYER
  5
21B
100
AcDbSymbolTableRecord
100
AcDbLayerTableRecord
  2
G_DATUM
 70
0
 62
7
  6
CONTINUOUS
370
-3
390
F
  0
LAYER
  5
21C
100
AcDbSymbolTableRecord
100
AcDbLayerTableRecord
  2
NOTES
 70
0
 62
7
  6
CONTINUOUS
370
-3
390
F
  0
LAYER
  5
21D
100
AcDbSymbolTableRecord
100
AcDbLayerTableRecord
  2
QUILTS
 70
0
 62
7
  6
CONTINUOUS
370
-3
390
F
  0
LAYER
  5
21E
100
AcDbSymbolTableRecord
100
AcDbLayerTableRecord
  2
SCHEME_DIMS
 70
0
 62
7
  6
CONTINUOUS
370
-3
390
F
  0
LAYER
  5
21F
100
AcDbSymbolTableRecord
100
AcDbLayerTableRecord
  2
SURFACE
 70
0
 62
7
  6
CONTINUOUS
370
-3
390
F
  0
LAYER
  5
220
100
AcDbSymbolTableRecord
100
AcDbLayerTableRecord
  2
SYMBOLS
 70
0
 62
7
  6
CONTINUOUS
370
-3
390
F
  0
LAYER
  5
221
100
AcDbSymbolTableRecord
100
AcDbLayerTableRecord
  2
XSEC_DATUMS
 70
0
 62
7
  6
CONTINUOUS
370
-3
390
F
  0
ENDTAB
  0
TABLE
  2
STYLE
  5
3
100
AcDbSymbolTable
 70
1
  0
STYLE
  5
11
100
AcDbSymbolTableRecord
100
AcDbTextStyleTableRecord
  2
STANDARD
 70
0
 40
0.0
 41
1.0
 50
0.0
 71
0
 42
0.2
  3
txt
  4

  0
STYLE
  5
222
100
AcDbSymbolTableRecord
100
AcDbTextStyleTableRecord
  2
TEXTSTYLE_1
 70
0
 40
0.0
 41
0.8
 50
0.0
 71
0
 42
0.2
  3
gdt
  4

  0
STYLE
  5
223
100
AcDbSymbolTableRecord
100
AcDbTextStyleTableRecord
  2
TEXTSTYLE_2
 70
0
 40
0.0
 41
0.8
 50
0.0
 71
0
 42
0.2
  3
txt
  4

  0
STYLE
  5
224
100
AcDbSymbolTableRecord
100
AcDbTextStyleTableRecord
  2
TEXTSTYLE_3
 70
0
 40
0.0
 41
0.9
 50
0.0
 71
0
 42
0.2
  3
txt
  4

  0
STYLE
  5
225
100
AcDbSymbolTableRecord
100
AcDbTextStyleTableRecord
  2
TEXTSTYLE_4
 70
0
 40
0.0
 41
0.85
 50
0.0
 71
0
 42
0.2
  3
txt
  4

  0
STYLE
  5
226
100
AcDbSymbolTableRecord
100
AcDbTextStyleTableRecord
  2
TEXTSTYLE_5
 70
0
 40
0.0
 41
0.75
 50
0.0
 71
0
 42
0.2
  3
txt
  4

  0
ENDTAB
  0
TABLE
  2
VIEW
  5
6
100
AcDbSymbolTable
 70
0
  0
ENDTAB
  0
TABLE
  2
UCS
  5
7
100
AcDbSymbolTable
 70
0
  0
ENDTAB
  0
TABLE
  2
APPID
  5
9
100
AcDbSymbolTable
 70
1
  0
APPID
  5
227
100
AcDbSymbolTableRecord
100
AcDbRegAppTableRecord
  2
ACAD
 70
0
  0
ENDTAB
  0
TABLE
  2
BLOCK_RECORD
  5
1
100
AcDbSymbolTable
 70
0
  0
BLOCK_RECORD
  5
228
100
AcDbSymbolTableRecord
100
AcDbBlockTableRecord
  2
*Model_Space
  0
BLOCK_RECORD
  5
229
100
AcDbSymbolTableRecord
100
AcDbBlockTableRecord
  2
*Paper_Space
  0
BLOCK_RECORD
  5
22A
100
AcDbSymbolTableRecord
100
AcDbBlockTableRecord
  2
_FILLED
  0
BLOCK_RECORD
  5
22B
100
AcDbSymbolTableRecord
100
AcDbBlockTableRecord
  2
*D0
  0
BLOCK_RECORD
  5
22C
100
AcDbSymbolTableRecord
100
AcDbBlockTableRecord
  2
*D1
  0
BLOCK_RECORD
  5
22D
100
AcDbSymbolTableRecord
100
AcDbBlockTableRecord
  2
*D2
  0
BLOCK_RECORD
  5
22E
100
AcDbSymbolTableRecord
100
AcDbBlockTableRecord
  2
*D3
  0
BLOCK_RECORD
  5
22F
100
AcDbSymbolTableRecord
100
AcDbBlockTableRecord
  2
*D4
  0
BLOCK_RECORD
  5
230
100
AcDbSymbolTableRecord
100
AcDbBlockTableRecord
  2
*D5
  0
BLOCK_RECORD
  5
231
100
AcDbSymbolTableRecord
100
AcDbBlockTableRecord
  2
*D6
  0
BLOCK_RECORD
  5
232
100
AcDbSymbolTableRecord
100
AcDbBlockTableRecord
  2
*D7
  0
BLOCK_RECORD
  5
233
100
AcDbSymbolTableRecord
100
AcDbBlockTableRecord
  2
*D8
  0
BLOCK_RECORD
  5
234
100
AcDbSymbolTableRecord
100
AcDbBlockTableRecord
  2
*T1
  0
ENDTAB
  0
TABLE
  2
DIMSTYLE
  5
A
100
AcDbSymbolTable
 70
1
100
AcDbDimStyleTable
 71
0
  0
DIMSTYLE
105
235
100
AcDbSymbolTableRecord
100
AcDbDimStyleTableRecord
  2
STANDARD
 70
0
  3

  4

 40
1.0
 41
0.1875
 42
0.0625
 43
0.38
 44
0.125
 45
0.0
 46
0.0
 47
0.01
 48
0.01
140
0.1
141
0.09
142
0.0
143
25.4
144
1.0
145
0.0
146
1.0
147
0.09
 71
1.0
 72
0.0
 73
1
 74
1
 75
0
 76
0
 77
0
 78
4
170
0
171
2
172
0
173
0
174
0
175
0
176
0
177
0
178
0
270
2
271
2
272
2
273
2
274
2
275
0
280
0
281
0
282
0
283
1
284
4
285
0
286
0
287
3
288
0
340
11
278
46
341
22A
342
22A
343
22A
344
22A
  0
DIMSTYLE
105
236
100
AcDbSymbolTableRecord
100
AcDbDimStyleTableRecord
  2
DIMSTYLE_1
 70
0
  3

  4

 40
1.0
 41
0.1875
 42
0.0625
 43
0.38
 44
0.125
 45
0.0
 46
0.0
 47
0.005
 48
0.005
140
0.1
141
0.09
142
0.0
143
25.4
144
1.0
145
0.0
146
1.0
147
0.1
 71
0.0
 72
0.0
 73
1
 74
1
 75
0
 76
0
 77
0
 78
4
170
0
171
2
172
0
173
0
174
0
175
0
176
0
177
0
178
0
270
2
271
1
272
1
273
2
274
2
275
0
280
0
281
0
282
0
283
1
284
4
285
0
286
0
287
3
288
0
340
11
278
46
341
22A
342
22A
343
22A
344
22A
  0
ENDTAB
  0
ENDSEC
  0
SECTION
  2
BLOCKS
  0
BLOCK
  5
20
100
AcDbEntity
  8
0
100
AcDbBlockBegin
  2
*Model_Space
 70
0
 10
0.0
 20
0.0
 30
0.0
  3
*Model_Space
  1

  0
ENDBLK
  5
21
100
AcDbEntity
  8
0
100
AcDbBlockEnd
  0
BLOCK
  5
1C
100
AcDbEntity
  8
0
100
AcDbBlockBegin
  2
*Paper_Space
 70
0
 10
0.0
 20
0.0
 30
0.0
  3
*Paper_Space
  1

  0
ENDBLK
  5
1D
100
AcDbEntity
  8
0
100
AcDbBlockEnd
  0
BLOCK
  5
237
100
AcDbEntity
  8
0
100
AcDbBlockBegin
  2
_FILLED
 70
64
 10
0.0
 20
0.0
  3
_FILLED
  1

  0
SOLID
  5
238
100
AcDbEntity
  8
0
  6
BYBLOCK
 62
0
100
AcDbTrace
 10
0.0
 20
0.0
 11
-1.0
 21
0.1666666667
 12
-1.0
 22
-0.1666666667
 13
-1.0
 23
-0.1666666667
  0
ENDBLK
  5
239
100
AcDbEntity
  8
0
  6
BYBLOCK
 62
0
100
AcDbBlockEnd
  0
BLOCK
  5
23A
100
AcDbEntity
  8
DRIVEN_DIMS
100
AcDbBlockBegin
 62
7
  6
CONTINUOUS
  2
*D0
 70
65
 10
0.0
 20
0.0
  3
*D0
  1

  0
MTEXT
  5
23B
100
AcDbEntity
  8
DRIVEN_DIMS
100
AcDbMText
 62
7
  6
CONTINUOUS
  7
STANDARD
 71
2
 72
1
 10
3.4979968735
 20
4.9240861528
 30
0.0
 11
1.0
 21
0.0
 31
0.0
 44
0.9
  1
61.0\P[2.40]
 40
0.1
 41
0.6
  0
LINE
  5
23C
100
AcDbEntity
  8
DRIVEN_DIMS
100
AcDbLine
 62
7
  6
CONTINUOUS
 10
4.1020008105
 20
3.6740861528
 11
3.4729968735
 21
3.6740861528
  0
LINE
  5
23D
100
AcDbEntity
  8
DRIVEN_DIMS
100
AcDbLine
 62
7
  6
CONTINUOUS
 10
4.1020008105
 20
6.0740861528
 11
3.4729968735
 21
6.0740861528
  0
LINE
  5
23E
100
AcDbEntity
  8
DRIVEN_DIMS
100
AcDbLine
 62
7
  6
CONTINUOUS
 10
3.5979968735
 20
3.6740861528
 11
3.5979968735
 21
4.5740861528
  0
LINE
  5
23F
100
AcDbEntity
  8
DRIVEN_DIMS
100
AcDbLine
 62
7
  6
CONTINUOUS
 10
3.5979968735
 20
6.0740861528
 11
3.5979968735
 21
5.0240861528
  0
INSERT
  5
240
100
AcDbEntity
  8
DRIVEN_DIMS
100
AcDbBlockReference
 62
7
  6
CONTINUOUS
  2
_FILLED
 10
3.5979968735
 20
3.6740861528
 41
0.1875
 42
0.1875
 43
0.1875
 50
270.0
  0
INSERT
  5
241
100
AcDbEntity
  8
DRIVEN_DIMS
100
AcDbBlockReference
 62
7
  6
CONTINUOUS
  2
_FILLED
 10
3.5979968735
 20
6.0740861528
 41
0.1875
 42
0.1875
 43
0.1875
 50
90.0
  0
ENDBLK
  5
242
100
AcDbEntity
  8
0
  6
BYBLOCK
 62
0
100
AcDbBlockEnd
  0
BLOCK
  5
243
100
AcDbEntity
  8
DRIVEN_DIMS
100
AcDbBlockBegin
 62
7
  6
CONTINUOUS
  2
*D1
 70
65
 10
0.0
 20
0.0
  3
*D1
  1

  0
MTEXT
  5
244
100
AcDbEntity
  8
DRIVEN_DIMS
100
AcDbMText
 62
7
  6
CONTINUOUS
  7
STANDARD
 71
2
 72
1
 10
6.1709968735
 20
2.6010861528
 30
0.0
 11
1.0
 21
0.0
 31
0.0
 44
0.9
  1
94.0\P[3.70]
 40
0.1
 41
0.6
  0
LINE
  5
245
100
AcDbEntity
  8
DRIVEN_DIMS
100
AcDbLine
 62
7
  6
CONTINUOUS
 10
4.4209968735
 20
3.3550900898
 11
4.4209968735
 21
2.4260861528
  0
LINE
  5
246
100
AcDbEntity
  8
DRIVEN_DIMS
100
AcDbLine
 62
7
  6
CONTINUOUS
 10
8.1209968735
 20
3.3550900898
 11
8.1209968735
 21
2.4260861528
  0
LINE
  5
247
100
AcDbEntity
  8
DRIVEN_DIMS
100
AcDbLine
 62
7
  6
CONTINUOUS
 10
4.4209968735
 20
2.5510861528
 11
5.8709968735
 21
2.5510861528
  0
LINE
  5
248
100
AcDbEntity
  8
DRIVEN_DIMS
100
AcDbLine
 62
7
  6
CONTINUOUS
 10
8.1209968735
 20
2.5510861528
 11
6.6709968735
 21
2.5510861528
  0
INSERT
  5
249
100
AcDbEntity
  8
DRIVEN_DIMS
100
AcDbBlockReference
 62
7
  6
CONTINUOUS
  2
_FILLED
 10
4.4209968735
 20
2.5510861528
 41
0.1875
 42
0.1875
 43
0.1875
 50
180.0
  0
INSERT
  5
24A
100
AcDbEntity
  8
DRIVEN_DIMS
100
AcDbBlockReference
 62
7
  6
CONTINUOUS
  2
_FILLED
 10
8.1209968735
 20
2.5510861528
 41
0.1875
 42
0.1875
 43
0.1875
  0
ENDBLK
  5
24B
100
AcDbEntity
  8
0
  6
BYBLOCK
 62
0
100
AcDbBlockEnd
  0
BLOCK
  5
24C
100
AcDbEntity
  8
DRIVEN_DIMS
100
AcDbBlockBegin
 62
7
  6
CONTINUOUS
  2
*D2
 70
65
 10
0.0
 20
0.0
  3
*D2
  1

  0
MTEXT
  5
24D
100
AcDbEntity
  8
DRIVEN_DIMS
100
AcDbMText
 62
7
  6
CONTINUOUS
  7
STANDARD
 71
1
 72
1
 10
9.0187804849
 20
2.6010861528
 30
0.0
 11
1.0
 21
0.0
 31
0.0
 44
0.9
  1
8.2\P[.32]
 40
0.1
 41
0.5
  0
LINE
  5
24E
100
AcDbEntity
  8
DRIVEN_DIMS
100
AcDbLine
 62
7
  6
CONTINUOUS
 10
8.1209968735
 20
3.3550900898
 11
8.1209968735
 21
2.4260861528
  0
LINE
  5
24F
100
AcDbEntity
  8
DRIVEN_DIMS
100
AcDbLine
 62
7
  6
CONTINUOUS
 10
8.4439968735
 20
2.9929435529
 11
8.4439968735
 21
2.4260861528
  0
LINE
  5
250
100
AcDbEntity
  8
DRIVEN_DIMS
100
AcDbLine
 62
7
  6
CONTINUOUS
 10
8.1209968735
 20
2.5510861528
 11
7.7209968735
 21
2.5510861528
  0
LINE
  5
251
100
AcDbEntity
  8
DRIVEN_DIMS
100
AcDbLine
 62
7
  6
CONTINUOUS
 10
8.4439968735
 20
2.5510861528
 11
8.9187804849
 21
2.5510861528
  0
INSERT
  5
252
100
AcDbEntity
  8
DRIVEN_DIMS
100
AcDbBlockReference
 62
7
  6
CONTINUOUS
  2
_FILLED
 10
8.1209968735
 20
2.5510861528
 41
0.1875
 42
0.1875
 43
0.1875
  0
INSERT
  5
253
100
AcDbEntity
  8
DRIVEN_DIMS
100
AcDbBlockReference
 62
7
  6
CONTINUOUS
  2
_FILLED
 10
8.4439968735
 20
2.5510861528
 41
0.1875
 42
0.1875
 43
0.1875
 50
180.0
  0
ENDBLK
  5
254
100
AcDbEntity
  8
0
  6
BYBLOCK
 62
0
100
AcDbBlockEnd
  0
BLOCK
  5
255
100
AcDbEntity
  8
DRIVEN_DIMS
100
AcDbBlockBegin
 62
7
  6
CONTINUOUS
  2
*D3
 70
65
 10
0.0
 20
0.0
  3
*D3
  1

  0
MTEXT
  5
256
100
AcDbEntity
  8
DRIVEN_DIMS
100
AcDbMText
 62
7
  6
CONTINUOUS
  7
STANDARD
 71
2
 72
1
 10
3.5479968735
 20
3.4732498453
 30
0.0
 11
1.0
 21
0.0
 31
0.0
 44
0.9
  1
15.8\P[.62]
 40
0.1
 41
0.5
  0
LINE
  5
257
100
AcDbEntity
  8
DRIVEN_DIMS
100
AcDbLine
 62
7
  6
CONTINUOUS
 10
4.1020008105
 20
3.6740861528
 11
3.4729968735
 21
3.6740861528
  0
LINE
  5
258
100
AcDbEntity
  8
DRIVEN_DIMS
100
AcDbLine
 62
7
  6
CONTINUOUS
 10
4.051312241
 20
3.0510861528
 11
3.4729968735
 21
3.0510861528
  0
LINE
  5
259
100
AcDbEntity
  8
DRIVEN_DIMS
100
AcDbLine
 62
7
  6
CONTINUOUS
 10
3.5979968735
 20
3.6740861528
 11
3.5979968735
 21
4.0740861528
  0
LINE
  5
25A
100
AcDbEntity
  8
DRIVEN_DIMS
100
AcDbLine
 62
7
  6
CONTINUOUS
 10
3.5979968735
 20
3.0510861528
 11
3.5979968735
 21
2.6510861528
  0
INSERT
  5
25B
100
AcDbEntity
  8
DRIVEN_DIMS
100
AcDbBlockReference
 62
7
  6
CONTINUOUS
  2
_FILLED
 10
3.5979968735
 20
3.6740861528
 41
0.1875
 42
0.1875
 43
0.1875
 50
270.0
  0
INSERT
  5
25C
100
AcDbEntity
  8
DRIVEN_DIMS
100
AcDbBlockReference
 62
7
  6
CONTINUOUS
  2
_FILLED
 10
3.5979968735
 20
3.0510861528
 41
0.1875
 42
0.1875
 43
0.1875
 50
90.0
  0
ENDBLK
  5
25D
100
AcDbEntity
  8
0
  6
BYBLOCK
 62
0
100
AcDbBlockEnd
  0
BLOCK
  5
25E
100
AcDbEntity
  8
DRIVEN_DIMS
100
AcDbBlockBegin
 62
7
  6
CONTINUOUS
  2
*D4
 70
65
 10
0.0
 20
0.0
  3
*D4
  1

  0
MTEXT
  5
25F
100
AcDbEntity
  8
DRIVEN_DIMS
100
AcDbMText
 62
7
  6
CONTINUOUS
  7
STANDARD
 71
2
 72
1
 10
3.5479968735
 20
8.7825588846
 30
0.0
 11
1.0
 21
0.0
 31
0.0
 44
0.9
  1
25.0\P[.99]
 40
0.1
 41
0.5
  0
LINE
  5
260
100
AcDbEntity
  8
DRIVEN_DIMS
100
AcDbLine
 62
7
  6
CONTINUOUS
 10
4.0354968735
 20
9.1575330817
 11
3.4729968735
 21
9.1575330817
  0
LINE
  5
261
100
AcDbEntity
  8
DRIVEN_DIMS
100
AcDbLine
 62
7
  6
CONTINUOUS
 10
4.1254968735
 20
8.1725330817
 11
3.4729968735
 21
8.1725330817
  0
LINE
  5
262
100
AcDbEntity
  8
DRIVEN_DIMS
100
AcDbLine
 62
7
  6
CONTINUOUS
 10
3.5979968735
 20
9.1575330817
 11
3.5979968735
 21
8.8825588846
  0
LINE
  5
263
100
AcDbEntity
  8
DRIVEN_DIMS
100
AcDbLine
 62
7
  6
CONTINUOUS
 10
3.5979968735
 20
8.1725330817
 11
3.5979968735
 21
8.4325588846
  0
INSERT
  5
264
100
AcDbEntity
  8
DRIVEN_DIMS
100
AcDbBlockReference
 62
7
  6
CONTINUOUS
  2
_FILLED
 10
3.5979968735
 20
9.1575330817
 41
0.1875
 42
0.1875
 43
0.1875
 50
90.0
  0
INSERT
  5
265
100
AcDbEntity
  8
DRIVEN_DIMS
100
AcDbBlockReference
 62
7
  6
CONTINUOUS
  2
_FILLED
 10
3.5979968735
 20
8.1725330817
 41
0.1875
 42
0.1875
 43
0.1875
 50
270.0
  0
ENDBLK
  5
266
100
AcDbEntity
  8
0
  6
BYBLOCK
 62
0
100
AcDbBlockEnd
  0
BLOCK
  5
267
100
AcDbEntity
  8
DRIVEN_DIMS
100
AcDbBlockBegin
 62
7
  6
CONTINUOUS
  2
*D5
 70
65
 10
0.0
 20
0.0
  3
*D5
  1

  0
MTEXT
  5
268
100
AcDbEntity
  8
DRIVEN_DIMS
100
AcDbMText
 62
7
  6
CONTINUOUS
  7
STANDARD
 71
2
 72
1
 10
3.4979968735
 20
12.8490195153
 30
0.0
 11
1.0
 21
0.0
 31
0.0
 44
0.9
  1
92.6\P[3.65]
 40
0.1
 41
0.6
  0
LINE
  5
269
100
AcDbEntity
  8
DRIVEN_DIMS
100
AcDbLine
 62
7
  6
CONTINUOUS
 10
4.0354968735
 20
10.9760195153
 11
3.4729968735
 21
10.9760195153
  0
LINE
  5
26A
100
AcDbEntity
  8
DRIVEN_DIMS
100
AcDbLine
 62
7
  6
CONTINUOUS
 10
4.0354968735
 20
14.6220195153
 11
3.4729968735
 21
14.6220195153
  0
LINE
  5
26B
100
AcDbEntity
  8
DRIVEN_DIMS
100
AcDbLine
 62
7
  6
CONTINUOUS
 10
3.5979968735
 20
10.9760195153
 11
3.5979968735
 21
12.4990195153
  0
LINE
  5
26C
100
AcDbEntity
  8
DRIVEN_DIMS
100
AcDbLine
 62
7
  6
CONTINUOUS
 10
3.5979968735
 20
14.6220195153
 11
3.5979968735
 21
12.9490195153
  0
INSERT
  5
26D
100
AcDbEntity
  8
DRIVEN_DIMS
100
AcDbBlockReference
 62
7
  6
CONTINUOUS
  2
_FILLED
 10
3.5979968735
 20
10.9760195153
 41
0.1875
 42
0.1875
 43
0.1875
 50
270.0
  0
INSERT
  5
26E
100
AcDbEntity
  8
DRIVEN_DIMS
100
AcDbBlockReference
 62
7
  6
CONTINUOUS
  2
_FILLED
 10
3.5979968735
 20
14.6220195153
 41
0.1875
 42
0.1875
 43
0.1875
 50
90.0
  0
ENDBLK
  5
26F
100
AcDbEntity
  8
0
  6
BYBLOCK
 62
0
100
AcDbBlockEnd
  0
BLOCK
  5
270
100
AcDbEntity
  8
DRIVEN_DIMS
100
AcDbBlockBegin
 62
7
  6
CONTINUOUS
  2
*D6
 70
65
 10
0.0
 20
0.0
  3
*D6
  1

  0
MTEXT
  5
271
100
AcDbEntity
  8
DRIVEN_DIMS
100
AcDbMText
 62
7
  6
CONTINUOUS
  7
STANDARD
 71
2
 72
1
 10
6.2209968735
 20
15.1720195153
 30
0.0
 11
1.0
 21
0.0
 31
0.0
 44
0.9
  1
110.4\P[4.35]
 40
0.1
 41
0.6
  0
LINE
  5
272
100
AcDbEntity
  8
DRIVEN_DIMS
100
AcDbLine
 62
7
  6
CONTINUOUS
 10
8.4439968735
 20
14.6365195153
 11
8.4439968735
 21
15.2470195153
  0
LINE
  5
273
100
AcDbEntity
  8
DRIVEN_DIMS
100
AcDbLine
 62
7
  6
CONTINUOUS
 10
4.0979968735
 20
14.6365195153
 11
4.0979968735
 21
15.2470195153
  0
LINE
  5
274
100
AcDbEntity
  8
DRIVEN_DIMS
100
AcDbLine
 62
7
  6
CONTINUOUS
 10
8.4439968735
 20
15.1220195153
 11
6.6709968735
 21
15.1220195153
  0
LINE
  5
275
100
AcDbEntity
  8
DRIVEN_DIMS
100
AcDbLine
 62
7
  6
CONTINUOUS
 10
4.0979968735
 20
15.1220195153
 11
5.8709968735
 21
15.1220195153
  0
INSERT
  5
276
100
AcDbEntity
  8
DRIVEN_DIMS
100
AcDbBlockReference
 62
7
  6
CONTINUOUS
  2
_FILLED
 10
8.4439968735
 20
15.1220195153
 41
0.1875
 42
0.1875
 43
0.1875
  0
INSERT
  5
277
100
AcDbEntity
  8
DRIVEN_DIMS
100
AcDbBlockReference
 62
7
  6
CONTINUOUS
  2
_FILLED
 10
4.0979968735
 20
15.1220195153
 41
0.1875
 42
0.1875
 43
0.1875
 50
180.0
  0
ENDBLK
  5
278
100
AcDbEntity
  8
0
  6
BYBLOCK
 62
0
100
AcDbBlockEnd
  0
BLOCK
  5
279
100
AcDbEntity
  8
DRIVEN_DIMS
100
AcDbBlockBegin
 62
7
  6
CONTINUOUS
  2
*D7
 70
65
 10
0.0
 20
0.0
  3
*D7
  1

  0
MTEXT
  5
27A
100
AcDbEntity
  8
DRIVEN_DIMS
100
AcDbMText
 62
7
  6
CONTINUOUS
  7
STANDARD
 71
2
 72
1
 10
16.1475511033
 20
7.7225330817
 30
0.0
 11
1.0
 21
0.0
 31
0.0
 44
0.9
  1
46.3\P[1.82]
 40
0.1
 41
0.6
  0
LINE
  5
27B
100
AcDbEntity
  8
DRIVEN_DIMS
100
AcDbLine
 62
7
  6
CONTINUOUS
 10
17.1590511033
 20
8.2500330817
 11
17.1590511033
 21
7.5475330817
  0
LINE
  5
27C
100
AcDbEntity
  8
DRIVEN_DIMS
100
AcDbLine
 62
7
  6
CONTINUOUS
 10
15.3360511033
 20
8.2080330817
 11
15.3360511033
 21
7.5475330817
  0
LINE
  5
27D
100
AcDbEntity
  8
DRIVEN_DIMS
100
AcDbLine
 62
7
  6
CONTINUOUS
 10
17.1590511033
 20
7.6725330817
 11
16.6475511033
 21
7.6725330817
  0
LINE
  5
27E
100
AcDbEntity
  8
DRIVEN_DIMS
100
AcDbLine
 62
7
  6
CONTINUOUS
 10
15.3360511033
 20
7.6725330817
 11
15.8475511033
 21
7.6725330817
  0
INSERT
  5
27F
100
AcDbEntity
  8
DRIVEN_DIMS
100
AcDbBlockReference
 62
7
  6
CONTINUOUS
  2
_FILLED
 10
17.1590511033
 20
7.6725330817
 41
0.1875
 42
0.1875
 43
0.1875
  0
INSERT
  5
280
100
AcDbEntity
  8
DRIVEN_DIMS
100
AcDbBlockReference
 62
7
  6
CONTINUOUS
  2
_FILLED
 10
15.3360511033
 20
7.6725330817
 41
0.1875
 42
0.1875
 43
0.1875
 50
180.0
  0
ENDBLK
  5
281
100
AcDbEntity
  8
0
  6
BYBLOCK
 62
0
100
AcDbBlockEnd
  0
BLOCK
  5
282
100
AcDbEntity
  8
DRIVEN_DIMS
100
AcDbBlockBegin
 62
7
  6
CONTINUOUS
  2
*D8
 70
65
 10
0.0
 20
0.0
  3
*D8
  1

  0
MTEXT
  5
283
100
AcDbEntity
  8
DRIVEN_DIMS
100
AcDbMText
 62
7
  6
CONTINUOUS
  7
STANDARD
 71
2
 72
1
 10
14.7860511033
 20
8.5255044005
 30
0.0
 11
1.0
 21
0.0
 31
0.0
 44
0.9
  1
11.2\P[.44]
 40
0.1
 41
0.5
  0
LINE
  5
284
100
AcDbEntity
  8
DRIVEN_DIMS
100
AcDbLine
 62
7
  6
CONTINUOUS
 10
15.3575511033
 20
8.1725330817
 11
14.7110511033
 21
8.1725330817
  0
LINE
  5
285
100
AcDbEntity
  8
DRIVEN_DIMS
100
AcDbLine
 62
7
  6
CONTINUOUS
 10
16.7965511033
 20
8.6125330817
 11
14.7110511033
 21
8.6125330817
  0
LINE
  5
286
100
AcDbEntity
  8
DRIVEN_DIMS
100
AcDbLine
 62
7
  6
CONTINUOUS
 10
14.8360511033
 20
8.1725330817
 11
14.8360511033
 21
7.7725330817
  0
LINE
  5
287
100
AcDbEntity
  8
DRIVEN_DIMS
100
AcDbLine
 62
7
  6
CONTINUOUS
 10
14.8360511033
 20
8.6125330817
 11
14.8360511033
 21
9.0125330817
  0
INSERT
  5
288
100
AcDbEntity
  8
DRIVEN_DIMS
100
AcDbBlockReference
 62
7
  6
CONTINUOUS
  2
_FILLED
 10
14.8360511033
 20
8.1725330817
 41
0.1875
 42
0.1875
 43
0.1875
 50
90.0
  0
INSERT
  5
289
100
AcDbEntity
  8
DRIVEN_DIMS
100
AcDbBlockReference
 62
7
  6
CONTINUOUS
  2
_FILLED
 10
14.8360511033
 20
8.6125330817
 41
0.1875
 42
0.1875
 43
0.1875
 50
270.0
  0
ENDBLK
  5
28A
100
AcDbEntity
  8
0
  6
BYBLOCK
 62
0
100
AcDbBlockEnd
  0
BLOCK
  5
28B
100
AcDbEntity
  8
0
100
AcDbBlockBegin
  2
*T1
 70
1
 10
0.0
 20
0.0
  3
*T1
  1

  0
LINE
  5
28C
100
AcDbEntity
  8
0
100
AcDbLine
 62
7
  6
CONTINUOUS
 10
4.35
 20
0.0
 11
0.0
 21
0.0
  0
LINE
  5
28D
100
AcDbEntity
  8
0
100
AcDbLine
 62
7
  6
CONTINUOUS
 10
4.35
 20
0.0
 11
4.35
 21
1.92
  0
LINE
  5
28E
100
AcDbEntity
  8
0
100
AcDbLine
 62
7
  6
CONTINUOUS
 10
4.35
 20
1.92
 11
0.0
 21
1.92
  0
LINE
  5
28F
100
AcDbEntity
  8
0
100
AcDbLine
 62
7
  6
CONTINUOUS
 10
0.0
 20
0.0
 11
0.0
 21
1.92
  0
MTEXT
  5
290
100
AcDbEntity
  8
NOTES
100
AcDbMText
 62
7
  6
CONTINUOUS
  7
STANDARD
 71
2
 72
1
 10
4.125
 20
0.48
 30
0.0
 11
1.0
 21
0.0
 31
0.0
 44
0.9
  1
A
 40
0.1
 41
0.2
  0
MTEXT
  5
291
100
AcDbEntity
  8
NOTES
100
AcDbMText
 62
7
  6
CONTINUOUS
  7
STANDARD
 71
2
 72
1
 10
2.175
 20
1.08
 30
0.0
 11
1.0
 21
0.0
 31
0.0
 44
0.9
  1
LED(N)A80X80W SERIES\P 
 40
0.1
 41
4.0
  0
ENDBLK
  5
292
100
AcDbEntity
  8
0
  6
BYBLOCK
 62
0
100
AcDbBlockEnd
  0
ENDSEC
  0
SECTION
  2
ENTITIES
  0
MTEXT
  5
293
100
AcDbEntity
  8
0
100
AcDbMText
 62
7
  6
CONTINUOUS
  7
TEXTSTYLE_2
 71
2
 72
1
 10
15.7174677477
 20
1.6655662523
 30
0.0
 11
1.0
 21
0.0
 31
0.0
 44
0.9
  1
THIRD ANGLE PROJECTION
 40
0.1
 41
1.76
  0
MTEXT
  5
294
100
AcDbEntity
  8
0
100
AcDbMText
 62
7
  6
CONTINUOUS
  7
STANDARD
 71
1
 72
1
 10
17.55
 20
1.32
 30
0.0
 11
1.0
 21
0.0
 31
0.0
 44
0.9
  1
DRAWING NO.
 40
0.08
 41
0.88
  0
MTEXT
  5
295
100
AcDbEntity
  8
0
100
AcDbMText
 62
7
  6
CONTINUOUS
  7
TEXTSTYLE_2
 71
1
 72
1
 10
16.75
 20
2.08
 30
0.0
 11
1.0
 21
0.0
 31
0.0
 44
0.9
  1
TITLE
 40
0.1
 41
0.4
  0
MTEXT
  5
296
100
AcDbEntity
  8
0
100
AcDbMText
 62
7
  6
CONTINUOUS
  7
STANDARD
 71
1
 72
1
 10
16.75
 20
1.32
 30
0.0
 11
1.0
 21
0.0
 31
0.0
 44
0.9
  1
SIZE
 40
0.08
 41
0.32
  0
MTEXT
  5
297
100
AcDbEntity
  8
0
100
AcDbMText
 62
7
  6
CONTINUOUS
  7
STANDARD
 71
1
 72
1
 10
16.75
 20
0.95
 30
0.0
 11
1.0
 21
0.0
 31
0.0
 44
0.9
  1
SCALE
 40
0.08
 41
0.4
  0
MTEXT
  5
298
100
AcDbEntity
  8
0
100
AcDbMText
 62
7
  6
CONTINUOUS
  7
TEXTSTYLE_2
 71
2
 72
1
 10
17.17
 20
1.2
 30
0.0
 11
1.0
 21
0.0
 31
0.0
 44
0.9
  1
C
 40
0.1
 41
0.08
  0
MTEXT
  5
299
100
AcDbEntity
  8
0
100
AcDbMText
 62
7
  6
CONTINUOUS
  7
STANDARD
 71
1
 72
1
 10
18.925
 20
0.95
 30
0.0
 11
1.0
 21
0.0
 31
0.0
 44
0.9
  1
SHEET
 40
0.08
 41
0.4
  0
MTEXT
  5
29A
100
AcDbEntity
  8
0
100
AcDbMText
 62
7
  6
CONTINUOUS
  7
STANDARD
 71
1
 72
1
 10
20.3
 20
1.32
 30
0.0
 11
1.0
 21
0.0
 31
0.0
 44
0.9
  1
REV.
 40
0.08
 41
0.32
  0
MTEXT
  5
29B
100
AcDbEntity
  8
0
100
AcDbMText
 62
7
  6
CONTINUOUS
  7
STANDARD
 71
3
 72
1
 10
21.05
 20
0.698443
 30
0.0
 11
1.0
 21
0.0
 31
0.0
 44
0.9
  1
CREO
 40
0.07
 41
0.28
  0
MTEXT
  5
29C
100
AcDbEntity
  8
0
100
AcDbMText
 62
7
  6
CONTINUOUS
  7
TEXTSTYLE_2
 71
2
 72
1
 10
12.257
 20
15.95
 30
0.0
 11
1.0
 21
0.0
 31
0.0
 44
0.9
  1
4
 40
0.1
 41
0.08
  0
MTEXT
  5
29D
100
AcDbEntity
  8
0
100
AcDbMText
 62
7
  6
CONTINUOUS
  7
TEXTSTYLE_2
 71
2
 72
1
 10
12.257
 20
0.65
 30
0.0
 11
1.0
 21
0.0
 31
0.0
 44
0.9
  1
4
 40
0.1
 41
0.08
  0
MTEXT
  5
29E
100
AcDbEntity
  8
0
100
AcDbMText
 62
7
  6
CONTINUOUS
  7
TEXTSTYLE_2
 71
3
 72
1
 10
0.864
 20
6.375
 30
0.0
 11
1.0
 21
0.0
 31
0.0
 44
0.9
  1
B
 40
0.1
 41
0.08
  0
MTEXT
  5
29F
100
AcDbEntity
  8
0
100
AcDbMText
 62
7
  6
CONTINUOUS
  7
TEXTSTYLE_2
 71
1
 72
1
 10
21.15
 20
6.375
 30
0.0
 11
1.0
 21
0.0
 31
0.0
 44
0.9
  1
B
 40
0.1
 41
0.08
  0
MTEXT
  5
2A0
100
AcDbEntity
  8
0
100
AcDbMText
 62
7
  6
CONTINUOUS
  7
TEXTSTYLE_2
 71
3
 72
1
 10
0.864
 20
2.525
 30
0.0
 11
1.0
 21
0.0
 31
0.0
 44
0.9
  1
A
 40
0.1
 41
0.08
  0
MTEXT
  5
2A1
100
AcDbEntity
  8
0
100
AcDbMText
 62
7
  6
CONTINUOUS
  7
TEXTSTYLE_2
 71
1
 72
1
 10
21.15
 20
2.525
 30
0.0
 11
1.0
 21
0.0
 31
0.0
 44
0.9
  1
A
 40
0.1
 41
0.08
  0
MTEXT
  5
2A2
100
AcDbEntity
  8
0
100
AcDbMText
 62
7
  6
CONTINUOUS
  7
TEXTSTYLE_2
 71
3
 72
1
 10
0.864
 20
14.075
 30
0.0
 11
1.0
 21
0.0
 31
0.0
 44
0.9
  1
D
 40
0.1
 41
0.08
  0
MTEXT
  5
2A3
100
AcDbEntity
  8
0
100
AcDbMText
 62
7
  6
CONTINUOUS
  7
TEXTSTYLE_2
 71
1
 72
1
 10
21.15
 20
14.075
 30
0.0
 11
1.0
 21
0.0
 31
0.0
 44
0.9
  1
D
 40
0.1
 41
0.08
  0
MTEXT
  5
2A4
100
AcDbEntity
  8
0
100
AcDbMText
 62
7
  6
CONTINUOUS
  7
TEXTSTYLE_2
 71
3
 72
1
 10
0.864
 20
10.225
 30
0.0
 11
1.0
 21
0.0
 31
0.0
 44
0.9
  1
C
 40
0.1
 41
0.08
  0
MTEXT
  5
2A5
100
AcDbEntity
  8
0
100
AcDbMText
 62
7
  6
CONTINUOUS
  7
TEXTSTYLE_2
 71
1
 72
1
 10
21.15
 20
10.225
 30
0.0
 11
1.0
 21
0.0
 31
0.0
 44
0.9
  1
C
 40
0.1
 41
0.08
  0
MTEXT
  5
2A6
100
AcDbEntity
  8
0
100
AcDbMText
 62
7
  6
CONTINUOUS
  7
TEXTSTYLE_2
 71
2
 72
1
 10
14.757
 20
0.65
 30
0.0
 11
1.0
 21
0.0
 31
0.0
 44
0.9
  1
3
 40
0.1
 41
0.08
  0
MTEXT
  5
2A7
100
AcDbEntity
  8
0
100
AcDbMText
 62
7
  6
CONTINUOUS
  7
TEXTSTYLE_2
 71
2
 72
1
 10
14.757
 20
15.95
 30
0.0
 11
1.0
 21
0.0
 31
0.0
 44
0.9
  1
3
 40
0.1
 41
0.08
  0
MTEXT
  5
2A8
100
AcDbEntity
  8
0
100
AcDbMText
 62
7
  6
CONTINUOUS
  7
TEXTSTYLE_2
 71
2
 72
1
 10
17.257
 20
15.95
 30
0.0
 11
1.0
 21
0.0
 31
0.0
 44
0.9
  1
2
 40
0.1
 41
0.08
  0
MTEXT
  5
2A9
100
AcDbEntity
  8
0
100
AcDbMText
 62
7
  6
CONTINUOUS
  7
TEXTSTYLE_2
 71
2
 72
1
 10
17.257
 20
0.65
 30
0.0
 11
1.0
 21
0.0
 31
0.0
 44
0.9
  1
2
 40
0.1
 41
0.08
  0
MTEXT
  5
2AA
100
AcDbEntity
  8
0
100
AcDbMText
 62
7
  6
CONTINUOUS
  7
TEXTSTYLE_2
 71
2
 72
1
 10
19.757
 20
0.65
 30
0.0
 11
1.0
 21
0.0
 31
0.0
 44
0.9
  1
1
 40
0.1
 41
0.08
  0
MTEXT
  5
2AB
100
AcDbEntity
  8
0
100
AcDbMText
 62
7
  6
CONTINUOUS
  7
TEXTSTYLE_2
 71
2
 72
1
 10
19.757
 20
15.95
 30
0.0
 11
1.0
 21
0.0
 31
0.0
 44
0.9
  1
1
 40
0.1
 41
0.08
  0
MTEXT
  5
2AC
100
AcDbEntity
  8
0
100
AcDbMText
 62
7
  6
CONTINUOUS
  7
TEXTSTYLE_2
 71
2
 72
1
 10
2.257
 20
0.65
 30
0.0
 11
1.0
 21
0.0
 31
0.0
 44
0.9
  1
8
 40
0.1
 41
0.08
  0
MTEXT
  5
2AD
100
AcDbEntity
  8
0
100
AcDbMText
 62
7
  6
CONTINUOUS
  7
TEXTSTYLE_2
 71
2
 72
1
 10
4.757
 20
0.65
 30
0.0
 11
1.0
 21
0.0
 31
0.0
 44
0.9
  1
7
 40
0.1
 41
0.08
  0
MTEXT
  5
2AE
100
AcDbEntity
  8
0
100
AcDbMText
 62
7
  6
CONTINUOUS
  7
TEXTSTYLE_2
 71
2
 72
1
 10
7.257
 20
0.65
 30
0.0
 11
1.0
 21
0.0
 31
0.0
 44
0.9
  1
6
 40
0.1
 41
0.08
  0
MTEXT
  5
2AF
100
AcDbEntity
  8
0
100
AcDbMText
 62
7
  6
CONTINUOUS
  7
TEXTSTYLE_2
 71
2
 72
1
 10
9.757
 20
0.65
 30
0.0
 11
1.0
 21
0.0
 31
0.0
 44
0.9
  1
5
 40
0.1
 41
0.08
  0
MTEXT
  5
2B0
100
AcDbEntity
  8
0
100
AcDbMText
 62
7
  6
CONTINUOUS
  7
TEXTSTYLE_2
 71
2
 72
1
 10
9.757
 20
15.95
 30
0.0
 11
1.0
 21
0.0
 31
0.0
 44
0.9
  1
5
 40
0.1
 41
0.08
  0
MTEXT
  5
2B1
100
AcDbEntity
  8
0
100
AcDbMText
 62
7
  6
CONTINUOUS
  7
TEXTSTYLE_2
 71
2
 72
1
 10
7.257
 20
15.95
 30
0.0
 11
1.0
 21
0.0
 31
0.0
 44
0.9
  1
6
 40
0.1
 41
0.08
  0
MTEXT
  5
2B2
100
AcDbEntity
  8
0
100
AcDbMText
 62
7
  6
CONTINUOUS
  7
TEXTSTYLE_2
 71
2
 72
1
 10
4.757
 20
15.95
 30
0.0
 11
1.0
 21
0.0
 31
0.0
 44
0.9
  1
7
 40
0.1
 41
0.08
  0
MTEXT
  5
2B3
100
AcDbEntity
  8
0
100
AcDbMText
 62
7
  6
CONTINUOUS
  7
TEXTSTYLE_2
 71
2
 72
1
 10
2.257
 20
15.95
 30
0.0
 11
1.0
 21
0.0
 31
0.0
 44
0.9
  1
8
 40
0.1
 41
0.08
  0
MTEXT
  5
2B4
100
AcDbEntity
  8
0
100
AcDbMText
 62
7
  6
CONTINUOUS
  7
STANDARD
 71
1
 72
1
 10
17.2749123633
 20
0.9184107931
 30
0.0
 11
1.0
 21
0.0
 31
0.0
 44
0.9
  1
1:1
 40
0.1
 41
0.3
  0
MTEXT
  5
2B5
100
AcDbEntity
  8
0
100
AcDbMText
 62
7
  6
CONTINUOUS
  7
STANDARD
 71
1
 72
1
 10
19.4499123633
 20
0.9184107931
 30
0.0
 11
1.0
 21
0.0
 31
0.0
 44
0.9
  1
1 OF 1
 40
0.1
 41
0.6
  0
MTEXT
  5
2B6
100
AcDbEntity
  8
0
100
AcDbMText
 62
7
  6
CONTINUOUS
  7
STANDARD
 71
1
 72
1
 10
18.5204017884
 20
1.2400373234
 30
0.0
 11
1.0
 21
0.0
 31
0.0
 44
0.9
  1
192817
 40
0.12
 41
0.72
  0
MTEXT
  5
2B7
100
AcDbEntity
  8
0
100
AcDbMText
 62
7
  6
CONTINUOUS
  7
STANDARD
 71
1
 72
1
 10
1.2857894151
 20
1.4458068967
 30
0.0
 11
1.0
 21
0.0
 31
0.0
 44
0.9
  1
NOTES:\P1. ALL DIMENSIONS ARE MILLIMETERS [INCHES] UNLESS OTHERWISE NOTED.\P2. REFER TO "www.bannerengineering.com" FOR ADDITIONAL DATA AND SPECIFICATIONS.
 40
0.1
 41
7.9
  0
MTEXT
  5
2B8
100
AcDbEntity
  8
0
100
AcDbMText
 62
7
  6
CONTINUOUS
  7
TEXTSTYLE_3
 71
2
 72
1
 10
19.7555637832
 20
2.555409194
 30
0.0
 11
1.0
 21
0.0
 31
0.0
 44
0.9
  1
BANNER ENGINEERING CORP.
 40
0.12
 41
2.592
  0
MTEXT
  5
2B9
100
AcDbEntity
  8
0
100
AcDbMText
 62
7
  6
CONTINUOUS
  7
TEXTSTYLE_2
 71
2
 72
1
 10
19.6690932526
 20
2.3442032634
 30
0.0
 11
1.0
 21
0.0
 31
0.0
 44
0.9
  1
www.bannerengineering.com
 40
0.1
 41
2.0
  0
MTEXT
  5
2BA
100
AcDbEntity
  8
0
100
AcDbMText
 62
7
  6
CONTINUOUS
  7
TEXTSTYLE_4
 71
2
 72
1
 10
15.7104628329
 20
2.6377571551
 30
0.0
 11
1.0
 21
0.0
 31
0.0
 44
0.9
  1
This drawing is the property\Pof BANNER ENGINEERING CORP.\PAny use or reproduction,\Pin any form, without prior\Pwritten permission of\PBanner is prohibited.
 40
0.08
 41
1.904
  0
MTEXT
  5
2BB
100
AcDbEntity
  8
0
100
AcDbMText
 62
7
  6
CONTINUOUS
  7
TEXTSTYLE_5
 71
2
 72
1
 10
15.7283993136
 20
1.9032170366
 30
0.0
 11
1.0
 21
0.0
 31
0.0
 44
0.9
  1
C  2015 Banner Engineering Corp.
 40
0.08
 41
1.92
  0
DIMENSION
  5
2BC
100
AcDbEntity
  8
DRIVEN_DIMS
100
AcDbDimension
 62
7
  6
CONTINUOUS
  2
*D0
 10
3.5979968735
 20
6.0740861528
 11
3.5979968735
 21
4.7990861528
 70
160
 71
2
 42
60.96
  3
DIMSTYLE_1
100
AcDbAlignedDimension
 13
4.1645008105
 23
3.6740861528
 14
4.1645008105
 24
6.0740861528
 50
90.0
100
AcDbRotatedDimension
  0
DIMENSION
  5
2BD
100
AcDbEntity
  8
DRIVEN_DIMS
100
AcDbDimension
 62
7
  6
CONTINUOUS
  2
*D1
 10
8.1209968735
 20
2.5510861528
 11
6.2709968735
 21
2.4760861528
 70
160
 71
2
 42
93.98
  3
DIMSTYLE_1
100
AcDbAlignedDimension
 13
4.4209968735
 23
3.4175900898
 14
8.1209968735
 24
3.4175900898
100
AcDbRotatedDimension
  0
DIMENSION
  5
2BE
100
AcDbEntity
  8
DRIVEN_DIMS
100
AcDbDimension
 62
7
  6
CONTINUOUS
  2
*D2
 10
8.4439968735
 20
2.5510861528
 11
9.2687804849
 21
2.4760861528
 70
160
 71
1
 42
8.2042
  3
DIMSTYLE_1
100
AcDbAlignedDimension
 13
8.1209968735
 23
3.4175900898
 14
8.4439968735
 24
3.0554435529
100
AcDbRotatedDimension
  0
DIMENSION
  5
2BF
100
AcDbEntity
  8
DRIVEN_DIMS
100
AcDbDimension
 62
7
  6
CONTINUOUS
  2
*D3
 10
3.5979968735
 20
3.0510861528
 11
3.5979968735
 21
3.3482498453
 70
160
 71
2
 42
15.8242
  3
DIMSTYLE_1
100
AcDbAlignedDimension
 13
4.1645008105
 23
3.6740861528
 14
4.113812241
 24
3.0510861528
 50
270.0
100
AcDbRotatedDimension
  0
DIMENSION
  5
2C0
100
AcDbEntity
  8
DRIVEN_DIMS
100
AcDbDimension
 62
7
  6
CONTINUOUS
  2
*D4
 10
3.5979968735
 20
8.1725330817
 11
3.5979968735
 21
8.6575588846
 70
160
 71
2
 42
25.019
  3
DIMSTYLE_1
100
AcDbAlignedDimension
 13
4.0979968735
 23
9.1575330817
 14
4.1879968735
 24
8.1725330817
 50
270.0
100
AcDbRotatedDimension
  0
DIMENSION
  5
2C1
100
AcDbEntity
  8
DRIVEN_DIMS
100
AcDbDimension
 62
7
  6
CONTINUOUS
  2
*D5
 10
3.5979968735
 20
14.6220195153
 11
3.5979968735
 21
12.7240195153
 70
160
 71
2
 42
92.6084
  3
DIMSTYLE_1
100
AcDbAlignedDimension
 13
4.0979968735
 23
10.9760195153
 14
4.0979968735
 24
14.6220195153
 50
90.0
100
AcDbRotatedDimension
  0
DIMENSION
  5
2C2
100
AcDbEntity
  8
DRIVEN_DIMS
100
AcDbDimension
 62
7
  6
CONTINUOUS
  2
*D6
 10
4.0979968735
 20
15.1220195153
 11
6.2709968735
 21
15.0470195153
 70
160
 71
2
 42
110.3884
  3
DIMSTYLE_1
100
AcDbAlignedDimension
 13
8.4439968735
 23
14.5740195153
 14
4.0979968735
 24
14.5740195153
 50
180.0
100
AcDbRotatedDimension
  0
DIMENSION
  5
2C3
100
AcDbEntity
  8
DRIVEN_DIMS
100
AcDbDimension
 62
7
  6
CONTINUOUS
  2
*D7
 10
15.3360511033
 20
7.6725330817
 11
16.2475511033
 21
7.5975330817
 70
160
 71
2
 42
46.3042
  3
DIMSTYLE_1
100
AcDbAlignedDimension
 13
17.1590511033
 23
8.3125330817
 14
15.3360511033
 24
8.2705330817
 50
180.0
100
AcDbRotatedDimension
  0
DIMENSION
  5
2C4
100
AcDbEntity
  8
DRIVEN_DIMS
100
AcDbDimension
 62
7
  6
CONTINUOUS
  2
*D8
 10
14.8360511033
 20
8.6125330817
 11
14.8360511033
 21
8.4005044005
 70
160
 71
2
 42
11.176
  3
DIMSTYLE_1
100
AcDbAlignedDimension
 13
15.4200511033
 23
8.1725330817
 14
16.8590511033
 24
8.6125330817
 50
90.0
100
AcDbRotatedDimension
  0
ACAD_TABLE
  5
2C5
100
AcDbEntity
  8
0
 62
7
  6
CONTINUOUS
100
AcDbBlockReference
  2
*T1
 10
16.7
 20
0.75
 30
0.0
100
AcDbTable
342
       5C5
343
234
 11
1.0
 21
0.0
 31
0.0
 90
6
 91
3
 92
5
 93
4
 94
0
 95
0
 96
0
 70
1
141
0.33
141
0.45
141
1.14
142
0.65
142
1.15
142
1.025
142
1.075
142
0.45
171
1
172
0
173
0
174
0
175
1
176
1
177
33
178
0
145
0.0
  1
 
170
1
140
0.1
171
1
172
0
173
0
174
0
175
1
176
1
177
33
178
0
145
0.0
  1
 
170
1
140
0.1
171
1
172
0
173
0
174
0
175
1
176
1
177
33
178
0
145
0.0
  1
 
170
1
140
0.1
171
1
172
0
173
0
174
0
175
1
176
1
177
33
178
0
145
0.0
  1
 
170
1
140
0.1
171
1
172
0
173
0
174
0
175
1
176
1
177
33
178
0
145
0.0
  1
 
170
1
140
0.1
171
1
172
0
173
0
174
0
175
1
176
1
177
33
178
0
145
0.0
  1
 
170
1
140
0.1
171
1
172
0
173
0
174
0
175
1
176
1
177
33
178
0
145
0.0
  1
 
170
1
140
0.1
171
1
172
0
173
0
174
0
175
1
176
1
177
33
178
0
145
0.0
  1
 
170
1
140
0.1
171
1
172
0
173
0
174
0
175
1
176
1
177
33
178
0
145
0.0
  1
 
170
1
140
0.1
171
1
172
0
173
0
174
0
175
1
176
1
177
41
178
0
145
0.0
  1
A
170
8
140
0.1
 64
7
171
1
172
0
173
0
174
0
175
5
176
1
177
33
178
0
145
0.0
  1
LED(N)A80X80W SERIES\P 
170
8
140
0.1
171
1
172
0
173
1
174
0
175
1
176
1
177
1
178
0
145
0.0
170
1
171
1
172
0
173
1
174
0
175
1
176
1
177
1
178
0
145
0.0
170
1
171
1
172
0
173
1
174
0
175
1
176
1
177
1
178
0
145
0.0
170
1
171
1
172
0
173
1
174
0
175
1
176
1
177
1
178
0
145
0.0
170
8
  0
LEADER
  5
2C6
100
AcDbEntity
  8
NOTES
100
AcDbLeader
 62
7
  6
CONTINUOUS
  3
STANDARD
 71
1
 72
0
 73
0
 75
0
 40
0.1
 41
1.6
 76
3
 10
8.2291292235
 20
6.1919991884
 30
0.0
 10
8.9811768145
 20
7.0764510908
 30
0.0
 10
9.2311768145
 20
7.0764510908
 30
0.0
340
2C7
1001
ACAD
1000
DSTYLE
1002
{
1070
77
1070
0
1002
}
  0
MTEXT
  5
2C7
102
{ACAD_REACTORS
330
2C6
102
}
100
AcDbEntity
  8
NOTES
100
AcDbMText
 62
7
  6
CONTINUOUS
  7
STANDARD
 71
1
 72
1
 10
9.2311768145
 20
7.1264510908
 30
0.0
 11
1.0
 21
0.0
 31
0.0
 44
0.9
  1
4X M4-1 PEM STUD
 40
0.1
 41
1.6
  0
MTEXT
  5
2C8
100
AcDbEntity
  8
NOTES
100
AcDbMText
 62
7
  6
CONTINUOUS
  7
STANDARD
 71
2
 72
1
 10
17.730775658
 20
11.5528253628
 30
0.0
 11
1.0
 21
0.0
 31
0.0
 44
0.9
  1
ISOMETRIC VIEW\P\H0.1;SCALE  3:4
 40
0.125
 41
1.75
  0
LINE
  5
2C9
100
AcDbEntity
  8
0
100
AcDbLine
 62
7
  6
CONTINUOUS
 10
0.814
 20
8.336603
 11
0.814
 21
8.163397
  0
LINE
  5
2CA
100
AcDbEntity
  8
0
100
AcDbLine
 62
7
  6
CONTINUOUS
 10
0.964
 20
15.75
 11
0.964
 21
0.75
  0
LINE
  5
2CB
100
AcDbEntity
  8
0
100
AcDbLine
 62
7
  6
CONTINUOUS
 10
15.8276527477
 20
1.2966912523
 11
16.4340437477
 21
1.3660842523
  0
LINE
  5
2CC
100
AcDbEntity
  8
0
100
AcDbLine
 62
7
  6
CONTINUOUS
 10
10.920397
 20
0.6
 11
11.093603
 21
0.6
  0
LINE
  5
2CD
100
AcDbEntity
  8
0
100
AcDbLine
 62
7
  6
CONTINUOUS
 10
0.964
 20
0.75
 11
21.05
 21
0.75
  0
LINE
  5
2CE
100
AcDbEntity
  8
0
100
AcDbLine
 62
7
  6
CONTINUOUS
 10
3.507
 20
0.75
 11
3.507
 21
0.5
  0
LINE
  5
2CF
100
AcDbEntity
  8
0
100
AcDbLine
 62
7
  6
CONTINUOUS
 10
3.507
 20
15.75
 11
3.507
 21
16.0
  0
LINE
  5
2D0
100
AcDbEntity
  8
0
100
AcDbLine
 62
7
  6
CONTINUOUS
 10
16.7
 20
1.0
 11
21.05
 21
1.0
  0
LINE
  5
2D1
100
AcDbEntity
  8
0
100
AcDbLine
 62
7
  6
CONTINUOUS
 10
14.9008917477
 20
1.1139932523
 11
15.1229827477
 21
1.1139932523
  0
LINE
  5
2D2
100
AcDbEntity
  8
0
100
AcDbLine
 62
7
  6
CONTINUOUS
 10
15.1729827477
 20
1.1139932523
 11
15.2729827477
 21
1.1139932523
  0
LINE
  5
2D3
100
AcDbEntity
  8
0
100
AcDbLine
 62
7
  6
CONTINUOUS
 10
15.3229827477
 20
1.1139932523
 11
15.5450737477
 21
1.1139932523
  0
LINE
  5
2D4
100
AcDbEntity
  8
0
100
AcDbLine
 62
7
  6
CONTINUOUS
 10
15.7276527477
 20
1.1139932523
 11
16.0058047477
 21
1.1139932523
  0
LINE
  5
2D5
100
AcDbEntity
  8
0
100
AcDbLine
 62
7
  6
CONTINUOUS
 10
16.0558047477
 20
1.1139932523
 11
16.2058907477
 21
1.1139932523
  0
LINE
  5
2D6
100
AcDbEntity
  8
0
100
AcDbLine
 62
7
  6
CONTINUOUS
 10
16.2558907477
 20
1.1139932523
 11
16.5340437477
 21
1.1139932523
  0
LINE
  5
2D7
100
AcDbEntity
  8
0
100
AcDbLine
 62
7
  6
CONTINUOUS
 10
16.7
 20
1.37
 11
21.05
 21
1.37
  0
LINE
  5
2D8
100
AcDbEntity
  8
0
100
AcDbLine
 62
7
  6
CONTINUOUS
 10
16.4340437477
 20
0.8619022523
 11
15.8276527477
 21
0.9312952523
  0
LINE
  5
2D9
100
AcDbEntity
  8
0
100
AcDbLine
 62
7
  6
CONTINUOUS
 10
14.7
 20
1.77
 11
16.7
 21
1.77
  0
LINE
  5
2DA
100
AcDbEntity
  8
0
100
AcDbLine
 62
7
  6
CONTINUOUS
 10
16.7
 20
2.13
 11
21.05
 21
2.13
  0
LINE
  5
2DB
100
AcDbEntity
  8
0
100
AcDbLine
 62
7
  6
CONTINUOUS
 10
18.273144232
 20
2.3543254011
 11
18.2257802057
 21
2.3543254011
  0
LINE
  5
2DC
100
AcDbEntity
  8
0
100
AcDbLine
 62
7
  6
CONTINUOUS
 10
18.1818891814
 20
2.3543254011
 11
18.0683181184
 21
2.3543254011
  0
LINE
  5
2DD
100
AcDbEntity
  8
0
100
AcDbLine
 62
7
  6
CONTINUOUS
 10
18.0394141024
 20
2.3543254011
 11
17.8362019897
 21
2.3543254011
  0
LINE
  5
2DE
100
AcDbEntity
  8
0
100
AcDbLine
 62
7
  6
CONTINUOUS
 10
17.7857289617
 20
2.3543254011
 11
17.7115229205
 21
2.3543254011
  0
LINE
  5
2DF
100
AcDbEntity
  8
0
100
AcDbLine
 62
7
  6
CONTINUOUS
 10
17.6651428948
 20
2.3543254011
 11
17.5894788529
 21
2.3543254011
  0
LINE
  5
2E0
100
AcDbEntity
  8
0
100
AcDbLine
 62
7
  6
CONTINUOUS
 10
17.537475824
 20
2.3543254011
 11
17.4632707829
 21
2.3543254011
  0
LINE
  5
2E1
100
AcDbEntity
  8
0
100
AcDbLine
 62
7
  6
CONTINUOUS
 10
17.4168897572
 20
2.3543254011
 11
17.3412257152
 21
2.3543254011
  0
LINE
  5
2E2
100
AcDbEntity
  8
0
100
AcDbLine
 62
7
  6
CONTINUOUS
 10
16.8743904563
 20
2.3543254011
 11
17.0508365542
 21
2.3543254011
  0
LINE
  5
2E3
100
AcDbEntity
  8
0
100
AcDbLine
 62
7
  6
CONTINUOUS
 10
17.1083735861
 20
2.3543254011
 11
17.185749629
 21
2.3543254011
  0
LINE
  5
2E4
100
AcDbEntity
  8
0
100
AcDbLine
 62
7
  6
CONTINUOUS
 10
17.2060356402
 20
2.3543254011
 11
17.3113166986
 21
2.3543254011
  0
LINE
  5
2E5
100
AcDbEntity
  8
0
100
AcDbLine
 62
7
  6
CONTINUOUS
 10
18.1572301677
 20
2.3790534148
 11
18.1818891814
 21
2.3790534148
  0
LINE
  5
2E6
100
AcDbEntity
  8
0
100
AcDbLine
 62
7
  6
CONTINUOUS
 10
17.3113166986
 20
2.3790754148
 11
17.2913006875
 21
2.3790754148
  0
LINE
  5
2E7
100
AcDbEntity
  8
0
100
AcDbLine
 62
7
  6
CONTINUOUS
 10
17.2204866482
 20
2.3790754148
 11
17.2060356402
 21
2.3790754148
  0
LINE
  5
2E8
100
AcDbEntity
  8
0
100
AcDbLine
 62
7
  6
CONTINUOUS
 10
17.185749629
 20
2.3790754148
 11
17.1744666227
 21
2.3790754148
  0
LINE
  5
2E9
100
AcDbEntity
  8
0
100
AcDbLine
 62
7
  6
CONTINUOUS
 10
17.1312345987
 20
2.3790754148
 11
17.1083735861
 21
2.3790754148
  0
LINE
  5
2EA
100
AcDbEntity
  8
0
100
AcDbLine
 62
7
  6
CONTINUOUS
 10
17.0051585288
 20
2.3790754148
 11
16.9637955059
 21
2.3790754148
  0
LINE
  5
2EB
100
AcDbEntity
  8
0
100
AcDbLine
 62
7
  6
CONTINUOUS
 10
16.8983324696
 20
2.3790754148
 11
16.8743904563
 21
2.3790754148
  0
LINE
  5
2EC
100
AcDbEntity
  8
0
100
AcDbLine
 62
7
  6
CONTINUOUS
 10
17.3412257152
 20
2.3790754148
 11
17.3598727255
 21
2.3790754148
  0
LINE
  5
2ED
100
AcDbEntity
  8
0
100
AcDbLine
 62
7
  6
CONTINUOUS
 10
17.3965727459
 20
2.3790754148
 11
17.4168897572
 21
2.3790754148
  0
LINE
  5
2EE
100
AcDbEntity
  8
0
100
AcDbLine
 62
7
  6
CONTINUOUS
 10
17.5894788529
 20
2.3790754148
 11
17.6081248632
 21
2.3790754148
  0
LINE
  5
2EF
100
AcDbEntity
  8
0
100
AcDbLine
 62
7
  6
CONTINUOUS
 10
17.6448258836
 20
2.3790754148
 11
17.6651428948
 21
2.3790754148
  0
LINE
  5
2F0
100
AcDbEntity
  8
0
100
AcDbLine
 62
7
  6
CONTINUOUS
 10
17.8362019897
 20
2.3790754148
 11
17.860125003
 21
2.3790754148
  0
LINE
  5
2F1
100
AcDbEntity
  8
0
100
AcDbLine
 62
7
  6
CONTINUOUS
 10
17.9271410401
 20
2.3790754148
 11
17.9921450762
 21
2.3790754148
  0
LINE
  5
2F2
100
AcDbEntity
  8
0
100
AcDbLine
 62
7
  6
CONTINUOUS
 10
18.0683181184
 20
2.3790754148
 11
18.091064131
 21
2.3790754148
  0
LINE
  5
2F3
100
AcDbEntity
  8
0
100
AcDbLine
 62
7
  6
CONTINUOUS
 10
18.2741672326
 20
2.379462415
 11
18.2752762332
 21
2.379462415
  0
LINE
  5
2F4
100
AcDbEntity
  8
0
100
AcDbLine
 62
7
  6
CONTINUOUS
 10
17.9970950789
 20
2.3922754221
 11
18.0394141024
 21
2.3922754221
  0
LINE
  5
2F5
100
AcDbEntity
  8
0
100
AcDbLine
 62
7
  6
CONTINUOUS
 10
17.1799826258
 20
2.3927194224
 11
17.2148606451
 21
2.3927194224
  0
LINE
  5
2F6
100
AcDbEntity
  8
0
100
AcDbLine
 62
7
  6
CONTINUOUS
 10
18.2860312391
 20
2.3932124227
 11
18.2981412459
 21
2.3932124227
  0
LINE
  5
2F7
100
AcDbEntity
  8
0
100
AcDbLine
 62
7
  6
CONTINUOUS
 10
18.184837183
 20
2.3937024229
 11
18.1572301677
 21
2.3937024229
  0
LINE
  5
2F8
100
AcDbEntity
  8
0
100
AcDbLine
 62
7
  6
CONTINUOUS
 10
17.9623080596
 20
2.395575424
 11
17.9271410401
 21
2.395575424
  0
LINE
  5
2F9
100
AcDbEntity
  8
0
100
AcDbLine
 62
7
  6
CONTINUOUS
 10
16.9637955059
 20
2.3964004244
 11
17.0051585288
 21
2.3964004244
  0
LINE
  5
2FA
100
AcDbEntity
  8
0
100
AcDbLine
 62
7
  6
CONTINUOUS
 10
18.1911671865
 20
2.4127054335
 11
18.1572301677
 21
2.4127054335
  0
LINE
  5
2FB
100
AcDbEntity
  8
0
100
AcDbLine
 62
7
  6
CONTINUOUS
 10
16.9637955059
 20
2.4130554337
 11
17.0051585288
 21
2.4130554337
  0
LINE
  5
2FC
100
AcDbEntity
  8
0
100
AcDbLine
 62
7
  6
CONTINUOUS
 10
17.1884986305
 20
2.413669434
 11
17.2090556419
 21
2.413669434
  0
LINE
  5
2FD
100
AcDbEntity
  8
0
100
AcDbLine
 62
7
  6
CONTINUOUS
 10
17.9271410401
 20
2.4138804341
 11
17.9623080596
 21
2.4138804341
  0
LINE
  5
2FE
100
AcDbEntity
  8
0
100
AcDbLine
 62
7
  6
CONTINUOUS
 10
18.0379951016
 20
2.4171804359
 11
17.9961310784
 21
2.4171804359
  0
LINE
  5
2FF
100
AcDbEntity
  8
0
100
AcDbLine
 62
7
  6
CONTINUOUS
 10
17.2017966379
 20
2.429836443
 11
17.1956156344
 21
2.429836443
  0
LINE
  5
300
100
AcDbEntity
  8
0
100
AcDbLine
 62
7
  6
CONTINUOUS
 10
18.091064131
 20
2.4303804433
 11
18.0683181184
 21
2.4303804433
  0
LINE
  5
301
100
AcDbEntity
  8
0
100
AcDbLine
 62
7
  6
CONTINUOUS
 10
17.9911810756
 20
2.4303804433
 11
17.9271410401
 21
2.4303804433
  0
LINE
  5
302
100
AcDbEntity
  8
0
100
AcDbLine
 62
7
  6
CONTINUOUS
 10
17.860125003
 20
2.4303804433
 11
17.8362019897
 21
2.4303804433
  0
LINE
  5
303
100
AcDbEntity
  8
0
100
AcDbLine
 62
7
  6
CONTINUOUS
 10
17.8086119744
 20
2.4303804433
 11
17.7906789644
 21
2.4303804433
  0
LINE
  5
304
100
AcDbEntity
  8
0
100
AcDbLine
 62
7
  6
CONTINUOUS
 10
17.7533869438
 20
2.4303804433
 11
17.7346109333
 21
2.4303804433
  0
LINE
  5
305
100
AcDbEntity
  8
0
100
AcDbLine
 62
7
  6
CONTINUOUS
 10
17.6081248632
 20
2.4303804433
 11
17.5894788529
 21
2.4303804433
  0
LINE
  5
306
100
AcDbEntity
  8
0
100
AcDbLine
 62
7
  6
CONTINUOUS
 10
17.5603588367
 20
2.4303804433
 11
17.5424258268
 21
2.4303804433
  0
LINE
  5
307
100
AcDbEntity
  8
0
100
AcDbLine
 62
7
  6
CONTINUOUS
 10
17.5051338061
 20
2.4303804433
 11
17.4863577957
 21
2.4303804433
  0
LINE
  5
308
100
AcDbEntity
  8
0
100
AcDbLine
 62
7
  6
CONTINUOUS
 10
17.3598727255
 20
2.4303804433
 11
17.3412257152
 21
2.4303804433
  0
LINE
  5
309
100
AcDbEntity
  8
0
100
AcDbLine
 62
7
  6
CONTINUOUS
 10
17.0051585288
 20
2.4303804433
 11
16.9637955059
 21
2.4303804433
  0
LINE
  5
30A
100
AcDbEntity
  8
0
100
AcDbLine
 62
7
  6
CONTINUOUS
 10
16.8743904563
 20
2.4303804433
 11
16.8983324696
 21
2.4303804433
  0
LINE
  5
30B
100
AcDbEntity
  8
0
100
AcDbLine
 62
7
  6
CONTINUOUS
 10
18.1572301677
 20
2.4303804433
 11
18.1940311881
 21
2.4303804433
  0
LINE
  5
30C
100
AcDbEntity
  8
0
100
AcDbLine
 62
7
  6
CONTINUOUS
 10
17.2393896587
 20
2.455130457
 11
17.182214627
 21
2.455130457
  0
LINE
  5
30D
100
AcDbEntity
  8
0
100
AcDbLine
 62
7
  6
CONTINUOUS
 10
17.0404535484
 20
2.455130457
 11
16.8743904563
 21
2.455130457
  0
LINE
  5
30E
100
AcDbEntity
  8
0
100
AcDbLine
 62
7
  6
CONTINUOUS
 10
17.3412257152
 20
2.455130457
 11
17.4416837709
 21
2.455130457
  0
LINE
  5
30F
100
AcDbEntity
  8
0
100
AcDbLine
 62
7
  6
CONTINUOUS
 10
17.4863577957
 20
2.455130457
 11
17.5603588367
 21
2.455130457
  0
LINE
  5
310
100
AcDbEntity
  8
0
100
AcDbLine
 62
7
  6
CONTINUOUS
 10
17.5894788529
 20
2.455130457
 11
17.6899369086
 21
2.455130457
  0
LINE
  5
311
100
AcDbEntity
  8
0
100
AcDbLine
 62
7
  6
CONTINUOUS
 10
17.7346109333
 20
2.455130457
 11
17.8086119744
 21
2.455130457
  0
LINE
  5
312
100
AcDbEntity
  8
0
100
AcDbLine
 62
7
  6
CONTINUOUS
 10
17.8362019897
 20
2.455130457
 11
18.0379951016
 21
2.455130457
  0
LINE
  5
313
100
AcDbEntity
  8
0
100
AcDbLine
 62
7
  6
CONTINUOUS
 10
18.0683181184
 20
2.455130457
 11
18.2178992014
 21
2.455130457
  0
LINE
  5
314
100
AcDbEntity
  8
0
100
AcDbLine
 62
7
  6
CONTINUOUS
 10
17.0697205646
 20
2.4006414268
 11
17.059669559
 21
2.4041904287
  0
LINE
  5
315
100
AcDbEntity
  8
0
100
AcDbLine
 62
7
  6
CONTINUOUS
 10
17.4615617819
 20
2.3550094015
 11
17.3982817468
 21
2.415387435
  0
LINE
  5
316
100
AcDbEntity
  8
0
100
AcDbLine
 62
7
  6
CONTINUOUS
 10
17.4433917718
 20
2.4544464566
 11
17.5034248051
 21
2.3971664249
  0
LINE
  5
317
100
AcDbEntity
  8
0
100
AcDbLine
 62
7
  6
CONTINUOUS
 10
17.7098149196
 20
2.3550094015
 11
17.6465348845
 21
2.415387435
  0
LINE
  5
318
100
AcDbEntity
  8
0
100
AcDbLine
 62
7
  6
CONTINUOUS
 10
17.6916449095
 20
2.4544464566
 11
17.7516779428
 21
2.3971664249
  0
LINE
  5
319
100
AcDbEntity
  8
0
100
AcDbLine
 62
7
  6
CONTINUOUS
 10
17.2169386463
 20
2.3915884218
 11
17.2225646494
 21
2.3828954169
  0
LINE
  5
31A
100
AcDbEntity
  8
0
100
AcDbLine
 62
7
  6
CONTINUOUS
 10
17.211133643
 20
2.4174894361
 11
17.203874639
 21
2.4287054423
  0
LINE
  5
31B
100
AcDbEntity
  8
0
100
AcDbLine
 62
7
  6
CONTINUOUS
 10
17.2892236864
 20
2.3802054154
 11
17.2414676599
 21
2.4540004564
  0
LINE
  5
31C
100
AcDbEntity
  8
0
100
AcDbLine
 62
7
  6
CONTINUOUS
 10
18.206476195
 20
2.3723714111
 11
18.204672194
 21
2.3784404145
  0
LINE
  5
31D
100
AcDbEntity
  8
0
100
AcDbLine
 62
7
  6
CONTINUOUS
 10
16.8719154549
 20
2.4526554556
 11
16.8719154549
 21
2.4328554446
  0
LINE
  5
31E
100
AcDbEntity
  8
0
100
AcDbLine
 62
7
  6
CONTINUOUS
 10
16.8719154549
 20
2.3766004134
 11
16.8719154549
 21
2.3568004025
  0
LINE
  5
31F
100
AcDbEntity
  8
0
100
AcDbLine
 62
7
  6
CONTINUOUS
 10
16.9008074709
 20
2.4279054419
 11
16.9008074709
 21
2.3815504162
  0
LINE
  5
320
100
AcDbEntity
  8
0
100
AcDbLine
 62
7
  6
CONTINUOUS
 10
16.9613205045
 20
2.4279054419
 11
16.9613205045
 21
2.415530435
  0
LINE
  5
321
100
AcDbEntity
  8
0
100
AcDbLine
 62
7
  6
CONTINUOUS
 10
16.9613205045
 20
2.3815504162
 11
16.9613205045
 21
2.3939254231
  0
LINE
  5
322
100
AcDbEntity
  8
0
100
AcDbLine
 62
7
  6
CONTINUOUS
 10
17.1058985847
 20
2.3766004134
 11
17.1058985847
 21
2.3568004025
  0
LINE
  5
323
100
AcDbEntity
  8
0
100
AcDbLine
 62
7
  6
CONTINUOUS
 10
17.1882246303
 20
2.3568004025
 11
17.1882246303
 21
2.3766004134
  0
LINE
  5
324
100
AcDbEntity
  8
0
100
AcDbLine
 62
7
  6
CONTINUOUS
 10
17.2035606388
 20
2.3766004134
 11
17.2035606388
 21
2.3568004025
  0
LINE
  5
325
100
AcDbEntity
  8
0
100
AcDbLine
 62
7
  6
CONTINUOUS
 10
17.3137917
 20
2.3568004025
 11
17.3137917
 21
2.3766004134
  0
LINE
  5
326
100
AcDbEntity
  8
0
100
AcDbLine
 62
7
  6
CONTINUOUS
 10
17.3387507138
 20
2.3568004025
 11
17.3387507138
 21
2.3766004134
  0
LINE
  5
327
100
AcDbEntity
  8
0
100
AcDbLine
 62
7
  6
CONTINUOUS
 10
17.3387507138
 20
2.4328554446
 11
17.3387507138
 21
2.4526554556
  0
LINE
  5
328
100
AcDbEntity
  8
0
100
AcDbLine
 62
7
  6
CONTINUOUS
 10
17.3623477269
 20
2.3815504162
 11
17.3623477269
 21
2.4279054419
  0
LINE
  5
329
100
AcDbEntity
  8
0
100
AcDbLine
 62
7
  6
CONTINUOUS
 10
17.3940977445
 20
2.413596434
 11
17.3940977445
 21
2.3815504162
  0
LINE
  5
32A
100
AcDbEntity
  8
0
100
AcDbLine
 62
7
  6
CONTINUOUS
 10
17.4193647585
 20
2.3766004134
 11
17.4193647585
 21
2.3568004025
  0
LINE
  5
32B
100
AcDbEntity
  8
0
100
AcDbLine
 62
7
  6
CONTINUOUS
 10
17.4838827943
 20
2.4328554446
 11
17.4838827943
 21
2.4526554556
  0
LINE
  5
32C
100
AcDbEntity
  8
0
100
AcDbLine
 62
7
  6
CONTINUOUS
 10
17.5076088075
 20
2.3989574258
 11
17.5076088075
 21
2.4279054419
  0
LINE
  5
32D
100
AcDbEntity
  8
0
100
AcDbLine
 62
7
  6
CONTINUOUS
 10
17.5399508254
 20
2.4279054419
 11
17.5399508254
 21
2.3568004025
  0
LINE
  5
32E
100
AcDbEntity
  8
0
100
AcDbLine
 62
7
  6
CONTINUOUS
 10
17.5628338381
 20
2.4526554556
 11
17.5628338381
 21
2.4328554446
  0
LINE
  5
32F
100
AcDbEntity
  8
0
100
AcDbLine
 62
7
  6
CONTINUOUS
 10
17.5870038515
 20
2.3568004025
 11
17.5870038515
 21
2.3766004134
  0
LINE
  5
330
100
AcDbEntity
  8
0
100
AcDbLine
 62
7
  6
CONTINUOUS
 10
17.5870038515
 20
2.4328554446
 11
17.5870038515
 21
2.4526554556
  0
LINE
  5
331
100
AcDbEntity
  8
0
100
AcDbLine
 62
7
  6
CONTINUOUS
 10
17.6105998646
 20
2.3815504162
 11
17.6105998646
 21
2.4279054419
  0
LINE
  5
332
100
AcDbEntity
  8
0
100
AcDbLine
 62
7
  6
CONTINUOUS
 10
17.6423508822
 20
2.413596434
 11
17.6423508822
 21
2.3815504162
  0
LINE
  5
333
100
AcDbEntity
  8
0
100
AcDbLine
 62
7
  6
CONTINUOUS
 10
17.6676178962
 20
2.3766004134
 11
17.6676178962
 21
2.3568004025
  0
LINE
  5
334
100
AcDbEntity
  8
0
100
AcDbLine
 62
7
  6
CONTINUOUS
 10
17.732135932
 20
2.4328554446
 11
17.732135932
 21
2.4526554556
  0
LINE
  5
335
100
AcDbEntity
  8
0
100
AcDbLine
 62
7
  6
CONTINUOUS
 10
17.7558619451
 20
2.3989574258
 11
17.7558619451
 21
2.4279054419
  0
LINE
  5
336
100
AcDbEntity
  8
0
100
AcDbLine
 62
7
  6
CONTINUOUS
 10
17.7882039631
 20
2.4279054419
 11
17.7882039631
 21
2.3568004025
  0
LINE
  5
337
100
AcDbEntity
  8
0
100
AcDbLine
 62
7
  6
CONTINUOUS
 10
17.8110869758
 20
2.4526554556
 11
17.8110869758
 21
2.4328554446
  0
LINE
  5
338
100
AcDbEntity
  8
0
100
AcDbLine
 62
7
  6
CONTINUOUS
 10
17.8337269883
 20
2.3568004025
 11
17.8337269883
 21
2.3766004134
  0
LINE
  5
339
100
AcDbEntity
  8
0
100
AcDbLine
 62
7
  6
CONTINUOUS
 10
17.8337269883
 20
2.4328554446
 11
17.8337269883
 21
2.4526554556
  0
LINE
  5
33A
100
AcDbEntity
  8
0
100
AcDbLine
 62
7
  6
CONTINUOUS
 10
17.8626000043
 20
2.3815504162
 11
17.8626000043
 21
2.4279054419
  0
LINE
  5
33B
100
AcDbEntity
  8
0
100
AcDbLine
 62
7
  6
CONTINUOUS
 10
17.9246660387
 20
2.4279054419
 11
17.9246660387
 21
2.4163554355
  0
LINE
  5
33C
100
AcDbEntity
  8
0
100
AcDbLine
 62
7
  6
CONTINUOUS
 10
17.9246660387
 20
2.3931004226
 11
17.9246660387
 21
2.3815504162
  0
LINE
  5
33D
100
AcDbEntity
  8
0
100
AcDbLine
 62
7
  6
CONTINUOUS
 10
17.964783061
 20
2.4114054327
 11
17.964783061
 21
2.3980504253
  0
LINE
  5
33E
100
AcDbEntity
  8
0
100
AcDbLine
 62
7
  6
CONTINUOUS
 10
17.993656077
 20
2.4196554373
 11
17.993656077
 21
2.4279054419
  0
LINE
  5
33F
100
AcDbEntity
  8
0
100
AcDbLine
 62
7
  6
CONTINUOUS
 10
17.9946200775
 20
2.3815504162
 11
17.9946200775
 21
2.3898004208
  0
LINE
  5
340
100
AcDbEntity
  8
0
100
AcDbLine
 62
7
  6
CONTINUOUS
 10
18.040470103
 20
2.4526554556
 11
18.040470103
 21
2.4196554373
  0
LINE
  5
341
100
AcDbEntity
  8
0
100
AcDbLine
 62
7
  6
CONTINUOUS
 10
18.0418891038
 20
2.3898004208
 11
18.0418891038
 21
2.3568004025
  0
LINE
  5
342
100
AcDbEntity
  8
0
100
AcDbLine
 62
7
  6
CONTINUOUS
 10
18.065843117
 20
2.3568004025
 11
18.065843117
 21
2.3766004134
  0
LINE
  5
343
100
AcDbEntity
  8
0
100
AcDbLine
 62
7
  6
CONTINUOUS
 10
18.065843117
 20
2.4328554446
 11
18.065843117
 21
2.4526554556
  0
LINE
  5
344
100
AcDbEntity
  8
0
100
AcDbLine
 62
7
  6
CONTINUOUS
 10
18.0935391324
 20
2.3815504162
 11
18.0935391324
 21
2.4279054419
  0
LINE
  5
345
100
AcDbEntity
  8
0
100
AcDbLine
 62
7
  6
CONTINUOUS
 10
18.1547551663
 20
2.3912274216
 11
18.1547551663
 21
2.3815284162
  0
LINE
  5
346
100
AcDbEntity
  8
0
100
AcDbLine
 62
7
  6
CONTINUOUS
 10
18.1547551663
 20
2.4151804348
 11
18.1547551663
 21
2.4279054419
  0
LINE
  5
347
100
AcDbEntity
  8
0
100
AcDbLine
 62
7
  6
CONTINUOUS
 10
18.1843641828
 20
2.3765784134
 11
18.1843641828
 21
2.3568004025
  0
LINE
  5
348
100
AcDbEntity
  8
0
100
AcDbLine
 62
7
  6
CONTINUOUS
 10
18.2835562378
 20
2.3881114198
 11
18.2835562378
 21
2.3907374213
  0
LINE
  5
349
100
AcDbEntity
  8
0
100
AcDbLine
 62
7
  6
CONTINUOUS
 10
18.3006162472
 20
2.3907374213
 11
18.3006162472
 21
2.3791854149
  0
LINE
  5
34A
100
AcDbEntity
  8
0
100
AcDbLine
 62
7
  6
CONTINUOUS
 10
18.3975725422
 20
2.3981678251
 11
18.3975725422
 21
2.4087850316
  0
LINE
  5
34B
100
AcDbEntity
  8
0
100
AcDbLine
 62
7
  6
CONTINUOUS
 10
17.1801246258
 20
2.4539814564
 11
17.1333245999
 21
2.3802244155
  0
LINE
  5
34C
100
AcDbEntity
  8
0
100
AcDbLine
 62
7
  6
CONTINUOUS
 10
17.1935256333
 20
2.4286874423
 11
17.1864086293
 21
2.4174704361
  0
LINE
  5
34D
100
AcDbEntity
  8
0
100
AcDbLine
 62
7
  6
CONTINUOUS
 10
17.1723766216
 20
2.3828764169
 11
17.1778926246
 21
2.3915704217
  0
LINE
  5
34E
100
AcDbEntity
  8
0
100
AcDbLine
 62
7
  6
CONTINUOUS
 10
17.059669559
 20
2.4041904287
 11
17.0679095636
 21
2.4089664314
  0
ARC
  5
34F
100
AcDbEntity
  8
0
100
AcDbCircle
 62
7
  6
CONTINUOUS
 10
17.4632701481
 20
2.3568008172
 40
0.0024754162
100
AcDbArc
 50
226.3593695814
 51
270.0146919953
  0
ARC
  5
350
100
AcDbEntity
  8
0
100
AcDbCircle
 62
7
  6
CONTINUOUS
 10
16.8743904545
 20
2.3568004006
 40
0.0024749995
100
AcDbArc
 50
179.9999571957
 51
270.0000428043
  0
ARC
  5
351
100
AcDbEntity
  8
0
100
AcDbCircle
 62
7
  6
CONTINUOUS
 10
17.5374758259
 20
2.3568004006
 40
0.0024749995
100
AcDbArc
 50
269.9999571957
 51
0.0000428043
  0
ARC
  5
352
100
AcDbEntity
  8
0
100
AcDbCircle
 62
7
  6
CONTINUOUS
 10
17.416889759
 20
2.3568004006
 40
0.0024749995
100
AcDbArc
 50
269.9999571957
 51
0.0000428043
  0
ARC
  5
353
100
AcDbEntity
  8
0
100
AcDbCircle
 62
7
  6
CONTINUOUS
 10
17.3412257133
 20
2.3568004006
 40
0.0024749995
100
AcDbArc
 50
179.9999571957
 51
270.0000428043
  0
ARC
  5
354
100
AcDbEntity
  8
0
100
AcDbCircle
 62
7
  6
CONTINUOUS
 10
17.2060356384
 20
2.3568004006
 40
0.0024749995
100
AcDbArc
 50
179.9999571957
 51
270.0000428043
  0
ARC
  5
355
100
AcDbEntity
  8
0
100
AcDbCircle
 62
7
  6
CONTINUOUS
 10
17.3113167005
 20
2.3568004006
 40
0.0024749995
100
AcDbArc
 50
269.9999571957
 51
0.0000428043
  0
ARC
  5
356
100
AcDbEntity
  8
0
100
AcDbCircle
 62
7
  6
CONTINUOUS
 10
17.1083735842
 20
2.3568004006
 40
0.0024749995
100
AcDbArc
 50
179.9999571957
 51
270.0000428043
  0
ARC
  5
357
100
AcDbEntity
  8
0
100
AcDbCircle
 62
7
  6
CONTINUOUS
 10
17.1857496308
 20
2.3568004006
 40
0.0024749995
100
AcDbArc
 50
269.9999571958
 51
0.0000428044
  0
ARC
  5
358
100
AcDbEntity
  8
0
100
AcDbCircle
 62
7
  6
CONTINUOUS
 10
17.0404590422
 20
2.3933827403
 40
0.061747717
100
AcDbArc
 50
59.5385584989
 51
90.0050977555
  0
ARC
  5
359
100
AcDbEntity
  8
0
100
AcDbCircle
 62
7
  6
CONTINUOUS
 10
17.0481152095
 20
2.4027328529
 40
0.048483885
100
AcDbArc
 50
273.21763719
 51
303.0749121182
  0
ARC
  5
35A
100
AcDbEntity
  8
0
100
AcDbCircle
 62
7
  6
CONTINUOUS
 10
17.0620614151
 20
2.3797859164
 40
0.0222174455
100
AcDbArc
 50
4.0793399388
 51
69.834329283
  0
ARC
  5
35B
100
AcDbEntity
  8
0
100
AcDbCircle
 62
7
  6
CONTINUOUS
 10
17.0629546036
 20
2.379965244
 40
0.0213072145
100
AcDbArc
 50
303.0488228549
 51
355.7263138674
  0
ARC
  5
35C
100
AcDbEntity
  8
0
100
AcDbCircle
 62
7
  6
CONTINUOUS
 10
17.0688911042
 20
2.3799744343
 40
0.0153945295
100
AcDbArc
 50
354.0454548824
 51
5.1878013979
  0
ARC
  5
35D
100
AcDbEntity
  8
0
100
AcDbCircle
 62
7
  6
CONTINUOUS
 10
17.0051585288
 20
2.3877379196
 40
0.0086625048
100
AcDbArc
 50
270.0
 51
90.0
  0
ARC
  5
35E
100
AcDbEntity
  8
0
100
AcDbCircle
 62
7
  6
CONTINUOUS
 10
17.2148601055
 20
2.3902439622
 40
0.0024754602
100
AcDbArc
 50
32.8959418573
 51
89.9875097202
  0
ARC
  5
35F
100
AcDbEntity
  8
0
100
AcDbCircle
 62
7
  6
CONTINUOUS
 10
17.131234669
 20
2.3815506151
 40
0.0024752003
100
AcDbArc
 50
269.9983726451
 51
327.602165307
  0
ARC
  5
360
100
AcDbEntity
  8
0
100
AcDbCircle
 62
7
  6
CONTINUOUS
 10
17.1799825555
 20
2.3902442221
 40
0.0024752003
100
AcDbArc
 50
89.998372645
 51
147.602165307
  0
ARC
  5
361
100
AcDbEntity
  8
0
100
AcDbCircle
 62
7
  6
CONTINUOUS
 10
17.1744665134
 20
2.3815504549
 40
0.0024750401
100
AcDbArc
 50
147.6063258011
 51
270.0025305754
  0
ARC
  5
362
100
AcDbEntity
  8
0
100
AcDbCircle
 62
7
  6
CONTINUOUS
 10
16.8983324714
 20
2.3815504143
 40
0.0024749995
100
AcDbArc
 50
269.9999571957
 51
0.0000428043
  0
ARC
  5
363
100
AcDbEntity
  8
0
100
AcDbCircle
 62
7
  6
CONTINUOUS
 10
16.8743904545
 20
2.3766004153
 40
0.0024749995
100
AcDbArc
 50
89.9999571957
 51
180.0000428043
  0
ARC
  5
364
100
AcDbEntity
  8
0
100
AcDbCircle
 62
7
  6
CONTINUOUS
 10
16.963795504
 20
2.3939254249
 40
0.0024749995
100
AcDbArc
 50
89.9999571957
 51
180.0000428043
  0
ARC
  5
365
100
AcDbEntity
  8
0
100
AcDbCircle
 62
7
  6
CONTINUOUS
 10
16.963795504
 20
2.3815504143
 40
0.0024749995
100
AcDbArc
 50
179.9999571957
 51
270.0000428043
  0
ARC
  5
366
100
AcDbEntity
  8
0
100
AcDbCircle
 62
7
  6
CONTINUOUS
 10
17.2060356384
 20
2.3766004153
 40
0.0024749995
100
AcDbArc
 50
89.9999571957
 51
180.0000428043
  0
ARC
  5
367
100
AcDbEntity
  8
0
100
AcDbCircle
 62
7
  6
CONTINUOUS
 10
17.1083735842
 20
2.3766004153
 40
0.0024749995
100
AcDbArc
 50
89.9999571957
 51
180.0000428043
  0
ARC
  5
368
100
AcDbEntity
  8
0
100
AcDbCircle
 62
7
  6
CONTINUOUS
 10
17.1857496308
 20
2.3766004153
 40
0.0024749995
100
AcDbArc
 50
359.9999571957
 51
90.0000428043
  0
ARC
  5
369
100
AcDbEntity
  8
0
100
AcDbCircle
 62
7
  6
CONTINUOUS
 10
17.0460441811
 20
2.445793323
 40
0.0428289026
100
AcDbArc
 50
300.6990502959
 51
319.0591802498
  0
ARC
  5
36A
100
AcDbEntity
  8
0
100
AcDbCircle
 62
7
  6
CONTINUOUS
 10
17.0611211659
 20
2.4263113051
 40
0.0229166529
100
AcDbArc
 50
20.6563876465
 51
62.3316896973
  0
ARC
  5
36B
100
AcDbEntity
  8
0
100
AcDbCircle
 62
7
  6
CONTINUOUS
 10
17.0660727781
 20
2.4296649696
 40
0.0171568255
100
AcDbArc
 50
315.9145124245
 51
16.0049121283
  0
ARC
  5
36C
100
AcDbEntity
  8
0
100
AcDbCircle
 62
7
  6
CONTINUOUS
 10
17.0051585288
 20
2.4217179385
 40
0.0086625048
100
AcDbArc
 50
270.0
 51
90.0
  0
ARC
  5
36D
100
AcDbEntity
  8
0
100
AcDbCircle
 62
7
  6
CONTINUOUS
 10
17.2017960982
 20
2.4273609828
 40
0.0024754602
100
AcDbArc
 50
32.8959418573
 51
89.9875097202
  0
ARC
  5
36E
100
AcDbEntity
  8
0
100
AcDbCircle
 62
7
  6
CONTINUOUS
 10
17.2090556207
 20
2.4161446411
 40
0.0024752071
100
AcDbArc
 50
270.0004896793
 51
32.9089806818
  0
ARC
  5
36F
100
AcDbEntity
  8
0
100
AcDbCircle
 62
7
  6
CONTINUOUS
 10
17.1956155641
 20
2.4273612427
 40
0.0024752003
100
AcDbArc
 50
89.998372645
 51
147.602165307
  0
ARC
  5
370
100
AcDbEntity
  8
0
100
AcDbCircle
 62
7
  6
CONTINUOUS
 10
17.1822145567
 20
2.4526552567
 40
0.0024752003
100
AcDbArc
 50
89.998372645
 51
147.602165307
  0
ARC
  5
371
100
AcDbEntity
  8
0
100
AcDbCircle
 62
7
  6
CONTINUOUS
 10
17.1884985212
 20
2.4161444741
 40
0.0024750401
100
AcDbArc
 50
147.6063258012
 51
270.0025305754
  0
ARC
  5
372
100
AcDbEntity
  8
0
100
AcDbCircle
 62
7
  6
CONTINUOUS
 10
16.8743904545
 20
2.4526554575
 40
0.0024749995
100
AcDbArc
 50
89.9999571957
 51
180.0000428043
  0
ARC
  5
373
100
AcDbEntity
  8
0
100
AcDbCircle
 62
7
  6
CONTINUOUS
 10
16.8743904545
 20
2.4328554428
 40
0.0024749995
100
AcDbArc
 50
179.9999571957
 51
270.0000428043
  0
ARC
  5
374
100
AcDbEntity
  8
0
100
AcDbCircle
 62
7
  6
CONTINUOUS
 10
16.8983324714
 20
2.4279054437
 40
0.0024749995
100
AcDbArc
 50
359.9999571957
 51
90.0000428043
  0
ARC
  5
375
100
AcDbEntity
  8
0
100
AcDbCircle
 62
7
  6
CONTINUOUS
 10
16.963795504
 20
2.4279054437
 40
0.0024749995
100
AcDbArc
 50
89.9999571957
 51
180.0000428043
  0
ARC
  5
376
100
AcDbEntity
  8
0
100
AcDbCircle
 62
7
  6
CONTINUOUS
 10
16.963795504
 20
2.4155304332
 40
0.0024749995
100
AcDbArc
 50
179.9999571957
 51
270.0000428043
  0
ARC
  5
377
100
AcDbEntity
  8
0
100
AcDbCircle
 62
7
  6
CONTINUOUS
 10
17.5051335061
 20
2.3989573626
 40
0.0024753014
100
AcDbArc
 50
226.3461263059
 51
0.0014637321
  0
ARC
  5
378
100
AcDbEntity
  8
0
100
AcDbCircle
 62
7
  6
CONTINUOUS
 10
17.3965730459
 20
2.4135964972
 40
0.0024753014
100
AcDbArc
 50
46.3461263059
 51
180.0014637321
  0
ARC
  5
379
100
AcDbEntity
  8
0
100
AcDbCircle
 62
7
  6
CONTINUOUS
 10
17.2204866271
 20
2.3815506219
 40
0.0024752071
100
AcDbArc
 50
270.0004896793
 51
32.9089806818
  0
ARC
  5
37A
100
AcDbEntity
  8
0
100
AcDbCircle
 62
7
  6
CONTINUOUS
 10
17.396572744
 20
2.3815504143
 40
0.0024749995
100
AcDbArc
 50
179.9999571957
 51
270.0000428043
  0
ARC
  5
37B
100
AcDbEntity
  8
0
100
AcDbCircle
 62
7
  6
CONTINUOUS
 10
17.416889759
 20
2.3766004153
 40
0.0024749995
100
AcDbArc
 50
359.9999571957
 51
90.0000428043
  0
ARC
  5
37C
100
AcDbEntity
  8
0
100
AcDbCircle
 62
7
  6
CONTINUOUS
 10
17.3412257133
 20
2.3766004153
 40
0.0024749995
100
AcDbArc
 50
89.9999571957
 51
180.0000428043
  0
ARC
  5
37D
100
AcDbEntity
  8
0
100
AcDbCircle
 62
7
  6
CONTINUOUS
 10
17.3598727274
 20
2.3815504143
 40
0.0024749995
100
AcDbArc
 50
269.9999571957
 51
0.0000428043
  0
ARC
  5
37E
100
AcDbEntity
  8
0
100
AcDbCircle
 62
7
  6
CONTINUOUS
 10
17.3113167005
 20
2.3766004153
 40
0.0024749995
100
AcDbArc
 50
359.9999571957
 51
90.0000428043
  0
ARC
  5
37F
100
AcDbEntity
  8
0
100
AcDbCircle
 62
7
  6
CONTINUOUS
 10
17.291300808
 20
2.3815494558
 40
0.002474041
100
AcDbArc
 50
212.9056413127
 51
269.9972091755
  0
ARC
  5
380
100
AcDbEntity
  8
0
100
AcDbCircle
 62
7
  6
CONTINUOUS
 10
17.5051338079
 20
2.4279054437
 40
0.0024749995
100
AcDbArc
 50
359.9999571957
 51
90.0000428043
  0
ARC
  5
381
100
AcDbEntity
  8
0
100
AcDbCircle
 62
7
  6
CONTINUOUS
 10
17.4863577938
 20
2.4328554428
 40
0.0024749995
100
AcDbArc
 50
179.9999571957
 51
270.0000428043
  0
ARC
  5
382
100
AcDbEntity
  8
0
100
AcDbCircle
 62
7
  6
CONTINUOUS
 10
17.4863577938
 20
2.4526554575
 40
0.0024749995
100
AcDbArc
 50
89.9999571957
 51
180.0000428043
  0
ARC
  5
383
100
AcDbEntity
  8
0
100
AcDbCircle
 62
7
  6
CONTINUOUS
 10
17.5603588386
 20
2.4526554575
 40
0.0024749995
100
AcDbArc
 50
359.9999571957
 51
90.0000428043
  0
ARC
  5
384
100
AcDbEntity
  8
0
100
AcDbCircle
 62
7
  6
CONTINUOUS
 10
17.5603588386
 20
2.4328554428
 40
0.0024749995
100
AcDbArc
 50
269.9999571957
 51
0.0000428043
  0
ARC
  5
385
100
AcDbEntity
  8
0
100
AcDbCircle
 62
7
  6
CONTINUOUS
 10
17.5424258249
 20
2.4279054437
 40
0.0024749995
100
AcDbArc
 50
89.9999571957
 51
180.0000428043
  0
ARC
  5
386
100
AcDbEntity
  8
0
100
AcDbCircle
 62
7
  6
CONTINUOUS
 10
17.3598727274
 20
2.4279054437
 40
0.0024749995
100
AcDbArc
 50
359.9999571957
 51
90.0000428043
  0
ARC
  5
387
100
AcDbEntity
  8
0
100
AcDbCircle
 62
7
  6
CONTINUOUS
 10
17.3412257133
 20
2.4328554428
 40
0.0024749995
100
AcDbArc
 50
179.9999571957
 51
270.0000428043
  0
ARC
  5
388
100
AcDbEntity
  8
0
100
AcDbCircle
 62
7
  6
CONTINUOUS
 10
17.3412257133
 20
2.4526554575
 40
0.0024749995
100
AcDbArc
 50
89.9999571957
 51
180.0000428043
  0
ARC
  5
389
100
AcDbEntity
  8
0
100
AcDbCircle
 62
7
  6
CONTINUOUS
 10
17.2393900382
 20
2.4526554968
 40
0.0024749602
100
AcDbArc
 50
32.9172174468
 51
90.0087853097
  0
ARC
  5
38A
100
AcDbEntity
  8
0
100
AcDbCircle
 62
7
  6
CONTINUOUS
 10
17.4416839057
 20
2.4526562892
 40
0.0024741678
100
AcDbArc
 50
46.3477981899
 51
90.0031206038
  0
ARC
  5
38B
100
AcDbEntity
  8
0
100
AcDbCircle
 62
7
  6
CONTINUOUS
 10
18.2152358981
 20
2.2725915465
 40
0.1825583387
100
AcDbArc
 50
79.8618509324
 51
89.1640948679
  0
ARC
  5
38C
100
AcDbEntity
  8
0
100
AcDbCircle
 62
7
  6
CONTINUOUS
 10
18.197141171
 20
2.3016991173
 40
0.117346916
100
AcDbArc
 50
58.614769177
 51
62.3737227606
  0
ARC
  5
38D
100
AcDbEntity
  8
0
100
AcDbCircle
 62
7
  6
CONTINUOUS
 10
18.2260032264
 20
2.3725718859
 40
0.0459185159
100
AcDbArc
 50
15.6740290068
 51
20.9917271228
  0
ARC
  5
38E
100
AcDbEntity
  8
0
100
AcDbCircle
 62
7
  6
CONTINUOUS
 10
18.1662929967
 20
2.368643334
 40
0.0396099176
100
AcDbArc
 50
14.3201081283
 51
22.4984722084
  0
ARC
  5
38F
100
AcDbEntity
  8
0
100
AcDbCircle
 62
7
  6
CONTINUOUS
 10
18.1850046504
 20
2.3693353402
 40
0.0243676582
100
AcDbArc
 50
63.3666028271
 51
90.3937697637
  0
ARC
  5
390
100
AcDbEntity
  8
0
100
AcDbCircle
 62
7
  6
CONTINUOUS
 10
18.2724993219
 20
2.3741987064
 40
0.0198837666
100
AcDbArc
 50
271.8586572978
 51
289.4131338543
  0
ARC
  5
391
100
AcDbEntity
  8
0
100
AcDbCircle
 62
7
  6
CONTINUOUS
 10
18.2265855264
 20
2.3716475527
 40
0.0173408616
100
AcDbArc
 50
232.4713476722
 51
267.338189944
  0
ARC
  5
392
100
AcDbEntity
  8
0
100
AcDbCircle
 62
7
  6
CONTINUOUS
 10
18.1818891832
 20
2.3568004006
 40
0.0024749995
100
AcDbArc
 50
269.9999571957
 51
0.0000428043
  0
ARC
  5
393
100
AcDbEntity
  8
0
100
AcDbCircle
 62
7
  6
CONTINUOUS
 10
18.0683181166
 20
2.3568004006
 40
0.0024749995
100
AcDbArc
 50
179.9999571957
 51
270.0000428043
  0
ARC
  5
394
100
AcDbEntity
  8
0
100
AcDbCircle
 62
7
  6
CONTINUOUS
 10
17.7857289635
 20
2.3568004006
 40
0.0024749995
100
AcDbArc
 50
269.9999571957
 51
0.0000428043
  0
ARC
  5
395
100
AcDbEntity
  8
0
100
AcDbCircle
 62
7
  6
CONTINUOUS
 10
17.6651428967
 20
2.3568004006
 40
0.0024749995
100
AcDbArc
 50
269.9999571957
 51
0.0000428043
  0
ARC
  5
396
100
AcDbEntity
  8
0
100
AcDbCircle
 62
7
  6
CONTINUOUS
 10
17.589478851
 20
2.3568004006
 40
0.0024749995
100
AcDbArc
 50
179.9999571957
 51
270.0000428043
  0
ARC
  5
397
100
AcDbEntity
  8
0
100
AcDbCircle
 62
7
  6
CONTINUOUS
 10
18.0394141042
 20
2.3568004006
 40
0.0024749995
100
AcDbArc
 50
269.9999571957
 51
0.0000428043
  0
ARC
  5
398
100
AcDbEntity
  8
0
100
AcDbCircle
 62
7
  6
CONTINUOUS
 10
17.8362019878
 20
2.3568004006
 40
0.0024749995
100
AcDbArc
 50
179.9999571957
 51
270.0000428043
  0
ARC
  5
399
100
AcDbEntity
  8
0
100
AcDbCircle
 62
7
  6
CONTINUOUS
 10
17.7115227858
 20
2.3567995689
 40
0.0024741678
100
AcDbArc
 50
226.3477981898
 51
270.0031206038
  0
ARC
  5
39A
100
AcDbEntity
  8
0
100
AcDbCircle
 62
7
  6
CONTINUOUS
 10
17.7533866437
 20
2.3989573626
 40
0.0024753014
100
AcDbArc
 50
226.3461263059
 51
0.0014637321
  0
ARC
  5
39B
100
AcDbEntity
  8
0
100
AcDbCircle
 62
7
  6
CONTINUOUS
 10
17.6448261836
 20
2.4135964972
 40
0.0024753014
100
AcDbArc
 50
46.3461263058
 51
180.0014637321
  0
ARC
  5
39C
100
AcDbEntity
  8
0
100
AcDbCircle
 62
7
  6
CONTINUOUS
 10
17.6448258817
 20
2.3815504143
 40
0.0024749995
100
AcDbArc
 50
179.9999571957
 51
270.0000428043
  0
ARC
  5
39D
100
AcDbEntity
  8
0
100
AcDbCircle
 62
7
  6
CONTINUOUS
 10
17.6651428967
 20
2.3766004153
 40
0.0024749995
100
AcDbArc
 50
359.9999571957
 51
90.0000428043
  0
ARC
  5
39E
100
AcDbEntity
  8
0
100
AcDbCircle
 62
7
  6
CONTINUOUS
 10
17.589478851
 20
2.3766004153
 40
0.0024749995
100
AcDbArc
 50
89.9999571957
 51
180.0000428043
  0
ARC
  5
39F
100
AcDbEntity
  8
0
100
AcDbCircle
 62
7
  6
CONTINUOUS
 10
17.6081248651
 20
2.3815504143
 40
0.0024749995
100
AcDbArc
 50
269.9999571957
 51
0.0000428043
  0
ARC
  5
3A0
100
AcDbEntity
  8
0
100
AcDbCircle
 62
7
  6
CONTINUOUS
 10
17.9271410383
 20
2.3931004244
 40
0.0024749995
100
AcDbArc
 50
89.9999571957
 51
180.0000428043
  0
ARC
  5
3A1
100
AcDbEntity
  8
0
100
AcDbCircle
 62
7
  6
CONTINUOUS
 10
17.9271410383
 20
2.3815504143
 40
0.0024749995
100
AcDbArc
 50
179.9999571957
 51
270.0000428043
  0
ARC
  5
3A2
100
AcDbEntity
  8
0
100
AcDbCircle
 62
7
  6
CONTINUOUS
 10
17.8362019878
 20
2.3766004153
 40
0.0024749995
100
AcDbArc
 50
89.9999571957
 51
180.0000428043
  0
ARC
  5
3A3
100
AcDbEntity
  8
0
100
AcDbCircle
 62
7
  6
CONTINUOUS
 10
17.8601250048
 20
2.3815504143
 40
0.0024749995
100
AcDbArc
 50
269.9999571956
 51
0.0000428042
  0
ARC
  5
3A4
100
AcDbEntity
  8
0
100
AcDbCircle
 62
7
  6
CONTINUOUS
 10
17.9271410383
 20
2.4163554336
 40
0.0024749995
100
AcDbArc
 50
179.9999571957
 51
270.0000428043
  0
ARC
  5
3A5
100
AcDbEntity
  8
0
100
AcDbCircle
 62
7
  6
CONTINUOUS
 10
17.7533869456
 20
2.4279054437
 40
0.0024749995
100
AcDbArc
 50
359.9999571957
 51
90.0000428043
  0
ARC
  5
3A6
100
AcDbEntity
  8
0
100
AcDbCircle
 62
7
  6
CONTINUOUS
 10
17.7346109315
 20
2.4328554428
 40
0.0024749995
100
AcDbArc
 50
179.9999571957
 51
270.0000428043
  0
ARC
  5
3A7
100
AcDbEntity
  8
0
100
AcDbCircle
 62
7
  6
CONTINUOUS
 10
17.7346109315
 20
2.4526554575
 40
0.0024749995
100
AcDbArc
 50
89.9999571957
 51
180.0000428043
  0
ARC
  5
3A8
100
AcDbEntity
  8
0
100
AcDbCircle
 62
7
  6
CONTINUOUS
 10
17.8086119762
 20
2.4526554575
 40
0.0024749995
100
AcDbArc
 50
359.9999571957
 51
90.0000428043
  0
ARC
  5
3A9
100
AcDbEntity
  8
0
100
AcDbCircle
 62
7
  6
CONTINUOUS
 10
17.8086119762
 20
2.4328554428
 40
0.0024749995
100
AcDbArc
 50
269.9999571956
 51
0.0000428042
  0
ARC
  5
3AA
100
AcDbEntity
  8
0
100
AcDbCircle
 62
7
  6
CONTINUOUS
 10
17.7906789626
 20
2.4279054437
 40
0.0024749995
100
AcDbArc
 50
89.9999571957
 51
180.0000428043
  0
ARC
  5
3AB
100
AcDbEntity
  8
0
100
AcDbCircle
 62
7
  6
CONTINUOUS
 10
17.6081248651
 20
2.4279054437
 40
0.0024749995
100
AcDbArc
 50
359.9999571957
 51
90.0000428043
  0
ARC
  5
3AC
100
AcDbEntity
  8
0
100
AcDbCircle
 62
7
  6
CONTINUOUS
 10
17.589478851
 20
2.4328554428
 40
0.0024749995
100
AcDbArc
 50
179.9999571957
 51
270.0000428043
  0
ARC
  5
3AD
100
AcDbEntity
  8
0
100
AcDbCircle
 62
7
  6
CONTINUOUS
 10
17.589478851
 20
2.4526554575
 40
0.0024749995
100
AcDbArc
 50
89.9999571957
 51
180.0000428043
  0
ARC
  5
3AE
100
AcDbEntity
  8
0
100
AcDbCircle
 62
7
  6
CONTINUOUS
 10
17.8601250048
 20
2.4279054437
 40
0.0024749995
100
AcDbArc
 50
359.9999571957
 51
90.0000428043
  0
ARC
  5
3AF
100
AcDbEntity
  8
0
100
AcDbCircle
 62
7
  6
CONTINUOUS
 10
17.8362019878
 20
2.4328554428
 40
0.0024749995
100
AcDbArc
 50
179.9999571957
 51
270.0000428043
  0
ARC
  5
3B0
100
AcDbEntity
  8
0
100
AcDbCircle
 62
7
  6
CONTINUOUS
 10
17.8362019878
 20
2.4526554575
 40
0.0024749995
100
AcDbArc
 50
89.9999571957
 51
180.0000428043
  0
ARC
  5
3B1
100
AcDbEntity
  8
0
100
AcDbCircle
 62
7
  6
CONTINUOUS
 10
17.9271410383
 20
2.4279054437
 40
0.0024749995
100
AcDbArc
 50
89.9999571957
 51
180.0000428043
  0
ARC
  5
3B2
100
AcDbEntity
  8
0
100
AcDbCircle
 62
7
  6
CONTINUOUS
 10
17.6899370433
 20
2.4526562892
 40
0.0024741678
100
AcDbArc
 50
46.3477981899
 51
90.0031206038
  0
ARC
  5
3B3
100
AcDbEntity
  8
0
100
AcDbCircle
 62
7
  6
CONTINUOUS
 10
18.2495655574
 20
2.384346736
 40
0.044722495
100
AcDbArc
 50
195.531588407
 51
204.7624440448
  0
ARC
  5
3B4
100
AcDbEntity
  8
0
100
AcDbCircle
 62
7
  6
CONTINUOUS
 10
18.2415401884
 20
2.4134150625
 40
0.039319019
100
AcDbArc
 50
59.1202086415
 51
81.4730239328
  0
ARC
  5
3B5
100
AcDbEntity
  8
0
100
AcDbCircle
 62
7
  6
CONTINUOUS
 10
18.2667613545
 20
2.3917854558
 40
0.0383802683
100
AcDbArc
 50
288.7656836787
 51
309.6104317088
  0
ARC
  5
3B6
100
AcDbEntity
  8
0
100
AcDbCircle
 62
7
  6
CONTINUOUS
 10
18.2471995846
 20
2.4197497317
 40
0.0310192946
100
AcDbArc
 50
34.7540871
 51
62.0879016178
  0
ARC
  5
3B7
100
AcDbEntity
  8
0
100
AcDbCircle
 62
7
  6
CONTINUOUS
 10
18.1924863006
 20
2.4019259643
 40
0.0284963867
100
AcDbArc
 50
70.3834917948
 51
86.8922743861
  0
ARC
  5
3B8
100
AcDbEntity
  8
0
100
AcDbCircle
 62
7
  6
CONTINUOUS
 10
18.2737535399
 20
2.384184238
 40
0.0280715479
100
AcDbArc
 50
308.5071794988
 51
332.2400656899
  0
ARC
  5
3B9
100
AcDbEntity
  8
0
100
AcDbCircle
 62
7
  6
CONTINUOUS
 10
18.2439037681
 20
2.3797532943
 40
0.0266349791
100
AcDbArc
 50
20.3630922153
 51
37.9727053099
  0
ARC
  5
3BA
100
AcDbEntity
  8
0
100
AcDbCircle
 62
7
  6
CONTINUOUS
 10
18.2450241237
 20
2.3798263774
 40
0.0257145923
100
AcDbArc
 50
39.3804255939
 51
59.0361096173
  0
ARC
  5
3BB
100
AcDbEntity
  8
0
100
AcDbCircle
 62
7
  6
CONTINUOUS
 10
18.2296840914
 20
2.3774978567
 40
0.0238935861
100
AcDbArc
 50
209.8247607259
 51
235.1255079367
  0
ARC
  5
3BC
100
AcDbEntity
  8
0
100
AcDbCircle
 62
7
  6
CONTINUOUS
 10
18.2830605507
 20
2.3792897325
 40
0.0175560065
100
AcDbArc
 50
332.2279060967
 51
359.6595469939
  0
ARC
  5
3BD
100
AcDbEntity
  8
0
100
AcDbCircle
 62
7
  6
CONTINUOUS
 10
18.1890593051
 20
2.3776149607
 40
0.0151491919
100
AcDbArc
 50
24.098260853
 51
63.0369451818
  0
ARC
  5
3BE
100
AcDbEntity
  8
0
100
AcDbCircle
 62
7
  6
CONTINUOUS
 10
18.2845735615
 20
2.3882148688
 40
0.0147197649
100
AcDbArc
 50
192.7054516565
 51
206.0594861022
  0
ARC
  5
3BF
100
AcDbEntity
  8
0
100
AcDbCircle
 62
7
  6
CONTINUOUS
 10
18.1973459106
 20
2.4149676972
 40
0.0145814632
100
AcDbArc
 50
54.6746025112
 51
71.1660573124
  0
ARC
  5
3C0
100
AcDbEntity
  8
0
100
AcDbCircle
 62
7
  6
CONTINUOUS
 10
18.2752146786
 20
2.3927110743
 40
0.0132488022
100
AcDbArc
 50
270.266200055
 51
281.2404888597
  0
ARC
  5
3C1
100
AcDbEntity
  8
0
100
AcDbCircle
 62
7
  6
CONTINUOUS
 10
18.2716089246
 20
2.3878675959
 40
0.0119498009
100
AcDbArc
 50
340.7883861657
 51
1.1691452593
  0
ARC
  5
3C2
100
AcDbEntity
  8
0
100
AcDbCircle
 62
7
  6
CONTINUOUS
 10
18.198398534
 20
2.4260095887
 40
0.0110815393
100
AcDbArc
 50
306.758405961
 51
320.4502234234
  0
ARC
  5
3C3
100
AcDbEntity
  8
0
100
AcDbCircle
 62
7
  6
CONTINUOUS
 10
18.2764089196
 20
2.3869743807
 40
0.0073895522
100
AcDbArc
 50
280.8288201977
 51
305.0837508495
  0
ARC
  5
3C4
100
AcDbEntity
  8
0
100
AcDbCircle
 62
7
  6
CONTINUOUS
 10
18.2768101012
 20
2.3861235343
 40
0.0064647042
100
AcDbArc
 50
306.5086174083
 51
340.2162360092
  0
ARC
  5
3C5
100
AcDbEntity
  8
0
100
AcDbCircle
 62
7
  6
CONTINUOUS
 10
18.2024754016
 20
2.4218216224
 40
0.0060275915
100
AcDbArc
 50
20.9055592135
 51
56.7851676243
  0
ARC
  5
3C6
100
AcDbEntity
  8
0
100
AcDbCircle
 62
7
  6
CONTINUOUS
 10
18.2025691502
 20
2.4227756809
 40
0.0058087709
100
AcDbArc
 50
318.8515287446
 51
353.6422345323
  0
ARC
  5
3C7
100
AcDbEntity
  8
0
100
AcDbCircle
 62
7
  6
CONTINUOUS
 10
18.2760792244
 20
2.3840063824
 40
0.0052403997
100
AcDbArc
 50
205.5232099488
 51
227.5054868079
  0
ARC
  5
3C8
100
AcDbEntity
  8
0
100
AcDbCircle
 62
7
  6
CONTINUOUS
 10
18.2037759605
 20
2.4224819047
 40
0.0045795888
100
AcDbArc
 50
355.6235353944
 51
18.9942678268
  0
ARC
  5
3C9
100
AcDbEntity
  8
0
100
AcDbCircle
 62
7
  6
CONTINUOUS
 10
18.2743509251
 20
2.3821910097
 40
0.0027347709
100
AcDbArc
 50
228.5117626738
 51
266.1485845754
  0
ARC
  5
3CA
100
AcDbEntity
  8
0
100
AcDbCircle
 62
7
  6
CONTINUOUS
 10
18.1572301659
 20
2.3912274234
 40
0.0024749995
100
AcDbArc
 50
89.9999571957
 51
180.0000428043
  0
ARC
  5
3CB
100
AcDbEntity
  8
0
100
AcDbCircle
 62
7
  6
CONTINUOUS
 10
18.1572301659
 20
2.3815284143
 40
0.0024749995
100
AcDbArc
 50
179.9999571957
 51
270.0000428043
  0
ARC
  5
3CC
100
AcDbEntity
  8
0
100
AcDbCircle
 62
7
  6
CONTINUOUS
 10
18.1818891832
 20
2.3765784153
 40
0.0024749995
100
AcDbArc
 50
359.9999571957
 51
90.0000428043
  0
ARC
  5
3CD
100
AcDbEntity
  8
0
100
AcDbCircle
 62
7
  6
CONTINUOUS
 10
18.0683181166
 20
2.3766004153
 40
0.0024749995
100
AcDbArc
 50
89.9999571957
 51
180.0000428043
  0
ARC
  5
3CE
100
AcDbEntity
  8
0
100
AcDbCircle
 62
7
  6
CONTINUOUS
 10
18.0910641329
 20
2.3815504143
 40
0.0024749995
100
AcDbArc
 50
269.9999571957
 51
0.0000428043
  0
ARC
  5
3CF
100
AcDbEntity
  8
0
100
AcDbCircle
 62
7
  6
CONTINUOUS
 10
18.2860312373
 20
2.3907374231
 40
0.0024749995
100
AcDbArc
 50
89.9999571957
 51
180.0000428043
  0
ARC
  5
3D0
100
AcDbEntity
  8
0
100
AcDbCircle
 62
7
  6
CONTINUOUS
 10
18.2981412477
 20
2.3907374231
 40
0.0024749995
100
AcDbArc
 50
359.9999571957
 51
90.0000428043
  0
ARC
  5
3D1
100
AcDbEntity
  8
0
100
AcDbCircle
 62
7
  6
CONTINUOUS
 10
18.1572301659
 20
2.415180433
 40
0.0024749995
100
AcDbArc
 50
179.9999571957
 51
270.0000428043
  0
ARC
  5
3D2
100
AcDbEntity
  8
0
100
AcDbCircle
 62
7
  6
CONTINUOUS
 10
17.992145078
 20
2.3815504143
 40
0.0024749995
100
AcDbArc
 50
269.9999571957
 51
0.0000428043
  0
ARC
  5
3D3
100
AcDbEntity
  8
0
100
AcDbCircle
 62
7
  6
CONTINUOUS
 10
17.9970950771
 20
2.3898004226
 40
0.0024749995
100
AcDbArc
 50
89.9999571957
 51
180.0000428043
  0
ARC
  5
3D4
100
AcDbEntity
  8
0
100
AcDbCircle
 62
7
  6
CONTINUOUS
 10
18.0394141042
 20
2.3898004226
 40
0.0024749995
100
AcDbArc
 50
359.9999571957
 51
90.0000428043
  0
ARC
  5
3D5
100
AcDbEntity
  8
0
100
AcDbCircle
 62
7
  6
CONTINUOUS
 10
18.0379951034
 20
2.4196554355
 40
0.0024749995
100
AcDbArc
 50
269.9999571956
 51
0.0000428042
  0
ARC
  5
3D6
100
AcDbEntity
  8
0
100
AcDbCircle
 62
7
  6
CONTINUOUS
 10
17.9961310765
 20
2.4196554355
 40
0.0024749995
100
AcDbArc
 50
179.9999571957
 51
270.0000428043
  0
ARC
  5
3D7
100
AcDbEntity
  8
0
100
AcDbCircle
 62
7
  6
CONTINUOUS
 10
17.9623080615
 20
2.4114054346
 40
0.0024749995
100
AcDbArc
 50
359.9999571957
 51
90.0000428043
  0
ARC
  5
3D8
100
AcDbEntity
  8
0
100
AcDbCircle
 62
7
  6
CONTINUOUS
 10
17.9623080615
 20
2.3980504235
 40
0.0024749995
100
AcDbArc
 50
269.9999571956
 51
0.0000428042
  0
ARC
  5
3D9
100
AcDbEntity
  8
0
100
AcDbCircle
 62
7
  6
CONTINUOUS
 10
18.220842337
 20
2.4783532224
 40
0.0789082104
100
AcDbArc
 50
292.906155071
 51
305.2574666259
  0
ARC
  5
3DA
100
AcDbEntity
  8
0
100
AcDbCircle
 62
7
  6
CONTINUOUS
 10
18.2511742746
 20
2.4351463727
 40
0.0261183659
100
AcDbArc
 50
305.6373831893
 51
329.9727629745
  0
ARC
  5
3DB
100
AcDbEntity
  8
0
100
AcDbCircle
 62
7
  6
CONTINUOUS
 10
18.1908418374
 20
2.4381440645
 40
0.0254407115
100
AcDbArc
 50
270.7327484175
 51
290.441894219
  0
ARC
  5
3DC
100
AcDbEntity
  8
0
100
AcDbCircle
 62
7
  6
CONTINUOUS
 10
18.1927693431
 20
2.4337504172
 40
0.0206523367
100
AcDbArc
 50
289.6883413472
 51
306.4184925496
  0
ARC
  5
3DD
100
AcDbEntity
  8
0
100
AcDbCircle
 62
7
  6
CONTINUOUS
 10
18.2588883357
 20
2.4282993328
 40
0.0165459396
100
AcDbArc
 50
1.548452892
 51
33.5033152417
  0
ARC
  5
3DE
100
AcDbEntity
  8
0
100
AcDbCircle
 62
7
  6
CONTINUOUS
 10
18.2621849309
 20
2.428467785
 40
0.0132462337
100
AcDbArc
 50
331.1510006998
 51
1.205404301
  0
ARC
  5
3DF
100
AcDbEntity
  8
0
100
AcDbCircle
 62
7
  6
CONTINUOUS
 10
18.0910641329
 20
2.4279054437
 40
0.0024749995
100
AcDbArc
 50
359.9999571957
 51
90.0000428043
  0
ARC
  5
3E0
100
AcDbEntity
  8
0
100
AcDbCircle
 62
7
  6
CONTINUOUS
 10
18.0683181166
 20
2.4328554428
 40
0.0024749995
100
AcDbArc
 50
179.9999571957
 51
270.0000428043
  0
ARC
  5
3E1
100
AcDbEntity
  8
0
100
AcDbCircle
 62
7
  6
CONTINUOUS
 10
18.0683181166
 20
2.4526554575
 40
0.0024749995
100
AcDbArc
 50
89.9999571957
 51
180.0000428043
  0
ARC
  5
3E2
100
AcDbEntity
  8
0
100
AcDbCircle
 62
7
  6
CONTINUOUS
 10
18.1572301659
 20
2.4279054437
 40
0.0024749995
100
AcDbArc
 50
89.9999571957
 51
180.0000428043
  0
ARC
  5
3E3
100
AcDbEntity
  8
0
100
AcDbCircle
 62
7
  6
CONTINUOUS
 10
18.0379951034
 20
2.4526554575
 40
0.0024749995
100
AcDbArc
 50
359.9999571957
 51
90.0000428043
  0
ARC
  5
3E4
100
AcDbEntity
  8
0
100
AcDbCircle
 62
7
  6
CONTINUOUS
 10
17.9911810775
 20
2.4279054437
 40
0.0024749995
100
AcDbArc
 50
359.9999571957
 51
90.0000428043
  0
ELLIPSE
  5
3E5
100
AcDbEntity
  8
0
100
AcDbEllipse
 62
7
  6
CONTINUOUS
 10
17.573550844
 20
2.4034764283
 30
0.0
 11
-0.8250004575
 21
0.0
 31
0.0
 40
0.218572
 41
0.0
 42
6.2831853072
  0
HATCH
  5
3E6
100
AcDbEntity
  8
0
100
AcDbHatch
 62
7
  6
CONTINUOUS
 10
0.0
 20
0.0
 30
0.0
210
0.0
220
0.0
230
1.0
  2
XSEC0002
 70
1
 71
1
 91
11
 92
1
 93
57
 72
2
 10
18.2265855264
 20
2.3716475527
 40
0.0173408616
 50
232.4713476722
 51
267.338189944
 73
1
 72
2
 10
18.2296840914
 20
2.3774978567
 40
0.0238935861
 50
209.8247607259
 51
235.1255079367
 73
1
 72
2
 10
18.2495655574
 20
2.384346736
 40
0.044722495
 50
195.531588407
 51
204.7624440448
 73
1
 72
1
 10
18.206476195
 20
2.3723714111
 11
18.204672194
 21
2.3784404145
 72
2
 10
18.1662929967
 20
2.368643334
 40
0.0396099176
 50
14.3201081283
 51
22.4984722084
 73
1
 72
2
 10
18.1890593051
 20
2.3776149607
 40
0.0151491919
 50
24.098260853
 51
63.0369451818
 73
1
 72
2
 10
18.1850046504
 20
2.3693353402
 40
0.0243676582
 50
63.3666028271
 51
90.3937697637
 73
1
 72
1
 10
18.184837183
 20
2.3937024229
 11
18.1572301677
 21
2.3937024229
 72
2
 10
18.1572301659
 20
2.3912274234
 40
0.0024749995
 50
89.9999571957
 51
180.0000428043
 73
1
 72
1
 10
18.1547551663
 20
2.3912274216
 11
18.1547551663
 21
2.3815284162
 72
2
 10
18.1572301659
 20
2.3815284143
 40
0.0024749995
 50
179.9999571957
 51
270.0000428043
 73
1
 72
1
 10
18.1572301677
 20
2.3790534148
 11
18.1818891814
 21
2.3790534148
 72
2
 10
18.1818891832
 20
2.3765784153
 40
0.0024749995
 50
359.9999571957
 51
90.0000428042
 73
1
 72
1
 10
18.1843641828
 20
2.3765784134
 11
18.1843641828
 21
2.3568004025
 72
2
 10
18.1818891832
 20
2.3568004006
 40
0.0024749995
 50
269.9999571958
 51
0.0000428043
 73
1
 72
1
 10
18.1818891814
 20
2.3543254011
 11
18.0683181184
 21
2.3543254011
 72
2
 10
18.0683181166
 20
2.3568004006
 40
0.0024749995
 50
179.9999571957
 51
270.0000428042
 73
1
 72
1
 10
18.065843117
 20
2.3568004025
 11
18.065843117
 21
2.3766004134
 72
2
 10
18.0683181166
 20
2.3766004153
 40
0.0024749995
 50
89.9999571958
 51
180.0000428043
 73
1
 72
1
 10
18.0683181184
 20
2.3790754148
 11
18.091064131
 21
2.3790754148
 72
2
 10
18.0910641329
 20
2.3815504143
 40
0.0024749995
 50
269.9999571957
 51
0.0000428043
 73
1
 72
1
 10
18.0935391324
 20
2.3815504162
 11
18.0935391324
 21
2.4279054419
 72
2
 10
18.0910641329
 20
2.4279054437
 40
0.0024749995
 50
359.9999571957
 51
90.0000428043
 73
1
 72
1
 10
18.091064131
 20
2.4303804433
 11
18.0683181184
 21
2.4303804433
 72
2
 10
18.0683181166
 20
2.4328554428
 40
0.0024749995
 50
179.9999571957
 51
270.0000428043
 73
1
 72
1
 10
18.065843117
 20
2.4328554446
 11
18.065843117
 21
2.4526554556
 72
2
 10
18.0683181166
 20
2.4526554575
 40
0.0024749995
 50
89.9999571958
 51
180.0000428043
 73
1
 72
1
 10
18.0683181184
 20
2.455130457
 11
18.2178992014
 21
2.455130457
 72
2
 10
18.2152358981
 20
2.2725915465
 40
0.1825583387
 50
79.8618509324
 51
89.1640948679
 73
1
 72
2
 10
18.2415401884
 20
2.4134150625
 40
0.039319019
 50
59.1202086415
 51
81.4730239328
 73
1
 72
2
 10
18.2471995846
 20
2.4197497317
 40
0.0310192946
 50
34.7540871
 51
62.0879016178
 73
1
 72
2
 10
18.2588883357
 20
2.4282993328
 40
0.0165459396
 50
1.548452892
 51
33.5033152417
 73
1
 72
2
 10
18.2621849309
 20
2.428467785
 40
0.0132462337
 50
331.1510006998
 51
1.205404301
 73
1
 72
2
 10
18.2511742746
 20
2.4351463727
 40
0.0261183659
 50
305.6373831893
 51
329.9727629745
 73
1
 72
2
 10
18.220842337
 20
2.4783532224
 40
0.0789082104
 50
292.906155071
 51
305.2574666259
 73
1
 72
2
 10
18.197141171
 20
2.3016991173
 40
0.117346916
 50
58.614769177
 51
62.3737227606
 73
1
 72
2
 10
18.2450241237
 20
2.3798263774
 40
0.0257145923
 50
39.3804255939
 51
59.0361096173
 73
1
 72
2
 10
18.2439037681
 20
2.3797532943
 40
0.0266349791
 50
20.3630922153
 51
37.9727053099
 73
1
 72
2
 10
18.2260032264
 20
2.3725718859
 40
0.0459185159
 50
15.6740290068
 51
20.9917271228
 73
1
 72
2
 10
18.2845735615
 20
2.3882148688
 40
0.0147197649
 50
192.7054516565
 51
206.0594861022
 73
1
 72
2
 10
18.2760792244
 20
2.3840063824
 40
0.0052403997
 50
205.5232099488
 51
227.5054868079
 73
1
 72
2
 10
18.2743509251
 20
2.3821910097
 40
0.0027347709
 50
228.5117626738
 51
266.1485845755
 73
1
 72
1
 10
18.2741672326
 20
2.379462415
 11
18.2752762332
 21
2.379462415
 72
2
 10
18.2752146786
 20
2.3927110743
 40
0.0132488022
 50
270.266200055
 51
281.2404888597
 73
1
 72
2
 10
18.2764089196
 20
2.3869743807
 40
0.0073895522
 50
280.8288201977
 51
305.0837508495
 73
1
 72
2
 10
18.2768101012
 20
2.3861235343
 40
0.0064647042
 50
306.5086174083
 51
340.2162360092
 73
1
 72
2
 10
18.2716089246
 20
2.3878675959
 40
0.0119498009
 50
340.7883861657
 51
1.1691452593
 73
1
 72
1
 10
18.2835562378
 20
2.3881114198
 11
18.2835562378
 21
2.3907374213
 72
2
 10
18.2860312373
 20
2.3907374231
 40
0.0024749995
 50
89.9999571957
 51
180.0000428043
 73
1
 72
1
 10
18.2860312391
 20
2.3932124227
 11
18.2981412459
 21
2.3932124227
 72
2
 10
18.2981412477
 20
2.3907374231
 40
0.0024749995
 50
359.9999571957
 51
90.0000428043
 73
1
 72
1
 10
18.3006162472
 20
2.3907374213
 11
18.3006162472
 21
2.3791854149
 72
2
 10
18.2830605507
 20
2.3792897325
 40
0.0175560065
 50
332.2279060967
 51
359.6595469939
 73
1
 72
2
 10
18.2737535399
 20
2.384184238
 40
0.0280715479
 50
308.5071794988
 51
332.2400656899
 73
1
 72
2
 10
18.2667613545
 20
2.3917854558
 40
0.0383802683
 50
288.7656836787
 51
309.6104317088
 73
1
 72
2
 10
18.2724993219
 20
2.3741987064
 40
0.0198837666
 50
271.8586572978
 51
289.4131338543
 73
1
 72
1
 10
18.273144232
 20
2.3543254011
 11
18.2257802057
 21
2.3543254011
 97
267
330
2DB
330
2DC
330
2DD
330
2DE
330
2DF
330
2E0
330
2E1
330
2E2
330
2E3
330
2E4
330
2E5
330
2E6
330
2E7
330
2E8
330
2E9
330
2EA
330
2EB
330
2EC
330
2ED
330
2EE
330
2EF
330
2F0
330
2F1
330
2F2
330
2F3
330
2F4
330
2F5
330
2F6
330
2F7
330
2F8
330
2F9
330
2FA
330
2FB
330
2FC
330
2FD
330
2FE
330
2FF
330
300
330
301
330
302
330
303
330
304
330
305
330
306
330
307
330
308
330
309
330
30A
330
30B
330
30C
330
30D
330
30E
330
30F
330
310
330
311
330
312
330
313
330
314
330
315
330
316
330
317
330
318
330
319
330
31A
330
31B
330
31C
330
31D
330
31E
330
31F
330
320
330
321
330
322
330
323
330
324
330
325
330
326
330
327
330
328
330
329
330
32A
330
32B
330
32C
330
32D
330
32E
330
32F
330
330
330
331
330
332
330
333
330
334
330
335
330
336
330
337
330
338
330
339
330
33A
330
33B
330
33C
330
33D
330
33E
330
33F
330
340
330
341
330
342
330
343
330
344
330
345
330
346
330
347
330
348
330
349
330
34A
330
34B
330
34C
330
34D
330
34E
330
34F
330
350
330
351
330
352
330
353
330
354
330
355
330
356
330
357
330
358
330
359
330
35A
330
35B
330
35C
330
35D
330
35E
330
35F
330
360
330
361
330
362
330
363
330
364
330
365
330
366
330
367
330
368
330
369
330
36A
330
36B
330
36C
330
36D
330
36E
330
36F
330
370
330
371
330
372
330
373
330
374
330
375
330
376
330
377
330
378
330
379
330
37A
330
37B
330
37C
330
37D
330
37E
330
37F
330
380
330
381
330
382
330
383
330
384
330
385
330
386
330
387
330
388
330
389
330
38A
330
38B
330
38C
330
38D
330
38E
330
38F
330
390
330
391
330
392
330
393
330
394
330
395
330
396
330
397
330
398
330
399
330
39A
330
39B
330
39C
330
39D
330
39E
330
39F
330
3A0
330
3A1
330
3A2
330
3A3
330
3A4
330
3A5
330
3A6
330
3A7
330
3A8
330
3A9
330
3AA
330
3AB
330
3AC
330
3AD
330
3AE
330
3AF
330
3B0
330
3B1
330
3B2
330
3B3
330
3B4
330
3B5
330
3B6
330
3B7
330
3B8
330
3B9
330
3BA
330
3BB
330
3BC
330
3BD
330
3BE
330
3BF
330
3C0
330
3C1
330
3C2
330
3C3
330
3C4
330
3C5
330
3C6
330
3C7
330
3C8
330
3C9
330
3CA
330
3CB
330
3CC
330
3CD
330
3CE
330
3CF
330
3D0
330
3D1
330
3D2
330
3D3
330
3D4
330
3D5
330
3D6
330
3D7
330
3D8
330
3D9
330
3DA
330
3DB
330
3DC
330
3DD
330
3DE
330
3DF
330
3E0
330
3E1
330
3E2
330
3E3
330
3E4
330
3E5
 92
1
 93
40
 72
2
 10
17.8362019878
 20
2.3568004006
 40
0.0024749995
 50
179.9999571957
 51
270.0000428042
 73
1
 72
1
 10
17.8337269883
 20
2.3568004025
 11
17.8337269883
 21
2.3766004134
 72
2
 10
17.8362019878
 20
2.3766004153
 40
0.0024749995
 50
89.9999571958
 51
180.0000428043
 73
1
 72
1
 10
17.8362019897
 20
2.3790754148
 11
17.860125003
 21
2.3790754148
 72
2
 10
17.8601250048
 20
2.3815504143
 40
0.0024749995
 50
269.9999571956
 51
0.0000428042
 73
1
 72
1
 10
17.8626000043
 20
2.3815504162
 11
17.8626000043
 21
2.4279054419
 72
2
 10
17.8601250048
 20
2.4279054437
 40
0.0024749995
 50
359.9999571957
 51
90.0000428043
 73
1
 72
1
 10
17.860125003
 20
2.4303804433
 11
17.8362019897
 21
2.4303804433
 72
2
 10
17.8362019878
 20
2.4328554428
 40
0.0024749995
 50
179.9999571957
 51
270.0000428043
 73
1
 72
1
 10
17.8337269883
 20
2.4328554446
 11
17.8337269883
 21
2.4526554556
 72
2
 10
17.8362019878
 20
2.4526554575
 40
0.0024749995
 50
89.9999571958
 51
180.0000428043
 73
1
 72
1
 10
17.8362019897
 20
2.455130457
 11
18.0379951016
 21
2.455130457
 72
2
 10
18.0379951034
 20
2.4526554575
 40
0.0024749995
 50
359.9999571957
 51
90.0000428042
 73
1
 72
1
 10
18.040470103
 20
2.4526554556
 11
18.040470103
 21
2.4196554373
 72
2
 10
18.0379951034
 20
2.4196554355
 40
0.0024749995
 50
269.9999571956
 51
0.0000428042
 73
1
 72
1
 10
18.0379951016
 20
2.4171804359
 11
17.9961310784
 21
2.4171804359
 72
2
 10
17.9961310765
 20
2.4196554355
 40
0.0024749995
 50
179.9999571957
 51
270.0000428043
 73
1
 72
1
 10
17.993656077
 20
2.4196554373
 11
17.993656077
 21
2.4279054419
 72
2
 10
17.9911810775
 20
2.4279054437
 40
0.0024749995
 50
359.9999571957
 51
90.0000428043
 73
1
 72
1
 10
17.9911810756
 20
2.4303804433
 11
17.9271410401
 21
2.4303804433
 72
2
 10
17.9271410383
 20
2.4279054437
 40
0.0024749995
 50
89.9999571958
 51
180.0000428043
 73
1
 72
1
 10
17.9246660387
 20
2.4279054419
 11
17.9246660387
 21
2.4163554355
 72
2
 10
17.9271410383
 20
2.4163554336
 40
0.0024749995
 50
179.9999571957
 51
270.0000428042
 73
1
 72
1
 10
17.9271410401
 20
2.4138804341
 11
17.9623080596
 21
2.4138804341
 72
2
 10
17.9623080615
 20
2.4114054346
 40
0.0024749995
 50
359.9999571957
 51
90.0000428042
 73
1
 72
1
 10
17.964783061
 20
2.4114054327
 11
17.964783061
 21
2.3980504253
 72
2
 10
17.9623080615
 20
2.3980504235
 40
0.0024749995
 50
269.9999571956
 51
0.0000428042
 73
1
 72
1
 10
17.9623080596
 20
2.395575424
 11
17.9271410401
 21
2.395575424
 72
2
 10
17.9271410383
 20
2.3931004244
 40
0.0024749995
 50
89.9999571958
 51
180.0000428043
 73
1
 72
1
 10
17.9246660387
 20
2.3931004226
 11
17.9246660387
 21
2.3815504162
 72
2
 10
17.9271410383
 20
2.3815504143
 40
0.0024749995
 50
179.9999571957
 51
270.0000428043
 73
1
 72
1
 10
17.9271410401
 20
2.3790754148
 11
17.9921450762
 21
2.3790754148
 72
2
 10
17.992145078
 20
2.3815504143
 40
0.0024749995
 50
269.9999571958
 51
0.0000428043
 73
1
 72
1
 10
17.9946200775
 20
2.3815504162
 11
17.9946200775
 21
2.3898004208
 72
2
 10
17.9970950771
 20
2.3898004226
 40
0.0024749995
 50
89.9999571958
 51
180.0000428043
 73
1
 72
1
 10
17.9970950789
 20
2.3922754221
 11
18.0394141024
 21
2.3922754221
 72
2
 10
18.0394141042
 20
2.3898004226
 40
0.0024749995
 50
359.9999571957
 51
90.0000428043
 73
1
 72
1
 10
18.0418891038
 20
2.3898004208
 11
18.0418891038
 21
2.3568004025
 72
2
 10
18.0394141042
 20
2.3568004006
 40
0.0024749995
 50
269.9999571958
 51
0.0000428043
 73
1
 72
1
 10
18.0394141024
 20
2.3543254011
 11
17.8362019897
 21
2.3543254011
 97
267
330
2DB
330
2DC
330
2DD
330
2DE
330
2DF
330
2E0
330
2E1
330
2E2
330
2E3
330
2E4
330
2E5
330
2E6
330
2E7
330
2E8
330
2E9
330
2EA
330
2EB
330
2EC
330
2ED
330
2EE
330
2EF
330
2F0
330
2F1
330
2F2
330
2F3
330
2F4
330
2F5
330
2F6
330
2F7
330
2F8
330
2F9
330
2FA
330
2FB
330
2FC
330
2FD
330
2FE
330
2FF
330
300
330
301
330
302
330
303
330
304
330
305
330
306
330
307
330
308
330
309
330
30A
330
30B
330
30C
330
30D
330
30E
330
30F
330
310
330
311
330
312
330
313
330
314
330
315
330
316
330
317
330
318
330
319
330
31A
330
31B
330
31C
330
31D
330
31E
330
31F
330
320
330
321
330
322
330
323
330
324
330
325
330
326
330
327
330
328
330
329
330
32A
330
32B
330
32C
330
32D
330
32E
330
32F
330
330
330
331
330
332
330
333
330
334
330
335
330
336
330
337
330
338
330
339
330
33A
330
33B
330
33C
330
33D
330
33E
330
33F
330
340
330
341
330
342
330
343
330
344
330
345
330
346
330
347
330
348
330
349
330
34A
330
34B
330
34C
330
34D
330
34E
330
34F
330
350
330
351
330
352
330
353
330
354
330
355
330
356
330
357
330
358
330
359
330
35A
330
35B
330
35C
330
35D
330
35E
330
35F
330
360
330
361
330
362
330
363
330
364
330
365
330
366
330
367
330
368
330
369
330
36A
330
36B
330
36C
330
36D
330
36E
330
36F
330
370
330
371
330
372
330
373
330
374
330
375
330
376
330
377
330
378
330
379
330
37A
330
37B
330
37C
330
37D
330
37E
330
37F
330
380
330
381
330
382
330
383
330
384
330
385
330
386
330
387
330
388
330
389
330
38A
330
38B
330
38C
330
38D
330
38E
330
38F
330
390
330
391
330
392
330
393
330
394
330
395
330
396
330
397
330
398
330
399
330
39A
330
39B
330
39C
330
39D
330
39E
330
39F
330
3A0
330
3A1
330
3A2
330
3A3
330
3A4
330
3A5
330
3A6
330
3A7
330
3A8
330
3A9
330
3AA
330
3AB
330
3AC
330
3AD
330
3AE
330
3AF
330
3B0
330
3B1
330
3B2
330
3B3
330
3B4
330
3B5
330
3B6
330
3B7
330
3B8
330
3B9
330
3BA
330
3BB
330
3BC
330
3BD
330
3BE
330
3BF
330
3C0
330
3C1
330
3C2
330
3C3
330
3C4
330
3C5
330
3C6
330
3C7
330
3C8
330
3C9
330
3CA
330
3CB
330
3CC
330
3CD
330
3CE
330
3CF
330
3D0
330
3D1
330
3D2
330
3D3
330
3D4
330
3D5
330
3D6
330
3D7
330
3D8
330
3D9
330
3DA
330
3DB
330
3DC
330
3DD
330
3DE
330
3DF
330
3E0
330
3E1
330
3E2
330
3E3
330
3E4
330
3E5
 92
1
 93
40
 72
2
 10
17.7115227858
 20
2.3567995689
 40
0.0024741678
 50
226.3477981898
 51
270.0031206038
 73
1
 72
1
 10
17.7098149196
 20
2.3550094015
 11
17.6465348845
 21
2.415387435
 72
2
 10
17.6448261836
 20
2.4135964972
 40
0.0024753014
 50
46.3461263058
 51
180.0014637321
 73
1
 72
1
 10
17.6423508822
 20
2.413596434
 11
17.6423508822
 21
2.3815504162
 72
2
 10
17.6448258817
 20
2.3815504143
 40
0.0024749995
 50
179.9999571957
 51
270.0000428043
 73
1
 72
1
 10
17.6448258836
 20
2.3790754148
 11
17.6651428948
 21
2.3790754148
 72
2
 10
17.6651428967
 20
2.3766004153
 40
0.0024749995
 50
359.9999571957
 51
90.0000428043
 73
1
 72
1
 10
17.6676178962
 20
2.3766004134
 11
17.6676178962
 21
2.3568004025
 72
2
 10
17.6651428967
 20
2.3568004006
 40
0.0024749995
 50
269.9999571958
 51
0.0000428043
 73
1
 72
1
 10
17.6651428948
 20
2.3543254011
 11
17.5894788529
 21
2.3543254011
 72
2
 10
17.589478851
 20
2.3568004006
 40
0.0024749995
 50
179.9999571957
 51
270.0000428042
 73
1
 72
1
 10
17.5870038515
 20
2.3568004025
 11
17.5870038515
 21
2.3766004134
 72
2
 10
17.589478851
 20
2.3766004153
 40
0.0024749995
 50
89.9999571957
 51
180.0000428043
 73
1
 72
1
 10
17.5894788529
 20
2.3790754148
 11
17.6081248632
 21
2.3790754148
 72
2
 10
17.6081248651
 20
2.3815504143
 40
0.0024749995
 50
269.9999571957
 51
0.0000428043
 73
1
 72
1
 10
17.6105998646
 20
2.3815504162
 11
17.6105998646
 21
2.4279054419
 72
2
 10
17.6081248651
 20
2.4279054437
 40
0.0024749995
 50
359.9999571957
 51
90.0000428043
 73
1
 72
1
 10
17.6081248632
 20
2.4303804433
 11
17.5894788529
 21
2.4303804433
 72
2
 10
17.589478851
 20
2.4328554428
 40
0.0024749995
 50
179.9999571957
 51
270.0000428043
 73
1
 72
1
 10
17.5870038515
 20
2.4328554446
 11
17.5870038515
 21
2.4526554556
 72
2
 10
17.589478851
 20
2.4526554575
 40
0.0024749995
 50
89.9999571957
 51
180.0000428043
 73
1
 72
1
 10
17.5894788529
 20
2.455130457
 11
17.6899369086
 21
2.455130457
 72
2
 10
17.6899370433
 20
2.4526562892
 40
0.0024741678
 50
46.3477981899
 51
90.0031206038
 73
1
 72
1
 10
17.6916449095
 20
2.4544464566
 11
17.7516779428
 21
2.3971664249
 72
2
 10
17.7533866437
 20
2.3989573626
 40
0.0024753014
 50
226.3461263059
 51
0.0014637321
 73
1
 72
1
 10
17.7558619451
 20
2.3989574258
 11
17.7558619451
 21
2.4279054419
 72
2
 10
17.7533869456
 20
2.4279054437
 40
0.0024749995
 50
359.9999571957
 51
90.0000428043
 73
1
 72
1
 10
17.7533869438
 20
2.4303804433
 11
17.7346109333
 21
2.4303804433
 72
2
 10
17.7346109315
 20
2.4328554428
 40
0.0024749995
 50
179.9999571957
 51
270.0000428043
 73
1
 72
1
 10
17.732135932
 20
2.4328554446
 11
17.732135932
 21
2.4526554556
 72
2
 10
17.7346109315
 20
2.4526554575
 40
0.0024749995
 50
89.9999571958
 51
180.0000428043
 73
1
 72
1
 10
17.7346109333
 20
2.455130457
 11
17.8086119744
 21
2.455130457
 72
2
 10
17.8086119762
 20
2.4526554575
 40
0.0024749995
 50
359.9999571957
 51
90.0000428043
 73
1
 72
1
 10
17.8110869758
 20
2.4526554556
 11
17.8110869758
 21
2.4328554446
 72
2
 10
17.8086119762
 20
2.4328554428
 40
0.0024749995
 50
269.9999571956
 51
0.0000428042
 73
1
 72
1
 10
17.8086119744
 20
2.4303804433
 11
17.7906789644
 21
2.4303804433
 72
2
 10
17.7906789626
 20
2.4279054437
 40
0.0024749995
 50
89.9999571957
 51
180.0000428043
 73
1
 72
1
 10
17.7882039631
 20
2.4279054419
 11
17.7882039631
 21
2.3568004025
 72
2
 10
17.7857289635
 20
2.3568004006
 40
0.0024749995
 50
269.9999571957
 51
0.0000428043
 73
1
 72
1
 10
17.7857289617
 20
2.3543254011
 11
17.7115229205
 21
2.3543254011
 97
267
330
2DB
330
2DC
330
2DD
330
2DE
330
2DF
330
2E0
330
2E1
330
2E2
330
2E3
330
2E4
330
2E5
330
2E6
330
2E7
330
2E8
330
2E9
330
2EA
330
2EB
330
2EC
330
2ED
330
2EE
330
2EF
330
2F0
330
2F1
330
2F2
330
2F3
330
2F4
330
2F5
330
2F6
330
2F7
330
2F8
330
2F9
330
2FA
330
2FB
330
2FC
330
2FD
330
2FE
330
2FF
330
300
330
301
330
302
330
303
330
304
330
305
330
306
330
307
330
308
330
309
330
30A
330
30B
330
30C
330
30D
330
30E
330
30F
330
310
330
311
330
312
330
313
330
314
330
315
330
316
330
317
330
318
330
319
330
31A
330
31B
330
31C
330
31D
330
31E
330
31F
330
320
330
321
330
322
330
323
330
324
330
325
330
326
330
327
330
328
330
329
330
32A
330
32B
330
32C
330
32D
330
32E
330
32F
330
330
330
331
330
332
330
333
330
334
330
335
330
336
330
337
330
338
330
339
330
33A
330
33B
330
33C
330
33D
330
33E
330
33F
330
340
330
341
330
342
330
343
330
344
330
345
330
346
330
347
330
348
330
349
330
34A
330
34B
330
34C
330
34D
330
34E
330
34F
330
350
330
351
330
352
330
353
330
354
330
355
330
356
330
357
330
358
330
359
330
35A
330
35B
330
35C
330
35D
330
35E
330
35F
330
360
330
361
330
362
330
363
330
364
330
365
330
366
330
367
330
368
330
369
330
36A
330
36B
330
36C
330
36D
330
36E
330
36F
330
370
330
371
330
372
330
373
330
374
330
375
330
376
330
377
330
378
330
379
330
37A
330
37B
330
37C
330
37D
330
37E
330
37F
330
380
330
381
330
382
330
383
330
384
330
385
330
386
330
387
330
388
330
389
330
38A
330
38B
330
38C
330
38D
330
38E
330
38F
330
390
330
391
330
392
330
393
330
394
330
395
330
396
330
397
330
398
330
399
330
39A
330
39B
330
39C
330
39D
330
39E
330
39F
330
3A0
330
3A1
330
3A2
330
3A3
330
3A4
330
3A5
330
3A6
330
3A7
330
3A8
330
3A9
330
3AA
330
3AB
330
3AC
330
3AD
330
3AE
330
3AF
330
3B0
330
3B1
330
3B2
330
3B3
330
3B4
330
3B5
330
3B6
330
3B7
330
3B8
330
3B9
330
3BA
330
3BB
330
3BC
330
3BD
330
3BE
330
3BF
330
3C0
330
3C1
330
3C2
330
3C3
330
3C4
330
3C5
330
3C6
330
3C7
330
3C8
330
3C9
330
3CA
330
3CB
330
3CC
330
3CD
330
3CE
330
3CF
330
3D0
330
3D1
330
3D2
330
3D3
330
3D4
330
3D5
330
3D6
330
3D7
330
3D8
330
3D9
330
3DA
330
3DB
330
3DC
330
3DD
330
3DE
330
3DF
330
3E0
330
3E1
330
3E2
330
3E3
330
3E4
330
3E5
 92
1
 93
40
 72
2
 10
17.4632701481
 20
2.3568008172
 40
0.0024754162
 50
226.3593695814
 51
270.0146919954
 73
1
 72
1
 10
17.4615617819
 20
2.3550094015
 11
17.3982817468
 21
2.415387435
 72
2
 10
17.3965730459
 20
2.4135964972
 40
0.0024753014
 50
46.3461263058
 51
180.0014637321
 73
1
 72
1
 10
17.3940977445
 20
2.413596434
 11
17.3940977445
 21
2.3815504162
 72
2
 10
17.396572744
 20
2.3815504143
 40
0.0024749995
 50
179.9999571957
 51
270.0000428043
 73
1
 72
1
 10
17.3965727459
 20
2.3790754148
 11
17.4168897572
 21
2.3790754148
 72
2
 10
17.416889759
 20
2.3766004153
 40
0.0024749995
 50
359.9999571957
 51
90.0000428043
 73
1
 72
1
 10
17.4193647585
 20
2.3766004134
 11
17.4193647585
 21
2.3568004025
 72
2
 10
17.416889759
 20
2.3568004006
 40
0.0024749995
 50
269.9999571957
 51
0.0000428043
 73
1
 72
1
 10
17.4168897572
 20
2.3543254011
 11
17.3412257152
 21
2.3543254011
 72
2
 10
17.3412257133
 20
2.3568004006
 40
0.0024749995
 50
179.9999571957
 51
270.0000428043
 73
1
 72
1
 10
17.3387507138
 20
2.3568004025
 11
17.3387507138
 21
2.3766004134
 72
2
 10
17.3412257133
 20
2.3766004153
 40
0.0024749995
 50
89.9999571957
 51
180.0000428043
 73
1
 72
1
 10
17.3412257152
 20
2.3790754148
 11
17.3598727255
 21
2.3790754148
 72
2
 10
17.3598727274
 20
2.3815504143
 40
0.0024749995
 50
269.9999571957
 51
0.0000428043
 73
1
 72
1
 10
17.3623477269
 20
2.3815504162
 11
17.3623477269
 21
2.4279054419
 72
2
 10
17.3598727274
 20
2.4279054437
 40
0.0024749995
 50
359.9999571957
 51
90.0000428044
 73
1
 72
1
 10
17.3598727255
 20
2.4303804433
 11
17.3412257152
 21
2.4303804433
 72
2
 10
17.3412257133
 20
2.4328554428
 40
0.0024749995
 50
179.9999571957
 51
270.0000428043
 73
1
 72
1
 10
17.3387507138
 20
2.4328554446
 11
17.3387507138
 21
2.4526554556
 72
2
 10
17.3412257133
 20
2.4526554575
 40
0.0024749995
 50
89.9999571957
 51
180.0000428043
 73
1
 72
1
 10
17.3412257152
 20
2.455130457
 11
17.4416837709
 21
2.455130457
 72
2
 10
17.4416839057
 20
2.4526562892
 40
0.0024741678
 50
46.3477981899
 51
90.0031206038
 73
1
 72
1
 10
17.4433917718
 20
2.4544464566
 11
17.5034248051
 21
2.3971664249
 72
2
 10
17.5051335061
 20
2.3989573626
 40
0.0024753014
 50
226.3461263059
 51
0.0014637321
 73
1
 72
1
 10
17.5076088075
 20
2.3989574258
 11
17.5076088075
 21
2.4279054419
 72
2
 10
17.5051338079
 20
2.4279054437
 40
0.0024749995
 50
359.9999571957
 51
90.0000428043
 73
1
 72
1
 10
17.5051338061
 20
2.4303804433
 11
17.4863577957
 21
2.4303804433
 72
2
 10
17.4863577938
 20
2.4328554428
 40
0.0024749995
 50
179.9999571957
 51
270.0000428043
 73
1
 72
1
 10
17.4838827943
 20
2.4328554446
 11
17.4838827943
 21
2.4526554556
 72
2
 10
17.4863577938
 20
2.4526554575
 40
0.0024749995
 50
89.9999571957
 51
180.0000428043
 73
1
 72
1
 10
17.4863577957
 20
2.455130457
 11
17.5603588367
 21
2.455130457
 72
2
 10
17.5603588386
 20
2.4526554575
 40
0.0024749995
 50
359.9999571957
 51
90.0000428042
 73
1
 72
1
 10
17.5628338381
 20
2.4526554556
 11
17.5628338381
 21
2.4328554446
 72
2
 10
17.5603588386
 20
2.4328554428
 40
0.0024749995
 50
269.9999571958
 51
0.0000428043
 73
1
 72
1
 10
17.5603588367
 20
2.4303804433
 11
17.5424258268
 21
2.4303804433
 72
2
 10
17.5424258249
 20
2.4279054437
 40
0.0024749995
 50
89.9999571958
 51
180.0000428043
 73
1
 72
1
 10
17.5399508254
 20
2.4279054419
 11
17.5399508254
 21
2.3568004025
 72
2
 10
17.5374758259
 20
2.3568004006
 40
0.0024749995
 50
269.9999571958
 51
0.0000428043
 73
1
 72
1
 10
17.537475824
 20
2.3543254011
 11
17.4632707829
 21
2.3543254011
 97
267
330
2DB
330
2DC
330
2DD
330
2DE
330
2DF
330
2E0
330
2E1
330
2E2
330
2E3
330
2E4
330
2E5
330
2E6
330
2E7
330
2E8
330
2E9
330
2EA
330
2EB
330
2EC
330
2ED
330
2EE
330
2EF
330
2F0
330
2F1
330
2F2
330
2F3
330
2F4
330
2F5
330
2F6
330
2F7
330
2F8
330
2F9
330
2FA
330
2FB
330
2FC
330
2FD
330
2FE
330
2FF
330
300
330
301
330
302
330
303
330
304
330
305
330
306
330
307
330
308
330
309
330
30A
330
30B
330
30C
330
30D
330
30E
330
30F
330
310
330
311
330
312
330
313
330
314
330
315
330
316
330
317
330
318
330
319
330
31A
330
31B
330
31C
330
31D
330
31E
330
31F
330
320
330
321
330
322
330
323
330
324
330
325
330
326
330
327
330
328
330
329
330
32A
330
32B
330
32C
330
32D
330
32E
330
32F
330
330
330
331
330
332
330
333
330
334
330
335
330
336
330
337
330
338
330
339
330
33A
330
33B
330
33C
330
33D
330
33E
330
33F
330
340
330
341
330
342
330
343
330
344
330
345
330
346
330
347
330
348
330
349
330
34A
330
34B
330
34C
330
34D
330
34E
330
34F
330
350
330
351
330
352
330
353
330
354
330
355
330
356
330
357
330
358
330
359
330
35A
330
35B
330
35C
330
35D
330
35E
330
35F
330
360
330
361
330
362
330
363
330
364
330
365
330
366
330
367
330
368
330
369
330
36A
330
36B
330
36C
330
36D
330
36E
330
36F
330
370
330
371
330
372
330
373
330
374
330
375
330
376
330
377
330
378
330
379
330
37A
330
37B
330
37C
330
37D
330
37E
330
37F
330
380
330
381
330
382
330
383
330
384
330
385
330
386
330
387
330
388
330
389
330
38A
330
38B
330
38C
330
38D
330
38E
330
38F
330
390
330
391
330
392
330
393
330
394
330
395
330
396
330
397
330
398
330
399
330
39A
330
39B
330
39C
330
39D
330
39E
330
39F
330
3A0
330
3A1
330
3A2
330
3A3
330
3A4
330
3A5
330
3A6
330
3A7
330
3A8
330
3A9
330
3AA
330
3AB
330
3AC
330
3AD
330
3AE
330
3AF
330
3B0
330
3B1
330
3B2
330
3B3
330
3B4
330
3B5
330
3B6
330
3B7
330
3B8
330
3B9
330
3BA
330
3BB
330
3BC
330
3BD
330
3BE
330
3BF
330
3C0
330
3C1
330
3C2
330
3C3
330
3C4
330
3C5
330
3C6
330
3C7
330
3C8
330
3C9
330
3CA
330
3CB
330
3CC
330
3CD
330
3CE
330
3CF
330
3D0
330
3D1
330
3D2
330
3D3
330
3D4
330
3D5
330
3D6
330
3D7
330
3D8
330
3D9
330
3DA
330
3DB
330
3DC
330
3DD
330
3DE
330
3DF
330
3E0
330
3E1
330
3E2
330
3E3
330
3E4
330
3E5
 92
1
 93
23
 72
2
 10
17.0481152095
 20
2.4027328529
 40
0.048483885
 50
273.21763719
 51
303.0749121182
 73
1
 72
2
 10
17.0629546036
 20
2.379965244
 40
0.0213072145
 50
303.0488228549
 51
355.7263138674
 73
1
 72
2
 10
17.0688911042
 20
2.3799744343
 40
0.0153945295
 50
354.0454548824
 51
5.1878013979
 73
1
 72
2
 10
17.0620614151
 20
2.3797859164
 40
0.0222174455
 50
4.0793399388
 51
69.834329283
 73
1
 72
1
 10
17.0697205646
 20
2.4006414268
 11
17.059669559
 21
2.4041904287
 72
1
 10
17.059669559
 20
2.4041904287
 11
17.0679095636
 21
2.4089664314
 72
2
 10
17.0460441811
 20
2.445793323
 40
0.0428289026
 50
300.6990502959
 51
319.0591802498
 73
1
 72
2
 10
17.0660727781
 20
2.4296649696
 40
0.0171568255
 50
315.9145124245
 51
16.0049121283
 73
1
 72
2
 10
17.0611211659
 20
2.4263113051
 40
0.0229166529
 50
20.6563876465
 51
62.3316896973
 73
1
 72
2
 10
17.0404590422
 20
2.3933827403
 40
0.061747717
 50
59.5385584989
 51
90.0050977555
 73
1
 72
1
 10
17.0404535484
 20
2.455130457
 11
16.8743904563
 21
2.455130457
 72
2
 10
16.8743904545
 20
2.4526554575
 40
0.0024749995
 50
89.9999571958
 51
180.0000428043
 73
1
 72
1
 10
16.8719154549
 20
2.4526554556
 11
16.8719154549
 21
2.4328554446
 72
2
 10
16.8743904545
 20
2.4328554428
 40
0.0024749995
 50
179.9999571957
 51
270.0000428043
 73
1
 72
1
 10
16.8743904563
 20
2.4303804433
 11
16.8983324696
 21
2.4303804433
 72
2
 10
16.8983324714
 20
2.4279054437
 40
0.0024749995
 50
359.9999571957
 51
90.0000428043
 73
1
 72
1
 10
16.9008074709
 20
2.4279054419
 11
16.9008074709
 21
2.3815504162
 72
2
 10
16.8983324714
 20
2.3815504143
 40
0.0024749995
 50
269.9999571958
 51
0.0000428043
 73
1
 72
1
 10
16.8983324696
 20
2.3790754148
 11
16.8743904563
 21
2.3790754148
 72
2
 10
16.8743904545
 20
2.3766004153
 40
0.0024749995
 50
89.9999571958
 51
180.0000428043
 73
1
 72
1
 10
16.8719154549
 20
2.3766004134
 11
16.8719154549
 21
2.3568004025
 72
2
 10
16.8743904545
 20
2.3568004006
 40
0.0024749995
 50
179.9999571957
 51
270.0000428042
 73
1
 72
1
 10
16.8743904563
 20
2.3543254011
 11
17.0508365542
 21
2.3543254011
 97
267
330
2DB
330
2DC
330
2DD
330
2DE
330
2DF
330
2E0
330
2E1
330
2E2
330
2E3
330
2E4
330
2E5
330
2E6
330
2E7
330
2E8
330
2E9
330
2EA
330
2EB
330
2EC
330
2ED
330
2EE
330
2EF
330
2F0
330
2F1
330
2F2
330
2F3
330
2F4
330
2F5
330
2F6
330
2F7
330
2F8
330
2F9
330
2FA
330
2FB
330
2FC
330
2FD
330
2FE
330
2FF
330
300
330
301
330
302
330
303
330
304
330
305
330
306
330
307
330
308
330
309
330
30A
330
30B
330
30C
330
30D
330
30E
330
30F
330
310
330
311
330
312
330
313
330
314
330
315
330
316
330
317
330
318
330
319
330
31A
330
31B
330
31C
330
31D
330
31E
330
31F
330
320
330
321
330
322
330
323
330
324
330
325
330
326
330
327
330
328
330
329
330
32A
330
32B
330
32C
330
32D
330
32E
330
32F
330
330
330
331
330
332
330
333
330
334
330
335
330
336
330
337
330
338
330
339
330
33A
330
33B
330
33C
330
33D
330
33E
330
33F
330
340
330
341
330
342
330
343
330
344
330
345
330
346
330
347
330
348
330
349
330
34A
330
34B
330
34C
330
34D
330
34E
330
34F
330
350
330
351
330
352
330
353
330
354
330
355
330
356
330
357
330
358
330
359
330
35A
330
35B
330
35C
330
35D
330
35E
330
35F
330
360
330
361
330
362
330
363
330
364
330
365
330
366
330
367
330
368
330
369
330
36A
330
36B
330
36C
330
36D
330
36E
330
36F
330
370
330
371
330
372
330
373
330
374
330
375
330
376
330
377
330
378
330
379
330
37A
330
37B
330
37C
330
37D
330
37E
330
37F
330
380
330
381
330
382
330
383
330
384
330
385
330
386
330
387
330
388
330
389
330
38A
330
38B
330
38C
330
38D
330
38E
330
38F
330
390
330
391
330
392
330
393
330
394
330
395
330
396
330
397
330
398
330
399
330
39A
330
39B
330
39C
330
39D
330
39E
330
39F
330
3A0
330
3A1
330
3A2
330
3A3
330
3A4
330
3A5
330
3A6
330
3A7
330
3A8
330
3A9
330
3AA
330
3AB
330
3AC
330
3AD
330
3AE
330
3AF
330
3B0
330
3B1
330
3B2
330
3B3
330
3B4
330
3B5
330
3B6
330
3B7
330
3B8
330
3B9
330
3BA
330
3BB
330
3BC
330
3BD
330
3BE
330
3BF
330
3C0
330
3C1
330
3C2
330
3C3
330
3C4
330
3C5
330
3C6
330
3C7
330
3C8
330
3C9
330
3CA
330
3CB
330
3CC
330
3CD
330
3CE
330
3CF
330
3D0
330
3D1
330
3D2
330
3D3
330
3D4
330
3D5
330
3D6
330
3D7
330
3D8
330
3D9
330
3DA
330
3DB
330
3DC
330
3DD
330
3DE
330
3DF
330
3E0
330
3E1
330
3E2
330
3E3
330
3E4
330
3E5
 92
1
 93
32
 72
2
 10
17.1857496308
 20
2.3568004006
 40
0.0024749995
 50
269.9999571958
 51
0.0000428044
 73
1
 72
1
 10
17.1882246303
 20
2.3568004025
 11
17.1882246303
 21
2.3766004134
 72
2
 10
17.1857496308
 20
2.3766004153
 40
0.0024749995
 50
359.9999571957
 51
90.0000428043
 73
1
 72
1
 10
17.185749629
 20
2.3790754148
 11
17.1744666227
 21
2.3790754148
 72
2
 10
17.1744665134
 20
2.3815504549
 40
0.0024750401
 50
147.6063258011
 51
270.0025305754
 73
1
 72
1
 10
17.1723766216
 20
2.3828764169
 11
17.1778926246
 21
2.3915704217
 72
2
 10
17.1799825555
 20
2.3902442221
 40
0.0024752003
 50
89.998372645
 51
147.602165307
 73
1
 72
1
 10
17.1799826258
 20
2.3927194224
 11
17.2148606451
 21
2.3927194224
 72
2
 10
17.2148601055
 20
2.3902439622
 40
0.0024754602
 50
32.8959418574
 51
89.9875097202
 73
1
 72
1
 10
17.2169386463
 20
2.3915884218
 11
17.2225646494
 21
2.3828954169
 72
2
 10
17.2204866271
 20
2.3815506219
 40
0.0024752071
 50
270.0004896793
 51
32.9089806818
 73
1
 72
1
 10
17.2204866482
 20
2.3790754148
 11
17.2060356402
 21
2.3790754148
 72
2
 10
17.2060356384
 20
2.3766004153
 40
0.0024749995
 50
89.9999571958
 51
180.0000428043
 73
1
 72
1
 10
17.2035606388
 20
2.3766004134
 11
17.2035606388
 21
2.3568004025
 72
2
 10
17.2060356384
 20
2.3568004006
 40
0.0024749995
 50
179.9999571957
 51
270.0000428042
 73
1
 72
1
 10
17.2060356402
 20
2.3543254011
 11
17.3113166986
 21
2.3543254011
 72
2
 10
17.3113167005
 20
2.3568004006
 40
0.0024749995
 50
269.9999571957
 51
0.0000428043
 73
1
 72
1
 10
17.3137917
 20
2.3568004025
 11
17.3137917
 21
2.3766004134
 72
2
 10
17.3113167005
 20
2.3766004153
 40
0.0024749995
 50
359.9999571957
 51
90.0000428043
 73
1
 72
1
 10
17.3113166986
 20
2.3790754148
 11
17.2913006875
 21
2.3790754148
 72
2
 10
17.291300808
 20
2.3815494558
 40
0.002474041
 50
212.9056413127
 51
269.9972091756
 73
1
 72
1
 10
17.2892236864
 20
2.3802054154
 11
17.2414676599
 21
2.4540004564
 72
2
 10
17.2393900382
 20
2.4526554968
 40
0.0024749602
 50
32.9172174468
 51
90.0087853096
 73
1
 72
1
 10
17.2393896587
 20
2.455130457
 11
17.182214627
 21
2.455130457
 72
2
 10
17.1822145567
 20
2.4526552567
 40
0.0024752003
 50
89.998372645
 51
147.602165307
 73
1
 72
1
 10
17.1801246258
 20
2.4539814564
 11
17.1333245999
 21
2.3802244155
 72
2
 10
17.131234669
 20
2.3815506151
 40
0.0024752003
 50
269.998372645
 51
327.602165307
 73
1
 72
1
 10
17.1312345987
 20
2.3790754148
 11
17.1083735861
 21
2.3790754148
 72
2
 10
17.1083735842
 20
2.3766004153
 40
0.0024749995
 50
89.9999571957
 51
180.0000428043
 73
1
 72
1
 10
17.1058985847
 20
2.3766004134
 11
17.1058985847
 21
2.3568004025
 72
2
 10
17.1083735842
 20
2.3568004006
 40
0.0024749995
 50
179.9999571957
 51
270.0000428043
 73
1
 72
1
 10
17.1083735861
 20
2.3543254011
 11
17.185749629
 21
2.3543254011
 97
267
330
2DB
330
2DC
330
2DD
330
2DE
330
2DF
330
2E0
330
2E1
330
2E2
330
2E3
330
2E4
330
2E5
330
2E6
330
2E7
330
2E8
330
2E9
330
2EA
330
2EB
330
2EC
330
2ED
330
2EE
330
2EF
330
2F0
330
2F1
330
2F2
330
2F3
330
2F4
330
2F5
330
2F6
330
2F7
330
2F8
330
2F9
330
2FA
330
2FB
330
2FC
330
2FD
330
2FE
330
2FF
330
300
330
301
330
302
330
303
330
304
330
305
330
306
330
307
330
308
330
309
330
30A
330
30B
330
30C
330
30D
330
30E
330
30F
330
310
330
311
330
312
330
313
330
314
330
315
330
316
330
317
330
318
330
319
330
31A
330
31B
330
31C
330
31D
330
31E
330
31F
330
320
330
321
330
322
330
323
330
324
330
325
330
326
330
327
330
328
330
329
330
32A
330
32B
330
32C
330
32D
330
32E
330
32F
330
330
330
331
330
332
330
333
330
334
330
335
330
336
330
337
330
338
330
339
330
33A
330
33B
330
33C
330
33D
330
33E
330
33F
330
340
330
341
330
342
330
343
330
344
330
345
330
346
330
347
330
348
330
349
330
34A
330
34B
330
34C
330
34D
330
34E
330
34F
330
350
330
351
330
352
330
353
330
354
330
355
330
356
330
357
330
358
330
359
330
35A
330
35B
330
35C
330
35D
330
35E
330
35F
330
360
330
361
330
362
330
363
330
364
330
365
330
366
330
367
330
368
330
369
330
36A
330
36B
330
36C
330
36D
330
36E
330
36F
330
370
330
371
330
372
330
373
330
374
330
375
330
376
330
377
330
378
330
379
330
37A
330
37B
330
37C
330
37D
330
37E
330
37F
330
380
330
381
330
382
330
383
330
384
330
385
330
386
330
387
330
388
330
389
330
38A
330
38B
330
38C
330
38D
330
38E
330
38F
330
390
330
391
330
392
330
393
330
394
330
395
330
396
330
397
330
398
330
399
330
39A
330
39B
330
39C
330
39D
330
39E
330
39F
330
3A0
330
3A1
330
3A2
330
3A3
330
3A4
330
3A5
330
3A6
330
3A7
330
3A8
330
3A9
330
3AA
330
3AB
330
3AC
330
3AD
330
3AE
330
3AF
330
3B0
330
3B1
330
3B2
330
3B3
330
3B4
330
3B5
330
3B6
330
3B7
330
3B8
330
3B9
330
3BA
330
3BB
330
3BC
330
3BD
330
3BE
330
3BF
330
3C0
330
3C1
330
3C2
330
3C3
330
3C4
330
3C5
330
3C6
330
3C7
330
3C8
330
3C9
330
3CA
330
3CB
330
3CC
330
3CD
330
3CE
330
3CF
330
3D0
330
3D1
330
3D2
330
3D3
330
3D4
330
3D5
330
3D6
330
3D7
330
3D8
330
3D9
330
3DA
330
3DB
330
3DC
330
3DD
330
3DE
330
3DF
330
3E0
330
3E1
330
3E2
330
3E3
330
3E4
330
3E5
 92
1
 93
6
 72
2
 10
16.963795504
 20
2.3815504143
 40
0.0024749995
 50
179.9999571957
 51
270.0000428043
 73
1
 72
1
 10
16.9613205045
 20
2.3815504162
 11
16.9613205045
 21
2.3939254231
 72
2
 10
16.963795504
 20
2.3939254249
 40
0.0024749995
 50
89.9999571957
 51
180.0000428043
 73
1
 72
1
 10
16.9637955059
 20
2.3964004244
 11
17.0051585288
 21
2.3964004244
 72
2
 10
17.0051585288
 20
2.3877379196
 40
0.0086625048
 50
270.0
 51
90.0
 73
1
 72
1
 10
17.0051585288
 20
2.3790754148
 11
16.9637955059
 21
2.3790754148
 97
267
330
2DB
330
2DC
330
2DD
330
2DE
330
2DF
330
2E0
330
2E1
330
2E2
330
2E3
330
2E4
330
2E5
330
2E6
330
2E7
330
2E8
330
2E9
330
2EA
330
2EB
330
2EC
330
2ED
330
2EE
330
2EF
330
2F0
330
2F1
330
2F2
330
2F3
330
2F4
330
2F5
330
2F6
330
2F7
330
2F8
330
2F9
330
2FA
330
2FB
330
2FC
330
2FD
330
2FE
330
2FF
330
300
330
301
330
302
330
303
330
304
330
305
330
306
330
307
330
308
330
309
330
30A
330
30B
330
30C
330
30D
330
30E
330
30F
330
310
330
311
330
312
330
313
330
314
330
315
330
316
330
317
330
318
330
319
330
31A
330
31B
330
31C
330
31D
330
31E
330
31F
330
320
330
321
330
322
330
323
330
324
330
325
330
326
330
327
330
328
330
329
330
32A
330
32B
330
32C
330
32D
330
32E
330
32F
330
330
330
331
330
332
330
333
330
334
330
335
330
336
330
337
330
338
330
339
330
33A
330
33B
330
33C
330
33D
330
33E
330
33F
330
340
330
341
330
342
330
343
330
344
330
345
330
346
330
347
330
348
330
349
330
34A
330
34B
330
34C
330
34D
330
34E
330
34F
330
350
330
351
330
352
330
353
330
354
330
355
330
356
330
357
330
358
330
359
330
35A
330
35B
330
35C
330
35D
330
35E
330
35F
330
360
330
361
330
362
330
363
330
364
330
365
330
366
330
367
330
368
330
369
330
36A
330
36B
330
36C
330
36D
330
36E
330
36F
330
370
330
371
330
372
330
373
330
374
330
375
330
376
330
377
330
378
330
379
330
37A
330
37B
330
37C
330
37D
330
37E
330
37F
330
380
330
381
330
382
330
383
330
384
330
385
330
386
330
387
330
388
330
389
330
38A
330
38B
330
38C
330
38D
330
38E
330
38F
330
390
330
391
330
392
330
393
330
394
330
395
330
396
330
397
330
398
330
399
330
39A
330
39B
330
39C
330
39D
330
39E
330
39F
330
3A0
330
3A1
330
3A2
330
3A3
330
3A4
330
3A5
330
3A6
330
3A7
330
3A8
330
3A9
330
3AA
330
3AB
330
3AC
330
3AD
330
3AE
330
3AF
330
3B0
330
3B1
330
3B2
330
3B3
330
3B4
330
3B5
330
3B6
330
3B7
330
3B8
330
3B9
330
3BA
330
3BB
330
3BC
330
3BD
330
3BE
330
3BF
330
3C0
330
3C1
330
3C2
330
3C3
330
3C4
330
3C5
330
3C6
330
3C7
330
3C8
330
3C9
330
3CA
330
3CB
330
3CC
330
3CD
330
3CE
330
3CF
330
3D0
330
3D1
330
3D2
330
3D3
330
3D4
330
3D5
330
3D6
330
3D7
330
3D8
330
3D9
330
3DA
330
3DB
330
3DC
330
3DD
330
3DE
330
3DF
330
3E0
330
3E1
330
3E2
330
3E3
330
3E4
330
3E5
 92
1
 93
13
 72
2
 10
18.1572301659
 20
2.415180433
 40
0.0024749995
 50
179.9999571957
 51
270.0000428043
 73
1
 72
1
 10
18.1547551663
 20
2.4151804348
 11
18.1547551663
 21
2.4279054419
 72
2
 10
18.1572301659
 20
2.4279054437
 40
0.0024749995
 50
89.9999571957
 51
180.0000428043
 73
1
 72
1
 10
18.1572301677
 20
2.4303804433
 11
18.1940311881
 21
2.4303804433
 72
2
 10
18.1924863006
 20
2.4019259643
 40
0.0284963867
 50
70.3834917948
 51
86.8922743861
 73
1
 72
2
 10
18.1973459106
 20
2.4149676972
 40
0.0145814632
 50
54.6746025112
 51
71.1660573124
 73
1
 72
2
 10
18.2024754016
 20
2.4218216224
 40
0.0060275915
 50
20.9055592135
 51
56.7851676243
 73
1
 72
2
 10
18.2037759605
 20
2.4224819047
 40
0.0045795888
 50
355.6235353944
 51
18.9942678268
 73
1
 72
2
 10
18.2025691502
 20
2.4227756809
 40
0.0058087709
 50
318.8515287446
 51
353.6422345323
 73
1
 72
2
 10
18.198398534
 20
2.4260095887
 40
0.0110815393
 50
306.758405961
 51
320.4502234234
 73
1
 72
2
 10
18.1927693431
 20
2.4337504172
 40
0.0206523367
 50
289.6883413472
 51
306.4184925496
 73
1
 72
2
 10
18.1908418374
 20
2.4381440645
 40
0.0254407115
 50
270.7327484175
 51
290.441894219
 73
1
 72
1
 10
18.1911671865
 20
2.4127054335
 11
18.1572301677
 21
2.4127054335
 97
267
330
2DB
330
2DC
330
2DD
330
2DE
330
2DF
330
2E0
330
2E1
330
2E2
330
2E3
330
2E4
330
2E5
330
2E6
330
2E7
330
2E8
330
2E9
330
2EA
330
2EB
330
2EC
330
2ED
330
2EE
330
2EF
330
2F0
330
2F1
330
2F2
330
2F3
330
2F4
330
2F5
330
2F6
330
2F7
330
2F8
330
2F9
330
2FA
330
2FB
330
2FC
330
2FD
330
2FE
330
2FF
330
300
330
301
330
302
330
303
330
304
330
305
330
306
330
307
330
308
330
309
330
30A
330
30B
330
30C
330
30D
330
30E
330
30F
330
310
330
311
330
312
330
313
330
314
330
315
330
316
330
317
330
318
330
319
330
31A
330
31B
330
31C
330
31D
330
31E
330
31F
330
320
330
321
330
322
330
323
330
324
330
325
330
326
330
327
330
328
330
329
330
32A
330
32B
330
32C
330
32D
330
32E
330
32F
330
330
330
331
330
332
330
333
330
334
330
335
330
336
330
337
330
338
330
339
330
33A
330
33B
330
33C
330
33D
330
33E
330
33F
330
340
330
341
330
342
330
343
330
344
330
345
330
346
330
347
330
348
330
349
330
34A
330
34B
330
34C
330
34D
330
34E
330
34F
330
350
330
351
330
352
330
353
330
354
330
355
330
356
330
357
330
358
330
359
330
35A
330
35B
330
35C
330
35D
330
35E
330
35F
330
360
330
361
330
362
330
363
330
364
330
365
330
366
330
367
330
368
330
369
330
36A
330
36B
330
36C
330
36D
330
36E
330
36F
330
370
330
371
330
372
330
373
330
374
330
375
330
376
330
377
330
378
330
379
330
37A
330
37B
330
37C
330
37D
330
37E
330
37F
330
380
330
381
330
382
330
383
330
384
330
385
330
386
330
387
330
388
330
389
330
38A
330
38B
330
38C
330
38D
330
38E
330
38F
330
390
330
391
330
392
330
393
330
394
330
395
330
396
330
397
330
398
330
399
330
39A
330
39B
330
39C
330
39D
330
39E
330
39F
330
3A0
330
3A1
330
3A2
330
3A3
330
3A4
330
3A5
330
3A6
330
3A7
330
3A8
330
3A9
330
3AA
330
3AB
330
3AC
330
3AD
330
3AE
330
3AF
330
3B0
330
3B1
330
3B2
330
3B3
330
3B4
330
3B5
330
3B6
330
3B7
330
3B8
330
3B9
330
3BA
330
3BB
330
3BC
330
3BD
330
3BE
330
3BF
330
3C0
330
3C1
330
3C2
330
3C3
330
3C4
330
3C5
330
3C6
330
3C7
330
3C8
330
3C9
330
3CA
330
3CB
330
3CC
330
3CD
330
3CE
330
3CF
330
3D0
330
3D1
330
3D2
330
3D3
330
3D4
330
3D5
330
3D6
330
3D7
330
3D8
330
3D9
330
3DA
330
3DB
330
3DC
330
3DD
330
3DE
330
3DF
330
3E0
330
3E1
330
3E2
330
3E3
330
3E4
330
3E5
 92
1
 93
6
 72
2
 10
17.0051585288
 20
2.4217179385
 40
0.0086625048
 50
270.0
 51
90.0
 73
1
 72
1
 10
17.0051585288
 20
2.4303804433
 11
16.9637955059
 21
2.4303804433
 72
2
 10
16.963795504
 20
2.4279054437
 40
0.0024749995
 50
89.9999571957
 51
180.0000428043
 73
1
 72
1
 10
16.9613205045
 20
2.4279054419
 11
16.9613205045
 21
2.415530435
 72
2
 10
16.963795504
 20
2.4155304332
 40
0.0024749995
 50
179.9999571957
 51
270.0000428043
 73
1
 72
1
 10
16.9637955059
 20
2.4130554337
 11
17.0051585288
 21
2.4130554337
 97
267
330
2DB
330
2DC
330
2DD
330
2DE
330
2DF
330
2E0
330
2E1
330
2E2
330
2E3
330
2E4
330
2E5
330
2E6
330
2E7
330
2E8
330
2E9
330
2EA
330
2EB
330
2EC
330
2ED
330
2EE
330
2EF
330
2F0
330
2F1
330
2F2
330
2F3
330
2F4
330
2F5
330
2F6
330
2F7
330
2F8
330
2F9
330
2FA
330
2FB
330
2FC
330
2FD
330
2FE
330
2FF
330
300
330
301
330
302
330
303
330
304
330
305
330
306
330
307
330
308
330
309
330
30A
330
30B
330
30C
330
30D
330
30E
330
30F
330
310
330
311
330
312
330
313
330
314
330
315
330
316
330
317
330
318
330
319
330
31A
330
31B
330
31C
330
31D
330
31E
330
31F
330
320
330
321
330
322
330
323
330
324
330
325
330
326
330
327
330
328
330
329
330
32A
330
32B
330
32C
330
32D
330
32E
330
32F
330
330
330
331
330
332
330
333
330
334
330
335
330
336
330
337
330
338
330
339
330
33A
330
33B
330
33C
330
33D
330
33E
330
33F
330
340
330
341
330
342
330
343
330
344
330
345
330
346
330
347
330
348
330
349
330
34A
330
34B
330
34C
330
34D
330
34E
330
34F
330
350
330
351
330
352
330
353
330
354
330
355
330
356
330
357
330
358
330
359
330
35A
330
35B
330
35C
330
35D
330
35E
330
35F
330
360
330
361
330
362
330
363
330
364
330
365
330
366
330
367
330
368
330
369
330
36A
330
36B
330
36C
330
36D
330
36E
330
36F
330
370
330
371
330
372
330
373
330
374
330
375
330
376
330
377
330
378
330
379
330
37A
330
37B
330
37C
330
37D
330
37E
330
37F
330
380
330
381
330
382
330
383
330
384
330
385
330
386
330
387
330
388
330
389
330
38A
330
38B
330
38C
330
38D
330
38E
330
38F
330
390
330
391
330
392
330
393
330
394
330
395
330
396
330
397
330
398
330
399
330
39A
330
39B
330
39C
330
39D
330
39E
330
39F
330
3A0
330
3A1
330
3A2
330
3A3
330
3A4
330
3A5
330
3A6
330
3A7
330
3A8
330
3A9
330
3AA
330
3AB
330
3AC
330
3AD
330
3AE
330
3AF
330
3B0
330
3B1
330
3B2
330
3B3
330
3B4
330
3B5
330
3B6
330
3B7
330
3B8
330
3B9
330
3BA
330
3BB
330
3BC
330
3BD
330
3BE
330
3BF
330
3C0
330
3C1
330
3C2
330
3C3
330
3C4
330
3C5
330
3C6
330
3C7
330
3C8
330
3C9
330
3CA
330
3CB
330
3CC
330
3CD
330
3CE
330
3CF
330
3D0
330
3D1
330
3D2
330
3D3
330
3D4
330
3D5
330
3D6
330
3D7
330
3D8
330
3D9
330
3DA
330
3DB
330
3DC
330
3DD
330
3DE
330
3DF
330
3E0
330
3E1
330
3E2
330
3E3
330
3E4
330
3E5
 92
1
 93
8
 72
2
 10
17.2090556207
 20
2.4161446411
 40
0.0024752071
 50
270.0004896793
 51
32.9089806818
 73
1
 72
1
 10
17.211133643
 20
2.4174894361
 11
17.203874639
 21
2.4287054423
 72
2
 10
17.2017960982
 20
2.4273609828
 40
0.0024754602
 50
32.8959418573
 51
89.9875097202
 73
1
 72
1
 10
17.2017966379
 20
2.429836443
 11
17.1956156344
 21
2.429836443
 72
2
 10
17.1956155641
 20
2.4273612427
 40
0.0024752003
 50
89.998372645
 51
147.6021653069
 73
1
 72
1
 10
17.1935256333
 20
2.4286874423
 11
17.1864086293
 21
2.4174704361
 72
2
 10
17.1884985212
 20
2.4161444741
 40
0.0024750401
 50
147.6063258012
 51
270.0025305753
 73
1
 72
1
 10
17.1884986305
 20
2.413669434
 11
17.2090556419
 21
2.413669434
 97
267
330
2DB
330
2DC
330
2DD
330
2DE
330
2DF
330
2E0
330
2E1
330
2E2
330
2E3
330
2E4
330
2E5
330
2E6
330
2E7
330
2E8
330
2E9
330
2EA
330
2EB
330
2EC
330
2ED
330
2EE
330
2EF
330
2F0
330
2F1
330
2F2
330
2F3
330
2F4
330
2F5
330
2F6
330
2F7
330
2F8
330
2F9
330
2FA
330
2FB
330
2FC
330
2FD
330
2FE
330
2FF
330
300
330
301
330
302
330
303
330
304
330
305
330
306
330
307
330
308
330
309
330
30A
330
30B
330
30C
330
30D
330
30E
330
30F
330
310
330
311
330
312
330
313
330
314
330
315
330
316
330
317
330
318
330
319
330
31A
330
31B
330
31C
330
31D
330
31E
330
31F
330
320
330
321
330
322
330
323
330
324
330
325
330
326
330
327
330
328
330
329
330
32A
330
32B
330
32C
330
32D
330
32E
330
32F
330
330
330
331
330
332
330
333
330
334
330
335
330
336
330
337
330
338
330
339
330
33A
330
33B
330
33C
330
33D
330
33E
330
33F
330
340
330
341
330
342
330
343
330
344
330
345
330
346
330
347
330
348
330
349
330
34A
330
34B
330
34C
330
34D
330
34E
330
34F
330
350
330
351
330
352
330
353
330
354
330
355
330
356
330
357
330
358
330
359
330
35A
330
35B
330
35C
330
35D
330
35E
330
35F
330
360
330
361
330
362
330
363
330
364
330
365
330
366
330
367
330
368
330
369
330
36A
330
36B
330
36C
330
36D
330
36E
330
36F
330
370
330
371
330
372
330
373
330
374
330
375
330
376
330
377
330
378
330
379
330
37A
330
37B
330
37C
330
37D
330
37E
330
37F
330
380
330
381
330
382
330
383
330
384
330
385
330
386
330
387
330
388
330
389
330
38A
330
38B
330
38C
330
38D
330
38E
330
38F
330
390
330
391
330
392
330
393
330
394
330
395
330
396
330
397
330
398
330
399
330
39A
330
39B
330
39C
330
39D
330
39E
330
39F
330
3A0
330
3A1
330
3A2
330
3A3
330
3A4
330
3A5
330
3A6
330
3A7
330
3A8
330
3A9
330
3AA
330
3AB
330
3AC
330
3AD
330
3AE
330
3AF
330
3B0
330
3B1
330
3B2
330
3B3
330
3B4
330
3B5
330
3B6
330
3B7
330
3B8
330
3B9
330
3BA
330
3BB
330
3BC
330
3BD
330
3BE
330
3BF
330
3C0
330
3C1
330
3C2
330
3C3
330
3C4
330
3C5
330
3C6
330
3C7
330
3C8
330
3C9
330
3CA
330
3CB
330
3CC
330
3CD
330
3CE
330
3CF
330
3D0
330
3D1
330
3D2
330
3D3
330
3D4
330
3D5
330
3D6
330
3D7
330
3D8
330
3D9
330
3DA
330
3DB
330
3DC
330
3DD
330
3DE
330
3DF
330
3E0
330
3E1
330
3E2
330
3E3
330
3E4
330
3E5
 92
1
 93
1
 72
3
 10
17.573550844
 20
2.4034764283
 11
-0.8250004575
 21
0.0
 40
0.218572
 50
0.0
 51
360.0
 73
1
 97
267
330
2DB
330
2DC
330
2DD
330
2DE
330
2DF
330
2E0
330
2E1
330
2E2
330
2E3
330
2E4
330
2E5
330
2E6
330
2E7
330
2E8
330
2E9
330
2EA
330
2EB
330
2EC
330
2ED
330
2EE
330
2EF
330
2F0
330
2F1
330
2F2
330
2F3
330
2F4
330
2F5
330
2F6
330
2F7
330
2F8
330
2F9
330
2FA
330
2FB
330
2FC
330
2FD
330
2FE
330
2FF
330
300
330
301
330
302
330
303
330
304
330
305
330
306
330
307
330
308
330
309
330
30A
330
30B
330
30C
330
30D
330
30E
330
30F
330
310
330
311
330
312
330
313
330
314
330
315
330
316
330
317
330
318
330
319
330
31A
330
31B
330
31C
330
31D
330
31E
330
31F
330
320
330
321
330
322
330
323
330
324
330
325
330
326
330
327
330
328
330
329
330
32A
330
32B
330
32C
330
32D
330
32E
330
32F
330
330
330
331
330
332
330
333
330
334
330
335
330
336
330
337
330
338
330
339
330
33A
330
33B
330
33C
330
33D
330
33E
330
33F
330
340
330
341
330
342
330
343
330
344
330
345
330
346
330
347
330
348
330
349
330
34A
330
34B
330
34C
330
34D
330
34E
330
34F
330
350
330
351
330
352
330
353
330
354
330
355
330
356
330
357
330
358
330
359
330
35A
330
35B
330
35C
330
35D
330
35E
330
35F
330
360
330
361
330
362
330
363
330
364
330
365
330
366
330
367
330
368
330
369
330
36A
330
36B
330
36C
330
36D
330
36E
330
36F
330
370
330
371
330
372
330
373
330
374
330
375
330
376
330
377
330
378
330
379
330
37A
330
37B
330
37C
330
37D
330
37E
330
37F
330
380
330
381
330
382
330
383
330
384
330
385
330
386
330
387
330
388
330
389
330
38A
330
38B
330
38C
330
38D
330
38E
330
38F
330
390
330
391
330
392
330
393
330
394
330
395
330
396
330
397
330
398
330
399
330
39A
330
39B
330
39C
330
39D
330
39E
330
39F
330
3A0
330
3A1
330
3A2
330
3A3
330
3A4
330
3A5
330
3A6
330
3A7
330
3A8
330
3A9
330
3AA
330
3AB
330
3AC
330
3AD
330
3AE
330
3AF
330
3B0
330
3B1
330
3B2
330
3B3
330
3B4
330
3B5
330
3B6
330
3B7
330
3B8
330
3B9
330
3BA
330
3BB
330
3BC
330
3BD
330
3BE
330
3BF
330
3C0
330
3C1
330
3C2
330
3C3
330
3C4
330
3C5
330
3C6
330
3C7
330
3C8
330
3C9
330
3CA
330
3CB
330
3CC
330
3CD
330
3CE
330
3CF
330
3D0
330
3D1
330
3D2
330
3D3
330
3D4
330
3D5
330
3D6
330
3D7
330
3D8
330
3D9
330
3DA
330
3DB
330
3DC
330
3DD
330
3DE
330
3DF
330
3E0
330
3E1
330
3E2
330
3E3
330
3E4
330
3E5
 75
0
 76
1
 98
1
 10
0.0
 20
0.0
  0
LINE
  5
3E7
100
AcDbEntity
  8
0
100
AcDbLine
 62
7
  6
CONTINUOUS
 10
21.05
 20
2.67
 11
14.7
 21
2.67
  0
LINE
  5
3E8
100
AcDbEntity
  8
0
100
AcDbLine
 62
7
  6
CONTINUOUS
 10
6.007
 20
0.75
 11
6.007
 21
0.5
  0
LINE
  5
3E9
100
AcDbEntity
  8
0
100
AcDbLine
 62
7
  6
CONTINUOUS
 10
6.007
 20
15.75
 11
6.007
 21
16.0
  0
LINE
  5
3EA
100
AcDbEntity
  8
0
100
AcDbLine
 62
7
  6
CONTINUOUS
 10
0.814
 20
8.163397
 11
0.964
 21
8.25
  0
LINE
  5
3EB
100
AcDbEntity
  8
0
100
AcDbLine
 62
7
  6
CONTINUOUS
 10
0.964
 20
8.25
 11
0.814
 21
8.336603
  0
LINE
  5
3EC
100
AcDbEntity
  8
0
100
AcDbLine
 62
7
  6
CONTINUOUS
 10
0.964
 20
4.4
 11
0.714
 21
4.4
  0
LINE
  5
3ED
100
AcDbEntity
  8
0
100
AcDbLine
 62
7
  6
CONTINUOUS
 10
21.05
 20
4.4
 11
21.3
 21
4.4
  0
LINE
  5
3EE
100
AcDbEntity
  8
0
100
AcDbLine
 62
7
  6
CONTINUOUS
 10
11.093603
 20
0.6
 11
11.007
 21
0.75
  0
LINE
  5
3EF
100
AcDbEntity
  8
0
100
AcDbLine
 62
7
  6
CONTINUOUS
 10
11.007
 20
15.75
 11
11.093603
 21
15.9
  0
LINE
  5
3F0
100
AcDbEntity
  8
0
100
AcDbLine
 62
7
  6
CONTINUOUS
 10
8.507
 20
0.75
 11
8.507
 21
0.5
  0
LINE
  5
3F1
100
AcDbEntity
  8
0
100
AcDbLine
 62
7
  6
CONTINUOUS
 10
8.507
 20
15.75
 11
8.507
 21
16.0
  0
LINE
  5
3F2
100
AcDbEntity
  8
0
100
AcDbLine
 62
7
  6
CONTINUOUS
 10
11.007
 20
0.75
 11
11.007
 21
0.5
  0
LINE
  5
3F3
100
AcDbEntity
  8
0
100
AcDbLine
 62
7
  6
CONTINUOUS
 10
11.007
 20
15.75
 11
11.007
 21
16.0
  0
LINE
  5
3F4
100
AcDbEntity
  8
0
100
AcDbLine
 62
7
  6
CONTINUOUS
 10
0.964
 20
8.25
 11
0.714
 21
8.25
  0
LINE
  5
3F5
100
AcDbEntity
  8
0
100
AcDbLine
 62
7
  6
CONTINUOUS
 10
21.05
 20
8.25
 11
21.3
 21
8.25
  0
LINE
  5
3F6
100
AcDbEntity
  8
0
100
AcDbLine
 62
7
  6
CONTINUOUS
 10
13.507
 20
0.75
 11
13.507
 21
0.5
  0
LINE
  5
3F7
100
AcDbEntity
  8
0
100
AcDbLine
 62
7
  6
CONTINUOUS
 10
13.507
 20
15.75
 11
13.507
 21
16.0
  0
LINE
  5
3F8
100
AcDbEntity
  8
0
100
AcDbLine
 62
7
  6
CONTINUOUS
 10
14.7
 20
2.67
 11
14.7
 21
0.75
  0
LINE
  5
3F9
100
AcDbEntity
  8
0
100
AcDbLine
 62
7
  6
CONTINUOUS
 10
11.007
 20
0.75
 11
10.920397
 21
0.6
  0
LINE
  5
3FA
100
AcDbEntity
  8
0
100
AcDbLine
 62
7
  6
CONTINUOUS
 10
0.964
 20
12.1
 11
0.714
 21
12.1
  0
LINE
  5
3FB
100
AcDbEntity
  8
0
100
AcDbLine
 62
7
  6
CONTINUOUS
 10
21.05
 20
12.1
 11
21.3
 21
12.1
  0
LINE
  5
3FC
100
AcDbEntity
  8
0
100
AcDbLine
 62
7
  6
CONTINUOUS
 10
10.920397
 20
15.9
 11
11.007
 21
15.75
  0
LINE
  5
3FD
100
AcDbEntity
  8
0
100
AcDbLine
 62
7
  6
CONTINUOUS
 10
15.2229827477
 20
1.0139932523
 11
15.2229827477
 21
0.7919022523
  0
LINE
  5
3FE
100
AcDbEntity
  8
0
100
AcDbLine
 62
7
  6
CONTINUOUS
 10
15.2229827477
 20
1.0639932523
 11
15.2229827477
 21
1.1639932523
  0
LINE
  5
3FF
100
AcDbEntity
  8
0
100
AcDbLine
 62
7
  6
CONTINUOUS
 10
15.2229827477
 20
1.2139932523
 11
15.2229827477
 21
1.4360842523
  0
LINE
  5
400
100
AcDbEntity
  8
0
100
AcDbLine
 62
7
  6
CONTINUOUS
 10
15.8276527477
 20
0.9312952523
 11
15.8276527477
 21
1.2966912523
  0
LINE
  5
401
100
AcDbEntity
  8
0
100
AcDbLine
 62
7
  6
CONTINUOUS
 10
16.007
 20
0.75
 11
16.007
 21
0.5
  0
LINE
  5
402
100
AcDbEntity
  8
0
100
AcDbLine
 62
7
  6
CONTINUOUS
 10
16.007
 20
15.75
 11
16.007
 21
16.0
  0
LINE
  5
403
100
AcDbEntity
  8
0
100
AcDbLine
 62
7
  6
CONTINUOUS
 10
16.4340437477
 20
1.3660842523
 11
16.4340437477
 21
0.8619022523
  0
LINE
  5
404
100
AcDbEntity
  8
0
100
AcDbLine
 62
7
  6
CONTINUOUS
 10
21.2
 20
8.336603
 11
21.05
 21
8.25
  0
LINE
  5
405
100
AcDbEntity
  8
0
100
AcDbLine
 62
7
  6
CONTINUOUS
 10
21.05
 20
8.25
 11
21.2
 21
8.163397
  0
LINE
  5
406
100
AcDbEntity
  8
0
100
AcDbLine
 62
7
  6
CONTINUOUS
 10
16.7
 20
2.67
 11
16.7
 21
0.75
  0
LINE
  5
407
100
AcDbEntity
  8
0
100
AcDbLine
 62
7
  6
CONTINUOUS
 10
17.5
 20
1.37
 11
17.5
 21
1.0
  0
LINE
  5
408
100
AcDbEntity
  8
0
100
AcDbLine
 62
7
  6
CONTINUOUS
 10
18.507
 20
0.75
 11
18.507
 21
0.5
  0
LINE
  5
409
100
AcDbEntity
  8
0
100
AcDbLine
 62
7
  6
CONTINUOUS
 10
18.507
 20
15.75
 11
18.507
 21
16.0
  0
LINE
  5
40A
100
AcDbEntity
  8
0
100
AcDbLine
 62
7
  6
CONTINUOUS
 10
21.05
 20
15.75
 11
0.964
 21
15.75
  0
LINE
  5
40B
100
AcDbEntity
  8
0
100
AcDbLine
 62
7
  6
CONTINUOUS
 10
11.093603
 20
15.9
 11
10.920397
 21
15.9
  0
LINE
  5
40C
100
AcDbEntity
  8
0
100
AcDbLine
 62
7
  6
CONTINUOUS
 10
18.875
 20
1.0
 11
18.875
 21
0.75
  0
LINE
  5
40D
100
AcDbEntity
  8
0
100
AcDbLine
 62
7
  6
CONTINUOUS
 10
20.25
 20
1.37
 11
20.25
 21
1.0
  0
LINE
  5
40E
100
AcDbEntity
  8
0
100
AcDbLine
 62
7
  6
CONTINUOUS
 10
21.05
 20
0.75
 11
21.05
 21
15.75
  0
LINE
  5
40F
100
AcDbEntity
  8
0
100
AcDbLine
 62
7
  6
CONTINUOUS
 10
21.2
 20
8.163397
 11
21.2
 21
8.336603
  0
LINE
  5
410
100
AcDbEntity
  8
SURFACE
100
AcDbLine
 62
7
  6
CONTINUOUS
 10
4.0979968735
 20
8.2625330817
 11
4.0979968735
 21
9.1575330817
  0
LINE
  5
411
100
AcDbEntity
  8
SURFACE
100
AcDbLine
 62
7
  6
CONTINUOUS
 10
4.1459968735
 20
8.2625330817
 11
4.1459968735
 21
8.2705330817
  0
LINE
  5
412
100
AcDbEntity
  8
SURFACE
100
AcDbLine
 62
7
  6
CONTINUOUS
 10
4.1879968735
 20
8.2705330817
 11
4.1879968735
 21
8.1725330817
  0
LINE
  5
413
100
AcDbEntity
  8
SURFACE
100
AcDbLine
 62
7
  6
CONTINUOUS
 10
4.1879968735
 20
8.1725330817
 11
8.3539968735
 21
8.1725330817
  0
LINE
  5
414
100
AcDbEntity
  8
SURFACE
100
AcDbLine
 62
7
  6
CONTINUOUS
 10
4.1879968735
 20
8.2565330817
 11
8.3539968735
 21
8.2565330817
  0
LINE
  5
415
100
AcDbEntity
  8
SURFACE
100
AcDbLine
 62
7
  6
CONTINUOUS
 10
4.1459968735
 20
8.2625330817
 11
4.0979968735
 21
8.2625330817
  0
LINE
  5
416
100
AcDbEntity
  8
SURFACE
100
AcDbLine
 62
7
  6
CONTINUOUS
 10
8.3959968735
 20
8.2625330817
 11
8.4439968735
 21
8.2625330817
  0
LINE
  5
417
100
AcDbEntity
  8
SURFACE
100
AcDbLine
 62
7
  6
CONTINUOUS
 10
4.0979968735
 20
8.2705330817
 11
4.1879968735
 21
8.2705330817
  0
LINE
  5
418
100
AcDbEntity
  8
SURFACE
100
AcDbLine
 62
7
  6
CONTINUOUS
 10
8.3539968735
 20
8.2705330817
 11
8.4439968735
 21
8.2705330817
  0
LINE
  5
419
100
AcDbEntity
  8
AXIS_COSMETIC_THREADS
100
AcDbLine
 62
7
  6
CONTINUOUS
 10
8.4529968735
 20
8.4125330817
 11
8.4439968735
 21
8.4125330817
  0
LINE
  5
41A
100
AcDbEntity
  8
02___PRT_ALL_AXES
100
AcDbLine
 62
7
  6
CONTINUOUS
 10
8.5129968735
 20
8.5259189085
 11
11.2589968735
 21
8.5259189085
  0
LINE
  5
41B
100
AcDbEntity
  8
02___PRT_ALL_AXES
100
AcDbLine
 62
7
  6
CONTINUOUS
 10
8.5129968735
 20
8.699147255
 11
11.2589968735
 21
8.699147255
  0
LINE
  5
41C
100
AcDbEntity
  8
AXIS_COSMETIC_THREADS
100
AcDbLine
 62
7
  6
CONTINUOUS
 10
8.4529968735
 20
8.8125330817
 11
8.4439968735
 21
8.8125330817
  0
LINE
  5
41D
100
AcDbEntity
  8
SURFACE
100
AcDbLine
 62
7
  6
CONTINUOUS
 10
8.4439968735
 20
9.1575330817
 11
4.0979968735
 21
9.1575330817
  0
LINE
  5
41E
100
AcDbEntity
  8
AXIS_COSMETIC_THREADS
100
AcDbLine
 62
7
  6
CONTINUOUS
 10
7.9194760312
 20
9.1675330817
 11
7.7725177159
 21
9.1675330817
  0
LINE
  5
41F
100
AcDbEntity
  8
AXIS_COSMETIC_THREADS
100
AcDbLine
 62
7
  6
CONTINUOUS
 10
4.7694760312
 20
9.1675330817
 11
4.6225177159
 21
9.1675330817
  0
LINE
  5
420
100
AcDbEntity
  8
SURFACE
100
AcDbLine
 62
7
  6
CONTINUOUS
 10
8.3539968735
 20
8.1725330817
 11
8.3539968735
 21
8.2705330817
  0
LINE
  5
421
100
AcDbEntity
  8
SURFACE
100
AcDbLine
 62
7
  6
CONTINUOUS
 10
8.3959968735
 20
8.2705330817
 11
8.3959968735
 21
8.2625330817
  0
LINE
  5
422
100
AcDbEntity
  8
SURFACE
100
AcDbLine
 62
7
  6
CONTINUOUS
 10
8.4439968735
 20
8.2625330817
 11
8.4439968735
 21
9.1575330817
  0
LINE
  5
423
100
AcDbEntity
  8
AXIS_COSMETIC_THREADS
100
AcDbLine
 62
7
  6
CONTINUOUS
 10
8.4529968735
 20
8.8125330817
 11
8.4529968735
 21
8.4125330817
  0
LINE
  5
424
100
AcDbEntity
  8
AXIS_COSMETIC_THREADS
100
AcDbLine
 62
7
  6
CONTINUOUS
 10
8.5129968735
 20
8.7525330817
 11
8.5129968735
 21
8.4725330817
  0
LINE
  5
425
100
AcDbEntity
  8
02___PRT_ALL_AXES
100
AcDbLine
 62
7
  6
CONTINUOUS
 10
11.2589968735
 20
8.699147255
 11
11.2589968735
 21
8.5259189085
  0
LINE
  5
426
100
AcDbEntity
  8
SURFACE
100
AcDbLine
 62
7
  6
CONTINUOUS
 10
4.0979968735
 20
3.0510861528
 11
4.0979968735
 21
6.6970861528
  0
LINE
  5
427
100
AcDbEntity
  8
SURFACE
100
AcDbLine
 62
7
  6
CONTINUOUS
 10
4.1879968735
 20
3.0510861528
 11
4.1879968735
 21
3.1350861528
  0
LINE
  5
428
100
AcDbEntity
  8
SURFACE
100
AcDbLine
 62
7
  6
CONTINUOUS
 10
4.1879968735
 20
3.1350861528
 11
4.1879968735
 21
6.6130861528
  0
LINE
  5
429
100
AcDbEntity
  8
SURFACE
100
AcDbLine
 62
7
  6
CONTINUOUS
 10
4.1879968735
 20
6.6130861528
 11
4.1879968735
 21
6.6970861528
  0
LINE
  5
42A
100
AcDbEntity
  8
AXIS_COSMETIC_THREADS
100
AcDbLine
 62
7
  6
CENTER
 10
4.4209968735
 20
6.0740861528
 11
4.4209968735
 21
5.8175900898
  0
LINE
  5
42B
100
AcDbEntity
  8
AXIS_COSMETIC_THREADS
100
AcDbLine
 62
7
  6
CENTER
 10
4.4209968735
 20
3.6740861528
 11
4.4209968735
 21
3.4175900898
  0
LINE
  5
42C
100
AcDbEntity
  8
AXIS_COSMETIC_THREADS
100
AcDbLine
 62
7
  6
CENTER
 10
4.4209968735
 20
3.6740861528
 11
4.4209968735
 21
5.8175900898
  0
LINE
  5
42D
100
AcDbEntity
  8
AXIS_COSMETIC_THREADS
100
AcDbLine
 62
7
  6
CENTER
 10
4.4209968735
 20
6.0740861528
 11
4.4209968735
 21
6.3305822157
  0
LINE
  5
42E
100
AcDbEntity
  8
SURFACE
100
AcDbLine
 62
7
  6
CONTINUOUS
 10
8.4439968735
 20
3.0510861528
 11
4.0979968735
 21
3.0510861528
  0
LINE
  5
42F
100
AcDbEntity
  8
SURFACE
100
AcDbLine
 62
7
  6
CONTINUOUS
 10
8.4439968735
 20
3.0990861528
 11
8.3539968735
 21
3.0990861528
  0
LINE
  5
430
100
AcDbEntity
  8
SURFACE
100
AcDbLine
 62
7
  6
CONTINUOUS
 10
4.0979968735
 20
3.0990861528
 11
4.1879968735
 21
3.0990861528
  0
LINE
  5
431
100
AcDbEntity
  8
SURFACE
100
AcDbLine
 62
7
  6
CONTINUOUS
 10
8.3539968735
 20
3.1350861528
 11
4.1879968735
 21
3.1350861528
  0
LINE
  5
432
100
AcDbEntity
  8
AXIS_COSMETIC_THREADS
100
AcDbLine
 62
7
  6
CENTER
 10
8.1209968735
 20
3.6740861528
 11
7.8645008105
 21
3.6740861528
  0
LINE
  5
433
100
AcDbEntity
  8
AXIS_COSMETIC_THREADS
100
AcDbLine
 62
7
  6
CENTER
 10
4.4209968735
 20
3.6740861528
 11
4.1645008105
 21
3.6740861528
  0
LINE
  5
434
100
AcDbEntity
  8
AXIS_COSMETIC_THREADS
100
AcDbLine
 62
7
  6
CENTER
 10
4.4209968735
 20
3.6740861528
 11
7.8645008105
 21
3.6740861528
  0
LINE
  5
435
100
AcDbEntity
  8
AXIS_COSMETIC_THREADS
100
AcDbLine
 62
7
  6
CENTER
 10
8.1209968735
 20
3.6740861528
 11
8.3774929365
 21
3.6740861528
  0
LINE
  5
436
100
AcDbEntity
  8
AXIS_COSMETIC_THREADS
100
AcDbLine
 62
7
  6
CONTINUOUS
 10
8.4529968735
 20
4.6740861528
 11
8.4439968735
 21
4.6740861528
  0
LINE
  5
437
100
AcDbEntity
  8
02___PRT_ALL_AXES
100
AcDbLine
 62
7
  6
CONTINUOUS
 10
8.5129968735
 20
4.7874719795
 11
11.2589968735
 21
4.7874719795
  0
LINE
  5
438
100
AcDbEntity
  8
02___PRT_ALL_AXES
100
AcDbLine
 62
7
  6
CONTINUOUS
 10
8.5129968735
 20
4.960700326
 11
11.2589968735
 21
4.960700326
  0
LINE
  5
439
100
AcDbEntity
  8
AXIS_COSMETIC_THREADS
100
AcDbLine
 62
7
  6
CONTINUOUS
 10
8.4529968735
 20
5.0740861528
 11
8.4439968735
 21
5.0740861528
  0
LINE
  5
43A
100
AcDbEntity
  8
AXIS_COSMETIC_THREADS
100
AcDbLine
 62
7
  6
CENTER
 10
8.1209968735
 20
6.0740861528
 11
8.1209968735
 21
3.8638477757
  0
LINE
  5
43B
100
AcDbEntity
  8
AXIS_COSMETIC_THREADS
100
AcDbLine
 62
7
  6
CENTER
 10
8.1209968735
 20
3.6740861528
 11
8.1209968735
 21
3.4175900898
  0
LINE
  5
43C
100
AcDbEntity
  8
AXIS_COSMETIC_THREADS
100
AcDbLine
 62
7
  6
CENTER
 10
8.1209968735
 20
3.6740861528
 11
8.1209968735
 21
3.8638477757
  0
LINE
  5
43D
100
AcDbEntity
  8
AXIS_COSMETIC_THREADS
100
AcDbLine
 62
7
  6
CENTER
 10
8.1209968735
 20
6.0740861528
 11
8.1209968735
 21
6.3305822157
  0
LINE
  5
43E
100
AcDbEntity
  8
SURFACE
100
AcDbLine
 62
7
  6
CONTINUOUS
 10
8.3539968735
 20
6.6970861528
 11
8.3539968735
 21
6.6130861528
  0
LINE
  5
43F
100
AcDbEntity
  8
SURFACE
100
AcDbLine
 62
7
  6
CONTINUOUS
 10
8.3539968735
 20
6.6130861528
 11
8.3539968735
 21
3.1350861528
  0
LINE
  5
440
100
AcDbEntity
  8
SURFACE
100
AcDbLine
 62
7
  6
CONTINUOUS
 10
8.3539968735
 20
3.0510861528
 11
8.3539968735
 21
3.1350861528
  0
LINE
  5
441
100
AcDbEntity
  8
SURFACE
100
AcDbLine
 62
7
  6
CONTINUOUS
 10
8.4439968735
 20
3.0510861528
 11
8.4439968735
 21
6.6970861528
  0
LINE
  5
442
100
AcDbEntity
  8
AXIS_COSMETIC_THREADS
100
AcDbLine
 62
7
  6
CONTINUOUS
 10
8.4529968735
 20
4.6740861528
 11
8.4529968735
 21
5.0740861528
  0
LINE
  5
443
100
AcDbEntity
  8
AXIS_COSMETIC_THREADS
100
AcDbLine
 62
7
  6
CONTINUOUS
 10
8.5129968735
 20
4.7340861528
 11
8.5129968735
 21
5.0140861528
  0
LINE
  5
444
100
AcDbEntity
  8
AXIS_COSMETIC_THREADS
100
AcDbLine
 62
7
  6
CENTER
 10
8.1209968735
 20
6.0740861528
 11
4.5826831664
 21
6.0740861528
  0
LINE
  5
445
100
AcDbEntity
  8
AXIS_COSMETIC_THREADS
100
AcDbLine
 62
7
  6
CENTER
 10
4.4209968735
 20
6.0740861528
 11
4.1645008105
 21
6.0740861528
  0
LINE
  5
446
100
AcDbEntity
  8
AXIS_COSMETIC_THREADS
100
AcDbLine
 62
7
  6
CENTER
 10
4.4209968735
 20
6.0740861528
 11
4.5826831664
 21
6.0740861528
  0
LINE
  5
447
100
AcDbEntity
  8
AXIS_COSMETIC_THREADS
100
AcDbLine
 62
7
  6
CENTER
 10
8.1209968735
 20
6.0740861528
 11
8.3774929365
 21
6.0740861528
  0
LINE
  5
448
100
AcDbEntity
  8
SURFACE
100
AcDbLine
 62
7
  6
CONTINUOUS
 10
4.1879968735
 20
6.6130861528
 11
8.3539968735
 21
6.6130861528
  0
LINE
  5
449
100
AcDbEntity
  8
SURFACE
100
AcDbLine
 62
7
  6
CONTINUOUS
 10
8.4439968735
 20
6.6490861528
 11
8.3539968735
 21
6.6490861528
  0
LINE
  5
44A
100
AcDbEntity
  8
SURFACE
100
AcDbLine
 62
7
  6
CONTINUOUS
 10
4.0979968735
 20
6.6490861528
 11
4.1879968735
 21
6.6490861528
  0
LINE
  5
44B
100
AcDbEntity
  8
SURFACE
100
AcDbLine
 62
7
  6
CONTINUOUS
 10
4.0979968735
 20
6.6970861528
 11
8.4439968735
 21
6.6970861528
  0
LINE
  5
44C
100
AcDbEntity
  8
02___PRT_ALL_AXES
100
AcDbLine
 62
7
  6
CONTINUOUS
 10
11.2589968735
 20
4.960700326
 11
11.2589968735
 21
4.7874719795
  0
LINE
  5
44D
100
AcDbEntity
  8
SURFACE
100
AcDbLine
 62
7
  6
CONTINUOUS
 10
4.0979968735
 20
10.9760195153
 11
4.0979968735
 21
14.6220195153
  0
LINE
  5
44E
100
AcDbEntity
  8
SURFACE
100
AcDbLine
 62
7
  6
CONTINUOUS
 10
4.1459968735
 20
11.0240195153
 11
4.1459968735
 21
14.5740195153
  0
LINE
  5
44F
100
AcDbEntity
  8
0
100
AcDbLine
 62
7
  6
CONTINUOUS
 10
4.1709968735
 20
14.5490195153
 11
4.1709968735
 21
11.0490195153
  0
LINE
  5
450
100
AcDbEntity
  8
SURFACE
100
AcDbLine
 62
7
  6
CONTINUOUS
 10
4.1879968735
 20
14.5740195153
 11
4.1879968735
 21
14.5490195153
  0
LINE
  5
451
100
AcDbEntity
  8
SURFACE
100
AcDbLine
 62
7
  6
CONTINUOUS
 10
4.1879968735
 20
11.0240195153
 11
4.1879968735
 21
11.0490195153
  0
LINE
  5
452
100
AcDbEntity
  8
0
100
AcDbLine
 62
7
  6
CONTINUOUS
 10
4.6459968735
 20
14.3890195153
 11
4.6459968735
 21
14.3590195153
  0
LINE
  5
453
100
AcDbEntity
  8
0
100
AcDbLine
 62
7
  6
CONTINUOUS
 10
4.6459968735
 20
11.2390195153
 11
4.6459968735
 21
11.2090195153
  0
LINE
  5
454
100
AcDbEntity
  8
0
100
AcDbLine
 62
7
  6
CONTINUOUS
 10
4.6809968735
 20
14.4240195153
 11
4.6809968735
 21
14.3890195153
  0
LINE
  5
455
100
AcDbEntity
  8
0
100
AcDbLine
 62
7
  6
CONTINUOUS
 10
4.6809968735
 20
14.3590195153
 11
4.6809968735
 21
14.3240195153
  0
LINE
  5
456
100
AcDbEntity
  8
0
100
AcDbLine
 62
7
  6
CONTINUOUS
 10
4.6809968735
 20
11.2740195153
 11
4.6809968735
 21
11.2390195153
  0
LINE
  5
457
100
AcDbEntity
  8
0
100
AcDbLine
 62
7
  6
CONTINUOUS
 10
4.6809968735
 20
11.2090195153
 11
4.6809968735
 21
11.1740195153
  0
LINE
  5
458
100
AcDbEntity
  8
0
100
AcDbLine
 62
7
  6
CONTINUOUS
 10
4.7109968735
 20
11.1740195153
 11
4.7109968735
 21
11.2090195153
  0
LINE
  5
459
100
AcDbEntity
  8
0
100
AcDbLine
 62
7
  6
CONTINUOUS
 10
4.7109968735
 20
11.2390195153
 11
4.7109968735
 21
11.2740195153
  0
LINE
  5
45A
100
AcDbEntity
  8
0
100
AcDbLine
 62
7
  6
CONTINUOUS
 10
4.7109968735
 20
14.3240195153
 11
4.7109968735
 21
14.3590195153
  0
LINE
  5
45B
100
AcDbEntity
  8
0
100
AcDbLine
 62
7
  6
CONTINUOUS
 10
4.7109968735
 20
14.3890195153
 11
4.7109968735
 21
14.4240195153
  0
LINE
  5
45C
100
AcDbEntity
  8
0
100
AcDbLine
 62
7
  6
CONTINUOUS
 10
4.7459968735
 20
11.2090195153
 11
4.7459968735
 21
11.2390195153
  0
LINE
  5
45D
100
AcDbEntity
  8
0
100
AcDbLine
 62
7
  6
CONTINUOUS
 10
4.7459968735
 20
14.3590195153
 11
4.7459968735
 21
14.3890195153
  0
LINE
  5
45E
100
AcDbEntity
  8
SURFACE
100
AcDbLine
 62
7
  6
CONTINUOUS
 10
8.4439968735
 20
10.9760195153
 11
4.0979968735
 21
10.9760195153
  0
LINE
  5
45F
100
AcDbEntity
  8
SURFACE
100
AcDbLine
 62
7
  6
CONTINUOUS
 10
8.4439968735
 20
11.0240195153
 11
4.0979968735
 21
11.0240195153
  0
LINE
  5
460
100
AcDbEntity
  8
0
100
AcDbLine
 62
7
  6
CONTINUOUS
 10
4.1709968735
 20
11.0490195153
 11
8.3709968735
 21
11.0490195153
  0
LINE
  5
461
100
AcDbEntity
  8
0
100
AcDbLine
 62
7
  6
CONTINUOUS
 10
4.6809968735
 20
11.1740195153
 11
4.7109968735
 21
11.1740195153
  0
LINE
  5
462
100
AcDbEntity
  8
0
100
AcDbLine
 62
7
  6
CONTINUOUS
 10
7.8309968735
 20
11.1740195153
 11
7.8609968735
 21
11.1740195153
  0
LINE
  5
463
100
AcDbEntity
  8
0
100
AcDbLine
 62
7
  6
CONTINUOUS
 10
4.6459968735
 20
11.2090195153
 11
4.6809968735
 21
11.2090195153
  0
LINE
  5
464
100
AcDbEntity
  8
0
100
AcDbLine
 62
7
  6
CONTINUOUS
 10
4.7109968735
 20
11.2090195153
 11
4.7459968735
 21
11.2090195153
  0
LINE
  5
465
100
AcDbEntity
  8
0
100
AcDbLine
 62
7
  6
CONTINUOUS
 10
7.7959968735
 20
11.2090195153
 11
7.8309968735
 21
11.2090195153
  0
LINE
  5
466
100
AcDbEntity
  8
0
100
AcDbLine
 62
7
  6
CONTINUOUS
 10
7.8609968735
 20
11.2090195153
 11
7.8959968735
 21
11.2090195153
  0
LINE
  5
467
100
AcDbEntity
  8
0
100
AcDbLine
 62
7
  6
CONTINUOUS
 10
7.8959968735
 20
11.2390195153
 11
7.8609968735
 21
11.2390195153
  0
LINE
  5
468
100
AcDbEntity
  8
0
100
AcDbLine
 62
7
  6
CONTINUOUS
 10
7.8309968735
 20
11.2390195153
 11
7.7959968735
 21
11.2390195153
  0
LINE
  5
469
100
AcDbEntity
  8
0
100
AcDbLine
 62
7
  6
CONTINUOUS
 10
4.7459968735
 20
11.2390195153
 11
4.7109968735
 21
11.2390195153
  0
LINE
  5
46A
100
AcDbEntity
  8
0
100
AcDbLine
 62
7
  6
CONTINUOUS
 10
4.6809968735
 20
11.2390195153
 11
4.6459968735
 21
11.2390195153
  0
LINE
  5
46B
100
AcDbEntity
  8
0
100
AcDbLine
 62
7
  6
CONTINUOUS
 10
7.8609968735
 20
11.2740195153
 11
7.8309968735
 21
11.2740195153
  0
LINE
  5
46C
100
AcDbEntity
  8
0
100
AcDbLine
 62
7
  6
CONTINUOUS
 10
4.7109968735
 20
11.2740195153
 11
4.6809968735
 21
11.2740195153
  0
LINE
  5
46D
100
AcDbEntity
  8
AXIS_COSMETIC_THREADS
100
AcDbLine
 62
7
  6
CONTINUOUS
 10
8.4529968735
 20
12.5990195153
 11
8.4439968735
 21
12.5990195153
  0
LINE
  5
46E
100
AcDbEntity
  8
AXIS_COSMETIC_THREADS
100
AcDbLine
 62
7
  6
CONTINUOUS
 10
8.3779968735
 20
12.5990195153
 11
8.3709968735
 21
12.5990195153
  0
LINE
  5
46F
100
AcDbEntity
  8
AXIS_COSMETIC_THREADS
100
AcDbLine
 62
7
  6
CONTINUOUS
 10
8.3959968735
 20
12.6640195153
 11
8.3779968735
 21
12.6640195153
  0
LINE
  5
470
100
AcDbEntity
  8
02___PRT_ALL_AXES
100
AcDbLine
 62
7
  6
CONTINUOUS
 10
8.5129968735
 20
12.712405342
 11
11.2589968735
 21
12.712405342
  0
LINE
  5
471
100
AcDbEntity
  8
0
100
AcDbLine
 62
7
  6
CONTINUOUS
 10
7.7959968735
 20
14.3890195153
 11
7.7959968735
 21
14.3590195153
  0
LINE
  5
472
100
AcDbEntity
  8
0
100
AcDbLine
 62
7
  6
CONTINUOUS
 10
7.7959968735
 20
11.2390195153
 11
7.7959968735
 21
11.2090195153
  0
LINE
  5
473
100
AcDbEntity
  8
0
100
AcDbLine
 62
7
  6
CONTINUOUS
 10
7.8309968735
 20
14.4240195153
 11
7.8309968735
 21
14.3890195153
  0
LINE
  5
474
100
AcDbEntity
  8
0
100
AcDbLine
 62
7
  6
CONTINUOUS
 10
7.8309968735
 20
14.3590195153
 11
7.8309968735
 21
14.3240195153
  0
LINE
  5
475
100
AcDbEntity
  8
0
100
AcDbLine
 62
7
  6
CONTINUOUS
 10
7.8309968735
 20
11.2740195153
 11
7.8309968735
 21
11.2390195153
  0
LINE
  5
476
100
AcDbEntity
  8
0
100
AcDbLine
 62
7
  6
CONTINUOUS
 10
7.8309968735
 20
11.2090195153
 11
7.8309968735
 21
11.1740195153
  0
LINE
  5
477
100
AcDbEntity
  8
0
100
AcDbLine
 62
7
  6
CONTINUOUS
 10
7.8609968735
 20
11.1740195153
 11
7.8609968735
 21
11.2090195153
  0
LINE
  5
478
100
AcDbEntity
  8
0
100
AcDbLine
 62
7
  6
CONTINUOUS
 10
7.8609968735
 20
11.2390195153
 11
7.8609968735
 21
11.2740195153
  0
LINE
  5
479
100
AcDbEntity
  8
0
100
AcDbLine
 62
7
  6
CONTINUOUS
 10
7.8609968735
 20
14.3240195153
 11
7.8609968735
 21
14.3590195153
  0
LINE
  5
47A
100
AcDbEntity
  8
0
100
AcDbLine
 62
7
  6
CONTINUOUS
 10
7.8609968735
 20
14.3890195153
 11
7.8609968735
 21
14.4240195153
  0
LINE
  5
47B
100
AcDbEntity
  8
0
100
AcDbLine
 62
7
  6
CONTINUOUS
 10
7.8959968735
 20
11.2090195153
 11
7.8959968735
 21
11.2390195153
  0
LINE
  5
47C
100
AcDbEntity
  8
0
100
AcDbLine
 62
7
  6
CONTINUOUS
 10
7.8959968735
 20
14.3590195153
 11
7.8959968735
 21
14.3890195153
  0
LINE
  5
47D
100
AcDbEntity
  8
02___PRT_ALL_AXES
100
AcDbLine
 62
7
  6
CONTINUOUS
 10
8.5129968735
 20
12.8856336885
 11
11.2589968735
 21
12.8856336885
  0
LINE
  5
47E
100
AcDbEntity
  8
AXIS_COSMETIC_THREADS
100
AcDbLine
 62
7
  6
CONTINUOUS
 10
8.3959968735
 20
12.9340195153
 11
8.3779968735
 21
12.9340195153
  0
LINE
  5
47F
100
AcDbEntity
  8
AXIS_COSMETIC_THREADS
100
AcDbLine
 62
7
  6
CONTINUOUS
 10
8.4529968735
 20
12.9990195153
 11
8.4439968735
 21
12.9990195153
  0
LINE
  5
480
100
AcDbEntity
  8
AXIS_COSMETIC_THREADS
100
AcDbLine
 62
7
  6
CONTINUOUS
 10
8.3779968735
 20
12.9990195153
 11
8.3709968735
 21
12.9990195153
  0
LINE
  5
481
100
AcDbEntity
  8
SURFACE
100
AcDbLine
 62
7
  6
CONTINUOUS
 10
8.3539968735
 20
14.5740195153
 11
8.3539968735
 21
14.5490195153
  0
LINE
  5
482
100
AcDbEntity
  8
SURFACE
100
AcDbLine
 62
7
  6
CONTINUOUS
 10
8.3539968735
 20
11.0240195153
 11
8.3539968735
 21
11.0490195153
  0
LINE
  5
483
100
AcDbEntity
  8
0
100
AcDbLine
 62
7
  6
CONTINUOUS
 10
8.3709968735
 20
11.0490195153
 11
8.3709968735
 21
14.5490195153
  0
LINE
  5
484
100
AcDbEntity
  8
AXIS_COSMETIC_THREADS
100
AcDbLine
 62
7
  6
CONTINUOUS
 10
8.3779968735
 20
12.5990201602
 11
8.3779968735
 21
12.9990188703
  0
LINE
  5
485
100
AcDbEntity
  8
SURFACE
100
AcDbLine
 62
7
  6
CONTINUOUS
 10
8.3959968735
 20
14.5740195153
 11
8.3959968735
 21
11.0240195153
  0
LINE
  5
486
100
AcDbEntity
  8
SURFACE
100
AcDbLine
 62
7
  6
CONTINUOUS
 10
8.4439968735
 20
10.9760195153
 11
8.4439968735
 21
14.6220195153
  0
LINE
  5
487
100
AcDbEntity
  8
AXIS_COSMETIC_THREADS
100
AcDbLine
 62
7
  6
CONTINUOUS
 10
8.4529968735
 20
12.5990195153
 11
8.4529968735
 21
12.9990195153
  0
LINE
  5
488
100
AcDbEntity
  8
AXIS_COSMETIC_THREADS
100
AcDbLine
 62
7
  6
CONTINUOUS
 10
8.5129968735
 20
12.6590195153
 11
8.5129968735
 21
12.9390195153
  0
LINE
  5
489
100
AcDbEntity
  8
0
100
AcDbLine
 62
7
  6
CONTINUOUS
 10
4.6809968735
 20
14.3240195153
 11
4.7109968735
 21
14.3240195153
  0
LINE
  5
48A
100
AcDbEntity
  8
0
100
AcDbLine
 62
7
  6
CONTINUOUS
 10
7.8309968735
 20
14.3240195153
 11
7.8609968735
 21
14.3240195153
  0
LINE
  5
48B
100
AcDbEntity
  8
0
100
AcDbLine
 62
7
  6
CONTINUOUS
 10
4.6459968735
 20
14.3590195153
 11
4.6809968735
 21
14.3590195153
  0
LINE
  5
48C
100
AcDbEntity
  8
0
100
AcDbLine
 62
7
  6
CONTINUOUS
 10
4.7109968735
 20
14.3590195153
 11
4.7459968735
 21
14.3590195153
  0
LINE
  5
48D
100
AcDbEntity
  8
0
100
AcDbLine
 62
7
  6
CONTINUOUS
 10
7.7959968735
 20
14.3590195153
 11
7.8309968735
 21
14.3590195153
  0
LINE
  5
48E
100
AcDbEntity
  8
0
100
AcDbLine
 62
7
  6
CONTINUOUS
 10
7.8609968735
 20
14.3590195153
 11
7.8959968735
 21
14.3590195153
  0
LINE
  5
48F
100
AcDbEntity
  8
0
100
AcDbLine
 62
7
  6
CONTINUOUS
 10
7.8959968735
 20
14.3890195153
 11
7.8609968735
 21
14.3890195153
  0
LINE
  5
490
100
AcDbEntity
  8
0
100
AcDbLine
 62
7
  6
CONTINUOUS
 10
7.8309968735
 20
14.3890195153
 11
7.7959968735
 21
14.3890195153
  0
LINE
  5
491
100
AcDbEntity
  8
0
100
AcDbLine
 62
7
  6
CONTINUOUS
 10
4.7459968735
 20
14.3890195153
 11
4.7109968735
 21
14.3890195153
  0
LINE
  5
492
100
AcDbEntity
  8
0
100
AcDbLine
 62
7
  6
CONTINUOUS
 10
4.6809968735
 20
14.3890195153
 11
4.6459968735
 21
14.3890195153
  0
LINE
  5
493
100
AcDbEntity
  8
0
100
AcDbLine
 62
7
  6
CONTINUOUS
 10
7.8609968735
 20
14.4240195153
 11
7.8309968735
 21
14.4240195153
  0
LINE
  5
494
100
AcDbEntity
  8
0
100
AcDbLine
 62
7
  6
CONTINUOUS
 10
4.7109968735
 20
14.4240195153
 11
4.6809968735
 21
14.4240195153
  0
LINE
  5
495
100
AcDbEntity
  8
0
100
AcDbLine
 62
7
  6
CONTINUOUS
 10
8.3709968735
 20
14.5490195153
 11
4.1709968735
 21
14.5490195153
  0
LINE
  5
496
100
AcDbEntity
  8
SURFACE
100
AcDbLine
 62
7
  6
CONTINUOUS
 10
4.0979968735
 20
14.5740195153
 11
8.4439968735
 21
14.5740195153
  0
LINE
  5
497
100
AcDbEntity
  8
SURFACE
100
AcDbLine
 62
7
  6
CONTINUOUS
 10
4.0979968735
 20
14.6220195153
 11
8.4439968735
 21
14.6220195153
  0
LINE
  5
498
100
AcDbEntity
  8
02___PRT_ALL_AXES
100
AcDbLine
 62
7
  6
CONTINUOUS
 10
11.2589968735
 20
12.8856336885
 11
11.2589968735
 21
12.712405342
  0
LINE
  5
499
100
AcDbEntity
  8
SURFACE
100
AcDbLine
 62
7
  6
CONTINUOUS
 10
15.3360511033
 20
8.2565330817
 11
15.3360511033
 21
9.1575330817
  0
LINE
  5
49A
100
AcDbEntity
  8
SURFACE
100
AcDbLine
 62
7
  6
CONTINUOUS
 10
15.3840511033
 20
8.2705330817
 11
15.3840511033
 21
8.1725330817
  0
LINE
  5
49B
100
AcDbEntity
  8
SURFACE
100
AcDbLine
 62
7
  6
CONTINUOUS
 10
15.3840511033
 20
8.2705330817
 11
15.3840511033
 21
9.1575330817
  0
LINE
  5
49C
100
AcDbEntity
  8
SURFACE
100
AcDbLine
 62
7
  6
CONTINUOUS
 10
15.3840511033
 20
8.2139692027
 11
15.3658056375
 21
8.1923970587
  0
LINE
  5
49D
100
AcDbEntity
  8
SURFACE
100
AcDbLine
 62
7
  6
CONTINUOUS
 10
15.3840511033
 20
8.1725330817
 11
18.9340511033
 21
8.1725330817
  0
LINE
  5
49E
100
AcDbEntity
  8
SURFACE
100
AcDbLine
 62
7
  6
CONTINUOUS
 10
15.3840511033
 20
8.2565330817
 11
15.3360511033
 21
8.2565330817
  0
LINE
  5
49F
100
AcDbEntity
  8
SURFACE
100
AcDbLine
 62
7
  6
CONTINUOUS
 10
18.9340511033
 20
8.2565330817
 11
18.9820511033
 21
8.2565330817
  0
LINE
  5
4A0
100
AcDbEntity
  8
SURFACE
100
AcDbLine
 62
7
  6
CONTINUOUS
 10
15.3840511033
 20
8.2625330817
 11
18.9340511033
 21
8.2625330817
  0
LINE
  5
4A1
100
AcDbEntity
  8
SURFACE
100
AcDbLine
 62
7
  6
CONTINUOUS
 10
15.3840511033
 20
8.2705330817
 11
15.3360511033
 21
8.2705330817
  0
LINE
  5
4A2
100
AcDbEntity
  8
SURFACE
100
AcDbLine
 62
7
  6
CONTINUOUS
 10
18.9340511033
 20
8.2705330817
 11
18.9820511033
 21
8.2705330817
  0
LINE
  5
4A3
100
AcDbEntity
  8
AXIS_COSMETIC_THREADS
100
AcDbLine
 62
7
  6
CENTER
 10
17.1590511033
 20
8.6125330817
 11
17.1590511033
 21
8.3125330817
  0
LINE
  5
4A4
100
AcDbEntity
  8
AXIS_COSMETIC_THREADS
100
AcDbLine
 62
7
  6
CENTER
 10
17.1590511033
 20
8.6125330817
 11
17.1590511033
 21
8.9125330817
  0
LINE
  5
4A5
100
AcDbEntity
  8
AXIS_COSMETIC_THREADS
100
AcDbLine
 62
7
  6
CENTER
 10
17.1590511033
 20
8.6125330817
 11
16.8590511033
 21
8.6125330817
  0
LINE
  5
4A6
100
AcDbEntity
  8
AXIS_COSMETIC_THREADS
100
AcDbLine
 62
7
  6
CENTER
 10
17.1590511033
 20
8.6125330817
 11
17.4590511033
 21
8.6125330817
  0
LINE
  5
4A7
100
AcDbEntity
  8
SURFACE
100
AcDbLine
 62
7
  6
CONTINUOUS
 10
15.3360511033
 20
9.1575330817
 11
18.9820511033
 21
9.1575330817
  0
LINE
  5
4A8
100
AcDbEntity
  8
AXIS_COSMETIC_THREADS
100
AcDbLine
 62
7
  6
CONTINUOUS
 10
15.5105719457
 20
9.1675330817
 11
15.6575302609
 21
9.1675330817
  0
LINE
  5
4A9
100
AcDbEntity
  8
AXIS_COSMETIC_THREADS
100
AcDbLine
 62
7
  6
CONTINUOUS
 10
18.6605719457
 20
9.1675330817
 11
18.8075302609
 21
9.1675330817
  0
LINE
  5
4AA
100
AcDbEntity
  8
SURFACE
100
AcDbLine
 62
7
  6
CONTINUOUS
 10
18.9340511033
 20
8.2139692027
 11
18.952296569
 21
8.1923970587
  0
LINE
  5
4AB
100
AcDbEntity
  8
SURFACE
100
AcDbLine
 62
7
  6
CONTINUOUS
 10
18.9340511033
 20
9.1575330817
 11
18.9340511033
 21
8.2705330817
  0
LINE
  5
4AC
100
AcDbEntity
  8
SURFACE
100
AcDbLine
 62
7
  6
CONTINUOUS
 10
18.9340511033
 20
8.1725330817
 11
18.9340511033
 21
8.2705330817
  0
LINE
  5
4AD
100
AcDbEntity
  8
SURFACE
100
AcDbLine
 62
7
  6
CONTINUOUS
 10
18.9820511033
 20
9.1575330817
 11
18.9820511033
 21
8.2565330817
  0
LINE
  5
4AE
100
AcDbEntity
  8
SURFACE
100
AcDbLine
 62
7
  6
CONTINUOUS
 10
15.3821642348
 20
13.9755083807
 11
15.3821642348
 21
13.4323301477
  0
LINE
  5
4AF
100
AcDbEntity
  8
SURFACE
100
AcDbLine
 62
7
  6
CONTINUOUS
 10
15.4298941413
 20
13.4047738968
 11
15.4298941413
 21
13.3962006214
  0
LINE
  5
4B0
100
AcDbEntity
  8
SURFACE
100
AcDbLine
 62
7
  6
CONTINUOUS
 10
15.4553498794
 20
13.3601966892
 11
15.4553498794
 21
13.3594577586
  0
LINE
  5
4B1
100
AcDbEntity
  8
AXIS_COSMETIC_THREADS
100
AcDbLine
 62
7
  6
CONTINUOUS
 10
15.7486992603
 20
13.8407888583
 11
15.7486992603
 21
13.8285413221
  0
LINE
  5
4B2
100
AcDbEntity
  8
0
100
AcDbLine
 62
7
  6
CONTINUOUS
 10
15.8122625638
 20
13.8943713581
 11
15.8122625638
 21
13.8760005241
  0
LINE
  5
4B3
100
AcDbEntity
  8
0
100
AcDbLine
 62
7
  6
CONTINUOUS
 10
15.8149143577
 20
13.8744695448
 11
15.8149143577
 21
13.8560985579
  0
LINE
  5
4B4
100
AcDbEntity
  8
0
100
AcDbLine
 62
7
  6
CONTINUOUS
 10
15.830824194
 20
13.8836550383
 11
15.830824194
 21
13.8652841278
  0
LINE
  5
4B5
100
AcDbEntity
  8
0
100
AcDbLine
 62
7
  6
CONTINUOUS
 10
15.8467341629
 20
13.8744696213
 11
15.8467341629
 21
13.8560987873
  0
LINE
  5
4B6
100
AcDbEntity
  8
0
100
AcDbLine
 62
7
  6
CONTINUOUS
 10
15.8493856698
 20
13.8943714473
 11
15.8493856698
 21
13.8760004604
  0
LINE
  5
4B7
100
AcDbEntity
  8
AXIS_COSMETIC_THREADS
100
AcDbLine
 62
7
  6
CONTINUOUS
 10
15.9129492603
 20
13.8407888583
 11
15.9129492603
 21
13.8285413221
  0
LINE
  5
4B8
100
AcDbEntity
  8
SURFACE
100
AcDbLine
 62
7
  6
CONTINUOUS
 10
15.3821642348
 20
13.9755083807
 11
17.3157396777
 21
15.0918520195
  0
LINE
  5
4B9
100
AcDbEntity
  8
SURFACE
100
AcDbLine
 62
7
  6
CONTINUOUS
 10
15.4330759231
 20
13.9755085031
 11
17.3157398897
 21
15.0624585628
  0
LINE
  5
4BA
100
AcDbEntity
  8
0
100
AcDbLine
 62
7
  6
CONTINUOUS
 10
17.3157400001
 20
15.0073449779
 11
15.4808064252
 21
13.9479519082
  0
LINE
  5
4BB
100
AcDbEntity
  8
SURFACE
100
AcDbLine
 62
7
  6
CONTINUOUS
 10
17.6522882198
 20
12.0918272025
 11
17.6550381365
 21
12.0904873065
  0
LINE
  5
4BC
100
AcDbEntity
  8
0
100
AcDbLine
 62
7
  6
CONTINUOUS
 10
17.4827953792
 20
14.8588481716
 11
17.4668855428
 21
14.8496626781
  0
LINE
  5
4BD
100
AcDbEntity
  8
0
100
AcDbLine
 62
7
  6
CONTINUOUS
 10
15.8122625638
 20
13.8943713581
 11
15.7963527274
 21
13.8851858646
  0
LINE
  5
4BE
100
AcDbEntity
  8
0
100
AcDbLine
 62
7
  6
CONTINUOUS
 10
17.5199184852
 20
14.8588482608
 11
17.5013570095
 21
14.8481318518
  0
LINE
  5
4BF
100
AcDbEntity
  8
0
100
AcDbLine
 62
7
  6
CONTINUOUS
 10
17.4854471731
 20
14.8389463583
 11
17.4668856974
 21
14.8282299493
  0
LINE
  5
4C0
100
AcDbEntity
  8
0
100
AcDbLine
 62
7
  6
CONTINUOUS
 10
15.8493856698
 20
13.8943714473
 11
15.830824194
 21
13.8836550383
  0
LINE
  5
4C1
100
AcDbEntity
  8
0
100
AcDbLine
 62
7
  6
CONTINUOUS
 10
15.8149143577
 20
13.8744695448
 11
15.796352882
 21
13.8637531358
  0
LINE
  5
4C2
100
AcDbEntity
  8
0
100
AcDbLine
 62
7
  6
CONTINUOUS
 10
15.8122628508
 20
13.8545677188
 11
15.8308243265
 21
13.8652841278
  0
LINE
  5
4C3
100
AcDbEntity
  8
0
100
AcDbLine
 62
7
  6
CONTINUOUS
 10
15.8467341629
 20
13.8744696213
 11
15.8652956386
 21
13.8851860303
  0
LINE
  5
4C4
100
AcDbEntity
  8
0
100
AcDbLine
 62
7
  6
CONTINUOUS
 10
17.4827956662
 20
14.8190445323
 11
17.5013571419
 21
14.8297609413
  0
LINE
  5
4C5
100
AcDbEntity
  8
0
100
AcDbLine
 62
7
  6
CONTINUOUS
 10
17.5172669783
 20
14.8389464348
 11
17.535828454
 21
14.8496628438
  0
LINE
  5
4C6
100
AcDbEntity
  8
0
100
AcDbLine
 62
7
  6
CONTINUOUS
 10
17.5172669783
 20
14.8328223492
 11
17.5066608315
 21
14.826698924
  0
LINE
  5
4C7
100
AcDbEntity
  8
0
100
AcDbLine
 62
7
  6
CONTINUOUS
 10
15.8467341629
 20
13.8683455357
 11
15.836128016
 21
13.8622221105
  0
LINE
  5
4C8
100
AcDbEntity
  8
0
100
AcDbLine
 62
7
  6
CONTINUOUS
 10
15.8493859568
 20
13.854567808
 11
15.8652957931
 21
13.8637533015
  0
LINE
  5
4C9
100
AcDbEntity
  8
0
100
AcDbLine
 62
7
  6
CONTINUOUS
 10
17.5199187722
 20
14.8190446215
 11
17.5358286086
 21
14.828230115
  0
LINE
  5
4CA
100
AcDbEntity
  8
SURFACE
100
AcDbLine
 62
7
  6
CONTINUOUS
 10
15.4429422175
 20
13.3673600941
 11
17.6523065537
 21
12.0918118566
  0
LINE
  5
4CB
100
AcDbEntity
  8
SURFACE
100
AcDbLine
 62
7
  6
CONTINUOUS
 10
15.4298941413
 20
13.3962006214
 11
17.6392584775
 21
12.1206523839
  0
LINE
  5
4CC
100
AcDbEntity
  8
SURFACE
100
AcDbLine
 62
7
  6
CONTINUOUS
 10
15.3821642348
 20
13.4323301477
 11
15.4298941413
 21
13.4047738968
  0
LINE
  5
4CD
100
AcDbEntity
  8
SURFACE
100
AcDbLine
 62
7
  6
CONTINUOUS
 10
17.6392584775
 20
12.1292256593
 11
17.6869883839
 21
12.1016694083
  0
LINE
  5
4CE
100
AcDbEntity
  8
SURFACE
100
AcDbLine
 62
7
  6
CONTINUOUS
 10
17.7082013904
 20
12.1139166702
 11
17.7124441221
 21
12.1114671834
  0
LINE
  5
4CF
100
AcDbEntity
  8
SURFACE
100
AcDbLine
 62
7
  6
CONTINUOUS
 10
15.4559898212
 20
13.359827227
 11
15.4553498794
 21
13.3594577586
  0
LINE
  5
4D0
100
AcDbEntity
  8
SURFACE
100
AcDbLine
 62
7
  6
CONTINUOUS
 10
17.6869883839
 20
12.6448476413
 11
15.3821642348
 21
13.9755083807
  0
LINE
  5
4D1
100
AcDbEntity
  8
SURFACE
100
AcDbLine
 62
7
  6
CONTINUOUS
 10
17.7124441221
 20
12.6595444309
 11
15.407619973
 21
13.9902051702
  0
LINE
  5
4D2
100
AcDbEntity
  8
0
100
AcDbLine
 62
7
  6
CONTINUOUS
 10
15.796352882
 20
13.8637531358
 11
15.8122628508
 21
13.8545677188
  0
LINE
  5
4D3
100
AcDbEntity
  8
0
100
AcDbLine
 62
7
  6
CONTINUOUS
 10
17.4668996076
 20
12.8992843532
 11
17.4828095765
 21
12.8900989362
  0
LINE
  5
4D4
100
AcDbEntity
  8
0
100
AcDbLine
 62
7
  6
CONTINUOUS
 10
17.4960672302
 20
12.8977532005
 11
17.4854610834
 21
12.9038765237
  0
LINE
  5
4D5
100
AcDbEntity
  8
0
100
AcDbLine
 62
7
  6
CONTINUOUS
 10
15.8255205045
 20
13.862221983
 11
15.8149143577
 21
13.8683453062
  0
LINE
  5
4D6
100
AcDbEntity
  8
0
100
AcDbLine
 62
7
  6
CONTINUOUS
 10
15.7963527274
 20
13.8851858646
 11
15.8149143577
 21
13.8744695448
  0
LINE
  5
4D7
100
AcDbEntity
  8
0
100
AcDbLine
 62
7
  6
CONTINUOUS
 10
15.8308243265
 20
13.8652841278
 11
15.8493859568
 21
13.854567808
  0
LINE
  5
4D8
100
AcDbEntity
  8
0
100
AcDbLine
 62
7
  6
CONTINUOUS
 10
17.4668994531
 20
12.920717082
 11
17.4854610834
 21
12.9100007622
  0
LINE
  5
4D9
100
AcDbEntity
  8
0
100
AcDbLine
 62
7
  6
CONTINUOUS
 10
17.5013710522
 20
12.9008153453
 11
17.5199326825
 21
12.8900990255
  0
LINE
  5
4DA
100
AcDbEntity
  8
0
100
AcDbLine
 62
7
  6
CONTINUOUS
 10
17.5358425188
 20
12.8992845189
 11
17.5172808885
 21
12.9100008387
  0
LINE
  5
4DB
100
AcDbEntity
  8
0
100
AcDbLine
 62
7
  6
CONTINUOUS
 10
17.5013709197
 20
12.9191862557
 11
17.4828092894
 21
12.9299025755
  0
LINE
  5
4DC
100
AcDbEntity
  8
0
100
AcDbLine
 62
7
  6
CONTINUOUS
 10
15.8652957931
 20
13.8637533015
 11
15.8467341629
 21
13.8744696213
  0
LINE
  5
4DD
100
AcDbEntity
  8
0
100
AcDbLine
 62
7
  6
CONTINUOUS
 10
15.830824194
 20
13.8836550383
 11
15.8122625638
 21
13.8943713581
  0
LINE
  5
4DE
100
AcDbEntity
  8
0
100
AcDbLine
 62
7
  6
CONTINUOUS
 10
17.5358423642
 20
12.9207172478
 11
17.5199323954
 21
12.9299026647
  0
LINE
  5
4DF
100
AcDbEntity
  8
0
100
AcDbLine
 62
7
  6
CONTINUOUS
 10
15.8652956386
 20
13.8851860303
 11
15.8493856698
 21
13.8943714473
  0
LINE
  5
4E0
100
AcDbEntity
  8
SURFACE
100
AcDbLine
 62
7
  6
CONTINUOUS
 10
17.3157398897
 20
15.0624585628
 11
17.3157398897
 21
15.0073449779
  0
LINE
  5
4E1
100
AcDbEntity
  8
AXIS_COSMETIC_THREADS
100
AcDbLine
 62
7
  6
CONTINUOUS
 10
17.4192320757
 20
14.8052656719
 11
17.4192320757
 21
14.7930181356
  0
LINE
  5
4E2
100
AcDbEntity
  8
AXIS_COSMETIC_THREADS
100
AcDbLine
 62
7
  6
CONTINUOUS
 10
17.4192459859
 20
12.8763200758
 11
17.4192459859
 21
12.8640725395
  0
LINE
  5
4E3
100
AcDbEntity
  8
0
100
AcDbLine
 62
7
  6
CONTINUOUS
 10
17.4827953792
 20
14.8588481716
 11
17.4827953792
 21
14.8404773376
  0
LINE
  5
4E4
100
AcDbEntity
  8
0
100
AcDbLine
 62
7
  6
CONTINUOUS
 10
17.4828092894
 20
12.9299025755
 11
17.4828092894
 21
12.9115317416
  0
LINE
  5
4E5
100
AcDbEntity
  8
0
100
AcDbLine
 62
7
  6
CONTINUOUS
 10
17.4854471731
 20
14.8389463583
 11
17.4854471731
 21
14.8205753714
  0
LINE
  5
4E6
100
AcDbEntity
  8
0
100
AcDbLine
 62
7
  6
CONTINUOUS
 10
17.4854610834
 20
12.9100007622
 11
17.4854610834
 21
12.8916297753
  0
LINE
  5
4E7
100
AcDbEntity
  8
0
100
AcDbLine
 62
7
  6
CONTINUOUS
 10
17.5013570095
 20
14.8481318518
 11
17.5013570095
 21
14.8297609413
  0
LINE
  5
4E8
100
AcDbEntity
  8
0
100
AcDbLine
 62
7
  6
CONTINUOUS
 10
17.5013709197
 20
12.9191862557
 11
17.5013709197
 21
12.9008153453
  0
LINE
  5
4E9
100
AcDbEntity
  8
0
100
AcDbLine
 62
7
  6
CONTINUOUS
 10
17.5172669783
 20
14.8389464348
 11
17.5172669783
 21
14.8205756008
  0
LINE
  5
4EA
100
AcDbEntity
  8
0
100
AcDbLine
 62
7
  6
CONTINUOUS
 10
17.5172808885
 20
12.9100008387
 11
17.5172808885
 21
12.8916300048
  0
LINE
  5
4EB
100
AcDbEntity
  8
0
100
AcDbLine
 62
7
  6
CONTINUOUS
 10
17.5199184852
 20
14.8588482608
 11
17.5199184852
 21
14.8404772739
  0
LINE
  5
4EC
100
AcDbEntity
  8
0
100
AcDbLine
 62
7
  6
CONTINUOUS
 10
17.5199323954
 20
12.9299026647
 11
17.5199323954
 21
12.9115316778
  0
LINE
  5
4ED
100
AcDbEntity
  8
AXIS_COSMETIC_THREADS
100
AcDbLine
 62
7
  6
CONTINUOUS
 10
17.5834820757
 20
14.8052656719
 11
17.5834820757
 21
14.7930181356
  0
LINE
  5
4EE
100
AcDbEntity
  8
AXIS_COSMETIC_THREADS
100
AcDbLine
 62
7
  6
CONTINUOUS
 10
17.5834959859
 20
12.8763200758
 11
17.5834959859
 21
12.8640725395
  0
LINE
  5
4EF
100
AcDbEntity
  8
AXIS_COSMETIC_THREADS
100
AcDbLine
 62
7
  6
CONTINUOUS
 10
18.5835503685
 20
12.7366139274
 11
18.5787773779
 21
12.7393695525
  0
LINE
  5
4F0
100
AcDbEntity
  8
02___PRT_ALL_AXES
100
AcDbLine
 62
7
  6
CONTINUOUS
 10
18.6488119343
 20
12.7971304483
 11
20.1141817487
 21
11.9511179308
  0
LINE
  5
4F1
100
AcDbEntity
  8
SURFACE
100
AcDbLine
 62
7
  6
CONTINUOUS
 10
17.6392584775
 20
12.1206523839
 11
17.6392584775
 21
12.1292256593
  0
LINE
  5
4F2
100
AcDbEntity
  8
SURFACE
100
AcDbLine
 62
7
  6
CONTINUOUS
 10
17.6647142156
 20
12.1133036082
 11
17.6647142156
 21
12.0839095211
  0
LINE
  5
4F3
100
AcDbEntity
  8
SURFACE
100
AcDbLine
 62
7
  6
CONTINUOUS
 10
17.6869883839
 20
12.1016694083
 11
17.6869883839
 21
12.6448476413
  0
LINE
  5
4F4
100
AcDbEntity
  8
SURFACE
100
AcDbLine
 62
7
  6
CONTINUOUS
 10
17.7124441221
 20
12.1163661979
 11
17.7124441221
 21
12.1114671834
  0
LINE
  5
4F5
100
AcDbEntity
  8
SURFACE
100
AcDbLine
 62
7
  6
CONTINUOUS
 10
17.7124441221
 20
12.1163661979
 11
17.7124441221
 21
12.6595444309
  0
LINE
  5
4F6
100
AcDbEntity
  8
02___PRT_ALL_AXES
100
AcDbLine
 62
7
  6
CONTINUOUS
 10
18.7140315398
 20
12.9094960435
 11
20.1791412765
 21
12.0636336787
  0
LINE
  5
4F7
100
AcDbEntity
  8
AXIS_COSMETIC_THREADS
100
AcDbLine
 62
7
  6
CONTINUOUS
 10
18.7335478235
 20
12.9964230179
 11
18.7287748328
 21
12.999178643
  0
LINE
  5
4F8
100
AcDbEntity
  8
0
100
AcDbLine
 62
7
  6
CONTINUOUS
 10
19.1533421048
 20
13.894379389
 11
19.1374322685
 21
13.8851938956
  0
LINE
  5
4F9
100
AcDbEntity
  8
0
100
AcDbLine
 62
7
  6
CONTINUOUS
 10
17.4828092894
 20
12.9299025755
 11
17.4668994531
 21
12.920717082
  0
LINE
  5
4FA
100
AcDbEntity
  8
0
100
AcDbLine
 62
7
  6
CONTINUOUS
 10
19.1904652108
 20
13.8943794783
 11
19.1719037351
 21
13.8836630692
  0
LINE
  5
4FB
100
AcDbEntity
  8
0
100
AcDbLine
 62
7
  6
CONTINUOUS
 10
19.1559938988
 20
13.8744775758
 11
19.1374324231
 21
13.8637611667
  0
LINE
  5
4FC
100
AcDbEntity
  8
0
100
AcDbLine
 62
7
  6
CONTINUOUS
 10
17.5199323954
 20
12.9299026647
 11
17.5013709197
 21
12.9191862557
  0
LINE
  5
4FD
100
AcDbEntity
  8
0
100
AcDbLine
 62
7
  6
CONTINUOUS
 10
17.4854610834
 20
12.9100007622
 11
17.4668996076
 21
12.8992843532
  0
LINE
  5
4FE
100
AcDbEntity
  8
0
100
AcDbLine
 62
7
  6
CONTINUOUS
 10
17.4828095765
 20
12.8900989362
 11
17.5013710522
 21
12.9008153453
  0
LINE
  5
4FF
100
AcDbEntity
  8
0
100
AcDbLine
 62
7
  6
CONTINUOUS
 10
17.5172808885
 20
12.9100008387
 11
17.5358423642
 21
12.9207172478
  0
LINE
  5
500
100
AcDbEntity
  8
0
100
AcDbLine
 62
7
  6
CONTINUOUS
 10
19.1533423919
 20
13.8545757497
 11
19.1719038676
 21
13.8652921588
  0
LINE
  5
501
100
AcDbEntity
  8
0
100
AcDbLine
 62
7
  6
CONTINUOUS
 10
19.1878137039
 20
13.8744776522
 11
19.2063751797
 21
13.8851940613
  0
LINE
  5
502
100
AcDbEntity
  8
0
100
AcDbLine
 62
7
  6
CONTINUOUS
 10
19.1878137039
 20
13.8683535667
 11
19.1772075571
 21
13.8622301415
  0
LINE
  5
503
100
AcDbEntity
  8
0
100
AcDbLine
 62
7
  6
CONTINUOUS
 10
17.5172808885
 20
12.9038767531
 11
17.5066747417
 21
12.897753328
  0
LINE
  5
504
100
AcDbEntity
  8
SURFACE
100
AcDbLine
 62
7
  6
CONTINUOUS
 10
17.6647142156
 20
12.1092840408
 11
17.6550381365
 21
12.0904873065
  0
LINE
  5
505
100
AcDbEntity
  8
0
100
AcDbLine
 62
7
  6
CONTINUOUS
 10
17.5199326825
 20
12.8900990255
 11
17.5358425188
 21
12.8992845189
  0
LINE
  5
506
100
AcDbEntity
  8
0
100
AcDbLine
 62
7
  6
CONTINUOUS
 10
19.1904654979
 20
13.854575839
 11
19.2063753342
 21
13.8637613324
  0
LINE
  5
507
100
AcDbEntity
  8
SURFACE
100
AcDbLine
 62
7
  6
CONTINUOUS
 10
19.5696521386
 20
13.7611911577
 11
17.686988172
 21
12.674241098
  0
LINE
  5
508
100
AcDbEntity
  8
SURFACE
100
AcDbLine
 62
7
  6
CONTINUOUS
 10
17.6869883839
 20
12.6448476413
 11
19.6205638268
 21
13.7611912801
  0
LINE
  5
509
100
AcDbEntity
  8
0
100
AcDbLine
 62
7
  6
CONTINUOUS
 10
17.4668856974
 20
14.8282299493
 11
17.4827956662
 21
14.8190445323
  0
LINE
  5
50A
100
AcDbEntity
  8
0
100
AcDbLine
 62
7
  6
CONTINUOUS
 10
19.1374324231
 20
13.8637611667
 11
19.1533423919
 21
13.8545757497
  0
LINE
  5
50B
100
AcDbEntity
  8
SURFACE
100
AcDbLine
 62
7
  6
CONTINUOUS
 10
17.6466832579
 20
12.1249390573
 11
17.6392584775
 21
12.1206523839
  0
LINE
  5
50C
100
AcDbEntity
  8
SURFACE
100
AcDbLine
 62
7
  6
CONTINUOUS
 10
17.6647142156
 20
12.1133036082
 11
17.6657755504
 21
12.1139163664
  0
LINE
  5
50D
100
AcDbEntity
  8
0
100
AcDbLine
 62
7
  6
CONTINUOUS
 10
19.1666000456
 20
13.862230014
 11
19.1559938988
 21
13.8683533372
  0
LINE
  5
50E
100
AcDbEntity
  8
0
100
AcDbLine
 62
7
  6
CONTINUOUS
 10
17.4960533199
 20
14.8266987966
 11
17.4854471731
 21
14.8328221198
  0
LINE
  5
50F
100
AcDbEntity
  8
0
100
AcDbLine
 62
7
  6
CONTINUOUS
 10
17.4668855428
 20
14.8496626781
 11
17.4854471731
 21
14.8389463583
  0
LINE
  5
510
100
AcDbEntity
  8
0
100
AcDbLine
 62
7
  6
CONTINUOUS
 10
17.5013571419
 20
14.8297609413
 11
17.5199187722
 21
14.8190446215
  0
LINE
  5
511
100
AcDbEntity
  8
0
100
AcDbLine
 62
7
  6
CONTINUOUS
 10
19.1374322685
 20
13.8851938956
 11
19.1559938988
 21
13.8744775758
  0
LINE
  5
512
100
AcDbEntity
  8
0
100
AcDbLine
 62
7
  6
CONTINUOUS
 10
19.1719038676
 20
13.8652921588
 11
19.1904654979
 21
13.854575839
  0
LINE
  5
513
100
AcDbEntity
  8
0
100
AcDbLine
 62
7
  6
CONTINUOUS
 10
19.2063753342
 20
13.8637613324
 11
19.1878137039
 21
13.8744776522
  0
LINE
  5
514
100
AcDbEntity
  8
0
100
AcDbLine
 62
7
  6
CONTINUOUS
 10
19.1719037351
 20
13.8836630692
 11
19.1533421048
 21
13.894379389
  0
LINE
  5
515
100
AcDbEntity
  8
0
100
AcDbLine
 62
7
  6
CONTINUOUS
 10
17.5358286086
 20
14.828230115
 11
17.5172669783
 21
14.8389464348
  0
LINE
  5
516
100
AcDbEntity
  8
0
100
AcDbLine
 62
7
  6
CONTINUOUS
 10
17.5013570095
 20
14.8481318518
 11
17.4827953792
 21
14.8588481716
  0
LINE
  5
517
100
AcDbEntity
  8
0
100
AcDbLine
 62
7
  6
CONTINUOUS
 10
19.2063751797
 20
13.8851940613
 11
19.1904652108
 21
13.8943794783
  0
LINE
  5
518
100
AcDbEntity
  8
0
100
AcDbLine
 62
7
  6
CONTINUOUS
 10
17.535828454
 20
14.8496628438
 11
17.5199184852
 21
14.8588482608
  0
LINE
  5
519
100
AcDbEntity
  8
0
100
AcDbLine
 62
7
  6
CONTINUOUS
 10
19.5219217468
 20
13.7336341677
 11
17.3157400001
 21
15.0073449779
  0
LINE
  5
51A
100
AcDbEntity
  8
SURFACE
100
AcDbLine
 62
7
  6
CONTINUOUS
 10
17.2902839395
 20
15.0771552299
 11
19.5951080887
 21
13.7464944906
  0
LINE
  5
51B
100
AcDbEntity
  8
SURFACE
100
AcDbLine
 62
7
  6
CONTINUOUS
 10
17.3157396777
 20
15.0918520195
 11
19.6205638268
 21
13.7611912801
  0
LINE
  5
51C
100
AcDbEntity
  8
AXIS_COSMETIC_THREADS
100
AcDbLine
 62
7
  6
CONTINUOUS
 10
19.0897788014
 20
13.8407968893
 11
19.0897788014
 21
13.828549353
  0
LINE
  5
51D
100
AcDbEntity
  8
0
100
AcDbLine
 62
7
  6
CONTINUOUS
 10
19.1533421048
 20
13.894379389
 11
19.1533421048
 21
13.8760085551
  0
LINE
  5
51E
100
AcDbEntity
  8
SURFACE
100
AcDbLine
 62
7
  6
CONTINUOUS
 10
17.7124441221
 20
12.1163661979
 11
17.6869883839
 21
12.1016694083
  0
LINE
  5
51F
100
AcDbEntity
  8
SURFACE
100
AcDbLine
 62
7
  6
CONTINUOUS
 10
19.5951080887
 20
13.2033162576
 11
19.6205638268
 21
13.2180130471
  0
LINE
  5
520
100
AcDbEntity
  8
SURFACE
100
AcDbLine
 62
7
  6
CONTINUOUS
 10
17.7124441221
 20
12.1114671834
 11
18.7744344246
 21
12.7246039105
  0
LINE
  5
521
100
AcDbEntity
  8
SURFACE
100
AcDbLine
 62
7
  6
CONTINUOUS
 10
18.904356807
 20
12.7996141852
 11
19.5951080887
 21
13.1984172431
  0
LINE
  5
522
100
AcDbEntity
  8
SURFACE
100
AcDbLine
 62
7
  6
CONTINUOUS
 10
17.6984640645
 20
12.0805666323
 11
18.7942053824
 21
12.7131894009
  0
LINE
  5
523
100
AcDbEntity
  8
SURFACE
100
AcDbLine
 62
7
  6
CONTINUOUS
 10
18.9241277648
 20
12.7881996756
 11
19.5811280311
 21
13.167516692
  0
LINE
  5
524
100
AcDbEntity
  8
0
100
AcDbLine
 62
7
  6
CONTINUOUS
 10
19.1559938988
 20
13.8744775758
 11
19.1559938988
 21
13.8561065888
  0
LINE
  5
525
100
AcDbEntity
  8
0
100
AcDbLine
 62
7
  6
CONTINUOUS
 10
19.1719037351
 20
13.8836630692
 11
19.1719037351
 21
13.8652921588
  0
LINE
  5
526
100
AcDbEntity
  8
0
100
AcDbLine
 62
7
  6
CONTINUOUS
 10
19.1878137039
 20
13.8744776522
 11
19.1878137039
 21
13.8561068183
  0
LINE
  5
527
100
AcDbEntity
  8
0
100
AcDbLine
 62
7
  6
CONTINUOUS
 10
19.1904652108
 20
13.8943794783
 11
19.1904652108
 21
13.8760084913
  0
LINE
  5
528
100
AcDbEntity
  8
AXIS_COSMETIC_THREADS
100
AcDbLine
 62
7
  6
CONTINUOUS
 10
19.2540288014
 20
13.8407968893
 11
19.2540288014
 21
13.828549353
  0
LINE
  5
529
100
AcDbEntity
  8
SURFACE
100
AcDbLine
 62
7
  6
CONTINUOUS
 10
19.5951080887
 20
13.7464944906
 11
19.5951080887
 21
13.2033162576
  0
LINE
  5
52A
100
AcDbEntity
  8
SURFACE
100
AcDbLine
 62
7
  6
CONTINUOUS
 10
19.5951080887
 20
13.1984172431
 11
19.5951080887
 21
13.2033162576
  0
LINE
  5
52B
100
AcDbEntity
  8
SURFACE
100
AcDbLine
 62
7
  6
CONTINUOUS
 10
19.6205638268
 20
13.7611912801
 11
19.6205638268
 21
13.2180130471
  0
CIRCLE
  5
52C
100
AcDbEntity
  8
0
100
AcDbCircle
 62
7
  6
CONTINUOUS
 10
15.2229827477
 20
1.1139932523
 40
0.252091
  0
CIRCLE
  5
52D
100
AcDbEntity
  8
0
100
AcDbCircle
 62
7
  6
CONTINUOUS
 10
15.2229827477
 20
1.1139932523
 40
0.182698
  0
CIRCLE
  5
52E
100
AcDbEntity
  8
0
100
AcDbCircle
 62
7
  6
CONTINUOUS
 10
14.8013422688
 20
1.8652439144
 40
0.0638444824
  0
ARC
  5
52F
100
AcDbEntity
  8
SURFACE
100
AcDbCircle
 62
7
  6
CONTINUOUS
 10
8.3539968735
 20
8.2625330817
 40
0.09
100
AcDbArc
 50
270.0
 51
360.0
  0
ARC
  5
530
100
AcDbEntity
  8
SURFACE
100
AcDbCircle
 62
7
  6
CONTINUOUS
 10
4.1879968735
 20
8.2625330817
 40
0.09
100
AcDbArc
 50
180.0
 51
270.0
  0
ARC
  5
531
100
AcDbEntity
  8
AXIS_COSMETIC_THREADS
100
AcDbCircle
 62
7
  6
CONTINUOUS
 10
4.7454968735
 20
9.1125330817
 40
0.06
100
AcDbArc
 50
48.6950506109
 51
66.4435356909
  0
ARC
  5
532
100
AcDbEntity
  8
AXIS_COSMETIC_THREADS
100
AcDbCircle
 62
7
  6
CONTINUOUS
 10
4.6464968735
 20
9.1125330817
 40
0.06
100
AcDbArc
 50
113.5564643091
 51
131.3049493891
  0
ARC
  5
533
100
AcDbEntity
  8
AXIS_COSMETIC_THREADS
100
AcDbCircle
 62
7
  6
CONTINUOUS
 10
7.8954968735
 20
9.1125330817
 40
0.06
100
AcDbArc
 50
48.6950506109
 51
66.4435356909
  0
ARC
  5
534
100
AcDbEntity
  8
AXIS_COSMETIC_THREADS
100
AcDbCircle
 62
7
  6
CONTINUOUS
 10
7.7964968735
 20
9.1125330817
 40
0.06
100
AcDbArc
 50
113.5564643091
 51
131.3049493891
  0
ARC
  5
535
100
AcDbEntity
  8
AXIS_COSMETIC_THREADS
100
AcDbCircle
 62
7
  6
CONTINUOUS
 10
8.4529968735
 20
8.7525330817
 40
0.06
100
AcDbArc
 50
0.0
 51
90.0
  0
ARC
  5
536
100
AcDbEntity
  8
AXIS_COSMETIC_THREADS
100
AcDbCircle
 62
7
  6
CONTINUOUS
 10
8.4529968735
 20
8.4725330817
 40
0.06
100
AcDbArc
 50
270.0
 51
360.0
  0
ARC
  5
537
100
AcDbEntity
  8
SURFACE
100
AcDbCircle
 62
7
  6
CONTINUOUS
 10
8.3539968735
 20
8.2625330817
 40
0.042
100
AcDbArc
 50
270.0
 51
360.0
  0
ARC
  5
538
100
AcDbEntity
  8
SURFACE
100
AcDbCircle
 62
7
  6
CONTINUOUS
 10
4.1879968735
 20
8.2625330817
 40
0.042
100
AcDbArc
 50
180.0
 51
270.0
  0
CIRCLE
  5
539
100
AcDbEntity
  8
AXIS_COSMETIC_THREADS
100
AcDbCircle
 62
7
  6
CONTINUOUS
 10
4.4209968735
 20
3.6740861528
 40
0.16
  0
CIRCLE
  5
53A
100
AcDbEntity
  8
AXIS_COSMETIC_THREADS
100
AcDbCircle
 62
7
  6
CONTINUOUS
 10
4.4209968735
 20
3.6740861528
 40
0.156496063
  0
CIRCLE
  5
53B
100
AcDbEntity
  8
AXIS_COSMETIC_THREADS
100
AcDbCircle
 62
7
  6
CONTINUOUS
 10
4.4209968735
 20
3.6740861528
 40
0.1059055118
  0
CIRCLE
  5
53C
100
AcDbEntity
  8
DEFAULT_2
100
AcDbCircle
 62
7
  6
HIDDEN
 10
4.4209968735
 20
3.6740861528
 40
0.0787401575
  0
CIRCLE
  5
53D
100
AcDbEntity
  8
0
100
AcDbCircle
 62
7
  6
CONTINUOUS
 10
4.6959968735
 20
3.2990861528
 40
0.0754999999
  0
CIRCLE
  5
53E
100
AcDbEntity
  8
0
100
AcDbCircle
 62
7
  6
CONTINUOUS
 10
4.6959968735
 20
3.2990861528
 40
0.065
  0
CIRCLE
  5
53F
100
AcDbEntity
  8
AXIS_COSMETIC_THREADS
100
AcDbCircle
 62
7
  6
CONTINUOUS
 10
4.4209968735
 20
3.6740861528
 40
0.0590551181
  0
CIRCLE
  5
540
100
AcDbEntity
  8
AXIS_COSMETIC_THREADS
100
AcDbCircle
 62
7
  6
CONTINUOUS
 10
4.4209968735
 20
6.0740861528
 40
0.16
  0
CIRCLE
  5
541
100
AcDbEntity
  8
AXIS_COSMETIC_THREADS
100
AcDbCircle
 62
7
  6
CONTINUOUS
 10
4.4209968735
 20
6.0740861528
 40
0.156496063
  0
CIRCLE
  5
542
100
AcDbEntity
  8
AXIS_COSMETIC_THREADS
100
AcDbCircle
 62
7
  6
CONTINUOUS
 10
4.4209968735
 20
6.0740861528
 40
0.1059055118
  0
CIRCLE
  5
543
100
AcDbEntity
  8
DEFAULT_2
100
AcDbCircle
 62
7
  6
HIDDEN
 10
4.4209968735
 20
6.0740861528
 40
0.0787401575
  0
CIRCLE
  5
544
100
AcDbEntity
  8
0
100
AcDbCircle
 62
7
  6
CONTINUOUS
 10
4.6959968735
 20
6.4490861528
 40
0.0754999999
  0
CIRCLE
  5
545
100
AcDbEntity
  8
0
100
AcDbCircle
 62
7
  6
CONTINUOUS
 10
4.6959968735
 20
6.4490861528
 40
0.065
  0
CIRCLE
  5
546
100
AcDbEntity
  8
AXIS_COSMETIC_THREADS
100
AcDbCircle
 62
7
  6
CONTINUOUS
 10
4.4209968735
 20
6.0740861528
 40
0.0590551181
  0
CIRCLE
  5
547
100
AcDbEntity
  8
AXIS_COSMETIC_THREADS
100
AcDbCircle
 62
7
  6
CONTINUOUS
 10
8.1209968735
 20
3.6740861528
 40
0.16
  0
CIRCLE
  5
548
100
AcDbEntity
  8
AXIS_COSMETIC_THREADS
100
AcDbCircle
 62
7
  6
CONTINUOUS
 10
8.1209968735
 20
3.6740861528
 40
0.156496063
  0
CIRCLE
  5
549
100
AcDbEntity
  8
AXIS_COSMETIC_THREADS
100
AcDbCircle
 62
7
  6
CONTINUOUS
 10
8.1209968735
 20
3.6740861528
 40
0.1059055118
  0
CIRCLE
  5
54A
100
AcDbEntity
  8
DEFAULT_2
100
AcDbCircle
 62
7
  6
HIDDEN
 10
8.1209968735
 20
3.6740861528
 40
0.0787401575
  0
CIRCLE
  5
54B
100
AcDbEntity
  8
0
100
AcDbCircle
 62
7
  6
CONTINUOUS
 10
7.8459968735
 20
3.2990861528
 40
0.0754999999
  0
CIRCLE
  5
54C
100
AcDbEntity
  8
0
100
AcDbCircle
 62
7
  6
CONTINUOUS
 10
7.8459968735
 20
3.2990861528
 40
0.065
  0
ARC
  5
54D
100
AcDbEntity
  8
AXIS_COSMETIC_THREADS
100
AcDbCircle
 62
7
  6
CONTINUOUS
 10
8.4529968735
 20
4.7340861528
 40
0.06
100
AcDbArc
 50
270.0
 51
360.0
  0
CIRCLE
  5
54E
100
AcDbEntity
  8
AXIS_COSMETIC_THREADS
100
AcDbCircle
 62
7
  6
CONTINUOUS
 10
8.1209968735
 20
3.6740861528
 40
0.0590551181
  0
CIRCLE
  5
54F
100
AcDbEntity
  8
AXIS_COSMETIC_THREADS
100
AcDbCircle
 62
7
  6
CONTINUOUS
 10
8.1209968735
 20
6.0740861528
 40
0.16
  0
CIRCLE
  5
550
100
AcDbEntity
  8
AXIS_COSMETIC_THREADS
100
AcDbCircle
 62
7
  6
CONTINUOUS
 10
8.1209968735
 20
6.0740861528
 40
0.156496063
  0
CIRCLE
  5
551
100
AcDbEntity
  8
AXIS_COSMETIC_THREADS
100
AcDbCircle
 62
7
  6
CONTINUOUS
 10
8.1209968735
 20
6.0740861528
 40
0.1059055118
  0
CIRCLE
  5
552
100
AcDbEntity
  8
DEFAULT_2
100
AcDbCircle
 62
7
  6
HIDDEN
 10
8.1209968735
 20
6.0740861528
 40
0.0787401575
  0
CIRCLE
  5
553
100
AcDbEntity
  8
0
100
AcDbCircle
 62
7
  6
CONTINUOUS
 10
7.8459968735
 20
6.4490861528
 40
0.0754999999
  0
CIRCLE
  5
554
100
AcDbEntity
  8
0
100
AcDbCircle
 62
7
  6
CONTINUOUS
 10
7.8459968735
 20
6.4490861528
 40
0.065
  0
ARC
  5
555
100
AcDbEntity
  8
AXIS_COSMETIC_THREADS
100
AcDbCircle
 62
7
  6
CONTINUOUS
 10
8.4529968735
 20
5.0140861528
 40
0.06
100
AcDbArc
 50
0.0
 51
90.0
  0
CIRCLE
  5
556
100
AcDbEntity
  8
AXIS_COSMETIC_THREADS
100
AcDbCircle
 62
7
  6
CONTINUOUS
 10
8.1209968735
 20
6.0740861528
 40
0.0590551181
  0
CIRCLE
  5
557
100
AcDbEntity
  8
AXIS_COSMETIC_THREADS
100
AcDbCircle
 62
7
  6
CONTINUOUS
 10
7.8459968735
 20
14.3740195153
 40
0.1095
  0
CIRCLE
  5
558
100
AcDbEntity
  8
AXIS_COSMETIC_THREADS
100
AcDbCircle
 62
7
  6
CONTINUOUS
 10
4.6959968735
 20
14.3740195153
 40
0.1095
  0
CIRCLE
  5
559
100
AcDbEntity
  8
AXIS_COSMETIC_THREADS
100
AcDbCircle
 62
7
  6
CONTINUOUS
 10
7.8459968735
 20
11.2240195153
 40
0.1095
  0
CIRCLE
  5
55A
100
AcDbEntity
  8
AXIS_COSMETIC_THREADS
100
AcDbCircle
 62
7
  6
CONTINUOUS
 10
4.6959968735
 20
11.2240195153
 40
0.1095
  0
CIRCLE
  5
55B
100
AcDbEntity
  8
AXIS_COSMETIC_THREADS
100
AcDbCircle
 62
7
  6
CONTINUOUS
 10
7.8459968735
 20
14.3740195153
 40
0.0734791576
  0
CIRCLE
  5
55C
100
AcDbEntity
  8
AXIS_COSMETIC_THREADS
100
AcDbCircle
 62
7
  6
CONTINUOUS
 10
4.6959968735
 20
14.3740195153
 40
0.0734791576
  0
CIRCLE
  5
55D
100
AcDbEntity
  8
AXIS_COSMETIC_THREADS
100
AcDbCircle
 62
7
  6
CONTINUOUS
 10
7.8459968735
 20
11.2240195153
 40
0.0734791576
  0
CIRCLE
  5
55E
100
AcDbEntity
  8
AXIS_COSMETIC_THREADS
100
AcDbCircle
 62
7
  6
CONTINUOUS
 10
4.6959968735
 20
11.2240195153
 40
0.0734791576
  0
ARC
  5
55F
100
AcDbEntity
  8
AXIS_COSMETIC_THREADS
100
AcDbCircle
 62
7
  6
CONTINUOUS
 10
8.4529968735
 20
12.6590195153
 40
0.06
100
AcDbArc
 50
270.0
 51
360.0
  0
ARC
  5
560
100
AcDbEntity
  8
AXIS_COSMETIC_THREADS
100
AcDbCircle
 62
7
  6
CONTINUOUS
 10
8.4529968735
 20
12.9390195153
 40
0.06
100
AcDbArc
 50
0.0
 51
90.0
  0
CIRCLE
  5
561
100
AcDbEntity
  8
AXIS_COSMETIC_THREADS
100
AcDbCircle
 62
7
  6
CONTINUOUS
 10
17.1590511033
 20
8.6125330817
 40
0.2
  0
CIRCLE
  5
562
100
AcDbEntity
  8
AXIS_COSMETIC_THREADS
100
AcDbCircle
 62
7
  6
CONTINUOUS
 10
17.1590511033
 20
8.6125330817
 40
0.14
  0
CIRCLE
  5
563
100
AcDbEntity
  8
AXIS_COSMETIC_THREADS
100
AcDbCircle
 62
7
  6
CONTINUOUS
 10
17.1590511033
 20
8.6125330817
 40
0.09
  0
CIRCLE
  5
564
100
AcDbEntity
  8
02___PRT_ALL_AXES
100
AcDbCircle
 62
7
  6
CONTINUOUS
 10
17.1590511033
 20
8.6125330817
 40
0.0866141732
  0
ARC
  5
565
100
AcDbEntity
  8
SURFACE
100
AcDbCircle
 62
7
  6
CONTINUOUS
 10
18.8980511033
 20
8.2565330817
 40
0.084
100
AcDbArc
 50
295.4460199192
 51
360.0
  0
ARC
  5
566
100
AcDbEntity
  8
SURFACE
100
AcDbCircle
 62
7
  6
CONTINUOUS
 10
15.4200511033
 20
8.2565330817
 40
0.084
100
AcDbArc
 50
180.0
 51
244.5539800808
  0
ARC
  5
567
100
AcDbEntity
  8
AXIS_COSMETIC_THREADS
100
AcDbCircle
 62
7
  6
CONTINUOUS
 10
18.6845511033
 20
9.1125330817
 40
0.06
100
AcDbArc
 50
113.5564643091
 51
131.3049493891
  0
ARC
  5
568
100
AcDbEntity
  8
AXIS_COSMETIC_THREADS
100
AcDbCircle
 62
7
  6
CONTINUOUS
 10
18.7835511033
 20
9.1125330817
 40
0.06
100
AcDbArc
 50
48.6950506109
 51
66.4435356909
  0
ARC
  5
569
100
AcDbEntity
  8
AXIS_COSMETIC_THREADS
100
AcDbCircle
 62
7
  6
CONTINUOUS
 10
15.5345511033
 20
9.1125330817
 40
0.06
100
AcDbArc
 50
113.5564643091
 51
131.3049493891
  0
ARC
  5
56A
100
AcDbEntity
  8
AXIS_COSMETIC_THREADS
100
AcDbCircle
 62
7
  6
CONTINUOUS
 10
15.6335511033
 20
9.1125330817
 40
0.06
100
AcDbArc
 50
48.6950506109
 51
66.4435356909
  0
ARC
  5
56B
100
AcDbEntity
  8
SURFACE
100
AcDbCircle
 62
7
  6
CONTINUOUS
 10
15.5224238732
 20
13.4532966881
 40
0.1164218425
100
AcDbArc
 50
207.4577127253
 51
211.855825156
  0
ARC
  5
56C
100
AcDbEntity
  8
AXIS_COSMETIC_THREADS
100
AcDbCircle
 62
7
  6
CONTINUOUS
 10
17.4965483293
 20
12.9321878781
 40
0.1150367124
100
AcDbArc
 50
253.6895207593
 51
254.2638708299
  0
ARC
  5
56D
100
AcDbEntity
  8
AXIS_COSMETIC_THREADS
100
AcDbCircle
 62
7
  6
CONTINUOUS
 10
17.496534419
 20
14.861133474
 40
0.1150367122
100
AcDbArc
 50
253.6895207586
 51
254.2638708304
  0
ARC
  5
56E
100
AcDbEntity
  8
AXIS_COSMETIC_THREADS
100
AcDbCircle
 62
7
  6
CONTINUOUS
 10
15.8260016035
 20
13.8966566605
 40
0.1150367121
100
AcDbArc
 50
253.6895207585
 51
254.2638708304
  0
ARC
  5
56F
100
AcDbEntity
  8
AXIS_COSMETIC_THREADS
100
AcDbCircle
 62
7
  6
CONTINUOUS
 10
19.1670811446
 20
13.8966646913
 40
0.115036712
100
AcDbArc
 50
253.6895207579
 51
254.2638708306
  0
ARC
  5
570
100
AcDbEntity
  8
AXIS_COSMETIC_THREADS
100
AcDbCircle
 62
7
  6
CONTINUOUS
 10
18.6086819733
 20
12.7801279815
 40
0.050250049
100
AcDbArc
 50
233.7221522184
 51
239.9913558992
  0
ARC
  5
571
100
AcDbEntity
  8
AXIS_COSMETIC_THREADS
100
AcDbCircle
 62
7
  6
CONTINUOUS
 10
18.7084477143
 20
12.9529348728
 40
0.0502118632
100
AcDbArc
 50
60.0076912323
 51
66.2398219848
  0
SPLINE
  5
572
100
AcDbEntity
  8
AXIS_COSMETIC_THREADS
100
AcDbSpline
 62
7
  6
CONTINUOUS
 70
0
 71
3
 72
11
 73
7
 74
0
 42
0.0000001
 43
0.0000001
 44
0.0000000001
 40
0.0
 40
0.0
 40
0.0
 40
0.0
 40
0.2375217529
 40
0.4838414541
 40
0.7382320154
 40
1.0
 40
1.0
 40
1.0
 40
1.0
 10
17.5594284619
 20
14.7594913636
 30
0.0
 10
17.5578733312
 20
14.7585935139
 30
0.0
 10
17.5546410711
 20
14.7568742581
 30
0.0
 10
17.5495552023
 20
14.7545677752
 30
0.0
 10
17.5441712536
 20
14.7524995194
 30
0.0
 10
17.5404544236
 20
14.7513036809
 30
0.0
 10
17.5385554181
 20
14.7507466598
 30
0.0
  0
SPLINE
  5
573
100
AcDbEntity
  8
AXIS_COSMETIC_THREADS
100
AcDbSpline
 62
7
  6
CONTINUOUS
 70
0
 71
3
 72
16
 73
12
 74
0
 42
0.0000001
 43
0.0000001
 44
0.0000000001
 40
0.0
 40
0.0
 40
0.0
 40
0.0
 40
0.1208848909
 40
0.2451090933
 40
0.3716408248
 40
0.4993818356
 40
0.6272016756
 40
0.7539676257
 40
0.8166176832
 40
0.8785946844
 40
1.0
 40
1.0
 40
1.0
 40
1.0
 10
17.5385554181
 20
14.7507466598
 30
0.0
 10
17.535689605
 20
14.7499060522
 30
0.0
 10
17.5298100713
 20
14.7484286676
 30
0.0
 10
17.5207599357
 20
14.7468382836
 30
0.0
 10
17.5114530729
 20
14.7458578385
 30
0.0
 10
17.5020129339
 20
14.7455005019
 30
0.0
 10
17.4925643157
 20
14.7457709326
 30
0.0
 10
17.4847560138
 20
14.7465193637
 30
0.0
 10
17.4786112988
 20
14.7474314159
 30
0.0
 10
17.4726329609
 20
14.7485343988
 30
0.0
 10
17.4682225983
 20
14.7495947515
 30
0.0
 10
17.4653356068
 20
14.7504082318
 30
0.0
  0
SPLINE
  5
574
100
AcDbEntity
  8
AXIS_COSMETIC_THREADS
100
AcDbSpline
 62
7
  6
CONTINUOUS
 70
0
 71
3
 72
23
 73
19
 74
0
 42
0.0000001
 43
0.0000001
 44
0.0000000001
 40
0.0
 40
0.0
 40
0.0
 40
0.0
 40
0.0787897829
 40
0.1556745202
 40
0.2304768769
 40
0.3030471871
 40
0.3732645526
 40
0.4410431463
 40
0.5063363223
 40
0.5691410164
 40
0.6295052629
 40
0.6875301981
 40
0.7433790021
 40
0.7972758035
 40
0.8495108319
 40
0.900433972
 40
0.950449235
 40
1.0
 40
1.0
 40
1.0
 40
1.0
 10
17.4642272499
 20
14.7507265359
 30
0.0
 10
17.4625648606
 20
14.751213016
 30
0.0
 10
17.4593015776
 20
14.7522491233
 30
0.0
 10
17.4545497707
 20
14.7540133787
 30
0.0
 10
17.4500188136
 20
14.7559622569
 30
0.0
 10
17.4457300641
 20
14.7580863204
 30
0.0
 10
17.441703752
 20
14.760375889
 30
0.0
 10
17.4379587853
 20
14.7628202295
 30
0.0
 10
17.4345127913
 20
14.7654080536
 30
0.0
 10
17.4313821334
 20
14.7681275768
 30
0.0
 10
17.4285815175
 20
14.7709661609
 30
0.0
 10
17.4261246715
 20
14.7739111345
 30
0.0
 10
17.4240232738
 20
14.7769487516
 30
0.0
 10
17.4222883367
 20
14.7800653797
 30
0.0
 10
17.4209285067
 20
14.7832461734
 30
0.0
 10
17.4199516965
 20
14.7864763229
 30
0.0
 10
17.4193631701
 20
14.7897392155
 30
0.0
 10
17.419232077
 20
14.7919302869
 30
0.0
 10
17.4192321061
 20
14.7930196072
 30
0.0
  0
SPLINE
  5
575
100
AcDbEntity
  8
AXIS_COSMETIC_THREADS
100
AcDbSpline
 62
7
  6
CONTINUOUS
 70
0
 71
3
 72
20
 73
16
 74
0
 42
0.0000001
 43
0.0000001
 44
0.0000000001
 40
0.0
 40
0.0
 40
0.0
 40
0.0
 40
0.0752246502
 40
0.1485766399
 40
0.2894315572
 40
0.4225979126
 40
0.5484723996
 40
0.6089213513
 40
0.6678571038
 40
0.725434258
 40
0.7818338421
 40
0.8372587699
 40
0.8919323419
 40
0.9460954852
 40
1.0
 40
1.0
 40
1.0
 40
1.0
 10
17.5594284619
 20
14.7594913636
 30
0.0
 10
17.5603665029
 20
14.7600329386
 30
0.0
 10
17.5621970848
 20
14.7611417555
 30
0.0
 10
17.5656626986
 20
14.7634581758
 30
0.0
 10
17.5696250381
 20
14.7665252831
 30
0.0
 10
17.5737927408
 20
14.7705144635
 30
0.0
 10
17.5767289178
 20
14.7740731654
 30
0.0
 10
17.5786946807
 20
14.7770098077
 30
0.0
 10
17.5799633215
 20
14.779222135
 30
0.0
 10
17.581042335
 20
14.781468469
 30
0.0
 10
17.5819291934
 20
14.7837433682
 30
0.0
 10
17.5826215893
 20
14.7860412929
 30
0.0
 10
17.5831173806
 20
14.7883567314
 30
0.0
 10
17.5834156166
 20
14.7906836316
 30
0.0
 10
17.5834820246
 20
14.7922404963
 30
0.0
 10
17.5834820453
 20
14.7930166639
 30
0.0
  0
SPLINE
  5
576
100
AcDbEntity
  8
AXIS_COSMETIC_THREADS
100
AcDbSpline
 62
7
  6
CONTINUOUS
 70
0
 71
3
 72
21
 73
17
 74
0
 42
0.0000001
 43
0.0000001
 44
0.0000000001
 40
0.0
 40
0.0
 40
0.0
 40
0.0
 40
0.0628240457
 40
0.1255874598
 40
0.1883326154
 40
0.2510469345
 40
0.3136985841
 40
0.3762800029
 40
0.4387856692
 40
0.5012185105
 40
0.5635789955
 40
0.6258782224
 40
0.6881429526
 40
0.7503938523
 40
0.8749507914
 40
1.0
 40
1.0
 40
1.0
 40
1.0
 10
17.4192320757
 20
14.8052656719
 30
0.0
 10
17.4192320757
 20
14.8066612014
 30
0.0
 10
17.4193340302
 20
14.8094519768
 30
0.0
 10
17.4197909178
 20
14.8136139857
 30
0.0
 10
17.4205487048
 20
14.8177295498
 30
0.0
 10
17.4215995239
 20
14.8217775284
 30
0.0
 10
17.4229362298
 20
14.8257364127
 30
0.0
 10
17.4245468754
 20
14.8295868297
 30
0.0
 10
17.4264194803
 20
14.8333113244
 30
0.0
 10
17.4285396004
 20
14.8368948285
 30
0.0
 10
17.430892107
 20
14.8403245491
 30
0.0
 10
17.4334619057
 20
14.8435896395
 30
0.0
 10
17.4362326795
 20
14.8466826789
 30
0.0
 10
17.4401750758
 20
14.8505687881
 30
0.0
 10
17.4455386384
 20
14.8549791148
 30
0.0
 10
17.4502001171
 20
14.8580039394
 30
0.0
 10
17.4526057279
 20
14.8593928112
 30
0.0
  0
SPLINE
  5
577
100
AcDbEntity
  8
AXIS_COSMETIC_THREADS
100
AcDbSpline
 62
7
  6
CONTINUOUS
 70
0
 71
3
 72
35
 73
31
 74
0
 42
0.0000001
 43
0.0000001
 44
0.0000000001
 40
0.0
 40
0.0
 40
0.0
 40
0.0
 40
0.0618795367
 40
0.1245210306
 40
0.1561606702
 40
0.1879947732
 40
0.2521045762
 40
0.3165378835
 40
0.3808736379
 40
0.4128879607
 40
0.4447374757
 40
0.507825668
 40
0.5390725776
 40
0.5701271629
 40
0.6010125748
 40
0.6317633615
 40
0.6624155381
 40
0.6930066643
 40
0.7235716259
 40
0.7541400221
 40
0.784732872
 40
0.8153649736
 40
0.8460414224
 40
0.8614011862
 40
0.8767721222
 40
0.8921534636
 40
0.9075450778
 40
0.9383433233
 40
0.9691582917
 40
1.0
 40
1.0
 40
1.0
 40
1.0
 10
17.4526057279
 20
14.8593928112
 30
0.0
 10
17.4556121507
 20
14.8611285598
 30
0.0
 10
17.4618951783
 20
14.8642300445
 30
0.0
 10
17.4701727965
 20
14.8671569693
 30
0.0
 10
17.4770170422
 20
14.8689615984
 30
0.0
 10
17.4840281128
 20
14.8704167283
 30
0.0
 10
17.4929699975
 20
14.8715572931
 30
0.0
 10
17.5038034798
 20
14.8718510996
 30
0.0
 10
17.5128167258
 20
14.8712023529
 30
0.0
 10
17.5199332326
 20
14.8701425206
 30
0.0
 10
17.5269164376
 20
14.8687305792
 30
0.0
 10
17.5337386367
 20
14.8667781355
 30
0.0
 10
17.540314921
 20
14.8642719223
 30
0.0
 10
17.5450846207
 20
14.8621235228
 30
0.0
 10
17.5496882077
 20
14.8596980158
 30
0.0
 10
17.5541067854
 20
14.8569921877
 30
0.0
 10
17.558319764
 20
14.8540040899
 30
0.0
 10
17.5623037654
 20
14.8507327304
 30
0.0
 10
17.5660336011
 20
14.8471805633
 30
0.0
 10
17.5694810573
 20
14.8433531227
 30
0.0
 10
17.572617385
 20
14.8392615536
 30
0.0
 10
17.5754116449
 20
14.834921782
 30
0.0
 10
17.5774311811
 20
14.8311177587
 30
0.0
 10
17.5788470366
 20
14.827976161
 30
0.0
 10
17.5798070215
 20
14.8255730314
 30
0.0
 10
17.5806615561
 20
14.8231284888
 30
0.0
 10
17.5816562262
 20
14.8198196321
 30
0.0
 10
17.5826232515
 20
14.8156026869
 30
0.0
 10
17.5833252489
 20
14.8104570075
 30
0.0
 10
17.5834820757
 20
14.806995927
 30
0.0
 10
17.5834820757
 20
14.8052656719
 30
0.0
  0
SPLINE
  5
578
100
AcDbEntity
  8
AXIS_COSMETIC_THREADS
100
AcDbSpline
 62
7
  6
CONTINUOUS
 70
0
 71
3
 72
20
 73
16
 74
0
 42
0.0000001
 43
0.0000001
 44
0.0000000001
 40
0.0
 40
0.0
 40
0.0
 40
0.0
 40
0.0752250267
 40
0.1485773061
 40
0.2894325321
 40
0.4225988707
 40
0.5484730782
 40
0.60892183
 40
0.6678573654
 40
0.7254343077
 40
0.7818337109
 40
0.8372585149
 40
0.8919320493
 40
0.9460952688
 40
1.0
 40
1.0
 40
1.0
 40
1.0
 10
17.5594284619
 20
14.7717388999
 30
0.0
 10
17.5603665395
 20
14.772280496
 30
0.0
 10
17.5621971911
 20
14.7733893571
 30
0.0
 10
17.5656629283
 20
14.7757058733
 30
0.0
 10
17.5696253925
 20
14.778773113
 30
0.0
 10
17.5737931953
 20
14.7827624746
 30
0.0
 10
17.5767294083
 20
14.786321343
 30
0.0
 10
17.5786951663
 20
14.7892581214
 30
0.0
 10
17.579963787
 20
14.7914705501
 30
0.0
 10
17.5810427642
 20
14.7937169862
 30
0.0
 10
17.5819295701
 20
14.7959919874
 30
0.0
 10
17.5826218969
 20
14.7982900133
 30
0.0
 10
17.5831176027
 20
14.8006055515
 30
0.0
 10
17.5834157372
 20
14.8029325491
 30
0.0
 10
17.5834820663
 20
14.8044894747
 30
0.0
 10
17.5834820453
 20
14.8052656719
 30
0.0
  0
SPLINE
  5
579
100
AcDbEntity
  8
AXIS_COSMETIC_THREADS
100
AcDbSpline
 62
7
  6
CONTINUOUS
 70
0
 71
3
 72
39
 73
35
 74
0
 42
0.0000001
 43
0.0000001
 44
0.0000000001
 40
0.0
 40
0.0
 40
0.0
 40
0.0
 40
0.0306601343
 40
0.0623884033
 40
0.0951015473
 40
0.1287231547
 40
0.1631613002
 40
0.1983098222
 40
0.2340550241
 40
0.2702770864
 40
0.3068498571
 40
0.3436436284
 40
0.3805261393
 40
0.4173642804
 40
0.454025295
 40
0.4903784661
 40
0.526296467
 40
0.5616567694
 40
0.596343678
 40
0.6302490987
 40
0.6632755321
 40
0.695336674
 40
0.7263604863
 40
0.7562911208
 40
0.7850909342
 40
0.812744523
 40
0.8392599117
 40
0.8646733419
 40
0.8890509179
 40
0.9124913314
 40
0.9351273998
 40
0.9571241649
 40
0.9786762532
 40
1.0
 40
1.0
 40
1.0
 40
1.0
 10
17.5594284619
 20
14.7717388999
 30
0.0
 10
17.5579777518
 20
14.7709013371
 30
0.0
 10
17.5549698171
 20
14.7692924523
 30
0.0
 10
17.5502487365
 20
14.767116042
 30
0.0
 10
17.5452635175
 20
14.7651459571
 30
0.0
 10
17.5400418049
 20
14.7633928149
 30
0.0
 10
17.5346113819
 20
14.7618656642
 30
0.0
 10
17.5290014158
 20
14.7605730503
 30
0.0
 10
17.523242282
 20
14.7595216459
 30
0.0
 10
17.517364999
 20
14.7587173578
 30
0.0
 10
17.5114012916
 20
14.7581643519
 30
0.0
 10
17.5053833539
 20
14.7578656558
 30
0.0
 10
17.4993436753
 20
14.7578229917
 30
0.0
 10
17.4933148662
 20
14.758036358
 30
0.0
 10
17.4873294868
 20
14.7585048907
 30
0.0
 10
17.4814198337
 20
14.7592258034
 30
0.0
 10
17.4756178156
 20
14.7601953566
 30
0.0
 10
17.4699547377
 20
14.7614083232
 30
0.0
 10
17.4644611086
 20
14.7628580224
 30
0.0
 10
17.4591665969
 20
14.7645369253
 30
0.0
 10
17.4540996335
 20
14.7664357234
 30
0.0
 10
17.4492875607
 20
14.7685445071
 30
0.0
 10
17.4447562124
 20
14.7708519035
 30
0.0
 10
17.4405299151
 20
14.7733456281
 30
0.0
 10
17.4366315012
 20
14.7760126974
 30
0.0
 10
17.4330817807
 20
14.7788388203
 30
0.0
 10
17.4299001822
 20
14.7818095542
 30
0.0
 10
17.427103908
 20
14.7849092392
 30
0.0
 10
17.4247085912
 20
14.7881219124
 30
0.0
 10
17.4227280584
 20
14.7914308968
 30
0.0
 10
17.4211738863
 20
14.7948185067
 30
0.0
 10
17.4200563295
 20
14.7982667597
 30
0.0
 10
17.419382417
 20
14.8017553916
 30
0.0
 10
17.4192321376
 20
14.8041006373
 30
0.0
 10
17.4192321061
 20
14.8052656719
 30
0.0
  0
SPLINE
  5
57A
100
AcDbEntity
  8
AXIS_COSMETIC_THREADS
100
AcDbSpline
 62
7
  6
CONTINUOUS
 70
0
 71
3
 72
50
 73
46
 74
0
 42
0.0000001
 43
0.0000001
 44
0.0000000001
 40
0.0
 40
0.0
 40
0.0
 40
0.0
 40
0.0309809554
 40
0.0603641758
 40
0.0881402361
 40
0.1014559969
 40
0.1144078335
 40
0.1270168764
 40
0.1393098536
 40
0.1513196192
 40
0.1630836111
 40
0.1746442736
 40
0.186048431
 40
0.1973460358
 40
0.2085897641
 40
0.219833493
 40
0.2311310983
 40
0.2425352642
 40
0.2540959672
 40
0.2658600561
 40
0.2778699253
 40
0.2901628961
 40
0.3027717283
 40
0.3157234043
 40
0.3290395306
 40
0.3427373136
 40
0.3568283514
 40
0.3862058011
 40
0.4171910672
 40
0.4497342758
 40
0.4837358254
 40
0.5190561151
 40
0.5555227679
 40
0.592936439
 40
0.6310776859
 40
0.6697122807
 40
0.7085958349
 40
0.7474794059
 40
0.7861139749
 40
0.8242550333
 40
0.8616689789
 40
0.8981354647
 40
0.9334537428
 40
0.9674610961
 40
1.0
 40
1.0
 40
1.0
 40
1.0
 10
17.5403254459
 20
14.8164485065
 30
0.0
 10
17.5415683582
 20
14.817166098
 30
0.0
 10
17.5439339361
 20
14.8186655144
 30
0.0
 10
17.5471676948
 20
14.8211684152
 30
0.0
 10
17.5495316147
 20
14.8234311551
 30
0.0
 10
17.5511792563
 20
14.8253179215
 30
0.0
 10
17.5522780654
 20
14.8267464156
 30
0.0
 10
17.5532543407
 20
14.8282046919
 30
0.0
 10
17.5541054879
 20
14.8296893991
 30
0.0
 10
17.5548296145
 20
14.8311968215
 30
0.0
 10
17.5554247237
 20
14.832723441
 30
0.0
 10
17.5558891465
 20
14.8342655683
 30
0.0
 10
17.5562219304
 20
14.835819339
 30
0.0
 10
17.5564219356
 20
14.8373809709
 30
0.0
 10
17.5564885624
 20
14.8389465298
 30
0.0
 10
17.5564219121
 20
14.8405120877
 30
0.0
 10
17.5562218863
 20
14.8420737173
 30
0.0
 10
17.5558890828
 20
14.8436274862
 30
0.0
 10
17.5554246365
 20
14.8451696137
 30
0.0
 10
17.5548294959
 20
14.8466962329
 30
0.0
 10
17.5541053398
 20
14.8482036516
 30
0.0
 10
17.5532541818
 20
14.8496883435
 30
0.0
 10
17.5522779143
 20
14.8511466136
 30
0.0
 10
17.551179119
 20
14.8525750783
 30
0.0
 10
17.5499605877
 20
14.8539704377
 30
0.0
 10
17.548625055
 20
14.8553292327
 30
0.0
 10
17.5466658668
 20
14.8571126853
 30
0.0
 10
17.5439334362
 20
14.8592277734
 30
0.0
 10
17.5402936064
 20
14.8615346439
 30
0.0
 10
17.5362820987
 20
14.8636240661
 30
0.0
 10
17.5319373918
 20
14.8654765764
 30
0.0
 10
17.5273006579
 20
14.8670749067
 30
0.0
 10
17.5224160024
 20
14.8684038039
 30
0.0
 10
17.5173300257
 20
14.8694507668
 30
0.0
 10
17.5120912983
 20
14.8702058854
 30
0.0
 10
17.5067498722
 20
14.8706618153
 30
0.0
 10
17.5013568464
 20
14.8708142361
 30
0.0
 10
17.4959638224
 20
14.8706617898
 30
0.0
 10
17.490622408
 20
14.8702058292
 30
0.0
 10
17.4853836805
 20
14.8694507027
 30
0.0
 10
17.4802977107
 20
14.8684036887
 30
0.0
 10
17.4754131757
 20
14.867074779
 30
0.0
 10
17.4707761797
 20
14.8654764501
 30
0.0
 10
17.4664318222
 20
14.8636238617
 30
0.0
 10
17.4636941205
 20
14.8621979638
 30
0.0
 10
17.4623887055
 20
14.8614442866
 30
0.0
  0
SPLINE
  5
57B
100
AcDbEntity
  8
AXIS_COSMETIC_THREADS
100
AcDbSpline
 62
7
  6
CONTINUOUS
 70
0
 71
3
 72
50
 73
46
 74
0
 42
0.0000001
 43
0.0000001
 44
0.0000000001
 40
0.0
 40
0.0
 40
0.0
 40
0.0
 40
0.0325389039
 40
0.0665462572
 40
0.1018645353
 40
0.1383310211
 40
0.1757449667
 40
0.2138860251
 40
0.2525205941
 40
0.2914041651
 40
0.3302877193
 40
0.3689223141
 40
0.407063561
 40
0.4444772321
 40
0.4809438849
 40
0.5162641746
 40
0.5502657242
 40
0.5828089328
 40
0.6137941989
 40
0.6431716486
 40
0.6572626864
 40
0.6709604694
 40
0.6842765957
 40
0.6972282717
 40
0.7098371039
 40
0.7221300747
 40
0.7341399439
 40
0.7459040328
 40
0.7574647358
 40
0.7688689017
 40
0.780166507
 40
0.7914102359
 40
0.8026539642
 40
0.813951569
 40
0.8253557264
 40
0.8369163889
 40
0.8486803808
 40
0.8606901464
 40
0.8729831236
 40
0.8855921665
 40
0.8985440031
 40
0.9118597639
 40
0.9396358242
 40
0.9690190446
 40
1.0
 40
1.0
 40
1.0
 40
1.0
 10
17.5403254459
 20
14.8164485065
 30
0.0
 10
17.5390200309
 20
14.8156948293
 30
0.0
 10
17.5362823292
 20
14.8142689315
 30
0.0
 10
17.5319379717
 20
14.812416343
 30
0.0
 10
17.5273009757
 20
14.8108180141
 30
0.0
 10
17.5224164407
 20
14.8094891044
 30
0.0
 10
17.5173304709
 20
14.8084420904
 30
0.0
 10
17.5120917434
 20
14.8076869639
 30
0.0
 10
17.506750329
 20
14.8072310033
 30
0.0
 10
17.501357305
 20
14.807078557
 30
0.0
 10
17.4959642792
 20
14.8072309778
 30
0.0
 10
17.490622853
 20
14.8076869077
 30
0.0
 10
17.4853841257
 20
14.8084420263
 30
0.0
 10
17.480298149
 20
14.8094889893
 30
0.0
 10
17.4754134935
 20
14.8108178864
 30
0.0
 10
17.4707767596
 20
14.8124162168
 30
0.0
 10
17.4664320527
 20
14.814268727
 30
0.0
 10
17.462420545
 20
14.8163581492
 30
0.0
 10
17.4587807151
 20
14.8186650198
 30
0.0
 10
17.4560482846
 20
14.8207801079
 30
0.0
 10
17.4540890964
 20
14.8225635604
 30
0.0
 10
17.4527535637
 20
14.8239223555
 30
0.0
 10
17.4515350324
 20
14.8253177149
 30
0.0
 10
17.4504362371
 20
14.8267461795
 30
0.0
 10
17.4494599696
 20
14.8282044496
 30
0.0
 10
17.4486088116
 20
14.8296891416
 30
0.0
 10
17.4478846555
 20
14.8311965602
 30
0.0
 10
17.4472895149
 20
14.8327231794
 30
0.0
 10
17.4468250686
 20
14.8342653069
 30
0.0
 10
17.4464922651
 20
14.8358190758
 30
0.0
 10
17.4462922393
 20
14.8373807054
 30
0.0
 10
17.446225589
 20
14.8389462633
 30
0.0
 10
17.4462922158
 20
14.8405118222
 30
0.0
 10
17.446492221
 20
14.8420734541
 30
0.0
 10
17.4468250049
 20
14.8436272248
 30
0.0
 10
17.4472894277
 20
14.8451693521
 30
0.0
 10
17.4478845369
 20
14.8466959717
 30
0.0
 10
17.4486086635
 20
14.848203394
 30
0.0
 10
17.4494598106
 20
14.8496881012
 30
0.0
 10
17.450436086
 20
14.8511463775
 30
0.0
 10
17.4515348951
 20
14.8525748716
 30
0.0
 10
17.4531825367
 20
14.8544616381
 30
0.0
 10
17.4555464566
 20
14.8567243779
 30
0.0
 10
17.4587802153
 20
14.8592272787
 30
0.0
 10
17.4611457932
 20
14.8607266952
 30
0.0
 10
17.4623887055
 20
14.8614442866
 30
0.0
  0
SPLINE
  5
57C
100
AcDbEntity
  8
AXIS_COSMETIC_THREADS
100
AcDbSpline
 62
7
  6
CONTINUOUS
 70
0
 71
3
 72
11
 73
7
 74
0
 42
0.0000001
 43
0.0000001
 44
0.0000000001
 40
0.0
 40
0.0
 40
0.0
 40
0.0
 40
0.2375217529
 40
0.4838414541
 40
0.7382320154
 40
1.0
 40
1.0
 40
1.0
 40
1.0
 10
19.2299751875
 20
13.7950225811
 30
0.0
 10
19.2284200568
 20
13.7941247313
 30
0.0
 10
19.2251877968
 20
13.7924054755
 30
0.0
 10
19.2201019279
 20
13.7900989927
 30
0.0
 10
19.2147179793
 20
13.7880307368
 30
0.0
 10
19.2110011492
 20
13.7868348983
 30
0.0
 10
19.2091021437
 20
13.7862778772
 30
0.0
  0
SPLINE
  5
57D
100
AcDbEntity
  8
AXIS_COSMETIC_THREADS
100
AcDbSpline
 62
7
  6
CONTINUOUS
 70
0
 71
3
 72
16
 73
12
 74
0
 42
0.0000001
 43
0.0000001
 44
0.0000000001
 40
0.0
 40
0.0
 40
0.0
 40
0.0
 40
0.1208848909
 40
0.2451090933
 40
0.3716408248
 40
0.4993818356
 40
0.6272016756
 40
0.7539676257
 40
0.8166176832
 40
0.8785946844
 40
1.0
 40
1.0
 40
1.0
 40
1.0
 10
19.2091021437
 20
13.7862778772
 30
0.0
 10
19.2062363307
 20
13.7854372696
 30
0.0
 10
19.200356797
 20
13.783959885
 30
0.0
 10
19.1913066613
 20
13.782369501
 30
0.0
 10
19.1819997985
 20
13.781389056
 30
0.0
 10
19.1725596596
 20
13.7810317193
 30
0.0
 10
19.1631110414
 20
13.7813021501
 30
0.0
 10
19.1553027394
 20
13.7820505812
 30
0.0
 10
19.1491580244
 20
13.7829626333
 30
0.0
 10
19.1431796866
 20
13.7840656163
 30
0.0
 10
19.138769324
 20
13.785125969
 30
0.0
 10
19.1358823325
 20
13.7859394492
 30
0.0
  0
SPLINE
  5
57E
100
AcDbEntity
  8
AXIS_COSMETIC_THREADS
100
AcDbSpline
 62
7
  6
CONTINUOUS
 70
0
 71
3
 72
23
 73
19
 74
0
 42
0.0000001
 43
0.0000001
 44
0.0000000001
 40
0.0
 40
0.0
 40
0.0
 40
0.0
 40
0.0787897829
 40
0.1556745202
 40
0.2304768769
 40
0.3030471871
 40
0.3732645526
 40
0.4410431463
 40
0.5063363223
 40
0.5691410164
 40
0.6295052629
 40
0.6875301981
 40
0.7433790021
 40
0.7972758035
 40
0.8495108319
 40
0.900433972
 40
0.950449235
 40
1.0
 40
1.0
 40
1.0
 40
1.0
 10
19.1347739755
 20
13.7862577534
 30
0.0
 10
19.1331115862
 20
13.7867442334
 30
0.0
 10
19.1298483033
 20
13.7877803407
 30
0.0
 10
19.1250964963
 20
13.7895445961
 30
0.0
 10
19.1205655393
 20
13.7914934743
 30
0.0
 10
19.1162767897
 20
13.7936175378
 30
0.0
 10
19.1122504777
 20
13.7959071065
 30
0.0
 10
19.1085055109
 20
13.7983514469
 30
0.0
 10
19.105059517
 20
13.8009392711
 30
0.0
 10
19.1019288591
 20
13.8036587942
 30
0.0
 10
19.0991282432
 20
13.8064973783
 30
0.0
 10
19.0966713972
 20
13.809442352
 30
0.0
 10
19.0945699994
 20
13.812479969
 30
0.0
 10
19.0928350623
 20
13.8155965972
 30
0.0
 10
19.0914752324
 20
13.8187773908
 30
0.0
 10
19.0904984221
 20
13.8220075403
 30
0.0
 10
19.0899098958
 20
13.825270433
 30
0.0
 10
19.0897788026
 20
13.8274615043
 30
0.0
 10
19.0897788317
 20
13.8285508247
 30
0.0
  0
SPLINE
  5
57F
100
AcDbEntity
  8
AXIS_COSMETIC_THREADS
100
AcDbSpline
 62
7
  6
CONTINUOUS
 70
0
 71
3
 72
20
 73
16
 74
0
 42
0.0000001
 43
0.0000001
 44
0.0000000001
 40
0.0
 40
0.0
 40
0.0
 40
0.0
 40
0.0752246502
 40
0.1485766399
 40
0.2894315572
 40
0.4225979126
 40
0.5484723996
 40
0.6089213513
 40
0.6678571038
 40
0.725434258
 40
0.7818338421
 40
0.8372587699
 40
0.8919323419
 40
0.9460954852
 40
1.0
 40
1.0
 40
1.0
 40
1.0
 10
19.2299751875
 20
13.7950225811
 30
0.0
 10
19.2309132286
 20
13.7955641561
 30
0.0
 10
19.2327438105
 20
13.7966729729
 30
0.0
 10
19.2362094242
 20
13.7989893932
 30
0.0
 10
19.2401717637
 20
13.8020565005
 30
0.0
 10
19.2443394664
 20
13.8060456809
 30
0.0
 10
19.2472756434
 20
13.8096043829
 30
0.0
 10
19.2492414063
 20
13.8125410251
 30
0.0
 10
19.2505100471
 20
13.8147533524
 30
0.0
 10
19.2515890607
 20
13.8169996864
 30
0.0
 10
19.2524759191
 20
13.8192745857
 30
0.0
 10
19.253168315
 20
13.8215725103
 30
0.0
 10
19.2536641062
 20
13.8238879489
 30
0.0
 10
19.2539623423
 20
13.826214849
 30
0.0
 10
19.2540287503
 20
13.8277717138
 30
0.0
 10
19.254028771
 20
13.8285478814
 30
0.0
  0
SPLINE
  5
580
100
AcDbEntity
  8
AXIS_COSMETIC_THREADS
100
AcDbSpline
 62
7
  6
CONTINUOUS
 70
0
 71
3
 72
21
 73
17
 74
0
 42
0.0000001
 43
0.0000001
 44
0.0000000001
 40
0.0
 40
0.0
 40
0.0
 40
0.0
 40
0.0628240457
 40
0.1255874598
 40
0.1883326154
 40
0.2510469345
 40
0.3136985841
 40
0.3762800029
 40
0.4387856692
 40
0.5012185105
 40
0.5635789955
 40
0.6258782224
 40
0.6881429526
 40
0.7503938523
 40
0.8749507914
 40
1.0
 40
1.0
 40
1.0
 40
1.0
 10
19.0897788014
 20
13.8407968893
 30
0.0
 10
19.0897788014
 20
13.8421924188
 30
0.0
 10
19.0898807558
 20
13.8449831943
 30
0.0
 10
19.0903376435
 20
13.8491452031
 30
0.0
 10
19.0910954305
 20
13.8532607673
 30
0.0
 10
19.0921462496
 20
13.8573087459
 30
0.0
 10
19.0934829555
 20
13.8612676302
 30
0.0
 10
19.095093601
 20
13.8651180472
 30
0.0
 10
19.0969662059
 20
13.8688425419
 30
0.0
 10
19.0990863261
 20
13.872426046
 30
0.0
 10
19.1014388326
 20
13.8758557666
 30
0.0
 10
19.1040086313
 20
13.8791208569
 30
0.0
 10
19.1067794052
 20
13.8822138963
 30
0.0
 10
19.1107218014
 20
13.8861000055
 30
0.0
 10
19.1160853641
 20
13.8905103323
 30
0.0
 10
19.1207468428
 20
13.8935351569
 30
0.0
 10
19.1231524535
 20
13.8949240286
 30
0.0
  0
SPLINE
  5
581
100
AcDbEntity
  8
AXIS_COSMETIC_THREADS
100
AcDbSpline
 62
7
  6
CONTINUOUS
 70
0
 71
3
 72
35
 73
31
 74
0
 42
0.0000001
 43
0.0000001
 44
0.0000000001
 40
0.0
 40
0.0
 40
0.0
 40
0.0
 40
0.0618795367
 40
0.1245210306
 40
0.1561606702
 40
0.1879947732
 40
0.2521045762
 40
0.3165378835
 40
0.3808736379
 40
0.4128879607
 40
0.4447374757
 40
0.507825668
 40
0.5390725776
 40
0.5701271629
 40
0.6010125748
 40
0.6317633615
 40
0.6624155381
 40
0.6930066643
 40
0.7235716259
 40
0.7541400221
 40
0.784732872
 40
0.8153649736
 40
0.8460414224
 40
0.8614011862
 40
0.8767721222
 40
0.8921534636
 40
0.9075450778
 40
0.9383433233
 40
0.9691582917
 40
1.0
 40
1.0
 40
1.0
 40
1.0
 10
19.1231524535
 20
13.8949240286
 30
0.0
 10
19.1261588763
 20
13.8966597773
 30
0.0
 10
19.1324419039
 20
13.899761262
 30
0.0
 10
19.1407195221
 20
13.9026881867
 30
0.0
 10
19.1475637679
 20
13.9044928159
 30
0.0
 10
19.1545748384
 20
13.9059479458
 30
0.0
 10
19.1635167232
 20
13.9070885105
 30
0.0
 10
19.1743502054
 20
13.907382317
 30
0.0
 10
19.1833634514
 20
13.9067335704
 30
0.0
 10
19.1904799582
 20
13.905673738
 30
0.0
 10
19.1974631632
 20
13.9042617967
 30
0.0
 10
19.2042853624
 20
13.902309353
 30
0.0
 10
19.2108616467
 20
13.8998031397
 30
0.0
 10
19.2156313463
 20
13.8976547403
 30
0.0
 10
19.2202349334
 20
13.8952292332
 30
0.0
 10
19.2246535111
 20
13.8925234051
 30
0.0
 10
19.2288664896
 20
13.8895353074
 30
0.0
 10
19.2328504911
 20
13.8862639479
 30
0.0
 10
19.2365803268
 20
13.8827117807
 30
0.0
 10
19.2400277829
 20
13.8788843401
 30
0.0
 10
19.2431641107
 20
13.874792771
 30
0.0
 10
19.2459583705
 20
13.8704529995
 30
0.0
 10
19.2479779068
 20
13.8666489761
 30
0.0
 10
19.2493937622
 20
13.8635073785
 30
0.0
 10
19.2503537472
 20
13.8611042489
 30
0.0
 10
19.2512082818
 20
13.8586597063
 30
0.0
 10
19.2522029519
 20
13.8553508496
 30
0.0
 10
19.2531699772
 20
13.8511339044
 30
0.0
 10
19.2538719745
 20
13.8459882249
 30
0.0
 10
19.2540288014
 20
13.8425271444
 30
0.0
 10
19.2540288014
 20
13.8407968893
 30
0.0
  0
SPLINE
  5
582
100
AcDbEntity
  8
AXIS_COSMETIC_THREADS
100
AcDbSpline
 62
7
  6
CONTINUOUS
 70
0
 71
3
 72
20
 73
16
 74
0
 42
0.0000001
 43
0.0000001
 44
0.0000000001
 40
0.0
 40
0.0
 40
0.0
 40
0.0
 40
0.0752250267
 40
0.1485773061
 40
0.2894325321
 40
0.4225988707
 40
0.5484730782
 40
0.60892183
 40
0.6678573654
 40
0.7254343077
 40
0.7818337109
 40
0.8372585149
 40
0.8919320493
 40
0.9460952688
 40
1.0
 40
1.0
 40
1.0
 40
1.0
 10
19.2299751875
 20
13.8072701173
 30
0.0
 10
19.2309132652
 20
13.8078117135
 30
0.0
 10
19.2327439168
 20
13.8089205745
 30
0.0
 10
19.2362096539
 20
13.8112370907
 30
0.0
 10
19.2401721182
 20
13.8143043305
 30
0.0
 10
19.2443399209
 20
13.818293692
 30
0.0
 10
19.247276134
 20
13.8218525604
 30
0.0
 10
19.2492418919
 20
13.8247893389
 30
0.0
 10
19.2505105127
 20
13.8270017676
 30
0.0
 10
19.2515894899
 20
13.8292482036
 30
0.0
 10
19.2524762958
 20
13.8315232048
 30
0.0
 10
19.2531686226
 20
13.8338212307
 30
0.0
 10
19.2536643284
 20
13.8361367689
 30
0.0
 10
19.2539624629
 20
13.8384637666
 30
0.0
 10
19.254028792
 20
13.8400206922
 30
0.0
 10
19.254028771
 20
13.8407968893
 30
0.0
  0
SPLINE
  5
583
100
AcDbEntity
  8
AXIS_COSMETIC_THREADS
100
AcDbSpline
 62
7
  6
CONTINUOUS
 70
0
 71
3
 72
39
 73
35
 74
0
 42
0.0000001
 43
0.0000001
 44
0.0000000001
 40
0.0
 40
0.0
 40
0.0
 40
0.0
 40
0.0306601343
 40
0.0623884033
 40
0.0951015473
 40
0.1287231547
 40
0.1631613002
 40
0.1983098222
 40
0.2340550241
 40
0.2702770864
 40
0.3068498571
 40
0.3436436284
 40
0.3805261393
 40
0.4173642804
 40
0.454025295
 40
0.4903784661
 40
0.526296467
 40
0.5616567694
 40
0.596343678
 40
0.6302490987
 40
0.6632755321
 40
0.695336674
 40
0.7263604863
 40
0.7562911208
 40
0.7850909342
 40
0.812744523
 40
0.8392599117
 40
0.8646733419
 40
0.8890509179
 40
0.9124913314
 40
0.9351273998
 40
0.9571241649
 40
0.9786762532
 40
1.0
 40
1.0
 40
1.0
 40
1.0
 10
19.2299751875
 20
13.8072701173
 30
0.0
 10
19.2285244775
 20
13.8064325545
 30
0.0
 10
19.2255165427
 20
13.8048236698
 30
0.0
 10
19.2207954622
 20
13.8026472594
 30
0.0
 10
19.2158102431
 20
13.8006771746
 30
0.0
 10
19.2105885306
 20
13.7989240324
 30
0.0
 10
19.2051581075
 20
13.7973968816
 30
0.0
 10
19.1995481415
 20
13.7961042678
 30
0.0
 10
19.1937890077
 20
13.7950528634
 30
0.0
 10
19.1879117247
 20
13.7942485753
 30
0.0
 10
19.1819480172
 20
13.7936955694
 30
0.0
 10
19.1759300795
 20
13.7933968732
 30
0.0
 10
19.169890401
 20
13.7933542091
 30
0.0
 10
19.1638615919
 20
13.7935675754
 30
0.0
 10
19.1578762124
 20
13.7940361081
 30
0.0
 10
19.1519665594
 20
13.7947570208
 30
0.0
 10
19.1461645412
 20
13.7957265741
 30
0.0
 10
19.1405014634
 20
13.7969395407
 30
0.0
 10
19.1350078343
 20
13.7983892399
 30
0.0
 10
19.1297133225
 20
13.8000681427
 30
0.0
 10
19.1246463591
 20
13.8019669408
 30
0.0
 10
19.1198342863
 20
13.8040757246
 30
0.0
 10
19.1153029381
 20
13.806383121
 30
0.0
 10
19.1110766407
 20
13.8088768456
 30
0.0
 10
19.1071782269
 20
13.8115439149
 30
0.0
 10
19.1036285063
 20
13.8143700378
 30
0.0
 10
19.1004469078
 20
13.8173407716
 30
0.0
 10
19.0976506336
 20
13.8204404566
 30
0.0
 10
19.0952553169
 20
13.8236531299
 30
0.0
 10
19.0932747841
 20
13.8269621142
 30
0.0
 10
19.0917206119
 20
13.8303497241
 30
0.0
 10
19.0906030552
 20
13.8337979771
 30
0.0
 10
19.0899291426
 20
13.837286609
 30
0.0
 10
19.0897788632
 20
13.8396318548
 30
0.0
 10
19.0897788317
 20
13.8407968893
 30
0.0
  0
SPLINE
  5
584
100
AcDbEntity
  8
AXIS_COSMETIC_THREADS
100
AcDbSpline
 62
7
  6
CONTINUOUS
 70
0
 71
3
 72
50
 73
46
 74
0
 42
0.0000001
 43
0.0000001
 44
0.0000000001
 40
0.0
 40
0.0
 40
0.0
 40
0.0
 40
0.0309809554
 40
0.0603641758
 40
0.0881402361
 40
0.1014559969
 40
0.1144078335
 40
0.1270168764
 40
0.1393098536
 40
0.1513196192
 40
0.1630836111
 40
0.1746442736
 40
0.186048431
 40
0.1973460358
 40
0.2085897641
 40
0.219833493
 40
0.2311310983
 40
0.2425352642
 40
0.2540959672
 40
0.2658600561
 40
0.2778699253
 40
0.2901628961
 40
0.3027717283
 40
0.3157234043
 40
0.3290395306
 40
0.3427373136
 40
0.3568283514
 40
0.3862058011
 40
0.4171910672
 40
0.4497342758
 40
0.4837358254
 40
0.5190561151
 40
0.5555227679
 40
0.592936439
 40
0.6310776859
 40
0.6697122807
 40
0.7085958349
 40
0.7474794059
 40
0.7861139749
 40
0.8242550333
 40
0.8616689789
 40
0.8981354647
 40
0.9334537428
 40
0.9674610961
 40
1.0
 40
1.0
 40
1.0
 40
1.0
 10
19.2108721716
 20
13.8519797239
 30
0.0
 10
19.2121150839
 20
13.8526973154
 30
0.0
 10
19.2144806617
 20
13.8541967319
 30
0.0
 10
19.2177144205
 20
13.8566996327
 30
0.0
 10
19.2200783404
 20
13.8589623725
 30
0.0
 10
19.2217259819
 20
13.860849139
 30
0.0
 10
19.222824791
 20
13.8622776331
 30
0.0
 10
19.2238010664
 20
13.8637359094
 30
0.0
 10
19.2246522136
 20
13.8652206165
 30
0.0
 10
19.2253763401
 20
13.8667280389
 30
0.0
 10
19.2259714493
 20
13.8682546585
 30
0.0
 10
19.2264358721
 20
13.8697967858
 30
0.0
 10
19.2267686561
 20
13.8713505565
 30
0.0
 10
19.2269686613
 20
13.8729121883
 30
0.0
 10
19.227035288
 20
13.8744777473
 30
0.0
 10
19.2269686378
 20
13.8760433052
 30
0.0
 10
19.226768612
 20
13.8776049348
 30
0.0
 10
19.2264358085
 20
13.8791587036
 30
0.0
 10
19.2259713622
 20
13.8807008311
 30
0.0
 10
19.2253762215
 20
13.8822274504
 30
0.0
 10
19.2246520655
 20
13.883734869
 30
0.0
 10
19.2238009075
 20
13.8852195609
 30
0.0
 10
19.2228246399
 20
13.886677831
 30
0.0
 10
19.2217258447
 20
13.8881062957
 30
0.0
 10
19.2205073134
 20
13.8895016551
 30
0.0
 10
19.2191717806
 20
13.8908604502
 30
0.0
 10
19.2172125925
 20
13.8926439027
 30
0.0
 10
19.2144801619
 20
13.8947589908
 30
0.0
 10
19.2108403321
 20
13.8970658614
 30
0.0
 10
19.2068288243
 20
13.8991552836
 30
0.0
 10
19.2024841175
 20
13.9010077938
 30
0.0
 10
19.1978473836
 20
13.9026061242
 30
0.0
 10
19.192962728
 20
13.9039350213
 30
0.0
 10
19.1878767514
 20
13.9049819843
 30
0.0
 10
19.182638024
 20
13.9057371029
 30
0.0
 10
19.1772965979
 20
13.9061930328
 30
0.0
 10
19.1719035721
 20
13.9063454536
 30
0.0
 10
19.1665105481
 20
13.9061930072
 30
0.0
 10
19.1611691336
 20
13.9057370467
 30
0.0
 10
19.1559304062
 20
13.9049819201
 30
0.0
 10
19.1508444363
 20
13.9039349061
 30
0.0
 10
19.1459599014
 20
13.9026059964
 30
0.0
 10
19.1413229053
 20
13.9010076675
 30
0.0
 10
19.1369785479
 20
13.8991550791
 30
0.0
 10
19.1342408461
 20
13.8977291813
 30
0.0
 10
19.1329354311
 20
13.8969755041
 30
0.0
  0
SPLINE
  5
585
100
AcDbEntity
  8
AXIS_COSMETIC_THREADS
100
AcDbSpline
 62
7
  6
CONTINUOUS
 70
0
 71
3
 72
50
 73
46
 74
0
 42
0.0000001
 43
0.0000001
 44
0.0000000001
 40
0.0
 40
0.0
 40
0.0
 40
0.0
 40
0.0325389039
 40
0.0665462572
 40
0.1018645353
 40
0.1383310211
 40
0.1757449667
 40
0.2138860251
 40
0.2525205941
 40
0.2914041651
 40
0.3302877193
 40
0.3689223141
 40
0.407063561
 40
0.4444772321
 40
0.4809438849
 40
0.5162641746
 40
0.5502657242
 40
0.5828089328
 40
0.6137941989
 40
0.6431716486
 40
0.6572626864
 40
0.6709604694
 40
0.6842765957
 40
0.6972282717
 40
0.7098371039
 40
0.7221300747
 40
0.7341399439
 40
0.7459040328
 40
0.7574647358
 40
0.7688689017
 40
0.780166507
 40
0.7914102359
 40
0.8026539642
 40
0.813951569
 40
0.8253557264
 40
0.8369163889
 40
0.8486803808
 40
0.8606901464
 40
0.8729831236
 40
0.8855921665
 40
0.8985440031
 40
0.9118597639
 40
0.9396358242
 40
0.9690190446
 40
1.0
 40
1.0
 40
1.0
 40
1.0
 10
19.2108721716
 20
13.8519797239
 30
0.0
 10
19.2095667566
 20
13.8512260467
 30
0.0
 10
19.2068290548
 20
13.8498001489
 30
0.0
 10
19.2024846974
 20
13.8479475605
 30
0.0
 10
19.1978477013
 20
13.8463492316
 30
0.0
 10
19.1929631664
 20
13.8450203219
 30
0.0
 10
19.1878771965
 20
13.8439733079
 30
0.0
 10
19.1826384691
 20
13.8432181813
 30
0.0
 10
19.1772970546
 20
13.8427622208
 30
0.0
 10
19.1719040307
 20
13.8426097745
 30
0.0
 10
19.1665110048
 20
13.8427621953
 30
0.0
 10
19.1611695787
 20
13.8432181252
 30
0.0
 10
19.1559308513
 20
13.8439732437
 30
0.0
 10
19.1508448747
 20
13.8450202067
 30
0.0
 10
19.1459602192
 20
13.8463491038
 30
0.0
 10
19.1413234852
 20
13.8479474342
 30
0.0
 10
19.1369787784
 20
13.8497999444
 30
0.0
 10
19.1329672706
 20
13.8518893666
 30
0.0
 10
19.1293274408
 20
13.8541962372
 30
0.0
 10
19.1265950102
 20
13.8563113253
 30
0.0
 10
19.1246358221
 20
13.8580947778
 30
0.0
 10
19.1233002893
 20
13.8594535729
 30
0.0
 10
19.122081758
 20
13.8608489323
 30
0.0
 10
19.1209829628
 20
13.862277397
 30
0.0
 10
19.1200066952
 20
13.8637356671
 30
0.0
 10
19.1191555373
 20
13.865220359
 30
0.0
 10
19.1184313812
 20
13.8667277776
 30
0.0
 10
19.1178362405
 20
13.8682543969
 30
0.0
 10
19.1173717943
 20
13.8697965244
 30
0.0
 10
19.1170389907
 20
13.8713502932
 30
0.0
 10
19.1168389649
 20
13.8729119228
 30
0.0
 10
19.1167723147
 20
13.8744774807
 30
0.0
 10
19.1168389415
 20
13.8760430397
 30
0.0
 10
19.1170389466
 20
13.8776046715
 30
0.0
 10
19.1173717306
 20
13.8791584423
 30
0.0
 10
19.1178361534
 20
13.8807005695
 30
0.0
 10
19.1184312626
 20
13.8822271891
 30
0.0
 10
19.1191553891
 20
13.8837346115
 30
0.0
 10
19.1200065363
 20
13.8852193186
 30
0.0
 10
19.1209828117
 20
13.8866775949
 30
0.0
 10
19.1220816208
 20
13.8881060891
 30
0.0
 10
19.1237292624
 20
13.8899928555
 30
0.0
 10
19.1260931822
 20
13.8922555954
 30
0.0
 10
19.129326941
 20
13.8947584961
 30
0.0
 10
19.1316925189
 20
13.8962579126
 30
0.0
 10
19.1329354311
 20
13.8969755041
 30
0.0
  0
SPLINE
  5
586
100
AcDbEntity
  8
AXIS_COSMETIC_THREADS
100
AcDbSpline
 62
7
  6
CONTINUOUS
 70
0
 71
3
 72
11
 73
7
 74
0
 42
0.0000001
 43
0.0000001
 44
0.0000000001
 40
0.0
 40
0.0
 40
0.0
 40
0.0
 40
0.2375217529
 40
0.4838414541
 40
0.7382320154
 40
1.0
 40
1.0
 40
1.0
 40
1.0
 10
15.8888956465
 20
13.7950145501
 30
0.0
 10
15.8873405158
 20
13.7941167003
 30
0.0
 10
15.8841082557
 20
13.7923974445
 30
0.0
 10
15.8790223869
 20
13.7900909617
 30
0.0
 10
15.8736384382
 20
13.7880227058
 30
0.0
 10
15.8699216081
 20
13.7868268674
 30
0.0
 10
15.8680226027
 20
13.7862698463
 30
0.0
  0
SPLINE
  5
587
100
AcDbEntity
  8
AXIS_COSMETIC_THREADS
100
AcDbSpline
 62
7
  6
CONTINUOUS
 70
0
 71
3
 72
16
 73
12
 74
0
 42
0.0000001
 43
0.0000001
 44
0.0000000001
 40
0.0
 40
0.0
 40
0.0
 40
0.0
 40
0.1208848909
 40
0.2451090933
 40
0.3716408248
 40
0.4993818356
 40
0.6272016756
 40
0.7539676257
 40
0.8166176832
 40
0.8785946844
 40
1.0
 40
1.0
 40
1.0
 40
1.0
 10
15.8680226027
 20
13.7862698463
 30
0.0
 10
15.8651567896
 20
13.7854292387
 30
0.0
 10
15.8592772559
 20
13.7839518541
 30
0.0
 10
15.8502271203
 20
13.7823614701
 30
0.0
 10
15.8409202574
 20
13.781381025
 30
0.0
 10
15.8314801185
 20
13.7810236884
 30
0.0
 10
15.8220315003
 20
13.7812941191
 30
0.0
 10
15.8142231983
 20
13.7820425502
 30
0.0
 10
15.8080784834
 20
13.7829546024
 30
0.0
 10
15.8021001455
 20
13.7840575853
 30
0.0
 10
15.7976897829
 20
13.785117938
 30
0.0
 10
15.7948027914
 20
13.7859314183
 30
0.0
  0
SPLINE
  5
588
100
AcDbEntity
  8
AXIS_COSMETIC_THREADS
100
AcDbSpline
 62
7
  6
CONTINUOUS
 70
0
 71
3
 72
23
 73
19
 74
0
 42
0.0000001
 43
0.0000001
 44
0.0000000001
 40
0.0
 40
0.0
 40
0.0
 40
0.0
 40
0.0787897829
 40
0.1556745202
 40
0.2304768769
 40
0.3030471871
 40
0.3732645526
 40
0.4410431463
 40
0.5063363223
 40
0.5691410164
 40
0.6295052629
 40
0.6875301981
 40
0.7433790021
 40
0.7972758035
 40
0.8495108319
 40
0.900433972
 40
0.950449235
 40
1.0
 40
1.0
 40
1.0
 40
1.0
 10
15.7936944345
 20
13.7862497224
 30
0.0
 10
15.7920320452
 20
13.7867362025
 30
0.0
 10
15.7887687622
 20
13.7877723098
 30
0.0
 10
15.7840169553
 20
13.7895365651
 30
0.0
 10
15.7794859982
 20
13.7914854434
 30
0.0
 10
15.7751972487
 20
13.7936095069
 30
0.0
 10
15.7711709366
 20
13.7958990755
 30
0.0
 10
15.7674259699
 20
13.798343416
 30
0.0
 10
15.7639799759
 20
13.8009312401
 30
0.0
 10
15.760849318
 20
13.8036507633
 30
0.0
 10
15.7580487021
 20
13.8064893474
 30
0.0
 10
15.7555918561
 20
13.809434321
 30
0.0
 10
15.7534904584
 20
13.8124719381
 30
0.0
 10
15.7517555212
 20
13.8155885662
 30
0.0
 10
15.7503956913
 20
13.8187693598
 30
0.0
 10
15.7494188811
 20
13.8219995093
 30
0.0
 10
15.7488303547
 20
13.825262402
 30
0.0
 10
15.7486992616
 20
13.8274534733
 30
0.0
 10
15.7486992907
 20
13.8285427937
 30
0.0
  0
SPLINE
  5
589
100
AcDbEntity
  8
AXIS_COSMETIC_THREADS
100
AcDbSpline
 62
7
  6
CONTINUOUS
 70
0
 71
3
 72
20
 73
16
 74
0
 42
0.0000001
 43
0.0000001
 44
0.0000000001
 40
0.0
 40
0.0
 40
0.0
 40
0.0
 40
0.0752246502
 40
0.1485766399
 40
0.2894315572
 40
0.4225979126
 40
0.5484723996
 40
0.6089213513
 40
0.6678571038
 40
0.725434258
 40
0.7818338421
 40
0.8372587699
 40
0.8919323419
 40
0.9460954852
 40
1.0
 40
1.0
 40
1.0
 40
1.0
 10
15.8888956465
 20
13.7950145501
 30
0.0
 10
15.8898336875
 20
13.7955561251
 30
0.0
 10
15.8916642694
 20
13.7966649419
 30
0.0
 10
15.8951298831
 20
13.7989813622
 30
0.0
 10
15.8990922227
 20
13.8020484696
 30
0.0
 10
15.9032599254
 20
13.8060376499
 30
0.0
 10
15.9061961023
 20
13.8095963519
 30
0.0
 10
15.9081618653
 20
13.8125329941
 30
0.0
 10
15.909430506
 20
13.8147453215
 30
0.0
 10
15.9105095196
 20
13.8169916554
 30
0.0
 10
15.911396378
 20
13.8192665547
 30
0.0
 10
15.9120887739
 20
13.8215644793
 30
0.0
 10
15.9125845652
 20
13.8238799179
 30
0.0
 10
15.9128828012
 20
13.8262068181
 30
0.0
 10
15.9129492092
 20
13.8277636828
 30
0.0
 10
15.9129492299
 20
13.8285398504
 30
0.0
  0
SPLINE
  5
58A
100
AcDbEntity
  8
AXIS_COSMETIC_THREADS
100
AcDbSpline
 62
7
  6
CONTINUOUS
 70
0
 71
3
 72
21
 73
17
 74
0
 42
0.0000001
 43
0.0000001
 44
0.0000000001
 40
0.0
 40
0.0
 40
0.0
 40
0.0
 40
0.0628240457
 40
0.1255874598
 40
0.1883326154
 40
0.2510469345
 40
0.3136985841
 40
0.3762800029
 40
0.4387856692
 40
0.5012185105
 40
0.5635789955
 40
0.6258782224
 40
0.6881429526
 40
0.7503938523
 40
0.8749507914
 40
1.0
 40
1.0
 40
1.0
 40
1.0
 10
15.7486992603
 20
13.8407888583
 30
0.0
 10
15.7486992603
 20
13.8421843879
 30
0.0
 10
15.7488012148
 20
13.8449751633
 30
0.0
 10
15.7492581024
 20
13.8491371721
 30
0.0
 10
15.7500158894
 20
13.8532527363
 30
0.0
 10
15.7510667085
 20
13.8573007149
 30
0.0
 10
15.7524034144
 20
13.8612595992
 30
0.0
 10
15.75401406
 20
13.8651100162
 30
0.0
 10
15.7558866648
 20
13.8688345109
 30
0.0
 10
15.758006785
 20
13.872418015
 30
0.0
 10
15.7603592916
 20
13.8758477356
 30
0.0
 10
15.7629290902
 20
13.879112826
 30
0.0
 10
15.7656998641
 20
13.8822058654
 30
0.0
 10
15.7696422604
 20
13.8860919746
 30
0.0
 10
15.775005823
 20
13.8905023013
 30
0.0
 10
15.7796673017
 20
13.8935271259
 30
0.0
 10
15.7820729125
 20
13.8949159977
 30
0.0
  0
SPLINE
  5
58B
100
AcDbEntity
  8
AXIS_COSMETIC_THREADS
100
AcDbSpline
 62
7
  6
CONTINUOUS
 70
0
 71
3
 72
35
 73
31
 74
0
 42
0.0000001
 43
0.0000001
 44
0.0000000001
 40
0.0
 40
0.0
 40
0.0
 40
0.0
 40
0.0618795367
 40
0.1245210306
 40
0.1561606702
 40
0.1879947732
 40
0.2521045762
 40
0.3165378835
 40
0.3808736379
 40
0.4128879607
 40
0.4447374757
 40
0.507825668
 40
0.5390725776
 40
0.5701271629
 40
0.6010125748
 40
0.6317633615
 40
0.6624155381
 40
0.6930066643
 40
0.7235716259
 40
0.7541400221
 40
0.784732872
 40
0.8153649736
 40
0.8460414224
 40
0.8614011862
 40
0.8767721222
 40
0.8921534636
 40
0.9075450778
 40
0.9383433233
 40
0.9691582917
 40
1.0
 40
1.0
 40
1.0
 40
1.0
 10
15.7820729125
 20
13.8949159977
 30
0.0
 10
15.7850793353
 20
13.8966517463
 30
0.0
 10
15.7913623628
 20
13.899753231
 30
0.0
 10
15.799639981
 20
13.9026801558
 30
0.0
 10
15.8064842268
 20
13.9044847849
 30
0.0
 10
15.8134952973
 20
13.9059399148
 30
0.0
 10
15.8224371821
 20
13.9070804795
 30
0.0
 10
15.8332706644
 20
13.9073742861
 30
0.0
 10
15.8422839104
 20
13.9067255394
 30
0.0
 10
15.8494004171
 20
13.905665707
 30
0.0
 10
15.8563836221
 20
13.9042537657
 30
0.0
 10
15.8632058213
 20
13.902301322
 30
0.0
 10
15.8697821056
 20
13.8997951088
 30
0.0
 10
15.8745518052
 20
13.8976467093
 30
0.0
 10
15.8791553923
 20
13.8952212023
 30
0.0
 10
15.88357397
 20
13.8925153741
 30
0.0
 10
15.8877869486
 20
13.8895272764
 30
0.0
 10
15.89177095
 20
13.8862559169
 30
0.0
 10
15.8955007857
 20
13.8827037498
 30
0.0
 10
15.8989482419
 20
13.8788763091
 30
0.0
 10
15.9020845696
 20
13.8747847401
 30
0.0
 10
15.9048788295
 20
13.8704449685
 30
0.0
 10
15.9068983657
 20
13.8666409451
 30
0.0
 10
15.9083142211
 20
13.8634993475
 30
0.0
 10
15.9092742061
 20
13.8610962179
 30
0.0
 10
15.9101287407
 20
13.8586516753
 30
0.0
 10
15.9111234108
 20
13.8553428186
 30
0.0
 10
15.9120904361
 20
13.8511258734
 30
0.0
 10
15.9127924334
 20
13.845980194
 30
0.0
 10
15.9129492603
 20
13.8425191135
 30
0.0
 10
15.9129492603
 20
13.8407888583
 30
0.0
  0
SPLINE
  5
58C
100
AcDbEntity
  8
AXIS_COSMETIC_THREADS
100
AcDbSpline
 62
7
  6
CONTINUOUS
 70
0
 71
3
 72
20
 73
16
 74
0
 42
0.0000001
 43
0.0000001
 44
0.0000000001
 40
0.0
 40
0.0
 40
0.0
 40
0.0
 40
0.0752250267
 40
0.1485773061
 40
0.2894325321
 40
0.4225988707
 40
0.5484730782
 40
0.60892183
 40
0.6678573654
 40
0.7254343077
 40
0.7818337109
 40
0.8372585149
 40
0.8919320493
 40
0.9460952688
 40
1.0
 40
1.0
 40
1.0
 40
1.0
 10
15.8888956465
 20
13.8072620864
 30
0.0
 10
15.8898337241
 20
13.8078036825
 30
0.0
 10
15.8916643757
 20
13.8089125436
 30
0.0
 10
15.8951301129
 20
13.8112290598
 30
0.0
 10
15.8990925771
 20
13.8142962995
 30
0.0
 10
15.9032603799
 20
13.8182856611
 30
0.0
 10
15.9061965929
 20
13.8218445294
 30
0.0
 10
15.9081623508
 20
13.8247813079
 30
0.0
 10
15.9094309716
 20
13.8269937366
 30
0.0
 10
15.9105099488
 20
13.8292401727
 30
0.0
 10
15.9113967547
 20
13.8315151738
 30
0.0
 10
15.9120890815
 20
13.8338131997
 30
0.0
 10
15.9125847873
 20
13.836128738
 30
0.0
 10
15.9128829218
 20
13.8384557356
 30
0.0
 10
15.9129492509
 20
13.8400126612
 30
0.0
 10
15.9129492299
 20
13.8407888583
 30
0.0
  0
SPLINE
  5
58D
100
AcDbEntity
  8
AXIS_COSMETIC_THREADS
100
AcDbSpline
 62
7
  6
CONTINUOUS
 70
0
 71
3
 72
39
 73
35
 74
0
 42
0.0000001
 43
0.0000001
 44
0.0000000001
 40
0.0
 40
0.0
 40
0.0
 40
0.0
 40
0.0306601343
 40
0.0623884033
 40
0.0951015473
 40
0.1287231547
 40
0.1631613002
 40
0.1983098222
 40
0.2340550241
 40
0.2702770864
 40
0.3068498571
 40
0.3436436284
 40
0.3805261393
 40
0.4173642804
 40
0.454025295
 40
0.4903784661
 40
0.526296467
 40
0.5616567694
 40
0.596343678
 40
0.6302490987
 40
0.6632755321
 40
0.695336674
 40
0.7263604863
 40
0.7562911208
 40
0.7850909342
 40
0.812744523
 40
0.8392599117
 40
0.8646733419
 40
0.8890509179
 40
0.9124913314
 40
0.9351273998
 40
0.9571241649
 40
0.9786762532
 40
1.0
 40
1.0
 40
1.0
 40
1.0
 10
15.8888956465
 20
13.8072620864
 30
0.0
 10
15.8874449364
 20
13.8064245235
 30
0.0
 10
15.8844370016
 20
13.8048156388
 30
0.0
 10
15.8797159211
 20
13.8026392285
 30
0.0
 10
15.874730702
 20
13.8006691436
 30
0.0
 10
15.8695089895
 20
13.7989160014
 30
0.0
 10
15.8640785665
 20
13.7973888507
 30
0.0
 10
15.8584686004
 20
13.7960962368
 30
0.0
 10
15.8527094666
 20
13.7950448324
 30
0.0
 10
15.8468321836
 20
13.7942405443
 30
0.0
 10
15.8408684762
 20
13.7936875384
 30
0.0
 10
15.8348505385
 20
13.7933888422
 30
0.0
 10
15.8288108599
 20
13.7933461782
 30
0.0
 10
15.8227820508
 20
13.7935595445
 30
0.0
 10
15.8167966713
 20
13.7940280771
 30
0.0
 10
15.8108870183
 20
13.7947489898
 30
0.0
 10
15.8050850002
 20
13.7957185431
 30
0.0
 10
15.7994219223
 20
13.7969315097
 30
0.0
 10
15.7939282932
 20
13.7983812089
 30
0.0
 10
15.7886337815
 20
13.8000601117
 30
0.0
 10
15.7835668181
 20
13.8019589098
 30
0.0
 10
15.7787547453
 20
13.8040676936
 30
0.0
 10
15.774223397
 20
13.80637509
 30
0.0
 10
15.7699970996
 20
13.8088688146
 30
0.0
 10
15.7660986858
 20
13.8115358839
 30
0.0
 10
15.7625489653
 20
13.8143620068
 30
0.0
 10
15.7593673667
 20
13.8173327407
 30
0.0
 10
15.7565710926
 20
13.8204324257
 30
0.0
 10
15.7541757758
 20
13.8236450989
 30
0.0
 10
15.752195243
 20
13.8269540832
 30
0.0
 10
15.7506410709
 20
13.8303416932
 30
0.0
 10
15.7495235141
 20
13.8337899462
 30
0.0
 10
15.7488496015
 20
13.8372785781
 30
0.0
 10
15.7486993222
 20
13.8396238238
 30
0.0
 10
15.7486992907
 20
13.8407888583
 30
0.0
  0
SPLINE
  5
58E
100
AcDbEntity
  8
AXIS_COSMETIC_THREADS
100
AcDbSpline
 62
7
  6
CONTINUOUS
 70
0
 71
3
 72
50
 73
46
 74
0
 42
0.0000001
 43
0.0000001
 44
0.0000000001
 40
0.0
 40
0.0
 40
0.0
 40
0.0
 40
0.0309809554
 40
0.0603641758
 40
0.0881402361
 40
0.1014559969
 40
0.1144078335
 40
0.1270168764
 40
0.1393098536
 40
0.1513196192
 40
0.1630836111
 40
0.1746442736
 40
0.186048431
 40
0.1973460358
 40
0.2085897641
 40
0.219833493
 40
0.2311310983
 40
0.2425352642
 40
0.2540959672
 40
0.2658600561
 40
0.2778699253
 40
0.2901628961
 40
0.3027717283
 40
0.3157234043
 40
0.3290395306
 40
0.3427373136
 40
0.3568283514
 40
0.3862058011
 40
0.4171910672
 40
0.4497342758
 40
0.4837358254
 40
0.5190561151
 40
0.5555227679
 40
0.592936439
 40
0.6310776859
 40
0.6697122807
 40
0.7085958349
 40
0.7474794059
 40
0.7861139749
 40
0.8242550333
 40
0.8616689789
 40
0.8981354647
 40
0.9334537428
 40
0.9674610961
 40
1.0
 40
1.0
 40
1.0
 40
1.0
 10
15.8697926305
 20
13.851971693
 30
0.0
 10
15.8710355428
 20
13.8526892844
 30
0.0
 10
15.8734011207
 20
13.8541887009
 30
0.0
 10
15.8766348794
 20
13.8566916017
 30
0.0
 10
15.8789987993
 20
13.8589543415
 30
0.0
 10
15.8806464408
 20
13.860841108
 30
0.0
 10
15.88174525
 20
13.8622696021
 30
0.0
 10
15.8827215253
 20
13.8637278784
 30
0.0
 10
15.8835726725
 20
13.8652125856
 30
0.0
 10
15.884296799
 20
13.8667200079
 30
0.0
 10
15.8848919083
 20
13.8682466275
 30
0.0
 10
15.8853563311
 20
13.8697887548
 30
0.0
 10
15.885689115
 20
13.8713425255
 30
0.0
 10
15.8858891202
 20
13.8729041574
 30
0.0
 10
15.885955747
 20
13.8744697163
 30
0.0
 10
15.8858890967
 20
13.8760352742
 30
0.0
 10
15.8856890709
 20
13.8775969038
 30
0.0
 10
15.8853562674
 20
13.8791506727
 30
0.0
 10
15.8848918211
 20
13.8806928002
 30
0.0
 10
15.8842966805
 20
13.8822194194
 30
0.0
 10
15.8835725244
 20
13.883726838
 30
0.0
 10
15.8827213664
 20
13.88521153
 30
0.0
 10
15.8817450988
 20
13.8866698001
 30
0.0
 10
15.8806463036
 20
13.8880982647
 30
0.0
 10
15.8794277723
 20
13.8894936241
 30
0.0
 10
15.8780922396
 20
13.8908524192
 30
0.0
 10
15.8761330514
 20
13.8926358717
 30
0.0
 10
15.8734006208
 20
13.8947509598
 30
0.0
 10
15.869760791
 20
13.8970578304
 30
0.0
 10
15.8657492833
 20
13.8991472526
 30
0.0
 10
15.8614045764
 20
13.9009997628
 30
0.0
 10
15.8567678425
 20
13.9025980932
 30
0.0
 10
15.851883187
 20
13.9039269903
 30
0.0
 10
15.8467972103
 20
13.9049739533
 30
0.0
 10
15.8415584829
 20
13.9057290719
 30
0.0
 10
15.8362170568
 20
13.9061850018
 30
0.0
 10
15.830824031
 20
13.9063374226
 30
0.0
 10
15.825431007
 20
13.9061849763
 30
0.0
 10
15.8200895925
 20
13.9057290157
 30
0.0
 10
15.8148508651
 20
13.9049738892
 30
0.0
 10
15.8097648952
 20
13.9039268752
 30
0.0
 10
15.8048803603
 20
13.9025979655
 30
0.0
 10
15.8002433643
 20
13.9009996366
 30
0.0
 10
15.7958990068
 20
13.8991470481
 30
0.0
 10
15.7931613051
 20
13.8977211503
 30
0.0
 10
15.7918558901
 20
13.8969674731
 30
0.0
  0
SPLINE
  5
58F
100
AcDbEntity
  8
AXIS_COSMETIC_THREADS
100
AcDbSpline
 62
7
  6
CONTINUOUS
 70
0
 71
3
 72
50
 73
46
 74
0
 42
0.0000001
 43
0.0000001
 44
0.0000000001
 40
0.0
 40
0.0
 40
0.0
 40
0.0
 40
0.0325389039
 40
0.0665462572
 40
0.1018645353
 40
0.1383310211
 40
0.1757449667
 40
0.2138860251
 40
0.2525205941
 40
0.2914041651
 40
0.3302877193
 40
0.3689223141
 40
0.407063561
 40
0.4444772321
 40
0.4809438849
 40
0.5162641746
 40
0.5502657242
 40
0.5828089328
 40
0.6137941989
 40
0.6431716486
 40
0.6572626864
 40
0.6709604694
 40
0.6842765957
 40
0.6972282717
 40
0.7098371039
 40
0.7221300747
 40
0.7341399439
 40
0.7459040328
 40
0.7574647358
 40
0.7688689017
 40
0.780166507
 40
0.7914102359
 40
0.8026539642
 40
0.813951569
 40
0.8253557264
 40
0.8369163889
 40
0.8486803808
 40
0.8606901464
 40
0.8729831236
 40
0.8855921665
 40
0.8985440031
 40
0.9118597639
 40
0.9396358242
 40
0.9690190446
 40
1.0
 40
1.0
 40
1.0
 40
1.0
 10
15.8697926305
 20
13.851971693
 30
0.0
 10
15.8684872155
 20
13.8512180158
 30
0.0
 10
15.8657495138
 20
13.8497921179
 30
0.0
 10
15.8614051563
 20
13.8479395295
 30
0.0
 10
15.8567681602
 20
13.8463412006
 30
0.0
 10
15.8518836253
 20
13.8450122909
 30
0.0
 10
15.8467976554
 20
13.8439652769
 30
0.0
 10
15.841558928
 20
13.8432101504
 30
0.0
 10
15.8362175136
 20
13.8427541898
 30
0.0
 10
15.8308244896
 20
13.8426017435
 30
0.0
 10
15.8254314637
 20
13.8427541643
 30
0.0
 10
15.8200900376
 20
13.8432100942
 30
0.0
 10
15.8148513102
 20
13.8439652128
 30
0.0
 10
15.8097653336
 20
13.8450121757
 30
0.0
 10
15.8048806781
 20
13.8463410729
 30
0.0
 10
15.8002439441
 20
13.8479394032
 30
0.0
 10
15.7958992373
 20
13.8497919135
 30
0.0
 10
15.7918877296
 20
13.8518813357
 30
0.0
 10
15.7882478997
 20
13.8541882062
 30
0.0
 10
15.7855154692
 20
13.8563032943
 30
0.0
 10
15.783556281
 20
13.8580867469
 30
0.0
 10
15.7822207482
 20
13.8594455419
 30
0.0
 10
15.7810022169
 20
13.8608409013
 30
0.0
 10
15.7799034217
 20
13.862269366
 30
0.0
 10
15.7789271542
 20
13.8637276361
 30
0.0
 10
15.7780759962
 20
13.865212328
 30
0.0
 10
15.7773518401
 20
13.8667197467
 30
0.0
 10
15.7767566994
 20
13.8682463659
 30
0.0
 10
15.7762922532
 20
13.8697884934
 30
0.0
 10
15.7759594497
 20
13.8713422623
 30
0.0
 10
15.7757594239
 20
13.8729038919
 30
0.0
 10
15.7756927736
 20
13.8744694498
 30
0.0
 10
15.7757594004
 20
13.8760350087
 30
0.0
 10
15.7759594056
 20
13.8775966406
 30
0.0
 10
15.7762921895
 20
13.8791504113
 30
0.0
 10
15.7767566123
 20
13.8806925386
 30
0.0
 10
15.7773517215
 20
13.8822191581
 30
0.0
 10
15.778075848
 20
13.8837265805
 30
0.0
 10
15.7789269952
 20
13.8852112877
 30
0.0
 10
15.7799032706
 20
13.886669564
 30
0.0
 10
15.7810020797
 20
13.8880980581
 30
0.0
 10
15.7826497213
 20
13.8899848245
 30
0.0
 10
15.7850136411
 20
13.8922475644
 30
0.0
 10
15.7882473999
 20
13.8947504652
 30
0.0
 10
15.7906129778
 20
13.8962498816
 30
0.0
 10
15.7918558901
 20
13.8969674731
 30
0.0
  0
SPLINE
  5
590
100
AcDbEntity
  8
AXIS_COSMETIC_THREADS
100
AcDbSpline
 62
7
  6
CONTINUOUS
 70
0
 71
3
 72
11
 73
7
 74
0
 42
0.0000001
 43
0.0000001
 44
0.0000000001
 40
0.0
 40
0.0
 40
0.0
 40
0.0
 40
0.2375217529
 40
0.4838414541
 40
0.7382320154
 40
1.0
 40
1.0
 40
1.0
 40
1.0
 10
17.5594423721
 20
12.8305457676
 30
0.0
 10
17.5578872414
 20
12.8296479178
 30
0.0
 10
17.5546549814
 20
12.827928662
 30
0.0
 10
17.5495691125
 20
12.8256221792
 30
0.0
 10
17.5441851639
 20
12.8235539233
 30
0.0
 10
17.5404683338
 20
12.8223580848
 30
0.0
 10
17.5385693283
 20
12.8218010637
 30
0.0
  0
SPLINE
  5
591
100
AcDbEntity
  8
AXIS_COSMETIC_THREADS
100
AcDbSpline
 62
7
  6
CONTINUOUS
 70
0
 71
3
 72
16
 73
12
 74
0
 42
0.0000001
 43
0.0000001
 44
0.0000000001
 40
0.0
 40
0.0
 40
0.0
 40
0.0
 40
0.1208848909
 40
0.2451090933
 40
0.3716408248
 40
0.4993818356
 40
0.6272016756
 40
0.7539676257
 40
0.8166176832
 40
0.8785946844
 40
1.0
 40
1.0
 40
1.0
 40
1.0
 10
17.5385693283
 20
12.8218010637
 30
0.0
 10
17.5357035152
 20
12.8209604561
 30
0.0
 10
17.5298239815
 20
12.8194830715
 30
0.0
 10
17.5207738459
 20
12.8178926875
 30
0.0
 10
17.5114669831
 20
12.8169122425
 30
0.0
 10
17.5020268442
 20
12.8165549058
 30
0.0
 10
17.492578226
 20
12.8168253365
 30
0.0
 10
17.484769924
 20
12.8175737677
 30
0.0
 10
17.478625209
 20
12.8184858198
 30
0.0
 10
17.4726468712
 20
12.8195888027
 30
0.0
 10
17.4682365086
 20
12.8206491554
 30
0.0
 10
17.465349517
 20
12.8214626357
 30
0.0
  0
SPLINE
  5
592
100
AcDbEntity
  8
AXIS_COSMETIC_THREADS
100
AcDbSpline
 62
7
  6
CONTINUOUS
 70
0
 71
3
 72
23
 73
19
 74
0
 42
0.0000001
 43
0.0000001
 44
0.0000000001
 40
0.0
 40
0.0
 40
0.0
 40
0.0
 40
0.0787897829
 40
0.1556745202
 40
0.2304768769
 40
0.3030471871
 40
0.3732645526
 40
0.4410431463
 40
0.5063363223
 40
0.5691410164
 40
0.6295052629
 40
0.6875301981
 40
0.7433790021
 40
0.7972758035
 40
0.8495108319
 40
0.900433972
 40
0.950449235
 40
1.0
 40
1.0
 40
1.0
 40
1.0
 10
17.4642411601
 20
12.8217809399
 30
0.0
 10
17.4625787708
 20
12.8222674199
 30
0.0
 10
17.4593154878
 20
12.8233035272
 30
0.0
 10
17.4545636809
 20
12.8250677826
 30
0.0
 10
17.4500327238
 20
12.8270166608
 30
0.0
 10
17.4457439743
 20
12.8291407243
 30
0.0
 10
17.4417176622
 20
12.831430293
 30
0.0
 10
17.4379726955
 20
12.8338746334
 30
0.0
 10
17.4345267016
 20
12.8364624575
 30
0.0
 10
17.4313960437
 20
12.8391819807
 30
0.0
 10
17.4285954277
 20
12.8420205648
 30
0.0
 10
17.4261385818
 20
12.8449655384
 30
0.0
 10
17.424037184
 20
12.8480031555
 30
0.0
 10
17.4223022469
 20
12.8511197836
 30
0.0
 10
17.4209424169
 20
12.8543005773
 30
0.0
 10
17.4199656067
 20
12.8575307268
 30
0.0
 10
17.4193770804
 20
12.8607936195
 30
0.0
 10
17.4192459872
 20
12.8629846908
 30
0.0
 10
17.4192460163
 20
12.8640740112
 30
0.0
  0
SPLINE
  5
593
100
AcDbEntity
  8
AXIS_COSMETIC_THREADS
100
AcDbSpline
 62
7
  6
CONTINUOUS
 70
0
 71
3
 72
20
 73
16
 74
0
 42
0.0000001
 43
0.0000001
 44
0.0000000001
 40
0.0
 40
0.0
 40
0.0
 40
0.0
 40
0.0752246502
 40
0.1485766399
 40
0.2894315572
 40
0.4225979126
 40
0.5484723996
 40
0.6089213513
 40
0.6678571038
 40
0.725434258
 40
0.7818338421
 40
0.8372587699
 40
0.8919323419
 40
0.9460954852
 40
1.0
 40
1.0
 40
1.0
 40
1.0
 10
17.5594423721
 20
12.8305457676
 30
0.0
 10
17.5603804131
 20
12.8310873426
 30
0.0
 10
17.5622109951
 20
12.8321961594
 30
0.0
 10
17.5656766088
 20
12.8345125797
 30
0.0
 10
17.5696389483
 20
12.837579687
 30
0.0
 10
17.573806651
 20
12.8415688674
 30
0.0
 10
17.576742828
 20
12.8451275694
 30
0.0
 10
17.5787085909
 20
12.8480642116
 30
0.0
 10
17.5799772317
 20
12.8502765389
 30
0.0
 10
17.5810562453
 20
12.8525228729
 30
0.0
 10
17.5819431037
 20
12.8547977722
 30
0.0
 10
17.5826354996
 20
12.8570956968
 30
0.0
 10
17.5831312908
 20
12.8594111353
 30
0.0
 10
17.5834295269
 20
12.8617380355
 30
0.0
 10
17.5834959348
 20
12.8632949003
 30
0.0
 10
17.5834959556
 20
12.8640710679
 30
0.0
  0
SPLINE
  5
594
100
AcDbEntity
  8
AXIS_COSMETIC_THREADS
100
AcDbSpline
 62
7
  6
CONTINUOUS
 70
0
 71
3
 72
21
 73
17
 74
0
 42
0.0000001
 43
0.0000001
 44
0.0000000001
 40
0.0
 40
0.0
 40
0.0
 40
0.0
 40
0.0628240457
 40
0.1255874598
 40
0.1883326154
 40
0.2510469345
 40
0.3136985841
 40
0.3762800029
 40
0.4387856692
 40
0.5012185105
 40
0.5635789955
 40
0.6258782224
 40
0.6881429526
 40
0.7503938523
 40
0.8749507914
 40
1.0
 40
1.0
 40
1.0
 40
1.0
 10
17.4192459859
 20
12.8763200758
 30
0.0
 10
17.4192459859
 20
12.8777156053
 30
0.0
 10
17.4193479404
 20
12.8805063808
 30
0.0
 10
17.4198048281
 20
12.8846683896
 30
0.0
 10
17.4205626151
 20
12.8887839538
 30
0.0
 10
17.4216134341
 20
12.8928319323
 30
0.0
 10
17.4229501401
 20
12.8967908167
 30
0.0
 10
17.4245607856
 20
12.9006412337
 30
0.0
 10
17.4264333905
 20
12.9043657284
 30
0.0
 10
17.4285535107
 20
12.9079492325
 30
0.0
 10
17.4309060172
 20
12.9113789531
 30
0.0
 10
17.4334758159
 20
12.9146440434
 30
0.0
 10
17.4362465897
 20
12.9177370828
 30
0.0
 10
17.440188986
 20
12.921623192
 30
0.0
 10
17.4455525486
 20
12.9260335188
 30
0.0
 10
17.4502140273
 20
12.9290583434
 30
0.0
 10
17.4526196381
 20
12.9304472151
 30
0.0
  0
SPLINE
  5
595
100
AcDbEntity
  8
AXIS_COSMETIC_THREADS
100
AcDbSpline
 62
7
  6
CONTINUOUS
 70
0
 71
3
 72
35
 73
31
 74
0
 42
0.0000001
 43
0.0000001
 44
0.0000000001
 40
0.0
 40
0.0
 40
0.0
 40
0.0
 40
0.0618795367
 40
0.1245210306
 40
0.1561606702
 40
0.1879947732
 40
0.2521045762
 40
0.3165378835
 40
0.3808736379
 40
0.4128879607
 40
0.4447374757
 40
0.507825668
 40
0.5390725776
 40
0.5701271629
 40
0.6010125748
 40
0.6317633615
 40
0.6624155381
 40
0.6930066643
 40
0.7235716259
 40
0.7541400221
 40
0.784732872
 40
0.8153649736
 40
0.8460414224
 40
0.8614011862
 40
0.8767721222
 40
0.8921534636
 40
0.9075450778
 40
0.9383433233
 40
0.9691582917
 40
1.0
 40
1.0
 40
1.0
 40
1.0
 10
17.4526196381
 20
12.9304472151
 30
0.0
 10
17.4556260609
 20
12.9321829638
 30
0.0
 10
17.4619090885
 20
12.9352844484
 30
0.0
 10
17.4701867067
 20
12.9382113732
 30
0.0
 10
17.4770309525
 20
12.9400160023
 30
0.0
 10
17.484042023
 20
12.9414711323
 30
0.0
 10
17.4929839077
 20
12.942611697
 30
0.0
 10
17.50381739
 20
12.9429055035
 30
0.0
 10
17.512830636
 20
12.9422567569
 30
0.0
 10
17.5199471428
 20
12.9411969245
 30
0.0
 10
17.5269303478
 20
12.9397849831
 30
0.0
 10
17.533752547
 20
12.9378325394
 30
0.0
 10
17.5403288313
 20
12.9353263262
 30
0.0
 10
17.5450985309
 20
12.9331779268
 30
0.0
 10
17.549702118
 20
12.9307524197
 30
0.0
 10
17.5541206956
 20
12.9280465916
 30
0.0
 10
17.5583336742
 20
12.9250584939
 30
0.0
 10
17.5623176757
 20
12.9217871344
 30
0.0
 10
17.5660475114
 20
12.9182349672
 30
0.0
 10
17.5694949675
 20
12.9144075266
 30
0.0
 10
17.5726312953
 20
12.9103159575
 30
0.0
 10
17.5754255551
 20
12.905976186
 30
0.0
 10
17.5774450914
 20
12.9021721626
 30
0.0
 10
17.5788609468
 20
12.8990305649
 30
0.0
 10
17.5798209318
 20
12.8966274354
 30
0.0
 10
17.5806754664
 20
12.8941828928
 30
0.0
 10
17.5816701365
 20
12.8908740361
 30
0.0
 10
17.5826371618
 20
12.8866570909
 30
0.0
 10
17.5833391591
 20
12.8815114114
 30
0.0
 10
17.5834959859
 20
12.8780503309
 30
0.0
 10
17.5834959859
 20
12.8763200758
 30
0.0
  0
SPLINE
  5
596
100
AcDbEntity
  8
AXIS_COSMETIC_THREADS
100
AcDbSpline
 62
7
  6
CONTINUOUS
 70
0
 71
3
 72
20
 73
16
 74
0
 42
0.0000001
 43
0.0000001
 44
0.0000000001
 40
0.0
 40
0.0
 40
0.0
 40
0.0
 40
0.0752250267
 40
0.1485773061
 40
0.2894325321
 40
0.4225988707
 40
0.5484730782
 40
0.60892183
 40
0.6678573654
 40
0.7254343077
 40
0.7818337109
 40
0.8372585149
 40
0.8919320493
 40
0.9460952688
 40
1.0
 40
1.0
 40
1.0
 40
1.0
 10
17.5594423721
 20
12.8427933038
 30
0.0
 10
17.5603804497
 20
12.8433349
 30
0.0
 10
17.5622111013
 20
12.844443761
 30
0.0
 10
17.5656768385
 20
12.8467602772
 30
0.0
 10
17.5696393028
 20
12.849827517
 30
0.0
 10
17.5738071055
 20
12.8538168785
 30
0.0
 10
17.5767433185
 20
12.8573757469
 30
0.0
 10
17.5787090765
 20
12.8603125254
 30
0.0
 10
17.5799776972
 20
12.8625249541
 30
0.0
 10
17.5810566744
 20
12.8647713901
 30
0.0
 10
17.5819434804
 20
12.8670463913
 30
0.0
 10
17.5826358071
 20
12.8693444172
 30
0.0
 10
17.583131513
 20
12.8716599554
 30
0.0
 10
17.5834296474
 20
12.8739869531
 30
0.0
 10
17.5834959766
 20
12.8755438786
 30
0.0
 10
17.5834959556
 20
12.8763200758
 30
0.0
  0
SPLINE
  5
597
100
AcDbEntity
  8
AXIS_COSMETIC_THREADS
100
AcDbSpline
 62
7
  6
CONTINUOUS
 70
0
 71
3
 72
39
 73
35
 74
0
 42
0.0000001
 43
0.0000001
 44
0.0000000001
 40
0.0
 40
0.0
 40
0.0
 40
0.0
 40
0.0306601343
 40
0.0623884033
 40
0.0951015473
 40
0.1287231547
 40
0.1631613002
 40
0.1983098222
 40
0.2340550241
 40
0.2702770864
 40
0.3068498571
 40
0.3436436284
 40
0.3805261393
 40
0.4173642804
 40
0.454025295
 40
0.4903784661
 40
0.526296467
 40
0.5616567694
 40
0.596343678
 40
0.6302490987
 40
0.6632755321
 40
0.695336674
 40
0.7263604863
 40
0.7562911208
 40
0.7850909342
 40
0.812744523
 40
0.8392599117
 40
0.8646733419
 40
0.8890509179
 40
0.9124913314
 40
0.9351273998
 40
0.9571241649
 40
0.9786762532
 40
1.0
 40
1.0
 40
1.0
 40
1.0
 10
17.5594423721
 20
12.8427933038
 30
0.0
 10
17.5579916621
 20
12.841955741
 30
0.0
 10
17.5549837273
 20
12.8403468562
 30
0.0
 10
17.5502626468
 20
12.8381704459
 30
0.0
 10
17.5452774277
 20
12.8362003611
 30
0.0
 10
17.5400557152
 20
12.8344472189
 30
0.0
 10
17.5346252921
 20
12.8329200681
 30
0.0
 10
17.5290153261
 20
12.8316274542
 30
0.0
 10
17.5232561922
 20
12.8305760498
 30
0.0
 10
17.5173789092
 20
12.8297717618
 30
0.0
 10
17.5114152018
 20
12.8292187558
 30
0.0
 10
17.5053972641
 20
12.8289200597
 30
0.0
 10
17.4993575856
 20
12.8288773956
 30
0.0
 10
17.4933287765
 20
12.8290907619
 30
0.0
 10
17.487343397
 20
12.8295592946
 30
0.0
 10
17.4814337439
 20
12.8302802073
 30
0.0
 10
17.4756317258
 20
12.8312497606
 30
0.0
 10
17.4699686479
 20
12.8324627272
 30
0.0
 10
17.4644750189
 20
12.8339124263
 30
0.0
 10
17.4591805071
 20
12.8355913292
 30
0.0
 10
17.4541135437
 20
12.8374901273
 30
0.0
 10
17.4493014709
 20
12.839598911
 30
0.0
 10
17.4447701227
 20
12.8419063074
 30
0.0
 10
17.4405438253
 20
12.844400032
 30
0.0
 10
17.4366454115
 20
12.8470671014
 30
0.0
 10
17.4330956909
 20
12.8498932242
 30
0.0
 10
17.4299140924
 20
12.8528639581
 30
0.0
 10
17.4271178182
 20
12.8559636431
 30
0.0
 10
17.4247225015
 20
12.8591763163
 30
0.0
 10
17.4227419687
 20
12.8624853007
 30
0.0
 10
17.4211877965
 20
12.8658729106
 30
0.0
 10
17.4200702397
 20
12.8693211636
 30
0.0
 10
17.4193963272
 20
12.8728097955
 30
0.0
 10
17.4192460478
 20
12.8751550412
 30
0.0
 10
17.4192460163
 20
12.8763200758
 30
0.0
  0
SPLINE
  5
598
100
AcDbEntity
  8
AXIS_COSMETIC_THREADS
100
AcDbSpline
 62
7
  6
CONTINUOUS
 70
0
 71
3
 72
50
 73
46
 74
0
 42
0.0000001
 43
0.0000001
 44
0.0000000001
 40
0.0
 40
0.0
 40
0.0
 40
0.0
 40
0.0309809554
 40
0.0603641758
 40
0.0881402361
 40
0.1014559969
 40
0.1144078335
 40
0.1270168764
 40
0.1393098536
 40
0.1513196192
 40
0.1630836111
 40
0.1746442736
 40
0.186048431
 40
0.1973460358
 40
0.2085897641
 40
0.219833493
 40
0.2311310983
 40
0.2425352642
 40
0.2540959672
 40
0.2658600561
 40
0.2778699253
 40
0.2901628961
 40
0.3027717283
 40
0.3157234043
 40
0.3290395306
 40
0.3427373136
 40
0.3568283514
 40
0.3862058011
 40
0.4171910672
 40
0.4497342758
 40
0.4837358254
 40
0.5190561151
 40
0.5555227679
 40
0.592936439
 40
0.6310776859
 40
0.6697122807
 40
0.7085958349
 40
0.7474794059
 40
0.7861139749
 40
0.8242550333
 40
0.8616689789
 40
0.8981354647
 40
0.9334537428
 40
0.9674610961
 40
1.0
 40
1.0
 40
1.0
 40
1.0
 10
17.5403393561
 20
12.8875029104
 30
0.0
 10
17.5415822684
 20
12.8882205019
 30
0.0
 10
17.5439478463
 20
12.8897199184
 30
0.0
 10
17.5471816051
 20
12.8922228191
 30
0.0
 10
17.5495455249
 20
12.894485559
 30
0.0
 10
17.5511931665
 20
12.8963723254
 30
0.0
 10
17.5522919756
 20
12.8978008196
 30
0.0
 10
17.553268251
 20
12.8992590958
 30
0.0
 10
17.5541193982
 20
12.900743803
 30
0.0
 10
17.5548435247
 20
12.9022512254
 30
0.0
 10
17.5554386339
 20
12.903777845
 30
0.0
 10
17.5559030567
 20
12.9053199722
 30
0.0
 10
17.5562358407
 20
12.906873743
 30
0.0
 10
17.5564358458
 20
12.9084353748
 30
0.0
 10
17.5565024726
 20
12.9100009338
 30
0.0
 10
17.5564358223
 20
12.9115664917
 30
0.0
 10
17.5562357966
 20
12.9131281212
 30
0.0
 10
17.555902993
 20
12.9146818901
 30
0.0
 10
17.5554385468
 20
12.9162240176
 30
0.0
 10
17.5548434061
 20
12.9177506369
 30
0.0
 10
17.55411925
 20
12.9192580555
 30
0.0
 10
17.5532680921
 20
12.9207427474
 30
0.0
 10
17.5522918245
 20
12.9222010175
 30
0.0
 10
17.5511930293
 20
12.9236294822
 30
0.0
 10
17.549974498
 20
12.9250248416
 30
0.0
 10
17.5486389652
 20
12.9263836367
 30
0.0
 10
17.5466797771
 20
12.9281670892
 30
0.0
 10
17.5439473465
 20
12.9302821773
 30
0.0
 10
17.5403075166
 20
12.9325890479
 30
0.0
 10
17.5362960089
 20
12.9346784701
 30
0.0
 10
17.5319513021
 20
12.9365309803
 30
0.0
 10
17.5273145681
 20
12.9381293107
 30
0.0
 10
17.5224299126
 20
12.9394582078
 30
0.0
 10
17.517343936
 20
12.9405051708
 30
0.0
 10
17.5121052086
 20
12.9412602893
 30
0.0
 10
17.5067637825
 20
12.9417162192
 30
0.0
 10
17.5013707566
 20
12.94186864
 30
0.0
 10
17.4959777326
 20
12.9417161937
 30
0.0
 10
17.4906363182
 20
12.9412602332
 30
0.0
 10
17.4853975908
 20
12.9405051066
 30
0.0
 10
17.4803116209
 20
12.9394580926
 30
0.0
 10
17.475427086
 20
12.9381291829
 30
0.0
 10
17.4707900899
 20
12.936530854
 30
0.0
 10
17.4664457325
 20
12.9346782656
 30
0.0
 10
17.4637080307
 20
12.9332523677
 30
0.0
 10
17.4624026157
 20
12.9324986905
 30
0.0
  0
SPLINE
  5
599
100
AcDbEntity
  8
AXIS_COSMETIC_THREADS
100
AcDbSpline
 62
7
  6
CONTINUOUS
 70
0
 71
3
 72
50
 73
46
 74
0
 42
0.0000001
 43
0.0000001
 44
0.0000000001
 40
0.0
 40
0.0
 40
0.0
 40
0.0
 40
0.0325389039
 40
0.0665462572
 40
0.1018645353
 40
0.1383310211
 40
0.1757449667
 40
0.2138860251
 40
0.2525205941
 40
0.2914041651
 40
0.3302877193
 40
0.3689223141
 40
0.407063561
 40
0.4444772321
 40
0.4809438849
 40
0.5162641746
 40
0.5502657242
 40
0.5828089328
 40
0.6137941989
 40
0.6431716486
 40
0.6572626864
 40
0.6709604694
 40
0.6842765957
 40
0.6972282717
 40
0.7098371039
 40
0.7221300747
 40
0.7341399439
 40
0.7459040328
 40
0.7574647358
 40
0.7688689017
 40
0.780166507
 40
0.7914102359
 40
0.8026539642
 40
0.813951569
 40
0.8253557264
 40
0.8369163889
 40
0.8486803808
 40
0.8606901464
 40
0.8729831236
 40
0.8855921665
 40
0.8985440031
 40
0.9118597639
 40
0.9396358242
 40
0.9690190446
 40
1.0
 40
1.0
 40
1.0
 40
1.0
 10
17.5403393561
 20
12.8875029104
 30
0.0
 10
17.5390339412
 20
12.8867492332
 30
0.0
 10
17.5362962394
 20
12.8853233354
 30
0.0
 10
17.5319518819
 20
12.883470747
 30
0.0
 10
17.5273148859
 20
12.8818724181
 30
0.0
 10
17.522430351
 20
12.8805435084
 30
0.0
 10
17.5173443811
 20
12.8794964944
 30
0.0
 10
17.5121056537
 20
12.8787413678
 30
0.0
 10
17.5067642392
 20
12.8782854073
 30
0.0
 10
17.5013712152
 20
12.8781329609
 30
0.0
 10
17.4959781894
 20
12.8782853817
 30
0.0
 10
17.4906367633
 20
12.8787413116
 30
0.0
 10
17.4853980359
 20
12.8794964302
 30
0.0
 10
17.4803120593
 20
12.8805433932
 30
0.0
 10
17.4754274037
 20
12.8818722903
 30
0.0
 10
17.4707906698
 20
12.8834706207
 30
0.0
 10
17.466445963
 20
12.8853231309
 30
0.0
 10
17.4624344552
 20
12.8874125531
 30
0.0
 10
17.4587946254
 20
12.8897194237
 30
0.0
 10
17.4560621948
 20
12.8918345118
 30
0.0
 10
17.4541030067
 20
12.8936179643
 30
0.0
 10
17.4527674739
 20
12.8949767594
 30
0.0
 10
17.4515489426
 20
12.8963721188
 30
0.0
 10
17.4504501474
 20
12.8978005835
 30
0.0
 10
17.4494738798
 20
12.8992588536
 30
0.0
 10
17.4486227218
 20
12.9007435455
 30
0.0
 10
17.4478985658
 20
12.9022509641
 30
0.0
 10
17.4473034251
 20
12.9037775834
 30
0.0
 10
17.4468389788
 20
12.9053197109
 30
0.0
 10
17.4465061753
 20
12.9068734797
 30
0.0
 10
17.4463061495
 20
12.9084351093
 30
0.0
 10
17.4462394993
 20
12.9100006672
 30
0.0
 10
17.446306126
 20
12.9115662262
 30
0.0
 10
17.4465061312
 20
12.913127858
 30
0.0
 10
17.4468389151
 20
12.9146816287
 30
0.0
 10
17.447303338
 20
12.916223756
 30
0.0
 10
17.4478984472
 20
12.9177503756
 30
0.0
 10
17.4486225737
 20
12.919257798
 30
0.0
 10
17.4494737209
 20
12.9207425051
 30
0.0
 10
17.4504499963
 20
12.9222007814
 30
0.0
 10
17.4515488054
 20
12.9236292755
 30
0.0
 10
17.4531964469
 20
12.925516042
 30
0.0
 10
17.4555603668
 20
12.9277787818
 30
0.0
 10
17.4587941256
 20
12.9302816826
 30
0.0
 10
17.4611597034
 20
12.9317810991
 30
0.0
 10
17.4624026157
 20
12.9324986905
 30
0.0
  0
SPLINE
  5
59A
100
AcDbEntity
  8
AXIS_COSMETIC_THREADS
100
AcDbSpline
 62
7
  6
CONTINUOUS
 70
0
 71
3
 72
15
 73
11
 74
0
 42
0.0000001
 43
0.0000001
 44
0.0000000001
 40
0.0
 40
0.0
 40
0.0
 40
0.0
 40
0.141252439
 40
0.2778105126
 40
0.4095207783
 40
0.5364030093
 40
0.6586095463
 40
0.7763766633
 40
0.8900297791
 40
1.0
 40
1.0
 40
1.0
 40
1.0
 10
18.6903690337
 20
12.9032615518
 30
0.0
 10
18.6913862779
 20
12.9038488546
 30
0.0
 10
18.6934195674
 20
12.9049487311
 30
0.0
 10
18.6965085035
 20
12.9063874392
 30
0.0
 10
18.6995728448
 20
12.9075805668
 30
0.0
 10
18.7025989287
 20
12.9085226682
 30
0.0
 10
18.7055743414
 20
12.9092097647
 30
0.0
 10
18.708487076
 20
12.909638638
 30
0.0
 10
18.7113245551
 20
12.9098075468
 30
0.0
 10
18.7131864899
 20
12.9097444687
 30
0.0
 10
18.7140977369
 20
12.9096676675
 30
0.0
  0
SPLINE
  5
59B
100
AcDbEntity
  8
AXIS_COSMETIC_THREADS
100
AcDbSpline
 62
7
  6
CONTINUOUS
 70
0
 71
3
 72
11
 73
7
 74
0
 42
0.0000001
 43
0.0000001
 44
0.0000000001
 40
0.0
 40
0.0
 40
0.0
 40
0.0
 40
0.2571409371
 40
0.5082460246
 40
0.7551882685
 40
1.0
 40
1.0
 40
1.0
 40
1.0
 10
18.7140977369
 20
12.9096676675
 30
0.0
 10
18.714999401
 20
12.909591674
 30
0.0
 10
18.7167756371
 20
12.9093526476
 30
0.0
 10
18.7193615111
 20
12.9087181138
 30
0.0
 10
18.7218205827
 20
12.9078157788
 30
0.0
 10
18.7233705853
 20
12.9070363593
 30
0.0
 10
18.7241166686
 20
12.906605663
 30
0.0
  0
SPLINE
  5
59C
100
AcDbEntity
  8
AXIS_COSMETIC_THREADS
100
AcDbSpline
 62
7
  6
CONTINUOUS
 70
0
 71
3
 72
21
 73
17
 74
0
 42
0.0000001
 43
0.0000001
 44
0.0000000001
 40
0.0
 40
0.0
 40
0.0
 40
0.0
 40
0.1293541706
 40
0.2563897844
 40
0.3192183929
 40
0.3816915004
 40
0.4438799703
 40
0.5058633534
 40
0.5677082945
 40
0.6294659623
 40
0.6911913728
 40
0.752917067
 40
0.8146701558
 40
0.8764164194
 40
0.9381538095
 40
1.0
 40
1.0
 40
1.0
 40
1.0
 10
18.6810489953
 20
12.7418145175
 30
0.0
 10
18.6772272868
 20
12.7396080662
 30
0.0
 10
18.6694459779
 20
12.7355797885
 30
0.0
 10
18.6592953537
 20
12.7315742361
 30
0.0
 10
18.65104608
 20
12.7290987612
 30
0.0
 10
18.6448187071
 20
12.7276216141
 30
0.0
 10
18.6385407054
 20
12.7265337889
 30
0.0
 10
18.6322267858
 20
12.7258530379
 30
0.0
 10
18.6258958784
 20
12.7255953972
 30
0.0
 10
18.619570743
 20
12.7257763399
 30
0.0
 10
18.6132785802
 20
12.7264098436
 30
0.0
 10
18.6070499962
 20
12.7275052425
 30
0.0
 10
18.6009215225
 20
12.7290699921
 30
0.0
 10
18.5949303931
 20
12.7311002433
 30
0.0
 10
18.5891139312
 20
12.733594628
 30
0.0
 10
18.5853775929
 20
12.7355590027
 30
0.0
 10
18.5835503685
 20
12.7366139274
 30
0.0
  0
SPLINE
  5
59D
100
AcDbEntity
  8
AXIS_COSMETIC_THREADS
100
AcDbSpline
 62
7
  6
CONTINUOUS
 70
0
 71
3
 72
22
 73
18
 74
0
 42
0.0000001
 43
0.0000001
 44
0.0000000001
 40
0.0
 40
0.0
 40
0.0
 40
0.0
 40
0.0752253815
 40
0.1485687885
 40
0.2199769577
 40
0.2894428577
 40
0.3569886133
 40
0.422651914
 40
0.5485128635
 40
0.6089562292
 40
0.6678861519
 40
0.7254586181
 40
0.7818528723
 40
0.8372727836
 40
0.8919416061
 40
0.9461000295
 40
1.0
 40
1.0
 40
1.0
 40
1.0
 10
18.6537761054
 20
12.9917494603
 30
0.0
 10
18.655489619
 20
12.9927387519
 30
0.0
 10
18.6589153407
 20
12.9946217736
 30
0.0
 10
18.6641066525
 20
12.9971808727
 30
0.0
 10
18.66927408
 20
12.9994323786
 30
0.0
 10
18.6744043322
 20
13.0013706419
 30
0.0
 10
18.679485925
 20
13.0029910277
 30
0.0
 10
18.6860850737
 20
13.0046982044
 30
0.0
 10
18.6926413834
 20
13.0057979027
 30
0.0
 10
18.699081517
 20
13.0062256526
 30
0.0
 10
18.7037396171
 20
13.0062116269
 30
0.0
 10
18.7082782892
 20
13.005867155
 30
0.0
 10
18.7126866551
 20
13.0051922452
 30
0.0
 10
18.7169538272
 20
13.004188802
 30
0.0
 10
18.7210692154
 20
13.0028585178
 30
0.0
 10
18.7250222359
 20
13.0012050515
 30
0.0
 10
18.7275455543
 20
12.9998882881
 30
0.0
 10
18.7287733266
 20
12.9991794777
 30
0.0
  0
SPLINE
  5
59E
100
AcDbEntity
  8
AXIS_COSMETIC_THREADS
100
AcDbSpline
 62
7
  6
CONTINUOUS
 70
0
 71
3
 72
28
 73
24
 74
0
 42
0.0000001
 43
0.0000001
 44
0.0000000001
 40
0.0
 40
0.0
 40
0.0
 40
0.0
 40
0.0294324275
 40
0.0597885146
 40
0.09099984
 40
0.1230037457
 40
0.1891174283
 40
0.2575327769
 40
0.3275354383
 40
0.39835913
 40
0.4692075936
 40
0.5392840872
 40
0.6078183365
 40
0.6740952092
 40
0.7374852266
 40
0.7974786179
 40
0.8537247598
 40
0.8804026357
 40
0.9061099002
 40
0.9308696054
 40
0.9547250074
 40
0.9777394112
 40
1.0
 40
1.0
 40
1.0
 40
1.0
 10
18.6903690337
 20
12.9032615518
 30
0.0
 10
18.6893168891
 20
12.9026540995
 30
0.0
 10
18.6872146011
 20
12.9013585804
 30
0.0
 10
18.6841237929
 20
12.8992212691
 30
0.0
 10
18.6810592587
 20
12.8968676899
 30
0.0
 10
18.6769827049
 20
12.8934183309
 30
0.0
 10
18.6720430222
 20
12.88862417
 30
0.0
 10
18.6664865721
 20
12.8822561174
 30
0.0
 10
18.661329977
 20
12.8753165832
 30
0.0
 10
18.6566597409
 20
12.8679222595
 30
0.0
 10
18.6525539977
 20
12.86019673
 30
0.0
 10
18.6490815133
 20
12.8522694001
 30
0.0
 10
18.6463004028
 20
12.8442728056
 30
0.0
 10
18.6442571582
 20
12.8363404544
 30
0.0
 10
18.6429860594
 20
12.8286037949
 30
0.0
 10
18.6425088695
 20
12.8211916277
 30
0.0
 10
18.642785593
 20
12.8152830366
 30
0.0
 10
18.6434306291
 20
12.8108425981
 30
0.0
 10
18.644104958
 20
12.8077275868
 30
0.0
 10
18.644975775
 20
12.8047827674
 30
0.0
 10
18.6460394195
 20
12.8020202685
 30
0.0
 10
18.6472921839
 20
12.7994524327
 30
0.0
 10
18.6482649023
 20
12.7978527052
 30
0.0
 10
18.6487809826
 20
12.7970924515
 30
0.0
  0
SPLINE
  5
59F
100
AcDbEntity
  8
AXIS_COSMETIC_THREADS
100
AcDbSpline
 62
7
  6
CONTINUOUS
 70
0
 71
3
 72
11
 73
7
 74
0
 42
0.0000001
 43
0.0000001
 44
0.0000000001
 40
0.0
 40
0.0
 40
0.0
 40
0.0
 40
0.2575157423
 40
0.5086867963
 40
0.7554652252
 40
1.0
 40
1.0
 40
1.0
 40
1.0
 10
18.6487809826
 20
12.7970924515
 30
0.0
 10
18.6493050459
 20
12.7963204378
 30
0.0
 10
18.6504189735
 20
12.7948468569
 30
0.0
 10
18.6523015906
 20
12.7928520291
 30
0.0
 10
18.6543635146
 20
12.7911149046
 30
0.0
 10
18.6558540327
 20
12.7901325966
 30
0.0
 10
18.6566213987
 20
12.7896896143
 30
0.0
  0
SPLINE
  5
5A0
100
AcDbEntity
  8
AXIS_COSMETIC_THREADS
100
AcDbSpline
 62
7
  6
CONTINUOUS
 70
0
 71
3
 72
11
 73
7
 74
0
 42
0.0000001
 43
0.0000001
 44
0.0000000001
 40
0.0
 40
0.0
 40
0.0
 40
0.0
 40
0.2368594545
 40
0.4829998894
 40
0.7376596821
 40
1.0
 40
1.0
 40
1.0
 40
1.0
 10
18.6537761054
 20
12.9917494603
 30
0.0
 10
18.6507343207
 20
12.9899932956
 30
0.0
 10
18.6446630407
 20
12.9861803808
 30
0.0
 10
18.6358051256
 20
12.9797500921
 30
0.0
 10
18.6270751274
 20
12.9725388317
 30
0.0
 10
18.6214569426
 20
12.9673152706
 30
0.0
 10
18.6186816045
 20
12.9645892617
 30
0.0
  0
SPLINE
  5
5A1
100
AcDbEntity
  8
AXIS_COSMETIC_THREADS
100
AcDbSpline
 62
7
  6
CONTINUOUS
 70
0
 71
3
 72
15
 73
11
 74
0
 42
0.0000001
 43
0.0000001
 44
0.0000000001
 40
0.0
 40
0.0
 40
0.0
 40
0.0
 40
0.1213755698
 40
0.2458341614
 40
0.3723929182
 40
0.5000143845
 40
0.6276339838
 40
0.754187209
 40
0.8786366883
 40
1.0
 40
1.0
 40
1.0
 40
1.0
 10
18.6186816045
 20
12.9645892617
 30
0.0
 10
18.6148847514
 20
12.9608598943
 30
0.0
 10
18.6074751638
 20
12.953015908
 30
0.0
 10
18.5971064522
 20
12.9403865832
 30
0.0
 10
18.5874425684
 20
12.9268715594
 30
0.0
 10
18.578604562
 20
12.9126397909
 30
0.0
 10
18.5707022143
 20
12.8978682518
 30
0.0
 10
18.5638338481
 20
12.8827405257
 30
0.0
 10
18.5580852299
 20
12.8674459232
 30
0.0
 10
18.5549999168
 20
12.8571071198
 30
0.0
 10
18.5536702157
 20
12.8519544071
 30
0.0
  0
SPLINE
  5
5A2
100
AcDbEntity
  8
AXIS_COSMETIC_THREADS
100
AcDbSpline
 62
7
  6
CONTINUOUS
 70
0
 71
3
 72
25
 73
21
 74
0
 42
0.0000001
 43
0.0000001
 44
0.0000000001
 40
0.0
 40
0.0
 40
0.0
 40
0.0
 40
0.0788988583
 40
0.1559207426
 40
0.2308771752
 40
0.3036058834
 40
0.3739744953
 40
0.441886672
 40
0.5072856951
 40
0.5701600774
 40
0.6305505444
 40
0.6598488624
 40
0.688568001
 40
0.7443440396
 40
0.7981186655
 40
0.8501847439
 40
0.8756968023
 40
0.9009209247
 40
0.9507001969
 40
1.0
 40
1.0
 40
1.0
 40
1.0
 10
18.5536702157
 20
12.8519544071
 30
0.0
 10
18.5528596898
 20
12.8488135458
 30
0.0
 10
18.551399534
 20
12.8425688287
 30
0.0
 10
18.5496870808
 20
12.8332287758
 30
0.0
 10
18.5484847468
 20
12.8240647115
 30
0.0
 10
18.5477985591
 20
12.8151215845
 30
0.0
 10
18.5476322023
 20
12.8064428759
 30
0.0
 10
18.54798651
 20
12.7980708703
 30
0.0
 10
18.5488601858
 20
12.7900461245
 30
0.0
 10
18.5502495665
 20
12.7824080538
 30
0.0
 10
18.5518479278
 20
12.7763350463
 30
0.0
 10
18.5533844974
 20
12.7717143478
 30
0.0
 10
18.5550538159
 20
12.7673426299
 30
0.0
 10
18.5574399581
 20
12.7621728933
 30
0.0
 10
18.5608085036
 20
12.7564328208
 30
0.0
 10
18.5640241349
 20
12.7520796736
 30
0.0
 10
18.5668145753
 20
12.7489025896
 30
0.0
 10
18.5697163104
 20
12.7459574584
 30
0.0
 10
18.5736166153
 20
12.7426360739
 30
0.0
 10
18.5770235484
 20
12.7403820982
 30
0.0
 10
18.5787788842
 20
12.7393687177
 30
0.0
  0
SPLINE
  5
5A3
100
AcDbEntity
  8
AXIS_COSMETIC_THREADS
100
AcDbSpline
 62
7
  6
CONTINUOUS
 70
0
 71
3
 72
25
 73
21
 74
0
 42
0.0000001
 43
0.0000001
 44
0.0000000001
 40
0.0
 40
0.0
 40
0.0
 40
0.0
 40
0.0607384256
 40
0.0910565286
 40
0.1213741697
 40
0.1517031768
 40
0.1820378672
 40
0.2123692045
 40
0.2426910647
 40
0.3033310501
 40
0.364046057
 40
0.4249383497
 40
0.4861173489
 40
0.5477163824
 40
0.6098712806
 40
0.6727050635
 40
0.7363346246
 40
0.8008425526
 40
0.8662863395
 40
1.0
 40
1.0
 40
1.0
 40
1.0
 10
18.7335478235
 20
12.9964230179
 30
0.0
 10
18.7359508521
 20
12.9950356601
 30
0.0
 10
18.7394485822
 20
12.9927657784
 30
0.0
 10
18.7438526586
 20
12.9893942087
 30
0.0
 10
18.7470192991
 20
12.9867001243
 30
0.0
 10
18.7500448352
 20
12.9838477563
 30
0.0
 10
18.7529238231
 20
12.9808466977
 30
0.0
 10
18.7556500437
 20
12.9777065739
 30
0.0
 10
18.7590732702
 20
12.9733469698
 30
0.0
 10
18.7629541021
 20
12.9675928582
 30
0.0
 10
18.7669568499
 20
12.9602798522
 30
0.0
 10
18.7703092149
 20
12.9526206543
 30
0.0
 10
18.7730236565
 20
12.9446713637
 30
0.0
 10
18.7751165451
 20
12.9364777374
 30
0.0
 10
18.7766098409
 20
12.9280780813
 30
0.0
 10
18.7775238535
 20
12.9195032692
 30
0.0
 10
18.7778784454
 20
12.9107803993
 30
0.0
 10
18.7776927
 20
12.9019332217
 30
0.0
 10
18.7767387474
 20
12.8899209873
 30
0.0
 10
18.7752645878
 20
12.8809203379
 30
0.0
 10
18.7739814451
 20
12.8749480753
 30
0.0
  0
SPLINE
  5
5A4
100
AcDbEntity
  8
AXIS_COSMETIC_THREADS
100
AcDbSpline
 62
7
  6
CONTINUOUS
 70
0
 71
3
 72
10
 73
6
 74
0
 42
0.0000001
 43
0.0000001
 44
0.0000000001
 40
0.0
 40
0.0
 40
0.0
 40
0.0
 40
0.5068987185
 40
0.7553296777
 40
1.0
 40
1.0
 40
1.0
 40
1.0
 10
18.7089185706
 20
12.7622931968
 30
0.0
 10
18.7045764729
 20
12.7583686684
 30
0.0
 10
18.6978216603
 20
12.7528209051
 30
0.0
 10
18.6883435313
 20
12.7462200004
 30
0.0
 10
18.6834955674
 20
12.7432270382
 30
0.0
 10
18.6810489953
 20
12.7418145175
 30
0.0
  0
SPLINE
  5
5A5
100
AcDbEntity
  8
AXIS_COSMETIC_THREADS
100
AcDbSpline
 62
7
  6
CONTINUOUS
 70
0
 71
3
 72
11
 73
7
 74
0
 42
0.0000001
 43
0.0000001
 44
0.0000000001
 40
0.0
 40
0.0
 40
0.0
 40
0.0
 40
0.2368594545
 40
0.4829998894
 40
0.7376596821
 40
1.0
 40
1.0
 40
1.0
 40
1.0
 10
18.658549096
 20
12.9889938352
 30
0.0
 10
18.6555073114
 20
12.9872376705
 30
0.0
 10
18.6494360314
 20
12.9834247557
 30
0.0
 10
18.6405781163
 20
12.976994467
 30
0.0
 10
18.631848118
 20
12.9697832066
 30
0.0
 10
18.6262299332
 20
12.9645596455
 30
0.0
 10
18.6234545951
 20
12.9618336366
 30
0.0
  0
SPLINE
  5
5A6
100
AcDbEntity
  8
AXIS_COSMETIC_THREADS
100
AcDbSpline
 62
7
  6
CONTINUOUS
 70
0
 71
3
 72
15
 73
11
 74
0
 42
0.0000001
 43
0.0000001
 44
0.0000000001
 40
0.0
 40
0.0
 40
0.0
 40
0.0
 40
0.1213755698
 40
0.2458341614
 40
0.3723929182
 40
0.5000143845
 40
0.6276339838
 40
0.754187209
 40
0.8786366883
 40
1.0
 40
1.0
 40
1.0
 40
1.0
 10
18.6234545951
 20
12.9618336366
 30
0.0
 10
18.619657742
 20
12.9581042692
 30
0.0
 10
18.6122481544
 20
12.9502602829
 30
0.0
 10
18.6018794428
 20
12.9376309581
 30
0.0
 10
18.592215559
 20
12.9241159343
 30
0.0
 10
18.5833775526
 20
12.9098841658
 30
0.0
 10
18.575475205
 20
12.8951126267
 30
0.0
 10
18.5686068387
 20
12.8799849006
 30
0.0
 10
18.5628582205
 20
12.8646902982
 30
0.0
 10
18.5597729075
 20
12.8543514947
 30
0.0
 10
18.5584432063
 20
12.849198782
 30
0.0
  0
SPLINE
  5
5A7
100
AcDbEntity
  8
AXIS_COSMETIC_THREADS
100
AcDbSpline
 62
7
  6
CONTINUOUS
 70
0
 71
3
 72
23
 73
19
 74
0
 42
0.0000001
 43
0.0000001
 44
0.0000000001
 40
0.0
 40
0.0
 40
0.0
 40
0.0
 40
0.0779639096
 40
0.1541894523
 40
0.2285093116
 40
0.3007770543
 40
0.370870868
 40
0.4386978933
 40
0.5041961969
 40
0.5673411215
 40
0.6281482072
 40
0.686677808
 40
0.7430407968
 40
0.797400244
 40
0.8499755553
 40
0.9010417223
 40
0.9509257106
 40
1.0
 40
1.0
 40
1.0
 40
1.0
 10
18.5584432063
 20
12.849198782
 30
0.0
 10
18.5576779846
 20
12.8462334784
 30
0.0
 10
18.5562909395
 20
12.840335409
 30
0.0
 10
18.5546353031
 20
12.831510343
 30
0.0
 10
18.5534331025
 20
12.8228375628
 30
0.0
 10
18.5526898311
 20
12.8143549485
 30
0.0
 10
18.5524088768
 20
12.8060992808
 30
0.0
 10
18.5525913899
 20
12.7981063919
 30
0.0
 10
18.5532371207
 20
12.7904109071
 30
0.0
 10
18.55434337
 20
12.7830461545
 30
0.0
 10
18.5559058437
 20
12.7760440295
 30
0.0
 10
18.5579185731
 20
12.7694349986
 30
0.0
 10
18.5603732797
 20
12.7632478343
 30
0.0
 10
18.5632605593
 20
12.7575099253
 30
0.0
 10
18.5665685876
 20
12.7522469879
 30
0.0
 10
18.5702839657
 20
12.7474828717
 30
0.0
 10
18.574390433
 20
12.7432407696
 30
0.0
 10
18.5773948695
 20
12.740759034
 30
0.0
 10
18.578948942
 20
12.7396185471
 30
0.0
  0
SPLINE
  5
5A8
100
AcDbEntity
  8
AXIS_COSMETIC_THREADS
100
AcDbSpline
 62
7
  6
CONTINUOUS
 70
0
 71
3
 72
11
 73
7
 74
0
 42
0.0000001
 43
0.0000001
 44
0.0000000001
 40
0.0
 40
0.0
 40
0.0
 40
0.0
 40
0.2445347748
 40
0.4913132037
 40
0.7424842577
 40
1.0
 40
1.0
 40
1.0
 40
1.0
 10
18.7241166686
 20
12.906605663
 30
0.0
 10
18.7248840346
 20
12.9061626808
 30
0.0
 10
18.7263745528
 20
12.9051803728
 30
0.0
 10
18.7284364767
 20
12.9034432482
 30
0.0
 10
18.7303190938
 20
12.9014484204
 30
0.0
 10
18.7314330214
 20
12.8999748395
 30
0.0
 10
18.7319570847
 20
12.8992028258
 30
0.0
  0
SPLINE
  5
5A9
100
AcDbEntity
  8
AXIS_COSMETIC_THREADS
100
AcDbSpline
 62
7
  6
CONTINUOUS
 70
0
 71
3
 72
17
 73
13
 74
0
 42
0.0000001
 43
0.0000001
 44
0.0000000001
 40
0.0
 40
0.0
 40
0.0
 40
0.0
 40
0.1471132491
 40
0.2872383711
 40
0.420354809
 40
0.5467276221
 40
0.6668789662
 40
0.7816427854
 40
0.8373843915
 40
0.8922318831
 40
0.9463706595
 40
1.0
 40
1.0
 40
1.0
 40
1.0
 10
18.658549096
 20
12.9889938352
 30
0.0
 10
18.6616677165
 20
12.9907943608
 30
0.0
 10
18.6678943435
 20
12.9940797377
 30
0.0
 10
18.6773844154
 20
12.9980907629
 30
0.0
 10
18.6867298318
 20
13.001034556
 30
0.0
 10
18.6958562386
 20
13.0028848361
 30
0.0
 10
18.7046905536
 20
13.0036228289
 30
0.0
 10
18.7118217866
 20
13.0032974609
 30
0.0
 10
18.7172785402
 20
13.0024622036
 30
0.0
 10
18.7212133669
 20
13.0015639071
 30
0.0
 10
18.7250203778
 20
13.0003892118
 30
0.0
 10
18.727477102
 20
12.9994197912
 30
0.0
 10
18.7286785399
 20
12.9988907745
 30
0.0
  0
SPLINE
  5
5AA
100
AcDbEntity
  8
AXIS_COSMETIC_THREADS
100
AcDbSpline
 62
7
  6
CONTINUOUS
 70
0
 71
3
 72
9
 73
5
 74
0
 42
0.0000001
 43
0.0000001
 44
0.0000000001
 40
0.0
 40
0.0
 40
0.0
 40
0.0
 40
0.4929857092
 40
1.0
 40
1.0
 40
1.0
 40
1.0
 10
18.6903690337
 20
12.9338803925
 30
0.0
 10
18.6888912563
 20
12.9330272024
 30
0.0
 10
18.6859380589
 20
12.9312187086
 30
0.0
 10
18.6830752373
 20
12.9292707055
 30
0.0
 10
18.6816469177
 20
12.9282510307
 30
0.0
  0
SPLINE
  5
5AB
100
AcDbEntity
  8
AXIS_COSMETIC_THREADS
100
AcDbSpline
 62
7
  6
CONTINUOUS
 70
0
 71
3
 72
23
 73
19
 74
0
 42
0.0000001
 43
0.0000001
 44
0.0000000001
 40
0.0
 40
0.0
 40
0.0
 40
0.0
 40
0.0576034428
 40
0.117078372
 40
0.1782260774
 40
0.2408058129
 40
0.3045564869
 40
0.3692014788
 40
0.434449472
 40
0.5000011357
 40
0.5655528022
 40
0.6308007384
 40
0.6954456996
 40
0.7591965255
 40
0.8217757631
 40
0.882923129
 40
0.9424008806
 40
1.0
 40
1.0
 40
1.0
 40
1.0
 10
18.6816469177
 20
12.9282510307
 30
0.0
 10
18.6795596269
 20
12.9267609175
 30
0.0
 10
18.6754159413
 20
12.9235919014
 30
0.0
 10
18.6694116304
 20
12.9183977858
 30
0.0
 10
18.6635526759
 20
12.9127170932
 30
0.0
 10
18.6578797625
 20
12.906589074
 30
0.0
 10
18.6524319533
 20
12.9000562637
 30
0.0
 10
18.6472471582
 20
12.8931637611
 30
0.0
 10
18.6423611295
 20
12.8859593682
 30
0.0
 10
18.6378076588
 20
12.878493037
 30
0.0
 10
18.6336185325
 20
12.8708163598
 30
0.0
 10
18.6298225295
 20
12.8629826605
 30
0.0
 10
18.6264460139
 20
12.8550461694
 30
0.0
 10
18.62351254
 20
12.847061767
 30
0.0
 10
18.6210421412
 20
12.8390848527
 30
0.0
 10
18.6190521077
 20
12.8311703807
 30
0.0
 10
18.6175563537
 20
12.8233734574
 30
0.0
 10
18.6168838159
 20
12.8182004756
 30
0.0
 10
18.6166370056
 20
12.8156479635
 30
0.0
  0
SPLINE
  5
5AC
100
AcDbEntity
  8
AXIS_COSMETIC_THREADS
100
AcDbSpline
 62
7
  6
CONTINUOUS
 70
0
 71
3
 72
11
 73
7
 74
0
 42
0.0000001
 43
0.0000001
 44
0.0000000001
 40
0.0
 40
0.0
 40
0.0
 40
0.0
 40
0.2642647612
 40
0.5192342806
 40
0.7645407347
 40
1.0
 40
1.0
 40
1.0
 40
1.0
 10
18.6166370056
 20
12.8156479635
 30
0.0
 10
18.6164227447
 20
12.8134320761
 30
0.0
 10
18.6161258983
 20
12.8090649549
 30
0.0
 10
18.6160889397
 20
12.80262004
 30
0.0
 10
18.6164682648
 20
12.7964289358
 30
0.0
 10
18.6170088551
 20
12.7924104444
 30
0.0
 10
18.6173522322
 20
12.7904568332
 30
0.0
  0
SPLINE
  5
5AD
100
AcDbEntity
  8
AXIS_COSMETIC_THREADS
100
AcDbSpline
 62
7
  6
CONTINUOUS
 70
0
 71
3
 72
29
 73
25
 74
0
 42
0.0000001
 43
0.0000001
 44
0.0000000001
 40
0.0
 40
0.0
 40
0.0
 40
0.0
 40
0.0688250331
 40
0.1342921071
 40
0.1966483247
 40
0.256279527
 40
0.2852489809
 40
0.3137467857
 40
0.3418590266
 40
0.3696783949
 40
0.3973032276
 40
0.4248349501
 40
0.4523769613
 40
0.4800323946
 40
0.5079021828
 40
0.5360837889
 40
0.5646685237
 40
0.5937411403
 40
0.6536211436
 40
0.7162719954
 40
0.7820624148
 40
0.8512252752
 40
0.9238861026
 40
1.0
 40
1.0
 40
1.0
 40
1.0
 10
18.6173522322
 20
12.7904568332
 30
0.0
 10
18.6177317821
 20
12.7882974204
 30
0.0
 10
18.6186603968
 20
12.7841135451
 30
0.0
 10
18.6206305833
 20
12.7781548706
 30
0.0
 10
18.6231296222
 20
12.7727167437
 30
0.0
 10
18.6256651145
 20
12.7686133694
 30
0.0
 10
18.6279377054
 20
12.765652054
 30
0.0
 10
18.6297441451
 20
12.7636071149
 30
0.0
 10
18.6316653093
 20
12.7617214781
 30
0.0
 10
18.63369782
 20
12.7599989914
 30
0.0
 10
18.6358375061
 20
12.7584427754
 30
0.0
 10
18.6380803194
 20
12.7570559183
 30
0.0
 10
18.6404220525
 20
12.7558414278
 30
0.0
 10
18.6428579402
 20
12.7548012965
 30
0.0
 10
18.6453833092
 20
12.7539375484
 30
0.0
 10
18.6479933003
 20
12.7532521008
 30
0.0
 10
18.6506828569
 20
12.7527457965
 30
0.0
 10
18.6544038075
 20
12.7523065199
 30
0.0
 10
18.6592470587
 20
12.7522231778
 30
0.0
 10
18.6652264811
 20
12.7528498759
 30
0.0
 10
18.6713882076
 20
12.7541938857
 30
0.0
 10
18.6776868733
 20
12.7562436437
 30
0.0
 10
18.6840755526
 20
12.7589822983
 30
0.0
 10
18.6882691686
 20
12.7612025345
 30
0.0
 10
18.6903690337
 20
12.7624148849
 30
0.0
  0
SPLINE
  5
5AE
100
AcDbEntity
  8
AXIS_COSMETIC_THREADS
100
AcDbSpline
 62
7
  6
CONTINUOUS
 70
0
 71
3
 72
11
 73
7
 74
0
 42
0.0000001
 43
0.0000001
 44
0.0000000001
 40
0.0
 40
0.0
 40
0.0
 40
0.0
 40
0.2448117315
 40
0.4917539754
 40
0.7428590629
 40
1.0
 40
1.0
 40
1.0
 40
1.0
 10
18.6566213987
 20
12.7896896143
 30
0.0
 10
18.6573674821
 20
12.789258918
 30
0.0
 10
18.6589174846
 20
12.7884794986
 30
0.0
 10
18.6613765562
 20
12.7875771635
 30
0.0
 10
18.6639624302
 20
12.7869426297
 30
0.0
 10
18.6657386663
 20
12.7867036034
 30
0.0
 10
18.6666403304
 20
12.7866276098
 30
0.0
  0
SPLINE
  5
5AF
100
AcDbEntity
  8
AXIS_COSMETIC_THREADS
100
AcDbSpline
 62
7
  6
CONTINUOUS
 70
0
 71
3
 72
9
 73
5
 74
0
 42
0.0000001
 43
0.0000001
 44
0.0000000001
 40
0.0
 40
0.0
 40
0.0
 40
0.0
 40
0.5122302594
 40
1.0
 40
1.0
 40
1.0
 40
1.0
 10
18.6903690337
 20
12.9338803925
 30
0.0
 10
18.6925704831
 20
12.9351513923
 30
0.0
 10
18.6969657971
 20
12.9374685969
 30
0.0
 10
18.7015463859
 20
12.9393985928
 30
0.0
 10
18.7038205566
 20
12.9402277859
 30
0.0
  0
SPLINE
  5
5B0
100
AcDbEntity
  8
AXIS_COSMETIC_THREADS
100
AcDbSpline
 62
7
  6
CONTINUOUS
 70
0
 71
3
 72
30
 73
26
 74
0
 42
0.0000001
 43
0.0000001
 44
0.0000000001
 40
0.0
 40
0.0
 40
0.0
 40
0.0
 40
0.0671963809
 40
0.0994639811
 40
0.1308775759
 40
0.1912896617
 40
0.2204401018
 40
0.2489744012
 40
0.2769802522
 40
0.3045546424
 40
0.3318027653
 40
0.3588372501
 40
0.3857748248
 40
0.4127345875
 40
0.439834975
 40
0.4671914432
 40
0.4949142354
 40
0.5231055043
 40
0.5812229475
 40
0.6422059421
 40
0.7065003653
 40
0.7743793769
 40
0.8459573303
 40
0.921210974
 40
1.0
 40
1.0
 40
1.0
 40
1.0
 10
18.7038205566
 20
12.9402277859
 30
0.0
 10
18.7060501191
 20
12.9410407143
 30
0.0
 10
18.70941247
 20
12.942086514
 30
0.0
 10
18.7139277316
 20
12.9430847511
 30
0.0
 10
18.7182564959
 20
12.9437805866
 30
0.0
 10
18.7225333013
 20
12.9440726451
 30
0.0
 10
18.7267043288
 20
12.9439265618
 30
0.0
 10
18.7297163207
 20
12.9436053986
 30
0.0
 10
18.732641514
 20
12.9430720437
 30
0.0
 10
18.7354735078
 20
12.9423277168
 30
0.0
 10
18.7382056345
 20
12.9413734842
 30
0.0
 10
18.7408317399
 20
12.9402118651
 30
0.0
 10
18.743345775
 20
12.9388453722
 30
0.0
 10
18.7457417409
 20
12.9372768492
 30
0.0
 10
18.7480144286
 20
12.9355103625
 30
0.0
 10
18.7501584998
 20
12.9335498015
 30
0.0
 10
18.7521691007
 20
12.9313995576
 30
0.0
 10
18.7546913914
 20
12.9282558951
 30
0.0
 10
18.7574879566
 20
12.9238473297
 30
0.0
 10
18.7602037335
 20
12.9179488576
 30
0.0
 10
18.7622957751
 20
12.9114402365
 30
0.0
 10
18.7637482839
 20
12.9043798464
 30
0.0
 10
18.7645513927
 20
12.8968288442
 30
0.0
 10
18.7646997524
 20
12.8888532636
 30
0.0
 10
18.7643688663
 20
12.8834169501
 30
0.0
 10
18.7641010617
 20
12.8806473138
 30
0.0
  0
SPLINE
  5
5B1
100
AcDbEntity
  8
AXIS_COSMETIC_THREADS
100
AcDbSpline
 62
7
  6
CONTINUOUS
 70
0
 71
3
 72
9
 73
5
 74
0
 42
0.0000001
 43
0.0000001
 44
0.0000000001
 40
0.0
 40
0.0
 40
0.0
 40
0.0
 40
0.5070142908
 40
1.0
 40
1.0
 40
1.0
 40
1.0
 10
18.6990911496
 20
12.7680442466
 30
0.0
 10
18.69766283
 20
12.7670245719
 30
0.0
 10
18.6948000084
 20
12.7650765687
 30
0.0
 10
18.691846811
 20
12.763268075
 30
0.0
 10
18.6903690337
 20
12.7624148849
 30
0.0
  0
SPLINE
  5
5B2
100
AcDbEntity
  8
02___PRT_ALL_AXES
100
AcDbSpline
 62
7
  6
CONTINUOUS
 70
0
 71
3
 72
16
 73
12
 74
0
 42
0.0000001
 43
0.0000001
 44
0.0000000001
 40
0.0
 40
0.0
 40
0.0
 40
0.0
 40
0.0428786888
 40
0.0875276076
 40
0.1869346782
 40
0.3042506241
 40
0.4379793998
 40
0.5823886662
 40
0.7296085973
 40
0.871263649
 40
1.0
 40
1.0
 40
1.0
 40
1.0
 10
20.1141817842
 20
11.9511179906
 30
0.0
 10
20.1157833184
 20
11.9501933658
 30
0.0
 10
20.1193136471
 20
11.9487261024
 30
0.0
 10
20.1273601709
 20
11.9475467383
 30
0.0
 10
20.1387196996
 20
11.9497647767
 30
0.0
 10
20.1521009975
 20
11.9571051768
 30
0.0
 10
20.1649636368
 20
11.9684825686
 30
0.0
 10
20.1763093933
 20
11.9830124359
 30
0.0
 10
20.1852454558
 20
11.9995263697
 30
0.0
 10
20.1910419141
 20
12.0166686625
 30
0.0
 10
20.1925954233
 20
12.0283434321
 30
0.0
 10
20.1925954233
 20
12.0338956021
 30
0.0
  0
SPLINE
  5
5B3
100
AcDbEntity
  8
02___PRT_ALL_AXES
100
AcDbSpline
 62
7
  6
CONTINUOUS
 70
0
 71
3
 72
11
 73
7
 74
0
 42
0.0000001
 43
0.0000001
 44
0.0000000001
 40
0.0
 40
0.0
 40
0.0
 40
0.0
 40
0.2898075974
 40
0.5490483138
 40
0.7822283121
 40
1.0
 40
1.0
 40
1.0
 40
1.0
 10
20.1925954233
 20
12.0338956021
 30
0.0
 10
20.1925954233
 20
12.0371882828
 30
0.0
 10
20.1920982112
 20
12.043447921
 30
0.0
 10
20.1895602707
 20
12.0520475322
 30
0.0
 10
20.1852945784
 20
12.0590266537
 30
0.0
 10
20.1812840054
 20
12.062396522
 30
0.0
 10
20.179141241
 20
12.0636336189
 30
0.0
  0
SPLINE
  5
5B4
100
AcDbEntity
  8
02___PRT_ALL_AXES
100
AcDbSpline
 62
7
  6
CONTINUOUS
 70
0
 71
3
 72
11
 73
7
 74
0
 42
0.0000001
 43
0.0000001
 44
0.0000000001
 40
0.0
 40
0.0
 40
0.0
 40
0.0
 40
0.2898075974
 40
0.5490483138
 40
0.7822283121
 40
1.0
 40
1.0
 40
1.0
 40
1.0
 10
20.1007276019
 20
11.9808560073
 30
0.0
 10
20.1007276019
 20
11.9775633267
 30
0.0
 10
20.101224814
 20
11.9713036885
 30
0.0
 10
20.1037627545
 20
11.9627040773
 30
0.0
 10
20.1080284468
 20
11.9557249558
 30
0.0
 10
20.1120390198
 20
11.9523550875
 30
0.0
 10
20.1141817842
 20
11.9511179906
 30
0.0
  0
SPLINE
  5
5B5
100
AcDbEntity
  8
02___PRT_ALL_AXES
100
AcDbSpline
 62
7
  6
CONTINUOUS
 70
0
 71
3
 72
16
 73
12
 74
0
 42
0.0000001
 43
0.0000001
 44
0.0000000001
 40
0.0
 40
0.0
 40
0.0
 40
0.0
 40
0.0428786888
 40
0.0875276076
 40
0.1869346782
 40
0.3042506241
 40
0.4379793998
 40
0.5823886662
 40
0.7296085973
 40
0.871263649
 40
1.0
 40
1.0
 40
1.0
 40
1.0
 10
20.179141241
 20
12.0636336189
 30
0.0
 10
20.1775397068
 20
12.0645582436
 30
0.0
 10
20.1740093781
 20
12.0660255071
 30
0.0
 10
20.1659628543
 20
12.0672048711
 30
0.0
 10
20.1546033255
 20
12.0649868327
 30
0.0
 10
20.1412220277
 20
12.0576464327
 30
0.0
 10
20.1283593883
 20
12.0462690408
 30
0.0
 10
20.1170136318
 20
12.0317391736
 30
0.0
 10
20.1080775694
 20
12.0152252398
 30
0.0
 10
20.1022811111
 20
11.998082947
 30
0.0
 10
20.1007276019
 20
11.9864081774
 30
0.0
 10
20.1007276019
 20
11.9808560073
 30
0.0
  0
SPLINE
  5
5B6
100
AcDbEntity
  8
SURFACE
100
AcDbSpline
 62
7
  6
CONTINUOUS
 70
0
 71
3
 72
14
 73
10
 74
0
 42
0.0000001
 43
0.0000001
 44
0.0000000001
 40
0.0
 40
0.0
 40
0.0
 40
0.0
 40
0.1484684878
 40
0.2895297773
 40
0.5484750712
 40
0.6678627069
 40
0.7818285561
 40
0.8919295489
 40
1.0
 40
1.0
 40
1.0
 40
1.0
 10
19.5951080887
 20
13.1984172431
 30
0.0
 10
19.5951080887
 20
13.1966615151
 30
0.0
 10
19.5949648237
 20
13.1932342827
 30
0.0
 10
19.5940924629
 20
13.1868030632
 30
0.0
 10
19.5923335638
 20
13.180846123
 30
0.0
 10
19.5895921457
 20
13.1756910764
 30
0.0
 10
19.5871734767
 20
13.1724079006
 30
0.0
 10
19.5843619397
 20
13.1696416147
 30
0.0
 10
19.5822348141
 20
13.1681556898
 30
0.0
 10
19.5811280344
 20
13.1675166939
 30
0.0
  0
SPLINE
  5
5B7
100
AcDbEntity
  8
SURFACE
100
AcDbSpline
 62
7
  6
CONTINUOUS
 70
0
 71
3
 72
9
 73
5
 74
0
 42
0.0000001
 43
0.0000001
 44
0.0000000001
 40
0.0
 40
0.0
 40
0.0
 40
0.0
 40
0.2466856253
 40
1.0
 40
1.0
 40
1.0
 40
1.0
 10
15.4126572012
 20
13.4145760835
 30
0.0
 10
15.4130959365
 20
13.4133092582
 30
0.0
 10
15.4149724255
 20
13.4082081893
 30
0.0
 10
15.4172290631
 20
13.4032480979
 30
0.0
 10
15.4191167899
 20
13.3996152952
 30
0.0
  0
SPLINE
  5
5B8
100
AcDbEntity
  8
SURFACE
100
AcDbSpline
 62
7
  6
CONTINUOUS
 70
0
 71
3
 72
9
 73
5
 74
0
 42
0.0000001
 43
0.0000001
 44
0.0000000001
 40
0.0
 40
0.0
 40
0.0
 40
0.0
 40
0.2526343519
 40
1.0
 40
1.0
 40
1.0
 40
1.0
 10
15.4235376214
 20
13.3918511462
 30
0.0
 10
15.4242807374
 20
13.3906552261
 30
0.0
 10
15.4273077072
 20
13.3859752864
 30
0.0
 10
15.4306725017
 20
13.3815123229
 30
0.0
 10
15.4333703144
 20
13.3783388166
 30
0.0
  0
LINE
  5
5B9
100
AcDbEntity
  8
SURFACE
100
AcDbLine
 62
7
  6
CONTINUOUS
 10
15.4504491498
 20
13.362579758
 11
15.4553498794
 21
13.3594577586
  0
SPLINE
  5
5BA
100
AcDbEntity
  8
SURFACE
100
AcDbSpline
 62
7
  6
CONTINUOUS
 70
0
 71
3
 72
9
 73
5
 74
0
 42
0.0000001
 43
0.0000001
 44
0.0000000001
 40
0.0
 40
0.0
 40
0.0
 40
0.0
 40
0.4876485768
 40
1.0
 40
1.0
 40
1.0
 40
1.0
 10
17.6550381365
 20
12.0904873065
 30
0.0
 10
17.656519563
 20
12.0898957791
 30
0.0
 10
17.659702824
 20
12.0890257564
 30
0.0
 10
17.6629903972
 20
12.0888249386
 30
0.0
 10
17.6646657165
 20
12.0888714278
 30
0.0
  0
SPLINE
  5
5BB
100
AcDbEntity
  8
SURFACE
100
AcDbSpline
 62
7
  6
CONTINUOUS
 70
0
 71
3
 72
10
 73
6
 74
0
 42
0.0000001
 43
0.0000001
 44
0.0000000001
 40
0.0
 40
0.0
 40
0.0
 40
0.0
 40
0.2710371021
 40
0.5282720459
 40
1.0
 40
1.0
 40
1.0
 40
1.0
 10
15.4298941413
 20
13.3962006214
 30
0.0
 10
15.4298941413
 20
13.3945492131
 30
0.0
 10
15.4300293521
 20
13.3913270959
 30
0.0
 10
15.4308545638
 20
13.3852872807
 30
0.0
 10
15.432139977
 20
13.3809785378
 30
0.0
 10
15.4333347056
 20
13.3783644103
 30
0.0
  0
SPLINE
  5
5BC
100
AcDbEntity
  8
SURFACE
100
AcDbSpline
 62
7
  6
CONTINUOUS
 70
0
 71
3
 72
11
 73
7
 74
0
 42
0.0000001
 43
0.0000001
 44
0.0000000001
 40
0.0
 40
0.0
 40
0.0
 40
0.0
 40
0.2641465676
 40
0.5165052456
 40
0.7604763577
 40
1.0
 40
1.0
 40
1.0
 40
1.0
 10
15.4333347056
 20
13.3783644103
 30
0.0
 10
15.433876725
 20
13.377178444
 30
0.0
 10
15.4350865163
 20
13.3749233854
 30
0.0
 10
15.4373278306
 20
13.3718943614
 30
0.0
 10
15.4399307965
 20
13.3693385468
 30
0.0
 10
15.4418989435
 20
13.3679650029
 30
0.0
 10
15.4429221675
 20
13.3673724706
 30
0.0
  0
SPLINE
  5
5BD
100
AcDbEntity
  8
SURFACE
100
AcDbSpline
 62
7
  6
CONTINUOUS
 70
0
 71
3
 72
14
 73
10
 74
0
 42
0.0000001
 43
0.0000001
 44
0.0000000001
 40
0.0
 40
0.0
 40
0.0
 40
0.0
 40
0.1080709609
 40
0.218172379
 40
0.3321385117
 40
0.4515262526
 40
0.7104712027
 40
0.8515320578
 40
1.0
 40
1.0
 40
1.0
 40
1.0
 10
17.6984640679
 20
12.0805666342
 30
0.0
 10
17.6973573124
 20
12.0799276524
 30
0.0
 10
17.6950069506
 20
12.0788285017
 30
0.0
 10
17.6912055967
 20
12.0777768036
 30
0.0
 10
17.6871530488
 20
12.0773237595
 30
0.0
 10
17.6813180922
 20
12.0775271055
 30
0.0
 10
17.6752799386
 20
12.0789822337
 30
0.0
 10
17.6692743103
 20
12.0814422304
 30
0.0
 10
17.6662346833
 20
12.0830316986
 30
0.0
 10
17.6647142156
 20
12.0839095211
 30
0.0
  0
SPLINE
  5
5BE
100
AcDbEntity
  8
SURFACE
100
AcDbSpline
 62
7
  6
CONTINUOUS
 70
0
 71
3
 72
14
 73
10
 74
0
 42
0.0000001
 43
0.0000001
 44
0.0000000001
 40
0.0
 40
0.0
 40
0.0
 40
0.0
 40
0.1484684878
 40
0.2895297773
 40
0.5484750712
 40
0.6678627069
 40
0.7818285561
 40
0.8919295489
 40
1.0
 40
1.0
 40
1.0
 40
1.0
 10
17.7124441221
 20
12.1114671834
 30
0.0
 10
17.7124441221
 20
12.1097114554
 30
0.0
 10
17.7123008571
 20
12.106284223
 30
0.0
 10
17.7114284963
 20
12.0998530035
 30
0.0
 10
17.7096695973
 20
12.0938960633
 30
0.0
 10
17.7069281791
 20
12.0887410167
 30
0.0
 10
17.7045095101
 20
12.085457841
 30
0.0
 10
17.7016979731
 20
12.082691555
 30
0.0
 10
17.6995708475
 20
12.0812056301
 30
0.0
 10
17.6984640679
 20
12.0805666342
 30
0.0
  0
SPLINE
  5
5BF
100
AcDbEntity
  8
SURFACE
100
AcDbSpline
 62
7
  6
CONTINUOUS
 70
0
 71
3
 72
14
 73
10
 74
0
 42
0.0000001
 43
0.0000001
 44
0.0000000001
 40
0.0
 40
0.0
 40
0.0
 40
0.0
 40
0.2892099869
 40
0.4225130826
 40
0.5484548364
 40
0.6678211205
 40
0.7817899919
 40
0.8919144379
 40
1.0
 40
1.0
 40
1.0
 40
1.0
 10
17.6392584775
 20
12.1206523839
 30
0.0
 10
17.6392584775
 20
12.1174621257
 30
0.0
 10
17.6396309044
 20
12.1127785875
 30
0.0
 10
17.6410690882
 20
12.1068914327
 30
0.0
 10
17.6425325544
 20
12.1029679444
 30
0.0
 10
17.6443976095
 20
12.0994569129
 30
0.0
 10
17.6466502166
 20
12.0963921424
 30
0.0
 10
17.6492706289
 20
12.0938085059
 30
0.0
 10
17.6512547296
 20
12.0924217167
 30
0.0
 10
17.6522865037
 20
12.0918242331
 30
0.0
  0
SPLINE
  5
5C0
100
AcDbEntity
  8
SURFACE
100
AcDbSpline
 62
7
  6
CONTINUOUS
 70
0
 71
3
 72
9
 73
5
 74
0
 42
0.0000001
 43
0.0000001
 44
0.0000000001
 40
0.0
 40
0.0
 40
0.0
 40
0.0
 40
0.4793684681
 40
1.0
 40
1.0
 40
1.0
 40
1.0
 10
17.6714235362
 20
12.1106247051
 30
0.0
 10
17.6702910979
 20
12.1108660469
 30
0.0
 10
17.6679754493
 20
12.1115992263
 30
0.0
 10
17.6658032806
 20
12.1126748504
 30
0.0
 10
17.6647142156
 20
12.1133036082
 30
0.0
  0
ENDSEC
  0
SECTION
  2
OBJECTS
  0
DICTIONARY
  5
C
100
AcDbDictionary
280
0
281
1
  3
ACAD_GROUP
350
D
  3
ACAD_MLINESTYLE
350
17
  3
ACAD_LAYOUT
350
1A
  3
ACAD_PLOTSETTINGS
350
19
  3
ACAD_PLOTSTYLENAME
350
E
  3
ACAD_TABLESTYLE
350
       5C1
  0
DICTIONARY
  5
D
102
{ACAD_REACTORS
330
C
102
}
100
AcDbDictionary
280
0
281
1
  0
ACDBDICTIONARYWDFLT
  5
E
102
{ACAD_REACTORS
330
C
102
}
100
AcDbDictionary
281
1
  3
Normal
350
F
100
AcDbDictionaryWithDefault
340
F
  0
DICTIONARY
  5
17
102
{ACAD_REACTORS
330
C
102
}
100
AcDbDictionary
280
0
281
1
  3
Standard
350
18
  0
DICTIONARY
  5
5C1
330
C
100
AcDbDictionary
281
1
  3
Standard
350
       5C4
  3
Standard1
350
       5C5
  0
DICTIONARY
  5
19
102
{ACAD_REACTORS
330
C
102
}
100
AcDbDictionary
281
1
  0
DICTIONARY
  5
1A
102
{ACAD_REACTORS
330
C
102
}
100
AcDbDictionary
281
1
  3
Model
350
5C2
  3
Layout1
350
5C3
  0
ACDBPLACEHOLDER
  5
F
102
{ACAD_REACTORS
330
E
102
}
  0
MLINESTYLE
  5
18
102
{ACAD_REACTORS
330
17
102
}
100
AcDbMlineStyle
  2
STANDARD
 70
0
  3

 62
256
 51
90.0
 52
90.0
 71
2
 49
0.5
 62
256
  6
BYLAYER
 49
-0.5
 62
256
  6
BYLAYER
  0
LAYOUT
  5
5C2
102
{ACAD_REACTORS
330
1A
102
}
100
AcDbPlotSettings
  1

  2
none_device
  4
ANSI_C_(22.00_x_17.00_Inches)
  6

 40
0.0
 41
0.0
 42
0.0
 43
0.0
 44
558.8
 45
431.8
 46
0.0
 47
0.0
 48
0.0
 49
0.0
140
0.0
141
0.0
142
1.0
143
1.0
 70
1024
 72
0
 73
0
 74
0
  7

 75
0
147
1.0
148
0.0
149
0.0
100
AcDbLayout
  1
Model
 70
0
 71
0
 10
0.0
 20
0.0
 11
22.0
 21
17.0
 12
0.0
 22
0.0
 32
0.0
 14
0.0
 24
0.0
 34
0.0
 15
0.0
 25
0.0
 35
0.0
146
0.0
 13
0.0
 23
0.0
 33
0.0
 16
1.0
 26
0.0
 36
0.0
 17
0.0
 27
1.0
 37
0.0
 76
0
330
228
345
0
346
0
  0
LAYOUT
  5
5C3
102
{ACAD_REACTORS
330
1A
102
}
100
AcDbPlotSettings
  1

  2
none_device
  4
ANSI_C_(22.00_x_17.00_Inches)
  6

 40
0.0
 41
0.0
 42
0.0
 43
0.0
 44
558.8
 45
431.8
 46
0.0
 47
0.0
 48
0.0
 49
0.0
140
0.0
141
0.0
142
1.0
143
1.0
 70
0
 72
0
 73
0
 74
0
  7

 75
0
147
1.0
148
0.0
149
0.0
100
AcDbLayout
  1
Layout1
 70
0
 71
1
 10
0.0
 20
0.0
 11
22.0
 21
17.0
 12
0.0
 22
0.0
 32
0.0
 14
0.0
 24
0.0
 34
0.0
 15
0.0
 25
0.0
 35
0.0
146
0.0
 13
0.0
 23
0.0
 33
0.0
 16
1.0
 26
0.0
 36
0.0
 17
0.0
 27
1.0
 37
0.0
 76
0
330
229
345
0
346
0
  0
TABLESTYLE
  5
5C4
102
{ACAD_REACTORS
330
5C1
102
}
330
5C1
100
AcDbTableStyle
  3
Standard
 70
0
 71
0
 40
0.06
 41
0.06
280
1
281
1
  7
Standard
140
0.18
170
1
 62
0
 63
7
283
0
  7
Standard
140
0.18
170
1
 62
0
 63
7
283
0
  7
Standard
140
0.18
170
1
 62
0
 63
7
283
0
  0
TABLESTYLE
  5
5C5
102
{ACAD_REACTORS
330
5C1
330
2C5
102
}
330
5C1
100
AcDbTableStyle
  3
Standard1
 70
1
 71
0
 40
0.06
 41
0.06
280
1
281
1
  7
Standard
140
0.18
170
1
 62
0
 63
7
283
0
  7
Standard
140
0.18
170
1
 62
0
 63
7
283
0
  7
Standard
140
0.18
170
1
 62
0
 63
7
283
0
  0
ENDSEC
  0
EOF
