999
DXF file: 171612_1.dxf
999
Pro/ENGINEER 2012300 by Parametric Technology Corporation
  0
SECTION
  2
HEADER
  9
$ACADVER
  1
AC1018
  9
$DWGCODEPAGE
  3
ANSI_1252
  9
$EXTMAX
 10
17.0
 20
11.0
 30
0.0
  9
$EXTMIN
 10
0.0
 20
0.0
 30
0.0
  9
$LIMMIN
 10
0.0
 20
0.0
  9
$LIMMAX
 10
17.0
 20
11.0
  9
$VIEWCTR
 10
8.5
 20
5.5
  9
$VIEWSIZE
 40
11.0
  9
$CLAYER
  8
0
  9
$LTSCALE
 40
0.935
  9
$CELTYPE
  6
BYLAYER
  9
$DIMSCALE
 40
1.0
  9
$DIMASZ
 40
0.1875
  9
$DIMEXO
 40
0.0625
  9
$DIMDLI
 40
0.646
  9
$DIMEXE
 40
0.125
  9
$DIMCEN
 40
0.153
  9
$DIMLFAC
 40
1.0
  9
$DIMBLK
  1
_FILLED
  9
$DIMTXT
 40
0.1
  9
$DIMTOL
 70
1
  9
$DIMLIM
 70
0
  9
$DIMTFAC
 40
1.0
  9
$DIMTP
 40
0.01
  9
$DIMTM
 40
0.01
  9
$DIMGAP
 40
0.09
  9
$DIMDSEP
 70
46
  9
$PDMODE
 70
3
  9
$PDSIZE
 40
0.3125
  9
$HANDSEED
  5
617
  9
$TILEMODE
 70
1
  9
$MEASUREMENT
 70
0
  9
$INSUNITS
 70
1
  0
ENDSEC
  0
SECTION
  2
CLASSES
  0
CLASS
  1
ACDBDICTIONARYWDFLT
  2
AcDbDictionaryWithDefault
  3
AutoCAD 2000
 90
0
 91
1
280
0
281
0
  0
CLASS
  1
ACDBPLACEHOLDER
  2
AcDbPlaceHolder
  3
AutoCAD 2000
 90
0
 91
1
280
0
281
0
  0
CLASS
  1
LAYOUT
  2
AcDbLayout
  3
AutoCAD 2000
 90
0
 91
0
280
0
281
0
  0
CLASS
  1
TABLESTYLE
  2
AcDbTableStyle
  3
ObjectDBX Classes
 90
2047
 91
1
280
0
281
0
  0
CLASS
  1
ACAD_TABLE
  2
AcDbTable
  3
ObjectDBX Classes
 90
1025
 91
1
280
0
281
1
  0
ENDSEC
  0
SECTION
  2
TABLES
  0
TABLE
  2
VPORT
  5
8
100
AcDbSymbolTable
 70
2
  0
VPORT
  5
1F4
100
AcDbSymbolTableRecord
100
AcDbViewportTableRecord
  2
*ACTIVE
 70
0
 10
0.0
 20
0.0
 11
1.0
 21
1.0
 12
8.5
 22
5.5
 13
0.0
 23
0.0
 14
1.0
 24
1.0
 15
0.0
 25
0.0
 16
0.0
 26
0.0
 36
1.0
 17
0.0
 27
0.0
 37
0.0
 40
11.0
 41
1.5454545455
 42
50.0
 43
0.0
 44
0.0
 50
0.0
 51
0.0
 71
0
 72
100
 73
1
 74
1
 75
0
 76
0
 77
0
 78
0
  0
ENDTAB
  0
TABLE
  2
LTYPE
  5
5
100
AcDbSymbolTable
 70
6
  0
LTYPE
  5
14
100
AcDbSymbolTableRecord
100
AcDbLinetypeTableRecord
  2
BYBLOCK
 70
0
  3

 72
65
 73
0
 40
0.0
  0
LTYPE
  5
15
100
AcDbSymbolTableRecord
100
AcDbLinetypeTableRecord
  2
BYLAYER
 70
0
  3

 72
65
 73
0
 40
0.0
  0
LTYPE
  5
16
100
AcDbSymbolTableRecord
100
AcDbLinetypeTableRecord
  2
CONTINUOUS
 70
64
  3
Solid line
 72
65
 73
0
 40
0.0
  0
LTYPE
  5
1F5
100
AcDbSymbolTableRecord
100
AcDbLinetypeTableRecord
  2
CENTER
 70
64
  3
____ _ ____ _ ____ _ ____ _ ____ _ ____ _ ____
 72
65
 73
4
 40
0.6
 49
0.375
 74
0
 49
-0.075
 74
0
 49
0.075
 74
0
 49
-0.075
 74
0
  0
LTYPE
  5
1F6
100
AcDbSymbolTableRecord
100
AcDbLinetypeTableRecord
  2
HIDDEN
 70
64
  3
- - - - - - - - - - - - - - - - - - - -
 72
65
 73
2
 40
0.2
 49
0.1
 74
0
 49
-0.1
 74
0
  0
LTYPE
  5
1F7
100
AcDbSymbolTableRecord
100
AcDbLinetypeTableRecord
  2
PHANTOM
 70
64
  3
_____ _ _ _____ _ _ _____ _ _ _____
 72
65
 73
6
 40
0.8
 49
0.45
 74
0
 49
-0.05
 74
0
 49
0.1
 74
0
 49
-0.05
 74
0
 49
0.1
 74
0
 49
-0.05
 74
0
  0
LTYPE
  5
1F8
100
AcDbSymbolTableRecord
100
AcDbLinetypeTableRecord
  2
DOT
 70
64
  3
. . . . . . . . . . . . . . . . . . . .
 72
65
 73
2
 40
0.2
 49
0.1
 74
0
 49
-0.1
 74
0
  0
LTYPE
  5
1F9
100
AcDbSymbolTableRecord
100
AcDbLinetypeTableRecord
  2
DASHED
 70
64
  3
- - - - - - - - - - - - - - - - - - - -
 72
65
 73
2
 40
0.2
 49
0.1
 74
0
 49
-0.1
 74
0
  0
ENDTAB
  0
TABLE
  2
LAYER
  5
2
100
AcDbSymbolTable
 70
36
  0
LAYER
  5
10
100
AcDbSymbolTableRecord
100
AcDbLayerTableRecord
  2
0
 70
0
 62
7
  6
CONTINUOUS
370
-3
390
F
  0
LAYER
  5
1FA
100
AcDbSymbolTableRecord
100
AcDbLayerTableRecord
  2
DEFAULT_1
 70
0
 62
7
  6
CENTER
370
-3
390
F
  0
LAYER
  5
1FB
100
AcDbSymbolTableRecord
100
AcDbLayerTableRecord
  2
DEFAULT_2
 70
0
 62
7
  6
HIDDEN
370
-3
390
F
  0
LAYER
  5
1FC
100
AcDbSymbolTableRecord
100
AcDbLayerTableRecord
  2
DEFAULT_3
 70
0
 62
7
  6
PHANTOM
370
-3
390
F
  0
LAYER
  5
1FD
100
AcDbSymbolTableRecord
100
AcDbLayerTableRecord
  2
01___PRT_ALL_DTM_PLN
 70
0
 62
7
  6
CONTINUOUS
370
-3
390
F
  0
LAYER
  5
1FE
100
AcDbSymbolTableRecord
100
AcDbLayerTableRecord
  2
01___PRT_DEF_DTM_PLN
 70
0
 62
7
  6
CONTINUOUS
370
-3
390
F
  0
LAYER
  5
1FF
100
AcDbSymbolTableRecord
100
AcDbLayerTableRecord
  2
02___PRT_ALL_AXES
 70
0
 62
7
  6
CONTINUOUS
370
-3
390
F
  0
LAYER
  5
200
100
AcDbSymbolTableRecord
100
AcDbLayerTableRecord
  2
03___PRT_ALL_CURVES
 70
0
 62
7
  6
CONTINUOUS
370
-3
390
F
  0
LAYER
  5
201
100
AcDbSymbolTableRecord
100
AcDbLayerTableRecord
  2
04___PRT_ALL_DTM_PNT
 70
0
 62
7
  6
CONTINUOUS
370
-3
390
F
  0
LAYER
  5
202
100
AcDbSymbolTableRecord
100
AcDbLayerTableRecord
  2
05___PRT_ALL_DTM_CSYS
 70
0
 62
7
  6
CONTINUOUS
370
-3
390
F
  0
LAYER
  5
203
100
AcDbSymbolTableRecord
100
AcDbLayerTableRecord
  2
05___PRT_DEF_DTM_CSYS
 70
0
 62
7
  6
CONTINUOUS
370
-3
390
F
  0
LAYER
  5
204
100
AcDbSymbolTableRecord
100
AcDbLayerTableRecord
  2
06___PRT_ALL_SURFS
 70
0
 62
7
  6
CONTINUOUS
370
-3
390
F
  0
LAYER
  5
205
100
AcDbSymbolTableRecord
100
AcDbLayerTableRecord
  2
AXIS
 70
0
 62
7
  6
CONTINUOUS
370
-3
390
F
  0
LAYER
  5
206
100
AcDbSymbolTableRecord
100
AcDbLayerTableRecord
  2
AXIS_COSMETIC_THREADS
 70
0
 62
7
  6
CONTINUOUS
370
-3
390
F
  0
LAYER
  5
207
100
AcDbSymbolTableRecord
100
AcDbLayerTableRecord
  2
COSMETIC_THREADS
 70
0
 62
7
  6
CONTINUOUS
370
-3
390
F
  0
LAYER
  5
208
100
AcDbSymbolTableRecord
100
AcDbLayerTableRecord
  2
DATUM_CURVES
 70
0
 62
7
  6
CONTINUOUS
370
-3
390
F
  0
LAYER
  5
209
100
AcDbSymbolTableRecord
100
AcDbLayerTableRecord
  2
DATUM_PLANES
 70
0
 62
7
  6
CONTINUOUS
370
-3
390
F
  0
LAYER
  5
20A
100
AcDbSymbolTableRecord
100
AcDbLayerTableRecord
  2
NOTES
 70
0
 62
7
  6
CONTINUOUS
370
-3
390
F
  0
LAYER
  5
20B
100
AcDbSymbolTableRecord
100
AcDbLayerTableRecord
  2
QUILTS
 70
0
 62
7
  6
CONTINUOUS
370
-3
390
F
  0
LAYER
  5
20C
100
AcDbSymbolTableRecord
100
AcDbLayerTableRecord
  2
SCHEME_DIMS
 70
0
 62
7
  6
CONTINUOUS
370
-3
390
F
  0
LAYER
  5
20D
100
AcDbSymbolTableRecord
100
AcDbLayerTableRecord
  2
SYMBOLS
 70
0
 62
7
  6
CONTINUOUS
370
-3
390
F
  0
LAYER
  5
20E
100
AcDbSymbolTableRecord
100
AcDbLayerTableRecord
  2
XSEC_DATUMS
 70
0
 62
7
  6
CONTINUOUS
370
-3
390
F
  0
ENDTAB
  0
TABLE
  2
STYLE
  5
3
100
AcDbSymbolTable
 70
1
  0
STYLE
  5
11
100
AcDbSymbolTableRecord
100
AcDbTextStyleTableRecord
  2
STANDARD
 70
0
 40
0.0
 41
1.0
 50
0.0
 71
0
 42
0.2
  3
txt
  4

  0
STYLE
  5
20F
100
AcDbSymbolTableRecord
100
AcDbTextStyleTableRecord
  2
TEXTSTYLE_1
 70
0
 40
0.0
 41
0.8
 50
0.0
 71
0
 42
0.2
  3
gdt
  4

  0
STYLE
  5
210
100
AcDbSymbolTableRecord
100
AcDbTextStyleTableRecord
  2
TEXTSTYLE_2
 70
0
 40
0.0
 41
0.8
 50
0.0
 71
0
 42
0.2
  3
txt
  4

  0
STYLE
  5
211
100
AcDbSymbolTableRecord
100
AcDbTextStyleTableRecord
  2
TEXTSTYLE_3
 70
0
 40
0.0
 41
0.85
 50
0.0
 71
0
 42
0.2
  3
txt
  4

  0
STYLE
  5
212
100
AcDbSymbolTableRecord
100
AcDbTextStyleTableRecord
  2
TEXTSTYLE_4
 70
0
 40
0.0
 41
0.92
 50
0.0
 71
0
 42
0.2
  3
txt
  4

  0
STYLE
  5
213
100
AcDbSymbolTableRecord
100
AcDbTextStyleTableRecord
  2
TEXTSTYLE_5
 70
0
 40
0.0
 41
1.0
 50
0.0
 71
0
 42
0.2
  3
gdt
  4

  0
ENDTAB
  0
TABLE
  2
VIEW
  5
6
100
AcDbSymbolTable
 70
0
  0
ENDTAB
  0
TABLE
  2
UCS
  5
7
100
AcDbSymbolTable
 70
0
  0
ENDTAB
  0
TABLE
  2
APPID
  5
9
100
AcDbSymbolTable
 70
1
  0
APPID
  5
214
100
AcDbSymbolTableRecord
100
AcDbRegAppTableRecord
  2
ACAD
 70
0
  0
ENDTAB
  0
TABLE
  2
BLOCK_RECORD
  5
1
100
AcDbSymbolTable
 70
0
  0
BLOCK_RECORD
  5
215
100
AcDbSymbolTableRecord
100
AcDbBlockTableRecord
  2
*Model_Space
  0
BLOCK_RECORD
  5
216
100
AcDbSymbolTableRecord
100
AcDbBlockTableRecord
  2
*Paper_Space
  0
BLOCK_RECORD
  5
217
100
AcDbSymbolTableRecord
100
AcDbBlockTableRecord
  2
_FILLED
  0
BLOCK_RECORD
  5
218
100
AcDbSymbolTableRecord
100
AcDbBlockTableRecord
  2
*D0
  0
BLOCK_RECORD
  5
219
100
AcDbSymbolTableRecord
100
AcDbBlockTableRecord
  2
*D1
  0
BLOCK_RECORD
  5
21A
100
AcDbSymbolTableRecord
100
AcDbBlockTableRecord
  2
*D2
  0
BLOCK_RECORD
  5
21B
100
AcDbSymbolTableRecord
100
AcDbBlockTableRecord
  2
SYMBOL_0_BL0
  0
BLOCK_RECORD
  5
21C
100
AcDbSymbolTableRecord
100
AcDbBlockTableRecord
  2
*T1
  0
ENDTAB
  0
TABLE
  2
DIMSTYLE
  5
A
100
AcDbSymbolTable
 70
1
100
AcDbDimStyleTable
 71
0
  0
DIMSTYLE
105
21D
100
AcDbSymbolTableRecord
100
AcDbDimStyleTableRecord
  2
STANDARD
 70
0
  3

  4

 40
1.0
 41
0.1875
 42
0.0625
 43
0.38
 44
0.125
 45
0.0
 46
0.0
 47
0.01
 48
0.01
140
0.1
141
0.09
142
0.0
143
25.4
144
1.0
145
0.0
146
1.0
147
0.09
 71
1.0
 72
0.0
 73
1
 74
1
 75
0
 76
0
 77
0
 78
4
170
0
171
2
172
0
173
0
174
0
175
0
176
0
177
0
178
0
270
2
271
2
272
2
273
2
274
2
275
0
280
0
281
0
282
0
283
1
284
4
285
0
286
0
287
3
288
0
340
11
278
46
341
217
342
217
343
217
344
217
  0
DIMSTYLE
105
21E
100
AcDbSymbolTableRecord
100
AcDbDimStyleTableRecord
  2
DIMSTYLE_1
 70
0
  3

  4

 40
1.0
 41
0.1875
 42
0.0625
 43
0.38
 44
0.125
 45
0.0
 46
0.0
 47
0.1
 48
0.1
140
0.1
141
0.09
142
0.0
143
25.4
144
1.0
145
0.0
146
1.0
147
0.09
 71
0.0
 72
0.0
 73
1
 74
1
 75
0
 76
0
 77
0
 78
4
170
0
171
2
172
0
173
0
174
0
175
0
176
0
177
0
178
0
270
2
271
1
272
1
273
2
274
2
275
0
280
0
281
0
282
0
283
1
284
4
285
0
286
0
287
3
288
0
340
11
278
46
341
217
342
217
343
217
344
217
  0
DIMSTYLE
105
21F
100
AcDbSymbolTableRecord
100
AcDbDimStyleTableRecord
  2
DIMSTYLE_2
 70
0
  3

  4

 40
1.0
 41
0.1875
 42
0.0625
 43
0.38
 44
0.125
 45
0.0
 46
0.0
 47
0.1
 48
0.1
140
0.1
141
0.09
142
0.0
143
25.4
144
1.0
145
0.0
146
1.0
147
0.1
 71
0.0
 72
0.0
 73
1
 74
1
 75
0
 76
0
 77
0
 78
4
170
0
171
2
172
0
173
0
174
0
175
0
176
0
177
0
178
0
270
2
271
1
272
1
273
2
274
2
275
0
280
0
281
0
282
0
283
1
284
4
285
0
286
0
287
3
288
0
340
11
278
46
341
217
342
217
343
217
344
217
  0
ENDTAB
  0
ENDSEC
  0
SECTION
  2
BLOCKS
  0
BLOCK
  5
20
100
AcDbEntity
  8
0
100
AcDbBlockBegin
  2
*Model_Space
 70
0
 10
0.0
 20
0.0
 30
0.0
  3
*Model_Space
  1

  0
ENDBLK
  5
21
100
AcDbEntity
  8
0
100
AcDbBlockEnd
  0
BLOCK
  5
1C
100
AcDbEntity
  8
0
100
AcDbBlockBegin
  2
*Paper_Space
 70
0
 10
0.0
 20
0.0
 30
0.0
  3
*Paper_Space
  1

  0
ENDBLK
  5
1D
100
AcDbEntity
  8
0
100
AcDbBlockEnd
  0
BLOCK
  5
220
100
AcDbEntity
  8
0
100
AcDbBlockBegin
 62
7
  6
CONTINUOUS
  2
SYMBOL_0_BL0
 70
64
 10
12.9086867042
 20
2.5403783405
  3
SYMBOL_0_BL0
  1

  0
ELLIPSE
  5
221
100
AcDbEntity
  8
0
100
AcDbEllipse
 62
7
  6
CONTINUOUS
 10
12.9046654608
 20
2.5403783405
 30
0.0
 11
-0.8250004575
 21
0.0
 31
0.0
 40
0.218572
 41
0.0
 42
6.2831853072
  0
ARC
  5
222
100
AcDbEntity
  8
0
100
AcDbCircle
 62
7
  6
CONTINUOUS
 10
12.400005721
 20
2.5168763464
 40
0.0153945295
100
AcDbArc
 50
354.0454548824
 51
5.1878013979
  0
ARC
  5
223
100
AcDbEntity
  8
0
100
AcDbCircle
 62
7
  6
CONTINUOUS
 10
12.3931760319
 20
2.5166878286
 40
0.0222174455
100
AcDbArc
 50
4.0793399388
 51
69.834329283
  0
LINE
  5
224
100
AcDbEntity
  8
0
100
AcDbLine
 62
7
  6
CONTINUOUS
 10
12.4008351814
 20
2.5375433389
 11
12.3907841758
 21
2.5410923409
  0
LINE
  5
225
100
AcDbEntity
  8
0
100
AcDbLine
 62
7
  6
CONTINUOUS
 10
12.3907841758
 20
2.5410923409
 11
12.3990241804
 21
2.5458683435
  0
ARC
  5
226
100
AcDbEntity
  8
0
100
AcDbCircle
 62
7
  6
CONTINUOUS
 10
12.3771587979
 20
2.5826952352
 40
0.0428289026
100
AcDbArc
 50
300.6990502959
 51
319.0591802498
  0
ARC
  5
227
100
AcDbEntity
  8
0
100
AcDbCircle
 62
7
  6
CONTINUOUS
 10
12.3971873948
 20
2.5665668817
 40
0.0171568255
100
AcDbArc
 50
315.9145124245
 51
16.0049121282
  0
ARC
  5
228
100
AcDbEntity
  8
0
100
AcDbCircle
 62
7
  6
CONTINUOUS
 10
12.3922357827
 20
2.5632132173
 40
0.0229166529
100
AcDbArc
 50
20.6563876465
 51
62.3316896973
  0
ARC
  5
229
100
AcDbEntity
  8
0
100
AcDbCircle
 62
7
  6
CONTINUOUS
 10
12.371573659
 20
2.5302846524
 40
0.061747717
100
AcDbArc
 50
59.5385584989
 51
90.0050977555
  0
LINE
  5
22A
100
AcDbEntity
  8
0
100
AcDbLine
 62
7
  6
CONTINUOUS
 10
12.3715681652
 20
2.5920323691
 11
12.2055050731
 21
2.5920323691
  0
ARC
  5
22B
100
AcDbEntity
  8
0
100
AcDbCircle
 62
7
  6
CONTINUOUS
 10
12.2055050712
 20
2.5895573696
 40
0.0024749995
100
AcDbArc
 50
89.9999571957
 51
180.0000428043
  0
LINE
  5
22C
100
AcDbEntity
  8
0
100
AcDbLine
 62
7
  6
CONTINUOUS
 10
12.2030300717
 20
2.5895573678
 11
12.2030300717
 21
2.5697573568
  0
ARC
  5
22D
100
AcDbEntity
  8
0
100
AcDbCircle
 62
7
  6
CONTINUOUS
 10
12.2055050712
 20
2.5697573549
 40
0.0024749995
100
AcDbArc
 50
179.9999571957
 51
270.0000428043
  0
LINE
  5
22E
100
AcDbEntity
  8
0
100
AcDbLine
 62
7
  6
CONTINUOUS
 10
12.2055050731
 20
2.5672823554
 11
12.2294470864
 21
2.5672823554
  0
ARC
  5
22F
100
AcDbEntity
  8
0
100
AcDbCircle
 62
7
  6
CONTINUOUS
 10
12.2294470882
 20
2.5648073559
 40
0.0024749995
100
AcDbArc
 50
359.9999571957
 51
90.0000428043
  0
LINE
  5
230
100
AcDbEntity
  8
0
100
AcDbLine
 62
7
  6
CONTINUOUS
 10
12.2319220877
 20
2.564807354
 11
12.2319220877
 21
2.5184523283
  0
ARC
  5
231
100
AcDbEntity
  8
0
100
AcDbCircle
 62
7
  6
CONTINUOUS
 10
12.2294470882
 20
2.5184523265
 40
0.0024749995
100
AcDbArc
 50
269.9999571957
 51
0.0000428043
  0
LINE
  5
232
100
AcDbEntity
  8
0
100
AcDbLine
 62
7
  6
CONTINUOUS
 10
12.2294470864
 20
2.515977327
 11
12.2055050731
 21
2.515977327
  0
ARC
  5
233
100
AcDbEntity
  8
0
100
AcDbCircle
 62
7
  6
CONTINUOUS
 10
12.2055050712
 20
2.5135023274
 40
0.0024749995
100
AcDbArc
 50
89.9999571957
 51
180.0000428043
  0
LINE
  5
234
100
AcDbEntity
  8
0
100
AcDbLine
 62
7
  6
CONTINUOUS
 10
12.2030300717
 20
2.5135023256
 11
12.2030300717
 21
2.4937023146
  0
ARC
  5
235
100
AcDbEntity
  8
0
100
AcDbCircle
 62
7
  6
CONTINUOUS
 10
12.2055050712
 20
2.4937023128
 40
0.0024749995
100
AcDbArc
 50
179.9999571957
 51
270.0000428043
  0
LINE
  5
236
100
AcDbEntity
  8
0
100
AcDbLine
 62
7
  6
CONTINUOUS
 10
12.2055050731
 20
2.4912273132
 11
12.3819511709
 21
2.4912273132
  0
ARC
  5
237
100
AcDbEntity
  8
0
100
AcDbCircle
 62
7
  6
CONTINUOUS
 10
12.3792298263
 20
2.539634765
 40
0.048483885
100
AcDbArc
 50
273.21763719
 51
303.0749121182
  0
ARC
  5
238
100
AcDbEntity
  8
0
100
AcDbCircle
 62
7
  6
CONTINUOUS
 10
12.3940692204
 20
2.5168671561
 40
0.0213072145
100
AcDbArc
 50
303.0488228549
 51
355.7263138674
  0
LINE
  5
239
100
AcDbEntity
  8
0
100
AcDbLine
 62
7
  6
CONTINUOUS
 10
12.2949101227
 20
2.5499573458
 11
12.3362731456
 21
2.5499573458
  0
ARC
  5
23A
100
AcDbEntity
  8
0
100
AcDbCircle
 62
7
  6
CONTINUOUS
 10
12.3362731456
 20
2.5586198506
 40
0.0086625048
100
AcDbArc
 50
270.0
 51
90.0
  0
LINE
  5
23B
100
AcDbEntity
  8
0
100
AcDbLine
 62
7
  6
CONTINUOUS
 10
12.3362731456
 20
2.5672823554
 11
12.2949101227
 21
2.5672823554
  0
ARC
  5
23C
100
AcDbEntity
  8
0
100
AcDbCircle
 62
7
  6
CONTINUOUS
 10
12.2949101208
 20
2.5648073559
 40
0.0024749995
100
AcDbArc
 50
89.9999571957
 51
180.0000428043
  0
LINE
  5
23D
100
AcDbEntity
  8
0
100
AcDbLine
 62
7
  6
CONTINUOUS
 10
12.2924351213
 20
2.564807354
 11
12.2924351213
 21
2.5524323472
  0
ARC
  5
23E
100
AcDbEntity
  8
0
100
AcDbCircle
 62
7
  6
CONTINUOUS
 10
12.2949101208
 20
2.5524323453
 40
0.0024749995
100
AcDbArc
 50
179.9999571957
 51
270.0000428043
  0
LINE
  5
23F
100
AcDbEntity
  8
0
100
AcDbLine
 62
7
  6
CONTINUOUS
 10
12.2924351213
 20
2.5184523283
 11
12.2924351213
 21
2.5308273352
  0
ARC
  5
240
100
AcDbEntity
  8
0
100
AcDbCircle
 62
7
  6
CONTINUOUS
 10
12.2949101208
 20
2.530827337
 40
0.0024749995
100
AcDbArc
 50
89.9999571957
 51
180.0000428043
  0
LINE
  5
241
100
AcDbEntity
  8
0
100
AcDbLine
 62
7
  6
CONTINUOUS
 10
12.2949101227
 20
2.5333023366
 11
12.3362731456
 21
2.5333023366
  0
ARC
  5
242
100
AcDbEntity
  8
0
100
AcDbCircle
 62
7
  6
CONTINUOUS
 10
12.3362731456
 20
2.5246398318
 40
0.0086625048
100
AcDbArc
 50
270.0
 51
90.0
  0
LINE
  5
243
100
AcDbEntity
  8
0
100
AcDbLine
 62
7
  6
CONTINUOUS
 10
12.3362731456
 20
2.515977327
 11
12.2949101227
 21
2.515977327
  0
ARC
  5
244
100
AcDbEntity
  8
0
100
AcDbCircle
 62
7
  6
CONTINUOUS
 10
12.2949101208
 20
2.5184523265
 40
0.0024749995
100
AcDbArc
 50
179.9999571957
 51
270.0000428043
  0
ARC
  5
245
100
AcDbEntity
  8
0
100
AcDbCircle
 62
7
  6
CONTINUOUS
 10
13.5806801742
 20
2.5212486481
 40
0.044722495
100
AcDbArc
 50
195.531588407
 51
204.7624440448
  0
LINE
  5
246
100
AcDbEntity
  8
0
100
AcDbLine
 62
7
  6
CONTINUOUS
 10
13.5375908118
 20
2.5092733232
 11
13.5357868108
 21
2.5153423266
  0
ARC
  5
247
100
AcDbEntity
  8
0
100
AcDbCircle
 62
7
  6
CONTINUOUS
 10
13.4974076135
 20
2.5055452462
 40
0.0396099176
100
AcDbArc
 50
14.3201081283
 51
22.4984722084
  0
ARC
  5
248
100
AcDbEntity
  8
0
100
AcDbCircle
 62
7
  6
CONTINUOUS
 10
13.5201739219
 20
2.5145168728
 40
0.0151491919
100
AcDbArc
 50
24.098260853
 51
63.0369451818
  0
ARC
  5
249
100
AcDbEntity
  8
0
100
AcDbCircle
 62
7
  6
CONTINUOUS
 10
13.5161192671
 20
2.5062372524
 40
0.0243676582
100
AcDbArc
 50
63.3666028271
 51
90.3937697637
  0
LINE
  5
24A
100
AcDbEntity
  8
0
100
AcDbLine
 62
7
  6
CONTINUOUS
 10
13.5159517998
 20
2.5306043351
 11
13.4883447845
 21
2.5306043351
  0
ARC
  5
24B
100
AcDbEntity
  8
0
100
AcDbCircle
 62
7
  6
CONTINUOUS
 10
13.4883447827
 20
2.5281293355
 40
0.0024749995
100
AcDbArc
 50
89.9999571957
 51
180.0000428043
  0
LINE
  5
24C
100
AcDbEntity
  8
0
100
AcDbLine
 62
7
  6
CONTINUOUS
 10
13.4858697831
 20
2.5281293337
 11
13.4858697831
 21
2.5184303283
  0
ARC
  5
24D
100
AcDbEntity
  8
0
100
AcDbCircle
 62
7
  6
CONTINUOUS
 10
13.4883447827
 20
2.5184303265
 40
0.0024749995
100
AcDbArc
 50
179.9999571957
 51
270.0000428043
  0
LINE
  5
24E
100
AcDbEntity
  8
0
100
AcDbLine
 62
7
  6
CONTINUOUS
 10
13.4883447845
 20
2.5159553269
 11
13.5130037982
 21
2.5159553269
  0
ARC
  5
24F
100
AcDbEntity
  8
0
100
AcDbCircle
 62
7
  6
CONTINUOUS
 10
13.5130038
 20
2.5134803274
 40
0.0024749995
100
AcDbArc
 50
359.9999571957
 51
90.0000428043
  0
LINE
  5
250
100
AcDbEntity
  8
0
100
AcDbLine
 62
7
  6
CONTINUOUS
 10
13.5154787995
 20
2.5134803256
 11
13.5154787995
 21
2.4937023146
  0
ARC
  5
251
100
AcDbEntity
  8
0
100
AcDbCircle
 62
7
  6
CONTINUOUS
 10
13.5130038
 20
2.4937023128
 40
0.0024749995
100
AcDbArc
 50
269.9999571957
 51
0.0000428043
  0
LINE
  5
252
100
AcDbEntity
  8
0
100
AcDbLine
 62
7
  6
CONTINUOUS
 10
13.5130037982
 20
2.4912273132
 11
13.3994327352
 21
2.4912273132
  0
ARC
  5
253
100
AcDbEntity
  8
0
100
AcDbCircle
 62
7
  6
CONTINUOUS
 10
13.3994327333
 20
2.4937023128
 40
0.0024749995
100
AcDbArc
 50
179.9999571957
 51
270.0000428043
  0
LINE
  5
254
100
AcDbEntity
  8
0
100
AcDbLine
 62
7
  6
CONTINUOUS
 10
13.3969577338
 20
2.4937023146
 11
13.3969577338
 21
2.5135023256
  0
ARC
  5
255
100
AcDbEntity
  8
0
100
AcDbCircle
 62
7
  6
CONTINUOUS
 10
13.3994327333
 20
2.5135023274
 40
0.0024749995
100
AcDbArc
 50
89.9999571957
 51
180.0000428043
  0
LINE
  5
256
100
AcDbEntity
  8
0
100
AcDbLine
 62
7
  6
CONTINUOUS
 10
13.3994327352
 20
2.515977327
 11
13.4221787478
 21
2.515977327
  0
ARC
  5
257
100
AcDbEntity
  8
0
100
AcDbCircle
 62
7
  6
CONTINUOUS
 10
13.4221787497
 20
2.5184523265
 40
0.0024749995
100
AcDbArc
 50
269.9999571957
 51
0.0000428042
  0
LINE
  5
258
100
AcDbEntity
  8
0
100
AcDbLine
 62
7
  6
CONTINUOUS
 10
13.4246537492
 20
2.5184523283
 11
13.4246537492
 21
2.564807354
  0
ARC
  5
259
100
AcDbEntity
  8
0
100
AcDbCircle
 62
7
  6
CONTINUOUS
 10
13.4221787497
 20
2.5648073559
 40
0.0024749995
100
AcDbArc
 50
359.9999571957
 51
90.0000428043
  0
LINE
  5
25A
100
AcDbEntity
  8
0
100
AcDbLine
 62
7
  6
CONTINUOUS
 10
13.4221787478
 20
2.5672823554
 11
13.3994327352
 21
2.5672823554
  0
ARC
  5
25B
100
AcDbEntity
  8
0
100
AcDbCircle
 62
7
  6
CONTINUOUS
 10
13.3994327333
 20
2.5697573549
 40
0.0024749995
100
AcDbArc
 50
179.9999571957
 51
270.0000428043
  0
LINE
  5
25C
100
AcDbEntity
  8
0
100
AcDbLine
 62
7
  6
CONTINUOUS
 10
13.3969577338
 20
2.5697573568
 11
13.3969577338
 21
2.5895573678
  0
ARC
  5
25D
100
AcDbEntity
  8
0
100
AcDbCircle
 62
7
  6
CONTINUOUS
 10
13.3994327333
 20
2.5895573696
 40
0.0024749995
100
AcDbArc
 50
89.9999571957
 51
180.0000428043
  0
LINE
  5
25E
100
AcDbEntity
  8
0
100
AcDbLine
 62
7
  6
CONTINUOUS
 10
13.3994327352
 20
2.5920323691
 11
13.5490138181
 21
2.5920323691
  0
ARC
  5
25F
100
AcDbEntity
  8
0
100
AcDbCircle
 62
7
  6
CONTINUOUS
 10
13.5463505148
 20
2.4094934586
 40
0.1825583387
100
AcDbArc
 50
79.8618509324
 51
89.1640948679
  0
ARC
  5
260
100
AcDbEntity
  8
0
100
AcDbCircle
 62
7
  6
CONTINUOUS
 10
13.5726548052
 20
2.5503169747
 40
0.039319019
100
AcDbArc
 50
59.1202086415
 51
81.4730239328
  0
ARC
  5
261
100
AcDbEntity
  8
0
100
AcDbCircle
 62
7
  6
CONTINUOUS
 10
13.5783142014
 20
2.5566516438
 40
0.0310192946
100
AcDbArc
 50
34.7540871
 51
62.0879016178
  0
ARC
  5
262
100
AcDbEntity
  8
0
100
AcDbCircle
 62
7
  6
CONTINUOUS
 10
13.5900029525
 20
2.565201245
 40
0.0165459396
100
AcDbArc
 50
1.548452892
 51
33.5033152417
  0
ARC
  5
263
100
AcDbEntity
  8
0
100
AcDbCircle
 62
7
  6
CONTINUOUS
 10
13.5932995477
 20
2.5653696972
 40
0.0132462337
100
AcDbArc
 50
331.1510006998
 51
1.205404301
  0
ARC
  5
264
100
AcDbEntity
  8
0
100
AcDbCircle
 62
7
  6
CONTINUOUS
 10
13.5822888914
 20
2.5720482849
 40
0.0261183659
100
AcDbArc
 50
305.6373831893
 51
329.9727629745
  0
ARC
  5
265
100
AcDbEntity
  8
0
100
AcDbCircle
 62
7
  6
CONTINUOUS
 10
13.5519569538
 20
2.6152551345
 40
0.0789082104
100
AcDbArc
 50
292.906155071
 51
305.2574666259
  0
ARC
  5
266
100
AcDbEntity
  8
0
100
AcDbCircle
 62
7
  6
CONTINUOUS
 10
13.5282557878
 20
2.4386010294
 40
0.117346916
100
AcDbArc
 50
58.614769177
 51
62.3737227606
  0
ARC
  5
267
100
AcDbEntity
  8
0
100
AcDbCircle
 62
7
  6
CONTINUOUS
 10
13.5761387404
 20
2.5167282896
 40
0.0257145923
100
AcDbArc
 50
39.3804255939
 51
59.0361096173
  0
ARC
  5
268
100
AcDbEntity
  8
0
100
AcDbCircle
 62
7
  6
CONTINUOUS
 10
13.5750183849
 20
2.5166552064
 40
0.0266349791
100
AcDbArc
 50
20.3630922153
 51
37.9727053099
  0
ARC
  5
269
100
AcDbEntity
  8
0
100
AcDbCircle
 62
7
  6
CONTINUOUS
 10
13.5571178432
 20
2.509473798
 40
0.0459185159
100
AcDbArc
 50
15.6740290068
 51
20.9917271228
  0
ARC
  5
26A
100
AcDbEntity
  8
0
100
AcDbCircle
 62
7
  6
CONTINUOUS
 10
13.6156881783
 20
2.525116781
 40
0.0147197649
100
AcDbArc
 50
192.7054516565
 51
206.0594861022
  0
ARC
  5
26B
100
AcDbEntity
  8
0
100
AcDbCircle
 62
7
  6
CONTINUOUS
 10
13.6071938412
 20
2.5209082945
 40
0.0052403997
100
AcDbArc
 50
205.5232099488
 51
227.5054868079
  0
ARC
  5
26C
100
AcDbEntity
  8
0
100
AcDbCircle
 62
7
  6
CONTINUOUS
 10
13.6054655419
 20
2.5190929218
 40
0.0027347709
100
AcDbArc
 50
228.5117626737
 51
266.1485845754
  0
LINE
  5
26D
100
AcDbEntity
  8
0
100
AcDbLine
 62
7
  6
CONTINUOUS
 10
13.6052818493
 20
2.5163643272
 11
13.60639085
 21
2.5163643272
  0
ARC
  5
26E
100
AcDbEntity
  8
0
100
AcDbCircle
 62
7
  6
CONTINUOUS
 10
13.6063292954
 20
2.5296129864
 40
0.0132488022
100
AcDbArc
 50
270.266200055
 51
281.2404888597
  0
ARC
  5
26F
100
AcDbEntity
  8
0
100
AcDbCircle
 62
7
  6
CONTINUOUS
 10
13.6075235364
 20
2.5238762928
 40
0.0073895522
100
AcDbArc
 50
280.8288201977
 51
305.0837508495
  0
ARC
  5
270
100
AcDbEntity
  8
0
100
AcDbCircle
 62
7
  6
CONTINUOUS
 10
13.607924718
 20
2.5230254464
 40
0.0064647042
100
AcDbArc
 50
306.5086174083
 51
340.2162360092
  0
ARC
  5
271
100
AcDbEntity
  8
0
100
AcDbCircle
 62
7
  6
CONTINUOUS
 10
13.6027235414
 20
2.524769508
 40
0.0119498009
100
AcDbArc
 50
340.7883861657
 51
1.1691452593
  0
LINE
  5
272
100
AcDbEntity
  8
0
100
AcDbLine
 62
7
  6
CONTINUOUS
 10
13.6146708546
 20
2.525013332
 11
13.6146708546
 21
2.5276393334
  0
ARC
  5
273
100
AcDbEntity
  8
0
100
AcDbCircle
 62
7
  6
CONTINUOUS
 10
13.6171458541
 20
2.5276393353
 40
0.0024749995
100
AcDbArc
 50
89.9999571957
 51
180.0000428043
  0
LINE
  5
274
100
AcDbEntity
  8
0
100
AcDbLine
 62
7
  6
CONTINUOUS
 10
13.6171458559
 20
2.5301143348
 11
13.6292558626
 21
2.5301143348
  0
ARC
  5
275
100
AcDbEntity
  8
0
100
AcDbCircle
 62
7
  6
CONTINUOUS
 10
13.6292558645
 20
2.5276393353
 40
0.0024749995
100
AcDbArc
 50
359.9999571957
 51
90.0000428043
  0
LINE
  5
276
100
AcDbEntity
  8
0
100
AcDbLine
 62
7
  6
CONTINUOUS
 10
13.631730864
 20
2.5276393334
 11
13.631730864
 21
2.516087327
  0
ARC
  5
277
100
AcDbEntity
  8
0
100
AcDbCircle
 62
7
  6
CONTINUOUS
 10
13.6141751675
 20
2.5161916447
 40
0.0175560065
100
AcDbArc
 50
332.2279060967
 51
359.6595469939
  0
ARC
  5
278
100
AcDbEntity
  8
0
100
AcDbCircle
 62
7
  6
CONTINUOUS
 10
13.6048681567
 20
2.5210861501
 40
0.0280715479
100
AcDbArc
 50
308.5071794988
 51
332.2400656899
  0
ARC
  5
279
100
AcDbEntity
  8
0
100
AcDbCircle
 62
7
  6
CONTINUOUS
 10
13.5978759713
 20
2.5286873679
 40
0.0383802683
100
AcDbArc
 50
288.7656836787
 51
309.6104317088
  0
ARC
  5
27A
100
AcDbEntity
  8
0
100
AcDbCircle
 62
7
  6
CONTINUOUS
 10
13.6036139387
 20
2.5111006186
 40
0.0198837666
100
AcDbArc
 50
271.8586572978
 51
289.4131338543
  0
LINE
  5
27B
100
AcDbEntity
  8
0
100
AcDbLine
 62
7
  6
CONTINUOUS
 10
13.6042588488
 20
2.4912273132
 11
13.5568948225
 21
2.4912273132
  0
ARC
  5
27C
100
AcDbEntity
  8
0
100
AcDbCircle
 62
7
  6
CONTINUOUS
 10
13.5577001432
 20
2.5085494649
 40
0.0173408616
100
AcDbArc
 50
232.4713476722
 51
267.338189944
  0
ARC
  5
27D
100
AcDbEntity
  8
0
100
AcDbCircle
 62
7
  6
CONTINUOUS
 10
13.5607987082
 20
2.5143997688
 40
0.0238935861
100
AcDbArc
 50
209.8247607259
 51
235.1255079367
  0
ARC
  5
27E
100
AcDbEntity
  8
0
100
AcDbCircle
 62
7
  6
CONTINUOUS
 10
13.5295131508
 20
2.5629115009
 40
0.0110815393
100
AcDbArc
 50
306.758405961
 51
320.4502234234
  0
ARC
  5
27F
100
AcDbEntity
  8
0
100
AcDbCircle
 62
7
  6
CONTINUOUS
 10
13.5238839599
 20
2.5706523294
 40
0.0206523367
100
AcDbArc
 50
289.6883413472
 51
306.4184925496
  0
ARC
  5
280
100
AcDbEntity
  8
0
100
AcDbCircle
 62
7
  6
CONTINUOUS
 10
13.5219564542
 20
2.5750459767
 40
0.0254407115
100
AcDbArc
 50
270.7327484175
 51
290.441894219
  0
LINE
  5
281
100
AcDbEntity
  8
0
100
AcDbLine
 62
7
  6
CONTINUOUS
 10
13.5222818033
 20
2.5496073456
 11
13.4883447845
 21
2.5496073456
  0
ARC
  5
282
100
AcDbEntity
  8
0
100
AcDbCircle
 62
7
  6
CONTINUOUS
 10
13.4883447827
 20
2.5520823451
 40
0.0024749995
100
AcDbArc
 50
179.9999571957
 51
270.0000428043
  0
LINE
  5
283
100
AcDbEntity
  8
0
100
AcDbLine
 62
7
  6
CONTINUOUS
 10
13.4858697831
 20
2.552082347
 11
13.4858697831
 21
2.564807354
  0
ARC
  5
284
100
AcDbEntity
  8
0
100
AcDbCircle
 62
7
  6
CONTINUOUS
 10
13.4883447827
 20
2.5648073559
 40
0.0024749995
100
AcDbArc
 50
89.9999571957
 51
180.0000428043
  0
LINE
  5
285
100
AcDbEntity
  8
0
100
AcDbLine
 62
7
  6
CONTINUOUS
 10
13.4883447845
 20
2.5672823554
 11
13.5251458049
 21
2.5672823554
  0
ARC
  5
286
100
AcDbEntity
  8
0
100
AcDbCircle
 62
7
  6
CONTINUOUS
 10
13.5236009174
 20
2.5388278764
 40
0.0284963867
100
AcDbArc
 50
70.3834917948
 51
86.8922743861
  0
ARC
  5
287
100
AcDbEntity
  8
0
100
AcDbCircle
 62
7
  6
CONTINUOUS
 10
13.5284605274
 20
2.5518696094
 40
0.0145814632
100
AcDbArc
 50
54.6746025112
 51
71.1660573124
  0
ARC
  5
288
100
AcDbEntity
  8
0
100
AcDbCircle
 62
7
  6
CONTINUOUS
 10
13.5335900184
 20
2.5587235346
 40
0.0060275915
100
AcDbArc
 50
20.9055592135
 51
56.7851676243
  0
ARC
  5
289
100
AcDbEntity
  8
0
100
AcDbCircle
 62
7
  6
CONTINUOUS
 10
13.5348905773
 20
2.5593838168
 40
0.0045795888
100
AcDbArc
 50
355.6235353944
 51
18.9942678268
  0
ARC
  5
28A
100
AcDbEntity
  8
0
100
AcDbCircle
 62
7
  6
CONTINUOUS
 10
13.533683767
 20
2.559677593
 40
0.0058087709
100
AcDbArc
 50
318.8515287446
 51
353.6422345323
  0
LINE
  5
28B
100
AcDbEntity
  8
0
100
AcDbLine
 62
7
  6
CONTINUOUS
 10
12.672340332
 20
2.5920323691
 11
12.7727983877
 21
2.5920323691
  0
ARC
  5
28C
100
AcDbEntity
  8
0
100
AcDbCircle
 62
7
  6
CONTINUOUS
 10
12.7727985224
 20
2.5895582013
 40
0.0024741678
100
AcDbArc
 50
46.3477981899
 51
90.0031206038
  0
LINE
  5
28D
100
AcDbEntity
  8
0
100
AcDbLine
 62
7
  6
CONTINUOUS
 10
12.7745063886
 20
2.5913483688
 11
12.8345394219
 21
2.534068337
  0
ARC
  5
28E
100
AcDbEntity
  8
0
100
AcDbCircle
 62
7
  6
CONTINUOUS
 10
12.8362481229
 20
2.5358592748
 40
0.0024753014
100
AcDbArc
 50
226.3461263059
 51
0.0014637321
  0
LINE
  5
28F
100
AcDbEntity
  8
0
100
AcDbLine
 62
7
  6
CONTINUOUS
 10
12.8387234242
 20
2.535859338
 11
12.8387234242
 21
2.564807354
  0
ARC
  5
290
100
AcDbEntity
  8
0
100
AcDbCircle
 62
7
  6
CONTINUOUS
 10
12.8362484247
 20
2.5648073559
 40
0.0024749995
100
AcDbArc
 50
359.9999571957
 51
90.0000428043
  0
LINE
  5
291
100
AcDbEntity
  8
0
100
AcDbLine
 62
7
  6
CONTINUOUS
 10
12.8362484229
 20
2.5672823554
 11
12.8174724125
 21
2.5672823554
  0
ARC
  5
292
100
AcDbEntity
  8
0
100
AcDbCircle
 62
7
  6
CONTINUOUS
 10
12.8174724106
 20
2.5697573549
 40
0.0024749995
100
AcDbArc
 50
179.9999571957
 51
270.0000428043
  0
LINE
  5
293
100
AcDbEntity
  8
0
100
AcDbLine
 62
7
  6
CONTINUOUS
 10
12.8149974111
 20
2.5697573568
 11
12.8149974111
 21
2.5895573678
  0
ARC
  5
294
100
AcDbEntity
  8
0
100
AcDbCircle
 62
7
  6
CONTINUOUS
 10
12.8174724106
 20
2.5895573696
 40
0.0024749995
100
AcDbArc
 50
89.9999571957
 51
180.0000428043
  0
LINE
  5
295
100
AcDbEntity
  8
0
100
AcDbLine
 62
7
  6
CONTINUOUS
 10
12.8174724125
 20
2.5920323691
 11
12.8914734535
 21
2.5920323691
  0
ARC
  5
296
100
AcDbEntity
  8
0
100
AcDbCircle
 62
7
  6
CONTINUOUS
 10
12.8914734553
 20
2.5895573696
 40
0.0024749995
100
AcDbArc
 50
359.9999571957
 51
90.0000428043
  0
LINE
  5
297
100
AcDbEntity
  8
0
100
AcDbLine
 62
7
  6
CONTINUOUS
 10
12.8939484549
 20
2.5895573678
 11
12.8939484549
 21
2.5697573568
  0
ARC
  5
298
100
AcDbEntity
  8
0
100
AcDbCircle
 62
7
  6
CONTINUOUS
 10
12.8914734553
 20
2.5697573549
 40
0.0024749995
100
AcDbArc
 50
269.9999571957
 51
0.0000428043
  0
LINE
  5
299
100
AcDbEntity
  8
0
100
AcDbLine
 62
7
  6
CONTINUOUS
 10
12.8914734535
 20
2.5672823554
 11
12.8735404436
 21
2.5672823554
  0
ARC
  5
29A
100
AcDbEntity
  8
0
100
AcDbCircle
 62
7
  6
CONTINUOUS
 10
12.8735404417
 20
2.5648073559
 40
0.0024749995
100
AcDbArc
 50
89.9999571957
 51
180.0000428043
  0
LINE
  5
29B
100
AcDbEntity
  8
0
100
AcDbLine
 62
7
  6
CONTINUOUS
 10
12.8710654422
 20
2.564807354
 11
12.8710654422
 21
2.4937023146
  0
ARC
  5
29C
100
AcDbEntity
  8
0
100
AcDbCircle
 62
7
  6
CONTINUOUS
 10
12.8685904427
 20
2.4937023128
 40
0.0024749995
100
AcDbArc
 50
269.9999571957
 51
0.0000428043
  0
LINE
  5
29D
100
AcDbEntity
  8
0
100
AcDbLine
 62
7
  6
CONTINUOUS
 10
12.8685904408
 20
2.4912273132
 11
12.7943853997
 21
2.4912273132
  0
ARC
  5
29E
100
AcDbEntity
  8
0
100
AcDbCircle
 62
7
  6
CONTINUOUS
 10
12.7943847649
 20
2.4937027294
 40
0.0024754162
100
AcDbArc
 50
226.3593695813
 51
270.0146919953
  0
LINE
  5
29F
100
AcDbEntity
  8
0
100
AcDbLine
 62
7
  6
CONTINUOUS
 10
12.7926763987
 20
2.4919113136
 11
12.7293963636
 21
2.5522893471
  0
ARC
  5
2A0
100
AcDbEntity
  8
0
100
AcDbCircle
 62
7
  6
CONTINUOUS
 10
12.7276876627
 20
2.5504984093
 40
0.0024753014
100
AcDbArc
 50
46.3461263059
 51
180.0014637321
  0
LINE
  5
2A1
100
AcDbEntity
  8
0
100
AcDbLine
 62
7
  6
CONTINUOUS
 10
12.7252123613
 20
2.5504983461
 11
12.7252123613
 21
2.5184523283
  0
ARC
  5
2A2
100
AcDbEntity
  8
0
100
AcDbCircle
 62
7
  6
CONTINUOUS
 10
12.7276873608
 20
2.5184523265
 40
0.0024749995
100
AcDbArc
 50
179.9999571957
 51
270.0000428043
  0
LINE
  5
2A3
100
AcDbEntity
  8
0
100
AcDbLine
 62
7
  6
CONTINUOUS
 10
12.7276873627
 20
2.515977327
 11
12.7480043739
 21
2.515977327
  0
ARC
  5
2A4
100
AcDbEntity
  8
0
100
AcDbCircle
 62
7
  6
CONTINUOUS
 10
12.7480043758
 20
2.5135023274
 40
0.0024749995
100
AcDbArc
 50
359.9999571957
 51
90.0000428043
  0
LINE
  5
2A5
100
AcDbEntity
  8
0
100
AcDbLine
 62
7
  6
CONTINUOUS
 10
12.7504793753
 20
2.5135023256
 11
12.7504793753
 21
2.4937023146
  0
ARC
  5
2A6
100
AcDbEntity
  8
0
100
AcDbCircle
 62
7
  6
CONTINUOUS
 10
12.7480043758
 20
2.4937023128
 40
0.0024749995
100
AcDbArc
 50
269.9999571957
 51
0.0000428043
  0
LINE
  5
2A7
100
AcDbEntity
  8
0
100
AcDbLine
 62
7
  6
CONTINUOUS
 10
12.7480043739
 20
2.4912273132
 11
12.672340332
 21
2.4912273132
  0
ARC
  5
2A8
100
AcDbEntity
  8
0
100
AcDbCircle
 62
7
  6
CONTINUOUS
 10
12.6723403301
 20
2.4937023128
 40
0.0024749995
100
AcDbArc
 50
179.9999571957
 51
270.0000428043
  0
LINE
  5
2A9
100
AcDbEntity
  8
0
100
AcDbLine
 62
7
  6
CONTINUOUS
 10
12.6698653306
 20
2.4937023146
 11
12.6698653306
 21
2.5135023256
  0
ARC
  5
2AA
100
AcDbEntity
  8
0
100
AcDbCircle
 62
7
  6
CONTINUOUS
 10
12.6723403301
 20
2.5135023274
 40
0.0024749995
100
AcDbArc
 50
89.9999571957
 51
180.0000428043
  0
LINE
  5
2AB
100
AcDbEntity
  8
0
100
AcDbLine
 62
7
  6
CONTINUOUS
 10
12.672340332
 20
2.515977327
 11
12.6909873423
 21
2.515977327
  0
ARC
  5
2AC
100
AcDbEntity
  8
0
100
AcDbCircle
 62
7
  6
CONTINUOUS
 10
12.6909873442
 20
2.5184523265
 40
0.0024749995
100
AcDbArc
 50
269.9999571957
 51
0.0000428043
  0
LINE
  5
2AD
100
AcDbEntity
  8
0
100
AcDbLine
 62
7
  6
CONTINUOUS
 10
12.6934623437
 20
2.5184523283
 11
12.6934623437
 21
2.564807354
  0
ARC
  5
2AE
100
AcDbEntity
  8
0
100
AcDbCircle
 62
7
  6
CONTINUOUS
 10
12.6909873442
 20
2.5648073559
 40
0.0024749995
100
AcDbArc
 50
359.9999571957
 51
90.0000428043
  0
LINE
  5
2AF
100
AcDbEntity
  8
0
100
AcDbLine
 62
7
  6
CONTINUOUS
 10
12.6909873423
 20
2.5672823554
 11
12.672340332
 21
2.5672823554
  0
ARC
  5
2B0
100
AcDbEntity
  8
0
100
AcDbCircle
 62
7
  6
CONTINUOUS
 10
12.6723403301
 20
2.5697573549
 40
0.0024749995
100
AcDbArc
 50
179.9999571957
 51
270.0000428043
  0
LINE
  5
2B1
100
AcDbEntity
  8
0
100
AcDbLine
 62
7
  6
CONTINUOUS
 10
12.6698653306
 20
2.5697573568
 11
12.6698653306
 21
2.5895573678
  0
ARC
  5
2B2
100
AcDbEntity
  8
0
100
AcDbCircle
 62
7
  6
CONTINUOUS
 10
12.6723403301
 20
2.5895573696
 40
0.0024749995
100
AcDbArc
 50
89.9999571957
 51
180.0000428043
  0
LINE
  5
2B3
100
AcDbEntity
  8
0
100
AcDbLine
 62
7
  6
CONTINUOUS
 10
12.5246402501
 20
2.5655893545
 11
12.5175232461
 21
2.5543723483
  0
ARC
  5
2B4
100
AcDbEntity
  8
0
100
AcDbCircle
 62
7
  6
CONTINUOUS
 10
12.519613138
 20
2.5530463862
 40
0.0024750401
100
AcDbArc
 50
147.6063258012
 51
270.0025305754
  0
LINE
  5
2B5
100
AcDbEntity
  8
0
100
AcDbLine
 62
7
  6
CONTINUOUS
 10
12.5196132473
 20
2.5505713461
 11
12.5401702587
 21
2.5505713461
  0
ARC
  5
2B6
100
AcDbEntity
  8
0
100
AcDbCircle
 62
7
  6
CONTINUOUS
 10
12.5401702375
 20
2.5530465533
 40
0.0024752071
100
AcDbArc
 50
270.0004896793
 51
32.9089806818
  0
LINE
  5
2B7
100
AcDbEntity
  8
0
100
AcDbLine
 62
7
  6
CONTINUOUS
 10
12.5422482598
 20
2.5543913483
 11
12.5349892558
 21
2.5656073545
  0
ARC
  5
2B8
100
AcDbEntity
  8
0
100
AcDbCircle
 62
7
  6
CONTINUOUS
 10
12.532910715
 20
2.564262895
 40
0.0024754602
100
AcDbArc
 50
32.8959418573
 51
89.9875097202
  0
LINE
  5
2B9
100
AcDbEntity
  8
0
100
AcDbLine
 62
7
  6
CONTINUOUS
 10
12.5329112547
 20
2.5667383551
 11
12.5267302512
 21
2.5667383551
  0
ARC
  5
2BA
100
AcDbEntity
  8
0
100
AcDbCircle
 62
7
  6
CONTINUOUS
 10
12.5267301809
 20
2.5642631548
 40
0.0024752003
100
AcDbArc
 50
89.998372645
 51
147.602165307
  0
LINE
  5
2BB
100
AcDbEntity
  8
0
100
AcDbLine
 62
7
  6
CONTINUOUS
 10
12.548053263
 20
2.5284903339
 11
12.5536792662
 21
2.5197973291
  0
ARC
  5
2BC
100
AcDbEntity
  8
0
100
AcDbCircle
 62
7
  6
CONTINUOUS
 10
12.5516012439
 20
2.5184525341
 40
0.0024752071
100
AcDbArc
 50
270.0004896794
 51
32.9089806818
  0
LINE
  5
2BD
100
AcDbEntity
  8
0
100
AcDbLine
 62
7
  6
CONTINUOUS
 10
12.551601265
 20
2.515977327
 11
12.537150257
 21
2.515977327
  0
ARC
  5
2BE
100
AcDbEntity
  8
0
100
AcDbCircle
 62
7
  6
CONTINUOUS
 10
12.5371502552
 20
2.5135023274
 40
0.0024749995
100
AcDbArc
 50
89.9999571957
 51
180.0000428043
  0
LINE
  5
2BF
100
AcDbEntity
  8
0
100
AcDbLine
 62
7
  6
CONTINUOUS
 10
12.5346752556
 20
2.5135023256
 11
12.5346752556
 21
2.4937023146
  0
ARC
  5
2C0
100
AcDbEntity
  8
0
100
AcDbCircle
 62
7
  6
CONTINUOUS
 10
12.5371502552
 20
2.4937023128
 40
0.0024749995
100
AcDbArc
 50
179.9999571957
 51
270.0000428043
  0
LINE
  5
2C1
100
AcDbEntity
  8
0
100
AcDbLine
 62
7
  6
CONTINUOUS
 10
12.537150257
 20
2.4912273132
 11
12.6424313154
 21
2.4912273132
  0
ARC
  5
2C2
100
AcDbEntity
  8
0
100
AcDbCircle
 62
7
  6
CONTINUOUS
 10
12.6424313172
 20
2.4937023128
 40
0.0024749995
100
AcDbArc
 50
269.9999571957
 51
0.0000428043
  0
LINE
  5
2C3
100
AcDbEntity
  8
0
100
AcDbLine
 62
7
  6
CONTINUOUS
 10
12.6449063168
 20
2.4937023146
 11
12.6449063168
 21
2.5135023256
  0
ARC
  5
2C4
100
AcDbEntity
  8
0
100
AcDbCircle
 62
7
  6
CONTINUOUS
 10
12.6424313172
 20
2.5135023274
 40
0.0024749995
100
AcDbArc
 50
359.9999571957
 51
90.0000428043
  0
LINE
  5
2C5
100
AcDbEntity
  8
0
100
AcDbLine
 62
7
  6
CONTINUOUS
 10
12.6424313154
 20
2.515977327
 11
12.6224153043
 21
2.515977327
  0
ARC
  5
2C6
100
AcDbEntity
  8
0
100
AcDbCircle
 62
7
  6
CONTINUOUS
 10
12.6224154248
 20
2.518451368
 40
0.002474041
100
AcDbArc
 50
212.9056413127
 51
269.9972091756
  0
LINE
  5
2C7
100
AcDbEntity
  8
0
100
AcDbLine
 62
7
  6
CONTINUOUS
 10
12.6203383031
 20
2.5171073276
 11
12.5725822767
 21
2.5909023685
  0
ARC
  5
2C8
100
AcDbEntity
  8
0
100
AcDbCircle
 62
7
  6
CONTINUOUS
 10
12.570504655
 20
2.589557409
 40
0.0024749602
100
AcDbArc
 50
32.9172174468
 51
90.0087853097
  0
LINE
  5
2C9
100
AcDbEntity
  8
0
100
AcDbLine
 62
7
  6
CONTINUOUS
 10
12.5705042755
 20
2.5920323691
 11
12.5133292438
 21
2.5920323691
  0
ARC
  5
2CA
100
AcDbEntity
  8
0
100
AcDbCircle
 62
7
  6
CONTINUOUS
 10
12.5133291735
 20
2.5895571688
 40
0.0024752003
100
AcDbArc
 50
89.9983726451
 51
147.602165307
  0
LINE
  5
2CB
100
AcDbEntity
  8
0
100
AcDbLine
 62
7
  6
CONTINUOUS
 10
12.5112392426
 20
2.5908833685
 11
12.4644392167
 21
2.5171263276
  0
ARC
  5
2CC
100
AcDbEntity
  8
0
100
AcDbCircle
 62
7
  6
CONTINUOUS
 10
12.4623492858
 20
2.5184525273
 40
0.0024752003
100
AcDbArc
 50
269.9983726451
 51
327.602165307
  0
LINE
  5
2CD
100
AcDbEntity
  8
0
100
AcDbLine
 62
7
  6
CONTINUOUS
 10
12.4623492155
 20
2.515977327
 11
12.4394882028
 21
2.515977327
  0
ARC
  5
2CE
100
AcDbEntity
  8
0
100
AcDbCircle
 62
7
  6
CONTINUOUS
 10
12.439488201
 20
2.5135023274
 40
0.0024749995
100
AcDbArc
 50
89.9999571957
 51
180.0000428043
  0
LINE
  5
2CF
100
AcDbEntity
  8
0
100
AcDbLine
 62
7
  6
CONTINUOUS
 10
12.4370132015
 20
2.5135023256
 11
12.4370132015
 21
2.4937023146
  0
ARC
  5
2D0
100
AcDbEntity
  8
0
100
AcDbCircle
 62
7
  6
CONTINUOUS
 10
12.439488201
 20
2.4937023128
 40
0.0024749995
100
AcDbArc
 50
179.9999571957
 51
270.0000428043
  0
LINE
  5
2D1
100
AcDbEntity
  8
0
100
AcDbLine
 62
7
  6
CONTINUOUS
 10
12.4394882028
 20
2.4912273132
 11
12.5168642458
 21
2.4912273132
  0
ARC
  5
2D2
100
AcDbEntity
  8
0
100
AcDbCircle
 62
7
  6
CONTINUOUS
 10
12.5168642476
 20
2.4937023128
 40
0.0024749995
100
AcDbArc
 50
269.9999571957
 51
0.0000428043
  0
LINE
  5
2D3
100
AcDbEntity
  8
0
100
AcDbLine
 62
7
  6
CONTINUOUS
 10
12.5193392471
 20
2.4937023146
 11
12.5193392471
 21
2.5135023256
  0
ARC
  5
2D4
100
AcDbEntity
  8
0
100
AcDbCircle
 62
7
  6
CONTINUOUS
 10
12.5168642476
 20
2.5135023274
 40
0.0024749995
100
AcDbArc
 50
359.9999571957
 51
90.0000428043
  0
LINE
  5
2D5
100
AcDbEntity
  8
0
100
AcDbLine
 62
7
  6
CONTINUOUS
 10
12.5168642458
 20
2.515977327
 11
12.5055812395
 21
2.515977327
  0
ARC
  5
2D6
100
AcDbEntity
  8
0
100
AcDbCircle
 62
7
  6
CONTINUOUS
 10
12.5055811302
 20
2.518452367
 40
0.0024750401
100
AcDbArc
 50
147.6063258011
 51
270.0025305754
  0
LINE
  5
2D7
100
AcDbEntity
  8
0
100
AcDbLine
 62
7
  6
CONTINUOUS
 10
12.5034912383
 20
2.5197783291
 11
12.5090072414
 21
2.5284723339
  0
ARC
  5
2D8
100
AcDbEntity
  8
0
100
AcDbCircle
 62
7
  6
CONTINUOUS
 10
12.5110971723
 20
2.5271461342
 40
0.0024752003
100
AcDbArc
 50
89.998372645
 51
147.602165307
  0
LINE
  5
2D9
100
AcDbEntity
  8
0
100
AcDbLine
 62
7
  6
CONTINUOUS
 10
12.5110972426
 20
2.5296213345
 11
12.5459752619
 21
2.5296213345
  0
ARC
  5
2DA
100
AcDbEntity
  8
0
100
AcDbCircle
 62
7
  6
CONTINUOUS
 10
12.5459747223
 20
2.5271458744
 40
0.0024754602
100
AcDbArc
 50
32.8959418573
 51
89.9875097202
  0
LINE
  5
2DB
100
AcDbEntity
  8
0
100
AcDbLine
 62
7
  6
CONTINUOUS
 10
12.9205934696
 20
2.5920323691
 11
13.0210515254
 21
2.5920323691
  0
ARC
  5
2DC
100
AcDbEntity
  8
0
100
AcDbCircle
 62
7
  6
CONTINUOUS
 10
13.0210516601
 20
2.5895582013
 40
0.0024741678
100
AcDbArc
 50
46.3477981899
 51
90.0031206038
  0
LINE
  5
2DD
100
AcDbEntity
  8
0
100
AcDbLine
 62
7
  6
CONTINUOUS
 10
13.0227595263
 20
2.5913483688
 11
13.0827925596
 21
2.534068337
  0
ARC
  5
2DE
100
AcDbEntity
  8
0
100
AcDbCircle
 62
7
  6
CONTINUOUS
 10
13.0845012605
 20
2.5358592748
 40
0.0024753014
100
AcDbArc
 50
226.3461263059
 51
0.0014637321
  0
LINE
  5
2DF
100
AcDbEntity
  8
0
100
AcDbLine
 62
7
  6
CONTINUOUS
 10
13.0869765619
 20
2.535859338
 11
13.0869765619
 21
2.564807354
  0
ARC
  5
2E0
100
AcDbEntity
  8
0
100
AcDbCircle
 62
7
  6
CONTINUOUS
 10
13.0845015624
 20
2.5648073559
 40
0.0024749995
100
AcDbArc
 50
359.9999571957
 51
90.0000428043
  0
LINE
  5
2E1
100
AcDbEntity
  8
0
100
AcDbLine
 62
7
  6
CONTINUOUS
 10
13.0845015605
 20
2.5672823554
 11
13.0657255501
 21
2.5672823554
  0
ARC
  5
2E2
100
AcDbEntity
  8
0
100
AcDbCircle
 62
7
  6
CONTINUOUS
 10
13.0657255483
 20
2.5697573549
 40
0.0024749995
100
AcDbArc
 50
179.9999571957
 51
270.0000428043
  0
LINE
  5
2E3
100
AcDbEntity
  8
0
100
AcDbLine
 62
7
  6
CONTINUOUS
 10
13.0632505488
 20
2.5697573568
 11
13.0632505488
 21
2.5895573678
  0
ARC
  5
2E4
100
AcDbEntity
  8
0
100
AcDbCircle
 62
7
  6
CONTINUOUS
 10
13.0657255483
 20
2.5895573696
 40
0.0024749995
100
AcDbArc
 50
89.9999571957
 51
180.0000428043
  0
LINE
  5
2E5
100
AcDbEntity
  8
0
100
AcDbLine
 62
7
  6
CONTINUOUS
 10
13.0657255501
 20
2.5920323691
 11
13.1397265912
 21
2.5920323691
  0
ARC
  5
2E6
100
AcDbEntity
  8
0
100
AcDbCircle
 62
7
  6
CONTINUOUS
 10
13.139726593
 20
2.5895573696
 40
0.0024749995
100
AcDbArc
 50
359.9999571957
 51
90.0000428043
  0
LINE
  5
2E7
100
AcDbEntity
  8
0
100
AcDbLine
 62
7
  6
CONTINUOUS
 10
13.1422015925
 20
2.5895573678
 11
13.1422015925
 21
2.5697573568
  0
ARC
  5
2E8
100
AcDbEntity
  8
0
100
AcDbCircle
 62
7
  6
CONTINUOUS
 10
13.139726593
 20
2.5697573549
 40
0.0024749995
100
AcDbArc
 50
269.9999571957
 51
0.0000428042
  0
LINE
  5
2E9
100
AcDbEntity
  8
0
100
AcDbLine
 62
7
  6
CONTINUOUS
 10
13.1397265912
 20
2.5672823554
 11
13.1217935812
 21
2.5672823554
  0
ARC
  5
2EA
100
AcDbEntity
  8
0
100
AcDbCircle
 62
7
  6
CONTINUOUS
 10
13.1217935794
 20
2.5648073559
 40
0.0024749995
100
AcDbArc
 50
89.9999571957
 51
180.0000428042
  0
LINE
  5
2EB
100
AcDbEntity
  8
0
100
AcDbLine
 62
7
  6
CONTINUOUS
 10
13.1193185799
 20
2.564807354
 11
13.1193185799
 21
2.4937023146
  0
ARC
  5
2EC
100
AcDbEntity
  8
0
100
AcDbCircle
 62
7
  6
CONTINUOUS
 10
13.1168435803
 20
2.4937023128
 40
0.0024749995
100
AcDbArc
 50
269.9999571957
 51
0.0000428043
  0
LINE
  5
2ED
100
AcDbEntity
  8
0
100
AcDbLine
 62
7
  6
CONTINUOUS
 10
13.1168435785
 20
2.4912273132
 11
13.0426375373
 21
2.4912273132
  0
ARC
  5
2EE
100
AcDbEntity
  8
0
100
AcDbCircle
 62
7
  6
CONTINUOUS
 10
13.0426374026
 20
2.493701481
 40
0.0024741678
100
AcDbArc
 50
226.3477981898
 51
270.0031206038
  0
LINE
  5
2EF
100
AcDbEntity
  8
0
100
AcDbLine
 62
7
  6
CONTINUOUS
 10
13.0409295364
 20
2.4919113136
 11
12.9776495013
 21
2.5522893471
  0
ARC
  5
2F0
100
AcDbEntity
  8
0
100
AcDbCircle
 62
7
  6
CONTINUOUS
 10
12.9759408003
 20
2.5504984093
 40
0.0024753014
100
AcDbArc
 50
46.3461263059
 51
180.0014637321
  0
LINE
  5
2F1
100
AcDbEntity
  8
0
100
AcDbLine
 62
7
  6
CONTINUOUS
 10
12.973465499
 20
2.5504983461
 11
12.973465499
 21
2.5184523283
  0
ARC
  5
2F2
100
AcDbEntity
  8
0
100
AcDbCircle
 62
7
  6
CONTINUOUS
 10
12.9759404985
 20
2.5184523265
 40
0.0024749995
100
AcDbArc
 50
179.9999571957
 51
270.0000428043
  0
LINE
  5
2F3
100
AcDbEntity
  8
0
100
AcDbLine
 62
7
  6
CONTINUOUS
 10
12.9759405003
 20
2.515977327
 11
12.9962575116
 21
2.515977327
  0
ARC
  5
2F4
100
AcDbEntity
  8
0
100
AcDbCircle
 62
7
  6
CONTINUOUS
 10
12.9962575135
 20
2.5135023274
 40
0.0024749995
100
AcDbArc
 50
359.9999571957
 51
90.0000428043
  0
LINE
  5
2F5
100
AcDbEntity
  8
0
100
AcDbLine
 62
7
  6
CONTINUOUS
 10
12.998732513
 20
2.5135023256
 11
12.998732513
 21
2.4937023146
  0
ARC
  5
2F6
100
AcDbEntity
  8
0
100
AcDbCircle
 62
7
  6
CONTINUOUS
 10
12.9962575135
 20
2.4937023128
 40
0.0024749995
100
AcDbArc
 50
269.9999571957
 51
0.0000428043
  0
LINE
  5
2F7
100
AcDbEntity
  8
0
100
AcDbLine
 62
7
  6
CONTINUOUS
 10
12.9962575116
 20
2.4912273132
 11
12.9205934696
 21
2.4912273132
  0
ARC
  5
2F8
100
AcDbEntity
  8
0
100
AcDbCircle
 62
7
  6
CONTINUOUS
 10
12.9205934678
 20
2.4937023128
 40
0.0024749995
100
AcDbArc
 50
179.9999571957
 51
270.0000428043
  0
LINE
  5
2F9
100
AcDbEntity
  8
0
100
AcDbLine
 62
7
  6
CONTINUOUS
 10
12.9181184683
 20
2.4937023146
 11
12.9181184683
 21
2.5135023256
  0
ARC
  5
2FA
100
AcDbEntity
  8
0
100
AcDbCircle
 62
7
  6
CONTINUOUS
 10
12.9205934678
 20
2.5135023274
 40
0.0024749995
100
AcDbArc
 50
89.9999571957
 51
180.0000428042
  0
LINE
  5
2FB
100
AcDbEntity
  8
0
100
AcDbLine
 62
7
  6
CONTINUOUS
 10
12.9205934696
 20
2.515977327
 11
12.93923948
 21
2.515977327
  0
ARC
  5
2FC
100
AcDbEntity
  8
0
100
AcDbCircle
 62
7
  6
CONTINUOUS
 10
12.9392394818
 20
2.5184523265
 40
0.0024749995
100
AcDbArc
 50
269.9999571957
 51
0.0000428043
  0
LINE
  5
2FD
100
AcDbEntity
  8
0
100
AcDbLine
 62
7
  6
CONTINUOUS
 10
12.9417144814
 20
2.5184523283
 11
12.9417144814
 21
2.564807354
  0
ARC
  5
2FE
100
AcDbEntity
  8
0
100
AcDbCircle
 62
7
  6
CONTINUOUS
 10
12.9392394818
 20
2.5648073559
 40
0.0024749995
100
AcDbArc
 50
359.9999571957
 51
90.0000428043
  0
LINE
  5
2FF
100
AcDbEntity
  8
0
100
AcDbLine
 62
7
  6
CONTINUOUS
 10
12.93923948
 20
2.5672823554
 11
12.9205934696
 21
2.5672823554
  0
ARC
  5
300
100
AcDbEntity
  8
0
100
AcDbCircle
 62
7
  6
CONTINUOUS
 10
12.9205934678
 20
2.5697573549
 40
0.0024749995
100
AcDbArc
 50
179.9999571957
 51
270.0000428043
  0
LINE
  5
301
100
AcDbEntity
  8
0
100
AcDbLine
 62
7
  6
CONTINUOUS
 10
12.9181184683
 20
2.5697573568
 11
12.9181184683
 21
2.5895573678
  0
ARC
  5
302
100
AcDbEntity
  8
0
100
AcDbCircle
 62
7
  6
CONTINUOUS
 10
12.9205934678
 20
2.5895573696
 40
0.0024749995
100
AcDbArc
 50
89.9999571957
 51
180.0000428042
  0
LINE
  5
303
100
AcDbEntity
  8
0
100
AcDbLine
 62
7
  6
CONTINUOUS
 10
13.2934226764
 20
2.5324773361
 11
13.2582556569
 21
2.5324773361
  0
ARC
  5
304
100
AcDbEntity
  8
0
100
AcDbCircle
 62
7
  6
CONTINUOUS
 10
13.2582556551
 20
2.5300023366
 40
0.0024749995
100
AcDbArc
 50
89.9999571957
 51
180.0000428043
  0
LINE
  5
305
100
AcDbEntity
  8
0
100
AcDbLine
 62
7
  6
CONTINUOUS
 10
13.2557806555
 20
2.5300023347
 11
13.2557806555
 21
2.5184523283
  0
ARC
  5
306
100
AcDbEntity
  8
0
100
AcDbCircle
 62
7
  6
CONTINUOUS
 10
13.2582556551
 20
2.5184523265
 40
0.0024749995
100
AcDbArc
 50
179.9999571957
 51
270.0000428043
  0
LINE
  5
307
100
AcDbEntity
  8
0
100
AcDbLine
 62
7
  6
CONTINUOUS
 10
13.2582556569
 20
2.515977327
 11
13.3232596929
 21
2.515977327
  0
ARC
  5
308
100
AcDbEntity
  8
0
100
AcDbCircle
 62
7
  6
CONTINUOUS
 10
13.3232596948
 20
2.5184523265
 40
0.0024749995
100
AcDbArc
 50
269.9999571957
 51
0.0000428043
  0
LINE
  5
309
100
AcDbEntity
  8
0
100
AcDbLine
 62
7
  6
CONTINUOUS
 10
13.3257346943
 20
2.5184523283
 11
13.3257346943
 21
2.5267023329
  0
ARC
  5
30A
100
AcDbEntity
  8
0
100
AcDbCircle
 62
7
  6
CONTINUOUS
 10
13.3282096938
 20
2.5267023348
 40
0.0024749995
100
AcDbArc
 50
89.9999571957
 51
180.0000428043
  0
LINE
  5
30B
100
AcDbEntity
  8
0
100
AcDbLine
 62
7
  6
CONTINUOUS
 10
13.3282096957
 20
2.5291773343
 11
13.3705287192
 21
2.5291773343
  0
ARC
  5
30C
100
AcDbEntity
  8
0
100
AcDbCircle
 62
7
  6
CONTINUOUS
 10
13.370528721
 20
2.5267023348
 40
0.0024749995
100
AcDbArc
 50
359.9999571957
 51
90.0000428043
  0
LINE
  5
30D
100
AcDbEntity
  8
0
100
AcDbLine
 62
7
  6
CONTINUOUS
 10
13.3730037205
 20
2.5267023329
 11
13.3730037205
 21
2.4937023146
  0
ARC
  5
30E
100
AcDbEntity
  8
0
100
AcDbCircle
 62
7
  6
CONTINUOUS
 10
13.370528721
 20
2.4937023128
 40
0.0024749995
100
AcDbArc
 50
269.9999571957
 51
0.0000428043
  0
LINE
  5
30F
100
AcDbEntity
  8
0
100
AcDbLine
 62
7
  6
CONTINUOUS
 10
13.3705287192
 20
2.4912273132
 11
13.1673166065
 21
2.4912273132
  0
ARC
  5
310
100
AcDbEntity
  8
0
100
AcDbCircle
 62
7
  6
CONTINUOUS
 10
13.1673166046
 20
2.4937023128
 40
0.0024749995
100
AcDbArc
 50
179.9999571957
 51
270.0000428043
  0
LINE
  5
311
100
AcDbEntity
  8
0
100
AcDbLine
 62
7
  6
CONTINUOUS
 10
13.1648416051
 20
2.4937023146
 11
13.1648416051
 21
2.5135023256
  0
ARC
  5
312
100
AcDbEntity
  8
0
100
AcDbCircle
 62
7
  6
CONTINUOUS
 10
13.1673166046
 20
2.5135023274
 40
0.0024749995
100
AcDbArc
 50
89.9999571957
 51
180.0000428043
  0
LINE
  5
313
100
AcDbEntity
  8
0
100
AcDbLine
 62
7
  6
CONTINUOUS
 10
13.1673166065
 20
2.515977327
 11
13.1912396197
 21
2.515977327
  0
ARC
  5
314
100
AcDbEntity
  8
0
100
AcDbCircle
 62
7
  6
CONTINUOUS
 10
13.1912396216
 20
2.5184523265
 40
0.0024749995
100
AcDbArc
 50
269.9999571957
 51
0.0000428042
  0
LINE
  5
315
100
AcDbEntity
  8
0
100
AcDbLine
 62
7
  6
CONTINUOUS
 10
13.1937146211
 20
2.5184523283
 11
13.1937146211
 21
2.564807354
  0
ARC
  5
316
100
AcDbEntity
  8
0
100
AcDbCircle
 62
7
  6
CONTINUOUS
 10
13.1912396216
 20
2.5648073559
 40
0.0024749995
100
AcDbArc
 50
359.9999571957
 51
90.0000428043
  0
LINE
  5
317
100
AcDbEntity
  8
0
100
AcDbLine
 62
7
  6
CONTINUOUS
 10
13.1912396197
 20
2.5672823554
 11
13.1673166065
 21
2.5672823554
  0
ARC
  5
318
100
AcDbEntity
  8
0
100
AcDbCircle
 62
7
  6
CONTINUOUS
 10
13.1673166046
 20
2.5697573549
 40
0.0024749995
100
AcDbArc
 50
179.9999571957
 51
270.0000428043
  0
LINE
  5
319
100
AcDbEntity
  8
0
100
AcDbLine
 62
7
  6
CONTINUOUS
 10
13.1648416051
 20
2.5697573568
 11
13.1648416051
 21
2.5895573678
  0
ARC
  5
31A
100
AcDbEntity
  8
0
100
AcDbCircle
 62
7
  6
CONTINUOUS
 10
13.1673166046
 20
2.5895573696
 40
0.0024749995
100
AcDbArc
 50
89.9999571957
 51
180.0000428043
  0
LINE
  5
31B
100
AcDbEntity
  8
0
100
AcDbLine
 62
7
  6
CONTINUOUS
 10
13.1673166065
 20
2.5920323691
 11
13.3691097184
 21
2.5920323691
  0
ARC
  5
31C
100
AcDbEntity
  8
0
100
AcDbCircle
 62
7
  6
CONTINUOUS
 10
13.3691097202
 20
2.5895573696
 40
0.0024749995
100
AcDbArc
 50
359.9999571957
 51
90.0000428043
  0
LINE
  5
31D
100
AcDbEntity
  8
0
100
AcDbLine
 62
7
  6
CONTINUOUS
 10
13.3715847197
 20
2.5895573678
 11
13.3715847197
 21
2.5565573495
  0
ARC
  5
31E
100
AcDbEntity
  8
0
100
AcDbCircle
 62
7
  6
CONTINUOUS
 10
13.3691097202
 20
2.5565573476
 40
0.0024749995
100
AcDbArc
 50
269.9999571957
 51
0.0000428042
  0
LINE
  5
31F
100
AcDbEntity
  8
0
100
AcDbLine
 62
7
  6
CONTINUOUS
 10
13.3691097184
 20
2.5540823481
 11
13.3272456952
 21
2.5540823481
  0
ARC
  5
320
100
AcDbEntity
  8
0
100
AcDbCircle
 62
7
  6
CONTINUOUS
 10
13.3272456933
 20
2.5565573476
 40
0.0024749995
100
AcDbArc
 50
179.9999571957
 51
270.0000428043
  0
LINE
  5
321
100
AcDbEntity
  8
0
100
AcDbLine
 62
7
  6
CONTINUOUS
 10
13.3247706938
 20
2.5565573495
 11
13.3247706938
 21
2.564807354
  0
ARC
  5
322
100
AcDbEntity
  8
0
100
AcDbCircle
 62
7
  6
CONTINUOUS
 10
13.3222956943
 20
2.5648073559
 40
0.0024749995
100
AcDbArc
 50
359.9999571957
 51
90.0000428043
  0
LINE
  5
323
100
AcDbEntity
  8
0
100
AcDbLine
 62
7
  6
CONTINUOUS
 10
13.3222956924
 20
2.5672823554
 11
13.2582556569
 21
2.5672823554
  0
ARC
  5
324
100
AcDbEntity
  8
0
100
AcDbCircle
 62
7
  6
CONTINUOUS
 10
13.2582556551
 20
2.5648073559
 40
0.0024749995
100
AcDbArc
 50
89.9999571957
 51
180.0000428043
  0
LINE
  5
325
100
AcDbEntity
  8
0
100
AcDbLine
 62
7
  6
CONTINUOUS
 10
13.2557806555
 20
2.564807354
 11
13.2557806555
 21
2.5532573476
  0
ARC
  5
326
100
AcDbEntity
  8
0
100
AcDbCircle
 62
7
  6
CONTINUOUS
 10
13.2582556551
 20
2.5532573458
 40
0.0024749995
100
AcDbArc
 50
179.9999571957
 51
270.0000428043
  0
LINE
  5
327
100
AcDbEntity
  8
0
100
AcDbLine
 62
7
  6
CONTINUOUS
 10
13.2582556569
 20
2.5507823463
 11
13.2934226764
 21
2.5507823463
  0
ARC
  5
328
100
AcDbEntity
  8
0
100
AcDbCircle
 62
7
  6
CONTINUOUS
 10
13.2934226783
 20
2.5483073467
 40
0.0024749995
100
AcDbArc
 50
359.9999571957
 51
90.0000428043
  0
LINE
  5
329
100
AcDbEntity
  8
0
100
AcDbLine
 62
7
  6
CONTINUOUS
 10
13.2958976778
 20
2.5483073449
 11
13.2958976778
 21
2.5349523375
  0
ARC
  5
32A
100
AcDbEntity
  8
0
100
AcDbCircle
 62
7
  6
CONTINUOUS
 10
13.2934226783
 20
2.5349523356
 40
0.0024749995
100
AcDbArc
 50
269.9999571957
 51
0.0000428042
  0
LINE
  5
32B
100
AcDbEntity
  8
0
100
AcDbLine
 62
7
  6
CONTINUOUS
 10
13.7286871589
 20
2.5350697372
 11
13.7286871589
 21
2.5456869438
  0
LINE
  5
32C
100
AcDbEntity
  8
0
100
AcDbLine
 62
7
  6
CONTINUOUS
 10
13.7086871478
 20
2.5004302075
 11
13.7086871478
 21
2.5803264735
  0
LINE
  5
32D
100
AcDbEntity
  8
0
100
AcDbLine
 62
7
  6
CONTINUOUS
 10
13.6886871368
 20
2.4843919416
 11
13.6886871368
 21
2.5963647394
  0
LINE
  5
32E
100
AcDbEntity
  8
0
100
AcDbLine
 62
7
  6
CONTINUOUS
 10
13.6686871257
 20
2.4726017898
 11
13.6686871257
 21
2.6081548911
  0
LINE
  5
32F
100
AcDbEntity
  8
0
100
AcDbLine
 62
7
  6
CONTINUOUS
 10
13.6486871146
 20
2.4628062688
 11
13.6486871146
 21
2.6179504122
  0
LINE
  5
330
100
AcDbEntity
  8
0
100
AcDbLine
 62
7
  6
CONTINUOUS
 10
13.6286871035
 20
2.4541253507
 11
13.6286871035
 21
2.5062483056
  0
LINE
  5
331
100
AcDbEntity
  8
0
100
AcDbLine
 62
7
  6
CONTINUOUS
 10
13.6286871035
 20
2.5301143348
 11
13.6286871035
 21
2.6266313303
  0
LINE
  5
332
100
AcDbEntity
  8
0
100
AcDbLine
 62
7
  6
CONTINUOUS
 10
13.6086870924
 20
2.4465537903
 11
13.6086870924
 21
2.4918774918
  0
LINE
  5
333
100
AcDbEntity
  8
0
100
AcDbLine
 62
7
  6
CONTINUOUS
 10
13.6086870924
 20
2.5165781173
 11
13.6086870924
 21
2.6342028907
  0
LINE
  5
334
100
AcDbEntity
  8
0
100
AcDbLine
 62
7
  6
CONTINUOUS
 10
13.5886870813
 20
2.4398033466
 11
13.5886870813
 21
2.4912273132
  0
LINE
  5
335
100
AcDbEntity
  8
0
100
AcDbLine
 62
7
  6
CONTINUOUS
 10
13.5886870813
 20
2.5391840845
 11
13.5886870813
 21
2.5454298327
  0
LINE
  5
336
100
AcDbEntity
  8
0
100
AcDbLine
 62
7
  6
CONTINUOUS
 10
13.5886870813
 20
2.5862063472
 11
13.5886870813
 21
2.6409533343
  0
LINE
  5
337
100
AcDbEntity
  8
0
100
AcDbLine
 62
7
  6
CONTINUOUS
 10
13.5686870702
 20
2.4334702189
 11
13.5686870702
 21
2.4912273132
  0
LINE
  5
338
100
AcDbEntity
  8
0
100
AcDbLine
 62
7
  6
CONTINUOUS
 10
13.5686870702
 20
2.5906587765
 11
13.5686870702
 21
2.647286462
  0
LINE
  5
339
100
AcDbEntity
  8
0
100
AcDbLine
 62
7
  6
CONTINUOUS
 10
13.5486870591
 20
2.4278968124
 11
13.5486870591
 21
2.4937461006
  0
LINE
  5
33A
100
AcDbEntity
  8
0
100
AcDbLine
 62
7
  6
CONTINUOUS
 10
13.5486870591
 20
2.5920323691
 11
13.5486870591
 21
2.6528598686
  0
LINE
  5
33B
100
AcDbEntity
  8
0
100
AcDbLine
 62
7
  6
CONTINUOUS
 10
13.528687048
 20
2.4225427674
 11
13.528687048
 21
2.5270426993
  0
LINE
  5
33C
100
AcDbEntity
  8
0
100
AcDbLine
 62
7
  6
CONTINUOUS
 10
13.528687048
 20
2.5505166259
 11
13.528687048
 21
2.5668657091
  0
LINE
  5
33D
100
AcDbEntity
  8
0
100
AcDbLine
 62
7
  6
CONTINUOUS
 10
13.528687048
 20
2.5920323691
 11
13.528687048
 21
2.6582139136
  0
LINE
  5
33E
100
AcDbEntity
  8
0
100
AcDbLine
 62
7
  6
CONTINUOUS
 10
13.5086870369
 20
2.4177306791
 11
13.5086870369
 21
2.4912273132
  0
LINE
  5
33F
100
AcDbEntity
  8
0
100
AcDbLine
 62
7
  6
CONTINUOUS
 10
13.5086870369
 20
2.5159553269
 11
13.5086870369
 21
2.5306043351
  0
LINE
  5
340
100
AcDbEntity
  8
0
100
AcDbLine
 62
7
  6
CONTINUOUS
 10
13.5086870369
 20
2.5496073456
 11
13.5086870369
 21
2.5672823554
  0
LINE
  5
341
100
AcDbEntity
  8
0
100
AcDbLine
 62
7
  6
CONTINUOUS
 10
13.5086870369
 20
2.5920323691
 11
13.5086870369
 21
2.6630260019
  0
LINE
  5
342
100
AcDbEntity
  8
0
100
AcDbLine
 62
7
  6
CONTINUOUS
 10
13.4886870258
 20
2.4131795254
 11
13.4886870258
 21
2.4912273132
  0
LINE
  5
343
100
AcDbEntity
  8
0
100
AcDbLine
 62
7
  6
CONTINUOUS
 10
13.4886870258
 20
2.5159553269
 11
13.4886870258
 21
2.5306043351
  0
LINE
  5
344
100
AcDbEntity
  8
0
100
AcDbLine
 62
7
  6
CONTINUOUS
 10
13.4886870258
 20
2.5496073456
 11
13.4886870258
 21
2.5672823554
  0
LINE
  5
345
100
AcDbEntity
  8
0
100
AcDbLine
 62
7
  6
CONTINUOUS
 10
13.4886870258
 20
2.5920323691
 11
13.4886870258
 21
2.6675771555
  0
LINE
  5
346
100
AcDbEntity
  8
0
100
AcDbLine
 62
7
  6
CONTINUOUS
 10
13.4686870147
 20
2.4088819672
 11
13.4686870147
 21
2.4912273132
  0
LINE
  5
347
100
AcDbEntity
  8
0
100
AcDbLine
 62
7
  6
CONTINUOUS
 10
13.4686870147
 20
2.5920323691
 11
13.4686870147
 21
2.6718747138
  0
LINE
  5
348
100
AcDbEntity
  8
0
100
AcDbLine
 62
7
  6
CONTINUOUS
 10
13.4486870037
 20
2.4050092072
 11
13.4486870037
 21
2.4912273132
  0
LINE
  5
349
100
AcDbEntity
  8
0
100
AcDbLine
 62
7
  6
CONTINUOUS
 10
13.4486870037
 20
2.5920323691
 11
13.4486870037
 21
2.6757474738
  0
LINE
  5
34A
100
AcDbEntity
  8
0
100
AcDbLine
 62
7
  6
CONTINUOUS
 10
13.4286869926
 20
2.4011364471
 11
13.4286869926
 21
2.4912273132
  0
LINE
  5
34B
100
AcDbEntity
  8
0
100
AcDbLine
 62
7
  6
CONTINUOUS
 10
13.4286869926
 20
2.5920323691
 11
13.4286869926
 21
2.6796202339
  0
LINE
  5
34C
100
AcDbEntity
  8
0
100
AcDbLine
 62
7
  6
CONTINUOUS
 10
13.4086869815
 20
2.3980226662
 11
13.4086869815
 21
2.4912273132
  0
LINE
  5
34D
100
AcDbEntity
  8
0
100
AcDbLine
 62
7
  6
CONTINUOUS
 10
13.4086869815
 20
2.515977327
 11
13.4086869815
 21
2.5672823554
  0
LINE
  5
34E
100
AcDbEntity
  8
0
100
AcDbLine
 62
7
  6
CONTINUOUS
 10
13.4086869815
 20
2.5920323691
 11
13.4086869815
 21
2.6827340148
  0
LINE
  5
34F
100
AcDbEntity
  8
0
100
AcDbLine
 62
7
  6
CONTINUOUS
 10
13.3886869704
 20
2.3950052774
 11
13.3886869704
 21
2.6857514036
  0
LINE
  5
350
100
AcDbEntity
  8
0
100
AcDbLine
 62
7
  6
CONTINUOUS
 10
13.3686869593
 20
2.3919878885
 11
13.3686869593
 21
2.4912273132
  0
LINE
  5
351
100
AcDbEntity
  8
0
100
AcDbLine
 62
7
  6
CONTINUOUS
 10
13.3686869593
 20
2.5291773343
 11
13.3686869593
 21
2.5540823481
  0
LINE
  5
352
100
AcDbEntity
  8
0
100
AcDbLine
 62
7
  6
CONTINUOUS
 10
13.3686869593
 20
2.5920323691
 11
13.3686869593
 21
2.6887687924
  0
LINE
  5
353
100
AcDbEntity
  8
0
100
AcDbLine
 62
7
  6
CONTINUOUS
 10
13.3486869482
 20
2.3889704997
 11
13.3486869482
 21
2.4912273132
  0
LINE
  5
354
100
AcDbEntity
  8
0
100
AcDbLine
 62
7
  6
CONTINUOUS
 10
13.3486869482
 20
2.5291773343
 11
13.3486869482
 21
2.5540823481
  0
LINE
  5
355
100
AcDbEntity
  8
0
100
AcDbLine
 62
7
  6
CONTINUOUS
 10
13.3486869482
 20
2.5920323691
 11
13.3486869482
 21
2.6917861813
  0
LINE
  5
356
100
AcDbEntity
  8
0
100
AcDbLine
 62
7
  6
CONTINUOUS
 10
13.3286869371
 20
2.3859531109
 11
13.3286869371
 21
2.4912273132
  0
LINE
  5
357
100
AcDbEntity
  8
0
100
AcDbLine
 62
7
  6
CONTINUOUS
 10
13.3286869371
 20
2.5291773343
 11
13.3286869371
 21
2.5540823481
  0
LINE
  5
358
100
AcDbEntity
  8
0
100
AcDbLine
 62
7
  6
CONTINUOUS
 10
13.3286869371
 20
2.5920323691
 11
13.3286869371
 21
2.6948035701
  0
LINE
  5
359
100
AcDbEntity
  8
0
100
AcDbLine
 62
7
  6
CONTINUOUS
 10
13.308686926
 20
2.3833355437
 11
13.308686926
 21
2.4912273132
  0
LINE
  5
35A
100
AcDbEntity
  8
0
100
AcDbLine
 62
7
  6
CONTINUOUS
 10
13.308686926
 20
2.515977327
 11
13.308686926
 21
2.5672823554
  0
LINE
  5
35B
100
AcDbEntity
  8
0
100
AcDbLine
 62
7
  6
CONTINUOUS
 10
13.308686926
 20
2.5920323691
 11
13.308686926
 21
2.6974211373
  0
LINE
  5
35C
100
AcDbEntity
  8
0
100
AcDbLine
 62
7
  6
CONTINUOUS
 10
13.2886869149
 20
2.3812612684
 11
13.2886869149
 21
2.4912273132
  0
LINE
  5
35D
100
AcDbEntity
  8
0
100
AcDbLine
 62
7
  6
CONTINUOUS
 10
13.2886869149
 20
2.515977327
 11
13.2886869149
 21
2.5324773361
  0
LINE
  5
35E
100
AcDbEntity
  8
0
100
AcDbLine
 62
7
  6
CONTINUOUS
 10
13.2886869149
 20
2.5507823463
 11
13.2886869149
 21
2.5672823554
  0
LINE
  5
35F
100
AcDbEntity
  8
0
100
AcDbLine
 62
7
  6
CONTINUOUS
 10
13.2886869149
 20
2.5920323691
 11
13.2886869149
 21
2.6994954125
  0
LINE
  5
360
100
AcDbEntity
  8
0
100
AcDbLine
 62
7
  6
CONTINUOUS
 10
13.2686869038
 20
2.3791869932
 11
13.2686869038
 21
2.4912273132
  0
LINE
  5
361
100
AcDbEntity
  8
0
100
AcDbLine
 62
7
  6
CONTINUOUS
 10
13.2686869038
 20
2.515977327
 11
13.2686869038
 21
2.5324773361
  0
LINE
  5
362
100
AcDbEntity
  8
0
100
AcDbLine
 62
7
  6
CONTINUOUS
 10
13.2686869038
 20
2.5507823463
 11
13.2686869038
 21
2.5672823554
  0
LINE
  5
363
100
AcDbEntity
  8
0
100
AcDbLine
 62
7
  6
CONTINUOUS
 10
13.2686869038
 20
2.5920323691
 11
13.2686869038
 21
2.7015696878
  0
LINE
  5
364
100
AcDbEntity
  8
0
100
AcDbLine
 62
7
  6
CONTINUOUS
 10
13.2486868927
 20
2.377112718
 11
13.2486868927
 21
2.4912273132
  0
LINE
  5
365
100
AcDbEntity
  8
0
100
AcDbLine
 62
7
  6
CONTINUOUS
 10
13.2486868927
 20
2.5920323691
 11
13.2486868927
 21
2.703643963
  0
LINE
  5
366
100
AcDbEntity
  8
0
100
AcDbLine
 62
7
  6
CONTINUOUS
 10
13.2286868817
 20
2.3750384428
 11
13.2286868817
 21
2.4912273132
  0
LINE
  5
367
100
AcDbEntity
  8
0
100
AcDbLine
 62
7
  6
CONTINUOUS
 10
13.2286868817
 20
2.5920323691
 11
13.2286868817
 21
2.7057182382
  0
LINE
  5
368
100
AcDbEntity
  8
0
100
AcDbLine
 62
7
  6
CONTINUOUS
 10
13.2086868706
 20
2.3729641676
 11
13.2086868706
 21
2.4912273132
  0
LINE
  5
369
100
AcDbEntity
  8
0
100
AcDbLine
 62
7
  6
CONTINUOUS
 10
13.2086868706
 20
2.5920323691
 11
13.2086868706
 21
2.7077925134
  0
LINE
  5
36A
100
AcDbEntity
  8
0
100
AcDbLine
 62
7
  6
CONTINUOUS
 10
13.1886868595
 20
2.3712344456
 11
13.1886868595
 21
2.4912273132
  0
LINE
  5
36B
100
AcDbEntity
  8
0
100
AcDbLine
 62
7
  6
CONTINUOUS
 10
13.1886868595
 20
2.515977327
 11
13.1886868595
 21
2.5672823554
  0
LINE
  5
36C
100
AcDbEntity
  8
0
100
AcDbLine
 62
7
  6
CONTINUOUS
 10
13.1886868595
 20
2.5920323691
 11
13.1886868595
 21
2.7095222354
  0
LINE
  5
36D
100
AcDbEntity
  8
0
100
AcDbLine
 62
7
  6
CONTINUOUS
 10
13.1686868484
 20
2.3699682418
 11
13.1686868484
 21
2.4912273132
  0
LINE
  5
36E
100
AcDbEntity
  8
0
100
AcDbLine
 62
7
  6
CONTINUOUS
 10
13.1686868484
 20
2.515977327
 11
13.1686868484
 21
2.5672823554
  0
LINE
  5
36F
100
AcDbEntity
  8
0
100
AcDbLine
 62
7
  6
CONTINUOUS
 10
13.1686868484
 20
2.5920323691
 11
13.1686868484
 21
2.7107884392
  0
LINE
  5
370
100
AcDbEntity
  8
0
100
AcDbLine
 62
7
  6
CONTINUOUS
 10
13.1486868373
 20
2.3687020381
 11
13.1486868373
 21
2.7120546429
  0
LINE
  5
371
100
AcDbEntity
  8
0
100
AcDbLine
 62
7
  6
CONTINUOUS
 10
13.1286868262
 20
2.3674358343
 11
13.1286868262
 21
2.5672823554
  0
LINE
  5
372
100
AcDbEntity
  8
0
100
AcDbLine
 62
7
  6
CONTINUOUS
 10
13.1286868262
 20
2.5920323691
 11
13.1286868262
 21
2.7133208466
  0
LINE
  5
373
100
AcDbEntity
  8
0
100
AcDbLine
 62
7
  6
CONTINUOUS
 10
13.1086868151
 20
2.3661696306
 11
13.1086868151
 21
2.4912273132
  0
LINE
  5
374
100
AcDbEntity
  8
0
100
AcDbLine
 62
7
  6
CONTINUOUS
 10
13.1086868151
 20
2.5920323691
 11
13.1086868151
 21
2.7145870504
  0
LINE
  5
375
100
AcDbEntity
  8
0
100
AcDbLine
 62
7
  6
CONTINUOUS
 10
13.088686804
 20
2.3649034269
 11
13.088686804
 21
2.4912273132
  0
LINE
  5
376
100
AcDbEntity
  8
0
100
AcDbLine
 62
7
  6
CONTINUOUS
 10
13.088686804
 20
2.5920323691
 11
13.088686804
 21
2.7158532541
  0
LINE
  5
377
100
AcDbEntity
  8
0
100
AcDbLine
 62
7
  6
CONTINUOUS
 10
13.0686867929
 20
2.3636739922
 11
13.0686867929
 21
2.4912273132
  0
LINE
  5
378
100
AcDbEntity
  8
0
100
AcDbLine
 62
7
  6
CONTINUOUS
 10
13.0686867929
 20
2.5475272398
 11
13.0686867929
 21
2.5672823554
  0
LINE
  5
379
100
AcDbEntity
  8
0
100
AcDbLine
 62
7
  6
CONTINUOUS
 10
13.0686867929
 20
2.5920323691
 11
13.0686867929
 21
2.7170826887
  0
LINE
  5
37A
100
AcDbEntity
  8
0
100
AcDbLine
 62
7
  6
CONTINUOUS
 10
13.0486867818
 20
2.363143203
 11
13.0486867818
 21
2.4912273132
  0
LINE
  5
37B
100
AcDbEntity
  8
0
100
AcDbLine
 62
7
  6
CONTINUOUS
 10
13.0486867818
 20
2.5666100882
 11
13.0486867818
 21
2.717613478
  0
LINE
  5
37C
100
AcDbEntity
  8
0
100
AcDbLine
 62
7
  6
CONTINUOUS
 10
13.0286867707
 20
2.3626124138
 11
13.0286867707
 21
2.50359263
  0
LINE
  5
37D
100
AcDbEntity
  8
0
100
AcDbLine
 62
7
  6
CONTINUOUS
 10
13.0286867707
 20
2.5856929366
 11
13.0286867707
 21
2.7181442672
  0
LINE
  5
37E
100
AcDbEntity
  8
0
100
AcDbLine
 62
7
  6
CONTINUOUS
 10
13.0086867596
 20
2.3620816246
 11
13.0086867596
 21
2.5226754472
  0
LINE
  5
37F
100
AcDbEntity
  8
0
100
AcDbLine
 62
7
  6
CONTINUOUS
 10
13.0086867596
 20
2.5920323691
 11
13.0086867596
 21
2.7186750564
  0
LINE
  5
380
100
AcDbEntity
  8
0
100
AcDbLine
 62
7
  6
CONTINUOUS
 10
12.9886867486
 20
2.3615508354
 11
12.9886867486
 21
2.4912273132
  0
LINE
  5
381
100
AcDbEntity
  8
0
100
AcDbLine
 62
7
  6
CONTINUOUS
 10
12.9886867486
 20
2.515977327
 11
12.9886867486
 21
2.5417582644
  0
LINE
  5
382
100
AcDbEntity
  8
0
100
AcDbLine
 62
7
  6
CONTINUOUS
 10
12.9886867486
 20
2.5920323691
 11
12.9886867486
 21
2.7192058456
  0
LINE
  5
383
100
AcDbEntity
  8
0
100
AcDbLine
 62
7
  6
CONTINUOUS
 10
12.9686867375
 20
2.3610200462
 11
12.9686867375
 21
2.4912273132
  0
LINE
  5
384
100
AcDbEntity
  8
0
100
AcDbLine
 62
7
  6
CONTINUOUS
 10
12.9686867375
 20
2.5920323691
 11
12.9686867375
 21
2.7197366348
  0
LINE
  5
385
100
AcDbEntity
  8
0
100
AcDbLine
 62
7
  6
CONTINUOUS
 10
12.9486867264
 20
2.360489257
 11
12.9486867264
 21
2.4912273132
  0
LINE
  5
386
100
AcDbEntity
  8
0
100
AcDbLine
 62
7
  6
CONTINUOUS
 10
12.9486867264
 20
2.5920323691
 11
12.9486867264
 21
2.720267424
  0
LINE
  5
387
100
AcDbEntity
  8
0
100
AcDbLine
 62
7
  6
CONTINUOUS
 10
12.9286867153
 20
2.3602836008
 11
12.9286867153
 21
2.4912273132
  0
LINE
  5
388
100
AcDbEntity
  8
0
100
AcDbLine
 62
7
  6
CONTINUOUS
 10
12.9286867153
 20
2.515977327
 11
12.9286867153
 21
2.5672823554
  0
LINE
  5
389
100
AcDbEntity
  8
0
100
AcDbLine
 62
7
  6
CONTINUOUS
 10
12.9286867153
 20
2.5920323691
 11
12.9286867153
 21
2.7204730802
  0
LINE
  5
38A
100
AcDbEntity
  8
0
100
AcDbLine
 62
7
  6
CONTINUOUS
 10
12.9086867042
 20
2.3604597639
 11
12.9086867042
 21
2.7202969171
  0
LINE
  5
38B
100
AcDbEntity
  8
0
100
AcDbLine
 62
7
  6
CONTINUOUS
 10
12.8886866931
 20
2.360635927
 11
12.8886866931
 21
2.5672823554
  0
LINE
  5
38C
100
AcDbEntity
  8
0
100
AcDbLine
 62
7
  6
CONTINUOUS
 10
12.8886866931
 20
2.5920323691
 11
12.8886866931
 21
2.720120754
  0
LINE
  5
38D
100
AcDbEntity
  8
0
100
AcDbLine
 62
7
  6
CONTINUOUS
 10
12.868686682
 20
2.3608120901
 11
12.868686682
 21
2.491232357
  0
LINE
  5
38E
100
AcDbEntity
  8
0
100
AcDbLine
 62
7
  6
CONTINUOUS
 10
12.868686682
 20
2.5920323691
 11
12.868686682
 21
2.7199445909
  0
LINE
  5
38F
100
AcDbEntity
  8
0
100
AcDbLine
 62
7
  6
CONTINUOUS
 10
12.8486866709
 20
2.3609882532
 11
12.8486866709
 21
2.4912273132
  0
LINE
  5
390
100
AcDbEntity
  8
0
100
AcDbLine
 62
7
  6
CONTINUOUS
 10
12.8486866709
 20
2.5920323691
 11
12.8486866709
 21
2.7197684278
  0
LINE
  5
391
100
AcDbEntity
  8
0
100
AcDbLine
 62
7
  6
CONTINUOUS
 10
12.8286866598
 20
2.3611644163
 11
12.8286866598
 21
2.4912273132
  0
LINE
  5
392
100
AcDbEntity
  8
0
100
AcDbLine
 62
7
  6
CONTINUOUS
 10
12.8286866598
 20
2.5396527025
 11
12.8286866598
 21
2.5672823554
  0
LINE
  5
393
100
AcDbEntity
  8
0
100
AcDbLine
 62
7
  6
CONTINUOUS
 10
12.8286866598
 20
2.5920323691
 11
12.8286866598
 21
2.7195922647
  0
LINE
  5
394
100
AcDbEntity
  8
0
100
AcDbLine
 62
7
  6
CONTINUOUS
 10
12.8086866487
 20
2.3613405794
 11
12.8086866487
 21
2.4912273132
  0
LINE
  5
395
100
AcDbEntity
  8
0
100
AcDbLine
 62
7
  6
CONTINUOUS
 10
12.8086866487
 20
2.5587355508
 11
12.8086866487
 21
2.7194161016
  0
LINE
  5
396
100
AcDbEntity
  8
0
100
AcDbLine
 62
7
  6
CONTINUOUS
 10
12.7886866376
 20
2.3621089572
 11
12.7886866376
 21
2.4957181055
  0
LINE
  5
397
100
AcDbEntity
  8
0
100
AcDbLine
 62
7
  6
CONTINUOUS
 10
12.7886866376
 20
2.5778183992
 11
12.7886866376
 21
2.7186477238
  0
LINE
  5
398
100
AcDbEntity
  8
0
100
AcDbLine
 62
7
  6
CONTINUOUS
 10
12.7686866266
 20
2.3630013935
 11
12.7686866266
 21
2.5148009227
  0
LINE
  5
399
100
AcDbEntity
  8
0
100
AcDbLine
 62
7
  6
CONTINUOUS
 10
12.7686866266
 20
2.5920323691
 11
12.7686866266
 21
2.7177552874
  0
LINE
  5
39A
100
AcDbEntity
  8
0
100
AcDbLine
 62
7
  6
CONTINUOUS
 10
12.7486866155
 20
2.3638938299
 11
12.7486866155
 21
2.4913263218
  0
LINE
  5
39B
100
AcDbEntity
  8
0
100
AcDbLine
 62
7
  6
CONTINUOUS
 10
12.7486866155
 20
2.5158783184
 11
12.7486866155
 21
2.5338837399
  0
LINE
  5
39C
100
AcDbEntity
  8
0
100
AcDbLine
 62
7
  6
CONTINUOUS
 10
12.7486866155
 20
2.5920323691
 11
12.7486866155
 21
2.7168628511
  0
LINE
  5
39D
100
AcDbEntity
  8
0
100
AcDbLine
 62
7
  6
CONTINUOUS
 10
12.7286866044
 20
2.3647862663
 11
12.7286866044
 21
2.4912273132
  0
LINE
  5
39E
100
AcDbEntity
  8
0
100
AcDbLine
 62
7
  6
CONTINUOUS
 10
12.7286866044
 20
2.515977327
 11
12.7286866044
 21
2.5527601554
  0
LINE
  5
39F
100
AcDbEntity
  8
0
100
AcDbLine
 62
7
  6
CONTINUOUS
 10
12.7286866044
 20
2.5920323691
 11
12.7286866044
 21
2.7159704147
  0
LINE
  5
3A0
100
AcDbEntity
  8
0
100
AcDbLine
 62
7
  6
CONTINUOUS
 10
12.7086865933
 20
2.3656787026
 11
12.7086865933
 21
2.4912273132
  0
LINE
  5
3A1
100
AcDbEntity
  8
0
100
AcDbLine
 62
7
  6
CONTINUOUS
 10
12.7086865933
 20
2.5920323691
 11
12.7086865933
 21
2.7150779784
  0
LINE
  5
3A2
100
AcDbEntity
  8
0
100
AcDbLine
 62
7
  6
CONTINUOUS
 10
12.6886865822
 20
2.366571139
 11
12.6886865822
 21
2.4912273132
  0
LINE
  5
3A3
100
AcDbEntity
  8
0
100
AcDbLine
 62
7
  6
CONTINUOUS
 10
12.6886865822
 20
2.515977327
 11
12.6886865822
 21
2.5672823554
  0
LINE
  5
3A4
100
AcDbEntity
  8
0
100
AcDbLine
 62
7
  6
CONTINUOUS
 10
12.6886865822
 20
2.5920323691
 11
12.6886865822
 21
2.714185542
  0
LINE
  5
3A5
100
AcDbEntity
  8
0
100
AcDbLine
 62
7
  6
CONTINUOUS
 10
12.6686865711
 20
2.3677104027
 11
12.6686865711
 21
2.7130462783
  0
LINE
  5
3A6
100
AcDbEntity
  8
0
100
AcDbLine
 62
7
  6
CONTINUOUS
 10
12.64868656
 20
2.3693682721
 11
12.64868656
 21
2.7113884089
  0
LINE
  5
3A7
100
AcDbEntity
  8
0
100
AcDbLine
 62
7
  6
CONTINUOUS
 10
12.6286865489
 20
2.3710261415
 11
12.6286865489
 21
2.4912273132
  0
LINE
  5
3A8
100
AcDbEntity
  8
0
100
AcDbLine
 62
7
  6
CONTINUOUS
 10
12.6286865489
 20
2.515977327
 11
12.6286865489
 21
2.7097305395
  0
LINE
  5
3A9
100
AcDbEntity
  8
0
100
AcDbLine
 62
7
  6
CONTINUOUS
 10
12.6086865378
 20
2.372684011
 11
12.6086865378
 21
2.4912273132
  0
LINE
  5
3AA
100
AcDbEntity
  8
0
100
AcDbLine
 62
7
  6
CONTINUOUS
 10
12.6086865378
 20
2.5351122279
 11
12.6086865378
 21
2.70807267
  0
LINE
  5
3AB
100
AcDbEntity
  8
0
100
AcDbLine
 62
7
  6
CONTINUOUS
 10
12.5886865267
 20
2.3743418804
 11
12.5886865267
 21
2.4912273132
  0
LINE
  5
3AC
100
AcDbEntity
  8
0
100
AcDbLine
 62
7
  6
CONTINUOUS
 10
12.5886865267
 20
2.5660172622
 11
12.5886865267
 21
2.7064148006
  0
LINE
  5
3AD
100
AcDbEntity
  8
0
100
AcDbLine
 62
7
  6
CONTINUOUS
 10
12.5686865156
 20
2.3759997498
 11
12.5686865156
 21
2.4912273132
  0
LINE
  5
3AE
100
AcDbEntity
  8
0
100
AcDbLine
 62
7
  6
CONTINUOUS
 10
12.5686865156
 20
2.5920323691
 11
12.5686865156
 21
2.7047569312
  0
LINE
  5
3AF
100
AcDbEntity
  8
0
100
AcDbLine
 62
7
  6
CONTINUOUS
 10
12.5486865045
 20
2.3777575277
 11
12.5486865045
 21
2.4912273132
  0
LINE
  5
3B0
100
AcDbEntity
  8
0
100
AcDbLine
 62
7
  6
CONTINUOUS
 10
12.5486865045
 20
2.515977327
 11
12.5486865045
 21
2.5275118824
  0
LINE
  5
3B1
100
AcDbEntity
  8
0
100
AcDbLine
 62
7
  6
CONTINUOUS
 10
12.5486865045
 20
2.5920323691
 11
12.5486865045
 21
2.7029991533
  0
LINE
  5
3B2
100
AcDbEntity
  8
0
100
AcDbLine
 62
7
  6
CONTINUOUS
 10
12.5286864935
 20
2.3802813811
 11
12.5286864935
 21
2.5296213345
  0
LINE
  5
3B3
100
AcDbEntity
  8
0
100
AcDbLine
 62
7
  6
CONTINUOUS
 10
12.5286864935
 20
2.5505713461
 11
12.5286864935
 21
2.5667383551
  0
LINE
  5
3B4
100
AcDbEntity
  8
0
100
AcDbLine
 62
7
  6
CONTINUOUS
 10
12.5286864935
 20
2.5920323691
 11
12.5286864935
 21
2.7004752999
  0
LINE
  5
3B5
100
AcDbEntity
  8
0
100
AcDbLine
 62
7
  6
CONTINUOUS
 10
12.5086864824
 20
2.3828052346
 11
12.5086864824
 21
2.4912273132
  0
LINE
  5
3B6
100
AcDbEntity
  8
0
100
AcDbLine
 62
7
  6
CONTINUOUS
 10
12.5086864824
 20
2.515977327
 11
12.5086864824
 21
2.5279667721
  0
LINE
  5
3B7
100
AcDbEntity
  8
0
100
AcDbLine
 62
7
  6
CONTINUOUS
 10
12.5086864824
 20
2.5868602074
 11
12.5086864824
 21
2.6979514464
  0
LINE
  5
3B8
100
AcDbEntity
  8
0
100
AcDbLine
 62
7
  6
CONTINUOUS
 10
12.4886864713
 20
2.385329088
 11
12.4886864713
 21
2.4912273132
  0
LINE
  5
3B9
100
AcDbEntity
  8
0
100
AcDbLine
 62
7
  6
CONTINUOUS
 10
12.4886864713
 20
2.5553401045
 11
12.4886864713
 21
2.695427593
  0
LINE
  5
3BA
100
AcDbEntity
  8
0
100
AcDbLine
 62
7
  6
CONTINUOUS
 10
12.4686864602
 20
2.3878529415
 11
12.4686864602
 21
2.4912273132
  0
LINE
  5
3BB
100
AcDbEntity
  8
0
100
AcDbLine
 62
7
  6
CONTINUOUS
 10
12.4686864602
 20
2.5238200015
 11
12.4686864602
 21
2.6929037395
  0
LINE
  5
3BC
100
AcDbEntity
  8
0
100
AcDbLine
 62
7
  6
CONTINUOUS
 10
12.4486864491
 20
2.390376795
 11
12.4486864491
 21
2.4912273132
  0
LINE
  5
3BD
100
AcDbEntity
  8
0
100
AcDbLine
 62
7
  6
CONTINUOUS
 10
12.4486864491
 20
2.515977327
 11
12.4486864491
 21
2.690379886
  0
LINE
  5
3BE
100
AcDbEntity
  8
0
100
AcDbLine
 62
7
  6
CONTINUOUS
 10
12.428686438
 20
2.3931794042
 11
12.428686438
 21
2.6875772768
  0
LINE
  5
3BF
100
AcDbEntity
  8
0
100
AcDbLine
 62
7
  6
CONTINUOUS
 10
12.4086864269
 20
2.3964643301
 11
12.4086864269
 21
2.5013773986
  0
LINE
  5
3C0
100
AcDbEntity
  8
0
100
AcDbLine
 62
7
  6
CONTINUOUS
 10
12.4086864269
 20
2.5325739971
 11
12.4086864269
 21
2.5537224311
  0
LINE
  5
3C1
100
AcDbEntity
  8
0
100
AcDbLine
 62
7
  6
CONTINUOUS
 10
12.4086864269
 20
2.5791473398
 11
12.4086864269
 21
2.6842923509
  0
LINE
  5
3C2
100
AcDbEntity
  8
0
100
AcDbLine
 62
7
  6
CONTINUOUS
 10
12.3886864158
 20
2.399749256
 11
12.3886864158
 21
2.4921022658
  0
LINE
  5
3C3
100
AcDbEntity
  8
0
100
AcDbLine
 62
7
  6
CONTINUOUS
 10
12.3886864158
 20
2.5895929958
 11
12.3886864158
 21
2.681007425
  0
LINE
  5
3C4
100
AcDbEntity
  8
0
100
AcDbLine
 62
7
  6
CONTINUOUS
 10
12.3686864047
 20
2.403451877
 11
12.3686864047
 21
2.4912273132
  0
LINE
  5
3C5
100
AcDbEntity
  8
0
100
AcDbLine
 62
7
  6
CONTINUOUS
 10
12.3686864047
 20
2.5920323691
 11
12.3686864047
 21
2.677304804
  0
LINE
  5
3C6
100
AcDbEntity
  8
0
100
AcDbLine
 62
7
  6
CONTINUOUS
 10
12.3486863936
 20
2.407324637
 11
12.3486863936
 21
2.4912273132
  0
LINE
  5
3C7
100
AcDbEntity
  8
0
100
AcDbLine
 62
7
  6
CONTINUOUS
 10
12.3486863936
 20
2.5920323691
 11
12.3486863936
 21
2.673432044
  0
LINE
  5
3C8
100
AcDbEntity
  8
0
100
AcDbLine
 62
7
  6
CONTINUOUS
 10
12.3286863825
 20
2.4113493968
 11
12.3286863825
 21
2.4912273132
  0
LINE
  5
3C9
100
AcDbEntity
  8
0
100
AcDbLine
 62
7
  6
CONTINUOUS
 10
12.3286863825
 20
2.515977327
 11
12.3286863825
 21
2.5333023366
  0
LINE
  5
3CA
100
AcDbEntity
  8
0
100
AcDbLine
 62
7
  6
CONTINUOUS
 10
12.3286863825
 20
2.5499573458
 11
12.3286863825
 21
2.5672823554
  0
LINE
  5
3CB
100
AcDbEntity
  8
0
100
AcDbLine
 62
7
  6
CONTINUOUS
 10
12.3286863825
 20
2.5920323691
 11
12.3286863825
 21
2.6694072842
  0
LINE
  5
3CC
100
AcDbEntity
  8
0
100
AcDbLine
 62
7
  6
CONTINUOUS
 10
12.3086863715
 20
2.4159005505
 11
12.3086863715
 21
2.4912273132
  0
LINE
  5
3CD
100
AcDbEntity
  8
0
100
AcDbLine
 62
7
  6
CONTINUOUS
 10
12.3086863715
 20
2.515977327
 11
12.3086863715
 21
2.5333023366
  0
LINE
  5
3CE
100
AcDbEntity
  8
0
100
AcDbLine
 62
7
  6
CONTINUOUS
 10
12.3086863715
 20
2.5499573458
 11
12.3086863715
 21
2.5672823554
  0
LINE
  5
3CF
100
AcDbEntity
  8
0
100
AcDbLine
 62
7
  6
CONTINUOUS
 10
12.3086863715
 20
2.5920323691
 11
12.3086863715
 21
2.6648561305
  0
LINE
  5
3D0
100
AcDbEntity
  8
0
100
AcDbLine
 62
7
  6
CONTINUOUS
 10
12.2886863604
 20
2.4204517041
 11
12.2886863604
 21
2.4912273132
  0
LINE
  5
3D1
100
AcDbEntity
  8
0
100
AcDbLine
 62
7
  6
CONTINUOUS
 10
12.2886863604
 20
2.5920323691
 11
12.2886863604
 21
2.6603049769
  0
LINE
  5
3D2
100
AcDbEntity
  8
0
100
AcDbLine
 62
7
  6
CONTINUOUS
 10
12.2686863493
 20
2.4257438218
 11
12.2686863493
 21
2.4912273132
  0
LINE
  5
3D3
100
AcDbEntity
  8
0
100
AcDbLine
 62
7
  6
CONTINUOUS
 10
12.2686863493
 20
2.5920323691
 11
12.2686863493
 21
2.6550128592
  0
LINE
  5
3D4
100
AcDbEntity
  8
0
100
AcDbLine
 62
7
  6
CONTINUOUS
 10
12.2486863382
 20
2.4310978667
 11
12.2486863382
 21
2.4912273132
  0
LINE
  5
3D5
100
AcDbEntity
  8
0
100
AcDbLine
 62
7
  6
CONTINUOUS
 10
12.2486863382
 20
2.5920323691
 11
12.2486863382
 21
2.6496588142
  0
LINE
  5
3D6
100
AcDbEntity
  8
0
100
AcDbLine
 62
7
  6
CONTINUOUS
 10
12.2286863271
 20
2.4372566433
 11
12.2286863271
 21
2.4912273132
  0
LINE
  5
3D7
100
AcDbEntity
  8
0
100
AcDbLine
 62
7
  6
CONTINUOUS
 10
12.2286863271
 20
2.515977327
 11
12.2286863271
 21
2.5672823554
  0
LINE
  5
3D8
100
AcDbEntity
  8
0
100
AcDbLine
 62
7
  6
CONTINUOUS
 10
12.2286863271
 20
2.5920323691
 11
12.2286863271
 21
2.6435000377
  0
LINE
  5
3D9
100
AcDbEntity
  8
0
100
AcDbLine
 62
7
  6
CONTINUOUS
 10
12.208686316
 20
2.443589771
 11
12.208686316
 21
2.4912273132
  0
LINE
  5
3DA
100
AcDbEntity
  8
0
100
AcDbLine
 62
7
  6
CONTINUOUS
 10
12.208686316
 20
2.515977327
 11
12.208686316
 21
2.5672823554
  0
LINE
  5
3DB
100
AcDbEntity
  8
0
100
AcDbLine
 62
7
  6
CONTINUOUS
 10
12.208686316
 20
2.5920323691
 11
12.208686316
 21
2.63716691
  0
LINE
  5
3DC
100
AcDbEntity
  8
0
100
AcDbLine
 62
7
  6
CONTINUOUS
 10
12.1886863049
 20
2.4510806436
 11
12.1886863049
 21
2.6296760373
  0
LINE
  5
3DD
100
AcDbEntity
  8
0
100
AcDbLine
 62
7
  6
CONTINUOUS
 10
12.1686862938
 20
2.4591016523
 11
12.1686862938
 21
2.6216550287
  0
LINE
  5
3DE
100
AcDbEntity
  8
0
100
AcDbLine
 62
7
  6
CONTINUOUS
 10
12.1486862827
 20
2.468314272
 11
12.1486862827
 21
2.612442409
  0
LINE
  5
3DF
100
AcDbEntity
  8
0
100
AcDbLine
 62
7
  6
CONTINUOUS
 10
12.1286862716
 20
2.4794932339
 11
12.1286862716
 21
2.601263447
  0
LINE
  5
3E0
100
AcDbEntity
  8
0
100
AcDbLine
 62
7
  6
CONTINUOUS
 10
12.1086862605
 20
2.4934150665
 11
12.1086862605
 21
2.5873416144
  0
LINE
  5
3E1
100
AcDbEntity
  8
0
100
AcDbLine
 62
7
  6
CONTINUOUS
 10
12.0886862494
 20
2.5144449553
 11
12.0886862494
 21
2.5663117257
  0
ENDBLK
  5
3E2
100
AcDbEntity
  8
0
  6
BYBLOCK
 62
0
100
AcDbBlockEnd
  0
BLOCK
  5
3E3
100
AcDbEntity
  8
0
100
AcDbBlockBegin
  2
_FILLED
 70
64
 10
0.0
 20
0.0
  3
_FILLED
  1

  0
SOLID
  5
3E4
100
AcDbEntity
  8
0
  6
BYBLOCK
 62
0
100
AcDbTrace
 10
0.0
 20
0.0
 11
-1.0
 21
0.1666666667
 12
-1.0
 22
-0.1666666667
 13
-1.0
 23
-0.1666666667
  0
ENDBLK
  5
3E5
100
AcDbEntity
  8
0
  6
BYBLOCK
 62
0
100
AcDbBlockEnd
  0
BLOCK
  5
3E6
100
AcDbEntity
  8
SCHEME_DIMS
100
AcDbBlockBegin
 62
7
  6
CONTINUOUS
  2
*D0
 70
65
 10
0.0
 20
0.0
  3
*D0
  1

  0
MTEXT
  5
3E7
100
AcDbEntity
  8
SCHEME_DIMS
100
AcDbMText
 62
7
  6
CONTINUOUS
  7
TEXTSTYLE_5
 71
1
 72
1
 10
3.2056110921
 20
4.9484391358
 30
0.0
 11
1.0
 21
0.0
 31
0.0
 44
0.9
  1
{\Fgdt;n}\Ftxt;30.0\P[1.18]
 40
0.1
 41
0.6
  0
LINE
  5
3E8
100
AcDbEntity
  8
SCHEME_DIMS
100
AcDbLine
 62
7
  6
CONTINUOUS
 10
2.7953662681
 20
5.0944915804
 11
2.4216329218
 21
5.551737776
  0
LINE
  5
3E9
100
AcDbEntity
  8
SCHEME_DIMS
100
AcDbLine
 62
7
  6
CONTINUOUS
 10
2.4216329218
 20
5.551737776
 11
2.9556110921
 21
4.8984391358
  0
LINE
  5
3EA
100
AcDbEntity
  8
SCHEME_DIMS
100
AcDbLine
 62
7
  6
CONTINUOUS
 10
2.9556110921
 20
4.8984391358
 11
3.1056110921
 21
4.8984391358
  0
LINE
  5
3EB
100
AcDbEntity
  8
SCHEME_DIMS
100
AcDbLine
 62
7
  6
CONTINUOUS
 10
2.0478995756
 20
6.0089839716
 11
2.4216329218
 21
5.551737776
  0
INSERT
  5
3EC
100
AcDbEntity
  8
SCHEME_DIMS
100
AcDbBlockReference
 62
7
  6
CONTINUOUS
  2
_FILLED
 10
2.7953662681
 20
5.0944915804
 41
0.1875
 42
0.1875
 43
0.1875
 50
309.2610846088
  0
INSERT
  5
3ED
100
AcDbEntity
  8
SCHEME_DIMS
100
AcDbBlockReference
 62
7
  6
CONTINUOUS
  2
_FILLED
 10
2.0478995756
 20
6.0089839716
 41
0.1875
 42
0.1875
 43
0.1875
 50
129.2610846088
  0
ENDBLK
  5
3EE
100
AcDbEntity
  8
0
  6
BYBLOCK
 62
0
100
AcDbBlockEnd
  0
BLOCK
  5
3EF
100
AcDbEntity
  8
SCHEME_DIMS
100
AcDbBlockBegin
 62
7
  6
CONTINUOUS
  2
*D1
 70
65
 10
0.0
 20
0.0
  3
*D1
  1

  0
MTEXT
  5
3F0
100
AcDbEntity
  8
SCHEME_DIMS
100
AcDbMText
 62
7
  6
CONTINUOUS
  7
STANDARD
 71
2
 72
1
 10
5.5627301922
 20
7.0672889571
 30
0.0
 11
1.0
 21
0.0
 31
0.0
 44
0.9
  1
41.0\P[1.62]
 40
0.1
 41
0.6
  0
LINE
  5
3F1
100
AcDbEntity
  8
SCHEME_DIMS
100
AcDbLine
 62
7
  6
CONTINUOUS
 10
6.470604208
 20
5.8753702626
 11
6.470604208
 21
7.1422889571
  0
LINE
  5
3F2
100
AcDbEntity
  8
SCHEME_DIMS
100
AcDbLine
 62
7
  6
CONTINUOUS
 10
4.8548561765
 20
5.8652661528
 11
4.8548561765
 21
7.1422889571
  0
LINE
  5
3F3
100
AcDbEntity
  8
SCHEME_DIMS
100
AcDbLine
 62
7
  6
CONTINUOUS
 10
6.470604208
 20
7.0172889571
 11
6.0627301922
 21
7.0172889571
  0
LINE
  5
3F4
100
AcDbEntity
  8
SCHEME_DIMS
100
AcDbLine
 62
7
  6
CONTINUOUS
 10
4.8548561765
 20
7.0172889571
 11
5.2627301922
 21
7.0172889571
  0
INSERT
  5
3F5
100
AcDbEntity
  8
SCHEME_DIMS
100
AcDbBlockReference
 62
7
  6
CONTINUOUS
  2
_FILLED
 10
6.470604208
 20
7.0172889571
 41
0.1875
 42
0.1875
 43
0.1875
  0
INSERT
  5
3F6
100
AcDbEntity
  8
SCHEME_DIMS
100
AcDbBlockReference
 62
7
  6
CONTINUOUS
  2
_FILLED
 10
4.8548561765
 20
7.0172889571
 41
0.1875
 42
0.1875
 43
0.1875
 50
180.0
  0
ENDBLK
  5
3F7
100
AcDbEntity
  8
0
  6
BYBLOCK
 62
0
100
AcDbBlockEnd
  0
BLOCK
  5
3F8
100
AcDbEntity
  8
SCHEME_DIMS
100
AcDbBlockBegin
 62
7
  6
CONTINUOUS
  2
*D2
 70
65
 10
0.0
 20
0.0
  3
*D2
  1

  0
MTEXT
  5
3F9
100
AcDbEntity
  8
SCHEME_DIMS
100
AcDbMText
 62
7
  6
CONTINUOUS
  7
STANDARD
 71
2
 72
1
 10
5.2674546017
 20
6.6922889571
 30
0.0
 11
1.0
 21
0.0
 31
0.0
 44
0.9
  1
23.5\P[.93]
 40
0.1
 41
0.5
  0
LINE
  5
3FA
100
AcDbEntity
  8
SCHEME_DIMS
100
AcDbLine
 62
7
  6
CONTINUOUS
 10
5.7800530269
 20
6.1654188783
 11
5.7800530269
 21
6.7672889571
  0
LINE
  5
3FB
100
AcDbEntity
  8
SCHEME_DIMS
100
AcDbLine
 62
7
  6
CONTINUOUS
 10
4.8548561765
 20
5.8766612329
 11
4.8548561765
 21
6.7672889571
  0
LINE
  5
3FC
100
AcDbEntity
  8
SCHEME_DIMS
100
AcDbLine
 62
7
  6
CONTINUOUS
 10
5.7800530269
 20
6.6422889571
 11
6.1800530269
 21
6.6422889571
  0
LINE
  5
3FD
100
AcDbEntity
  8
SCHEME_DIMS
100
AcDbLine
 62
7
  6
CONTINUOUS
 10
4.8548561765
 20
6.6422889571
 11
4.4548561765
 21
6.6422889571
  0
INSERT
  5
3FE
100
AcDbEntity
  8
SCHEME_DIMS
100
AcDbBlockReference
 62
7
  6
CONTINUOUS
  2
_FILLED
 10
5.7800530269
 20
6.6422889571
 41
0.1875
 42
0.1875
 43
0.1875
 50
180.0
  0
INSERT
  5
3FF
100
AcDbEntity
  8
SCHEME_DIMS
100
AcDbBlockReference
 62
7
  6
CONTINUOUS
  2
_FILLED
 10
4.8548561765
 20
6.6422889571
 41
0.1875
 42
0.1875
 43
0.1875
  0
ENDBLK
  5
400
100
AcDbEntity
  8
0
  6
BYBLOCK
 62
0
100
AcDbBlockEnd
  0
BLOCK
  5
401
100
AcDbEntity
  8
0
100
AcDbBlockBegin
  2
*T1
 70
1
 10
0.0
 20
0.0
  3
*T1
  1

  0
LINE
  5
402
100
AcDbEntity
  8
0
100
AcDbLine
 62
7
  6
CONTINUOUS
 10
4.35
 20
0.0
 11
0.0
 21
0.0
  0
LINE
  5
403
100
AcDbEntity
  8
0
100
AcDbLine
 62
7
  6
CONTINUOUS
 10
4.35
 20
0.0
 11
4.35
 21
1.92
  0
LINE
  5
404
100
AcDbEntity
  8
0
100
AcDbLine
 62
7
  6
CONTINUOUS
 10
4.35
 20
1.92
 11
0.0
 21
1.92
  0
LINE
  5
405
100
AcDbEntity
  8
0
100
AcDbLine
 62
7
  6
CONTINUOUS
 10
0.0
 20
0.0
 11
0.0
 21
1.92
  0
MTEXT
  5
406
100
AcDbEntity
  8
NOTES
100
AcDbMText
 62
7
  6
CONTINUOUS
  7
STANDARD
 71
2
 72
1
 10
4.125
 20
0.48
 30
0.0
 11
1.0
 21
0.0
 31
0.0
 44
0.9
  1
A
 40
0.1
 41
0.2
  0
MTEXT
  5
407
100
AcDbEntity
  8
NOTES
100
AcDbMText
 62
7
  6
CONTINUOUS
  7
STANDARD
 71
2
 72
1
 10
2.175
 20
0.93
 30
0.0
 11
1.0
 21
0.0
 31
0.0
 44
0.9
  1
K30C CABLE
 40
0.1
 41
2.0
  0
ENDBLK
  5
408
100
AcDbEntity
  8
0
  6
BYBLOCK
 62
0
100
AcDbBlockEnd
  0
ENDSEC
  0
SECTION
  2
ENTITIES
  0
MTEXT
  5
409
100
AcDbEntity
  8
0
100
AcDbMText
 62
7
  6
CONTINUOUS
  7
TEXTSTYLE_2
 71
2
 72
1
 10
11.0287658475
 20
1.794867839
 30
0.0
 11
1.0
 21
0.0
 31
0.0
 44
0.9
  1
THIRD ANGLE PROJECTION
 40
0.1
 41
1.76
  0
MTEXT
  5
40A
100
AcDbEntity
  8
0
100
AcDbMText
 62
7
  6
CONTINUOUS
  7
STANDARD
 71
1
 72
1
 10
12.88
 20
1.457
 30
0.0
 11
1.0
 21
0.0
 31
0.0
 44
0.9
  1
DRAWING NO.
 40
0.08
 41
0.88
  0
MTEXT
  5
40B
100
AcDbEntity
  8
0
100
AcDbMText
 62
7
  6
CONTINUOUS
  7
TEXTSTYLE_3
 71
2
 72
1
 10
11.03
 20
2.516432
 30
0.0
 11
1.0
 21
0.0
 31
0.0
 44
0.9
  1
and is proprietary in general
 40
0.08
 41
1.972
  0
MTEXT
  5
40C
100
AcDbEntity
  8
0
100
AcDbMText
 62
7
  6
CONTINUOUS
  7
TEXTSTYLE_3
 71
2
 72
1
 10
11.03
 20
2.396432
 30
0.0
 11
1.0
 21
0.0
 31
0.0
 44
0.9
  1
and in detail.  Its contents
 40
0.08
 41
1.904
  0
MTEXT
  5
40D
100
AcDbEntity
  8
0
100
AcDbMText
 62
7
  6
CONTINUOUS
  7
TEXTSTYLE_3
 71
2
 72
1
 10
11.03
 20
2.276432
 30
0.0
 11
1.0
 21
0.0
 31
0.0
 44
0.9
  1
shall not be revealed to
 40
0.08
 41
1.632
  0
MTEXT
  5
40E
100
AcDbEntity
  8
0
100
AcDbMText
 62
7
  6
CONTINUOUS
  7
TEXTSTYLE_3
 71
2
 72
1
 10
11.03
 20
2.156432
 30
0.0
 11
1.0
 21
0.0
 31
0.0
 44
0.9
  1
outside parties without
 40
0.08
 41
1.564
  0
MTEXT
  5
40F
100
AcDbEntity
  8
0
100
AcDbMText
 62
7
  6
CONTINUOUS
  7
TEXTSTYLE_3
 71
2
 72
1
 10
11.03
 20
2.036432
 30
0.0
 11
1.0
 21
0.0
 31
0.0
 44
0.9
  1
written consent of BANNER.
 40
0.08
 41
1.768
  0
MTEXT
  5
410
100
AcDbEntity
  8
0
100
AcDbMText
 62
7
  6
CONTINUOUS
  7
TEXTSTYLE_2
 71
1
 72
1
 10
12.08
 20
2.217
 30
0.0
 11
1.0
 21
0.0
 31
0.0
 44
0.9
  1
TITLE
 40
0.1
 41
0.4
  0
MTEXT
  5
411
100
AcDbEntity
  8
0
100
AcDbMText
 62
7
  6
CONTINUOUS
  7
STANDARD
 71
1
 72
1
 10
12.08
 20
1.457
 30
0.0
 11
1.0
 21
0.0
 31
0.0
 44
0.9
  1
SIZE
 40
0.08
 41
0.32
  0
MTEXT
  5
412
100
AcDbEntity
  8
0
100
AcDbMText
 62
7
  6
CONTINUOUS
  7
STANDARD
 71
1
 72
1
 10
12.08
 20
1.087
 30
0.0
 11
1.0
 21
0.0
 31
0.0
 44
0.9
  1
SCALE
 40
0.08
 41
0.4
  0
MTEXT
  5
413
100
AcDbEntity
  8
0
100
AcDbMText
 62
7
  6
CONTINUOUS
  7
TEXTSTYLE_2
 71
2
 72
1
 10
12.5
 20
1.337
 30
0.0
 11
1.0
 21
0.0
 31
0.0
 44
0.9
  1
B
 40
0.1
 41
0.08
  0
MTEXT
  5
414
100
AcDbEntity
  8
0
100
AcDbMText
 62
7
  6
CONTINUOUS
  7
TEXTSTYLE_3
 71
2
 72
1
 10
11.03
 20
2.636432
 30
0.0
 11
1.0
 21
0.0
 31
0.0
 44
0.9
  1
of BANNER ENGINEERING CORP.
 40
0.08
 41
1.836
  0
MTEXT
  5
415
100
AcDbEntity
  8
0
100
AcDbMText
 62
7
  6
CONTINUOUS
  7
TEXTSTYLE_3
 71
2
 72
1
 10
11.03
 20
2.756432
 30
0.0
 11
1.0
 21
0.0
 31
0.0
 44
0.9
  1
This drawing is the property
 40
0.08
 41
1.904
  0
MTEXT
  5
416
100
AcDbEntity
  8
0
100
AcDbMText
 62
7
  6
CONTINUOUS
  7
TEXTSTYLE_2
 71
2
 72
1
 10
15.03
 20
2.4134
 30
0.0
 11
1.0
 21
0.0
 31
0.0
 44
0.9
  1
MINNEAPOLIS, MN 55440
 40
0.1
 41
1.68
  0
MTEXT
  5
417
100
AcDbEntity
  8
0
100
AcDbMText
 62
7
  6
CONTINUOUS
  7
STANDARD
 71
1
 72
1
 10
14.255
 20
1.087
 30
0.0
 11
1.0
 21
0.0
 31
0.0
 44
0.9
  1
SHEET
 40
0.08
 41
0.4
  0
MTEXT
  5
418
100
AcDbEntity
  8
0
100
AcDbMText
 62
7
  6
CONTINUOUS
  7
STANDARD
 71
1
 72
1
 10
15.63
 20
1.457
 30
0.0
 11
1.0
 21
0.0
 31
0.0
 44
0.9
  1
REV.
 40
0.08
 41
0.32
  0
MTEXT
  5
419
100
AcDbEntity
  8
0
100
AcDbMText
 62
7
  6
CONTINUOUS
  7
STANDARD
 71
3
 72
1
 10
16.38
 20
0.835443
 30
0.0
 11
1.0
 21
0.0
 31
0.0
 44
0.9
  1
PRO/E
 40
0.07
 41
0.35
  0
MTEXT
  5
41A
100
AcDbEntity
  8
0
100
AcDbMText
 62
7
  6
CONTINUOUS
  7
TEXTSTYLE_4
 71
2
 72
1
 10
15.03
 20
2.751049
 30
0.0
 11
1.0
 21
0.0
 31
0.0
 44
0.9
  1
BANNER ENGINEERING CORP.
 40
0.12
 41
2.6496
  0
MTEXT
  5
41B
100
AcDbEntity
  8
0
100
AcDbMText
 62
7
  6
CONTINUOUS
  7
TEXTSTYLE_2
 71
2
 72
1
 10
15.03
 20
2.5724
 30
0.0
 11
1.0
 21
0.0
 31
0.0
 44
0.9
  1
P.O. BOX 9414
 40
0.1
 41
1.04
  0
MTEXT
  5
41C
100
AcDbEntity
  8
0
100
AcDbMText
 62
7
  6
CONTINUOUS
  7
TEXTSTYLE_2
 71
2
 72
1
 10
9.485
 20
10.312
 30
0.0
 11
1.0
 21
0.0
 31
0.0
 44
0.9
  1
4
 40
0.1
 41
0.08
  0
MTEXT
  5
41D
100
AcDbEntity
  8
0
100
AcDbMText
 62
7
  6
CONTINUOUS
  7
TEXTSTYLE_2
 71
2
 72
1
 10
11.455
 20
10.312
 30
0.0
 11
1.0
 21
0.0
 31
0.0
 44
0.9
  1
3
 40
0.1
 41
0.08
  0
MTEXT
  5
41E
100
AcDbEntity
  8
0
100
AcDbMText
 62
7
  6
CONTINUOUS
  7
TEXTSTYLE_2
 71
2
 72
1
 10
13.425
 20
10.312
 30
0.0
 11
1.0
 21
0.0
 31
0.0
 44
0.9
  1
2
 40
0.1
 41
0.08
  0
MTEXT
  5
41F
100
AcDbEntity
  8
0
100
AcDbMText
 62
7
  6
CONTINUOUS
  7
TEXTSTYLE_2
 71
2
 72
1
 10
15.395
 20
10.312
 30
0.0
 11
1.0
 21
0.0
 31
0.0
 44
0.9
  1
1
 40
0.1
 41
0.08
  0
MTEXT
  5
420
100
AcDbEntity
  8
0
100
AcDbMText
 62
7
  6
CONTINUOUS
  7
TEXTSTYLE_2
 71
2
 72
1
 10
3.575
 20
10.312
 30
0.0
 11
1.0
 21
0.0
 31
0.0
 44
0.9
  1
7
 40
0.1
 41
0.08
  0
MTEXT
  5
421
100
AcDbEntity
  8
0
100
AcDbMText
 62
7
  6
CONTINUOUS
  7
TEXTSTYLE_2
 71
2
 72
1
 10
5.545
 20
10.312
 30
0.0
 11
1.0
 21
0.0
 31
0.0
 44
0.9
  1
6
 40
0.1
 41
0.08
  0
MTEXT
  5
422
100
AcDbEntity
  8
0
100
AcDbMText
 62
7
  6
CONTINUOUS
  7
TEXTSTYLE_2
 71
2
 72
1
 10
7.515
 20
10.312
 30
0.0
 11
1.0
 21
0.0
 31
0.0
 44
0.9
  1
5
 40
0.1
 41
0.08
  0
MTEXT
  5
423
100
AcDbEntity
  8
0
100
AcDbMText
 62
7
  6
CONTINUOUS
  7
TEXTSTYLE_2
 71
2
 72
1
 10
1.605
 20
10.312
 30
0.0
 11
1.0
 21
0.0
 31
0.0
 44
0.9
  1
8
 40
0.1
 41
0.08
  0
MTEXT
  5
424
100
AcDbEntity
  8
0
100
AcDbMText
 62
7
  6
CONTINUOUS
  7
TEXTSTYLE_2
 71
2
 72
1
 10
1.605
 20
0.787
 30
0.0
 11
1.0
 21
0.0
 31
0.0
 44
0.9
  1
8
 40
0.1
 41
0.08
  0
MTEXT
  5
425
100
AcDbEntity
  8
0
100
AcDbMText
 62
7
  6
CONTINUOUS
  7
TEXTSTYLE_2
 71
2
 72
1
 10
3.575
 20
0.787
 30
0.0
 11
1.0
 21
0.0
 31
0.0
 44
0.9
  1
7
 40
0.1
 41
0.08
  0
MTEXT
  5
426
100
AcDbEntity
  8
0
100
AcDbMText
 62
7
  6
CONTINUOUS
  7
TEXTSTYLE_2
 71
2
 72
1
 10
5.545
 20
0.787
 30
0.0
 11
1.0
 21
0.0
 31
0.0
 44
0.9
  1
6
 40
0.1
 41
0.08
  0
MTEXT
  5
427
100
AcDbEntity
  8
0
100
AcDbMText
 62
7
  6
CONTINUOUS
  7
TEXTSTYLE_2
 71
2
 72
1
 10
7.515
 20
0.787
 30
0.0
 11
1.0
 21
0.0
 31
0.0
 44
0.9
  1
5
 40
0.1
 41
0.08
  0
MTEXT
  5
428
100
AcDbEntity
  8
0
100
AcDbMText
 62
7
  6
CONTINUOUS
  7
TEXTSTYLE_2
 71
2
 72
1
 10
9.485
 20
0.787
 30
0.0
 11
1.0
 21
0.0
 31
0.0
 44
0.9
  1
4
 40
0.1
 41
0.08
  0
MTEXT
  5
429
100
AcDbEntity
  8
0
100
AcDbMText
 62
7
  6
CONTINUOUS
  7
TEXTSTYLE_2
 71
2
 72
1
 10
11.455
 20
0.787
 30
0.0
 11
1.0
 21
0.0
 31
0.0
 44
0.9
  1
3
 40
0.1
 41
0.08
  0
MTEXT
  5
42A
100
AcDbEntity
  8
0
100
AcDbMText
 62
7
  6
CONTINUOUS
  7
TEXTSTYLE_2
 71
2
 72
1
 10
13.425
 20
0.787
 30
0.0
 11
1.0
 21
0.0
 31
0.0
 44
0.9
  1
2
 40
0.1
 41
0.08
  0
MTEXT
  5
42B
100
AcDbEntity
  8
0
100
AcDbMText
 62
7
  6
CONTINUOUS
  7
TEXTSTYLE_2
 71
2
 72
1
 10
15.395
 20
0.787
 30
0.0
 11
1.0
 21
0.0
 31
0.0
 44
0.9
  1
1
 40
0.1
 41
0.08
  0
MTEXT
  5
42C
100
AcDbEntity
  8
0
100
AcDbMText
 62
7
  6
CONTINUOUS
  7
TEXTSTYLE_2
 71
3
 72
1
 10
0.52
 20
4.3995
 30
0.0
 11
1.0
 21
0.0
 31
0.0
 44
0.9
  1
B
 40
0.1
 41
0.08
  0
MTEXT
  5
42D
100
AcDbEntity
  8
0
100
AcDbMText
 62
7
  6
CONTINUOUS
  7
TEXTSTYLE_2
 71
3
 72
1
 10
0.52
 20
2.0995
 30
0.0
 11
1.0
 21
0.0
 31
0.0
 44
0.9
  1
A
 40
0.1
 41
0.08
  0
MTEXT
  5
42E
100
AcDbEntity
  8
0
100
AcDbMText
 62
7
  6
CONTINUOUS
  7
TEXTSTYLE_2
 71
3
 72
1
 10
0.52
 20
8.9995
 30
0.0
 11
1.0
 21
0.0
 31
0.0
 44
0.9
  1
D
 40
0.1
 41
0.08
  0
MTEXT
  5
42F
100
AcDbEntity
  8
0
100
AcDbMText
 62
7
  6
CONTINUOUS
  7
TEXTSTYLE_2
 71
3
 72
1
 10
0.52
 20
6.6995
 30
0.0
 11
1.0
 21
0.0
 31
0.0
 44
0.9
  1
C
 40
0.1
 41
0.08
  0
MTEXT
  5
430
100
AcDbEntity
  8
0
100
AcDbMText
 62
7
  6
CONTINUOUS
  7
TEXTSTYLE_2
 71
1
 72
1
 10
16.48
 20
8.9995
 30
0.0
 11
1.0
 21
0.0
 31
0.0
 44
0.9
  1
D
 40
0.1
 41
0.08
  0
MTEXT
  5
431
100
AcDbEntity
  8
0
100
AcDbMText
 62
7
  6
CONTINUOUS
  7
TEXTSTYLE_2
 71
1
 72
1
 10
16.48
 20
6.6995
 30
0.0
 11
1.0
 21
0.0
 31
0.0
 44
0.9
  1
C
 40
0.1
 41
0.08
  0
MTEXT
  5
432
100
AcDbEntity
  8
0
100
AcDbMText
 62
7
  6
CONTINUOUS
  7
TEXTSTYLE_2
 71
1
 72
1
 10
16.48
 20
4.3995
 30
0.0
 11
1.0
 21
0.0
 31
0.0
 44
0.9
  1
B
 40
0.1
 41
0.08
  0
MTEXT
  5
433
100
AcDbEntity
  8
0
100
AcDbMText
 62
7
  6
CONTINUOUS
  7
TEXTSTYLE_2
 71
1
 72
1
 10
16.48
 20
2.0995
 30
0.0
 11
1.0
 21
0.0
 31
0.0
 44
0.9
  1
A
 40
0.1
 41
0.08
  0
MTEXT
  5
434
100
AcDbEntity
  8
0
100
AcDbMText
 62
7
  6
CONTINUOUS
  7
STANDARD
 71
1
 72
1
 10
14.819264911
 20
1.0627941725
 30
0.0
 11
1.0
 21
0.0
 31
0.0
 44
0.9
  1
1 OF 1
 40
0.1
 41
0.6
  0
MTEXT
  5
435
100
AcDbEntity
  8
0
100
AcDbMText
 62
7
  6
CONTINUOUS
  7
STANDARD
 71
1
 72
1
 10
13.8911999818
 20
1.3747321586
 30
0.0
 11
1.0
 21
0.0
 31
0.0
 44
0.9
  1
171612
 40
0.12
 41
0.72
  0
MTEXT
  5
436
100
AcDbEntity
  8
0
100
AcDbMText
 62
7
  6
CONTINUOUS
  7
STANDARD
 71
1
 72
1
 10
12.644264911
 20
1.0627941725
 30
0.0
 11
1.0
 21
0.0
 31
0.0
 44
0.9
  1
1:1
 40
0.1
 41
0.3
  0
MTEXT
  5
437
100
AcDbEntity
  8
0
100
AcDbMText
 62
7
  6
CONTINUOUS
  7
STANDARD
 71
1
 72
1
 10
1.0597007627
 20
1.6202922458
 30
0.0
 11
1.0
 21
0.0
 31
0.0
 44
0.9
  1
NOTES:\P1. ALL DIMENSIONS ARE MILLIMETERS [INCHES] UNLESS OTHERWISE NOTED.
 40
0.1
 41
6.6
  0
INSERT
  5
438
100
AcDbEntity
  8
0
100
AcDbBlockReference
 62
7
  6
CONTINUOUS
  2
SYMBOL_0_BL0
 10
12.9086867042
 20
2.5403783405
  0
DIMENSION
  5
439
100
AcDbEntity
  8
SCHEME_DIMS
100
AcDbDimension
 62
7
  6
CONTINUOUS
  2
*D0
 10
2.7953662681
 20
5.0944915804
 11
3.5722777588
 21
4.8234391358
 70
163
 71
1
 42
30.0
  1
<>
  3
DIMSTYLE_1
100
AcDbDiametricDimension
 15
2.0478995756
 25
6.0089839716
  0
DIMENSION
  5
43A
100
AcDbEntity
  8
SCHEME_DIMS
100
AcDbDimension
 62
7
  6
CONTINUOUS
  2
*D1
 10
4.8548561765
 20
7.0172889571
 11
5.6627301922
 21
6.9422889571
 70
160
 71
2
 42
41.04
  3
DIMSTYLE_2
100
AcDbAlignedDimension
 13
6.470604208
 23
5.8128702626
 14
4.8548561765
 24
5.8027661528
 50
180.0
100
AcDbRotatedDimension
  0
DIMENSION
  5
43B
100
AcDbEntity
  8
SCHEME_DIMS
100
AcDbDimension
 62
7
  6
CONTINUOUS
  2
*D2
 10
4.8548561765
 20
6.6422889571
 11
5.3174546017
 21
6.5672889571
 70
160
 71
2
 42
23.5
  3
DIMSTYLE_2
100
AcDbAlignedDimension
 13
5.7800530269
 23
6.1029188783
 14
4.8548561765
 24
5.8141612329
 50
180.0
100
AcDbRotatedDimension
  0
ACAD_TABLE
  5
43C
100
AcDbEntity
  8
0
 62
7
  6
CONTINUOUS
100
AcDbBlockReference
  2
*T1
 10
12.03
 20
0.887
 30
0.0
100
AcDbTable
342
       616
343
21C
 11
1.0
 21
0.0
 31
0.0
 90
6
 91
3
 92
5
 93
4
 94
0
 95
0
 96
0
 70
1
141
0.33
141
0.45
141
1.14
142
0.65
142
1.15
142
1.025
142
1.075
142
0.45
171
1
172
0
173
0
174
0
175
1
176
1
177
1
178
0
145
0.0
170
1
171
1
172
0
173
0
174
0
175
1
176
1
177
1
178
0
145
0.0
170
1
171
1
172
0
173
0
174
0
175
1
176
1
177
1
178
0
145
0.0
170
1
171
1
172
0
173
0
174
0
175
1
176
1
177
1
178
0
145
0.0
170
1
171
1
172
0
173
0
174
0
175
1
176
1
177
1
178
0
145
0.0
170
1
171
1
172
0
173
0
174
0
175
1
176
1
177
1
178
0
145
0.0
170
1
171
1
172
0
173
0
174
0
175
1
176
1
177
1
178
0
145
0.0
170
1
171
1
172
0
173
0
174
0
175
1
176
1
177
1
178
0
145
0.0
170
1
171
1
172
0
173
0
174
0
175
1
176
1
177
1
178
0
145
0.0
170
1
171
1
172
0
173
0
174
0
175
1
176
1
177
41
178
0
145
0.0
  1
A
170
8
140
0.1
 64
7
171
1
172
0
173
0
174
0
175
5
176
1
177
33
178
0
145
0.0
  1
K30C CABLE
170
8
140
0.1
171
1
172
0
173
1
174
0
175
1
176
1
177
1
178
0
145
0.0
170
1
171
1
172
0
173
1
174
0
175
1
176
1
177
1
178
0
145
0.0
170
1
171
1
172
0
173
1
174
0
175
1
176
1
177
1
178
0
145
0.0
170
1
171
1
172
0
173
1
174
0
175
1
176
1
177
1
178
0
145
0.0
170
8
  0
LEADER
  5
43D
100
AcDbEntity
  8
NOTES
100
AcDbLeader
 62
7
  6
CONTINUOUS
  3
STANDARD
 71
1
 72
0
 73
0
 75
0
 40
0.1
 41
0.9
 76
3
 10
6.1385613732
 20
5.1974070674
 30
0.0
 10
6.6067935228
 20
4.4797731405
 30
0.0
 10
6.8567935228
 20
4.4797731405
 30
0.0
340
43E
1001
ACAD
1000
DSTYLE
1002
{
1070
77
1070
0
1002
}
  0
MTEXT
  5
43E
102
{ACAD_REACTORS
330
43D
102
}
100
AcDbEntity
  8
NOTES
100
AcDbMText
 62
7
  6
CONTINUOUS
  7
STANDARD
 71
1
 72
1
 10
6.8567935228
 20
4.5297731405
 30
0.0
 11
1.0
 21
0.0
 31
0.0
 44
0.9
  1
M22 X 1.5
 40
0.1
 41
0.9
  0
MTEXT
  5
43F
100
AcDbEntity
  8
NOTES
100
AcDbMText
 62
7
  6
CONTINUOUS
  7
STANDARD
 71
2
 72
1
 10
14.5587555613
 20
5.863172676
 30
0.0
 11
1.0
 21
0.0
 31
0.0
 44
0.9
  1
ISOMETRIC VIEW\P\H0.1;SCALE  1:1
 40
0.125
 41
1.75
  0
LINE
  5
440
100
AcDbEntity
  8
0
100
AcDbLine
 62
7
  6
CONTINUOUS
 10
0.47
 20
5.586103
 11
0.47
 21
5.412897
  0
LINE
  5
441
100
AcDbEntity
  8
0
100
AcDbLine
 62
7
  6
CONTINUOUS
 10
0.62
 20
10.112
 11
0.62
 21
0.887
  0
LINE
  5
442
100
AcDbEntity
  8
0
100
AcDbLine
 62
7
  6
CONTINUOUS
 10
2.59
 20
0.887
 11
2.59
 21
0.637
  0
LINE
  5
443
100
AcDbEntity
  8
0
100
AcDbLine
 62
7
  6
CONTINUOUS
 10
2.59
 20
10.112
 11
2.59
 21
10.362
  0
LINE
  5
444
100
AcDbEntity
  8
0
100
AcDbLine
 62
7
  6
CONTINUOUS
 10
8.413397
 20
0.737
 11
8.586603
 21
0.737
  0
LINE
  5
445
100
AcDbEntity
  8
0
100
AcDbLine
 62
7
  6
CONTINUOUS
 10
11.1389508475
 20
1.425992839
 11
11.7453418475
 21
1.495385839
  0
LINE
  5
446
100
AcDbEntity
  8
0
100
AcDbLine
 62
7
  6
CONTINUOUS
 10
0.62
 20
0.887
 11
16.38
 21
0.887
  0
LINE
  5
447
100
AcDbEntity
  8
0
100
AcDbLine
 62
7
  6
CONTINUOUS
 10
12.03
 20
1.137
 11
16.38
 21
1.137
  0
LINE
  5
448
100
AcDbEntity
  8
0
100
AcDbLine
 62
7
  6
CONTINUOUS
 10
10.2121898475
 20
1.243294839
 11
10.4342808475
 21
1.243294839
  0
LINE
  5
449
100
AcDbEntity
  8
0
100
AcDbLine
 62
7
  6
CONTINUOUS
 10
10.4842808475
 20
1.243294839
 11
10.5842808475
 21
1.243294839
  0
LINE
  5
44A
100
AcDbEntity
  8
0
100
AcDbLine
 62
7
  6
CONTINUOUS
 10
10.6342808475
 20
1.243294839
 11
10.8563718475
 21
1.243294839
  0
LINE
  5
44B
100
AcDbEntity
  8
0
100
AcDbLine
 62
7
  6
CONTINUOUS
 10
11.0389508475
 20
1.243294839
 11
11.3171028475
 21
1.243294839
  0
LINE
  5
44C
100
AcDbEntity
  8
0
100
AcDbLine
 62
7
  6
CONTINUOUS
 10
11.3671028475
 20
1.243294839
 11
11.5171888475
 21
1.243294839
  0
LINE
  5
44D
100
AcDbEntity
  8
0
100
AcDbLine
 62
7
  6
CONTINUOUS
 10
11.5671888475
 20
1.243294839
 11
11.8453418475
 21
1.243294839
  0
LINE
  5
44E
100
AcDbEntity
  8
0
100
AcDbLine
 62
7
  6
CONTINUOUS
 10
11.7453418475
 20
0.991203839
 11
11.1389508475
 21
1.060596839
  0
LINE
  5
44F
100
AcDbEntity
  8
0
100
AcDbLine
 62
7
  6
CONTINUOUS
 10
4.56
 20
0.887
 11
4.56
 21
0.637
  0
LINE
  5
450
100
AcDbEntity
  8
0
100
AcDbLine
 62
7
  6
CONTINUOUS
 10
4.56
 20
10.112
 11
4.56
 21
10.362
  0
LINE
  5
451
100
AcDbEntity
  8
0
100
AcDbLine
 62
7
  6
CONTINUOUS
 10
0.47
 20
5.412897
 11
0.62
 21
5.4995
  0
LINE
  5
452
100
AcDbEntity
  8
0
100
AcDbLine
 62
7
  6
CONTINUOUS
 10
12.03
 20
1.507
 11
16.38
 21
1.507
  0
LINE
  5
453
100
AcDbEntity
  8
0
100
AcDbLine
 62
7
  6
CONTINUOUS
 10
10.03
 20
1.907
 11
12.03
 21
1.907
  0
LINE
  5
454
100
AcDbEntity
  8
0
100
AcDbLine
 62
7
  6
CONTINUOUS
 10
0.62
 20
5.4995
 11
0.47
 21
5.586103
  0
LINE
  5
455
100
AcDbEntity
  8
0
100
AcDbLine
 62
7
  6
CONTINUOUS
 10
12.03
 20
2.267
 11
16.38
 21
2.267
  0
LINE
  5
456
100
AcDbEntity
  8
0
100
AcDbLine
 62
7
  6
CONTINUOUS
 10
8.5
 20
10.112
 11
8.586603
 21
10.262
  0
LINE
  5
457
100
AcDbEntity
  8
0
100
AcDbLine
 62
7
  6
CONTINUOUS
 10
16.38
 20
2.807
 11
10.03
 21
2.807
  0
LINE
  5
458
100
AcDbEntity
  8
0
100
AcDbLine
 62
7
  6
CONTINUOUS
 10
0.62
 20
3.1995
 11
0.37
 21
3.1995
  0
LINE
  5
459
100
AcDbEntity
  8
0
100
AcDbLine
 62
7
  6
CONTINUOUS
 10
16.38
 20
3.1995
 11
16.63
 21
3.1995
  0
LINE
  5
45A
100
AcDbEntity
  8
0
100
AcDbLine
 62
7
  6
CONTINUOUS
 10
8.586603
 20
0.737
 11
8.5
 21
0.887
  0
LINE
  5
45B
100
AcDbEntity
  8
0
100
AcDbLine
 62
7
  6
CONTINUOUS
 10
6.53
 20
0.887
 11
6.53
 21
0.637
  0
LINE
  5
45C
100
AcDbEntity
  8
0
100
AcDbLine
 62
7
  6
CONTINUOUS
 10
6.53
 20
10.112
 11
6.53
 21
10.362
  0
LINE
  5
45D
100
AcDbEntity
  8
0
100
AcDbLine
 62
7
  6
CONTINUOUS
 10
8.5
 20
0.887
 11
8.5
 21
0.637
  0
LINE
  5
45E
100
AcDbEntity
  8
0
100
AcDbLine
 62
7
  6
CONTINUOUS
 10
8.5
 20
10.112
 11
8.5
 21
10.362
  0
LINE
  5
45F
100
AcDbEntity
  8
0
100
AcDbLine
 62
7
  6
CONTINUOUS
 10
0.62
 20
5.4995
 11
0.37
 21
5.4995
  0
LINE
  5
460
100
AcDbEntity
  8
0
100
AcDbLine
 62
7
  6
CONTINUOUS
 10
16.38
 20
5.4995
 11
16.63
 21
5.4995
  0
LINE
  5
461
100
AcDbEntity
  8
0
100
AcDbLine
 62
7
  6
CONTINUOUS
 10
10.03
 20
2.807
 11
10.03
 21
0.887
  0
LINE
  5
462
100
AcDbEntity
  8
0
100
AcDbLine
 62
7
  6
CONTINUOUS
 10
10.47
 20
0.887
 11
10.47
 21
0.637
  0
LINE
  5
463
100
AcDbEntity
  8
0
100
AcDbLine
 62
7
  6
CONTINUOUS
 10
10.47
 20
10.112
 11
10.47
 21
10.362
  0
LINE
  5
464
100
AcDbEntity
  8
0
100
AcDbLine
 62
7
  6
CONTINUOUS
 10
10.5342808475
 20
1.143294839
 11
10.5342808475
 21
0.921203839
  0
LINE
  5
465
100
AcDbEntity
  8
0
100
AcDbLine
 62
7
  6
CONTINUOUS
 10
10.5342808475
 20
1.193294839
 11
10.5342808475
 21
1.293294839
  0
LINE
  5
466
100
AcDbEntity
  8
0
100
AcDbLine
 62
7
  6
CONTINUOUS
 10
10.5342808475
 20
1.343294839
 11
10.5342808475
 21
1.565385839
  0
LINE
  5
467
100
AcDbEntity
  8
0
100
AcDbLine
 62
7
  6
CONTINUOUS
 10
8.5
 20
0.887
 11
8.413397
 21
0.737
  0
LINE
  5
468
100
AcDbEntity
  8
0
100
AcDbLine
 62
7
  6
CONTINUOUS
 10
0.62
 20
7.7995
 11
0.37
 21
7.7995
  0
LINE
  5
469
100
AcDbEntity
  8
0
100
AcDbLine
 62
7
  6
CONTINUOUS
 10
16.38
 20
7.7995
 11
16.63
 21
7.7995
  0
LINE
  5
46A
100
AcDbEntity
  8
0
100
AcDbLine
 62
7
  6
CONTINUOUS
 10
8.413397
 20
10.262
 11
8.5
 21
10.112
  0
LINE
  5
46B
100
AcDbEntity
  8
0
100
AcDbLine
 62
7
  6
CONTINUOUS
 10
11.1389508475
 20
1.060596839
 11
11.1389508475
 21
1.425992839
  0
LINE
  5
46C
100
AcDbEntity
  8
0
100
AcDbLine
 62
7
  6
CONTINUOUS
 10
11.7453418475
 20
1.495385839
 11
11.7453418475
 21
0.991203839
  0
LINE
  5
46D
100
AcDbEntity
  8
0
100
AcDbLine
 62
1
  6
CONTINUOUS
 10
12.03
 20
2.807
 11
12.03
 21
0.887
  0
LINE
  5
46E
100
AcDbEntity
  8
0
100
AcDbLine
 62
7
  6
CONTINUOUS
 10
12.44
 20
0.887
 11
12.44
 21
0.637
  0
LINE
  5
46F
100
AcDbEntity
  8
0
100
AcDbLine
 62
7
  6
CONTINUOUS
 10
12.44
 20
10.112
 11
12.44
 21
10.362
  0
LINE
  5
470
100
AcDbEntity
  8
0
100
AcDbLine
 62
7
  6
CONTINUOUS
 10
16.53
 20
5.586103
 11
16.38
 21
5.4995
  0
LINE
  5
471
100
AcDbEntity
  8
0
100
AcDbLine
 62
7
  6
CONTINUOUS
 10
16.38
 20
5.4995
 11
16.53
 21
5.412897
  0
LINE
  5
472
100
AcDbEntity
  8
0
100
AcDbLine
 62
7
  6
CONTINUOUS
 10
12.83
 20
1.507
 11
12.83
 21
1.137
  0
LINE
  5
473
100
AcDbEntity
  8
0
100
AcDbLine
 62
7
  6
CONTINUOUS
 10
16.38
 20
10.112
 11
0.62
 21
10.112
  0
LINE
  5
474
100
AcDbEntity
  8
0
100
AcDbLine
 62
7
  6
CONTINUOUS
 10
8.586603
 20
10.262
 11
8.413397
 21
10.262
  0
LINE
  5
475
100
AcDbEntity
  8
0
100
AcDbLine
 62
7
  6
CONTINUOUS
 10
14.205
 20
1.137
 11
14.205
 21
0.887
  0
LINE
  5
476
100
AcDbEntity
  8
0
100
AcDbLine
 62
7
  6
CONTINUOUS
 10
14.41
 20
0.887
 11
14.41
 21
0.637
  0
LINE
  5
477
100
AcDbEntity
  8
0
100
AcDbLine
 62
7
  6
CONTINUOUS
 10
14.41
 20
10.112
 11
14.41
 21
10.362
  0
LINE
  5
478
100
AcDbEntity
  8
0
100
AcDbLine
 62
7
  6
CONTINUOUS
 10
15.58
 20
1.507
 11
15.58
 21
1.137
  0
LINE
  5
479
100
AcDbEntity
  8
0
100
AcDbLine
 62
7
  6
CONTINUOUS
 10
16.38
 20
0.887
 11
16.38
 21
10.112
  0
LINE
  5
47A
100
AcDbEntity
  8
0
100
AcDbLine
 62
7
  6
CONTINUOUS
 10
16.53
 20
5.412897
 11
16.53
 21
5.586103
  0
LINE
  5
47B
100
AcDbEntity
  8
0
100
AcDbLine
 62
7
  6
CONTINUOUS
 10
4.8892654445
 20
5.2042631648
 11
4.8892654445
 21
5.8992123873
  0
LINE
  5
47C
100
AcDbEntity
  8
0
100
AcDbLine
 62
7
  6
CONTINUOUS
 10
4.9964219696
 20
5.0498300042
 11
4.9964219696
 21
6.0536455479
  0
LINE
  5
47D
100
AcDbEntity
  8
AXIS
100
AcDbLine
 62
7
  6
CONTINUOUS
 10
5.307612082
 20
6.1422889571
 11
5.307612082
 21
4.9611865949
  0
LINE
  5
47E
100
AcDbEntity
  8
0
100
AcDbLine
 62
7
  6
CONTINUOUS
 10
5.7406829481
 20
4.9611865949
 11
5.7406829481
 21
6.1422889571
  0
LINE
  5
47F
100
AcDbEntity
  8
0
100
AcDbLine
 62
7
  6
CONTINUOUS
 10
5.7800530269
 20
5.0005566737
 11
5.7800530269
 21
6.1029188784
  0
LINE
  5
480
100
AcDbEntity
  8
0
100
AcDbLine
 62
7
  6
CONTINUOUS
 10
5.7997380662
 20
5.9060684847
 11
5.7997380662
 21
5.1974070674
  0
LINE
  5
481
100
AcDbEntity
  8
0
100
AcDbLine
 62
7
  6
CONTINUOUS
 10
5.7406829481
 20
4.9611865949
 11
5.307612082
 21
4.9611865949
  0
LINE
  5
482
100
AcDbEntity
  8
AXIS
100
AcDbLine
 62
7
  6
CONTINUOUS
 10
5.307612082
 20
4.9611865949
 11
5.7406829481
 21
4.9611865949
  0
LINE
  5
483
100
AcDbEntity
  8
0
100
AcDbLine
 62
7
  6
CONTINUOUS
 10
6.3312341292
 20
5.1974070674
 11
6.3312341292
 21
5.9060684847
  0
LINE
  5
484
100
AcDbEntity
  8
0
100
AcDbLine
 62
7
  6
CONTINUOUS
 10
6.3509191686
 20
5.1974070674
 11
6.3509191686
 21
5.9060684847
  0
LINE
  5
485
100
AcDbEntity
  8
0
100
AcDbLine
 62
7
  6
CONTINUOUS
 10
6.370604208
 20
5.8863834453
 11
6.370604208
 21
5.2170921067
  0
LINE
  5
486
100
AcDbEntity
  8
0
100
AcDbLine
 62
7
  6
CONTINUOUS
 10
6.420604208
 20
5.261737776
 11
6.420604208
 21
5.841737776
  0
LINE
  5
487
100
AcDbEntity
  8
0
100
AcDbLine
 62
7
  6
CONTINUOUS
 10
6.470604208
 20
5.2906083492
 11
6.470604208
 21
5.8128672028
  0
LINE
  5
488
100
AcDbEntity
  8
0
100
AcDbLine
 62
7
  6
CONTINUOUS
 10
5.7997380662
 20
5.1974070674
 11
6.3509191686
 21
5.1974070674
  0
LINE
  5
489
100
AcDbEntity
  8
0
100
AcDbLine
 62
7
  6
CONTINUOUS
 10
6.3312341292
 20
5.1985006807
 11
6.3509191686
 21
5.1985006807
  0
LINE
  5
48A
100
AcDbEntity
  8
0
100
AcDbLine
 62
7
  6
CONTINUOUS
 10
5.7997380662
 20
5.2010419547
 11
5.8431471473
 21
5.2010419547
  0
LINE
  5
48B
100
AcDbEntity
  8
0
100
AcDbLine
 62
7
  6
CONTINUOUS
 10
6.370604208
 20
5.261737776
 11
6.420604208
 21
5.261737776
  0
LINE
  5
48C
100
AcDbEntity
  8
02___PRT_ALL_AXES
100
AcDbLine
 62
7
  6
CONTINUOUS
 10
6.470604208
 20
5.473237776
 11
8.6449973708
 21
5.473237776
  0
LINE
  5
48D
100
AcDbEntity
  8
AXIS
100
AcDbLine
 62
7
  6
CENTER
 10
8.715057021
 20
5.551737776
 11
4.7548561765
 21
5.551737776
  0
LINE
  5
48E
100
AcDbEntity
  8
0
100
AcDbLine
 62
7
  6
CONTINUOUS
 10
6.420604208
 20
5.261737776
 11
6.470604208
 21
5.2906052895
  0
LINE
  5
48F
100
AcDbEntity
  8
02___PRT_ALL_AXES
100
AcDbLine
 62
7
  6
CONTINUOUS
 10
6.470604208
 20
5.630237776
 11
8.6449973708
 21
5.630237776
  0
LINE
  5
490
100
AcDbEntity
  8
0
100
AcDbLine
 62
7
  6
CONTINUOUS
 10
6.420604208
 20
5.841737776
 11
6.470604208
 21
5.8128702626
  0
LINE
  5
491
100
AcDbEntity
  8
0
100
AcDbLine
 62
7
  6
CONTINUOUS
 10
6.370604208
 20
5.841737776
 11
6.420604208
 21
5.841737776
  0
LINE
  5
492
100
AcDbEntity
  8
0
100
AcDbLine
 62
7
  6
CONTINUOUS
 10
5.8252266229
 20
5.9024335973
 11
5.7997380662
 21
5.9024335973
  0
LINE
  5
493
100
AcDbEntity
  8
0
100
AcDbLine
 62
7
  6
CONTINUOUS
 10
6.3509191686
 20
5.9049748714
 11
6.3312341292
 21
5.9049748714
  0
LINE
  5
494
100
AcDbEntity
  8
0
100
AcDbLine
 62
7
  6
CONTINUOUS
 10
5.7997380662
 20
5.9060684847
 11
6.3509191686
 21
5.9060684847
  0
LINE
  5
495
100
AcDbEntity
  8
0
100
AcDbLine
 62
7
  6
CONTINUOUS
 10
5.7406829481
 20
6.1422889571
 11
5.307612082
 21
6.1422889571
  0
LINE
  5
496
100
AcDbEntity
  8
AXIS
100
AcDbLine
 62
7
  6
CONTINUOUS
 10
5.307612082
 20
6.1422889571
 11
5.7406829481
 21
6.1422889571
  0
LINE
  5
497
100
AcDbEntity
  8
02___PRT_ALL_AXES
100
AcDbLine
 62
7
  6
CONTINUOUS
 10
8.6449973708
 20
5.630237776
 11
8.6449973708
 21
5.473237776
  0
LINE
  5
498
100
AcDbEntity
  8
0
100
AcDbLine
 62
7
  6
CONTINUOUS
 10
10.6027727015
 20
5.177722028
 11
11.07803087
 21
5.177722028
  0
LINE
  5
499
100
AcDbEntity
  8
0
100
AcDbLine
 62
7
  6
CONTINUOUS
 10
10.5965753359
 20
5.1974070674
 11
11.0842282356
 21
5.1974070674
  0
LINE
  5
49A
100
AcDbEntity
  8
0
100
AcDbLine
 62
7
  6
CONTINUOUS
 10
10.7239449359
 20
5.2170921067
 11
10.9568587098
 21
5.2170921067
  0
LINE
  5
49B
100
AcDbEntity
  8
0
100
AcDbLine
 62
7
  6
CONTINUOUS
 10
10.7239435223
 20
5.1974070674
 11
10.7174736187
 21
5.1985006807
  0
LINE
  5
49C
100
AcDbEntity
  8
0
100
AcDbLine
 62
7
  6
CONTINUOUS
 10
10.6027727014
 20
5.925753524
 11
10.6027727014
 21
5.9060684847
  0
LINE
  5
49D
100
AcDbEntity
  8
0
100
AcDbLine
 62
7
  6
CONTINUOUS
 10
10.6027727014
 20
5.1974070674
 11
10.6027727014
 21
5.177722028
  0
LINE
  5
49E
100
AcDbEntity
  8
0
100
AcDbLine
 62
7
  6
CONTINUOUS
 10
10.7239435223
 20
5.9060684847
 11
10.7239435223
 21
5.8863834453
  0
LINE
  5
49F
100
AcDbEntity
  8
0
100
AcDbLine
 62
7
  6
CONTINUOUS
 10
10.7239435223
 20
5.1974070674
 11
10.7239435223
 21
5.2170921067
  0
LINE
  5
4A0
100
AcDbEntity
  8
AXIS
100
AcDbLine
 62
7
  6
CENTER
 10
10.8404017857
 20
5.551737776
 11
10.8404017857
 21
4.8611865949
  0
LINE
  5
4A1
100
AcDbEntity
  8
AXIS
100
AcDbLine
 62
7
  6
CENTER
 10
10.8404017857
 20
5.551737776
 11
10.8404017857
 21
6.2422889571
  0
LINE
  5
4A2
100
AcDbEntity
  8
0
100
AcDbLine
 62
7
  6
CONTINUOUS
 10
10.9633299527
 20
5.9049748714
 11
10.9568600492
 21
5.8863834453
  0
LINE
  5
4A3
100
AcDbEntity
  8
0
100
AcDbLine
 62
7
  6
CONTINUOUS
 10
10.7174736187
 20
5.1985006807
 11
10.7239435223
 21
5.2170921067
  0
LINE
  5
4A4
100
AcDbEntity
  8
0
100
AcDbLine
 62
7
  6
CONTINUOUS
 10
10.5799785448
 20
5.1849918027
 11
10.5913756231
 21
5.2010419547
  0
LINE
  5
4A5
100
AcDbEntity
  8
0
100
AcDbLine
 62
7
  6
CONTINUOUS
 10
11.1008250267
 20
5.9184837494
 11
11.0894279483
 21
5.9024335973
  0
LINE
  5
4A6
100
AcDbEntity
  8
AXIS
100
AcDbLine
 62
7
  6
CENTER
 10
10.8404017857
 20
5.551737776
 11
10.1498506046
 21
5.551737776
  0
LINE
  5
4A7
100
AcDbEntity
  8
AXIS
100
AcDbLine
 62
7
  6
CENTER
 10
10.8404017857
 20
5.551737776
 11
11.5309529668
 21
5.551737776
  0
LINE
  5
4A8
100
AcDbEntity
  8
0
100
AcDbLine
 62
7
  6
CONTINUOUS
 10
10.5913756231
 20
5.9024335973
 11
10.5799785448
 21
5.9184837494
  0
LINE
  5
4A9
100
AcDbEntity
  8
0
100
AcDbLine
 62
7
  6
CONTINUOUS
 10
11.0894279483
 20
5.2010419547
 11
11.1008250267
 21
5.1849918027
  0
LINE
  5
4AA
100
AcDbEntity
  8
0
100
AcDbLine
 62
7
  6
CONTINUOUS
 10
10.9568600492
 20
5.2170921067
 11
10.9633299527
 21
5.1985006807
  0
LINE
  5
4AB
100
AcDbEntity
  8
0
100
AcDbLine
 62
7
  6
CONTINUOUS
 10
10.7239435223
 20
5.8863834453
 11
10.7174736187
 21
5.9049748714
  0
LINE
  5
4AC
100
AcDbEntity
  8
0
100
AcDbLine
 62
7
  6
CONTINUOUS
 10
10.9568600492
 20
5.1974070674
 11
10.9568600492
 21
5.2170921067
  0
LINE
  5
4AD
100
AcDbEntity
  8
0
100
AcDbLine
 62
7
  6
CONTINUOUS
 10
10.9568600492
 20
5.8863834453
 11
10.9568600492
 21
5.9060684847
  0
LINE
  5
4AE
100
AcDbEntity
  8
0
100
AcDbLine
 62
7
  6
CONTINUOUS
 10
11.07803087
 20
5.177722028
 11
11.07803087
 21
5.1974070674
  0
LINE
  5
4AF
100
AcDbEntity
  8
0
100
AcDbLine
 62
7
  6
CONTINUOUS
 10
11.07803087
 20
5.9060684847
 11
11.07803087
 21
5.925753524
  0
LINE
  5
4B0
100
AcDbEntity
  8
0
100
AcDbLine
 62
7
  6
CONTINUOUS
 10
10.9568586356
 20
5.8863834453
 11
10.7239448616
 21
5.8863834453
  0
LINE
  5
4B1
100
AcDbEntity
  8
0
100
AcDbLine
 62
7
  6
CONTINUOUS
 10
10.5965753359
 20
5.9060684847
 11
11.0842282356
 21
5.9060684847
  0
LINE
  5
4B2
100
AcDbEntity
  8
0
100
AcDbLine
 62
7
  6
CONTINUOUS
 10
10.6027727015
 20
5.9257535241
 11
11.07803087
 21
5.9257535241
  0
LINE
  5
4B3
100
AcDbEntity
  8
0
100
AcDbLine
 62
7
  6
CONTINUOUS
 10
10.9568600492
 20
5.9060684847
 11
10.9633299527
 21
5.9049748714
  0
LINE
  5
4B4
100
AcDbEntity
  8
AXIS
100
AcDbLine
 62
7
  6
CONTINUOUS
 10
13.9255355857
 20
8.9252718731
 11
13.9255355857
 21
8.5716684641
  0
LINE
  5
4B5
100
AcDbEntity
  8
0
100
AcDbLine
 62
7
  6
CONTINUOUS
 10
14.0931261092
 20
8.2949161391
 11
14.0931261092
 21
8.2888727354
  0
LINE
  5
4B6
100
AcDbEntity
  8
0
100
AcDbLine
 62
7
  6
CONTINUOUS
 10
14.0931261092
 20
8.2466974924
 11
14.0931261092
 21
8.2406540887
  0
LINE
  5
4B7
100
AcDbEntity
  8
0
100
AcDbLine
 62
7
  6
CONTINUOUS
 10
14.0931261092
 20
8.1984788457
 11
14.0931261092
 21
8.192435442
  0
LINE
  5
4B8
100
AcDbEntity
  8
0
100
AcDbLine
 62
7
  6
CONTINUOUS
 10
14.0931261092
 20
8.1502601991
 11
14.0931261092
 21
8.1442167953
  0
LINE
  5
4B9
100
AcDbEntity
  8
0
100
AcDbLine
 62
7
  6
CONTINUOUS
 10
14.0931261092
 20
8.1020415524
 11
14.0931261092
 21
8.0959981487
  0
LINE
  5
4BA
100
AcDbEntity
  8
0
100
AcDbLine
 62
7
  6
CONTINUOUS
 10
14.0931261092
 20
8.0538229057
 11
14.0931261092
 21
8.047779502
  0
LINE
  5
4BB
100
AcDbEntity
  8
0
100
AcDbLine
 62
7
  6
CONTINUOUS
 10
14.1793877589
 20
7.9793864236
 11
14.1793877589
 21
7.9945663908
  0
LINE
  5
4BC
100
AcDbEntity
  8
0
100
AcDbLine
 62
7
  6
CONTINUOUS
 10
14.1831893925
 20
7.976298684
 11
14.1831893925
 21
7.9923715663
  0
LINE
  5
4BD
100
AcDbEntity
  8
0
100
AcDbLine
 62
7
  6
CONTINUOUS
 10
14.3478869338
 20
7.8972855476
 11
14.3478869338
 21
7.8812126653
  0
LINE
  5
4BE
100
AcDbEntity
  8
0
100
AcDbLine
 62
7
  6
CONTINUOUS
 10
14.3532351636
 20
7.8941978155
 11
14.3532351636
 21
7.8790178483
  0
LINE
  5
4BF
100
AcDbEntity
  8
0
100
AcDbLine
 62
7
  6
CONTINUOUS
 10
14.2763958888
 20
7.9158293793
 11
14.2777054889
 21
7.9141386735
  0
LINE
  5
4C0
100
AcDbEntity
  8
02___PRT_ALL_AXES
100
AcDbLine
 62
7
  6
CONTINUOUS
 10
14.4375867668
 20
7.8322652133
 11
14.4375867668
 21
6.2002887179
  0
LINE
  5
4C1
100
AcDbEntity
  8
0
100
AcDbLine
 62
7
  6
CONTINUOUS
 10
14.4379502171
 20
8.2015244246
 11
14.4379502171
 21
8.1954810208
  0
LINE
  5
4C2
100
AcDbEntity
  8
0
100
AcDbLine
 62
7
  6
CONTINUOUS
 10
14.4379502171
 20
8.1533057779
 11
14.4379502171
 21
8.1472623742
  0
LINE
  5
4C3
100
AcDbEntity
  8
0
100
AcDbLine
 62
7
  6
CONTINUOUS
 10
14.4379502171
 20
8.1050871312
 11
14.4379502171
 21
8.0990437275
  0
LINE
  5
4C4
100
AcDbEntity
  8
0
100
AcDbLine
 62
7
  6
CONTINUOUS
 10
14.4379502171
 20
8.0568684845
 11
14.4379502171
 21
8.0508250808
  0
LINE
  5
4C5
100
AcDbEntity
  8
0
100
AcDbLine
 62
7
  6
CONTINUOUS
 10
14.4379502171
 20
8.0086498378
 11
14.4379502171
 21
8.0026064341
  0
LINE
  5
4C6
100
AcDbEntity
  8
0
100
AcDbLine
 62
7
  6
CONTINUOUS
 10
14.4379502171
 20
7.9604311912
 11
14.4379502171
 21
7.9543877874
  0
LINE
  5
4C7
100
AcDbEntity
  8
0
100
AcDbLine
 62
7
  6
CONTINUOUS
 10
14.4379502171
 20
7.9122125445
 11
14.4379502171
 21
7.9061691408
  0
LINE
  5
4C8
100
AcDbEntity
  8
0
100
AcDbLine
 62
7
  6
CONTINUOUS
 10
14.4379502171
 20
7.8639938978
 11
14.4379502171
 21
7.8579504941
  0
LINE
  5
4C9
100
AcDbEntity
  8
0
100
AcDbLine
 62
7
  6
CONTINUOUS
 10
14.351963948
 20
7.872201127
 11
14.1872664066
 21
7.9672871457
  0
LINE
  5
4CA
100
AcDbEntity
  8
0
100
AcDbLine
 62
7
  6
CONTINUOUS
 10
14.3478869338
 20
7.8812126653
 11
14.1831893925
 21
7.976298684
  0
LINE
  5
4CB
100
AcDbEntity
  8
0
100
AcDbLine
 62
7
  6
CONTINUOUS
 10
14.1028898016
 20
8.0387315078
 11
14.1831893925
 21
7.9923715663
  0
LINE
  5
4CC
100
AcDbEntity
  8
0
100
AcDbLine
 62
7
  6
CONTINUOUS
 10
14.3478869338
 20
7.8972855476
 11
14.4040193251
 21
7.8648782295
  0
LINE
  5
4CD
100
AcDbEntity
  8
02___PRT_ALL_AXES
100
AcDbLine
 62
7
  6
CONTINUOUS
 10
14.5945867668
 20
7.8321851825
 11
14.5945867668
 21
6.2002887179
  0
LINE
  5
4CE
100
AcDbEntity
  8
0
100
AcDbLine
 62
7
  6
CONTINUOUS
 10
14.3779126252
 20
7.9197455832
 11
14.3775991412
 21
7.9198206768
  0
LINE
  5
4CF
100
AcDbEntity
  8
0
100
AcDbLine
 62
7
  6
CONTINUOUS
 10
14.3779126252
 20
7.9679642299
 11
14.3775992798
 21
7.9680392958
  0
LINE
  5
4D0
100
AcDbEntity
  8
0
100
AcDbLine
 62
7
  6
CONTINUOUS
 10
14.3779126252
 20
8.0644015233
 11
14.3775991775
 21
8.0644766096
  0
LINE
  5
4D1
100
AcDbEntity
  8
0
100
AcDbLine
 62
7
  6
CONTINUOUS
 10
14.3779126252
 20
8.0161828766
 11
14.377599379
 21
8.0162579226
  0
LINE
  5
4D2
100
AcDbEntity
  8
0
100
AcDbLine
 62
7
  6
CONTINUOUS
 10
14.3779126252
 20
8.1126201699
 11
14.3775993826
 21
8.1126952152
  0
LINE
  5
4D3
100
AcDbEntity
  8
0
100
AcDbLine
 62
7
  6
CONTINUOUS
 10
14.3779126252
 20
8.1608388166
 11
14.3775991632
 21
8.1609139058
  0
LINE
  5
4D4
100
AcDbEntity
  8
0
100
AcDbLine
 62
7
  6
CONTINUOUS
 10
14.3779126252
 20
8.2090574633
 11
14.3775993384
 21
8.2091325174
  0
LINE
  5
4D5
100
AcDbEntity
  8
AXIS
100
AcDbLine
 62
7
  6
CONTINUOUS
 10
15.106637948
 20
8.9252718731
 11
15.106637948
 21
8.5716684641
  0
LINE
  5
4D6
100
AcDbEntity
  8
AXIS
100
AcDbLine
 62
7
  6
CENTER
 10
2.4216329218
 20
5.551737776
 11
2.4216329218
 21
4.8611865949
  0
LINE
  5
4D7
100
AcDbEntity
  8
AXIS
100
AcDbLine
 62
7
  6
CENTER
 10
2.4216329218
 20
5.551737776
 11
2.4216329218
 21
6.2422889571
  0
LINE
  5
4D8
100
AcDbEntity
  8
AXIS
100
AcDbLine
 62
7
  6
CENTER
 10
2.4216329218
 20
5.551737776
 11
1.7310817407
 21
5.551737776
  0
LINE
  5
4D9
100
AcDbEntity
  8
AXIS
100
AcDbLine
 62
7
  6
CENTER
 10
2.4216329218
 20
5.551737776
 11
3.1121841029
 21
5.551737776
  0
CIRCLE
  5
4DA
100
AcDbEntity
  8
0
100
AcDbCircle
 62
7
  6
CONTINUOUS
 10
10.5342808475
 20
1.243294839
 40
0.252091
  0
CIRCLE
  5
4DB
100
AcDbEntity
  8
0
100
AcDbCircle
 62
7
  6
CONTINUOUS
 10
10.5342808475
 20
1.243294839
 40
0.182698
  0
CIRCLE
  5
4DC
100
AcDbEntity
  8
AXIS
100
AcDbCircle
 62
7
  6
CONTINUOUS
 10
2.4216329218
 20
5.551737776
 40
0.5905511811
  0
CIRCLE
  5
4DD
100
AcDbEntity
  8
0
100
AcDbCircle
 62
7
  6
CONTINUOUS
 10
2.4216329218
 20
5.551737776
 40
0.5019077718
  0
CIRCLE
  5
4DE
100
AcDbEntity
  8
0
100
AcDbCircle
 62
7
  6
CONTINUOUS
 10
2.4216329218
 20
5.551737776
 40
0.3474746113
  0
ARC
  5
4DF
100
AcDbEntity
  8
0
100
AcDbCircle
 62
7
  6
CONTINUOUS
 10
0.3076478301
 20
5.6880488511
 40
5.6987774564
100
AcDbArc
 50
1.9425981143
 51
2.1925148183
  0
ARC
  5
4E0
100
AcDbEntity
  8
0
100
AcDbCircle
 62
7
  6
CONTINUOUS
 10
0.7698750221
 20
5.7028711097
 40
5.287937396
100
AcDbArc
 50
1.9328896053
 51
2.2022233273
  0
ARC
  5
4E1
100
AcDbEntity
  8
0
100
AcDbCircle
 62
7
  6
CONTINUOUS
 10
5.1208980145
 20
5.2505931129
 40
0.2362204724
100
AcDbArc
 50
191.3107492616
 51
238.2004857338
  0
ARC
  5
4E2
100
AcDbEntity
  8
0
100
AcDbCircle
 62
7
  6
CONTINUOUS
 10
5.7406829481
 20
5.0005566737
 40
0.0393700787
100
AcDbArc
 50
270.0
 51
360.0
  0
ARC
  5
4E3
100
AcDbEntity
  8
0
100
AcDbCircle
 62
7
  6
CONTINUOUS
 10
6.3509191686
 20
5.2170921067
 40
0.0196850394
100
AcDbArc
 50
270.0
 51
360.0
  0
ARC
  5
4E4
100
AcDbEntity
  8
0
100
AcDbCircle
 62
7
  6
CONTINUOUS
 10
5.7997380662
 20
5.177722028
 40
0.0196850394
100
AcDbArc
 50
90.0
 51
179.9999999703
  0
ARC
  5
4E5
100
AcDbEntity
  8
0
100
AcDbCircle
 62
7
  6
CONTINUOUS
 10
5.307612082
 20
5.551737776
 40
0.5905511811
100
AcDbArc
 50
90.0
 51
121.7995142662
  0
ARC
  5
4E6
100
AcDbEntity
  8
0
100
AcDbCircle
 62
7
  6
CONTINUOUS
 10
5.307612082
 20
5.551737776
 40
0.5905511811
100
AcDbArc
 50
238.2004857338
 51
270.0
  0
ARC
  5
4E7
100
AcDbEntity
  8
AXIS
100
AcDbCircle
 62
7
  6
CONTINUOUS
 10
5.307612082
 20
5.551737776
 40
0.5905511811
100
AcDbArc
 50
238.2004857338
 51
270.0
  0
ARC
  5
4E8
100
AcDbEntity
  8
AXIS
100
AcDbCircle
 62
7
  6
CONTINUOUS
 10
5.307612082
 20
5.551737776
 40
0.5905511811
100
AcDbArc
 50
90.0
 51
121.7995142662
  0
ARC
  5
4E9
100
AcDbEntity
  8
0
100
AcDbCircle
 62
7
  6
CONTINUOUS
 10
5.1208980145
 20
5.8528824391
 40
0.2362204724
100
AcDbArc
 50
121.7995142662
 51
168.6892507384
  0
ARC
  5
4EA
100
AcDbEntity
  8
0
100
AcDbCircle
 62
7
  6
CONTINUOUS
 10
5.7406829481
 20
6.1029188784
 40
0.0393700787
100
AcDbArc
 50
0.0
 51
90.0
  0
ARC
  5
4EB
100
AcDbEntity
  8
0
100
AcDbCircle
 62
7
  6
CONTINUOUS
 10
5.7997380662
 20
5.9257535241
 40
0.0196850394
100
AcDbArc
 50
180.0000000323
 51
270.0
  0
ARC
  5
4EC
100
AcDbEntity
  8
0
100
AcDbCircle
 62
7
  6
CONTINUOUS
 10
6.6265097198
 20
5.551737776
 40
1.7716535433
100
AcDbArc
 50
168.6892507384
 51
191.3107492616
  0
ARC
  5
4ED
100
AcDbEntity
  8
0
100
AcDbCircle
 62
7
  6
CONTINUOUS
 10
6.3509191686
 20
5.8863834453
 40
0.0196850394
100
AcDbArc
 50
0.0
 51
90.0
  0
ARC
  5
4EE
100
AcDbEntity
  8
0
100
AcDbCircle
 62
7
  6
CONTINUOUS
 10
10.6027727015
 20
5.2170921067
 40
0.0393699121
100
AcDbArc
 50
234.6293990399
 51
270.0
  0
ARC
  5
4EF
100
AcDbEntity
  8
0
100
AcDbCircle
 62
7
  6
CONTINUOUS
 10
10.7239435223
 20
5.2170921067
 40
0.0196850394
100
AcDbArc
 50
250.8118635463
 51
270.0
  0
ARC
  5
4F0
100
AcDbEntity
  8
0
100
AcDbCircle
 62
7
  6
CONTINUOUS
 10
10.8403302014
 20
5.5517443757
 40
0.3882658918
100
AcDbArc
 50
171.2630344717
 51
172.5579001417
  0
ARC
  5
4F1
100
AcDbEntity
  8
0
100
AcDbCircle
 62
7
  6
CONTINUOUS
 10
10.8402320144
 20
5.5517746984
 40
0.3881638677
100
AcDbArc
 50
164.6069263266
 51
168.165316208
  0
ARC
  5
4F2
100
AcDbEntity
  8
0
100
AcDbCircle
 62
7
  6
CONTINUOUS
 10
10.6027727015
 20
5.8863834453
 40
0.0393699128
100
AcDbArc
 50
90.0
 51
125.3743487962
  0
ARC
  5
4F3
100
AcDbEntity
  8
0
100
AcDbCircle
 62
7
  6
CONTINUOUS
 10
10.7239435223
 20
5.8863834453
 40
0.0196850394
100
AcDbArc
 50
90.0
 51
109.1881364537
  0
ARC
  5
4F4
100
AcDbEntity
  8
0
100
AcDbCircle
 62
7
  6
CONTINUOUS
 10
10.8455942655
 20
5.5363142978
 40
0.4294358031
100
AcDbArc
 50
17.2878031008
 51
19.6569717258
  0
ARC
  5
4F5
100
AcDbEntity
  8
0
100
AcDbCircle
 62
7
  6
CONTINUOUS
 10
10.8406637576
 20
5.5516478756
 40
0.388613787
100
AcDbArc
 50
162.1688608459
 51
164.6057952508
  0
ARC
  5
4F6
100
AcDbEntity
  8
0
100
AcDbCircle
 62
7
  6
CONTINUOUS
 10
10.8405856422
 20
5.5517035604
 40
0.3885245682
100
AcDbArc
 50
168.1657437446
 51
171.2628072737
  0
ARC
  5
4F7
100
AcDbEntity
  8
0
100
AcDbCircle
 62
7
  6
CONTINUOUS
 10
10.8405238969
 20
5.5517337766
 40
0.3884593287
100
AcDbArc
 50
172.5600503762
 51
182.9507880887
  0
ARC
  5
4F8
100
AcDbEntity
  8
0
100
AcDbCircle
 62
7
  6
CONTINUOUS
 10
11.07803087
 20
5.2170921067
 40
0.0393699128
100
AcDbArc
 50
270.0
 51
305.3782065227
  0
ARC
  5
4F9
100
AcDbEntity
  8
0
100
AcDbCircle
 62
7
  6
CONTINUOUS
 10
10.9568600492
 20
5.2170921067
 40
0.0196850394
100
AcDbArc
 50
270.0
 51
289.1881364537
  0
ARC
  5
4FA
100
AcDbEntity
  8
AXIS
100
AcDbCircle
 62
7
  6
CONTINUOUS
 10
10.8404017857
 20
5.551737776
 40
0.5905511811
100
AcDbArc
 50
7.5674505972
 51
84.2747347886
  0
ARC
  5
4FB
100
AcDbEntity
  8
AXIS
100
AcDbCircle
 62
7
  6
CONTINUOUS
 10
10.8404017857
 20
5.551737776
 40
0.5905511811
100
AcDbArc
 50
275.7250472172
 51
352.4325494028
  0
CIRCLE
  5
4FC
100
AcDbEntity
  8
0
100
AcDbCircle
 62
7
  6
CONTINUOUS
 10
10.8404017857
 20
5.551737776
 40
0.5905511811
  0
CIRCLE
  5
4FD
100
AcDbEntity
  8
0
100
AcDbCircle
 62
7
  6
CONTINUOUS
 10
10.8404017857
 20
5.551737776
 40
0.5511811022
  0
ARC
  5
4FE
100
AcDbEntity
  8
0
100
AcDbCircle
 62
7
  6
CONTINUOUS
 10
10.8404017857
 20
5.551737776
 40
0.4498031496
100
AcDbArc
 50
305.3782385716
 51
54.6216939865
  0
ARC
  5
4FF
100
AcDbEntity
  8
0
100
AcDbCircle
 62
7
  6
CONTINUOUS
 10
10.8404017857
 20
5.551737776
 40
0.4498031496
100
AcDbArc
 50
125.3779009172
 51
234.6224271148
  0
ARC
  5
500
100
AcDbEntity
  8
0
100
AcDbCircle
 62
7
  6
CONTINUOUS
 10
10.8404017857
 20
5.551737776
 40
0.4301181102
100
AcDbArc
 50
124.5331211216
 51
235.4668788784
  0
ARC
  5
501
100
AcDbEntity
  8
0
100
AcDbCircle
 62
7
  6
CONTINUOUS
 10
10.8404017857
 20
5.551737776
 40
0.4301181102
100
AcDbArc
 50
304.5331211216
 51
15.1199999995
  0
ARC
  5
502
100
AcDbEntity
  8
0
100
AcDbCircle
 62
7
  6
CONTINUOUS
 10
10.8404017857
 20
5.551737776
 40
0.4301181102
100
AcDbArc
 50
15.1261591345
 51
55.4668788784
  0
ARC
  5
503
100
AcDbEntity
  8
0
100
AcDbCircle
 62
7
  6
CONTINUOUS
 10
10.8404017857
 20
5.551737776
 40
0.374015748
100
AcDbArc
 50
109.1881364537
 51
250.8118635463
  0
ARC
  5
504
100
AcDbEntity
  8
0
100
AcDbCircle
 62
7
  6
CONTINUOUS
 10
10.8404017857
 20
5.551737776
 40
0.374015748
100
AcDbArc
 50
289.1881364537
 51
70.8118635463
  0
ARC
  5
505
100
AcDbEntity
  8
0
100
AcDbCircle
 62
7
  6
CONTINUOUS
 10
10.8404017857
 20
5.551737776
 40
0.3543307087
100
AcDbArc
 50
289.1879319104
 51
70.8120794257
  0
ARC
  5
506
100
AcDbEntity
  8
0
100
AcDbCircle
 62
7
  6
CONTINUOUS
 10
10.8404017857
 20
5.551737776
 40
0.3543307087
100
AcDbArc
 50
109.1879319111
 51
250.8120794261
  0
CIRCLE
  5
507
100
AcDbEntity
  8
0
100
AcDbCircle
 62
7
  6
CONTINUOUS
 10
10.8404017857
 20
5.551737776
 40
0.29
  0
CIRCLE
  5
508
100
AcDbEntity
  8
0
100
AcDbCircle
 62
7
  6
CONTINUOUS
 10
10.8404017857
 20
5.551737776
 40
0.2611324865
  0
CIRCLE
  5
509
100
AcDbEntity
  8
0
100
AcDbCircle
 62
7
  6
CONTINUOUS
 10
10.8404017857
 20
5.551737776
 40
0.17
  0
CIRCLE
  5
50A
100
AcDbEntity
  8
0
100
AcDbCircle
 62
7
  6
CONTINUOUS
 10
10.8404017857
 20
5.551737776
 40
0.11
  0
CIRCLE
  5
50B
100
AcDbEntity
  8
02___PRT_ALL_AXES
100
AcDbCircle
 62
7
  6
CONTINUOUS
 10
10.8404017857
 20
5.551737776
 40
0.0785
  0
ARC
  5
50C
100
AcDbEntity
  8
0
100
AcDbCircle
 62
7
  6
CONTINUOUS
 10
10.852144835
 20
5.5632140007
 40
0.4259799426
100
AcDbArc
 50
300.8243560118
 51
327.872981146
  0
ARC
  5
50D
100
AcDbEntity
  8
0
100
AcDbCircle
 62
7
  6
CONTINUOUS
 10
10.9568600492
 20
5.8863834453
 40
0.0196850394
100
AcDbArc
 50
70.8118635463
 51
90.0
  0
ARC
  5
50E
100
AcDbEntity
  8
0
100
AcDbCircle
 62
7
  6
CONTINUOUS
 10
11.07803087
 20
5.8863834453
 40
0.0393699121
100
AcDbArc
 50
54.621022954
 51
90.0
  0
ARC
  5
50F
100
AcDbEntity
  8
0
100
AcDbCircle
 62
7
  6
CONTINUOUS
 10
13.4152119579
 20
7.1078114771
 40
1.4973982631
100
AcDbArc
 50
46.9206805813
 51
47.9495200756
  0
ARC
  5
510
100
AcDbEntity
  8
0
100
AcDbCircle
 62
7
  6
CONTINUOUS
 10
13.996712555
 20
7.4794631439
 40
0.5821983274
100
AcDbArc
 50
74.411599158
 51
75.140394173
  0
ARC
  5
511
100
AcDbEntity
  8
0
100
AcDbCircle
 62
7
  6
CONTINUOUS
 10
14.2327650783
 20
8.1421427664
 40
0.1470658609
100
AcDbArc
 50
195.9368080405
 51
198.2864783598
  0
ARC
  5
512
100
AcDbEntity
  8
0
100
AcDbCircle
 62
7
  6
CONTINUOUS
 10
14.2327270284
 20
8.0939114259
 40
0.1470257496
100
AcDbArc
 50
195.9361571495
 51
198.2864339475
  0
ARC
  5
513
100
AcDbEntity
  8
0
100
AcDbCircle
 62
7
  6
CONTINUOUS
 10
14.2265608858
 20
8.140492318
 40
0.140646999
100
AcDbArc
 50
188.4507875055
 51
195.984273084
  0
ARC
  5
514
100
AcDbEntity
  8
0
100
AcDbCircle
 62
7
  6
CONTINUOUS
 10
14.2220977363
 20
8.0974622916
 40
0.1361292803
100
AcDbArc
 50
170.5098534852
 51
179.9696158494
  0
ARC
  5
515
100
AcDbEntity
  8
0
100
AcDbCircle
 62
7
  6
CONTINUOUS
 10
14.2215130676
 20
8.1457324489
 40
0.1355445266
100
AcDbArc
 50
170.2264634041
 51
180.0066292086
  0
ARC
  5
516
100
AcDbEntity
  8
0
100
AcDbCircle
 62
7
  6
CONTINUOUS
 10
14.2211200593
 20
8.1397184659
 40
0.1351515255
100
AcDbArc
 50
180.018017488
 51
188.4652578385
  0
ARC
  5
517
100
AcDbEntity
  8
0
100
AcDbCircle
 62
7
  6
CONTINUOUS
 10
14.2207449315
 20
8.1457592492
 40
0.1347765632
100
AcDbArc
 50
182.5848432874
 51
183.5210828146
  0
ARC
  5
518
100
AcDbEntity
  8
0
100
AcDbCircle
 62
7
  6
CONTINUOUS
 10
14.2206249164
 20
8.0975387206
 40
0.1346565398
100
AcDbArc
 50
182.5725325551
 51
182.9402398189
  0
ARC
  5
519
100
AcDbEntity
  8
0
100
AcDbCircle
 62
7
  6
CONTINUOUS
 10
14.2205873917
 20
8.1457519478
 40
0.1346188544
100
AcDbArc
 50
180.0149738261
 51
182.584762817
  0
ARC
  5
51A
100
AcDbEntity
  8
0
100
AcDbCircle
 62
7
  6
CONTINUOUS
 10
14.2205301798
 20
8.0975343975
 40
0.1345617046
100
AcDbArc
 50
179.9999642516
 51
182.5725042025
  0
ARC
  5
51B
100
AcDbEntity
  8
0
100
AcDbCircle
 62
7
  6
CONTINUOUS
 10
14.1972062701
 20
7.9844504833
 40
0.0198339737
100
AcDbArc
 50
220.0301043845
 51
239.9256948669
  0
ARC
  5
51C
100
AcDbEntity
  8
AXIS
100
AcDbCircle
 62
7
  6
CONTINUOUS
 10
14.2572646446
 20
9.0073356776
 40
0.3571952378
100
AcDbArc
 50
223.312080976
 51
226.28152023
  0
ARC
  5
51D
100
AcDbEntity
  8
AXIS
100
AcDbCircle
 62
7
  6
CONTINUOUS
 10
14.2057586152
 20
8.9635240789
 40
0.2895192502
100
AcDbArc
 50
214.3181830191
 51
217.6938763774
  0
ARC
  5
51E
100
AcDbEntity
  8
AXIS
100
AcDbCircle
 62
7
  6
CONTINUOUS
 10
14.1630877504
 20
8.9379188983
 40
0.2396970972
100
AcDbArc
 50
204.197528181
 51
207.3164797269
  0
ARC
  5
51F
100
AcDbEntity
  8
AXIS
100
AcDbCircle
 62
7
  6
CONTINUOUS
 10
14.1312672476
 20
8.9265323152
 40
0.2058312813
100
AcDbArc
 50
191.4203242177
 51
193.0430378973
  0
ARC
  5
520
100
AcDbEntity
  8
AXIS
100
AcDbCircle
 62
7
  6
CONTINUOUS
 10
14.1241708876
 20
8.9253190532
 40
0.1986353075
100
AcDbArc
 50
180.0136101515
 51
191.482592623
  0
ARC
  5
521
100
AcDbEntity
  8
0
100
AcDbCircle
 62
7
  6
CONTINUOUS
 10
14.1239207168
 20
8.571704001
 40
0.1983851224
100
AcDbArc
 50
180.0102672818
 51
190.7771785607
  0
ARC
  5
522
100
AcDbEntity
  8
0
100
AcDbCircle
 62
7
  6
CONTINUOUS
 10
14.2327665101
 20
8.335017828
 40
0.1470673694
100
AcDbArc
 50
195.9369760359
 51
198.2864789745
  0
ARC
  5
523
100
AcDbEntity
  8
0
100
AcDbCircle
 62
7
  6
CONTINUOUS
 10
14.2327654001
 20
8.2867988138
 40
0.1470662002
100
AcDbArc
 50
195.9368227043
 51
198.2864787188
  0
ARC
  5
524
100
AcDbEntity
  8
0
100
AcDbCircle
 62
7
  6
CONTINUOUS
 10
14.2327651858
 20
8.238580096
 40
0.1470659743
100
AcDbArc
 50
195.9368000832
 51
198.2864786136
  0
ARC
  5
525
100
AcDbEntity
  8
0
100
AcDbCircle
 62
7
  6
CONTINUOUS
 10
14.2327647974
 20
8.1903613207
 40
0.1470655652
100
AcDbArc
 50
195.9367466796
 51
198.286478512
  0
ARC
  5
526
100
AcDbEntity
  8
0
100
AcDbCircle
 62
7
  6
CONTINUOUS
 10
14.2264215038
 20
8.1886795643
 40
0.1405043588
100
AcDbArc
 50
188.1867040272
 51
195.9875557625
  0
ARC
  5
527
100
AcDbEntity
  8
0
100
AcDbCircle
 62
7
  6
CONTINUOUS
 10
14.2264202022
 20
8.2368979371
 40
0.1405030326
100
AcDbArc
 50
188.1844523338
 51
195.9876435574
  0
ARC
  5
528
100
AcDbEntity
  8
0
100
AcDbCircle
 62
7
  6
CONTINUOUS
 10
14.2264198279
 20
8.2851165094
 40
0.1405026526
100
AcDbArc
 50
188.1838956824
 51
195.9876762407
  0
ARC
  5
529
100
AcDbEntity
  8
0
100
AcDbCircle
 62
7
  6
CONTINUOUS
 10
14.2264157238
 20
8.3333342883
 40
0.1404984695
100
AcDbArc
 50
188.1767212438
 51
195.987937669
  0
ARC
  5
52A
100
AcDbEntity
  8
0
100
AcDbCircle
 62
7
  6
CONTINUOUS
 10
14.2219726407
 20
8.3326763787
 40
0.1360069834
100
AcDbArc
 50
182.7525068066
 51
188.1685924327
  0
ARC
  5
52B
100
AcDbEntity
  8
0
100
AcDbCircle
 62
7
  6
CONTINUOUS
 10
14.2215145083
 20
8.2903883726
 40
0.1355459662
100
AcDbArc
 50
170.216884748
 51
180.0066714936
  0
ARC
  5
52C
100
AcDbEntity
  8
0
100
AcDbCircle
 62
7
  6
CONTINUOUS
 10
14.221513504
 20
8.2421697368
 40
0.1355449624
100
AcDbArc
 50
170.223784773
 51
180.0066901092
  0
ARC
  5
52D
100
AcDbEntity
  8
0
100
AcDbCircle
 62
7
  6
CONTINUOUS
 10
14.2215133453
 20
8.1939510969
 40
0.1355448043
100
AcDbArc
 50
170.2243039651
 51
180.006617205
  0
ARC
  5
52E
100
AcDbEntity
  8
0
100
AcDbCircle
 62
7
  6
CONTINUOUS
 10
14.221073741
 20
8.1879359534
 40
0.1351052062
100
AcDbArc
 50
180.0186359708
 51
188.1975115156
  0
ARC
  5
52F
100
AcDbEntity
  8
0
100
AcDbCircle
 62
7
  6
CONTINUOUS
 10
14.2210735415
 20
8.2361545848
 40
0.1351050067
100
AcDbArc
 50
180.0186169603
 51
188.1952118556
  0
ARC
  5
530
100
AcDbEntity
  8
0
100
AcDbCircle
 62
7
  6
CONTINUOUS
 10
14.2210734751
 20
8.2843732176
 40
0.1351049397
100
AcDbArc
 50
180.0186871064
 51
188.1946397695
  0
ARC
  5
531
100
AcDbEntity
  8
0
100
AcDbCircle
 62
7
  6
CONTINUOUS
 10
14.2207524003
 20
8.2904154053
 40
0.1347840361
100
AcDbArc
 50
182.5859260274
 51
183.5547462471
  0
ARC
  5
532
100
AcDbEntity
  8
0
100
AcDbCircle
 62
7
  6
CONTINUOUS
 10
14.2207474242
 20
8.2421966118
 40
0.1347790571
100
AcDbArc
 50
182.5859070613
 51
183.5321384035
  0
ARC
  5
533
100
AcDbEntity
  8
0
100
AcDbCircle
 62
7
  6
CONTINUOUS
 10
14.2207467801
 20
8.1939779547
 40
0.1347784131
100
AcDbArc
 50
182.5859310342
 51
183.5289578732
  0
ARC
  5
534
100
AcDbEntity
  8
0
100
AcDbCircle
 62
7
  6
CONTINUOUS
 10
14.2205904646
 20
8.2904078886
 40
0.1346219262
100
AcDbArc
 50
180.0150234039
 51
182.5858396769
  0
ARC
  5
535
100
AcDbEntity
  8
0
100
AcDbCircle
 62
7
  6
CONTINUOUS
 10
14.2205884552
 20
8.242189239
 40
0.1346199173
100
AcDbArc
 50
180.0150364361
 51
182.585824891
  0
ARC
  5
536
100
AcDbEntity
  8
0
100
AcDbCircle
 62
7
  6
CONTINUOUS
 10
14.2205881756
 20
8.1939705998
 40
0.1346196383
100
AcDbArc
 50
180.0149633866
 51
182.5858495229
  0
ARC
  5
537
100
AcDbEntity
  8
0
100
AcDbCircle
 62
7
  6
CONTINUOUS
 10
14.2932482357
 20
8.1361609698
 40
0.1697741719
100
AcDbArc
 50
212.4071326996
 51
214.3990598536
  0
ARC
  5
538
100
AcDbEntity
  8
0
100
AcDbCircle
 62
7
  6
CONTINUOUS
 10
14.792500681
 20
8.1638774787
 40
0.1537043115
100
AcDbArc
 50
351.462014927
 51
359.9926511885
  0
ARC
  5
539
100
AcDbEntity
  8
0
100
AcDbCircle
 62
7
  6
CONTINUOUS
 10
14.7925264808
 20
8.1699330942
 40
0.1536801513
100
AcDbArc
 50
352.3113462801
 51
357.7434910305
  0
ARC
  5
53A
100
AcDbEntity
  8
0
100
AcDbCircle
 62
7
  6
CONTINUOUS
 10
14.7929941851
 20
8.1216073343
 40
0.1532108439
100
AcDbArc
 50
0.013666087
 51
7.3194861261
  0
ARC
  5
53B
100
AcDbEntity
  8
0
100
AcDbCircle
 62
7
  6
CONTINUOUS
 10
14.7930093196
 20
8.1698327875
 40
0.1531955707
100
AcDbArc
 50
0.0244481011
 51
7.3772834531
  0
ARC
  5
53C
100
AcDbEntity
  8
0
100
AcDbCircle
 62
7
  6
CONTINUOUS
 10
14.793700899
 20
8.1698654219
 40
0.1525039809
100
AcDbArc
 50
357.751523141
 51
0.0122982176
  0
ARC
  5
53D
100
AcDbEntity
  8
0
100
AcDbCircle
 62
7
  6
CONTINUOUS
 10
14.7937641492
 20
8.1216468665
 40
0.1524408754
100
AcDbArc
 50
357.7456754967
 51
359.9988767088
  0
ARC
  5
53E
100
AcDbEntity
  8
0
100
AcDbCircle
 62
7
  6
CONTINUOUS
 10
14.3618368858
 20
7.8893217496
 40
0.0197633324
100
AcDbArc
 50
240.0253308449
 51
254.3713028882
  0
ARC
  5
53F
100
AcDbEntity
  8
0
100
AcDbCircle
 62
7
  6
CONTINUOUS
 10
15.1700193378
 20
9.2000632217
 40
1.5771673331
100
AcDbArc
 50
226.9369979612
 51
227.420583126
  0
ARC
  5
540
100
AcDbEntity
  8
0
100
AcDbCircle
 62
7
  6
CONTINUOUS
 10
14.844661187
 20
9.1225052457
 40
1.0867624186
100
AcDbArc
 50
229.4564819578
 51
230.4841753462
  0
ARC
  5
541
100
AcDbEntity
  8
0
100
AcDbCircle
 62
7
  6
CONTINUOUS
 10
14.8337306188
 20
8.8682163783
 40
1.0696276366
100
AcDbArc
 50
229.9192716391
 51
230.4861094748
  0
ARC
  5
542
100
AcDbEntity
  8
0
100
AcDbCircle
 62
7
  6
CONTINUOUS
 10
14.5028164712
 20
8.9379581284
 40
0.7392849458
100
AcDbArc
 50
264.9662874164
 51
278.9391947866
  0
ARC
  5
543
100
AcDbEntity
  8
0
100
AcDbCircle
 62
7
  6
CONTINUOUS
 10
14.559645466
 20
8.5405513056
 40
0.6933639747
100
AcDbArc
 50
257.0294110897
 51
259.8914150982
  0
ARC
  5
544
100
AcDbEntity
  8
AXIS
100
AcDbCircle
 62
7
  6
CONTINUOUS
 10
14.4182788125
 20
9.2460051913
 40
0.6465548191
100
AcDbArc
 50
244.9260861991
 51
245.1045316194
  0
ARC
  5
545
100
AcDbEntity
  8
0
100
AcDbCircle
 62
7
  6
CONTINUOUS
 10
14.4977019823
 20
8.8125406353
 40
0.6179966688
100
AcDbArc
 50
261.0508683335
 51
261.4020575328
  0
ARC
  5
546
100
AcDbEntity
  8
0
100
AcDbCircle
 62
7
  6
CONTINUOUS
 10
14.4961123627
 20
8.5612120243
 40
0.6076388437
100
AcDbArc
 50
258.7831394226
 51
261.4769681454
  0
ARC
  5
547
100
AcDbEntity
  8
0
100
AcDbCircle
 62
7
  6
CONTINUOUS
 10
14.496019741
 20
8.6571406386
 40
0.6071218645
100
AcDbArc
 50
258.7823752513
 51
261.4074912431
  0
ARC
  5
548
100
AcDbEntity
  8
0
100
AcDbCircle
 62
7
  6
CONTINUOUS
 10
14.4960196867
 20
8.7535776268
 40
0.6071215546
100
AcDbArc
 50
258.7823746765
 51
261.4074470887
  0
ARC
  5
549
100
AcDbEntity
  8
0
100
AcDbCircle
 62
7
  6
CONTINUOUS
 10
14.4960196867
 20
8.5124843933
 40
0.6071215546
100
AcDbArc
 50
258.7823746765
 51
261.4074470888
  0
ARC
  5
54A
100
AcDbEntity
  8
0
100
AcDbCircle
 62
7
  6
CONTINUOUS
 10
14.4960194092
 20
8.6089201273
 40
0.607119971
100
AcDbArc
 50
258.7823717395
 51
261.4072214867
  0
ARC
  5
54B
100
AcDbEntity
  8
0
100
AcDbCircle
 62
7
  6
CONTINUOUS
 10
14.4959851552
 20
8.7051699488
 40
0.6069294171
100
AcDbArc
 50
258.7821007615
 51
261.3823165338
  0
ARC
  5
54C
100
AcDbEntity
  8
0
100
AcDbCircle
 62
7
  6
CONTINUOUS
 10
14.5297160205
 20
8.8015944865
 40
0.6060224807
100
AcDbArc
 50
286.4234325102
 51
287.4470933851
  0
ARC
  5
54D
100
AcDbEntity
  8
0
100
AcDbCircle
 62
7
  6
CONTINUOUS
 10
14.4955766262
 20
8.7993261971
 40
0.6046124787
100
AcDbArc
 50
258.7780228094
 51
261.0550264731
  0
ARC
  5
54E
100
AcDbEntity
  8
0
100
AcDbCircle
 62
7
  6
CONTINUOUS
 10
14.5121593322
 20
8.4427003373
 40
0.5933307971
100
AcDbArc
 50
259.3715353477
 51
262.7532393272
  0
ARC
  5
54F
100
AcDbEntity
  8
AXIS
100
AcDbCircle
 62
7
  6
CONTINUOUS
 10
14.5160867056
 20
8.9252718506
 40
0.5905512424
100
AcDbArc
 50
0.0000021749
 51
40.1936431041
  0
ARC
  5
550
100
AcDbEntity
  8
0
100
AcDbCircle
 62
7
  6
CONTINUOUS
 10
14.5430467695
 20
8.766902263
 40
0.5631661857
100
AcDbArc
 50
287.2039367965
 51
291.7327812025
  0
ARC
  5
551
100
AcDbEntity
  8
0
100
AcDbCircle
 62
7
  6
CONTINUOUS
 10
14.5037538151
 20
8.420142263
 40
0.5616684935
100
AcDbArc
 50
254.4556107233
 51
259.0318652215
  0
ARC
  5
552
100
AcDbEntity
  8
0
100
AcDbCircle
 62
7
  6
CONTINUOUS
 10
14.5050613983
 20
8.4046699873
 40
0.5546437627
100
AcDbArc
 50
254.4649041015
 51
259.3675950072
  0
ARC
  5
553
100
AcDbEntity
  8
0
100
AcDbCircle
 62
7
  6
CONTINUOUS
 10
14.516090509
 20
8.3512369225
 40
0.5021548249
100
AcDbArc
 50
269.880183536
 51
271.5243461229
  0
ARC
  5
554
100
AcDbEntity
  8
0
100
AcDbCircle
 62
7
  6
CONTINUOUS
 10
14.5874496947
 20
8.3285871323
 40
0.4529688259
100
AcDbArc
 50
296.2691600786
 51
299.5794962915
  0
ARC
  5
555
100
AcDbEntity
  8
AXIS
100
AcDbCircle
 62
7
  6
CONTINUOUS
 10
14.3135747662
 20
9.0712826362
 40
0.4424577962
100
AcDbArc
 50
231.3934170826
 51
233.6270307097
  0
ARC
  5
556
100
AcDbEntity
  8
0
100
AcDbCircle
 62
7
  6
CONTINUOUS
 10
14.293248368
 20
8.2325983515
 40
0.169774331
100
AcDbArc
 50
212.4072330633
 51
214.3990592355
  0
ARC
  5
557
100
AcDbEntity
  8
0
100
AcDbCircle
 62
7
  6
CONTINUOUS
 10
14.2932482357
 20
8.3772542032
 40
0.1697741719
100
AcDbArc
 50
212.4071326996
 51
214.3990598536
  0
ARC
  5
558
100
AcDbEntity
  8
0
100
AcDbCircle
 62
7
  6
CONTINUOUS
 10
14.2932482357
 20
8.3290355565
 40
0.1697741719
100
AcDbArc
 50
212.4071326997
 51
214.3990598536
  0
ARC
  5
559
100
AcDbEntity
  8
0
100
AcDbCircle
 62
7
  6
CONTINUOUS
 10
14.2932482357
 20
8.1843796165
 40
0.1697741719
100
AcDbArc
 50
212.4071326996
 51
214.3990598537
  0
ARC
  5
55A
100
AcDbEntity
  8
0
100
AcDbCircle
 62
7
  6
CONTINUOUS
 10
14.2932482081
 20
8.2808168914
 40
0.1697741386
100
AcDbArc
 50
212.4071117006
 51
214.3990599829
  0
ARC
  5
55B
100
AcDbEntity
  8
0
100
AcDbCircle
 62
7
  6
CONTINUOUS
 10
14.7925069666
 20
8.2603143655
 40
0.1536980259
100
AcDbArc
 50
351.4824887526
 51
359.9927861849
  0
ARC
  5
55C
100
AcDbEntity
  8
0
100
AcDbCircle
 62
7
  6
CONTINUOUS
 10
14.7925069919
 20
8.3085330094
 40
0.153698
100
AcDbArc
 50
351.4828085906
 51
359.9929310305
  0
ARC
  5
55D
100
AcDbEntity
  8
0
100
AcDbCircle
 62
7
  6
CONTINUOUS
 10
14.7925922532
 20
8.2120893561
 40
0.153612624
100
AcDbArc
 50
351.5320868488
 51
359.9940481828
  0
ARC
  5
55E
100
AcDbEntity
  8
0
100
AcDbCircle
 62
7
  6
CONTINUOUS
 10
14.7929551694
 20
8.3145528538
 40
0.1532500558
100
AcDbArc
 50
354.3881177827
 51
355.7798015856
  0
ARC
  5
55F
100
AcDbEntity
  8
0
100
AcDbCircle
 62
7
  6
CONTINUOUS
 10
14.7929918319
 20
8.2662637273
 40
0.1532131773
100
AcDbArc
 50
0.0280756301
 51
7.3400077398
  0
ARC
  5
560
100
AcDbEntity
  8
0
100
AcDbCircle
 62
7
  6
CONTINUOUS
 10
14.7929918441
 20
8.2180450714
 40
0.1532131655
100
AcDbArc
 50
0.0279348259
 51
7.3396953239
  0
ARC
  5
561
100
AcDbEntity
  8
0
100
AcDbCircle
 62
7
  6
CONTINUOUS
 10
14.7932862924
 20
8.3145068465
 40
0.1529176349
100
AcDbArc
 50
0.0195824555
 51
4.2657287637
  0
ARC
  5
562
100
AcDbEntity
  8
0
100
AcDbCircle
 62
7
  6
CONTINUOUS
 10
14.7933471196
 20
8.3145236759
 40
0.1528570211
100
AcDbArc
 50
355.7798972652
 51
357.7506495387
  0
ARC
  5
563
100
AcDbEntity
  8
0
100
AcDbCircle
 62
7
  6
CONTINUOUS
 10
14.7935667371
 20
8.3145138685
 40
0.1526371879
100
AcDbArc
 50
357.751092531
 51
0.0169825688
  0
ARC
  5
564
100
AcDbEntity
  8
0
100
AcDbCircle
 62
7
  6
CONTINUOUS
 10
14.7937574991
 20
8.2663032117
 40
0.1524474958
100
AcDbArc
 50
357.7603060259
 51
0.0133768439
  0
ARC
  5
565
100
AcDbEntity
  8
0
100
AcDbCircle
 62
7
  6
CONTINUOUS
 10
14.7937575138
 20
8.2180845594
 40
0.1524474816
100
AcDbArc
 50
357.7592001361
 51
0.01323397
  0
SPLINE
  5
566
100
AcDbEntity
  8
0
100
AcDbSpline
 62
7
  6
CONTINUOUS
 70
0
 71
3
 72
14
 73
10
 74
0
 42
0.0000001
 43
0.0000001
 44
0.0000000001
 40
0.0
 40
0.0
 40
0.0
 40
0.0
 40
0.0970547926
 40
0.2175757609
 40
0.426740001
 40
0.6454490033
 40
0.8452087591
 40
0.9296554139
 40
1.0
 40
1.0
 40
1.0
 40
1.0
 10
6.2975289326
 20
5.9060684847
 30
0.0
 10
6.2984123289
 20
5.8831514329
 30
0.0
 10
6.3000349821
 20
5.8317629225
 30
0.0
 10
6.3026628763
 20
5.7309584179
 30
0.0
 10
6.3055592211
 20
5.6014047792
 30
0.0
 10
6.3087614745
 20
5.4531297284
 30
0.0
 10
6.3115227481
 20
5.334322297
 30
0.0
 10
6.313870369
 20
5.2505745914
 30
0.0
 10
6.3150864484
 20
5.2140171747
 30
0.0
 10
6.3157267275
 20
5.1974070674
 30
0.0
  0
SPLINE
  5
567
100
AcDbEntity
  8
0
100
AcDbSpline
 62
7
  6
CONTINUOUS
 70
0
 71
3
 72
14
 73
10
 74
0
 42
0.0000001
 43
0.0000001
 44
0.0000000001
 40
0.0
 40
0.0
 40
0.0
 40
0.0
 40
0.0970532254
 40
0.217572445
 40
0.4267354557
 40
0.645448694
 40
0.8452077689
 40
0.9296558144
 40
1.0
 40
1.0
 40
1.0
 40
1.0
 10
5.9357966491
 20
5.9060684847
 30
0.0
 10
5.9366800312
 20
5.883151803
 30
0.0
 10
5.9383026642
 20
5.8317640759
 30
0.0
 10
5.9409305388
 20
5.7309606451
 30
0.0
 10
5.943826897
 20
5.6014067095
 30
0.0
 10
5.9470291592
 20
5.4531311092
 30
0.0
 10
5.9497904594
 20
5.3343225094
 30
0.0
 10
5.9521380814
 20
5.2505747307
 30
0.0
 10
5.9533541686
 20
5.2140170801
 30
0.0
 10
5.953994444
 20
5.1974070674
 30
0.0
  0
SPLINE
  5
568
100
AcDbEntity
  8
0
100
AcDbSpline
 62
7
  6
CONTINUOUS
 70
0
 71
3
 72
14
 73
10
 74
0
 42
0.0000001
 43
0.0000001
 44
0.0000000001
 40
0.0
 40
0.0
 40
0.0
 40
0.0
 40
0.0970547935
 40
0.2175757605
 40
0.4267400034
 40
0.6454490023
 40
0.8452087593
 40
0.9296554161
 40
1.0
 40
1.0
 40
1.0
 40
1.0
 10
6.3083251527
 20
5.1974070674
 30
0.0
 10
6.3074417563
 20
5.2203241193
 30
0.0
 10
6.3058191032
 20
5.2717126297
 30
0.0
 10
6.3031912089
 20
5.3725171349
 30
0.0
 10
6.3002948641
 20
5.502070773
 30
0.0
 10
6.2970926108
 20
5.650345824
 30
0.0
 10
6.2943313371
 20
5.7691532554
 30
0.0
 10
6.2919837163
 20
5.8529009612
 30
0.0
 10
6.2907676368
 20
5.8894583779
 30
0.0
 10
6.2901273578
 20
5.9060684847
 30
0.0
  0
SPLINE
  5
569
100
AcDbEntity
  8
0
100
AcDbSpline
 62
7
  6
CONTINUOUS
 70
0
 71
3
 72
14
 73
10
 74
0
 42
0.0000001
 43
0.0000001
 44
0.0000000001
 40
0.0
 40
0.0
 40
0.0
 40
0.0
 40
0.1049240731
 40
0.2296991488
 40
0.5118241504
 40
0.6543100625
 40
0.7877109214
 40
0.9049993498
 40
1.0
 40
1.0
 40
1.0
 40
1.0
 10
6.054803683
 20
5.8812273643
 30
0.0
 10
6.0556165309
 20
5.8573169655
 30
0.0
 10
6.0571452099
 20
5.8049640606
 30
0.0
 10
6.0600521912
 20
5.688296885
 30
0.0
 10
6.0627482812
 20
5.5630577077
 30
0.0
 10
6.0655480974
 20
5.4358537855
 30
0.0
 10
6.0676442137
 20
5.3462285096
 30
0.0
 10
6.0697271239
 20
5.2674337081
 30
0.0
 10
6.071270301
 20
5.2190525186
 30
0.0
 10
6.0721046802
 20
5.1974070674
 30
0.0
  0
SPLINE
  5
56A
100
AcDbEntity
  8
0
100
AcDbSpline
 62
7
  6
CONTINUOUS
 70
0
 71
3
 72
11
 73
7
 74
0
 42
0.0000001
 43
0.0000001
 44
0.0000000001
 40
0.0
 40
0.0
 40
0.0
 40
0.0
 40
0.3369322973
 40
0.597788719
 40
0.803612439
 40
1.0
 40
1.0
 40
1.0
 40
1.0
 10
5.8431471473
 20
5.2010419547
 30
0.0
 10
5.8431672139
 20
5.2005102861
 30
0.0
 10
5.8432681399
 20
5.1995668628
 30
0.0
 10
5.8436901255
 20
5.1983484681
 30
0.0
 10
5.8444429096
 20
5.1975539412
 30
0.0
 10
5.8450988419
 20
5.1974070674
 30
0.0
 10
5.845408956
 20
5.1974070674
 30
0.0
  0
SPLINE
  5
56B
100
AcDbEntity
  8
0
100
AcDbSpline
 62
7
  6
CONTINUOUS
 70
0
 71
3
 72
11
 73
7
 74
0
 42
0.0000001
 43
0.0000001
 44
0.0000000001
 40
0.0
 40
0.0
 40
0.0
 40
0.0
 40
0.1834994706
 40
0.3824911521
 40
0.6484042352
 40
1.0
 40
1.0
 40
1.0
 40
1.0
 10
5.8269862094
 20
5.9060684847
 30
0.0
 10
5.8267115913
 20
5.9060684847
 30
0.0
 10
5.8261150876
 20
5.9059124994
 30
0.0
 10
5.8255049958
 20
5.9050923964
 30
0.0
 10
5.8252291752
 20
5.9038874159
 30
0.0
 10
5.8252067775
 20
5.9029594073
 30
0.0
 10
5.8252266229
 20
5.9024335973
 30
0.0
  0
SPLINE
  5
56C
100
AcDbEntity
  8
0
100
AcDbSpline
 62
7
  6
CONTINUOUS
 70
0
 71
3
 72
18
 73
14
 74
0
 42
0.0000001
 43
0.0000001
 44
0.0000000001
 40
0.0
 40
0.0
 40
0.0
 40
0.0
 40
0.0372825958
 40
0.0840844516
 40
0.1394431152
 40
0.2022231711
 40
0.4215691386
 40
0.5393171585
 40
0.6552477793
 40
0.7640032192
 40
0.8605574417
 40
0.9404489518
 40
1.0
 40
1.0
 40
1.0
 40
1.0
 10
5.8475078171
 20
5.9060684847
 30
0.0
 10
5.8480280243
 20
5.8972726005
 30
0.0
 10
5.849004734
 20
5.8774235769
 30
0.0
 10
5.8503188218
 20
5.8444941165
 30
0.0
 10
5.8516417502
 20
5.805534821
 30
0.0
 10
5.8540361514
 20
5.725810572
 30
0.0
 10
5.8563869204
 20
5.6313343325
 30
0.0
 10
5.8589693936
 20
5.5242991429
 30
0.0
 10
5.8609456568
 20
5.4433934064
 30
0.0
 10
5.8629181963
 20
5.3674981387
 30
0.0
 10
5.8648735702
 20
5.3001224732
 30
0.0
 10
5.8668120367
 20
5.2443817013
 30
0.0
 10
5.8682790269
 20
5.2114566289
 30
0.0
 10
5.8691099477
 20
5.1974070674
 30
0.0
  0
SPLINE
  5
56D
100
AcDbEntity
  8
0
100
AcDbSpline
 62
7
  6
CONTINUOUS
 70
0
 71
3
 72
18
 73
14
 74
0
 42
0.0000001
 43
0.0000001
 44
0.0000000001
 40
0.0
 40
0.0
 40
0.0
 40
0.0
 40
0.0372825958
 40
0.0840844516
 40
0.1394431152
 40
0.2022231711
 40
0.4215691386
 40
0.5393171585
 40
0.6552477793
 40
0.7640032192
 40
0.8605574417
 40
0.9404489518
 40
1.0
 40
1.0
 40
1.0
 40
1.0
 10
5.9065629352
 20
5.9060684847
 30
0.0
 10
5.9070831424
 20
5.8972726005
 30
0.0
 10
5.9080598521
 20
5.8774235769
 30
0.0
 10
5.9093739399
 20
5.8444941165
 30
0.0
 10
5.9106968683
 20
5.805534821
 30
0.0
 10
5.9130912695
 20
5.725810572
 30
0.0
 10
5.9154420385
 20
5.6313343325
 30
0.0
 10
5.9180245117
 20
5.5242991429
 30
0.0
 10
5.9200007749
 20
5.4433934064
 30
0.0
 10
5.9219733144
 20
5.3674981387
 30
0.0
 10
5.9239286883
 20
5.3001224732
 30
0.0
 10
5.9258671548
 20
5.2443817013
 30
0.0
 10
5.927334145
 20
5.2114566289
 30
0.0
 10
5.9281650658
 20
5.1974070674
 30
0.0
  0
SPLINE
  5
56E
100
AcDbEntity
  8
0
100
AcDbSpline
 62
7
  6
CONTINUOUS
 70
0
 71
3
 72
18
 73
14
 74
0
 42
0.0000001
 43
0.0000001
 44
0.0000000001
 40
0.0
 40
0.0
 40
0.0
 40
0.0
 40
0.0372825958
 40
0.0840844516
 40
0.1394431152
 40
0.2022231711
 40
0.4215691386
 40
0.5393171585
 40
0.6552477793
 40
0.7640032192
 40
0.8605574417
 40
0.9404489518
 40
1.0
 40
1.0
 40
1.0
 40
1.0
 10
5.9656180533
 20
5.9060684847
 30
0.0
 10
5.9661382605
 20
5.8972726005
 30
0.0
 10
5.9671149702
 20
5.8774235769
 30
0.0
 10
5.968429058
 20
5.8444941165
 30
0.0
 10
5.9697519864
 20
5.805534821
 30
0.0
 10
5.9721463877
 20
5.725810572
 30
0.0
 10
5.9744971566
 20
5.6313343325
 30
0.0
 10
5.9770796298
 20
5.5242991429
 30
0.0
 10
5.9790558931
 20
5.4433934064
 30
0.0
 10
5.9810284325
 20
5.3674981387
 30
0.0
 10
5.9829838064
 20
5.3001224732
 30
0.0
 10
5.9849222729
 20
5.2443817013
 30
0.0
 10
5.9863892631
 20
5.2114566289
 30
0.0
 10
5.9872201839
 20
5.1974070674
 30
0.0
  0
SPLINE
  5
56F
100
AcDbEntity
  8
0
100
AcDbSpline
 62
7
  6
CONTINUOUS
 70
0
 71
3
 72
9
 73
5
 74
0
 42
0.0000001
 43
0.0000001
 44
0.0000000001
 40
0.0
 40
0.0
 40
0.0
 40
0.0
 40
0.444881479
 40
1.0
 40
1.0
 40
1.0
 40
1.0
 10
6.0246731714
 20
5.9060684847
 30
0.0
 10
6.0251713984
 20
5.8976442525
 30
0.0
 10
6.0261106036
 20
5.8786978249
 30
0.0
 10
6.0268759292
 20
5.8597442066
 30
0.0
 10
6.027272137
 20
5.8492216254
 30
0.0
  0
SPLINE
  5
570
100
AcDbEntity
  8
0
100
AcDbSpline
 62
7
  6
CONTINUOUS
 70
0
 71
3
 72
14
 73
10
 74
0
 42
0.0000001
 43
0.0000001
 44
0.0000000001
 40
0.0
 40
0.0
 40
0.0
 40
0.0
 40
0.0979747499
 40
0.2186577661
 40
0.4271015541
 40
0.6447642826
 40
0.8441245092
 40
0.9288885665
 40
1.0
 40
1.0
 40
1.0
 40
1.0
 10
5.8431471473
 20
5.2010419547
 30
0.0
 10
5.8422829319
 20
5.2239395208
 30
0.0
 10
5.8406869975
 20
5.2750540627
 30
0.0
 10
5.8380980054
 20
5.374908992
 30
0.0
 10
5.8352410043
 20
5.5027578978
 30
0.0
 10
5.8320818727
 20
5.6490047869
 30
0.0
 10
5.8293589903
 20
5.7663291901
 30
0.0
 10
5.8270492615
 20
5.8493780309
 30
0.0
 10
5.8258538825
 20
5.885814226
 30
0.0
 10
5.8252266229
 20
5.9024335973
 30
0.0
  0
SPLINE
  5
571
100
AcDbEntity
  8
0
100
AcDbSpline
 62
7
  6
CONTINUOUS
 70
0
 71
3
 72
18
 73
14
 74
0
 42
0.0000001
 43
0.0000001
 44
0.0000000001
 40
0.0
 40
0.0
 40
0.0
 40
0.0
 40
0.0372825958
 40
0.0840844516
 40
0.1394431152
 40
0.2022231711
 40
0.4215691386
 40
0.5393171585
 40
0.6552477793
 40
0.7640032192
 40
0.8605574417
 40
0.9404489518
 40
1.0
 40
1.0
 40
1.0
 40
1.0
 10
5.8509173659
 20
5.9060684847
 30
0.0
 10
5.8514375731
 20
5.8972726005
 30
0.0
 10
5.8524142828
 20
5.8774235769
 30
0.0
 10
5.8537283707
 20
5.8444941165
 30
0.0
 10
5.855051299
 20
5.805534821
 30
0.0
 10
5.8574457003
 20
5.725810572
 30
0.0
 10
5.8597964692
 20
5.6313343325
 30
0.0
 10
5.8623789424
 20
5.5242991429
 30
0.0
 10
5.8643552057
 20
5.4433934064
 30
0.0
 10
5.8663277451
 20
5.3674981387
 30
0.0
 10
5.8682831191
 20
5.3001224732
 30
0.0
 10
5.8702215855
 20
5.2443817013
 30
0.0
 10
5.8716885757
 20
5.2114566289
 30
0.0
 10
5.8725194965
 20
5.1974070674
 30
0.0
  0
SPLINE
  5
572
100
AcDbEntity
  8
0
100
AcDbSpline
 62
7
  6
CONTINUOUS
 70
0
 71
3
 72
13
 73
9
 74
0
 42
0.0000001
 43
0.0000001
 44
0.0000000001
 40
0.0
 40
0.0
 40
0.0
 40
0.0
 40
0.3032480415
 40
0.5909474124
 40
0.7190542053
 40
0.8318992947
 40
0.9264029832
 40
1.0
 40
1.0
 40
1.0
 40
1.0
 10
6.2144087199
 20
5.6191718901
 30
0.0
 10
6.2154566523
 20
5.5765319612
 30
0.0
 10
6.2174425912
 20
5.4934370919
 30
0.0
 10
6.2199710233
 20
5.3923312367
 30
0.0
 10
6.2220882284
 20
5.3180048409
 30
0.0
 10
6.2236055296
 20
5.2708460816
 30
0.0
 10
6.2251112216
 20
5.2313587952
 30
0.0
 10
6.2262390543
 20
5.2077406659
 30
0.0
 10
6.2268502052
 20
5.1974070674
 30
0.0
  0
SPLINE
  5
573
100
AcDbEntity
  8
0
100
AcDbSpline
 62
7
  6
CONTINUOUS
 70
0
 71
3
 72
14
 73
10
 74
0
 42
0.0000001
 43
0.0000001
 44
0.0000000001
 40
0.0
 40
0.0
 40
0.0
 40
0.0
 40
0.0970547256
 40
0.2175774144
 40
0.4267410062
 40
0.6454541844
 40
0.8452111832
 40
0.929656497
 40
1.0
 40
1.0
 40
1.0
 40
1.0
 10
5.9023409007
 20
5.1974070674
 30
0.0
 10
5.901457505
 20
5.2203241033
 30
0.0
 10
5.8998348405
 20
5.2717130043
 30
0.0
 10
5.8972069417
 20
5.3725177465
 30
0.0
 10
5.8943105719
 20
5.502072625
 30
0.0
 10
5.8911083154
 20
5.6503478579
 30
0.0
 10
5.8883470335
 20
5.7691553075
 30
0.0
 10
5.8859994373
 20
5.8529017889
 30
0.0
 10
5.884783375
 20
5.8894586331
 30
0.0
 10
5.8841431058
 20
5.9060684847
 30
0.0
  0
SPLINE
  5
574
100
AcDbEntity
  8
0
100
AcDbSpline
 62
7
  6
CONTINUOUS
 70
0
 71
3
 72
18
 73
14
 74
0
 42
0.0000001
 43
0.0000001
 44
0.0000000001
 40
0.0
 40
0.0
 40
0.0
 40
0.0
 40
0.0372825958
 40
0.0840844516
 40
0.1394431152
 40
0.2022231711
 40
0.4215691386
 40
0.5393171585
 40
0.6552477793
 40
0.7640032192
 40
0.8605574417
 40
0.9404489518
 40
1.0
 40
1.0
 40
1.0
 40
1.0
 10
5.9099724841
 20
5.9060684847
 30
0.0
 10
5.9104926913
 20
5.8972726005
 30
0.0
 10
5.9114694009
 20
5.8774235769
 30
0.0
 10
5.9127834888
 20
5.8444941165
 30
0.0
 10
5.9141064171
 20
5.805534821
 30
0.0
 10
5.9165008184
 20
5.725810572
 30
0.0
 10
5.9188515873
 20
5.6313343325
 30
0.0
 10
5.9214340605
 20
5.5242991429
 30
0.0
 10
5.9234103238
 20
5.4433934064
 30
0.0
 10
5.9253828632
 20
5.3674981387
 30
0.0
 10
5.9273382372
 20
5.3001224732
 30
0.0
 10
5.9292767036
 20
5.2443817013
 30
0.0
 10
5.9307436938
 20
5.2114566289
 30
0.0
 10
5.9315746146
 20
5.1974070674
 30
0.0
  0
SPLINE
  5
575
100
AcDbEntity
  8
0
100
AcDbSpline
 62
7
  6
CONTINUOUS
 70
0
 71
3
 72
11
 73
7
 74
0
 42
0.0000001
 43
0.0000001
 44
0.0000000001
 40
0.0
 40
0.0
 40
0.0
 40
0.0
 40
0.1734002575
 40
0.4049419589
 40
0.684539462
 40
1.0
 40
1.0
 40
1.0
 40
1.0
 10
6.3233583108
 20
5.9060684847
 30
0.0
 10
6.3241621076
 20
5.8924775473
 30
0.0
 10
6.3255891943
 20
5.8607130398
 30
0.0
 10
6.3274763041
 20
5.8069991378
 30
0.0
 10
6.3293798626
 20
5.7421253543
 30
0.0
 10
6.3306046034
 20
5.6954198892
 30
0.0
 10
6.3312341292
 20
5.6706592071
 30
0.0
  0
SPLINE
  5
576
100
AcDbEntity
  8
0
100
AcDbSpline
 62
7
  6
CONTINUOUS
 70
0
 71
3
 72
14
 73
10
 74
0
 42
0.0000001
 43
0.0000001
 44
0.0000000001
 40
0.0
 40
0.0
 40
0.0
 40
0.0
 40
0.0970547264
 40
0.2175783642
 40
0.4267413386
 40
0.6454471125
 40
0.8452074418
 40
0.9296558665
 40
1.0
 40
1.0
 40
1.0
 40
1.0
 10
6.1385613732
 20
5.1974070674
 30
0.0
 10
6.1376779774
 20
5.2203241035
 30
0.0
 10
6.1360553061
 20
5.2717132288
 30
0.0
 10
6.1334274072
 20
5.3725180495
 30
0.0
 10
6.1305310752
 20
5.5020712572
 30
0.0
 10
6.1273288399
 20
5.6503453817
 30
0.0
 10
6.1245675747
 20
5.7691526042
 30
0.0
 10
6.122219943
 20
5.8529007564
 30
0.0
 10
6.1210038532
 20
5.8894584842
 30
0.0
 10
6.1203635782
 20
5.9060684847
 30
0.0
  0
SPLINE
  5
577
100
AcDbEntity
  8
0
100
AcDbSpline
 62
7
  6
CONTINUOUS
 70
0
 71
3
 72
18
 73
14
 74
0
 42
0.0000001
 43
0.0000001
 44
0.0000000001
 40
0.0
 40
0.0
 40
0.0
 40
0.0
 40
0.0372825958
 40
0.0840844516
 40
0.1394431152
 40
0.2022231711
 40
0.4215691386
 40
0.5393171585
 40
0.6552477793
 40
0.7640032192
 40
0.8605574417
 40
0.9404489518
 40
1.0
 40
1.0
 40
1.0
 40
1.0
 10
5.9690276022
 20
5.9060684847
 30
0.0
 10
5.9695478094
 20
5.8972726005
 30
0.0
 10
5.970524519
 20
5.8774235769
 30
0.0
 10
5.9718386069
 20
5.8444941165
 30
0.0
 10
5.9731615352
 20
5.805534821
 30
0.0
 10
5.9755559365
 20
5.725810572
 30
0.0
 10
5.9779067054
 20
5.6313343325
 30
0.0
 10
5.9804891787
 20
5.5242991429
 30
0.0
 10
5.9824654419
 20
5.4433934064
 30
0.0
 10
5.9844379813
 20
5.3674981387
 30
0.0
 10
5.9863933553
 20
5.3001224732
 30
0.0
 10
5.9883318217
 20
5.2443817013
 30
0.0
 10
5.9897988119
 20
5.2114566289
 30
0.0
 10
5.9906297327
 20
5.1974070674
 30
0.0
  0
SPLINE
  5
578
100
AcDbEntity
  8
0
100
AcDbSpline
 62
7
  6
CONTINUOUS
 70
0
 71
3
 72
18
 73
14
 74
0
 42
0.0000001
 43
0.0000001
 44
0.0000000001
 40
0.0
 40
0.0
 40
0.0
 40
0.0
 40
0.0372825958
 40
0.0840844516
 40
0.1394431152
 40
0.2022231711
 40
0.4215691386
 40
0.5393171585
 40
0.6552477793
 40
0.7640032192
 40
0.8605574417
 40
0.9404489518
 40
1.0
 40
1.0
 40
1.0
 40
1.0
 10
6.2643031927
 20
5.9060684847
 30
0.0
 10
6.2648233999
 20
5.8972726005
 30
0.0
 10
6.2658001096
 20
5.8774235769
 30
0.0
 10
6.2671141974
 20
5.8444941165
 30
0.0
 10
6.2684371258
 20
5.805534821
 30
0.0
 10
6.270831527
 20
5.725810572
 30
0.0
 10
6.273182296
 20
5.6313343325
 30
0.0
 10
6.2757647692
 20
5.5242991429
 30
0.0
 10
6.2777410324
 20
5.4433934064
 30
0.0
 10
6.2797135719
 20
5.3674981387
 30
0.0
 10
6.2816689458
 20
5.3001224732
 30
0.0
 10
6.2836074123
 20
5.2443817013
 30
0.0
 10
6.2850744025
 20
5.2114566289
 30
0.0
 10
6.2859053233
 20
5.1974070674
 30
0.0
  0
SPLINE
  5
579
100
AcDbEntity
  8
0
100
AcDbSpline
 62
7
  6
CONTINUOUS
 70
0
 71
3
 72
14
 73
10
 74
0
 42
0.0000001
 43
0.0000001
 44
0.0000000001
 40
0.0
 40
0.0
 40
0.0
 40
0.0
 40
0.0970547458
 40
0.2175783968
 40
0.426741326
 40
0.6454470658
 40
0.8452074359
 40
0.9296558662
 40
1.0
 40
1.0
 40
1.0
 40
1.0
 10
6.1129620034
 20
5.9060684847
 30
0.0
 10
6.1138453994
 20
5.883151444
 30
0.0
 10
6.1154680708
 20
5.8317623109
 30
0.0
 10
6.1180959696
 20
5.7309574932
 30
0.0
 10
6.1209923013
 20
5.6014043012
 30
0.0
 10
6.1241945364
 20
5.4531301857
 30
0.0
 10
6.1269558016
 20
5.3343229604
 30
0.0
 10
6.1293034336
 20
5.2505747971
 30
0.0
 10
6.1305195234
 20
5.2140170679
 30
0.0
 10
6.1311597983
 20
5.1974070674
 30
0.0
  0
SPLINE
  5
57A
100
AcDbEntity
  8
0
100
AcDbSpline
 62
7
  6
CONTINUOUS
 70
0
 71
3
 72
14
 73
10
 74
0
 42
0.0000001
 43
0.0000001
 44
0.0000000001
 40
0.0
 40
0.0
 40
0.0
 40
0.0
 40
0.0950006502
 40
0.2122890786
 40
0.3456899375
 40
0.4881758496
 40
0.7703008512
 40
0.8950759269
 40
1.0
 40
1.0
 40
1.0
 40
1.0
 10
6.0204511369
 20
5.1974070674
 30
0.0
 10
6.0196167577
 20
5.2190525186
 30
0.0
 10
6.0180735806
 20
5.2674337081
 30
0.0
 10
6.0159906704
 20
5.3462285096
 30
0.0
 10
6.0138945541
 20
5.4358537855
 30
0.0
 10
6.0110947379
 20
5.5630577077
 30
0.0
 10
6.0083986479
 20
5.688296885
 30
0.0
 10
6.0054916666
 20
5.8049640606
 30
0.0
 10
6.0039629876
 20
5.8573169655
 30
0.0
 10
6.0031501397
 20
5.8812273643
 30
0.0
  0
SPLINE
  5
57B
100
AcDbEntity
  8
0
100
AcDbSpline
 62
7
  6
CONTINUOUS
 70
0
 71
3
 72
10
 73
6
 74
0
 42
0.0000001
 43
0.0000001
 44
0.0000000001
 40
0.0
 40
0.0
 40
0.0
 40
0.0
 40
0.5645622165
 40
0.8032560402
 40
1.0
 40
1.0
 40
1.0
 40
1.0
 10
6.1868771739
 20
5.6264270021
 30
0.0
 10
6.1857093385
 20
5.6790581851
 30
0.0
 10
6.1840126709
 20
5.7539411065
 30
0.0
 10
6.181455862
 20
5.8471538561
 30
0.0
 10
6.1801253621
 20
5.8877361746
 30
0.0
 10
6.1794186964
 20
5.9060684847
 30
0.0
  0
SPLINE
  5
57C
100
AcDbEntity
  8
0
100
AcDbSpline
 62
7
  6
CONTINUOUS
 70
0
 71
3
 72
9
 73
5
 74
0
 42
0.0000001
 43
0.0000001
 44
0.0000000001
 40
0.0
 40
0.0
 40
0.0
 40
0.0
 40
0.444881479
 40
1.0
 40
1.0
 40
1.0
 40
1.0
 10
6.0280827203
 20
5.9060684847
 30
0.0
 10
6.0285809472
 20
5.8976442525
 30
0.0
 10
6.0295201524
 20
5.8786978249
 30
0.0
 10
6.030285478
 20
5.8597442066
 30
0.0
 10
6.0306816858
 20
5.8492216254
 30
0.0
  0
SPLINE
  5
57D
100
AcDbEntity
  8
0
100
AcDbSpline
 62
7
  6
CONTINUOUS
 70
0
 71
3
 72
13
 73
9
 74
0
 42
0.0000001
 43
0.0000001
 44
0.0000000001
 40
0.0
 40
0.0
 40
0.0
 40
0.0
 40
0.3032480415
 40
0.5909474124
 40
0.7190542053
 40
0.8318992947
 40
0.9264029832
 40
1.0
 40
1.0
 40
1.0
 40
1.0
 10
6.2109991711
 20
5.6191718901
 30
0.0
 10
6.2120471035
 20
5.5765319612
 30
0.0
 10
6.2140330424
 20
5.4934370919
 30
0.0
 10
6.2165614745
 20
5.3923312367
 30
0.0
 10
6.2186786796
 20
5.3180048409
 30
0.0
 10
6.2201959808
 20
5.2708460816
 30
0.0
 10
6.2217016727
 20
5.2313587952
 30
0.0
 10
6.2228295054
 20
5.2077406659
 30
0.0
 10
6.2234406563
 20
5.1974070674
 30
0.0
  0
SPLINE
  5
57E
100
AcDbEntity
  8
0
100
AcDbSpline
 62
7
  6
CONTINUOUS
 70
0
 71
3
 72
11
 73
7
 74
0
 42
0.0000001
 43
0.0000001
 44
0.0000000001
 40
0.0
 40
0.0
 40
0.0
 40
0.0
 40
0.1936521816
 40
0.4385146341
 40
0.7147540325
 40
1.0
 40
1.0
 40
1.0
 40
1.0
 10
6.1976164913
 20
5.1974070674
 30
0.0
 10
6.1965494229
 20
5.2250889352
 30
0.0
 10
6.1946423556
 20
5.2877919577
 30
0.0
 10
6.192090739
 20
5.3900072608
 30
0.0
 10
6.1895210303
 20
5.5053288736
 30
0.0
 10
6.187782378
 20
5.5856318979
 30
0.0
 10
6.1868771739
 20
5.6264270021
 30
0.0
  0
SPLINE
  5
57F
100
AcDbEntity
  8
0
100
AcDbSpline
 62
7
  6
CONTINUOUS
 70
0
 71
3
 72
14
 73
10
 74
0
 42
0.0000001
 43
0.0000001
 44
0.0000000001
 40
0.0
 40
0.0
 40
0.0
 40
0.0
 40
0.0970548488
 40
0.2175786299
 40
0.4267421118
 40
0.6454537211
 40
0.8452115109
 40
0.929656891
 40
1.0
 40
1.0
 40
1.0
 40
1.0
 10
5.9613960188
 20
5.1974070674
 30
0.0
 10
5.960512622
 20
5.2203241324
 30
0.0
 10
5.9588899491
 20
5.2717133205
 30
0.0
 10
5.9562620461
 20
5.3725183239
 30
0.0
 10
5.9533656806
 20
5.5020730638
 30
0.0
 10
5.9501634286
 20
5.650348087
 30
0.0
 10
5.9474021491
 20
5.7691553685
 30
0.0
 10
5.9450545508
 20
5.8529019594
 30
0.0
 10
5.9438384895
 20
5.8894587262
 30
0.0
 10
5.9431982239
 20
5.9060684847
 30
0.0
  0
SPLINE
  5
580
100
AcDbEntity
  8
0
100
AcDbSpline
 62
7
  6
CONTINUOUS
 70
0
 71
3
 72
11
 73
7
 74
0
 42
0.0000001
 43
0.0000001
 44
0.0000000001
 40
0.0
 40
0.0
 40
0.0
 40
0.0
 40
0.2261582364
 40
0.4669270305
 40
0.7270059242
 40
1.0
 40
1.0
 40
1.0
 40
1.0
 10
5.7800530269
 20
5.1849918027
 30
0.0
 10
5.7800530269
 20
5.1870994711
 30
0.0
 10
5.7811667209
 20
5.1915078747
 30
0.0
 10
5.7856868674
 20
5.1968101775
 30
0.0
 10
5.7921862674
 20
5.2002551194
 30
0.0
 10
5.7971939139
 20
5.2010419547
 30
0.0
 10
5.7997380662
 20
5.2010419547
 30
0.0
  0
SPLINE
  5
581
100
AcDbEntity
  8
0
100
AcDbSpline
 62
7
  6
CONTINUOUS
 70
0
 71
3
 72
12
 73
8
 74
0
 42
0.0000001
 43
0.0000001
 44
0.0000000001
 40
0.0
 40
0.0
 40
0.0
 40
0.0
 40
0.0741819393
 40
0.1679508174
 40
0.4054575342
 40
0.6913218044
 40
1.0
 40
1.0
 40
1.0
 40
1.0
 10
6.319948762
 20
5.9060684847
 30
0.0
 10
6.3204955032
 20
5.8968239517
 30
0.0
 10
6.3215173848
 20
5.8758814324
 30
0.0
 10
6.3235045056
 20
5.8253039753
 30
0.0
 10
6.32583263
 20
5.748295771
 30
0.0
 10
6.3285178839
 20
5.6444597382
 30
0.0
 10
6.3303005128
 20
5.5702598854
 30
0.0
 10
6.3312341292
 20
5.5317365879
 30
0.0
  0
SPLINE
  5
582
100
AcDbEntity
  8
0
100
AcDbSpline
 62
7
  6
CONTINUOUS
 70
0
 71
3
 72
14
 73
10
 74
0
 42
0.0000001
 43
0.0000001
 44
0.0000000001
 40
0.0
 40
0.0
 40
0.0
 40
0.0
 40
0.0970547523
 40
0.217578389
 40
0.4267406687
 40
0.6454470628
 40
0.8452074677
 40
0.9296558881
 40
1.0
 40
1.0
 40
1.0
 40
1.0
 10
6.1720171216
 20
5.9060684847
 30
0.0
 10
6.1729005175
 20
5.8831514424
 30
0.0
 10
6.1745231889
 20
5.8317623112
 30
0.0
 10
6.1771510837
 20
5.7309576488
 30
0.0
 10
6.1800474163
 20
5.601404459
 30
0.0
 10
6.183249651
 20
5.4531303342
 30
0.0
 10
6.1860109199
 20
5.3343229484
 30
0.0
 10
6.1883585521
 20
5.2505747845
 30
0.0
 10
6.1895746417
 20
5.2140170627
 30
0.0
 10
6.1902149165
 20
5.1974070674
 30
0.0
  0
SPLINE
  5
583
100
AcDbEntity
  8
0
100
AcDbSpline
 62
7
  6
CONTINUOUS
 70
0
 71
3
 72
14
 73
10
 74
0
 42
0.0000001
 43
0.0000001
 44
0.0000000001
 40
0.0
 40
0.0
 40
0.0
 40
0.0
 40
0.0970525809
 40
0.2175728023
 40
0.4267355816
 40
0.6454468069
 40
0.8452072992
 40
0.9296558044
 40
1.0
 40
1.0
 40
1.0
 40
1.0
 10
5.9948517672
 20
5.9060684847
 30
0.0
 10
5.9957351434
 20
5.8831519552
 30
0.0
 10
5.9973577817
 20
5.8317641438
 30
0.0
 10
5.9999856559
 20
5.7309606832
 30
0.0
 10
6.0028820077
 20
5.6014070412
 30
0.0
 10
6.0060842665
 20
5.4531316362
 30
0.0
 10
6.0088455626
 20
5.3343230684
 30
0.0
 10
6.0111931959
 20
5.250574844
 30
0.0
 10
6.0124092866
 20
5.2140170825
 30
0.0
 10
6.0130495621
 20
5.1974070674
 30
0.0
  0
SPLINE
  5
584
100
AcDbEntity
  8
0
100
AcDbSpline
 62
7
  6
CONTINUOUS
 70
0
 71
3
 72
11
 73
7
 74
0
 42
0.0000001
 43
0.0000001
 44
0.0000000001
 40
0.0
 40
0.0
 40
0.0
 40
0.0
 40
0.243396904
 40
0.4906722776
 40
0.7434067011
 40
1.0
 40
1.0
 40
1.0
 40
1.0
 10
6.370604208
 20
5.8863834453
 30
0.0
 10
6.370604208
 20
5.8888072996
 30
0.0
 10
6.3695586199
 20
5.8937514091
 30
0.0
 10
6.3651340141
 20
5.899927984
 30
0.0
 10
6.3585980522
 20
5.9040260228
 30
0.0
 10
6.3534744385
 20
5.9049748714
 30
0.0
 10
6.3509191686
 20
5.9049748714
 30
0.0
  0
SPLINE
  5
585
100
AcDbEntity
  8
0
100
AcDbSpline
 62
7
  6
CONTINUOUS
 70
0
 71
3
 72
11
 73
7
 74
0
 42
0.0000001
 43
0.0000001
 44
0.0000000001
 40
0.0
 40
0.0
 40
0.0
 40
0.0
 40
0.2565930392
 40
0.5093276151
 40
0.7566030509
 40
1.0
 40
1.0
 40
1.0
 40
1.0
 10
6.3509191686
 20
5.1985006807
 30
0.0
 10
6.3534744359
 20
5.1985006807
 30
0.0
 10
6.3585980481
 20
5.1994495289
 30
0.0
 10
6.3651340115
 20
5.2035475647
 30
0.0
 10
6.3695586195
 20
5.2097241415
 30
0.0
 10
6.370604208
 20
5.214668252
 30
0.0
 10
6.370604208
 20
5.2170921067
 30
0.0
  0
SPLINE
  5
586
100
AcDbEntity
  8
0
100
AcDbSpline
 62
7
  6
CONTINUOUS
 70
0
 71
3
 72
18
 73
14
 74
0
 42
0.0000001
 43
0.0000001
 44
0.0000000001
 40
0.0
 40
0.0
 40
0.0
 40
0.0
 40
0.0372825958
 40
0.0840844516
 40
0.1394431152
 40
0.2022231711
 40
0.4215691386
 40
0.5393171585
 40
0.6552477793
 40
0.7640032192
 40
0.8605574417
 40
0.9404489518
 40
1.0
 40
1.0
 40
1.0
 40
1.0
 10
6.2608936439
 20
5.9060684847
 30
0.0
 10
6.2614138511
 20
5.8972726005
 30
0.0
 10
6.2623905607
 20
5.8774235769
 30
0.0
 10
6.2637046486
 20
5.8444941165
 30
0.0
 10
6.265027577
 20
5.805534821
 30
0.0
 10
6.2674219782
 20
5.725810572
 30
0.0
 10
6.2697727471
 20
5.6313343325
 30
0.0
 10
6.2723552204
 20
5.5242991429
 30
0.0
 10
6.2743314836
 20
5.4433934064
 30
0.0
 10
6.2763040231
 20
5.3674981387
 30
0.0
 10
6.278259397
 20
5.3001224732
 30
0.0
 10
6.2801978634
 20
5.2443817013
 30
0.0
 10
6.2816648536
 20
5.2114566289
 30
0.0
 10
6.2824957744
 20
5.1974070674
 30
0.0
  0
SPLINE
  5
587
100
AcDbEntity
  8
0
100
AcDbSpline
 62
7
  6
CONTINUOUS
 70
0
 71
3
 72
14
 73
10
 74
0
 42
0.0000001
 43
0.0000001
 44
0.0000000001
 40
0.0
 40
0.0
 40
0.0
 40
0.0
 40
0.0970525443
 40
0.2175725404
 40
0.4267352355
 40
0.6454468563
 40
0.8452073431
 40
0.9296558226
 40
1.0
 40
1.0
 40
1.0
 40
1.0
 10
6.2566716094
 20
5.1974070674
 30
0.0
 10
6.2557882335
 20
5.2203235882
 30
0.0
 10
6.2541655971
 20
5.2717113378
 30
0.0
 10
6.2515377244
 20
5.3725147166
 30
0.0
 10
6.2486413717
 20
5.5020683789
 30
0.0
 10
6.2454391116
 20
5.6503438561
 30
0.0
 10
6.2426778134
 20
5.76915251
 30
0.0
 10
6.2403301803
 20
5.8529007227
 30
0.0
 10
6.2391140898
 20
5.8894584739
 30
0.0
 10
6.2384738145
 20
5.9060684847
 30
0.0
  0
SPLINE
  5
588
100
AcDbEntity
  8
0
100
AcDbSpline
 62
7
  6
CONTINUOUS
 70
0
 71
3
 72
11
 73
7
 74
0
 42
0.0000001
 43
0.0000001
 44
0.0000000001
 40
0.0
 40
0.0
 40
0.0
 40
0.0
 40
0.2729940758
 40
0.5330729695
 40
0.7738417637
 40
1.0
 40
1.0
 40
1.0
 40
1.0
 10
5.7997380662
 20
5.9024335973
 30
0.0
 10
5.7971939139
 20
5.9024335973
 30
0.0
 10
5.7921862674
 20
5.9032204326
 30
0.0
 10
5.7856868674
 20
5.9066653745
 30
0.0
 10
5.7811667209
 20
5.9119676773
 30
0.0
 10
5.7800530269
 20
5.9163760809
 30
0.0
 10
5.7800530269
 20
5.9184837494
 30
0.0
  0
SPLINE
  5
589
100
AcDbEntity
  8
0
100
AcDbSpline
 62
7
  6
CONTINUOUS
 70
0
 71
3
 72
14
 73
10
 74
0
 42
0.0000001
 43
0.0000001
 44
0.0000000001
 40
0.0
 40
0.0
 40
0.0
 40
0.0
 40
0.0970541758
 40
0.2175740642
 40
0.4267373946
 40
0.645451208
 40
0.8452087218
 40
0.9296558607
 40
1.0
 40
1.0
 40
1.0
 40
1.0
 10
5.876741531
 20
5.9060684847
 30
0.0
 10
5.8776249217
 20
5.8831515786
 30
0.0
 10
5.8792475632
 20
5.8317634689
 30
0.0
 10
5.8818754469
 20
5.7309595801
 30
0.0
 10
5.8847718096
 20
5.601405275
 30
0.0
 10
5.8879740691
 20
5.4531298321
 30
0.0
 10
5.8907353627
 20
5.3343216795
 30
0.0
 10
5.893082971
 20
5.2505744948
 30
0.0
 10
5.8942990509
 20
5.2140170692
 30
0.0
 10
5.8949393259
 20
5.1974070674
 30
0.0
  0
SPLINE
  5
58A
100
AcDbEntity
  8
0
100
AcDbSpline
 62
7
  6
CONTINUOUS
 70
0
 71
3
 72
12
 73
8
 74
0
 42
0.0000001
 43
0.0000001
 44
0.0000000001
 40
0.0
 40
0.0
 40
0.0
 40
0.0
 40
0.0758918926
 40
0.1694583113
 40
0.4032339702
 40
0.6861973556
 40
1.0
 40
1.0
 40
1.0
 40
1.0
 10
6.0837282896
 20
5.9060684847
 30
0.0
 10
6.0841841011
 20
5.89836143
 30
0.0
 10
6.085050227
 20
5.8811435521
 30
0.0
 10
6.0867422923
 20
5.8401570651
 30
0.0
 10
6.0887453854
 20
5.7781017327
 30
0.0
 10
6.0910525208
 20
5.693641849
 30
0.0
 10
6.092554222
 20
5.6329510258
 30
0.0
 10
6.0933329327
 20
5.6010372182
 30
0.0
  0
LINE
  5
58B
100
AcDbEntity
  8
0
100
AcDbLine
 62
7
  6
CONTINUOUS
 10
6.0933329327
 20
5.6010372182
 11
6.0957263595
 21
5.502414463
  0
SPLINE
  5
58C
100
AcDbEntity
  8
0
100
AcDbSpline
 62
7
  6
CONTINUOUS
 70
0
 71
3
 72
12
 73
8
 74
0
 42
0.0000001
 43
0.0000001
 44
0.0000000001
 40
0.0
 40
0.0
 40
0.0
 40
0.0
 40
0.313803836
 40
0.5967661614
 40
0.8305407894
 40
0.9241073228
 40
1.0
 40
1.0
 40
1.0
 40
1.0
 10
6.0957263595
 20
5.502414463
 30
0.0
 10
6.0965050184
 20
5.4705030313
 30
0.0
 10
6.0980066241
 20
5.4098169436
 30
0.0
 10
6.1003136267
 20
5.3253637608
 30
0.0
 10
6.1023166052
 20
5.263313486
 30
0.0
 10
6.1040085677
 20
5.2223302204
 30
0.0
 10
6.1048746395
 20
5.2051135988
 30
0.0
 10
6.1053304201
 20
5.1974070674
 30
0.0
  0
SPLINE
  5
58D
100
AcDbEntity
  8
0
100
AcDbSpline
 62
7
  6
CONTINUOUS
 70
0
 71
3
 72
11
 73
7
 74
0
 42
0.0000001
 43
0.0000001
 44
0.0000000001
 40
0.0
 40
0.0
 40
0.0
 40
0.0
 40
0.2852459675
 40
0.5614853659
 40
0.8063478184
 40
1.0
 40
1.0
 40
1.0
 40
1.0
 10
6.2385307172
 20
5.6264270021
 30
0.0
 10
6.2394359213
 20
5.5856318979
 30
0.0
 10
6.2411745736
 20
5.5053288736
 30
0.0
 10
6.2437442823
 20
5.3900072608
 30
0.0
 10
6.2462958989
 20
5.2877919577
 30
0.0
 10
6.2482029662
 20
5.2250889352
 30
0.0
 10
6.2492700346
 20
5.1974070674
 30
0.0
  0
SPLINE
  5
58E
100
AcDbEntity
  8
0
100
AcDbSpline
 62
7
  6
CONTINUOUS
 70
0
 71
3
 72
18
 73
14
 74
0
 42
0.0000001
 43
0.0000001
 44
0.0000000001
 40
0.0
 40
0.0
 40
0.0
 40
0.0
 40
0.0372825958
 40
0.0840844516
 40
0.1394431152
 40
0.2022231711
 40
0.4215691386
 40
0.5393171585
 40
0.6552477793
 40
0.7640032192
 40
0.8605574417
 40
0.9404489518
 40
1.0
 40
1.0
 40
1.0
 40
1.0
 10
6.1427834077
 20
5.9060684847
 30
0.0
 10
6.1433036149
 20
5.8972726005
 30
0.0
 10
6.1442803245
 20
5.8774235769
 30
0.0
 10
6.1455944124
 20
5.8444941165
 30
0.0
 10
6.1469173407
 20
5.805534821
 30
0.0
 10
6.149311742
 20
5.725810572
 30
0.0
 10
6.1516625109
 20
5.6313343325
 30
0.0
 10
6.1542449842
 20
5.5242991429
 30
0.0
 10
6.1562212474
 20
5.4433934064
 30
0.0
 10
6.1581937868
 20
5.3674981387
 30
0.0
 10
6.1601491608
 20
5.3001224732
 30
0.0
 10
6.1620876272
 20
5.2443817013
 30
0.0
 10
6.1635546174
 20
5.2114566289
 30
0.0
 10
6.1643855382
 20
5.1974070674
 30
0.0
  0
SPLINE
  5
58F
100
AcDbEntity
  8
0
100
AcDbSpline
 62
7
  6
CONTINUOUS
 70
0
 71
3
 72
10
 73
6
 74
0
 42
0.0000001
 43
0.0000001
 44
0.0000000001
 40
0.0
 40
0.0
 40
0.0
 40
0.0
 40
0.1967439598
 40
0.4354377835
 40
1.0
 40
1.0
 40
1.0
 40
1.0
 10
6.2310722397
 20
5.9060684847
 30
0.0
 10
6.2317789054
 20
5.8877361746
 30
0.0
 10
6.2331094053
 20
5.8471538561
 30
0.0
 10
6.2356662142
 20
5.7539411065
 30
0.0
 10
6.2373628818
 20
5.6790581851
 30
0.0
 10
6.2385307172
 20
5.6264270021
 30
0.0
  0
SPLINE
  5
590
100
AcDbEntity
  8
0
100
AcDbSpline
 62
7
  6
CONTINUOUS
 70
0
 71
3
 72
12
 73
8
 74
0
 42
0.0000001
 43
0.0000001
 44
0.0000000001
 40
0.0
 40
0.0
 40
0.0
 40
0.0
 40
0.0765342266
 40
0.1702217723
 40
0.4032675251
 40
0.685407164
 40
1.0
 40
1.0
 40
1.0
 40
1.0
 10
6.2018385258
 20
5.9060684847
 30
0.0
 10
6.2022708732
 20
5.8987581706
 30
0.0
 10
6.2030957631
 20
5.8824911032
 30
0.0
 10
6.2047092667
 20
5.8439384775
 30
0.0
 10
6.2066247232
 20
5.7857097839
 30
0.0
 10
6.2088303083
 20
5.706344088
 30
0.0
 10
6.2102596117
 20
5.649264251
 30
0.0
 10
6.2109991711
 20
5.6191718901
 30
0.0
  0
SPLINE
  5
591
100
AcDbEntity
  8
0
100
AcDbSpline
 62
7
  6
CONTINUOUS
 70
0
 71
3
 72
14
 73
10
 74
0
 42
0.0000001
 43
0.0000001
 44
0.0000000001
 40
0.0
 40
0.0
 40
0.0
 40
0.0
 40
0.0970547536
 40
0.2175784056
 40
0.426740798
 40
0.6454470298
 40
0.8452074408
 40
0.9296558754
 40
1.0
 40
1.0
 40
1.0
 40
1.0
 10
6.079506255
 20
5.1974070674
 30
0.0
 10
6.078622859
 20
5.2203241099
 30
0.0
 10
6.0770001875
 20
5.271713245
 30
0.0
 10
6.074372292
 20
5.3725179381
 30
0.0
 10
6.0714759598
 20
5.5020711197
 30
0.0
 10
6.0682737252
 20
5.6503452343
 30
0.0
 10
6.0655124571
 20
5.7691525865
 30
0.0
 10
6.0631648248
 20
5.8529007582
 30
0.0
 10
6.061948735
 20
5.8894584863
 30
0.0
 10
6.0613084601
 20
5.9060684847
 30
0.0
  0
SPLINE
  5
592
100
AcDbEntity
  8
0
100
AcDbSpline
 62
7
  6
CONTINUOUS
 70
0
 71
3
 72
16
 73
12
 74
0
 42
0.0000001
 43
0.0000001
 44
0.0000000001
 40
0.0
 40
0.0
 40
0.0
 40
0.0
 40
0.1102705698
 40
0.2425079507
 40
0.3883256642
 40
0.5384638004
 40
0.6833893295
 40
0.8139004477
 40
0.9217132421
 40
0.9649082727
 40
1.0
 40
1.0
 40
1.0
 40
1.0
 10
6.027272137
 20
5.8492216254
 30
0.0
 10
6.0281740162
 20
5.825269303
 30
0.0
 10
6.0298514353
 20
5.7725818467
 30
0.0
 10
6.0321354535
 20
5.6882031821
 30
0.0
 10
6.0344316895
 20
5.5951559143
 30
0.0
 10
6.0367333911
 20
5.4993500861
 30
0.0
 10
6.0390282416
 20
5.406872102
 30
0.0
 10
6.041311707
 20
5.3235972691
 30
0.0
 10
6.0432945453
 20
5.2624352412
 30
0.0
 10
6.0449684145
 20
5.222017599
 30
0.0
 10
6.0458249635
 20
5.2050215814
 30
0.0
 10
6.046275302
 20
5.1974070674
 30
0.0
  0
SPLINE
  5
593
100
AcDbEntity
  8
0
100
AcDbSpline
 62
7
  6
CONTINUOUS
 70
0
 71
3
 72
16
 73
12
 74
0
 42
0.0000001
 43
0.0000001
 44
0.0000000001
 40
0.0
 40
0.0
 40
0.0
 40
0.0
 40
0.1102705698
 40
0.2425079507
 40
0.3883256642
 40
0.5384638004
 40
0.6833893295
 40
0.8139004477
 40
0.9217132421
 40
0.9649082727
 40
1.0
 40
1.0
 40
1.0
 40
1.0
 10
6.0306816858
 20
5.8492216254
 30
0.0
 10
6.031583565
 20
5.825269303
 30
0.0
 10
6.0332609841
 20
5.7725818467
 30
0.0
 10
6.0355450023
 20
5.6882031821
 30
0.0
 10
6.0378412383
 20
5.5951559143
 30
0.0
 10
6.0401429399
 20
5.4993500861
 30
0.0
 10
6.0424377904
 20
5.406872102
 30
0.0
 10
6.0447212558
 20
5.3235972691
 30
0.0
 10
6.0467040941
 20
5.2624352412
 30
0.0
 10
6.0483779633
 20
5.222017599
 30
0.0
 10
6.0492345124
 20
5.2050215814
 30
0.0
 10
6.0496848508
 20
5.1974070674
 30
0.0
  0
SPLINE
  5
594
100
AcDbEntity
  8
0
100
AcDbSpline
 62
7
  6
CONTINUOUS
 70
0
 71
3
 72
12
 73
8
 74
0
 42
0.0000001
 43
0.0000001
 44
0.0000000001
 40
0.0
 40
0.0
 40
0.0
 40
0.0
 40
0.0758946551
 40
0.1694614782
 40
0.4032335089
 40
0.6861931628
 40
1.0
 40
1.0
 40
1.0
 40
1.0
 10
6.0871378384
 20
5.9060684847
 30
0.0
 10
6.087593541
 20
5.8983632721
 30
0.0
 10
6.0884594764
 20
5.8811498162
 30
0.0
 10
6.0901511797
 20
5.8401746683
 30
0.0
 10
6.0921538697
 20
5.7781371387
 30
0.0
 10
6.0944605376
 20
5.6937008423
 30
0.0
 10
6.0959619028
 20
5.6330266886
 30
0.0
 10
6.0967404312
 20
5.6011212445
 30
0.0
  0
SPLINE
  5
595
100
AcDbEntity
  8
0
100
AcDbSpline
 62
7
  6
CONTINUOUS
 70
0
 71
3
 72
12
 73
8
 74
0
 42
0.0000001
 43
0.0000001
 44
0.0000000001
 40
0.0
 40
0.0
 40
0.0
 40
0.0
 40
0.3055050343
 40
0.5925162427
 40
0.8320657623
 40
0.9262332297
 40
1.0
 40
1.0
 40
1.0
 40
1.0
 10
6.0967404312
 20
5.6011212445
 30
0.0
 10
6.097743787
 20
5.5600019815
 30
0.0
 10
6.099649293
 20
5.4802515604
 30
0.0
 10
6.102491822
 20
5.3682631549
 30
0.0
 10
6.1049545536
 20
5.2847267471
 30
0.0
 10
6.1070658889
 20
5.2299058839
 30
0.0
 10
6.1081536207
 20
5.2073212922
 30
0.0
 10
6.1087399689
 20
5.1974070674
 30
0.0
  0
SPLINE
  5
596
100
AcDbEntity
  8
0
100
AcDbSpline
 62
7
  6
CONTINUOUS
 70
0
 71
3
 72
12
 73
8
 74
0
 42
0.0000001
 43
0.0000001
 44
0.0000000001
 40
0.0
 40
0.0
 40
0.0
 40
0.0
 40
0.0765342266
 40
0.1702217723
 40
0.4032675251
 40
0.685407164
 40
1.0
 40
1.0
 40
1.0
 40
1.0
 10
6.2052480746
 20
5.9060684847
 30
0.0
 10
6.205680422
 20
5.8987581706
 30
0.0
 10
6.206505312
 20
5.8824911032
 30
0.0
 10
6.2081188155
 20
5.8439384775
 30
0.0
 10
6.2100342721
 20
5.7857097839
 30
0.0
 10
6.2122398571
 20
5.706344088
 30
0.0
 10
6.2136691605
 20
5.649264251
 30
0.0
 10
6.2144087199
 20
5.6191718901
 30
0.0
  0
SPLINE
  5
597
100
AcDbEntity
  8
0
100
AcDbSpline
 62
7
  6
CONTINUOUS
 70
0
 71
3
 72
18
 73
14
 74
0
 42
0.0000001
 43
0.0000001
 44
0.0000000001
 40
0.0
 40
0.0
 40
0.0
 40
0.0
 40
0.0372825958
 40
0.0840844516
 40
0.1394431152
 40
0.2022231711
 40
0.4215691386
 40
0.5393171585
 40
0.6552477793
 40
0.7640032192
 40
0.8605574417
 40
0.9404489518
 40
1.0
 40
1.0
 40
1.0
 40
1.0
 10
6.1461929565
 20
5.9060684847
 30
0.0
 10
6.1467131637
 20
5.8972726005
 30
0.0
 10
6.1476898733
 20
5.8774235769
 30
0.0
 10
6.1490039612
 20
5.8444941165
 30
0.0
 10
6.1503268896
 20
5.805534821
 30
0.0
 10
6.1527212908
 20
5.725810572
 30
0.0
 10
6.1550720598
 20
5.6313343325
 30
0.0
 10
6.157654533
 20
5.5242991429
 30
0.0
 10
6.1596307962
 20
5.4433934064
 30
0.0
 10
6.1616033357
 20
5.3674981387
 30
0.0
 10
6.1635587096
 20
5.3001224732
 30
0.0
 10
6.1654971761
 20
5.2443817013
 30
0.0
 10
6.1669641662
 20
5.2114566289
 30
0.0
 10
6.167795087
 20
5.1974070674
 30
0.0
  0
SPLINE
  5
598
100
AcDbEntity
  8
0
100
AcDbSpline
 62
7
  6
CONTINUOUS
 70
0
 71
3
 72
10
 73
6
 74
0
 42
0.0000001
 43
0.0000001
 44
0.0000000001
 40
0.0
 40
0.0
 40
0.0
 40
0.0
 40
0.4999497064
 40
0.7499732853
 40
1.0
 40
1.0
 40
1.0
 40
1.0
 10
10.4563095781
 20
5.6018953387
 30
0.0
 10
10.4578268201
 20
5.6135139847
 30
0.0
 10
10.4608048033
 20
5.6308611911
 30
0.0
 10
10.4661005087
 20
5.6536959841
 30
0.0
 10
10.4691618881
 20
5.6650106063
 30
0.0
 10
10.4707211485
 20
5.6706592071
 30
0.0
  0
SPLINE
  5
599
100
AcDbEntity
  8
0
100
AcDbSpline
 62
7
  6
CONTINUOUS
 70
0
 71
3
 72
11
 73
7
 74
0
 42
0.0000001
 43
0.0000001
 44
0.0000000001
 40
0.0
 40
0.0
 40
0.0
 40
0.0
 40
0.2499631972
 40
0.4999370172
 40
0.7499399406
 40
1.0
 40
1.0
 40
1.0
 40
1.0
 10
10.4707211485
 20
5.6706592071
 30
0.0
 10
10.477476872
 20
5.695132595
 30
0.0
 10
10.4958594728
 20
5.7428783974
 30
0.0
 10
10.5367477047
 20
5.8076930856
 30
0.0
 10
10.5893230427
 20
5.8634537014
 30
0.0
 10
10.6308815256
 20
5.8932845259
 30
0.0
 10
10.6528282012
 20
5.9060684847
 30
0.0
  0
SPLINE
  5
59A
100
AcDbEntity
  8
0
100
AcDbSpline
 62
7
  6
CONTINUOUS
 70
0
 71
3
 72
11
 73
7
 74
0
 42
0.0000001
 43
0.0000001
 44
0.0000000001
 40
0.0
 40
0.0
 40
0.0
 40
0.0
 40
0.2500387557
 40
0.500031319
 40
0.7500117452
 40
1.0
 40
1.0
 40
1.0
 40
1.0
 10
11.0620446131
 20
5.9060684847
 30
0.0
 10
11.0836871255
 20
5.8936755046
 30
0.0
 10
11.124834584
 20
5.8649389582
 30
0.0
 10
11.1778633161
 20
5.8116362736
 30
0.0
 10
11.2206918113
 20
5.7498498601
 30
0.0
 10
11.2416163351
 20
5.7042528826
 30
0.0
 10
11.2500040241
 20
5.6807714059
 30
0.0
  0
SPLINE
  5
59B
100
AcDbEntity
  8
0
100
AcDbSpline
 62
7
  6
CONTINUOUS
 70
0
 71
3
 72
15
 73
11
 74
0
 42
0.0000001
 43
0.0000001
 44
0.0000000001
 40
0.0
 40
0.0
 40
0.0
 40
0.0
 40
0.124995657
 40
0.2500086413
 40
0.3750093673
 40
0.5000118072
 40
0.62501149
 40
0.7500057436
 40
0.8750075717
 40
1.0
 40
1.0
 40
1.0
 40
1.0
 10
10.6445606637
 20
5.1974070674
 30
0.0
 10
10.6302261444
 20
5.2060994492
 30
0.0
 10
10.6026067524
 20
5.2252924414
 30
0.0
 10
10.5651134102
 20
5.2590050103
 30
0.0
 10
10.5321358606
 20
5.2971596924
 30
0.0
 10
10.50422768
 20
5.3391620794
 30
0.0
 10
10.481864643
 20
5.3843617797
 30
0.0
 10
10.465434713
 20
5.4320432249
 30
0.0
 10
10.4552438919
 20
5.4814275278
 30
0.0
 10
10.4527410719
 20
5.5149736717
 30
0.0
 10
10.4525796193
 20
5.5317365879
 30
0.0
  0
SPLINE
  5
59C
100
AcDbEntity
  8
0
100
AcDbSpline
 62
7
  6
CONTINUOUS
 70
0
 71
3
 72
10
 73
6
 74
0
 42
0.0000001
 43
0.0000001
 44
0.0000000001
 40
0.0
 40
0.0
 40
0.0
 40
0.0
 40
0.2500282558
 40
0.5000511102
 40
1.0
 40
1.0
 40
1.0
 40
1.0
 10
10.4525796193
 20
5.5317365879
 30
0.0
 10
10.4525231821
 20
5.537596214
 30
0.0
 10
10.4524701237
 20
5.5493175755
 30
0.0
 10
10.4532157161
 20
5.572746537
 30
0.0
 10
10.4547923387
 20
5.5902767122
 30
0.0
 10
10.4563095781
 20
5.6018953387
 30
0.0
  0
SPLINE
  5
59D
100
AcDbEntity
  8
02___PRT_ALL_AXES
100
AcDbSpline
 62
7
  6
CONTINUOUS
 70
0
 71
3
 72
15
 73
11
 74
0
 42
0.0000001
 43
0.0000001
 44
0.0000000001
 40
0.0
 40
0.0
 40
0.0
 40
0.0
 40
0.1485858149
 40
0.289508833
 40
0.4227238294
 40
0.5486431989
 40
0.66800232
 40
0.7819395407
 40
0.8919880761
 40
1.0
 40
1.0
 40
1.0
 40
1.0
 10
14.4605791156
 20
6.1682415518
 30
0.0
 10
14.4588086372
 20
6.1692637149
 30
0.0
 10
14.4554390374
 20
6.1713994702
 30
0.0
 10
14.4508323654
 20
6.1749649945
 30
0.0
 10
14.4468478394
 20
6.178778911
 30
0.0
 10
14.4435252094
 20
6.1828061826
 30
0.0
 10
14.4408983242
 20
6.1870112296
 30
0.0
 10
14.4389968044
 20
6.1913559355
 30
0.0
 10
14.4378448938
 20
6.1957963231
 30
0.0
 10
14.4375868505
 20
6.1988026049
 30
0.0
 10
14.4375868508
 20
6.2002887182
 30
0.0
  0
SPLINE
  5
59E
100
AcDbEntity
  8
02___PRT_ALL_AXES
100
AcDbSpline
 62
7
  6
CONTINUOUS
 70
0
 71
3
 72
27
 73
23
 74
0
 42
0.0000001
 43
0.0000001
 44
0.0000000001
 40
0.0
 40
0.0
 40
0.0
 40
0.0
 40
0.0213294402
 40
0.0428873783
 40
0.0648900013
 40
0.0875322088
 40
0.1109788178
 40
0.1353630782
 40
0.1607831064
 40
0.1873058765
 40
0.2437371539
 40
0.304678278
 40
0.3697589517
 40
0.438348919
 40
0.5096278884
 40
0.5826445193
 40
0.6563683167
 40
0.7297377515
 40
0.8017065891
 40
0.8712920604
 40
0.9376228446
 40
1.0
 40
1.0
 40
1.0
 40
1.0
 10
14.5945866829
 20
6.2002887175
 30
0.0
 10
14.5945866826
 20
6.199175114
 30
0.0
 10
14.5944431197
 20
6.1969333834
 30
0.0
 10
14.5937988276
 20
6.1935987811
 30
0.0
 10
14.59273071
 20
6.1903027102
 30
0.0
 10
14.5912450584
 20
6.1870646895
 30
0.0
 10
14.5893520628
 20
6.1839016971
 30
0.0
 10
14.5870623789
 20
6.1808309689
 30
0.0
 10
14.5843896404
 20
6.1778678806
 30
0.0
 10
14.5802494394
 20
6.1740027013
 30
0.0
 10
14.5741597381
 20
6.1695527106
 30
0.0
 10
14.5657714831
 20
6.1649906528
 30
0.0
 10
14.556328248
 20
6.161186178
 30
0.0
 10
14.5460301758
 20
6.1582183172
 30
0.0
 10
14.5350944591
 20
6.1561485597
 30
0.0
 10
14.5237535707
 20
6.1550207565
 30
0.0
 10
14.5122491323
 20
6.1548588441
 30
0.0
 10
14.5008265355
 20
6.1556663272
 30
0.0
 10
14.4897294562
 20
6.1574258787
 30
0.0
 10
14.479193391
 20
6.1601006288
 30
0.0
 10
14.4694435309
 20
6.1636332103
 30
0.0
 10
14.4633995098
 20
6.1666132333
 30
0.0
 10
14.4605791156
 20
6.1682415518
 30
0.0
  0
SPLINE
  5
59F
100
AcDbEntity
  8
0
100
AcDbSpline
 62
7
  6
CONTINUOUS
 70
0
 71
3
 72
36
 73
32
 74
0
 42
0.0000001
 43
0.0000001
 44
0.0000000001
 40
0.0
 40
0.0
 40
0.0
 40
0.0
 40
0.0287955406
 40
0.0584358281
 40
0.0888630346
 40
0.120022915
 40
0.1843174524
 40
0.2173408636
 40
0.2508490098
 40
0.284766371
 40
0.319014515
 40
0.3535131406
 40
0.3881791292
 40
0.4229283509
 40
0.4576762822
 40
0.5268190856
 40
0.5949520921
 40
0.6284453863
 40
0.6614515827
 40
0.6938991922
 40
0.7257223149
 40
0.7568590106
 40
0.7872550557
 40
0.8168625198
 40
0.8456413426
 40
0.8735618885
 40
0.9006028225
 40
0.9267562201
 40
0.9520256965
 40
0.9764289178
 40
1.0
 40
1.0
 40
1.0
 40
1.0
 10
14.7007360876
 20
7.8690810678
 30
0.0
 10
14.6969590727
 20
7.8669004202
 30
0.0
 10
14.6891751618
 20
7.862678576
 30
0.0
 10
14.6770386509
 20
7.8568494315
 30
0.0
 10
14.6643131507
 20
7.8514536139
 30
0.0
 10
14.6464419598
 20
7.8447970819
 30
0.0
 10
14.627783839
 20
7.8391811722
 30
0.0
 10
14.6085067311
 20
7.8345830843
 30
0.0
 10
14.593580531
 20
7.8316186953
 30
0.0
 10
14.5783721336
 20
7.8291803135
 30
0.0
 10
14.5629364845
 20
7.8272759748
 30
0.0
 10
14.5473298283
 20
7.8259140623
 30
0.0
 10
14.5316092385
 20
7.8250978033
 30
0.0
 10
14.5158317855
 20
7.8248316091
 30
0.0
 10
14.4948335351
 20
7.8252099119
 30
0.0
 10
14.4688208833
 20
7.8270417943
 30
0.0
 10
14.4431904737
 20
7.8306902476
 30
0.0
 10
14.4231907341
 20
7.8346875322
 30
0.0
 10
14.4086137469
 20
7.8381829099
 30
0.0
 10
14.3944291357
 20
7.8421808823
 30
0.0
 10
14.38068795
 20
7.846665219
 30
0.0
 10
14.3674407408
 20
7.8516212979
 30
0.0
 10
14.3547354503
 20
7.8570301178
 30
0.0
 10
14.3426182211
 20
7.8628720788
 30
0.0
 10
14.3311336784
 20
7.8691271546
 30
0.0
 10
14.3203227122
 20
7.8757710557
 30
0.0
 10
14.3102256377
 20
7.8827817639
 30
0.0
 10
14.3008785845
 20
7.8901328481
 30
0.0
 10
14.2923155689
 20
7.8977985637
 30
0.0
 10
14.2845693848
 20
7.9057516706
 30
0.0
 10
14.2798886361
 20
7.9113201299
 30
0.0
 10
14.2777025158
 20
7.9141425372
 30
0.0
  0
SPLINE
  5
5A0
100
AcDbEntity
  8
0
100
AcDbSpline
 62
7
  6
CONTINUOUS
 70
0
 71
3
 72
10
 73
6
 74
0
 42
0.0000001
 43
0.0000001
 44
0.0000000001
 40
0.0
 40
0.0
 40
0.0
 40
0.0
 40
0.258649117
 40
0.5116501851
 40
1.0
 40
1.0
 40
1.0
 40
1.0
 10
14.7007360876
 20
7.8690810678
 30
0.0
 10
14.7033869381
 20
7.8706115279
 30
0.0
 10
14.708574945
 20
7.8737376145
 30
0.0
 10
14.7184643374
 20
7.8802405658
 30
0.0
 10
14.72549897
 20
7.8855074997
 30
0.0
 10
14.7299588838
 20
7.8891829975
 30
0.0
  0
SPLINE
  5
5A1
100
AcDbEntity
  8
0
100
AcDbSpline
 62
7
  6
CONTINUOUS
 70
0
 71
3
 72
16
 73
12
 74
0
 42
0.0000001
 43
0.0000001
 44
0.0000000001
 40
0.0
 40
0.0
 40
0.0
 40
0.0
 40
0.2483580942
 40
0.3127618183
 40
0.3776120751
 40
0.5073443645
 40
0.6352295206
 40
0.7596997769
 40
0.8807582737
 40
0.9405007963
 40
1.0
 40
1.0
 40
1.0
 40
1.0
 10
14.8471355458
 20
9.4052389957
 30
0.0
 10
14.7865727957
 20
9.4402041248
 30
0.0
 10
14.7008770318
 20
9.4691679177
 30
0.0
 10
14.5956876843
 20
9.484271692
 30
0.0
 10
14.522858606
 20
9.4893201325
 30
0.0
 10
14.4317986978
 20
9.4857647181
 30
0.0
 10
14.3256522441
 20
9.4658573953
 30
0.0
 10
14.2262308853
 20
9.4301986864
 30
0.0
 10
14.1514026637
 20
9.3866219376
 30
0.0
 10
14.0991043551
 20
9.3435016293
 30
0.0
 10
14.075796097
 20
9.3191950928
 30
0.0
 10
14.0649838463
 20
9.3063976431
 30
0.0
  0
SPLINE
  5
5A2
100
AcDbEntity
  8
0
100
AcDbSpline
 62
7
  6
CONTINUOUS
 70
0
 71
3
 72
9
 73
5
 74
0
 42
0.0000001
 43
0.0000001
 44
0.0000000001
 40
0.0
 40
0.0
 40
0.0
 40
0.0
 40
0.4974447349
 40
1.0
 40
1.0
 40
1.0
 40
1.0
 10
14.9671896874
 20
9.3063976431
 30
0.0
 10
14.9504860814
 20
9.3261681389
 30
0.0
 10
14.9129621956
 20
9.3627009537
 30
0.0
 10
14.869780505
 20
9.3921652182
 30
0.0
 10
14.8471355458
 20
9.4052389957
 30
0.0
  0
SPLINE
  5
5A3
100
AcDbEntity
  8
AXIS
100
AcDbSpline
 62
7
  6
CONTINUOUS
 70
0
 71
3
 72
14
 73
10
 74
0
 42
0.0000001
 43
0.0000001
 44
0.0000000001
 40
0.0
 40
0.0
 40
0.0
 40
0.0
 40
0.1080467148
 40
0.2181305
 40
0.3321045455
 40
0.4515005807
 40
0.5774616912
 40
0.7107258506
 40
1.0
 40
1.0
 40
1.0
 40
1.0
 10
13.9255357049
 20
8.925271873
 30
0.0
 10
13.9255355122
 20
8.9140919109
 30
0.0
 10
13.9274776055
 20
8.8914758311
 30
0.0
 10
13.9361433088
 20
8.8580711354
 30
0.0
 10
13.9504480047
 20
8.8253858906
 30
0.0
 10
13.9702092723
 20
8.7937521417
 30
0.0
 10
13.9952083954
 20
8.7634522228
 30
0.0
 10
14.0362804072
 20
8.7241427122
 30
0.0
 10
14.0725835831
 20
8.6991486434
 30
0.0
 10
14.0985057606
 20
8.6841828058
 30
0.0
  0
SPLINE
  5
5A4
100
AcDbEntity
  8
AXIS
100
AcDbSpline
 62
7
  6
CONTINUOUS
 70
0
 71
3
 72
11
 73
7
 74
0
 42
0.0000001
 43
0.0000001
 44
0.0000000001
 40
0.0
 40
0.0
 40
0.0
 40
0.0
 40
0.2500039505
 40
0.4999980185
 40
0.7499960173
 40
1.0
 40
1.0
 40
1.0
 40
1.0
 10
13.9255355857
 20
8.9252718731
 30
0.0
 10
13.9255355857
 20
8.9597513811
 30
0.0
 10
13.931603876
 20
9.0288606419
 30
0.0
 10
13.958647563
 20
9.1292302956
 30
0.0
 10
14.0027655678
 20
9.2233527335
 30
0.0
 10
14.0427317009
 20
9.2800598602
 30
0.0
 10
14.0649838463
 20
9.3063976431
 30
0.0
  0
SPLINE
  5
5A5
100
AcDbEntity
  8
AXIS
100
AcDbSpline
 62
7
  6
CONTINUOUS
 70
0
 71
3
 72
24
 73
20
 74
0
 42
0.0000001
 43
0.0000001
 44
0.0000000001
 40
0.0
 40
0.0
 40
0.0
 40
0.0
 40
0.0213191546
 40
0.042846334
 40
0.0872291397
 40
0.1345593496
 40
0.1857346028
 40
0.2411997373
 40
0.3010053538
 40
0.3648854343
 40
0.4323293455
 40
0.5026434304
 40
0.5750024891
 40
0.6484944457
 40
0.7221613981
 40
0.7950384875
 40
0.8661924328
 40
0.9347621856
 40
1.0
 40
1.0
 40
1.0
 40
1.0
 10
15.1066378288
 20
8.9252718731
 30
0.0
 10
15.106637691
 20
8.9172802639
 30
0.0
 10
15.1056538874
 20
8.9012010241
 30
0.0
 10
15.0997272096
 20
8.8689776421
 30
0.0
 10
15.0846105933
 20
8.8288859556
 30
0.0
 10
15.0553873331
 20
8.7836003899
 30
0.0
 10
15.0156599265
 20
8.7413585809
 30
0.0
 10
14.9662746627
 20
8.7028867724
 30
0.0
 10
14.9081983512
 20
8.6688358646
 30
0.0
 10
14.8425423769
 20
8.6398173917
 30
0.0
 10
14.7705641907
 20
8.616367635
 30
0.0
 10
14.6936492345
 20
8.5989310146
 30
0.0
 10
14.6132851169
 20
8.5878427701
 30
0.0
 10
14.5310315092
 20
8.5833172131
 30
0.0
 10
14.4484870804
 20
8.5854420858
 30
0.0
 10
14.3672577924
 20
8.594176043
 30
0.0
 10
14.2889176711
 20
8.6093512463
 30
0.0
 10
14.2149964767
 20
8.6306701302
 30
0.0
 10
14.1682848208
 20
8.6492353741
 30
0.0
 10
14.1461024628
 20
8.659529984
 30
0.0
  0
SPLINE
  5
5A6
100
AcDbEntity
  8
0
100
AcDbSpline
 62
7
  6
CONTINUOUS
 70
0
 71
3
 72
26
 73
22
 74
0
 42
0.0000001
 43
0.0000001
 44
0.0000000001
 40
0.0
 40
0.0
 40
0.0
 40
0.0
 40
0.0657175625
 40
0.1362146315
 40
0.2103755999
 40
0.2868136133
 40
0.3639971946
 40
0.4403472394
 40
0.514337127
 40
0.5845949215
 40
0.650016646
 40
0.7099012869
 40
0.7641177884
 40
0.8132983856
 40
0.8365045631
 40
0.8591086362
 40
0.8814298936
 40
0.9038087473
 40
0.9265812763
 40
0.9500548434
 40
1.0
 40
1.0
 40
1.0
 40
1.0
 10
14.1611858555
 20
8.9744584384
 30
0.0
 10
14.1828239406
 20
8.9619659667
 30
0.0
 10
14.2297463177
 20
8.9395761232
 30
0.0
 10
14.3059141729
 20
8.914596651
 30
0.0
 10
14.3884102937
 20
8.897596133
 30
0.0
 10
14.4747446662
 20
8.8890936166
 30
0.0
 10
14.5623259419
 20
8.8893398165
 30
0.0
 10
14.6485136824
 20
8.8983286287
 30
0.0
 10
14.7307163372
 20
8.9157895226
 30
0.0
 10
14.8064755592
 20
8.9412071008
 30
0.0
 10
14.8735462223
 20
8.9738456294
 30
0.0
 10
14.9299606302
 20
9.0128254563
 30
0.0
 10
14.9740316573
 20
9.0571204148
 30
0.0
 10
14.9997256359
 20
9.0984888794
 30
0.0
 10
15.0120605577
 20
9.1325502495
 30
0.0
 10
15.0172860881
 20
9.1580199704
 30
0.0
 10
15.0185901034
 20
9.1836749991
 30
0.0
 10
15.0159650594
 20
9.2092914489
 30
0.0
 10
15.0094339176
 20
9.2346518008
 30
0.0
 10
14.9953462827
 20
9.2685040244
 30
0.0
 10
14.9794435533
 20
9.2918921975
 30
0.0
 10
14.9671891003
 20
9.3063974777
 30
0.0
  0
SPLINE
  5
5A7
100
AcDbEntity
  8
0
100
AcDbSpline
 62
7
  6
CONTINUOUS
 70
0
 71
3
 72
29
 73
25
 74
0
 42
0.0000001
 43
0.0000001
 44
0.0000000001
 40
0.0
 40
0.0
 40
0.0
 40
0.0
 40
0.0665384115
 40
0.1383277798
 40
0.2138963611
 40
0.2914311634
 40
0.3689659964
 40
0.444533821
 40
0.5163256574
 40
0.5828616926
 40
0.6431947625
 40
0.6709900274
 40
0.6972612197
 40
0.7221637169
 40
0.7459351328
 40
0.7688951436
 40
0.7914304251
 40
0.8139657473
 40
0.8369257233
 40
0.8606972104
 40
0.8856004254
 40
0.9118706732
 40
0.9396645282
 40
1.0
 40
1.0
 40
1.0
 40
1.0
 10
14.7617873978
 20
9.4087073924
 30
0.0
 10
14.7449666004
 20
9.4184186647
 30
0.0
 10
14.7081863365
 20
9.4355459368
 30
0.0
 10
14.6482910883
 20
9.4537490135
 30
0.0
 10
14.583446089
 20
9.4649550243
 30
0.0
 10
14.5160856192
 20
9.4687357964
 30
0.0
 10
14.448723547
 20
9.4649539127
 30
0.0
 10
14.3838834029
 20
9.4537511714
 30
0.0
 10
14.3239703184
 20
9.4355359067
 30
0.0
 10
14.2712091413
 20
9.4109748849
 30
0.0
 10
14.2337777141
 20
9.3851968836
 30
0.0
 10
14.209604816
 20
9.362064596
 30
0.0
 10
14.1948977363
 20
9.3442364884
 30
0.0
 10
14.1832695556
 20
9.3256236326
 30
0.0
 10
14.1748534837
 20
9.3063931013
 30
0.0
 10
14.1697552311
 20
9.2867335622
 30
0.0
 10
14.1680458628
 20
9.2668520605
 30
0.0
 10
14.1697555953
 20
9.2469706039
 30
0.0
 10
14.1748539752
 20
9.2273111041
 30
0.0
 10
14.1832703745
 20
9.2080803706
 30
0.0
 10
14.1948989713
 20
9.1894681813
 30
0.0
 10
14.2096065351
 20
9.1716395527
 30
0.0
 10
14.2337731185
 20
9.1485108181
 30
0.0
 10
14.2551334311
 20
9.1338043891
 30
0.0
 10
14.2703861359
 20
9.1249984351
 30
0.0
  0
SPLINE
  5
5A8
100
AcDbEntity
  8
0
100
AcDbSpline
 62
7
  6
CONTINUOUS
 70
0
 71
3
 72
29
 73
25
 74
0
 42
0.0000001
 43
0.0000001
 44
0.0000000001
 40
0.0
 40
0.0
 40
0.0
 40
0.0
 40
0.0665384115
 40
0.1383277798
 40
0.2138963611
 40
0.2914311634
 40
0.3689659964
 40
0.444533821
 40
0.5163256574
 40
0.5828616926
 40
0.6431947625
 40
0.6709900274
 40
0.6972612197
 40
0.7221637169
 40
0.7459351328
 40
0.7688951436
 40
0.7914304251
 40
0.8139657473
 40
0.8369257233
 40
0.8606972104
 40
0.8856004254
 40
0.9118706732
 40
0.9396645282
 40
1.0
 40
1.0
 40
1.0
 40
1.0
 10
14.2703861359
 20
9.1249984351
 30
0.0
 10
14.2872069333
 20
9.1152871629
 30
0.0
 10
14.3239871972
 20
9.0981598908
 30
0.0
 10
14.3838824454
 20
9.079956814
 30
0.0
 10
14.4487274447
 20
9.0687508033
 30
0.0
 10
14.5160879145
 20
9.0649700311
 30
0.0
 10
14.5834499867
 20
9.0687519148
 30
0.0
 10
14.6482901308
 20
9.0799546562
 30
0.0
 10
14.7082032153
 20
9.0981699209
 30
0.0
 10
14.7609643924
 20
9.1227309426
 30
0.0
 10
14.7983958196
 20
9.1485089439
 30
0.0
 10
14.8225687177
 20
9.1716412315
 30
0.0
 10
14.8372757974
 20
9.1894693392
 30
0.0
 10
14.8489039781
 20
9.2080821949
 30
0.0
 10
14.85732005
 20
9.2273127263
 30
0.0
 10
14.8624183026
 20
9.2469722653
 30
0.0
 10
14.8641276709
 20
9.2668537671
 30
0.0
 10
14.8624179384
 20
9.2867352237
 30
0.0
 10
14.8573195585
 20
9.3063947235
 30
0.0
 10
14.8489031592
 20
9.325625457
 30
0.0
 10
14.8372745624
 20
9.3442376462
 30
0.0
 10
14.8225669986
 20
9.3620662749
 30
0.0
 10
14.7984004152
 20
9.3851950094
 30
0.0
 10
14.7770401026
 20
9.3999014385
 30
0.0
 10
14.7617873978
 20
9.4087073924
 30
0.0
  0
SPLINE
  5
5A9
100
AcDbEntity
  8
0
100
AcDbSpline
 62
7
  6
CONTINUOUS
 70
0
 71
3
 72
19
 73
15
 74
0
 42
0.0000001
 43
0.0000001
 44
0.0000000001
 40
0.0
 40
0.0
 40
0.0
 40
0.0
 40
0.1252835268
 40
0.1844742101
 40
0.2419046036
 40
0.2981388034
 40
0.3538048522
 40
0.4095643937
 40
0.4660737991
 40
0.5239452709
 40
0.5837198083
 40
0.710497416
 40
0.8489735477
 40
1.0
 40
1.0
 40
1.0
 40
1.0
 10
14.0649842207
 20
9.3063975376
 30
0.0
 10
14.0541125462
 20
9.2935291338
 30
0.0
 10
14.0397820328
 20
9.2729783435
 30
0.0
 10
14.0260767416
 20
9.2434110829
 30
0.0
 10
14.0189350298
 20
9.2212252049
 30
0.0
 10
14.0147986932
 20
9.1987688736
 30
0.0
 10
14.0137039258
 20
9.1761830257
 30
0.0
 10
14.0156551251
 20
9.1536183775
 30
0.0
 10
14.0206404826
 20
9.1312241907
 30
0.0
 10
14.0286178421
 20
9.1091421568
 30
0.0
 10
14.0434483715
 20
9.0797360814
 30
0.0
 10
14.0696987063
 20
9.0443556615
 30
0.0
 10
14.1110629823
 20
9.0062736527
 30
0.0
 10
14.1435989264
 20
8.9846120269
 30
0.0
 10
14.1611858555
 20
8.9744584384
 30
0.0
  0
SPLINE
  5
5AA
100
AcDbEntity
  8
0
100
AcDbSpline
 62
7
  6
CONTINUOUS
 70
0
 71
3
 72
9
 73
5
 74
0
 42
0.0000001
 43
0.0000001
 44
0.0000000001
 40
0.0
 40
0.0
 40
0.0
 40
0.0
 40
0.5009767551
 40
1.0
 40
1.0
 40
1.0
 40
1.0
 10
14.4379502171
 20
8.1954810208
 30
0.0
 10
14.4698334882
 20
8.1926589593
 30
0.0
 10
14.5339073814
 20
8.19123194
 30
0.0
 10
14.5976477534
 20
8.1979924552
 30
0.0
 10
14.629050211
 20
8.2035077358
 30
0.0
  0
LINE
  5
5AB
100
AcDbEntity
  8
0
100
AcDbLine
 62
7
  6
CONTINUOUS
 10
14.629050211
 20
8.2035077358
 11
14.6300102151
 21
8.2036770393
  0
SPLINE
  5
5AC
100
AcDbEntity
  8
0
100
AcDbSpline
 62
7
  6
CONTINUOUS
 70
0
 71
3
 72
9
 73
5
 74
0
 42
0.0000001
 43
0.0000001
 44
0.0000000001
 40
0.0
 40
0.0
 40
0.0
 40
0.0
 40
0.2536240789
 40
1.0
 40
1.0
 40
1.0
 40
1.0
 10
14.6300102151
 20
8.2036770393
 30
0.0
 10
14.6360862016
 20
8.2047529896
 30
0.0
 10
14.6599846272
 20
8.2093152123
 30
0.0
 10
14.6836412627
 20
8.2151639525
 30
0.0
 10
14.7010590401
 20
8.2202986782
 30
0.0
  0
SPLINE
  5
5AD
100
AcDbEntity
  8
0
100
AcDbSpline
 62
7
  6
CONTINUOUS
 70
0
 71
3
 72
9
 73
5
 74
0
 42
0.0000001
 43
0.0000001
 44
0.0000000001
 40
0.0
 40
0.0
 40
0.0
 40
0.0
 40
0.256571937
 40
1.0
 40
1.0
 40
1.0
 40
1.0
 10
14.7114167195
 20
8.2234525462
 30
0.0
 10
14.7176604615
 20
8.2254150931
 30
0.0
 10
14.7418674497
 20
8.2334619679
 30
0.0
 10
14.7655458285
 20
8.243132942
 30
0.0
 10
14.7826515826
 20
8.2513202982
 30
0.0
  0
SPLINE
  5
5AE
100
AcDbEntity
  8
0
100
AcDbSpline
 62
7
  6
CONTINUOUS
 70
0
 71
3
 72
14
 73
10
 74
0
 42
0.0000001
 43
0.0000001
 44
0.0000000001
 40
0.0
 40
0.0
 40
0.0
 40
0.0
 40
0.2713416215
 40
0.406115387
 40
0.5375916174
 40
0.6640006232
 40
0.7838533724
 40
0.896045177
 40
1.0
 40
1.0
 40
1.0
 40
1.0
 10
14.4379502171
 20
8.1472623742
 30
0.0
 10
14.4804635321
 20
8.143499423
 30
0.0
 10
14.5447643405
 20
8.1434456923
 30
0.0
 10
14.6286999047
 20
8.1542692431
 30
0.0
 10
14.689089191
 20
8.1676677553
 30
0.0
 10
14.7456791599
 20
8.1860878097
 30
0.0
 10
14.7972543109
 20
8.2091679267
 30
0.0
 10
14.8426810311
 20
8.2364365073
 30
0.0
 10
14.8692464599
 20
8.2579030351
 30
0.0
 10
14.8810452511
 20
8.2692232827
 30
0.0
  0
LINE
  5
5AF
100
AcDbEntity
  8
0
100
AcDbLine
 62
7
  6
CONTINUOUS
 10
14.8810452511
 20
8.2692232827
 11
14.8816701076
 21
8.2698246218
  0
SPLINE
  5
5B0
100
AcDbEntity
  8
0
100
AcDbSpline
 62
7
  6
CONTINUOUS
 70
0
 71
3
 72
9
 73
5
 74
0
 42
0.0000001
 43
0.0000001
 44
0.0000000001
 40
0.0
 40
0.0
 40
0.0
 40
0.0
 40
0.2581145688
 40
1.0
 40
1.0
 40
1.0
 40
1.0
 10
14.8816701076
 20
8.2698246218
 30
0.0
 10
14.8845752008
 20
8.2726289045
 30
0.0
 10
14.8955968805
 20
8.2837301984
 30
0.0
 10
14.9056520372
 20
8.2958093561
 30
0.0
 10
14.912353801
 20
8.3052843287
 30
0.0
  0
SPLINE
  5
5B1
100
AcDbEntity
  8
0
100
AcDbSpline
 62
7
  6
CONTINUOUS
 70
0
 71
3
 72
14
 73
10
 74
0
 42
0.0000001
 43
0.0000001
 44
0.0000000001
 40
0.0
 40
0.0
 40
0.0
 40
0.0
 40
0.2714862552
 40
0.4063174685
 40
0.5378246598
 40
0.6642321087
 40
0.7840425435
 40
0.8961544469
 40
1.0
 40
1.0
 40
1.0
 40
1.0
 10
14.4379502171
 20
8.0990437275
 30
0.0
 10
14.4805752686
 20
8.0952708862
 30
0.0
 10
14.5450450427
 20
8.0952315604
 30
0.0
 10
14.6291870474
 20
8.1061307141
 30
0.0
 10
14.689705345
 20
8.1196118417
 30
0.0
 10
14.7463907295
 20
8.1381370492
 30
0.0
 10
14.7980196853
 20
8.1613412241
 30
0.0
 10
14.8434517513
 20
8.1887477269
 30
0.0
 10
14.8699877155
 20
8.2103195835
 30
0.0
 10
14.881759297
 20
8.2216926293
 30
0.0
  0
SPLINE
  5
5B2
100
AcDbEntity
  8
0
100
AcDbSpline
 62
7
  6
CONTINUOUS
 70
0
 71
3
 72
11
 73
7
 74
0
 42
0.0000001
 43
0.0000001
 44
0.0000000001
 40
0.0
 40
0.0
 40
0.0
 40
0.0
 40
0.2698860654
 40
0.5249224795
 40
0.7672609748
 40
1.0
 40
1.0
 40
1.0
 40
1.0
 10
14.881759297
 20
8.2216926293
 30
0.0
 10
14.8895221381
 20
8.2291926537
 30
0.0
 10
14.9038133289
 20
8.2446566269
 30
0.0
 10
14.9215626892
 20
8.2698084401
 30
0.0
 10
14.9347729707
 20
8.295974188
 30
0.0
 10
14.9405179342
 20
8.3141969041
 30
0.0
 10
14.942527277
 20
8.323285827
 30
0.0
  0
SPLINE
  5
5B3
100
AcDbEntity
  8
0
100
AcDbSpline
 62
7
  6
CONTINUOUS
 70
0
 71
3
 72
17
 73
13
 74
0
 42
0.0000001
 43
0.0000001
 44
0.0000000001
 40
0.0
 40
0.0
 40
0.0
 40
0.0
 40
0.1476112629
 40
0.2950159334
 40
0.438061479
 40
0.5730224335
 40
0.6970504098
 40
0.8086698929
 40
0.8600027657
 40
0.9086492849
 40
0.9550960395
 40
1.0
 40
1.0
 40
1.0
 40
1.0
 10
14.4379502171
 20
8.0508250808
 30
0.0
 10
14.4675342828
 20
8.0482065272
 30
0.0
 10
14.5270395633
 20
8.0466036304
 30
0.0
 10
14.615007965
 20
8.0547083568
 30
0.0
 10
14.6988602631
 20
8.0730237183
 30
0.0
 10
14.7751074502
 20
8.100885526
 30
0.0
 10
14.8406009234
 20
8.1372352661
 30
0.0
 10
14.8852470452
 20
8.174653093
 30
0.0
 10
14.9123369699
 20
8.2076388589
 30
0.0
 10
14.9278273098
 20
8.2328214186
 30
0.0
 10
14.938851633
 20
8.2588621549
 30
0.0
 10
14.9431734161
 20
8.2768340108
 30
0.0
 10
14.9445099288
 20
8.2857693895
 30
0.0
  0
SPLINE
  5
5B4
100
AcDbEntity
  8
0
100
AcDbSpline
 62
7
  6
CONTINUOUS
 70
0
 71
3
 72
17
 73
13
 74
0
 42
0.0000001
 43
0.0000001
 44
0.0000000001
 40
0.0
 40
0.0
 40
0.0
 40
0.0
 40
0.147611136
 40
0.2950157232
 40
0.4380611879
 40
0.5730226735
 40
0.6970510312
 40
0.8086697905
 40
0.8600026982
 40
0.908649257
 40
0.9550960352
 40
1.0
 40
1.0
 40
1.0
 40
1.0
 10
14.4379502171
 20
8.0026064341
 30
0.0
 10
14.4675342154
 20
7.9999878864
 30
0.0
 10
14.5270393683
 20
7.9983849852
 30
0.0
 10
14.6150075882
 20
8.006489661
 30
0.0
 10
14.6988598546
 20
8.024804946
 30
0.0
 10
14.775107101
 20
8.0526667401
 30
0.0
 10
14.8406005579
 20
8.0890163765
 30
0.0
 10
14.8852465973
 20
8.1264340573
 30
0.0
 10
14.9123365164
 20
8.159419578
 30
0.0
 10
14.927826939
 20
8.1846020604
 30
0.0
 10
14.9388513679
 20
8.2106427218
 30
0.0
 10
14.9431732415
 20
8.2286145338
 30
0.0
 10
14.9445098021
 20
8.2375498933
 30
0.0
  0
SPLINE
  5
5B5
100
AcDbEntity
  8
0
100
AcDbSpline
 62
7
  6
CONTINUOUS
 70
0
 71
3
 72
11
 73
7
 74
0
 42
0.0000001
 43
0.0000001
 44
0.0000000001
 40
0.0
 40
0.0
 40
0.0
 40
0.0
 40
0.2746624862
 40
0.5305963751
 40
0.7707839333
 40
1.0
 40
1.0
 40
1.0
 40
1.0
 10
14.8684199233
 20
8.0649171314
 30
0.0
 10
14.8787811276
 20
8.0737826357
 30
0.0
 10
14.8977185174
 20
8.0922482464
 30
0.0
 10
14.920726179
 20
8.1230487704
 30
0.0
 10
14.9368577903
 20
8.1554800559
 30
0.0
 10
14.942856374
 20
8.1782127358
 30
0.0
 10
14.9445302668
 20
8.1894690495
 30
0.0
  0
SPLINE
  5
5B6
100
AcDbEntity
  8
0
100
AcDbSpline
 62
7
  6
CONTINUOUS
 70
0
 71
3
 72
14
 73
10
 74
0
 42
0.0000001
 43
0.0000001
 44
0.0000000001
 40
0.0
 40
0.0
 40
0.0
 40
0.0
 40
0.2689678797
 40
0.4028080839
 40
0.5337636426
 40
0.6602019753
 40
0.7807155555
 40
0.8942065086
 40
1.0
 40
1.0
 40
1.0
 40
1.0
 10
14.4379502171
 20
7.9543877874
 30
0.0
 10
14.4785749389
 20
7.950792
 30
0.0
 10
14.5400207942
 20
7.9505087361
 30
0.0
 10
14.6204492365
 20
7.9600886614
 30
0.0
 10
14.6786219338
 20
7.972128693
 30
0.0
 10
14.7335294048
 20
7.9888083399
 30
0.0
 10
14.78409075
 20
8.0098270715
 30
0.0
 10
14.829288281
 20
8.0347901854
 30
0.0
 10
14.8562313279
 20
8.0544880305
 30
0.0
 10
14.8684199233
 20
8.0649171314
 30
0.0
  0
SPLINE
  5
5B7
100
AcDbEntity
  8
0
100
AcDbSpline
 62
7
  6
CONTINUOUS
 70
0
 71
3
 72
14
 73
10
 74
0
 42
0.0000001
 43
0.0000001
 44
0.0000000001
 40
0.0
 40
0.0
 40
0.0
 40
0.0
 40
0.26953154
 40
0.4035927364
 40
0.534673827
 40
0.6611079353
 40
0.7814671311
 40
0.8946494729
 40
1.0
 40
1.0
 40
1.0
 40
1.0
 10
14.4379502171
 20
7.9061691408
 30
0.0
 10
14.4790323592
 20
7.902532866
 30
0.0
 10
14.5411696474
 20
7.9023032107
 30
0.0
 10
14.6224506597
 20
7.9121780752
 30
0.0
 10
14.6811667757
 20
7.9245410939
 30
0.0
 10
14.7364933944
 20
7.9416358164
 30
0.0
 10
14.7873172961
 20
7.9631477002
 30
0.0
 10
14.832593237
 20
7.9886638523
 30
0.0
 10
14.8594648312
 20
8.0087877435
 30
0.0
 10
14.8715712117
 20
8.0194320674
 30
0.0
  0
SPLINE
  5
5B8
100
AcDbEntity
  8
0
100
AcDbSpline
 62
7
  6
CONTINUOUS
 70
0
 71
3
 72
9
 73
5
 74
0
 42
0.0000001
 43
0.0000001
 44
0.0000000001
 40
0.0
 40
0.0
 40
0.0
 40
0.0
 40
0.2583216014
 40
1.0
 40
1.0
 40
1.0
 40
1.0
 10
14.8715712117
 20
8.0194320674
 30
0.0
 10
14.8747391059
 20
8.0222173831
 30
0.0
 10
14.8867772238
 20
8.0332507378
 30
0.0
 10
14.8978801378
 20
8.0453238044
 30
0.0
 10
14.9053705756
 20
8.0548408288
 30
0.0
  0
SPLINE
  5
5B9
100
AcDbEntity
  8
0
100
AcDbSpline
 62
7
  6
CONTINUOUS
 70
0
 71
3
 72
10
 73
6
 74
0
 42
0.0000001
 43
0.0000001
 44
0.0000000001
 40
0.0
 40
0.0
 40
0.0
 40
0.0
 40
0.5172723286
 40
0.761830068
 40
1.0
 40
1.0
 40
1.0
 40
1.0
 10
14.9053705756
 20
8.0548408288
 30
0.0
 10
14.9155653808
 20
8.0677939048
 30
0.0
 10
14.9286668205
 20
8.0886100855
 30
0.0
 10
14.9399693043
 20
8.1184845762
 30
0.0
 10
14.9433761291
 20
8.1335519531
 30
0.0
 10
14.944501588
 20
8.1410577587
 30
0.0
  0
SPLINE
  5
5BA
100
AcDbEntity
  8
0
100
AcDbSpline
 62
7
  6
CONTINUOUS
 70
0
 71
3
 72
9
 73
5
 74
0
 42
0.0000001
 43
0.0000001
 44
0.0000000001
 40
0.0
 40
0.0
 40
0.0
 40
0.0
 40
0.5032784153
 40
1.0
 40
1.0
 40
1.0
 40
1.0
 10
14.0913517381
 20
8.0535431419
 30
0.0
 10
14.0895824909
 20
8.0597410816
 30
0.0
 10
14.086883887
 20
8.0723066987
 30
0.0
 10
14.0859683593
 20
8.0851295511
 30
0.0
 10
14.0859682146
 20
8.0914910947
 30
0.0
  0
SPLINE
  5
5BB
100
AcDbEntity
  8
0
100
AcDbSpline
 62
7
  6
CONTINUOUS
 70
0
 71
3
 72
24
 73
20
 74
0
 42
0.0000001
 43
0.0000001
 44
0.0000000001
 40
0.0
 40
0.0
 40
0.0
 40
0.0
 40
0.023533566
 40
0.0471790242
 40
0.0953723457
 40
0.1457033376
 40
0.199041455
 40
0.2559380007
 40
0.3165798381
 40
0.3808051771
 40
0.4481612068
 40
0.5179704579
 40
0.5893963331
 40
0.6615045325
 40
0.733321035
 40
0.8038884092
 40
0.872324394
 40
0.9378775135
 40
1.0
 40
1.0
 40
1.0
 40
1.0
 10
15.106637948
 20
8.5716684641
 30
0.0
 10
15.106637948
 20
8.5623966844
 30
0.0
 10
15.1054724947
 20
8.5437869184
 30
0.0
 10
15.0985049739
 20
8.5067842787
 30
0.0
 10
15.0810190156
 20
8.4614333324
 30
0.0
 10
15.0477358705
 20
8.4112446306
 30
0.0
 10
15.0034129414
 20
8.3656733117
 30
0.0
 10
14.9492860018
 20
8.325247595
 30
0.0
 10
14.8865249114
 20
8.2903785731
 30
0.0
 10
14.816352672
 20
8.2614963245
 30
0.0
 10
14.7401248293
 20
8.2390180773
 30
0.0
 10
14.6593422376
 20
8.2233102502
 30
0.0
 10
14.5756294854
 20
8.2146482486
 30
0.0
 10
14.4906947319
 20
8.2131901365
 30
0.0
 10
14.4062812838
 20
8.2189633784
 30
0.0
 10
14.3241184301
 20
8.2318603672
 30
0.0
 10
14.2458662737
 20
8.2516538625
 30
0.0
 10
14.173093888
 20
8.2779998286
 30
0.0
 10
14.1278559536
 20
8.3003189857
 30
0.0
 10
14.106659789
 20
8.3125563201
 30
0.0
  0
SPLINE
  5
5BC
100
AcDbEntity
  8
0
100
AcDbSpline
 62
7
  6
CONTINUOUS
 70
0
 71
3
 72
14
 73
10
 74
0
 42
0.0000001
 43
0.0000001
 44
0.0000000001
 40
0.0
 40
0.0
 40
0.0
 40
0.0
 40
0.2784155496
 40
0.4088762349
 40
0.5340347282
 40
0.6546677419
 40
0.7717875265
 40
0.886471176
 40
1.0
 40
1.0
 40
1.0
 40
1.0
 10
14.106659789
 20
8.3125563201
 30
0.0
 10
14.0800638349
 20
8.327911154
 30
0.0
 10
14.0426611765
 20
8.3537721597
 30
0.0
 10
14.0001569407
 20
8.3947024501
 30
0.0
 10
13.9737980599
 20
8.4269033532
 30
0.0
 10
13.9526677549
 20
8.4610521216
 30
0.0
 10
13.937172248
 20
8.4968708417
 30
0.0
 10
13.9276720978
 20
8.5339229016
 30
0.0
 10
13.9255355857
 20
8.5591458459
 30
0.0
 10
13.9255355857
 20
8.5716684641
 30
0.0
  0
SPLINE
  5
5BD
100
AcDbEntity
  8
0
100
AcDbSpline
 62
7
  6
CONTINUOUS
 70
0
 71
3
 72
9
 73
5
 74
0
 42
0.0000001
 43
0.0000001
 44
0.0000000001
 40
0.0
 40
0.0
 40
0.0
 40
0.0
 40
0.2563101556
 40
1.0
 40
1.0
 40
1.0
 40
1.0
 10
14.1820192654
 20
7.9716934694
 30
0.0
 10
14.1797351514
 20
7.9744198926
 30
0.0
 10
14.1710945877
 20
7.9852787308
 30
0.0
 10
14.1635901474
 20
7.9970605735
 30
0.0
 10
14.1588752106
 20
8.0062405719
 30
0.0
  0
SPLINE
  5
5BE
100
AcDbEntity
  8
0
100
AcDbSpline
 62
7
  6
CONTINUOUS
 70
0
 71
3
 72
11
 73
7
 74
0
 42
0.0000001
 43
0.0000001
 44
0.0000000001
 40
0.0
 40
0.0
 40
0.0
 40
0.0
 40
0.2307370946
 40
0.4797598888
 40
0.7393238322
 40
1.0
 40
1.0
 40
1.0
 40
1.0
 10
14.7701814656
 20
7.9081573625
 30
0.0
 10
14.7471323717
 20
7.8954612922
 30
0.0
 10
14.6963361929
 20
7.8741434852
 30
0.0
 10
14.6139776455
 20
7.8547080327
 30
0.0
 10
14.5262847978
 20
7.84716083
 30
0.0
 10
14.4668058191
 20
7.8503553637
 30
0.0
 10
14.4373148743
 20
7.8541090174
 30
0.0
  0
SPLINE
  5
5BF
100
AcDbEntity
  8
0
100
AcDbSpline
 62
7
  6
CONTINUOUS
 70
0
 71
3
 72
9
 73
5
 74
0
 42
0.0000001
 43
0.0000001
 44
0.0000000001
 40
0.0
 40
0.0
 40
0.0
 40
0.0
 40
0.2459098717
 40
1.0
 40
1.0
 40
1.0
 40
1.0
 10
14.4379502171
 20
8.1954810208
 30
0.0
 10
14.432982297
 20
8.1963684298
 30
0.0
 10
14.4128179581
 20
8.200182178
 30
0.0
 10
14.3928187049
 20
8.2048984578
 30
0.0
 10
14.3779126252
 20
8.2090574633
 30
0.0
  0
SPLINE
  5
5C0
100
AcDbEntity
  8
0
100
AcDbSpline
 62
7
  6
CONTINUOUS
 70
0
 71
3
 72
9
 73
5
 74
0
 42
0.0000001
 43
0.0000001
 44
0.0000000001
 40
0.0
 40
0.0
 40
0.0
 40
0.0
 40
0.2459098717
 40
1.0
 40
1.0
 40
1.0
 40
1.0
 10
14.4379502171
 20
8.1472623742
 30
0.0
 10
14.432982297
 20
8.1481497831
 30
0.0
 10
14.4128179581
 20
8.1519635313
 30
0.0
 10
14.3928187049
 20
8.1566798111
 30
0.0
 10
14.3779126252
 20
8.1608388166
 30
0.0
  0
LINE
  5
5C1
100
AcDbEntity
  8
0
100
AcDbLine
 62
7
  6
CONTINUOUS
 10
14.1544728709
 20
8.0416573117
 11
14.153163701
 21
8.0430303681
  0
LINE
  5
5C2
100
AcDbEntity
  8
0
100
AcDbLine
 62
7
  6
CONTINUOUS
 10
14.1544727391
 20
8.0898761486
 11
14.153163701
 21
8.0912490148
  0
LINE
  5
5C3
100
AcDbEntity
  8
0
100
AcDbLine
 62
7
  6
CONTINUOUS
 10
14.1544722607
 20
8.1380959289
 11
14.153163701
 21
8.1394676615
  0
LINE
  5
5C4
100
AcDbEntity
  8
0
100
AcDbLine
 62
7
  6
CONTINUOUS
 10
14.1544729428
 20
8.186313148
 11
14.153163701
 21
8.1876863081
  0
LINE
  5
5C5
100
AcDbEntity
  8
0
100
AcDbLine
 62
7
  6
CONTINUOUS
 10
14.1544720791
 20
8.2345330415
 11
14.153163701
 21
8.2359049548
  0
SPLINE
  5
5C6
100
AcDbEntity
  8
0
100
AcDbSpline
 62
7
  6
CONTINUOUS
 70
0
 71
3
 72
9
 73
5
 74
0
 42
0.0000001
 43
0.0000001
 44
0.0000000001
 40
0.0
 40
0.0
 40
0.0
 40
0.0
 40
0.2469837222
 40
1.0
 40
1.0
 40
1.0
 40
1.0
 10
14.153163701
 20
8.2359049548
 30
0.0
 10
14.1480779175
 20
8.2400990001
 30
0.0
 10
14.1276483349
 20
8.2572764662
 30
0.0
 10
14.1078106429
 20
8.2751504275
 30
0.0
 10
14.0931261092
 20
8.2888727354
 30
0.0
  0
SPLINE
  5
5C7
100
AcDbEntity
  8
0
100
AcDbSpline
 62
7
  6
CONTINUOUS
 70
0
 71
3
 72
9
 73
5
 74
0
 42
0.0000001
 43
0.0000001
 44
0.0000000001
 40
0.0
 40
0.0
 40
0.0
 40
0.0
 40
0.245909878
 40
1.0
 40
1.0
 40
1.0
 40
1.0
 10
14.4379502171
 20
8.0508250808
 30
0.0
 10
14.4329822968
 20
8.0517124898
 30
0.0
 10
14.4128179579
 20
8.0555262377
 30
0.0
 10
14.3928187048
 20
8.0602425178
 30
0.0
 10
14.3779126252
 20
8.0644015233
 30
0.0
  0
SPLINE
  5
5C8
100
AcDbEntity
  8
0
100
AcDbSpline
 62
7
  6
CONTINUOUS
 70
0
 71
3
 72
9
 73
5
 74
0
 42
0.0000001
 43
0.0000001
 44
0.0000000001
 40
0.0
 40
0.0
 40
0.0
 40
0.0
 40
0.246983729
 40
1.0
 40
1.0
 40
1.0
 40
1.0
 10
14.153163701
 20
8.1876863081
 30
0.0
 10
14.1480779173
 20
8.1918803536
 30
0.0
 10
14.1276483348
 20
8.2090578197
 30
0.0
 10
14.1078106427
 20
8.226931781
 30
0.0
 10
14.0931261092
 20
8.2406540887
 30
0.0
  0
SPLINE
  5
5C9
100
AcDbEntity
  8
0
100
AcDbSpline
 62
7
  6
CONTINUOUS
 70
0
 71
3
 72
9
 73
5
 74
0
 42
0.0000001
 43
0.0000001
 44
0.0000000001
 40
0.0
 40
0.0
 40
0.0
 40
0.0
 40
0.2459098393
 40
1.0
 40
1.0
 40
1.0
 40
1.0
 10
14.4379502171
 20
8.0026064341
 30
0.0
 10
14.4329822976
 20
8.003493843
 30
0.0
 10
14.412817959
 20
8.0073075923
 30
0.0
 10
14.3928187055
 20
8.0120238709
 30
0.0
 10
14.3779126252
 20
8.0161828766
 30
0.0
  0
LINE
  5
5CA
100
AcDbEntity
  8
0
100
AcDbLine
 62
7
  6
CONTINUOUS
 10
14.1544729276
 20
8.2827504632
 11
14.153163701
 21
8.2841236015
  0
SPLINE
  5
5CB
100
AcDbEntity
  8
0
100
AcDbSpline
 62
7
  6
CONTINUOUS
 70
0
 71
3
 72
9
 73
5
 74
0
 42
0.0000001
 43
0.0000001
 44
0.0000000001
 40
0.0
 40
0.0
 40
0.0
 40
0.0
 40
0.2469836882
 40
1.0
 40
1.0
 40
1.0
 40
1.0
 10
14.153163701
 20
8.1394676615
 30
0.0
 10
14.1480779182
 20
8.1436617062
 30
0.0
 10
14.1276483355
 20
8.1608391722
 30
0.0
 10
14.1078106435
 20
8.1787131335
 30
0.0
 10
14.0931261092
 20
8.192435442
 30
0.0
  0
SPLINE
  5
5CC
100
AcDbEntity
  8
0
100
AcDbSpline
 62
7
  6
CONTINUOUS
 70
0
 71
3
 72
9
 73
5
 74
0
 42
0.0000001
 43
0.0000001
 44
0.0000000001
 40
0.0
 40
0.0
 40
0.0
 40
0.0
 40
0.2459098717
 40
1.0
 40
1.0
 40
1.0
 40
1.0
 10
14.4379502171
 20
8.0990437275
 30
0.0
 10
14.432982297
 20
8.0999311365
 30
0.0
 10
14.4128179581
 20
8.1037448846
 30
0.0
 10
14.3928187049
 20
8.1084611644
 30
0.0
 10
14.3779126252
 20
8.1126201699
 30
0.0
  0
SPLINE
  5
5CD
100
AcDbEntity
  8
0
100
AcDbSpline
 62
7
  6
CONTINUOUS
 70
0
 71
3
 72
9
 73
5
 74
0
 42
0.0000001
 43
0.0000001
 44
0.0000000001
 40
0.0
 40
0.0
 40
0.0
 40
0.0
 40
0.2469837222
 40
1.0
 40
1.0
 40
1.0
 40
1.0
 10
14.153163701
 20
8.0912490148
 30
0.0
 10
14.1480779175
 20
8.0954430601
 30
0.0
 10
14.1276483349
 20
8.1126205262
 30
0.0
 10
14.1078106429
 20
8.1304944875
 30
0.0
 10
14.0931261092
 20
8.1442167953
 30
0.0
  0
SPLINE
  5
5CE
100
AcDbEntity
  8
0
100
AcDbSpline
 62
7
  6
CONTINUOUS
 70
0
 71
3
 72
9
 73
5
 74
0
 42
0.0000001
 43
0.0000001
 44
0.0000000001
 40
0.0
 40
0.0
 40
0.0
 40
0.0
 40
0.2459098717
 40
1.0
 40
1.0
 40
1.0
 40
1.0
 10
14.4379502171
 20
7.9061691408
 30
0.0
 10
14.432982297
 20
7.9070565497
 30
0.0
 10
14.4128179581
 20
7.9108702979
 30
0.0
 10
14.3928187049
 20
7.9155865777
 30
0.0
 10
14.3779126252
 20
7.9197455832
 30
0.0
  0
SPLINE
  5
5CF
100
AcDbEntity
  8
0
100
AcDbSpline
 62
7
  6
CONTINUOUS
 70
0
 71
3
 72
9
 73
5
 74
0
 42
0.0000001
 43
0.0000001
 44
0.0000000001
 40
0.0
 40
0.0
 40
0.0
 40
0.0
 40
0.2474972595
 40
1.0
 40
1.0
 40
1.0
 40
1.0
 10
14.1450334201
 20
8.049803616
 30
0.0
 10
14.1406467663
 20
8.0534946306
 30
0.0
 10
14.1230392139
 20
8.0685463825
 30
0.0
 10
14.1058616217
 20
8.0840971494
 30
0.0
 10
14.0931261092
 20
8.0959981487
 30
0.0
  0
SPLINE
  5
5D0
100
AcDbEntity
  8
0
100
AcDbSpline
 62
7
  6
CONTINUOUS
 70
0
 71
3
 72
9
 73
5
 74
0
 42
0.0000001
 43
0.0000001
 44
0.0000000001
 40
0.0
 40
0.0
 40
0.0
 40
0.0
 40
0.2459098717
 40
1.0
 40
1.0
 40
1.0
 40
1.0
 10
14.4379502171
 20
7.9543877874
 30
0.0
 10
14.432982297
 20
7.9552751964
 30
0.0
 10
14.4128179581
 20
7.9590889445
 30
0.0
 10
14.3928187049
 20
7.9638052244
 30
0.0
 10
14.3779126252
 20
7.9679642299
 30
0.0
  0
SPLINE
  5
5D1
100
AcDbEntity
  8
0
100
AcDbSpline
 62
7
  6
CONTINUOUS
 70
0
 71
3
 72
14
 73
10
 74
0
 42
0.0000001
 43
0.0000001
 44
0.0000000001
 40
0.0
 40
0.0
 40
0.0
 40
0.0
 40
0.1048796884
 40
0.2123594664
 40
0.3247160871
 40
0.4436982948
 40
0.5704497101
 40
0.7055245467
 40
1.0
 40
1.0
 40
1.0
 40
1.0
 10
14.9462050246
 20
8.1156004603
 30
0.0
 10
14.9462049181
 20
8.1055620152
 30
0.0
 10
14.9441697992
 20
8.0851821196
 30
0.0
 10
14.9351209002
 20
8.0552672403
 30
0.0
 10
14.9202570024
 20
8.0262641817
 30
0.0
 10
14.8998472352
 20
7.998568211
 30
0.0
 10
14.8742077631
 20
7.9725062505
 30
0.0
 10
14.8323548
 20
7.9394269719
 30
0.0
 10
14.7959737899
 20
7.9195108706
 30
0.0
 10
14.7702223833
 20
7.9080530489
 30
0.0
  0
SPLINE
  5
5D2
100
AcDbEntity
  8
0
100
AcDbSpline
 62
7
  6
CONTINUOUS
 70
0
 71
3
 72
11
 73
7
 74
0
 42
0.0000001
 43
0.0000001
 44
0.0000000001
 40
0.0
 40
0.0
 40
0.0
 40
0.0
 40
0.2363151227
 40
0.4860474441
 40
0.7429202338
 40
1.0
 40
1.0
 40
1.0
 40
1.0
 10
14.7702223833
 20
7.9080530489
 30
0.0
 10
14.7458063342
 20
7.8971893807
 30
0.0
 10
14.6937787455
 20
7.8787877703
 30
0.0
 10
14.6113836226
 20
7.861362068
 30
0.0
 10
14.5251641497
 20
7.8537430637
 30
0.0
 10
14.4669090051
 20
7.8553872852
 30
0.0
 10
14.4379502171
 20
7.8579504941
 30
0.0
  0
SPLINE
  5
5D3
100
AcDbEntity
  8
0
100
AcDbSpline
 62
7
  6
CONTINUOUS
 70
0
 71
3
 72
15
 73
11
 74
0
 42
0.0000001
 43
0.0000001
 44
0.0000000001
 40
0.0
 40
0.0
 40
0.0
 40
0.0
 40
0.1033828481
 40
0.1989351606
 40
0.2892180462
 40
0.4031114641
 40
0.5566540258
 40
0.7099318195
 40
0.8577588143
 40
1.0
 40
1.0
 40
1.0
 40
1.0
 10
14.3775993104
 20
8.0162582043
 30
0.0
 10
14.3774423373
 20
8.0162894747
 30
0.0
 10
14.3771338495
 20
8.0163313407
 30
0.0
 10
14.3766910809
 20
8.0163069245
 30
0.0
 10
14.3762185286
 20
8.0161029214
 30
0.0
 10
14.376174226
 20
8.0154596797
 30
0.0
 10
14.3765049571
 20
8.0148957744
 30
0.0
 10
14.3769280417
 20
8.0143312674
 30
0.0
 10
14.3774065914
 20
8.0138373881
 30
0.0
 10
14.3777427267
 20
8.0135390804
 30
0.0
 10
14.3779126252
 20
8.0133989717
 30
0.0
  0
SPLINE
  5
5D4
100
AcDbEntity
  8
0
100
AcDbSpline
 62
7
  6
CONTINUOUS
 70
0
 71
3
 72
14
 73
10
 74
0
 42
0.0000001
 43
0.0000001
 44
0.0000000001
 40
0.0
 40
0.0
 40
0.0
 40
0.0
 40
0.2342225826
 40
0.3427890366
 40
0.4450260872
 40
0.5456740469
 40
0.6658715116
 40
0.8264669496
 40
1.0
 40
1.0
 40
1.0
 40
1.0
 10
14.153163701
 20
8.2813396966
 30
0.0
 10
14.1533950675
 20
8.2812751421
 30
0.0
 10
14.1537421012
 20
8.2812034553
 30
0.0
 10
14.154201504
 20
8.2812010156
 30
0.0
 10
14.1545144784
 20
8.2812646275
 30
0.0
 10
14.1548208363
 20
8.2814420634
 30
0.0
 10
14.1549077435
 20
8.2818633018
 30
0.0
 10
14.1547560628
 20
8.282312195
 30
0.0
 10
14.1545742376
 20
8.2826041499
 30
0.0
 10
14.1544729276
 20
8.2827504632
 30
0.0
  0
SPLINE
  5
5D5
100
AcDbEntity
  8
0
100
AcDbSpline
 62
7
  6
CONTINUOUS
 70
0
 71
3
 72
15
 73
11
 74
0
 42
0.0000001
 43
0.0000001
 44
0.0000000001
 40
0.0
 40
0.0
 40
0.0
 40
0.0
 40
0.1033792548
 40
0.1989280482
 40
0.28920981
 40
0.4031145688
 40
0.5566593536
 40
0.7099348893
 40
0.8577601964
 40
1.0
 40
1.0
 40
1.0
 40
1.0
 10
14.3775991089
 20
8.0644768911
 30
0.0
 10
14.3774421463
 20
8.0645081505
 30
0.0
 10
14.377133681
 20
8.0645499935
 30
0.0
 10
14.3766909412
 20
8.0645255471
 30
0.0
 10
14.376218436
 20
8.0643214473
 30
0.0
 10
14.3761742851
 20
8.0636782044
 30
0.0
 10
14.3765050125
 20
8.0631143357
 30
0.0
 10
14.3769280925
 20
8.0625498587
 30
0.0
 10
14.3774066176
 20
8.0620560109
 30
0.0
 10
14.3777427356
 20
8.0617577196
 30
0.0
 10
14.3779126252
 20
8.0616176184
 30
0.0
  0
SPLINE
  5
5D6
100
AcDbEntity
  8
0
100
AcDbSpline
 62
7
  6
CONTINUOUS
 70
0
 71
3
 72
9
 73
5
 74
0
 42
0.0000001
 43
0.0000001
 44
0.0000000001
 40
0.0
 40
0.0
 40
0.0
 40
0.0
 40
0.246983724
 40
1.0
 40
1.0
 40
1.0
 40
1.0
 10
14.3779126252
 20
8.2062735584
 30
0.0
 10
14.3829984088
 20
8.2020795131
 30
0.0
 10
14.4034279914
 20
8.184902047
 30
0.0
 10
14.4232656834
 20
8.1670280857
 30
0.0
 10
14.4379502171
 20
8.1533057779
 30
0.0
  0
SPLINE
  5
5D7
100
AcDbEntity
  8
0
100
AcDbSpline
 62
7
  6
CONTINUOUS
 70
0
 71
3
 72
9
 73
5
 74
0
 42
0.0000001
 43
0.0000001
 44
0.0000000001
 40
0.0
 40
0.0
 40
0.0
 40
0.0
 40
0.246983724
 40
1.0
 40
1.0
 40
1.0
 40
1.0
 10
14.3779126252
 20
8.1580549118
 30
0.0
 10
14.3829984088
 20
8.1538608664
 30
0.0
 10
14.4034279914
 20
8.1366834003
 30
0.0
 10
14.4232656834
 20
8.118809439
 30
0.0
 10
14.4379502171
 20
8.1050871312
 30
0.0
  0
SPLINE
  5
5D8
100
AcDbEntity
  8
0
100
AcDbSpline
 62
7
  6
CONTINUOUS
 70
0
 71
3
 72
9
 73
5
 74
0
 42
0.0000001
 43
0.0000001
 44
0.0000000001
 40
0.0
 40
0.0
 40
0.0
 40
0.0
 40
0.2459098703
 40
1.0
 40
1.0
 40
1.0
 40
1.0
 10
14.0931261092
 20
8.2949161391
 30
0.0
 10
14.0980940292
 20
8.2940287301
 30
0.0
 10
14.1182583681
 20
8.2902149819
 30
0.0
 10
14.1382576213
 20
8.2854987022
 30
0.0
 10
14.153163701
 20
8.2813396966
 30
0.0
  0
SPLINE
  5
5D9
100
AcDbEntity
  8
0
100
AcDbSpline
 62
7
  6
CONTINUOUS
 70
0
 71
3
 72
15
 73
11
 74
0
 42
0.0000001
 43
0.0000001
 44
0.0000000001
 40
0.0
 40
0.0
 40
0.0
 40
0.0
 40
0.1033829127
 40
0.1989352885
 40
0.2892181943
 40
0.4031114083
 40
0.55665393
 40
0.7099317643
 40
0.8577587895
 40
1.0
 40
1.0
 40
1.0
 40
1.0
 10
14.377599314
 20
8.1126954969
 30
0.0
 10
14.3774423407
 20
8.1127267675
 30
0.0
 10
14.3771338526
 20
8.1127686339
 30
0.0
 10
14.3766910834
 20
8.1127442183
 30
0.0
 10
14.3762185302
 20
8.1125402169
 30
0.0
 10
14.3761742249
 20
8.1118969752
 30
0.0
 10
14.3765049561
 20
8.1113330693
 30
0.0
 10
14.3769280407
 20
8.1107685617
 30
0.0
 10
14.377406591
 20
8.1102746819
 30
0.0
 10
14.3777427265
 20
8.1099763738
 30
0.0
 10
14.3779126252
 20
8.1098362651
 30
0.0
  0
SPLINE
  5
5DA
100
AcDbEntity
  8
0
100
AcDbSpline
 62
7
  6
CONTINUOUS
 70
0
 71
3
 72
15
 73
11
 74
0
 42
0.0000001
 43
0.0000001
 44
0.0000000001
 40
0.0
 40
0.0
 40
0.0
 40
0.0
 40
0.103378999
 40
0.1989275418
 40
0.2892092237
 40
0.40311479
 40
0.556659733
 40
0.7099351079
 40
0.8577602948
 40
1.0
 40
1.0
 40
1.0
 40
1.0
 10
14.3775990946
 20
8.1609141873
 30
0.0
 10
14.3774421327
 20
8.1609454459
 30
0.0
 10
14.3771336691
 20
8.1609872873
 30
0.0
 10
14.3766909313
 20
8.1609628388
 30
0.0
 10
14.3762184294
 20
8.1607587321
 30
0.0
 10
14.3761742893
 20
8.160115489
 30
0.0
 10
14.3765050165
 20
8.159551623
 30
0.0
 10
14.3769280962
 20
8.1589871481
 30
0.0
 10
14.3774066194
 20
8.1584933026
 30
0.0
 10
14.3777427363
 20
8.1581950125
 30
0.0
 10
14.3779126252
 20
8.1580549118
 30
0.0
  0
SPLINE
  5
5DB
100
AcDbEntity
  8
0
100
AcDbSpline
 62
7
  6
CONTINUOUS
 70
0
 71
3
 72
24
 73
20
 74
0
 42
0.0000001
 43
0.0000001
 44
0.0000000001
 40
0.0
 40
0.0
 40
0.0
 40
0.0
 40
0.0623923012
 40
0.1287367164
 40
0.1983345525
 40
0.270316539
 40
0.3436991707
 40
0.4174362168
 40
0.4904659125
 40
0.5617576011
 40
0.630359781
 40
0.6954520335
 40
0.756404002
 40
0.8128453342
 40
0.8647495442
 40
0.9125276234
 40
0.957104954
 40
0.9786666947
 40
1.0
 40
1.0
 40
1.0
 40
1.0
 10
14.0985057606
 20
8.3305793968
 30
0.0
 10
14.1197246727
 20
8.3183289293
 30
0.0
 10
14.1651954369
 20
8.2959097539
 30
0.0
 10
14.2385449134
 20
8.2693340282
 30
0.0
 10
14.3178076507
 20
8.2492126514
 30
0.0
 10
14.4012900613
 20
8.2359760027
 30
0.0
 10
14.4872213657
 20
8.2299018327
 30
0.0
 10
14.5737681891
 20
8.2311201963
 30
0.0
 10
14.6590846441
 20
8.2396049309
 30
0.0
 10
14.7413527168
 20
8.2551756372
 30
0.0
 10
14.8188246681
 20
8.2775034136
 30
0.0
 10
14.8898627442
 20
8.3061223019
 30
0.0
 10
14.9529744597
 20
8.3404492491
 30
0.0
 10
15.0068382423
 20
8.3798062173
 30
0.0
 10
15.0503067513
 20
8.4234653508
 30
0.0
 10
15.0823793087
 20
8.4706139969
 30
0.0
 10
15.099033922
 20
8.512622663
 30
0.0
 10
15.1055552457
 20
8.5464254762
 30
0.0
 10
15.1066379839
 20
8.5632909113
 30
0.0
 10
15.1066379361
 20
8.5716684641
 30
0.0
  0
SPLINE
  5
5DC
100
AcDbEntity
  8
0
100
AcDbSpline
 62
7
  6
CONTINUOUS
 70
0
 71
3
 72
14
 73
10
 74
0
 42
0.0000001
 43
0.0000001
 44
0.0000000001
 40
0.0
 40
0.0
 40
0.0
 40
0.0
 40
0.2341884583
 40
0.3427350391
 40
0.444952641
 40
0.5455905785
 40
0.6658563512
 40
0.8264906642
 40
1.0
 40
1.0
 40
1.0
 40
1.0
 10
14.153163701
 20
8.23312105
 30
0.0
 10
14.1533951451
 20
8.2330564738
 30
0.0
 10
14.1537422958
 20
8.2329847662
 30
0.0
 10
14.1542018453
 20
8.232982393
 30
0.0
 10
14.1545149111
 20
8.2330461042
 30
0.0
 10
14.1548213383
 20
8.2332239453
 30
0.0
 10
14.154907617
 20
8.2336456717
 30
0.0
 10
14.154755505
 20
8.2340946604
 30
0.0
 10
14.1545734738
 20
8.2343867124
 30
0.0
 10
14.1544720791
 20
8.2345330415
 30
0.0
  0
SPLINE
  5
5DD
100
AcDbEntity
  8
0
100
AcDbSpline
 62
7
  6
CONTINUOUS
 70
0
 71
3
 72
15
 73
11
 74
0
 42
0.0000001
 43
0.0000001
 44
0.0000000001
 40
0.0
 40
0.0
 40
0.0
 40
0.0
 40
0.1033821248
 40
0.198933729
 40
0.2892163882
 40
0.4031120889
 40
0.5566550982
 40
0.7099324374
 40
0.8577590925
 40
1.0
 40
1.0
 40
1.0
 40
1.0
 10
14.3775992698
 20
8.2091327991
 30
0.0
 10
14.3774422988
 20
8.2091640673
 30
0.0
 10
14.3771338156
 20
8.2092059286
 30
0.0
 10
14.3766910528
 20
8.2091815064
 30
0.0
 10
14.3762185099
 20
8.2089774838
 30
0.0
 10
14.3761742379
 20
8.2083342418
 30
0.0
 10
14.3765049682
 20
8.2077703439
 30
0.0
 10
14.3769280519
 20
8.207205843
 30
0.0
 10
14.3774065967
 20
8.20671197
 30
0.0
 10
14.3777427285
 20
8.2064136656
 30
0.0
 10
14.3779126252
 20
8.2062735584
 30
0.0
  0
SPLINE
  5
5DE
100
AcDbEntity
  8
0
100
AcDbSpline
 62
7
  6
CONTINUOUS
 70
0
 71
3
 72
14
 73
10
 74
0
 42
0.0000001
 43
0.0000001
 44
0.0000000001
 40
0.0
 40
0.0
 40
0.0
 40
0.0
 40
0.2342231913
 40
0.3427899998
 40
0.4450273973
 40
0.5456755361
 40
0.6658717841
 40
0.8264665278
 40
1.0
 40
1.0
 40
1.0
 40
1.0
 10
14.153163701
 20
8.1849024033
 30
0.0
 10
14.1533950661
 20
8.1848378492
 30
0.0
 10
14.1537420977
 20
8.1847661627
 30
0.0
 10
14.154201498
 20
8.1847637218
 30
0.0
 10
14.1545144707
 20
8.1848273319
 30
0.0
 10
14.1548208273
 20
8.1850047607
 30
0.0
 10
14.1549077458
 20
8.1854259903
 30
0.0
 10
14.1547560727
 20
8.1858748818
 30
0.0
 10
14.1545742512
 20
8.186166835
 30
0.0
 10
14.1544729428
 20
8.186313148
 30
0.0
  0
SPLINE
  5
5DF
100
AcDbEntity
  8
0
100
AcDbSpline
 62
7
  6
CONTINUOUS
 70
0
 71
3
 72
14
 73
10
 74
0
 42
0.0000001
 43
0.0000001
 44
0.0000000001
 40
0.0
 40
0.0
 40
0.0
 40
0.0
 40
0.1057934914
 40
0.2192844445
 40
0.3397980247
 40
0.4662363574
 40
0.5971919161
 40
0.7310321203
 40
1.0
 40
1.0
 40
1.0
 40
1.0
 10
14.8684199233
 20
8.0227418884
 30
0.0
 10
14.8562313279
 20
8.0123127875
 30
0.0
 10
14.829288281
 20
7.9926149425
 30
0.0
 10
14.78409075
 20
7.9676518285
 30
0.0
 10
14.7335294048
 20
7.946633097
 30
0.0
 10
14.6786219338
 20
7.92995345
 30
0.0
 10
14.6204492365
 20
7.9179134185
 30
0.0
 10
14.5400207942
 20
7.9083334932
 30
0.0
 10
14.4785749389
 20
7.908616757
 30
0.0
 10
14.4379502171
 20
7.9122125445
 30
0.0
  0
SPLINE
  5
5E0
100
AcDbEntity
  8
0
100
AcDbSpline
 62
7
  6
CONTINUOUS
 70
0
 71
3
 72
14
 73
10
 74
0
 42
0.0000001
 43
0.0000001
 44
0.0000000001
 40
0.0
 40
0.0
 40
0.0
 40
0.0
 40
0.2343519327
 40
0.3429971746
 40
0.4455705775
 40
0.5454421715
 40
0.6651388614
 40
0.8276966871
 40
1.0
 40
1.0
 40
1.0
 40
1.0
 10
14.153163701
 20
8.1366837566
 30
0.0
 10
14.1533953328
 20
8.1366191281
 30
0.0
 10
14.1537431491
 20
8.1365465501
 30
0.0
 10
14.1542024853
 20
8.1365461968
 30
0.0
 10
14.154517701
 20
8.1366065114
 30
0.0
 10
14.154814813
 20
8.1367919789
 30
0.0
 10
14.1549196168
 20
8.1372082088
 30
0.0
 10
14.1547483428
 20
8.1376563233
 30
0.0
 10
14.154573382
 20
8.1379508924
 30
0.0
 10
14.1544722607
 20
8.1380959289
 30
0.0
  0
SPLINE
  5
5E1
100
AcDbEntity
  8
0
100
AcDbSpline
 62
7
  6
CONTINUOUS
 70
0
 71
3
 72
9
 73
5
 74
0
 42
0.0000001
 43
0.0000001
 44
0.0000000001
 40
0.0
 40
0.0
 40
0.0
 40
0.0
 40
0.4859856532
 40
1.0
 40
1.0
 40
1.0
 40
1.0
 10
14.182019209
 20
7.9716934221
 30
0.0
 10
14.1811601866
 20
7.972718923
 30
0.0
 10
14.1797926966
 20
7.9751919321
 30
0.0
 10
14.1793877589
 20
7.9779715217
 30
0.0
 10
14.1793877589
 20
7.9793864236
 30
0.0
  0
SPLINE
  5
5E2
100
AcDbEntity
  8
0
100
AcDbSpline
 62
7
  6
CONTINUOUS
 70
0
 71
3
 72
9
 73
5
 74
0
 42
0.0000001
 43
0.0000001
 44
0.0000000001
 40
0.0
 40
0.0
 40
0.0
 40
0.0
 40
0.2459098703
 40
1.0
 40
1.0
 40
1.0
 40
1.0
 10
14.0931261092
 20
8.2466974924
 30
0.0
 10
14.0980940292
 20
8.2458100835
 30
0.0
 10
14.1182583681
 20
8.2419963353
 30
0.0
 10
14.1382576213
 20
8.2372800555
 30
0.0
 10
14.153163701
 20
8.23312105
 30
0.0
  0
SPLINE
  5
5E3
100
AcDbEntity
  8
0
100
AcDbSpline
 62
7
  6
CONTINUOUS
 70
0
 71
3
 72
9
 73
5
 74
0
 42
0.0000001
 43
0.0000001
 44
0.0000000001
 40
0.0
 40
0.0
 40
0.0
 40
0.0
 40
0.2469837168
 40
1.0
 40
1.0
 40
1.0
 40
1.0
 10
14.3779126252
 20
8.0616176184
 30
0.0
 10
14.3829984086
 20
8.0574235732
 30
0.0
 10
14.4034279913
 20
8.0402461071
 30
0.0
 10
14.4232656833
 20
8.0223721458
 30
0.0
 10
14.4379502171
 20
8.0086498378
 30
0.0
  0
SPLINE
  5
5E4
100
AcDbEntity
  8
0
100
AcDbSpline
 62
7
  6
CONTINUOUS
 70
0
 71
3
 72
9
 73
5
 74
0
 42
0.0000001
 43
0.0000001
 44
0.0000000001
 40
0.0
 40
0.0
 40
0.0
 40
0.0
 40
0.2459098639
 40
1.0
 40
1.0
 40
1.0
 40
1.0
 10
14.0931261092
 20
8.1984788457
 30
0.0
 10
14.0980940291
 20
8.1975914368
 30
0.0
 10
14.1182583679
 20
8.1937776884
 30
0.0
 10
14.1382576212
 20
8.1890614088
 30
0.0
 10
14.153163701
 20
8.1849024033
 30
0.0
  0
SPLINE
  5
5E5
100
AcDbEntity
  8
0
100
AcDbSpline
 62
7
  6
CONTINUOUS
 70
0
 71
3
 72
9
 73
5
 74
0
 42
0.0000001
 43
0.0000001
 44
0.0000000001
 40
0.0
 40
0.0
 40
0.0
 40
0.0
 40
0.2469837623
 40
1.0
 40
1.0
 40
1.0
 40
1.0
 10
14.3779126252
 20
8.0133989717
 30
0.0
 10
14.3829984096
 20
8.0092049257
 30
0.0
 10
14.4034279921
 20
7.9920274595
 30
0.0
 10
14.4232656842
 20
7.9741534983
 30
0.0
 10
14.4379502171
 20
7.9604311912
 30
0.0
  0
SPLINE
  5
5E6
100
AcDbEntity
  8
0
100
AcDbSpline
 62
7
  6
CONTINUOUS
 70
0
 71
3
 72
9
 73
5
 74
0
 42
0.0000001
 43
0.0000001
 44
0.0000000001
 40
0.0
 40
0.0
 40
0.0
 40
0.0
 40
0.2459098945
 40
1.0
 40
1.0
 40
1.0
 40
1.0
 10
14.0931261092
 20
8.1502601991
 30
0.0
 10
14.0980940297
 20
8.14937279
 30
0.0
 10
14.1182583688
 20
8.1455590427
 30
0.0
 10
14.1382576218
 20
8.140842762
 30
0.0
 10
14.153163701
 20
8.1366837566
 30
0.0
  0
SPLINE
  5
5E7
100
AcDbEntity
  8
0
100
AcDbSpline
 62
7
  6
CONTINUOUS
 70
0
 71
3
 72
9
 73
5
 74
0
 42
0.0000001
 43
0.0000001
 44
0.0000000001
 40
0.0
 40
0.0
 40
0.0
 40
0.0
 40
0.246983724
 40
1.0
 40
1.0
 40
1.0
 40
1.0
 10
14.3779126252
 20
8.1098362651
 30
0.0
 10
14.3829984088
 20
8.1056422197
 30
0.0
 10
14.4034279914
 20
8.0884647537
 30
0.0
 10
14.4232656834
 20
8.0705907924
 30
0.0
 10
14.4379502171
 20
8.0568684845
 30
0.0
  0
SPLINE
  5
5E8
100
AcDbEntity
  8
0
100
AcDbSpline
 62
7
  6
CONTINUOUS
 70
0
 71
3
 72
12
 73
8
 74
0
 42
0.0000001
 43
0.0000001
 44
0.0000000001
 40
0.0
 40
0.0
 40
0.0
 40
0.0
 40
0.1079143044
 40
0.2190702367
 40
0.4550219978
 40
0.7145433245
 40
1.0
 40
1.0
 40
1.0
 40
1.0
 10
13.9290347492
 20
8.5346079579
 30
0.0
 10
13.9308626471
 20
8.5249566438
 30
0.0
 10
13.9360038545
 20
8.505608073
 30
0.0
 10
13.9520414971
 20
8.4673059831
 30
0.0
 10
13.9831605239
 20
8.4209981845
 30
0.0
 10
14.0346587415
 20
8.3714251265
 30
0.0
 10
14.076003127
 20
8.3435710045
 30
0.0
 10
14.0985057606
 20
8.3305793968
 30
0.0
  0
SPLINE
  5
5E9
100
AcDbEntity
  8
AXIS
100
AcDbSpline
 62
7
  6
CONTINUOUS
 70
0
 71
3
 72
9
 73
5
 74
0
 42
0.0000001
 43
0.0000001
 44
0.0000000001
 40
0.0
 40
0.0
 40
0.0
 40
0.0
 40
0.2463635411
 40
1.0
 40
1.0
 40
1.0
 40
1.0
 10
13.9307462451
 20
8.8800797164
 30
0.0
 10
13.9315376771
 20
8.8766629589
 30
0.0
 10
13.9351015531
 20
8.8628770551
 30
0.0
 10
13.9400545052
 20
8.8494575359
 30
0.0
 10
13.9444509675
 20
8.8396709692
 30
0.0
  0
SPLINE
  5
5EA
100
AcDbEntity
  8
AXIS
100
AcDbSpline
 62
7
  6
CONTINUOUS
 70
0
 71
3
 72
9
 73
5
 74
0
 42
0.0000001
 43
0.0000001
 44
0.0000000001
 40
0.0
 40
0.0
 40
0.0
 40
0.0
 40
0.2460350627
 40
1.0
 40
1.0
 40
1.0
 40
1.0
 10
13.9501204087
 20
8.8279206721
 30
0.0
 10
13.9513313887
 20
8.8255741344
 30
0.0
 10
13.956406085
 20
8.8161160339
 30
0.0
 10
13.9620780464
 20
8.806980668
 30
0.0
 10
13.9666390452
 20
8.8002965461
 30
0.0
  0
SPLINE
  5
5EB
100
AcDbEntity
  8
AXIS
100
AcDbSpline
 62
7
  6
CONTINUOUS
 70
0
 71
3
 72
9
 73
5
 74
0
 42
0.0000001
 43
0.0000001
 44
0.0000000001
 40
0.0
 40
0.0
 40
0.0
 40
0.0
 40
0.2458405596
 40
1.0
 40
1.0
 40
1.0
 40
1.0
 10
13.97666525
 20
8.7864997126
 30
0.0
 10
13.9782595638
 20
8.7844341535
 30
0.0
 10
13.9848532757
 20
8.7761162751
 30
0.0
 10
13.9918694632
 20
8.7681349731
 30
0.0
 10
13.99735934
 20
8.7623098207
 30
0.0
  0
SPLINE
  5
5EC
100
AcDbEntity
  8
AXIS
100
AcDbSpline
 62
7
  6
CONTINUOUS
 70
0
 71
3
 72
9
 73
5
 74
0
 42
0.0000001
 43
0.0000001
 44
0.0000000001
 40
0.0
 40
0.0
 40
0.0
 40
0.0
 40
0.245571639
 40
1.0
 40
1.0
 40
1.0
 40
1.0
 10
14.0104014593
 20
8.749174864
 30
0.0
 10
14.0125285351
 20
8.7471388708
 30
0.0
 10
14.0212880689
 20
8.7389505939
 30
0.0
 10
14.030426475
 20
8.7311694975
 30
0.0
 10
14.0374946475
 20
8.7255245279
 30
0.0
  0
SPLINE
  5
5ED
100
AcDbEntity
  8
AXIS
100
AcDbSpline
 62
7
  6
CONTINUOUS
 70
0
 71
3
 72
9
 73
5
 74
0
 42
0.0000001
 43
0.0000001
 44
0.0000000001
 40
0.0
 40
0.0
 40
0.0
 40
0.0
 40
0.2441188285
 40
1.0
 40
1.0
 40
1.0
 40
1.0
 10
14.0511799965
 20
8.7150272696
 30
0.0
 10
14.0548814311
 20
8.7122992703
 30
0.0
 10
14.0702111806
 20
8.7013523677
 30
0.0
 10
14.0861757199
 20
8.6913013971
 30
0.0
 10
14.0985057606
 20
8.6841828058
 30
0.0
  0
SPLINE
  5
5EE
100
AcDbEntity
  8
0
100
AcDbSpline
 62
7
  6
CONTINUOUS
 70
0
 71
3
 72
14
 73
10
 74
0
 42
0.0000001
 43
0.0000001
 44
0.0000000001
 40
0.0
 40
0.0
 40
0.0
 40
0.0
 40
0.2342149982
 40
0.3427770355
 40
0.445009763
 40
0.5456554923
 40
0.6658681227
 40
0.8264722087
 40
1.0
 40
1.0
 40
1.0
 40
1.0
 10
14.153163701
 20
8.0884651099
 30
0.0
 10
14.1533950847
 20
8.0884005506
 30
0.0
 10
14.1537421444
 20
8.0883288591
 30
0.0
 10
14.1542015799
 20
8.0883264342
 30
0.0
 10
14.1545145745
 20
8.0883900682
 30
0.0
 10
14.1548209479
 20
8.0885675941
 30
0.0
 10
14.1549077155
 20
8.0889889409
 30
0.0
 10
14.1547559389
 20
8.0894378553
 30
0.0
 10
14.154574068
 20
8.0897298318
 30
0.0
 10
14.1544727391
 20
8.0898761486
 30
0.0
  0
SPLINE
  5
5EF
100
AcDbEntity
  8
0
100
AcDbSpline
 62
7
  6
CONTINUOUS
 70
0
 71
3
 72
14
 73
10
 74
0
 42
0.0000001
 43
0.0000001
 44
0.0000000001
 40
0.0
 40
0.0
 40
0.0
 40
0.0
 40
0.2342202989
 40
0.342785423
 40
0.4450211718
 40
0.5456684597
 40
0.66587049
 40
0.8264685325
 40
1.0
 40
1.0
 40
1.0
 40
1.0
 10
14.153163701
 20
8.0402464632
 30
0.0
 10
14.1533950727
 20
8.0401819073
 30
0.0
 10
14.1537421142
 20
8.040110219
 30
0.0
 10
14.1542015269
 20
8.0401077838
 30
0.0
 10
14.1545145073
 20
8.0401714023
 30
0.0
 10
14.1548208699
 20
8.0403488654
 30
0.0
 10
14.1549077351
 20
8.0407701364
 30
0.0
 10
14.1547560255
 20
8.041219036
 30
0.0
 10
14.1545741865
 20
8.0415109974
 30
0.0
 10
14.1544728709
 20
8.0416573117
 30
0.0
  0
SPLINE
  5
5F0
100
AcDbEntity
  8
0
100
AcDbSpline
 62
7
  6
CONTINUOUS
 70
0
 71
3
 72
9
 73
5
 74
0
 42
0.0000001
 43
0.0000001
 44
0.0000000001
 40
0.0
 40
0.0
 40
0.0
 40
0.0
 40
0.2459098909
 40
1.0
 40
1.0
 40
1.0
 40
1.0
 10
14.0931261092
 20
8.1020415524
 30
0.0
 10
14.0980940297
 20
8.1011541433
 30
0.0
 10
14.1182583687
 20
8.0973403959
 30
0.0
 10
14.1382576217
 20
8.0926241153
 30
0.0
 10
14.153163701
 20
8.0884651099
 30
0.0
  0
SPLINE
  5
5F1
100
AcDbEntity
  8
0
100
AcDbSpline
 62
7
  6
CONTINUOUS
 70
0
 71
3
 72
9
 73
5
 74
0
 42
0.0000001
 43
0.0000001
 44
0.0000000001
 40
0.0
 40
0.0
 40
0.0
 40
0.0
 40
0.246983724
 40
1.0
 40
1.0
 40
1.0
 40
1.0
 10
14.3779126252
 20
7.9169616784
 30
0.0
 10
14.3829984088
 20
7.912767633
 30
0.0
 10
14.4034279914
 20
7.8955901669
 30
0.0
 10
14.4232656834
 20
7.8777162056
 30
0.0
 10
14.4379502171
 20
7.8639938978
 30
0.0
  0
SPLINE
  5
5F2
100
AcDbEntity
  8
0
100
AcDbSpline
 62
7
  6
CONTINUOUS
 70
0
 71
3
 72
9
 73
5
 74
0
 42
0.0000001
 43
0.0000001
 44
0.0000000001
 40
0.0
 40
0.0
 40
0.0
 40
0.0
 40
0.2464591414
 40
1.0
 40
1.0
 40
1.0
 40
1.0
 10
14.0931261092
 20
8.0538229057
 30
0.0
 10
14.0975065272
 20
8.053040441
 30
0.0
 10
14.1152507145
 20
8.0497064296
 30
0.0
 10
14.132868242
 20
8.0456804299
 30
0.0
 10
14.1460181446
 20
8.0421910828
 30
0.0
  0
SPLINE
  5
5F3
100
AcDbEntity
  8
0
100
AcDbSpline
 62
7
  6
CONTINUOUS
 70
0
 71
3
 72
9
 73
5
 74
0
 42
0.0000001
 43
0.0000001
 44
0.0000000001
 40
0.0
 40
0.0
 40
0.0
 40
0.0
 40
0.246983724
 40
1.0
 40
1.0
 40
1.0
 40
1.0
 10
14.3779126252
 20
7.965180325
 30
0.0
 10
14.3829984088
 20
7.9609862797
 30
0.0
 10
14.4034279914
 20
7.9438088136
 30
0.0
 10
14.4232656834
 20
7.9259348523
 30
0.0
 10
14.4379502171
 20
7.9122125445
 30
0.0
  0
SPLINE
  5
5F4
100
AcDbEntity
  8
0
100
AcDbSpline
 62
7
  6
CONTINUOUS
 70
0
 71
3
 72
9
 73
5
 74
0
 42
0.0000001
 43
0.0000001
 44
0.0000000001
 40
0.0
 40
0.0
 40
0.0
 40
0.0
 40
0.2565947804
 40
1.0
 40
1.0
 40
1.0
 40
1.0
 10
14.1793877589
 20
7.9793864236
 30
0.0
 10
14.1776914162
 20
7.9814112559
 30
0.0
 10
14.1712362875
 20
7.9894307632
 30
0.0
 10
14.1654258788
 20
7.9979763852
 30
0.0
 10
14.1615744515
 20
8.0045895572
 30
0.0
  0
SPLINE
  5
5F5
100
AcDbEntity
  8
AXIS
100
AcDbSpline
 62
7
  6
CONTINUOUS
 70
0
 71
3
 72
23
 73
19
 74
0
 42
0.0000001
 43
0.0000001
 44
0.0000000001
 40
0.0
 40
0.0
 40
0.0
 40
0.0
 40
0.0427737724
 40
0.0871446037
 40
0.1344344059
 40
0.1855373129
 40
0.2409017034
 40
0.3005863821
 40
0.3643366061
 40
0.4316551318
 40
0.5018624306
 40
0.5741474221
 40
0.6476116153
 40
0.7213092038
 40
0.7942852585
 40
0.8656132481
 40
0.9344343972
 40
1.0
 40
1.0
 40
1.0
 40
1.0
 10
15.106637948
 20
8.9252718771
 30
0.0
 10
15.106637943
 20
8.9093303718
 30
0.0
 10
15.1026132075
 20
8.8767261514
 30
0.0
 10
15.0848620215
 20
8.8294451411
 30
0.0
 10
15.0559631455
 20
8.7843588612
 30
0.0
 10
15.0166616759
 20
8.7422934644
 30
0.0
 10
14.9677882625
 20
8.703931035
 30
0.0
 10
14.9102899453
 20
8.6699240494
 30
0.0
 10
14.84525562
 20
8.6408728553
 30
0.0
 10
14.773916844
 20
8.6173095898
 30
0.0
 10
14.6976315236
 20
8.5996754425
 30
0.0
 10
14.6178587218
 20
8.5883052407
 30
0.0
 10
14.5361293512
 20
8.5834165254
 30
0.0
 10
14.4540142948
 20
8.5851032496
 30
0.0
 10
14.3730936077
 20
8.5933327379
 30
0.0
 10
14.2949184049
 20
8.60794831
 30
0.0
 10
14.2209982687
 20
8.628667028
 30
0.0
 10
14.1741958545
 20
8.646790532
 30
0.0
 10
14.1519310969
 20
8.6568599106
 30
0.0
  0
SPLINE
  5
5F6
100
AcDbEntity
  8
AXIS
100
AcDbSpline
 62
7
  6
CONTINUOUS
 70
0
 71
3
 72
9
 73
5
 74
0
 42
0.0000001
 43
0.0000001
 44
0.0000000001
 40
0.0
 40
0.0
 40
0.0
 40
0.0
 40
0.2553681519
 40
1.0
 40
1.0
 40
1.0
 40
1.0
 10
14.1519310969
 20
8.6568599106
 30
0.0
 10
14.1472759503
 20
8.6589652303
 30
0.0
 10
14.1291436726
 20
8.6674210571
 30
0.0
 10
14.1114075867
 20
8.6767341016
 30
0.0
 10
14.0985057606
 20
8.6841828058
 30
0.0
  0
SPLINE
  5
5F7
100
AcDbEntity
  8
0
100
AcDbSpline
 62
7
  6
CONTINUOUS
 70
0
 71
3
 72
9
 73
5
 74
0
 42
0.0000001
 43
0.0000001
 44
0.0000000001
 40
0.0
 40
0.0
 40
0.0
 40
0.0
 40
0.2475552921
 40
1.0
 40
1.0
 40
1.0
 40
1.0
 10
14.0861456414
 20
8.0906316015
 30
0.0
 10
14.086304489
 20
8.0875388788
 30
0.0
 10
14.0873751644
 20
8.0750702498
 30
0.0
 10
14.0901733438
 20
8.0627605003
 30
0.0
 10
14.0931261092
 20
8.0538229057
 30
0.0
  0
SPLINE
  5
5F8
100
AcDbEntity
  8
0
100
AcDbSpline
 62
7
  6
CONTINUOUS
 70
0
 71
3
 72
9
 73
5
 74
0
 42
0.0000001
 43
0.0000001
 44
0.0000000001
 40
0.0
 40
0.0
 40
0.0
 40
0.0
 40
0.2532554967
 40
1.0
 40
1.0
 40
1.0
 40
1.0
 10
14.0931261092
 20
8.2949161391
 30
0.0
 10
14.092297539
 20
8.2974241015
 30
0.0
 10
14.0892894407
 20
8.3074116752
 30
0.0
 10
14.0873700617
 20
8.3177307898
 30
0.0
 10
14.0866113172
 20
8.3254817957
 30
0.0
  0
LINE
  5
5F9
100
AcDbEntity
  8
0
100
AcDbLine
 62
7
  6
CONTINUOUS
 10
14.9448250036
 20
8.1493722362
 11
14.9447536466
 21
8.1488500229
  0
SPLINE
  5
5FA
100
AcDbEntity
  8
0
100
AcDbSpline
 62
7
  6
CONTINUOUS
 70
0
 71
3
 72
11
 73
7
 74
0
 42
0.0000001
 43
0.0000001
 44
0.0000000001
 40
0.0
 40
0.0
 40
0.0
 40
0.0
 40
0.2291537574
 40
0.4692195189
 40
0.7251378343
 40
1.0
 40
1.0
 40
1.0
 40
1.0
 10
14.9447536466
 20
8.1488500229
 30
0.0
 10
14.9431778281
 20
8.1374620412
 30
0.0
 10
14.9373152157
 20
8.1144422858
 30
0.0
 10
14.9211956809
 20
8.0815845547
 30
0.0
 10
14.898028989
 20
8.0503886969
 30
0.0
 10
14.878897563
 20
8.0317070201
 30
0.0
 10
14.8684199233
 20
8.0227418884
 30
0.0
  0
SPLINE
  5
5FB
100
AcDbEntity
  8
0
100
AcDbSpline
 62
7
  6
CONTINUOUS
 70
0
 71
3
 72
11
 73
7
 74
0
 42
0.0000001
 43
0.0000001
 44
0.0000000001
 40
0.0
 40
0.0
 40
0.0
 40
0.0
 40
0.2283701853
 40
0.4670022728
 40
0.7227881417
 40
1.0
 40
1.0
 40
1.0
 40
1.0
 10
14.946088423
 20
8.2121239595
 30
0.0
 10
14.9455858895
 20
8.1992793444
 30
0.0
 10
14.941165641
 20
8.173042408
 30
0.0
 10
14.924882069
 20
8.1353942833
 30
0.0
 10
14.8994844257
 20
8.099823762
 30
0.0
 10
14.8778366532
 20
8.0788240929
 30
0.0
 10
14.8658738912
 20
8.0688058309
 30
0.0
  0
SPLINE
  5
5FC
100
AcDbEntity
  8
0
100
AcDbSpline
 62
7
  6
CONTINUOUS
 70
0
 71
3
 72
14
 73
10
 74
0
 42
0.0000001
 43
0.0000001
 44
0.0000000001
 40
0.0
 40
0.0
 40
0.0
 40
0.0
 40
0.1061448892
 40
0.2198779625
 40
0.3405114671
 40
0.466951346
 40
0.5978079947
 40
0.7314719744
 40
1.0
 40
1.0
 40
1.0
 40
1.0
 10
14.8658738912
 20
8.0688058309
 30
0.0
 10
14.8536248543
 20
8.0585478267
 30
0.0
 10
14.8266348178
 20
8.0391861836
 30
0.0
 10
14.7815095349
 20
8.0146602416
 30
0.0
 10
14.731164742
 20
7.9940302745
 30
0.0
 10
14.6765955482
 20
7.9776773554
 30
0.0
 10
14.6188579876
 20
7.9658914579
 30
0.0
 10
14.5391084042
 20
7.9565423045
 30
0.0
 10
14.478211911
 20
7.9568675361
 30
0.0
 10
14.4379502171
 20
7.9604311912
 30
0.0
  0
SPLINE
  5
5FD
100
AcDbEntity
  8
0
100
AcDbSpline
 62
7
  6
CONTINUOUS
 70
0
 71
3
 72
11
 73
7
 74
0
 42
0.0000001
 43
0.0000001
 44
0.0000000001
 40
0.0
 40
0.0
 40
0.0
 40
0.0
 40
0.237139405
 40
0.480197382
 40
0.7333834622
 40
1.0
 40
1.0
 40
1.0
 40
1.0
 10
14.9460885375
 20
8.2603455514
 30
0.0
 10
14.9457300601
 20
8.2511784408
 30
0.0
 10
14.9433111341
 20
8.2326416607
 30
0.0
 10
14.9347387119
 20
8.2054581322
 30
0.0
 10
14.9213463941
 20
8.1790273763
 30
0.0
 10
14.9096610933
 20
8.1625675849
 30
0.0
 10
14.9031620537
 20
8.1545581451
 30
0.0
  0
SPLINE
  5
5FE
100
AcDbEntity
  8
0
100
AcDbSpline
 62
7
  6
CONTINUOUS
 70
0
 71
3
 72
15
 73
11
 74
0
 42
0.0000001
 43
0.0000001
 44
0.0000000001
 40
0.0
 40
0.0
 40
0.0
 40
0.0
 40
0.1002797925
 40
0.2097075081
 40
0.3280505352
 40
0.4542700766
 40
0.5867362288
 40
0.7234071404
 40
0.8619681549
 40
1.0
 40
1.0
 40
1.0
 40
1.0
 10
14.9031620537
 20
8.1545581451
 30
0.0
 10
14.8925359974
 20
8.141462555
 30
0.0
 10
14.8674072499
 20
8.1163758927
 30
0.0
 10
14.8222577191
 20
8.0843330915
 30
0.0
 10
14.7692106639
 20
8.056935001
 30
0.0
 10
14.7096365352
 20
8.0348321722
 30
0.0
 10
14.6450548141
 20
8.0185334478
 30
0.0
 10
14.5771308541
 20
8.0084246817
 30
0.0
 10
14.5076327345
 20
8.0047305177
 30
0.0
 10
14.4610730921
 20
8.006603179
 30
0.0
 10
14.4379502171
 20
8.0086498378
 30
0.0
  0
SPLINE
  5
5FF
100
AcDbEntity
  8
0
100
AcDbSpline
 62
7
  6
CONTINUOUS
 70
0
 71
3
 72
18
 73
14
 74
0
 42
0.0000001
 43
0.0000001
 44
0.0000000001
 40
0.0
 40
0.0
 40
0.0
 40
0.0
 40
0.0448398888
 40
0.0910433143
 40
0.1393438828
 40
0.1902918565
 40
0.3012218017
 40
0.3615771455
 40
0.4250198857
 40
0.5600430996
 40
0.7035244608
 40
0.8516177966
 40
1.0
 40
1.0
 40
1.0
 40
1.0
 10
14.9454707194
 20
8.2995666394
 30
0.0
 10
14.9445770607
 20
8.2904712676
 30
0.0
 10
14.9410957742
 20
8.2721303232
 30
0.0
 10
14.9310921826
 20
8.2454207078
 30
0.0
 10
14.916414876
 20
8.2195312538
 30
0.0
 10
14.8901462073
 20
8.1855447467
 30
0.0
 10
14.8557057944
 20
8.1554125497
 30
0.0
 10
14.8154950553
 20
8.1294321897
 30
0.0
 10
14.7687290128
 20
8.1048729582
 30
0.0
 10
14.7032121621
 20
8.0802693995
 30
0.0
 10
14.6181408629
 20
8.0611731592
 30
0.0
 10
14.5286597347
 20
8.0526372704
 30
0.0
 10
14.4680753804
 20
8.0542020371
 30
0.0
 10
14.4379502171
 20
8.0568684845
 30
0.0
  0
SPLINE
  5
600
100
AcDbEntity
  8
0
100
AcDbSpline
 62
7
  6
CONTINUOUS
 70
0
 71
3
 72
9
 73
5
 74
0
 42
0.0000001
 43
0.0000001
 44
0.0000000001
 40
0.0
 40
0.0
 40
0.0
 40
0.0
 40
0.2535981917
 40
1.0
 40
1.0
 40
1.0
 40
1.0
 10
14.0931261092
 20
8.2466974924
 30
0.0
 10
14.0921692598
 20
8.2495937373
 30
0.0
 10
14.0887468583
 20
8.261126492
 30
0.0
 10
14.0867842993
 20
8.2730982416
 30
0.0
 10
14.0862276872
 20
8.2820584943
 30
0.0
  0
SPLINE
  5
601
100
AcDbEntity
  8
0
100
AcDbSpline
 62
7
  6
CONTINUOUS
 70
0
 71
3
 72
17
 73
13
 74
0
 42
0.0000001
 43
0.0000001
 44
0.0000000001
 40
0.0
 40
0.0
 40
0.0
 40
0.0
 40
0.0452577661
 40
0.0923864306
 40
0.1418886035
 40
0.1941123041
 40
0.3072339622
 40
0.4319428594
 40
0.5666172077
 40
0.7085343671
 40
0.8542538172
 40
1.0
 40
1.0
 40
1.0
 40
1.0
 10
14.9407785612
 20
8.322198554
 30
0.0
 10
14.9384812983
 20
8.3136701598
 30
0.0
 10
14.9323641849
 20
8.2966178509
 30
0.0
 10
14.9191838154
 20
8.2721645499
 30
0.0
 10
14.9020105774
 20
8.2486310355
 30
0.0
 10
14.8732816219
 20
8.2179713148
 30
0.0
 10
14.8279011723
 20
8.1834478938
 30
0.0
 10
14.7630178454
 20
8.1500387716
 30
0.0
 10
14.6886863534
 20
8.1246049052
 30
0.0
 10
14.6077420447
 20
8.1080404701
 30
0.0
 10
14.5232884884
 20
8.1008975718
 30
0.0
 10
14.4662828669
 20
8.1025793433
 30
0.0
 10
14.4379502171
 20
8.1050871312
 30
0.0
  0
SPLINE
  5
602
100
AcDbEntity
  8
0
100
AcDbSpline
 62
7
  6
CONTINUOUS
 70
0
 71
3
 72
15
 73
11
 74
0
 42
0.0000001
 43
0.0000001
 44
0.0000000001
 40
0.0
 40
0.0
 40
0.0
 40
0.0
 40
0.0999725674
 40
0.2091606613
 40
0.3273704422
 40
0.4535704581
 40
0.5861205295
 40
0.7229582828
 40
0.8617368789
 40
1.0
 40
1.0
 40
1.0
 40
1.0
 10
14.904865922
 20
8.3013386632
 30
0.0
 10
14.8943660099
 20
8.2880921913
 30
0.0
 10
14.8694048042
 20
8.2626898805
 30
0.0
 10
14.8243248705
 20
8.2302259774
 30
0.0
 10
14.7711852218
 20
8.2024441618
 30
0.0
 10
14.71137832
 20
8.1800123141
 30
0.0
 10
14.6464504394
 20
8.163452857
 30
0.0
 10
14.5780981111
 20
8.1531629796
 30
0.0
 10
14.5081243108
 20
8.1493745957
 30
0.0
 10
14.461236442
 20
8.1512446606
 30
0.0
 10
14.4379502171
 20
8.1533057779
 30
0.0
  0
SPLINE
  5
603
100
AcDbEntity
  8
0
100
AcDbSpline
 62
7
  6
CONTINUOUS
 70
0
 71
3
 72
9
 73
5
 74
0
 42
0.0000001
 43
0.0000001
 44
0.0000000001
 40
0.0
 40
0.0
 40
0.0
 40
0.0
 40
0.2450794829
 40
1.0
 40
1.0
 40
1.0
 40
1.0
 10
14.7096165084
 20
8.2289332353
 30
0.0
 10
14.7022520973
 20
8.2266438505
 30
0.0
 10
14.6720249488
 20
8.2178812952
 30
0.0
 10
14.6411530676
 20
8.2113759692
 30
0.0
 10
14.6176911435
 20
8.2076526849
 30
0.0
  0
SPLINE
  5
604
100
AcDbEntity
  8
0
100
AcDbSpline
 62
7
  6
CONTINUOUS
 70
0
 71
3
 72
9
 73
5
 74
0
 42
0.0000001
 43
0.0000001
 44
0.0000000001
 40
0.0
 40
0.0
 40
0.0
 40
0.0
 40
0.2536012744
 40
1.0
 40
1.0
 40
1.0
 40
1.0
 10
14.0931261092
 20
8.1984788457
 30
0.0
 10
14.092167839
 20
8.2013793913
 30
0.0
 10
14.0887409176
 20
8.2129292918
 30
0.0
 10
14.0867782832
 20
8.2249194582
 30
0.0
 10
14.0862243937
 20
8.2338930891
 30
0.0
  0
SPLINE
  5
605
100
AcDbEntity
  8
0
100
AcDbSpline
 62
7
  6
CONTINUOUS
 70
0
 71
3
 72
9
 73
5
 74
0
 42
0.0000001
 43
0.0000001
 44
0.0000000001
 40
0.0
 40
0.0
 40
0.0
 40
0.0
 40
0.2329274201
 40
1.0
 40
1.0
 40
1.0
 40
1.0
 10
14.1793877589
 20
7.9793864236
 30
0.0
 10
14.1796326857
 20
7.9790940677
 30
0.0
 10
14.1807518912
 20
7.9778956316
 30
0.0
 10
14.1821016594
 20
7.9769266728
 30
0.0
 10
14.1831893925
 20
7.976298684
 30
0.0
  0
SPLINE
  5
606
100
AcDbEntity
  8
0
100
AcDbSpline
 62
7
  6
CONTINUOUS
 70
0
 71
3
 72
11
 73
7
 74
0
 42
0.0000001
 43
0.0000001
 44
0.0000000001
 40
0.0
 40
0.0
 40
0.0
 40
0.0
 40
0.2895340826
 40
0.549102898
 40
0.7822484256
 40
1.0
 40
1.0
 40
1.0
 40
1.0
 10
14.1831893925
 20
7.976298684
 30
0.0
 10
14.1831893925
 20
7.9753018677
 30
0.0
 10
14.1833415113
 20
7.973405099
 30
0.0
 10
14.1841083179
 20
7.9707985782
 30
0.0
 10
14.1854016673
 20
7.968682693
 30
0.0
 10
14.1866176307
 20
7.9676627568
 30
0.0
 10
14.1872668796
 20
7.9672879259
 30
0.0
  0
SPLINE
  5
607
100
AcDbEntity
  8
0
100
AcDbSpline
 62
7
  6
CONTINUOUS
 70
0
 71
3
 72
11
 73
7
 74
0
 42
0.0000001
 43
0.0000001
 44
0.0000000001
 40
0.0
 40
0.0
 40
0.0
 40
0.0
 40
0.2895327121
 40
0.5491053421
 40
0.7822511899
 40
1.0
 40
1.0
 40
1.0
 40
1.0
 10
14.3478869338
 20
7.8812126653
 30
0.0
 10
14.3478869338
 20
7.8802159851
 30
0.0
 10
14.348039033
 20
7.8783194637
 30
0.0
 10
14.3488055863
 20
7.8757132417
 30
0.0
 10
14.3500985504
 20
7.8735975147
 30
0.0
 10
14.3513141529
 20
7.8725775124
 30
0.0
 10
14.3519632287
 20
7.8722025984
 30
0.0
  0
SPLINE
  5
608
100
AcDbEntity
  8
0
100
AcDbSpline
 62
7
  6
CONTINUOUS
 70
0
 71
3
 72
9
 73
5
 74
0
 42
0.0000001
 43
0.0000001
 44
0.0000000001
 40
0.0
 40
0.0
 40
0.0
 40
0.0
 40
0.2371496341
 40
1.0
 40
1.0
 40
1.0
 40
1.0
 10
14.3478869338
 20
7.8812126653
 30
0.0
 10
14.3482833022
 20
7.8809838271
 30
0.0
 10
14.3499902968
 20
7.8800808444
 30
0.0
 10
14.3518171569
 20
7.8794138161
 30
0.0
 10
14.3532351636
 20
7.8790178483
 30
0.0
  0
SPLINE
  5
609
100
AcDbEntity
  8
0
100
AcDbSpline
 62
7
  6
CONTINUOUS
 70
0
 71
3
 72
9
 73
5
 74
0
 42
0.0000001
 43
0.0000001
 44
0.0000000001
 40
0.0
 40
0.0
 40
0.0
 40
0.0
 40
0.2731466306
 40
1.0
 40
1.0
 40
1.0
 40
1.0
 10
14.3532351636
 20
7.8790178483
 30
0.0
 10
14.3532351636
 20
7.878609086
 30
0.0
 10
14.3532667482
 20
7.8771134955
 30
0.0
 10
14.353422778
 20
7.8756151404
 30
0.0
 10
14.3536545373
 20
7.8745523857
 30
0.0
  0
SPLINE
  5
60A
100
AcDbEntity
  8
0
100
AcDbSpline
 62
7
  6
CONTINUOUS
 70
0
 71
3
 72
9
 73
5
 74
0
 42
0.0000001
 43
0.0000001
 44
0.0000000001
 40
0.0
 40
0.0
 40
0.0
 40
0.0
 40
0.285889937
 40
1.0
 40
1.0
 40
1.0
 40
1.0
 10
14.3536545373
 20
7.8745523857
 30
0.0
 10
14.3537210248
 20
7.8742475005
 30
0.0
 10
14.3539897547
 20
7.8731921281
 30
0.0
 10
14.3544159424
 20
7.8721567788
 30
0.0
 10
14.3548719484
 20
7.8715246325
 30
0.0
  0
SPLINE
  5
60B
100
AcDbEntity
  8
0
100
AcDbSpline
 62
7
  6
CONTINUOUS
 70
0
 71
3
 72
9
 73
5
 74
0
 42
0.0000001
 43
0.0000001
 44
0.0000000001
 40
0.0
 40
0.0
 40
0.0
 40
0.0
 40
0.275646193
 40
1.0
 40
1.0
 40
1.0
 40
1.0
 10
14.3548719484
 20
7.8715246325
 30
0.0
 10
14.3549834574
 20
7.8713700513
 30
0.0
 10
14.3554189405
 20
7.8708345772
 30
0.0
 10
14.3560297457
 20
7.8704247619
 30
0.0
 10
14.3565120104
 20
7.8702894988
 30
0.0
  0
SPLINE
  5
60C
100
AcDbEntity
  8
0
100
AcDbSpline
 62
7
  6
CONTINUOUS
 70
0
 71
3
 72
11
 73
7
 74
0
 42
0.0000001
 43
0.0000001
 44
0.0000000001
 40
0.0
 40
0.0
 40
0.0
 40
0.0
 40
0.2586743506
 40
0.5166462246
 40
0.7660668813
 40
1.0
 40
1.0
 40
1.0
 40
1.0
 10
14.4379502171
 20
7.8639938978
 30
0.0
 10
14.468763886
 20
7.8612665092
 30
0.0
 10
14.5307188706
 20
7.8597529355
 30
0.0
 10
14.6221128938
 20
7.8688537229
 30
0.0
 10
14.7087122593
 20
7.8889538002
 30
0.0
 10
14.7628451792
 20
7.910011311
 30
0.0
 10
14.7879285267
 20
7.9223987583
 30
0.0
  0
SPLINE
  5
60D
100
AcDbEntity
  8
0
100
AcDbSpline
 62
7
  6
CONTINUOUS
 70
0
 71
3
 72
14
 73
10
 74
0
 42
0.0000001
 43
0.0000001
 44
0.0000000001
 40
0.0
 40
0.0
 40
0.0
 40
0.0
 40
0.2879008168
 40
0.4211126128
 40
0.5473209263
 40
0.6671401224
 40
0.7815661467
 40
0.8919601407
 40
1.0
 40
1.0
 40
1.0
 40
1.0
 10
14.8110490042
 20
7.9346529931
 30
0.0
 10
14.8306992636
 20
7.9458247405
 30
0.0
 10
14.8582911034
 20
7.9644979779
 30
0.0
 10
14.8897631478
 20
7.9938575292
 30
0.0
 10
14.9091399202
 20
8.016562702
 30
0.0
 10
14.9246858561
 20
8.0403102453
 30
0.0
 10
14.9362320287
 20
8.064891292
 30
0.0
 10
14.9436362015
 20
8.0900626419
 30
0.0
 10
14.9457534279
 20
8.107174584
 30
0.0
 10
14.9460870461
 20
8.115650569
 30
0.0
  0
SPLINE
  5
60E
100
AcDbEntity
  8
0
100
AcDbSpline
 62
7
  6
CONTINUOUS
 70
0
 71
3
 72
9
 73
5
 74
0
 42
0.0000001
 43
0.0000001
 44
0.0000000001
 40
0.0
 40
0.0
 40
0.0
 40
0.0
 40
0.2536017127
 40
1.0
 40
1.0
 40
1.0
 40
1.0
 10
14.0931261092
 20
8.1502601991
 30
0.0
 10
14.0921676389
 20
8.1531613502
 30
0.0
 10
14.0887400814
 20
8.164713665
 30
0.0
 10
14.0867774374
 20
8.1767064247
 30
0.0
 10
14.0862239316
 20
8.1856819392
 30
0.0
  0
SPLINE
  5
60F
100
AcDbEntity
  8
0
100
AcDbSpline
 62
7
  6
CONTINUOUS
 70
0
 71
3
 72
15
 73
11
 74
0
 42
0.0000001
 43
0.0000001
 44
0.0000000001
 40
0.0
 40
0.0
 40
0.0
 40
0.0
 40
0.1033786065
 40
0.1989267649
 40
0.2892083241
 40
0.4031151293
 40
0.556660315
 40
0.7099354433
 40
0.8577604458
 40
1.0
 40
1.0
 40
1.0
 40
1.0
 10
14.3775990725
 20
7.9198209583
 30
0.0
 10
14.3774421119
 20
7.9198522157
 30
0.0
 10
14.3771336506
 20
7.9198940546
 30
0.0
 10
14.376690916
 20
7.9198696027
 30
0.0
 10
14.3762184193
 20
7.9196654855
 30
0.0
 10
14.3761742958
 20
7.9190222423
 30
0.0
 10
14.3765050225
 20
7.9184583803
 30
0.0
 10
14.3769281017
 20
7.9178939087
 30
0.0
 10
14.3774066223
 20
7.9174000666
 30
0.0
 10
14.3777427373
 20
7.9171017783
 30
0.0
 10
14.3779126252
 20
7.9169616784
 30
0.0
  0
SPLINE
  5
610
100
AcDbEntity
  8
0
100
AcDbSpline
 62
7
  6
CONTINUOUS
 70
0
 71
3
 72
9
 73
5
 74
0
 42
0.0000001
 43
0.0000001
 44
0.0000000001
 40
0.0
 40
0.0
 40
0.0
 40
0.0
 40
0.2536027873
 40
1.0
 40
1.0
 40
1.0
 40
1.0
 10
14.0931261092
 20
8.1020415524
 30
0.0
 10
14.092167144
 20
8.1049442015
 30
0.0
 10
14.0887380127
 20
8.1165024882
 30
0.0
 10
14.0867753448
 20
8.1285016631
 30
0.0
 10
14.0862227904
 20
8.1374818369
 30
0.0
  0
SPLINE
  5
611
100
AcDbEntity
  8
0
100
AcDbSpline
 62
7
  6
CONTINUOUS
 70
0
 71
3
 72
15
 73
11
 74
0
 42
0.0000001
 43
0.0000001
 44
0.0000000001
 40
0.0
 40
0.0
 40
0.0
 40
0.0
 40
0.1033810785
 40
0.198931658
 40
0.28921399
 40
0.4031129928
 40
0.5566566496
 40
0.7099333313
 40
0.857759495
 40
1.0
 40
1.0
 40
1.0
 40
1.0
 10
14.3775992111
 20
7.9680395774
 30
0.0
 10
14.3774422432
 20
7.9680708424
 30
0.0
 10
14.3771337666
 20
7.968112697
 30
0.0
 10
14.3766910121
 20
7.968088266
 30
0.0
 10
14.376218483
 20
7.9678842153
 30
0.0
 10
14.3761742551
 20
7.9672409729
 30
0.0
 10
14.3765049844
 20
7.9666770857
 30
0.0
 10
14.3769280667
 20
7.9661125934
 30
0.0
 10
14.3774066043
 20
7.9656187296
 30
0.0
 10
14.3777427311
 20
7.96532043
 30
0.0
 10
14.3779126252
 20
7.965180325
 30
0.0
  0
ENDSEC
  0
SECTION
  2
OBJECTS
  0
DICTIONARY
  5
C
100
AcDbDictionary
280
0
281
1
  3
ACAD_GROUP
350
D
  3
ACAD_MLINESTYLE
350
17
  3
ACAD_LAYOUT
350
1A
  3
ACAD_PLOTSETTINGS
350
19
  3
ACAD_PLOTSTYLENAME
350
E
  3
ACAD_TABLESTYLE
350
       612
  0
DICTIONARY
  5
D
102
{ACAD_REACTORS
330
C
102
}
100
AcDbDictionary
280
0
281
1
  0
ACDBDICTIONARYWDFLT
  5
E
102
{ACAD_REACTORS
330
C
102
}
100
AcDbDictionary
281
1
  3
Normal
350
F
100
AcDbDictionaryWithDefault
340
F
  0
DICTIONARY
  5
17
102
{ACAD_REACTORS
330
C
102
}
100
AcDbDictionary
280
0
281
1
  3
Standard
350
18
  0
DICTIONARY
  5
612
330
C
100
AcDbDictionary
281
1
  3
Standard
350
       615
  3
Standard1
350
       616
  0
DICTIONARY
  5
19
102
{ACAD_REACTORS
330
C
102
}
100
AcDbDictionary
281
1
  0
DICTIONARY
  5
1A
102
{ACAD_REACTORS
330
C
102
}
100
AcDbDictionary
281
1
  3
Model
350
613
  3
Layout1
350
614
  0
ACDBPLACEHOLDER
  5
F
102
{ACAD_REACTORS
330
E
102
}
  0
MLINESTYLE
  5
18
102
{ACAD_REACTORS
330
17
102
}
100
AcDbMlineStyle
  2
STANDARD
 70
0
  3

 62
256
 51
90.0
 52
90.0
 71
2
 49
0.5
 62
256
  6
BYLAYER
 49
-0.5
 62
256
  6
BYLAYER
  0
LAYOUT
  5
613
102
{ACAD_REACTORS
330
1A
102
}
100
AcDbPlotSettings
  1

  2
none_device
  4
ANSI_B_(17.00_x_11.00_Inches)
  6

 40
0.0
 41
0.0
 42
0.0
 43
0.0
 44
431.8
 45
279.4
 46
0.0
 47
0.0
 48
0.0
 49
0.0
140
0.0
141
0.0
142
1.0
143
1.0
 70
1024
 72
0
 73
0
 74
0
  7

 75
0
147
1.0
148
0.0
149
0.0
100
AcDbLayout
  1
Model
 70
0
 71
0
 10
0.0
 20
0.0
 11
17.0
 21
11.0
 12
0.0
 22
0.0
 32
0.0
 14
0.0
 24
0.0
 34
0.0
 15
0.0
 25
0.0
 35
0.0
146
0.0
 13
0.0
 23
0.0
 33
0.0
 16
1.0
 26
0.0
 36
0.0
 17
0.0
 27
1.0
 37
0.0
 76
0
330
215
345
0
346
0
  0
LAYOUT
  5
614
102
{ACAD_REACTORS
330
1A
102
}
100
AcDbPlotSettings
  1

  2
none_device
  4
ANSI_B_(17.00_x_11.00_Inches)
  6

 40
0.0
 41
0.0
 42
0.0
 43
0.0
 44
431.8
 45
279.4
 46
0.0
 47
0.0
 48
0.0
 49
0.0
140
0.0
141
0.0
142
1.0
143
1.0
 70
0
 72
0
 73
0
 74
0
  7

 75
0
147
1.0
148
0.0
149
0.0
100
AcDbLayout
  1
Layout1
 70
0
 71
1
 10
0.0
 20
0.0
 11
17.0
 21
11.0
 12
0.0
 22
0.0
 32
0.0
 14
0.0
 24
0.0
 34
0.0
 15
0.0
 25
0.0
 35
0.0
146
0.0
 13
0.0
 23
0.0
 33
0.0
 16
1.0
 26
0.0
 36
0.0
 17
0.0
 27
1.0
 37
0.0
 76
0
330
216
345
0
346
0
  0
TABLESTYLE
  5
615
102
{ACAD_REACTORS
330
612
102
}
330
612
100
AcDbTableStyle
  3
Standard
 70
0
 71
0
 40
0.06
 41
0.06
280
1
281
1
  7
Standard
140
0.18
170
1
 62
0
 63
7
283
0
  7
Standard
140
0.18
170
1
 62
0
 63
7
283
0
  7
Standard
140
0.18
170
1
 62
0
 63
7
283
0
  0
TABLESTYLE
  5
616
102
{ACAD_REACTORS
330
612
330
43C
102
}
330
612
100
AcDbTableStyle
  3
Standard1
 70
1
 71
0
 40
0.06
 41
0.06
280
1
281
1
  7
Standard
140
0.18
170
1
 62
0
 63
7
283
0
  7
Standard
140
0.18
170
1
 62
0
 63
7
283
0
  7
Standard
140
0.18
170
1
 62
0
 63
7
283
0
  0
ENDSEC
  0
EOF
