999
DXF file: 171611_1.dxf
999
Pro/ENGINEER 2016260 by Parametric Technology Corporation
  0
SECTION
  2
HEADER
  9
$ACADVER
  1
AC1027
  9
$DWGCODEPAGE
  3
ANSI_1252
  9
$EXTMAX
 10
17.0
 20
11.0
 30
0.0
  9
$EXTMIN
 10
0.0
 20
0.0
 30
0.0
  9
$LIMMIN
 10
0.0
 20
0.0
  9
$LIMMAX
 10
17.0
 20
11.0
  9
$VIEWCTR
 10
8.5
 20
5.5
  9
$VIEWSIZE
 40
11.0
  9
$CLAYER
  8
0
  9
$LTSCALE
 40
0.935
  9
$CELTYPE
  6
BYLAYER
  9
$DIMSCALE
 40
1.0
  9
$DIMASZ
 40
0.1875
  9
$DIMEXO
 40
0.0625
  9
$DIMDLI
 40
0.646
  9
$DIMEXE
 40
0.125
  9
$DIMCEN
 40
0.153
  9
$DIMLFAC
 40
1.0
  9
$DIMBLK
  1
_FILLED
  9
$DIMALT
 70
1
  9
$DIMALTD
 70
2
  9
$DIMALTTD
 70
2
  9
$DIMALTF
 40
1.0
  9
$DIMTXT
 40
0.1
  9
$DIMTOL
 70
1
  9
$DIMLIM
 70
0
  9
$DIMTFAC
 40
1.0
  9
$DIMTP
 40
0.005
  9
$DIMTM
 40
0.005
  9
$DIMGAP
 40
0.09
  9
$DIMDSEP
 70
46
  9
$AUNITS
 70
0
  9
$PDMODE
 70
3
  9
$PDSIZE
 40
0.3125
  9
$HANDSEED
  5
6A8
  9
$TILEMODE
 70
1
  9
$MEASUREMENT
 70
0
  9
$INSUNITS
 70
1
  0
ENDSEC
  0
SECTION
  2
CLASSES
  0
CLASS
  1
ACDBDICTIONARYWDFLT
  2
AcDbDictionaryWithDefault
  3
AutoCAD 2000
 90
0
 91
1
280
0
281
0
  0
CLASS
  1
ACDBPLACEHOLDER
  2
AcDbPlaceHolder
  3
AutoCAD 2000
 90
0
 91
1
280
0
281
0
  0
CLASS
  1
LAYOUT
  2
AcDbLayout
  3
AutoCAD 2000
 90
0
 91
0
280
0
281
0
  0
CLASS
  1
TABLESTYLE
  2
AcDbTableStyle
  3
ObjectDBX Classes
 90
2047
 91
1
280
0
281
0
  0
CLASS
  1
ACAD_TABLE
  2
AcDbTable
  3
ObjectDBX Classes
 90
1025
 91
1
280
0
281
1
  0
ENDSEC
  0
SECTION
  2
TABLES
  0
TABLE
  2
VPORT
  5
8
100
AcDbSymbolTable
 70
2
  0
VPORT
  5
1F4
100
AcDbSymbolTableRecord
100
AcDbViewportTableRecord
  2
*ACTIVE
 70
0
 10
0.0
 20
0.0
 11
1.0
 21
1.0
 12
8.5
 22
5.5
 13
0.0
 23
0.0
 14
1.0
 24
1.0
 15
0.0
 25
0.0
 16
0.0
 26
0.0
 36
1.0
 17
0.0
 27
0.0
 37
0.0
 40
11.0
 41
1.5454545455
 42
50.0
 43
0.0
 44
0.0
 50
0.0
 51
0.0
 71
0
 72
100
 73
1
 74
1
 75
0
 76
0
 77
0
 78
0
  0
ENDTAB
  0
TABLE
  2
LTYPE
  5
5
100
AcDbSymbolTable
 70
6
  0
LTYPE
  5
14
100
AcDbSymbolTableRecord
100
AcDbLinetypeTableRecord
  2
BYBLOCK
 70
0
  3

 72
65
 73
0
 40
0.0
  0
LTYPE
  5
15
100
AcDbSymbolTableRecord
100
AcDbLinetypeTableRecord
  2
BYLAYER
 70
0
  3

 72
65
 73
0
 40
0.0
  0
LTYPE
  5
16
100
AcDbSymbolTableRecord
100
AcDbLinetypeTableRecord
  2
CONTINUOUS
 70
64
  3
Solid line
 72
65
 73
0
 40
0.0
  0
LTYPE
  5
1F5
100
AcDbSymbolTableRecord
100
AcDbLinetypeTableRecord
  2
CENTER
 70
64
  3
____ _ ____ _ ____ _ ____ _ ____ _ ____ _ ____
 72
65
 73
4
 40
0.6
 49
0.375
 74
0
 49
-0.075
 74
0
 49
0.075
 74
0
 49
-0.075
 74
0
  0
LTYPE
  5
1F6
100
AcDbSymbolTableRecord
100
AcDbLinetypeTableRecord
  2
HIDDEN
 70
64
  3
- - - - - - - - - - - - - - - - - - - -
 72
65
 73
2
 40
0.2
 49
0.1
 74
0
 49
-0.1
 74
0
  0
LTYPE
  5
1F7
100
AcDbSymbolTableRecord
100
AcDbLinetypeTableRecord
  2
PHANTOM
 70
64
  3
_____ _ _ _____ _ _ _____ _ _ _____
 72
65
 73
6
 40
0.8
 49
0.45
 74
0
 49
-0.05
 74
0
 49
0.1
 74
0
 49
-0.05
 74
0
 49
0.1
 74
0
 49
-0.05
 74
0
  0
LTYPE
  5
1F8
100
AcDbSymbolTableRecord
100
AcDbLinetypeTableRecord
  2
DOT
 70
64
  3
. . . . . . . . . . . . . . . . . . . .
 72
65
 73
2
 40
0.2
 49
0.1
 74
0
 49
-0.1
 74
0
  0
LTYPE
  5
1F9
100
AcDbSymbolTableRecord
100
AcDbLinetypeTableRecord
  2
DASHED
 70
64
  3
- - - - - - - - - - - - - - - - - - - -
 72
65
 73
2
 40
0.2
 49
0.1
 74
0
 49
-0.1
 74
0
  0
ENDTAB
  0
TABLE
  2
LAYER
  5
2
100
AcDbSymbolTable
 70
36
  0
LAYER
  5
10
100
AcDbSymbolTableRecord
100
AcDbLayerTableRecord
  2
0
 70
0
 62
7
  6
CONTINUOUS
370
-3
390
F
  0
LAYER
  5
1FA
100
AcDbSymbolTableRecord
100
AcDbLayerTableRecord
  2
DEFAULT_1
 70
0
 62
7
  6
CENTER
370
-3
390
F
  0
LAYER
  5
1FB
100
AcDbSymbolTableRecord
100
AcDbLayerTableRecord
  2
DEFAULT_2
 70
0
 62
7
  6
HIDDEN
370
-3
390
F
  0
LAYER
  5
1FC
100
AcDbSymbolTableRecord
100
AcDbLayerTableRecord
  2
DEFAULT_3
 70
0
 62
7
  6
PHANTOM
370
-3
390
F
  0
LAYER
  5
1FD
100
AcDbSymbolTableRecord
100
AcDbLayerTableRecord
  2
01___PRT_ALL_DTM_PLN
 70
0
 62
7
  6
CONTINUOUS
370
-3
390
F
  0
LAYER
  5
1FE
100
AcDbSymbolTableRecord
100
AcDbLayerTableRecord
  2
01___PRT_DEF_DTM_PLN
 70
0
 62
7
  6
CONTINUOUS
370
-3
390
F
  0
LAYER
  5
1FF
100
AcDbSymbolTableRecord
100
AcDbLayerTableRecord
  2
02___PRT_ALL_AXES
 70
0
 62
7
  6
CONTINUOUS
370
-3
390
F
  0
LAYER
  5
200
100
AcDbSymbolTableRecord
100
AcDbLayerTableRecord
  2
03___PRT_ALL_CURVES
 70
0
 62
7
  6
CONTINUOUS
370
-3
390
F
  0
LAYER
  5
201
100
AcDbSymbolTableRecord
100
AcDbLayerTableRecord
  2
04___PRT_ALL_DTM_PNT
 70
0
 62
7
  6
CONTINUOUS
370
-3
390
F
  0
LAYER
  5
202
100
AcDbSymbolTableRecord
100
AcDbLayerTableRecord
  2
05___PRT_ALL_DTM_CSYS
 70
0
 62
7
  6
CONTINUOUS
370
-3
390
F
  0
LAYER
  5
203
100
AcDbSymbolTableRecord
100
AcDbLayerTableRecord
  2
05___PRT_DEF_DTM_CSYS
 70
0
 62
7
  6
CONTINUOUS
370
-3
390
F
  0
LAYER
  5
204
100
AcDbSymbolTableRecord
100
AcDbLayerTableRecord
  2
06___PRT_ALL_SURFS
 70
0
 62
7
  6
CONTINUOUS
370
-3
390
F
  0
LAYER
  5
205
100
AcDbSymbolTableRecord
100
AcDbLayerTableRecord
  2
AXIS
 70
0
 62
7
  6
CONTINUOUS
370
-3
390
F
  0
LAYER
  5
206
100
AcDbSymbolTableRecord
100
AcDbLayerTableRecord
  2
AXIS_COSMETIC_THREADS
 70
0
 62
7
  6
CONTINUOUS
370
-3
390
F
  0
LAYER
  5
207
100
AcDbSymbolTableRecord
100
AcDbLayerTableRecord
  2
COSMETIC_THREADS
 70
0
 62
7
  6
CONTINUOUS
370
-3
390
F
  0
LAYER
  5
208
100
AcDbSymbolTableRecord
100
AcDbLayerTableRecord
  2
DATUM_CURVES
 70
0
 62
7
  6
CONTINUOUS
370
-3
390
F
  0
LAYER
  5
209
100
AcDbSymbolTableRecord
100
AcDbLayerTableRecord
  2
DATUM_PLANES
 70
0
 62
7
  6
CONTINUOUS
370
-3
390
F
  0
LAYER
  5
20A
100
AcDbSymbolTableRecord
100
AcDbLayerTableRecord
  2
NOTES
 70
0
 62
7
  6
CONTINUOUS
370
-3
390
F
  0
LAYER
  5
20B
100
AcDbSymbolTableRecord
100
AcDbLayerTableRecord
  2
QUILTS
 70
0
 62
7
  6
CONTINUOUS
370
-3
390
F
  0
LAYER
  5
20C
100
AcDbSymbolTableRecord
100
AcDbLayerTableRecord
  2
SCHEME_DIMS
 70
0
 62
7
  6
CONTINUOUS
370
-3
390
F
  0
LAYER
  5
20D
100
AcDbSymbolTableRecord
100
AcDbLayerTableRecord
  2
SYMBOLS
 70
0
 62
7
  6
CONTINUOUS
370
-3
390
F
  0
LAYER
  5
20E
100
AcDbSymbolTableRecord
100
AcDbLayerTableRecord
  2
XSEC_DATUMS
 70
0
 62
7
  6
CONTINUOUS
370
-3
390
F
  0
ENDTAB
  0
TABLE
  2
STYLE
  5
3
100
AcDbSymbolTable
 70
1
  0
STYLE
  5
11
100
AcDbSymbolTableRecord
100
AcDbTextStyleTableRecord
  2
STANDARD
 70
0
 40
0.0
 41
1.0
 50
0.0
 71
0
 42
0.2
  3
txt
  4

  0
STYLE
  5
20F
100
AcDbSymbolTableRecord
100
AcDbTextStyleTableRecord
  2
TEXTSTYLE_1
 70
0
 40
0.0
 41
0.8
 50
0.0
 71
0
 42
0.2
  3
gdt
  4

  0
STYLE
  5
210
100
AcDbSymbolTableRecord
100
AcDbTextStyleTableRecord
  2
TEXTSTYLE_2
 70
0
 40
0.0
 41
0.8
 50
0.0
 71
0
 42
0.2
  3
txt
  4

  0
STYLE
  5
211
100
AcDbSymbolTableRecord
100
AcDbTextStyleTableRecord
  2
TEXTSTYLE_3
 70
0
 40
0.0
 41
0.85
 50
0.0
 71
0
 42
0.2
  3
txt
  4

  0
STYLE
  5
212
100
AcDbSymbolTableRecord
100
AcDbTextStyleTableRecord
  2
TEXTSTYLE_4
 70
0
 40
0.0
 41
0.9
 50
0.0
 71
0
 42
0.2
  3
txt
  4

  0
STYLE
  5
213
100
AcDbSymbolTableRecord
100
AcDbTextStyleTableRecord
  2
TEXTSTYLE_5
 70
0
 40
0.0
 41
0.75
 50
0.0
 71
0
 42
0.2
  3
txt
  4

  0
STYLE
  5
214
100
AcDbSymbolTableRecord
100
AcDbTextStyleTableRecord
  2
TEXTSTYLE_6
 70
0
 40
0.0
 41
1.0
 50
0.0
 71
0
 42
0.2
  3
gdt
  4

  0
ENDTAB
  0
TABLE
  2
VIEW
  5
6
100
AcDbSymbolTable
 70
0
  0
ENDTAB
  0
TABLE
  2
UCS
  5
7
100
AcDbSymbolTable
 70
0
  0
ENDTAB
  0
TABLE
  2
APPID
  5
9
100
AcDbSymbolTable
 70
1
  0
APPID
  5
215
100
AcDbSymbolTableRecord
100
AcDbRegAppTableRecord
  2
ACAD
 70
0
  0
ENDTAB
  0
TABLE
  2
BLOCK_RECORD
  5
1
100
AcDbSymbolTable
 70
0
  0
BLOCK_RECORD
  5
216
100
AcDbSymbolTableRecord
100
AcDbBlockTableRecord
  2
*Model_Space
  0
BLOCK_RECORD
  5
217
100
AcDbSymbolTableRecord
100
AcDbBlockTableRecord
  2
*Paper_Space
  0
BLOCK_RECORD
  5
218
100
AcDbSymbolTableRecord
100
AcDbBlockTableRecord
  2
_FILLED
  0
BLOCK_RECORD
  5
219
100
AcDbSymbolTableRecord
100
AcDbBlockTableRecord
  2
*D0
  0
BLOCK_RECORD
  5
21A
100
AcDbSymbolTableRecord
100
AcDbBlockTableRecord
  2
*D1
  0
BLOCK_RECORD
  5
21B
100
AcDbSymbolTableRecord
100
AcDbBlockTableRecord
  2
*D2
  0
BLOCK_RECORD
  5
21C
100
AcDbSymbolTableRecord
100
AcDbBlockTableRecord
  2
*T1
  0
ENDTAB
  0
TABLE
  2
DIMSTYLE
  5
A
100
AcDbSymbolTable
 70
1
100
AcDbDimStyleTable
 71
0
  0
DIMSTYLE
105
21D
100
AcDbSymbolTableRecord
100
AcDbDimStyleTableRecord
  2
STANDARD
 70
0
  3

  4

 40
1.0
 41
0.1875
 42
0.0625
 43
0.38
 44
0.125
 45
0.0
 46
0.0
 47
0.005
 48
0.005
140
0.1
141
0.09
142
0.0
143
1.0
144
1.0
145
0.0
146
1.0
147
0.09
 71
1.0
 72
0.0
 73
1
 74
1
 75
0
 76
0
 77
0
 78
4
170
1
171
2
172
0
173
0
174
0
175
0
176
0
177
0
178
0
270
2
271
3
272
3
273
2
274
2
275
0
280
0
281
0
282
0
283
1
284
4
285
0
286
0
287
3
288
0
340
11
278
46
341
218
342
218
343
218
344
218
  0
DIMSTYLE
105
21E
100
AcDbSymbolTableRecord
100
AcDbDimStyleTableRecord
  2
DIMSTYLE_1
 70
0
  3
<>
  4

 40
1.0
 41
0.1875
 42
0.0625
 43
0.38
 44
0.125
 45
0.0
 46
0.0
 47
0.1
 48
0.1
140
0.1
141
0.09
142
0.0
143
1.0
144
1.0
145
0.0
146
1.0
147
0.09
 71
0.0
 72
0.0
 73
1
 74
1
 75
0
 76
0
 77
0
 78
4
170
1
171
2
172
1
173
0
174
0
175
0
176
0
177
0
178
0
270
2
271
1
272
3
273
2
274
4
275
0
280
0
281
0
282
0
283
1
284
4
285
0
286
0
287
3
288
1
340
11
278
46
289
2
341
218
342
218
343
218
344
218
  0
DIMSTYLE
105
21F
100
AcDbSymbolTableRecord
100
AcDbDimStyleTableRecord
  2
DIMSTYLE_2
 70
0
  3

  4

 40
1.0
 41
0.1875
 42
0.0625
 43
0.38
 44
0.125
 45
0.0
 46
0.0
 47
0.1
 48
0.1
140
0.1
141
0.09
142
0.0
143
1.0
144
1.0
145
0.0
146
1.0
147
0.1
 71
0.0
 72
0.0
 73
1
 74
1
 75
0
 76
0
 77
0
 78
4
170
1
171
2
172
0
173
0
174
0
175
0
176
0
177
0
178
0
270
2
271
1
272
3
273
2
274
4
275
0
280
0
281
0
282
0
283
1
284
4
285
0
286
0
287
3
288
0
340
11
278
46
341
218
342
218
343
218
344
218
  0
ENDTAB
  0
ENDSEC
  0
SECTION
  2
BLOCKS
  0
BLOCK
  5
20
100
AcDbEntity
  8
0
100
AcDbBlockBegin
  2
*Model_Space
 70
0
 10
0.0
 20
0.0
 30
0.0
  3
*Model_Space
  1

  0
ENDBLK
  5
21
100
AcDbEntity
  8
0
100
AcDbBlockEnd
  0
BLOCK
  5
1C
100
AcDbEntity
  8
0
100
AcDbBlockBegin
  2
*Paper_Space
 70
0
 10
0.0
 20
0.0
 30
0.0
  3
*Paper_Space
  1

  0
ENDBLK
  5
1D
100
AcDbEntity
  8
0
100
AcDbBlockEnd
  0
BLOCK
  5
220
100
AcDbEntity
  8
0
100
AcDbBlockBegin
  2
_FILLED
 70
64
 10
0.0
 20
0.0
  3
_FILLED
  1

  0
SOLID
  5
221
100
AcDbEntity
  8
0
  6
BYBLOCK
 62
0
100
AcDbTrace
 10
0.0
 20
0.0
 11
-1.0
 21
0.1666666667
 12
-1.0
 22
-0.1666666667
 13
-1.0
 23
-0.1666666667
  0
ENDBLK
  5
222
100
AcDbEntity
  8
0
  6
BYBLOCK
 62
0
100
AcDbBlockEnd
  0
BLOCK
  5
223
100
AcDbEntity
  8
SCHEME_DIMS
100
AcDbBlockBegin
 62
7
  6
CONTINUOUS
  2
*D0
 70
65
 10
0.0
 20
0.0
  3
*D0
  1

  0
MTEXT
  5
224
100
AcDbEntity
  8
SCHEME_DIMS
100
AcDbMText
 62
7
  6
CONTINUOUS
  7
TEXTSTYLE_6
 71
1
 72
1
 10
3.1919274627
 20
4.9285274002
 30
0.0
 11
1.0
 21
0.0
 31
0.0
 44
0.9
  1
{\Fgdt;n}\Ftxt;30.0\P[1.18]
 40
0.1
 41
0.6
  0
LINE
  5
225
100
AcDbEntity
  8
SCHEME_DIMS
100
AcDbLine
 62
7
  6
CONTINUOUS
 10
2.7502836562
 20
5.0741214931
 11
2.3369822555
 21
5.4959421301
  0
LINE
  5
226
100
AcDbEntity
  8
SCHEME_DIMS
100
AcDbLine
 62
7
  6
CONTINUOUS
 10
2.3369822555
 20
5.4959421301
 11
2.9419274627
 21
4.8785274002
  0
LINE
  5
227
100
AcDbEntity
  8
SCHEME_DIMS
100
AcDbLine
 62
7
  6
CONTINUOUS
 10
2.9419274627
 20
4.8785274002
 11
3.0919274627
 21
4.8785274002
  0
LINE
  5
228
100
AcDbEntity
  8
SCHEME_DIMS
100
AcDbLine
 62
7
  6
CONTINUOUS
 10
1.9236808549
 20
5.917762767
 11
2.3369822555
 21
5.4959421301
  0
INSERT
  5
229
100
AcDbEntity
  8
SCHEME_DIMS
100
AcDbBlockReference
 62
7
  6
CONTINUOUS
  2
_FILLED
 10
2.7502836562
 20
5.0741214931
 41
0.1875
 42
0.1875
 43
0.1875
 50
314.4155352931
  0
INSERT
  5
22A
100
AcDbEntity
  8
SCHEME_DIMS
100
AcDbBlockReference
 62
7
  6
CONTINUOUS
  2
_FILLED
 10
1.9236808549
 20
5.917762767
 41
0.1875
 42
0.1875
 43
0.1875
 50
134.4155352931
  0
ENDBLK
  5
22B
100
AcDbEntity
  8
0
  6
BYBLOCK
 62
0
100
AcDbBlockEnd
  0
BLOCK
  5
22C
100
AcDbEntity
  8
SCHEME_DIMS
100
AcDbBlockBegin
 62
7
  6
CONTINUOUS
  2
*D1
 70
65
 10
0.0
 20
0.0
  3
*D1
  1

  0
MTEXT
  5
22D
100
AcDbEntity
  8
SCHEME_DIMS
100
AcDbMText
 62
7
  6
CONTINUOUS
  7
STANDARD
 71
2
 72
1
 10
5.3862275953
 20
6.6364933112
 30
0.0
 11
1.0
 21
0.0
 31
0.0
 44
0.9
  1
23.5\P[.93]
 40
0.1
 41
0.5
  0
LINE
  5
22E
100
AcDbEntity
  8
SCHEME_DIMS
100
AcDbLine
 62
7
  6
CONTINUOUS
 10
5.8988260205
 20
6.1096232323
 11
5.8988260205
 21
6.7114933112
  0
LINE
  5
22F
100
AcDbEntity
  8
SCHEME_DIMS
100
AcDbLine
 62
7
  6
CONTINUOUS
 10
4.9736291701
 20
5.7522713112
 11
4.9736291701
 21
6.7114933112
  0
LINE
  5
230
100
AcDbEntity
  8
SCHEME_DIMS
100
AcDbLine
 62
7
  6
CONTINUOUS
 10
5.8988260205
 20
6.5864933112
 11
6.2988260205
 21
6.5864933112
  0
LINE
  5
231
100
AcDbEntity
  8
SCHEME_DIMS
100
AcDbLine
 62
7
  6
CONTINUOUS
 10
4.9736291701
 20
6.5864933112
 11
4.5736291701
 21
6.5864933112
  0
INSERT
  5
232
100
AcDbEntity
  8
SCHEME_DIMS
100
AcDbBlockReference
 62
7
  6
CONTINUOUS
  2
_FILLED
 10
5.8988260205
 20
6.5864933112
 41
0.1875
 42
0.1875
 43
0.1875
 50
180.0
  0
INSERT
  5
233
100
AcDbEntity
  8
SCHEME_DIMS
100
AcDbBlockReference
 62
7
  6
CONTINUOUS
  2
_FILLED
 10
4.9736291701
 20
6.5864933112
 41
0.1875
 42
0.1875
 43
0.1875
  0
ENDBLK
  5
234
100
AcDbEntity
  8
0
  6
BYBLOCK
 62
0
100
AcDbBlockEnd
  0
BLOCK
  5
235
100
AcDbEntity
  8
SCHEME_DIMS
100
AcDbBlockBegin
 62
7
  6
CONTINUOUS
  2
*D2
 70
65
 10
0.0
 20
0.0
  3
*D2
  1

  0
MTEXT
  5
236
100
AcDbEntity
  8
SCHEME_DIMS
100
AcDbMText
 62
7
  6
CONTINUOUS
  7
STANDARD
 71
2
 72
1
 10
5.9464638158
 20
7.0114933112
 30
0.0
 11
1.0
 21
0.0
 31
0.0
 44
0.9
  1
54.5\P[2.15]
 40
0.1
 41
0.6
  0
LINE
  5
237
100
AcDbEntity
  8
SCHEME_DIMS
100
AcDbLine
 62
7
  6
CONTINUOUS
 10
7.1192984615
 20
5.7621822875
 11
7.1192984615
 21
7.0864933112
  0
LINE
  5
238
100
AcDbEntity
  8
SCHEME_DIMS
100
AcDbLine
 62
7
  6
CONTINUOUS
 10
4.9736291701
 20
5.790395205
 11
4.9736291701
 21
7.0864933112
  0
LINE
  5
239
100
AcDbEntity
  8
SCHEME_DIMS
100
AcDbLine
 62
7
  6
CONTINUOUS
 10
7.1192984615
 20
6.9614933112
 11
6.4464638158
 21
6.9614933112
  0
LINE
  5
23A
100
AcDbEntity
  8
SCHEME_DIMS
100
AcDbLine
 62
7
  6
CONTINUOUS
 10
4.9736291701
 20
6.9614933112
 11
5.6464638158
 21
6.9614933112
  0
INSERT
  5
23B
100
AcDbEntity
  8
SCHEME_DIMS
100
AcDbBlockReference
 62
7
  6
CONTINUOUS
  2
_FILLED
 10
7.1192984615
 20
6.9614933112
 41
0.1875
 42
0.1875
 43
0.1875
  0
INSERT
  5
23C
100
AcDbEntity
  8
SCHEME_DIMS
100
AcDbBlockReference
 62
7
  6
CONTINUOUS
  2
_FILLED
 10
4.9736291701
 20
6.9614933112
 41
0.1875
 42
0.1875
 43
0.1875
 50
180.0
  0
ENDBLK
  5
23D
100
AcDbEntity
  8
0
  6
BYBLOCK
 62
0
100
AcDbBlockEnd
  0
BLOCK
  5
23E
100
AcDbEntity
  8
0
100
AcDbBlockBegin
  2
*T1
 70
1
 10
0.0
 20
0.0
  3
*T1
  1

  0
LINE
  5
23F
100
AcDbEntity
  8
0
100
AcDbLine
 62
7
  6
CONTINUOUS
 10
4.35
 20
0.0
 11
0.0
 21
0.0
  0
LINE
  5
240
100
AcDbEntity
  8
0
100
AcDbLine
 62
7
  6
CONTINUOUS
 10
4.35
 20
0.0
 11
4.35
 21
1.92
  0
LINE
  5
241
100
AcDbEntity
  8
0
100
AcDbLine
 62
7
  6
CONTINUOUS
 10
4.35
 20
1.92
 11
0.0
 21
1.92
  0
LINE
  5
242
100
AcDbEntity
  8
0
100
AcDbLine
 62
7
  6
CONTINUOUS
 10
0.0
 20
0.0
 11
0.0
 21
1.92
  0
MTEXT
  5
243
100
AcDbEntity
  8
NOTES
100
AcDbMText
 62
7
  6
CONTINUOUS
  7
STANDARD
 71
2
 72
1
 10
4.125
 20
0.48
 30
0.0
 11
1.0
 21
0.0
 31
0.0
 44
0.9
  1
B
 40
0.1
 41
0.2
  0
MTEXT
  5
244
100
AcDbEntity
  8
NOTES
100
AcDbMText
 62
7
  6
CONTINUOUS
  7
STANDARD
 71
2
 72
1
 10
2.175
 20
0.93
 30
0.0
 11
1.0
 21
0.0
 31
0.0
 44
0.9
  1
K30C QD
 40
0.1
 41
1.4
  0
ENDBLK
  5
245
100
AcDbEntity
  8
0
  6
BYBLOCK
 62
0
100
AcDbBlockEnd
  0
ENDSEC
  0
SECTION
  2
ENTITIES
  0
MTEXT
  5
246
100
AcDbEntity
  8
0
100
AcDbMText
 62
7
  6
CONTINUOUS
  7
TEXTSTYLE_2
 71
2
 72
1
 10
11.0287658475
 20
1.794867839
 30
0.0
 11
1.0
 21
0.0
 31
0.0
 44
0.9
  1
THIRD ANGLE PROJECTION
 40
0.1
 41
1.76
  0
MTEXT
  5
247
100
AcDbEntity
  8
0
100
AcDbMText
 62
7
  6
CONTINUOUS
  7
STANDARD
 71
1
 72
1
 10
12.88
 20
1.457
 30
0.0
 11
1.0
 21
0.0
 31
0.0
 44
0.9
  1
DRAWING NO.
 40
0.08
 41
0.88
  0
MTEXT
  5
248
100
AcDbEntity
  8
0
100
AcDbMText
 62
7
  6
CONTINUOUS
  7
TEXTSTYLE_2
 71
1
 72
1
 10
12.08
 20
2.217
 30
0.0
 11
1.0
 21
0.0
 31
0.0
 44
0.9
  1
TITLE
 40
0.1
 41
0.4
  0
MTEXT
  5
249
100
AcDbEntity
  8
0
100
AcDbMText
 62
7
  6
CONTINUOUS
  7
STANDARD
 71
1
 72
1
 10
12.08
 20
1.457
 30
0.0
 11
1.0
 21
0.0
 31
0.0
 44
0.9
  1
SIZE
 40
0.08
 41
0.32
  0
MTEXT
  5
24A
100
AcDbEntity
  8
0
100
AcDbMText
 62
7
  6
CONTINUOUS
  7
STANDARD
 71
1
 72
1
 10
12.08
 20
1.087
 30
0.0
 11
1.0
 21
0.0
 31
0.0
 44
0.9
  1
SCALE
 40
0.08
 41
0.4
  0
MTEXT
  5
24B
100
AcDbEntity
  8
0
100
AcDbMText
 62
7
  6
CONTINUOUS
  7
TEXTSTYLE_2
 71
2
 72
1
 10
12.5
 20
1.337
 30
0.0
 11
1.0
 21
0.0
 31
0.0
 44
0.9
  1
B
 40
0.1
 41
0.08
  0
MTEXT
  5
24C
100
AcDbEntity
  8
0
100
AcDbMText
 62
7
  6
CONTINUOUS
  7
TEXTSTYLE_3
 71
2
 72
1
 10
11.0340287086
 20
2.7679425959
 30
0.0
 11
1.0
 21
0.0
 31
0.0
 44
0.9
  1
This drawing is the property\Pof BANNER ENGINEERING CORP.\PAny use or reproduction,\Pin any form, without prior\Pwritten permission of\PBanner is prohibited.
 40
0.08
 41
1.904
  0
MTEXT
  5
24D
100
AcDbEntity
  8
0
100
AcDbMText
 62
7
  6
CONTINUOUS
  7
STANDARD
 71
1
 72
1
 10
14.255
 20
1.087
 30
0.0
 11
1.0
 21
0.0
 31
0.0
 44
0.9
  1
SHEET
 40
0.08
 41
0.4
  0
MTEXT
  5
24E
100
AcDbEntity
  8
0
100
AcDbMText
 62
7
  6
CONTINUOUS
  7
STANDARD
 71
1
 72
1
 10
15.63
 20
1.457
 30
0.0
 11
1.0
 21
0.0
 31
0.0
 44
0.9
  1
REV.
 40
0.08
 41
0.32
  0
MTEXT
  5
24F
100
AcDbEntity
  8
0
100
AcDbMText
 62
7
  6
CONTINUOUS
  7
STANDARD
 71
3
 72
1
 10
16.38
 20
0.835443
 30
0.0
 11
1.0
 21
0.0
 31
0.0
 44
0.9
  1
CREO
 40
0.07
 41
0.28
  0
MTEXT
  5
250
100
AcDbEntity
  8
0
100
AcDbMText
 62
7
  6
CONTINUOUS
  7
TEXTSTYLE_4
 71
2
 72
1
 10
15.1043392653
 20
2.7174764286
 30
0.0
 11
1.0
 21
0.0
 31
0.0
 44
0.9
  1
BANNER ENGINEERING CORP.
 40
0.12
 41
2.592
  0
MTEXT
  5
251
100
AcDbEntity
  8
0
100
AcDbMText
 62
7
  6
CONTINUOUS
  7
TEXTSTYLE_2
 71
2
 72
1
 10
15.0923490612
 20
2.4764783673
 30
0.0
 11
1.0
 21
0.0
 31
0.0
 44
0.9
  1
www.bannerengineering.com
 40
0.1
 41
2.0
  0
MTEXT
  5
252
100
AcDbEntity
  8
0
100
AcDbMText
 62
7
  6
CONTINUOUS
  7
TEXTSTYLE_2
 71
2
 72
1
 10
9.485
 20
10.312
 30
0.0
 11
1.0
 21
0.0
 31
0.0
 44
0.9
  1
4
 40
0.1
 41
0.08
  0
MTEXT
  5
253
100
AcDbEntity
  8
0
100
AcDbMText
 62
7
  6
CONTINUOUS
  7
TEXTSTYLE_2
 71
2
 72
1
 10
11.455
 20
10.312
 30
0.0
 11
1.0
 21
0.0
 31
0.0
 44
0.9
  1
3
 40
0.1
 41
0.08
  0
MTEXT
  5
254
100
AcDbEntity
  8
0
100
AcDbMText
 62
7
  6
CONTINUOUS
  7
TEXTSTYLE_2
 71
2
 72
1
 10
13.425
 20
10.312
 30
0.0
 11
1.0
 21
0.0
 31
0.0
 44
0.9
  1
2
 40
0.1
 41
0.08
  0
MTEXT
  5
255
100
AcDbEntity
  8
0
100
AcDbMText
 62
7
  6
CONTINUOUS
  7
TEXTSTYLE_2
 71
2
 72
1
 10
15.395
 20
10.312
 30
0.0
 11
1.0
 21
0.0
 31
0.0
 44
0.9
  1
1
 40
0.1
 41
0.08
  0
MTEXT
  5
256
100
AcDbEntity
  8
0
100
AcDbMText
 62
7
  6
CONTINUOUS
  7
TEXTSTYLE_2
 71
2
 72
1
 10
3.575
 20
10.312
 30
0.0
 11
1.0
 21
0.0
 31
0.0
 44
0.9
  1
7
 40
0.1
 41
0.08
  0
MTEXT
  5
257
100
AcDbEntity
  8
0
100
AcDbMText
 62
7
  6
CONTINUOUS
  7
TEXTSTYLE_2
 71
2
 72
1
 10
5.545
 20
10.312
 30
0.0
 11
1.0
 21
0.0
 31
0.0
 44
0.9
  1
6
 40
0.1
 41
0.08
  0
MTEXT
  5
258
100
AcDbEntity
  8
0
100
AcDbMText
 62
7
  6
CONTINUOUS
  7
TEXTSTYLE_2
 71
2
 72
1
 10
7.515
 20
10.312
 30
0.0
 11
1.0
 21
0.0
 31
0.0
 44
0.9
  1
5
 40
0.1
 41
0.08
  0
MTEXT
  5
259
100
AcDbEntity
  8
0
100
AcDbMText
 62
7
  6
CONTINUOUS
  7
TEXTSTYLE_2
 71
2
 72
1
 10
1.605
 20
10.312
 30
0.0
 11
1.0
 21
0.0
 31
0.0
 44
0.9
  1
8
 40
0.1
 41
0.08
  0
MTEXT
  5
25A
100
AcDbEntity
  8
0
100
AcDbMText
 62
7
  6
CONTINUOUS
  7
TEXTSTYLE_2
 71
2
 72
1
 10
1.605
 20
0.787
 30
0.0
 11
1.0
 21
0.0
 31
0.0
 44
0.9
  1
8
 40
0.1
 41
0.08
  0
MTEXT
  5
25B
100
AcDbEntity
  8
0
100
AcDbMText
 62
7
  6
CONTINUOUS
  7
TEXTSTYLE_2
 71
2
 72
1
 10
3.575
 20
0.787
 30
0.0
 11
1.0
 21
0.0
 31
0.0
 44
0.9
  1
7
 40
0.1
 41
0.08
  0
MTEXT
  5
25C
100
AcDbEntity
  8
0
100
AcDbMText
 62
7
  6
CONTINUOUS
  7
TEXTSTYLE_2
 71
2
 72
1
 10
5.545
 20
0.787
 30
0.0
 11
1.0
 21
0.0
 31
0.0
 44
0.9
  1
6
 40
0.1
 41
0.08
  0
MTEXT
  5
25D
100
AcDbEntity
  8
0
100
AcDbMText
 62
7
  6
CONTINUOUS
  7
TEXTSTYLE_2
 71
2
 72
1
 10
7.515
 20
0.787
 30
0.0
 11
1.0
 21
0.0
 31
0.0
 44
0.9
  1
5
 40
0.1
 41
0.08
  0
MTEXT
  5
25E
100
AcDbEntity
  8
0
100
AcDbMText
 62
7
  6
CONTINUOUS
  7
TEXTSTYLE_2
 71
2
 72
1
 10
9.485
 20
0.787
 30
0.0
 11
1.0
 21
0.0
 31
0.0
 44
0.9
  1
4
 40
0.1
 41
0.08
  0
MTEXT
  5
25F
100
AcDbEntity
  8
0
100
AcDbMText
 62
7
  6
CONTINUOUS
  7
TEXTSTYLE_2
 71
2
 72
1
 10
11.455
 20
0.787
 30
0.0
 11
1.0
 21
0.0
 31
0.0
 44
0.9
  1
3
 40
0.1
 41
0.08
  0
MTEXT
  5
260
100
AcDbEntity
  8
0
100
AcDbMText
 62
7
  6
CONTINUOUS
  7
TEXTSTYLE_2
 71
2
 72
1
 10
13.425
 20
0.787
 30
0.0
 11
1.0
 21
0.0
 31
0.0
 44
0.9
  1
2
 40
0.1
 41
0.08
  0
MTEXT
  5
261
100
AcDbEntity
  8
0
100
AcDbMText
 62
7
  6
CONTINUOUS
  7
TEXTSTYLE_2
 71
2
 72
1
 10
15.395
 20
0.787
 30
0.0
 11
1.0
 21
0.0
 31
0.0
 44
0.9
  1
1
 40
0.1
 41
0.08
  0
MTEXT
  5
262
100
AcDbEntity
  8
0
100
AcDbMText
 62
7
  6
CONTINUOUS
  7
TEXTSTYLE_2
 71
3
 72
1
 10
0.52
 20
4.3995
 30
0.0
 11
1.0
 21
0.0
 31
0.0
 44
0.9
  1
B
 40
0.1
 41
0.08
  0
MTEXT
  5
263
100
AcDbEntity
  8
0
100
AcDbMText
 62
7
  6
CONTINUOUS
  7
TEXTSTYLE_2
 71
3
 72
1
 10
0.52
 20
2.0995
 30
0.0
 11
1.0
 21
0.0
 31
0.0
 44
0.9
  1
A
 40
0.1
 41
0.08
  0
MTEXT
  5
264
100
AcDbEntity
  8
0
100
AcDbMText
 62
7
  6
CONTINUOUS
  7
TEXTSTYLE_2
 71
3
 72
1
 10
0.52
 20
8.9995
 30
0.0
 11
1.0
 21
0.0
 31
0.0
 44
0.9
  1
D
 40
0.1
 41
0.08
  0
MTEXT
  5
265
100
AcDbEntity
  8
0
100
AcDbMText
 62
7
  6
CONTINUOUS
  7
TEXTSTYLE_2
 71
3
 72
1
 10
0.52
 20
6.6995
 30
0.0
 11
1.0
 21
0.0
 31
0.0
 44
0.9
  1
C
 40
0.1
 41
0.08
  0
MTEXT
  5
266
100
AcDbEntity
  8
0
100
AcDbMText
 62
7
  6
CONTINUOUS
  7
TEXTSTYLE_2
 71
1
 72
1
 10
16.48
 20
8.9995
 30
0.0
 11
1.0
 21
0.0
 31
0.0
 44
0.9
  1
D
 40
0.1
 41
0.08
  0
MTEXT
  5
267
100
AcDbEntity
  8
0
100
AcDbMText
 62
7
  6
CONTINUOUS
  7
TEXTSTYLE_2
 71
1
 72
1
 10
16.48
 20
6.6995
 30
0.0
 11
1.0
 21
0.0
 31
0.0
 44
0.9
  1
C
 40
0.1
 41
0.08
  0
MTEXT
  5
268
100
AcDbEntity
  8
0
100
AcDbMText
 62
7
  6
CONTINUOUS
  7
TEXTSTYLE_2
 71
1
 72
1
 10
16.48
 20
4.3995
 30
0.0
 11
1.0
 21
0.0
 31
0.0
 44
0.9
  1
B
 40
0.1
 41
0.08
  0
MTEXT
  5
269
100
AcDbEntity
  8
0
100
AcDbMText
 62
7
  6
CONTINUOUS
  7
TEXTSTYLE_2
 71
1
 72
1
 10
16.48
 20
2.0995
 30
0.0
 11
1.0
 21
0.0
 31
0.0
 44
0.9
  1
A
 40
0.1
 41
0.08
  0
MTEXT
  5
26A
100
AcDbEntity
  8
0
100
AcDbMText
 62
7
  6
CONTINUOUS
  7
STANDARD
 71
1
 72
1
 10
14.819264911
 20
1.0627941725
 30
0.0
 11
1.0
 21
0.0
 31
0.0
 44
0.9
  1
1 OF 1
 40
0.1
 41
0.6
  0
MTEXT
  5
26B
100
AcDbEntity
  8
0
100
AcDbMText
 62
7
  6
CONTINUOUS
  7
STANDARD
 71
1
 72
1
 10
13.8911999818
 20
1.3747321586
 30
0.0
 11
1.0
 21
0.0
 31
0.0
 44
0.9
  1
171611
 40
0.12
 41
0.72
  0
MTEXT
  5
26C
100
AcDbEntity
  8
0
100
AcDbMText
 62
7
  6
CONTINUOUS
  7
STANDARD
 71
1
 72
1
 10
12.644264911
 20
1.0627941725
 30
0.0
 11
1.0
 21
0.0
 31
0.0
 44
0.9
  1
1:1
 40
0.1
 41
0.3
  0
MTEXT
  5
26D
100
AcDbEntity
  8
0
100
AcDbMText
 62
7
  6
CONTINUOUS
  7
STANDARD
 71
1
 72
1
 10
0.8489354566
 20
1.4938330621
 30
0.0
 11
1.0
 21
0.0
 31
0.0
 44
0.9
  1
NOTES:\P1. ALL DIMENSIONS ARE MILLIMETERS [INCHES] UNLESS OTHERWISE NOTED.\P2. REFER TO "www.bannerengineering.com" FOR ADDITIONAL DATA AND SPECIFICATIONS.
 40
0.1
 41
7.9
  0
MTEXT
  5
26E
100
AcDbEntity
  8
0
100
AcDbMText
 62
7
  6
CONTINUOUS
  7
TEXTSTYLE_5
 71
2
 72
1
 10
11.0519651892
 20
2.0334024775
 30
0.0
 11
1.0
 21
0.0
 31
0.0
 44
0.9
  1
C  2015 Banner Engineering Corp.
 40
0.08
 41
1.92
  0
DIMENSION
  5
26F
100
AcDbEntity
  8
SCHEME_DIMS
100
AcDbDimension
 62
7
  6
CONTINUOUS
  2
*D0
 10
2.7502836562
 20
5.0741214931
 11
3.5585941293
 21
4.8035274002
 70
163
 71
1
 42
30.0
  1
%%c<>\P[]
  3
DIMSTYLE_1
100
AcDbDiametricDimension
 15
1.9236808549
 25
5.917762767
  0
DIMENSION
  5
270
100
AcDbEntity
  8
SCHEME_DIMS
100
AcDbDimension
 62
7
  6
CONTINUOUS
  2
*D1
 10
4.9736291701
 20
6.5864933112
 11
5.4362275953
 21
6.5114933112
 70
160
 71
2
 42
23.5
  1
<>\P[]
  3
DIMSTYLE_2
100
AcDbAlignedDimension
 13
5.8988260205
 23
6.0471232323
 14
4.9736291701
 24
5.6897713112
 50
180.0
100
AcDbRotatedDimension
  0
DIMENSION
  5
271
100
AcDbEntity
  8
SCHEME_DIMS
100
AcDbDimension
 62
7
  6
CONTINUOUS
  2
*D2
 10
4.9736291701
 20
6.9614933112
 11
6.0464638158
 21
6.8864933112
 70
160
 71
2
 42
54.5
  1
<>\P[]
  3
DIMSTYLE_2
100
AcDbAlignedDimension
 13
7.1192984615
 23
5.6996822875
 14
4.9736291701
 24
5.727895205
 50
180.0
100
AcDbRotatedDimension
  0
ACAD_TABLE
  5
272
100
AcDbEntity
  8
0
 62
7
  6
CONTINUOUS
100
AcDbBlockReference
  2
*T1
 10
12.03
 20
0.887
 30
0.0
100
AcDbTable
342
       6A7
343
21C
 11
1.0
 21
0.0
 31
0.0
 90
6
 91
3
 92
5
 93
4
 94
0
 95
0
 96
0
 70
1
141
0.33
141
0.45
141
1.14
142
0.65
142
1.15
142
1.025
142
1.075
142
0.45
171
1
172
0
173
0
174
0
175
1
176
1
 91
33
178
0
145
0.0
301
CELL_VALUE
 90
4
  1
 
304
ACVALUE_END
170
1
140
0.1
171
1
172
0
173
0
174
0
175
1
176
1
 91
33
178
0
145
0.0
301
CELL_VALUE
 90
4
  1
 
304
ACVALUE_END
170
1
140
0.1
171
1
172
0
173
0
174
0
175
1
176
1
 91
33
178
0
145
0.0
301
CELL_VALUE
 90
4
  1
 
304
ACVALUE_END
170
1
140
0.1
171
1
172
0
173
0
174
0
175
1
176
1
 91
33
178
0
145
0.0
301
CELL_VALUE
 90
4
  1
 
304
ACVALUE_END
170
1
140
0.1
171
1
172
0
173
0
174
0
175
1
176
1
 91
33
178
0
145
0.0
301
CELL_VALUE
 90
4
  1
 
304
ACVALUE_END
170
1
140
0.1
171
1
172
0
173
0
174
0
175
1
176
1
 91
33
178
0
145
0.0
301
CELL_VALUE
 90
4
  1
 
304
ACVALUE_END
170
1
140
0.1
171
1
172
0
173
0
174
0
175
1
176
1
 91
33
178
0
145
0.0
301
CELL_VALUE
 90
4
  1
 
304
ACVALUE_END
170
1
140
0.1
171
1
172
0
173
0
174
0
175
1
176
1
 91
33
178
0
145
0.0
301
CELL_VALUE
 90
4
  1
 
304
ACVALUE_END
170
1
140
0.1
171
1
172
0
173
0
174
0
175
1
176
1
 91
33
178
0
145
0.0
301
CELL_VALUE
 90
4
  1
 
304
ACVALUE_END
170
1
140
0.1
171
1
172
0
173
0
174
0
175
1
176
1
 91
41
178
0
145
0.0
301
CELL_VALUE
 90
4
  1
B
304
ACVALUE_END
170
8
140
0.1
 64
7
171
1
172
0
173
0
174
0
175
5
176
1
 91
33
178
0
145
0.0
301
CELL_VALUE
 90
4
  1
K30C QD
304
ACVALUE_END
170
8
140
0.1
171
1
172
0
173
1
174
0
175
1
176
1
 91
1
178
0
145
0.0
170
1
171
1
172
0
173
1
174
0
175
1
176
1
 91
1
178
0
145
0.0
170
1
171
1
172
0
173
1
174
0
175
1
176
1
 91
1
178
0
145
0.0
170
1
171
1
172
0
173
1
174
0
175
1
176
1
 91
1
178
0
145
0.0
170
8
  0
MTEXT
  5
273
100
AcDbEntity
  8
NOTES
100
AcDbMText
 62
7
  6
CONTINUOUS
  7
STANDARD
 71
2
 72
1
 10
14.4199248393
 20
7.2277678817
 30
0.0
 11
1.0
 21
0.0
 31
0.0
 44
0.9
  1
ISOMETRIC VIEW\P\H0.1;SCALE  1:1
 40
0.125
 41
1.75
  0
LEADER
  5
274
100
AcDbEntity
  8
NOTES
100
AcDbLeader
 62
7
  6
CONTINUOUS
  3
STANDARD
 71
1
 72
0
 73
0
 75
0
 40
0.1
 41
0.9
 76
3
 10
6.249932792
 20
5.1416114214
 30
0.0
 10
6.7227150596
 20
4.4117329308
 30
0.0
 10
6.9727150596
 20
4.4117329308
 30
0.0
340
275
1001
ACAD
1000
DSTYLE
1002
{
1070
77
1070
0
1002
}
  0
MTEXT
  5
275
102
{ACAD_REACTORS
330
274
102
}
100
AcDbEntity
  8
NOTES
100
AcDbMText
 62
7
  6
CONTINUOUS
  7
STANDARD
 71
1
 72
1
 10
6.9727150596
 20
4.4617329308
 30
0.0
 11
1.0
 21
0.0
 31
0.0
 44
0.9
  1
M22 X 1.5
 40
0.1
 41
0.9
  0
LEADER
  5
276
100
AcDbEntity
  8
NOTES
100
AcDbLeader
 62
7
  6
CONTINUOUS
  3
STANDARD
 71
1
 72
0
 73
0
 75
0
 40
0.1
 41
0.7
 76
3
 10
6.955903932
 20
5.2637310455
 30
0.0
 10
7.2837630011
 20
4.7312021384
 30
0.0
 10
7.5337630011
 20
4.7312021384
 30
0.0
340
277
1001
ACAD
1000
DSTYLE
1002
{
1070
77
1070
0
1002
}
  0
MTEXT
  5
277
102
{ACAD_REACTORS
330
276
102
}
100
AcDbEntity
  8
NOTES
100
AcDbMText
 62
7
  6
CONTINUOUS
  7
STANDARD
 71
1
 72
1
 10
7.5337630011
 20
4.7812021384
 30
0.0
 11
1.0
 21
0.0
 31
0.0
 44
0.9
  1
M12 X 1
 40
0.1
 41
0.7
  0
LINE
  5
278
100
AcDbEntity
  8
0
100
AcDbLine
 62
7
  6
CONTINUOUS
 10
0.47
 20
5.586103
 11
0.47
 21
5.412897
  0
LINE
  5
279
100
AcDbEntity
  8
0
100
AcDbLine
 62
7
  6
CONTINUOUS
 10
0.62
 20
10.112
 11
0.62
 21
0.887
  0
LINE
  5
27A
100
AcDbEntity
  8
0
100
AcDbLine
 62
7
  6
CONTINUOUS
 10
2.59
 20
0.887
 11
2.59
 21
0.637
  0
LINE
  5
27B
100
AcDbEntity
  8
0
100
AcDbLine
 62
7
  6
CONTINUOUS
 10
2.59
 20
10.112
 11
2.59
 21
10.362
  0
LINE
  5
27C
100
AcDbEntity
  8
0
100
AcDbLine
 62
7
  6
CONTINUOUS
 10
8.413397
 20
0.737
 11
8.586603
 21
0.737
  0
LINE
  5
27D
100
AcDbEntity
  8
0
100
AcDbLine
 62
7
  6
CONTINUOUS
 10
11.1389508475
 20
1.425992839
 11
11.7453418475
 21
1.495385839
  0
LINE
  5
27E
100
AcDbEntity
  8
0
100
AcDbLine
 62
7
  6
CONTINUOUS
 10
0.62
 20
0.887
 11
16.38
 21
0.887
  0
LINE
  5
27F
100
AcDbEntity
  8
0
100
AcDbLine
 62
7
  6
CONTINUOUS
 10
12.03
 20
1.137
 11
16.38
 21
1.137
  0
LINE
  5
280
100
AcDbEntity
  8
0
100
AcDbLine
 62
7
  6
CONTINUOUS
 10
10.2121898475
 20
1.243294839
 11
10.4342808475
 21
1.243294839
  0
LINE
  5
281
100
AcDbEntity
  8
0
100
AcDbLine
 62
7
  6
CONTINUOUS
 10
10.4842808475
 20
1.243294839
 11
10.5842808475
 21
1.243294839
  0
LINE
  5
282
100
AcDbEntity
  8
0
100
AcDbLine
 62
7
  6
CONTINUOUS
 10
10.6342808475
 20
1.243294839
 11
10.8563718475
 21
1.243294839
  0
LINE
  5
283
100
AcDbEntity
  8
0
100
AcDbLine
 62
7
  6
CONTINUOUS
 10
11.0389508475
 20
1.243294839
 11
11.3171028475
 21
1.243294839
  0
LINE
  5
284
100
AcDbEntity
  8
0
100
AcDbLine
 62
7
  6
CONTINUOUS
 10
11.3671028475
 20
1.243294839
 11
11.5171888475
 21
1.243294839
  0
LINE
  5
285
100
AcDbEntity
  8
0
100
AcDbLine
 62
7
  6
CONTINUOUS
 10
11.5671888475
 20
1.243294839
 11
11.8453418475
 21
1.243294839
  0
LINE
  5
286
100
AcDbEntity
  8
0
100
AcDbLine
 62
7
  6
CONTINUOUS
 10
11.7453418475
 20
0.991203839
 11
11.1389508475
 21
1.060596839
  0
LINE
  5
287
100
AcDbEntity
  8
0
100
AcDbLine
 62
7
  6
CONTINUOUS
 10
4.56
 20
0.887
 11
4.56
 21
0.637
  0
LINE
  5
288
100
AcDbEntity
  8
0
100
AcDbLine
 62
7
  6
CONTINUOUS
 10
4.56
 20
10.112
 11
4.56
 21
10.362
  0
LINE
  5
289
100
AcDbEntity
  8
0
100
AcDbLine
 62
7
  6
CONTINUOUS
 10
0.47
 20
5.412897
 11
0.62
 21
5.4995
  0
LINE
  5
28A
100
AcDbEntity
  8
0
100
AcDbLine
 62
7
  6
CONTINUOUS
 10
12.03
 20
1.507
 11
16.38
 21
1.507
  0
LINE
  5
28B
100
AcDbEntity
  8
0
100
AcDbLine
 62
7
  6
CONTINUOUS
 10
10.03
 20
1.907
 11
12.03
 21
1.907
  0
LINE
  5
28C
100
AcDbEntity
  8
0
100
AcDbLine
 62
7
  6
CONTINUOUS
 10
0.62
 20
5.4995
 11
0.47
 21
5.586103
  0
LINE
  5
28D
100
AcDbEntity
  8
0
100
AcDbLine
 62
7
  6
CONTINUOUS
 10
12.03
 20
2.267
 11
16.38
 21
2.267
  0
LINE
  5
28E
100
AcDbEntity
  8
0
100
AcDbLine
 62
7
  6
CONTINUOUS
 10
13.6042588488
 20
2.4912273132
 11
13.5568948225
 21
2.4912273132
  0
LINE
  5
28F
100
AcDbEntity
  8
0
100
AcDbLine
 62
7
  6
CONTINUOUS
 10
13.5130037982
 20
2.4912273132
 11
13.3994327352
 21
2.4912273132
  0
LINE
  5
290
100
AcDbEntity
  8
0
100
AcDbLine
 62
7
  6
CONTINUOUS
 10
13.3705287192
 20
2.4912273132
 11
13.1673166065
 21
2.4912273132
  0
LINE
  5
291
100
AcDbEntity
  8
0
100
AcDbLine
 62
7
  6
CONTINUOUS
 10
13.1168435785
 20
2.4912273132
 11
13.0426375373
 21
2.4912273132
  0
LINE
  5
292
100
AcDbEntity
  8
0
100
AcDbLine
 62
7
  6
CONTINUOUS
 10
12.9962575116
 20
2.4912273132
 11
12.9205934696
 21
2.4912273132
  0
LINE
  5
293
100
AcDbEntity
  8
0
100
AcDbLine
 62
7
  6
CONTINUOUS
 10
12.8685904408
 20
2.4912273132
 11
12.7943853997
 21
2.4912273132
  0
LINE
  5
294
100
AcDbEntity
  8
0
100
AcDbLine
 62
7
  6
CONTINUOUS
 10
12.7480043739
 20
2.4912273132
 11
12.672340332
 21
2.4912273132
  0
LINE
  5
295
100
AcDbEntity
  8
0
100
AcDbLine
 62
7
  6
CONTINUOUS
 10
12.2055050731
 20
2.4912273132
 11
12.3819511709
 21
2.4912273132
  0
LINE
  5
296
100
AcDbEntity
  8
0
100
AcDbLine
 62
7
  6
CONTINUOUS
 10
12.4394882028
 20
2.4912273132
 11
12.5168642458
 21
2.4912273132
  0
LINE
  5
297
100
AcDbEntity
  8
0
100
AcDbLine
 62
7
  6
CONTINUOUS
 10
12.537150257
 20
2.4912273132
 11
12.6424313154
 21
2.4912273132
  0
LINE
  5
298
100
AcDbEntity
  8
0
100
AcDbLine
 62
7
  6
CONTINUOUS
 10
13.4883447845
 20
2.5159553269
 11
13.5130037982
 21
2.5159553269
  0
LINE
  5
299
100
AcDbEntity
  8
0
100
AcDbLine
 62
7
  6
CONTINUOUS
 10
12.6424313154
 20
2.515977327
 11
12.6224153043
 21
2.515977327
  0
LINE
  5
29A
100
AcDbEntity
  8
0
100
AcDbLine
 62
7
  6
CONTINUOUS
 10
12.551601265
 20
2.515977327
 11
12.537150257
 21
2.515977327
  0
LINE
  5
29B
100
AcDbEntity
  8
0
100
AcDbLine
 62
7
  6
CONTINUOUS
 10
12.5168642458
 20
2.515977327
 11
12.5055812395
 21
2.515977327
  0
LINE
  5
29C
100
AcDbEntity
  8
0
100
AcDbLine
 62
7
  6
CONTINUOUS
 10
12.4623492155
 20
2.515977327
 11
12.4394882028
 21
2.515977327
  0
LINE
  5
29D
100
AcDbEntity
  8
0
100
AcDbLine
 62
7
  6
CONTINUOUS
 10
12.3362731456
 20
2.515977327
 11
12.2949101227
 21
2.515977327
  0
LINE
  5
29E
100
AcDbEntity
  8
0
100
AcDbLine
 62
7
  6
CONTINUOUS
 10
12.2294470864
 20
2.515977327
 11
12.2055050731
 21
2.515977327
  0
LINE
  5
29F
100
AcDbEntity
  8
0
100
AcDbLine
 62
7
  6
CONTINUOUS
 10
12.672340332
 20
2.515977327
 11
12.6909873423
 21
2.515977327
  0
LINE
  5
2A0
100
AcDbEntity
  8
0
100
AcDbLine
 62
7
  6
CONTINUOUS
 10
12.7276873627
 20
2.515977327
 11
12.7480043739
 21
2.515977327
  0
LINE
  5
2A1
100
AcDbEntity
  8
0
100
AcDbLine
 62
7
  6
CONTINUOUS
 10
12.9205934696
 20
2.515977327
 11
12.93923948
 21
2.515977327
  0
LINE
  5
2A2
100
AcDbEntity
  8
0
100
AcDbLine
 62
7
  6
CONTINUOUS
 10
12.9759405003
 20
2.515977327
 11
12.9962575116
 21
2.515977327
  0
LINE
  5
2A3
100
AcDbEntity
  8
0
100
AcDbLine
 62
7
  6
CONTINUOUS
 10
13.1673166065
 20
2.515977327
 11
13.1912396197
 21
2.515977327
  0
LINE
  5
2A4
100
AcDbEntity
  8
0
100
AcDbLine
 62
7
  6
CONTINUOUS
 10
13.2582556569
 20
2.515977327
 11
13.3232596929
 21
2.515977327
  0
LINE
  5
2A5
100
AcDbEntity
  8
0
100
AcDbLine
 62
7
  6
CONTINUOUS
 10
13.3994327352
 20
2.515977327
 11
13.4221787478
 21
2.515977327
  0
LINE
  5
2A6
100
AcDbEntity
  8
0
100
AcDbLine
 62
7
  6
CONTINUOUS
 10
13.6052818493
 20
2.5163643272
 11
13.60639085
 21
2.5163643272
  0
LINE
  5
2A7
100
AcDbEntity
  8
0
100
AcDbLine
 62
7
  6
CONTINUOUS
 10
13.3282096957
 20
2.5291773343
 11
13.3705287192
 21
2.5291773343
  0
LINE
  5
2A8
100
AcDbEntity
  8
0
100
AcDbLine
 62
7
  6
CONTINUOUS
 10
12.5110972426
 20
2.5296213345
 11
12.5459752619
 21
2.5296213345
  0
LINE
  5
2A9
100
AcDbEntity
  8
0
100
AcDbLine
 62
7
  6
CONTINUOUS
 10
13.6171458559
 20
2.5301143348
 11
13.6292558626
 21
2.5301143348
  0
LINE
  5
2AA
100
AcDbEntity
  8
0
100
AcDbLine
 62
7
  6
CONTINUOUS
 10
13.5159517998
 20
2.5306043351
 11
13.4883447845
 21
2.5306043351
  0
LINE
  5
2AB
100
AcDbEntity
  8
0
100
AcDbLine
 62
7
  6
CONTINUOUS
 10
13.2934226764
 20
2.5324773361
 11
13.2582556569
 21
2.5324773361
  0
LINE
  5
2AC
100
AcDbEntity
  8
0
100
AcDbLine
 62
7
  6
CONTINUOUS
 10
12.2949101227
 20
2.5333023366
 11
12.3362731456
 21
2.5333023366
  0
LINE
  5
2AD
100
AcDbEntity
  8
0
100
AcDbLine
 62
7
  6
CONTINUOUS
 10
13.5222818033
 20
2.5496073456
 11
13.4883447845
 21
2.5496073456
  0
LINE
  5
2AE
100
AcDbEntity
  8
0
100
AcDbLine
 62
7
  6
CONTINUOUS
 10
12.2949101227
 20
2.5499573458
 11
12.3362731456
 21
2.5499573458
  0
LINE
  5
2AF
100
AcDbEntity
  8
0
100
AcDbLine
 62
7
  6
CONTINUOUS
 10
12.5196132473
 20
2.5505713461
 11
12.5401702587
 21
2.5505713461
  0
LINE
  5
2B0
100
AcDbEntity
  8
0
100
AcDbLine
 62
7
  6
CONTINUOUS
 10
13.2582556569
 20
2.5507823463
 11
13.2934226764
 21
2.5507823463
  0
LINE
  5
2B1
100
AcDbEntity
  8
0
100
AcDbLine
 62
7
  6
CONTINUOUS
 10
13.3691097184
 20
2.5540823481
 11
13.3272456952
 21
2.5540823481
  0
LINE
  5
2B2
100
AcDbEntity
  8
0
100
AcDbLine
 62
7
  6
CONTINUOUS
 10
12.5329112547
 20
2.5667383551
 11
12.5267302512
 21
2.5667383551
  0
LINE
  5
2B3
100
AcDbEntity
  8
0
100
AcDbLine
 62
7
  6
CONTINUOUS
 10
13.4221787478
 20
2.5672823554
 11
13.3994327352
 21
2.5672823554
  0
LINE
  5
2B4
100
AcDbEntity
  8
0
100
AcDbLine
 62
7
  6
CONTINUOUS
 10
13.3222956924
 20
2.5672823554
 11
13.2582556569
 21
2.5672823554
  0
LINE
  5
2B5
100
AcDbEntity
  8
0
100
AcDbLine
 62
7
  6
CONTINUOUS
 10
13.1912396197
 20
2.5672823554
 11
13.1673166065
 21
2.5672823554
  0
LINE
  5
2B6
100
AcDbEntity
  8
0
100
AcDbLine
 62
7
  6
CONTINUOUS
 10
13.1397265912
 20
2.5672823554
 11
13.1217935812
 21
2.5672823554
  0
LINE
  5
2B7
100
AcDbEntity
  8
0
100
AcDbLine
 62
7
  6
CONTINUOUS
 10
13.0845015605
 20
2.5672823554
 11
13.0657255501
 21
2.5672823554
  0
LINE
  5
2B8
100
AcDbEntity
  8
0
100
AcDbLine
 62
7
  6
CONTINUOUS
 10
12.93923948
 20
2.5672823554
 11
12.9205934696
 21
2.5672823554
  0
LINE
  5
2B9
100
AcDbEntity
  8
0
100
AcDbLine
 62
7
  6
CONTINUOUS
 10
12.8914734535
 20
2.5672823554
 11
12.8735404436
 21
2.5672823554
  0
LINE
  5
2BA
100
AcDbEntity
  8
0
100
AcDbLine
 62
7
  6
CONTINUOUS
 10
12.8362484229
 20
2.5672823554
 11
12.8174724125
 21
2.5672823554
  0
LINE
  5
2BB
100
AcDbEntity
  8
0
100
AcDbLine
 62
7
  6
CONTINUOUS
 10
12.6909873423
 20
2.5672823554
 11
12.672340332
 21
2.5672823554
  0
LINE
  5
2BC
100
AcDbEntity
  8
0
100
AcDbLine
 62
7
  6
CONTINUOUS
 10
12.3362731456
 20
2.5672823554
 11
12.2949101227
 21
2.5672823554
  0
LINE
  5
2BD
100
AcDbEntity
  8
0
100
AcDbLine
 62
7
  6
CONTINUOUS
 10
12.2055050731
 20
2.5672823554
 11
12.2294470864
 21
2.5672823554
  0
LINE
  5
2BE
100
AcDbEntity
  8
0
100
AcDbLine
 62
7
  6
CONTINUOUS
 10
13.4883447845
 20
2.5672823554
 11
13.5251458049
 21
2.5672823554
  0
LINE
  5
2BF
100
AcDbEntity
  8
0
100
AcDbLine
 62
7
  6
CONTINUOUS
 10
12.5705042755
 20
2.5920323691
 11
12.5133292438
 21
2.5920323691
  0
LINE
  5
2C0
100
AcDbEntity
  8
0
100
AcDbLine
 62
7
  6
CONTINUOUS
 10
12.3715681652
 20
2.5920323691
 11
12.2055050731
 21
2.5920323691
  0
LINE
  5
2C1
100
AcDbEntity
  8
0
100
AcDbLine
 62
7
  6
CONTINUOUS
 10
12.672340332
 20
2.5920323691
 11
12.7727983877
 21
2.5920323691
  0
LINE
  5
2C2
100
AcDbEntity
  8
0
100
AcDbLine
 62
7
  6
CONTINUOUS
 10
12.8174724125
 20
2.5920323691
 11
12.8914734535
 21
2.5920323691
  0
LINE
  5
2C3
100
AcDbEntity
  8
0
100
AcDbLine
 62
7
  6
CONTINUOUS
 10
12.9205934696
 20
2.5920323691
 11
13.0210515254
 21
2.5920323691
  0
LINE
  5
2C4
100
AcDbEntity
  8
0
100
AcDbLine
 62
7
  6
CONTINUOUS
 10
13.0657255501
 20
2.5920323691
 11
13.1397265912
 21
2.5920323691
  0
LINE
  5
2C5
100
AcDbEntity
  8
0
100
AcDbLine
 62
7
  6
CONTINUOUS
 10
13.1673166065
 20
2.5920323691
 11
13.3691097184
 21
2.5920323691
  0
LINE
  5
2C6
100
AcDbEntity
  8
0
100
AcDbLine
 62
7
  6
CONTINUOUS
 10
13.3994327352
 20
2.5920323691
 11
13.5490138181
 21
2.5920323691
  0
LINE
  5
2C7
100
AcDbEntity
  8
0
100
AcDbLine
 62
7
  6
CONTINUOUS
 10
12.4008351814
 20
2.5375433389
 11
12.3907841758
 21
2.5410923409
  0
LINE
  5
2C8
100
AcDbEntity
  8
0
100
AcDbLine
 62
7
  6
CONTINUOUS
 10
12.7926763987
 20
2.4919113136
 11
12.7293963636
 21
2.5522893471
  0
LINE
  5
2C9
100
AcDbEntity
  8
0
100
AcDbLine
 62
7
  6
CONTINUOUS
 10
12.7745063886
 20
2.5913483688
 11
12.8345394219
 21
2.534068337
  0
LINE
  5
2CA
100
AcDbEntity
  8
0
100
AcDbLine
 62
7
  6
CONTINUOUS
 10
13.0409295364
 20
2.4919113136
 11
12.9776495013
 21
2.5522893471
  0
LINE
  5
2CB
100
AcDbEntity
  8
0
100
AcDbLine
 62
7
  6
CONTINUOUS
 10
13.0227595263
 20
2.5913483688
 11
13.0827925596
 21
2.534068337
  0
LINE
  5
2CC
100
AcDbEntity
  8
0
100
AcDbLine
 62
7
  6
CONTINUOUS
 10
12.548053263
 20
2.5284903339
 11
12.5536792662
 21
2.5197973291
  0
LINE
  5
2CD
100
AcDbEntity
  8
0
100
AcDbLine
 62
7
  6
CONTINUOUS
 10
12.5422482598
 20
2.5543913483
 11
12.5349892558
 21
2.5656073545
  0
LINE
  5
2CE
100
AcDbEntity
  8
0
100
AcDbLine
 62
7
  6
CONTINUOUS
 10
12.6203383031
 20
2.5171073276
 11
12.5725822767
 21
2.5909023685
  0
LINE
  5
2CF
100
AcDbEntity
  8
0
100
AcDbLine
 62
7
  6
CONTINUOUS
 10
12.2030300717
 20
2.5895573678
 11
12.2030300717
 21
2.5697573568
  0
LINE
  5
2D0
100
AcDbEntity
  8
0
100
AcDbLine
 62
7
  6
CONTINUOUS
 10
12.2030300717
 20
2.5135023256
 11
12.2030300717
 21
2.4937023146
  0
LINE
  5
2D1
100
AcDbEntity
  8
0
100
AcDbLine
 62
7
  6
CONTINUOUS
 10
12.2319220877
 20
2.564807354
 11
12.2319220877
 21
2.5184523283
  0
LINE
  5
2D2
100
AcDbEntity
  8
0
100
AcDbLine
 62
7
  6
CONTINUOUS
 10
12.2924351213
 20
2.564807354
 11
12.2924351213
 21
2.5524323472
  0
LINE
  5
2D3
100
AcDbEntity
  8
0
100
AcDbLine
 62
7
  6
CONTINUOUS
 10
12.2924351213
 20
2.5184523283
 11
12.2924351213
 21
2.5308273352
  0
LINE
  5
2D4
100
AcDbEntity
  8
0
100
AcDbLine
 62
7
  6
CONTINUOUS
 10
12.4370132015
 20
2.5135023256
 11
12.4370132015
 21
2.4937023146
  0
LINE
  5
2D5
100
AcDbEntity
  8
0
100
AcDbLine
 62
7
  6
CONTINUOUS
 10
12.5193392471
 20
2.4937023146
 11
12.5193392471
 21
2.5135023256
  0
LINE
  5
2D6
100
AcDbEntity
  8
0
100
AcDbLine
 62
7
  6
CONTINUOUS
 10
12.5346752556
 20
2.5135023256
 11
12.5346752556
 21
2.4937023146
  0
LINE
  5
2D7
100
AcDbEntity
  8
0
100
AcDbLine
 62
7
  6
CONTINUOUS
 10
12.6449063168
 20
2.4937023146
 11
12.6449063168
 21
2.5135023256
  0
LINE
  5
2D8
100
AcDbEntity
  8
0
100
AcDbLine
 62
7
  6
CONTINUOUS
 10
12.6698653306
 20
2.4937023146
 11
12.6698653306
 21
2.5135023256
  0
LINE
  5
2D9
100
AcDbEntity
  8
0
100
AcDbLine
 62
7
  6
CONTINUOUS
 10
12.6698653306
 20
2.5697573568
 11
12.6698653306
 21
2.5895573678
  0
LINE
  5
2DA
100
AcDbEntity
  8
0
100
AcDbLine
 62
7
  6
CONTINUOUS
 10
12.6934623437
 20
2.5184523283
 11
12.6934623437
 21
2.564807354
  0
LINE
  5
2DB
100
AcDbEntity
  8
0
100
AcDbLine
 62
7
  6
CONTINUOUS
 10
12.7252123613
 20
2.5504983461
 11
12.7252123613
 21
2.5184523283
  0
LINE
  5
2DC
100
AcDbEntity
  8
0
100
AcDbLine
 62
7
  6
CONTINUOUS
 10
13.5375908118
 20
2.5092733232
 11
13.5357868108
 21
2.5153423266
  0
LINE
  5
2DD
100
AcDbEntity
  8
0
100
AcDbLine
 62
7
  6
CONTINUOUS
 10
12.7504793753
 20
2.5135023256
 11
12.7504793753
 21
2.4937023146
  0
LINE
  5
2DE
100
AcDbEntity
  8
0
100
AcDbLine
 62
7
  6
CONTINUOUS
 10
12.8149974111
 20
2.5697573568
 11
12.8149974111
 21
2.5895573678
  0
LINE
  5
2DF
100
AcDbEntity
  8
0
100
AcDbLine
 62
7
  6
CONTINUOUS
 10
12.8387234242
 20
2.535859338
 11
12.8387234242
 21
2.564807354
  0
LINE
  5
2E0
100
AcDbEntity
  8
0
100
AcDbLine
 62
7
  6
CONTINUOUS
 10
12.8710654422
 20
2.564807354
 11
12.8710654422
 21
2.4937023146
  0
LINE
  5
2E1
100
AcDbEntity
  8
0
100
AcDbLine
 62
7
  6
CONTINUOUS
 10
12.8939484549
 20
2.5895573678
 11
12.8939484549
 21
2.5697573568
  0
LINE
  5
2E2
100
AcDbEntity
  8
0
100
AcDbLine
 62
7
  6
CONTINUOUS
 10
12.9181184683
 20
2.4937023146
 11
12.9181184683
 21
2.5135023256
  0
LINE
  5
2E3
100
AcDbEntity
  8
0
100
AcDbLine
 62
7
  6
CONTINUOUS
 10
12.9181184683
 20
2.5697573568
 11
12.9181184683
 21
2.5895573678
  0
LINE
  5
2E4
100
AcDbEntity
  8
0
100
AcDbLine
 62
7
  6
CONTINUOUS
 10
12.9417144814
 20
2.5184523283
 11
12.9417144814
 21
2.564807354
  0
LINE
  5
2E5
100
AcDbEntity
  8
0
100
AcDbLine
 62
7
  6
CONTINUOUS
 10
12.973465499
 20
2.5504983461
 11
12.973465499
 21
2.5184523283
  0
LINE
  5
2E6
100
AcDbEntity
  8
0
100
AcDbLine
 62
7
  6
CONTINUOUS
 10
12.998732513
 20
2.5135023256
 11
12.998732513
 21
2.4937023146
  0
LINE
  5
2E7
100
AcDbEntity
  8
0
100
AcDbLine
 62
7
  6
CONTINUOUS
 10
13.0632505488
 20
2.5697573568
 11
13.0632505488
 21
2.5895573678
  0
LINE
  5
2E8
100
AcDbEntity
  8
0
100
AcDbLine
 62
7
  6
CONTINUOUS
 10
13.0869765619
 20
2.535859338
 11
13.0869765619
 21
2.564807354
  0
LINE
  5
2E9
100
AcDbEntity
  8
0
100
AcDbLine
 62
7
  6
CONTINUOUS
 10
13.1193185799
 20
2.564807354
 11
13.1193185799
 21
2.4937023146
  0
LINE
  5
2EA
100
AcDbEntity
  8
0
100
AcDbLine
 62
7
  6
CONTINUOUS
 10
13.1422015925
 20
2.5895573678
 11
13.1422015925
 21
2.5697573568
  0
LINE
  5
2EB
100
AcDbEntity
  8
0
100
AcDbLine
 62
7
  6
CONTINUOUS
 10
13.1648416051
 20
2.4937023146
 11
13.1648416051
 21
2.5135023256
  0
LINE
  5
2EC
100
AcDbEntity
  8
0
100
AcDbLine
 62
7
  6
CONTINUOUS
 10
13.1648416051
 20
2.5697573568
 11
13.1648416051
 21
2.5895573678
  0
LINE
  5
2ED
100
AcDbEntity
  8
0
100
AcDbLine
 62
7
  6
CONTINUOUS
 10
13.1937146211
 20
2.5184523283
 11
13.1937146211
 21
2.564807354
  0
LINE
  5
2EE
100
AcDbEntity
  8
0
100
AcDbLine
 62
7
  6
CONTINUOUS
 10
13.2557806555
 20
2.564807354
 11
13.2557806555
 21
2.5532573476
  0
LINE
  5
2EF
100
AcDbEntity
  8
0
100
AcDbLine
 62
7
  6
CONTINUOUS
 10
13.2557806555
 20
2.5300023347
 11
13.2557806555
 21
2.5184523283
  0
LINE
  5
2F0
100
AcDbEntity
  8
0
100
AcDbLine
 62
7
  6
CONTINUOUS
 10
13.2958976778
 20
2.5483073449
 11
13.2958976778
 21
2.5349523375
  0
LINE
  5
2F1
100
AcDbEntity
  8
0
100
AcDbLine
 62
7
  6
CONTINUOUS
 10
12.3907841758
 20
2.5410923409
 11
12.3990241804
 21
2.5458683435
  0
LINE
  5
2F2
100
AcDbEntity
  8
0
100
AcDbLine
 62
7
  6
CONTINUOUS
 10
13.3247706938
 20
2.5565573495
 11
13.3247706938
 21
2.564807354
  0
LINE
  5
2F3
100
AcDbEntity
  8
0
100
AcDbLine
 62
7
  6
CONTINUOUS
 10
13.3257346943
 20
2.5184523283
 11
13.3257346943
 21
2.5267023329
  0
LINE
  5
2F4
100
AcDbEntity
  8
0
100
AcDbLine
 62
7
  6
CONTINUOUS
 10
13.3715847197
 20
2.5895573678
 11
13.3715847197
 21
2.5565573495
  0
LINE
  5
2F5
100
AcDbEntity
  8
0
100
AcDbLine
 62
7
  6
CONTINUOUS
 10
13.3730037205
 20
2.5267023329
 11
13.3730037205
 21
2.4937023146
  0
LINE
  5
2F6
100
AcDbEntity
  8
0
100
AcDbLine
 62
7
  6
CONTINUOUS
 10
13.3969577338
 20
2.4937023146
 11
13.3969577338
 21
2.5135023256
  0
LINE
  5
2F7
100
AcDbEntity
  8
0
100
AcDbLine
 62
7
  6
CONTINUOUS
 10
13.3969577338
 20
2.5697573568
 11
13.3969577338
 21
2.5895573678
  0
LINE
  5
2F8
100
AcDbEntity
  8
0
100
AcDbLine
 62
7
  6
CONTINUOUS
 10
13.4246537492
 20
2.5184523283
 11
13.4246537492
 21
2.564807354
  0
LINE
  5
2F9
100
AcDbEntity
  8
0
100
AcDbLine
 62
7
  6
CONTINUOUS
 10
13.4858697831
 20
2.5281293337
 11
13.4858697831
 21
2.5184303283
  0
LINE
  5
2FA
100
AcDbEntity
  8
0
100
AcDbLine
 62
7
  6
CONTINUOUS
 10
13.4858697831
 20
2.552082347
 11
13.4858697831
 21
2.564807354
  0
LINE
  5
2FB
100
AcDbEntity
  8
0
100
AcDbLine
 62
7
  6
CONTINUOUS
 10
13.5154787995
 20
2.5134803256
 11
13.5154787995
 21
2.4937023146
  0
LINE
  5
2FC
100
AcDbEntity
  8
0
100
AcDbLine
 62
7
  6
CONTINUOUS
 10
13.6146708546
 20
2.525013332
 11
13.6146708546
 21
2.5276393334
  0
LINE
  5
2FD
100
AcDbEntity
  8
0
100
AcDbLine
 62
7
  6
CONTINUOUS
 10
13.631730864
 20
2.5276393334
 11
13.631730864
 21
2.516087327
  0
LINE
  5
2FE
100
AcDbEntity
  8
0
100
AcDbLine
 62
7
  6
CONTINUOUS
 10
13.7286871589
 20
2.5350697372
 11
13.7286871589
 21
2.5456869438
  0
LINE
  5
2FF
100
AcDbEntity
  8
0
100
AcDbLine
 62
7
  6
CONTINUOUS
 10
12.5112392426
 20
2.5908833685
 11
12.4644392167
 21
2.5171263276
  0
LINE
  5
300
100
AcDbEntity
  8
0
100
AcDbLine
 62
7
  6
CONTINUOUS
 10
12.5246402501
 20
2.5655893545
 11
12.5175232461
 21
2.5543723483
  0
LINE
  5
301
100
AcDbEntity
  8
0
100
AcDbLine
 62
7
  6
CONTINUOUS
 10
12.5034912383
 20
2.5197783291
 11
12.5090072414
 21
2.5284723339
  0
ARC
  5
302
100
AcDbEntity
  8
0
100
AcDbCircle
 62
7
  6
CONTINUOUS
 10
12.7943847649
 20
2.4937027294
 40
0.0024754162
100
AcDbArc
 50
226.3593695813
 51
270.0146919953
  0
ARC
  5
303
100
AcDbEntity
  8
0
100
AcDbCircle
 62
7
  6
CONTINUOUS
 10
12.2055050712
 20
2.4937023128
 40
0.0024749995
100
AcDbArc
 50
179.9999571957
 51
270.0000428043
  0
ARC
  5
304
100
AcDbEntity
  8
0
100
AcDbCircle
 62
7
  6
CONTINUOUS
 10
12.8685904427
 20
2.4937023128
 40
0.0024749995
100
AcDbArc
 50
269.9999571957
 51
0.0000428043
  0
ARC
  5
305
100
AcDbEntity
  8
0
100
AcDbCircle
 62
7
  6
CONTINUOUS
 10
12.7480043758
 20
2.4937023128
 40
0.0024749995
100
AcDbArc
 50
269.9999571957
 51
0.0000428043
  0
ARC
  5
306
100
AcDbEntity
  8
0
100
AcDbCircle
 62
7
  6
CONTINUOUS
 10
12.6723403301
 20
2.4937023128
 40
0.0024749995
100
AcDbArc
 50
179.9999571957
 51
270.0000428043
  0
ARC
  5
307
100
AcDbEntity
  8
0
100
AcDbCircle
 62
7
  6
CONTINUOUS
 10
12.5371502552
 20
2.4937023128
 40
0.0024749995
100
AcDbArc
 50
179.9999571957
 51
270.0000428043
  0
ARC
  5
308
100
AcDbEntity
  8
0
100
AcDbCircle
 62
7
  6
CONTINUOUS
 10
12.6424313172
 20
2.4937023128
 40
0.0024749995
100
AcDbArc
 50
269.9999571957
 51
0.0000428043
  0
ARC
  5
309
100
AcDbEntity
  8
0
100
AcDbCircle
 62
7
  6
CONTINUOUS
 10
12.439488201
 20
2.4937023128
 40
0.0024749995
100
AcDbArc
 50
179.9999571957
 51
270.0000428043
  0
ARC
  5
30A
100
AcDbEntity
  8
0
100
AcDbCircle
 62
7
  6
CONTINUOUS
 10
12.5168642476
 20
2.4937023128
 40
0.0024749995
100
AcDbArc
 50
269.9999571957
 51
0.0000428043
  0
ARC
  5
30B
100
AcDbEntity
  8
0
100
AcDbCircle
 62
7
  6
CONTINUOUS
 10
12.371573659
 20
2.5302846524
 40
0.061747717
100
AcDbArc
 50
59.5385584989
 51
90.0050977555
  0
ARC
  5
30C
100
AcDbEntity
  8
0
100
AcDbCircle
 62
7
  6
CONTINUOUS
 10
12.3792298263
 20
2.539634765
 40
0.048483885
100
AcDbArc
 50
273.21763719
 51
303.0749121182
  0
ARC
  5
30D
100
AcDbEntity
  8
0
100
AcDbCircle
 62
7
  6
CONTINUOUS
 10
12.3931760319
 20
2.5166878286
 40
0.0222174455
100
AcDbArc
 50
4.0793399388
 51
69.834329283
  0
ARC
  5
30E
100
AcDbEntity
  8
0
100
AcDbCircle
 62
7
  6
CONTINUOUS
 10
12.3940692204
 20
2.5168671561
 40
0.0213072145
100
AcDbArc
 50
303.0488228549
 51
355.7263138674
  0
ARC
  5
30F
100
AcDbEntity
  8
0
100
AcDbCircle
 62
7
  6
CONTINUOUS
 10
12.400005721
 20
2.5168763464
 40
0.0153945295
100
AcDbArc
 50
354.0454548824
 51
5.1878013979
  0
ARC
  5
310
100
AcDbEntity
  8
0
100
AcDbCircle
 62
7
  6
CONTINUOUS
 10
12.3362731456
 20
2.5246398318
 40
0.0086625048
100
AcDbArc
 50
270.0
 51
90.0
  0
ARC
  5
311
100
AcDbEntity
  8
0
100
AcDbCircle
 62
7
  6
CONTINUOUS
 10
12.5459747223
 20
2.5271458744
 40
0.0024754602
100
AcDbArc
 50
32.8959418573
 51
89.9875097202
  0
ARC
  5
312
100
AcDbEntity
  8
0
100
AcDbCircle
 62
7
  6
CONTINUOUS
 10
12.4623492858
 20
2.5184525273
 40
0.0024752003
100
AcDbArc
 50
269.9983726451
 51
327.602165307
  0
ARC
  5
313
100
AcDbEntity
  8
0
100
AcDbCircle
 62
7
  6
CONTINUOUS
 10
12.5110971723
 20
2.5271461342
 40
0.0024752003
100
AcDbArc
 50
89.998372645
 51
147.602165307
  0
ARC
  5
314
100
AcDbEntity
  8
0
100
AcDbCircle
 62
7
  6
CONTINUOUS
 10
12.5055811302
 20
2.518452367
 40
0.0024750401
100
AcDbArc
 50
147.6063258011
 51
270.0025305754
  0
ARC
  5
315
100
AcDbEntity
  8
0
100
AcDbCircle
 62
7
  6
CONTINUOUS
 10
12.2294470882
 20
2.5184523265
 40
0.0024749995
100
AcDbArc
 50
269.9999571957
 51
0.0000428043
  0
ARC
  5
316
100
AcDbEntity
  8
0
100
AcDbCircle
 62
7
  6
CONTINUOUS
 10
12.2055050712
 20
2.5135023274
 40
0.0024749995
100
AcDbArc
 50
89.9999571957
 51
180.0000428043
  0
ARC
  5
317
100
AcDbEntity
  8
0
100
AcDbCircle
 62
7
  6
CONTINUOUS
 10
12.2949101208
 20
2.530827337
 40
0.0024749995
100
AcDbArc
 50
89.9999571957
 51
180.0000428043
  0
ARC
  5
318
100
AcDbEntity
  8
0
100
AcDbCircle
 62
7
  6
CONTINUOUS
 10
12.2949101208
 20
2.5184523265
 40
0.0024749995
100
AcDbArc
 50
179.9999571957
 51
270.0000428043
  0
ARC
  5
319
100
AcDbEntity
  8
0
100
AcDbCircle
 62
7
  6
CONTINUOUS
 10
12.5371502552
 20
2.5135023274
 40
0.0024749995
100
AcDbArc
 50
89.9999571957
 51
180.0000428043
  0
ARC
  5
31A
100
AcDbEntity
  8
0
100
AcDbCircle
 62
7
  6
CONTINUOUS
 10
12.439488201
 20
2.5135023274
 40
0.0024749995
100
AcDbArc
 50
89.9999571957
 51
180.0000428043
  0
ARC
  5
31B
100
AcDbEntity
  8
0
100
AcDbCircle
 62
7
  6
CONTINUOUS
 10
12.5168642476
 20
2.5135023274
 40
0.0024749995
100
AcDbArc
 50
359.9999571957
 51
90.0000428043
  0
ARC
  5
31C
100
AcDbEntity
  8
0
100
AcDbCircle
 62
7
  6
CONTINUOUS
 10
12.3771587979
 20
2.5826952352
 40
0.0428289026
100
AcDbArc
 50
300.6990502959
 51
319.0591802498
  0
ARC
  5
31D
100
AcDbEntity
  8
0
100
AcDbCircle
 62
7
  6
CONTINUOUS
 10
12.3922357827
 20
2.5632132173
 40
0.0229166529
100
AcDbArc
 50
20.6563876465
 51
62.3316896973
  0
ARC
  5
31E
100
AcDbEntity
  8
0
100
AcDbCircle
 62
7
  6
CONTINUOUS
 10
12.3971873948
 20
2.5665668817
 40
0.0171568255
100
AcDbArc
 50
315.9145124245
 51
16.0049121282
  0
ARC
  5
31F
100
AcDbEntity
  8
0
100
AcDbCircle
 62
7
  6
CONTINUOUS
 10
12.3362731456
 20
2.5586198506
 40
0.0086625048
100
AcDbArc
 50
270.0
 51
90.0
  0
ARC
  5
320
100
AcDbEntity
  8
0
100
AcDbCircle
 62
7
  6
CONTINUOUS
 10
12.532910715
 20
2.564262895
 40
0.0024754602
100
AcDbArc
 50
32.8959418573
 51
89.9875097202
  0
ARC
  5
321
100
AcDbEntity
  8
0
100
AcDbCircle
 62
7
  6
CONTINUOUS
 10
12.5401702375
 20
2.5530465533
 40
0.0024752071
100
AcDbArc
 50
270.0004896793
 51
32.9089806818
  0
ARC
  5
322
100
AcDbEntity
  8
0
100
AcDbCircle
 62
7
  6
CONTINUOUS
 10
12.5267301809
 20
2.5642631548
 40
0.0024752003
100
AcDbArc
 50
89.998372645
 51
147.602165307
  0
ARC
  5
323
100
AcDbEntity
  8
0
100
AcDbCircle
 62
7
  6
CONTINUOUS
 10
12.5133291735
 20
2.5895571688
 40
0.0024752003
100
AcDbArc
 50
89.9983726451
 51
147.602165307
  0
ARC
  5
324
100
AcDbEntity
  8
0
100
AcDbCircle
 62
7
  6
CONTINUOUS
 10
12.519613138
 20
2.5530463862
 40
0.0024750401
100
AcDbArc
 50
147.6063258012
 51
270.0025305754
  0
ARC
  5
325
100
AcDbEntity
  8
0
100
AcDbCircle
 62
7
  6
CONTINUOUS
 10
12.2055050712
 20
2.5895573696
 40
0.0024749995
100
AcDbArc
 50
89.9999571957
 51
180.0000428043
  0
ARC
  5
326
100
AcDbEntity
  8
0
100
AcDbCircle
 62
7
  6
CONTINUOUS
 10
12.2055050712
 20
2.5697573549
 40
0.0024749995
100
AcDbArc
 50
179.9999571957
 51
270.0000428043
  0
ARC
  5
327
100
AcDbEntity
  8
0
100
AcDbCircle
 62
7
  6
CONTINUOUS
 10
12.2294470882
 20
2.5648073559
 40
0.0024749995
100
AcDbArc
 50
359.9999571957
 51
90.0000428043
  0
ARC
  5
328
100
AcDbEntity
  8
0
100
AcDbCircle
 62
7
  6
CONTINUOUS
 10
12.2949101208
 20
2.5648073559
 40
0.0024749995
100
AcDbArc
 50
89.9999571957
 51
180.0000428043
  0
ARC
  5
329
100
AcDbEntity
  8
0
100
AcDbCircle
 62
7
  6
CONTINUOUS
 10
12.2949101208
 20
2.5524323453
 40
0.0024749995
100
AcDbArc
 50
179.9999571957
 51
270.0000428043
  0
ARC
  5
32A
100
AcDbEntity
  8
0
100
AcDbCircle
 62
7
  6
CONTINUOUS
 10
12.8362481229
 20
2.5358592748
 40
0.0024753014
100
AcDbArc
 50
226.3461263059
 51
0.0014637321
  0
ARC
  5
32B
100
AcDbEntity
  8
0
100
AcDbCircle
 62
7
  6
CONTINUOUS
 10
12.7276876627
 20
2.5504984093
 40
0.0024753014
100
AcDbArc
 50
46.3461263059
 51
180.0014637321
  0
ARC
  5
32C
100
AcDbEntity
  8
0
100
AcDbCircle
 62
7
  6
CONTINUOUS
 10
12.5516012439
 20
2.5184525341
 40
0.0024752071
100
AcDbArc
 50
270.0004896794
 51
32.9089806818
  0
ARC
  5
32D
100
AcDbEntity
  8
0
100
AcDbCircle
 62
7
  6
CONTINUOUS
 10
12.7276873608
 20
2.5184523265
 40
0.0024749995
100
AcDbArc
 50
179.9999571957
 51
270.0000428043
  0
ARC
  5
32E
100
AcDbEntity
  8
0
100
AcDbCircle
 62
7
  6
CONTINUOUS
 10
12.7480043758
 20
2.5135023274
 40
0.0024749995
100
AcDbArc
 50
359.9999571957
 51
90.0000428043
  0
ARC
  5
32F
100
AcDbEntity
  8
0
100
AcDbCircle
 62
7
  6
CONTINUOUS
 10
12.6723403301
 20
2.5135023274
 40
0.0024749995
100
AcDbArc
 50
89.9999571957
 51
180.0000428043
  0
ARC
  5
330
100
AcDbEntity
  8
0
100
AcDbCircle
 62
7
  6
CONTINUOUS
 10
12.6909873442
 20
2.5184523265
 40
0.0024749995
100
AcDbArc
 50
269.9999571957
 51
0.0000428043
  0
ARC
  5
331
100
AcDbEntity
  8
0
100
AcDbCircle
 62
7
  6
CONTINUOUS
 10
12.6424313172
 20
2.5135023274
 40
0.0024749995
100
AcDbArc
 50
359.9999571957
 51
90.0000428043
  0
ARC
  5
332
100
AcDbEntity
  8
0
100
AcDbCircle
 62
7
  6
CONTINUOUS
 10
12.6224154248
 20
2.518451368
 40
0.002474041
100
AcDbArc
 50
212.9056413127
 51
269.9972091756
  0
ARC
  5
333
100
AcDbEntity
  8
0
100
AcDbCircle
 62
7
  6
CONTINUOUS
 10
12.8362484247
 20
2.5648073559
 40
0.0024749995
100
AcDbArc
 50
359.9999571957
 51
90.0000428043
  0
ARC
  5
334
100
AcDbEntity
  8
0
100
AcDbCircle
 62
7
  6
CONTINUOUS
 10
12.8174724106
 20
2.5697573549
 40
0.0024749995
100
AcDbArc
 50
179.9999571957
 51
270.0000428043
  0
ARC
  5
335
100
AcDbEntity
  8
0
100
AcDbCircle
 62
7
  6
CONTINUOUS
 10
12.8174724106
 20
2.5895573696
 40
0.0024749995
100
AcDbArc
 50
89.9999571957
 51
180.0000428043
  0
ARC
  5
336
100
AcDbEntity
  8
0
100
AcDbCircle
 62
7
  6
CONTINUOUS
 10
12.8914734553
 20
2.5895573696
 40
0.0024749995
100
AcDbArc
 50
359.9999571957
 51
90.0000428043
  0
ARC
  5
337
100
AcDbEntity
  8
0
100
AcDbCircle
 62
7
  6
CONTINUOUS
 10
12.8914734553
 20
2.5697573549
 40
0.0024749995
100
AcDbArc
 50
269.9999571957
 51
0.0000428043
  0
ARC
  5
338
100
AcDbEntity
  8
0
100
AcDbCircle
 62
7
  6
CONTINUOUS
 10
12.8735404417
 20
2.5648073559
 40
0.0024749995
100
AcDbArc
 50
89.9999571957
 51
180.0000428043
  0
ARC
  5
339
100
AcDbEntity
  8
0
100
AcDbCircle
 62
7
  6
CONTINUOUS
 10
12.6909873442
 20
2.5648073559
 40
0.0024749995
100
AcDbArc
 50
359.9999571957
 51
90.0000428043
  0
ARC
  5
33A
100
AcDbEntity
  8
0
100
AcDbCircle
 62
7
  6
CONTINUOUS
 10
12.6723403301
 20
2.5697573549
 40
0.0024749995
100
AcDbArc
 50
179.9999571957
 51
270.0000428043
  0
ARC
  5
33B
100
AcDbEntity
  8
0
100
AcDbCircle
 62
7
  6
CONTINUOUS
 10
12.6723403301
 20
2.5895573696
 40
0.0024749995
100
AcDbArc
 50
89.9999571957
 51
180.0000428043
  0
ARC
  5
33C
100
AcDbEntity
  8
0
100
AcDbCircle
 62
7
  6
CONTINUOUS
 10
12.570504655
 20
2.589557409
 40
0.0024749602
100
AcDbArc
 50
32.9172174468
 51
90.0087853097
  0
ARC
  5
33D
100
AcDbEntity
  8
0
100
AcDbCircle
 62
7
  6
CONTINUOUS
 10
12.7727985224
 20
2.5895582013
 40
0.0024741678
100
AcDbArc
 50
46.3477981899
 51
90.0031206038
  0
ARC
  5
33E
100
AcDbEntity
  8
0
100
AcDbCircle
 62
7
  6
CONTINUOUS
 10
13.5463505148
 20
2.4094934586
 40
0.1825583387
100
AcDbArc
 50
79.8618509324
 51
89.1640948679
  0
ARC
  5
33F
100
AcDbEntity
  8
0
100
AcDbCircle
 62
7
  6
CONTINUOUS
 10
13.5282557878
 20
2.4386010294
 40
0.117346916
100
AcDbArc
 50
58.614769177
 51
62.3737227606
  0
ARC
  5
340
100
AcDbEntity
  8
0
100
AcDbCircle
 62
7
  6
CONTINUOUS
 10
13.5571178432
 20
2.509473798
 40
0.0459185159
100
AcDbArc
 50
15.6740290068
 51
20.9917271228
  0
ARC
  5
341
100
AcDbEntity
  8
0
100
AcDbCircle
 62
7
  6
CONTINUOUS
 10
13.4974076135
 20
2.5055452462
 40
0.0396099176
100
AcDbArc
 50
14.3201081283
 51
22.4984722084
  0
ARC
  5
342
100
AcDbEntity
  8
0
100
AcDbCircle
 62
7
  6
CONTINUOUS
 10
13.5161192671
 20
2.5062372524
 40
0.0243676582
100
AcDbArc
 50
63.3666028271
 51
90.3937697637
  0
ARC
  5
343
100
AcDbEntity
  8
0
100
AcDbCircle
 62
7
  6
CONTINUOUS
 10
13.6036139387
 20
2.5111006186
 40
0.0198837666
100
AcDbArc
 50
271.8586572978
 51
289.4131338543
  0
ARC
  5
344
100
AcDbEntity
  8
0
100
AcDbCircle
 62
7
  6
CONTINUOUS
 10
13.5577001432
 20
2.5085494649
 40
0.0173408616
100
AcDbArc
 50
232.4713476722
 51
267.338189944
  0
ARC
  5
345
100
AcDbEntity
  8
0
100
AcDbCircle
 62
7
  6
CONTINUOUS
 10
13.5130038
 20
2.4937023128
 40
0.0024749995
100
AcDbArc
 50
269.9999571957
 51
0.0000428043
  0
ARC
  5
346
100
AcDbEntity
  8
0
100
AcDbCircle
 62
7
  6
CONTINUOUS
 10
13.3994327333
 20
2.4937023128
 40
0.0024749995
100
AcDbArc
 50
179.9999571957
 51
270.0000428043
  0
ARC
  5
347
100
AcDbEntity
  8
0
100
AcDbCircle
 62
7
  6
CONTINUOUS
 10
13.1168435803
 20
2.4937023128
 40
0.0024749995
100
AcDbArc
 50
269.9999571957
 51
0.0000428043
  0
ARC
  5
348
100
AcDbEntity
  8
0
100
AcDbCircle
 62
7
  6
CONTINUOUS
 10
12.9962575135
 20
2.4937023128
 40
0.0024749995
100
AcDbArc
 50
269.9999571957
 51
0.0000428043
  0
ARC
  5
349
100
AcDbEntity
  8
0
100
AcDbCircle
 62
7
  6
CONTINUOUS
 10
12.9205934678
 20
2.4937023128
 40
0.0024749995
100
AcDbArc
 50
179.9999571957
 51
270.0000428043
  0
ARC
  5
34A
100
AcDbEntity
  8
0
100
AcDbCircle
 62
7
  6
CONTINUOUS
 10
13.370528721
 20
2.4937023128
 40
0.0024749995
100
AcDbArc
 50
269.9999571957
 51
0.0000428043
  0
ARC
  5
34B
100
AcDbEntity
  8
0
100
AcDbCircle
 62
7
  6
CONTINUOUS
 10
13.1673166046
 20
2.4937023128
 40
0.0024749995
100
AcDbArc
 50
179.9999571957
 51
270.0000428043
  0
ARC
  5
34C
100
AcDbEntity
  8
0
100
AcDbCircle
 62
7
  6
CONTINUOUS
 10
13.0426374026
 20
2.493701481
 40
0.0024741678
100
AcDbArc
 50
226.3477981898
 51
270.0031206038
  0
ARC
  5
34D
100
AcDbEntity
  8
0
100
AcDbCircle
 62
7
  6
CONTINUOUS
 10
13.0845012605
 20
2.5358592748
 40
0.0024753014
100
AcDbArc
 50
226.3461263059
 51
0.0014637321
  0
ARC
  5
34E
100
AcDbEntity
  8
0
100
AcDbCircle
 62
7
  6
CONTINUOUS
 10
12.9759408003
 20
2.5504984093
 40
0.0024753014
100
AcDbArc
 50
46.3461263059
 51
180.0014637321
  0
ARC
  5
34F
100
AcDbEntity
  8
0
100
AcDbCircle
 62
7
  6
CONTINUOUS
 10
12.9759404985
 20
2.5184523265
 40
0.0024749995
100
AcDbArc
 50
179.9999571957
 51
270.0000428043
  0
ARC
  5
350
100
AcDbEntity
  8
0
100
AcDbCircle
 62
7
  6
CONTINUOUS
 10
12.9962575135
 20
2.5135023274
 40
0.0024749995
100
AcDbArc
 50
359.9999571957
 51
90.0000428043
  0
ARC
  5
351
100
AcDbEntity
  8
0
100
AcDbCircle
 62
7
  6
CONTINUOUS
 10
12.9205934678
 20
2.5135023274
 40
0.0024749995
100
AcDbArc
 50
89.9999571957
 51
180.0000428042
  0
ARC
  5
352
100
AcDbEntity
  8
0
100
AcDbCircle
 62
7
  6
CONTINUOUS
 10
12.9392394818
 20
2.5184523265
 40
0.0024749995
100
AcDbArc
 50
269.9999571957
 51
0.0000428043
  0
ARC
  5
353
100
AcDbEntity
  8
0
100
AcDbCircle
 62
7
  6
CONTINUOUS
 10
13.2582556551
 20
2.5300023366
 40
0.0024749995
100
AcDbArc
 50
89.9999571957
 51
180.0000428043
  0
ARC
  5
354
100
AcDbEntity
  8
0
100
AcDbCircle
 62
7
  6
CONTINUOUS
 10
13.2582556551
 20
2.5184523265
 40
0.0024749995
100
AcDbArc
 50
179.9999571957
 51
270.0000428043
  0
ARC
  5
355
100
AcDbEntity
  8
0
100
AcDbCircle
 62
7
  6
CONTINUOUS
 10
13.1673166046
 20
2.5135023274
 40
0.0024749995
100
AcDbArc
 50
89.9999571957
 51
180.0000428043
  0
ARC
  5
356
100
AcDbEntity
  8
0
100
AcDbCircle
 62
7
  6
CONTINUOUS
 10
13.1912396216
 20
2.5184523265
 40
0.0024749995
100
AcDbArc
 50
269.9999571957
 51
0.0000428042
  0
ARC
  5
357
100
AcDbEntity
  8
0
100
AcDbCircle
 62
7
  6
CONTINUOUS
 10
13.2582556551
 20
2.5532573458
 40
0.0024749995
100
AcDbArc
 50
179.9999571957
 51
270.0000428043
  0
ARC
  5
358
100
AcDbEntity
  8
0
100
AcDbCircle
 62
7
  6
CONTINUOUS
 10
13.0845015624
 20
2.5648073559
 40
0.0024749995
100
AcDbArc
 50
359.9999571957
 51
90.0000428043
  0
ARC
  5
359
100
AcDbEntity
  8
0
100
AcDbCircle
 62
7
  6
CONTINUOUS
 10
13.0657255483
 20
2.5697573549
 40
0.0024749995
100
AcDbArc
 50
179.9999571957
 51
270.0000428043
  0
ARC
  5
35A
100
AcDbEntity
  8
0
100
AcDbCircle
 62
7
  6
CONTINUOUS
 10
13.0657255483
 20
2.5895573696
 40
0.0024749995
100
AcDbArc
 50
89.9999571957
 51
180.0000428043
  0
ARC
  5
35B
100
AcDbEntity
  8
0
100
AcDbCircle
 62
7
  6
CONTINUOUS
 10
13.139726593
 20
2.5895573696
 40
0.0024749995
100
AcDbArc
 50
359.9999571957
 51
90.0000428043
  0
ARC
  5
35C
100
AcDbEntity
  8
0
100
AcDbCircle
 62
7
  6
CONTINUOUS
 10
13.139726593
 20
2.5697573549
 40
0.0024749995
100
AcDbArc
 50
269.9999571957
 51
0.0000428042
  0
ARC
  5
35D
100
AcDbEntity
  8
0
100
AcDbCircle
 62
7
  6
CONTINUOUS
 10
13.1217935794
 20
2.5648073559
 40
0.0024749995
100
AcDbArc
 50
89.9999571957
 51
180.0000428042
  0
ARC
  5
35E
100
AcDbEntity
  8
0
100
AcDbCircle
 62
7
  6
CONTINUOUS
 10
12.9392394818
 20
2.5648073559
 40
0.0024749995
100
AcDbArc
 50
359.9999571957
 51
90.0000428043
  0
ARC
  5
35F
100
AcDbEntity
  8
0
100
AcDbCircle
 62
7
  6
CONTINUOUS
 10
12.9205934678
 20
2.5697573549
 40
0.0024749995
100
AcDbArc
 50
179.9999571957
 51
270.0000428043
  0
ARC
  5
360
100
AcDbEntity
  8
0
100
AcDbCircle
 62
7
  6
CONTINUOUS
 10
12.9205934678
 20
2.5895573696
 40
0.0024749995
100
AcDbArc
 50
89.9999571957
 51
180.0000428042
  0
ARC
  5
361
100
AcDbEntity
  8
0
100
AcDbCircle
 62
7
  6
CONTINUOUS
 10
13.1912396216
 20
2.5648073559
 40
0.0024749995
100
AcDbArc
 50
359.9999571957
 51
90.0000428043
  0
ARC
  5
362
100
AcDbEntity
  8
0
100
AcDbCircle
 62
7
  6
CONTINUOUS
 10
13.1673166046
 20
2.5697573549
 40
0.0024749995
100
AcDbArc
 50
179.9999571957
 51
270.0000428043
  0
ARC
  5
363
100
AcDbEntity
  8
0
100
AcDbCircle
 62
7
  6
CONTINUOUS
 10
13.1673166046
 20
2.5895573696
 40
0.0024749995
100
AcDbArc
 50
89.9999571957
 51
180.0000428043
  0
ARC
  5
364
100
AcDbEntity
  8
0
100
AcDbCircle
 62
7
  6
CONTINUOUS
 10
13.2582556551
 20
2.5648073559
 40
0.0024749995
100
AcDbArc
 50
89.9999571957
 51
180.0000428043
  0
ARC
  5
365
100
AcDbEntity
  8
0
100
AcDbCircle
 62
7
  6
CONTINUOUS
 10
13.0210516601
 20
2.5895582013
 40
0.0024741678
100
AcDbArc
 50
46.3477981899
 51
90.0031206038
  0
ARC
  5
366
100
AcDbEntity
  8
0
100
AcDbCircle
 62
7
  6
CONTINUOUS
 10
13.5806801742
 20
2.5212486481
 40
0.044722495
100
AcDbArc
 50
195.531588407
 51
204.7624440448
  0
ARC
  5
367
100
AcDbEntity
  8
0
100
AcDbCircle
 62
7
  6
CONTINUOUS
 10
13.5726548052
 20
2.5503169747
 40
0.039319019
100
AcDbArc
 50
59.1202086415
 51
81.4730239328
  0
ARC
  5
368
100
AcDbEntity
  8
0
100
AcDbCircle
 62
7
  6
CONTINUOUS
 10
13.5978759713
 20
2.5286873679
 40
0.0383802683
100
AcDbArc
 50
288.7656836787
 51
309.6104317088
  0
ARC
  5
369
100
AcDbEntity
  8
0
100
AcDbCircle
 62
7
  6
CONTINUOUS
 10
13.5783142014
 20
2.5566516438
 40
0.0310192946
100
AcDbArc
 50
34.7540871
 51
62.0879016178
  0
ARC
  5
36A
100
AcDbEntity
  8
0
100
AcDbCircle
 62
7
  6
CONTINUOUS
 10
13.5236009174
 20
2.5388278764
 40
0.0284963867
100
AcDbArc
 50
70.3834917948
 51
86.8922743861
  0
ARC
  5
36B
100
AcDbEntity
  8
0
100
AcDbCircle
 62
7
  6
CONTINUOUS
 10
13.6048681567
 20
2.5210861501
 40
0.0280715479
100
AcDbArc
 50
308.5071794988
 51
332.24006569
  0
ARC
  5
36C
100
AcDbEntity
  8
0
100
AcDbCircle
 62
7
  6
CONTINUOUS
 10
13.5750183849
 20
2.5166552064
 40
0.0266349791
100
AcDbArc
 50
20.3630922153
 51
37.9727053099
  0
ARC
  5
36D
100
AcDbEntity
  8
0
100
AcDbCircle
 62
7
  6
CONTINUOUS
 10
13.5761387404
 20
2.5167282896
 40
0.0257145923
100
AcDbArc
 50
39.3804255939
 51
59.0361096173
  0
ARC
  5
36E
100
AcDbEntity
  8
0
100
AcDbCircle
 62
7
  6
CONTINUOUS
 10
13.5607987082
 20
2.5143997688
 40
0.0238935861
100
AcDbArc
 50
209.8247607259
 51
235.1255079367
  0
ARC
  5
36F
100
AcDbEntity
  8
0
100
AcDbCircle
 62
7
  6
CONTINUOUS
 10
13.6141751675
 20
2.5161916447
 40
0.0175560065
100
AcDbArc
 50
332.2279060967
 51
359.6595469939
  0
ARC
  5
370
100
AcDbEntity
  8
0
100
AcDbCircle
 62
7
  6
CONTINUOUS
 10
13.5201739219
 20
2.5145168728
 40
0.0151491919
100
AcDbArc
 50
24.098260853
 51
63.0369451818
  0
ARC
  5
371
100
AcDbEntity
  8
0
100
AcDbCircle
 62
7
  6
CONTINUOUS
 10
13.6156881783
 20
2.525116781
 40
0.0147197649
100
AcDbArc
 50
192.7054516565
 51
206.0594861022
  0
ARC
  5
372
100
AcDbEntity
  8
0
100
AcDbCircle
 62
7
  6
CONTINUOUS
 10
13.5284605274
 20
2.5518696094
 40
0.0145814632
100
AcDbArc
 50
54.6746025112
 51
71.1660573124
  0
ARC
  5
373
100
AcDbEntity
  8
0
100
AcDbCircle
 62
7
  6
CONTINUOUS
 10
13.6063292954
 20
2.5296129864
 40
0.0132488022
100
AcDbArc
 50
270.266200055
 51
281.2404888597
  0
ARC
  5
374
100
AcDbEntity
  8
0
100
AcDbCircle
 62
7
  6
CONTINUOUS
 10
13.6027235414
 20
2.524769508
 40
0.0119498009
100
AcDbArc
 50
340.7883861657
 51
1.1691452593
  0
ARC
  5
375
100
AcDbEntity
  8
0
100
AcDbCircle
 62
7
  6
CONTINUOUS
 10
13.5295131508
 20
2.5629115009
 40
0.0110815393
100
AcDbArc
 50
306.758405961
 51
320.4502234234
  0
ARC
  5
376
100
AcDbEntity
  8
0
100
AcDbCircle
 62
7
  6
CONTINUOUS
 10
13.6075235364
 20
2.5238762928
 40
0.0073895522
100
AcDbArc
 50
280.8288201977
 51
305.0837508495
  0
ARC
  5
377
100
AcDbEntity
  8
0
100
AcDbCircle
 62
7
  6
CONTINUOUS
 10
13.607924718
 20
2.5230254464
 40
0.0064647042
100
AcDbArc
 50
306.5086174083
 51
340.2162360092
  0
ARC
  5
378
100
AcDbEntity
  8
0
100
AcDbCircle
 62
7
  6
CONTINUOUS
 10
13.5335900184
 20
2.5587235346
 40
0.0060275915
100
AcDbArc
 50
20.9055592135
 51
56.7851676243
  0
ARC
  5
379
100
AcDbEntity
  8
0
100
AcDbCircle
 62
7
  6
CONTINUOUS
 10
13.533683767
 20
2.559677593
 40
0.0058087709
100
AcDbArc
 50
318.8515287446
 51
353.6422345323
  0
ARC
  5
37A
100
AcDbEntity
  8
0
100
AcDbCircle
 62
7
  6
CONTINUOUS
 10
13.6071938412
 20
2.5209082945
 40
0.0052403997
100
AcDbArc
 50
205.5232099488
 51
227.5054868079
  0
ARC
  5
37B
100
AcDbEntity
  8
0
100
AcDbCircle
 62
7
  6
CONTINUOUS
 10
13.5348905773
 20
2.5593838168
 40
0.0045795888
100
AcDbArc
 50
355.6235353944
 51
18.9942678268
  0
ARC
  5
37C
100
AcDbEntity
  8
0
100
AcDbCircle
 62
7
  6
CONTINUOUS
 10
13.6054655419
 20
2.5190929218
 40
0.0027347709
100
AcDbArc
 50
228.5117626737
 51
266.1485845754
  0
ARC
  5
37D
100
AcDbEntity
  8
0
100
AcDbCircle
 62
7
  6
CONTINUOUS
 10
13.4883447827
 20
2.5281293355
 40
0.0024749995
100
AcDbArc
 50
89.9999571957
 51
180.0000428043
  0
ARC
  5
37E
100
AcDbEntity
  8
0
100
AcDbCircle
 62
7
  6
CONTINUOUS
 10
13.4883447827
 20
2.5184303265
 40
0.0024749995
100
AcDbArc
 50
179.9999571957
 51
270.0000428043
  0
ARC
  5
37F
100
AcDbEntity
  8
0
100
AcDbCircle
 62
7
  6
CONTINUOUS
 10
13.5130038
 20
2.5134803274
 40
0.0024749995
100
AcDbArc
 50
359.9999571957
 51
90.0000428043
  0
ARC
  5
380
100
AcDbEntity
  8
0
100
AcDbCircle
 62
7
  6
CONTINUOUS
 10
13.3994327333
 20
2.5135023274
 40
0.0024749995
100
AcDbArc
 50
89.9999571957
 51
180.0000428043
  0
ARC
  5
381
100
AcDbEntity
  8
0
100
AcDbCircle
 62
7
  6
CONTINUOUS
 10
13.4221787497
 20
2.5184523265
 40
0.0024749995
100
AcDbArc
 50
269.9999571957
 51
0.0000428042
  0
ARC
  5
382
100
AcDbEntity
  8
0
100
AcDbCircle
 62
7
  6
CONTINUOUS
 10
13.6171458541
 20
2.5276393353
 40
0.0024749995
100
AcDbArc
 50
89.9999571957
 51
180.0000428043
  0
ARC
  5
383
100
AcDbEntity
  8
0
100
AcDbCircle
 62
7
  6
CONTINUOUS
 10
13.6292558645
 20
2.5276393353
 40
0.0024749995
100
AcDbArc
 50
359.9999571957
 51
90.0000428043
  0
ARC
  5
384
100
AcDbEntity
  8
0
100
AcDbCircle
 62
7
  6
CONTINUOUS
 10
13.4883447827
 20
2.5520823451
 40
0.0024749995
100
AcDbArc
 50
179.9999571957
 51
270.0000428043
  0
ARC
  5
385
100
AcDbEntity
  8
0
100
AcDbCircle
 62
7
  6
CONTINUOUS
 10
13.3232596948
 20
2.5184523265
 40
0.0024749995
100
AcDbArc
 50
269.9999571957
 51
0.0000428043
  0
ARC
  5
386
100
AcDbEntity
  8
0
100
AcDbCircle
 62
7
  6
CONTINUOUS
 10
13.3282096938
 20
2.5267023348
 40
0.0024749995
100
AcDbArc
 50
89.9999571957
 51
180.0000428043
  0
ARC
  5
387
100
AcDbEntity
  8
0
100
AcDbCircle
 62
7
  6
CONTINUOUS
 10
13.370528721
 20
2.5267023348
 40
0.0024749995
100
AcDbArc
 50
359.9999571957
 51
90.0000428043
  0
ARC
  5
388
100
AcDbEntity
  8
0
100
AcDbCircle
 62
7
  6
CONTINUOUS
 10
13.3691097202
 20
2.5565573476
 40
0.0024749995
100
AcDbArc
 50
269.9999571957
 51
0.0000428042
  0
ARC
  5
389
100
AcDbEntity
  8
0
100
AcDbCircle
 62
7
  6
CONTINUOUS
 10
13.3272456933
 20
2.5565573476
 40
0.0024749995
100
AcDbArc
 50
179.9999571957
 51
270.0000428043
  0
ARC
  5
38A
100
AcDbEntity
  8
0
100
AcDbCircle
 62
7
  6
CONTINUOUS
 10
13.2934226783
 20
2.5483073467
 40
0.0024749995
100
AcDbArc
 50
359.9999571957
 51
90.0000428043
  0
ARC
  5
38B
100
AcDbEntity
  8
0
100
AcDbCircle
 62
7
  6
CONTINUOUS
 10
13.2934226783
 20
2.5349523356
 40
0.0024749995
100
AcDbArc
 50
269.9999571957
 51
0.0000428042
  0
ARC
  5
38C
100
AcDbEntity
  8
0
100
AcDbCircle
 62
7
  6
CONTINUOUS
 10
13.5519569538
 20
2.6152551345
 40
0.0789082104
100
AcDbArc
 50
292.906155071
 51
305.2574666259
  0
ARC
  5
38D
100
AcDbEntity
  8
0
100
AcDbCircle
 62
7
  6
CONTINUOUS
 10
13.5822888914
 20
2.5720482849
 40
0.0261183659
100
AcDbArc
 50
305.6373831893
 51
329.9727629745
  0
ARC
  5
38E
100
AcDbEntity
  8
0
100
AcDbCircle
 62
7
  6
CONTINUOUS
 10
13.5219564542
 20
2.5750459767
 40
0.0254407115
100
AcDbArc
 50
270.7327484175
 51
290.441894219
  0
ARC
  5
38F
100
AcDbEntity
  8
0
100
AcDbCircle
 62
7
  6
CONTINUOUS
 10
13.5238839599
 20
2.5706523294
 40
0.0206523367
100
AcDbArc
 50
289.6883413472
 51
306.4184925496
  0
ARC
  5
390
100
AcDbEntity
  8
0
100
AcDbCircle
 62
7
  6
CONTINUOUS
 10
13.5900029525
 20
2.565201245
 40
0.0165459396
100
AcDbArc
 50
1.548452892
 51
33.5033152417
  0
ARC
  5
391
100
AcDbEntity
  8
0
100
AcDbCircle
 62
7
  6
CONTINUOUS
 10
13.5932995477
 20
2.5653696972
 40
0.0132462337
100
AcDbArc
 50
331.1510006998
 51
1.205404301
  0
ARC
  5
392
100
AcDbEntity
  8
0
100
AcDbCircle
 62
7
  6
CONTINUOUS
 10
13.4221787497
 20
2.5648073559
 40
0.0024749995
100
AcDbArc
 50
359.9999571957
 51
90.0000428043
  0
ARC
  5
393
100
AcDbEntity
  8
0
100
AcDbCircle
 62
7
  6
CONTINUOUS
 10
13.3994327333
 20
2.5697573549
 40
0.0024749995
100
AcDbArc
 50
179.9999571957
 51
270.0000428043
  0
ARC
  5
394
100
AcDbEntity
  8
0
100
AcDbCircle
 62
7
  6
CONTINUOUS
 10
13.3994327333
 20
2.5895573696
 40
0.0024749995
100
AcDbArc
 50
89.9999571957
 51
180.0000428043
  0
ARC
  5
395
100
AcDbEntity
  8
0
100
AcDbCircle
 62
7
  6
CONTINUOUS
 10
13.4883447827
 20
2.5648073559
 40
0.0024749995
100
AcDbArc
 50
89.9999571957
 51
180.0000428043
  0
ARC
  5
396
100
AcDbEntity
  8
0
100
AcDbCircle
 62
7
  6
CONTINUOUS
 10
13.3691097202
 20
2.5895573696
 40
0.0024749995
100
AcDbArc
 50
359.9999571957
 51
90.0000428043
  0
ARC
  5
397
100
AcDbEntity
  8
0
100
AcDbCircle
 62
7
  6
CONTINUOUS
 10
13.3222956943
 20
2.5648073559
 40
0.0024749995
100
AcDbArc
 50
359.9999571957
 51
90.0000428043
  0
ELLIPSE
  5
398
100
AcDbEntity
  8
0
100
AcDbEllipse
 62
7
  6
CONTINUOUS
 10
12.9046654608
 20
2.5403783405
 30
0.0
 11
-0.8250004575
 21
0.0
 31
0.0
 40
0.218572
 41
0.0
 42
6.2831853072
  0
HATCH
  5
399
100
AcDbEntity
  8
0
100
AcDbHatch
 62
7
  6
CONTINUOUS
 10
0.0
 20
0.0
 30
0.0
210
0.0
220
0.0
230
1.0
  2
XSEC0001
 70
1
 71
1
 91
11
 92
1
 93
57
 72
2
 10
13.5577001432
 20
2.5085494649
 40
0.0173408616
 50
232.4713476722
 51
267.338189944
 73
1
 72
2
 10
13.5607987082
 20
2.5143997688
 40
0.0238935861
 50
209.8247607259
 51
235.1255079367
 73
1
 72
2
 10
13.5806801742
 20
2.5212486481
 40
0.044722495
 50
195.531588407
 51
204.7624440448
 73
1
 72
1
 10
13.5375908118
 20
2.5092733232
 11
13.5357868108
 21
2.5153423266
 72
2
 10
13.4974076135
 20
2.5055452462
 40
0.0396099176
 50
14.3201081283
 51
22.4984722084
 73
1
 72
2
 10
13.5201739219
 20
2.5145168728
 40
0.0151491919
 50
24.098260853
 51
63.0369451818
 73
1
 72
2
 10
13.5161192671
 20
2.5062372524
 40
0.0243676582
 50
63.3666028271
 51
90.3937697637
 73
1
 72
1
 10
13.5159517998
 20
2.5306043351
 11
13.4883447845
 21
2.5306043351
 72
2
 10
13.4883447827
 20
2.5281293355
 40
0.0024749995
 50
89.9999571958
 51
180.0000428043
 73
1
 72
1
 10
13.4858697831
 20
2.5281293337
 11
13.4858697831
 21
2.5184303283
 72
2
 10
13.4883447827
 20
2.5184303265
 40
0.0024749995
 50
179.9999571957
 51
270.0000428042
 73
1
 72
1
 10
13.4883447845
 20
2.5159553269
 11
13.5130037982
 21
2.5159553269
 72
2
 10
13.5130038
 20
2.5134803274
 40
0.0024749995
 50
359.9999571957
 51
90.0000428042
 73
1
 72
1
 10
13.5154787995
 20
2.5134803256
 11
13.5154787995
 21
2.4937023146
 72
2
 10
13.5130038
 20
2.4937023128
 40
0.0024749995
 50
269.9999571958
 51
0.0000428043
 73
1
 72
1
 10
13.5130037982
 20
2.4912273132
 11
13.3994327352
 21
2.4912273132
 72
2
 10
13.3994327333
 20
2.4937023128
 40
0.0024749995
 50
179.9999571957
 51
270.0000428043
 73
1
 72
1
 10
13.3969577338
 20
2.4937023146
 11
13.3969577338
 21
2.5135023256
 72
2
 10
13.3994327333
 20
2.5135023274
 40
0.0024749995
 50
89.9999571957
 51
180.0000428043
 73
1
 72
1
 10
13.3994327352
 20
2.515977327
 11
13.4221787478
 21
2.515977327
 72
2
 10
13.4221787497
 20
2.5184523265
 40
0.0024749995
 50
269.9999571956
 51
0.0000428042
 73
1
 72
1
 10
13.4246537492
 20
2.5184523283
 11
13.4246537492
 21
2.564807354
 72
2
 10
13.4221787497
 20
2.5648073559
 40
0.0024749995
 50
359.9999571957
 51
90.0000428043
 73
1
 72
1
 10
13.4221787478
 20
2.5672823554
 11
13.3994327352
 21
2.5672823554
 72
2
 10
13.3994327333
 20
2.5697573549
 40
0.0024749995
 50
179.9999571957
 51
270.0000428043
 73
1
 72
1
 10
13.3969577338
 20
2.5697573568
 11
13.3969577338
 21
2.5895573678
 72
2
 10
13.3994327333
 20
2.5895573696
 40
0.0024749995
 50
89.9999571957
 51
180.0000428043
 73
1
 72
1
 10
13.3994327352
 20
2.5920323691
 11
13.5490138181
 21
2.5920323691
 72
2
 10
13.5463505148
 20
2.4094934586
 40
0.1825583387
 50
79.8618509324
 51
89.1640948679
 73
1
 72
2
 10
13.5726548052
 20
2.5503169747
 40
0.039319019
 50
59.1202086415
 51
81.4730239328
 73
1
 72
2
 10
13.5783142014
 20
2.5566516438
 40
0.0310192946
 50
34.7540871
 51
62.0879016178
 73
1
 72
2
 10
13.5900029525
 20
2.565201245
 40
0.0165459396
 50
1.548452892
 51
33.5033152417
 73
1
 72
2
 10
13.5932995477
 20
2.5653696972
 40
0.0132462337
 50
331.1510006998
 51
1.205404301
 73
1
 72
2
 10
13.5822888914
 20
2.5720482849
 40
0.0261183659
 50
305.6373831893
 51
329.9727629745
 73
1
 72
2
 10
13.5519569538
 20
2.6152551345
 40
0.0789082104
 50
292.906155071
 51
305.2574666259
 73
1
 72
2
 10
13.5282557878
 20
2.4386010294
 40
0.117346916
 50
58.614769177
 51
62.3737227606
 73
1
 72
2
 10
13.5761387404
 20
2.5167282896
 40
0.0257145923
 50
39.3804255939
 51
59.0361096173
 73
1
 72
2
 10
13.5750183849
 20
2.5166552064
 40
0.0266349791
 50
20.3630922153
 51
37.9727053099
 73
1
 72
2
 10
13.5571178432
 20
2.509473798
 40
0.0459185159
 50
15.6740290068
 51
20.9917271228
 73
1
 72
2
 10
13.6156881783
 20
2.525116781
 40
0.0147197649
 50
192.7054516565
 51
206.0594861022
 73
1
 72
2
 10
13.6071938412
 20
2.5209082945
 40
0.0052403997
 50
205.5232099488
 51
227.5054868079
 73
1
 72
2
 10
13.6054655419
 20
2.5190929218
 40
0.0027347709
 50
228.5117626737
 51
266.1485845754
 73
1
 72
1
 10
13.6052818493
 20
2.5163643272
 11
13.60639085
 21
2.5163643272
 72
2
 10
13.6063292954
 20
2.5296129864
 40
0.0132488022
 50
270.266200055
 51
281.2404888597
 73
1
 72
2
 10
13.6075235364
 20
2.5238762928
 40
0.0073895522
 50
280.8288201977
 51
305.0837508495
 73
1
 72
2
 10
13.607924718
 20
2.5230254464
 40
0.0064647042
 50
306.5086174083
 51
340.2162360092
 73
1
 72
2
 10
13.6027235414
 20
2.524769508
 40
0.0119498009
 50
340.7883861657
 51
1.1691452593
 73
1
 72
1
 10
13.6146708546
 20
2.525013332
 11
13.6146708546
 21
2.5276393334
 72
2
 10
13.6171458541
 20
2.5276393353
 40
0.0024749995
 50
89.9999571958
 51
180.0000428043
 73
1
 72
1
 10
13.6171458559
 20
2.5301143348
 11
13.6292558626
 21
2.5301143348
 72
2
 10
13.6292558645
 20
2.5276393353
 40
0.0024749995
 50
359.9999571957
 51
90.0000428042
 73
1
 72
1
 10
13.631730864
 20
2.5276393334
 11
13.631730864
 21
2.516087327
 72
2
 10
13.6141751675
 20
2.5161916447
 40
0.0175560065
 50
332.2279060967
 51
359.6595469939
 73
1
 72
2
 10
13.6048681567
 20
2.5210861501
 40
0.0280715479
 50
308.5071794988
 51
332.2400656899
 73
1
 72
2
 10
13.5978759713
 20
2.5286873679
 40
0.0383802683
 50
288.7656836787
 51
309.6104317088
 73
1
 72
2
 10
13.6036139387
 20
2.5111006186
 40
0.0198837666
 50
271.8586572978
 51
289.4131338543
 73
1
 72
1
 10
13.6042588488
 20
2.4912273132
 11
13.5568948225
 21
2.4912273132
 97
267
330
28E
330
28F
330
290
330
291
330
292
330
293
330
294
330
295
330
296
330
297
330
298
330
299
330
29A
330
29B
330
29C
330
29D
330
29E
330
29F
330
2A0
330
2A1
330
2A2
330
2A3
330
2A4
330
2A5
330
2A6
330
2A7
330
2A8
330
2A9
330
2AA
330
2AB
330
2AC
330
2AD
330
2AE
330
2AF
330
2B0
330
2B1
330
2B2
330
2B3
330
2B4
330
2B5
330
2B6
330
2B7
330
2B8
330
2B9
330
2BA
330
2BB
330
2BC
330
2BD
330
2BE
330
2BF
330
2C0
330
2C1
330
2C2
330
2C3
330
2C4
330
2C5
330
2C6
330
2C7
330
2C8
330
2C9
330
2CA
330
2CB
330
2CC
330
2CD
330
2CE
330
2CF
330
2D0
330
2D1
330
2D2
330
2D3
330
2D4
330
2D5
330
2D6
330
2D7
330
2D8
330
2D9
330
2DA
330
2DB
330
2DC
330
2DD
330
2DE
330
2DF
330
2E0
330
2E1
330
2E2
330
2E3
330
2E4
330
2E5
330
2E6
330
2E7
330
2E8
330
2E9
330
2EA
330
2EB
330
2EC
330
2ED
330
2EE
330
2EF
330
2F0
330
2F1
330
2F2
330
2F3
330
2F4
330
2F5
330
2F6
330
2F7
330
2F8
330
2F9
330
2FA
330
2FB
330
2FC
330
2FD
330
2FE
330
2FF
330
300
330
301
330
302
330
303
330
304
330
305
330
306
330
307
330
308
330
309
330
30A
330
30B
330
30C
330
30D
330
30E
330
30F
330
310
330
311
330
312
330
313
330
314
330
315
330
316
330
317
330
318
330
319
330
31A
330
31B
330
31C
330
31D
330
31E
330
31F
330
320
330
321
330
322
330
323
330
324
330
325
330
326
330
327
330
328
330
329
330
32A
330
32B
330
32C
330
32D
330
32E
330
32F
330
330
330
331
330
332
330
333
330
334
330
335
330
336
330
337
330
338
330
339
330
33A
330
33B
330
33C
330
33D
330
33E
330
33F
330
340
330
341
330
342
330
343
330
344
330
345
330
346
330
347
330
348
330
349
330
34A
330
34B
330
34C
330
34D
330
34E
330
34F
330
350
330
351
330
352
330
353
330
354
330
355
330
356
330
357
330
358
330
359
330
35A
330
35B
330
35C
330
35D
330
35E
330
35F
330
360
330
361
330
362
330
363
330
364
330
365
330
366
330
367
330
368
330
369
330
36A
330
36B
330
36C
330
36D
330
36E
330
36F
330
370
330
371
330
372
330
373
330
374
330
375
330
376
330
377
330
378
330
379
330
37A
330
37B
330
37C
330
37D
330
37E
330
37F
330
380
330
381
330
382
330
383
330
384
330
385
330
386
330
387
330
388
330
389
330
38A
330
38B
330
38C
330
38D
330
38E
330
38F
330
390
330
391
330
392
330
393
330
394
330
395
330
396
330
397
330
398
 92
1
 93
40
 72
2
 10
13.1673166046
 20
2.4937023128
 40
0.0024749995
 50
179.9999571957
 51
270.0000428042
 73
1
 72
1
 10
13.1648416051
 20
2.4937023146
 11
13.1648416051
 21
2.5135023256
 72
2
 10
13.1673166046
 20
2.5135023274
 40
0.0024749995
 50
89.9999571958
 51
180.0000428043
 73
1
 72
1
 10
13.1673166065
 20
2.515977327
 11
13.1912396197
 21
2.515977327
 72
2
 10
13.1912396216
 20
2.5184523265
 40
0.0024749995
 50
269.9999571956
 51
0.0000428042
 73
1
 72
1
 10
13.1937146211
 20
2.5184523283
 11
13.1937146211
 21
2.564807354
 72
2
 10
13.1912396216
 20
2.5648073559
 40
0.0024749995
 50
359.9999571957
 51
90.0000428043
 73
1
 72
1
 10
13.1912396197
 20
2.5672823554
 11
13.1673166065
 21
2.5672823554
 72
2
 10
13.1673166046
 20
2.5697573549
 40
0.0024749995
 50
179.9999571957
 51
270.0000428043
 73
1
 72
1
 10
13.1648416051
 20
2.5697573568
 11
13.1648416051
 21
2.5895573678
 72
2
 10
13.1673166046
 20
2.5895573696
 40
0.0024749995
 50
89.9999571958
 51
180.0000428043
 73
1
 72
1
 10
13.1673166065
 20
2.5920323691
 11
13.3691097184
 21
2.5920323691
 72
2
 10
13.3691097202
 20
2.5895573696
 40
0.0024749995
 50
359.9999571957
 51
90.0000428042
 73
1
 72
1
 10
13.3715847197
 20
2.5895573678
 11
13.3715847197
 21
2.5565573495
 72
2
 10
13.3691097202
 20
2.5565573476
 40
0.0024749995
 50
269.9999571956
 51
0.0000428042
 73
1
 72
1
 10
13.3691097184
 20
2.5540823481
 11
13.3272456952
 21
2.5540823481
 72
2
 10
13.3272456933
 20
2.5565573476
 40
0.0024749995
 50
179.9999571957
 51
270.0000428043
 73
1
 72
1
 10
13.3247706938
 20
2.5565573495
 11
13.3247706938
 21
2.564807354
 72
2
 10
13.3222956943
 20
2.5648073559
 40
0.0024749995
 50
359.9999571957
 51
90.0000428043
 73
1
 72
1
 10
13.3222956924
 20
2.5672823554
 11
13.2582556569
 21
2.5672823554
 72
2
 10
13.2582556551
 20
2.5648073559
 40
0.0024749995
 50
89.9999571957
 51
180.0000428043
 73
1
 72
1
 10
13.2557806555
 20
2.564807354
 11
13.2557806555
 21
2.5532573476
 72
2
 10
13.2582556551
 20
2.5532573458
 40
0.0024749995
 50
179.9999571957
 51
270.0000428042
 73
1
 72
1
 10
13.2582556569
 20
2.5507823463
 11
13.2934226764
 21
2.5507823463
 72
2
 10
13.2934226783
 20
2.5483073467
 40
0.0024749995
 50
359.9999571957
 51
90.0000428042
 73
1
 72
1
 10
13.2958976778
 20
2.5483073449
 11
13.2958976778
 21
2.5349523375
 72
2
 10
13.2934226783
 20
2.5349523356
 40
0.0024749995
 50
269.9999571956
 51
0.0000428042
 73
1
 72
1
 10
13.2934226764
 20
2.5324773361
 11
13.2582556569
 21
2.5324773361
 72
2
 10
13.2582556551
 20
2.5300023366
 40
0.0024749995
 50
89.9999571957
 51
180.0000428043
 73
1
 72
1
 10
13.2557806555
 20
2.5300023347
 11
13.2557806555
 21
2.5184523283
 72
2
 10
13.2582556551
 20
2.5184523265
 40
0.0024749995
 50
179.9999571957
 51
270.0000428043
 73
1
 72
1
 10
13.2582556569
 20
2.515977327
 11
13.3232596929
 21
2.515977327
 72
2
 10
13.3232596948
 20
2.5184523265
 40
0.0024749995
 50
269.9999571958
 51
0.0000428043
 73
1
 72
1
 10
13.3257346943
 20
2.5184523283
 11
13.3257346943
 21
2.5267023329
 72
2
 10
13.3282096938
 20
2.5267023348
 40
0.0024749995
 50
89.9999571957
 51
180.0000428043
 73
1
 72
1
 10
13.3282096957
 20
2.5291773343
 11
13.3705287192
 21
2.5291773343
 72
2
 10
13.370528721
 20
2.5267023348
 40
0.0024749995
 50
359.9999571957
 51
90.0000428043
 73
1
 72
1
 10
13.3730037205
 20
2.5267023329
 11
13.3730037205
 21
2.4937023146
 72
2
 10
13.370528721
 20
2.4937023128
 40
0.0024749995
 50
269.9999571957
 51
0.0000428043
 73
1
 72
1
 10
13.3705287192
 20
2.4912273132
 11
13.1673166065
 21
2.4912273132
 97
267
330
28E
330
28F
330
290
330
291
330
292
330
293
330
294
330
295
330
296
330
297
330
298
330
299
330
29A
330
29B
330
29C
330
29D
330
29E
330
29F
330
2A0
330
2A1
330
2A2
330
2A3
330
2A4
330
2A5
330
2A6
330
2A7
330
2A8
330
2A9
330
2AA
330
2AB
330
2AC
330
2AD
330
2AE
330
2AF
330
2B0
330
2B1
330
2B2
330
2B3
330
2B4
330
2B5
330
2B6
330
2B7
330
2B8
330
2B9
330
2BA
330
2BB
330
2BC
330
2BD
330
2BE
330
2BF
330
2C0
330
2C1
330
2C2
330
2C3
330
2C4
330
2C5
330
2C6
330
2C7
330
2C8
330
2C9
330
2CA
330
2CB
330
2CC
330
2CD
330
2CE
330
2CF
330
2D0
330
2D1
330
2D2
330
2D3
330
2D4
330
2D5
330
2D6
330
2D7
330
2D8
330
2D9
330
2DA
330
2DB
330
2DC
330
2DD
330
2DE
330
2DF
330
2E0
330
2E1
330
2E2
330
2E3
330
2E4
330
2E5
330
2E6
330
2E7
330
2E8
330
2E9
330
2EA
330
2EB
330
2EC
330
2ED
330
2EE
330
2EF
330
2F0
330
2F1
330
2F2
330
2F3
330
2F4
330
2F5
330
2F6
330
2F7
330
2F8
330
2F9
330
2FA
330
2FB
330
2FC
330
2FD
330
2FE
330
2FF
330
300
330
301
330
302
330
303
330
304
330
305
330
306
330
307
330
308
330
309
330
30A
330
30B
330
30C
330
30D
330
30E
330
30F
330
310
330
311
330
312
330
313
330
314
330
315
330
316
330
317
330
318
330
319
330
31A
330
31B
330
31C
330
31D
330
31E
330
31F
330
320
330
321
330
322
330
323
330
324
330
325
330
326
330
327
330
328
330
329
330
32A
330
32B
330
32C
330
32D
330
32E
330
32F
330
330
330
331
330
332
330
333
330
334
330
335
330
336
330
337
330
338
330
339
330
33A
330
33B
330
33C
330
33D
330
33E
330
33F
330
340
330
341
330
342
330
343
330
344
330
345
330
346
330
347
330
348
330
349
330
34A
330
34B
330
34C
330
34D
330
34E
330
34F
330
350
330
351
330
352
330
353
330
354
330
355
330
356
330
357
330
358
330
359
330
35A
330
35B
330
35C
330
35D
330
35E
330
35F
330
360
330
361
330
362
330
363
330
364
330
365
330
366
330
367
330
368
330
369
330
36A
330
36B
330
36C
330
36D
330
36E
330
36F
330
370
330
371
330
372
330
373
330
374
330
375
330
376
330
377
330
378
330
379
330
37A
330
37B
330
37C
330
37D
330
37E
330
37F
330
380
330
381
330
382
330
383
330
384
330
385
330
386
330
387
330
388
330
389
330
38A
330
38B
330
38C
330
38D
330
38E
330
38F
330
390
330
391
330
392
330
393
330
394
330
395
330
396
330
397
330
398
 92
1
 93
40
 72
2
 10
13.0426374026
 20
2.493701481
 40
0.0024741678
 50
226.3477981898
 51
270.0031206038
 73
1
 72
1
 10
13.0409295364
 20
2.4919113136
 11
12.9776495013
 21
2.5522893471
 72
2
 10
12.9759408003
 20
2.5504984093
 40
0.0024753014
 50
46.3461263059
 51
180.0014637321
 73
1
 72
1
 10
12.973465499
 20
2.5504983461
 11
12.973465499
 21
2.5184523283
 72
2
 10
12.9759404985
 20
2.5184523265
 40
0.0024749995
 50
179.9999571957
 51
270.0000428043
 73
1
 72
1
 10
12.9759405003
 20
2.515977327
 11
12.9962575116
 21
2.515977327
 72
2
 10
12.9962575135
 20
2.5135023274
 40
0.0024749995
 50
359.9999571957
 51
90.0000428043
 73
1
 72
1
 10
12.998732513
 20
2.5135023256
 11
12.998732513
 21
2.4937023146
 72
2
 10
12.9962575135
 20
2.4937023128
 40
0.0024749995
 50
269.9999571957
 51
0.0000428043
 73
1
 72
1
 10
12.9962575116
 20
2.4912273132
 11
12.9205934696
 21
2.4912273132
 72
2
 10
12.9205934678
 20
2.4937023128
 40
0.0024749995
 50
179.9999571957
 51
270.0000428043
 73
1
 72
1
 10
12.9181184683
 20
2.4937023146
 11
12.9181184683
 21
2.5135023256
 72
2
 10
12.9205934678
 20
2.5135023274
 40
0.0024749995
 50
89.9999571956
 51
180.0000428042
 73
1
 72
1
 10
12.9205934696
 20
2.515977327
 11
12.93923948
 21
2.515977327
 72
2
 10
12.9392394818
 20
2.5184523265
 40
0.0024749995
 50
269.9999571957
 51
0.0000428043
 73
1
 72
1
 10
12.9417144814
 20
2.5184523283
 11
12.9417144814
 21
2.564807354
 72
2
 10
12.9392394818
 20
2.5648073559
 40
0.0024749995
 50
359.9999571957
 51
90.0000428043
 73
1
 72
1
 10
12.93923948
 20
2.5672823554
 11
12.9205934696
 21
2.5672823554
 72
2
 10
12.9205934678
 20
2.5697573549
 40
0.0024749995
 50
179.9999571957
 51
270.0000428043
 73
1
 72
1
 10
12.9181184683
 20
2.5697573568
 11
12.9181184683
 21
2.5895573678
 72
2
 10
12.9205934678
 20
2.5895573696
 40
0.0024749995
 50
89.9999571956
 51
180.0000428042
 73
1
 72
1
 10
12.9205934696
 20
2.5920323691
 11
13.0210515254
 21
2.5920323691
 72
2
 10
13.0210516601
 20
2.5895582013
 40
0.0024741678
 50
46.3477981898
 51
90.0031206038
 73
1
 72
1
 10
13.0227595263
 20
2.5913483688
 11
13.0827925596
 21
2.534068337
 72
2
 10
13.0845012605
 20
2.5358592748
 40
0.0024753014
 50
226.3461263059
 51
0.0014637321
 73
1
 72
1
 10
13.0869765619
 20
2.535859338
 11
13.0869765619
 21
2.564807354
 72
2
 10
13.0845015624
 20
2.5648073559
 40
0.0024749995
 50
359.9999571957
 51
90.0000428043
 73
1
 72
1
 10
13.0845015605
 20
2.5672823554
 11
13.0657255501
 21
2.5672823554
 72
2
 10
13.0657255483
 20
2.5697573549
 40
0.0024749995
 50
179.9999571957
 51
270.0000428043
 73
1
 72
1
 10
13.0632505488
 20
2.5697573568
 11
13.0632505488
 21
2.5895573678
 72
2
 10
13.0657255483
 20
2.5895573696
 40
0.0024749995
 50
89.9999571957
 51
180.0000428043
 73
1
 72
1
 10
13.0657255501
 20
2.5920323691
 11
13.1397265912
 21
2.5920323691
 72
2
 10
13.139726593
 20
2.5895573696
 40
0.0024749995
 50
359.9999571957
 51
90.0000428043
 73
1
 72
1
 10
13.1422015925
 20
2.5895573678
 11
13.1422015925
 21
2.5697573568
 72
2
 10
13.139726593
 20
2.5697573549
 40
0.0024749995
 50
269.9999571956
 51
0.0000428042
 73
1
 72
1
 10
13.1397265912
 20
2.5672823554
 11
13.1217935812
 21
2.5672823554
 72
2
 10
13.1217935794
 20
2.5648073559
 40
0.0024749995
 50
89.9999571957
 51
180.0000428042
 73
1
 72
1
 10
13.1193185799
 20
2.564807354
 11
13.1193185799
 21
2.4937023146
 72
2
 10
13.1168435803
 20
2.4937023128
 40
0.0024749995
 50
269.9999571957
 51
0.0000428043
 73
1
 72
1
 10
13.1168435785
 20
2.4912273132
 11
13.0426375373
 21
2.4912273132
 97
267
330
28E
330
28F
330
290
330
291
330
292
330
293
330
294
330
295
330
296
330
297
330
298
330
299
330
29A
330
29B
330
29C
330
29D
330
29E
330
29F
330
2A0
330
2A1
330
2A2
330
2A3
330
2A4
330
2A5
330
2A6
330
2A7
330
2A8
330
2A9
330
2AA
330
2AB
330
2AC
330
2AD
330
2AE
330
2AF
330
2B0
330
2B1
330
2B2
330
2B3
330
2B4
330
2B5
330
2B6
330
2B7
330
2B8
330
2B9
330
2BA
330
2BB
330
2BC
330
2BD
330
2BE
330
2BF
330
2C0
330
2C1
330
2C2
330
2C3
330
2C4
330
2C5
330
2C6
330
2C7
330
2C8
330
2C9
330
2CA
330
2CB
330
2CC
330
2CD
330
2CE
330
2CF
330
2D0
330
2D1
330
2D2
330
2D3
330
2D4
330
2D5
330
2D6
330
2D7
330
2D8
330
2D9
330
2DA
330
2DB
330
2DC
330
2DD
330
2DE
330
2DF
330
2E0
330
2E1
330
2E2
330
2E3
330
2E4
330
2E5
330
2E6
330
2E7
330
2E8
330
2E9
330
2EA
330
2EB
330
2EC
330
2ED
330
2EE
330
2EF
330
2F0
330
2F1
330
2F2
330
2F3
330
2F4
330
2F5
330
2F6
330
2F7
330
2F8
330
2F9
330
2FA
330
2FB
330
2FC
330
2FD
330
2FE
330
2FF
330
300
330
301
330
302
330
303
330
304
330
305
330
306
330
307
330
308
330
309
330
30A
330
30B
330
30C
330
30D
330
30E
330
30F
330
310
330
311
330
312
330
313
330
314
330
315
330
316
330
317
330
318
330
319
330
31A
330
31B
330
31C
330
31D
330
31E
330
31F
330
320
330
321
330
322
330
323
330
324
330
325
330
326
330
327
330
328
330
329
330
32A
330
32B
330
32C
330
32D
330
32E
330
32F
330
330
330
331
330
332
330
333
330
334
330
335
330
336
330
337
330
338
330
339
330
33A
330
33B
330
33C
330
33D
330
33E
330
33F
330
340
330
341
330
342
330
343
330
344
330
345
330
346
330
347
330
348
330
349
330
34A
330
34B
330
34C
330
34D
330
34E
330
34F
330
350
330
351
330
352
330
353
330
354
330
355
330
356
330
357
330
358
330
359
330
35A
330
35B
330
35C
330
35D
330
35E
330
35F
330
360
330
361
330
362
330
363
330
364
330
365
330
366
330
367
330
368
330
369
330
36A
330
36B
330
36C
330
36D
330
36E
330
36F
330
370
330
371
330
372
330
373
330
374
330
375
330
376
330
377
330
378
330
379
330
37A
330
37B
330
37C
330
37D
330
37E
330
37F
330
380
330
381
330
382
330
383
330
384
330
385
330
386
330
387
330
388
330
389
330
38A
330
38B
330
38C
330
38D
330
38E
330
38F
330
390
330
391
330
392
330
393
330
394
330
395
330
396
330
397
330
398
 92
1
 93
40
 72
2
 10
12.7943847649
 20
2.4937027294
 40
0.0024754162
 50
226.3593695813
 51
270.0146919953
 73
1
 72
1
 10
12.7926763987
 20
2.4919113136
 11
12.7293963636
 21
2.5522893471
 72
2
 10
12.7276876627
 20
2.5504984093
 40
0.0024753014
 50
46.3461263059
 51
180.0014637321
 73
1
 72
1
 10
12.7252123613
 20
2.5504983461
 11
12.7252123613
 21
2.5184523283
 72
2
 10
12.7276873608
 20
2.5184523265
 40
0.0024749995
 50
179.9999571957
 51
270.0000428043
 73
1
 72
1
 10
12.7276873627
 20
2.515977327
 11
12.7480043739
 21
2.515977327
 72
2
 10
12.7480043758
 20
2.5135023274
 40
0.0024749995
 50
359.9999571957
 51
90.0000428043
 73
1
 72
1
 10
12.7504793753
 20
2.5135023256
 11
12.7504793753
 21
2.4937023146
 72
2
 10
12.7480043758
 20
2.4937023128
 40
0.0024749995
 50
269.9999571958
 51
0.0000428043
 73
1
 72
1
 10
12.7480043739
 20
2.4912273132
 11
12.672340332
 21
2.4912273132
 72
2
 10
12.6723403301
 20
2.4937023128
 40
0.0024749995
 50
179.9999571957
 51
270.0000428042
 73
1
 72
1
 10
12.6698653306
 20
2.4937023146
 11
12.6698653306
 21
2.5135023256
 72
2
 10
12.6723403301
 20
2.5135023274
 40
0.0024749995
 50
89.9999571957
 51
180.0000428043
 73
1
 72
1
 10
12.672340332
 20
2.515977327
 11
12.6909873423
 21
2.515977327
 72
2
 10
12.6909873442
 20
2.5184523265
 40
0.0024749995
 50
269.9999571957
 51
0.0000428043
 73
1
 72
1
 10
12.6934623437
 20
2.5184523283
 11
12.6934623437
 21
2.564807354
 72
2
 10
12.6909873442
 20
2.5648073559
 40
0.0024749995
 50
359.9999571957
 51
90.0000428043
 73
1
 72
1
 10
12.6909873423
 20
2.5672823554
 11
12.672340332
 21
2.5672823554
 72
2
 10
12.6723403301
 20
2.5697573549
 40
0.0024749995
 50
179.9999571957
 51
270.0000428043
 73
1
 72
1
 10
12.6698653306
 20
2.5697573568
 11
12.6698653306
 21
2.5895573678
 72
2
 10
12.6723403301
 20
2.5895573696
 40
0.0024749995
 50
89.9999571957
 51
180.0000428043
 73
1
 72
1
 10
12.672340332
 20
2.5920323691
 11
12.7727983877
 21
2.5920323691
 72
2
 10
12.7727985224
 20
2.5895582013
 40
0.0024741678
 50
46.3477981899
 51
90.0031206038
 73
1
 72
1
 10
12.7745063886
 20
2.5913483688
 11
12.8345394219
 21
2.534068337
 72
2
 10
12.8362481229
 20
2.5358592748
 40
0.0024753014
 50
226.3461263059
 51
0.0014637321
 73
1
 72
1
 10
12.8387234242
 20
2.535859338
 11
12.8387234242
 21
2.564807354
 72
2
 10
12.8362484247
 20
2.5648073559
 40
0.0024749995
 50
359.9999571957
 51
90.0000428043
 73
1
 72
1
 10
12.8362484229
 20
2.5672823554
 11
12.8174724125
 21
2.5672823554
 72
2
 10
12.8174724106
 20
2.5697573549
 40
0.0024749995
 50
179.9999571957
 51
270.0000428043
 73
1
 72
1
 10
12.8149974111
 20
2.5697573568
 11
12.8149974111
 21
2.5895573678
 72
2
 10
12.8174724106
 20
2.5895573696
 40
0.0024749995
 50
89.9999571958
 51
180.0000428043
 73
1
 72
1
 10
12.8174724125
 20
2.5920323691
 11
12.8914734535
 21
2.5920323691
 72
2
 10
12.8914734553
 20
2.5895573696
 40
0.0024749995
 50
359.9999571957
 51
90.0000428042
 73
1
 72
1
 10
12.8939484549
 20
2.5895573678
 11
12.8939484549
 21
2.5697573568
 72
2
 10
12.8914734553
 20
2.5697573549
 40
0.0024749995
 50
269.9999571958
 51
0.0000428043
 73
1
 72
1
 10
12.8914734535
 20
2.5672823554
 11
12.8735404436
 21
2.5672823554
 72
2
 10
12.8735404417
 20
2.5648073559
 40
0.0024749995
 50
89.9999571957
 51
180.0000428043
 73
1
 72
1
 10
12.8710654422
 20
2.564807354
 11
12.8710654422
 21
2.4937023146
 72
2
 10
12.8685904427
 20
2.4937023128
 40
0.0024749995
 50
269.9999571957
 51
0.0000428043
 73
1
 72
1
 10
12.8685904408
 20
2.4912273132
 11
12.7943853997
 21
2.4912273132
 97
267
330
28E
330
28F
330
290
330
291
330
292
330
293
330
294
330
295
330
296
330
297
330
298
330
299
330
29A
330
29B
330
29C
330
29D
330
29E
330
29F
330
2A0
330
2A1
330
2A2
330
2A3
330
2A4
330
2A5
330
2A6
330
2A7
330
2A8
330
2A9
330
2AA
330
2AB
330
2AC
330
2AD
330
2AE
330
2AF
330
2B0
330
2B1
330
2B2
330
2B3
330
2B4
330
2B5
330
2B6
330
2B7
330
2B8
330
2B9
330
2BA
330
2BB
330
2BC
330
2BD
330
2BE
330
2BF
330
2C0
330
2C1
330
2C2
330
2C3
330
2C4
330
2C5
330
2C6
330
2C7
330
2C8
330
2C9
330
2CA
330
2CB
330
2CC
330
2CD
330
2CE
330
2CF
330
2D0
330
2D1
330
2D2
330
2D3
330
2D4
330
2D5
330
2D6
330
2D7
330
2D8
330
2D9
330
2DA
330
2DB
330
2DC
330
2DD
330
2DE
330
2DF
330
2E0
330
2E1
330
2E2
330
2E3
330
2E4
330
2E5
330
2E6
330
2E7
330
2E8
330
2E9
330
2EA
330
2EB
330
2EC
330
2ED
330
2EE
330
2EF
330
2F0
330
2F1
330
2F2
330
2F3
330
2F4
330
2F5
330
2F6
330
2F7
330
2F8
330
2F9
330
2FA
330
2FB
330
2FC
330
2FD
330
2FE
330
2FF
330
300
330
301
330
302
330
303
330
304
330
305
330
306
330
307
330
308
330
309
330
30A
330
30B
330
30C
330
30D
330
30E
330
30F
330
310
330
311
330
312
330
313
330
314
330
315
330
316
330
317
330
318
330
319
330
31A
330
31B
330
31C
330
31D
330
31E
330
31F
330
320
330
321
330
322
330
323
330
324
330
325
330
326
330
327
330
328
330
329
330
32A
330
32B
330
32C
330
32D
330
32E
330
32F
330
330
330
331
330
332
330
333
330
334
330
335
330
336
330
337
330
338
330
339
330
33A
330
33B
330
33C
330
33D
330
33E
330
33F
330
340
330
341
330
342
330
343
330
344
330
345
330
346
330
347
330
348
330
349
330
34A
330
34B
330
34C
330
34D
330
34E
330
34F
330
350
330
351
330
352
330
353
330
354
330
355
330
356
330
357
330
358
330
359
330
35A
330
35B
330
35C
330
35D
330
35E
330
35F
330
360
330
361
330
362
330
363
330
364
330
365
330
366
330
367
330
368
330
369
330
36A
330
36B
330
36C
330
36D
330
36E
330
36F
330
370
330
371
330
372
330
373
330
374
330
375
330
376
330
377
330
378
330
379
330
37A
330
37B
330
37C
330
37D
330
37E
330
37F
330
380
330
381
330
382
330
383
330
384
330
385
330
386
330
387
330
388
330
389
330
38A
330
38B
330
38C
330
38D
330
38E
330
38F
330
390
330
391
330
392
330
393
330
394
330
395
330
396
330
397
330
398
 92
1
 93
23
 72
2
 10
12.3792298263
 20
2.539634765
 40
0.048483885
 50
273.21763719
 51
303.0749121182
 73
1
 72
2
 10
12.3940692204
 20
2.5168671561
 40
0.0213072145
 50
303.0488228549
 51
355.7263138674
 73
1
 72
2
 10
12.400005721
 20
2.5168763464
 40
0.0153945295
 50
354.0454548824
 51
5.1878013979
 73
1
 72
2
 10
12.3931760319
 20
2.5166878286
 40
0.0222174455
 50
4.0793399388
 51
69.834329283
 73
1
 72
1
 10
12.4008351814
 20
2.5375433389
 11
12.3907841758
 21
2.5410923409
 72
1
 10
12.3907841758
 20
2.5410923409
 11
12.3990241804
 21
2.5458683435
 72
2
 10
12.3771587979
 20
2.5826952352
 40
0.0428289026
 50
300.6990502959
 51
319.0591802498
 73
1
 72
2
 10
12.3971873948
 20
2.5665668817
 40
0.0171568255
 50
315.9145124245
 51
16.0049121282
 73
1
 72
2
 10
12.3922357827
 20
2.5632132173
 40
0.0229166529
 50
20.6563876465
 51
62.3316896973
 73
1
 72
2
 10
12.371573659
 20
2.5302846524
 40
0.061747717
 50
59.5385584989
 51
90.0050977555
 73
1
 72
1
 10
12.3715681652
 20
2.5920323691
 11
12.2055050731
 21
2.5920323691
 72
2
 10
12.2055050712
 20
2.5895573696
 40
0.0024749995
 50
89.9999571957
 51
180.0000428043
 73
1
 72
1
 10
12.2030300717
 20
2.5895573678
 11
12.2030300717
 21
2.5697573568
 72
2
 10
12.2055050712
 20
2.5697573549
 40
0.0024749995
 50
179.9999571957
 51
270.0000428043
 73
1
 72
1
 10
12.2055050731
 20
2.5672823554
 11
12.2294470864
 21
2.5672823554
 72
2
 10
12.2294470882
 20
2.5648073559
 40
0.0024749995
 50
359.9999571957
 51
90.0000428043
 73
1
 72
1
 10
12.2319220877
 20
2.564807354
 11
12.2319220877
 21
2.5184523283
 72
2
 10
12.2294470882
 20
2.5184523265
 40
0.0024749995
 50
269.9999571957
 51
0.0000428043
 73
1
 72
1
 10
12.2294470864
 20
2.515977327
 11
12.2055050731
 21
2.515977327
 72
2
 10
12.2055050712
 20
2.5135023274
 40
0.0024749995
 50
89.9999571957
 51
180.0000428043
 73
1
 72
1
 10
12.2030300717
 20
2.5135023256
 11
12.2030300717
 21
2.4937023146
 72
2
 10
12.2055050712
 20
2.4937023128
 40
0.0024749995
 50
179.9999571957
 51
270.0000428043
 73
1
 72
1
 10
12.2055050731
 20
2.4912273132
 11
12.3819511709
 21
2.4912273132
 97
267
330
28E
330
28F
330
290
330
291
330
292
330
293
330
294
330
295
330
296
330
297
330
298
330
299
330
29A
330
29B
330
29C
330
29D
330
29E
330
29F
330
2A0
330
2A1
330
2A2
330
2A3
330
2A4
330
2A5
330
2A6
330
2A7
330
2A8
330
2A9
330
2AA
330
2AB
330
2AC
330
2AD
330
2AE
330
2AF
330
2B0
330
2B1
330
2B2
330
2B3
330
2B4
330
2B5
330
2B6
330
2B7
330
2B8
330
2B9
330
2BA
330
2BB
330
2BC
330
2BD
330
2BE
330
2BF
330
2C0
330
2C1
330
2C2
330
2C3
330
2C4
330
2C5
330
2C6
330
2C7
330
2C8
330
2C9
330
2CA
330
2CB
330
2CC
330
2CD
330
2CE
330
2CF
330
2D0
330
2D1
330
2D2
330
2D3
330
2D4
330
2D5
330
2D6
330
2D7
330
2D8
330
2D9
330
2DA
330
2DB
330
2DC
330
2DD
330
2DE
330
2DF
330
2E0
330
2E1
330
2E2
330
2E3
330
2E4
330
2E5
330
2E6
330
2E7
330
2E8
330
2E9
330
2EA
330
2EB
330
2EC
330
2ED
330
2EE
330
2EF
330
2F0
330
2F1
330
2F2
330
2F3
330
2F4
330
2F5
330
2F6
330
2F7
330
2F8
330
2F9
330
2FA
330
2FB
330
2FC
330
2FD
330
2FE
330
2FF
330
300
330
301
330
302
330
303
330
304
330
305
330
306
330
307
330
308
330
309
330
30A
330
30B
330
30C
330
30D
330
30E
330
30F
330
310
330
311
330
312
330
313
330
314
330
315
330
316
330
317
330
318
330
319
330
31A
330
31B
330
31C
330
31D
330
31E
330
31F
330
320
330
321
330
322
330
323
330
324
330
325
330
326
330
327
330
328
330
329
330
32A
330
32B
330
32C
330
32D
330
32E
330
32F
330
330
330
331
330
332
330
333
330
334
330
335
330
336
330
337
330
338
330
339
330
33A
330
33B
330
33C
330
33D
330
33E
330
33F
330
340
330
341
330
342
330
343
330
344
330
345
330
346
330
347
330
348
330
349
330
34A
330
34B
330
34C
330
34D
330
34E
330
34F
330
350
330
351
330
352
330
353
330
354
330
355
330
356
330
357
330
358
330
359
330
35A
330
35B
330
35C
330
35D
330
35E
330
35F
330
360
330
361
330
362
330
363
330
364
330
365
330
366
330
367
330
368
330
369
330
36A
330
36B
330
36C
330
36D
330
36E
330
36F
330
370
330
371
330
372
330
373
330
374
330
375
330
376
330
377
330
378
330
379
330
37A
330
37B
330
37C
330
37D
330
37E
330
37F
330
380
330
381
330
382
330
383
330
384
330
385
330
386
330
387
330
388
330
389
330
38A
330
38B
330
38C
330
38D
330
38E
330
38F
330
390
330
391
330
392
330
393
330
394
330
395
330
396
330
397
330
398
 92
1
 93
32
 72
2
 10
12.5168642476
 20
2.4937023128
 40
0.0024749995
 50
269.9999571957
 51
0.0000428043
 73
1
 72
1
 10
12.5193392471
 20
2.4937023146
 11
12.5193392471
 21
2.5135023256
 72
2
 10
12.5168642476
 20
2.5135023274
 40
0.0024749995
 50
359.9999571957
 51
90.0000428043
 73
1
 72
1
 10
12.5168642458
 20
2.515977327
 11
12.5055812395
 21
2.515977327
 72
2
 10
12.5055811302
 20
2.518452367
 40
0.0024750401
 50
147.6063258011
 51
270.0025305754
 73
1
 72
1
 10
12.5034912383
 20
2.5197783291
 11
12.5090072414
 21
2.5284723339
 72
2
 10
12.5110971723
 20
2.5271461342
 40
0.0024752003
 50
89.998372645
 51
147.602165307
 73
1
 72
1
 10
12.5110972426
 20
2.5296213345
 11
12.5459752619
 21
2.5296213345
 72
2
 10
12.5459747223
 20
2.5271458744
 40
0.0024754602
 50
32.8959418573
 51
89.9875097202
 73
1
 72
1
 10
12.548053263
 20
2.5284903339
 11
12.5536792662
 21
2.5197973291
 72
2
 10
12.5516012439
 20
2.5184525341
 40
0.0024752071
 50
270.0004896794
 51
32.9089806818
 73
1
 72
1
 10
12.551601265
 20
2.515977327
 11
12.537150257
 21
2.515977327
 72
2
 10
12.5371502552
 20
2.5135023274
 40
0.0024749995
 50
89.9999571958
 51
180.0000428043
 73
1
 72
1
 10
12.5346752556
 20
2.5135023256
 11
12.5346752556
 21
2.4937023146
 72
2
 10
12.5371502552
 20
2.4937023128
 40
0.0024749995
 50
179.9999571957
 51
270.0000428042
 73
1
 72
1
 10
12.537150257
 20
2.4912273132
 11
12.6424313154
 21
2.4912273132
 72
2
 10
12.6424313172
 20
2.4937023128
 40
0.0024749995
 50
269.9999571957
 51
0.0000428043
 73
1
 72
1
 10
12.6449063168
 20
2.4937023146
 11
12.6449063168
 21
2.5135023256
 72
2
 10
12.6424313172
 20
2.5135023274
 40
0.0024749995
 50
359.9999571957
 51
90.0000428043
 73
1
 72
1
 10
12.6424313154
 20
2.515977327
 11
12.6224153043
 21
2.515977327
 72
2
 10
12.6224154248
 20
2.518451368
 40
0.002474041
 50
212.9056413127
 51
269.9972091756
 73
1
 72
1
 10
12.6203383031
 20
2.5171073276
 11
12.5725822767
 21
2.5909023685
 72
2
 10
12.570504655
 20
2.589557409
 40
0.0024749602
 50
32.9172174468
 51
90.0087853097
 73
1
 72
1
 10
12.5705042755
 20
2.5920323691
 11
12.5133292438
 21
2.5920323691
 72
2
 10
12.5133291735
 20
2.5895571688
 40
0.0024752003
 50
89.9983726451
 51
147.602165307
 73
1
 72
1
 10
12.5112392426
 20
2.5908833685
 11
12.4644392167
 21
2.5171263276
 72
2
 10
12.4623492858
 20
2.5184525273
 40
0.0024752003
 50
269.9983726451
 51
327.602165307
 73
1
 72
1
 10
12.4623492155
 20
2.515977327
 11
12.4394882028
 21
2.515977327
 72
2
 10
12.439488201
 20
2.5135023274
 40
0.0024749995
 50
89.9999571958
 51
180.0000428043
 73
1
 72
1
 10
12.4370132015
 20
2.5135023256
 11
12.4370132015
 21
2.4937023146
 72
2
 10
12.439488201
 20
2.4937023128
 40
0.0024749995
 50
179.9999571957
 51
270.0000428042
 73
1
 72
1
 10
12.4394882028
 20
2.4912273132
 11
12.5168642458
 21
2.4912273132
 97
267
330
28E
330
28F
330
290
330
291
330
292
330
293
330
294
330
295
330
296
330
297
330
298
330
299
330
29A
330
29B
330
29C
330
29D
330
29E
330
29F
330
2A0
330
2A1
330
2A2
330
2A3
330
2A4
330
2A5
330
2A6
330
2A7
330
2A8
330
2A9
330
2AA
330
2AB
330
2AC
330
2AD
330
2AE
330
2AF
330
2B0
330
2B1
330
2B2
330
2B3
330
2B4
330
2B5
330
2B6
330
2B7
330
2B8
330
2B9
330
2BA
330
2BB
330
2BC
330
2BD
330
2BE
330
2BF
330
2C0
330
2C1
330
2C2
330
2C3
330
2C4
330
2C5
330
2C6
330
2C7
330
2C8
330
2C9
330
2CA
330
2CB
330
2CC
330
2CD
330
2CE
330
2CF
330
2D0
330
2D1
330
2D2
330
2D3
330
2D4
330
2D5
330
2D6
330
2D7
330
2D8
330
2D9
330
2DA
330
2DB
330
2DC
330
2DD
330
2DE
330
2DF
330
2E0
330
2E1
330
2E2
330
2E3
330
2E4
330
2E5
330
2E6
330
2E7
330
2E8
330
2E9
330
2EA
330
2EB
330
2EC
330
2ED
330
2EE
330
2EF
330
2F0
330
2F1
330
2F2
330
2F3
330
2F4
330
2F5
330
2F6
330
2F7
330
2F8
330
2F9
330
2FA
330
2FB
330
2FC
330
2FD
330
2FE
330
2FF
330
300
330
301
330
302
330
303
330
304
330
305
330
306
330
307
330
308
330
309
330
30A
330
30B
330
30C
330
30D
330
30E
330
30F
330
310
330
311
330
312
330
313
330
314
330
315
330
316
330
317
330
318
330
319
330
31A
330
31B
330
31C
330
31D
330
31E
330
31F
330
320
330
321
330
322
330
323
330
324
330
325
330
326
330
327
330
328
330
329
330
32A
330
32B
330
32C
330
32D
330
32E
330
32F
330
330
330
331
330
332
330
333
330
334
330
335
330
336
330
337
330
338
330
339
330
33A
330
33B
330
33C
330
33D
330
33E
330
33F
330
340
330
341
330
342
330
343
330
344
330
345
330
346
330
347
330
348
330
349
330
34A
330
34B
330
34C
330
34D
330
34E
330
34F
330
350
330
351
330
352
330
353
330
354
330
355
330
356
330
357
330
358
330
359
330
35A
330
35B
330
35C
330
35D
330
35E
330
35F
330
360
330
361
330
362
330
363
330
364
330
365
330
366
330
367
330
368
330
369
330
36A
330
36B
330
36C
330
36D
330
36E
330
36F
330
370
330
371
330
372
330
373
330
374
330
375
330
376
330
377
330
378
330
379
330
37A
330
37B
330
37C
330
37D
330
37E
330
37F
330
380
330
381
330
382
330
383
330
384
330
385
330
386
330
387
330
388
330
389
330
38A
330
38B
330
38C
330
38D
330
38E
330
38F
330
390
330
391
330
392
330
393
330
394
330
395
330
396
330
397
330
398
 92
1
 93
6
 72
2
 10
12.2949101208
 20
2.5184523265
 40
0.0024749995
 50
179.9999571957
 51
270.0000428043
 73
1
 72
1
 10
12.2924351213
 20
2.5184523283
 11
12.2924351213
 21
2.5308273352
 72
2
 10
12.2949101208
 20
2.530827337
 40
0.0024749995
 50
89.9999571957
 51
180.0000428043
 73
1
 72
1
 10
12.2949101227
 20
2.5333023366
 11
12.3362731456
 21
2.5333023366
 72
2
 10
12.3362731456
 20
2.5246398318
 40
0.0086625048
 50
270.0
 51
90.0
 73
1
 72
1
 10
12.3362731456
 20
2.515977327
 11
12.2949101227
 21
2.515977327
 97
267
330
28E
330
28F
330
290
330
291
330
292
330
293
330
294
330
295
330
296
330
297
330
298
330
299
330
29A
330
29B
330
29C
330
29D
330
29E
330
29F
330
2A0
330
2A1
330
2A2
330
2A3
330
2A4
330
2A5
330
2A6
330
2A7
330
2A8
330
2A9
330
2AA
330
2AB
330
2AC
330
2AD
330
2AE
330
2AF
330
2B0
330
2B1
330
2B2
330
2B3
330
2B4
330
2B5
330
2B6
330
2B7
330
2B8
330
2B9
330
2BA
330
2BB
330
2BC
330
2BD
330
2BE
330
2BF
330
2C0
330
2C1
330
2C2
330
2C3
330
2C4
330
2C5
330
2C6
330
2C7
330
2C8
330
2C9
330
2CA
330
2CB
330
2CC
330
2CD
330
2CE
330
2CF
330
2D0
330
2D1
330
2D2
330
2D3
330
2D4
330
2D5
330
2D6
330
2D7
330
2D8
330
2D9
330
2DA
330
2DB
330
2DC
330
2DD
330
2DE
330
2DF
330
2E0
330
2E1
330
2E2
330
2E3
330
2E4
330
2E5
330
2E6
330
2E7
330
2E8
330
2E9
330
2EA
330
2EB
330
2EC
330
2ED
330
2EE
330
2EF
330
2F0
330
2F1
330
2F2
330
2F3
330
2F4
330
2F5
330
2F6
330
2F7
330
2F8
330
2F9
330
2FA
330
2FB
330
2FC
330
2FD
330
2FE
330
2FF
330
300
330
301
330
302
330
303
330
304
330
305
330
306
330
307
330
308
330
309
330
30A
330
30B
330
30C
330
30D
330
30E
330
30F
330
310
330
311
330
312
330
313
330
314
330
315
330
316
330
317
330
318
330
319
330
31A
330
31B
330
31C
330
31D
330
31E
330
31F
330
320
330
321
330
322
330
323
330
324
330
325
330
326
330
327
330
328
330
329
330
32A
330
32B
330
32C
330
32D
330
32E
330
32F
330
330
330
331
330
332
330
333
330
334
330
335
330
336
330
337
330
338
330
339
330
33A
330
33B
330
33C
330
33D
330
33E
330
33F
330
340
330
341
330
342
330
343
330
344
330
345
330
346
330
347
330
348
330
349
330
34A
330
34B
330
34C
330
34D
330
34E
330
34F
330
350
330
351
330
352
330
353
330
354
330
355
330
356
330
357
330
358
330
359
330
35A
330
35B
330
35C
330
35D
330
35E
330
35F
330
360
330
361
330
362
330
363
330
364
330
365
330
366
330
367
330
368
330
369
330
36A
330
36B
330
36C
330
36D
330
36E
330
36F
330
370
330
371
330
372
330
373
330
374
330
375
330
376
330
377
330
378
330
379
330
37A
330
37B
330
37C
330
37D
330
37E
330
37F
330
380
330
381
330
382
330
383
330
384
330
385
330
386
330
387
330
388
330
389
330
38A
330
38B
330
38C
330
38D
330
38E
330
38F
330
390
330
391
330
392
330
393
330
394
330
395
330
396
330
397
330
398
 92
1
 93
13
 72
2
 10
13.4883447827
 20
2.5520823451
 40
0.0024749995
 50
179.9999571957
 51
270.0000428042
 73
1
 72
1
 10
13.4858697831
 20
2.552082347
 11
13.4858697831
 21
2.564807354
 72
2
 10
13.4883447827
 20
2.5648073559
 40
0.0024749995
 50
89.9999571958
 51
180.0000428043
 73
1
 72
1
 10
13.4883447845
 20
2.5672823554
 11
13.5251458049
 21
2.5672823554
 72
2
 10
13.5236009174
 20
2.5388278764
 40
0.0284963867
 50
70.3834917948
 51
86.8922743861
 73
1
 72
2
 10
13.5284605274
 20
2.5518696094
 40
0.0145814632
 50
54.6746025112
 51
71.1660573124
 73
1
 72
2
 10
13.5335900184
 20
2.5587235346
 40
0.0060275915
 50
20.9055592135
 51
56.7851676243
 73
1
 72
2
 10
13.5348905773
 20
2.5593838168
 40
0.0045795888
 50
355.6235353944
 51
18.9942678268
 73
1
 72
2
 10
13.533683767
 20
2.559677593
 40
0.0058087709
 50
318.8515287446
 51
353.6422345323
 73
1
 72
2
 10
13.5295131508
 20
2.5629115009
 40
0.0110815393
 50
306.758405961
 51
320.4502234234
 73
1
 72
2
 10
13.5238839599
 20
2.5706523294
 40
0.0206523367
 50
289.6883413472
 51
306.4184925496
 73
1
 72
2
 10
13.5219564542
 20
2.5750459767
 40
0.0254407115
 50
270.7327484175
 51
290.441894219
 73
1
 72
1
 10
13.5222818033
 20
2.5496073456
 11
13.4883447845
 21
2.5496073456
 97
267
330
28E
330
28F
330
290
330
291
330
292
330
293
330
294
330
295
330
296
330
297
330
298
330
299
330
29A
330
29B
330
29C
330
29D
330
29E
330
29F
330
2A0
330
2A1
330
2A2
330
2A3
330
2A4
330
2A5
330
2A6
330
2A7
330
2A8
330
2A9
330
2AA
330
2AB
330
2AC
330
2AD
330
2AE
330
2AF
330
2B0
330
2B1
330
2B2
330
2B3
330
2B4
330
2B5
330
2B6
330
2B7
330
2B8
330
2B9
330
2BA
330
2BB
330
2BC
330
2BD
330
2BE
330
2BF
330
2C0
330
2C1
330
2C2
330
2C3
330
2C4
330
2C5
330
2C6
330
2C7
330
2C8
330
2C9
330
2CA
330
2CB
330
2CC
330
2CD
330
2CE
330
2CF
330
2D0
330
2D1
330
2D2
330
2D3
330
2D4
330
2D5
330
2D6
330
2D7
330
2D8
330
2D9
330
2DA
330
2DB
330
2DC
330
2DD
330
2DE
330
2DF
330
2E0
330
2E1
330
2E2
330
2E3
330
2E4
330
2E5
330
2E6
330
2E7
330
2E8
330
2E9
330
2EA
330
2EB
330
2EC
330
2ED
330
2EE
330
2EF
330
2F0
330
2F1
330
2F2
330
2F3
330
2F4
330
2F5
330
2F6
330
2F7
330
2F8
330
2F9
330
2FA
330
2FB
330
2FC
330
2FD
330
2FE
330
2FF
330
300
330
301
330
302
330
303
330
304
330
305
330
306
330
307
330
308
330
309
330
30A
330
30B
330
30C
330
30D
330
30E
330
30F
330
310
330
311
330
312
330
313
330
314
330
315
330
316
330
317
330
318
330
319
330
31A
330
31B
330
31C
330
31D
330
31E
330
31F
330
320
330
321
330
322
330
323
330
324
330
325
330
326
330
327
330
328
330
329
330
32A
330
32B
330
32C
330
32D
330
32E
330
32F
330
330
330
331
330
332
330
333
330
334
330
335
330
336
330
337
330
338
330
339
330
33A
330
33B
330
33C
330
33D
330
33E
330
33F
330
340
330
341
330
342
330
343
330
344
330
345
330
346
330
347
330
348
330
349
330
34A
330
34B
330
34C
330
34D
330
34E
330
34F
330
350
330
351
330
352
330
353
330
354
330
355
330
356
330
357
330
358
330
359
330
35A
330
35B
330
35C
330
35D
330
35E
330
35F
330
360
330
361
330
362
330
363
330
364
330
365
330
366
330
367
330
368
330
369
330
36A
330
36B
330
36C
330
36D
330
36E
330
36F
330
370
330
371
330
372
330
373
330
374
330
375
330
376
330
377
330
378
330
379
330
37A
330
37B
330
37C
330
37D
330
37E
330
37F
330
380
330
381
330
382
330
383
330
384
330
385
330
386
330
387
330
388
330
389
330
38A
330
38B
330
38C
330
38D
330
38E
330
38F
330
390
330
391
330
392
330
393
330
394
330
395
330
396
330
397
330
398
 92
1
 93
6
 72
2
 10
12.3362731456
 20
2.5586198506
 40
0.0086625048
 50
270.0
 51
90.0
 73
1
 72
1
 10
12.3362731456
 20
2.5672823554
 11
12.2949101227
 21
2.5672823554
 72
2
 10
12.2949101208
 20
2.5648073559
 40
0.0024749995
 50
89.9999571957
 51
180.0000428043
 73
1
 72
1
 10
12.2924351213
 20
2.564807354
 11
12.2924351213
 21
2.5524323472
 72
2
 10
12.2949101208
 20
2.5524323453
 40
0.0024749995
 50
179.9999571957
 51
270.0000428043
 73
1
 72
1
 10
12.2949101227
 20
2.5499573458
 11
12.3362731456
 21
2.5499573458
 97
267
330
28E
330
28F
330
290
330
291
330
292
330
293
330
294
330
295
330
296
330
297
330
298
330
299
330
29A
330
29B
330
29C
330
29D
330
29E
330
29F
330
2A0
330
2A1
330
2A2
330
2A3
330
2A4
330
2A5
330
2A6
330
2A7
330
2A8
330
2A9
330
2AA
330
2AB
330
2AC
330
2AD
330
2AE
330
2AF
330
2B0
330
2B1
330
2B2
330
2B3
330
2B4
330
2B5
330
2B6
330
2B7
330
2B8
330
2B9
330
2BA
330
2BB
330
2BC
330
2BD
330
2BE
330
2BF
330
2C0
330
2C1
330
2C2
330
2C3
330
2C4
330
2C5
330
2C6
330
2C7
330
2C8
330
2C9
330
2CA
330
2CB
330
2CC
330
2CD
330
2CE
330
2CF
330
2D0
330
2D1
330
2D2
330
2D3
330
2D4
330
2D5
330
2D6
330
2D7
330
2D8
330
2D9
330
2DA
330
2DB
330
2DC
330
2DD
330
2DE
330
2DF
330
2E0
330
2E1
330
2E2
330
2E3
330
2E4
330
2E5
330
2E6
330
2E7
330
2E8
330
2E9
330
2EA
330
2EB
330
2EC
330
2ED
330
2EE
330
2EF
330
2F0
330
2F1
330
2F2
330
2F3
330
2F4
330
2F5
330
2F6
330
2F7
330
2F8
330
2F9
330
2FA
330
2FB
330
2FC
330
2FD
330
2FE
330
2FF
330
300
330
301
330
302
330
303
330
304
330
305
330
306
330
307
330
308
330
309
330
30A
330
30B
330
30C
330
30D
330
30E
330
30F
330
310
330
311
330
312
330
313
330
314
330
315
330
316
330
317
330
318
330
319
330
31A
330
31B
330
31C
330
31D
330
31E
330
31F
330
320
330
321
330
322
330
323
330
324
330
325
330
326
330
327
330
328
330
329
330
32A
330
32B
330
32C
330
32D
330
32E
330
32F
330
330
330
331
330
332
330
333
330
334
330
335
330
336
330
337
330
338
330
339
330
33A
330
33B
330
33C
330
33D
330
33E
330
33F
330
340
330
341
330
342
330
343
330
344
330
345
330
346
330
347
330
348
330
349
330
34A
330
34B
330
34C
330
34D
330
34E
330
34F
330
350
330
351
330
352
330
353
330
354
330
355
330
356
330
357
330
358
330
359
330
35A
330
35B
330
35C
330
35D
330
35E
330
35F
330
360
330
361
330
362
330
363
330
364
330
365
330
366
330
367
330
368
330
369
330
36A
330
36B
330
36C
330
36D
330
36E
330
36F
330
370
330
371
330
372
330
373
330
374
330
375
330
376
330
377
330
378
330
379
330
37A
330
37B
330
37C
330
37D
330
37E
330
37F
330
380
330
381
330
382
330
383
330
384
330
385
330
386
330
387
330
388
330
389
330
38A
330
38B
330
38C
330
38D
330
38E
330
38F
330
390
330
391
330
392
330
393
330
394
330
395
330
396
330
397
330
398
 92
1
 93
8
 72
2
 10
12.5401702375
 20
2.5530465533
 40
0.0024752071
 50
270.0004896793
 51
32.9089806818
 73
1
 72
1
 10
12.5422482598
 20
2.5543913483
 11
12.5349892558
 21
2.5656073545
 72
2
 10
12.532910715
 20
2.564262895
 40
0.0024754602
 50
32.8959418573
 51
89.9875097202
 73
1
 72
1
 10
12.5329112547
 20
2.5667383551
 11
12.5267302512
 21
2.5667383551
 72
2
 10
12.5267301809
 20
2.5642631548
 40
0.0024752003
 50
89.998372645
 51
147.602165307
 73
1
 72
1
 10
12.5246402501
 20
2.5655893545
 11
12.5175232461
 21
2.5543723483
 72
2
 10
12.519613138
 20
2.5530463862
 40
0.0024750401
 50
147.6063258012
 51
270.0025305754
 73
1
 72
1
 10
12.5196132473
 20
2.5505713461
 11
12.5401702587
 21
2.5505713461
 97
267
330
28E
330
28F
330
290
330
291
330
292
330
293
330
294
330
295
330
296
330
297
330
298
330
299
330
29A
330
29B
330
29C
330
29D
330
29E
330
29F
330
2A0
330
2A1
330
2A2
330
2A3
330
2A4
330
2A5
330
2A6
330
2A7
330
2A8
330
2A9
330
2AA
330
2AB
330
2AC
330
2AD
330
2AE
330
2AF
330
2B0
330
2B1
330
2B2
330
2B3
330
2B4
330
2B5
330
2B6
330
2B7
330
2B8
330
2B9
330
2BA
330
2BB
330
2BC
330
2BD
330
2BE
330
2BF
330
2C0
330
2C1
330
2C2
330
2C3
330
2C4
330
2C5
330
2C6
330
2C7
330
2C8
330
2C9
330
2CA
330
2CB
330
2CC
330
2CD
330
2CE
330
2CF
330
2D0
330
2D1
330
2D2
330
2D3
330
2D4
330
2D5
330
2D6
330
2D7
330
2D8
330
2D9
330
2DA
330
2DB
330
2DC
330
2DD
330
2DE
330
2DF
330
2E0
330
2E1
330
2E2
330
2E3
330
2E4
330
2E5
330
2E6
330
2E7
330
2E8
330
2E9
330
2EA
330
2EB
330
2EC
330
2ED
330
2EE
330
2EF
330
2F0
330
2F1
330
2F2
330
2F3
330
2F4
330
2F5
330
2F6
330
2F7
330
2F8
330
2F9
330
2FA
330
2FB
330
2FC
330
2FD
330
2FE
330
2FF
330
300
330
301
330
302
330
303
330
304
330
305
330
306
330
307
330
308
330
309
330
30A
330
30B
330
30C
330
30D
330
30E
330
30F
330
310
330
311
330
312
330
313
330
314
330
315
330
316
330
317
330
318
330
319
330
31A
330
31B
330
31C
330
31D
330
31E
330
31F
330
320
330
321
330
322
330
323
330
324
330
325
330
326
330
327
330
328
330
329
330
32A
330
32B
330
32C
330
32D
330
32E
330
32F
330
330
330
331
330
332
330
333
330
334
330
335
330
336
330
337
330
338
330
339
330
33A
330
33B
330
33C
330
33D
330
33E
330
33F
330
340
330
341
330
342
330
343
330
344
330
345
330
346
330
347
330
348
330
349
330
34A
330
34B
330
34C
330
34D
330
34E
330
34F
330
350
330
351
330
352
330
353
330
354
330
355
330
356
330
357
330
358
330
359
330
35A
330
35B
330
35C
330
35D
330
35E
330
35F
330
360
330
361
330
362
330
363
330
364
330
365
330
366
330
367
330
368
330
369
330
36A
330
36B
330
36C
330
36D
330
36E
330
36F
330
370
330
371
330
372
330
373
330
374
330
375
330
376
330
377
330
378
330
379
330
37A
330
37B
330
37C
330
37D
330
37E
330
37F
330
380
330
381
330
382
330
383
330
384
330
385
330
386
330
387
330
388
330
389
330
38A
330
38B
330
38C
330
38D
330
38E
330
38F
330
390
330
391
330
392
330
393
330
394
330
395
330
396
330
397
330
398
 92
1
 93
1
 72
3
 10
12.9046654608
 20
2.5403783405
 11
-0.8250004575
 21
0.0
 40
0.218572
 50
0.0
 51
-0.0
 73
1
 97
267
330
28E
330
28F
330
290
330
291
330
292
330
293
330
294
330
295
330
296
330
297
330
298
330
299
330
29A
330
29B
330
29C
330
29D
330
29E
330
29F
330
2A0
330
2A1
330
2A2
330
2A3
330
2A4
330
2A5
330
2A6
330
2A7
330
2A8
330
2A9
330
2AA
330
2AB
330
2AC
330
2AD
330
2AE
330
2AF
330
2B0
330
2B1
330
2B2
330
2B3
330
2B4
330
2B5
330
2B6
330
2B7
330
2B8
330
2B9
330
2BA
330
2BB
330
2BC
330
2BD
330
2BE
330
2BF
330
2C0
330
2C1
330
2C2
330
2C3
330
2C4
330
2C5
330
2C6
330
2C7
330
2C8
330
2C9
330
2CA
330
2CB
330
2CC
330
2CD
330
2CE
330
2CF
330
2D0
330
2D1
330
2D2
330
2D3
330
2D4
330
2D5
330
2D6
330
2D7
330
2D8
330
2D9
330
2DA
330
2DB
330
2DC
330
2DD
330
2DE
330
2DF
330
2E0
330
2E1
330
2E2
330
2E3
330
2E4
330
2E5
330
2E6
330
2E7
330
2E8
330
2E9
330
2EA
330
2EB
330
2EC
330
2ED
330
2EE
330
2EF
330
2F0
330
2F1
330
2F2
330
2F3
330
2F4
330
2F5
330
2F6
330
2F7
330
2F8
330
2F9
330
2FA
330
2FB
330
2FC
330
2FD
330
2FE
330
2FF
330
300
330
301
330
302
330
303
330
304
330
305
330
306
330
307
330
308
330
309
330
30A
330
30B
330
30C
330
30D
330
30E
330
30F
330
310
330
311
330
312
330
313
330
314
330
315
330
316
330
317
330
318
330
319
330
31A
330
31B
330
31C
330
31D
330
31E
330
31F
330
320
330
321
330
322
330
323
330
324
330
325
330
326
330
327
330
328
330
329
330
32A
330
32B
330
32C
330
32D
330
32E
330
32F
330
330
330
331
330
332
330
333
330
334
330
335
330
336
330
337
330
338
330
339
330
33A
330
33B
330
33C
330
33D
330
33E
330
33F
330
340
330
341
330
342
330
343
330
344
330
345
330
346
330
347
330
348
330
349
330
34A
330
34B
330
34C
330
34D
330
34E
330
34F
330
350
330
351
330
352
330
353
330
354
330
355
330
356
330
357
330
358
330
359
330
35A
330
35B
330
35C
330
35D
330
35E
330
35F
330
360
330
361
330
362
330
363
330
364
330
365
330
366
330
367
330
368
330
369
330
36A
330
36B
330
36C
330
36D
330
36E
330
36F
330
370
330
371
330
372
330
373
330
374
330
375
330
376
330
377
330
378
330
379
330
37A
330
37B
330
37C
330
37D
330
37E
330
37F
330
380
330
381
330
382
330
383
330
384
330
385
330
386
330
387
330
388
330
389
330
38A
330
38B
330
38C
330
38D
330
38E
330
38F
330
390
330
391
330
392
330
393
330
394
330
395
330
396
330
397
330
398
 75
0
 76
1
 98
1
 10
0.0
 20
0.0
  0
LINE
  5
39A
100
AcDbEntity
  8
0
100
AcDbLine
 62
7
  6
CONTINUOUS
 10
8.5
 20
10.112
 11
8.586603
 21
10.262
  0
LINE
  5
39B
100
AcDbEntity
  8
0
100
AcDbLine
 62
7
  6
CONTINUOUS
 10
16.38
 20
2.807
 11
10.03
 21
2.807
  0
LINE
  5
39C
100
AcDbEntity
  8
0
100
AcDbLine
 62
7
  6
CONTINUOUS
 10
0.62
 20
3.1995
 11
0.37
 21
3.1995
  0
LINE
  5
39D
100
AcDbEntity
  8
0
100
AcDbLine
 62
7
  6
CONTINUOUS
 10
16.38
 20
3.1995
 11
16.63
 21
3.1995
  0
LINE
  5
39E
100
AcDbEntity
  8
0
100
AcDbLine
 62
7
  6
CONTINUOUS
 10
8.586603
 20
0.737
 11
8.5
 21
0.887
  0
LINE
  5
39F
100
AcDbEntity
  8
0
100
AcDbLine
 62
7
  6
CONTINUOUS
 10
6.53
 20
0.887
 11
6.53
 21
0.637
  0
LINE
  5
3A0
100
AcDbEntity
  8
0
100
AcDbLine
 62
7
  6
CONTINUOUS
 10
6.53
 20
10.112
 11
6.53
 21
10.362
  0
LINE
  5
3A1
100
AcDbEntity
  8
0
100
AcDbLine
 62
7
  6
CONTINUOUS
 10
8.5
 20
0.887
 11
8.5
 21
0.637
  0
LINE
  5
3A2
100
AcDbEntity
  8
0
100
AcDbLine
 62
7
  6
CONTINUOUS
 10
8.5
 20
10.112
 11
8.5
 21
10.362
  0
LINE
  5
3A3
100
AcDbEntity
  8
0
100
AcDbLine
 62
7
  6
CONTINUOUS
 10
0.62
 20
5.4995
 11
0.37
 21
5.4995
  0
LINE
  5
3A4
100
AcDbEntity
  8
0
100
AcDbLine
 62
7
  6
CONTINUOUS
 10
16.38
 20
5.4995
 11
16.63
 21
5.4995
  0
LINE
  5
3A5
100
AcDbEntity
  8
0
100
AcDbLine
 62
7
  6
CONTINUOUS
 10
10.03
 20
2.807
 11
10.03
 21
0.887
  0
LINE
  5
3A6
100
AcDbEntity
  8
0
100
AcDbLine
 62
7
  6
CONTINUOUS
 10
10.47
 20
0.887
 11
10.47
 21
0.637
  0
LINE
  5
3A7
100
AcDbEntity
  8
0
100
AcDbLine
 62
7
  6
CONTINUOUS
 10
10.47
 20
10.112
 11
10.47
 21
10.362
  0
LINE
  5
3A8
100
AcDbEntity
  8
0
100
AcDbLine
 62
7
  6
CONTINUOUS
 10
10.5342808475
 20
1.143294839
 11
10.5342808475
 21
0.921203839
  0
LINE
  5
3A9
100
AcDbEntity
  8
0
100
AcDbLine
 62
7
  6
CONTINUOUS
 10
10.5342808475
 20
1.193294839
 11
10.5342808475
 21
1.293294839
  0
LINE
  5
3AA
100
AcDbEntity
  8
0
100
AcDbLine
 62
7
  6
CONTINUOUS
 10
10.5342808475
 20
1.343294839
 11
10.5342808475
 21
1.565385839
  0
LINE
  5
3AB
100
AcDbEntity
  8
0
100
AcDbLine
 62
7
  6
CONTINUOUS
 10
8.5
 20
0.887
 11
8.413397
 21
0.737
  0
LINE
  5
3AC
100
AcDbEntity
  8
0
100
AcDbLine
 62
7
  6
CONTINUOUS
 10
0.62
 20
7.7995
 11
0.37
 21
7.7995
  0
LINE
  5
3AD
100
AcDbEntity
  8
0
100
AcDbLine
 62
7
  6
CONTINUOUS
 10
16.38
 20
7.7995
 11
16.63
 21
7.7995
  0
LINE
  5
3AE
100
AcDbEntity
  8
0
100
AcDbLine
 62
7
  6
CONTINUOUS
 10
8.413397
 20
10.262
 11
8.5
 21
10.112
  0
LINE
  5
3AF
100
AcDbEntity
  8
0
100
AcDbLine
 62
7
  6
CONTINUOUS
 10
11.1389508475
 20
1.060596839
 11
11.1389508475
 21
1.425992839
  0
LINE
  5
3B0
100
AcDbEntity
  8
0
100
AcDbLine
 62
7
  6
CONTINUOUS
 10
11.7453418475
 20
1.495385839
 11
11.7453418475
 21
0.991203839
  0
LINE
  5
3B1
100
AcDbEntity
  8
0
100
AcDbLine
 62
7
  6
CONTINUOUS
 10
12.44
 20
0.887
 11
12.44
 21
0.637
  0
LINE
  5
3B2
100
AcDbEntity
  8
0
100
AcDbLine
 62
7
  6
CONTINUOUS
 10
12.44
 20
10.112
 11
12.44
 21
10.362
  0
LINE
  5
3B3
100
AcDbEntity
  8
0
100
AcDbLine
 62
7
  6
CONTINUOUS
 10
16.53
 20
5.586103
 11
16.38
 21
5.4995
  0
LINE
  5
3B4
100
AcDbEntity
  8
0
100
AcDbLine
 62
7
  6
CONTINUOUS
 10
16.38
 20
5.4995
 11
16.53
 21
5.412897
  0
LINE
  5
3B5
100
AcDbEntity
  8
0
100
AcDbLine
 62
7
  6
CONTINUOUS
 10
12.83
 20
1.507
 11
12.83
 21
1.137
  0
LINE
  5
3B6
100
AcDbEntity
  8
0
100
AcDbLine
 62
7
  6
CONTINUOUS
 10
16.38
 20
10.112
 11
0.62
 21
10.112
  0
LINE
  5
3B7
100
AcDbEntity
  8
0
100
AcDbLine
 62
7
  6
CONTINUOUS
 10
8.586603
 20
10.262
 11
8.413397
 21
10.262
  0
LINE
  5
3B8
100
AcDbEntity
  8
0
100
AcDbLine
 62
7
  6
CONTINUOUS
 10
14.205
 20
1.137
 11
14.205
 21
0.887
  0
LINE
  5
3B9
100
AcDbEntity
  8
0
100
AcDbLine
 62
7
  6
CONTINUOUS
 10
14.41
 20
0.887
 11
14.41
 21
0.637
  0
LINE
  5
3BA
100
AcDbEntity
  8
0
100
AcDbLine
 62
7
  6
CONTINUOUS
 10
14.41
 20
10.112
 11
14.41
 21
10.362
  0
LINE
  5
3BB
100
AcDbEntity
  8
0
100
AcDbLine
 62
7
  6
CONTINUOUS
 10
15.58
 20
1.507
 11
15.58
 21
1.137
  0
LINE
  5
3BC
100
AcDbEntity
  8
0
100
AcDbLine
 62
7
  6
CONTINUOUS
 10
16.38
 20
0.887
 11
16.38
 21
10.112
  0
LINE
  5
3BD
100
AcDbEntity
  8
0
100
AcDbLine
 62
7
  6
CONTINUOUS
 10
16.53
 20
5.412897
 11
16.53
 21
5.586103
  0
LWPOLYLINE
  5
3BE
100
AcDbEntity
  8
0
100
AcDbPolyline
 62
7
  6
CONTINUOUS
 90
10
 70
0
 10
14.4584448409
 20
7.621713187
 10
14.4954029544
 20
7.6276469464
 10
14.5304723961
 20
7.6368097849
 10
14.5631327661
 20
7.6491220111
 10
14.5926195705
 20
7.6644438831
 10
14.6177627973
 20
7.6822756184
 10
14.6377120676
 20
7.7019316548
 10
14.6522198048
 20
7.7229767435
 10
14.6611248756
 20
7.7450964792
 10
14.6641964928
 20
7.7682037511
  0
LWPOLYLINE
  5
3BF
100
AcDbEntity
  8
0
100
AcDbPolyline
 62
7
  6
CONTINUOUS
 90
7
 70
0
 10
14.4831479777
 20
7.6284980743
 10
14.4474840514
 20
7.6238319533
 10
14.4110449602
 20
7.6222602612
 10
14.3750231331
 20
7.6238103475
 10
14.3397458553
 20
7.6284556555
 10
14.3059318614
 20
7.6361671324
 10
14.2747531863
 20
7.6467047919
  0
LWPOLYLINE
  5
3C0
100
AcDbEntity
  8
0
100
AcDbPolyline
 62
7
  6
CONTINUOUS
 90
10
 70
0
 10
13.9688219187
 20
9.4231049329
 10
13.9496617391
 20
9.3973305685
 10
13.9294867404
 20
9.3576608982
 10
13.9192957047
 20
9.3167374295
 10
13.9192960478
 20
9.2753930843
 10
13.9294877805
 20
9.2344696254
 10
13.9496633797
 20
9.194800176
 10
13.9794123166
 20
9.1571920288
 10
14.0181288602
 20
9.1224110288
 10
14.0650239279
 20
9.0911657283
  0
LWPOLYLINE
  5
3C1
100
AcDbEntity
  8
0
100
AcDbPolyline
 62
7
  6
CONTINUOUS
 90
10
 70
0
 10
14.4831479777
 20
7.6574292623
 10
14.517293573
 20
7.6650701309
 10
14.5493694238
 20
7.675571305
 10
14.5789949774
 20
7.6889137377
 10
14.6051537774
 20
7.7047772916
 10
14.6269600684
 20
7.7226435587
 10
14.643863794
 20
7.7419152653
 10
14.6558122777
 20
7.762372977
 10
14.6626129144
 20
7.7837336781
 10
14.6641964925
 20
7.8003562656
  0
LWPOLYLINE
  5
3C2
100
AcDbEntity
  8
0
100
AcDbPolyline
 62
7
  6
CONTINUOUS
 90
7
 70
0
 10
14.2471994157
 20
7.6564261103
 10
14.2762654119
 20
7.6428894851
 10
14.3092791754
 20
7.6320307997
 10
14.3450691956
 20
7.6243301083
 10
14.3822769819
 20
7.6200318733
 10
14.4202847522
 20
7.6191461866
 10
14.4584448409
 20
7.621713187
  0
LINE
  5
3C3
100
AcDbEntity
  8
0
100
AcDbLine
 62
7
  6
CONTINUOUS
 10
14.2762922465
 20
7.6782392567
 11
14.2471994157
 21
7.6917864512
  0
LINE
  5
3C4
100
AcDbEntity
  8
0
100
AcDbLine
 62
7
  6
CONTINUOUS
 10
14.2747531863
 20
7.6467047919
 11
14.2471994157
 21
7.6596406867
  0
LWPOLYLINE
  5
3C5
100
AcDbEntity
  8
0
100
AcDbPolyline
 62
7
  6
CONTINUOUS
 90
8
 70
0
 10
14.2471994157
 20
7.6885718747
 10
14.2747531863
 20
7.6756359799
 10
14.3059318614
 20
7.6650983204
 10
14.3397458553
 20
7.6573868435
 10
14.3750231331
 20
7.6527415355
 10
14.4110449602
 20
7.6511914492
 10
14.4474840514
 20
7.6527631413
 10
14.4831479777
 20
7.6574292623
  0
LINE
  5
3C6
100
AcDbEntity
  8
0
100
AcDbLine
 62
7
  6
CONTINUOUS
 10
14.2878446677
 20
7.5998809443
 11
14.2613186328
 21
7.6129137608
  0
LWPOLYLINE
  5
3C7
100
AcDbEntity
  8
0
100
AcDbPolyline
 62
7
  6
CONTINUOUS
 90
12
 70
0
 10
14.2722542761
 20
7.6065999254
 10
14.2957742104
 20
7.5949047002
 10
14.3221362488
 20
7.5853206991
 10
14.350742239
 20
7.5780938445
 10
14.3809214922
 20
7.5734072179
 10
14.4119674963
 20
7.5713733264
 10
14.4431851663
 20
7.5720359685
 10
14.4738825779
 20
7.5753796599
 10
14.5033750449
 20
7.5813301824
 10
14.5309992247
 20
7.5897539381
 10
14.5561381265
 20
7.6004627134
 10
14.5675974394
 20
7.6066030827
  0
LINE
  5
3C8
100
AcDbEntity
  8
0
100
AcDbLine
 62
7
  6
CONTINUOUS
 10
14.2722505116
 20
7.6066020599
 11
14.2613146789
 21
7.6129160436
  0
LINE
  5
3C9
100
AcDbEntity
  8
0
100
AcDbLine
 62
7
  6
CONTINUOUS
 10
14.2223367886
 20
7.6724263884
 11
14.2471994157
 21
7.6564261103
  0
LWPOLYLINE
  5
3CA
100
AcDbEntity
  8
0
100
AcDbPolyline
 62
7
  6
CONTINUOUS
 90
5
 70
0
 10
14.2471994157
 20
7.6596406867
 10
14.2223275443
 20
7.6756479785
 10
14.2021009239
 20
7.6939223375
 10
14.1873648746
 20
7.7137910983
 10
14.178550497
 20
7.7344770703
  0
LWPOLYLINE
  5
3CB
100
AcDbEntity
  8
0
100
AcDbPolyline
 62
7
  6
CONTINUOUS
 90
3
 70
0
 10
14.2613147048
 20
7.6129160286
 10
14.2400273822
 20
7.627225528
 10
14.2344856159
 20
7.6323662233
  0
LWPOLYLINE
  5
3CC
100
AcDbEntity
  8
0
100
AcDbPolyline
 62
7
  6
CONTINUOUS
 90
16
 70
0
 10
14.2471994157
 20
7.7207176392
 10
14.2762922465
 20
7.7071704447
 10
14.3093311318
 20
7.6963083132
 10
14.3451384028
 20
7.6886103032
 10
14.3823522085
 20
7.684318229
 10
14.420356321
 20
7.6834392814
 10
14.4585004678
 20
7.6860110282
 10
14.4954442832
 20
7.69194714
 10
14.5305156226
 20
7.7011149978
 10
14.5631727931
 20
7.7134313021
 10
14.5926547528
 20
7.728756763
 10
14.6177918155
 20
7.7465913216
 10
14.6377340785
 20
7.7662492264
 10
14.6522333044
 20
7.7872931585
 10
14.661133594
 20
7.8094206269
 10
14.6641964928
 20
7.8324952399
  0
LINE
  5
3CD
100
AcDbEntity
  8
0
100
AcDbLine
 62
7
  6
CONTINUOUS
 10
14.2762691184
 20
7.7103941304
 11
14.2471994157
 21
7.7239322156
  0
LWPOLYLINE
  5
3CE
100
AcDbEntity
  8
0
100
AcDbPolyline
 62
7
  6
CONTINUOUS
 90
14
 70
0
 10
14.2471994157
 20
7.7528634036
 10
14.2762691184
 20
7.7393253184
 10
14.3092864101
 20
7.728466141
 10
14.3450788325
 20
7.7207658226
 10
14.3822874228
 20
7.7164684478
 10
14.4202946118
 20
7.7155836949
 10
14.4584523759
 20
7.718151335
 10
14.4954083112
 20
7.7240853626
 10
14.5304780133
 20
7.7332488561
 10
14.5631379235
 20
7.7455615926
 10
14.5926240653
 20
7.7608839037
 10
14.6177664729
 20
7.7787159733
 10
14.6377148319
 20
7.7983722181
 10
14.6522214573
 20
7.8194170825
  0
LINE
  5
3CF
100
AcDbEntity
  8
0
100
AcDbLine
 62
7
  6
CONTINUOUS
 10
14.276296179
 20
7.7746750015
 11
14.2471994157
 21
7.7882237445
  0
LINE
  5
3D0
100
AcDbEntity
  8
0
100
AcDbLine
 62
7
  6
CONTINUOUS
 10
14.274780638
 20
7.74313109
 11
14.2471994157
 21
7.7560779801
  0
LWPOLYLINE
  5
3D1
100
AcDbEntity
  8
0
100
AcDbPolyline
 62
7
  6
CONTINUOUS
 90
15
 70
0
 10
14.2471994157
 20
7.7850091681
 10
14.274780638
 20
7.772062278
 10
14.3059917351
 20
7.7615187984
 10
14.3398394918
 20
7.7538074399
 10
14.3751575807
 20
7.7491672002
 10
14.4112022792
 20
7.747628765
 10
14.4476689551
 20
7.7492164951
 10
14.4833620165
 20
7.7539043694
 10
14.5174833806
 20
7.7615594434
 10
14.5495492637
 20
7.7720779838
 10
14.5791611068
 20
7.785437994
 10
14.6052976196
 20
7.8013158939
 10
14.6270747942
 20
7.8191912709
 10
14.6439502526
 20
7.838471801
 10
14.6558734013
 20
7.8589466575
  0
LWPOLYLINE
  5
3D2
100
AcDbEntity
  8
0
100
AcDbPolyline
 62
7
  6
CONTINUOUS
 90
5
 70
0
 10
14.2471994157
 20
7.6917864512
 10
14.2223566088
 20
7.707771695
 10
14.2021399463
 20
7.7260255359
 10
14.1873979104
 20
7.7458798124
 10
14.1785680336
 20
7.7665601736
  0
LINE
  5
3D3
100
AcDbEntity
  8
0
100
AcDbLine
 62
7
  6
CONTINUOUS
 10
14.2223566088
 20
7.736702883
 11
14.2471994157
 21
7.7207176392
  0
LWPOLYLINE
  5
3D4
100
AcDbEntity
  8
0
100
AcDbPolyline
 62
7
  6
CONTINUOUS
 90
5
 70
0
 10
14.2471994157
 20
7.7239322156
 10
14.222339668
 20
7.7399303094
 10
14.202117175
 20
7.758196135
 10
14.1873787331
 20
7.7780586841
 10
14.1785579485
 20
7.7987419502
  0
LINE
  5
3D5
100
AcDbEntity
  8
0
100
AcDbLine
 62
7
  6
CONTINUOUS
 10
14.222339668
 20
7.7688614974
 11
14.2471994157
 21
7.7528634036
  0
LINE
  5
3D6
100
AcDbEntity
  8
0
100
AcDbLine
 62
7
  6
CONTINUOUS
 10
14.2223275443
 20
7.7045791666
 11
14.2471994157
 21
7.6885718747
  0
LWPOLYLINE
  5
3D7
100
AcDbEntity
  8
0
100
AcDbPolyline
 62
7
  6
CONTINUOUS
 90
16
 70
0
 10
14.2471994157
 20
7.8171549326
 10
14.276296179
 20
7.8036061895
 10
14.3093386482
 20
7.7927435798
 10
14.3451483741
 20
7.7850459646
 10
14.3823630248
 20
7.7807547797
 10
14.4203665989
 20
7.7798768006
 10
14.4585084522
 20
7.7824492282
 10
14.4954503467
 20
7.7883857051
 10
14.5305219318
 20
7.797554289
 10
14.5631786236
 20
7.8098711834
 10
14.5926598671
 20
7.8251971608
 10
14.6177960251
 20
7.8430321227
 10
14.637737265
 20
7.862690291
 10
14.6522352563
 20
7.8837340513
 10
14.6611348714
 20
7.9058627034
 10
14.6641964928
 20
7.9289325263
  0
LINE
  5
3D8
100
AcDbEntity
  8
0
100
AcDbLine
 62
7
  6
CONTINUOUS
 10
14.2762729175
 20
7.8068299273
 11
14.2471994157
 21
7.820369509
  0
LWPOLYLINE
  5
3D9
100
AcDbEntity
  8
0
100
AcDbPolyline
 62
7
  6
CONTINUOUS
 90
16
 70
0
 10
14.2471994157
 20
7.849300697
 10
14.2762729175
 20
7.8357611153
 10
14.3092938189
 20
7.8249014354
 10
14.3450887302
 20
7.8172014945
 10
14.3822982071
 20
7.812904999
 10
14.4203049016
 20
7.8120212129
 10
14.4584604132
 20
7.81458954
 10
14.4954142578
 20
7.8205239025
 10
14.5304842523
 20
7.8296881243
 10
14.5631437216
 20
7.8420014586
 10
14.5926291801
 20
7.8573243007
 10
14.6177707068
 20
7.8751567933
 10
14.6377180549
 20
7.8948133242
 10
14.6522234481
 20
7.915858045
 10
14.6611272245
 20
7.9379798494
 10
14.6641964928
 20
7.9610783286
  0
LINE
  5
3DA
100
AcDbEntity
  8
0
100
AcDbLine
 62
7
  6
CONTINUOUS
 10
14.2762523657
 20
7.8389837878
 11
14.2471994157
 21
7.8525152735
  0
LWPOLYLINE
  5
3DB
100
AcDbEntity
  8
0
100
AcDbPolyline
 62
7
  6
CONTINUOUS
 90
5
 70
0
 10
14.2471994157
 20
7.7882237445
 10
14.2223593764
 20
7.8042068894
 10
14.2021437111
 20
7.8224587246
 10
14.1874010947
 20
7.8423116113
 10
14.1785697133
 20
7.8629914749
  0
LINE
  5
3DC
100
AcDbEntity
  8
0
100
AcDbLine
 62
7
  6
CONTINUOUS
 10
14.2223593764
 20
7.8331380774
 11
14.2471994157
 21
7.8171549326
  0
LWPOLYLINE
  5
3DD
100
AcDbEntity
  8
0
100
AcDbPolyline
 62
7
  6
CONTINUOUS
 90
5
 70
0
 10
14.2471994157
 20
7.820369509
 10
14.2223425314
 20
7.8363654306
 10
14.2021209919
 20
7.8546292647
 10
14.1873819378
 20
7.8744904428
 10
14.1785596301
 20
7.8951732344
  0
LINE
  5
3DE
100
AcDbEntity
  8
0
100
AcDbLine
 62
7
  6
CONTINUOUS
 10
14.2223425314
 20
7.8652966186
 11
14.2471994157
 21
7.849300697
  0
LWPOLYLINE
  5
3DF
100
AcDbEntity
  8
0
100
AcDbPolyline
 62
7
  6
CONTINUOUS
 90
5
 70
0
 10
14.2471994157
 20
7.7560779801
 10
14.2223278461
 20
7.7720850429
 10
14.2021013912
 20
7.7903591209
 10
14.1873653454
 20
7.8102275779
 10
14.1785508047
 20
7.8309132625
  0
LINE
  5
3E0
100
AcDbEntity
  8
0
100
AcDbLine
 62
7
  6
CONTINUOUS
 10
14.2223278461
 20
7.801016231
 11
14.2471994157
 21
7.7850091681
  0
LWPOLYLINE
  5
3E1
100
AcDbEntity
  8
0
100
AcDbPolyline
 62
7
  6
CONTINUOUS
 90
16
 70
0
 10
14.2471994157
 20
7.8814464615
 10
14.2762523657
 20
7.8679149758
 10
14.3092538729
 20
7.8570579796
 10
14.3450362744
 20
7.8493558554
 10
14.3822427571
 20
7.8450545826
 10
14.4202548689
 20
7.8441658875
 10
14.4584259387
 20
7.846731395
 10
14.4953943509
 20
7.8526654945
 10
14.530463557
 20
7.8618273387
 10
14.5631262619
 20
7.8741394766
 10
14.5926153253
 20
7.8894616586
 10
14.6177605083
 20
7.9072940631
 10
14.6377112444
 20
7.9269510322
 10
14.6522207645
 20
7.9479988634
 10
14.661124799
 20
7.9701165442
 10
14.6641964928
 20
7.9932240884
  0
LWPOLYLINE
  5
3E2
100
AcDbEntity
  8
0
100
AcDbPolyline
 62
7
  6
CONTINUOUS
 90
5
 70
0
 10
14.2471994157
 20
7.8525152735
 10
14.2223281509
 20
7.8685221051
 10
14.2021018632
 20
7.8867958992
 10
14.1873658209
 20
7.9066640495
 10
14.1785511155
 20
7.9273494437
  0
LWPOLYLINE
  5
3E3
100
AcDbEntity
  8
0
100
AcDbPolyline
 62
7
  6
CONTINUOUS
 90
6
 70
0
 10
14.2471994157
 20
7.9011972761
 10
14.2235010288
 20
7.9170831545
 10
14.2040895884
 20
7.9348808451
 10
14.189425488
 20
7.9542346251
 10
14.179937021
 20
7.9746238162
 10
14.1758275627
 20
7.995591903
  0
LWPOLYLINE
  5
3E4
100
AcDbEntity
  8
0
100
AcDbPolyline
 62
7
  6
CONTINUOUS
 90
5
 70
0
 10
14.2444849492
 20
7.924017123
 10
14.2204141258
 20
7.9401526714
 10
14.2006976332
 20
7.9582300339
 10
14.1858030751
 20
7.9778879812
 10
14.1760885035
 20
7.9988328753
  0
LWPOLYLINE
  5
3E5
100
AcDbEntity
  8
0
100
AcDbPolyline
 62
7
  6
CONTINUOUS
 90
11
 70
0
 10
13.8293736582
 20
8.6883757407
 10
13.8307063377
 20
8.665483179
 10
13.835546735
 20
8.6392069243
 10
13.8439041677
 20
8.6132083878
 10
13.8557352583
 20
8.5876451828
 10
13.8709195969
 20
8.5627538507
 10
13.8893752376
 20
8.5386360972
 10
13.9112923001
 20
8.5151311647
 10
13.9370461535
 20
8.4920974076
 10
13.9671667199
 20
8.4694719147
 10
14.002343833
 20
8.4472866867
  0
LWPOLYLINE
  5
3E6
100
AcDbEntity
  8
AXIS
100
AcDbPolyline
 62
7
  6
CONTINUOUS
 90
9
 70
0
 10
13.8293747304
 20
9.0419791629
 10
13.829590288
 20
9.0327450275
 10
13.8347801339
 20
8.9959495005
 10
13.8468302664
 20
8.9596936292
 10
13.8655994088
 20
8.9244024805
 10
13.89086751
 20
8.8904898109
 10
13.9223383247
 20
8.8583532155
 10
13.9596428863
 20
8.8283694664
 10
14.002343833
 20
8.8008900957
  0
LINE
  5
3E7
100
AcDbEntity
  8
AXIS
100
AcDbLine
 62
7
  6
CONTINUOUS
 10
13.8293736582
 20
9.041979163
 11
13.8293736582
 21
8.688375754
  0
LWPOLYLINE
  5
3E8
100
AcDbEntity
  8
AXIS
100
AcDbPolyline
 62
7
  6
CONTINUOUS
 90
6
 70
0
 10
13.8293736582
 20
9.041979163
 10
13.835095352
 20
9.1239862863
 10
13.852293669
 20
9.2049072208
 10
13.8808566218
 20
9.2831350345
 10
13.9203834779
 20
9.3569539648
 10
13.9688219187
 20
9.4231049329
  0
LWPOLYLINE
  5
3E9
100
AcDbEntity
  8
0
100
AcDbPolyline
 62
7
  6
CONTINUOUS
 90
6
 70
0
 10
14.3417882895
 20
7.9807011877
 10
14.4054138105
 20
7.9778535799
 10
14.4693607118
 20
7.980500835
 10
14.5322136347
 20
7.9886097519
 10
14.5925804477
 20
8.0020261125
 10
14.649124591
 20
8.0204781915
  0
LWPOLYLINE
  5
3EA
100
AcDbEntity
  8
0
100
AcDbPolyline
 62
7
  6
CONTINUOUS
 90
8
 70
0
 10
14.3417882895
 20
8.0228764306
 10
14.4047616965
 20
8.0200301758
 10
14.4681071165
 20
8.0225709013
 10
14.5308635793
 20
8.0305506156
 10
14.5911525864
 20
8.0438140419
 10
14.6474155366
 20
8.0619993137
 10
14.699329086
 20
8.0851017858
 10
14.7451852675
 20
8.1125664896
  0
LINE
  5
3EB
100
AcDbEntity
  8
0
100
AcDbLine
 62
7
  6
CONTINUOUS
 10
14.3706471542
 20
7.967786788
 11
14.3142938795
 21
7.9748566674
  0
LINE
  5
3EC
100
AcDbEntity
  8
0
100
AcDbLine
 62
7
  6
CONTINUOUS
 10
14.3094739703
 20
8.0295137698
 11
14.2817506976
 21
8.0336689682
  0
LWPOLYLINE
  5
3ED
100
AcDbEntity
  8
0
100
AcDbPolyline
 62
7
  6
CONTINUOUS
 90
10
 70
0
 10
14.2814372136
 20
8.0365279667
 10
14.2811912149
 20
8.0365682569
 10
14.2807211168
 20
8.0365811125
 10
14.280343152
 20
8.0364846978
 10
14.2800848849
 20
8.0362315956
 10
14.2800701865
 20
8.0357811725
 10
14.2803225851
 20
8.0352236754
 10
14.2807281585
 20
8.0346685752
 10
14.2812061329
 20
8.0341564655
 10
14.2817506976
 20
8.0336689682
  0
LWPOLYLINE
  5
3EE
100
AcDbEntity
  8
0
100
AcDbPolyline
 62
7
  6
CONTINUOUS
 90
3
 70
0
 10
14.3008409382
 20
7.9856363824
 10
14.2874066269
 20
7.9881896809
 10
14.2570732361
 20
7.9957251382
  0
LWPOLYLINE
  5
3EF
100
AcDbEntity
  8
0
100
AcDbPolyline
 62
7
  6
CONTINUOUS
 90
3
 70
0
 10
14.3417882895
 20
7.974657784
 10
14.3246607542
 20
7.9779310371
 10
14.3078573975
 20
7.9815855194
  0
LWPOLYLINE
  5
3F0
100
AcDbEntity
  8
0
100
AcDbPolyline
 62
7
  6
CONTINUOUS
 90
3
 70
0
 10
14.3417882895
 20
8.0228764306
 10
14.3212662932
 20
8.0268511919
 10
14.3012499173
 20
8.0313706713
  0
LINE
  5
3F1
100
AcDbEntity
  8
0
100
AcDbLine
 62
7
  6
CONTINUOUS
 10
14.3142938795
 20
7.9748566674
 11
14.2603500154
 21
7.9869965488
  0
LINE
  5
3F2
100
AcDbEntity
  8
0
100
AcDbLine
 62
7
  6
CONTINUOUS
 10
14.2817506976
 20
8.0364528731
 11
14.2814372136
 21
8.0365279667
  0
LINE
  5
3F3
100
AcDbEntity
  8
0
100
AcDbLine
 62
7
  6
CONTINUOUS
 10
14.3012499173
 20
8.0313706713
 11
14.2817506976
 21
8.0364528731
  0
LWPOLYLINE
  5
3F4
100
AcDbEntity
  8
0
100
AcDbPolyline
 62
7
  6
CONTINUOUS
 90
4
 70
0
 10
14.2517250062
 20
7.9979199552
 10
14.2533622809
 20
7.9970747369
 10
14.2551524527
 20
7.9963400827
 10
14.2570732361
 20
7.9957251382
  0
LWPOLYLINE
  5
3F5
100
AcDbEntity
  8
0
100
AcDbPolyline
 62
7
  6
CONTINUOUS
 90
4
 70
0
 10
14.2558008438
 20
7.9889090963
 10
14.2570268433
 20
7.9882576995
 10
14.2593350931
 20
7.9873097093
 10
14.2603506631
 20
7.9869963681
  0
LINE
  5
3F6
100
AcDbEntity
  8
0
100
AcDbLine
 62
7
  6
CONTINUOUS
 10
14.2558020204
 20
7.9889084169
 11
14.0911044791
 21
8.0839944356
  0
LINE
  5
3F7
100
AcDbEntity
  8
0
100
AcDbLine
 62
7
  6
CONTINUOUS
 10
14.2517250062
 20
7.9979199552
 11
14.0870274649
 21
8.0930059739
  0
LINE
  5
3F8
100
AcDbEntity
  8
0
100
AcDbLine
 62
7
  6
CONTINUOUS
 10
14.0067278741
 20
8.1554387977
 11
14.0870274649
 21
8.1090788561
  0
LINE
  5
3F9
100
AcDbEntity
  8
0
100
AcDbLine
 62
7
  6
CONTINUOUS
 10
14.2517250062
 20
8.0139928375
 11
14.3078573975
 21
7.9815855194
  0
LINE
  5
3FA
100
AcDbEntity
  8
0
100
AcDbLine
 62
7
  6
CONTINUOUS
 10
14.2587100209
 20
7.9882319224
 11
14.2603489568
 21
7.9869968445
  0
LINE
  5
3FB
100
AcDbEntity
  8
0
100
AcDbLine
 62
7
  6
CONTINUOUS
 10
14.0896860518
 20
8.0850931408
 11
14.0911044959
 21
8.0839944259
  0
LWPOLYLINE
  5
3FC
100
AcDbEntity
  8
0
100
AcDbPolyline
 62
7
  6
CONTINUOUS
 90
4
 70
0
 10
14.0570017734
 20
8.159737658
 10
14.0375029687
 20
8.1762052485
 10
14.0174847231
 20
8.1938713934
 10
13.9969641816
 20
8.2127054386
  0
LINE
  5
3FD
100
AcDbEntity
  8
0
100
AcDbLine
 62
7
  6
CONTINUOUS
 10
14.0575735903
 20
8.1592234648
 11
14.0570017734
 21
8.159737658
  0
LWPOLYLINE
  5
3FE
100
AcDbEntity
  8
0
100
AcDbPolyline
 62
7
  6
CONTINUOUS
 90
3
 70
0
 10
14.0067278741
 20
8.1554387977
 10
14.0018602003
 20
8.1599305158
 10
13.9969641816
 20
8.1644867919
  0
LWPOLYLINE
  5
3FF
100
AcDbEntity
  8
0
100
AcDbPolyline
 62
7
  6
CONTINUOUS
 90
3
 70
0
 10
14.0858573378
 20
8.0884007593
 10
14.0890510762
 20
8.0853581513
 10
14.0911051568
 20
8.0839940444
  0
LWPOLYLINE
  5
400
100
AcDbEntity
  8
0
100
AcDbPolyline
 62
7
  6
CONTINUOUS
 90
4
 70
0
 10
14.0832258313
 20
8.0960937134
 10
14.0842849479
 20
8.0949902996
 10
14.0855599238
 20
8.0939537989
 10
14.0870274649
 20
8.0930059739
  0
LWPOLYLINE
  5
401
100
AcDbEntity
  8
0
100
AcDbPolyline
 62
7
  6
CONTINUOUS
 90
3
 70
0
 10
14.0832258313
 20
8.0960937134
 10
14.0701732757
 20
8.1136068817
 10
14.0657509971
 20
8.1213625527
  0
LWPOLYLINE
  5
402
100
AcDbEntity
  8
0
100
AcDbPolyline
 62
7
  6
CONTINUOUS
 90
3
 70
0
 10
14.0858573378
 20
8.0884007593
 10
14.0635891457
 20
8.1212660177
 10
14.0629151012
 20
8.1229998209
  0
LWPOLYLINE
  5
403
100
AcDbEntity
  8
0
100
AcDbPolyline
 62
7
  6
CONTINUOUS
 90
9
 70
0
 10
14.3417882895
 20
8.0710950773
 10
14.4022371362
 20
8.0682594474
 10
14.463550496
 20
8.0704254018
 10
14.5244400057
 20
8.077691415
 10
14.5830026013
 20
8.0898901627
 10
14.6376981579
 20
8.1066209856
 10
14.6883520822
 20
8.1278304449
 10
14.7336576282
 20
8.1530903674
 10
14.7722579957
 20
8.1816244213
  0
LINE
  5
404
100
AcDbEntity
  8
0
100
AcDbLine
 62
7
  6
CONTINUOUS
 10
14.3101907297
 20
8.07757058
 11
14.2817506976
 21
8.0818876149
  0
LWPOLYLINE
  5
405
100
AcDbEntity
  8
0
100
AcDbPolyline
 62
7
  6
CONTINUOUS
 90
10
 70
0
 10
14.2814373522
 20
8.0847465857
 10
14.2811912149
 20
8.0847869035
 10
14.2807211168
 20
8.0847997591
 10
14.280343152
 20
8.0847033445
 10
14.2800848849
 20
8.0844502422
 10
14.2800701865
 20
8.0839998191
 10
14.2803225851
 20
8.0834423221
 10
14.2807281585
 20
8.0828872219
 10
14.2812061329
 20
8.0823751122
 10
14.2817506976
 20
8.0818876149
  0
LWPOLYLINE
  5
406
100
AcDbEntity
  8
0
100
AcDbPolyline
 62
7
  6
CONTINUOUS
 90
3
 70
0
 10
14.3417882895
 20
8.0710950773
 10
14.3212662932
 20
8.0750698386
 10
14.3012499173
 20
8.0795893179
  0
LWPOLYLINE
  5
407
100
AcDbEntity
  8
0
100
AcDbPolyline
 62
7
  6
CONTINUOUS
 90
4
 70
0
 10
13.9969641816
 20
8.1705301956
 10
14.0174833404
 20
8.1665560284
 10
14.0374997001
 20
8.162036648
 10
14.0570017734
 20
8.1569537531
  0
LWPOLYLINE
  5
408
100
AcDbEntity
  8
0
100
AcDbPolyline
 62
7
  6
CONTINUOUS
 90
8
 70
0
 10
14.0570017734
 20
8.1569537531
 10
14.0575763165
 20
8.1568365473
 10
14.0580584541
 20
8.1568282155
 10
14.0584435228
 20
8.1569398966
 10
14.0586835358
 20
8.1572149795
 10
14.0586690288
 20
8.1576732625
 10
14.058424822
 20
8.1581912063
 10
14.0583119044
 20
8.1583655251
  0
LINE
  5
409
100
AcDbEntity
  8
0
100
AcDbLine
 62
7
  6
CONTINUOUS
 10
14.2817506976
 20
8.0846715198
 11
14.2814373522
 21
8.0847465857
  0
LINE
  5
40A
100
AcDbEntity
  8
0
100
AcDbLine
 62
7
  6
CONTINUOUS
 10
14.3012499173
 20
8.0795893179
 11
14.2817506976
 21
8.0846715198
  0
LWPOLYLINE
  5
40B
100
AcDbEntity
  8
0
100
AcDbPolyline
 62
7
  6
CONTINUOUS
 90
4
 70
0
 10
14.0570017734
 20
8.2079563047
 10
14.0375029687
 20
8.2244238952
 10
14.0174847231
 20
8.24209004
 10
13.9969641816
 20
8.2609240852
  0
LWPOLYLINE
  5
40C
100
AcDbEntity
  8
0
100
AcDbPolyline
 62
7
  6
CONTINUOUS
 90
4
 70
0
 10
14.2817506976
 20
8.0336689682
 10
14.3012524228
 20
8.0171988549
 10
14.3212706514
 20
7.9995326182
 10
14.3417882895
 20
7.9807011877
  0
LWPOLYLINE
  5
40D
100
AcDbEntity
  8
0
100
AcDbPolyline
 62
7
  6
CONTINUOUS
 90
4
 70
0
 10
14.0570017734
 20
8.2561749514
 10
14.0375555093
 20
8.2725971568
 10
14.0175347434
 20
8.2902636434
 10
13.9969641816
 20
8.3091427319
  0
LWPOLYLINE
  5
40E
100
AcDbEntity
  8
0
100
AcDbPolyline
 62
7
  6
CONTINUOUS
 90
4
 70
0
 10
14.2817506976
 20
8.0818876149
 10
14.3012524228
 20
8.0654175016
 10
14.3212706514
 20
8.0477512648
 10
14.3417882895
 20
8.0289198344
  0
LINE
  5
40F
100
AcDbEntity
  8
0
100
AcDbLine
 62
7
  6
CONTINUOUS
 10
14.0575036802
 20
8.2557287421
 11
14.0570017734
 21
8.2561749514
  0
LINE
  5
410
100
AcDbEntity
  8
0
100
AcDbLine
 62
7
  6
CONTINUOUS
 10
14.0575735903
 20
8.2074421115
 11
14.0570017734
 21
8.2079563047
  0
LWPOLYLINE
  5
411
100
AcDbEntity
  8
0
100
AcDbPolyline
 62
7
  6
CONTINUOUS
 90
3
 70
0
 10
14.0583103597
 20
8.2548032447
 10
14.0579456669
 20
8.2552670867
 10
14.0575036802
 20
8.2557287421
  0
LWPOLYLINE
  5
412
100
AcDbEntity
  8
0
100
AcDbPolyline
 62
7
  6
CONTINUOUS
 90
3
 70
0
 10
14.0583119044
 20
8.1583655251
 10
14.0580515683
 20
8.1587053793
 10
14.0575735903
 20
8.1592234648
  0
LWPOLYLINE
  5
413
100
AcDbEntity
  8
0
100
AcDbPolyline
 62
7
  6
CONTINUOUS
 90
3
 70
0
 10
14.0583117723
 20
8.206584362
 10
14.0580515683
 20
8.206924026
 10
14.0575735903
 20
8.2074421115
  0
LWPOLYLINE
  5
414
100
AcDbEntity
  8
0
100
AcDbPolyline
 62
7
  6
CONTINUOUS
 90
3
 70
0
 10
14.0858573378
 20
8.0884007593
 10
14.0840931588
 20
8.0913691196
 10
14.0832258313
 20
8.0960937134
  0
LINE
  5
415
100
AcDbEntity
  8
0
100
AcDbLine
 62
7
  6
CONTINUOUS
 10
14.0877067482
 20
8.0884384007
 11
14.0896860518
 21
8.0850931408
  0
LINE
  5
416
100
AcDbEntity
  8
0
100
AcDbLine
 62
7
  6
CONTINUOUS
 10
14.0570017734
 20
8.1569537531
 11
14.0543261186
 21
8.1619973651
  0
LINE
  5
417
100
AcDbEntity
  8
0
100
AcDbLine
 62
7
  6
CONTINUOUS
 10
14.0570017734
 20
8.2051723998
 11
14.0543261186
 21
8.2102160118
  0
LINE
  5
418
100
AcDbEntity
  8
0
100
AcDbLine
 62
7
  6
CONTINUOUS
 10
14.0570017734
 20
8.2533910465
 11
14.0543262525
 21
8.2584344062
  0
LWPOLYLINE
  5
419
100
AcDbEntity
  8
0
100
AcDbPolyline
 62
7
  6
CONTINUOUS
 90
16
 70
0
 10
14.1778857463
 20
7.7048678358
 10
14.1856409544
 20
7.6847524629
 10
14.19877367
 20
7.6655529161
 10
14.2169824485
 20
7.6477279522
 10
14.2398488366
 20
7.6317048595
 10
14.2668525975
 20
7.6178669738
 10
14.2973720337
 20
7.606551919
 10
14.3307053544
 20
7.5980379384
 10
14.3660866563
 20
7.5925383945
 10
14.4027037079
 20
7.5901972278
 10
14.4397161911
 20
7.5910859385
 10
14.4762741925
 20
7.5952019296
 10
14.5115382283
 20
7.6024684583
 10
14.5446990177
 20
7.6127365652
 10
14.5749955119
 20
7.6257885118
 10
14.6017319928
 20
7.6413425818
  0
LWPOLYLINE
  5
41A
100
AcDbEntity
  8
0
100
AcDbPolyline
 62
7
  6
CONTINUOUS
 90
3
 70
0
 10
13.9969641816
 20
8.1644867919
 10
13.9900630405
 20
8.1998917246
 10
13.989806729
 20
8.208198385
  0
LINE
  5
41B
100
AcDbEntity
  8
0
100
AcDbLine
 62
7
  6
CONTINUOUS
 10
13.9900622486
 20
8.2481232097
 11
13.9969641816
 21
8.2127054386
  0
LINE
  5
41C
100
AcDbEntity
  8
0
100
AcDbLine
 62
7
  6
CONTINUOUS
 10
13.9969641816
 20
8.2187488423
 11
13.9900608629
 21
8.2541891268
  0
LINE
  5
41D
100
AcDbEntity
  8
0
100
AcDbLine
 62
7
  6
CONTINUOUS
 10
13.9900608629
 20
8.2963643698
 11
13.9969641816
 21
8.2609240852
  0
LINE
  5
41E
100
AcDbEntity
  8
0
100
AcDbLine
 62
7
  6
CONTINUOUS
 10
13.9969641816
 20
8.266967489
 11
13.9900620041
 21
8.302389229
  0
LINE
  5
41F
100
AcDbEntity
  8
0
100
AcDbLine
 62
7
  6
CONTINUOUS
 10
13.9900620041
 20
8.344564472
 11
13.9969641816
 21
8.3091427319
  0
LINE
  5
420
100
AcDbEntity
  8
0
100
AcDbLine
 62
7
  6
CONTINUOUS
 10
13.9899837138
 20
8.2073388914
 11
13.9969641816
 21
8.1705301956
  0
LINE
  5
421
100
AcDbEntity
  8
AXIS
100
AcDbLine
 62
7
  6
CONTINUOUS
 10
13.8293736582
 20
9.0419791589
 11
13.8344262263
 21
8.9974748492
  0
LINE
  5
422
100
AcDbEntity
  8
0
100
AcDbLine
 62
7
  6
CONTINUOUS
 10
13.9900657597
 20
8.3987657842
 11
13.989806734
 21
8.4070798809
  0
LINE
  5
423
100
AcDbEntity
  8
0
100
AcDbLine
 62
7
  6
CONTINUOUS
 10
13.9900061901
 20
8.4428530639
 11
13.9900657597
 21
8.4409410271
  0
LINE
  5
424
100
AcDbEntity
  8
0
100
AcDbLine
 62
7
  6
CONTINUOUS
 10
13.9898067333
 20
8.2563832567
 11
13.9900622486
 21
8.2481232097
  0
LINE
  5
425
100
AcDbEntity
  8
0
100
AcDbLine
 62
7
  6
CONTINUOUS
 10
13.9900608629
 20
8.2541891268
 11
13.9898067339
 21
8.2624240574
  0
LINE
  5
426
100
AcDbEntity
  8
0
100
AcDbLine
 62
7
  6
CONTINUOUS
 10
13.9898067339
 20
8.3045993004
 11
13.9900608629
 21
8.2963643698
  0
LINE
  5
427
100
AcDbEntity
  8
0
100
AcDbLine
 62
7
  6
CONTINUOUS
 10
13.9900620041
 20
8.302389229
 11
13.9898067339
 21
8.3106427337
  0
LINE
  5
428
100
AcDbEntity
  8
0
100
AcDbLine
 62
7
  6
CONTINUOUS
 10
13.9898067339
 20
8.3528179767
 11
13.9900620041
 21
8.344564472
  0
LINE
  5
429
100
AcDbEntity
  8
0
100
AcDbLine
 62
7
  6
CONTINUOUS
 10
13.9900624661
 20
8.350600379
 11
13.989806734
 21
8.3588612011
  0
LINE
  5
42A
100
AcDbEntity
  8
0
100
AcDbLine
 62
7
  6
CONTINUOUS
 10
13.989806734
 20
8.4010364441
 11
13.9900624661
 21
8.392775622
  0
LINE
  5
42B
100
AcDbEntity
  8
0
100
AcDbLine
 62
7
  6
CONTINUOUS
 10
13.989806729
 20
8.2142417727
 11
13.9899837138
 21
8.2073388914
  0
LINE
  5
42C
100
AcDbEntity
  8
0
100
AcDbLine
 62
7
  6
CONTINUOUS
 10
13.9969641816
 20
8.411623429
 11
13.9969641816
 21
8.4055800253
  0
LINE
  5
42D
100
AcDbEntity
  8
0
100
AcDbLine
 62
7
  6
CONTINUOUS
 10
13.9969641816
 20
8.3634047823
 11
13.9969641816
 21
8.3573613786
  0
LINE
  5
42E
100
AcDbEntity
  8
0
100
AcDbLine
 62
7
  6
CONTINUOUS
 10
13.9969641816
 20
8.3151861356
 11
13.9969641816
 21
8.3091427319
  0
LINE
  5
42F
100
AcDbEntity
  8
0
100
AcDbLine
 62
7
  6
CONTINUOUS
 10
13.9969641816
 20
8.266967489
 11
13.9969641816
 21
8.2609240852
  0
LINE
  5
430
100
AcDbEntity
  8
0
100
AcDbLine
 62
7
  6
CONTINUOUS
 10
13.9969641816
 20
8.2187488423
 11
13.9969641816
 21
8.2127054386
  0
LINE
  5
431
100
AcDbEntity
  8
0
100
AcDbLine
 62
7
  6
CONTINUOUS
 10
13.9969641816
 20
8.1705301956
 11
13.9969641816
 21
8.1644867919
  0
LINE
  5
432
100
AcDbEntity
  8
0
100
AcDbLine
 62
7
  6
CONTINUOUS
 10
13.989806734
 20
8.4070798809
 11
13.9921796331
 21
8.4301054065
  0
LINE
  5
433
100
AcDbEntity
  8
0
100
AcDbLine
 62
7
  6
CONTINUOUS
 10
13.989806734
 20
8.3588612011
 11
13.9921878262
 21
8.3818699248
  0
LINE
  5
434
100
AcDbEntity
  8
0
100
AcDbLine
 62
7
  6
CONTINUOUS
 10
13.9898067339
 20
8.3106427337
 11
13.9921887693
 21
8.3336499853
  0
LINE
  5
435
100
AcDbEntity
  8
0
100
AcDbLine
 62
7
  6
CONTINUOUS
 10
13.9898067339
 20
8.2624240574
 11
13.9921915067
 21
8.2854260621
  0
LINE
  5
436
100
AcDbEntity
  8
0
100
AcDbLine
 62
7
  6
CONTINUOUS
 10
13.9923117116
 20
8.2365799268
 11
13.989806729
 21
8.2142417727
  0
LWPOLYLINE
  5
437
100
AcDbEntity
  8
0
100
AcDbPolyline
 62
7
  6
CONTINUOUS
 90
13
 70
0
 10
14.3417882895
 20
8.119313724
 10
14.4050821609
 20
8.1164667329
 10
14.4696044947
 20
8.1191340754
 10
14.5331849486
 20
8.1273926107
 10
14.5937130066
 20
8.1409484239
 10
14.6497140511
 20
8.1593178593
 10
14.7009243673
 20
8.1823674425
 10
14.7457974015
 20
8.2094298358
 10
14.783542533
 20
8.2399964972
 10
14.8133660758
 20
8.2734308272
 10
14.8348609255
 20
8.3095242064
 10
14.8471631998
 20
8.3473876864
 10
14.8500429446
 20
8.3770023053
  0
LWPOLYLINE
  5
438
100
AcDbEntity
  8
0
100
AcDbPolyline
 62
7
  6
CONTINUOUS
 90
13
 70
0
 10
14.3417882895
 20
8.1675323707
 10
14.4050933836
 20
8.1646853563
 10
14.4696185739
 20
8.1673539204
 10
14.5332017164
 20
8.1756142102
 10
14.5937361106
 20
8.1891734137
 10
14.6496938611
 20
8.2075287134
 10
14.700698951
 20
8.230468555
 10
14.7455781133
 20
8.2574956431
 10
14.7835118364
 20
8.2881860736
 10
14.8133655115
 20
8.3216487115
 10
14.8348603223
 20
8.3577415366
 10
14.8471633577
 20
8.3956071412
 10
14.8500429445
 20
8.4252213377
  0
LINE
  5
439
100
AcDbEntity
  8
0
100
AcDbLine
 62
7
  6
CONTINUOUS
 10
14.3094715712
 20
8.1259514227
 11
14.2817506976
 21
8.1301062616
  0
LINE
  5
43A
100
AcDbEntity
  8
0
100
AcDbLine
 62
7
  6
CONTINUOUS
 10
14.3094744398
 20
8.1741696394
 11
14.2817506976
 21
8.1783249083
  0
LWPOLYLINE
  5
43B
100
AcDbEntity
  8
0
100
AcDbPolyline
 62
7
  6
CONTINUOUS
 90
10
 70
0
 10
14.2814372499
 20
8.1811838995
 10
14.2811912149
 20
8.1812241969
 10
14.2807211168
 20
8.1812370525
 10
14.280343152
 20
8.1811406379
 10
14.2800848849
 20
8.1808875356
 10
14.2800701865
 20
8.1804371125
 10
14.2803225851
 20
8.1798796155
 10
14.2807281585
 20
8.1793245153
 10
14.2812061329
 20
8.1788124055
 10
14.2817506976
 20
8.1783249083
  0
LWPOLYLINE
  5
43C
100
AcDbEntity
  8
0
100
AcDbPolyline
 62
7
  6
CONTINUOUS
 90
10
 70
0
 10
14.2814374514
 20
8.1329652125
 10
14.2811912149
 20
8.1330055502
 10
14.2807211168
 20
8.1330184058
 10
14.280343152
 20
8.1329219912
 10
14.2800848849
 20
8.1326688889
 10
14.2800701865
 20
8.1322184658
 10
14.2803225851
 20
8.1316609688
 10
14.2807281585
 20
8.1311058686
 10
14.2812061329
 20
8.1305937588
 10
14.2817506976
 20
8.1301062616
  0
LWPOLYLINE
  5
43D
100
AcDbEntity
  8
0
100
AcDbPolyline
 62
7
  6
CONTINUOUS
 90
3
 70
0
 10
14.3417882895
 20
8.119313724
 10
14.3213299953
 20
8.1232751533
 10
14.3013105565
 20
8.1277932419
  0
LWPOLYLINE
  5
43E
100
AcDbEntity
  8
0
100
AcDbPolyline
 62
7
  6
CONTINUOUS
 90
3
 70
0
 10
14.3417882895
 20
8.1675323707
 10
14.3212539641
 20
8.1715097129
 10
14.301238062
 20
8.1760294904
  0
LWPOLYLINE
  5
43F
100
AcDbEntity
  8
0
100
AcDbPolyline
 62
7
  6
CONTINUOUS
 90
4
 70
0
 10
13.9969641816
 20
8.2187488423
 10
14.0175246179
 20
8.214766033
 10
14.0375419229
 20
8.2102450397
 10
14.0570017734
 20
8.2051723998
  0
LWPOLYLINE
  5
440
100
AcDbEntity
  8
0
100
AcDbPolyline
 62
7
  6
CONTINUOUS
 90
8
 70
0
 10
14.0570017734
 20
8.2051723998
 10
14.0575763165
 20
8.205055194
 10
14.0580584541
 20
8.2050468622
 10
14.0584435228
 20
8.2051585433
 10
14.0586835358
 20
8.2054336262
 10
14.0586690288
 20
8.2058919092
 10
14.058424822
 20
8.2064098529
 10
14.0583117723
 20
8.206584362
  0
LWPOLYLINE
  5
441
100
AcDbEntity
  8
0
100
AcDbPolyline
 62
7
  6
CONTINUOUS
 90
8
 70
0
 10
14.0570017734
 20
8.2533910465
 10
14.0574956773
 20
8.2532844855
 10
14.057936002
 20
8.2532568613
 10
14.0583153867
 20
8.2533203945
 10
14.0585996543
 20
8.2535042107
 10
14.0587131271
 20
8.2538553041
 10
14.0585888889
 20
8.2543227649
 10
14.0583103597
 20
8.2548032447
  0
LINE
  5
442
100
AcDbEntity
  8
0
100
AcDbLine
 62
7
  6
CONTINUOUS
 10
14.2817506976
 20
8.1811088131
 11
14.2814372499
 21
8.1811838995
  0
LINE
  5
443
100
AcDbEntity
  8
0
100
AcDbLine
 62
7
  6
CONTINUOUS
 10
14.2817506976
 20
8.1328901665
 11
14.2814374514
 21
8.1329652125
  0
LINE
  5
444
100
AcDbEntity
  8
0
100
AcDbLine
 62
7
  6
CONTINUOUS
 10
14.3013105565
 20
8.1277932419
 11
14.2817506976
 21
8.1328901665
  0
LINE
  5
445
100
AcDbEntity
  8
0
100
AcDbLine
 62
7
  6
CONTINUOUS
 10
14.301238062
 20
8.1760294904
 11
14.2817506976
 21
8.1811088131
  0
LWPOLYLINE
  5
446
100
AcDbEntity
  8
0
100
AcDbPolyline
 62
7
  6
CONTINUOUS
 90
4
 70
0
 10
14.0570017734
 20
8.3526122447
 10
14.0375029687
 20
8.3690798352
 10
14.0174847231
 20
8.3867459801
 10
13.9969641816
 20
8.4055800253
  0
LWPOLYLINE
  5
447
100
AcDbEntity
  8
0
100
AcDbPolyline
 62
7
  6
CONTINUOUS
 90
4
 70
0
 10
14.2817506976
 20
8.1783249083
 10
14.301241004
 20
8.1618646592
 10
14.3212587541
 20
8.1441992722
 10
14.3417882895
 20
8.1253571277
  0
LWPOLYLINE
  5
448
100
AcDbEntity
  8
0
100
AcDbPolyline
 62
7
  6
CONTINUOUS
 90
4
 70
0
 10
14.0570017734
 20
8.304393598
 10
14.0374919753
 20
8.3208706854
 10
14.01747263
 20
8.338538224
 10
13.9969641816
 20
8.3573613786
  0
LWPOLYLINE
  5
449
100
AcDbEntity
  8
0
100
AcDbPolyline
 62
7
  6
CONTINUOUS
 90
4
 70
0
 10
14.2817506976
 20
8.1301062616
 10
14.3013137316
 20
8.1135831822
 10
14.3213358049
 20
8.0959112338
 10
14.3417882895
 20
8.077138481
  0
LINE
  5
44A
100
AcDbEntity
  8
0
100
AcDbLine
 62
7
  6
CONTINUOUS
 10
14.0575735903
 20
8.3038794049
 11
14.0570017734
 21
8.304393598
  0
LINE
  5
44B
100
AcDbEntity
  8
0
100
AcDbLine
 62
7
  6
CONTINUOUS
 10
14.0575735903
 20
8.3520980516
 11
14.0570017734
 21
8.3526122447
  0
LWPOLYLINE
  5
44C
100
AcDbEntity
  8
0
100
AcDbPolyline
 62
7
  6
CONTINUOUS
 90
3
 70
0
 10
14.0583111106
 20
8.3512412546
 10
14.0580515683
 20
8.351579966
 10
14.0575735903
 20
8.3520980516
  0
LWPOLYLINE
  5
44D
100
AcDbEntity
  8
0
100
AcDbPolyline
 62
7
  6
CONTINUOUS
 90
3
 70
0
 10
14.0583119764
 20
8.3030213613
 10
14.0580515683
 20
8.3033613194
 10
14.0575735903
 20
8.3038794049
  0
LWPOLYLINE
  5
44E
100
AcDbEntity
  8
0
100
AcDbPolyline
 62
7
  6
CONTINUOUS
 90
3
 70
0
 10
14.0583119613
 20
8.3994586765
 10
14.0580515683
 20
8.3997986127
 10
14.0575735903
 20
8.4003166982
  0
LINE
  5
44F
100
AcDbEntity
  8
0
100
AcDbLine
 62
7
  6
CONTINUOUS
 10
14.0570017734
 20
8.3016096932
 11
14.0543260906
 21
8.3066533579
  0
LINE
  5
450
100
AcDbEntity
  8
0
100
AcDbLine
 62
7
  6
CONTINUOUS
 10
14.0570017734
 20
8.3498283399
 11
14.0543261186
 21
8.3548719518
  0
LINE
  5
451
100
AcDbEntity
  8
0
100
AcDbLine
 62
7
  6
CONTINUOUS
 10
14.0570017734
 20
8.3980469865
 11
14.0543261186
 21
8.4030905985
  0
LINE
  5
452
100
AcDbEntity
  8
AXIS
100
AcDbLine
 62
7
  6
CONTINUOUS
 10
13.8344262263
 20
8.9974748492
 11
13.8494968381
 21
8.953733436
  0
LINE
  5
453
100
AcDbEntity
  8
02___PRT_ALL_AXES
100
AcDbLine
 62
7
  6
CONTINUOUS
 10
14.161607496
 20
8.0432904206
 11
14.1760885034
 21
7.9988328754
  0
LWPOLYLINE
  5
454
100
AcDbEntity
  8
0
100
AcDbPolyline
 62
7
  6
CONTINUOUS
 90
6
 70
0
 10
14.2187194341
 20
7.643225988
 10
14.2208409632
 20
7.6347072355
 10
14.2290308512
 20
7.6186041463
 10
14.2411067902
 20
7.6033378801
 10
14.2568229491
 20
7.589219214
 10
14.2758593921
 20
7.5765355632
  0
LINE
  5
455
100
AcDbEntity
  8
0
100
AcDbLine
 62
7
  6
CONTINUOUS
 10
13.9969641816
 20
8.411623429
 11
13.9909815126
 21
8.4422062597
  0
LINE
  5
456
100
AcDbEntity
  8
0
100
AcDbLine
 62
7
  6
CONTINUOUS
 10
13.9969641816
 20
8.3634047823
 11
13.9900657597
 21
8.3987657842
  0
LINE
  5
457
100
AcDbEntity
  8
0
100
AcDbLine
 62
7
  6
CONTINUOUS
 10
13.9900657597
 20
8.4409410271
 11
13.9969641816
 21
8.4055800253
  0
LINE
  5
458
100
AcDbEntity
  8
0
100
AcDbLine
 62
7
  6
CONTINUOUS
 10
13.9969641816
 20
8.3151861356
 11
13.9900624661
 21
8.350600379
  0
LINE
  5
459
100
AcDbEntity
  8
0
100
AcDbLine
 62
7
  6
CONTINUOUS
 10
13.9900624661
 20
8.392775622
 11
13.9969641816
 21
8.3573613786
  0
LINE
  5
45A
100
AcDbEntity
  8
0
100
AcDbLine
 62
7
  6
CONTINUOUS
 10
14.0870274649
 20
8.0930059739
 11
14.0877067482
 21
8.0884384007
  0
LINE
  5
45B
100
AcDbEntity
  8
0
100
AcDbLine
 62
7
  6
CONTINUOUS
 10
14.0832258313
 20
8.0960937134
 11
14.0832258313
 21
8.1112736806
  0
LINE
  5
45C
100
AcDbEntity
  8
0
100
AcDbLine
 62
7
  6
CONTINUOUS
 10
14.0870274649
 20
8.0930059739
 11
14.0870274649
 21
8.1090788561
  0
LWPOLYLINE
  5
45D
100
AcDbEntity
  8
0
100
AcDbPolyline
 62
7
  6
CONTINUOUS
 90
9
 70
0
 10
14.3417882895
 20
8.263969664
 10
14.4051198918
 20
8.2611225953
 10
14.4696718686
 20
8.2637957519
 10
14.5332798003
 20
8.2720652594
 10
14.5938350912
 20
8.2856378921
 10
14.6497989466
 20
8.304006576
 10
14.7013080454
 20
8.3272238049
 10
14.7468535276
 20
8.3548252134
 10
14.7848833236
 20
8.3859305726
  0
LWPOLYLINE
  5
45E
100
AcDbEntity
  8
0
100
AcDbPolyline
 62
7
  6
CONTINUOUS
 90
9
 70
0
 10
14.3417882895
 20
8.2157510174
 10
14.4019731091
 20
8.2129169933
 10
14.463312521
 20
8.2150631049
 10
14.5239953867
 20
8.2222750208
 10
14.5821429903
 20
8.2343268114
 10
14.6363656105
 20
8.25079954
 10
14.6861542024
 20
8.2714295884
 10
14.7310022337
 20
8.296057351
 10
14.7698239887
 20
8.3242190223
  0
LINE
  5
45F
100
AcDbEntity
  8
0
100
AcDbLine
 62
7
  6
CONTINUOUS
 10
14.3092149253
 20
8.222446846
 11
14.2817506976
 21
8.226543555
  0
LINE
  5
460
100
AcDbEntity
  8
0
100
AcDbLine
 62
7
  6
CONTINUOUS
 10
14.3094739703
 20
8.2706070032
 11
14.2817506976
 21
8.2747622016
  0
LWPOLYLINE
  5
461
100
AcDbEntity
  8
0
100
AcDbPolyline
 62
7
  6
CONTINUOUS
 90
10
 70
0
 10
14.2814372356
 20
8.2776211957
 10
14.2811912149
 20
8.2776614903
 10
14.2807211168
 20
8.2776743459
 10
14.280343152
 20
8.2775779312
 10
14.2800848849
 20
8.277324829
 10
14.2800701865
 20
8.2768744059
 10
14.2803225851
 20
8.2763169088
 10
14.2807281585
 20
8.2757618086
 10
14.2812061329
 20
8.2752496989
 10
14.2817506976
 20
8.2747622016
  0
LWPOLYLINE
  5
462
100
AcDbEntity
  8
0
100
AcDbPolyline
 62
7
  6
CONTINUOUS
 90
10
 70
0
 10
14.2814374551
 20
8.2294025051
 10
14.2811912149
 20
8.2294428436
 10
14.2807211168
 20
8.2294556992
 10
14.280343152
 20
8.2293592845
 10
14.2800848849
 20
8.2291061823
 10
14.2800701865
 20
8.2286557592
 10
14.2803225851
 20
8.2280982621
 10
14.2807281585
 20
8.227543162
 10
14.2812061329
 20
8.2270310522
 10
14.2817506976
 20
8.226543555
  0
LWPOLYLINE
  5
463
100
AcDbEntity
  8
0
100
AcDbPolyline
 62
7
  6
CONTINUOUS
 90
3
 70
0
 10
14.3417882895
 20
8.2157510174
 10
14.3212662932
 20
8.2197257786
 10
14.3012499173
 20
8.224245258
  0
LWPOLYLINE
  5
464
100
AcDbEntity
  8
0
100
AcDbPolyline
 62
7
  6
CONTINUOUS
 90
4
 70
0
 10
13.9969641816
 20
8.3151861356
 10
14.0174707677
 20
8.3112146001
 10
14.0374881616
 20
8.3066953899
 10
14.0570017734
 20
8.3016096932
  0
LWPOLYLINE
  5
465
100
AcDbEntity
  8
0
100
AcDbPolyline
 62
7
  6
CONTINUOUS
 90
3
 70
0
 10
14.3417882895
 20
8.263969664
 10
14.3212662932
 20
8.2679444253
 10
14.3012499173
 20
8.2724639047
  0
LWPOLYLINE
  5
466
100
AcDbEntity
  8
0
100
AcDbPolyline
 62
7
  6
CONTINUOUS
 90
4
 70
0
 10
13.9969641816
 20
8.266967489
 10
14.017532118
 20
8.2629831092
 10
14.0375502932
 20
8.2584616531
 10
14.0570017734
 20
8.2533910465
  0
LWPOLYLINE
  5
467
100
AcDbEntity
  8
0
100
AcDbPolyline
 62
7
  6
CONTINUOUS
 90
8
 70
0
 10
14.0570017734
 20
8.3016096932
 10
14.0575763165
 20
8.3014924873
 10
14.0580584541
 20
8.3014841556
 10
14.0584435228
 20
8.3015958366
 10
14.0586835358
 20
8.3018709196
 10
14.0586690288
 20
8.3023292026
 10
14.058424822
 20
8.3028471463
 10
14.0583119764
 20
8.3030213613
  0
LINE
  5
468
100
AcDbEntity
  8
0
100
AcDbLine
 62
7
  6
CONTINUOUS
 10
14.2817506976
 20
8.2775461065
 11
14.2814372356
 21
8.2776211957
  0
LINE
  5
469
100
AcDbEntity
  8
0
100
AcDbLine
 62
7
  6
CONTINUOUS
 10
14.2817506976
 20
8.2293274598
 11
14.2814374551
 21
8.2294025051
  0
LINE
  5
46A
100
AcDbEntity
  8
0
100
AcDbLine
 62
7
  6
CONTINUOUS
 10
14.3012499173
 20
8.224245258
 11
14.2817506976
 21
8.2293274598
  0
LINE
  5
46B
100
AcDbEntity
  8
0
100
AcDbLine
 62
7
  6
CONTINUOUS
 10
14.3012499173
 20
8.2724639047
 11
14.2817506976
 21
8.2775461065
  0
LWPOLYLINE
  5
46C
100
AcDbEntity
  8
0
100
AcDbPolyline
 62
7
  6
CONTINUOUS
 90
32
 70
0
 10
14.002343833
 20
8.4472866867
 10
14.0407766147
 20
8.4269747465
 10
14.0799754841
 20
8.4095816446
 10
14.1198830738
 20
8.3947102759
 10
14.1606072113
 20
8.3820551068
 10
14.2023920077
 20
8.3713996527
 10
14.2455159669
 20
8.362633964
 10
14.289802497
 20
8.355805267
 10
14.3348403068
 20
8.3509830276
 10
14.3803574719
 20
8.3481918849
 10
14.4261157741
 20
8.3474444805
 10
14.4718368683
 20
8.3487455902
 10
14.5172389916
 20
8.3520867152
 10
14.562049923
 20
8.3574468773
 10
14.6060018279
 20
8.3647931677
 10
14.6488314165
 20
8.374080774
 10
14.6902840207
 20
8.3852538153
 10
14.7301139954
 20
8.3982458034
 10
14.7680835769
 20
8.4129792608
 10
14.8039646994
 20
8.42936589
 10
14.8375412873
 20
8.4473071503
 10
14.8686112478
 20
8.4666950609
 10
14.8969887242
 20
8.4874136655
 10
14.9225037445
 20
8.5093390799
 10
14.9450025179
 20
8.5323393902
 10
14.9643495472
 20
8.5562761223
 10
14.9804284368
 20
8.5810050166
 10
14.9931434847
 20
8.6063787921
 10
15.0024189909
 20
8.6322479514
 10
15.0081981715
 20
8.6584586054
 10
15.0104444958
 20
8.6848528889
 10
15.0104760204
 20
8.688375754
  0
LWPOLYLINE
  5
46D
100
AcDbEntity
  8
0
100
AcDbPolyline
 62
7
  6
CONTINUOUS
 90
7
 70
0
 10
14.0104978614
 20
8.42926361
 10
13.9564644609
 20
8.4650969198
 10
13.9109974494
 20
8.5052324752
 10
13.8751468989
 20
8.5487230967
 10
13.849577483
 20
8.5943928499
 10
13.8343921783
 20
8.6411755421
 10
13.8293736582
 20
8.688375754
  0
LINE
  5
46E
100
AcDbEntity
  8
0
100
AcDbLine
 62
7
  6
CONTINUOUS
 10
14.0570017734
 20
8.4008308914
 11
14.0420894962
 21
8.4134249595
  0
LWPOLYLINE
  5
46F
100
AcDbEntity
  8
0
100
AcDbPolyline
 62
7
  6
CONTINUOUS
 90
4
 70
0
 10
14.2817506976
 20
8.226543555
 10
14.3012524228
 20
8.2100734416
 10
14.3212706514
 20
8.1924072049
 10
14.3417882895
 20
8.1735757744
  0
LWPOLYLINE
  5
470
100
AcDbEntity
  8
0
100
AcDbPolyline
 62
7
  6
CONTINUOUS
 90
4
 70
0
 10
14.2817506976
 20
8.2747622016
 10
14.3012524228
 20
8.2582920883
 10
14.3212706514
 20
8.2406258516
 10
14.3417882895
 20
8.2217944211
  0
LINE
  5
471
100
AcDbEntity
  8
0
100
AcDbLine
 62
7
  6
CONTINUOUS
 10
14.0575735903
 20
8.4003166982
 11
14.0570017734
 21
8.4008308914
  0
LINE
  5
472
100
AcDbEntity
  8
0
100
AcDbLine
 62
7
  6
CONTINUOUS
 10
14.2574926097
 20
7.9912596755
 11
14.2587100209
 21
7.9882319224
  0
LINE
  5
473
100
AcDbEntity
  8
0
100
AcDbLine
 62
7
  6
CONTINUOUS
 10
14.1785680336
 20
7.7665601736
 11
14.1756531857
 21
7.7874902521
  0
LWPOLYLINE
  5
474
100
AcDbEntity
  8
0
100
AcDbPolyline
 62
7
  6
CONTINUOUS
 90
5
 70
0
 10
14.1756531857
 20
7.8164214401
 10
14.1785680336
 20
7.7954913616
 10
14.1873979104
 20
7.7748110004
 10
14.2021399463
 20
7.7549567239
 10
14.2223566088
 20
7.736702883
  0
LINE
  5
475
100
AcDbEntity
  8
0
100
AcDbLine
 62
7
  6
CONTINUOUS
 10
14.1785697133
 20
7.8629914749
 11
14.1756531857
 21
7.8839275527
  0
LWPOLYLINE
  5
476
100
AcDbEntity
  8
0
100
AcDbPolyline
 62
7
  6
CONTINUOUS
 90
5
 70
0
 10
14.1756531857
 20
7.9128587407
 10
14.1785697133
 20
7.8919226629
 10
14.1874010947
 20
7.8712427993
 10
14.2021437111
 20
7.8513899126
 10
14.2223593764
 20
7.8331380774
  0
LWPOLYLINE
  5
477
100
AcDbEntity
  8
0
100
AcDbPolyline
 62
7
  6
CONTINUOUS
 90
5
 70
0
 10
14.1756531857
 20
7.7521298677
 10
14.1785562666
 20
7.7312418569
 10
14.1873755249
 20
7.7105581201
 10
14.2021133493
 20
7.6906942032
 10
14.2223367886
 20
7.6724263884
  0
LINE
  5
478
100
AcDbEntity
  8
0
100
AcDbLine
 62
7
  6
CONTINUOUS
 10
14.1785579485
 20
7.7987419502
 11
14.1756531857
 21
7.8196359785
  0
LWPOLYLINE
  5
479
100
AcDbEntity
  8
0
100
AcDbPolyline
 62
7
  6
CONTINUOUS
 90
5
 70
0
 10
14.1756531857
 20
7.8485671665
 10
14.1785579485
 20
7.8276731382
 10
14.1873787331
 20
7.8069898721
 10
14.202117175
 20
7.787127323
 10
14.222339668
 20
7.7688614974
  0
LINE
  5
47A
100
AcDbEntity
  8
0
100
AcDbLine
 62
7
  6
CONTINUOUS
 10
14.1785596301
 20
7.8951732344
 11
14.1756531857
 21
7.9160732776
  0
LWPOLYLINE
  5
47B
100
AcDbEntity
  8
0
100
AcDbPolyline
 62
7
  6
CONTINUOUS
 90
5
 70
0
 10
14.1756531857
 20
7.9450044656
 10
14.1785596301
 20
7.9241044224
 10
14.1873819378
 20
7.9034216308
 10
14.2021209919
 20
7.8835604527
 10
14.2223425314
 20
7.8652966186
  0
LINE
  5
47C
100
AcDbEntity
  8
0
100
AcDbLine
 62
7
  6
CONTINUOUS
 10
14.178550497
 20
7.7344770703
 11
14.1756531857
 21
7.7553444399
  0
LWPOLYLINE
  5
47D
100
AcDbEntity
  8
0
100
AcDbPolyline
 62
7
  6
CONTINUOUS
 90
5
 70
0
 10
14.1756531857
 20
7.7842756279
 10
14.178550497
 20
7.7634082583
 10
14.1873648746
 20
7.7427222863
 10
14.2021009239
 20
7.7228535255
 10
14.2223275443
 20
7.7045791666
  0
LINE
  5
47E
100
AcDbEntity
  8
0
100
AcDbLine
 62
7
  6
CONTINUOUS
 10
14.1785508047
 20
7.8309132625
 11
14.1756531857
 21
7.85178173
  0
LWPOLYLINE
  5
47F
100
AcDbEntity
  8
0
100
AcDbPolyline
 62
7
  6
CONTINUOUS
 90
5
 70
0
 10
14.1756531857
 20
7.880712918
 10
14.1785508047
 20
7.8598444505
 10
14.1873653454
 20
7.8391587659
 10
14.2021013912
 20
7.8192903089
 10
14.2223278461
 20
7.801016231
  0
LINE
  5
480
100
AcDbEntity
  8
0
100
AcDbLine
 62
7
  6
CONTINUOUS
 10
14.1785511155
 20
7.9273494437
 11
14.1756531857
 21
7.9482190201
  0
LWPOLYLINE
  5
481
100
AcDbEntity
  8
0
100
AcDbPolyline
 62
7
  6
CONTINUOUS
 90
6
 70
0
 10
14.1756531857
 20
7.9771502081
 10
14.1785511155
 20
7.9562806317
 10
14.1873658209
 20
7.9355952375
 10
14.2021018632
 20
7.9157270872
 10
14.2223281509
 20
7.8974532931
 10
14.2471994157
 20
7.8814464615
  0
LINE
  5
482
100
AcDbEntity
  8
0
100
AcDbLine
 62
7
  6
CONTINUOUS
 10
14.1756531857
 20
7.7231991692
 11
14.1778857463
 21
7.7048678358
  0
LINE
  5
483
100
AcDbEntity
  8
0
100
AcDbLine
 62
7
  6
CONTINUOUS
 10
14.1758275627
 20
7.995591903
 11
14.1756804902
 21
8.0000855
  0
LWPOLYLINE
  5
484
100
AcDbEntity
  8
0
100
AcDbPolyline
 62
7
  6
CONTINUOUS
 90
3
 70
0
 10
14.1756531857
 20
7.7207884278
 10
14.1757735705
 20
7.7163611233
 10
14.1786603944
 20
7.6987271723
  0
LINE
  5
485
100
AcDbEntity
  8
02___PRT_ALL_AXES
100
AcDbLine
 62
7
  6
CONTINUOUS
 10
14.1756531857
 20
8.0001693264
 11
14.1756531857
 21
7.9771506941
  0
LINE
  5
486
100
AcDbEntity
  8
0
100
AcDbLine
 62
7
  6
CONTINUOUS
 10
14.5328882834
 20
8.3202150257
 11
14.5930856724
 21
8.3336511427
  0
LWPOLYLINE
  5
487
100
AcDbEntity
  8
0
100
AcDbPolyline
 62
7
  6
CONTINUOUS
 90
4
 70
0
 10
14.5321864838
 20
8.3261355381
 10
14.4693126255
 20
8.3180272875
 10
14.4051436637
 20
8.3153845978
 10
14.3417882895
 20
8.3182317144
  0
LWPOLYLINE
  5
488
100
AcDbEntity
  8
0
100
AcDbPolyline
 62
7
  6
CONTINUOUS
 90
4
 70
0
 10
14.3417882895
 20
8.3121883107
 10
14.4051356756
 20
8.3093412101
 10
14.4695513361
 20
8.3120041405
 10
14.5328882834
 20
8.3202150257
  0
LINE
  5
489
100
AcDbEntity
  8
0
100
AcDbLine
 62
7
  6
CONTINUOUS
 10
14.3094739703
 20
8.3188256499
 11
14.2817506976
 21
8.3229808483
  0
LWPOLYLINE
  5
48A
100
AcDbEntity
  8
0
100
AcDbPolyline
 62
7
  6
CONTINUOUS
 90
10
 70
0
 10
14.2814374109
 20
8.3258398073
 10
14.2811912149
 20
8.3258801369
 10
14.2807211168
 20
8.3258929925
 10
14.280343152
 20
8.3257965779
 10
14.2800848849
 20
8.3255434756
 10
14.2800701865
 20
8.3250930525
 10
14.2803225851
 20
8.3245355555
 10
14.2807281585
 20
8.3239804553
 10
14.2812061329
 20
8.3234683456
 10
14.2817506976
 20
8.3229808483
  0
LWPOLYLINE
  5
48B
100
AcDbEntity
  8
0
100
AcDbPolyline
 62
7
  6
CONTINUOUS
 90
4
 70
0
 10
13.9969641816
 20
8.3634047823
 10
14.0174833404
 20
8.3594306151
 10
14.0374997001
 20
8.3549112347
 10
14.0570017734
 20
8.3498283399
  0
LWPOLYLINE
  5
48C
100
AcDbEntity
  8
0
100
AcDbPolyline
 62
7
  6
CONTINUOUS
 90
3
 70
0
 10
14.3417882895
 20
8.3121883107
 10
14.3212662932
 20
8.316163072
 10
14.3012499173
 20
8.3206825513
  0
LWPOLYLINE
  5
48D
100
AcDbEntity
  8
0
100
AcDbPolyline
 62
7
  6
CONTINUOUS
 90
4
 70
0
 10
13.9969641816
 20
8.411623429
 10
14.0174833404
 20
8.4076492618
 10
14.0374997001
 20
8.4031298814
 10
14.0570017734
 20
8.3980469865
  0
LWPOLYLINE
  5
48E
100
AcDbEntity
  8
0
100
AcDbPolyline
 62
7
  6
CONTINUOUS
 90
8
 70
0
 10
14.0570017734
 20
8.3498283399
 10
14.0575763165
 20
8.349711134
 10
14.0580584541
 20
8.3497028023
 10
14.0584435228
 20
8.3498144833
 10
14.0586835358
 20
8.3500895663
 10
14.0586690288
 20
8.3505478493
 10
14.058424822
 20
8.351065793
 10
14.0583111106
 20
8.3512412546
  0
LWPOLYLINE
  5
48F
100
AcDbEntity
  8
0
100
AcDbPolyline
 62
7
  6
CONTINUOUS
 90
8
 70
0
 10
14.0570017734
 20
8.3980469865
 10
14.0575763165
 20
8.3979297807
 10
14.0580584541
 20
8.3979214489
 10
14.0584435228
 20
8.39803313
 10
14.0586835358
 20
8.3983082129
 10
14.0586690288
 20
8.3987664959
 10
14.058424822
 20
8.3992844397
 10
14.0583119613
 20
8.3994586765
  0
LINE
  5
490
100
AcDbEntity
  8
0
100
AcDbLine
 62
7
  6
CONTINUOUS
 10
14.2817506976
 20
8.3257647532
 11
14.2814374109
 21
8.3258398073
  0
LINE
  5
491
100
AcDbEntity
  8
0
100
AcDbLine
 62
7
  6
CONTINUOUS
 10
14.3012499173
 20
8.3206825513
 11
14.2817506976
 21
8.3257647532
  0
LWPOLYLINE
  5
492
100
AcDbEntity
  8
0
100
AcDbPolyline
 62
7
  6
CONTINUOUS
 90
4
 70
0
 10
14.2817506976
 20
8.3229808483
 10
14.3012524228
 20
8.306510735
 10
14.3212706514
 20
8.2888444982
 10
14.3417882895
 20
8.2700130678
  0
LINE
  5
493
100
AcDbEntity
  8
0
100
AcDbLine
 62
7
  6
CONTINUOUS
 10
14.3219823848
 20
8.3364099041
 11
14.3417882895
 21
8.3182317144
  0
LINE
  5
494
100
AcDbEntity
  8
AXIS
100
AcDbLine
 62
7
  6
CONTINUOUS
 10
13.8494968381
 20
8.953733436
 11
13.8743276311
 21
8.9115019317
  0
LWPOLYLINE
  5
495
100
AcDbEntity
  8
0
100
AcDbPolyline
 62
7
  6
CONTINUOUS
 90
4
 70
0
 10
14.2517250062
 20
7.9979199552
 10
14.2524060612
 20
7.9933471033
 10
14.2543831142
 20
7.9900076068
 10
14.2558008438
 20
7.9889090963
  0
LINE
  5
496
100
AcDbEntity
  8
0
100
AcDbLine
 62
7
  6
CONTINUOUS
 10
14.2570732361
 20
7.9957251382
 11
14.2574926097
 21
7.9912596755
  0
LINE
  5
497
100
AcDbEntity
  8
0
100
AcDbLine
 62
7
  6
CONTINUOUS
 10
14.2517250062
 20
8.0139928375
 11
14.2517250062
 21
7.9979199552
  0
LINE
  5
498
100
AcDbEntity
  8
0
100
AcDbLine
 62
7
  6
CONTINUOUS
 10
14.2570732361
 20
8.0109051054
 11
14.2570732361
 21
7.9957251382
  0
LINE
  5
499
100
AcDbEntity
  8
0
100
AcDbLine
 62
7
  6
CONTINUOUS
 10
14.1756531857
 20
7.9160732776
 11
14.1776917439
 21
7.9303453326
  0
LINE
  5
49A
100
AcDbEntity
  8
0
100
AcDbLine
 62
7
  6
CONTINUOUS
 10
14.1756531857
 20
7.9482190201
 11
14.1776912394
 21
7.9624730695
  0
LINE
  5
49B
100
AcDbEntity
  8
AXIS
100
AcDbLine
 62
7
  6
CONTINUOUS
 10
13.8743276311
 20
8.9115019317
 11
13.9084937436
 21
8.8715029291
  0
LINE
  5
49C
100
AcDbEntity
  8
0
100
AcDbLine
 62
7
  6
CONTINUOUS
 10
14.3417882895
 20
8.3182317144
 11
14.3417882895
 21
8.3121883107
  0
LINE
  5
49D
100
AcDbEntity
  8
0
100
AcDbLine
 62
7
  6
CONTINUOUS
 10
14.3417882895
 20
8.2700130678
 11
14.3417882895
 21
8.263969664
  0
LINE
  5
49E
100
AcDbEntity
  8
0
100
AcDbLine
 62
7
  6
CONTINUOUS
 10
14.3417882895
 20
8.2217944211
 11
14.3417882895
 21
8.2157510174
  0
LINE
  5
49F
100
AcDbEntity
  8
0
100
AcDbLine
 62
7
  6
CONTINUOUS
 10
14.3417882895
 20
8.1735757744
 11
14.3417882895
 21
8.1675323707
  0
LINE
  5
4A0
100
AcDbEntity
  8
0
100
AcDbLine
 62
7
  6
CONTINUOUS
 10
14.3417882895
 20
8.1253571277
 11
14.3417882895
 21
8.119313724
  0
LINE
  5
4A1
100
AcDbEntity
  8
0
100
AcDbLine
 62
7
  6
CONTINUOUS
 10
14.3417882895
 20
8.077138481
 11
14.3417882895
 21
8.0710950773
  0
LINE
  5
4A2
100
AcDbEntity
  8
0
100
AcDbLine
 62
7
  6
CONTINUOUS
 10
14.3417882895
 20
8.0289198344
 11
14.3417882895
 21
8.0228764306
  0
LINE
  5
4A3
100
AcDbEntity
  8
0
100
AcDbLine
 62
7
  6
CONTINUOUS
 10
14.3417882895
 20
7.9807011877
 11
14.3417882895
 21
7.974657784
  0
LINE
  5
4A4
100
AcDbEntity
  8
0
100
AcDbLine
 62
7
  6
CONTINUOUS
 10
14.1756531857
 20
7.8839275527
 11
14.1776922738
 21
7.8982212978
  0
LINE
  5
4A5
100
AcDbEntity
  8
0
100
AcDbLine
 62
7
  6
CONTINUOUS
 10
14.1756531857
 20
7.7874902521
 11
14.1776921871
 21
7.8017803815
  0
LINE
  5
4A6
100
AcDbEntity
  8
0
100
AcDbLine
 62
7
  6
CONTINUOUS
 10
14.1756531857
 20
7.8196359785
 11
14.1776916534
 21
7.8339044194
  0
LINE
  5
4A7
100
AcDbEntity
  8
0
100
AcDbLine
 62
7
  6
CONTINUOUS
 10
14.1756531857
 20
7.85178173
 11
14.1776911872
 21
7.8660353615
  0
LINE
  5
4A8
100
AcDbEntity
  8
0
100
AcDbLine
 62
7
  6
CONTINUOUS
 10
14.1756531857
 20
7.7553444399
 11
14.1776911347
 21
7.7695976629
  0
LWPOLYLINE
  5
4A9
100
AcDbEntity
  8
0
100
AcDbPolyline
 62
7
  6
CONTINUOUS
 90
3
 70
0
 10
14.1776893584
 20
7.7374793643
 10
14.1756857871
 20
7.7254195953
 10
14.1756531857
 20
7.7231991692
  0
LINE
  5
4AA
100
AcDbEntity
  8
AXIS
100
AcDbLine
 62
7
  6
CONTINUOUS
 10
13.9084937436
 20
8.8715029291
 11
13.9514105839
 21
8.834420822
  0
LINE
  5
4AB
100
AcDbEntity
  8
AXIS
100
AcDbLine
 62
7
  6
CONTINUOUS
 10
14.0499405352
 20
8.7762372739
 11
14.002343833
 21
8.8008900957
  0
LINE
  5
4AC
100
AcDbEntity
  8
AXIS
100
AcDbLine
 62
7
  6
CONTINUOUS
 10
13.9514105839
 20
8.834420822
 11
14.002343833
 21
8.8008900957
  0
LINE
  5
4AD
100
AcDbEntity
  8
AXIS
100
AcDbLine
 62
7
  6
CONTINUOUS
 10
14.060422009
 20
8.7714844702
 11
14.002343833
 21
8.8008900957
  0
LWPOLYLINE
  5
4AE
100
AcDbEntity
  8
0
100
AcDbPolyline
 62
7
  6
CONTINUOUS
 90
3
 70
0
 10
14.6626616916
 20
7.8805660342
 10
14.6640358534
 20
7.8731543982
 10
14.6641964925
 20
7.8678621146
  0
LWPOLYLINE
  5
4AF
100
AcDbEntity
  8
0
100
AcDbPolyline
 62
7
  6
CONTINUOUS
 90
3
 70
0
 10
14.6626527899
 20
7.7841522448
 10
14.6640419537
 20
7.7766155404
 10
14.6641964925
 20
7.7714250776
  0
LINE
  5
4B0
100
AcDbEntity
  8
0
100
AcDbLine
 62
7
  6
CONTINUOUS
 10
14.6623010617
 20
7.8182158452
 11
14.6641964928
 21
7.8035640519
  0
LINE
  5
4B1
100
AcDbEntity
  8
0
100
AcDbLine
 62
7
  6
CONTINUOUS
 10
14.6623009793
 20
7.9146495189
 11
14.6641964928
 21
7.9000013383
  0
LINE
  5
4B2
100
AcDbEntity
  8
0
100
AcDbLine
 62
7
  6
CONTINUOUS
 10
14.662301568
 20
7.8503833168
 11
14.6641964928
 21
7.8357098526
  0
LINE
  5
4B3
100
AcDbEntity
  8
0
100
AcDbLine
 62
7
  6
CONTINUOUS
 10
14.6623014822
 20
7.9468169936
 11
14.6641964928
 21
7.9321471406
  0
LINE
  5
4B4
100
AcDbEntity
  8
0
100
AcDbLine
 62
7
  6
CONTINUOUS
 10
14.6623018432
 20
7.978971138
 11
14.6641964928
 21
7.9642929004
  0
LWPOLYLINE
  5
4B5
100
AcDbEntity
  8
0
100
AcDbPolyline
 62
7
  6
CONTINUOUS
 90
3
 70
0
 10
14.6641964928
 20
7.7392720376
 10
14.6641073354
 20
7.7432202612
 10
14.6622821047
 20
7.753802124
  0
LINE
  5
4B6
100
AcDbEntity
  8
02___PRT_ALL_AXES
100
AcDbLine
 62
7
  6
CONTINUOUS
 10
14.6641964928
 20
8.0001693264
 11
14.6641964928
 21
7.9932235763
  0
LWPOLYLINE
  5
4B7
100
AcDbEntity
  8
0
100
AcDbPolyline
 62
7
  6
CONTINUOUS
 90
3
 70
0
 10
14.6641964925
 20
7.8678621146
 10
14.6626355765
 20
7.8513587341
 10
14.6558734013
 20
7.8300154695
  0
LWPOLYLINE
  5
4B8
100
AcDbEntity
  8
0
100
AcDbPolyline
 62
7
  6
CONTINUOUS
 90
10
 70
0
 10
14.6641964925
 20
7.7714250776
 10
14.6626129144
 20
7.7548024901
 10
14.6558122777
 20
7.733441789
 10
14.643863794
 20
7.7129840773
 10
14.6269600684
 20
7.6937123707
 10
14.6051537774
 20
7.6758461036
 10
14.5789949774
 20
7.6599825497
 10
14.5493694238
 20
7.646640117
 10
14.517293573
 20
7.6361389429
 10
14.4831479777
 20
7.6284980743
  0
LWPOLYLINE
  5
4B9
100
AcDbEntity
  8
0
100
AcDbPolyline
 62
7
  6
CONTINUOUS
 90
17
 70
0
 10
14.6640935312
 20
7.9998532281
 10
14.6626825009
 20
7.9852424064
 10
14.6559258519
 20
7.9645327144
 10
14.6438968446
 20
7.9446320676
 10
14.6268764579
 20
7.9259993778
 10
14.6052309651
 20
7.9090329431
 10
14.5794614158
 20
7.8941243962
 10
14.5501193084
 20
7.8815927216
 10
14.5178813827
 20
7.8717277428
 10
14.4834380309
 20
7.8647420181
 10
14.4475816494
 20
7.8607983064
 10
14.411083776
 20
7.8599838639
 10
14.3747825556
 20
7.8623206078
 10
14.3394652974
 20
7.8677614715
 10
14.3059427111
 20
7.8761861937
 10
14.2749500513
 20
7.8874152037
 10
14.2471994157
 20
7.9011972761
  0
LWPOLYLINE
  5
4BA
100
AcDbEntity
  8
0
100
AcDbPolyline
 62
7
  6
CONTINUOUS
 90
21
 70
0
 10
14.6641964928
 20
7.7360574585
 10
14.6624558196
 20
7.7186401722
 10
14.6553301085
 20
7.6970234162
 10
14.6428611634
 20
7.6762614088
 10
14.6253318057
 20
7.6568076017
 10
14.6031396525
 20
7.6390859937
 10
14.5767886314
 20
7.6234816154
 10
14.5468773054
 20
7.6103313321
 10
14.5140848073
 20
7.5999160475
 10
14.4791552458
 20
7.5924544812
 10
14.4428810763
 20
7.5880984059
 10
14.4060855994
 20
7.5869292374
 10
14.3696042986
 20
7.5889560363
 10
14.3342648189
 20
7.5941153533
 10
14.300868945
 20
7.6022727915
 10
14.2701754168
 20
7.6132256655
 10
14.2428821095
 20
7.6267072747
 10
14.2196144309
 20
7.6423888916
 10
14.2008899088
 20
7.6599020607
 10
14.1871345687
 20
7.678830915
 10
14.1786603944
 20
7.6987271723
  0
LWPOLYLINE
  5
4BB
100
AcDbEntity
  8
0
100
AcDbPolyline
 62
7
  6
CONTINUOUS
 90
15
 70
0
 10
14.6641964928
 20
7.9642929004
 10
14.661124799
 20
7.9411853562
 10
14.6522207645
 20
7.9190676754
 10
14.6377112444
 20
7.8980198442
 10
14.6177605083
 20
7.8783628751
 10
14.5926153253
 20
7.8605304706
 10
14.5631262619
 20
7.8452082886
 10
14.530463557
 20
7.8328961507
 10
14.4953943509
 20
7.8237343065
 10
14.4584259387
 20
7.817800207
 10
14.4202548689
 20
7.8152346995
 10
14.3822427571
 20
7.8161233946
 10
14.3450362744
 20
7.8204246674
 10
14.3092538729
 20
7.8281267916
 10
14.2762523657
 20
7.8389837878
  0
LWPOLYLINE
  5
4BC
100
AcDbEntity
  8
0
100
AcDbPolyline
 62
7
  6
CONTINUOUS
 90
15
 70
0
 10
14.6641964928
 20
7.9321471406
 10
14.6611272245
 20
7.9090486614
 10
14.6522234481
 20
7.886926857
 10
14.6377180549
 20
7.8658821362
 10
14.6177707068
 20
7.8462256053
 10
14.5926291801
 20
7.8283931127
 10
14.5631437216
 20
7.8130702706
 10
14.5304842523
 20
7.8007569363
 10
14.4954142578
 20
7.7915927145
 10
14.4584604132
 20
7.785658352
 10
14.4203049016
 20
7.7830900249
 10
14.3822982071
 20
7.783973811
 10
14.3450887302
 20
7.7882703065
 10
14.3092938189
 20
7.7959702474
 10
14.2762729175
 20
7.8068299273
  0
LINE
  5
4BD
100
AcDbEntity
  8
0
100
AcDbLine
 62
7
  6
CONTINUOUS
 10
14.655114444
 20
8.3607365671
 11
14.64840711
 21
8.3577333131
  0
LWPOLYLINE
  5
4BE
100
AcDbEntity
  8
0
100
AcDbPolyline
 62
7
  6
CONTINUOUS
 90
3
 70
0
 10
14.5930856724
 20
8.3336511427
 10
14.6492244106
 20
8.3520037221
 10
14.6858672165
 20
8.3684823151
  0
LWPOLYLINE
  5
4BF
100
AcDbEntity
  8
0
100
AcDbPolyline
 62
7
  6
CONTINUOUS
 90
3
 70
0
 10
14.64840711
 20
8.3577333131
 10
14.5920987408
 20
8.339425572
 10
14.5321864838
 20
8.3261355381
  0
LWPOLYLINE
  5
4C0
100
AcDbEntity
  8
0
100
AcDbPolyline
 62
7
  6
CONTINUOUS
 90
21
 70
0
 10
14.0650239279
 20
9.0911657283
 10
14.1191431387
 20
9.064091669
 10
14.1793868469
 20
9.0417392038
 10
14.2445272925
 20
9.0245641625
 10
14.3132378595
 20
9.0129162563
 10
14.3841205022
 20
9.0070324485
 10
14.4557320132
 20
9.0070325656
 10
14.5266144845
 20
9.0129165911
 10
14.5953251937
 20
9.0245647671
 10
14.6604651265
 20
9.0417399272
 10
14.7207084255
 20
9.064092484
 10
14.7748285807
 20
9.0911673622
 10
14.8217239019
 20
9.122413407
 10
14.8604397615
 20
9.157194566
 10
14.8901879394
 20
9.1948027154
 10
14.9103629381
 20
9.2344723857
 10
14.9205539739
 20
9.2753958543
 10
14.9205536307
 20
9.3167401996
 10
14.9103618981
 20
9.3576636584
 10
14.8901862989
 20
9.3973331079
 10
14.8710277598
 20
9.4231049329
  0
LINE
  5
4C1
100
AcDbEntity
  8
0
100
AcDbLine
 62
7
  6
CONTINUOUS
 10
14.6623011524
 20
7.7211001617
 11
14.6641964928
 21
7.7392720376
  0
LINE
  5
4C2
100
AcDbEntity
  8
0
100
AcDbLine
 62
7
  6
CONTINUOUS
 10
14.6641964928
 20
7.9000013383
 11
14.6611348714
 21
7.8769315154
  0
LWPOLYLINE
  5
4C3
100
AcDbEntity
  8
0
100
AcDbPolyline
 62
7
  6
CONTINUOUS
 90
15
 70
0
 10
14.6641964928
 20
7.8035640519
 10
14.661133594
 20
7.7804894389
 10
14.6522333044
 20
7.7583619705
 10
14.6377340785
 20
7.7373180384
 10
14.6177918155
 20
7.7176601336
 10
14.5926547528
 20
7.699825575
 10
14.5631727931
 20
7.6845001141
 10
14.5305156226
 20
7.6721838098
 10
14.4954442832
 20
7.663015952
 10
14.4585004678
 20
7.6570798402
 10
14.420356321
 20
7.6545080934
 10
14.3823522085
 20
7.655387041
 10
14.3451384028
 20
7.6596791152
 10
14.3093311318
 20
7.6673771252
 10
14.2762922465
 20
7.6782392567
  0
LWPOLYLINE
  5
4C4
100
AcDbEntity
  8
0
100
AcDbPolyline
 62
7
  6
CONTINUOUS
 90
15
 70
0
 10
14.6641964928
 20
7.8357098526
 10
14.6611259541
 20
7.812606617
 10
14.6522214573
 20
7.7904858945
 10
14.6377148319
 20
7.7694410301
 10
14.6177664729
 20
7.7497847853
 10
14.5926240653
 20
7.7319527157
 10
14.5631379235
 20
7.7166304046
 10
14.5304780133
 20
7.7043176681
 10
14.4954083112
 20
7.6951541746
 10
14.4584523759
 20
7.6892201469
 10
14.4202946118
 20
7.6866525069
 10
14.3822874228
 20
7.6875372598
 10
14.3450788325
 20
7.6918346346
 10
14.3092864101
 20
7.699534953
 10
14.2762691184
 20
7.7103941304
  0
LWPOLYLINE
  5
4C5
100
AcDbEntity
  8
0
100
AcDbPolyline
 62
7
  6
CONTINUOUS
 90
10
 70
0
 10
14.8079691858
 20
8.4182463446
 10
14.7849719902
 20
8.3920590835
 10
14.7468454773
 20
8.3608629598
 10
14.701085056
 20
8.3331506688
 10
14.6492244106
 20
8.3098284791
 10
14.5930856724
 20
8.2914758997
 10
14.5328882834
 20
8.2780397827
 10
14.4695513361
 20
8.2698288976
 10
14.4051356756
 20
8.2671659672
 10
14.3417882895
 20
8.2700130678
  0
LWPOLYLINE
  5
4C6
100
AcDbEntity
  8
0
100
AcDbPolyline
 62
7
  6
CONTINUOUS
 90
3
 70
0
 10
14.7848833236
 20
8.3859305726
 10
14.8144383263
 20
8.4195477235
 10
14.8159077532
 20
8.4220610814
  0
LWPOLYLINE
  5
4C7
100
AcDbEntity
  8
0
100
AcDbPolyline
 62
7
  6
CONTINUOUS
 90
3
 70
0
 10
14.8481930587
 20
8.3061851727
 10
14.8494801065
 20
8.2996620835
 10
14.8500429453
 20
8.2866054468
  0
LWPOLYLINE
  5
4C8
100
AcDbEntity
  8
0
100
AcDbPolyline
 62
7
  6
CONTINUOUS
 90
3
 70
0
 10
14.8478337822
 20
8.3542837979
 10
14.8497870365
 20
8.3436180545
 10
14.8500429446
 20
8.3348270623
  0
LWPOLYLINE
  5
4C9
100
AcDbEntity
  8
0
100
AcDbPolyline
 62
7
  6
CONTINUOUS
 90
3
 70
0
 10
14.8478339167
 20
8.4025032927
 10
14.8497868491
 20
8.3918399317
 10
14.8500429445
 20
8.3830460947
  0
LINE
  5
4CA
100
AcDbEntity
  8
0
100
AcDbLine
 62
7
  6
CONTINUOUS
 10
14.8492116314
 20
8.4425780677
 11
14.8500429441
 21
8.4312663995
  0
LWPOLYLINE
  5
4CB
100
AcDbEntity
  8
0
100
AcDbPolyline
 62
7
  6
CONTINUOUS
 90
3
 70
0
 10
14.8500429495
 20
8.238351169
 10
14.849797953
 20
8.2469904372
 10
14.8478267127
 20
8.2577916693
  0
LWPOLYLINE
  5
4CC
100
AcDbEntity
  8
0
100
AcDbPolyline
 62
7
  6
CONTINUOUS
 90
14
 70
0
 10
14.8500429441
 20
8.4312663995
 10
14.8494189493
 20
8.4174408524
 10
14.8417771932
 20
8.3812695272
 10
14.8256002763
 20
8.3461064816
 10
14.8015173159
 20
8.3129623485
 10
14.7698239887
 20
8.2820437794
 10
14.7310022337
 20
8.253882108
 10
14.6861542024
 20
8.2292543454
 10
14.6363656105
 20
8.2086242971
 10
14.5821429903
 20
8.1921515684
 10
14.5239953867
 20
8.1800997779
 10
14.463312521
 20
8.1728878619
 10
14.4019731091
 20
8.1707417503
 10
14.3417882895
 20
8.1735757744
  0
LWPOLYLINE
  5
4CD
100
AcDbEntity
  8
0
100
AcDbPolyline
 62
7
  6
CONTINUOUS
 90
6
 70
0
 10
14.8500429453
 20
8.2866054468
 10
14.8486030914
 20
8.2656396598
 10
14.8400904627
 20
8.2318050713
 10
14.8241701027
 20
8.1990676324
 10
14.8013828199
 20
8.1681520359
 10
14.7722579957
 20
8.1394491783
  0
LINE
  5
4CE
100
AcDbEntity
  8
0
100
AcDbLine
 62
7
  6
CONTINUOUS
 10
14.847192928
 20
8.2089277153
 11
14.8500429495
 21
8.238351169
  0
LWPOLYLINE
  5
4CF
100
AcDbEntity
  8
0
100
AcDbPolyline
 62
7
  6
CONTINUOUS
 90
13
 70
0
 10
14.8500429495
 20
8.2323077515
 10
14.8471929645
 20
8.2028844995
 10
14.835127854
 20
8.1654536215
 10
14.8138700538
 20
8.1294585054
 10
14.7838901796
 20
8.0956703795
 10
14.745851186
 20
8.0648114187
 10
14.7005952079
 20
8.0375399295
 10
14.6491250583
 20
8.0144349675
 10
14.5925808552
 20
7.9959828198
 10
14.5322142464
 20
7.982566455
 10
14.4693614855
 20
7.9744574969
 10
14.4054142885
 20
7.9718101754
 10
14.3417882895
 20
7.974657784
  0
LWPOLYLINE
  5
4D0
100
AcDbEntity
  8
0
100
AcDbPolyline
 62
7
  6
CONTINUOUS
 90
4
 70
0
 10
14.8500429445
 20
8.3830460947
 10
14.8471633577
 20
8.3534318982
 10
14.8348603223
 20
8.3155662936
 10
14.8133655115
 20
8.2794734685
  0
LWPOLYLINE
  5
4D1
100
AcDbEntity
  8
0
100
AcDbPolyline
 62
7
  6
CONTINUOUS
 90
5
 70
0
 10
14.8500429446
 20
8.3348270623
 10
14.8471631998
 20
8.3052124434
 10
14.8348609255
 20
8.2673489635
 10
14.8133660758
 20
8.2312555843
 10
14.783542533
 20
8.1978212542
  0
LWPOLYLINE
  5
4D2
100
AcDbEntity
  8
0
100
AcDbPolyline
 62
7
  6
CONTINUOUS
 90
17
 70
0
 10
14.6216849572
 20
7.6454535163
 10
14.6190090759
 20
7.6347081926
 10
14.6108194202
 20
7.618605064
 10
14.5987437013
 20
7.6033387398
 10
14.5830277461
 20
7.5892199981
 10
14.563991486
 20
7.5765362558
 10
14.5420224445
 20
7.5655457174
 10
14.5175678478
 20
7.5564721186
 10
14.491125521
 20
7.5495001716
 10
14.4632337537
 20
7.5447718052
 10
14.4344603418
 20
7.5423832753
 10
14.4053910289
 20
7.5423832054
 10
14.3766175826
 20
7.544771597
 10
14.3487257471
 20
7.5494998293
 10
14.3222833197
 20
7.5564716492
 10
14.2978285922
 20
7.5655451305
 10
14.2758593921
 20
7.5765355632
  0
LWPOLYLINE
  5
4D3
100
AcDbEntity
  8
0
100
AcDbPolyline
 62
7
  6
CONTINUOUS
 90
3
 70
0
 10
14.6558734013
 20
7.8589466575
 10
14.6626355765
 20
7.8802899221
 10
14.6641964925
 20
7.8967933026
  0
LWPOLYLINE
  5
4D4
100
AcDbEntity
  8
0
100
AcDbPolyline
 62
7
  6
CONTINUOUS
 90
12
 70
0
 10
14.843605524
 20
8.4389991365
 10
14.8354644094
 20
8.4133362099
 10
14.8144383263
 20
8.3773724805
 10
14.7848833236
 20
8.3437553296
 10
14.7468535276
 20
8.3126499704
 10
14.7013080454
 20
8.2850485619
 10
14.6497989466
 20
8.2618313331
 10
14.5938350912
 20
8.2434626492
 10
14.5332798003
 20
8.2298900165
 10
14.4696718686
 20
8.2216205089
 10
14.4051198918
 20
8.2189473524
 10
14.3417882895
 20
8.2217944211
  0
LINE
  5
4D5
100
AcDbEntity
  8
02___PRT_ALL_AXES
100
AcDbLine
 62
7
  6
CONTINUOUS
 10
14.6721881975
 20
8.0247043301
 11
14.6637611758
 21
7.9988328775
  0
LWPOLYLINE
  5
4D6
100
AcDbEntity
  8
0
100
AcDbPolyline
 62
7
  6
CONTINUOUS
 90
16
 70
0
 10
14.6637609571
 20
7.9988322062
 10
14.6596347257
 20
7.9883479088
 10
14.6474166767
 20
7.9681345137
 10
14.6301288062
 20
7.949209002
 10
14.6081431437
 20
7.9319759314
 10
14.581968613
 20
7.9168330893
 10
14.5521653797
 20
7.9041044731
 10
14.5194208188
 20
7.8940844611
 10
14.4844361725
 20
7.886988952
 10
14.44801629
 20
7.8829832627
 10
14.4109448343
 20
7.8821560206
 10
14.3740731222
 20
7.8845294865
 10
14.3382008354
 20
7.8900558587
 10
14.3041514266
 20
7.8986129694
 10
14.2726716968
 20
7.9100184726
 10
14.2444849492
 20
7.924017123
  0
LWPOLYLINE
  5
4D7
100
AcDbEntity
  8
0
100
AcDbPolyline
 62
7
  6
CONTINUOUS
 90
14
 70
0
 10
14.6611348714
 20
7.8769315154
 10
14.6522352563
 20
7.8548028633
 10
14.637737265
 20
7.833759103
 10
14.6177960251
 20
7.8141009347
 10
14.5926598671
 20
7.7962659728
 10
14.5631786236
 20
7.7809399954
 10
14.5305219318
 20
7.768623101
 10
14.4954503467
 20
7.759454517
 10
14.4585084522
 20
7.7535180402
 10
14.4203665989
 20
7.7509456126
 10
14.3823630248
 20
7.7518235917
 10
14.3451483741
 20
7.7561147766
 10
14.3093386482
 20
7.7638123917
 10
14.276296179
 20
7.7746750015
  0
LWPOLYLINE
  5
4D8
100
AcDbEntity
  8
0
100
AcDbPolyline
 62
7
  6
CONTINUOUS
 90
5
 70
0
 10
14.7698239887
 20
8.3242190223
 10
14.8015173159
 20
8.3551375915
 10
14.8256002763
 20
8.3882817245
 10
14.8417771932
 20
8.4234447702
 10
14.845290559
 20
8.4400748606
  0
LWPOLYLINE
  5
4D9
100
AcDbEntity
  8
AXIS
100
AcDbPolyline
 62
7
  6
CONTINUOUS
 90
22
 70
0
 10
15.0104749482
 20
9.041979163
 10
15.0085281035
 20
9.0143095096
 10
14.9998959814
 20
8.9777301221
 10
14.9844642279
 20
8.941903996
 10
14.9624137662
 20
8.9072511596
 10
14.9340031179
 20
8.8741778859
 10
14.8995653718
 20
8.8430719288
 10
14.8595042789
 20
8.8142979771
 10
14.8142895191
 20
8.7881933792
 10
14.7644511939
 20
8.7650641875
 10
14.7105736123
 20
8.7451815707
 10
14.6532884395
 20
8.7287786344
 10
14.5932672919
 20
8.7160476878
 10
14.5312138625
 20
8.7071379899
 10
14.4678556711
 20
8.7021539985
 10
14.4039355345
 20
8.7011541465
 10
14.3402028578
 20
8.7041501561
 10
14.2774048485
 20
8.711106902
 10
14.2162777558
 20
8.7219428227
 10
14.157538239
 20
8.7365308768
 10
14.1018749651
 20
8.7547000328
 10
14.0499405352
 20
8.7762372739
  0
LWPOLYLINE
  5
4DA
100
AcDbEntity
  8
AXIS
100
AcDbPolyline
 62
7
  6
CONTINUOUS
 90
18
 70
0
 10
15.0104760204
 20
9.041979167
 10
15.0054240941
 20
8.9974776639
 10
14.9903541132
 20
8.9537361783
 10
14.9655239293
 20
8.9115045547
 10
14.9313583937
 20
8.8715053877
 10
14.8884420882
 20
8.8344230743
 10
14.8375093226
 20
8.8008921032
 10
14.7794315708
 20
8.7714861985
 10
14.7152025591
 20
8.7467085034
 10
14.6459212638
 20
8.7269829711
 10
14.572773107
 20
8.7126471111
 10
14.4970096739
 20
8.7039462137
 10
14.419927298
 20
8.7010291538
 10
14.34284488
 20
8.7039458431
 10
14.2670813214
 20
8.7126463763
 10
14.1939329578
 20
8.7269818847
 10
14.124651378
 20
8.7467070839
 10
14.060422009
 20
8.7714844702
  0
LWPOLYLINE
  5
4DB
100
AcDbEntity
  8
0
100
AcDbPolyline
 62
7
  6
CONTINUOUS
 90
3
 70
0
 10
14.6522214573
 20
7.8194170825
 10
14.6611259541
 20
7.841537805
 10
14.6641964928
 20
7.8646410406
  0
LWPOLYLINE
  5
4DC
100
AcDbEntity
  8
0
100
AcDbPolyline
 62
7
  6
CONTINUOUS
 90
5
 70
0
 10
14.6464961031
 20
7.6823139373
 10
14.6413119575
 20
7.6702439978
 10
14.6271483468
 20
7.6506264466
 10
14.6079058212
 20
7.6324069437
 10
14.5829477457
 20
7.6154638153
  0
LWPOLYLINE
  5
4DD
100
AcDbEntity
  8
0
100
AcDbPolyline
 62
7
  6
CONTINUOUS
 90
10
 70
0
 10
14.8133655115
 20
8.2794734685
 10
14.7835118364
 20
8.2460108307
 10
14.7455781133
 20
8.2153204002
 10
14.700698951
 20
8.1882933121
 10
14.6496938611
 20
8.1653534704
 10
14.5937361106
 20
8.1469981707
 10
14.5332017164
 20
8.1334389672
 10
14.4696185739
 20
8.1251786774
 10
14.4050933836
 20
8.1225101133
 10
14.3417882895
 20
8.1253571277
  0
LWPOLYLINE
  5
4DE
100
AcDbEntity
  8
0
100
AcDbPolyline
 62
7
  6
CONTINUOUS
 90
6
 70
0
 10
14.7722579957
 20
8.1816244213
 10
14.8013828199
 20
8.2103272788
 10
14.8241701027
 20
8.2412428754
 10
14.8400904627
 20
8.2739803142
 10
14.8486030914
 20
8.3078149028
 10
14.8500429453
 20
8.3287806897
  0
LWPOLYLINE
  5
4DF
100
AcDbEntity
  8
0
100
AcDbPolyline
 62
7
  6
CONTINUOUS
 90
9
 70
0
 10
14.783542533
 20
8.1978212542
 10
14.7457974015
 20
8.1672545929
 10
14.7009243673
 20
8.1401921996
 10
14.6497140511
 20
8.1171426164
 10
14.5937130066
 20
8.098773181
 10
14.5331849486
 20
8.0852173678
 10
14.4696044947
 20
8.0769588325
 10
14.4050821609
 20
8.07429149
 10
14.3417882895
 20
8.077138481
  0
LWPOLYLINE
  5
4E0
100
AcDbEntity
  8
0
100
AcDbPolyline
 62
7
  6
CONTINUOUS
 90
6
 70
0
 10
14.7451852675
 20
8.1125664896
 10
14.78346885
 20
8.1434894391
 10
14.8133333682
 20
8.1769493527
 10
14.8348452638
 20
8.213052737
 10
14.8471587027
 20
8.2509273829
 10
14.8500429446
 20
8.2805650555
  0
LWPOLYLINE
  5
4E1
100
AcDbEntity
  8
0
100
AcDbPolyline
 62
7
  6
CONTINUOUS
 90
9
 70
0
 10
14.7722579957
 20
8.1394491783
 10
14.7336576282
 20
8.1109151244
 10
14.6883520822
 20
8.0856552019
 10
14.6376981579
 20
8.0644457427
 10
14.5830026013
 20
8.0477149197
 10
14.5244400057
 20
8.0355161721
 10
14.463550496
 20
8.0282501588
 10
14.4022371362
 20
8.0260842044
 10
14.3417882895
 20
8.0289198344
  0
LWPOLYLINE
  5
4E2
100
AcDbEntity
  8
0
100
AcDbPolyline
 62
7
  6
CONTINUOUS
 90
21
 70
0
 10
14.1742242083
 20
9.241705725
 10
14.2156841607
 20
9.2212620303
 10
14.2621749195
 20
9.2048138026
 10
14.3125498252
 20
9.192767044
 10
14.365568335
 20
9.1854183283
 10
14.4199255604
 20
9.1829485113
 10
14.4742826171
 20
9.1854184448
 10
14.5273012796
 20
9.1927673115
 10
14.5776759149
 20
9.2048141426
 10
14.6241662159
 20
9.2212623231
 10
14.6656273761
 20
9.2417068253
 10
14.7010385006
 20
9.2656442417
 10
14.7295276582
 20
9.2924851641
 10
14.7503933183
 20
9.3215686445
 10
14.763121729
 20
9.3521785961
 10
14.7673994505
 20
9.3835612341
 10
14.7631211535
 20
9.4149439089
 10
14.75039223
 20
9.4455536966
 10
14.7295259808
 20
9.4746371438
 10
14.701036167
 20
9.50147802
 10
14.6656254702
 20
9.5254146823
  0
LINE
  5
4E3
100
AcDbEntity
  8
AXIS
100
AcDbLine
 62
7
  6
CONTINUOUS
 10
15.0104760204
 20
9.041979163
 11
15.0104760204
 21
8.688375754
  0
LWPOLYLINE
  5
4E4
100
AcDbEntity
  8
0
100
AcDbPolyline
 62
7
  6
CONTINUOUS
 90
18
 70
0
 10
15.0104760204
 20
8.688375754
 10
15.0052047069
 20
8.6400075323
 10
14.9891663232
 20
8.591908726
 10
14.9622823884
 20
8.5452529163
 10
14.9246634933
 20
8.5009905882
 10
14.8770761747
 20
8.4603667536
 10
14.8206216314
 20
8.4243262513
 10
14.7567202595
 20
8.3936195886
 10
14.686758387
 20
8.3687067755
 10
14.6120011763
 20
8.3498775623
 10
14.5338981623
 20
8.3373833838
 10
14.4538260078
 20
8.3313642384
 10
14.3731790202
 20
8.3318865646
 10
14.2934023039
 20
8.3389350194
 10
14.2158521869
 20
8.3524197865
 10
14.1419903469
 20
8.3721480539
 10
14.0731258239
 20
8.3978647154
 10
14.0104978614
 20
8.42926361
  0
LWPOLYLINE
  5
4E5
100
AcDbEntity
  8
0
100
AcDbPolyline
 62
7
  6
CONTINUOUS
 90
14
 70
0
 10
14.6558734013
 20
7.8300154695
 10
14.6439502526
 20
7.809540613
 10
14.6270747942
 20
7.7902600829
 10
14.6052976196
 20
7.7723847059
 10
14.5791611068
 20
7.756506806
 10
14.5495492637
 20
7.7431467958
 10
14.5174833806
 20
7.7326282554
 10
14.4833620165
 20
7.7249731813
 10
14.4476689551
 20
7.7202853071
 10
14.4112022792
 20
7.718697577
 10
14.3751575807
 20
7.7202360122
 10
14.3398394918
 20
7.7248762518
 10
14.3059917351
 20
7.7325876103
 10
14.274780638
 20
7.74313109
  0
LWPOLYLINE
  5
4E6
100
AcDbEntity
  8
0
100
AcDbPolyline
 62
7
  6
CONTINUOUS
 90
7
 70
0
 10
14.6733588266
 20
8.0253135116
 10
14.643526611
 20
8.0097891784
 10
14.5944026766
 20
7.9914020778
 10
14.5412955641
 20
7.9778209705
 10
14.4854465188
 20
7.9692772725
 10
14.428131281
 20
7.9659145276
 10
14.3706471542
 20
7.967786788
  0
LWPOLYLINE
  5
4E7
100
AcDbEntity
  8
0
100
AcDbPolyline
 62
7
  6
CONTINUOUS
 90
7
 70
0
 10
14.649124591
 20
8.0204781915
 10
14.7005945666
 20
8.0435829993
 10
14.7458503739
 20
8.0708542558
 10
14.7838892882
 20
8.1017129361
 10
14.8138693976
 20
8.1355010156
 10
14.8351276203
 20
8.1714965103
 10
14.847192928
 20
8.2089277153
  0
LWPOLYLINE
  5
4E8
100
AcDbEntity
  8
0
100
AcDbPolyline
 62
7
  6
CONTINUOUS
 90
4
 70
0
 10
14.6242940673
 20
7.6590592816
 10
14.6421634176
 20
7.6785492911
 10
14.6549300711
 20
7.6993829878
 10
14.6623011524
 20
7.7211001617
  0
LINE
  5
4E9
100
AcDbEntity
  8
0
100
AcDbLine
 62
7
  6
CONTINUOUS
 10
14.6017319928
 20
7.6413425818
 11
14.6242940673
 21
7.6590592816
  0
LWPOLYLINE
  5
4EA
100
AcDbEntity
  8
AXIS
100
AcDbPolyline
 62
7
  6
CONTINUOUS
 90
7
 70
0
 10
14.8710277598
 20
9.4231049329
 10
14.9116186611
 20
9.3690691858
 10
14.9463128501
 20
9.3096848961
 10
14.973925321
 20
9.2465131791
 10
14.9940399031
 20
9.1803359154
 10
15.0063309326
 20
9.111826076
 10
15.0104760204
 20
9.041979163
  0
LINE
  5
4EB
100
AcDbEntity
  8
0
100
AcDbLine
 62
7
  6
CONTINUOUS
 10
14.567599167
 20
7.60660206
 11
14.582947494
 21
7.61546367
  0
LWPOLYLINE
  5
4EC
100
AcDbEntity
  8
0
100
AcDbPolyline
 62
7
  6
CONTINUOUS
 90
10
 70
0
 10
14.5829477457
 20
7.6154638153
 10
14.5557380999
 20
7.6019625094
 10
14.5247608772
 20
7.5908275098
 10
14.4916580033
 20
7.5826970734
 10
14.4569313637
 20
7.5776303633
 10
14.4212163952
 20
7.5757381141
 10
14.3857744975
 20
7.5770797685
 10
14.3512450859
 20
7.5816026867
 10
14.3181797061
 20
7.5892868933
 10
14.2878446677
 20
7.5998809443
  0
LWPOLYLINE
  5
4ED
100
AcDbEntity
  8
0
100
AcDbPolyline
 62
7
  6
CONTINUOUS
 90
4
 70
0
 10
14.8710277598
 20
9.4231049329
 10
14.836920689
 20
9.4588543493
 10
14.7967552841
 20
9.4920859032
 10
14.7509736183
 20
9.5219462856
  0
LWPOLYLINE
  5
4EE
100
AcDbEntity
  8
0
100
AcDbPolyline
 62
7
  6
CONTINUOUS
 90
21
 70
0
 10
14.6656254702
 20
9.5254146823
 10
14.6241655179
 20
9.5458583771
 10
14.5776747591
 20
9.5623066047
 10
14.5272998533
 20
9.5743533634
 10
14.4742813435
 20
9.581702079
 10
14.4199241182
 20
9.5841718961
 10
14.3655670614
 20
9.5817019626
 10
14.3125483989
 20
9.5743530958
 10
14.2621737637
 20
9.5623062647
 10
14.2156834627
 20
9.5458580843
 10
14.1742223024
 20
9.525413582
 10
14.138811178
 20
9.5014761656
 10
14.1103220204
 20
9.4746352433
 10
14.0894563603
 20
9.4455517629
 10
14.0767279495
 20
9.4149418112
 10
14.072450228
 20
9.3835591732
 10
14.076728525
 20
9.3521764984
 10
14.0894574486
 20
9.3215667107
 10
14.1103236977
 20
9.2924832635
 10
14.1388135116
 20
9.2656423873
 10
14.1742242083
 20
9.241705725
  0
LWPOLYLINE
  5
4EF
100
AcDbEntity
  8
0
100
AcDbPolyline
 62
7
  6
CONTINUOUS
 90
13
 70
0
 10
14.7509736183
 20
9.5219462856
 10
14.6873367606
 20
9.5533284932
 10
14.6177632069
 20
9.5775677688
 10
14.5458420524
 20
9.5938781142
 10
14.4730136136
 20
9.6026505982
 10
14.400022127
 20
9.6042541308
 10
14.3275082763
 20
9.5988299551
 10
14.2561596213
 20
9.5863054176
 10
14.1870045827
 20
9.5664962137
 10
14.1217006608
 20
9.539397024
 10
14.0625762162
 20
9.5056807981
 10
14.0113581466
 20
9.4665029522
 10
13.9688219187
 20
9.4231049329
  0
LINE
  5
4F0
100
AcDbEntity
  8
0
100
AcDbLine
 62
7
  6
CONTINUOUS
 10
5.0080384381
 20
5.1484675188
 11
5.0080384381
 21
5.8434167413
  0
LINE
  5
4F1
100
AcDbEntity
  8
0
100
AcDbLine
 62
7
  6
CONTINUOUS
 10
5.1151949632
 20
4.9940343582
 11
5.1151949632
 21
5.9978499019
  0
LINE
  5
4F2
100
AcDbEntity
  8
AXIS
100
AcDbLine
 62
7
  6
CONTINUOUS
 10
5.4263850756
 20
6.0864933112
 11
5.4263850756
 21
4.905390949
  0
LINE
  5
4F3
100
AcDbEntity
  8
0
100
AcDbLine
 62
7
  6
CONTINUOUS
 10
5.8594559418
 20
4.905390949
 11
5.4263850756
 21
4.905390949
  0
LINE
  5
4F4
100
AcDbEntity
  8
AXIS
100
AcDbLine
 62
7
  6
CONTINUOUS
 10
5.4263850756
 20
4.905390949
 11
5.8594559418
 21
4.905390949
  0
LINE
  5
4F5
100
AcDbEntity
  8
0
100
AcDbLine
 62
7
  6
CONTINUOUS
 10
6.6715404548
 20
5.2478316252
 11
6.5434344209
 21
5.2143479105
  0
LINE
  5
4F6
100
AcDbEntity
  8
02___PRT_ALL_AXES
100
AcDbLine
 62
7
  6
CONTINUOUS
 10
6.5434344209
 20
5.2143479105
 11
6.6715404548
 21
5.2478316252
  0
LWPOLYLINE
  5
4F7
100
AcDbEntity
  8
0
100
AcDbPolyline
 62
7
  6
CONTINUOUS
 90
6
 70
0
 10
6.4696921622
 20
5.1427050347
 10
6.4757742714
 20
5.1436146869
 10
6.4812622427
 20
5.1462553412
 10
6.4856175317
 20
5.1503684842
 10
6.4884137046
 20
5.1555512704
 10
6.4893772016
 20
5.1612964608
  0
LWPOLYLINE
  5
4F8
100
AcDbEntity
  8
0
100
AcDbPolyline
 62
7
  6
CONTINUOUS
 90
3
 70
0
 10
5.945759203
 20
5.8502728387
 10
5.9443711136
 20
5.8493194387
 10
5.9439996166
 20
5.8466379514
  0
LINE
  5
4F9
100
AcDbEntity
  8
0
100
AcDbLine
 62
7
  6
CONTINUOUS
 10
5.9185110599
 20
5.1416114214
 11
6.4696921622
 21
5.1416114214
  0
LINE
  5
4FA
100
AcDbEntity
  8
0
100
AcDbLine
 62
7
  6
CONTINUOUS
 10
6.4500071229
 20
5.1427050347
 11
6.4696921622
 21
5.1427050347
  0
LINE
  5
4FB
100
AcDbEntity
  8
0
100
AcDbLine
 62
7
  6
CONTINUOUS
 10
5.9185110599
 20
5.1452463088
 11
5.961920141
 21
5.1452463088
  0
LINE
  5
4FC
100
AcDbEntity
  8
0
100
AcDbLine
 62
7
  6
CONTINUOUS
 10
6.5135667377
 20
5.2105090592
 11
6.4893772016
 21
5.2105090592
  0
LINE
  5
4FD
100
AcDbEntity
  8
02___PRT_ALL_AXES
100
AcDbLine
 62
7
  6
CONTINUOUS
 10
6.4893772016
 20
5.2105090592
 11
6.5135667377
 21
5.2105090592
  0
LINE
  5
4FE
100
AcDbEntity
  8
0
100
AcDbLine
 62
7
  6
CONTINUOUS
 10
7.0011882252
 20
5.2516704765
 11
6.9972512174
 21
5.2516704765
  0
LINE
  5
4FF
100
AcDbEntity
  8
0
100
AcDbLine
 62
7
  6
CONTINUOUS
 10
6.9618181465
 20
5.2516704765
 11
6.9578811386
 21
5.2516704765
  0
LINE
  5
500
100
AcDbEntity
  8
0
100
AcDbLine
 62
7
  6
CONTINUOUS
 10
6.9224480678
 20
5.2516704765
 11
6.9185110599
 21
5.2516704765
  0
LINE
  5
501
100
AcDbEntity
  8
0
100
AcDbLine
 62
7
  6
CONTINUOUS
 10
6.883077989
 20
5.2516704765
 11
6.8791409811
 21
5.2516704765
  0
LINE
  5
502
100
AcDbEntity
  8
0
100
AcDbLine
 62
7
  6
CONTINUOUS
 10
6.8437079103
 20
5.2516704765
 11
6.8397709024
 21
5.2516704765
  0
LINE
  5
503
100
AcDbEntity
  8
0
100
AcDbLine
 62
7
  6
CONTINUOUS
 10
6.8043378315
 20
5.2516704765
 11
6.8004008237
 21
5.2516704765
  0
LINE
  5
504
100
AcDbEntity
  8
0
100
AcDbLine
 62
7
  6
CONTINUOUS
 10
6.7649677528
 20
5.2516704765
 11
6.7610307449
 21
5.2516704765
  0
LINE
  5
505
100
AcDbEntity
  8
0
100
AcDbLine
 62
7
  6
CONTINUOUS
 10
6.7255976741
 20
5.2516704765
 11
6.701408138
 21
5.2516704765
  0
LINE
  5
506
100
AcDbEntity
  8
02___PRT_ALL_AXES
100
AcDbLine
 62
7
  6
CONTINUOUS
 10
6.701408138
 20
5.2516704765
 11
6.7255976741
 21
5.2516704765
  0
LINE
  5
507
100
AcDbEntity
  8
02___PRT_ALL_AXES
100
AcDbLine
 62
7
  6
CONTINUOUS
 10
6.7610307449
 20
5.2516704765
 11
6.7649677528
 21
5.2516704765
  0
LINE
  5
508
100
AcDbEntity
  8
02___PRT_ALL_AXES
100
AcDbLine
 62
7
  6
CONTINUOUS
 10
6.8004008237
 20
5.2516704765
 11
6.8043378315
 21
5.2516704765
  0
LINE
  5
509
100
AcDbEntity
  8
02___PRT_ALL_AXES
100
AcDbLine
 62
7
  6
CONTINUOUS
 10
6.8397709024
 20
5.2516704765
 11
6.8437079103
 21
5.2516704765
  0
LINE
  5
50A
100
AcDbEntity
  8
02___PRT_ALL_AXES
100
AcDbLine
 62
7
  6
CONTINUOUS
 10
6.8791409811
 20
5.2516704765
 11
6.883077989
 21
5.2516704765
  0
LINE
  5
50B
100
AcDbEntity
  8
02___PRT_ALL_AXES
100
AcDbLine
 62
7
  6
CONTINUOUS
 10
6.9185110599
 20
5.2516704765
 11
6.9224480678
 21
5.2516704765
  0
LINE
  5
50C
100
AcDbEntity
  8
02___PRT_ALL_AXES
100
AcDbLine
 62
7
  6
CONTINUOUS
 10
6.9578811386
 20
5.2516704765
 11
6.9618181465
 21
5.2516704765
  0
LINE
  5
50D
100
AcDbEntity
  8
02___PRT_ALL_AXES
100
AcDbLine
 62
7
  6
CONTINUOUS
 10
6.9972512174
 20
5.2516704765
 11
7.0011882252
 21
5.2516704765
  0
LINE
  5
50E
100
AcDbEntity
  8
02___PRT_ALL_AXES
100
AcDbLine
 62
7
  6
CONTINUOUS
 10
7.0366212961
 20
5.2516704765
 11
7.040558304
 21
5.2516704765
  0
LINE
  5
50F
100
AcDbEntity
  8
0
100
AcDbLine
 62
7
  6
CONTINUOUS
 10
5.8594559418
 20
4.905390949
 11
5.8594559418
 21
6.0864933112
  0
LINE
  5
510
100
AcDbEntity
  8
0
100
AcDbLine
 62
7
  6
CONTINUOUS
 10
7.1192984615
 20
5.2922019726
 11
7.0799283827
 21
5.2922019726
  0
LWPOLYLINE
  5
511
100
AcDbEntity
  8
0
100
AcDbPolyline
 62
7
  6
CONTINUOUS
 90
3
 70
0
 10
5.961920141
 20
5.1452463088
 10
5.9625471512
 20
5.1425703255
 10
5.9641819496
 20
5.1416114214
  0
LWPOLYLINE
  5
512
100
AcDbEntity
  8
0
100
AcDbPolyline
 62
7
  6
CONTINUOUS
 90
6
 70
0
 10
5.961920141
 20
5.1452463088
 10
5.9605466063
 20
5.1852471026
 10
5.9591632848
 20
5.2322250271
 10
5.9577850067
 20
5.2847041113
 10
5.9564175762
 20
5.3412542102
 10
5.9550458261
 20
5.4012656027
  0
LWPOLYLINE
  5
513
100
AcDbEntity
  8
0
100
AcDbPolyline
 62
7
  6
CONTINUOUS
 90
6
 70
0
 10
5.9508628789
 20
5.5911119767
 10
5.9494909004
 20
5.651111644
 10
5.9481215153
 20
5.7077075532
 10
5.9467504078
 20
5.7598784333
 10
5.9453718361
 20
5.8066787743
 10
5.9439996166
 20
5.8466379514
  0
LINE
  5
514
100
AcDbEntity
  8
0
100
AcDbLine
 62
7
  6
CONTINUOUS
 10
5.9550458261
 20
5.4012656027
 11
5.9508628789
 21
5.5911119767
  0
LINE
  5
515
100
AcDbEntity
  8
0
100
AcDbLine
 62
7
  6
CONTINUOUS
 10
5.8988260205
 20
4.9447610277
 11
5.8988260205
 21
6.0471232324
  0
LINE
  5
516
100
AcDbEntity
  8
0
100
AcDbLine
 62
7
  6
CONTINUOUS
 10
5.9185110599
 20
5.8502728387
 11
5.9185110599
 21
5.1416114214
  0
LWPOLYLINE
  5
517
100
AcDbEntity
  8
0
100
AcDbPolyline
 62
7
  6
CONTINUOUS
 90
6
 70
0
 10
5.8988260205
 20
5.1291961567
 10
5.8997894749
 20
5.1341559265
 10
5.9025855285
 20
5.1386301994
 10
5.9069404841
 20
5.1421810025
 10
5.9124280482
 20
5.1444607584
 10
5.9185110599
 20
5.1452463087
  0
LWPOLYLINE
  5
518
100
AcDbEntity
  8
0
100
AcDbPolyline
 62
7
  6
CONTINUOUS
 90
7
 70
0
 10
5.9662808107
 20
5.8502728387
 10
5.9677209528
 20
5.8218661752
 10
5.9691610948
 20
5.7858225281
 10
5.9706012369
 20
5.7429864646
 10
5.9720413789
 20
5.6943617103
 10
5.9734815209
 20
5.6410876302
 10
5.974921663
 20
5.5844125312
  0
LWPOLYLINE
  5
519
100
AcDbEntity
  8
0
100
AcDbPolyline
 62
7
  6
CONTINUOUS
 90
7
 70
0
 10
5.9696903596
 20
5.8502728387
 10
5.9711305016
 20
5.8218661752
 10
5.9725706437
 20
5.7858225281
 10
5.9740107857
 20
5.7429864646
 10
5.9754509277
 20
5.6943617103
 10
5.9768910698
 20
5.6410876302
 10
5.9783312118
 20
5.5844125312
  0
LWPOLYLINE
  5
51A
100
AcDbEntity
  8
0
100
AcDbPolyline
 62
7
  6
CONTINUOUS
 90
7
 70
0
 10
6.0253359289
 20
5.8502728387
 10
6.0267760709
 20
5.8218661752
 10
6.0282162129
 20
5.7858225281
 10
6.029656355
 20
5.7429864646
 10
6.031096497
 20
5.6943617103
 10
6.032536639
 20
5.6410876302
 10
6.0339767811
 20
5.5844125312
  0
LWPOLYLINE
  5
51B
100
AcDbEntity
  8
0
100
AcDbPolyline
 62
7
  6
CONTINUOUS
 90
7
 70
0
 10
6.0287454777
 20
5.8502728387
 10
6.0301856197
 20
5.8218661752
 10
6.0316257618
 20
5.7858225281
 10
6.0330659038
 20
5.7429864646
 10
6.0345060458
 20
5.6943617103
 10
6.0359461879
 20
5.6410876302
 10
6.0373863299
 20
5.5844125312
  0
LWPOLYLINE
  5
51C
100
AcDbEntity
  8
0
100
AcDbPolyline
 62
7
  6
CONTINUOUS
 90
6
 70
0
 10
5.9955145246
 20
5.8502728387
 10
5.9969074252
 20
5.8103864565
 10
5.998307542
 20
5.7633480933
 10
5.999700318
 20
5.7106778794
 10
6.0010910648
 20
5.6533873818
 10
6.0024841332
 20
5.5925524154
  0
LWPOLYLINE
  5
51D
100
AcDbEntity
  8
0
100
AcDbPolyline
 62
7
  6
CONTINUOUS
 90
6
 70
0
 10
6.0211138943
 20
5.1416114214
 10
6.0197201614
 20
5.1815237963
 10
6.0183100701
 20
5.2289237002
 10
6.0168991592
 20
5.2823549768
 10
6.0155025473
 20
5.339980253
 10
6.0141121952
 20
5.4007634249
  0
LWPOLYLINE
  5
51E
100
AcDbEntity
  8
0
100
AcDbPolyline
 62
7
  6
CONTINUOUS
 90
7
 70
0
 10
5.9792420891
 20
5.4074717289
 10
5.9806822311
 20
5.35079663
 10
5.9821223731
 20
5.2975225498
 10
5.9835625152
 20
5.2488977955
 10
5.9850026572
 20
5.206061732
 10
5.9864427993
 20
5.1700180849
 10
5.9878829413
 20
5.1416114214
  0
LWPOLYLINE
  5
51F
100
AcDbEntity
  8
0
100
AcDbPolyline
 62
7
  6
CONTINUOUS
 90
7
 70
0
 10
5.9826516379
 20
5.4074717289
 10
5.9840917799
 20
5.35079663
 10
5.985531922
 20
5.2975225498
 10
5.986972064
 20
5.2488977955
 10
5.9884122061
 20
5.206061732
 10
5.9898523481
 20
5.1700180849
 10
5.9912924901
 20
5.1416114214
  0
LWPOLYLINE
  5
520
100
AcDbEntity
  8
0
100
AcDbPolyline
 62
7
  6
CONTINUOUS
 90
7
 70
0
 10
6.0382972072
 20
5.4074717289
 10
6.0397373492
 20
5.35079663
 10
6.0411774913
 20
5.2975225498
 10
6.0426176333
 20
5.2488977955
 10
6.0440577753
 20
5.206061732
 10
6.0454979174
 20
5.1700180849
 10
6.0469380594
 20
5.1416114214
  0
LWPOLYLINE
  5
521
100
AcDbEntity
  8
0
100
AcDbPolyline
 62
7
  6
CONTINUOUS
 90
7
 70
0
 10
6.041706756
 20
5.4074717289
 10
6.0431468981
 20
5.35079663
 10
6.0445870401
 20
5.2975225498
 10
6.0460271821
 20
5.2488977955
 10
6.0474673242
 20
5.206061732
 10
6.0489074662
 20
5.1700180849
 10
6.0503476082
 20
5.1416114214
  0
LINE
  5
522
100
AcDbEntity
  8
0
100
AcDbLine
 62
7
  6
CONTINUOUS
 10
5.974921663
 20
5.5844125312
 11
5.9792420891
 21
5.4074717289
  0
LINE
  5
523
100
AcDbEntity
  8
0
100
AcDbLine
 62
7
  6
CONTINUOUS
 10
5.9783312118
 20
5.5844125312
 11
5.9826516379
 21
5.4074717289
  0
LINE
  5
524
100
AcDbEntity
  8
0
100
AcDbLine
 62
7
  6
CONTINUOUS
 10
6.0339767811
 20
5.5844125312
 11
6.0382972072
 21
5.4074717289
  0
LINE
  5
525
100
AcDbEntity
  8
0
100
AcDbLine
 62
7
  6
CONTINUOUS
 10
6.0373863299
 20
5.5844125312
 11
6.041706756
 21
5.4074717289
  0
LWPOLYLINE
  5
526
100
AcDbEntity
  8
0
100
AcDbPolyline
 62
7
  6
CONTINUOUS
 90
6
 70
0
 10
6.006731715
 20
5.399822256
 10
6.0081245195
 20
5.3389765064
 10
6.0095134744
 20
5.2817241087
 10
6.0109137465
 20
5.2287353486
 10
6.0123184119
 20
5.1815292504
 10
6.0137123195
 20
5.1416114214
  0
LWPOLYLINE
  5
527
100
AcDbEntity
  8
0
100
AcDbPolyline
 62
7
  6
CONTINUOUS
 90
6
 70
0
 10
6.009870672
 20
5.5932227975
 10
6.0084792856
 20
5.6539559229
 10
6.0070856113
 20
5.7113231392
 10
6.0056958965
 20
5.7638216926
 10
6.0043049875
 20
5.8105117153
 10
6.0029160994
 20
5.8502728387
  0
LINE
  5
528
100
AcDbEntity
  8
0
100
AcDbLine
 62
7
  6
CONTINUOUS
 10
6.0024841332
 20
5.5925524154
 11
6.006731715
 21
5.399822256
  0
LINE
  5
529
100
AcDbEntity
  8
0
100
AcDbLine
 62
7
  6
CONTINUOUS
 10
6.0141121952
 20
5.4007634249
 11
6.009870672
 21
5.5932227975
  0
LINE
  5
52A
100
AcDbEntity
  8
AXIS
100
AcDbLine
 62
7
  6
CENTER
 10
7.1940544489
 20
5.4959421301
 11
4.8736291701
 21
5.4959421301
  0
LWPOLYLINE
  5
52B
100
AcDbEntity
  8
0
100
AcDbPolyline
 62
7
  6
CONTINUOUS
 90
7
 70
0
 10
6.084391047
 20
5.8502728387
 10
6.085831189
 20
5.8218661752
 10
6.087271331
 20
5.7858225281
 10
6.0887114731
 20
5.7429864646
 10
6.0901516151
 20
5.6943617103
 10
6.0915917571
 20
5.6410876302
 10
6.0930318992
 20
5.5844125312
  0
LWPOLYLINE
  5
52C
100
AcDbEntity
  8
0
100
AcDbPolyline
 62
7
  6
CONTINUOUS
 90
7
 70
0
 10
6.0878005958
 20
5.8502728387
 10
6.0892407378
 20
5.8218661752
 10
6.0906808799
 20
5.7858225281
 10
6.0921210219
 20
5.7429864646
 10
6.0935611639
 20
5.6943617103
 10
6.095001306
 20
5.6410876302
 10
6.096441448
 20
5.5844125312
  0
LWPOLYLINE
  5
52D
100
AcDbEntity
  8
0
100
AcDbPolyline
 62
7
  6
CONTINUOUS
 90
6
 70
0
 10
6.1392241306
 20
5.1416114214
 10
6.1378995561
 20
5.1793727093
 10
6.1365574418
 20
5.224032382
 10
6.1352102237
 20
5.2744271367
 10
6.1338724622
 20
5.3289663757
 10
6.1325510006
 20
5.3861611654
  0
LWPOLYLINE
  5
52E
100
AcDbEntity
  8
0
100
AcDbPolyline
 62
7
  6
CONTINUOUS
 90
6
 70
0
 10
6.0545696427
 20
5.8502728387
 10
6.0559585308
 20
5.8105117153
 10
6.0573494398
 20
5.7638216926
 10
6.0587391546
 20
5.7113231392
 10
6.0601328289
 20
5.6539559229
 10
6.0615242153
 20
5.5932227975
  0
LWPOLYLINE
  5
52F
100
AcDbEntity
  8
0
100
AcDbPolyline
 62
7
  6
CONTINUOUS
 90
6
 70
0
 10
6.0801690125
 20
5.1416114214
 10
6.0787756246
 20
5.1815130197
 10
6.0773625366
 20
5.2290188412
 10
6.0759454095
 20
5.2827073143
 10
6.0745397678
 20
5.3407438343
 10
6.0731524667
 20
5.4014261213
  0
LWPOLYLINE
  5
530
100
AcDbEntity
  8
0
100
AcDbPolyline
 62
7
  6
CONTINUOUS
 90
6
 70
0
 10
6.1136247609
 20
5.8502728387
 10
6.1150103063
 20
5.8106160164
 10
6.1163975871
 20
5.7640711983
 10
6.117795896
 20
5.7112588351
 10
6.1191929928
 20
5.6537411374
 10
6.1205829959
 20
5.5930595271
  0
LWPOLYLINE
  5
531
100
AcDbEntity
  8
0
100
AcDbPolyline
 62
7
  6
CONTINUOUS
 90
3
 70
0
 10
6.1219231334
 20
5.8254317183
 10
6.1214757884
 20
5.8382125378
 10
6.1210263357
 20
5.8502728387
  0
LWPOLYLINE
  5
532
100
AcDbEntity
  8
0
100
AcDbPolyline
 62
7
  6
CONTINUOUS
 90
7
 70
0
 10
6.0973523253
 20
5.4074717289
 10
6.0987924673
 20
5.35079663
 10
6.1002326094
 20
5.2975225498
 10
6.1016727514
 20
5.2488977955
 10
6.1031128934
 20
5.206061732
 10
6.1045530355
 20
5.1700180849
 10
6.1059931775
 20
5.1416114214
  0
LWPOLYLINE
  5
533
100
AcDbEntity
  8
0
100
AcDbPolyline
 62
7
  6
CONTINUOUS
 90
7
 70
0
 10
6.1007618741
 20
5.4074717289
 10
6.1022020162
 20
5.35079663
 10
6.1036421582
 20
5.2975225498
 10
6.1050823002
 20
5.2488977955
 10
6.1065224423
 20
5.206061732
 10
6.1079625843
 20
5.1700180849
 10
6.1094027263
 20
5.1416114214
  0
LINE
  5
534
100
AcDbEntity
  8
0
100
AcDbLine
 62
7
  6
CONTINUOUS
 10
6.0930318992
 20
5.5844125312
 11
6.0973523253
 21
5.4074717289
  0
LINE
  5
535
100
AcDbEntity
  8
0
100
AcDbLine
 62
7
  6
CONTINUOUS
 10
6.096441448
 20
5.5844125312
 11
6.1007618741
 21
5.4074717289
  0
LWPOLYLINE
  5
536
100
AcDbEntity
  8
0
100
AcDbPolyline
 62
7
  6
CONTINUOUS
 90
6
 70
0
 10
6.0657657385
 20
5.4007634249
 10
6.0671560906
 20
5.339980253
 10
6.0685527025
 20
5.2823549768
 10
6.0699636134
 20
5.2289237002
 10
6.0713737047
 20
5.1815237963
 10
6.0727674377
 20
5.1416114214
  0
LWPOLYLINE
  5
537
100
AcDbEntity
  8
0
100
AcDbPolyline
 62
7
  6
CONTINUOUS
 90
6
 70
0
 10
6.0689294526
 20
5.5930595271
 10
6.0675394495
 20
5.6537411374
 10
6.0661423527
 20
5.7112588351
 10
6.0647440438
 20
5.7640711983
 10
6.063356763
 20
5.8106160164
 10
6.0619712175
 20
5.8502728387
  0
LWPOLYLINE
  5
538
100
AcDbEntity
  8
0
100
AcDbPolyline
 62
7
  6
CONTINUOUS
 90
6
 70
0
 10
6.12480601
 20
5.4014261213
 10
6.1261933111
 20
5.3407438343
 10
6.1275989528
 20
5.2827073143
 10
6.1290160799
 20
5.2290188412
 10
6.1304291679
 20
5.1815130197
 10
6.1318225558
 20
5.1416114214
  0
LWPOLYLINE
  5
539
100
AcDbEntity
  8
0
100
AcDbPolyline
 62
7
  6
CONTINUOUS
 90
6
 70
0
 10
6.128576901
 20
5.5664776896
 10
6.1272510789
 20
5.6254303649
 10
6.1259272251
 20
5.6817294872
 10
6.1245889846
 20
5.7348965272
 10
6.1232497242
 20
5.7832622103
 10
6.1219231334
 20
5.8254317183
  0
LINE
  5
53A
100
AcDbEntity
  8
0
100
AcDbLine
 62
7
  6
CONTINUOUS
 10
6.0615242153
 20
5.5932227975
 11
6.0657657385
 21
5.4007634249
  0
LINE
  5
53B
100
AcDbEntity
  8
0
100
AcDbLine
 62
7
  6
CONTINUOUS
 10
6.0731524667
 20
5.4014261213
 11
6.0689294526
 21
5.5930595271
  0
LINE
  5
53C
100
AcDbEntity
  8
0
100
AcDbLine
 62
7
  6
CONTINUOUS
 10
6.1205829959
 20
5.5930595271
 11
6.12480601
 21
5.4014261213
  0
LINE
  5
53D
100
AcDbEntity
  8
0
100
AcDbLine
 62
7
  6
CONTINUOUS
 10
6.1325510006
 20
5.3861611654
 11
6.128576901
 21
5.5664776896
  0
LWPOLYLINE
  5
53E
100
AcDbEntity
  8
0
100
AcDbPolyline
 62
7
  6
CONTINUOUS
 90
3
 70
0
 10
6.1434461651
 20
5.8502728387
 10
6.1447456478
 20
5.8249893539
 10
6.1460451306
 20
5.7934259794
  0
LWPOLYLINE
  5
53F
100
AcDbEntity
  8
0
100
AcDbPolyline
 62
7
  6
CONTINUOUS
 90
3
 70
0
 10
6.1468557139
 20
5.8502728387
 10
6.1481551967
 20
5.8249893539
 10
6.1494546794
 20
5.7934259794
  0
LWPOLYLINE
  5
540
100
AcDbEntity
  8
0
100
AcDbPolyline
 62
7
  6
CONTINUOUS
 90
7
 70
0
 10
6.2025012832
 20
5.8502728387
 10
6.2039414252
 20
5.8218661752
 10
6.2053815673
 20
5.7858225281
 10
6.2068217093
 20
5.7429864646
 10
6.2082618513
 20
5.6943617103
 10
6.2097019934
 20
5.6410876302
 10
6.2111421354
 20
5.5844125312
  0
LWPOLYLINE
  5
541
100
AcDbEntity
  8
0
100
AcDbPolyline
 62
7
  6
CONTINUOUS
 90
3
 70
0
 10
6.172679879
 20
5.8502728387
 10
6.1731293317
 20
5.8382125378
 10
6.1735766767
 20
5.8254317183
  0
LWPOLYLINE
  5
542
100
AcDbEntity
  8
0
100
AcDbPolyline
 62
7
  6
CONTINUOUS
 90
6
 70
0
 10
6.1982792487
 20
5.1416114214
 10
6.1968864404
 20
5.1814949218
 10
6.1954739453
 20
5.2289767707
 10
6.1940574145
 20
5.282637022
 10
6.1926523687
 20
5.3406429141
 10
6.1912654195
 20
5.4013048437
  0
LWPOLYLINE
  5
543
100
AcDbEntity
  8
0
100
AcDbPolyline
 62
7
  6
CONTINUOUS
 90
5
 70
0
 10
6.1460451306
 20
5.7934259794
 10
6.1475069125
 20
5.7511693433
 10
6.1489686945
 20
5.7027515651
 10
6.1504304764
 20
5.6493414421
 10
6.1518922583
 20
5.5922282854
  0
LWPOLYLINE
  5
544
100
AcDbEntity
  8
0
100
AcDbPolyline
 62
7
  6
CONTINUOUS
 90
5
 70
0
 10
6.1494546794
 20
5.7934259794
 10
6.1509164614
 20
5.7511693433
 10
6.1523782433
 20
5.7027515651
 10
6.1538400252
 20
5.6493414421
 10
6.1553018071
 20
5.5922282854
  0
LWPOLYLINE
  5
545
100
AcDbEntity
  8
0
100
AcDbPolyline
 62
7
  6
CONTINUOUS
 90
6
 70
0
 10
6.1735766767
 20
5.8254317183
 10
6.1749032675
 20
5.7832622103
 10
6.1762425279
 20
5.7348965272
 10
6.1775807684
 20
5.6817294872
 10
6.1789046222
 20
5.6254303649
 10
6.1802304443
 20
5.5664776896
  0
LWPOLYLINE
  5
546
100
AcDbEntity
  8
0
100
AcDbPolyline
 62
7
  6
CONTINUOUS
 90
7
 70
0
 10
6.1562776041
 20
5.4127035427
 10
6.157739386
 20
5.3549526626
 10
6.1592011679
 20
5.3006052445
 10
6.1606629499
 20
5.2509732259
 10
6.1621247318
 20
5.2072547154
 10
6.1635865137
 20
5.1705050705
 10
6.1650482956
 20
5.1416114214
  0
LWPOLYLINE
  5
547
100
AcDbEntity
  8
0
100
AcDbPolyline
 62
7
  6
CONTINUOUS
 90
7
 70
0
 10
6.1596871529
 20
5.4127035427
 10
6.1611489348
 20
5.3549526626
 10
6.1626107168
 20
5.3006052445
 10
6.1640724987
 20
5.2509732259
 10
6.1655342806
 20
5.2072547154
 10
6.1669960625
 20
5.1705050705
 10
6.1684578445
 20
5.1416114214
  0
LWPOLYLINE
  5
548
100
AcDbEntity
  8
0
100
AcDbPolyline
 62
7
  6
CONTINUOUS
 90
7
 70
0
 10
6.2154625615
 20
5.4074717289
 10
6.2169027036
 20
5.35079663
 10
6.2183428456
 20
5.2975225498
 10
6.2197829876
 20
5.2488977955
 10
6.2212231297
 20
5.206061732
 10
6.2226632717
 20
5.1700180849
 10
6.2241034137
 20
5.1416114214
  0
LWPOLYLINE
  5
549
100
AcDbEntity
  8
0
100
AcDbPolyline
 62
7
  6
CONTINUOUS
 90
7
 70
0
 10
6.2188721103
 20
5.4074717289
 10
6.2203122524
 20
5.35079663
 10
6.2217523944
 20
5.2975225498
 10
6.2231925365
 20
5.2488977955
 10
6.2246326785
 20
5.206061732
 10
6.2260728205
 20
5.1700180849
 10
6.2275129626
 20
5.1416114214
  0
LINE
  5
54A
100
AcDbEntity
  8
0
100
AcDbLine
 62
7
  6
CONTINUOUS
 10
6.1518922583
 20
5.5922282854
 11
6.1562776041
 21
5.4127035427
  0
LINE
  5
54B
100
AcDbEntity
  8
0
100
AcDbLine
 62
7
  6
CONTINUOUS
 10
6.1553018071
 20
5.5922282854
 11
6.1596871529
 21
5.4127035427
  0
LINE
  5
54C
100
AcDbEntity
  8
0
100
AcDbLine
 62
7
  6
CONTINUOUS
 10
6.2111421354
 20
5.5844125312
 11
6.2154625615
 21
5.4074717289
  0
LINE
  5
54D
100
AcDbEntity
  8
0
100
AcDbLine
 62
7
  6
CONTINUOUS
 10
6.2145516842
 20
5.5844125312
 11
6.2188721103
 21
5.4074717289
  0
LWPOLYLINE
  5
54E
100
AcDbEntity
  8
0
100
AcDbPolyline
 62
7
  6
CONTINUOUS
 90
6
 70
0
 10
6.1842045439
 20
5.3861611654
 10
6.1855260055
 20
5.3289663757
 10
6.186863767
 20
5.2744271367
 10
6.1882109851
 20
5.224032382
 10
6.1895530994
 20
5.1793727093
 10
6.1908776739
 20
5.1416114214
  0
LWPOLYLINE
  5
54F
100
AcDbEntity
  8
0
100
AcDbPolyline
 62
7
  6
CONTINUOUS
 90
6
 70
0
 10
6.187096052
 20
5.590545085
 10
6.1857081143
 20
5.6512507106
 10
6.1843032145
 20
5.7092501564
 10
6.1828866959
 20
5.7629096863
 10
6.181474142
 20
5.8103930873
 10
6.1800814538
 20
5.8502728387
  0
LINE
  5
550
100
AcDbEntity
  8
0
100
AcDbLine
 62
7
  6
CONTINUOUS
 10
6.1802304443
 20
5.5664776896
 11
6.1842045439
 21
5.3861611654
  0
LINE
  5
551
100
AcDbEntity
  8
0
100
AcDbLine
 62
7
  6
CONTINUOUS
 10
6.1912654195
 20
5.4013048437
 11
6.187096052
 21
5.590545085
  0
LINE
  5
552
100
AcDbEntity
  8
0
100
AcDbLine
 62
7
  6
CONTINUOUS
 10
7.0518014112
 20
5.7326595991
 11
7.0519832206
 21
5.7327259289
  0
LINE
  5
553
100
AcDbEntity
  8
0
100
AcDbLine
 62
7
  6
CONTINUOUS
 10
7.0642711414
 20
5.2717081308
 11
7.0644630344
 21
5.2716381479
  0
LWPOLYLINE
  5
554
100
AcDbEntity
  8
0
100
AcDbPolyline
 62
7
  6
CONTINUOUS
 90
7
 70
0
 10
6.205910832
 20
5.8502728387
 10
6.2073509741
 20
5.8218661752
 10
6.2087911161
 20
5.7858225281
 10
6.2102312581
 20
5.7429864646
 10
6.2116714002
 20
5.6943617103
 10
6.2131115422
 20
5.6410876302
 10
6.2145516842
 20
5.5844125312
  0
LWPOLYLINE
  5
555
100
AcDbEntity
  8
0
100
AcDbPolyline
 62
7
  6
CONTINUOUS
 90
7
 70
0
 10
6.2615564013
 20
5.8502728387
 10
6.2629965433
 20
5.8218661752
 10
6.2644366854
 20
5.7858225281
 10
6.2658768274
 20
5.7429864646
 10
6.2673169694
 20
5.6943617103
 10
6.2687571115
 20
5.6410876302
 10
6.2701972535
 20
5.5844125312
  0
LWPOLYLINE
  5
556
100
AcDbEntity
  8
0
100
AcDbPolyline
 62
7
  6
CONTINUOUS
 90
7
 70
0
 10
6.2649659501
 20
5.8502728387
 10
6.2664060922
 20
5.8218661752
 10
6.2678462342
 20
5.7858225281
 10
6.2692863762
 20
5.7429864646
 10
6.2707265183
 20
5.6943617103
 10
6.2721666603
 20
5.6410876302
 10
6.2736068023
 20
5.5844125312
  0
LWPOLYLINE
  5
557
100
AcDbEntity
  8
0
100
AcDbPolyline
 62
7
  6
CONTINUOUS
 90
6
 70
0
 10
6.2317349971
 20
5.8502728387
 10
6.2331276853
 20
5.8103930873
 10
6.2345402392
 20
5.7629096863
 10
6.2359567578
 20
5.7092501564
 10
6.2373616576
 20
5.6512507106
 10
6.2387495953
 20
5.590545085
  0
LWPOLYLINE
  5
558
100
AcDbEntity
  8
0
100
AcDbPolyline
 62
7
  6
CONTINUOUS
 90
6
 70
0
 10
6.2573343668
 20
5.1416114214
 10
6.2559418039
 20
5.1814872601
 10
6.2545293731
 20
5.2289656574
 10
6.2531129125
 20
5.2826219288
 10
6.2517080388
 20
5.3406193603
 10
6.2503200157
 20
5.4013281423
  0
LWPOLYLINE
  5
559
100
AcDbEntity
  8
0
100
AcDbPolyline
 62
7
  6
CONTINUOUS
 90
7
 70
0
 10
6.2745176796
 20
5.4074717289
 10
6.2759578217
 20
5.35079663
 10
6.2773979637
 20
5.2975225498
 10
6.2788381057
 20
5.2488977955
 10
6.2802782478
 20
5.206061732
 10
6.2817183898
 20
5.1700180849
 10
6.2831585318
 20
5.1416114214
  0
LWPOLYLINE
  5
55A
100
AcDbEntity
  8
0
100
AcDbPolyline
 62
7
  6
CONTINUOUS
 90
7
 70
0
 10
6.2779272285
 20
5.4074717289
 10
6.2793673705
 20
5.35079663
 10
6.2808075125
 20
5.2975225498
 10
6.2822476546
 20
5.2488977955
 10
6.2836877966
 20
5.206061732
 10
6.2851279386
 20
5.1700180849
 10
6.2865680807
 20
5.1416114214
  0
LINE
  5
55B
100
AcDbEntity
  8
0
100
AcDbLine
 62
7
  6
CONTINUOUS
 10
6.2701972535
 20
5.5844125312
 11
6.2745176796
 21
5.4074717289
  0
LINE
  5
55C
100
AcDbEntity
  8
0
100
AcDbLine
 62
7
  6
CONTINUOUS
 10
6.2736068023
 20
5.5844125312
 11
6.2779272285
 21
5.4074717289
  0
LWPOLYLINE
  5
55D
100
AcDbEntity
  8
0
100
AcDbPolyline
 62
7
  6
CONTINUOUS
 90
6
 70
0
 10
6.2429189628
 20
5.4013048437
 10
6.244305912
 20
5.3406429141
 10
6.2457109578
 20
5.282637022
 10
6.2471274886
 20
5.2289767707
 10
6.2485399837
 20
5.1814949218
 10
6.249932792
 20
5.1416114214
  0
LWPOLYLINE
  5
55E
100
AcDbEntity
  8
0
100
AcDbPolyline
 62
7
  6
CONTINUOUS
 90
6
 70
0
 10
6.2461499144
 20
5.5906011392
 10
6.2447632019
 20
5.6512520129
 10
6.2433582825
 20
5.7092521454
 10
6.2419418439
 20
5.7629086148
 10
6.2405293787
 20
5.8103893819
 10
6.2391365719
 20
5.8502728387
  0
LWPOLYLINE
  5
55F
100
AcDbEntity
  8
0
100
AcDbPolyline
 62
7
  6
CONTINUOUS
 90
6
 70
0
 10
6.301973559
 20
5.4013281423
 10
6.3033615821
 20
5.3406193603
 10
6.3047664558
 20
5.2826219288
 10
6.3061829164
 20
5.2289656574
 10
6.3075953472
 20
5.1814872601
 10
6.3089879101
 20
5.1416114214
  0
LINE
  5
560
100
AcDbEntity
  8
0
100
AcDbLine
 62
7
  6
CONTINUOUS
 10
6.2387495953
 20
5.590545085
 11
6.2429189628
 21
5.4013048437
  0
LINE
  5
561
100
AcDbEntity
  8
0
100
AcDbLine
 62
7
  6
CONTINUOUS
 10
6.2503200157
 20
5.4013281423
 11
6.2461499144
 21
5.5906011392
  0
LINE
  5
562
100
AcDbEntity
  8
0
100
AcDbLine
 62
7
  6
CONTINUOUS
 10
6.2978034577
 20
5.5906011392
 11
6.301973559
 21
5.4013281423
  0
LINE
  5
563
100
AcDbEntity
  8
0
100
AcDbLine
 62
7
  6
CONTINUOUS
 10
7.1192984615
 20
5.6996822875
 11
7.0799283827
 21
5.6996822875
  0
LINE
  5
564
100
AcDbEntity
  8
02___PRT_ALL_AXES
100
AcDbLine
 62
7
  6
CONTINUOUS
 10
6.701408138
 20
5.7402137836
 11
6.7059126347
 21
5.7402137836
  0
LINE
  5
565
100
AcDbEntity
  8
02___PRT_ALL_AXES
100
AcDbLine
 62
7
  6
CONTINUOUS
 10
6.7413457056
 20
5.7402137836
 11
6.7452827134
 21
5.7402137836
  0
LINE
  5
566
100
AcDbEntity
  8
02___PRT_ALL_AXES
100
AcDbLine
 62
7
  6
CONTINUOUS
 10
6.7807157843
 20
5.7402137836
 11
6.7846527922
 21
5.7402137836
  0
LINE
  5
567
100
AcDbEntity
  8
02___PRT_ALL_AXES
100
AcDbLine
 62
7
  6
CONTINUOUS
 10
6.820085863
 20
5.7402137836
 11
6.8240228709
 21
5.7402137836
  0
LINE
  5
568
100
AcDbEntity
  8
02___PRT_ALL_AXES
100
AcDbLine
 62
7
  6
CONTINUOUS
 10
6.8594559418
 20
5.7402137836
 11
6.8633929496
 21
5.7402137836
  0
LINE
  5
569
100
AcDbEntity
  8
02___PRT_ALL_AXES
100
AcDbLine
 62
7
  6
CONTINUOUS
 10
6.8988260205
 20
5.7402137836
 11
6.9027630284
 21
5.7402137836
  0
LINE
  5
56A
100
AcDbEntity
  8
02___PRT_ALL_AXES
100
AcDbLine
 62
7
  6
CONTINUOUS
 10
6.9381960993
 20
5.7402137836
 11
6.9421331071
 21
5.7402137836
  0
LINE
  5
56B
100
AcDbEntity
  8
02___PRT_ALL_AXES
100
AcDbLine
 62
7
  6
CONTINUOUS
 10
6.977566178
 20
5.7402137836
 11
6.9815031859
 21
5.7402137836
  0
LINE
  5
56C
100
AcDbEntity
  8
02___PRT_ALL_AXES
100
AcDbLine
 62
7
  6
CONTINUOUS
 10
7.0169362567
 20
5.7402137836
 11
7.0208732646
 21
5.7402137836
  0
LWPOLYLINE
  5
56D
100
AcDbEntity
  8
0
100
AcDbPolyline
 62
7
  6
CONTINUOUS
 90
8
 70
0
 10
6.3206115194
 20
5.8502728387
 10
6.321920183
 20
5.8247877441
 10
6.3232288466
 20
5.7929377577
 10
6.3245375103
 20
5.7553393442
 10
6.3258461739
 20
5.7127202305
 10
6.3271548375
 20
5.6659053208
 10
6.3284635011
 20
5.6158007295
 10
6.3297721647
 20
5.5633762441
  0
LWPOLYLINE
  5
56E
100
AcDbEntity
  8
0
100
AcDbPolyline
 62
7
  6
CONTINUOUS
 90
8
 70
0
 10
6.3240210682
 20
5.8502728387
 10
6.3253297319
 20
5.8247877441
 10
6.3266383955
 20
5.7929377577
 10
6.3279470591
 20
5.7553393442
 10
6.3292557227
 20
5.7127202305
 10
6.3305643863
 20
5.6659053208
 10
6.3318730499
 20
5.6158007295
 10
6.3331817136
 20
5.5633762441
  0
LWPOLYLINE
  5
56F
100
AcDbEntity
  8
0
100
AcDbPolyline
 62
7
  6
CONTINUOUS
 90
7
 70
0
 10
6.3498452333
 20
5.8502728387
 10
6.3510813967
 20
5.8152364896
 10
6.3523315521
 20
5.7741969781
 10
6.3535881223
 20
5.7279947644
 10
6.3548388719
 20
5.6778924479
 10
6.3560763418
 20
5.6251525571
 10
6.3573037108
 20
5.5706313561
  0
LWPOLYLINE
  5
570
100
AcDbEntity
  8
0
100
AcDbPolyline
 62
7
  6
CONTINUOUS
 90
6
 70
0
 10
6.3163894849
 20
5.1416114214
 10
6.3150591359
 20
5.1795516625
 10
6.3137175691
 20
5.2242177637
 10
6.3123655634
 20
5.2748201061
 10
6.3110175257
 20
5.3298224994
 10
6.3096826237
 20
5.3876543691
  0
LWPOLYLINE
  5
571
100
AcDbEntity
  8
0
100
AcDbPolyline
 62
7
  6
CONTINUOUS
 90
6
 70
0
 10
6.2907901152
 20
5.8502728387
 10
6.292182922
 20
5.8103893819
 10
6.2935953872
 20
5.7629086148
 10
6.2950118258
 20
5.7092521454
 10
6.2964167452
 20
5.6512520129
 10
6.2978034577
 20
5.5906011392
  0
LWPOLYLINE
  5
572
100
AcDbEntity
  8
0
100
AcDbPolyline
 62
7
  6
CONTINUOUS
 90
6
 70
0
 10
6.375444603
 20
5.1416114214
 10
6.3740590472
 20
5.1812685675
 10
6.3726725438
 20
5.2277856161
 10
6.371275691
 20
5.2805373578
 10
6.369879353
 20
5.3380161854
 10
6.3684895512
 20
5.3986828256
  0
LWPOLYLINE
  5
573
100
AcDbEntity
  8
0
100
AcDbPolyline
 62
7
  6
CONTINUOUS
 90
7
 70
0
 10
6.3339193265
 20
5.3935938855
 10
6.3353017137
 20
5.3398002427
 10
6.336684101
 20
5.2893782342
 10
6.3380664882
 20
5.2434166428
 10
6.3394488755
 20
5.2029079354
 10
6.3408312627
 20
5.1687268329
 10
6.34221365
 20
5.1416114214
  0
LWPOLYLINE
  5
574
100
AcDbEntity
  8
0
100
AcDbPolyline
 62
7
  6
CONTINUOUS
 90
7
 70
0
 10
6.3373288753
 20
5.3935938855
 10
6.3387112626
 20
5.3398002427
 10
6.3400936498
 20
5.2893782342
 10
6.341476037
 20
5.2434166428
 10
6.3428584243
 20
5.2029079354
 10
6.3442408115
 20
5.1687268329
 10
6.3456231988
 20
5.1416114214
  0
LINE
  5
575
100
AcDbEntity
  8
0
100
AcDbLine
 62
7
  6
CONTINUOUS
 10
6.3297721647
 20
5.5633762441
 11
6.3339193265
 21
5.3935938855
  0
LINE
  5
576
100
AcDbEntity
  8
0
100
AcDbLine
 62
7
  6
CONTINUOUS
 10
6.3331817136
 20
5.5633762441
 11
6.3373288753
 21
5.3935938855
  0
LWPOLYLINE
  5
577
100
AcDbEntity
  8
0
100
AcDbPolyline
 62
7
  6
CONTINUOUS
 90
6
 70
0
 10
6.361336167
 20
5.3876543691
 10
6.362671069
 20
5.3298224994
 10
6.3640191067
 20
5.2748201061
 10
6.3653711124
 20
5.2242177637
 10
6.3667126792
 20
5.1795516625
 10
6.3680430282
 20
5.1416114214
  0
LWPOLYLINE
  5
578
100
AcDbEntity
  8
0
100
AcDbPolyline
 62
7
  6
CONTINUOUS
 90
6
 70
0
 10
6.3642631642
 20
5.5904666058
 10
6.3628752065
 20
5.651176542
 10
6.361469818
 20
5.7092005125
 10
6.3600529305
 20
5.7628781031
 10
6.3586400213
 20
5.810376695
 10
6.3572468081
 20
5.8502728387
  0
LWPOLYLINE
  5
579
100
AcDbEntity
  8
0
100
AcDbPolyline
 62
7
  6
CONTINUOUS
 90
7
 70
0
 10
6.3056501675
 20
5.5706313561
 10
6.3044227985
 20
5.6251525571
 10
6.3031853286
 20
5.6778924479
 10
6.301934579
 20
5.7279947644
 10
6.3006780087
 20
5.7741969781
 10
6.2994278534
 20
5.8152364896
 10
6.29819169
 20
5.8502728387
  0
LINE
  5
57A
100
AcDbEntity
  8
0
100
AcDbLine
 62
7
  6
CONTINUOUS
 10
6.3096826237
 20
5.3876543691
 11
6.3056501675
 21
5.5706313561
  0
LINE
  5
57B
100
AcDbEntity
  8
0
100
AcDbLine
 62
7
  6
CONTINUOUS
 10
6.3573037108
 20
5.5706313561
 11
6.361336167
 21
5.3876543691
  0
LINE
  5
57C
100
AcDbEntity
  8
0
100
AcDbLine
 62
7
  6
CONTINUOUS
 10
6.3684895512
 20
5.3986828256
 11
6.3642631642
 21
5.5904666058
  0
LINE
  5
57D
100
AcDbEntity
  8
0
100
AcDbLine
 62
7
  6
CONTINUOUS
 10
6.7804375732
 20
5.7399730439
 11
6.7807157843
 21
5.7402137836
  0
LINE
  5
57E
100
AcDbEntity
  8
0
100
AcDbLine
 62
7
  6
CONTINUOUS
 10
6.8198076519
 20
5.7399730439
 11
6.820085863
 21
5.7402137836
  0
LINE
  5
57F
100
AcDbEntity
  8
0
100
AcDbLine
 62
7
  6
CONTINUOUS
 10
6.5135667377
 20
5.7813752009
 11
6.4893772016
 21
5.7813752009
  0
LINE
  5
580
100
AcDbEntity
  8
02___PRT_ALL_AXES
100
AcDbLine
 62
7
  6
CONTINUOUS
 10
6.4893772016
 20
5.7813752009
 11
6.5135667377
 21
5.7813752009
  0
LWPOLYLINE
  5
581
100
AcDbEntity
  8
0
100
AcDbPolyline
 62
7
  6
CONTINUOUS
 90
6
 70
0
 10
5.9185110599
 20
5.8466379514
 10
5.9124280482
 20
5.8474235017
 10
5.9069404841
 20
5.8497032576
 10
5.9025855285
 20
5.8532540607
 10
5.8997894749
 20
5.8577283336
 10
5.8988260205
 20
5.8626881034
  0
LINE
  5
582
100
AcDbEntity
  8
0
100
AcDbLine
 62
7
  6
CONTINUOUS
 10
6.7607525338
 20
5.2519112162
 11
6.7610307449
 21
5.2516704765
  0
LINE
  5
583
100
AcDbEntity
  8
0
100
AcDbLine
 62
7
  6
CONTINUOUS
 10
6.8001226126
 20
5.2519112162
 11
6.8004008237
 21
5.2516704765
  0
LINE
  5
584
100
AcDbEntity
  8
0
100
AcDbLine
 62
7
  6
CONTINUOUS
 10
6.8394926913
 20
5.2519112162
 11
6.8397709024
 21
5.2516704765
  0
LWPOLYLINE
  5
585
100
AcDbEntity
  8
0
100
AcDbPolyline
 62
7
  6
CONTINUOUS
 90
7
 70
0
 10
6.4421313045
 20
5.8502728387
 10
6.4434439409
 20
5.8247004052
 10
6.4447565773
 20
5.7927261404
 10
6.4460692137
 20
5.7549726714
 10
6.4473818501
 20
5.7121751626
 10
6.4486944865
 20
5.6651669996
 10
6.4500071229
 20
5.6148635611
  0
LWPOLYLINE
  5
586
100
AcDbEntity
  8
0
100
AcDbPolyline
 62
7
  6
CONTINUOUS
 90
7
 70
0
 10
6.4387217556
 20
5.8502728387
 10
6.4401324265
 20
5.8225266164
 10
6.4415430974
 20
5.7874373488
 10
6.4429537683
 20
5.745793996
 10
6.4443644393
 20
5.6985328823
 10
6.4457751102
 20
5.6467166439
 10
6.4471857811
 20
5.5915103361
  0
LWPOLYLINE
  5
587
100
AcDbEntity
  8
0
100
AcDbPolyline
 62
7
  6
CONTINUOUS
 90
7
 70
0
 10
6.3796666375
 20
5.8502728387
 10
6.3811067796
 20
5.8218661752
 10
6.3825469216
 20
5.7858225281
 10
6.3839870636
 20
5.7429864646
 10
6.3854272057
 20
5.6943617103
 10
6.3868673477
 20
5.6410876302
 10
6.3883074897
 20
5.5844125312
  0
LWPOLYLINE
  5
588
100
AcDbEntity
  8
0
100
AcDbPolyline
 62
7
  6
CONTINUOUS
 90
7
 70
0
 10
6.3830761863
 20
5.8502728387
 10
6.3845163284
 20
5.8218661752
 10
6.3859564704
 20
5.7858225281
 10
6.3873966125
 20
5.7429864646
 10
6.3888367545
 20
5.6943617103
 10
6.3902768965
 20
5.6410876302
 10
6.3917170386
 20
5.5844125312
  0
LWPOLYLINE
  5
589
100
AcDbEntity
  8
0
100
AcDbPolyline
 62
7
  6
CONTINUOUS
 90
6
 70
0
 10
6.4270981463
 20
5.1416114214
 10
6.425698332
 20
5.1817137639
 10
6.4242985155
 20
5.2287732828
 10
6.4228986866
 20
5.2817484987
 10
6.4214988566
 20
5.33946616
 10
6.4200990251
 20
5.4006483798
  0
LWPOLYLINE
  5
58A
100
AcDbEntity
  8
0
100
AcDbPolyline
 62
7
  6
CONTINUOUS
 90
6
 70
0
 10
6.4163019262
 20
5.8502728387
 10
6.417701724
 20
5.8101710103
 10
6.4191015535
 20
5.7631111038
 10
6.4205013908
 20
5.7101355689
 10
6.4219012112
 20
5.6524183053
 10
6.4233010295
 20
5.5912366777
  0
LWPOLYLINE
  5
58B
100
AcDbEntity
  8
0
100
AcDbPolyline
 62
7
  6
CONTINUOUS
 90
7
 70
0
 10
6.3926279158
 20
5.4074717289
 10
6.3940680579
 20
5.35079663
 10
6.3955081999
 20
5.2975225498
 10
6.396948342
 20
5.2488977955
 10
6.398388484
 20
5.206061732
 10
6.399828626
 20
5.1700180849
 10
6.4012687681
 20
5.1416114214
  0
LWPOLYLINE
  5
58C
100
AcDbEntity
  8
0
100
AcDbPolyline
 62
7
  6
CONTINUOUS
 90
7
 70
0
 10
6.3960374647
 20
5.4074717289
 10
6.3974776067
 20
5.35079663
 10
6.3989177488
 20
5.2975225498
 10
6.4003578908
 20
5.2488977955
 10
6.4017980328
 20
5.206061732
 10
6.4032381749
 20
5.1700180849
 10
6.4046783169
 20
5.1416114214
  0
LINE
  5
58D
100
AcDbEntity
  8
0
100
AcDbLine
 62
7
  6
CONTINUOUS
 10
6.3883074897
 20
5.5844125312
 11
6.3926279158
 21
5.4074717289
  0
LINE
  5
58E
100
AcDbEntity
  8
0
100
AcDbLine
 62
7
  6
CONTINUOUS
 10
6.3917170386
 20
5.5844125312
 11
6.3960374647
 21
5.4074717289
  0
LINE
  5
58F
100
AcDbEntity
  8
0
100
AcDbLine
 62
7
  6
CONTINUOUS
 10
6.4471857811
 20
5.5915103361
 11
6.4500071229
 21
5.4759409419
  0
LWPOLYLINE
  5
590
100
AcDbEntity
  8
0
100
AcDbPolyline
 62
7
  6
CONTINUOUS
 90
6
 70
0
 10
6.4158994913
 20
5.5912350463
 10
6.4144996721
 20
5.6524167826
 10
6.4130998356
 20
5.7101347925
 10
6.4116999856
 20
5.7631108547
 10
6.4103001499
 20
5.8101709903
 10
6.4089003514
 20
5.8502728387
  0
LWPOLYLINE
  5
591
100
AcDbEntity
  8
0
100
AcDbPolyline
 62
7
  6
CONTINUOUS
 90
6
 70
0
 10
6.4275005879
 20
5.4006489183
 10
6.4289004216
 20
5.3394665745
 10
6.4303002475
 20
5.2817490482
 10
6.4317000733
 20
5.2287738932
 10
6.4330998964
 20
5.1817140905
 10
6.4344997211
 20
5.1416114214
  0
LINE
  5
592
100
AcDbEntity
  8
0
100
AcDbLine
 62
7
  6
CONTINUOUS
 10
6.4200990251
 20
5.4006483798
 11
6.4158994913
 21
5.5912350463
  0
LINE
  5
593
100
AcDbEntity
  8
0
100
AcDbLine
 62
7
  6
CONTINUOUS
 10
6.4233010295
 20
5.5912366777
 11
6.4275005879
 21
5.4006489183
  0
LINE
  5
594
100
AcDbEntity
  8
0
100
AcDbLine
 62
7
  6
CONTINUOUS
 10
6.4500071229
 20
5.1416114214
 11
6.4500071229
 21
5.8502728387
  0
LINE
  5
595
100
AcDbEntity
  8
0
100
AcDbLine
 62
7
  6
CONTINUOUS
 10
6.8591777307
 20
5.7399730439
 11
6.8594559418
 21
5.7402137836
  0
LINE
  5
596
100
AcDbEntity
  8
0
100
AcDbLine
 62
7
  6
CONTINUOUS
 10
6.8985478094
 20
5.7399730439
 11
6.8988260205
 21
5.7402137836
  0
LINE
  5
597
100
AcDbEntity
  8
0
100
AcDbLine
 62
7
  6
CONTINUOUS
 10
6.9379178882
 20
5.7399730439
 11
6.9381960993
 21
5.7402137836
  0
LINE
  5
598
100
AcDbEntity
  8
0
100
AcDbLine
 62
7
  6
CONTINUOUS
 10
5.9439996166
 20
5.8466379514
 11
5.9185110599
 21
5.8466379514
  0
LINE
  5
599
100
AcDbEntity
  8
0
100
AcDbLine
 62
7
  6
CONTINUOUS
 10
6.4696921622
 20
5.8491792254
 11
6.4500071229
 21
5.8491792254
  0
LINE
  5
59A
100
AcDbEntity
  8
0
100
AcDbLine
 62
7
  6
CONTINUOUS
 10
5.9185110599
 20
5.8502728387
 11
6.4696921622
 21
5.8502728387
  0
LINE
  5
59B
100
AcDbEntity
  8
02___PRT_ALL_AXES
100
AcDbLine
 62
7
  6
CONTINUOUS
 10
6.5434344209
 20
5.7775363496
 11
6.6715404548
 21
5.744052635
  0
LINE
  5
59C
100
AcDbEntity
  8
0
100
AcDbLine
 62
7
  6
CONTINUOUS
 10
6.8788627701
 20
5.2519112162
 11
6.8791409811
 21
5.2516704765
  0
LINE
  5
59D
100
AcDbEntity
  8
0
100
AcDbLine
 62
7
  6
CONTINUOUS
 10
6.9182328488
 20
5.2519112162
 11
6.9185110599
 21
5.2516704765
  0
LINE
  5
59E
100
AcDbEntity
  8
0
100
AcDbLine
 62
7
  6
CONTINUOUS
 10
6.9576029275
 20
5.2519112162
 11
6.9578811386
 21
5.2516704765
  0
LINE
  5
59F
100
AcDbEntity
  8
0
100
AcDbLine
 62
7
  6
CONTINUOUS
 10
6.4696921622
 20
5.1416114214
 11
6.4696921622
 21
5.8502728387
  0
LINE
  5
5A0
100
AcDbEntity
  8
0
100
AcDbLine
 62
7
  6
CONTINUOUS
 10
6.4893772016
 20
5.8305877993
 11
6.4893772016
 21
5.1612964608
  0
LINE
  5
5A1
100
AcDbEntity
  8
0
100
AcDbLine
 62
7
  6
CONTINUOUS
 10
6.5135667377
 20
5.2105090592
 11
6.5135667377
 21
5.7813752009
  0
LINE
  5
5A2
100
AcDbEntity
  8
0
100
AcDbLine
 62
7
  6
CONTINUOUS
 10
6.5434344209
 20
5.2143479105
 11
6.5434344209
 21
5.7775363496
  0
LINE
  5
5A3
100
AcDbEntity
  8
0
100
AcDbLine
 62
7
  6
CONTINUOUS
 10
6.7413457056
 20
5.7402137836
 11
6.7237086375
 21
5.7096654856
  0
LINE
  5
5A4
100
AcDbEntity
  8
0
100
AcDbLine
 62
7
  6
CONTINUOUS
 10
6.7363193666
 20
5.7359246905
 11
6.7226254076
 21
5.7126646577
  0
LWPOLYLINE
  5
5A5
100
AcDbEntity
  8
0
100
AcDbPolyline
 62
7
  6
CONTINUOUS
 90
3
 70
0
 10
6.7363193666
 20
5.7359246905
 10
6.737495568
 20
5.7376941265
 10
6.7413457056
 20
5.7402137836
  0
LINE
  5
5A6
100
AcDbEntity
  8
0
100
AcDbLine
 62
7
  6
CONTINUOUS
 10
6.9772879669
 20
5.7399730439
 11
6.977566178
 21
5.7402137836
  0
LINE
  5
5A7
100
AcDbEntity
  8
0
100
AcDbLine
 62
7
  6
CONTINUOUS
 10
7.0166580457
 20
5.7399730439
 11
7.0169362567
 21
5.7402137836
  0
LINE
  5
5A8
100
AcDbEntity
  8
0
100
AcDbLine
 62
7
  6
CONTINUOUS
 10
6.9969730063
 20
5.2519112162
 11
6.9972512174
 21
5.2516704765
  0
LINE
  5
5A9
100
AcDbEntity
  8
0
100
AcDbLine
 62
7
  6
CONTINUOUS
 10
7.0366213076
 20
5.2516704765
 11
7.036343085
 21
5.2519112162
  0
LINE
  5
5AA
100
AcDbEntity
  8
0
100
AcDbLine
 62
7
  6
CONTINUOUS
 10
6.742996092
 20
5.2826316178
 11
6.7607525338
 21
5.2519112162
  0
LWPOLYLINE
  5
5AB
100
AcDbEntity
  8
0
100
AcDbPolyline
 62
7
  6
CONTINUOUS
 90
6
 70
0
 10
6.4893772016
 20
5.8305877993
 10
6.4884137472
 20
5.836332866
 10
6.4856176936
 20
5.8415155654
 10
6.4812627381
 20
5.845628579
 10
6.4757751739
 20
5.8482692963
 10
6.4696921622
 20
5.8491792254
  0
LINE
  5
5AC
100
AcDbEntity
  8
0
100
AcDbLine
 62
7
  6
CONTINUOUS
 10
6.7804375732
 20
5.7399730439
 11
6.7629992487
 21
5.7098029572
  0
LINE
  5
5AD
100
AcDbEntity
  8
0
100
AcDbLine
 62
7
  6
CONTINUOUS
 10
6.8198076519
 20
5.7399730439
 11
6.8023693275
 21
5.7098029572
  0
LINE
  5
5AE
100
AcDbEntity
  8
0
100
AcDbLine
 62
7
  6
CONTINUOUS
 10
6.8591777307
 20
5.7399730439
 11
6.8417394062
 21
5.7098029572
  0
LINE
  5
5AF
100
AcDbEntity
  8
0
100
AcDbLine
 62
7
  6
CONTINUOUS
 10
6.7823661707
 20
5.2826316178
 11
6.8001226126
 21
5.2519112162
  0
LINE
  5
5B0
100
AcDbEntity
  8
0
100
AcDbLine
 62
7
  6
CONTINUOUS
 10
6.8217362495
 20
5.2826316178
 11
6.8394926913
 21
5.2519112162
  0
LWPOLYLINE
  5
5B1
100
AcDbEntity
  8
0
100
AcDbPolyline
 62
7
  6
CONTINUOUS
 90
10
 70
0
 10
6.742996092
 20
5.2826316178
 10
6.742732125
 20
5.2832773513
 10
6.7417267063
 20
5.2891746874
 10
6.7407212876
 20
5.3003841844
 10
6.739715869
 20
5.3166178538
 10
6.7387104503
 20
5.3374586286
 10
6.7377050316
 20
5.3623710786
 10
6.7366996129
 20
5.3907151661
 10
6.7356941943
 20
5.4217626896
 10
6.7346887756
 20
5.4547159926
  0
LWPOLYLINE
  5
5B2
100
AcDbEntity
  8
0
100
AcDbPolyline
 62
7
  6
CONTINUOUS
 90
9
 70
0
 10
6.7255976741
 20
5.2516704765
 10
6.7246164037
 20
5.2546597099
 10
6.7236226903
 20
5.2637041674
 10
6.7226288886
 20
5.2785789026
 10
6.7216469189
 20
5.2986376953
 10
6.7206679745
 20
5.3234487911
 10
6.7196846925
 20
5.352598544
 10
6.7187083296
 20
5.3850305543
 10
6.7177339951
 20
5.4200748939
  0
LINE
  5
5B3
100
AcDbEntity
  8
0
100
AcDbLine
 62
7
  6
CONTINUOUS
 10
6.6715404548
 20
5.744052635
 11
6.6715404548
 21
5.2478316252
  0
LINE
  5
5B4
100
AcDbEntity
  8
0
100
AcDbLine
 62
7
  6
CONTINUOUS
 10
6.701408138
 20
5.7402137836
 11
6.701408138
 21
5.2516704765
  0
LINE
  5
5B5
100
AcDbEntity
  8
0
100
AcDbLine
 62
7
  6
CONTINUOUS
 10
6.8985478094
 20
5.7399730439
 11
6.881109485
 21
5.7098029572
  0
LINE
  5
5B6
100
AcDbEntity
  8
0
100
AcDbLine
 62
7
  6
CONTINUOUS
 10
6.9379178882
 20
5.7399730439
 11
6.9204795637
 21
5.7098029572
  0
LINE
  5
5B7
100
AcDbEntity
  8
0
100
AcDbLine
 62
7
  6
CONTINUOUS
 10
6.7258758852
 20
5.2519112163
 11
6.7255976741
 21
5.2516704765
  0
LINE
  5
5B8
100
AcDbEntity
  8
0
100
AcDbLine
 62
7
  6
CONTINUOUS
 10
6.7652459639
 20
5.2519112163
 11
6.7649677528
 21
5.2516704765
  0
LWPOLYLINE
  5
5B9
100
AcDbEntity
  8
0
100
AcDbPolyline
 62
7
  6
CONTINUOUS
 90
3
 70
0
 10
7.0405583226
 20
5.2516704765
 10
7.0407169462
 20
5.2517487626
 10
7.0408365151
 20
5.2519112163
  0
LINE
  5
5BA
100
AcDbEntity
  8
0
100
AcDbLine
 62
7
  6
CONTINUOUS
 10
5.8594559418
 20
6.0864933112
 11
5.4263850756
 21
6.0864933112
  0
LINE
  5
5BB
100
AcDbEntity
  8
AXIS
100
AcDbLine
 62
7
  6
CONTINUOUS
 10
5.4263850756
 20
6.0864933112
 11
5.8594559418
 21
6.0864933112
  0
LINE
  5
5BC
100
AcDbEntity
  8
0
100
AcDbLine
 62
7
  6
CONTINUOUS
 10
6.7073477592
 20
5.7389761825
 11
6.7059126347
 21
5.7402137836
  0
LINE
  5
5BD
100
AcDbEntity
  8
0
100
AcDbLine
 62
7
  6
CONTINUOUS
 10
6.7455609245
 20
5.7399730438
 11
6.7452827134
 21
5.7402137836
  0
LINE
  5
5BE
100
AcDbEntity
  8
0
100
AcDbLine
 62
7
  6
CONTINUOUS
 10
6.8611063282
 20
5.2826316178
 11
6.8788627701
 21
5.2519112162
  0
LINE
  5
5BF
100
AcDbEntity
  8
0
100
AcDbLine
 62
7
  6
CONTINUOUS
 10
6.900476407
 20
5.2826316178
 11
6.9182328488
 21
5.2519112162
  0
LWPOLYLINE
  5
5C0
100
AcDbEntity
  8
0
100
AcDbPolyline
 62
7
  6
CONTINUOUS
 90
10
 70
0
 10
6.7823661707
 20
5.2826316178
 10
6.7819434534
 20
5.283847514
 10
6.7809380347
 20
5.2905972513
 10
6.7799326161
 20
5.3026226017
 10
6.7789271974
 20
5.3196146163
 10
6.7779217787
 20
5.3411367451
 10
6.77691636
 20
5.3666360527
 10
6.7759109414
 20
5.3954574245
 10
6.7749055227
 20
5.4268603966
 10
6.773900104
 20
5.4600381805
  0
LWPOLYLINE
  5
5C1
100
AcDbEntity
  8
0
100
AcDbPolyline
 62
7
  6
CONTINUOUS
 90
9
 70
0
 10
6.7649677528
 20
5.2516704765
 10
6.7639858306
 20
5.2546636745
 10
6.7629916196
 20
5.2637180614
 10
6.7619975537
 20
5.2786040519
 10
6.761015558
 20
5.298670787
 10
6.7600367699
 20
5.3234842209
 10
6.7590538757
 20
5.3526268137
 10
6.7580778714
 20
5.3850492039
 10
6.7571034785
 20
5.4200969545
  0
LWPOLYLINE
  5
5C2
100
AcDbEntity
  8
0
100
AcDbPolyline
 62
7
  6
CONTINUOUS
 90
9
 70
0
 10
6.8043378315
 20
5.2516704765
 10
6.8033551716
 20
5.2546681645
 10
6.8023604086
 20
5.2637336617
 10
6.8013660253
 20
5.2786326588
 10
6.8003839541
 20
5.2987094809
 10
6.799405266
 20
5.3235279206
 10
6.7984227065
 20
5.3526662125
 10
6.7974469768
 20
5.3850830169
 10
6.7964724733
 20
5.4201371243
  0
LWPOLYLINE
  5
5C3
100
AcDbEntity
  8
0
100
AcDbPolyline
 62
7
  6
CONTINUOUS
 90
9
 70
0
 10
6.770883848
 20
5.5616005556
 10
6.7698784293
 20
5.5932293093
 10
6.7688730106
 20
5.6223586117
 10
6.7678675919
 20
5.6482400881
 10
6.7668621733
 20
5.670208805
 10
6.7658567546
 20
5.6877003537
 10
6.7648513359
 20
5.7002653505
 10
6.7638459172
 20
5.7075809822
 10
6.7633173663
 20
5.7092526424
  0
LWPOLYLINE
  5
5C4
100
AcDbEntity
  8
0
100
AcDbPolyline
 62
7
  6
CONTINUOUS
 90
9
 70
0
 10
6.7316725195
 20
5.5564307804
 10
6.7306671009
 20
5.588381269
 10
6.7296616822
 20
5.6179568597
 10
6.7286562635
 20
5.6443977118
 10
6.7276508448
 20
5.6670245208
 10
6.7266454262
 20
5.6852559705
 10
6.7256400075
 20
5.6986236682
 10
6.7246345888
 20
5.7067841779
 10
6.7239472876
 20
5.7092526424
  0
LINE
  5
5C5
100
AcDbEntity
  8
0
100
AcDbLine
 62
7
  6
CONTINUOUS
 10
6.7346887756
 20
5.4547159926
 11
6.7316725195
 21
5.5564307804
  0
LINE
  5
5C6
100
AcDbEntity
  8
0
100
AcDbLine
 62
7
  6
CONTINUOUS
 10
6.773900104
 20
5.4600381805
 11
6.770883848
 21
5.5616005556
  0
LWPOLYLINE
  5
5C7
100
AcDbEntity
  8
0
100
AcDbPolyline
 62
7
  6
CONTINUOUS
 90
8
 70
0
 10
6.7137788261
 20
5.5717162569
 10
6.7128041025
 20
5.6067799448
 10
6.7118286616
 20
5.6391895721
 10
6.7108465272
 20
5.6683196928
 10
6.709867937
 20
5.6931420053
 10
6.7088857967
 20
5.713227459
 10
6.7078911667
 20
5.7281371753
 10
6.7068959386
 20
5.7372121734
  0
LWPOLYLINE
  5
5C8
100
AcDbEntity
  8
0
100
AcDbPolyline
 62
7
  6
CONTINUOUS
 90
9
 70
0
 10
6.753167066
 20
5.4200748939
 10
6.7541414005
 20
5.3850305543
 10
6.7551177633
 20
5.352598544
 10
6.7561010454
 20
5.3234487911
 10
6.7570799898
 20
5.2986376953
 10
6.7580619594
 20
5.2785789026
 10
6.7590557611
 20
5.2637041674
 10
6.7600494746
 20
5.2546597099
 10
6.7607525338
 20
5.2519112162
  0
LWPOLYLINE
  5
5C9
100
AcDbEntity
  8
0
100
AcDbPolyline
 62
7
  6
CONTINUOUS
 90
9
 70
0
 10
6.7531485191
 20
5.5717305541
 10
6.7521739587
 20
5.6067876775
 10
6.7511983467
 20
5.6392020016
 10
6.7502159312
 20
5.6683383286
 10
6.7492372823
 20
5.6931588768
 10
6.7482552127
 20
5.7132392616
 10
6.7472607323
 20
5.7281433865
 10
6.7462657272
 20
5.7372139403
 10
6.7455609245
 20
5.7399730438
  0
LWPOLYLINE
  5
5CA
100
AcDbEntity
  8
0
100
AcDbPolyline
 62
7
  6
CONTINUOUS
 90
9
 70
0
 10
6.7925365494
 20
5.4200969545
 10
6.7935109423
 20
5.3850492039
 10
6.7944869465
 20
5.3526268137
 10
6.7954698407
 20
5.3234842209
 10
6.7964486289
 20
5.298670787
 10
6.7974306246
 20
5.2786040519
 10
6.7984246905
 20
5.2637180614
 10
6.7994189015
 20
5.2546636745
 10
6.8001226126
 20
5.2519112162
  0
LINE
  5
5CB
100
AcDbEntity
  8
0
100
AcDbLine
 62
7
  6
CONTINUOUS
 10
6.7177339951
 20
5.4200748939
 11
6.7137788261
 21
5.5717162569
  0
LINE
  5
5CC
100
AcDbEntity
  8
0
100
AcDbLine
 62
7
  6
CONTINUOUS
 10
6.749211897
 20
5.5717162569
 11
6.753167066
 21
5.4200748939
  0
LINE
  5
5CD
100
AcDbEntity
  8
0
100
AcDbLine
 62
7
  6
CONTINUOUS
 10
6.7571034785
 20
5.4200969545
 11
6.7531485191
 21
5.5717305541
  0
LINE
  5
5CE
100
AcDbEntity
  8
0
100
AcDbLine
 62
7
  6
CONTINUOUS
 10
6.78858159
 20
5.5717305541
 11
6.7925365494
 21
5.4200969545
  0
LINE
  5
5CF
100
AcDbEntity
  8
0
100
AcDbLine
 62
7
  6
CONTINUOUS
 10
6.9772879669
 20
5.7399730439
 11
6.9598496424
 21
5.7098029572
  0
LINE
  5
5D0
100
AcDbEntity
  8
0
100
AcDbLine
 62
7
  6
CONTINUOUS
 10
6.7258758852
 20
5.2519112163
 11
6.7433142094
 21
5.2820813029
  0
LINE
  5
5D1
100
AcDbEntity
  8
0
100
AcDbLine
 62
7
  6
CONTINUOUS
 10
7.0166580457
 20
5.7399730439
 11
6.9992197212
 21
5.7098029572
  0
LINE
  5
5D2
100
AcDbEntity
  8
0
100
AcDbLine
 62
7
  6
CONTINUOUS
 10
6.7652459639
 20
5.2519112163
 11
6.7826842881
 21
5.2820813029
  0
LINE
  5
5D3
100
AcDbEntity
  8
0
100
AcDbLine
 62
7
  6
CONTINUOUS
 10
6.8046160426
 20
5.2519112163
 11
6.8043378315
 21
5.2516704765
  0
LINE
  5
5D4
100
AcDbEntity
  8
0
100
AcDbLine
 62
7
  6
CONTINUOUS
 10
6.8439861214
 20
5.2519112163
 11
6.8437079103
 21
5.2516704765
  0
LINE
  5
5D5
100
AcDbEntity
  8
0
100
AcDbLine
 62
7
  6
CONTINUOUS
 10
6.8833562001
 20
5.2519112163
 11
6.883077989
 21
5.2516704765
  0
LINE
  5
5D6
100
AcDbEntity
  8
0
100
AcDbLine
 62
7
  6
CONTINUOUS
 10
6.7849310033
 20
5.7399730438
 11
6.7846527922
 21
5.7402137836
  0
LINE
  5
5D7
100
AcDbEntity
  8
0
100
AcDbLine
 62
7
  6
CONTINUOUS
 10
6.824301082
 20
5.7399730438
 11
6.8240228709
 21
5.7402137836
  0
LINE
  5
5D8
100
AcDbEntity
  8
0
100
AcDbLine
 62
7
  6
CONTINUOUS
 10
6.8636711607
 20
5.7399730438
 11
6.8633929496
 21
5.7402137836
  0
LINE
  5
5D9
100
AcDbEntity
  8
0
100
AcDbLine
 62
7
  6
CONTINUOUS
 10
6.9030412395
 20
5.7399730438
 11
6.9027630284
 21
5.7402137836
  0
LINE
  5
5DA
100
AcDbEntity
  8
0
100
AcDbLine
 62
7
  6
CONTINUOUS
 10
6.72292143
 20
5.7121550705
 11
6.7073477592
 21
5.7389761825
  0
LINE
  5
5DB
100
AcDbEntity
  8
0
100
AcDbLine
 62
7
  6
CONTINUOUS
 10
6.9398464857
 20
5.2826316178
 11
6.9576029275
 21
5.2519112162
  0
LINE
  5
5DC
100
AcDbEntity
  8
0
100
AcDbLine
 62
7
  6
CONTINUOUS
 10
6.7239472876
 20
5.7092526424
 11
6.7061908458
 21
5.7399730438
  0
LINE
  5
5DD
100
AcDbEntity
  8
0
100
AcDbLine
 62
7
  6
CONTINUOUS
 10
6.9792165644
 20
5.2826316178
 11
6.9969730063
 21
5.2519112162
  0
LINE
  5
5DE
100
AcDbEntity
  8
0
100
AcDbLine
 62
7
  6
CONTINUOUS
 10
6.7633173663
 20
5.7092526424
 11
6.7455609245
 21
5.7399730438
  0
LINE
  5
5DF
100
AcDbEntity
  8
0
100
AcDbLine
 62
7
  6
CONTINUOUS
 10
7.0185866432
 20
5.2826316178
 11
7.036343085
 21
5.2519112162
  0
LWPOLYLINE
  5
5E0
100
AcDbEntity
  8
0
100
AcDbPolyline
 62
7
  6
CONTINUOUS
 90
10
 70
0
 10
6.8437079103
 20
5.2516704765
 10
6.8427734477
 20
5.2543818481
 10
6.8418271555
 20
5.2625917072
 10
6.8408796939
 20
5.2761334789
 10
6.8399415528
 20
5.2944856554
 10
6.8390104711
 20
5.3171576691
 10
6.8380734583
 20
5.3439509588
 10
6.8371405457
 20
5.373998279
 10
6.8362123365
 20
5.4065730793
 10
6.8352816628
 20
5.4411990569
  0
LWPOLYLINE
  5
5E1
100
AcDbEntity
  8
0
100
AcDbPolyline
 62
7
  6
CONTINUOUS
 90
9
 70
0
 10
6.883077989
 20
5.2516704765
 10
6.8820961873
 20
5.2546629414
 10
6.881102069
 20
5.263715484
 10
6.8801080567
 20
5.2785993058
 10
6.8791260742
 20
5.2986643504
 10
6.87814727
 20
5.3234769337
 10
6.8771643207
 20
5.3526202226
 10
6.8761882681
 20
5.3850436327
 10
6.8752138942
 20
5.4200903037
  0
LWPOLYLINE
  5
5E2
100
AcDbEntity
  8
0
100
AcDbPolyline
 62
7
  6
CONTINUOUS
 90
9
 70
0
 10
6.7413457056
 20
5.7402137836
 10
6.7423290094
 20
5.7372121734
 10
6.7433242375
 20
5.7281371753
 10
6.7443188675
 20
5.713227459
 10
6.7453010078
 20
5.6931420053
 10
6.746279598
 20
5.6683196928
 10
6.7472617324
 20
5.6391895721
 10
6.7482371734
 20
5.6067799448
 10
6.749211897
 20
5.5717162569
  0
LWPOLYLINE
  5
5E3
100
AcDbEntity
  8
0
100
AcDbPolyline
 62
7
  6
CONTINUOUS
 90
9
 70
0
 10
6.8217362495
 20
5.2826316178
 10
6.8211547818
 20
5.2845538095
 10
6.8201493632
 20
5.2921516157
 10
6.8191439445
 20
5.3049851011
 10
6.8181385258
 20
5.3227245546
 10
6.8171331071
 20
5.3449142233
 10
6.8161276885
 20
5.3709840219
 10
6.8151222698
 20
5.4002641789
 10
6.8141168511
 20
5.4320024437
  0
LINE
  5
5E4
100
AcDbEntity
  8
0
100
AcDbLine
 62
7
  6
CONTINUOUS
 10
6.7236291701
 20
5.7095278441
 11
6.72292143
 21
5.7121550705
  0
LWPOLYLINE
  5
5E5
100
AcDbEntity
  8
0
100
AcDbPolyline
 62
7
  6
CONTINUOUS
 90
9
 70
0
 10
6.8611063282
 20
5.2826316178
 10
6.8603661103
 20
5.2853957844
 10
6.8593606916
 20
5.2938367829
 10
6.8583552729
 20
5.3074701661
 10
6.8573498542
 20
5.3259456724
 10
6.8563444356
 20
5.3487886387
 10
6.8553390169
 20
5.3754121954
 10
6.8543335982
 20
5.4051323442
 10
6.8533281795
 20
5.4371855304
  0
LINE
  5
5E6
100
AcDbEntity
  8
0
100
AcDbLine
 62
7
  6
CONTINUOUS
 10
6.7068959386
 20
5.7372121734
 11
6.7061908458
 21
5.7399730438
  0
LWPOLYLINE
  5
5E7
100
AcDbEntity
  8
0
100
AcDbPolyline
 62
7
  6
CONTINUOUS
 90
8
 70
0
 10
6.8483010861
 20
5.6027349871
 10
6.8472956675
 20
5.6309159216
 10
6.8462902488
 20
5.6556291801
 10
6.8452848301
 20
5.6762398425
 10
6.8442794114
 20
5.6922183904
 10
6.8432739927
 20
5.7031543114
 10
6.8422685741
 20
5.7087666456
 10
6.8420575238
 20
5.7092526424
  0
LWPOLYLINE
  5
5E8
100
AcDbEntity
  8
0
100
AcDbPolyline
 62
7
  6
CONTINUOUS
 90
8
 70
0
 10
6.8305845507
 20
5.6180779568
 10
6.8296528957
 20
5.6480683743
 10
6.8287169012
 20
5.6748171176
 10
6.8277866221
 20
5.6974560478
 10
6.8268493945
 20
5.7157795584
 10
6.8259026272
 20
5.7293040591
 10
6.8249568855
 20
5.7375050063
 10
6.824301082
 20
5.7399730438
  0
LWPOLYLINE
  5
5E9
100
AcDbEntity
  8
0
100
AcDbPolyline
 62
7
  6
CONTINUOUS
 90
3
 70
0
 10
6.8503119235
 20
5.5389366182
 10
6.8493065048
 20
5.5718103864
 10
6.8483010861
 20
5.6027349871
  0
LWPOLYLINE
  5
5EA
100
AcDbEntity
  8
0
100
AcDbPolyline
 62
7
  6
CONTINUOUS
 90
10
 70
0
 10
6.8111005951
 20
5.5336228718
 10
6.8100951764
 20
5.566728188
 10
6.8090897577
 20
5.5980149059
 10
6.808084339
 20
5.6266792234
 10
6.8070789204
 20
5.651984712
 10
6.8060735017
 20
5.6732812362
 10
6.805068083
 20
5.690021657
 10
6.8040626643
 20
5.7017758881
 10
6.8030572456
 20
5.7082419461
 10
6.8026874451
 20
5.7092526424
  0
LINE
  5
5EB
100
AcDbEntity
  8
0
100
AcDbLine
 62
7
  6
CONTINUOUS
 10
6.8141168511
 20
5.4320024437
 11
6.8111005951
 21
5.5336228718
  0
LINE
  5
5EC
100
AcDbEntity
  8
0
100
AcDbLine
 62
7
  6
CONTINUOUS
 10
6.8533281795
 20
5.4371855304
 11
6.8503119235
 21
5.5389366182
  0
LWPOLYLINE
  5
5ED
100
AcDbEntity
  8
0
100
AcDbPolyline
 62
7
  6
CONTINUOUS
 90
3
 70
0
 10
6.8660176216
 20
5.6180779568
 10
6.8669463418
 20
5.5854988583
 10
6.8678769914
 20
5.550882664
  0
LWPOLYLINE
  5
5EE
100
AcDbEntity
  8
0
100
AcDbPolyline
 62
7
  6
CONTINUOUS
 90
9
 70
0
 10
6.7925175094
 20
5.5717708898
 10
6.7915430577
 20
5.6068217116
 10
6.7905671833
 20
5.6392412177
 10
6.7895844306
 20
5.6683819406
 10
6.7886056784
 20
5.6931975744
 10
6.7876236812
 20
5.7132679298
 10
6.7866295149
 20
5.7281590684
 10
6.7856350586
 20
5.7372184909
 10
6.7849310033
 20
5.7399730438
  0
LWPOLYLINE
  5
5EF
100
AcDbEntity
  8
0
100
AcDbPolyline
 62
7
  6
CONTINUOUS
 90
9
 70
0
 10
6.8319055442
 20
5.4201371243
 10
6.8328800476
 20
5.3850830169
 10
6.8338557774
 20
5.3526662125
 10
6.8348383368
 20
5.3235279206
 10
6.8358170249
 20
5.2987094809
 10
6.8367990961
 20
5.2786326588
 10
6.8377934795
 20
5.2637336617
 10
6.8387882425
 20
5.2546681645
 10
6.8394926913
 20
5.2519112162
  0
LWPOLYLINE
  5
5F0
100
AcDbEntity
  8
0
100
AcDbPolyline
 62
7
  6
CONTINUOUS
 90
9
 70
0
 10
6.8712589379
 20
5.5717237879
 10
6.87028436
 20
5.6067819412
 10
6.8693087891
 20
5.6391954906
 10
6.8683264304
 20
5.6683310643
 10
6.8673477994
 20
5.6931524152
 10
6.8663657184
 20
5.7132344621
 10
6.8653711863
 20
5.7281407503
 10
6.8643760905
 20
5.7372131666
 10
6.8636711607
 20
5.7399730438
  0
LWPOLYLINE
  5
5F1
100
AcDbEntity
  8
0
100
AcDbPolyline
 62
7
  6
CONTINUOUS
 90
3
 70
0
 10
6.8324439206
 20
5.550882664
 10
6.831513271
 20
5.5854988583
 10
6.8305845507
 20
5.6180779568
  0
LWPOLYLINE
  5
5F2
100
AcDbEntity
  8
0
100
AcDbPolyline
 62
7
  6
CONTINUOUS
 90
10
 70
0
 10
6.8707147336
 20
5.4411990569
 10
6.8716454074
 20
5.4065730793
 10
6.8725736166
 20
5.373998279
 10
6.8735065292
 20
5.3439509588
 10
6.874443542
 20
5.3171576691
 10
6.8753746237
 20
5.2944856554
 10
6.8763127648
 20
5.2761334789
 10
6.8772602263
 20
5.2625917072
 10
6.8782065185
 20
5.2543818481
 10
6.8788627701
 20
5.2519112162
  0
LINE
  5
5F3
100
AcDbEntity
  8
0
100
AcDbLine
 62
7
  6
CONTINUOUS
 10
6.7964724733
 20
5.4201371243
 11
6.7925175094
 21
5.5717708898
  0
LINE
  5
5F4
100
AcDbEntity
  8
0
100
AcDbLine
 62
7
  6
CONTINUOUS
 10
6.8279505803
 20
5.5717708898
 11
6.8319055442
 21
5.4201371243
  0
LINE
  5
5F5
100
AcDbEntity
  8
0
100
AcDbLine
 62
7
  6
CONTINUOUS
 10
6.8352816628
 20
5.4411990569
 11
6.8324439206
 21
5.550882664
  0
LINE
  5
5F6
100
AcDbEntity
  8
0
100
AcDbLine
 62
7
  6
CONTINUOUS
 10
6.8678769914
 20
5.550882664
 11
6.8707147336
 21
5.4411990569
  0
LINE
  5
5F7
100
AcDbEntity
  8
0
100
AcDbLine
 62
7
  6
CONTINUOUS
 10
6.8752138942
 20
5.4200903037
 11
6.8712589379
 21
5.5717237879
  0
LINE
  5
5F8
100
AcDbEntity
  8
0
100
AcDbLine
 62
7
  6
CONTINUOUS
 10
7.0518014112
 20
5.7326595991
 11
7.0385897999
 21
5.7098029572
  0
LINE
  5
5F9
100
AcDbEntity
  8
0
100
AcDbLine
 62
7
  6
CONTINUOUS
 10
6.8046160426
 20
5.2519112163
 11
6.8220543669
 21
5.2820813029
  0
LINE
  5
5FA
100
AcDbEntity
  8
0
100
AcDbLine
 62
7
  6
CONTINUOUS
 10
6.8439861214
 20
5.2519112163
 11
6.8614244456
 21
5.2820813029
  0
LINE
  5
5FB
100
AcDbEntity
  8
0
100
AcDbLine
 62
7
  6
CONTINUOUS
 10
6.9227262789
 20
5.2519112163
 11
6.9224480678
 21
5.2516704765
  0
LINE
  5
5FC
100
AcDbEntity
  8
0
100
AcDbLine
 62
7
  6
CONTINUOUS
 10
6.9620963576
 20
5.2519112163
 11
6.9618181465
 21
5.2516704765
  0
LINE
  5
5FD
100
AcDbEntity
  8
0
100
AcDbLine
 62
7
  6
CONTINUOUS
 10
7.0014664363
 20
5.2519112163
 11
7.0011882252
 21
5.2516704765
  0
LINE
  5
5FE
100
AcDbEntity
  8
0
100
AcDbLine
 62
7
  6
CONTINUOUS
 10
6.9424113182
 20
5.7399730438
 11
6.9421331071
 21
5.7402137836
  0
LINE
  5
5FF
100
AcDbEntity
  8
0
100
AcDbLine
 62
7
  6
CONTINUOUS
 10
6.981781397
 20
5.7399730438
 11
6.9815031859
 21
5.7402137836
  0
LINE
  5
600
100
AcDbEntity
  8
0
100
AcDbLine
 62
7
  6
CONTINUOUS
 10
7.0208732646
 20
5.7402137836
 11
7.0211514757
 21
5.7399730438
  0
LINE
  5
601
100
AcDbEntity
  8
0
100
AcDbLine
 62
7
  6
CONTINUOUS
 10
6.8026874451
 20
5.7092526424
 11
6.7849310033
 21
5.7399730438
  0
LINE
  5
602
100
AcDbEntity
  8
0
100
AcDbLine
 62
7
  6
CONTINUOUS
 10
7.0579567219
 20
5.2826316178
 11
7.0642711414
 21
5.2717081308
  0
LINE
  5
603
100
AcDbEntity
  8
0
100
AcDbLine
 62
7
  6
CONTINUOUS
 10
6.8420575238
 20
5.7092526424
 11
6.824301082
 21
5.7399730438
  0
LWPOLYLINE
  5
604
100
AcDbEntity
  8
0
100
AcDbPolyline
 62
7
  6
CONTINUOUS
 90
8
 70
0
 10
6.9792165644
 20
5.2826316178
 10
6.978985255
 20
5.2831769773
 10
6.9779832128
 20
5.2888702354
 10
6.9769811707
 20
5.2998478796
 10
6.9759791286
 20
5.3158297652
 10
6.9749770864
 20
5.3364080412
 10
6.9739750443
 20
5.3610575588
 10
6.9729730021
 20
5.389149273
  0
LWPOLYLINE
  5
605
100
AcDbEntity
  8
0
100
AcDbPolyline
 62
7
  6
CONTINUOUS
 90
8
 70
0
 10
6.9618181465
 20
5.2516704765
 10
6.9608845594
 20
5.2543767791
 10
6.9599391281
 20
5.2625717017
 10
6.9589924728
 20
5.2760902609
 10
6.9580552975
 20
5.2944083379
 10
6.9571247455
 20
5.3170504389
 10
6.9561884683
 20
5.3438053164
 10
6.9552564667
 20
5.3738063033
  0
LWPOLYLINE
  5
606
100
AcDbEntity
  8
0
100
AcDbPolyline
 62
7
  6
CONTINUOUS
 90
9
 70
0
 10
6.9224480678
 20
5.2516704765
 10
6.9214655326
 20
5.2546674052
 10
6.9204708611
 20
5.2637310455
 10
6.9194765302
 20
5.2786278754
 10
6.9184944711
 20
5.2987030231
 10
6.9175157658
 20
5.3235206401
 10
6.9165331501
 20
5.3526596636
 10
6.9155573765
 20
5.3850773355
 10
6.914582891
 20
5.4201303978
  0
LWPOLYLINE
  5
607
100
AcDbEntity
  8
0
100
AcDbPolyline
 62
7
  6
CONTINUOUS
 90
9
 70
0
 10
6.820085863
 20
5.7402137836
 10
6.8210681294
 20
5.7372184909
 10
6.8220625858
 20
5.7281590684
 10
6.823056752
 20
5.7132679298
 10
6.8240387493
 20
5.6931975744
 10
6.8250175015
 20
5.6683819406
 10
6.8260002542
 20
5.6392412177
 10
6.8269761286
 20
5.6068217116
 10
6.8279505803
 20
5.5717708898
  0
LWPOLYLINE
  5
608
100
AcDbEntity
  8
0
100
AcDbPolyline
 62
7
  6
CONTINUOUS
 90
9
 70
0
 10
6.7807157843
 20
5.7402137836
 10
6.7816987981
 20
5.7372139403
 10
6.7826938032
 20
5.7281433865
 10
6.7836882836
 20
5.7132392616
 10
6.7846703532
 20
5.6931588768
 10
6.785649002
 20
5.6683383286
 10
6.7866314175
 20
5.6392020016
 10
6.7876070296
 20
5.6067876775
 10
6.78858159
 20
5.5717305541
  0
LWPOLYLINE
  5
609
100
AcDbEntity
  8
0
100
AcDbPolyline
 62
7
  6
CONTINUOUS
 90
9
 70
0
 10
6.900476407
 20
5.2826316178
 10
6.8995774387
 20
5.2863728985
 10
6.89857202
 20
5.2956516713
 10
6.8975666013
 20
5.3100762018
 10
6.8965611827
 20
5.3292759024
 10
6.895555764
 20
5.3527575045
 10
6.8945503453
 20
5.379917731
 10
6.8935449266
 20
5.4100587957
 10
6.8925395079
 20
5.44240633
  0
LWPOLYLINE
  5
60A
100
AcDbEntity
  8
0
100
AcDbPolyline
 62
7
  6
CONTINUOUS
 90
9
 70
0
 10
6.9287345803
 20
5.5494779301
 10
6.9277291617
 20
5.5818254645
 10
6.926723743
 20
5.6119665291
 10
6.9257183243
 20
5.6391267556
 10
6.9247129056
 20
5.6626083577
 10
6.9237074869
 20
5.6818080583
 10
6.9227020683
 20
5.6962325888
 10
6.9216966496
 20
5.7055113616
 10
6.9207976813
 20
5.7092526424
  0
LWPOLYLINE
  5
60B
100
AcDbEntity
  8
0
100
AcDbPolyline
 62
7
  6
CONTINUOUS
 90
9
 70
0
 10
6.8895232519
 20
5.5442227686
 10
6.8885178332
 20
5.5768438888
 10
6.8875124146
 20
5.6073865233
 10
6.8865069959
 20
5.6350659869
 10
6.8855015772
 20
5.6591711531
 10
6.8844961585
 20
5.6790827247
 10
6.8834907398
 20
5.6942891441
 10
6.8824853212
 20
5.7043997357
 10
6.8814276026
 20
5.7092526424
  0
LINE
  5
60C
100
AcDbEntity
  8
0
100
AcDbLine
 62
7
  6
CONTINUOUS
 10
6.8925395079
 20
5.44240633
 11
6.8895232519
 21
5.5442227686
  0
LINE
  5
60D
100
AcDbEntity
  8
0
100
AcDbLine
 62
7
  6
CONTINUOUS
 10
6.9317508364
 20
5.4476614915
 11
6.9287345803
 21
5.5494779301
  0
LWPOLYLINE
  5
60E
100
AcDbEntity
  8
0
100
AcDbPolyline
 62
7
  6
CONTINUOUS
 90
3
 70
0
 10
6.9552564667
 20
5.3738063033
 10
6.9543278826
 20
5.4063804643
 10
6.9533973402
 20
5.4409923518
  0
LWPOLYLINE
  5
60F
100
AcDbEntity
  8
0
100
AcDbPolyline
 62
7
  6
CONTINUOUS
 90
9
 70
0
 10
6.9106469651
 20
5.4200903037
 10
6.9116213389
 20
5.3850436327
 10
6.9125973915
 20
5.3526202226
 10
6.9135803409
 20
5.3234769337
 10
6.9145591451
 20
5.2986643504
 10
6.9155411275
 20
5.2785993058
 10
6.9165351399
 20
5.263715484
 10
6.9175292582
 20
5.2546629414
 10
6.9182328488
 20
5.2519112162
  0
LWPOLYLINE
  5
610
100
AcDbEntity
  8
0
100
AcDbPolyline
 62
7
  6
CONTINUOUS
 90
9
 70
0
 10
6.9106279262
 20
5.5717641983
 10
6.9096534559
 20
5.6068160849
 10
6.9086776271
 20
5.6392346639
 10
6.9076949302
 20
5.6683746688
 10
6.9067161947
 20
5.6931911333
 10
6.905734185
 20
5.7132631671
 10
6.9047399659
 20
5.7281564708
 10
6.9037454176
 20
5.7372177433
 10
6.9030412395
 20
5.7399730438
  0
LWPOLYLINE
  5
611
100
AcDbEntity
  8
0
100
AcDbPolyline
 62
7
  6
CONTINUOUS
 90
9
 70
0
 10
6.9500159619
 20
5.4201303978
 10
6.9509904474
 20
5.3850773355
 10
6.951966221
 20
5.3526596636
 10
6.9529488367
 20
5.3235206401
 10
6.9539275419
 20
5.2987030231
 10
6.954909601
 20
5.2786278754
 10
6.955903932
 20
5.2637310455
 10
6.9568986034
 20
5.2546674052
 10
6.9576029275
 20
5.2519112162
  0
LWPOLYLINE
  5
612
100
AcDbEntity
  8
0
100
AcDbPolyline
 62
7
  6
CONTINUOUS
 90
10
 70
0
 10
6.950559706
 20
5.5506718529
 10
6.9496290652
 20
5.5852972371
 10
6.9487008341
 20
5.6178737408
 10
6.9477682638
 20
5.647911795
 10
6.9468314947
 20
5.6747013957
 10
6.9459005518
 20
5.6973746311
 10
6.9449623623
 20
5.7157331136
 10
6.9440147286
 20
5.7292825609
 10
6.9430680622
 20
5.7374995586
 10
6.9424113182
 20
5.7399730438
  0
LINE
  5
613
100
AcDbEntity
  8
0
100
AcDbLine
 62
7
  6
CONTINUOUS
 10
6.9066920088
 20
5.5717237879
 11
6.9106469651
 21
5.4200903037
  0
LINE
  5
614
100
AcDbEntity
  8
0
100
AcDbLine
 62
7
  6
CONTINUOUS
 10
6.914582891
 20
5.4201303978
 11
6.9106279262
 21
5.5717641983
  0
LINE
  5
615
100
AcDbEntity
  8
0
100
AcDbLine
 62
7
  6
CONTINUOUS
 10
6.9460609971
 20
5.5717641983
 11
6.9500159619
 21
5.4201303978
  0
LINE
  5
616
100
AcDbEntity
  8
0
100
AcDbLine
 62
7
  6
CONTINUOUS
 10
6.9533973402
 20
5.4409923518
 11
6.950559706
 21
5.5506718529
  0
LINE
  5
617
100
AcDbEntity
  8
0
100
AcDbLine
 62
7
  6
CONTINUOUS
 10
6.8833562001
 20
5.2519112163
 11
6.9007945243
 21
5.2820813029
  0
LINE
  5
618
100
AcDbEntity
  8
0
100
AcDbLine
 62
7
  6
CONTINUOUS
 10
6.9227262789
 20
5.2519112163
 11
6.9401646031
 21
5.2820813029
  0
LINE
  5
619
100
AcDbEntity
  8
0
100
AcDbLine
 62
7
  6
CONTINUOUS
 10
7.0799284065
 20
5.2871035236
 11
7.0644630344
 21
5.2716381479
  0
LINE
  5
61A
100
AcDbEntity
  8
0
100
AcDbLine
 62
7
  6
CONTINUOUS
 10
7.0519832206
 20
5.7327259289
 11
7.0799284065
 21
5.7047807366
  0
LINE
  5
61B
100
AcDbEntity
  8
0
100
AcDbLine
 62
7
  6
CONTINUOUS
 10
6.8814276026
 20
5.7092526424
 11
6.8636711607
 21
5.7399730438
  0
LINE
  5
61C
100
AcDbEntity
  8
0
100
AcDbLine
 62
7
  6
CONTINUOUS
 10
6.9207976813
 20
5.7092526424
 11
6.9030412395
 21
5.7399730438
  0
LINE
  5
61D
100
AcDbEntity
  8
0
100
AcDbLine
 62
7
  6
CONTINUOUS
 10
6.96016776
 20
5.7092526424
 11
6.9424113182
 21
5.7399730438
  0
LWPOLYLINE
  5
61E
100
AcDbEntity
  8
0
100
AcDbPolyline
 62
7
  6
CONTINUOUS
 90
8
 70
0
 10
6.8594559418
 20
5.7402137836
 10
6.8603899564
 20
5.7375050063
 10
6.8613356981
 20
5.7293040591
 10
6.8622824653
 20
5.7157795584
 10
6.8632196929
 20
5.6974560478
 10
6.864149972
 20
5.6748171176
 10
6.8650859665
 20
5.6480683743
 10
6.8660176216
 20
5.6180779568
  0
LWPOLYLINE
  5
61F
100
AcDbEntity
  8
0
100
AcDbPolyline
 62
7
  6
CONTINUOUS
 90
10
 70
0
 10
7.036343085
 20
5.2519112162
 10
7.0359436339
 20
5.253097639
 10
7.0349932601
 20
5.2598693402
 10
7.0340428864
 20
5.2720614146
 10
7.0330925272
 20
5.2893936228
 10
7.0321421775
 20
5.3114679217
 10
7.0311918267
 20
5.3377776794
 10
7.0302414781
 20
5.3677187415
 10
7.0292911355
 20
5.4006035177
 10
7.0283407894
 20
5.4356773122
  0
LWPOLYLINE
  5
620
100
AcDbEntity
  8
0
100
AcDbPolyline
 62
7
  6
CONTINUOUS
 90
9
 70
0
 10
7.0011882252
 20
5.2516704765
 10
7.0002065411
 20
5.2546622263
 10
6.9992125134
 20
5.2637129674
 10
6.9982185526
 20
5.2785946852
 10
6.9972365815
 20
5.2986581191
 10
6.9962577592
 20
5.3234699516
 10
6.9952747526
 20
5.3526140437
 10
6.9942986488
 20
5.3850386143
 10
6.993324292
 20
5.420084316
  0
LWPOLYLINE
  5
621
100
AcDbEntity
  8
0
100
AcDbPolyline
 62
7
  6
CONTINUOUS
 90
9
 70
0
 10
6.8988260205
 20
5.7402137836
 10
6.8998091614
 20
5.7372131666
 10
6.9008042572
 20
5.7281407503
 10
6.9017987893
 20
5.7132344621
 10
6.9027808703
 20
5.6931524152
 10
6.9037595013
 20
5.6683310643
 10
6.9047418599
 20
5.6391954906
 10
6.9057174309
 20
5.6067819412
 10
6.9066920088
 20
5.5717237879
  0
LWPOLYLINE
  5
622
100
AcDbEntity
  8
0
100
AcDbPolyline
 62
7
  6
CONTINUOUS
 90
9
 70
0
 10
7.0185866432
 20
5.2826316178
 10
7.0180648983
 20
5.2842721506
 10
7.0170628562
 20
5.2915180742
 10
7.016060814
 20
5.3039808122
 10
7.0150587719
 20
5.3213423208
 10
7.0140567297
 20
5.3431595419
 10
7.0130546876
 20
5.3688757092
 10
7.0120526455
 20
5.3978345572
 10
7.0110506033
 20
5.4292970685
  0
LWPOLYLINE
  5
623
100
AcDbEntity
  8
0
100
AcDbPolyline
 62
7
  6
CONTINUOUS
 90
9
 70
0
 10
6.9398464857
 20
5.2826316178
 10
6.9387887671
 20
5.2874845244
 10
6.9377833484
 20
5.297595116
 10
6.9367779298
 20
5.3128015354
 10
6.9357725111
 20
5.332713107
 10
6.9347670924
 20
5.3568182732
 10
6.9337616737
 20
5.3844977368
 10
6.932756255
 20
5.4150403713
 10
6.9317508364
 20
5.4476614915
  0
LWPOLYLINE
  5
624
100
AcDbEntity
  8
0
100
AcDbPolyline
 62
7
  6
CONTINUOUS
 90
3
 70
0
 10
6.9729730021
 20
5.389149273
 10
6.9719675835
 20
5.4200738737
 10
6.9709621648
 20
5.4529476419
  0
LWPOLYLINE
  5
625
100
AcDbEntity
  8
0
100
AcDbPolyline
 62
7
  6
CONTINUOUS
 90
9
 70
0
 10
7.0070424348
 20
5.563604654
 10
7.0060403927
 20
5.5950005205
 10
7.0050383505
 20
5.6238684594
 10
7.0040363084
 20
5.6494717731
 10
7.0030342662
 20
5.671157076
 10
7.0020322241
 20
5.6883709684
 10
7.001030182
 20
5.7006741593
 10
7.0000281398
 20
5.7077526764
 10
6.9995378388
 20
5.7092526424
  0
LWPOLYLINE
  5
626
100
AcDbEntity
  8
0
100
AcDbPolyline
 62
7
  6
CONTINUOUS
 90
9
 70
0
 10
6.9679459088
 20
5.5546987297
 10
6.9669404901
 20
5.5867519159
 10
6.9659350714
 20
5.6164720647
 10
6.9649296527
 20
5.6430956214
 10
6.963924234
 20
5.6659385877
 10
6.9629188154
 20
5.684414094
 10
6.9619133967
 20
5.6980474772
 10
6.960907978
 20
5.7064884757
 10
6.96016776
 20
5.7092526424
  0
LWPOLYLINE
  5
627
100
AcDbEntity
  8
0
100
AcDbPolyline
 62
7
  6
CONTINUOUS
 90
8
 70
0
 10
6.9906895376
 20
5.3738063033
 10
6.9916215391
 20
5.3438053164
 10
6.9925578163
 20
5.3170504389
 10
6.9934883683
 20
5.2944083379
 10
6.9944255436
 20
5.2760902609
 10
6.995372199
 20
5.2625717017
 10
6.9963176303
 20
5.2543767791
 10
6.9969730063
 20
5.2519112162
  0
LINE
  5
628
100
AcDbEntity
  8
0
100
AcDbLine
 62
7
  6
CONTINUOUS
 10
6.9709621648
 20
5.4529476419
 11
6.9679459088
 21
5.5546987297
  0
LWPOLYLINE
  5
629
100
AcDbEntity
  8
0
100
AcDbPolyline
 62
7
  6
CONTINUOUS
 90
3
 70
0
 10
7.0110506033
 20
5.4292970685
 10
7.0090465191
 20
5.4964780391
 10
7.0070424348
 20
5.563604654
  0
LWPOLYLINE
  5
62A
100
AcDbEntity
  8
0
100
AcDbPolyline
 62
7
  6
CONTINUOUS
 90
9
 70
0
 10
6.9893693307
 20
5.571717985
 10
6.9883947333
 20
5.6067771795
 10
6.9874192003
 20
5.6391899642
 10
6.9864368963
 20
5.6683247197
 10
6.9854582815
 20
5.6931467587
 10
6.9844761892
 20
5.7132302855
 10
6.9834816114
 20
5.7281384643
 10
6.9824864368
 20
5.7372124959
 10
6.981781397
 20
5.7399730438
  0
LWPOLYLINE
  5
62B
100
AcDbEntity
  8
0
100
AcDbPolyline
 62
7
  6
CONTINUOUS
 90
3
 70
0
 10
6.9888304111
 20
5.4409923518
 10
6.9897609534
 20
5.4063804643
 10
6.9906895376
 20
5.3738063033
  0
LWPOLYLINE
  5
62C
100
AcDbEntity
  8
0
100
AcDbPolyline
 62
7
  6
CONTINUOUS
 90
10
 70
0
 10
7.0322125993
 20
5.4381436455
 10
7.0331575134
 20
5.4031445806
 10
7.0341024227
 20
5.3702520034
 10
7.0350473373
 20
5.3402121583
 10
7.0359922581
 20
5.313706921
 10
7.0369371778
 20
5.2913381544
 10
7.0378821075
 20
5.2736133904
 10
7.0388270601
 20
5.2609349815
 10
7.0397720195
 20
5.2535911774
 10
7.0405583226
 20
5.2516704765
  0
LWPOLYLINE
  5
62D
100
AcDbEntity
  8
0
100
AcDbPolyline
 62
7
  6
CONTINUOUS
 90
9
 70
0
 10
7.0254896772
 20
5.5458426485
 10
7.0245393169
 20
5.5813984799
 10
7.0235889668
 20
5.6149918893
 10
7.0226386122
 20
5.6458521186
 10
7.0216882427
 20
5.6732708621
 10
7.0207378767
 20
5.6966179882
 10
7.0197874989
 20
5.7153577555
 10
7.0188370844
 20
5.7290599899
 10
7.0178866577
 20
5.7374093107
  0
LINE
  5
62E
100
AcDbEntity
  8
0
100
AcDbLine
 62
7
  6
CONTINUOUS
 10
6.9859927769
 20
5.5506718529
 11
6.9888304111
 21
5.4409923518
  0
LINE
  5
62F
100
AcDbEntity
  8
0
100
AcDbLine
 62
7
  6
CONTINUOUS
 10
6.993324292
 20
5.420084316
 11
6.9893693307
 21
5.571717985
  0
LINE
  5
630
100
AcDbEntity
  8
0
100
AcDbLine
 62
7
  6
CONTINUOUS
 10
7.0283407894
 20
5.4356773122
 11
7.0254896772
 21
5.5458426485
  0
LINE
  5
631
100
AcDbEntity
  8
0
100
AcDbLine
 62
7
  6
CONTINUOUS
 10
7.0293777945
 20
5.5477068698
 11
7.0322125993
 21
5.4381436455
  0
LINE
  5
632
100
AcDbEntity
  8
0
100
AcDbLine
 62
7
  6
CONTINUOUS
 10
6.9620963576
 20
5.2519112163
 11
6.9795346818
 21
5.2820813029
  0
LINE
  5
633
100
AcDbEntity
  8
0
100
AcDbLine
 62
7
  6
CONTINUOUS
 10
7.0014664363
 20
5.2519112163
 11
7.0189047606
 21
5.2820813029
  0
LINE
  5
634
100
AcDbEntity
  8
0
100
AcDbLine
 62
7
  6
CONTINUOUS
 10
7.0408365151
 20
5.2519112163
 11
7.0582748393
 21
5.2820813029
  0
LINE
  5
635
100
AcDbEntity
  8
0
100
AcDbLine
 62
7
  6
CONTINUOUS
 10
6.9995378388
 20
5.7092526424
 11
6.981781397
 21
5.7399730438
  0
LINE
  5
636
100
AcDbEntity
  8
0
100
AcDbLine
 62
7
  6
CONTINUOUS
 10
7.0389079175
 20
5.7092526424
 11
7.0211514757
 21
5.7399730438
  0
LWPOLYLINE
  5
637
100
AcDbEntity
  8
0
100
AcDbPolyline
 62
7
  6
CONTINUOUS
 90
10
 70
0
 10
6.977566178
 20
5.7402137836
 10
6.9785011331
 20
5.7374995586
 10
6.9794477995
 20
5.7292825609
 10
6.9803954332
 20
5.7157331136
 10
6.9813336227
 20
5.6973746311
 10
6.9822645655
 20
5.6747013957
 10
6.9832013346
 20
5.647911795
 10
6.9841339049
 20
5.6178737408
 10
6.9850621361
 20
5.5852972371
 10
6.9859927769
 20
5.5506718529
  0
LWPOLYLINE
  5
638
100
AcDbEntity
  8
0
100
AcDbPolyline
 62
7
  6
CONTINUOUS
 90
9
 70
0
 10
6.9381960993
 20
5.7402137836
 10
6.9391784885
 20
5.7372177433
 10
6.9401730367
 20
5.7281564708
 10
6.9411672558
 20
5.7132631671
 10
6.9421492656
 20
5.6931911333
 10
6.9431280011
 20
5.6683746688
 10
6.944110698
 20
5.6392346639
 10
6.9450865268
 20
5.6068160849
 10
6.9460609971
 20
5.5717641983
  0
LWPOLYLINE
  5
639
100
AcDbEntity
  8
0
100
AcDbPolyline
 62
7
  6
CONTINUOUS
 90
9
 70
0
 10
7.0579567219
 20
5.2826316178
 10
7.0571445416
 20
5.2858220059
 10
7.0561424995
 20
5.2946050302
 10
7.0551404573
 20
5.3085260912
 10
7.0541384152
 20
5.3272299292
 10
7.0531363731
 20
5.3502392304
 10
7.0521343309
 20
5.3769668073
 10
7.0511322888
 20
5.4067305834
 10
7.0501302467
 20
5.4387710001
  0
LINE
  5
63A
100
AcDbEntity
  8
0
100
AcDbLine
 62
7
  6
CONTINUOUS
 10
7.0638362047
 20
5.2738057934
 11
7.0642711414
 21
5.2717081308
  0
LWPOLYLINE
  5
63B
100
AcDbEntity
  8
0
100
AcDbPolyline
 62
7
  6
CONTINUOUS
 90
10
 70
0
 10
7.0471241203
 20
5.5402111691
 10
7.0461220781
 20
5.5729187199
 10
7.045120036
 20
5.6036618612
 10
7.0441179938
 20
5.6316560409
 10
7.0431159517
 20
5.6561868598
 10
7.0421139096
 20
5.6766283017
 10
7.0411118674
 20
5.6924587099
 10
7.0401098253
 20
5.703274099
 10
7.0391077832
 20
5.7087984651
 10
7.0389079175
 20
5.7092526424
  0
LINE
  5
63C
100
AcDbEntity
  8
0
100
AcDbLine
 62
7
  6
CONTINUOUS
 10
7.0501302467
 20
5.4387710001
 11
7.0471241203
 21
5.5402111691
  0
LWPOLYLINE
  5
63D
100
AcDbEntity
  8
0
100
AcDbPolyline
 62
7
  6
CONTINUOUS
 90
8
 70
0
 10
7.0594568917
 20
5.425862377
 10
7.0600756737
 20
5.3931161116
 10
7.0606956715
 20
5.3629752433
 10
7.0613205398
 20
5.336028371
 10
7.0619434685
 20
5.3132334285
 10
7.0625685824
 20
5.2949822022
 10
7.0632020507
 20
5.2816463961
 10
7.0638362047
 20
5.2738057934
  0
LINE
  5
63E
100
AcDbEntity
  8
0
100
AcDbLine
 62
7
  6
CONTINUOUS
 10
7.0569496103
 20
5.5689933972
 11
7.0594568917
 21
5.425862377
  0
LINE
  5
63F
100
AcDbEntity
  8
0
100
AcDbLine
 62
7
  6
CONTINUOUS
 10
7.0799283827
 20
5.2871035474
 11
7.0799283827
 21
5.7047807127
  0
LINE
  5
640
100
AcDbEntity
  8
0
100
AcDbLine
 62
7
  6
CONTINUOUS
 10
7.0178866577
 20
5.7374093107
 11
7.0169362567
 21
5.7402137836
  0
LWPOLYLINE
  5
641
100
AcDbEntity
  8
0
100
AcDbPolyline
 62
7
  6
CONTINUOUS
 90
10
 70
0
 10
7.0211514757
 20
5.7399730438
 10
7.0218182376
 20
5.7374411931
 10
7.0227632342
 20
5.7291860882
 10
7.0237082171
 20
5.7156361098
 10
7.0246531633
 20
5.6970995906
 10
7.0255980971
 20
5.6739972127
 10
7.0265430332
 20
5.6468530901
 10
7.0274879547
 20
5.6162839184
 10
7.0284328705
 20
5.582983388
 10
7.0293777945
 20
5.5477068698
  0
LWPOLYLINE
  5
642
100
AcDbEntity
  8
0
100
AcDbPolyline
 62
7
  6
CONTINUOUS
 90
9
 70
0
 10
7.0519832206
 20
5.7327259289
 10
7.0526021808
 20
5.7292459844
 10
7.0532291914
 20
5.7199887249
 10
7.0538564115
 20
5.7052162806
 10
7.0544764517
 20
5.6855818315
 10
7.0550944931
 20
5.6615342408
 10
7.0557155894
 20
5.6334751369
 10
7.0563328415
 20
5.6024186948
 10
7.0569496103
 20
5.5689933972
  0
LINE
  5
643
100
AcDbEntity
  8
0
100
AcDbLine
 62
7
  6
CONTINUOUS
 10
7.1192984615
 20
5.6996822875
 11
7.1192984615
 21
5.2922019726
  0
LWPOLYLINE
  5
644
100
AcDbEntity
  8
0
100
AcDbPolyline
 62
7
  6
CONTINUOUS
 90
9
 70
0
 10
9.210628249
 20
5.4759409419
 10
9.210577406
 20
5.4825058394
 10
9.2105839435
 20
5.4895813171
 10
9.2106911469
 20
5.4972200661
 10
9.2109394647
 20
5.5054806686
 10
9.2113731112
 20
5.5144221873
 10
9.2120422895
 20
5.5240972639
 10
9.2130050682
 20
5.5345615766
 10
9.2143584024
 20
5.5460996673
  0
LWPOLYLINE
  5
645
100
AcDbEntity
  8
0
100
AcDbPolyline
 62
7
  6
CONTINUOUS
 90
7
 70
0
 10
9.2143584024
 20
5.5460996673
 10
9.2161153867
 20
5.5582434561
 10
9.2183782367
 20
5.5712352237
 10
9.2210116752
 20
5.5841043879
 10
9.223696164
 20
5.5956326735
 10
9.2263003214
 20
5.6057945423
 10
9.2287697782
 20
5.6148635611
  0
LWPOLYLINE
  5
646
100
AcDbEntity
  8
0
100
AcDbPolyline
 62
7
  6
CONTINUOUS
 90
3
 70
0
 10
9.2220559437
 20
5.5915103361
 10
9.2119975221
 20
5.5341552378
 10
9.210628249
 20
5.4759409419
  0
LWPOLYLINE
  5
647
100
AcDbEntity
  8
0
100
AcDbPolyline
 62
7
  6
CONTINUOUS
 90
9
 70
0
 10
9.2287697782
 20
5.6148635611
 10
9.2390786157
 20
5.6467701455
 10
9.2520045886
 20
5.6774820889
 10
9.2675240112
 20
5.7070227692
 10
9.2861028727
 20
5.7359970872
 10
9.3085745434
 20
5.7649242734
 10
9.3359996711
 20
5.7939324415
 10
9.3697803248
 20
5.822798159
 10
9.4108768308
 20
5.8502728387
  0
LINE
  5
648
100
AcDbEntity
  8
0
100
AcDbLine
 62
7
  6
CONTINUOUS
 10
9.2297774071
 20
5.6145255071
 11
9.2220559437
 21
5.5915103361
  0
LWPOLYLINE
  5
649
100
AcDbEntity
  8
0
100
AcDbPolyline
 62
7
  6
CONTINUOUS
 90
8
 70
0
 10
9.4026092933
 20
5.1416114214
 10
9.3553235758
 20
5.1751529764
 10
9.3126496154
 20
5.2159196888
 10
9.2767293301
 20
5.2620930514
 10
9.2484448121
 20
5.3120488164
 10
9.2278546685
 20
5.3650699522
 10
9.2152446678
 20
5.4198345266
 10
9.210628249
 20
5.4759409419
  0
LINE
  5
64A
100
AcDbEntity
  8
0
100
AcDbLine
 62
7
  6
CONTINUOUS
 10
9.3608213311
 20
5.121926382
 11
9.8360794996
 21
5.121926382
  0
LINE
  5
64B
100
AcDbEntity
  8
0
100
AcDbLine
 62
7
  6
CONTINUOUS
 10
9.3546239655
 20
5.1416114214
 11
9.8422768652
 21
5.1416114214
  0
LINE
  5
64C
100
AcDbEntity
  8
0
100
AcDbLine
 62
7
  6
CONTINUOUS
 10
9.4819935655
 20
5.1612964608
 11
9.7149073394
 21
5.1612964608
  0
LINE
  5
64D
100
AcDbEntity
  8
0
100
AcDbLine
 62
7
  6
CONTINUOUS
 10
9.4819921519
 20
5.1416114214
 11
9.4755222484
 21
5.1427050347
  0
LINE
  5
64E
100
AcDbEntity
  8
0
100
AcDbLine
 62
7
  6
CONTINUOUS
 10
9.360821331
 20
5.8699578781
 11
9.360821331
 21
5.8502728387
  0
LINE
  5
64F
100
AcDbEntity
  8
0
100
AcDbLine
 62
7
  6
CONTINUOUS
 10
9.360821331
 20
5.1416114214
 11
9.360821331
 21
5.121926382
  0
LWPOLYLINE
  5
650
100
AcDbEntity
  8
0
100
AcDbPolyline
 62
7
  6
CONTINUOUS
 90
19
 70
0
 10
9.5984504153
 20
5.2716381479
 10
9.6316253829
 20
5.274702891
 10
9.6643072186
 20
5.2827694221
 10
9.6953663542
 20
5.2956431234
 10
9.7237648207
 20
5.3127893812
 10
9.7491201702
 20
5.3338145216
 10
9.7711155227
 20
5.3584246441
 10
9.7890853196
 20
5.3858422386
 10
9.8027172344
 20
5.4154462589
 10
9.811831991
 20
5.4468191981
 10
9.816195139
 20
5.4795201892
 10
9.8155677967
 20
5.512646716
 10
9.8099921229
 20
5.5450131559
 10
9.7997687796
 20
5.575761534
 10
9.7851848469
 20
5.6044528309
 10
9.7664554302
 20
5.6307093362
 10
9.7439631708
 20
5.6539197863
 10
9.7183848401
 20
5.6733991724
 10
9.6900894932
 20
5.6888699317
  0
LINE
  5
651
100
AcDbEntity
  8
0
100
AcDbLine
 62
7
  6
CONTINUOUS
 10
9.4819921519
 20
5.8502728387
 11
9.4819921519
 21
5.8305877993
  0
LINE
  5
652
100
AcDbEntity
  8
0
100
AcDbLine
 62
7
  6
CONTINUOUS
 10
9.4819921519
 20
5.1416114214
 11
9.4819921519
 21
5.1612964608
  0
LINE
  5
653
100
AcDbEntity
  8
AXIS
100
AcDbLine
 62
7
  6
CENTER
 10
9.5984504153
 20
5.4959421301
 11
9.5984504153
 21
4.805390949
  0
LINE
  5
654
100
AcDbEntity
  8
AXIS
100
AcDbLine
 62
7
  6
CENTER
 10
9.5984504153
 20
5.4959421301
 11
9.5984504153
 21
6.1864933112
  0
LINE
  5
655
100
AcDbEntity
  8
0
100
AcDbLine
 62
7
  6
CONTINUOUS
 10
9.7213785823
 20
5.8491792254
 11
9.7149086788
 21
5.8305877993
  0
LINE
  5
656
100
AcDbEntity
  8
0
100
AcDbLine
 62
7
  6
CONTINUOUS
 10
9.4755222484
 20
5.1427050347
 11
9.4819921519
 21
5.1612964608
  0
LINE
  5
657
100
AcDbEntity
  8
0
100
AcDbLine
 62
7
  6
CONTINUOUS
 10
9.3380271744
 20
5.1291961567
 11
9.3494242527
 21
5.1452463087
  0
LINE
  5
658
100
AcDbEntity
  8
0
100
AcDbLine
 62
7
  6
CONTINUOUS
 10
9.8588736563
 20
5.8626881034
 11
9.8474765779
 21
5.8466379514
  0
LINE
  5
659
100
AcDbEntity
  8
AXIS
100
AcDbLine
 62
7
  6
CENTER
 10
9.5984504153
 20
5.4959421301
 11
8.9078992342
 21
5.4959421301
  0
LINE
  5
65A
100
AcDbEntity
  8
AXIS
100
AcDbLine
 62
7
  6
CENTER
 10
9.5984504153
 20
5.4959421301
 11
10.2890015964
 21
5.4959421301
  0
LINE
  5
65B
100
AcDbEntity
  8
0
100
AcDbLine
 62
7
  6
CONTINUOUS
 10
9.3494242527
 20
5.8466379514
 11
9.3380271744
 21
5.8626881034
  0
LINE
  5
65C
100
AcDbEntity
  8
0
100
AcDbLine
 62
7
  6
CONTINUOUS
 10
9.8474765779
 20
5.1452463087
 11
9.8588736563
 21
5.1291961567
  0
LINE
  5
65D
100
AcDbEntity
  8
0
100
AcDbLine
 62
7
  6
CONTINUOUS
 10
9.7149086788
 20
5.1612964608
 11
9.7213785823
 21
5.1427050347
  0
LINE
  5
65E
100
AcDbEntity
  8
0
100
AcDbLine
 62
7
  6
CONTINUOUS
 10
9.4819921519
 20
5.8305877993
 11
9.4755222484
 21
5.8491792254
  0
LINE
  5
65F
100
AcDbEntity
  8
0
100
AcDbLine
 62
7
  6
CONTINUOUS
 10
9.7149086788
 20
5.1416114214
 11
9.7149086788
 21
5.1612964608
  0
LINE
  5
660
100
AcDbEntity
  8
0
100
AcDbLine
 62
7
  6
CONTINUOUS
 10
9.7149086788
 20
5.8305877993
 11
9.7149086788
 21
5.8502728387
  0
LWPOLYLINE
  5
661
100
AcDbEntity
  8
0
100
AcDbPolyline
 62
7
  6
CONTINUOUS
 90
15
 70
0
 10
9.6900894932
 20
5.6888699317
 10
9.7189926992
 20
5.6749350064
 10
9.7457754435
 20
5.6566423787
 10
9.7698058878
 20
5.6342839633
 10
9.7903059631
 20
5.6084950226
 10
9.8068059185
 20
5.5798659244
 10
9.8190278246
 20
5.5487662366
 10
9.826632512
 20
5.5155855834
 10
9.8292249926
 20
5.4811391015
 10
9.8266352782
 20
5.4466157134
 10
9.8190084431
 20
5.4130208978
 10
9.8065454319
 20
5.3808800301
 10
9.7893391235
 20
5.3505562919
 10
9.7676368332
 20
5.3227474705
 10
9.7420314483
 20
5.298323488
  0
LINE
  5
662
100
AcDbEntity
  8
0
100
AcDbLine
 62
7
  6
CONTINUOUS
 10
9.8360794997
 20
5.121926382
 11
9.8360794996
 21
5.1416114214
  0
LINE
  5
663
100
AcDbEntity
  8
0
100
AcDbLine
 62
7
  6
CONTINUOUS
 10
9.8360794996
 20
5.8502728387
 11
9.8360794997
 21
5.8699578781
  0
LWPOLYLINE
  5
664
100
AcDbEntity
  8
0
100
AcDbPolyline
 62
7
  6
CONTINUOUS
 90
13
 70
0
 10
9.8307672345
 20
5.4204601039
 10
9.8390672415
 20
5.4576080397
 10
9.841473198
 20
5.495998294
 10
9.8378045849
 20
5.5342095931
 10
9.8283268012
 20
5.5708469738
 10
9.8134310857
 20
5.6052096285
 10
9.793400998
 20
5.636841476
 10
9.7685653588
 20
5.6651165966
 10
9.7397981211
 20
5.6890287863
 10
9.707619455
 20
5.708182487
 10
9.6724673415
 20
5.7221819479
 10
9.6356090399
 20
5.7304242287
 10
9.5984504153
 20
5.7327259289
  0
LWPOLYLINE
  5
665
100
AcDbEntity
  8
0
100
AcDbPolyline
 62
7
  6
CONTINUOUS
 90
21
 70
0
 10
9.5984504153
 20
5.7327259289
 10
9.5618015069
 20
5.7292459844
 10
9.5257786078
 20
5.7199887249
 10
9.4917390129
 20
5.7052162806
 10
9.4608682454
 20
5.6855818315
 10
9.4335804603
 20
5.6615342408
 10
9.410307808
 20
5.6334751369
 10
9.3918387318
 20
5.6024186948
 10
9.3784439995
 20
5.5689933972
 10
9.3703580533
 20
5.5336942297
 10
9.3678886251
 20
5.4971711725
 10
9.3712207819
 20
5.4607803593
 10
9.3801113164
 20
5.425862377
 10
9.394179662
 20
5.3931161116
 10
9.4131497249
 20
5.3629752433
 10
9.4367114596
 20
5.336028371
 10
9.4640389106
 20
5.3132334285
 10
9.4946195951
 20
5.2949822022
 10
9.5280452139
 20
5.2816463961
 10
9.5631047207
 20
5.2738057934
 10
9.5984504153
 20
5.2716381479
  0
LINE
  5
666
100
AcDbEntity
  8
0
100
AcDbLine
 62
7
  6
CONTINUOUS
 10
9.7149072652
 20
5.8305877993
 11
9.4819934912
 21
5.8305877993
  0
LINE
  5
667
100
AcDbEntity
  8
0
100
AcDbLine
 62
7
  6
CONTINUOUS
 10
9.3546239655
 20
5.8502728387
 11
9.8422768652
 21
5.8502728387
  0
LINE
  5
668
100
AcDbEntity
  8
0
100
AcDbLine
 62
7
  6
CONTINUOUS
 10
9.3608213311
 20
5.8699578781
 11
9.8360794996
 21
5.8699578781
  0
LINE
  5
669
100
AcDbEntity
  8
0
100
AcDbLine
 62
7
  6
CONTINUOUS
 10
9.7149086788
 20
5.8502728387
 11
9.7213785823
 21
5.8491792254
  0
LWPOLYLINE
  5
66A
100
AcDbEntity
  8
0
100
AcDbPolyline
 62
7
  6
CONTINUOUS
 90
5
 70
0
 10
9.9709436254
 20
5.2808830749
 10
9.9415966898
 20
5.2398003198
 10
9.9075906982
 20
5.2024364619
 10
9.8696862832
 20
5.1695812363
 10
9.8284689764
 20
5.1416114214
  0
LWPOLYLINE
  5
66B
100
AcDbEntity
  8
0
100
AcDbPolyline
 62
7
  6
CONTINUOUS
 90
8
 70
0
 10
9.8200932428
 20
5.8502728387
 10
9.8651303065
 20
5.8204662903
 10
9.9025330904
 20
5.7884659905
 10
9.9335019849
 20
5.7552768745
 10
9.9593893623
 20
5.7209668168
 10
9.9811697704
 20
5.6851591313
 10
9.9992931091
 20
5.647478393
 10
10.0136785415
 20
5.6081347858
  0
LINE
  5
66C
100
AcDbEntity
  8
AXIS
100
AcDbLine
 62
7
  6
CENTER
 10
2.3369822555
 20
5.4959421301
 11
2.3369822555
 21
4.805390949
  0
LINE
  5
66D
100
AcDbEntity
  8
AXIS
100
AcDbLine
 62
7
  6
CENTER
 10
2.3369822555
 20
5.4959421301
 11
2.3369822555
 21
6.1864933112
  0
LINE
  5
66E
100
AcDbEntity
  8
AXIS
100
AcDbLine
 62
7
  6
CENTER
 10
2.3369822555
 20
5.4959421301
 11
1.6464310744
 21
5.4959421301
  0
LINE
  5
66F
100
AcDbEntity
  8
AXIS
100
AcDbLine
 62
7
  6
CENTER
 10
2.3369822555
 20
5.4959421301
 11
3.0275334367
 21
5.4959421301
  0
CIRCLE
  5
670
100
AcDbEntity
  8
0
100
AcDbCircle
 62
7
  6
CONTINUOUS
 10
10.5342808475
 20
1.243294839
 40
0.252091
  0
CIRCLE
  5
671
100
AcDbEntity
  8
0
100
AcDbCircle
 62
7
  6
CONTINUOUS
 10
10.5342808475
 20
1.243294839
 40
0.182698
  0
CIRCLE
  5
672
100
AcDbEntity
  8
0
100
AcDbCircle
 62
7
  6
CONTINUOUS
 10
10.1225539079
 20
1.9935547577
 40
0.0638444824
  0
CIRCLE
  5
673
100
AcDbEntity
  8
AXIS
100
AcDbCircle
 62
7
  6
CONTINUOUS
 10
2.3369822555
 20
5.4959421301
 40
0.5905511811
  0
CIRCLE
  5
674
100
AcDbEntity
  8
0
100
AcDbCircle
 62
7
  6
CONTINUOUS
 10
2.3369822555
 20
5.4959421301
 40
0.5019077718
  0
CIRCLE
  5
675
100
AcDbEntity
  8
0
100
AcDbCircle
 62
7
  6
CONTINUOUS
 10
2.3369822555
 20
5.4959421301
 40
0.3474746113
  0
ARC
  5
676
100
AcDbEntity
  8
0
100
AcDbCircle
 62
7
  6
CONTINUOUS
 10
5.2396710082
 20
5.194797467
 40
0.2362204724
100
AcDbArc
 50
191.3107492616
 51
238.2004857338
  0
ARC
  5
677
100
AcDbEntity
  8
0
100
AcDbCircle
 62
7
  6
CONTINUOUS
 10
5.8594559418
 20
4.9447610277
 40
0.0393700787
100
AcDbArc
 50
270.0
 51
360.0
  0
ARC
  5
678
100
AcDbEntity
  8
0
100
AcDbCircle
 62
7
  6
CONTINUOUS
 10
5.9185110599
 20
5.121926382
 40
0.0196850394
100
AcDbArc
 50
90.0
 51
179.9999999703
  0
ARC
  5
679
100
AcDbEntity
  8
0
100
AcDbCircle
 62
7
  6
CONTINUOUS
 10
5.4263850756
 20
5.4959421301
 40
0.5905511811
100
AcDbArc
 50
90.0
 51
121.7995142662
  0
ARC
  5
67A
100
AcDbEntity
  8
0
100
AcDbCircle
 62
7
  6
CONTINUOUS
 10
5.4263850756
 20
5.4959421301
 40
0.5905511811
100
AcDbArc
 50
238.2004857338
 51
270.0
  0
ARC
  5
67B
100
AcDbEntity
  8
AXIS
100
AcDbCircle
 62
7
  6
CONTINUOUS
 10
5.4263850756
 20
5.4959421301
 40
0.5905511811
100
AcDbArc
 50
238.2004857338
 51
270.0
  0
ARC
  5
67C
100
AcDbEntity
  8
AXIS
100
AcDbCircle
 62
7
  6
CONTINUOUS
 10
5.4263850756
 20
5.4959421301
 40
0.5905511811
100
AcDbArc
 50
90.0
 51
121.7995142662
  0
ARC
  5
67D
100
AcDbEntity
  8
0
100
AcDbCircle
 62
7
  6
CONTINUOUS
 10
5.2396710082
 20
5.7970867932
 40
0.2362204724
100
AcDbArc
 50
121.7995142662
 51
168.6892507384
  0
ARC
  5
67E
100
AcDbEntity
  8
0
100
AcDbCircle
 62
7
  6
CONTINUOUS
 10
5.8594559418
 20
6.0471232324
 40
0.0393700787
100
AcDbArc
 50
0.0
 51
90.0
  0
ARC
  5
67F
100
AcDbEntity
  8
0
100
AcDbCircle
 62
7
  6
CONTINUOUS
 10
5.9185110599
 20
5.8699578781
 40
0.0196850394
100
AcDbArc
 50
180.0000000323
 51
270.0
  0
ARC
  5
680
100
AcDbEntity
  8
0
100
AcDbCircle
 62
7
  6
CONTINUOUS
 10
6.701408138
 20
5.1335602403
 40
0.1181102362
100
AcDbArc
 50
90.0
 51
104.6479847266
  0
ARC
  5
681
100
AcDbEntity
  8
0
100
AcDbCircle
 62
7
  6
CONTINUOUS
 10
6.5135667377
 20
5.3286192954
 40
0.1181102362
100
AcDbArc
 50
270.0
 51
284.6479847266
  0
ARC
  5
682
100
AcDbEntity
  8
0
100
AcDbCircle
 62
7
  6
CONTINUOUS
 10
6.4696921622
 20
5.1612964608
 40
0.0196850394
100
AcDbArc
 50
270.0
 51
360.0
  0
ARC
  5
683
100
AcDbEntity
  8
0
100
AcDbCircle
 62
7
  6
CONTINUOUS
 10
6.7452827134
 20
5.4959421301
 40
1.7716535433
100
AcDbArc
 50
168.6892507384
 51
191.3107492616
  0
ARC
  5
684
100
AcDbEntity
  8
0
100
AcDbCircle
 62
7
  6
CONTINUOUS
 10
6.701408138
 20
5.8583240198
 40
0.1181102362
100
AcDbArc
 50
255.3520152734
 51
270.0
  0
ARC
  5
685
100
AcDbEntity
  8
0
100
AcDbCircle
 62
7
  6
CONTINUOUS
 10
6.5135667377
 20
5.6632649647
 40
0.1181102362
100
AcDbArc
 50
75.3520152734
 51
90.0
  0
ARC
  5
686
100
AcDbEntity
  8
0
100
AcDbCircle
 62
7
  6
CONTINUOUS
 10
6.4696921622
 20
5.8305877993
 40
0.0196850394
100
AcDbArc
 50
0.0
 51
90.0
  0
ARC
  5
687
100
AcDbEntity
  8
0
100
AcDbCircle
 62
7
  6
CONTINUOUS
 10
9.3608213311
 20
5.1612964608
 40
0.0393699121
100
AcDbArc
 50
234.6293990399
 51
270.0
  0
ARC
  5
688
100
AcDbEntity
  8
0
100
AcDbCircle
 62
7
  6
CONTINUOUS
 10
9.4819921519
 20
5.1612964608
 40
0.0196850394
100
AcDbArc
 50
250.8118635463
 51
270.0
  0
ARC
  5
689
100
AcDbEntity
  8
0
100
AcDbCircle
 62
7
  6
CONTINUOUS
 10
9.3608213311
 20
5.8305877993
 40
0.0393699128
100
AcDbArc
 50
90.0
 51
125.3743487962
  0
ARC
  5
68A
100
AcDbEntity
  8
0
100
AcDbCircle
 62
7
  6
CONTINUOUS
 10
9.4819921519
 20
5.8305877993
 40
0.0196850394
100
AcDbArc
 50
90.0
 51
109.1881364537
  0
ARC
  5
68B
100
AcDbEntity
  8
0
100
AcDbCircle
 62
7
  6
CONTINUOUS
 10
9.8360794996
 20
5.1612964608
 40
0.0393699128
100
AcDbArc
 50
270.0
 51
305.3782065227
  0
ARC
  5
68C
100
AcDbEntity
  8
0
100
AcDbCircle
 62
7
  6
CONTINUOUS
 10
9.7149086788
 20
5.1612964608
 40
0.0196850394
100
AcDbArc
 50
270.0
 51
289.1881364537
  0
ARC
  5
68D
100
AcDbEntity
  8
AXIS
100
AcDbCircle
 62
7
  6
CONTINUOUS
 10
9.5984504153
 20
5.4959421301
 40
0.5905511811
100
AcDbArc
 50
7.7409672847
 51
84.2747347886
  0
ARC
  5
68E
100
AcDbEntity
  8
AXIS
100
AcDbCircle
 62
7
  6
CONTINUOUS
 10
9.5984504153
 20
5.4959421301
 40
0.5905511811
100
AcDbArc
 50
275.7250472172
 51
352.2590327153
  0
CIRCLE
  5
68F
100
AcDbEntity
  8
0
100
AcDbCircle
 62
7
  6
CONTINUOUS
 10
9.5984504153
 20
5.4959421301
 40
0.5905511811
  0
CIRCLE
  5
690
100
AcDbEntity
  8
0
100
AcDbCircle
 62
7
  6
CONTINUOUS
 10
9.5984504153
 20
5.4959421301
 40
0.5511811022
  0
ARC
  5
691
100
AcDbEntity
  8
0
100
AcDbCircle
 62
7
  6
CONTINUOUS
 10
9.5984504153
 20
5.4959421301
 40
0.4498031496
100
AcDbArc
 50
305.3782385716
 51
54.6216939865
  0
ARC
  5
692
100
AcDbEntity
  8
0
100
AcDbCircle
 62
7
  6
CONTINUOUS
 10
9.5984504153
 20
5.4959421301
 40
0.4498031496
100
AcDbArc
 50
125.3779009172
 51
234.6224271148
  0
ARC
  5
693
100
AcDbEntity
  8
0
100
AcDbCircle
 62
7
  6
CONTINUOUS
 10
9.5984504153
 20
5.4959421301
 40
0.4301181102
100
AcDbArc
 50
124.5331211216
 51
235.4668788784
  0
ARC
  5
694
100
AcDbEntity
  8
0
100
AcDbCircle
 62
7
  6
CONTINUOUS
 10
9.5984504153
 20
5.4959421301
 40
0.4301181102
100
AcDbArc
 50
304.5331211216
 51
15.1199999995
  0
ARC
  5
695
100
AcDbEntity
  8
0
100
AcDbCircle
 62
7
  6
CONTINUOUS
 10
9.5984504153
 20
5.4959421301
 40
0.4301181102
100
AcDbArc
 50
17.4956901708
 51
55.4668788784
  0
ARC
  5
696
100
AcDbEntity
  8
0
100
AcDbCircle
 62
7
  6
CONTINUOUS
 10
9.5984504153
 20
5.4959421301
 40
0.374015748
100
AcDbArc
 50
109.1881364537
 51
250.8118635463
  0
ARC
  5
697
100
AcDbEntity
  8
0
100
AcDbCircle
 62
7
  6
CONTINUOUS
 10
9.5984504153
 20
5.4959421301
 40
0.374015748
100
AcDbArc
 50
289.1881364537
 51
70.8118635463
  0
ARC
  5
698
100
AcDbEntity
  8
0
100
AcDbCircle
 62
7
  6
CONTINUOUS
 10
9.5984504153
 20
5.4959421301
 40
0.3543307087
100
AcDbArc
 50
289.1879319104
 51
70.8120794257
  0
ARC
  5
699
100
AcDbEntity
  8
0
100
AcDbCircle
 62
7
  6
CONTINUOUS
 10
9.5984504153
 20
5.4959421301
 40
0.3543307087
100
AcDbArc
 50
109.1879319111
 51
250.8120794261
  0
CIRCLE
  5
69A
100
AcDbEntity
  8
0
100
AcDbCircle
 62
7
  6
CONTINUOUS
 10
9.5984504153
 20
5.4959421301
 40
0.2854330709
  0
CIRCLE
  5
69B
100
AcDbEntity
  8
0
100
AcDbCircle
 62
7
  6
CONTINUOUS
 10
9.5984504153
 20
5.4959421301
 40
0.2815942195
  0
CIRCLE
  5
69C
100
AcDbEntity
  8
0
100
AcDbCircle
 62
7
  6
CONTINUOUS
 10
9.5984504153
 20
5.4959421301
 40
0.2481105049
  0
ARC
  5
69D
100
AcDbEntity
  8
0
100
AcDbCircle
 62
7
  6
CONTINUOUS
 10
9.5984504153
 20
5.4959421301
 40
0.2442716535
100
AcDbArc
 50
342.3463568424
 51
342.0005095346
  0
CIRCLE
  5
69E
100
AcDbEntity
  8
0
100
AcDbCircle
 62
7
  6
CONTINUOUS
 10
9.5984504153
 20
5.4959421301
 40
0.208838596
  0
CIRCLE
  5
69F
100
AcDbEntity
  8
0
100
AcDbCircle
 62
7
  6
CONTINUOUS
 10
9.5984504153
 20
5.4959421301
 40
0.2037401575
  0
CIRCLE
  5
6A0
100
AcDbEntity
  8
0
100
AcDbCircle
 62
7
  6
CONTINUOUS
 10
9.5984504153
 20
5.4959421301
 40
0.1633858268
  0
ARC
  5
6A1
100
AcDbEntity
  8
0
100
AcDbCircle
 62
7
  6
CONTINUOUS
 10
9.8360794996
 20
5.8305877993
 40
0.0393699121
100
AcDbArc
 50
54.621022954
 51
90.0
  0
ARC
  5
6A2
100
AcDbEntity
  8
0
100
AcDbCircle
 62
7
  6
CONTINUOUS
 10
9.7149086788
 20
5.8305877993
 40
0.0196850394
100
AcDbArc
 50
70.8118635463
 51
90.0
  0
ENDSEC
  0
SECTION
  2
OBJECTS
  0
DICTIONARY
  5
C
100
AcDbDictionary
280
0
281
1
  3
ACAD_GROUP
350
D
  3
ACAD_MLINESTYLE
350
17
  3
ACAD_LAYOUT
350
1A
  3
ACAD_PLOTSETTINGS
350
19
  3
ACAD_PLOTSTYLENAME
350
E
  3
ACAD_TABLESTYLE
350
       6A3
  0
DICTIONARY
  5
D
102
{ACAD_REACTORS
330
C
102
}
100
AcDbDictionary
280
0
281
1
  0
ACDBDICTIONARYWDFLT
  5
E
102
{ACAD_REACTORS
330
C
102
}
100
AcDbDictionary
281
1
  3
Normal
350
F
100
AcDbDictionaryWithDefault
340
F
  0
DICTIONARY
  5
17
102
{ACAD_REACTORS
330
C
102
}
100
AcDbDictionary
280
0
281
1
  3
Standard
350
18
  0
DICTIONARY
  5
6A3
330
C
100
AcDbDictionary
281
1
  3
Standard
350
       6A6
  3
Standard1
350
       6A7
  0
DICTIONARY
  5
19
102
{ACAD_REACTORS
330
C
102
}
100
AcDbDictionary
281
1
  0
DICTIONARY
  5
1A
102
{ACAD_REACTORS
330
C
102
}
100
AcDbDictionary
281
1
  3
Model
350
6A4
  3
Layout1
350
6A5
  0
ACDBPLACEHOLDER
  5
F
102
{ACAD_REACTORS
330
E
102
}
  0
MLINESTYLE
  5
18
102
{ACAD_REACTORS
330
17
102
}
100
AcDbMlineStyle
  2
STANDARD
 70
0
  3

 62
256
 51
90.0
 52
90.0
 71
2
 49
0.5
 62
256
  6
BYLAYER
 49
-0.5
 62
256
  6
BYLAYER
  0
LAYOUT
  5
6A4
102
{ACAD_REACTORS
330
1A
102
}
100
AcDbPlotSettings
  1

  2
none_device
  4
ANSI_B_(17.00_x_11.00_Inches)
  6

 40
0.0
 41
0.0
 42
0.0
 43
0.0
 44
431.8
 45
279.4
 46
0.0
 47
0.0
 48
0.0
 49
0.0
140
0.0
141
0.0
142
1.0
143
1.0
 70
1024
 72
0
 73
0
 74
0
  7

 75
0
147
1.0
148
0.0
149
0.0
100
AcDbLayout
  1
Model
 70
0
 71
0
 10
0.0
 20
0.0
 11
17.0
 21
11.0
 12
0.0
 22
0.0
 32
0.0
 14
0.0
 24
0.0
 34
0.0
 15
0.0
 25
0.0
 35
0.0
146
0.0
 13
0.0
 23
0.0
 33
0.0
 16
1.0
 26
0.0
 36
0.0
 17
0.0
 27
1.0
 37
0.0
 76
0
330
216
345
0
346
0
  0
LAYOUT
  5
6A5
102
{ACAD_REACTORS
330
1A
102
}
100
AcDbPlotSettings
  1

  2
none_device
  4
ANSI_B_(17.00_x_11.00_Inches)
  6

 40
0.0
 41
0.0
 42
0.0
 43
0.0
 44
431.8
 45
279.4
 46
0.0
 47
0.0
 48
0.0
 49
0.0
140
0.0
141
0.0
142
1.0
143
1.0
 70
0
 72
0
 73
0
 74
0
  7

 75
0
147
1.0
148
0.0
149
0.0
100
AcDbLayout
  1
Layout1
 70
0
 71
1
 10
0.0
 20
0.0
 11
17.0
 21
11.0
 12
0.0
 22
0.0
 32
0.0
 14
0.0
 24
0.0
 34
0.0
 15
0.0
 25
0.0
 35
0.0
146
0.0
 13
0.0
 23
0.0
 33
0.0
 16
1.0
 26
0.0
 36
0.0
 17
0.0
 27
1.0
 37
0.0
 76
0
330
217
345
0
346
0
  0
TABLESTYLE
  5
6A6
102
{ACAD_REACTORS
330
6A3
102
}
330
6A3
100
AcDbTableStyle
  3
Standard
 70
0
 71
0
 40
0.06
 41
0.06
280
1
281
1
  7
Standard
140
0.18
170
1
 62
0
 63
7
283
0
  7
Standard
140
0.18
170
1
 62
0
 63
7
283
0
  7
Standard
140
0.18
170
1
 62
0
 63
7
283
0
  0
TABLESTYLE
  5
6A7
102
{ACAD_REACTORS
330
6A3
330
272
102
}
330
6A3
100
AcDbTableStyle
  3
Standard1
 70
1
 71
0
 40
0.06
 41
0.06
280
1
281
1
  7
Standard
140
0.18
170
1
 62
0
 63
7
283
0
  7
Standard
140
0.18
170
1
 62
0
 63
7
283
0
  7
Standard
140
0.18
170
1
 62
0
 63
7
283
0
  0
ENDSEC
  0
EOF
