999
DXF file: 161756_1.dxf
999
Pro/ENGINEER 2019292 by Parametric Technology Corporation
  0
SECTION
  2
HEADER
  9
$ACADVER
  1
AC1027
  9
$DWGCODEPAGE
  3
ANSI_1252
  9
$EXTMAX
 10
17.0
 20
11.0
 30
0.0
  9
$EXTMIN
 10
0.0
 20
0.0
 30
0.0
  9
$LIMMIN
 10
0.0
 20
0.0
  9
$LIMMAX
 10
17.0
 20
11.0
  9
$VIEWCTR
 10
8.5
 20
5.5
  9
$VIEWSIZE
 40
11.0
  9
$CLAYER
  8
0
  9
$LTSCALE
 40
0.935
  9
$CELTYPE
  6
BYLAYER
  9
$DIMSCALE
 40
1.0
  9
$DIMASZ
 40
0.1875
  9
$DIMEXO
 40
0.0625
  9
$DIMDLI
 40
0.646
  9
$DIMEXE
 40
0.125
  9
$DIMCEN
 40
0.153
  9
$DIMLFAC
 40
1.0
  9
$DIMBLK
  1
_FILLED
  9
$DIMALT
 70
1
  9
$DIMALTD
 70
2
  9
$DIMALTTD
 70
2
  9
$DIMALTF
 40
25.4
  9
$DIMTXT
 40
0.1
  9
$DIMTOL
 70
1
  9
$DIMLIM
 70
0
  9
$DIMTFAC
 40
1.0
  9
$DIMTP
 40
0.005
  9
$DIMTM
 40
0.005
  9
$DIMGAP
 40
0.09
  9
$DIMDSEP
 70
46
  9
$AUNITS
 70
0
  9
$PDMODE
 70
3
  9
$PDSIZE
 40
0.3125
  9
$HANDSEED
  5
5E9
  9
$TILEMODE
 70
1
  9
$MEASUREMENT
 70
0
  9
$INSUNITS
 70
1
  0
ENDSEC
  0
SECTION
  2
CLASSES
  0
CLASS
  1
ACDBDICTIONARYWDFLT
  2
AcDbDictionaryWithDefault
  3
AutoCAD 2000
 90
0
 91
1
280
0
281
0
  0
CLASS
  1
ACDBPLACEHOLDER
  2
AcDbPlaceHolder
  3
AutoCAD 2000
 90
0
 91
1
280
0
281
0
  0
CLASS
  1
LAYOUT
  2
AcDbLayout
  3
AutoCAD 2000
 90
0
 91
0
280
0
281
0
  0
CLASS
  1
TABLESTYLE
  2
AcDbTableStyle
  3
ObjectDBX Classes
 90
2047
 91
1
280
0
281
0
  0
CLASS
  1
ACAD_TABLE
  2
AcDbTable
  3
ObjectDBX Classes
 90
1025
 91
1
280
0
281
1
  0
ENDSEC
  0
SECTION
  2
TABLES
  0
TABLE
  2
VPORT
  5
8
100
AcDbSymbolTable
 70
2
  0
VPORT
  5
1F4
100
AcDbSymbolTableRecord
100
AcDbViewportTableRecord
  2
*ACTIVE
 70
0
 10
0.0
 20
0.0
 11
1.0
 21
1.0
 12
8.5
 22
5.5
 13
0.0
 23
0.0
 14
1.0
 24
1.0
 15
0.0
 25
0.0
 16
0.0
 26
0.0
 36
1.0
 17
0.0
 27
0.0
 37
0.0
 40
11.0
 41
1.5454545455
 42
50.0
 43
0.0
 44
0.0
 50
0.0
 51
0.0
 71
0
 72
100
 73
1
 74
1
 75
0
 76
0
 77
0
 78
0
  0
ENDTAB
  0
TABLE
  2
LTYPE
  5
5
100
AcDbSymbolTable
 70
6
  0
LTYPE
  5
14
100
AcDbSymbolTableRecord
100
AcDbLinetypeTableRecord
  2
BYBLOCK
 70
0
  3

 72
65
 73
0
 40
0.0
  0
LTYPE
  5
15
100
AcDbSymbolTableRecord
100
AcDbLinetypeTableRecord
  2
BYLAYER
 70
0
  3

 72
65
 73
0
 40
0.0
  0
LTYPE
  5
16
100
AcDbSymbolTableRecord
100
AcDbLinetypeTableRecord
  2
CONTINUOUS
 70
64
  3
Solid line
 72
65
 73
0
 40
0.0
  0
LTYPE
  5
1F5
100
AcDbSymbolTableRecord
100
AcDbLinetypeTableRecord
  2
CENTER
 70
64
  3
____ _ ____ _ ____ _ ____ _ ____ _ ____ _ ____
 72
65
 73
4
 40
0.6
 49
0.375
 74
0
 49
-0.075
 74
0
 49
0.075
 74
0
 49
-0.075
 74
0
  0
LTYPE
  5
1F6
100
AcDbSymbolTableRecord
100
AcDbLinetypeTableRecord
  2
HIDDEN
 70
64
  3
- - - - - - - - - - - - - - - - - - - -
 72
65
 73
2
 40
0.2
 49
0.1
 74
0
 49
-0.1
 74
0
  0
LTYPE
  5
1F7
100
AcDbSymbolTableRecord
100
AcDbLinetypeTableRecord
  2
PHANTOM
 70
64
  3
_____ _ _ _____ _ _ _____ _ _ _____
 72
65
 73
6
 40
0.8
 49
0.45
 74
0
 49
-0.05
 74
0
 49
0.1
 74
0
 49
-0.05
 74
0
 49
0.1
 74
0
 49
-0.05
 74
0
  0
LTYPE
  5
1F8
100
AcDbSymbolTableRecord
100
AcDbLinetypeTableRecord
  2
DOT
 70
64
  3
. . . . . . . . . . . . . . . . . . . .
 72
65
 73
2
 40
0.2
 49
0.1
 74
0
 49
-0.1
 74
0
  0
LTYPE
  5
1F9
100
AcDbSymbolTableRecord
100
AcDbLinetypeTableRecord
  2
DASHED
 70
64
  3
- - - - - - - - - - - - - - - - - - - -
 72
65
 73
2
 40
0.2
 49
0.1
 74
0
 49
-0.1
 74
0
  0
ENDTAB
  0
TABLE
  2
LAYER
  5
2
100
AcDbSymbolTable
 70
36
  0
LAYER
  5
10
100
AcDbSymbolTableRecord
100
AcDbLayerTableRecord
  2
0
 70
0
 62
7
  6
CONTINUOUS
370
-3
390
F
  0
LAYER
  5
1FA
100
AcDbSymbolTableRecord
100
AcDbLayerTableRecord
  2
DEFAULT_1
 70
0
 62
7
  6
CENTER
370
-3
390
F
  0
LAYER
  5
1FB
100
AcDbSymbolTableRecord
100
AcDbLayerTableRecord
  2
DEFAULT_2
 70
0
 62
7
  6
HIDDEN
370
-3
390
F
  0
LAYER
  5
1FC
100
AcDbSymbolTableRecord
100
AcDbLayerTableRecord
  2
DEFAULT_3
 70
0
 62
7
  6
PHANTOM
370
-3
390
F
  0
LAYER
  5
1FD
100
AcDbSymbolTableRecord
100
AcDbLayerTableRecord
  2
01___PRT_ALL_DTM_PLN
 70
0
 62
7
  6
CONTINUOUS
370
-3
390
F
  0
LAYER
  5
1FE
100
AcDbSymbolTableRecord
100
AcDbLayerTableRecord
  2
01___PRT_DEF_DTM_PLN
 70
0
 62
7
  6
CONTINUOUS
370
-3
390
F
  0
LAYER
  5
1FF
100
AcDbSymbolTableRecord
100
AcDbLayerTableRecord
  2
02___PRT_ALL_AXES
 70
0
 62
7
  6
CONTINUOUS
370
-3
390
F
  0
LAYER
  5
200
100
AcDbSymbolTableRecord
100
AcDbLayerTableRecord
  2
03___PRT_ALL_CURVES
 70
0
 62
7
  6
CONTINUOUS
370
-3
390
F
  0
LAYER
  5
201
100
AcDbSymbolTableRecord
100
AcDbLayerTableRecord
  2
04___PRT_ALL_DTM_PNT
 70
0
 62
7
  6
CONTINUOUS
370
-3
390
F
  0
LAYER
  5
202
100
AcDbSymbolTableRecord
100
AcDbLayerTableRecord
  2
05___PRT_ALL_DTM_CSYS
 70
0
 62
7
  6
CONTINUOUS
370
-3
390
F
  0
LAYER
  5
203
100
AcDbSymbolTableRecord
100
AcDbLayerTableRecord
  2
05___PRT_DEF_DTM_CSYS
 70
0
 62
7
  6
CONTINUOUS
370
-3
390
F
  0
LAYER
  5
204
100
AcDbSymbolTableRecord
100
AcDbLayerTableRecord
  2
06___PRT_ALL_SURFS
 70
0
 62
7
  6
CONTINUOUS
370
-3
390
F
  0
LAYER
  5
205
100
AcDbSymbolTableRecord
100
AcDbLayerTableRecord
  2
AXIS
 70
0
 62
7
  6
CONTINUOUS
370
-3
390
F
  0
LAYER
  5
206
100
AcDbSymbolTableRecord
100
AcDbLayerTableRecord
  2
AXIS_COSMETIC_THREADS
 70
0
 62
7
  6
CONTINUOUS
370
-3
390
F
  0
LAYER
  5
207
100
AcDbSymbolTableRecord
100
AcDbLayerTableRecord
  2
DATUM_CURVES
 70
0
 62
7
  6
CONTINUOUS
370
-3
390
F
  0
LAYER
  5
208
100
AcDbSymbolTableRecord
100
AcDbLayerTableRecord
  2
DATUM_PLANES
 70
0
 62
7
  6
CONTINUOUS
370
-3
390
F
  0
LAYER
  5
209
100
AcDbSymbolTableRecord
100
AcDbLayerTableRecord
  2
DRIVEN_DIMS
 70
0
 62
7
  6
CONTINUOUS
370
-3
390
F
  0
LAYER
  5
20A
100
AcDbSymbolTableRecord
100
AcDbLayerTableRecord
  2
NOTES
 70
0
 62
7
  6
CONTINUOUS
370
-3
390
F
  0
LAYER
  5
20B
100
AcDbSymbolTableRecord
100
AcDbLayerTableRecord
  2
QUILTS
 70
0
 62
7
  6
CONTINUOUS
370
-3
390
F
  0
LAYER
  5
20C
100
AcDbSymbolTableRecord
100
AcDbLayerTableRecord
  2
SCHEME_DIMS
 70
0
 62
7
  6
CONTINUOUS
370
-3
390
F
  0
LAYER
  5
20D
100
AcDbSymbolTableRecord
100
AcDbLayerTableRecord
  2
SKETCHED_ENT
 70
0
 62
7
  6
CONTINUOUS
370
-3
390
F
  0
LAYER
  5
20E
100
AcDbSymbolTableRecord
100
AcDbLayerTableRecord
  2
SYMBOLS
 70
0
 62
7
  6
CONTINUOUS
370
-3
390
F
  0
LAYER
  5
20F
100
AcDbSymbolTableRecord
100
AcDbLayerTableRecord
  2
XSEC_DATUMS
 70
0
 62
7
  6
CONTINUOUS
370
-3
390
F
  0
ENDTAB
  0
TABLE
  2
STYLE
  5
3
100
AcDbSymbolTable
 70
1
  0
STYLE
  5
11
100
AcDbSymbolTableRecord
100
AcDbTextStyleTableRecord
  2
STANDARD
 70
0
 40
0.0
 41
1.0
 50
0.0
 71
0
 42
0.2
  3
txt
  4

  0
STYLE
  5
210
100
AcDbSymbolTableRecord
100
AcDbTextStyleTableRecord
  2
TEXTSTYLE_1
 70
0
 40
0.0
 41
0.8
 50
0.0
 71
0
 42
0.2
  3
gdt
  4

  0
STYLE
  5
211
100
AcDbSymbolTableRecord
100
AcDbTextStyleTableRecord
  2
TEXTSTYLE_2
 70
0
 40
0.0
 41
0.8
 50
0.0
 71
0
 42
0.2
  3
txt
  4

  0
STYLE
  5
212
100
AcDbSymbolTableRecord
100
AcDbTextStyleTableRecord
  2
TEXTSTYLE_3
 70
0
 40
0.0
 41
0.85
 50
0.0
 71
0
 42
0.2
  3
txt
  4

  0
STYLE
  5
213
100
AcDbSymbolTableRecord
100
AcDbTextStyleTableRecord
  2
TEXTSTYLE_4
 70
0
 40
0.0
 41
0.9
 50
0.0
 71
0
 42
0.2
  3
txt
  4

  0
STYLE
  5
214
100
AcDbSymbolTableRecord
100
AcDbTextStyleTableRecord
  2
TEXTSTYLE_5
 70
0
 40
0.0
 41
0.75
 50
0.0
 71
0
 42
0.2
  3
txt
  4

  0
STYLE
  5
215
100
AcDbSymbolTableRecord
100
AcDbTextStyleTableRecord
  2
TEXTSTYLE_6
 70
0
 40
0.0
 41
1.0
 50
0.0
 71
0
 42
0.2
  3
gdt
  4

  0
ENDTAB
  0
TABLE
  2
VIEW
  5
6
100
AcDbSymbolTable
 70
0
  0
ENDTAB
  0
TABLE
  2
UCS
  5
7
100
AcDbSymbolTable
 70
0
  0
ENDTAB
  0
TABLE
  2
APPID
  5
9
100
AcDbSymbolTable
 70
1
  0
APPID
  5
216
100
AcDbSymbolTableRecord
100
AcDbRegAppTableRecord
  2
ACAD
 70
0
  0
ENDTAB
  0
TABLE
  2
BLOCK_RECORD
  5
1
100
AcDbSymbolTable
 70
0
  0
BLOCK_RECORD
  5
217
100
AcDbSymbolTableRecord
100
AcDbBlockTableRecord
  2
*Model_Space
  0
BLOCK_RECORD
  5
218
100
AcDbSymbolTableRecord
100
AcDbBlockTableRecord
  2
*Paper_Space
  0
BLOCK_RECORD
  5
219
100
AcDbSymbolTableRecord
100
AcDbBlockTableRecord
  2
_FILLED
  0
BLOCK_RECORD
  5
21A
100
AcDbSymbolTableRecord
100
AcDbBlockTableRecord
  2
*D0
  0
BLOCK_RECORD
  5
21B
100
AcDbSymbolTableRecord
100
AcDbBlockTableRecord
  2
*D1
  0
BLOCK_RECORD
  5
21C
100
AcDbSymbolTableRecord
100
AcDbBlockTableRecord
  2
*D2
  0
BLOCK_RECORD
  5
21D
100
AcDbSymbolTableRecord
100
AcDbBlockTableRecord
  2
*D3
  0
BLOCK_RECORD
  5
21E
100
AcDbSymbolTableRecord
100
AcDbBlockTableRecord
  2
*D4
  0
BLOCK_RECORD
  5
21F
100
AcDbSymbolTableRecord
100
AcDbBlockTableRecord
  2
*D5
  0
BLOCK_RECORD
  5
220
100
AcDbSymbolTableRecord
100
AcDbBlockTableRecord
  2
*D6
  0
BLOCK_RECORD
  5
221
100
AcDbSymbolTableRecord
100
AcDbBlockTableRecord
  2
*T1
  0
ENDTAB
  0
TABLE
  2
DIMSTYLE
  5
A
100
AcDbSymbolTable
 70
1
100
AcDbDimStyleTable
 71
0
  0
DIMSTYLE
105
222
100
AcDbSymbolTableRecord
100
AcDbDimStyleTableRecord
  2
STANDARD
 70
0
  3

  4

 40
1.0
 41
0.1875
 42
0.0625
 43
0.38
 44
0.125
 45
0.0
 46
0.0
 47
0.005
 48
0.005
140
0.1
141
0.09
142
0.0
143
1.0
144
1.0
145
0.0
146
1.0
147
0.09
 71
1.0
 72
0.0
 73
1
 74
1
 75
0
 76
0
 77
0
 78
4
 79
1
170
1
171
2
172
0
173
0
174
0
175
0
176
0
177
0
178
0
270
2
179
3
271
3
272
3
273
2
274
2
275
0
280
0
281
0
282
0
283
1
284
4
285
0
286
0
287
3
288
0
340
11
278
46
341
219
342
219
343
219
344
219
  0
DIMSTYLE
105
223
100
AcDbSymbolTableRecord
100
AcDbDimStyleTableRecord
  2
DIMSTYLE_1
 70
0
  3

  4

 40
1.0
 41
0.1875
 42
0.0625
 43
0.38
 44
0.125
 45
0.0
 46
0.0
 47
0.005
 48
0.005
140
0.1
141
0.09
142
0.0
143
1.0
144
1.0
145
0.0
146
1.0
147
0.1
 71
0.0
 72
0.0
 73
1
 74
1
 75
0
 76
0
 77
0
 78
4
 79
1
170
1
171
2
172
0
173
0
174
0
175
0
176
0
177
0
178
0
270
2
179
3
271
1
272
3
273
2
274
4
275
0
280
0
281
0
282
0
283
1
284
4
285
0
286
0
287
3
288
0
340
11
278
46
341
219
342
219
343
219
344
219
  0
DIMSTYLE
105
224
100
AcDbSymbolTableRecord
100
AcDbDimStyleTableRecord
  2
DIMSTYLE_2
 70
0
  3
<>
  4

 40
1.0
 41
0.1875
 42
0.0625
 43
0.38
 44
0.125
 45
0.0
 46
0.0
 47
0.005
 48
0.005
140
0.1
141
0.09
142
0.0
143
1.0
144
1.0
145
0.0
146
1.0
147
0.09
 71
0.0
 72
0.0
 73
1
 74
1
 75
0
 76
0
 77
0
 78
4
 79
1
170
1
171
2
172
0
173
0
174
0
175
0
176
0
177
0
178
0
270
2
179
3
271
1
272
3
273
2
274
4
275
0
280
0
281
0
282
0
283
1
284
4
285
0
286
0
287
3
288
1
340
11
278
46
289
1
341
219
342
219
343
219
344
219
  0
DIMSTYLE
105
225
100
AcDbSymbolTableRecord
100
AcDbDimStyleTableRecord
  2
DIMSTYLE_3
 70
0
  3
<>
  4

 40
1.0
 41
0.1875
 42
0.0625
 43
0.38
 44
0.125
 45
0.0
 46
0.0
 47
0.1
 48
0.1
140
0.1
141
0.09
142
0.0
143
1.0
144
1.0
145
0.0
146
1.0
147
0.09
 71
0.0
 72
0.0
 73
1
 74
1
 75
0
 76
0
 77
0
 78
4
 79
1
170
1
171
2
172
1
173
0
174
0
175
0
176
0
177
0
178
0
270
2
179
3
271
1
272
3
273
2
274
4
275
0
280
0
281
0
282
0
283
1
284
4
285
0
286
0
287
3
288
1
340
11
278
46
289
2
341
219
342
219
343
219
344
219
  0
DIMSTYLE
105
226
100
AcDbSymbolTableRecord
100
AcDbDimStyleTableRecord
  2
DIMSTYLE_4
 70
0
  3

  4

 40
1.0
 41
0.1875
 42
0.0625
 43
0.38
 44
0.125
 45
0.0
 46
0.0
 47
0.1
 48
0.1
140
0.1
141
0.09
142
0.0
143
1.0
144
1.0
145
0.0
146
1.0
147
0.1
 71
0.0
 72
0.0
 73
1
 74
1
 75
0
 76
0
 77
0
 78
4
 79
1
170
1
171
2
172
0
173
0
174
0
175
0
176
0
177
0
178
0
270
2
179
3
271
1
272
3
273
2
274
4
275
0
280
0
281
0
282
0
283
1
284
4
285
0
286
0
287
3
288
0
340
11
278
46
341
219
342
219
343
219
344
219
  0
ENDTAB
  0
ENDSEC
  0
SECTION
  2
BLOCKS
  0
BLOCK
  5
20
100
AcDbEntity
  8
0
100
AcDbBlockBegin
  2
*Model_Space
 70
0
 10
0.0
 20
0.0
 30
0.0
  3
*Model_Space
  1

  0
ENDBLK
  5
21
100
AcDbEntity
  8
0
100
AcDbBlockEnd
  0
BLOCK
  5
1C
100
AcDbEntity
  8
0
100
AcDbBlockBegin
  2
*Paper_Space
 70
0
 10
0.0
 20
0.0
 30
0.0
  3
*Paper_Space
  1

  0
ENDBLK
  5
1D
100
AcDbEntity
  8
0
100
AcDbBlockEnd
  0
BLOCK
  5
227
100
AcDbEntity
  8
0
100
AcDbBlockBegin
  2
_FILLED
 70
64
 10
0.0
 20
0.0
  3
_FILLED
  1

  0
SOLID
  5
228
100
AcDbEntity
  8
0
  6
BYBLOCK
 62
0
100
AcDbTrace
 10
0.0
 20
0.0
 11
-1.0
 21
0.1666666667
 12
-1.0
 22
-0.1666666667
 13
-1.0
 23
-0.1666666667
  0
ENDBLK
  5
229
100
AcDbEntity
  8
0
  6
BYBLOCK
 62
0
100
AcDbBlockEnd
  0
BLOCK
  5
22A
100
AcDbEntity
  8
DRIVEN_DIMS
100
AcDbBlockBegin
 62
7
  6
CONTINUOUS
  2
*D0
 70
65
 10
0.0
 20
0.0
  3
*D0
  1

  0
MTEXT
  5
22B
100
AcDbEntity
  8
DRIVEN_DIMS
100
AcDbMText
 62
7
  6
CONTINUOUS
  7
STANDARD
 71
2
 72
1
 10
12.1274982601
 20
5.7638062954
 30
0.0
 11
1.0
 21
0.0
 31
0.0
 73
2
 44
0.9
  1
 \fgdt;{\fgdt;n}\ftxt;16\P[.63]
 40
0.1
 41
0.5
  0
LINE
  5
22C
100
AcDbEntity
  8
DRIVEN_DIMS
100
AcDbLine
 62
7
  6
CONTINUOUS
 10
12.6518133572
 20
5.9553909754
 11
12.0024982601
 21
5.9553909754
  0
LINE
  5
22D
100
AcDbEntity
  8
DRIVEN_DIMS
100
AcDbLine
 62
7
  6
CONTINUOUS
 10
12.6550127659
 20
5.324106811
 11
12.0024982601
 21
5.324106811
  0
LINE
  5
22E
100
AcDbEntity
  8
DRIVEN_DIMS
100
AcDbLine
 62
7
  6
CONTINUOUS
 10
12.1274982601
 20
5.9553909754
 11
12.1274982601
 21
6.3553909754
  0
LINE
  5
22F
100
AcDbEntity
  8
DRIVEN_DIMS
100
AcDbLine
 62
7
  6
CONTINUOUS
 10
12.1274982601
 20
5.324106811
 11
12.1274982601
 21
4.924106811
  0
INSERT
  5
230
100
AcDbEntity
  8
DRIVEN_DIMS
100
AcDbBlockReference
 62
7
  6
CONTINUOUS
  2
_FILLED
 10
12.1274982601
 20
5.9553909754
 41
0.1875
 42
0.1875
 43
0.1875
 50
270.0
  0
INSERT
  5
231
100
AcDbEntity
  8
DRIVEN_DIMS
100
AcDbBlockReference
 62
7
  6
CONTINUOUS
  2
_FILLED
 10
12.1274982601
 20
5.324106811
 41
0.1875
 42
0.1875
 43
0.1875
 50
90.0
  0
ENDBLK
  5
232
100
AcDbEntity
  8
0
  6
BYBLOCK
 62
0
100
AcDbBlockEnd
  0
BLOCK
  5
233
100
AcDbEntity
  8
DRIVEN_DIMS
100
AcDbBlockBegin
 62
7
  6
CONTINUOUS
  2
*D1
 70
65
 10
0.0
 20
0.0
  3
*D1
  1

  0
MTEXT
  5
234
100
AcDbEntity
  8
DRIVEN_DIMS
100
AcDbMText
 62
7
  6
CONTINUOUS
  7
STANDARD
 71
3
 72
1
 10
13.7934831798
 20
5.0775031051
 30
0.0
 11
1.0
 21
0.0
 31
0.0
 73
2
 44
0.9
  1
 \fgdt;{\fgdt;n}\ftxt;18.2\P[.72]
 40
0.1
 41
0.6333333333
  0
LINE
  5
235
100
AcDbEntity
  8
DRIVEN_DIMS
100
AcDbLine
 62
7
  6
CONTINUOUS
 10
13.3029983997
 20
5.4456443868
 11
14.0434831798
 21
5.0275031051
  0
LINE
  5
236
100
AcDbEntity
  8
DRIVEN_DIMS
100
AcDbLine
 62
7
  6
CONTINUOUS
 10
14.0434831798
 20
5.0275031051
 11
13.8934831798
 21
5.0275031051
  0
INSERT
  5
237
100
AcDbEntity
  8
DRIVEN_DIMS
100
AcDbBlockReference
 62
7
  6
CONTINUOUS
  2
_FILLED
 10
13.3029983997
 20
5.4456443868
 41
0.1875
 42
0.1875
 43
0.1875
 50
150.5471972848
  0
ENDBLK
  5
238
100
AcDbEntity
  8
0
  6
BYBLOCK
 62
0
100
AcDbBlockEnd
  0
BLOCK
  5
239
100
AcDbEntity
  8
SCHEME_DIMS
100
AcDbBlockBegin
 62
7
  6
CONTINUOUS
  2
*D2
 70
65
 10
0.0
 20
0.0
  3
*D2
  1

  0
MTEXT
  5
23A
100
AcDbEntity
  8
SCHEME_DIMS
100
AcDbMText
 62
7
  6
CONTINUOUS
  7
TEXTSTYLE_6
 71
1
 72
1
 10
7.4363767166
 20
8.3875763343
 30
0.0
 11
1.0
 21
0.0
 31
0.0
 73
2
 44
0.9
  1
{\fgdt;n}\ftxt;23,5\P[.93]
 40
0.1
 41
0.5333333333
  0
LINE
  5
23B
100
AcDbEntity
  8
SCHEME_DIMS
100
AcDbLine
 62
7
  6
CONTINUOUS
 10
6.9479851824
 20
8.5420432873
 11
6.5968498901
 21
8.8432098683
  0
LINE
  5
23C
100
AcDbEntity
  8
SCHEME_DIMS
100
AcDbLine
 62
7
  6
CONTINUOUS
 10
6.5968498901
 20
8.8432098683
 11
7.1863767166
 21
8.3375763343
  0
LINE
  5
23D
100
AcDbEntity
  8
SCHEME_DIMS
100
AcDbLine
 62
7
  6
CONTINUOUS
 10
7.1863767166
 20
8.3375763343
 11
7.3363767166
 21
8.3375763343
  0
LINE
  5
23E
100
AcDbEntity
  8
SCHEME_DIMS
100
AcDbLine
 62
7
  6
CONTINUOUS
 10
6.2457145978
 20
9.1443764493
 11
6.5968498901
 21
8.8432098683
  0
INSERT
  5
23F
100
AcDbEntity
  8
SCHEME_DIMS
100
AcDbBlockReference
 62
7
  6
CONTINUOUS
  2
_FILLED
 10
6.9479851824
 20
8.5420432873
 41
0.1875
 42
0.1875
 43
0.1875
 50
319.3805113539
  0
INSERT
  5
240
100
AcDbEntity
  8
SCHEME_DIMS
100
AcDbBlockReference
 62
7
  6
CONTINUOUS
  2
_FILLED
 10
6.2457145978
 20
9.1443764493
 41
0.1875
 42
0.1875
 43
0.1875
 50
139.3805113539
  0
ENDBLK
  5
241
100
AcDbEntity
  8
0
  6
BYBLOCK
 62
0
100
AcDbBlockEnd
  0
BLOCK
  5
242
100
AcDbEntity
  8
SCHEME_DIMS
100
AcDbBlockBegin
 62
7
  6
CONTINUOUS
  2
*D3
 70
65
 10
0.0
 20
0.0
  3
*D3
  1

  0
MTEXT
  5
243
100
AcDbEntity
  8
SCHEME_DIMS
100
AcDbMText
 62
7
  6
CONTINUOUS
  7
STANDARD
 71
2
 72
1
 10
7.9594483153
 20
5.6952164499
 30
0.0
 11
1.0
 21
0.0
 31
0.0
 73
2
 44
0.9
  1
35,7\P[1.41]
 40
0.1
 41
0.6
  0
LINE
  5
244
100
AcDbEntity
  8
SCHEME_DIMS
100
AcDbLine
 62
7
  6
CONTINUOUS
 10
6.8758853232
 20
6.1843344016
 11
8.1844483153
 21
6.1843344016
  0
LINE
  5
245
100
AcDbEntity
  8
SCHEME_DIMS
100
AcDbLine
 62
7
  6
CONTINUOUS
 10
6.8641941103
 20
4.7788225906
 11
8.1844483153
 21
4.7788225906
  0
LINE
  5
246
100
AcDbEntity
  8
SCHEME_DIMS
100
AcDbLine
 62
7
  6
CONTINUOUS
 10
8.0594483153
 20
6.1843344016
 11
8.0594483153
 21
5.7952164499
  0
LINE
  5
247
100
AcDbEntity
  8
SCHEME_DIMS
100
AcDbLine
 62
7
  6
CONTINUOUS
 10
8.0594483153
 20
4.7788225906
 11
8.0594483153
 21
5.3452164499
  0
INSERT
  5
248
100
AcDbEntity
  8
SCHEME_DIMS
100
AcDbBlockReference
 62
7
  6
CONTINUOUS
  2
_FILLED
 10
8.0594483153
 20
6.1843344016
 41
0.1875
 42
0.1875
 43
0.1875
 50
90.0
  0
INSERT
  5
249
100
AcDbEntity
  8
SCHEME_DIMS
100
AcDbBlockReference
 62
7
  6
CONTINUOUS
  2
_FILLED
 10
8.0594483153
 20
4.7788225906
 41
0.1875
 42
0.1875
 43
0.1875
 50
270.0
  0
ENDBLK
  5
24A
100
AcDbEntity
  8
0
  6
BYBLOCK
 62
0
100
AcDbBlockEnd
  0
BLOCK
  5
24B
100
AcDbEntity
  8
SCHEME_DIMS
100
AcDbBlockBegin
 62
7
  6
CONTINUOUS
  2
*D4
 70
65
 10
0.0
 20
0.0
  3
*D4
  1

  0
MTEXT
  5
24C
100
AcDbEntity
  8
SCHEME_DIMS
100
AcDbMText
 62
7
  6
CONTINUOUS
  7
TEXTSTYLE_6
 71
3
 72
1
 10
5.5568892602
 20
6.8315688921
 30
0.0
 11
1.0
 21
0.0
 31
0.0
 73
2
 44
0.9
  1
{\fgdt;n}\ftxt;16\P[.63]
 40
0.1
 41
0.5
  0
LINE
  5
24D
100
AcDbEntity
  8
SCHEME_DIMS
100
AcDbLine
 62
7
  6
CONTINUOUS
 10
6.91181052
 20
6.1484092047
 11
6.91181052
 21
6.9065688921
  0
LINE
  5
24E
100
AcDbEntity
  8
SCHEME_DIMS
100
AcDbLine
 62
7
  6
CONTINUOUS
 10
6.2818892602
 20
6.1484092047
 11
6.2818892602
 21
6.9065688921
  0
LINE
  5
24F
100
AcDbEntity
  8
SCHEME_DIMS
100
AcDbLine
 62
7
  6
CONTINUOUS
 10
6.91181052
 20
6.7815688921
 11
6.5968498901
 21
6.7815688921
  0
LINE
  5
250
100
AcDbEntity
  8
SCHEME_DIMS
100
AcDbLine
 62
7
  6
CONTINUOUS
 10
6.2818892602
 20
6.7815688921
 11
6.5968498901
 21
6.7815688921
  0
LINE
  5
251
100
AcDbEntity
  8
SCHEME_DIMS
100
AcDbLine
 62
7
  6
CONTINUOUS
 10
6.5968498901
 20
6.7815688921
 11
5.9568892602
 21
6.7815688921
  0
INSERT
  5
252
100
AcDbEntity
  8
SCHEME_DIMS
100
AcDbBlockReference
 62
7
  6
CONTINUOUS
  2
_FILLED
 10
6.91181052
 20
6.7815688921
 41
0.1875
 42
0.1875
 43
0.1875
  0
INSERT
  5
253
100
AcDbEntity
  8
SCHEME_DIMS
100
AcDbBlockReference
 62
7
  6
CONTINUOUS
  2
_FILLED
 10
6.2818892602
 20
6.7815688921
 41
0.1875
 42
0.1875
 43
0.1875
 50
180.0
  0
ENDBLK
  5
254
100
AcDbEntity
  8
0
  6
BYBLOCK
 62
0
100
AcDbBlockEnd
  0
BLOCK
  5
255
100
AcDbEntity
  8
SCHEME_DIMS
100
AcDbBlockBegin
 62
7
  6
CONTINUOUS
  2
*D5
 70
65
 10
0.0
 20
0.0
  3
*D5
  1

  0
MTEXT
  5
256
100
AcDbEntity
  8
SCHEME_DIMS
100
AcDbMText
 62
7
  6
CONTINUOUS
  7
STANDARD
 71
1
 72
1
 10
7.8094483153
 20
6.6843344016
 30
0.0
 11
1.0
 21
0.0
 31
0.0
 73
2
 44
0.9
  1
7,7\P[.30]
 40
0.1
 41
0.5
  0
LINE
  5
257
100
AcDbEntity
  8
SCHEME_DIMS
100
AcDbLine
 62
7
  6
CONTINUOUS
 10
7.1219483153
 20
5.8811847953
 11
7.6844483153
 21
5.8811847953
  0
LINE
  5
258
100
AcDbEntity
  8
SCHEME_DIMS
100
AcDbLine
 62
7
  6
CONTINUOUS
 10
6.8758853232
 20
6.1843344016
 11
7.6844483153
 21
6.1843344016
  0
LINE
  5
259
100
AcDbEntity
  8
SCHEME_DIMS
100
AcDbLine
 62
7
  6
CONTINUOUS
 10
7.5594483153
 20
5.8811847953
 11
7.5594483153
 21
5.4811847953
  0
LINE
  5
25A
100
AcDbEntity
  8
SCHEME_DIMS
100
AcDbLine
 62
7
  6
CONTINUOUS
 10
7.5594483153
 20
6.1843344016
 11
7.5594483153
 21
6.6343344016
  0
LINE
  5
25B
100
AcDbEntity
  8
SCHEME_DIMS
100
AcDbLine
 62
7
  6
CONTINUOUS
 10
7.5594483153
 20
6.6343344016
 11
7.7094483153
 21
6.6343344016
  0
INSERT
  5
25C
100
AcDbEntity
  8
SCHEME_DIMS
100
AcDbBlockReference
 62
7
  6
CONTINUOUS
  2
_FILLED
 10
7.5594483153
 20
5.8811847953
 41
0.1875
 42
0.1875
 43
0.1875
 50
90.0
  0
INSERT
  5
25D
100
AcDbEntity
  8
SCHEME_DIMS
100
AcDbBlockReference
 62
7
  6
CONTINUOUS
  2
_FILLED
 10
7.5594483153
 20
6.1843344016
 41
0.1875
 42
0.1875
 43
0.1875
 50
270.0
  0
ENDBLK
  5
25E
100
AcDbEntity
  8
0
  6
BYBLOCK
 62
0
100
AcDbBlockEnd
  0
BLOCK
  5
25F
100
AcDbEntity
  8
SCHEME_DIMS
100
AcDbBlockBegin
 62
7
  6
CONTINUOUS
  2
*D6
 70
65
 10
0.0
 20
0.0
  3
*D6
  1

  0
MTEXT
  5
260
100
AcDbEntity
  8
SCHEME_DIMS
100
AcDbMText
 62
7
  6
CONTINUOUS
  7
STANDARD
 71
2
 72
1
 10
8.4594483153
 20
5.2776414882
 30
0.0
 11
1.0
 21
0.0
 31
0.0
 73
2
 44
0.9
  1
48,6\P[1.91]
 40
0.1
 41
0.6
  0
LINE
  5
261
100
AcDbEntity
  8
SCHEME_DIMS
100
AcDbLine
 62
7
  6
CONTINUOUS
 10
6.7380900476
 20
4.2709485748
 11
8.6844483153
 21
4.2709485748
  0
LINE
  5
262
100
AcDbEntity
  8
SCHEME_DIMS
100
AcDbLine
 62
7
  6
CONTINUOUS
 10
6.8758853232
 20
6.1843344016
 11
8.6844483153
 21
6.1843344016
  0
LINE
  5
263
100
AcDbEntity
  8
SCHEME_DIMS
100
AcDbLine
 62
7
  6
CONTINUOUS
 10
8.5594483153
 20
4.2709485748
 11
8.5594483153
 21
4.9276414882
  0
LINE
  5
264
100
AcDbEntity
  8
SCHEME_DIMS
100
AcDbLine
 62
7
  6
CONTINUOUS
 10
8.5594483153
 20
6.1843344016
 11
8.5594483153
 21
5.3776414882
  0
INSERT
  5
265
100
AcDbEntity
  8
SCHEME_DIMS
100
AcDbBlockReference
 62
7
  6
CONTINUOUS
  2
_FILLED
 10
8.5594483153
 20
4.2709485748
 41
0.1875
 42
0.1875
 43
0.1875
 50
270.0
  0
INSERT
  5
266
100
AcDbEntity
  8
SCHEME_DIMS
100
AcDbBlockReference
 62
7
  6
CONTINUOUS
  2
_FILLED
 10
8.5594483153
 20
6.1843344016
 41
0.1875
 42
0.1875
 43
0.1875
 50
90.0
  0
ENDBLK
  5
267
100
AcDbEntity
  8
0
  6
BYBLOCK
 62
0
100
AcDbBlockEnd
  0
BLOCK
  5
268
100
AcDbEntity
  8
0
100
AcDbBlockBegin
  2
*T1
 70
1
 10
0.0
 20
0.0
  3
*T1
  1

  0
LINE
  5
269
100
AcDbEntity
  8
0
100
AcDbLine
 62
7
  6
CONTINUOUS
 10
4.35
 20
0.0
 11
0.0
 21
0.0
  0
LINE
  5
26A
100
AcDbEntity
  8
0
100
AcDbLine
 62
7
  6
CONTINUOUS
 10
4.35
 20
0.0
 11
4.35
 21
1.92
  0
LINE
  5
26B
100
AcDbEntity
  8
0
100
AcDbLine
 62
7
  6
CONTINUOUS
 10
4.35
 20
1.92
 11
0.0
 21
1.92
  0
LINE
  5
26C
100
AcDbEntity
  8
0
100
AcDbLine
 62
7
  6
CONTINUOUS
 10
0.0
 20
0.0
 11
0.0
 21
1.92
  0
MTEXT
  5
26D
100
AcDbEntity
  8
NOTES
100
AcDbMText
 62
7
  6
CONTINUOUS
  7
STANDARD
 71
2
 72
1
 10
4.125
 20
0.48
 30
0.0
 11
1.0
 21
0.0
 31
0.0
 73
2
 44
0.9
  1
B
 40
0.1
 41
0.2
  0
MTEXT
  5
26E
100
AcDbEntity
  8
NOTES
100
AcDbMText
 62
7
  6
CONTINUOUS
  7
STANDARD
 71
2
 72
1
 10
2.175
 20
1.08
 30
0.0
 11
1.0
 21
0.0
 31
0.0
 73
2
 44
0.9
  1
S18L PIGTAIL/CABLE\PWEB CAD DRAWINGS 2D/3D
 40
0.1
 41
4.4
  0
ENDBLK
  5
26F
100
AcDbEntity
  8
0
  6
BYBLOCK
 62
0
100
AcDbBlockEnd
  0
ENDSEC
  0
SECTION
  2
ENTITIES
  0
MTEXT
  5
270
100
AcDbEntity
  8
0
100
AcDbMText
 62
7
  6
CONTINUOUS
  7
TEXTSTYLE_2
 71
2
 72
1
 10
11.0287658475
 20
1.794867839
 30
0.0
 11
1.0
 21
0.0
 31
0.0
 73
2
 44
0.9
  1
\LTHIRD ANGLE PROJECTION\l
 40
0.1
 41
1.76
  0
MTEXT
  5
271
100
AcDbEntity
  8
0
100
AcDbMText
 62
7
  6
CONTINUOUS
  7
STANDARD
 71
1
 72
1
 10
12.88
 20
1.457
 30
0.0
 11
1.0
 21
0.0
 31
0.0
 73
2
 44
0.9
  1
DRAWING NO.
 40
0.08
 41
0.88
  0
MTEXT
  5
272
100
AcDbEntity
  8
0
100
AcDbMText
 62
7
  6
CONTINUOUS
  7
TEXTSTYLE_2
 71
1
 72
1
 10
12.08
 20
2.217
 30
0.0
 11
1.0
 21
0.0
 31
0.0
 73
2
 44
0.9
  1
TITLE
 40
0.1
 41
0.4
  0
MTEXT
  5
273
100
AcDbEntity
  8
0
100
AcDbMText
 62
7
  6
CONTINUOUS
  7
STANDARD
 71
1
 72
1
 10
12.08
 20
1.457
 30
0.0
 11
1.0
 21
0.0
 31
0.0
 73
2
 44
0.9
  1
SIZE
 40
0.08
 41
0.32
  0
MTEXT
  5
274
100
AcDbEntity
  8
0
100
AcDbMText
 62
7
  6
CONTINUOUS
  7
STANDARD
 71
1
 72
1
 10
12.08
 20
1.087
 30
0.0
 11
1.0
 21
0.0
 31
0.0
 73
2
 44
0.9
  1
SCALE
 40
0.08
 41
0.4
  0
MTEXT
  5
275
100
AcDbEntity
  8
0
100
AcDbMText
 62
7
  6
CONTINUOUS
  7
TEXTSTYLE_2
 71
2
 72
1
 10
12.5
 20
1.337
 30
0.0
 11
1.0
 21
0.0
 31
0.0
 73
2
 44
0.9
  1
B
 40
0.1
 41
0.08
  0
MTEXT
  5
276
100
AcDbEntity
  8
0
100
AcDbMText
 62
7
  6
CONTINUOUS
  7
TEXTSTYLE_3
 71
2
 72
1
 10
11.0340287086
 20
2.7679425959
 30
0.0
 11
1.0
 21
0.0
 31
0.0
 73
2
 44
0.9
  1
This drawing is the property\Pof BANNER ENGINEERING CORP.\PAny use or reproduction,\Pin any form, without prior\Pwritten permission of\PBanner is prohibited.
 40
0.08
 41
1.904
  0
MTEXT
  5
277
100
AcDbEntity
  8
0
100
AcDbMText
 62
7
  6
CONTINUOUS
  7
STANDARD
 71
1
 72
1
 10
14.255
 20
1.087
 30
0.0
 11
1.0
 21
0.0
 31
0.0
 73
2
 44
0.9
  1
SHEET
 40
0.08
 41
0.4
  0
MTEXT
  5
278
100
AcDbEntity
  8
0
100
AcDbMText
 62
7
  6
CONTINUOUS
  7
STANDARD
 71
1
 72
1
 10
15.63
 20
1.457
 30
0.0
 11
1.0
 21
0.0
 31
0.0
 73
2
 44
0.9
  1
REV.
 40
0.08
 41
0.32
  0
MTEXT
  5
279
100
AcDbEntity
  8
0
100
AcDbMText
 62
7
  6
CONTINUOUS
  7
STANDARD
 71
3
 72
1
 10
16.38
 20
0.835443
 30
0.0
 11
1.0
 21
0.0
 31
0.0
 73
2
 44
0.9
  1
CREO
 40
0.07
 41
0.28
  0
MTEXT
  5
27A
100
AcDbEntity
  8
0
100
AcDbMText
 62
7
  6
CONTINUOUS
  7
TEXTSTYLE_4
 71
2
 72
1
 10
15.1043392653
 20
2.7174764286
 30
0.0
 11
1.0
 21
0.0
 31
0.0
 73
2
 44
0.9
  1
BANNER ENGINEERING CORP.
 40
0.12
 41
2.592
  0
MTEXT
  5
27B
100
AcDbEntity
  8
0
100
AcDbMText
 62
7
  6
CONTINUOUS
  7
TEXTSTYLE_2
 71
2
 72
1
 10
15.0923490612
 20
2.4764783673
 30
0.0
 11
1.0
 21
0.0
 31
0.0
 73
2
 44
0.9
  1
www.bannerengineering.com
 40
0.1
 41
2.0
  0
MTEXT
  5
27C
100
AcDbEntity
  8
0
100
AcDbMText
 62
7
  6
CONTINUOUS
  7
TEXTSTYLE_2
 71
2
 72
1
 10
9.485
 20
10.312
 30
0.0
 11
1.0
 21
0.0
 31
0.0
 73
2
 44
0.9
  1
4
 40
0.1
 41
0.08
  0
MTEXT
  5
27D
100
AcDbEntity
  8
0
100
AcDbMText
 62
7
  6
CONTINUOUS
  7
TEXTSTYLE_2
 71
2
 72
1
 10
11.455
 20
10.312
 30
0.0
 11
1.0
 21
0.0
 31
0.0
 73
2
 44
0.9
  1
3
 40
0.1
 41
0.08
  0
MTEXT
  5
27E
100
AcDbEntity
  8
0
100
AcDbMText
 62
7
  6
CONTINUOUS
  7
TEXTSTYLE_2
 71
2
 72
1
 10
13.425
 20
10.312
 30
0.0
 11
1.0
 21
0.0
 31
0.0
 73
2
 44
0.9
  1
2
 40
0.1
 41
0.08
  0
MTEXT
  5
27F
100
AcDbEntity
  8
0
100
AcDbMText
 62
7
  6
CONTINUOUS
  7
TEXTSTYLE_2
 71
2
 72
1
 10
15.395
 20
10.312
 30
0.0
 11
1.0
 21
0.0
 31
0.0
 73
2
 44
0.9
  1
1
 40
0.1
 41
0.08
  0
MTEXT
  5
280
100
AcDbEntity
  8
0
100
AcDbMText
 62
7
  6
CONTINUOUS
  7
TEXTSTYLE_2
 71
2
 72
1
 10
3.575
 20
10.312
 30
0.0
 11
1.0
 21
0.0
 31
0.0
 73
2
 44
0.9
  1
7
 40
0.1
 41
0.08
  0
MTEXT
  5
281
100
AcDbEntity
  8
0
100
AcDbMText
 62
7
  6
CONTINUOUS
  7
TEXTSTYLE_2
 71
2
 72
1
 10
5.545
 20
10.312
 30
0.0
 11
1.0
 21
0.0
 31
0.0
 73
2
 44
0.9
  1
6
 40
0.1
 41
0.08
  0
MTEXT
  5
282
100
AcDbEntity
  8
0
100
AcDbMText
 62
7
  6
CONTINUOUS
  7
TEXTSTYLE_2
 71
2
 72
1
 10
7.515
 20
10.312
 30
0.0
 11
1.0
 21
0.0
 31
0.0
 73
2
 44
0.9
  1
5
 40
0.1
 41
0.08
  0
MTEXT
  5
283
100
AcDbEntity
  8
0
100
AcDbMText
 62
7
  6
CONTINUOUS
  7
TEXTSTYLE_2
 71
2
 72
1
 10
1.605
 20
10.312
 30
0.0
 11
1.0
 21
0.0
 31
0.0
 73
2
 44
0.9
  1
8
 40
0.1
 41
0.08
  0
MTEXT
  5
284
100
AcDbEntity
  8
0
100
AcDbMText
 62
7
  6
CONTINUOUS
  7
TEXTSTYLE_2
 71
2
 72
1
 10
1.605
 20
0.787
 30
0.0
 11
1.0
 21
0.0
 31
0.0
 73
2
 44
0.9
  1
8
 40
0.1
 41
0.08
  0
MTEXT
  5
285
100
AcDbEntity
  8
0
100
AcDbMText
 62
7
  6
CONTINUOUS
  7
TEXTSTYLE_2
 71
2
 72
1
 10
3.575
 20
0.787
 30
0.0
 11
1.0
 21
0.0
 31
0.0
 73
2
 44
0.9
  1
7
 40
0.1
 41
0.08
  0
MTEXT
  5
286
100
AcDbEntity
  8
0
100
AcDbMText
 62
7
  6
CONTINUOUS
  7
TEXTSTYLE_2
 71
2
 72
1
 10
5.545
 20
0.787
 30
0.0
 11
1.0
 21
0.0
 31
0.0
 73
2
 44
0.9
  1
6
 40
0.1
 41
0.08
  0
MTEXT
  5
287
100
AcDbEntity
  8
0
100
AcDbMText
 62
7
  6
CONTINUOUS
  7
TEXTSTYLE_2
 71
2
 72
1
 10
7.515
 20
0.787
 30
0.0
 11
1.0
 21
0.0
 31
0.0
 73
2
 44
0.9
  1
5
 40
0.1
 41
0.08
  0
MTEXT
  5
288
100
AcDbEntity
  8
0
100
AcDbMText
 62
7
  6
CONTINUOUS
  7
TEXTSTYLE_2
 71
2
 72
1
 10
9.485
 20
0.787
 30
0.0
 11
1.0
 21
0.0
 31
0.0
 73
2
 44
0.9
  1
4
 40
0.1
 41
0.08
  0
MTEXT
  5
289
100
AcDbEntity
  8
0
100
AcDbMText
 62
7
  6
CONTINUOUS
  7
TEXTSTYLE_2
 71
2
 72
1
 10
11.455
 20
0.787
 30
0.0
 11
1.0
 21
0.0
 31
0.0
 73
2
 44
0.9
  1
3
 40
0.1
 41
0.08
  0
MTEXT
  5
28A
100
AcDbEntity
  8
0
100
AcDbMText
 62
7
  6
CONTINUOUS
  7
TEXTSTYLE_2
 71
2
 72
1
 10
13.425
 20
0.787
 30
0.0
 11
1.0
 21
0.0
 31
0.0
 73
2
 44
0.9
  1
2
 40
0.1
 41
0.08
  0
MTEXT
  5
28B
100
AcDbEntity
  8
0
100
AcDbMText
 62
7
  6
CONTINUOUS
  7
TEXTSTYLE_2
 71
2
 72
1
 10
15.395
 20
0.787
 30
0.0
 11
1.0
 21
0.0
 31
0.0
 73
2
 44
0.9
  1
1
 40
0.1
 41
0.08
  0
MTEXT
  5
28C
100
AcDbEntity
  8
0
100
AcDbMText
 62
7
  6
CONTINUOUS
  7
TEXTSTYLE_2
 71
3
 72
1
 10
0.52
 20
4.3995
 30
0.0
 11
1.0
 21
0.0
 31
0.0
 73
2
 44
0.9
  1
B
 40
0.1
 41
0.08
  0
MTEXT
  5
28D
100
AcDbEntity
  8
0
100
AcDbMText
 62
7
  6
CONTINUOUS
  7
TEXTSTYLE_2
 71
3
 72
1
 10
0.52
 20
2.0995
 30
0.0
 11
1.0
 21
0.0
 31
0.0
 73
2
 44
0.9
  1
A
 40
0.1
 41
0.08
  0
MTEXT
  5
28E
100
AcDbEntity
  8
0
100
AcDbMText
 62
7
  6
CONTINUOUS
  7
TEXTSTYLE_2
 71
3
 72
1
 10
0.52
 20
8.9995
 30
0.0
 11
1.0
 21
0.0
 31
0.0
 73
2
 44
0.9
  1
D
 40
0.1
 41
0.08
  0
MTEXT
  5
28F
100
AcDbEntity
  8
0
100
AcDbMText
 62
7
  6
CONTINUOUS
  7
TEXTSTYLE_2
 71
3
 72
1
 10
0.52
 20
6.6995
 30
0.0
 11
1.0
 21
0.0
 31
0.0
 73
2
 44
0.9
  1
C
 40
0.1
 41
0.08
  0
MTEXT
  5
290
100
AcDbEntity
  8
0
100
AcDbMText
 62
7
  6
CONTINUOUS
  7
TEXTSTYLE_2
 71
1
 72
1
 10
16.48
 20
8.9995
 30
0.0
 11
1.0
 21
0.0
 31
0.0
 73
2
 44
0.9
  1
D
 40
0.1
 41
0.08
  0
MTEXT
  5
291
100
AcDbEntity
  8
0
100
AcDbMText
 62
7
  6
CONTINUOUS
  7
TEXTSTYLE_2
 71
1
 72
1
 10
16.48
 20
6.6995
 30
0.0
 11
1.0
 21
0.0
 31
0.0
 73
2
 44
0.9
  1
C
 40
0.1
 41
0.08
  0
MTEXT
  5
292
100
AcDbEntity
  8
0
100
AcDbMText
 62
7
  6
CONTINUOUS
  7
TEXTSTYLE_2
 71
1
 72
1
 10
16.48
 20
4.3995
 30
0.0
 11
1.0
 21
0.0
 31
0.0
 73
2
 44
0.9
  1
B
 40
0.1
 41
0.08
  0
MTEXT
  5
293
100
AcDbEntity
  8
0
100
AcDbMText
 62
7
  6
CONTINUOUS
  7
TEXTSTYLE_2
 71
1
 72
1
 10
16.48
 20
2.0995
 30
0.0
 11
1.0
 21
0.0
 31
0.0
 73
2
 44
0.9
  1
A
 40
0.1
 41
0.08
  0
MTEXT
  5
294
100
AcDbEntity
  8
0
100
AcDbMText
 62
7
  6
CONTINUOUS
  7
STANDARD
 71
1
 72
1
 10
14.819264911
 20
1.0627941725
 30
0.0
 11
1.0
 21
0.0
 31
0.0
 73
2
 44
0.9
  1
1 OF 1
 40
0.1
 41
0.6
  0
MTEXT
  5
295
100
AcDbEntity
  8
0
100
AcDbMText
 62
7
  6
CONTINUOUS
  7
STANDARD
 71
1
 72
1
 10
13.8911999818
 20
1.3747321586
 30
0.0
 11
1.0
 21
0.0
 31
0.0
 73
2
 44
0.9
  1
161756
 40
0.12
 41
0.72
  0
MTEXT
  5
296
100
AcDbEntity
  8
0
100
AcDbMText
 62
7
  6
CONTINUOUS
  7
STANDARD
 71
1
 72
1
 10
12.644264911
 20
1.0627941725
 30
0.0
 11
1.0
 21
0.0
 31
0.0
 73
2
 44
0.9
  1
1:1
 40
0.1
 41
0.3
  0
MTEXT
  5
297
100
AcDbEntity
  8
0
100
AcDbMText
 62
7
  6
CONTINUOUS
  7
STANDARD
 71
1
 72
1
 10
0.8489354566
 20
1.4938330621
 30
0.0
 11
1.0
 21
0.0
 31
0.0
 73
2
 44
0.9
  1
NOTES:\P1. ALL DIMENSIONS ARE MILLIMETERS [INCHES] UNLESS OTHERWISE NOTED.\P2. REFER TO "www.bannerengineering.com" FOR ADDITIONAL DATA AND SPECIFICATIONS.
 40
0.1
 41
7.9
  0
MTEXT
  5
298
100
AcDbEntity
  8
0
100
AcDbMText
 62
7
  6
CONTINUOUS
  7
TEXTSTYLE_5
 71
2
 72
1
 10
11.0519651892
 20
2.0334024775
 30
0.0
 11
1.0
 21
0.0
 31
0.0
 73
2
 44
0.9
  1
C  2015 Banner Engineering Corp.
 40
0.08
 41
1.92
  0
DIMENSION
  5
299
100
AcDbEntity
  8
DRIVEN_DIMS
100
AcDbDimension
 62
7
  6
CONTINUOUS
  2
*D0
 10
12.1274982601
 20
5.324106811
 11
12.1274982601
 21
5.6388062954
 70
160
 71
2
 72
2
 41
0.9
 42
0.6312841644
  1
 %%c16\P[.63]\P[]
  3
DIMSTYLE_1
100
AcDbAlignedDimension
 13
12.7143133572
 23
5.9553909754
 14
12.7175127659
 24
5.324106811
 50
270.0
100
AcDbRotatedDimension
  0
DIMENSION
  5
29A
100
AcDbEntity
  8
DRIVEN_DIMS
100
AcDbDimension
 62
7
  6
CONTINUOUS
  2
*D1
 10
13.3029983997
 20
5.4456443868
 11
13.5268165132
 21
4.9525031051
 70
163
 71
3
 72
2
 41
0.9
 42
0.7944855496
  1
 %%c18.2\P[.72]\P[]
  3
DIMSTYLE_2
100
AcDbDiametricDimension
 15
12.6111913414
 25
5.8362980475
  0
DIMENSION
  5
29B
100
AcDbEntity
  8
SCHEME_DIMS
100
AcDbDimension
 62
7
  6
CONTINUOUS
  2
*D2
 10
6.9479851824
 20
8.5420432873
 11
7.7530433832
 21
8.2625763343
 70
163
 71
1
 72
2
 41
0.9
 42
23.5
  1
%%c<>\P[]
  3
DIMSTYLE_3
100
AcDbDiametricDimension
 15
6.2457145978
 25
9.1443764493
  0
DIMENSION
  5
29C
100
AcDbEntity
  8
SCHEME_DIMS
100
AcDbDimension
 62
7
  6
CONTINUOUS
  2
*D3
 10
8.0594483153
 20
4.7788225906
 11
8.0594483153
 21
5.5702164499
 70
160
 71
2
 72
2
 41
0.9
 42
35.7
  1
<>\P[]
  3
DIMSTYLE_4
100
AcDbAlignedDimension
 13
6.8133853232
 23
6.1843344016
 14
6.8016941103
 24
4.7788225906
 50
270.0
100
AcDbRotatedDimension
  0
DIMENSION
  5
29D
100
AcDbEntity
  8
SCHEME_DIMS
100
AcDbDimension
 62
7
  6
CONTINUOUS
  2
*D4
 10
6.2818892602
 20
6.7815688921
 11
5.5402225935
 21
6.7065688921
 70
160
 71
3
 72
2
 41
0.9
 42
16.0
  1
%%c<>\P[]
  3
DIMSTYLE_4
100
AcDbAlignedDimension
 13
6.91181052
 23
6.0859092047
 14
6.2818892602
 24
6.0859092047
 50
180.0
100
AcDbRotatedDimension
  0
DIMENSION
  5
29E
100
AcDbEntity
  8
SCHEME_DIMS
100
AcDbDimension
 62
7
  6
CONTINUOUS
  2
*D5
 10
7.5594483153
 20
6.1843344016
 11
8.0594483153
 21
6.5593344016
 70
160
 71
1
 72
2
 41
0.9
 42
7.7
  1
<>\P[]
  3
DIMSTYLE_4
100
AcDbAlignedDimension
 13
7.0594483153
 23
5.8811847953
 14
6.8133853232
 24
6.1843344016
 50
90.0
100
AcDbRotatedDimension
  0
DIMENSION
  5
29F
100
AcDbEntity
  8
SCHEME_DIMS
100
AcDbDimension
 62
7
  6
CONTINUOUS
  2
*D6
 10
8.5594483153
 20
6.1843344016
 11
8.5594483153
 21
5.1526414882
 70
160
 71
2
 72
2
 41
0.9
 42
48.6
  1
<>\P[]
  3
DIMSTYLE_4
100
AcDbAlignedDimension
 13
6.6755900476
 23
4.2709485748
 14
6.8133853232
 24
6.1843344016
 50
90.0
100
AcDbRotatedDimension
  0
ACAD_TABLE
  5
2A0
100
AcDbEntity
  8
0
 62
7
  6
CONTINUOUS
100
AcDbBlockReference
  2
*T1
 10
12.03
 20
0.887
 30
0.0
100
AcDbTable
342
       5E8
343
221
 11
1.0
 21
0.0
 31
0.0
 90
6
 91
3
 92
5
 93
4
 94
0
 95
0
 96
0
 70
1
141
0.33
141
0.45
141
1.14
142
0.65
142
1.15
142
1.025
142
1.075
142
0.45
171
1
172
0
173
0
174
0
175
1
176
1
 91
33
178
0
145
0.0
301
CELL_VALUE
 90
4
  1
 
304
ACVALUE_END
170
1
140
0.1
171
1
172
0
173
0
174
0
175
1
176
1
 91
33
178
0
145
0.0
301
CELL_VALUE
 90
4
  1
 
304
ACVALUE_END
170
1
140
0.1
171
1
172
0
173
0
174
0
175
1
176
1
 91
33
178
0
145
0.0
301
CELL_VALUE
 90
4
  1
 
304
ACVALUE_END
170
1
140
0.1
171
1
172
0
173
0
174
0
175
1
176
1
 91
33
178
0
145
0.0
301
CELL_VALUE
 90
4
  1
 
304
ACVALUE_END
170
1
140
0.1
171
1
172
0
173
0
174
0
175
1
176
1
 91
33
178
0
145
0.0
301
CELL_VALUE
 90
4
  1
 
304
ACVALUE_END
170
1
140
0.1
171
1
172
0
173
0
174
0
175
1
176
1
 91
33
178
0
145
0.0
301
CELL_VALUE
 90
4
  1
 
304
ACVALUE_END
170
1
140
0.1
171
1
172
0
173
0
174
0
175
1
176
1
 91
33
178
0
145
0.0
301
CELL_VALUE
 90
4
  1
 
304
ACVALUE_END
170
1
140
0.1
171
1
172
0
173
0
174
0
175
1
176
1
 91
33
178
0
145
0.0
301
CELL_VALUE
 90
4
  1
 
304
ACVALUE_END
170
1
140
0.1
171
1
172
0
173
0
174
0
175
1
176
1
 91
33
178
0
145
0.0
301
CELL_VALUE
 90
4
  1
 
304
ACVALUE_END
170
1
140
0.1
171
1
172
0
173
0
174
0
175
1
176
1
 91
41
178
0
145
0.0
301
CELL_VALUE
 90
4
  1
B
304
ACVALUE_END
170
8
140
0.1
 64
7
171
1
172
0
173
0
174
0
175
5
176
1
 91
33
178
0
145
0.0
301
CELL_VALUE
 90
4
  1
S18L PIGTAIL/CABLE\PWEB CAD DRAWINGS 2D/3D
304
ACVALUE_END
170
8
140
0.1
171
1
172
0
173
1
174
0
175
1
176
1
 91
1
178
0
145
0.0
170
1
171
1
172
0
173
1
174
0
175
1
176
1
 91
1
178
0
145
0.0
170
1
171
1
172
0
173
1
174
0
175
1
176
1
 91
1
178
0
145
0.0
170
1
171
1
172
0
173
1
174
0
175
1
176
1
 91
1
178
0
145
0.0
170
8
  0
MTEXT
  5
2A1
100
AcDbEntity
  8
NOTES
100
AcDbMText
 62
7
  6
CONTINUOUS
  7
STANDARD
 71
1
 72
1
 10
11.7990169193
 20
4.6229052524
 30
0.0
 11
1.0
 21
0.0
 31
0.0
 73
2
 44
0.9
  1
SUGGESTED PANEL CUTOUT
 40
0.1
 41
2.2
  0
LEADER
  5
2A2
100
AcDbEntity
  8
NOTES
100
AcDbLeader
 62
7
  6
CONTINUOUS
  3
STANDARD
 71
1
 72
0
 73
0
 75
0
 40
0.1
 41
0.7
 76
3
 10
6.2949425513
 20
5.4159122117
 30
0.0
 10
5.9128659427
 20
5.0428849508
 30
0.0
 10
5.6628659427
 20
5.0428849508
 30
0.0
340
2A3
1001
ACAD
1000
DSTYLE
1002
{
1070
77
1070
0
1002
}
  0
MTEXT
  5
2A3
102
{ACAD_REACTORS
330
2A2
102
}
100
AcDbEntity
  8
NOTES
100
AcDbMText
 62
7
  6
CONTINUOUS
  7
STANDARD
 71
3
 72
1
 10
5.6628659427
 20
5.0928849508
 30
0.0
 11
1.0
 21
0.0
 31
0.0
 73
2
 44
0.9
  1
M18 X 1
 40
0.1
 41
0.7
  0
MTEXT
  5
2A4
100
AcDbEntity
  8
NOTES
100
AcDbMText
 62
7
  6
CONTINUOUS
  7
STANDARD
 71
2
 72
1
 10
2.3969818581
 20
4.3882927643
 30
0.0
 11
1.0
 21
0.0
 31
0.0
 73
2
 44
0.9
  1
\LISOMETRIC VIEW\P\H0.1;\lSCALE  1:1
 40
0.125
 41
1.75
  0
LINE
  5
2A5
100
AcDbEntity
  8
0
100
AcDbLine
 62
7
  6
CONTINUOUS
 10
0.47
 20
5.586103
 11
0.47
 21
5.412897
  0
LINE
  5
2A6
100
AcDbEntity
  8
0
100
AcDbLine
 62
7
  6
CONTINUOUS
 10
0.62
 20
10.112
 11
0.62
 21
0.887
  0
LINE
  5
2A7
100
AcDbEntity
  8
0
100
AcDbLine
 62
7
  6
CONTINUOUS
 10
2.59
 20
0.887
 11
2.59
 21
0.637
  0
LINE
  5
2A8
100
AcDbEntity
  8
0
100
AcDbLine
 62
7
  6
CONTINUOUS
 10
2.59
 20
10.112
 11
2.59
 21
10.362
  0
LINE
  5
2A9
100
AcDbEntity
  8
0
100
AcDbLine
 62
7
  6
CONTINUOUS
 10
8.413397
 20
0.737
 11
8.586603
 21
0.737
  0
LINE
  5
2AA
100
AcDbEntity
  8
0
100
AcDbLine
 62
7
  6
CONTINUOUS
 10
11.1389508475
 20
1.425992839
 11
11.7453418475
 21
1.495385839
  0
LINE
  5
2AB
100
AcDbEntity
  8
0
100
AcDbLine
 62
7
  6
CONTINUOUS
 10
0.62
 20
0.887
 11
16.38
 21
0.887
  0
LINE
  5
2AC
100
AcDbEntity
  8
0
100
AcDbLine
 62
7
  6
CONTINUOUS
 10
12.03
 20
1.137
 11
16.38
 21
1.137
  0
LINE
  5
2AD
100
AcDbEntity
  8
0
100
AcDbLine
 62
7
  6
CONTINUOUS
 10
10.2121898475
 20
1.243294839
 11
10.4342808475
 21
1.243294839
  0
LINE
  5
2AE
100
AcDbEntity
  8
0
100
AcDbLine
 62
7
  6
CONTINUOUS
 10
10.4842808475
 20
1.243294839
 11
10.5842808475
 21
1.243294839
  0
LINE
  5
2AF
100
AcDbEntity
  8
0
100
AcDbLine
 62
7
  6
CONTINUOUS
 10
10.6342808475
 20
1.243294839
 11
10.8563718475
 21
1.243294839
  0
LINE
  5
2B0
100
AcDbEntity
  8
0
100
AcDbLine
 62
7
  6
CONTINUOUS
 10
11.0389508475
 20
1.243294839
 11
11.3171028475
 21
1.243294839
  0
LINE
  5
2B1
100
AcDbEntity
  8
0
100
AcDbLine
 62
7
  6
CONTINUOUS
 10
11.3671028475
 20
1.243294839
 11
11.5171888475
 21
1.243294839
  0
LINE
  5
2B2
100
AcDbEntity
  8
0
100
AcDbLine
 62
7
  6
CONTINUOUS
 10
11.5671888475
 20
1.243294839
 11
11.8453418475
 21
1.243294839
  0
LINE
  5
2B3
100
AcDbEntity
  8
0
100
AcDbLine
 62
7
  6
CONTINUOUS
 10
11.7453418475
 20
0.991203839
 11
11.1389508475
 21
1.060596839
  0
LINE
  5
2B4
100
AcDbEntity
  8
0
100
AcDbLine
 62
7
  6
CONTINUOUS
 10
4.56
 20
0.887
 11
4.56
 21
0.637
  0
LINE
  5
2B5
100
AcDbEntity
  8
0
100
AcDbLine
 62
7
  6
CONTINUOUS
 10
4.56
 20
10.112
 11
4.56
 21
10.362
  0
LINE
  5
2B6
100
AcDbEntity
  8
0
100
AcDbLine
 62
7
  6
CONTINUOUS
 10
0.47
 20
5.412897
 11
0.62
 21
5.4995
  0
LINE
  5
2B7
100
AcDbEntity
  8
0
100
AcDbLine
 62
7
  6
CONTINUOUS
 10
12.03
 20
1.507
 11
16.38
 21
1.507
  0
LINE
  5
2B8
100
AcDbEntity
  8
0
100
AcDbLine
 62
7
  6
CONTINUOUS
 10
10.03
 20
1.907
 11
12.03
 21
1.907
  0
LINE
  5
2B9
100
AcDbEntity
  8
0
100
AcDbLine
 62
7
  6
CONTINUOUS
 10
0.62
 20
5.4995
 11
0.47
 21
5.586103
  0
LINE
  5
2BA
100
AcDbEntity
  8
0
100
AcDbLine
 62
7
  6
CONTINUOUS
 10
12.03
 20
2.267
 11
16.38
 21
2.267
  0
LINE
  5
2BB
100
AcDbEntity
  8
0
100
AcDbLine
 62
7
  6
CONTINUOUS
 10
13.6042588488
 20
2.4912273132
 11
13.5568948225
 21
2.4912273132
  0
LINE
  5
2BC
100
AcDbEntity
  8
0
100
AcDbLine
 62
7
  6
CONTINUOUS
 10
13.5130037982
 20
2.4912273132
 11
13.3994327352
 21
2.4912273132
  0
LINE
  5
2BD
100
AcDbEntity
  8
0
100
AcDbLine
 62
7
  6
CONTINUOUS
 10
13.3705287192
 20
2.4912273132
 11
13.1673166065
 21
2.4912273132
  0
LINE
  5
2BE
100
AcDbEntity
  8
0
100
AcDbLine
 62
7
  6
CONTINUOUS
 10
13.1168435785
 20
2.4912273132
 11
13.0426375373
 21
2.4912273132
  0
LINE
  5
2BF
100
AcDbEntity
  8
0
100
AcDbLine
 62
7
  6
CONTINUOUS
 10
12.9962575116
 20
2.4912273132
 11
12.9205934696
 21
2.4912273132
  0
LINE
  5
2C0
100
AcDbEntity
  8
0
100
AcDbLine
 62
7
  6
CONTINUOUS
 10
12.8685904408
 20
2.4912273132
 11
12.7943853997
 21
2.4912273132
  0
LINE
  5
2C1
100
AcDbEntity
  8
0
100
AcDbLine
 62
7
  6
CONTINUOUS
 10
12.7480043739
 20
2.4912273132
 11
12.672340332
 21
2.4912273132
  0
LINE
  5
2C2
100
AcDbEntity
  8
0
100
AcDbLine
 62
7
  6
CONTINUOUS
 10
12.2055050731
 20
2.4912273132
 11
12.3819511709
 21
2.4912273132
  0
LINE
  5
2C3
100
AcDbEntity
  8
0
100
AcDbLine
 62
7
  6
CONTINUOUS
 10
12.4394882028
 20
2.4912273132
 11
12.5168642458
 21
2.4912273132
  0
LINE
  5
2C4
100
AcDbEntity
  8
0
100
AcDbLine
 62
7
  6
CONTINUOUS
 10
12.537150257
 20
2.4912273132
 11
12.6424313154
 21
2.4912273132
  0
LINE
  5
2C5
100
AcDbEntity
  8
0
100
AcDbLine
 62
7
  6
CONTINUOUS
 10
13.4883447845
 20
2.5159553269
 11
13.5130037982
 21
2.5159553269
  0
LINE
  5
2C6
100
AcDbEntity
  8
0
100
AcDbLine
 62
7
  6
CONTINUOUS
 10
12.6424313154
 20
2.515977327
 11
12.6224153043
 21
2.515977327
  0
LINE
  5
2C7
100
AcDbEntity
  8
0
100
AcDbLine
 62
7
  6
CONTINUOUS
 10
12.551601265
 20
2.515977327
 11
12.537150257
 21
2.515977327
  0
LINE
  5
2C8
100
AcDbEntity
  8
0
100
AcDbLine
 62
7
  6
CONTINUOUS
 10
12.5168642458
 20
2.515977327
 11
12.5055812395
 21
2.515977327
  0
LINE
  5
2C9
100
AcDbEntity
  8
0
100
AcDbLine
 62
7
  6
CONTINUOUS
 10
12.4623492155
 20
2.515977327
 11
12.4394882028
 21
2.515977327
  0
LINE
  5
2CA
100
AcDbEntity
  8
0
100
AcDbLine
 62
7
  6
CONTINUOUS
 10
12.3362731456
 20
2.515977327
 11
12.2949101227
 21
2.515977327
  0
LINE
  5
2CB
100
AcDbEntity
  8
0
100
AcDbLine
 62
7
  6
CONTINUOUS
 10
12.2294470864
 20
2.515977327
 11
12.2055050731
 21
2.515977327
  0
LINE
  5
2CC
100
AcDbEntity
  8
0
100
AcDbLine
 62
7
  6
CONTINUOUS
 10
12.672340332
 20
2.515977327
 11
12.6909873423
 21
2.515977327
  0
LINE
  5
2CD
100
AcDbEntity
  8
0
100
AcDbLine
 62
7
  6
CONTINUOUS
 10
12.7276873627
 20
2.515977327
 11
12.7480043739
 21
2.515977327
  0
LINE
  5
2CE
100
AcDbEntity
  8
0
100
AcDbLine
 62
7
  6
CONTINUOUS
 10
12.9205934696
 20
2.515977327
 11
12.93923948
 21
2.515977327
  0
LINE
  5
2CF
100
AcDbEntity
  8
0
100
AcDbLine
 62
7
  6
CONTINUOUS
 10
12.9759405003
 20
2.515977327
 11
12.9962575116
 21
2.515977327
  0
LINE
  5
2D0
100
AcDbEntity
  8
0
100
AcDbLine
 62
7
  6
CONTINUOUS
 10
13.1673166065
 20
2.515977327
 11
13.1912396197
 21
2.515977327
  0
LINE
  5
2D1
100
AcDbEntity
  8
0
100
AcDbLine
 62
7
  6
CONTINUOUS
 10
13.2582556569
 20
2.515977327
 11
13.3232596929
 21
2.515977327
  0
LINE
  5
2D2
100
AcDbEntity
  8
0
100
AcDbLine
 62
7
  6
CONTINUOUS
 10
13.3994327352
 20
2.515977327
 11
13.4221787478
 21
2.515977327
  0
LINE
  5
2D3
100
AcDbEntity
  8
0
100
AcDbLine
 62
7
  6
CONTINUOUS
 10
13.6052818493
 20
2.5163643272
 11
13.60639085
 21
2.5163643272
  0
LINE
  5
2D4
100
AcDbEntity
  8
0
100
AcDbLine
 62
7
  6
CONTINUOUS
 10
13.3282096957
 20
2.5291773343
 11
13.3705287192
 21
2.5291773343
  0
LINE
  5
2D5
100
AcDbEntity
  8
0
100
AcDbLine
 62
7
  6
CONTINUOUS
 10
12.5110972426
 20
2.5296213345
 11
12.5459752619
 21
2.5296213345
  0
LINE
  5
2D6
100
AcDbEntity
  8
0
100
AcDbLine
 62
7
  6
CONTINUOUS
 10
13.6171458559
 20
2.5301143348
 11
13.6292558626
 21
2.5301143348
  0
LINE
  5
2D7
100
AcDbEntity
  8
0
100
AcDbLine
 62
7
  6
CONTINUOUS
 10
13.5159517998
 20
2.5306043351
 11
13.4883447845
 21
2.5306043351
  0
LINE
  5
2D8
100
AcDbEntity
  8
0
100
AcDbLine
 62
7
  6
CONTINUOUS
 10
13.2934226764
 20
2.5324773361
 11
13.2582556569
 21
2.5324773361
  0
LINE
  5
2D9
100
AcDbEntity
  8
0
100
AcDbLine
 62
7
  6
CONTINUOUS
 10
12.2949101227
 20
2.5333023366
 11
12.3362731456
 21
2.5333023366
  0
LINE
  5
2DA
100
AcDbEntity
  8
0
100
AcDbLine
 62
7
  6
CONTINUOUS
 10
13.5222818033
 20
2.5496073456
 11
13.4883447845
 21
2.5496073456
  0
LINE
  5
2DB
100
AcDbEntity
  8
0
100
AcDbLine
 62
7
  6
CONTINUOUS
 10
12.2949101227
 20
2.5499573458
 11
12.3362731456
 21
2.5499573458
  0
LINE
  5
2DC
100
AcDbEntity
  8
0
100
AcDbLine
 62
7
  6
CONTINUOUS
 10
12.5196132473
 20
2.5505713461
 11
12.5401702587
 21
2.5505713461
  0
LINE
  5
2DD
100
AcDbEntity
  8
0
100
AcDbLine
 62
7
  6
CONTINUOUS
 10
13.2582556569
 20
2.5507823463
 11
13.2934226764
 21
2.5507823463
  0
LINE
  5
2DE
100
AcDbEntity
  8
0
100
AcDbLine
 62
7
  6
CONTINUOUS
 10
13.3691097184
 20
2.5540823481
 11
13.3272456952
 21
2.5540823481
  0
LINE
  5
2DF
100
AcDbEntity
  8
0
100
AcDbLine
 62
7
  6
CONTINUOUS
 10
12.5329112547
 20
2.5667383551
 11
12.5267302512
 21
2.5667383551
  0
LINE
  5
2E0
100
AcDbEntity
  8
0
100
AcDbLine
 62
7
  6
CONTINUOUS
 10
13.4221787478
 20
2.5672823554
 11
13.3994327352
 21
2.5672823554
  0
LINE
  5
2E1
100
AcDbEntity
  8
0
100
AcDbLine
 62
7
  6
CONTINUOUS
 10
13.3222956924
 20
2.5672823554
 11
13.2582556569
 21
2.5672823554
  0
LINE
  5
2E2
100
AcDbEntity
  8
0
100
AcDbLine
 62
7
  6
CONTINUOUS
 10
13.1912396197
 20
2.5672823554
 11
13.1673166065
 21
2.5672823554
  0
LINE
  5
2E3
100
AcDbEntity
  8
0
100
AcDbLine
 62
7
  6
CONTINUOUS
 10
13.1397265912
 20
2.5672823554
 11
13.1217935812
 21
2.5672823554
  0
LINE
  5
2E4
100
AcDbEntity
  8
0
100
AcDbLine
 62
7
  6
CONTINUOUS
 10
13.0845015605
 20
2.5672823554
 11
13.0657255501
 21
2.5672823554
  0
LINE
  5
2E5
100
AcDbEntity
  8
0
100
AcDbLine
 62
7
  6
CONTINUOUS
 10
12.93923948
 20
2.5672823554
 11
12.9205934696
 21
2.5672823554
  0
LINE
  5
2E6
100
AcDbEntity
  8
0
100
AcDbLine
 62
7
  6
CONTINUOUS
 10
12.8914734535
 20
2.5672823554
 11
12.8735404436
 21
2.5672823554
  0
LINE
  5
2E7
100
AcDbEntity
  8
0
100
AcDbLine
 62
7
  6
CONTINUOUS
 10
12.8362484229
 20
2.5672823554
 11
12.8174724125
 21
2.5672823554
  0
LINE
  5
2E8
100
AcDbEntity
  8
0
100
AcDbLine
 62
7
  6
CONTINUOUS
 10
12.6909873423
 20
2.5672823554
 11
12.672340332
 21
2.5672823554
  0
LINE
  5
2E9
100
AcDbEntity
  8
0
100
AcDbLine
 62
7
  6
CONTINUOUS
 10
12.3362731456
 20
2.5672823554
 11
12.2949101227
 21
2.5672823554
  0
LINE
  5
2EA
100
AcDbEntity
  8
0
100
AcDbLine
 62
7
  6
CONTINUOUS
 10
12.2055050731
 20
2.5672823554
 11
12.2294470864
 21
2.5672823554
  0
LINE
  5
2EB
100
AcDbEntity
  8
0
100
AcDbLine
 62
7
  6
CONTINUOUS
 10
13.4883447845
 20
2.5672823554
 11
13.5251458049
 21
2.5672823554
  0
LINE
  5
2EC
100
AcDbEntity
  8
0
100
AcDbLine
 62
7
  6
CONTINUOUS
 10
12.5705042755
 20
2.5920323691
 11
12.5133292438
 21
2.5920323691
  0
LINE
  5
2ED
100
AcDbEntity
  8
0
100
AcDbLine
 62
7
  6
CONTINUOUS
 10
12.3715681652
 20
2.5920323691
 11
12.2055050731
 21
2.5920323691
  0
LINE
  5
2EE
100
AcDbEntity
  8
0
100
AcDbLine
 62
7
  6
CONTINUOUS
 10
12.672340332
 20
2.5920323691
 11
12.7727983877
 21
2.5920323691
  0
LINE
  5
2EF
100
AcDbEntity
  8
0
100
AcDbLine
 62
7
  6
CONTINUOUS
 10
12.8174724125
 20
2.5920323691
 11
12.8914734535
 21
2.5920323691
  0
LINE
  5
2F0
100
AcDbEntity
  8
0
100
AcDbLine
 62
7
  6
CONTINUOUS
 10
12.9205934696
 20
2.5920323691
 11
13.0210515254
 21
2.5920323691
  0
LINE
  5
2F1
100
AcDbEntity
  8
0
100
AcDbLine
 62
7
  6
CONTINUOUS
 10
13.0657255501
 20
2.5920323691
 11
13.1397265912
 21
2.5920323691
  0
LINE
  5
2F2
100
AcDbEntity
  8
0
100
AcDbLine
 62
7
  6
CONTINUOUS
 10
13.1673166065
 20
2.5920323691
 11
13.3691097184
 21
2.5920323691
  0
LINE
  5
2F3
100
AcDbEntity
  8
0
100
AcDbLine
 62
7
  6
CONTINUOUS
 10
13.3994327352
 20
2.5920323691
 11
13.5490138181
 21
2.5920323691
  0
LINE
  5
2F4
100
AcDbEntity
  8
0
100
AcDbLine
 62
7
  6
CONTINUOUS
 10
12.4008351814
 20
2.5375433389
 11
12.3907841758
 21
2.5410923409
  0
LINE
  5
2F5
100
AcDbEntity
  8
0
100
AcDbLine
 62
7
  6
CONTINUOUS
 10
12.7926763987
 20
2.4919113136
 11
12.7293963636
 21
2.5522893471
  0
LINE
  5
2F6
100
AcDbEntity
  8
0
100
AcDbLine
 62
7
  6
CONTINUOUS
 10
12.7745063886
 20
2.5913483688
 11
12.8345394219
 21
2.534068337
  0
LINE
  5
2F7
100
AcDbEntity
  8
0
100
AcDbLine
 62
7
  6
CONTINUOUS
 10
13.0409295364
 20
2.4919113136
 11
12.9776495013
 21
2.5522893471
  0
LINE
  5
2F8
100
AcDbEntity
  8
0
100
AcDbLine
 62
7
  6
CONTINUOUS
 10
13.0227595263
 20
2.5913483688
 11
13.0827925596
 21
2.534068337
  0
LINE
  5
2F9
100
AcDbEntity
  8
0
100
AcDbLine
 62
7
  6
CONTINUOUS
 10
12.548053263
 20
2.5284903339
 11
12.5536792662
 21
2.5197973291
  0
LINE
  5
2FA
100
AcDbEntity
  8
0
100
AcDbLine
 62
7
  6
CONTINUOUS
 10
12.5422482598
 20
2.5543913483
 11
12.5349892558
 21
2.5656073545
  0
LINE
  5
2FB
100
AcDbEntity
  8
0
100
AcDbLine
 62
7
  6
CONTINUOUS
 10
12.6203383031
 20
2.5171073276
 11
12.5725822767
 21
2.5909023685
  0
LINE
  5
2FC
100
AcDbEntity
  8
0
100
AcDbLine
 62
7
  6
CONTINUOUS
 10
12.2030300717
 20
2.5895573678
 11
12.2030300717
 21
2.5697573568
  0
LINE
  5
2FD
100
AcDbEntity
  8
0
100
AcDbLine
 62
7
  6
CONTINUOUS
 10
12.2030300717
 20
2.5135023256
 11
12.2030300717
 21
2.4937023146
  0
LINE
  5
2FE
100
AcDbEntity
  8
0
100
AcDbLine
 62
7
  6
CONTINUOUS
 10
12.2319220877
 20
2.564807354
 11
12.2319220877
 21
2.5184523283
  0
LINE
  5
2FF
100
AcDbEntity
  8
0
100
AcDbLine
 62
7
  6
CONTINUOUS
 10
12.2924351213
 20
2.564807354
 11
12.2924351213
 21
2.5524323472
  0
LINE
  5
300
100
AcDbEntity
  8
0
100
AcDbLine
 62
7
  6
CONTINUOUS
 10
12.2924351213
 20
2.5184523283
 11
12.2924351213
 21
2.5308273352
  0
LINE
  5
301
100
AcDbEntity
  8
0
100
AcDbLine
 62
7
  6
CONTINUOUS
 10
12.4370132015
 20
2.5135023256
 11
12.4370132015
 21
2.4937023146
  0
LINE
  5
302
100
AcDbEntity
  8
0
100
AcDbLine
 62
7
  6
CONTINUOUS
 10
12.5193392471
 20
2.4937023146
 11
12.5193392471
 21
2.5135023256
  0
LINE
  5
303
100
AcDbEntity
  8
0
100
AcDbLine
 62
7
  6
CONTINUOUS
 10
12.5346752556
 20
2.5135023256
 11
12.5346752556
 21
2.4937023146
  0
LINE
  5
304
100
AcDbEntity
  8
0
100
AcDbLine
 62
7
  6
CONTINUOUS
 10
12.6449063168
 20
2.4937023146
 11
12.6449063168
 21
2.5135023256
  0
LINE
  5
305
100
AcDbEntity
  8
0
100
AcDbLine
 62
7
  6
CONTINUOUS
 10
12.6698653306
 20
2.4937023146
 11
12.6698653306
 21
2.5135023256
  0
LINE
  5
306
100
AcDbEntity
  8
0
100
AcDbLine
 62
7
  6
CONTINUOUS
 10
12.6698653306
 20
2.5697573568
 11
12.6698653306
 21
2.5895573678
  0
LINE
  5
307
100
AcDbEntity
  8
0
100
AcDbLine
 62
7
  6
CONTINUOUS
 10
12.6934623437
 20
2.5184523283
 11
12.6934623437
 21
2.564807354
  0
LINE
  5
308
100
AcDbEntity
  8
0
100
AcDbLine
 62
7
  6
CONTINUOUS
 10
12.7252123613
 20
2.5504983461
 11
12.7252123613
 21
2.5184523283
  0
LINE
  5
309
100
AcDbEntity
  8
0
100
AcDbLine
 62
7
  6
CONTINUOUS
 10
13.5375908118
 20
2.5092733232
 11
13.5357868108
 21
2.5153423266
  0
LINE
  5
30A
100
AcDbEntity
  8
0
100
AcDbLine
 62
7
  6
CONTINUOUS
 10
12.7504793753
 20
2.5135023256
 11
12.7504793753
 21
2.4937023146
  0
LINE
  5
30B
100
AcDbEntity
  8
0
100
AcDbLine
 62
7
  6
CONTINUOUS
 10
12.8149974111
 20
2.5697573568
 11
12.8149974111
 21
2.5895573678
  0
LINE
  5
30C
100
AcDbEntity
  8
0
100
AcDbLine
 62
7
  6
CONTINUOUS
 10
12.8387234242
 20
2.535859338
 11
12.8387234242
 21
2.564807354
  0
LINE
  5
30D
100
AcDbEntity
  8
0
100
AcDbLine
 62
7
  6
CONTINUOUS
 10
12.8710654422
 20
2.564807354
 11
12.8710654422
 21
2.4937023146
  0
LINE
  5
30E
100
AcDbEntity
  8
0
100
AcDbLine
 62
7
  6
CONTINUOUS
 10
12.8939484549
 20
2.5895573678
 11
12.8939484549
 21
2.5697573568
  0
LINE
  5
30F
100
AcDbEntity
  8
0
100
AcDbLine
 62
7
  6
CONTINUOUS
 10
12.9181184683
 20
2.4937023146
 11
12.9181184683
 21
2.5135023256
  0
LINE
  5
310
100
AcDbEntity
  8
0
100
AcDbLine
 62
7
  6
CONTINUOUS
 10
12.9181184683
 20
2.5697573568
 11
12.9181184683
 21
2.5895573678
  0
LINE
  5
311
100
AcDbEntity
  8
0
100
AcDbLine
 62
7
  6
CONTINUOUS
 10
12.9417144814
 20
2.5184523283
 11
12.9417144814
 21
2.564807354
  0
LINE
  5
312
100
AcDbEntity
  8
0
100
AcDbLine
 62
7
  6
CONTINUOUS
 10
12.973465499
 20
2.5504983461
 11
12.973465499
 21
2.5184523283
  0
LINE
  5
313
100
AcDbEntity
  8
0
100
AcDbLine
 62
7
  6
CONTINUOUS
 10
12.998732513
 20
2.5135023256
 11
12.998732513
 21
2.4937023146
  0
LINE
  5
314
100
AcDbEntity
  8
0
100
AcDbLine
 62
7
  6
CONTINUOUS
 10
13.0632505488
 20
2.5697573568
 11
13.0632505488
 21
2.5895573678
  0
LINE
  5
315
100
AcDbEntity
  8
0
100
AcDbLine
 62
7
  6
CONTINUOUS
 10
13.0869765619
 20
2.535859338
 11
13.0869765619
 21
2.564807354
  0
LINE
  5
316
100
AcDbEntity
  8
0
100
AcDbLine
 62
7
  6
CONTINUOUS
 10
13.1193185799
 20
2.564807354
 11
13.1193185799
 21
2.4937023146
  0
LINE
  5
317
100
AcDbEntity
  8
0
100
AcDbLine
 62
7
  6
CONTINUOUS
 10
13.1422015925
 20
2.5895573678
 11
13.1422015925
 21
2.5697573568
  0
LINE
  5
318
100
AcDbEntity
  8
0
100
AcDbLine
 62
7
  6
CONTINUOUS
 10
13.1648416051
 20
2.4937023146
 11
13.1648416051
 21
2.5135023256
  0
LINE
  5
319
100
AcDbEntity
  8
0
100
AcDbLine
 62
7
  6
CONTINUOUS
 10
13.1648416051
 20
2.5697573568
 11
13.1648416051
 21
2.5895573678
  0
LINE
  5
31A
100
AcDbEntity
  8
0
100
AcDbLine
 62
7
  6
CONTINUOUS
 10
13.1937146211
 20
2.5184523283
 11
13.1937146211
 21
2.564807354
  0
LINE
  5
31B
100
AcDbEntity
  8
0
100
AcDbLine
 62
7
  6
CONTINUOUS
 10
13.2557806555
 20
2.564807354
 11
13.2557806555
 21
2.5532573476
  0
LINE
  5
31C
100
AcDbEntity
  8
0
100
AcDbLine
 62
7
  6
CONTINUOUS
 10
13.2557806555
 20
2.5300023347
 11
13.2557806555
 21
2.5184523283
  0
LINE
  5
31D
100
AcDbEntity
  8
0
100
AcDbLine
 62
7
  6
CONTINUOUS
 10
13.2958976778
 20
2.5483073449
 11
13.2958976778
 21
2.5349523375
  0
LINE
  5
31E
100
AcDbEntity
  8
0
100
AcDbLine
 62
7
  6
CONTINUOUS
 10
12.3907841758
 20
2.5410923409
 11
12.3990241804
 21
2.5458683435
  0
LINE
  5
31F
100
AcDbEntity
  8
0
100
AcDbLine
 62
7
  6
CONTINUOUS
 10
13.3247706938
 20
2.5565573495
 11
13.3247706938
 21
2.564807354
  0
LINE
  5
320
100
AcDbEntity
  8
0
100
AcDbLine
 62
7
  6
CONTINUOUS
 10
13.3257346943
 20
2.5184523283
 11
13.3257346943
 21
2.5267023329
  0
LINE
  5
321
100
AcDbEntity
  8
0
100
AcDbLine
 62
7
  6
CONTINUOUS
 10
13.3715847197
 20
2.5895573678
 11
13.3715847197
 21
2.5565573495
  0
LINE
  5
322
100
AcDbEntity
  8
0
100
AcDbLine
 62
7
  6
CONTINUOUS
 10
13.3730037205
 20
2.5267023329
 11
13.3730037205
 21
2.4937023146
  0
LINE
  5
323
100
AcDbEntity
  8
0
100
AcDbLine
 62
7
  6
CONTINUOUS
 10
13.3969577338
 20
2.4937023146
 11
13.3969577338
 21
2.5135023256
  0
LINE
  5
324
100
AcDbEntity
  8
0
100
AcDbLine
 62
7
  6
CONTINUOUS
 10
13.3969577338
 20
2.5697573568
 11
13.3969577338
 21
2.5895573678
  0
LINE
  5
325
100
AcDbEntity
  8
0
100
AcDbLine
 62
7
  6
CONTINUOUS
 10
13.4246537492
 20
2.5184523283
 11
13.4246537492
 21
2.564807354
  0
LINE
  5
326
100
AcDbEntity
  8
0
100
AcDbLine
 62
7
  6
CONTINUOUS
 10
13.4858697831
 20
2.5281293337
 11
13.4858697831
 21
2.5184303283
  0
LINE
  5
327
100
AcDbEntity
  8
0
100
AcDbLine
 62
7
  6
CONTINUOUS
 10
13.4858697831
 20
2.552082347
 11
13.4858697831
 21
2.564807354
  0
LINE
  5
328
100
AcDbEntity
  8
0
100
AcDbLine
 62
7
  6
CONTINUOUS
 10
13.5154787995
 20
2.5134803256
 11
13.5154787995
 21
2.4937023146
  0
LINE
  5
329
100
AcDbEntity
  8
0
100
AcDbLine
 62
7
  6
CONTINUOUS
 10
13.6146708546
 20
2.525013332
 11
13.6146708546
 21
2.5276393334
  0
LINE
  5
32A
100
AcDbEntity
  8
0
100
AcDbLine
 62
7
  6
CONTINUOUS
 10
13.631730864
 20
2.5276393334
 11
13.631730864
 21
2.516087327
  0
LINE
  5
32B
100
AcDbEntity
  8
0
100
AcDbLine
 62
7
  6
CONTINUOUS
 10
13.7286871589
 20
2.5350697372
 11
13.7286871589
 21
2.5456869438
  0
LINE
  5
32C
100
AcDbEntity
  8
0
100
AcDbLine
 62
7
  6
CONTINUOUS
 10
12.5112392426
 20
2.5908833685
 11
12.4644392167
 21
2.5171263276
  0
LINE
  5
32D
100
AcDbEntity
  8
0
100
AcDbLine
 62
7
  6
CONTINUOUS
 10
12.5246402501
 20
2.5655893545
 11
12.5175232461
 21
2.5543723483
  0
LINE
  5
32E
100
AcDbEntity
  8
0
100
AcDbLine
 62
7
  6
CONTINUOUS
 10
12.5034912383
 20
2.5197783291
 11
12.5090072414
 21
2.5284723339
  0
ARC
  5
32F
100
AcDbEntity
  8
0
100
AcDbCircle
 62
7
  6
CONTINUOUS
 10
12.7943847649
 20
2.4937027294
 40
0.0024754162
100
AcDbArc
 50
226.3593695813
 51
270.0146919953
  0
ARC
  5
330
100
AcDbEntity
  8
0
100
AcDbCircle
 62
7
  6
CONTINUOUS
 10
12.2055050712
 20
2.4937023128
 40
0.0024749995
100
AcDbArc
 50
179.9999571957
 51
270.0000428043
  0
ARC
  5
331
100
AcDbEntity
  8
0
100
AcDbCircle
 62
7
  6
CONTINUOUS
 10
12.8685904427
 20
2.4937023128
 40
0.0024749995
100
AcDbArc
 50
269.9999571957
 51
0.0000428043
  0
ARC
  5
332
100
AcDbEntity
  8
0
100
AcDbCircle
 62
7
  6
CONTINUOUS
 10
12.7480043758
 20
2.4937023128
 40
0.0024749995
100
AcDbArc
 50
269.9999571957
 51
0.0000428043
  0
ARC
  5
333
100
AcDbEntity
  8
0
100
AcDbCircle
 62
7
  6
CONTINUOUS
 10
12.6723403301
 20
2.4937023128
 40
0.0024749995
100
AcDbArc
 50
179.9999571957
 51
270.0000428043
  0
ARC
  5
334
100
AcDbEntity
  8
0
100
AcDbCircle
 62
7
  6
CONTINUOUS
 10
12.5371502552
 20
2.4937023128
 40
0.0024749995
100
AcDbArc
 50
179.9999571957
 51
270.0000428043
  0
ARC
  5
335
100
AcDbEntity
  8
0
100
AcDbCircle
 62
7
  6
CONTINUOUS
 10
12.6424313172
 20
2.4937023128
 40
0.0024749995
100
AcDbArc
 50
269.9999571957
 51
0.0000428043
  0
ARC
  5
336
100
AcDbEntity
  8
0
100
AcDbCircle
 62
7
  6
CONTINUOUS
 10
12.439488201
 20
2.4937023128
 40
0.0024749995
100
AcDbArc
 50
179.9999571957
 51
270.0000428043
  0
ARC
  5
337
100
AcDbEntity
  8
0
100
AcDbCircle
 62
7
  6
CONTINUOUS
 10
12.5168642476
 20
2.4937023128
 40
0.0024749995
100
AcDbArc
 50
269.9999571957
 51
0.0000428043
  0
ARC
  5
338
100
AcDbEntity
  8
0
100
AcDbCircle
 62
7
  6
CONTINUOUS
 10
12.371573659
 20
2.5302846524
 40
0.061747717
100
AcDbArc
 50
59.5385584989
 51
90.0050977555
  0
ARC
  5
339
100
AcDbEntity
  8
0
100
AcDbCircle
 62
7
  6
CONTINUOUS
 10
12.3792298263
 20
2.539634765
 40
0.048483885
100
AcDbArc
 50
273.21763719
 51
303.0749121182
  0
ARC
  5
33A
100
AcDbEntity
  8
0
100
AcDbCircle
 62
7
  6
CONTINUOUS
 10
12.3931760319
 20
2.5166878286
 40
0.0222174455
100
AcDbArc
 50
4.0793399388
 51
69.834329283
  0
ARC
  5
33B
100
AcDbEntity
  8
0
100
AcDbCircle
 62
7
  6
CONTINUOUS
 10
12.3940692204
 20
2.5168671561
 40
0.0213072145
100
AcDbArc
 50
303.0488228549
 51
355.7263138674
  0
ARC
  5
33C
100
AcDbEntity
  8
0
100
AcDbCircle
 62
7
  6
CONTINUOUS
 10
12.400005721
 20
2.5168763464
 40
0.0153945295
100
AcDbArc
 50
354.0454548824
 51
5.1878013979
  0
ARC
  5
33D
100
AcDbEntity
  8
0
100
AcDbCircle
 62
7
  6
CONTINUOUS
 10
12.3362731456
 20
2.5246398318
 40
0.0086625048
100
AcDbArc
 50
270.0
 51
90.0
  0
ARC
  5
33E
100
AcDbEntity
  8
0
100
AcDbCircle
 62
7
  6
CONTINUOUS
 10
12.5459747223
 20
2.5271458744
 40
0.0024754602
100
AcDbArc
 50
32.8959418573
 51
89.9875097202
  0
ARC
  5
33F
100
AcDbEntity
  8
0
100
AcDbCircle
 62
7
  6
CONTINUOUS
 10
12.4623492858
 20
2.5184525273
 40
0.0024752003
100
AcDbArc
 50
269.9983726451
 51
327.602165307
  0
ARC
  5
340
100
AcDbEntity
  8
0
100
AcDbCircle
 62
7
  6
CONTINUOUS
 10
12.5110971723
 20
2.5271461342
 40
0.0024752003
100
AcDbArc
 50
89.998372645
 51
147.602165307
  0
ARC
  5
341
100
AcDbEntity
  8
0
100
AcDbCircle
 62
7
  6
CONTINUOUS
 10
12.5055811302
 20
2.518452367
 40
0.0024750401
100
AcDbArc
 50
147.6063258011
 51
270.0025305754
  0
ARC
  5
342
100
AcDbEntity
  8
0
100
AcDbCircle
 62
7
  6
CONTINUOUS
 10
12.2294470882
 20
2.5184523265
 40
0.0024749995
100
AcDbArc
 50
269.9999571957
 51
0.0000428043
  0
ARC
  5
343
100
AcDbEntity
  8
0
100
AcDbCircle
 62
7
  6
CONTINUOUS
 10
12.2055050712
 20
2.5135023274
 40
0.0024749995
100
AcDbArc
 50
89.9999571957
 51
180.0000428043
  0
ARC
  5
344
100
AcDbEntity
  8
0
100
AcDbCircle
 62
7
  6
CONTINUOUS
 10
12.2949101208
 20
2.530827337
 40
0.0024749995
100
AcDbArc
 50
89.9999571957
 51
180.0000428043
  0
ARC
  5
345
100
AcDbEntity
  8
0
100
AcDbCircle
 62
7
  6
CONTINUOUS
 10
12.2949101208
 20
2.5184523265
 40
0.0024749995
100
AcDbArc
 50
179.9999571957
 51
270.0000428043
  0
ARC
  5
346
100
AcDbEntity
  8
0
100
AcDbCircle
 62
7
  6
CONTINUOUS
 10
12.5371502552
 20
2.5135023274
 40
0.0024749995
100
AcDbArc
 50
89.9999571957
 51
180.0000428043
  0
ARC
  5
347
100
AcDbEntity
  8
0
100
AcDbCircle
 62
7
  6
CONTINUOUS
 10
12.439488201
 20
2.5135023274
 40
0.0024749995
100
AcDbArc
 50
89.9999571957
 51
180.0000428043
  0
ARC
  5
348
100
AcDbEntity
  8
0
100
AcDbCircle
 62
7
  6
CONTINUOUS
 10
12.5168642476
 20
2.5135023274
 40
0.0024749995
100
AcDbArc
 50
359.9999571957
 51
90.0000428043
  0
ARC
  5
349
100
AcDbEntity
  8
0
100
AcDbCircle
 62
7
  6
CONTINUOUS
 10
12.3771587979
 20
2.5826952352
 40
0.0428289026
100
AcDbArc
 50
300.6990502959
 51
319.0591802498
  0
ARC
  5
34A
100
AcDbEntity
  8
0
100
AcDbCircle
 62
7
  6
CONTINUOUS
 10
12.3922357827
 20
2.5632132173
 40
0.0229166529
100
AcDbArc
 50
20.6563876465
 51
62.3316896973
  0
ARC
  5
34B
100
AcDbEntity
  8
0
100
AcDbCircle
 62
7
  6
CONTINUOUS
 10
12.3971873948
 20
2.5665668817
 40
0.0171568255
100
AcDbArc
 50
315.9145124245
 51
16.0049121282
  0
ARC
  5
34C
100
AcDbEntity
  8
0
100
AcDbCircle
 62
7
  6
CONTINUOUS
 10
12.3362731456
 20
2.5586198506
 40
0.0086625048
100
AcDbArc
 50
270.0
 51
90.0
  0
ARC
  5
34D
100
AcDbEntity
  8
0
100
AcDbCircle
 62
7
  6
CONTINUOUS
 10
12.532910715
 20
2.564262895
 40
0.0024754602
100
AcDbArc
 50
32.8959418573
 51
89.9875097202
  0
ARC
  5
34E
100
AcDbEntity
  8
0
100
AcDbCircle
 62
7
  6
CONTINUOUS
 10
12.5401702375
 20
2.5530465533
 40
0.0024752071
100
AcDbArc
 50
270.0004896793
 51
32.9089806818
  0
ARC
  5
34F
100
AcDbEntity
  8
0
100
AcDbCircle
 62
7
  6
CONTINUOUS
 10
12.5267301809
 20
2.5642631548
 40
0.0024752003
100
AcDbArc
 50
89.998372645
 51
147.602165307
  0
ARC
  5
350
100
AcDbEntity
  8
0
100
AcDbCircle
 62
7
  6
CONTINUOUS
 10
12.5133291735
 20
2.5895571688
 40
0.0024752003
100
AcDbArc
 50
89.9983726451
 51
147.602165307
  0
ARC
  5
351
100
AcDbEntity
  8
0
100
AcDbCircle
 62
7
  6
CONTINUOUS
 10
12.519613138
 20
2.5530463862
 40
0.0024750401
100
AcDbArc
 50
147.6063258012
 51
270.0025305754
  0
ARC
  5
352
100
AcDbEntity
  8
0
100
AcDbCircle
 62
7
  6
CONTINUOUS
 10
12.2055050712
 20
2.5895573696
 40
0.0024749995
100
AcDbArc
 50
89.9999571957
 51
180.0000428043
  0
ARC
  5
353
100
AcDbEntity
  8
0
100
AcDbCircle
 62
7
  6
CONTINUOUS
 10
12.2055050712
 20
2.5697573549
 40
0.0024749995
100
AcDbArc
 50
179.9999571957
 51
270.0000428043
  0
ARC
  5
354
100
AcDbEntity
  8
0
100
AcDbCircle
 62
7
  6
CONTINUOUS
 10
12.2294470882
 20
2.5648073559
 40
0.0024749995
100
AcDbArc
 50
359.9999571957
 51
90.0000428043
  0
ARC
  5
355
100
AcDbEntity
  8
0
100
AcDbCircle
 62
7
  6
CONTINUOUS
 10
12.2949101208
 20
2.5648073559
 40
0.0024749995
100
AcDbArc
 50
89.9999571957
 51
180.0000428043
  0
ARC
  5
356
100
AcDbEntity
  8
0
100
AcDbCircle
 62
7
  6
CONTINUOUS
 10
12.2949101208
 20
2.5524323453
 40
0.0024749995
100
AcDbArc
 50
179.9999571957
 51
270.0000428043
  0
ARC
  5
357
100
AcDbEntity
  8
0
100
AcDbCircle
 62
7
  6
CONTINUOUS
 10
12.8362481229
 20
2.5358592748
 40
0.0024753014
100
AcDbArc
 50
226.3461263059
 51
0.0014637321
  0
ARC
  5
358
100
AcDbEntity
  8
0
100
AcDbCircle
 62
7
  6
CONTINUOUS
 10
12.7276876627
 20
2.5504984093
 40
0.0024753014
100
AcDbArc
 50
46.3461263059
 51
180.0014637321
  0
ARC
  5
359
100
AcDbEntity
  8
0
100
AcDbCircle
 62
7
  6
CONTINUOUS
 10
12.5516012439
 20
2.5184525341
 40
0.0024752071
100
AcDbArc
 50
270.0004896794
 51
32.9089806818
  0
ARC
  5
35A
100
AcDbEntity
  8
0
100
AcDbCircle
 62
7
  6
CONTINUOUS
 10
12.7276873608
 20
2.5184523265
 40
0.0024749995
100
AcDbArc
 50
179.9999571957
 51
270.0000428043
  0
ARC
  5
35B
100
AcDbEntity
  8
0
100
AcDbCircle
 62
7
  6
CONTINUOUS
 10
12.7480043758
 20
2.5135023274
 40
0.0024749995
100
AcDbArc
 50
359.9999571957
 51
90.0000428043
  0
ARC
  5
35C
100
AcDbEntity
  8
0
100
AcDbCircle
 62
7
  6
CONTINUOUS
 10
12.6723403301
 20
2.5135023274
 40
0.0024749995
100
AcDbArc
 50
89.9999571957
 51
180.0000428043
  0
ARC
  5
35D
100
AcDbEntity
  8
0
100
AcDbCircle
 62
7
  6
CONTINUOUS
 10
12.6909873442
 20
2.5184523265
 40
0.0024749995
100
AcDbArc
 50
269.9999571957
 51
0.0000428043
  0
ARC
  5
35E
100
AcDbEntity
  8
0
100
AcDbCircle
 62
7
  6
CONTINUOUS
 10
12.6424313172
 20
2.5135023274
 40
0.0024749995
100
AcDbArc
 50
359.9999571957
 51
90.0000428043
  0
ARC
  5
35F
100
AcDbEntity
  8
0
100
AcDbCircle
 62
7
  6
CONTINUOUS
 10
12.6224154248
 20
2.518451368
 40
0.002474041
100
AcDbArc
 50
212.9056413127
 51
269.9972091756
  0
ARC
  5
360
100
AcDbEntity
  8
0
100
AcDbCircle
 62
7
  6
CONTINUOUS
 10
12.8362484247
 20
2.5648073559
 40
0.0024749995
100
AcDbArc
 50
359.9999571957
 51
90.0000428043
  0
ARC
  5
361
100
AcDbEntity
  8
0
100
AcDbCircle
 62
7
  6
CONTINUOUS
 10
12.8174724106
 20
2.5697573549
 40
0.0024749995
100
AcDbArc
 50
179.9999571957
 51
270.0000428043
  0
ARC
  5
362
100
AcDbEntity
  8
0
100
AcDbCircle
 62
7
  6
CONTINUOUS
 10
12.8174724106
 20
2.5895573696
 40
0.0024749995
100
AcDbArc
 50
89.9999571957
 51
180.0000428043
  0
ARC
  5
363
100
AcDbEntity
  8
0
100
AcDbCircle
 62
7
  6
CONTINUOUS
 10
12.8914734553
 20
2.5895573696
 40
0.0024749995
100
AcDbArc
 50
359.9999571957
 51
90.0000428043
  0
ARC
  5
364
100
AcDbEntity
  8
0
100
AcDbCircle
 62
7
  6
CONTINUOUS
 10
12.8914734553
 20
2.5697573549
 40
0.0024749995
100
AcDbArc
 50
269.9999571957
 51
0.0000428043
  0
ARC
  5
365
100
AcDbEntity
  8
0
100
AcDbCircle
 62
7
  6
CONTINUOUS
 10
12.8735404417
 20
2.5648073559
 40
0.0024749995
100
AcDbArc
 50
89.9999571957
 51
180.0000428043
  0
ARC
  5
366
100
AcDbEntity
  8
0
100
AcDbCircle
 62
7
  6
CONTINUOUS
 10
12.6909873442
 20
2.5648073559
 40
0.0024749995
100
AcDbArc
 50
359.9999571957
 51
90.0000428043
  0
ARC
  5
367
100
AcDbEntity
  8
0
100
AcDbCircle
 62
7
  6
CONTINUOUS
 10
12.6723403301
 20
2.5697573549
 40
0.0024749995
100
AcDbArc
 50
179.9999571957
 51
270.0000428043
  0
ARC
  5
368
100
AcDbEntity
  8
0
100
AcDbCircle
 62
7
  6
CONTINUOUS
 10
12.6723403301
 20
2.5895573696
 40
0.0024749995
100
AcDbArc
 50
89.9999571957
 51
180.0000428043
  0
ARC
  5
369
100
AcDbEntity
  8
0
100
AcDbCircle
 62
7
  6
CONTINUOUS
 10
12.570504655
 20
2.589557409
 40
0.0024749602
100
AcDbArc
 50
32.9172174468
 51
90.0087853097
  0
ARC
  5
36A
100
AcDbEntity
  8
0
100
AcDbCircle
 62
7
  6
CONTINUOUS
 10
12.7727985224
 20
2.5895582013
 40
0.0024741678
100
AcDbArc
 50
46.3477981899
 51
90.0031206038
  0
ARC
  5
36B
100
AcDbEntity
  8
0
100
AcDbCircle
 62
7
  6
CONTINUOUS
 10
13.5463505148
 20
2.4094934586
 40
0.1825583387
100
AcDbArc
 50
79.8618509324
 51
89.1640948679
  0
ARC
  5
36C
100
AcDbEntity
  8
0
100
AcDbCircle
 62
7
  6
CONTINUOUS
 10
13.5282557878
 20
2.4386010294
 40
0.117346916
100
AcDbArc
 50
58.614769177
 51
62.3737227606
  0
ARC
  5
36D
100
AcDbEntity
  8
0
100
AcDbCircle
 62
7
  6
CONTINUOUS
 10
13.5571178432
 20
2.509473798
 40
0.0459185159
100
AcDbArc
 50
15.6740290068
 51
20.9917271228
  0
ARC
  5
36E
100
AcDbEntity
  8
0
100
AcDbCircle
 62
7
  6
CONTINUOUS
 10
13.4974076135
 20
2.5055452462
 40
0.0396099176
100
AcDbArc
 50
14.3201081283
 51
22.4984722084
  0
ARC
  5
36F
100
AcDbEntity
  8
0
100
AcDbCircle
 62
7
  6
CONTINUOUS
 10
13.5161192671
 20
2.5062372524
 40
0.0243676582
100
AcDbArc
 50
63.3666028271
 51
90.3937697637
  0
ARC
  5
370
100
AcDbEntity
  8
0
100
AcDbCircle
 62
7
  6
CONTINUOUS
 10
13.6036139387
 20
2.5111006186
 40
0.0198837666
100
AcDbArc
 50
271.8586572978
 51
289.4131338543
  0
ARC
  5
371
100
AcDbEntity
  8
0
100
AcDbCircle
 62
7
  6
CONTINUOUS
 10
13.5577001432
 20
2.5085494649
 40
0.0173408616
100
AcDbArc
 50
232.4713476722
 51
267.338189944
  0
ARC
  5
372
100
AcDbEntity
  8
0
100
AcDbCircle
 62
7
  6
CONTINUOUS
 10
13.5130038
 20
2.4937023128
 40
0.0024749995
100
AcDbArc
 50
269.9999571957
 51
0.0000428043
  0
ARC
  5
373
100
AcDbEntity
  8
0
100
AcDbCircle
 62
7
  6
CONTINUOUS
 10
13.3994327333
 20
2.4937023128
 40
0.0024749995
100
AcDbArc
 50
179.9999571957
 51
270.0000428043
  0
ARC
  5
374
100
AcDbEntity
  8
0
100
AcDbCircle
 62
7
  6
CONTINUOUS
 10
13.1168435803
 20
2.4937023128
 40
0.0024749995
100
AcDbArc
 50
269.9999571957
 51
0.0000428043
  0
ARC
  5
375
100
AcDbEntity
  8
0
100
AcDbCircle
 62
7
  6
CONTINUOUS
 10
12.9962575135
 20
2.4937023128
 40
0.0024749995
100
AcDbArc
 50
269.9999571957
 51
0.0000428043
  0
ARC
  5
376
100
AcDbEntity
  8
0
100
AcDbCircle
 62
7
  6
CONTINUOUS
 10
12.9205934678
 20
2.4937023128
 40
0.0024749995
100
AcDbArc
 50
179.9999571957
 51
270.0000428043
  0
ARC
  5
377
100
AcDbEntity
  8
0
100
AcDbCircle
 62
7
  6
CONTINUOUS
 10
13.370528721
 20
2.4937023128
 40
0.0024749995
100
AcDbArc
 50
269.9999571957
 51
0.0000428043
  0
ARC
  5
378
100
AcDbEntity
  8
0
100
AcDbCircle
 62
7
  6
CONTINUOUS
 10
13.1673166046
 20
2.4937023128
 40
0.0024749995
100
AcDbArc
 50
179.9999571957
 51
270.0000428043
  0
ARC
  5
379
100
AcDbEntity
  8
0
100
AcDbCircle
 62
7
  6
CONTINUOUS
 10
13.0426374026
 20
2.493701481
 40
0.0024741678
100
AcDbArc
 50
226.3477981898
 51
270.0031206038
  0
ARC
  5
37A
100
AcDbEntity
  8
0
100
AcDbCircle
 62
7
  6
CONTINUOUS
 10
13.0845012605
 20
2.5358592748
 40
0.0024753014
100
AcDbArc
 50
226.3461263059
 51
0.0014637321
  0
ARC
  5
37B
100
AcDbEntity
  8
0
100
AcDbCircle
 62
7
  6
CONTINUOUS
 10
12.9759408003
 20
2.5504984093
 40
0.0024753014
100
AcDbArc
 50
46.3461263059
 51
180.0014637321
  0
ARC
  5
37C
100
AcDbEntity
  8
0
100
AcDbCircle
 62
7
  6
CONTINUOUS
 10
12.9759404985
 20
2.5184523265
 40
0.0024749995
100
AcDbArc
 50
179.9999571957
 51
270.0000428043
  0
ARC
  5
37D
100
AcDbEntity
  8
0
100
AcDbCircle
 62
7
  6
CONTINUOUS
 10
12.9962575135
 20
2.5135023274
 40
0.0024749995
100
AcDbArc
 50
359.9999571957
 51
90.0000428043
  0
ARC
  5
37E
100
AcDbEntity
  8
0
100
AcDbCircle
 62
7
  6
CONTINUOUS
 10
12.9205934678
 20
2.5135023274
 40
0.0024749995
100
AcDbArc
 50
89.9999571957
 51
180.0000428042
  0
ARC
  5
37F
100
AcDbEntity
  8
0
100
AcDbCircle
 62
7
  6
CONTINUOUS
 10
12.9392394818
 20
2.5184523265
 40
0.0024749995
100
AcDbArc
 50
269.9999571957
 51
0.0000428043
  0
ARC
  5
380
100
AcDbEntity
  8
0
100
AcDbCircle
 62
7
  6
CONTINUOUS
 10
13.2582556551
 20
2.5300023366
 40
0.0024749995
100
AcDbArc
 50
89.9999571957
 51
180.0000428043
  0
ARC
  5
381
100
AcDbEntity
  8
0
100
AcDbCircle
 62
7
  6
CONTINUOUS
 10
13.2582556551
 20
2.5184523265
 40
0.0024749995
100
AcDbArc
 50
179.9999571957
 51
270.0000428043
  0
ARC
  5
382
100
AcDbEntity
  8
0
100
AcDbCircle
 62
7
  6
CONTINUOUS
 10
13.1673166046
 20
2.5135023274
 40
0.0024749995
100
AcDbArc
 50
89.9999571957
 51
180.0000428043
  0
ARC
  5
383
100
AcDbEntity
  8
0
100
AcDbCircle
 62
7
  6
CONTINUOUS
 10
13.1912396216
 20
2.5184523265
 40
0.0024749995
100
AcDbArc
 50
269.9999571957
 51
0.0000428042
  0
ARC
  5
384
100
AcDbEntity
  8
0
100
AcDbCircle
 62
7
  6
CONTINUOUS
 10
13.2582556551
 20
2.5532573458
 40
0.0024749995
100
AcDbArc
 50
179.9999571957
 51
270.0000428043
  0
ARC
  5
385
100
AcDbEntity
  8
0
100
AcDbCircle
 62
7
  6
CONTINUOUS
 10
13.0845015624
 20
2.5648073559
 40
0.0024749995
100
AcDbArc
 50
359.9999571957
 51
90.0000428043
  0
ARC
  5
386
100
AcDbEntity
  8
0
100
AcDbCircle
 62
7
  6
CONTINUOUS
 10
13.0657255483
 20
2.5697573549
 40
0.0024749995
100
AcDbArc
 50
179.9999571957
 51
270.0000428043
  0
ARC
  5
387
100
AcDbEntity
  8
0
100
AcDbCircle
 62
7
  6
CONTINUOUS
 10
13.0657255483
 20
2.5895573696
 40
0.0024749995
100
AcDbArc
 50
89.9999571957
 51
180.0000428043
  0
ARC
  5
388
100
AcDbEntity
  8
0
100
AcDbCircle
 62
7
  6
CONTINUOUS
 10
13.139726593
 20
2.5895573696
 40
0.0024749995
100
AcDbArc
 50
359.9999571957
 51
90.0000428043
  0
ARC
  5
389
100
AcDbEntity
  8
0
100
AcDbCircle
 62
7
  6
CONTINUOUS
 10
13.139726593
 20
2.5697573549
 40
0.0024749995
100
AcDbArc
 50
269.9999571957
 51
0.0000428042
  0
ARC
  5
38A
100
AcDbEntity
  8
0
100
AcDbCircle
 62
7
  6
CONTINUOUS
 10
13.1217935794
 20
2.5648073559
 40
0.0024749995
100
AcDbArc
 50
89.9999571957
 51
180.0000428042
  0
ARC
  5
38B
100
AcDbEntity
  8
0
100
AcDbCircle
 62
7
  6
CONTINUOUS
 10
12.9392394818
 20
2.5648073559
 40
0.0024749995
100
AcDbArc
 50
359.9999571957
 51
90.0000428043
  0
ARC
  5
38C
100
AcDbEntity
  8
0
100
AcDbCircle
 62
7
  6
CONTINUOUS
 10
12.9205934678
 20
2.5697573549
 40
0.0024749995
100
AcDbArc
 50
179.9999571957
 51
270.0000428043
  0
ARC
  5
38D
100
AcDbEntity
  8
0
100
AcDbCircle
 62
7
  6
CONTINUOUS
 10
12.9205934678
 20
2.5895573696
 40
0.0024749995
100
AcDbArc
 50
89.9999571957
 51
180.0000428042
  0
ARC
  5
38E
100
AcDbEntity
  8
0
100
AcDbCircle
 62
7
  6
CONTINUOUS
 10
13.1912396216
 20
2.5648073559
 40
0.0024749995
100
AcDbArc
 50
359.9999571957
 51
90.0000428043
  0
ARC
  5
38F
100
AcDbEntity
  8
0
100
AcDbCircle
 62
7
  6
CONTINUOUS
 10
13.1673166046
 20
2.5697573549
 40
0.0024749995
100
AcDbArc
 50
179.9999571957
 51
270.0000428043
  0
ARC
  5
390
100
AcDbEntity
  8
0
100
AcDbCircle
 62
7
  6
CONTINUOUS
 10
13.1673166046
 20
2.5895573696
 40
0.0024749995
100
AcDbArc
 50
89.9999571957
 51
180.0000428043
  0
ARC
  5
391
100
AcDbEntity
  8
0
100
AcDbCircle
 62
7
  6
CONTINUOUS
 10
13.2582556551
 20
2.5648073559
 40
0.0024749995
100
AcDbArc
 50
89.9999571957
 51
180.0000428043
  0
ARC
  5
392
100
AcDbEntity
  8
0
100
AcDbCircle
 62
7
  6
CONTINUOUS
 10
13.0210516601
 20
2.5895582013
 40
0.0024741678
100
AcDbArc
 50
46.3477981899
 51
90.0031206038
  0
ARC
  5
393
100
AcDbEntity
  8
0
100
AcDbCircle
 62
7
  6
CONTINUOUS
 10
13.5806801742
 20
2.5212486481
 40
0.044722495
100
AcDbArc
 50
195.531588407
 51
204.7624440448
  0
ARC
  5
394
100
AcDbEntity
  8
0
100
AcDbCircle
 62
7
  6
CONTINUOUS
 10
13.5726548052
 20
2.5503169747
 40
0.039319019
100
AcDbArc
 50
59.1202086415
 51
81.4730239328
  0
ARC
  5
395
100
AcDbEntity
  8
0
100
AcDbCircle
 62
7
  6
CONTINUOUS
 10
13.5978759713
 20
2.5286873679
 40
0.0383802683
100
AcDbArc
 50
288.7656836787
 51
309.6104317088
  0
ARC
  5
396
100
AcDbEntity
  8
0
100
AcDbCircle
 62
7
  6
CONTINUOUS
 10
13.5783142014
 20
2.5566516438
 40
0.0310192946
100
AcDbArc
 50
34.7540871
 51
62.0879016178
  0
ARC
  5
397
100
AcDbEntity
  8
0
100
AcDbCircle
 62
7
  6
CONTINUOUS
 10
13.5236009174
 20
2.5388278764
 40
0.0284963867
100
AcDbArc
 50
70.3834917948
 51
86.8922743861
  0
ARC
  5
398
100
AcDbEntity
  8
0
100
AcDbCircle
 62
7
  6
CONTINUOUS
 10
13.6048681567
 20
2.5210861501
 40
0.0280715479
100
AcDbArc
 50
308.5071794988
 51
332.24006569
  0
ARC
  5
399
100
AcDbEntity
  8
0
100
AcDbCircle
 62
7
  6
CONTINUOUS
 10
13.5750183849
 20
2.5166552064
 40
0.0266349791
100
AcDbArc
 50
20.3630922153
 51
37.9727053099
  0
ARC
  5
39A
100
AcDbEntity
  8
0
100
AcDbCircle
 62
7
  6
CONTINUOUS
 10
13.5761387404
 20
2.5167282896
 40
0.0257145923
100
AcDbArc
 50
39.3804255939
 51
59.0361096173
  0
ARC
  5
39B
100
AcDbEntity
  8
0
100
AcDbCircle
 62
7
  6
CONTINUOUS
 10
13.5607987082
 20
2.5143997688
 40
0.0238935861
100
AcDbArc
 50
209.8247607259
 51
235.1255079367
  0
ARC
  5
39C
100
AcDbEntity
  8
0
100
AcDbCircle
 62
7
  6
CONTINUOUS
 10
13.6141751675
 20
2.5161916447
 40
0.0175560065
100
AcDbArc
 50
332.2279060967
 51
359.6595469939
  0
ARC
  5
39D
100
AcDbEntity
  8
0
100
AcDbCircle
 62
7
  6
CONTINUOUS
 10
13.5201739219
 20
2.5145168728
 40
0.0151491919
100
AcDbArc
 50
24.098260853
 51
63.0369451818
  0
ARC
  5
39E
100
AcDbEntity
  8
0
100
AcDbCircle
 62
7
  6
CONTINUOUS
 10
13.6156881783
 20
2.525116781
 40
0.0147197649
100
AcDbArc
 50
192.7054516565
 51
206.0594861022
  0
ARC
  5
39F
100
AcDbEntity
  8
0
100
AcDbCircle
 62
7
  6
CONTINUOUS
 10
13.5284605274
 20
2.5518696094
 40
0.0145814632
100
AcDbArc
 50
54.6746025112
 51
71.1660573124
  0
ARC
  5
3A0
100
AcDbEntity
  8
0
100
AcDbCircle
 62
7
  6
CONTINUOUS
 10
13.6063292954
 20
2.5296129864
 40
0.0132488022
100
AcDbArc
 50
270.266200055
 51
281.2404888597
  0
ARC
  5
3A1
100
AcDbEntity
  8
0
100
AcDbCircle
 62
7
  6
CONTINUOUS
 10
13.6027235414
 20
2.524769508
 40
0.0119498009
100
AcDbArc
 50
340.7883861657
 51
1.1691452593
  0
ARC
  5
3A2
100
AcDbEntity
  8
0
100
AcDbCircle
 62
7
  6
CONTINUOUS
 10
13.5295131508
 20
2.5629115009
 40
0.0110815393
100
AcDbArc
 50
306.758405961
 51
320.4502234234
  0
ARC
  5
3A3
100
AcDbEntity
  8
0
100
AcDbCircle
 62
7
  6
CONTINUOUS
 10
13.6075235364
 20
2.5238762928
 40
0.0073895522
100
AcDbArc
 50
280.8288201977
 51
305.0837508495
  0
ARC
  5
3A4
100
AcDbEntity
  8
0
100
AcDbCircle
 62
7
  6
CONTINUOUS
 10
13.607924718
 20
2.5230254464
 40
0.0064647042
100
AcDbArc
 50
306.5086174083
 51
340.2162360092
  0
ARC
  5
3A5
100
AcDbEntity
  8
0
100
AcDbCircle
 62
7
  6
CONTINUOUS
 10
13.5335900184
 20
2.5587235346
 40
0.0060275915
100
AcDbArc
 50
20.9055592135
 51
56.7851676243
  0
ARC
  5
3A6
100
AcDbEntity
  8
0
100
AcDbCircle
 62
7
  6
CONTINUOUS
 10
13.533683767
 20
2.559677593
 40
0.0058087709
100
AcDbArc
 50
318.8515287446
 51
353.6422345323
  0
ARC
  5
3A7
100
AcDbEntity
  8
0
100
AcDbCircle
 62
7
  6
CONTINUOUS
 10
13.6071938412
 20
2.5209082945
 40
0.0052403997
100
AcDbArc
 50
205.5232099488
 51
227.5054868079
  0
ARC
  5
3A8
100
AcDbEntity
  8
0
100
AcDbCircle
 62
7
  6
CONTINUOUS
 10
13.5348905773
 20
2.5593838168
 40
0.0045795888
100
AcDbArc
 50
355.6235353944
 51
18.9942678268
  0
ARC
  5
3A9
100
AcDbEntity
  8
0
100
AcDbCircle
 62
7
  6
CONTINUOUS
 10
13.6054655419
 20
2.5190929218
 40
0.0027347709
100
AcDbArc
 50
228.5117626737
 51
266.1485845754
  0
ARC
  5
3AA
100
AcDbEntity
  8
0
100
AcDbCircle
 62
7
  6
CONTINUOUS
 10
13.4883447827
 20
2.5281293355
 40
0.0024749995
100
AcDbArc
 50
89.9999571957
 51
180.0000428043
  0
ARC
  5
3AB
100
AcDbEntity
  8
0
100
AcDbCircle
 62
7
  6
CONTINUOUS
 10
13.4883447827
 20
2.5184303265
 40
0.0024749995
100
AcDbArc
 50
179.9999571957
 51
270.0000428043
  0
ARC
  5
3AC
100
AcDbEntity
  8
0
100
AcDbCircle
 62
7
  6
CONTINUOUS
 10
13.5130038
 20
2.5134803274
 40
0.0024749995
100
AcDbArc
 50
359.9999571957
 51
90.0000428043
  0
ARC
  5
3AD
100
AcDbEntity
  8
0
100
AcDbCircle
 62
7
  6
CONTINUOUS
 10
13.3994327333
 20
2.5135023274
 40
0.0024749995
100
AcDbArc
 50
89.9999571957
 51
180.0000428043
  0
ARC
  5
3AE
100
AcDbEntity
  8
0
100
AcDbCircle
 62
7
  6
CONTINUOUS
 10
13.4221787497
 20
2.5184523265
 40
0.0024749995
100
AcDbArc
 50
269.9999571957
 51
0.0000428042
  0
ARC
  5
3AF
100
AcDbEntity
  8
0
100
AcDbCircle
 62
7
  6
CONTINUOUS
 10
13.6171458541
 20
2.5276393353
 40
0.0024749995
100
AcDbArc
 50
89.9999571957
 51
180.0000428043
  0
ARC
  5
3B0
100
AcDbEntity
  8
0
100
AcDbCircle
 62
7
  6
CONTINUOUS
 10
13.6292558645
 20
2.5276393353
 40
0.0024749995
100
AcDbArc
 50
359.9999571957
 51
90.0000428043
  0
ARC
  5
3B1
100
AcDbEntity
  8
0
100
AcDbCircle
 62
7
  6
CONTINUOUS
 10
13.4883447827
 20
2.5520823451
 40
0.0024749995
100
AcDbArc
 50
179.9999571957
 51
270.0000428043
  0
ARC
  5
3B2
100
AcDbEntity
  8
0
100
AcDbCircle
 62
7
  6
CONTINUOUS
 10
13.3232596948
 20
2.5184523265
 40
0.0024749995
100
AcDbArc
 50
269.9999571957
 51
0.0000428043
  0
ARC
  5
3B3
100
AcDbEntity
  8
0
100
AcDbCircle
 62
7
  6
CONTINUOUS
 10
13.3282096938
 20
2.5267023348
 40
0.0024749995
100
AcDbArc
 50
89.9999571957
 51
180.0000428043
  0
ARC
  5
3B4
100
AcDbEntity
  8
0
100
AcDbCircle
 62
7
  6
CONTINUOUS
 10
13.370528721
 20
2.5267023348
 40
0.0024749995
100
AcDbArc
 50
359.9999571957
 51
90.0000428043
  0
ARC
  5
3B5
100
AcDbEntity
  8
0
100
AcDbCircle
 62
7
  6
CONTINUOUS
 10
13.3691097202
 20
2.5565573476
 40
0.0024749995
100
AcDbArc
 50
269.9999571957
 51
0.0000428042
  0
ARC
  5
3B6
100
AcDbEntity
  8
0
100
AcDbCircle
 62
7
  6
CONTINUOUS
 10
13.3272456933
 20
2.5565573476
 40
0.0024749995
100
AcDbArc
 50
179.9999571957
 51
270.0000428043
  0
ARC
  5
3B7
100
AcDbEntity
  8
0
100
AcDbCircle
 62
7
  6
CONTINUOUS
 10
13.2934226783
 20
2.5483073467
 40
0.0024749995
100
AcDbArc
 50
359.9999571957
 51
90.0000428043
  0
ARC
  5
3B8
100
AcDbEntity
  8
0
100
AcDbCircle
 62
7
  6
CONTINUOUS
 10
13.2934226783
 20
2.5349523356
 40
0.0024749995
100
AcDbArc
 50
269.9999571957
 51
0.0000428042
  0
ARC
  5
3B9
100
AcDbEntity
  8
0
100
AcDbCircle
 62
7
  6
CONTINUOUS
 10
13.5519569538
 20
2.6152551345
 40
0.0789082104
100
AcDbArc
 50
292.906155071
 51
305.2574666259
  0
ARC
  5
3BA
100
AcDbEntity
  8
0
100
AcDbCircle
 62
7
  6
CONTINUOUS
 10
13.5822888914
 20
2.5720482849
 40
0.0261183659
100
AcDbArc
 50
305.6373831893
 51
329.9727629745
  0
ARC
  5
3BB
100
AcDbEntity
  8
0
100
AcDbCircle
 62
7
  6
CONTINUOUS
 10
13.5219564542
 20
2.5750459767
 40
0.0254407115
100
AcDbArc
 50
270.7327484175
 51
290.441894219
  0
ARC
  5
3BC
100
AcDbEntity
  8
0
100
AcDbCircle
 62
7
  6
CONTINUOUS
 10
13.5238839599
 20
2.5706523294
 40
0.0206523367
100
AcDbArc
 50
289.6883413472
 51
306.4184925496
  0
ARC
  5
3BD
100
AcDbEntity
  8
0
100
AcDbCircle
 62
7
  6
CONTINUOUS
 10
13.5900029525
 20
2.565201245
 40
0.0165459396
100
AcDbArc
 50
1.548452892
 51
33.5033152417
  0
ARC
  5
3BE
100
AcDbEntity
  8
0
100
AcDbCircle
 62
7
  6
CONTINUOUS
 10
13.5932995477
 20
2.5653696972
 40
0.0132462337
100
AcDbArc
 50
331.1510006998
 51
1.205404301
  0
ARC
  5
3BF
100
AcDbEntity
  8
0
100
AcDbCircle
 62
7
  6
CONTINUOUS
 10
13.4221787497
 20
2.5648073559
 40
0.0024749995
100
AcDbArc
 50
359.9999571957
 51
90.0000428043
  0
ARC
  5
3C0
100
AcDbEntity
  8
0
100
AcDbCircle
 62
7
  6
CONTINUOUS
 10
13.3994327333
 20
2.5697573549
 40
0.0024749995
100
AcDbArc
 50
179.9999571957
 51
270.0000428043
  0
ARC
  5
3C1
100
AcDbEntity
  8
0
100
AcDbCircle
 62
7
  6
CONTINUOUS
 10
13.3994327333
 20
2.5895573696
 40
0.0024749995
100
AcDbArc
 50
89.9999571957
 51
180.0000428043
  0
ARC
  5
3C2
100
AcDbEntity
  8
0
100
AcDbCircle
 62
7
  6
CONTINUOUS
 10
13.4883447827
 20
2.5648073559
 40
0.0024749995
100
AcDbArc
 50
89.9999571957
 51
180.0000428043
  0
ARC
  5
3C3
100
AcDbEntity
  8
0
100
AcDbCircle
 62
7
  6
CONTINUOUS
 10
13.3691097202
 20
2.5895573696
 40
0.0024749995
100
AcDbArc
 50
359.9999571957
 51
90.0000428043
  0
ARC
  5
3C4
100
AcDbEntity
  8
0
100
AcDbCircle
 62
7
  6
CONTINUOUS
 10
13.3222956943
 20
2.5648073559
 40
0.0024749995
100
AcDbArc
 50
359.9999571957
 51
90.0000428043
  0
ELLIPSE
  5
3C5
100
AcDbEntity
  8
0
100
AcDbEllipse
 62
7
  6
CONTINUOUS
 10
12.9046654608
 20
2.5403783405
 30
0.0
 11
-0.8250004575
 21
0.0
 31
0.0
 40
0.218572
 41
0.0
 42
6.2831853072
  0
HATCH
  5
3C6
100
AcDbEntity
  8
0
100
AcDbHatch
 62
7
  6
CONTINUOUS
 10
0.0
 20
0.0
 30
0.0
210
0.0
220
0.0
230
1.0
  2
XSEC0001
 70
1
 71
1
 91
11
 92
1
 93
57
 72
2
 10
13.5577001432
 20
2.5085494649
 40
0.0173408616
 50
232.4713476722
 51
267.338189944
 73
1
 72
2
 10
13.5607987082
 20
2.5143997688
 40
0.0238935861
 50
209.8247607259
 51
235.1255079367
 73
1
 72
2
 10
13.5806801742
 20
2.5212486481
 40
0.044722495
 50
195.531588407
 51
204.7624440448
 73
1
 72
1
 10
13.5375908118
 20
2.5092733232
 11
13.5357868108
 21
2.5153423266
 72
2
 10
13.4974076135
 20
2.5055452462
 40
0.0396099176
 50
14.3201081283
 51
22.4984722084
 73
1
 72
2
 10
13.5201739219
 20
2.5145168728
 40
0.0151491919
 50
24.098260853
 51
63.0369451818
 73
1
 72
2
 10
13.5161192671
 20
2.5062372524
 40
0.0243676582
 50
63.3666028271
 51
90.3937697637
 73
1
 72
1
 10
13.5159517998
 20
2.5306043351
 11
13.4883447845
 21
2.5306043351
 72
2
 10
13.4883447827
 20
2.5281293355
 40
0.0024749995
 50
89.9999571958
 51
180.0000428043
 73
1
 72
1
 10
13.4858697831
 20
2.5281293337
 11
13.4858697831
 21
2.5184303283
 72
2
 10
13.4883447827
 20
2.5184303265
 40
0.0024749995
 50
179.9999571957
 51
270.0000428042
 73
1
 72
1
 10
13.4883447845
 20
2.5159553269
 11
13.5130037982
 21
2.5159553269
 72
2
 10
13.5130038
 20
2.5134803274
 40
0.0024749995
 50
359.9999571957
 51
90.0000428042
 73
1
 72
1
 10
13.5154787995
 20
2.5134803256
 11
13.5154787995
 21
2.4937023146
 72
2
 10
13.5130038
 20
2.4937023128
 40
0.0024749995
 50
269.9999571958
 51
0.0000428043
 73
1
 72
1
 10
13.5130037982
 20
2.4912273132
 11
13.3994327352
 21
2.4912273132
 72
2
 10
13.3994327333
 20
2.4937023128
 40
0.0024749995
 50
179.9999571957
 51
270.0000428043
 73
1
 72
1
 10
13.3969577338
 20
2.4937023146
 11
13.3969577338
 21
2.5135023256
 72
2
 10
13.3994327333
 20
2.5135023274
 40
0.0024749995
 50
89.9999571957
 51
180.0000428043
 73
1
 72
1
 10
13.3994327352
 20
2.515977327
 11
13.4221787478
 21
2.515977327
 72
2
 10
13.4221787497
 20
2.5184523265
 40
0.0024749995
 50
269.9999571956
 51
0.0000428042
 73
1
 72
1
 10
13.4246537492
 20
2.5184523283
 11
13.4246537492
 21
2.564807354
 72
2
 10
13.4221787497
 20
2.5648073559
 40
0.0024749995
 50
359.9999571957
 51
90.0000428043
 73
1
 72
1
 10
13.4221787478
 20
2.5672823554
 11
13.3994327352
 21
2.5672823554
 72
2
 10
13.3994327333
 20
2.5697573549
 40
0.0024749995
 50
179.9999571957
 51
270.0000428043
 73
1
 72
1
 10
13.3969577338
 20
2.5697573568
 11
13.3969577338
 21
2.5895573678
 72
2
 10
13.3994327333
 20
2.5895573696
 40
0.0024749995
 50
89.9999571957
 51
180.0000428043
 73
1
 72
1
 10
13.3994327352
 20
2.5920323691
 11
13.5490138181
 21
2.5920323691
 72
2
 10
13.5463505148
 20
2.4094934586
 40
0.1825583387
 50
79.8618509324
 51
89.1640948679
 73
1
 72
2
 10
13.5726548052
 20
2.5503169747
 40
0.039319019
 50
59.1202086415
 51
81.4730239328
 73
1
 72
2
 10
13.5783142014
 20
2.5566516438
 40
0.0310192946
 50
34.7540871
 51
62.0879016178
 73
1
 72
2
 10
13.5900029525
 20
2.565201245
 40
0.0165459396
 50
1.548452892
 51
33.5033152417
 73
1
 72
2
 10
13.5932995477
 20
2.5653696972
 40
0.0132462337
 50
331.1510006998
 51
1.205404301
 73
1
 72
2
 10
13.5822888914
 20
2.5720482849
 40
0.0261183659
 50
305.6373831893
 51
329.9727629745
 73
1
 72
2
 10
13.5519569538
 20
2.6152551345
 40
0.0789082104
 50
292.906155071
 51
305.2574666259
 73
1
 72
2
 10
13.5282557878
 20
2.4386010294
 40
0.117346916
 50
58.614769177
 51
62.3737227606
 73
1
 72
2
 10
13.5761387404
 20
2.5167282896
 40
0.0257145923
 50
39.3804255939
 51
59.0361096173
 73
1
 72
2
 10
13.5750183849
 20
2.5166552064
 40
0.0266349791
 50
20.3630922153
 51
37.9727053099
 73
1
 72
2
 10
13.5571178432
 20
2.509473798
 40
0.0459185159
 50
15.6740290068
 51
20.9917271228
 73
1
 72
2
 10
13.6156881783
 20
2.525116781
 40
0.0147197649
 50
192.7054516565
 51
206.0594861022
 73
1
 72
2
 10
13.6071938412
 20
2.5209082945
 40
0.0052403997
 50
205.5232099488
 51
227.5054868079
 73
1
 72
2
 10
13.6054655419
 20
2.5190929218
 40
0.0027347709
 50
228.5117626737
 51
266.1485845754
 73
1
 72
1
 10
13.6052818493
 20
2.5163643272
 11
13.60639085
 21
2.5163643272
 72
2
 10
13.6063292954
 20
2.5296129864
 40
0.0132488022
 50
270.266200055
 51
281.2404888597
 73
1
 72
2
 10
13.6075235364
 20
2.5238762928
 40
0.0073895522
 50
280.8288201977
 51
305.0837508495
 73
1
 72
2
 10
13.607924718
 20
2.5230254464
 40
0.0064647042
 50
306.5086174083
 51
340.2162360092
 73
1
 72
2
 10
13.6027235414
 20
2.524769508
 40
0.0119498009
 50
340.7883861657
 51
1.1691452593
 73
1
 72
1
 10
13.6146708546
 20
2.525013332
 11
13.6146708546
 21
2.5276393334
 72
2
 10
13.6171458541
 20
2.5276393353
 40
0.0024749995
 50
89.9999571958
 51
180.0000428043
 73
1
 72
1
 10
13.6171458559
 20
2.5301143348
 11
13.6292558626
 21
2.5301143348
 72
2
 10
13.6292558645
 20
2.5276393353
 40
0.0024749995
 50
359.9999571957
 51
90.0000428042
 73
1
 72
1
 10
13.631730864
 20
2.5276393334
 11
13.631730864
 21
2.516087327
 72
2
 10
13.6141751675
 20
2.5161916447
 40
0.0175560065
 50
332.2279060967
 51
359.6595469939
 73
1
 72
2
 10
13.6048681567
 20
2.5210861501
 40
0.0280715479
 50
308.5071794988
 51
332.2400656899
 73
1
 72
2
 10
13.5978759713
 20
2.5286873679
 40
0.0383802683
 50
288.7656836787
 51
309.6104317088
 73
1
 72
2
 10
13.6036139387
 20
2.5111006186
 40
0.0198837666
 50
271.8586572978
 51
289.4131338543
 73
1
 72
1
 10
13.6042588488
 20
2.4912273132
 11
13.5568948225
 21
2.4912273132
 97
267
330
2BB
330
2BC
330
2BD
330
2BE
330
2BF
330
2C0
330
2C1
330
2C2
330
2C3
330
2C4
330
2C5
330
2C6
330
2C7
330
2C8
330
2C9
330
2CA
330
2CB
330
2CC
330
2CD
330
2CE
330
2CF
330
2D0
330
2D1
330
2D2
330
2D3
330
2D4
330
2D5
330
2D6
330
2D7
330
2D8
330
2D9
330
2DA
330
2DB
330
2DC
330
2DD
330
2DE
330
2DF
330
2E0
330
2E1
330
2E2
330
2E3
330
2E4
330
2E5
330
2E6
330
2E7
330
2E8
330
2E9
330
2EA
330
2EB
330
2EC
330
2ED
330
2EE
330
2EF
330
2F0
330
2F1
330
2F2
330
2F3
330
2F4
330
2F5
330
2F6
330
2F7
330
2F8
330
2F9
330
2FA
330
2FB
330
2FC
330
2FD
330
2FE
330
2FF
330
300
330
301
330
302
330
303
330
304
330
305
330
306
330
307
330
308
330
309
330
30A
330
30B
330
30C
330
30D
330
30E
330
30F
330
310
330
311
330
312
330
313
330
314
330
315
330
316
330
317
330
318
330
319
330
31A
330
31B
330
31C
330
31D
330
31E
330
31F
330
320
330
321
330
322
330
323
330
324
330
325
330
326
330
327
330
328
330
329
330
32A
330
32B
330
32C
330
32D
330
32E
330
32F
330
330
330
331
330
332
330
333
330
334
330
335
330
336
330
337
330
338
330
339
330
33A
330
33B
330
33C
330
33D
330
33E
330
33F
330
340
330
341
330
342
330
343
330
344
330
345
330
346
330
347
330
348
330
349
330
34A
330
34B
330
34C
330
34D
330
34E
330
34F
330
350
330
351
330
352
330
353
330
354
330
355
330
356
330
357
330
358
330
359
330
35A
330
35B
330
35C
330
35D
330
35E
330
35F
330
360
330
361
330
362
330
363
330
364
330
365
330
366
330
367
330
368
330
369
330
36A
330
36B
330
36C
330
36D
330
36E
330
36F
330
370
330
371
330
372
330
373
330
374
330
375
330
376
330
377
330
378
330
379
330
37A
330
37B
330
37C
330
37D
330
37E
330
37F
330
380
330
381
330
382
330
383
330
384
330
385
330
386
330
387
330
388
330
389
330
38A
330
38B
330
38C
330
38D
330
38E
330
38F
330
390
330
391
330
392
330
393
330
394
330
395
330
396
330
397
330
398
330
399
330
39A
330
39B
330
39C
330
39D
330
39E
330
39F
330
3A0
330
3A1
330
3A2
330
3A3
330
3A4
330
3A5
330
3A6
330
3A7
330
3A8
330
3A9
330
3AA
330
3AB
330
3AC
330
3AD
330
3AE
330
3AF
330
3B0
330
3B1
330
3B2
330
3B3
330
3B4
330
3B5
330
3B6
330
3B7
330
3B8
330
3B9
330
3BA
330
3BB
330
3BC
330
3BD
330
3BE
330
3BF
330
3C0
330
3C1
330
3C2
330
3C3
330
3C4
330
3C5
 92
1
 93
40
 72
2
 10
13.1673166046
 20
2.4937023128
 40
0.0024749995
 50
179.9999571957
 51
270.0000428042
 73
1
 72
1
 10
13.1648416051
 20
2.4937023146
 11
13.1648416051
 21
2.5135023256
 72
2
 10
13.1673166046
 20
2.5135023274
 40
0.0024749995
 50
89.9999571958
 51
180.0000428043
 73
1
 72
1
 10
13.1673166065
 20
2.515977327
 11
13.1912396197
 21
2.515977327
 72
2
 10
13.1912396216
 20
2.5184523265
 40
0.0024749995
 50
269.9999571956
 51
0.0000428042
 73
1
 72
1
 10
13.1937146211
 20
2.5184523283
 11
13.1937146211
 21
2.564807354
 72
2
 10
13.1912396216
 20
2.5648073559
 40
0.0024749995
 50
359.9999571957
 51
90.0000428043
 73
1
 72
1
 10
13.1912396197
 20
2.5672823554
 11
13.1673166065
 21
2.5672823554
 72
2
 10
13.1673166046
 20
2.5697573549
 40
0.0024749995
 50
179.9999571957
 51
270.0000428043
 73
1
 72
1
 10
13.1648416051
 20
2.5697573568
 11
13.1648416051
 21
2.5895573678
 72
2
 10
13.1673166046
 20
2.5895573696
 40
0.0024749995
 50
89.9999571958
 51
180.0000428043
 73
1
 72
1
 10
13.1673166065
 20
2.5920323691
 11
13.3691097184
 21
2.5920323691
 72
2
 10
13.3691097202
 20
2.5895573696
 40
0.0024749995
 50
359.9999571957
 51
90.0000428042
 73
1
 72
1
 10
13.3715847197
 20
2.5895573678
 11
13.3715847197
 21
2.5565573495
 72
2
 10
13.3691097202
 20
2.5565573476
 40
0.0024749995
 50
269.9999571956
 51
0.0000428042
 73
1
 72
1
 10
13.3691097184
 20
2.5540823481
 11
13.3272456952
 21
2.5540823481
 72
2
 10
13.3272456933
 20
2.5565573476
 40
0.0024749995
 50
179.9999571957
 51
270.0000428043
 73
1
 72
1
 10
13.3247706938
 20
2.5565573495
 11
13.3247706938
 21
2.564807354
 72
2
 10
13.3222956943
 20
2.5648073559
 40
0.0024749995
 50
359.9999571957
 51
90.0000428043
 73
1
 72
1
 10
13.3222956924
 20
2.5672823554
 11
13.2582556569
 21
2.5672823554
 72
2
 10
13.2582556551
 20
2.5648073559
 40
0.0024749995
 50
89.9999571957
 51
180.0000428043
 73
1
 72
1
 10
13.2557806555
 20
2.564807354
 11
13.2557806555
 21
2.5532573476
 72
2
 10
13.2582556551
 20
2.5532573458
 40
0.0024749995
 50
179.9999571957
 51
270.0000428042
 73
1
 72
1
 10
13.2582556569
 20
2.5507823463
 11
13.2934226764
 21
2.5507823463
 72
2
 10
13.2934226783
 20
2.5483073467
 40
0.0024749995
 50
359.9999571957
 51
90.0000428042
 73
1
 72
1
 10
13.2958976778
 20
2.5483073449
 11
13.2958976778
 21
2.5349523375
 72
2
 10
13.2934226783
 20
2.5349523356
 40
0.0024749995
 50
269.9999571956
 51
0.0000428042
 73
1
 72
1
 10
13.2934226764
 20
2.5324773361
 11
13.2582556569
 21
2.5324773361
 72
2
 10
13.2582556551
 20
2.5300023366
 40
0.0024749995
 50
89.9999571957
 51
180.0000428043
 73
1
 72
1
 10
13.2557806555
 20
2.5300023347
 11
13.2557806555
 21
2.5184523283
 72
2
 10
13.2582556551
 20
2.5184523265
 40
0.0024749995
 50
179.9999571957
 51
270.0000428043
 73
1
 72
1
 10
13.2582556569
 20
2.515977327
 11
13.3232596929
 21
2.515977327
 72
2
 10
13.3232596948
 20
2.5184523265
 40
0.0024749995
 50
269.9999571958
 51
0.0000428043
 73
1
 72
1
 10
13.3257346943
 20
2.5184523283
 11
13.3257346943
 21
2.5267023329
 72
2
 10
13.3282096938
 20
2.5267023348
 40
0.0024749995
 50
89.9999571957
 51
180.0000428043
 73
1
 72
1
 10
13.3282096957
 20
2.5291773343
 11
13.3705287192
 21
2.5291773343
 72
2
 10
13.370528721
 20
2.5267023348
 40
0.0024749995
 50
359.9999571957
 51
90.0000428043
 73
1
 72
1
 10
13.3730037205
 20
2.5267023329
 11
13.3730037205
 21
2.4937023146
 72
2
 10
13.370528721
 20
2.4937023128
 40
0.0024749995
 50
269.9999571957
 51
0.0000428043
 73
1
 72
1
 10
13.3705287192
 20
2.4912273132
 11
13.1673166065
 21
2.4912273132
 97
267
330
2BB
330
2BC
330
2BD
330
2BE
330
2BF
330
2C0
330
2C1
330
2C2
330
2C3
330
2C4
330
2C5
330
2C6
330
2C7
330
2C8
330
2C9
330
2CA
330
2CB
330
2CC
330
2CD
330
2CE
330
2CF
330
2D0
330
2D1
330
2D2
330
2D3
330
2D4
330
2D5
330
2D6
330
2D7
330
2D8
330
2D9
330
2DA
330
2DB
330
2DC
330
2DD
330
2DE
330
2DF
330
2E0
330
2E1
330
2E2
330
2E3
330
2E4
330
2E5
330
2E6
330
2E7
330
2E8
330
2E9
330
2EA
330
2EB
330
2EC
330
2ED
330
2EE
330
2EF
330
2F0
330
2F1
330
2F2
330
2F3
330
2F4
330
2F5
330
2F6
330
2F7
330
2F8
330
2F9
330
2FA
330
2FB
330
2FC
330
2FD
330
2FE
330
2FF
330
300
330
301
330
302
330
303
330
304
330
305
330
306
330
307
330
308
330
309
330
30A
330
30B
330
30C
330
30D
330
30E
330
30F
330
310
330
311
330
312
330
313
330
314
330
315
330
316
330
317
330
318
330
319
330
31A
330
31B
330
31C
330
31D
330
31E
330
31F
330
320
330
321
330
322
330
323
330
324
330
325
330
326
330
327
330
328
330
329
330
32A
330
32B
330
32C
330
32D
330
32E
330
32F
330
330
330
331
330
332
330
333
330
334
330
335
330
336
330
337
330
338
330
339
330
33A
330
33B
330
33C
330
33D
330
33E
330
33F
330
340
330
341
330
342
330
343
330
344
330
345
330
346
330
347
330
348
330
349
330
34A
330
34B
330
34C
330
34D
330
34E
330
34F
330
350
330
351
330
352
330
353
330
354
330
355
330
356
330
357
330
358
330
359
330
35A
330
35B
330
35C
330
35D
330
35E
330
35F
330
360
330
361
330
362
330
363
330
364
330
365
330
366
330
367
330
368
330
369
330
36A
330
36B
330
36C
330
36D
330
36E
330
36F
330
370
330
371
330
372
330
373
330
374
330
375
330
376
330
377
330
378
330
379
330
37A
330
37B
330
37C
330
37D
330
37E
330
37F
330
380
330
381
330
382
330
383
330
384
330
385
330
386
330
387
330
388
330
389
330
38A
330
38B
330
38C
330
38D
330
38E
330
38F
330
390
330
391
330
392
330
393
330
394
330
395
330
396
330
397
330
398
330
399
330
39A
330
39B
330
39C
330
39D
330
39E
330
39F
330
3A0
330
3A1
330
3A2
330
3A3
330
3A4
330
3A5
330
3A6
330
3A7
330
3A8
330
3A9
330
3AA
330
3AB
330
3AC
330
3AD
330
3AE
330
3AF
330
3B0
330
3B1
330
3B2
330
3B3
330
3B4
330
3B5
330
3B6
330
3B7
330
3B8
330
3B9
330
3BA
330
3BB
330
3BC
330
3BD
330
3BE
330
3BF
330
3C0
330
3C1
330
3C2
330
3C3
330
3C4
330
3C5
 92
1
 93
40
 72
2
 10
13.0426374026
 20
2.493701481
 40
0.0024741678
 50
226.3477981898
 51
270.0031206038
 73
1
 72
1
 10
13.0409295364
 20
2.4919113136
 11
12.9776495013
 21
2.5522893471
 72
2
 10
12.9759408003
 20
2.5504984093
 40
0.0024753014
 50
46.3461263059
 51
180.0014637321
 73
1
 72
1
 10
12.973465499
 20
2.5504983461
 11
12.973465499
 21
2.5184523283
 72
2
 10
12.9759404985
 20
2.5184523265
 40
0.0024749995
 50
179.9999571957
 51
270.0000428043
 73
1
 72
1
 10
12.9759405003
 20
2.515977327
 11
12.9962575116
 21
2.515977327
 72
2
 10
12.9962575135
 20
2.5135023274
 40
0.0024749995
 50
359.9999571957
 51
90.0000428043
 73
1
 72
1
 10
12.998732513
 20
2.5135023256
 11
12.998732513
 21
2.4937023146
 72
2
 10
12.9962575135
 20
2.4937023128
 40
0.0024749995
 50
269.9999571957
 51
0.0000428043
 73
1
 72
1
 10
12.9962575116
 20
2.4912273132
 11
12.9205934696
 21
2.4912273132
 72
2
 10
12.9205934678
 20
2.4937023128
 40
0.0024749995
 50
179.9999571957
 51
270.0000428043
 73
1
 72
1
 10
12.9181184683
 20
2.4937023146
 11
12.9181184683
 21
2.5135023256
 72
2
 10
12.9205934678
 20
2.5135023274
 40
0.0024749995
 50
89.9999571956
 51
180.0000428042
 73
1
 72
1
 10
12.9205934696
 20
2.515977327
 11
12.93923948
 21
2.515977327
 72
2
 10
12.9392394818
 20
2.5184523265
 40
0.0024749995
 50
269.9999571957
 51
0.0000428043
 73
1
 72
1
 10
12.9417144814
 20
2.5184523283
 11
12.9417144814
 21
2.564807354
 72
2
 10
12.9392394818
 20
2.5648073559
 40
0.0024749995
 50
359.9999571957
 51
90.0000428043
 73
1
 72
1
 10
12.93923948
 20
2.5672823554
 11
12.9205934696
 21
2.5672823554
 72
2
 10
12.9205934678
 20
2.5697573549
 40
0.0024749995
 50
179.9999571957
 51
270.0000428043
 73
1
 72
1
 10
12.9181184683
 20
2.5697573568
 11
12.9181184683
 21
2.5895573678
 72
2
 10
12.9205934678
 20
2.5895573696
 40
0.0024749995
 50
89.9999571956
 51
180.0000428042
 73
1
 72
1
 10
12.9205934696
 20
2.5920323691
 11
13.0210515254
 21
2.5920323691
 72
2
 10
13.0210516601
 20
2.5895582013
 40
0.0024741678
 50
46.3477981898
 51
90.0031206038
 73
1
 72
1
 10
13.0227595263
 20
2.5913483688
 11
13.0827925596
 21
2.534068337
 72
2
 10
13.0845012605
 20
2.5358592748
 40
0.0024753014
 50
226.3461263059
 51
0.0014637321
 73
1
 72
1
 10
13.0869765619
 20
2.535859338
 11
13.0869765619
 21
2.564807354
 72
2
 10
13.0845015624
 20
2.5648073559
 40
0.0024749995
 50
359.9999571957
 51
90.0000428043
 73
1
 72
1
 10
13.0845015605
 20
2.5672823554
 11
13.0657255501
 21
2.5672823554
 72
2
 10
13.0657255483
 20
2.5697573549
 40
0.0024749995
 50
179.9999571957
 51
270.0000428043
 73
1
 72
1
 10
13.0632505488
 20
2.5697573568
 11
13.0632505488
 21
2.5895573678
 72
2
 10
13.0657255483
 20
2.5895573696
 40
0.0024749995
 50
89.9999571957
 51
180.0000428043
 73
1
 72
1
 10
13.0657255501
 20
2.5920323691
 11
13.1397265912
 21
2.5920323691
 72
2
 10
13.139726593
 20
2.5895573696
 40
0.0024749995
 50
359.9999571957
 51
90.0000428043
 73
1
 72
1
 10
13.1422015925
 20
2.5895573678
 11
13.1422015925
 21
2.5697573568
 72
2
 10
13.139726593
 20
2.5697573549
 40
0.0024749995
 50
269.9999571956
 51
0.0000428042
 73
1
 72
1
 10
13.1397265912
 20
2.5672823554
 11
13.1217935812
 21
2.5672823554
 72
2
 10
13.1217935794
 20
2.5648073559
 40
0.0024749995
 50
89.9999571957
 51
180.0000428042
 73
1
 72
1
 10
13.1193185799
 20
2.564807354
 11
13.1193185799
 21
2.4937023146
 72
2
 10
13.1168435803
 20
2.4937023128
 40
0.0024749995
 50
269.9999571957
 51
0.0000428043
 73
1
 72
1
 10
13.1168435785
 20
2.4912273132
 11
13.0426375373
 21
2.4912273132
 97
267
330
2BB
330
2BC
330
2BD
330
2BE
330
2BF
330
2C0
330
2C1
330
2C2
330
2C3
330
2C4
330
2C5
330
2C6
330
2C7
330
2C8
330
2C9
330
2CA
330
2CB
330
2CC
330
2CD
330
2CE
330
2CF
330
2D0
330
2D1
330
2D2
330
2D3
330
2D4
330
2D5
330
2D6
330
2D7
330
2D8
330
2D9
330
2DA
330
2DB
330
2DC
330
2DD
330
2DE
330
2DF
330
2E0
330
2E1
330
2E2
330
2E3
330
2E4
330
2E5
330
2E6
330
2E7
330
2E8
330
2E9
330
2EA
330
2EB
330
2EC
330
2ED
330
2EE
330
2EF
330
2F0
330
2F1
330
2F2
330
2F3
330
2F4
330
2F5
330
2F6
330
2F7
330
2F8
330
2F9
330
2FA
330
2FB
330
2FC
330
2FD
330
2FE
330
2FF
330
300
330
301
330
302
330
303
330
304
330
305
330
306
330
307
330
308
330
309
330
30A
330
30B
330
30C
330
30D
330
30E
330
30F
330
310
330
311
330
312
330
313
330
314
330
315
330
316
330
317
330
318
330
319
330
31A
330
31B
330
31C
330
31D
330
31E
330
31F
330
320
330
321
330
322
330
323
330
324
330
325
330
326
330
327
330
328
330
329
330
32A
330
32B
330
32C
330
32D
330
32E
330
32F
330
330
330
331
330
332
330
333
330
334
330
335
330
336
330
337
330
338
330
339
330
33A
330
33B
330
33C
330
33D
330
33E
330
33F
330
340
330
341
330
342
330
343
330
344
330
345
330
346
330
347
330
348
330
349
330
34A
330
34B
330
34C
330
34D
330
34E
330
34F
330
350
330
351
330
352
330
353
330
354
330
355
330
356
330
357
330
358
330
359
330
35A
330
35B
330
35C
330
35D
330
35E
330
35F
330
360
330
361
330
362
330
363
330
364
330
365
330
366
330
367
330
368
330
369
330
36A
330
36B
330
36C
330
36D
330
36E
330
36F
330
370
330
371
330
372
330
373
330
374
330
375
330
376
330
377
330
378
330
379
330
37A
330
37B
330
37C
330
37D
330
37E
330
37F
330
380
330
381
330
382
330
383
330
384
330
385
330
386
330
387
330
388
330
389
330
38A
330
38B
330
38C
330
38D
330
38E
330
38F
330
390
330
391
330
392
330
393
330
394
330
395
330
396
330
397
330
398
330
399
330
39A
330
39B
330
39C
330
39D
330
39E
330
39F
330
3A0
330
3A1
330
3A2
330
3A3
330
3A4
330
3A5
330
3A6
330
3A7
330
3A8
330
3A9
330
3AA
330
3AB
330
3AC
330
3AD
330
3AE
330
3AF
330
3B0
330
3B1
330
3B2
330
3B3
330
3B4
330
3B5
330
3B6
330
3B7
330
3B8
330
3B9
330
3BA
330
3BB
330
3BC
330
3BD
330
3BE
330
3BF
330
3C0
330
3C1
330
3C2
330
3C3
330
3C4
330
3C5
 92
1
 93
40
 72
2
 10
12.7943847649
 20
2.4937027294
 40
0.0024754162
 50
226.3593695813
 51
270.0146919953
 73
1
 72
1
 10
12.7926763987
 20
2.4919113136
 11
12.7293963636
 21
2.5522893471
 72
2
 10
12.7276876627
 20
2.5504984093
 40
0.0024753014
 50
46.3461263059
 51
180.0014637321
 73
1
 72
1
 10
12.7252123613
 20
2.5504983461
 11
12.7252123613
 21
2.5184523283
 72
2
 10
12.7276873608
 20
2.5184523265
 40
0.0024749995
 50
179.9999571957
 51
270.0000428043
 73
1
 72
1
 10
12.7276873627
 20
2.515977327
 11
12.7480043739
 21
2.515977327
 72
2
 10
12.7480043758
 20
2.5135023274
 40
0.0024749995
 50
359.9999571957
 51
90.0000428043
 73
1
 72
1
 10
12.7504793753
 20
2.5135023256
 11
12.7504793753
 21
2.4937023146
 72
2
 10
12.7480043758
 20
2.4937023128
 40
0.0024749995
 50
269.9999571958
 51
0.0000428043
 73
1
 72
1
 10
12.7480043739
 20
2.4912273132
 11
12.672340332
 21
2.4912273132
 72
2
 10
12.6723403301
 20
2.4937023128
 40
0.0024749995
 50
179.9999571957
 51
270.0000428042
 73
1
 72
1
 10
12.6698653306
 20
2.4937023146
 11
12.6698653306
 21
2.5135023256
 72
2
 10
12.6723403301
 20
2.5135023274
 40
0.0024749995
 50
89.9999571957
 51
180.0000428043
 73
1
 72
1
 10
12.672340332
 20
2.515977327
 11
12.6909873423
 21
2.515977327
 72
2
 10
12.6909873442
 20
2.5184523265
 40
0.0024749995
 50
269.9999571957
 51
0.0000428043
 73
1
 72
1
 10
12.6934623437
 20
2.5184523283
 11
12.6934623437
 21
2.564807354
 72
2
 10
12.6909873442
 20
2.5648073559
 40
0.0024749995
 50
359.9999571957
 51
90.0000428043
 73
1
 72
1
 10
12.6909873423
 20
2.5672823554
 11
12.672340332
 21
2.5672823554
 72
2
 10
12.6723403301
 20
2.5697573549
 40
0.0024749995
 50
179.9999571957
 51
270.0000428043
 73
1
 72
1
 10
12.6698653306
 20
2.5697573568
 11
12.6698653306
 21
2.5895573678
 72
2
 10
12.6723403301
 20
2.5895573696
 40
0.0024749995
 50
89.9999571957
 51
180.0000428043
 73
1
 72
1
 10
12.672340332
 20
2.5920323691
 11
12.7727983877
 21
2.5920323691
 72
2
 10
12.7727985224
 20
2.5895582013
 40
0.0024741678
 50
46.3477981899
 51
90.0031206038
 73
1
 72
1
 10
12.7745063886
 20
2.5913483688
 11
12.8345394219
 21
2.534068337
 72
2
 10
12.8362481229
 20
2.5358592748
 40
0.0024753014
 50
226.3461263059
 51
0.0014637321
 73
1
 72
1
 10
12.8387234242
 20
2.535859338
 11
12.8387234242
 21
2.564807354
 72
2
 10
12.8362484247
 20
2.5648073559
 40
0.0024749995
 50
359.9999571957
 51
90.0000428043
 73
1
 72
1
 10
12.8362484229
 20
2.5672823554
 11
12.8174724125
 21
2.5672823554
 72
2
 10
12.8174724106
 20
2.5697573549
 40
0.0024749995
 50
179.9999571957
 51
270.0000428043
 73
1
 72
1
 10
12.8149974111
 20
2.5697573568
 11
12.8149974111
 21
2.5895573678
 72
2
 10
12.8174724106
 20
2.5895573696
 40
0.0024749995
 50
89.9999571958
 51
180.0000428043
 73
1
 72
1
 10
12.8174724125
 20
2.5920323691
 11
12.8914734535
 21
2.5920323691
 72
2
 10
12.8914734553
 20
2.5895573696
 40
0.0024749995
 50
359.9999571957
 51
90.0000428042
 73
1
 72
1
 10
12.8939484549
 20
2.5895573678
 11
12.8939484549
 21
2.5697573568
 72
2
 10
12.8914734553
 20
2.5697573549
 40
0.0024749995
 50
269.9999571958
 51
0.0000428043
 73
1
 72
1
 10
12.8914734535
 20
2.5672823554
 11
12.8735404436
 21
2.5672823554
 72
2
 10
12.8735404417
 20
2.5648073559
 40
0.0024749995
 50
89.9999571957
 51
180.0000428043
 73
1
 72
1
 10
12.8710654422
 20
2.564807354
 11
12.8710654422
 21
2.4937023146
 72
2
 10
12.8685904427
 20
2.4937023128
 40
0.0024749995
 50
269.9999571957
 51
0.0000428043
 73
1
 72
1
 10
12.8685904408
 20
2.4912273132
 11
12.7943853997
 21
2.4912273132
 97
267
330
2BB
330
2BC
330
2BD
330
2BE
330
2BF
330
2C0
330
2C1
330
2C2
330
2C3
330
2C4
330
2C5
330
2C6
330
2C7
330
2C8
330
2C9
330
2CA
330
2CB
330
2CC
330
2CD
330
2CE
330
2CF
330
2D0
330
2D1
330
2D2
330
2D3
330
2D4
330
2D5
330
2D6
330
2D7
330
2D8
330
2D9
330
2DA
330
2DB
330
2DC
330
2DD
330
2DE
330
2DF
330
2E0
330
2E1
330
2E2
330
2E3
330
2E4
330
2E5
330
2E6
330
2E7
330
2E8
330
2E9
330
2EA
330
2EB
330
2EC
330
2ED
330
2EE
330
2EF
330
2F0
330
2F1
330
2F2
330
2F3
330
2F4
330
2F5
330
2F6
330
2F7
330
2F8
330
2F9
330
2FA
330
2FB
330
2FC
330
2FD
330
2FE
330
2FF
330
300
330
301
330
302
330
303
330
304
330
305
330
306
330
307
330
308
330
309
330
30A
330
30B
330
30C
330
30D
330
30E
330
30F
330
310
330
311
330
312
330
313
330
314
330
315
330
316
330
317
330
318
330
319
330
31A
330
31B
330
31C
330
31D
330
31E
330
31F
330
320
330
321
330
322
330
323
330
324
330
325
330
326
330
327
330
328
330
329
330
32A
330
32B
330
32C
330
32D
330
32E
330
32F
330
330
330
331
330
332
330
333
330
334
330
335
330
336
330
337
330
338
330
339
330
33A
330
33B
330
33C
330
33D
330
33E
330
33F
330
340
330
341
330
342
330
343
330
344
330
345
330
346
330
347
330
348
330
349
330
34A
330
34B
330
34C
330
34D
330
34E
330
34F
330
350
330
351
330
352
330
353
330
354
330
355
330
356
330
357
330
358
330
359
330
35A
330
35B
330
35C
330
35D
330
35E
330
35F
330
360
330
361
330
362
330
363
330
364
330
365
330
366
330
367
330
368
330
369
330
36A
330
36B
330
36C
330
36D
330
36E
330
36F
330
370
330
371
330
372
330
373
330
374
330
375
330
376
330
377
330
378
330
379
330
37A
330
37B
330
37C
330
37D
330
37E
330
37F
330
380
330
381
330
382
330
383
330
384
330
385
330
386
330
387
330
388
330
389
330
38A
330
38B
330
38C
330
38D
330
38E
330
38F
330
390
330
391
330
392
330
393
330
394
330
395
330
396
330
397
330
398
330
399
330
39A
330
39B
330
39C
330
39D
330
39E
330
39F
330
3A0
330
3A1
330
3A2
330
3A3
330
3A4
330
3A5
330
3A6
330
3A7
330
3A8
330
3A9
330
3AA
330
3AB
330
3AC
330
3AD
330
3AE
330
3AF
330
3B0
330
3B1
330
3B2
330
3B3
330
3B4
330
3B5
330
3B6
330
3B7
330
3B8
330
3B9
330
3BA
330
3BB
330
3BC
330
3BD
330
3BE
330
3BF
330
3C0
330
3C1
330
3C2
330
3C3
330
3C4
330
3C5
 92
1
 93
23
 72
2
 10
12.3792298263
 20
2.539634765
 40
0.048483885
 50
273.21763719
 51
303.0749121182
 73
1
 72
2
 10
12.3940692204
 20
2.5168671561
 40
0.0213072145
 50
303.0488228549
 51
355.7263138674
 73
1
 72
2
 10
12.400005721
 20
2.5168763464
 40
0.0153945295
 50
354.0454548824
 51
5.1878013979
 73
1
 72
2
 10
12.3931760319
 20
2.5166878286
 40
0.0222174455
 50
4.0793399388
 51
69.834329283
 73
1
 72
1
 10
12.4008351814
 20
2.5375433389
 11
12.3907841758
 21
2.5410923409
 72
1
 10
12.3907841758
 20
2.5410923409
 11
12.3990241804
 21
2.5458683435
 72
2
 10
12.3771587979
 20
2.5826952352
 40
0.0428289026
 50
300.6990502959
 51
319.0591802498
 73
1
 72
2
 10
12.3971873948
 20
2.5665668817
 40
0.0171568255
 50
315.9145124245
 51
16.0049121282
 73
1
 72
2
 10
12.3922357827
 20
2.5632132173
 40
0.0229166529
 50
20.6563876465
 51
62.3316896973
 73
1
 72
2
 10
12.371573659
 20
2.5302846524
 40
0.061747717
 50
59.5385584989
 51
90.0050977555
 73
1
 72
1
 10
12.3715681652
 20
2.5920323691
 11
12.2055050731
 21
2.5920323691
 72
2
 10
12.2055050712
 20
2.5895573696
 40
0.0024749995
 50
89.9999571957
 51
180.0000428043
 73
1
 72
1
 10
12.2030300717
 20
2.5895573678
 11
12.2030300717
 21
2.5697573568
 72
2
 10
12.2055050712
 20
2.5697573549
 40
0.0024749995
 50
179.9999571957
 51
270.0000428043
 73
1
 72
1
 10
12.2055050731
 20
2.5672823554
 11
12.2294470864
 21
2.5672823554
 72
2
 10
12.2294470882
 20
2.5648073559
 40
0.0024749995
 50
359.9999571957
 51
90.0000428043
 73
1
 72
1
 10
12.2319220877
 20
2.564807354
 11
12.2319220877
 21
2.5184523283
 72
2
 10
12.2294470882
 20
2.5184523265
 40
0.0024749995
 50
269.9999571957
 51
0.0000428043
 73
1
 72
1
 10
12.2294470864
 20
2.515977327
 11
12.2055050731
 21
2.515977327
 72
2
 10
12.2055050712
 20
2.5135023274
 40
0.0024749995
 50
89.9999571957
 51
180.0000428043
 73
1
 72
1
 10
12.2030300717
 20
2.5135023256
 11
12.2030300717
 21
2.4937023146
 72
2
 10
12.2055050712
 20
2.4937023128
 40
0.0024749995
 50
179.9999571957
 51
270.0000428043
 73
1
 72
1
 10
12.2055050731
 20
2.4912273132
 11
12.3819511709
 21
2.4912273132
 97
267
330
2BB
330
2BC
330
2BD
330
2BE
330
2BF
330
2C0
330
2C1
330
2C2
330
2C3
330
2C4
330
2C5
330
2C6
330
2C7
330
2C8
330
2C9
330
2CA
330
2CB
330
2CC
330
2CD
330
2CE
330
2CF
330
2D0
330
2D1
330
2D2
330
2D3
330
2D4
330
2D5
330
2D6
330
2D7
330
2D8
330
2D9
330
2DA
330
2DB
330
2DC
330
2DD
330
2DE
330
2DF
330
2E0
330
2E1
330
2E2
330
2E3
330
2E4
330
2E5
330
2E6
330
2E7
330
2E8
330
2E9
330
2EA
330
2EB
330
2EC
330
2ED
330
2EE
330
2EF
330
2F0
330
2F1
330
2F2
330
2F3
330
2F4
330
2F5
330
2F6
330
2F7
330
2F8
330
2F9
330
2FA
330
2FB
330
2FC
330
2FD
330
2FE
330
2FF
330
300
330
301
330
302
330
303
330
304
330
305
330
306
330
307
330
308
330
309
330
30A
330
30B
330
30C
330
30D
330
30E
330
30F
330
310
330
311
330
312
330
313
330
314
330
315
330
316
330
317
330
318
330
319
330
31A
330
31B
330
31C
330
31D
330
31E
330
31F
330
320
330
321
330
322
330
323
330
324
330
325
330
326
330
327
330
328
330
329
330
32A
330
32B
330
32C
330
32D
330
32E
330
32F
330
330
330
331
330
332
330
333
330
334
330
335
330
336
330
337
330
338
330
339
330
33A
330
33B
330
33C
330
33D
330
33E
330
33F
330
340
330
341
330
342
330
343
330
344
330
345
330
346
330
347
330
348
330
349
330
34A
330
34B
330
34C
330
34D
330
34E
330
34F
330
350
330
351
330
352
330
353
330
354
330
355
330
356
330
357
330
358
330
359
330
35A
330
35B
330
35C
330
35D
330
35E
330
35F
330
360
330
361
330
362
330
363
330
364
330
365
330
366
330
367
330
368
330
369
330
36A
330
36B
330
36C
330
36D
330
36E
330
36F
330
370
330
371
330
372
330
373
330
374
330
375
330
376
330
377
330
378
330
379
330
37A
330
37B
330
37C
330
37D
330
37E
330
37F
330
380
330
381
330
382
330
383
330
384
330
385
330
386
330
387
330
388
330
389
330
38A
330
38B
330
38C
330
38D
330
38E
330
38F
330
390
330
391
330
392
330
393
330
394
330
395
330
396
330
397
330
398
330
399
330
39A
330
39B
330
39C
330
39D
330
39E
330
39F
330
3A0
330
3A1
330
3A2
330
3A3
330
3A4
330
3A5
330
3A6
330
3A7
330
3A8
330
3A9
330
3AA
330
3AB
330
3AC
330
3AD
330
3AE
330
3AF
330
3B0
330
3B1
330
3B2
330
3B3
330
3B4
330
3B5
330
3B6
330
3B7
330
3B8
330
3B9
330
3BA
330
3BB
330
3BC
330
3BD
330
3BE
330
3BF
330
3C0
330
3C1
330
3C2
330
3C3
330
3C4
330
3C5
 92
1
 93
32
 72
2
 10
12.5168642476
 20
2.4937023128
 40
0.0024749995
 50
269.9999571957
 51
0.0000428043
 73
1
 72
1
 10
12.5193392471
 20
2.4937023146
 11
12.5193392471
 21
2.5135023256
 72
2
 10
12.5168642476
 20
2.5135023274
 40
0.0024749995
 50
359.9999571957
 51
90.0000428043
 73
1
 72
1
 10
12.5168642458
 20
2.515977327
 11
12.5055812395
 21
2.515977327
 72
2
 10
12.5055811302
 20
2.518452367
 40
0.0024750401
 50
147.6063258011
 51
270.0025305754
 73
1
 72
1
 10
12.5034912383
 20
2.5197783291
 11
12.5090072414
 21
2.5284723339
 72
2
 10
12.5110971723
 20
2.5271461342
 40
0.0024752003
 50
89.998372645
 51
147.602165307
 73
1
 72
1
 10
12.5110972426
 20
2.5296213345
 11
12.5459752619
 21
2.5296213345
 72
2
 10
12.5459747223
 20
2.5271458744
 40
0.0024754602
 50
32.8959418573
 51
89.9875097202
 73
1
 72
1
 10
12.548053263
 20
2.5284903339
 11
12.5536792662
 21
2.5197973291
 72
2
 10
12.5516012439
 20
2.5184525341
 40
0.0024752071
 50
270.0004896794
 51
32.9089806818
 73
1
 72
1
 10
12.551601265
 20
2.515977327
 11
12.537150257
 21
2.515977327
 72
2
 10
12.5371502552
 20
2.5135023274
 40
0.0024749995
 50
89.9999571958
 51
180.0000428043
 73
1
 72
1
 10
12.5346752556
 20
2.5135023256
 11
12.5346752556
 21
2.4937023146
 72
2
 10
12.5371502552
 20
2.4937023128
 40
0.0024749995
 50
179.9999571957
 51
270.0000428042
 73
1
 72
1
 10
12.537150257
 20
2.4912273132
 11
12.6424313154
 21
2.4912273132
 72
2
 10
12.6424313172
 20
2.4937023128
 40
0.0024749995
 50
269.9999571957
 51
0.0000428043
 73
1
 72
1
 10
12.6449063168
 20
2.4937023146
 11
12.6449063168
 21
2.5135023256
 72
2
 10
12.6424313172
 20
2.5135023274
 40
0.0024749995
 50
359.9999571957
 51
90.0000428043
 73
1
 72
1
 10
12.6424313154
 20
2.515977327
 11
12.6224153043
 21
2.515977327
 72
2
 10
12.6224154248
 20
2.518451368
 40
0.002474041
 50
212.9056413127
 51
269.9972091756
 73
1
 72
1
 10
12.6203383031
 20
2.5171073276
 11
12.5725822767
 21
2.5909023685
 72
2
 10
12.570504655
 20
2.589557409
 40
0.0024749602
 50
32.9172174468
 51
90.0087853097
 73
1
 72
1
 10
12.5705042755
 20
2.5920323691
 11
12.5133292438
 21
2.5920323691
 72
2
 10
12.5133291735
 20
2.5895571688
 40
0.0024752003
 50
89.9983726451
 51
147.602165307
 73
1
 72
1
 10
12.5112392426
 20
2.5908833685
 11
12.4644392167
 21
2.5171263276
 72
2
 10
12.4623492858
 20
2.5184525273
 40
0.0024752003
 50
269.9983726451
 51
327.602165307
 73
1
 72
1
 10
12.4623492155
 20
2.515977327
 11
12.4394882028
 21
2.515977327
 72
2
 10
12.439488201
 20
2.5135023274
 40
0.0024749995
 50
89.9999571958
 51
180.0000428043
 73
1
 72
1
 10
12.4370132015
 20
2.5135023256
 11
12.4370132015
 21
2.4937023146
 72
2
 10
12.439488201
 20
2.4937023128
 40
0.0024749995
 50
179.9999571957
 51
270.0000428042
 73
1
 72
1
 10
12.4394882028
 20
2.4912273132
 11
12.5168642458
 21
2.4912273132
 97
267
330
2BB
330
2BC
330
2BD
330
2BE
330
2BF
330
2C0
330
2C1
330
2C2
330
2C3
330
2C4
330
2C5
330
2C6
330
2C7
330
2C8
330
2C9
330
2CA
330
2CB
330
2CC
330
2CD
330
2CE
330
2CF
330
2D0
330
2D1
330
2D2
330
2D3
330
2D4
330
2D5
330
2D6
330
2D7
330
2D8
330
2D9
330
2DA
330
2DB
330
2DC
330
2DD
330
2DE
330
2DF
330
2E0
330
2E1
330
2E2
330
2E3
330
2E4
330
2E5
330
2E6
330
2E7
330
2E8
330
2E9
330
2EA
330
2EB
330
2EC
330
2ED
330
2EE
330
2EF
330
2F0
330
2F1
330
2F2
330
2F3
330
2F4
330
2F5
330
2F6
330
2F7
330
2F8
330
2F9
330
2FA
330
2FB
330
2FC
330
2FD
330
2FE
330
2FF
330
300
330
301
330
302
330
303
330
304
330
305
330
306
330
307
330
308
330
309
330
30A
330
30B
330
30C
330
30D
330
30E
330
30F
330
310
330
311
330
312
330
313
330
314
330
315
330
316
330
317
330
318
330
319
330
31A
330
31B
330
31C
330
31D
330
31E
330
31F
330
320
330
321
330
322
330
323
330
324
330
325
330
326
330
327
330
328
330
329
330
32A
330
32B
330
32C
330
32D
330
32E
330
32F
330
330
330
331
330
332
330
333
330
334
330
335
330
336
330
337
330
338
330
339
330
33A
330
33B
330
33C
330
33D
330
33E
330
33F
330
340
330
341
330
342
330
343
330
344
330
345
330
346
330
347
330
348
330
349
330
34A
330
34B
330
34C
330
34D
330
34E
330
34F
330
350
330
351
330
352
330
353
330
354
330
355
330
356
330
357
330
358
330
359
330
35A
330
35B
330
35C
330
35D
330
35E
330
35F
330
360
330
361
330
362
330
363
330
364
330
365
330
366
330
367
330
368
330
369
330
36A
330
36B
330
36C
330
36D
330
36E
330
36F
330
370
330
371
330
372
330
373
330
374
330
375
330
376
330
377
330
378
330
379
330
37A
330
37B
330
37C
330
37D
330
37E
330
37F
330
380
330
381
330
382
330
383
330
384
330
385
330
386
330
387
330
388
330
389
330
38A
330
38B
330
38C
330
38D
330
38E
330
38F
330
390
330
391
330
392
330
393
330
394
330
395
330
396
330
397
330
398
330
399
330
39A
330
39B
330
39C
330
39D
330
39E
330
39F
330
3A0
330
3A1
330
3A2
330
3A3
330
3A4
330
3A5
330
3A6
330
3A7
330
3A8
330
3A9
330
3AA
330
3AB
330
3AC
330
3AD
330
3AE
330
3AF
330
3B0
330
3B1
330
3B2
330
3B3
330
3B4
330
3B5
330
3B6
330
3B7
330
3B8
330
3B9
330
3BA
330
3BB
330
3BC
330
3BD
330
3BE
330
3BF
330
3C0
330
3C1
330
3C2
330
3C3
330
3C4
330
3C5
 92
1
 93
6
 72
2
 10
12.2949101208
 20
2.5184523265
 40
0.0024749995
 50
179.9999571957
 51
270.0000428043
 73
1
 72
1
 10
12.2924351213
 20
2.5184523283
 11
12.2924351213
 21
2.5308273352
 72
2
 10
12.2949101208
 20
2.530827337
 40
0.0024749995
 50
89.9999571957
 51
180.0000428043
 73
1
 72
1
 10
12.2949101227
 20
2.5333023366
 11
12.3362731456
 21
2.5333023366
 72
2
 10
12.3362731456
 20
2.5246398318
 40
0.0086625048
 50
270.0
 51
90.0
 73
1
 72
1
 10
12.3362731456
 20
2.515977327
 11
12.2949101227
 21
2.515977327
 97
267
330
2BB
330
2BC
330
2BD
330
2BE
330
2BF
330
2C0
330
2C1
330
2C2
330
2C3
330
2C4
330
2C5
330
2C6
330
2C7
330
2C8
330
2C9
330
2CA
330
2CB
330
2CC
330
2CD
330
2CE
330
2CF
330
2D0
330
2D1
330
2D2
330
2D3
330
2D4
330
2D5
330
2D6
330
2D7
330
2D8
330
2D9
330
2DA
330
2DB
330
2DC
330
2DD
330
2DE
330
2DF
330
2E0
330
2E1
330
2E2
330
2E3
330
2E4
330
2E5
330
2E6
330
2E7
330
2E8
330
2E9
330
2EA
330
2EB
330
2EC
330
2ED
330
2EE
330
2EF
330
2F0
330
2F1
330
2F2
330
2F3
330
2F4
330
2F5
330
2F6
330
2F7
330
2F8
330
2F9
330
2FA
330
2FB
330
2FC
330
2FD
330
2FE
330
2FF
330
300
330
301
330
302
330
303
330
304
330
305
330
306
330
307
330
308
330
309
330
30A
330
30B
330
30C
330
30D
330
30E
330
30F
330
310
330
311
330
312
330
313
330
314
330
315
330
316
330
317
330
318
330
319
330
31A
330
31B
330
31C
330
31D
330
31E
330
31F
330
320
330
321
330
322
330
323
330
324
330
325
330
326
330
327
330
328
330
329
330
32A
330
32B
330
32C
330
32D
330
32E
330
32F
330
330
330
331
330
332
330
333
330
334
330
335
330
336
330
337
330
338
330
339
330
33A
330
33B
330
33C
330
33D
330
33E
330
33F
330
340
330
341
330
342
330
343
330
344
330
345
330
346
330
347
330
348
330
349
330
34A
330
34B
330
34C
330
34D
330
34E
330
34F
330
350
330
351
330
352
330
353
330
354
330
355
330
356
330
357
330
358
330
359
330
35A
330
35B
330
35C
330
35D
330
35E
330
35F
330
360
330
361
330
362
330
363
330
364
330
365
330
366
330
367
330
368
330
369
330
36A
330
36B
330
36C
330
36D
330
36E
330
36F
330
370
330
371
330
372
330
373
330
374
330
375
330
376
330
377
330
378
330
379
330
37A
330
37B
330
37C
330
37D
330
37E
330
37F
330
380
330
381
330
382
330
383
330
384
330
385
330
386
330
387
330
388
330
389
330
38A
330
38B
330
38C
330
38D
330
38E
330
38F
330
390
330
391
330
392
330
393
330
394
330
395
330
396
330
397
330
398
330
399
330
39A
330
39B
330
39C
330
39D
330
39E
330
39F
330
3A0
330
3A1
330
3A2
330
3A3
330
3A4
330
3A5
330
3A6
330
3A7
330
3A8
330
3A9
330
3AA
330
3AB
330
3AC
330
3AD
330
3AE
330
3AF
330
3B0
330
3B1
330
3B2
330
3B3
330
3B4
330
3B5
330
3B6
330
3B7
330
3B8
330
3B9
330
3BA
330
3BB
330
3BC
330
3BD
330
3BE
330
3BF
330
3C0
330
3C1
330
3C2
330
3C3
330
3C4
330
3C5
 92
1
 93
13
 72
2
 10
13.4883447827
 20
2.5520823451
 40
0.0024749995
 50
179.9999571957
 51
270.0000428042
 73
1
 72
1
 10
13.4858697831
 20
2.552082347
 11
13.4858697831
 21
2.564807354
 72
2
 10
13.4883447827
 20
2.5648073559
 40
0.0024749995
 50
89.9999571958
 51
180.0000428043
 73
1
 72
1
 10
13.4883447845
 20
2.5672823554
 11
13.5251458049
 21
2.5672823554
 72
2
 10
13.5236009174
 20
2.5388278764
 40
0.0284963867
 50
70.3834917948
 51
86.8922743861
 73
1
 72
2
 10
13.5284605274
 20
2.5518696094
 40
0.0145814632
 50
54.6746025112
 51
71.1660573124
 73
1
 72
2
 10
13.5335900184
 20
2.5587235346
 40
0.0060275915
 50
20.9055592135
 51
56.7851676243
 73
1
 72
2
 10
13.5348905773
 20
2.5593838168
 40
0.0045795888
 50
355.6235353944
 51
18.9942678268
 73
1
 72
2
 10
13.533683767
 20
2.559677593
 40
0.0058087709
 50
318.8515287446
 51
353.6422345323
 73
1
 72
2
 10
13.5295131508
 20
2.5629115009
 40
0.0110815393
 50
306.758405961
 51
320.4502234234
 73
1
 72
2
 10
13.5238839599
 20
2.5706523294
 40
0.0206523367
 50
289.6883413472
 51
306.4184925496
 73
1
 72
2
 10
13.5219564542
 20
2.5750459767
 40
0.0254407115
 50
270.7327484175
 51
290.441894219
 73
1
 72
1
 10
13.5222818033
 20
2.5496073456
 11
13.4883447845
 21
2.5496073456
 97
267
330
2BB
330
2BC
330
2BD
330
2BE
330
2BF
330
2C0
330
2C1
330
2C2
330
2C3
330
2C4
330
2C5
330
2C6
330
2C7
330
2C8
330
2C9
330
2CA
330
2CB
330
2CC
330
2CD
330
2CE
330
2CF
330
2D0
330
2D1
330
2D2
330
2D3
330
2D4
330
2D5
330
2D6
330
2D7
330
2D8
330
2D9
330
2DA
330
2DB
330
2DC
330
2DD
330
2DE
330
2DF
330
2E0
330
2E1
330
2E2
330
2E3
330
2E4
330
2E5
330
2E6
330
2E7
330
2E8
330
2E9
330
2EA
330
2EB
330
2EC
330
2ED
330
2EE
330
2EF
330
2F0
330
2F1
330
2F2
330
2F3
330
2F4
330
2F5
330
2F6
330
2F7
330
2F8
330
2F9
330
2FA
330
2FB
330
2FC
330
2FD
330
2FE
330
2FF
330
300
330
301
330
302
330
303
330
304
330
305
330
306
330
307
330
308
330
309
330
30A
330
30B
330
30C
330
30D
330
30E
330
30F
330
310
330
311
330
312
330
313
330
314
330
315
330
316
330
317
330
318
330
319
330
31A
330
31B
330
31C
330
31D
330
31E
330
31F
330
320
330
321
330
322
330
323
330
324
330
325
330
326
330
327
330
328
330
329
330
32A
330
32B
330
32C
330
32D
330
32E
330
32F
330
330
330
331
330
332
330
333
330
334
330
335
330
336
330
337
330
338
330
339
330
33A
330
33B
330
33C
330
33D
330
33E
330
33F
330
340
330
341
330
342
330
343
330
344
330
345
330
346
330
347
330
348
330
349
330
34A
330
34B
330
34C
330
34D
330
34E
330
34F
330
350
330
351
330
352
330
353
330
354
330
355
330
356
330
357
330
358
330
359
330
35A
330
35B
330
35C
330
35D
330
35E
330
35F
330
360
330
361
330
362
330
363
330
364
330
365
330
366
330
367
330
368
330
369
330
36A
330
36B
330
36C
330
36D
330
36E
330
36F
330
370
330
371
330
372
330
373
330
374
330
375
330
376
330
377
330
378
330
379
330
37A
330
37B
330
37C
330
37D
330
37E
330
37F
330
380
330
381
330
382
330
383
330
384
330
385
330
386
330
387
330
388
330
389
330
38A
330
38B
330
38C
330
38D
330
38E
330
38F
330
390
330
391
330
392
330
393
330
394
330
395
330
396
330
397
330
398
330
399
330
39A
330
39B
330
39C
330
39D
330
39E
330
39F
330
3A0
330
3A1
330
3A2
330
3A3
330
3A4
330
3A5
330
3A6
330
3A7
330
3A8
330
3A9
330
3AA
330
3AB
330
3AC
330
3AD
330
3AE
330
3AF
330
3B0
330
3B1
330
3B2
330
3B3
330
3B4
330
3B5
330
3B6
330
3B7
330
3B8
330
3B9
330
3BA
330
3BB
330
3BC
330
3BD
330
3BE
330
3BF
330
3C0
330
3C1
330
3C2
330
3C3
330
3C4
330
3C5
 92
1
 93
6
 72
2
 10
12.3362731456
 20
2.5586198506
 40
0.0086625048
 50
270.0
 51
90.0
 73
1
 72
1
 10
12.3362731456
 20
2.5672823554
 11
12.2949101227
 21
2.5672823554
 72
2
 10
12.2949101208
 20
2.5648073559
 40
0.0024749995
 50
89.9999571957
 51
180.0000428043
 73
1
 72
1
 10
12.2924351213
 20
2.564807354
 11
12.2924351213
 21
2.5524323472
 72
2
 10
12.2949101208
 20
2.5524323453
 40
0.0024749995
 50
179.9999571957
 51
270.0000428043
 73
1
 72
1
 10
12.2949101227
 20
2.5499573458
 11
12.3362731456
 21
2.5499573458
 97
267
330
2BB
330
2BC
330
2BD
330
2BE
330
2BF
330
2C0
330
2C1
330
2C2
330
2C3
330
2C4
330
2C5
330
2C6
330
2C7
330
2C8
330
2C9
330
2CA
330
2CB
330
2CC
330
2CD
330
2CE
330
2CF
330
2D0
330
2D1
330
2D2
330
2D3
330
2D4
330
2D5
330
2D6
330
2D7
330
2D8
330
2D9
330
2DA
330
2DB
330
2DC
330
2DD
330
2DE
330
2DF
330
2E0
330
2E1
330
2E2
330
2E3
330
2E4
330
2E5
330
2E6
330
2E7
330
2E8
330
2E9
330
2EA
330
2EB
330
2EC
330
2ED
330
2EE
330
2EF
330
2F0
330
2F1
330
2F2
330
2F3
330
2F4
330
2F5
330
2F6
330
2F7
330
2F8
330
2F9
330
2FA
330
2FB
330
2FC
330
2FD
330
2FE
330
2FF
330
300
330
301
330
302
330
303
330
304
330
305
330
306
330
307
330
308
330
309
330
30A
330
30B
330
30C
330
30D
330
30E
330
30F
330
310
330
311
330
312
330
313
330
314
330
315
330
316
330
317
330
318
330
319
330
31A
330
31B
330
31C
330
31D
330
31E
330
31F
330
320
330
321
330
322
330
323
330
324
330
325
330
326
330
327
330
328
330
329
330
32A
330
32B
330
32C
330
32D
330
32E
330
32F
330
330
330
331
330
332
330
333
330
334
330
335
330
336
330
337
330
338
330
339
330
33A
330
33B
330
33C
330
33D
330
33E
330
33F
330
340
330
341
330
342
330
343
330
344
330
345
330
346
330
347
330
348
330
349
330
34A
330
34B
330
34C
330
34D
330
34E
330
34F
330
350
330
351
330
352
330
353
330
354
330
355
330
356
330
357
330
358
330
359
330
35A
330
35B
330
35C
330
35D
330
35E
330
35F
330
360
330
361
330
362
330
363
330
364
330
365
330
366
330
367
330
368
330
369
330
36A
330
36B
330
36C
330
36D
330
36E
330
36F
330
370
330
371
330
372
330
373
330
374
330
375
330
376
330
377
330
378
330
379
330
37A
330
37B
330
37C
330
37D
330
37E
330
37F
330
380
330
381
330
382
330
383
330
384
330
385
330
386
330
387
330
388
330
389
330
38A
330
38B
330
38C
330
38D
330
38E
330
38F
330
390
330
391
330
392
330
393
330
394
330
395
330
396
330
397
330
398
330
399
330
39A
330
39B
330
39C
330
39D
330
39E
330
39F
330
3A0
330
3A1
330
3A2
330
3A3
330
3A4
330
3A5
330
3A6
330
3A7
330
3A8
330
3A9
330
3AA
330
3AB
330
3AC
330
3AD
330
3AE
330
3AF
330
3B0
330
3B1
330
3B2
330
3B3
330
3B4
330
3B5
330
3B6
330
3B7
330
3B8
330
3B9
330
3BA
330
3BB
330
3BC
330
3BD
330
3BE
330
3BF
330
3C0
330
3C1
330
3C2
330
3C3
330
3C4
330
3C5
 92
1
 93
8
 72
2
 10
12.5401702375
 20
2.5530465533
 40
0.0024752071
 50
270.0004896793
 51
32.9089806818
 73
1
 72
1
 10
12.5422482598
 20
2.5543913483
 11
12.5349892558
 21
2.5656073545
 72
2
 10
12.532910715
 20
2.564262895
 40
0.0024754602
 50
32.8959418573
 51
89.9875097202
 73
1
 72
1
 10
12.5329112547
 20
2.5667383551
 11
12.5267302512
 21
2.5667383551
 72
2
 10
12.5267301809
 20
2.5642631548
 40
0.0024752003
 50
89.998372645
 51
147.602165307
 73
1
 72
1
 10
12.5246402501
 20
2.5655893545
 11
12.5175232461
 21
2.5543723483
 72
2
 10
12.519613138
 20
2.5530463862
 40
0.0024750401
 50
147.6063258012
 51
270.0025305754
 73
1
 72
1
 10
12.5196132473
 20
2.5505713461
 11
12.5401702587
 21
2.5505713461
 97
267
330
2BB
330
2BC
330
2BD
330
2BE
330
2BF
330
2C0
330
2C1
330
2C2
330
2C3
330
2C4
330
2C5
330
2C6
330
2C7
330
2C8
330
2C9
330
2CA
330
2CB
330
2CC
330
2CD
330
2CE
330
2CF
330
2D0
330
2D1
330
2D2
330
2D3
330
2D4
330
2D5
330
2D6
330
2D7
330
2D8
330
2D9
330
2DA
330
2DB
330
2DC
330
2DD
330
2DE
330
2DF
330
2E0
330
2E1
330
2E2
330
2E3
330
2E4
330
2E5
330
2E6
330
2E7
330
2E8
330
2E9
330
2EA
330
2EB
330
2EC
330
2ED
330
2EE
330
2EF
330
2F0
330
2F1
330
2F2
330
2F3
330
2F4
330
2F5
330
2F6
330
2F7
330
2F8
330
2F9
330
2FA
330
2FB
330
2FC
330
2FD
330
2FE
330
2FF
330
300
330
301
330
302
330
303
330
304
330
305
330
306
330
307
330
308
330
309
330
30A
330
30B
330
30C
330
30D
330
30E
330
30F
330
310
330
311
330
312
330
313
330
314
330
315
330
316
330
317
330
318
330
319
330
31A
330
31B
330
31C
330
31D
330
31E
330
31F
330
320
330
321
330
322
330
323
330
324
330
325
330
326
330
327
330
328
330
329
330
32A
330
32B
330
32C
330
32D
330
32E
330
32F
330
330
330
331
330
332
330
333
330
334
330
335
330
336
330
337
330
338
330
339
330
33A
330
33B
330
33C
330
33D
330
33E
330
33F
330
340
330
341
330
342
330
343
330
344
330
345
330
346
330
347
330
348
330
349
330
34A
330
34B
330
34C
330
34D
330
34E
330
34F
330
350
330
351
330
352
330
353
330
354
330
355
330
356
330
357
330
358
330
359
330
35A
330
35B
330
35C
330
35D
330
35E
330
35F
330
360
330
361
330
362
330
363
330
364
330
365
330
366
330
367
330
368
330
369
330
36A
330
36B
330
36C
330
36D
330
36E
330
36F
330
370
330
371
330
372
330
373
330
374
330
375
330
376
330
377
330
378
330
379
330
37A
330
37B
330
37C
330
37D
330
37E
330
37F
330
380
330
381
330
382
330
383
330
384
330
385
330
386
330
387
330
388
330
389
330
38A
330
38B
330
38C
330
38D
330
38E
330
38F
330
390
330
391
330
392
330
393
330
394
330
395
330
396
330
397
330
398
330
399
330
39A
330
39B
330
39C
330
39D
330
39E
330
39F
330
3A0
330
3A1
330
3A2
330
3A3
330
3A4
330
3A5
330
3A6
330
3A7
330
3A8
330
3A9
330
3AA
330
3AB
330
3AC
330
3AD
330
3AE
330
3AF
330
3B0
330
3B1
330
3B2
330
3B3
330
3B4
330
3B5
330
3B6
330
3B7
330
3B8
330
3B9
330
3BA
330
3BB
330
3BC
330
3BD
330
3BE
330
3BF
330
3C0
330
3C1
330
3C2
330
3C3
330
3C4
330
3C5
 92
1
 93
1
 72
3
 10
12.9046654608
 20
2.5403783405
 11
-0.8250004575
 21
0.0
 40
0.218572
 50
0.0
 51
-0.0
 73
1
 97
267
330
2BB
330
2BC
330
2BD
330
2BE
330
2BF
330
2C0
330
2C1
330
2C2
330
2C3
330
2C4
330
2C5
330
2C6
330
2C7
330
2C8
330
2C9
330
2CA
330
2CB
330
2CC
330
2CD
330
2CE
330
2CF
330
2D0
330
2D1
330
2D2
330
2D3
330
2D4
330
2D5
330
2D6
330
2D7
330
2D8
330
2D9
330
2DA
330
2DB
330
2DC
330
2DD
330
2DE
330
2DF
330
2E0
330
2E1
330
2E2
330
2E3
330
2E4
330
2E5
330
2E6
330
2E7
330
2E8
330
2E9
330
2EA
330
2EB
330
2EC
330
2ED
330
2EE
330
2EF
330
2F0
330
2F1
330
2F2
330
2F3
330
2F4
330
2F5
330
2F6
330
2F7
330
2F8
330
2F9
330
2FA
330
2FB
330
2FC
330
2FD
330
2FE
330
2FF
330
300
330
301
330
302
330
303
330
304
330
305
330
306
330
307
330
308
330
309
330
30A
330
30B
330
30C
330
30D
330
30E
330
30F
330
310
330
311
330
312
330
313
330
314
330
315
330
316
330
317
330
318
330
319
330
31A
330
31B
330
31C
330
31D
330
31E
330
31F
330
320
330
321
330
322
330
323
330
324
330
325
330
326
330
327
330
328
330
329
330
32A
330
32B
330
32C
330
32D
330
32E
330
32F
330
330
330
331
330
332
330
333
330
334
330
335
330
336
330
337
330
338
330
339
330
33A
330
33B
330
33C
330
33D
330
33E
330
33F
330
340
330
341
330
342
330
343
330
344
330
345
330
346
330
347
330
348
330
349
330
34A
330
34B
330
34C
330
34D
330
34E
330
34F
330
350
330
351
330
352
330
353
330
354
330
355
330
356
330
357
330
358
330
359
330
35A
330
35B
330
35C
330
35D
330
35E
330
35F
330
360
330
361
330
362
330
363
330
364
330
365
330
366
330
367
330
368
330
369
330
36A
330
36B
330
36C
330
36D
330
36E
330
36F
330
370
330
371
330
372
330
373
330
374
330
375
330
376
330
377
330
378
330
379
330
37A
330
37B
330
37C
330
37D
330
37E
330
37F
330
380
330
381
330
382
330
383
330
384
330
385
330
386
330
387
330
388
330
389
330
38A
330
38B
330
38C
330
38D
330
38E
330
38F
330
390
330
391
330
392
330
393
330
394
330
395
330
396
330
397
330
398
330
399
330
39A
330
39B
330
39C
330
39D
330
39E
330
39F
330
3A0
330
3A1
330
3A2
330
3A3
330
3A4
330
3A5
330
3A6
330
3A7
330
3A8
330
3A9
330
3AA
330
3AB
330
3AC
330
3AD
330
3AE
330
3AF
330
3B0
330
3B1
330
3B2
330
3B3
330
3B4
330
3B5
330
3B6
330
3B7
330
3B8
330
3B9
330
3BA
330
3BB
330
3BC
330
3BD
330
3BE
330
3BF
330
3C0
330
3C1
330
3C2
330
3C3
330
3C4
330
3C5
 75
0
 76
1
 98
1
 10
0.0
 20
0.0
  0
LINE
  5
3C7
100
AcDbEntity
  8
0
100
AcDbLine
 62
7
  6
CONTINUOUS
 10
8.5
 20
10.112
 11
8.586603
 21
10.262
  0
LINE
  5
3C8
100
AcDbEntity
  8
0
100
AcDbLine
 62
7
  6
CONTINUOUS
 10
16.38
 20
2.807
 11
10.03
 21
2.807
  0
LINE
  5
3C9
100
AcDbEntity
  8
0
100
AcDbLine
 62
7
  6
CONTINUOUS
 10
0.62
 20
3.1995
 11
0.37
 21
3.1995
  0
LINE
  5
3CA
100
AcDbEntity
  8
0
100
AcDbLine
 62
7
  6
CONTINUOUS
 10
16.38
 20
3.1995
 11
16.63
 21
3.1995
  0
LINE
  5
3CB
100
AcDbEntity
  8
0
100
AcDbLine
 62
7
  6
CONTINUOUS
 10
8.586603
 20
0.737
 11
8.5
 21
0.887
  0
LINE
  5
3CC
100
AcDbEntity
  8
0
100
AcDbLine
 62
7
  6
CONTINUOUS
 10
6.53
 20
0.887
 11
6.53
 21
0.637
  0
LINE
  5
3CD
100
AcDbEntity
  8
0
100
AcDbLine
 62
7
  6
CONTINUOUS
 10
6.53
 20
10.112
 11
6.53
 21
10.362
  0
LINE
  5
3CE
100
AcDbEntity
  8
SKETCHED_ENT
100
AcDbLine
 62
7
  6
CONTINUOUS
 10
11.3634005131
 20
4.669811382
 11
14.4082310069
 21
4.6697002022
  0
LINE
  5
3CF
100
AcDbEntity
  8
0
100
AcDbLine
 62
7
  6
CONTINUOUS
 10
8.5
 20
0.887
 11
8.5
 21
0.637
  0
LINE
  5
3D0
100
AcDbEntity
  8
0
100
AcDbLine
 62
7
  6
CONTINUOUS
 10
8.5
 20
10.112
 11
8.5
 21
10.362
  0
LINE
  5
3D1
100
AcDbEntity
  8
SKETCHED_ENT
100
AcDbLine
 62
7
  6
CONTINUOUS
 10
12.7175144659
 20
5.324106811
 11
13.1969374256
 21
5.3242529413
  0
LINE
  5
3D2
100
AcDbEntity
  8
0
100
AcDbLine
 62
7
  6
CONTINUOUS
 10
0.62
 20
5.4995
 11
0.37
 21
5.4995
  0
LINE
  5
3D3
100
AcDbEntity
  8
0
100
AcDbLine
 62
7
  6
CONTINUOUS
 10
16.38
 20
5.4995
 11
16.63
 21
5.4995
  0
LINE
  5
3D4
100
AcDbEntity
  8
SKETCHED_ENT
100
AcDbLine
 62
7
  6
CONTINUOUS
 10
13.2000337582
 20
5.9550626092
 11
12.7143150572
 21
5.9553909754
  0
LINE
  5
3D5
100
AcDbEntity
  8
SKETCHED_ENT
100
AcDbLine
 62
7
  6
CONTINUOUS
 10
14.4081492031
 20
6.4244570522
 11
11.3579781284
 21
6.4244570522
  0
LINE
  5
3D6
100
AcDbEntity
  8
0
100
AcDbLine
 62
7
  6
CONTINUOUS
 10
10.03
 20
2.807
 11
10.03
 21
0.887
  0
LINE
  5
3D7
100
AcDbEntity
  8
0
100
AcDbLine
 62
7
  6
CONTINUOUS
 10
10.47
 20
0.887
 11
10.47
 21
0.637
  0
LINE
  5
3D8
100
AcDbEntity
  8
0
100
AcDbLine
 62
7
  6
CONTINUOUS
 10
10.47
 20
10.112
 11
10.47
 21
10.362
  0
LINE
  5
3D9
100
AcDbEntity
  8
0
100
AcDbLine
 62
7
  6
CONTINUOUS
 10
10.5342808475
 20
1.143294839
 11
10.5342808475
 21
0.921203839
  0
LINE
  5
3DA
100
AcDbEntity
  8
0
100
AcDbLine
 62
7
  6
CONTINUOUS
 10
10.5342808475
 20
1.193294839
 11
10.5342808475
 21
1.293294839
  0
LINE
  5
3DB
100
AcDbEntity
  8
0
100
AcDbLine
 62
7
  6
CONTINUOUS
 10
10.5342808475
 20
1.343294839
 11
10.5342808475
 21
1.565385839
  0
LINE
  5
3DC
100
AcDbEntity
  8
0
100
AcDbLine
 62
7
  6
CONTINUOUS
 10
8.5
 20
0.887
 11
8.413397
 21
0.737
  0
LINE
  5
3DD
100
AcDbEntity
  8
0
100
AcDbLine
 62
7
  6
CONTINUOUS
 10
0.62
 20
7.7995
 11
0.37
 21
7.7995
  0
LINE
  5
3DE
100
AcDbEntity
  8
0
100
AcDbLine
 62
7
  6
CONTINUOUS
 10
16.38
 20
7.7995
 11
16.63
 21
7.7995
  0
LINE
  5
3DF
100
AcDbEntity
  8
0
100
AcDbLine
 62
7
  6
CONTINUOUS
 10
8.413397
 20
10.262
 11
8.5
 21
10.112
  0
LINE
  5
3E0
100
AcDbEntity
  8
0
100
AcDbLine
 62
7
  6
CONTINUOUS
 10
11.1389508475
 20
1.060596839
 11
11.1389508475
 21
1.425992839
  0
LINE
  5
3E1
100
AcDbEntity
  8
SKETCHED_ENT
100
AcDbLine
 62
7
  6
CONTINUOUS
 10
11.3579781284
 20
6.4244570522
 11
11.3579781284
 21
4.6696467559
  0
LINE
  5
3E2
100
AcDbEntity
  8
0
100
AcDbLine
 62
7
  6
CONTINUOUS
 10
11.7453418475
 20
1.495385839
 11
11.7453418475
 21
0.991203839
  0
LINE
  5
3E3
100
AcDbEntity
  8
0
100
AcDbLine
 62
7
  6
CONTINUOUS
 10
12.44
 20
0.887
 11
12.44
 21
0.637
  0
LINE
  5
3E4
100
AcDbEntity
  8
0
100
AcDbLine
 62
7
  6
CONTINUOUS
 10
12.44
 20
10.112
 11
12.44
 21
10.362
  0
LINE
  5
3E5
100
AcDbEntity
  8
0
100
AcDbLine
 62
7
  6
CONTINUOUS
 10
16.53
 20
5.586103
 11
16.38
 21
5.4995
  0
LINE
  5
3E6
100
AcDbEntity
  8
0
100
AcDbLine
 62
7
  6
CONTINUOUS
 10
16.38
 20
5.4995
 11
16.53
 21
5.412897
  0
LINE
  5
3E7
100
AcDbEntity
  8
0
100
AcDbLine
 62
7
  6
CONTINUOUS
 10
12.83
 20
1.507
 11
12.83
 21
1.137
  0
LINE
  5
3E8
100
AcDbEntity
  8
0
100
AcDbLine
 62
7
  6
CONTINUOUS
 10
16.38
 20
10.112
 11
0.62
 21
10.112
  0
LINE
  5
3E9
100
AcDbEntity
  8
0
100
AcDbLine
 62
7
  6
CONTINUOUS
 10
8.586603
 20
10.262
 11
8.413397
 21
10.262
  0
LINE
  5
3EA
100
AcDbEntity
  8
0
100
AcDbLine
 62
7
  6
CONTINUOUS
 10
14.205
 20
1.137
 11
14.205
 21
0.887
  0
LINE
  5
3EB
100
AcDbEntity
  8
SKETCHED_ENT
100
AcDbLine
 62
7
  6
CONTINUOUS
 10
14.4081492031
 20
4.6696467559
 11
14.4081492031
 21
6.4244570522
  0
LINE
  5
3EC
100
AcDbEntity
  8
0
100
AcDbLine
 62
7
  6
CONTINUOUS
 10
14.41
 20
0.887
 11
14.41
 21
0.637
  0
LINE
  5
3ED
100
AcDbEntity
  8
0
100
AcDbLine
 62
7
  6
CONTINUOUS
 10
14.41
 20
10.112
 11
14.41
 21
10.362
  0
LINE
  5
3EE
100
AcDbEntity
  8
0
100
AcDbLine
 62
7
  6
CONTINUOUS
 10
15.58
 20
1.507
 11
15.58
 21
1.137
  0
LINE
  5
3EF
100
AcDbEntity
  8
0
100
AcDbLine
 62
7
  6
CONTINUOUS
 10
16.38
 20
0.887
 11
16.38
 21
10.112
  0
LINE
  5
3F0
100
AcDbEntity
  8
0
100
AcDbLine
 62
7
  6
CONTINUOUS
 10
16.53
 20
5.412897
 11
16.53
 21
5.586103
  0
LINE
  5
3F1
100
AcDbEntity
  8
02___PRT_ALL_AXES
100
AcDbLine
 62
7
  6
CONTINUOUS
 10
6.6593498901
 20
2.7512635354
 11
6.5343498901
 21
2.7512635354
  0
LINE
  5
3F2
100
AcDbEntity
  8
AXIS
100
AcDbLine
 62
7
  6
CONTINUOUS
 10
6.1342514649
 20
5.9182634258
 11
6.1342514649
 21
5.8811847953
  0
LINE
  5
3F3
100
AcDbEntity
  8
0
100
AcDbLine
 62
7
  6
CONTINUOUS
 10
6.2818892602
 20
5.8811847953
 11
6.2818892602
 21
5.1922084173
  0
LINE
  5
3F4
100
AcDbEntity
  8
02___PRT_ALL_AXES
100
AcDbLine
 62
7
  6
CONTINUOUS
 10
6.2818892602
 20
6.0189800709
 11
6.2818892602
 21
6.0859092047
  0
LINE
  5
3F5
100
AcDbEntity
  8
0
100
AcDbLine
 62
7
  6
CONTINUOUS
 10
6.3542545249
 20
5.1732103759
 11
6.3645423837
 21
4.878604645
  0
LINE
  5
3F6
100
AcDbEntity
  8
0
100
AcDbLine
 62
7
  6
CONTINUOUS
 10
6.6755900476
 20
4.2709485748
 11
6.5181097326
 21
4.2709485748
  0
LINE
  5
3F7
100
AcDbEntity
  8
0
100
AcDbLine
 62
7
  6
CONTINUOUS
 10
6.6874010712
 20
4.2827595984
 11
6.506298709
 21
4.2827595984
  0
LINE
  5
3F8
100
AcDbEntity
  8
0
100
AcDbLine
 62
7
  6
CONTINUOUS
 10
6.506298709
 20
4.2827595984
 11
6.5181097326
 21
4.2709485748
  0
LINE
  5
3F9
100
AcDbEntity
  8
0
100
AcDbLine
 62
7
  6
CONTINUOUS
 10
6.3647096532
 20
4.8772423442
 11
6.3843037203
 21
4.7850595064
  0
LINE
  5
3FA
100
AcDbEntity
  8
AXIS_COSMETIC_THREADS
100
AcDbLine
 62
7
  6
CONTINUOUS
 10
6.506298709
 20
4.641027315
 11
6.506298709
 21
4.2827595984
  0
LINE
  5
3FB
100
AcDbEntity
  8
0
100
AcDbLine
 62
7
  6
CONTINUOUS
 10
6.506298709
 20
4.2827595984
 11
6.506298709
 21
4.641027315
  0
LINE
  5
3FC
100
AcDbEntity
  8
02___PRT_ALL_AXES
100
AcDbLine
 62
7
  6
CONTINUOUS
 10
6.5343498901
 20
4.2709485748
 11
6.5343498901
 21
2.7512635354
  0
LINE
  5
3FD
100
AcDbEntity
  8
AXIS_COSMETIC_THREADS
100
AcDbLine
 62
7
  6
CONTINUOUS
 10
6.4767711499
 20
4.7788225906
 11
6.506298709
 21
4.641027315
  0
LINE
  5
3FE
100
AcDbEntity
  8
02___PRT_ALL_AXES
100
AcDbLine
 62
7
  6
CONTINUOUS
 10
6.6593498901
 20
4.2709485748
 11
6.6593498901
 21
2.7512635354
  0
LINE
  5
3FF
100
AcDbEntity
  8
AXIS_COSMETIC_THREADS
100
AcDbLine
 62
7
  6
CONTINUOUS
 10
6.6874010712
 20
4.641027315
 11
6.6874010712
 21
4.2827595984
  0
LINE
  5
400
100
AcDbEntity
  8
0
100
AcDbLine
 62
7
  6
CONTINUOUS
 10
6.6874010712
 20
4.2827595984
 11
6.6874010712
 21
4.641027315
  0
LINE
  5
401
100
AcDbEntity
  8
AXIS_COSMETIC_THREADS
100
AcDbLine
 62
7
  6
CONTINUOUS
 10
6.7169286302
 20
4.7788225906
 11
6.6874010712
 21
4.641027315
  0
LINE
  5
402
100
AcDbEntity
  8
0
100
AcDbLine
 62
7
  6
CONTINUOUS
 10
6.8394452553
 20
5.1732103759
 11
6.8291573965
 21
4.878604645
  0
LINE
  5
403
100
AcDbEntity
  8
0
100
AcDbLine
 62
7
  6
CONTINUOUS
 10
6.828990127
 20
4.8772423442
 11
6.8093960599
 21
4.7850595064
  0
LINE
  5
404
100
AcDbEntity
  8
0
100
AcDbLine
 62
7
  6
CONTINUOUS
 10
6.6874010712
 20
4.2827595984
 11
6.6755900476
 21
4.2709485748
  0
LINE
  5
405
100
AcDbEntity
  8
AXIS_COSMETIC_THREADS
100
AcDbLine
 62
7
  6
CONTINUOUS
 10
6.6874010712
 20
4.641027315
 11
6.506298709
 21
4.641027315
  0
LINE
  5
406
100
AcDbEntity
  8
0
100
AcDbLine
 62
7
  6
CONTINUOUS
 10
6.91181052
 20
5.1922084173
 11
6.91181052
 21
5.8811847953
  0
LINE
  5
407
100
AcDbEntity
  8
02___PRT_ALL_AXES
100
AcDbLine
 62
7
  6
CONTINUOUS
 10
6.91181052
 20
6.0189800709
 11
6.91181052
 21
6.0859092047
  0
LINE
  5
408
100
AcDbEntity
  8
0
100
AcDbLine
 62
7
  6
CONTINUOUS
 10
6.8016941103
 20
4.7788225906
 11
6.3920056699
 21
4.7788225906
  0
LINE
  5
409
100
AcDbEntity
  8
0
100
AcDbLine
 62
7
  6
CONTINUOUS
 10
6.3843037203
 20
4.7850595064
 11
6.8093960599
 21
4.7850595064
  0
LINE
  5
40A
100
AcDbEntity
  8
AXIS
100
AcDbLine
 62
7
  6
CONTINUOUS
 10
7.0594483153
 20
5.9182634258
 11
7.0594483153
 21
5.8811847953
  0
LINE
  5
40B
100
AcDbEntity
  8
0
100
AcDbLine
 62
7
  6
CONTINUOUS
 10
6.828990127
 20
4.8772423442
 11
6.3647096532
 21
4.8772423442
  0
LINE
  5
40C
100
AcDbEntity
  8
0
100
AcDbLine
 62
7
  6
CONTINUOUS
 10
6.8291573965
 20
4.878604645
 11
6.3645423837
 21
4.878604645
  0
LINE
  5
40D
100
AcDbEntity
  8
0
100
AcDbLine
 62
7
  6
CONTINUOUS
 10
6.8394452553
 20
5.1732103759
 11
6.3542545249
 21
5.1732103759
  0
LINE
  5
40E
100
AcDbEntity
  8
0
100
AcDbLine
 62
7
  6
CONTINUOUS
 10
6.91181052
 20
5.1922084173
 11
6.2818892602
 21
5.1922084173
  0
LINE
  5
40F
100
AcDbEntity
  8
0
100
AcDbLine
 62
7
  6
CONTINUOUS
 10
6.91181052
 20
5.2512635354
 11
6.2818892602
 21
5.2512635354
  0
LWPOLYLINE
  5
410
100
AcDbEntity
  8
0
100
AcDbPolyline
 62
7
  6
CONTINUOUS
 90
18
 70
0
 10
6.2818892602
 20
5.3158021521
 10
6.2980097746
 20
5.3167780112
 10
6.3213661924
 20
5.3177539494
 10
6.3513930988
 20
5.3187299185
 10
6.3873623757
 20
5.3197058749
 10
6.4284014425
 20
5.3206817845
 10
6.4735155779
 20
5.3216576353
 10
6.5216177231
 20
5.3226335381
 10
6.5715435289
 20
5.323609488
 10
6.6220863632
 20
5.3245855219
 10
6.6720220856
 20
5.3255616348
 10
6.7201374411
 20
5.3265377519
 10
6.7652661074
 20
5.3275138506
 10
6.8063155437
 20
5.3284899355
 10
6.8422925143
 20
5.3294660265
 10
6.8723255178
 20
5.3304421189
 10
6.895686646
 20
5.3314181856
 10
6.91181052
 20
5.3323942102
  0
LWPOLYLINE
  5
411
100
AcDbEntity
  8
0
100
AcDbPolyline
 62
7
  6
CONTINUOUS
 90
8
 70
0
 10
6.91181052
 20
5.367827281
 10
6.8956862023
 20
5.3668512346
 10
6.872325056
 20
5.365875173
 10
6.8422925402
 20
5.3648990981
 10
6.8063157689
 20
5.363923012
 10
6.7652659027
 20
5.3629469168
 10
6.7201370451
 20
5.3619708145
 10
6.6720221557
 20
5.3609947071
  0
LWPOLYLINE
  5
412
100
AcDbEntity
  8
0
100
AcDbPolyline
 62
7
  6
CONTINUOUS
 90
18
 70
0
 10
6.2818892602
 20
5.3551722308
 10
6.2980118808
 20
5.3561481936
 10
6.3213701335
 20
5.3571241717
 10
6.3513987252
 20
5.3581001629
 10
6.387370761
 20
5.3590761653
 10
6.4284153441
 20
5.3600521769
 10
6.4735386691
 20
5.3610281955
 10
6.5216480979
 20
5.3620042192
 10
6.5715786331
 20
5.362980246
 10
6.6221211471
 20
5.3639562737
 10
6.6720516823
 20
5.3649323005
 10
6.7201611111
 20
5.3659083242
 10
6.7652844361
 20
5.3668843428
 10
6.8063290191
 20
5.3678603544
 10
6.8423010549
 20
5.3688363568
 10
6.8723296467
 20
5.369812348
 10
6.8956878993
 20
5.3707883261
 10
6.91181052
 20
5.3717642889
  0
LWPOLYLINE
  5
413
100
AcDbEntity
  8
0
100
AcDbPolyline
 62
7
  6
CONTINUOUS
 90
18
 70
0
 10
6.91181052
 20
5.4071973598
 10
6.8956878993
 20
5.4062213969
 10
6.8723296467
 20
5.4052454189
 10
6.8423010549
 20
5.4042694276
 10
6.8063290191
 20
5.4032934252
 10
6.7652844361
 20
5.4023174137
 10
6.7201611111
 20
5.4013413951
 10
6.6720516823
 20
5.4003653714
 10
6.6221211471
 20
5.3993893446
 10
6.5715786331
 20
5.3984133168
 10
6.5216480979
 20
5.3974372901
 10
6.4735386691
 20
5.3964612664
 10
6.4284153441
 20
5.3954852477
 10
6.387370761
 20
5.3945092362
 10
6.3513987252
 20
5.3935332338
 10
6.3213701335
 20
5.3925572426
 10
6.2980118808
 20
5.3915812645
 10
6.2818892602
 20
5.3906053017
  0
LWPOLYLINE
  5
414
100
AcDbEntity
  8
0
100
AcDbPolyline
 62
7
  6
CONTINUOUS
 90
18
 70
0
 10
6.2818892602
 20
5.3945423095
 10
6.2980118808
 20
5.3955182724
 10
6.3213701335
 20
5.3964942504
 10
6.3513987252
 20
5.3974702417
 10
6.387370761
 20
5.3984462441
 10
6.4284153441
 20
5.3994222556
 10
6.4735386691
 20
5.4003982743
 10
6.5216480979
 20
5.401374298
 10
6.5715786331
 20
5.4023503247
 10
6.6221211471
 20
5.4033263525
 10
6.6720516823
 20
5.4043023792
 10
6.7201611111
 20
5.4052784029
 10
6.7652844361
 20
5.4062544216
 10
6.8063290191
 20
5.4072304331
 10
6.8423010549
 20
5.4082064355
 10
6.8723296467
 20
5.4091824268
 10
6.8956878993
 20
5.4101584048
 10
6.91181052
 20
5.4111343677
  0
LWPOLYLINE
  5
415
100
AcDbEntity
  8
0
100
AcDbPolyline
 62
7
  6
CONTINUOUS
 90
18
 70
0
 10
6.91181052
 20
5.4465674385
 10
6.8956878993
 20
5.4455914757
 10
6.8723296467
 20
5.4446154976
 10
6.8423010549
 20
5.4436395064
 10
6.8063290191
 20
5.442663504
 10
6.7652844361
 20
5.4416874924
 10
6.7201611111
 20
5.4407114738
 10
6.6720516823
 20
5.4397354501
 10
6.6221211471
 20
5.4387594233
 10
6.5715786331
 20
5.4377833956
 10
6.5216480979
 20
5.4368073688
 10
6.4735386691
 20
5.4358313451
 10
6.4284153441
 20
5.4348553265
 10
6.387370761
 20
5.4338793149
 10
6.3513987252
 20
5.4329033125
 10
6.3213701335
 20
5.4319273213
 10
6.2980118808
 20
5.4309513432
 10
6.2818892602
 20
5.4299753804
  0
LWPOLYLINE
  5
416
100
AcDbEntity
  8
0
100
AcDbPolyline
 62
7
  6
CONTINUOUS
 90
16
 70
0
 10
6.91181052
 20
5.3469387291
 10
6.8851825732
 20
5.3460148197
 10
6.8522972428
 20
5.3450909104
 10
6.813868205
 20
5.344167001
 10
6.770729445
 20
5.3432430917
 10
6.7238171584
 20
5.3423191824
 10
6.6741494336
 20
5.341395273
 10
6.6228041574
 20
5.3404713637
 10
6.5708956228
 20
5.3395474543
 10
6.5195503466
 20
5.338623545
 10
6.4698826218
 20
5.3376996357
 10
6.4229703352
 20
5.3367757263
 10
6.3798315752
 20
5.335851817
 10
6.3414025374
 20
5.3349279076
 10
6.308517207
 20
5.3340039983
 10
6.2818892602
 20
5.3330800889
  0
LWPOLYLINE
  5
417
100
AcDbEntity
  8
0
100
AcDbPolyline
 62
7
  6
CONTINUOUS
 90
16
 70
0
 10
6.91181052
 20
5.3505493442
 10
6.8851825732
 20
5.3496254348
 10
6.8522972428
 20
5.3487015255
 10
6.813868205
 20
5.3477776161
 10
6.770729445
 20
5.3468537068
 10
6.7238171584
 20
5.3459297974
 10
6.6741494336
 20
5.3450058881
 10
6.6228041574
 20
5.3440819788
 10
6.5708956228
 20
5.3431580694
 10
6.5195503466
 20
5.3422341601
 10
6.4698826218
 20
5.3413102507
 10
6.4229703352
 20
5.3403863414
 10
6.3798315752
 20
5.3394624321
 10
6.3414025374
 20
5.3385385227
 10
6.308517207
 20
5.3376146134
 10
6.2818892602
 20
5.336690704
  0
LWPOLYLINE
  5
418
100
AcDbEntity
  8
0
100
AcDbPolyline
 62
7
  6
CONTINUOUS
 90
16
 70
0
 10
6.91181052
 20
5.3863088078
 10
6.8851825732
 20
5.3853848985
 10
6.8522972428
 20
5.3844609891
 10
6.813868205
 20
5.3835370798
 10
6.770729445
 20
5.3826131704
 10
6.7238171584
 20
5.3816892611
 10
6.6741494336
 20
5.3807653518
 10
6.6228041574
 20
5.3798414424
 10
6.5708956228
 20
5.3789175331
 10
6.5195503466
 20
5.3779936237
 10
6.4698826218
 20
5.3770697144
 10
6.4229703352
 20
5.376145805
 10
6.3798315752
 20
5.3752218957
 10
6.3414025374
 20
5.3742979864
 10
6.308517207
 20
5.373374077
 10
6.2818892602
 20
5.3724501677
  0
LWPOLYLINE
  5
419
100
AcDbEntity
  8
0
100
AcDbPolyline
 62
7
  6
CONTINUOUS
 90
16
 70
0
 10
6.91181052
 20
5.3899194229
 10
6.8851825732
 20
5.3889955136
 10
6.8522972428
 20
5.3880716042
 10
6.813868205
 20
5.3871476949
 10
6.770729445
 20
5.3862237855
 10
6.7238171584
 20
5.3852998762
 10
6.6741494336
 20
5.3843759668
 10
6.6228041574
 20
5.3834520575
 10
6.5708956228
 20
5.3825281482
 10
6.5195503466
 20
5.3816042388
 10
6.4698826218
 20
5.3806803295
 10
6.4229703352
 20
5.3797564201
 10
6.3798315752
 20
5.3788325108
 10
6.3414025374
 20
5.3779086014
 10
6.308517207
 20
5.3769846921
 10
6.2818892602
 20
5.3760607828
  0
LWPOLYLINE
  5
41A
100
AcDbEntity
  8
0
100
AcDbPolyline
 62
7
  6
CONTINUOUS
 90
16
 70
0
 10
6.91181052
 20
5.4256788866
 10
6.8851825732
 20
5.4247549772
 10
6.8522972428
 20
5.4238310679
 10
6.813868205
 20
5.4229071585
 10
6.770729445
 20
5.4219832492
 10
6.7238171584
 20
5.4210593398
 10
6.6741494336
 20
5.4201354305
 10
6.6228041574
 20
5.4192115212
 10
6.5708956228
 20
5.4182876118
 10
6.5195503466
 20
5.4173637025
 10
6.4698826218
 20
5.4164397931
 10
6.4229703352
 20
5.4155158838
 10
6.3798315752
 20
5.4145919744
 10
6.3414025374
 20
5.4136680651
 10
6.308517207
 20
5.4127441558
 10
6.2818892602
 20
5.4118202464
  0
LWPOLYLINE
  5
41B
100
AcDbEntity
  8
0
100
AcDbPolyline
 62
7
  6
CONTINUOUS
 90
16
 70
0
 10
6.91181052
 20
5.4292895016
 10
6.8851825732
 20
5.4283655923
 10
6.8522972428
 20
5.427441683
 10
6.813868205
 20
5.4265177736
 10
6.770729445
 20
5.4255938643
 10
6.7238171584
 20
5.4246699549
 10
6.6741494336
 20
5.4237460456
 10
6.6228041574
 20
5.4228221362
 10
6.5708956228
 20
5.4218982269
 10
6.5195503466
 20
5.4209743176
 10
6.4698826218
 20
5.4200504082
 10
6.4229703352
 20
5.4191264989
 10
6.3798315752
 20
5.4182025895
 10
6.3414025374
 20
5.4172786802
 10
6.308517207
 20
5.4163547708
 10
6.2818892602
 20
5.4154308615
  0
LWPOLYLINE
  5
41C
100
AcDbEntity
  8
0
100
AcDbPolyline
 62
7
  6
CONTINUOUS
 90
11
 70
0
 10
6.6720221557
 20
5.3609947071
 10
6.622086564
 20
5.3600185967
 10
6.5715433516
 20
5.3590425554
 10
6.5216174689
 20
5.358066604
 10
6.4735158847
 20
5.3570907125
 10
6.4284021015
 20
5.3561148702
 10
6.3873626975
 20
5.3551389539
 10
6.3513931613
 20
5.3541629912
 10
6.3213662348
 20
5.3531870218
 10
6.2980098509
 20
5.3522110858
 10
6.2818892602
 20
5.3512352229
  0
LWPOLYLINE
  5
41D
100
AcDbEntity
  8
0
100
AcDbPolyline
 62
7
  6
CONTINUOUS
 90
9
 70
0
 10
6.91181052
 20
5.4859375173
 10
6.8967770613
 20
5.4850157363
 10
6.875264496
 20
5.4840939553
 10
6.8477375442
 20
5.4831721742
 10
6.8147908505
 20
5.4822503932
 10
6.7771361382
 20
5.4813286122
 10
6.7355868343
 20
5.4804068312
 10
6.6910404979
 20
5.4794850502
 10
6.644459431
 20
5.4785632692
  0
LWPOLYLINE
  5
41E
100
AcDbEntity
  8
0
100
AcDbPolyline
 62
7
  6
CONTINUOUS
 90
18
 70
0
 10
6.2818892602
 20
5.473282467
 10
6.2980118808
 20
5.4742584299
 10
6.3213701335
 20
5.4752344079
 10
6.3513987252
 20
5.4762103992
 10
6.387370761
 20
5.4771864016
 10
6.4284153441
 20
5.4781624131
 10
6.4735386691
 20
5.4791384317
 10
6.5216480979
 20
5.4801144554
 10
6.5715786331
 20
5.4810904822
 10
6.6221211471
 20
5.48206651
 10
6.6720516823
 20
5.4830425367
 10
6.7201611111
 20
5.4840185604
 10
6.7652844361
 20
5.4849945791
 10
6.8063290191
 20
5.4859705906
 10
6.8423010549
 20
5.486946593
 10
6.8723296467
 20
5.4879225842
 10
6.8956878993
 20
5.4888985623
 10
6.91181052
 20
5.4898745251
  0
LWPOLYLINE
  5
41F
100
AcDbEntity
  8
0
100
AcDbPolyline
 62
7
  6
CONTINUOUS
 90
18
 70
0
 10
6.91181052
 20
5.525307596
 10
6.8956878993
 20
5.5243316332
 10
6.8723296467
 20
5.5233556551
 10
6.8423010549
 20
5.5223796639
 10
6.8063290191
 20
5.5214036615
 10
6.7652844361
 20
5.5204276499
 10
6.7201611111
 20
5.5194516313
 10
6.6720516823
 20
5.5184756076
 10
6.6221211471
 20
5.5174995808
 10
6.5715786331
 20
5.5165235531
 10
6.5216480979
 20
5.5155475263
 10
6.4735386691
 20
5.5145715026
 10
6.4284153441
 20
5.513595484
 10
6.387370761
 20
5.5126194724
 10
6.3513987252
 20
5.51164347
 10
6.3213701335
 20
5.5106674788
 10
6.2980118808
 20
5.5096915007
 10
6.2818892602
 20
5.5087155379
  0
LWPOLYLINE
  5
420
100
AcDbEntity
  8
0
100
AcDbPolyline
 62
7
  6
CONTINUOUS
 90
18
 70
0
 10
6.2818892602
 20
5.5126525458
 10
6.2980118808
 20
5.5136285086
 10
6.3213701335
 20
5.5146044867
 10
6.3513987252
 20
5.5155804779
 10
6.387370761
 20
5.5165564803
 10
6.4284153441
 20
5.5175324918
 10
6.4735386691
 20
5.5185085105
 10
6.5216480979
 20
5.5194845342
 10
6.5715786331
 20
5.5204605609
 10
6.6221211471
 20
5.5214365887
 10
6.6720516823
 20
5.5224126155
 10
6.7201611111
 20
5.5233886392
 10
6.7652844361
 20
5.5243646578
 10
6.8063290191
 20
5.5253406693
 10
6.8423010549
 20
5.5263166717
 10
6.8723296467
 20
5.527292663
 10
6.8956878993
 20
5.528268641
 10
6.91181052
 20
5.5292446039
  0
LWPOLYLINE
  5
421
100
AcDbEntity
  8
0
100
AcDbPolyline
 62
7
  6
CONTINUOUS
 90
18
 70
0
 10
6.91181052
 20
5.5646776747
 10
6.8956878993
 20
5.5637017119
 10
6.8723296467
 20
5.5627257338
 10
6.8423010549
 20
5.5617497426
 10
6.8063290191
 20
5.5607737402
 10
6.7652844361
 20
5.5597977287
 10
6.7201611111
 20
5.55882171
 10
6.6720516823
 20
5.5578456863
 10
6.6221211471
 20
5.5568696596
 10
6.5715786331
 20
5.5558936318
 10
6.5216480979
 20
5.554917605
 10
6.4735386691
 20
5.5539415813
 10
6.4284153441
 20
5.5529655627
 10
6.387370761
 20
5.5519895512
 10
6.3513987252
 20
5.5510135488
 10
6.3213701335
 20
5.5500375575
 10
6.2980118808
 20
5.5490615795
 10
6.2818892602
 20
5.5480856166
  0
LWPOLYLINE
  5
422
100
AcDbEntity
  8
0
100
AcDbPolyline
 62
7
  6
CONTINUOUS
 90
8
 70
0
 10
6.91181052
 20
5.4650489653
 10
6.8870368493
 20
5.4641828003
 10
6.8567269418
 20
5.4633166353
 10
6.8214590551
 20
5.4624504703
 10
6.7819060361
 20
5.4615843053
 10
6.738822484
 20
5.4607181403
 10
6.6930303543
 20
5.4598519752
 10
6.6454032771
 20
5.4589858102
  0
LWPOLYLINE
  5
423
100
AcDbEntity
  8
0
100
AcDbPolyline
 62
7
  6
CONTINUOUS
 90
8
 70
0
 10
6.91181052
 20
5.4686595804
 10
6.8870368493
 20
5.4677934154
 10
6.8567269418
 20
5.4669272504
 10
6.8214590551
 20
5.4660610854
 10
6.7819060361
 20
5.4651949203
 10
6.738822484
 20
5.4643287553
 10
6.6930303543
 20
5.4634625903
 10
6.6454032771
 20
5.4625964253
  0
LWPOLYLINE
  5
424
100
AcDbEntity
  8
0
100
AcDbPolyline
 62
7
  6
CONTINUOUS
 90
16
 70
0
 10
6.91181052
 20
5.504419044
 10
6.8851825732
 20
5.5034951347
 10
6.8522972428
 20
5.5025712253
 10
6.813868205
 20
5.501647316
 10
6.770729445
 20
5.5007234067
 10
6.7238171584
 20
5.4997994973
 10
6.6741494336
 20
5.498875588
 10
6.6228041574
 20
5.4979516786
 10
6.5708956228
 20
5.4970277693
 10
6.5195503466
 20
5.49610386
 10
6.4698826218
 20
5.4951799506
 10
6.4229703352
 20
5.4942560413
 10
6.3798315752
 20
5.4933321319
 10
6.3414025374
 20
5.4924082226
 10
6.308517207
 20
5.4914843132
 10
6.2818892602
 20
5.4905604039
  0
LWPOLYLINE
  5
425
100
AcDbEntity
  8
0
100
AcDbPolyline
 62
7
  6
CONTINUOUS
 90
16
 70
0
 10
6.91181052
 20
5.5080296591
 10
6.8851825732
 20
5.5071057498
 10
6.8522972428
 20
5.5061818404
 10
6.813868205
 20
5.5052579311
 10
6.770729445
 20
5.5043340217
 10
6.7238171584
 20
5.5034101124
 10
6.6741494336
 20
5.5024862031
 10
6.6228041574
 20
5.5015622937
 10
6.5708956228
 20
5.5006383844
 10
6.5195503466
 20
5.499714475
 10
6.4698826218
 20
5.4987905657
 10
6.4229703352
 20
5.4978666564
 10
6.3798315752
 20
5.496942747
 10
6.3414025374
 20
5.4960188377
 10
6.308517207
 20
5.4950949283
 10
6.2818892602
 20
5.494171019
  0
LWPOLYLINE
  5
426
100
AcDbEntity
  8
0
100
AcDbPolyline
 62
7
  6
CONTINUOUS
 90
16
 70
0
 10
6.91181052
 20
5.5437891228
 10
6.8851825732
 20
5.5428652134
 10
6.8522972428
 20
5.5419413041
 10
6.813868205
 20
5.5410173947
 10
6.770729445
 20
5.5400934854
 10
6.7238171584
 20
5.5391695761
 10
6.6741494336
 20
5.5382456667
 10
6.6228041574
 20
5.5373217574
 10
6.5708956228
 20
5.536397848
 10
6.5195503466
 20
5.5354739387
 10
6.4698826218
 20
5.5345500294
 10
6.4229703352
 20
5.53362612
 10
6.3798315752
 20
5.5327022107
 10
6.3414025374
 20
5.5317783013
 10
6.308517207
 20
5.530854392
 10
6.2818892602
 20
5.5299304826
  0
LWPOLYLINE
  5
427
100
AcDbEntity
  8
0
100
AcDbPolyline
 62
7
  6
CONTINUOUS
 90
16
 70
0
 10
6.91181052
 20
5.5473997379
 10
6.8851825732
 20
5.5464758285
 10
6.8522972428
 20
5.5455519192
 10
6.813868205
 20
5.5446280098
 10
6.770729445
 20
5.5437041005
 10
6.7238171584
 20
5.5427801911
 10
6.6741494336
 20
5.5418562818
 10
6.6228041574
 20
5.5409323725
 10
6.5708956228
 20
5.5400084631
 10
6.5195503466
 20
5.5390845538
 10
6.4698826218
 20
5.5381606444
 10
6.4229703352
 20
5.5372367351
 10
6.3798315752
 20
5.5363128258
 10
6.3414025374
 20
5.5353889164
 10
6.308517207
 20
5.5344650071
 10
6.2818892602
 20
5.5335410977
  0
LWPOLYLINE
  5
428
100
AcDbEntity
  8
0
100
AcDbPolyline
 62
7
  6
CONTINUOUS
 90
9
 70
0
 10
6.5492403492
 20
5.4412866363
 10
6.5026592822
 20
5.4403648553
 10
6.4581129459
 20
5.4394430743
 10
6.416563642
 20
5.4385212933
 10
6.3789089296
 20
5.4375995123
 10
6.3459622359
 20
5.4366777313
 10
6.3184352842
 20
5.4357559503
 10
6.2969227188
 20
5.4348341693
 10
6.2818892602
 20
5.4339123883
  0
LWPOLYLINE
  5
429
100
AcDbEntity
  8
0
100
AcDbPolyline
 62
7
  6
CONTINUOUS
 90
10
 70
0
 10
6.5492403492
 20
5.4412866363
 10
6.6443492699
 20
5.44312805
 10
6.6913802575
 20
5.4440588293
 10
6.736370732
 20
5.444990496
 10
6.7778796047
 20
5.4459127999
 10
6.8150384067
 20
5.4468237663
 10
6.8478611373
 20
5.447742859
 10
6.8754719267
 20
5.4486686623
 10
6.8969487791
 20
5.4495913108
 10
6.91181052
 20
5.4505044464
  0
LWPOLYLINE
  5
42A
100
AcDbEntity
  8
0
100
AcDbPolyline
 62
7
  6
CONTINUOUS
 90
10
 70
0
 10
6.644459431
 20
5.4785632692
 10
6.5492403492
 20
5.4767197072
 10
6.5026592822
 20
5.4757979262
 10
6.4581129459
 20
5.4748761452
 10
6.416563642
 20
5.4739543642
 10
6.3789089296
 20
5.4730325832
 10
6.3459622359
 20
5.4721108022
 10
6.3184352842
 20
5.4711890212
 10
6.2969227188
 20
5.4702672401
 10
6.2818892602
 20
5.4693454591
  0
LWPOLYLINE
  5
42B
100
AcDbEntity
  8
0
100
AcDbPolyline
 62
7
  6
CONTINUOUS
 90
9
 70
0
 10
6.6454032771
 20
5.4589858102
 10
6.548296503
 20
5.4572534802
 10
6.5006694259
 20
5.4563873152
 10
6.4548772962
 20
5.4555211502
 10
6.4117937441
 20
5.4546549852
 10
6.3722407251
 20
5.4537888202
 10
6.3369728384
 20
5.4529226552
 10
6.3066629309
 20
5.4520564902
 10
6.2818892602
 20
5.4511903252
  0
LWPOLYLINE
  5
42C
100
AcDbEntity
  8
0
100
AcDbPolyline
 62
7
  6
CONTINUOUS
 90
9
 70
0
 10
6.6454032771
 20
5.4625964253
 10
6.548296503
 20
5.4608640953
 10
6.5006694259
 20
5.4599979303
 10
6.4548772962
 20
5.4591317653
 10
6.4117937441
 20
5.4582656003
 10
6.3722407251
 20
5.4573994353
 10
6.3369728384
 20
5.4565332703
 10
6.3066629309
 20
5.4556671053
 10
6.2818892602
 20
5.4548009402
  0
LWPOLYLINE
  5
42D
100
AcDbEntity
  8
0
100
AcDbPolyline
 62
7
  6
CONTINUOUS
 90
18
 70
0
 10
6.2818892602
 20
5.5520226245
 10
6.2980135779
 20
5.5529986709
 10
6.3213747242
 20
5.5539747326
 10
6.35140724
 20
5.5549508074
 10
6.3873840113
 20
5.5559268935
 10
6.4284338775
 20
5.5569029887
 10
6.473562735
 20
5.557879091
 10
6.5216776245
 20
5.5588551984
 10
6.5716132162
 20
5.5598313089
 10
6.6221564286
 20
5.5608073501
 10
6.6720823113
 20
5.5617833016
 10
6.7201838955
 20
5.562759193
 10
6.7652976787
 20
5.5637350353
 10
6.8063370827
 20
5.5647109516
 10
6.8423066189
 20
5.5656869144
 10
6.8723335454
 20
5.5666628837
 10
6.8956899293
 20
5.5676388197
 10
6.91181052
 20
5.5686146826
  0
LWPOLYLINE
  5
42E
100
AcDbEntity
  8
0
100
AcDbPolyline
 62
7
  6
CONTINUOUS
 90
18
 70
0
 10
6.91181052
 20
5.6040477535
 10
6.8956899293
 20
5.6030718906
 10
6.8723335454
 20
5.6020959546
 10
6.8423066189
 20
5.6011199852
 10
6.8063370827
 20
5.6001440225
 10
6.7652976787
 20
5.5991681062
 10
6.7201838955
 20
5.5981922639
 10
6.6720823113
 20
5.5972163724
 10
6.6221564286
 20
5.596240421
 10
6.5716132162
 20
5.5952643797
 10
6.5216776245
 20
5.5942882693
 10
6.473562735
 20
5.5933121619
 10
6.4284338775
 20
5.5923360596
 10
6.3873840113
 20
5.5913599644
 10
6.35140724
 20
5.5903838783
 10
6.3213747242
 20
5.5894078034
 10
6.2980135779
 20
5.5884317418
 10
6.2818892602
 20
5.5874556954
  0
LWPOLYLINE
  5
42F
100
AcDbEntity
  8
0
100
AcDbPolyline
 62
7
  6
CONTINUOUS
 90
18
 70
0
 10
6.2818892602
 20
5.5913927032
 10
6.2980118187
 20
5.592368663
 10
6.3213698973
 20
5.5933446355
 10
6.351398647
 20
5.5943206331
 10
6.3873710342
 20
5.5952966447
 10
6.4284156128
 20
5.5962726554
 10
6.4735387771
 20
5.5972486702
 10
6.5216480976
 20
5.5982246917
 10
6.5715786577
 20
5.5992007189
 10
6.6221211511
 20
5.6001767463
 10
6.6720516857
 20
5.601152773
 10
6.7201611139
 20
5.6021287967
 10
6.7652844383
 20
5.6031048153
 10
6.8063290207
 20
5.6040808268
 10
6.8423010559
 20
5.6050568292
 10
6.8723296472
 20
5.6060328205
 10
6.8956878995
 20
5.6070087985
 10
6.91181052
 20
5.6079847614
  0
LWPOLYLINE
  5
430
100
AcDbEntity
  8
0
100
AcDbPolyline
 62
7
  6
CONTINUOUS
 90
18
 70
0
 10
6.91181052
 20
5.6434178322
 10
6.8956878993
 20
5.6424418694
 10
6.8723296467
 20
5.6414658913
 10
6.8423010549
 20
5.6404899001
 10
6.8063290191
 20
5.6395138977
 10
6.7652844361
 20
5.6385378861
 10
6.7201611111
 20
5.6375618675
 10
6.6720516823
 20
5.6365858438
 10
6.6221211471
 20
5.635609817
 10
6.5715786331
 20
5.6346337893
 10
6.5216480979
 20
5.6336577625
 10
6.4735386691
 20
5.6326817388
 10
6.4284153441
 20
5.6317057202
 10
6.387370761
 20
5.6307297086
 10
6.3513987252
 20
5.6297537062
 10
6.3213701335
 20
5.628777715
 10
6.2980118808
 20
5.6278017369
 10
6.2818892602
 20
5.6268257741
  0
LWPOLYLINE
  5
431
100
AcDbEntity
  8
0
100
AcDbPolyline
 62
7
  6
CONTINUOUS
 90
18
 70
0
 10
6.2818892602
 20
5.630762782
 10
6.2980118808
 20
5.6317387448
 10
6.3213701335
 20
5.6327147229
 10
6.3513987252
 20
5.6336907141
 10
6.387370761
 20
5.6346667165
 10
6.4284153441
 20
5.6356427281
 10
6.4735386691
 20
5.6366187467
 10
6.5216480979
 20
5.6375947704
 10
6.5715786331
 20
5.6385707972
 10
6.6221211471
 20
5.6395468249
 10
6.6720516823
 20
5.6405228517
 10
6.7201611111
 20
5.6414988754
 10
6.7652844361
 20
5.642474894
 10
6.8063290191
 20
5.6434509055
 10
6.8423010549
 20
5.644426908
 10
6.8723296467
 20
5.6454028992
 10
6.8956878993
 20
5.6463788773
 10
6.91181052
 20
5.6473548401
  0
LWPOLYLINE
  5
432
100
AcDbEntity
  8
0
100
AcDbPolyline
 62
7
  6
CONTINUOUS
 90
18
 70
0
 10
6.91181052
 20
5.682787911
 10
6.8956878993
 20
5.6818119481
 10
6.8723296467
 20
5.6808359701
 10
6.8423010549
 20
5.6798599788
 10
6.8063290191
 20
5.6788839764
 10
6.7652844361
 20
5.6779079649
 10
6.7201611111
 20
5.6769319462
 10
6.6720516823
 20
5.6759559225
 10
6.6221211471
 20
5.6749798958
 10
6.5715786331
 20
5.674003868
 10
6.5216480979
 20
5.6730278413
 10
6.4735386691
 20
5.6720518176
 10
6.4284153441
 20
5.6710757989
 10
6.387370761
 20
5.6700997874
 10
6.3513987252
 20
5.669123785
 10
6.3213701335
 20
5.6681477937
 10
6.2980118808
 20
5.6671718157
 10
6.2818892602
 20
5.6661958528
  0
LWPOLYLINE
  5
433
100
AcDbEntity
  8
0
100
AcDbPolyline
 62
7
  6
CONTINUOUS
 90
16
 70
0
 10
6.91181052
 20
5.5831592015
 10
6.8851825732
 20
5.5822352922
 10
6.8522972428
 20
5.5813113828
 10
6.813868205
 20
5.5803874735
 10
6.770729445
 20
5.5794635641
 10
6.7238171584
 20
5.5785396548
 10
6.6741494336
 20
5.5776157455
 10
6.6228041574
 20
5.5766918361
 10
6.5708956228
 20
5.5757679268
 10
6.5195503466
 20
5.5748440174
 10
6.4698826218
 20
5.5739201081
 10
6.4229703352
 20
5.5729961987
 10
6.3798315752
 20
5.5720722894
 10
6.3414025374
 20
5.5711483801
 10
6.308517207
 20
5.5702244707
 10
6.2818892602
 20
5.5693005614
  0
LWPOLYLINE
  5
434
100
AcDbEntity
  8
0
100
AcDbPolyline
 62
7
  6
CONTINUOUS
 90
16
 70
0
 10
6.91181052
 20
5.5867698166
 10
6.8851825732
 20
5.5858459073
 10
6.8522972428
 20
5.5849219979
 10
6.813868205
 20
5.5839980886
 10
6.770729445
 20
5.5830741792
 10
6.7238171584
 20
5.5821502699
 10
6.6741494336
 20
5.5812263605
 10
6.6228041574
 20
5.5803024512
 10
6.5708956228
 20
5.5793785419
 10
6.5195503466
 20
5.5784546325
 10
6.4698826218
 20
5.5775307232
 10
6.4229703352
 20
5.5766068138
 10
6.3798315752
 20
5.5756829045
 10
6.3414025374
 20
5.5747589951
 10
6.308517207
 20
5.5738350858
 10
6.2818892602
 20
5.5729111765
  0
LWPOLYLINE
  5
435
100
AcDbEntity
  8
0
100
AcDbPolyline
 62
7
  6
CONTINUOUS
 90
16
 70
0
 10
6.91181052
 20
5.6225292803
 10
6.8851825732
 20
5.6216053709
 10
6.8522972428
 20
5.6206814616
 10
6.813868205
 20
5.6197575522
 10
6.770729445
 20
5.6188336429
 10
6.7238171584
 20
5.6179097335
 10
6.6741494336
 20
5.6169858242
 10
6.6228041574
 20
5.6160619149
 10
6.5708956228
 20
5.6151380055
 10
6.5195503466
 20
5.6142140962
 10
6.4698826218
 20
5.6132901868
 10
6.4229703352
 20
5.6123662775
 10
6.3798315752
 20
5.6114423681
 10
6.3414025374
 20
5.6105184588
 10
6.308517207
 20
5.6095945495
 10
6.2818892602
 20
5.6086706401
  0
LWPOLYLINE
  5
436
100
AcDbEntity
  8
0
100
AcDbPolyline
 62
7
  6
CONTINUOUS
 90
16
 70
0
 10
6.91181052
 20
5.6261398953
 10
6.8851825732
 20
5.625215986
 10
6.8522972428
 20
5.6242920767
 10
6.813868205
 20
5.6233681673
 10
6.770729445
 20
5.622444258
 10
6.7238171584
 20
5.6215203486
 10
6.6741494336
 20
5.6205964393
 10
6.6228041574
 20
5.6196725299
 10
6.5708956228
 20
5.6187486206
 10
6.5195503466
 20
5.6178247113
 10
6.4698826218
 20
5.6169008019
 10
6.4229703352
 20
5.6159768926
 10
6.3798315752
 20
5.6150529832
 10
6.3414025374
 20
5.6141290739
 10
6.308517207
 20
5.6132051645
 10
6.2818892602
 20
5.6122812552
  0
LWPOLYLINE
  5
437
100
AcDbEntity
  8
0
100
AcDbPolyline
 62
7
  6
CONTINUOUS
 90
16
 70
0
 10
6.91181052
 20
5.661899359
 10
6.8851825732
 20
5.6609754497
 10
6.8522972428
 20
5.6600515403
 10
6.813868205
 20
5.659127631
 10
6.770729445
 20
5.6582037216
 10
6.7238171584
 20
5.6572798123
 10
6.6741494336
 20
5.6563559029
 10
6.6228041574
 20
5.6554319936
 10
6.5708956228
 20
5.6545080843
 10
6.5195503466
 20
5.6535841749
 10
6.4698826218
 20
5.6526602656
 10
6.4229703352
 20
5.6517363562
 10
6.3798315752
 20
5.6508124469
 10
6.3414025374
 20
5.6498885375
 10
6.308517207
 20
5.6489646282
 10
6.2818892602
 20
5.6480407189
  0
LWPOLYLINE
  5
438
100
AcDbEntity
  8
0
100
AcDbPolyline
 62
7
  6
CONTINUOUS
 90
16
 70
0
 10
6.91181052
 20
5.6655099741
 10
6.8851825732
 20
5.6645860647
 10
6.8522972428
 20
5.6636621554
 10
6.813868205
 20
5.6627382461
 10
6.770729445
 20
5.6618143367
 10
6.7238171584
 20
5.6608904274
 10
6.6741494336
 20
5.659966518
 10
6.6228041574
 20
5.6590426087
 10
6.5708956228
 20
5.6581186993
 10
6.5195503466
 20
5.65719479
 10
6.4698826218
 20
5.6562708807
 10
6.4229703352
 20
5.6553469713
 10
6.3798315752
 20
5.654423062
 10
6.3414025374
 20
5.6534991526
 10
6.308517207
 20
5.6525752433
 10
6.2818892602
 20
5.6516513339
  0
LWPOLYLINE
  5
439
100
AcDbEntity
  8
0
100
AcDbPolyline
 62
7
  6
CONTINUOUS
 90
18
 70
0
 10
6.2818892602
 20
5.6701328607
 10
6.2980118808
 20
5.6711088236
 10
6.3213701335
 20
5.6720848016
 10
6.3513987252
 20
5.6730607929
 10
6.387370761
 20
5.6740367953
 10
6.4284153441
 20
5.6750128068
 10
6.4735386691
 20
5.6759888254
 10
6.5216480979
 20
5.6769648491
 10
6.5715786331
 20
5.6779408759
 10
6.6221211471
 20
5.6789169037
 10
6.6720516823
 20
5.6798929304
 10
6.7201611111
 20
5.6808689541
 10
6.7652844361
 20
5.6818449728
 10
6.8063290191
 20
5.6828209843
 10
6.8423010549
 20
5.6837969867
 10
6.8723296467
 20
5.6847729779
 10
6.8956878993
 20
5.685748956
 10
6.91181052
 20
5.6867249188
  0
LWPOLYLINE
  5
43A
100
AcDbEntity
  8
0
100
AcDbPolyline
 62
7
  6
CONTINUOUS
 90
18
 70
0
 10
6.91181052
 20
5.7221579897
 10
6.8956878993
 20
5.7211820269
 10
6.8723296467
 20
5.7202060488
 10
6.8423010549
 20
5.7192300576
 10
6.8063290191
 20
5.7182540552
 10
6.7652844361
 20
5.7172780436
 10
6.7201611111
 20
5.716302025
 10
6.6720516823
 20
5.7153260013
 10
6.6221211471
 20
5.7143499745
 10
6.5715786331
 20
5.7133739468
 10
6.5216480979
 20
5.71239792
 10
6.4735386691
 20
5.7114218963
 10
6.4284153441
 20
5.7104458777
 10
6.387370761
 20
5.7094698661
 10
6.3513987252
 20
5.7084938637
 10
6.3213701335
 20
5.7075178725
 10
6.2980118808
 20
5.7065418944
 10
6.2818892602
 20
5.7055659316
  0
LWPOLYLINE
  5
43B
100
AcDbEntity
  8
0
100
AcDbPolyline
 62
7
  6
CONTINUOUS
 90
18
 70
0
 10
6.2818892602
 20
5.7095029395
 10
6.2980118129
 20
5.7104788989
 10
6.3213700648
 20
5.7114548779
 10
6.3513985413
 20
5.7124308662
 10
6.3873706852
 20
5.7134068721
 10
6.4284152241
 20
5.7143828828
 10
6.4735387509
 20
5.7153589059
 10
6.5216483194
 20
5.7163349323
 10
6.5715787045
 20
5.717310956
 10
6.6221211496
 20
5.7182869824
 10
6.6720516844
 20
5.7192630092
 10
6.7201611128
 20
5.7202390329
 10
6.7652844374
 20
5.7212150515
 10
6.8063290201
 20
5.7221910631
 10
6.8423010556
 20
5.7231670655
 10
6.872329647
 20
5.7241430567
 10
6.8956878995
 20
5.7251190347
 10
6.91181052
 20
5.7260949976
  0
LWPOLYLINE
  5
43C
100
AcDbEntity
  8
0
100
AcDbPolyline
 62
7
  6
CONTINUOUS
 90
18
 70
0
 10
6.91181052
 20
5.7615280684
 10
6.8956878993
 20
5.7605521056
 10
6.8723296467
 20
5.7595761275
 10
6.8423010549
 20
5.7586001363
 10
6.8063290191
 20
5.7576241339
 10
6.7652844361
 20
5.7566481224
 10
6.7201611111
 20
5.7556721037
 10
6.6720516823
 20
5.75469608
 10
6.6221211471
 20
5.7537200533
 10
6.5715786331
 20
5.7527440255
 10
6.5216480979
 20
5.7517679987
 10
6.4735386691
 20
5.750791975
 10
6.4284153441
 20
5.7498159564
 10
6.387370761
 20
5.7488399449
 10
6.3513987252
 20
5.7478639425
 10
6.3213701335
 20
5.7468879512
 10
6.2980118808
 20
5.7459119732
 10
6.2818892602
 20
5.7449360103
  0
LWPOLYLINE
  5
43D
100
AcDbEntity
  8
0
100
AcDbPolyline
 62
7
  6
CONTINUOUS
 90
18
 70
0
 10
6.2818892602
 20
5.7488730182
 10
6.2980118808
 20
5.749848981
 10
6.3213701335
 20
5.7508249591
 10
6.3513987252
 20
5.7518009503
 10
6.387370761
 20
5.7527769527
 10
6.4284153441
 20
5.7537529643
 10
6.4735386691
 20
5.7547289829
 10
6.5216480979
 20
5.7557050066
 10
6.5715786331
 20
5.7566810334
 10
6.6221211471
 20
5.7576570611
 10
6.6720516823
 20
5.7586330879
 10
6.7201611111
 20
5.7596091116
 10
6.7652844361
 20
5.7605851302
 10
6.8063290191
 20
5.7615611418
 10
6.8423010549
 20
5.7625371442
 10
6.8723296467
 20
5.7635131354
 10
6.8956878993
 20
5.7644891135
 10
6.91181052
 20
5.7654650763
  0
LWPOLYLINE
  5
43E
100
AcDbEntity
  8
0
100
AcDbPolyline
 62
7
  6
CONTINUOUS
 90
18
 70
0
 10
6.91181052
 20
5.8008981472
 10
6.8956878993
 20
5.7999221843
 10
6.8723296467
 20
5.7989462063
 10
6.8423010549
 20
5.797970215
 10
6.8063290191
 20
5.7969942126
 10
6.7652844361
 20
5.7960182011
 10
6.7201611111
 20
5.7950421825
 10
6.6720516823
 20
5.7940661588
 10
6.6221211471
 20
5.793090132
 10
6.5715786331
 20
5.7921141042
 10
6.5216480979
 20
5.7911380775
 10
6.4735386691
 20
5.7901620538
 10
6.4284153441
 20
5.7891860351
 10
6.387370761
 20
5.7882100236
 10
6.3513987252
 20
5.7872340212
 10
6.3213701335
 20
5.78625803
 10
6.2980118808
 20
5.7852820519
 10
6.2818892602
 20
5.7843060891
  0
LWPOLYLINE
  5
43F
100
AcDbEntity
  8
0
100
AcDbPolyline
 62
7
  6
CONTINUOUS
 90
16
 70
0
 10
6.91181052
 20
5.7012694377
 10
6.8851825732
 20
5.7003455284
 10
6.8522972428
 20
5.699421619
 10
6.813868205
 20
5.6984977097
 10
6.770729445
 20
5.6975738004
 10
6.7238171584
 20
5.696649891
 10
6.6741494336
 20
5.6957259817
 10
6.6228041574
 20
5.6948020723
 10
6.5708956228
 20
5.693878163
 10
6.5195503466
 20
5.6929542537
 10
6.4698826218
 20
5.6920303443
 10
6.4229703352
 20
5.691106435
 10
6.3798315752
 20
5.6901825256
 10
6.3414025374
 20
5.6892586163
 10
6.308517207
 20
5.6883347069
 10
6.2818892602
 20
5.6874107976
  0
LWPOLYLINE
  5
440
100
AcDbEntity
  8
0
100
AcDbPolyline
 62
7
  6
CONTINUOUS
 90
16
 70
0
 10
6.91181052
 20
5.7048800528
 10
6.8851825732
 20
5.7039561435
 10
6.8522972428
 20
5.7030322341
 10
6.813868205
 20
5.7021083248
 10
6.770729445
 20
5.7011844154
 10
6.7238171584
 20
5.7002605061
 10
6.6741494336
 20
5.6993365968
 10
6.6228041574
 20
5.6984126874
 10
6.5708956228
 20
5.6974887781
 10
6.5195503466
 20
5.6965648687
 10
6.4698826218
 20
5.6956409594
 10
6.4229703352
 20
5.6947170501
 10
6.3798315752
 20
5.6937931407
 10
6.3414025374
 20
5.6928692314
 10
6.308517207
 20
5.691945322
 10
6.2818892602
 20
5.6910214127
  0
LWPOLYLINE
  5
441
100
AcDbEntity
  8
0
100
AcDbPolyline
 62
7
  6
CONTINUOUS
 90
16
 70
0
 10
6.91181052
 20
5.7406395165
 10
6.8851825732
 20
5.7397156071
 10
6.8522972428
 20
5.7387916978
 10
6.813868205
 20
5.7378677884
 10
6.770729445
 20
5.7369438791
 10
6.7238171584
 20
5.7360199698
 10
6.6741494336
 20
5.7350960604
 10
6.6228041574
 20
5.7341721511
 10
6.5708956228
 20
5.7332482417
 10
6.5195503466
 20
5.7323243324
 10
6.4698826218
 20
5.7314004231
 10
6.4229703352
 20
5.7304765137
 10
6.3798315752
 20
5.7295526044
 10
6.3414025374
 20
5.728628695
 10
6.308517207
 20
5.7277047857
 10
6.2818892602
 20
5.7267808763
  0
LWPOLYLINE
  5
442
100
AcDbEntity
  8
0
100
AcDbPolyline
 62
7
  6
CONTINUOUS
 90
16
 70
0
 10
6.91181052
 20
5.7442501316
 10
6.8851825732
 20
5.7433262222
 10
6.8522972428
 20
5.7424023129
 10
6.813868205
 20
5.7414784035
 10
6.770729445
 20
5.7405544942
 10
6.7238171584
 20
5.7396305848
 10
6.6741494336
 20
5.7387066755
 10
6.6228041574
 20
5.7377827662
 10
6.5708956228
 20
5.7368588568
 10
6.5195503466
 20
5.7359349475
 10
6.4698826218
 20
5.7350110381
 10
6.4229703352
 20
5.7340871288
 10
6.3798315752
 20
5.7331632195
 10
6.3414025374
 20
5.7322393101
 10
6.308517207
 20
5.7313154008
 10
6.2818892602
 20
5.7303914914
  0
LWPOLYLINE
  5
443
100
AcDbEntity
  8
0
100
AcDbPolyline
 62
7
  6
CONTINUOUS
 90
16
 70
0
 10
6.91181052
 20
5.7800095952
 10
6.8851825732
 20
5.7790856859
 10
6.8522972428
 20
5.7781617765
 10
6.813868205
 20
5.7772378672
 10
6.770729445
 20
5.7763139578
 10
6.7238171584
 20
5.7753900485
 10
6.6741494336
 20
5.7744661392
 10
6.6228041574
 20
5.7735422298
 10
6.5708956228
 20
5.7726183205
 10
6.5195503466
 20
5.7716944111
 10
6.4698826218
 20
5.7707705018
 10
6.4229703352
 20
5.7698465925
 10
6.3798315752
 20
5.7689226831
 10
6.3414025374
 20
5.7679987738
 10
6.308517207
 20
5.7670748644
 10
6.2818892602
 20
5.7661509551
  0
LWPOLYLINE
  5
444
100
AcDbEntity
  8
0
100
AcDbPolyline
 62
7
  6
CONTINUOUS
 90
16
 70
0
 10
6.91181052
 20
5.7836202103
 10
6.8851825732
 20
5.782696301
 10
6.8522972428
 20
5.7817723916
 10
6.813868205
 20
5.7808484823
 10
6.770729445
 20
5.7799245729
 10
6.7238171584
 20
5.7790006636
 10
6.6741494336
 20
5.7780767542
 10
6.6228041574
 20
5.7771528449
 10
6.5708956228
 20
5.7762289356
 10
6.5195503466
 20
5.7753050262
 10
6.4698826218
 20
5.7743811169
 10
6.4229703352
 20
5.7734572075
 10
6.3798315752
 20
5.7725332982
 10
6.3414025374
 20
5.7716093888
 10
6.308517207
 20
5.7706854795
 10
6.2818892602
 20
5.7697615702
  0
LWPOLYLINE
  5
445
100
AcDbEntity
  8
0
100
AcDbPolyline
 62
7
  6
CONTINUOUS
 90
18
 70
0
 10
6.2818892602
 20
5.7882430969
 10
6.2980118808
 20
5.7892190598
 10
6.3213701335
 20
5.7901950378
 10
6.3513987252
 20
5.7911710291
 10
6.387370761
 20
5.7921470315
 10
6.4284153441
 20
5.793123043
 10
6.4735386691
 20
5.7940990617
 10
6.5216480979
 20
5.7950750854
 10
6.5715786331
 20
5.7960511121
 10
6.6221211471
 20
5.7970271399
 10
6.6720516823
 20
5.7980031666
 10
6.7201611111
 20
5.7989791903
 10
6.7652844361
 20
5.799955209
 10
6.8063290191
 20
5.8009312205
 10
6.8423010549
 20
5.8019072229
 10
6.8723296467
 20
5.8028832142
 10
6.8956878993
 20
5.8038591922
 10
6.91181052
 20
5.8048351551
  0
LWPOLYLINE
  5
446
100
AcDbEntity
  8
0
100
AcDbPolyline
 62
7
  6
CONTINUOUS
 90
18
 70
0
 10
6.91181052
 20
5.8402682259
 10
6.8956878993
 20
5.8392922631
 10
6.8723296467
 20
5.838316285
 10
6.8423010549
 20
5.8373402938
 10
6.8063290191
 20
5.8363642914
 10
6.7652844361
 20
5.8353882798
 10
6.7201611111
 20
5.8344122612
 10
6.6720516823
 20
5.8334362375
 10
6.6221211471
 20
5.8324602107
 10
6.5715786331
 20
5.831484183
 10
6.5216480979
 20
5.8305081562
 10
6.4735386691
 20
5.8295321325
 10
6.4284153441
 20
5.8285561139
 10
6.387370761
 20
5.8275801023
 10
6.3513987252
 20
5.8266040999
 10
6.3213701335
 20
5.8256281087
 10
6.2980118808
 20
5.8246521306
 10
6.2818892602
 20
5.8236761678
  0
LWPOLYLINE
  5
447
100
AcDbEntity
  8
0
100
AcDbPolyline
 62
7
  6
CONTINUOUS
 90
16
 70
0
 10
6.91181052
 20
5.819379674
 10
6.8851825732
 20
5.8184557646
 10
6.8522972428
 20
5.8175318553
 10
6.813868205
 20
5.8166079459
 10
6.770729445
 20
5.8156840366
 10
6.7238171584
 20
5.8147601272
 10
6.6741494336
 20
5.8138362179
 10
6.6228041574
 20
5.8129123086
 10
6.5708956228
 20
5.8119883992
 10
6.5195503466
 20
5.8110644899
 10
6.4698826218
 20
5.8101405805
 10
6.4229703352
 20
5.8092166712
 10
6.3798315752
 20
5.8082927618
 10
6.3414025374
 20
5.8073688525
 10
6.308517207
 20
5.8064449432
 10
6.2818892602
 20
5.8055210338
  0
LWPOLYLINE
  5
448
100
AcDbEntity
  8
0
100
AcDbPolyline
 62
7
  6
CONTINUOUS
 90
16
 70
0
 10
6.91181052
 20
5.822990289
 10
6.8851825732
 20
5.8220663797
 10
6.8522972428
 20
5.8211424704
 10
6.813868205
 20
5.820218561
 10
6.770729445
 20
5.8192946517
 10
6.7238171584
 20
5.8183707423
 10
6.6741494336
 20
5.817446833
 10
6.6228041574
 20
5.8165229236
 10
6.5708956228
 20
5.8155990143
 10
6.5195503466
 20
5.814675105
 10
6.4698826218
 20
5.8137511956
 10
6.4229703352
 20
5.8128272863
 10
6.3798315752
 20
5.8119033769
 10
6.3414025374
 20
5.8109794676
 10
6.308517207
 20
5.8100555582
 10
6.2818892602
 20
5.8091316489
  0
LINE
  5
449
100
AcDbEntity
  8
AXIS
100
AcDbLine
 62
7
  6
CONTINUOUS
 10
6.1342514649
 20
5.8811847953
 11
7.0594483153
 21
5.8811847953
  0
LINE
  5
44A
100
AcDbEntity
  8
AXIS
100
AcDbLine
 62
7
  6
CONTINUOUS
 10
6.1342514649
 20
5.9182634258
 11
7.0594483153
 21
5.9182634258
  0
LINE
  5
44B
100
AcDbEntity
  8
AXIS
100
AcDbLine
 62
7
  6
CONTINUOUS
 10
6.2622042208
 20
6.0189800709
 11
6.9314955594
 21
6.0189800709
  0
LINE
  5
44C
100
AcDbEntity
  8
02___PRT_ALL_AXES
100
AcDbLine
 62
7
  6
CONTINUOUS
 10
6.91181052
 20
6.0859092047
 11
6.2818892602
 21
6.0859092047
  0
LINE
  5
44D
100
AcDbEntity
  8
02___PRT_ALL_AXES
100
AcDbLine
 62
7
  6
CONTINUOUS
 10
6.8133853232
 20
6.1843344016
 11
6.380314457
 21
6.1843344016
  0
LWPOLYLINE
  5
44E
100
AcDbEntity
  8
AXIS
100
AcDbPolyline
 62
7
  6
CONTINUOUS
 90
7
 70
0
 10
2.0573860066
 20
7.4830486988
 10
2.020455943
 20
7.4582465581
 10
1.9858281918
 20
7.4277659413
 10
1.9587118471
 20
7.3948469713
 10
1.939612035
 20
7.3601028664
 10
1.9288845489
 20
7.3241808433
 10
1.9264594713
 20
7.2968694955
  0
LWPOLYLINE
  5
44F
100
AcDbEntity
  8
02___PRT_ALL_AXES
100
AcDbPolyline
 62
7
  6
CONTINUOUS
 90
8
 70
0
 10
2.1867312078
 20
7.6073901159
 10
2.1562354964
 20
7.587095989
 10
2.1304453654
 20
7.5643533398
 10
2.1097010491
 20
7.5398951431
 10
2.0939085799
 20
7.5142685242
 10
2.0828618553
 20
7.4879355295
 10
2.0762859913
 20
7.4610174411
 10
2.0740972666
 20
7.4337526792
  0
LWPOLYLINE
  5
450
100
AcDbEntity
  8
AXIS
100
AcDbPolyline
 62
7
  6
CONTINUOUS
 90
4
 70
0
 10
2.0573860066
 20
7.4830486988
 10
2.0596678912
 20
7.4843974037
 10
2.0619580635
 20
7.4857384203
 10
2.064256201
 20
7.4870715161
  0
LINE
  5
451
100
AcDbEntity
  8
AXIS
100
AcDbLine
 62
7
  6
CONTINUOUS
 10
2.064256201
 20
7.4870715161
 11
2.0874080416
 21
7.4987726514
  0
LWPOLYLINE
  5
452
100
AcDbEntity
  8
02___PRT_ALL_AXES
100
AcDbPolyline
 62
7
  6
CONTINUOUS
 90
7
 70
0
 10
2.3448639067
 20
4.6854911704
 10
2.3390242249
 20
4.6893820487
 10
2.3342030844
 20
4.6937131371
 10
2.3304986296
 20
4.6983962671
 10
2.3279862727
 20
4.7033361036
 10
2.3267171579
 20
4.7084320859
 10
2.3265585046
 20
4.7110064302
  0
LWPOLYLINE
  5
453
100
AcDbEntity
  8
02___PRT_ALL_AXES
100
AcDbPolyline
 62
7
  6
CONTINUOUS
 90
27
 70
0
 10
2.5421722071
 20
7.4257185018
 10
2.5226000943
 20
7.4157076659
 10
2.5010806356
 20
7.407131861
 10
2.4779276332
 20
7.4001161417
 10
2.4534787098
 20
7.3947628129
 10
2.4280903859
 20
7.3911499382
 10
2.4021328805
 20
7.3893302015
 10
2.3759847123
 20
7.3893301387
 10
2.3500271806
 20
7.3911497506
 10
2.3246388046
 20
7.3947625032
 10
2.300189804
 20
7.4001157145
 10
2.2770367004
 20
7.4071313225
 10
2.255517118
 20
7.4157070239
 10
2.2359448609
 20
7.4257177657
 10
2.2186053366
 20
7.4370175687
 10
2.2037513945
 20
7.4494416564
 10
2.1915996384
 20
7.4628088575
 10
2.1823272684
 20
7.4769242482
 10
2.1760694965
 20
7.4915819942
 10
2.172917575
 20
7.5065683528
 10
2.1729174662
 20
7.5216647889
 10
2.1760691715
 20
7.5366511626
 10
2.182326732
 20
7.5513089387
 10
2.1915988984
 20
7.565424374
 10
2.2037504617
 20
7.5787916335
 10
2.2186042246
 20
7.5912157926
 10
2.2359435859
 20
7.6025156789
  0
LWPOLYLINE
  5
454
100
AcDbEntity
  8
AXIS
100
AcDbPolyline
 62
7
  6
CONTINUOUS
 90
5
 70
0
 10
2.0750279892
 20
7.4453466135
 10
2.0731909675
 20
7.4429156883
 10
2.0602460224
 20
7.4150231423
 10
2.0546461912
 20
7.3863282417
 10
2.0565165649
 20
7.3574719831
  0
LWPOLYLINE
  5
455
100
AcDbEntity
  8
02___PRT_ALL_AXES
100
AcDbPolyline
 62
7
  6
CONTINUOUS
 90
27
 70
0
 10
2.5421722071
 20
7.4257185018
 10
2.5595115684
 20
7.4370183882
 10
2.5743653313
 20
7.4494425472
 10
2.5865168946
 20
7.4628098067
 10
2.595789061
 20
7.476925242
 10
2.6020466215
 20
7.4915830182
 10
2.6051983268
 20
7.5065693918
 10
2.605198218
 20
7.521665828
 10
2.6020462965
 20
7.5366521865
 10
2.5957885246
 20
7.5513099326
 10
2.5865161546
 20
7.5654253232
 10
2.5743643985
 20
7.5787925244
 10
2.5595104564
 20
7.591216612
 10
2.5421709321
 20
7.602516415
 10
2.522598675
 20
7.6125271568
 10
2.5010790926
 20
7.6211028583
 10
2.477925989
 20
7.6281184663
 10
2.4534769884
 20
7.6334716775
 10
2.4280886124
 20
7.6370844301
 10
2.4021310807
 20
7.638904042
 10
2.3759829125
 20
7.6389039792
 10
2.3500254071
 20
7.6370842425
 10
2.3246370832
 20
7.6334713678
 10
2.3001881598
 20
7.628118039
 10
2.2770351574
 20
7.6211023197
 10
2.2555156987
 20
7.6125265148
 10
2.2359435859
 20
7.6025156789
  0
LWPOLYLINE
  5
456
100
AcDbEntity
  8
02___PRT_ALL_AXES
100
AcDbPolyline
 62
7
  6
CONTINUOUS
 90
9
 70
0
 10
2.611769621
 20
7.305172914
 10
2.633158143
 20
7.3188409226
 10
2.6520418661
 20
7.3336880813
 10
2.6682270179
 20
7.3495620382
 10
2.6815475167
 20
7.3662999051
 10
2.6918666761
 20
7.3837299286
 10
2.6990786078
 20
7.4016732533
 10
2.7031093074
 20
7.4199457563
 10
2.7040185264
 20
7.4337526792
  0
LINE
  5
457
100
AcDbEntity
  8
02___PRT_ALL_AXES
100
AcDbLine
 62
7
  6
CONTINUOUS
 10
2.6201213106
 20
7.2457033733
 11
2.5963606906
 21
7.2332699949
  0
LWPOLYLINE
  5
458
100
AcDbEntity
  8
02___PRT_ALL_AXES
100
AcDbPolyline
 62
7
  6
CONTINUOUS
 90
25
 70
0
 10
2.611769621
 20
7.305172914
 10
2.5880957753
 20
7.2928243078
 10
2.5623795316
 20
7.2819218174
 10
2.5348847735
 20
7.2725773171
 10
2.5058936342
 20
7.2648866941
 10
2.4757036022
 20
7.2589288646
 10
2.444624468
 20
7.2547649641
 10
2.4129751455
 20
7.2524377197
 10
2.3810803997
 20
7.2519710121
 10
2.3492675139
 20
7.2533696305
 10
2.3178629312
 20
7.256619223
 10
2.2871889052
 20
7.2616864445
 10
2.2575601928
 20
7.2685192984
 10
2.2292808249
 20
7.2770476704
 10
2.202640986
 20
7.2871840478
 10
2.1779140368
 20
7.2988244177
 10
2.1553537093
 20
7.3118493342
 10
2.135191503
 20
7.3261251439
 10
2.1176343095
 20
7.3415053578
 10
2.1028622893
 20
7.3578321541
 10
2.0910270233
 20
7.3749379977
 10
2.0822499573
 20
7.3926473595
 10
2.076621156
 20
7.4107785175
 10
2.0741983784
 20
7.4291454215
 10
2.0740972666
 20
7.4337526792
  0
LWPOLYLINE
  5
459
100
AcDbEntity
  8
02___PRT_ALL_AXES
100
AcDbPolyline
 62
7
  6
CONTINUOUS
 90
25
 70
0
 10
2.611769621
 20
7.2505251145
 10
2.5880957753
 20
7.2381765082
 10
2.5623795316
 20
7.2272740178
 10
2.5348847735
 20
7.2179295175
 10
2.5058936342
 20
7.2102388945
 10
2.4757036022
 20
7.2042810651
 10
2.444624468
 20
7.2001171645
 10
2.4129751455
 20
7.1977899201
 10
2.3810803997
 20
7.1973232126
 10
2.3492675139
 20
7.1987218309
 10
2.3178629312
 20
7.2019714234
 10
2.2871889052
 20
7.2070386449
 10
2.2575601928
 20
7.2138714988
 10
2.2292808249
 20
7.2223998708
 10
2.202640986
 20
7.2325362482
 10
2.1779140368
 20
7.2441766181
 10
2.1553537093
 20
7.2572015346
 10
2.135191503
 20
7.2714773444
 10
2.1176343095
 20
7.2868575583
 10
2.1028622893
 20
7.3031843545
 10
2.0910270233
 20
7.3202901981
 10
2.0822499573
 20
7.3379995599
 10
2.076621156
 20
7.3561307179
 10
2.0741983784
 20
7.3744976219
 10
2.0740977042
 20
7.3791019208
  0
LWPOLYLINE
  5
45A
100
AcDbEntity
  8
02___PRT_ALL_AXES
100
AcDbPolyline
 62
7
  6
CONTINUOUS
 90
22
 70
0
 10
2.5963606906
 20
7.2332699949
 10
2.5706036314
 20
7.2222410862
 10
2.5430981875
 20
7.2127228617
 10
2.5141092514
 20
7.2048069868
 10
2.4839160024
 20
7.198569696
 10
2.452809218
 20
7.1940710577
 10
2.4210884735
 20
7.1913543963
 10
2.389059257
 20
7.1904458746
 10
2.3570300274
 20
7.1913542423
 10
2.3253092437
 20
7.1940707513
 10
2.2942023944
 20
7.19856924
 10
2.2640090554
 20
7.2048063857
 10
2.2350200052
 20
7.2127221211
 10
2.207514424
 20
7.2222402135
 10
2.1817572057
 20
7.2332689983
 10
2.1579964064
 20
7.2457022624
 10
2.1364608555
 20
7.2594202667
 10
2.1173579523
 20
7.2742908992
 10
2.100871668
 20
7.2901709476
 10
2.0871607746
 20
7.3069074784
 10
2.0763573156
 20
7.3243393096
 10
2.0685653341
 20
7.3422985632
  0
LINE
  5
45B
100
AcDbEntity
  8
0
100
AcDbLine
 62
7
  6
CONTINUOUS
 10
2.0740972666
 20
7.4273529417
 11
2.0679827724
 21
7.4141780067
  0
LWPOLYLINE
  5
45C
100
AcDbEntity
  8
0
100
AcDbPolyline
 62
7
  6
CONTINUOUS
 90
7
 70
0
 10
2.6201213106
 20
7.2457033733
 10
2.6519784513
 20
7.2670759862
 10
2.6779623813
 20
7.2909511396
 10
2.6974926624
 20
7.3167955018
 10
2.7101330206
 20
7.3440317526
 10
2.7156010911
 20
7.3720514791
 10
2.7158273972
 20
7.3790949962
  0
LWPOLYLINE
  5
45D
100
AcDbEntity
  8
02___PRT_ALL_AXES
100
AcDbPolyline
 62
7
  6
CONTINUOUS
 90
9
 70
0
 10
2.611769621
 20
7.2505251145
 10
2.633158143
 20
7.2641931231
 10
2.6520418661
 20
7.2790402818
 10
2.6682270179
 20
7.2949142387
 10
2.6815475167
 20
7.3116521055
 10
2.6918666761
 20
7.329082129
 10
2.6990786078
 20
7.3470254537
 10
2.7031093074
 20
7.3652979567
 10
2.7040180888
 20
7.3791078385
  0
LINE
  5
45E
100
AcDbEntity
  8
02___PRT_ALL_AXES
100
AcDbLine
 62
7
  6
CONTINUOUS
 10
2.6201213106
 20
7.2457033733
 11
2.6416566636
 21
7.259421481
  0
LWPOLYLINE
  5
45F
100
AcDbEntity
  8
0
100
AcDbPolyline
 62
7
  6
CONTINUOUS
 90
3
 70
0
 10
2.5556588592
 20
7.0111341386
 10
2.5373406771
 20
7.0036029449
 10
2.5187990115
 20
6.9968706351
  0
LINE
  5
460
100
AcDbEntity
  8
0
100
AcDbLine
 62
7
  6
CONTINUOUS
 10
2.7047368614
 20
7.0573523221
 11
2.7234806703
 21
7.063314979
  0
LINE
  5
461
100
AcDbEntity
  8
0
100
AcDbLine
 62
7
  6
CONTINUOUS
 10
2.5187990115
 20
6.9968706351
 11
2.5000585716
 21
6.990909124
  0
LINE
  5
462
100
AcDbEntity
  8
0
100
AcDbLine
 62
7
  6
CONTINUOUS
 10
2.7047368614
 20
7.0252065576
 11
2.7234806703
 21
7.0311692145
  0
LINE
  5
463
100
AcDbEntity
  8
0
100
AcDbLine
 62
7
  6
CONTINUOUS
 10
2.518810478
 20
6.9647287704
 11
2.5000585716
 21
6.9587633596
  0
LWPOLYLINE
  5
464
100
AcDbEntity
  8
0
100
AcDbPolyline
 62
7
  6
CONTINUOUS
 90
3
 70
0
 10
2.5556588592
 20
7.0079195622
 10
2.5103891741
 20
6.9941503085
 10
2.5100130424
 20
6.9940757353
  0
LWPOLYLINE
  5
465
100
AcDbEntity
  8
0
100
AcDbPolyline
 62
7
  6
CONTINUOUS
 90
3
 70
0
 10
2.5556588592
 20
6.9757737977
 10
2.5103891741
 20
6.9620045441
 10
2.5100119257
 20
6.9619297494
  0
LWPOLYLINE
  5
466
100
AcDbEntity
  8
02___PRT_ALL_AXES
100
AcDbPolyline
 62
7
  6
CONTINUOUS
 90
3
 70
0
 10
2.6416566636
 20
7.259421481
 10
2.6607593524
 20
7.2742922053
 10
2.6772454077
 20
7.290172333
  0
LINE
  5
467
100
AcDbEntity
  8
AXIS
100
AcDbLine
 62
7
  6
CONTINUOUS
 10
2.6685782334
 20
7.0537866531
 11
2.7161657418
 21
7.0777431739
  0
LWPOLYLINE
  5
468
100
AcDbEntity
  8
0
100
AcDbPolyline
 62
7
  6
CONTINUOUS
 90
3
 70
0
 10
2.6678803827
 20
7.0430899644
 10
2.6861953937
 20
7.0506199318
 10
2.7047368614
 20
7.0573523221
  0
LWPOLYLINE
  5
469
100
AcDbEntity
  8
0
100
AcDbPolyline
 62
7
  6
CONTINUOUS
 90
3
 70
0
 10
2.5556588592
 20
6.9789883742
 10
2.5373515829
 20
6.9714613979
 10
2.518810478
 20
6.9647287704
  0
LWPOLYLINE
  5
46A
100
AcDbEntity
  8
0
100
AcDbPolyline
 62
7
  6
CONTINUOUS
 90
3
 70
0
 10
2.6678803827
 20
7.0109441999
 10
2.6861953937
 20
7.0184741674
 10
2.7047368614
 20
7.0252065576
  0
LWPOLYLINE
  5
46B
100
AcDbEntity
  8
0
100
AcDbPolyline
 62
7
  6
CONTINUOUS
 90
3
 70
0
 10
2.5556588592
 20
6.9468426097
 10
2.5373406771
 20
6.939311416
 10
2.5187990115
 20
6.9325791062
  0
LWPOLYLINE
  5
46C
100
AcDbEntity
  8
0
100
AcDbPolyline
 62
7
  6
CONTINUOUS
 90
3
 70
0
 10
2.6678803827
 20
6.9787984355
 10
2.6861524327
 20
6.9863117872
 10
2.7046968066
 20
6.9930471689
  0
LWPOLYLINE
  5
46D
100
AcDbEntity
  8
0
100
AcDbPolyline
 62
7
  6
CONTINUOUS
 90
3
 70
0
 10
2.5556588592
 20
6.9146968453
 10
2.5373406771
 20
6.9071656515
 10
2.5187990115
 20
6.9004333418
  0
LWPOLYLINE
  5
46E
100
AcDbEntity
  8
0
100
AcDbPolyline
 62
7
  6
CONTINUOUS
 90
3
 70
0
 10
2.6678803827
 20
6.946652671
 10
2.6861953937
 20
6.9541826385
 10
2.7047368614
 20
6.9609150287
  0
LINE
  5
46F
100
AcDbEntity
  8
0
100
AcDbLine
 62
7
  6
CONTINUOUS
 10
2.7046968066
 20
6.9930471689
 11
2.7234806703
 21
6.9990234501
  0
LINE
  5
470
100
AcDbEntity
  8
0
100
AcDbLine
 62
7
  6
CONTINUOUS
 10
2.5187990115
 20
6.9325791062
 11
2.5000585716
 21
6.9266175951
  0
LINE
  5
471
100
AcDbEntity
  8
0
100
AcDbLine
 62
7
  6
CONTINUOUS
 10
2.7047368614
 20
6.9609150287
 11
2.7234806703
 21
6.9668776856
  0
LINE
  5
472
100
AcDbEntity
  8
0
100
AcDbLine
 62
7
  6
CONTINUOUS
 10
2.5187990115
 20
6.9004333418
 11
2.5000585716
 21
6.8944718307
  0
LINE
  5
473
100
AcDbEntity
  8
0
100
AcDbLine
 62
7
  6
CONTINUOUS
 10
2.7047866916
 20
6.9287862082
 11
2.7234806703
 21
6.9347319212
  0
LINE
  5
474
100
AcDbEntity
  8
0
100
AcDbLine
 62
7
  6
CONTINUOUS
 10
2.51874807
 20
6.868270256
 11
2.5000585716
 21
6.8623260662
  0
LWPOLYLINE
  5
475
100
AcDbEntity
  8
0
100
AcDbPolyline
 62
7
  6
CONTINUOUS
 90
3
 70
0
 10
2.5556588592
 20
6.9436280333
 10
2.5103891741
 20
6.9298587796
 10
2.5100130424
 20
6.9297842064
  0
LWPOLYLINE
  5
476
100
AcDbEntity
  8
0
100
AcDbPolyline
 62
7
  6
CONTINUOUS
 90
3
 70
0
 10
2.5556588592
 20
6.9114822688
 10
2.5103891741
 20
6.8977130152
 10
2.5100130424
 20
6.8976384419
  0
LWPOLYLINE
  5
477
100
AcDbEntity
  8
0
100
AcDbPolyline
 62
7
  6
CONTINUOUS
 90
3
 70
0
 10
2.5556588592
 20
6.8793365044
 10
2.5103939804
 20
6.8655684498
 10
2.5100200229
 20
6.865494303
  0
LWPOLYLINE
  5
478
100
AcDbEntity
  8
0
100
AcDbPolyline
 62
7
  6
CONTINUOUS
 90
3
 70
0
 10
2.0679827724
 20
7.4141780067
 10
2.0625147019
 20
7.3861582803
 10
2.0622883958
 20
7.3791147631
  0
LWPOLYLINE
  5
479
100
AcDbEntity
  8
0
100
AcDbPolyline
 62
7
  6
CONTINUOUS
 90
3
 70
0
 10
2.5000585716
 20
6.9938572
 10
2.5188008752
 20
7.0102475466
 10
2.5196763242
 20
7.0109757876
  0
LWPOLYLINE
  5
47A
100
AcDbEntity
  8
0
100
AcDbPolyline
 62
7
  6
CONTINUOUS
 90
4
 70
0
 10
2.5000585716
 20
6.9617114355
 10
2.5188123845
 20
6.9781116078
 10
2.537351653
 20
6.9935329736
 10
2.5556588592
 20
7.0079195622
  0
LWPOLYLINE
  5
47B
100
AcDbEntity
  8
0
100
AcDbPolyline
 62
7
  6
CONTINUOUS
 90
3
 70
0
 10
2.5556588592
 20
6.8504053163
 10
2.5373406771
 20
6.8428741226
 10
2.5187990115
 20
6.8361418129
  0
LWPOLYLINE
  5
47C
100
AcDbEntity
  8
0
100
AcDbPolyline
 62
7
  6
CONTINUOUS
 90
3
 70
0
 10
2.6678803827
 20
6.8823611421
 10
2.6861953937
 20
6.8898911095
 10
2.7047368614
 20
6.8966234998
  0
LWPOLYLINE
  5
47D
100
AcDbEntity
  8
0
100
AcDbPolyline
 62
7
  6
CONTINUOUS
 90
3
 70
0
 10
2.5556588592
 20
6.8182595519
 10
2.5373821585
 20
6.8107444012
 10
2.5188377812
 20
6.8040092352
  0
LWPOLYLINE
  5
47E
100
AcDbEntity
  8
0
100
AcDbPolyline
 62
7
  6
CONTINUOUS
 90
3
 70
0
 10
2.6678803827
 20
6.8502153777
 10
2.6861953937
 20
6.8577453451
 10
2.7047368614
 20
6.8644777354
  0
LWPOLYLINE
  5
47F
100
AcDbEntity
  8
0
100
AcDbPolyline
 62
7
  6
CONTINUOUS
 90
3
 70
0
 10
2.5556588592
 20
6.7861137874
 10
2.5373406771
 20
6.7785825937
 10
2.5187990115
 20
6.7718502839
  0
LWPOLYLINE
  5
480
100
AcDbEntity
  8
0
100
AcDbPolyline
 62
7
  6
CONTINUOUS
 90
3
 70
0
 10
2.5556588592
 20
6.8825510808
 10
2.5372968345
 20
6.8750029357
 10
2.51874807
 20
6.868270256
  0
LWPOLYLINE
  5
481
100
AcDbEntity
  8
0
100
AcDbPolyline
 62
7
  6
CONTINUOUS
 90
3
 70
0
 10
2.6678803827
 20
6.9145069066
 10
2.6862382666
 20
6.9220534509
 10
2.7047866916
 20
6.9287862082
  0
LINE
  5
482
100
AcDbEntity
  8
0
100
AcDbLine
 62
7
  6
CONTINUOUS
 10
2.5188377812
 20
6.8040092352
 11
2.5000585716
 21
6.7980345373
  0
LINE
  5
483
100
AcDbEntity
  8
0
100
AcDbLine
 62
7
  6
CONTINUOUS
 10
2.7047241634
 20
6.8323276522
 11
2.7234806703
 21
6.8382946278
  0
LINE
  5
484
100
AcDbEntity
  8
0
100
AcDbLine
 62
7
  6
CONTINUOUS
 10
2.7047368614
 20
6.8966234998
 11
2.7234806703
 21
6.9025861567
  0
LINE
  5
485
100
AcDbEntity
  8
0
100
AcDbLine
 62
7
  6
CONTINUOUS
 10
2.5187990115
 20
6.8361418129
 11
2.5000585716
 21
6.8301803018
  0
LINE
  5
486
100
AcDbEntity
  8
0
100
AcDbLine
 62
7
  6
CONTINUOUS
 10
2.7047368614
 20
6.8644777354
 11
2.7234806703
 21
6.8704403922
  0
LINE
  5
487
100
AcDbEntity
  8
0
100
AcDbLine
 62
7
  6
CONTINUOUS
 10
2.5187990115
 20
6.7718502839
 11
2.5000585716
 21
6.7658887729
  0
LINE
  5
488
100
AcDbEntity
  8
0
100
AcDbLine
 62
7
  6
CONTINUOUS
 10
2.7047368614
 20
6.8001862065
 11
2.7234806703
 21
6.8061488633
  0
LINE
  5
489
100
AcDbEntity
  8
0
100
AcDbLine
 62
7
  6
CONTINUOUS
 10
2.5187990115
 20
6.7397045195
 11
2.5000585716
 21
6.7337430084
  0
LWPOLYLINE
  5
48A
100
AcDbEntity
  8
0
100
AcDbPolyline
 62
7
  6
CONTINUOUS
 90
3
 70
0
 10
2.5556588592
 20
6.782899211
 10
2.5129898733
 20
6.7697864143
 10
2.5110535274
 20
6.7693863722
  0
LWPOLYLINE
  5
48B
100
AcDbEntity
  8
0
100
AcDbPolyline
 62
7
  6
CONTINUOUS
 90
3
 70
0
 10
2.5556588592
 20
6.8471907399
 10
2.5103891741
 20
6.8334214863
 10
2.5100130424
 20
6.833346913
  0
LWPOLYLINE
  5
48C
100
AcDbEntity
  8
0
100
AcDbPolyline
 62
7
  6
CONTINUOUS
 90
3
 70
0
 10
2.5556588592
 20
6.8150449754
 10
2.5103891741
 20
6.8012757218
 10
2.5100092674
 20
6.8012004001
  0
LWPOLYLINE
  5
48D
100
AcDbEntity
  8
0
100
AcDbPolyline
 62
7
  6
CONTINUOUS
 90
3
 70
0
 10
2.5556588592
 20
6.7507534465
 10
2.5103891741
 20
6.7369841929
 10
2.5100130424
 20
6.7369096197
  0
LINE
  5
48E
100
AcDbEntity
  8
AXIS
100
AcDbLine
 62
7
  6
CONTINUOUS
 10
1.9264594713
 20
7.2968694955
 11
1.9267292216
 21
7.2877500616
  0
LWPOLYLINE
  5
48F
100
AcDbEntity
  8
AXIS
100
AcDbPolyline
 62
7
  6
CONTINUOUS
 90
18
 70
0
 10
1.9264615908
 20
7.2665840575
 10
1.9267292216
 20
7.2574752702
 10
1.9331862028
 20
7.2212143662
 10
1.948135211
 20
7.1857988121
 10
1.9712977747
 20
7.1518883326
 10
2.002242419
 20
7.1201146157
 10
2.0403927037
 20
7.0910695457
 10
2.0850379613
 20
7.0652941774
 10
2.135346535
 20
7.0432686569
 10
2.1903812714
 20
7.0254032782
 10
2.2491169774
 20
7.0120308394
 10
2.3104595179
 20
7.0034004437
 10
2.3732661976
 20
6.9996728592
 10
2.4363670466
 20
7.0009175235
 10
2.4985866158
 20
7.0071112511
 10
2.5587658721
 20
7.0181386644
 10
2.6157837899
 20
7.0337943436
 10
2.6685782334
 20
7.0537866531
  0
LINE
  5
490
100
AcDbEntity
  8
AXIS
100
AcDbLine
 62
7
  6
CONTINUOUS
 10
1.9264594713
 20
7.2968694955
 11
1.9264594713
 21
7.2665947041
  0
LWPOLYLINE
  5
491
100
AcDbEntity
  8
02___PRT_ALL_AXES
100
AcDbPolyline
 62
7
  6
CONTINUOUS
 90
4
 70
0
 10
2.062286243
 20
7.3791048784
 10
2.0638596044
 20
7.3975959142
 10
2.0685648032
 20
7.4159096553
 10
2.0740972666
 20
7.4286615365
  0
LINE
  5
492
100
AcDbEntity
  8
02___PRT_ALL_AXES
100
AcDbLine
 62
7
  6
CONTINUOUS
 10
2.6772454077
 20
7.290172333
 11
2.6909560596
 21
7.3069089297
  0
LWPOLYLINE
  5
493
100
AcDbEntity
  8
0
100
AcDbPolyline
 62
7
  6
CONTINUOUS
 90
4
 70
0
 10
2.5000585716
 20
6.9295656711
 10
2.5188008752
 20
6.9459560177
 10
2.5373407535
 20
6.9613783881
 10
2.5556588592
 20
6.9757737977
  0
LWPOLYLINE
  5
494
100
AcDbEntity
  8
0
100
AcDbPolyline
 62
7
  6
CONTINUOUS
 90
4
 70
0
 10
2.5000585716
 20
6.8974199066
 10
2.5188008752
 20
6.9138102532
 10
2.5373407535
 20
6.9292326237
 10
2.5556588592
 20
6.9436280333
  0
LWPOLYLINE
  5
495
100
AcDbEntity
  8
0
100
AcDbPolyline
 62
7
  6
CONTINUOUS
 90
4
 70
0
 10
2.5000585716
 20
6.8652741422
 10
2.5187513472
 20
6.8816222024
 10
2.5372976565
 20
6.8970519775
 10
2.5556588592
 20
6.9114822688
  0
LWPOLYLINE
  5
496
100
AcDbEntity
  8
0
100
AcDbPolyline
 62
7
  6
CONTINUOUS
 90
4
 70
0
 10
2.7234806703
 20
7.060366903
 10
2.7047371049
 20
7.0439754791
 10
2.6861974887
 20
7.0285533769
 10
2.6678803827
 20
7.0141587764
  0
LWPOLYLINE
  5
497
100
AcDbEntity
  8
0
100
AcDbPolyline
 62
7
  6
CONTINUOUS
 90
4
 70
0
 10
2.5000585716
 20
6.8331283777
 10
2.5188008752
 20
6.8495187243
 10
2.5373407535
 20
6.8649410947
 10
2.5556588592
 20
6.8793365044
  0
LWPOLYLINE
  5
498
100
AcDbEntity
  8
0
100
AcDbPolyline
 62
7
  6
CONTINUOUS
 90
4
 70
0
 10
2.7234806703
 20
7.0282211386
 10
2.7047371049
 20
7.0118297147
 10
2.6861974887
 20
6.9964076125
 10
2.6678803827
 20
6.9820130119
  0
LWPOLYLINE
  5
499
100
AcDbEntity
  8
0
100
AcDbPolyline
 62
7
  6
CONTINUOUS
 90
4
 70
0
 10
2.5000585716
 20
6.8009826133
 10
2.5188392051
 20
6.8174056815
 10
2.5373812699
 20
6.8328281191
 10
2.5556588592
 20
6.8471907399
  0
LWPOLYLINE
  5
49A
100
AcDbEntity
  8
0
100
AcDbPolyline
 62
7
  6
CONTINUOUS
 90
4
 70
0
 10
2.7234806703
 20
6.9960753741
 10
2.7046981621
 20
6.9796507054
 10
2.6861561862
 20
6.9642284231
 10
2.6678803827
 20
6.9498672475
  0
LWPOLYLINE
  5
49B
100
AcDbEntity
  8
0
100
AcDbPolyline
 62
7
  6
CONTINUOUS
 90
3
 70
0
 10
2.6921577177
 20
7.0656570457
 10
2.6862097319
 20
7.0607090502
 10
2.6678803827
 20
7.0463045408
  0
LWPOLYLINE
  5
49C
100
AcDbEntity
  8
0
100
AcDbPolyline
 62
7
  6
CONTINUOUS
 90
3
 70
0
 10
2.6678803827
 20
6.8180696132
 10
2.6861832258
 20
6.8255948751
 10
2.7047241634
 20
6.8323276522
  0
LWPOLYLINE
  5
49D
100
AcDbEntity
  8
0
100
AcDbPolyline
 62
7
  6
CONTINUOUS
 90
3
 70
0
 10
2.5556588592
 20
6.753968023
 10
2.5373406771
 20
6.7464368292
 10
2.5187990115
 20
6.7397045195
  0
LWPOLYLINE
  5
49E
100
AcDbEntity
  8
0
100
AcDbPolyline
 62
7
  6
CONTINUOUS
 90
3
 70
0
 10
2.6678803827
 20
6.7859238488
 10
2.6861953937
 20
6.7934538162
 10
2.7047368614
 20
6.8001862065
  0
LWPOLYLINE
  5
49F
100
AcDbEntity
  8
0
100
AcDbPolyline
 62
7
  6
CONTINUOUS
 90
3
 70
0
 10
2.5556588592
 20
6.7218222585
 10
2.537327293
 20
6.7142858894
 10
2.5187832736
 20
6.7075534031
  0
LWPOLYLINE
  5
4A0
100
AcDbEntity
  8
0
100
AcDbPolyline
 62
7
  6
CONTINUOUS
 90
3
 70
0
 10
2.6678803827
 20
6.7537780843
 10
2.6861953937
 20
6.7613080517
 10
2.7047368614
 20
6.768040442
  0
LWPOLYLINE
  5
4A1
100
AcDbEntity
  8
0
100
AcDbPolyline
 62
7
  6
CONTINUOUS
 90
3
 70
0
 10
2.5556588592
 20
6.6896764941
 10
2.5373406771
 20
6.6821453003
 10
2.5187990115
 20
6.6754129906
  0
LINE
  5
4A2
100
AcDbEntity
  8
0
100
AcDbLine
 62
7
  6
CONTINUOUS
 10
2.7047368614
 20
6.768040442
 11
2.7234806703
 21
6.7740030989
  0
LINE
  5
4A3
100
AcDbEntity
  8
0
100
AcDbLine
 62
7
  6
CONTINUOUS
 10
2.5187832736
 20
6.7075534031
 11
2.5000585716
 21
6.7015972439
  0
LINE
  5
4A4
100
AcDbEntity
  8
0
100
AcDbLine
 62
7
  6
CONTINUOUS
 10
2.5187990115
 20
6.6754129906
 11
2.5000585716
 21
6.6694514795
  0
LINE
  5
4A5
100
AcDbEntity
  8
0
100
AcDbLine
 62
7
  6
CONTINUOUS
 10
2.5187990115
 20
6.6432672261
 11
2.5000585716
 21
6.637305715
  0
LWPOLYLINE
  5
4A6
100
AcDbEntity
  8
0
100
AcDbPolyline
 62
7
  6
CONTINUOUS
 90
3
 70
0
 10
2.5556588592
 20
6.7186076821
 10
2.5103891741
 20
6.7048384285
 10
2.5100145755
 20
6.7047641592
  0
LWPOLYLINE
  5
4A7
100
AcDbEntity
  8
0
100
AcDbPolyline
 62
7
  6
CONTINUOUS
 90
3
 70
0
 10
2.5556588592
 20
6.6864619176
 10
2.5103851562
 20
6.6726916616
 10
2.5100113654
 20
6.6726175573
  0
LINE
  5
4A8
100
AcDbEntity
  8
0
100
AcDbLine
 62
7
  6
CONTINUOUS
 10
2.0642547469
 20
6.7445809551
 11
2.0642547469
 21
6.7040438261
  0
LINE
  5
4A9
100
AcDbEntity
  8
02___PRT_ALL_AXES
100
AcDbLine
 62
7
  6
CONTINUOUS
 10
2.0740972666
 20
7.3791048797
 11
2.0740972666
 21
7.4337526792
  0
LWPOLYLINE
  5
4AA
100
AcDbEntity
  8
0
100
AcDbPolyline
 62
7
  6
CONTINUOUS
 90
3
 70
0
 10
2.0366956918
 20
7.0808196428
 10
2.0368108703
 20
7.0858899018
 10
2.038044335
 20
7.0928574363
  0
LWPOLYLINE
  5
4AB
100
AcDbEntity
  8
0
100
AcDbPolyline
 62
7
  6
CONTINUOUS
 90
3
 70
0
 10
2.0366956918
 20
7.0486738783
 10
2.0368108703
 20
7.0537441374
 10
2.0383617343
 20
7.0625045811
  0
LWPOLYLINE
  5
4AC
100
AcDbEntity
  8
0
100
AcDbPolyline
 62
7
  6
CONTINUOUS
 90
3
 70
0
 10
2.0366956918
 20
7.0165281139
 10
2.0368108703
 20
7.0215983729
 10
2.0383617343
 20
7.0303588166
  0
LWPOLYLINE
  5
4AD
100
AcDbEntity
  8
0
100
AcDbPolyline
 62
7
  6
CONTINUOUS
 90
3
 70
0
 10
2.0366956918
 20
6.9843823494
 10
2.0368108703
 20
6.9894526085
 10
2.0383617343
 20
6.9982130522
  0
LWPOLYLINE
  5
4AE
100
AcDbEntity
  8
0
100
AcDbPolyline
 62
7
  6
CONTINUOUS
 90
3
 70
0
 10
2.0366956918
 20
6.952236585
 10
2.0368108703
 20
6.957306844
 10
2.0383617343
 20
6.9660672877
  0
LWPOLYLINE
  5
4AF
100
AcDbEntity
  8
0
100
AcDbPolyline
 62
7
  6
CONTINUOUS
 90
3
 70
0
 10
2.0366956918
 20
6.8879450561
 10
2.0368108703
 20
6.8930153151
 10
2.0381047567
 20
6.9003241567
  0
LWPOLYLINE
  5
4B0
100
AcDbEntity
  8
0
100
AcDbPolyline
 62
7
  6
CONTINUOUS
 90
3
 70
0
 10
2.0366956918
 20
6.8557992916
 10
2.0368108703
 20
6.8608695506
 10
2.0383617343
 20
6.8696299944
  0
LWPOLYLINE
  5
4B1
100
AcDbEntity
  8
0
100
AcDbPolyline
 62
7
  6
CONTINUOUS
 90
3
 70
0
 10
2.0366956918
 20
6.8236535272
 10
2.0368108703
 20
6.8287237862
 10
2.0383617343
 20
6.8374842299
  0
LWPOLYLINE
  5
4B2
100
AcDbEntity
  8
0
100
AcDbPolyline
 62
7
  6
CONTINUOUS
 90
3
 70
0
 10
2.0366956918
 20
6.9200908205
 10
2.0370367299
 20
6.9288139795
 10
2.0382590519
 20
6.9348686287
  0
LWPOLYLINE
  5
4B3
100
AcDbEntity
  8
02___PRT_ALL_AXES
100
AcDbPolyline
 62
7
  6
CONTINUOUS
 90
3
 70
0
 10
2.6909560596
 20
7.3069089297
 10
2.7017592673
 20
7.3243408129
 10
2.7095509898
 20
7.342300104
  0
LINE
  5
4B4
100
AcDbEntity
  8
0
100
AcDbLine
 62
7
  6
CONTINUOUS
 10
2.6756669867
 20
7.0202779229
 11
2.6678803827
 21
7.0109441999
  0
LINE
  5
4B5
100
AcDbEntity
  8
0
100
AcDbLine
 62
7
  6
CONTINUOUS
 10
2.6756669867
 20
6.9881321584
 11
2.6678803827
 21
6.9787984355
  0
LINE
  5
4B6
100
AcDbEntity
  8
0
100
AcDbLine
 62
7
  6
CONTINUOUS
 10
2.6759170501
 20
7.0526203271
 11
2.6678803827
 21
7.0430899644
  0
LWPOLYLINE
  5
4B7
100
AcDbEntity
  8
0
100
AcDbPolyline
 62
7
  6
CONTINUOUS
 90
4
 70
0
 10
2.5000585716
 20
6.7688368488
 10
2.5188008752
 20
6.7852271954
 10
2.5373407535
 20
6.8006495658
 10
2.5556588592
 20
6.8150449754
  0
LWPOLYLINE
  5
4B8
100
AcDbEntity
  8
0
100
AcDbPolyline
 62
7
  6
CONTINUOUS
 90
4
 70
0
 10
2.7234806703
 20
6.9639296097
 10
2.7047371049
 20
6.9475381858
 10
2.6861974887
 20
6.9321160836
 10
2.6678803827
 20
6.917721483
  0
LWPOLYLINE
  5
4B9
100
AcDbEntity
  8
0
100
AcDbPolyline
 62
7
  6
CONTINUOUS
 90
4
 70
0
 10
2.5000585716
 20
6.7366910843
 10
2.5188008752
 20
6.7530814309
 10
2.5373407535
 20
6.7685038014
 10
2.5556588592
 20
6.782899211
  0
LWPOLYLINE
  5
4BA
100
AcDbEntity
  8
0
100
AcDbPolyline
 62
7
  6
CONTINUOUS
 90
4
 70
0
 10
2.7234806703
 20
6.9317838452
 10
2.7047859597
 20
6.9154341328
 10
2.6862401436
 20
6.9000048428
 10
2.6678803827
 20
6.8855757186
  0
LWPOLYLINE
  5
4BB
100
AcDbEntity
  8
0
100
AcDbPolyline
 62
7
  6
CONTINUOUS
 90
4
 70
0
 10
2.5000585716
 20
6.7045453199
 10
2.5187859428
 20
6.720922918
 10
2.5373279702
 20
6.7363476909
 10
2.5556588592
 20
6.7507534465
  0
LWPOLYLINE
  5
4BC
100
AcDbEntity
  8
0
100
AcDbPolyline
 62
7
  6
CONTINUOUS
 90
4
 70
0
 10
2.7234806703
 20
6.8996380808
 10
2.7047371049
 20
6.8832466569
 10
2.6861974887
 20
6.8678245547
 10
2.6678803827
 20
6.8534299541
  0
LWPOLYLINE
  5
4BD
100
AcDbEntity
  8
0
100
AcDbPolyline
 62
7
  6
CONTINUOUS
 90
4
 70
0
 10
2.5000585716
 20
6.6723995554
 10
2.5188008752
 20
6.688789902
 10
2.5373407535
 20
6.7042122725
 10
2.5556588592
 20
6.7186076821
  0
LWPOLYLINE
  5
4BE
100
AcDbEntity
  8
0
100
AcDbPolyline
 62
7
  6
CONTINUOUS
 90
4
 70
0
 10
2.7234806703
 20
6.8674923163
 10
2.7047371049
 20
6.8511008924
 10
2.6861974887
 20
6.8356787902
 10
2.6678803827
 20
6.8212841897
  0
LWPOLYLINE
  5
4BF
100
AcDbEntity
  8
0
100
AcDbPolyline
 62
7
  6
CONTINUOUS
 90
3
 70
0
 10
2.5556588592
 20
6.6575307296
 10
2.5373406771
 20
6.6499995359
 10
2.5187990115
 20
6.6432672261
  0
LWPOLYLINE
  5
4C0
100
AcDbEntity
  8
0
100
AcDbPolyline
 62
7
  6
CONTINUOUS
 90
59
 70
0
 10
2.5556588592
 20
6.5912873376
 10
2.5458450656
 20
6.5880344239
 10
2.5358409607
 20
6.5849808562
 10
2.5256586878
 20
6.5821303408
 10
2.5153106065
 20
6.5794863377
 10
2.5048092777
 20
6.577052056
 10
2.4941674484
 20
6.5748304505
 10
2.4833980357
 20
6.5728242176
 10
2.4725141121
 20
6.5710357926
 10
2.4615288886
 20
6.569467346
 10
2.4504556995
 20
6.5681207817
 10
2.4393079858
 20
6.5669977339
 10
2.4280992787
 20
6.5660995659
 10
2.4168431837
 20
6.5654273676
 10
2.4055533637
 20
6.564981955
 10
2.3942435226
 20
6.5647638686
 10
2.3829273884
 20
6.564773373
 10
2.371618697
 20
6.5650104566
 10
2.360331175
 20
6.5654748316
 10
2.3490785235
 20
6.5661659341
 10
2.3378744011
 20
6.5670829254
 10
2.3267324077
 20
6.5682246921
 10
2.3156660676
 20
6.5695898484
 10
2.3046888132
 20
6.5711767372
 10
2.293813969
 20
6.5729834321
 10
2.2830547351
 20
6.5750077402
 10
2.2724241711
 20
6.5772472042
 10
2.2619351807
 20
6.5796991059
 10
2.2516004954
 20
6.5823604689
 10
2.2414326599
 20
6.5852280629
 10
2.2314440158
 20
6.5882984071
 10
2.2216466876
 20
6.5915677746
 10
2.2120525675
 20
6.5950321969
 10
2.2026733008
 20
6.598687469
 10
2.1935202724
 20
6.6025291538
 10
2.1846045924
 20
6.6065525884
 10
2.1759370826
 20
6.6107528889
 10
2.1675282639
 20
6.615124957
 10
2.1593883431
 20
6.6196634858
 10
2.1515272005
 20
6.6243629663
 10
2.1439543781
 20
6.6292176942
 10
2.136679068
 20
6.6342217768
 10
2.129710101
 20
6.63936914
 10
2.1230559363
 20
6.6446535359
 10
2.1167246508
 20
6.6500685502
 10
2.1107239296
 20
6.65560761
 10
2.1050610565
 20
6.661263992
 10
2.0997429052
 20
6.6670308303
 10
2.094775931
 20
6.6729011251
 10
2.090166163
 20
6.6788677509
 10
2.0859191968
 20
6.6849234654
 10
2.0820401873
 20
6.691060918
 10
2.0785338431
 20
6.6972726589
 10
2.0754044204
 20
6.7035511483
 10
2.0726557178
 20
6.7098887653
 10
2.0702910717
 20
6.716277817
 10
2.0683133527
 20
6.7227105485
 10
2.0667249613
 20
6.7291791514
 10
2.0655278258
 20
6.7356757742
  0
LWPOLYLINE
  5
4C1
100
AcDbEntity
  8
0
100
AcDbPolyline
 62
7
  6
CONTINUOUS
 90
62
 70
0
 10
2.5556588592
 20
6.5430686909
 10
2.5458450656
 20
6.5398157772
 10
2.5358409607
 20
6.5367622095
 10
2.5256586878
 20
6.5339116941
 10
2.5153106065
 20
6.531267691
 10
2.5048092777
 20
6.5288334093
 10
2.4941674484
 20
6.5266118038
 10
2.4833980357
 20
6.5246055709
 10
2.4725141121
 20
6.5228171459
 10
2.4615288886
 20
6.5212486993
 10
2.4504556995
 20
6.519902135
 10
2.4393079858
 20
6.5187790873
 10
2.4280992787
 20
6.5178809192
 10
2.4168431837
 20
6.517208721
 10
2.4055533637
 20
6.5167633084
 10
2.3942435226
 20
6.5165452219
 10
2.3829273884
 20
6.5165547263
 10
2.371618697
 20
6.5167918099
 10
2.360331175
 20
6.5172561849
 10
2.3490785235
 20
6.5179472875
 10
2.3378744011
 20
6.5188642787
 10
2.3267324077
 20
6.5200060454
 10
2.3156660676
 20
6.5213712017
 10
2.3046888132
 20
6.5229580905
 10
2.293813969
 20
6.5247647854
 10
2.2830547351
 20
6.5267890935
 10
2.2724241711
 20
6.5290285575
 10
2.2619351807
 20
6.5314804592
 10
2.2516004954
 20
6.5341418222
 10
2.2414326599
 20
6.5370094162
 10
2.2314440158
 20
6.5400797604
 10
2.2216466876
 20
6.5433491279
 10
2.2120525675
 20
6.5468135502
 10
2.2026733008
 20
6.5504688223
 10
2.1935202724
 20
6.5543105071
 10
2.1846045924
 20
6.5583339417
 10
2.1759370826
 20
6.5625342422
 10
2.1675282639
 20
6.5669063104
 10
2.1593883431
 20
6.5714448391
 10
2.1515272005
 20
6.5761443196
 10
2.1439543781
 20
6.5809990476
 10
2.136679068
 20
6.5860031301
 10
2.129710101
 20
6.5911504934
 10
2.1230559363
 20
6.5964348892
 10
2.1167246508
 20
6.6018499035
 10
2.1107239296
 20
6.6073889633
 10
2.1050610565
 20
6.6130453453
 10
2.0997429052
 20
6.6188121836
 10
2.094775931
 20
6.6246824784
 10
2.090166163
 20
6.6306491043
 10
2.0859191968
 20
6.6367048187
 10
2.0820401873
 20
6.6428422713
 10
2.0785338431
 20
6.6490540122
 10
2.0754044204
 20
6.6553325017
 10
2.0726557178
 20
6.6616701186
 10
2.0702910717
 20
6.6680591704
 10
2.0683133527
 20
6.6744919018
 10
2.0667249613
 20
6.6809605047
 10
2.0655278258
 20
6.6874571275
 10
2.0647233992
 20
6.6939738843
 10
2.0643126584
 20
6.700502865
 10
2.064254758
 20
6.7040438536
  0
LWPOLYLINE
  5
4C2
100
AcDbEntity
  8
0
100
AcDbPolyline
 62
7
  6
CONTINUOUS
 90
15
 70
0
 10
2.5556588592
 20
6.5912873376
 10
2.5103899681
 20
6.5783151446
 10
2.4621798853
 20
6.5695537818
 10
2.4121975039
 20
6.5652164504
 10
2.3616551306
 20
6.5654085374
 10
2.3117786792
 20
6.5701250128
 10
2.2637769184
 20
6.5792507247
 10
2.2188059203
 20
6.5925657154
 10
2.1779546628
 20
6.6097484167
 10
2.1422145395
 20
6.6303825197
 10
2.1124524622
 20
6.6539675239
 10
2.0893895176
 20
6.6799310598
 10
2.0735826953
 20
6.7076444171
 10
2.0654129881
 20
6.7364401488
 10
2.0648925931
 20
6.7435774968
  0
LINE
  5
4C3
100
AcDbEntity
  8
0
100
AcDbLine
 62
7
  6
CONTINUOUS
 10
2.0393095826
 20
6.7995439239
 11
2.0366956918
 21
6.8236535272
  0
LINE
  5
4C4
100
AcDbEntity
  8
0
100
AcDbLine
 62
7
  6
CONTINUOUS
 10
2.0393095826
 20
6.8316896884
 11
2.0366956918
 21
6.8557992916
  0
LINE
  5
4C5
100
AcDbEntity
  8
0
100
AcDbLine
 62
7
  6
CONTINUOUS
 10
2.0393095826
 20
6.8638354528
 11
2.0366956918
 21
6.8879450561
  0
LINE
  5
4C6
100
AcDbEntity
  8
0
100
AcDbLine
 62
7
  6
CONTINUOUS
 10
2.0393095826
 20
6.9281269817
 11
2.0366956918
 21
6.952236585
  0
LINE
  5
4C7
100
AcDbEntity
  8
0
100
AcDbLine
 62
7
  6
CONTINUOUS
 10
2.0393095826
 20
6.9602727462
 11
2.0366956918
 21
6.9843823494
  0
LINE
  5
4C8
100
AcDbEntity
  8
0
100
AcDbLine
 62
7
  6
CONTINUOUS
 10
2.0393095826
 20
6.9924185107
 11
2.0366956918
 21
7.0165281139
  0
LINE
  5
4C9
100
AcDbEntity
  8
0
100
AcDbLine
 62
7
  6
CONTINUOUS
 10
2.0393095826
 20
7.0245642751
 11
2.0366956918
 21
7.0486738783
  0
LINE
  5
4CA
100
AcDbEntity
  8
0
100
AcDbLine
 62
7
  6
CONTINUOUS
 10
2.0393095826
 20
7.0567100396
 11
2.0366956918
 21
7.0808196428
  0
LWPOLYLINE
  5
4CB
100
AcDbEntity
  8
0
100
AcDbPolyline
 62
7
  6
CONTINUOUS
 90
17
 70
0
 10
2.0622883958
 20
7.3791147631
 10
2.0643410669
 20
7.3579809925
 10
2.0734210692
 20
7.3302755774
 10
2.0895518766
 20
7.3036609283
 10
2.1123731536
 20
7.2787315724
 10
2.1413751106
 20
7.2560443903
 10
2.1759098917
 20
7.2361061762
 10
2.2152060471
 20
7.2193623168
 10
2.2583857654
 20
7.2061868423
 10
2.3044844833
 20
7.196874071
 10
2.3524724314
 20
7.1916320349
 10
2.4012776384
 20
7.1905778323
 10
2.4498098765
 20
7.1937350124
 10
2.4969850158
 20
7.2010330491
 10
2.5417492416
 20
7.2123089162
 10
2.5831025951
 20
7.2273107295
 10
2.6201213106
 20
7.2457033733
  0
LINE
  5
4CC
100
AcDbEntity
  8
0
100
AcDbLine
 62
7
  6
CONTINUOUS
 10
2.0382590099
 20
6.9014310677
 11
2.0366956918
 21
6.9200908205
  0
LINE
  5
4CD
100
AcDbEntity
  8
0
100
AcDbLine
 62
7
  6
CONTINUOUS
 10
2.1511873602
 20
6.5763621819
 11
2.1568212203
 21
6.4446738505
  0
LWPOLYLINE
  5
4CE
100
AcDbEntity
  8
AXIS
100
AcDbPolyline
 62
7
  6
CONTINUOUS
 90
5
 70
0
 10
2.7178697706
 20
7.343186617
 10
2.7049248255
 20
7.315294071
 10
2.6849239351
 20
7.2888269531
 10
2.6583138864
 20
7.2643764948
 10
2.6256891037
 20
7.2424888791
  0
LINE
  5
4CF
100
AcDbEntity
  8
0
100
AcDbLine
 62
7
  6
CONTINUOUS
 10
2.6756664391
 20
6.9559855516
 11
2.6678803827
 21
6.946652671
  0
LINE
  5
4D0
100
AcDbEntity
  8
0
100
AcDbLine
 62
7
  6
CONTINUOUS
 10
2.6756669867
 20
6.9238406295
 11
2.6678803827
 21
6.9145069066
  0
LINE
  5
4D1
100
AcDbEntity
  8
0
100
AcDbLine
 62
7
  6
CONTINUOUS
 10
2.6756680174
 20
6.8916961005
 11
2.6678803827
 21
6.8823611421
  0
LINE
  5
4D2
100
AcDbEntity
  8
0
100
AcDbLine
 62
7
  6
CONTINUOUS
 10
2.6756669867
 20
6.8595491006
 11
2.6678803827
 21
6.8502153777
  0
LINE
  5
4D3
100
AcDbEntity
  8
0
100
AcDbLine
 62
7
  6
CONTINUOUS
 10
2.6756669867
 20
6.8274033361
 11
2.6678803827
 21
6.8180696132
  0
LWPOLYLINE
  5
4D4
100
AcDbEntity
  8
0
100
AcDbPolyline
 62
7
  6
CONTINUOUS
 90
4
 70
0
 10
2.5000585716
 20
6.640253791
 10
2.5188008752
 20
6.6566441376
 10
2.5373407535
 20
6.672066508
 10
2.5556588592
 20
6.6864619176
  0
LWPOLYLINE
  5
4D5
100
AcDbEntity
  8
0
100
AcDbPolyline
 62
7
  6
CONTINUOUS
 90
4
 70
0
 10
2.7234806703
 20
6.8353465518
 10
2.7047249677
 20
6.8189447663
 10
2.686185924
 20
6.8035236663
 10
2.6678803827
 20
6.7891384252
  0
LWPOLYLINE
  5
4D6
100
AcDbEntity
  8
0
100
AcDbPolyline
 62
7
  6
CONTINUOUS
 90
4
 70
0
 10
2.7234806703
 20
6.8032007874
 10
2.7047371049
 20
6.7868093635
 10
2.6861974887
 20
6.7713872613
 10
2.6678803827
 20
6.7569926607
  0
LWPOLYLINE
  5
4D7
100
AcDbEntity
  8
0
100
AcDbPolyline
 62
7
  6
CONTINUOUS
 90
4
 70
0
 10
2.7234806703
 20
6.7710550229
 10
2.7047371049
 20
6.7546635991
 10
2.6861974887
 20
6.7392414968
 10
2.6678803827
 20
6.7248468963
  0
LINE
  5
4D8
100
AcDbEntity
  8
0
100
AcDbLine
 62
7
  6
CONTINUOUS
 10
2.5556588592
 20
6.5912873376
 11
2.6678803827
 21
6.6560780776
  0
LINE
  5
4D9
100
AcDbEntity
  8
0
100
AcDbLine
 62
7
  6
CONTINUOUS
 10
2.5556588592
 20
6.5430686909
 11
2.6678803827
 21
6.6078594309
  0
LINE
  5
4DA
100
AcDbEntity
  8
0
100
AcDbLine
 62
7
  6
CONTINUOUS
 10
2.3387506692
 20
5.9180081453
 11
2.3250271693
 21
5.9245106235
  0
LINE
  5
4DB
100
AcDbEntity
  8
0
100
AcDbLine
 62
7
  6
CONTINUOUS
 10
2.3250271693
 20
5.9245106235
 11
2.3333790033
 21
5.9196885521
  0
LWPOLYLINE
  5
4DC
100
AcDbEntity
  8
0
100
AcDbPolyline
 62
7
  6
CONTINUOUS
 90
5
 70
0
 10
2.3250271693
 20
5.9245106235
 10
2.3137675505
 20
5.9324318293
 10
2.3053996579
 20
5.9414701585
 10
2.3002467045
 20
5.9512773265
 10
2.2985067154
 20
5.9614766672
  0
LWPOLYLINE
  5
4DD
100
AcDbEntity
  8
AXIS
100
AcDbPolyline
 62
7
  6
CONTINUOUS
 90
18
 70
0
 10
1.9267292216
 20
7.2877500616
 10
1.9331862028
 20
7.2514891576
 10
1.948135211
 20
7.2160736035
 10
1.9712977747
 20
7.182163124
 10
2.002242419
 20
7.1503894071
 10
2.0403927037
 20
7.1213443372
 10
2.0850379613
 20
7.0955689688
 10
2.135346535
 20
7.0735434484
 10
2.1903812714
 20
7.0556780696
 10
2.2491169774
 20
7.0423056308
 10
2.3104595179
 20
7.0336752352
 10
2.3732661976
 20
7.0299476506
 10
2.4363670466
 20
7.0311923149
 10
2.4985866158
 20
7.0373860425
 10
2.5587658721
 20
7.0484134558
 10
2.6157837899
 20
7.064069135
 10
2.6685782334
 20
7.0840614445
 10
2.7161657418
 20
7.1080179653
  0
LWPOLYLINE
  5
4DE
100
AcDbEntity
  8
0
100
AcDbPolyline
 62
7
  6
CONTINUOUS
 90
3
 70
0
 10
2.0655278258
 20
6.7356757742
 10
2.0647233992
 20
6.742192531
 10
2.0646081156
 20
6.7440250363
  0
LINE
  5
4DF
100
AcDbEntity
  8
AXIS_COSMETIC_THREADS
100
AcDbLine
 62
7
  6
CONTINUOUS
 10
2.2985067154
 20
6.2500194791
 11
2.2985067154
 21
5.9614766672
  0
LINE
  5
4E0
100
AcDbEntity
  8
0
100
AcDbLine
 62
7
  6
CONTINUOUS
 10
2.6756667073
 20
6.7952572367
 11
2.6678803827
 21
6.7859238488
  0
LINE
  5
4E1
100
AcDbEntity
  8
0
100
AcDbLine
 62
7
  6
CONTINUOUS
 10
2.6756669867
 20
6.7631118072
 11
2.6678803827
 21
6.7537780843
  0
LWPOLYLINE
  5
4E2
100
AcDbEntity
  8
0
100
AcDbPolyline
 62
7
  6
CONTINUOUS
 90
5
 70
0
 10
2.6678803827
 20
6.6560780776
 10
2.6735145932
 20
6.6617440201
 10
2.67880352
 20
6.6675198356
 10
2.6837407433
 20
6.6733985133
 10
2.6883202704
 20
6.6793729174
  0
LWPOLYLINE
  5
4E3
100
AcDbEntity
  8
0
100
AcDbPolyline
 62
7
  6
CONTINUOUS
 90
17
 70
0
 10
2.6678803827
 20
6.6078594309
 10
2.6735145932
 20
6.6135253734
 10
2.67880352
 20
6.6193011889
 10
2.6837407433
 20
6.6251798666
 10
2.6883202704
 20
6.6311542707
 10
2.6925365428
 20
6.6372171493
 10
2.6963844428
 20
6.6433611431
 10
2.6998593
 20
6.6495787942
 10
2.7029568967
 20
6.6558625555
 10
2.7056734732
 20
6.6622047996
 10
2.7080057322
 20
6.6685978281
 10
2.7099508429
 20
6.675033881
 10
2.7115064445
 20
6.681505146
 10
2.7126706489
 20
6.6880037681
 10
2.7134420432
 20
6.6945218593
 10
2.7138196912
 20
6.7010515076
 10
2.713861035
 20
6.7040437987
  0
LWPOLYLINE
  5
4E4
100
AcDbEntity
  8
0
100
AcDbPolyline
 62
7
  6
CONTINUOUS
 90
48
 70
0
 10
2.18146321
 20
6.345272881
 10
2.1837542908
 20
6.3398451031
 10
2.1864708947
 20
6.3344831539
 10
2.1896073911
 20
6.3291981471
 10
2.1931572791
 20
6.3240010364
 10
2.1971132011
 20
6.3189025939
 10
2.2014669578
 20
6.3139133866
 10
2.2062095253
 20
6.3090437557
 10
2.211331074
 20
6.304303794
 10
2.2168209887
 20
6.2997033259
 10
2.2226678907
 20
6.2952518866
 10
2.2288596614
 20
6.2909587023
 10
2.2353834674
 20
6.2868326714
 10
2.2422257871
 20
6.2828823457
 10
2.2493724388
 20
6.2791159127
 10
2.2568086099
 20
6.2755411791
 10
2.2645188879
 20
6.272165554
 10
2.2724872919
 20
6.2689960339
 10
2.2806973064
 20
6.2660391881
 10
2.2891319147
 20
6.2633011452
 10
2.2977736349
 20
6.2607875801
 10
2.3066045557
 20
6.2585037025
 10
2.3156063736
 20
6.2564542463
 10
2.324760431
 20
6.2546434592
 10
2.3340477547
 20
6.2530750942
 10
2.3434490953
 20
6.2517524022
 10
2.3529449672
 20
6.2506781246
 10
2.3625156886
 20
6.2498544879
 10
2.3721414227
 20
6.2492831993
 10
2.3818022189
 20
6.2489654429
 10
2.3914780536
 20
6.2489018773
 10
2.4011488721
 20
6.2490926343
 10
2.4107946302
 20
6.2495373183
 10
2.4203953356
 20
6.2502350079
 10
2.4299310894
 20
6.2511842568
 10
2.4393821272
 20
6.2523830977
 10
2.4487288604
 20
6.2538290458
 10
2.4579519165
 20
6.2555191041
 10
2.4670321791
 20
6.2574497697
 10
2.4759508281
 20
6.259617041
 10
2.4846893783
 20
6.2620164261
 10
2.4932297176
 20
6.2646429517
 10
2.5015541449
 20
6.2674911741
 10
2.5096454066
 20
6.2705551899
 10
2.5174867321
 20
6.2738286484
 10
2.5250618694
 20
6.2773047649
 10
2.5323551177
 20
6.2809763347
 10
2.5393513602
 20
6.2848357475
  0
LWPOLYLINE
  5
4E5
100
AcDbEntity
  8
0
100
AcDbPolyline
 62
7
  6
CONTINUOUS
 90
3
 70
0
 10
2.0493985178
 20
6.8000985082
 10
2.0393095826
 20
6.8287416124
 10
2.0366956918
 20
6.8528512157
  0
LWPOLYLINE
  5
4E6
100
AcDbEntity
  8
0
100
AcDbPolyline
 62
7
  6
CONTINUOUS
 90
3
 70
0
 10
2.0493985178
 20
6.8322442726
 10
2.0393095826
 20
6.8608873769
 10
2.0366956918
 20
6.8849969801
  0
LINE
  5
4E7
100
AcDbEntity
  8
0
100
AcDbLine
 62
7
  6
CONTINUOUS
 10
2.1796024008
 20
6.3507552378
 11
2.18146321
 21
6.345272881
  0
LWPOLYLINE
  5
4E8
100
AcDbEntity
  8
0
100
AcDbPolyline
 62
7
  6
CONTINUOUS
 90
5
 70
0
 10
2.1614721416
 20
6.4210818112
 10
2.1596106323
 20
6.4270039077
 10
2.1582111992
 20
6.4329682586
 10
2.1572766607
 20
6.4389628523
 10
2.1568212203
 20
6.4446738505
  0
LWPOLYLINE
  5
4E9
100
AcDbEntity
  8
0
100
AcDbPolyline
 62
7
  6
CONTINUOUS
 90
3
 70
0
 10
2.0461738915
 20
6.8714652717
 10
2.0382590099
 20
6.8984829917
 10
2.0366956918
 20
6.9171427446
  0
LINE
  5
4EA
100
AcDbEntity
  8
0
100
AcDbLine
 62
7
  6
CONTINUOUS
 10
2.1789260606
 20
6.3531625402
 11
2.1796024008
 21
6.3507552378
  0
LINE
  5
4EB
100
AcDbEntity
  8
0
100
AcDbLine
 62
7
  6
CONTINUOUS
 10
2.1595545645
 20
6.426729819
 11
2.1789260606
 21
6.3531625402
  0
LWPOLYLINE
  5
4EC
100
AcDbEntity
  8
0
100
AcDbPolyline
 62
7
  6
CONTINUOUS
 90
4
 70
0
 10
2.1595545645
 20
6.426729819
 10
2.1582062025
 20
6.4326956224
 10
2.1572955783
 20
6.4386794508
 10
2.1568212203
 20
6.4446738505
  0
LINE
  5
4ED
100
AcDbEntity
  8
02___PRT_ALL_AXES
100
AcDbLine
 62
7
  6
CONTINUOUS
 10
2.3265578965
 20
5.9236268325
 11
2.3265578965
 21
4.71100643
  0
LINE
  5
4EE
100
AcDbEntity
  8
0
100
AcDbLine
 62
7
  6
CONTINUOUS
 10
2.7361591851
 20
7.0580368203
 11
2.7234806703
 21
7.0282211386
  0
LINE
  5
4EF
100
AcDbEntity
  8
0
100
AcDbLine
 62
7
  6
CONTINUOUS
 10
2.7361591851
 20
7.0258910558
 11
2.7234806703
 21
6.9960753741
  0
LINE
  5
4F0
100
AcDbEntity
  8
0
100
AcDbLine
 62
7
  6
CONTINUOUS
 10
2.7361591851
 20
6.9937452914
 11
2.7234806703
 21
6.9639296097
  0
LINE
  5
4F1
100
AcDbEntity
  8
0
100
AcDbLine
 62
7
  6
CONTINUOUS
 10
2.7361591851
 20
6.9615995269
 11
2.7234806703
 21
6.9317838452
  0
LINE
  5
4F2
100
AcDbEntity
  8
0
100
AcDbLine
 62
7
  6
CONTINUOUS
 10
2.7351982682
 20
7.0903451685
 11
2.7234806703
 21
7.063314979
  0
LINE
  5
4F3
100
AcDbEntity
  8
0
100
AcDbLine
 62
7
  6
CONTINUOUS
 10
2.7355854226
 20
7.0882901816
 11
2.7234806703
 21
7.060366903
  0
LWPOLYLINE
  5
4F4
100
AcDbEntity
  8
0
100
AcDbPolyline
 62
7
  6
CONTINUOUS
 90
5
 70
0
 10
2.6883202704
 20
6.6793729174
 10
2.6925365428
 20
6.685435796
 10
2.6963844428
 20
6.6915797897
 10
2.6998593
 20
6.6977974408
 10
2.7029568967
 20
6.7040812022
  0
LWPOLYLINE
  5
4F5
100
AcDbEntity
  8
AXIS_COSMETIC_THREADS
100
AcDbPolyline
 62
7
  6
CONTINUOUS
 90
6
 70
0
 10
2.4530875173
 20
6.2170364413
 10
2.4619153996
 20
6.2229589726
 10
2.4691157658
 20
6.2295749789
 10
2.4745277714
 20
6.2367366697
 10
2.4780305213
 20
6.2442840645
 10
2.4785635962
 20
6.2460818287
  0
LWPOLYLINE
  5
4F6
100
AcDbEntity
  8
0
100
AcDbPolyline
 62
7
  6
CONTINUOUS
 90
15
 70
0
 10
2.5393513602
 20
6.2848357475
 10
2.5460360966
 20
6.2888750044
 10
2.5523954721
 20
6.2930857336
 10
2.5584163055
 20
6.2974592076
 10
2.5640861177
 20
6.3019863615
 10
2.5693931572
 20
6.3066578124
 10
2.5743264243
 20
6.3114638777
 10
2.5788756942
 20
6.3163945963
 10
2.5830315376
 20
6.3214397485
 10
2.586785341
 20
6.3265888773
 10
2.5901293242
 20
6.3318313105
 10
2.593056556
 20
6.3371561823
 10
2.5955609695
 20
6.3425524562
 10
2.5976373739
 20
6.3480089474
 10
2.5991897325
 20
6.3531625402
  0
LWPOLYLINE
  5
4F7
100
AcDbEntity
  8
0
100
AcDbPolyline
 62
7
  6
CONTINUOUS
 90
49
 70
0
 10
2.5533247935
 20
6.3531481963
 10
2.5457896426
 20
6.3489887924
 10
2.5379388549
 20
6.3450287548
 10
2.5297882405
 20
6.3412760585
 10
2.521354214
 20
6.337738261
 10
2.5126537606
 20
6.334422487
 10
2.5037044011
 20
6.3313354139
 10
2.4945241593
 20
6.3284832589
 10
2.485131522
 20
6.3258717655
 10
2.4755454057
 20
6.3235061932
 10
2.4657851146
 20
6.3213913058
 10
2.4558703056
 20
6.3195313625
 10
2.4458209447
 20
6.3179301088
 10
2.4356572711
 20
6.3165907696
 10
2.4253997522
 20
6.315516042
 10
2.4150690459
 20
6.3147080905
 10
2.4046859564
 20
6.3141685422
 10
2.3942713942
 20
6.3138984835
 10
2.3838463327
 20
6.3138984585
 10
2.3734317665
 20
6.314168467
 10
2.3630486694
 20
6.3147079655
 10
2.3527179512
 20
6.3155158673
 10
2.3424604172
 20
6.3165905455
 10
2.3322967238
 20
6.3179298359
 10
2.3222473404
 20
6.3195310412
 10
2.312332504
 20
6.321390937
 10
2.3025721829
 20
6.3235057774
 10
2.292986032
 20
6.3258713037
 10
2.2835933575
 20
6.3284827518
 10
2.2744130741
 20
6.3313348629
 10
2.2654636705
 20
6.3344218928
 10
2.2567631689
 20
6.337737625
 10
2.2483290916
 20
6.3412753819
 10
2.2401784231
 20
6.345028039
 10
2.2323275783
 20
6.3489880388
 10
2.2247923673
 20
6.3531474066
 10
2.2175879653
 20
6.3574977658
 10
2.210728881
 20
6.3620303555
 10
2.2042289274
 20
6.3667360476
 10
2.198101195
 20
6.3716053653
 10
2.1923580237
 20
6.3766285028
 10
2.18701098
 20
6.3817953438
 10
2.1820708317
 20
6.3870954834
 10
2.1775475281
 20
6.3925182473
 10
2.1734501779
 20
6.3980527152
 10
2.1697870332
 20
6.4036877411
 10
2.1665654707
 20
6.4094119772
 10
2.1637919784
 20
6.4152138952
 10
2.1614721416
 20
6.4210818112
  0
LWPOLYLINE
  5
4F8
100
AcDbEntity
  8
0
100
AcDbPolyline
 62
7
  6
CONTINUOUS
 90
51
 70
0
 10
2.5532065156
 20
6.3521041607
 10
2.5456767906
 20
6.3479477518
 10
2.5378316557
 20
6.3439905656
 10
2.52968691
 20
6.3402405713
 10
2.5212589563
 20
6.3367053212
 10
2.5125647675
 20
6.3333919347
 10
2.5036218519
 20
6.3303070844
 10
2.4944482202
 20
6.327456983
 10
2.4850623459
 20
6.3248473699
 10
2.4754831319
 20
6.3224835009
 10
2.4657298686
 20
6.3203701363
 10
2.4558221985
 20
6.3185115322
 10
2.4457800736
 20
6.3169114314
 10
2.4356237182
 20
6.3155730566
 10
2.425373585
 20
6.3144991029
 10
2.4150503172
 20
6.3136917331
 10
2.4046747039
 20
6.3131525733
 10
2.3942676405
 20
6.3128827091
 10
2.3838500854
 20
6.312882684
 10
2.373443018
 20
6.3131524982
 10
2.3630673971
 20
6.3136916082
 10
2.3527441174
 20
6.3144989283
 10
2.3424939691
 20
6.3155728327
 10
2.332337594
 20
6.3169111587
 10
2.3222954464
 20
6.3185112111
 10
2.3123877491
 20
6.3203697677
 10
2.3026344557
 20
6.3224830853
 10
2.2930552071
 20
6.3248469084
 10
2.2836692957
 20
6.3274564762
 10
2.2744956224
 20
6.3303065336
 10
2.2655526627
 20
6.3333913408
 10
2.2568584258
 20
6.3367046856
 10
2.2484304213
 20
6.3402398951
 10
2.2402856216
 20
6.3439898502
 10
2.2324404296
 20
6.3479469987
 10
2.2249106442
 20
6.3521033715
 10
2.2177114296
 20
6.3564505984
 10
2.2108572841
 20
6.3609799244
 10
2.2043620107
 20
6.3656822282
 10
2.1982386904
 20
6.3705480399
 10
2.1924996544
 20
6.3755675606
 10
2.1871564608
 20
6.3807306813
 10
2.1822198696
 20
6.3860270046
 10
2.1776998229
 20
6.3914458639
 10
2.1736054229
 20
6.3969763469
 10
2.1699449158
 20
6.4026073153
 10
2.1667256729
 20
6.4083274298
 10
2.1639541777
 20
6.4141251702
 10
2.1616360113
 20
6.4199888611
 10
2.1597758423
 20
6.4259066935
 10
2.1595545645
 20
6.426729819
  0
LWPOLYLINE
  5
4F9
100
AcDbEntity
  8
0
100
AcDbPolyline
 62
7
  6
CONTINUOUS
 90
49
 70
0
 10
2.537842227
 20
6.2824975854
 10
2.5307175644
 20
6.2785701602
 10
2.5233037179
 20
6.2748461631
 10
2.5156101576
 20
6.2713291596
 10
2.5076603931
 20
6.2680287699
 10
2.4994690233
 20
6.2649497223
 10
2.4910559683
 20
6.2620982744
 10
2.4824373921
 20
6.2594787209
 10
2.4736305429
 20
6.2570953388
 10
2.4646548551
 20
6.2549524915
 10
2.4555265224
 20
6.2530532876
 10
2.4462666557
 20
6.2514014407
 10
2.4368908854
 20
6.2499991753
 10
2.4274211493
 20
6.2488493019
 10
2.4178735474
 20
6.2479533844
 10
2.4082695093
 20
6.2473131533
 10
2.3986269879
 20
6.246929564
 10
2.3889657468
 20
6.2468032733
 10
2.3793051736
 20
6.2469344606
 10
2.3696642136
 20
6.2473228843
 10
2.3600625688
 20
6.247967841
 10
2.350519216
 20
6.2488682175
 10
2.3410530591
 20
6.2500224902
 10
2.3316839554
 20
6.2514285527
 10
2.3224289187
 20
6.2530842934
 10
2.3133095292
 20
6.2549863334
 10
2.3043400598
 20
6.2571323298
 10
2.2955440521
 20
6.2595173255
 10
2.2869337164
 20
6.2621388137
 10
2.2785319668
 20
6.264990752
 10
2.2703516831
 20
6.2680697855
 10
2.2624136024
 20
6.2713692875
 10
2.2547321254
 20
6.274884501
 10
2.2473249969
 20
6.2786087162
 10
2.2402088856
 20
6.2825349445
 10
2.233397879
 20
6.286656977
 10
2.2269114186
 20
6.290964456
 10
2.2207593908
 20
6.2954523232
 10
2.2149640697
 20
6.3001054277
 10
2.2095312549
 20
6.3049200506
 10
2.2044836797
 20
6.3098762964
 10
2.1998253154
 20
6.3149697187
 10
2.1955736516
 20
6.3201798767
 10
2.1917338344
 20
6.325497491
 10
2.1883157885
 20
6.3309045752
 10
2.185323962
 20
6.336387529
 10
2.1827601461
 20
6.3419354039
 10
2.1806280731
 20
6.3475298917
 10
2.1789260606
 20
6.3531625402
  0
LWPOLYLINE
  5
4FA
100
AcDbEntity
  8
AXIS_COSMETIC_THREADS
100
AcDbPolyline
 62
7
  6
CONTINUOUS
 90
16
 70
0
 10
2.4530875173
 20
6.2170364413
 10
2.442829319
 20
6.2119396846
 10
2.431369956
 20
6.2077825556
 10
2.4189654115
 20
6.2046579177
 10
2.4058927825
 20
6.2026355702
 10
2.39244409
 20
6.201760689
 10
2.3789197556
 20
6.2020528174
 10
2.3656218904
 20
6.2035054298
 10
2.3528475469
 20
6.2060860773
 10
2.3408820828
 20
6.2097371124
 10
2.3299927867
 20
6.214376977
 10
2.3204229076
 20
6.2199020243
 10
2.3123862208
 20
6.2261888338
 10
2.3060622524
 20
6.2330969686
 10
2.3015922697
 20
6.2404721123
 10
2.2995521969
 20
6.2460818287
  0
LWPOLYLINE
  5
4FB
100
AcDbEntity
  8
0
100
AcDbPolyline
 62
7
  6
CONTINUOUS
 90
3
 70
0
 10
2.0493985178
 20
6.8965358015
 10
2.0393095826
 20
6.9251789058
 10
2.0366956918
 20
6.949288509
  0
LWPOLYLINE
  5
4FC
100
AcDbEntity
  8
0
100
AcDbPolyline
 62
7
  6
CONTINUOUS
 90
3
 70
0
 10
2.0493985178
 20
6.928681566
 10
2.0393095826
 20
6.9573246703
 10
2.0366956918
 20
6.9814342735
  0
LWPOLYLINE
  5
4FD
100
AcDbEntity
  8
0
100
AcDbPolyline
 62
7
  6
CONTINUOUS
 90
3
 70
0
 10
2.0493985178
 20
6.9608273305
 10
2.0393095826
 20
6.9894704347
 10
2.0366956918
 20
7.0135800379
  0
LWPOLYLINE
  5
4FE
100
AcDbEntity
  8
0
100
AcDbPolyline
 62
7
  6
CONTINUOUS
 90
3
 70
0
 10
2.0493985178
 20
6.9929730949
 10
2.0393095826
 20
7.0216161992
 10
2.0366956918
 20
7.0457258024
  0
LWPOLYLINE
  5
4FF
100
AcDbEntity
  8
0
100
AcDbPolyline
 62
7
  6
CONTINUOUS
 90
3
 70
0
 10
2.0493985178
 20
7.0251188594
 10
2.0393095826
 20
7.0537619636
 10
2.0366956918
 20
7.0778715669
  0
LWPOLYLINE
  5
500
100
AcDbEntity
  8
0
100
AcDbPolyline
 62
7
  6
CONTINUOUS
 90
3
 70
0
 10
2.0493985178
 20
7.0572646238
 10
2.0393095826
 20
7.0859077281
 10
2.0386021598
 20
7.0924327459
  0
LINE
  5
501
100
AcDbEntity
  8
AXIS_COSMETIC_THREADS
100
AcDbLine
 62
7
  6
CONTINUOUS
 10
2.2960191556
 20
6.2593885034
 11
2.2995521969
 21
6.2460818287
  0
LWPOLYLINE
  5
502
100
AcDbEntity
  8
02___PRT_ALL_AXES
100
AcDbPolyline
 62
7
  6
CONTINUOUS
 90
3
 70
0
 10
2.0685653341
 20
7.3422985632
 10
2.0638598711
 20
7.3606122818
 10
2.062286243
 20
7.3791048784
  0
LINE
  5
503
100
AcDbEntity
  8
02___PRT_ALL_AXES
100
AcDbLine
 62
7
  6
CONTINUOUS
 10
2.4515578965
 20
5.9236268325
 11
2.4515578965
 21
4.71100643
  0
LINE
  5
504
100
AcDbEntity
  8
AXIS_COSMETIC_THREADS
100
AcDbLine
 62
7
  6
CONTINUOUS
 10
2.4796090776
 20
6.2500194791
 11
2.4796090776
 21
5.9614766672
  0
LINE
  5
505
100
AcDbEntity
  8
0
100
AcDbLine
 62
7
  6
CONTINUOUS
 10
2.5000585716
 20
6.637305715
 11
2.5000585716
 21
6.640253791
  0
LINE
  5
506
100
AcDbEntity
  8
0
100
AcDbLine
 62
7
  6
CONTINUOUS
 10
2.5000585716
 20
6.6694514795
 11
2.5000585716
 21
6.6723995554
  0
LINE
  5
507
100
AcDbEntity
  8
0
100
AcDbLine
 62
7
  6
CONTINUOUS
 10
2.5000585716
 20
6.7015972439
 11
2.5000585716
 21
6.7045453199
  0
LINE
  5
508
100
AcDbEntity
  8
0
100
AcDbLine
 62
7
  6
CONTINUOUS
 10
2.5000585716
 20
6.7337430084
 11
2.5000585716
 21
6.7366910843
  0
LINE
  5
509
100
AcDbEntity
  8
0
100
AcDbLine
 62
7
  6
CONTINUOUS
 10
2.5000585716
 20
6.7658887729
 11
2.5000585716
 21
6.7688368488
  0
LINE
  5
50A
100
AcDbEntity
  8
0
100
AcDbLine
 62
7
  6
CONTINUOUS
 10
2.5000585716
 20
6.7980345373
 11
2.5000585716
 21
6.8009826133
  0
LINE
  5
50B
100
AcDbEntity
  8
0
100
AcDbLine
 62
7
  6
CONTINUOUS
 10
2.5000585716
 20
6.8301803018
 11
2.5000585716
 21
6.8331283777
  0
LINE
  5
50C
100
AcDbEntity
  8
0
100
AcDbLine
 62
7
  6
CONTINUOUS
 10
2.5000585716
 20
6.8623260662
 11
2.5000585716
 21
6.8652741422
  0
LINE
  5
50D
100
AcDbEntity
  8
0
100
AcDbLine
 62
7
  6
CONTINUOUS
 10
2.5000585716
 20
6.8944718307
 11
2.5000585716
 21
6.8974199066
  0
LINE
  5
50E
100
AcDbEntity
  8
0
100
AcDbLine
 62
7
  6
CONTINUOUS
 10
2.5000585716
 20
6.9266175951
 11
2.5000585716
 21
6.9295656711
  0
LINE
  5
50F
100
AcDbEntity
  8
0
100
AcDbLine
 62
7
  6
CONTINUOUS
 10
2.5000585716
 20
6.9587633596
 11
2.5000585716
 21
6.9617114355
  0
LINE
  5
510
100
AcDbEntity
  8
0
100
AcDbLine
 62
7
  6
CONTINUOUS
 10
2.5000585716
 20
6.990909124
 11
2.5000585716
 21
6.9938572
  0
LINE
  5
511
100
AcDbEntity
  8
02___PRT_ALL_AXES
100
AcDbLine
 62
7
  6
CONTINUOUS
 10
2.7095509898
 20
7.342300104
 11
2.7142561886
 21
7.3606138452
  0
LINE
  5
512
100
AcDbEntity
  8
AXIS_COSMETIC_THREADS
100
AcDbLine
 62
7
  6
CONTINUOUS
 10
2.4820960652
 20
6.2593863483
 11
2.4785635962
 21
6.2460818287
  0
LINE
  5
513
100
AcDbEntity
  8
0
100
AcDbLine
 62
7
  6
CONTINUOUS
 10
2.7361591851
 20
6.9294537625
 11
2.7234806703
 21
6.8996380808
  0
LINE
  5
514
100
AcDbEntity
  8
0
100
AcDbLine
 62
7
  6
CONTINUOUS
 10
2.7361591851
 20
6.897307998
 11
2.7234806703
 21
6.8674923163
  0
LINE
  5
515
100
AcDbEntity
  8
0
100
AcDbLine
 62
7
  6
CONTINUOUS
 10
2.7361591851
 20
6.8651622336
 11
2.7234806703
 21
6.8353465518
  0
LINE
  5
516
100
AcDbEntity
  8
0
100
AcDbLine
 62
7
  6
CONTINUOUS
 10
2.7361591851
 20
6.8330164691
 11
2.7234806703
 21
6.8032007874
  0
LINE
  5
517
100
AcDbEntity
  8
0
100
AcDbLine
 62
7
  6
CONTINUOUS
 10
2.7361591851
 20
6.8008707047
 11
2.7234806703
 21
6.7710550229
  0
LWPOLYLINE
  5
518
100
AcDbEntity
  8
0
100
AcDbPolyline
 62
7
  6
CONTINUOUS
 90
6
 70
0
 10
2.7029568967
 20
6.7040812022
 10
2.7056734732
 20
6.7104234463
 10
2.7080057322
 20
6.7168164748
 10
2.7099508429
 20
6.7232525277
 10
2.7115064445
 20
6.7297237927
 10
2.7126706489
 20
6.7362224148
  0
LWPOLYLINE
  5
519
100
AcDbEntity
  8
0
100
AcDbPolyline
 62
7
  6
CONTINUOUS
 90
4
 70
0
 10
2.0668587262
 20
6.7404843803
 10
2.0493985178
 20
6.7679527437
 10
2.0393095826
 20
6.796595848
 10
2.0366956918
 20
6.8207054512
  0
LWPOLYLINE
  5
51A
100
AcDbEntity
  8
0
100
AcDbPolyline
 62
7
  6
CONTINUOUS
 90
3
 70
0
 10
2.0668587262
 20
6.7434324562
 10
2.0493985178
 20
6.7709008197
 10
2.0393095826
 20
6.7995439239
  0
LINE
  5
51B
100
AcDbEntity
  8
0
100
AcDbLine
 62
7
  6
CONTINUOUS
 10
2.0668587262
 20
6.8690674381
 11
2.0493985178
 21
6.8965358015
  0
LWPOLYLINE
  5
51C
100
AcDbEntity
  8
AXIS
100
AcDbPolyline
 62
7
  6
CONTINUOUS
 90
9
 70
0
 10
2.0565165649
 20
7.3574719831
 10
2.0658153625
 20
7.3290989677
 10
2.0823348641
 20
7.3018430018
 10
2.1057060514
 20
7.2763129385
 10
2.1354068507
 20
7.2530790773
 10
2.1707737952
 20
7.2326604243
 10
2.2110168459
 20
7.2155130984
 10
2.2552370394
 20
7.2020201426
 10
2.3024465697
 20
7.1924829672
  0
LINE
  5
51D
100
AcDbEntity
  8
0
100
AcDbLine
 62
7
  6
CONTINUOUS
 10
2.5556588592
 20
7.0111341386
 11
2.5556588592
 21
7.0079195622
  0
LINE
  5
51E
100
AcDbEntity
  8
0
100
AcDbLine
 62
7
  6
CONTINUOUS
 10
2.5556588592
 20
6.9789883742
 11
2.5556588592
 21
6.9757737977
  0
LINE
  5
51F
100
AcDbEntity
  8
0
100
AcDbLine
 62
7
  6
CONTINUOUS
 10
2.5556588592
 20
6.9468426097
 11
2.5556588592
 21
6.9436280333
  0
LINE
  5
520
100
AcDbEntity
  8
0
100
AcDbLine
 62
7
  6
CONTINUOUS
 10
2.5556588592
 20
6.9146968453
 11
2.5556588592
 21
6.9114822688
  0
LINE
  5
521
100
AcDbEntity
  8
0
100
AcDbLine
 62
7
  6
CONTINUOUS
 10
2.5556588592
 20
6.8825510808
 11
2.5556588592
 21
6.8793365044
  0
LINE
  5
522
100
AcDbEntity
  8
0
100
AcDbLine
 62
7
  6
CONTINUOUS
 10
2.5556588592
 20
6.8504053163
 11
2.5556588592
 21
6.8471907399
  0
LINE
  5
523
100
AcDbEntity
  8
0
100
AcDbLine
 62
7
  6
CONTINUOUS
 10
2.5556588592
 20
6.8182595519
 11
2.5556588592
 21
6.8150449754
  0
LINE
  5
524
100
AcDbEntity
  8
0
100
AcDbLine
 62
7
  6
CONTINUOUS
 10
2.5556588592
 20
6.7861137874
 11
2.5556588592
 21
6.782899211
  0
LINE
  5
525
100
AcDbEntity
  8
0
100
AcDbLine
 62
7
  6
CONTINUOUS
 10
2.5556588592
 20
6.753968023
 11
2.5556588592
 21
6.7507534465
  0
LINE
  5
526
100
AcDbEntity
  8
0
100
AcDbLine
 62
7
  6
CONTINUOUS
 10
2.5556588592
 20
6.7218222585
 11
2.5556588592
 21
6.7186076821
  0
LINE
  5
527
100
AcDbEntity
  8
0
100
AcDbLine
 62
7
  6
CONTINUOUS
 10
2.5556588592
 20
6.6896764941
 11
2.5556588592
 21
6.6864619176
  0
LINE
  5
528
100
AcDbEntity
  8
0
100
AcDbLine
 62
7
  6
CONTINUOUS
 10
2.5556588592
 20
6.6575307296
 11
2.5556588592
 21
6.5430686909
  0
LINE
  5
529
100
AcDbEntity
  8
0
100
AcDbLine
 62
7
  6
CONTINUOUS
 10
2.6272729404
 20
6.5844148531
 11
2.6212945727
 21
6.4446738505
  0
LWPOLYLINE
  5
52A
100
AcDbEntity
  8
02___PRT_ALL_AXES
100
AcDbPolyline
 62
7
  6
CONTINUOUS
 90
18
 70
0
 10
2.4515572884
 20
4.7110064297
 10
2.4513986722
 20
4.7084323856
 10
2.4501296309
 20
4.7033363972
 10
2.4476173452
 20
4.6983965486
 10
2.4439129581
 20
4.6937134008
 10
2.43909188
 20
4.6893822893
 10
2.4332522543
 20
4.6854913828
 10
2.426512959
 20
4.6821198892
 10
2.4190111866
 20
4.6793364422
 10
2.4108996515
 20
4.6771977048
 10
2.4023434814
 20
4.6757472156
 10
2.393516855
 20
4.6750145023
 10
2.3845994571
 20
4.6750144809
 10
2.3757728202
 20
4.6757471517
 10
2.3672166291
 20
4.6771975998
 10
2.3591050632
 20
4.6793362982
 10
2.3516032507
 20
4.6821197091
 10
2.3448639067
 20
4.6854911704
  0
LWPOLYLINE
  5
52B
100
AcDbEntity
  8
0
100
AcDbPolyline
 62
7
  6
CONTINUOUS
 90
4
 70
0
 10
2.6212945727
 20
6.4446738505
 10
2.6208202363
 20
6.4386796383
 10
2.6199096171
 20
6.4326957633
 10
2.6185612285
 20
6.426729819
  0
LWPOLYLINE
  5
52C
100
AcDbEntity
  8
0
100
AcDbPolyline
 62
7
  6
CONTINUOUS
 90
4
 70
0
 10
2.6212945727
 20
6.4446738505
 10
2.6208392624
 20
6.4389639666
 10
2.6199048103
 20
6.4329693683
 10
2.6185054633
 20
6.4270050108
  0
LWPOLYLINE
  5
52D
100
AcDbEntity
  8
0
100
AcDbPolyline
 62
7
  6
CONTINUOUS
 90
3
 70
0
 10
2.7413049227
 20
7.0915606334
 10
2.7361591851
 20
7.0609848962
 10
2.7234806703
 20
7.0311692145
  0
LINE
  5
52E
100
AcDbEntity
  8
0
100
AcDbLine
 62
7
  6
CONTINUOUS
 10
2.7413049227
 20
7.0886125574
 11
2.7361591851
 21
7.0580368203
  0
LWPOLYLINE
  5
52F
100
AcDbEntity
  8
0
100
AcDbPolyline
 62
7
  6
CONTINUOUS
 90
3
 70
0
 10
2.7413049227
 20
7.0594148689
 10
2.7361591851
 20
7.0288391318
 10
2.7234806703
 20
6.9990234501
  0
LINE
  5
530
100
AcDbEntity
  8
0
100
AcDbLine
 62
7
  6
CONTINUOUS
 10
2.7413049227
 20
7.056466793
 11
2.7361591851
 21
7.0258910558
  0
LWPOLYLINE
  5
531
100
AcDbEntity
  8
0
100
AcDbPolyline
 62
7
  6
CONTINUOUS
 90
3
 70
0
 10
2.7413049227
 20
7.0272691045
 10
2.7361591851
 20
6.9966933673
 10
2.7234806703
 20
6.9668776856
  0
LINE
  5
532
100
AcDbEntity
  8
0
100
AcDbLine
 62
7
  6
CONTINUOUS
 10
2.7413049227
 20
7.0243210285
 11
2.7361591851
 21
6.9937452914
  0
LWPOLYLINE
  5
533
100
AcDbEntity
  8
0
100
AcDbPolyline
 62
7
  6
CONTINUOUS
 90
3
 70
0
 10
2.7413049227
 20
6.99512334
 10
2.7361591851
 20
6.9645476029
 10
2.7234806703
 20
6.9347319212
  0
LINE
  5
534
100
AcDbEntity
  8
0
100
AcDbLine
 62
7
  6
CONTINUOUS
 10
2.7413049227
 20
6.9921752641
 11
2.7361591851
 21
6.9615995269
  0
LWPOLYLINE
  5
535
100
AcDbEntity
  8
0
100
AcDbPolyline
 62
7
  6
CONTINUOUS
 90
3
 70
0
 10
2.7413049227
 20
6.9629775756
 10
2.7361591851
 20
6.9324018384
 10
2.7234806703
 20
6.9025861567
  0
LINE
  5
536
100
AcDbEntity
  8
0
100
AcDbLine
 62
7
  6
CONTINUOUS
 10
2.7413049227
 20
6.9600294996
 11
2.7361591851
 21
6.9294537625
  0
LWPOLYLINE
  5
537
100
AcDbEntity
  8
0
100
AcDbPolyline
 62
7
  6
CONTINUOUS
 90
3
 70
0
 10
2.7413049227
 20
6.9308318111
 10
2.7361591851
 20
6.900256074
 10
2.7234806703
 20
6.8704403922
  0
LINE
  5
538
100
AcDbEntity
  8
0
100
AcDbLine
 62
7
  6
CONTINUOUS
 10
2.7413049227
 20
6.9278837352
 11
2.7361591851
 21
6.897307998
  0
LINE
  5
539
100
AcDbEntity
  8
0
100
AcDbLine
 62
7
  6
CONTINUOUS
 10
2.7360935486
 20
7.09093796
 11
2.7355854226
 21
7.0882901816
  0
LINE
  5
53A
100
AcDbEntity
  8
0
100
AcDbLine
 62
7
  6
CONTINUOUS
 10
2.6185612285
 20
6.426729819
 11
2.5991897325
 21
6.3531625402
  0
LWPOLYLINE
  5
53B
100
AcDbEntity
  8
0
100
AcDbPolyline
 62
7
  6
CONTINUOUS
 90
16
 70
0
 10
2.6185612285
 20
6.426729819
 10
2.618340253
 20
6.4259077956
 10
2.6164801694
 20
6.4199899541
 10
2.6141620876
 20
6.4141262522
 10
2.6113906758
 20
6.4083284983
 10
2.6081715156
 20
6.4026083686
 10
2.6045110895
 20
6.3969773823
 10
2.6004167695
 20
6.3914468799
 10
2.5958968007
 20
6.3860279986
 10
2.590960286
 20
6.3807316518
 10
2.5856171667
 20
6.3755685053
 10
2.5798782033
 20
6.3705489571
 10
2.573754953
 20
6.3656831159
 10
2.5672597474
 20
6.3609807808
 10
2.5604056671
 20
6.3564514219
 10
2.5532065156
 20
6.3521041607
  0
LWPOLYLINE
  5
53C
100
AcDbEntity
  8
AXIS
100
AcDbPolyline
 62
7
  6
CONTINUOUS
 90
6
 70
0
 10
2.8492312441
 20
7.2695581476
 10
2.838503758
 20
7.2336361246
 10
2.8194039459
 20
7.1988920197
 10
2.7922876012
 20
7.1659730497
 10
2.75765985
 20
7.1354924329
 10
2.7161657418
 20
7.1080179653
  0
LWPOLYLINE
  5
53D
100
AcDbEntity
  8
0
100
AcDbPolyline
 62
7
  6
CONTINUOUS
 90
15
 70
0
 10
2.5991897325
 20
6.3531625402
 10
2.5974884085
 20
6.3475319088
 10
2.5953554496
 20
6.3419349358
 10
2.5927909262
 20
6.336385732
 10
2.5897962195
 20
6.3308981436
 10
2.5863736609
 20
6.3254852294
 10
2.5825289907
 20
6.3201627683
 10
2.5782702122
 20
6.3149462876
 10
2.5736070056
 20
6.309850307
 10
2.5685507371
 20
6.3048885469
 10
2.5631126718
 20
6.3000725122
 10
2.5573079912
 20
6.2954152983
 10
2.5511512559
 20
6.2909275072
 10
2.5446574809
 20
6.2866186851
 10
2.537842227
 20
6.2824975854
  0
LWPOLYLINE
  5
53E
100
AcDbEntity
  8
0
100
AcDbPolyline
 62
7
  6
CONTINUOUS
 90
15
 70
0
 10
2.6185054633
 20
6.4270050108
 10
2.6166440394
 20
6.4210829052
 10
2.6143242873
 20
6.4152149782
 10
2.6115508786
 20
6.4094130467
 10
2.6083293988
 20
6.4036887954
 10
2.6046663351
 20
6.3980537516
 10
2.600569065
 20
6.3925192642
 10
2.5960458393
 20
6.3870964783
 10
2.5911057677
 20
6.3817963152
 10
2.5857587983
 20
6.3766294483
 10
2.5800156997
 20
6.3716062834
 10
2.5738880374
 20
6.3667369361
 10
2.5673881517
 20
6.3620312127
 10
2.5605291327
 20
6.3574985901
 10
2.5533247935
 20
6.3531481963
  0
LWPOLYLINE
  5
53F
100
AcDbEntity
  8
0
100
AcDbPolyline
 62
7
  6
CONTINUOUS
 90
3
 70
0
 10
2.0813526519
 20
6.8206241139
 10
2.0606303733
 20
6.8453416848
 10
2.0461738915
 20
6.8714652717
  0
LINE
  5
540
100
AcDbEntity
  8
0
100
AcDbLine
 62
7
  6
CONTINUOUS
 10
2.0668587262
 20
6.9012132026
 11
2.0493985178
 21
6.928681566
  0
LINE
  5
541
100
AcDbEntity
  8
0
100
AcDbLine
 62
7
  6
CONTINUOUS
 10
2.0668587262
 20
6.933358967
 11
2.0493985178
 21
6.9608273305
  0
LINE
  5
542
100
AcDbEntity
  8
0
100
AcDbLine
 62
7
  6
CONTINUOUS
 10
2.0668587262
 20
6.9655047315
 11
2.0493985178
 21
6.9929730949
  0
LINE
  5
543
100
AcDbEntity
  8
0
100
AcDbLine
 62
7
  6
CONTINUOUS
 10
2.0668587262
 20
6.9976504959
 11
2.0493985178
 21
7.0251188594
  0
LINE
  5
544
100
AcDbEntity
  8
0
100
AcDbLine
 62
7
  6
CONTINUOUS
 10
2.0668587262
 20
7.0297962604
 11
2.0493985178
 21
7.0572646238
  0
LINE
  5
545
100
AcDbEntity
  8
0
100
AcDbLine
 62
7
  6
CONTINUOUS
 10
2.0668587262
 20
7.0619420248
 11
2.0529534669
 21
7.0838177498
  0
LINE
  5
546
100
AcDbEntity
  8
0
100
AcDbLine
 62
7
  6
CONTINUOUS
 10
2.6678803827
 20
7.0463045408
 11
2.6678803827
 21
7.0430899644
  0
LINE
  5
547
100
AcDbEntity
  8
0
100
AcDbLine
 62
7
  6
CONTINUOUS
 10
2.6678803827
 20
7.0141587764
 11
2.6678803827
 21
7.0109441999
  0
LINE
  5
548
100
AcDbEntity
  8
0
100
AcDbLine
 62
7
  6
CONTINUOUS
 10
2.6678803827
 20
6.9820130119
 11
2.6678803827
 21
6.9787984355
  0
LINE
  5
549
100
AcDbEntity
  8
0
100
AcDbLine
 62
7
  6
CONTINUOUS
 10
2.6678803827
 20
6.9498672475
 11
2.6678803827
 21
6.946652671
  0
LINE
  5
54A
100
AcDbEntity
  8
0
100
AcDbLine
 62
7
  6
CONTINUOUS
 10
2.6678803827
 20
6.917721483
 11
2.6678803827
 21
6.9145069066
  0
LINE
  5
54B
100
AcDbEntity
  8
0
100
AcDbLine
 62
7
  6
CONTINUOUS
 10
2.6678803827
 20
6.8855757186
 11
2.6678803827
 21
6.8823611421
  0
LINE
  5
54C
100
AcDbEntity
  8
0
100
AcDbLine
 62
7
  6
CONTINUOUS
 10
2.6678803827
 20
6.8534299541
 11
2.6678803827
 21
6.8502153777
  0
LINE
  5
54D
100
AcDbEntity
  8
0
100
AcDbLine
 62
7
  6
CONTINUOUS
 10
2.6678803827
 20
6.8212841897
 11
2.6678803827
 21
6.8180696132
  0
LINE
  5
54E
100
AcDbEntity
  8
0
100
AcDbLine
 62
7
  6
CONTINUOUS
 10
2.6678803827
 20
6.7891384252
 11
2.6678803827
 21
6.7859238488
  0
LINE
  5
54F
100
AcDbEntity
  8
0
100
AcDbLine
 62
7
  6
CONTINUOUS
 10
2.6678803827
 20
6.7569926607
 11
2.6678803827
 21
6.7537780843
  0
LINE
  5
550
100
AcDbEntity
  8
0
100
AcDbLine
 62
7
  6
CONTINUOUS
 10
2.6678803827
 20
6.7248468963
 11
2.6678803827
 21
6.6078594309
  0
LINE
  5
551
100
AcDbEntity
  8
02___PRT_ALL_AXES
100
AcDbLine
 62
7
  6
CONTINUOUS
 10
2.7040185264
 20
7.3791048797
 11
2.7040185264
 21
7.4337526792
  0
LINE
  5
552
100
AcDbEntity
  8
AXIS_COSMETIC_THREADS
100
AcDbLine
 62
7
  6
CONTINUOUS
 10
2.7138610461
 20
6.7626425713
 11
2.7138610461
 21
6.7522624728
  0
LINE
  5
553
100
AcDbEntity
  8
0
100
AcDbLine
 62
7
  6
CONTINUOUS
 10
2.7138610461
 20
6.7522624728
 11
2.7138610461
 21
6.7040438261
  0
LWPOLYLINE
  5
554
100
AcDbEntity
  8
0
100
AcDbPolyline
 62
7
  6
CONTINUOUS
 90
5
 70
0
 10
2.7138566096
 20
6.7522600761
 10
2.713035935
 20
6.7389045627
 10
2.7055237653
 20
6.7100475978
 10
2.6903488243
 20
6.6822138185
 10
2.6678803827
 20
6.6560780776
  0
LINE
  5
555
100
AcDbEntity
  8
02___PRT_ALL_AXES
100
AcDbLine
 62
7
  6
CONTINUOUS
 10
2.7142561886
 20
7.3606138452
 11
2.71582955
 21
7.3791048809
  0
LWPOLYLINE
  5
556
100
AcDbEntity
  8
0
100
AcDbPolyline
 62
7
  6
CONTINUOUS
 90
4
 70
0
 10
2.7126706489
 20
6.7362224148
 10
2.7134420432
 20
6.742740506
 10
2.7138196912
 20
6.7492701543
 10
2.713861035
 20
6.7522624453
  0
LWPOLYLINE
  5
557
100
AcDbEntity
  8
0
100
AcDbPolyline
 62
7
  6
CONTINUOUS
 90
3
 70
0
 10
2.7413049227
 20
6.8986860467
 10
2.7361591851
 20
6.8681103095
 10
2.7234806703
 20
6.8382946278
  0
LINE
  5
558
100
AcDbEntity
  8
0
100
AcDbLine
 62
7
  6
CONTINUOUS
 10
2.7413049227
 20
6.8957379707
 11
2.7361591851
 21
6.8651622336
  0
LWPOLYLINE
  5
559
100
AcDbEntity
  8
0
100
AcDbPolyline
 62
7
  6
CONTINUOUS
 90
3
 70
0
 10
2.7413049227
 20
6.8665402822
 10
2.7361591851
 20
6.835964545
 10
2.7234806703
 20
6.8061488633
  0
LINE
  5
55A
100
AcDbEntity
  8
0
100
AcDbLine
 62
7
  6
CONTINUOUS
 10
2.7413049227
 20
6.8635922063
 11
2.7361591851
 21
6.8330164691
  0
LWPOLYLINE
  5
55B
100
AcDbEntity
  8
0
100
AcDbPolyline
 62
7
  6
CONTINUOUS
 90
3
 70
0
 10
2.7413049227
 20
6.8343945178
 10
2.7361591851
 20
6.8038187806
 10
2.7234806703
 20
6.7740030989
  0
LWPOLYLINE
  5
55C
100
AcDbEntity
  8
0
100
AcDbPolyline
 62
7
  6
CONTINUOUS
 90
5
 70
0
 10
2.4530886237
 20
5.9245106235
 10
2.4643486614
 20
5.9324321912
 10
2.4727164236
 20
5.9414705606
 10
2.4778692356
 20
5.9512777535
 10
2.4796090776
 20
5.9614766672
  0
LINE
  5
55D
100
AcDbEntity
  8
0
100
AcDbLine
 62
7
  6
CONTINUOUS
 10
2.4530886237
 20
5.9245106235
 11
2.4447367897
 21
5.9196885521
  0
LWPOLYLINE
  5
55E
100
AcDbEntity
  8
0
100
AcDbPolyline
 62
7
  6
CONTINUOUS
 90
8
 70
0
 10
2.4530875173
 20
5.9245099847
 10
2.4393657508
 20
5.9180083871
 10
2.4237106816
 20
5.9131772512
 10
2.4067239253
 20
5.9102022347
 10
2.3890582735
 20
5.9091976658
 10
2.3713926072
 20
5.9102021497
 10
2.354405808
 20
5.9131770846
 10
2.3387506692
 20
5.9180081453
  0
LWPOLYLINE
  5
55F
100
AcDbEntity
  8
0
100
AcDbPolyline
 62
7
  6
CONTINUOUS
 90
9
 70
0
 10
2.4447358276
 20
5.9196879966
 10
2.4328038567
 20
5.9140344335
 10
2.4191907531
 20
5.9098334457
 10
2.4044196607
 20
5.9072464748
 10
2.3890582243
 20
5.9063729367
 10
2.3736967754
 20
5.9072464009
 10
2.3589256456
 20
5.9098333008
 10
2.3453124814
 20
5.9140342232
 10
2.3333790124
 20
5.9196885468
  0
LINE
  5
560
100
AcDbEntity
  8
0
100
AcDbLine
 62
7
  6
CONTINUOUS
 10
2.7398506685
 20
6.8549510945
 11
2.7414201012
 21
6.8397264094
  0
LINE
  5
561
100
AcDbEntity
  8
0
100
AcDbLine
 62
7
  6
CONTINUOUS
 10
2.7398506685
 20
6.8870968589
 11
2.7414201012
 21
6.8718721738
  0
LINE
  5
562
100
AcDbEntity
  8
0
100
AcDbLine
 62
7
  6
CONTINUOUS
 10
2.7398506685
 20
6.9192426234
 11
2.7414201012
 21
6.9040179383
  0
LINE
  5
563
100
AcDbEntity
  8
0
100
AcDbLine
 62
7
  6
CONTINUOUS
 10
2.7398506685
 20
6.9513883878
 11
2.7414201012
 21
6.9361637028
  0
LWPOLYLINE
  5
564
100
AcDbEntity
  8
02___PRT_ALL_AXES
100
AcDbPolyline
 62
7
  6
CONTINUOUS
 90
17
 70
0
 10
2.7040185264
 20
7.4337526792
 10
2.7013382047
 20
7.4639087533
 10
2.6932255021
 20
7.4937508254
 10
2.6790351633
 20
7.5236753635
 10
2.658966641
 20
7.5519532191
 10
2.6322781344
 20
7.5786894005
 10
2.5997166265
 20
7.6023973227
 10
2.5625837448
 20
7.6221016091
 10
2.522298812
 20
7.6373866163
 10
2.4798694453
 20
7.6482679303
 10
2.4364292548
 20
7.6548076411
 10
2.3925381122
 20
7.6571800887
 10
2.3486860781
 20
7.6554635542
 10
2.3055232423
 20
7.6496702039
 10
2.2636262962
 20
7.639756949
 10
2.2237588948
 20
7.6256762914
 10
2.1867312078
 20
7.6073901159
  0
LWPOLYLINE
  5
565
100
AcDbEntity
  8
02___PRT_ALL_AXES
100
AcDbPolyline
 62
7
  6
CONTINUOUS
 90
4
 70
0
 10
2.71582955
 20
7.3791048809
 10
2.7142559219
 20
7.3975974775
 10
2.7095504589
 20
7.4159111961
 10
2.7040185264
 20
7.4286614033
  0
LINE
  5
566
100
AcDbEntity
  8
0
100
AcDbLine
 62
7
  6
CONTINUOUS
 10
2.7234806703
 20
7.063314979
 11
2.7234806703
 21
7.060366903
  0
LINE
  5
567
100
AcDbEntity
  8
0
100
AcDbLine
 62
7
  6
CONTINUOUS
 10
2.7234806703
 20
7.0311692145
 11
2.7234806703
 21
7.0282211386
  0
LINE
  5
568
100
AcDbEntity
  8
0
100
AcDbLine
 62
7
  6
CONTINUOUS
 10
2.7234806703
 20
6.9990234501
 11
2.7234806703
 21
6.9960753741
  0
LINE
  5
569
100
AcDbEntity
  8
0
100
AcDbLine
 62
7
  6
CONTINUOUS
 10
2.7234806703
 20
6.9668776856
 11
2.7234806703
 21
6.9639296097
  0
LINE
  5
56A
100
AcDbEntity
  8
0
100
AcDbLine
 62
7
  6
CONTINUOUS
 10
2.7234806703
 20
6.9347319212
 11
2.7234806703
 21
6.9317838452
  0
LINE
  5
56B
100
AcDbEntity
  8
0
100
AcDbLine
 62
7
  6
CONTINUOUS
 10
2.7234806703
 20
6.9025861567
 11
2.7234806703
 21
6.8996380808
  0
LINE
  5
56C
100
AcDbEntity
  8
0
100
AcDbLine
 62
7
  6
CONTINUOUS
 10
2.7234806703
 20
6.8704403922
 11
2.7234806703
 21
6.8674923163
  0
LINE
  5
56D
100
AcDbEntity
  8
0
100
AcDbLine
 62
7
  6
CONTINUOUS
 10
2.7234806703
 20
6.8382946278
 11
2.7234806703
 21
6.8353465518
  0
LINE
  5
56E
100
AcDbEntity
  8
0
100
AcDbLine
 62
7
  6
CONTINUOUS
 10
2.7234806703
 20
6.8061488633
 11
2.7234806703
 21
6.8032007874
  0
LINE
  5
56F
100
AcDbEntity
  8
0
100
AcDbLine
 62
7
  6
CONTINUOUS
 10
2.7234806703
 20
6.7740030989
 11
2.7234806703
 21
6.7710550229
  0
LINE
  5
570
100
AcDbEntity
  8
0
100
AcDbLine
 62
7
  6
CONTINUOUS
 10
2.7413668975
 20
7.0944295992
 11
2.7413049227
 21
7.0915606334
  0
LINE
  5
571
100
AcDbEntity
  8
0
100
AcDbLine
 62
7
  6
CONTINUOUS
 10
2.7414201012
 20
7.0939444491
 11
2.7413049227
 21
7.0886125574
  0
LINE
  5
572
100
AcDbEntity
  8
0
100
AcDbLine
 62
7
  6
CONTINUOUS
 10
2.7414201012
 20
7.0647467606
 11
2.7413049227
 21
7.0594148689
  0
LINE
  5
573
100
AcDbEntity
  8
0
100
AcDbLine
 62
7
  6
CONTINUOUS
 10
2.7414201012
 20
7.0617986846
 11
2.7413049227
 21
7.056466793
  0
LINE
  5
574
100
AcDbEntity
  8
0
100
AcDbLine
 62
7
  6
CONTINUOUS
 10
2.7414201012
 20
7.0326009961
 11
2.7413049227
 21
7.0272691045
  0
LINE
  5
575
100
AcDbEntity
  8
0
100
AcDbLine
 62
7
  6
CONTINUOUS
 10
2.7414201012
 20
7.0296529202
 11
2.7413049227
 21
7.0243210285
  0
LINE
  5
576
100
AcDbEntity
  8
0
100
AcDbLine
 62
7
  6
CONTINUOUS
 10
2.7414201012
 20
7.0004552317
 11
2.7413049227
 21
6.99512334
  0
LINE
  5
577
100
AcDbEntity
  8
0
100
AcDbLine
 62
7
  6
CONTINUOUS
 10
2.7414201012
 20
6.9975071557
 11
2.7413049227
 21
6.9921752641
  0
LINE
  5
578
100
AcDbEntity
  8
0
100
AcDbLine
 62
7
  6
CONTINUOUS
 10
2.7414201012
 20
6.9683094672
 11
2.7413049227
 21
6.9629775756
  0
LINE
  5
579
100
AcDbEntity
  8
0
100
AcDbLine
 62
7
  6
CONTINUOUS
 10
2.7414201012
 20
6.9653613913
 11
2.7413049227
 21
6.9600294996
  0
LINE
  5
57A
100
AcDbEntity
  8
0
100
AcDbLine
 62
7
  6
CONTINUOUS
 10
2.7414201012
 20
6.9361637028
 11
2.7413049227
 21
6.9308318111
  0
LINE
  5
57B
100
AcDbEntity
  8
0
100
AcDbLine
 62
7
  6
CONTINUOUS
 10
2.7414201012
 20
6.9332156268
 11
2.7413049227
 21
6.9278837352
  0
LINE
  5
57C
100
AcDbEntity
  8
0
100
AcDbLine
 62
7
  6
CONTINUOUS
 10
2.7414201012
 20
6.9040179383
 11
2.7413049227
 21
6.8986860467
  0
LINE
  5
57D
100
AcDbEntity
  8
0
100
AcDbLine
 62
7
  6
CONTINUOUS
 10
2.7414201012
 20
6.9010698624
 11
2.7413049227
 21
6.8957379707
  0
LINE
  5
57E
100
AcDbEntity
  8
0
100
AcDbLine
 62
7
  6
CONTINUOUS
 10
2.7414201012
 20
6.8718721738
 11
2.7413049227
 21
6.8665402822
  0
LINE
  5
57F
100
AcDbEntity
  8
0
100
AcDbLine
 62
7
  6
CONTINUOUS
 10
2.7414201012
 20
6.8689240979
 11
2.7413049227
 21
6.8635922063
  0
LINE
  5
580
100
AcDbEntity
  8
0
100
AcDbLine
 62
7
  6
CONTINUOUS
 10
2.7414201012
 20
6.8397264094
 11
2.7413049227
 21
6.8343945178
  0
LWPOLYLINE
  5
581
100
AcDbEntity
  8
0
100
AcDbPolyline
 62
7
  6
CONTINUOUS
 90
3
 70
0
 10
2.7414201012
 20
6.8367783334
 10
2.7413049227
 20
6.8314464418
 10
2.7361591851
 20
6.8008707047
  0
LWPOLYLINE
  5
582
100
AcDbEntity
  8
AXIS
100
AcDbPolyline
 62
7
  6
CONTINUOUS
 90
7
 70
0
 10
2.8516542022
 20
7.2666053507
 10
2.8492312441
 20
7.2392833562
 10
2.838503758
 20
7.2033613332
 10
2.8194039459
 20
7.1686172282
 10
2.7922876012
 20
7.1356982583
 10
2.75765985
 20
7.1052176414
 10
2.7161657418
 20
7.0777431739
  0
LINE
  5
583
100
AcDbEntity
  8
AXIS
100
AcDbLine
 62
7
  6
CONTINUOUS
 10
2.8516563217
 20
7.2968694955
 11
2.8492312441
 21
7.2695581476
  0
LWPOLYLINE
  5
584
100
AcDbEntity
  8
0
100
AcDbPolyline
 62
7
  6
CONTINUOUS
 90
3
 70
0
 10
2.1399012295
 20
6.7773111763
 10
2.1079453842
 20
6.7977976176
 10
2.0813526519
 20
6.8206241139
  0
LWPOLYLINE
  5
585
100
AcDbEntity
  8
0
100
AcDbPolyline
 62
7
  6
CONTINUOUS
 90
6
 70
0
 10
2.1399012295
 20
6.7802592523
 10
2.1079453842
 20
6.8007456935
 10
2.0813526519
 20
6.8235721898
 10
2.0606303733
 20
6.8482897608
 10
2.0461738915
 20
6.8744133477
 10
2.0382590099
 20
6.9014310677
  0
LINE
  5
586
100
AcDbEntity
  8
0
100
AcDbLine
 62
7
  6
CONTINUOUS
 10
2.7398506685
 20
6.9835341523
 11
2.7414201012
 21
6.9683094672
  0
LINE
  5
587
100
AcDbEntity
  8
0
100
AcDbLine
 62
7
  6
CONTINUOUS
 10
2.7398506685
 20
7.0156799167
 11
2.7414201012
 21
7.0004552317
  0
LINE
  5
588
100
AcDbEntity
  8
0
100
AcDbLine
 62
7
  6
CONTINUOUS
 10
2.7398506685
 20
7.0478256812
 11
2.7414201012
 21
7.0326009961
  0
LINE
  5
589
100
AcDbEntity
  8
0
100
AcDbLine
 62
7
  6
CONTINUOUS
 10
2.7398506685
 20
7.0799714457
 11
2.7414201012
 21
7.0647467606
  0
LWPOLYLINE
  5
58A
100
AcDbEntity
  8
0
100
AcDbPolyline
 62
7
  6
CONTINUOUS
 90
4
 70
0
 10
2.7158273972
 20
7.3790949962
 10
2.7137747261
 20
7.4002287668
 10
2.7046947238
 20
7.4279341819
 10
2.7040185264
 20
7.429049858
  0
LINE
  5
58B
100
AcDbEntity
  8
AXIS
100
AcDbLine
 62
7
  6
CONTINUOUS
 10
2.8516563217
 20
7.2968694955
 11
2.8516563217
 21
7.2665947041
  0
LWPOLYLINE
  5
58C
100
AcDbEntity
  8
0
100
AcDbPolyline
 62
7
  6
CONTINUOUS
 90
11
 70
0
 10
2.5000585716
 20
6.637305715
 10
2.4497222965
 20
6.6292312595
 10
2.3980694851
 20
6.6255057865
 10
2.3462211046
 20
6.6261937746
 10
2.2953023664
 20
6.6312639218
 10
2.2464183066
 20
6.6405898245
 10
2.2006298051
 20
6.653952721
 10
2.1589305619
 20
6.6710462389
 10
2.1222255323
 20
6.691483044
 10
2.0913112872
 20
6.7148032463
 10
2.0668587262
 20
6.7404843803
  0
LWPOLYLINE
  5
58D
100
AcDbEntity
  8
0
100
AcDbPolyline
 62
7
  6
CONTINUOUS
 90
11
 70
0
 10
2.5000585716
 20
6.640253791
 10
2.4497222965
 20
6.6321793355
 10
2.3980694851
 20
6.6284538625
 10
2.3462211046
 20
6.6291418506
 10
2.2953023664
 20
6.6342119978
 10
2.2464183066
 20
6.6435379005
 10
2.2006298051
 20
6.656900797
 10
2.1589305619
 20
6.6739943149
 10
2.1222255323
 20
6.69443112
 10
2.0913112872
 20
6.7177513223
 10
2.0668587262
 20
6.7434324562
  0
LWPOLYLINE
  5
58E
100
AcDbEntity
  8
0
100
AcDbPolyline
 62
7
  6
CONTINUOUS
 90
12
 70
0
 10
2.5000585716
 20
6.6694514795
 10
2.4497222965
 20
6.661377024
 10
2.3980694851
 20
6.657651551
 10
2.3462211046
 20
6.6583395391
 10
2.2953023664
 20
6.6634096863
 10
2.2464183066
 20
6.672735589
 10
2.2006298051
 20
6.6860984855
 10
2.1589305619
 20
6.7031920034
 10
2.1222255323
 20
6.7236288085
 10
2.0913112872
 20
6.7469490108
 10
2.0668587262
 20
6.7726301447
 10
2.0493985178
 20
6.8000985082
  0
LWPOLYLINE
  5
58F
100
AcDbEntity
  8
0
100
AcDbPolyline
 62
7
  6
CONTINUOUS
 90
13
 70
0
 10
2.5000585716
 20
6.6723995554
 10
2.4497222965
 20
6.6643250999
 10
2.3980694851
 20
6.6605996269
 10
2.3462211046
 20
6.661287615
 10
2.2953023664
 20
6.6663577622
 10
2.2464183066
 20
6.6756836649
 10
2.2006298051
 20
6.6890465614
 10
2.1589305619
 20
6.7061400793
 10
2.1222255323
 20
6.7265768844
 10
2.0913112872
 20
6.7498970867
 10
2.0668587262
 20
6.7755782207
 10
2.0493985178
 20
6.8030465841
 10
2.0393095826
 20
6.8316896884
  0
LWPOLYLINE
  5
590
100
AcDbEntity
  8
0
100
AcDbPolyline
 62
7
  6
CONTINUOUS
 90
12
 70
0
 10
2.5000585716
 20
6.7015972439
 10
2.4497222965
 20
6.6935227885
 10
2.3980694851
 20
6.6897973154
 10
2.3462211046
 20
6.6904853036
 10
2.2953023664
 20
6.6955554507
 10
2.2464183066
 20
6.7048813534
 10
2.2006298051
 20
6.7182442499
 10
2.1589305619
 20
6.7353377678
 10
2.1222255323
 20
6.755774573
 10
2.0913112872
 20
6.7790947752
 10
2.0668587262
 20
6.8047759092
 10
2.0493985178
 20
6.8322442726
  0
LWPOLYLINE
  5
591
100
AcDbEntity
  8
0
100
AcDbPolyline
 62
7
  6
CONTINUOUS
 90
13
 70
0
 10
2.5000585716
 20
6.7045453199
 10
2.4497222965
 20
6.6964708644
 10
2.3980694851
 20
6.6927453914
 10
2.3462211046
 20
6.6934333795
 10
2.2953023664
 20
6.6985035267
 10
2.2464183066
 20
6.7078294294
 10
2.2006298051
 20
6.7211923259
 10
2.1589305619
 20
6.7382858438
 10
2.1222255323
 20
6.7587226489
 10
2.0913112872
 20
6.7820428512
 10
2.0668587262
 20
6.8077239851
 10
2.0493985178
 20
6.8351923486
 10
2.0393095826
 20
6.8638354528
  0
LINE
  5
592
100
AcDbEntity
  8
0
100
AcDbLine
 62
7
  6
CONTINUOUS
 10
2.4341010212
 20
6.6602503353
 11
2.4121890222
 21
6.6579998122
  0
LINE
  5
593
100
AcDbEntity
  8
0
100
AcDbLine
 62
7
  6
CONTINUOUS
 10
2.4341062337
 20
6.6923964757
 11
2.4122019899
 21
6.6901463162
  0
LINE
  5
594
100
AcDbEntity
  8
0
100
AcDbLine
 62
7
  6
CONTINUOUS
 10
2.4121890222
 20
6.6579998122
 11
2.3616446
 21
6.6573957872
  0
LINE
  5
595
100
AcDbEntity
  8
0
100
AcDbLine
 62
7
  6
CONTINUOUS
 10
2.4122019899
 20
6.6901463162
 11
2.3616618758
 21
6.6895409802
  0
LINE
  5
596
100
AcDbEntity
  8
0
100
AcDbLine
 62
7
  6
CONTINUOUS
 10
2.3616446
 20
6.6573957872
 11
2.3334049552
 21
6.6596156855
  0
LINE
  5
597
100
AcDbEntity
  8
0
100
AcDbLine
 62
7
  6
CONTINUOUS
 10
2.3616618758
 20
6.6895409802
 11
2.3334151907
 21
6.6917604308
  0
LINE
  5
598
100
AcDbEntity
  8
0
100
AcDbLine
 62
7
  6
CONTINUOUS
 10
2.1766105285
 20
6.7625172025
 11
2.1399012295
 21
6.7802592523
  0
LWPOLYLINE
  5
599
100
AcDbEntity
  8
0
100
AcDbPolyline
 62
7
  6
CONTINUOUS
 90
4
 70
0
 10
2.1589305619
 20
6.7996292967
 10
2.1222255323
 20
6.8200661019
 10
2.0913112872
 20
6.8433863041
 10
2.0668587262
 20
6.8690674381
  0
LWPOLYLINE
  5
59A
100
AcDbEntity
  8
0
100
AcDbPolyline
 62
7
  6
CONTINUOUS
 90
9
 70
0
 10
2.5000585716
 20
6.7337430084
 10
2.4529184123
 20
6.7260469739
 10
2.4045599111
 20
6.7221678061
 10
2.3559056598
 20
6.72216602
 10
2.3078838926
 20
6.726028157
 10
2.261410777
 20
6.7336670421
 10
2.2173729351
 20
6.7449234466
 10
2.1766105285
 20
6.7595691265
 10
2.1399012295
 20
6.7773111763
  0
LWPOLYLINE
  5
59B
100
AcDbEntity
  8
0
100
AcDbPolyline
 62
7
  6
CONTINUOUS
 90
8
 70
0
 10
2.5000585716
 20
6.7366910843
 10
2.4529184123
 20
6.7289950498
 10
2.4045599111
 20
6.725115882
 10
2.3559056598
 20
6.7251140959
 10
2.3078838926
 20
6.7289762329
 10
2.261410777
 20
6.736615118
 10
2.2173729351
 20
6.7478715226
 10
2.1766105285
 20
6.7625172025
  0
LWPOLYLINE
  5
59C
100
AcDbEntity
  8
0
100
AcDbPolyline
 62
7
  6
CONTINUOUS
 90
8
 70
0
 10
2.5000585716
 20
6.7658887729
 10
2.4497222965
 20
6.7578143174
 10
2.3980694851
 20
6.7540888443
 10
2.3462211046
 20
6.7547768325
 10
2.2953023664
 20
6.7598469796
 10
2.2464183066
 20
6.7691728823
 10
2.2006298051
 20
6.7825357788
 10
2.1589305619
 20
6.7996292967
  0
LWPOLYLINE
  5
59D
100
AcDbEntity
  8
0
100
AcDbPolyline
 62
7
  6
CONTINUOUS
 90
13
 70
0
 10
2.5000585716
 20
6.7688368488
 10
2.4497222965
 20
6.7607623933
 10
2.3980694851
 20
6.7570369203
 10
2.3462211046
 20
6.7577249084
 10
2.2953023664
 20
6.7627950556
 10
2.2464183066
 20
6.7721209583
 10
2.2006298051
 20
6.7854838548
 10
2.1589305619
 20
6.8025773727
 10
2.1222255323
 20
6.8230141778
 10
2.0913112872
 20
6.8463343801
 10
2.0668587262
 20
6.872015514
 10
2.0493985178
 20
6.8994838775
 10
2.0393095826
 20
6.9281269817
  0
LWPOLYLINE
  5
59E
100
AcDbEntity
  8
0
100
AcDbPolyline
 62
7
  6
CONTINUOUS
 90
11
 70
0
 10
2.5000585716
 20
6.7980345373
 10
2.4497222965
 20
6.7899600818
 10
2.3980694851
 20
6.7862346088
 10
2.3462211046
 20
6.7869225969
 10
2.2953023664
 20
6.7919927441
 10
2.2464183066
 20
6.8013186468
 10
2.2006298051
 20
6.8146815433
 10
2.1589305619
 20
6.8317750612
 10
2.1222255323
 20
6.8522118663
 10
2.0913112872
 20
6.8755320686
 10
2.0668587262
 20
6.9012132026
  0
LWPOLYLINE
  5
59F
100
AcDbEntity
  8
0
100
AcDbPolyline
 62
7
  6
CONTINUOUS
 90
13
 70
0
 10
2.5000585716
 20
6.8009826133
 10
2.4497222965
 20
6.7929081578
 10
2.3980694851
 20
6.7891826847
 10
2.3462211046
 20
6.7898706729
 10
2.2953023664
 20
6.79494082
 10
2.2464183066
 20
6.8042667227
 10
2.2006298051
 20
6.8176296192
 10
2.1589305619
 20
6.8347231371
 10
2.1222255323
 20
6.8551599423
 10
2.0913112872
 20
6.8784801445
 10
2.0668587262
 20
6.9041612785
 10
2.0493985178
 20
6.9316296419
 10
2.0393095826
 20
6.9602727462
  0
LWPOLYLINE
  5
5A0
100
AcDbEntity
  8
0
100
AcDbPolyline
 62
7
  6
CONTINUOUS
 90
11
 70
0
 10
2.5000585716
 20
6.8301803018
 10
2.4497222965
 20
6.8221058463
 10
2.3980694851
 20
6.8183803732
 10
2.3462211046
 20
6.8190683614
 10
2.2953023664
 20
6.8241385085
 10
2.2464183066
 20
6.8334644112
 10
2.2006298051
 20
6.8468273077
 10
2.1589305619
 20
6.8639208257
 10
2.1222255323
 20
6.8843576308
 10
2.0913112872
 20
6.907677833
 10
2.0668587262
 20
6.933358967
  0
LINE
  5
5A1
100
AcDbEntity
  8
0
100
AcDbLine
 62
7
  6
CONTINUOUS
 10
2.4374779704
 20
6.756931192
 11
2.4205998474
 21
6.7549802459
  0
LINE
  5
5A2
100
AcDbEntity
  8
0
100
AcDbLine
 62
7
  6
CONTINUOUS
 10
2.4339143012
 20
6.7245225235
 11
2.4122019899
 21
6.7222920806
  0
LINE
  5
5A3
100
AcDbEntity
  8
0
100
AcDbLine
 62
7
  6
CONTINUOUS
 10
2.4341062337
 20
6.7888337691
 11
2.4122019899
 21
6.7865836095
  0
LINE
  5
5A4
100
AcDbEntity
  8
0
100
AcDbLine
 62
7
  6
CONTINUOUS
 10
2.4205998474
 20
6.7549802459
 11
2.3728746413
 21
6.7535742035
  0
LWPOLYLINE
  5
5A5
100
AcDbEntity
  8
0
100
AcDbPolyline
 62
7
  6
CONTINUOUS
 90
4
 70
0
 10
2.4122019899
 20
6.7222920806
 10
2.3616618758
 20
6.7216867446
 10
2.311784645
 20
6.7256057903
 10
2.3106173679
 20
6.725808318
  0
LINE
  5
5A6
100
AcDbEntity
  8
0
100
AcDbLine
 62
7
  6
CONTINUOUS
 10
2.4122019899
 20
6.7865836095
 11
2.3616618758
 21
6.7859782735
  0
LINE
  5
5A7
100
AcDbEntity
  8
0
100
AcDbLine
 62
7
  6
CONTINUOUS
 10
2.3728746413
 20
6.7535742035
 11
2.3397779438
 21
6.7554183993
  0
LINE
  5
5A8
100
AcDbEntity
  8
0
100
AcDbLine
 62
7
  6
CONTINUOUS
 10
2.3616618758
 20
6.7859782735
 11
2.3334151907
 21
6.7881977241
  0
LWPOLYLINE
  5
5A9
100
AcDbEntity
  8
0
100
AcDbPolyline
 62
7
  6
CONTINUOUS
 90
13
 70
0
 10
2.5000585716
 20
6.8331283777
 10
2.4497222965
 20
6.8250539222
 10
2.3980694851
 20
6.8213284492
 10
2.3462211046
 20
6.8220164373
 10
2.2953023664
 20
6.8270865845
 10
2.2464183066
 20
6.8364124872
 10
2.2006298051
 20
6.8497753837
 10
2.1589305619
 20
6.8668689016
 10
2.1222255323
 20
6.8873057067
 10
2.0913112872
 20
6.910625909
 10
2.0668587262
 20
6.936307043
 10
2.0493985178
 20
6.9637754064
 10
2.0393095826
 20
6.9924185107
  0
LWPOLYLINE
  5
5AA
100
AcDbEntity
  8
0
100
AcDbPolyline
 62
7
  6
CONTINUOUS
 90
11
 70
0
 10
2.5000585716
 20
6.8623260662
 10
2.4497222965
 20
6.8542516107
 10
2.3980694851
 20
6.8505261377
 10
2.3462211046
 20
6.8512141258
 10
2.2953023664
 20
6.856284273
 10
2.2464183066
 20
6.8656101757
 10
2.2006298051
 20
6.8789730722
 10
2.1589305619
 20
6.8960665901
 10
2.1222255323
 20
6.9165033952
 10
2.0913112872
 20
6.9398235975
 10
2.0668587262
 20
6.9655047315
  0
LWPOLYLINE
  5
5AB
100
AcDbEntity
  8
0
100
AcDbPolyline
 62
7
  6
CONTINUOUS
 90
13
 70
0
 10
2.5000585716
 20
6.8652741422
 10
2.4497222965
 20
6.8571996867
 10
2.3980694851
 20
6.8534742136
 10
2.3462211046
 20
6.8541622018
 10
2.2953023664
 20
6.8592323489
 10
2.2464183066
 20
6.8685582516
 10
2.2006298051
 20
6.8819211481
 10
2.1589305619
 20
6.8990146661
 10
2.1222255323
 20
6.9194514712
 10
2.0913112872
 20
6.9427716734
 10
2.0668587262
 20
6.9684528074
 10
2.0493985178
 20
6.9959211709
 10
2.0393095826
 20
7.0245642751
  0
LWPOLYLINE
  5
5AC
100
AcDbEntity
  8
0
100
AcDbPolyline
 62
7
  6
CONTINUOUS
 90
11
 70
0
 10
2.5000585716
 20
6.8944718307
 10
2.4497222965
 20
6.8863973752
 10
2.3980694851
 20
6.8826719022
 10
2.3462211046
 20
6.8833598903
 10
2.2953023664
 20
6.8884300374
 10
2.2464183066
 20
6.8977559402
 10
2.2006298051
 20
6.9111188367
 10
2.1589305619
 20
6.9282123546
 10
2.1222255323
 20
6.9486491597
 10
2.0913112872
 20
6.9719693619
 10
2.0668587262
 20
6.9976504959
  0
LWPOLYLINE
  5
5AD
100
AcDbEntity
  8
0
100
AcDbPolyline
 62
7
  6
CONTINUOUS
 90
13
 70
0
 10
2.5000585716
 20
6.8974199066
 10
2.4497222965
 20
6.8893454511
 10
2.3980694851
 20
6.8856199781
 10
2.3462211046
 20
6.8863079662
 10
2.2953023664
 20
6.8913781134
 10
2.2464183066
 20
6.9007040161
 10
2.2006298051
 20
6.9140669126
 10
2.1589305619
 20
6.9311604305
 10
2.1222255323
 20
6.9515972356
 10
2.0913112872
 20
6.9749174379
 10
2.0668587262
 20
7.0005985719
 10
2.0493985178
 20
7.0280669353
 10
2.0393095826
 20
7.0567100396
  0
LWPOLYLINE
  5
5AE
100
AcDbEntity
  8
0
100
AcDbPolyline
 62
7
  6
CONTINUOUS
 90
11
 70
0
 10
2.5000585716
 20
6.9266175951
 10
2.4497222965
 20
6.9185431396
 10
2.3980694851
 20
6.9148176666
 10
2.3462211046
 20
6.9155056547
 10
2.2953023664
 20
6.9205758019
 10
2.2464183066
 20
6.9299017046
 10
2.2006298051
 20
6.9432646011
 10
2.1589305619
 20
6.960358119
 10
2.1222255323
 20
6.9807949241
 10
2.0913112872
 20
7.0041151264
 10
2.0668587262
 20
7.0297962604
  0
LWPOLYLINE
  5
5AF
100
AcDbEntity
  8
0
100
AcDbPolyline
 62
7
  6
CONTINUOUS
 90
14
 70
0
 10
2.5000585716
 20
6.9295656711
 10
2.4497222965
 20
6.9214912156
 10
2.3980694851
 20
6.9177657426
 10
2.3462211046
 20
6.9184537307
 10
2.2953023664
 20
6.9235238778
 10
2.2464183066
 20
6.9328497805
 10
2.2006298051
 20
6.9462126771
 10
2.1589305619
 20
6.963306195
 10
2.1222255323
 20
6.9837430001
 10
2.0913112872
 20
7.0070632023
 10
2.0668587262
 20
7.0327443363
 10
2.0493985178
 20
7.0602126998
 10
2.0393095826
 20
7.088855804
 10
2.0389505369
 20
7.0921675149
  0
LINE
  5
5B0
100
AcDbEntity
  8
0
100
AcDbLine
 62
7
  6
CONTINUOUS
 10
2.4341062337
 20
6.8209795335
 11
2.4122019899
 21
6.818729374
  0
LINE
  5
5B1
100
AcDbEntity
  8
0
100
AcDbLine
 62
7
  6
CONTINUOUS
 10
2.4341085315
 20
6.8531254637
 11
2.412210464
 21
6.8508756218
  0
LINE
  5
5B2
100
AcDbEntity
  8
0
100
AcDbLine
 62
7
  6
CONTINUOUS
 10
2.4341062337
 20
6.8852710624
 11
2.4122019899
 21
6.8830209029
  0
LINE
  5
5B3
100
AcDbEntity
  8
0
100
AcDbLine
 62
7
  6
CONTINUOUS
 10
2.4122019899
 20
6.818729374
 11
2.3616618758
 21
6.818124038
  0
LINE
  5
5B4
100
AcDbEntity
  8
0
100
AcDbLine
 62
7
  6
CONTINUOUS
 10
2.412210464
 20
6.8508756218
 11
2.3616723896
 21
6.8502694549
  0
LINE
  5
5B5
100
AcDbEntity
  8
0
100
AcDbLine
 62
7
  6
CONTINUOUS
 10
2.4122019899
 20
6.8830209029
 11
2.3616618758
 21
6.8824155669
  0
LINE
  5
5B6
100
AcDbEntity
  8
0
100
AcDbLine
 62
7
  6
CONTINUOUS
 10
2.3616723896
 20
6.8502694549
 11
2.3334242207
 21
6.8524883539
  0
LINE
  5
5B7
100
AcDbEntity
  8
0
100
AcDbLine
 62
7
  6
CONTINUOUS
 10
2.3616618758
 20
6.818124038
 11
2.3334151907
 21
6.8203434886
  0
LINE
  5
5B8
100
AcDbEntity
  8
0
100
AcDbLine
 62
7
  6
CONTINUOUS
 10
2.3616618758
 20
6.8824155669
 11
2.3334151907
 21
6.8846350175
  0
LWPOLYLINE
  5
5B9
100
AcDbEntity
  8
0
100
AcDbPolyline
 62
7
  6
CONTINUOUS
 90
11
 70
0
 10
2.5000585716
 20
6.9587633596
 10
2.4497222965
 20
6.9506889041
 10
2.3980694851
 20
6.9469634311
 10
2.3462211046
 20
6.9476514192
 10
2.2953023664
 20
6.9527215664
 10
2.2464183066
 20
6.9620474691
 10
2.2006298051
 20
6.9754103656
 10
2.1589305619
 20
6.9925038835
 10
2.1222255323
 20
7.0129406886
 10
2.0913112872
 20
7.0362608908
 10
2.0668587262
 20
7.0619420248
  0
LWPOLYLINE
  5
5BA
100
AcDbEntity
  8
0
100
AcDbPolyline
 62
7
  6
CONTINUOUS
 90
12
 70
0
 10
2.5000585716
 20
6.9617114355
 10
2.4497222965
 20
6.95363698
 10
2.3980694851
 20
6.949911507
 10
2.3462211046
 20
6.9505994951
 10
2.2953023664
 20
6.9556696423
 10
2.2464183066
 20
6.964995545
 10
2.2006298051
 20
6.9783584415
 10
2.1589305619
 20
6.9954519594
 10
2.1222255323
 20
7.0158887645
 10
2.0913112872
 20
7.0392089668
 10
2.0668587262
 20
7.0648901008
 10
2.0559137965
 20
7.0821086414
  0
LWPOLYLINE
  5
5BB
100
AcDbEntity
  8
0
100
AcDbPolyline
 62
7
  6
CONTINUOUS
 90
10
 70
0
 10
2.5000585716
 20
6.990909124
 10
2.4497222965
 20
6.9828346685
 10
2.3980694851
 20
6.9791091955
 10
2.3462211046
 20
6.9797971836
 10
2.2953023664
 20
6.9848673308
 10
2.2464183066
 20
6.9941932335
 10
2.2006298051
 20
7.00755613
 10
2.1589305619
 20
7.0246496479
 10
2.1222255323
 20
7.045086453
 10
2.1098206079
 20
7.0544441244
  0
LWPOLYLINE
  5
5BC
100
AcDbEntity
  8
0
100
AcDbPolyline
 62
7
  6
CONTINUOUS
 90
10
 70
0
 10
2.5000585716
 20
6.9938572
 10
2.4497222965
 20
6.9857827445
 10
2.3980694851
 20
6.9820572715
 10
2.3462211046
 20
6.9827452596
 10
2.2953023664
 20
6.9878154067
 10
2.2464183066
 20
6.9971413095
 10
2.2006298051
 20
7.010504206
 10
2.1589305619
 20
7.0275977239
 10
2.1222255323
 20
7.048034529
 10
2.1191339627
 20
7.0503666587
  0
LINE
  5
5BD
100
AcDbEntity
  8
0
100
AcDbLine
 62
7
  6
CONTINUOUS
 10
2.4341062337
 20
6.9174168269
 11
2.4122019899
 21
6.9151666673
  0
LINE
  5
5BE
100
AcDbEntity
  8
0
100
AcDbLine
 62
7
  6
CONTINUOUS
 10
2.4341062337
 20
6.9495625913
 11
2.4122019899
 21
6.9473124318
  0
LINE
  5
5BF
100
AcDbEntity
  8
0
100
AcDbLine
 62
7
  6
CONTINUOUS
 10
2.4341062337
 20
6.9817083558
 11
2.4122019899
 21
6.9794581962
  0
LINE
  5
5C0
100
AcDbEntity
  8
0
100
AcDbLine
 62
7
  6
CONTINUOUS
 10
2.4122019899
 20
6.9151666673
 11
2.3616618758
 21
6.9145613314
  0
LINE
  5
5C1
100
AcDbEntity
  8
0
100
AcDbLine
 62
7
  6
CONTINUOUS
 10
2.4122019899
 20
6.9473124318
 11
2.3616618758
 21
6.9467070958
  0
LINE
  5
5C2
100
AcDbEntity
  8
0
100
AcDbLine
 62
7
  6
CONTINUOUS
 10
2.4122019899
 20
6.9794581962
 11
2.3616618758
 21
6.9788528603
  0
LINE
  5
5C3
100
AcDbEntity
  8
0
100
AcDbLine
 62
7
  6
CONTINUOUS
 10
2.3616618758
 20
6.9145613314
 11
2.3334151907
 21
6.9167807819
  0
LINE
  5
5C4
100
AcDbEntity
  8
0
100
AcDbLine
 62
7
  6
CONTINUOUS
 10
2.3616618758
 20
6.9467070958
 11
2.3334151907
 21
6.9489265464
  0
LINE
  5
5C5
100
AcDbEntity
  8
0
100
AcDbLine
 62
7
  6
CONTINUOUS
 10
2.3616618758
 20
6.9788528603
 11
2.3334151907
 21
6.9810723108
  0
LWPOLYLINE
  5
5C6
100
AcDbEntity
  8
AXIS
100
AcDbPolyline
 62
7
  6
CONTINUOUS
 90
5
 70
0
 10
2.7030787642
 20
7.4443258646
 10
2.7123004305
 20
7.4291107916
 10
2.7215992281
 20
7.4007377762
 10
2.7234696018
 20
7.3718815176
 10
2.7178697706
 20
7.343186617
  0
LWPOLYLINE
  5
5C7
100
AcDbEntity
  8
AXIS
100
AcDbPolyline
 62
7
  6
CONTINUOUS
 90
5
 70
0
 10
2.4512737797
 20
7.1892682687
 10
2.4995856693
 20
7.1967421616
 10
2.5454285512
 20
7.2082897363
 10
2.587778371
 20
7.2236530391
 10
2.6256891037
 20
7.2424888791
  0
LWPOLYLINE
  5
5C8
100
AcDbEntity
  8
AXIS
100
AcDbPolyline
 62
7
  6
CONTINUOUS
 90
4
 70
0
 10
2.3024465697
 20
7.1924829672
 10
2.351590854
 20
7.1871146169
 10
2.40157209
 20
7.1860350119
 10
2.4512737797
 20
7.1892682687
  0
LINE
  5
5C9
100
AcDbEntity
  8
AXIS
100
AcDbLine
 62
7
  6
CONTINUOUS
 10
2.6908803953
 20
7.4986961788
 11
2.7207297864
 21
7.4830486988
  0
LWPOLYLINE
  5
5CA
100
AcDbEntity
  8
AXIS
100
AcDbPolyline
 62
7
  6
CONTINUOUS
 90
8
 70
0
 10
2.7207297864
 20
7.4830486988
 10
2.7377230893
 20
7.4723946538
 10
2.775873374
 20
7.4433495838
 10
2.8068180183
 20
7.411575867
 10
2.829980582
 20
7.3776653875
 10
2.8449295902
 20
7.3422498333
 10
2.8513865714
 20
7.3059889294
 10
2.8516563217
 20
7.2968694955
  0
LINE
  5
5CB
100
AcDbEntity
  8
AXIS
100
AcDbLine
 62
7
  6
CENTER
 10
6.5968498901
 20
8.8432098683
 11
6.5968498901
 21
8.2806114431
  0
LINE
  5
5CC
100
AcDbEntity
  8
AXIS
100
AcDbLine
 62
7
  6
CENTER
 10
6.5968498901
 20
8.8432098683
 11
6.5968498901
 21
9.4058082935
  0
LINE
  5
5CD
100
AcDbEntity
  8
AXIS
100
AcDbLine
 62
7
  6
CENTER
 10
6.5968498901
 20
8.8432098683
 11
6.0342514649
 21
8.8432098683
  0
LINE
  5
5CE
100
AcDbEntity
  8
AXIS
100
AcDbLine
 62
7
  6
CENTER
 10
6.5968498901
 20
8.8432098683
 11
7.1594483153
 21
8.8432098683
  0
CIRCLE
  5
5CF
100
AcDbEntity
  8
0
100
AcDbCircle
 62
7
  6
CONTINUOUS
 10
10.5342808475
 20
1.243294839
 40
0.252091
  0
CIRCLE
  5
5D0
100
AcDbEntity
  8
0
100
AcDbCircle
 62
7
  6
CONTINUOUS
 10
10.5342808475
 20
1.243294839
 40
0.182698
  0
CIRCLE
  5
5D1
100
AcDbEntity
  8
0
100
AcDbCircle
 62
7
  6
CONTINUOUS
 10
10.1225539079
 20
1.9935547577
 40
0.0638444824
  0
ARC
  5
5D2
100
AcDbEntity
  8
SKETCHED_ENT
100
AcDbCircle
 62
7
  6
CONTINUOUS
 10
12.9570948705
 20
5.6409712171
 40
0.3972427748
100
AcDbArc
 50
127.6735933398
 51
232.907162703
  0
ARC
  5
5D3
100
AcDbEntity
  8
SKETCHED_ENT
100
AcDbCircle
 62
7
  6
CONTINUOUS
 10
12.9570948705
 20
5.6409712171
 40
0.3972427748
100
AcDbArc
 50
307.1289674789
 51
52.2878326008
  0
ARC
  5
5D4
100
AcDbEntity
  8
0
100
AcDbCircle
 62
7
  6
CONTINUOUS
 10
6.3345814771
 20
5.172523378
 40
0.0196850394
100
AcDbArc
 50
2.0
 51
90.0
  0
ARC
  5
5D5
100
AcDbEntity
  8
0
100
AcDbCircle
 62
7
  6
CONTINUOUS
 10
6.3920056699
 20
4.7866966063
 40
0.0078740157
100
AcDbArc
 50
192.0
 51
270.0
  0
ARC
  5
5D6
100
AcDbEntity
  8
0
100
AcDbCircle
 62
7
  6
CONTINUOUS
 10
6.3724116028
 20
4.8788794442
 40
0.0078740157
100
AcDbArc
 50
182.0
 51
192.0
  0
ARC
  5
5D7
100
AcDbEntity
  8
02___PRT_ALL_AXES
100
AcDbCircle
 62
7
  6
CONTINUOUS
 10
6.380314457
 20
6.0859092047
 40
0.0984251969
100
AcDbArc
 50
90.0
 51
180.0
  0
ARC
  5
5D8
100
AcDbEntity
  8
0
100
AcDbCircle
 62
7
  6
CONTINUOUS
 10
6.8591183031
 20
5.172523378
 40
0.0196850394
100
AcDbArc
 50
90.0
 51
178.0
  0
ARC
  5
5D9
100
AcDbEntity
  8
0
100
AcDbCircle
 62
7
  6
CONTINUOUS
 10
6.8212881774
 20
4.8788794442
 40
0.0078740157
100
AcDbArc
 50
348.0
 51
358.0
  0
ARC
  5
5DA
100
AcDbEntity
  8
0
100
AcDbCircle
 62
7
  6
CONTINUOUS
 10
6.8016941103
 20
4.7866966063
 40
0.0078740157
100
AcDbArc
 50
270.0
 51
348.0
  0
ARC
  5
5DB
100
AcDbEntity
  8
AXIS
100
AcDbCircle
 62
7
  6
CONTINUOUS
 10
6.5968498901
 20
5.4622030778
 40
0.6496062992
100
AcDbArc
 50
121.0075830069
 51
135.4077661022
  0
ARC
  5
5DC
100
AcDbEntity
  8
AXIS
100
AcDbCircle
 62
7
  6
CONTINUOUS
 10
6.5968498901
 20
5.4622030778
 40
0.6496062992
100
AcDbArc
 50
44.5922338978
 51
58.9924169931
  0
ARC
  5
5DD
100
AcDbEntity
  8
02___PRT_ALL_AXES
100
AcDbCircle
 62
7
  6
CONTINUOUS
 10
6.8133853232
 20
6.0859092047
 40
0.0984251969
100
AcDbArc
 50
0.0
 51
90.0
  0
CIRCLE
  5
5DE
100
AcDbEntity
  8
AXIS
100
AcDbCircle
 62
7
  6
CONTINUOUS
 10
6.5968498901
 20
8.8432098683
 40
0.4625984252
  0
CIRCLE
  5
5DF
100
AcDbEntity
  8
AXIS
100
AcDbCircle
 62
7
  6
CONTINUOUS
 10
6.5968498901
 20
8.8432098683
 40
0.3346456693
  0
CIRCLE
  5
5E0
100
AcDbEntity
  8
02___PRT_ALL_AXES
100
AcDbCircle
 62
7
  6
CONTINUOUS
 10
6.5968498901
 20
8.8432098683
 40
0.3267716535
  0
CIRCLE
  5
5E1
100
AcDbEntity
  8
0
100
AcDbCircle
 62
7
  6
CONTINUOUS
 10
6.5968498901
 20
8.8432098683
 40
0.3267716535
  0
CIRCLE
  5
5E2
100
AcDbEntity
  8
02___PRT_ALL_AXES
100
AcDbCircle
 62
7
  6
CONTINUOUS
 10
6.5968498901
 20
8.8432098683
 40
0.3149606299
  0
CIRCLE
  5
5E3
100
AcDbEntity
  8
02___PRT_ALL_AXES
100
AcDbCircle
 62
7
  6
CONTINUOUS
 10
6.5968498901
 20
8.8432098683
 40
0.2165354331
  0
ENDSEC
  0
SECTION
  2
OBJECTS
  0
DICTIONARY
  5
C
100
AcDbDictionary
280
0
281
1
  3
ACAD_GROUP
350
D
  3
ACAD_MLINESTYLE
350
17
  3
ACAD_LAYOUT
350
1A
  3
ACAD_PLOTSETTINGS
350
19
  3
ACAD_PLOTSTYLENAME
350
E
  3
ACAD_TABLESTYLE
350
       5E4
  0
DICTIONARY
  5
D
102
{ACAD_REACTORS
330
C
102
}
100
AcDbDictionary
280
0
281
1
  0
ACDBDICTIONARYWDFLT
  5
E
102
{ACAD_REACTORS
330
C
102
}
100
AcDbDictionary
281
1
  3
Normal
350
F
100
AcDbDictionaryWithDefault
340
F
  0
DICTIONARY
  5
17
102
{ACAD_REACTORS
330
C
102
}
100
AcDbDictionary
280
0
281
1
  3
Standard
350
18
  0
DICTIONARY
  5
5E4
330
C
100
AcDbDictionary
281
1
  3
Standard
350
       5E7
  3
Standard1
350
       5E8
  0
DICTIONARY
  5
19
102
{ACAD_REACTORS
330
C
102
}
100
AcDbDictionary
281
1
  0
DICTIONARY
  5
1A
102
{ACAD_REACTORS
330
C
102
}
100
AcDbDictionary
281
1
  3
Model
350
5E5
  3
Layout1
350
5E6
  0
ACDBPLACEHOLDER
  5
F
102
{ACAD_REACTORS
330
E
102
}
  0
MLINESTYLE
  5
18
102
{ACAD_REACTORS
330
17
102
}
100
AcDbMlineStyle
  2
STANDARD
 70
0
  3

 62
256
 51
90.0
 52
90.0
 71
2
 49
0.5
 62
256
  6
BYLAYER
 49
-0.5
 62
256
  6
BYLAYER
  0
LAYOUT
  5
5E5
102
{ACAD_REACTORS
330
1A
102
}
100
AcDbPlotSettings
  1

  2
none_device
  4
ANSI_B_(17.00_x_11.00_Inches)
  6

 40
0.0
 41
0.0
 42
0.0
 43
0.0
 44
431.8
 45
279.4
 46
0.0
 47
0.0
 48
0.0
 49
0.0
140
0.0
141
0.0
142
1.0
143
1.0
 70
1024
 72
0
 73
0
 74
0
  7

 75
0
147
1.0
148
0.0
149
0.0
100
AcDbLayout
  1
Model
 70
0
 71
0
 10
0.0
 20
0.0
 11
17.0
 21
11.0
 12
0.0
 22
0.0
 32
0.0
 14
0.0
 24
0.0
 34
0.0
 15
0.0
 25
0.0
 35
0.0
146
0.0
 13
0.0
 23
0.0
 33
0.0
 16
1.0
 26
0.0
 36
0.0
 17
0.0
 27
1.0
 37
0.0
 76
0
330
217
345
0
346
0
  0
LAYOUT
  5
5E6
102
{ACAD_REACTORS
330
1A
102
}
100
AcDbPlotSettings
  1

  2
none_device
  4
ANSI_B_(17.00_x_11.00_Inches)
  6

 40
0.0
 41
0.0
 42
0.0
 43
0.0
 44
431.8
 45
279.4
 46
0.0
 47
0.0
 48
0.0
 49
0.0
140
0.0
141
0.0
142
1.0
143
1.0
 70
0
 72
0
 73
0
 74
0
  7

 75
0
147
1.0
148
0.0
149
0.0
100
AcDbLayout
  1
Layout1
 70
0
 71
1
 10
0.0
 20
0.0
 11
17.0
 21
11.0
 12
0.0
 22
0.0
 32
0.0
 14
0.0
 24
0.0
 34
0.0
 15
0.0
 25
0.0
 35
0.0
146
0.0
 13
0.0
 23
0.0
 33
0.0
 16
1.0
 26
0.0
 36
0.0
 17
0.0
 27
1.0
 37
0.0
 76
0
330
218
345
0
346
0
  0
TABLESTYLE
  5
5E7
102
{ACAD_REACTORS
330
5E4
102
}
330
5E4
100
AcDbTableStyle
  3
Standard
 70
0
 71
0
 40
0.06
 41
0.06
280
1
281
1
  7
Standard
140
0.18
170
1
 62
0
 63
7
283
0
  7
Standard
140
0.18
170
1
 62
0
 63
7
283
0
  7
Standard
140
0.18
170
1
 62
0
 63
7
283
0
  0
TABLESTYLE
  5
5E8
102
{ACAD_REACTORS
330
5E4
330
2A0
102
}
330
5E4
100
AcDbTableStyle
  3
Standard1
 70
1
 71
0
 40
0.06
 41
0.06
280
1
281
1
  7
Standard
140
0.18
170
1
 62
0
 63
7
283
0
  7
Standard
140
0.18
170
1
 62
0
 63
7
283
0
  7
Standard
140
0.18
170
1
 62
0
 63
7
283
0
  0
ENDSEC
  0
EOF
