999
DXF file: 159877_1.dxf
999
Pro/ENGINEER 2009141 by Parametric Technology Corporation
  0
SECTION
  2
HEADER
  9
$ACADVER
  1
AC1015
  9
$DWGCODEPAGE
  3
ANSI_1252
  9
$EXTMAX
 10
17.0
 20
11.0
 30
0.0
  9
$EXTMIN
 10
0.0
 20
0.0
 30
0.0
  9
$LIMMIN
 10
0.0
 20
0.0
  9
$LIMMAX
 10
17.0
 20
11.0
  9
$VIEWCTR
 10
8.5
 20
5.5
  9
$VIEWSIZE
 40
11.0
  9
$CLAYER
  8
0
  9
$LTSCALE
 40
0.935
  9
$CELTYPE
  6
BYLAYER
  9
$DIMSCALE
 40
1.0
  9
$DIMASZ
 40
0.1875
  9
$DIMEXO
 40
0.10625
  9
$DIMDLI
 40
0.646
  9
$DIMEXE
 40
0.306
  9
$DIMCEN
 40
0.153
  9
$DIMLFAC
 40
1.0
  9
$DIMBLK
  1
_FILLED
  9
$DIMTXT
 40
0.1
  9
$DIMTOL
 70
1
  9
$DIMLIM
 70
0
  9
$DIMTFAC
 40
1.0
  9
$DIMTP
 40
0.005
  9
$DIMTM
 40
0.005
  9
$PDMODE
 70
3
  9
$PDSIZE
 40
0.3125
  9
$HANDSEED
  5
6B4
  9
$TILEMODE
 70
1
  9
$MEASUREMENT
 70
0
  9
$INSUNITS
 70
1
  0
ENDSEC
  0
SECTION
  2
CLASSES
  0
CLASS
  1
ACDBDICTIONARYWDFLT
  2
AcDbDictionaryWithDefault
  3
AutoCAD 2000
 90
0
280
0
281
0
  0
CLASS
  1
ACDBPLACEHOLDER
  2
AcDbPlaceHolder
  3
AutoCAD 2000
 90
0
280
0
281
0
  0
CLASS
  1
LAYOUT
  2
AcDbLayout
  3
AutoCAD 2000
 90
0
280
0
281
0
  0
ENDSEC
  0
SECTION
  2
TABLES
  0
TABLE
  2
VPORT
  5
8
100
AcDbSymbolTable
 70
2
  0
VPORT
  5
1F4
100
AcDbSymbolTableRecord
100
AcDbViewportTableRecord
  2
*ACTIVE
 70
0
 10
0.0
 20
0.0
 11
1.0
 21
1.0
 12
8.5
 22
5.5
 13
0.0
 23
0.0
 14
1.0
 24
1.0
 15
0.0
 25
0.0
 16
0.0
 26
0.0
 36
1.0
 17
0.0
 27
0.0
 37
0.0
 40
11.0
 41
1.5454545455
 42
50.0
 43
0.0
 44
0.0
 50
0.0
 51
0.0
 71
0
 72
100
 73
1
 74
1
 75
0
 76
0
 77
0
 78
0
  0
ENDTAB
  0
TABLE
  2
LTYPE
  5
5
100
AcDbSymbolTable
 70
6
  0
LTYPE
  5
14
100
AcDbSymbolTableRecord
100
AcDbLinetypeTableRecord
  2
BYBLOCK
 70
0
  3

 72
65
 73
0
 40
0.0
  0
LTYPE
  5
15
100
AcDbSymbolTableRecord
100
AcDbLinetypeTableRecord
  2
BYLAYER
 70
0
  3

 72
65
 73
0
 40
0.0
  0
LTYPE
  5
16
100
AcDbSymbolTableRecord
100
AcDbLinetypeTableRecord
  2
CONTINUOUS
 70
64
  3
Solid line
 72
65
 73
0
 40
0.0
  0
LTYPE
  5
1F5
100
AcDbSymbolTableRecord
100
AcDbLinetypeTableRecord
  2
CENTER
 70
64
  3
____ _ ____ _ ____ _ ____ _ ____ _ ____ _ ____
 72
65
 73
4
 40
0.6
 49
0.375
 74
0
 49
-0.075
 74
0
 49
0.075
 74
0
 49
-0.075
 74
0
  0
LTYPE
  5
1F6
100
AcDbSymbolTableRecord
100
AcDbLinetypeTableRecord
  2
HIDDEN
 70
64
  3
- - - - - - - - - - - - - - - - - - - -
 72
65
 73
2
 40
0.2
 49
0.1
 74
0
 49
-0.1
 74
0
  0
LTYPE
  5
1F7
100
AcDbSymbolTableRecord
100
AcDbLinetypeTableRecord
  2
PHANTOM
 70
64
  3
_____ _ _ _____ _ _ _____ _ _ _____
 72
65
 73
6
 40
0.8
 49
0.45
 74
0
 49
-0.05
 74
0
 49
0.1
 74
0
 49
-0.05
 74
0
 49
0.1
 74
0
 49
-0.05
 74
0
  0
LTYPE
  5
1F8
100
AcDbSymbolTableRecord
100
AcDbLinetypeTableRecord
  2
DOT
 70
64
  3
. . . . . . . . . . . . . . . . . . . .
 72
65
 73
2
 40
0.2
 49
0.1
 74
0
 49
-0.1
 74
0
  0
LTYPE
  5
1F9
100
AcDbSymbolTableRecord
100
AcDbLinetypeTableRecord
  2
DASHED
 70
64
  3
- - - - - - - - - - - - - - - - - - - -
 72
65
 73
2
 40
0.2
 49
0.1
 74
0
 49
-0.1
 74
0
  0
ENDTAB
  0
TABLE
  2
LAYER
  5
2
100
AcDbSymbolTable
 70
36
  0
LAYER
  5
10
100
AcDbSymbolTableRecord
100
AcDbLayerTableRecord
  2
0
 70
0
 62
7
  6
CONTINUOUS
370
-3
390
F
  0
LAYER
  5
1FA
100
AcDbSymbolTableRecord
100
AcDbLayerTableRecord
  2
DEFAULT_1
 70
0
 62
7
  6
CENTER
370
-3
390
F
  0
LAYER
  5
1FB
100
AcDbSymbolTableRecord
100
AcDbLayerTableRecord
  2
DEFAULT_2
 70
0
 62
8
  6
HIDDEN
370
-3
390
F
  0
LAYER
  5
1FC
100
AcDbSymbolTableRecord
100
AcDbLayerTableRecord
  2
DEFAULT_3
 70
0
 62
7
  6
PHANTOM
370
-3
390
F
  0
LAYER
  5
1FD
100
AcDbSymbolTableRecord
100
AcDbLayerTableRecord
  2
01_ALL_DTM_PLN
 70
0
 62
7
  6
CONTINUOUS
370
-3
390
F
  0
LAYER
  5
1FE
100
AcDbSymbolTableRecord
100
AcDbLayerTableRecord
  2
01__ASM_ALL_DTM_PLN
 70
0
 62
7
  6
CONTINUOUS
370
-3
390
F
  0
LAYER
  5
1FF
100
AcDbSymbolTableRecord
100
AcDbLayerTableRecord
  2
01__ASM_DEF_DTM_PLN
 70
0
 62
7
  6
CONTINUOUS
370
-3
390
F
  0
LAYER
  5
200
100
AcDbSymbolTableRecord
100
AcDbLayerTableRecord
  2
01___PRT_ALL_DTM_PLN
 70
0
 62
7
  6
CONTINUOUS
370
-3
390
F
  0
LAYER
  5
201
100
AcDbSymbolTableRecord
100
AcDbLayerTableRecord
  2
01___PRT_DEF_DTM_PLN
 70
0
 62
7
  6
CONTINUOUS
370
-3
390
F
  0
LAYER
  5
202
100
AcDbSymbolTableRecord
100
AcDbLayerTableRecord
  2
02_ALL_AXES
 70
0
 62
7
  6
CONTINUOUS
370
-3
390
F
  0
LAYER
  5
203
100
AcDbSymbolTableRecord
100
AcDbLayerTableRecord
  2
02__ASM_ALL_AXES
 70
0
 62
7
  6
CONTINUOUS
370
-3
390
F
  0
LAYER
  5
204
100
AcDbSymbolTableRecord
100
AcDbLayerTableRecord
  2
02___PRT_ALL_AXES
 70
0
 62
7
  6
CONTINUOUS
370
-3
390
F
  0
LAYER
  5
205
100
AcDbSymbolTableRecord
100
AcDbLayerTableRecord
  2
03_ALL_CURVES
 70
0
 62
7
  6
CONTINUOUS
370
-3
390
F
  0
LAYER
  5
206
100
AcDbSymbolTableRecord
100
AcDbLayerTableRecord
  2
03__ASM_ALL_CURVES
 70
0
 62
7
  6
CONTINUOUS
370
-3
390
F
  0
LAYER
  5
207
100
AcDbSymbolTableRecord
100
AcDbLayerTableRecord
  2
03___PRT_ALL_CURVES
 70
0
 62
7
  6
CONTINUOUS
370
-3
390
F
  0
LAYER
  5
208
100
AcDbSymbolTableRecord
100
AcDbLayerTableRecord
  2
04_ALL_DTM_PNT
 70
0
 62
7
  6
CONTINUOUS
370
-3
390
F
  0
LAYER
  5
209
100
AcDbSymbolTableRecord
100
AcDbLayerTableRecord
  2
04__ASM_ALL_DTM_PNT
 70
0
 62
7
  6
CONTINUOUS
370
-3
390
F
  0
LAYER
  5
20A
100
AcDbSymbolTableRecord
100
AcDbLayerTableRecord
  2
04___PRT_ALL_DTM_PNT
 70
0
 62
7
  6
CONTINUOUS
370
-3
390
F
  0
LAYER
  5
20B
100
AcDbSymbolTableRecord
100
AcDbLayerTableRecord
  2
05_ALL_DTM_CSYS
 70
0
 62
7
  6
CONTINUOUS
370
-3
390
F
  0
LAYER
  5
20C
100
AcDbSymbolTableRecord
100
AcDbLayerTableRecord
  2
05__ASM_ALL_DTM_CSYS
 70
0
 62
7
  6
CONTINUOUS
370
-3
390
F
  0
LAYER
  5
20D
100
AcDbSymbolTableRecord
100
AcDbLayerTableRecord
  2
05__ASM_DEF_DTM_CSYS
 70
0
 62
7
  6
CONTINUOUS
370
-3
390
F
  0
LAYER
  5
20E
100
AcDbSymbolTableRecord
100
AcDbLayerTableRecord
  2
05___PRT_ALL_DTM_CSYS
 70
0
 62
7
  6
CONTINUOUS
370
-3
390
F
  0
LAYER
  5
20F
100
AcDbSymbolTableRecord
100
AcDbLayerTableRecord
  2
05___PRT_DEF_DTM_CSYS
 70
0
 62
7
  6
CONTINUOUS
370
-3
390
F
  0
LAYER
  5
210
100
AcDbSymbolTableRecord
100
AcDbLayerTableRecord
  2
06_ALL_SURFS
 70
0
 62
7
  6
CONTINUOUS
370
-3
390
F
  0
LAYER
  5
211
100
AcDbSymbolTableRecord
100
AcDbLayerTableRecord
  2
06__ASM_ALL_SURFS
 70
0
 62
7
  6
CONTINUOUS
370
-3
390
F
  0
LAYER
  5
212
100
AcDbSymbolTableRecord
100
AcDbLayerTableRecord
  2
06___PRT_ALL_SURFS
 70
0
 62
7
  6
CONTINUOUS
370
-3
390
F
  0
LAYER
  5
213
100
AcDbSymbolTableRecord
100
AcDbLayerTableRecord
  2
07__ASM_ALL_SKELETONS
 70
0
 62
7
  6
CONTINUOUS
370
-3
390
F
  0
LAYER
  5
214
100
AcDbSymbolTableRecord
100
AcDbLayerTableRecord
  2
AXIS
 70
0
 62
7
  6
CONTINUOUS
370
-3
390
F
  0
LAYER
  5
215
100
AcDbSymbolTableRecord
100
AcDbLayerTableRecord
  2
AXIS_COSMETIC_THREADS
 70
0
 62
7
  6
CONTINUOUS
370
-3
390
F
  0
LAYER
  5
216
100
AcDbSymbolTableRecord
100
AcDbLayerTableRecord
  2
DATUM_CURVES
 70
0
 62
7
  6
CONTINUOUS
370
-3
390
F
  0
LAYER
  5
217
100
AcDbSymbolTableRecord
100
AcDbLayerTableRecord
  2
DATUM_PLANES
 70
0
 62
7
  6
CONTINUOUS
370
-3
390
F
  0
LAYER
  5
218
100
AcDbSymbolTableRecord
100
AcDbLayerTableRecord
  2
NOTES
 70
0
 62
7
  6
CONTINUOUS
370
-3
390
F
  0
LAYER
  5
219
100
AcDbSymbolTableRecord
100
AcDbLayerTableRecord
  2
SCHEME_DIMS
 70
0
 62
7
  6
CONTINUOUS
370
-3
390
F
  0
LAYER
  5
21A
100
AcDbSymbolTableRecord
100
AcDbLayerTableRecord
  2
SYMBOLS
 70
0
 62
7
  6
CONTINUOUS
370
-3
390
F
  0
ENDTAB
  0
TABLE
  2
STYLE
  5
3
100
AcDbSymbolTable
 70
1
  0
STYLE
  5
11
100
AcDbSymbolTableRecord
100
AcDbTextStyleTableRecord
  2
STANDARD
 70
0
 40
0.0
 41
1.0
 50
0.0
 71
0
 42
0.2
  3
txt
  4

  0
STYLE
  5
21B
100
AcDbSymbolTableRecord
100
AcDbTextStyleTableRecord
  2
TEXTSTYLE_1
 70
0
 40
0.0
 41
0.8
 50
0.0
 71
0
 42
0.2
  3
gdt
  4

  0
STYLE
  5
21C
100
AcDbSymbolTableRecord
100
AcDbTextStyleTableRecord
  2
TEXTSTYLE_2
 70
0
 40
0.0
 41
0.8
 50
0.0
 71
0
 42
0.2
  3
txt
  4

  0
STYLE
  5
21D
100
AcDbSymbolTableRecord
100
AcDbTextStyleTableRecord
  2
TEXTSTYLE_3
 70
0
 40
0.0
 41
0.85
 50
0.0
 71
0
 42
0.2
  3
txt
  4

  0
STYLE
  5
21E
100
AcDbSymbolTableRecord
100
AcDbTextStyleTableRecord
  2
TEXTSTYLE_4
 70
0
 40
0.0
 41
0.92
 50
0.0
 71
0
 42
0.2
  3
txt
  4

  0
STYLE
  5
21F
100
AcDbSymbolTableRecord
100
AcDbTextStyleTableRecord
  2
TEXTSTYLE_5
 70
0
 40
0.0
 41
1.0
 50
0.0
 71
0
 42
0.2
  3
gdt
  4

  0
ENDTAB
  0
TABLE
  2
VIEW
  5
6
100
AcDbSymbolTable
 70
0
  0
ENDTAB
  0
TABLE
  2
UCS
  5
7
100
AcDbSymbolTable
 70
0
  0
ENDTAB
  0
TABLE
  2
APPID
  5
9
100
AcDbSymbolTable
 70
1
  0
APPID
  5
220
100
AcDbSymbolTableRecord
100
AcDbRegAppTableRecord
  2
ACAD
 70
0
  0
ENDTAB
  0
TABLE
  2
BLOCK_RECORD
  5
1
100
AcDbSymbolTable
 70
0
  0
BLOCK_RECORD
  5
221
100
AcDbSymbolTableRecord
100
AcDbBlockTableRecord
  2
*Model_Space
  0
BLOCK_RECORD
  5
222
100
AcDbSymbolTableRecord
100
AcDbBlockTableRecord
  2
*Paper_Space
  0
BLOCK_RECORD
  5
223
100
AcDbSymbolTableRecord
100
AcDbBlockTableRecord
  2
_FILLED
  0
BLOCK_RECORD
  5
224
100
AcDbSymbolTableRecord
100
AcDbBlockTableRecord
  2
*D0
  0
BLOCK_RECORD
  5
225
100
AcDbSymbolTableRecord
100
AcDbBlockTableRecord
  2
*D1
  0
BLOCK_RECORD
  5
226
100
AcDbSymbolTableRecord
100
AcDbBlockTableRecord
  2
*D2
  0
BLOCK_RECORD
  5
227
100
AcDbSymbolTableRecord
100
AcDbBlockTableRecord
  2
*D3
  0
BLOCK_RECORD
  5
228
100
AcDbSymbolTableRecord
100
AcDbBlockTableRecord
  2
BANNER_LOGO_TITLEBLOCK_BL0
  0
ENDTAB
  0
TABLE
  2
DIMSTYLE
  5
A
100
AcDbSymbolTable
 70
1
100
AcDbDimStyleTable
 71
0
  0
DIMSTYLE
105
229
100
AcDbSymbolTableRecord
100
AcDbDimStyleTableRecord
  2
STANDARD
 70
0
  3

  4

 40
1.0
 41
0.1875
 42
0.0625
 43
0.38
 44
0.18
 45
0.0
 46
0.0
 47
0.005
 48
0.005
140
0.1
141
0.09
142
0.0
143
25.4
144
1.0
145
0.0
146
1.0
147
0.09
 71
1.0
 72
0.0
 73
1
 74
1
 75
0
 76
0
 77
0
 78
4
170
0
171
2
172
0
173
0
174
0
175
0
176
0
177
0
178
0
270
2
271
3
272
3
273
2
274
2
275
0
280
0
281
0
282
0
283
1
284
4
285
0
286
0
287
3
288
0
340
11
341
223
342
223
343
223
344
223
  0
DIMSTYLE
105
22A
100
AcDbSymbolTableRecord
100
AcDbDimStyleTableRecord
  2
DIMSTYLE_1
 70
0
  3

  4

 40
1.0
 41
0.1875
 42
0.0625
 43
0.38
 44
0.18
 45
0.0
 46
0.0
 47
0.1
 48
0.1
140
0.1
141
0.09
142
0.0
143
25.4
144
1.0
145
0.0
146
1.0
147
0.09
 71
0.0
 72
0.0
 73
1
 74
1
 75
0
 76
0
 77
0
 78
4
170
0
171
2
172
0
173
0
174
0
175
0
176
0
177
0
178
0
270
2
271
1
272
1
273
2
274
2
275
0
280
0
281
0
282
0
283
1
284
4
285
0
286
0
287
3
288
0
340
11
341
223
342
223
343
223
344
223
  0
DIMSTYLE
105
22B
100
AcDbSymbolTableRecord
100
AcDbDimStyleTableRecord
  2
DIMSTYLE_2
 70
0
  3

  4

 40
1.0
 41
0.1875
 42
0.0625
 43
0.38
 44
0.18
 45
0.0
 46
0.0
 47
0.1
 48
0.1
140
0.1
141
0.09
142
0.0
143
25.4
144
1.0
145
0.0
146
1.0
147
0.09
 71
0.0
 72
0.0
 73
1
 74
1
 75
0
 76
0
 77
0
 78
4
170
0
171
2
172
0
173
0
174
0
175
0
176
0
177
0
178
0
270
2
271
1
272
1
273
2
274
2
275
0
280
0
281
0
282
0
283
1
284
4
285
0
286
0
287
3
288
0
340
11
341
223
342
223
343
223
344
223
  0
ENDTAB
  0
ENDSEC
  0
SECTION
  2
BLOCKS
  0
BLOCK
  5
20
100
AcDbEntity
  8
0
100
AcDbBlockBegin
  2
*Model_Space
 70
0
 10
0.0
 20
0.0
 30
0.0
  3
*Model_Space
  1

  0
ENDBLK
  5
21
100
AcDbEntity
  8
0
100
AcDbBlockEnd
  0
BLOCK
  5
1C
100
AcDbEntity
  8
0
100
AcDbBlockBegin
  2
*Paper_Space
 70
0
 10
0.0
 20
0.0
 30
0.0
  3
*Paper_Space
  1

  0
ENDBLK
  5
1D
100
AcDbEntity
  8
0
100
AcDbBlockEnd
  0
BLOCK
  5
22C
100
AcDbEntity
  8
0
100
AcDbBlockBegin
 62
2
  6
CONTINUOUS
  2
BANNER_LOGO_TITLEBLOCK_BL0
 70
64
 10
12.9086867042
 20
2.5403783405
  3
BANNER_LOGO_TITLEBLOCK_BL0
  1

  0
ELLIPSE
  5
22D
100
AcDbEntity
  8
0
100
AcDbEllipse
 62
2
  6
CONTINUOUS
 10
12.9046654608
 20
2.5403783405
 30
0.0
 11
-0.8250004575
 21
0.0
 31
0.0
 40
0.218572
 41
0.0
 42
6.2831853072
  0
ARC
  5
22E
100
AcDbEntity
  8
0
100
AcDbCircle
 62
2
  6
CONTINUOUS
 10
12.400005721
 20
2.5168763464
 40
0.0153945295
100
AcDbArc
 50
354.0454548824
 51
5.1878013979
  0
ARC
  5
22F
100
AcDbEntity
  8
0
100
AcDbCircle
 62
2
  6
CONTINUOUS
 10
12.3931760319
 20
2.5166878286
 40
0.0222174455
100
AcDbArc
 50
4.0793399388
 51
69.834329283
  0
LINE
  5
230
100
AcDbEntity
  8
0
100
AcDbLine
 62
2
  6
CONTINUOUS
 10
12.4008351814
 20
2.5375433389
 11
12.3907841758
 21
2.5410923409
  0
LINE
  5
231
100
AcDbEntity
  8
0
100
AcDbLine
 62
2
  6
CONTINUOUS
 10
12.3907841758
 20
2.5410923409
 11
12.3990241804
 21
2.5458683435
  0
ARC
  5
232
100
AcDbEntity
  8
0
100
AcDbCircle
 62
2
  6
CONTINUOUS
 10
12.3771587979
 20
2.5826952352
 40
0.0428289026
100
AcDbArc
 50
300.6990502959
 51
319.0591802498
  0
ARC
  5
233
100
AcDbEntity
  8
0
100
AcDbCircle
 62
2
  6
CONTINUOUS
 10
12.3971873948
 20
2.5665668817
 40
0.0171568255
100
AcDbArc
 50
315.9145124245
 51
16.0049121282
  0
ARC
  5
234
100
AcDbEntity
  8
0
100
AcDbCircle
 62
2
  6
CONTINUOUS
 10
12.3922357827
 20
2.5632132173
 40
0.0229166529
100
AcDbArc
 50
20.6563876465
 51
62.3316896973
  0
ARC
  5
235
100
AcDbEntity
  8
0
100
AcDbCircle
 62
2
  6
CONTINUOUS
 10
12.371573659
 20
2.5302846524
 40
0.061747717
100
AcDbArc
 50
59.5385584989
 51
90.0050977555
  0
LINE
  5
236
100
AcDbEntity
  8
0
100
AcDbLine
 62
2
  6
CONTINUOUS
 10
12.3715681652
 20
2.5920323691
 11
12.2055050731
 21
2.5920323691
  0
ARC
  5
237
100
AcDbEntity
  8
0
100
AcDbCircle
 62
2
  6
CONTINUOUS
 10
12.2055050712
 20
2.5895573696
 40
0.0024749995
100
AcDbArc
 50
89.9999571957
 51
180.0000428043
  0
LINE
  5
238
100
AcDbEntity
  8
0
100
AcDbLine
 62
2
  6
CONTINUOUS
 10
12.2030300717
 20
2.5895573678
 11
12.2030300717
 21
2.5697573568
  0
ARC
  5
239
100
AcDbEntity
  8
0
100
AcDbCircle
 62
2
  6
CONTINUOUS
 10
12.2055050712
 20
2.5697573549
 40
0.0024749995
100
AcDbArc
 50
179.9999571957
 51
270.0000428043
  0
LINE
  5
23A
100
AcDbEntity
  8
0
100
AcDbLine
 62
2
  6
CONTINUOUS
 10
12.2055050731
 20
2.5672823554
 11
12.2294470864
 21
2.5672823554
  0
ARC
  5
23B
100
AcDbEntity
  8
0
100
AcDbCircle
 62
2
  6
CONTINUOUS
 10
12.2294470882
 20
2.5648073559
 40
0.0024749995
100
AcDbArc
 50
359.9999571957
 51
90.0000428043
  0
LINE
  5
23C
100
AcDbEntity
  8
0
100
AcDbLine
 62
2
  6
CONTINUOUS
 10
12.2319220877
 20
2.564807354
 11
12.2319220877
 21
2.5184523283
  0
ARC
  5
23D
100
AcDbEntity
  8
0
100
AcDbCircle
 62
2
  6
CONTINUOUS
 10
12.2294470882
 20
2.5184523265
 40
0.0024749995
100
AcDbArc
 50
269.9999571957
 51
0.0000428043
  0
LINE
  5
23E
100
AcDbEntity
  8
0
100
AcDbLine
 62
2
  6
CONTINUOUS
 10
12.2294470864
 20
2.515977327
 11
12.2055050731
 21
2.515977327
  0
ARC
  5
23F
100
AcDbEntity
  8
0
100
AcDbCircle
 62
2
  6
CONTINUOUS
 10
12.2055050712
 20
2.5135023274
 40
0.0024749995
100
AcDbArc
 50
89.9999571957
 51
180.0000428043
  0
LINE
  5
240
100
AcDbEntity
  8
0
100
AcDbLine
 62
2
  6
CONTINUOUS
 10
12.2030300717
 20
2.5135023256
 11
12.2030300717
 21
2.4937023146
  0
ARC
  5
241
100
AcDbEntity
  8
0
100
AcDbCircle
 62
2
  6
CONTINUOUS
 10
12.2055050712
 20
2.4937023128
 40
0.0024749995
100
AcDbArc
 50
179.9999571957
 51
270.0000428043
  0
LINE
  5
242
100
AcDbEntity
  8
0
100
AcDbLine
 62
2
  6
CONTINUOUS
 10
12.2055050731
 20
2.4912273132
 11
12.3819511709
 21
2.4912273132
  0
ARC
  5
243
100
AcDbEntity
  8
0
100
AcDbCircle
 62
2
  6
CONTINUOUS
 10
12.3792298263
 20
2.539634765
 40
0.048483885
100
AcDbArc
 50
273.21763719
 51
303.0749121182
  0
ARC
  5
244
100
AcDbEntity
  8
0
100
AcDbCircle
 62
2
  6
CONTINUOUS
 10
12.3940692204
 20
2.5168671561
 40
0.0213072145
100
AcDbArc
 50
303.0488228549
 51
355.7263138674
  0
LINE
  5
245
100
AcDbEntity
  8
0
100
AcDbLine
 62
2
  6
CONTINUOUS
 10
12.2949101227
 20
2.5499573458
 11
12.3362731456
 21
2.5499573458
  0
ARC
  5
246
100
AcDbEntity
  8
0
100
AcDbCircle
 62
2
  6
CONTINUOUS
 10
12.3362731456
 20
2.5586198506
 40
0.0086625048
100
AcDbArc
 50
270.0
 51
90.0
  0
LINE
  5
247
100
AcDbEntity
  8
0
100
AcDbLine
 62
2
  6
CONTINUOUS
 10
12.3362731456
 20
2.5672823554
 11
12.2949101227
 21
2.5672823554
  0
ARC
  5
248
100
AcDbEntity
  8
0
100
AcDbCircle
 62
2
  6
CONTINUOUS
 10
12.2949101208
 20
2.5648073559
 40
0.0024749995
100
AcDbArc
 50
89.9999571957
 51
180.0000428043
  0
LINE
  5
249
100
AcDbEntity
  8
0
100
AcDbLine
 62
2
  6
CONTINUOUS
 10
12.2924351213
 20
2.564807354
 11
12.2924351213
 21
2.5524323472
  0
ARC
  5
24A
100
AcDbEntity
  8
0
100
AcDbCircle
 62
2
  6
CONTINUOUS
 10
12.2949101208
 20
2.5524323453
 40
0.0024749995
100
AcDbArc
 50
179.9999571957
 51
270.0000428043
  0
LINE
  5
24B
100
AcDbEntity
  8
0
100
AcDbLine
 62
2
  6
CONTINUOUS
 10
12.2924351213
 20
2.5184523283
 11
12.2924351213
 21
2.5308273352
  0
ARC
  5
24C
100
AcDbEntity
  8
0
100
AcDbCircle
 62
2
  6
CONTINUOUS
 10
12.2949101208
 20
2.530827337
 40
0.0024749995
100
AcDbArc
 50
89.9999571957
 51
180.0000428043
  0
LINE
  5
24D
100
AcDbEntity
  8
0
100
AcDbLine
 62
2
  6
CONTINUOUS
 10
12.2949101227
 20
2.5333023366
 11
12.3362731456
 21
2.5333023366
  0
ARC
  5
24E
100
AcDbEntity
  8
0
100
AcDbCircle
 62
2
  6
CONTINUOUS
 10
12.3362731456
 20
2.5246398318
 40
0.0086625048
100
AcDbArc
 50
270.0
 51
90.0
  0
LINE
  5
24F
100
AcDbEntity
  8
0
100
AcDbLine
 62
2
  6
CONTINUOUS
 10
12.3362731456
 20
2.515977327
 11
12.2949101227
 21
2.515977327
  0
ARC
  5
250
100
AcDbEntity
  8
0
100
AcDbCircle
 62
2
  6
CONTINUOUS
 10
12.2949101208
 20
2.5184523265
 40
0.0024749995
100
AcDbArc
 50
179.9999571957
 51
270.0000428043
  0
ARC
  5
251
100
AcDbEntity
  8
0
100
AcDbCircle
 62
2
  6
CONTINUOUS
 10
13.5806801742
 20
2.5212486481
 40
0.044722495
100
AcDbArc
 50
195.531588407
 51
204.7624440448
  0
LINE
  5
252
100
AcDbEntity
  8
0
100
AcDbLine
 62
2
  6
CONTINUOUS
 10
13.5375908118
 20
2.5092733232
 11
13.5357868108
 21
2.5153423266
  0
ARC
  5
253
100
AcDbEntity
  8
0
100
AcDbCircle
 62
2
  6
CONTINUOUS
 10
13.4974076135
 20
2.5055452462
 40
0.0396099176
100
AcDbArc
 50
14.3201081283
 51
22.4984722084
  0
ARC
  5
254
100
AcDbEntity
  8
0
100
AcDbCircle
 62
2
  6
CONTINUOUS
 10
13.5201739219
 20
2.5145168728
 40
0.0151491919
100
AcDbArc
 50
24.098260853
 51
63.0369451818
  0
ARC
  5
255
100
AcDbEntity
  8
0
100
AcDbCircle
 62
2
  6
CONTINUOUS
 10
13.5161192671
 20
2.5062372524
 40
0.0243676582
100
AcDbArc
 50
63.3666028271
 51
90.3937697637
  0
LINE
  5
256
100
AcDbEntity
  8
0
100
AcDbLine
 62
2
  6
CONTINUOUS
 10
13.5159517998
 20
2.5306043351
 11
13.4883447845
 21
2.5306043351
  0
ARC
  5
257
100
AcDbEntity
  8
0
100
AcDbCircle
 62
2
  6
CONTINUOUS
 10
13.4883447827
 20
2.5281293355
 40
0.0024749995
100
AcDbArc
 50
89.9999571957
 51
180.0000428043
  0
LINE
  5
258
100
AcDbEntity
  8
0
100
AcDbLine
 62
2
  6
CONTINUOUS
 10
13.4858697831
 20
2.5281293337
 11
13.4858697831
 21
2.5184303283
  0
ARC
  5
259
100
AcDbEntity
  8
0
100
AcDbCircle
 62
2
  6
CONTINUOUS
 10
13.4883447827
 20
2.5184303265
 40
0.0024749995
100
AcDbArc
 50
179.9999571957
 51
270.0000428043
  0
LINE
  5
25A
100
AcDbEntity
  8
0
100
AcDbLine
 62
2
  6
CONTINUOUS
 10
13.4883447845
 20
2.5159553269
 11
13.5130037982
 21
2.5159553269
  0
ARC
  5
25B
100
AcDbEntity
  8
0
100
AcDbCircle
 62
2
  6
CONTINUOUS
 10
13.5130038
 20
2.5134803274
 40
0.0024749995
100
AcDbArc
 50
359.9999571957
 51
90.0000428043
  0
LINE
  5
25C
100
AcDbEntity
  8
0
100
AcDbLine
 62
2
  6
CONTINUOUS
 10
13.5154787995
 20
2.5134803256
 11
13.5154787995
 21
2.4937023146
  0
ARC
  5
25D
100
AcDbEntity
  8
0
100
AcDbCircle
 62
2
  6
CONTINUOUS
 10
13.5130038
 20
2.4937023128
 40
0.0024749995
100
AcDbArc
 50
269.9999571957
 51
0.0000428043
  0
LINE
  5
25E
100
AcDbEntity
  8
0
100
AcDbLine
 62
2
  6
CONTINUOUS
 10
13.5130037982
 20
2.4912273132
 11
13.3994327352
 21
2.4912273132
  0
ARC
  5
25F
100
AcDbEntity
  8
0
100
AcDbCircle
 62
2
  6
CONTINUOUS
 10
13.3994327333
 20
2.4937023128
 40
0.0024749995
100
AcDbArc
 50
179.9999571957
 51
270.0000428043
  0
LINE
  5
260
100
AcDbEntity
  8
0
100
AcDbLine
 62
2
  6
CONTINUOUS
 10
13.3969577338
 20
2.4937023146
 11
13.3969577338
 21
2.5135023256
  0
ARC
  5
261
100
AcDbEntity
  8
0
100
AcDbCircle
 62
2
  6
CONTINUOUS
 10
13.3994327333
 20
2.5135023274
 40
0.0024749995
100
AcDbArc
 50
89.9999571957
 51
180.0000428043
  0
LINE
  5
262
100
AcDbEntity
  8
0
100
AcDbLine
 62
2
  6
CONTINUOUS
 10
13.3994327352
 20
2.515977327
 11
13.4221787478
 21
2.515977327
  0
ARC
  5
263
100
AcDbEntity
  8
0
100
AcDbCircle
 62
2
  6
CONTINUOUS
 10
13.4221787497
 20
2.5184523265
 40
0.0024749995
100
AcDbArc
 50
269.9999571957
 51
0.0000428042
  0
LINE
  5
264
100
AcDbEntity
  8
0
100
AcDbLine
 62
2
  6
CONTINUOUS
 10
13.4246537492
 20
2.5184523283
 11
13.4246537492
 21
2.564807354
  0
ARC
  5
265
100
AcDbEntity
  8
0
100
AcDbCircle
 62
2
  6
CONTINUOUS
 10
13.4221787497
 20
2.5648073559
 40
0.0024749995
100
AcDbArc
 50
359.9999571957
 51
90.0000428043
  0
LINE
  5
266
100
AcDbEntity
  8
0
100
AcDbLine
 62
2
  6
CONTINUOUS
 10
13.4221787478
 20
2.5672823554
 11
13.3994327352
 21
2.5672823554
  0
ARC
  5
267
100
AcDbEntity
  8
0
100
AcDbCircle
 62
2
  6
CONTINUOUS
 10
13.3994327333
 20
2.5697573549
 40
0.0024749995
100
AcDbArc
 50
179.9999571957
 51
270.0000428043
  0
LINE
  5
268
100
AcDbEntity
  8
0
100
AcDbLine
 62
2
  6
CONTINUOUS
 10
13.3969577338
 20
2.5697573568
 11
13.3969577338
 21
2.5895573678
  0
ARC
  5
269
100
AcDbEntity
  8
0
100
AcDbCircle
 62
2
  6
CONTINUOUS
 10
13.3994327333
 20
2.5895573696
 40
0.0024749995
100
AcDbArc
 50
89.9999571957
 51
180.0000428043
  0
LINE
  5
26A
100
AcDbEntity
  8
0
100
AcDbLine
 62
2
  6
CONTINUOUS
 10
13.3994327352
 20
2.5920323691
 11
13.5490138181
 21
2.5920323691
  0
ARC
  5
26B
100
AcDbEntity
  8
0
100
AcDbCircle
 62
2
  6
CONTINUOUS
 10
13.5463505148
 20
2.4094934586
 40
0.1825583387
100
AcDbArc
 50
79.8618509324
 51
89.1640948679
  0
ARC
  5
26C
100
AcDbEntity
  8
0
100
AcDbCircle
 62
2
  6
CONTINUOUS
 10
13.5726548052
 20
2.5503169747
 40
0.039319019
100
AcDbArc
 50
59.1202086415
 51
81.4730239328
  0
ARC
  5
26D
100
AcDbEntity
  8
0
100
AcDbCircle
 62
2
  6
CONTINUOUS
 10
13.5783142014
 20
2.5566516438
 40
0.0310192946
100
AcDbArc
 50
34.7540871
 51
62.0879016178
  0
ARC
  5
26E
100
AcDbEntity
  8
0
100
AcDbCircle
 62
2
  6
CONTINUOUS
 10
13.5900029525
 20
2.565201245
 40
0.0165459396
100
AcDbArc
 50
1.548452892
 51
33.5033152417
  0
ARC
  5
26F
100
AcDbEntity
  8
0
100
AcDbCircle
 62
2
  6
CONTINUOUS
 10
13.5932995477
 20
2.5653696972
 40
0.0132462337
100
AcDbArc
 50
331.1510006998
 51
1.205404301
  0
ARC
  5
270
100
AcDbEntity
  8
0
100
AcDbCircle
 62
2
  6
CONTINUOUS
 10
13.5822888914
 20
2.5720482849
 40
0.0261183659
100
AcDbArc
 50
305.6373831893
 51
329.9727629745
  0
ARC
  5
271
100
AcDbEntity
  8
0
100
AcDbCircle
 62
2
  6
CONTINUOUS
 10
13.5519569538
 20
2.6152551345
 40
0.0789082104
100
AcDbArc
 50
292.906155071
 51
305.2574666259
  0
ARC
  5
272
100
AcDbEntity
  8
0
100
AcDbCircle
 62
2
  6
CONTINUOUS
 10
13.5282557878
 20
2.4386010294
 40
0.117346916
100
AcDbArc
 50
58.614769177
 51
62.3737227606
  0
ARC
  5
273
100
AcDbEntity
  8
0
100
AcDbCircle
 62
2
  6
CONTINUOUS
 10
13.5761387404
 20
2.5167282896
 40
0.0257145923
100
AcDbArc
 50
39.3804255939
 51
59.0361096173
  0
ARC
  5
274
100
AcDbEntity
  8
0
100
AcDbCircle
 62
2
  6
CONTINUOUS
 10
13.5750183849
 20
2.5166552064
 40
0.0266349791
100
AcDbArc
 50
20.3630922153
 51
37.9727053099
  0
ARC
  5
275
100
AcDbEntity
  8
0
100
AcDbCircle
 62
2
  6
CONTINUOUS
 10
13.5571178432
 20
2.509473798
 40
0.0459185159
100
AcDbArc
 50
15.6740290068
 51
20.9917271228
  0
ARC
  5
276
100
AcDbEntity
  8
0
100
AcDbCircle
 62
2
  6
CONTINUOUS
 10
13.6156881783
 20
2.525116781
 40
0.0147197649
100
AcDbArc
 50
192.7054516565
 51
206.0594861022
  0
ARC
  5
277
100
AcDbEntity
  8
0
100
AcDbCircle
 62
2
  6
CONTINUOUS
 10
13.6071938412
 20
2.5209082945
 40
0.0052403997
100
AcDbArc
 50
205.5232099488
 51
227.5054868079
  0
ARC
  5
278
100
AcDbEntity
  8
0
100
AcDbCircle
 62
2
  6
CONTINUOUS
 10
13.6054655419
 20
2.5190929218
 40
0.0027347709
100
AcDbArc
 50
228.5117626737
 51
266.1485845754
  0
LINE
  5
279
100
AcDbEntity
  8
0
100
AcDbLine
 62
2
  6
CONTINUOUS
 10
13.6052818493
 20
2.5163643272
 11
13.60639085
 21
2.5163643272
  0
ARC
  5
27A
100
AcDbEntity
  8
0
100
AcDbCircle
 62
2
  6
CONTINUOUS
 10
13.6063292954
 20
2.5296129864
 40
0.0132488022
100
AcDbArc
 50
270.266200055
 51
281.2404888597
  0
ARC
  5
27B
100
AcDbEntity
  8
0
100
AcDbCircle
 62
2
  6
CONTINUOUS
 10
13.6075235364
 20
2.5238762928
 40
0.0073895522
100
AcDbArc
 50
280.8288201977
 51
305.0837508495
  0
ARC
  5
27C
100
AcDbEntity
  8
0
100
AcDbCircle
 62
2
  6
CONTINUOUS
 10
13.607924718
 20
2.5230254464
 40
0.0064647042
100
AcDbArc
 50
306.5086174083
 51
340.2162360092
  0
ARC
  5
27D
100
AcDbEntity
  8
0
100
AcDbCircle
 62
2
  6
CONTINUOUS
 10
13.6027235414
 20
2.524769508
 40
0.0119498009
100
AcDbArc
 50
340.7883861657
 51
1.1691452593
  0
LINE
  5
27E
100
AcDbEntity
  8
0
100
AcDbLine
 62
2
  6
CONTINUOUS
 10
13.6146708546
 20
2.525013332
 11
13.6146708546
 21
2.5276393334
  0
ARC
  5
27F
100
AcDbEntity
  8
0
100
AcDbCircle
 62
2
  6
CONTINUOUS
 10
13.6171458541
 20
2.5276393353
 40
0.0024749995
100
AcDbArc
 50
89.9999571957
 51
180.0000428043
  0
LINE
  5
280
100
AcDbEntity
  8
0
100
AcDbLine
 62
2
  6
CONTINUOUS
 10
13.6171458559
 20
2.5301143348
 11
13.6292558626
 21
2.5301143348
  0
ARC
  5
281
100
AcDbEntity
  8
0
100
AcDbCircle
 62
2
  6
CONTINUOUS
 10
13.6292558645
 20
2.5276393353
 40
0.0024749995
100
AcDbArc
 50
359.9999571957
 51
90.0000428043
  0
LINE
  5
282
100
AcDbEntity
  8
0
100
AcDbLine
 62
2
  6
CONTINUOUS
 10
13.631730864
 20
2.5276393334
 11
13.631730864
 21
2.516087327
  0
ARC
  5
283
100
AcDbEntity
  8
0
100
AcDbCircle
 62
2
  6
CONTINUOUS
 10
13.6141751675
 20
2.5161916447
 40
0.0175560065
100
AcDbArc
 50
332.2279060967
 51
359.6595469939
  0
ARC
  5
284
100
AcDbEntity
  8
0
100
AcDbCircle
 62
2
  6
CONTINUOUS
 10
13.6048681567
 20
2.5210861501
 40
0.0280715479
100
AcDbArc
 50
308.5071794988
 51
332.2400656899
  0
ARC
  5
285
100
AcDbEntity
  8
0
100
AcDbCircle
 62
2
  6
CONTINUOUS
 10
13.5978759713
 20
2.5286873679
 40
0.0383802683
100
AcDbArc
 50
288.7656836787
 51
309.6104317088
  0
ARC
  5
286
100
AcDbEntity
  8
0
100
AcDbCircle
 62
2
  6
CONTINUOUS
 10
13.6036139387
 20
2.5111006186
 40
0.0198837666
100
AcDbArc
 50
271.8586572978
 51
289.4131338543
  0
LINE
  5
287
100
AcDbEntity
  8
0
100
AcDbLine
 62
2
  6
CONTINUOUS
 10
13.6042588488
 20
2.4912273132
 11
13.5568948225
 21
2.4912273132
  0
ARC
  5
288
100
AcDbEntity
  8
0
100
AcDbCircle
 62
2
  6
CONTINUOUS
 10
13.5577001432
 20
2.5085494649
 40
0.0173408616
100
AcDbArc
 50
232.4713476722
 51
267.338189944
  0
ARC
  5
289
100
AcDbEntity
  8
0
100
AcDbCircle
 62
2
  6
CONTINUOUS
 10
13.5607987082
 20
2.5143997688
 40
0.0238935861
100
AcDbArc
 50
209.8247607259
 51
235.1255079367
  0
ARC
  5
28A
100
AcDbEntity
  8
0
100
AcDbCircle
 62
2
  6
CONTINUOUS
 10
13.5295131508
 20
2.5629115009
 40
0.0110815393
100
AcDbArc
 50
306.758405961
 51
320.4502234234
  0
ARC
  5
28B
100
AcDbEntity
  8
0
100
AcDbCircle
 62
2
  6
CONTINUOUS
 10
13.5238839599
 20
2.5706523294
 40
0.0206523367
100
AcDbArc
 50
289.6883413472
 51
306.4184925496
  0
ARC
  5
28C
100
AcDbEntity
  8
0
100
AcDbCircle
 62
2
  6
CONTINUOUS
 10
13.5219564542
 20
2.5750459767
 40
0.0254407115
100
AcDbArc
 50
270.7327484175
 51
290.441894219
  0
LINE
  5
28D
100
AcDbEntity
  8
0
100
AcDbLine
 62
2
  6
CONTINUOUS
 10
13.5222818033
 20
2.5496073456
 11
13.4883447845
 21
2.5496073456
  0
ARC
  5
28E
100
AcDbEntity
  8
0
100
AcDbCircle
 62
2
  6
CONTINUOUS
 10
13.4883447827
 20
2.5520823451
 40
0.0024749995
100
AcDbArc
 50
179.9999571957
 51
270.0000428043
  0
LINE
  5
28F
100
AcDbEntity
  8
0
100
AcDbLine
 62
2
  6
CONTINUOUS
 10
13.4858697831
 20
2.552082347
 11
13.4858697831
 21
2.564807354
  0
ARC
  5
290
100
AcDbEntity
  8
0
100
AcDbCircle
 62
2
  6
CONTINUOUS
 10
13.4883447827
 20
2.5648073559
 40
0.0024749995
100
AcDbArc
 50
89.9999571957
 51
180.0000428043
  0
LINE
  5
291
100
AcDbEntity
  8
0
100
AcDbLine
 62
2
  6
CONTINUOUS
 10
13.4883447845
 20
2.5672823554
 11
13.5251458049
 21
2.5672823554
  0
ARC
  5
292
100
AcDbEntity
  8
0
100
AcDbCircle
 62
2
  6
CONTINUOUS
 10
13.5236009174
 20
2.5388278764
 40
0.0284963867
100
AcDbArc
 50
70.3834917948
 51
86.8922743861
  0
ARC
  5
293
100
AcDbEntity
  8
0
100
AcDbCircle
 62
2
  6
CONTINUOUS
 10
13.5284605274
 20
2.5518696094
 40
0.0145814632
100
AcDbArc
 50
54.6746025112
 51
71.1660573124
  0
ARC
  5
294
100
AcDbEntity
  8
0
100
AcDbCircle
 62
2
  6
CONTINUOUS
 10
13.5335900184
 20
2.5587235346
 40
0.0060275915
100
AcDbArc
 50
20.9055592135
 51
56.7851676243
  0
ARC
  5
295
100
AcDbEntity
  8
0
100
AcDbCircle
 62
2
  6
CONTINUOUS
 10
13.5348905773
 20
2.5593838168
 40
0.0045795888
100
AcDbArc
 50
355.6235353944
 51
18.9942678268
  0
ARC
  5
296
100
AcDbEntity
  8
0
100
AcDbCircle
 62
2
  6
CONTINUOUS
 10
13.533683767
 20
2.559677593
 40
0.0058087709
100
AcDbArc
 50
318.8515287446
 51
353.6422345323
  0
LINE
  5
297
100
AcDbEntity
  8
0
100
AcDbLine
 62
2
  6
CONTINUOUS
 10
12.672340332
 20
2.5920323691
 11
12.7727983877
 21
2.5920323691
  0
ARC
  5
298
100
AcDbEntity
  8
0
100
AcDbCircle
 62
2
  6
CONTINUOUS
 10
12.7727985224
 20
2.5895582013
 40
0.0024741678
100
AcDbArc
 50
46.3477981899
 51
90.0031206038
  0
LINE
  5
299
100
AcDbEntity
  8
0
100
AcDbLine
 62
2
  6
CONTINUOUS
 10
12.7745063886
 20
2.5913483688
 11
12.8345394219
 21
2.534068337
  0
ARC
  5
29A
100
AcDbEntity
  8
0
100
AcDbCircle
 62
2
  6
CONTINUOUS
 10
12.8362481229
 20
2.5358592748
 40
0.0024753014
100
AcDbArc
 50
226.3461263059
 51
0.0014637321
  0
LINE
  5
29B
100
AcDbEntity
  8
0
100
AcDbLine
 62
2
  6
CONTINUOUS
 10
12.8387234242
 20
2.535859338
 11
12.8387234242
 21
2.564807354
  0
ARC
  5
29C
100
AcDbEntity
  8
0
100
AcDbCircle
 62
2
  6
CONTINUOUS
 10
12.8362484247
 20
2.5648073559
 40
0.0024749995
100
AcDbArc
 50
359.9999571957
 51
90.0000428043
  0
LINE
  5
29D
100
AcDbEntity
  8
0
100
AcDbLine
 62
2
  6
CONTINUOUS
 10
12.8362484229
 20
2.5672823554
 11
12.8174724125
 21
2.5672823554
  0
ARC
  5
29E
100
AcDbEntity
  8
0
100
AcDbCircle
 62
2
  6
CONTINUOUS
 10
12.8174724106
 20
2.5697573549
 40
0.0024749995
100
AcDbArc
 50
179.9999571957
 51
270.0000428043
  0
LINE
  5
29F
100
AcDbEntity
  8
0
100
AcDbLine
 62
2
  6
CONTINUOUS
 10
12.8149974111
 20
2.5697573568
 11
12.8149974111
 21
2.5895573678
  0
ARC
  5
2A0
100
AcDbEntity
  8
0
100
AcDbCircle
 62
2
  6
CONTINUOUS
 10
12.8174724106
 20
2.5895573696
 40
0.0024749995
100
AcDbArc
 50
89.9999571957
 51
180.0000428043
  0
LINE
  5
2A1
100
AcDbEntity
  8
0
100
AcDbLine
 62
2
  6
CONTINUOUS
 10
12.8174724125
 20
2.5920323691
 11
12.8914734535
 21
2.5920323691
  0
ARC
  5
2A2
100
AcDbEntity
  8
0
100
AcDbCircle
 62
2
  6
CONTINUOUS
 10
12.8914734553
 20
2.5895573696
 40
0.0024749995
100
AcDbArc
 50
359.9999571957
 51
90.0000428043
  0
LINE
  5
2A3
100
AcDbEntity
  8
0
100
AcDbLine
 62
2
  6
CONTINUOUS
 10
12.8939484549
 20
2.5895573678
 11
12.8939484549
 21
2.5697573568
  0
ARC
  5
2A4
100
AcDbEntity
  8
0
100
AcDbCircle
 62
2
  6
CONTINUOUS
 10
12.8914734553
 20
2.5697573549
 40
0.0024749995
100
AcDbArc
 50
269.9999571957
 51
0.0000428043
  0
LINE
  5
2A5
100
AcDbEntity
  8
0
100
AcDbLine
 62
2
  6
CONTINUOUS
 10
12.8914734535
 20
2.5672823554
 11
12.8735404436
 21
2.5672823554
  0
ARC
  5
2A6
100
AcDbEntity
  8
0
100
AcDbCircle
 62
2
  6
CONTINUOUS
 10
12.8735404417
 20
2.5648073559
 40
0.0024749995
100
AcDbArc
 50
89.9999571957
 51
180.0000428043
  0
LINE
  5
2A7
100
AcDbEntity
  8
0
100
AcDbLine
 62
2
  6
CONTINUOUS
 10
12.8710654422
 20
2.564807354
 11
12.8710654422
 21
2.4937023146
  0
ARC
  5
2A8
100
AcDbEntity
  8
0
100
AcDbCircle
 62
2
  6
CONTINUOUS
 10
12.8685904427
 20
2.4937023128
 40
0.0024749995
100
AcDbArc
 50
269.9999571957
 51
0.0000428043
  0
LINE
  5
2A9
100
AcDbEntity
  8
0
100
AcDbLine
 62
2
  6
CONTINUOUS
 10
12.8685904408
 20
2.4912273132
 11
12.7943853997
 21
2.4912273132
  0
ARC
  5
2AA
100
AcDbEntity
  8
0
100
AcDbCircle
 62
2
  6
CONTINUOUS
 10
12.7943847649
 20
2.4937027294
 40
0.0024754162
100
AcDbArc
 50
226.3593695813
 51
270.0146919953
  0
LINE
  5
2AB
100
AcDbEntity
  8
0
100
AcDbLine
 62
2
  6
CONTINUOUS
 10
12.7926763987
 20
2.4919113136
 11
12.7293963636
 21
2.5522893471
  0
ARC
  5
2AC
100
AcDbEntity
  8
0
100
AcDbCircle
 62
2
  6
CONTINUOUS
 10
12.7276876627
 20
2.5504984093
 40
0.0024753014
100
AcDbArc
 50
46.3461263059
 51
180.0014637321
  0
LINE
  5
2AD
100
AcDbEntity
  8
0
100
AcDbLine
 62
2
  6
CONTINUOUS
 10
12.7252123613
 20
2.5504983461
 11
12.7252123613
 21
2.5184523283
  0
ARC
  5
2AE
100
AcDbEntity
  8
0
100
AcDbCircle
 62
2
  6
CONTINUOUS
 10
12.7276873608
 20
2.5184523265
 40
0.0024749995
100
AcDbArc
 50
179.9999571957
 51
270.0000428043
  0
LINE
  5
2AF
100
AcDbEntity
  8
0
100
AcDbLine
 62
2
  6
CONTINUOUS
 10
12.7276873627
 20
2.515977327
 11
12.7480043739
 21
2.515977327
  0
ARC
  5
2B0
100
AcDbEntity
  8
0
100
AcDbCircle
 62
2
  6
CONTINUOUS
 10
12.7480043758
 20
2.5135023274
 40
0.0024749995
100
AcDbArc
 50
359.9999571957
 51
90.0000428043
  0
LINE
  5
2B1
100
AcDbEntity
  8
0
100
AcDbLine
 62
2
  6
CONTINUOUS
 10
12.7504793753
 20
2.5135023256
 11
12.7504793753
 21
2.4937023146
  0
ARC
  5
2B2
100
AcDbEntity
  8
0
100
AcDbCircle
 62
2
  6
CONTINUOUS
 10
12.7480043758
 20
2.4937023128
 40
0.0024749995
100
AcDbArc
 50
269.9999571957
 51
0.0000428043
  0
LINE
  5
2B3
100
AcDbEntity
  8
0
100
AcDbLine
 62
2
  6
CONTINUOUS
 10
12.7480043739
 20
2.4912273132
 11
12.672340332
 21
2.4912273132
  0
ARC
  5
2B4
100
AcDbEntity
  8
0
100
AcDbCircle
 62
2
  6
CONTINUOUS
 10
12.6723403301
 20
2.4937023128
 40
0.0024749995
100
AcDbArc
 50
179.9999571957
 51
270.0000428043
  0
LINE
  5
2B5
100
AcDbEntity
  8
0
100
AcDbLine
 62
2
  6
CONTINUOUS
 10
12.6698653306
 20
2.4937023146
 11
12.6698653306
 21
2.5135023256
  0
ARC
  5
2B6
100
AcDbEntity
  8
0
100
AcDbCircle
 62
2
  6
CONTINUOUS
 10
12.6723403301
 20
2.5135023274
 40
0.0024749995
100
AcDbArc
 50
89.9999571957
 51
180.0000428043
  0
LINE
  5
2B7
100
AcDbEntity
  8
0
100
AcDbLine
 62
2
  6
CONTINUOUS
 10
12.672340332
 20
2.515977327
 11
12.6909873423
 21
2.515977327
  0
ARC
  5
2B8
100
AcDbEntity
  8
0
100
AcDbCircle
 62
2
  6
CONTINUOUS
 10
12.6909873442
 20
2.5184523265
 40
0.0024749995
100
AcDbArc
 50
269.9999571957
 51
0.0000428043
  0
LINE
  5
2B9
100
AcDbEntity
  8
0
100
AcDbLine
 62
2
  6
CONTINUOUS
 10
12.6934623437
 20
2.5184523283
 11
12.6934623437
 21
2.564807354
  0
ARC
  5
2BA
100
AcDbEntity
  8
0
100
AcDbCircle
 62
2
  6
CONTINUOUS
 10
12.6909873442
 20
2.5648073559
 40
0.0024749995
100
AcDbArc
 50
359.9999571957
 51
90.0000428043
  0
LINE
  5
2BB
100
AcDbEntity
  8
0
100
AcDbLine
 62
2
  6
CONTINUOUS
 10
12.6909873423
 20
2.5672823554
 11
12.672340332
 21
2.5672823554
  0
ARC
  5
2BC
100
AcDbEntity
  8
0
100
AcDbCircle
 62
2
  6
CONTINUOUS
 10
12.6723403301
 20
2.5697573549
 40
0.0024749995
100
AcDbArc
 50
179.9999571957
 51
270.0000428043
  0
LINE
  5
2BD
100
AcDbEntity
  8
0
100
AcDbLine
 62
2
  6
CONTINUOUS
 10
12.6698653306
 20
2.5697573568
 11
12.6698653306
 21
2.5895573678
  0
ARC
  5
2BE
100
AcDbEntity
  8
0
100
AcDbCircle
 62
2
  6
CONTINUOUS
 10
12.6723403301
 20
2.5895573696
 40
0.0024749995
100
AcDbArc
 50
89.9999571957
 51
180.0000428043
  0
LINE
  5
2BF
100
AcDbEntity
  8
0
100
AcDbLine
 62
2
  6
CONTINUOUS
 10
12.5246402501
 20
2.5655893545
 11
12.5175232461
 21
2.5543723483
  0
ARC
  5
2C0
100
AcDbEntity
  8
0
100
AcDbCircle
 62
2
  6
CONTINUOUS
 10
12.519613138
 20
2.5530463862
 40
0.0024750401
100
AcDbArc
 50
147.6063258012
 51
270.0025305754
  0
LINE
  5
2C1
100
AcDbEntity
  8
0
100
AcDbLine
 62
2
  6
CONTINUOUS
 10
12.5196132473
 20
2.5505713461
 11
12.5401702587
 21
2.5505713461
  0
ARC
  5
2C2
100
AcDbEntity
  8
0
100
AcDbCircle
 62
2
  6
CONTINUOUS
 10
12.5401702375
 20
2.5530465533
 40
0.0024752071
100
AcDbArc
 50
270.0004896793
 51
32.9089806818
  0
LINE
  5
2C3
100
AcDbEntity
  8
0
100
AcDbLine
 62
2
  6
CONTINUOUS
 10
12.5422482598
 20
2.5543913483
 11
12.5349892558
 21
2.5656073545
  0
ARC
  5
2C4
100
AcDbEntity
  8
0
100
AcDbCircle
 62
2
  6
CONTINUOUS
 10
12.532910715
 20
2.564262895
 40
0.0024754602
100
AcDbArc
 50
32.8959418573
 51
89.9875097202
  0
LINE
  5
2C5
100
AcDbEntity
  8
0
100
AcDbLine
 62
2
  6
CONTINUOUS
 10
12.5329112547
 20
2.5667383551
 11
12.5267302512
 21
2.5667383551
  0
ARC
  5
2C6
100
AcDbEntity
  8
0
100
AcDbCircle
 62
2
  6
CONTINUOUS
 10
12.5267301809
 20
2.5642631548
 40
0.0024752003
100
AcDbArc
 50
89.998372645
 51
147.602165307
  0
LINE
  5
2C7
100
AcDbEntity
  8
0
100
AcDbLine
 62
2
  6
CONTINUOUS
 10
12.548053263
 20
2.5284903339
 11
12.5536792662
 21
2.5197973291
  0
ARC
  5
2C8
100
AcDbEntity
  8
0
100
AcDbCircle
 62
2
  6
CONTINUOUS
 10
12.5516012439
 20
2.5184525341
 40
0.0024752071
100
AcDbArc
 50
270.0004896794
 51
32.9089806818
  0
LINE
  5
2C9
100
AcDbEntity
  8
0
100
AcDbLine
 62
2
  6
CONTINUOUS
 10
12.551601265
 20
2.515977327
 11
12.537150257
 21
2.515977327
  0
ARC
  5
2CA
100
AcDbEntity
  8
0
100
AcDbCircle
 62
2
  6
CONTINUOUS
 10
12.5371502552
 20
2.5135023274
 40
0.0024749995
100
AcDbArc
 50
89.9999571957
 51
180.0000428043
  0
LINE
  5
2CB
100
AcDbEntity
  8
0
100
AcDbLine
 62
2
  6
CONTINUOUS
 10
12.5346752556
 20
2.5135023256
 11
12.5346752556
 21
2.4937023146
  0
ARC
  5
2CC
100
AcDbEntity
  8
0
100
AcDbCircle
 62
2
  6
CONTINUOUS
 10
12.5371502552
 20
2.4937023128
 40
0.0024749995
100
AcDbArc
 50
179.9999571957
 51
270.0000428043
  0
LINE
  5
2CD
100
AcDbEntity
  8
0
100
AcDbLine
 62
2
  6
CONTINUOUS
 10
12.537150257
 20
2.4912273132
 11
12.6424313154
 21
2.4912273132
  0
ARC
  5
2CE
100
AcDbEntity
  8
0
100
AcDbCircle
 62
2
  6
CONTINUOUS
 10
12.6424313172
 20
2.4937023128
 40
0.0024749995
100
AcDbArc
 50
269.9999571957
 51
0.0000428043
  0
LINE
  5
2CF
100
AcDbEntity
  8
0
100
AcDbLine
 62
2
  6
CONTINUOUS
 10
12.6449063168
 20
2.4937023146
 11
12.6449063168
 21
2.5135023256
  0
ARC
  5
2D0
100
AcDbEntity
  8
0
100
AcDbCircle
 62
2
  6
CONTINUOUS
 10
12.6424313172
 20
2.5135023274
 40
0.0024749995
100
AcDbArc
 50
359.9999571957
 51
90.0000428043
  0
LINE
  5
2D1
100
AcDbEntity
  8
0
100
AcDbLine
 62
2
  6
CONTINUOUS
 10
12.6424313154
 20
2.515977327
 11
12.6224153043
 21
2.515977327
  0
ARC
  5
2D2
100
AcDbEntity
  8
0
100
AcDbCircle
 62
2
  6
CONTINUOUS
 10
12.6224154248
 20
2.518451368
 40
0.002474041
100
AcDbArc
 50
212.9056413127
 51
269.9972091756
  0
LINE
  5
2D3
100
AcDbEntity
  8
0
100
AcDbLine
 62
2
  6
CONTINUOUS
 10
12.6203383031
 20
2.5171073276
 11
12.5725822767
 21
2.5909023685
  0
ARC
  5
2D4
100
AcDbEntity
  8
0
100
AcDbCircle
 62
2
  6
CONTINUOUS
 10
12.570504655
 20
2.589557409
 40
0.0024749602
100
AcDbArc
 50
32.9172174468
 51
90.0087853097
  0
LINE
  5
2D5
100
AcDbEntity
  8
0
100
AcDbLine
 62
2
  6
CONTINUOUS
 10
12.5705042755
 20
2.5920323691
 11
12.5133292438
 21
2.5920323691
  0
ARC
  5
2D6
100
AcDbEntity
  8
0
100
AcDbCircle
 62
2
  6
CONTINUOUS
 10
12.5133291735
 20
2.5895571688
 40
0.0024752003
100
AcDbArc
 50
89.9983726451
 51
147.602165307
  0
LINE
  5
2D7
100
AcDbEntity
  8
0
100
AcDbLine
 62
2
  6
CONTINUOUS
 10
12.5112392426
 20
2.5908833685
 11
12.4644392167
 21
2.5171263276
  0
ARC
  5
2D8
100
AcDbEntity
  8
0
100
AcDbCircle
 62
2
  6
CONTINUOUS
 10
12.4623492858
 20
2.5184525273
 40
0.0024752003
100
AcDbArc
 50
269.9983726451
 51
327.602165307
  0
LINE
  5
2D9
100
AcDbEntity
  8
0
100
AcDbLine
 62
2
  6
CONTINUOUS
 10
12.4623492155
 20
2.515977327
 11
12.4394882028
 21
2.515977327
  0
ARC
  5
2DA
100
AcDbEntity
  8
0
100
AcDbCircle
 62
2
  6
CONTINUOUS
 10
12.439488201
 20
2.5135023274
 40
0.0024749995
100
AcDbArc
 50
89.9999571957
 51
180.0000428043
  0
LINE
  5
2DB
100
AcDbEntity
  8
0
100
AcDbLine
 62
2
  6
CONTINUOUS
 10
12.4370132015
 20
2.5135023256
 11
12.4370132015
 21
2.4937023146
  0
ARC
  5
2DC
100
AcDbEntity
  8
0
100
AcDbCircle
 62
2
  6
CONTINUOUS
 10
12.439488201
 20
2.4937023128
 40
0.0024749995
100
AcDbArc
 50
179.9999571957
 51
270.0000428043
  0
LINE
  5
2DD
100
AcDbEntity
  8
0
100
AcDbLine
 62
2
  6
CONTINUOUS
 10
12.4394882028
 20
2.4912273132
 11
12.5168642458
 21
2.4912273132
  0
ARC
  5
2DE
100
AcDbEntity
  8
0
100
AcDbCircle
 62
2
  6
CONTINUOUS
 10
12.5168642476
 20
2.4937023128
 40
0.0024749995
100
AcDbArc
 50
269.9999571957
 51
0.0000428043
  0
LINE
  5
2DF
100
AcDbEntity
  8
0
100
AcDbLine
 62
2
  6
CONTINUOUS
 10
12.5193392471
 20
2.4937023146
 11
12.5193392471
 21
2.5135023256
  0
ARC
  5
2E0
100
AcDbEntity
  8
0
100
AcDbCircle
 62
2
  6
CONTINUOUS
 10
12.5168642476
 20
2.5135023274
 40
0.0024749995
100
AcDbArc
 50
359.9999571957
 51
90.0000428043
  0
LINE
  5
2E1
100
AcDbEntity
  8
0
100
AcDbLine
 62
2
  6
CONTINUOUS
 10
12.5168642458
 20
2.515977327
 11
12.5055812395
 21
2.515977327
  0
ARC
  5
2E2
100
AcDbEntity
  8
0
100
AcDbCircle
 62
2
  6
CONTINUOUS
 10
12.5055811302
 20
2.518452367
 40
0.0024750401
100
AcDbArc
 50
147.6063258011
 51
270.0025305754
  0
LINE
  5
2E3
100
AcDbEntity
  8
0
100
AcDbLine
 62
2
  6
CONTINUOUS
 10
12.5034912383
 20
2.5197783291
 11
12.5090072414
 21
2.5284723339
  0
ARC
  5
2E4
100
AcDbEntity
  8
0
100
AcDbCircle
 62
2
  6
CONTINUOUS
 10
12.5110971723
 20
2.5271461342
 40
0.0024752003
100
AcDbArc
 50
89.998372645
 51
147.602165307
  0
LINE
  5
2E5
100
AcDbEntity
  8
0
100
AcDbLine
 62
2
  6
CONTINUOUS
 10
12.5110972426
 20
2.5296213345
 11
12.5459752619
 21
2.5296213345
  0
ARC
  5
2E6
100
AcDbEntity
  8
0
100
AcDbCircle
 62
2
  6
CONTINUOUS
 10
12.5459747223
 20
2.5271458744
 40
0.0024754602
100
AcDbArc
 50
32.8959418573
 51
89.9875097202
  0
LINE
  5
2E7
100
AcDbEntity
  8
0
100
AcDbLine
 62
2
  6
CONTINUOUS
 10
12.9205934696
 20
2.5920323691
 11
13.0210515254
 21
2.5920323691
  0
ARC
  5
2E8
100
AcDbEntity
  8
0
100
AcDbCircle
 62
2
  6
CONTINUOUS
 10
13.0210516601
 20
2.5895582013
 40
0.0024741678
100
AcDbArc
 50
46.3477981899
 51
90.0031206038
  0
LINE
  5
2E9
100
AcDbEntity
  8
0
100
AcDbLine
 62
2
  6
CONTINUOUS
 10
13.0227595263
 20
2.5913483688
 11
13.0827925596
 21
2.534068337
  0
ARC
  5
2EA
100
AcDbEntity
  8
0
100
AcDbCircle
 62
2
  6
CONTINUOUS
 10
13.0845012605
 20
2.5358592748
 40
0.0024753014
100
AcDbArc
 50
226.3461263059
 51
0.0014637321
  0
LINE
  5
2EB
100
AcDbEntity
  8
0
100
AcDbLine
 62
2
  6
CONTINUOUS
 10
13.0869765619
 20
2.535859338
 11
13.0869765619
 21
2.564807354
  0
ARC
  5
2EC
100
AcDbEntity
  8
0
100
AcDbCircle
 62
2
  6
CONTINUOUS
 10
13.0845015624
 20
2.5648073559
 40
0.0024749995
100
AcDbArc
 50
359.9999571957
 51
90.0000428043
  0
LINE
  5
2ED
100
AcDbEntity
  8
0
100
AcDbLine
 62
2
  6
CONTINUOUS
 10
13.0845015605
 20
2.5672823554
 11
13.0657255501
 21
2.5672823554
  0
ARC
  5
2EE
100
AcDbEntity
  8
0
100
AcDbCircle
 62
2
  6
CONTINUOUS
 10
13.0657255483
 20
2.5697573549
 40
0.0024749995
100
AcDbArc
 50
179.9999571957
 51
270.0000428043
  0
LINE
  5
2EF
100
AcDbEntity
  8
0
100
AcDbLine
 62
2
  6
CONTINUOUS
 10
13.0632505488
 20
2.5697573568
 11
13.0632505488
 21
2.5895573678
  0
ARC
  5
2F0
100
AcDbEntity
  8
0
100
AcDbCircle
 62
2
  6
CONTINUOUS
 10
13.0657255483
 20
2.5895573696
 40
0.0024749995
100
AcDbArc
 50
89.9999571957
 51
180.0000428043
  0
LINE
  5
2F1
100
AcDbEntity
  8
0
100
AcDbLine
 62
2
  6
CONTINUOUS
 10
13.0657255501
 20
2.5920323691
 11
13.1397265912
 21
2.5920323691
  0
ARC
  5
2F2
100
AcDbEntity
  8
0
100
AcDbCircle
 62
2
  6
CONTINUOUS
 10
13.139726593
 20
2.5895573696
 40
0.0024749995
100
AcDbArc
 50
359.9999571957
 51
90.0000428043
  0
LINE
  5
2F3
100
AcDbEntity
  8
0
100
AcDbLine
 62
2
  6
CONTINUOUS
 10
13.1422015925
 20
2.5895573678
 11
13.1422015925
 21
2.5697573568
  0
ARC
  5
2F4
100
AcDbEntity
  8
0
100
AcDbCircle
 62
2
  6
CONTINUOUS
 10
13.139726593
 20
2.5697573549
 40
0.0024749995
100
AcDbArc
 50
269.9999571957
 51
0.0000428042
  0
LINE
  5
2F5
100
AcDbEntity
  8
0
100
AcDbLine
 62
2
  6
CONTINUOUS
 10
13.1397265912
 20
2.5672823554
 11
13.1217935812
 21
2.5672823554
  0
ARC
  5
2F6
100
AcDbEntity
  8
0
100
AcDbCircle
 62
2
  6
CONTINUOUS
 10
13.1217935794
 20
2.5648073559
 40
0.0024749995
100
AcDbArc
 50
89.9999571957
 51
180.0000428042
  0
LINE
  5
2F7
100
AcDbEntity
  8
0
100
AcDbLine
 62
2
  6
CONTINUOUS
 10
13.1193185799
 20
2.564807354
 11
13.1193185799
 21
2.4937023146
  0
ARC
  5
2F8
100
AcDbEntity
  8
0
100
AcDbCircle
 62
2
  6
CONTINUOUS
 10
13.1168435803
 20
2.4937023128
 40
0.0024749995
100
AcDbArc
 50
269.9999571957
 51
0.0000428043
  0
LINE
  5
2F9
100
AcDbEntity
  8
0
100
AcDbLine
 62
2
  6
CONTINUOUS
 10
13.1168435785
 20
2.4912273132
 11
13.0426375373
 21
2.4912273132
  0
ARC
  5
2FA
100
AcDbEntity
  8
0
100
AcDbCircle
 62
2
  6
CONTINUOUS
 10
13.0426374026
 20
2.493701481
 40
0.0024741678
100
AcDbArc
 50
226.3477981898
 51
270.0031206038
  0
LINE
  5
2FB
100
AcDbEntity
  8
0
100
AcDbLine
 62
2
  6
CONTINUOUS
 10
13.0409295364
 20
2.4919113136
 11
12.9776495013
 21
2.5522893471
  0
ARC
  5
2FC
100
AcDbEntity
  8
0
100
AcDbCircle
 62
2
  6
CONTINUOUS
 10
12.9759408003
 20
2.5504984093
 40
0.0024753014
100
AcDbArc
 50
46.3461263059
 51
180.0014637321
  0
LINE
  5
2FD
100
AcDbEntity
  8
0
100
AcDbLine
 62
2
  6
CONTINUOUS
 10
12.973465499
 20
2.5504983461
 11
12.973465499
 21
2.5184523283
  0
ARC
  5
2FE
100
AcDbEntity
  8
0
100
AcDbCircle
 62
2
  6
CONTINUOUS
 10
12.9759404985
 20
2.5184523265
 40
0.0024749995
100
AcDbArc
 50
179.9999571957
 51
270.0000428043
  0
LINE
  5
2FF
100
AcDbEntity
  8
0
100
AcDbLine
 62
2
  6
CONTINUOUS
 10
12.9759405003
 20
2.515977327
 11
12.9962575116
 21
2.515977327
  0
ARC
  5
300
100
AcDbEntity
  8
0
100
AcDbCircle
 62
2
  6
CONTINUOUS
 10
12.9962575135
 20
2.5135023274
 40
0.0024749995
100
AcDbArc
 50
359.9999571957
 51
90.0000428043
  0
LINE
  5
301
100
AcDbEntity
  8
0
100
AcDbLine
 62
2
  6
CONTINUOUS
 10
12.998732513
 20
2.5135023256
 11
12.998732513
 21
2.4937023146
  0
ARC
  5
302
100
AcDbEntity
  8
0
100
AcDbCircle
 62
2
  6
CONTINUOUS
 10
12.9962575135
 20
2.4937023128
 40
0.0024749995
100
AcDbArc
 50
269.9999571957
 51
0.0000428043
  0
LINE
  5
303
100
AcDbEntity
  8
0
100
AcDbLine
 62
2
  6
CONTINUOUS
 10
12.9962575116
 20
2.4912273132
 11
12.9205934696
 21
2.4912273132
  0
ARC
  5
304
100
AcDbEntity
  8
0
100
AcDbCircle
 62
2
  6
CONTINUOUS
 10
12.9205934678
 20
2.4937023128
 40
0.0024749995
100
AcDbArc
 50
179.9999571957
 51
270.0000428043
  0
LINE
  5
305
100
AcDbEntity
  8
0
100
AcDbLine
 62
2
  6
CONTINUOUS
 10
12.9181184683
 20
2.4937023146
 11
12.9181184683
 21
2.5135023256
  0
ARC
  5
306
100
AcDbEntity
  8
0
100
AcDbCircle
 62
2
  6
CONTINUOUS
 10
12.9205934678
 20
2.5135023274
 40
0.0024749995
100
AcDbArc
 50
89.9999571957
 51
180.0000428042
  0
LINE
  5
307
100
AcDbEntity
  8
0
100
AcDbLine
 62
2
  6
CONTINUOUS
 10
12.9205934696
 20
2.515977327
 11
12.93923948
 21
2.515977327
  0
ARC
  5
308
100
AcDbEntity
  8
0
100
AcDbCircle
 62
2
  6
CONTINUOUS
 10
12.9392394818
 20
2.5184523265
 40
0.0024749995
100
AcDbArc
 50
269.9999571957
 51
0.0000428043
  0
LINE
  5
309
100
AcDbEntity
  8
0
100
AcDbLine
 62
2
  6
CONTINUOUS
 10
12.9417144814
 20
2.5184523283
 11
12.9417144814
 21
2.564807354
  0
ARC
  5
30A
100
AcDbEntity
  8
0
100
AcDbCircle
 62
2
  6
CONTINUOUS
 10
12.9392394818
 20
2.5648073559
 40
0.0024749995
100
AcDbArc
 50
359.9999571957
 51
90.0000428043
  0
LINE
  5
30B
100
AcDbEntity
  8
0
100
AcDbLine
 62
2
  6
CONTINUOUS
 10
12.93923948
 20
2.5672823554
 11
12.9205934696
 21
2.5672823554
  0
ARC
  5
30C
100
AcDbEntity
  8
0
100
AcDbCircle
 62
2
  6
CONTINUOUS
 10
12.9205934678
 20
2.5697573549
 40
0.0024749995
100
AcDbArc
 50
179.9999571957
 51
270.0000428043
  0
LINE
  5
30D
100
AcDbEntity
  8
0
100
AcDbLine
 62
2
  6
CONTINUOUS
 10
12.9181184683
 20
2.5697573568
 11
12.9181184683
 21
2.5895573678
  0
ARC
  5
30E
100
AcDbEntity
  8
0
100
AcDbCircle
 62
2
  6
CONTINUOUS
 10
12.9205934678
 20
2.5895573696
 40
0.0024749995
100
AcDbArc
 50
89.9999571957
 51
180.0000428042
  0
LINE
  5
30F
100
AcDbEntity
  8
0
100
AcDbLine
 62
2
  6
CONTINUOUS
 10
13.2934226764
 20
2.5324773361
 11
13.2582556569
 21
2.5324773361
  0
ARC
  5
310
100
AcDbEntity
  8
0
100
AcDbCircle
 62
2
  6
CONTINUOUS
 10
13.2582556551
 20
2.5300023366
 40
0.0024749995
100
AcDbArc
 50
89.9999571957
 51
180.0000428043
  0
LINE
  5
311
100
AcDbEntity
  8
0
100
AcDbLine
 62
2
  6
CONTINUOUS
 10
13.2557806555
 20
2.5300023347
 11
13.2557806555
 21
2.5184523283
  0
ARC
  5
312
100
AcDbEntity
  8
0
100
AcDbCircle
 62
2
  6
CONTINUOUS
 10
13.2582556551
 20
2.5184523265
 40
0.0024749995
100
AcDbArc
 50
179.9999571957
 51
270.0000428043
  0
LINE
  5
313
100
AcDbEntity
  8
0
100
AcDbLine
 62
2
  6
CONTINUOUS
 10
13.2582556569
 20
2.515977327
 11
13.3232596929
 21
2.515977327
  0
ARC
  5
314
100
AcDbEntity
  8
0
100
AcDbCircle
 62
2
  6
CONTINUOUS
 10
13.3232596948
 20
2.5184523265
 40
0.0024749995
100
AcDbArc
 50
269.9999571957
 51
0.0000428043
  0
LINE
  5
315
100
AcDbEntity
  8
0
100
AcDbLine
 62
2
  6
CONTINUOUS
 10
13.3257346943
 20
2.5184523283
 11
13.3257346943
 21
2.5267023329
  0
ARC
  5
316
100
AcDbEntity
  8
0
100
AcDbCircle
 62
2
  6
CONTINUOUS
 10
13.3282096938
 20
2.5267023348
 40
0.0024749995
100
AcDbArc
 50
89.9999571957
 51
180.0000428043
  0
LINE
  5
317
100
AcDbEntity
  8
0
100
AcDbLine
 62
2
  6
CONTINUOUS
 10
13.3282096957
 20
2.5291773343
 11
13.3705287192
 21
2.5291773343
  0
ARC
  5
318
100
AcDbEntity
  8
0
100
AcDbCircle
 62
2
  6
CONTINUOUS
 10
13.370528721
 20
2.5267023348
 40
0.0024749995
100
AcDbArc
 50
359.9999571957
 51
90.0000428043
  0
LINE
  5
319
100
AcDbEntity
  8
0
100
AcDbLine
 62
2
  6
CONTINUOUS
 10
13.3730037205
 20
2.5267023329
 11
13.3730037205
 21
2.4937023146
  0
ARC
  5
31A
100
AcDbEntity
  8
0
100
AcDbCircle
 62
2
  6
CONTINUOUS
 10
13.370528721
 20
2.4937023128
 40
0.0024749995
100
AcDbArc
 50
269.9999571957
 51
0.0000428043
  0
LINE
  5
31B
100
AcDbEntity
  8
0
100
AcDbLine
 62
2
  6
CONTINUOUS
 10
13.3705287192
 20
2.4912273132
 11
13.1673166065
 21
2.4912273132
  0
ARC
  5
31C
100
AcDbEntity
  8
0
100
AcDbCircle
 62
2
  6
CONTINUOUS
 10
13.1673166046
 20
2.4937023128
 40
0.0024749995
100
AcDbArc
 50
179.9999571957
 51
270.0000428043
  0
LINE
  5
31D
100
AcDbEntity
  8
0
100
AcDbLine
 62
2
  6
CONTINUOUS
 10
13.1648416051
 20
2.4937023146
 11
13.1648416051
 21
2.5135023256
  0
ARC
  5
31E
100
AcDbEntity
  8
0
100
AcDbCircle
 62
2
  6
CONTINUOUS
 10
13.1673166046
 20
2.5135023274
 40
0.0024749995
100
AcDbArc
 50
89.9999571957
 51
180.0000428043
  0
LINE
  5
31F
100
AcDbEntity
  8
0
100
AcDbLine
 62
2
  6
CONTINUOUS
 10
13.1673166065
 20
2.515977327
 11
13.1912396197
 21
2.515977327
  0
ARC
  5
320
100
AcDbEntity
  8
0
100
AcDbCircle
 62
2
  6
CONTINUOUS
 10
13.1912396216
 20
2.5184523265
 40
0.0024749995
100
AcDbArc
 50
269.9999571957
 51
0.0000428042
  0
LINE
  5
321
100
AcDbEntity
  8
0
100
AcDbLine
 62
2
  6
CONTINUOUS
 10
13.1937146211
 20
2.5184523283
 11
13.1937146211
 21
2.564807354
  0
ARC
  5
322
100
AcDbEntity
  8
0
100
AcDbCircle
 62
2
  6
CONTINUOUS
 10
13.1912396216
 20
2.5648073559
 40
0.0024749995
100
AcDbArc
 50
359.9999571957
 51
90.0000428043
  0
LINE
  5
323
100
AcDbEntity
  8
0
100
AcDbLine
 62
2
  6
CONTINUOUS
 10
13.1912396197
 20
2.5672823554
 11
13.1673166065
 21
2.5672823554
  0
ARC
  5
324
100
AcDbEntity
  8
0
100
AcDbCircle
 62
2
  6
CONTINUOUS
 10
13.1673166046
 20
2.5697573549
 40
0.0024749995
100
AcDbArc
 50
179.9999571957
 51
270.0000428043
  0
LINE
  5
325
100
AcDbEntity
  8
0
100
AcDbLine
 62
2
  6
CONTINUOUS
 10
13.1648416051
 20
2.5697573568
 11
13.1648416051
 21
2.5895573678
  0
ARC
  5
326
100
AcDbEntity
  8
0
100
AcDbCircle
 62
2
  6
CONTINUOUS
 10
13.1673166046
 20
2.5895573696
 40
0.0024749995
100
AcDbArc
 50
89.9999571957
 51
180.0000428043
  0
LINE
  5
327
100
AcDbEntity
  8
0
100
AcDbLine
 62
2
  6
CONTINUOUS
 10
13.1673166065
 20
2.5920323691
 11
13.3691097184
 21
2.5920323691
  0
ARC
  5
328
100
AcDbEntity
  8
0
100
AcDbCircle
 62
2
  6
CONTINUOUS
 10
13.3691097202
 20
2.5895573696
 40
0.0024749995
100
AcDbArc
 50
359.9999571957
 51
90.0000428043
  0
LINE
  5
329
100
AcDbEntity
  8
0
100
AcDbLine
 62
2
  6
CONTINUOUS
 10
13.3715847197
 20
2.5895573678
 11
13.3715847197
 21
2.5565573495
  0
ARC
  5
32A
100
AcDbEntity
  8
0
100
AcDbCircle
 62
2
  6
CONTINUOUS
 10
13.3691097202
 20
2.5565573476
 40
0.0024749995
100
AcDbArc
 50
269.9999571957
 51
0.0000428042
  0
LINE
  5
32B
100
AcDbEntity
  8
0
100
AcDbLine
 62
2
  6
CONTINUOUS
 10
13.3691097184
 20
2.5540823481
 11
13.3272456952
 21
2.5540823481
  0
ARC
  5
32C
100
AcDbEntity
  8
0
100
AcDbCircle
 62
2
  6
CONTINUOUS
 10
13.3272456933
 20
2.5565573476
 40
0.0024749995
100
AcDbArc
 50
179.9999571957
 51
270.0000428043
  0
LINE
  5
32D
100
AcDbEntity
  8
0
100
AcDbLine
 62
2
  6
CONTINUOUS
 10
13.3247706938
 20
2.5565573495
 11
13.3247706938
 21
2.564807354
  0
ARC
  5
32E
100
AcDbEntity
  8
0
100
AcDbCircle
 62
2
  6
CONTINUOUS
 10
13.3222956943
 20
2.5648073559
 40
0.0024749995
100
AcDbArc
 50
359.9999571957
 51
90.0000428043
  0
LINE
  5
32F
100
AcDbEntity
  8
0
100
AcDbLine
 62
2
  6
CONTINUOUS
 10
13.3222956924
 20
2.5672823554
 11
13.2582556569
 21
2.5672823554
  0
ARC
  5
330
100
AcDbEntity
  8
0
100
AcDbCircle
 62
2
  6
CONTINUOUS
 10
13.2582556551
 20
2.5648073559
 40
0.0024749995
100
AcDbArc
 50
89.9999571957
 51
180.0000428043
  0
LINE
  5
331
100
AcDbEntity
  8
0
100
AcDbLine
 62
2
  6
CONTINUOUS
 10
13.2557806555
 20
2.564807354
 11
13.2557806555
 21
2.5532573476
  0
ARC
  5
332
100
AcDbEntity
  8
0
100
AcDbCircle
 62
2
  6
CONTINUOUS
 10
13.2582556551
 20
2.5532573458
 40
0.0024749995
100
AcDbArc
 50
179.9999571957
 51
270.0000428043
  0
LINE
  5
333
100
AcDbEntity
  8
0
100
AcDbLine
 62
2
  6
CONTINUOUS
 10
13.2582556569
 20
2.5507823463
 11
13.2934226764
 21
2.5507823463
  0
ARC
  5
334
100
AcDbEntity
  8
0
100
AcDbCircle
 62
2
  6
CONTINUOUS
 10
13.2934226783
 20
2.5483073467
 40
0.0024749995
100
AcDbArc
 50
359.9999571957
 51
90.0000428043
  0
LINE
  5
335
100
AcDbEntity
  8
0
100
AcDbLine
 62
2
  6
CONTINUOUS
 10
13.2958976778
 20
2.5483073449
 11
13.2958976778
 21
2.5349523375
  0
ARC
  5
336
100
AcDbEntity
  8
0
100
AcDbCircle
 62
2
  6
CONTINUOUS
 10
13.2934226783
 20
2.5349523356
 40
0.0024749995
100
AcDbArc
 50
269.9999571957
 51
0.0000428042
  0
LINE
  5
337
100
AcDbEntity
  8
0
100
AcDbLine
 62
2
  6
CONTINUOUS
 10
13.7286871589
 20
2.5350697372
 11
13.7286871589
 21
2.5456869438
  0
LINE
  5
338
100
AcDbEntity
  8
0
100
AcDbLine
 62
2
  6
CONTINUOUS
 10
13.7086871478
 20
2.5004302075
 11
13.7086871478
 21
2.5803264735
  0
LINE
  5
339
100
AcDbEntity
  8
0
100
AcDbLine
 62
2
  6
CONTINUOUS
 10
13.6886871368
 20
2.4843919416
 11
13.6886871368
 21
2.5963647394
  0
LINE
  5
33A
100
AcDbEntity
  8
0
100
AcDbLine
 62
2
  6
CONTINUOUS
 10
13.6686871257
 20
2.4726017898
 11
13.6686871257
 21
2.6081548911
  0
LINE
  5
33B
100
AcDbEntity
  8
0
100
AcDbLine
 62
2
  6
CONTINUOUS
 10
13.6486871146
 20
2.4628062688
 11
13.6486871146
 21
2.6179504122
  0
LINE
  5
33C
100
AcDbEntity
  8
0
100
AcDbLine
 62
2
  6
CONTINUOUS
 10
13.6286871035
 20
2.4541253507
 11
13.6286871035
 21
2.5062483056
  0
LINE
  5
33D
100
AcDbEntity
  8
0
100
AcDbLine
 62
2
  6
CONTINUOUS
 10
13.6286871035
 20
2.5301143348
 11
13.6286871035
 21
2.6266313303
  0
LINE
  5
33E
100
AcDbEntity
  8
0
100
AcDbLine
 62
2
  6
CONTINUOUS
 10
13.6086870924
 20
2.4465537903
 11
13.6086870924
 21
2.4918774918
  0
LINE
  5
33F
100
AcDbEntity
  8
0
100
AcDbLine
 62
2
  6
CONTINUOUS
 10
13.6086870924
 20
2.5165781173
 11
13.6086870924
 21
2.6342028907
  0
LINE
  5
340
100
AcDbEntity
  8
0
100
AcDbLine
 62
2
  6
CONTINUOUS
 10
13.5886870813
 20
2.4398033466
 11
13.5886870813
 21
2.4912273132
  0
LINE
  5
341
100
AcDbEntity
  8
0
100
AcDbLine
 62
2
  6
CONTINUOUS
 10
13.5886870813
 20
2.5391840845
 11
13.5886870813
 21
2.5454298327
  0
LINE
  5
342
100
AcDbEntity
  8
0
100
AcDbLine
 62
2
  6
CONTINUOUS
 10
13.5886870813
 20
2.5862063472
 11
13.5886870813
 21
2.6409533343
  0
LINE
  5
343
100
AcDbEntity
  8
0
100
AcDbLine
 62
2
  6
CONTINUOUS
 10
13.5686870702
 20
2.4334702189
 11
13.5686870702
 21
2.4912273132
  0
LINE
  5
344
100
AcDbEntity
  8
0
100
AcDbLine
 62
2
  6
CONTINUOUS
 10
13.5686870702
 20
2.5906587765
 11
13.5686870702
 21
2.647286462
  0
LINE
  5
345
100
AcDbEntity
  8
0
100
AcDbLine
 62
2
  6
CONTINUOUS
 10
13.5486870591
 20
2.4278968124
 11
13.5486870591
 21
2.4937461006
  0
LINE
  5
346
100
AcDbEntity
  8
0
100
AcDbLine
 62
2
  6
CONTINUOUS
 10
13.5486870591
 20
2.5920323691
 11
13.5486870591
 21
2.6528598686
  0
LINE
  5
347
100
AcDbEntity
  8
0
100
AcDbLine
 62
2
  6
CONTINUOUS
 10
13.528687048
 20
2.4225427674
 11
13.528687048
 21
2.5270426993
  0
LINE
  5
348
100
AcDbEntity
  8
0
100
AcDbLine
 62
2
  6
CONTINUOUS
 10
13.528687048
 20
2.5505166259
 11
13.528687048
 21
2.5668657091
  0
LINE
  5
349
100
AcDbEntity
  8
0
100
AcDbLine
 62
2
  6
CONTINUOUS
 10
13.528687048
 20
2.5920323691
 11
13.528687048
 21
2.6582139136
  0
LINE
  5
34A
100
AcDbEntity
  8
0
100
AcDbLine
 62
2
  6
CONTINUOUS
 10
13.5086870369
 20
2.4177306791
 11
13.5086870369
 21
2.4912273132
  0
LINE
  5
34B
100
AcDbEntity
  8
0
100
AcDbLine
 62
2
  6
CONTINUOUS
 10
13.5086870369
 20
2.5159553269
 11
13.5086870369
 21
2.5306043351
  0
LINE
  5
34C
100
AcDbEntity
  8
0
100
AcDbLine
 62
2
  6
CONTINUOUS
 10
13.5086870369
 20
2.5496073456
 11
13.5086870369
 21
2.5672823554
  0
LINE
  5
34D
100
AcDbEntity
  8
0
100
AcDbLine
 62
2
  6
CONTINUOUS
 10
13.5086870369
 20
2.5920323691
 11
13.5086870369
 21
2.6630260019
  0
LINE
  5
34E
100
AcDbEntity
  8
0
100
AcDbLine
 62
2
  6
CONTINUOUS
 10
13.4886870258
 20
2.4131795254
 11
13.4886870258
 21
2.4912273132
  0
LINE
  5
34F
100
AcDbEntity
  8
0
100
AcDbLine
 62
2
  6
CONTINUOUS
 10
13.4886870258
 20
2.5159553269
 11
13.4886870258
 21
2.5306043351
  0
LINE
  5
350
100
AcDbEntity
  8
0
100
AcDbLine
 62
2
  6
CONTINUOUS
 10
13.4886870258
 20
2.5496073456
 11
13.4886870258
 21
2.5672823554
  0
LINE
  5
351
100
AcDbEntity
  8
0
100
AcDbLine
 62
2
  6
CONTINUOUS
 10
13.4886870258
 20
2.5920323691
 11
13.4886870258
 21
2.6675771555
  0
LINE
  5
352
100
AcDbEntity
  8
0
100
AcDbLine
 62
2
  6
CONTINUOUS
 10
13.4686870147
 20
2.4088819672
 11
13.4686870147
 21
2.4912273132
  0
LINE
  5
353
100
AcDbEntity
  8
0
100
AcDbLine
 62
2
  6
CONTINUOUS
 10
13.4686870147
 20
2.5920323691
 11
13.4686870147
 21
2.6718747138
  0
LINE
  5
354
100
AcDbEntity
  8
0
100
AcDbLine
 62
2
  6
CONTINUOUS
 10
13.4486870037
 20
2.4050092072
 11
13.4486870037
 21
2.4912273132
  0
LINE
  5
355
100
AcDbEntity
  8
0
100
AcDbLine
 62
2
  6
CONTINUOUS
 10
13.4486870037
 20
2.5920323691
 11
13.4486870037
 21
2.6757474738
  0
LINE
  5
356
100
AcDbEntity
  8
0
100
AcDbLine
 62
2
  6
CONTINUOUS
 10
13.4286869926
 20
2.4011364471
 11
13.4286869926
 21
2.4912273132
  0
LINE
  5
357
100
AcDbEntity
  8
0
100
AcDbLine
 62
2
  6
CONTINUOUS
 10
13.4286869926
 20
2.5920323691
 11
13.4286869926
 21
2.6796202339
  0
LINE
  5
358
100
AcDbEntity
  8
0
100
AcDbLine
 62
2
  6
CONTINUOUS
 10
13.4086869815
 20
2.3980226662
 11
13.4086869815
 21
2.4912273132
  0
LINE
  5
359
100
AcDbEntity
  8
0
100
AcDbLine
 62
2
  6
CONTINUOUS
 10
13.4086869815
 20
2.515977327
 11
13.4086869815
 21
2.5672823554
  0
LINE
  5
35A
100
AcDbEntity
  8
0
100
AcDbLine
 62
2
  6
CONTINUOUS
 10
13.4086869815
 20
2.5920323691
 11
13.4086869815
 21
2.6827340148
  0
LINE
  5
35B
100
AcDbEntity
  8
0
100
AcDbLine
 62
2
  6
CONTINUOUS
 10
13.3886869704
 20
2.3950052774
 11
13.3886869704
 21
2.6857514036
  0
LINE
  5
35C
100
AcDbEntity
  8
0
100
AcDbLine
 62
2
  6
CONTINUOUS
 10
13.3686869593
 20
2.3919878885
 11
13.3686869593
 21
2.4912273132
  0
LINE
  5
35D
100
AcDbEntity
  8
0
100
AcDbLine
 62
2
  6
CONTINUOUS
 10
13.3686869593
 20
2.5291773343
 11
13.3686869593
 21
2.5540823481
  0
LINE
  5
35E
100
AcDbEntity
  8
0
100
AcDbLine
 62
2
  6
CONTINUOUS
 10
13.3686869593
 20
2.5920323691
 11
13.3686869593
 21
2.6887687924
  0
LINE
  5
35F
100
AcDbEntity
  8
0
100
AcDbLine
 62
2
  6
CONTINUOUS
 10
13.3486869482
 20
2.3889704997
 11
13.3486869482
 21
2.4912273132
  0
LINE
  5
360
100
AcDbEntity
  8
0
100
AcDbLine
 62
2
  6
CONTINUOUS
 10
13.3486869482
 20
2.5291773343
 11
13.3486869482
 21
2.5540823481
  0
LINE
  5
361
100
AcDbEntity
  8
0
100
AcDbLine
 62
2
  6
CONTINUOUS
 10
13.3486869482
 20
2.5920323691
 11
13.3486869482
 21
2.6917861813
  0
LINE
  5
362
100
AcDbEntity
  8
0
100
AcDbLine
 62
2
  6
CONTINUOUS
 10
13.3286869371
 20
2.3859531109
 11
13.3286869371
 21
2.4912273132
  0
LINE
  5
363
100
AcDbEntity
  8
0
100
AcDbLine
 62
2
  6
CONTINUOUS
 10
13.3286869371
 20
2.5291773343
 11
13.3286869371
 21
2.5540823481
  0
LINE
  5
364
100
AcDbEntity
  8
0
100
AcDbLine
 62
2
  6
CONTINUOUS
 10
13.3286869371
 20
2.5920323691
 11
13.3286869371
 21
2.6948035701
  0
LINE
  5
365
100
AcDbEntity
  8
0
100
AcDbLine
 62
2
  6
CONTINUOUS
 10
13.308686926
 20
2.3833355437
 11
13.308686926
 21
2.4912273132
  0
LINE
  5
366
100
AcDbEntity
  8
0
100
AcDbLine
 62
2
  6
CONTINUOUS
 10
13.308686926
 20
2.515977327
 11
13.308686926
 21
2.5672823554
  0
LINE
  5
367
100
AcDbEntity
  8
0
100
AcDbLine
 62
2
  6
CONTINUOUS
 10
13.308686926
 20
2.5920323691
 11
13.308686926
 21
2.6974211373
  0
LINE
  5
368
100
AcDbEntity
  8
0
100
AcDbLine
 62
2
  6
CONTINUOUS
 10
13.2886869149
 20
2.3812612684
 11
13.2886869149
 21
2.4912273132
  0
LINE
  5
369
100
AcDbEntity
  8
0
100
AcDbLine
 62
2
  6
CONTINUOUS
 10
13.2886869149
 20
2.515977327
 11
13.2886869149
 21
2.5324773361
  0
LINE
  5
36A
100
AcDbEntity
  8
0
100
AcDbLine
 62
2
  6
CONTINUOUS
 10
13.2886869149
 20
2.5507823463
 11
13.2886869149
 21
2.5672823554
  0
LINE
  5
36B
100
AcDbEntity
  8
0
100
AcDbLine
 62
2
  6
CONTINUOUS
 10
13.2886869149
 20
2.5920323691
 11
13.2886869149
 21
2.6994954125
  0
LINE
  5
36C
100
AcDbEntity
  8
0
100
AcDbLine
 62
2
  6
CONTINUOUS
 10
13.2686869038
 20
2.3791869932
 11
13.2686869038
 21
2.4912273132
  0
LINE
  5
36D
100
AcDbEntity
  8
0
100
AcDbLine
 62
2
  6
CONTINUOUS
 10
13.2686869038
 20
2.515977327
 11
13.2686869038
 21
2.5324773361
  0
LINE
  5
36E
100
AcDbEntity
  8
0
100
AcDbLine
 62
2
  6
CONTINUOUS
 10
13.2686869038
 20
2.5507823463
 11
13.2686869038
 21
2.5672823554
  0
LINE
  5
36F
100
AcDbEntity
  8
0
100
AcDbLine
 62
2
  6
CONTINUOUS
 10
13.2686869038
 20
2.5920323691
 11
13.2686869038
 21
2.7015696878
  0
LINE
  5
370
100
AcDbEntity
  8
0
100
AcDbLine
 62
2
  6
CONTINUOUS
 10
13.2486868927
 20
2.377112718
 11
13.2486868927
 21
2.4912273132
  0
LINE
  5
371
100
AcDbEntity
  8
0
100
AcDbLine
 62
2
  6
CONTINUOUS
 10
13.2486868927
 20
2.5920323691
 11
13.2486868927
 21
2.703643963
  0
LINE
  5
372
100
AcDbEntity
  8
0
100
AcDbLine
 62
2
  6
CONTINUOUS
 10
13.2286868817
 20
2.3750384428
 11
13.2286868817
 21
2.4912273132
  0
LINE
  5
373
100
AcDbEntity
  8
0
100
AcDbLine
 62
2
  6
CONTINUOUS
 10
13.2286868817
 20
2.5920323691
 11
13.2286868817
 21
2.7057182382
  0
LINE
  5
374
100
AcDbEntity
  8
0
100
AcDbLine
 62
2
  6
CONTINUOUS
 10
13.2086868706
 20
2.3729641676
 11
13.2086868706
 21
2.4912273132
  0
LINE
  5
375
100
AcDbEntity
  8
0
100
AcDbLine
 62
2
  6
CONTINUOUS
 10
13.2086868706
 20
2.5920323691
 11
13.2086868706
 21
2.7077925134
  0
LINE
  5
376
100
AcDbEntity
  8
0
100
AcDbLine
 62
2
  6
CONTINUOUS
 10
13.1886868595
 20
2.3712344456
 11
13.1886868595
 21
2.4912273132
  0
LINE
  5
377
100
AcDbEntity
  8
0
100
AcDbLine
 62
2
  6
CONTINUOUS
 10
13.1886868595
 20
2.515977327
 11
13.1886868595
 21
2.5672823554
  0
LINE
  5
378
100
AcDbEntity
  8
0
100
AcDbLine
 62
2
  6
CONTINUOUS
 10
13.1886868595
 20
2.5920323691
 11
13.1886868595
 21
2.7095222354
  0
LINE
  5
379
100
AcDbEntity
  8
0
100
AcDbLine
 62
2
  6
CONTINUOUS
 10
13.1686868484
 20
2.3699682418
 11
13.1686868484
 21
2.4912273132
  0
LINE
  5
37A
100
AcDbEntity
  8
0
100
AcDbLine
 62
2
  6
CONTINUOUS
 10
13.1686868484
 20
2.515977327
 11
13.1686868484
 21
2.5672823554
  0
LINE
  5
37B
100
AcDbEntity
  8
0
100
AcDbLine
 62
2
  6
CONTINUOUS
 10
13.1686868484
 20
2.5920323691
 11
13.1686868484
 21
2.7107884392
  0
LINE
  5
37C
100
AcDbEntity
  8
0
100
AcDbLine
 62
2
  6
CONTINUOUS
 10
13.1486868373
 20
2.3687020381
 11
13.1486868373
 21
2.7120546429
  0
LINE
  5
37D
100
AcDbEntity
  8
0
100
AcDbLine
 62
2
  6
CONTINUOUS
 10
13.1286868262
 20
2.3674358343
 11
13.1286868262
 21
2.5672823554
  0
LINE
  5
37E
100
AcDbEntity
  8
0
100
AcDbLine
 62
2
  6
CONTINUOUS
 10
13.1286868262
 20
2.5920323691
 11
13.1286868262
 21
2.7133208466
  0
LINE
  5
37F
100
AcDbEntity
  8
0
100
AcDbLine
 62
2
  6
CONTINUOUS
 10
13.1086868151
 20
2.3661696306
 11
13.1086868151
 21
2.4912273132
  0
LINE
  5
380
100
AcDbEntity
  8
0
100
AcDbLine
 62
2
  6
CONTINUOUS
 10
13.1086868151
 20
2.5920323691
 11
13.1086868151
 21
2.7145870504
  0
LINE
  5
381
100
AcDbEntity
  8
0
100
AcDbLine
 62
2
  6
CONTINUOUS
 10
13.088686804
 20
2.3649034269
 11
13.088686804
 21
2.4912273132
  0
LINE
  5
382
100
AcDbEntity
  8
0
100
AcDbLine
 62
2
  6
CONTINUOUS
 10
13.088686804
 20
2.5920323691
 11
13.088686804
 21
2.7158532541
  0
LINE
  5
383
100
AcDbEntity
  8
0
100
AcDbLine
 62
2
  6
CONTINUOUS
 10
13.0686867929
 20
2.3636739922
 11
13.0686867929
 21
2.4912273132
  0
LINE
  5
384
100
AcDbEntity
  8
0
100
AcDbLine
 62
2
  6
CONTINUOUS
 10
13.0686867929
 20
2.5475272398
 11
13.0686867929
 21
2.5672823554
  0
LINE
  5
385
100
AcDbEntity
  8
0
100
AcDbLine
 62
2
  6
CONTINUOUS
 10
13.0686867929
 20
2.5920323691
 11
13.0686867929
 21
2.7170826887
  0
LINE
  5
386
100
AcDbEntity
  8
0
100
AcDbLine
 62
2
  6
CONTINUOUS
 10
13.0486867818
 20
2.363143203
 11
13.0486867818
 21
2.4912273132
  0
LINE
  5
387
100
AcDbEntity
  8
0
100
AcDbLine
 62
2
  6
CONTINUOUS
 10
13.0486867818
 20
2.5666100882
 11
13.0486867818
 21
2.717613478
  0
LINE
  5
388
100
AcDbEntity
  8
0
100
AcDbLine
 62
2
  6
CONTINUOUS
 10
13.0286867707
 20
2.3626124138
 11
13.0286867707
 21
2.50359263
  0
LINE
  5
389
100
AcDbEntity
  8
0
100
AcDbLine
 62
2
  6
CONTINUOUS
 10
13.0286867707
 20
2.5856929366
 11
13.0286867707
 21
2.7181442672
  0
LINE
  5
38A
100
AcDbEntity
  8
0
100
AcDbLine
 62
2
  6
CONTINUOUS
 10
13.0086867596
 20
2.3620816246
 11
13.0086867596
 21
2.5226754472
  0
LINE
  5
38B
100
AcDbEntity
  8
0
100
AcDbLine
 62
2
  6
CONTINUOUS
 10
13.0086867596
 20
2.5920323691
 11
13.0086867596
 21
2.7186750564
  0
LINE
  5
38C
100
AcDbEntity
  8
0
100
AcDbLine
 62
2
  6
CONTINUOUS
 10
12.9886867486
 20
2.3615508354
 11
12.9886867486
 21
2.4912273132
  0
LINE
  5
38D
100
AcDbEntity
  8
0
100
AcDbLine
 62
2
  6
CONTINUOUS
 10
12.9886867486
 20
2.515977327
 11
12.9886867486
 21
2.5417582644
  0
LINE
  5
38E
100
AcDbEntity
  8
0
100
AcDbLine
 62
2
  6
CONTINUOUS
 10
12.9886867486
 20
2.5920323691
 11
12.9886867486
 21
2.7192058456
  0
LINE
  5
38F
100
AcDbEntity
  8
0
100
AcDbLine
 62
2
  6
CONTINUOUS
 10
12.9686867375
 20
2.3610200462
 11
12.9686867375
 21
2.4912273132
  0
LINE
  5
390
100
AcDbEntity
  8
0
100
AcDbLine
 62
2
  6
CONTINUOUS
 10
12.9686867375
 20
2.5920323691
 11
12.9686867375
 21
2.7197366348
  0
LINE
  5
391
100
AcDbEntity
  8
0
100
AcDbLine
 62
2
  6
CONTINUOUS
 10
12.9486867264
 20
2.360489257
 11
12.9486867264
 21
2.4912273132
  0
LINE
  5
392
100
AcDbEntity
  8
0
100
AcDbLine
 62
2
  6
CONTINUOUS
 10
12.9486867264
 20
2.5920323691
 11
12.9486867264
 21
2.720267424
  0
LINE
  5
393
100
AcDbEntity
  8
0
100
AcDbLine
 62
2
  6
CONTINUOUS
 10
12.9286867153
 20
2.3602836008
 11
12.9286867153
 21
2.4912273132
  0
LINE
  5
394
100
AcDbEntity
  8
0
100
AcDbLine
 62
2
  6
CONTINUOUS
 10
12.9286867153
 20
2.515977327
 11
12.9286867153
 21
2.5672823554
  0
LINE
  5
395
100
AcDbEntity
  8
0
100
AcDbLine
 62
2
  6
CONTINUOUS
 10
12.9286867153
 20
2.5920323691
 11
12.9286867153
 21
2.7204730802
  0
LINE
  5
396
100
AcDbEntity
  8
0
100
AcDbLine
 62
2
  6
CONTINUOUS
 10
12.9086867042
 20
2.3604597639
 11
12.9086867042
 21
2.7202969171
  0
LINE
  5
397
100
AcDbEntity
  8
0
100
AcDbLine
 62
2
  6
CONTINUOUS
 10
12.8886866931
 20
2.360635927
 11
12.8886866931
 21
2.5672823554
  0
LINE
  5
398
100
AcDbEntity
  8
0
100
AcDbLine
 62
2
  6
CONTINUOUS
 10
12.8886866931
 20
2.5920323691
 11
12.8886866931
 21
2.720120754
  0
LINE
  5
399
100
AcDbEntity
  8
0
100
AcDbLine
 62
2
  6
CONTINUOUS
 10
12.868686682
 20
2.3608120901
 11
12.868686682
 21
2.491232357
  0
LINE
  5
39A
100
AcDbEntity
  8
0
100
AcDbLine
 62
2
  6
CONTINUOUS
 10
12.868686682
 20
2.5920323691
 11
12.868686682
 21
2.7199445909
  0
LINE
  5
39B
100
AcDbEntity
  8
0
100
AcDbLine
 62
2
  6
CONTINUOUS
 10
12.8486866709
 20
2.3609882532
 11
12.8486866709
 21
2.4912273132
  0
LINE
  5
39C
100
AcDbEntity
  8
0
100
AcDbLine
 62
2
  6
CONTINUOUS
 10
12.8486866709
 20
2.5920323691
 11
12.8486866709
 21
2.7197684278
  0
LINE
  5
39D
100
AcDbEntity
  8
0
100
AcDbLine
 62
2
  6
CONTINUOUS
 10
12.8286866598
 20
2.3611644163
 11
12.8286866598
 21
2.4912273132
  0
LINE
  5
39E
100
AcDbEntity
  8
0
100
AcDbLine
 62
2
  6
CONTINUOUS
 10
12.8286866598
 20
2.5396527025
 11
12.8286866598
 21
2.5672823554
  0
LINE
  5
39F
100
AcDbEntity
  8
0
100
AcDbLine
 62
2
  6
CONTINUOUS
 10
12.8286866598
 20
2.5920323691
 11
12.8286866598
 21
2.7195922647
  0
LINE
  5
3A0
100
AcDbEntity
  8
0
100
AcDbLine
 62
2
  6
CONTINUOUS
 10
12.8086866487
 20
2.3613405794
 11
12.8086866487
 21
2.4912273132
  0
LINE
  5
3A1
100
AcDbEntity
  8
0
100
AcDbLine
 62
2
  6
CONTINUOUS
 10
12.8086866487
 20
2.5587355508
 11
12.8086866487
 21
2.7194161016
  0
LINE
  5
3A2
100
AcDbEntity
  8
0
100
AcDbLine
 62
2
  6
CONTINUOUS
 10
12.7886866376
 20
2.3621089572
 11
12.7886866376
 21
2.4957181055
  0
LINE
  5
3A3
100
AcDbEntity
  8
0
100
AcDbLine
 62
2
  6
CONTINUOUS
 10
12.7886866376
 20
2.5778183992
 11
12.7886866376
 21
2.7186477238
  0
LINE
  5
3A4
100
AcDbEntity
  8
0
100
AcDbLine
 62
2
  6
CONTINUOUS
 10
12.7686866266
 20
2.3630013935
 11
12.7686866266
 21
2.5148009227
  0
LINE
  5
3A5
100
AcDbEntity
  8
0
100
AcDbLine
 62
2
  6
CONTINUOUS
 10
12.7686866266
 20
2.5920323691
 11
12.7686866266
 21
2.7177552874
  0
LINE
  5
3A6
100
AcDbEntity
  8
0
100
AcDbLine
 62
2
  6
CONTINUOUS
 10
12.7486866155
 20
2.3638938299
 11
12.7486866155
 21
2.4913263218
  0
LINE
  5
3A7
100
AcDbEntity
  8
0
100
AcDbLine
 62
2
  6
CONTINUOUS
 10
12.7486866155
 20
2.5158783184
 11
12.7486866155
 21
2.5338837399
  0
LINE
  5
3A8
100
AcDbEntity
  8
0
100
AcDbLine
 62
2
  6
CONTINUOUS
 10
12.7486866155
 20
2.5920323691
 11
12.7486866155
 21
2.7168628511
  0
LINE
  5
3A9
100
AcDbEntity
  8
0
100
AcDbLine
 62
2
  6
CONTINUOUS
 10
12.7286866044
 20
2.3647862663
 11
12.7286866044
 21
2.4912273132
  0
LINE
  5
3AA
100
AcDbEntity
  8
0
100
AcDbLine
 62
2
  6
CONTINUOUS
 10
12.7286866044
 20
2.515977327
 11
12.7286866044
 21
2.5527601554
  0
LINE
  5
3AB
100
AcDbEntity
  8
0
100
AcDbLine
 62
2
  6
CONTINUOUS
 10
12.7286866044
 20
2.5920323691
 11
12.7286866044
 21
2.7159704147
  0
LINE
  5
3AC
100
AcDbEntity
  8
0
100
AcDbLine
 62
2
  6
CONTINUOUS
 10
12.7086865933
 20
2.3656787026
 11
12.7086865933
 21
2.4912273132
  0
LINE
  5
3AD
100
AcDbEntity
  8
0
100
AcDbLine
 62
2
  6
CONTINUOUS
 10
12.7086865933
 20
2.5920323691
 11
12.7086865933
 21
2.7150779784
  0
LINE
  5
3AE
100
AcDbEntity
  8
0
100
AcDbLine
 62
2
  6
CONTINUOUS
 10
12.6886865822
 20
2.366571139
 11
12.6886865822
 21
2.4912273132
  0
LINE
  5
3AF
100
AcDbEntity
  8
0
100
AcDbLine
 62
2
  6
CONTINUOUS
 10
12.6886865822
 20
2.515977327
 11
12.6886865822
 21
2.5672823554
  0
LINE
  5
3B0
100
AcDbEntity
  8
0
100
AcDbLine
 62
2
  6
CONTINUOUS
 10
12.6886865822
 20
2.5920323691
 11
12.6886865822
 21
2.714185542
  0
LINE
  5
3B1
100
AcDbEntity
  8
0
100
AcDbLine
 62
2
  6
CONTINUOUS
 10
12.6686865711
 20
2.3677104027
 11
12.6686865711
 21
2.7130462783
  0
LINE
  5
3B2
100
AcDbEntity
  8
0
100
AcDbLine
 62
2
  6
CONTINUOUS
 10
12.64868656
 20
2.3693682721
 11
12.64868656
 21
2.7113884089
  0
LINE
  5
3B3
100
AcDbEntity
  8
0
100
AcDbLine
 62
2
  6
CONTINUOUS
 10
12.6286865489
 20
2.3710261415
 11
12.6286865489
 21
2.4912273132
  0
LINE
  5
3B4
100
AcDbEntity
  8
0
100
AcDbLine
 62
2
  6
CONTINUOUS
 10
12.6286865489
 20
2.515977327
 11
12.6286865489
 21
2.7097305395
  0
LINE
  5
3B5
100
AcDbEntity
  8
0
100
AcDbLine
 62
2
  6
CONTINUOUS
 10
12.6086865378
 20
2.372684011
 11
12.6086865378
 21
2.4912273132
  0
LINE
  5
3B6
100
AcDbEntity
  8
0
100
AcDbLine
 62
2
  6
CONTINUOUS
 10
12.6086865378
 20
2.5351122279
 11
12.6086865378
 21
2.70807267
  0
LINE
  5
3B7
100
AcDbEntity
  8
0
100
AcDbLine
 62
2
  6
CONTINUOUS
 10
12.5886865267
 20
2.3743418804
 11
12.5886865267
 21
2.4912273132
  0
LINE
  5
3B8
100
AcDbEntity
  8
0
100
AcDbLine
 62
2
  6
CONTINUOUS
 10
12.5886865267
 20
2.5660172622
 11
12.5886865267
 21
2.7064148006
  0
LINE
  5
3B9
100
AcDbEntity
  8
0
100
AcDbLine
 62
2
  6
CONTINUOUS
 10
12.5686865156
 20
2.3759997498
 11
12.5686865156
 21
2.4912273132
  0
LINE
  5
3BA
100
AcDbEntity
  8
0
100
AcDbLine
 62
2
  6
CONTINUOUS
 10
12.5686865156
 20
2.5920323691
 11
12.5686865156
 21
2.7047569312
  0
LINE
  5
3BB
100
AcDbEntity
  8
0
100
AcDbLine
 62
2
  6
CONTINUOUS
 10
12.5486865045
 20
2.3777575277
 11
12.5486865045
 21
2.4912273132
  0
LINE
  5
3BC
100
AcDbEntity
  8
0
100
AcDbLine
 62
2
  6
CONTINUOUS
 10
12.5486865045
 20
2.515977327
 11
12.5486865045
 21
2.5275118824
  0
LINE
  5
3BD
100
AcDbEntity
  8
0
100
AcDbLine
 62
2
  6
CONTINUOUS
 10
12.5486865045
 20
2.5920323691
 11
12.5486865045
 21
2.7029991533
  0
LINE
  5
3BE
100
AcDbEntity
  8
0
100
AcDbLine
 62
2
  6
CONTINUOUS
 10
12.5286864935
 20
2.3802813811
 11
12.5286864935
 21
2.5296213345
  0
LINE
  5
3BF
100
AcDbEntity
  8
0
100
AcDbLine
 62
2
  6
CONTINUOUS
 10
12.5286864935
 20
2.5505713461
 11
12.5286864935
 21
2.5667383551
  0
LINE
  5
3C0
100
AcDbEntity
  8
0
100
AcDbLine
 62
2
  6
CONTINUOUS
 10
12.5286864935
 20
2.5920323691
 11
12.5286864935
 21
2.7004752999
  0
LINE
  5
3C1
100
AcDbEntity
  8
0
100
AcDbLine
 62
2
  6
CONTINUOUS
 10
12.5086864824
 20
2.3828052346
 11
12.5086864824
 21
2.4912273132
  0
LINE
  5
3C2
100
AcDbEntity
  8
0
100
AcDbLine
 62
2
  6
CONTINUOUS
 10
12.5086864824
 20
2.515977327
 11
12.5086864824
 21
2.5279667721
  0
LINE
  5
3C3
100
AcDbEntity
  8
0
100
AcDbLine
 62
2
  6
CONTINUOUS
 10
12.5086864824
 20
2.5868602074
 11
12.5086864824
 21
2.6979514464
  0
LINE
  5
3C4
100
AcDbEntity
  8
0
100
AcDbLine
 62
2
  6
CONTINUOUS
 10
12.4886864713
 20
2.385329088
 11
12.4886864713
 21
2.4912273132
  0
LINE
  5
3C5
100
AcDbEntity
  8
0
100
AcDbLine
 62
2
  6
CONTINUOUS
 10
12.4886864713
 20
2.5553401045
 11
12.4886864713
 21
2.695427593
  0
LINE
  5
3C6
100
AcDbEntity
  8
0
100
AcDbLine
 62
2
  6
CONTINUOUS
 10
12.4686864602
 20
2.3878529415
 11
12.4686864602
 21
2.4912273132
  0
LINE
  5
3C7
100
AcDbEntity
  8
0
100
AcDbLine
 62
2
  6
CONTINUOUS
 10
12.4686864602
 20
2.5238200015
 11
12.4686864602
 21
2.6929037395
  0
LINE
  5
3C8
100
AcDbEntity
  8
0
100
AcDbLine
 62
2
  6
CONTINUOUS
 10
12.4486864491
 20
2.390376795
 11
12.4486864491
 21
2.4912273132
  0
LINE
  5
3C9
100
AcDbEntity
  8
0
100
AcDbLine
 62
2
  6
CONTINUOUS
 10
12.4486864491
 20
2.515977327
 11
12.4486864491
 21
2.690379886
  0
LINE
  5
3CA
100
AcDbEntity
  8
0
100
AcDbLine
 62
2
  6
CONTINUOUS
 10
12.428686438
 20
2.3931794042
 11
12.428686438
 21
2.6875772768
  0
LINE
  5
3CB
100
AcDbEntity
  8
0
100
AcDbLine
 62
2
  6
CONTINUOUS
 10
12.4086864269
 20
2.3964643301
 11
12.4086864269
 21
2.5013773986
  0
LINE
  5
3CC
100
AcDbEntity
  8
0
100
AcDbLine
 62
2
  6
CONTINUOUS
 10
12.4086864269
 20
2.5325739971
 11
12.4086864269
 21
2.5537224311
  0
LINE
  5
3CD
100
AcDbEntity
  8
0
100
AcDbLine
 62
2
  6
CONTINUOUS
 10
12.4086864269
 20
2.5791473398
 11
12.4086864269
 21
2.6842923509
  0
LINE
  5
3CE
100
AcDbEntity
  8
0
100
AcDbLine
 62
2
  6
CONTINUOUS
 10
12.3886864158
 20
2.399749256
 11
12.3886864158
 21
2.4921022658
  0
LINE
  5
3CF
100
AcDbEntity
  8
0
100
AcDbLine
 62
2
  6
CONTINUOUS
 10
12.3886864158
 20
2.5895929958
 11
12.3886864158
 21
2.681007425
  0
LINE
  5
3D0
100
AcDbEntity
  8
0
100
AcDbLine
 62
2
  6
CONTINUOUS
 10
12.3686864047
 20
2.403451877
 11
12.3686864047
 21
2.4912273132
  0
LINE
  5
3D1
100
AcDbEntity
  8
0
100
AcDbLine
 62
2
  6
CONTINUOUS
 10
12.3686864047
 20
2.5920323691
 11
12.3686864047
 21
2.677304804
  0
LINE
  5
3D2
100
AcDbEntity
  8
0
100
AcDbLine
 62
2
  6
CONTINUOUS
 10
12.3486863936
 20
2.407324637
 11
12.3486863936
 21
2.4912273132
  0
LINE
  5
3D3
100
AcDbEntity
  8
0
100
AcDbLine
 62
2
  6
CONTINUOUS
 10
12.3486863936
 20
2.5920323691
 11
12.3486863936
 21
2.673432044
  0
LINE
  5
3D4
100
AcDbEntity
  8
0
100
AcDbLine
 62
2
  6
CONTINUOUS
 10
12.3286863825
 20
2.4113493968
 11
12.3286863825
 21
2.4912273132
  0
LINE
  5
3D5
100
AcDbEntity
  8
0
100
AcDbLine
 62
2
  6
CONTINUOUS
 10
12.3286863825
 20
2.515977327
 11
12.3286863825
 21
2.5333023366
  0
LINE
  5
3D6
100
AcDbEntity
  8
0
100
AcDbLine
 62
2
  6
CONTINUOUS
 10
12.3286863825
 20
2.5499573458
 11
12.3286863825
 21
2.5672823554
  0
LINE
  5
3D7
100
AcDbEntity
  8
0
100
AcDbLine
 62
2
  6
CONTINUOUS
 10
12.3286863825
 20
2.5920323691
 11
12.3286863825
 21
2.6694072842
  0
LINE
  5
3D8
100
AcDbEntity
  8
0
100
AcDbLine
 62
2
  6
CONTINUOUS
 10
12.3086863715
 20
2.4159005505
 11
12.3086863715
 21
2.4912273132
  0
LINE
  5
3D9
100
AcDbEntity
  8
0
100
AcDbLine
 62
2
  6
CONTINUOUS
 10
12.3086863715
 20
2.515977327
 11
12.3086863715
 21
2.5333023366
  0
LINE
  5
3DA
100
AcDbEntity
  8
0
100
AcDbLine
 62
2
  6
CONTINUOUS
 10
12.3086863715
 20
2.5499573458
 11
12.3086863715
 21
2.5672823554
  0
LINE
  5
3DB
100
AcDbEntity
  8
0
100
AcDbLine
 62
2
  6
CONTINUOUS
 10
12.3086863715
 20
2.5920323691
 11
12.3086863715
 21
2.6648561305
  0
LINE
  5
3DC
100
AcDbEntity
  8
0
100
AcDbLine
 62
2
  6
CONTINUOUS
 10
12.2886863604
 20
2.4204517041
 11
12.2886863604
 21
2.4912273132
  0
LINE
  5
3DD
100
AcDbEntity
  8
0
100
AcDbLine
 62
2
  6
CONTINUOUS
 10
12.2886863604
 20
2.5920323691
 11
12.2886863604
 21
2.6603049769
  0
LINE
  5
3DE
100
AcDbEntity
  8
0
100
AcDbLine
 62
2
  6
CONTINUOUS
 10
12.2686863493
 20
2.4257438218
 11
12.2686863493
 21
2.4912273132
  0
LINE
  5
3DF
100
AcDbEntity
  8
0
100
AcDbLine
 62
2
  6
CONTINUOUS
 10
12.2686863493
 20
2.5920323691
 11
12.2686863493
 21
2.6550128592
  0
LINE
  5
3E0
100
AcDbEntity
  8
0
100
AcDbLine
 62
2
  6
CONTINUOUS
 10
12.2486863382
 20
2.4310978667
 11
12.2486863382
 21
2.4912273132
  0
LINE
  5
3E1
100
AcDbEntity
  8
0
100
AcDbLine
 62
2
  6
CONTINUOUS
 10
12.2486863382
 20
2.5920323691
 11
12.2486863382
 21
2.6496588142
  0
LINE
  5
3E2
100
AcDbEntity
  8
0
100
AcDbLine
 62
2
  6
CONTINUOUS
 10
12.2286863271
 20
2.4372566433
 11
12.2286863271
 21
2.4912273132
  0
LINE
  5
3E3
100
AcDbEntity
  8
0
100
AcDbLine
 62
2
  6
CONTINUOUS
 10
12.2286863271
 20
2.515977327
 11
12.2286863271
 21
2.5672823554
  0
LINE
  5
3E4
100
AcDbEntity
  8
0
100
AcDbLine
 62
2
  6
CONTINUOUS
 10
12.2286863271
 20
2.5920323691
 11
12.2286863271
 21
2.6435000377
  0
LINE
  5
3E5
100
AcDbEntity
  8
0
100
AcDbLine
 62
2
  6
CONTINUOUS
 10
12.208686316
 20
2.443589771
 11
12.208686316
 21
2.4912273132
  0
LINE
  5
3E6
100
AcDbEntity
  8
0
100
AcDbLine
 62
2
  6
CONTINUOUS
 10
12.208686316
 20
2.515977327
 11
12.208686316
 21
2.5672823554
  0
LINE
  5
3E7
100
AcDbEntity
  8
0
100
AcDbLine
 62
2
  6
CONTINUOUS
 10
12.208686316
 20
2.5920323691
 11
12.208686316
 21
2.63716691
  0
LINE
  5
3E8
100
AcDbEntity
  8
0
100
AcDbLine
 62
2
  6
CONTINUOUS
 10
12.1886863049
 20
2.4510806436
 11
12.1886863049
 21
2.6296760373
  0
LINE
  5
3E9
100
AcDbEntity
  8
0
100
AcDbLine
 62
2
  6
CONTINUOUS
 10
12.1686862938
 20
2.4591016523
 11
12.1686862938
 21
2.6216550287
  0
LINE
  5
3EA
100
AcDbEntity
  8
0
100
AcDbLine
 62
2
  6
CONTINUOUS
 10
12.1486862827
 20
2.468314272
 11
12.1486862827
 21
2.612442409
  0
LINE
  5
3EB
100
AcDbEntity
  8
0
100
AcDbLine
 62
2
  6
CONTINUOUS
 10
12.1286862716
 20
2.4794932339
 11
12.1286862716
 21
2.601263447
  0
LINE
  5
3EC
100
AcDbEntity
  8
0
100
AcDbLine
 62
2
  6
CONTINUOUS
 10
12.1086862605
 20
2.4934150665
 11
12.1086862605
 21
2.5873416144
  0
LINE
  5
3ED
100
AcDbEntity
  8
0
100
AcDbLine
 62
2
  6
CONTINUOUS
 10
12.0886862494
 20
2.5144449553
 11
12.0886862494
 21
2.5663117257
  0
ENDBLK
  5
3EE
100
AcDbEntity
  8
0
  6
BYBLOCK
 62
0
100
AcDbBlockEnd
  0
BLOCK
  5
3EF
100
AcDbEntity
  8
0
100
AcDbBlockBegin
  2
_FILLED
 70
64
 10
0.0
 20
0.0
  3
_FILLED
  1

  0
SOLID
  5
3F0
100
AcDbEntity
  8
0
  6
BYBLOCK
 62
0
100
AcDbTrace
 10
0.0
 20
0.0
 11
-1.0
 21
0.1666666667
 12
-1.0
 22
-0.1666666667
 13
-1.0
 23
-0.1666666667
  0
ENDBLK
  5
3F1
100
AcDbEntity
  8
0
  6
BYBLOCK
 62
0
100
AcDbBlockEnd
  0
BLOCK
  5
3F2
100
AcDbEntity
  8
SCHEME_DIMS
100
AcDbBlockBegin
 62
2
  6
CONTINUOUS
  2
*D0
 70
65
 10
0.0
 20
0.0
  3
*D0
  1

  0
MTEXT
  5
3F3
100
AcDbEntity
  8
SCHEME_DIMS
100
AcDbMText
 62
2
  6
CONTINUOUS
  7
TEXTSTYLE_5
 71
1
 72
1
 10
3.6796260458
 20
4.4876427755
 30
0.0
 11
1.0
 21
0.0
 31
0.0
 44
0.9
  1
{\Fgdt;n}\Ftxt;50\P[1.97]
 40
0.1
 41
0.6
  0
LINE
  5
3F4
100
AcDbEntity
  8
SCHEME_DIMS
100
AcDbLine
 62
2
  6
CONTINUOUS
 10
3.0947402209
 20
4.7607428936
 11
3.4296260458
 21
4.4376427755
  0
LINE
  5
3F5
100
AcDbEntity
  8
SCHEME_DIMS
100
AcDbLine
 62
2
  6
CONTINUOUS
 10
3.4296260458
 20
4.4376427755
 11
3.5796260458
 21
4.4376427755
  0
INSERT
  5
3F6
100
AcDbEntity
  8
SCHEME_DIMS
100
AcDbBlockReference
 62
2
  6
CONTINUOUS
  2
_FILLED
 10
3.0947402209
 20
4.7607428936
 41
0.1875
 42
0.1875
 43
0.1875
 50
136.0261603055
  0
ENDBLK
  5
3F7
100
AcDbEntity
  8
0
  6
BYBLOCK
 62
0
100
AcDbBlockEnd
  0
BLOCK
  5
3F8
100
AcDbEntity
  8
SCHEME_DIMS
100
AcDbBlockBegin
 62
2
  6
CONTINUOUS
  2
*D1
 70
65
 10
0.0
 20
0.0
  3
*D1
  1

  0
MTEXT
  5
3F9
100
AcDbEntity
  8
SCHEME_DIMS
100
AcDbMText
 62
2
  6
CONTINUOUS
  7
STANDARD
 71
2
 72
1
 10
5.8655887656
 20
6.978390393
 30
0.0
 11
1.0
 21
0.0
 31
0.0
 44
0.9
  1
35\P[1.38]
 40
0.1
 41
0.6
  0
LINE
  5
3FA
100
AcDbEntity
  8
SCHEME_DIMS
100
AcDbLine
 62
2
  6
CONTINUOUS
 10
6.7545651436
 20
6.451520305
 11
6.7545651436
 21
7.053390393
  0
LINE
  5
3FB
100
AcDbEntity
  8
SCHEME_DIMS
100
AcDbLine
 62
2
  6
CONTINUOUS
 10
5.3766123877
 20
5.5066384245
 11
5.3766123877
 21
7.053390393
  0
LINE
  5
3FC
100
AcDbEntity
  8
SCHEME_DIMS
100
AcDbLine
 62
2
  6
CONTINUOUS
 10
6.7545651436
 20
6.928390393
 11
6.4655887656
 21
6.928390393
  0
LINE
  5
3FD
100
AcDbEntity
  8
SCHEME_DIMS
100
AcDbLine
 62
2
  6
CONTINUOUS
 10
5.3766123877
 20
6.928390393
 11
5.6655887656
 21
6.928390393
  0
INSERT
  5
3FE
100
AcDbEntity
  8
SCHEME_DIMS
100
AcDbBlockReference
 62
2
  6
CONTINUOUS
  2
_FILLED
 10
6.7545651436
 20
6.928390393
 41
0.1875
 42
0.1875
 43
0.1875
  0
INSERT
  5
3FF
100
AcDbEntity
  8
SCHEME_DIMS
100
AcDbBlockReference
 62
2
  6
CONTINUOUS
  2
_FILLED
 10
5.3766123877
 20
6.928390393
 41
0.1875
 42
0.1875
 43
0.1875
 50
180.0
  0
ENDBLK
  5
400
100
AcDbEntity
  8
0
  6
BYBLOCK
 62
0
100
AcDbBlockEnd
  0
BLOCK
  5
401
100
AcDbEntity
  8
SCHEME_DIMS
100
AcDbBlockBegin
 62
2
  6
CONTINUOUS
  2
*D2
 70
65
 10
0.0
 20
0.0
  3
*D2
  1

  0
MTEXT
  5
402
100
AcDbEntity
  8
SCHEME_DIMS
100
AcDbMText
 62
2
  6
CONTINUOUS
  7
STANDARD
 71
2
 72
1
 10
6.259289553
 20
7.353390393
 30
0.0
 11
1.0
 21
0.0
 31
0.0
 44
0.9
  1
55\P[2.17]
 40
0.1
 41
0.6
  0
LINE
  5
403
100
AcDbEntity
  8
SCHEME_DIMS
100
AcDbLine
 62
2
  6
CONTINUOUS
 10
7.5419667184
 20
6.0086069284
 11
7.5419667184
 21
7.428390393
  0
LINE
  5
404
100
AcDbEntity
  8
SCHEME_DIMS
100
AcDbLine
 62
2
  6
CONTINUOUS
 10
5.3766123877
 20
5.5066384245
 11
5.3766123877
 21
7.428390393
  0
LINE
  5
405
100
AcDbEntity
  8
SCHEME_DIMS
100
AcDbLine
 62
2
  6
CONTINUOUS
 10
7.5419667184
 20
7.303390393
 11
6.859289553
 21
7.303390393
  0
LINE
  5
406
100
AcDbEntity
  8
SCHEME_DIMS
100
AcDbLine
 62
2
  6
CONTINUOUS
 10
5.3766123877
 20
7.303390393
 11
6.059289553
 21
7.303390393
  0
INSERT
  5
407
100
AcDbEntity
  8
SCHEME_DIMS
100
AcDbBlockReference
 62
2
  6
CONTINUOUS
  2
_FILLED
 10
7.5419667184
 20
7.303390393
 41
0.1875
 42
0.1875
 43
0.1875
  0
INSERT
  5
408
100
AcDbEntity
  8
SCHEME_DIMS
100
AcDbBlockReference
 62
2
  6
CONTINUOUS
  2
_FILLED
 10
5.3766123877
 20
7.303390393
 41
0.1875
 42
0.1875
 43
0.1875
 50
180.0
  0
ENDBLK
  5
409
100
AcDbEntity
  8
0
  6
BYBLOCK
 62
0
100
AcDbBlockEnd
  0
BLOCK
  5
40A
100
AcDbEntity
  8
SCHEME_DIMS
100
AcDbBlockBegin
 62
2
  6
CONTINUOUS
  2
*D3
 70
65
 10
0.0
 20
0.0
  3
*D3
  1

  0
MTEXT
  5
40B
100
AcDbEntity
  8
SCHEME_DIMS
100
AcDbMText
 62
2
  6
CONTINUOUS
  7
STANDARD
 71
2
 72
1
 10
6.4758249861
 20
7.728390393
 30
0.0
 11
1.0
 21
0.0
 31
0.0
 44
0.9
  1
66\P[2.60]
 40
0.1
 41
0.6
  0
LINE
  5
40C
100
AcDbEntity
  8
SCHEME_DIMS
100
AcDbLine
 62
2
  6
CONTINUOUS
 10
7.9750375845
 20
5.710378582
 11
7.9750375845
 21
7.803390393
  0
LINE
  5
40D
100
AcDbEntity
  8
SCHEME_DIMS
100
AcDbLine
 62
2
  6
CONTINUOUS
 10
5.3766123877
 20
5.5066384245
 11
5.3766123877
 21
7.803390393
  0
LINE
  5
40E
100
AcDbEntity
  8
SCHEME_DIMS
100
AcDbLine
 62
2
  6
CONTINUOUS
 10
7.9750375845
 20
7.678390393
 11
7.0758249861
 21
7.678390393
  0
LINE
  5
40F
100
AcDbEntity
  8
SCHEME_DIMS
100
AcDbLine
 62
2
  6
CONTINUOUS
 10
5.3766123877
 20
7.678390393
 11
6.2758249861
 21
7.678390393
  0
INSERT
  5
410
100
AcDbEntity
  8
SCHEME_DIMS
100
AcDbBlockReference
 62
2
  6
CONTINUOUS
  2
_FILLED
 10
7.9750375845
 20
7.678390393
 41
0.1875
 42
0.1875
 43
0.1875
  0
INSERT
  5
411
100
AcDbEntity
  8
SCHEME_DIMS
100
AcDbBlockReference
 62
2
  6
CONTINUOUS
  2
_FILLED
 10
5.3766123877
 20
7.678390393
 41
0.1875
 42
0.1875
 43
0.1875
 50
180.0
  0
ENDBLK
  5
412
100
AcDbEntity
  8
0
  6
BYBLOCK
 62
0
100
AcDbBlockEnd
  0
ENDSEC
  0
SECTION
  2
ENTITIES
  0
MTEXT
  5
413
100
AcDbEntity
  8
0
100
AcDbMText
 62
2
  6
CONTINUOUS
  7
TEXTSTYLE_2
 71
2
 72
1
 10
11.0287658475
 20
1.794867839
 30
0.0
 11
1.0
 21
0.0
 31
0.0
 44
0.9
  1
THIRD ANGLE PROJECTION
 40
0.1
 41
1.76
  0
MTEXT
  5
414
100
AcDbEntity
  8
0
100
AcDbMText
 62
2
  6
CONTINUOUS
  7
STANDARD
 71
1
 72
1
 10
12.88
 20
1.457
 30
0.0
 11
1.0
 21
0.0
 31
0.0
 44
0.9
  1
DRAWING NO.
 40
0.08
 41
0.88
  0
MTEXT
  5
415
100
AcDbEntity
  8
0
100
AcDbMText
 62
2
  6
CONTINUOUS
  7
TEXTSTYLE_3
 71
2
 72
1
 10
11.03
 20
2.516432
 30
0.0
 11
1.0
 21
0.0
 31
0.0
 44
0.9
  1
and is proprietary in general
 40
0.08
 41
1.972
  0
MTEXT
  5
416
100
AcDbEntity
  8
0
100
AcDbMText
 62
2
  6
CONTINUOUS
  7
TEXTSTYLE_3
 71
2
 72
1
 10
11.03
 20
2.396432
 30
0.0
 11
1.0
 21
0.0
 31
0.0
 44
0.9
  1
and in detail.  Its contents
 40
0.08
 41
1.904
  0
MTEXT
  5
417
100
AcDbEntity
  8
0
100
AcDbMText
 62
2
  6
CONTINUOUS
  7
TEXTSTYLE_3
 71
2
 72
1
 10
11.03
 20
2.276432
 30
0.0
 11
1.0
 21
0.0
 31
0.0
 44
0.9
  1
shall not be revealed to
 40
0.08
 41
1.632
  0
MTEXT
  5
418
100
AcDbEntity
  8
0
100
AcDbMText
 62
2
  6
CONTINUOUS
  7
TEXTSTYLE_3
 71
2
 72
1
 10
11.03
 20
2.156432
 30
0.0
 11
1.0
 21
0.0
 31
0.0
 44
0.9
  1
outside parties without
 40
0.08
 41
1.564
  0
MTEXT
  5
419
100
AcDbEntity
  8
0
100
AcDbMText
 62
2
  6
CONTINUOUS
  7
TEXTSTYLE_3
 71
2
 72
1
 10
11.03
 20
2.036432
 30
0.0
 11
1.0
 21
0.0
 31
0.0
 44
0.9
  1
written consent of BANNER.
 40
0.08
 41
1.768
  0
MTEXT
  5
41A
100
AcDbEntity
  8
0
100
AcDbMText
 62
2
  6
CONTINUOUS
  7
TEXTSTYLE_2
 71
1
 72
1
 10
12.08
 20
2.217
 30
0.0
 11
1.0
 21
0.0
 31
0.0
 44
0.9
  1
TITLE
 40
0.1
 41
0.4
  0
MTEXT
  5
41B
100
AcDbEntity
  8
0
100
AcDbMText
 62
2
  6
CONTINUOUS
  7
STANDARD
 71
1
 72
1
 10
12.08
 20
1.457
 30
0.0
 11
1.0
 21
0.0
 31
0.0
 44
0.9
  1
SIZE
 40
0.08
 41
0.32
  0
MTEXT
  5
41C
100
AcDbEntity
  8
0
100
AcDbMText
 62
2
  6
CONTINUOUS
  7
STANDARD
 71
1
 72
1
 10
12.08
 20
1.087
 30
0.0
 11
1.0
 21
0.0
 31
0.0
 44
0.9
  1
SCALE
 40
0.08
 41
0.4
  0
MTEXT
  5
41D
100
AcDbEntity
  8
0
100
AcDbMText
 62
2
  6
CONTINUOUS
  7
TEXTSTYLE_2
 71
2
 72
1
 10
12.5
 20
1.337
 30
0.0
 11
1.0
 21
0.0
 31
0.0
 44
0.9
  1
B
 40
0.1
 41
0.08
  0
MTEXT
  5
41E
100
AcDbEntity
  8
0
100
AcDbMText
 62
2
  6
CONTINUOUS
  7
TEXTSTYLE_3
 71
2
 72
1
 10
11.03
 20
2.636432
 30
0.0
 11
1.0
 21
0.0
 31
0.0
 44
0.9
  1
of BANNER ENGINEERING CORP.
 40
0.08
 41
1.836
  0
MTEXT
  5
41F
100
AcDbEntity
  8
0
100
AcDbMText
 62
2
  6
CONTINUOUS
  7
TEXTSTYLE_3
 71
2
 72
1
 10
11.03
 20
2.756432
 30
0.0
 11
1.0
 21
0.0
 31
0.0
 44
0.9
  1
This drawing is the property
 40
0.08
 41
1.904
  0
MTEXT
  5
420
100
AcDbEntity
  8
0
100
AcDbMText
 62
2
  6
CONTINUOUS
  7
TEXTSTYLE_2
 71
2
 72
1
 10
15.03
 20
2.4134
 30
0.0
 11
1.0
 21
0.0
 31
0.0
 44
0.9
  1
MINNEAPOLIS, MN 55440
 40
0.1
 41
1.68
  0
MTEXT
  5
421
100
AcDbEntity
  8
0
100
AcDbMText
 62
2
  6
CONTINUOUS
  7
STANDARD
 71
1
 72
1
 10
14.255
 20
1.087
 30
0.0
 11
1.0
 21
0.0
 31
0.0
 44
0.9
  1
SHEET
 40
0.08
 41
0.4
  0
MTEXT
  5
422
100
AcDbEntity
  8
0
100
AcDbMText
 62
2
  6
CONTINUOUS
  7
STANDARD
 71
1
 72
1
 10
15.63
 20
1.457
 30
0.0
 11
1.0
 21
0.0
 31
0.0
 44
0.9
  1
REV.
 40
0.08
 41
0.32
  0
MTEXT
  5
423
100
AcDbEntity
  8
0
100
AcDbMText
 62
2
  6
CONTINUOUS
  7
STANDARD
 71
3
 72
1
 10
16.38
 20
0.835443
 30
0.0
 11
1.0
 21
0.0
 31
0.0
 44
0.9
  1
PRO/E
 40
0.07
 41
0.35
  0
MTEXT
  5
424
100
AcDbEntity
  8
0
100
AcDbMText
 62
2
  6
CONTINUOUS
  7
TEXTSTYLE_4
 71
2
 72
1
 10
15.03
 20
2.751049
 30
0.0
 11
1.0
 21
0.0
 31
0.0
 44
0.9
  1
BANNER ENGINEERING CORP.
 40
0.12
 41
2.6496
  0
MTEXT
  5
425
100
AcDbEntity
  8
0
100
AcDbMText
 62
2
  6
CONTINUOUS
  7
TEXTSTYLE_2
 71
2
 72
1
 10
15.03
 20
2.5724
 30
0.0
 11
1.0
 21
0.0
 31
0.0
 44
0.9
  1
P.O. BOX 9414
 40
0.1
 41
1.04
  0
MTEXT
  5
426
100
AcDbEntity
  8
0
100
AcDbMText
 62
2
  6
CONTINUOUS
  7
TEXTSTYLE_2
 71
2
 72
1
 10
9.485
 20
10.312
 30
0.0
 11
1.0
 21
0.0
 31
0.0
 44
0.9
  1
4
 40
0.1
 41
0.08
  0
MTEXT
  5
427
100
AcDbEntity
  8
0
100
AcDbMText
 62
2
  6
CONTINUOUS
  7
TEXTSTYLE_2
 71
2
 72
1
 10
11.455
 20
10.312
 30
0.0
 11
1.0
 21
0.0
 31
0.0
 44
0.9
  1
3
 40
0.1
 41
0.08
  0
MTEXT
  5
428
100
AcDbEntity
  8
0
100
AcDbMText
 62
2
  6
CONTINUOUS
  7
TEXTSTYLE_2
 71
2
 72
1
 10
13.425
 20
10.312
 30
0.0
 11
1.0
 21
0.0
 31
0.0
 44
0.9
  1
2
 40
0.1
 41
0.08
  0
MTEXT
  5
429
100
AcDbEntity
  8
0
100
AcDbMText
 62
2
  6
CONTINUOUS
  7
TEXTSTYLE_2
 71
2
 72
1
 10
15.395
 20
10.312
 30
0.0
 11
1.0
 21
0.0
 31
0.0
 44
0.9
  1
1
 40
0.1
 41
0.08
  0
MTEXT
  5
42A
100
AcDbEntity
  8
0
100
AcDbMText
 62
2
  6
CONTINUOUS
  7
TEXTSTYLE_2
 71
2
 72
1
 10
3.575
 20
10.312
 30
0.0
 11
1.0
 21
0.0
 31
0.0
 44
0.9
  1
7
 40
0.1
 41
0.08
  0
MTEXT
  5
42B
100
AcDbEntity
  8
0
100
AcDbMText
 62
2
  6
CONTINUOUS
  7
TEXTSTYLE_2
 71
2
 72
1
 10
5.545
 20
10.312
 30
0.0
 11
1.0
 21
0.0
 31
0.0
 44
0.9
  1
6
 40
0.1
 41
0.08
  0
MTEXT
  5
42C
100
AcDbEntity
  8
0
100
AcDbMText
 62
2
  6
CONTINUOUS
  7
TEXTSTYLE_2
 71
2
 72
1
 10
7.515
 20
10.312
 30
0.0
 11
1.0
 21
0.0
 31
0.0
 44
0.9
  1
5
 40
0.1
 41
0.08
  0
MTEXT
  5
42D
100
AcDbEntity
  8
0
100
AcDbMText
 62
2
  6
CONTINUOUS
  7
TEXTSTYLE_2
 71
2
 72
1
 10
1.605
 20
10.312
 30
0.0
 11
1.0
 21
0.0
 31
0.0
 44
0.9
  1
8
 40
0.1
 41
0.08
  0
MTEXT
  5
42E
100
AcDbEntity
  8
0
100
AcDbMText
 62
2
  6
CONTINUOUS
  7
TEXTSTYLE_2
 71
2
 72
1
 10
1.605
 20
0.787
 30
0.0
 11
1.0
 21
0.0
 31
0.0
 44
0.9
  1
8
 40
0.1
 41
0.08
  0
MTEXT
  5
42F
100
AcDbEntity
  8
0
100
AcDbMText
 62
2
  6
CONTINUOUS
  7
TEXTSTYLE_2
 71
2
 72
1
 10
3.575
 20
0.787
 30
0.0
 11
1.0
 21
0.0
 31
0.0
 44
0.9
  1
7
 40
0.1
 41
0.08
  0
MTEXT
  5
430
100
AcDbEntity
  8
0
100
AcDbMText
 62
2
  6
CONTINUOUS
  7
TEXTSTYLE_2
 71
2
 72
1
 10
5.545
 20
0.787
 30
0.0
 11
1.0
 21
0.0
 31
0.0
 44
0.9
  1
6
 40
0.1
 41
0.08
  0
MTEXT
  5
431
100
AcDbEntity
  8
0
100
AcDbMText
 62
2
  6
CONTINUOUS
  7
TEXTSTYLE_2
 71
2
 72
1
 10
7.515
 20
0.787
 30
0.0
 11
1.0
 21
0.0
 31
0.0
 44
0.9
  1
5
 40
0.1
 41
0.08
  0
MTEXT
  5
432
100
AcDbEntity
  8
0
100
AcDbMText
 62
2
  6
CONTINUOUS
  7
TEXTSTYLE_2
 71
2
 72
1
 10
9.485
 20
0.787
 30
0.0
 11
1.0
 21
0.0
 31
0.0
 44
0.9
  1
4
 40
0.1
 41
0.08
  0
MTEXT
  5
433
100
AcDbEntity
  8
0
100
AcDbMText
 62
2
  6
CONTINUOUS
  7
TEXTSTYLE_2
 71
2
 72
1
 10
11.455
 20
0.787
 30
0.0
 11
1.0
 21
0.0
 31
0.0
 44
0.9
  1
3
 40
0.1
 41
0.08
  0
MTEXT
  5
434
100
AcDbEntity
  8
0
100
AcDbMText
 62
2
  6
CONTINUOUS
  7
TEXTSTYLE_2
 71
2
 72
1
 10
13.425
 20
0.787
 30
0.0
 11
1.0
 21
0.0
 31
0.0
 44
0.9
  1
2
 40
0.1
 41
0.08
  0
MTEXT
  5
435
100
AcDbEntity
  8
0
100
AcDbMText
 62
2
  6
CONTINUOUS
  7
TEXTSTYLE_2
 71
2
 72
1
 10
15.395
 20
0.787
 30
0.0
 11
1.0
 21
0.0
 31
0.0
 44
0.9
  1
1
 40
0.1
 41
0.08
  0
MTEXT
  5
436
100
AcDbEntity
  8
0
100
AcDbMText
 62
2
  6
CONTINUOUS
  7
TEXTSTYLE_2
 71
3
 72
1
 10
0.52
 20
4.3995
 30
0.0
 11
1.0
 21
0.0
 31
0.0
 44
0.9
  1
B
 40
0.1
 41
0.08
  0
MTEXT
  5
437
100
AcDbEntity
  8
0
100
AcDbMText
 62
2
  6
CONTINUOUS
  7
TEXTSTYLE_2
 71
3
 72
1
 10
0.52
 20
2.0995
 30
0.0
 11
1.0
 21
0.0
 31
0.0
 44
0.9
  1
A
 40
0.1
 41
0.08
  0
MTEXT
  5
438
100
AcDbEntity
  8
0
100
AcDbMText
 62
2
  6
CONTINUOUS
  7
TEXTSTYLE_2
 71
3
 72
1
 10
0.52
 20
8.9995
 30
0.0
 11
1.0
 21
0.0
 31
0.0
 44
0.9
  1
D
 40
0.1
 41
0.08
  0
MTEXT
  5
439
100
AcDbEntity
  8
0
100
AcDbMText
 62
2
  6
CONTINUOUS
  7
TEXTSTYLE_2
 71
3
 72
1
 10
0.52
 20
6.6995
 30
0.0
 11
1.0
 21
0.0
 31
0.0
 44
0.9
  1
C
 40
0.1
 41
0.08
  0
MTEXT
  5
43A
100
AcDbEntity
  8
0
100
AcDbMText
 62
2
  6
CONTINUOUS
  7
TEXTSTYLE_2
 71
1
 72
1
 10
16.48
 20
8.9995
 30
0.0
 11
1.0
 21
0.0
 31
0.0
 44
0.9
  1
D
 40
0.1
 41
0.08
  0
MTEXT
  5
43B
100
AcDbEntity
  8
0
100
AcDbMText
 62
2
  6
CONTINUOUS
  7
TEXTSTYLE_2
 71
1
 72
1
 10
16.48
 20
6.6995
 30
0.0
 11
1.0
 21
0.0
 31
0.0
 44
0.9
  1
C
 40
0.1
 41
0.08
  0
MTEXT
  5
43C
100
AcDbEntity
  8
0
100
AcDbMText
 62
2
  6
CONTINUOUS
  7
TEXTSTYLE_2
 71
1
 72
1
 10
16.48
 20
4.3995
 30
0.0
 11
1.0
 21
0.0
 31
0.0
 44
0.9
  1
B
 40
0.1
 41
0.08
  0
MTEXT
  5
43D
100
AcDbEntity
  8
0
100
AcDbMText
 62
2
  6
CONTINUOUS
  7
TEXTSTYLE_2
 71
1
 72
1
 10
16.48
 20
2.0995
 30
0.0
 11
1.0
 21
0.0
 31
0.0
 44
0.9
  1
A
 40
0.1
 41
0.08
  0
MTEXT
  5
43E
100
AcDbEntity
  8
0
100
AcDbMText
 62
2
  6
CONTINUOUS
  7
STANDARD
 71
1
 72
1
 10
14.819264911
 20
1.0627941725
 30
0.0
 11
1.0
 21
0.0
 31
0.0
 44
0.9
  1
1 OF 1
 40
0.1
 41
0.6
  0
MTEXT
  5
43F
100
AcDbEntity
  8
0
100
AcDbMText
 62
7
  6
CONTINUOUS
  7
STANDARD
 71
1
 72
1
 10
13.8911999818
 20
1.3747321586
 30
0.0
 11
1.0
 21
0.0
 31
0.0
 44
0.9
  1
159877
 40
0.12
 41
0.72
  0
MTEXT
  5
440
100
AcDbEntity
  8
0
100
AcDbMText
 62
2
  6
CONTINUOUS
  7
STANDARD
 71
1
 72
1
 10
12.644264911
 20
1.0627941725
 30
0.0
 11
1.0
 21
0.0
 31
0.0
 44
0.9
  1
1:1
 40
0.1
 41
0.3
  0
MTEXT
  5
441
100
AcDbEntity
  8
0
100
AcDbMText
 62
2
  6
CONTINUOUS
  7
STANDARD
 71
1
 72
1
 10
1.0597007627
 20
1.6202922458
 30
0.0
 11
1.0
 21
0.0
 31
0.0
 44
0.9
  1
NOTES:\P1. ALL DIMENSIONS ARE MILLIMETERS [INCHES] UNLESS OTHERWISE NOTED.
 40
0.1
 41
6.6
  0
INSERT
  5
442
100
AcDbEntity
  8
0
100
AcDbBlockReference
 62
2
  6
CONTINUOUS
  2
BANNER_LOGO_TITLEBLOCK_BL0
 10
12.9086867042
 20
2.5403783405
  0
DIMENSION
  5
443
100
AcDbEntity
  8
SCHEME_DIMS
100
AcDbDimension
 62
2
  6
CONTINUOUS
  2
*D0
 10
3.0947402209
 20
4.7607428936
 11
4.0462927124
 21
4.3626427755
 70
163
 71
1
 42
50.0
  1
<>
  3
DIMSTYLE_1
100
AcDbDiametricDimension
 15
1.6780927901
 25
6.1275339554
  0
DIMENSION
  5
444
100
AcDbEntity
  8
SCHEME_DIMS
100
AcDbDimension
 62
2
  6
CONTINUOUS
  2
*D1
 10
5.3766123877
 20
6.928390393
 11
5.9905887656
 21
6.853390393
 70
160
 71
2
 42
35.0
  3
DIMSTYLE_2
100
AcDbAlignedDimension
 13
6.7545651436
 23
6.451520305
 14
5.3766123877
 24
5.5066384245
 50
180.0
100
AcDbRotatedDimension
  0
DIMENSION
  5
445
100
AcDbEntity
  8
SCHEME_DIMS
100
AcDbDimension
 62
2
  6
CONTINUOUS
  2
*D2
 10
5.3766123877
 20
7.303390393
 11
6.384289553
 21
7.228390393
 70
160
 71
2
 42
55.0
  3
DIMSTYLE_2
100
AcDbAlignedDimension
 13
7.5419667184
 23
6.0086069284
 14
5.3766123877
 24
5.5066384245
 50
180.0
100
AcDbRotatedDimension
  0
DIMENSION
  5
446
100
AcDbEntity
  8
SCHEME_DIMS
100
AcDbDimension
 62
2
  6
CONTINUOUS
  2
*D3
 10
5.3766123877
 20
7.678390393
 11
6.6008249861
 21
7.603390393
 70
160
 71
2
 42
66.0
  3
DIMSTYLE_2
100
AcDbAlignedDimension
 13
7.9750375845
 23
5.710378582
 14
5.3766123877
 24
5.5066384245
 50
180.0
100
AcDbRotatedDimension
  0
LINE
  5
447
100
AcDbEntity
  8
0
100
AcDbLine
 62
2
  6
CONTINUOUS
 10
16.38
 20
0.887
 11
12.03
 21
0.887
  0
LINE
  5
448
100
AcDbEntity
  8
0
100
AcDbLine
 62
2
  6
CONTINUOUS
 10
16.38
 20
0.887
 11
16.38
 21
2.807
  0
LINE
  5
449
100
AcDbEntity
  8
0
100
AcDbLine
 62
2
  6
CONTINUOUS
 10
16.38
 20
2.807
 11
12.03
 21
2.807
  0
LINE
  5
44A
100
AcDbEntity
  8
0
100
AcDbLine
 62
2
  6
CONTINUOUS
 10
12.03
 20
0.887
 11
12.03
 21
2.807
  0
MTEXT
  5
44B
100
AcDbEntity
  8
NOTES
100
AcDbMText
 62
7
  6
CONTINUOUS
  7
STANDARD
 71
2
 72
1
 10
16.155
 20
1.367
 30
0.0
 11
1.0
 21
0.0
 31
0.0
 44
0.9
  1
A
 40
0.1
 41
0.1
  0
MTEXT
  5
44C
100
AcDbEntity
  8
NOTES
100
AcDbMText
 62
7
  6
CONTINUOUS
  7
STANDARD
 71
2
 72
1
 10
14.205
 20
1.967
 30
0.0
 11
1.0
 21
0.0
 31
0.0
 44
0.9
  1
K50C WEB QD \PWEB CAD DRAWINGS 2D/3D
 40
0.1
 41
2.2
  0
LEADER
  5
44D
100
AcDbEntity
  8
NOTES
100
AcDbLeader
 62
2
  6
CONTINUOUS
  3
STANDARD
 71
1
 72
0
 73
0
 75
0
 40
0.1
 41
0.9
 76
3
 10
7.2551777744
 20
4.9400790909
 30
0.0
 10
7.6808319905
 20
3.9086538474
 30
0.0
 10
7.9308319905
 20
3.9086538474
 30
0.0
340
44E
1001
ACAD
1000
DSTYLE
1002
{
1070
77
1070
0
1002
}
  0
MTEXT
  5
44E
102
{ACAD_REACTORS
330
44D
102
}
100
AcDbEntity
  8
NOTES
100
AcDbMText
 62
2
  6
CONTINUOUS
  7
STANDARD
 71
1
 72
1
 10
7.9308319905
 20
3.9586538474
 30
0.0
 11
1.0
 21
0.0
 31
0.0
 44
0.9
  1
M30 X 1.5
 40
0.1
 41
0.9
  0
LEADER
  5
44F
100
AcDbEntity
  8
NOTES
100
AcDbLeader
 62
2
  6
CONTINUOUS
  3
STANDARD
 71
1
 72
0
 73
0
 75
0
 40
0.1
 41
0.7
 76
3
 10
7.8086879598
 20
5.2717169345
 30
0.0
 10
8.2634168546
 20
4.2350305325
 30
0.0
 10
8.5134168546
 20
4.2350305325
 30
0.0
340
450
1001
ACAD
1000
DSTYLE
1002
{
1070
77
1070
0
1002
}
  0
MTEXT
  5
450
102
{ACAD_REACTORS
330
44F
102
}
100
AcDbEntity
  8
NOTES
100
AcDbMText
 62
2
  6
CONTINUOUS
  7
STANDARD
 71
1
 72
1
 10
8.5134168546
 20
4.2850305325
 30
0.0
 11
1.0
 21
0.0
 31
0.0
 44
0.9
  1
M12 X 1
 40
0.1
 41
0.7
  0
LEADER
  5
451
100
AcDbEntity
  8
NOTES
100
AcDbLeader
 62
2
  6
CONTINUOUS
  3
STANDARD
 71
1
 72
0
 73
0
 75
0
 40
0.1
 41
1.1
 76
3
 10
11.357837677
 20
5.6311513308
 30
0.0
 10
11.9943566552
 20
6.3549811107
 30
0.0
 10
12.2443566552
 20
6.3549811107
 30
0.0
340
452
1001
ACAD
1000
DSTYLE
1002
{
1070
77
1070
0
1002
}
  0
MTEXT
  5
452
102
{ACAD_REACTORS
330
451
102
}
100
AcDbEntity
  8
NOTES
100
AcDbMText
 62
2
  6
CONTINUOUS
  7
STANDARD
 71
1
 72
1
 10
12.2443566552
 20
6.4049811107
 30
0.0
 11
1.0
 21
0.0
 31
0.0
 44
0.9
  1
1/2-14 NPSM\PINTERNAL THREAD
 40
0.1
 41
1.5
  0
MTEXT
  5
453
100
AcDbEntity
  8
NOTES
100
AcDbMText
 62
2
  6
CONTINUOUS
  7
STANDARD
 71
2
 72
1
 10
14.9735967371
 20
6.842759129
 30
0.0
 11
1.0
 21
0.0
 31
0.0
 44
0.9
  1
ISOMETRIC VIEW\P\H0.1;SCALE  1:1
 40
0.125
 41
1.75
  0
LINE
  5
454
100
AcDbEntity
  8
0
100
AcDbLine
 62
2
  6
CONTINUOUS
 10
0.47
 20
5.586103
 11
0.47
 21
5.412897
  0
LINE
  5
455
100
AcDbEntity
  8
0
100
AcDbLine
 62
2
  6
CONTINUOUS
 10
0.62
 20
10.112
 11
0.62
 21
0.887
  0
LINE
  5
456
100
AcDbEntity
  8
0
100
AcDbLine
 62
2
  6
CONTINUOUS
 10
2.59
 20
0.887
 11
2.59
 21
0.637
  0
LINE
  5
457
100
AcDbEntity
  8
0
100
AcDbLine
 62
2
  6
CONTINUOUS
 10
2.59
 20
10.112
 11
2.59
 21
10.362
  0
LINE
  5
458
100
AcDbEntity
  8
0
100
AcDbLine
 62
2
  6
CONTINUOUS
 10
8.413397
 20
0.737
 11
8.586603
 21
0.737
  0
LINE
  5
459
100
AcDbEntity
  8
0
100
AcDbLine
 62
7
  6
CONTINUOUS
 10
11.1389508475
 20
1.425992839
 11
11.7453418475
 21
1.495385839
  0
LINE
  5
45A
100
AcDbEntity
  8
0
100
AcDbLine
 62
2
  6
CONTINUOUS
 10
0.62
 20
0.887
 11
16.38
 21
0.887
  0
LINE
  5
45B
100
AcDbEntity
  8
0
100
AcDbLine
 62
2
  6
CONTINUOUS
 10
12.03
 20
1.137
 11
16.38
 21
1.137
  0
LINE
  5
45C
100
AcDbEntity
  8
0
100
AcDbLine
 62
7
  6
CONTINUOUS
 10
10.2121898475
 20
1.243294839
 11
10.4342808475
 21
1.243294839
  0
LINE
  5
45D
100
AcDbEntity
  8
0
100
AcDbLine
 62
7
  6
CONTINUOUS
 10
10.4842808475
 20
1.243294839
 11
10.5842808475
 21
1.243294839
  0
LINE
  5
45E
100
AcDbEntity
  8
0
100
AcDbLine
 62
7
  6
CONTINUOUS
 10
10.6342808475
 20
1.243294839
 11
10.8563718475
 21
1.243294839
  0
LINE
  5
45F
100
AcDbEntity
  8
0
100
AcDbLine
 62
7
  6
CONTINUOUS
 10
11.0389508475
 20
1.243294839
 11
11.3171028475
 21
1.243294839
  0
LINE
  5
460
100
AcDbEntity
  8
0
100
AcDbLine
 62
7
  6
CONTINUOUS
 10
11.3671028475
 20
1.243294839
 11
11.5171888475
 21
1.243294839
  0
LINE
  5
461
100
AcDbEntity
  8
0
100
AcDbLine
 62
7
  6
CONTINUOUS
 10
11.5671888475
 20
1.243294839
 11
11.8453418475
 21
1.243294839
  0
LINE
  5
462
100
AcDbEntity
  8
0
100
AcDbLine
 62
7
  6
CONTINUOUS
 10
11.7453418475
 20
0.991203839
 11
11.1389508475
 21
1.060596839
  0
LINE
  5
463
100
AcDbEntity
  8
0
100
AcDbLine
 62
2
  6
CONTINUOUS
 10
4.56
 20
0.887
 11
4.56
 21
0.637
  0
LINE
  5
464
100
AcDbEntity
  8
0
100
AcDbLine
 62
2
  6
CONTINUOUS
 10
4.56
 20
10.112
 11
4.56
 21
10.362
  0
LINE
  5
465
100
AcDbEntity
  8
0
100
AcDbLine
 62
2
  6
CONTINUOUS
 10
0.47
 20
5.412897
 11
0.62
 21
5.4995
  0
LINE
  5
466
100
AcDbEntity
  8
0
100
AcDbLine
 62
2
  6
CONTINUOUS
 10
12.03
 20
1.507
 11
16.38
 21
1.507
  0
LINE
  5
467
100
AcDbEntity
  8
0
100
AcDbLine
 62
2
  6
CONTINUOUS
 10
10.03
 20
1.907
 11
12.03
 21
1.907
  0
LINE
  5
468
100
AcDbEntity
  8
0
100
AcDbLine
 62
2
  6
CONTINUOUS
 10
0.62
 20
5.4995
 11
0.47
 21
5.586103
  0
LINE
  5
469
100
AcDbEntity
  8
0
100
AcDbLine
 62
2
  6
CONTINUOUS
 10
12.03
 20
2.267
 11
16.38
 21
2.267
  0
LINE
  5
46A
100
AcDbEntity
  8
0
100
AcDbLine
 62
2
  6
CONTINUOUS
 10
8.5
 20
10.112
 11
8.586603
 21
10.262
  0
LINE
  5
46B
100
AcDbEntity
  8
0
100
AcDbLine
 62
2
  6
CONTINUOUS
 10
16.38
 20
2.807
 11
10.03
 21
2.807
  0
LINE
  5
46C
100
AcDbEntity
  8
0
100
AcDbLine
 62
2
  6
CONTINUOUS
 10
0.62
 20
3.1995
 11
0.37
 21
3.1995
  0
LINE
  5
46D
100
AcDbEntity
  8
0
100
AcDbLine
 62
2
  6
CONTINUOUS
 10
16.38
 20
3.1995
 11
16.63
 21
3.1995
  0
LINE
  5
46E
100
AcDbEntity
  8
0
100
AcDbLine
 62
2
  6
CONTINUOUS
 10
8.586603
 20
0.737
 11
8.5
 21
0.887
  0
LINE
  5
46F
100
AcDbEntity
  8
0
100
AcDbLine
 62
2
  6
CONTINUOUS
 10
6.53
 20
0.887
 11
6.53
 21
0.637
  0
LINE
  5
470
100
AcDbEntity
  8
0
100
AcDbLine
 62
2
  6
CONTINUOUS
 10
6.53
 20
10.112
 11
6.53
 21
10.362
  0
LINE
  5
471
100
AcDbEntity
  8
0
100
AcDbLine
 62
2
  6
CONTINUOUS
 10
8.5
 20
0.887
 11
8.5
 21
0.637
  0
LINE
  5
472
100
AcDbEntity
  8
0
100
AcDbLine
 62
2
  6
CONTINUOUS
 10
8.5
 20
10.112
 11
8.5
 21
10.362
  0
LINE
  5
473
100
AcDbEntity
  8
0
100
AcDbLine
 62
2
  6
CONTINUOUS
 10
0.62
 20
5.4995
 11
0.37
 21
5.4995
  0
LINE
  5
474
100
AcDbEntity
  8
0
100
AcDbLine
 62
2
  6
CONTINUOUS
 10
16.38
 20
5.4995
 11
16.63
 21
5.4995
  0
LINE
  5
475
100
AcDbEntity
  8
0
100
AcDbLine
 62
2
  6
CONTINUOUS
 10
10.03
 20
2.807
 11
10.03
 21
0.887
  0
LINE
  5
476
100
AcDbEntity
  8
0
100
AcDbLine
 62
2
  6
CONTINUOUS
 10
10.47
 20
0.887
 11
10.47
 21
0.637
  0
LINE
  5
477
100
AcDbEntity
  8
0
100
AcDbLine
 62
2
  6
CONTINUOUS
 10
10.47
 20
10.112
 11
10.47
 21
10.362
  0
LINE
  5
478
100
AcDbEntity
  8
0
100
AcDbLine
 62
7
  6
CONTINUOUS
 10
10.5342808475
 20
1.143294839
 11
10.5342808475
 21
0.921203839
  0
LINE
  5
479
100
AcDbEntity
  8
0
100
AcDbLine
 62
7
  6
CONTINUOUS
 10
10.5342808475
 20
1.193294839
 11
10.5342808475
 21
1.293294839
  0
LINE
  5
47A
100
AcDbEntity
  8
0
100
AcDbLine
 62
7
  6
CONTINUOUS
 10
10.5342808475
 20
1.343294839
 11
10.5342808475
 21
1.565385839
  0
LINE
  5
47B
100
AcDbEntity
  8
0
100
AcDbLine
 62
2
  6
CONTINUOUS
 10
8.5
 20
0.887
 11
8.413397
 21
0.737
  0
LINE
  5
47C
100
AcDbEntity
  8
0
100
AcDbLine
 62
2
  6
CONTINUOUS
 10
0.62
 20
7.7995
 11
0.37
 21
7.7995
  0
LINE
  5
47D
100
AcDbEntity
  8
0
100
AcDbLine
 62
2
  6
CONTINUOUS
 10
16.38
 20
7.7995
 11
16.63
 21
7.7995
  0
LINE
  5
47E
100
AcDbEntity
  8
0
100
AcDbLine
 62
2
  6
CONTINUOUS
 10
8.413397
 20
10.262
 11
8.5
 21
10.112
  0
LINE
  5
47F
100
AcDbEntity
  8
0
100
AcDbLine
 62
7
  6
CONTINUOUS
 10
11.1389508475
 20
1.060596839
 11
11.1389508475
 21
1.425992839
  0
LINE
  5
480
100
AcDbEntity
  8
0
100
AcDbLine
 62
7
  6
CONTINUOUS
 10
11.7453418475
 20
1.495385839
 11
11.7453418475
 21
0.991203839
  0
LINE
  5
481
100
AcDbEntity
  8
0
100
AcDbLine
 62
1
  6
CONTINUOUS
 10
12.03
 20
2.807
 11
12.03
 21
0.887
  0
LINE
  5
482
100
AcDbEntity
  8
0
100
AcDbLine
 62
2
  6
CONTINUOUS
 10
12.44
 20
0.887
 11
12.44
 21
0.637
  0
LINE
  5
483
100
AcDbEntity
  8
0
100
AcDbLine
 62
2
  6
CONTINUOUS
 10
12.44
 20
10.112
 11
12.44
 21
10.362
  0
LINE
  5
484
100
AcDbEntity
  8
0
100
AcDbLine
 62
2
  6
CONTINUOUS
 10
16.53
 20
5.586103
 11
16.38
 21
5.4995
  0
LINE
  5
485
100
AcDbEntity
  8
0
100
AcDbLine
 62
2
  6
CONTINUOUS
 10
16.38
 20
5.4995
 11
16.53
 21
5.412897
  0
LINE
  5
486
100
AcDbEntity
  8
0
100
AcDbLine
 62
2
  6
CONTINUOUS
 10
12.83
 20
1.507
 11
12.83
 21
1.137
  0
LINE
  5
487
100
AcDbEntity
  8
0
100
AcDbLine
 62
2
  6
CONTINUOUS
 10
16.38
 20
10.112
 11
0.62
 21
10.112
  0
LINE
  5
488
100
AcDbEntity
  8
0
100
AcDbLine
 62
2
  6
CONTINUOUS
 10
8.586603
 20
10.262
 11
8.413397
 21
10.262
  0
LINE
  5
489
100
AcDbEntity
  8
0
100
AcDbLine
 62
2
  6
CONTINUOUS
 10
14.205
 20
1.137
 11
14.205
 21
0.887
  0
LINE
  5
48A
100
AcDbEntity
  8
0
100
AcDbLine
 62
2
  6
CONTINUOUS
 10
14.41
 20
0.887
 11
14.41
 21
0.637
  0
LINE
  5
48B
100
AcDbEntity
  8
0
100
AcDbLine
 62
2
  6
CONTINUOUS
 10
14.41
 20
10.112
 11
14.41
 21
10.362
  0
LINE
  5
48C
100
AcDbEntity
  8
0
100
AcDbLine
 62
2
  6
CONTINUOUS
 10
15.58
 20
1.507
 11
15.58
 21
1.137
  0
LINE
  5
48D
100
AcDbEntity
  8
0
100
AcDbLine
 62
2
  6
CONTINUOUS
 10
16.38
 20
0.887
 11
16.38
 21
10.112
  0
LINE
  5
48E
100
AcDbEntity
  8
0
100
AcDbLine
 62
2
  6
CONTINUOUS
 10
16.53
 20
5.412897
 11
16.53
 21
5.586103
  0
LINE
  5
48F
100
AcDbEntity
  8
0
100
AcDbLine
 62
9
  6
CONTINUOUS
 10
5.4356675058
 20
4.9418805181
 11
5.4356675058
 21
5.9463963309
  0
LINE
  5
490
100
AcDbEntity
  8
0
100
AcDbLine
 62
9
  6
CONTINUOUS
 10
5.5358822517
 20
4.7592412794
 11
5.5358822517
 21
6.1290355696
  0
LINE
  5
491
100
AcDbEntity
  8
0
100
AcDbLine
 62
7
  6
CONTINUOUS
 10
6.7151950648
 20
4.459886456
 11
6.2427541199
 21
4.459886456
  0
LINE
  5
492
100
AcDbEntity
  8
02___PRT_ALL_AXES
100
AcDbLine
 62
7
  6
CONTINUOUS
 10
6.2427541199
 20
4.459886456
 11
6.7151950648
 21
4.459886456
  0
LINE
  5
493
100
AcDbEntity
  8
0
100
AcDbLine
 62
7
  6
CONTINUOUS
 10
6.7939352223
 20
4.9027998418
 11
6.8762758193
 21
4.9027998418
  0
LINE
  5
494
100
AcDbEntity
  8
02___PRT_ALL_AXES
100
AcDbLine
 62
7
  6
CONTINUOUS
 10
6.8762758193
 20
4.9027998418
 11
7.4560683581
 21
4.9027998418
  0
LINE
  5
495
100
AcDbEntity
  8
0
100
AcDbLine
 62
7
  6
CONTINUOUS
 10
7.4560683581
 20
4.9027998418
 11
7.5025966396
 21
4.9027998418
  0
LINE
  5
496
100
AcDbEntity
  8
02___PRT_ALL_AXES
100
AcDbLine
 62
7
  6
CONTINUOUS
 10
6.2427541199
 20
6.428390393
 11
6.2427541199
 21
4.459886456
  0
LINE
  5
497
100
AcDbEntity
  8
0
100
AcDbLine
 62
7
  6
CONTINUOUS
 10
7.8569273483
 20
5.1998667709
 11
7.8529903404
 21
5.1998667709
  0
LINE
  5
498
100
AcDbEntity
  8
0
100
AcDbLine
 62
7
  6
CONTINUOUS
 10
7.8175572696
 20
5.1998667709
 11
7.8136202617
 21
5.1998667709
  0
LINE
  5
499
100
AcDbEntity
  8
0
100
AcDbLine
 62
7
  6
CONTINUOUS
 10
7.7781871908
 20
5.1998667709
 11
7.7742501829
 21
5.1998667709
  0
LINE
  5
49A
100
AcDbEntity
  8
0
100
AcDbLine
 62
7
  6
CONTINUOUS
 10
7.7388171121
 20
5.1998667709
 11
7.7348801042
 21
5.1998667709
  0
LINE
  5
49B
100
AcDbEntity
  8
0
100
AcDbLine
 62
7
  6
CONTINUOUS
 10
7.6994470333
 20
5.1998667709
 11
7.6955100255
 21
5.1998667709
  0
LINE
  5
49C
100
AcDbEntity
  8
0
100
AcDbLine
 62
7
  6
CONTINUOUS
 10
7.6600769546
 20
5.1998667709
 11
7.6561399467
 21
5.1998667709
  0
LINE
  5
49D
100
AcDbEntity
  8
0
100
AcDbLine
 62
7
  6
CONTINUOUS
 10
7.6207068759
 20
5.1998667709
 11
7.616769868
 21
5.1998667709
  0
LINE
  5
49E
100
AcDbEntity
  8
0
100
AcDbLine
 62
7
  6
CONTINUOUS
 10
7.5813367971
 20
5.1998667709
 11
7.5571472611
 21
5.1998667709
  0
LINE
  5
49F
100
AcDbEntity
  8
02___PRT_ALL_AXES
100
AcDbLine
 62
7
  6
CONTINUOUS
 10
7.5571472611
 20
5.1998667709
 11
7.5813367971
 21
5.1998667709
  0
LINE
  5
4A0
100
AcDbEntity
  8
02___PRT_ALL_AXES
100
AcDbLine
 62
7
  6
CONTINUOUS
 10
7.616769868
 20
5.1998667709
 11
7.6207068759
 21
5.1998667709
  0
LINE
  5
4A1
100
AcDbEntity
  8
02___PRT_ALL_AXES
100
AcDbLine
 62
7
  6
CONTINUOUS
 10
7.6561399467
 20
5.1998667709
 11
7.6600769546
 21
5.1998667709
  0
LINE
  5
4A2
100
AcDbEntity
  8
02___PRT_ALL_AXES
100
AcDbLine
 62
7
  6
CONTINUOUS
 10
7.6955100255
 20
5.1998667709
 11
7.6994470333
 21
5.1998667709
  0
LINE
  5
4A3
100
AcDbEntity
  8
02___PRT_ALL_AXES
100
AcDbLine
 62
7
  6
CONTINUOUS
 10
7.7348801042
 20
5.1998667709
 11
7.7388171121
 21
5.1998667709
  0
LINE
  5
4A4
100
AcDbEntity
  8
02___PRT_ALL_AXES
100
AcDbLine
 62
7
  6
CONTINUOUS
 10
7.7742501829
 20
5.1998667709
 11
7.7781871908
 21
5.1998667709
  0
LINE
  5
4A5
100
AcDbEntity
  8
02___PRT_ALL_AXES
100
AcDbLine
 62
7
  6
CONTINUOUS
 10
7.8136202617
 20
5.1998667709
 11
7.8175572696
 21
5.1998667709
  0
LINE
  5
4A6
100
AcDbEntity
  8
02___PRT_ALL_AXES
100
AcDbLine
 62
7
  6
CONTINUOUS
 10
7.8529903404
 20
5.1998667709
 11
7.8569273483
 21
5.1998667709
  0
LINE
  5
4A7
100
AcDbEntity
  8
02___PRT_ALL_AXES
100
AcDbLine
 62
7
  6
CONTINUOUS
 10
7.8923604192
 20
5.1998667709
 11
7.896297427
 21
5.1998667709
  0
LINE
  5
4A8
100
AcDbEntity
  8
0
100
AcDbLine
 62
7
  6
CONTINUOUS
 10
7.9750375845
 20
5.240398267
 11
7.9356675058
 21
5.240398267
  0
LINE
  5
4A9
100
AcDbEntity
  8
02___PRT_ALL_AXES
100
AcDbLine
 62
7
  6
CENTER
 10
8.0795293308
 20
5.4441384245
 11
5.2766123877
 21
5.4441384245
  0
LINE
  5
4AA
100
AcDbEntity
  8
0
100
AcDbLine
 62
9
  6
CONTINUOUS
 10
6.7151950648
 20
4.459886456
 11
6.7151950648
 21
6.428390393
  0
LINE
  5
4AB
100
AcDbEntity
  8
0
100
AcDbLine
 62
7
  6
CONTINUOUS
 10
6.7545651436
 20
4.4992565347
 11
6.7545651436
 21
6.3890203143
  0
LINE
  5
4AC
100
AcDbEntity
  8
0
100
AcDbLine
 62
9
  6
CONTINUOUS
 10
6.7939352223
 20
5.9854770072
 11
6.7939352223
 21
4.9027998418
  0
LWPOLYLINE
  5
4AD
100
AcDbEntity
  8
02___PRT_ALL_AXES
100
AcDbPolyline
 62
7
  6
CONTINUOUS
 90
9
 70
0
 10
6.8503060236
 20
5.9854770072
 10
6.8517401435
 20
5.9634263773
 10
6.8531720064
 20
5.929372046
 10
6.8546059784
 20
5.8840034037
 10
6.8560500941
 20
5.8279892233
 10
6.857511388
 20
5.7621088037
 10
6.8589707053
 20
5.6886616347
 10
6.8604118322
 20
5.6103489589
 10
6.8618421265
 20
5.5287641375
  0
LWPOLYLINE
  5
4AE
100
AcDbEntity
  8
02___PRT_ALL_AXES
100
AcDbPolyline
 62
7
  6
CONTINUOUS
 90
10
 70
0
 10
6.9245722951
 20
4.9027998418
 10
6.92312247
 20
4.9251599431
 10
6.9216821515
 20
4.9595784505
 10
6.9202530742
 20
5.0049552036
 10
6.9188083262
 20
5.0611259007
 10
6.9173469768
 20
5.1271245669
 10
6.9158877547
 20
5.2006594534
 10
6.9144468176
 20
5.2790279993
 10
6.9130108688
 20
5.3609804461
 10
6.9101386023
 20
5.5287641375
  0
LWPOLYLINE
  5
4AF
100
AcDbEntity
  8
02___PRT_ALL_AXES
100
AcDbPolyline
 62
7
  6
CONTINUOUS
 90
16
 70
0
 10
6.8947950833
 20
4.9027998418
 10
6.8933221674
 20
4.9447029136
 10
6.8918492516
 20
4.9988462542
 10
6.8903763357
 20
5.0639029075
 10
6.8889034199
 20
5.1382784515
 10
6.887430504
 20
5.2201500751
 10
6.8859575882
 20
5.3075112515
 10
6.8844846724
 20
5.3982209149
 10
6.8830117565
 20
5.4900559341
 10
6.8815388407
 20
5.5807655975
 10
6.8800659248
 20
5.6681267739
 10
6.878593009
 20
5.7499983974
 10
6.8771200931
 20
5.8243739415
 10
6.8756471773
 20
5.8894305948
 10
6.8741742614
 20
5.9435739354
 10
6.8727013456
 20
5.9854770072
  0
LWPOLYLINE
  5
4B0
100
AcDbEntity
  8
02___PRT_ALL_AXES
100
AcDbPolyline
 62
7
  6
CONTINUOUS
 90
16
 70
0
 10
6.902176973
 20
4.9027998418
 10
6.9007040572
 20
4.9447029136
 10
6.8992311413
 20
4.9988462542
 10
6.8977582255
 20
5.0639029075
 10
6.8962853097
 20
5.1382784515
 10
6.8948123938
 20
5.2201500751
 10
6.893339478
 20
5.3075112515
 10
6.8918665621
 20
5.3982209149
 10
6.8903936463
 20
5.4900559341
 10
6.8889207304
 20
5.5807655975
 10
6.8874478146
 20
5.6681267739
 10
6.8859748987
 20
5.7499983974
 10
6.8845019829
 20
5.8243739415
 10
6.8830290671
 20
5.8894305948
 10
6.8815561512
 20
5.9435739354
 10
6.8800832354
 20
5.9854770072
  0
LWPOLYLINE
  5
4B1
100
AcDbEntity
  8
02___PRT_ALL_AXES
100
AcDbPolyline
 62
7
  6
CONTINUOUS
 90
10
 70
0
 10
6.8618421265
 20
5.5287641375
 10
6.864714393
 20
5.3609804461
 10
6.8661503418
 20
5.2790279993
 10
6.867591279
 20
5.2006594534
 10
6.8690505011
 20
5.1271245669
 10
6.8705118504
 20
5.0611259007
 10
6.8719565984
 20
5.0049552036
 10
6.8733856757
 20
4.9595784505
 10
6.8748259942
 20
4.9251599431
 10
6.8762758193
 20
4.9027998418
  0
LINE
  5
4B2
100
AcDbEntity
  8
0
100
AcDbLine
 62
7
  6
CONTINUOUS
 10
7.9075405343
 20
5.6808558935
 11
7.9077223436
 21
5.6809222233
  0
LINE
  5
4B3
100
AcDbEntity
  8
0
100
AcDbLine
 62
7
  6
CONTINUOUS
 10
7.9750375845
 20
5.647878582
 11
7.9356675058
 21
5.647878582
  0
LINE
  5
4B4
100
AcDbEntity
  8
0
100
AcDbLine
 62
7
  6
CONTINUOUS
 10
7.9200102645
 20
5.2199044252
 11
7.9202021575
 21
5.2198344423
  0
LWPOLYLINE
  5
4B5
100
AcDbEntity
  8
02___PRT_ALL_AXES
100
AcDbPolyline
 62
7
  6
CONTINUOUS
 90
9
 70
0
 10
7.0426825313
 20
4.9027998418
 10
7.0412480155
 20
4.9248582552
 10
7.0398163474
 20
4.9589103947
 10
7.0383824127
 20
5.004279233
 10
7.0369382493
 20
5.0602965248
 10
7.0354768844
 20
5.1261815769
 10
7.0340174156
 20
5.1996380212
 10
7.0325761235
 20
5.2779613865
 10
7.0311455758
 20
5.359562117
  0
LWPOLYLINE
  5
4B6
100
AcDbEntity
  8
02___PRT_ALL_AXES
100
AcDbPolyline
 62
7
  6
CONTINUOUS
 90
10
 70
0
 10
6.9684162598
 20
5.9854770072
 10
6.9698657217
 20
5.9631240783
 10
6.9713055087
 20
5.928723402
 10
6.9727346582
 20
5.8833507896
 10
6.9741795797
 20
5.8271783178
 10
6.9756410629
 20
5.761176993
 10
6.9771003414
 20
5.6876415291
 10
6.9785413322
 20
5.6092715138
 10
6.9799772368
 20
5.5273224464
 10
6.9828491
 20
5.359562117
  0
LWPOLYLINE
  5
4B7
100
AcDbEntity
  8
02___PRT_ALL_AXES
100
AcDbPolyline
 62
7
  6
CONTINUOUS
 90
9
 70
0
 10
6.9093611417
 20
5.9854770072
 10
6.9108218153
 20
5.962902289
 10
6.9122780177
 20
5.9279493166
 10
6.9137162818
 20
5.882045668
 10
6.9151496254
 20
5.8261158338
 10
6.9165853824
 20
5.7612039708
 10
6.9180145031
 20
5.6892564146
 10
6.9194453913
 20
5.611553954
 10
6.9208867109
 20
5.5293744872
  0
LWPOLYLINE
  5
4B8
100
AcDbEntity
  8
02___PRT_ALL_AXES
100
AcDbPolyline
 62
7
  6
CONTINUOUS
 90
9
 70
0
 10
6.9836274132
 20
4.9027998418
 10
6.9821667609
 20
4.9253741354
 10
6.9807105014
 20
4.9603285376
 10
6.9792721717
 20
5.0062347909
 10
6.9778386568
 20
5.0621725408
 10
6.9764025196
 20
5.1271041965
 10
6.97497346
 20
5.199051521
 10
6.9735427299
 20
5.276747121
 10
6.9721014685
 20
5.3589241144
  0
LWPOLYLINE
  5
4B9
100
AcDbEntity
  8
02___PRT_ALL_AXES
100
AcDbPolyline
 62
7
  6
CONTINUOUS
 90
16
 70
0
 10
6.9538502014
 20
4.9027998418
 10
6.9523772855
 20
4.9447029136
 10
6.9509043697
 20
4.9988462542
 10
6.9494314538
 20
5.0639029075
 10
6.947958538
 20
5.1382784515
 10
6.9464856222
 20
5.2201500751
 10
6.9450127063
 20
5.3075112515
 10
6.9435397905
 20
5.3982209149
 10
6.9420668746
 20
5.4900559341
 10
6.9405939588
 20
5.5807655975
 10
6.9391210429
 20
5.6681267739
 10
6.9376481271
 20
5.7499983974
 10
6.9361752112
 20
5.8243739415
 10
6.9347022954
 20
5.8894305948
 10
6.9332293796
 20
5.9435739354
 10
6.9317564637
 20
5.9854770072
  0
LWPOLYLINE
  5
4BA
100
AcDbEntity
  8
02___PRT_ALL_AXES
100
AcDbPolyline
 62
7
  6
CONTINUOUS
 90
5
 70
0
 10
6.9612320911
 20
4.9027998418
 10
6.9597591753
 20
4.9447029136
 10
6.9582862595
 20
4.9988462542
 10
6.9568133436
 20
5.0639029075
 10
6.9553404278
 20
5.1382784515
  0
LWPOLYLINE
  5
4BB
100
AcDbEntity
  8
02___PRT_ALL_AXES
100
AcDbPolyline
 62
7
  6
CONTINUOUS
 90
16
 70
0
 10
7.0129053195
 20
4.9027998418
 10
7.0114324036
 20
4.9447029136
 10
7.0099594878
 20
4.9988462542
 10
7.008486572
 20
5.0639029075
 10
7.0070136561
 20
5.1382784515
 10
7.0055407403
 20
5.2201500751
 10
7.0040678244
 20
5.3075112515
 10
7.0025949086
 20
5.3982209149
 10
7.0011219927
 20
5.4900559341
 10
6.9996490769
 20
5.5807655975
 10
6.998176161
 20
5.6681267739
 10
6.9967032452
 20
5.7499983974
 10
6.9952303294
 20
5.8243739415
 10
6.9937574135
 20
5.8894305948
 10
6.9922844977
 20
5.9435739354
 10
6.9908115818
 20
5.9854770072
  0
LWPOLYLINE
  5
4BC
100
AcDbEntity
  8
02___PRT_ALL_AXES
100
AcDbPolyline
 62
7
  6
CONTINUOUS
 90
16
 70
0
 10
7.0202872093
 20
4.9027998418
 10
7.0188142934
 20
4.9447029136
 10
7.0173413776
 20
4.9988462542
 10
7.0158684617
 20
5.0639029075
 10
7.0143955459
 20
5.1382784515
 10
7.01292263
 20
5.2201500751
 10
7.0114497142
 20
5.3075112515
 10
7.0099767983
 20
5.3982209149
 10
7.0085038825
 20
5.4900559341
 10
7.0070309667
 20
5.5807655975
 10
7.0055580508
 20
5.6681267739
 10
7.004085135
 20
5.7499983974
 10
7.0026122191
 20
5.8243739415
 10
7.0011393033
 20
5.8894305948
 10
6.9996663874
 20
5.9435739354
 10
6.9981934716
 20
5.9854770072
  0
LWPOLYLINE
  5
4BD
100
AcDbEntity
  8
02___PRT_ALL_AXES
100
AcDbPolyline
 62
7
  6
CONTINUOUS
 90
4
 70
0
 10
6.9553404278
 20
5.1382784515
 10
6.9538675119
 20
5.2201500751
 10
6.9523945961
 20
5.3075112515
 10
6.9509216802
 20
5.3982209149
  0
LWPOLYLINE
  5
4BE
100
AcDbEntity
  8
02___PRT_ALL_AXES
100
AcDbPolyline
 62
7
  6
CONTINUOUS
 90
9
 70
0
 10
6.9101386023
 20
5.5287641375
 10
6.908708308
 20
5.6103489589
 10
6.9072671811
 20
5.6886616347
 10
6.9058078638
 20
5.7621088037
 10
6.9043465698
 20
5.8279892233
 10
6.9029024542
 20
5.8840034037
 10
6.9014684822
 20
5.929372046
 10
6.9000366192
 20
5.9634263773
 10
6.8986024993
 20
5.9854770072
  0
LWPOLYLINE
  5
4BF
100
AcDbEntity
  8
02___PRT_ALL_AXES
100
AcDbPolyline
 62
7
  6
CONTINUOUS
 90
9
 70
0
 10
6.9828491
 20
5.359562117
 10
6.9842796478
 20
5.2779613865
 10
6.9857209398
 20
5.1996380212
 10
6.9871804086
 20
5.1261815769
 10
6.9886417736
 20
5.0602965248
 10
6.9900859369
 20
5.004279233
 10
6.9915198716
 20
4.9589103947
 10
6.9929515397
 20
4.9248582552
 10
6.9943860555
 20
4.9027998418
  0
LWPOLYLINE
  5
4C0
100
AcDbEntity
  8
02___PRT_ALL_AXES
100
AcDbPolyline
 62
7
  6
CONTINUOUS
 90
10
 70
0
 10
6.9208867109
 20
5.5293744872
 10
6.9238049927
 20
5.3589241144
 10
6.9252462542
 20
5.276747121
 10
6.9266769842
 20
5.199051521
 10
6.9281060438
 20
5.1271041965
 10
6.9295421811
 20
5.0621725408
 10
6.930975696
 20
5.0062347909
 10
6.9324140256
 20
4.9603285376
 10
6.9338702852
 20
4.9253741354
 10
6.9353309374
 20
4.9027998418
  0
LWPOLYLINE
  5
4C1
100
AcDbEntity
  8
02___PRT_ALL_AXES
100
AcDbPolyline
 62
7
  6
CONTINUOUS
 90
10
 70
0
 10
6.9721014685
 20
5.3589241144
 10
6.9691831867
 20
5.5293744872
 10
6.9677418671
 20
5.611553954
 10
6.9663109788
 20
5.6892564146
 10
6.9648818582
 20
5.7612039708
 10
6.9634461012
 20
5.8261158338
 10
6.9620127575
 20
5.882045668
 10
6.9605744935
 20
5.9279493166
 10
6.9591182911
 20
5.962902289
 10
6.9576576174
 20
5.9854770072
  0
LWPOLYLINE
  5
4C2
100
AcDbEntity
  8
02___PRT_ALL_AXES
100
AcDbPolyline
 62
7
  6
CONTINUOUS
 90
9
 70
0
 10
6.9509216802
 20
5.3982209149
 10
6.9494487644
 20
5.4900559341
 10
6.9479758485
 20
5.5807655975
 10
6.9465029327
 20
5.6681267739
 10
6.9450300169
 20
5.7499983974
 10
6.943557101
 20
5.8243739415
 10
6.9420841852
 20
5.8894305948
 10
6.9406112693
 20
5.9435739354
 10
6.9391383535
 20
5.9854770072
  0
LINE
  5
4C3
100
AcDbEntity
  8
02___PRT_ALL_AXES
100
AcDbLine
 62
7
  6
CONTINUOUS
 10
7.5571472611
 20
5.688410078
 11
7.5616517577
 21
5.688410078
  0
LINE
  5
4C4
100
AcDbEntity
  8
02___PRT_ALL_AXES
100
AcDbLine
 62
7
  6
CONTINUOUS
 10
7.5970848286
 20
5.688410078
 11
7.6010218365
 21
5.688410078
  0
LINE
  5
4C5
100
AcDbEntity
  8
02___PRT_ALL_AXES
100
AcDbLine
 62
7
  6
CONTINUOUS
 10
7.6364549073
 20
5.688410078
 11
7.6403919152
 21
5.688410078
  0
LINE
  5
4C6
100
AcDbEntity
  8
02___PRT_ALL_AXES
100
AcDbLine
 62
7
  6
CONTINUOUS
 10
7.6758249861
 20
5.688410078
 11
7.679761994
 21
5.688410078
  0
LINE
  5
4C7
100
AcDbEntity
  8
02___PRT_ALL_AXES
100
AcDbLine
 62
7
  6
CONTINUOUS
 10
7.7151950648
 20
5.688410078
 11
7.7191320727
 21
5.688410078
  0
LINE
  5
4C8
100
AcDbEntity
  8
02___PRT_ALL_AXES
100
AcDbLine
 62
7
  6
CONTINUOUS
 10
7.7545651436
 20
5.688410078
 11
7.7585021514
 21
5.688410078
  0
LINE
  5
4C9
100
AcDbEntity
  8
02___PRT_ALL_AXES
100
AcDbLine
 62
7
  6
CONTINUOUS
 10
7.7939352223
 20
5.688410078
 11
7.7978722302
 21
5.688410078
  0
LINE
  5
4CA
100
AcDbEntity
  8
02___PRT_ALL_AXES
100
AcDbLine
 62
7
  6
CONTINUOUS
 10
7.833305301
 20
5.688410078
 11
7.8372423089
 21
5.688410078
  0
LINE
  5
4CB
100
AcDbEntity
  8
02___PRT_ALL_AXES
100
AcDbLine
 62
7
  6
CONTINUOUS
 10
7.8726753798
 20
5.688410078
 11
7.8766123877
 21
5.688410078
  0
LWPOLYLINE
  5
4CC
100
AcDbEntity
  8
02___PRT_ALL_AXES
100
AcDbPolyline
 62
7
  6
CONTINUOUS
 90
9
 70
0
 10
7.1607927675
 20
4.9027998418
 10
7.1593600387
 20
4.9248231309
 10
7.1579200755
 20
4.9590915465
 10
7.1564873296
 20
5.0044672827
 10
7.1550481613
 20
5.0603101731
 10
7.1535915503
 20
5.1259694204
 10
7.1521367825
 20
5.1991582507
 10
7.1506999208
 20
5.2772033037
 10
7.1492731594
 20
5.358557002
  0
LWPOLYLINE
  5
4CD
100
AcDbEntity
  8
02___PRT_ALL_AXES
100
AcDbPolyline
 62
7
  6
CONTINUOUS
 90
10
 70
0
 10
7.0274713779
 20
5.9854770072
 10
7.0289300351
 20
5.962942233
 10
7.0303842114
 20
5.9280628439
 10
7.0318210706
 20
5.8822395914
 10
7.0332581682
 20
5.8261874205
 10
7.0347060277
 20
5.7607044661
 10
7.0361460916
 20
5.6881342557
 10
7.0375716705
 20
5.6106573523
 10
7.0390113655
 20
5.5285390227
 10
7.0419256391
 20
5.3583210189
  0
LWPOLYLINE
  5
4CE
100
AcDbEntity
  8
02___PRT_ALL_AXES
100
AcDbPolyline
 62
7
  6
CONTINUOUS
 90
9
 70
0
 10
7.1017376494
 20
4.9027998418
 10
7.1002790103
 20
4.9253342569
 10
7.0988246883
 20
4.9602175848
 10
7.0973887788
 20
5.0060080054
 10
7.0959623489
 20
5.0616040436
 10
7.0945328091
 20
5.1261429388
 10
7.0930940609
 20
5.1985072486
 10
7.0916611037
 20
5.2762925121
 10
7.0902221149
 20
5.3583210189
  0
LWPOLYLINE
  5
4CF
100
AcDbEntity
  8
02___PRT_ALL_AXES
100
AcDbPolyline
 62
7
  6
CONTINUOUS
 90
10
 70
0
 10
7.086526496
 20
5.9854770072
 10
7.087983848
 20
5.9629680751
 10
7.0894367676
 20
5.928134748
 10
7.0908720003
 20
5.8823885956
 10
7.0923056786
 20
5.8265088709
 10
7.0937580704
 20
5.7608520865
 10
7.0952099933
 20
5.6876722669
 10
7.0966456384
 20
5.6096032602
 10
7.0980817993
 20
5.5276513471
 10
7.1009766837
 20
5.358557002
  0
LWPOLYLINE
  5
4D0
100
AcDbEntity
  8
02___PRT_ALL_AXES
100
AcDbPolyline
 62
7
  6
CONTINUOUS
 90
16
 70
0
 10
7.0719604376
 20
4.9027998418
 10
7.0704875218
 20
4.9447029136
 10
7.0690146059
 20
4.9988462542
 10
7.0675416901
 20
5.0639029075
 10
7.0660687742
 20
5.1382784515
 10
7.0645958584
 20
5.2201500751
 10
7.0631229425
 20
5.3075112515
 10
7.0616500267
 20
5.3982209149
 10
7.0601771108
 20
5.4900559341
 10
7.058704195
 20
5.5807655975
 10
7.0572312792
 20
5.6681267739
 10
7.0557583633
 20
5.7499983974
 10
7.0542854475
 20
5.8243739415
 10
7.0528125316
 20
5.8894305948
 10
7.0513396158
 20
5.9435739354
 10
7.0498666999
 20
5.9854770072
  0
LWPOLYLINE
  5
4D1
100
AcDbEntity
  8
02___PRT_ALL_AXES
100
AcDbPolyline
 62
7
  6
CONTINUOUS
 90
16
 70
0
 10
7.0793423274
 20
4.9027998418
 10
7.0778694115
 20
4.9447029136
 10
7.0763964957
 20
4.9988462542
 10
7.0749235798
 20
5.0639029075
 10
7.073450664
 20
5.1382784515
 10
7.0719777481
 20
5.2201500751
 10
7.0705048323
 20
5.3075112515
 10
7.0690319165
 20
5.3982209149
 10
7.0675590006
 20
5.4900559341
 10
7.0660860848
 20
5.5807655975
 10
7.0646131689
 20
5.6681267739
 10
7.0631402531
 20
5.7499983974
 10
7.0616673372
 20
5.8243739415
 10
7.0601944214
 20
5.8894305948
 10
7.0587215055
 20
5.9435739354
 10
7.0572485897
 20
5.9854770072
  0
LWPOLYLINE
  5
4D2
100
AcDbEntity
  8
02___PRT_ALL_AXES
100
AcDbPolyline
 62
7
  6
CONTINUOUS
 90
16
 70
0
 10
7.1310155557
 20
4.9027998418
 10
7.1295426399
 20
4.9447029136
 10
7.128069724
 20
4.9988462542
 10
7.1265968082
 20
5.0639029075
 10
7.1251238923
 20
5.1382784515
 10
7.1236509765
 20
5.2201500751
 10
7.1221780606
 20
5.3075112515
 10
7.1207051448
 20
5.3982209149
 10
7.119232229
 20
5.4900559341
 10
7.1177593131
 20
5.5807655975
 10
7.1162863973
 20
5.6681267739
 10
7.1148134814
 20
5.7499983974
 10
7.1133405656
 20
5.8243739415
 10
7.1118676497
 20
5.8894305948
 10
7.1103947339
 20
5.9435739354
 10
7.108921818
 20
5.9854770072
  0
LWPOLYLINE
  5
4D3
100
AcDbEntity
  8
02___PRT_ALL_AXES
100
AcDbPolyline
 62
7
  6
CONTINUOUS
 90
16
 70
0
 10
7.1383974455
 20
4.9027998418
 10
7.1369245296
 20
4.9447029136
 10
7.1354516138
 20
4.9988462542
 10
7.1339786979
 20
5.0639029075
 10
7.1325057821
 20
5.1382784515
 10
7.1310328663
 20
5.2201500751
 10
7.1295599504
 20
5.3075112515
 10
7.1280870346
 20
5.3982209149
 10
7.1266141187
 20
5.4900559341
 10
7.1251412029
 20
5.5807655975
 10
7.123668287
 20
5.6681267739
 10
7.1221953712
 20
5.7499983974
 10
7.1207224553
 20
5.8243739415
 10
7.1192495395
 20
5.8894305948
 10
7.1177766236
 20
5.9435739354
 10
7.1163037078
 20
5.9854770072
  0
LWPOLYLINE
  5
4D4
100
AcDbEntity
  8
02___PRT_ALL_AXES
100
AcDbPolyline
 62
7
  6
CONTINUOUS
 90
9
 70
0
 10
7.0419256391
 20
5.3583210189
 10
7.0433646279
 20
5.2762925121
 10
7.0447975851
 20
5.1985072486
 10
7.0462363333
 20
5.1261429388
 10
7.0476658731
 20
5.0616040436
 10
7.049092303
 20
5.0060080054
 10
7.0505282126
 20
4.9602175848
 10
7.0519825346
 20
4.9253342569
 10
7.0534411736
 20
4.9027998418
  0
LWPOLYLINE
  5
4D5
100
AcDbEntity
  8
02___PRT_ALL_AXES
100
AcDbPolyline
 62
7
  6
CONTINUOUS
 90
9
 70
0
 10
7.1009766837
 20
5.358557002
 10
7.102403445
 20
5.2772033037
 10
7.1038403067
 20
5.1991582507
 10
7.1052950745
 20
5.1259694204
 10
7.1067516855
 20
5.0603101731
 10
7.1081908539
 20
5.0044672827
 10
7.1096235997
 20
4.9590915465
 10
7.1110635629
 20
4.9248231309
 10
7.1124962917
 20
4.9027998418
  0
LWPOLYLINE
  5
4D6
100
AcDbEntity
  8
02___PRT_ALL_AXES
100
AcDbPolyline
 62
7
  6
CONTINUOUS
 90
10
 70
0
 10
7.0311455758
 20
5.359562117
 10
7.0282737126
 20
5.5273224464
 10
7.026837808
 20
5.6092715138
 10
7.0253968172
 20
5.6876415291
 10
7.0239375387
 20
5.761176993
 10
7.0224760554
 20
5.8271783178
 10
7.0210311339
 20
5.8833507896
 10
7.0196019844
 20
5.928723402
 10
7.0181621975
 20
5.9631240783
 10
7.0167127355
 20
5.9854770072
  0
LWPOLYLINE
  5
4D7
100
AcDbEntity
  8
02___PRT_ALL_AXES
100
AcDbPolyline
 62
7
  6
CONTINUOUS
 90
10
 70
0
 10
7.0902221149
 20
5.3583210189
 10
7.0873078413
 20
5.5285390227
 10
7.0858681463
 20
5.6106573523
 10
7.0844425673
 20
5.6881342557
 10
7.0830025034
 20
5.7607044661
 10
7.081554644
 20
5.8261874205
 10
7.0801175463
 20
5.8822395914
 10
7.0786806872
 20
5.9280628439
 10
7.0772265109
 20
5.962942233
 10
7.0757678537
 20
5.9854770072
  0
LINE
  5
4D8
100
AcDbEntity
  8
0
100
AcDbLine
 62
7
  6
CONTINUOUS
 10
7.6361766963
 20
5.6881693383
 11
7.6364549073
 21
5.688410078
  0
LINE
  5
4D9
100
AcDbEntity
  8
0
100
AcDbLine
 62
7
  6
CONTINUOUS
 10
7.6164916569
 20
5.2001075107
 11
7.616769868
 21
5.1998667709
  0
LWPOLYLINE
  5
4DA
100
AcDbEntity
  8
02___PRT_ALL_AXES
100
AcDbPolyline
 62
7
  6
CONTINUOUS
 90
9
 70
0
 10
7.1455816141
 20
5.9854770072
 10
7.1470148852
 20
5.9634430624
 10
7.148455132
 20
5.9291623003
 10
7.1498879241
 20
5.8837787227
 10
7.1513271135
 20
5.8279290871
 10
7.1527837158
 20
5.7622650742
 10
7.1542383794
 20
5.6890776074
 10
7.1556751321
 20
5.6110360289
 10
7.1571023245
 20
5.5296559896
  0
LWPOLYLINE
  5
4DB
100
AcDbEntity
  8
02___PRT_ALL_AXES
100
AcDbPolyline
 62
7
  6
CONTINUOUS
 90
10
 70
0
 10
7.2198478856
 20
4.9027998418
 10
7.2183906024
 20
4.9253074133
 10
7.2169376646
 20
4.9601406837
 10
7.2155025125
 20
5.0058835887
 10
7.2140696631
 20
5.0617274275
 10
7.2126179869
 20
5.127344343
 10
7.2111664184
 20
5.2004977843
 10
7.2097308618
 20
5.2785550834
 10
7.208294671
 20
5.3605044364
 10
7.2053988002
 20
5.5296559896
  0
LWPOLYLINE
  5
4DC
100
AcDbEntity
  8
02___PRT_ALL_AXES
100
AcDbPolyline
 62
7
  6
CONTINUOUS
 90
16
 70
0
 10
7.1900706738
 20
4.9027998418
 10
7.188597758
 20
4.9447029136
 10
7.1871248421
 20
4.9988462542
 10
7.1856519263
 20
5.0639029075
 10
7.1841790104
 20
5.1382784515
 10
7.1827060946
 20
5.2201500751
 10
7.1812331788
 20
5.3075112515
 10
7.1797602629
 20
5.3982209149
 10
7.1782873471
 20
5.4900559341
 10
7.1768144312
 20
5.5807655975
 10
7.1753415154
 20
5.6681267739
 10
7.1738685995
 20
5.7499983974
 10
7.1723956837
 20
5.8243739415
 10
7.1709227678
 20
5.8894305948
 10
7.169449852
 20
5.9435739354
 10
7.1679769361
 20
5.9854770072
  0
LWPOLYLINE
  5
4DD
100
AcDbEntity
  8
02___PRT_ALL_AXES
100
AcDbPolyline
 62
7
  6
CONTINUOUS
 90
7
 70
0
 10
7.1974525636
 20
4.9027998418
 10
7.1959796477
 20
4.9447029136
 10
7.1945067319
 20
4.9988462542
 10
7.1930338161
 20
5.0639029075
 10
7.1915609002
 20
5.1382784515
 10
7.1900879844
 20
5.2201500751
 10
7.1886150685
 20
5.3075112515
  0
LWPOLYLINE
  5
4DE
100
AcDbEntity
  8
02___PRT_ALL_AXES
100
AcDbPolyline
 62
7
  6
CONTINUOUS
 90
16
 70
0
 10
7.2491257919
 20
4.9027998418
 10
7.2476528761
 20
4.9447029136
 10
7.2461799602
 20
4.9988462542
 10
7.2447070444
 20
5.0639029075
 10
7.2432341286
 20
5.1382784515
 10
7.2417612127
 20
5.2201500751
 10
7.2402882969
 20
5.3075112515
 10
7.238815381
 20
5.3982209149
 10
7.2373424652
 20
5.4900559341
 10
7.2358695493
 20
5.5807655975
 10
7.2343966335
 20
5.6681267739
 10
7.2329237176
 20
5.7499983974
 10
7.2314508018
 20
5.8243739415
 10
7.2299778859
 20
5.8894305948
 10
7.2285049701
 20
5.9435739354
 10
7.2270320543
 20
5.9854770072
  0
LWPOLYLINE
  5
4DF
100
AcDbEntity
  8
02___PRT_ALL_AXES
100
AcDbPolyline
 62
7
  6
CONTINUOUS
 90
9
 70
0
 10
7.2053988002
 20
5.5296559896
 10
7.2039716079
 20
5.6110360289
 10
7.2025348552
 20
5.6890776074
 10
7.2010801916
 20
5.7622650742
 10
7.1996235892
 20
5.8279290871
 10
7.1981843998
 20
5.8837787227
 10
7.1967516077
 20
5.9291623003
 10
7.1953113609
 20
5.9634430624
 10
7.1938780899
 20
5.9854770072
  0
LWPOLYLINE
  5
4E0
100
AcDbEntity
  8
02___PRT_ALL_AXES
100
AcDbPolyline
 62
7
  6
CONTINUOUS
 90
10
 70
0
 10
7.1492731594
 20
5.358557002
 10
7.146378275
 20
5.5276513471
 10
7.1449421142
 20
5.6096032602
 10
7.1435064691
 20
5.6876722669
 10
7.1420545462
 20
5.7608520865
 10
7.1406021544
 20
5.8265088709
 10
7.139168476
 20
5.8823885956
 10
7.1377332433
 20
5.928134748
 10
7.1362803238
 20
5.9629680751
 10
7.1348229718
 20
5.9854770072
  0
LWPOLYLINE
  5
4E1
100
AcDbEntity
  8
02___PRT_ALL_AXES
100
AcDbPolyline
 62
7
  6
CONTINUOUS
 90
10
 70
0
 10
7.1571023245
 20
5.5296559896
 10
7.1599981952
 20
5.3605044364
 10
7.161434386
 20
5.2785550834
 10
7.1628699427
 20
5.2004977843
 10
7.1643215111
 20
5.127344343
 10
7.1657731874
 20
5.0617274275
 10
7.1672060368
 20
5.0058835887
 10
7.1686411888
 20
4.9601406837
 10
7.1700941266
 20
4.9253074133
 10
7.1715514099
 20
4.9027998418
  0
LWPOLYLINE
  5
4E2
100
AcDbEntity
  8
02___PRT_ALL_AXES
100
AcDbPolyline
 62
7
  6
CONTINUOUS
 90
10
 70
0
 10
7.2161521101
 20
5.5299648996
 10
7.2190661737
 20
5.3597590743
 10
7.2205057361
 20
5.2776474052
 10
7.2219313581
 20
5.200166582
 10
7.2233719892
 20
5.1275670534
 10
7.2248201592
 20
5.0620716109
 10
7.2262573617
 20
5.0060185251
 10
7.2276940826
 20
4.9602031076
 10
7.229148131
 20
4.9253294628
 10
7.230606528
 20
4.9027998418
  0
LWPOLYLINE
  5
4E3
100
AcDbEntity
  8
02___PRT_ALL_AXES
100
AcDbPolyline
 62
7
  6
CONTINUOUS
 90
3
 70
0
 10
7.1886150685
 20
5.3075112515
 10
7.1871421527
 20
5.3982209149
 10
7.1856692368
 20
5.4900559341
  0
LWPOLYLINE
  5
4E4
100
AcDbEntity
  8
02___PRT_ALL_AXES
100
AcDbPolyline
 62
7
  6
CONTINUOUS
 90
8
 70
0
 10
7.1856692368
 20
5.4900559341
 10
7.184196321
 20
5.5807655975
 10
7.1827234051
 20
5.6681267739
 10
7.1812504893
 20
5.7499983974
 10
7.1797775734
 20
5.8243739415
 10
7.1783046576
 20
5.8894305948
 10
7.1768317418
 20
5.9435739354
 10
7.1753588259
 20
5.9854770072
  0
LINE
  5
4E5
100
AcDbEntity
  8
0
100
AcDbLine
 62
7
  6
CONTINUOUS
 10
7.675546775
 20
5.6881693383
 11
7.6758249861
 21
5.688410078
  0
LINE
  5
4E6
100
AcDbEntity
  8
0
100
AcDbLine
 62
7
  6
CONTINUOUS
 10
7.7149168537
 20
5.6881693383
 11
7.7151950648
 21
5.688410078
  0
LINE
  5
4E7
100
AcDbEntity
  8
0
100
AcDbLine
 62
7
  6
CONTINUOUS
 10
7.7542869325
 20
5.6881693383
 11
7.7545651436
 21
5.688410078
  0
LINE
  5
4E8
100
AcDbEntity
  8
0
100
AcDbLine
 62
7
  6
CONTINUOUS
 10
7.7936570112
 20
5.6881693383
 11
7.7939352223
 21
5.688410078
  0
LINE
  5
4E9
100
AcDbEntity
  8
0
100
AcDbLine
 62
7
  6
CONTINUOUS
 10
6.7939352223
 20
5.9854770072
 11
6.8503060236
 21
5.9854770072
  0
LINE
  5
4EA
100
AcDbEntity
  8
02___PRT_ALL_AXES
100
AcDbLine
 62
7
  6
CONTINUOUS
 10
6.8503060236
 20
5.9854770072
 11
7.4300985623
 21
5.9854770072
  0
LINE
  5
4EB
100
AcDbEntity
  8
0
100
AcDbLine
 62
7
  6
CONTINUOUS
 10
7.4300985623
 20
5.9854770072
 11
7.5025966396
 21
5.9854770072
  0
LINE
  5
4EC
100
AcDbEntity
  8
0
100
AcDbLine
 62
7
  6
CONTINUOUS
 10
7.6558617356
 20
5.2001075107
 11
7.6561399467
 21
5.1998667709
  0
LINE
  5
4ED
100
AcDbEntity
  8
0
100
AcDbLine
 62
7
  6
CONTINUOUS
 10
7.6952318144
 20
5.2001075107
 11
7.6955100255
 21
5.1998667709
  0
LINE
  5
4EE
100
AcDbEntity
  8
0
100
AcDbLine
 62
7
  6
CONTINUOUS
 10
7.7346018931
 20
5.2001075107
 11
7.7348801042
 21
5.1998667709
  0
LINE
  5
4EF
100
AcDbEntity
  8
0
100
AcDbLine
 62
7
  6
CONTINUOUS
 10
7.7739719719
 20
5.2001075107
 11
7.7742501829
 21
5.1998667709
  0
LWPOLYLINE
  5
4F0
100
AcDbEntity
  8
02___PRT_ALL_AXES
100
AcDbPolyline
 62
7
  6
CONTINUOUS
 90
9
 70
0
 10
7.2636918503
 20
5.9854770072
 10
7.2651259702
 20
5.9634263773
 10
7.2665578332
 20
5.929372046
 10
7.2679918052
 20
5.8840034037
 10
7.2694359208
 20
5.8279892233
 10
7.2708972148
 20
5.7621088037
 10
7.2723565321
 20
5.6886616347
 10
7.273797659
 20
5.6103489589
 10
7.2752279533
 20
5.5287641375
  0
LWPOLYLINE
  5
4F1
100
AcDbEntity
  8
02___PRT_ALL_AXES
100
AcDbPolyline
 62
7
  6
CONTINUOUS
 90
10
 70
0
 10
7.3379581218
 20
4.9027998418
 10
7.3365082967
 20
4.9251599431
 10
7.3350679782
 20
4.9595784505
 10
7.3336389009
 20
5.0049552036
 10
7.3321941529
 20
5.0611259007
 10
7.3307328036
 20
5.1271245669
 10
7.3292735815
 20
5.2006594534
 10
7.3278326444
 20
5.2790279993
 10
7.3263966956
 20
5.3609804461
 10
7.3235244291
 20
5.5287641375
  0
LWPOLYLINE
  5
4F2
100
AcDbEntity
  8
02___PRT_ALL_AXES
100
AcDbPolyline
 62
7
  6
CONTINUOUS
 90
9
 70
0
 10
7.2046367322
 20
5.9854770072
 10
7.2060952867
 20
5.9629442665
 10
7.2075494478
 20
5.9280661571
 10
7.2089851861
 20
5.8822836693
 10
7.2104113907
 20
5.8266999103
 10
7.2118411782
 20
5.7621527964
 10
7.213280201
 20
5.6897758859
 10
7.2147132101
 20
5.6119881229
 10
7.2161521101
 20
5.5299648996
  0
LWPOLYLINE
  5
4F3
100
AcDbEntity
  8
02___PRT_ALL_AXES
100
AcDbPolyline
 62
7
  6
CONTINUOUS
 90
9
 70
0
 10
7.2789030037
 20
4.9027998418
 10
7.2774446068
 20
4.9253294628
 10
7.2759905584
 20
4.9602031076
 10
7.2745538375
 20
5.0060185251
 10
7.273116635
 20
5.0620716109
 10
7.271668465
 20
5.1275670534
 10
7.2702278339
 20
5.200166582
 10
7.2688022119
 20
5.2776474052
 10
7.2673626495
 20
5.3597590743
  0
LWPOLYLINE
  5
4F4
100
AcDbEntity
  8
02___PRT_ALL_AXES
100
AcDbPolyline
 62
7
  6
CONTINUOUS
 90
16
 70
0
 10
7.2565076817
 20
4.9027998418
 10
7.2550347659
 20
4.9447029136
 10
7.25356185
 20
4.9988462542
 10
7.2520889342
 20
5.0639029075
 10
7.2506160183
 20
5.1382784515
 10
7.2491431025
 20
5.2201500751
 10
7.2476701866
 20
5.3075112515
 10
7.2461972708
 20
5.3982209149
 10
7.2447243549
 20
5.4900559341
 10
7.2432514391
 20
5.5807655975
 10
7.2417785232
 20
5.6681267739
 10
7.2403056074
 20
5.7499983974
 10
7.2388326916
 20
5.8243739415
 10
7.2373597757
 20
5.8894305948
 10
7.2358868599
 20
5.9435739354
 10
7.234413944
 20
5.9854770072
  0
LWPOLYLINE
  5
4F5
100
AcDbEntity
  8
02___PRT_ALL_AXES
100
AcDbPolyline
 62
7
  6
CONTINUOUS
 90
16
 70
0
 10
7.30818091
 20
4.9027998418
 10
7.3067079942
 20
4.9447029136
 10
7.3052350784
 20
4.9988462542
 10
7.3037621625
 20
5.0639029075
 10
7.3022892467
 20
5.1382784515
 10
7.3008163308
 20
5.2201500751
 10
7.299343415
 20
5.3075112515
 10
7.2978704991
 20
5.3982209149
 10
7.2963975833
 20
5.4900559341
 10
7.2949246674
 20
5.5807655975
 10
7.2934517516
 20
5.6681267739
 10
7.2919788357
 20
5.7499983974
 10
7.2905059199
 20
5.8243739415
 10
7.2890330041
 20
5.8894305948
 10
7.2875600882
 20
5.9435739354
 10
7.2860871724
 20
5.9854770072
  0
LWPOLYLINE
  5
4F6
100
AcDbEntity
  8
02___PRT_ALL_AXES
100
AcDbPolyline
 62
7
  6
CONTINUOUS
 90
16
 70
0
 10
7.3155627998
 20
4.9027998418
 10
7.314089884
 20
4.9447029136
 10
7.3126169681
 20
4.9988462542
 10
7.3111440523
 20
5.0639029075
 10
7.3096711364
 20
5.1382784515
 10
7.3081982206
 20
5.2201500751
 10
7.3067253047
 20
5.3075112515
 10
7.3052523889
 20
5.3982209149
 10
7.303779473
 20
5.4900559341
 10
7.3023065572
 20
5.5807655975
 10
7.3008336414
 20
5.6681267739
 10
7.2993607255
 20
5.7499983974
 10
7.2978878097
 20
5.8243739415
 10
7.2964148938
 20
5.8894305948
 10
7.294941978
 20
5.9435739354
 10
7.2934690621
 20
5.9854770072
  0
LWPOLYLINE
  5
4F7
100
AcDbEntity
  8
02___PRT_ALL_AXES
100
AcDbPolyline
 62
7
  6
CONTINUOUS
 90
9
 70
0
 10
7.3235244291
 20
5.5287641375
 10
7.3220941348
 20
5.6103489589
 10
7.3206530079
 20
5.6886616347
 10
7.3191936905
 20
5.7621088037
 10
7.3177323966
 20
5.8279892233
 10
7.3162882809
 20
5.8840034037
 10
7.314854309
 20
5.929372046
 10
7.313422446
 20
5.9634263773
 10
7.3119883261
 20
5.9854770072
  0
LWPOLYLINE
  5
4F8
100
AcDbEntity
  8
02___PRT_ALL_AXES
100
AcDbPolyline
 62
7
  6
CONTINUOUS
 90
10
 70
0
 10
7.2673626495
 20
5.3597590743
 10
7.2644485859
 20
5.5299648996
 10
7.2630096859
 20
5.6119881229
 10
7.2615766768
 20
5.6897758859
 10
7.260137654
 20
5.7621527964
 10
7.2587078665
 20
5.8266999103
 10
7.2572816619
 20
5.8822836693
 10
7.2558459235
 20
5.9280661571
 10
7.2543917625
 20
5.9629442665
 10
7.252933208
 20
5.9854770072
  0
LWPOLYLINE
  5
4F9
100
AcDbEntity
  8
02___PRT_ALL_AXES
100
AcDbPolyline
 62
7
  6
CONTINUOUS
 90
10
 70
0
 10
7.2752279533
 20
5.5287641375
 10
7.2781002198
 20
5.3609804461
 10
7.2795361686
 20
5.2790279993
 10
7.2809771057
 20
5.2006594534
 10
7.2824363278
 20
5.1271245669
 10
7.2838976772
 20
5.0611259007
 10
7.2853424252
 20
5.0049552036
 10
7.2867715025
 20
4.9595784505
 10
7.288211821
 20
4.9251599431
 10
7.2896616461
 20
4.9027998418
  0
LWPOLYLINE
  5
4FA
100
AcDbEntity
  8
02___PRT_ALL_AXES
100
AcDbPolyline
 62
7
  6
CONTINUOUS
 90
10
 70
0
 10
7.3342725377
 20
5.5293744872
 10
7.3371908195
 20
5.3589241144
 10
7.3386320809
 20
5.276747121
 10
7.340062811
 20
5.199051521
 10
7.3414918706
 20
5.1271041965
 10
7.3429280078
 20
5.0621725408
 10
7.3443615227
 20
5.0062347909
 10
7.3457998524
 20
4.9603285376
 10
7.3472561119
 20
4.9253741354
 10
7.3487167642
 20
4.9027998418
  0
LWPOLYLINE
  5
4FB
100
AcDbEntity
  8
0
100
AcDbPolyline
 62
7
  6
CONTINUOUS
 90
3
 70
0
 10
7.5920584896
 20
5.684120985
 10
7.593234691
 20
5.685890421
 10
7.5970848286
 20
5.688410078
  0
LINE
  5
4FC
100
AcDbEntity
  8
0
100
AcDbLine
 62
7
  6
CONTINUOUS
 10
7.83302709
 20
5.6881693383
 11
7.833305301
 21
5.688410078
  0
LINE
  5
4FD
100
AcDbEntity
  8
0
100
AcDbLine
 62
7
  6
CONTINUOUS
 10
7.8723971687
 20
5.6881693383
 11
7.8726753798
 21
5.688410078
  0
LINE
  5
4FE
100
AcDbEntity
  8
0
100
AcDbLine
 62
7
  6
CONTINUOUS
 10
7.8133420506
 20
5.2001075107
 11
7.8136202617
 21
5.1998667709
  0
LINE
  5
4FF
100
AcDbEntity
  8
0
100
AcDbLine
 62
7
  6
CONTINUOUS
 10
7.8527121293
 20
5.2001075107
 11
7.8529903404
 21
5.1998667709
  0
LINE
  5
500
100
AcDbEntity
  8
0
100
AcDbLine
 62
7
  6
CONTINUOUS
 10
7.8923604306
 20
5.1998667709
 11
7.8920822081
 21
5.2001075107
  0
LWPOLYLINE
  5
501
100
AcDbEntity
  8
02___PRT_ALL_AXES
100
AcDbPolyline
 62
7
  6
CONTINUOUS
 90
9
 70
0
 10
7.4560683581
 20
4.9027998418
 10
7.4546338423
 20
4.9248582552
 10
7.4532021742
 20
4.9589103947
 10
7.4517682395
 20
5.004279233
 10
7.4503240761
 20
5.0602965248
 10
7.4488627111
 20
5.1261815769
 10
7.4474032424
 20
5.1996380212
 10
7.4459619503
 20
5.2779613865
 10
7.4445314025
 20
5.359562117
  0
LWPOLYLINE
  5
502
100
AcDbEntity
  8
02___PRT_ALL_AXES
100
AcDbPolyline
 62
7
  6
CONTINUOUS
 90
9
 70
0
 10
7.3818020866
 20
5.9854770072
 10
7.3832515485
 20
5.9631240783
 10
7.3846913354
 20
5.928723402
 10
7.3861204849
 20
5.8833507896
 10
7.3875654064
 20
5.8271783178
 10
7.3890268897
 20
5.761176993
 10
7.3904861682
 20
5.6876415291
 10
7.391927159
 20
5.6092715138
 10
7.3933630636
 20
5.5273224464
  0
LWPOLYLINE
  5
503
100
AcDbEntity
  8
02___PRT_ALL_AXES
100
AcDbPolyline
 62
7
  6
CONTINUOUS
 90
9
 70
0
 10
7.3227469684
 20
5.9854770072
 10
7.3242076421
 20
5.962902289
 10
7.3256638445
 20
5.9279493166
 10
7.3271021085
 20
5.882045668
 10
7.3285354522
 20
5.8261158338
 10
7.3299712092
 20
5.7612039708
 10
7.3314003298
 20
5.6892564146
 10
7.3328312181
 20
5.611553954
 10
7.3342725377
 20
5.5293744872
  0
LWPOLYLINE
  5
504
100
AcDbEntity
  8
02___PRT_ALL_AXES
100
AcDbPolyline
 62
7
  6
CONTINUOUS
 90
9
 70
0
 10
7.39701324
 20
4.9027998418
 10
7.3955525877
 20
4.9253741354
 10
7.3940963282
 20
4.9603285376
 10
7.3926579985
 20
5.0062347909
 10
7.3912244836
 20
5.0621725408
 10
7.3897883464
 20
5.1271041965
 10
7.3883592867
 20
5.199051521
 10
7.3869285567
 20
5.276747121
 10
7.3854872952
 20
5.3589241144
  0
LWPOLYLINE
  5
505
100
AcDbEntity
  8
02___PRT_ALL_AXES
100
AcDbPolyline
 62
7
  6
CONTINUOUS
 90
16
 70
0
 10
7.3672360282
 20
4.9027998418
 10
7.3657631123
 20
4.9447029136
 10
7.3642901965
 20
4.9988462542
 10
7.3628172806
 20
5.0639029075
 10
7.3613443648
 20
5.1382784515
 10
7.3598714489
 20
5.2201500751
 10
7.3583985331
 20
5.3075112515
 10
7.3569256172
 20
5.3982209149
 10
7.3554527014
 20
5.4900559341
 10
7.3539797855
 20
5.5807655975
 10
7.3525068697
 20
5.6681267739
 10
7.3510339539
 20
5.7499983974
 10
7.349561038
 20
5.8243739415
 10
7.3480881222
 20
5.8894305948
 10
7.3466152063
 20
5.9435739354
 10
7.3451422905
 20
5.9854770072
  0
LWPOLYLINE
  5
506
100
AcDbEntity
  8
02___PRT_ALL_AXES
100
AcDbPolyline
 62
7
  6
CONTINUOUS
 90
16
 70
0
 10
7.3746179179
 20
4.9027998418
 10
7.3731450021
 20
4.9447029136
 10
7.3716720862
 20
4.9988462542
 10
7.3701991704
 20
5.0639029075
 10
7.3687262545
 20
5.1382784515
 10
7.3672533387
 20
5.2201500751
 10
7.3657804228
 20
5.3075112515
 10
7.364307507
 20
5.3982209149
 10
7.3628345912
 20
5.4900559341
 10
7.3613616753
 20
5.5807655975
 10
7.3598887595
 20
5.6681267739
 10
7.3584158436
 20
5.7499983974
 10
7.3569429278
 20
5.8243739415
 10
7.3554700119
 20
5.8894305948
 10
7.3539970961
 20
5.9435739354
 10
7.3525241802
 20
5.9854770072
  0
LWPOLYLINE
  5
507
100
AcDbEntity
  8
02___PRT_ALL_AXES
100
AcDbPolyline
 62
7
  6
CONTINUOUS
 90
16
 70
0
 10
7.4262911463
 20
4.9027998418
 10
7.4248182304
 20
4.9447029136
 10
7.4233453146
 20
4.9988462542
 10
7.4218723987
 20
5.0639029075
 10
7.4203994829
 20
5.1382784515
 10
7.418926567
 20
5.2201500751
 10
7.4174536512
 20
5.3075112515
 10
7.4159807353
 20
5.3982209149
 10
7.4145078195
 20
5.4900559341
 10
7.4130349037
 20
5.5807655975
 10
7.4115619878
 20
5.6681267739
 10
7.410089072
 20
5.7499983974
 10
7.4086161561
 20
5.8243739415
 10
7.4071432403
 20
5.8894305948
 10
7.4056703244
 20
5.9435739354
 10
7.4041974086
 20
5.9854770072
  0
LWPOLYLINE
  5
508
100
AcDbEntity
  8
02___PRT_ALL_AXES
100
AcDbPolyline
 62
7
  6
CONTINUOUS
 90
16
 70
0
 10
7.433673036
 20
4.9027998418
 10
7.4322001202
 20
4.9447029136
 10
7.4307272043
 20
4.9988462542
 10
7.4292542885
 20
5.0639029075
 10
7.4277813726
 20
5.1382784515
 10
7.4263084568
 20
5.2201500751
 10
7.424835541
 20
5.3075112515
 10
7.4233626251
 20
5.3982209149
 10
7.4218897093
 20
5.4900559341
 10
7.4204167934
 20
5.5807655975
 10
7.4189438776
 20
5.6681267739
 10
7.4174709617
 20
5.7499983974
 10
7.4159980459
 20
5.8243739415
 10
7.41452513
 20
5.8894305948
 10
7.4130522142
 20
5.9435739354
 10
7.4115792984
 20
5.9854770072
  0
LWPOLYLINE
  5
509
100
AcDbEntity
  8
02___PRT_ALL_AXES
100
AcDbPolyline
 62
7
  6
CONTINUOUS
 90
10
 70
0
 10
7.3854872952
 20
5.3589241144
 10
7.3825690135
 20
5.5293744872
 10
7.3811276939
 20
5.611553954
 10
7.3796968056
 20
5.6892564146
 10
7.3782676849
 20
5.7612039708
 10
7.3768319279
 20
5.8261158338
 10
7.3753985843
 20
5.882045668
 10
7.3739603202
 20
5.9279493166
 10
7.3725041179
 20
5.962902289
 10
7.3710434442
 20
5.9854770072
  0
LWPOLYLINE
  5
50A
100
AcDbEntity
  8
02___PRT_ALL_AXES
100
AcDbPolyline
 62
7
  6
CONTINUOUS
 90
10
 70
0
 10
7.3933630636
 20
5.5273224464
 10
7.3962349268
 20
5.359562117
 10
7.3976654745
 20
5.2779613865
 10
7.3991067666
 20
5.1996380212
 10
7.4005662354
 20
5.1261815769
 10
7.4020276003
 20
5.0602965248
 10
7.4034717637
 20
5.004279233
 10
7.4049056984
 20
4.9589103947
 10
7.4063373665
 20
4.9248582552
 10
7.4077718823
 20
4.9027998418
  0
LWPOLYLINE
  5
50B
100
AcDbEntity
  8
02___PRT_ALL_AXES
100
AcDbPolyline
 62
7
  6
CONTINUOUS
 90
10
 70
0
 10
7.4445314025
 20
5.359562117
 10
7.4416595393
 20
5.5273224464
 10
7.4402236347
 20
5.6092715138
 10
7.4387826439
 20
5.6876415291
 10
7.4373233654
 20
5.761176993
 10
7.4358618822
 20
5.8271783178
 10
7.4344169607
 20
5.8833507896
 10
7.4329878112
 20
5.928723402
 10
7.4315480243
 20
5.9631240783
 10
7.4300985623
 20
5.9854770072
  0
LINE
  5
50C
100
AcDbEntity
  8
0
100
AcDbLine
 62
7
  6
CONTINUOUS
 10
7.5970848286
 20
5.688410078
 11
7.5794477605
 21
5.6578617801
  0
LINE
  5
50D
100
AcDbEntity
  8
0
100
AcDbLine
 62
7
  6
CONTINUOUS
 10
7.6361766963
 20
5.6881693383
 11
7.6187383718
 21
5.6579992517
  0
LINE
  5
50E
100
AcDbEntity
  8
0
100
AcDbLine
 62
7
  6
CONTINUOUS
 10
7.675546775
 20
5.6881693383
 11
7.6581084505
 21
5.6579992517
  0
LWPOLYLINE
  5
50F
100
AcDbEntity
  8
0
100
AcDbPolyline
 62
7
  6
CONTINUOUS
 90
3
 70
0
 10
7.5920584896
 20
5.684120985
 10
7.5835174081
 20
5.6696028226
 10
7.5783645306
 20
5.6608609522
  0
LWPOLYLINE
  5
510
100
AcDbEntity
  8
0
100
AcDbPolyline
 62
7
  6
CONTINUOUS
 90
3
 70
0
 10
7.8962974456
 20
5.1998667709
 10
7.8964560693
 20
5.1999450571
 10
7.8965756381
 20
5.2001075107
  0
LINE
  5
511
100
AcDbEntity
  8
0
100
AcDbLine
 62
7
  6
CONTINUOUS
 10
7.5630868822
 20
5.6871724769
 11
7.5616517577
 21
5.688410078
  0
LINE
  5
512
100
AcDbEntity
  8
0
100
AcDbLine
 62
7
  6
CONTINUOUS
 10
7.5987352151
 20
5.2308279122
 11
7.6164916569
 21
5.2001075107
  0
LINE
  5
513
100
AcDbEntity
  8
0
100
AcDbLine
 62
7
  6
CONTINUOUS
 10
7.6381052938
 20
5.2308279122
 11
7.6558617356
 21
5.2001075107
  0
LINE
  5
514
100
AcDbEntity
  8
0
100
AcDbLine
 62
7
  6
CONTINUOUS
 10
7.6774753725
 20
5.2308279122
 11
7.6952318144
 21
5.2001075107
  0
LWPOLYLINE
  5
515
100
AcDbEntity
  8
0
100
AcDbPolyline
 62
7
  6
CONTINUOUS
 90
21
 70
0
 10
7.5987352151
 20
5.2308279122
 10
7.598471248
 20
5.2314736457
 10
7.5974658294
 20
5.2373709818
 10
7.5964604107
 20
5.2485804788
 10
7.595454992
 20
5.2648141482
 10
7.5944495733
 20
5.285654923
 10
7.5934441547
 20
5.310567373
 10
7.592438736
 20
5.3389114605
 10
7.5914333173
 20
5.3699589841
 10
7.5904278986
 20
5.402912287
 10
7.5894224799
 20
5.4369247503
 10
7.5884170613
 20
5.4711225435
 10
7.5874116426
 20
5.5046270749
 10
7.5864062239
 20
5.5365775635
 10
7.5854008052
 20
5.5661531541
 10
7.5843953866
 20
5.5925940062
 10
7.5833899679
 20
5.6152208152
 10
7.5823845492
 20
5.633452265
 10
7.5813791305
 20
5.6468199626
 10
7.5803737119
 20
5.6549804724
 10
7.5796864106
 20
5.6574489368
  0
LINE
  5
516
100
AcDbEntity
  8
0
100
AcDbLine
 62
9
  6
CONTINUOUS
 10
7.5025966396
 20
4.9027998418
 11
7.5025966396
 21
5.9854770072
  0
LINE
  5
517
100
AcDbEntity
  8
0
100
AcDbLine
 62
7
  6
CONTINUOUS
 10
7.5419667184
 20
4.9421699206
 11
7.5419667184
 21
5.9461069284
  0
LINE
  5
518
100
AcDbEntity
  8
0
100
AcDbLine
 62
9
  6
CONTINUOUS
 10
7.5571472611
 20
5.688410078
 11
7.5571472611
 21
5.1998667709
  0
LINE
  5
519
100
AcDbEntity
  8
0
100
AcDbLine
 62
7
  6
CONTINUOUS
 10
7.7149168537
 20
5.6881693383
 11
7.6974785293
 21
5.6579992517
  0
LINE
  5
51A
100
AcDbEntity
  8
0
100
AcDbLine
 62
7
  6
CONTINUOUS
 10
7.7542869325
 20
5.6881693383
 11
7.736848608
 21
5.6579992517
  0
LINE
  5
51B
100
AcDbEntity
  8
0
100
AcDbLine
 62
7
  6
CONTINUOUS
 10
7.7936570112
 20
5.6881693383
 11
7.7762186868
 21
5.6579992517
  0
LINE
  5
51C
100
AcDbEntity
  8
0
100
AcDbLine
 62
7
  6
CONTINUOUS
 10
7.83302709
 20
5.6881693383
 11
7.8155887655
 21
5.6579992517
  0
LINE
  5
51D
100
AcDbEntity
  8
0
100
AcDbLine
 62
7
  6
CONTINUOUS
 10
7.5816150082
 20
5.2001075107
 11
7.5813367971
 21
5.1998667709
  0
LINE
  5
51E
100
AcDbEntity
  8
0
100
AcDbLine
 62
7
  6
CONTINUOUS
 10
7.620985087
 20
5.2001075107
 11
7.6207068759
 21
5.1998667709
  0
LINE
  5
51F
100
AcDbEntity
  8
0
100
AcDbLine
 62
7
  6
CONTINUOUS
 10
7.6603551657
 20
5.2001075107
 11
7.6600769546
 21
5.1998667709
  0
LINE
  5
520
100
AcDbEntity
  8
0
100
AcDbLine
 62
7
  6
CONTINUOUS
 10
7.6997252444
 20
5.2001075107
 11
7.6994470333
 21
5.1998667709
  0
LINE
  5
521
100
AcDbEntity
  8
0
100
AcDbLine
 62
7
  6
CONTINUOUS
 10
7.7390953232
 20
5.2001075107
 11
7.7388171121
 21
5.1998667709
  0
LINE
  5
522
100
AcDbEntity
  8
0
100
AcDbLine
 62
7
  6
CONTINUOUS
 10
7.6013000476
 20
5.6881693383
 11
7.6010218365
 21
5.688410078
  0
LINE
  5
523
100
AcDbEntity
  8
0
100
AcDbLine
 62
7
  6
CONTINUOUS
 10
7.6406701263
 20
5.6881693383
 11
7.6403919152
 21
5.688410078
  0
LINE
  5
524
100
AcDbEntity
  8
0
100
AcDbLine
 62
7
  6
CONTINUOUS
 10
7.6800402051
 20
5.6881693383
 11
7.679761994
 21
5.688410078
  0
LINE
  5
525
100
AcDbEntity
  8
0
100
AcDbLine
 62
7
  6
CONTINUOUS
 10
7.7194102838
 20
5.6881693383
 11
7.7191320727
 21
5.688410078
  0
LINE
  5
526
100
AcDbEntity
  8
0
100
AcDbLine
 62
7
  6
CONTINUOUS
 10
7.7168454513
 20
5.2308279122
 11
7.7346018931
 21
5.2001075107
  0
LINE
  5
527
100
AcDbEntity
  8
0
100
AcDbLine
 62
7
  6
CONTINUOUS
 10
7.75621553
 20
5.2308279122
 11
7.7739719719
 21
5.2001075107
  0
LINE
  5
528
100
AcDbEntity
  8
0
100
AcDbLine
 62
7
  6
CONTINUOUS
 10
7.7955856088
 20
5.2308279122
 11
7.8133420506
 21
5.2001075107
  0
LWPOLYLINE
  5
529
100
AcDbEntity
  8
0
100
AcDbPolyline
 62
7
  6
CONTINUOUS
 90
10
 70
0
 10
7.6381052938
 20
5.2308279122
 10
7.6376825765
 20
5.2320438084
 10
7.6366771578
 20
5.2387935457
 10
7.6356717391
 20
5.2508188962
 10
7.6346663204
 20
5.2678109107
 10
7.6336609018
 20
5.2893330395
 10
7.6326554831
 20
5.3148323472
 10
7.6316500644
 20
5.3436537189
 10
7.6306446457
 20
5.3750566911
 10
7.6296392271
 20
5.408234475
  0
LWPOLYLINE
  5
52A
100
AcDbEntity
  8
0
100
AcDbPolyline
 62
7
  6
CONTINUOUS
 90
10
 70
0
 10
7.5813367971
 20
5.1998667709
 10
7.5803555268
 20
5.2028560044
 10
7.5793618133
 20
5.2119004619
 10
7.5783680116
 20
5.226775197
 10
7.5773860419
 20
5.2468339897
 10
7.5764070976
 20
5.2716450855
 10
7.5754238155
 20
5.3007948384
 10
7.5744474527
 20
5.3332268487
 10
7.5734731182
 20
5.3682711883
 10
7.5724905278
 20
5.4054640029
  0
LWPOLYLINE
  5
52B
100
AcDbEntity
  8
0
100
AcDbPolyline
 62
7
  6
CONTINUOUS
 90
10
 70
0
 10
7.6207068759
 20
5.1998667709
 10
7.6197249537
 20
5.2028599689
 10
7.6187307427
 20
5.2119143559
 10
7.6177366768
 20
5.2268003464
 10
7.6167546811
 20
5.2468670814
 10
7.6157758929
 20
5.2716805153
 10
7.6147929987
 20
5.3008231081
 10
7.6138169945
 20
5.3332454983
 10
7.6128426016
 20
5.3682932489
 10
7.6118600537
 20
5.4054852834
  0
LWPOLYLINE
  5
52C
100
AcDbEntity
  8
0
100
AcDbPolyline
 62
7
  6
CONTINUOUS
 90
10
 70
0
 10
7.6600769546
 20
5.1998667709
 10
7.6590942947
 20
5.202864459
 10
7.6580995317
 20
5.2119299561
 10
7.6571051483
 20
5.2268289532
 10
7.6561230771
 20
5.2469057754
 10
7.655144389
 20
5.2717242151
 10
7.6541618296
 20
5.3008625069
 10
7.6531860998
 20
5.3332793114
 10
7.6522115963
 20
5.3683334187
 10
7.6512290272
 20
5.4055278282
  0
LWPOLYLINE
  5
52D
100
AcDbEntity
  8
0
100
AcDbPolyline
 62
7
  6
CONTINUOUS
 90
10
 70
0
 10
7.6668397181
 20
5.4818191662
 10
7.6658342994
 20
5.5149244824
 10
7.6648288808
 20
5.5462112003
 10
7.6638234621
 20
5.5748755178
 10
7.6628180434
 20
5.6001810064
 10
7.6618126247
 20
5.6214775307
 10
7.6608072061
 20
5.6382179514
 10
7.6598017874
 20
5.6499721826
 10
7.6587963687
 20
5.6564382406
 10
7.6584265681
 20
5.6574489368
  0
LWPOLYLINE
  5
52E
100
AcDbEntity
  8
0
100
AcDbPolyline
 62
7
  6
CONTINUOUS
 90
11
 70
0
 10
7.6296392271
 20
5.408234475
 10
7.6276283897
 20
5.4764812345
 10
7.626622971
 20
5.5097968501
 10
7.6256175523
 20
5.5414256037
 10
7.6246121337
 20
5.5705549062
 10
7.623606715
 20
5.5964363825
 10
7.6226012963
 20
5.6184050994
 10
7.6215958776
 20
5.6358966481
 10
7.620590459
 20
5.648461645
 10
7.6195850403
 20
5.6557772766
 10
7.6190564894
 20
5.6574489368
  0
LWPOLYLINE
  5
52F
100
AcDbEntity
  8
0
100
AcDbPolyline
 62
7
  6
CONTINUOUS
 90
10
 70
0
 10
7.5724905278
 20
5.4054640029
 10
7.5705006262
 20
5.482712795
 10
7.5695179492
 20
5.5199125514
 10
7.5685432256
 20
5.5549762392
 10
7.5675677846
 20
5.5873858665
 10
7.5665856502
 20
5.6165159872
 10
7.56560706
 20
5.6413382997
 10
7.5646249197
 20
5.6614237534
 10
7.5636302897
 20
5.6763334697
 10
7.5626350616
 20
5.6854084678
  0
LWPOLYLINE
  5
530
100
AcDbEntity
  8
0
100
AcDbPolyline
 62
7
  6
CONTINUOUS
 90
11
 70
0
 10
7.6059336971
 20
5.482712795
 10
7.6079235986
 20
5.4054640029
 10
7.608906189
 20
5.3682711883
 10
7.6098805235
 20
5.3332268487
 10
7.6108568864
 20
5.3007948384
 10
7.6118401685
 20
5.2716450855
 10
7.6128191128
 20
5.2468339897
 10
7.6138010825
 20
5.226775197
 10
7.6147948842
 20
5.2119004619
 10
7.6157885976
 20
5.2028560044
 10
7.6164916569
 20
5.2001075107
  0
LWPOLYLINE
  5
531
100
AcDbEntity
  8
0
100
AcDbPolyline
 62
7
  6
CONTINUOUS
 90
11
 70
0
 10
7.6118600537
 20
5.4054852834
 10
7.609870259
 20
5.4827299644
 10
7.6088876422
 20
5.5199268485
 10
7.6079130817
 20
5.554983972
 10
7.6069374697
 20
5.5873982961
 10
7.6059550542
 20
5.616534623
 10
7.6049764053
 20
5.6413551713
 10
7.6039943358
 20
5.661435556
 10
7.6029998553
 20
5.6763396809
 10
7.6020048503
 20
5.6854102347
 10
7.6013000476
 20
5.6881693383
  0
LWPOLYLINE
  5
532
100
AcDbEntity
  8
0
100
AcDbPolyline
 62
7
  6
CONTINUOUS
 90
11
 70
0
 10
7.6453033298
 20
5.4827299644
 10
7.6472931245
 20
5.4054852834
 10
7.6482756724
 20
5.3682932489
 10
7.6492500654
 20
5.3332454983
 10
7.6502260696
 20
5.3008231081
 10
7.6512089638
 20
5.2716805153
 10
7.652187752
 20
5.2468670814
 10
7.6531697476
 20
5.2268003464
 10
7.6541638136
 20
5.2119143559
 10
7.6551580245
 20
5.2028599689
 10
7.6558617356
 20
5.2001075107
  0
LWPOLYLINE
  5
533
100
AcDbEntity
  8
0
100
AcDbPolyline
 62
7
  6
CONTINUOUS
 90
11
 70
0
 10
7.6512290272
 20
5.4055278282
 10
7.6492392302
 20
5.4827725945
 10
7.6482566325
 20
5.5199671842
 10
7.6472821807
 20
5.555018006
 10
7.6463063064
 20
5.5874375122
 10
7.6453235537
 20
5.6165782351
 10
7.6443448015
 20
5.6413938688
 10
7.6433628042
 20
5.6614642243
 10
7.642368638
 20
5.6763553629
 10
7.6413741816
 20
5.6854147853
 10
7.6406701263
 20
5.6881693383
  0
LINE
  5
534
100
AcDbEntity
  8
0
100
AcDbLine
 62
7
  6
CONTINUOUS
 10
7.5816150082
 20
5.2001075107
 11
7.5990533324
 21
5.2302775973
  0
LINE
  5
535
100
AcDbEntity
  8
0
100
AcDbLine
 62
7
  6
CONTINUOUS
 10
7.8723971687
 20
5.6881693383
 11
7.8549588442
 21
5.6579992517
  0
LINE
  5
536
100
AcDbEntity
  8
0
100
AcDbLine
 62
7
  6
CONTINUOUS
 10
7.620985087
 20
5.2001075107
 11
7.6384234112
 21
5.2302775973
  0
LINE
  5
537
100
AcDbEntity
  8
0
100
AcDbLine
 62
7
  6
CONTINUOUS
 10
7.9075405343
 20
5.6808558935
 11
7.894328923
 21
5.6579992517
  0
LINE
  5
538
100
AcDbEntity
  8
0
100
AcDbLine
 62
7
  6
CONTINUOUS
 10
7.6603551657
 20
5.2001075107
 11
7.6777934899
 21
5.2302775973
  0
LINE
  5
539
100
AcDbEntity
  8
0
100
AcDbLine
 62
7
  6
CONTINUOUS
 10
7.7784654019
 20
5.2001075107
 11
7.7781871908
 21
5.1998667709
  0
LINE
  5
53A
100
AcDbEntity
  8
0
100
AcDbLine
 62
7
  6
CONTINUOUS
 10
7.8178354807
 20
5.2001075107
 11
7.8175572696
 21
5.1998667709
  0
LINE
  5
53B
100
AcDbEntity
  8
0
100
AcDbLine
 62
7
  6
CONTINUOUS
 10
7.8572055594
 20
5.2001075107
 11
7.8569273483
 21
5.1998667709
  0
LINE
  5
53C
100
AcDbEntity
  8
0
100
AcDbLine
 62
7
  6
CONTINUOUS
 10
6.7151950648
 20
6.428390393
 11
6.2427541199
 21
6.428390393
  0
LINE
  5
53D
100
AcDbEntity
  8
02___PRT_ALL_AXES
100
AcDbLine
 62
7
  6
CONTINUOUS
 10
6.2427541199
 20
6.428390393
 11
6.7151950648
 21
6.428390393
  0
LINE
  5
53E
100
AcDbEntity
  8
0
100
AcDbLine
 62
7
  6
CONTINUOUS
 10
7.7587803625
 20
5.6881693383
 11
7.7585021514
 21
5.688410078
  0
LINE
  5
53F
100
AcDbEntity
  8
0
100
AcDbLine
 62
7
  6
CONTINUOUS
 10
7.7981504413
 20
5.6881693383
 11
7.7978722302
 21
5.688410078
  0
LINE
  5
540
100
AcDbEntity
  8
0
100
AcDbLine
 62
7
  6
CONTINUOUS
 10
7.83752052
 20
5.6881693383
 11
7.8372423089
 21
5.688410078
  0
LINE
  5
541
100
AcDbEntity
  8
0
100
AcDbLine
 62
7
  6
CONTINUOUS
 10
7.8766123877
 20
5.688410078
 11
7.8768905988
 21
5.6881693383
  0
LWPOLYLINE
  5
542
100
AcDbEntity
  8
0
100
AcDbPolyline
 62
7
  6
CONTINUOUS
 90
3
 70
0
 10
7.5786605531
 20
5.6603513649
 10
7.5669428868
 20
5.6805284532
 10
7.5630868822
 20
5.6871724769
  0
LINE
  5
543
100
AcDbEntity
  8
0
100
AcDbLine
 62
7
  6
CONTINUOUS
 10
7.5796864106
 20
5.6574489368
 11
7.5619299688
 21
5.6881693383
  0
LINE
  5
544
100
AcDbEntity
  8
0
100
AcDbLine
 62
7
  6
CONTINUOUS
 10
7.8349556875
 20
5.2308279122
 11
7.8527121293
 21
5.2001075107
  0
LINE
  5
545
100
AcDbEntity
  8
0
100
AcDbLine
 62
7
  6
CONTINUOUS
 10
7.6190564894
 20
5.6574489368
 11
7.6013000476
 21
5.6881693383
  0
LINE
  5
546
100
AcDbEntity
  8
0
100
AcDbLine
 62
7
  6
CONTINUOUS
 10
7.8743257662
 20
5.2308279122
 11
7.8920822081
 21
5.2001075107
  0
LINE
  5
547
100
AcDbEntity
  8
0
100
AcDbLine
 62
7
  6
CONTINUOUS
 10
7.6584265681
 20
5.6574489368
 11
7.6406701263
 21
5.6881693383
  0
LINE
  5
548
100
AcDbEntity
  8
0
100
AcDbLine
 62
7
  6
CONTINUOUS
 10
7.913695845
 20
5.2308279122
 11
7.9200102645
 21
5.2199044252
  0
LINE
  5
549
100
AcDbEntity
  8
0
100
AcDbLine
 62
7
  6
CONTINUOUS
 10
7.6977966469
 20
5.6574489368
 11
7.6800402051
 21
5.6881693383
  0
LWPOLYLINE
  5
54A
100
AcDbEntity
  8
0
100
AcDbPolyline
 62
7
  6
CONTINUOUS
 90
8
 70
0
 10
7.8349556875
 20
5.2308279122
 10
7.834724378
 20
5.2313732718
 10
7.8337223359
 20
5.2370665299
 10
7.8327202937
 20
5.2480441741
 10
7.8317182516
 20
5.2640260596
 10
7.8307162095
 20
5.2846043356
 10
7.8297141673
 20
5.3092538533
 10
7.8287121252
 20
5.3373455675
  0
LWPOLYLINE
  5
54B
100
AcDbEntity
  8
0
100
AcDbPolyline
 62
7
  6
CONTINUOUS
 90
15
 70
0
 10
7.6994470333
 20
5.1998667709
 10
7.6985125707
 20
5.2025781426
 10
7.6975662785
 20
5.2107880016
 10
7.696618817
 20
5.2243297734
 10
7.6956806759
 20
5.2426819498
 10
7.6947495942
 20
5.2653539635
 10
7.6938125814
 20
5.2921472533
 10
7.6928796687
 20
5.3221945734
 10
7.6919514596
 20
5.3547693737
 10
7.6910207858
 20
5.3893953513
 10
7.6900765827
 20
5.4257526779
 10
7.6891271199
 20
5.4627311548
 10
7.6881830436
 20
5.4990789584
 10
7.687252394
 20
5.5336951527
 10
7.6863236738
 20
5.5662742513
  0
LWPOLYLINE
  5
54C
100
AcDbEntity
  8
0
100
AcDbPolyline
 62
7
  6
CONTINUOUS
 90
10
 70
0
 10
7.7388171121
 20
5.1998667709
 10
7.7378353104
 20
5.2028592359
 10
7.7368411921
 20
5.2119117784
 10
7.7358471797
 20
5.2267956003
 10
7.7348651973
 20
5.2468606448
 10
7.7338863931
 20
5.2716732281
 10
7.7329034437
 20
5.300816517
 10
7.7319273911
 20
5.3332399272
 10
7.7309530173
 20
5.3682865982
 10
7.7299704735
 20
5.4054782163
  0
LWPOLYLINE
  5
54D
100
AcDbEntity
  8
0
100
AcDbPolyline
 62
7
  6
CONTINUOUS
 90
10
 70
0
 10
7.7781871908
 20
5.1998667709
 10
7.7772046556
 20
5.2028636997
 10
7.7762099842
 20
5.2119273399
 10
7.7752156532
 20
5.2268241699
 10
7.7742335941
 20
5.2468993175
 10
7.7732548889
 20
5.2717169345
 10
7.7722722732
 20
5.3008559581
 10
7.7712964996
 20
5.3332736299
 10
7.7703220141
 20
5.3683266922
 10
7.769339448
 20
5.4055207205
  0
LWPOLYLINE
  5
54E
100
AcDbEntity
  8
0
100
AcDbPolyline
 62
7
  6
CONTINUOUS
 90
10
 70
0
 10
7.5970848286
 20
5.688410078
 10
7.5980681325
 20
5.6854084678
 10
7.5990633606
 20
5.6763334697
 10
7.6000579906
 20
5.6614237534
 10
7.6010401309
 20
5.6413382997
 10
7.6020187211
 20
5.6165159872
 10
7.6030008555
 20
5.5873858665
 10
7.6039762965
 20
5.5549762392
 10
7.6049510201
 20
5.5199125514
 10
7.6059336971
 20
5.482712795
  0
LWPOLYLINE
  5
54F
100
AcDbEntity
  8
0
100
AcDbPolyline
 62
7
  6
CONTINUOUS
 90
10
 70
0
 10
7.6364549073
 20
5.688410078
 10
7.6374379212
 20
5.6854102347
 10
7.6384329262
 20
5.6763396809
 10
7.6394274066
 20
5.661435556
 10
7.6404094762
 20
5.6413551713
 10
7.6413881251
 20
5.616534623
 10
7.6423705406
 20
5.5873982961
 10
7.6433461526
 20
5.554983972
 10
7.644320713
 20
5.5199268485
 10
7.6453033298
 20
5.4827299644
  0
LWPOLYLINE
  5
550
100
AcDbEntity
  8
0
100
AcDbPolyline
 62
7
  6
CONTINUOUS
 90
11
 70
0
 10
7.6774753725
 20
5.2308279122
 10
7.6768939049
 20
5.2327501039
 10
7.6758884862
 20
5.2403479101
 10
7.6748830675
 20
5.2531813955
 10
7.6738776489
 20
5.270920849
 10
7.6728722302
 20
5.2931105177
 10
7.6718668115
 20
5.3191803164
 10
7.6708613928
 20
5.3484604733
 10
7.6698559742
 20
5.3801987381
 10
7.6688505555
 20
5.4135797079
 10
7.6668397181
 20
5.4818191662
  0
LINE
  5
551
100
AcDbEntity
  8
0
100
AcDbLine
 62
7
  6
CONTINUOUS
 10
7.5793682932
 20
5.6577241385
 11
7.5786605531
 21
5.6603513649
  0
LWPOLYLINE
  5
552
100
AcDbEntity
  8
0
100
AcDbPolyline
 62
7
  6
CONTINUOUS
 90
14
 70
0
 10
7.7168454513
 20
5.2308279122
 10
7.7161052333
 20
5.2335920789
 10
7.7150998146
 20
5.2420330773
 10
7.714094396
 20
5.2556664606
 10
7.7130889773
 20
5.2741419669
 10
7.7120835586
 20
5.2969849331
 10
7.7110781399
 20
5.3236084899
 10
7.7100727213
 20
5.3533286386
 10
7.7090673026
 20
5.3853818248
 10
7.7080618839
 20
5.4189445548
 10
7.7070564652
 20
5.4531545526
 10
7.7060510465
 20
5.4871329126
 10
7.7050456279
 20
5.5200066808
 10
7.7040402092
 20
5.5509312815
  0
LINE
  5
553
100
AcDbEntity
  8
0
100
AcDbLine
 62
7
  6
CONTINUOUS
 10
7.5626350616
 20
5.6854084678
 11
7.5619299688
 21
5.6881693383
  0
LWPOLYLINE
  5
554
100
AcDbEntity
  8
0
100
AcDbPolyline
 62
7
  6
CONTINUOUS
 90
8
 70
0
 10
7.7040402092
 20
5.5509312815
 10
7.7030347905
 20
5.579112216
 10
7.7020293718
 20
5.6038254745
 10
7.7010239532
 20
5.6244361369
 10
7.7000185345
 20
5.6404146849
 10
7.6990131158
 20
5.6513506059
 10
7.6980076971
 20
5.65696294
 10
7.6977966469
 20
5.6574489368
  0
LWPOLYLINE
  5
555
100
AcDbEntity
  8
0
100
AcDbPolyline
 62
7
  6
CONTINUOUS
 90
8
 70
0
 10
7.6863236738
 20
5.5662742513
 10
7.6853920187
 20
5.5962646687
 10
7.6844560242
 20
5.623013412
 10
7.6835257451
 20
5.6456523422
 10
7.6825885175
 20
5.6639758528
 10
7.6816417503
 20
5.6775003536
 10
7.6806960086
 20
5.6857013008
 10
7.6800402051
 20
5.6881693383
  0
LWPOLYLINE
  5
556
100
AcDbEntity
  8
0
100
AcDbPolyline
 62
7
  6
CONTINUOUS
 90
15
 70
0
 10
7.7217567446
 20
5.5662742513
 10
7.7226854649
 20
5.5336951527
 10
7.7236161145
 20
5.4990789584
 10
7.7245601907
 20
5.4627311548
 10
7.7255096536
 20
5.4257526779
 10
7.7264538567
 20
5.3893953513
 10
7.7273845305
 20
5.3547693737
 10
7.7283127396
 20
5.3221945734
 10
7.7292456522
 20
5.2921472533
 10
7.7301826651
 20
5.2653539635
 10
7.7311137468
 20
5.2426819498
 10
7.7320518878
 20
5.2243297734
 10
7.7329993494
 20
5.2107880016
 10
7.7339456416
 20
5.2025781426
 10
7.7346018931
 20
5.2001075107
  0
LWPOLYLINE
  5
557
100
AcDbEntity
  8
0
100
AcDbPolyline
 62
7
  6
CONTINUOUS
 90
11
 70
0
 10
7.6846723011
 20
5.4827725945
 10
7.686662098
 20
5.4055278282
 10
7.6876446672
 20
5.3683334187
 10
7.6886191707
 20
5.3332793114
 10
7.6895949004
 20
5.3008625069
 10
7.6905774599
 20
5.2717242151
 10
7.691556148
 20
5.2469057754
 10
7.6925382192
 20
5.2268289532
 10
7.6935326026
 20
5.2119299561
 10
7.6945273656
 20
5.202864459
 10
7.6952318144
 20
5.2001075107
  0
LWPOLYLINE
  5
558
100
AcDbEntity
  8
0
100
AcDbPolyline
 62
7
  6
CONTINUOUS
 90
11
 70
0
 10
7.7299704735
 20
5.4054782163
 10
7.7279806803
 20
5.4827228364
 10
7.7269980609
 20
5.5199200824
 10
7.7260234831
 20
5.5549782356
 10
7.7250479121
 20
5.587391785
 10
7.7240655535
 20
5.6165273587
 10
7.7230869225
 20
5.6413487097
 10
7.7221048415
 20
5.6614307566
 10
7.7211103094
 20
5.6763370448
 10
7.7201152135
 20
5.685409461
 10
7.7194102838
 20
5.6881693383
  0
LWPOLYLINE
  5
559
100
AcDbEntity
  8
0
100
AcDbPolyline
 62
7
  6
CONTINUOUS
 90
11
 70
0
 10
7.7634137512
 20
5.4827228364
 10
7.7654035444
 20
5.4054782163
 10
7.7663860881
 20
5.3682865982
 10
7.767360462
 20
5.3332399272
 10
7.7683365146
 20
5.300816517
 10
7.7693194639
 20
5.2716732281
 10
7.7702982682
 20
5.2468606448
 10
7.7712802506
 20
5.2267956003
 10
7.772274263
 20
5.2119117784
 10
7.7732683813
 20
5.2028592359
 10
7.7739719719
 20
5.2001075107
  0
LWPOLYLINE
  5
55A
100
AcDbEntity
  8
0
100
AcDbPolyline
 62
7
  6
CONTINUOUS
 90
11
 70
0
 10
7.769339448
 20
5.4055207205
 10
7.7673496506
 20
5.4827655059
 10
7.7663670493
 20
5.5199604927
 10
7.7653925789
 20
5.5550123793
 10
7.7644167502
 20
5.5874309583
 10
7.7634340532
 20
5.6165709633
 10
7.7624553178
 20
5.6413874278
 10
7.761473308
 20
5.6614594615
 10
7.7604790889
 20
5.6763527652
 10
7.7594845407
 20
5.6854140378
 10
7.7587803625
 20
5.6881693383
  0
LINE
  5
55B
100
AcDbEntity
  8
0
100
AcDbLine
 62
7
  6
CONTINUOUS
 10
7.6997252444
 20
5.2001075107
 11
7.7171635686
 21
5.2302775973
  0
LINE
  5
55C
100
AcDbEntity
  8
0
100
AcDbLine
 62
7
  6
CONTINUOUS
 10
7.7390953232
 20
5.2001075107
 11
7.7565336474
 21
5.2302775973
  0
LINE
  5
55D
100
AcDbEntity
  8
0
100
AcDbLine
 62
7
  6
CONTINUOUS
 10
7.7784654019
 20
5.2001075107
 11
7.7959037261
 21
5.2302775973
  0
LINE
  5
55E
100
AcDbEntity
  8
0
100
AcDbLine
 62
7
  6
CONTINUOUS
 10
7.9356675296
 20
5.235299818
 11
7.9202021575
 21
5.2198344423
  0
LINE
  5
55F
100
AcDbEntity
  8
0
100
AcDbLine
 62
7
  6
CONTINUOUS
 10
7.9356675296
 20
5.652977031
 11
7.9077223436
 21
5.6809222233
  0
LINE
  5
560
100
AcDbEntity
  8
0
100
AcDbLine
 62
7
  6
CONTINUOUS
 10
7.7371667256
 20
5.6574489368
 11
7.7194102838
 21
5.6881693383
  0
LINE
  5
561
100
AcDbEntity
  8
0
100
AcDbLine
 62
7
  6
CONTINUOUS
 10
7.7765368044
 20
5.6574489368
 11
7.7587803625
 21
5.6881693383
  0
LINE
  5
562
100
AcDbEntity
  8
0
100
AcDbLine
 62
7
  6
CONTINUOUS
 10
7.8159068831
 20
5.6574489368
 11
7.7981504413
 21
5.6881693383
  0
LWPOLYLINE
  5
563
100
AcDbEntity
  8
0
100
AcDbPolyline
 62
7
  6
CONTINUOUS
 90
8
 70
0
 10
7.8175572696
 20
5.1998667709
 10
7.8166236825
 20
5.2025730736
 10
7.8156782511
 20
5.2107679962
 10
7.8147315958
 20
5.2242865553
 10
7.8137944205
 20
5.2426046324
 10
7.8128638685
 20
5.2652467334
 10
7.8119275913
 20
5.2920016108
 10
7.8109955898
 20
5.3220025977
  0
LWPOLYLINE
  5
564
100
AcDbEntity
  8
0
100
AcDbPolyline
 62
7
  6
CONTINUOUS
 90
8
 70
0
 10
7.7151950648
 20
5.688410078
 10
7.7161290794
 20
5.6857013008
 10
7.7170748211
 20
5.6775003536
 10
7.7180215884
 20
5.6639758528
 10
7.718958816
 20
5.6456523422
 10
7.7198890951
 20
5.623013412
 10
7.7208250896
 20
5.5962646687
 10
7.7217567446
 20
5.5662742513
  0
LWPOLYLINE
  5
565
100
AcDbEntity
  8
0
100
AcDbPolyline
 62
7
  6
CONTINUOUS
 90
21
 70
0
 10
7.8920822081
 20
5.2001075107
 10
7.891682757
 20
5.2012939335
 10
7.8907323832
 20
5.2080656347
 10
7.8897820095
 20
5.220257709
 10
7.8888316503
 20
5.2375899173
 10
7.8878813006
 20
5.2596642161
 10
7.8869309498
 20
5.2859739738
 10
7.8859806011
 20
5.3159150359
 10
7.8850302585
 20
5.3487998122
 10
7.8840799125
 20
5.3838736066
 10
7.8831295522
 20
5.4203315889
 10
7.8821791766
 20
5.4573367763
 10
7.8812288003
 20
5.494038943
 10
7.88027844
 20
5.5295947743
 10
7.8793280899
 20
5.5631881837
 10
7.8783777353
 20
5.594048413
 10
7.8774273657
 20
5.6214671566
 10
7.8764769998
 20
5.6448142827
 10
7.8755266219
 20
5.6635540499
 10
7.8745762074
 20
5.6772562843
 10
7.8736257808
 20
5.6856056052
  0
LWPOLYLINE
  5
566
100
AcDbEntity
  8
0
100
AcDbPolyline
 62
7
  6
CONTINUOUS
 90
10
 70
0
 10
7.8569273483
 20
5.1998667709
 10
7.8559456642
 20
5.2028585208
 10
7.8549516365
 20
5.2119092618
 10
7.8539576756
 20
5.2267909796
 10
7.8529757046
 20
5.2468544135
 10
7.8519968822
 20
5.271666246
 10
7.8510138757
 20
5.3008103381
 10
7.8500377718
 20
5.3332349087
 10
7.8490634151
 20
5.3682806104
 10
7.848080873
 20
5.4054719303
  0
LWPOLYLINE
  5
567
100
AcDbEntity
  8
0
100
AcDbPolyline
 62
7
  6
CONTINUOUS
 90
10
 70
0
 10
7.6758249861
 20
5.688410078
 10
7.6768072525
 20
5.6854147853
 10
7.6778017088
 20
5.6763553629
 10
7.6787958751
 20
5.6614642243
 10
7.6797778723
 20
5.6413938688
 10
7.6807566245
 20
5.6165782351
 10
7.6817393773
 20
5.5874375122
 10
7.6827152516
 20
5.555018006
 10
7.6836897033
 20
5.5199671842
 10
7.6846723011
 20
5.4827725945
  0
LWPOLYLINE
  5
568
100
AcDbEntity
  8
0
100
AcDbPolyline
 62
7
  6
CONTINUOUS
 90
10
 70
0
 10
7.7545651436
 20
5.688410078
 10
7.7555482844
 20
5.685409461
 10
7.7565433802
 20
5.6763370448
 10
7.7575379123
 20
5.6614307566
 10
7.7585199933
 20
5.6413487097
 10
7.7594986243
 20
5.6165273587
 10
7.760480983
 20
5.587391785
 10
7.761456554
 20
5.5549782356
 10
7.7624311318
 20
5.5199200824
 10
7.7634137512
 20
5.4827228364
  0
LWPOLYLINE
  5
569
100
AcDbEntity
  8
0
100
AcDbPolyline
 62
7
  6
CONTINUOUS
 90
11
 70
0
 10
7.8743257662
 20
5.2308279122
 10
7.8738040213
 20
5.232468445
 10
7.8728019792
 20
5.2397143686
 10
7.8717999371
 20
5.2521771066
 10
7.8707978949
 20
5.2695386153
 10
7.8697958528
 20
5.2913558363
 10
7.8687938107
 20
5.3170720037
 10
7.8677917685
 20
5.3460308517
 10
7.8667897264
 20
5.3774933629
 10
7.8657876843
 20
5.4106566277
 10
7.8637836
 20
5.4786783632
  0
LWPOLYLINE
  5
56A
100
AcDbEntity
  8
0
100
AcDbPolyline
 62
7
  6
CONTINUOUS
 90
20
 70
0
 10
7.75621553
 20
5.2308279122
 10
7.7553165617
 20
5.2345691929
 10
7.7543111431
 20
5.2438479658
 10
7.7533057244
 20
5.2582724962
 10
7.7523003057
 20
5.2774721968
 10
7.751294887
 20
5.3009537989
 10
7.7502894684
 20
5.3281140254
 10
7.7492840497
 20
5.3582550901
 10
7.748278631
 20
5.3906026244
 10
7.7472732123
 20
5.4243255725
 10
7.7462677936
 20
5.458557542
 10
7.745262375
 20
5.4924190631
 10
7.7442569563
 20
5.5250401832
 10
7.7432515376
 20
5.5555828178
 10
7.7422461189
 20
5.5832622813
 10
7.7412407003
 20
5.6073674476
 10
7.7402352816
 20
5.6272790192
 10
7.7392298629
 20
5.6424854385
 10
7.7382244442
 20
5.6525960302
 10
7.7371667256
 20
5.6574489368
  0
LWPOLYLINE
  5
56B
100
AcDbEntity
  8
0
100
AcDbPolyline
 62
7
  6
CONTINUOUS
 90
20
 70
0
 10
7.7955856088
 20
5.2308279122
 10
7.7945278902
 20
5.2356808188
 10
7.7935224715
 20
5.2457914105
 10
7.7925170528
 20
5.2609978298
 10
7.7915116341
 20
5.2809094014
 10
7.7905062155
 20
5.3050145677
 10
7.7895007968
 20
5.3326940312
 10
7.7884953781
 20
5.3632366657
 10
7.7874899594
 20
5.3958577859
 10
7.7864845407
 20
5.429719307
 10
7.7854791221
 20
5.4639512765
 10
7.7844737034
 20
5.4976742246
 10
7.7834682847
 20
5.5300217589
 10
7.782462866
 20
5.5601628235
 10
7.7814574474
 20
5.5873230501
 10
7.7804520287
 20
5.6108046521
 10
7.77944661
 20
5.6300043528
 10
7.7784411913
 20
5.6444288832
 10
7.7774357726
 20
5.6537076561
 10
7.7765368044
 20
5.6574489368
  0
LWPOLYLINE
  5
56C
100
AcDbEntity
  8
0
100
AcDbPolyline
 62
7
  6
CONTINUOUS
 90
14
 70
0
 10
7.8287121252
 20
5.3373455675
 10
7.8277067065
 20
5.3682701681
 10
7.8267012878
 20
5.4011439363
 10
7.8256958692
 20
5.4351222964
 10
7.8246904505
 20
5.4693322941
 10
7.8236850318
 20
5.5028950242
 10
7.8226796131
 20
5.5349482104
 10
7.8216741945
 20
5.5646683591
 10
7.8206687758
 20
5.5912919159
 10
7.8196633571
 20
5.6141348821
 10
7.8186579384
 20
5.6326103884
 10
7.8176525197
 20
5.6462437716
 10
7.8166471011
 20
5.6546847701
 10
7.8159068831
 20
5.6574489368
  0
LWPOLYLINE
  5
56D
100
AcDbEntity
  8
0
100
AcDbPolyline
 62
7
  6
CONTINUOUS
 90
8
 70
0
 10
7.8464286606
 20
5.3220025977
 10
7.8473606622
 20
5.2920016108
 10
7.8482969394
 20
5.2652467334
 10
7.8492274914
 20
5.2426046324
 10
7.8501646667
 20
5.2242865553
 10
7.851111322
 20
5.2107679962
 10
7.8520567533
 20
5.2025730736
 10
7.8527121293
 20
5.2001075107
  0
LWPOLYLINE
  5
56E
100
AcDbEntity
  8
0
100
AcDbPolyline
 62
7
  6
CONTINUOUS
 90
10
 70
0
 10
7.8637836
 20
5.4786783632
 10
7.8627815578
 20
5.5118009484
 10
7.8617795157
 20
5.543196815
 10
7.8607774736
 20
5.5720647538
 10
7.8597754314
 20
5.5976680675
 10
7.8587733893
 20
5.6193533704
 10
7.8577713472
 20
5.6365672629
 10
7.856769305
 20
5.6488704537
 10
7.8557672629
 20
5.6559489708
 10
7.8552769618
 20
5.6574489368
  0
LWPOLYLINE
  5
56F
100
AcDbEntity
  8
0
100
AcDbPolyline
 62
7
  6
CONTINUOUS
 90
15
 70
0
 10
7.8109955898
 20
5.3220025977
 10
7.8100670056
 20
5.3545767587
 10
7.8091364633
 20
5.3891886462
 10
7.8081924364
 20
5.4255343154
 10
7.807243019
 20
5.4625110265
 10
7.8062988291
 20
5.4988681474
 10
7.8053681882
 20
5.5334935315
 10
7.8044399571
 20
5.5660700352
 10
7.8035073868
 20
5.5961080894
 10
7.8025706177
 20
5.6228976902
 10
7.8016396749
 20
5.6455709255
 10
7.8007014854
 20
5.663929408
 10
7.7997538517
 20
5.6774788553
 10
7.7988071853
 20
5.6856958531
 10
7.7981504413
 20
5.6881693383
  0
LWPOLYLINE
  5
570
100
AcDbEntity
  8
0
100
AcDbPolyline
 62
7
  6
CONTINUOUS
 90
11
 70
0
 10
7.8027827215
 20
5.4827655059
 10
7.8047725189
 20
5.4055207205
 10
7.8057550849
 20
5.3683266922
 10
7.8067295705
 20
5.3332736299
 10
7.8077053441
 20
5.3008559581
 10
7.8086879598
 20
5.2717169345
 10
7.809666665
 20
5.2468993175
 10
7.8106487241
 20
5.2268241699
 10
7.811643055
 20
5.2119273399
 10
7.8126377265
 20
5.2028636997
 10
7.8133420506
 20
5.2001075107
  0
LWPOLYLINE
  5
571
100
AcDbEntity
  8
0
100
AcDbPolyline
 62
7
  6
CONTINUOUS
 90
11
 70
0
 10
7.848080873
 20
5.4054719303
 10
7.8460910773
 20
5.4827166484
 10
7.8451084537
 20
5.5199142794
 10
7.8441338564
 20
5.554973474
 10
7.8431583234
 20
5.5873862587
 10
7.8421760194
 20
5.6165210142
 10
7.8411974046
 20
5.6413430531
 10
7.8402153122
 20
5.6614265799
 10
7.8392207344
 20
5.6763347587
 10
7.8382255599
 20
5.6854087903
 10
7.83752052
 20
5.6881693383
  0
LINE
  5
572
100
AcDbEntity
  8
0
100
AcDbLine
 62
7
  6
CONTINUOUS
 10
7.8178354807
 20
5.2001075107
 11
7.8352738049
 21
5.2302775973
  0
LINE
  5
573
100
AcDbEntity
  8
0
100
AcDbLine
 62
7
  6
CONTINUOUS
 10
7.8572055594
 20
5.2001075107
 11
7.8746438836
 21
5.2302775973
  0
LINE
  5
574
100
AcDbEntity
  8
0
100
AcDbLine
 62
7
  6
CONTINUOUS
 10
7.8965756381
 20
5.2001075107
 11
7.9140139623
 21
5.2302775973
  0
LINE
  5
575
100
AcDbEntity
  8
0
100
AcDbLine
 62
7
  6
CONTINUOUS
 10
7.8552769618
 20
5.6574489368
 11
7.83752052
 21
5.6881693383
  0
LINE
  5
576
100
AcDbEntity
  8
0
100
AcDbLine
 62
7
  6
CONTINUOUS
 10
7.8946470406
 20
5.6574489368
 11
7.8768905988
 21
5.6881693383
  0
LWPOLYLINE
  5
577
100
AcDbEntity
  8
0
100
AcDbPolyline
 62
7
  6
CONTINUOUS
 90
15
 70
0
 10
7.833305301
 20
5.688410078
 10
7.8342402562
 20
5.6856958531
 10
7.8351869226
 20
5.6774788553
 10
7.8361345562
 20
5.663929408
 10
7.8370727457
 20
5.6455709255
 10
7.8380036886
 20
5.6228976902
 10
7.8389404577
 20
5.5961080894
 10
7.839873028
 20
5.5660700352
 10
7.8408012591
 20
5.5334935315
 10
7.8417319
 20
5.4988681474
 10
7.8426760898
 20
5.4625110265
 10
7.8436255072
 20
5.4255343154
 10
7.8445695341
 20
5.3891886462
 10
7.8455000765
 20
5.3545767587
 10
7.8464286606
 20
5.3220025977
  0
LWPOLYLINE
  5
578
100
AcDbEntity
  8
0
100
AcDbPolyline
 62
7
  6
CONTINUOUS
 90
10
 70
0
 10
7.7939352223
 20
5.688410078
 10
7.7949176115
 20
5.6854140378
 10
7.7959121598
 20
5.6763527652
 10
7.7969063789
 20
5.6614594615
 10
7.7978883887
 20
5.6413874278
 10
7.7988671241
 20
5.6165709633
 10
7.7998498211
 20
5.5874309583
 10
7.8008256498
 20
5.5550123793
 10
7.8018001201
 20
5.5199604927
 10
7.8027827215
 20
5.4827655059
  0
LWPOLYLINE
  5
579
100
AcDbEntity
  8
0
100
AcDbPolyline
 62
7
  6
CONTINUOUS
 90
21
 70
0
 10
7.913695845
 20
5.2308279122
 10
7.9128836647
 20
5.2340183003
 10
7.9118816225
 20
5.2428013246
 10
7.9108795804
 20
5.2567223856
 10
7.9098775383
 20
5.2754262237
 10
7.9088754961
 20
5.2984355249
 10
7.907873454
 20
5.3251631017
 10
7.9068714119
 20
5.3549268779
 10
7.9058693697
 20
5.3869672945
 10
7.9048673276
 20
5.4204666939
 10
7.9038652854
 20
5.4545701858
 10
7.9028632433
 20
5.4884074635
 10
7.9018612012
 20
5.5211150144
 10
7.900859159
 20
5.5518581556
 10
7.8998571169
 20
5.5798523354
 10
7.8988550748
 20
5.6043831542
 10
7.8978530326
 20
5.6248245962
 10
7.8968509905
 20
5.6406550043
 10
7.8958489484
 20
5.6514703935
 10
7.8948469062
 20
5.6569947595
 10
7.8946470406
 20
5.6574489368
  0
LINE
  5
57A
100
AcDbEntity
  8
0
100
AcDbLine
 62
7
  6
CONTINUOUS
 10
7.9195753278
 20
5.2220020879
 11
7.9200102645
 21
5.2199044252
  0
LWPOLYLINE
  5
57B
100
AcDbEntity
  8
0
100
AcDbPolyline
 62
7
  6
CONTINUOUS
 90
9
 70
0
 10
7.9145721147
 20
5.4089766537
 10
7.9151960147
 20
5.3740586715
 10
7.9158147968
 20
5.341312406
 10
7.9164347945
 20
5.3111715377
 10
7.9170596628
 20
5.2842246655
 10
7.9176825916
 20
5.2614297229
 10
7.9183077055
 20
5.2431784967
 10
7.9189411737
 20
5.2298426906
 10
7.9195753278
 20
5.2220020879
  0
LINE
  5
57C
100
AcDbEntity
  8
0
100
AcDbLine
 62
7
  6
CONTINUOUS
 10
7.9356675058
 20
5.2352998418
 11
7.9356675058
 21
5.6529770072
  0
LINE
  5
57D
100
AcDbEntity
  8
0
100
AcDbLine
 62
7
  6
CONTINUOUS
 10
7.9750375845
 20
5.647878582
 11
7.9750375845
 21
5.240398267
  0
LINE
  5
57E
100
AcDbEntity
  8
0
100
AcDbLine
 62
7
  6
CONTINUOUS
 10
7.8736257808
 20
5.6856056052
 11
7.8726753798
 21
5.688410078
  0
LWPOLYLINE
  5
57F
100
AcDbEntity
  8
0
100
AcDbPolyline
 62
7
  6
CONTINUOUS
 90
22
 70
0
 10
7.8768905988
 20
5.6881693383
 10
7.8775573606
 20
5.6856374875
 10
7.8785023572
 20
5.6773823827
 10
7.8794473401
 20
5.6638324042
 10
7.8803922864
 20
5.6452958851
 10
7.8813372201
 20
5.6221935071
 10
7.8822821562
 20
5.5950493846
 10
7.8832270778
 20
5.5644802129
 10
7.8841719935
 20
5.5311796825
 10
7.8851169175
 20
5.4959031643
 10
7.8860618555
 20
5.4594511205
 10
7.8870067947
 20
5.4226514408
 10
7.8879517223
 20
5.3863399399
 10
7.8888966365
 20
5.3513408751
 10
7.8898415457
 20
5.3184482978
 10
7.8907864603
 20
5.2884084527
 10
7.8917313812
 20
5.2619032154
 10
7.8926763008
 20
5.2395344489
 10
7.8936212306
 20
5.2218096848
 10
7.8945661831
 20
5.2091312759
 10
7.8955111425
 20
5.2017874719
 10
7.8962974456
 20
5.1998667709
  0
LWPOLYLINE
  5
580
100
AcDbEntity
  8
0
100
AcDbPolyline
 62
7
  6
CONTINUOUS
 90
11
 70
0
 10
7.9077223436
 20
5.6809222233
 10
7.9083413038
 20
5.6774422788
 10
7.9089683145
 20
5.6681850193
 10
7.9095955346
 20
5.653412575
 10
7.9102155748
 20
5.6337781259
 10
7.9108336161
 20
5.6097305353
 10
7.9114547124
 20
5.5816714313
 10
7.9120719645
 20
5.5506149892
 10
7.9126887334
 20
5.5171896916
 10
7.9133106684
 20
5.4818905242
 10
7.9145721147
 20
5.4089766537
  0
LINE
  5
581
100
AcDbEntity
  8
0
100
AcDbLine
 62
9
  6
CONTINUOUS
 10
10.9265642295
 20
4.8634297631
 11
11.141302657
 21
4.8634297631
  0
LWPOLYLINE
  5
582
100
AcDbEntity
  8
02___PRT_ALL_AXES
100
AcDbPolyline
 62
7
  6
CONTINUOUS
 90
16
 70
0
 10
10.8079495342
 20
4.9027998418
 10
10.7262317067
 20
4.9447029136
 10
10.652055097
 20
4.9988462542
 10
10.5872376409
 20
5.0639029075
 10
10.5333678979
 20
5.1382784515
 10
10.4917661189
 20
5.2201500751
 10
10.4634518889
 20
5.3075112515
 10
10.4491191389
 20
5.3982209149
 10
10.4491191389
 20
5.4900559341
 10
10.4634518889
 20
5.5807655975
 10
10.4917661189
 20
5.6681267739
 10
10.5333678979
 20
5.7499983974
 10
10.5872376409
 20
5.8243739415
 10
10.652055097
 20
5.8894305948
 10
10.7262317067
 20
5.9435739354
 10
10.8079495342
 20
5.9854770072
  0
LINE
  5
583
100
AcDbEntity
  8
02___PRT_ALL_AXES
100
AcDbLine
 62
7
  6
CONTINUOUS
 10
10.8079495342
 20
4.9027998418
 11
10.9302360638
 21
4.9027998418
  0
LINE
  5
584
100
AcDbEntity
  8
0
100
AcDbLine
 62
7
  6
CONTINUOUS
 10
10.9302360638
 20
4.9027998418
 11
11.1376308227
 21
4.9027998418
  0
LINE
  5
585
100
AcDbEntity
  8
02___PRT_ALL_AXES
100
AcDbLine
 62
7
  6
CONTINUOUS
 10
11.1376308227
 20
4.9027998418
 11
11.2599173523
 21
4.9027998418
  0
LINE
  5
586
100
AcDbEntity
  8
0
100
AcDbLine
 62
9
  6
CONTINUOUS
 10
10.9340427783
 20
4.9421699206
 11
11.1338241083
 21
4.9421699206
  0
LWPOLYLINE
  5
587
100
AcDbEntity
  8
0
100
AcDbPolyline
 62
7
  6
CONTINUOUS
 90
20
 70
0
 10
11.0447025069
 20
5.0088840011
 10
10.9751682851
 20
5.0159369154
 10
10.908088402
 20
5.0339709822
 10
10.8448836332
 20
5.0625594165
 10
10.7877918281
 20
5.1005454467
 10
10.7375767227
 20
5.1473009624
 10
10.6960214406
 20
5.2010768624
 10
10.6639311883
 20
5.2605625607
 10
10.6420413829
 20
5.3242641122
 10
10.6309542626
 20
5.3899872453
 10
10.6307609198
 20
5.4565698188
 10
10.6413805398
 20
5.5216509648
 10
10.6624333475
 20
5.5838140096
 10
10.6932643205
 20
5.6413578707
 10
10.7328264459
 20
5.692606224
 10
10.7801164229
 20
5.7364390557
 10
10.8336082731
 20
5.7715718877
 10
10.891727631
 20
5.7971541287
 10
10.952990499
 20
5.8126526036
 10
11.0154369732
 20
5.8176965329
  0
LWPOLYLINE
  5
588
100
AcDbEntity
  8
0
100
AcDbPolyline
 62
7
  6
CONTINUOUS
 90
19
 70
0
 10
11.0339334433
 20
5.2198344423
 10
11.0671084108
 20
5.2228991854
 10
11.0997902465
 20
5.2309657165
 10
11.1308493822
 20
5.2438394179
 10
11.1592478486
 20
5.2609856756
 10
11.1846031981
 20
5.282010816
 10
11.2065985506
 20
5.3066209385
 10
11.2245683475
 20
5.334038533
 10
11.2382002623
 20
5.3636425534
 10
11.2473150189
 20
5.3950154925
 10
11.2516781669
 20
5.4277164836
 10
11.2510508247
 20
5.4608430105
 10
11.2454751508
 20
5.4932094503
 10
11.2352518076
 20
5.5239578285
 10
11.2206678748
 20
5.5526491253
 10
11.2019384582
 20
5.5789056307
 10
11.1794461987
 20
5.6021160807
 10
11.1538678681
 20
5.6215954668
 10
11.1255725211
 20
5.6370662261
  0
LWPOLYLINE
  5
589
100
AcDbEntity
  8
0
100
AcDbPolyline
 62
7
  6
CONTINUOUS
 90
3
 70
0
 10
10.9317920509
 20
5.9692066577
 10
10.932854269
 20
5.9582407373
 10
10.9340427783
 20
5.9461069284
  0
LINE
  5
58A
100
AcDbEntity
  8
0
100
AcDbLine
 62
7
  6
CONTINUOUS
 10
10.9300524833
 20
5.9874128595
 11
10.9317920509
 21
5.9692066577
  0
LWPOLYLINE
  5
58B
100
AcDbEntity
  8
0
100
AcDbPolyline
 62
7
  6
CONTINUOUS
 90
4
 70
0
 10
10.9265642295
 20
6.0248470859
 10
10.9276828822
 20
6.0127075964
 10
10.9287036904
 20
6.0017408497
 10
10.9300524833
 20
5.9874128595
  0
LINE
  5
58C
100
AcDbEntity
  8
02___PRT_ALL_AXES
100
AcDbLine
 62
7
  6
CENTER
 10
11.0339334433
 20
5.4441384245
 11
11.0339334433
 21
4.359886456
  0
LINE
  5
58D
100
AcDbEntity
  8
02___PRT_ALL_AXES
100
AcDbLine
 62
7
  6
CENTER
 10
11.0339334433
 20
5.4441384245
 11
11.0339334433
 21
6.528390393
  0
LWPOLYLINE
  5
58E
100
AcDbEntity
  8
0
100
AcDbPolyline
 62
7
  6
CONTINUOUS
 90
3
 70
0
 10
10.9287036904
 20
4.8865359993
 10
10.9276828822
 20
4.8755692525
 10
10.9265642295
 20
4.8634297631
  0
LINE
  5
58F
100
AcDbEntity
  8
0
100
AcDbLine
 62
7
  6
CONTINUOUS
 10
10.9287036904
 20
4.8865359993
 11
10.930420081
 21
4.9047368633
  0
LWPOLYLINE
  5
590
100
AcDbEntity
  8
0
100
AcDbPolyline
 62
7
  6
CONTINUOUS
 90
4
 70
0
 10
10.930420081
 20
4.9047368633
 10
10.9317920509
 20
4.9190701913
 10
10.932854269
 20
4.9300361116
 10
10.9340427783
 20
4.9421699206
  0
LINE
  5
591
100
AcDbEntity
  8
02___PRT_ALL_AXES
100
AcDbLine
 62
7
  6
CENTER
 10
11.0339334433
 20
5.4441384245
 11
9.9496814748
 21
5.4441384245
  0
LINE
  5
592
100
AcDbEntity
  8
02___PRT_ALL_AXES
100
AcDbLine
 62
7
  6
CENTER
 10
11.0339334433
 20
5.4441384245
 11
12.1181854118
 21
5.4441384245
  0
LINE
  5
593
100
AcDbEntity
  8
0
100
AcDbLine
 62
7
  6
CONTINUOUS
 10
11.1160580497
 20
5.3286071984
 11
11.1315475146
 21
5.3131177335
  0
LWPOLYLINE
  5
594
100
AcDbEntity
  8
0
100
AcDbPolyline
 62
7
  6
CONTINUOUS
 90
3
 70
0
 10
11.1360748356
 20
4.9190701913
 10
11.1350126175
 20
4.9300361116
 10
11.1338241083
 20
4.9421699206
  0
LINE
  5
595
100
AcDbEntity
  8
0
100
AcDbLine
 62
7
  6
CONTINUOUS
 10
11.1360748356
 20
4.9190701913
 11
11.1378144032
 21
4.9008639895
  0
LWPOLYLINE
  5
596
100
AcDbEntity
  8
0
100
AcDbPolyline
 62
7
  6
CONTINUOUS
 90
4
 70
0
 10
11.1378144032
 20
4.9008639895
 10
11.1391631961
 20
4.8865359993
 10
11.1401840043
 20
4.8755692525
 10
11.141302657
 20
4.8634297631
  0
LWPOLYLINE
  5
597
100
AcDbEntity
  8
0
100
AcDbPolyline
 62
7
  6
CONTINUOUS
 90
3
 70
0
 10
11.1391631961
 20
6.0017408497
 10
11.1401840043
 20
6.0127075964
 10
11.141302657
 20
6.0248470859
  0
LINE
  5
598
100
AcDbEntity
  8
0
100
AcDbLine
 62
7
  6
CONTINUOUS
 10
11.1391631961
 20
6.0017408497
 11
11.1374468055
 21
5.9835399857
  0
LWPOLYLINE
  5
599
100
AcDbEntity
  8
0
100
AcDbPolyline
 62
7
  6
CONTINUOUS
 90
4
 70
0
 10
11.1374468055
 20
5.9835399857
 10
11.1360748356
 20
5.9692066577
 10
11.1350126175
 20
5.9582407373
 10
11.1338241083
 20
5.9461069284
  0
LINE
  5
59A
100
AcDbEntity
  8
0
100
AcDbLine
 62
7
  6
CONTINUOUS
 10
11.1649541342
 20
5.3465243531
 11
11.1494646693
 21
5.362013818
  0
LWPOLYLINE
  5
59B
100
AcDbEntity
  8
0
100
AcDbPolyline
 62
7
  6
CONTINUOUS
 90
13
 70
0
 10
11.2662502624
 20
5.3686563983
 10
11.2745502694
 20
5.4058043341
 10
11.2769562259
 20
5.4441945885
 10
11.2732876129
 20
5.4824058875
 10
11.2638098291
 20
5.5190432683
 10
11.2489141137
 20
5.553405923
 10
11.2288840259
 20
5.5850377704
 10
11.2040483867
 20
5.613312891
 10
11.175281149
 20
5.6372250807
 10
11.1431024829
 20
5.6563787814
 10
11.1079503694
 20
5.6703782424
 10
11.0710920679
 20
5.6786205231
 10
11.0339334433
 20
5.6809222233
  0
LWPOLYLINE
  5
59C
100
AcDbEntity
  8
0
100
AcDbPolyline
 62
7
  6
CONTINUOUS
 90
21
 70
0
 10
11.0339334433
 20
5.6809222233
 10
10.9972845348
 20
5.6774422788
 10
10.9612616357
 20
5.6681850193
 10
10.9272220408
 20
5.653412575
 10
10.8963512733
 20
5.6337781259
 10
10.8690634882
 20
5.6097305353
 10
10.8457908359
 20
5.5816714313
 10
10.8273217597
 20
5.5506149892
 10
10.8139270275
 20
5.5171896916
 10
10.8058410812
 20
5.4818905242
 10
10.803371653
 20
5.445367467
 10
10.8067038098
 20
5.4089766537
 10
10.8155943444
 20
5.3740586715
 10
10.8296626899
 20
5.341312406
 10
10.8486327528
 20
5.3111715377
 10
10.8721944875
 20
5.2842246655
 10
10.8995219386
 20
5.2614297229
 10
10.9301026231
 20
5.2431784967
 10
10.9635282419
 20
5.2298426906
 10
10.9985877486
 20
5.2220020879
 10
11.0339334433
 20
5.2198344423
  0
LWPOLYLINE
  5
59D
100
AcDbEntity
  8
0
100
AcDbPolyline
 62
7
  6
CONTINUOUS
 90
15
 70
0
 10
11.1255725211
 20
5.6370662261
 10
11.1544757272
 20
5.6231313009
 10
11.1812584715
 20
5.6048386731
 10
11.2052889158
 20
5.5824802578
 10
11.225788991
 20
5.556691317
 10
11.2422889464
 20
5.5280622189
 10
11.2545108526
 20
5.496962531
 10
11.26211554
 20
5.4637818778
 10
11.2647080206
 20
5.429335396
 10
11.2621183061
 20
5.3948120079
 10
11.254491471
 20
5.3612171922
 10
11.2420284598
 20
5.3290763246
 10
11.2248221515
 20
5.2987525863
 10
11.2031198611
 20
5.270943765
 10
11.1775144762
 20
5.2465197824
  0
LWPOLYLINE
  5
59E
100
AcDbEntity
  8
0
100
AcDbPolyline
 62
7
  6
CONTINUOUS
 90
20
 70
0
 10
11.0339334433
 20
5.8181541725
 10
11.0965966967
 20
5.8161995874
 10
11.1587036576
 20
5.8036978959
 10
11.217909091
 20
5.7810355388
 10
11.2732100885
 20
5.7484742378
 10
11.3224161204
 20
5.707161571
 10
11.3645444721
 20
5.6578083728
 10
11.3981598561
 20
5.6018361209
 10
11.4221924833
 20
5.5409040058
 10
11.4360305636
 20
5.4762405006
 10
11.439098745
 20
5.4100165837
 10
11.4312416015
 20
5.3436300288
 10
11.412541672
 20
5.2790331043
 10
11.3834550769
 20
5.2180900815
 10
11.3445439299
 20
5.162243365
 10
11.2968831742
 20
5.113240948
 10
11.2416356649
 20
5.0723837411
 10
11.1800021716
 20
5.0407350835
 10
11.1139481725
 20
5.0194012755
 10
11.0447025069
 20
5.0088840011
  0
LINE
  5
59F
100
AcDbEntity
  8
0
100
AcDbLine
 62
9
  6
CONTINUOUS
 10
11.1338241083
 20
5.9461069284
 11
10.9340427783
 21
5.9461069284
  0
LINE
  5
5A0
100
AcDbEntity
  8
02___PRT_ALL_AXES
100
AcDbLine
 62
7
  6
CONTINUOUS
 10
11.2599173523
 20
5.9854770072
 11
11.1376308227
 21
5.9854770072
  0
LINE
  5
5A1
100
AcDbEntity
  8
0
100
AcDbLine
 62
7
  6
CONTINUOUS
 10
11.1376308227
 20
5.9854770072
 11
10.9302360638
 21
5.9854770072
  0
LINE
  5
5A2
100
AcDbEntity
  8
02___PRT_ALL_AXES
100
AcDbLine
 62
7
  6
CONTINUOUS
 10
10.9302360638
 20
5.9854770072
 11
10.8079495342
 21
5.9854770072
  0
LINE
  5
5A3
100
AcDbEntity
  8
0
100
AcDbLine
 62
9
  6
CONTINUOUS
 10
11.141302657
 20
6.0248470859
 11
10.9265642295
 21
6.0248470859
  0
LWPOLYLINE
  5
5A4
100
AcDbEntity
  8
02___PRT_ALL_AXES
100
AcDbPolyline
 62
7
  6
CONTINUOUS
 90
16
 70
0
 10
11.2599173523
 20
5.9854770072
 10
11.3416351798
 20
5.9435739354
 10
11.4158117895
 20
5.8894305948
 10
11.4806292456
 20
5.8243739415
 10
11.5344989886
 20
5.7499983974
 10
11.5761007676
 20
5.6681267739
 10
11.6044149976
 20
5.5807655975
 10
11.6187477476
 20
5.4900559341
 10
11.6187477476
 20
5.3982209149
 10
11.6044149976
 20
5.3075112515
 10
11.5761007676
 20
5.2201500751
 10
11.5344989886
 20
5.1382784515
 10
11.4806292456
 20
5.0639029075
 10
11.4158117895
 20
4.9988462542
 10
11.3416351798
 20
4.9447029136
 10
11.2599173523
 20
4.9027998418
  0
LWPOLYLINE
  5
5A5
100
AcDbEntity
  8
0
100
AcDbPolyline
 62
9
  6
CONTINUOUS
 90
12
 70
0
 10
14.4633222248
 20
9.6148755254
 10
14.4124409535
 20
9.5842329378
 10
14.3516547828
 20
9.5366813171
 10
14.3038231834
 20
9.4844302914
 10
14.2700145653
 20
9.4286469911
 10
14.2509842021
 20
9.3705775833
 10
14.2471571871
 20
9.3115192593
 10
14.2586190425
 20
9.2527911219
 10
14.285113551
 20
9.1957055492
 10
14.326049379
 20
9.1415368482
 10
14.3805118009
 20
9.0914957287
 10
14.4472818498
 20
9.0467013517
  0
LWPOLYLINE
  5
5A6
100
AcDbEntity
  8
0
100
AcDbPolyline
 62
7
  6
CONTINUOUS
 90
9
 70
0
 10
14.9700952508
 20
7.2967322777
 10
15.0070533643
 20
7.3026660371
 10
15.042122806
 20
7.3118288756
 10
15.074783176
 20
7.3241411018
 10
15.1042699804
 20
7.3394629738
 10
15.1294132072
 20
7.3572947091
 10
15.1493624775
 20
7.3769507455
 10
15.1638702146
 20
7.3979958342
 10
15.1725370763
 20
7.4195238706
  0
LWPOLYLINE
  5
5A7
100
AcDbEntity
  8
0
100
AcDbPolyline
 62
7
  6
CONTINUOUS
 90
7
 70
0
 10
14.9947983876
 20
7.303517165
 10
14.9591344613
 20
7.298851044
 10
14.9226953701
 20
7.2972793519
 10
14.886673543
 20
7.2988294382
 10
14.8513962652
 20
7.3034747462
 10
14.8175822713
 20
7.3111862231
 10
14.7864035961
 20
7.3217238826
  0
LWPOLYLINE
  5
5A8
100
AcDbEntity
  8
0
100
AcDbPolyline
 62
7
  6
CONTINUOUS
 90
7
 70
0
 10
14.9947983876
 20
7.332448353
 10
15.0289439829
 20
7.3400892216
 10
15.0610198336
 20
7.3505903957
 10
15.0906453872
 20
7.3639328284
 10
15.1168041873
 20
7.3797963823
 10
15.1386104783
 20
7.3976626494
 10
15.1533427966
 20
7.4144587643
  0
LWPOLYLINE
  5
5A9
100
AcDbEntity
  8
0
100
AcDbPolyline
 62
9
  6
CONTINUOUS
 90
14
 70
0
 10
14.6221180856
 20
7.4571477475
 10
14.6954944708
 20
7.4329270206
 10
14.7744208028
 20
7.415468568
 10
14.8570479179
 20
7.4051819411
 10
14.9414287769
 20
7.4023104013
 10
15.0255767038
 20
7.406921533
 10
15.1075133136
 20
7.4189066766
 10
15.185312738
 20
7.437984099
 10
15.2571449694
 20
7.4637051349
 10
15.3213205827
 20
7.4954648601
 10
15.3763303529
 20
7.5325163724
 10
15.4208806029
 20
7.5739883298
 10
15.4539235567
 20
7.6189053328
 10
15.4695406226
 20
7.6544941875
  0
LWPOLYLINE
  5
5AA
100
AcDbEntity
  8
0
100
AcDbPolyline
 62
7
  6
CONTINUOUS
 90
7
 70
0
 10
14.7588498256
 20
7.331445201
 10
14.7879158217
 20
7.3179085758
 10
14.8209295853
 20
7.3070498904
 10
14.8567196054
 20
7.299349199
 10
14.8939273918
 20
7.295050964
 10
14.931935162
 20
7.2941652773
 10
14.9700952508
 20
7.2967322777
  0
LINE
  5
5AB
100
AcDbEntity
  8
0
100
AcDbLine
 62
7
  6
CONTINUOUS
 10
14.7879426564
 20
7.3532583474
 11
14.7588498256
 21
7.3668055419
  0
LINE
  5
5AC
100
AcDbEntity
  8
0
100
AcDbLine
 62
7
  6
CONTINUOUS
 10
14.7864035961
 20
7.3217238826
 11
14.7588498256
 21
7.3346597774
  0
LWPOLYLINE
  5
5AD
100
AcDbEntity
  8
0
100
AcDbPolyline
 62
7
  6
CONTINUOUS
 90
8
 70
0
 10
14.7588498256
 20
7.3635909654
 10
14.7864035961
 20
7.3506550706
 10
14.8175822713
 20
7.3401174111
 10
14.8513962652
 20
7.3324059342
 10
14.886673543
 20
7.3277606262
 10
14.9226953701
 20
7.3262105399
 10
14.9591344613
 20
7.327782232
 10
14.9947983876
 20
7.332448353
  0
LINE
  5
5AE
100
AcDbEntity
  8
0
100
AcDbLine
 62
7
  6
CONTINUOUS
 10
14.6294946142
 20
7.4395735504
 11
14.6309544191
 21
7.438872859
  0
LINE
  5
5AF
100
AcDbEntity
  8
0
100
AcDbLine
 62
7
  6
CONTINUOUS
 10
14.7994950775
 20
7.274900035
 11
14.7729690426
 21
7.2879328515
  0
LWPOLYLINE
  5
5B0
100
AcDbEntity
  8
0
100
AcDbPolyline
 62
7
  6
CONTINUOUS
 90
12
 70
0
 10
14.783904686
 20
7.2816190161
 10
14.8074246202
 20
7.2699237909
 10
14.8337866586
 20
7.2603397898
 10
14.8623926489
 20
7.2531129352
 10
14.8925719021
 20
7.2484263086
 10
14.9236179062
 20
7.2463924171
 10
14.9548355761
 20
7.2470550592
 10
14.9855329878
 20
7.2503987506
 10
15.0150254547
 20
7.2563492731
 10
15.0426496345
 20
7.2647730288
 10
15.0677885363
 20
7.2754818041
 10
15.0792478492
 20
7.2816221734
  0
LINE
  5
5B1
100
AcDbEntity
  8
0
100
AcDbLine
 62
7
  6
CONTINUOUS
 10
14.7729650887
 20
7.2879351343
 11
14.7839046689
 21
7.281618987
  0
LINE
  5
5B2
100
AcDbEntity
  8
0
100
AcDbLine
 62
7
  6
CONTINUOUS
 10
14.7339871985
 20
7.3474454791
 11
14.7588498256
 21
7.331445201
  0
LWPOLYLINE
  5
5B3
100
AcDbEntity
  8
0
100
AcDbPolyline
 62
7
  6
CONTINUOUS
 90
6
 70
0
 10
14.7588498256
 20
7.3346597774
 10
14.7339779542
 20
7.3506670692
 10
14.7137513337
 20
7.3689414282
 10
14.6990152845
 20
7.388810189
 10
14.6902009069
 20
7.409496161
 10
14.6887509991
 20
7.4199388642
  0
LWPOLYLINE
  5
5B4
100
AcDbEntity
  8
0
100
AcDbPolyline
 62
7
  6
CONTINUOUS
 90
3
 70
0
 10
14.7729651147
 20
7.2879351193
 10
14.7516777921
 20
7.3022446187
 10
14.7461360258
 20
7.307385314
  0
LWPOLYLINE
  5
5B5
100
AcDbEntity
  8
02___PRT_ALL_AXES
100
AcDbPolyline
 62
7
  6
CONTINUOUS
 90
8
 70
0
 10
13.9473256555
 20
8.7491580174
 10
13.9510690137
 20
8.6996154091
 10
13.967658143
 20
8.6342315626
 10
13.9972825976
 20
8.5704017099
 10
14.0395417575
 20
8.5089890403
 10
14.0938641401
 20
8.4508240547
 10
14.1595151284
 20
8.3966933349
 10
14.2356069054
 20
8.347328906
  0
LWPOLYLINE
  5
5B6
100
AcDbEntity
  8
0
100
AcDbPolyline
 62
9
  6
CONTINUOUS
 90
8
 70
0
 10
13.9473232806
 20
8.3633948447
 10
13.9477946725
 20
8.3458099267
 10
13.9610238323
 20
8.268911832
 10
13.9923833873
 20
8.193426116
 10
14.0404686382
 20
8.1220956175
 10
14.1012719563
 20
8.0582498559
 10
14.1687558199
 20
8.0042999663
 10
14.2356069054
 20
7.9615797326
  0
LWPOLYLINE
  5
5B7
100
AcDbEntity
  8
02___PRT_ALL_AXES
100
AcDbPolyline
 62
7
  6
CONTINUOUS
 90
9
 70
0
 10
13.9473250677
 20
8.749144018
 10
13.9476843304
 20
8.7337537924
 10
13.9563340734
 20
8.672427914
 10
13.9764176276
 20
8.6120014618
 10
14.0076995316
 20
8.5531828807
 10
14.0498130337
 20
8.4966617647
 10
14.1022643915
 20
8.4431007723
 10
14.1644386609
 20
8.3931278572
 10
14.2356069054
 20
8.347328906
  0
LINE
  5
5B8
100
AcDbEntity
  8
02___PRT_ALL_AXES
100
AcDbLine
 62
7
  6
CONTINUOUS
 10
13.9473232806
 20
8.7491440181
 11
13.9473232806
 21
8.3633948447
  0
LWPOLYLINE
  5
5B9
100
AcDbEntity
  8
02___PRT_ALL_AXES
100
AcDbPolyline
 62
7
  6
CONTINUOUS
 90
9
 70
0
 10
13.9473232806
 20
8.7491440181
 10
13.9564332607
 20
8.8827480599
 10
13.9840635935
 20
9.0155527265
 10
14.0303055126
 20
9.1447003345
 10
14.0946693605
 20
9.2671599166
 10
14.1735322389
 20
9.3769359678
 10
14.2624200166
 20
9.4709356863
 10
14.3582410163
 20
9.5491688896
 10
14.4633222248
 20
9.6148755254
  0
LWPOLYLINE
  5
5BA
100
AcDbEntity
  8
02___PRT_ALL_AXES
100
AcDbPolyline
 62
7
  6
CONTINUOUS
 90
14
 70
0
 10
14.7085880799
 20
7.4635016914
 10
14.7960013733
 20
7.4484504672
 10
14.8867373393
 20
7.4414748937
 10
14.9785722021
 20
7.4427754043
 10
15.0692552538
 20
7.4523496001
 10
15.1565640155
 20
7.4699923095
 10
15.2383587059
 20
7.4953006158
 10
15.3126346839
 20
7.5276837322
 10
15.3775715784
 20
7.5663774813
 10
15.4315779025
 20
7.6104630231
 10
15.4733300582
 20
7.6588893746
 10
15.5018047748
 20
7.7104991673
 10
15.5163041883
 20
7.7640570122
 10
15.5181894224
 20
7.7918029385
  0
LWPOLYLINE
  5
5BB
100
AcDbEntity
  8
02___PRT_ALL_AXES
100
AcDbPolyline
 62
7
  6
CONTINUOUS
 90
13
 70
0
 10
14.7085880799
 20
7.4695290222
 10
14.7960013733
 20
7.454477798
 10
14.8867373393
 20
7.4475022246
 10
14.9785722021
 20
7.4488027351
 10
15.0692552538
 20
7.458376931
 10
15.1565640155
 20
7.4760196404
 10
15.2383587059
 20
7.5013279466
 10
15.3126346839
 20
7.5337110631
 10
15.3775715784
 20
7.5724048121
 10
15.4315779025
 20
7.616490354
 10
15.4733300582
 20
7.6649167055
 10
15.5018047748
 20
7.7165264981
 10
15.5163041883
 20
7.770084343
  0
LWPOLYLINE
  5
5BC
100
AcDbEntity
  8
02___PRT_ALL_AXES
100
AcDbPolyline
 62
7
  6
CONTINUOUS
 90
11
 70
0
 10
14.7085880799
 20
7.511720338
 10
14.7960013733
 20
7.4966691139
 10
14.8867373393
 20
7.4896935404
 10
14.9785722021
 20
7.4909940509
 10
15.0692552538
 20
7.5005682468
 10
15.1565640155
 20
7.5182109562
 10
15.2383587059
 20
7.5435192625
 10
15.3126346839
 20
7.5759023789
 10
15.3775715784
 20
7.614596128
 10
15.4315779025
 20
7.6586816698
 10
15.4733300582
 20
7.7071080213
  0
LWPOLYLINE
  5
5BD
100
AcDbEntity
  8
02___PRT_ALL_AXES
100
AcDbPolyline
 62
7
  6
CONTINUOUS
 90
11
 70
0
 10
14.7085880799
 20
7.5177476689
 10
14.7960013733
 20
7.5026964447
 10
14.8867373393
 20
7.4957208713
 10
14.9785722021
 20
7.4970213818
 10
15.0692552538
 20
7.5065955777
 10
15.1565640155
 20
7.524238287
 10
15.2383587059
 20
7.5495465933
 10
15.3126346839
 20
7.5819297098
 10
15.3775715784
 20
7.6206234588
 10
15.4315779025
 20
7.6647090006
 10
15.4733300582
 20
7.7131353521
  0
LWPOLYLINE
  5
5BE
100
AcDbEntity
  8
02___PRT_ALL_AXES
100
AcDbPolyline
 62
7
  6
CONTINUOUS
 90
3
 70
0
 10
14.7733401377
 20
7.4954197487
 10
14.6950596747
 20
7.5116420699
 10
14.6221180856
 20
7.5345723911
  0
LWPOLYLINE
  5
5BF
100
AcDbEntity
  8
02___PRT_ALL_AXES
100
AcDbPolyline
 62
7
  6
CONTINUOUS
 90
4
 70
0
 10
14.7085880799
 20
7.4635016914
 10
14.679638933
 20
7.4728618351
 10
14.6507973222
 20
7.4833922624
 10
14.6221180856
 20
7.4951382019
  0
LWPOLYLINE
  5
5C0
100
AcDbEntity
  8
02___PRT_ALL_AXES
100
AcDbPolyline
 62
7
  6
CONTINUOUS
 90
3
 70
0
 10
14.7085880799
 20
7.511720338
 10
14.6796127884
 20
7.5210894696
 10
14.6507766459
 20
7.5316189101
  0
LWPOLYLINE
  5
5C1
100
AcDbEntity
  8
02___PRT_ALL_AXES
100
AcDbPolyline
 62
7
  6
CONTINUOUS
 90
4
 70
0
 10
14.3889972403
 20
7.6479709721
 10
14.4179681803
 20
7.6386033366
 10
14.4468039938
 20
7.6280742113
 10
14.4754672346
 20
7.6163344616
  0
LINE
  5
5C2
100
AcDbEntity
  8
02___PRT_ALL_AXES
100
AcDbLine
 62
7
  6
CONTINUOUS
 10
14.6507766459
 20
7.5316189101
 11
14.6221180856
 21
7.5433568486
  0
LWPOLYLINE
  5
5C3
100
AcDbEntity
  8
0
100
AcDbPolyline
 62
7
  6
CONTINUOUS
 90
11
 70
0
 10
14.7588498256
 20
7.3957367299
 10
14.7879426564
 20
7.3821895354
 10
14.8209815417
 20
7.3713274039
 10
14.8567888127
 20
7.3636293939
 10
14.8940026184
 20
7.3593373197
 10
14.9320067309
 20
7.3584583721
 10
14.9701508776
 20
7.3610301189
 10
15.007094693
 20
7.3669662307
 10
15.0421660325
 20
7.3761340885
 10
15.074823203
 20
7.3884503928
 10
15.101105001
 20
7.4021123295
  0
LINE
  5
5C4
100
AcDbEntity
  8
0
100
AcDbLine
 62
7
  6
CONTINUOUS
 10
14.7879195283
 20
7.3854132211
 11
14.7588498256
 21
7.3989513063
  0
LINE
  5
5C5
100
AcDbEntity
  8
0
100
AcDbLine
 62
7
  6
CONTINUOUS
 10
14.629470194
 20
7.439587649
 11
14.4844231829
 21
7.5233286855
  0
LINE
  5
5C6
100
AcDbEntity
  8
0
100
AcDbLine
 62
9
  6
CONTINUOUS
 10
14.6221180856
 20
7.4571477475
 11
14.4754672346
 21
7.5418147404
  0
LWPOLYLINE
  5
5C7
100
AcDbEntity
  8
0
100
AcDbPolyline
 62
7
  6
CONTINUOUS
 90
4
 70
0
 10
14.7588498256
 20
7.3668055419
 10
14.7340070187
 20
7.3827907857
 10
14.7137903562
 20
7.4010446266
 10
14.7033000983
 20
7.4151726942
  0
LINE
  5
5C8
100
AcDbEntity
  8
0
100
AcDbLine
 62
7
  6
CONTINUOUS
 10
14.741744826
 20
7.4067430381
 11
14.7588498256
 21
7.3957367299
  0
LINE
  5
5C9
100
AcDbEntity
  8
0
100
AcDbLine
 62
7
  6
CONTINUOUS
 10
14.7588498256
 20
7.3989513063
 11
14.7492849315
 21
7.4051066413
  0
LINE
  5
5CA
100
AcDbEntity
  8
0
100
AcDbLine
 62
7
  6
CONTINUOUS
 10
14.7339779542
 20
7.3795982573
 11
14.7588498256
 21
7.3635909654
  0
LWPOLYLINE
  5
5CB
100
AcDbEntity
  8
02___PRT_ALL_AXES
100
AcDbPolyline
 62
7
  6
CONTINUOUS
 90
5
 70
0
 10
14.4754672346
 20
7.6251189191
 10
14.4540755214
 20
7.6401165252
 10
14.4320278425
 20
7.6563472042
 10
14.410052496
 20
7.6732744471
 10
14.3889972403
 20
7.690162288
  0
LINE
  5
5CC
100
AcDbEntity
  8
0
100
AcDbLine
 62
7
  6
CONTINUOUS
 10
14.4820587272
 20
7.5249960671
 11
14.4844009473
 21
7.523341523
  0
LWPOLYLINE
  5
5CD
100
AcDbEntity
  8
02___PRT_ALL_AXES
100
AcDbPolyline
 62
7
  6
CONTINUOUS
 90
4
 70
0
 10
14.4754672346
 20
7.5769002724
 10
14.4468092997
 20
7.59716171
 10
14.4179709056
 20
7.6188722785
 10
14.3889972403
 20
7.6419436413
  0
LWPOLYLINE
  5
5CE
100
AcDbEntity
  8
02___PRT_ALL_AXES
100
AcDbPolyline
 62
7
  6
CONTINUOUS
 90
4
 70
0
 10
14.6221180856
 20
7.5345723911
 10
14.6508039837
 20
7.5142905328
 10
14.6796480755
 20
7.4925742974
 10
14.7085880799
 20
7.4695290222
  0
LWPOLYLINE
  5
5CF
100
AcDbEntity
  8
0
100
AcDbPolyline
 62
7
  6
CONTINUOUS
 90
4
 70
0
 10
14.4820592758
 20
7.5249957568
 10
14.4378044384
 20
7.5699803281
 10
14.405710116
 20
7.6187827175
 10
14.400407401
 20
7.6328578748
  0
LWPOLYLINE
  5
5D0
100
AcDbEntity
  8
02___PRT_ALL_AXES
100
AcDbPolyline
 62
7
  6
CONTINUOUS
 90
6
 70
0
 10
14.7085880799
 20
7.5599389847
 10
14.7960013733
 20
7.5448877606
 10
14.8867373393
 20
7.5379121871
 10
14.9785722021
 20
7.5392126976
 10
15.0692552538
 20
7.5487868935
 10
15.1565640155
 20
7.5664296029
  0
LWPOLYLINE
  5
5D1
100
AcDbEntity
  8
02___PRT_ALL_AXES
100
AcDbPolyline
 62
7
  6
CONTINUOUS
 90
6
 70
0
 10
14.7085880799
 20
7.5659663155
 10
14.7960013733
 20
7.5509150914
 10
14.8867373393
 20
7.5439395179
 10
14.9785722021
 20
7.5452400285
 10
15.0692552538
 20
7.5548142243
 10
15.1565640155
 20
7.5724569337
  0
LWPOLYLINE
  5
5D2
100
AcDbEntity
  8
02___PRT_ALL_AXES
100
AcDbPolyline
 62
7
  6
CONTINUOUS
 90
11
 70
0
 10
14.7085880799
 20
7.6081576314
 10
14.7960013733
 20
7.5931064073
 10
14.8867373393
 20
7.5861308338
 10
14.9785722021
 20
7.5874313443
 10
15.0692552538
 20
7.5970055402
 10
15.1565640155
 20
7.6146482496
 10
15.2383587059
 20
7.6399565558
 10
15.3126346839
 20
7.6723396723
 10
15.3775715784
 20
7.7110334214
 10
15.4315779025
 20
7.7551189632
 10
15.4733300582
 20
7.8035453147
  0
LWPOLYLINE
  5
5D3
100
AcDbEntity
  8
02___PRT_ALL_AXES
100
AcDbPolyline
 62
7
  6
CONTINUOUS
 90
6
 70
0
 10
14.7085880799
 20
7.6141849622
 10
14.7960013733
 20
7.5991337381
 10
14.8867373393
 20
7.5921581646
 10
14.9785722021
 20
7.5934586751
 10
15.0692552538
 20
7.603032871
 10
15.1565640155
 20
7.6206755804
  0
LWPOLYLINE
  5
5D4
100
AcDbEntity
  8
02___PRT_ALL_AXES
100
AcDbPolyline
 62
7
  6
CONTINUOUS
 90
11
 70
0
 10
14.7085880799
 20
7.6563762781
 10
14.7960013733
 20
7.6413250539
 10
14.8867373393
 20
7.6343494805
 10
14.9785722021
 20
7.635649991
 10
15.0692552538
 20
7.6452241869
 10
15.1565640155
 20
7.6628668962
 10
15.2383587059
 20
7.6881752025
 10
15.3126346839
 20
7.720558319
 10
15.3775715784
 20
7.759252068
 10
15.4315779025
 20
7.8033376098
 10
15.4733300582
 20
7.8517639613
  0
LWPOLYLINE
  5
5D5
100
AcDbEntity
  8
02___PRT_ALL_AXES
100
AcDbPolyline
 62
7
  6
CONTINUOUS
 90
3
 70
0
 10
14.7761920438
 20
7.5431911907
 10
14.6964450233
 20
7.5595034505
 10
14.6221180856
 20
7.5827910378
  0
LWPOLYLINE
  5
5D6
100
AcDbEntity
  8
02___PRT_ALL_AXES
100
AcDbPolyline
 62
7
  6
CONTINUOUS
 90
3
 70
0
 10
14.7759407585
 20
7.6396675023
 10
14.6963254121
 20
7.655971484
 10
14.6221180856
 20
7.6792283311
  0
LWPOLYLINE
  5
5D7
100
AcDbEntity
  8
02___PRT_ALL_AXES
100
AcDbPolyline
 62
7
  6
CONTINUOUS
 90
3
 70
0
 10
14.7746865755
 20
7.5916447118
 10
14.6958709161
 20
7.6078698262
 10
14.6221180856
 20
7.6310096844
  0
LWPOLYLINE
  5
5D8
100
AcDbEntity
  8
02___PRT_ALL_AXES
100
AcDbPolyline
 62
7
  6
CONTINUOUS
 90
5
 70
0
 10
14.3889972403
 20
7.6961896188
 10
14.4100637361
 20
7.6894944965
 10
14.4319392605
 20
7.6818761
 10
14.4539535695
 20
7.6734863831
 10
14.4754672346
 20
7.6645531083
  0
LWPOLYLINE
  5
5D9
100
AcDbEntity
  8
02___PRT_ALL_AXES
100
AcDbPolyline
 62
7
  6
CONTINUOUS
 90
3
 70
0
 10
14.7085880799
 20
7.5599389847
 10
14.6796127884
 20
7.5693081163
 10
14.6507766459
 20
7.5798375568
  0
LWPOLYLINE
  5
5DA
100
AcDbEntity
  8
02___PRT_ALL_AXES
100
AcDbPolyline
 62
7
  6
CONTINUOUS
 90
3
 70
0
 10
14.7085880799
 20
7.6081576314
 10
14.6796127884
 20
7.6175267629
 10
14.6507766459
 20
7.6280562035
  0
LWPOLYLINE
  5
5DB
100
AcDbEntity
  8
02___PRT_ALL_AXES
100
AcDbPolyline
 62
7
  6
CONTINUOUS
 90
4
 70
0
 10
14.3889972403
 20
7.7444082655
 10
14.4179681803
 20
7.7350406299
 10
14.4468039938
 20
7.7245115046
 10
14.4754672346
 20
7.712771755
  0
LWPOLYLINE
  5
5DC
100
AcDbEntity
  8
02___PRT_ALL_AXES
100
AcDbPolyline
 62
7
  6
CONTINUOUS
 90
3
 70
0
 10
14.7085880799
 20
7.6563762781
 10
14.6796127884
 20
7.6657454096
 10
14.6507766459
 20
7.6762748502
  0
LINE
  5
5DD
100
AcDbEntity
  8
02___PRT_ALL_AXES
100
AcDbLine
 62
7
  6
CONTINUOUS
 10
14.6507766459
 20
7.5798375568
 11
14.6221180856
 21
7.5915754952
  0
LINE
  5
5DE
100
AcDbEntity
  8
02___PRT_ALL_AXES
100
AcDbLine
 62
7
  6
CONTINUOUS
 10
14.6507766459
 20
7.6280562035
 11
14.6221180856
 21
7.6397941419
  0
LINE
  5
5DF
100
AcDbEntity
  8
02___PRT_ALL_AXES
100
AcDbLine
 62
7
  6
CONTINUOUS
 10
14.6507766459
 20
7.6762748502
 11
14.6221180856
 21
7.6880127886
  0
LWPOLYLINE
  5
5E0
100
AcDbEntity
  8
02___PRT_ALL_AXES
100
AcDbPolyline
 62
7
  6
CONTINUOUS
 90
4
 70
0
 10
14.4754672346
 20
7.6733375658
 10
14.4468092997
 20
7.6935990034
 10
14.4179709056
 20
7.7153095719
 10
14.3889972403
 20
7.7383809346
  0
LWPOLYLINE
  5
5E1
100
AcDbEntity
  8
02___PRT_ALL_AXES
100
AcDbPolyline
 62
7
  6
CONTINUOUS
 90
4
 70
0
 10
14.6221180856
 20
7.5827910378
 10
14.6507809137
 20
7.5625260269
 10
14.6796189384
 20
7.5408155258
 10
14.7085880799
 20
7.5177476689
  0
LWPOLYLINE
  5
5E2
100
AcDbEntity
  8
02___PRT_ALL_AXES
100
AcDbPolyline
 62
7
  6
CONTINUOUS
 90
4
 70
0
 10
14.4754672346
 20
7.7215562124
 10
14.4468092997
 20
7.7418176501
 10
14.4179709056
 20
7.7635282186
 10
14.3889972403
 20
7.7865995813
  0
LWPOLYLINE
  5
5E3
100
AcDbEntity
  8
02___PRT_ALL_AXES
100
AcDbPolyline
 62
7
  6
CONTINUOUS
 90
4
 70
0
 10
14.6221180856
 20
7.6310096844
 10
14.6507809137
 20
7.6107446735
 10
14.6796189384
 20
7.5890341724
 10
14.7085880799
 20
7.5659663155
  0
LWPOLYLINE
  5
5E4
100
AcDbEntity
  8
02___PRT_ALL_AXES
100
AcDbPolyline
 62
7
  6
CONTINUOUS
 90
4
 70
0
 10
14.4754672346
 20
7.7697748591
 10
14.4468092997
 20
7.7900362968
 10
14.4179709056
 20
7.8117468653
 10
14.3889972403
 20
7.834818228
  0
LINE
  5
5E5
100
AcDbEntity
  8
02___PRT_ALL_AXES
100
AcDbLine
 62
7
  6
CONTINUOUS
 10
14.4754672346
 20
7.6645531083
 11
14.4426577415
 21
7.696724444
  0
LINE
  5
5E6
100
AcDbEntity
  8
02___PRT_ALL_AXES
100
AcDbLine
 62
7
  6
CONTINUOUS
 10
14.4754672346
 20
7.6163344616
 11
14.4430020416
 21
7.648268408
  0
LINE
  5
5E7
100
AcDbEntity
  8
02___PRT_ALL_AXES
100
AcDbLine
 62
7
  6
CONTINUOUS
 10
14.4754672346
 20
7.712771755
 11
14.4430758973
 21
7.7446282881
  0
LINE
  5
5E8
100
AcDbEntity
  8
02___PRT_ALL_AXES
100
AcDbLine
 62
7
  6
CONTINUOUS
 10
14.3608435926
 20
7.6912082336
 11
14.3889972403
 21
7.6419436413
  0
LINE
  5
5E9
100
AcDbEntity
  8
02___PRT_ALL_AXES
100
AcDbLine
 62
7
  6
CONTINUOUS
 10
14.3608435926
 20
7.7394268803
 11
14.3889972403
 21
7.690162288
  0
LINE
  5
5EA
100
AcDbEntity
  8
02___PRT_ALL_AXES
100
AcDbLine
 62
7
  6
CONTINUOUS
 10
14.3608435926
 20
7.7454542111
 11
14.3889972403
 21
7.6961896188
  0
LWPOLYLINE
  5
5EB
100
AcDbEntity
  8
02___PRT_ALL_AXES
100
AcDbPolyline
 62
7
  6
CONTINUOUS
 90
12
 70
0
 10
14.7085880799
 20
7.6624036089
 10
14.7960013733
 20
7.6473523848
 10
14.8867373393
 20
7.6403768113
 10
14.9785722021
 20
7.6416773218
 10
15.0692552538
 20
7.6512515177
 10
15.1565640155
 20
7.6688942271
 10
15.2383587059
 20
7.6942025333
 10
15.3126346839
 20
7.7265856498
 10
15.3775715784
 20
7.7652793989
 10
15.4315779025
 20
7.8093649407
 10
15.4733300582
 20
7.8577912922
 10
15.485048384
 20
7.879030498
  0
LWPOLYLINE
  5
5EC
100
AcDbEntity
  8
02___PRT_ALL_AXES
100
AcDbPolyline
 62
7
  6
CONTINUOUS
 90
11
 70
0
 10
14.7085880799
 20
7.7045949248
 10
14.7960013733
 20
7.6895437006
 10
14.8867373393
 20
7.6825681271
 10
14.9785722021
 20
7.6838686377
 10
15.0692552538
 20
7.6934428335
 10
15.1565640155
 20
7.7110855429
 10
15.2383587059
 20
7.7363938492
 10
15.3126346839
 20
7.7687769656
 10
15.3775715784
 20
7.8074707147
 10
15.4315779025
 20
7.8515562565
 10
15.4424455836
 20
7.8641611661
  0
LWPOLYLINE
  5
5ED
100
AcDbEntity
  8
02___PRT_ALL_AXES
100
AcDbPolyline
 62
7
  6
CONTINUOUS
 90
11
 70
0
 10
14.7085880799
 20
7.7106222556
 10
14.7960013733
 20
7.6955710315
 10
14.8867373393
 20
7.688595458
 10
14.9785722021
 20
7.6898959685
 10
15.0692552538
 20
7.6994701644
 10
15.1565640155
 20
7.7171128738
 10
15.2383587059
 20
7.74242118
 10
15.3126346839
 20
7.7748042965
 10
15.3775715784
 20
7.8134980456
 10
15.4315779025
 20
7.8575835874
 10
15.4350120544
 20
7.8615666978
  0
LWPOLYLINE
  5
5EE
100
AcDbEntity
  8
02___PRT_ALL_AXES
100
AcDbPolyline
 62
7
  6
CONTINUOUS
 90
9
 70
0
 10
14.7085880799
 20
7.7528135714
 10
14.7960013733
 20
7.7377623473
 10
14.8867373393
 20
7.7307867738
 10
14.9785722021
 20
7.7320872843
 10
15.0692552538
 20
7.7416614802
 10
15.1565640155
 20
7.7593041896
 10
15.2383587059
 20
7.7846124959
 10
15.3126346839
 20
7.8169956123
 10
15.335868062
 20
7.8308396144
  0
LWPOLYLINE
  5
5EF
100
AcDbEntity
  8
02___PRT_ALL_AXES
100
AcDbPolyline
 62
7
  6
CONTINUOUS
 90
9
 70
0
 10
14.7085880799
 20
7.7588409023
 10
14.7960013733
 20
7.7437896781
 10
14.8867373393
 20
7.7368141047
 10
14.9785722021
 20
7.7381146152
 10
15.0692552538
 20
7.7476888111
 10
15.1565640155
 20
7.7653315204
 10
15.2383587059
 20
7.7906398267
 10
15.3126346839
 20
7.8230229432
 10
15.3186140368
 20
7.8265858419
  0
LWPOLYLINE
  5
5F0
100
AcDbEntity
  8
02___PRT_ALL_AXES
100
AcDbPolyline
 62
7
  6
CONTINUOUS
 90
3
 70
0
 10
14.7758156304
 20
7.687905606
 10
14.6962663499
 20
7.7042053171
 10
14.6221180856
 20
7.7274469778
  0
LWPOLYLINE
  5
5F1
100
AcDbEntity
  8
02___PRT_ALL_AXES
100
AcDbPolyline
 62
7
  6
CONTINUOUS
 90
3
 70
0
 10
14.7737057684
 20
7.7364551109
 10
14.6949650247
 20
7.7527598109
 10
14.6221180856
 20
7.7756656245
  0
LWPOLYLINE
  5
5F2
100
AcDbEntity
  8
02___PRT_ALL_AXES
100
AcDbPolyline
 62
7
  6
CONTINUOUS
 90
4
 70
0
 10
14.7085880799
 20
7.7045949248
 10
14.6875491926
 20
7.7112808689
 10
14.6655817526
 20
7.7189318769
 10
14.6435291786
 20
7.7273390049
  0
LWPOLYLINE
  5
5F3
100
AcDbEntity
  8
02___PRT_ALL_AXES
100
AcDbPolyline
 62
7
  6
CONTINUOUS
 90
4
 70
0
 10
14.3889972403
 20
7.7926269122
 10
14.4179681803
 20
7.7832592766
 10
14.4468039938
 20
7.7727301513
 10
14.4754672346
 20
7.7609904016
  0
LWPOLYLINE
  5
5F4
100
AcDbEntity
  8
02___PRT_ALL_AXES
100
AcDbPolyline
 62
7
  6
CONTINUOUS
 90
4
 70
0
 10
14.3889972403
 20
7.8408455588
 10
14.4179681803
 20
7.8314779233
 10
14.4468039938
 20
7.820948798
 10
14.4754672346
 20
7.8092090483
  0
LWPOLYLINE
  5
5F5
100
AcDbEntity
  8
02___PRT_ALL_AXES
100
AcDbPolyline
 62
7
  6
CONTINUOUS
 90
3
 70
0
 10
14.7085880799
 20
7.7528135714
 10
14.6796127884
 20
7.762182703
 10
14.6507766459
 20
7.7727121436
  0
LINE
  5
5F6
100
AcDbEntity
  8
02___PRT_ALL_AXES
100
AcDbLine
 62
7
  6
CONTINUOUS
 10
14.6507766459
 20
7.7727121436
 11
14.6221180856
 21
7.784450082
  0
LINE
  5
5F7
100
AcDbEntity
  8
02___PRT_ALL_AXES
100
AcDbLine
 62
7
  6
CONTINUOUS
 10
14.6435291786
 20
7.7273390049
 11
14.6221180856
 21
7.7362314353
  0
LWPOLYLINE
  5
5F8
100
AcDbEntity
  8
0
100
AcDbPolyline
 62
9
  6
CONTINUOUS
 90
3
 70
0
 10
14.2356069054
 20
7.9615797326
 10
14.3095472609
 20
7.9230099812
 10
14.4029386067
 20
7.8840635292
  0
LWPOLYLINE
  5
5F9
100
AcDbEntity
  8
0
100
AcDbPolyline
 62
7
  6
CONTINUOUS
 90
7
 70
0
 10
14.2437609338
 20
7.9435566559
 10
14.155818819
 20
8.0017029208
 10
14.0817392158
 20
8.0665332199
 10
14.0230669263
 20
8.1367136583
 10
13.9809093244
 20
8.2106029797
 10
13.9556911481
 20
8.2865744128
 10
13.9473232806
 20
8.3633948447
  0
LWPOLYLINE
  5
5FA
100
AcDbEntity
  8
02___PRT_ALL_AXES
100
AcDbPolyline
 62
7
  6
CONTINUOUS
 90
5
 70
0
 10
14.6221180856
 20
7.7756656245
 10
14.6436091678
 20
7.7605966061
 10
14.6656136654
 20
7.7443949991
 10
14.6874961209
 20
7.7275389731
 10
14.7085880799
 20
7.7106222556
  0
LWPOLYLINE
  5
5FB
100
AcDbEntity
  8
02___PRT_ALL_AXES
100
AcDbPolyline
 62
7
  6
CONTINUOUS
 90
4
 70
0
 10
14.6221180856
 20
7.6792283311
 10
14.6507809137
 20
7.6589633202
 10
14.6796189384
 20
7.6372528191
 10
14.7085880799
 20
7.6141849622
  0
LWPOLYLINE
  5
5FC
100
AcDbEntity
  8
02___PRT_ALL_AXES
100
AcDbPolyline
 62
7
  6
CONTINUOUS
 90
4
 70
0
 10
14.4754672346
 20
7.8179935058
 10
14.4468092997
 20
7.8382549435
 10
14.4179709056
 20
7.8599655119
 10
14.4057821473
 20
7.8696712658
  0
LWPOLYLINE
  5
5FD
100
AcDbEntity
  8
02___PRT_ALL_AXES
100
AcDbPolyline
 62
7
  6
CONTINUOUS
 90
4
 70
0
 10
14.6221180856
 20
7.7274469778
 10
14.6507809137
 20
7.7071819669
 10
14.6796189384
 20
7.6854714658
 10
14.7085880799
 20
7.6624036089
  0
LINE
  5
5FE
100
AcDbEntity
  8
02___PRT_ALL_AXES
100
AcDbLine
 62
7
  6
CONTINUOUS
 10
14.4754672346
 20
7.8092090483
 11
14.4429398642
 21
7.841167992
  0
LINE
  5
5FF
100
AcDbEntity
  8
02___PRT_ALL_AXES
100
AcDbLine
 62
7
  6
CONTINUOUS
 10
14.4754672346
 20
7.7609904016
 11
14.44309831
 21
7.7928300617
  0
LWPOLYLINE
  5
600
100
AcDbEntity
  8
0
100
AcDbPolyline
 62
7
  6
CONTINUOUS
 90
3
 70
0
 10
14.7001566495
 20
7.4162024632
 10
14.7137513337
 20
7.3978726162
 10
14.7339779542
 20
7.3795982573
  0
LINE
  5
601
100
AcDbEntity
  8
02___PRT_ALL_AXES
100
AcDbLine
 62
7
  6
CONTINUOUS
 10
14.3608435926
 20
7.7876455269
 11
14.3889972403
 21
7.7383809346
  0
LINE
  5
602
100
AcDbEntity
  8
02___PRT_ALL_AXES
100
AcDbLine
 62
7
  6
CONTINUOUS
 10
14.3608435926
 20
7.8358641736
 11
14.3889972403
 21
7.7865995813
  0
LINE
  5
603
100
AcDbEntity
  8
02___PRT_ALL_AXES
100
AcDbLine
 62
7
  6
CONTINUOUS
 10
14.3608435926
 20
7.8840828203
 11
14.3889972403
 21
7.834818228
  0
LINE
  5
604
100
AcDbEntity
  8
02___PRT_ALL_AXES
100
AcDbLine
 62
7
  6
CONTINUOUS
 10
14.3634664709
 20
7.8855205139
 11
14.3889972403
 21
7.8408455588
  0
LWPOLYLINE
  5
605
100
AcDbEntity
  8
0
100
AcDbPolyline
 62
9
  6
CONTINUOUS
 90
4
 70
0
 10
14.4028333014
 20
7.630926161
 10
14.4032742575
 20
7.6297455787
 10
14.4335145176
 20
7.5841777805
 10
14.4754672346
 20
7.5418147404
  0
LINE
  5
606
100
AcDbEntity
  8
02___PRT_ALL_AXES
100
AcDbLine
 62
7
  6
CONTINUOUS
 10
14.3466775544
 20
7.7906098583
 11
14.3608435926
 21
7.7394268803
  0
LINE
  5
607
100
AcDbEntity
  8
02___PRT_ALL_AXES
100
AcDbLine
 62
7
  6
CONTINUOUS
 10
14.3466775544
 20
7.838828505
 11
14.3608435926
 21
7.7876455269
  0
LWPOLYLINE
  5
608
100
AcDbEntity
  8
02___PRT_ALL_AXES
100
AcDbPolyline
 62
7
  6
CONTINUOUS
 90
3
 70
0
 10
14.3449610759
 20
7.7676936152
 10
14.3466775544
 20
7.7423912116
 10
14.3608435926
 20
7.6912082336
  0
LWPOLYLINE
  5
609
100
AcDbEntity
  8
02___PRT_ALL_AXES
100
AcDbPolyline
 62
7
  6
CONTINUOUS
 90
4
 70
0
 10
14.3449610759
 20
7.773720946
 10
14.3466775544
 20
7.7484185425
 10
14.3608435926
 20
7.6972355644
 10
14.3889972403
 20
7.6479709721
  0
LINE
  5
60A
100
AcDbEntity
  8
02___PRT_ALL_AXES
100
AcDbLine
 62
7
  6
CONTINUOUS
 10
14.3449610759
 20
7.8159122619
 11
14.3466775544
 21
7.7906098583
  0
LWPOLYLINE
  5
60B
100
AcDbEntity
  8
02___PRT_ALL_AXES
100
AcDbPolyline
 62
7
  6
CONTINUOUS
 90
3
 70
0
 10
14.3449610759
 20
7.8219395927
 10
14.3466775544
 20
7.7966371891
 10
14.3608435926
 20
7.7454542111
  0
LINE
  5
60C
100
AcDbEntity
  8
02___PRT_ALL_AXES
100
AcDbLine
 62
7
  6
CONTINUOUS
 10
14.3449610759
 20
7.8641309085
 11
14.3466775544
 21
7.838828505
  0
LWPOLYLINE
  5
60D
100
AcDbEntity
  8
02___PRT_ALL_AXES
100
AcDbPolyline
 62
7
  6
CONTINUOUS
 90
4
 70
0
 10
14.3449610759
 20
7.8701582394
 10
14.3466775544
 20
7.8448558358
 10
14.3608435926
 20
7.7936728578
 10
14.3889972403
 20
7.7444082655
  0
LWPOLYLINE
  5
60E
100
AcDbEntity
  8
02___PRT_ALL_AXES
100
AcDbPolyline
 62
7
  6
CONTINUOUS
 90
6
 70
0
 10
15.0568232717
 20
7.7845692638
 10
15.0250597784
 20
7.7794893176
 10
14.9416807325
 20
7.7737651059
 10
14.8582491106
 20
7.7753754649
 10
14.7759697714
 20
7.7843189336
 10
14.7511633197
 20
7.7893982527
  0
LWPOLYLINE
  5
60F
100
AcDbEntity
  8
02___PRT_ALL_AXES
100
AcDbPolyline
 62
7
  6
CONTINUOUS
 90
3
 70
0
 10
14.868853331
 20
7.7803803021
 10
14.8867373393
 20
7.7790054205
 10
14.9382049408
 20
7.779734274
  0
LWPOLYLINE
  5
610
100
AcDbEntity
  8
0
100
AcDbPolyline
 62
7
  6
CONTINUOUS
 90
5
 70
0
 10
14.7148761096
 20
7.7926913117
 10
14.5852650773
 20
7.8154882735
 10
14.4620605088
 20
7.8485923232
 10
14.3475222629
 20
7.8914923836
 10
14.2437609338
 20
7.9435566559
  0
LWPOLYLINE
  5
611
100
AcDbEntity
  8
0
100
AcDbPolyline
 62
9
  6
CONTINUOUS
 90
16
 70
0
 10
14.5134818153
 20
7.8489608133
 10
14.6370065859
 20
7.821190694
 10
14.7677454804
 20
7.8030720765
 10
14.900938026
 20
7.7954201895
 10
15.0345064932
 20
7.7982607304
 10
15.1663550647
 20
7.811548171
 10
15.2939211699
 20
7.8350535954
 10
15.4147419699
 20
7.8683255451
 10
15.5266089334
 20
7.9107473449
 10
15.627483064
 20
7.96154479
 10
15.7154864801
 20
8.0197744187
 10
15.7889846204
 20
8.0843521785
 10
15.8466361164
 20
8.154100961
 10
15.887372561
 20
8.2277459624
 10
15.9104115113
 20
8.3038655648
 10
15.9158272176
 20
8.3633895224
  0
LINE
  5
612
100
AcDbEntity
  8
0
100
AcDbLine
 62
9
  6
CONTINUOUS
 10
14.4029386067
 20
7.8840635292
 11
14.5134818153
 21
7.8489608133
  0
LWPOLYLINE
  5
613
100
AcDbEntity
  8
02___PRT_ALL_AXES
100
AcDbPolyline
 62
7
  6
CONTINUOUS
 90
4
 70
0
 10
14.6501302286
 20
7.8040793035
 10
14.6507809137
 20
7.8036192603
 10
14.6796189384
 20
7.7819087592
 10
14.7085880799
 20
7.7588409023
  0
LINE
  5
614
100
AcDbEntity
  8
02___PRT_ALL_AXES
100
AcDbLine
 62
7
  6
CONTINUOUS
 10
14.3466775544
 20
7.8870471517
 11
14.3608435926
 21
7.8358641736
  0
LWPOLYLINE
  5
615
100
AcDbEntity
  8
02___PRT_ALL_AXES
100
AcDbPolyline
 62
7
  6
CONTINUOUS
 90
3
 70
0
 10
14.3470498256
 20
7.8917294383
 10
14.3608435926
 20
7.8418915045
 10
14.3889972403
 20
7.7926269122
  0
LINE
  5
616
100
AcDbEntity
  8
02___PRT_ALL_AXES
100
AcDbLine
 62
7
  6
CONTINUOUS
 10
14.3600963127
 20
7.8867827996
 11
14.3608435926
 21
7.8840828203
  0
LINE
  5
617
100
AcDbEntity
  8
02___PRT_ALL_AXES
100
AcDbLine
 62
7
  6
CONTINUOUS
 10
14.3463356032
 20
7.8920878133
 11
14.3466775544
 21
7.8870471517
  0
LINE
  5
618
100
AcDbEntity
  8
02___PRT_ALL_AXES
100
AcDbLine
 62
7
  6
CONTINUOUS
 10
14.3889972403
 20
7.6419436413
 11
14.3889972403
 21
7.6479709721
  0
LINE
  5
619
100
AcDbEntity
  8
02___PRT_ALL_AXES
100
AcDbLine
 62
7
  6
CONTINUOUS
 10
14.3889972403
 20
7.690162288
 11
14.3889972403
 21
7.6961896188
  0
LINE
  5
61A
100
AcDbEntity
  8
02___PRT_ALL_AXES
100
AcDbLine
 62
7
  6
CONTINUOUS
 10
14.3889972403
 20
7.7383809346
 11
14.3889972403
 21
7.7444082655
  0
LINE
  5
61B
100
AcDbEntity
  8
02___PRT_ALL_AXES
100
AcDbLine
 62
7
  6
CONTINUOUS
 10
14.3889972403
 20
7.7865995813
 11
14.3889972403
 21
7.7926269122
  0
LINE
  5
61C
100
AcDbEntity
  8
02___PRT_ALL_AXES
100
AcDbLine
 62
7
  6
CONTINUOUS
 10
14.3889972403
 20
7.834818228
 11
14.3889972403
 21
7.8408455588
  0
LINE
  5
61D
100
AcDbEntity
  8
02___PRT_ALL_AXES
100
AcDbLine
 62
7
  6
CONTINUOUS
 10
14.3464257729
 20
7.8907586322
 11
14.3449610759
 21
7.8701582394
  0
LINE
  5
61E
100
AcDbEntity
  8
02___PRT_ALL_AXES
100
AcDbLine
 62
7
  6
CONTINUOUS
 10
14.3464257729
 20
7.8425399855
 11
14.3449610759
 21
7.8219395927
  0
LINE
  5
61F
100
AcDbEntity
  8
02___PRT_ALL_AXES
100
AcDbLine
 62
7
  6
CONTINUOUS
 10
14.3464257729
 20
7.7943213388
 11
14.3449610759
 21
7.773720946
  0
LWPOLYLINE
  5
620
100
AcDbEntity
  8
0
100
AcDbPolyline
 62
7
  6
CONTINUOUS
 90
16
 70
0
 10
14.6895361562
 20
7.3798869265
 10
14.6972913643
 20
7.3597715536
 10
14.7104240799
 20
7.3405720068
 10
14.7286328583
 20
7.3227470429
 10
14.7514992465
 20
7.3067239502
 10
14.7785030074
 20
7.2928860645
 10
14.8090224435
 20
7.2815710097
 10
14.8423557642
 20
7.2730570291
 10
14.8777370661
 20
7.2675574852
 10
14.9143541177
 20
7.2652163185
 10
14.9513666009
 20
7.2661050292
 10
14.9879246024
 20
7.2702210203
 10
15.0231886382
 20
7.277487549
 10
15.0563494276
 20
7.2877556559
 10
15.0866459217
 20
7.3008076025
 10
15.1133824026
 20
7.3163616725
  0
LWPOLYLINE
  5
621
100
AcDbEntity
  8
0
100
AcDbPolyline
 62
7
  6
CONTINUOUS
 90
4
 70
0
 10
14.4754672346
 20
7.5418147404
 10
14.4769670303
 20
7.5325714306
 10
14.4813132954
 20
7.5256748663
 10
14.4820587272
 20
7.5249960671
  0
LINE
  5
622
100
AcDbEntity
  8
02___PRT_ALL_AXES
100
AcDbLine
 62
7
  6
CONTINUOUS
 10
14.4754672346
 20
7.8179935058
 11
14.4754672346
 21
7.8092090483
  0
LINE
  5
623
100
AcDbEntity
  8
02___PRT_ALL_AXES
100
AcDbLine
 62
7
  6
CONTINUOUS
 10
14.4754672346
 20
7.7697748591
 11
14.4754672346
 21
7.7609904016
  0
LINE
  5
624
100
AcDbEntity
  8
02___PRT_ALL_AXES
100
AcDbLine
 62
7
  6
CONTINUOUS
 10
14.4754672346
 20
7.7215562124
 11
14.4754672346
 21
7.712771755
  0
LINE
  5
625
100
AcDbEntity
  8
02___PRT_ALL_AXES
100
AcDbLine
 62
7
  6
CONTINUOUS
 10
14.4754672346
 20
7.6733375658
 11
14.4754672346
 21
7.6645531083
  0
LINE
  5
626
100
AcDbEntity
  8
02___PRT_ALL_AXES
100
AcDbLine
 62
7
  6
CONTINUOUS
 10
14.4754672346
 20
7.6251189191
 11
14.4754672346
 21
7.6163344616
  0
LINE
  5
627
100
AcDbEntity
  8
0
100
AcDbLine
 62
7
  6
CONTINUOUS
 10
14.4754672346
 20
7.5769002724
 11
14.4754672346
 21
7.5418147404
  0
LINE
  5
628
100
AcDbEntity
  8
02___PRT_ALL_AXES
100
AcDbLine
 62
7
  6
CONTINUOUS
 10
14.3211104603
 20
8.3033983372
 11
14.2356069054
 21
8.347328906
  0
LWPOLYLINE
  5
629
100
AcDbEntity
  8
0
100
AcDbPolyline
 62
7
  6
CONTINUOUS
 90
6
 70
0
 10
14.7303698439
 20
7.3182450787
 10
14.7324913731
 20
7.3097263262
 10
14.740681261
 20
7.293623237
 10
14.7527572001
 20
7.2783569708
 10
14.768473359
 20
7.2642383047
 10
14.787509802
 20
7.2515546539
  0
LWPOLYLINE
  5
62A
100
AcDbEntity
  8
0
100
AcDbPolyline
 62
7
  6
CONTINUOUS
 90
4
 70
0
 10
14.6221180856
 20
7.4571477475
 10
14.6233576405
 20
7.4480546844
 10
14.6269473555
 20
7.4415949047
 10
14.6294946142
 20
7.4395735504
  0
LINE
  5
62B
100
AcDbEntity
  8
02___PRT_ALL_AXES
100
AcDbLine
 62
7
  6
CONTINUOUS
 10
14.6221180856
 20
7.784450082
 11
14.6221180856
 21
7.7756656245
  0
LINE
  5
62C
100
AcDbEntity
  8
02___PRT_ALL_AXES
100
AcDbLine
 62
7
  6
CONTINUOUS
 10
14.6221180856
 20
7.7362314353
 11
14.6221180856
 21
7.7274469778
  0
LINE
  5
62D
100
AcDbEntity
  8
02___PRT_ALL_AXES
100
AcDbLine
 62
7
  6
CONTINUOUS
 10
14.6221180856
 20
7.6880127886
 11
14.6221180856
 21
7.6792283311
  0
LINE
  5
62E
100
AcDbEntity
  8
02___PRT_ALL_AXES
100
AcDbLine
 62
7
  6
CONTINUOUS
 10
14.6221180856
 20
7.6397941419
 11
14.6221180856
 21
7.6310096844
  0
LINE
  5
62F
100
AcDbEntity
  8
02___PRT_ALL_AXES
100
AcDbLine
 62
7
  6
CONTINUOUS
 10
14.6221180856
 20
7.5915754952
 11
14.6221180856
 21
7.5827910378
  0
LINE
  5
630
100
AcDbEntity
  8
02___PRT_ALL_AXES
100
AcDbLine
 62
7
  6
CONTINUOUS
 10
14.6221180856
 20
7.5433568486
 11
14.6221180856
 21
7.5345723911
  0
LINE
  5
631
100
AcDbEntity
  8
0
100
AcDbLine
 62
7
  6
CONTINUOUS
 10
14.6221180856
 20
7.4951382019
 11
14.6221180856
 21
7.4571477475
  0
LWPOLYLINE
  5
632
100
AcDbEntity
  8
0
100
AcDbPolyline
 62
7
  6
CONTINUOUS
 90
5
 70
0
 10
14.6882844344
 20
7.4200917071
 10
14.6902066764
 20
7.4062609476
 10
14.6990259347
 20
7.3855772108
 10
14.7137637592
 20
7.3657132939
 10
14.7339871985
 20
7.3474454791
  0
LINE
  5
633
100
AcDbEntity
  8
0
100
AcDbLine
 62
7
  6
CONTINUOUS
 10
14.6873035956
 20
7.3982182599
 11
14.6895361562
 21
7.3798869265
  0
LWPOLYLINE
  5
634
100
AcDbEntity
  8
0
100
AcDbPolyline
 62
7
  6
CONTINUOUS
 90
3
 70
0
 10
14.6873035956
 20
7.3958075185
 10
14.6874239803
 20
7.391380214
 10
14.6903108043
 20
7.373746263
  0
LINE
  5
635
100
AcDbEntity
  8
02___PRT_ALL_AXES
100
AcDbLine
 62
7
  6
CONTINUOUS
 10
14.7085880799
 20
7.7588409023
 11
14.7085880799
 21
7.7528135714
  0
LINE
  5
636
100
AcDbEntity
  8
02___PRT_ALL_AXES
100
AcDbLine
 62
7
  6
CONTINUOUS
 10
14.7085880799
 20
7.7106222556
 11
14.7085880799
 21
7.7045949248
  0
LINE
  5
637
100
AcDbEntity
  8
02___PRT_ALL_AXES
100
AcDbLine
 62
7
  6
CONTINUOUS
 10
14.7085880799
 20
7.6624036089
 11
14.7085880799
 21
7.6563762781
  0
LINE
  5
638
100
AcDbEntity
  8
02___PRT_ALL_AXES
100
AcDbLine
 62
7
  6
CONTINUOUS
 10
14.7085880799
 20
7.6141849622
 11
14.7085880799
 21
7.6081576314
  0
LINE
  5
639
100
AcDbEntity
  8
02___PRT_ALL_AXES
100
AcDbLine
 62
7
  6
CONTINUOUS
 10
14.7085880799
 20
7.5659663155
 11
14.7085880799
 21
7.5599389847
  0
LINE
  5
63A
100
AcDbEntity
  8
02___PRT_ALL_AXES
100
AcDbLine
 62
7
  6
CONTINUOUS
 10
14.7085880799
 20
7.5177476689
 11
14.7085880799
 21
7.511720338
  0
LINE
  5
63B
100
AcDbEntity
  8
02___PRT_ALL_AXES
100
AcDbLine
 62
7
  6
CONTINUOUS
 10
14.7085880799
 20
7.4695290222
 11
14.7085880799
 21
7.4635016914
  0
LWPOLYLINE
  5
63C
100
AcDbEntity
  8
0
100
AcDbPolyline
 62
7
  6
CONTINUOUS
 90
3
 70
0
 10
14.6893397682
 20
7.412498455
 10
14.6873361969
 20
7.400438686
 10
14.6873035956
 20
7.3982182599
  0
LWPOLYLINE
  5
63D
100
AcDbEntity
  8
0
100
AcDbPolyline
 62
7
  6
CONTINUOUS
 90
3
 70
0
 10
15.1758469027
 20
7.4142911283
 10
15.1757577452
 20
7.4182393519
 10
15.1754056159
 20
7.4202808388
  0
LWPOLYLINE
  5
63E
100
AcDbEntity
  8
0
100
AcDbPolyline
 62
9
  6
CONTINUOUS
 90
22
 70
0
 10
14.4472818498
 20
9.0467013517
 10
14.5248686153
 20
9.0081530118
 10
14.6115442354
 20
8.9767098079
 10
14.7053689702
 20
8.9530761735
 10
14.8042455099
 20
8.937780208
 10
14.9059672587
 20
8.9311631998
 10
15.0082606719
 20
8.9333731092
 10
15.1088411556
 20
8.9443605445
 10
15.2054618083
 20
8.9638800698
 10
15.2959641992
 20
8.9914956272
 10
15.3783267751
 20
9.0265903702
 10
15.4507095448
 20
9.0683802766
 10
15.5114957155
 20
9.1159318972
 10
15.5593273149
 20
9.1681829229
 10
15.593135933
 20
9.2239662232
 10
15.6121662961
 20
9.2820356311
 10
15.6159933111
 20
9.3410939551
 10
15.6045314557
 20
9.3998220925
 10
15.5780369473
 20
9.4569076652
 10
15.5371011193
 20
9.5110763662
 10
15.4826386974
 20
9.5611174856
 10
15.4158686485
 20
9.6059118626
  0
LWPOLYLINE
  5
63F
100
AcDbEntity
  8
0
100
AcDbPolyline
 62
7
  6
CONTINUOUS
 90
21
 70
0
 10
15.1758469027
 20
7.4110765492
 10
15.1741062294
 20
7.3936592629
 10
15.1669805184
 20
7.3720425069
 10
15.1545115732
 20
7.3512804995
 10
15.1369822155
 20
7.3318266924
 10
15.1147900623
 20
7.3141050844
 10
15.0884390413
 20
7.2985007061
 10
15.0585277153
 20
7.2853504228
 10
15.0257352172
 20
7.2749351382
 10
14.9908056557
 20
7.2674735719
 10
14.9545314861
 20
7.2631174966
 10
14.9177360092
 20
7.2619483281
 10
14.8812547085
 20
7.263975127
 10
14.8459152288
 20
7.269134444
 10
14.8125193549
 20
7.2772918822
 10
14.7818258266
 20
7.2882447562
 10
14.7545325194
 20
7.3017263654
 10
14.7312648408
 20
7.3174079823
 10
14.7125403186
 20
7.3349211514
 10
14.6987849786
 20
7.3538500057
 10
14.6903108043
 20
7.373746263
  0
LINE
  5
640
100
AcDbEntity
  8
0
100
AcDbLine
 62
7
  6
CONTINUOUS
 10
15.1739515623
 20
7.3961192524
 11
15.1758469027
 21
7.4142911283
  0
LINE
  5
641
100
AcDbEntity
  8
02___PRT_ALL_AXES
100
AcDbLine
 62
7
  6
CONTINUOUS
 10
15.5181894224
 20
7.7978302693
 11
15.516789698
 21
7.8194211464
  0
LINE
  5
642
100
AcDbEntity
  8
02___PRT_ALL_AXES
100
AcDbLine
 62
7
  6
CONTINUOUS
 10
15.5181894224
 20
7.846048916
 11
15.516789698
 21
7.8676397931
  0
LWPOLYLINE
  5
643
100
AcDbEntity
  8
0
100
AcDbPolyline
 62
7
  6
CONTINUOUS
 90
17
 70
0
 10
15.133335367
 20
7.320472607
 10
15.1306594858
 20
7.3097272833
 10
15.1224698301
 20
7.2936241547
 10
15.1103941112
 20
7.2783578305
 10
15.094678156
 20
7.2642390888
 10
15.0756418959
 20
7.2515553465
 10
15.0536728543
 20
7.2405648081
 10
15.0292182576
 20
7.2314912093
 10
15.0027759309
 20
7.2245192623
 10
14.9748841636
 20
7.2197908959
 10
14.9461107516
 20
7.217402366
 10
14.9170414388
 20
7.2174022961
 10
14.8882679924
 20
7.2197906877
 10
14.8603761569
 20
7.22451892
 10
14.8339337296
 20
7.2314907399
 10
14.809479002
 20
7.2405642212
 10
14.787509802
 20
7.2515546539
  0
LWPOLYLINE
  5
644
100
AcDbEntity
  8
0
100
AcDbPolyline
 62
9
  6
CONTINUOUS
 90
20
 70
0
 10
14.5764267563
 20
9.2030883354
 10
14.6397242637
 20
9.1721369708
 10
14.7109855136
 20
9.1476215679
 10
14.7882635558
 20
9.1302124542
 10
14.869450259
 20
9.1203843902
 10
14.9523320097
 20
9.1184053289
 10
15.034647337
 20
9.1243292998
 10
15.1141512223
 20
9.1379947188
 10
15.1886748244
 20
9.1590288038
 10
15.2561854414
 20
9.186857829
 10
15.3148414492
 20
9.2207226453
 10
15.3630429479
 20
9.2596995565
 10
15.3994750485
 20
9.3027253123
 10
15.4231440253
 20
9.3486263379
 10
15.4334042127
 20
9.3961504874
 10
15.4299757486
 20
9.4440015649
 10
15.4129522121
 20
9.4908740306
 10
15.382797778
 20
9.5354897474
 10
15.3403348968
 20
9.5766315659
 10
15.286723742
 20
9.6131760434
  0
LINE
  5
645
100
AcDbEntity
  8
02___PRT_ALL_AXES
100
AcDbLine
 62
7
  6
CONTINUOUS
 10
15.5163041883
 20
7.8665216364
 11
15.5181672533
 21
7.8939412901
  0
LINE
  5
646
100
AcDbEntity
  8
02___PRT_ALL_AXES
100
AcDbLine
 62
7
  6
CONTINUOUS
 10
15.5163041883
 20
7.8183029897
 11
15.5181894224
 21
7.846048916
  0
LINE
  5
647
100
AcDbEntity
  8
02___PRT_ALL_AXES
100
AcDbLine
 62
7
  6
CONTINUOUS
 10
15.5163041883
 20
7.770084343
 11
15.5181894224
 21
7.7978302693
  0
LWPOLYLINE
  5
648
100
AcDbEntity
  8
0
100
AcDbPolyline
 62
7
  6
CONTINUOUS
 90
9
 70
0
 10
15.1708424561
 20
7.4190766837
 10
15.1674626875
 20
7.4084608797
 10
15.1555142039
 20
7.388003168
 10
15.1386104783
 20
7.3687314614
 10
15.1168041873
 20
7.3508651943
 10
15.0906453872
 20
7.3350016404
 10
15.0610198336
 20
7.3216592077
 10
15.0289439829
 20
7.3111580336
 10
14.9947983876
 20
7.303517165
  0
LWPOLYLINE
  5
649
100
AcDbEntity
  8
0
100
AcDbPolyline
 62
7
  6
CONTINUOUS
 90
5
 70
0
 10
15.158146513
 20
7.357333028
 10
15.1529623674
 20
7.3452630885
 10
15.1387987566
 20
7.3256455373
 10
15.1195562311
 20
7.3074260344
 10
15.0945981555
 20
7.290482906
  0
LINE
  5
64A
100
AcDbEntity
  8
02___PRT_ALL_AXES
100
AcDbLine
 62
7
  6
CONTINUOUS
 10
15.5018047748
 20
7.8129637915
 11
15.5163041883
 21
7.8665216364
  0
LWPOLYLINE
  5
64B
100
AcDbEntity
  8
02___PRT_ALL_AXES
100
AcDbPolyline
 62
7
  6
CONTINUOUS
 90
3
 70
0
 10
15.5018047748
 20
7.8069364607
 10
15.5163041883
 20
7.8604943056
 10
15.5181894224
 20
7.8882402319
  0
LINE
  5
64C
100
AcDbEntity
  8
02___PRT_ALL_AXES
100
AcDbLine
 62
7
  6
CONTINUOUS
 10
15.5018047748
 20
7.7647451448
 11
15.5163041883
 21
7.8183029897
  0
LWPOLYLINE
  5
64D
100
AcDbEntity
  8
02___PRT_ALL_AXES
100
AcDbPolyline
 62
7
  6
CONTINUOUS
 90
3
 70
0
 10
15.5018047748
 20
7.758717814
 10
15.5163041883
 20
7.8122756589
 10
15.5181894224
 20
7.8400215852
  0
LWPOLYLINE
  5
64E
100
AcDbEntity
  8
02___PRT_ALL_AXES
100
AcDbPolyline
 62
7
  6
CONTINUOUS
 90
8
 70
0
 10
15.27153749
 20
7.7990779052
 10
15.2560790603
 20
7.791179447
 10
15.184974935
 20
7.7646417597
 10
15.1074815766
 20
7.7444860153
 10
15.0248503815
 20
7.7312469307
 10
14.939880979
 20
7.7255040407
 10
14.8557255135
 20
7.7273203502
 10
14.7737057684
 20
7.7364551109
  0
LWPOLYLINE
  5
64F
100
AcDbEntity
  8
0
100
AcDbPolyline
 62
7
  6
CONTINUOUS
 90
14
 70
0
 10
15.4719045577
 20
7.657236004
 10
15.4579520036
 20
7.6197876067
 10
15.4266402238
 20
7.5715815299
 10
15.3829980538
 20
7.5266341189
 10
15.3282136049
 20
7.4864761749
 10
15.2640926848
 20
7.4522973439
 10
15.192426672
 20
7.4247724613
 10
15.114984602
 20
7.4043365645
 10
15.0335342081
 20
7.3912839694
 10
14.9498716694
 20
7.3858003021
 10
14.8658644524
 20
7.3879599139
 10
14.783331948
 20
7.397717563
 10
14.7040793719
 20
7.4149174104
 10
14.6309556305
 20
7.4388721705
  0
LINE
  5
650
100
AcDbEntity
  8
02___PRT_ALL_AXES
100
AcDbLine
 62
7
  6
CONTINUOUS
 10
15.4733300582
 20
7.8517639613
 11
15.4891669453
 21
7.8804679682
  0
LWPOLYLINE
  5
651
100
AcDbEntity
  8
02___PRT_ALL_AXES
100
AcDbPolyline
 62
7
  6
CONTINUOUS
 90
3
 70
0
 10
15.4733300582
 20
7.8035453147
 10
15.5018047748
 20
7.8551551073
 10
15.511268938
 20
7.8901137756
  0
LINE
  5
652
100
AcDbEntity
  8
02___PRT_ALL_AXES
100
AcDbLine
 62
7
  6
CONTINUOUS
 10
15.4733300582
 20
7.7131353521
 11
15.5018047748
 21
7.7647451448
  0
LINE
  5
653
100
AcDbEntity
  8
02___PRT_ALL_AXES
100
AcDbLine
 62
7
  6
CONTINUOUS
 10
15.4733300582
 20
7.7071080213
 11
15.5018047748
 21
7.758717814
  0
LWPOLYLINE
  5
654
100
AcDbEntity
  8
0
100
AcDbPolyline
 62
7
  6
CONTINUOUS
 90
13
 70
0
 10
15.1502915157
 20
7.4136535732
 10
15.1493844884
 20
7.4123371291
 10
15.1294422254
 20
7.3926792243
 10
15.1043051627
 20
7.3748446657
 10
15.074823203
 20
7.3595192048
 10
15.0421660325
 20
7.3472029005
 10
15.007094693
 20
7.3380350427
 10
14.9701508776
 20
7.3320989309
 10
14.9320067309
 20
7.3295271841
 10
14.8940026184
 20
7.3304061317
 10
14.8567888127
 20
7.3346982059
 10
14.8209815417
 20
7.3423962159
 10
14.7879426564
 20
7.3532583474
  0
LWPOLYLINE
  5
655
100
AcDbEntity
  8
02___PRT_ALL_AXES
100
AcDbPolyline
 62
7
  6
CONTINUOUS
 90
8
 70
0
 10
15.2719135917
 20
7.7028045861
 10
15.2570616878
 20
7.6951732554
 10
15.1853886112
 20
7.6683347236
 10
15.1085474321
 20
7.6482723122
 10
15.0267756851
 20
7.6350297329
 10
14.9423296927
 20
7.6291252943
 10
14.858266294
 20
7.6307184348
 10
14.7759407585
 20
7.6396675023
  0
LWPOLYLINE
  5
656
100
AcDbEntity
  8
0
100
AcDbPolyline
 62
7
  6
CONTINUOUS
 90
8
 70
0
 10
15.5972639375
 20
7.9311758008
 10
15.4906332098
 20
7.8809797273
 10
15.3736922615
 20
7.8401647161
 10
15.2486066687
 20
7.8093263669
 10
15.1177647393
 20
7.7889429079
 10
14.9835658066
 20
7.7793117258
 10
14.8484393958
 20
7.7805704632
 10
14.7148761096
 20
7.7926913117
  0
LWPOLYLINE
  5
657
100
AcDbEntity
  8
02___PRT_ALL_AXES
100
AcDbPolyline
 62
7
  6
CONTINUOUS
 90
7
 70
0
 10
15.2385317956
 20
7.7364693135
 10
15.1862331962
 20
7.7168201159
 10
15.1088971342
 20
7.6965646252
 10
15.0265076564
 20
7.683217495
 10
14.9418520562
 20
7.6773320275
 10
14.8580458342
 20
7.678951091
 10
14.7758156304
 20
7.687905606
  0
LWPOLYLINE
  5
658
100
AcDbEntity
  8
02___PRT_ALL_AXES
100
AcDbPolyline
 62
7
  6
CONTINUOUS
 90
23
 70
0
 10
15.9158254306
 20
8.7491440182
 10
15.9125806895
 20
8.7030279291
 10
15.8981938193
 20
8.6420622834
 10
15.8724742301
 20
8.5823520731
 10
15.8357234607
 20
8.5245973459
 10
15.7883723801
 20
8.4694752231
 10
15.7309761366
 20
8.4176319612
 10
15.6642076486
 20
8.369675375
 10
15.5888497155
 20
8.3261677118
 10
15.5057858402
 20
8.287619059
 10
15.4159898708
 20
8.2544813644
 10
15.3205145829
 20
8.2271431371
 10
15.2204793368
 20
8.2059248929
 10
15.1170569545
 20
8.1910753963
 10
15.0114599688
 20
8.182768744
 10
14.9049264078
 20
8.1811023239
 10
14.7987052801
 20
8.1860956734
 10
14.6940419313
 20
8.1976902499
 10
14.5921634434
 20
8.2157501176
 10
14.4942642487
 20
8.2400635411
 10
14.4014921256
 20
8.2703454678
 10
14.3149347424
 20
8.3062408697
 10
14.2356069054
 20
8.347328906
  0
LWPOLYLINE
  5
659
100
AcDbEntity
  8
02___PRT_ALL_AXES
100
AcDbPolyline
 62
7
  6
CONTINUOUS
 90
20
 70
0
 10
15.9154109491
 20
8.7326189911
 10
15.9054357235
 20
8.6667888277
 10
15.8822907057
 20
8.602072377
 10
15.8462888922
 20
8.539344818
 10
15.7979171459
 20
8.4794544332
 10
15.7378296116
 20
8.4232111374
 10
15.6668388702
 20
8.3713755247
 10
15.5859049497
 20
8.3246485828
 10
15.4961223424
 20
8.2836622135
 10
15.3987052042
 20
8.248970687
 10
15.2949709347
 20
8.2210431468
 10
15.186322362
 20
8.2002572649
 10
15.0742287715
 20
8.1868941348
 10
14.9602060369
 20
8.1811344698
 10
14.84579612
 20
8.1830561596
 10
14.7325462187
 20
8.1926332165
 10
14.6219878435
 20
8.2097361273
 10
14.515616107
 20
8.2341336045
 10
14.4148695043
 20
8.265495714
 10
14.3211104603
 20
8.3033983372
  0
LWPOLYLINE
  5
65A
100
AcDbEntity
  8
0
100
AcDbPolyline
 62
7
  6
CONTINUOUS
 90
4
 70
0
 10
15.1359444772
 20
7.3340783723
 10
15.1538138274
 20
7.3535683818
 10
15.166580481
 20
7.3744020785
 10
15.1739515623
 20
7.3961192524
  0
LWPOLYLINE
  5
65B
100
AcDbEntity
  8
02___PRT_ALL_AXES
100
AcDbPolyline
 62
7
  6
CONTINUOUS
 90
8
 70
0
 10
15.2721050692
 20
7.5582321271
 10
15.2569008177
 20
7.5504466046
 10
15.1856809054
 20
7.5237709766
 10
15.1079889434
 20
7.5034990391
 10
15.0251063961
 20
7.4901827293
 10
14.9398619635
 20
7.4844103772
 10
14.8554165555
 20
7.4862476075
 10
14.7733401377
 20
7.4954197487
  0
LWPOLYLINE
  5
65C
100
AcDbEntity
  8
02___PRT_ALL_AXES
100
AcDbPolyline
 62
7
  6
CONTINUOUS
 90
7
 70
0
 10
15.2387235787
 20
7.6401156344
 10
15.1866727567
 20
7.6205220775
 10
15.1090677627
 20
7.6001633307
 10
15.0262430453
 20
7.5867497883
 10
14.9410163166
 20
7.5808744641
 10
14.8565261846
 20
7.5826117853
 10
14.7746865755
 20
7.5916447118
  0
LWPOLYLINE
  5
65D
100
AcDbEntity
  8
02___PRT_ALL_AXES
100
AcDbPolyline
 62
7
  6
CONTINUOUS
 90
7
 70
0
 10
15.1973302376
 20
7.5764025356
 10
15.1845497011
 20
7.5716335462
 10
15.107368652
 20
7.5515878224
 10
15.0262185136
 20
7.538528326
 10
14.9424696801
 20
7.5326915379
 10
14.8586194126
 20
7.5342588104
 10
14.7761920438
 20
7.5431911907
  0
LWPOLYLINE
  5
65E
100
AcDbEntity
  8
02___PRT_ALL_AXES
100
AcDbPolyline
 62
7
  6
CONTINUOUS
 90
8
 70
0
 10
15.1565640155
 20
7.6206755804
 10
15.2383587059
 20
7.6459838867
 10
15.3126346839
 20
7.6783670031
 10
15.3775715784
 20
7.7170607522
 10
15.4315779025
 20
7.761146294
 10
15.4733300582
 20
7.8095726455
 10
15.5018047748
 20
7.8611824382
 10
15.5095788677
 20
7.8898983351
  0
LWPOLYLINE
  5
65F
100
AcDbEntity
  8
02___PRT_ALL_AXES
100
AcDbPolyline
 62
7
  6
CONTINUOUS
 90
7
 70
0
 10
15.1565640155
 20
7.5724569337
 10
15.2383587059
 20
7.59776524
 10
15.3126346839
 20
7.6301483564
 10
15.3775715784
 20
7.6688421055
 10
15.4315779025
 20
7.7129276473
 10
15.4733300582
 20
7.7613539988
 10
15.5018047748
 20
7.8129637915
  0
LWPOLYLINE
  5
660
100
AcDbEntity
  8
02___PRT_ALL_AXES
100
AcDbPolyline
 62
7
  6
CONTINUOUS
 90
7
 70
0
 10
15.1565640155
 20
7.5664296029
 10
15.2383587059
 20
7.5917379091
 10
15.3126346839
 20
7.6241210256
 10
15.3775715784
 20
7.6628147747
 10
15.4315779025
 20
7.7069003165
 10
15.4733300582
 20
7.755326668
 10
15.5018047748
 20
7.8069364607
  0
LINE
  5
661
100
AcDbEntity
  8
02___PRT_ALL_AXES
100
AcDbLine
 62
7
  6
CONTINUOUS
 10
15.9158272176
 20
8.7491440181
 11
15.9158272176
 21
8.3633948447
  0
LINE
  5
662
100
AcDbEntity
  8
0
100
AcDbLine
 62
9
  6
CONTINUOUS
 10
15.9158272176
 20
8.3633895224
 11
15.9158272176
 21
8.3633948447
  0
LINE
  5
663
100
AcDbEntity
  8
02___PRT_ALL_AXES
100
AcDbLine
 62
7
  6
CONTINUOUS
 10
15.9158248427
 20
8.7491300189
 11
15.9154109491
 21
8.7326189911
  0
LWPOLYLINE
  5
664
100
AcDbEntity
  8
0
100
AcDbPolyline
 62
7
  6
CONTINUOUS
 90
7
 70
0
 10
15.9158272176
 20
8.3633948447
 10
15.9067946735
 20
8.2835969507
 10
15.8794895851
 20
8.2045930728
 10
15.8340375383
 20
8.1282518919
 10
15.7708873833
 20
8.0560816674
 10
15.6913711883
 20
7.9899139933
 10
15.5972639375
 20
7.9311758008
  0
LINE
  5
665
100
AcDbEntity
  8
0
100
AcDbLine
 62
7
  6
CONTINUOUS
 10
15.1133824026
 20
7.3163616725
 11
15.1359444772
 21
7.3340783723
  0
LWPOLYLINE
  5
666
100
AcDbEntity
  8
0
100
AcDbPolyline
 62
7
  6
CONTINUOUS
 90
10
 70
0
 10
15.0921663673
 20
7.4006798949
 10
15.0747883333
 20
7.3916494953
 10
15.0421284231
 20
7.3793367588
 10
15.007058721
 20
7.3701732653
 10
14.9701027857
 20
7.3642392376
 10
14.9319450216
 20
7.3616715976
 10
14.8939378327
 20
7.3625563505
 10
14.8567292423
 20
7.3668537253
 10
14.82093682
 20
7.3745540437
 10
14.7879195283
 20
7.3854132211
  0
LINE
  5
667
100
AcDbEntity
  8
0
100
AcDbLine
 62
7
  6
CONTINUOUS
 10
15.0792495769
 20
7.2816211507
 11
15.0945979038
 21
7.2904827607
  0
LWPOLYLINE
  5
668
100
AcDbEntity
  8
0
100
AcDbPolyline
 62
7
  6
CONTINUOUS
 90
10
 70
0
 10
15.0945981555
 20
7.290482906
 10
15.0673885097
 20
7.2769816001
 10
15.0364112871
 20
7.2658466005
 10
15.0033084131
 20
7.2577161641
 10
14.9685817736
 20
7.252649454
 10
14.932866805
 20
7.2507572048
 10
14.8974249073
 20
7.2520988592
 10
14.8628954958
 20
7.2566217774
 10
14.829830116
 20
7.264305984
 10
14.7994950775
 20
7.274900035
  0
LWPOLYLINE
  5
669
100
AcDbEntity
  8
0
100
AcDbPolyline
 62
9
  6
CONTINUOUS
 90
20
 70
0
 10
15.286723742
 20
9.6131760434
 10
15.2234262346
 20
9.644127408
 10
15.1521649846
 20
9.6686428109
 10
15.0748869425
 20
9.6860519247
 10
14.9937002392
 20
9.6958799887
 10
14.9108184886
 20
9.69785905
 10
14.8285031613
 20
9.691935079
 10
14.7489992759
 20
9.67826966
 10
14.6744756738
 20
9.6572355751
 10
14.6069650569
 20
9.6294065499
 10
14.548309049
 20
9.5955417336
 10
14.5001075503
 20
9.5565648223
 10
14.4636754497
 20
9.5135390665
 10
14.440006473
 20
9.4676380409
 10
14.4297462856
 20
9.4201138914
 10
14.4331747497
 20
9.3722628139
 10
14.4501982862
 20
9.3253903483
 10
14.4803527203
 20
9.2807746315
 10
14.5228156015
 20
9.239632813
 10
14.5764267563
 20
9.2030883354
  0
LWPOLYLINE
  5
66A
100
AcDbEntity
  8
0
100
AcDbPolyline
 62
7
  6
CONTINUOUS
 90
10
 70
0
 10
15.3998282735
 20
9.6148755254
 10
15.3025429772
 20
9.6596538652
 10
15.1976336586
 20
9.6932550972
 10
15.0902967554
 20
9.714862869
 10
14.9820206397
 20
9.7252419563
 10
14.8737557128
 20
9.7248798642
 10
14.7663635611
 20
9.7138878818
 10
14.6608028376
 20
9.6920262575
 10
14.5587885058
 20
9.6589474616
 10
14.4633222248
 20
9.6148755254
  0
LWPOLYLINE
  5
66B
100
AcDbEntity
  8
02___PRT_ALL_AXES
100
AcDbPolyline
 62
7
  6
CONTINUOUS
 90
3
 70
0
 10
15.3998282735
 20
9.6148755254
 10
15.4078501511
 20
9.6104884064
 10
15.4158034876
 20
9.6060424664
  0
LINE
  5
66C
100
AcDbEntity
  8
0
100
AcDbLine
 62
9
  6
CONTINUOUS
 10
15.4158686485
 20
9.6059118626
 11
15.3998282735
 21
9.6148755254
  0
LINE
  5
66D
100
AcDbEntity
  8
02___PRT_ALL_AXES
100
AcDbLine
 62
7
  6
CONTINUOUS
 10
15.4158034876
 20
9.6060424664
 11
15.4236928835
 21
9.6015360473
  0
LWPOLYLINE
  5
66E
100
AcDbEntity
  8
02___PRT_ALL_AXES
100
AcDbPolyline
 62
7
  6
CONTINUOUS
 90
9
 70
0
 10
15.4236928835
 20
9.6015360473
 10
15.5235596921
 20
9.5354686055
 10
15.6133954825
 20
9.4589842162
 10
15.6966871609
 20
9.3683012679
 10
15.7714068806
 20
9.2624029862
 10
15.8329577622
 20
9.1444432751
 10
15.8783587944
 20
9.01812888
 10
15.9063290447
 20
8.8855514065
 10
15.9158272176
 20
8.7491440181
  0
LINE
  5
66F
100
AcDbEntity
  8
02___PRT_ALL_AXES
100
AcDbLine
 62
7
  6
CENTER
 10
2.3864165055
 20
5.4441384245
 11
2.3864165055
 21
4.359886456
  0
LINE
  5
670
100
AcDbEntity
  8
02___PRT_ALL_AXES
100
AcDbLine
 62
7
  6
CENTER
 10
2.3864165055
 20
5.4441384245
 11
2.3864165055
 21
6.528390393
  0
LINE
  5
671
100
AcDbEntity
  8
02___PRT_ALL_AXES
100
AcDbLine
 62
7
  6
CENTER
 10
2.3864165055
 20
5.4441384245
 11
1.302164537
 21
5.4441384245
  0
LINE
  5
672
100
AcDbEntity
  8
02___PRT_ALL_AXES
100
AcDbLine
 62
7
  6
CENTER
 10
2.3864165055
 20
5.4441384245
 11
3.470668474
 21
5.4441384245
  0
CIRCLE
  5
673
100
AcDbEntity
  8
0
100
AcDbCircle
 62
7
  6
CONTINUOUS
 10
10.5342808475
 20
1.243294839
 40
0.252091
  0
CIRCLE
  5
674
100
AcDbEntity
  8
0
100
AcDbCircle
 62
7
  6
CONTINUOUS
 10
10.5342808475
 20
1.243294839
 40
0.182698
  0
CIRCLE
  5
675
100
AcDbEntity
  8
02___PRT_ALL_AXES
100
AcDbCircle
 62
7
  6
CONTINUOUS
 10
2.3864165055
 20
5.4441384245
 40
0.9842519685
  0
CIRCLE
  5
676
100
AcDbEntity
  8
0
100
AcDbCircle
 62
9
  6
CONTINUOUS
 10
2.3864165055
 20
5.4441384245
 40
0.6848971451
  0
CIRCLE
  5
677
100
AcDbEntity
  8
0
100
AcDbCircle
 62
9
  6
CONTINUOUS
 10
2.3864165055
 20
5.4441384245
 40
0.5022579064
  0
ARC
  5
678
100
AcDbEntity
  8
0
100
AcDbCircle
 62
7
  6
CONTINUOUS
 10
5.818630999
 20
5.0332001374
 40
0.3937007874
100
AcDbArc
 50
193.4120116047
 51
224.0954287137
  0
ARC
  5
679
100
AcDbEntity
  8
0
100
AcDbCircle
 62
7
  6
CONTINUOUS
 10
5.818630999
 20
5.8550767115
 40
0.3937007874
100
AcDbArc
 50
135.9045712863
 51
166.5879883953
  0
ARC
  5
67A
100
AcDbEntity
  8
0
100
AcDbCircle
 62
7
  6
CONTINUOUS
 10
6.2427541199
 20
5.4441384245
 40
0.9842519685
100
AcDbArc
 50
224.0954287137
 51
270.0
  0
ARC
  5
67B
100
AcDbEntity
  8
0
100
AcDbCircle
 62
7
  6
CONTINUOUS
 10
6.2427541199
 20
5.4441384245
 40
0.9842519685
100
AcDbArc
 50
90.0
 51
135.9045712863
  0
ARC
  5
67C
100
AcDbEntity
  8
02___PRT_ALL_AXES
100
AcDbCircle
 62
7
  6
CONTINUOUS
 10
6.2427541199
 20
5.4441384245
 40
0.9842519685
100
AcDbArc
 50
224.0954287137
 51
270.0
  0
ARC
  5
67D
100
AcDbEntity
  8
02___PRT_ALL_AXES
100
AcDbCircle
 62
7
  6
CONTINUOUS
 10
6.2427541199
 20
5.4441384245
 40
0.9842519685
100
AcDbArc
 50
90.0
 51
135.9045712863
  0
ARC
  5
67E
100
AcDbEntity
  8
0
100
AcDbCircle
 62
7
  6
CONTINUOUS
 10
7.5571472611
 20
5.0817565347
 40
0.1181102362
100
AcDbArc
 50
90.0
 51
97.3852386189
  0
ARC
  5
67F
100
AcDbEntity
  8
0
100
AcDbCircle
 62
7
  6
CONTINUOUS
 10
6.7939352223
 20
4.8634297631
 40
0.0393700787
100
AcDbArc
 50
90.0
 51
180.0
  0
ARC
  5
680
100
AcDbEntity
  8
0
100
AcDbCircle
 62
7
  6
CONTINUOUS
 10
7.5025966396
 20
4.9421699206
 40
0.0393700787
100
AcDbArc
 50
270.0
 51
360.0
  0
ARC
  5
681
100
AcDbEntity
  8
0
100
AcDbCircle
 62
7
  6
CONTINUOUS
 10
6.7151950648
 20
4.4992565347
 40
0.0393700787
100
AcDbArc
 50
270.0
 51
360.0
  0
ARC
  5
682
100
AcDbEntity
  8
0
100
AcDbCircle
 62
7
  6
CONTINUOUS
 10
7.5419667184
 20
5.4441384245
 40
2.1653543307
100
AcDbArc
 50
166.5879883953
 51
193.4120116047
  0
ARC
  5
683
100
AcDbEntity
  8
0
100
AcDbCircle
 62
7
  6
CONTINUOUS
 10
7.5571472611
 20
5.8065203143
 40
0.1181102362
100
AcDbArc
 50
262.6147613811
 51
270.0
  0
ARC
  5
684
100
AcDbEntity
  8
0
100
AcDbCircle
 62
7
  6
CONTINUOUS
 10
6.7939352223
 20
6.0248470859
 40
0.0393700787
100
AcDbArc
 50
180.0
 51
270.0
  0
ARC
  5
685
100
AcDbEntity
  8
0
100
AcDbCircle
 62
7
  6
CONTINUOUS
 10
7.5025966396
 20
5.9461069284
 40
0.0393700787
100
AcDbArc
 50
0.0
 51
90.0
  0
ARC
  5
686
100
AcDbEntity
  8
0
100
AcDbCircle
 62
7
  6
CONTINUOUS
 10
6.7151950648
 20
6.3890203143
 40
0.0393700787
100
AcDbArc
 50
0.0
 51
90.0
  0
ARC
  5
687
100
AcDbEntity
  8
0
100
AcDbCircle
 62
7
  6
CONTINUOUS
 10
10.704539732
 20
5.3850833064
 40
0.0354330709
100
AcDbArc
 50
190.1642486217
 51
10.1642486217
  0
ARC
  5
688
100
AcDbEntity
  8
0
100
AcDbCircle
 62
7
  6
CONTINUOUS
 10
10.704539732
 20
5.5031935426
 40
0.0354330709
100
AcDbArc
 50
349.8357513783
 51
169.8357513783
  0
CIRCLE
  5
689
100
AcDbEntity
  8
0
100
AcDbCircle
 62
7
  6
CONTINUOUS
 10
10.9355082464
 20
5.4441384245
 40
0.0196850394
  0
CIRCLE
  5
68A
100
AcDbEntity
  8
0
100
AcDbCircle
 62
9
  6
CONTINUOUS
 10
10.9355082464
 20
5.4441384245
 40
0.00468503
  0
ARC
  5
68B
100
AcDbEntity
  8
0
100
AcDbCircle
 62
7
  6
CONTINUOUS
 10
11.3633271545
 20
5.3850833064
 40
0.0354330709
100
AcDbArc
 50
169.8357513783
 51
349.8357513783
  0
ARC
  5
68C
100
AcDbEntity
  8
0
100
AcDbCircle
 62
7
  6
CONTINUOUS
 10
11.1327613595
 20
5.3453105082
 40
0.0236220472
100
AcDbArc
 50
45.0
 51
225.0
  0
CIRCLE
  5
68D
100
AcDbEntity
  8
0
100
AcDbCircle
 62
7
  6
CONTINUOUS
 10
11.0339334433
 20
5.3457132276
 40
0.0196850394
  0
CIRCLE
  5
68E
100
AcDbEntity
  8
0
100
AcDbCircle
 62
9
  6
CONTINUOUS
 10
11.0339334433
 20
5.3457132276
 40
0.00468503
  0
ARC
  5
68F
100
AcDbEntity
  8
02___PRT_ALL_AXES
100
AcDbCircle
 62
7
  6
CONTINUOUS
 10
11.0339334433
 20
5.4441384245
 40
0.9842519685
100
AcDbArc
 50
95.9988690531
 51
264.0032283027
  0
ARC
  5
690
100
AcDbEntity
  8
02___PRT_ALL_AXES
100
AcDbCircle
 62
7
  6
CONTINUOUS
 10
11.0339334433
 20
5.4441384245
 40
0.9842519685
100
AcDbArc
 50
82.8618060739
 51
84.0032283027
  0
ARC
  5
691
100
AcDbEntity
  8
02___PRT_ALL_AXES
100
AcDbCircle
 62
7
  6
CONTINUOUS
 10
11.0339334433
 20
5.4441384245
 40
0.9842519685
100
AcDbArc
 50
275.9988690531
 51
277.1381939258
  0
CIRCLE
  5
692
100
AcDbEntity
  8
0
100
AcDbCircle
 62
7
  6
CONTINUOUS
 10
11.0339334433
 20
5.4441384245
 40
0.9842519685
  0
CIRCLE
  5
693
100
AcDbEntity
  8
0
100
AcDbCircle
 62
9
  6
CONTINUOUS
 10
11.0339334433
 20
5.4441384245
 40
0.9448818805
  0
ARC
  5
694
100
AcDbEntity
  8
0
100
AcDbCircle
 62
9
  6
CONTINUOUS
 10
11.0339334433
 20
5.4441384245
 40
0.5905511811
100
AcDbArc
 50
280.4753138432
 51
79.5246861568
  0
ARC
  5
695
100
AcDbEntity
  8
0
100
AcDbCircle
 62
9
  6
CONTINUOUS
 10
11.0339334433
 20
5.4441384245
 40
0.5905511811
100
AcDbArc
 50
100.4753138432
 51
259.5246861568
  0
ARC
  5
696
100
AcDbEntity
  8
0
100
AcDbCircle
 62
7
  6
CONTINUOUS
 10
11.0339334433
 20
5.4441384245
 40
0.5511811024
100
AcDbArc
 50
100.8440625637
 51
259.1559374363
  0
ARC
  5
697
100
AcDbEntity
  8
0
100
AcDbCircle
 62
7
  6
CONTINUOUS
 10
11.0339334433
 20
5.4441384245
 40
0.5511811024
100
AcDbArc
 50
280.8440625637
 51
79.1559374363
  0
ARC
  5
698
100
AcDbEntity
  8
0
100
AcDbCircle
 62
9
  6
CONTINUOUS
 10
11.0339334433
 20
5.4441384245
 40
0.5118110236
100
AcDbArc
 50
281.2547126182
 51
78.7452873818
  0
ARC
  5
699
100
AcDbEntity
  8
0
100
AcDbCircle
 62
9
  6
CONTINUOUS
 10
11.0339334433
 20
5.4441384245
 40
0.5118110236
100
AcDbArc
 50
101.2547126182
 51
258.7452873818
  0
CIRCLE
  5
69A
100
AcDbEntity
  8
0
100
AcDbCircle
 62
7
  6
CONTINUOUS
 10
11.0339334433
 20
5.4441384245
 40
0.374015748
  0
ARC
  5
69B
100
AcDbEntity
  8
02___PRT_ALL_AXES
100
AcDbCircle
 62
7
  6
CONTINUOUS
 10
11.0339334433
 20
5.4441384245
 40
0.3700787402
100
AcDbArc
 50
349.8357513783
 51
10.1642486217
  0
ARC
  5
69C
100
AcDbEntity
  8
02___PRT_ALL_AXES
100
AcDbCircle
 62
7
  6
CONTINUOUS
 10
11.0339334433
 20
5.4441384245
 40
0.3700787402
100
AcDbArc
 50
169.8357513783
 51
190.1642486217
  0
ARC
  5
69D
100
AcDbEntity
  8
0
100
AcDbCircle
 62
9
  6
CONTINUOUS
 10
11.0339334433
 20
5.4441384245
 40
0.3051181102
100
AcDbArc
 50
193.675172929
 51
346.3247431807
  0
ARC
  5
69E
100
AcDbEntity
  8
0
100
AcDbCircle
 62
9
  6
CONTINUOUS
 10
11.0339334433
 20
5.4441384245
 40
0.3051181102
100
AcDbArc
 50
13.6751729346
 51
166.324743187
  0
ARC
  5
69F
100
AcDbEntity
  8
0
100
AcDbCircle
 62
7
  6
CONTINUOUS
 10
11.0339334433
 20
5.4441384245
 40
0.2992125984
100
AcDbArc
 50
349.8357513783
 51
10.1642486217
  0
ARC
  5
6A0
100
AcDbEntity
  8
0
100
AcDbCircle
 62
7
  6
CONTINUOUS
 10
11.0339334433
 20
5.4441384245
 40
0.2992125984
100
AcDbArc
 50
169.8357513783
 51
190.1642486217
  0
CIRCLE
  5
6A1
100
AcDbEntity
  8
0
100
AcDbCircle
 62
7
  6
CONTINUOUS
 10
11.0339334433
 20
5.4441384245
 40
0.2854330709
  0
ARC
  5
6A2
100
AcDbEntity
  8
02___PRT_ALL_AXES
100
AcDbCircle
 62
7
  6
CONTINUOUS
 10
11.0339334433
 20
5.4441384245
 40
0.2854330709
100
AcDbArc
 50
280.156081898
 51
358.3494205318
  0
ARC
  5
6A3
100
AcDbEntity
  8
02___PRT_ALL_AXES
100
AcDbCircle
 62
7
  6
CONTINUOUS
 10
11.0339334433
 20
5.4441384245
 40
0.2854330709
100
AcDbArc
 50
1.6735108502
 51
79.8683374487
  0
ARC
  5
6A4
100
AcDbEntity
  8
02___PRT_ALL_AXES
100
AcDbCircle
 62
7
  6
CONTINUOUS
 10
11.0339334433
 20
5.4441384245
 40
0.2854330709
100
AcDbArc
 50
100.1560818979
 51
178.3494205317
  0
CIRCLE
  5
6A5
100
AcDbEntity
  8
0
100
AcDbCircle
 62
9
  6
CONTINUOUS
 10
11.0339334433
 20
5.4441384245
 40
0.2815942195
  0
CIRCLE
  5
6A6
100
AcDbEntity
  8
0
100
AcDbCircle
 62
9
  6
CONTINUOUS
 10
11.0339334433
 20
5.4441384245
 40
0.2481105049
  0
ARC
  5
6A7
100
AcDbEntity
  8
0
100
AcDbCircle
 62
7
  6
CONTINUOUS
 10
11.0339334433
 20
5.4441384245
 40
0.2442716535
100
AcDbArc
 50
342.3463568424
 51
342.0005095346
  0
CIRCLE
  5
6A8
100
AcDbEntity
  8
0
100
AcDbCircle
 62
7
  6
CONTINUOUS
 10
11.0339334433
 20
5.4441384245
 40
0.208838596
  0
CIRCLE
  5
6A9
100
AcDbEntity
  8
0
100
AcDbCircle
 62
7
  6
CONTINUOUS
 10
11.0339334433
 20
5.4441384245
 40
0.2037401575
  0
CIRCLE
  5
6AA
100
AcDbEntity
  8
0
100
AcDbCircle
 62
7
  6
CONTINUOUS
 10
11.0339334433
 20
5.4441384245
 40
0.1633858268
  0
CIRCLE
  5
6AB
100
AcDbEntity
  8
0
100
AcDbCircle
 62
7
  6
CONTINUOUS
 10
11.0339334433
 20
5.4441384245
 40
0.0196850394
  0
CIRCLE
  5
6AC
100
AcDbEntity
  8
0
100
AcDbCircle
 62
7
  6
CONTINUOUS
 10
11.1323586401
 20
5.4441384245
 40
0.0196850394
  0
CIRCLE
  5
6AD
100
AcDbEntity
  8
0
100
AcDbCircle
 62
9
  6
CONTINUOUS
 10
11.0339334433
 20
5.4441384245
 40
0.00468503
  0
CIRCLE
  5
6AE
100
AcDbEntity
  8
0
100
AcDbCircle
 62
9
  6
CONTINUOUS
 10
11.1323586401
 20
5.4441384245
 40
0.00468503
  0
CIRCLE
  5
6AF
100
AcDbEntity
  8
0
100
AcDbCircle
 62
7
  6
CONTINUOUS
 10
11.0339334433
 20
5.5425636213
 40
0.0196850394
  0
CIRCLE
  5
6B0
100
AcDbEntity
  8
0
100
AcDbCircle
 62
9
  6
CONTINUOUS
 10
11.0339334433
 20
5.5425636213
 40
0.00468503
  0
ARC
  5
6B1
100
AcDbEntity
  8
0
100
AcDbCircle
 62
7
  6
CONTINUOUS
 10
11.3633271545
 20
5.5031935426
 40
0.0354330709
100
AcDbArc
 50
10.1642486217
 51
190.1642486217
  0
ENDSEC
  0
SECTION
  2
OBJECTS
  0
DICTIONARY
  5
C
100
AcDbDictionary
280
0
281
1
  3
ACAD_GROUP
350
D
  3
ACAD_MLINESTYLE
350
17
  3
ACAD_LAYOUT
350
1A
  3
ACAD_PLOTSETTINGS
350
19
  3
ACAD_PLOTSTYLENAME
350
E
  0
DICTIONARY
  5
D
102
{ACAD_REACTORS
330
C
102
}
100
AcDbDictionary
280
0
281
1
  0
ACDBDICTIONARYWDFLT
  5
E
102
{ACAD_REACTORS
330
C
102
}
100
AcDbDictionary
281
1
  3
Normal
350
F
100
AcDbDictionaryWithDefault
340
F
  0
DICTIONARY
  5
17
102
{ACAD_REACTORS
330
C
102
}
100
AcDbDictionary
280
0
281
1
  3
Standard
350
18
  0
DICTIONARY
  5
19
102
{ACAD_REACTORS
330
C
102
}
100
AcDbDictionary
281
1
  0
DICTIONARY
  5
1A
102
{ACAD_REACTORS
330
C
102
}
100
AcDbDictionary
281
1
  3
Model
350
6B2
  3
Layout1
350
6B3
  0
ACDBPLACEHOLDER
  5
F
102
{ACAD_REACTORS
330
E
102
}
  0
MLINESTYLE
  5
18
102
{ACAD_REACTORS
330
17
102
}
100
AcDbMlineStyle
  2
STANDARD
 70
0
  3

 62
256
 51
90.0
 52
90.0
 71
2
 49
0.5
 62
256
  6
BYLAYER
 49
-0.5
 62
256
  6
BYLAYER
  0
LAYOUT
  5
6B2
102
{ACAD_REACTORS
330
1A
102
}
100
AcDbPlotSettings
  1

  2
none_device
  4
ANSI_B_(17.00_x_11.00_Inches)
  6

 40
0.0
 41
0.0
 42
0.0
 43
0.0
 44
431.8
 45
279.4
 46
0.0
 47
0.0
 48
0.0
 49
0.0
140
0.0
141
0.0
142
1.0
143
1.0
 70
1024
 72
0
 73
0
 74
0
  7

 75
0
147
1.0
148
0.0
149
0.0
100
AcDbLayout
  1
Model
 70
0
 71
0
 10
0.0
 20
0.0
 11
17.0
 21
11.0
 12
0.0
 22
0.0
 32
0.0
 14
0.0
 24
0.0
 34
0.0
 15
0.0
 25
0.0
 35
0.0
146
0.0
 13
0.0
 23
0.0
 33
0.0
 16
1.0
 26
0.0
 36
0.0
 17
0.0
 27
1.0
 37
0.0
 76
0
330
221
345
0
346
0
  0
LAYOUT
  5
6B3
102
{ACAD_REACTORS
330
1A
102
}
100
AcDbPlotSettings
  1

  2
none_device
  4
ANSI_B_(17.00_x_11.00_Inches)
  6

 40
0.0
 41
0.0
 42
0.0
 43
0.0
 44
431.8
 45
279.4
 46
0.0
 47
0.0
 48
0.0
 49
0.0
140
0.0
141
0.0
142
1.0
143
1.0
 70
0
 72
0
 73
0
 74
0
  7

 75
0
147
1.0
148
0.0
149
0.0
100
AcDbLayout
  1
Layout1
 70
0
 71
1
 10
0.0
 20
0.0
 11
17.0
 21
11.0
 12
0.0
 22
0.0
 32
0.0
 14
0.0
 24
0.0
 34
0.0
 15
0.0
 25
0.0
 35
0.0
146
0.0
 13
0.0
 23
0.0
 33
0.0
 16
1.0
 26
0.0
 36
0.0
 17
0.0
 27
1.0
 37
0.0
 76
0
330
222
345
0
346
0
  0
ENDSEC
  0
EOF
