999
DXF file: 158612_1.dxf
999
Pro/ENGINEER 2009141 by Parametric Technology Corporation
  0
SECTION
  2
HEADER
  9
$ACADVER
  1
AC1015
  9
$DWGCODEPAGE
  3
ANSI_1252
  9
$EXTMAX
 10
17.0
 20
11.0
 30
0.0
  9
$EXTMIN
 10
0.0
 20
0.0
 30
0.0
  9
$LIMMIN
 10
0.0
 20
0.0
  9
$LIMMAX
 10
17.0
 20
11.0
  9
$VIEWCTR
 10
8.5
 20
5.5
  9
$VIEWSIZE
 40
11.0
  9
$CLAYER
  8
0
  9
$LTSCALE
 40
0.935
  9
$CELTYPE
  6
BYLAYER
  9
$DIMSCALE
 40
1.0
  9
$DIMASZ
 40
0.1875
  9
$DIMEXO
 40
0.10625
  9
$DIMDLI
 40
0.646
  9
$DIMEXE
 40
0.306
  9
$DIMCEN
 40
0.153
  9
$DIMLFAC
 40
1.0
  9
$DIMBLK
  1
_FILLED
  9
$DIMTXT
 40
0.1
  9
$DIMTOL
 70
1
  9
$DIMLIM
 70
0
  9
$DIMTFAC
 40
1.0
  9
$DIMTP
 40
0.005
  9
$DIMTM
 40
0.005
  9
$PDMODE
 70
3
  9
$PDSIZE
 40
0.3125
  9
$HANDSEED
  5
7FB
  9
$TILEMODE
 70
1
  9
$MEASUREMENT
 70
0
  9
$INSUNITS
 70
1
  0
ENDSEC
  0
SECTION
  2
CLASSES
  0
CLASS
  1
ACDBDICTIONARYWDFLT
  2
AcDbDictionaryWithDefault
  3
AutoCAD 2000
 90
0
280
0
281
0
  0
CLASS
  1
ACDBPLACEHOLDER
  2
AcDbPlaceHolder
  3
AutoCAD 2000
 90
0
280
0
281
0
  0
CLASS
  1
LAYOUT
  2
AcDbLayout
  3
AutoCAD 2000
 90
0
280
0
281
0
  0
ENDSEC
  0
SECTION
  2
TABLES
  0
TABLE
  2
VPORT
  5
8
100
AcDbSymbolTable
 70
2
  0
VPORT
  5
1F4
100
AcDbSymbolTableRecord
100
AcDbViewportTableRecord
  2
*ACTIVE
 70
0
 10
0.0
 20
0.0
 11
1.0
 21
1.0
 12
8.5
 22
5.5
 13
0.0
 23
0.0
 14
1.0
 24
1.0
 15
0.0
 25
0.0
 16
0.0
 26
0.0
 36
1.0
 17
0.0
 27
0.0
 37
0.0
 40
11.0
 41
1.5454545455
 42
50.0
 43
0.0
 44
0.0
 50
0.0
 51
0.0
 71
0
 72
100
 73
1
 74
1
 75
0
 76
0
 77
0
 78
0
  0
ENDTAB
  0
TABLE
  2
LTYPE
  5
5
100
AcDbSymbolTable
 70
6
  0
LTYPE
  5
14
100
AcDbSymbolTableRecord
100
AcDbLinetypeTableRecord
  2
BYBLOCK
 70
0
  3

 72
65
 73
0
 40
0.0
  0
LTYPE
  5
15
100
AcDbSymbolTableRecord
100
AcDbLinetypeTableRecord
  2
BYLAYER
 70
0
  3

 72
65
 73
0
 40
0.0
  0
LTYPE
  5
16
100
AcDbSymbolTableRecord
100
AcDbLinetypeTableRecord
  2
CONTINUOUS
 70
64
  3
Solid line
 72
65
 73
0
 40
0.0
  0
LTYPE
  5
1F5
100
AcDbSymbolTableRecord
100
AcDbLinetypeTableRecord
  2
CENTER
 70
64
  3
____ _ ____ _ ____ _ ____ _ ____ _ ____ _ ____
 72
65
 73
4
 40
0.6
 49
0.375
 74
0
 49
-0.075
 74
0
 49
0.075
 74
0
 49
-0.075
 74
0
  0
LTYPE
  5
1F6
100
AcDbSymbolTableRecord
100
AcDbLinetypeTableRecord
  2
HIDDEN
 70
64
  3
- - - - - - - - - - - - - - - - - - - -
 72
65
 73
2
 40
0.2
 49
0.1
 74
0
 49
-0.1
 74
0
  0
LTYPE
  5
1F7
100
AcDbSymbolTableRecord
100
AcDbLinetypeTableRecord
  2
PHANTOM
 70
64
  3
_____ _ _ _____ _ _ _____ _ _ _____
 72
65
 73
6
 40
0.8
 49
0.45
 74
0
 49
-0.05
 74
0
 49
0.1
 74
0
 49
-0.05
 74
0
 49
0.1
 74
0
 49
-0.05
 74
0
  0
LTYPE
  5
1F8
100
AcDbSymbolTableRecord
100
AcDbLinetypeTableRecord
  2
DOT
 70
64
  3
. . . . . . . . . . . . . . . . . . . .
 72
65
 73
2
 40
0.2
 49
0.1
 74
0
 49
-0.1
 74
0
  0
LTYPE
  5
1F9
100
AcDbSymbolTableRecord
100
AcDbLinetypeTableRecord
  2
DASHED
 70
64
  3
- - - - - - - - - - - - - - - - - - - -
 72
65
 73
2
 40
0.2
 49
0.1
 74
0
 49
-0.1
 74
0
  0
ENDTAB
  0
TABLE
  2
LAYER
  5
2
100
AcDbSymbolTable
 70
36
  0
LAYER
  5
10
100
AcDbSymbolTableRecord
100
AcDbLayerTableRecord
  2
0
 70
0
 62
7
  6
CONTINUOUS
370
-3
390
F
  0
LAYER
  5
1FA
100
AcDbSymbolTableRecord
100
AcDbLayerTableRecord
  2
DEFAULT_1
 70
0
 62
7
  6
CENTER
370
-3
390
F
  0
LAYER
  5
1FB
100
AcDbSymbolTableRecord
100
AcDbLayerTableRecord
  2
DEFAULT_2
 70
0
 62
8
  6
HIDDEN
370
-3
390
F
  0
LAYER
  5
1FC
100
AcDbSymbolTableRecord
100
AcDbLayerTableRecord
  2
DEFAULT_3
 70
0
 62
7
  6
PHANTOM
370
-3
390
F
  0
LAYER
  5
1FD
100
AcDbSymbolTableRecord
100
AcDbLayerTableRecord
  2
01___PRT_ALL_DTM_PLN
 70
0
 62
7
  6
CONTINUOUS
370
-3
390
F
  0
LAYER
  5
1FE
100
AcDbSymbolTableRecord
100
AcDbLayerTableRecord
  2
01___PRT_DEF_DTM_PLN
 70
0
 62
7
  6
CONTINUOUS
370
-3
390
F
  0
LAYER
  5
1FF
100
AcDbSymbolTableRecord
100
AcDbLayerTableRecord
  2
02___PRT_ALL_AXES
 70
0
 62
7
  6
CONTINUOUS
370
-3
390
F
  0
LAYER
  5
200
100
AcDbSymbolTableRecord
100
AcDbLayerTableRecord
  2
03___PRT_ALL_CURVES
 70
0
 62
7
  6
CONTINUOUS
370
-3
390
F
  0
LAYER
  5
201
100
AcDbSymbolTableRecord
100
AcDbLayerTableRecord
  2
04___PRT_ALL_DTM_PNT
 70
0
 62
7
  6
CONTINUOUS
370
-3
390
F
  0
LAYER
  5
202
100
AcDbSymbolTableRecord
100
AcDbLayerTableRecord
  2
05___PRT_ALL_DTM_CSYS
 70
0
 62
7
  6
CONTINUOUS
370
-3
390
F
  0
LAYER
  5
203
100
AcDbSymbolTableRecord
100
AcDbLayerTableRecord
  2
05___PRT_DEF_DTM_CSYS
 70
0
 62
7
  6
CONTINUOUS
370
-3
390
F
  0
LAYER
  5
204
100
AcDbSymbolTableRecord
100
AcDbLayerTableRecord
  2
06___PRT_ALL_SURFS
 70
0
 62
7
  6
CONTINUOUS
370
-3
390
F
  0
LAYER
  5
205
100
AcDbSymbolTableRecord
100
AcDbLayerTableRecord
  2
AXIS
 70
0
 62
7
  6
CONTINUOUS
370
-3
390
F
  0
LAYER
  5
206
100
AcDbSymbolTableRecord
100
AcDbLayerTableRecord
  2
AXIS_COSMETIC_THREADS
 70
0
 62
7
  6
CONTINUOUS
370
-3
390
F
  0
LAYER
  5
207
100
AcDbSymbolTableRecord
100
AcDbLayerTableRecord
  2
COSMETIC_THREADS
 70
0
 62
7
  6
CONTINUOUS
370
-3
390
F
  0
LAYER
  5
208
100
AcDbSymbolTableRecord
100
AcDbLayerTableRecord
  2
DATUM_CURVES
 70
0
 62
7
  6
CONTINUOUS
370
-3
390
F
  0
LAYER
  5
209
100
AcDbSymbolTableRecord
100
AcDbLayerTableRecord
  2
DATUM_PLANES
 70
0
 62
7
  6
CONTINUOUS
370
-3
390
F
  0
LAYER
  5
20A
100
AcDbSymbolTableRecord
100
AcDbLayerTableRecord
  2
NOTES
 70
0
 62
7
  6
CONTINUOUS
370
-3
390
F
  0
LAYER
  5
20B
100
AcDbSymbolTableRecord
100
AcDbLayerTableRecord
  2
QUILTS
 70
0
 62
7
  6
CONTINUOUS
370
-3
390
F
  0
LAYER
  5
20C
100
AcDbSymbolTableRecord
100
AcDbLayerTableRecord
  2
SCHEME_DIMS
 70
0
 62
7
  6
CONTINUOUS
370
-3
390
F
  0
LAYER
  5
20D
100
AcDbSymbolTableRecord
100
AcDbLayerTableRecord
  2
SYMBOLS
 70
0
 62
7
  6
CONTINUOUS
370
-3
390
F
  0
ENDTAB
  0
TABLE
  2
STYLE
  5
3
100
AcDbSymbolTable
 70
1
  0
STYLE
  5
11
100
AcDbSymbolTableRecord
100
AcDbTextStyleTableRecord
  2
STANDARD
 70
0
 40
0.0
 41
1.0
 50
0.0
 71
0
 42
0.2
  3
txt
  4

  0
STYLE
  5
20E
100
AcDbSymbolTableRecord
100
AcDbTextStyleTableRecord
  2
TEXTSTYLE_1
 70
0
 40
0.0
 41
0.8
 50
0.0
 71
0
 42
0.2
  3
gdt
  4

  0
STYLE
  5
20F
100
AcDbSymbolTableRecord
100
AcDbTextStyleTableRecord
  2
TEXTSTYLE_2
 70
0
 40
0.0
 41
0.8
 50
0.0
 71
0
 42
0.2
  3
txt
  4

  0
STYLE
  5
210
100
AcDbSymbolTableRecord
100
AcDbTextStyleTableRecord
  2
TEXTSTYLE_3
 70
0
 40
0.0
 41
0.85
 50
0.0
 71
0
 42
0.2
  3
txt
  4

  0
STYLE
  5
211
100
AcDbSymbolTableRecord
100
AcDbTextStyleTableRecord
  2
TEXTSTYLE_4
 70
0
 40
0.0
 41
0.92
 50
0.0
 71
0
 42
0.2
  3
txt
  4

  0
STYLE
  5
212
100
AcDbSymbolTableRecord
100
AcDbTextStyleTableRecord
  2
TEXTSTYLE_5
 70
0
 40
0.0
 41
1.0
 50
0.0
 71
0
 42
0.2
  3
gdt
  4

  0
ENDTAB
  0
TABLE
  2
VIEW
  5
6
100
AcDbSymbolTable
 70
0
  0
ENDTAB
  0
TABLE
  2
UCS
  5
7
100
AcDbSymbolTable
 70
0
  0
ENDTAB
  0
TABLE
  2
APPID
  5
9
100
AcDbSymbolTable
 70
1
  0
APPID
  5
213
100
AcDbSymbolTableRecord
100
AcDbRegAppTableRecord
  2
ACAD
 70
0
  0
ENDTAB
  0
TABLE
  2
BLOCK_RECORD
  5
1
100
AcDbSymbolTable
 70
0
  0
BLOCK_RECORD
  5
214
100
AcDbSymbolTableRecord
100
AcDbBlockTableRecord
  2
*Model_Space
  0
BLOCK_RECORD
  5
215
100
AcDbSymbolTableRecord
100
AcDbBlockTableRecord
  2
*Paper_Space
  0
BLOCK_RECORD
  5
216
100
AcDbSymbolTableRecord
100
AcDbBlockTableRecord
  2
_FILLED
  0
BLOCK_RECORD
  5
217
100
AcDbSymbolTableRecord
100
AcDbBlockTableRecord
  2
*D0
  0
BLOCK_RECORD
  5
218
100
AcDbSymbolTableRecord
100
AcDbBlockTableRecord
  2
*D1
  0
BLOCK_RECORD
  5
219
100
AcDbSymbolTableRecord
100
AcDbBlockTableRecord
  2
*D2
  0
BLOCK_RECORD
  5
21A
100
AcDbSymbolTableRecord
100
AcDbBlockTableRecord
  2
*D3
  0
BLOCK_RECORD
  5
21B
100
AcDbSymbolTableRecord
100
AcDbBlockTableRecord
  2
CL_BL3
  0
BLOCK_RECORD
  5
21C
100
AcDbSymbolTableRecord
100
AcDbBlockTableRecord
  2
CL_BL2
  0
BLOCK_RECORD
  5
21D
100
AcDbSymbolTableRecord
100
AcDbBlockTableRecord
  2
CL_BL1
  0
BLOCK_RECORD
  5
21E
100
AcDbSymbolTableRecord
100
AcDbBlockTableRecord
  2
BANNER_LOGO_TITLEBLOCK_BL0
  0
ENDTAB
  0
TABLE
  2
DIMSTYLE
  5
A
100
AcDbSymbolTable
 70
1
100
AcDbDimStyleTable
 71
0
  0
DIMSTYLE
105
21F
100
AcDbSymbolTableRecord
100
AcDbDimStyleTableRecord
  2
STANDARD
 70
0
  3

  4

 40
1.0
 41
0.1875
 42
0.0625
 43
0.38
 44
0.18
 45
0.0
 46
0.0
 47
0.005
 48
0.005
140
0.1
141
0.09
142
0.0
143
25.4
144
1.0
145
0.0
146
1.0
147
0.09
 71
1.0
 72
0.0
 73
1
 74
1
 75
0
 76
0
 77
0
 78
4
170
0
171
2
172
0
173
0
174
0
175
0
176
0
177
0
178
0
270
2
271
3
272
3
273
2
274
2
275
0
280
0
281
0
282
0
283
1
284
4
285
0
286
0
287
3
288
0
340
11
341
216
342
216
343
216
344
216
  0
DIMSTYLE
105
220
100
AcDbSymbolTableRecord
100
AcDbDimStyleTableRecord
  2
DIMSTYLE_1
 70
0
  3

  4

 40
1.0
 41
0.1875
 42
0.0625
 43
0.38
 44
0.18
 45
0.0
 46
0.0
 47
0.1
 48
0.1
140
0.1
141
0.09
142
0.0
143
25.4
144
1.0
145
0.0
146
1.0
147
0.09
 71
0.0
 72
0.0
 73
1
 74
1
 75
0
 76
0
 77
0
 78
4
170
0
171
2
172
0
173
0
174
0
175
0
176
0
177
0
178
0
270
2
271
1
272
1
273
2
274
2
275
0
280
0
281
0
282
0
283
1
284
4
285
0
286
0
287
3
288
0
340
11
341
216
342
216
343
216
344
216
  0
DIMSTYLE
105
221
100
AcDbSymbolTableRecord
100
AcDbDimStyleTableRecord
  2
DIMSTYLE_2
 70
0
  3

  4

 40
1.0
 41
0.1875
 42
0.0625
 43
0.38
 44
0.18
 45
0.0
 46
0.0
 47
0.1
 48
0.1
140
0.1
141
0.09
142
0.0
143
25.4
144
1.0
145
0.0
146
1.0
147
0.09
 71
0.0
 72
0.0
 73
1
 74
1
 75
0
 76
0
 77
0
 78
4
170
0
171
2
172
0
173
0
174
0
175
0
176
0
177
0
178
0
270
2
271
1
272
1
273
2
274
2
275
0
280
0
281
0
282
0
283
1
284
4
285
0
286
0
287
3
288
0
340
11
341
216
342
216
343
216
344
216
  0
ENDTAB
  0
ENDSEC
  0
SECTION
  2
BLOCKS
  0
BLOCK
  5
20
100
AcDbEntity
  8
0
100
AcDbBlockBegin
  2
*Model_Space
 70
0
 10
0.0
 20
0.0
 30
0.0
  3
*Model_Space
  1

  0
ENDBLK
  5
21
100
AcDbEntity
  8
0
100
AcDbBlockEnd
  0
BLOCK
  5
1C
100
AcDbEntity
  8
0
100
AcDbBlockBegin
  2
*Paper_Space
 70
0
 10
0.0
 20
0.0
 30
0.0
  3
*Paper_Space
  1

  0
ENDBLK
  5
1D
100
AcDbEntity
  8
0
100
AcDbBlockEnd
  0
BLOCK
  5
222
100
AcDbEntity
  8
SYMBOLS
100
AcDbBlockBegin
 62
2
  6
CONTINUOUS
  2
CL_BL3
 70
64
 10
5.0192765004
 20
2.5046771309
  3
CL_BL3
  1

  0
MTEXT
  5
223
100
AcDbEntity
  8
SYMBOLS
100
AcDbMText
 62
2
  6
CONTINUOUS
  7
TEXTSTYLE_5
 71
1
 72
1
 10
4.9342765004
 20
2.5646771309
 30
0.0
 11
1.0
 21
0.0
 31
0.0
 44
0.9
  1
{\Fgdt;q}
 40
0.12
 41
0.17
  0
ENDBLK
  5
224
100
AcDbEntity
  8
0
  6
BYBLOCK
 62
0
100
AcDbBlockEnd
  0
BLOCK
  5
225
100
AcDbEntity
  8
SYMBOLS
100
AcDbBlockBegin
 62
2
  6
CONTINUOUS
  2
CL_BL2
 70
64
 10
5.0416016561
 20
6.6837470062
  3
CL_BL2
  1

  0
MTEXT
  5
226
100
AcDbEntity
  8
SYMBOLS
100
AcDbMText
 62
2
  6
CONTINUOUS
  7
TEXTSTYLE_5
 71
1
 72
1
 10
4.9566016561
 20
6.7437470062
 30
0.0
 11
1.0
 21
0.0
 31
0.0
 44
0.9
  1
{\Fgdt;q}
 40
0.12
 41
0.17
  0
ENDBLK
  5
227
100
AcDbEntity
  8
0
  6
BYBLOCK
 62
0
100
AcDbBlockEnd
  0
BLOCK
  5
228
100
AcDbEntity
  8
SYMBOLS
100
AcDbBlockBegin
 62
2
  6
CONTINUOUS
  2
CL_BL1
 70
64
 10
6.2427566802
 20
7.9381177592
  3
CL_BL1
  1

  0
MTEXT
  5
229
100
AcDbEntity
  8
SYMBOLS
100
AcDbMText
 62
2
  6
CONTINUOUS
  7
TEXTSTYLE_5
 71
1
 72
1
 10
6.1577566802
 20
7.9981177592
 30
0.0
 11
1.0
 21
0.0
 31
0.0
 44
0.9
  1
{\Fgdt;q}
 40
0.12
 41
0.17
  0
ENDBLK
  5
22A
100
AcDbEntity
  8
0
  6
BYBLOCK
 62
0
100
AcDbBlockEnd
  0
BLOCK
  5
22B
100
AcDbEntity
  8
0
100
AcDbBlockBegin
 62
2
  6
CONTINUOUS
  2
BANNER_LOGO_TITLEBLOCK_BL0
 70
64
 10
12.9086867042
 20
2.5403783405
  3
BANNER_LOGO_TITLEBLOCK_BL0
  1

  0
ELLIPSE
  5
22C
100
AcDbEntity
  8
0
100
AcDbEllipse
 62
2
  6
CONTINUOUS
 10
12.9046654608
 20
2.5403783405
 30
0.0
 11
-0.8250004575
 21
0.0
 31
0.0
 40
0.218572
 41
0.0
 42
6.2831853072
  0
ARC
  5
22D
100
AcDbEntity
  8
0
100
AcDbCircle
 62
2
  6
CONTINUOUS
 10
12.400005721
 20
2.5168763464
 40
0.0153945295
100
AcDbArc
 50
354.0454548824
 51
5.1878013979
  0
ARC
  5
22E
100
AcDbEntity
  8
0
100
AcDbCircle
 62
2
  6
CONTINUOUS
 10
12.3931760319
 20
2.5166878286
 40
0.0222174455
100
AcDbArc
 50
4.0793399388
 51
69.834329283
  0
LINE
  5
22F
100
AcDbEntity
  8
0
100
AcDbLine
 62
2
  6
CONTINUOUS
 10
12.4008351814
 20
2.5375433389
 11
12.3907841758
 21
2.5410923409
  0
LINE
  5
230
100
AcDbEntity
  8
0
100
AcDbLine
 62
2
  6
CONTINUOUS
 10
12.3907841758
 20
2.5410923409
 11
12.3990241804
 21
2.5458683435
  0
ARC
  5
231
100
AcDbEntity
  8
0
100
AcDbCircle
 62
2
  6
CONTINUOUS
 10
12.3771587979
 20
2.5826952352
 40
0.0428289026
100
AcDbArc
 50
300.6990502959
 51
319.0591802498
  0
ARC
  5
232
100
AcDbEntity
  8
0
100
AcDbCircle
 62
2
  6
CONTINUOUS
 10
12.3971873948
 20
2.5665668817
 40
0.0171568255
100
AcDbArc
 50
315.9145124245
 51
16.0049121282
  0
ARC
  5
233
100
AcDbEntity
  8
0
100
AcDbCircle
 62
2
  6
CONTINUOUS
 10
12.3922357827
 20
2.5632132173
 40
0.0229166529
100
AcDbArc
 50
20.6563876465
 51
62.3316896973
  0
ARC
  5
234
100
AcDbEntity
  8
0
100
AcDbCircle
 62
2
  6
CONTINUOUS
 10
12.371573659
 20
2.5302846524
 40
0.061747717
100
AcDbArc
 50
59.5385584989
 51
90.0050977555
  0
LINE
  5
235
100
AcDbEntity
  8
0
100
AcDbLine
 62
2
  6
CONTINUOUS
 10
12.3715681652
 20
2.5920323691
 11
12.2055050731
 21
2.5920323691
  0
ARC
  5
236
100
AcDbEntity
  8
0
100
AcDbCircle
 62
2
  6
CONTINUOUS
 10
12.2055050712
 20
2.5895573696
 40
0.0024749995
100
AcDbArc
 50
89.9999571957
 51
180.0000428043
  0
LINE
  5
237
100
AcDbEntity
  8
0
100
AcDbLine
 62
2
  6
CONTINUOUS
 10
12.2030300717
 20
2.5895573678
 11
12.2030300717
 21
2.5697573568
  0
ARC
  5
238
100
AcDbEntity
  8
0
100
AcDbCircle
 62
2
  6
CONTINUOUS
 10
12.2055050712
 20
2.5697573549
 40
0.0024749995
100
AcDbArc
 50
179.9999571957
 51
270.0000428043
  0
LINE
  5
239
100
AcDbEntity
  8
0
100
AcDbLine
 62
2
  6
CONTINUOUS
 10
12.2055050731
 20
2.5672823554
 11
12.2294470864
 21
2.5672823554
  0
ARC
  5
23A
100
AcDbEntity
  8
0
100
AcDbCircle
 62
2
  6
CONTINUOUS
 10
12.2294470882
 20
2.5648073559
 40
0.0024749995
100
AcDbArc
 50
359.9999571957
 51
90.0000428043
  0
LINE
  5
23B
100
AcDbEntity
  8
0
100
AcDbLine
 62
2
  6
CONTINUOUS
 10
12.2319220877
 20
2.564807354
 11
12.2319220877
 21
2.5184523283
  0
ARC
  5
23C
100
AcDbEntity
  8
0
100
AcDbCircle
 62
2
  6
CONTINUOUS
 10
12.2294470882
 20
2.5184523265
 40
0.0024749995
100
AcDbArc
 50
269.9999571957
 51
0.0000428043
  0
LINE
  5
23D
100
AcDbEntity
  8
0
100
AcDbLine
 62
2
  6
CONTINUOUS
 10
12.2294470864
 20
2.515977327
 11
12.2055050731
 21
2.515977327
  0
ARC
  5
23E
100
AcDbEntity
  8
0
100
AcDbCircle
 62
2
  6
CONTINUOUS
 10
12.2055050712
 20
2.5135023274
 40
0.0024749995
100
AcDbArc
 50
89.9999571957
 51
180.0000428043
  0
LINE
  5
23F
100
AcDbEntity
  8
0
100
AcDbLine
 62
2
  6
CONTINUOUS
 10
12.2030300717
 20
2.5135023256
 11
12.2030300717
 21
2.4937023146
  0
ARC
  5
240
100
AcDbEntity
  8
0
100
AcDbCircle
 62
2
  6
CONTINUOUS
 10
12.2055050712
 20
2.4937023128
 40
0.0024749995
100
AcDbArc
 50
179.9999571957
 51
270.0000428043
  0
LINE
  5
241
100
AcDbEntity
  8
0
100
AcDbLine
 62
2
  6
CONTINUOUS
 10
12.2055050731
 20
2.4912273132
 11
12.3819511709
 21
2.4912273132
  0
ARC
  5
242
100
AcDbEntity
  8
0
100
AcDbCircle
 62
2
  6
CONTINUOUS
 10
12.3792298263
 20
2.539634765
 40
0.048483885
100
AcDbArc
 50
273.21763719
 51
303.0749121182
  0
ARC
  5
243
100
AcDbEntity
  8
0
100
AcDbCircle
 62
2
  6
CONTINUOUS
 10
12.3940692204
 20
2.5168671561
 40
0.0213072145
100
AcDbArc
 50
303.0488228549
 51
355.7263138674
  0
LINE
  5
244
100
AcDbEntity
  8
0
100
AcDbLine
 62
2
  6
CONTINUOUS
 10
12.2949101227
 20
2.5499573458
 11
12.3362731456
 21
2.5499573458
  0
ARC
  5
245
100
AcDbEntity
  8
0
100
AcDbCircle
 62
2
  6
CONTINUOUS
 10
12.3362731456
 20
2.5586198506
 40
0.0086625048
100
AcDbArc
 50
270.0
 51
90.0
  0
LINE
  5
246
100
AcDbEntity
  8
0
100
AcDbLine
 62
2
  6
CONTINUOUS
 10
12.3362731456
 20
2.5672823554
 11
12.2949101227
 21
2.5672823554
  0
ARC
  5
247
100
AcDbEntity
  8
0
100
AcDbCircle
 62
2
  6
CONTINUOUS
 10
12.2949101208
 20
2.5648073559
 40
0.0024749995
100
AcDbArc
 50
89.9999571957
 51
180.0000428043
  0
LINE
  5
248
100
AcDbEntity
  8
0
100
AcDbLine
 62
2
  6
CONTINUOUS
 10
12.2924351213
 20
2.564807354
 11
12.2924351213
 21
2.5524323472
  0
ARC
  5
249
100
AcDbEntity
  8
0
100
AcDbCircle
 62
2
  6
CONTINUOUS
 10
12.2949101208
 20
2.5524323453
 40
0.0024749995
100
AcDbArc
 50
179.9999571957
 51
270.0000428043
  0
LINE
  5
24A
100
AcDbEntity
  8
0
100
AcDbLine
 62
2
  6
CONTINUOUS
 10
12.2924351213
 20
2.5184523283
 11
12.2924351213
 21
2.5308273352
  0
ARC
  5
24B
100
AcDbEntity
  8
0
100
AcDbCircle
 62
2
  6
CONTINUOUS
 10
12.2949101208
 20
2.530827337
 40
0.0024749995
100
AcDbArc
 50
89.9999571957
 51
180.0000428043
  0
LINE
  5
24C
100
AcDbEntity
  8
0
100
AcDbLine
 62
2
  6
CONTINUOUS
 10
12.2949101227
 20
2.5333023366
 11
12.3362731456
 21
2.5333023366
  0
ARC
  5
24D
100
AcDbEntity
  8
0
100
AcDbCircle
 62
2
  6
CONTINUOUS
 10
12.3362731456
 20
2.5246398318
 40
0.0086625048
100
AcDbArc
 50
270.0
 51
90.0
  0
LINE
  5
24E
100
AcDbEntity
  8
0
100
AcDbLine
 62
2
  6
CONTINUOUS
 10
12.3362731456
 20
2.515977327
 11
12.2949101227
 21
2.515977327
  0
ARC
  5
24F
100
AcDbEntity
  8
0
100
AcDbCircle
 62
2
  6
CONTINUOUS
 10
12.2949101208
 20
2.5184523265
 40
0.0024749995
100
AcDbArc
 50
179.9999571957
 51
270.0000428043
  0
ARC
  5
250
100
AcDbEntity
  8
0
100
AcDbCircle
 62
2
  6
CONTINUOUS
 10
13.5806801742
 20
2.5212486481
 40
0.044722495
100
AcDbArc
 50
195.531588407
 51
204.7624440448
  0
LINE
  5
251
100
AcDbEntity
  8
0
100
AcDbLine
 62
2
  6
CONTINUOUS
 10
13.5375908118
 20
2.5092733232
 11
13.5357868108
 21
2.5153423266
  0
ARC
  5
252
100
AcDbEntity
  8
0
100
AcDbCircle
 62
2
  6
CONTINUOUS
 10
13.4974076135
 20
2.5055452462
 40
0.0396099176
100
AcDbArc
 50
14.3201081283
 51
22.4984722084
  0
ARC
  5
253
100
AcDbEntity
  8
0
100
AcDbCircle
 62
2
  6
CONTINUOUS
 10
13.5201739219
 20
2.5145168728
 40
0.0151491919
100
AcDbArc
 50
24.098260853
 51
63.0369451818
  0
ARC
  5
254
100
AcDbEntity
  8
0
100
AcDbCircle
 62
2
  6
CONTINUOUS
 10
13.5161192671
 20
2.5062372524
 40
0.0243676582
100
AcDbArc
 50
63.3666028271
 51
90.3937697637
  0
LINE
  5
255
100
AcDbEntity
  8
0
100
AcDbLine
 62
2
  6
CONTINUOUS
 10
13.5159517998
 20
2.5306043351
 11
13.4883447845
 21
2.5306043351
  0
ARC
  5
256
100
AcDbEntity
  8
0
100
AcDbCircle
 62
2
  6
CONTINUOUS
 10
13.4883447827
 20
2.5281293355
 40
0.0024749995
100
AcDbArc
 50
89.9999571957
 51
180.0000428043
  0
LINE
  5
257
100
AcDbEntity
  8
0
100
AcDbLine
 62
2
  6
CONTINUOUS
 10
13.4858697831
 20
2.5281293337
 11
13.4858697831
 21
2.5184303283
  0
ARC
  5
258
100
AcDbEntity
  8
0
100
AcDbCircle
 62
2
  6
CONTINUOUS
 10
13.4883447827
 20
2.5184303265
 40
0.0024749995
100
AcDbArc
 50
179.9999571957
 51
270.0000428043
  0
LINE
  5
259
100
AcDbEntity
  8
0
100
AcDbLine
 62
2
  6
CONTINUOUS
 10
13.4883447845
 20
2.5159553269
 11
13.5130037982
 21
2.5159553269
  0
ARC
  5
25A
100
AcDbEntity
  8
0
100
AcDbCircle
 62
2
  6
CONTINUOUS
 10
13.5130038
 20
2.5134803274
 40
0.0024749995
100
AcDbArc
 50
359.9999571957
 51
90.0000428043
  0
LINE
  5
25B
100
AcDbEntity
  8
0
100
AcDbLine
 62
2
  6
CONTINUOUS
 10
13.5154787995
 20
2.5134803256
 11
13.5154787995
 21
2.4937023146
  0
ARC
  5
25C
100
AcDbEntity
  8
0
100
AcDbCircle
 62
2
  6
CONTINUOUS
 10
13.5130038
 20
2.4937023128
 40
0.0024749995
100
AcDbArc
 50
269.9999571957
 51
0.0000428043
  0
LINE
  5
25D
100
AcDbEntity
  8
0
100
AcDbLine
 62
2
  6
CONTINUOUS
 10
13.5130037982
 20
2.4912273132
 11
13.3994327352
 21
2.4912273132
  0
ARC
  5
25E
100
AcDbEntity
  8
0
100
AcDbCircle
 62
2
  6
CONTINUOUS
 10
13.3994327333
 20
2.4937023128
 40
0.0024749995
100
AcDbArc
 50
179.9999571957
 51
270.0000428043
  0
LINE
  5
25F
100
AcDbEntity
  8
0
100
AcDbLine
 62
2
  6
CONTINUOUS
 10
13.3969577338
 20
2.4937023146
 11
13.3969577338
 21
2.5135023256
  0
ARC
  5
260
100
AcDbEntity
  8
0
100
AcDbCircle
 62
2
  6
CONTINUOUS
 10
13.3994327333
 20
2.5135023274
 40
0.0024749995
100
AcDbArc
 50
89.9999571957
 51
180.0000428043
  0
LINE
  5
261
100
AcDbEntity
  8
0
100
AcDbLine
 62
2
  6
CONTINUOUS
 10
13.3994327352
 20
2.515977327
 11
13.4221787478
 21
2.515977327
  0
ARC
  5
262
100
AcDbEntity
  8
0
100
AcDbCircle
 62
2
  6
CONTINUOUS
 10
13.4221787497
 20
2.5184523265
 40
0.0024749995
100
AcDbArc
 50
269.9999571957
 51
0.0000428042
  0
LINE
  5
263
100
AcDbEntity
  8
0
100
AcDbLine
 62
2
  6
CONTINUOUS
 10
13.4246537492
 20
2.5184523283
 11
13.4246537492
 21
2.564807354
  0
ARC
  5
264
100
AcDbEntity
  8
0
100
AcDbCircle
 62
2
  6
CONTINUOUS
 10
13.4221787497
 20
2.5648073559
 40
0.0024749995
100
AcDbArc
 50
359.9999571957
 51
90.0000428043
  0
LINE
  5
265
100
AcDbEntity
  8
0
100
AcDbLine
 62
2
  6
CONTINUOUS
 10
13.4221787478
 20
2.5672823554
 11
13.3994327352
 21
2.5672823554
  0
ARC
  5
266
100
AcDbEntity
  8
0
100
AcDbCircle
 62
2
  6
CONTINUOUS
 10
13.3994327333
 20
2.5697573549
 40
0.0024749995
100
AcDbArc
 50
179.9999571957
 51
270.0000428043
  0
LINE
  5
267
100
AcDbEntity
  8
0
100
AcDbLine
 62
2
  6
CONTINUOUS
 10
13.3969577338
 20
2.5697573568
 11
13.3969577338
 21
2.5895573678
  0
ARC
  5
268
100
AcDbEntity
  8
0
100
AcDbCircle
 62
2
  6
CONTINUOUS
 10
13.3994327333
 20
2.5895573696
 40
0.0024749995
100
AcDbArc
 50
89.9999571957
 51
180.0000428043
  0
LINE
  5
269
100
AcDbEntity
  8
0
100
AcDbLine
 62
2
  6
CONTINUOUS
 10
13.3994327352
 20
2.5920323691
 11
13.5490138181
 21
2.5920323691
  0
ARC
  5
26A
100
AcDbEntity
  8
0
100
AcDbCircle
 62
2
  6
CONTINUOUS
 10
13.5463505148
 20
2.4094934586
 40
0.1825583387
100
AcDbArc
 50
79.8618509324
 51
89.1640948679
  0
ARC
  5
26B
100
AcDbEntity
  8
0
100
AcDbCircle
 62
2
  6
CONTINUOUS
 10
13.5726548052
 20
2.5503169747
 40
0.039319019
100
AcDbArc
 50
59.1202086415
 51
81.4730239328
  0
ARC
  5
26C
100
AcDbEntity
  8
0
100
AcDbCircle
 62
2
  6
CONTINUOUS
 10
13.5783142014
 20
2.5566516438
 40
0.0310192946
100
AcDbArc
 50
34.7540871
 51
62.0879016178
  0
ARC
  5
26D
100
AcDbEntity
  8
0
100
AcDbCircle
 62
2
  6
CONTINUOUS
 10
13.5900029525
 20
2.565201245
 40
0.0165459396
100
AcDbArc
 50
1.548452892
 51
33.5033152417
  0
ARC
  5
26E
100
AcDbEntity
  8
0
100
AcDbCircle
 62
2
  6
CONTINUOUS
 10
13.5932995477
 20
2.5653696972
 40
0.0132462337
100
AcDbArc
 50
331.1510006998
 51
1.205404301
  0
ARC
  5
26F
100
AcDbEntity
  8
0
100
AcDbCircle
 62
2
  6
CONTINUOUS
 10
13.5822888914
 20
2.5720482849
 40
0.0261183659
100
AcDbArc
 50
305.6373831893
 51
329.9727629745
  0
ARC
  5
270
100
AcDbEntity
  8
0
100
AcDbCircle
 62
2
  6
CONTINUOUS
 10
13.5519569538
 20
2.6152551345
 40
0.0789082104
100
AcDbArc
 50
292.906155071
 51
305.2574666259
  0
ARC
  5
271
100
AcDbEntity
  8
0
100
AcDbCircle
 62
2
  6
CONTINUOUS
 10
13.5282557878
 20
2.4386010294
 40
0.117346916
100
AcDbArc
 50
58.614769177
 51
62.3737227606
  0
ARC
  5
272
100
AcDbEntity
  8
0
100
AcDbCircle
 62
2
  6
CONTINUOUS
 10
13.5761387404
 20
2.5167282896
 40
0.0257145923
100
AcDbArc
 50
39.3804255939
 51
59.0361096173
  0
ARC
  5
273
100
AcDbEntity
  8
0
100
AcDbCircle
 62
2
  6
CONTINUOUS
 10
13.5750183849
 20
2.5166552064
 40
0.0266349791
100
AcDbArc
 50
20.3630922153
 51
37.9727053099
  0
ARC
  5
274
100
AcDbEntity
  8
0
100
AcDbCircle
 62
2
  6
CONTINUOUS
 10
13.5571178432
 20
2.509473798
 40
0.0459185159
100
AcDbArc
 50
15.6740290068
 51
20.9917271228
  0
ARC
  5
275
100
AcDbEntity
  8
0
100
AcDbCircle
 62
2
  6
CONTINUOUS
 10
13.6156881783
 20
2.525116781
 40
0.0147197649
100
AcDbArc
 50
192.7054516565
 51
206.0594861022
  0
ARC
  5
276
100
AcDbEntity
  8
0
100
AcDbCircle
 62
2
  6
CONTINUOUS
 10
13.6071938412
 20
2.5209082945
 40
0.0052403997
100
AcDbArc
 50
205.5232099488
 51
227.5054868079
  0
ARC
  5
277
100
AcDbEntity
  8
0
100
AcDbCircle
 62
2
  6
CONTINUOUS
 10
13.6054655419
 20
2.5190929218
 40
0.0027347709
100
AcDbArc
 50
228.5117626737
 51
266.1485845754
  0
LINE
  5
278
100
AcDbEntity
  8
0
100
AcDbLine
 62
2
  6
CONTINUOUS
 10
13.6052818493
 20
2.5163643272
 11
13.60639085
 21
2.5163643272
  0
ARC
  5
279
100
AcDbEntity
  8
0
100
AcDbCircle
 62
2
  6
CONTINUOUS
 10
13.6063292954
 20
2.5296129864
 40
0.0132488022
100
AcDbArc
 50
270.266200055
 51
281.2404888597
  0
ARC
  5
27A
100
AcDbEntity
  8
0
100
AcDbCircle
 62
2
  6
CONTINUOUS
 10
13.6075235364
 20
2.5238762928
 40
0.0073895522
100
AcDbArc
 50
280.8288201977
 51
305.0837508495
  0
ARC
  5
27B
100
AcDbEntity
  8
0
100
AcDbCircle
 62
2
  6
CONTINUOUS
 10
13.607924718
 20
2.5230254464
 40
0.0064647042
100
AcDbArc
 50
306.5086174083
 51
340.2162360092
  0
ARC
  5
27C
100
AcDbEntity
  8
0
100
AcDbCircle
 62
2
  6
CONTINUOUS
 10
13.6027235414
 20
2.524769508
 40
0.0119498009
100
AcDbArc
 50
340.7883861657
 51
1.1691452593
  0
LINE
  5
27D
100
AcDbEntity
  8
0
100
AcDbLine
 62
2
  6
CONTINUOUS
 10
13.6146708546
 20
2.525013332
 11
13.6146708546
 21
2.5276393334
  0
ARC
  5
27E
100
AcDbEntity
  8
0
100
AcDbCircle
 62
2
  6
CONTINUOUS
 10
13.6171458541
 20
2.5276393353
 40
0.0024749995
100
AcDbArc
 50
89.9999571957
 51
180.0000428043
  0
LINE
  5
27F
100
AcDbEntity
  8
0
100
AcDbLine
 62
2
  6
CONTINUOUS
 10
13.6171458559
 20
2.5301143348
 11
13.6292558626
 21
2.5301143348
  0
ARC
  5
280
100
AcDbEntity
  8
0
100
AcDbCircle
 62
2
  6
CONTINUOUS
 10
13.6292558645
 20
2.5276393353
 40
0.0024749995
100
AcDbArc
 50
359.9999571957
 51
90.0000428043
  0
LINE
  5
281
100
AcDbEntity
  8
0
100
AcDbLine
 62
2
  6
CONTINUOUS
 10
13.631730864
 20
2.5276393334
 11
13.631730864
 21
2.516087327
  0
ARC
  5
282
100
AcDbEntity
  8
0
100
AcDbCircle
 62
2
  6
CONTINUOUS
 10
13.6141751675
 20
2.5161916447
 40
0.0175560065
100
AcDbArc
 50
332.2279060967
 51
359.6595469939
  0
ARC
  5
283
100
AcDbEntity
  8
0
100
AcDbCircle
 62
2
  6
CONTINUOUS
 10
13.6048681567
 20
2.5210861501
 40
0.0280715479
100
AcDbArc
 50
308.5071794988
 51
332.2400656899
  0
ARC
  5
284
100
AcDbEntity
  8
0
100
AcDbCircle
 62
2
  6
CONTINUOUS
 10
13.5978759713
 20
2.5286873679
 40
0.0383802683
100
AcDbArc
 50
288.7656836787
 51
309.6104317088
  0
ARC
  5
285
100
AcDbEntity
  8
0
100
AcDbCircle
 62
2
  6
CONTINUOUS
 10
13.6036139387
 20
2.5111006186
 40
0.0198837666
100
AcDbArc
 50
271.8586572978
 51
289.4131338543
  0
LINE
  5
286
100
AcDbEntity
  8
0
100
AcDbLine
 62
2
  6
CONTINUOUS
 10
13.6042588488
 20
2.4912273132
 11
13.5568948225
 21
2.4912273132
  0
ARC
  5
287
100
AcDbEntity
  8
0
100
AcDbCircle
 62
2
  6
CONTINUOUS
 10
13.5577001432
 20
2.5085494649
 40
0.0173408616
100
AcDbArc
 50
232.4713476722
 51
267.338189944
  0
ARC
  5
288
100
AcDbEntity
  8
0
100
AcDbCircle
 62
2
  6
CONTINUOUS
 10
13.5607987082
 20
2.5143997688
 40
0.0238935861
100
AcDbArc
 50
209.8247607259
 51
235.1255079367
  0
ARC
  5
289
100
AcDbEntity
  8
0
100
AcDbCircle
 62
2
  6
CONTINUOUS
 10
13.5295131508
 20
2.5629115009
 40
0.0110815393
100
AcDbArc
 50
306.758405961
 51
320.4502234234
  0
ARC
  5
28A
100
AcDbEntity
  8
0
100
AcDbCircle
 62
2
  6
CONTINUOUS
 10
13.5238839599
 20
2.5706523294
 40
0.0206523367
100
AcDbArc
 50
289.6883413472
 51
306.4184925496
  0
ARC
  5
28B
100
AcDbEntity
  8
0
100
AcDbCircle
 62
2
  6
CONTINUOUS
 10
13.5219564542
 20
2.5750459767
 40
0.0254407115
100
AcDbArc
 50
270.7327484175
 51
290.441894219
  0
LINE
  5
28C
100
AcDbEntity
  8
0
100
AcDbLine
 62
2
  6
CONTINUOUS
 10
13.5222818033
 20
2.5496073456
 11
13.4883447845
 21
2.5496073456
  0
ARC
  5
28D
100
AcDbEntity
  8
0
100
AcDbCircle
 62
2
  6
CONTINUOUS
 10
13.4883447827
 20
2.5520823451
 40
0.0024749995
100
AcDbArc
 50
179.9999571957
 51
270.0000428043
  0
LINE
  5
28E
100
AcDbEntity
  8
0
100
AcDbLine
 62
2
  6
CONTINUOUS
 10
13.4858697831
 20
2.552082347
 11
13.4858697831
 21
2.564807354
  0
ARC
  5
28F
100
AcDbEntity
  8
0
100
AcDbCircle
 62
2
  6
CONTINUOUS
 10
13.4883447827
 20
2.5648073559
 40
0.0024749995
100
AcDbArc
 50
89.9999571957
 51
180.0000428043
  0
LINE
  5
290
100
AcDbEntity
  8
0
100
AcDbLine
 62
2
  6
CONTINUOUS
 10
13.4883447845
 20
2.5672823554
 11
13.5251458049
 21
2.5672823554
  0
ARC
  5
291
100
AcDbEntity
  8
0
100
AcDbCircle
 62
2
  6
CONTINUOUS
 10
13.5236009174
 20
2.5388278764
 40
0.0284963867
100
AcDbArc
 50
70.3834917948
 51
86.8922743861
  0
ARC
  5
292
100
AcDbEntity
  8
0
100
AcDbCircle
 62
2
  6
CONTINUOUS
 10
13.5284605274
 20
2.5518696094
 40
0.0145814632
100
AcDbArc
 50
54.6746025112
 51
71.1660573124
  0
ARC
  5
293
100
AcDbEntity
  8
0
100
AcDbCircle
 62
2
  6
CONTINUOUS
 10
13.5335900184
 20
2.5587235346
 40
0.0060275915
100
AcDbArc
 50
20.9055592135
 51
56.7851676243
  0
ARC
  5
294
100
AcDbEntity
  8
0
100
AcDbCircle
 62
2
  6
CONTINUOUS
 10
13.5348905773
 20
2.5593838168
 40
0.0045795888
100
AcDbArc
 50
355.6235353944
 51
18.9942678268
  0
ARC
  5
295
100
AcDbEntity
  8
0
100
AcDbCircle
 62
2
  6
CONTINUOUS
 10
13.533683767
 20
2.559677593
 40
0.0058087709
100
AcDbArc
 50
318.8515287446
 51
353.6422345323
  0
LINE
  5
296
100
AcDbEntity
  8
0
100
AcDbLine
 62
2
  6
CONTINUOUS
 10
12.672340332
 20
2.5920323691
 11
12.7727983877
 21
2.5920323691
  0
ARC
  5
297
100
AcDbEntity
  8
0
100
AcDbCircle
 62
2
  6
CONTINUOUS
 10
12.7727985224
 20
2.5895582013
 40
0.0024741678
100
AcDbArc
 50
46.3477981899
 51
90.0031206038
  0
LINE
  5
298
100
AcDbEntity
  8
0
100
AcDbLine
 62
2
  6
CONTINUOUS
 10
12.7745063886
 20
2.5913483688
 11
12.8345394219
 21
2.534068337
  0
ARC
  5
299
100
AcDbEntity
  8
0
100
AcDbCircle
 62
2
  6
CONTINUOUS
 10
12.8362481229
 20
2.5358592748
 40
0.0024753014
100
AcDbArc
 50
226.3461263059
 51
0.0014637321
  0
LINE
  5
29A
100
AcDbEntity
  8
0
100
AcDbLine
 62
2
  6
CONTINUOUS
 10
12.8387234242
 20
2.535859338
 11
12.8387234242
 21
2.564807354
  0
ARC
  5
29B
100
AcDbEntity
  8
0
100
AcDbCircle
 62
2
  6
CONTINUOUS
 10
12.8362484247
 20
2.5648073559
 40
0.0024749995
100
AcDbArc
 50
359.9999571957
 51
90.0000428043
  0
LINE
  5
29C
100
AcDbEntity
  8
0
100
AcDbLine
 62
2
  6
CONTINUOUS
 10
12.8362484229
 20
2.5672823554
 11
12.8174724125
 21
2.5672823554
  0
ARC
  5
29D
100
AcDbEntity
  8
0
100
AcDbCircle
 62
2
  6
CONTINUOUS
 10
12.8174724106
 20
2.5697573549
 40
0.0024749995
100
AcDbArc
 50
179.9999571957
 51
270.0000428043
  0
LINE
  5
29E
100
AcDbEntity
  8
0
100
AcDbLine
 62
2
  6
CONTINUOUS
 10
12.8149974111
 20
2.5697573568
 11
12.8149974111
 21
2.5895573678
  0
ARC
  5
29F
100
AcDbEntity
  8
0
100
AcDbCircle
 62
2
  6
CONTINUOUS
 10
12.8174724106
 20
2.5895573696
 40
0.0024749995
100
AcDbArc
 50
89.9999571957
 51
180.0000428043
  0
LINE
  5
2A0
100
AcDbEntity
  8
0
100
AcDbLine
 62
2
  6
CONTINUOUS
 10
12.8174724125
 20
2.5920323691
 11
12.8914734535
 21
2.5920323691
  0
ARC
  5
2A1
100
AcDbEntity
  8
0
100
AcDbCircle
 62
2
  6
CONTINUOUS
 10
12.8914734553
 20
2.5895573696
 40
0.0024749995
100
AcDbArc
 50
359.9999571957
 51
90.0000428043
  0
LINE
  5
2A2
100
AcDbEntity
  8
0
100
AcDbLine
 62
2
  6
CONTINUOUS
 10
12.8939484549
 20
2.5895573678
 11
12.8939484549
 21
2.5697573568
  0
ARC
  5
2A3
100
AcDbEntity
  8
0
100
AcDbCircle
 62
2
  6
CONTINUOUS
 10
12.8914734553
 20
2.5697573549
 40
0.0024749995
100
AcDbArc
 50
269.9999571957
 51
0.0000428043
  0
LINE
  5
2A4
100
AcDbEntity
  8
0
100
AcDbLine
 62
2
  6
CONTINUOUS
 10
12.8914734535
 20
2.5672823554
 11
12.8735404436
 21
2.5672823554
  0
ARC
  5
2A5
100
AcDbEntity
  8
0
100
AcDbCircle
 62
2
  6
CONTINUOUS
 10
12.8735404417
 20
2.5648073559
 40
0.0024749995
100
AcDbArc
 50
89.9999571957
 51
180.0000428043
  0
LINE
  5
2A6
100
AcDbEntity
  8
0
100
AcDbLine
 62
2
  6
CONTINUOUS
 10
12.8710654422
 20
2.564807354
 11
12.8710654422
 21
2.4937023146
  0
ARC
  5
2A7
100
AcDbEntity
  8
0
100
AcDbCircle
 62
2
  6
CONTINUOUS
 10
12.8685904427
 20
2.4937023128
 40
0.0024749995
100
AcDbArc
 50
269.9999571957
 51
0.0000428043
  0
LINE
  5
2A8
100
AcDbEntity
  8
0
100
AcDbLine
 62
2
  6
CONTINUOUS
 10
12.8685904408
 20
2.4912273132
 11
12.7943853997
 21
2.4912273132
  0
ARC
  5
2A9
100
AcDbEntity
  8
0
100
AcDbCircle
 62
2
  6
CONTINUOUS
 10
12.7943847649
 20
2.4937027294
 40
0.0024754162
100
AcDbArc
 50
226.3593695813
 51
270.0146919953
  0
LINE
  5
2AA
100
AcDbEntity
  8
0
100
AcDbLine
 62
2
  6
CONTINUOUS
 10
12.7926763987
 20
2.4919113136
 11
12.7293963636
 21
2.5522893471
  0
ARC
  5
2AB
100
AcDbEntity
  8
0
100
AcDbCircle
 62
2
  6
CONTINUOUS
 10
12.7276876627
 20
2.5504984093
 40
0.0024753014
100
AcDbArc
 50
46.3461263059
 51
180.0014637321
  0
LINE
  5
2AC
100
AcDbEntity
  8
0
100
AcDbLine
 62
2
  6
CONTINUOUS
 10
12.7252123613
 20
2.5504983461
 11
12.7252123613
 21
2.5184523283
  0
ARC
  5
2AD
100
AcDbEntity
  8
0
100
AcDbCircle
 62
2
  6
CONTINUOUS
 10
12.7276873608
 20
2.5184523265
 40
0.0024749995
100
AcDbArc
 50
179.9999571957
 51
270.0000428043
  0
LINE
  5
2AE
100
AcDbEntity
  8
0
100
AcDbLine
 62
2
  6
CONTINUOUS
 10
12.7276873627
 20
2.515977327
 11
12.7480043739
 21
2.515977327
  0
ARC
  5
2AF
100
AcDbEntity
  8
0
100
AcDbCircle
 62
2
  6
CONTINUOUS
 10
12.7480043758
 20
2.5135023274
 40
0.0024749995
100
AcDbArc
 50
359.9999571957
 51
90.0000428043
  0
LINE
  5
2B0
100
AcDbEntity
  8
0
100
AcDbLine
 62
2
  6
CONTINUOUS
 10
12.7504793753
 20
2.5135023256
 11
12.7504793753
 21
2.4937023146
  0
ARC
  5
2B1
100
AcDbEntity
  8
0
100
AcDbCircle
 62
2
  6
CONTINUOUS
 10
12.7480043758
 20
2.4937023128
 40
0.0024749995
100
AcDbArc
 50
269.9999571957
 51
0.0000428043
  0
LINE
  5
2B2
100
AcDbEntity
  8
0
100
AcDbLine
 62
2
  6
CONTINUOUS
 10
12.7480043739
 20
2.4912273132
 11
12.672340332
 21
2.4912273132
  0
ARC
  5
2B3
100
AcDbEntity
  8
0
100
AcDbCircle
 62
2
  6
CONTINUOUS
 10
12.6723403301
 20
2.4937023128
 40
0.0024749995
100
AcDbArc
 50
179.9999571957
 51
270.0000428043
  0
LINE
  5
2B4
100
AcDbEntity
  8
0
100
AcDbLine
 62
2
  6
CONTINUOUS
 10
12.6698653306
 20
2.4937023146
 11
12.6698653306
 21
2.5135023256
  0
ARC
  5
2B5
100
AcDbEntity
  8
0
100
AcDbCircle
 62
2
  6
CONTINUOUS
 10
12.6723403301
 20
2.5135023274
 40
0.0024749995
100
AcDbArc
 50
89.9999571957
 51
180.0000428043
  0
LINE
  5
2B6
100
AcDbEntity
  8
0
100
AcDbLine
 62
2
  6
CONTINUOUS
 10
12.672340332
 20
2.515977327
 11
12.6909873423
 21
2.515977327
  0
ARC
  5
2B7
100
AcDbEntity
  8
0
100
AcDbCircle
 62
2
  6
CONTINUOUS
 10
12.6909873442
 20
2.5184523265
 40
0.0024749995
100
AcDbArc
 50
269.9999571957
 51
0.0000428043
  0
LINE
  5
2B8
100
AcDbEntity
  8
0
100
AcDbLine
 62
2
  6
CONTINUOUS
 10
12.6934623437
 20
2.5184523283
 11
12.6934623437
 21
2.564807354
  0
ARC
  5
2B9
100
AcDbEntity
  8
0
100
AcDbCircle
 62
2
  6
CONTINUOUS
 10
12.6909873442
 20
2.5648073559
 40
0.0024749995
100
AcDbArc
 50
359.9999571957
 51
90.0000428043
  0
LINE
  5
2BA
100
AcDbEntity
  8
0
100
AcDbLine
 62
2
  6
CONTINUOUS
 10
12.6909873423
 20
2.5672823554
 11
12.672340332
 21
2.5672823554
  0
ARC
  5
2BB
100
AcDbEntity
  8
0
100
AcDbCircle
 62
2
  6
CONTINUOUS
 10
12.6723403301
 20
2.5697573549
 40
0.0024749995
100
AcDbArc
 50
179.9999571957
 51
270.0000428043
  0
LINE
  5
2BC
100
AcDbEntity
  8
0
100
AcDbLine
 62
2
  6
CONTINUOUS
 10
12.6698653306
 20
2.5697573568
 11
12.6698653306
 21
2.5895573678
  0
ARC
  5
2BD
100
AcDbEntity
  8
0
100
AcDbCircle
 62
2
  6
CONTINUOUS
 10
12.6723403301
 20
2.5895573696
 40
0.0024749995
100
AcDbArc
 50
89.9999571957
 51
180.0000428043
  0
LINE
  5
2BE
100
AcDbEntity
  8
0
100
AcDbLine
 62
2
  6
CONTINUOUS
 10
12.5246402501
 20
2.5655893545
 11
12.5175232461
 21
2.5543723483
  0
ARC
  5
2BF
100
AcDbEntity
  8
0
100
AcDbCircle
 62
2
  6
CONTINUOUS
 10
12.519613138
 20
2.5530463862
 40
0.0024750401
100
AcDbArc
 50
147.6063258012
 51
270.0025305754
  0
LINE
  5
2C0
100
AcDbEntity
  8
0
100
AcDbLine
 62
2
  6
CONTINUOUS
 10
12.5196132473
 20
2.5505713461
 11
12.5401702587
 21
2.5505713461
  0
ARC
  5
2C1
100
AcDbEntity
  8
0
100
AcDbCircle
 62
2
  6
CONTINUOUS
 10
12.5401702375
 20
2.5530465533
 40
0.0024752071
100
AcDbArc
 50
270.0004896793
 51
32.9089806818
  0
LINE
  5
2C2
100
AcDbEntity
  8
0
100
AcDbLine
 62
2
  6
CONTINUOUS
 10
12.5422482598
 20
2.5543913483
 11
12.5349892558
 21
2.5656073545
  0
ARC
  5
2C3
100
AcDbEntity
  8
0
100
AcDbCircle
 62
2
  6
CONTINUOUS
 10
12.532910715
 20
2.564262895
 40
0.0024754602
100
AcDbArc
 50
32.8959418573
 51
89.9875097202
  0
LINE
  5
2C4
100
AcDbEntity
  8
0
100
AcDbLine
 62
2
  6
CONTINUOUS
 10
12.5329112547
 20
2.5667383551
 11
12.5267302512
 21
2.5667383551
  0
ARC
  5
2C5
100
AcDbEntity
  8
0
100
AcDbCircle
 62
2
  6
CONTINUOUS
 10
12.5267301809
 20
2.5642631548
 40
0.0024752003
100
AcDbArc
 50
89.998372645
 51
147.602165307
  0
LINE
  5
2C6
100
AcDbEntity
  8
0
100
AcDbLine
 62
2
  6
CONTINUOUS
 10
12.548053263
 20
2.5284903339
 11
12.5536792662
 21
2.5197973291
  0
ARC
  5
2C7
100
AcDbEntity
  8
0
100
AcDbCircle
 62
2
  6
CONTINUOUS
 10
12.5516012439
 20
2.5184525341
 40
0.0024752071
100
AcDbArc
 50
270.0004896794
 51
32.9089806818
  0
LINE
  5
2C8
100
AcDbEntity
  8
0
100
AcDbLine
 62
2
  6
CONTINUOUS
 10
12.551601265
 20
2.515977327
 11
12.537150257
 21
2.515977327
  0
ARC
  5
2C9
100
AcDbEntity
  8
0
100
AcDbCircle
 62
2
  6
CONTINUOUS
 10
12.5371502552
 20
2.5135023274
 40
0.0024749995
100
AcDbArc
 50
89.9999571957
 51
180.0000428043
  0
LINE
  5
2CA
100
AcDbEntity
  8
0
100
AcDbLine
 62
2
  6
CONTINUOUS
 10
12.5346752556
 20
2.5135023256
 11
12.5346752556
 21
2.4937023146
  0
ARC
  5
2CB
100
AcDbEntity
  8
0
100
AcDbCircle
 62
2
  6
CONTINUOUS
 10
12.5371502552
 20
2.4937023128
 40
0.0024749995
100
AcDbArc
 50
179.9999571957
 51
270.0000428043
  0
LINE
  5
2CC
100
AcDbEntity
  8
0
100
AcDbLine
 62
2
  6
CONTINUOUS
 10
12.537150257
 20
2.4912273132
 11
12.6424313154
 21
2.4912273132
  0
ARC
  5
2CD
100
AcDbEntity
  8
0
100
AcDbCircle
 62
2
  6
CONTINUOUS
 10
12.6424313172
 20
2.4937023128
 40
0.0024749995
100
AcDbArc
 50
269.9999571957
 51
0.0000428043
  0
LINE
  5
2CE
100
AcDbEntity
  8
0
100
AcDbLine
 62
2
  6
CONTINUOUS
 10
12.6449063168
 20
2.4937023146
 11
12.6449063168
 21
2.5135023256
  0
ARC
  5
2CF
100
AcDbEntity
  8
0
100
AcDbCircle
 62
2
  6
CONTINUOUS
 10
12.6424313172
 20
2.5135023274
 40
0.0024749995
100
AcDbArc
 50
359.9999571957
 51
90.0000428043
  0
LINE
  5
2D0
100
AcDbEntity
  8
0
100
AcDbLine
 62
2
  6
CONTINUOUS
 10
12.6424313154
 20
2.515977327
 11
12.6224153043
 21
2.515977327
  0
ARC
  5
2D1
100
AcDbEntity
  8
0
100
AcDbCircle
 62
2
  6
CONTINUOUS
 10
12.6224154248
 20
2.518451368
 40
0.002474041
100
AcDbArc
 50
212.9056413127
 51
269.9972091756
  0
LINE
  5
2D2
100
AcDbEntity
  8
0
100
AcDbLine
 62
2
  6
CONTINUOUS
 10
12.6203383031
 20
2.5171073276
 11
12.5725822767
 21
2.5909023685
  0
ARC
  5
2D3
100
AcDbEntity
  8
0
100
AcDbCircle
 62
2
  6
CONTINUOUS
 10
12.570504655
 20
2.589557409
 40
0.0024749602
100
AcDbArc
 50
32.9172174468
 51
90.0087853097
  0
LINE
  5
2D4
100
AcDbEntity
  8
0
100
AcDbLine
 62
2
  6
CONTINUOUS
 10
12.5705042755
 20
2.5920323691
 11
12.5133292438
 21
2.5920323691
  0
ARC
  5
2D5
100
AcDbEntity
  8
0
100
AcDbCircle
 62
2
  6
CONTINUOUS
 10
12.5133291735
 20
2.5895571688
 40
0.0024752003
100
AcDbArc
 50
89.9983726451
 51
147.602165307
  0
LINE
  5
2D6
100
AcDbEntity
  8
0
100
AcDbLine
 62
2
  6
CONTINUOUS
 10
12.5112392426
 20
2.5908833685
 11
12.4644392167
 21
2.5171263276
  0
ARC
  5
2D7
100
AcDbEntity
  8
0
100
AcDbCircle
 62
2
  6
CONTINUOUS
 10
12.4623492858
 20
2.5184525273
 40
0.0024752003
100
AcDbArc
 50
269.9983726451
 51
327.602165307
  0
LINE
  5
2D8
100
AcDbEntity
  8
0
100
AcDbLine
 62
2
  6
CONTINUOUS
 10
12.4623492155
 20
2.515977327
 11
12.4394882028
 21
2.515977327
  0
ARC
  5
2D9
100
AcDbEntity
  8
0
100
AcDbCircle
 62
2
  6
CONTINUOUS
 10
12.439488201
 20
2.5135023274
 40
0.0024749995
100
AcDbArc
 50
89.9999571957
 51
180.0000428043
  0
LINE
  5
2DA
100
AcDbEntity
  8
0
100
AcDbLine
 62
2
  6
CONTINUOUS
 10
12.4370132015
 20
2.5135023256
 11
12.4370132015
 21
2.4937023146
  0
ARC
  5
2DB
100
AcDbEntity
  8
0
100
AcDbCircle
 62
2
  6
CONTINUOUS
 10
12.439488201
 20
2.4937023128
 40
0.0024749995
100
AcDbArc
 50
179.9999571957
 51
270.0000428043
  0
LINE
  5
2DC
100
AcDbEntity
  8
0
100
AcDbLine
 62
2
  6
CONTINUOUS
 10
12.4394882028
 20
2.4912273132
 11
12.5168642458
 21
2.4912273132
  0
ARC
  5
2DD
100
AcDbEntity
  8
0
100
AcDbCircle
 62
2
  6
CONTINUOUS
 10
12.5168642476
 20
2.4937023128
 40
0.0024749995
100
AcDbArc
 50
269.9999571957
 51
0.0000428043
  0
LINE
  5
2DE
100
AcDbEntity
  8
0
100
AcDbLine
 62
2
  6
CONTINUOUS
 10
12.5193392471
 20
2.4937023146
 11
12.5193392471
 21
2.5135023256
  0
ARC
  5
2DF
100
AcDbEntity
  8
0
100
AcDbCircle
 62
2
  6
CONTINUOUS
 10
12.5168642476
 20
2.5135023274
 40
0.0024749995
100
AcDbArc
 50
359.9999571957
 51
90.0000428043
  0
LINE
  5
2E0
100
AcDbEntity
  8
0
100
AcDbLine
 62
2
  6
CONTINUOUS
 10
12.5168642458
 20
2.515977327
 11
12.5055812395
 21
2.515977327
  0
ARC
  5
2E1
100
AcDbEntity
  8
0
100
AcDbCircle
 62
2
  6
CONTINUOUS
 10
12.5055811302
 20
2.518452367
 40
0.0024750401
100
AcDbArc
 50
147.6063258011
 51
270.0025305754
  0
LINE
  5
2E2
100
AcDbEntity
  8
0
100
AcDbLine
 62
2
  6
CONTINUOUS
 10
12.5034912383
 20
2.5197783291
 11
12.5090072414
 21
2.5284723339
  0
ARC
  5
2E3
100
AcDbEntity
  8
0
100
AcDbCircle
 62
2
  6
CONTINUOUS
 10
12.5110971723
 20
2.5271461342
 40
0.0024752003
100
AcDbArc
 50
89.998372645
 51
147.602165307
  0
LINE
  5
2E4
100
AcDbEntity
  8
0
100
AcDbLine
 62
2
  6
CONTINUOUS
 10
12.5110972426
 20
2.5296213345
 11
12.5459752619
 21
2.5296213345
  0
ARC
  5
2E5
100
AcDbEntity
  8
0
100
AcDbCircle
 62
2
  6
CONTINUOUS
 10
12.5459747223
 20
2.5271458744
 40
0.0024754602
100
AcDbArc
 50
32.8959418573
 51
89.9875097202
  0
LINE
  5
2E6
100
AcDbEntity
  8
0
100
AcDbLine
 62
2
  6
CONTINUOUS
 10
12.9205934696
 20
2.5920323691
 11
13.0210515254
 21
2.5920323691
  0
ARC
  5
2E7
100
AcDbEntity
  8
0
100
AcDbCircle
 62
2
  6
CONTINUOUS
 10
13.0210516601
 20
2.5895582013
 40
0.0024741678
100
AcDbArc
 50
46.3477981899
 51
90.0031206038
  0
LINE
  5
2E8
100
AcDbEntity
  8
0
100
AcDbLine
 62
2
  6
CONTINUOUS
 10
13.0227595263
 20
2.5913483688
 11
13.0827925596
 21
2.534068337
  0
ARC
  5
2E9
100
AcDbEntity
  8
0
100
AcDbCircle
 62
2
  6
CONTINUOUS
 10
13.0845012605
 20
2.5358592748
 40
0.0024753014
100
AcDbArc
 50
226.3461263059
 51
0.0014637321
  0
LINE
  5
2EA
100
AcDbEntity
  8
0
100
AcDbLine
 62
2
  6
CONTINUOUS
 10
13.0869765619
 20
2.535859338
 11
13.0869765619
 21
2.564807354
  0
ARC
  5
2EB
100
AcDbEntity
  8
0
100
AcDbCircle
 62
2
  6
CONTINUOUS
 10
13.0845015624
 20
2.5648073559
 40
0.0024749995
100
AcDbArc
 50
359.9999571957
 51
90.0000428043
  0
LINE
  5
2EC
100
AcDbEntity
  8
0
100
AcDbLine
 62
2
  6
CONTINUOUS
 10
13.0845015605
 20
2.5672823554
 11
13.0657255501
 21
2.5672823554
  0
ARC
  5
2ED
100
AcDbEntity
  8
0
100
AcDbCircle
 62
2
  6
CONTINUOUS
 10
13.0657255483
 20
2.5697573549
 40
0.0024749995
100
AcDbArc
 50
179.9999571957
 51
270.0000428043
  0
LINE
  5
2EE
100
AcDbEntity
  8
0
100
AcDbLine
 62
2
  6
CONTINUOUS
 10
13.0632505488
 20
2.5697573568
 11
13.0632505488
 21
2.5895573678
  0
ARC
  5
2EF
100
AcDbEntity
  8
0
100
AcDbCircle
 62
2
  6
CONTINUOUS
 10
13.0657255483
 20
2.5895573696
 40
0.0024749995
100
AcDbArc
 50
89.9999571957
 51
180.0000428043
  0
LINE
  5
2F0
100
AcDbEntity
  8
0
100
AcDbLine
 62
2
  6
CONTINUOUS
 10
13.0657255501
 20
2.5920323691
 11
13.1397265912
 21
2.5920323691
  0
ARC
  5
2F1
100
AcDbEntity
  8
0
100
AcDbCircle
 62
2
  6
CONTINUOUS
 10
13.139726593
 20
2.5895573696
 40
0.0024749995
100
AcDbArc
 50
359.9999571957
 51
90.0000428043
  0
LINE
  5
2F2
100
AcDbEntity
  8
0
100
AcDbLine
 62
2
  6
CONTINUOUS
 10
13.1422015925
 20
2.5895573678
 11
13.1422015925
 21
2.5697573568
  0
ARC
  5
2F3
100
AcDbEntity
  8
0
100
AcDbCircle
 62
2
  6
CONTINUOUS
 10
13.139726593
 20
2.5697573549
 40
0.0024749995
100
AcDbArc
 50
269.9999571957
 51
0.0000428042
  0
LINE
  5
2F4
100
AcDbEntity
  8
0
100
AcDbLine
 62
2
  6
CONTINUOUS
 10
13.1397265912
 20
2.5672823554
 11
13.1217935812
 21
2.5672823554
  0
ARC
  5
2F5
100
AcDbEntity
  8
0
100
AcDbCircle
 62
2
  6
CONTINUOUS
 10
13.1217935794
 20
2.5648073559
 40
0.0024749995
100
AcDbArc
 50
89.9999571957
 51
180.0000428042
  0
LINE
  5
2F6
100
AcDbEntity
  8
0
100
AcDbLine
 62
2
  6
CONTINUOUS
 10
13.1193185799
 20
2.564807354
 11
13.1193185799
 21
2.4937023146
  0
ARC
  5
2F7
100
AcDbEntity
  8
0
100
AcDbCircle
 62
2
  6
CONTINUOUS
 10
13.1168435803
 20
2.4937023128
 40
0.0024749995
100
AcDbArc
 50
269.9999571957
 51
0.0000428043
  0
LINE
  5
2F8
100
AcDbEntity
  8
0
100
AcDbLine
 62
2
  6
CONTINUOUS
 10
13.1168435785
 20
2.4912273132
 11
13.0426375373
 21
2.4912273132
  0
ARC
  5
2F9
100
AcDbEntity
  8
0
100
AcDbCircle
 62
2
  6
CONTINUOUS
 10
13.0426374026
 20
2.493701481
 40
0.0024741678
100
AcDbArc
 50
226.3477981898
 51
270.0031206038
  0
LINE
  5
2FA
100
AcDbEntity
  8
0
100
AcDbLine
 62
2
  6
CONTINUOUS
 10
13.0409295364
 20
2.4919113136
 11
12.9776495013
 21
2.5522893471
  0
ARC
  5
2FB
100
AcDbEntity
  8
0
100
AcDbCircle
 62
2
  6
CONTINUOUS
 10
12.9759408003
 20
2.5504984093
 40
0.0024753014
100
AcDbArc
 50
46.3461263059
 51
180.0014637321
  0
LINE
  5
2FC
100
AcDbEntity
  8
0
100
AcDbLine
 62
2
  6
CONTINUOUS
 10
12.973465499
 20
2.5504983461
 11
12.973465499
 21
2.5184523283
  0
ARC
  5
2FD
100
AcDbEntity
  8
0
100
AcDbCircle
 62
2
  6
CONTINUOUS
 10
12.9759404985
 20
2.5184523265
 40
0.0024749995
100
AcDbArc
 50
179.9999571957
 51
270.0000428043
  0
LINE
  5
2FE
100
AcDbEntity
  8
0
100
AcDbLine
 62
2
  6
CONTINUOUS
 10
12.9759405003
 20
2.515977327
 11
12.9962575116
 21
2.515977327
  0
ARC
  5
2FF
100
AcDbEntity
  8
0
100
AcDbCircle
 62
2
  6
CONTINUOUS
 10
12.9962575135
 20
2.5135023274
 40
0.0024749995
100
AcDbArc
 50
359.9999571957
 51
90.0000428043
  0
LINE
  5
300
100
AcDbEntity
  8
0
100
AcDbLine
 62
2
  6
CONTINUOUS
 10
12.998732513
 20
2.5135023256
 11
12.998732513
 21
2.4937023146
  0
ARC
  5
301
100
AcDbEntity
  8
0
100
AcDbCircle
 62
2
  6
CONTINUOUS
 10
12.9962575135
 20
2.4937023128
 40
0.0024749995
100
AcDbArc
 50
269.9999571957
 51
0.0000428043
  0
LINE
  5
302
100
AcDbEntity
  8
0
100
AcDbLine
 62
2
  6
CONTINUOUS
 10
12.9962575116
 20
2.4912273132
 11
12.9205934696
 21
2.4912273132
  0
ARC
  5
303
100
AcDbEntity
  8
0
100
AcDbCircle
 62
2
  6
CONTINUOUS
 10
12.9205934678
 20
2.4937023128
 40
0.0024749995
100
AcDbArc
 50
179.9999571957
 51
270.0000428043
  0
LINE
  5
304
100
AcDbEntity
  8
0
100
AcDbLine
 62
2
  6
CONTINUOUS
 10
12.9181184683
 20
2.4937023146
 11
12.9181184683
 21
2.5135023256
  0
ARC
  5
305
100
AcDbEntity
  8
0
100
AcDbCircle
 62
2
  6
CONTINUOUS
 10
12.9205934678
 20
2.5135023274
 40
0.0024749995
100
AcDbArc
 50
89.9999571957
 51
180.0000428042
  0
LINE
  5
306
100
AcDbEntity
  8
0
100
AcDbLine
 62
2
  6
CONTINUOUS
 10
12.9205934696
 20
2.515977327
 11
12.93923948
 21
2.515977327
  0
ARC
  5
307
100
AcDbEntity
  8
0
100
AcDbCircle
 62
2
  6
CONTINUOUS
 10
12.9392394818
 20
2.5184523265
 40
0.0024749995
100
AcDbArc
 50
269.9999571957
 51
0.0000428043
  0
LINE
  5
308
100
AcDbEntity
  8
0
100
AcDbLine
 62
2
  6
CONTINUOUS
 10
12.9417144814
 20
2.5184523283
 11
12.9417144814
 21
2.564807354
  0
ARC
  5
309
100
AcDbEntity
  8
0
100
AcDbCircle
 62
2
  6
CONTINUOUS
 10
12.9392394818
 20
2.5648073559
 40
0.0024749995
100
AcDbArc
 50
359.9999571957
 51
90.0000428043
  0
LINE
  5
30A
100
AcDbEntity
  8
0
100
AcDbLine
 62
2
  6
CONTINUOUS
 10
12.93923948
 20
2.5672823554
 11
12.9205934696
 21
2.5672823554
  0
ARC
  5
30B
100
AcDbEntity
  8
0
100
AcDbCircle
 62
2
  6
CONTINUOUS
 10
12.9205934678
 20
2.5697573549
 40
0.0024749995
100
AcDbArc
 50
179.9999571957
 51
270.0000428043
  0
LINE
  5
30C
100
AcDbEntity
  8
0
100
AcDbLine
 62
2
  6
CONTINUOUS
 10
12.9181184683
 20
2.5697573568
 11
12.9181184683
 21
2.5895573678
  0
ARC
  5
30D
100
AcDbEntity
  8
0
100
AcDbCircle
 62
2
  6
CONTINUOUS
 10
12.9205934678
 20
2.5895573696
 40
0.0024749995
100
AcDbArc
 50
89.9999571957
 51
180.0000428042
  0
LINE
  5
30E
100
AcDbEntity
  8
0
100
AcDbLine
 62
2
  6
CONTINUOUS
 10
13.2934226764
 20
2.5324773361
 11
13.2582556569
 21
2.5324773361
  0
ARC
  5
30F
100
AcDbEntity
  8
0
100
AcDbCircle
 62
2
  6
CONTINUOUS
 10
13.2582556551
 20
2.5300023366
 40
0.0024749995
100
AcDbArc
 50
89.9999571957
 51
180.0000428043
  0
LINE
  5
310
100
AcDbEntity
  8
0
100
AcDbLine
 62
2
  6
CONTINUOUS
 10
13.2557806555
 20
2.5300023347
 11
13.2557806555
 21
2.5184523283
  0
ARC
  5
311
100
AcDbEntity
  8
0
100
AcDbCircle
 62
2
  6
CONTINUOUS
 10
13.2582556551
 20
2.5184523265
 40
0.0024749995
100
AcDbArc
 50
179.9999571957
 51
270.0000428043
  0
LINE
  5
312
100
AcDbEntity
  8
0
100
AcDbLine
 62
2
  6
CONTINUOUS
 10
13.2582556569
 20
2.515977327
 11
13.3232596929
 21
2.515977327
  0
ARC
  5
313
100
AcDbEntity
  8
0
100
AcDbCircle
 62
2
  6
CONTINUOUS
 10
13.3232596948
 20
2.5184523265
 40
0.0024749995
100
AcDbArc
 50
269.9999571957
 51
0.0000428043
  0
LINE
  5
314
100
AcDbEntity
  8
0
100
AcDbLine
 62
2
  6
CONTINUOUS
 10
13.3257346943
 20
2.5184523283
 11
13.3257346943
 21
2.5267023329
  0
ARC
  5
315
100
AcDbEntity
  8
0
100
AcDbCircle
 62
2
  6
CONTINUOUS
 10
13.3282096938
 20
2.5267023348
 40
0.0024749995
100
AcDbArc
 50
89.9999571957
 51
180.0000428043
  0
LINE
  5
316
100
AcDbEntity
  8
0
100
AcDbLine
 62
2
  6
CONTINUOUS
 10
13.3282096957
 20
2.5291773343
 11
13.3705287192
 21
2.5291773343
  0
ARC
  5
317
100
AcDbEntity
  8
0
100
AcDbCircle
 62
2
  6
CONTINUOUS
 10
13.370528721
 20
2.5267023348
 40
0.0024749995
100
AcDbArc
 50
359.9999571957
 51
90.0000428043
  0
LINE
  5
318
100
AcDbEntity
  8
0
100
AcDbLine
 62
2
  6
CONTINUOUS
 10
13.3730037205
 20
2.5267023329
 11
13.3730037205
 21
2.4937023146
  0
ARC
  5
319
100
AcDbEntity
  8
0
100
AcDbCircle
 62
2
  6
CONTINUOUS
 10
13.370528721
 20
2.4937023128
 40
0.0024749995
100
AcDbArc
 50
269.9999571957
 51
0.0000428043
  0
LINE
  5
31A
100
AcDbEntity
  8
0
100
AcDbLine
 62
2
  6
CONTINUOUS
 10
13.3705287192
 20
2.4912273132
 11
13.1673166065
 21
2.4912273132
  0
ARC
  5
31B
100
AcDbEntity
  8
0
100
AcDbCircle
 62
2
  6
CONTINUOUS
 10
13.1673166046
 20
2.4937023128
 40
0.0024749995
100
AcDbArc
 50
179.9999571957
 51
270.0000428043
  0
LINE
  5
31C
100
AcDbEntity
  8
0
100
AcDbLine
 62
2
  6
CONTINUOUS
 10
13.1648416051
 20
2.4937023146
 11
13.1648416051
 21
2.5135023256
  0
ARC
  5
31D
100
AcDbEntity
  8
0
100
AcDbCircle
 62
2
  6
CONTINUOUS
 10
13.1673166046
 20
2.5135023274
 40
0.0024749995
100
AcDbArc
 50
89.9999571957
 51
180.0000428043
  0
LINE
  5
31E
100
AcDbEntity
  8
0
100
AcDbLine
 62
2
  6
CONTINUOUS
 10
13.1673166065
 20
2.515977327
 11
13.1912396197
 21
2.515977327
  0
ARC
  5
31F
100
AcDbEntity
  8
0
100
AcDbCircle
 62
2
  6
CONTINUOUS
 10
13.1912396216
 20
2.5184523265
 40
0.0024749995
100
AcDbArc
 50
269.9999571957
 51
0.0000428042
  0
LINE
  5
320
100
AcDbEntity
  8
0
100
AcDbLine
 62
2
  6
CONTINUOUS
 10
13.1937146211
 20
2.5184523283
 11
13.1937146211
 21
2.564807354
  0
ARC
  5
321
100
AcDbEntity
  8
0
100
AcDbCircle
 62
2
  6
CONTINUOUS
 10
13.1912396216
 20
2.5648073559
 40
0.0024749995
100
AcDbArc
 50
359.9999571957
 51
90.0000428043
  0
LINE
  5
322
100
AcDbEntity
  8
0
100
AcDbLine
 62
2
  6
CONTINUOUS
 10
13.1912396197
 20
2.5672823554
 11
13.1673166065
 21
2.5672823554
  0
ARC
  5
323
100
AcDbEntity
  8
0
100
AcDbCircle
 62
2
  6
CONTINUOUS
 10
13.1673166046
 20
2.5697573549
 40
0.0024749995
100
AcDbArc
 50
179.9999571957
 51
270.0000428043
  0
LINE
  5
324
100
AcDbEntity
  8
0
100
AcDbLine
 62
2
  6
CONTINUOUS
 10
13.1648416051
 20
2.5697573568
 11
13.1648416051
 21
2.5895573678
  0
ARC
  5
325
100
AcDbEntity
  8
0
100
AcDbCircle
 62
2
  6
CONTINUOUS
 10
13.1673166046
 20
2.5895573696
 40
0.0024749995
100
AcDbArc
 50
89.9999571957
 51
180.0000428043
  0
LINE
  5
326
100
AcDbEntity
  8
0
100
AcDbLine
 62
2
  6
CONTINUOUS
 10
13.1673166065
 20
2.5920323691
 11
13.3691097184
 21
2.5920323691
  0
ARC
  5
327
100
AcDbEntity
  8
0
100
AcDbCircle
 62
2
  6
CONTINUOUS
 10
13.3691097202
 20
2.5895573696
 40
0.0024749995
100
AcDbArc
 50
359.9999571957
 51
90.0000428043
  0
LINE
  5
328
100
AcDbEntity
  8
0
100
AcDbLine
 62
2
  6
CONTINUOUS
 10
13.3715847197
 20
2.5895573678
 11
13.3715847197
 21
2.5565573495
  0
ARC
  5
329
100
AcDbEntity
  8
0
100
AcDbCircle
 62
2
  6
CONTINUOUS
 10
13.3691097202
 20
2.5565573476
 40
0.0024749995
100
AcDbArc
 50
269.9999571957
 51
0.0000428042
  0
LINE
  5
32A
100
AcDbEntity
  8
0
100
AcDbLine
 62
2
  6
CONTINUOUS
 10
13.3691097184
 20
2.5540823481
 11
13.3272456952
 21
2.5540823481
  0
ARC
  5
32B
100
AcDbEntity
  8
0
100
AcDbCircle
 62
2
  6
CONTINUOUS
 10
13.3272456933
 20
2.5565573476
 40
0.0024749995
100
AcDbArc
 50
179.9999571957
 51
270.0000428043
  0
LINE
  5
32C
100
AcDbEntity
  8
0
100
AcDbLine
 62
2
  6
CONTINUOUS
 10
13.3247706938
 20
2.5565573495
 11
13.3247706938
 21
2.564807354
  0
ARC
  5
32D
100
AcDbEntity
  8
0
100
AcDbCircle
 62
2
  6
CONTINUOUS
 10
13.3222956943
 20
2.5648073559
 40
0.0024749995
100
AcDbArc
 50
359.9999571957
 51
90.0000428043
  0
LINE
  5
32E
100
AcDbEntity
  8
0
100
AcDbLine
 62
2
  6
CONTINUOUS
 10
13.3222956924
 20
2.5672823554
 11
13.2582556569
 21
2.5672823554
  0
ARC
  5
32F
100
AcDbEntity
  8
0
100
AcDbCircle
 62
2
  6
CONTINUOUS
 10
13.2582556551
 20
2.5648073559
 40
0.0024749995
100
AcDbArc
 50
89.9999571957
 51
180.0000428043
  0
LINE
  5
330
100
AcDbEntity
  8
0
100
AcDbLine
 62
2
  6
CONTINUOUS
 10
13.2557806555
 20
2.564807354
 11
13.2557806555
 21
2.5532573476
  0
ARC
  5
331
100
AcDbEntity
  8
0
100
AcDbCircle
 62
2
  6
CONTINUOUS
 10
13.2582556551
 20
2.5532573458
 40
0.0024749995
100
AcDbArc
 50
179.9999571957
 51
270.0000428043
  0
LINE
  5
332
100
AcDbEntity
  8
0
100
AcDbLine
 62
2
  6
CONTINUOUS
 10
13.2582556569
 20
2.5507823463
 11
13.2934226764
 21
2.5507823463
  0
ARC
  5
333
100
AcDbEntity
  8
0
100
AcDbCircle
 62
2
  6
CONTINUOUS
 10
13.2934226783
 20
2.5483073467
 40
0.0024749995
100
AcDbArc
 50
359.9999571957
 51
90.0000428043
  0
LINE
  5
334
100
AcDbEntity
  8
0
100
AcDbLine
 62
2
  6
CONTINUOUS
 10
13.2958976778
 20
2.5483073449
 11
13.2958976778
 21
2.5349523375
  0
ARC
  5
335
100
AcDbEntity
  8
0
100
AcDbCircle
 62
2
  6
CONTINUOUS
 10
13.2934226783
 20
2.5349523356
 40
0.0024749995
100
AcDbArc
 50
269.9999571957
 51
0.0000428042
  0
LINE
  5
336
100
AcDbEntity
  8
0
100
AcDbLine
 62
2
  6
CONTINUOUS
 10
13.7286871589
 20
2.5350697372
 11
13.7286871589
 21
2.5456869438
  0
LINE
  5
337
100
AcDbEntity
  8
0
100
AcDbLine
 62
2
  6
CONTINUOUS
 10
13.7086871478
 20
2.5004302075
 11
13.7086871478
 21
2.5803264735
  0
LINE
  5
338
100
AcDbEntity
  8
0
100
AcDbLine
 62
2
  6
CONTINUOUS
 10
13.6886871368
 20
2.4843919416
 11
13.6886871368
 21
2.5963647394
  0
LINE
  5
339
100
AcDbEntity
  8
0
100
AcDbLine
 62
2
  6
CONTINUOUS
 10
13.6686871257
 20
2.4726017898
 11
13.6686871257
 21
2.6081548911
  0
LINE
  5
33A
100
AcDbEntity
  8
0
100
AcDbLine
 62
2
  6
CONTINUOUS
 10
13.6486871146
 20
2.4628062688
 11
13.6486871146
 21
2.6179504122
  0
LINE
  5
33B
100
AcDbEntity
  8
0
100
AcDbLine
 62
2
  6
CONTINUOUS
 10
13.6286871035
 20
2.4541253507
 11
13.6286871035
 21
2.5062483056
  0
LINE
  5
33C
100
AcDbEntity
  8
0
100
AcDbLine
 62
2
  6
CONTINUOUS
 10
13.6286871035
 20
2.5301143348
 11
13.6286871035
 21
2.6266313303
  0
LINE
  5
33D
100
AcDbEntity
  8
0
100
AcDbLine
 62
2
  6
CONTINUOUS
 10
13.6086870924
 20
2.4465537903
 11
13.6086870924
 21
2.4918774918
  0
LINE
  5
33E
100
AcDbEntity
  8
0
100
AcDbLine
 62
2
  6
CONTINUOUS
 10
13.6086870924
 20
2.5165781173
 11
13.6086870924
 21
2.6342028907
  0
LINE
  5
33F
100
AcDbEntity
  8
0
100
AcDbLine
 62
2
  6
CONTINUOUS
 10
13.5886870813
 20
2.4398033466
 11
13.5886870813
 21
2.4912273132
  0
LINE
  5
340
100
AcDbEntity
  8
0
100
AcDbLine
 62
2
  6
CONTINUOUS
 10
13.5886870813
 20
2.5391840845
 11
13.5886870813
 21
2.5454298327
  0
LINE
  5
341
100
AcDbEntity
  8
0
100
AcDbLine
 62
2
  6
CONTINUOUS
 10
13.5886870813
 20
2.5862063472
 11
13.5886870813
 21
2.6409533343
  0
LINE
  5
342
100
AcDbEntity
  8
0
100
AcDbLine
 62
2
  6
CONTINUOUS
 10
13.5686870702
 20
2.4334702189
 11
13.5686870702
 21
2.4912273132
  0
LINE
  5
343
100
AcDbEntity
  8
0
100
AcDbLine
 62
2
  6
CONTINUOUS
 10
13.5686870702
 20
2.5906587765
 11
13.5686870702
 21
2.647286462
  0
LINE
  5
344
100
AcDbEntity
  8
0
100
AcDbLine
 62
2
  6
CONTINUOUS
 10
13.5486870591
 20
2.4278968124
 11
13.5486870591
 21
2.4937461006
  0
LINE
  5
345
100
AcDbEntity
  8
0
100
AcDbLine
 62
2
  6
CONTINUOUS
 10
13.5486870591
 20
2.5920323691
 11
13.5486870591
 21
2.6528598686
  0
LINE
  5
346
100
AcDbEntity
  8
0
100
AcDbLine
 62
2
  6
CONTINUOUS
 10
13.528687048
 20
2.4225427674
 11
13.528687048
 21
2.5270426993
  0
LINE
  5
347
100
AcDbEntity
  8
0
100
AcDbLine
 62
2
  6
CONTINUOUS
 10
13.528687048
 20
2.5505166259
 11
13.528687048
 21
2.5668657091
  0
LINE
  5
348
100
AcDbEntity
  8
0
100
AcDbLine
 62
2
  6
CONTINUOUS
 10
13.528687048
 20
2.5920323691
 11
13.528687048
 21
2.6582139136
  0
LINE
  5
349
100
AcDbEntity
  8
0
100
AcDbLine
 62
2
  6
CONTINUOUS
 10
13.5086870369
 20
2.4177306791
 11
13.5086870369
 21
2.4912273132
  0
LINE
  5
34A
100
AcDbEntity
  8
0
100
AcDbLine
 62
2
  6
CONTINUOUS
 10
13.5086870369
 20
2.5159553269
 11
13.5086870369
 21
2.5306043351
  0
LINE
  5
34B
100
AcDbEntity
  8
0
100
AcDbLine
 62
2
  6
CONTINUOUS
 10
13.5086870369
 20
2.5496073456
 11
13.5086870369
 21
2.5672823554
  0
LINE
  5
34C
100
AcDbEntity
  8
0
100
AcDbLine
 62
2
  6
CONTINUOUS
 10
13.5086870369
 20
2.5920323691
 11
13.5086870369
 21
2.6630260019
  0
LINE
  5
34D
100
AcDbEntity
  8
0
100
AcDbLine
 62
2
  6
CONTINUOUS
 10
13.4886870258
 20
2.4131795254
 11
13.4886870258
 21
2.4912273132
  0
LINE
  5
34E
100
AcDbEntity
  8
0
100
AcDbLine
 62
2
  6
CONTINUOUS
 10
13.4886870258
 20
2.5159553269
 11
13.4886870258
 21
2.5306043351
  0
LINE
  5
34F
100
AcDbEntity
  8
0
100
AcDbLine
 62
2
  6
CONTINUOUS
 10
13.4886870258
 20
2.5496073456
 11
13.4886870258
 21
2.5672823554
  0
LINE
  5
350
100
AcDbEntity
  8
0
100
AcDbLine
 62
2
  6
CONTINUOUS
 10
13.4886870258
 20
2.5920323691
 11
13.4886870258
 21
2.6675771555
  0
LINE
  5
351
100
AcDbEntity
  8
0
100
AcDbLine
 62
2
  6
CONTINUOUS
 10
13.4686870147
 20
2.4088819672
 11
13.4686870147
 21
2.4912273132
  0
LINE
  5
352
100
AcDbEntity
  8
0
100
AcDbLine
 62
2
  6
CONTINUOUS
 10
13.4686870147
 20
2.5920323691
 11
13.4686870147
 21
2.6718747138
  0
LINE
  5
353
100
AcDbEntity
  8
0
100
AcDbLine
 62
2
  6
CONTINUOUS
 10
13.4486870037
 20
2.4050092072
 11
13.4486870037
 21
2.4912273132
  0
LINE
  5
354
100
AcDbEntity
  8
0
100
AcDbLine
 62
2
  6
CONTINUOUS
 10
13.4486870037
 20
2.5920323691
 11
13.4486870037
 21
2.6757474738
  0
LINE
  5
355
100
AcDbEntity
  8
0
100
AcDbLine
 62
2
  6
CONTINUOUS
 10
13.4286869926
 20
2.4011364471
 11
13.4286869926
 21
2.4912273132
  0
LINE
  5
356
100
AcDbEntity
  8
0
100
AcDbLine
 62
2
  6
CONTINUOUS
 10
13.4286869926
 20
2.5920323691
 11
13.4286869926
 21
2.6796202339
  0
LINE
  5
357
100
AcDbEntity
  8
0
100
AcDbLine
 62
2
  6
CONTINUOUS
 10
13.4086869815
 20
2.3980226662
 11
13.4086869815
 21
2.4912273132
  0
LINE
  5
358
100
AcDbEntity
  8
0
100
AcDbLine
 62
2
  6
CONTINUOUS
 10
13.4086869815
 20
2.515977327
 11
13.4086869815
 21
2.5672823554
  0
LINE
  5
359
100
AcDbEntity
  8
0
100
AcDbLine
 62
2
  6
CONTINUOUS
 10
13.4086869815
 20
2.5920323691
 11
13.4086869815
 21
2.6827340148
  0
LINE
  5
35A
100
AcDbEntity
  8
0
100
AcDbLine
 62
2
  6
CONTINUOUS
 10
13.3886869704
 20
2.3950052774
 11
13.3886869704
 21
2.6857514036
  0
LINE
  5
35B
100
AcDbEntity
  8
0
100
AcDbLine
 62
2
  6
CONTINUOUS
 10
13.3686869593
 20
2.3919878885
 11
13.3686869593
 21
2.4912273132
  0
LINE
  5
35C
100
AcDbEntity
  8
0
100
AcDbLine
 62
2
  6
CONTINUOUS
 10
13.3686869593
 20
2.5291773343
 11
13.3686869593
 21
2.5540823481
  0
LINE
  5
35D
100
AcDbEntity
  8
0
100
AcDbLine
 62
2
  6
CONTINUOUS
 10
13.3686869593
 20
2.5920323691
 11
13.3686869593
 21
2.6887687924
  0
LINE
  5
35E
100
AcDbEntity
  8
0
100
AcDbLine
 62
2
  6
CONTINUOUS
 10
13.3486869482
 20
2.3889704997
 11
13.3486869482
 21
2.4912273132
  0
LINE
  5
35F
100
AcDbEntity
  8
0
100
AcDbLine
 62
2
  6
CONTINUOUS
 10
13.3486869482
 20
2.5291773343
 11
13.3486869482
 21
2.5540823481
  0
LINE
  5
360
100
AcDbEntity
  8
0
100
AcDbLine
 62
2
  6
CONTINUOUS
 10
13.3486869482
 20
2.5920323691
 11
13.3486869482
 21
2.6917861813
  0
LINE
  5
361
100
AcDbEntity
  8
0
100
AcDbLine
 62
2
  6
CONTINUOUS
 10
13.3286869371
 20
2.3859531109
 11
13.3286869371
 21
2.4912273132
  0
LINE
  5
362
100
AcDbEntity
  8
0
100
AcDbLine
 62
2
  6
CONTINUOUS
 10
13.3286869371
 20
2.5291773343
 11
13.3286869371
 21
2.5540823481
  0
LINE
  5
363
100
AcDbEntity
  8
0
100
AcDbLine
 62
2
  6
CONTINUOUS
 10
13.3286869371
 20
2.5920323691
 11
13.3286869371
 21
2.6948035701
  0
LINE
  5
364
100
AcDbEntity
  8
0
100
AcDbLine
 62
2
  6
CONTINUOUS
 10
13.308686926
 20
2.3833355437
 11
13.308686926
 21
2.4912273132
  0
LINE
  5
365
100
AcDbEntity
  8
0
100
AcDbLine
 62
2
  6
CONTINUOUS
 10
13.308686926
 20
2.515977327
 11
13.308686926
 21
2.5672823554
  0
LINE
  5
366
100
AcDbEntity
  8
0
100
AcDbLine
 62
2
  6
CONTINUOUS
 10
13.308686926
 20
2.5920323691
 11
13.308686926
 21
2.6974211373
  0
LINE
  5
367
100
AcDbEntity
  8
0
100
AcDbLine
 62
2
  6
CONTINUOUS
 10
13.2886869149
 20
2.3812612684
 11
13.2886869149
 21
2.4912273132
  0
LINE
  5
368
100
AcDbEntity
  8
0
100
AcDbLine
 62
2
  6
CONTINUOUS
 10
13.2886869149
 20
2.515977327
 11
13.2886869149
 21
2.5324773361
  0
LINE
  5
369
100
AcDbEntity
  8
0
100
AcDbLine
 62
2
  6
CONTINUOUS
 10
13.2886869149
 20
2.5507823463
 11
13.2886869149
 21
2.5672823554
  0
LINE
  5
36A
100
AcDbEntity
  8
0
100
AcDbLine
 62
2
  6
CONTINUOUS
 10
13.2886869149
 20
2.5920323691
 11
13.2886869149
 21
2.6994954125
  0
LINE
  5
36B
100
AcDbEntity
  8
0
100
AcDbLine
 62
2
  6
CONTINUOUS
 10
13.2686869038
 20
2.3791869932
 11
13.2686869038
 21
2.4912273132
  0
LINE
  5
36C
100
AcDbEntity
  8
0
100
AcDbLine
 62
2
  6
CONTINUOUS
 10
13.2686869038
 20
2.515977327
 11
13.2686869038
 21
2.5324773361
  0
LINE
  5
36D
100
AcDbEntity
  8
0
100
AcDbLine
 62
2
  6
CONTINUOUS
 10
13.2686869038
 20
2.5507823463
 11
13.2686869038
 21
2.5672823554
  0
LINE
  5
36E
100
AcDbEntity
  8
0
100
AcDbLine
 62
2
  6
CONTINUOUS
 10
13.2686869038
 20
2.5920323691
 11
13.2686869038
 21
2.7015696878
  0
LINE
  5
36F
100
AcDbEntity
  8
0
100
AcDbLine
 62
2
  6
CONTINUOUS
 10
13.2486868927
 20
2.377112718
 11
13.2486868927
 21
2.4912273132
  0
LINE
  5
370
100
AcDbEntity
  8
0
100
AcDbLine
 62
2
  6
CONTINUOUS
 10
13.2486868927
 20
2.5920323691
 11
13.2486868927
 21
2.703643963
  0
LINE
  5
371
100
AcDbEntity
  8
0
100
AcDbLine
 62
2
  6
CONTINUOUS
 10
13.2286868817
 20
2.3750384428
 11
13.2286868817
 21
2.4912273132
  0
LINE
  5
372
100
AcDbEntity
  8
0
100
AcDbLine
 62
2
  6
CONTINUOUS
 10
13.2286868817
 20
2.5920323691
 11
13.2286868817
 21
2.7057182382
  0
LINE
  5
373
100
AcDbEntity
  8
0
100
AcDbLine
 62
2
  6
CONTINUOUS
 10
13.2086868706
 20
2.3729641676
 11
13.2086868706
 21
2.4912273132
  0
LINE
  5
374
100
AcDbEntity
  8
0
100
AcDbLine
 62
2
  6
CONTINUOUS
 10
13.2086868706
 20
2.5920323691
 11
13.2086868706
 21
2.7077925134
  0
LINE
  5
375
100
AcDbEntity
  8
0
100
AcDbLine
 62
2
  6
CONTINUOUS
 10
13.1886868595
 20
2.3712344456
 11
13.1886868595
 21
2.4912273132
  0
LINE
  5
376
100
AcDbEntity
  8
0
100
AcDbLine
 62
2
  6
CONTINUOUS
 10
13.1886868595
 20
2.515977327
 11
13.1886868595
 21
2.5672823554
  0
LINE
  5
377
100
AcDbEntity
  8
0
100
AcDbLine
 62
2
  6
CONTINUOUS
 10
13.1886868595
 20
2.5920323691
 11
13.1886868595
 21
2.7095222354
  0
LINE
  5
378
100
AcDbEntity
  8
0
100
AcDbLine
 62
2
  6
CONTINUOUS
 10
13.1686868484
 20
2.3699682418
 11
13.1686868484
 21
2.4912273132
  0
LINE
  5
379
100
AcDbEntity
  8
0
100
AcDbLine
 62
2
  6
CONTINUOUS
 10
13.1686868484
 20
2.515977327
 11
13.1686868484
 21
2.5672823554
  0
LINE
  5
37A
100
AcDbEntity
  8
0
100
AcDbLine
 62
2
  6
CONTINUOUS
 10
13.1686868484
 20
2.5920323691
 11
13.1686868484
 21
2.7107884392
  0
LINE
  5
37B
100
AcDbEntity
  8
0
100
AcDbLine
 62
2
  6
CONTINUOUS
 10
13.1486868373
 20
2.3687020381
 11
13.1486868373
 21
2.7120546429
  0
LINE
  5
37C
100
AcDbEntity
  8
0
100
AcDbLine
 62
2
  6
CONTINUOUS
 10
13.1286868262
 20
2.3674358343
 11
13.1286868262
 21
2.5672823554
  0
LINE
  5
37D
100
AcDbEntity
  8
0
100
AcDbLine
 62
2
  6
CONTINUOUS
 10
13.1286868262
 20
2.5920323691
 11
13.1286868262
 21
2.7133208466
  0
LINE
  5
37E
100
AcDbEntity
  8
0
100
AcDbLine
 62
2
  6
CONTINUOUS
 10
13.1086868151
 20
2.3661696306
 11
13.1086868151
 21
2.4912273132
  0
LINE
  5
37F
100
AcDbEntity
  8
0
100
AcDbLine
 62
2
  6
CONTINUOUS
 10
13.1086868151
 20
2.5920323691
 11
13.1086868151
 21
2.7145870504
  0
LINE
  5
380
100
AcDbEntity
  8
0
100
AcDbLine
 62
2
  6
CONTINUOUS
 10
13.088686804
 20
2.3649034269
 11
13.088686804
 21
2.4912273132
  0
LINE
  5
381
100
AcDbEntity
  8
0
100
AcDbLine
 62
2
  6
CONTINUOUS
 10
13.088686804
 20
2.5920323691
 11
13.088686804
 21
2.7158532541
  0
LINE
  5
382
100
AcDbEntity
  8
0
100
AcDbLine
 62
2
  6
CONTINUOUS
 10
13.0686867929
 20
2.3636739922
 11
13.0686867929
 21
2.4912273132
  0
LINE
  5
383
100
AcDbEntity
  8
0
100
AcDbLine
 62
2
  6
CONTINUOUS
 10
13.0686867929
 20
2.5475272398
 11
13.0686867929
 21
2.5672823554
  0
LINE
  5
384
100
AcDbEntity
  8
0
100
AcDbLine
 62
2
  6
CONTINUOUS
 10
13.0686867929
 20
2.5920323691
 11
13.0686867929
 21
2.7170826887
  0
LINE
  5
385
100
AcDbEntity
  8
0
100
AcDbLine
 62
2
  6
CONTINUOUS
 10
13.0486867818
 20
2.363143203
 11
13.0486867818
 21
2.4912273132
  0
LINE
  5
386
100
AcDbEntity
  8
0
100
AcDbLine
 62
2
  6
CONTINUOUS
 10
13.0486867818
 20
2.5666100882
 11
13.0486867818
 21
2.717613478
  0
LINE
  5
387
100
AcDbEntity
  8
0
100
AcDbLine
 62
2
  6
CONTINUOUS
 10
13.0286867707
 20
2.3626124138
 11
13.0286867707
 21
2.50359263
  0
LINE
  5
388
100
AcDbEntity
  8
0
100
AcDbLine
 62
2
  6
CONTINUOUS
 10
13.0286867707
 20
2.5856929366
 11
13.0286867707
 21
2.7181442672
  0
LINE
  5
389
100
AcDbEntity
  8
0
100
AcDbLine
 62
2
  6
CONTINUOUS
 10
13.0086867596
 20
2.3620816246
 11
13.0086867596
 21
2.5226754472
  0
LINE
  5
38A
100
AcDbEntity
  8
0
100
AcDbLine
 62
2
  6
CONTINUOUS
 10
13.0086867596
 20
2.5920323691
 11
13.0086867596
 21
2.7186750564
  0
LINE
  5
38B
100
AcDbEntity
  8
0
100
AcDbLine
 62
2
  6
CONTINUOUS
 10
12.9886867486
 20
2.3615508354
 11
12.9886867486
 21
2.4912273132
  0
LINE
  5
38C
100
AcDbEntity
  8
0
100
AcDbLine
 62
2
  6
CONTINUOUS
 10
12.9886867486
 20
2.515977327
 11
12.9886867486
 21
2.5417582644
  0
LINE
  5
38D
100
AcDbEntity
  8
0
100
AcDbLine
 62
2
  6
CONTINUOUS
 10
12.9886867486
 20
2.5920323691
 11
12.9886867486
 21
2.7192058456
  0
LINE
  5
38E
100
AcDbEntity
  8
0
100
AcDbLine
 62
2
  6
CONTINUOUS
 10
12.9686867375
 20
2.3610200462
 11
12.9686867375
 21
2.4912273132
  0
LINE
  5
38F
100
AcDbEntity
  8
0
100
AcDbLine
 62
2
  6
CONTINUOUS
 10
12.9686867375
 20
2.5920323691
 11
12.9686867375
 21
2.7197366348
  0
LINE
  5
390
100
AcDbEntity
  8
0
100
AcDbLine
 62
2
  6
CONTINUOUS
 10
12.9486867264
 20
2.360489257
 11
12.9486867264
 21
2.4912273132
  0
LINE
  5
391
100
AcDbEntity
  8
0
100
AcDbLine
 62
2
  6
CONTINUOUS
 10
12.9486867264
 20
2.5920323691
 11
12.9486867264
 21
2.720267424
  0
LINE
  5
392
100
AcDbEntity
  8
0
100
AcDbLine
 62
2
  6
CONTINUOUS
 10
12.9286867153
 20
2.3602836008
 11
12.9286867153
 21
2.4912273132
  0
LINE
  5
393
100
AcDbEntity
  8
0
100
AcDbLine
 62
2
  6
CONTINUOUS
 10
12.9286867153
 20
2.515977327
 11
12.9286867153
 21
2.5672823554
  0
LINE
  5
394
100
AcDbEntity
  8
0
100
AcDbLine
 62
2
  6
CONTINUOUS
 10
12.9286867153
 20
2.5920323691
 11
12.9286867153
 21
2.7204730802
  0
LINE
  5
395
100
AcDbEntity
  8
0
100
AcDbLine
 62
2
  6
CONTINUOUS
 10
12.9086867042
 20
2.3604597639
 11
12.9086867042
 21
2.7202969171
  0
LINE
  5
396
100
AcDbEntity
  8
0
100
AcDbLine
 62
2
  6
CONTINUOUS
 10
12.8886866931
 20
2.360635927
 11
12.8886866931
 21
2.5672823554
  0
LINE
  5
397
100
AcDbEntity
  8
0
100
AcDbLine
 62
2
  6
CONTINUOUS
 10
12.8886866931
 20
2.5920323691
 11
12.8886866931
 21
2.720120754
  0
LINE
  5
398
100
AcDbEntity
  8
0
100
AcDbLine
 62
2
  6
CONTINUOUS
 10
12.868686682
 20
2.3608120901
 11
12.868686682
 21
2.491232357
  0
LINE
  5
399
100
AcDbEntity
  8
0
100
AcDbLine
 62
2
  6
CONTINUOUS
 10
12.868686682
 20
2.5920323691
 11
12.868686682
 21
2.7199445909
  0
LINE
  5
39A
100
AcDbEntity
  8
0
100
AcDbLine
 62
2
  6
CONTINUOUS
 10
12.8486866709
 20
2.3609882532
 11
12.8486866709
 21
2.4912273132
  0
LINE
  5
39B
100
AcDbEntity
  8
0
100
AcDbLine
 62
2
  6
CONTINUOUS
 10
12.8486866709
 20
2.5920323691
 11
12.8486866709
 21
2.7197684278
  0
LINE
  5
39C
100
AcDbEntity
  8
0
100
AcDbLine
 62
2
  6
CONTINUOUS
 10
12.8286866598
 20
2.3611644163
 11
12.8286866598
 21
2.4912273132
  0
LINE
  5
39D
100
AcDbEntity
  8
0
100
AcDbLine
 62
2
  6
CONTINUOUS
 10
12.8286866598
 20
2.5396527025
 11
12.8286866598
 21
2.5672823554
  0
LINE
  5
39E
100
AcDbEntity
  8
0
100
AcDbLine
 62
2
  6
CONTINUOUS
 10
12.8286866598
 20
2.5920323691
 11
12.8286866598
 21
2.7195922647
  0
LINE
  5
39F
100
AcDbEntity
  8
0
100
AcDbLine
 62
2
  6
CONTINUOUS
 10
12.8086866487
 20
2.3613405794
 11
12.8086866487
 21
2.4912273132
  0
LINE
  5
3A0
100
AcDbEntity
  8
0
100
AcDbLine
 62
2
  6
CONTINUOUS
 10
12.8086866487
 20
2.5587355508
 11
12.8086866487
 21
2.7194161016
  0
LINE
  5
3A1
100
AcDbEntity
  8
0
100
AcDbLine
 62
2
  6
CONTINUOUS
 10
12.7886866376
 20
2.3621089572
 11
12.7886866376
 21
2.4957181055
  0
LINE
  5
3A2
100
AcDbEntity
  8
0
100
AcDbLine
 62
2
  6
CONTINUOUS
 10
12.7886866376
 20
2.5778183992
 11
12.7886866376
 21
2.7186477238
  0
LINE
  5
3A3
100
AcDbEntity
  8
0
100
AcDbLine
 62
2
  6
CONTINUOUS
 10
12.7686866266
 20
2.3630013935
 11
12.7686866266
 21
2.5148009227
  0
LINE
  5
3A4
100
AcDbEntity
  8
0
100
AcDbLine
 62
2
  6
CONTINUOUS
 10
12.7686866266
 20
2.5920323691
 11
12.7686866266
 21
2.7177552874
  0
LINE
  5
3A5
100
AcDbEntity
  8
0
100
AcDbLine
 62
2
  6
CONTINUOUS
 10
12.7486866155
 20
2.3638938299
 11
12.7486866155
 21
2.4913263218
  0
LINE
  5
3A6
100
AcDbEntity
  8
0
100
AcDbLine
 62
2
  6
CONTINUOUS
 10
12.7486866155
 20
2.5158783184
 11
12.7486866155
 21
2.5338837399
  0
LINE
  5
3A7
100
AcDbEntity
  8
0
100
AcDbLine
 62
2
  6
CONTINUOUS
 10
12.7486866155
 20
2.5920323691
 11
12.7486866155
 21
2.7168628511
  0
LINE
  5
3A8
100
AcDbEntity
  8
0
100
AcDbLine
 62
2
  6
CONTINUOUS
 10
12.7286866044
 20
2.3647862663
 11
12.7286866044
 21
2.4912273132
  0
LINE
  5
3A9
100
AcDbEntity
  8
0
100
AcDbLine
 62
2
  6
CONTINUOUS
 10
12.7286866044
 20
2.515977327
 11
12.7286866044
 21
2.5527601554
  0
LINE
  5
3AA
100
AcDbEntity
  8
0
100
AcDbLine
 62
2
  6
CONTINUOUS
 10
12.7286866044
 20
2.5920323691
 11
12.7286866044
 21
2.7159704147
  0
LINE
  5
3AB
100
AcDbEntity
  8
0
100
AcDbLine
 62
2
  6
CONTINUOUS
 10
12.7086865933
 20
2.3656787026
 11
12.7086865933
 21
2.4912273132
  0
LINE
  5
3AC
100
AcDbEntity
  8
0
100
AcDbLine
 62
2
  6
CONTINUOUS
 10
12.7086865933
 20
2.5920323691
 11
12.7086865933
 21
2.7150779784
  0
LINE
  5
3AD
100
AcDbEntity
  8
0
100
AcDbLine
 62
2
  6
CONTINUOUS
 10
12.6886865822
 20
2.366571139
 11
12.6886865822
 21
2.4912273132
  0
LINE
  5
3AE
100
AcDbEntity
  8
0
100
AcDbLine
 62
2
  6
CONTINUOUS
 10
12.6886865822
 20
2.515977327
 11
12.6886865822
 21
2.5672823554
  0
LINE
  5
3AF
100
AcDbEntity
  8
0
100
AcDbLine
 62
2
  6
CONTINUOUS
 10
12.6886865822
 20
2.5920323691
 11
12.6886865822
 21
2.714185542
  0
LINE
  5
3B0
100
AcDbEntity
  8
0
100
AcDbLine
 62
2
  6
CONTINUOUS
 10
12.6686865711
 20
2.3677104027
 11
12.6686865711
 21
2.7130462783
  0
LINE
  5
3B1
100
AcDbEntity
  8
0
100
AcDbLine
 62
2
  6
CONTINUOUS
 10
12.64868656
 20
2.3693682721
 11
12.64868656
 21
2.7113884089
  0
LINE
  5
3B2
100
AcDbEntity
  8
0
100
AcDbLine
 62
2
  6
CONTINUOUS
 10
12.6286865489
 20
2.3710261415
 11
12.6286865489
 21
2.4912273132
  0
LINE
  5
3B3
100
AcDbEntity
  8
0
100
AcDbLine
 62
2
  6
CONTINUOUS
 10
12.6286865489
 20
2.515977327
 11
12.6286865489
 21
2.7097305395
  0
LINE
  5
3B4
100
AcDbEntity
  8
0
100
AcDbLine
 62
2
  6
CONTINUOUS
 10
12.6086865378
 20
2.372684011
 11
12.6086865378
 21
2.4912273132
  0
LINE
  5
3B5
100
AcDbEntity
  8
0
100
AcDbLine
 62
2
  6
CONTINUOUS
 10
12.6086865378
 20
2.5351122279
 11
12.6086865378
 21
2.70807267
  0
LINE
  5
3B6
100
AcDbEntity
  8
0
100
AcDbLine
 62
2
  6
CONTINUOUS
 10
12.5886865267
 20
2.3743418804
 11
12.5886865267
 21
2.4912273132
  0
LINE
  5
3B7
100
AcDbEntity
  8
0
100
AcDbLine
 62
2
  6
CONTINUOUS
 10
12.5886865267
 20
2.5660172622
 11
12.5886865267
 21
2.7064148006
  0
LINE
  5
3B8
100
AcDbEntity
  8
0
100
AcDbLine
 62
2
  6
CONTINUOUS
 10
12.5686865156
 20
2.3759997498
 11
12.5686865156
 21
2.4912273132
  0
LINE
  5
3B9
100
AcDbEntity
  8
0
100
AcDbLine
 62
2
  6
CONTINUOUS
 10
12.5686865156
 20
2.5920323691
 11
12.5686865156
 21
2.7047569312
  0
LINE
  5
3BA
100
AcDbEntity
  8
0
100
AcDbLine
 62
2
  6
CONTINUOUS
 10
12.5486865045
 20
2.3777575277
 11
12.5486865045
 21
2.4912273132
  0
LINE
  5
3BB
100
AcDbEntity
  8
0
100
AcDbLine
 62
2
  6
CONTINUOUS
 10
12.5486865045
 20
2.515977327
 11
12.5486865045
 21
2.5275118824
  0
LINE
  5
3BC
100
AcDbEntity
  8
0
100
AcDbLine
 62
2
  6
CONTINUOUS
 10
12.5486865045
 20
2.5920323691
 11
12.5486865045
 21
2.7029991533
  0
LINE
  5
3BD
100
AcDbEntity
  8
0
100
AcDbLine
 62
2
  6
CONTINUOUS
 10
12.5286864935
 20
2.3802813811
 11
12.5286864935
 21
2.5296213345
  0
LINE
  5
3BE
100
AcDbEntity
  8
0
100
AcDbLine
 62
2
  6
CONTINUOUS
 10
12.5286864935
 20
2.5505713461
 11
12.5286864935
 21
2.5667383551
  0
LINE
  5
3BF
100
AcDbEntity
  8
0
100
AcDbLine
 62
2
  6
CONTINUOUS
 10
12.5286864935
 20
2.5920323691
 11
12.5286864935
 21
2.7004752999
  0
LINE
  5
3C0
100
AcDbEntity
  8
0
100
AcDbLine
 62
2
  6
CONTINUOUS
 10
12.5086864824
 20
2.3828052346
 11
12.5086864824
 21
2.4912273132
  0
LINE
  5
3C1
100
AcDbEntity
  8
0
100
AcDbLine
 62
2
  6
CONTINUOUS
 10
12.5086864824
 20
2.515977327
 11
12.5086864824
 21
2.5279667721
  0
LINE
  5
3C2
100
AcDbEntity
  8
0
100
AcDbLine
 62
2
  6
CONTINUOUS
 10
12.5086864824
 20
2.5868602074
 11
12.5086864824
 21
2.6979514464
  0
LINE
  5
3C3
100
AcDbEntity
  8
0
100
AcDbLine
 62
2
  6
CONTINUOUS
 10
12.4886864713
 20
2.385329088
 11
12.4886864713
 21
2.4912273132
  0
LINE
  5
3C4
100
AcDbEntity
  8
0
100
AcDbLine
 62
2
  6
CONTINUOUS
 10
12.4886864713
 20
2.5553401045
 11
12.4886864713
 21
2.695427593
  0
LINE
  5
3C5
100
AcDbEntity
  8
0
100
AcDbLine
 62
2
  6
CONTINUOUS
 10
12.4686864602
 20
2.3878529415
 11
12.4686864602
 21
2.4912273132
  0
LINE
  5
3C6
100
AcDbEntity
  8
0
100
AcDbLine
 62
2
  6
CONTINUOUS
 10
12.4686864602
 20
2.5238200015
 11
12.4686864602
 21
2.6929037395
  0
LINE
  5
3C7
100
AcDbEntity
  8
0
100
AcDbLine
 62
2
  6
CONTINUOUS
 10
12.4486864491
 20
2.390376795
 11
12.4486864491
 21
2.4912273132
  0
LINE
  5
3C8
100
AcDbEntity
  8
0
100
AcDbLine
 62
2
  6
CONTINUOUS
 10
12.4486864491
 20
2.515977327
 11
12.4486864491
 21
2.690379886
  0
LINE
  5
3C9
100
AcDbEntity
  8
0
100
AcDbLine
 62
2
  6
CONTINUOUS
 10
12.428686438
 20
2.3931794042
 11
12.428686438
 21
2.6875772768
  0
LINE
  5
3CA
100
AcDbEntity
  8
0
100
AcDbLine
 62
2
  6
CONTINUOUS
 10
12.4086864269
 20
2.3964643301
 11
12.4086864269
 21
2.5013773986
  0
LINE
  5
3CB
100
AcDbEntity
  8
0
100
AcDbLine
 62
2
  6
CONTINUOUS
 10
12.4086864269
 20
2.5325739971
 11
12.4086864269
 21
2.5537224311
  0
LINE
  5
3CC
100
AcDbEntity
  8
0
100
AcDbLine
 62
2
  6
CONTINUOUS
 10
12.4086864269
 20
2.5791473398
 11
12.4086864269
 21
2.6842923509
  0
LINE
  5
3CD
100
AcDbEntity
  8
0
100
AcDbLine
 62
2
  6
CONTINUOUS
 10
12.3886864158
 20
2.399749256
 11
12.3886864158
 21
2.4921022658
  0
LINE
  5
3CE
100
AcDbEntity
  8
0
100
AcDbLine
 62
2
  6
CONTINUOUS
 10
12.3886864158
 20
2.5895929958
 11
12.3886864158
 21
2.681007425
  0
LINE
  5
3CF
100
AcDbEntity
  8
0
100
AcDbLine
 62
2
  6
CONTINUOUS
 10
12.3686864047
 20
2.403451877
 11
12.3686864047
 21
2.4912273132
  0
LINE
  5
3D0
100
AcDbEntity
  8
0
100
AcDbLine
 62
2
  6
CONTINUOUS
 10
12.3686864047
 20
2.5920323691
 11
12.3686864047
 21
2.677304804
  0
LINE
  5
3D1
100
AcDbEntity
  8
0
100
AcDbLine
 62
2
  6
CONTINUOUS
 10
12.3486863936
 20
2.407324637
 11
12.3486863936
 21
2.4912273132
  0
LINE
  5
3D2
100
AcDbEntity
  8
0
100
AcDbLine
 62
2
  6
CONTINUOUS
 10
12.3486863936
 20
2.5920323691
 11
12.3486863936
 21
2.673432044
  0
LINE
  5
3D3
100
AcDbEntity
  8
0
100
AcDbLine
 62
2
  6
CONTINUOUS
 10
12.3286863825
 20
2.4113493968
 11
12.3286863825
 21
2.4912273132
  0
LINE
  5
3D4
100
AcDbEntity
  8
0
100
AcDbLine
 62
2
  6
CONTINUOUS
 10
12.3286863825
 20
2.515977327
 11
12.3286863825
 21
2.5333023366
  0
LINE
  5
3D5
100
AcDbEntity
  8
0
100
AcDbLine
 62
2
  6
CONTINUOUS
 10
12.3286863825
 20
2.5499573458
 11
12.3286863825
 21
2.5672823554
  0
LINE
  5
3D6
100
AcDbEntity
  8
0
100
AcDbLine
 62
2
  6
CONTINUOUS
 10
12.3286863825
 20
2.5920323691
 11
12.3286863825
 21
2.6694072842
  0
LINE
  5
3D7
100
AcDbEntity
  8
0
100
AcDbLine
 62
2
  6
CONTINUOUS
 10
12.3086863715
 20
2.4159005505
 11
12.3086863715
 21
2.4912273132
  0
LINE
  5
3D8
100
AcDbEntity
  8
0
100
AcDbLine
 62
2
  6
CONTINUOUS
 10
12.3086863715
 20
2.515977327
 11
12.3086863715
 21
2.5333023366
  0
LINE
  5
3D9
100
AcDbEntity
  8
0
100
AcDbLine
 62
2
  6
CONTINUOUS
 10
12.3086863715
 20
2.5499573458
 11
12.3086863715
 21
2.5672823554
  0
LINE
  5
3DA
100
AcDbEntity
  8
0
100
AcDbLine
 62
2
  6
CONTINUOUS
 10
12.3086863715
 20
2.5920323691
 11
12.3086863715
 21
2.6648561305
  0
LINE
  5
3DB
100
AcDbEntity
  8
0
100
AcDbLine
 62
2
  6
CONTINUOUS
 10
12.2886863604
 20
2.4204517041
 11
12.2886863604
 21
2.4912273132
  0
LINE
  5
3DC
100
AcDbEntity
  8
0
100
AcDbLine
 62
2
  6
CONTINUOUS
 10
12.2886863604
 20
2.5920323691
 11
12.2886863604
 21
2.6603049769
  0
LINE
  5
3DD
100
AcDbEntity
  8
0
100
AcDbLine
 62
2
  6
CONTINUOUS
 10
12.2686863493
 20
2.4257438218
 11
12.2686863493
 21
2.4912273132
  0
LINE
  5
3DE
100
AcDbEntity
  8
0
100
AcDbLine
 62
2
  6
CONTINUOUS
 10
12.2686863493
 20
2.5920323691
 11
12.2686863493
 21
2.6550128592
  0
LINE
  5
3DF
100
AcDbEntity
  8
0
100
AcDbLine
 62
2
  6
CONTINUOUS
 10
12.2486863382
 20
2.4310978667
 11
12.2486863382
 21
2.4912273132
  0
LINE
  5
3E0
100
AcDbEntity
  8
0
100
AcDbLine
 62
2
  6
CONTINUOUS
 10
12.2486863382
 20
2.5920323691
 11
12.2486863382
 21
2.6496588142
  0
LINE
  5
3E1
100
AcDbEntity
  8
0
100
AcDbLine
 62
2
  6
CONTINUOUS
 10
12.2286863271
 20
2.4372566433
 11
12.2286863271
 21
2.4912273132
  0
LINE
  5
3E2
100
AcDbEntity
  8
0
100
AcDbLine
 62
2
  6
CONTINUOUS
 10
12.2286863271
 20
2.515977327
 11
12.2286863271
 21
2.5672823554
  0
LINE
  5
3E3
100
AcDbEntity
  8
0
100
AcDbLine
 62
2
  6
CONTINUOUS
 10
12.2286863271
 20
2.5920323691
 11
12.2286863271
 21
2.6435000377
  0
LINE
  5
3E4
100
AcDbEntity
  8
0
100
AcDbLine
 62
2
  6
CONTINUOUS
 10
12.208686316
 20
2.443589771
 11
12.208686316
 21
2.4912273132
  0
LINE
  5
3E5
100
AcDbEntity
  8
0
100
AcDbLine
 62
2
  6
CONTINUOUS
 10
12.208686316
 20
2.515977327
 11
12.208686316
 21
2.5672823554
  0
LINE
  5
3E6
100
AcDbEntity
  8
0
100
AcDbLine
 62
2
  6
CONTINUOUS
 10
12.208686316
 20
2.5920323691
 11
12.208686316
 21
2.63716691
  0
LINE
  5
3E7
100
AcDbEntity
  8
0
100
AcDbLine
 62
2
  6
CONTINUOUS
 10
12.1886863049
 20
2.4510806436
 11
12.1886863049
 21
2.6296760373
  0
LINE
  5
3E8
100
AcDbEntity
  8
0
100
AcDbLine
 62
2
  6
CONTINUOUS
 10
12.1686862938
 20
2.4591016523
 11
12.1686862938
 21
2.6216550287
  0
LINE
  5
3E9
100
AcDbEntity
  8
0
100
AcDbLine
 62
2
  6
CONTINUOUS
 10
12.1486862827
 20
2.468314272
 11
12.1486862827
 21
2.612442409
  0
LINE
  5
3EA
100
AcDbEntity
  8
0
100
AcDbLine
 62
2
  6
CONTINUOUS
 10
12.1286862716
 20
2.4794932339
 11
12.1286862716
 21
2.601263447
  0
LINE
  5
3EB
100
AcDbEntity
  8
0
100
AcDbLine
 62
2
  6
CONTINUOUS
 10
12.1086862605
 20
2.4934150665
 11
12.1086862605
 21
2.5873416144
  0
LINE
  5
3EC
100
AcDbEntity
  8
0
100
AcDbLine
 62
2
  6
CONTINUOUS
 10
12.0886862494
 20
2.5144449553
 11
12.0886862494
 21
2.5663117257
  0
ENDBLK
  5
3ED
100
AcDbEntity
  8
0
  6
BYBLOCK
 62
0
100
AcDbBlockEnd
  0
BLOCK
  5
3EE
100
AcDbEntity
  8
0
100
AcDbBlockBegin
  2
_FILLED
 70
64
 10
0.0
 20
0.0
  3
_FILLED
  1

  0
SOLID
  5
3EF
100
AcDbEntity
  8
0
  6
BYBLOCK
 62
0
100
AcDbTrace
 10
0.0
 20
0.0
 11
-1.0
 21
0.1666666667
 12
-1.0
 22
-0.1666666667
 13
-1.0
 23
-0.1666666667
  0
ENDBLK
  5
3F0
100
AcDbEntity
  8
0
  6
BYBLOCK
 62
0
100
AcDbBlockEnd
  0
BLOCK
  5
3F1
100
AcDbEntity
  8
SCHEME_DIMS
100
AcDbBlockBegin
 62
2
  6
CONTINUOUS
  2
*D0
 70
65
 10
0.0
 20
0.0
  3
*D0
  1

  0
MTEXT
  5
3F2
100
AcDbEntity
  8
SCHEME_DIMS
100
AcDbMText
 62
2
  6
CONTINUOUS
  7
TEXTSTYLE_5
 71
1
 72
1
 10
6.2075571919
 20
8.8569930979
 30
0.0
 11
1.0
 21
0.0
 31
0.0
 44
0.9
  1
{\Fgdt;n}\Ftxt;50\P[1.97]
 40
0.1
 41
0.6
  0
LINE
  5
3F3
100
AcDbEntity
  8
SCHEME_DIMS
100
AcDbLine
 62
2
  6
CONTINUOUS
 10
5.7244527345
 20
8.5975489457
 11
4.9923178755
 21
7.9397264121
  0
LINE
  5
3F4
100
AcDbEntity
  8
SCHEME_DIMS
100
AcDbLine
 62
2
  6
CONTINUOUS
 10
4.9923178755
 20
7.9397264121
 11
5.9575571919
 21
8.8069930979
  0
LINE
  5
3F5
100
AcDbEntity
  8
SCHEME_DIMS
100
AcDbLine
 62
2
  6
CONTINUOUS
 10
5.9575571919
 20
8.8069930979
 11
6.1075571919
 21
8.8069930979
  0
LINE
  5
3F6
100
AcDbEntity
  8
SCHEME_DIMS
100
AcDbLine
 62
2
  6
CONTINUOUS
 10
4.2601830165
 20
7.2819038784
 11
4.9923178755
 21
7.9397264121
  0
INSERT
  5
3F7
100
AcDbEntity
  8
SCHEME_DIMS
100
AcDbBlockReference
 62
2
  6
CONTINUOUS
  2
_FILLED
 10
5.7244527345
 20
8.5975489457
 41
0.1875
 42
0.1875
 43
0.1875
 50
41.9396667864
  0
INSERT
  5
3F8
100
AcDbEntity
  8
SCHEME_DIMS
100
AcDbBlockReference
 62
2
  6
CONTINUOUS
  2
_FILLED
 10
4.2601830165
 20
7.2819038784
 41
0.1875
 42
0.1875
 43
0.1875
 50
221.9396667864
  0
ENDBLK
  5
3F9
100
AcDbEntity
  8
0
  6
BYBLOCK
 62
0
100
AcDbBlockEnd
  0
BLOCK
  5
3FA
100
AcDbEntity
  8
SCHEME_DIMS
100
AcDbBlockBegin
 62
2
  6
CONTINUOUS
  2
*D1
 70
65
 10
0.0
 20
0.0
  3
*D1
  1

  0
MTEXT
  5
3FB
100
AcDbEntity
  8
SCHEME_DIMS
100
AcDbMText
 62
2
  6
CONTINUOUS
  7
STANDARD
 71
2
 72
1
 10
3.458065907
 20
3.2124662335
 30
0.0
 11
1.0
 21
0.0
 31
0.0
 44
0.9
  1
14,8\P[.58]
 40
0.1
 41
0.5
  0
LINE
  5
3FC
100
AcDbEntity
  8
SCHEME_DIMS
100
AcDbLine
 62
2
  6
CONTINUOUS
 10
4.7264511629
 20
2.7961276508
 11
3.383065907
 21
2.7961276508
  0
LINE
  5
3FD
100
AcDbEntity
  8
SCHEME_DIMS
100
AcDbLine
 62
2
  6
CONTINUOUS
 10
4.4180068519
 20
3.3788048161
 11
3.383065907
 21
3.3788048161
  0
LINE
  5
3FE
100
AcDbEntity
  8
SCHEME_DIMS
100
AcDbLine
 62
2
  6
CONTINUOUS
 10
3.508065907
 20
2.7961276508
 11
3.508065907
 21
2.3961276508
  0
LINE
  5
3FF
100
AcDbEntity
  8
SCHEME_DIMS
100
AcDbLine
 62
2
  6
CONTINUOUS
 10
3.508065907
 20
3.3788048161
 11
3.508065907
 21
3.7788048161
  0
INSERT
  5
400
100
AcDbEntity
  8
SCHEME_DIMS
100
AcDbBlockReference
 62
2
  6
CONTINUOUS
  2
_FILLED
 10
3.508065907
 20
2.7961276508
 41
0.1875
 42
0.1875
 43
0.1875
 50
90.0
  0
INSERT
  5
401
100
AcDbEntity
  8
SCHEME_DIMS
100
AcDbBlockReference
 62
2
  6
CONTINUOUS
  2
_FILLED
 10
3.508065907
 20
3.3788048161
 41
0.1875
 42
0.1875
 43
0.1875
 50
270.0
  0
ENDBLK
  5
402
100
AcDbEntity
  8
0
  6
BYBLOCK
 62
0
100
AcDbBlockEnd
  0
BLOCK
  5
403
100
AcDbEntity
  8
SCHEME_DIMS
100
AcDbBlockBegin
 62
2
  6
CONTINUOUS
  2
*D2
 70
65
 10
0.0
 20
0.0
  3
*D2
  1

  0
MTEXT
  5
404
100
AcDbEntity
  8
SCHEME_DIMS
100
AcDbMText
 62
2
  6
CONTINUOUS
  7
STANDARD
 71
2
 72
1
 10
3.308065907
 20
4.9604977295
 30
0.0
 11
1.0
 21
0.0
 31
0.0
 44
0.9
  1
28\P[1.10]
 40
0.1
 41
0.6
  0
LINE
  5
405
100
AcDbEntity
  8
SCHEME_DIMS
100
AcDbLine
 62
2
  6
CONTINUOUS
 10
3.9849359857
 20
4.2843166272
 11
3.383065907
 21
4.2843166272
  0
LINE
  5
406
100
AcDbEntity
  8
SCHEME_DIMS
100
AcDbLine
 62
2
  6
CONTINUOUS
 10
4.5535327621
 20
5.3866788319
 11
3.383065907
 21
5.3866788319
  0
LINE
  5
407
100
AcDbEntity
  8
SCHEME_DIMS
100
AcDbLine
 62
2
  6
CONTINUOUS
 10
3.508065907
 20
4.2843166272
 11
3.508065907
 21
4.6104977295
  0
LINE
  5
408
100
AcDbEntity
  8
SCHEME_DIMS
100
AcDbLine
 62
2
  6
CONTINUOUS
 10
3.508065907
 20
5.3866788319
 11
3.508065907
 21
5.0604977295
  0
INSERT
  5
409
100
AcDbEntity
  8
SCHEME_DIMS
100
AcDbBlockReference
 62
2
  6
CONTINUOUS
  2
_FILLED
 10
3.508065907
 20
4.2843166272
 41
0.1875
 42
0.1875
 43
0.1875
 50
270.0
  0
INSERT
  5
40A
100
AcDbEntity
  8
SCHEME_DIMS
100
AcDbBlockReference
 62
2
  6
CONTINUOUS
  2
_FILLED
 10
3.508065907
 20
5.3866788319
 41
0.1875
 42
0.1875
 43
0.1875
 50
90.0
  0
ENDBLK
  5
40B
100
AcDbEntity
  8
0
  6
BYBLOCK
 62
0
100
AcDbBlockEnd
  0
BLOCK
  5
40C
100
AcDbEntity
  8
SCHEME_DIMS
100
AcDbBlockBegin
 62
2
  6
CONTINUOUS
  2
*D3
 70
65
 10
0.0
 20
0.0
  3
*D3
  1

  0
MTEXT
  5
40D
100
AcDbEntity
  8
SCHEME_DIMS
100
AcDbMText
 62
2
  6
CONTINUOUS
  7
STANDARD
 71
2
 72
1
 10
6.651569844
 20
4.507741824
 30
0.0
 11
1.0
 21
0.0
 31
0.0
 44
0.9
  1
51\P[2.01]
 40
0.1
 41
0.6
  0
LINE
  5
40E
100
AcDbEntity
  8
SCHEME_DIMS
100
AcDbLine
 62
2
  6
CONTINUOUS
 10
5.5666288991
 20
3.3788048161
 11
5.7401335708
 21
3.3788048161
  0
LINE
  5
40F
100
AcDbEntity
  8
SCHEME_DIMS
100
AcDbLine
 62
2
  6
CONTINUOUS
 10
5.8981394043
 20
3.3788048161
 11
6.976569844
 21
3.3788048161
  0
LINE
  5
410
100
AcDbEntity
  8
SCHEME_DIMS
100
AcDbLine
 62
2
  6
CONTINUOUS
 10
5.3548705723
 20
5.3866788319
 11
6.976569844
 21
5.3866788319
  0
LINE
  5
411
100
AcDbEntity
  8
SCHEME_DIMS
100
AcDbLine
 62
2
  6
CONTINUOUS
 10
6.851569844
 20
3.3788048161
 11
6.851569844
 21
4.157741824
  0
LINE
  5
412
100
AcDbEntity
  8
SCHEME_DIMS
100
AcDbLine
 62
2
  6
CONTINUOUS
 10
6.851569844
 20
5.3866788319
 11
6.851569844
 21
4.607741824
  0
INSERT
  5
413
100
AcDbEntity
  8
SCHEME_DIMS
100
AcDbBlockReference
 62
2
  6
CONTINUOUS
  2
_FILLED
 10
6.851569844
 20
3.3788048161
 41
0.1875
 42
0.1875
 43
0.1875
 50
270.0
  0
INSERT
  5
414
100
AcDbEntity
  8
SCHEME_DIMS
100
AcDbBlockReference
 62
2
  6
CONTINUOUS
  2
_FILLED
 10
6.851569844
 20
5.3866788319
 41
0.1875
 42
0.1875
 43
0.1875
 50
90.0
  0
ENDBLK
  5
415
100
AcDbEntity
  8
0
  6
BYBLOCK
 62
0
100
AcDbBlockEnd
  0
ENDSEC
  0
SECTION
  2
ENTITIES
  0
MTEXT
  5
416
100
AcDbEntity
  8
0
100
AcDbMText
 62
2
  6
CONTINUOUS
  7
TEXTSTYLE_2
 71
2
 72
1
 10
11.0287658475
 20
1.794867839
 30
0.0
 11
1.0
 21
0.0
 31
0.0
 44
0.9
  1
THIRD ANGLE PROJECTION
 40
0.1
 41
1.76
  0
MTEXT
  5
417
100
AcDbEntity
  8
0
100
AcDbMText
 62
2
  6
CONTINUOUS
  7
STANDARD
 71
1
 72
1
 10
12.88
 20
1.457
 30
0.0
 11
1.0
 21
0.0
 31
0.0
 44
0.9
  1
DRAWING NO.
 40
0.08
 41
0.88
  0
MTEXT
  5
418
100
AcDbEntity
  8
0
100
AcDbMText
 62
2
  6
CONTINUOUS
  7
TEXTSTYLE_3
 71
2
 72
1
 10
11.03
 20
2.516432
 30
0.0
 11
1.0
 21
0.0
 31
0.0
 44
0.9
  1
and is proprietary in general
 40
0.08
 41
1.972
  0
MTEXT
  5
419
100
AcDbEntity
  8
0
100
AcDbMText
 62
2
  6
CONTINUOUS
  7
TEXTSTYLE_3
 71
2
 72
1
 10
11.03
 20
2.396432
 30
0.0
 11
1.0
 21
0.0
 31
0.0
 44
0.9
  1
and in detail.  Its contents
 40
0.08
 41
1.904
  0
MTEXT
  5
41A
100
AcDbEntity
  8
0
100
AcDbMText
 62
2
  6
CONTINUOUS
  7
TEXTSTYLE_3
 71
2
 72
1
 10
11.03
 20
2.276432
 30
0.0
 11
1.0
 21
0.0
 31
0.0
 44
0.9
  1
shall not be revealed to
 40
0.08
 41
1.632
  0
MTEXT
  5
41B
100
AcDbEntity
  8
0
100
AcDbMText
 62
2
  6
CONTINUOUS
  7
TEXTSTYLE_3
 71
2
 72
1
 10
11.03
 20
2.156432
 30
0.0
 11
1.0
 21
0.0
 31
0.0
 44
0.9
  1
outside parties without
 40
0.08
 41
1.564
  0
MTEXT
  5
41C
100
AcDbEntity
  8
0
100
AcDbMText
 62
2
  6
CONTINUOUS
  7
TEXTSTYLE_3
 71
2
 72
1
 10
11.03
 20
2.036432
 30
0.0
 11
1.0
 21
0.0
 31
0.0
 44
0.9
  1
written consent of BANNER.
 40
0.08
 41
1.768
  0
MTEXT
  5
41D
100
AcDbEntity
  8
0
100
AcDbMText
 62
2
  6
CONTINUOUS
  7
TEXTSTYLE_2
 71
1
 72
1
 10
12.08
 20
2.217
 30
0.0
 11
1.0
 21
0.0
 31
0.0
 44
0.9
  1
TITLE
 40
0.1
 41
0.4
  0
MTEXT
  5
41E
100
AcDbEntity
  8
0
100
AcDbMText
 62
2
  6
CONTINUOUS
  7
STANDARD
 71
1
 72
1
 10
12.08
 20
1.457
 30
0.0
 11
1.0
 21
0.0
 31
0.0
 44
0.9
  1
SIZE
 40
0.08
 41
0.32
  0
MTEXT
  5
41F
100
AcDbEntity
  8
0
100
AcDbMText
 62
2
  6
CONTINUOUS
  7
STANDARD
 71
1
 72
1
 10
12.08
 20
1.087
 30
0.0
 11
1.0
 21
0.0
 31
0.0
 44
0.9
  1
SCALE
 40
0.08
 41
0.4
  0
MTEXT
  5
420
100
AcDbEntity
  8
0
100
AcDbMText
 62
2
  6
CONTINUOUS
  7
TEXTSTYLE_2
 71
2
 72
1
 10
12.5
 20
1.337
 30
0.0
 11
1.0
 21
0.0
 31
0.0
 44
0.9
  1
B
 40
0.1
 41
0.08
  0
MTEXT
  5
421
100
AcDbEntity
  8
0
100
AcDbMText
 62
2
  6
CONTINUOUS
  7
TEXTSTYLE_3
 71
2
 72
1
 10
11.03
 20
2.636432
 30
0.0
 11
1.0
 21
0.0
 31
0.0
 44
0.9
  1
of BANNER ENGINEERING CORP.
 40
0.08
 41
1.836
  0
MTEXT
  5
422
100
AcDbEntity
  8
0
100
AcDbMText
 62
2
  6
CONTINUOUS
  7
TEXTSTYLE_3
 71
2
 72
1
 10
11.03
 20
2.756432
 30
0.0
 11
1.0
 21
0.0
 31
0.0
 44
0.9
  1
This drawing is the property
 40
0.08
 41
1.904
  0
MTEXT
  5
423
100
AcDbEntity
  8
0
100
AcDbMText
 62
2
  6
CONTINUOUS
  7
TEXTSTYLE_2
 71
2
 72
1
 10
15.03
 20
2.4134
 30
0.0
 11
1.0
 21
0.0
 31
0.0
 44
0.9
  1
MINNEAPOLIS, MN 55440
 40
0.1
 41
1.68
  0
MTEXT
  5
424
100
AcDbEntity
  8
0
100
AcDbMText
 62
2
  6
CONTINUOUS
  7
STANDARD
 71
1
 72
1
 10
14.255
 20
1.087
 30
0.0
 11
1.0
 21
0.0
 31
0.0
 44
0.9
  1
SHEET
 40
0.08
 41
0.4
  0
MTEXT
  5
425
100
AcDbEntity
  8
0
100
AcDbMText
 62
2
  6
CONTINUOUS
  7
STANDARD
 71
1
 72
1
 10
15.63
 20
1.457
 30
0.0
 11
1.0
 21
0.0
 31
0.0
 44
0.9
  1
REV.
 40
0.08
 41
0.32
  0
MTEXT
  5
426
100
AcDbEntity
  8
0
100
AcDbMText
 62
2
  6
CONTINUOUS
  7
STANDARD
 71
3
 72
1
 10
16.38
 20
0.835443
 30
0.0
 11
1.0
 21
0.0
 31
0.0
 44
0.9
  1
PRO/E
 40
0.07
 41
0.35
  0
MTEXT
  5
427
100
AcDbEntity
  8
0
100
AcDbMText
 62
2
  6
CONTINUOUS
  7
TEXTSTYLE_4
 71
2
 72
1
 10
15.03
 20
2.751049
 30
0.0
 11
1.0
 21
0.0
 31
0.0
 44
0.9
  1
BANNER ENGINEERING CORP.
 40
0.12
 41
2.6496
  0
MTEXT
  5
428
100
AcDbEntity
  8
0
100
AcDbMText
 62
2
  6
CONTINUOUS
  7
TEXTSTYLE_2
 71
2
 72
1
 10
15.03
 20
2.5724
 30
0.0
 11
1.0
 21
0.0
 31
0.0
 44
0.9
  1
P.O. BOX 9414
 40
0.1
 41
1.04
  0
MTEXT
  5
429
100
AcDbEntity
  8
0
100
AcDbMText
 62
2
  6
CONTINUOUS
  7
TEXTSTYLE_2
 71
2
 72
1
 10
9.485
 20
10.312
 30
0.0
 11
1.0
 21
0.0
 31
0.0
 44
0.9
  1
4
 40
0.1
 41
0.08
  0
MTEXT
  5
42A
100
AcDbEntity
  8
0
100
AcDbMText
 62
2
  6
CONTINUOUS
  7
TEXTSTYLE_2
 71
2
 72
1
 10
11.455
 20
10.312
 30
0.0
 11
1.0
 21
0.0
 31
0.0
 44
0.9
  1
3
 40
0.1
 41
0.08
  0
MTEXT
  5
42B
100
AcDbEntity
  8
0
100
AcDbMText
 62
2
  6
CONTINUOUS
  7
TEXTSTYLE_2
 71
2
 72
1
 10
13.425
 20
10.312
 30
0.0
 11
1.0
 21
0.0
 31
0.0
 44
0.9
  1
2
 40
0.1
 41
0.08
  0
MTEXT
  5
42C
100
AcDbEntity
  8
0
100
AcDbMText
 62
2
  6
CONTINUOUS
  7
TEXTSTYLE_2
 71
2
 72
1
 10
15.395
 20
10.312
 30
0.0
 11
1.0
 21
0.0
 31
0.0
 44
0.9
  1
1
 40
0.1
 41
0.08
  0
MTEXT
  5
42D
100
AcDbEntity
  8
0
100
AcDbMText
 62
2
  6
CONTINUOUS
  7
TEXTSTYLE_2
 71
2
 72
1
 10
3.575
 20
10.312
 30
0.0
 11
1.0
 21
0.0
 31
0.0
 44
0.9
  1
7
 40
0.1
 41
0.08
  0
MTEXT
  5
42E
100
AcDbEntity
  8
0
100
AcDbMText
 62
2
  6
CONTINUOUS
  7
TEXTSTYLE_2
 71
2
 72
1
 10
5.545
 20
10.312
 30
0.0
 11
1.0
 21
0.0
 31
0.0
 44
0.9
  1
6
 40
0.1
 41
0.08
  0
MTEXT
  5
42F
100
AcDbEntity
  8
0
100
AcDbMText
 62
2
  6
CONTINUOUS
  7
TEXTSTYLE_2
 71
2
 72
1
 10
7.515
 20
10.312
 30
0.0
 11
1.0
 21
0.0
 31
0.0
 44
0.9
  1
5
 40
0.1
 41
0.08
  0
MTEXT
  5
430
100
AcDbEntity
  8
0
100
AcDbMText
 62
2
  6
CONTINUOUS
  7
TEXTSTYLE_2
 71
2
 72
1
 10
1.605
 20
10.312
 30
0.0
 11
1.0
 21
0.0
 31
0.0
 44
0.9
  1
8
 40
0.1
 41
0.08
  0
MTEXT
  5
431
100
AcDbEntity
  8
0
100
AcDbMText
 62
2
  6
CONTINUOUS
  7
TEXTSTYLE_2
 71
2
 72
1
 10
1.605
 20
0.787
 30
0.0
 11
1.0
 21
0.0
 31
0.0
 44
0.9
  1
8
 40
0.1
 41
0.08
  0
MTEXT
  5
432
100
AcDbEntity
  8
0
100
AcDbMText
 62
2
  6
CONTINUOUS
  7
TEXTSTYLE_2
 71
2
 72
1
 10
3.575
 20
0.787
 30
0.0
 11
1.0
 21
0.0
 31
0.0
 44
0.9
  1
7
 40
0.1
 41
0.08
  0
MTEXT
  5
433
100
AcDbEntity
  8
0
100
AcDbMText
 62
2
  6
CONTINUOUS
  7
TEXTSTYLE_2
 71
2
 72
1
 10
5.545
 20
0.787
 30
0.0
 11
1.0
 21
0.0
 31
0.0
 44
0.9
  1
6
 40
0.1
 41
0.08
  0
MTEXT
  5
434
100
AcDbEntity
  8
0
100
AcDbMText
 62
2
  6
CONTINUOUS
  7
TEXTSTYLE_2
 71
2
 72
1
 10
7.515
 20
0.787
 30
0.0
 11
1.0
 21
0.0
 31
0.0
 44
0.9
  1
5
 40
0.1
 41
0.08
  0
MTEXT
  5
435
100
AcDbEntity
  8
0
100
AcDbMText
 62
2
  6
CONTINUOUS
  7
TEXTSTYLE_2
 71
2
 72
1
 10
9.485
 20
0.787
 30
0.0
 11
1.0
 21
0.0
 31
0.0
 44
0.9
  1
4
 40
0.1
 41
0.08
  0
MTEXT
  5
436
100
AcDbEntity
  8
0
100
AcDbMText
 62
2
  6
CONTINUOUS
  7
TEXTSTYLE_2
 71
2
 72
1
 10
11.455
 20
0.787
 30
0.0
 11
1.0
 21
0.0
 31
0.0
 44
0.9
  1
3
 40
0.1
 41
0.08
  0
MTEXT
  5
437
100
AcDbEntity
  8
0
100
AcDbMText
 62
2
  6
CONTINUOUS
  7
TEXTSTYLE_2
 71
2
 72
1
 10
13.425
 20
0.787
 30
0.0
 11
1.0
 21
0.0
 31
0.0
 44
0.9
  1
2
 40
0.1
 41
0.08
  0
MTEXT
  5
438
100
AcDbEntity
  8
0
100
AcDbMText
 62
2
  6
CONTINUOUS
  7
TEXTSTYLE_2
 71
2
 72
1
 10
15.395
 20
0.787
 30
0.0
 11
1.0
 21
0.0
 31
0.0
 44
0.9
  1
1
 40
0.1
 41
0.08
  0
MTEXT
  5
439
100
AcDbEntity
  8
0
100
AcDbMText
 62
2
  6
CONTINUOUS
  7
TEXTSTYLE_2
 71
3
 72
1
 10
0.52
 20
4.3995
 30
0.0
 11
1.0
 21
0.0
 31
0.0
 44
0.9
  1
B
 40
0.1
 41
0.08
  0
MTEXT
  5
43A
100
AcDbEntity
  8
0
100
AcDbMText
 62
2
  6
CONTINUOUS
  7
TEXTSTYLE_2
 71
3
 72
1
 10
0.52
 20
2.0995
 30
0.0
 11
1.0
 21
0.0
 31
0.0
 44
0.9
  1
A
 40
0.1
 41
0.08
  0
MTEXT
  5
43B
100
AcDbEntity
  8
0
100
AcDbMText
 62
2
  6
CONTINUOUS
  7
TEXTSTYLE_2
 71
3
 72
1
 10
0.52
 20
8.9995
 30
0.0
 11
1.0
 21
0.0
 31
0.0
 44
0.9
  1
D
 40
0.1
 41
0.08
  0
MTEXT
  5
43C
100
AcDbEntity
  8
0
100
AcDbMText
 62
2
  6
CONTINUOUS
  7
TEXTSTYLE_2
 71
3
 72
1
 10
0.52
 20
6.6995
 30
0.0
 11
1.0
 21
0.0
 31
0.0
 44
0.9
  1
C
 40
0.1
 41
0.08
  0
MTEXT
  5
43D
100
AcDbEntity
  8
0
100
AcDbMText
 62
2
  6
CONTINUOUS
  7
TEXTSTYLE_2
 71
1
 72
1
 10
16.48
 20
8.9995
 30
0.0
 11
1.0
 21
0.0
 31
0.0
 44
0.9
  1
D
 40
0.1
 41
0.08
  0
MTEXT
  5
43E
100
AcDbEntity
  8
0
100
AcDbMText
 62
2
  6
CONTINUOUS
  7
TEXTSTYLE_2
 71
1
 72
1
 10
16.48
 20
6.6995
 30
0.0
 11
1.0
 21
0.0
 31
0.0
 44
0.9
  1
C
 40
0.1
 41
0.08
  0
MTEXT
  5
43F
100
AcDbEntity
  8
0
100
AcDbMText
 62
2
  6
CONTINUOUS
  7
TEXTSTYLE_2
 71
1
 72
1
 10
16.48
 20
4.3995
 30
0.0
 11
1.0
 21
0.0
 31
0.0
 44
0.9
  1
B
 40
0.1
 41
0.08
  0
MTEXT
  5
440
100
AcDbEntity
  8
0
100
AcDbMText
 62
2
  6
CONTINUOUS
  7
TEXTSTYLE_2
 71
1
 72
1
 10
16.48
 20
2.0995
 30
0.0
 11
1.0
 21
0.0
 31
0.0
 44
0.9
  1
A
 40
0.1
 41
0.08
  0
MTEXT
  5
441
100
AcDbEntity
  8
0
100
AcDbMText
 62
2
  6
CONTINUOUS
  7
STANDARD
 71
1
 72
1
 10
14.819264911
 20
1.0627941725
 30
0.0
 11
1.0
 21
0.0
 31
0.0
 44
0.9
  1
1 OF 1
 40
0.1
 41
0.6
  0
MTEXT
  5
442
100
AcDbEntity
  8
0
100
AcDbMText
 62
7
  6
CONTINUOUS
  7
STANDARD
 71
1
 72
1
 10
13.8911999818
 20
1.3747321586
 30
0.0
 11
1.0
 21
0.0
 31
0.0
 44
0.9
  1
158612
 40
0.12
 41
0.72
  0
MTEXT
  5
443
100
AcDbEntity
  8
0
100
AcDbMText
 62
2
  6
CONTINUOUS
  7
STANDARD
 71
1
 72
1
 10
12.644264911
 20
1.0627941725
 30
0.0
 11
1.0
 21
0.0
 31
0.0
 44
0.9
  1
1:1
 40
0.1
 41
0.3
  0
MTEXT
  5
444
100
AcDbEntity
  8
0
100
AcDbMText
 62
2
  6
CONTINUOUS
  7
STANDARD
 71
1
 72
1
 10
1.0597007627
 20
1.6202922458
 30
0.0
 11
1.0
 21
0.0
 31
0.0
 44
0.9
  1
NOTES:\P1. ALL DIMENSIONS ARE MILLIMETERS [INCHES] UNLESS OTHERWISE NOTED.
 40
0.1
 41
6.6
  0
INSERT
  5
445
100
AcDbEntity
  8
0
100
AcDbBlockReference
 62
2
  6
CONTINUOUS
  2
BANNER_LOGO_TITLEBLOCK_BL0
 10
12.9086867042
 20
2.5403783405
  0
DIMENSION
  5
446
100
AcDbEntity
  8
SCHEME_DIMS
100
AcDbDimension
 62
2
  6
CONTINUOUS
  2
*D0
 10
5.7244527345
 20
8.5975489457
 11
6.5742238585
 21
8.7319930979
 70
163
 71
1
 42
50.0
  1
<>
  3
DIMSTYLE_1
100
AcDbDiametricDimension
 15
4.2601830165
 25
7.2819038784
  0
DIMENSION
  5
447
100
AcDbEntity
  8
SCHEME_DIMS
100
AcDbDimension
 62
2
  6
CONTINUOUS
  2
*D1
 10
3.508065907
 20
3.3788048161
 11
3.383065907
 21
3.0874662335
 70
160
 71
2
 42
14.8
  3
DIMSTYLE_2
100
AcDbAlignedDimension
 13
4.7264511629
 23
2.7961276508
 14
4.4180068519
 24
3.3788048161
 50
90.0
100
AcDbRotatedDimension
  0
DIMENSION
  5
448
100
AcDbEntity
  8
SCHEME_DIMS
100
AcDbDimension
 62
2
  6
CONTINUOUS
  2
*D2
 10
3.508065907
 20
5.3866788319
 11
3.433065907
 21
4.8354977295
 70
160
 71
2
 42
28.0
  3
DIMSTYLE_2
100
AcDbAlignedDimension
 13
3.9849359857
 23
4.2843166272
 14
4.5535327621
 24
5.3866788319
 50
90.0
100
AcDbRotatedDimension
  0
DIMENSION
  5
449
100
AcDbEntity
  8
SCHEME_DIMS
100
AcDbDimension
 62
2
  6
CONTINUOUS
  2
*D3
 10
6.851569844
 20
5.3866788319
 11
6.776569844
 21
4.382741824
 70
160
 71
2
 42
51.0
  3
DIMSTYLE_2
100
AcDbAlignedDimension
 13
5.5666288991
 23
3.3788048161
 14
5.3548705723
 24
5.3866788319
 50
90.0
100
AcDbRotatedDimension
  0
LINE
  5
44A
100
AcDbEntity
  8
0
100
AcDbLine
 62
2
  6
CONTINUOUS
 10
16.38
 20
0.887
 11
12.03
 21
0.887
  0
LINE
  5
44B
100
AcDbEntity
  8
0
100
AcDbLine
 62
2
  6
CONTINUOUS
 10
16.38
 20
0.887
 11
16.38
 21
2.807
  0
LINE
  5
44C
100
AcDbEntity
  8
0
100
AcDbLine
 62
2
  6
CONTINUOUS
 10
16.38
 20
2.807
 11
12.03
 21
2.807
  0
LINE
  5
44D
100
AcDbEntity
  8
0
100
AcDbLine
 62
2
  6
CONTINUOUS
 10
12.03
 20
0.887
 11
12.03
 21
2.807
  0
MTEXT
  5
44E
100
AcDbEntity
  8
NOTES
100
AcDbMText
 62
7
  6
CONTINUOUS
  7
STANDARD
 71
2
 72
1
 10
16.155
 20
1.367
 30
0.0
 11
1.0
 21
0.0
 31
0.0
 44
0.9
  1
A
 40
0.1
 41
0.1
  0
MTEXT
  5
44F
100
AcDbEntity
  8
NOTES
100
AcDbMText
 62
7
  6
CONTINUOUS
  7
STANDARD
 71
2
 72
1
 10
14.205
 20
1.967
 30
0.0
 11
1.0
 21
0.0
 31
0.0
 44
0.9
  1
WL50S L Q QD\PWEB CAD DRAWINGS 2D/3D
 40
0.1
 41
2.2
  0
LEADER
  5
450
100
AcDbEntity
  8
NOTES
100
AcDbLeader
 62
2
  6
CONTINUOUS
  3
STANDARD
 71
1
 72
0
 73
0
 75
0
 40
0.1
 41
0.3
 76
3
 10
5.2138474036
 20
2.9121632129
 30
0.0
 10
5.7995855711
 20
2.4812721505
 30
0.0
 10
6.0495855711
 20
2.4812721505
 30
0.0
340
451
1001
ACAD
1000
DSTYLE
1002
{
1070
77
1070
0
1002
}
  0
MTEXT
  5
451
102
{ACAD_REACTORS
330
450
102
}
100
AcDbEntity
  8
NOTES
100
AcDbMText
 62
2
  6
CONTINUOUS
  7
STANDARD
 71
1
 72
1
 10
6.0495855711
 20
2.5312721505
 30
0.0
 11
1.0
 21
0.0
 31
0.0
 44
0.9
  1
M12
 40
0.1
 41
0.3
  0
LEADER
  5
452
100
AcDbEntity
  8
NOTES
100
AcDbLeader
 62
2
  6
CONTINUOUS
  3
STANDARD
 71
1
 72
0
 73
0
 75
0
 40
0.1
 41
0.3
 76
3
 10
5.5575773259
 20
3.5984899231
 30
0.0
 10
6.1323210255
 20
3.1168405163
 30
0.0
 10
6.3823210255
 20
3.1168405163
 30
0.0
340
453
1001
ACAD
1000
DSTYLE
1002
{
1070
77
1070
0
1002
}
  0
MTEXT
  5
453
102
{ACAD_REACTORS
330
452
102
}
100
AcDbEntity
  8
NOTES
100
AcDbMText
 62
2
  6
CONTINUOUS
  7
STANDARD
 71
1
 72
1
 10
6.3823210255
 20
3.1668405163
 30
0.0
 11
1.0
 21
0.0
 31
0.0
 44
0.9
  1
M30
 40
0.1
 41
0.3
  0
MTEXT
  5
454
100
AcDbEntity
  8
NOTES
100
AcDbMText
 62
2
  6
CONTINUOUS
  7
STANDARD
 71
2
 72
1
 10
13.044164667
 20
5.422708803
 30
0.0
 11
1.0
 21
0.0
 31
0.0
 44
0.9
  1
ISOMETRIC VIEW\P\H0.1;SCALE  1:1
 40
0.125
 41
1.75
  0
INSERT
  5
455
100
AcDbEntity
  8
SYMBOLS
100
AcDbBlockReference
 62
2
  6
CONTINUOUS
  2
CL_BL1
 10
6.2427566802
 20
7.9381177592
  0
INSERT
  5
456
100
AcDbEntity
  8
SYMBOLS
100
AcDbBlockReference
 62
2
  6
CONTINUOUS
  2
CL_BL2
 10
5.0416016561
 20
6.6837470062
  0
INSERT
  5
457
100
AcDbEntity
  8
SYMBOLS
100
AcDbBlockReference
 62
2
  6
CONTINUOUS
  2
CL_BL3
 10
5.0192765004
 20
2.5046771309
  0
LINE
  5
458
100
AcDbEntity
  8
0
100
AcDbLine
 62
2
  6
CONTINUOUS
 10
0.47
 20
5.586103
 11
0.47
 21
5.412897
  0
LINE
  5
459
100
AcDbEntity
  8
0
100
AcDbLine
 62
2
  6
CONTINUOUS
 10
0.62
 20
10.112
 11
0.62
 21
0.887
  0
LINE
  5
45A
100
AcDbEntity
  8
0
100
AcDbLine
 62
2
  6
CONTINUOUS
 10
2.59
 20
0.887
 11
2.59
 21
0.637
  0
LINE
  5
45B
100
AcDbEntity
  8
0
100
AcDbLine
 62
2
  6
CONTINUOUS
 10
2.59
 20
10.112
 11
2.59
 21
10.362
  0
LINE
  5
45C
100
AcDbEntity
  8
0
100
AcDbLine
 62
2
  6
CONTINUOUS
 10
8.413397
 20
0.737
 11
8.586603
 21
0.737
  0
LINE
  5
45D
100
AcDbEntity
  8
0
100
AcDbLine
 62
7
  6
CONTINUOUS
 10
11.1389508475
 20
1.425992839
 11
11.7453418475
 21
1.495385839
  0
LINE
  5
45E
100
AcDbEntity
  8
0
100
AcDbLine
 62
2
  6
CONTINUOUS
 10
0.62
 20
0.887
 11
16.38
 21
0.887
  0
LINE
  5
45F
100
AcDbEntity
  8
0
100
AcDbLine
 62
2
  6
CONTINUOUS
 10
12.03
 20
1.137
 11
16.38
 21
1.137
  0
LINE
  5
460
100
AcDbEntity
  8
0
100
AcDbLine
 62
7
  6
CONTINUOUS
 10
10.2121898475
 20
1.243294839
 11
10.4342808475
 21
1.243294839
  0
LINE
  5
461
100
AcDbEntity
  8
0
100
AcDbLine
 62
7
  6
CONTINUOUS
 10
10.4842808475
 20
1.243294839
 11
10.5842808475
 21
1.243294839
  0
LINE
  5
462
100
AcDbEntity
  8
0
100
AcDbLine
 62
7
  6
CONTINUOUS
 10
10.6342808475
 20
1.243294839
 11
10.8563718475
 21
1.243294839
  0
LINE
  5
463
100
AcDbEntity
  8
0
100
AcDbLine
 62
7
  6
CONTINUOUS
 10
11.0389508475
 20
1.243294839
 11
11.3171028475
 21
1.243294839
  0
LINE
  5
464
100
AcDbEntity
  8
0
100
AcDbLine
 62
7
  6
CONTINUOUS
 10
11.3671028475
 20
1.243294839
 11
11.5171888475
 21
1.243294839
  0
LINE
  5
465
100
AcDbEntity
  8
0
100
AcDbLine
 62
7
  6
CONTINUOUS
 10
11.5671888475
 20
1.243294839
 11
11.8453418475
 21
1.243294839
  0
LINE
  5
466
100
AcDbEntity
  8
0
100
AcDbLine
 62
7
  6
CONTINUOUS
 10
11.7453418475
 20
0.991203839
 11
11.1389508475
 21
1.060596839
  0
LINE
  5
467
100
AcDbEntity
  8
0
100
AcDbLine
 62
2
  6
CONTINUOUS
 10
4.56
 20
0.887
 11
4.56
 21
0.637
  0
LINE
  5
468
100
AcDbEntity
  8
0
100
AcDbLine
 62
2
  6
CONTINUOUS
 10
4.56
 20
10.112
 11
4.56
 21
10.362
  0
LINE
  5
469
100
AcDbEntity
  8
0
100
AcDbLine
 62
2
  6
CONTINUOUS
 10
0.47
 20
5.412897
 11
0.62
 21
5.4995
  0
LINE
  5
46A
100
AcDbEntity
  8
0
100
AcDbLine
 62
2
  6
CONTINUOUS
 10
12.03
 20
1.507
 11
16.38
 21
1.507
  0
LINE
  5
46B
100
AcDbEntity
  8
0
100
AcDbLine
 62
2
  6
CONTINUOUS
 10
10.03
 20
1.907
 11
12.03
 21
1.907
  0
LINE
  5
46C
100
AcDbEntity
  8
0
100
AcDbLine
 62
2
  6
CONTINUOUS
 10
0.62
 20
5.4995
 11
0.47
 21
5.586103
  0
LINE
  5
46D
100
AcDbEntity
  8
0
100
AcDbLine
 62
2
  6
CONTINUOUS
 10
12.03
 20
2.267
 11
16.38
 21
2.267
  0
LINE
  5
46E
100
AcDbEntity
  8
0
100
AcDbLine
 62
2
  6
CONTINUOUS
 10
8.5
 20
10.112
 11
8.586603
 21
10.262
  0
LINE
  5
46F
100
AcDbEntity
  8
0
100
AcDbLine
 62
2
  6
CONTINUOUS
 10
16.38
 20
2.807
 11
10.03
 21
2.807
  0
LINE
  5
470
100
AcDbEntity
  8
0
100
AcDbLine
 62
2
  6
CONTINUOUS
 10
0.62
 20
3.1995
 11
0.37
 21
3.1995
  0
LINE
  5
471
100
AcDbEntity
  8
0
100
AcDbLine
 62
2
  6
CONTINUOUS
 10
16.38
 20
3.1995
 11
16.63
 21
3.1995
  0
LINE
  5
472
100
AcDbEntity
  8
0
100
AcDbLine
 62
2
  6
CONTINUOUS
 10
8.586603
 20
0.737
 11
8.5
 21
0.887
  0
LINE
  5
473
100
AcDbEntity
  8
0
100
AcDbLine
 62
2
  6
CONTINUOUS
 10
6.53
 20
0.887
 11
6.53
 21
0.637
  0
LINE
  5
474
100
AcDbEntity
  8
0
100
AcDbLine
 62
2
  6
CONTINUOUS
 10
6.53
 20
10.112
 11
6.53
 21
10.362
  0
LINE
  5
475
100
AcDbEntity
  8
0
100
AcDbLine
 62
2
  6
CONTINUOUS
 10
8.5
 20
0.887
 11
8.5
 21
0.637
  0
LINE
  5
476
100
AcDbEntity
  8
0
100
AcDbLine
 62
2
  6
CONTINUOUS
 10
8.5
 20
10.112
 11
8.5
 21
10.362
  0
LINE
  5
477
100
AcDbEntity
  8
0
100
AcDbLine
 62
2
  6
CONTINUOUS
 10
0.62
 20
5.4995
 11
0.37
 21
5.4995
  0
LINE
  5
478
100
AcDbEntity
  8
0
100
AcDbLine
 62
2
  6
CONTINUOUS
 10
16.38
 20
5.4995
 11
16.63
 21
5.4995
  0
LINE
  5
479
100
AcDbEntity
  8
0
100
AcDbLine
 62
2
  6
CONTINUOUS
 10
10.03
 20
2.807
 11
10.03
 21
0.887
  0
LINE
  5
47A
100
AcDbEntity
  8
0
100
AcDbLine
 62
2
  6
CONTINUOUS
 10
10.47
 20
0.887
 11
10.47
 21
0.637
  0
LINE
  5
47B
100
AcDbEntity
  8
0
100
AcDbLine
 62
2
  6
CONTINUOUS
 10
10.47
 20
10.112
 11
10.47
 21
10.362
  0
LINE
  5
47C
100
AcDbEntity
  8
0
100
AcDbLine
 62
7
  6
CONTINUOUS
 10
10.5342808475
 20
1.143294839
 11
10.5342808475
 21
0.921203839
  0
LINE
  5
47D
100
AcDbEntity
  8
0
100
AcDbLine
 62
7
  6
CONTINUOUS
 10
10.5342808475
 20
1.193294839
 11
10.5342808475
 21
1.293294839
  0
LINE
  5
47E
100
AcDbEntity
  8
0
100
AcDbLine
 62
7
  6
CONTINUOUS
 10
10.5342808475
 20
1.343294839
 11
10.5342808475
 21
1.565385839
  0
LINE
  5
47F
100
AcDbEntity
  8
0
100
AcDbLine
 62
2
  6
CONTINUOUS
 10
8.5
 20
0.887
 11
8.413397
 21
0.737
  0
LINE
  5
480
100
AcDbEntity
  8
0
100
AcDbLine
 62
2
  6
CONTINUOUS
 10
0.62
 20
7.7995
 11
0.37
 21
7.7995
  0
LINE
  5
481
100
AcDbEntity
  8
0
100
AcDbLine
 62
2
  6
CONTINUOUS
 10
16.38
 20
7.7995
 11
16.63
 21
7.7995
  0
LINE
  5
482
100
AcDbEntity
  8
0
100
AcDbLine
 62
2
  6
CONTINUOUS
 10
8.413397
 20
10.262
 11
8.5
 21
10.112
  0
LINE
  5
483
100
AcDbEntity
  8
0
100
AcDbLine
 62
7
  6
CONTINUOUS
 10
11.1389508475
 20
1.060596839
 11
11.1389508475
 21
1.425992839
  0
LINE
  5
484
100
AcDbEntity
  8
0
100
AcDbLine
 62
7
  6
CONTINUOUS
 10
11.7453418475
 20
1.495385839
 11
11.7453418475
 21
0.991203839
  0
LINE
  5
485
100
AcDbEntity
  8
0
100
AcDbLine
 62
1
  6
CONTINUOUS
 10
12.03
 20
2.807
 11
12.03
 21
0.887
  0
LINE
  5
486
100
AcDbEntity
  8
0
100
AcDbLine
 62
2
  6
CONTINUOUS
 10
12.44
 20
0.887
 11
12.44
 21
0.637
  0
LINE
  5
487
100
AcDbEntity
  8
0
100
AcDbLine
 62
2
  6
CONTINUOUS
 10
12.44
 20
10.112
 11
12.44
 21
10.362
  0
LINE
  5
488
100
AcDbEntity
  8
0
100
AcDbLine
 62
2
  6
CONTINUOUS
 10
16.53
 20
5.586103
 11
16.38
 21
5.4995
  0
LINE
  5
489
100
AcDbEntity
  8
0
100
AcDbLine
 62
2
  6
CONTINUOUS
 10
16.38
 20
5.4995
 11
16.53
 21
5.412897
  0
LINE
  5
48A
100
AcDbEntity
  8
0
100
AcDbLine
 62
2
  6
CONTINUOUS
 10
12.83
 20
1.507
 11
12.83
 21
1.137
  0
LINE
  5
48B
100
AcDbEntity
  8
0
100
AcDbLine
 62
2
  6
CONTINUOUS
 10
16.38
 20
10.112
 11
0.62
 21
10.112
  0
LINE
  5
48C
100
AcDbEntity
  8
0
100
AcDbLine
 62
2
  6
CONTINUOUS
 10
8.586603
 20
10.262
 11
8.413397
 21
10.262
  0
LINE
  5
48D
100
AcDbEntity
  8
0
100
AcDbLine
 62
2
  6
CONTINUOUS
 10
14.205
 20
1.137
 11
14.205
 21
0.887
  0
LINE
  5
48E
100
AcDbEntity
  8
0
100
AcDbLine
 62
2
  6
CONTINUOUS
 10
14.41
 20
0.887
 11
14.41
 21
0.637
  0
LINE
  5
48F
100
AcDbEntity
  8
0
100
AcDbLine
 62
2
  6
CONTINUOUS
 10
14.41
 20
10.112
 11
14.41
 21
10.362
  0
LINE
  5
490
100
AcDbEntity
  8
0
100
AcDbLine
 62
2
  6
CONTINUOUS
 10
15.58
 20
1.507
 11
15.58
 21
1.137
  0
LINE
  5
491
100
AcDbEntity
  8
0
100
AcDbLine
 62
2
  6
CONTINUOUS
 10
16.38
 20
0.887
 11
16.38
 21
10.112
  0
LINE
  5
492
100
AcDbEntity
  8
0
100
AcDbLine
 62
2
  6
CONTINUOUS
 10
16.53
 20
5.412897
 11
16.53
 21
5.586103
  0
LINE
  5
493
100
AcDbEntity
  8
0
100
AcDbLine
 62
7
  6
CONTINUOUS
 10
4.7889511629
 20
2.7961276508
 11
5.1964314779
 21
2.7961276508
  0
LWPOLYLINE
  5
494
100
AcDbEntity
  8
0
100
AcDbPolyline
 62
7
  6
CONTINUOUS
 90
8
 70
0
 10
4.7620086665
 20
2.8562165571
 10
4.7715230779
 20
2.8572564406
 10
4.7869745986
 20
2.8582884261
 10
4.8078769172
 20
2.8593153102
 10
4.8341088425
 20
2.8603559524
 10
4.865013642
 20
2.861406477
 10
4.899341219
 20
2.8624523948
 10
4.9357232809
 20
2.8634833862
  0
LWPOLYLINE
  5
495
100
AcDbEntity
  8
0
100
AcDbPolyline
 62
7
  6
CONTINUOUS
 90
8
 70
0
 10
5.2233780557
 20
2.9151732688
 10
5.2137992658
 20
2.914127753
 10
5.1981174118
 20
2.9130843997
 10
5.1771012143
 20
2.9120561934
 10
5.1512376514
 20
2.9110318898
 10
5.1207793927
 20
2.9099958165
 10
5.0868156057
 20
2.9089594068
 10
5.0506342621
 20
2.9079327209
  0
LWPOLYLINE
  5
496
100
AcDbEntity
  8
0
100
AcDbPolyline
 62
7
  6
CONTINUOUS
 90
5
 70
0
 10
4.8061784215
 20
2.8354977295
 10
4.8258173489
 20
2.8361007003
 10
4.8502134351
 20
2.8367032713
 10
4.8787031155
 20
2.8373054389
 10
4.91050571
 20
2.8379071737
  0
LWPOLYLINE
  5
497
100
AcDbEntity
  8
0
100
AcDbPolyline
 62
7
  6
CONTINUOUS
 90
10
 70
0
 10
4.9578707557
 20
2.8846430287
 10
5.0286151556
 20
2.8867797808
 10
5.0629373873
 20
2.8878481569
 10
5.0952223655
 20
2.8889165329
 10
5.1245337717
 20
2.889984909
 10
5.1500215262
 20
2.8910532851
 10
5.1709464413
 20
2.8921216611
 10
5.1867016596
 20
2.8931900372
 10
5.1968302532
 20
2.8942584133
 10
5.200982467
 20
2.8952814969
  0
LWPOLYLINE
  5
498
100
AcDbEntity
  8
0
100
AcDbPolyline
 62
7
  6
CONTINUOUS
 90
11
 70
0
 10
4.9526397075
 20
2.8451131141
 10
5.0233659372
 20
2.8472498663
 10
5.0579084244
 20
2.8483182423
 10
5.0905595064
 20
2.8493866184
 10
5.1203722472
 20
2.8504549945
 10
5.1464820274
 20
2.8515233705
 10
5.1681316196
 20
2.8525917466
 10
5.1846931495
 20
2.8536601227
 10
5.1956863049
 20
2.8547284988
 10
5.200792266
 20
2.8557968748
 10
5.200982467
 20
2.8559114182
  0
LWPOLYLINE
  5
499
100
AcDbEntity
  8
0
100
AcDbPolyline
 62
7
  6
CONTINUOUS
 90
8
 70
0
 10
5.0515198921
 20
2.8685871475
 10
5.0878034386
 20
2.8696182706
 10
5.1215186035
 20
2.8706494401
 10
5.1517531449
 20
2.8716806265
 10
5.1776887652
 20
2.8727117815
 10
5.1986248226
 20
2.8737428899
 10
5.2139972214
 20
2.8747740218
 10
5.2233902245
 20
2.8758051785
  0
LWPOLYLINE
  5
49A
100
AcDbEntity
  8
0
100
AcDbPolyline
 62
7
  6
CONTINUOUS
 90
9
 70
0
 10
5.050133089
 20
2.8665802816
 10
5.0864629715
 20
2.8676105066
 10
5.1207566702
 20
2.8686565062
 10
5.1516132735
 20
2.8697070121
 10
5.177784049
 20
2.8707474528
 10
5.198679804
 20
2.8717774961
 10
5.2140632615
 20
2.8728109994
 10
5.223405743
 20
2.8738392158
 10
5.2263949592
 20
2.8746399345
  0
LWPOLYLINE
  5
49B
100
AcDbEntity
  8
0
100
AcDbPolyline
 62
7
  6
CONTINUOUS
 90
9
 70
0
 10
5.0496407885
 20
2.9059367566
 10
5.0860134295
 20
2.9069674431
 10
5.1203304015
 20
2.9080129447
 10
5.1512305399
 20
2.9090631267
 10
5.1774636281
 20
2.9101035053
 10
5.1983647275
 20
2.9111297904
 10
5.2138474036
 20
2.9121632129
 10
5.2233731737
 20
2.9132039682
 10
5.2263949592
 20
2.9140100132
  0
LWPOLYLINE
  5
49C
100
AcDbEntity
  8
0
100
AcDbPolyline
 62
7
  6
CONTINUOUS
 90
9
 70
0
 10
4.9352118907
 20
2.9048078373
 10
4.8990964137
 20
2.9037838217
 10
4.8651304586
 20
2.9027487948
 10
4.8344464142
 20
2.9017068305
 10
4.8082955602
 20
2.9006721649
 10
4.7872645246
 20
2.8996433033
 10
4.7715822794
 20
2.8985998994
 10
4.7620041812
 20
2.8975544078
 10
4.7589876816
 20
2.8967492254
  0
LINE
  5
49D
100
AcDbEntity
  8
0
100
AcDbLine
 62
7
  6
CONTINUOUS
 10
4.9357232809
 20
2.8634833862
 11
5.050133089
 21
2.8665802816
  0
LINE
  5
49E
100
AcDbEntity
  8
0
100
AcDbLine
 62
7
  6
CONTINUOUS
 10
4.9372401463
 20
2.8654937602
 11
5.0515198921
 21
2.8685871475
  0
LINE
  5
49F
100
AcDbEntity
  8
0
100
AcDbLine
 62
7
  6
CONTINUOUS
 10
4.9351904043
 20
2.9028387394
 11
5.0496407885
 21
2.9059367566
  0
LINE
  5
4A0
100
AcDbEntity
  8
0
100
AcDbLine
 62
7
  6
CONTINUOUS
 10
5.0506342621
 20
2.9079327209
 11
4.9352118907
 21
2.9048078373
  0
LWPOLYLINE
  5
4A1
100
AcDbEntity
  8
0
100
AcDbPolyline
 62
7
  6
CONTINUOUS
 90
8
 70
0
 10
5.0867769769
 20
2.8409095166
 10
5.1186232079
 20
2.8415087749
 10
5.1471490509
 20
2.8421076311
 10
5.1715564341
 20
2.8427060658
 10
5.1911602705
 20
2.8433040807
 10
5.2054065608
 20
2.8439016991
 10
5.2138861007
 20
2.8444989097
 10
5.2163468379
 20
2.844979936
  0
LWPOLYLINE
  5
4A2
100
AcDbEntity
  8
0
100
AcDbPolyline
 62
7
  6
CONTINUOUS
 90
4
 70
0
 10
4.91050571
 20
2.8379071737
 10
4.9804873161
 20
2.8391093558
 10
5.0167385349
 20
2.8397098254
 10
5.0867769769
 20
2.8409095166
  0
LINE
  5
4A3
100
AcDbEntity
  8
0
100
AcDbLine
 62
7
  6
CONTINUOUS
 10
5.2068606169
 20
2.8354977295
 11
4.7827132285
 21
2.8354977295
  0
LWPOLYLINE
  5
4A4
100
AcDbEntity
  8
0
100
AcDbPolyline
 62
7
  6
CONTINUOUS
 90
9
 70
0
 10
4.7844001738
 20
2.8367375842
 10
4.7877430598
 20
2.8376344817
 10
4.7971844215
 20
2.8387028577
 10
4.8122958105
 20
2.8397712338
 10
4.8326389713
 20
2.8408396099
 10
4.8576239181
 20
2.8419079859
 10
4.8865260457
 20
2.842976362
 10
4.9185071439
 20
2.8440447381
 10
4.9526397075
 20
2.8451131141
  0
LWPOLYLINE
  5
4A5
100
AcDbEntity
  8
0
100
AcDbPolyline
 62
7
  6
CONTINUOUS
 90
9
 70
0
 10
4.7589876816
 20
2.8573791466
 10
4.7625888429
 20
2.8582757708
 10
4.7725356999
 20
2.859306887
 10
4.7884311455
 20
2.8603380198
 10
4.8098453144
 20
2.861369141
 10
4.8362005617
 20
2.8624002909
 10
4.8667851976
 20
2.8634314713
 10
4.9007716477
 20
2.8644626398
 10
4.9372401463
 20
2.8654937602
  0
LWPOLYLINE
  5
4A6
100
AcDbEntity
  8
0
100
AcDbPolyline
 62
7
  6
CONTINUOUS
 90
9
 70
0
 10
4.7844001738
 20
2.8761076629
 10
4.7887822044
 20
2.8771643962
 10
4.7990933777
 20
2.8782327723
 10
4.8150192153
 20
2.8793011483
 10
4.8360978415
 20
2.8803695244
 10
4.8617179406
 20
2.8814379005
 10
4.891136487
 20
2.8825062765
 10
4.9235002935
 20
2.8835746526
 10
4.9578707557
 20
2.8846430287
  0
LWPOLYLINE
  5
4A7
100
AcDbEntity
  8
0
100
AcDbPolyline
 62
7
  6
CONTINUOUS
 90
6
 70
0
 10
4.7617035828
 20
2.9742757739
 10
4.770382171
 20
2.9752704445
 10
4.7846399374
 20
2.9762644658
 10
4.8038322891
 20
2.9772453164
 10
4.8275389618
 20
2.9782222327
 10
4.8552328795
 20
2.9791985169
  0
LWPOLYLINE
  5
4A8
100
AcDbEntity
  8
0
100
AcDbPolyline
 62
7
  6
CONTINUOUS
 90
8
 70
0
 10
5.2236717439
 20
2.9545924471
 10
5.2149718956
 20
2.9535965651
 10
5.2006818721
 20
2.9526014417
 10
5.1814362834
 20
2.951618979
 10
5.1576662895
 20
2.9506405325
 10
5.1298201006
 20
2.9496600468
 10
5.0987958744
 20
2.9486847551
 10
5.0651876999
 20
2.9477089404
  0
LWPOLYLINE
  5
4A9
100
AcDbEntity
  8
0
100
AcDbPolyline
 62
7
  6
CONTINUOUS
 90
8
 70
0
 10
4.7619725977
 20
2.8955807349
 10
4.7713100876
 20
2.8966088841
 10
4.786701419
 20
2.8976430796
 10
4.8075940161
 20
2.8986730026
 10
4.8337525046
 20
2.8997130279
 10
4.8645951402
 20
2.9007631624
 10
4.8988759147
 20
2.9018088695
 10
4.9351904043
 20
2.9028387394
  0
LWPOLYLINE
  5
4AA
100
AcDbEntity
  8
0
100
AcDbPolyline
 62
7
  6
CONTINUOUS
 90
8
 70
0
 10
5.2234003367
 20
3.0332871486
 10
5.2140466676
 20
3.0322584396
 10
5.1986732091
 20
3.0312259418
 10
5.1777743282
 20
3.0301958455
 10
5.1515905783
 20
3.0291550021
 10
5.1207185284
 20
3.0281041038
 10
5.0864084468
 20
3.0270577308
 10
5.0500589828
 20
3.0260270522
  0
LWPOLYLINE
  5
4AB
100
AcDbEntity
  8
0
100
AcDbPolyline
 62
7
  6
CONTINUOUS
 90
8
 70
0
 10
5.2234128091
 20
2.9939191151
 10
5.2139255857
 20
2.9928783278
 10
5.1983518376
 20
2.9918377262
 10
5.1774078014
 20
2.9908097271
 10
5.1513009073
 20
2.9897743533
 10
5.1205829972
 20
2.9887296866
 10
5.0864917817
 20
2.9876900894
 10
5.0503190284
 20
2.9866641617
  0
LWPOLYLINE
  5
4AC
100
AcDbEntity
  8
0
100
AcDbPolyline
 62
7
  6
CONTINUOUS
 90
8
 70
0
 10
4.7620041812
 20
2.9349559826
 10
4.7715822794
 20
2.9360014742
 10
4.7872645246
 20
2.9370448781
 10
4.8082955602
 20
2.9380737397
 10
4.8344464142
 20
2.9391084053
 10
4.8651304586
 20
2.9401503696
 10
4.8990964137
 20
2.9411853965
 10
4.9352118907
 20
2.9422094121
  0
LWPOLYLINE
  5
4AD
100
AcDbEntity
  8
0
100
AcDbPolyline
 62
7
  6
CONTINUOUS
 90
7
 70
0
 10
4.8552328795
 20
2.9417969421
 10
4.8275389618
 20
2.9408206579
 10
4.8038322891
 20
2.9398437416
 10
4.7846399374
 20
2.938862891
 10
4.770382171
 20
2.9378688697
 10
4.7617035828
 20
2.9368741991
 10
4.7589876816
 20
2.9361193041
  0
LWPOLYLINE
  5
4AE
100
AcDbEntity
  8
0
100
AcDbPolyline
 62
7
  6
CONTINUOUS
 90
3
 70
0
 10
4.8701589223
 20
2.9604977295
 10
4.9006724845
 20
2.9615701235
 10
4.9338748081
 20
2.9626425174
  0
LWPOLYLINE
  5
4AF
100
AcDbEntity
  8
0
100
AcDbPolyline
 62
7
  6
CONTINUOUS
 90
9
 70
0
 10
5.0496297409
 20
3.0055382748
 10
5.0829519439
 20
3.0066106688
 10
5.1136367598
 20
3.0076830627
 10
5.1407875882
 20
3.0087554566
 10
5.1636110902
 20
3.0098278506
 10
5.1814403704
 20
3.0109002445
 10
5.1937544629
 20
3.0119726384
 10
5.2001935536
 20
3.0130450324
 10
5.200982467
 20
3.0133917331
  0
LWPOLYLINE
  5
4B0
100
AcDbEntity
  8
0
100
AcDbPolyline
 62
7
  6
CONTINUOUS
 90
9
 70
0
 10
5.0396914633
 20
2.9658596992
 10
5.0735947204
 20
2.9669320931
 10
5.1051340057
 20
2.9680044871
 10
5.1333877511
 20
2.969076881
 10
5.1575303911
 20
2.9701492749
 10
5.1768564855
 20
2.9712216689
 10
5.1908013317
 20
2.9722940628
 10
5.1989574658
 20
2.9733664568
 10
5.200982467
 20
2.9740216544
  0
LWPOLYLINE
  5
4B1
100
AcDbEntity
  8
0
100
AcDbPolyline
 62
7
  6
CONTINUOUS
 90
3
 70
0
 10
4.8552328795
 20
2.9791985169
 10
4.8862860402
 20
2.9801756746
 10
4.9199342997
 20
2.9811531876
  0
LWPOLYLINE
  5
4B2
100
AcDbEntity
  8
0
100
AcDbPolyline
 62
7
  6
CONTINUOUS
 90
9
 70
0
 10
5.0338409998
 20
2.9263096953
 10
5.0679206441
 20
2.9273780714
 10
5.0998185121
 20
2.9284464475
 10
5.1286095121
 20
2.9295148235
 10
5.1534586571
 20
2.9305831996
 10
5.1736452803
 20
2.9316515757
 10
5.1885839356
 20
2.9327199517
 10
5.1978413773
 20
2.9337883278
 10
5.200982467
 20
2.9346515757
  0
LINE
  5
4B3
100
AcDbEntity
  8
0
100
AcDbLine
 62
7
  6
CONTINUOUS
 10
4.9285384627
 20
2.9231045671
 11
5.0338409998
 21
2.9263096953
  0
LINE
  5
4B4
100
AcDbEntity
  8
0
100
AcDbLine
 62
7
  6
CONTINUOUS
 10
4.9338748081
 20
2.9626425174
 11
5.0396914633
 21
2.9658596992
  0
LINE
  5
4B5
100
AcDbEntity
  8
0
100
AcDbLine
 62
7
  6
CONTINUOUS
 10
4.9437886495
 20
3.002321093
 11
5.0496297409
 21
3.0055382748
  0
LWPOLYLINE
  5
4B6
100
AcDbEntity
  8
0
100
AcDbPolyline
 62
7
  6
CONTINUOUS
 90
3
 70
0
 10
4.9199342997
 20
2.9437516128
 10
4.8862860402
 20
2.9427740998
 10
4.8552328795
 20
2.9417969421
  0
LWPOLYLINE
  5
4B7
100
AcDbEntity
  8
0
100
AcDbPolyline
 62
7
  6
CONTINUOUS
 90
9
 70
0
 10
5.0651876999
 20
2.9851105152
 10
5.0987958744
 20
2.9860863299
 10
5.1298201006
 20
2.9870616216
 10
5.1576662895
 20
2.9880421073
 10
5.1814362834
 20
2.9890205538
 10
5.2006818721
 20
2.9900030165
 10
5.2149718956
 20
2.9909981399
 10
5.2236717439
 20
2.9919940219
 10
5.2263949592
 20
2.9927501707
  0
LWPOLYLINE
  5
4B8
100
AcDbEntity
  8
0
100
AcDbPolyline
 62
7
  6
CONTINUOUS
 90
9
 70
0
 10
5.0506342621
 20
2.9453342957
 10
5.0868156057
 20
2.9463609816
 10
5.1207793927
 20
2.9473973914
 10
5.1512376514
 20
2.9484334646
 10
5.1771012143
 20
2.9494577682
 10
5.1981174118
 20
2.9504859745
 10
5.2137992658
 20
2.9515293278
 10
5.2233780557
 20
2.9525748436
 10
5.2263949592
 20
2.953380092
  0
LWPOLYLINE
  5
4B9
100
AcDbEntity
  8
0
100
AcDbPolyline
 62
7
  6
CONTINUOUS
 90
9
 70
0
 10
4.9349510421
 20
2.9835407834
 10
4.8987647266
 20
2.9825142782
 10
4.8647364715
 20
2.9814763489
 10
4.8341697145
 20
2.9804369113
 10
4.8082364519
 20
2.9794097467
 10
4.7872375641
 20
2.9783819488
 10
4.7715699719
 20
2.9773390441
 10
4.7620010946
 20
2.9762940612
 10
4.7589876816
 20
2.9754893828
  0
LINE
  5
4BA
100
AcDbEntity
  8
0
100
AcDbLine
 62
7
  6
CONTINUOUS
 10
5.0651876999
 20
2.9477089404
 11
4.9199342997
 21
2.9437516128
  0
LINE
  5
4BB
100
AcDbEntity
  8
0
100
AcDbLine
 62
7
  6
CONTINUOUS
 10
4.9199342997
 20
2.9811531876
 11
5.0651876999
 21
2.9851105152
  0
LINE
  5
4BC
100
AcDbEntity
  8
0
100
AcDbLine
 62
7
  6
CONTINUOUS
 10
4.9352118907
 20
2.9422094121
 11
5.0506342621
 21
2.9453342957
  0
LINE
  5
4BD
100
AcDbEntity
  8
0
100
AcDbLine
 62
7
  6
CONTINUOUS
 10
5.0503190284
 20
2.9866641617
 11
4.9349510421
 21
2.9835407834
  0
LINE
  5
4BE
100
AcDbEntity
  8
0
100
AcDbLine
 62
7
  6
CONTINUOUS
 10
4.7598557251
 20
2.8543152138
 11
4.7841560253
 21
2.8364063226
  0
LINE
  5
4BF
100
AcDbEntity
  8
0
100
AcDbLine
 62
7
  6
CONTINUOUS
 10
4.7589876816
 20
2.8943249738
 11
4.7841560253
 21
2.8757764014
  0
LINE
  5
4C0
100
AcDbEntity
  8
0
100
AcDbLine
 62
7
  6
CONTINUOUS
 10
4.7589876816
 20
2.9336950526
 11
4.7841560253
 21
2.9151464801
  0
LINE
  5
4C1
100
AcDbEntity
  8
0
100
AcDbLine
 62
7
  6
CONTINUOUS
 10
4.7598557251
 20
2.8543152138
 11
4.7588330527
 21
2.8551826824
  0
LWPOLYLINE
  5
4C2
100
AcDbEntity
  8
0
100
AcDbPolyline
 62
7
  6
CONTINUOUS
 90
10
 70
0
 10
4.008065907
 20
4.3236867059
 10
4.0085519573
 20
4.3154238499
 10
4.0100101084
 20
4.3081330945
 10
4.0124403602
 20
4.3018144399
 10
4.0158427127
 20
4.296467886
 10
4.0202171658
 20
4.2920934328
 10
4.0255637198
 20
4.2886910804
 10
4.0318823744
 20
4.2862608286
 10
4.0391731297
 20
4.2848026775
 10
4.0474359857
 20
4.2843166272
  0
LINE
  5
4C3
100
AcDbEntity
  8
02___PRT_ALL_AXES
100
AcDbLine
 62
7
  6
CONTINUOUS
 10
4.008065907
 20
4.756757572
 11
4.008065907
 21
4.3236867059
  0
LINE
  5
4C4
100
AcDbEntity
  8
AXIS
100
AcDbLine
 62
7
  6
CONTINUOUS
 10
4.008065907
 20
4.756757572
 11
4.0121126866
 21
5.2204725815
  0
LWPOLYLINE
  5
4C5
100
AcDbEntity
  8
0
100
AcDbPolyline
 62
7
  6
CONTINUOUS
 90
10
 70
0
 10
4.7844001738
 20
3.0335879779
 10
4.7877921245
 20
3.0344929111
 10
4.7973239607
 20
3.035565305
 10
4.8125643696
 20
3.036637699
 10
4.8330680313
 20
3.0377100929
 10
4.8582358353
 20
3.0387824868
 10
4.8873323861
 20
3.0398548808
 10
4.9195074918
 20
3.0409272747
 10
4.9538210059
 20
3.0419996686
 10
5.0248195521
 20
3.0441444565
  0
LWPOLYLINE
  5
4C6
100
AcDbEntity
  8
0
100
AcDbPolyline
 62
7
  6
CONTINUOUS
 90
8
 70
0
 10
4.7619665384
 20
3.0924301339
 10
4.7713024988
 20
3.0934586468
 10
4.7867048225
 20
3.0944936659
 10
4.8075934871
 20
3.0955233731
 10
4.8337364398
 20
3.0965628348
 10
4.8645593081
 20
3.0976124085
 10
4.898818184
 20
3.0986575745
 10
4.9351072757
 20
3.0996868351
  0
LWPOLYLINE
  5
4C7
100
AcDbEntity
  8
0
100
AcDbPolyline
 62
7
  6
CONTINUOUS
 90
8
 70
0
 10
4.7620074162
 20
3.0530667468
 10
4.7715056781
 20
3.054105399
 10
4.7869218495
 20
3.0551358468
 10
4.8078260018
 20
3.056163477
 10
4.8340572814
 20
3.0572044661
 10
4.8649669246
 20
3.0582553765
 10
4.8993038529
 20
3.0593016965
 10
4.935694468
 20
3.0603329839
  0
LWPOLYLINE
  5
4C8
100
AcDbEntity
  8
0
100
AcDbPolyline
 62
7
  6
CONTINUOUS
 90
8
 70
0
 10
4.7620010946
 20
3.013695636
 10
4.7715699719
 20
3.0147406189
 10
4.7872375641
 20
3.0157835236
 10
4.8082364519
 20
3.0168113215
 10
4.8341697145
 20
3.0178384861
 10
4.8647364715
 20
3.0188779237
 10
4.8987647266
 20
3.0199158531
 10
4.9349510421
 20
3.0209423582
  0
LWPOLYLINE
  5
4C9
100
AcDbEntity
  8
0
100
AcDbPolyline
 62
7
  6
CONTINUOUS
 90
8
 70
0
 10
5.223372903
 20
3.072652743
 10
5.2138336229
 20
3.0716108963
 10
5.1983084735
 20
3.0705754439
 10
5.1774039171
 20
3.0695497148
 10
5.1511730573
 20
3.0685098508
 10
5.1202822242
 20
3.0674602231
 10
5.0859802034
 20
3.0664152912
 10
5.0496221863
 20
3.0653850616
  0
LWPOLYLINE
  5
4CA
100
AcDbEntity
  8
0
100
AcDbPolyline
 62
7
  6
CONTINUOUS
 90
8
 70
0
 10
5.2233716284
 20
3.1120226138
 10
5.2137736295
 20
3.1109760386
 10
5.1980614289
 20
3.1099316561
 10
5.1770062738
 20
3.1089024523
 10
5.1511400223
 20
3.107878726
 10
5.1207703815
 20
3.1068459217
 10
5.0868466602
 20
3.1058107095
 10
5.0506429925
 20
3.104783356
  0
LWPOLYLINE
  5
4CB
100
AcDbEntity
  8
0
100
AcDbPolyline
 62
7
  6
CONTINUOUS
 90
9
 70
0
 10
5.0449129664
 20
3.1235016078
 10
5.0785220245
 20
3.1245740017
 10
5.1096231364
 20
3.1256463956
 10
5.1373075375
 20
3.1267187896
 10
5.1607662983
 20
3.1277911835
 10
5.1793139612
 20
3.1288635774
 10
5.1924085693
 20
3.1299359714
 10
5.1996675023
 20
3.1310083653
 10
5.200982467
 20
3.1315019694
  0
LWPOLYLINE
  5
4CC
100
AcDbEntity
  8
0
100
AcDbPolyline
 62
7
  6
CONTINUOUS
 90
9
 70
0
 10
5.0349174265
 20
3.0838230321
 10
5.0690685764
 20
3.0848954261
 10
5.1009880069
 20
3.08596782
 10
5.1297430424
 20
3.087040214
 10
5.1544934698
 20
3.0881126079
 10
5.1745160893
 20
3.0891850018
 10
5.1892258464
 20
3.0902573958
 10
5.1981929265
 20
3.0913297897
 10
5.200982467
 20
3.0921318906
  0
LWPOLYLINE
  5
4CD
100
AcDbEntity
  8
0
100
AcDbPolyline
 62
7
  6
CONTINUOUS
 90
9
 70
0
 10
5.0248195521
 20
3.0441444565
 10
5.0594300289
 20
3.0452168505
 10
5.0920904217
 20
3.0462892444
 10
5.1218464041
 20
3.0473616383
 10
5.1478285156
 20
3.0484340323
 10
5.1692775672
 20
3.0495064262
 10
5.1855668242
 20
3.0505788201
 10
5.1962203198
 20
3.0516512141
 10
5.200982467
 20
3.0527618119
  0
LINE
  5
4CE
100
AcDbEntity
  8
0
100
AcDbLine
 62
7
  6
CONTINUOUS
 10
4.9292025688
 20
3.0806058503
 11
5.0349174265
 21
3.0838230321
  0
LINE
  5
4CF
100
AcDbEntity
  8
0
100
AcDbLine
 62
7
  6
CONTINUOUS
 10
4.93905151
 20
3.120284426
 11
5.0449129664
 21
3.1235016078
  0
LWPOLYLINE
  5
4D0
100
AcDbEntity
  8
0
100
AcDbPolyline
 62
7
  6
CONTINUOUS
 90
9
 70
0
 10
5.0503190284
 20
3.0240657366
 10
5.0864917817
 20
3.0250916642
 10
5.1205829972
 20
3.0261312614
 10
5.1513009073
 20
3.0271759281
 10
5.1774078014
 20
3.0282113019
 10
5.1983518376
 20
3.029239301
 10
5.2139255857
 20
3.0302799026
 10
5.2234128091
 20
3.0313206899
 10
5.2263949592
 20
3.0321202494
  0
LWPOLYLINE
  5
4D1
100
AcDbEntity
  8
0
100
AcDbPolyline
 62
7
  6
CONTINUOUS
 90
9
 70
0
 10
4.935694468
 20
3.0229314091
 10
4.8993038529
 20
3.0219001217
 10
4.8649669246
 20
3.0208538017
 10
4.8340572814
 20
3.0198028913
 10
4.8078260018
 20
3.0187619022
 10
4.7869218495
 20
3.017734272
 10
4.7715056781
 20
3.0167038242
 10
4.7620074162
 20
3.015665172
 10
4.7589876816
 20
3.0148594616
  0
LWPOLYLINE
  5
4D2
100
AcDbEntity
  8
0
100
AcDbPolyline
 62
7
  6
CONTINUOUS
 90
9
 70
0
 10
5.0500589828
 20
3.063428627
 10
5.0864084468
 20
3.0644593056
 10
5.1207185284
 20
3.0655056786
 10
5.1515905783
 20
3.0665565769
 10
5.1777743282
 20
3.0675974203
 10
5.1986732091
 20
3.0686275166
 10
5.2140466676
 20
3.0696600144
 10
5.2234003367
 20
3.0706887234
 10
5.2263949592
 20
3.0714903282
  0
LWPOLYLINE
  5
4D3
100
AcDbEntity
  8
0
100
AcDbPolyline
 62
7
  6
CONTINUOUS
 90
9
 70
0
 10
4.9351072757
 20
3.0622852603
 10
4.898818184
 20
3.0612559997
 10
4.8645593081
 20
3.0602108337
 10
4.8337364398
 20
3.05916126
 10
4.8075934871
 20
3.0581217983
 10
4.7867048225
 20
3.0570920911
 10
4.7713024988
 20
3.056057072
 10
4.7619665384
 20
3.0550285591
 10
4.7589876816
 20
3.0542295403
  0
LWPOLYLINE
  5
4D4
100
AcDbEntity
  8
0
100
AcDbPolyline
 62
7
  6
CONTINUOUS
 90
9
 70
0
 10
5.0496221863
 20
3.1027866364
 10
5.0859802034
 20
3.103816866
 10
5.1202822242
 20
3.1048617979
 10
5.1511730573
 20
3.1059114256
 10
5.1774039171
 20
3.1069512896
 10
5.1983084735
 20
3.1079770187
 10
5.2138336229
 20
3.1090124711
 10
5.223372903
 20
3.1100543178
 10
5.2263949592
 20
3.1108604069
  0
LWPOLYLINE
  5
4D5
100
AcDbEntity
  8
0
100
AcDbPolyline
 62
7
  6
CONTINUOUS
 90
9
 70
0
 10
4.9351077829
 20
3.1016553531
 10
4.8989806438
 20
3.1006308302
 10
4.8651650897
 20
3.0996002955
 10
4.8345461188
 20
3.0985608515
 10
4.8083888419
 20
3.0975266206
 10
4.7873204752
 20
3.0964968326
 10
4.7716079165
 20
3.0954524013
 10
4.7620106081
 20
3.0944058502
 10
4.7589876816
 20
3.0935996191
  0
LINE
  5
4D6
100
AcDbEntity
  8
0
100
AcDbLine
 62
7
  6
CONTINUOUS
 10
4.9349510421
 20
3.0209423582
 11
5.0503190284
 21
3.0240657366
  0
LINE
  5
4D7
100
AcDbEntity
  8
0
100
AcDbLine
 62
7
  6
CONTINUOUS
 10
5.0500589828
 20
3.0260270522
 11
4.935694468
 21
3.0229314091
  0
LINE
  5
4D8
100
AcDbEntity
  8
0
100
AcDbLine
 62
7
  6
CONTINUOUS
 10
4.935694468
 20
3.0603329839
 11
5.0500589828
 21
3.063428627
  0
LINE
  5
4D9
100
AcDbEntity
  8
0
100
AcDbLine
 62
7
  6
CONTINUOUS
 10
5.0496221863
 20
3.0653850616
 11
4.9351072757
 21
3.0622852603
  0
LINE
  5
4DA
100
AcDbEntity
  8
0
100
AcDbLine
 62
7
  6
CONTINUOUS
 10
4.9351072757
 20
3.0996868351
 11
5.0496221863
 21
3.1027866364
  0
LINE
  5
4DB
100
AcDbEntity
  8
0
100
AcDbLine
 62
7
  6
CONTINUOUS
 10
5.0506429925
 20
3.104783356
 11
4.9351077829
 21
3.1016553531
  0
LINE
  5
4DC
100
AcDbEntity
  8
0
100
AcDbLine
 62
7
  6
CONTINUOUS
 10
4.7589876816
 20
2.9730651313
 11
4.7841560253
 21
2.9545165589
  0
LINE
  5
4DD
100
AcDbEntity
  8
0
100
AcDbLine
 62
7
  6
CONTINUOUS
 10
4.7589876816
 20
3.0124352101
 11
4.7841560253
 21
2.9938866376
  0
LINE
  5
4DE
100
AcDbEntity
  8
0
100
AcDbLine
 62
7
  6
CONTINUOUS
 10
4.7589876816
 20
3.0518052888
 11
4.7841560253
 21
3.0332567163
  0
LWPOLYLINE
  5
4DF
100
AcDbEntity
  8
0
100
AcDbPolyline
 62
7
  6
CONTINUOUS
 90
8
 70
0
 10
5.2234262811
 20
3.1907717224
 10
5.213982188
 20
3.1897334058
 10
5.1984587993
 20
3.1886941456
 10
5.1775519971
 20
3.1876664246
 10
5.151465841
 20
3.1866307634
 10
5.1207417311
 20
3.1855851617
 10
5.0866128763
 20
3.1845440255
 10
5.0504315542
 20
3.1835176666
  0
LWPOLYLINE
  5
4E0
100
AcDbEntity
  8
0
100
AcDbPolyline
 62
7
  6
CONTINUOUS
 90
8
 70
0
 10
4.7620106081
 20
3.131807425
 10
4.7716079165
 20
3.1328539761
 10
4.7873204752
 20
3.1338984074
 10
4.8083888419
 20
3.1349281954
 10
4.8345461188
 20
3.1359624263
 10
4.8651650897
 20
3.1370018703
 10
4.8989806438
 20
3.138032405
 10
4.9351077829
 20
3.1390569279
  0
LWPOLYLINE
  5
4E1
100
AcDbEntity
  8
0
100
AcDbPolyline
 62
7
  6
CONTINUOUS
 90
8
 70
0
 10
5.2233616959
 20
3.151391074
 10
5.2137340172
 20
3.1503428641
 10
5.1979749874
 20
3.1492968962
 10
5.1768514307
 20
3.148265795
 10
5.1507316842
 20
3.1472339451
 10
5.1203405916
 20
3.1462022469
 10
5.0866920619
 20
3.1451762637
 10
5.0504877025
 20
3.1441491404
  0
LWPOLYLINE
  5
4E2
100
AcDbEntity
  8
0
100
AcDbPolyline
 62
7
  6
CONTINUOUS
 90
8
 70
0
 10
4.76202054
 20
3.1711791223
 10
4.7716475346
 20
3.1722273087
 10
4.7874069174
 20
3.1732733249
 10
4.8085268874
 20
3.1743042793
 10
4.8345465782
 20
3.1753325218
 10
4.864762739
 20
3.1763590795
 10
4.8985521507
 20
3.1773899473
 10
4.9347784168
 20
3.1784178996
  0
LWPOLYLINE
  5
4E3
100
AcDbEntity
  8
0
100
AcDbPolyline
 62
7
  6
CONTINUOUS
 90
7
 70
0
 10
5.2151037498
 20
3.2291985169
 10
5.2001764577
 20
3.2281625055
 10
5.1795895724
 20
3.2271264758
 10
5.1536640295
 20
3.2260815454
 10
5.1229142438
 20
3.2250250614
 10
5.088593752
 20
3.2239721776
 10
5.0521360519
 20
3.22293492
  0
LWPOLYLINE
  5
4E4
100
AcDbEntity
  8
0
100
AcDbPolyline
 62
7
  6
CONTINUOUS
 90
9
 70
0
 10
5.0547819477
 20
3.1631801834
 10
5.0877674628
 20
3.1642525773
 10
5.1179748829
 20
3.1653249713
 10
5.1445215568
 20
3.1663973652
 10
5.166631799
 20
3.1674697591
 10
5.1836595552
 20
3.1685421531
 10
5.1951072797
 20
3.169614547
 10
5.2006404737
 20
3.1706869409
 10
5.200982467
 20
3.1708720481
  0
LWPOLYLINE
  5
4E5
100
AcDbEntity
  8
0
100
AcDbPolyline
 62
7
  6
CONTINUOUS
 90
10
 70
0
 10
4.9591151951
 20
3.1996415772
 10
5.0301201809
 20
3.2017863651
 10
5.0645004532
 20
3.202858759
 10
5.0967824851
 20
3.203931153
 10
5.1260230061
 20
3.2050035469
 10
5.1513676172
 20
3.2060759408
 10
5.1720757569
 20
3.2071483348
 10
5.1875423398
 20
3.2082207287
 10
5.1973154374
 20
3.2092931226
 10
5.200982467
 20
3.2102421268
  0
LINE
  5
4E6
100
AcDbEntity
  8
0
100
AcDbLine
 62
7
  6
CONTINUOUS
 10
4.9490304467
 20
3.1599630016
 11
5.0547819477
 21
3.1631801834
  0
LWPOLYLINE
  5
4E7
100
AcDbEntity
  8
0
100
AcDbPolyline
 62
7
  6
CONTINUOUS
 90
9
 70
0
 10
5.0506429925
 20
3.1421849308
 10
5.0868466602
 20
3.1432122843
 10
5.1207703815
 20
3.1442474965
 10
5.1511400223
 20
3.1452803008
 10
5.1770062738
 20
3.1463040271
 10
5.1980614289
 20
3.1473332309
 10
5.2137736295
 20
3.1483776134
 10
5.2233716284
 20
3.1494241886
 10
5.2263949592
 20
3.1502304857
  0
LWPOLYLINE
  5
4E8
100
AcDbEntity
  8
0
100
AcDbPolyline
 62
7
  6
CONTINUOUS
 90
9
 70
0
 10
4.9347784168
 20
3.1410163248
 10
4.8985521507
 20
3.1399883725
 10
4.864762739
 20
3.1389575047
 10
4.8345465782
 20
3.137930947
 10
4.8085268874
 20
3.1369027045
 10
4.7874069174
 20
3.1358717501
 10
4.7716475346
 20
3.1348257339
 10
4.76202054
 20
3.1337775475
 10
4.7589876816
 20
3.1329696978
  0
LWPOLYLINE
  5
4E9
100
AcDbEntity
  8
0
100
AcDbPolyline
 62
7
  6
CONTINUOUS
 90
9
 70
0
 10
5.0504877025
 20
3.1815507152
 10
5.0866920619
 20
3.1825778385
 10
5.1203405916
 20
3.1836038217
 10
5.1507316842
 20
3.1846355199
 10
5.1768514307
 20
3.1856673698
 10
5.1979749874
 20
3.186698471
 10
5.2137340172
 20
3.1877444389
 10
5.2233616959
 20
3.1887926488
 10
5.2263949592
 20
3.1896005644
  0
LWPOLYLINE
  5
4EA
100
AcDbEntity
  8
0
100
AcDbPolyline
 62
7
  6
CONTINUOUS
 90
9
 70
0
 10
4.9351687279
 20
3.1803971953
 10
4.8989669706
 20
3.1793705878
 10
4.8648875626
 20
3.1783315779
 10
4.834242323
 20
3.1772899507
 10
4.8082341727
 20
3.176260041
 10
4.7872358794
 20
3.175232248
 10
4.7715692178
 20
3.1741893757
 10
4.7620009055
 20
3.173144424
 10
4.7589876816
 20
3.1723397765
  0
LWPOLYLINE
  5
4EB
100
AcDbEntity
  8
0
100
AcDbPolyline
 62
7
  6
CONTINUOUS
 90
9
 70
0
 10
5.0504315542
 20
3.2209192414
 10
5.0866128763
 20
3.2219456003
 10
5.1207417311
 20
3.2229867365
 10
5.151465841
 20
3.2240323382
 10
5.1775519971
 20
3.2250679994
 10
5.1984587993
 20
3.2260957204
 10
5.213982188
 20
3.2271349806
 10
5.2234262811
 20
3.2281732973
 10
5.2263949592
 20
3.2289706431
  0
LWPOLYLINE
  5
4EC
100
AcDbEntity
  8
0
100
AcDbPolyline
 62
7
  6
CONTINUOUS
 90
9
 70
0
 10
4.9372291434
 20
3.2198241654
 10
4.9005727119
 20
3.2187875505
 10
4.8659589565
 20
3.2177358741
 10
4.8347661021
 20
3.2166790841
 10
4.8082753137
 20
3.2156319127
 10
4.7871623576
 20
3.2145982001
 10
4.7716181694
 20
3.2135634801
 10
4.7620390542
 20
3.2125207154
 10
4.7589876816
 20
3.2117098553
  0
LINE
  5
4ED
100
AcDbEntity
  8
0
100
AcDbLine
 62
7
  6
CONTINUOUS
 10
4.9351077829
 20
3.1390569279
 11
5.0506429925
 21
3.1421849308
  0
LINE
  5
4EE
100
AcDbEntity
  8
0
100
AcDbLine
 62
7
  6
CONTINUOUS
 10
5.0504877025
 20
3.1441491404
 11
4.9347784168
 21
3.1410163248
  0
LINE
  5
4EF
100
AcDbEntity
  8
0
100
AcDbLine
 62
7
  6
CONTINUOUS
 10
4.9347784168
 20
3.1784178996
 11
5.0504877025
 21
3.1815507152
  0
LINE
  5
4F0
100
AcDbEntity
  8
0
100
AcDbLine
 62
7
  6
CONTINUOUS
 10
5.0504315542
 20
3.1835176666
 11
4.9351687279
 21
3.1803971953
  0
LINE
  5
4F1
100
AcDbEntity
  8
0
100
AcDbLine
 62
7
  6
CONTINUOUS
 10
4.9351687279
 20
3.2177987701
 11
5.0504315542
 21
3.2209192414
  0
LINE
  5
4F2
100
AcDbEntity
  8
0
100
AcDbLine
 62
7
  6
CONTINUOUS
 10
5.0521360519
 20
3.22293492
 11
4.9372291434
 21
3.2198241654
  0
LINE
  5
4F3
100
AcDbEntity
  8
0
100
AcDbLine
 62
7
  6
CONTINUOUS
 10
4.7589876816
 20
3.0911753675
 11
4.7841560253
 21
3.0726267951
  0
LINE
  5
4F4
100
AcDbEntity
  8
0
100
AcDbLine
 62
7
  6
CONTINUOUS
 10
4.7589876816
 20
3.1305454463
 11
4.7841560253
 21
3.1119968738
  0
LINE
  5
4F5
100
AcDbEntity
  8
0
100
AcDbLine
 62
7
  6
CONTINUOUS
 10
4.7589876816
 20
3.169915525
 11
4.7841560253
 21
3.1513669526
  0
LINE
  5
4F6
100
AcDbEntity
  8
0
100
AcDbLine
 62
7
  6
CONTINUOUS
 10
5.2163223681
 20
2.8451170355
 11
5.2012266154
 21
2.8562426798
  0
LWPOLYLINE
  5
4F7
100
AcDbEntity
  8
0
100
AcDbPolyline
 62
7
  6
CONTINUOUS
 90
3
 70
0
 10
4.4059294603
 20
3.4531352008
 10
4.4057712597
 20
3.4532533222
 10
4.4057037023
 20
3.4533959674
  0
LINE
  5
4F8
100
AcDbEntity
  8
0
100
AcDbLine
 62
7
  6
CONTINUOUS
 10
4.7589876816
 20
2.8943249738
 11
4.7588330527
 21
2.8945528476
  0
LWPOLYLINE
  5
4F9
100
AcDbEntity
  8
0
100
AcDbPolyline
 62
7
  6
CONTINUOUS
 90
9
 70
0
 10
4.7844001738
 20
3.1910682928
 10
4.7888501965
 20
3.1921348197
 10
4.7992642617
 20
3.1932072136
 10
4.8153302045
 20
3.1942796075
 10
4.8365785833
 20
3.1953520015
 10
4.8623885271
 20
3.1964243954
 10
4.8920058775
 20
3.1974967893
 10
4.9245652247
 20
3.1985691833
 10
4.9591151951
 20
3.1996415772
  0
LWPOLYLINE
  5
4FA
100
AcDbEntity
  8
0
100
AcDbPolyline
 62
7
  6
CONTINUOUS
 90
8
 70
0
 10
4.7620009055
 20
3.2105459989
 10
4.7715692178
 20
3.2115909505
 10
4.7872358794
 20
3.2126338228
 10
4.8082341727
 20
3.2136616158
 10
4.834242323
 20
3.2146915255
 10
4.8648875626
 20
3.2157331527
 10
4.8989669706
 20
3.2167721626
 10
4.9351687279
 20
3.2177987701
  0
LWPOLYLINE
  5
4FB
100
AcDbEntity
  8
0
100
AcDbPolyline
 62
7
  6
CONTINUOUS
 90
7
 70
0
 10
5.0401674893
 20
3.2414649407
 10
5.07404493
 20
3.2425373346
 10
5.1055452437
 20
3.2436097286
 10
5.1337480014
 20
3.2446821225
 10
5.1578291274
 20
3.2457545165
 10
5.1770849786
 20
3.2468269104
 10
5.1909529052
 20
3.2478993043
  0
LINE
  5
4FC
100
AcDbEntity
  8
0
100
AcDbLine
 62
7
  6
CONTINUOUS
 10
4.9343438526
 20
3.2382477589
 11
5.0401674893
 21
3.2414649407
  0
LWPOLYLINE
  5
4FD
100
AcDbEntity
  8
0
100
AcDbPolyline
 62
7
  6
CONTINUOUS
 90
7
 70
0
 10
5.0521360519
 20
3.2603364948
 10
5.088593752
 20
3.2613737524
 10
5.1229142438
 20
3.2624266362
 10
5.1536640295
 20
3.2634831202
 10
5.1795895724
 20
3.2645280506
 10
5.2001764577
 20
3.2655640803
 10
5.2151037498
 20
3.2666000917
  0
LINE
  5
4FE
100
AcDbEntity
  8
0
100
AcDbLine
 62
7
  6
CONTINUOUS
 10
4.9372291434
 20
3.2572257402
 11
5.0521360519
 21
3.2603364948
  0
LINE
  5
4FF
100
AcDbEntity
  8
0
100
AcDbLine
 62
9
  6
CONTINUOUS
 10
5.2265495881
 20
3.3276237138
 11
4.7588330527
 21
3.3276237138
  0
LINE
  5
500
100
AcDbEntity
  8
0
100
AcDbLine
 62
7
  6
CONTINUOUS
 10
4.4059294603
 20
3.4531352008
 11
4.4410766791
 21
3.4328346331
  0
LINE
  5
501
100
AcDbEntity
  8
0
100
AcDbLine
 62
7
  6
CONTINUOUS
 10
4.4059294603
 20
3.5121903189
 11
4.4410766791
 21
3.4918897512
  0
LINE
  5
502
100
AcDbEntity
  8
0
100
AcDbLine
 62
7
  6
CONTINUOUS
 10
4.7589876816
 20
3.2092856038
 11
4.7841560253
 21
3.1907370313
  0
LINE
  5
503
100
AcDbEntity
  8
0
100
AcDbLine
 62
7
  6
CONTINUOUS
 10
5.2263949592
 20
2.877064186
 11
5.2012266154
 21
2.8956127586
  0
LINE
  5
504
100
AcDbEntity
  8
0
100
AcDbLine
 62
7
  6
CONTINUOUS
 10
4.7589876816
 20
3.2486556825
 11
4.7841560253
 21
3.23010711
  0
LINE
  5
505
100
AcDbEntity
  8
0
100
AcDbLine
 62
7
  6
CONTINUOUS
 10
5.2263949592
 20
2.9164342647
 11
5.2012266154
 21
2.9349828373
  0
LINE
  5
506
100
AcDbEntity
  8
0
100
AcDbLine
 62
7
  6
CONTINUOUS
 10
5.2263949592
 20
2.9558043435
 11
5.2012266154
 21
2.9743529161
  0
LINE
  5
507
100
AcDbEntity
  8
0
100
AcDbLine
 62
7
  6
CONTINUOUS
 10
4.4059294603
 20
3.5121903189
 11
4.4057037023
 21
3.5124510855
  0
LINE
  5
508
100
AcDbEntity
  8
0
100
AcDbLine
 62
7
  6
CONTINUOUS
 10
4.4059294603
 20
3.571245437
 11
4.4057037023
 21
3.5715062036
  0
LINE
  5
509
100
AcDbEntity
  8
0
100
AcDbLine
 62
7
  6
CONTINUOUS
 10
4.4059294603
 20
3.6303005551
 11
4.4057037023
 21
3.6305613217
  0
LINE
  5
50A
100
AcDbEntity
  8
0
100
AcDbLine
 62
7
  6
CONTINUOUS
 10
4.7589876816
 20
2.9336950526
 11
4.7588330527
 21
2.9339229264
  0
LINE
  5
50B
100
AcDbEntity
  8
0
100
AcDbLine
 62
7
  6
CONTINUOUS
 10
4.7589876816
 20
2.9730651313
 11
4.7588330527
 21
2.9732930051
  0
LINE
  5
50C
100
AcDbEntity
  8
0
100
AcDbLine
 62
7
  6
CONTINUOUS
 10
4.7589876816
 20
3.0124352101
 11
4.7588330527
 21
3.0126630839
  0
LINE
  5
50D
100
AcDbEntity
  8
0
100
AcDbLine
 62
7
  6
CONTINUOUS
 10
4.7589876816
 20
3.0518052888
 11
4.7588330527
 21
3.0520331626
  0
LINE
  5
50E
100
AcDbEntity
  8
0
100
AcDbLine
 62
7
  6
CONTINUOUS
 10
4.7589876816
 20
3.0911753675
 11
4.7588330527
 21
3.0914032413
  0
LWPOLYLINE
  5
50F
100
AcDbEntity
  8
0
100
AcDbPolyline
 62
7
  6
CONTINUOUS
 90
13
 70
0
 10
5.1625118293
 20
3.4506528723
 10
5.2163593413
 20
3.4516367725
 10
5.2676970365
 20
3.452619552
 10
5.3161025013
 20
3.45360393
 10
5.3608901909
 20
3.454586716
 10
5.4017163399
 20
3.4555711472
 10
5.4380012628
 20
3.4565540091
 10
5.4694820244
 20
3.4575390874
 10
5.4956984584
 20
3.4585230082
 10
5.5163896315
 20
3.4595061678
 10
5.5313485301
 20
3.4604890694
 10
5.5404241393
 20
3.461472983
 10
5.5432587252
 20
3.4621887127
  0
LINE
  5
510
100
AcDbEntity
  8
0
100
AcDbLine
 62
7
  6
CONTINUOUS
 10
4.8219483252
 20
3.4447488872
 11
4.9347005796
 21
3.4467181474
  0
LWPOLYLINE
  5
511
100
AcDbEntity
  8
0
100
AcDbPolyline
 62
7
  6
CONTINUOUS
 90
3
 70
0
 10
4.9347005796
 20
3.4467181474
 10
5.0498868342
 20
3.4486859317
 10
5.1625118293
 20
3.4506528723
  0
LINE
  5
512
100
AcDbEntity
  8
0
100
AcDbLine
 62
7
  6
CONTINUOUS
 10
5.5041288991
 20
3.3788048161
 11
4.4805068519
 21
3.3788048161
  0
LINE
  5
513
100
AcDbEntity
  8
0
100
AcDbLine
 62
9
  6
CONTINUOUS
 10
4.4411367731
 20
3.4181748949
 11
5.5434989778
 21
3.4181748949
  0
LINE
  5
514
100
AcDbEntity
  8
0
100
AcDbLine
 62
7
  6
CONTINUOUS
 10
4.4059294603
 20
3.571245437
 11
4.4410766791
 21
3.5509448693
  0
LINE
  5
515
100
AcDbEntity
  8
0
100
AcDbLine
 62
7
  6
CONTINUOUS
 10
4.4059294603
 20
3.6303005551
 11
4.4410766791
 21
3.6099999874
  0
LINE
  5
516
100
AcDbEntity
  8
0
100
AcDbLine
 62
7
  6
CONTINUOUS
 10
4.4059294603
 20
3.6893556733
 11
4.4410766791
 21
3.6690551055
  0
LINE
  5
517
100
AcDbEntity
  8
0
100
AcDbLine
 62
7
  6
CONTINUOUS
 10
5.2263949592
 20
2.9951744222
 11
5.2012266154
 21
3.0137229948
  0
LINE
  5
518
100
AcDbEntity
  8
0
100
AcDbLine
 62
7
  6
CONTINUOUS
 10
5.2263949592
 20
3.0345445009
 11
5.2012266154
 21
3.0530930735
  0
LINE
  5
519
100
AcDbEntity
  8
0
100
AcDbLine
 62
7
  6
CONTINUOUS
 10
5.2263949592
 20
3.0739145797
 11
5.2012266154
 21
3.0924631523
  0
LINE
  5
51A
100
AcDbEntity
  8
0
100
AcDbLine
 62
7
  6
CONTINUOUS
 10
5.2263949592
 20
3.1132846584
 11
5.2012266154
 21
3.131833231
  0
LINE
  5
51B
100
AcDbEntity
  8
0
100
AcDbLine
 62
7
  6
CONTINUOUS
 10
4.4059294603
 20
3.6893556733
 11
4.4057037023
 21
3.6896164398
  0
LINE
  5
51C
100
AcDbEntity
  8
0
100
AcDbLine
 62
7
  6
CONTINUOUS
 10
4.4059294603
 20
3.7484107914
 11
4.4057037023
 21
3.748671558
  0
LINE
  5
51D
100
AcDbEntity
  8
0
100
AcDbLine
 62
7
  6
CONTINUOUS
 10
4.7589876816
 20
3.1305454463
 11
4.7588330527
 21
3.1307733201
  0
LINE
  5
51E
100
AcDbEntity
  8
0
100
AcDbLine
 62
7
  6
CONTINUOUS
 10
4.7589876816
 20
3.169915525
 11
4.7588330527
 21
3.1701433988
  0
LINE
  5
51F
100
AcDbEntity
  8
0
100
AcDbLine
 62
7
  6
CONTINUOUS
 10
4.7589876816
 20
3.2092856038
 11
4.7588330527
 21
3.2095134776
  0
LINE
  5
520
100
AcDbEntity
  8
0
100
AcDbLine
 62
7
  6
CONTINUOUS
 10
4.7589876816
 20
3.2486556825
 11
4.7588330527
 21
3.2488835563
  0
LINE
  5
521
100
AcDbEntity
  8
0
100
AcDbLine
 62
7
  6
CONTINUOUS
 10
4.4411367731
 20
4.2449465484
 11
4.4409438407
 21
4.2488394015
  0
LINE
  5
522
100
AcDbEntity
  8
0
100
AcDbLine
 62
7
  6
CONTINUOUS
 10
4.4057037023
 20
4.2252615091
 11
4.4057037023
 21
4.2211125028
  0
LINE
  5
523
100
AcDbEntity
  8
0
100
AcDbLine
 62
7
  6
CONTINUOUS
 10
4.4057037023
 20
4.1694392745
 11
4.4057037023
 21
4.1620573847
  0
LINE
  5
524
100
AcDbEntity
  8
0
100
AcDbLine
 62
7
  6
CONTINUOUS
 10
4.4057037023
 20
4.1103841564
 11
4.4057037023
 21
4.1030022666
  0
LINE
  5
525
100
AcDbEntity
  8
0
100
AcDbLine
 62
7
  6
CONTINUOUS
 10
4.4057037023
 20
4.0513290383
 11
4.4057037023
 21
4.0439471485
  0
LINE
  5
526
100
AcDbEntity
  8
0
100
AcDbLine
 62
7
  6
CONTINUOUS
 10
4.4057037023
 20
3.9922739202
 11
4.4057037023
 21
3.9848920304
  0
LINE
  5
527
100
AcDbEntity
  8
0
100
AcDbLine
 62
7
  6
CONTINUOUS
 10
4.4057037023
 20
3.9332188021
 11
4.4057037023
 21
3.9258369123
  0
LINE
  5
528
100
AcDbEntity
  8
0
100
AcDbLine
 62
7
  6
CONTINUOUS
 10
4.4057037023
 20
3.8741636839
 11
4.4057037023
 21
3.8667817942
  0
LINE
  5
529
100
AcDbEntity
  8
0
100
AcDbLine
 62
7
  6
CONTINUOUS
 10
4.4057037023
 20
3.8151085658
 11
4.4057037023
 21
3.8077266761
  0
LINE
  5
52A
100
AcDbEntity
  8
0
100
AcDbLine
 62
7
  6
CONTINUOUS
 10
4.4057037023
 20
3.7560534477
 11
4.4057037023
 21
3.748671558
  0
LINE
  5
52B
100
AcDbEntity
  8
0
100
AcDbLine
 62
7
  6
CONTINUOUS
 10
4.4057037023
 20
3.6969983296
 11
4.4057037023
 21
3.6896164398
  0
LINE
  5
52C
100
AcDbEntity
  8
0
100
AcDbLine
 62
7
  6
CONTINUOUS
 10
4.4057037023
 20
3.6379432115
 11
4.4057037023
 21
3.6305613217
  0
LINE
  5
52D
100
AcDbEntity
  8
0
100
AcDbLine
 62
7
  6
CONTINUOUS
 10
4.4057037023
 20
3.5788880934
 11
4.4057037023
 21
3.5715062036
  0
LINE
  5
52E
100
AcDbEntity
  8
0
100
AcDbLine
 62
7
  6
CONTINUOUS
 10
4.4057037023
 20
3.5198329753
 11
4.4057037023
 21
3.5124510855
  0
LINE
  5
52F
100
AcDbEntity
  8
0
100
AcDbLine
 62
7
  6
CONTINUOUS
 10
4.4057037023
 20
3.4607778572
 11
4.4057037023
 21
3.4533959674
  0
LINE
  5
530
100
AcDbEntity
  8
02___PRT_ALL_AXES
100
AcDbLine
 62
7
  6
CONTINUOUS
 10
4.4411367731
 20
4.2449465484
 11
4.4411367731
 21
4.2252615091
  0
LINE
  5
531
100
AcDbEntity
  8
02___PRT_ALL_AXES
100
AcDbLine
 62
7
  6
CONTINUOUS
 10
4.4411367731
 20
4.2006552098
 11
4.4411367731
 21
4.1901740882
  0
LINE
  5
532
100
AcDbEntity
  8
02___PRT_ALL_AXES
100
AcDbLine
 62
7
  6
CONTINUOUS
 10
4.4411367731
 20
4.1416000917
 11
4.4411367731
 21
4.1311189701
  0
LINE
  5
533
100
AcDbEntity
  8
02___PRT_ALL_AXES
100
AcDbLine
 62
7
  6
CONTINUOUS
 10
4.4411367731
 20
4.0825449736
 11
4.4411367731
 21
4.072063852
  0
LINE
  5
534
100
AcDbEntity
  8
02___PRT_ALL_AXES
100
AcDbLine
 62
7
  6
CONTINUOUS
 10
4.4411367731
 20
4.0234898555
 11
4.4411367731
 21
4.0130087339
  0
LINE
  5
535
100
AcDbEntity
  8
02___PRT_ALL_AXES
100
AcDbLine
 62
7
  6
CONTINUOUS
 10
4.4411367731
 20
3.9644347374
 11
4.4411367731
 21
3.9539536158
  0
LINE
  5
536
100
AcDbEntity
  8
02___PRT_ALL_AXES
100
AcDbLine
 62
7
  6
CONTINUOUS
 10
4.4411367731
 20
3.9053796193
 11
4.4411367731
 21
3.8948984977
  0
LINE
  5
537
100
AcDbEntity
  8
02___PRT_ALL_AXES
100
AcDbLine
 62
7
  6
CONTINUOUS
 10
4.4411367731
 20
3.8463245012
 11
4.4411367731
 21
3.8358433795
  0
LINE
  5
538
100
AcDbEntity
  8
02___PRT_ALL_AXES
100
AcDbLine
 62
7
  6
CONTINUOUS
 10
4.4411367731
 20
3.7872693831
 11
4.4411367731
 21
3.7767882614
  0
LINE
  5
539
100
AcDbEntity
  8
02___PRT_ALL_AXES
100
AcDbLine
 62
7
  6
CONTINUOUS
 10
4.4411367731
 20
3.728214265
 11
4.4411367731
 21
3.7177331433
  0
LINE
  5
53A
100
AcDbEntity
  8
02___PRT_ALL_AXES
100
AcDbLine
 62
7
  6
CONTINUOUS
 10
4.4411367731
 20
3.6691591468
 11
4.4411367731
 21
3.6586780252
  0
LINE
  5
53B
100
AcDbEntity
  8
02___PRT_ALL_AXES
100
AcDbLine
 62
7
  6
CONTINUOUS
 10
4.4411367731
 20
3.6101040287
 11
4.4411367731
 21
3.5996229071
  0
LINE
  5
53C
100
AcDbEntity
  8
02___PRT_ALL_AXES
100
AcDbLine
 62
7
  6
CONTINUOUS
 10
4.4411367731
 20
3.5510489106
 11
4.4411367731
 21
3.5402902683
  0
LINE
  5
53D
100
AcDbEntity
  8
02___PRT_ALL_AXES
100
AcDbLine
 62
7
  6
CONTINUOUS
 10
4.4411367731
 20
3.4919937925
 11
4.4411367731
 21
3.4815126709
  0
LINE
  5
53E
100
AcDbEntity
  8
02___PRT_ALL_AXES
100
AcDbLine
 62
7
  6
CONTINUOUS
 10
4.4411367731
 20
3.4329386744
 11
4.4411367731
 21
3.4181748949
  0
LWPOLYLINE
  5
53F
100
AcDbEntity
  8
0
100
AcDbPolyline
 62
7
  6
CONTINUOUS
 90
14
 70
0
 10
4.4057037023
 20
4.1620573847
 10
4.4058117721
 20
4.1622378008
 10
4.41008931
 20
4.1632073964
 10
4.4205574682
 20
4.1641769919
 10
4.4371049427
 20
4.1651465874
 10
4.4595557903
 20
4.1661161829
 10
4.4876712996
 20
4.1670857784
 10
4.5211525286
 20
4.1680553739
 10
4.559643484
 20
4.1690249694
 10
4.6027349057
 20
4.1699945649
 10
4.6499686186
 20
4.1709641604
 10
4.7008424041
 20
4.171933756
 10
4.7548153401
 20
4.1729033515
 10
4.8113135525
 20
4.173872947
  0
LWPOLYLINE
  5
540
100
AcDbEntity
  8
0
100
AcDbPolyline
 62
7
  6
CONTINUOUS
 90
13
 70
0
 10
4.8219483252
 20
3.4930453629
 10
4.7681614122
 20
3.4920624648
 10
4.7168296933
 20
3.4910796854
 10
4.6684356852
 20
3.4900953976
 10
4.6236596777
 20
3.4891126978
 10
4.5828456609
 20
3.488128358
 10
4.5465856117
 20
3.4871459578
 10
4.5151850804
 20
3.4861633643
 10
4.4888792408
 20
3.4851759446
 10
4.4681059231
 20
3.4841874881
 10
4.453175824
 20
3.4832031965
 10
4.4441412576
 20
3.4822169613
 10
4.4413770258
 20
3.4815126709
  0
LWPOLYLINE
  5
541
100
AcDbEntity
  8
0
100
AcDbPolyline
 62
7
  6
CONTINUOUS
 90
13
 70
0
 10
5.1624139532
 20
3.5097062357
 10
5.2162461643
 20
3.5106897784
 10
5.2675361076
 20
3.5116715025
 10
5.3158329783
 20
3.5126533702
 10
5.3607472407
 20
3.5136385562
 10
5.4016452216
 20
3.5146244542
 10
5.4379405592
 20
3.5156073681
 10
5.4695243242
 20
3.5165956467
 10
5.4959067976
 20
3.517586857
 10
5.5166479553
 20
3.51857554
 10
5.5315141357
 20
3.5195577573
 10
5.5405036499
 20
3.520541039
 10
5.5432587252
 20
3.5212438309
  0
LWPOLYLINE
  5
542
100
AcDbEntity
  8
0
100
AcDbPolyline
 62
7
  6
CONTINUOUS
 90
13
 70
0
 10
4.8220671245
 20
3.5521026111
 10
4.7681436494
 20
3.5511172513
 10
4.716784146
 20
3.5501339068
 10
4.6681759868
 20
3.5491450416
 10
4.6231228499
 20
3.5481554947
 10
4.5823423501
 20
3.547170645
 10
4.5461824511
 20
3.5461893788
 10
4.5148136837
 20
3.5452058175
 10
4.4887044844
 20
3.5442237363
 10
4.4680649638
 20
3.5432403449
 10
4.4531721564
 20
3.5422580137
 10
4.44416032
 20
3.541275192
 10
4.4413770258
 20
3.540567789
  0
LINE
  5
543
100
AcDbEntity
  8
0
100
AcDbLine
 62
7
  6
CONTINUOUS
 10
5.1625118293
 20
3.4989493481
 11
5.0498868342
 21
3.4969824074
  0
LINE
  5
544
100
AcDbEntity
  8
0
100
AcDbLine
 62
7
  6
CONTINUOUS
 10
4.8220671245
 20
3.5038061353
 11
4.9348646809
 21
3.5057760792
  0
LINE
  5
545
100
AcDbEntity
  8
0
100
AcDbLine
 62
7
  6
CONTINUOUS
 10
5.1624139532
 20
3.5580027115
 11
5.0498528139
 21
3.5560369422
  0
LWPOLYLINE
  5
546
100
AcDbEntity
  8
0
100
AcDbPolyline
 62
7
  6
CONTINUOUS
 90
3
 70
0
 10
5.0498868342
 20
3.4969824074
 10
4.9347005796
 20
3.4950146232
 10
4.8219483252
 20
3.4930453629
  0
LWPOLYLINE
  5
547
100
AcDbEntity
  8
0
100
AcDbPolyline
 62
7
  6
CONTINUOUS
 90
3
 70
0
 10
4.9348646809
 20
3.5057760792
 10
5.0498528139
 20
3.5077404665
 10
5.1624139532
 20
3.5097062357
  0
LWPOLYLINE
  5
548
100
AcDbEntity
  8
0
100
AcDbPolyline
 62
7
  6
CONTINUOUS
 90
13
 70
0
 10
5.1789457103
 20
3.5302579629
 10
5.2355152963
 20
3.5312327052
 10
5.2894715543
 20
3.5322074475
 10
5.3402346859
 20
3.5331821898
 10
5.3872592055
 20
3.5341569321
 10
5.4300398014
 20
3.5351316744
 10
5.4681167659
 20
3.5361064166
 10
5.501080935
 20
3.5370811589
 10
5.5285780856
 20
3.5380559012
 10
5.5503127411
 20
3.5390306435
 10
5.5660513475
 20
3.5400053858
 10
5.5756247823
 20
3.5409801281
 10
5.5787062907
 20
3.541717878
  0
LWPOLYLINE
  5
549
100
AcDbEntity
  8
0
100
AcDbPolyline
 62
7
  6
CONTINUOUS
 90
13
 70
0
 10
5.1789457103
 20
3.5376398527
 10
5.2355152963
 20
3.538614595
 10
5.2894715543
 20
3.5395893373
 10
5.3402346859
 20
3.5405640795
 10
5.3872592055
 20
3.5415388218
 10
5.4300398014
 20
3.5425135641
 10
5.4681167659
 20
3.5434883064
 10
5.501080935
 20
3.5444630487
 10
5.5285780856
 20
3.545437791
 10
5.5503127411
 20
3.5464125333
 10
5.5660513475
 20
3.5473872756
 10
5.5756247823
 20
3.5483620178
 10
5.5789320487
 20
3.5493605343
  0
LINE
  5
54A
100
AcDbEntity
  8
0
100
AcDbLine
 62
7
  6
CONTINUOUS
 10
4.7626997649
 20
3.5308166567
 11
4.819815471
 21
3.531791399
  0
LWPOLYLINE
  5
54B
100
AcDbEntity
  8
0
100
AcDbPolyline
 62
7
  6
CONTINUOUS
 90
3
 70
0
 10
5.0498528139
 20
3.5560369422
 10
4.9348646809
 20
3.554072555
 10
4.8220671245
 20
3.5521026111
  0
LWPOLYLINE
  5
54C
100
AcDbEntity
  8
0
100
AcDbPolyline
 62
7
  6
CONTINUOUS
 90
13
 70
0
 10
5.1548662714
 20
3.4707986834
 10
5.212342539
 20
3.4717734257
 10
5.2674544861
 20
3.4727481679
 10
5.3196098959
 20
3.4737229102
 10
5.3682483216
 20
3.4746976525
 10
5.412847109
 20
3.4756723948
 10
5.4529270126
 20
3.4766471371
 10
5.4880573455
 20
3.4776218794
 10
5.5178606074
 20
3.4785966217
 10
5.5420165413
 20
3.479571364
 10
5.5602655745
 20
3.4805461062
 10
5.5724116083
 20
3.4815208485
 10
5.578324125
 20
3.4824955908
  0
LWPOLYLINE
  5
54D
100
AcDbEntity
  8
0
100
AcDbPolyline
 62
7
  6
CONTINUOUS
 90
14
 70
0
 10
5.1548662714
 20
3.4781805731
 10
5.212342539
 20
3.4791553154
 10
5.2674544861
 20
3.4801300577
 10
5.3196098959
 20
3.4811048
 10
5.3682483216
 20
3.4820795423
 10
5.412847109
 20
3.4830542846
 10
5.4529270126
 20
3.4840290269
 10
5.4880573455
 20
3.4850037692
 10
5.5178606074
 20
3.4859785114
 10
5.5420165413
 20
3.4869532537
 10
5.5602655745
 20
3.487927996
 10
5.5724116083
 20
3.4889027383
 10
5.578324125
 20
3.4898774806
 10
5.5789320487
 20
3.4903054162
  0
LWPOLYLINE
  5
54E
100
AcDbEntity
  8
0
100
AcDbPolyline
 62
7
  6
CONTINUOUS
 90
3
 70
0
 10
4.7958727487
 20
3.4649502296
 10
4.9139108415
 20
3.4668997142
 10
5.1548662714
 20
3.4707986834
  0
LWPOLYLINE
  5
54F
100
AcDbEntity
  8
0
100
AcDbPolyline
 62
7
  6
CONTINUOUS
 90
3
 70
0
 10
4.7958727487
 20
3.4723321194
 10
4.9139108415
 20
3.474281604
 10
5.1548662714
 20
3.4781805731
  0
LINE
  5
550
100
AcDbEntity
  8
0
100
AcDbLine
 62
7
  6
CONTINUOUS
 10
4.819815471
 20
3.5244095092
 11
4.9389741964
 21
3.5263589938
  0
LINE
  5
551
100
AcDbEntity
  8
0
100
AcDbLine
 62
7
  6
CONTINUOUS
 10
4.819815471
 20
3.531791399
 11
4.9389741964
 21
3.5337408835
  0
LWPOLYLINE
  5
552
100
AcDbEntity
  8
0
100
AcDbPolyline
 62
7
  6
CONTINUOUS
 90
3
 70
0
 10
4.9389741964
 20
3.5263589938
 10
5.0604196243
 20
3.5283084783
 10
5.1789457103
 20
3.5302579629
  0
LWPOLYLINE
  5
553
100
AcDbEntity
  8
0
100
AcDbPolyline
 62
7
  6
CONTINUOUS
 90
3
 70
0
 10
4.9389741964
 20
3.5337408835
 10
5.0604196243
 20
3.5356903681
 10
5.1789457103
 20
3.5376398527
  0
LINE
  5
554
100
AcDbEntity
  8
0
100
AcDbLine
 62
7
  6
CONTINUOUS
 10
4.4059294603
 20
3.7484107914
 11
4.4410766791
 21
3.7281102236
  0
LINE
  5
555
100
AcDbEntity
  8
0
100
AcDbLine
 62
7
  6
CONTINUOUS
 10
4.4059294603
 20
3.8074659095
 11
4.4410766791
 21
3.7871653417
  0
LINE
  5
556
100
AcDbEntity
  8
0
100
AcDbLine
 62
7
  6
CONTINUOUS
 10
5.2263949592
 20
3.1526547372
 11
5.2012266154
 21
3.1712033098
  0
LINE
  5
557
100
AcDbEntity
  8
0
100
AcDbLine
 62
7
  6
CONTINUOUS
 10
5.2263949592
 20
3.1920248159
 11
5.2012266154
 21
3.2105733885
  0
LINE
  5
558
100
AcDbEntity
  8
0
100
AcDbLine
 62
7
  6
CONTINUOUS
 10
5.2151037498
 20
3.2291985169
 11
5.1909529052
 21
3.2478993043
  0
LINE
  5
559
100
AcDbEntity
  8
0
100
AcDbLine
 62
7
  6
CONTINUOUS
 10
4.4059294603
 20
3.8074659095
 11
4.4057037023
 21
3.8077266761
  0
LINE
  5
55A
100
AcDbEntity
  8
0
100
AcDbLine
 62
7
  6
CONTINUOUS
 10
4.4059294603
 20
3.8665210276
 11
4.4057037023
 21
3.8667817942
  0
LINE
  5
55B
100
AcDbEntity
  8
0
100
AcDbLine
 62
7
  6
CONTINUOUS
 10
4.4059294603
 20
3.9255761457
 11
4.4057037023
 21
3.9258369123
  0
LWPOLYLINE
  5
55C
100
AcDbEntity
  8
0
100
AcDbPolyline
 62
7
  6
CONTINUOUS
 90
14
 70
0
 10
4.4057037023
 20
3.9258369123
 10
4.4057956548
 20
3.9260033317
 10
4.4100221534
 20
3.926978074
 10
4.420505831
 20
3.9279528163
 10
4.4371340332
 20
3.9289275586
 10
4.4597280781
 20
3.9299023009
 10
4.4880451767
 20
3.9308770431
 10
4.5217810419
 20
3.9318517854
 10
4.5605731579
 20
3.9328265277
 10
4.6040046761
 20
3.93380127
 10
4.651608894
 20
3.9347760123
 10
4.7028742706
 20
3.9357507546
 10
4.7572499234
 20
3.9367254969
 10
4.8141515474
 20
3.9377002392
  0
LINE
  5
55D
100
AcDbEntity
  8
0
100
AcDbLine
 62
7
  6
CONTINUOUS
 10
4.4057037023
 20
4.1694392745
 11
4.4059294603
 21
4.1697000411
  0
LINE
  5
55E
100
AcDbEntity
  8
0
100
AcDbLine
 62
7
  6
CONTINUOUS
 10
4.4057037023
 20
4.1103841564
 11
4.4059294603
 21
4.110644923
  0
LWPOLYLINE
  5
55F
100
AcDbEntity
  8
0
100
AcDbPolyline
 62
7
  6
CONTINUOUS
 90
5
 70
0
 10
4.4057037023
 20
4.2211125028
 10
4.4059468501
 20
4.221383127
 10
4.4108032798
 20
4.2223527225
 10
4.4218427385
 20
4.223322318
 10
4.4389478477
 20
4.2242919135
  0
LWPOLYLINE
  5
560
100
AcDbEntity
  8
0
100
AcDbPolyline
 62
7
  6
CONTINUOUS
 90
13
 70
0
 10
4.4059294603
 20
3.4610386238
 10
4.4080010753
 20
3.4616099542
 10
4.4165097879
 20
3.4625846965
 10
4.4312059653
 20
3.4635594388
 10
4.4519316867
 20
3.4645341811
 10
4.4784642396
 20
3.4655089234
 10
4.510518513
 20
3.4664836657
 10
4.5477500611
 20
3.467458408
 10
4.5897588044
 20
3.4684331503
 10
4.6360933296
 20
3.4694078925
 10
4.6862557392
 20
3.4703826348
 10
4.7397070027
 20
3.4713573771
 10
4.7958727487
 20
3.4723321194
  0
LWPOLYLINE
  5
561
100
AcDbEntity
  8
0
100
AcDbPolyline
 62
7
  6
CONTINUOUS
 90
12
 70
0
 10
4.4059294603
 20
3.5200937419
 10
4.4107708034
 20
3.5210692338
 10
4.421859981
 20
3.5220439761
 10
4.4390791319
 20
3.5230187184
 10
4.462243224
 20
3.5239934607
 10
4.4911033429
 20
3.5249682029
 10
4.5253493661
 20
3.5259429452
 10
4.5646132961
 20
3.5269176875
 10
4.6084732139
 20
3.5278924298
 10
4.656457814
 20
3.5288671721
 10
4.7080514677
 20
3.5298419144
 10
4.7626997649
 20
3.5308166567
  0
LINE
  5
562
100
AcDbEntity
  8
0
100
AcDbLine
 62
7
  6
CONTINUOUS
 10
4.7167273243
 20
3.6199465484
 11
4.7593120378
 21
3.6207655045
  0
LWPOLYLINE
  5
563
100
AcDbEntity
  8
0
100
AcDbPolyline
 62
7
  6
CONTINUOUS
 90
13
 70
0
 10
5.1631898301
 20
3.5687752666
 10
5.2171784109
 20
3.5697623011
 10
5.2684804691
 20
3.5707452176
 10
5.3169230758
 20
3.5717314683
 10
5.3617301903
 20
3.5727162346
 10
5.4023631523
 20
3.5736978727
 10
5.4385299242
 20
3.5746795846
 10
5.4698894205
 20
3.5756632204
 10
5.495987798
 20
3.5766453744
 10
5.5166151639
 20
3.5776288451
 10
5.5314940122
 20
3.5786112215
 10
5.5404826704
 20
3.5795927269
 10
5.5432587252
 20
3.580298949
  0
LWPOLYLINE
  5
564
100
AcDbEntity
  8
0
100
AcDbPolyline
 62
7
  6
CONTINUOUS
 90
13
 70
0
 10
4.8221470474
 20
3.6111591621
 10
4.7682937049
 20
3.6101751702
 10
4.7169569437
 20
3.6091924267
 10
4.6685504299
 20
3.6082080518
 10
4.6237715855
 20
3.6072255007
 10
4.5829590183
 20
3.6062414813
 10
4.5466802546
 20
3.605258937
 10
4.5152198304
 20
3.604274784
 10
4.4890201048
 20
3.603292077
 10
4.4682942159
 20
3.6023080986
 10
4.4533192843
 20
3.6013251672
 10
4.4442306215
 20
3.6003417053
 10
4.4413770258
 20
3.5996229071
  0
LWPOLYLINE
  5
565
100
AcDbEntity
  8
0
100
AcDbPolyline
 62
7
  6
CONTINUOUS
 90
13
 70
0
 10
5.1625118499
 20
3.627818227
 10
5.2164079692
 20
3.6288030344
 10
5.2677492688
 20
3.6297859345
 10
5.3161492526
 20
3.6307702695
 10
5.3609313972
 20
3.6317530154
 10
5.4017517888
 20
3.6327374044
 10
5.4380229192
 20
3.6337199911
 10
5.4694731635
 20
3.6347041398
 10
5.4956670516
 20
3.635687048
 10
5.5163810512
 20
3.6366710499
 10
5.5313453499
 20
3.637654164
 10
5.5404273659
 20
3.6386388591
 10
5.5432587252
 20
3.6393540671
  0
LWPOLYLINE
  5
566
100
AcDbEntity
  8
0
100
AcDbPolyline
 62
7
  6
CONTINUOUS
 90
3
 70
0
 10
4.6990107889
 20
3.6404038414
 10
4.7531783038
 20
3.6413785837
 10
4.8099155424
 20
3.642353326
  0
LWPOLYLINE
  5
567
100
AcDbEntity
  8
0
100
AcDbPolyline
 62
7
  6
CONTINUOUS
 90
3
 70
0
 10
4.6990107889
 20
3.6477857312
 10
4.7531783038
 20
3.6487604735
 10
4.8099155424
 20
3.6497352158
  0
LINE
  5
568
100
AcDbEntity
  8
0
100
AcDbLine
 62
7
  6
CONTINUOUS
 10
4.7593120378
 20
3.6207655045
 11
4.8496475065
 21
3.6224069276
  0
LINE
  5
569
100
AcDbEntity
  8
0
100
AcDbLine
 62
7
  6
CONTINUOUS
 10
4.8221470474
 20
3.5628626863
 11
4.9347568309
 21
3.5648293481
  0
LINE
  5
56A
100
AcDbEntity
  8
0
100
AcDbLine
 62
7
  6
CONTINUOUS
 10
5.1631898301
 20
3.6170717424
 11
5.049845424
 21
3.6150919336
  0
LINE
  5
56B
100
AcDbEntity
  8
0
100
AcDbLine
 62
7
  6
CONTINUOUS
 10
5.0498635528
 20
3.6258508868
 11
5.1625118499
 21
3.627818227
  0
LWPOLYLINE
  5
56C
100
AcDbEntity
  8
0
100
AcDbPolyline
 62
7
  6
CONTINUOUS
 90
3
 70
0
 10
4.9347568309
 20
3.5648293481
 10
5.049845424
 20
3.5667954579
 10
5.1631898301
 20
3.5687752666
  0
LWPOLYLINE
  5
56D
100
AcDbEntity
  8
0
100
AcDbPolyline
 62
7
  6
CONTINUOUS
 90
3
 70
0
 10
5.049845424
 20
3.6150919336
 10
4.9347568309
 20
3.6131258239
 10
4.8221470474
 20
3.6111591621
  0
LINE
  5
56E
100
AcDbEntity
  8
0
100
AcDbLine
 62
7
  6
CONTINUOUS
 10
4.8496475065
 20
3.6224069276
 11
5.0498635528
 21
3.6258508868
  0
LWPOLYLINE
  5
56F
100
AcDbEntity
  8
0
100
AcDbPolyline
 62
7
  6
CONTINUOUS
 90
13
 70
0
 10
5.1690699099
 20
3.6482017797
 10
5.2260256014
 20
3.649176522
 10
5.2804699382
 20
3.6501512643
 10
5.3318178775
 20
3.6511260066
 10
5.3795176493
 20
3.6521007489
 10
5.4230566859
 20
3.6530754912
 10
5.4619671296
 20
3.6540502335
 10
5.4958308601
 20
3.6550249757
 10
5.5242839878
 20
3.655999718
 10
5.5470207636
 20
3.6569744603
 10
5.5637968649
 20
3.6579492026
 10
5.5744320206
 20
3.6589239449
 10
5.5787062907
 20
3.6598281142
  0
LWPOLYLINE
  5
570
100
AcDbEntity
  8
0
100
AcDbPolyline
 62
7
  6
CONTINUOUS
 90
14
 70
0
 10
5.1690699099
 20
3.6555836695
 10
5.2260256014
 20
3.6565584118
 10
5.2804699382
 20
3.6575331541
 10
5.3318178775
 20
3.6585078964
 10
5.3795176493
 20
3.6594826386
 10
5.4230566859
 20
3.6604573809
 10
5.4619671296
 20
3.6614321232
 10
5.4958308601
 20
3.6624068655
 10
5.5242839878
 20
3.6633816078
 10
5.5470207636
 20
3.6643563501
 10
5.5637968649
 20
3.6653310924
 10
5.5744320206
 20
3.6663058347
 10
5.5788119484
 20
3.6672805769
 10
5.5789320487
 20
3.6674707706
  0
LWPOLYLINE
  5
571
100
AcDbEntity
  8
0
100
AcDbPolyline
 62
7
  6
CONTINUOUS
 90
13
 70
0
 10
5.1448613034
 20
3.5887425002
 10
5.2026801136
 20
3.5897172425
 10
5.2582384329
 20
3.5906919848
 10
5.3109392478
 20
3.591666727
 10
5.3602162509
 20
3.5926414693
 10
5.405539926
 20
3.5936162116
 10
5.4464232381
 20
3.5945909539
 10
5.4824268672
 20
3.5955656962
 10
5.5131639288
 20
3.5965404385
 10
5.5383041314
 20
3.5975151808
 10
5.5575773259
 20
3.5984899231
 10
5.5707764081
 20
3.5994646653
 10
5.5777595445
 20
3.6004394076
  0
LWPOLYLINE
  5
572
100
AcDbEntity
  8
0
100
AcDbPolyline
 62
7
  6
CONTINUOUS
 90
14
 70
0
 10
5.1448613034
 20
3.5961243899
 10
5.2026801136
 20
3.5970991322
 10
5.2582384329
 20
3.5980738745
 10
5.3109392478
 20
3.5990486168
 10
5.3602162509
 20
3.6000233591
 10
5.405539926
 20
3.6009981014
 10
5.4464232381
 20
3.6019728437
 10
5.4824268672
 20
3.602947586
 10
5.5131639288
 20
3.6039223282
 10
5.5383041314
 20
3.6048970705
 10
5.5575773259
 20
3.6058718128
 10
5.5707764081
 20
3.6068465551
 10
5.5777595445
 20
3.6078212974
 10
5.5789320487
 20
3.6084156524
  0
LWPOLYLINE
  5
573
100
AcDbEntity
  8
0
100
AcDbPolyline
 62
7
  6
CONTINUOUS
 90
3
 70
0
 10
4.7861170427
 20
3.5828940465
 10
4.9036301371
 20
3.584843531
 10
5.1448613034
 20
3.5887425002
  0
LWPOLYLINE
  5
574
100
AcDbEntity
  8
0
100
AcDbPolyline
 62
7
  6
CONTINUOUS
 90
3
 70
0
 10
4.7861170427
 20
3.5902759362
 10
4.9036301371
 20
3.5922254208
 10
5.1448613034
 20
3.5961243899
  0
LINE
  5
575
100
AcDbEntity
  8
0
100
AcDbLine
 62
7
  6
CONTINUOUS
 10
5.0500929891
 20
3.6462522952
 11
5.1690699099
 21
3.6482017797
  0
LWPOLYLINE
  5
576
100
AcDbEntity
  8
0
100
AcDbPolyline
 62
7
  6
CONTINUOUS
 90
3
 70
0
 10
4.8099155424
 20
3.642353326
 10
4.9286394018
 20
3.6443028106
 10
5.0500929891
 20
3.6462522952
  0
LINE
  5
577
100
AcDbEntity
  8
0
100
AcDbLine
 62
7
  6
CONTINUOUS
 10
5.0500929891
 20
3.6536341849
 11
5.1690699099
 21
3.6555836695
  0
LWPOLYLINE
  5
578
100
AcDbEntity
  8
0
100
AcDbPolyline
 62
7
  6
CONTINUOUS
 90
3
 70
0
 10
4.8099155424
 20
3.6497352158
 10
4.9286394018
 20
3.6516847003
 10
5.0500929891
 20
3.6536341849
  0
LINE
  5
579
100
AcDbEntity
  8
0
100
AcDbLine
 62
7
  6
CONTINUOUS
 10
4.4059294603
 20
3.8665210276
 11
4.4410766791
 21
3.8462204598
  0
LINE
  5
57A
100
AcDbEntity
  8
0
100
AcDbLine
 62
7
  6
CONTINUOUS
 10
4.4059294603
 20
3.9255761457
 11
4.4410766791
 21
3.9052755779
  0
LINE
  5
57B
100
AcDbEntity
  8
0
100
AcDbLine
 62
7
  6
CONTINUOUS
 10
4.4059294603
 20
3.9846312638
 11
4.4057037023
 21
3.9848920304
  0
LINE
  5
57C
100
AcDbEntity
  8
0
100
AcDbLine
 62
7
  6
CONTINUOUS
 10
4.4059294603
 20
4.0436863819
 11
4.4057037023
 21
4.0439471485
  0
LINE
  5
57D
100
AcDbEntity
  8
0
100
AcDbLine
 62
7
  6
CONTINUOUS
 10
4.4059294603
 20
4.1027415
 11
4.4057037023
 21
4.1030022666
  0
LINE
  5
57E
100
AcDbEntity
  8
0
100
AcDbLine
 62
7
  6
CONTINUOUS
 10
5.2263949592
 20
2.877064186
 11
5.2265495881
 21
2.8768363122
  0
LINE
  5
57F
100
AcDbEntity
  8
0
100
AcDbLine
 62
7
  6
CONTINUOUS
 10
5.2263949592
 20
2.9164342647
 11
5.2265495881
 21
2.9162063909
  0
LINE
  5
580
100
AcDbEntity
  8
0
100
AcDbLine
 62
7
  6
CONTINUOUS
 10
5.2263949592
 20
2.9558043435
 11
5.2265495881
 21
2.9555764697
  0
LINE
  5
581
100
AcDbEntity
  8
0
100
AcDbLine
 62
7
  6
CONTINUOUS
 10
5.2263949592
 20
2.9951744222
 11
5.2265495881
 21
2.9949465484
  0
LINE
  5
582
100
AcDbEntity
  8
0
100
AcDbLine
 62
7
  6
CONTINUOUS
 10
4.4057037023
 20
4.0513290383
 11
4.4059294603
 21
4.0515898049
  0
LINE
  5
583
100
AcDbEntity
  8
0
100
AcDbLine
 62
7
  6
CONTINUOUS
 10
4.4057037023
 20
3.9922739202
 11
4.4059294603
 21
3.9925346868
  0
LINE
  5
584
100
AcDbEntity
  8
0
100
AcDbLine
 62
7
  6
CONTINUOUS
 10
4.4057037023
 20
3.9332188021
 11
4.4059294603
 21
3.9334795686
  0
LINE
  5
585
100
AcDbEntity
  8
0
100
AcDbLine
 62
7
  6
CONTINUOUS
 10
4.4413770258
 20
4.1901740882
 11
4.4059294603
 21
4.1697000411
  0
LWPOLYLINE
  5
586
100
AcDbEntity
  8
0
100
AcDbPolyline
 62
7
  6
CONTINUOUS
 90
11
 70
0
 10
4.4059294603
 20
3.6382039781
 10
4.4094997807
 20
3.6390130506
 10
4.4195286257
 20
3.6399877929
 10
4.4357124959
 20
3.6409625352
 10
4.4578774843
 20
3.6419372775
 10
4.4857854124
 20
3.6429120197
 10
4.5191363898
 20
3.643886762
 10
4.5575720367
 20
3.6448615043
 10
4.6006793348
 20
3.6458362466
 10
4.6479950659
 20
3.6468109889
 10
4.6990107889
 20
3.6477857312
  0
LWPOLYLINE
  5
587
100
AcDbEntity
  8
0
100
AcDbPolyline
 62
7
  6
CONTINUOUS
 90
11
 70
0
 10
4.7167273243
 20
3.6682430242
 10
4.6683228398
 20
3.6672583736
 10
4.6232889006
 20
3.6662695437
 10
4.5823881801
 20
3.6652820504
 10
4.5461764203
 20
3.6642994399
 10
4.5147362352
 20
3.663313409
 10
4.4885253994
 20
3.6623264513
 10
4.4679402432
 20
3.6613436849
 10
4.4531044913
 20
3.6603626904
 10
4.4441262797
 20
3.6593798631
 10
4.4413770258
 20
3.6586780252
  0
LINE
  5
588
100
AcDbEntity
  8
0
100
AcDbLine
 62
7
  6
CONTINUOUS
 10
4.7593120378
 20
3.6690619803
 11
4.7167273243
 21
3.6682430242
  0
LWPOLYLINE
  5
589
100
AcDbEntity
  8
0
100
AcDbPolyline
 62
7
  6
CONTINUOUS
 90
13
 70
0
 10
4.8213637966
 20
3.7292553527
 10
4.7675950446
 20
3.728272363
 10
4.7162812062
 20
3.7272893557
 10
4.6679099314
 20
3.7263047853
 10
4.6231637843
 20
3.7253217891
 10
4.5823877027
 20
3.7243371564
 10
4.5461665071
 20
3.7233542701
 10
4.5147968917
 20
3.7223705986
 10
4.4886639717
 20
3.7213873903
 10
4.4679915626
 20
3.7204016425
 10
4.4531060734
 20
3.7194179387
 10
4.4441190019
 20
3.7184337873
 10
4.4413770258
 20
3.7177331433
  0
LWPOLYLINE
  5
58A
100
AcDbEntity
  8
0
100
AcDbPolyline
 62
7
  6
CONTINUOUS
 90
13
 70
0
 10
5.1631664943
 20
3.6868850843
 10
5.2169184446
 20
3.6878676824
 10
5.2682447793
 20
3.6888508105
 10
5.3166283547
 20
3.6898354876
 10
5.3613869193
 20
3.6908185867
 10
5.4021756009
 20
3.6918033243
 10
5.4384076295
 20
3.6927862693
 10
5.4697764895
 20
3.6937696008
 10
5.4959376605
 20
3.6947535062
 10
5.5166319036
 20
3.6957400067
 10
5.5315248148
 20
3.6967239898
 10
5.5405141545
 20
3.6977081154
 10
5.5432587252
 20
3.6984091852
  0
LWPOLYLINE
  5
58B
100
AcDbEntity
  8
0
100
AcDbPolyline
 62
7
  6
CONTINUOUS
 90
13
 70
0
 10
5.1624008186
 20
3.7459264727
 10
5.2162289691
 20
3.7469099299
 10
5.2674940104
 20
3.7478911464
 10
5.3159814217
 20
3.7488769695
 10
5.3610814225
 20
3.7498666932
 10
5.4020346712
 20
3.750854849
 10
5.4382845273
 20
3.7518378144
 10
5.4697541225
 20
3.7528239556
 10
5.4959887216
 20
3.7538107675
 10
5.5166007829
 20
3.7547934046
 10
5.5314730364
 20
3.7557748534
 10
5.5404824779
 20
3.7567580498
 10
5.5432587252
 20
3.7574643033
  0
LINE
  5
58C
100
AcDbEntity
  8
0
100
AcDbLine
 62
7
  6
CONTINUOUS
 10
4.8496475065
 20
3.6707034034
 11
4.7593120378
 21
3.6690619803
  0
LWPOLYLINE
  5
58D
100
AcDbEntity
  8
0
100
AcDbPolyline
 62
7
  6
CONTINUOUS
 90
13
 70
0
 10
5.2164626385
 20
3.7745022286
 10
5.2713779858
 20
3.7754769709
 10
5.323294635
 20
3.7764517132
 10
5.371654705
 20
3.7774264554
 10
5.4159385327
 20
3.7784011977
 10
5.455670257
 20
3.77937594
 10
5.4904229326
 20
3.7803506823
 10
5.5198231173
 20
3.7813254246
 10
5.5435548853
 20
3.7823001669
 10
5.5613632221
 20
3.7832749092
 10
5.5730567645
 20
3.7842496515
 10
5.5785098572
 20
3.7852243937
 10
5.5789320487
 20
3.7855810068
  0
LWPOLYLINE
  5
58E
100
AcDbEntity
  8
0
100
AcDbPolyline
 62
7
  6
CONTINUOUS
 90
13
 70
0
 10
5.1929517391
 20
3.7076610593
 10
5.2489390128
 20
3.7086358016
 10
5.3021687111
 20
3.7096105438
 10
5.3520688432
 20
3.7105852861
 10
5.3981031968
 20
3.7115600284
 10
5.4397771005
 20
3.7125347707
 10
5.4766427385
 20
3.713509513
 10
5.5083039635
 20
3.7144842553
 10
5.5344205534
 20
3.7154589976
 10
5.554711867
 20
3.7164337399
 10
5.5689598596
 20
3.7174084821
 10
5.5770114265
 20
3.7183832244
 10
5.5787062907
 20
3.7188832323
  0
LWPOLYLINE
  5
58F
100
AcDbEntity
  8
0
100
AcDbPolyline
 62
7
  6
CONTINUOUS
 90
13
 70
0
 10
5.1929517391
 20
3.715042949
 10
5.2489390128
 20
3.7160176913
 10
5.3021687111
 20
3.7169924336
 10
5.3520688432
 20
3.7179671759
 10
5.3981031968
 20
3.7189419182
 10
5.4397771005
 20
3.7199166605
 10
5.4766427385
 20
3.7208914028
 10
5.5083039635
 20
3.721866145
 10
5.5344205534
 20
3.7228408873
 10
5.554711867
 20
3.7238156296
 10
5.5689598596
 20
3.7247903719
 10
5.5770114265
 20
3.7257651142
 10
5.5789320487
 20
3.7265258887
  0
LINE
  5
590
100
AcDbEntity
  8
0
100
AcDbLine
 62
7
  6
CONTINUOUS
 10
5.1625118499
 20
3.6761147028
 11
5.0498635528
 21
3.6741473626
  0
LINE
  5
591
100
AcDbEntity
  8
0
100
AcDbLine
 62
7
  6
CONTINUOUS
 10
4.8213637966
 20
3.6809588769
 11
4.934613534
 21
3.6829371273
  0
LINE
  5
592
100
AcDbEntity
  8
0
100
AcDbLine
 62
7
  6
CONTINUOUS
 10
5.1631664943
 20
3.73518156
 11
5.0500124422
 21
3.7332050336
  0
LINE
  5
593
100
AcDbEntity
  8
0
100
AcDbLine
 62
7
  6
CONTINUOUS
 10
4.8222513343
 20
3.7400299103
 11
4.9348006083
 21
3.7419954531
  0
LINE
  5
594
100
AcDbEntity
  8
0
100
AcDbLine
 62
7
  6
CONTINUOUS
 10
5.0498635528
 20
3.6741473626
 11
4.8496475065
 21
3.6707034034
  0
LWPOLYLINE
  5
595
100
AcDbEntity
  8
0
100
AcDbPolyline
 62
7
  6
CONTINUOUS
 90
3
 70
0
 10
4.934613534
 20
3.6829371273
 10
5.0500124422
 20
3.6849085578
 10
5.1631664943
 20
3.6868850843
  0
LWPOLYLINE
  5
596
100
AcDbEntity
  8
0
100
AcDbPolyline
 62
7
  6
CONTINUOUS
 90
3
 70
0
 10
5.0500124422
 20
3.7332050336
 10
4.934613534
 20
3.7312336031
 10
4.8213637966
 20
3.7292553527
  0
LWPOLYLINE
  5
597
100
AcDbEntity
  8
0
100
AcDbPolyline
 62
7
  6
CONTINUOUS
 90
3
 70
0
 10
4.9348006083
 20
3.7419954531
 10
5.0498482332
 20
3.7439608604
 10
5.1624008186
 20
3.7459264727
  0
LWPOLYLINE
  5
598
100
AcDbEntity
  8
0
100
AcDbPolyline
 62
7
  6
CONTINUOUS
 90
13
 70
0
 10
5.1591386973
 20
3.7661455965
 10
5.2164626385
 20
3.7671203388
 10
5.2713779858
 20
3.7680950811
 10
5.323294635
 20
3.7690698234
 10
5.371654705
 20
3.7700445657
 10
5.4159385327
 20
3.771019308
 10
5.455670257
 20
3.7719940503
 10
5.4904229326
 20
3.7729687925
 10
5.5198231173
 20
3.7739435348
 10
5.5435548853
 20
3.7749182771
 10
5.5613632221
 20
3.7758930194
 10
5.5730567645
 20
3.7768677617
 10
5.5787062907
 20
3.7779383504
  0
LINE
  5
599
100
AcDbEntity
  8
0
100
AcDbLine
 62
7
  6
CONTINUOUS
 10
5.0751341237
 20
3.7057115747
 11
5.1929517391
 21
3.7076610593
  0
LINE
  5
59A
100
AcDbEntity
  8
0
100
AcDbLine
 62
7
  6
CONTINUOUS
 10
5.0751341237
 20
3.7130934645
 11
5.1929517391
 21
3.715042949
  0
LWPOLYLINE
  5
59B
100
AcDbEntity
  8
0
100
AcDbPolyline
 62
7
  6
CONTINUOUS
 90
3
 70
0
 10
4.8000727974
 20
3.7602971428
 10
4.9183245706
 20
3.7622466274
 10
5.0397482411
 20
3.764196112
  0
LWPOLYLINE
  5
59C
100
AcDbEntity
  8
0
100
AcDbPolyline
 62
7
  6
CONTINUOUS
 90
3
 70
0
 10
4.8000727974
 20
3.7676790326
 10
4.9183245706
 20
3.7696285171
 10
5.2164626385
 20
3.7745022286
  0
LINE
  5
59D
100
AcDbEntity
  8
0
100
AcDbLine
 62
7
  6
CONTINUOUS
 10
4.8340512656
 20
3.7018126055
 11
5.0751341237
 21
3.7057115747
  0
LINE
  5
59E
100
AcDbEntity
  8
0
100
AcDbLine
 62
7
  6
CONTINUOUS
 10
4.8340512656
 20
3.7091944953
 11
5.0751341237
 21
3.7130934645
  0
LINE
  5
59F
100
AcDbEntity
  8
0
100
AcDbLine
 62
7
  6
CONTINUOUS
 10
5.0397482411
 20
3.764196112
 11
5.1591386973
 21
3.7661455965
  0
LINE
  5
5A0
100
AcDbEntity
  8
0
100
AcDbLine
 62
7
  6
CONTINUOUS
 10
4.4059294603
 20
3.9846312638
 11
4.4410766791
 21
3.964330696
  0
LINE
  5
5A1
100
AcDbEntity
  8
0
100
AcDbLine
 62
7
  6
CONTINUOUS
 10
4.4059294603
 20
4.0436863819
 11
4.4410766791
 21
4.0233858142
  0
LINE
  5
5A2
100
AcDbEntity
  8
0
100
AcDbLine
 62
7
  6
CONTINUOUS
 10
4.4059294603
 20
4.1617966181
 11
4.4057037023
 21
4.1620573847
  0
LINE
  5
5A3
100
AcDbEntity
  8
0
100
AcDbLine
 62
7
  6
CONTINUOUS
 10
4.4059294603
 20
4.2208517362
 11
4.4057037023
 21
4.2211125028
  0
LINE
  5
5A4
100
AcDbEntity
  8
0
100
AcDbLine
 62
7
  6
CONTINUOUS
 10
5.2263949592
 20
3.0345445009
 11
5.2265495881
 21
3.0343166272
  0
LINE
  5
5A5
100
AcDbEntity
  8
0
100
AcDbLine
 62
7
  6
CONTINUOUS
 10
5.2263949592
 20
3.0739145797
 11
5.2265495881
 21
3.0736867059
  0
LINE
  5
5A6
100
AcDbEntity
  8
0
100
AcDbLine
 62
7
  6
CONTINUOUS
 10
5.2263949592
 20
3.1132846584
 11
5.2265495881
 21
3.1130567846
  0
LINE
  5
5A7
100
AcDbEntity
  8
0
100
AcDbLine
 62
7
  6
CONTINUOUS
 10
5.2263949592
 20
3.1526547372
 11
5.2265495881
 21
3.1524268634
  0
LINE
  5
5A8
100
AcDbEntity
  8
0
100
AcDbLine
 62
7
  6
CONTINUOUS
 10
5.2263949592
 20
3.1920248159
 11
5.2265495881
 21
3.1917969421
  0
LINE
  5
5A9
100
AcDbEntity
  8
0
100
AcDbLine
 62
7
  6
CONTINUOUS
 10
4.7588330527
 20
3.3276237138
 11
4.7588330527
 21
3.2488835563
  0
LINE
  5
5AA
100
AcDbEntity
  8
02___PRT_ALL_AXES
100
AcDbLine
 62
7
  6
CONTINUOUS
 10
4.7588330527
 20
3.3276237138
 11
4.7588330527
 21
3.2488835563
  0
LINE
  5
5AB
100
AcDbEntity
  8
0
100
AcDbLine
 62
7
  6
CONTINUOUS
 10
4.7588330527
 20
3.2114819815
 11
4.7588330527
 21
3.2095134776
  0
LINE
  5
5AC
100
AcDbEntity
  8
02___PRT_ALL_AXES
100
AcDbLine
 62
7
  6
CONTINUOUS
 10
4.7588330527
 20
3.2114819815
 11
4.7588330527
 21
3.2095134776
  0
LINE
  5
5AD
100
AcDbEntity
  8
0
100
AcDbLine
 62
7
  6
CONTINUOUS
 10
4.7588330527
 20
3.1721119028
 11
4.7588330527
 21
3.1701433988
  0
LINE
  5
5AE
100
AcDbEntity
  8
02___PRT_ALL_AXES
100
AcDbLine
 62
7
  6
CONTINUOUS
 10
4.7588330527
 20
3.1721119028
 11
4.7588330527
 21
3.1701433988
  0
LINE
  5
5AF
100
AcDbEntity
  8
0
100
AcDbLine
 62
7
  6
CONTINUOUS
 10
4.7588330527
 20
3.132741824
 11
4.7588330527
 21
3.1307733201
  0
LINE
  5
5B0
100
AcDbEntity
  8
02___PRT_ALL_AXES
100
AcDbLine
 62
7
  6
CONTINUOUS
 10
4.7588330527
 20
3.132741824
 11
4.7588330527
 21
3.1307733201
  0
LINE
  5
5B1
100
AcDbEntity
  8
0
100
AcDbLine
 62
7
  6
CONTINUOUS
 10
4.7588330527
 20
3.0933717453
 11
4.7588330527
 21
3.0914032413
  0
LINE
  5
5B2
100
AcDbEntity
  8
02___PRT_ALL_AXES
100
AcDbLine
 62
7
  6
CONTINUOUS
 10
4.7588330527
 20
3.0933717453
 11
4.7588330527
 21
3.0914032413
  0
LINE
  5
5B3
100
AcDbEntity
  8
0
100
AcDbLine
 62
7
  6
CONTINUOUS
 10
4.7588330527
 20
3.0540016665
 11
4.7588330527
 21
3.0520331626
  0
LINE
  5
5B4
100
AcDbEntity
  8
02___PRT_ALL_AXES
100
AcDbLine
 62
7
  6
CONTINUOUS
 10
4.7588330527
 20
3.0540016665
 11
4.7588330527
 21
3.0520331626
  0
LINE
  5
5B5
100
AcDbEntity
  8
0
100
AcDbLine
 62
7
  6
CONTINUOUS
 10
4.7588330527
 20
3.0146315878
 11
4.7588330527
 21
3.0126630839
  0
LINE
  5
5B6
100
AcDbEntity
  8
02___PRT_ALL_AXES
100
AcDbLine
 62
7
  6
CONTINUOUS
 10
4.7588330527
 20
3.0146315878
 11
4.7588330527
 21
3.0126630839
  0
LINE
  5
5B7
100
AcDbEntity
  8
0
100
AcDbLine
 62
7
  6
CONTINUOUS
 10
4.7588330527
 20
2.9752615091
 11
4.7588330527
 21
2.9732930051
  0
LINE
  5
5B8
100
AcDbEntity
  8
02___PRT_ALL_AXES
100
AcDbLine
 62
7
  6
CONTINUOUS
 10
4.7588330527
 20
2.9752615091
 11
4.7588330527
 21
2.9732930051
  0
LINE
  5
5B9
100
AcDbEntity
  8
0
100
AcDbLine
 62
7
  6
CONTINUOUS
 10
4.7588330527
 20
2.9358914303
 11
4.7588330527
 21
2.9339229264
  0
LINE
  5
5BA
100
AcDbEntity
  8
02___PRT_ALL_AXES
100
AcDbLine
 62
7
  6
CONTINUOUS
 10
4.7588330527
 20
2.9358914303
 11
4.7588330527
 21
2.9339229264
  0
LINE
  5
5BB
100
AcDbEntity
  8
0
100
AcDbLine
 62
7
  6
CONTINUOUS
 10
4.7588330527
 20
2.8965213516
 11
4.7588330527
 21
2.8945528476
  0
LINE
  5
5BC
100
AcDbEntity
  8
02___PRT_ALL_AXES
100
AcDbLine
 62
7
  6
CONTINUOUS
 10
4.7588330527
 20
2.8965213516
 11
4.7588330527
 21
2.8945528476
  0
LINE
  5
5BD
100
AcDbEntity
  8
02___PRT_ALL_AXES
100
AcDbLine
 62
7
  6
CONTINUOUS
 10
4.7588330527
 20
2.8571512728
 11
4.7588330527
 21
2.8551827689
  0
LINE
  5
5BE
100
AcDbEntity
  8
0
100
AcDbLine
 62
7
  6
CONTINUOUS
 10
4.7889511629
 20
2.8354977295
 11
4.7889511629
 21
2.7961276508
  0
LINE
  5
5BF
100
AcDbEntity
  8
0
100
AcDbLine
 62
7
  6
CONTINUOUS
 10
4.4057037023
 20
3.8741636839
 11
4.4059294603
 21
3.8744244505
  0
LINE
  5
5C0
100
AcDbEntity
  8
0
100
AcDbLine
 62
7
  6
CONTINUOUS
 10
4.4057037023
 20
3.8151085658
 11
4.4059294603
 21
3.8153693324
  0
LINE
  5
5C1
100
AcDbEntity
  8
0
100
AcDbLine
 62
7
  6
CONTINUOUS
 10
4.4057037023
 20
3.7560534477
 11
4.4059294603
 21
3.7563142143
  0
LINE
  5
5C2
100
AcDbEntity
  8
0
100
AcDbLine
 62
7
  6
CONTINUOUS
 10
4.4413770258
 20
4.1311189701
 11
4.4059294603
 21
4.110644923
  0
LINE
  5
5C3
100
AcDbEntity
  8
0
100
AcDbLine
 62
7
  6
CONTINUOUS
 10
4.4413770258
 20
4.072063852
 11
4.4059294603
 21
4.0515898049
  0
LINE
  5
5C4
100
AcDbEntity
  8
0
100
AcDbLine
 62
7
  6
CONTINUOUS
 10
4.4413770258
 20
4.0130087339
 11
4.4059294603
 21
3.9925346868
  0
LINE
  5
5C5
100
AcDbEntity
  8
0
100
AcDbLine
 62
7
  6
CONTINUOUS
 10
4.4059294603
 20
4.1697000411
 11
4.4063345101
 21
4.1698751915
  0
LWPOLYLINE
  5
5C6
100
AcDbEntity
  8
0
100
AcDbPolyline
 62
7
  6
CONTINUOUS
 90
13
 70
0
 10
4.4411367731
 20
4.141600092
 10
4.4440971658
 20
4.1425746656
 10
4.4530599425
 20
4.1435586089
 10
4.4678900259
 20
4.144540491
 10
4.4885144759
 20
4.1455255793
 10
4.5147847912
 20
4.1465146545
 10
4.5462889986
 20
4.1475022955
 10
4.5825568685
 20
4.1484859396
 10
4.6234994476
 20
4.1494739633
 10
4.6685515158
 20
4.1504627801
 10
4.7169533676
 20
4.1514470617
 10
4.7682517158
 20
4.1524290918
 10
4.8221136456
 20
4.1534132686
  0
LWPOLYLINE
  5
5C7
100
AcDbEntity
  8
0
100
AcDbPolyline
 62
7
  6
CONTINUOUS
 90
13
 70
0
 10
4.4411367731
 20
4.20065521
 10
4.4441138416
 20
4.2016325272
 10
4.4530951952
 20
4.2026166307
 10
4.4679723846
 20
4.2036001689
 10
4.4886273943
 20
4.2045854419
 10
4.5147447072
 20
4.2055684037
 10
4.5461135175
 20
4.2065523184
 10
4.5823266423
 20
4.2075351858
 10
4.6230937759
 20
4.2085197685
 10
4.667831375
 20
4.2095027154
 10
4.7161944869
 20
4.2104872344
 10
4.7675001062
 20
4.2114701772
 10
4.821291349
 20
4.2124536404
  0
LWPOLYLINE
  5
5C8
100
AcDbEntity
  8
0
100
AcDbPolyline
 62
7
  6
CONTINUOUS
 90
11
 70
0
 10
4.4057037023
 20
3.6305613217
 10
4.4094997807
 20
3.6316311608
 10
4.4195286257
 20
3.6326059031
 10
4.4357124959
 20
3.6335806454
 10
4.4578774843
 20
3.6345553877
 10
4.4857854124
 20
3.63553013
 10
4.5191363898
 20
3.6365048723
 10
4.5575720367
 20
3.6374796146
 10
4.6006793348
 20
3.6384543568
 10
4.6479950659
 20
3.6394290991
 10
4.6990107889
 20
3.6404038414
  0
LWPOLYLINE
  5
5C9
100
AcDbEntity
  8
0
100
AcDbPolyline
 62
7
  6
CONTINUOUS
 90
13
 70
0
 10
4.4065311024
 20
3.6974975879
 10
4.4129027027
 20
3.6984723301
 10
4.4255005285
 20
3.6994470724
 10
4.4441892072
 20
3.7004218147
 10
4.4687679159
 20
3.701396557
 10
4.4989725389
 20
3.7023712993
 10
4.5344785062
 20
3.7033460416
 10
4.5749042811
 20
3.7043207839
 10
4.6198154601
 20
3.7052955262
 10
4.6687294408
 20
3.7062702684
 10
4.7211206079
 20
3.7072450107
 10
4.7764259813
 20
3.708219753
 10
4.8340512656
 20
3.7091944953
  0
LWPOLYLINE
  5
5CA
100
AcDbEntity
  8
0
100
AcDbPolyline
 62
7
  6
CONTINUOUS
 90
13
 70
0
 10
4.8222513343
 20
3.7883263861
 10
4.7684093012
 20
3.7873426818
 10
4.7170970971
 20
3.7863605397
 10
4.668718181
 20
3.7853769403
 10
4.6239494931
 20
3.7843949342
 10
4.5831338393
 20
3.7834112864
 10
4.5468618756
 20
3.7824295522
 10
4.5153021798
 20
3.7814429419
 10
4.488883673
 20
3.7804517208
 10
4.4680750455
 20
3.7794613741
 10
4.4531554625
 20
3.778477116
 10
4.4441428291
 20
3.7774928089
 10
4.4413770258
 20
3.7767882614
  0
LWPOLYLINE
  5
5CB
100
AcDbEntity
  8
0
100
AcDbPolyline
 62
7
  6
CONTINUOUS
 90
13
 70
0
 10
5.1624345401
 20
3.8049821954
 10
5.2162723163
 20
3.805965857
 10
5.2675929102
 20
3.806948211
 10
5.3159742689
 20
3.807931937
 10
5.3607500823
 20
3.8089142119
 10
5.4015725729
 20
3.8098981951
 10
5.4378540107
 20
3.8108804514
 10
5.4693203496
 20
3.8118642909
 10
5.4955296064
 20
3.8128466542
 10
5.5162706363
 20
3.8138303327
 10
5.5312639373
 20
3.8148128818
 10
5.5403808335
 20
3.8157967151
 10
5.5432587252
 20
3.8165194214
  0
LWPOLYLINE
  5
5CC
100
AcDbEntity
  8
0
100
AcDbPolyline
 62
7
  6
CONTINUOUS
 90
13
 70
0
 10
4.8215389485
 20
3.8473687304
 10
4.7675569894
 20
3.8463818885
 10
4.71624597
 20
3.8453988977
 10
4.6677810596
 20
3.844412303
 10
4.6229423407
 20
3.8434269389
 10
4.5823054869
 20
3.8424452951
 10
4.5461357202
 20
3.8414636122
 10
4.51477145
 20
3.840479966
 10
4.4886681142
 20
3.8394978004
 10
4.4680357328
 20
3.8385143205
 10
4.4531517721
 20
3.8375319311
 10
4.4441570108
 20
3.8365502429
 10
4.4413770258
 20
3.8358433795
  0
LWPOLYLINE
  5
5CD
100
AcDbEntity
  8
0
100
AcDbPolyline
 62
7
  6
CONTINUOUS
 90
13
 70
0
 10
5.1627974602
 20
3.8640438205
 10
5.2167722497
 20
3.865030307
 10
5.268151222
 20
3.866014322
 10
5.3167483939
 20
3.8670033737
 10
5.361764396
 20
3.8679926111
 10
5.4024954414
 20
3.8689768396
 10
5.4386606851
 20
3.8699589745
 10
5.4700211322
 20
3.8709433114
 10
5.4961113542
 20
3.8719261556
 10
5.5167217181
 20
3.8729103311
 10
5.531574182
 20
3.873893409
 10
5.5405338513
 20
3.8748767068
 10
5.5432587252
 20
3.8755745395
  0
LINE
  5
5CE
100
AcDbEntity
  8
0
100
AcDbLine
 62
7
  6
CONTINUOUS
 10
5.1624008186
 20
3.7942229485
 11
5.0498482332
 21
3.7922573361
  0
LINE
  5
5CF
100
AcDbEntity
  8
0
100
AcDbLine
 62
7
  6
CONTINUOUS
 10
4.8215389485
 20
3.7990722546
 11
4.9348185154
 21
3.8010508782
  0
LWPOLYLINE
  5
5D0
100
AcDbEntity
  8
0
100
AcDbPolyline
 62
7
  6
CONTINUOUS
 90
13
 70
0
 10
5.1831604653
 20
3.8256048761
 10
5.2395591414
 20
3.8265796184
 10
5.2933010353
 20
3.8275543607
 10
5.3438086525
 20
3.8285291029
 10
5.3905392528
 20
3.8295038452
 10
5.4329906831
 20
3.8304785875
 10
5.4707067726
 20
3.8314533298
 10
5.5032822353
 20
3.8324280721
 10
5.5303670248
 20
3.8334028144
 10
5.551670096
 20
3.8343775567
 10
5.5669625322
 20
3.835352299
 10
5.5760800055
 20
3.8363270412
 10
5.5787062907
 20
3.8369934685
  0
LWPOLYLINE
  5
5D1
100
AcDbEntity
  8
0
100
AcDbPolyline
 62
7
  6
CONTINUOUS
 90
13
 70
0
 10
5.1831604653
 20
3.8329867658
 10
5.2395591414
 20
3.8339615081
 10
5.2933010353
 20
3.8349362504
 10
5.3438086525
 20
3.8359109927
 10
5.3905392528
 20
3.836885735
 10
5.4329906831
 20
3.8378604773
 10
5.4707067726
 20
3.8388352196
 10
5.5032822353
 20
3.8398099619
 10
5.5303670248
 20
3.8407847041
 10
5.551670096
 20
3.8417594464
 10
5.5669625322
 20
3.8427341887
 10
5.5760800055
 20
3.843708931
 10
5.5789320487
 20
3.8446361249
  0
LINE
  5
5D2
100
AcDbEntity
  8
0
100
AcDbLine
 62
7
  6
CONTINUOUS
 10
5.1624345401
 20
3.8532786711
 11
5.0498599885
 21
3.8513126558
  0
LINE
  5
5D3
100
AcDbEntity
  8
0
100
AcDbLine
 62
7
  6
CONTINUOUS
 10
4.8220865412
 20
3.8581371921
 11
4.9347357458
 21
3.8601045771
  0
LWPOLYLINE
  5
5D4
100
AcDbEntity
  8
0
100
AcDbPolyline
 62
7
  6
CONTINUOUS
 90
3
 70
0
 10
5.0498482332
 20
3.7922573361
 10
4.9348006083
 20
3.7902919288
 10
4.8222513343
 20
3.7883263861
  0
LWPOLYLINE
  5
5D5
100
AcDbEntity
  8
0
100
AcDbPolyline
 62
7
  6
CONTINUOUS
 90
3
 70
0
 10
4.9348185154
 20
3.8010508782
 10
5.0498599885
 20
3.80301618
 10
5.1624345401
 20
3.8049821954
  0
LWPOLYLINE
  5
5D6
100
AcDbEntity
  8
0
100
AcDbPolyline
 62
7
  6
CONTINUOUS
 90
3
 70
0
 10
5.0498599885
 20
3.8513126558
 10
4.9348185154
 20
3.849347354
 10
4.8215389485
 20
3.8473687304
  0
LWPOLYLINE
  5
5D7
100
AcDbEntity
  8
0
100
AcDbPolyline
 62
7
  6
CONTINUOUS
 90
3
 70
0
 10
4.9347357458
 20
3.8601045771
 10
5.0498044295
 20
3.8620703455
 10
5.1627974602
 20
3.8640438205
  0
LWPOLYLINE
  5
5D8
100
AcDbEntity
  8
0
100
AcDbPolyline
 62
7
  6
CONTINUOUS
 90
13
 70
0
 10
5.1491551859
 20
3.8840894133
 10
5.2068294056
 20
3.8850641556
 10
5.2621985472
 20
3.8860388979
 10
5.3146676303
 20
3.8870136402
 10
5.3636728375
 20
3.8879883825
 10
5.4086875732
 20
3.8889631248
 10
5.4492281222
 20
3.8899378671
 10
5.4848588477
 20
3.8909126093
 10
5.5151968724
 20
3.8918873516
 10
5.5399161927
 20
3.8928620939
 10
5.5587511821
 20
3.8938368362
 10
5.5714994453
 20
3.8948115785
 10
5.5780239932
 20
3.8957863208
  0
LWPOLYLINE
  5
5D9
100
AcDbEntity
  8
0
100
AcDbPolyline
 62
7
  6
CONTINUOUS
 90
14
 70
0
 10
5.1491551859
 20
3.8914713031
 10
5.2068294056
 20
3.8924460454
 10
5.2621985472
 20
3.8934207877
 10
5.3146676303
 20
3.89439553
 10
5.3636728375
 20
3.8953702723
 10
5.4086875732
 20
3.8963450145
 10
5.4492281222
 20
3.8973197568
 10
5.4848588477
 20
3.8982944991
 10
5.5151968724
 20
3.8992692414
 10
5.5399161927
 20
3.9002439837
 10
5.5587511821
 20
3.901218726
 10
5.5714994453
 20
3.9021934683
 10
5.5780239932
 20
3.9031682106
 10
5.5789320487
 20
3.903691243
  0
LINE
  5
5DA
100
AcDbEntity
  8
0
100
AcDbLine
 62
7
  6
CONTINUOUS
 10
5.064838978
 20
3.8236553915
 11
5.1831604653
 21
3.8256048761
  0
LINE
  5
5DB
100
AcDbEntity
  8
0
100
AcDbLine
 62
7
  6
CONTINUOUS
 10
5.064838978
 20
3.8310372813
 11
5.1831604653
 21
3.8329867658
  0
LWPOLYLINE
  5
5DC
100
AcDbEntity
  8
0
100
AcDbPolyline
 62
7
  6
CONTINUOUS
 90
3
 70
0
 10
4.7902903218
 20
3.8782409596
 10
4.9080329364
 20
3.8801904442
 10
5.1491551859
 20
3.8840894133
  0
LWPOLYLINE
  5
5DD
100
AcDbEntity
  8
0
100
AcDbPolyline
 62
7
  6
CONTINUOUS
 90
3
 70
0
 10
4.7902903218
 20
3.8856228494
 10
4.9080329364
 20
3.8875723339
 10
5.1491551859
 20
3.8914713031
  0
LWPOLYLINE
  5
5DE
100
AcDbEntity
  8
0
100
AcDbPolyline
 62
7
  6
CONTINUOUS
 90
3
 70
0
 10
4.8240750342
 20
3.8197564224
 10
4.9434087026
 20
3.8217059069
 10
5.064838978
 20
3.8236553915
  0
LWPOLYLINE
  5
5DF
100
AcDbEntity
  8
0
100
AcDbPolyline
 62
7
  6
CONTINUOUS
 90
3
 70
0
 10
4.8240750342
 20
3.8271383121
 10
4.9434087026
 20
3.8290877967
 10
5.064838978
 20
3.8310372813
  0
LINE
  5
5E0
100
AcDbEntity
  8
0
100
AcDbLine
 62
7
  6
CONTINUOUS
 10
4.4059294603
 20
4.1027415
 11
4.4410766791
 21
4.0824409323
  0
LINE
  5
5E1
100
AcDbEntity
  8
0
100
AcDbLine
 62
7
  6
CONTINUOUS
 10
4.4059294603
 20
4.1617966181
 11
4.4410766791
 21
4.1414960504
  0
LINE
  5
5E2
100
AcDbEntity
  8
0
100
AcDbLine
 62
7
  6
CONTINUOUS
 10
5.5787062907
 20
3.4905661828
 11
5.5435590718
 21
3.5108667506
  0
LINE
  5
5E3
100
AcDbEntity
  8
0
100
AcDbLine
 62
7
  6
CONTINUOUS
 10
4.4057037023
 20
3.6969983296
 11
4.4059294603
 21
3.6972590962
  0
LINE
  5
5E4
100
AcDbEntity
  8
0
100
AcDbLine
 62
7
  6
CONTINUOUS
 10
4.4057037023
 20
3.6379432115
 11
4.4059294603
 21
3.6382039781
  0
LINE
  5
5E5
100
AcDbEntity
  8
0
100
AcDbLine
 62
7
  6
CONTINUOUS
 10
4.4057037023
 20
3.5788880934
 11
4.4059294603
 21
3.57914886
  0
LWPOLYLINE
  5
5E6
100
AcDbEntity
  8
0
100
AcDbPolyline
 62
7
  6
CONTINUOUS
 90
14
 70
0
 10
4.4057037023
 20
3.8077266761
 10
4.4060714837
 20
3.8080595149
 10
4.4113713639
 20
3.8090342572
 10
4.4229139249
 20
3.8100089995
 10
4.4405751338
 20
3.8109837418
 10
4.4641652083
 20
3.8119584841
 10
4.4934306566
 20
3.8129332263
 10
4.5280570006
 20
3.8139079686
 10
4.5676721557
 20
3.8148827109
 10
4.6118504293
 20
3.8158574532
 10
4.6601170944
 20
3.8168321955
 10
4.7119534918
 20
3.8178069378
 10
4.7668026025
 20
3.8187816801
 10
4.8240750342
 20
3.8197564224
  0
LINE
  5
5E7
100
AcDbEntity
  8
0
100
AcDbLine
 62
7
  6
CONTINUOUS
 10
4.4413770258
 20
3.9539536158
 11
4.4059294603
 21
3.9334795686
  0
LINE
  5
5E8
100
AcDbEntity
  8
0
100
AcDbLine
 62
7
  6
CONTINUOUS
 10
4.4413770258
 20
3.8948984977
 11
4.4059294603
 21
3.8744244505
  0
LWPOLYLINE
  5
5E9
100
AcDbEntity
  8
0
100
AcDbPolyline
 62
7
  6
CONTINUOUS
 90
14
 70
0
 10
4.4057037023
 20
3.9848920304
 10
4.4067843103
 20
3.9854626113
 10
4.4136146273
 20
3.9864373535
 10
4.4266635197
 20
3.9874120958
 10
4.4457907678
 20
3.9883868381
 10
4.470790836
 20
3.9893615804
 10
4.5013950808
 20
3.9903363227
 10
4.537274638
 20
3.991311065
 10
4.5780439564
 20
3.9922858073
 10
4.6232649408
 20
3.9932605496
 10
4.6724516597
 20
3.9942352918
 10
4.7250755673
 20
3.9952100341
 10
4.7805711823
 20
3.9961847764
 10
4.8383421652
 20
3.9971595187
  0
LINE
  5
5EA
100
AcDbEntity
  8
0
100
AcDbLine
 62
7
  6
CONTINUOUS
 10
4.4059294603
 20
3.9925346868
 11
4.4067843103
 21
3.992844501
  0
LWPOLYLINE
  5
5EB
100
AcDbEntity
  8
0
100
AcDbPolyline
 62
7
  6
CONTINUOUS
 90
13
 70
0
 10
4.4411367731
 20
4.0234898555
 10
4.444147124
 20
4.0244726256
 10
4.4531507455
 20
4.0254558435
 10
4.4680321805
 20
4.0264381209
 10
4.4886619956
 20
4.0274215403
 10
4.5147604972
 20
4.0284035886
 10
4.5461200142
 20
4.0293871527
 10
4.5822774353
 20
4.030368576
 10
4.6231229731
 20
4.0313550848
 10
4.668232519
 20
4.0323458206
 10
4.7168779907
 20
4.0333353416
 10
4.7682495533
 20
4.0343188153
 10
4.82215402
 20
4.0353037562
  0
LWPOLYLINE
  5
5EC
100
AcDbEntity
  8
0
100
AcDbPolyline
 62
7
  6
CONTINUOUS
 90
13
 70
0
 10
4.4411367731
 20
4.0825449801
 10
4.4442259615
 20
4.0835405412
 10
4.4532993029
 20
4.0845231241
 10
4.4682662894
 20
4.0855061494
 10
4.4889857537
 20
4.0864902271
 10
4.5151804229
 20
4.0874730291
 10
4.5466373452
 20
4.0884572808
 10
4.5829106955
 20
4.0894398379
 10
4.6236972067
 20
4.0904233821
 10
4.6684855126
 20
4.0914062711
 10
4.7169249721
 20
4.0923913846
 10
4.7682728614
 20
4.0933743684
 10
4.8221308241
 20
4.0943584585
  0
LWPOLYLINE
  5
5ED
100
AcDbEntity
  8
0
100
AcDbPolyline
 62
7
  6
CONTINUOUS
 90
13
 70
0
 10
4.4057037023
 20
4.0439471485
 10
4.4088223277
 20
4.044916744
 10
4.4181450448
 20
4.0458863395
 10
4.4335727286
 20
4.046855935
 10
4.4549413423
 20
4.0478255306
 10
4.4820236813
 20
4.0487951261
 10
4.5145317891
 20
4.0497647216
 10
4.5521200192
 20
4.0507343171
 10
4.5943887097
 20
4.0517039126
 10
4.6408884334
 20
4.0526735081
 10
4.691124776
 20
4.0536431036
 10
4.7445635931
 20
4.0546126991
 10
4.8006366896
 20
4.0555822946
  0
LWPOLYLINE
  5
5EE
100
AcDbEntity
  8
0
100
AcDbPolyline
 62
7
  6
CONTINUOUS
 90
13
 70
0
 10
4.4059294603
 20
3.7563142143
 10
4.4084114731
 20
3.7569568674
 10
4.4173768413
 20
3.7579316097
 10
4.4325203572
 20
3.758906352
 10
4.4536792931
 20
3.7598810943
 10
4.4806262812
 20
3.7608558366
 10
4.5130717571
 20
3.7618305788
 10
4.5506670713
 20
3.7628053211
 10
4.5930082355
 20
3.7637800634
 10
4.6396402639
 20
3.7647548057
 10
4.6900620626
 20
3.765729548
 10
4.7437318135
 20
3.7667042903
 10
4.8000727974
 20
3.7676790326
  0
LWPOLYLINE
  5
5EF
100
AcDbEntity
  8
0
100
AcDbPolyline
 62
7
  6
CONTINUOUS
 90
13
 70
0
 10
4.4059294603
 20
3.8153693324
 10
4.4113713639
 20
3.816416147
 10
4.4229139249
 20
3.8173908892
 10
4.4405751338
 20
3.8183656315
 10
4.4641652083
 20
3.8193403738
 10
4.4934306566
 20
3.8203151161
 10
4.5280570006
 20
3.8212898584
 10
4.5676721557
 20
3.8222646007
 10
4.6118504293
 20
3.823239343
 10
4.6601170944
 20
3.8242140853
 10
4.7119534918
 20
3.8251888275
 10
4.7668026025
 20
3.8261635698
 10
4.8240750342
 20
3.8271383121
  0
LWPOLYLINE
  5
5F0
100
AcDbEntity
  8
0
100
AcDbPolyline
 62
7
  6
CONTINUOUS
 90
13
 70
0
 10
5.1634781137
 20
3.9821662645
 10
5.2173810169
 20
3.9831519123
 10
5.2686252924
 20
3.9841338982
 10
5.316933483
 20
3.9851175147
 10
5.3616213855
 20
3.9860995617
 10
5.4023453449
 20
3.987083245
 10
5.4385269824
 20
3.9880653259
 10
5.4698991852
 20
3.9890493807
 10
5.4960065906
 20
3.9900319903
 10
5.5166185904
 20
3.9910148612
 10
5.531494762
 20
3.9919971099
 10
5.5404933842
 20
3.9929803039
 10
5.5432587252
 20
3.9936847757
  0
LWPOLYLINE
  5
5F1
100
AcDbEntity
  8
0
100
AcDbPolyline
 62
7
  6
CONTINUOUS
 90
13
 70
0
 10
4.8220865412
 20
3.9064336679
 10
4.7682166376
 20
3.9054493223
 10
4.7168885404
 20
3.9044666707
 10
4.6685606417
 20
3.9034838576
 10
4.6236736278
 20
3.9024988446
 10
4.5827859793
 20
3.9015126643
 10
4.546507447
 20
3.9005295183
 10
4.5150682449
 20
3.8995452101
 10
4.4888918371
 20
3.8985622989
 10
4.4681914968
 20
3.8975780341
 10
4.4532517367
 20
3.8965952412
 10
4.4441927586
 20
3.8956111749
 10
4.4413770258
 20
3.8948984977
  0
LWPOLYLINE
  5
5F2
100
AcDbEntity
  8
0
100
AcDbPolyline
 62
7
  6
CONTINUOUS
 90
13
 70
0
 10
5.1626154355
 20
3.9230956748
 10
5.2164275566
 20
3.9240789905
 10
5.2677640579
 20
3.9250618162
 10
5.3161624902
 20
3.926046139
 10
5.3609430076
 20
3.9270288722
 10
5.4017616931
 20
3.9280132472
 10
5.4380251361
 20
3.9289956459
 10
5.4694504785
 20
3.9299789576
 10
5.4957842091
 20
3.9309675443
 10
5.5165633377
 20
3.9319566903
 10
5.5314848204
 20
3.9329411752
 10
5.5405053239
 20
3.93392714
 10
5.5432587252
 20
3.9346296576
  0
LWPOLYLINE
  5
5F3
100
AcDbEntity
  8
0
100
AcDbPolyline
 62
7
  6
CONTINUOUS
 90
13
 70
0
 10
4.8221137614
 20
3.965489274
 10
4.7682513274
 20
3.9645050879
 10
4.7169190508
 20
3.9635223895
 10
4.6685188386
 20
3.9625380948
 10
4.6237345429
 20
3.9615553599
 10
4.5829139877
 20
3.9605710432
 10
4.546629191
 20
3.9595881659
 10
4.5151364949
 20
3.9586026541
 10
4.4889019219
 20
3.9576178394
 10
4.4682282169
 20
3.956635175
 10
4.4532775576
 20
3.9556524698
 10
4.4442068255
 20
3.9546685715
 10
4.4413770258
 20
3.9539536158
  0
LINE
  5
5F4
100
AcDbEntity
  8
0
100
AcDbLine
 62
7
  6
CONTINUOUS
 10
5.1627974602
 20
3.9123402963
 11
5.0498044295
 21
3.9103668213
  0
LINE
  5
5F5
100
AcDbEntity
  8
0
100
AcDbLine
 62
7
  6
CONTINUOUS
 10
4.8221137614
 20
3.9171927982
 11
4.9347452316
 21
3.9191598579
  0
LINE
  5
5F6
100
AcDbEntity
  8
0
100
AcDbLine
 62
7
  6
CONTINUOUS
 10
5.1626154355
 20
3.9713921506
 11
5.0499218092
 21
3.969423952
  0
LINE
  5
5F7
100
AcDbEntity
  8
0
100
AcDbLine
 62
7
  6
CONTINUOUS
 10
4.8218906881
 20
3.9762439167
 11
4.934692243
 21
3.9782140675
  0
LWPOLYLINE
  5
5F8
100
AcDbEntity
  8
0
100
AcDbPolyline
 62
7
  6
CONTINUOUS
 90
3
 70
0
 10
5.0498044295
 20
3.9103668213
 10
4.9347357458
 20
3.9084010529
 10
4.8220865412
 20
3.9064336679
  0
LWPOLYLINE
  5
5F9
100
AcDbEntity
  8
0
100
AcDbPolyline
 62
7
  6
CONTINUOUS
 90
3
 70
0
 10
4.9347452316
 20
3.9191598579
 10
5.0499218092
 20
3.9211274762
 10
5.1626154355
 20
3.9230956748
  0
LWPOLYLINE
  5
5FA
100
AcDbEntity
  8
0
100
AcDbPolyline
 62
7
  6
CONTINUOUS
 90
13
 70
0
 10
5.1733093619
 20
3.9435486929
 10
5.2301017591
 20
3.9445234352
 10
5.2843390005
 20
3.9454981775
 10
5.3354382685
 20
3.9464729197
 10
5.3828504654
 20
3.947447662
 10
5.4260661136
 20
3.9484224043
 10
5.4646208304
 20
3.9493971466
 10
5.4981003183
 20
3.9503718889
 10
5.5261448163
 20
3.9513466312
 10
5.5484529665
 20
3.9523213735
 10
5.5647850522
 20
3.9532961158
 10
5.5749655735
 20
3.954270858
 10
5.5787062907
 20
3.9551037048
  0
LWPOLYLINE
  5
5FB
100
AcDbEntity
  8
0
100
AcDbPolyline
 62
7
  6
CONTINUOUS
 90
14
 70
0
 10
5.1733093619
 20
3.9509305826
 10
5.2301017591
 20
3.9519053249
 10
5.2843390005
 20
3.9528800672
 10
5.3354382685
 20
3.9538548095
 10
5.3828504654
 20
3.9548295518
 10
5.4260661136
 20
3.9558042941
 10
5.4646208304
 20
3.9567790364
 10
5.4981003183
 20
3.9577537787
 10
5.5261448163
 20
3.9587285209
 10
5.5484529665
 20
3.9597032632
 10
5.5647850522
 20
3.9606780055
 10
5.5749655735
 20
3.9616527478
 10
5.5788851335
 20
3.9626274901
 10
5.5789320487
 20
3.9627463611
  0
LWPOLYLINE
  5
5FC
100
AcDbEntity
  8
0
100
AcDbPolyline
 62
7
  6
CONTINUOUS
 90
3
 70
0
 10
5.0499218092
 20
3.969423952
 10
4.9347452316
 20
3.9674563337
 10
4.8221137614
 20
3.965489274
  0
LWPOLYLINE
  5
5FD
100
AcDbEntity
  8
0
100
AcDbPolyline
 62
7
  6
CONTINUOUS
 90
3
 70
0
 10
4.934692243
 20
3.9782140675
 10
5.0500107679
 20
3.9801841197
 10
5.1634781137
 20
3.9821662645
  0
LINE
  5
5FE
100
AcDbEntity
  8
0
100
AcDbLine
 62
7
  6
CONTINUOUS
 10
4.8141515474
 20
3.9377002392
 11
4.9330663438
 21
3.9396497237
  0
LINE
  5
5FF
100
AcDbEntity
  8
0
100
AcDbLine
 62
7
  6
CONTINUOUS
 10
4.8141515474
 20
3.9450821289
 11
4.9330663438
 21
3.9470316135
  0
LWPOLYLINE
  5
600
100
AcDbEntity
  8
0
100
AcDbPolyline
 62
7
  6
CONTINUOUS
 90
3
 70
0
 10
4.9330663438
 20
3.9396497237
 10
5.0545210967
 20
3.9415992083
 10
5.1733093619
 20
3.9435486929
  0
LWPOLYLINE
  5
601
100
AcDbEntity
  8
0
100
AcDbPolyline
 62
7
  6
CONTINUOUS
 90
3
 70
0
 10
4.9330663438
 20
3.9470316135
 10
5.0545210967
 20
3.9489810981
 10
5.1733093619
 20
3.9509305826
  0
LINE
  5
602
100
AcDbEntity
  8
0
100
AcDbLine
 62
7
  6
CONTINUOUS
 10
4.4059294603
 20
4.2208517362
 11
4.4410766791
 21
4.2005511685
  0
LINE
  5
603
100
AcDbEntity
  8
0
100
AcDbLine
 62
7
  6
CONTINUOUS
 10
5.5787062907
 20
3.5496213009
 11
5.5435590718
 21
3.5699218687
  0
LINE
  5
604
100
AcDbEntity
  8
0
100
AcDbLine
 62
7
  6
CONTINUOUS
 10
5.5787062907
 20
3.608676419
 11
5.5435590718
 21
3.6289769868
  0
LINE
  5
605
100
AcDbEntity
  8
02___PRT_ALL_AXES
100
AcDbLine
 62
7
  6
CENTER
 10
4.9923178755
 20
3.2788048161
 11
4.9923178755
 21
4.856757572
  0
LINE
  5
606
100
AcDbEntity
  8
0
100
AcDbLine
 62
7
  6
CONTINUOUS
 10
4.4057037023
 20
3.5198329753
 11
4.4059294603
 21
3.5200937419
  0
LINE
  5
607
100
AcDbEntity
  8
0
100
AcDbLine
 62
7
  6
CONTINUOUS
 10
4.4057037023
 20
3.4607778572
 11
4.4059294603
 21
3.4610386238
  0
LWPOLYLINE
  5
608
100
AcDbEntity
  8
0
100
AcDbPolyline
 62
7
  6
CONTINUOUS
 90
14
 70
0
 10
4.4057037023
 20
3.5124510855
 10
4.4059307601
 20
3.5127126017
 10
4.4107708034
 20
3.513687344
 10
4.421859981
 20
3.5146620863
 10
4.4390791319
 20
3.5156368286
 10
4.462243224
 20
3.5166115709
 10
4.4911033429
 20
3.5175863132
 10
4.5253493661
 20
3.5185610555
 10
4.5646132961
 20
3.5195357978
 10
4.6084732139
 20
3.52051054
 10
4.656457814
 20
3.5214852823
 10
4.7080514677
 20
3.5224600246
 10
4.7626997649
 20
3.5234347669
 10
4.819815471
 20
3.5244095092
  0
LINE
  5
609
100
AcDbEntity
  8
0
100
AcDbLine
 62
7
  6
CONTINUOUS
 10
4.4413770258
 20
3.8358433795
 11
4.4059294603
 21
3.8153693324
  0
LINE
  5
60A
100
AcDbEntity
  8
0
100
AcDbLine
 62
7
  6
CONTINUOUS
 10
4.4413770258
 20
3.7767882614
 11
4.4059294603
 21
3.7563142143
  0
LWPOLYLINE
  5
60B
100
AcDbEntity
  8
0
100
AcDbPolyline
 62
7
  6
CONTINUOUS
 90
13
 70
0
 10
4.4057037023
 20
3.8667817942
 10
4.4075062217
 20
3.8675187944
 10
4.4154053025
 20
3.8684935367
 10
4.4295037166
 20
3.869468279
 10
4.4496499665
 20
3.8704430213
 10
4.4756275667
 20
3.8714177636
 10
4.5071573694
 20
3.8723925059
 10
4.5439005646
 20
3.8733672482
 10
4.5854623208
 20
3.8743419905
 10
4.6313960274
 20
3.8753167327
 10
4.6812080943
 20
3.876291475
 10
4.7343632557
 20
3.8772662173
 10
4.7902903218
 20
3.8782409596
  0
LWPOLYLINE
  5
60C
100
AcDbEntity
  8
0
100
AcDbPolyline
 62
7
  6
CONTINUOUS
 90
13
 70
0
 10
4.4411367731
 20
3.9644347307
 10
4.4441463583
 20
3.9654173824
 10
4.4531881894
 20
3.9664037979
 10
4.4681217582
 20
3.9673879492
 10
4.4888892827
 20
3.9683759524
 10
4.5151747239
 20
3.9693625988
 10
4.5465636997
 20
3.9703449098
 10
4.582820617
 20
3.9713273072
 10
4.6236307194
 20
3.9723116208
 10
4.6684029092
 20
3.9732942941
 10
4.7167932004
 20
3.9742785542
 10
4.7681210548
 20
3.9752612987
 10
4.8218906881
 20
3.9762439167
  0
LWPOLYLINE
  5
60D
100
AcDbEntity
  8
0
100
AcDbPolyline
 62
7
  6
CONTINUOUS
 90
13
 70
0
 10
4.4411367731
 20
3.9053796191
 10
4.4442068255
 20
3.9063720957
 10
4.4532775576
 20
3.9073559941
 10
4.4682282169
 20
3.9083386992
 10
4.4889019219
 20
3.9093213636
 10
4.5151364949
 20
3.9103061783
 10
4.546629191
 20
3.9112916901
 10
4.5829139877
 20
3.9122745674
 10
4.6237345429
 20
3.9132588841
 10
4.6685188386
 20
3.9142416191
 10
4.7169190508
 20
3.9152259137
 10
4.7682513274
 20
3.9162086121
 10
4.8221137614
 20
3.9171927982
  0
LWPOLYLINE
  5
60E
100
AcDbEntity
  8
0
100
AcDbPolyline
 62
7
  6
CONTINUOUS
 90
13
 70
0
 10
4.4059294603
 20
3.9334795686
 10
4.4100221534
 20
3.9343599638
 10
4.420505831
 20
3.935334706
 10
4.4371340332
 20
3.9363094483
 10
4.4597280781
 20
3.9372841906
 10
4.4880451767
 20
3.9382589329
 10
4.5217810419
 20
3.9392336752
 10
4.5605731579
 20
3.9402084175
 10
4.6040046761
 20
3.9411831598
 10
4.651608894
 20
3.9421579021
 10
4.7028742706
 20
3.9431326443
 10
4.7572499234
 20
3.9441073866
 10
4.8141515474
 20
3.9450821289
  0
LWPOLYLINE
  5
60F
100
AcDbEntity
  8
0
100
AcDbPolyline
 62
7
  6
CONTINUOUS
 90
13
 70
0
 10
4.4067843103
 20
3.992844501
 10
4.4136146273
 20
3.9938192433
 10
4.4266635197
 20
3.9947939856
 10
4.4457907678
 20
3.9957687279
 10
4.470790836
 20
3.9967434702
 10
4.5013950808
 20
3.9977182125
 10
4.537274638
 20
3.9986929547
 10
4.5780439564
 20
3.999667697
 10
4.6232649408
 20
4.0006424393
 10
4.6724516597
 20
4.0016171816
 10
4.7250755673
 20
4.0025919239
 10
4.7805711823
 20
4.0035666662
 10
4.8383421652
 20
4.0045414085
  0
LWPOLYLINE
  5
610
100
AcDbEntity
  8
0
100
AcDbPolyline
 62
7
  6
CONTINUOUS
 90
13
 70
0
 10
4.8218906881
 20
4.0245403925
 10
4.7681210548
 20
4.0235577745
 10
4.7167932004
 20
4.0225750299
 10
4.6684029092
 20
4.0215907699
 10
4.6236307194
 20
4.0206080965
 10
4.582820617
 20
4.019623783
 10
4.5465636997
 20
4.0186413856
 10
4.5151747239
 20
4.0176590746
 10
4.4888892827
 20
4.0166724281
 10
4.4681217582
 20
4.0156844249
 10
4.4531881894
 20
4.0147002737
 10
4.4441463583
 20
4.0137138582
 10
4.4413770258
 20
4.0130087339
  0
LWPOLYLINE
  5
611
100
AcDbEntity
  8
0
100
AcDbPolyline
 62
7
  6
CONTINUOUS
 90
13
 70
0
 10
5.1624015737
 20
4.0412020768
 10
5.2162302345
 20
4.0421855441
 10
5.2675106786
 20
4.043167065
 10
5.3158184994
 20
4.0441491282
 10
5.3607789367
 20
4.0451353459
 10
5.401692938
 20
4.0461217323
 10
5.4379811283
 20
4.0471046067
 10
5.4695420963
 20
4.0480923154
 10
5.4958948948
 20
4.0490824207
 10
5.5166095389
 20
4.050069479
 10
5.531478422
 20
4.0510508861
 10
5.5404852206
 20
4.0520340881
 10
5.5432587252
 20
4.0527398939
  0
LWPOLYLINE
  5
612
100
AcDbEntity
  8
0
100
AcDbPolyline
 62
7
  6
CONTINUOUS
 90
13
 70
0
 10
4.82215402
 20
4.083600232
 10
4.7682495533
 20
4.082615291
 10
4.7168779907
 20
4.0816318174
 10
4.668232519
 20
4.0806422964
 10
4.6231229731
 20
4.0796515605
 10
4.5822774353
 20
4.0786650517
 10
4.5461200142
 20
4.0776836285
 10
4.5147604972
 20
4.0767000644
 10
4.4886619956
 20
4.075718016
 10
4.4680321805
 20
4.0747345967
 10
4.4531507455
 20
4.0737523192
 10
4.444147124
 20
4.0727691014
 10
4.4413770258
 20
4.072063852
  0
LWPOLYLINE
  5
613
100
AcDbEntity
  8
0
100
AcDbPolyline
 62
7
  6
CONTINUOUS
 90
13
 70
0
 10
5.1624642077
 20
4.1002583178
 10
5.2163164144
 20
4.1012422705
 10
5.2676816586
 20
4.1022255485
 10
5.3161782907
 20
4.1032118263
 10
5.361028706
 20
4.1041961924
 10
5.401770949
 20
4.1051788373
 10
5.438036137
 20
4.1061613192
 10
5.4694894746
 20
4.1071456404
 10
5.4956793755
 20
4.1081285086
 10
5.5163930632
 20
4.109112656
 10
5.5313532574
 20
4.1100957547
 10
5.5404146834
 20
4.1110777547
 10
5.5432587252
 20
4.111795012
  0
LWPOLYLINE
  5
614
100
AcDbEntity
  8
0
100
AcDbPolyline
 62
7
  6
CONTINUOUS
 90
13
 70
0
 10
5.1971289227
 20
4.0030079724
 10
5.2529345003
 20
4.0039827147
 10
5.3059395682
 20
4.004957457
 10
5.3555745493
 20
4.0059321993
 10
5.4013060807
 20
4.0069069416
 10
5.4426427448
 20
4.0078816839
 10
5.4791403499
 20
4.0088564262
 10
5.5104067035
 20
4.0098311684
 10
5.5361058265
 20
4.0108059107
 10
5.5559615637
 20
4.011780653
 10
5.569760551
 20
4.0127553953
 10
5.5773545088
 20
4.0137301376
 10
5.5787062907
 20
4.0141588229
  0
LWPOLYLINE
  5
615
100
AcDbEntity
  8
0
100
AcDbPolyline
 62
7
  6
CONTINUOUS
 90
13
 70
0
 10
5.1971289227
 20
4.0103898622
 10
5.2529345003
 20
4.0113646045
 10
5.3059395682
 20
4.0123393468
 10
5.3555745493
 20
4.0133140891
 10
5.4013060807
 20
4.0142888313
 10
5.4426427448
 20
4.0152635736
 10
5.4791403499
 20
4.0162383159
 10
5.5104067035
 20
4.0172130582
 10
5.5361058265
 20
4.0181878005
 10
5.5559615637
 20
4.0191625428
 10
5.569760551
 20
4.0201372851
 10
5.5773545088
 20
4.0211120274
 10
5.5789320487
 20
4.0218014792
  0
LINE
  5
616
100
AcDbEntity
  8
0
100
AcDbLine
 62
7
  6
CONTINUOUS
 10
5.1634781137
 20
4.0304627403
 11
5.0500107679
 21
4.0284805954
  0
LINE
  5
617
100
AcDbEntity
  8
0
100
AcDbLine
 62
7
  6
CONTINUOUS
 10
4.82215402
 20
4.0353037562
 11
4.9348518948
 21
4.037271923
  0
LINE
  5
618
100
AcDbEntity
  8
0
100
AcDbLine
 62
7
  6
CONTINUOUS
 10
5.1624015737
 20
4.0894985526
 11
5.0498484986
 21
4.0875329312
  0
LINE
  5
619
100
AcDbEntity
  8
0
100
AcDbLine
 62
7
  6
CONTINUOUS
 10
4.8221308241
 20
4.0943584585
 11
4.9347511755
 21
4.0963253141
  0
LWPOLYLINE
  5
61A
100
AcDbEntity
  8
0
100
AcDbPolyline
 62
7
  6
CONTINUOUS
 90
3
 70
0
 10
5.0500107679
 20
4.0284805954
 10
4.934692243
 20
4.0265105432
 10
4.8218906881
 20
4.0245403925
  0
LWPOLYLINE
  5
61B
100
AcDbEntity
  8
0
100
AcDbPolyline
 62
7
  6
CONTINUOUS
 90
3
 70
0
 10
4.9348518948
 20
4.037271923
 10
5.0498484986
 20
4.0392364555
 10
5.1624015737
 20
4.0412020768
  0
LWPOLYLINE
  5
61C
100
AcDbEntity
  8
0
100
AcDbPolyline
 62
7
  6
CONTINUOUS
 90
3
 70
0
 10
5.0498484986
 20
4.0875329312
 10
4.9348518948
 20
4.0855683987
 10
4.82215402
 20
4.083600232
  0
LWPOLYLINE
  5
61D
100
AcDbEntity
  8
0
100
AcDbPolyline
 62
7
  6
CONTINUOUS
 90
3
 70
0
 10
4.9347511755
 20
4.0963253141
 10
5.0498497465
 20
4.098291595
 10
5.1624642077
 20
4.1002583178
  0
LWPOLYLINE
  5
61E
100
AcDbEntity
  8
0
100
AcDbPolyline
 62
7
  6
CONTINUOUS
 90
13
 70
0
 10
5.1578626018
 20
4.0613998677
 10
5.2149352594
 20
4.0623694632
 10
5.2696409089
 20
4.0633390587
 10
5.3213978854
 20
4.0643086542
 10
5.3696558763
 20
4.0652782498
 10
5.4139017723
 20
4.0662478453
 10
5.453665123
 20
4.0672174408
 10
5.4885231397
 20
4.0681870363
 10
5.5181051898
 20
4.0691566318
 10
5.5420967385
 20
4.0701262273
 10
5.5602426925
 20
4.0710958228
 10
5.5723501127
 20
4.0720654183
 10
5.5782902652
 20
4.0730350138
  0
LWPOLYLINE
  5
61F
100
AcDbEntity
  8
0
100
AcDbPolyline
 62
7
  6
CONTINUOUS
 90
14
 70
0
 10
5.1601184077
 20
4.0688194543
 10
5.2172309599
 20
4.0697911441
 10
5.271941762
 20
4.0707628339
 10
5.3236665811
 20
4.0717345237
 10
5.3718530701
 20
4.0727062135
 10
5.4159866662
 20
4.0736779032
 10
5.4555960857
 20
4.074649593
 10
5.4902583566
 20
4.0756212828
 10
5.5196033357
 20
4.0765929726
 10
5.5433176603
 20
4.0775646624
 10
5.5611480955
 20
4.0785363521
 10
5.5729042378
 20
4.0795080419
 10
5.5784605483
 20
4.0804797317
 10
5.5789320487
 20
4.0808565973
  0
LINE
  5
620
100
AcDbEntity
  8
0
100
AcDbLine
 62
7
  6
CONTINUOUS
 10
5.079538569
 20
4.0010584879
 11
5.1971289227
 21
4.0030079724
  0
LINE
  5
621
100
AcDbEntity
  8
0
100
AcDbLine
 62
7
  6
CONTINUOUS
 10
5.079538569
 20
4.0084403776
 11
5.1971289227
 21
4.0103898622
  0
LWPOLYLINE
  5
622
100
AcDbEntity
  8
0
100
AcDbPolyline
 62
7
  6
CONTINUOUS
 90
3
 70
0
 10
4.8006366896
 20
4.0555822946
 10
4.9182792328
 20
4.0575214857
 10
5.0390623074
 20
4.0594606767
  0
LWPOLYLINE
  5
623
100
AcDbEntity
  8
0
100
AcDbPolyline
 62
7
  6
CONTINUOUS
 90
3
 70
0
 10
4.8021197893
 20
4.0629893156
 10
4.9200948909
 20
4.0649326952
 10
5.0411467095
 20
4.0668760748
  0
LINE
  5
624
100
AcDbEntity
  8
0
100
AcDbLine
 62
7
  6
CONTINUOUS
 10
4.8383421652
 20
3.9971595187
 11
5.079538569
 21
4.0010584879
  0
LINE
  5
625
100
AcDbEntity
  8
0
100
AcDbLine
 62
7
  6
CONTINUOUS
 10
4.8383421652
 20
4.0045414085
 11
5.079538569
 21
4.0084403776
  0
LINE
  5
626
100
AcDbEntity
  8
0
100
AcDbLine
 62
7
  6
CONTINUOUS
 10
5.0390623074
 20
4.0594606767
 11
5.1578626018
 21
4.0613998677
  0
LINE
  5
627
100
AcDbEntity
  8
0
100
AcDbLine
 62
7
  6
CONTINUOUS
 10
5.0411467095
 20
4.0668760748
 11
5.1601184077
 21
4.0688194543
  0
LINE
  5
628
100
AcDbEntity
  8
0
100
AcDbLine
 62
7
  6
CONTINUOUS
 10
5.5787062907
 20
3.6677315372
 11
5.5435590718
 21
3.6880321049
  0
LINE
  5
629
100
AcDbEntity
  8
0
100
AcDbLine
 62
7
  6
CONTINUOUS
 10
5.5787062907
 20
3.7267866553
 11
5.5435590718
 21
3.747087223
  0
LINE
  5
62A
100
AcDbEntity
  8
0
100
AcDbLine
 62
7
  6
CONTINUOUS
 10
5.2163468379
 20
2.844979936
 11
5.2163223681
 21
2.8451170355
  0
LWPOLYLINE
  5
62B
100
AcDbEntity
  8
0
100
AcDbPolyline
 62
7
  6
CONTINUOUS
 90
14
 70
0
 10
4.4057037023
 20
3.6896164398
 10
4.4065311024
 20
3.6901156981
 10
4.4129027027
 20
3.6910904404
 10
4.4255005285
 20
3.6920651827
 10
4.4441892072
 20
3.693039925
 10
4.4687679159
 20
3.6940146672
 10
4.4989725389
 20
3.6949894095
 10
4.5344785062
 20
3.6959641518
 10
4.5749042811
 20
3.6969388941
 10
4.6198154601
 20
3.6979136364
 10
4.6687294408
 20
3.6988883787
 10
4.7211206079
 20
3.699863121
 10
4.7764259813
 20
3.7008378633
 10
4.8340512656
 20
3.7018126055
  0
LINE
  5
62C
100
AcDbEntity
  8
0
100
AcDbLine
 62
7
  6
CONTINUOUS
 10
4.4413770258
 20
3.7177331433
 11
4.4059294603
 21
3.6972590962
  0
LINE
  5
62D
100
AcDbEntity
  8
0
100
AcDbLine
 62
7
  6
CONTINUOUS
 10
4.4413770258
 20
3.6586780252
 11
4.4059294603
 21
3.6382039781
  0
LWPOLYLINE
  5
62E
100
AcDbEntity
  8
0
100
AcDbPolyline
 62
7
  6
CONTINUOUS
 90
13
 70
0
 10
4.4411367731
 20
3.7872693849
 10
4.4441570108
 20
3.7882537672
 10
4.4531517721
 20
3.7892354553
 10
4.4680357328
 20
3.7902178448
 10
4.4886681142
 20
3.7912013247
 10
4.51477145
 20
3.7921834902
 10
4.5461357202
 20
3.7931671365
 10
4.5823054869
 20
3.7941488193
 10
4.6229423407
 20
3.7951304632
 10
4.6677810596
 20
3.7961158272
 10
4.71624597
 20
3.797102422
 10
4.7675569894
 20
3.7980854127
 10
4.8215389485
 20
3.7990722546
  0
LWPOLYLINE
  5
62F
100
AcDbEntity
  8
0
100
AcDbPolyline
 62
7
  6
CONTINUOUS
 90
13
 70
0
 10
4.4411367731
 20
3.8463245011
 10
4.4441927586
 20
3.8473146991
 10
4.4532517367
 20
3.8482987654
 10
4.4681914968
 20
3.8492815583
 10
4.4888918371
 20
3.8502658231
 10
4.5150682449
 20
3.8512487343
 10
4.546507447
 20
3.8522330425
 10
4.5827859793
 20
3.8532161885
 10
4.6236736278
 20
3.8542023688
 10
4.6685606417
 20
3.8551873818
 10
4.7168885404
 20
3.8561701949
 10
4.7682166376
 20
3.8571528466
 10
4.8220865412
 20
3.8581371921
  0
LWPOLYLINE
  5
630
100
AcDbEntity
  8
0
100
AcDbPolyline
 62
7
  6
CONTINUOUS
 90
13
 70
0
 10
5.5434989778
 20
4.1603689966
 10
5.5404146834
 20
4.1593742305
 10
5.5313532574
 20
4.1583922305
 10
5.5163930632
 20
4.1574091317
 10
5.4956793755
 20
4.1564249844
 10
5.4694894746
 20
4.1554421162
 10
5.438036137
 20
4.1544577949
 10
5.401770949
 20
4.1534753131
 10
5.361028706
 20
4.1524926682
 10
5.3161782907
 20
4.1515083021
 10
5.2676816586
 20
4.1505220242
 10
5.2163164144
 20
4.1495387463
 10
5.1624642077
 20
4.1485547936
  0
LWPOLYLINE
  5
631
100
AcDbEntity
  8
0
100
AcDbPolyline
 62
7
  6
CONTINUOUS
 90
13
 70
0
 10
5.5434989778
 20
4.2194241266
 10
5.5401947373
 20
4.2183944554
 10
5.5309346882
 20
4.2174134466
 10
5.5158122635
 20
4.2164324396
 10
5.4949920145
 20
4.2154514313
 10
5.4687006192
 20
4.2144704246
 10
5.4372241387
 20
4.213489416
 10
5.4009053031
 20
4.2125084097
 10
5.3601392477
 20
4.2115274011
 10
5.3153698578
 20
4.2105463946
 10
5.2670842195
 20
4.209565386
 10
5.2158080733
 20
4.2085843794
 10
5.1620992646
 20
4.2076033698
  0
LWPOLYLINE
  5
632
100
AcDbEntity
  8
0
100
AcDbPolyline
 62
7
  6
CONTINUOUS
 90
13
 70
0
 10
4.4059294603
 20
3.8744244505
 10
4.4075062217
 20
3.8749006842
 10
4.4154053025
 20
3.8758754265
 10
4.4295037166
 20
3.8768501688
 10
4.4496499665
 20
3.8778249111
 10
4.4756275667
 20
3.8787996534
 10
4.5071573694
 20
3.8797743956
 10
4.5439005646
 20
3.8807491379
 10
4.5854623208
 20
3.8817238802
 10
4.6313960274
 20
3.8826986225
 10
4.6812080943
 20
3.8836733648
 10
4.7343632557
 20
3.8846481071
 10
4.7902903218
 20
3.8856228494
  0
LWPOLYLINE
  5
633
100
AcDbEntity
  8
0
100
AcDbPolyline
 62
7
  6
CONTINUOUS
 90
13
 70
0
 10
4.4059294603
 20
4.0515898049
 10
4.4088358023
 20
4.0523007281
 10
4.4181986562
 20
4.0532724178
 10
4.433692282
 20
4.0542441076
 10
4.4551512299
 20
4.0552157974
 10
4.4823463491
 20
4.0561874872
 10
4.5149872347
 20
4.057159177
 10
4.5527253286
 20
4.0581308667
 10
4.595157642
 20
4.0591025565
 10
4.6418310585
 20
4.0600742463
 10
4.6922471728
 20
4.0610459361
 10
4.7458676129
 20
4.0620176259
 10
4.8021197893
 20
4.0629893156
  0
LWPOLYLINE
  5
634
100
AcDbEntity
  8
0
100
AcDbPolyline
 62
7
  6
CONTINUOUS
 90
13
 70
0
 10
4.8221308241
 20
4.1426549342
 10
4.7682728614
 20
4.1416708442
 10
4.7169249721
 20
4.1406878604
 10
4.6684855126
 20
4.1397027469
 10
4.6236972067
 20
4.1387198579
 10
4.5829106955
 20
4.1377363137
 10
4.5466373452
 20
4.1367537565
 10
4.5151804229
 20
4.1357695049
 10
4.4889857537
 20
4.1347867029
 10
4.4682662894
 20
4.1338026252
 10
4.4532993029
 20
4.1328195999
 10
4.4442259615
 20
4.131837017
 10
4.4413770258
 20
4.1311189701
  0
LWPOLYLINE
  5
635
100
AcDbEntity
  8
0
100
AcDbPolyline
 62
7
  6
CONTINUOUS
 90
13
 70
0
 10
5.1625233648
 20
4.1593144965
 10
5.2164311977
 20
4.1602995309
 10
5.2677705546
 20
4.1612824166
 10
5.316166006
 20
4.1622666855
 10
5.3609460398
 20
4.1632494142
 10
5.4017626237
 20
4.1642337434
 10
5.4380347017
 20
4.1652163957
 10
5.4694881729
 20
4.1662007141
 10
5.4956782766
 20
4.1671835807
 10
5.5163921994
 20
4.1681677265
 10
5.531353163
 20
4.1691508651
 10
5.5404299939
 20
4.1701353472
 10
5.5432587252
 20
4.1708501301
  0
LWPOLYLINE
  5
636
100
AcDbEntity
  8
0
100
AcDbPolyline
 62
7
  6
CONTINUOUS
 90
13
 70
0
 10
4.8221136456
 20
4.2017097444
 10
4.7682517158
 20
4.2007255676
 10
4.7169533676
 20
4.1997435374
 10
4.6685515158
 20
4.1987592558
 10
4.6234994476
 20
4.1977704391
 10
4.5825568685
 20
4.1967824154
 10
4.5462889986
 20
4.1957987713
 10
4.5147847912
 20
4.1948111303
 10
4.4885144759
 20
4.1938220551
 10
4.4678900259
 20
4.1928369667
 10
4.4530599425
 20
4.1918550847
 10
4.4440971658
 20
4.1908711413
 10
4.4413770258
 20
4.1901740882
  0
LINE
  5
637
100
AcDbEntity
  8
0
100
AcDbLine
 62
7
  6
CONTINUOUS
 10
5.1624642077
 20
4.1485547936
 11
5.0498497465
 21
4.1465880707
  0
LINE
  5
638
100
AcDbEntity
  8
0
100
AcDbLine
 62
7
  6
CONTINUOUS
 10
4.8221136456
 20
4.1534132686
 11
4.9347451966
 21
4.1553803297
  0
LWPOLYLINE
  5
639
100
AcDbEntity
  8
0
100
AcDbPolyline
 62
7
  6
CONTINUOUS
 90
13
 70
0
 10
5.185998658
 20
4.1873656076
 10
5.2421077894
 20
4.1883372974
 10
5.2955495219
 20
4.1893089872
 10
5.3457531742
 20
4.1902806769
 10
5.3921826431
 20
4.1912523667
 10
5.4343421284
 20
4.1922240565
 10
5.4717814271
 20
4.1931957463
 10
5.5041007409
 20
4.1941674361
 10
5.5309549459
 20
4.1951391258
 10
5.5520572776
 20
4.1961108156
 10
5.5671823932
 20
4.1970825054
 10
5.5761687783
 20
4.1980541952
 10
5.5789320487
 20
4.1989668336
  0
LINE
  5
63A
100
AcDbEntity
  8
0
100
AcDbLine
 62
7
  6
CONTINUOUS
 10
5.1620992646
 20
4.2076033698
 11
5.0497427166
 21
4.2056413537
  0
LWPOLYLINE
  5
63B
100
AcDbEntity
  8
0
100
AcDbPolyline
 62
7
  6
CONTINUOUS
 90
14
 70
0
 10
5.1731071417
 20
4.128092531
 10
5.2297332086
 20
4.1290642207
 10
5.2838240193
 20
4.1300359105
 10
5.3348019615
 20
4.1310076003
 10
5.3821226636
 20
4.1319792901
 10
5.4252808082
 20
4.1329509799
 10
5.4638155281
 20
4.1339226696
 10
5.4973153276
 20
4.1348943594
 10
5.5254224768
 20
4.1358660492
 10
5.5478368315
 20
4.136837739
 10
5.5643190385
 20
4.1378094288
 10
5.5746930914
 20
4.1387811186
 10
5.5788482102
 20
4.1397528083
 10
5.5789320487
 20
4.1399117154
  0
LWPOLYLINE
  5
63C
100
AcDbEntity
  8
0
100
AcDbPolyline
 62
7
  6
CONTINUOUS
 90
3
 70
0
 10
5.0498497465
 20
4.1465880707
 10
4.9347511755
 20
4.1446217899
 10
4.8221308241
 20
4.1426549342
  0
LWPOLYLINE
  5
63D
100
AcDbEntity
  8
0
100
AcDbPolyline
 62
7
  6
CONTINUOUS
 90
3
 70
0
 10
4.9347451966
 20
4.1553803297
 10
5.0498535214
 20
4.1573467778
 10
5.1625233648
 20
4.1593144965
  0
LWPOLYLINE
  5
63E
100
AcDbEntity
  8
0
100
AcDbPolyline
 62
7
  6
CONTINUOUS
 90
13
 70
0
 10
5.1686340659
 20
4.17969052
 10
5.2253115709
 20
4.1806601155
 10
5.2795117404
 20
4.1816297111
 10
5.3306582841
 20
4.1825993066
 10
5.3782073798
 20
4.1835689021
 10
5.4216534555
 20
4.1845384976
 10
5.4605345653
 20
4.1855080931
 10
5.4944373007
 20
4.1864776886
 10
5.5230011866
 20
4.1874472841
 10
5.5459225137
 20
4.1884168796
 10
5.562957568
 20
4.1893864751
 10
5.5739252222
 20
4.1903560707
 10
5.5787062907
 20
4.1913241772
  0
LWPOLYLINE
  5
63F
100
AcDbEntity
  8
0
100
AcDbPolyline
 62
7
  6
CONTINUOUS
 90
3
 70
0
 10
5.0497427166
 20
4.2056413537
 10
4.9347451966
 20
4.2036768055
 10
4.8221136456
 20
4.2017097444
  0
LWPOLYLINE
  5
640
100
AcDbEntity
  8
0
100
AcDbPolyline
 62
7
  6
CONTINUOUS
 90
13
 70
0
 10
5.1632562069
 20
4.1205451939
 10
5.2201339078
 20
4.1215147894
 10
5.2745893254
 20
4.1224843849
 10
5.3260434554
 20
4.1234539804
 10
5.3739492051
 20
4.1244235759
 10
5.4177972105
 20
4.1253931714
 10
5.4571212519
 20
4.1263627669
 10
5.4915032115
 20
4.1273323624
 10
5.5205775186
 20
4.128301958
 10
5.5440350369
 20
4.1292715535
 10
5.5616263513
 20
4.130241149
 10
5.5731644199
 20
4.1312107445
 10
5.5787062907
 20
4.1322690591
  0
LINE
  5
641
100
AcDbEntity
  8
0
100
AcDbLine
 62
7
  6
CONTINUOUS
 10
5.0446723179
 20
4.1186060029
 11
5.1632562069
 21
4.1205451939
  0
LWPOLYLINE
  5
642
100
AcDbEntity
  8
0
100
AcDbPolyline
 62
7
  6
CONTINUOUS
 90
3
 70
0
 10
4.8059665381
 20
4.1147276208
 10
4.9238676863
 20
4.1166668118
 10
5.0446723179
 20
4.1186060029
  0
LINE
  5
643
100
AcDbEntity
  8
0
100
AcDbLine
 62
7
  6
CONTINUOUS
 10
5.054688597
 20
4.1261491514
 11
5.1731071417
 21
4.128092531
  0
LWPOLYLINE
  5
644
100
AcDbEntity
  8
0
100
AcDbPolyline
 62
7
  6
CONTINUOUS
 90
3
 70
0
 10
4.8150383316
 20
4.1222623923
 10
4.9336130442
 20
4.1242057718
 10
5.054688597
 20
4.1261491514
  0
LINE
  5
645
100
AcDbEntity
  8
0
100
AcDbLine
 62
7
  6
CONTINUOUS
 10
5.0502775058
 20
4.177751329
 11
5.1686340659
 21
4.17969052
  0
LWPOLYLINE
  5
646
100
AcDbEntity
  8
0
100
AcDbPolyline
 62
7
  6
CONTINUOUS
 90
3
 70
0
 10
4.8113135525
 20
4.173872947
 10
4.9294624452
 20
4.175812138
 10
5.0502775058
 20
4.177751329
  0
LINE
  5
647
100
AcDbEntity
  8
0
100
AcDbLine
 62
7
  6
CONTINUOUS
 10
5.0681969452
 20
4.185422228
 11
5.185998658
 21
4.1873656076
  0
LWPOLYLINE
  5
648
100
AcDbEntity
  8
0
100
AcDbPolyline
 62
7
  6
CONTINUOUS
 90
3
 70
0
 10
4.8280522044
 20
4.1815354689
 10
4.9471627654
 20
4.1834788485
 10
5.0681969452
 20
4.185422228
  0
LINE
  5
649
100
AcDbEntity
  8
0
100
AcDbLine
 62
7
  6
CONTINUOUS
 10
5.5787062907
 20
3.7858417734
 11
5.5435590718
 21
3.8061423411
  0
LINE
  5
64A
100
AcDbEntity
  8
0
100
AcDbLine
 62
7
  6
CONTINUOUS
 10
5.5787062907
 20
3.8448968915
 11
5.5435590718
 21
3.8651974592
  0
LINE
  5
64B
100
AcDbEntity
  8
0
100
AcDbLine
 62
7
  6
CONTINUOUS
 10
5.5789320487
 20
3.4903054162
 11
5.5787062907
 21
3.4905661828
  0
LINE
  5
64C
100
AcDbEntity
  8
0
100
AcDbLine
 62
7
  6
CONTINUOUS
 10
5.5789320487
 20
3.5493605343
 11
5.5787062907
 21
3.5496213009
  0
LINE
  5
64D
100
AcDbEntity
  8
0
100
AcDbLine
 62
7
  6
CONTINUOUS
 10
5.1964314779
 20
2.8354977295
 11
5.1964314779
 21
2.7961276508
  0
LINE
  5
64E
100
AcDbEntity
  8
0
100
AcDbLine
 62
7
  6
CONTINUOUS
 10
5.2151037498
 20
3.2666000917
 11
5.2151037498
 21
3.2291985169
  0
LINE
  5
64F
100
AcDbEntity
  8
0
100
AcDbLine
 62
7
  6
CONTINUOUS
 10
4.4413770258
 20
3.5996229071
 11
4.4059294603
 21
3.57914886
  0
LINE
  5
650
100
AcDbEntity
  8
0
100
AcDbLine
 62
7
  6
CONTINUOUS
 10
4.4413770258
 20
3.540567789
 11
4.4059294603
 21
3.5200937419
  0
LINE
  5
651
100
AcDbEntity
  8
0
100
AcDbLine
 62
7
  6
CONTINUOUS
 10
5.5432587252
 20
4.1708501301
 11
5.5787062907
 21
4.1913241772
  0
LINE
  5
652
100
AcDbEntity
  8
0
100
AcDbLine
 62
7
  6
CONTINUOUS
 10
4.4059294603
 20
3.6972590962
 11
4.4065311024
 21
3.6974975879
  0
LWPOLYLINE
  5
653
100
AcDbEntity
  8
0
100
AcDbPolyline
 62
7
  6
CONTINUOUS
 90
13
 70
0
 10
4.4057037023
 20
3.748671558
 10
4.4084114731
 20
3.7495749776
 10
4.4173768413
 20
3.7505497199
 10
4.4325203572
 20
3.7515244622
 10
4.4536792931
 20
3.7524992045
 10
4.4806262812
 20
3.7534739468
 10
4.5130717571
 20
3.7544486891
 10
4.5506670713
 20
3.7554234314
 10
4.5930082355
 20
3.7563981737
 10
4.6396402639
 20
3.7573729159
 10
4.6900620626
 20
3.7583476582
 10
4.7437318135
 20
3.7593224005
 10
4.8000727974
 20
3.7602971428
  0
LWPOLYLINE
  5
654
100
AcDbEntity
  8
0
100
AcDbPolyline
 62
7
  6
CONTINUOUS
 90
13
 70
0
 10
4.4411367731
 20
3.6691591469
 10
4.4441190019
 20
3.6701373116
 10
4.4531060734
 20
3.6711214629
 10
4.4679915626
 20
3.6721051667
 10
4.4886639717
 20
3.6730909146
 10
4.5147968917
 20
3.6740741228
 10
4.5461665071
 20
3.6750577944
 10
4.5823877027
 20
3.6760406806
 10
4.6231637843
 20
3.6770253133
 10
4.6679099314
 20
3.6780083095
 10
4.7162812062
 20
3.67899288
 10
4.7675950446
 20
3.6799758872
 10
4.8213637966
 20
3.6809588769
  0
LWPOLYLINE
  5
655
100
AcDbEntity
  8
0
100
AcDbPolyline
 62
7
  6
CONTINUOUS
 90
13
 70
0
 10
4.4411367731
 20
3.7282142589
 10
4.4441428291
 20
3.7291963331
 10
4.4531554625
 20
3.7301806402
 10
4.4680750455
 20
3.7311648983
 10
4.488883673
 20
3.732155245
 10
4.5153021798
 20
3.7331464662
 10
4.5468618756
 20
3.7341330764
 10
4.5831338393
 20
3.7351148106
 10
4.6239494931
 20
3.7360984584
 10
4.668718181
 20
3.7370804645
 10
4.7170970971
 20
3.738064064
 10
4.7684093012
 20
3.7390462061
 10
4.8222513343
 20
3.7400299103
  0
LWPOLYLINE
  5
656
100
AcDbEntity
  8
0
100
AcDbPolyline
 62
7
  6
CONTINUOUS
 90
13
 70
0
 10
5.5434989778
 20
4.0422587722
 10
5.5404933842
 20
4.0412767797
 10
5.531494762
 20
4.0402935857
 10
5.5166185904
 20
4.039311337
 10
5.4960065906
 20
4.038328466
 10
5.4698991852
 20
4.0373458565
 10
5.4385269824
 20
4.0363618016
 10
5.4023453449
 20
4.0353797208
 10
5.3616213855
 20
4.0343960375
 10
5.316933483
 20
4.0334139905
 10
5.2686252924
 20
4.032430374
 10
5.2173810169
 20
4.0314483881
 10
5.1634781137
 20
4.0304627403
  0
LWPOLYLINE
  5
657
100
AcDbEntity
  8
0
100
AcDbPolyline
 62
7
  6
CONTINUOUS
 90
13
 70
0
 10
5.5434989778
 20
4.1013138903
 10
5.5404852206
 20
4.1003305639
 10
5.531478422
 20
4.0993473618
 10
5.5166095389
 20
4.0983659548
 10
5.4958948948
 20
4.0973788965
 10
5.4695420963
 20
4.0963887911
 10
5.4379811283
 20
4.0954010825
 10
5.401692938
 20
4.0944182081
 10
5.3607789367
 20
4.0934318217
 10
5.3158184994
 20
4.092445604
 10
5.2675106786
 20
4.0914635407
 10
5.2162302345
 20
4.0904820199
 10
5.1624015737
 20
4.0894985526
  0
LWPOLYLINE
  5
658
100
AcDbEntity
  8
0
100
AcDbPolyline
 62
7
  6
CONTINUOUS
 90
13
 70
0
 10
4.4057037023
 20
4.1030022666
 10
4.4094289723
 20
4.1040620702
 10
4.4193248658
 20
4.1050316657
 10
4.4353131813
 20
4.1060012612
 10
4.4572239211
 20
4.1069708567
 10
4.4848241164
 20
4.1079404522
 10
4.5178203046
 20
4.1089100477
 10
4.5558616494
 20
4.1098796433
 10
4.5985436714
 20
4.1108492388
 10
4.6454125483
 20
4.1118188343
 10
4.695969941
 20
4.1127884298
 10
4.7496782912
 20
4.1137580253
 10
4.8059665381
 20
4.1147276208
  0
LWPOLYLINE
  5
659
100
AcDbEntity
  8
0
100
AcDbPolyline
 62
7
  6
CONTINUOUS
 90
13
 70
0
 10
4.4059294603
 20
4.110644923
 10
4.4103964207
 20
4.1115738047
 10
4.4211455047
 20
4.1125454945
 10
4.4379938924
 20
4.1135171843
 10
4.4607616672
 20
4.114488874
 10
4.4892057019
 20
4.1154605638
 10
4.5230222549
 20
4.1164322536
 10
4.5618502136
 20
4.1174039434
 10
4.6052749512
 20
4.1183756332
 10
4.6528327535
 20
4.1193473229
 10
4.7040157712
 20
4.1203190127
 10
4.7582774429
 20
4.1212907025
 10
4.8150383316
 20
4.1222623923
  0
LWPOLYLINE
  5
65A
100
AcDbEntity
  8
0
100
AcDbPolyline
 62
7
  6
CONTINUOUS
 90
13
 70
0
 10
4.4063345101
 20
4.1698751915
 10
4.412269962
 20
4.1708468813
 10
4.4243994958
 20
4.1718185711
 10
4.4425935854
 20
4.1727902609
 10
4.466657944
 20
4.1737619507
 10
4.4963355986
 20
4.1747336404
 10
4.5313096344
 20
4.1757053302
 10
4.5712065787
 20
4.17667702
 10
4.6156003891
 20
4.1776487098
 10
4.6640170034
 20
4.1786203996
 10
4.7159394013
 20
4.1795920894
 10
4.770813126
 20
4.1805637791
 10
4.8280522044
 20
4.1815354689
  0
LINE
  5
65B
100
AcDbEntity
  8
0
100
AcDbLine
 62
7
  6
CONTINUOUS
 10
4.4389478477
 20
4.2242919135
 11
4.4619367351
 21
4.2252615091
  0
LWPOLYLINE
  5
65C
100
AcDbEntity
  8
0
100
AcDbPolyline
 62
7
  6
CONTINUOUS
 90
8
 70
0
 10
5.1630485899
 20
4.2183790327
 10
5.2167864412
 20
4.2193612807
 10
5.2681104353
 20
4.2203442273
 10
5.3164912771
 20
4.22132866
 10
5.3612523186
 20
4.2223115598
 10
5.402045683
 20
4.2232960746
 10
5.4382847937
 20
4.224278767
 10
5.4696547122
 20
4.2252615091
  0
LINE
  5
65D
100
AcDbEntity
  8
0
100
AcDbLine
 62
7
  6
CONTINUOUS
 10
4.821291349
 20
4.2124536404
 11
4.9346064632
 21
4.2144330691
  0
LWPOLYLINE
  5
65E
100
AcDbEntity
  8
0
100
AcDbPolyline
 62
7
  6
CONTINUOUS
 90
3
 70
0
 10
4.9346064632
 20
4.2144330691
 10
5.0499898153
 20
4.2164042328
 10
5.1630485899
 20
4.2183790327
  0
LINE
  5
65F
100
AcDbEntity
  8
0
100
AcDbLine
 62
7
  6
CONTINUOUS
 10
5.4696547122
 20
4.2252615091
 11
4.4057071006
 21
4.2252615091
  0
LINE
  5
660
100
AcDbEntity
  8
0
100
AcDbLine
 62
9
  6
CONTINUOUS
 10
4.4411367731
 20
4.2449465484
 11
5.5434989778
 21
4.2449465484
  0
LINE
  5
661
100
AcDbEntity
  8
0
100
AcDbLine
 62
7
  6
CONTINUOUS
 10
5.9371997652
 20
4.2843166272
 11
4.0474359857
 21
4.2843166272
  0
LINE
  5
662
100
AcDbEntity
  8
0
100
AcDbLine
 62
7
  6
CONTINUOUS
 10
5.5787062907
 20
3.9039520096
 11
5.5435590718
 21
3.9242525773
  0
LINE
  5
663
100
AcDbEntity
  8
0
100
AcDbLine
 62
7
  6
CONTINUOUS
 10
5.5787062907
 20
3.9630071277
 11
5.5435590718
 21
3.9833076954
  0
LINE
  5
664
100
AcDbEntity
  8
0
100
AcDbLine
 62
7
  6
CONTINUOUS
 10
5.5789320487
 20
3.6084156524
 11
5.5787062907
 21
3.608676419
  0
LINE
  5
665
100
AcDbEntity
  8
0
100
AcDbLine
 62
7
  6
CONTINUOUS
 10
5.5789320487
 20
3.6674707706
 11
5.5787062907
 21
3.6677315372
  0
LINE
  5
666
100
AcDbEntity
  8
0
100
AcDbLine
 62
7
  6
CONTINUOUS
 10
5.5789320487
 20
3.7265258887
 11
5.5787062907
 21
3.7267866553
  0
LINE
  5
667
100
AcDbEntity
  8
0
100
AcDbLine
 62
7
  6
CONTINUOUS
 10
5.2265495881
 20
3.3276237138
 11
5.2265495881
 21
3.2291985169
  0
LINE
  5
668
100
AcDbEntity
  8
02___PRT_ALL_AXES
100
AcDbLine
 62
7
  6
CONTINUOUS
 10
5.2265495881
 20
3.3276237138
 11
5.2265495881
 21
3.2291985169
  0
LINE
  5
669
100
AcDbEntity
  8
0
100
AcDbLine
 62
7
  6
CONTINUOUS
 10
5.2265495881
 20
3.1917969421
 11
5.2265495881
 21
3.1898284382
  0
LINE
  5
66A
100
AcDbEntity
  8
02___PRT_ALL_AXES
100
AcDbLine
 62
7
  6
CONTINUOUS
 10
5.2265495881
 20
3.1917969421
 11
5.2265495881
 21
3.1898284382
  0
LINE
  5
66B
100
AcDbEntity
  8
0
100
AcDbLine
 62
7
  6
CONTINUOUS
 10
5.2265495881
 20
3.1524268634
 11
5.2265495881
 21
3.1504583594
  0
LINE
  5
66C
100
AcDbEntity
  8
02___PRT_ALL_AXES
100
AcDbLine
 62
7
  6
CONTINUOUS
 10
5.2265495881
 20
3.1524268634
 11
5.2265495881
 21
3.1504583594
  0
LINE
  5
66D
100
AcDbEntity
  8
0
100
AcDbLine
 62
7
  6
CONTINUOUS
 10
5.2265495881
 20
3.1130567846
 11
5.2265495881
 21
3.1110882807
  0
LINE
  5
66E
100
AcDbEntity
  8
02___PRT_ALL_AXES
100
AcDbLine
 62
7
  6
CONTINUOUS
 10
5.2265495881
 20
3.1130567846
 11
5.2265495881
 21
3.1110882807
  0
LINE
  5
66F
100
AcDbEntity
  8
0
100
AcDbLine
 62
7
  6
CONTINUOUS
 10
5.2265495881
 20
3.0736867059
 11
5.2265495881
 21
3.071718202
  0
LINE
  5
670
100
AcDbEntity
  8
02___PRT_ALL_AXES
100
AcDbLine
 62
7
  6
CONTINUOUS
 10
5.2265495881
 20
3.0736867059
 11
5.2265495881
 21
3.071718202
  0
LINE
  5
671
100
AcDbEntity
  8
0
100
AcDbLine
 62
7
  6
CONTINUOUS
 10
5.2265495881
 20
3.0343166272
 11
5.2265495881
 21
3.0323481232
  0
LINE
  5
672
100
AcDbEntity
  8
02___PRT_ALL_AXES
100
AcDbLine
 62
7
  6
CONTINUOUS
 10
5.2265495881
 20
3.0343166272
 11
5.2265495881
 21
3.0323481232
  0
LINE
  5
673
100
AcDbEntity
  8
0
100
AcDbLine
 62
7
  6
CONTINUOUS
 10
5.2265495881
 20
2.9949465484
 11
5.2265495881
 21
2.9929780445
  0
LINE
  5
674
100
AcDbEntity
  8
02___PRT_ALL_AXES
100
AcDbLine
 62
7
  6
CONTINUOUS
 10
5.2265495881
 20
2.9949465484
 11
5.2265495881
 21
2.9929780445
  0
LINE
  5
675
100
AcDbEntity
  8
0
100
AcDbLine
 62
7
  6
CONTINUOUS
 10
5.2265495881
 20
2.9555764697
 11
5.2265495881
 21
2.9536079657
  0
LINE
  5
676
100
AcDbEntity
  8
02___PRT_ALL_AXES
100
AcDbLine
 62
7
  6
CONTINUOUS
 10
5.2265495881
 20
2.9555764697
 11
5.2265495881
 21
2.9536079657
  0
LINE
  5
677
100
AcDbEntity
  8
0
100
AcDbLine
 62
7
  6
CONTINUOUS
 10
5.2265495881
 20
2.9162063909
 11
5.2265495881
 21
2.914237887
  0
LINE
  5
678
100
AcDbEntity
  8
02___PRT_ALL_AXES
100
AcDbLine
 62
7
  6
CONTINUOUS
 10
5.2265495881
 20
2.9162063909
 11
5.2265495881
 21
2.914237887
  0
LINE
  5
679
100
AcDbEntity
  8
0
100
AcDbLine
 62
7
  6
CONTINUOUS
 10
5.2265495881
 20
2.8768363122
 11
5.2265495881
 21
2.8748678083
  0
LINE
  5
67A
100
AcDbEntity
  8
02___PRT_ALL_AXES
100
AcDbLine
 62
7
  6
CONTINUOUS
 10
5.2265495881
 20
2.8768363122
 11
5.2265495881
 21
2.8748678083
  0
LINE
  5
67B
100
AcDbEntity
  8
0
100
AcDbLine
 62
7
  6
CONTINUOUS
 10
4.7589876816
 20
3.2117098553
 11
4.7588330527
 21
3.2114819815
  0
LINE
  5
67C
100
AcDbEntity
  8
0
100
AcDbLine
 62
7
  6
CONTINUOUS
 10
4.7589876816
 20
3.1723397765
 11
4.7588330527
 21
3.1721119028
  0
LINE
  5
67D
100
AcDbEntity
  8
0
100
AcDbLine
 62
7
  6
CONTINUOUS
 10
4.4413770258
 20
3.4815126709
 11
4.4059294603
 21
3.4610386238
  0
LINE
  5
67E
100
AcDbEntity
  8
0
100
AcDbLine
 62
7
  6
CONTINUOUS
 10
5.5432587252
 20
4.111795012
 11
5.5787062907
 21
4.1322690591
  0
LINE
  5
67F
100
AcDbEntity
  8
0
100
AcDbLine
 62
7
  6
CONTINUOUS
 10
5.5432587252
 20
4.0527398939
 11
5.5787062907
 21
4.073213941
  0
LWPOLYLINE
  5
680
100
AcDbEntity
  8
0
100
AcDbPolyline
 62
7
  6
CONTINUOUS
 90
13
 70
0
 10
4.4057037023
 20
3.5715062036
 10
4.4071743668
 20
3.5721718813
 10
4.4146156897
 20
3.5731466236
 10
4.4282648308
 20
3.5741213659
 10
4.4479751205
 20
3.5750961082
 10
4.4735347578
 20
3.5760708504
 10
4.5046690864
 20
3.5770455927
 10
4.5410435458
 20
3.578020335
 10
4.5822672668
 20
3.5789950773
 10
4.6278972714
 20
3.5799698196
 10
4.6774432329
 20
3.5809445619
 10
4.730372745
 20
3.5819193042
 10
4.7861170427
 20
3.5828940465
  0
LINE
  5
681
100
AcDbEntity
  8
0
100
AcDbLine
 62
7
  6
CONTINUOUS
 10
5.5782902652
 20
4.0730350138
 11
5.5787062907
 21
4.073213941
  0
LWPOLYLINE
  5
682
100
AcDbEntity
  8
0
100
AcDbPolyline
 62
7
  6
CONTINUOUS
 90
13
 70
0
 10
5.5434989778
 20
3.9241485273
 10
5.5405338513
 20
3.9231731826
 10
5.531574182
 20
3.9221898848
 10
5.5167217181
 20
3.9212068069
 10
5.4961113542
 20
3.9202226314
 10
5.4700211322
 20
3.9192397872
 10
5.4386606851
 20
3.9182554503
 10
5.4024954414
 20
3.9172733154
 10
5.361764396
 20
3.9162890869
 10
5.3167483939
 20
3.9152998495
 10
5.268151222
 20
3.9143107977
 10
5.2167722497
 20
3.9133267828
 10
5.1627974602
 20
3.9123402963
  0
LWPOLYLINE
  5
683
100
AcDbEntity
  8
0
100
AcDbPolyline
 62
7
  6
CONTINUOUS
 90
11
 70
0
 10
4.4411367731
 20
3.6101040286
 10
4.4441262797
 20
3.6110833874
 10
4.4531044913
 20
3.6120662146
 10
4.4679402432
 20
3.6130472091
 10
4.4885253994
 20
3.6140299755
 10
4.5147362352
 20
3.6150169332
 10
4.5461764203
 20
3.6160029641
 10
4.5823881801
 20
3.6169855747
 10
4.6232889006
 20
3.6179730679
 10
4.6683228398
 20
3.6189618978
 10
4.7167273243
 20
3.6199465484
  0
LWPOLYLINE
  5
684
100
AcDbEntity
  8
0
100
AcDbPolyline
 62
7
  6
CONTINUOUS
 90
13
 70
0
 10
5.5434989778
 20
3.9832036655
 10
5.5405053239
 20
3.9822236157
 10
5.5314848204
 20
3.981237651
 10
5.5165633377
 20
3.9802531661
 10
5.4957842091
 20
3.9792640201
 10
5.4694504785
 20
3.9782754334
 10
5.4380251361
 20
3.9772921217
 10
5.4017616931
 20
3.976309723
 10
5.3609430076
 20
3.975325348
 10
5.3161624902
 20
3.9743426148
 10
5.2677640579
 20
3.973358292
 10
5.2164275566
 20
3.9723754663
 10
5.1626154355
 20
3.9713921506
  0
LWPOLYLINE
  5
685
100
AcDbEntity
  8
0
100
AcDbPolyline
 62
7
  6
CONTINUOUS
 90
13
 70
0
 10
4.4059294603
 20
3.57914886
 10
4.4071743668
 20
3.5795537711
 10
4.4146156897
 20
3.5805285133
 10
4.4282648308
 20
3.5815032556
 10
4.4479751205
 20
3.5824779979
 10
4.4735347578
 20
3.5834527402
 10
4.5046690864
 20
3.5844274825
 10
4.5410435458
 20
3.5854022248
 10
4.5822672668
 20
3.5863769671
 10
4.6278972714
 20
3.5873517094
 10
4.6774432329
 20
3.5883264516
 10
4.730372745
 20
3.5893011939
 10
4.7861170427
 20
3.5902759362
  0
LINE
  5
686
100
AcDbEntity
  8
0
100
AcDbLine
 62
9
  6
CONTINUOUS
 10
4.008065907
 20
4.3236867059
 11
5.976569844
 21
4.3236867059
  0
LINE
  5
687
100
AcDbEntity
  8
0
100
AcDbLine
 62
7
  6
CONTINUOUS
 10
5.5787062907
 20
4.0220622458
 11
5.5435590718
 21
4.0423628136
  0
LINE
  5
688
100
AcDbEntity
  8
0
100
AcDbLine
 62
7
  6
CONTINUOUS
 10
5.5787062907
 20
4.0811173639
 11
5.5435590718
 21
4.1014179317
  0
LINE
  5
689
100
AcDbEntity
  8
0
100
AcDbLine
 62
7
  6
CONTINUOUS
 10
5.5787062907
 20
4.140172482
 11
5.5435590718
 21
4.1604730498
  0
LINE
  5
68A
100
AcDbEntity
  8
0
100
AcDbLine
 62
7
  6
CONTINUOUS
 10
5.5789320487
 20
3.7855810068
 11
5.5787062907
 21
3.7858417734
  0
LINE
  5
68B
100
AcDbEntity
  8
0
100
AcDbLine
 62
7
  6
CONTINUOUS
 10
5.5789320487
 20
3.8446361249
 11
5.5787062907
 21
3.8448968915
  0
LINE
  5
68C
100
AcDbEntity
  8
0
100
AcDbLine
 62
7
  6
CONTINUOUS
 10
5.5789320487
 20
3.903691243
 11
5.5787062907
 21
3.9039520096
  0
LINE
  5
68D
100
AcDbEntity
  8
0
100
AcDbLine
 62
7
  6
CONTINUOUS
 10
4.7589876816
 20
3.1329696978
 11
4.7588330527
 21
3.132741824
  0
LINE
  5
68E
100
AcDbEntity
  8
0
100
AcDbLine
 62
7
  6
CONTINUOUS
 10
4.7589876816
 20
3.0935996191
 11
4.7588330527
 21
3.0933717453
  0
LINE
  5
68F
100
AcDbEntity
  8
0
100
AcDbLine
 62
7
  6
CONTINUOUS
 10
4.7589876816
 20
3.0542295403
 11
4.7588330527
 21
3.0540016665
  0
LINE
  5
690
100
AcDbEntity
  8
0
100
AcDbLine
 62
7
  6
CONTINUOUS
 10
4.7589876816
 20
3.0148594616
 11
4.7588330527
 21
3.0146315878
  0
LINE
  5
691
100
AcDbEntity
  8
0
100
AcDbLine
 62
7
  6
CONTINUOUS
 10
4.7589876816
 20
2.9754893828
 11
4.7588330527
 21
2.9752615091
  0
LINE
  5
692
100
AcDbEntity
  8
0
100
AcDbLine
 62
7
  6
CONTINUOUS
 10
5.5787062907
 20
4.1913241772
 11
5.5789320487
 21
4.1915849438
  0
LINE
  5
693
100
AcDbEntity
  8
0
100
AcDbLine
 62
7
  6
CONTINUOUS
 10
5.5787062907
 20
4.1322690591
 11
5.5789320487
 21
4.1325298257
  0
LINE
  5
694
100
AcDbEntity
  8
0
100
AcDbLine
 62
7
  6
CONTINUOUS
 10
5.5432587252
 20
3.9936847757
 11
5.5787062907
 21
4.0141588229
  0
LINE
  5
695
100
AcDbEntity
  8
0
100
AcDbLine
 62
7
  6
CONTINUOUS
 10
5.5432587252
 20
3.9346296576
 11
5.5787062907
 21
3.9551037048
  0
LINE
  5
696
100
AcDbEntity
  8
0
100
AcDbLine
 62
7
  6
CONTINUOUS
 10
5.5780239932
 20
3.8957863208
 11
5.5787062907
 21
3.8960485866
  0
LWPOLYLINE
  5
697
100
AcDbEntity
  8
0
100
AcDbPolyline
 62
7
  6
CONTINUOUS
 90
13
 70
0
 10
4.4057037023
 20
3.4533959674
 10
4.4080010753
 20
3.4542280645
 10
4.4165097879
 20
3.4552028068
 10
4.4312059653
 20
3.4561775491
 10
4.4519316867
 20
3.4571522913
 10
4.4784642396
 20
3.4581270336
 10
4.510518513
 20
3.4591017759
 10
4.5477500611
 20
3.4600765182
 10
4.5897588044
 20
3.4610512605
 10
4.6360933296
 20
3.4620260028
 10
4.6862557392
 20
3.4630007451
 10
4.7397070027
 20
3.4639754874
 10
4.7958727487
 20
3.4649502296
  0
LWPOLYLINE
  5
698
100
AcDbEntity
  8
0
100
AcDbPolyline
 62
7
  6
CONTINUOUS
 90
13
 70
0
 10
5.5434989778
 20
3.8060382998
 10
5.5404824779
 20
3.8050545256
 10
5.5314730364
 20
3.8040713292
 10
5.5166007829
 20
3.8030898803
 10
5.4959887216
 20
3.8021072433
 10
5.4697541225
 20
3.8011204313
 10
5.4382845273
 20
3.8001342901
 10
5.4020346712
 20
3.7991513247
 10
5.3610814225
 20
3.798163169
 10
5.3159814217
 20
3.7971734453
 10
5.2674940104
 20
3.7961876222
 10
5.2162289691
 20
3.7952064057
 10
5.1624008186
 20
3.7942229485
  0
LWPOLYLINE
  5
699
100
AcDbEntity
  8
0
100
AcDbPolyline
 62
7
  6
CONTINUOUS
 90
13
 70
0
 10
4.4411367731
 20
3.4919937943
 10
4.44416032
 20
3.4929787162
 10
4.4531721564
 20
3.493961538
 10
4.4680649638
 20
3.4949438691
 10
4.4887044844
 20
3.4959272605
 10
4.5148136837
 20
3.4969093418
 10
4.5461824511
 20
3.497892903
 10
4.5823423501
 20
3.4988741693
 10
4.6231228499
 20
3.4998590189
 10
4.6681759868
 20
3.5008485658
 10
4.716784146
 20
3.501837431
 10
4.7681436494
 20
3.5028207756
 10
4.8220671245
 20
3.5038061353
  0
LWPOLYLINE
  5
69A
100
AcDbEntity
  8
0
100
AcDbPolyline
 62
7
  6
CONTINUOUS
 90
13
 70
0
 10
4.4411367731
 20
3.5510489148
 10
4.4442306215
 20
3.5520452296
 10
4.4533192843
 20
3.5530286914
 10
4.4682942159
 20
3.5540116228
 10
4.4890201048
 20
3.5549956012
 10
4.5152198304
 20
3.5559783083
 10
4.5466802546
 20
3.5569624613
 10
4.5829590183
 20
3.5579450056
 10
4.6237715855
 20
3.5589290249
 10
4.6685504299
 20
3.5599115761
 10
4.7169569437
 20
3.560895951
 10
4.7682937049
 20
3.5618786944
 10
4.8221470474
 20
3.5628626863
  0
LWPOLYLINE
  5
69B
100
AcDbEntity
  8
0
100
AcDbPolyline
 62
7
  6
CONTINUOUS
 90
13
 70
0
 10
5.5434989778
 20
3.8650934129
 10
5.5403808335
 20
3.8640931909
 10
5.5312639373
 20
3.8631093576
 10
5.5162706363
 20
3.8621268085
 10
5.4955296064
 20
3.86114313
 10
5.4693203496
 20
3.8601607667
 10
5.4378540107
 20
3.8591769271
 10
5.4015725729
 20
3.8581946709
 10
5.3607500823
 20
3.8572106877
 10
5.3159742689
 20
3.8562284127
 10
5.2675929102
 20
3.8552446868
 10
5.2162723163
 20
3.8542623328
 10
5.1624345401
 20
3.8532786711
  0
LINE
  5
69C
100
AcDbEntity
  8
0
100
AcDbLine
 62
7
  6
CONTINUOUS
 10
5.5787062907
 20
4.1992276001
 11
5.5435590718
 21
4.2195281679
  0
LINE
  5
69D
100
AcDbEntity
  8
0
100
AcDbLine
 62
7
  6
CONTINUOUS
 10
5.5789320487
 20
3.9627463611
 11
5.5787062907
 21
3.9630071277
  0
LINE
  5
69E
100
AcDbEntity
  8
0
100
AcDbLine
 62
7
  6
CONTINUOUS
 10
5.5789320487
 20
4.0218014792
 11
5.5787062907
 21
4.0220622458
  0
LINE
  5
69F
100
AcDbEntity
  8
0
100
AcDbLine
 62
7
  6
CONTINUOUS
 10
5.5789320487
 20
4.0808565973
 11
5.5787062907
 21
4.0811173639
  0
LINE
  5
6A0
100
AcDbEntity
  8
02___PRT_ALL_AXES
100
AcDbLine
 62
7
  6
CONTINUOUS
 10
5.5434989778
 20
4.2449465484
 11
5.5434989778
 21
4.2194241266
  0
LINE
  5
6A1
100
AcDbEntity
  8
02___PRT_ALL_AXES
100
AcDbLine
 62
7
  6
CONTINUOUS
 10
5.5434989778
 20
4.1711276508
 11
5.5434989778
 21
4.1603690084
  0
LINE
  5
6A2
100
AcDbEntity
  8
02___PRT_ALL_AXES
100
AcDbLine
 62
7
  6
CONTINUOUS
 10
5.5434989778
 20
4.1120725327
 11
5.5434989778
 21
4.1013138903
  0
LINE
  5
6A3
100
AcDbEntity
  8
02___PRT_ALL_AXES
100
AcDbLine
 62
7
  6
CONTINUOUS
 10
5.5434989778
 20
4.0530174146
 11
5.5434989778
 21
4.0422587722
  0
LINE
  5
6A4
100
AcDbEntity
  8
02___PRT_ALL_AXES
100
AcDbLine
 62
7
  6
CONTINUOUS
 10
5.5434989778
 20
3.9939622965
 11
5.5434989778
 21
3.9832036541
  0
LINE
  5
6A5
100
AcDbEntity
  8
02___PRT_ALL_AXES
100
AcDbLine
 62
7
  6
CONTINUOUS
 10
5.5434989778
 20
3.9349071783
 11
5.5434989778
 21
3.924148536
  0
LINE
  5
6A6
100
AcDbEntity
  8
02___PRT_ALL_AXES
100
AcDbLine
 62
7
  6
CONTINUOUS
 10
5.5434989778
 20
3.8758520602
 11
5.5434989778
 21
3.8650934179
  0
LINE
  5
6A7
100
AcDbEntity
  8
02___PRT_ALL_AXES
100
AcDbLine
 62
7
  6
CONTINUOUS
 10
5.5434989778
 20
3.8167969421
 11
5.5434989778
 21
3.8060382998
  0
LINE
  5
6A8
100
AcDbEntity
  8
02___PRT_ALL_AXES
100
AcDbLine
 62
7
  6
CONTINUOUS
 10
5.5434989778
 20
3.757741824
 11
5.5434989778
 21
3.7469831817
  0
LINE
  5
6A9
100
AcDbEntity
  8
02___PRT_ALL_AXES
100
AcDbLine
 62
7
  6
CONTINUOUS
 10
5.5434989778
 20
3.6986867059
 11
5.5434989778
 21
3.6879280636
  0
LINE
  5
6AA
100
AcDbEntity
  8
02___PRT_ALL_AXES
100
AcDbLine
 62
7
  6
CONTINUOUS
 10
5.5434989778
 20
3.6396315878
 11
5.5434989778
 21
3.6288729455
  0
LINE
  5
6AB
100
AcDbEntity
  8
02___PRT_ALL_AXES
100
AcDbLine
 62
7
  6
CONTINUOUS
 10
5.5434989778
 20
3.5805764697
 11
5.5434989778
 21
3.5698178273
  0
LINE
  5
6AC
100
AcDbEntity
  8
02___PRT_ALL_AXES
100
AcDbLine
 62
7
  6
CONTINUOUS
 10
5.5434989778
 20
3.5215213516
 11
5.5434989778
 21
3.5107627092
  0
LINE
  5
6AD
100
AcDbEntity
  8
02___PRT_ALL_AXES
100
AcDbLine
 62
7
  6
CONTINUOUS
 10
5.5434989778
 20
3.4624662335
 11
5.5434989778
 21
3.4181748949
  0
LINE
  5
6AE
100
AcDbEntity
  8
0
100
AcDbLine
 62
7
  6
CONTINUOUS
 10
4.7589876816
 20
2.9361193041
 11
4.7588330527
 21
2.9358914303
  0
LINE
  5
6AF
100
AcDbEntity
  8
0
100
AcDbLine
 62
7
  6
CONTINUOUS
 10
4.7589876816
 20
2.8967492254
 11
4.7588330527
 21
2.8965213516
  0
LINE
  5
6B0
100
AcDbEntity
  8
0
100
AcDbLine
 62
7
  6
CONTINUOUS
 10
4.7588330527
 20
2.8571512677
 11
4.7589876816
 21
2.8573791466
  0
LINE
  5
6B1
100
AcDbEntity
  8
0
100
AcDbLine
 62
7
  6
CONTINUOUS
 10
5.5787062907
 20
4.073213941
 11
5.5789320487
 21
4.0734747076
  0
LINE
  5
6B2
100
AcDbEntity
  8
0
100
AcDbLine
 62
7
  6
CONTINUOUS
 10
5.5787062907
 20
4.0141588229
 11
5.5789320487
 21
4.0144195895
  0
LWPOLYLINE
  5
6B3
100
AcDbEntity
  8
0
100
AcDbPolyline
 62
7
  6
CONTINUOUS
 90
3
 70
0
 10
5.5787062907
 20
3.9551037048
 10
5.5788851335
 20
3.9552456003
 10
5.5789320487
 20
3.9553644713
  0
LINE
  5
6B4
100
AcDbEntity
  8
0
100
AcDbLine
 62
7
  6
CONTINUOUS
 10
5.5432587252
 20
3.8755745395
 11
5.5787062907
 21
3.8960485866
  0
LINE
  5
6B5
100
AcDbEntity
  8
0
100
AcDbLine
 62
7
  6
CONTINUOUS
 10
5.5432587252
 20
3.8165194214
 11
5.5787062907
 21
3.8369934685
  0
LWPOLYLINE
  5
6B6
100
AcDbEntity
  8
0
100
AcDbPolyline
 62
7
  6
CONTINUOUS
 90
13
 70
0
 10
5.5434989778
 20
3.7469831806
 10
5.5405141545
 20
3.7460045911
 10
5.5315248148
 20
3.7450204656
 10
5.5166319036
 20
3.7440364825
 10
5.4959376605
 20
3.743049982
 10
5.4697764895
 20
3.7420660766
 10
5.4384076295
 20
3.7410827451
 10
5.4021756009
 20
3.7400998001
 10
5.3613869193
 20
3.7391150624
 10
5.3166283547
 20
3.7381319634
 10
5.2682447793
 20
3.7371472862
 10
5.2169184446
 20
3.7361641582
 10
5.1631664943
 20
3.73518156
  0
LWPOLYLINE
  5
6B7
100
AcDbEntity
  8
0
100
AcDbPolyline
 62
7
  6
CONTINUOUS
 90
13
 70
0
 10
4.4411367731
 20
3.4329386662
 10
4.4441412576
 20
3.4339204856
 10
4.453175824
 20
3.4349067207
 10
4.4681059231
 20
3.4358910124
 10
4.4888792408
 20
3.4368794688
 10
4.5151850804
 20
3.4378668886
 10
4.5465856117
 20
3.438849482
 10
4.5828456609
 20
3.4398318822
 10
4.6236596777
 20
3.4408162221
 10
4.6684356852
 20
3.4417989219
 10
4.7168296933
 20
3.4427832096
 10
4.7681614122
 20
3.443765989
 10
4.8219483252
 20
3.4447488872
  0
LWPOLYLINE
  5
6B8
100
AcDbEntity
  8
0
100
AcDbPolyline
 62
7
  6
CONTINUOUS
 90
13
 70
0
 10
5.5434989778
 20
3.687928074
 10
5.5404273659
 20
3.6869353349
 10
5.5313453499
 20
3.6859506398
 10
5.5163810512
 20
3.6849675256
 10
5.4956670516
 20
3.6839835237
 10
5.4694731635
 20
3.6830006156
 10
5.4380229192
 20
3.6820164669
 10
5.4017517888
 20
3.6810338802
 10
5.3609313972
 20
3.6800494912
 10
5.3161492526
 20
3.6790667453
 10
5.2677492688
 20
3.6780824103
 10
5.2164079692
 20
3.6770995102
 10
5.1625118499
 20
3.6761147028
  0
LINE
  5
6B9
100
AcDbEntity
  8
0
100
AcDbLine
 62
7
  6
CONTINUOUS
 10
5.5789320487
 20
4.1399117154
 11
5.5787062907
 21
4.140172482
  0
LINE
  5
6BA
100
AcDbEntity
  8
0
100
AcDbLine
 62
7
  6
CONTINUOUS
 10
5.5789320487
 20
4.1989668336
 11
5.5787062907
 21
4.1992276001
  0
LINE
  5
6BB
100
AcDbEntity
  8
0
100
AcDbLine
 62
7
  6
CONTINUOUS
 10
5.5789320487
 20
3.4829235265
 11
5.5789320487
 21
3.4903054162
  0
LINE
  5
6BC
100
AcDbEntity
  8
0
100
AcDbLine
 62
7
  6
CONTINUOUS
 10
5.5789320487
 20
3.5419786446
 11
5.5789320487
 21
3.5493605343
  0
LINE
  5
6BD
100
AcDbEntity
  8
0
100
AcDbLine
 62
7
  6
CONTINUOUS
 10
5.5789320487
 20
3.6010337627
 11
5.5789320487
 21
3.6084156524
  0
LINE
  5
6BE
100
AcDbEntity
  8
0
100
AcDbLine
 62
7
  6
CONTINUOUS
 10
5.5789320487
 20
3.6600888808
 11
5.5789320487
 21
3.6674707706
  0
LINE
  5
6BF
100
AcDbEntity
  8
0
100
AcDbLine
 62
7
  6
CONTINUOUS
 10
5.5789320487
 20
3.7191439989
 11
5.5789320487
 21
3.7265258887
  0
LINE
  5
6C0
100
AcDbEntity
  8
0
100
AcDbLine
 62
7
  6
CONTINUOUS
 10
5.5789320487
 20
3.778199117
 11
5.5789320487
 21
3.7855810068
  0
LINE
  5
6C1
100
AcDbEntity
  8
0
100
AcDbLine
 62
7
  6
CONTINUOUS
 10
5.5789320487
 20
3.8372542351
 11
5.5789320487
 21
3.8446361249
  0
LINE
  5
6C2
100
AcDbEntity
  8
0
100
AcDbLine
 62
7
  6
CONTINUOUS
 10
5.5789320487
 20
3.8963093532
 11
5.5789320487
 21
3.903691243
  0
LINE
  5
6C3
100
AcDbEntity
  8
0
100
AcDbLine
 62
7
  6
CONTINUOUS
 10
5.5789320487
 20
3.9553644713
 11
5.5789320487
 21
3.9627463611
  0
LINE
  5
6C4
100
AcDbEntity
  8
0
100
AcDbLine
 62
7
  6
CONTINUOUS
 10
5.5789320487
 20
4.0144195895
 11
5.5789320487
 21
4.0218014792
  0
LINE
  5
6C5
100
AcDbEntity
  8
0
100
AcDbLine
 62
7
  6
CONTINUOUS
 10
5.5789320487
 20
4.0734747076
 11
5.5789320487
 21
4.0808565973
  0
LINE
  5
6C6
100
AcDbEntity
  8
0
100
AcDbLine
 62
7
  6
CONTINUOUS
 10
5.5789320487
 20
4.1325298257
 11
5.5789320487
 21
4.1399117154
  0
LINE
  5
6C7
100
AcDbEntity
  8
0
100
AcDbLine
 62
7
  6
CONTINUOUS
 10
5.5789320487
 20
4.1915849438
 11
5.5789320487
 21
4.1989668336
  0
LINE
  5
6C8
100
AcDbEntity
  8
0
100
AcDbLine
 62
7
  6
CONTINUOUS
 10
5.5787062907
 20
3.8960485866
 11
5.5789320487
 21
3.8963093532
  0
LINE
  5
6C9
100
AcDbEntity
  8
0
100
AcDbLine
 62
7
  6
CONTINUOUS
 10
5.5787062907
 20
3.8369934685
 11
5.5789320487
 21
3.8372542351
  0
LINE
  5
6CA
100
AcDbEntity
  8
0
100
AcDbLine
 62
7
  6
CONTINUOUS
 10
5.5787062907
 20
3.7779383504
 11
5.5789320487
 21
3.778199117
  0
LINE
  5
6CB
100
AcDbEntity
  8
0
100
AcDbLine
 62
7
  6
CONTINUOUS
 10
4.7844001738
 20
3.2304383716
 11
4.7589876816
 21
3.2117098553
  0
LINE
  5
6CC
100
AcDbEntity
  8
0
100
AcDbLine
 62
7
  6
CONTINUOUS
 10
4.7844001738
 20
3.1910682928
 11
4.7589876816
 21
3.1723397765
  0
LINE
  5
6CD
100
AcDbEntity
  8
0
100
AcDbLine
 62
7
  6
CONTINUOUS
 10
4.7844001738
 20
3.1516982141
 11
4.7589876816
 21
3.1329696978
  0
LINE
  5
6CE
100
AcDbEntity
  8
0
100
AcDbLine
 62
7
  6
CONTINUOUS
 10
4.7844001738
 20
3.1123281354
 11
4.7589876816
 21
3.0935996191
  0
LINE
  5
6CF
100
AcDbEntity
  8
0
100
AcDbLine
 62
7
  6
CONTINUOUS
 10
5.5432587252
 20
3.7574643033
 11
5.5787062907
 21
3.7779383504
  0
LINE
  5
6D0
100
AcDbEntity
  8
0
100
AcDbLine
 62
7
  6
CONTINUOUS
 10
5.5432587252
 20
3.6984091852
 11
5.5787062907
 21
3.7188832323
  0
LINE
  5
6D1
100
AcDbEntity
  8
0
100
AcDbLine
 62
7
  6
CONTINUOUS
 10
5.5777595445
 20
3.6004394076
 11
5.5787062907
 21
3.6007729961
  0
LWPOLYLINE
  5
6D2
100
AcDbEntity
  8
0
100
AcDbPolyline
 62
7
  6
CONTINUOUS
 90
13
 70
0
 10
5.5434989778
 20
3.6288729452
 10
5.5404826704
 20
3.6278892026
 10
5.5314940122
 20
3.6269076973
 10
5.5166151639
 20
3.6259253208
 10
5.495987798
 20
3.6249418502
 10
5.4698894205
 20
3.6239596962
 10
5.4385299242
 20
3.6229760603
 10
5.4023631523
 20
3.6219943484
 10
5.3617301903
 20
3.6210127104
 10
5.3169230758
 20
3.6200279441
 10
5.2684804691
 20
3.6190416934
 10
5.2171784109
 20
3.6180587769
 10
5.1631898301
 20
3.6170717424
  0
LINE
  5
6D3
100
AcDbEntity
  8
0
100
AcDbLine
 62
7
  6
CONTINUOUS
 10
5.2263949592
 20
3.2289706431
 11
5.2265495881
 21
3.2291985169
  0
LINE
  5
6D4
100
AcDbEntity
  8
0
100
AcDbLine
 62
7
  6
CONTINUOUS
 10
5.2263949592
 20
3.1896005644
 11
5.2265495881
 21
3.1898284382
  0
LINE
  5
6D5
100
AcDbEntity
  8
0
100
AcDbLine
 62
7
  6
CONTINUOUS
 10
5.2263949592
 20
3.1502304857
 11
5.2265495881
 21
3.1504583594
  0
LINE
  5
6D6
100
AcDbEntity
  8
0
100
AcDbLine
 62
7
  6
CONTINUOUS
 10
5.2263949592
 20
3.1108604069
 11
5.2265495881
 21
3.1110882807
  0
LINE
  5
6D7
100
AcDbEntity
  8
0
100
AcDbLine
 62
7
  6
CONTINUOUS
 10
5.2263949592
 20
3.0714903282
 11
5.2265495881
 21
3.071718202
  0
LINE
  5
6D8
100
AcDbEntity
  8
0
100
AcDbLine
 62
7
  6
CONTINUOUS
 10
5.5787062907
 20
3.7188832323
 11
5.5789320487
 21
3.7191439989
  0
LINE
  5
6D9
100
AcDbEntity
  8
0
100
AcDbLine
 62
7
  6
CONTINUOUS
 10
5.5787062907
 20
3.6598281142
 11
5.5789320487
 21
3.6600888808
  0
LINE
  5
6DA
100
AcDbEntity
  8
0
100
AcDbLine
 62
7
  6
CONTINUOUS
 10
5.5787062907
 20
3.6007729961
 11
5.5789320487
 21
3.6010337627
  0
LINE
  5
6DB
100
AcDbEntity
  8
0
100
AcDbLine
 62
7
  6
CONTINUOUS
 10
4.7844001738
 20
3.0729580566
 11
4.7589876816
 21
3.0542295403
  0
LINE
  5
6DC
100
AcDbEntity
  8
0
100
AcDbLine
 62
7
  6
CONTINUOUS
 10
4.7844001738
 20
3.0335879779
 11
4.7589876816
 21
3.0148594616
  0
LINE
  5
6DD
100
AcDbEntity
  8
0
100
AcDbLine
 62
7
  6
CONTINUOUS
 10
4.7844001738
 20
2.9942178991
 11
4.7589876816
 21
2.9754893828
  0
LINE
  5
6DE
100
AcDbEntity
  8
0
100
AcDbLine
 62
7
  6
CONTINUOUS
 10
5.5432587252
 20
3.6393540671
 11
5.5787062907
 21
3.6598281142
  0
LINE
  5
6DF
100
AcDbEntity
  8
0
100
AcDbLine
 62
7
  6
CONTINUOUS
 10
5.5432587252
 20
3.580298949
 11
5.5787062907
 21
3.6007729961
  0
LINE
  5
6E0
100
AcDbEntity
  8
0
100
AcDbLine
 62
7
  6
CONTINUOUS
 10
5.5432587252
 20
3.5212438309
 11
5.5787062907
 21
3.541717878
  0
LWPOLYLINE
  5
6E1
100
AcDbEntity
  8
0
100
AcDbPolyline
 62
7
  6
CONTINUOUS
 90
9
 70
0
 10
4.7844001738
 20
3.2304383716
 10
4.7850534999
 20
3.2307410014
 10
4.7912459273
 20
3.2318133953
 10
4.8033245256
 20
3.2328857892
 10
4.820936362
 20
3.2339581832
 10
4.8435668242
 20
3.2350305771
 10
4.8705546572
 20
3.236102971
 10
4.901111285
 20
3.237175365
 10
4.9343438526
 20
3.2382477589
  0
LWPOLYLINE
  5
6E2
100
AcDbEntity
  8
0
100
AcDbPolyline
 62
7
  6
CONTINUOUS
 90
13
 70
0
 10
5.5434989778
 20
3.5698178273
 10
5.5405036499
 20
3.5688375148
 10
5.5315141357
 20
3.567854233
 10
5.5166479553
 20
3.5668720158
 10
5.4959067976
 20
3.5658833328
 10
5.4695243242
 20
3.5648921225
 10
5.4379405592
 20
3.5639038439
 10
5.4016452216
 20
3.56292093
 10
5.3607472407
 20
3.561935032
 10
5.3158329783
 20
3.560949846
 10
5.2675361076
 20
3.5599679782
 10
5.2162461643
 20
3.5589862541
 10
5.1624139532
 20
3.5580027115
  0
LINE
  5
6E3
100
AcDbEntity
  8
0
100
AcDbLine
 62
7
  6
CONTINUOUS
 10
4.7588330527
 20
3.2095134776
 11
4.7620009055
 21
3.2105459989
  0
LWPOLYLINE
  5
6E4
100
AcDbEntity
  8
0
100
AcDbPolyline
 62
7
  6
CONTINUOUS
 90
9
 70
0
 10
4.7588330527
 20
3.2488835563
 10
4.7620390542
 20
3.2499222902
 10
4.7716181694
 20
3.2509650549
 10
4.7871623576
 20
3.2519997749
 10
4.8082753137
 20
3.2530334875
 10
4.8347661021
 20
3.2540806589
 10
4.8659589565
 20
3.2551374489
 10
4.9005727119
 20
3.2561891253
 10
4.9372291434
 20
3.2572257402
  0
LWPOLYLINE
  5
6E5
100
AcDbEntity
  8
0
100
AcDbPolyline
 62
7
  6
CONTINUOUS
 90
13
 70
0
 10
5.5434989778
 20
3.5107627095
 10
5.5404241393
 20
3.5097694588
 10
5.5313485301
 20
3.5087855452
 10
5.5163896315
 20
3.5078026436
 10
5.4956984584
 20
3.506819484
 10
5.4694820244
 20
3.5058355631
 10
5.4380012628
 20
3.5048504849
 10
5.4017163399
 20
3.503867623
 10
5.3608901909
 20
3.5028831918
 10
5.3161025013
 20
3.5019004058
 10
5.2676970365
 20
3.5009160277
 10
5.2163593413
 20
3.4999332482
 10
5.1625118293
 20
3.4989493481
  0
LINE
  5
6E6
100
AcDbEntity
  8
02___PRT_ALL_AXES
100
AcDbLine
 62
7
  6
CONTINUOUS
 10
4.0080667018
 20
4.756757572
 11
5.9765690492
 21
4.756757572
  0
LINE
  5
6E7
100
AcDbEntity
  8
AXIS
100
AcDbLine
 62
7
  6
CONTINUOUS
 10
4.008065907
 20
4.756757572
 11
5.976569844
 21
4.756757572
  0
LINE
  5
6E8
100
AcDbEntity
  8
0
100
AcDbLine
 62
7
  6
CONTINUOUS
 10
5.2263949592
 20
3.0321202494
 11
5.2265495881
 21
3.0323481232
  0
LINE
  5
6E9
100
AcDbEntity
  8
0
100
AcDbLine
 62
7
  6
CONTINUOUS
 10
5.2263949592
 20
2.9927501707
 11
5.2265495881
 21
2.9929780445
  0
LINE
  5
6EA
100
AcDbEntity
  8
0
100
AcDbLine
 62
7
  6
CONTINUOUS
 10
5.2263949592
 20
2.953380092
 11
5.2265495881
 21
2.9536079657
  0
LINE
  5
6EB
100
AcDbEntity
  8
0
100
AcDbLine
 62
7
  6
CONTINUOUS
 10
5.2263949592
 20
2.9140100132
 11
5.2265495881
 21
2.914237887
  0
LINE
  5
6EC
100
AcDbEntity
  8
0
100
AcDbLine
 62
7
  6
CONTINUOUS
 10
5.2263949592
 20
2.8746399345
 11
5.2265495881
 21
2.8748678083
  0
LINE
  5
6ED
100
AcDbEntity
  8
0
100
AcDbLine
 62
7
  6
CONTINUOUS
 10
5.5787062907
 20
3.541717878
 11
5.5789320487
 21
3.5419786446
  0
LINE
  5
6EE
100
AcDbEntity
  8
0
100
AcDbLine
 62
7
  6
CONTINUOUS
 10
5.5787062907
 20
3.4826627599
 11
5.5789320487
 21
3.4829235265
  0
LINE
  5
6EF
100
AcDbEntity
  8
0
100
AcDbLine
 62
7
  6
CONTINUOUS
 10
5.1909529052
 20
3.2478993043
 11
5.2151037498
 21
3.2666000917
  0
LINE
  5
6F0
100
AcDbEntity
  8
0
100
AcDbLine
 62
7
  6
CONTINUOUS
 10
4.7844001738
 20
2.9548478204
 11
4.7589876816
 21
2.9361193041
  0
LINE
  5
6F1
100
AcDbEntity
  8
0
100
AcDbLine
 62
7
  6
CONTINUOUS
 10
4.7844001738
 20
2.9154777417
 11
4.7589876816
 21
2.8967492254
  0
LINE
  5
6F2
100
AcDbEntity
  8
0
100
AcDbLine
 62
7
  6
CONTINUOUS
 10
5.200982467
 20
3.2102421268
 11
5.2263949592
 21
3.2289706431
  0
LINE
  5
6F3
100
AcDbEntity
  8
0
100
AcDbLine
 62
7
  6
CONTINUOUS
 10
4.7844001738
 20
2.8761076629
 11
4.7589876816
 21
2.8573791466
  0
LINE
  5
6F4
100
AcDbEntity
  8
0
100
AcDbLine
 62
7
  6
CONTINUOUS
 10
5.200982467
 20
3.1708720481
 11
5.2263949592
 21
3.1896005644
  0
LWPOLYLINE
  5
6F5
100
AcDbEntity
  8
0
100
AcDbPolyline
 62
7
  6
CONTINUOUS
 90
9
 70
0
 10
4.7844001738
 20
3.0729580566
 10
4.7846442712
 20
3.0730990928
 10
4.7899297384
 20
3.0741714867
 10
4.8011398351
 20
3.0752438807
 10
4.8179470059
 20
3.0763162746
 10
4.8398601505
 20
3.0773886685
 10
4.8662389737
 20
3.0784610625
 10
4.8963126947
 20
3.0795334564
 10
4.9292025688
 20
3.0806058503
  0
LINE
  5
6F6
100
AcDbEntity
  8
0
100
AcDbLine
 62
7
  6
CONTINUOUS
 10
5.5432587252
 20
3.4621887127
 11
5.5787062907
 21
3.4826627599
  0
LINE
  5
6F7
100
AcDbEntity
  8
0
100
AcDbLine
 62
7
  6
CONTINUOUS
 10
5.578324125
 20
3.4824955908
 11
5.5787062907
 21
3.4826627599
  0
LWPOLYLINE
  5
6F8
100
AcDbEntity
  8
0
100
AcDbPolyline
 62
7
  6
CONTINUOUS
 90
9
 70
0
 10
4.7844001738
 20
3.1123281354
 10
4.7855453639
 20
3.1127776684
 10
4.7925587427
 20
3.1138500623
 10
4.8054199324
 20
3.1149224563
 10
4.823753133
 20
3.1159948502
 10
4.8470226543
 20
3.1170672442
 10
4.874548568
 20
3.1181396381
 10
4.9055265758
 20
3.119212032
 10
4.93905151
 20
3.120284426
  0
LINE
  5
6F9
100
AcDbEntity
  8
0
100
AcDbLine
 62
7
  6
CONTINUOUS
 10
4.7588330527
 20
3.0914032413
 11
4.7619665384
 21
3.0924301339
  0
LINE
  5
6FA
100
AcDbEntity
  8
0
100
AcDbLine
 62
7
  6
CONTINUOUS
 10
4.7588330527
 20
3.1307733201
 11
4.7620106081
 21
3.131807425
  0
LINE
  5
6FB
100
AcDbEntity
  8
0
100
AcDbLine
 62
7
  6
CONTINUOUS
 10
4.7588330527
 20
3.1701433988
 11
4.76202054
 21
3.1711791223
  0
LWPOLYLINE
  5
6FC
100
AcDbEntity
  8
0
100
AcDbPolyline
 62
7
  6
CONTINUOUS
 90
9
 70
0
 10
4.7844001738
 20
3.1516982141
 10
4.7869484725
 20
3.152456244
 10
4.7956727661
 20
3.153528638
 10
4.8101538797
 20
3.1546010319
 10
4.8299686799
 20
3.1556734258
 10
4.8545381844
 20
3.1567458198
 10
4.88314448
 20
3.1578182137
 10
4.9149516997
 20
3.1588906077
 10
4.9490304467
 20
3.1599630016
  0
LINE
  5
6FD
100
AcDbEntity
  8
AXIS
100
AcDbLine
 62
7
  6
CONTINUOUS
 10
5.976569844
 20
4.756757572
 11
5.9725230644
 21
5.2204725815
  0
LINE
  5
6FE
100
AcDbEntity
  8
02___PRT_ALL_AXES
100
AcDbLine
 62
7
  6
CONTINUOUS
 10
5.976569844
 20
4.756757572
 11
5.976569844
 21
4.3236867059
  0
LWPOLYLINE
  5
6FF
100
AcDbEntity
  8
0
100
AcDbPolyline
 62
7
  6
CONTINUOUS
 90
10
 70
0
 10
5.976569844
 20
4.3236867059
 10
5.9760837936
 20
4.3154238499
 10
5.9746256426
 20
4.3081330945
 10
5.9721953908
 20
4.3018144399
 10
5.9687930383
 20
4.296467886
 10
5.9644185851
 20
4.2920934328
 10
5.9590720312
 20
4.2886910804
 10
5.9527533766
 20
4.2862608286
 10
5.9454626213
 20
4.2848026775
 10
5.9371997652
 20
4.2843166272
  0
LINE
  5
700
100
AcDbEntity
  8
0
100
AcDbLine
 62
7
  6
CONTINUOUS
 10
4.7844001738
 20
2.8367375842
 11
4.7827179711
 21
2.8354977295
  0
LINE
  5
701
100
AcDbEntity
  8
0
100
AcDbLine
 62
7
  6
CONTINUOUS
 10
5.200982467
 20
3.1315019694
 11
5.2263949592
 21
3.1502304857
  0
LINE
  5
702
100
AcDbEntity
  8
0
100
AcDbLine
 62
7
  6
CONTINUOUS
 10
5.200982467
 20
3.0921318906
 11
5.2263949592
 21
3.1108604069
  0
LINE
  5
703
100
AcDbEntity
  8
0
100
AcDbLine
 62
7
  6
CONTINUOUS
 10
5.200982467
 20
3.0527618119
 11
5.2263949592
 21
3.0714903282
  0
LWPOLYLINE
  5
704
100
AcDbEntity
  8
0
100
AcDbPolyline
 62
7
  6
CONTINUOUS
 90
9
 70
0
 10
4.7844001738
 20
2.9154777417
 10
4.784659469
 20
2.9156259347
 10
4.7899540238
 20
2.9166943107
 10
4.8011282996
 20
2.9177626868
 10
4.8178582237
 20
2.9188310629
 10
4.8396586002
 20
2.9198994389
 10
4.8658971818
 20
2.920967815
 10
4.8958130056
 20
2.9220361911
 10
4.9285384627
 20
2.9231045671
  0
LWPOLYLINE
  5
705
100
AcDbEntity
  8
0
100
AcDbPolyline
 62
7
  6
CONTINUOUS
 90
7
 70
0
 10
4.7844001738
 20
2.9548478204
 10
4.7850695583
 20
2.9551558492
 10
4.7912577555
 20
2.9562242253
 10
4.8032878632
 20
2.9572926013
 10
4.8208109882
 20
2.9583609774
 10
4.8433189306
 20
2.9594293535
 10
4.8701589223
 20
2.9604977295
  0
LINE
  5
706
100
AcDbEntity
  8
0
100
AcDbLine
 62
7
  6
CONTINUOUS
 10
4.7588330527
 20
2.9732930051
 11
4.7617035828
 21
2.9742757739
  0
LWPOLYLINE
  5
707
100
AcDbEntity
  8
0
100
AcDbPolyline
 62
7
  6
CONTINUOUS
 90
9
 70
0
 10
4.7844001738
 20
2.9942178991
 10
4.7861510815
 20
2.9948143355
 10
4.7939815569
 20
2.9958867294
 10
4.807618269
 20
2.9969591233
 10
4.8266627574
 20
2.9980315173
 10
4.8505585482
 20
2.9991039112
 10
4.8786074137
 20
3.0001763051
 10
4.909989775
 20
3.0012486991
 10
4.9437886495
 20
3.002321093
  0
LINE
  5
708
100
AcDbEntity
  8
0
100
AcDbLine
 62
7
  6
CONTINUOUS
 10
5.2265495881
 20
3.1917969421
 11
5.2234262811
 21
3.1907717224
  0
LINE
  5
709
100
AcDbEntity
  8
0
100
AcDbLine
 62
7
  6
CONTINUOUS
 10
4.7588330527
 20
3.0126630839
 11
4.7620010946
 21
3.013695636
  0
LINE
  5
70A
100
AcDbEntity
  8
0
100
AcDbLine
 62
7
  6
CONTINUOUS
 10
4.7588330527
 20
3.0520331626
 11
4.7620074162
 21
3.0530667468
  0
LINE
  5
70B
100
AcDbEntity
  8
0
100
AcDbLine
 62
7
  6
CONTINUOUS
 10
5.2265495881
 20
3.1524268634
 11
5.2233616959
 21
3.151391074
  0
LINE
  5
70C
100
AcDbEntity
  8
0
100
AcDbLine
 62
7
  6
CONTINUOUS
 10
5.206864628
 20
2.8354977295
 11
5.2163468096
 21
2.8449799076
  0
LINE
  5
70D
100
AcDbEntity
  8
0
100
AcDbLine
 62
7
  6
CONTINUOUS
 10
5.200982467
 20
3.0133917331
 11
5.2263949592
 21
3.0321202494
  0
LINE
  5
70E
100
AcDbEntity
  8
0
100
AcDbLine
 62
7
  6
CONTINUOUS
 10
5.200982467
 20
2.9740216544
 11
5.2263949592
 21
2.9927501707
  0
LINE
  5
70F
100
AcDbEntity
  8
0
100
AcDbLine
 62
7
  6
CONTINUOUS
 10
5.200982467
 20
2.9346515757
 11
5.2263949592
 21
2.953380092
  0
LINE
  5
710
100
AcDbEntity
  8
0
100
AcDbLine
 62
7
  6
CONTINUOUS
 10
5.200982467
 20
2.8952814969
 11
5.2263949592
 21
2.9140100132
  0
LINE
  5
711
100
AcDbEntity
  8
0
100
AcDbLine
 62
7
  6
CONTINUOUS
 10
4.7588330527
 20
2.8945528476
 11
4.7619725977
 21
2.8955807349
  0
LINE
  5
712
100
AcDbEntity
  8
0
100
AcDbLine
 62
7
  6
CONTINUOUS
 10
5.2265495881
 20
3.0343166272
 11
5.2234003367
 21
3.0332871486
  0
LINE
  5
713
100
AcDbEntity
  8
0
100
AcDbLine
 62
7
  6
CONTINUOUS
 10
4.7588330527
 20
2.9339229264
 11
4.7620041812
 21
2.9349559826
  0
LINE
  5
714
100
AcDbEntity
  8
0
100
AcDbLine
 62
7
  6
CONTINUOUS
 10
5.2265495881
 20
3.0736867059
 11
5.223372903
 21
3.072652743
  0
LINE
  5
715
100
AcDbEntity
  8
0
100
AcDbLine
 62
7
  6
CONTINUOUS
 10
5.2265495881
 20
3.1130567846
 11
5.2233716284
 21
3.1120226138
  0
LINE
  5
716
100
AcDbEntity
  8
0
100
AcDbLine
 62
7
  6
CONTINUOUS
 10
5.200982467
 20
2.8559114182
 11
5.2263949592
 21
2.8746399345
  0
LINE
  5
717
100
AcDbEntity
  8
0
100
AcDbLine
 62
7
  6
CONTINUOUS
 10
5.2265495881
 20
2.9555764697
 11
5.2236717439
 21
2.9545924471
  0
LINE
  5
718
100
AcDbEntity
  8
0
100
AcDbLine
 62
7
  6
CONTINUOUS
 10
5.2265495881
 20
2.9949465484
 11
5.2234128091
 21
2.9939191151
  0
LINE
  5
719
100
AcDbEntity
  8
0
100
AcDbLine
 62
7
  6
CONTINUOUS
 10
5.2265495881
 20
2.9162063909
 11
5.2233780557
 21
2.9151732688
  0
LINE
  5
71A
100
AcDbEntity
  8
0
100
AcDbLine
 62
7
  6
CONTINUOUS
 10
4.7588330527
 20
2.8551827686
 11
4.7620086665
 21
2.8562165571
  0
LINE
  5
71B
100
AcDbEntity
  8
0
100
AcDbLine
 62
9
  6
CONTINUOUS
 10
4.0121126866
 20
5.2204725815
 11
5.9725230644
 21
5.2204725815
  0
LINE
  5
71C
100
AcDbEntity
  8
0
100
AcDbLine
 62
7
  6
CONTINUOUS
 10
5.2233902245
 20
2.8758051785
 11
5.2265495881
 21
2.8768363122
  0
LINE
  5
71D
100
AcDbEntity
  8
0
100
AcDbLine
 62
7
  6
CONTINUOUS
 10
4.1400605704
 20
5.3473087531
 11
5.8445751805
 21
5.3473087531
  0
LWPOLYLINE
  5
71E
100
AcDbEntity
  8
0
100
AcDbPolyline
 62
7
  6
CONTINUOUS
 90
5
 70
0
 10
13.01045472
 20
5.7930627494
 10
13.0201613442
 20
5.7948381593
 10
13.056017219
 20
5.8038228794
 10
13.088910848
 20
5.8160254258
 10
13.1181573297
 20
5.8311837246
  0
LWPOLYLINE
  5
71F
100
AcDbEntity
  8
0
100
AcDbPolyline
 62
7
  6
CONTINUOUS
 90
5
 70
0
 10
13.01045472
 20
5.8252085139
 10
13.0195254574
 20
5.8268595317
 10
13.0554185008
 20
5.8357846342
 10
13.0887491536
 20
5.84810008
 10
13.1181573297
 20
5.8633294891
  0
LWPOLYLINE
  5
720
100
AcDbEntity
  8
0
100
AcDbPolyline
 62
7
  6
CONTINUOUS
 90
5
 70
0
 10
13.01045472
 20
5.8573542784
 10
13.0190282778
 20
5.8589088365
 10
13.0552855451
 20
5.8678897046
 10
13.0887733443
 20
5.8802564753
 10
13.1181573297
 20
5.8954752535
  0
LWPOLYLINE
  5
721
100
AcDbEntity
  8
0
100
AcDbPolyline
 62
7
  6
CONTINUOUS
 90
4
 70
0
 10
13.0242699692
 20
5.8615685426
 10
12.9886230845
 20
5.855899542
 10
12.9522470605
 20
5.8535069783
 10
12.9158091863
 20
5.854405206
  0
LWPOLYLINE
  5
722
100
AcDbEntity
  8
0
100
AcDbPolyline
 62
7
  6
CONTINUOUS
 90
4
 70
0
 10
12.9824503986
 20
5.7909676486
 10
13.0200501784
 20
5.7964236184
 10
13.0558336042
 20
5.8053736034
 10
13.0888337136
 20
5.8175987765
  0
LWPOLYLINE
  5
723
100
AcDbEntity
  8
0
100
AcDbPolyline
 62
7
  6
CONTINUOUS
 90
4
 70
0
 10
13.0190282778
 20
5.8283703603
 10
12.9814999467
 20
5.8230234442
 10
12.9433459187
 20
5.8212762876
 10
12.9050137179
 20
5.823168169
  0
LINE
  5
724
100
AcDbEntity
  8
0
100
AcDbLine
 62
7
  6
CONTINUOUS
 10
12.9158091863
 20
5.854405206
 11
12.8804593799
 21
5.8585306975
  0
LWPOLYLINE
  5
725
100
AcDbEntity
  8
0
100
AcDbPolyline
 62
7
  6
CONTINUOUS
 90
5
 70
0
 10
12.8788156842
 20
5.8571980998
 10
12.9050137179
 20
5.8537066453
 10
12.9433459187
 20
5.8518147638
 10
12.9814999467
 20
5.8535619204
 10
13.01045472
 20
5.8573542784
  0
LWPOLYLINE
  5
726
100
AcDbEntity
  8
0
100
AcDbPolyline
 62
7
  6
CONTINUOUS
 90
5
 70
0
 10
12.8788156842
 20
5.7929065709
 10
12.9049871336
 20
5.7894177266
 10
12.9438570206
 20
5.7875228171
 10
12.9826049621
 20
5.7893752082
 10
13.01045472
 20
5.7930627494
  0
LWPOLYLINE
  5
727
100
AcDbEntity
  8
0
100
AcDbPolyline
 62
7
  6
CONTINUOUS
 90
5
 70
0
 10
12.8788156842
 20
5.8250523354
 10
12.9044889129
 20
5.821612751
 10
12.9433362525
 20
5.8196690135
 10
12.9820856705
 20
5.8214713287
 10
13.01045472
 20
5.8252085139
  0
LWPOLYLINE
  5
728
100
AcDbEntity
  8
0
100
AcDbPolyline
 62
7
  6
CONTINUOUS
 90
5
 70
0
 10
12.8858593979
 20
5.8560032599
 10
12.9020910556
 20
5.853660078
 10
12.9371364232
 20
5.8512582263
 10
12.9726358831
 20
5.852337022
 10
13.0034165787
 20
5.8561603838
  0
LWPOLYLINE
  5
729
100
AcDbEntity
  8
0
100
AcDbPolyline
 62
7
  6
CONTINUOUS
 90
4
 70
0
 10
12.8689807219
 20
5.7963207504
 10
12.9058800165
 20
5.7909383553
 10
12.9440476169
 20
5.7891301148
 10
12.9824503986
 20
5.7909676486
  0
LWPOLYLINE
  5
72A
100
AcDbEntity
  8
0
100
AcDbPolyline
 62
7
  6
CONTINUOUS
 90
9
 70
0
 10
12.9050137179
 20
5.823168169
 10
12.8679731801
 20
5.8286677362
 10
12.8335599658
 20
5.8375027287
 10
12.8019839269
 20
5.8496123043
 10
12.7743727354
 20
5.8646659791
 10
12.7518602212
 20
5.8820231824
 10
12.7350710864
 20
5.9009817822
 10
12.7239985403
 20
5.9214767862
 10
12.7191435282
 20
5.9428761575
  0
LWPOLYLINE
  5
72B
100
AcDbEntity
  8
0
100
AcDbPolyline
 62
7
  6
CONTINUOUS
 90
5
 70
0
 10
12.8858593979
 20
5.8238574955
 10
12.896950142
 20
5.822168417
 10
12.9318394611
 20
5.8192515657
 10
12.9673364932
 20
5.8198075425
 10
13.0034165787
 20
5.8240146193
  0
LWPOLYLINE
  5
72C
100
AcDbEntity
  8
0
100
AcDbPolyline
 62
7
  6
CONTINUOUS
 90
6
 70
0
 10
12.8858593979
 20
5.791711731
 10
12.8918455635
 20
5.790752204
 10
12.926556133
 20
5.7873228184
 10
12.962027641
 20
5.7873561822
 10
12.9972313543
 20
5.790876627
 10
13.0034165787
 20
5.7918688549
  0
LWPOLYLINE
  5
72D
100
AcDbEntity
  8
0
100
AcDbPolyline
 62
7
  6
CONTINUOUS
 90
7
 70
0
 10
12.8804593799
 20
5.8585306975
 10
12.8468410692
 20
5.8657651991
 10
12.8155569353
 20
5.8760029854
 10
12.7873258845
 20
5.8891032136
 10
12.7632650177
 20
5.9046056691
 10
12.7441911907
 20
5.9218671532
 10
12.7303000673
 20
5.9405224259
  0
LWPOLYLINE
  5
72E
100
AcDbEntity
  8
0
100
AcDbPolyline
 62
7
  6
CONTINUOUS
 90
9
 70
0
 10
12.8163157703
 20
5.7995181531
 10
12.8461253179
 20
5.7880210754
 10
12.8790281097
 20
5.7795189047
 10
12.9141269362
 20
5.7742703213
 10
12.9504601432
 20
5.7724451332
 10
12.9870297057
 20
5.7741187343
 10
13.0228304121
 20
5.7792701358
 10
13.0568774365
 20
5.7877831045
 10
13.0882300712
 20
5.7994486273
  0
LINE
  5
72F
100
AcDbEntity
  8
0
100
AcDbLine
 62
7
  6
CONTINUOUS
 10
12.7986523884
 20
5.8086315842
 11
12.8163157703
 21
5.7995181531
  0
LWPOLYLINE
  5
730
100
AcDbEntity
  8
0
100
AcDbPolyline
 62
7
  6
CONTINUOUS
 90
5
 70
0
 10
13.01045472
 20
5.8895000428
 10
13.0242699692
 20
5.8921070188
 10
13.0585848774
 20
5.9010635055
 10
13.0902600292
 20
5.9130608695
 10
13.1181573297
 20
5.927621018
  0
LWPOLYLINE
  5
731
100
AcDbEntity
  8
0
100
AcDbPolyline
 62
7
  6
CONTINUOUS
 90
5
 70
0
 10
13.01045472
 20
5.9537915717
 10
13.0201480057
 20
5.9555643605
 10
13.0559710453
 20
5.9645374664
 10
13.0888839571
 20
5.9767424135
 10
13.1181573297
 20
5.9919125469
  0
LWPOLYLINE
  5
732
100
AcDbEntity
  8
0
100
AcDbPolyline
 62
7
  6
CONTINUOUS
 90
5
 70
0
 10
13.01045472
 20
5.9216458073
 10
13.0194995025
 20
5.9232917721
 10
13.0556348728
 20
5.9322882838
 10
13.0889460254
 20
5.9446239703
 10
13.1181573297
 20
5.9597667824
  0
LWPOLYLINE
  5
733
100
AcDbEntity
  8
0
100
AcDbPolyline
 62
7
  6
CONTINUOUS
 90
5
 70
0
 10
13.01045472
 20
5.9859373362
 10
13.0194122197
 20
5.9875663227
 10
13.0553804179
 20
5.9965017941
 10
13.0887478124
 20
6.008828313
 10
13.1181573297
 20
6.0240583113
  0
LWPOLYLINE
  5
734
100
AcDbEntity
  8
0
100
AcDbPolyline
 62
7
  6
CONTINUOUS
 90
4
 70
0
 10
13.0201480057
 20
5.9250258842
 10
12.9825891881
 20
5.9195640361
 10
12.9438261092
 20
5.9177131701
 10
12.9049425156
 20
5.9196124576
  0
LWPOLYLINE
  5
735
100
AcDbEntity
  8
0
100
AcDbPolyline
 62
7
  6
CONTINUOUS
 90
4
 70
0
 10
13.0194995025
 20
5.8927532959
 10
12.981995333
 20
5.8873615796
 10
12.9434319144
 20
5.885567701
 10
12.9047840326
 20
5.8874823108
  0
LWPOLYLINE
  5
736
100
AcDbEntity
  8
0
100
AcDbPolyline
 62
7
  6
CONTINUOUS
 90
4
 70
0
 10
13.0194122197
 20
5.9570278465
 10
12.981989049
 20
5.9516525134
 10
12.9432581351
 20
5.9498594821
 10
12.9044326623
 20
5.9518086994
  0
LWPOLYLINE
  5
737
100
AcDbEntity
  8
0
100
AcDbPolyline
 62
7
  6
CONTINUOUS
 90
4
 70
0
 10
13.0189159713
 20
5.9890774904
 10
12.9813467893
 20
5.9837379832
 10
12.9432132527
 20
5.9820053238
 10
12.9050031749
 20
5.9838980263
  0
LWPOLYLINE
  5
738
100
AcDbEntity
  8
0
100
AcDbPolyline
 62
7
  6
CONTINUOUS
 90
5
 70
0
 10
12.8788156842
 20
5.8893438643
 10
12.9158091863
 20
5.8849436822
 10
12.9522470605
 20
5.8840454545
 10
12.9886230845
 20
5.8864380182
 10
13.01045472
 20
5.8895000428
  0
LWPOLYLINE
  5
739
100
AcDbEntity
  8
0
100
AcDbPolyline
 62
7
  6
CONTINUOUS
 90
5
 70
0
 10
12.8858593979
 20
5.9202947888
 10
12.9182542608
 20
5.9164063032
 10
12.9537722174
 20
5.915619761
 10
12.989261587
 20
5.9183499255
 10
13.0034165787
 20
5.9204519127
  0
LWPOLYLINE
  5
73A
100
AcDbEntity
  8
0
100
AcDbPolyline
 62
7
  6
CONTINUOUS
 90
5
 70
0
 10
12.8788156842
 20
5.9536353932
 10
12.9049425156
 20
5.9501509339
 10
12.9438261092
 20
5.9482516463
 10
12.9825891881
 20
5.9501025123
 10
13.01045472
 20
5.9537915717
  0
LWPOLYLINE
  5
73B
100
AcDbEntity
  8
0
100
AcDbPolyline
 62
7
  6
CONTINUOUS
 90
5
 70
0
 10
12.8788156842
 20
5.9214896287
 10
12.9047840326
 20
5.918020787
 10
12.9434319144
 20
5.9161061773
 10
12.981995333
 20
5.9179000559
 10
13.01045472
 20
5.9216458073
  0
LWPOLYLINE
  5
73C
100
AcDbEntity
  8
0
100
AcDbPolyline
 62
7
  6
CONTINUOUS
 90
5
 70
0
 10
12.8788156842
 20
5.9857811576
 10
12.9044326623
 20
5.9823471756
 10
12.9432581351
 20
5.9803979583
 10
12.981989049
 20
5.9821909897
 10
13.01045472
 20
5.9859373362
  0
LWPOLYLINE
  5
73D
100
AcDbEntity
  8
0
100
AcDbPolyline
 62
7
  6
CONTINUOUS
 90
5
 70
0
 10
12.8858593979
 20
5.8881490244
 10
12.9081785322
 20
5.8851338598
 10
12.9435117641
 20
5.8833401484
 10
12.9791162162
 20
5.8850596947
 10
13.0034165787
 20
5.8883061482
  0
LWPOLYLINE
  5
73E
100
AcDbEntity
  8
0
100
AcDbPolyline
 62
7
  6
CONTINUOUS
 90
5
 70
0
 10
12.8858593979
 20
5.9845863177
 10
12.90341708
 20
5.9820873565
 10
12.9386322157
 20
5.9798161652
 10
12.9742611506
 20
5.9810535952
 10
13.0034165787
 20
5.9847434416
  0
LWPOLYLINE
  5
73F
100
AcDbEntity
  8
0
100
AcDbPolyline
 62
7
  6
CONTINUOUS
 90
8
 70
0
 10
12.9050031749
 20
5.9838980263
 10
12.8680047955
 20
5.989390198
 10
12.8335677181
 20
5.9982290956
 10
12.8019608205
 20
6.0103517227
 10
12.7743277942
 20
6.0254239111
 10
12.7518052898
 20
6.0428029432
 10
12.7350250014
 20
6.0617757582
 10
12.7344543711
 20
6.0628326822
  0
LWPOLYLINE
  5
740
100
AcDbEntity
  8
0
100
AcDbPolyline
 62
7
  6
CONTINUOUS
 90
8
 70
0
 10
12.9047840326
 20
5.8874823108
 10
12.8676437335
 20
5.8930257223
 10
12.8332802202
 20
5.9018830148
 10
12.8017463852
 20
5.9140129024
 10
12.7741840487
 20
5.9290798464
 10
12.7517226551
 20
5.9464423797
 10
12.7349391911
 20
5.9654600596
 10
12.7239016548
 20
5.9860237737
  0
LWPOLYLINE
  5
741
100
AcDbEntity
  8
0
100
AcDbPolyline
 62
7
  6
CONTINUOUS
 90
9
 70
0
 10
12.9049425156
 20
5.9196124576
 10
12.8675590184
 20
5.9251886287
 10
12.8330496981
 20
5.934102143
 10
12.8018407808
 20
5.9461152878
 10
12.774592148
 20
5.9609614097
 10
12.7521153178
 20
5.9782246248
 10
12.7351537942
 20
5.9973024061
 10
12.7239582287
 20
6.0180200596
 10
12.7191218215
 20
6.0396070666
  0
LWPOLYLINE
  5
742
100
AcDbEntity
  8
0
100
AcDbPolyline
 62
7
  6
CONTINUOUS
 90
9
 70
0
 10
12.9044326623
 20
5.9518086994
 10
12.8671241128
 20
5.9574227362
 10
12.832662997
 20
5.9663714315
 10
12.8012642839
 20
5.978526732
 10
12.7740023855
 20
5.9934894596
 10
12.7518050223
 20
6.010657427
 10
12.7349604192
 20
6.0297214741
 10
12.7238583491
 20
6.0504303203
 10
12.720357506
 20
6.0663123148
  0
LWPOLYLINE
  5
743
100
AcDbEntity
  8
0
100
AcDbPolyline
 62
7
  6
CONTINUOUS
 90
6
 70
0
 10
12.8858593979
 20
5.9524405533
 10
12.8935094729
 20
5.9512343524
 10
12.9284136957
 20
5.9479663951
 10
12.9640302997
 20
5.9481910502
 10
12.9993185788
 20
5.9519273385
 10
13.0034165787
 20
5.9525976771
  0
LINE
  5
744
100
AcDbEntity
  8
02___PRT_ALL_AXES
100
AcDbLine
 62
7
  6
CONTINUOUS
 10
11.9684525819
 20
7.4668729314
 11
11.9682782864
 21
7.463370201
  0
LWPOLYLINE
  5
745
100
AcDbEntity
  8
0
100
AcDbPolyline
 62
7
  6
CONTINUOUS
 90
5
 70
0
 10
13.01045472
 20
6.0180831006
 10
13.0189159713
 20
6.0196159667
 10
13.0552148213
 20
6.0285969052
 10
13.0887414994
 20
6.0409713036
 10
13.1028462814
 20
6.0482753616
  0
LWPOLYLINE
  5
746
100
AcDbEntity
  8
0
100
AcDbPolyline
 62
7
  6
CONTINUOUS
 90
4
 70
0
 10
13.018742732
 20
6.0211898634
 10
12.9810972482
 20
6.0158606034
 10
12.9426591548
 20
6.0141524521
 10
12.9045008122
 20
6.0160934418
  0
LWPOLYLINE
  5
747
100
AcDbEntity
  8
0
100
AcDbPolyline
 62
7
  6
CONTINUOUS
 90
5
 70
0
 10
12.8858593979
 20
6.0167320822
 10
12.9134443513
 20
6.0132237404
 10
12.9488850564
 20
6.0119569413
 10
12.9844399759
 20
6.0142062694
 10
13.0034165787
 20
6.016889206
  0
LWPOLYLINE
  5
748
100
AcDbEntity
  8
0
100
AcDbPolyline
 62
7
  6
CONTINUOUS
 90
5
 70
0
 10
12.8788156842
 20
6.0179269221
 10
12.9050031749
 20
6.0144365025
 10
12.9432132527
 20
6.0125438
 10
12.9813467893
 20
6.0142764595
 10
13.01045472
 20
6.0180831006
  0
LWPOLYLINE
  5
749
100
AcDbEntity
  8
0
100
AcDbPolyline
 62
7
  6
CONTINUOUS
 90
5
 70
0
 10
12.9045008122
 20
6.0160934418
 10
12.8678474425
 20
6.0215676486
 10
12.8334298644
 20
6.0304185567
 10
12.8017900487
 20
6.0425758889
 10
12.7857191782
 20
6.0513611943
  0
LWPOLYLINE
  5
74A
100
AcDbEntity
  8
0
100
AcDbPolyline
 62
9
  6
CONTINUOUS
 90
21
 70
0
 10
12.5627875353
 20
6.1454017424
 10
12.6056620859
 20
6.1231139762
 10
12.6523369921
 20
6.103535727
 10
12.7023008751
 20
6.086881498
 10
12.7550063183
 20
6.0733337569
 10
12.8098758667
 20
6.0630409362
 10
12.8663083615
 20
6.056115805
 10
12.9236855172
 20
6.0526342365
 10
12.9813786973
 20
6.0526343757
 10
13.0387558024
 20
6.0561162209
 10
13.0951881978
 20
6.0630416245
 10
13.1500575978
 20
6.07333471
 10
13.2027628423
 20
6.0868827046
 10
13.252726481
 20
6.1035371733
 10
13.2994011025
 20
6.1231156465
 10
13.3422753292
 20
6.1454036182
 10
13.3808794228
 20
6.1701568969
 10
13.4147904282
 20
6.1971042801
 10
13.4436368098
 20
6.2259505272
 10
13.4671025201
 20
6.2563795921
 10
13.4788165161
 20
6.2771942059
  0
LWPOLYLINE
  5
74B
100
AcDbEntity
  8
0
100
AcDbPolyline
 62
7
  6
CONTINUOUS
 90
5
 70
0
 10
12.7813610888
 20
6.0521261394
 10
12.8019608205
 20
6.0408901989
 10
12.8335677181
 20
6.0287675718
 10
12.8680047955
 20
6.0199286743
 10
12.8788156842
 20
6.0179269221
  0
LWPOLYLINE
  5
74C
100
AcDbEntity
  8
0
100
AcDbPolyline
 62
7
  6
CONTINUOUS
 90
6
 70
0
 10
12.5709415637
 20
6.1273786657
 10
12.5322490526
 20
6.1521710183
 10
12.4979217409
 20
6.1793579073
 10
12.46842128
 20
6.2086000654
 10
12.4441262623
 20
6.2394696221
 10
12.4418804129
 20
6.2432828856
  0
LWPOLYLINE
  5
74D
100
AcDbEntity
  8
02___PRT_ALL_AXES
100
AcDbPolyline
 62
7
  6
CONTINUOUS
 90
9
 70
0
 10
11.9684585
 20
7.4524870696
 10
11.9727894751
 20
7.4090278849
 10
11.9828699561
 20
7.3658876258
 10
11.9986407867
 20
7.3233194568
 10
12.0200094173
 20
7.2815731847
 10
12.0468504484
 20
7.2408937931
 10
12.0790063661
 20
7.2015200051
 10
12.1162884667
 20
7.1636828816
 10
12.158477964
 20
7.1276044659
  0
LWPOLYLINE
  5
74E
100
AcDbEntity
  8
0
100
AcDbPolyline
 62
9
  6
CONTINUOUS
 90
7
 70
0
 10
11.9723432809
 20
7.8454907032
 10
11.977463994
 20
7.7841235161
 10
12.0001957117
 20
7.7080080237
 10
12.0406676239
 20
7.6343885131
 10
12.0981257629
 20
7.5646364396
 10
12.1714998175
 20
7.500051094
 10
12.2594229574
 20
7.4418355847
  0
LWPOLYLINE
  5
74F
100
AcDbEntity
  8
0
100
AcDbPolyline
 62
9
  6
CONTINUOUS
 90
10
 70
0
 10
11.9682778393
 20
7.1097707876
 10
11.9705075686
 20
7.0715428136
 10
11.9803962553
 20
7.0208745637
 10
11.9981119898
 20
6.970922054
 10
12.0235121353
 20
6.9220874725
 10
12.0563921849
 20
6.8747640068
 10
12.0964874077
 20
6.8293326775
 10
12.1434749805
 20
6.786159271
 10
12.1969765872
 20
6.7455913941
 10
12.256561464
 20
6.7079556755
  0
LWPOLYLINE
  5
750
100
AcDbEntity
  8
AXIS
100
AcDbPolyline
 62
7
  6
CONTINUOUS
 90
6
 70
0
 10
11.9682993072
 20
7.4668838499
 10
11.9696269368
 20
7.4336319261
 10
11.9803962553
 20
7.3744779727
 10
12.0018164724
 20
7.316297985
 10
12.0336529038
 20
7.2597293951
 10
12.0755567428
 20
7.2053919802
  0
LWPOLYLINE
  5
751
100
AcDbEntity
  8
0
100
AcDbPolyline
 62
7
  6
CONTINUOUS
 90
11
 70
0
 10
11.9682778393
 20
7.1097755933
 10
11.969288617
 20
7.0821489932
 10
11.9757623514
 20
7.0351713872
 10
11.9889093046
 20
6.986969321
 10
12.0091122062
 20
6.9386759683
 10
12.0362718497
 20
6.8913894735
 10
12.0700128773
 20
6.8458834775
 10
12.1100735153
 20
6.8024375161
 10
12.1561667648
 20
6.7613028517
 10
12.2079480889
 20
6.7227396735
 10
12.2635214699
 20
6.6878643172
  0
LINE
  5
752
100
AcDbEntity
  8
02___PRT_ALL_AXES
100
AcDbLine
 62
7
  6
CONTINUOUS
 10
11.9682782864
 20
7.463370201
 11
11.9684585
 21
7.4524870696
  0
LINE
  5
753
100
AcDbEntity
  8
0
100
AcDbLine
 62
7
  6
CONTINUOUS
 10
11.9682778393
 20
7.1097755933
 11
11.9682778393
 21
7.1097707876
  0
LINE
  5
754
100
AcDbEntity
  8
02___PRT_ALL_AXES
100
AcDbLine
 62
7
  6
CONTINUOUS
 10
11.9682778393
 20
7.4633741966
 11
11.9682778393
 21
7.1097707876
  0
LINE
  5
755
100
AcDbEntity
  8
AXIS
100
AcDbLine
 62
7
  6
CONTINUOUS
 10
11.9682965783
 20
7.4668806942
 11
11.9723432809
 21
7.8454907032
  0
LWPOLYLINE
  5
756
100
AcDbEntity
  8
0
100
AcDbPolyline
 62
7
  6
CONTINUOUS
 90
24
 70
0
 10
12.5614457501
 20
6.2556644714
 10
12.6088099107
 20
6.2344424313
 10
12.6598675845
 20
6.2161695371
 10
12.7140701208
 20
6.2010506961
 10
12.7708350749
 20
6.1892569234
 10
12.8295524673
 20
6.1809235036
 10
12.8895913382
 20
6.1761485375
 10
12.9503065274
 20
6.1749918877
 10
13.0110456073
 20
6.1774745356
 10
13.0711558936
 20
6.1835783557
 10
13.1299914588
 20
6.1932463104
 10
13.1869200731
 20
6.2063830629
 10
13.2413299984
 20
6.2228560019
 10
13.2926365615
 20
6.2424966662
 10
13.3402884372
 20
6.2651025554
 10
13.3837735723
 20
6.2904393055
 10
13.4226246885
 20
6.3182432075
 10
13.4564243029
 20
6.348224041
 10
13.4848092149
 20
6.3800681932
 10
13.5074744085
 20
6.4134420284
 10
13.5241763301
 20
6.4479954734
 10
13.5347355059
 20
6.4833657794
 10
13.5390384699
 20
6.5191814196
 10
13.539143981
 20
6.5257502116
  0
LWPOLYLINE
  5
757
100
AcDbEntity
  8
0
100
AcDbPolyline
 62
7
  6
CONTINUOUS
 90
24
 70
0
 10
12.543011822
 20
6.2170553134
 10
12.5886927936
 20
6.1946781164
 10
12.6382834511
 20
6.1751556715
 10
12.6912509078
 20
6.1587063134
 10
12.7470259909
 20
6.1455153542
 10
12.8050093578
 20
6.1357330926
 10
12.8645779362
 20
6.129473198
 10
12.9250916195
 20
6.1268114898
 10
12.9859001456
 20
6.1277851223
 10
13.0463500839
 20
6.1323921852
 10
13.1057918569
 20
6.1405917248
 10
13.163586721
 20
6.1523041834
 10
13.2191136293
 20
6.1674122548
 10
13.2717759061
 20
6.1857621444
 10
13.3210076579
 20
6.2071652218
 10
13.3662798548
 20
6.2314000481
 10
13.4071060151
 20
6.2582147554
 10
13.4430474327
 20
6.2873297529
 10
13.4737178918
 20
6.3184407317
 10
13.4987878166
 20
6.3512219346
 10
13.5179878131
 20
6.3853296567
 10
13.5311115637
 20
6.4204059387
 10
13.5380180444
 20
6.4560824135
 10
13.539143981
 20
6.4775315649
  0
LWPOLYLINE
  5
758
100
AcDbEntity
  8
0
100
AcDbPolyline
 62
7
  6
CONTINUOUS
 90
20
 70
0
 10
12.5356395465
 20
6.3175808374
 10
12.5806027103
 20
6.294740321
 10
12.6295624935
 20
6.2747141442
 10
12.6819927888
 20
6.2577260548
 10
12.7373301955
 20
6.243967154
 10
12.7949800742
 20
6.2335938433
 10
12.8543229361
 20
6.2267261434
 10
12.9147211002
 20
6.2234464051
 10
12.9755255456
 20
6.2237984236
 10
13.0360828856
 20
6.2277869685
 10
13.0957423887
 20
6.2353777325
 10
13.1538629714
 20
6.2464976996
 10
13.209820087
 20
6.2610359303
 10
13.2630124367
 20
6.2788447533
 10
13.3128684311
 20
6.2997413525
 10
13.3588523323
 20
6.3235097314
 10
13.4004700109
 20
6.3499030343
 10
13.4372742554
 20
6.3786461988
 10
13.4688695782
 20
6.4094389115
 10
13.4949164653
 20
6.4419588354
  0
LWPOLYLINE
  5
759
100
AcDbEntity
  8
0
100
AcDbPolyline
 62
9
  6
CONTINUOUS
 90
4
 70
0
 10
12.4662939235
 20
6.2210792485
 10
12.4902716879
 20
6.197102057
 10
12.5241830833
 20
6.170154836
 10
12.5627875353
 20
6.1454017424
  0
LWPOLYLINE
  5
75A
100
AcDbEntity
  8
0
100
AcDbPolyline
 62
7
  6
CONTINUOUS
 90
4
 70
0
 10
12.7553843905
 20
5.8455220659
 10
12.769109298
 20
5.8300625431
 10
12.7904097163
 20
5.8136697865
 10
12.7986523884
 20
5.8086315842
  0
LWPOLYLINE
  5
75B
100
AcDbEntity
  8
0
100
AcDbPolyline
 62
7
  6
CONTINUOUS
 90
19
 70
0
 10
12.5537657714
 20
6.3560031214
 10
12.6004472854
 20
6.3343003752
 10
12.6509121749
 20
6.3155085574
 10
12.704618159
 20
6.2998381516
 10
12.7609881291
 20
6.2874660997
 10
12.8194163498
 20
6.2785339005
 10
12.8792749687
 20
6.273146089
 10
12.9399207626
 20
6.2713691133
 10
13.0007020496
 20
6.2732306207
 10
13.0609656918
 20
6.2787191601
 10
13.1200641139
 20
6.2877843056
 10
13.1773622614
 20
6.3003371982
 10
13.2322444253
 20
6.3162515004
 10
13.2841208579
 20
6.335364754
 10
13.3324341104
 20
6.3574801259
 10
13.3766650226
 20
6.3823685232
 10
13.4163383023
 20
6.4097710547
 10
13.4510276318
 20
6.4394018131
 10
13.48036025
 20
6.4709509472
  0
LWPOLYLINE
  5
75C
100
AcDbEntity
  8
0
100
AcDbPolyline
 62
7
  6
CONTINUOUS
 90
20
 70
0
 10
12.5283979673
 20
6.4181810588
 10
12.572629227
 20
6.394884633
 10
12.620942787
 20
6.3743612522
 10
12.6728194838
 20
6.3568400068
 10
12.7277018658
 20
6.3425177273
 10
12.7850001828
 20
6.3315568691
 10
12.8440987241
 20
6.3240837665
 10
12.904362434
 20
6.3201872757
 10
12.9651437364
 20
6.3199178194
 10
13.0257894932
 20
6.3232868455
 10
13.0856480229
 20
6.3302667036
 10
13.1440761033
 20
6.3407909426
 10
13.2004458834
 20
6.3547550244
 10
13.2541516301
 20
6.3720174472
 10
13.3046162371
 20
6.3924012665
 10
13.3512974266
 20
6.415695996
 10
13.3936935762
 20
6.4416598697
 10
13.4313491094
 20
6.4700224396
 10
13.4638593907
 20
6.5004874823
 10
13.4908750743
 20
6.5327361815
  0
LWPOLYLINE
  5
75D
100
AcDbEntity
  8
0
100
AcDbPolyline
 62
7
  6
CONTINUOUS
 90
6
 70
0
 10
12.3859046599
 20
6.4642112551
 10
12.4046667498
 20
6.4316122249
 10
12.4293160155
 20
6.4003139876
 10
12.4595875831
 20
6.3706614172
 10
12.4951561633
 20
6.3429817036
 10
12.5356395465
 20
6.3175808374
  0
LWPOLYLINE
  5
75E
100
AcDbEntity
  8
0
100
AcDbPolyline
 62
7
  6
CONTINUOUS
 90
28
 70
0
 10
12.3859046599
 20
6.4702385859
 10
12.4046667498
 20
6.4376395558
 10
12.4293160155
 20
6.4063413185
 10
12.4595875831
 20
6.376688748
 10
12.4951561633
 20
6.3490090344
 10
12.5356395465
 20
6.3236081682
 10
12.5806027103
 20
6.3007676518
 10
12.6295624935
 20
6.280741475
 10
12.6819927888
 20
6.2637533856
 10
12.7373301955
 20
6.2499944848
 10
12.7949800742
 20
6.2396211741
 10
12.8543229361
 20
6.2327534743
 10
12.9147211002
 20
6.2294737359
 10
12.9755255456
 20
6.2298257544
 10
13.0360828856
 20
6.2338142994
 10
13.0957423887
 20
6.2414050633
 10
13.1538629714
 20
6.2525250305
 10
13.209820087
 20
6.2670632612
 10
13.2630124367
 20
6.2848720842
 10
13.3128684311
 20
6.3057686833
 10
13.3588523323
 20
6.3295370622
 10
13.4004700109
 20
6.3559303651
 10
13.4372742554
 20
6.3846735296
 10
13.4688695782
 20
6.4154662424
 10
13.4949164653
 20
6.4479861662
 10
13.5151350245
 20
6.4818924039
 10
13.529307993
 20
6.5168291612
 10
13.5372830722
 20
6.5524295702
  0
LWPOLYLINE
  5
75F
100
AcDbEntity
  8
0
100
AcDbPolyline
 62
7
  6
CONTINUOUS
 90
20
 70
0
 10
12.5462108063
 20
6.4564196435
 10
12.5921950389
 20
6.4342432445
 10
12.6420513232
 20
6.4149386439
 10
12.6952439183
 20
6.3987218355
 10
12.751201232
 20
6.3857756327
 10
12.8093219636
 20
6.3762477038
 10
12.8689815647
 20
6.3702489855
 10
12.9295389507
 20
6.3678524906
 10
12.9903433898
 20
6.3690925233
 10
13.0507414951
 20
6.3739643109
 10
13.1100842465
 20
6.3824240548
 10
13.167733964
 20
6.3943894016
 10
13.2230711609
 20
6.4097403273
 10
13.2755011997
 20
6.4283204276
 10
13.3244606826
 20
6.4499385986
 10
13.3694235054
 20
6.47437109
 10
13.4099065108
 20
6.5013639097
 10
13.4454746803
 20
6.5306355532
 10
13.4757458088
 20
6.561880028
 10
13.5003946116
 20
6.5947701427
  0
LWPOLYLINE
  5
760
100
AcDbEntity
  8
0
100
AcDbPolyline
 62
7
  6
CONTINUOUS
 90
17
 70
0
 10
12.5387832234
 20
6.5569127476
 10
12.5840557583
 20
6.5342698977
 10
12.6332878074
 20
6.5144588159
 10
12.6859503373
 20
6.4977009384
 10
12.7414774521
 20
6.4841848928
 10
12.7992724735
 20
6.4740644708
 10
12.8587143534
 20
6.4674569759
 10
12.9191643466
 20
6.4644419624
 10
12.9799728752
 20
6.4650603812
 10
13.0404865087
 20
6.4693141391
 10
13.1000549853
 20
6.4771660789
 10
13.1580381996
 20
6.4885403782
 10
13.213813081
 20
6.5033233643
 10
13.266780289
 20
6.521364736
 10
13.3163706534
 20
6.5424791782
 10
13.3620512909
 20
6.5664483536
 10
13.3858388245
 20
6.5817620795
  0
LWPOLYLINE
  5
761
100
AcDbEntity
  8
0
100
AcDbPolyline
 62
9
  6
CONTINUOUS
 90
26
 70
0
 10
12.256561464
 20
6.7079556755
 10
12.3217498688
 20
6.673555136
 10
12.3920169428
 20
6.6426667484
 10
12.4667969367
 20
6.6155392079
 10
12.5454877661
 20
6.5923909294
 10
12.6274558588
 20
6.5734082894
 10
12.7120412557
 20
6.5587441248
 10
12.798562925
 20
6.5485165029
 10
12.8863242451
 20
6.5428077705
 10
12.9746186135
 20
6.541663891
 10
13.0627351358
 20
6.5450940741
 10
13.1499643496
 20
6.5530707021
 10
13.2356039366
 20
6.5655295519
 10
13.3189643772
 20
6.582370312
 10
13.399374502
 20
6.6034573907
 10
13.4761868961
 20
6.6286210072
 10
13.5487831112
 20
6.6576585588
 10
13.6165786454
 20
6.6903362522
 10
13.6790276487
 20
6.7263909859
 10
13.7356273186
 20
6.7655324683
 10
13.7859219478
 20
6.8074455552
 10
13.8295065935
 20
6.8517927872
 10
13.8660303378
 20
6.8982171063
 10
13.8951991129
 20
6.9463447313
 10
13.9167780691
 20
6.9957881668
 10
13.9305934653
 20
7.0461493233
  0
LWPOLYLINE
  5
762
100
AcDbEntity
  8
0
100
AcDbPolyline
 62
7
  6
CONTINUOUS
 90
16
 70
0
 10
12.2635212216
 20
6.6878644605
 10
12.3271562079
 20
6.6542177704
 10
12.3970100338
 20
6.6233900145
 10
12.4711691486
 20
6.5963771613
 10
12.5490548868
 20
6.5733626593
 10
12.6300609405
 20
6.5545048186
 10
12.7135572756
 20
6.5399344873
 10
12.7988961705
 20
6.5297529867
 10
12.8854190094
 20
6.5240309572
 10
12.9724588043
 20
6.5228081701
 10
13.0593449865
 20
6.5260931192
 10
13.1454082838
 20
6.5338629686
 10
13.229985447
 20
6.5460638439
 10
13.3124221839
 20
6.5626110585
 10
13.3920768599
 20
6.5833892957
 10
13.468328955
 20
6.6082544358
  0
LWPOLYLINE
  5
763
100
AcDbEntity
  8
0
100
AcDbPolyline
 62
7
  6
CONTINUOUS
 90
20
 70
0
 10
12.5212893546
 20
6.5188546299
 10
12.5647748437
 20
6.4951098478
 10
12.6124270339
 20
6.4740959465
 10
12.6637338688
 20
6.4560472877
 10
12.7181440202
 20
6.4411663691
 10
12.7750728125
 20
6.4296216491
 10
12.8339085056
 20
6.4215457362
 10
12.8940188685
 20
6.4170339639
 10
12.9547579727
 20
6.4161433669
 10
13.0154731337
 20
6.4188920674
 10
13.0755119242
 20
6.425259081
 10
13.134229185
 20
6.435184542
 10
13.1909939576
 20
6.4485703465
 10
13.2451962643
 20
6.4652812069
 10
13.2962536631
 20
6.4851461054
 10
13.3436175062
 20
6.5079601321
 10
13.3867788355
 20
6.5334866863
 10
13.4252738522
 20
6.5614600195
 10
13.4586889
 20
6.5915880906
 10
13.4759206341
 20
6.6112784401
  0
LWPOLYLINE
  5
764
100
AcDbEntity
  8
0
100
AcDbPolyline
 62
7
  6
CONTINUOUS
 90
3
 70
0
 10
12.484504609
 20
6.5924366583
 10
12.4979566878
 20
6.5821354997
 10
12.5387832234
 20
6.5569127476
  0
LWPOLYLINE
  5
765
100
AcDbEntity
  8
0
100
AcDbPolyline
 62
7
  6
CONTINUOUS
 90
19
 70
0
 10
12.4973211782
 20
6.5886494828
 10
12.4979566878
 20
6.5881628305
 10
12.5387832234
 20
6.5629400784
 10
12.5840557583
 20
6.5402972285
 10
12.6332878074
 20
6.5204861467
 10
12.6859503373
 20
6.5037282692
 10
12.7414774521
 20
6.4902122236
 10
12.7992724735
 20
6.4800918016
 10
12.8587143534
 20
6.4734843067
 10
12.9191643466
 20
6.4704692932
 10
12.9799728752
 20
6.471087712
 10
13.0404865087
 20
6.47534147
 10
13.1000549853
 20
6.4831934098
 10
13.1580381996
 20
6.494567709
 10
13.213813081
 20
6.5093506952
 10
13.266780289
 20
6.5273920668
 10
13.3163706534
 20
6.548506509
 10
13.3620512909
 20
6.5724756844
 10
13.3700982617
 20
6.5776560914
  0
LWPOLYLINE
  5
766
100
AcDbEntity
  8
0
100
AcDbPolyline
 62
7
  6
CONTINUOUS
 90
5
 70
0
 10
12.409446482
 20
6.6188599719
 10
12.4202524538
 20
6.6037077553
 10
12.4486378135
 20
6.5734554984
 10
12.4824378489
 20
6.5450665862
 10
12.5212893546
 20
6.5188546299
  0
LWPOLYLINE
  5
767
100
AcDbEntity
  8
0
100
AcDbPolyline
 62
7
  6
CONTINUOUS
 90
24
 70
0
 10
12.4152534257
 20
6.6167447617
 10
12.4202524538
 20
6.6097350861
 10
12.4486378135
 20
6.5794828293
 10
12.4824378489
 20
6.5510939171
 10
12.5212893546
 20
6.5248819608
 10
12.5647748437
 20
6.5011371786
 10
12.6124270339
 20
6.4801232773
 10
12.6637338688
 20
6.4620746185
 10
12.7181440202
 20
6.4471936999
 10
12.7750728125
 20
6.43564898
 10
12.8339085056
 20
6.427573067
 10
12.8940188685
 20
6.4230612948
 10
12.9547579727
 20
6.4221706977
 10
13.0154731337
 20
6.4249193982
 10
13.0755119242
 20
6.4312864118
 10
13.134229185
 20
6.4412118728
 10
13.1909939576
 20
6.4545976773
 10
13.2451962643
 20
6.4713085377
 10
13.2962536631
 20
6.4911734363
 10
13.3436175062
 20
6.5139874629
 10
13.3867788355
 20
6.5395140171
 10
13.4252738522
 20
6.5674873503
 10
13.4586889
 20
6.5976154215
 10
13.4678679161
 20
6.608104095
  0
LWPOLYLINE
  5
768
100
AcDbEntity
  8
0
100
AcDbPolyline
 62
7
  6
CONTINUOUS
 90
8
 70
0
 10
12.7334479967
 20
6.063081093
 10
12.7349604192
 20
6.0602599503
 10
12.7518050223
 20
6.0411959032
 10
12.7740023855
 20
6.0240279358
 10
12.8012642839
 20
6.0090652082
 10
12.832662997
 20
5.9969099077
 10
12.8671241128
 20
5.9879612124
 10
12.8788156842
 20
5.9857811576
  0
LINE
  5
769
100
AcDbEntity
  8
0
100
AcDbLine
 62
7
  6
CONTINUOUS
 10
12.7303000673
 20
5.9405224259
 11
12.7218149422
 21
5.960180257
  0
LWPOLYLINE
  5
76A
100
AcDbEntity
  8
0
100
AcDbPolyline
 62
7
  6
CONTINUOUS
 90
7
 70
0
 10
12.376479253
 20
6.6324506192
 10
12.3899259742
 20
6.6008154395
 10
12.4101450109
 20
6.5685010579
 10
12.4361923555
 20
6.5375730182
 10
12.467788111
 20
6.5083722162
 10
12.5045927586
 20
6.4812209875
 10
12.5462108063
 20
6.4564196435
  0
LWPOLYLINE
  5
76B
100
AcDbEntity
  8
0
100
AcDbPolyline
 62
7
  6
CONTINUOUS
 90
27
 70
0
 10
12.3796327551
 20
6.6310589217
 10
12.3899259742
 20
6.6068427704
 10
12.4101450109
 20
6.5745283888
 10
12.4361923555
 20
6.543600349
 10
12.467788111
 20
6.514399547
 10
12.5045927586
 20
6.4872483183
 10
12.5462108063
 20
6.4624469743
 10
12.5921950389
 20
6.4402705754
 10
12.6420513232
 20
6.4209659748
 10
12.6952439183
 20
6.4047491664
 10
12.751201232
 20
6.3918029635
 10
12.8093219636
 20
6.3822750347
 10
12.8689815647
 20
6.3762763164
 10
12.9295389507
 20
6.3738798214
 10
12.9903433898
 20
6.3751198541
 10
13.0507414951
 20
6.3799916417
 10
13.1100842465
 20
6.3884513857
 10
13.167733964
 20
6.4004167324
 10
13.2230711609
 20
6.4157676581
 10
13.2755011997
 20
6.4343477584
 10
13.3244606826
 20
6.4559659294
 10
13.3694235054
 20
6.4803984209
 10
13.4099065108
 20
6.5073912406
 10
13.4454746803
 20
6.536662884
 10
13.4757458088
 20
6.5679073589
 10
13.5003946116
 20
6.6007974735
 10
13.5146003386
 20
6.6266857818
  0
LINE
  5
76C
100
AcDbEntity
  8
0
100
AcDbLine
 62
7
  6
CONTINUOUS
 10
12.3732313576
 20
6.4977522262
 11
12.3859046599
 21
6.4642112551
  0
LWPOLYLINE
  5
76D
100
AcDbEntity
  8
0
100
AcDbPolyline
 62
7
  6
CONTINUOUS
 90
9
 70
0
 10
12.3659156345
 20
6.5980781816
 10
12.3686953121
 20
6.5658944394
 10
12.3777369904
 20
6.5319728098
 10
12.3929552238
 20
6.4987781125
 10
12.4141864815
 20
6.4666756004
 10
12.4412026188
 20
6.43601879
 10
12.4737133281
 20
6.4071456625
 10
12.5113692588
 20
6.3803750324
 10
12.5537657714
 20
6.3560031214
  0
LWPOLYLINE
  5
76E
100
AcDbEntity
  8
0
100
AcDbPolyline
 62
7
  6
CONTINUOUS
 90
31
 70
0
 10
12.3659156345
 20
6.6041055125
 10
12.3686953121
 20
6.5719217702
 10
12.3777369904
 20
6.5380001406
 10
12.3929552238
 20
6.5048054434
 10
12.4141864815
 20
6.4727029313
 10
12.4412026188
 20
6.4420461208
 10
12.4737133281
 20
6.4131729933
 10
12.5113692588
 20
6.3864023633
 10
12.5537657714
 20
6.3620304523
 10
12.6004472854
 20
6.340327706
 10
12.6509121749
 20
6.3215358882
 10
12.704618159
 20
6.3058654824
 10
12.7609881291
 20
6.2934934306
 10
12.8194163498
 20
6.2845612313
 10
12.8792749687
 20
6.2791734198
 10
12.9399207626
 20
6.2773964442
 10
13.0007020496
 20
6.2792579515
 10
13.0609656918
 20
6.2847464909
 10
13.1200641139
 20
6.2938116365
 10
13.1773622614
 20
6.306364529
 10
13.2322444253
 20
6.3222788312
 10
13.2841208579
 20
6.3413920848
 10
13.3324341104
 20
6.3635074568
 10
13.3766650226
 20
6.3883958541
 10
13.4163383023
 20
6.4157983855
 10
13.4510276318
 20
6.4454291439
 10
13.48036025
 20
6.4769782781
 10
13.504020957
 20
6.5101153225
 10
13.5217555019
 20
6.5444927486
 10
13.5333733144
 20
6.5797496988
 10
13.5387495529
 20
6.6155158647
  0
LWPOLYLINE
  5
76F
100
AcDbEntity
  8
0
100
AcDbPolyline
 62
7
  6
CONTINUOUS
 90
9
 70
0
 10
12.3659156345
 20
6.4534222416
 10
12.3674394447
 20
6.4295801228
 10
12.3749573423
 20
6.3955375716
 10
12.3886816642
 20
6.3621315296
 10
12.4084649328
 20
6.3297295206
 10
12.434094563
 20
6.2986882794
 10
12.4652951464
 20
6.2693499184
 10
12.5017314105
 20
6.2420382512
 10
12.543011822
 20
6.2170553134
  0
LWPOLYLINE
  5
770
100
AcDbEntity
  8
0
100
AcDbPolyline
 62
7
  6
CONTINUOUS
 90
28
 70
0
 10
12.3659156345
 20
6.4594495724
 10
12.3674394447
 20
6.4356074536
 10
12.3749573423
 20
6.4015649024
 10
12.3886816642
 20
6.3681588604
 10
12.4084649328
 20
6.3357568514
 10
12.434094563
 20
6.3047156103
 10
12.4652951464
 20
6.2753772492
 10
12.5017314105
 20
6.2480655821
 10
12.543011822
 20
6.2230826442
 10
12.5886927936
 20
6.2007054473
 10
12.6382834511
 20
6.1811830024
 10
12.6912509078
 20
6.1647336442
 10
12.7470259909
 20
6.1515426851
 10
12.8050093578
 20
6.1417604234
 10
12.8645779362
 20
6.1355005289
 10
12.9250916195
 20
6.1328388207
 10
12.9859001456
 20
6.1338124531
 10
13.0463500839
 20
6.138419516
 10
13.1057918569
 20
6.1466190556
 10
13.163586721
 20
6.1583315143
 10
13.2191136293
 20
6.1734395857
 10
13.2717759061
 20
6.1917894752
 10
13.3210076579
 20
6.2131925526
 10
13.3662798548
 20
6.237427379
 10
13.4071060151
 20
6.2642420862
 10
13.4430474327
 20
6.2933570837
 10
13.4737178918
 20
6.3244680625
 10
13.4987878166
 20
6.3572492654
  0
LWPOLYLINE
  5
771
100
AcDbEntity
  8
0
100
AcDbPolyline
 62
7
  6
CONTINUOUS
 90
3
 70
0
 10
12.3659156345
 20
6.5498595349
 10
12.3667830266
 20
6.5318661645
 10
12.3732313576
 20
6.4977522262
  0
LWPOLYLINE
  5
772
100
AcDbEntity
  8
0
100
AcDbPolyline
 62
7
  6
CONTINUOUS
 90
4
 70
0
 10
12.3659156345
 20
6.5558868658
 10
12.3667830266
 20
6.5378934954
 10
12.3732313576
 20
6.503779557
 10
12.3859046599
 20
6.4702385859
  0
LWPOLYLINE
  5
773
100
AcDbEntity
  8
0
100
AcDbPolyline
 62
7
  6
CONTINUOUS
 90
9
 70
0
 10
12.3662185412
 20
6.6369788567
 10
12.3663102417
 20
6.6341579781
 10
12.3716869846
 20
6.599983597
 10
12.3833052941
 20
6.5663184614
 10
12.4010403233
 20
6.5335328795
 10
12.4247014968
 20
6.5019877077
 10
12.4540345585
 20
6.4720304734
 10
12.4887243039
 20
6.4439916407
 10
12.5283979673
 20
6.4181810588
  0
LWPOLYLINE
  5
774
100
AcDbEntity
  8
0
100
AcDbPolyline
 62
7
  6
CONTINUOUS
 90
32
 70
0
 10
12.3659156345
 20
6.4052035949
 10
12.3661638726
 20
6.3955751263
 10
12.3710808279
 20
6.3613781962
 10
12.3822458633
 20
6.3276631525
 10
12.3995390028
 20
6.2948008393
 10
12.4227744192
 20
6.2631529378
 10
12.4517024317
 20
6.2330680792
 10
12.4860121883
 20
6.2048780991
 10
12.5253350065
 20
6.1788944708
 10
12.5692483346
 20
6.1554049592
 10
12.6172802931
 20
6.1346705279
 10
12.6689147445
 20
6.1169225353
 10
12.7235968403
 20
6.1023602485
 10
12.7807389825
 20
6.0911487018
 10
12.8397271386
 20
6.0834169234
 10
12.8999274391
 20
6.0792565492
 10
12.9606929892
 20
6.0787208375
 10
13.0213708202
 20
6.0818240972
 10
13.0813089058
 20
6.0885415339
 10
13.139863169
 20
6.0988095162
 10
13.1964044028
 20
6.1125262598
 10
13.2503250318
 20
6.1295529208
 10
13.3010456407
 20
6.149715088
 10
13.3480212006
 20
6.172804657
 10
13.3907469259
 20
6.1985820662
 10
13.4287636987
 20
6.2267788716
 10
13.4616630017
 20
6.2571006307
 10
13.4890913088
 20
6.2892300672
 10
13.5107538833
 20
6.3228304799
 10
13.5264179456
 20
6.3575493607
 10
13.5359151743
 20
6.3930221832
 10
13.539143981
 20
6.4293129182
  0
LWPOLYLINE
  5
775
100
AcDbEntity
  8
0
100
AcDbPolyline
 62
7
  6
CONTINUOUS
 90
31
 70
0
 10
12.3659156345
 20
6.4112309257
 10
12.3661638726
 20
6.4016024572
 10
12.3710808279
 20
6.3674055271
 10
12.3822458633
 20
6.3336904833
 10
12.3995390028
 20
6.3008281701
 10
12.4227744192
 20
6.2691802686
 10
12.4517024317
 20
6.2390954101
 10
12.4860121883
 20
6.2109054299
 10
12.5253350065
 20
6.1849218016
 10
12.5692483346
 20
6.16143229
 10
12.6172802931
 20
6.1406978587
 10
12.6689147445
 20
6.1229498662
 10
12.7235968403
 20
6.1083875793
 10
12.7807389825
 20
6.0971760326
 10
12.8397271386
 20
6.0894442543
 10
12.8999274391
 20
6.08528388
 10
12.9606929892
 20
6.0847481683
 10
13.0213708202
 20
6.087851428
 10
13.0813089058
 20
6.0945688647
 10
13.139863169
 20
6.1048368471
 10
13.1964044028
 20
6.1185535907
 10
13.2503250318
 20
6.1355802517
 10
13.3010456407
 20
6.1557424189
 10
13.3480212006
 20
6.1788319878
 10
13.3907469259
 20
6.2046093971
 10
13.4287636987
 20
6.2328062024
 10
13.4616630017
 20
6.2631279616
 10
13.4890913088
 20
6.2952573981
 10
13.5107538833
 20
6.3288578107
 10
13.5264179456
 20
6.3635766916
 10
13.5359151743
 20
6.3990495141
  0
LWPOLYLINE
  5
776
100
AcDbEntity
  8
0
100
AcDbPolyline
 62
7
  6
CONTINUOUS
 90
10
 70
0
 10
12.3659156345
 20
6.5016408883
 10
12.3659536637
 20
6.4978719273
 10
12.3697967258
 20
6.4636302211
 10
12.3799016666
 20
6.4298064578
 10
12.3961599015
 20
6.3967726497
 10
12.4183967243
 20
6.3648923209
 10
12.4463731845
 20
6.3345166002
 10
12.4797886554
 20
6.3059804485
 10
12.518284064
 20
6.2795990593
 10
12.5614457501
 20
6.2556644714
  0
LINE
  5
777
100
AcDbEntity
  8
0
100
AcDbLine
 62
7
  6
CONTINUOUS
 10
12.3659156345
 20
6.5076682191
 11
12.3659536637
 21
6.5038992581
  0
LWPOLYLINE
  5
778
100
AcDbEntity
  8
0
100
AcDbPolyline
 62
7
  6
CONTINUOUS
 90
11
 70
0
 10
13.1739664047
 20
6.5379826867
 10
13.1499138088
 20
6.5314334833
 10
13.0947938558
 20
6.5203041533
 10
13.0384070591
 20
6.5126049635
 10
12.9811346355
 20
6.508345458
 10
12.9234342579
 20
6.5075565632
 10
12.866147822
 20
6.5102427863
 10
12.8097148557
 20
6.5163744447
 10
12.7549287792
 20
6.525857051
 10
12.7022757913
 20
6.5385921037
 10
12.6790755945
 20
6.5459516318
  0
LWPOLYLINE
  5
779
100
AcDbEntity
  8
0
100
AcDbPolyline
 62
7
  6
CONTINUOUS
 90
7
 70
0
 10
12.7666536522
 20
6.5335997346
 10
12.8237554752
 20
6.5251390194
 10
12.8836936462
 20
6.5200136297
 10
12.9443715104
 20
6.5185024206
 10
13.0051370413
 20
6.5206301833
 10
13.0653372703
 20
6.5263826058
 10
13.0690476887
 20
6.5269690854
  0
LWPOLYLINE
  5
77A
100
AcDbEntity
  8
0
100
AcDbPolyline
 62
7
  6
CONTINUOUS
 90
10
 70
0
 10
12.7008131939
 20
6.5421583633
 10
12.7086596552
 20
6.5399123435
 10
12.7652010754
 20
6.5277876305
 10
12.8237554752
 20
6.5191116885
 10
12.8836936462
 20
6.5139862989
 10
12.9443715104
 20
6.5124750897
 10
13.0051370413
 20
6.5146028525
 10
13.0653372703
 20
6.520355275
 10
13.1243253034
 20
6.5296790958
 10
13.1413711561
 20
6.5334984941
  0
LWPOLYLINE
  5
77B
100
AcDbEntity
  8
AXIS
100
AcDbPolyline
 62
7
  6
CONTINUOUS
 90
4
 70
0
 10
12.0755567428
 20
7.2053919802
 10
12.1270688822
 20
7.1538810725
 10
12.1876249442
 20
7.1057610362
 10
12.256561464
 20
7.0615590845
  0
LWPOLYLINE
  5
77C
100
AcDbEntity
  8
0
100
AcDbPolyline
 62
7
  6
CONTINUOUS
 90
8
 70
0
 10
12.7218149422
 20
5.9907187333
 10
12.7303000673
 20
5.9710609022
 10
12.7441911907
 20
5.9524056295
 10
12.7632650177
 20
5.9351441453
 10
12.7873258845
 20
5.9196416898
 10
12.8155569353
 20
5.9065414616
 10
12.8468410692
 20
5.8963036753
 10
12.8788156842
 20
5.8893438643
  0
LWPOLYLINE
  5
77D
100
AcDbEntity
  8
0
100
AcDbPolyline
 62
7
  6
CONTINUOUS
 90
30
 70
0
 10
12.3668592047
 20
6.6366961203
 10
12.3716869846
 20
6.6060109278
 10
12.3833052941
 20
6.5723457923
 10
12.4010403233
 20
6.5395602103
 10
12.4247014968
 20
6.5080150385
 10
12.4540345585
 20
6.4780578042
 10
12.4887243039
 20
6.4500189715
 10
12.5283979673
 20
6.4242083896
 10
12.572629227
 20
6.4009119638
 10
12.620942787
 20
6.380388583
 10
12.6728194838
 20
6.3628673376
 10
12.7277018658
 20
6.3485450582
 10
12.7850001828
 20
6.3375841999
 10
12.8440987241
 20
6.3301110974
 10
12.904362434
 20
6.3262146065
 10
12.9651437364
 20
6.3259451503
 10
13.0257894932
 20
6.3293141763
 10
13.0856480229
 20
6.3362940345
 10
13.1440761033
 20
6.3468182735
 10
13.2004458834
 20
6.3607823552
 10
13.2541516301
 20
6.378044778
 10
13.3046162371
 20
6.3984285973
 10
13.3512974266
 20
6.4217233268
 10
13.3936935762
 20
6.4476872005
 10
13.4313491094
 20
6.4760497705
 10
13.4638593907
 20
6.5065148131
 10
13.4908750743
 20
6.5387635123
 10
13.5121058576
 20
6.5724578854
 10
13.5273236008
 20
6.6072444146
 10
13.5342675057
 20
6.6345198324
  0
LWPOLYLINE
  5
77E
100
AcDbEntity
  8
0
100
AcDbPolyline
 62
7
  6
CONTINUOUS
 90
31
 70
0
 10
12.3659536637
 20
6.5038992581
 10
12.3697967258
 20
6.469657552
 10
12.3799016666
 20
6.4358337886
 10
12.3961599015
 20
6.4027999805
 10
12.4183967243
 20
6.3709196517
 10
12.4463731845
 20
6.340543931
 10
12.4797886554
 20
6.3120077793
 10
12.518284064
 20
6.2856263901
 10
12.5614457501
 20
6.2616918023
 10
12.6088099107
 20
6.2404697622
 10
12.6598675845
 20
6.2221968679
 10
12.7140701208
 20
6.207078027
 10
12.7708350749
 20
6.1952842542
 10
12.8295524673
 20
6.1869508344
 10
12.8895913382
 20
6.1821758683
 10
12.9503065274
 20
6.1810192185
 10
13.0110456073
 20
6.1835018665
 10
13.0711558936
 20
6.1896056865
 10
13.1299914588
 20
6.1992736412
 10
13.1869200731
 20
6.2124103937
 10
13.2413299984
 20
6.2288833327
 10
13.2926365615
 20
6.2485239971
 10
13.3402884372
 20
6.2711298863
 10
13.3837735723
 20
6.2964666364
 10
13.4226246885
 20
6.3242705383
 10
13.4564243029
 20
6.3542513719
 10
13.4848092149
 20
6.3860955241
 10
13.5074744085
 20
6.4194693592
 10
13.5241763301
 20
6.4540228042
 10
13.5347355059
 20
6.4893931102
 10
13.5390384699
 20
6.5252087504
  0
LINE
  5
77F
100
AcDbEntity
  8
0
100
AcDbLine
 62
7
  6
CONTINUOUS
 10
12.3672871028
 20
6.4319637224
 11
12.3659156345
 21
6.4112309257
  0
LINE
  5
780
100
AcDbEntity
  8
0
100
AcDbLine
 62
7
  6
CONTINUOUS
 10
12.3675601125
 20
6.5277551069
 11
12.3659156345
 21
6.5076682191
  0
LINE
  5
781
100
AcDbEntity
  8
0
100
AcDbLine
 62
7
  6
CONTINUOUS
 10
12.3678768973
 20
6.6242003723
 11
12.3659156345
 21
6.6041055125
  0
LWPOLYLINE
  5
782
100
AcDbEntity
  8
0
100
AcDbPolyline
 62
7
  6
CONTINUOUS
 90
3
 70
0
 10
12.3678496865
 20
6.4809783531
 10
12.3662087566
 20
6.4699121504
 10
12.3659156345
 20
6.4594495724
  0
LWPOLYLINE
  5
783
100
AcDbEntity
  8
0
100
AcDbPolyline
 62
7
  6
CONTINUOUS
 90
3
 70
0
 10
12.3676568721
 20
6.5779177346
 10
12.3666289588
 20
6.5722052702
 10
12.3659156345
 20
6.5558868658
  0
LWPOLYLINE
  5
784
100
AcDbEntity
  8
02___PRT_ALL_AXES
100
AcDbPolyline
 62
7
  6
CONTINUOUS
 90
3
 70
0
 10
12.158477964
 20
7.1276044659
 10
12.2053272732
 20
7.0934964804
 10
12.256561464
 20
7.0615590845
  0
LWPOLYLINE
  5
785
100
AcDbEntity
  8
0
100
AcDbPolyline
 62
7
  6
CONTINUOUS
 90
6
 70
0
 10
12.7506364435
 20
5.8497001156
 10
12.7537099982
 20
5.8373586154
 10
12.7618998862
 20
5.8212555262
 10
12.7739758253
 20
5.80598926
 10
12.7896919841
 20
5.7918705939
 10
12.8087284271
 20
5.7791869432
  0
LWPOLYLINE
  5
786
100
AcDbEntity
  8
0
100
AcDbPolyline
 62
7
  6
CONTINUOUS
 90
9
 70
0
 10
12.7191435282
 20
5.9734146337
 10
12.7239985403
 20
5.9520152624
 10
12.7350710864
 20
5.9315202585
 10
12.7518602212
 20
5.9125616586
 10
12.7743727354
 20
5.8952044554
 10
12.8019839269
 20
5.8801507805
 10
12.8335599658
 20
5.8680412049
 10
12.8679731801
 20
5.8592062124
 10
12.8788156842
 20
5.8571980998
  0
LWPOLYLINE
  5
787
100
AcDbEntity
  8
0
100
AcDbPolyline
 62
7
  6
CONTINUOUS
 90
9
 70
0
 10
12.7199585653
 20
6.0664107883
 10
12.7239582287
 20
6.0485585358
 10
12.7351537942
 20
6.0278408823
 10
12.7521153178
 20
6.0087631011
 10
12.774592148
 20
5.991499886
 10
12.8018407808
 20
5.976653764
 10
12.8330496981
 20
5.9646406193
 10
12.8675590184
 20
5.9557271049
 10
12.8788156842
 20
5.9536353932
  0
LINE
  5
788
100
AcDbEntity
  8
0
100
AcDbLine
 62
7
  6
CONTINUOUS
 10
12.7239016548
 20
5.9860237737
 11
12.719127975
 21
6.0073764012
  0
LINE
  5
789
100
AcDbEntity
  8
0
100
AcDbLine
 62
7
  6
CONTINUOUS
 10
12.7218149422
 20
5.960180257
 11
12.7189356066
 21
5.980498279
  0
LINE
  5
78A
100
AcDbEntity
  8
0
100
AcDbLine
 62
7
  6
CONTINUOUS
 10
12.7189356066
 20
6.0110367552
 11
12.7218149422
 21
5.9907187333
  0
LWPOLYLINE
  5
78B
100
AcDbEntity
  8
0
100
AcDbPolyline
 62
7
  6
CONTINUOUS
 90
9
 70
0
 10
12.7189356066
 20
5.9162068727
 10
12.7192555162
 20
5.9094146879
 10
12.7244141268
 20
5.888262959
 10
12.7357438289
 20
5.8678965389
 10
12.7529375729
 20
5.8488891021
 10
12.7755309796
 20
5.8317761174
 10
12.8029144291
 20
5.8170422146
 10
12.8343476639
 20
5.8051086413
 10
12.8689807219
 20
5.7963207504
  0
LINE
  5
78C
100
AcDbEntity
  8
0
100
AcDbLine
 62
7
  6
CONTINUOUS
 10
12.7191435282
 20
5.9428761575
 11
12.7189356079
 21
5.9483662045
  0
LINE
  5
78D
100
AcDbEntity
  8
0
100
AcDbLine
 62
7
  6
CONTINUOUS
 10
12.7189356079
 20
5.9789046808
 11
12.7191435282
 21
5.9734146337
  0
LINE
  5
78E
100
AcDbEntity
  8
0
100
AcDbLine
 62
7
  6
CONTINUOUS
 10
12.719127975
 20
6.0073764012
 11
12.7189356087
 21
6.0126616242
  0
LWPOLYLINE
  5
78F
100
AcDbEntity
  8
0
100
AcDbPolyline
 62
7
  6
CONTINUOUS
 90
10
 70
0
 10
12.7189356087
 20
6.0432001005
 10
12.719127975
 20
6.0379148775
 10
12.7239016548
 20
6.0165622499
 10
12.7349391911
 20
5.9959985359
 10
12.7517226551
 20
5.9769808559
 10
12.7741840487
 20
5.9596183227
 10
12.8017463852
 20
5.9445513786
 10
12.8332802202
 20
5.932421491
 10
12.8676437335
 20
5.9235641986
 10
12.8788156842
 20
5.9214896287
  0
LWPOLYLINE
  5
790
100
AcDbEntity
  8
0
100
AcDbPolyline
 62
7
  6
CONTINUOUS
 90
10
 70
0
 10
12.7189356095
 20
5.9146200985
 10
12.7191246315
 20
5.9093777789
 10
12.7239697306
 20
5.8877994299
 10
12.7351687104
 20
5.8670910545
 10
12.7521305731
 20
5.8480202109
 10
12.774625575
 20
5.8307494886
 10
12.8019262464
 20
5.815885708
 10
12.833115368
 20
5.8038908769
 10
12.867614443
 20
5.7949870652
 10
12.8788156842
 20
5.7929065709
  0
LINE
  5
791
100
AcDbEntity
  8
0
100
AcDbLine
 62
7
  6
CONTINUOUS
 10
12.7191218215
 20
6.0396070666
 11
12.7189356094
 21
6.0448101956
  0
LWPOLYLINE
  5
792
100
AcDbEntity
  8
0
100
AcDbPolyline
 62
7
  6
CONTINUOUS
 90
10
 70
0
 10
12.718935609
 20
5.9467638225
 10
12.7191056261
 20
5.9417928992
 10
12.7238670948
 20
5.9202167041
 10
12.7349833568
 20
5.8994986135
 10
12.7518488812
 20
5.8804264055
 10
12.7740600881
 20
5.8632615739
 10
12.8012910911
 20
5.8483239917
 10
12.8326794529
 20
5.8361758173
 10
12.86715783
 20
5.8272255207
 10
12.8788156842
 20
5.8250523354
  0
LWPOLYLINE
  5
793
100
AcDbEntity
  8
AXIS
100
AcDbPolyline
 62
7
  6
CONTINUOUS
 90
7
 70
0
 10
12.798562925
 20
6.9021199119
 10
12.6977906113
 20
6.9144862188
 10
12.5998092736
 20
6.9328662572
 10
12.5056924159
 20
6.9570586516
 10
12.4164712022
 20
6.9867983451
 10
12.3331231587
 20
7.0217595033
 10
12.256561464
 20
7.0615590845
  0
LWPOLYLINE
  5
794
100
AcDbEntity
  8
02___PRT_ALL_AXES
100
AcDbPolyline
 62
7
  6
CONTINUOUS
 90
9
 70
0
 10
12.7836837744
 20
6.9035480118
 10
12.7099523575
 20
6.9126528204
 10
12.6376444815
 20
6.9249894811
 10
12.5671844778
 20
6.9404855974
 10
12.4989858337
 20
6.9590502318
 10
12.433448766
 20
6.9805744399
 10
12.3709578722
 20
7.0049319088
 10
12.3118798739
 20
7.0319796995
 10
12.256561464
 20
7.0615590845
  0
LWPOLYLINE
  5
795
100
AcDbEntity
  8
0
100
AcDbPolyline
 62
7
  6
CONTINUOUS
 90
3
 70
0
 10
12.7189356079
 20
5.9483662045
 10
12.7207010683
 20
5.9642824579
 10
12.7210214453
 20
5.9651373637
  0
LWPOLYLINE
  5
796
100
AcDbEntity
  8
0
100
AcDbPolyline
 62
7
  6
CONTINUOUS
 90
3
 70
0
 10
12.7189356087
 20
6.0126616242
 10
12.7207128777
 20
6.0286269631
 10
12.7210209398
 20
6.0294476625
  0
LWPOLYLINE
  5
797
100
AcDbEntity
  8
0
100
AcDbPolyline
 62
7
  6
CONTINUOUS
 90
3
 70
0
 10
12.7189356094
 20
6.0448101956
 10
12.7207961405
 20
6.0611412924
 10
12.7210120836
 20
6.0617084736
  0
LINE
  5
798
100
AcDbEntity
  8
0
100
AcDbLine
 62
7
  6
CONTINUOUS
 10
12.7189356066
 20
5.980498279
 11
12.7210823698
 21
5.9958881282
  0
LWPOLYLINE
  5
799
100
AcDbEntity
  8
0
100
AcDbPolyline
 62
9
  6
CONTINUOUS
 90
19
 70
0
 10
12.2594229574
 20
7.4418355847
 10
12.3602573519
 20
7.3910743463
 10
12.4721246622
 20
7.3487129596
 10
12.5929410026
 20
7.3155405427
 10
12.720455895
 20
7.2921750205
 10
12.8522938691
 20
7.2790516786
 10
12.9859990538
 20
7.2764149763
 10
13.1190807691
 20
7.2843140308
 10
13.2490599538
 20
7.3026016977
 10
13.3735153409
 20
7.330937312
 10
13.4901285614
 20
7.3687930349
 10
13.5967273312
 20
7.4154636856
 10
13.6913259158
 20
7.4700798779
 10
13.772162122
 20
7.531624215
 10
13.8377301238
 20
7.5989502422
 10
13.8868085129
 20
7.6708038023
 10
13.9184830514
 20
7.7458463988
 10
13.9321637026
 20
7.8226801304
 10
13.9327163346
 20
7.8454907032
  0
LWPOLYLINE
  5
79A
100
AcDbEntity
  8
0
100
AcDbPolyline
 62
7
  6
CONTINUOUS
 90
3
 70
0
 10
13.1848821538
 20
6.0420737444
 10
13.1864411178
 20
6.0346688032
 10
13.186652141
 20
6.0287042368
  0
LWPOLYLINE
  5
79B
100
AcDbEntity
  8
0
100
AcDbPolyline
 62
7
  6
CONTINUOUS
 90
3
 70
0
 10
13.1848490699
 20
5.9778181917
 10
13.1864631934
 20
5.9700574883
 10
13.1866521391
 20
5.964403257
  0
LWPOLYLINE
  5
79C
100
AcDbEntity
  8
0
100
AcDbPolyline
 62
7
  6
CONTINUOUS
 90
3
 70
0
 10
13.1848797518
 20
5.9455979611
 10
13.1864606517
 20
5.9379494641
 10
13.1866521401
 20
5.9322619357
  0
LWPOLYLINE
  5
79D
100
AcDbEntity
  8
0
100
AcDbPolyline
 62
7
  6
CONTINUOUS
 90
3
 70
0
 10
13.1848261693
 20
6.0100142542
 10
13.1864829372
 20
6.0019009899
 10
13.1866521397
 20
5.996551391
  0
LWPOLYLINE
  5
79E
100
AcDbEntity
  8
0
100
AcDbPolyline
 62
7
  6
CONTINUOUS
 90
3
 70
0
 10
13.1863936022
 20
6.0670858411
 10
13.186436311
 20
6.0668819436
 10
13.1866521419
 20
6.0608675369
  0
LWPOLYLINE
  5
79F
100
AcDbEntity
  8
0
100
AcDbPolyline
 62
7
  6
CONTINUOUS
 90
3
 70
0
 10
12.7211065354
 20
5.932725947
 10
12.7204074311
 20
5.9307565572
 10
12.7189356066
 20
5.9162068727
  0
LWPOLYLINE
  5
7A0
100
AcDbEntity
  8
0
100
AcDbPolyline
 62
9
  6
CONTINUOUS
 90
23
 70
0
 10
12.3498953971
 20
7.597631601
 10
12.4417059861
 20
7.5516959528
 10
12.5439980884
 20
7.5137318574
 10
12.654614174
 20
7.4845579304
 10
12.7712949751
 20
7.4647708197
 10
12.8916657149
 20
7.45477306
 10
13.0132757182
 20
7.4547681795
 10
13.1336488948
 20
7.4647562815
 10
13.2503343431
 20
7.4845340043
 10
13.3609562316
 20
7.513698659
 10
13.4632621802
 20
7.5516564244
 10
13.5551691424
 20
7.5976344438
 10
13.63480581
 20
7.6506965631
 10
13.7005507045
 20
7.7097623861
 10
13.7510652022
 20
7.7736292796
 10
13.7853207815
 20
7.8409968547
 10
13.8026199656
 20
7.9104934325
 10
13.8026105365
 20
7.9807040021
 10
13.7852926928
 20
8.0501990122
 10
13.7510189821
 20
8.1175635848
 10
13.7004866364
 20
8.1814266737
 10
13.634729027
 20
8.2404839746
 10
13.5551642185
 20
8.2934897258
  0
LWPOLYLINE
  5
7A1
100
AcDbEntity
  8
0
100
AcDbPolyline
 62
7
  6
CONTINUOUS
 90
6
 70
0
 10
13.1866521419
 20
6.0608675369
 10
13.1849346753
 20
6.0439091693
 10
13.1771643657
 20
6.0213327273
 10
13.1630873007
 20
5.9994811338
 10
13.1431150075
 20
5.9792321957
 10
13.1181573297
 20
5.9613740706
  0
LWPOLYLINE
  5
7A2
100
AcDbEntity
  8
0
100
AcDbPolyline
 62
7
  6
CONTINUOUS
 90
6
 70
0
 10
13.186652141
 20
6.0287042368
 10
13.1848965053
 20
6.0115767146
 10
13.1770941388
 20
5.989043826
 10
13.1630141098
 20
5.967244931
 10
13.1430666697
 20
5.9470455423
 10
13.1181573297
 20
5.9292283062
  0
LWPOLYLINE
  5
7A3
100
AcDbEntity
  8
02___PRT_ALL_AXES
100
AcDbPolyline
 62
7
  6
CONTINUOUS
 90
12
 70
0
 10
13.5640959382
 20
7.0181320149
 10
13.5032672255
 20
6.9924102177
 10
13.4392065668
 20
6.9694522245
 10
13.3722898952
 20
6.9493927617
 10
13.3029099046
 20
6.9323495464
 10
13.2314737443
 20
6.918422595
 10
13.15840063
 20
6.9076936362
 10
13.0841193838
 20
6.9002256318
 10
13.0090659178
 20
6.8960624072
 10
12.9336806753
 20
6.8952283938
 10
12.858406047
 20
6.8977284858
 10
12.7836837744
 20
6.9035480118
  0
LWPOLYLINE
  5
7A4
100
AcDbEntity
  8
AXIS
100
AcDbPolyline
 62
7
  6
CONTINUOUS
 90
9
 70
0
 10
13.5719428261
 20
7.021762481
 10
13.4885952868
 20
6.9868009221
 10
13.399374502
 20
6.9570607997
 10
13.3052579932
 20
6.9328679529
 10
13.2072769206
 20
6.9144874434
 10
13.1065047853
 20
6.9021206521
 10
13.0040456679
 20
6.8959030721
 10
12.901022132
 20
6.8959028245
 10
12.798562925
 20
6.9021199119
  0
LWPOLYLINE
  5
7A5
100
AcDbEntity
  8
0
100
AcDbPolyline
 62
7
  6
CONTINUOUS
 90
4
 70
0
 10
13.1866521401
 20
5.9322619357
 10
13.1848804442
 20
5.9150614797
 10
13.1770705346
 20
5.8925585479
 10
13.1629895902
 20
5.8707773764
  0
LWPOLYLINE
  5
7A6
100
AcDbEntity
  8
0
100
AcDbPolyline
 62
7
  6
CONTINUOUS
 90
6
 70
0
 10
13.1866521391
 20
5.964403257
 10
13.1848017699
 20
5.9468305125
 10
13.1769027542
 20
5.9243650255
 10
13.1629154812
 20
5.9028317889
 10
13.143070435
 20
5.8827571974
 10
13.1181573297
 20
5.8649367773
  0
LWPOLYLINE
  5
7A7
100
AcDbEntity
  8
0
100
AcDbPolyline
 62
7
  6
CONTINUOUS
 90
6
 70
0
 10
13.1866521397
 20
5.996551391
 10
13.1847434473
 20
5.9787022016
 10
13.1767404332
 20
5.9561854829
 10
13.1626160922
 20
5.9346101849
 10
13.1429213747
 20
5.9147770547
 10
13.1181573297
 20
5.8970825417
  0
LINE
  5
7A8
100
AcDbEntity
  8
0
100
AcDbLine
 62
7
  6
CONTINUOUS
 10
13.539143981
 20
6.4353402491
 11
13.5375519826
 21
6.4536749005
  0
LINE
  5
7A9
100
AcDbEntity
  8
0
100
AcDbLine
 62
7
  6
CONTINUOUS
 10
13.539143981
 20
6.5317775424
 11
13.5376759629
 21
6.5522223351
  0
LINE
  5
7AA
100
AcDbEntity
  8
0
100
AcDbLine
 62
7
  6
CONTINUOUS
 10
13.539143981
 20
6.6282148358
 11
13.5386859789
 21
6.6362798491
  0
LWPOLYLINE
  5
7AB
100
AcDbEntity
  8
0
100
AcDbPolyline
 62
7
  6
CONTINUOUS
 90
3
 70
0
 10
13.539143981
 20
6.4835588958
 10
13.5386330402
 20
6.4980115953
 10
13.5374153612
 20
6.5056715044
  0
LWPOLYLINE
  5
7AC
100
AcDbEntity
  8
0
100
AcDbPolyline
 62
7
  6
CONTINUOUS
 90
17
 70
0
 10
13.1540247967
 20
5.8459798481
 10
13.151878111
 20
5.8373595725
 10
13.1436884552
 20
5.821256444
 10
13.1316127364
 20
5.8059901197
 10
13.1158967811
 20
5.791871378
 10
13.096860521
 20
5.7791876357
 10
13.0748914795
 20
5.7681970974
 10
13.0504368828
 20
5.7591234985
 10
13.023994556
 20
5.7521515515
 10
12.9961027887
 20
5.7474231851
 10
12.9673293768
 20
5.7450346552
 10
12.938260064
 20
5.7450345853
 10
12.9094866176
 20
5.7474229769
 10
12.8815947821
 20
5.7521512092
 10
12.8551523548
 20
5.7591230291
 10
12.8306976272
 20
5.7681965104
 10
12.8087284271
 20
5.7791869432
  0
LWPOLYLINE
  5
7AD
100
AcDbEntity
  8
0
100
AcDbPolyline
 62
7
  6
CONTINUOUS
 90
3
 70
0
 10
13.539143981
 20
6.5799961891
 10
13.5389745644
 20
6.5883196317
 10
13.5374025655
 20
6.6005275149
  0
LINE
  5
7AE
100
AcDbEntity
  8
0
100
AcDbLine
 62
7
  6
CONTINUOUS
 10
13.5390384699
 20
6.5252087504
 11
13.539143981
 21
6.5317775424
  0
LINE
  5
7AF
100
AcDbEntity
  8
0
100
AcDbLine
 62
7
  6
CONTINUOUS
 10
13.5387495529
 20
6.6155158647
 11
13.539143981
 21
6.6282148358
  0
LINE
  5
7B0
100
AcDbEntity
  8
0
100
AcDbLine
 62
7
  6
CONTINUOUS
 10
13.5380180444
 20
6.4621097444
 11
13.539143981
 21
6.4835588958
  0
LINE
  5
7B1
100
AcDbEntity
  8
0
100
AcDbLine
 62
7
  6
CONTINUOUS
 10
13.5372830722
 20
6.5524295702
 11
13.539143981
 21
6.5799961891
  0
LINE
  5
7B2
100
AcDbEntity
  8
0
100
AcDbLine
 62
7
  6
CONTINUOUS
 10
13.5359151743
 20
6.3990495141
 11
13.539143981
 21
6.4353402491
  0
LWPOLYLINE
  5
7B3
100
AcDbEntity
  8
0
100
AcDbPolyline
 62
7
  6
CONTINUOUS
 90
5
 70
0
 10
13.1816098868
 20
6.0656919763
 10
13.1753389057
 20
6.0499246918
 10
13.1612331592
 20
6.0293843113
 10
13.1419047236
 20
6.0103631829
 10
13.1181573297
 20
5.9935198351
  0
LWPOLYLINE
  5
7B4
100
AcDbEntity
  8
0
100
AcDbPolyline
 62
7
  6
CONTINUOUS
 90
15
 70
0
 10
13.2819145454
 20
6.527808556
 10
13.2532108876
 20
6.5152484597
 10
13.2033388281
 20
6.4977791622
 10
13.1506653333
 20
6.4833928268
 10
13.0958967498
 20
6.4722722257
 10
13.0394754502
 20
6.4644992925
 10
12.9822303421
 20
6.4601755943
 10
12.9245386057
 20
6.459320251
 10
12.8668633523
 20
6.4619689514
 10
12.8101467193
 20
6.468095243
 10
12.7552810884
 20
6.4775656249
 10
12.7024463407
 20
6.4903259671
 10
12.6522664824
 20
6.5062423244
 10
12.6055624161
 20
6.5250364823
 10
12.5997017851
 20
6.527973903
  0
LWPOLYLINE
  5
7B5
100
AcDbEntity
  8
0
100
AcDbPolyline
 62
7
  6
CONTINUOUS
 90
13
 70
0
 10
13.468328955
 20
6.6082544358
 10
13.5405855445
 20
6.6370365057
 10
13.6082853845
 20
6.6695431829
 10
13.6708990184
 20
6.7055622491
 10
13.7279009302
 20
6.7448425934
 10
13.7787885148
 20
6.7870908163
 10
13.8231303153
 20
6.8320017655
 10
13.8605699038
 20
6.8792772069
 10
13.8908079371
 20
6.9286253981
 10
13.9134318029
 20
6.9793188939
 10
13.928233717
 20
7.0301150941
 10
13.9355831424
 20
7.0797028436
 10
13.9367817763
 20
7.1097732575
  0
LINE
  5
7B6
100
AcDbEntity
  8
0
100
AcDbLine
 62
7
  6
CONTINUOUS
 10
13.5003946116
 20
6.5947701427
 11
13.5191562199
 21
6.6289610219
  0
LWPOLYLINE
  5
7B7
100
AcDbEntity
  8
0
100
AcDbPolyline
 62
7
  6
CONTINUOUS
 90
4
 70
0
 10
13.4908750743
 20
6.5327361815
 10
13.5121058576
 20
6.5664305545
 10
13.5273236008
 20
6.6012170838
 10
13.535975142
 20
6.6352000376
  0
LWPOLYLINE
  5
7B8
100
AcDbEntity
  8
0
100
AcDbPolyline
 62
7
  6
CONTINUOUS
 90
6
 70
0
 10
13.48036025
 20
6.4709509472
 10
13.504020957
 20
6.5040879917
 10
13.5217555019
 20
6.5384654177
 10
13.5333733144
 20
6.573722368
 10
13.5387495529
 20
6.6094885338
 10
13.539143981
 20
6.622187505
  0
LWPOLYLINE
  5
7B9
100
AcDbEntity
  8
0
100
AcDbPolyline
 62
7
  6
CONTINUOUS
 90
15
 70
0
 10
13.284313651
 20
6.3842005835
 10
13.253011077
 20
6.3705141484
 10
13.2030792551
 20
6.353042633
 10
13.1502660657
 20
6.3386422333
 10
13.0954235225
 20
6.3275359943
 10
13.0390497443
 20
6.3197981874
 10
12.9817524401
 20
6.3154982217
 10
12.92403083
 20
6.3146722744
 10
12.8667166875
 20
6.3173242783
 10
12.8102511226
 20
6.3234246961
 10
12.7554305738
 20
6.3328788522
 10
12.7027922617
 20
6.3455738351
 10
12.6526489293
 20
6.3614494248
 10
12.6057249569
 20
6.3803074569
 10
12.5989255761
 20
6.3837140633
  0
LWPOLYLINE
  5
7BA
100
AcDbEntity
  8
0
100
AcDbPolyline
 62
7
  6
CONTINUOUS
 90
15
 70
0
 10
13.2725277157
 20
6.4272666876
 10
13.2528018842
 20
6.4186508209
 10
13.2029893956
 20
6.4012334046
 10
13.1503833792
 20
6.3868886697
 10
13.0953802874
 20
6.3757473185
 10
13.0388428006
 20
6.36799495
 10
12.9815420041
 20
6.3637075072
 10
12.9236202074
 20
6.362897559
 10
12.8659268617
 20
6.3656040008
 10
12.8094138055
 20
6.3717608447
 10
12.7547258948
 20
6.3812430944
 10
12.7020747678
 20
6.3939921939
 10
12.6522141042
 20
6.4098238083
 10
12.6055966395
 20
6.4285837958
 10
12.6014701345
 20
6.4306518815
  0
LWPOLYLINE
  5
7BB
100
AcDbEntity
  8
0
100
AcDbPolyline
 62
7
  6
CONTINUOUS
 90
15
 70
0
 10
13.28172058
 20
6.4794917198
 10
13.2519609691
 20
6.4665407411
 10
13.2020387028
 20
6.4491578805
 10
13.1493303407
 20
6.4348585077
 10
13.0945428253
 20
6.4238245594
 10
13.038119824
 20
6.4161375093
 10
12.9808525959
 20
6.4118958123
 10
12.9231751777
 20
6.4111235997
 10
12.8659181347
 20
6.4138233261
 10
12.8095240427
 20
6.4199639754
 10
12.7547701743
 20
6.4294525737
 10
12.702106349
 20
6.4422020342
 10
12.6522335389
 20
6.4580354872
 10
12.6056058243
 20
6.4767983118
 10
12.6005258946
 20
6.4793441704
  0
LWPOLYLINE
  5
7BC
100
AcDbEntity
  8
0
100
AcDbPolyline
 62
7
  6
CONTINUOUS
 90
21
 70
0
 10
13.4849274331
 20
6.2843525158
 10
13.4770231102
 20
6.2660800809
 10
13.4561120238
 20
6.2326484248
 10
13.4291791512
 20
6.2005319445
 10
13.3965939281
 20
6.1703641976
 10
13.3587783131
 20
6.1425727601
 10
13.3164025831
 20
6.1175948216
 10
13.2699602759
 20
6.0956314528
 10
13.2201425167
 20
6.0769194995
 10
13.1674413025
 20
6.0615635764
 10
13.1125284446
 20
6.0496972204
 10
13.0559255145
 20
6.0413848864
 10
12.9982803133
 20
6.0366904895
 10
12.9401709101
 20
6.0356406155
 10
12.8822036702
 20
6.0382403299
 10
12.8250143679
 20
6.0444639837
 10
12.7691365257
 20
6.0542718317
 10
12.7152559759
 20
6.0675715629
 10
12.6638356842
 20
6.0842941205
 10
12.6156194433
 20
6.1042502848
 10
12.5709415637
 20
6.1273786657
  0
LWPOLYLINE
  5
7BD
100
AcDbEntity
  8
0
100
AcDbPolyline
 62
7
  6
CONTINUOUS
 90
4
 70
0
 10
13.4987878166
 20
6.3572492654
 10
13.5179878131
 20
6.3913569875
 10
13.5311115637
 20
6.4264332696
 10
13.5380180444
 20
6.4621097444
  0
LWPOLYLINE
  5
7BE
100
AcDbEntity
  8
0
100
AcDbPolyline
 62
7
  6
CONTINUOUS
 90
5
 70
0
 10
13.4949164653
 20
6.4419588354
 10
13.5151350245
 20
6.4758650731
 10
13.529307993
 20
6.5108018303
 10
13.5372830722
 20
6.5464022394
 10
13.539143981
 20
6.5739688583
  0
LWPOLYLINE
  5
7BF
100
AcDbEntity
  8
0
100
AcDbPolyline
 62
7
  6
CONTINUOUS
 90
3
 70
0
 10
13.1591860018
 20
6.0597796529
 10
13.1430598217
 20
6.0434770454
 10
13.1181573297
 20
6.0256655995
  0
LWPOLYLINE
  5
7C0
100
AcDbEntity
  8
0
100
AcDbPolyline
 62
7
  6
CONTINUOUS
 90
15
 70
0
 10
13.2851880279
 20
6.2881394118
 10
13.2528865835
 20
6.2740280616
 10
13.2030309148
 20
6.2565903426
 10
13.1503812568
 20
6.2422322268
 10
13.0956418951
 20
6.2311357191
 10
13.0392554253
 20
6.223382691
 10
12.9820326239
 20
6.2190734646
 10
12.9244925743
 20
6.2182277283
 10
12.8670768424
 20
6.220859359
 10
12.8105142123
 20
6.2269506501
 10
12.7556964805
 20
6.2363867838
 10
12.7028141428
 20
6.249130463
 10
12.6525006637
 20
6.265065197
 10
12.6055944447
 20
6.2839288429
 10
12.5992017317
 20
6.2871327037
  0
LWPOLYLINE
  5
7C1
100
AcDbEntity
  8
0
100
AcDbPolyline
 62
7
  6
CONTINUOUS
 90
15
 70
0
 10
13.2763730615
 20
6.3325101707
 10
13.2522876454
 20
6.3220123529
 10
13.2023561299
 20
6.3046000109
 10
13.1496451686
 20
6.2902768034
 10
13.0948376352
 20
6.2792183046
 10
13.0384033369
 20
6.2715113387
 10
12.9811198611
 20
6.2672515755
 10
12.9234186629
 20
6.2664635884
 10
12.8661316653
 20
6.2691508054
 10
12.8096983651
 20
6.2752835278
 10
12.7549087651
 20
6.2847679569
 10
12.7021787581
 20
6.2975259085
 10
12.6522091303
 20
6.3133882983
 10
12.6056086092
 20
6.3321411193
 10
12.6037658735
 20
6.3330646189
  0
LINE
  5
7C2
100
AcDbEntity
  8
02___PRT_ALL_AXES
100
AcDbLine
 62
7
  6
CONTINUOUS
 10
13.9367232892
 20
7.4668832327
 11
13.9367813291
 21
7.4633781922
  0
LINE
  5
7C3
100
AcDbEntity
  8
AXIS
100
AcDbLine
 62
7
  6
CONTINUOUS
 10
13.9367630372
 20
7.4668806942
 11
13.9327163346
 21
7.8454907032
  0
LINE
  5
7C4
100
AcDbEntity
  8
02___PRT_ALL_AXES
100
AcDbLine
 62
7
  6
CONTINUOUS
 10
13.9367817763
 20
7.4633741966
 11
13.9367817763
 21
7.1097707876
  0
LINE
  5
7C5
100
AcDbEntity
  8
0
100
AcDbLine
 62
7
  6
CONTINUOUS
 10
13.9367817763
 20
7.1097707876
 11
13.9367817763
 21
7.1097732575
  0
LWPOLYLINE
  5
7C6
100
AcDbEntity
  8
AXIS
100
AcDbPolyline
 62
7
  6
CONTINUOUS
 90
10
 70
0
 10
13.9367603082
 20
7.4668838457
 10
13.9354331076
 20
7.4336366513
 10
13.9246646423
 20
7.3744826462
 10
13.9032452643
 20
7.3163025555
 10
13.8714096488
 20
7.2597338125
 10
13.8295065935
 20
7.2053961962
 10
13.777995197
 20
7.1538850408
 10
13.717439829
 20
7.1057647134
 10
13.6485039467
 20
7.0615624303
 10
13.5719428261
 20
7.021762481
  0
LWPOLYLINE
  5
7C7
100
AcDbEntity
  8
02___PRT_ALL_AXES
100
AcDbPolyline
 62
7
  6
CONTINUOUS
 90
13
 70
0
 10
13.9367813291
 20
7.4633781922
 10
13.9351571689
 20
7.4307382488
 10
13.9279467742
 20
7.3874066947
 10
13.9150122449
 20
7.3445209482
 10
13.896429486
 20
7.3023326798
 10
13.8723075484
 20
7.261089467
 10
13.8427879893
 20
7.2210333415
 10
13.8080440412
 20
7.1823993685
 10
13.7682795953
 20
7.1454142675
 10
13.7237280054
 20
7.1102950817
 10
13.6746507178
 20
7.0772479047
 10
13.6213357375
 20
7.0464666702
 10
13.5640959382
 20
7.0181320149
  0
LWPOLYLINE
  5
7C8
100
AcDbEntity
  8
0
100
AcDbPolyline
 62
9
  6
CONTINUOUS
 90
3
 70
0
 10
13.9305934653
 20
7.0461493233
 10
13.9365340679
 20
7.0970227225
 10
13.9367817763
 20
7.1097707876
  0
LWPOLYLINE
  5
7C9
100
AcDbEntity
  8
0
100
AcDbPolyline
 62
7
  6
CONTINUOUS
 90
5
 70
0
 10
13.1431162159
 20
5.8490428723
 10
13.1630891291
 20
5.869293049
 10
13.1771661188
 20
5.8911459616
 10
13.184935835
 20
5.9137245279
 10
13.1866521419
 20
5.930676876
  0
LWPOLYLINE
  5
7CA
100
AcDbEntity
  8
0
100
AcDbPolyline
 62
7
  6
CONTINUOUS
 90
3
 70
0
 10
13.1629895902
 20
5.8707773764
 10
13.1430504822
 20
5.8505945627
 10
13.1181573297
 20
5.8327910128
  0
LWPOLYLINE
  5
7CB
100
AcDbEntity
  8
0
100
AcDbPolyline
 62
7
  6
CONTINUOUS
 90
5
 70
0
 10
13.1181573297
 20
5.9919125469
 10
13.1431150075
 20
6.009770672
 10
13.1630873007
 20
6.03001961
 10
13.1771643657
 20
6.0518712036
 10
13.1819558652
 20
6.0657927865
  0
LWPOLYLINE
  5
7CC
100
AcDbEntity
  8
0
100
AcDbPolyline
 62
7
  6
CONTINUOUS
 90
4
 70
0
 10
13.1181573297
 20
6.0240583113
 10
13.1419047236
 20
6.0409016591
 10
13.1612331592
 20
6.0599227875
 10
13.1614744704
 20
6.0602741779
  0
LWPOLYLINE
  5
7CD
100
AcDbEntity
  8
0
100
AcDbPolyline
 62
7
  6
CONTINUOUS
 90
4
 70
0
 10
13.0985068979
 20
6.0476381083
 10
13.0886923434
 20
6.042557
 10
13.0551056537
 20
6.0301708525
 10
13.018742732
 20
6.0211898634
  0
LWPOLYLINE
  5
7CE
100
AcDbEntity
  8
0
100
AcDbPolyline
 62
7
  6
CONTINUOUS
 90
15
 70
0
 10
13.2800382312
 20
6.2376738997
 10
13.2529679002
 20
6.2258412827
 10
13.2031256203
 20
6.2084010804
 10
13.1501951819
 20
6.1939695107
 10
13.0949363881
 20
6.1827976771
 10
13.0382650732
 20
6.1750595164
 10
12.9809609206
 20
6.1708073132
 10
12.9231713626
 20
6.1700304306
 10
12.8657457735
 20
6.1727435125
 10
12.8094607262
 20
6.1788796521
 10
12.7547434594
 20
6.1883648709
 10
12.7020870686
 20
6.201114177
 10
12.6522218116
 20
6.2169464582
 10
12.6056002186
 20
6.2357075994
 10
12.6023431318
 20
6.2373399437
  0
LWPOLYLINE
  5
7CF
100
AcDbEntity
  8
0
100
AcDbPolyline
 62
7
  6
CONTINUOUS
 90
15
 70
0
 10
13.2707740746
 20
6.1854130615
 10
13.2523004253
 20
6.1773614067
 10
13.2023808192
 20
6.1599517051
 10
13.1497171584
 20
6.1456378565
 10
13.094854737
 20
6.1345652499
 10
13.0383669765
 20
6.1268515759
 10
12.9810669853
 20
6.1225933141
 10
12.9233633186
 20
6.1218085683
 10
12.8660746079
 20
6.1244992911
 10
12.8096401265
 20
6.1306357715
 10
12.7548590804
 20
6.1401222946
 10
12.7021787388
 20
6.1528699738
 10
12.6522720268
 20
6.1687098102
 10
12.6056268002
 20
6.1874769987
 10
12.6006513635
 20
6.1899703644
  0
LINE
  5
7D0
100
AcDbEntity
  8
0
100
AcDbLine
 62
7
  6
CONTINUOUS
 10
13.1181573297
 20
5.8311837246
 11
13.1431162159
 21
5.8490428723
  0
LWPOLYLINE
  5
7D1
100
AcDbEntity
  8
0
100
AcDbPolyline
 62
7
  6
CONTINUOUS
 90
6
 70
0
 10
13.1181573297
 20
5.9597667824
 10
13.1430666697
 20
5.9775840185
 10
13.1630141098
 20
5.9977834072
 10
13.1770941388
 20
6.0195823022
 10
13.1848965053
 20
6.0421151909
 10
13.186652141
 20
6.059242713
  0
LWPOLYLINE
  5
7D2
100
AcDbEntity
  8
0
100
AcDbPolyline
 62
7
  6
CONTINUOUS
 90
6
 70
0
 10
13.1181573297
 20
5.8954752535
 10
13.143070435
 20
5.9132956736
 10
13.1629154812
 20
5.9333702651
 10
13.1769027542
 20
5.9549035018
 10
13.1848017699
 20
5.9773689887
 10
13.1866521391
 20
5.9949417332
  0
LWPOLYLINE
  5
7D3
100
AcDbEntity
  8
0
100
AcDbPolyline
 62
7
  6
CONTINUOUS
 90
6
 70
0
 10
13.1181573297
 20
5.8633294891
 10
13.1430504822
 20
5.8811330389
 10
13.1629895902
 20
5.9013158527
 10
13.1770705346
 20
5.9230970241
 10
13.1848804442
 20
5.9455999559
 10
13.1866521401
 20
5.9628004119
  0
LWPOLYLINE
  5
7D4
100
AcDbEntity
  8
0
100
AcDbPolyline
 62
7
  6
CONTINUOUS
 90
6
 70
0
 10
13.1181573297
 20
5.927621018
 10
13.1429213747
 20
5.945315531
 10
13.1626160922
 20
5.9651486611
 10
13.1767404332
 20
5.9867239591
 10
13.1847434473
 20
6.0092406778
 10
13.1866521397
 20
6.0270898672
  0
LWPOLYLINE
  5
7D5
100
AcDbEntity
  8
0
100
AcDbPolyline
 62
7
  6
CONTINUOUS
 90
4
 70
0
 10
13.1181573297
 20
5.9292283062
 10
13.0889460254
 20
5.914085494
 10
13.0556348728
 20
5.9017498076
 10
13.0194995025
 20
5.8927532959
  0
LWPOLYLINE
  5
7D6
100
AcDbEntity
  8
0
100
AcDbPolyline
 62
7
  6
CONTINUOUS
 90
4
 70
0
 10
13.1181573297
 20
5.9613740706
 10
13.0888839571
 20
5.9462039372
 10
13.0559710453
 20
5.9339989902
 10
13.0201480057
 20
5.9250258842
  0
LWPOLYLINE
  5
7D7
100
AcDbEntity
  8
0
100
AcDbPolyline
 62
7
  6
CONTINUOUS
 90
4
 70
0
 10
13.1181573297
 20
5.9935198351
 10
13.0887478124
 20
5.9782898368
 10
13.0553804179
 20
5.9659633179
 10
13.0194122197
 20
5.9570278465
  0
LWPOLYLINE
  5
7D8
100
AcDbEntity
  8
0
100
AcDbPolyline
 62
7
  6
CONTINUOUS
 90
4
 70
0
 10
13.1181573297
 20
6.0256655995
 10
13.0887414994
 20
6.0104328274
 10
13.0552148213
 20
5.998058429
 10
13.0189159713
 20
5.9890774904
  0
LWPOLYLINE
  5
7D9
100
AcDbEntity
  8
0
100
AcDbPolyline
 62
7
  6
CONTINUOUS
 90
7
 70
0
 10
13.9327163346
 20
7.8454907032
 10
13.9236106796
 20
7.9275632068
 10
13.8976417112
 20
8.0092147758
 10
13.8539851469
 20
8.089382658
 10
13.7922007063
 20
8.1661885699
 10
13.7131666713
 20
8.2371021333
 10
13.6191395109
 20
8.2998269551
  0
LWPOLYLINE
  5
7DA
100
AcDbEntity
  8
0
100
AcDbPolyline
 62
7
  6
CONTINUOUS
 90
7
 70
0
 10
13.1109468269
 20
5.81094767
 10
13.1160208401
 20
5.8139712341
 10
13.1394787226
 20
5.8309777061
 10
13.1579465271
 20
5.8500245378
 10
13.1709027802
 20
5.870611372
 10
13.1779760116
 20
5.8921947129
 10
13.1780426518
 20
5.8936931407
  0
LWPOLYLINE
  5
7DB
100
AcDbEntity
  8
0
100
AcDbPolyline
 62
7
  6
CONTINUOUS
 90
11
 70
0
 10
13.1042328962
 20
5.8070745479
 10
13.0929712424
 20
5.8010208939
 10
13.0634829842
 20
5.7886513538
 10
13.0307885467
 20
5.7793478245
 10
12.9958355745
 20
5.7733799101
 10
12.9596371603
 20
5.7709203229
 10
12.9232421733
 20
5.7720399145
 10
12.8877031658
 20
5.7767060377
 10
12.8540476468
 20
5.7847839999
 10
12.8232509695
 20
5.7960401502
 10
12.801336543
 20
5.8070832831
  0
LWPOLYLINE
  5
7DC
100
AcDbEntity
  8
0
100
AcDbPolyline
 62
7
  6
CONTINUOUS
 90
4
 70
0
 10
13.1181573297
 20
5.8970825417
 10
13.0902600292
 20
5.8825223932
 10
13.0585848774
 20
5.8705250293
 10
13.0242699692
 20
5.8615685426
  0
LINE
  5
7DD
100
AcDbEntity
  8
0
100
AcDbLine
 62
7
  6
CONTINUOUS
 10
13.0888337136
 20
5.8175987765
 11
13.1181573297
 21
5.8327910128
  0
LWPOLYLINE
  5
7DE
100
AcDbEntity
  8
0
100
AcDbPolyline
 62
7
  6
CONTINUOUS
 90
4
 70
0
 10
13.1181573297
 20
5.8649367773
 10
13.0887733443
 20
5.8497179991
 10
13.0552855451
 20
5.8373512284
 10
13.0190282778
 20
5.8283703603
  0
LINE
  5
7DF
100
AcDbEntity
  8
0
100
AcDbLine
 62
7
  6
CONTINUOUS
 10
13.0882300712
 20
5.7994486273
 11
13.1109468269
 21
5.81094767
  0
LWPOLYLINE
  5
7E0
100
AcDbEntity
  8
0
100
AcDbPolyline
 62
9
  6
CONTINUOUS
 90
23
 70
0
 10
13.5551642185
 20
8.2934897258
 10
13.4633536294
 20
8.339425374
 10
13.3610615271
 20
8.3773894694
 10
13.2504454415
 20
8.4065633964
 10
13.1337646404
 20
8.4263505071
 10
13.0133939007
 20
8.4363482668
 10
12.8917838973
 20
8.4363531473
 10
12.7714107207
 20
8.4263650453
 10
12.6547252724
 20
8.4065873225
 10
12.544103384
 20
8.3774226678
 10
12.4417974353
 20
8.3394649024
 10
12.3498904731
 20
8.293486883
 10
12.2702538055
 20
8.2404247637
 10
12.204508911
 20
8.1813589407
 10
12.1539944133
 20
8.1174920472
 10
12.119738834
 20
8.0501244721
 10
12.1024396499
 20
7.9806278943
 10
12.102449079
 20
7.9104173247
 10
12.1197669227
 20
7.8409223146
 10
12.1540406335
 20
7.773557742
 10
12.2045729791
 20
7.7096946531
 10
12.2703305885
 20
7.6506373522
 10
12.3498953971
 20
7.597631601
  0
LWPOLYLINE
  5
7E1
100
AcDbEntity
  8
AXIS
100
AcDbPolyline
 62
7
  6
CONTINUOUS
 90
27
 70
0
 10
13.481465749
 20
8.2509401486
 10
13.4138524971
 20
8.2855227112
 10
13.3395121217
 20
8.3151478616
 10
13.2595286726
 20
8.3393835984
 10
13.1750684889
 20
8.35787651
 10
13.08736319
 20
8.3703569281
 10
12.9976917168
 20
8.3766428601
 10
12.9073616813
 20
8.376642643
 10
12.8176902988
 20
8.3703562799
 10
12.72998518
 20
8.3578754401
 10
12.6455252629
 20
8.3393821225
 10
12.5655421634
 20
8.3151460012
 10
12.4912022153
 20
8.2855204934
 10
12.4235894622
 20
8.2509376058
 10
12.3636898504
 20
8.2119016347
 10
12.3123768512
 20
8.1689818125
 10
12.2703987235
 20
8.1228040068
 10
12.2383676031
 20
8.0740415941
 10
12.2167505758
 20
8.0234056401
 10
12.2058628666
 20
7.971634531
 10
12.2058632426
 20
7.9194832063
 10
12.2167516986
 20
7.8677121495
 10
12.2383694562
 20
7.8170762995
 10
12.2704012799
 20
7.7683140407
 10
12.3123800735
 20
7.7221364369
 10
12.3636936918
 20
7.6792168614
 10
12.4235938665
 20
7.6401811782
  0
LWPOLYLINE
  5
7E2
100
AcDbEntity
  8
AXIS
100
AcDbPolyline
 62
7
  6
CONTINUOUS
 90
27
 70
0
 10
13.481465749
 20
8.2509401486
 10
13.5413659237
 20
8.2119044654
 10
13.592679542
 20
8.1689848899
 10
13.6346583356
 20
8.1228072861
 10
13.6666901593
 20
8.0740450273
 10
13.6883079169
 20
8.0234091773
 10
13.6991963729
 20
7.9716381205
 10
13.699196749
 20
7.9194867958
 10
13.6883090397
 20
7.8677156867
 10
13.6666920124
 20
7.8170797327
 10
13.634660892
 20
7.76831732
 10
13.5926827643
 20
7.7221395143
 10
13.5413697651
 20
7.6792196921
 10
13.4814701533
 20
7.640183721
 10
13.4138574003
 20
7.6056008334
 10
13.3395174521
 20
7.5759753256
 10
13.2595343526
 20
7.5517392043
 10
13.1750744356
 20
7.5332458867
 10
13.0873693167
 20
7.5207650469
 10
12.9976979342
 20
7.5144786838
 10
12.9073678987
 20
7.5144784667
 10
12.8176964255
 20
7.5207643987
 10
12.7299911266
 20
7.5332448168
 10
12.6455309429
 20
7.5517377284
 10
12.5655474939
 20
7.5759734652
 10
12.4912071184
 20
7.6055986156
 10
12.4235938665
 20
7.6401811782
  0
LWPOLYLINE
  5
7E3
100
AcDbEntity
  8
0
100
AcDbPolyline
 62
7
  6
CONTINUOUS
 90
18
 70
0
 10
13.6191395109
 20
8.2998269551
 10
13.5131976734
 20
8.3528006323
 10
13.3972799936
 20
8.3956560782
 10
13.2737494555
 20
8.4279524606
 10
13.1449667743
 20
8.4494205656
 10
13.013323031
 20
8.4599304865
 10
12.8807697152
 20
8.4594762655
 10
12.7495135987
 20
8.4480874857
 10
12.6216717221
 20
8.4258677262
 10
12.4992106255
 20
8.3929382214
 10
12.3846259962
 20
8.3496496346
 10
12.2799987928
 20
8.2963791543
 10
12.1876542091
 20
8.2338067199
 10
12.1105989361
 20
8.1638008907
 10
12.0502940474
 20
8.0882119679
 10
12.0072751883
 20
8.008880413
 10
11.9814444888
 20
7.9275422673
 10
11.9723432809
 20
7.8454907032
  0
LINE
  5
7E4
100
AcDbEntity
  8
02___PRT_ALL_AXES
100
AcDbLine
 62
7
  6
CENTER
 10
4.9923178755
 20
7.9397264121
 11
4.9923178755
 21
6.8554744436
  0
LINE
  5
7E5
100
AcDbEntity
  8
02___PRT_ALL_AXES
100
AcDbLine
 62
7
  6
CENTER
 10
4.9923178755
 20
7.9397264121
 11
4.9923178755
 21
9.0239783806
  0
LINE
  5
7E6
100
AcDbEntity
  8
02___PRT_ALL_AXES
100
AcDbLine
 62
7
  6
CENTER
 10
4.9923178755
 20
7.9397264121
 11
3.908065907
 21
7.9397264121
  0
LINE
  5
7E7
100
AcDbEntity
  8
02___PRT_ALL_AXES
100
AcDbLine
 62
7
  6
CENTER
 10
4.9923178755
 20
7.9397264121
 11
6.076569844
 21
7.9397264121
  0
CIRCLE
  5
7E8
100
AcDbEntity
  8
0
100
AcDbCircle
 62
7
  6
CONTINUOUS
 10
10.5342808475
 20
1.243294839
 40
0.252091
  0
CIRCLE
  5
7E9
100
AcDbEntity
  8
0
100
AcDbCircle
 62
7
  6
CONTINUOUS
 10
10.5342808475
 20
1.243294839
 40
0.182698
  0
ARC
  5
7EA
100
AcDbEntity
  8
AXIS
100
AcDbCircle
 62
7
  6
CONTINUOUS
 10
4.9529529757
 20
-2.4872385162
 40
7.874015748
100
AcDbArc
 50
84.2608673975
 51
89.7135575941
  0
ARC
  5
7EB
100
AcDbEntity
  8
AXIS
100
AcDbCircle
 62
7
  6
CONTINUOUS
 10
5.0316827753
 20
-2.4872385162
 40
7.874015748
100
AcDbArc
 50
90.2864424059
 51
95.7391326025
  0
ARC
  5
7EC
100
AcDbEntity
  8
0
100
AcDbCircle
 62
7
  6
CONTINUOUS
 10
5.8445751805
 20
5.2193559972
 40
0.1279527559
100
AcDbArc
 50
0.5
 51
90.0
  0
ARC
  5
7ED
100
AcDbEntity
  8
0
100
AcDbCircle
 62
7
  6
CONTINUOUS
 10
4.1400605704
 20
5.2193559972
 40
0.1279527559
100
AcDbArc
 50
90.0
 51
179.5
  0
ARC
  5
7EE
100
AcDbEntity
  8
0
100
AcDbCircle
 62
7
  6
CONTINUOUS
 10
4.6997779346
 20
3.3276237138
 40
0.0590551181
100
AcDbArc
 50
0.0
 51
60.5838692132
  0
ARC
  5
7EF
100
AcDbEntity
  8
0
100
AcDbCircle
 62
7
  6
CONTINUOUS
 10
5.2856047062
 20
3.3276237138
 40
0.0590551181
100
AcDbArc
 50
119.4161307868
 51
180.0
  0
ARC
  5
7F0
100
AcDbEntity
  8
0
100
AcDbCircle
 62
7
  6
CONTINUOUS
 10
4.4805068519
 20
3.4181748949
 40
0.0393700787
100
AcDbArc
 50
180.0
 51
270.0
  0
ARC
  5
7F1
100
AcDbEntity
  8
0
100
AcDbCircle
 62
7
  6
CONTINUOUS
 10
5.5041288991
 20
3.4181748949
 40
0.0393700787
100
AcDbArc
 50
270.0
 51
360.0
  0
ARC
  5
7F2
100
AcDbEntity
  8
0
100
AcDbCircle
 62
7
  6
CONTINUOUS
 10
4.4017666944
 20
4.2449465484
 40
0.0393700787
100
AcDbArc
 50
5.6745913274
 51
90.0
  0
ARC
  5
7F3
100
AcDbEntity
  8
0
100
AcDbCircle
 62
7
  6
CONTINUOUS
 10
5.5828690566
 20
4.2449465484
 40
0.0393700787
100
AcDbArc
 50
90.0
 51
180.0
  0
CIRCLE
  5
7F4
100
AcDbEntity
  8
02___PRT_ALL_AXES
100
AcDbCircle
 62
7
  6
CONTINUOUS
 10
4.9923178755
 20
7.9397264121
 40
0.9842519685
  0
CIRCLE
  5
7F5
100
AcDbEntity
  8
AXIS
100
AcDbCircle
 62
7
  6
CONTINUOUS
 10
4.9923178755
 20
7.9397264121
 40
0.9842519685
  0
CIRCLE
  5
7F6
100
AcDbEntity
  8
0
100
AcDbCircle
 62
9
  6
CONTINUOUS
 10
4.9923178755
 20
7.9397264121
 40
0.9802051889
  0
CIRCLE
  5
7F7
100
AcDbEntity
  8
0
100
AcDbCircle
 62
9
  6
CONTINUOUS
 10
4.9923178755
 20
7.9397264121
 40
0.8522573051
  0
CIRCLE
  5
7F8
100
AcDbEntity
  8
AXIS
100
AcDbCircle
 62
7
  6
CONTINUOUS
 10
4.9923178755
 20
7.9397264121
 40
0.7480314961
  0
ENDSEC
  0
SECTION
  2
OBJECTS
  0
DICTIONARY
  5
C
100
AcDbDictionary
280
0
281
1
  3
ACAD_GROUP
350
D
  3
ACAD_MLINESTYLE
350
17
  3
ACAD_LAYOUT
350
1A
  3
ACAD_PLOTSETTINGS
350
19
  3
ACAD_PLOTSTYLENAME
350
E
  0
DICTIONARY
  5
D
102
{ACAD_REACTORS
330
C
102
}
100
AcDbDictionary
280
0
281
1
  0
ACDBDICTIONARYWDFLT
  5
E
102
{ACAD_REACTORS
330
C
102
}
100
AcDbDictionary
281
1
  3
Normal
350
F
100
AcDbDictionaryWithDefault
340
F
  0
DICTIONARY
  5
17
102
{ACAD_REACTORS
330
C
102
}
100
AcDbDictionary
280
0
281
1
  3
Standard
350
18
  0
DICTIONARY
  5
19
102
{ACAD_REACTORS
330
C
102
}
100
AcDbDictionary
281
1
  0
DICTIONARY
  5
1A
102
{ACAD_REACTORS
330
C
102
}
100
AcDbDictionary
281
1
  3
Model
350
7F9
  3
Layout1
350
7FA
  0
ACDBPLACEHOLDER
  5
F
102
{ACAD_REACTORS
330
E
102
}
  0
MLINESTYLE
  5
18
102
{ACAD_REACTORS
330
17
102
}
100
AcDbMlineStyle
  2
STANDARD
 70
0
  3

 62
256
 51
90.0
 52
90.0
 71
2
 49
0.5
 62
256
  6
BYLAYER
 49
-0.5
 62
256
  6
BYLAYER
  0
LAYOUT
  5
7F9
102
{ACAD_REACTORS
330
1A
102
}
100
AcDbPlotSettings
  1

  2
none_device
  4
ANSI_B_(17.00_x_11.00_Inches)
  6

 40
0.0
 41
0.0
 42
0.0
 43
0.0
 44
431.8
 45
279.4
 46
0.0
 47
0.0
 48
0.0
 49
0.0
140
0.0
141
0.0
142
1.0
143
1.0
 70
1024
 72
0
 73
0
 74
0
  7

 75
0
147
1.0
148
0.0
149
0.0
100
AcDbLayout
  1
Model
 70
0
 71
0
 10
0.0
 20
0.0
 11
17.0
 21
11.0
 12
0.0
 22
0.0
 32
0.0
 14
0.0
 24
0.0
 34
0.0
 15
0.0
 25
0.0
 35
0.0
146
0.0
 13
0.0
 23
0.0
 33
0.0
 16
1.0
 26
0.0
 36
0.0
 17
0.0
 27
1.0
 37
0.0
 76
0
330
214
345
0
346
0
  0
LAYOUT
  5
7FA
102
{ACAD_REACTORS
330
1A
102
}
100
AcDbPlotSettings
  1

  2
none_device
  4
ANSI_B_(17.00_x_11.00_Inches)
  6

 40
0.0
 41
0.0
 42
0.0
 43
0.0
 44
431.8
 45
279.4
 46
0.0
 47
0.0
 48
0.0
 49
0.0
140
0.0
141
0.0
142
1.0
143
1.0
 70
0
 72
0
 73
0
 74
0
  7

 75
0
147
1.0
148
0.0
149
0.0
100
AcDbLayout
  1
Layout1
 70
0
 71
1
 10
0.0
 20
0.0
 11
17.0
 21
11.0
 12
0.0
 22
0.0
 32
0.0
 14
0.0
 24
0.0
 34
0.0
 15
0.0
 25
0.0
 35
0.0
146
0.0
 13
0.0
 23
0.0
 33
0.0
 16
1.0
 26
0.0
 36
0.0
 17
0.0
 27
1.0
 37
0.0
 76
0
330
215
345
0
346
0
  0
ENDSEC
  0
EOF
