999
DXF file: 154439_1.dxf
999
Pro/ENGINEER 2009141 by Parametric Technology Corporation
  0
SECTION
  2
HEADER
  9
$ACADVER
  1
AC1015
  9
$DWGCODEPAGE
  3
ANSI_1252
  9
$EXTMAX
 10
17.0
 20
11.0
 30
0.0
  9
$EXTMIN
 10
0.0
 20
0.0
 30
0.0
  9
$LIMMIN
 10
0.0
 20
0.0
  9
$LIMMAX
 10
17.0
 20
11.0
  9
$VIEWCTR
 10
8.5
 20
5.5
  9
$VIEWSIZE
 40
11.0
  9
$CLAYER
  8
0
  9
$LTSCALE
 40
0.935
  9
$CELTYPE
  6
BYLAYER
  9
$DIMSCALE
 40
1.0
  9
$DIMASZ
 40
0.1875
  9
$DIMEXO
 40
0.10625
  9
$DIMDLI
 40
0.646
  9
$DIMEXE
 40
0.306
  9
$DIMCEN
 40
0.153
  9
$DIMLFAC
 40
1.0
  9
$DIMBLK
  1
_FILLED
  9
$DIMTXT
 40
0.1
  9
$DIMTOL
 70
1
  9
$DIMLIM
 70
0
  9
$DIMTFAC
 40
1.0
  9
$DIMTP
 40
0.005
  9
$DIMTM
 40
0.005
  9
$PDMODE
 70
3
  9
$PDSIZE
 40
0.3125
  9
$HANDSEED
  5
7E3
  9
$TILEMODE
 70
1
  9
$MEASUREMENT
 70
0
  9
$INSUNITS
 70
1
  0
ENDSEC
  0
SECTION
  2
CLASSES
  0
CLASS
  1
ACDBDICTIONARYWDFLT
  2
AcDbDictionaryWithDefault
  3
AutoCAD 2000
 90
0
280
0
281
0
  0
CLASS
  1
ACDBPLACEHOLDER
  2
AcDbPlaceHolder
  3
AutoCAD 2000
 90
0
280
0
281
0
  0
CLASS
  1
LAYOUT
  2
AcDbLayout
  3
AutoCAD 2000
 90
0
280
0
281
0
  0
ENDSEC
  0
SECTION
  2
TABLES
  0
TABLE
  2
VPORT
  5
8
100
AcDbSymbolTable
 70
2
  0
VPORT
  5
1F4
100
AcDbSymbolTableRecord
100
AcDbViewportTableRecord
  2
*ACTIVE
 70
0
 10
0.0
 20
0.0
 11
1.0
 21
1.0
 12
8.5
 22
5.5
 13
0.0
 23
0.0
 14
1.0
 24
1.0
 15
0.0
 25
0.0
 16
0.0
 26
0.0
 36
1.0
 17
0.0
 27
0.0
 37
0.0
 40
11.0
 41
1.5454545455
 42
50.0
 43
0.0
 44
0.0
 50
0.0
 51
0.0
 71
0
 72
100
 73
1
 74
1
 75
0
 76
0
 77
0
 78
0
  0
ENDTAB
  0
TABLE
  2
LTYPE
  5
5
100
AcDbSymbolTable
 70
6
  0
LTYPE
  5
14
100
AcDbSymbolTableRecord
100
AcDbLinetypeTableRecord
  2
BYBLOCK
 70
0
  3

 72
65
 73
0
 40
0.0
  0
LTYPE
  5
15
100
AcDbSymbolTableRecord
100
AcDbLinetypeTableRecord
  2
BYLAYER
 70
0
  3

 72
65
 73
0
 40
0.0
  0
LTYPE
  5
16
100
AcDbSymbolTableRecord
100
AcDbLinetypeTableRecord
  2
CONTINUOUS
 70
64
  3
Solid line
 72
65
 73
0
 40
0.0
  0
LTYPE
  5
1F5
100
AcDbSymbolTableRecord
100
AcDbLinetypeTableRecord
  2
CENTER
 70
64
  3
____ _ ____ _ ____ _ ____ _ ____ _ ____ _ ____
 72
65
 73
4
 40
0.6
 49
0.375
 74
0
 49
-0.075
 74
0
 49
0.075
 74
0
 49
-0.075
 74
0
  0
LTYPE
  5
1F6
100
AcDbSymbolTableRecord
100
AcDbLinetypeTableRecord
  2
HIDDEN
 70
64
  3
- - - - - - - - - - - - - - - - - - - -
 72
65
 73
2
 40
0.2
 49
0.1
 74
0
 49
-0.1
 74
0
  0
LTYPE
  5
1F7
100
AcDbSymbolTableRecord
100
AcDbLinetypeTableRecord
  2
PHANTOM
 70
64
  3
_____ _ _ _____ _ _ _____ _ _ _____
 72
65
 73
6
 40
0.8
 49
0.45
 74
0
 49
-0.05
 74
0
 49
0.1
 74
0
 49
-0.05
 74
0
 49
0.1
 74
0
 49
-0.05
 74
0
  0
LTYPE
  5
1F8
100
AcDbSymbolTableRecord
100
AcDbLinetypeTableRecord
  2
DOT
 70
64
  3
. . . . . . . . . . . . . . . . . . . .
 72
65
 73
2
 40
0.2
 49
0.1
 74
0
 49
-0.1
 74
0
  0
LTYPE
  5
1F9
100
AcDbSymbolTableRecord
100
AcDbLinetypeTableRecord
  2
DASHED
 70
64
  3
- - - - - - - - - - - - - - - - - - - -
 72
65
 73
2
 40
0.2
 49
0.1
 74
0
 49
-0.1
 74
0
  0
ENDTAB
  0
TABLE
  2
LAYER
  5
2
100
AcDbSymbolTable
 70
36
  0
LAYER
  5
10
100
AcDbSymbolTableRecord
100
AcDbLayerTableRecord
  2
0
 70
0
 62
7
  6
CONTINUOUS
370
-3
390
F
  0
LAYER
  5
1FA
100
AcDbSymbolTableRecord
100
AcDbLayerTableRecord
  2
DEFAULT_1
 70
0
 62
7
  6
CENTER
370
-3
390
F
  0
LAYER
  5
1FB
100
AcDbSymbolTableRecord
100
AcDbLayerTableRecord
  2
DEFAULT_2
 70
0
 62
8
  6
HIDDEN
370
-3
390
F
  0
LAYER
  5
1FC
100
AcDbSymbolTableRecord
100
AcDbLayerTableRecord
  2
DEFAULT_3
 70
0
 62
7
  6
PHANTOM
370
-3
390
F
  0
LAYER
  5
1FD
100
AcDbSymbolTableRecord
100
AcDbLayerTableRecord
  2
01___PRT_ALL_DTM_PLN
 70
0
 62
7
  6
CONTINUOUS
370
-3
390
F
  0
LAYER
  5
1FE
100
AcDbSymbolTableRecord
100
AcDbLayerTableRecord
  2
01___PRT_DEF_DTM_PLN
 70
0
 62
7
  6
CONTINUOUS
370
-3
390
F
  0
LAYER
  5
1FF
100
AcDbSymbolTableRecord
100
AcDbLayerTableRecord
  2
02___PRT_ALL_AXES
 70
0
 62
7
  6
CONTINUOUS
370
-3
390
F
  0
LAYER
  5
200
100
AcDbSymbolTableRecord
100
AcDbLayerTableRecord
  2
03___PRT_ALL_CURVES
 70
0
 62
7
  6
CONTINUOUS
370
-3
390
F
  0
LAYER
  5
201
100
AcDbSymbolTableRecord
100
AcDbLayerTableRecord
  2
04___PRT_ALL_DTM_PNT
 70
0
 62
7
  6
CONTINUOUS
370
-3
390
F
  0
LAYER
  5
202
100
AcDbSymbolTableRecord
100
AcDbLayerTableRecord
  2
05___PRT_ALL_DTM_CSYS
 70
0
 62
7
  6
CONTINUOUS
370
-3
390
F
  0
LAYER
  5
203
100
AcDbSymbolTableRecord
100
AcDbLayerTableRecord
  2
05___PRT_DEF_DTM_CSYS
 70
0
 62
7
  6
CONTINUOUS
370
-3
390
F
  0
LAYER
  5
204
100
AcDbSymbolTableRecord
100
AcDbLayerTableRecord
  2
06___PRT_ALL_SURFS
 70
0
 62
7
  6
CONTINUOUS
370
-3
390
F
  0
LAYER
  5
205
100
AcDbSymbolTableRecord
100
AcDbLayerTableRecord
  2
1
 70
0
 62
7
  6
CONTINUOUS
370
-3
390
F
  0
LAYER
  5
206
100
AcDbSymbolTableRecord
100
AcDbLayerTableRecord
  2
10
 70
0
 62
7
  6
CONTINUOUS
370
-3
390
F
  0
LAYER
  5
207
100
AcDbSymbolTableRecord
100
AcDbLayerTableRecord
  2
11
 70
0
 62
7
  6
CONTINUOUS
370
-3
390
F
  0
LAYER
  5
208
100
AcDbSymbolTableRecord
100
AcDbLayerTableRecord
  2
12
 70
0
 62
7
  6
CONTINUOUS
370
-3
390
F
  0
LAYER
  5
209
100
AcDbSymbolTableRecord
100
AcDbLayerTableRecord
  2
13
 70
0
 62
7
  6
CONTINUOUS
370
-3
390
F
  0
LAYER
  5
20A
100
AcDbSymbolTableRecord
100
AcDbLayerTableRecord
  2
14
 70
0
 62
7
  6
CONTINUOUS
370
-3
390
F
  0
LAYER
  5
20B
100
AcDbSymbolTableRecord
100
AcDbLayerTableRecord
  2
15
 70
0
 62
7
  6
CONTINUOUS
370
-3
390
F
  0
LAYER
  5
20C
100
AcDbSymbolTableRecord
100
AcDbLayerTableRecord
  2
16
 70
0
 62
7
  6
CONTINUOUS
370
-3
390
F
  0
LAYER
  5
20D
100
AcDbSymbolTableRecord
100
AcDbLayerTableRecord
  2
17
 70
0
 62
7
  6
CONTINUOUS
370
-3
390
F
  0
LAYER
  5
20E
100
AcDbSymbolTableRecord
100
AcDbLayerTableRecord
  2
18
 70
0
 62
7
  6
CONTINUOUS
370
-3
390
F
  0
LAYER
  5
20F
100
AcDbSymbolTableRecord
100
AcDbLayerTableRecord
  2
19
 70
0
 62
7
  6
CONTINUOUS
370
-3
390
F
  0
LAYER
  5
210
100
AcDbSymbolTableRecord
100
AcDbLayerTableRecord
  2
2
 70
0
 62
7
  6
CONTINUOUS
370
-3
390
F
  0
LAYER
  5
211
100
AcDbSymbolTableRecord
100
AcDbLayerTableRecord
  2
20
 70
0
 62
7
  6
CONTINUOUS
370
-3
390
F
  0
LAYER
  5
212
100
AcDbSymbolTableRecord
100
AcDbLayerTableRecord
  2
21
 70
0
 62
7
  6
CONTINUOUS
370
-3
390
F
  0
LAYER
  5
213
100
AcDbSymbolTableRecord
100
AcDbLayerTableRecord
  2
22
 70
0
 62
7
  6
CONTINUOUS
370
-3
390
F
  0
LAYER
  5
214
100
AcDbSymbolTableRecord
100
AcDbLayerTableRecord
  2
23
 70
0
 62
7
  6
CONTINUOUS
370
-3
390
F
  0
LAYER
  5
215
100
AcDbSymbolTableRecord
100
AcDbLayerTableRecord
  2
24
 70
0
 62
7
  6
CONTINUOUS
370
-3
390
F
  0
LAYER
  5
216
100
AcDbSymbolTableRecord
100
AcDbLayerTableRecord
  2
25
 70
0
 62
7
  6
CONTINUOUS
370
-3
390
F
  0
LAYER
  5
217
100
AcDbSymbolTableRecord
100
AcDbLayerTableRecord
  2
26
 70
0
 62
7
  6
CONTINUOUS
370
-3
390
F
  0
LAYER
  5
218
100
AcDbSymbolTableRecord
100
AcDbLayerTableRecord
  2
27
 70
0
 62
7
  6
CONTINUOUS
370
-3
390
F
  0
LAYER
  5
219
100
AcDbSymbolTableRecord
100
AcDbLayerTableRecord
  2
28
 70
0
 62
7
  6
CONTINUOUS
370
-3
390
F
  0
LAYER
  5
21A
100
AcDbSymbolTableRecord
100
AcDbLayerTableRecord
  2
29
 70
0
 62
7
  6
CONTINUOUS
370
-3
390
F
  0
LAYER
  5
21B
100
AcDbSymbolTableRecord
100
AcDbLayerTableRecord
  2
3
 70
0
 62
7
  6
CONTINUOUS
370
-3
390
F
  0
LAYER
  5
21C
100
AcDbSymbolTableRecord
100
AcDbLayerTableRecord
  2
30
 70
0
 62
7
  6
CONTINUOUS
370
-3
390
F
  0
LAYER
  5
21D
100
AcDbSymbolTableRecord
100
AcDbLayerTableRecord
  2
31
 70
0
 62
7
  6
CONTINUOUS
370
-3
390
F
  0
LAYER
  5
21E
100
AcDbSymbolTableRecord
100
AcDbLayerTableRecord
  2
32
 70
0
 62
7
  6
CONTINUOUS
370
-3
390
F
  0
LAYER
  5
21F
100
AcDbSymbolTableRecord
100
AcDbLayerTableRecord
  2
4
 70
0
 62
7
  6
CONTINUOUS
370
-3
390
F
  0
LAYER
  5
220
100
AcDbSymbolTableRecord
100
AcDbLayerTableRecord
  2
5
 70
0
 62
7
  6
CONTINUOUS
370
-3
390
F
  0
LAYER
  5
221
100
AcDbSymbolTableRecord
100
AcDbLayerTableRecord
  2
6
 70
0
 62
7
  6
CONTINUOUS
370
-3
390
F
  0
LAYER
  5
222
100
AcDbSymbolTableRecord
100
AcDbLayerTableRecord
  2
7
 70
0
 62
7
  6
CONTINUOUS
370
-3
390
F
  0
LAYER
  5
223
100
AcDbSymbolTableRecord
100
AcDbLayerTableRecord
  2
8
 70
0
 62
7
  6
CONTINUOUS
370
-3
390
F
  0
LAYER
  5
224
100
AcDbSymbolTableRecord
100
AcDbLayerTableRecord
  2
9
 70
0
 62
7
  6
CONTINUOUS
370
-3
390
F
  0
LAYER
  5
225
100
AcDbSymbolTableRecord
100
AcDbLayerTableRecord
  2
AXIS
 70
0
 62
7
  6
CONTINUOUS
370
-3
390
F
  0
LAYER
  5
226
100
AcDbSymbolTableRecord
100
AcDbLayerTableRecord
  2
AXIS_COSMETIC_THREADS
 70
0
 62
7
  6
CONTINUOUS
370
-3
390
F
  0
LAYER
  5
227
100
AcDbSymbolTableRecord
100
AcDbLayerTableRecord
  2
DATUMS
 70
0
 62
7
  6
CONTINUOUS
370
-3
390
F
  0
LAYER
  5
228
100
AcDbSymbolTableRecord
100
AcDbLayerTableRecord
  2
DATUM_CURVES
 70
0
 62
7
  6
CONTINUOUS
370
-3
390
F
  0
LAYER
  5
229
100
AcDbSymbolTableRecord
100
AcDbLayerTableRecord
  2
DATUM_PLANES
 70
0
 62
7
  6
CONTINUOUS
370
-3
390
F
  0
LAYER
  5
22A
100
AcDbSymbolTableRecord
100
AcDbLayerTableRecord
  2
NOTES
 70
0
 62
7
  6
CONTINUOUS
370
-3
390
F
  0
LAYER
  5
22B
100
AcDbSymbolTableRecord
100
AcDbLayerTableRecord
  2
QUILTS
 70
0
 62
7
  6
CONTINUOUS
370
-3
390
F
  0
LAYER
  5
22C
100
AcDbSymbolTableRecord
100
AcDbLayerTableRecord
  2
SCHEME_DIMS
 70
0
 62
7
  6
CONTINUOUS
370
-3
390
F
  0
LAYER
  5
22D
100
AcDbSymbolTableRecord
100
AcDbLayerTableRecord
  2
SYMBOLS
 70
0
 62
7
  6
CONTINUOUS
370
-3
390
F
  0
ENDTAB
  0
TABLE
  2
STYLE
  5
3
100
AcDbSymbolTable
 70
1
  0
STYLE
  5
11
100
AcDbSymbolTableRecord
100
AcDbTextStyleTableRecord
  2
STANDARD
 70
0
 40
0.0
 41
1.0
 50
0.0
 71
0
 42
0.2
  3
txt
  4

  0
STYLE
  5
22E
100
AcDbSymbolTableRecord
100
AcDbTextStyleTableRecord
  2
TEXTSTYLE_1
 70
0
 40
0.0
 41
0.8
 50
0.0
 71
0
 42
0.2
  3
gdt
  4

  0
STYLE
  5
22F
100
AcDbSymbolTableRecord
100
AcDbTextStyleTableRecord
  2
TEXTSTYLE_2
 70
0
 40
0.0
 41
0.8
 50
0.0
 71
0
 42
0.2
  3
txt
  4

  0
STYLE
  5
230
100
AcDbSymbolTableRecord
100
AcDbTextStyleTableRecord
  2
TEXTSTYLE_3
 70
0
 40
0.0
 41
0.85
 50
0.0
 71
0
 42
0.2
  3
txt
  4

  0
STYLE
  5
231
100
AcDbSymbolTableRecord
100
AcDbTextStyleTableRecord
  2
TEXTSTYLE_4
 70
0
 40
0.0
 41
0.92
 50
0.0
 71
0
 42
0.2
  3
txt
  4

  0
STYLE
  5
232
100
AcDbSymbolTableRecord
100
AcDbTextStyleTableRecord
  2
TEXTSTYLE_5
 70
0
 40
0.0
 41
1.0
 50
0.0
 71
0
 42
0.2
  3
gdt
  4

  0
ENDTAB
  0
TABLE
  2
VIEW
  5
6
100
AcDbSymbolTable
 70
0
  0
ENDTAB
  0
TABLE
  2
UCS
  5
7
100
AcDbSymbolTable
 70
0
  0
ENDTAB
  0
TABLE
  2
APPID
  5
9
100
AcDbSymbolTable
 70
1
  0
APPID
  5
233
100
AcDbSymbolTableRecord
100
AcDbRegAppTableRecord
  2
ACAD
 70
0
  0
ENDTAB
  0
TABLE
  2
BLOCK_RECORD
  5
1
100
AcDbSymbolTable
 70
0
  0
BLOCK_RECORD
  5
234
100
AcDbSymbolTableRecord
100
AcDbBlockTableRecord
  2
*Model_Space
  0
BLOCK_RECORD
  5
235
100
AcDbSymbolTableRecord
100
AcDbBlockTableRecord
  2
*Paper_Space
  0
BLOCK_RECORD
  5
236
100
AcDbSymbolTableRecord
100
AcDbBlockTableRecord
  2
_FILLED
  0
BLOCK_RECORD
  5
237
100
AcDbSymbolTableRecord
100
AcDbBlockTableRecord
  2
*D0
  0
BLOCK_RECORD
  5
238
100
AcDbSymbolTableRecord
100
AcDbBlockTableRecord
  2
*D1
  0
BLOCK_RECORD
  5
239
100
AcDbSymbolTableRecord
100
AcDbBlockTableRecord
  2
*D2
  0
BLOCK_RECORD
  5
23A
100
AcDbSymbolTableRecord
100
AcDbBlockTableRecord
  2
*D3
  0
BLOCK_RECORD
  5
23B
100
AcDbSymbolTableRecord
100
AcDbBlockTableRecord
  2
*D4
  0
BLOCK_RECORD
  5
23C
100
AcDbSymbolTableRecord
100
AcDbBlockTableRecord
  2
BANNER_LOGO_TITLEBLOCK_BL0
  0
ENDTAB
  0
TABLE
  2
DIMSTYLE
  5
A
100
AcDbSymbolTable
 70
1
100
AcDbDimStyleTable
 71
0
  0
DIMSTYLE
105
23D
100
AcDbSymbolTableRecord
100
AcDbDimStyleTableRecord
  2
STANDARD
 70
0
  3

  4

 40
1.0
 41
0.1875
 42
0.0625
 43
0.38
 44
0.18
 45
0.0
 46
0.0
 47
0.005
 48
0.005
140
0.1
141
0.09
142
0.0
143
25.4
144
1.0
145
0.0
146
1.0
147
0.09
 71
1.0
 72
0.0
 73
1
 74
1
 75
0
 76
0
 77
0
 78
4
170
0
171
2
172
0
173
0
174
0
175
0
176
0
177
0
178
0
270
2
271
3
272
3
273
2
274
2
275
0
280
0
281
0
282
0
283
1
284
4
285
0
286
0
287
3
288
0
340
11
341
236
342
236
343
236
344
236
  0
DIMSTYLE
105
23E
100
AcDbSymbolTableRecord
100
AcDbDimStyleTableRecord
  2
DIMSTYLE_1
 70
0
  3

  4

 40
1.0
 41
0.1875
 42
0.0625
 43
0.38
 44
0.18
 45
0.0
 46
0.0
 47
0.1
 48
0.1
140
0.1
141
0.09
142
0.0
143
25.4
144
1.0
145
0.0
146
1.0
147
0.09
 71
0.0
 72
0.0
 73
1
 74
1
 75
0
 76
0
 77
0
 78
4
170
0
171
2
172
0
173
0
174
0
175
0
176
0
177
0
178
0
270
2
271
1
272
1
273
2
274
2
275
0
280
0
281
0
282
0
283
1
284
4
285
0
286
0
287
3
288
0
340
11
341
236
342
236
343
236
344
236
  0
ENDTAB
  0
ENDSEC
  0
SECTION
  2
BLOCKS
  0
BLOCK
  5
20
100
AcDbEntity
  8
0
100
AcDbBlockBegin
  2
*Model_Space
 70
0
 10
0.0
 20
0.0
 30
0.0
  3
*Model_Space
  1

  0
ENDBLK
  5
21
100
AcDbEntity
  8
0
100
AcDbBlockEnd
  0
BLOCK
  5
1C
100
AcDbEntity
  8
0
100
AcDbBlockBegin
  2
*Paper_Space
 70
0
 10
0.0
 20
0.0
 30
0.0
  3
*Paper_Space
  1

  0
ENDBLK
  5
1D
100
AcDbEntity
  8
0
100
AcDbBlockEnd
  0
BLOCK
  5
23F
100
AcDbEntity
  8
0
100
AcDbBlockBegin
 62
2
  6
CONTINUOUS
  2
BANNER_LOGO_TITLEBLOCK_BL0
 70
64
 10
12.9086867042
 20
2.5403783405
  3
BANNER_LOGO_TITLEBLOCK_BL0
  1

  0
ELLIPSE
  5
240
100
AcDbEntity
  8
0
100
AcDbEllipse
 62
2
  6
CONTINUOUS
 10
12.9046654608
 20
2.5403783405
 30
0.0
 11
-0.8250004575
 21
0.0
 31
0.0
 40
0.218572
 41
0.0
 42
6.2831853072
  0
ARC
  5
241
100
AcDbEntity
  8
0
100
AcDbCircle
 62
2
  6
CONTINUOUS
 10
12.400005721
 20
2.5168763464
 40
0.0153945295
100
AcDbArc
 50
354.0454548824
 51
5.1878013979
  0
ARC
  5
242
100
AcDbEntity
  8
0
100
AcDbCircle
 62
2
  6
CONTINUOUS
 10
12.3931760319
 20
2.5166878286
 40
0.0222174455
100
AcDbArc
 50
4.0793399388
 51
69.834329283
  0
LINE
  5
243
100
AcDbEntity
  8
0
100
AcDbLine
 62
2
  6
CONTINUOUS
 10
12.4008351814
 20
2.5375433389
 11
12.3907841758
 21
2.5410923409
  0
LINE
  5
244
100
AcDbEntity
  8
0
100
AcDbLine
 62
2
  6
CONTINUOUS
 10
12.3907841758
 20
2.5410923409
 11
12.3990241804
 21
2.5458683435
  0
ARC
  5
245
100
AcDbEntity
  8
0
100
AcDbCircle
 62
2
  6
CONTINUOUS
 10
12.3771587979
 20
2.5826952352
 40
0.0428289026
100
AcDbArc
 50
300.6990502959
 51
319.0591802498
  0
ARC
  5
246
100
AcDbEntity
  8
0
100
AcDbCircle
 62
2
  6
CONTINUOUS
 10
12.3971873948
 20
2.5665668817
 40
0.0171568255
100
AcDbArc
 50
315.9145124245
 51
16.0049121282
  0
ARC
  5
247
100
AcDbEntity
  8
0
100
AcDbCircle
 62
2
  6
CONTINUOUS
 10
12.3922357827
 20
2.5632132173
 40
0.0229166529
100
AcDbArc
 50
20.6563876465
 51
62.3316896973
  0
ARC
  5
248
100
AcDbEntity
  8
0
100
AcDbCircle
 62
2
  6
CONTINUOUS
 10
12.371573659
 20
2.5302846524
 40
0.061747717
100
AcDbArc
 50
59.5385584989
 51
90.0050977555
  0
LINE
  5
249
100
AcDbEntity
  8
0
100
AcDbLine
 62
2
  6
CONTINUOUS
 10
12.3715681652
 20
2.5920323691
 11
12.2055050731
 21
2.5920323691
  0
ARC
  5
24A
100
AcDbEntity
  8
0
100
AcDbCircle
 62
2
  6
CONTINUOUS
 10
12.2055050712
 20
2.5895573696
 40
0.0024749995
100
AcDbArc
 50
89.9999571957
 51
180.0000428043
  0
LINE
  5
24B
100
AcDbEntity
  8
0
100
AcDbLine
 62
2
  6
CONTINUOUS
 10
12.2030300717
 20
2.5895573678
 11
12.2030300717
 21
2.5697573568
  0
ARC
  5
24C
100
AcDbEntity
  8
0
100
AcDbCircle
 62
2
  6
CONTINUOUS
 10
12.2055050712
 20
2.5697573549
 40
0.0024749995
100
AcDbArc
 50
179.9999571957
 51
270.0000428043
  0
LINE
  5
24D
100
AcDbEntity
  8
0
100
AcDbLine
 62
2
  6
CONTINUOUS
 10
12.2055050731
 20
2.5672823554
 11
12.2294470864
 21
2.5672823554
  0
ARC
  5
24E
100
AcDbEntity
  8
0
100
AcDbCircle
 62
2
  6
CONTINUOUS
 10
12.2294470882
 20
2.5648073559
 40
0.0024749995
100
AcDbArc
 50
359.9999571957
 51
90.0000428043
  0
LINE
  5
24F
100
AcDbEntity
  8
0
100
AcDbLine
 62
2
  6
CONTINUOUS
 10
12.2319220877
 20
2.564807354
 11
12.2319220877
 21
2.5184523283
  0
ARC
  5
250
100
AcDbEntity
  8
0
100
AcDbCircle
 62
2
  6
CONTINUOUS
 10
12.2294470882
 20
2.5184523265
 40
0.0024749995
100
AcDbArc
 50
269.9999571957
 51
0.0000428043
  0
LINE
  5
251
100
AcDbEntity
  8
0
100
AcDbLine
 62
2
  6
CONTINUOUS
 10
12.2294470864
 20
2.515977327
 11
12.2055050731
 21
2.515977327
  0
ARC
  5
252
100
AcDbEntity
  8
0
100
AcDbCircle
 62
2
  6
CONTINUOUS
 10
12.2055050712
 20
2.5135023274
 40
0.0024749995
100
AcDbArc
 50
89.9999571957
 51
180.0000428043
  0
LINE
  5
253
100
AcDbEntity
  8
0
100
AcDbLine
 62
2
  6
CONTINUOUS
 10
12.2030300717
 20
2.5135023256
 11
12.2030300717
 21
2.4937023146
  0
ARC
  5
254
100
AcDbEntity
  8
0
100
AcDbCircle
 62
2
  6
CONTINUOUS
 10
12.2055050712
 20
2.4937023128
 40
0.0024749995
100
AcDbArc
 50
179.9999571957
 51
270.0000428043
  0
LINE
  5
255
100
AcDbEntity
  8
0
100
AcDbLine
 62
2
  6
CONTINUOUS
 10
12.2055050731
 20
2.4912273132
 11
12.3819511709
 21
2.4912273132
  0
ARC
  5
256
100
AcDbEntity
  8
0
100
AcDbCircle
 62
2
  6
CONTINUOUS
 10
12.3792298263
 20
2.539634765
 40
0.048483885
100
AcDbArc
 50
273.21763719
 51
303.0749121182
  0
ARC
  5
257
100
AcDbEntity
  8
0
100
AcDbCircle
 62
2
  6
CONTINUOUS
 10
12.3940692204
 20
2.5168671561
 40
0.0213072145
100
AcDbArc
 50
303.0488228549
 51
355.7263138674
  0
LINE
  5
258
100
AcDbEntity
  8
0
100
AcDbLine
 62
2
  6
CONTINUOUS
 10
12.2949101227
 20
2.5499573458
 11
12.3362731456
 21
2.5499573458
  0
ARC
  5
259
100
AcDbEntity
  8
0
100
AcDbCircle
 62
2
  6
CONTINUOUS
 10
12.3362731456
 20
2.5586198506
 40
0.0086625048
100
AcDbArc
 50
270.0
 51
90.0
  0
LINE
  5
25A
100
AcDbEntity
  8
0
100
AcDbLine
 62
2
  6
CONTINUOUS
 10
12.3362731456
 20
2.5672823554
 11
12.2949101227
 21
2.5672823554
  0
ARC
  5
25B
100
AcDbEntity
  8
0
100
AcDbCircle
 62
2
  6
CONTINUOUS
 10
12.2949101208
 20
2.5648073559
 40
0.0024749995
100
AcDbArc
 50
89.9999571957
 51
180.0000428043
  0
LINE
  5
25C
100
AcDbEntity
  8
0
100
AcDbLine
 62
2
  6
CONTINUOUS
 10
12.2924351213
 20
2.564807354
 11
12.2924351213
 21
2.5524323472
  0
ARC
  5
25D
100
AcDbEntity
  8
0
100
AcDbCircle
 62
2
  6
CONTINUOUS
 10
12.2949101208
 20
2.5524323453
 40
0.0024749995
100
AcDbArc
 50
179.9999571957
 51
270.0000428043
  0
LINE
  5
25E
100
AcDbEntity
  8
0
100
AcDbLine
 62
2
  6
CONTINUOUS
 10
12.2924351213
 20
2.5184523283
 11
12.2924351213
 21
2.5308273352
  0
ARC
  5
25F
100
AcDbEntity
  8
0
100
AcDbCircle
 62
2
  6
CONTINUOUS
 10
12.2949101208
 20
2.530827337
 40
0.0024749995
100
AcDbArc
 50
89.9999571957
 51
180.0000428043
  0
LINE
  5
260
100
AcDbEntity
  8
0
100
AcDbLine
 62
2
  6
CONTINUOUS
 10
12.2949101227
 20
2.5333023366
 11
12.3362731456
 21
2.5333023366
  0
ARC
  5
261
100
AcDbEntity
  8
0
100
AcDbCircle
 62
2
  6
CONTINUOUS
 10
12.3362731456
 20
2.5246398318
 40
0.0086625048
100
AcDbArc
 50
270.0
 51
90.0
  0
LINE
  5
262
100
AcDbEntity
  8
0
100
AcDbLine
 62
2
  6
CONTINUOUS
 10
12.3362731456
 20
2.515977327
 11
12.2949101227
 21
2.515977327
  0
ARC
  5
263
100
AcDbEntity
  8
0
100
AcDbCircle
 62
2
  6
CONTINUOUS
 10
12.2949101208
 20
2.5184523265
 40
0.0024749995
100
AcDbArc
 50
179.9999571957
 51
270.0000428043
  0
ARC
  5
264
100
AcDbEntity
  8
0
100
AcDbCircle
 62
2
  6
CONTINUOUS
 10
13.5806801742
 20
2.5212486481
 40
0.044722495
100
AcDbArc
 50
195.531588407
 51
204.7624440448
  0
LINE
  5
265
100
AcDbEntity
  8
0
100
AcDbLine
 62
2
  6
CONTINUOUS
 10
13.5375908118
 20
2.5092733232
 11
13.5357868108
 21
2.5153423266
  0
ARC
  5
266
100
AcDbEntity
  8
0
100
AcDbCircle
 62
2
  6
CONTINUOUS
 10
13.4974076135
 20
2.5055452462
 40
0.0396099176
100
AcDbArc
 50
14.3201081283
 51
22.4984722084
  0
ARC
  5
267
100
AcDbEntity
  8
0
100
AcDbCircle
 62
2
  6
CONTINUOUS
 10
13.5201739219
 20
2.5145168728
 40
0.0151491919
100
AcDbArc
 50
24.098260853
 51
63.0369451818
  0
ARC
  5
268
100
AcDbEntity
  8
0
100
AcDbCircle
 62
2
  6
CONTINUOUS
 10
13.5161192671
 20
2.5062372524
 40
0.0243676582
100
AcDbArc
 50
63.3666028271
 51
90.3937697637
  0
LINE
  5
269
100
AcDbEntity
  8
0
100
AcDbLine
 62
2
  6
CONTINUOUS
 10
13.5159517998
 20
2.5306043351
 11
13.4883447845
 21
2.5306043351
  0
ARC
  5
26A
100
AcDbEntity
  8
0
100
AcDbCircle
 62
2
  6
CONTINUOUS
 10
13.4883447827
 20
2.5281293355
 40
0.0024749995
100
AcDbArc
 50
89.9999571957
 51
180.0000428043
  0
LINE
  5
26B
100
AcDbEntity
  8
0
100
AcDbLine
 62
2
  6
CONTINUOUS
 10
13.4858697831
 20
2.5281293337
 11
13.4858697831
 21
2.5184303283
  0
ARC
  5
26C
100
AcDbEntity
  8
0
100
AcDbCircle
 62
2
  6
CONTINUOUS
 10
13.4883447827
 20
2.5184303265
 40
0.0024749995
100
AcDbArc
 50
179.9999571957
 51
270.0000428043
  0
LINE
  5
26D
100
AcDbEntity
  8
0
100
AcDbLine
 62
2
  6
CONTINUOUS
 10
13.4883447845
 20
2.5159553269
 11
13.5130037982
 21
2.5159553269
  0
ARC
  5
26E
100
AcDbEntity
  8
0
100
AcDbCircle
 62
2
  6
CONTINUOUS
 10
13.5130038
 20
2.5134803274
 40
0.0024749995
100
AcDbArc
 50
359.9999571957
 51
90.0000428043
  0
LINE
  5
26F
100
AcDbEntity
  8
0
100
AcDbLine
 62
2
  6
CONTINUOUS
 10
13.5154787995
 20
2.5134803256
 11
13.5154787995
 21
2.4937023146
  0
ARC
  5
270
100
AcDbEntity
  8
0
100
AcDbCircle
 62
2
  6
CONTINUOUS
 10
13.5130038
 20
2.4937023128
 40
0.0024749995
100
AcDbArc
 50
269.9999571957
 51
0.0000428043
  0
LINE
  5
271
100
AcDbEntity
  8
0
100
AcDbLine
 62
2
  6
CONTINUOUS
 10
13.5130037982
 20
2.4912273132
 11
13.3994327352
 21
2.4912273132
  0
ARC
  5
272
100
AcDbEntity
  8
0
100
AcDbCircle
 62
2
  6
CONTINUOUS
 10
13.3994327333
 20
2.4937023128
 40
0.0024749995
100
AcDbArc
 50
179.9999571957
 51
270.0000428043
  0
LINE
  5
273
100
AcDbEntity
  8
0
100
AcDbLine
 62
2
  6
CONTINUOUS
 10
13.3969577338
 20
2.4937023146
 11
13.3969577338
 21
2.5135023256
  0
ARC
  5
274
100
AcDbEntity
  8
0
100
AcDbCircle
 62
2
  6
CONTINUOUS
 10
13.3994327333
 20
2.5135023274
 40
0.0024749995
100
AcDbArc
 50
89.9999571957
 51
180.0000428043
  0
LINE
  5
275
100
AcDbEntity
  8
0
100
AcDbLine
 62
2
  6
CONTINUOUS
 10
13.3994327352
 20
2.515977327
 11
13.4221787478
 21
2.515977327
  0
ARC
  5
276
100
AcDbEntity
  8
0
100
AcDbCircle
 62
2
  6
CONTINUOUS
 10
13.4221787497
 20
2.5184523265
 40
0.0024749995
100
AcDbArc
 50
269.9999571957
 51
0.0000428042
  0
LINE
  5
277
100
AcDbEntity
  8
0
100
AcDbLine
 62
2
  6
CONTINUOUS
 10
13.4246537492
 20
2.5184523283
 11
13.4246537492
 21
2.564807354
  0
ARC
  5
278
100
AcDbEntity
  8
0
100
AcDbCircle
 62
2
  6
CONTINUOUS
 10
13.4221787497
 20
2.5648073559
 40
0.0024749995
100
AcDbArc
 50
359.9999571957
 51
90.0000428043
  0
LINE
  5
279
100
AcDbEntity
  8
0
100
AcDbLine
 62
2
  6
CONTINUOUS
 10
13.4221787478
 20
2.5672823554
 11
13.3994327352
 21
2.5672823554
  0
ARC
  5
27A
100
AcDbEntity
  8
0
100
AcDbCircle
 62
2
  6
CONTINUOUS
 10
13.3994327333
 20
2.5697573549
 40
0.0024749995
100
AcDbArc
 50
179.9999571957
 51
270.0000428043
  0
LINE
  5
27B
100
AcDbEntity
  8
0
100
AcDbLine
 62
2
  6
CONTINUOUS
 10
13.3969577338
 20
2.5697573568
 11
13.3969577338
 21
2.5895573678
  0
ARC
  5
27C
100
AcDbEntity
  8
0
100
AcDbCircle
 62
2
  6
CONTINUOUS
 10
13.3994327333
 20
2.5895573696
 40
0.0024749995
100
AcDbArc
 50
89.9999571957
 51
180.0000428043
  0
LINE
  5
27D
100
AcDbEntity
  8
0
100
AcDbLine
 62
2
  6
CONTINUOUS
 10
13.3994327352
 20
2.5920323691
 11
13.5490138181
 21
2.5920323691
  0
ARC
  5
27E
100
AcDbEntity
  8
0
100
AcDbCircle
 62
2
  6
CONTINUOUS
 10
13.5463505148
 20
2.4094934586
 40
0.1825583387
100
AcDbArc
 50
79.8618509324
 51
89.1640948679
  0
ARC
  5
27F
100
AcDbEntity
  8
0
100
AcDbCircle
 62
2
  6
CONTINUOUS
 10
13.5726548052
 20
2.5503169747
 40
0.039319019
100
AcDbArc
 50
59.1202086415
 51
81.4730239328
  0
ARC
  5
280
100
AcDbEntity
  8
0
100
AcDbCircle
 62
2
  6
CONTINUOUS
 10
13.5783142014
 20
2.5566516438
 40
0.0310192946
100
AcDbArc
 50
34.7540871
 51
62.0879016178
  0
ARC
  5
281
100
AcDbEntity
  8
0
100
AcDbCircle
 62
2
  6
CONTINUOUS
 10
13.5900029525
 20
2.565201245
 40
0.0165459396
100
AcDbArc
 50
1.548452892
 51
33.5033152417
  0
ARC
  5
282
100
AcDbEntity
  8
0
100
AcDbCircle
 62
2
  6
CONTINUOUS
 10
13.5932995477
 20
2.5653696972
 40
0.0132462337
100
AcDbArc
 50
331.1510006998
 51
1.205404301
  0
ARC
  5
283
100
AcDbEntity
  8
0
100
AcDbCircle
 62
2
  6
CONTINUOUS
 10
13.5822888914
 20
2.5720482849
 40
0.0261183659
100
AcDbArc
 50
305.6373831893
 51
329.9727629745
  0
ARC
  5
284
100
AcDbEntity
  8
0
100
AcDbCircle
 62
2
  6
CONTINUOUS
 10
13.5519569538
 20
2.6152551345
 40
0.0789082104
100
AcDbArc
 50
292.906155071
 51
305.2574666259
  0
ARC
  5
285
100
AcDbEntity
  8
0
100
AcDbCircle
 62
2
  6
CONTINUOUS
 10
13.5282557878
 20
2.4386010294
 40
0.117346916
100
AcDbArc
 50
58.614769177
 51
62.3737227606
  0
ARC
  5
286
100
AcDbEntity
  8
0
100
AcDbCircle
 62
2
  6
CONTINUOUS
 10
13.5761387404
 20
2.5167282896
 40
0.0257145923
100
AcDbArc
 50
39.3804255939
 51
59.0361096173
  0
ARC
  5
287
100
AcDbEntity
  8
0
100
AcDbCircle
 62
2
  6
CONTINUOUS
 10
13.5750183849
 20
2.5166552064
 40
0.0266349791
100
AcDbArc
 50
20.3630922153
 51
37.9727053099
  0
ARC
  5
288
100
AcDbEntity
  8
0
100
AcDbCircle
 62
2
  6
CONTINUOUS
 10
13.5571178432
 20
2.509473798
 40
0.0459185159
100
AcDbArc
 50
15.6740290068
 51
20.9917271228
  0
ARC
  5
289
100
AcDbEntity
  8
0
100
AcDbCircle
 62
2
  6
CONTINUOUS
 10
13.6156881783
 20
2.525116781
 40
0.0147197649
100
AcDbArc
 50
192.7054516565
 51
206.0594861022
  0
ARC
  5
28A
100
AcDbEntity
  8
0
100
AcDbCircle
 62
2
  6
CONTINUOUS
 10
13.6071938412
 20
2.5209082945
 40
0.0052403997
100
AcDbArc
 50
205.5232099488
 51
227.5054868079
  0
ARC
  5
28B
100
AcDbEntity
  8
0
100
AcDbCircle
 62
2
  6
CONTINUOUS
 10
13.6054655419
 20
2.5190929218
 40
0.0027347709
100
AcDbArc
 50
228.5117626737
 51
266.1485845754
  0
LINE
  5
28C
100
AcDbEntity
  8
0
100
AcDbLine
 62
2
  6
CONTINUOUS
 10
13.6052818493
 20
2.5163643272
 11
13.60639085
 21
2.5163643272
  0
ARC
  5
28D
100
AcDbEntity
  8
0
100
AcDbCircle
 62
2
  6
CONTINUOUS
 10
13.6063292954
 20
2.5296129864
 40
0.0132488022
100
AcDbArc
 50
270.266200055
 51
281.2404888597
  0
ARC
  5
28E
100
AcDbEntity
  8
0
100
AcDbCircle
 62
2
  6
CONTINUOUS
 10
13.6075235364
 20
2.5238762928
 40
0.0073895522
100
AcDbArc
 50
280.8288201977
 51
305.0837508495
  0
ARC
  5
28F
100
AcDbEntity
  8
0
100
AcDbCircle
 62
2
  6
CONTINUOUS
 10
13.607924718
 20
2.5230254464
 40
0.0064647042
100
AcDbArc
 50
306.5086174083
 51
340.2162360092
  0
ARC
  5
290
100
AcDbEntity
  8
0
100
AcDbCircle
 62
2
  6
CONTINUOUS
 10
13.6027235414
 20
2.524769508
 40
0.0119498009
100
AcDbArc
 50
340.7883861657
 51
1.1691452593
  0
LINE
  5
291
100
AcDbEntity
  8
0
100
AcDbLine
 62
2
  6
CONTINUOUS
 10
13.6146708546
 20
2.525013332
 11
13.6146708546
 21
2.5276393334
  0
ARC
  5
292
100
AcDbEntity
  8
0
100
AcDbCircle
 62
2
  6
CONTINUOUS
 10
13.6171458541
 20
2.5276393353
 40
0.0024749995
100
AcDbArc
 50
89.9999571957
 51
180.0000428043
  0
LINE
  5
293
100
AcDbEntity
  8
0
100
AcDbLine
 62
2
  6
CONTINUOUS
 10
13.6171458559
 20
2.5301143348
 11
13.6292558626
 21
2.5301143348
  0
ARC
  5
294
100
AcDbEntity
  8
0
100
AcDbCircle
 62
2
  6
CONTINUOUS
 10
13.6292558645
 20
2.5276393353
 40
0.0024749995
100
AcDbArc
 50
359.9999571957
 51
90.0000428043
  0
LINE
  5
295
100
AcDbEntity
  8
0
100
AcDbLine
 62
2
  6
CONTINUOUS
 10
13.631730864
 20
2.5276393334
 11
13.631730864
 21
2.516087327
  0
ARC
  5
296
100
AcDbEntity
  8
0
100
AcDbCircle
 62
2
  6
CONTINUOUS
 10
13.6141751675
 20
2.5161916447
 40
0.0175560065
100
AcDbArc
 50
332.2279060967
 51
359.6595469939
  0
ARC
  5
297
100
AcDbEntity
  8
0
100
AcDbCircle
 62
2
  6
CONTINUOUS
 10
13.6048681567
 20
2.5210861501
 40
0.0280715479
100
AcDbArc
 50
308.5071794988
 51
332.2400656899
  0
ARC
  5
298
100
AcDbEntity
  8
0
100
AcDbCircle
 62
2
  6
CONTINUOUS
 10
13.5978759713
 20
2.5286873679
 40
0.0383802683
100
AcDbArc
 50
288.7656836787
 51
309.6104317088
  0
ARC
  5
299
100
AcDbEntity
  8
0
100
AcDbCircle
 62
2
  6
CONTINUOUS
 10
13.6036139387
 20
2.5111006186
 40
0.0198837666
100
AcDbArc
 50
271.8586572978
 51
289.4131338543
  0
LINE
  5
29A
100
AcDbEntity
  8
0
100
AcDbLine
 62
2
  6
CONTINUOUS
 10
13.6042588488
 20
2.4912273132
 11
13.5568948225
 21
2.4912273132
  0
ARC
  5
29B
100
AcDbEntity
  8
0
100
AcDbCircle
 62
2
  6
CONTINUOUS
 10
13.5577001432
 20
2.5085494649
 40
0.0173408616
100
AcDbArc
 50
232.4713476722
 51
267.338189944
  0
ARC
  5
29C
100
AcDbEntity
  8
0
100
AcDbCircle
 62
2
  6
CONTINUOUS
 10
13.5607987082
 20
2.5143997688
 40
0.0238935861
100
AcDbArc
 50
209.8247607259
 51
235.1255079367
  0
ARC
  5
29D
100
AcDbEntity
  8
0
100
AcDbCircle
 62
2
  6
CONTINUOUS
 10
13.5295131508
 20
2.5629115009
 40
0.0110815393
100
AcDbArc
 50
306.758405961
 51
320.4502234234
  0
ARC
  5
29E
100
AcDbEntity
  8
0
100
AcDbCircle
 62
2
  6
CONTINUOUS
 10
13.5238839599
 20
2.5706523294
 40
0.0206523367
100
AcDbArc
 50
289.6883413472
 51
306.4184925496
  0
ARC
  5
29F
100
AcDbEntity
  8
0
100
AcDbCircle
 62
2
  6
CONTINUOUS
 10
13.5219564542
 20
2.5750459767
 40
0.0254407115
100
AcDbArc
 50
270.7327484175
 51
290.441894219
  0
LINE
  5
2A0
100
AcDbEntity
  8
0
100
AcDbLine
 62
2
  6
CONTINUOUS
 10
13.5222818033
 20
2.5496073456
 11
13.4883447845
 21
2.5496073456
  0
ARC
  5
2A1
100
AcDbEntity
  8
0
100
AcDbCircle
 62
2
  6
CONTINUOUS
 10
13.4883447827
 20
2.5520823451
 40
0.0024749995
100
AcDbArc
 50
179.9999571957
 51
270.0000428043
  0
LINE
  5
2A2
100
AcDbEntity
  8
0
100
AcDbLine
 62
2
  6
CONTINUOUS
 10
13.4858697831
 20
2.552082347
 11
13.4858697831
 21
2.564807354
  0
ARC
  5
2A3
100
AcDbEntity
  8
0
100
AcDbCircle
 62
2
  6
CONTINUOUS
 10
13.4883447827
 20
2.5648073559
 40
0.0024749995
100
AcDbArc
 50
89.9999571957
 51
180.0000428043
  0
LINE
  5
2A4
100
AcDbEntity
  8
0
100
AcDbLine
 62
2
  6
CONTINUOUS
 10
13.4883447845
 20
2.5672823554
 11
13.5251458049
 21
2.5672823554
  0
ARC
  5
2A5
100
AcDbEntity
  8
0
100
AcDbCircle
 62
2
  6
CONTINUOUS
 10
13.5236009174
 20
2.5388278764
 40
0.0284963867
100
AcDbArc
 50
70.3834917948
 51
86.8922743861
  0
ARC
  5
2A6
100
AcDbEntity
  8
0
100
AcDbCircle
 62
2
  6
CONTINUOUS
 10
13.5284605274
 20
2.5518696094
 40
0.0145814632
100
AcDbArc
 50
54.6746025112
 51
71.1660573124
  0
ARC
  5
2A7
100
AcDbEntity
  8
0
100
AcDbCircle
 62
2
  6
CONTINUOUS
 10
13.5335900184
 20
2.5587235346
 40
0.0060275915
100
AcDbArc
 50
20.9055592135
 51
56.7851676243
  0
ARC
  5
2A8
100
AcDbEntity
  8
0
100
AcDbCircle
 62
2
  6
CONTINUOUS
 10
13.5348905773
 20
2.5593838168
 40
0.0045795888
100
AcDbArc
 50
355.6235353944
 51
18.9942678268
  0
ARC
  5
2A9
100
AcDbEntity
  8
0
100
AcDbCircle
 62
2
  6
CONTINUOUS
 10
13.533683767
 20
2.559677593
 40
0.0058087709
100
AcDbArc
 50
318.8515287446
 51
353.6422345323
  0
LINE
  5
2AA
100
AcDbEntity
  8
0
100
AcDbLine
 62
2
  6
CONTINUOUS
 10
12.672340332
 20
2.5920323691
 11
12.7727983877
 21
2.5920323691
  0
ARC
  5
2AB
100
AcDbEntity
  8
0
100
AcDbCircle
 62
2
  6
CONTINUOUS
 10
12.7727985224
 20
2.5895582013
 40
0.0024741678
100
AcDbArc
 50
46.3477981899
 51
90.0031206038
  0
LINE
  5
2AC
100
AcDbEntity
  8
0
100
AcDbLine
 62
2
  6
CONTINUOUS
 10
12.7745063886
 20
2.5913483688
 11
12.8345394219
 21
2.534068337
  0
ARC
  5
2AD
100
AcDbEntity
  8
0
100
AcDbCircle
 62
2
  6
CONTINUOUS
 10
12.8362481229
 20
2.5358592748
 40
0.0024753014
100
AcDbArc
 50
226.3461263059
 51
0.0014637321
  0
LINE
  5
2AE
100
AcDbEntity
  8
0
100
AcDbLine
 62
2
  6
CONTINUOUS
 10
12.8387234242
 20
2.535859338
 11
12.8387234242
 21
2.564807354
  0
ARC
  5
2AF
100
AcDbEntity
  8
0
100
AcDbCircle
 62
2
  6
CONTINUOUS
 10
12.8362484247
 20
2.5648073559
 40
0.0024749995
100
AcDbArc
 50
359.9999571957
 51
90.0000428043
  0
LINE
  5
2B0
100
AcDbEntity
  8
0
100
AcDbLine
 62
2
  6
CONTINUOUS
 10
12.8362484229
 20
2.5672823554
 11
12.8174724125
 21
2.5672823554
  0
ARC
  5
2B1
100
AcDbEntity
  8
0
100
AcDbCircle
 62
2
  6
CONTINUOUS
 10
12.8174724106
 20
2.5697573549
 40
0.0024749995
100
AcDbArc
 50
179.9999571957
 51
270.0000428043
  0
LINE
  5
2B2
100
AcDbEntity
  8
0
100
AcDbLine
 62
2
  6
CONTINUOUS
 10
12.8149974111
 20
2.5697573568
 11
12.8149974111
 21
2.5895573678
  0
ARC
  5
2B3
100
AcDbEntity
  8
0
100
AcDbCircle
 62
2
  6
CONTINUOUS
 10
12.8174724106
 20
2.5895573696
 40
0.0024749995
100
AcDbArc
 50
89.9999571957
 51
180.0000428043
  0
LINE
  5
2B4
100
AcDbEntity
  8
0
100
AcDbLine
 62
2
  6
CONTINUOUS
 10
12.8174724125
 20
2.5920323691
 11
12.8914734535
 21
2.5920323691
  0
ARC
  5
2B5
100
AcDbEntity
  8
0
100
AcDbCircle
 62
2
  6
CONTINUOUS
 10
12.8914734553
 20
2.5895573696
 40
0.0024749995
100
AcDbArc
 50
359.9999571957
 51
90.0000428043
  0
LINE
  5
2B6
100
AcDbEntity
  8
0
100
AcDbLine
 62
2
  6
CONTINUOUS
 10
12.8939484549
 20
2.5895573678
 11
12.8939484549
 21
2.5697573568
  0
ARC
  5
2B7
100
AcDbEntity
  8
0
100
AcDbCircle
 62
2
  6
CONTINUOUS
 10
12.8914734553
 20
2.5697573549
 40
0.0024749995
100
AcDbArc
 50
269.9999571957
 51
0.0000428043
  0
LINE
  5
2B8
100
AcDbEntity
  8
0
100
AcDbLine
 62
2
  6
CONTINUOUS
 10
12.8914734535
 20
2.5672823554
 11
12.8735404436
 21
2.5672823554
  0
ARC
  5
2B9
100
AcDbEntity
  8
0
100
AcDbCircle
 62
2
  6
CONTINUOUS
 10
12.8735404417
 20
2.5648073559
 40
0.0024749995
100
AcDbArc
 50
89.9999571957
 51
180.0000428043
  0
LINE
  5
2BA
100
AcDbEntity
  8
0
100
AcDbLine
 62
2
  6
CONTINUOUS
 10
12.8710654422
 20
2.564807354
 11
12.8710654422
 21
2.4937023146
  0
ARC
  5
2BB
100
AcDbEntity
  8
0
100
AcDbCircle
 62
2
  6
CONTINUOUS
 10
12.8685904427
 20
2.4937023128
 40
0.0024749995
100
AcDbArc
 50
269.9999571957
 51
0.0000428043
  0
LINE
  5
2BC
100
AcDbEntity
  8
0
100
AcDbLine
 62
2
  6
CONTINUOUS
 10
12.8685904408
 20
2.4912273132
 11
12.7943853997
 21
2.4912273132
  0
ARC
  5
2BD
100
AcDbEntity
  8
0
100
AcDbCircle
 62
2
  6
CONTINUOUS
 10
12.7943847649
 20
2.4937027294
 40
0.0024754162
100
AcDbArc
 50
226.3593695813
 51
270.0146919953
  0
LINE
  5
2BE
100
AcDbEntity
  8
0
100
AcDbLine
 62
2
  6
CONTINUOUS
 10
12.7926763987
 20
2.4919113136
 11
12.7293963636
 21
2.5522893471
  0
ARC
  5
2BF
100
AcDbEntity
  8
0
100
AcDbCircle
 62
2
  6
CONTINUOUS
 10
12.7276876627
 20
2.5504984093
 40
0.0024753014
100
AcDbArc
 50
46.3461263059
 51
180.0014637321
  0
LINE
  5
2C0
100
AcDbEntity
  8
0
100
AcDbLine
 62
2
  6
CONTINUOUS
 10
12.7252123613
 20
2.5504983461
 11
12.7252123613
 21
2.5184523283
  0
ARC
  5
2C1
100
AcDbEntity
  8
0
100
AcDbCircle
 62
2
  6
CONTINUOUS
 10
12.7276873608
 20
2.5184523265
 40
0.0024749995
100
AcDbArc
 50
179.9999571957
 51
270.0000428043
  0
LINE
  5
2C2
100
AcDbEntity
  8
0
100
AcDbLine
 62
2
  6
CONTINUOUS
 10
12.7276873627
 20
2.515977327
 11
12.7480043739
 21
2.515977327
  0
ARC
  5
2C3
100
AcDbEntity
  8
0
100
AcDbCircle
 62
2
  6
CONTINUOUS
 10
12.7480043758
 20
2.5135023274
 40
0.0024749995
100
AcDbArc
 50
359.9999571957
 51
90.0000428043
  0
LINE
  5
2C4
100
AcDbEntity
  8
0
100
AcDbLine
 62
2
  6
CONTINUOUS
 10
12.7504793753
 20
2.5135023256
 11
12.7504793753
 21
2.4937023146
  0
ARC
  5
2C5
100
AcDbEntity
  8
0
100
AcDbCircle
 62
2
  6
CONTINUOUS
 10
12.7480043758
 20
2.4937023128
 40
0.0024749995
100
AcDbArc
 50
269.9999571957
 51
0.0000428043
  0
LINE
  5
2C6
100
AcDbEntity
  8
0
100
AcDbLine
 62
2
  6
CONTINUOUS
 10
12.7480043739
 20
2.4912273132
 11
12.672340332
 21
2.4912273132
  0
ARC
  5
2C7
100
AcDbEntity
  8
0
100
AcDbCircle
 62
2
  6
CONTINUOUS
 10
12.6723403301
 20
2.4937023128
 40
0.0024749995
100
AcDbArc
 50
179.9999571957
 51
270.0000428043
  0
LINE
  5
2C8
100
AcDbEntity
  8
0
100
AcDbLine
 62
2
  6
CONTINUOUS
 10
12.6698653306
 20
2.4937023146
 11
12.6698653306
 21
2.5135023256
  0
ARC
  5
2C9
100
AcDbEntity
  8
0
100
AcDbCircle
 62
2
  6
CONTINUOUS
 10
12.6723403301
 20
2.5135023274
 40
0.0024749995
100
AcDbArc
 50
89.9999571957
 51
180.0000428043
  0
LINE
  5
2CA
100
AcDbEntity
  8
0
100
AcDbLine
 62
2
  6
CONTINUOUS
 10
12.672340332
 20
2.515977327
 11
12.6909873423
 21
2.515977327
  0
ARC
  5
2CB
100
AcDbEntity
  8
0
100
AcDbCircle
 62
2
  6
CONTINUOUS
 10
12.6909873442
 20
2.5184523265
 40
0.0024749995
100
AcDbArc
 50
269.9999571957
 51
0.0000428043
  0
LINE
  5
2CC
100
AcDbEntity
  8
0
100
AcDbLine
 62
2
  6
CONTINUOUS
 10
12.6934623437
 20
2.5184523283
 11
12.6934623437
 21
2.564807354
  0
ARC
  5
2CD
100
AcDbEntity
  8
0
100
AcDbCircle
 62
2
  6
CONTINUOUS
 10
12.6909873442
 20
2.5648073559
 40
0.0024749995
100
AcDbArc
 50
359.9999571957
 51
90.0000428043
  0
LINE
  5
2CE
100
AcDbEntity
  8
0
100
AcDbLine
 62
2
  6
CONTINUOUS
 10
12.6909873423
 20
2.5672823554
 11
12.672340332
 21
2.5672823554
  0
ARC
  5
2CF
100
AcDbEntity
  8
0
100
AcDbCircle
 62
2
  6
CONTINUOUS
 10
12.6723403301
 20
2.5697573549
 40
0.0024749995
100
AcDbArc
 50
179.9999571957
 51
270.0000428043
  0
LINE
  5
2D0
100
AcDbEntity
  8
0
100
AcDbLine
 62
2
  6
CONTINUOUS
 10
12.6698653306
 20
2.5697573568
 11
12.6698653306
 21
2.5895573678
  0
ARC
  5
2D1
100
AcDbEntity
  8
0
100
AcDbCircle
 62
2
  6
CONTINUOUS
 10
12.6723403301
 20
2.5895573696
 40
0.0024749995
100
AcDbArc
 50
89.9999571957
 51
180.0000428043
  0
LINE
  5
2D2
100
AcDbEntity
  8
0
100
AcDbLine
 62
2
  6
CONTINUOUS
 10
12.5246402501
 20
2.5655893545
 11
12.5175232461
 21
2.5543723483
  0
ARC
  5
2D3
100
AcDbEntity
  8
0
100
AcDbCircle
 62
2
  6
CONTINUOUS
 10
12.519613138
 20
2.5530463862
 40
0.0024750401
100
AcDbArc
 50
147.6063258012
 51
270.0025305754
  0
LINE
  5
2D4
100
AcDbEntity
  8
0
100
AcDbLine
 62
2
  6
CONTINUOUS
 10
12.5196132473
 20
2.5505713461
 11
12.5401702587
 21
2.5505713461
  0
ARC
  5
2D5
100
AcDbEntity
  8
0
100
AcDbCircle
 62
2
  6
CONTINUOUS
 10
12.5401702375
 20
2.5530465533
 40
0.0024752071
100
AcDbArc
 50
270.0004896793
 51
32.9089806818
  0
LINE
  5
2D6
100
AcDbEntity
  8
0
100
AcDbLine
 62
2
  6
CONTINUOUS
 10
12.5422482598
 20
2.5543913483
 11
12.5349892558
 21
2.5656073545
  0
ARC
  5
2D7
100
AcDbEntity
  8
0
100
AcDbCircle
 62
2
  6
CONTINUOUS
 10
12.532910715
 20
2.564262895
 40
0.0024754602
100
AcDbArc
 50
32.8959418573
 51
89.9875097202
  0
LINE
  5
2D8
100
AcDbEntity
  8
0
100
AcDbLine
 62
2
  6
CONTINUOUS
 10
12.5329112547
 20
2.5667383551
 11
12.5267302512
 21
2.5667383551
  0
ARC
  5
2D9
100
AcDbEntity
  8
0
100
AcDbCircle
 62
2
  6
CONTINUOUS
 10
12.5267301809
 20
2.5642631548
 40
0.0024752003
100
AcDbArc
 50
89.998372645
 51
147.602165307
  0
LINE
  5
2DA
100
AcDbEntity
  8
0
100
AcDbLine
 62
2
  6
CONTINUOUS
 10
12.548053263
 20
2.5284903339
 11
12.5536792662
 21
2.5197973291
  0
ARC
  5
2DB
100
AcDbEntity
  8
0
100
AcDbCircle
 62
2
  6
CONTINUOUS
 10
12.5516012439
 20
2.5184525341
 40
0.0024752071
100
AcDbArc
 50
270.0004896794
 51
32.9089806818
  0
LINE
  5
2DC
100
AcDbEntity
  8
0
100
AcDbLine
 62
2
  6
CONTINUOUS
 10
12.551601265
 20
2.515977327
 11
12.537150257
 21
2.515977327
  0
ARC
  5
2DD
100
AcDbEntity
  8
0
100
AcDbCircle
 62
2
  6
CONTINUOUS
 10
12.5371502552
 20
2.5135023274
 40
0.0024749995
100
AcDbArc
 50
89.9999571957
 51
180.0000428043
  0
LINE
  5
2DE
100
AcDbEntity
  8
0
100
AcDbLine
 62
2
  6
CONTINUOUS
 10
12.5346752556
 20
2.5135023256
 11
12.5346752556
 21
2.4937023146
  0
ARC
  5
2DF
100
AcDbEntity
  8
0
100
AcDbCircle
 62
2
  6
CONTINUOUS
 10
12.5371502552
 20
2.4937023128
 40
0.0024749995
100
AcDbArc
 50
179.9999571957
 51
270.0000428043
  0
LINE
  5
2E0
100
AcDbEntity
  8
0
100
AcDbLine
 62
2
  6
CONTINUOUS
 10
12.537150257
 20
2.4912273132
 11
12.6424313154
 21
2.4912273132
  0
ARC
  5
2E1
100
AcDbEntity
  8
0
100
AcDbCircle
 62
2
  6
CONTINUOUS
 10
12.6424313172
 20
2.4937023128
 40
0.0024749995
100
AcDbArc
 50
269.9999571957
 51
0.0000428043
  0
LINE
  5
2E2
100
AcDbEntity
  8
0
100
AcDbLine
 62
2
  6
CONTINUOUS
 10
12.6449063168
 20
2.4937023146
 11
12.6449063168
 21
2.5135023256
  0
ARC
  5
2E3
100
AcDbEntity
  8
0
100
AcDbCircle
 62
2
  6
CONTINUOUS
 10
12.6424313172
 20
2.5135023274
 40
0.0024749995
100
AcDbArc
 50
359.9999571957
 51
90.0000428043
  0
LINE
  5
2E4
100
AcDbEntity
  8
0
100
AcDbLine
 62
2
  6
CONTINUOUS
 10
12.6424313154
 20
2.515977327
 11
12.6224153043
 21
2.515977327
  0
ARC
  5
2E5
100
AcDbEntity
  8
0
100
AcDbCircle
 62
2
  6
CONTINUOUS
 10
12.6224154248
 20
2.518451368
 40
0.002474041
100
AcDbArc
 50
212.9056413127
 51
269.9972091756
  0
LINE
  5
2E6
100
AcDbEntity
  8
0
100
AcDbLine
 62
2
  6
CONTINUOUS
 10
12.6203383031
 20
2.5171073276
 11
12.5725822767
 21
2.5909023685
  0
ARC
  5
2E7
100
AcDbEntity
  8
0
100
AcDbCircle
 62
2
  6
CONTINUOUS
 10
12.570504655
 20
2.589557409
 40
0.0024749602
100
AcDbArc
 50
32.9172174468
 51
90.0087853097
  0
LINE
  5
2E8
100
AcDbEntity
  8
0
100
AcDbLine
 62
2
  6
CONTINUOUS
 10
12.5705042755
 20
2.5920323691
 11
12.5133292438
 21
2.5920323691
  0
ARC
  5
2E9
100
AcDbEntity
  8
0
100
AcDbCircle
 62
2
  6
CONTINUOUS
 10
12.5133291735
 20
2.5895571688
 40
0.0024752003
100
AcDbArc
 50
89.9983726451
 51
147.602165307
  0
LINE
  5
2EA
100
AcDbEntity
  8
0
100
AcDbLine
 62
2
  6
CONTINUOUS
 10
12.5112392426
 20
2.5908833685
 11
12.4644392167
 21
2.5171263276
  0
ARC
  5
2EB
100
AcDbEntity
  8
0
100
AcDbCircle
 62
2
  6
CONTINUOUS
 10
12.4623492858
 20
2.5184525273
 40
0.0024752003
100
AcDbArc
 50
269.9983726451
 51
327.602165307
  0
LINE
  5
2EC
100
AcDbEntity
  8
0
100
AcDbLine
 62
2
  6
CONTINUOUS
 10
12.4623492155
 20
2.515977327
 11
12.4394882028
 21
2.515977327
  0
ARC
  5
2ED
100
AcDbEntity
  8
0
100
AcDbCircle
 62
2
  6
CONTINUOUS
 10
12.439488201
 20
2.5135023274
 40
0.0024749995
100
AcDbArc
 50
89.9999571957
 51
180.0000428043
  0
LINE
  5
2EE
100
AcDbEntity
  8
0
100
AcDbLine
 62
2
  6
CONTINUOUS
 10
12.4370132015
 20
2.5135023256
 11
12.4370132015
 21
2.4937023146
  0
ARC
  5
2EF
100
AcDbEntity
  8
0
100
AcDbCircle
 62
2
  6
CONTINUOUS
 10
12.439488201
 20
2.4937023128
 40
0.0024749995
100
AcDbArc
 50
179.9999571957
 51
270.0000428043
  0
LINE
  5
2F0
100
AcDbEntity
  8
0
100
AcDbLine
 62
2
  6
CONTINUOUS
 10
12.4394882028
 20
2.4912273132
 11
12.5168642458
 21
2.4912273132
  0
ARC
  5
2F1
100
AcDbEntity
  8
0
100
AcDbCircle
 62
2
  6
CONTINUOUS
 10
12.5168642476
 20
2.4937023128
 40
0.0024749995
100
AcDbArc
 50
269.9999571957
 51
0.0000428043
  0
LINE
  5
2F2
100
AcDbEntity
  8
0
100
AcDbLine
 62
2
  6
CONTINUOUS
 10
12.5193392471
 20
2.4937023146
 11
12.5193392471
 21
2.5135023256
  0
ARC
  5
2F3
100
AcDbEntity
  8
0
100
AcDbCircle
 62
2
  6
CONTINUOUS
 10
12.5168642476
 20
2.5135023274
 40
0.0024749995
100
AcDbArc
 50
359.9999571957
 51
90.0000428043
  0
LINE
  5
2F4
100
AcDbEntity
  8
0
100
AcDbLine
 62
2
  6
CONTINUOUS
 10
12.5168642458
 20
2.515977327
 11
12.5055812395
 21
2.515977327
  0
ARC
  5
2F5
100
AcDbEntity
  8
0
100
AcDbCircle
 62
2
  6
CONTINUOUS
 10
12.5055811302
 20
2.518452367
 40
0.0024750401
100
AcDbArc
 50
147.6063258011
 51
270.0025305754
  0
LINE
  5
2F6
100
AcDbEntity
  8
0
100
AcDbLine
 62
2
  6
CONTINUOUS
 10
12.5034912383
 20
2.5197783291
 11
12.5090072414
 21
2.5284723339
  0
ARC
  5
2F7
100
AcDbEntity
  8
0
100
AcDbCircle
 62
2
  6
CONTINUOUS
 10
12.5110971723
 20
2.5271461342
 40
0.0024752003
100
AcDbArc
 50
89.998372645
 51
147.602165307
  0
LINE
  5
2F8
100
AcDbEntity
  8
0
100
AcDbLine
 62
2
  6
CONTINUOUS
 10
12.5110972426
 20
2.5296213345
 11
12.5459752619
 21
2.5296213345
  0
ARC
  5
2F9
100
AcDbEntity
  8
0
100
AcDbCircle
 62
2
  6
CONTINUOUS
 10
12.5459747223
 20
2.5271458744
 40
0.0024754602
100
AcDbArc
 50
32.8959418573
 51
89.9875097202
  0
LINE
  5
2FA
100
AcDbEntity
  8
0
100
AcDbLine
 62
2
  6
CONTINUOUS
 10
12.9205934696
 20
2.5920323691
 11
13.0210515254
 21
2.5920323691
  0
ARC
  5
2FB
100
AcDbEntity
  8
0
100
AcDbCircle
 62
2
  6
CONTINUOUS
 10
13.0210516601
 20
2.5895582013
 40
0.0024741678
100
AcDbArc
 50
46.3477981899
 51
90.0031206038
  0
LINE
  5
2FC
100
AcDbEntity
  8
0
100
AcDbLine
 62
2
  6
CONTINUOUS
 10
13.0227595263
 20
2.5913483688
 11
13.0827925596
 21
2.534068337
  0
ARC
  5
2FD
100
AcDbEntity
  8
0
100
AcDbCircle
 62
2
  6
CONTINUOUS
 10
13.0845012605
 20
2.5358592748
 40
0.0024753014
100
AcDbArc
 50
226.3461263059
 51
0.0014637321
  0
LINE
  5
2FE
100
AcDbEntity
  8
0
100
AcDbLine
 62
2
  6
CONTINUOUS
 10
13.0869765619
 20
2.535859338
 11
13.0869765619
 21
2.564807354
  0
ARC
  5
2FF
100
AcDbEntity
  8
0
100
AcDbCircle
 62
2
  6
CONTINUOUS
 10
13.0845015624
 20
2.5648073559
 40
0.0024749995
100
AcDbArc
 50
359.9999571957
 51
90.0000428043
  0
LINE
  5
300
100
AcDbEntity
  8
0
100
AcDbLine
 62
2
  6
CONTINUOUS
 10
13.0845015605
 20
2.5672823554
 11
13.0657255501
 21
2.5672823554
  0
ARC
  5
301
100
AcDbEntity
  8
0
100
AcDbCircle
 62
2
  6
CONTINUOUS
 10
13.0657255483
 20
2.5697573549
 40
0.0024749995
100
AcDbArc
 50
179.9999571957
 51
270.0000428043
  0
LINE
  5
302
100
AcDbEntity
  8
0
100
AcDbLine
 62
2
  6
CONTINUOUS
 10
13.0632505488
 20
2.5697573568
 11
13.0632505488
 21
2.5895573678
  0
ARC
  5
303
100
AcDbEntity
  8
0
100
AcDbCircle
 62
2
  6
CONTINUOUS
 10
13.0657255483
 20
2.5895573696
 40
0.0024749995
100
AcDbArc
 50
89.9999571957
 51
180.0000428043
  0
LINE
  5
304
100
AcDbEntity
  8
0
100
AcDbLine
 62
2
  6
CONTINUOUS
 10
13.0657255501
 20
2.5920323691
 11
13.1397265912
 21
2.5920323691
  0
ARC
  5
305
100
AcDbEntity
  8
0
100
AcDbCircle
 62
2
  6
CONTINUOUS
 10
13.139726593
 20
2.5895573696
 40
0.0024749995
100
AcDbArc
 50
359.9999571957
 51
90.0000428043
  0
LINE
  5
306
100
AcDbEntity
  8
0
100
AcDbLine
 62
2
  6
CONTINUOUS
 10
13.1422015925
 20
2.5895573678
 11
13.1422015925
 21
2.5697573568
  0
ARC
  5
307
100
AcDbEntity
  8
0
100
AcDbCircle
 62
2
  6
CONTINUOUS
 10
13.139726593
 20
2.5697573549
 40
0.0024749995
100
AcDbArc
 50
269.9999571957
 51
0.0000428042
  0
LINE
  5
308
100
AcDbEntity
  8
0
100
AcDbLine
 62
2
  6
CONTINUOUS
 10
13.1397265912
 20
2.5672823554
 11
13.1217935812
 21
2.5672823554
  0
ARC
  5
309
100
AcDbEntity
  8
0
100
AcDbCircle
 62
2
  6
CONTINUOUS
 10
13.1217935794
 20
2.5648073559
 40
0.0024749995
100
AcDbArc
 50
89.9999571957
 51
180.0000428042
  0
LINE
  5
30A
100
AcDbEntity
  8
0
100
AcDbLine
 62
2
  6
CONTINUOUS
 10
13.1193185799
 20
2.564807354
 11
13.1193185799
 21
2.4937023146
  0
ARC
  5
30B
100
AcDbEntity
  8
0
100
AcDbCircle
 62
2
  6
CONTINUOUS
 10
13.1168435803
 20
2.4937023128
 40
0.0024749995
100
AcDbArc
 50
269.9999571957
 51
0.0000428043
  0
LINE
  5
30C
100
AcDbEntity
  8
0
100
AcDbLine
 62
2
  6
CONTINUOUS
 10
13.1168435785
 20
2.4912273132
 11
13.0426375373
 21
2.4912273132
  0
ARC
  5
30D
100
AcDbEntity
  8
0
100
AcDbCircle
 62
2
  6
CONTINUOUS
 10
13.0426374026
 20
2.493701481
 40
0.0024741678
100
AcDbArc
 50
226.3477981898
 51
270.0031206038
  0
LINE
  5
30E
100
AcDbEntity
  8
0
100
AcDbLine
 62
2
  6
CONTINUOUS
 10
13.0409295364
 20
2.4919113136
 11
12.9776495013
 21
2.5522893471
  0
ARC
  5
30F
100
AcDbEntity
  8
0
100
AcDbCircle
 62
2
  6
CONTINUOUS
 10
12.9759408003
 20
2.5504984093
 40
0.0024753014
100
AcDbArc
 50
46.3461263059
 51
180.0014637321
  0
LINE
  5
310
100
AcDbEntity
  8
0
100
AcDbLine
 62
2
  6
CONTINUOUS
 10
12.973465499
 20
2.5504983461
 11
12.973465499
 21
2.5184523283
  0
ARC
  5
311
100
AcDbEntity
  8
0
100
AcDbCircle
 62
2
  6
CONTINUOUS
 10
12.9759404985
 20
2.5184523265
 40
0.0024749995
100
AcDbArc
 50
179.9999571957
 51
270.0000428043
  0
LINE
  5
312
100
AcDbEntity
  8
0
100
AcDbLine
 62
2
  6
CONTINUOUS
 10
12.9759405003
 20
2.515977327
 11
12.9962575116
 21
2.515977327
  0
ARC
  5
313
100
AcDbEntity
  8
0
100
AcDbCircle
 62
2
  6
CONTINUOUS
 10
12.9962575135
 20
2.5135023274
 40
0.0024749995
100
AcDbArc
 50
359.9999571957
 51
90.0000428043
  0
LINE
  5
314
100
AcDbEntity
  8
0
100
AcDbLine
 62
2
  6
CONTINUOUS
 10
12.998732513
 20
2.5135023256
 11
12.998732513
 21
2.4937023146
  0
ARC
  5
315
100
AcDbEntity
  8
0
100
AcDbCircle
 62
2
  6
CONTINUOUS
 10
12.9962575135
 20
2.4937023128
 40
0.0024749995
100
AcDbArc
 50
269.9999571957
 51
0.0000428043
  0
LINE
  5
316
100
AcDbEntity
  8
0
100
AcDbLine
 62
2
  6
CONTINUOUS
 10
12.9962575116
 20
2.4912273132
 11
12.9205934696
 21
2.4912273132
  0
ARC
  5
317
100
AcDbEntity
  8
0
100
AcDbCircle
 62
2
  6
CONTINUOUS
 10
12.9205934678
 20
2.4937023128
 40
0.0024749995
100
AcDbArc
 50
179.9999571957
 51
270.0000428043
  0
LINE
  5
318
100
AcDbEntity
  8
0
100
AcDbLine
 62
2
  6
CONTINUOUS
 10
12.9181184683
 20
2.4937023146
 11
12.9181184683
 21
2.5135023256
  0
ARC
  5
319
100
AcDbEntity
  8
0
100
AcDbCircle
 62
2
  6
CONTINUOUS
 10
12.9205934678
 20
2.5135023274
 40
0.0024749995
100
AcDbArc
 50
89.9999571957
 51
180.0000428042
  0
LINE
  5
31A
100
AcDbEntity
  8
0
100
AcDbLine
 62
2
  6
CONTINUOUS
 10
12.9205934696
 20
2.515977327
 11
12.93923948
 21
2.515977327
  0
ARC
  5
31B
100
AcDbEntity
  8
0
100
AcDbCircle
 62
2
  6
CONTINUOUS
 10
12.9392394818
 20
2.5184523265
 40
0.0024749995
100
AcDbArc
 50
269.9999571957
 51
0.0000428043
  0
LINE
  5
31C
100
AcDbEntity
  8
0
100
AcDbLine
 62
2
  6
CONTINUOUS
 10
12.9417144814
 20
2.5184523283
 11
12.9417144814
 21
2.564807354
  0
ARC
  5
31D
100
AcDbEntity
  8
0
100
AcDbCircle
 62
2
  6
CONTINUOUS
 10
12.9392394818
 20
2.5648073559
 40
0.0024749995
100
AcDbArc
 50
359.9999571957
 51
90.0000428043
  0
LINE
  5
31E
100
AcDbEntity
  8
0
100
AcDbLine
 62
2
  6
CONTINUOUS
 10
12.93923948
 20
2.5672823554
 11
12.9205934696
 21
2.5672823554
  0
ARC
  5
31F
100
AcDbEntity
  8
0
100
AcDbCircle
 62
2
  6
CONTINUOUS
 10
12.9205934678
 20
2.5697573549
 40
0.0024749995
100
AcDbArc
 50
179.9999571957
 51
270.0000428043
  0
LINE
  5
320
100
AcDbEntity
  8
0
100
AcDbLine
 62
2
  6
CONTINUOUS
 10
12.9181184683
 20
2.5697573568
 11
12.9181184683
 21
2.5895573678
  0
ARC
  5
321
100
AcDbEntity
  8
0
100
AcDbCircle
 62
2
  6
CONTINUOUS
 10
12.9205934678
 20
2.5895573696
 40
0.0024749995
100
AcDbArc
 50
89.9999571957
 51
180.0000428042
  0
LINE
  5
322
100
AcDbEntity
  8
0
100
AcDbLine
 62
2
  6
CONTINUOUS
 10
13.2934226764
 20
2.5324773361
 11
13.2582556569
 21
2.5324773361
  0
ARC
  5
323
100
AcDbEntity
  8
0
100
AcDbCircle
 62
2
  6
CONTINUOUS
 10
13.2582556551
 20
2.5300023366
 40
0.0024749995
100
AcDbArc
 50
89.9999571957
 51
180.0000428043
  0
LINE
  5
324
100
AcDbEntity
  8
0
100
AcDbLine
 62
2
  6
CONTINUOUS
 10
13.2557806555
 20
2.5300023347
 11
13.2557806555
 21
2.5184523283
  0
ARC
  5
325
100
AcDbEntity
  8
0
100
AcDbCircle
 62
2
  6
CONTINUOUS
 10
13.2582556551
 20
2.5184523265
 40
0.0024749995
100
AcDbArc
 50
179.9999571957
 51
270.0000428043
  0
LINE
  5
326
100
AcDbEntity
  8
0
100
AcDbLine
 62
2
  6
CONTINUOUS
 10
13.2582556569
 20
2.515977327
 11
13.3232596929
 21
2.515977327
  0
ARC
  5
327
100
AcDbEntity
  8
0
100
AcDbCircle
 62
2
  6
CONTINUOUS
 10
13.3232596948
 20
2.5184523265
 40
0.0024749995
100
AcDbArc
 50
269.9999571957
 51
0.0000428043
  0
LINE
  5
328
100
AcDbEntity
  8
0
100
AcDbLine
 62
2
  6
CONTINUOUS
 10
13.3257346943
 20
2.5184523283
 11
13.3257346943
 21
2.5267023329
  0
ARC
  5
329
100
AcDbEntity
  8
0
100
AcDbCircle
 62
2
  6
CONTINUOUS
 10
13.3282096938
 20
2.5267023348
 40
0.0024749995
100
AcDbArc
 50
89.9999571957
 51
180.0000428043
  0
LINE
  5
32A
100
AcDbEntity
  8
0
100
AcDbLine
 62
2
  6
CONTINUOUS
 10
13.3282096957
 20
2.5291773343
 11
13.3705287192
 21
2.5291773343
  0
ARC
  5
32B
100
AcDbEntity
  8
0
100
AcDbCircle
 62
2
  6
CONTINUOUS
 10
13.370528721
 20
2.5267023348
 40
0.0024749995
100
AcDbArc
 50
359.9999571957
 51
90.0000428043
  0
LINE
  5
32C
100
AcDbEntity
  8
0
100
AcDbLine
 62
2
  6
CONTINUOUS
 10
13.3730037205
 20
2.5267023329
 11
13.3730037205
 21
2.4937023146
  0
ARC
  5
32D
100
AcDbEntity
  8
0
100
AcDbCircle
 62
2
  6
CONTINUOUS
 10
13.370528721
 20
2.4937023128
 40
0.0024749995
100
AcDbArc
 50
269.9999571957
 51
0.0000428043
  0
LINE
  5
32E
100
AcDbEntity
  8
0
100
AcDbLine
 62
2
  6
CONTINUOUS
 10
13.3705287192
 20
2.4912273132
 11
13.1673166065
 21
2.4912273132
  0
ARC
  5
32F
100
AcDbEntity
  8
0
100
AcDbCircle
 62
2
  6
CONTINUOUS
 10
13.1673166046
 20
2.4937023128
 40
0.0024749995
100
AcDbArc
 50
179.9999571957
 51
270.0000428043
  0
LINE
  5
330
100
AcDbEntity
  8
0
100
AcDbLine
 62
2
  6
CONTINUOUS
 10
13.1648416051
 20
2.4937023146
 11
13.1648416051
 21
2.5135023256
  0
ARC
  5
331
100
AcDbEntity
  8
0
100
AcDbCircle
 62
2
  6
CONTINUOUS
 10
13.1673166046
 20
2.5135023274
 40
0.0024749995
100
AcDbArc
 50
89.9999571957
 51
180.0000428043
  0
LINE
  5
332
100
AcDbEntity
  8
0
100
AcDbLine
 62
2
  6
CONTINUOUS
 10
13.1673166065
 20
2.515977327
 11
13.1912396197
 21
2.515977327
  0
ARC
  5
333
100
AcDbEntity
  8
0
100
AcDbCircle
 62
2
  6
CONTINUOUS
 10
13.1912396216
 20
2.5184523265
 40
0.0024749995
100
AcDbArc
 50
269.9999571957
 51
0.0000428042
  0
LINE
  5
334
100
AcDbEntity
  8
0
100
AcDbLine
 62
2
  6
CONTINUOUS
 10
13.1937146211
 20
2.5184523283
 11
13.1937146211
 21
2.564807354
  0
ARC
  5
335
100
AcDbEntity
  8
0
100
AcDbCircle
 62
2
  6
CONTINUOUS
 10
13.1912396216
 20
2.5648073559
 40
0.0024749995
100
AcDbArc
 50
359.9999571957
 51
90.0000428043
  0
LINE
  5
336
100
AcDbEntity
  8
0
100
AcDbLine
 62
2
  6
CONTINUOUS
 10
13.1912396197
 20
2.5672823554
 11
13.1673166065
 21
2.5672823554
  0
ARC
  5
337
100
AcDbEntity
  8
0
100
AcDbCircle
 62
2
  6
CONTINUOUS
 10
13.1673166046
 20
2.5697573549
 40
0.0024749995
100
AcDbArc
 50
179.9999571957
 51
270.0000428043
  0
LINE
  5
338
100
AcDbEntity
  8
0
100
AcDbLine
 62
2
  6
CONTINUOUS
 10
13.1648416051
 20
2.5697573568
 11
13.1648416051
 21
2.5895573678
  0
ARC
  5
339
100
AcDbEntity
  8
0
100
AcDbCircle
 62
2
  6
CONTINUOUS
 10
13.1673166046
 20
2.5895573696
 40
0.0024749995
100
AcDbArc
 50
89.9999571957
 51
180.0000428043
  0
LINE
  5
33A
100
AcDbEntity
  8
0
100
AcDbLine
 62
2
  6
CONTINUOUS
 10
13.1673166065
 20
2.5920323691
 11
13.3691097184
 21
2.5920323691
  0
ARC
  5
33B
100
AcDbEntity
  8
0
100
AcDbCircle
 62
2
  6
CONTINUOUS
 10
13.3691097202
 20
2.5895573696
 40
0.0024749995
100
AcDbArc
 50
359.9999571957
 51
90.0000428043
  0
LINE
  5
33C
100
AcDbEntity
  8
0
100
AcDbLine
 62
2
  6
CONTINUOUS
 10
13.3715847197
 20
2.5895573678
 11
13.3715847197
 21
2.5565573495
  0
ARC
  5
33D
100
AcDbEntity
  8
0
100
AcDbCircle
 62
2
  6
CONTINUOUS
 10
13.3691097202
 20
2.5565573476
 40
0.0024749995
100
AcDbArc
 50
269.9999571957
 51
0.0000428042
  0
LINE
  5
33E
100
AcDbEntity
  8
0
100
AcDbLine
 62
2
  6
CONTINUOUS
 10
13.3691097184
 20
2.5540823481
 11
13.3272456952
 21
2.5540823481
  0
ARC
  5
33F
100
AcDbEntity
  8
0
100
AcDbCircle
 62
2
  6
CONTINUOUS
 10
13.3272456933
 20
2.5565573476
 40
0.0024749995
100
AcDbArc
 50
179.9999571957
 51
270.0000428043
  0
LINE
  5
340
100
AcDbEntity
  8
0
100
AcDbLine
 62
2
  6
CONTINUOUS
 10
13.3247706938
 20
2.5565573495
 11
13.3247706938
 21
2.564807354
  0
ARC
  5
341
100
AcDbEntity
  8
0
100
AcDbCircle
 62
2
  6
CONTINUOUS
 10
13.3222956943
 20
2.5648073559
 40
0.0024749995
100
AcDbArc
 50
359.9999571957
 51
90.0000428043
  0
LINE
  5
342
100
AcDbEntity
  8
0
100
AcDbLine
 62
2
  6
CONTINUOUS
 10
13.3222956924
 20
2.5672823554
 11
13.2582556569
 21
2.5672823554
  0
ARC
  5
343
100
AcDbEntity
  8
0
100
AcDbCircle
 62
2
  6
CONTINUOUS
 10
13.2582556551
 20
2.5648073559
 40
0.0024749995
100
AcDbArc
 50
89.9999571957
 51
180.0000428043
  0
LINE
  5
344
100
AcDbEntity
  8
0
100
AcDbLine
 62
2
  6
CONTINUOUS
 10
13.2557806555
 20
2.564807354
 11
13.2557806555
 21
2.5532573476
  0
ARC
  5
345
100
AcDbEntity
  8
0
100
AcDbCircle
 62
2
  6
CONTINUOUS
 10
13.2582556551
 20
2.5532573458
 40
0.0024749995
100
AcDbArc
 50
179.9999571957
 51
270.0000428043
  0
LINE
  5
346
100
AcDbEntity
  8
0
100
AcDbLine
 62
2
  6
CONTINUOUS
 10
13.2582556569
 20
2.5507823463
 11
13.2934226764
 21
2.5507823463
  0
ARC
  5
347
100
AcDbEntity
  8
0
100
AcDbCircle
 62
2
  6
CONTINUOUS
 10
13.2934226783
 20
2.5483073467
 40
0.0024749995
100
AcDbArc
 50
359.9999571957
 51
90.0000428043
  0
LINE
  5
348
100
AcDbEntity
  8
0
100
AcDbLine
 62
2
  6
CONTINUOUS
 10
13.2958976778
 20
2.5483073449
 11
13.2958976778
 21
2.5349523375
  0
ARC
  5
349
100
AcDbEntity
  8
0
100
AcDbCircle
 62
2
  6
CONTINUOUS
 10
13.2934226783
 20
2.5349523356
 40
0.0024749995
100
AcDbArc
 50
269.9999571957
 51
0.0000428042
  0
LINE
  5
34A
100
AcDbEntity
  8
0
100
AcDbLine
 62
2
  6
CONTINUOUS
 10
13.7286871589
 20
2.5350697372
 11
13.7286871589
 21
2.5456869438
  0
LINE
  5
34B
100
AcDbEntity
  8
0
100
AcDbLine
 62
2
  6
CONTINUOUS
 10
13.7086871478
 20
2.5004302075
 11
13.7086871478
 21
2.5803264735
  0
LINE
  5
34C
100
AcDbEntity
  8
0
100
AcDbLine
 62
2
  6
CONTINUOUS
 10
13.6886871368
 20
2.4843919416
 11
13.6886871368
 21
2.5963647394
  0
LINE
  5
34D
100
AcDbEntity
  8
0
100
AcDbLine
 62
2
  6
CONTINUOUS
 10
13.6686871257
 20
2.4726017898
 11
13.6686871257
 21
2.6081548911
  0
LINE
  5
34E
100
AcDbEntity
  8
0
100
AcDbLine
 62
2
  6
CONTINUOUS
 10
13.6486871146
 20
2.4628062688
 11
13.6486871146
 21
2.6179504122
  0
LINE
  5
34F
100
AcDbEntity
  8
0
100
AcDbLine
 62
2
  6
CONTINUOUS
 10
13.6286871035
 20
2.4541253507
 11
13.6286871035
 21
2.5062483056
  0
LINE
  5
350
100
AcDbEntity
  8
0
100
AcDbLine
 62
2
  6
CONTINUOUS
 10
13.6286871035
 20
2.5301143348
 11
13.6286871035
 21
2.6266313303
  0
LINE
  5
351
100
AcDbEntity
  8
0
100
AcDbLine
 62
2
  6
CONTINUOUS
 10
13.6086870924
 20
2.4465537903
 11
13.6086870924
 21
2.4918774918
  0
LINE
  5
352
100
AcDbEntity
  8
0
100
AcDbLine
 62
2
  6
CONTINUOUS
 10
13.6086870924
 20
2.5165781173
 11
13.6086870924
 21
2.6342028907
  0
LINE
  5
353
100
AcDbEntity
  8
0
100
AcDbLine
 62
2
  6
CONTINUOUS
 10
13.5886870813
 20
2.4398033466
 11
13.5886870813
 21
2.4912273132
  0
LINE
  5
354
100
AcDbEntity
  8
0
100
AcDbLine
 62
2
  6
CONTINUOUS
 10
13.5886870813
 20
2.5391840845
 11
13.5886870813
 21
2.5454298327
  0
LINE
  5
355
100
AcDbEntity
  8
0
100
AcDbLine
 62
2
  6
CONTINUOUS
 10
13.5886870813
 20
2.5862063472
 11
13.5886870813
 21
2.6409533343
  0
LINE
  5
356
100
AcDbEntity
  8
0
100
AcDbLine
 62
2
  6
CONTINUOUS
 10
13.5686870702
 20
2.4334702189
 11
13.5686870702
 21
2.4912273132
  0
LINE
  5
357
100
AcDbEntity
  8
0
100
AcDbLine
 62
2
  6
CONTINUOUS
 10
13.5686870702
 20
2.5906587765
 11
13.5686870702
 21
2.647286462
  0
LINE
  5
358
100
AcDbEntity
  8
0
100
AcDbLine
 62
2
  6
CONTINUOUS
 10
13.5486870591
 20
2.4278968124
 11
13.5486870591
 21
2.4937461006
  0
LINE
  5
359
100
AcDbEntity
  8
0
100
AcDbLine
 62
2
  6
CONTINUOUS
 10
13.5486870591
 20
2.5920323691
 11
13.5486870591
 21
2.6528598686
  0
LINE
  5
35A
100
AcDbEntity
  8
0
100
AcDbLine
 62
2
  6
CONTINUOUS
 10
13.528687048
 20
2.4225427674
 11
13.528687048
 21
2.5270426993
  0
LINE
  5
35B
100
AcDbEntity
  8
0
100
AcDbLine
 62
2
  6
CONTINUOUS
 10
13.528687048
 20
2.5505166259
 11
13.528687048
 21
2.5668657091
  0
LINE
  5
35C
100
AcDbEntity
  8
0
100
AcDbLine
 62
2
  6
CONTINUOUS
 10
13.528687048
 20
2.5920323691
 11
13.528687048
 21
2.6582139136
  0
LINE
  5
35D
100
AcDbEntity
  8
0
100
AcDbLine
 62
2
  6
CONTINUOUS
 10
13.5086870369
 20
2.4177306791
 11
13.5086870369
 21
2.4912273132
  0
LINE
  5
35E
100
AcDbEntity
  8
0
100
AcDbLine
 62
2
  6
CONTINUOUS
 10
13.5086870369
 20
2.5159553269
 11
13.5086870369
 21
2.5306043351
  0
LINE
  5
35F
100
AcDbEntity
  8
0
100
AcDbLine
 62
2
  6
CONTINUOUS
 10
13.5086870369
 20
2.5496073456
 11
13.5086870369
 21
2.5672823554
  0
LINE
  5
360
100
AcDbEntity
  8
0
100
AcDbLine
 62
2
  6
CONTINUOUS
 10
13.5086870369
 20
2.5920323691
 11
13.5086870369
 21
2.6630260019
  0
LINE
  5
361
100
AcDbEntity
  8
0
100
AcDbLine
 62
2
  6
CONTINUOUS
 10
13.4886870258
 20
2.4131795254
 11
13.4886870258
 21
2.4912273132
  0
LINE
  5
362
100
AcDbEntity
  8
0
100
AcDbLine
 62
2
  6
CONTINUOUS
 10
13.4886870258
 20
2.5159553269
 11
13.4886870258
 21
2.5306043351
  0
LINE
  5
363
100
AcDbEntity
  8
0
100
AcDbLine
 62
2
  6
CONTINUOUS
 10
13.4886870258
 20
2.5496073456
 11
13.4886870258
 21
2.5672823554
  0
LINE
  5
364
100
AcDbEntity
  8
0
100
AcDbLine
 62
2
  6
CONTINUOUS
 10
13.4886870258
 20
2.5920323691
 11
13.4886870258
 21
2.6675771555
  0
LINE
  5
365
100
AcDbEntity
  8
0
100
AcDbLine
 62
2
  6
CONTINUOUS
 10
13.4686870147
 20
2.4088819672
 11
13.4686870147
 21
2.4912273132
  0
LINE
  5
366
100
AcDbEntity
  8
0
100
AcDbLine
 62
2
  6
CONTINUOUS
 10
13.4686870147
 20
2.5920323691
 11
13.4686870147
 21
2.6718747138
  0
LINE
  5
367
100
AcDbEntity
  8
0
100
AcDbLine
 62
2
  6
CONTINUOUS
 10
13.4486870037
 20
2.4050092072
 11
13.4486870037
 21
2.4912273132
  0
LINE
  5
368
100
AcDbEntity
  8
0
100
AcDbLine
 62
2
  6
CONTINUOUS
 10
13.4486870037
 20
2.5920323691
 11
13.4486870037
 21
2.6757474738
  0
LINE
  5
369
100
AcDbEntity
  8
0
100
AcDbLine
 62
2
  6
CONTINUOUS
 10
13.4286869926
 20
2.4011364471
 11
13.4286869926
 21
2.4912273132
  0
LINE
  5
36A
100
AcDbEntity
  8
0
100
AcDbLine
 62
2
  6
CONTINUOUS
 10
13.4286869926
 20
2.5920323691
 11
13.4286869926
 21
2.6796202339
  0
LINE
  5
36B
100
AcDbEntity
  8
0
100
AcDbLine
 62
2
  6
CONTINUOUS
 10
13.4086869815
 20
2.3980226662
 11
13.4086869815
 21
2.4912273132
  0
LINE
  5
36C
100
AcDbEntity
  8
0
100
AcDbLine
 62
2
  6
CONTINUOUS
 10
13.4086869815
 20
2.515977327
 11
13.4086869815
 21
2.5672823554
  0
LINE
  5
36D
100
AcDbEntity
  8
0
100
AcDbLine
 62
2
  6
CONTINUOUS
 10
13.4086869815
 20
2.5920323691
 11
13.4086869815
 21
2.6827340148
  0
LINE
  5
36E
100
AcDbEntity
  8
0
100
AcDbLine
 62
2
  6
CONTINUOUS
 10
13.3886869704
 20
2.3950052774
 11
13.3886869704
 21
2.6857514036
  0
LINE
  5
36F
100
AcDbEntity
  8
0
100
AcDbLine
 62
2
  6
CONTINUOUS
 10
13.3686869593
 20
2.3919878885
 11
13.3686869593
 21
2.4912273132
  0
LINE
  5
370
100
AcDbEntity
  8
0
100
AcDbLine
 62
2
  6
CONTINUOUS
 10
13.3686869593
 20
2.5291773343
 11
13.3686869593
 21
2.5540823481
  0
LINE
  5
371
100
AcDbEntity
  8
0
100
AcDbLine
 62
2
  6
CONTINUOUS
 10
13.3686869593
 20
2.5920323691
 11
13.3686869593
 21
2.6887687924
  0
LINE
  5
372
100
AcDbEntity
  8
0
100
AcDbLine
 62
2
  6
CONTINUOUS
 10
13.3486869482
 20
2.3889704997
 11
13.3486869482
 21
2.4912273132
  0
LINE
  5
373
100
AcDbEntity
  8
0
100
AcDbLine
 62
2
  6
CONTINUOUS
 10
13.3486869482
 20
2.5291773343
 11
13.3486869482
 21
2.5540823481
  0
LINE
  5
374
100
AcDbEntity
  8
0
100
AcDbLine
 62
2
  6
CONTINUOUS
 10
13.3486869482
 20
2.5920323691
 11
13.3486869482
 21
2.6917861813
  0
LINE
  5
375
100
AcDbEntity
  8
0
100
AcDbLine
 62
2
  6
CONTINUOUS
 10
13.3286869371
 20
2.3859531109
 11
13.3286869371
 21
2.4912273132
  0
LINE
  5
376
100
AcDbEntity
  8
0
100
AcDbLine
 62
2
  6
CONTINUOUS
 10
13.3286869371
 20
2.5291773343
 11
13.3286869371
 21
2.5540823481
  0
LINE
  5
377
100
AcDbEntity
  8
0
100
AcDbLine
 62
2
  6
CONTINUOUS
 10
13.3286869371
 20
2.5920323691
 11
13.3286869371
 21
2.6948035701
  0
LINE
  5
378
100
AcDbEntity
  8
0
100
AcDbLine
 62
2
  6
CONTINUOUS
 10
13.308686926
 20
2.3833355437
 11
13.308686926
 21
2.4912273132
  0
LINE
  5
379
100
AcDbEntity
  8
0
100
AcDbLine
 62
2
  6
CONTINUOUS
 10
13.308686926
 20
2.515977327
 11
13.308686926
 21
2.5672823554
  0
LINE
  5
37A
100
AcDbEntity
  8
0
100
AcDbLine
 62
2
  6
CONTINUOUS
 10
13.308686926
 20
2.5920323691
 11
13.308686926
 21
2.6974211373
  0
LINE
  5
37B
100
AcDbEntity
  8
0
100
AcDbLine
 62
2
  6
CONTINUOUS
 10
13.2886869149
 20
2.3812612684
 11
13.2886869149
 21
2.4912273132
  0
LINE
  5
37C
100
AcDbEntity
  8
0
100
AcDbLine
 62
2
  6
CONTINUOUS
 10
13.2886869149
 20
2.515977327
 11
13.2886869149
 21
2.5324773361
  0
LINE
  5
37D
100
AcDbEntity
  8
0
100
AcDbLine
 62
2
  6
CONTINUOUS
 10
13.2886869149
 20
2.5507823463
 11
13.2886869149
 21
2.5672823554
  0
LINE
  5
37E
100
AcDbEntity
  8
0
100
AcDbLine
 62
2
  6
CONTINUOUS
 10
13.2886869149
 20
2.5920323691
 11
13.2886869149
 21
2.6994954125
  0
LINE
  5
37F
100
AcDbEntity
  8
0
100
AcDbLine
 62
2
  6
CONTINUOUS
 10
13.2686869038
 20
2.3791869932
 11
13.2686869038
 21
2.4912273132
  0
LINE
  5
380
100
AcDbEntity
  8
0
100
AcDbLine
 62
2
  6
CONTINUOUS
 10
13.2686869038
 20
2.515977327
 11
13.2686869038
 21
2.5324773361
  0
LINE
  5
381
100
AcDbEntity
  8
0
100
AcDbLine
 62
2
  6
CONTINUOUS
 10
13.2686869038
 20
2.5507823463
 11
13.2686869038
 21
2.5672823554
  0
LINE
  5
382
100
AcDbEntity
  8
0
100
AcDbLine
 62
2
  6
CONTINUOUS
 10
13.2686869038
 20
2.5920323691
 11
13.2686869038
 21
2.7015696878
  0
LINE
  5
383
100
AcDbEntity
  8
0
100
AcDbLine
 62
2
  6
CONTINUOUS
 10
13.2486868927
 20
2.377112718
 11
13.2486868927
 21
2.4912273132
  0
LINE
  5
384
100
AcDbEntity
  8
0
100
AcDbLine
 62
2
  6
CONTINUOUS
 10
13.2486868927
 20
2.5920323691
 11
13.2486868927
 21
2.703643963
  0
LINE
  5
385
100
AcDbEntity
  8
0
100
AcDbLine
 62
2
  6
CONTINUOUS
 10
13.2286868817
 20
2.3750384428
 11
13.2286868817
 21
2.4912273132
  0
LINE
  5
386
100
AcDbEntity
  8
0
100
AcDbLine
 62
2
  6
CONTINUOUS
 10
13.2286868817
 20
2.5920323691
 11
13.2286868817
 21
2.7057182382
  0
LINE
  5
387
100
AcDbEntity
  8
0
100
AcDbLine
 62
2
  6
CONTINUOUS
 10
13.2086868706
 20
2.3729641676
 11
13.2086868706
 21
2.4912273132
  0
LINE
  5
388
100
AcDbEntity
  8
0
100
AcDbLine
 62
2
  6
CONTINUOUS
 10
13.2086868706
 20
2.5920323691
 11
13.2086868706
 21
2.7077925134
  0
LINE
  5
389
100
AcDbEntity
  8
0
100
AcDbLine
 62
2
  6
CONTINUOUS
 10
13.1886868595
 20
2.3712344456
 11
13.1886868595
 21
2.4912273132
  0
LINE
  5
38A
100
AcDbEntity
  8
0
100
AcDbLine
 62
2
  6
CONTINUOUS
 10
13.1886868595
 20
2.515977327
 11
13.1886868595
 21
2.5672823554
  0
LINE
  5
38B
100
AcDbEntity
  8
0
100
AcDbLine
 62
2
  6
CONTINUOUS
 10
13.1886868595
 20
2.5920323691
 11
13.1886868595
 21
2.7095222354
  0
LINE
  5
38C
100
AcDbEntity
  8
0
100
AcDbLine
 62
2
  6
CONTINUOUS
 10
13.1686868484
 20
2.3699682418
 11
13.1686868484
 21
2.4912273132
  0
LINE
  5
38D
100
AcDbEntity
  8
0
100
AcDbLine
 62
2
  6
CONTINUOUS
 10
13.1686868484
 20
2.515977327
 11
13.1686868484
 21
2.5672823554
  0
LINE
  5
38E
100
AcDbEntity
  8
0
100
AcDbLine
 62
2
  6
CONTINUOUS
 10
13.1686868484
 20
2.5920323691
 11
13.1686868484
 21
2.7107884392
  0
LINE
  5
38F
100
AcDbEntity
  8
0
100
AcDbLine
 62
2
  6
CONTINUOUS
 10
13.1486868373
 20
2.3687020381
 11
13.1486868373
 21
2.7120546429
  0
LINE
  5
390
100
AcDbEntity
  8
0
100
AcDbLine
 62
2
  6
CONTINUOUS
 10
13.1286868262
 20
2.3674358343
 11
13.1286868262
 21
2.5672823554
  0
LINE
  5
391
100
AcDbEntity
  8
0
100
AcDbLine
 62
2
  6
CONTINUOUS
 10
13.1286868262
 20
2.5920323691
 11
13.1286868262
 21
2.7133208466
  0
LINE
  5
392
100
AcDbEntity
  8
0
100
AcDbLine
 62
2
  6
CONTINUOUS
 10
13.1086868151
 20
2.3661696306
 11
13.1086868151
 21
2.4912273132
  0
LINE
  5
393
100
AcDbEntity
  8
0
100
AcDbLine
 62
2
  6
CONTINUOUS
 10
13.1086868151
 20
2.5920323691
 11
13.1086868151
 21
2.7145870504
  0
LINE
  5
394
100
AcDbEntity
  8
0
100
AcDbLine
 62
2
  6
CONTINUOUS
 10
13.088686804
 20
2.3649034269
 11
13.088686804
 21
2.4912273132
  0
LINE
  5
395
100
AcDbEntity
  8
0
100
AcDbLine
 62
2
  6
CONTINUOUS
 10
13.088686804
 20
2.5920323691
 11
13.088686804
 21
2.7158532541
  0
LINE
  5
396
100
AcDbEntity
  8
0
100
AcDbLine
 62
2
  6
CONTINUOUS
 10
13.0686867929
 20
2.3636739922
 11
13.0686867929
 21
2.4912273132
  0
LINE
  5
397
100
AcDbEntity
  8
0
100
AcDbLine
 62
2
  6
CONTINUOUS
 10
13.0686867929
 20
2.5475272398
 11
13.0686867929
 21
2.5672823554
  0
LINE
  5
398
100
AcDbEntity
  8
0
100
AcDbLine
 62
2
  6
CONTINUOUS
 10
13.0686867929
 20
2.5920323691
 11
13.0686867929
 21
2.7170826887
  0
LINE
  5
399
100
AcDbEntity
  8
0
100
AcDbLine
 62
2
  6
CONTINUOUS
 10
13.0486867818
 20
2.363143203
 11
13.0486867818
 21
2.4912273132
  0
LINE
  5
39A
100
AcDbEntity
  8
0
100
AcDbLine
 62
2
  6
CONTINUOUS
 10
13.0486867818
 20
2.5666100882
 11
13.0486867818
 21
2.717613478
  0
LINE
  5
39B
100
AcDbEntity
  8
0
100
AcDbLine
 62
2
  6
CONTINUOUS
 10
13.0286867707
 20
2.3626124138
 11
13.0286867707
 21
2.50359263
  0
LINE
  5
39C
100
AcDbEntity
  8
0
100
AcDbLine
 62
2
  6
CONTINUOUS
 10
13.0286867707
 20
2.5856929366
 11
13.0286867707
 21
2.7181442672
  0
LINE
  5
39D
100
AcDbEntity
  8
0
100
AcDbLine
 62
2
  6
CONTINUOUS
 10
13.0086867596
 20
2.3620816246
 11
13.0086867596
 21
2.5226754472
  0
LINE
  5
39E
100
AcDbEntity
  8
0
100
AcDbLine
 62
2
  6
CONTINUOUS
 10
13.0086867596
 20
2.5920323691
 11
13.0086867596
 21
2.7186750564
  0
LINE
  5
39F
100
AcDbEntity
  8
0
100
AcDbLine
 62
2
  6
CONTINUOUS
 10
12.9886867486
 20
2.3615508354
 11
12.9886867486
 21
2.4912273132
  0
LINE
  5
3A0
100
AcDbEntity
  8
0
100
AcDbLine
 62
2
  6
CONTINUOUS
 10
12.9886867486
 20
2.515977327
 11
12.9886867486
 21
2.5417582644
  0
LINE
  5
3A1
100
AcDbEntity
  8
0
100
AcDbLine
 62
2
  6
CONTINUOUS
 10
12.9886867486
 20
2.5920323691
 11
12.9886867486
 21
2.7192058456
  0
LINE
  5
3A2
100
AcDbEntity
  8
0
100
AcDbLine
 62
2
  6
CONTINUOUS
 10
12.9686867375
 20
2.3610200462
 11
12.9686867375
 21
2.4912273132
  0
LINE
  5
3A3
100
AcDbEntity
  8
0
100
AcDbLine
 62
2
  6
CONTINUOUS
 10
12.9686867375
 20
2.5920323691
 11
12.9686867375
 21
2.7197366348
  0
LINE
  5
3A4
100
AcDbEntity
  8
0
100
AcDbLine
 62
2
  6
CONTINUOUS
 10
12.9486867264
 20
2.360489257
 11
12.9486867264
 21
2.4912273132
  0
LINE
  5
3A5
100
AcDbEntity
  8
0
100
AcDbLine
 62
2
  6
CONTINUOUS
 10
12.9486867264
 20
2.5920323691
 11
12.9486867264
 21
2.720267424
  0
LINE
  5
3A6
100
AcDbEntity
  8
0
100
AcDbLine
 62
2
  6
CONTINUOUS
 10
12.9286867153
 20
2.3602836008
 11
12.9286867153
 21
2.4912273132
  0
LINE
  5
3A7
100
AcDbEntity
  8
0
100
AcDbLine
 62
2
  6
CONTINUOUS
 10
12.9286867153
 20
2.515977327
 11
12.9286867153
 21
2.5672823554
  0
LINE
  5
3A8
100
AcDbEntity
  8
0
100
AcDbLine
 62
2
  6
CONTINUOUS
 10
12.9286867153
 20
2.5920323691
 11
12.9286867153
 21
2.7204730802
  0
LINE
  5
3A9
100
AcDbEntity
  8
0
100
AcDbLine
 62
2
  6
CONTINUOUS
 10
12.9086867042
 20
2.3604597639
 11
12.9086867042
 21
2.7202969171
  0
LINE
  5
3AA
100
AcDbEntity
  8
0
100
AcDbLine
 62
2
  6
CONTINUOUS
 10
12.8886866931
 20
2.360635927
 11
12.8886866931
 21
2.5672823554
  0
LINE
  5
3AB
100
AcDbEntity
  8
0
100
AcDbLine
 62
2
  6
CONTINUOUS
 10
12.8886866931
 20
2.5920323691
 11
12.8886866931
 21
2.720120754
  0
LINE
  5
3AC
100
AcDbEntity
  8
0
100
AcDbLine
 62
2
  6
CONTINUOUS
 10
12.868686682
 20
2.3608120901
 11
12.868686682
 21
2.491232357
  0
LINE
  5
3AD
100
AcDbEntity
  8
0
100
AcDbLine
 62
2
  6
CONTINUOUS
 10
12.868686682
 20
2.5920323691
 11
12.868686682
 21
2.7199445909
  0
LINE
  5
3AE
100
AcDbEntity
  8
0
100
AcDbLine
 62
2
  6
CONTINUOUS
 10
12.8486866709
 20
2.3609882532
 11
12.8486866709
 21
2.4912273132
  0
LINE
  5
3AF
100
AcDbEntity
  8
0
100
AcDbLine
 62
2
  6
CONTINUOUS
 10
12.8486866709
 20
2.5920323691
 11
12.8486866709
 21
2.7197684278
  0
LINE
  5
3B0
100
AcDbEntity
  8
0
100
AcDbLine
 62
2
  6
CONTINUOUS
 10
12.8286866598
 20
2.3611644163
 11
12.8286866598
 21
2.4912273132
  0
LINE
  5
3B1
100
AcDbEntity
  8
0
100
AcDbLine
 62
2
  6
CONTINUOUS
 10
12.8286866598
 20
2.5396527025
 11
12.8286866598
 21
2.5672823554
  0
LINE
  5
3B2
100
AcDbEntity
  8
0
100
AcDbLine
 62
2
  6
CONTINUOUS
 10
12.8286866598
 20
2.5920323691
 11
12.8286866598
 21
2.7195922647
  0
LINE
  5
3B3
100
AcDbEntity
  8
0
100
AcDbLine
 62
2
  6
CONTINUOUS
 10
12.8086866487
 20
2.3613405794
 11
12.8086866487
 21
2.4912273132
  0
LINE
  5
3B4
100
AcDbEntity
  8
0
100
AcDbLine
 62
2
  6
CONTINUOUS
 10
12.8086866487
 20
2.5587355508
 11
12.8086866487
 21
2.7194161016
  0
LINE
  5
3B5
100
AcDbEntity
  8
0
100
AcDbLine
 62
2
  6
CONTINUOUS
 10
12.7886866376
 20
2.3621089572
 11
12.7886866376
 21
2.4957181055
  0
LINE
  5
3B6
100
AcDbEntity
  8
0
100
AcDbLine
 62
2
  6
CONTINUOUS
 10
12.7886866376
 20
2.5778183992
 11
12.7886866376
 21
2.7186477238
  0
LINE
  5
3B7
100
AcDbEntity
  8
0
100
AcDbLine
 62
2
  6
CONTINUOUS
 10
12.7686866266
 20
2.3630013935
 11
12.7686866266
 21
2.5148009227
  0
LINE
  5
3B8
100
AcDbEntity
  8
0
100
AcDbLine
 62
2
  6
CONTINUOUS
 10
12.7686866266
 20
2.5920323691
 11
12.7686866266
 21
2.7177552874
  0
LINE
  5
3B9
100
AcDbEntity
  8
0
100
AcDbLine
 62
2
  6
CONTINUOUS
 10
12.7486866155
 20
2.3638938299
 11
12.7486866155
 21
2.4913263218
  0
LINE
  5
3BA
100
AcDbEntity
  8
0
100
AcDbLine
 62
2
  6
CONTINUOUS
 10
12.7486866155
 20
2.5158783184
 11
12.7486866155
 21
2.5338837399
  0
LINE
  5
3BB
100
AcDbEntity
  8
0
100
AcDbLine
 62
2
  6
CONTINUOUS
 10
12.7486866155
 20
2.5920323691
 11
12.7486866155
 21
2.7168628511
  0
LINE
  5
3BC
100
AcDbEntity
  8
0
100
AcDbLine
 62
2
  6
CONTINUOUS
 10
12.7286866044
 20
2.3647862663
 11
12.7286866044
 21
2.4912273132
  0
LINE
  5
3BD
100
AcDbEntity
  8
0
100
AcDbLine
 62
2
  6
CONTINUOUS
 10
12.7286866044
 20
2.515977327
 11
12.7286866044
 21
2.5527601554
  0
LINE
  5
3BE
100
AcDbEntity
  8
0
100
AcDbLine
 62
2
  6
CONTINUOUS
 10
12.7286866044
 20
2.5920323691
 11
12.7286866044
 21
2.7159704147
  0
LINE
  5
3BF
100
AcDbEntity
  8
0
100
AcDbLine
 62
2
  6
CONTINUOUS
 10
12.7086865933
 20
2.3656787026
 11
12.7086865933
 21
2.4912273132
  0
LINE
  5
3C0
100
AcDbEntity
  8
0
100
AcDbLine
 62
2
  6
CONTINUOUS
 10
12.7086865933
 20
2.5920323691
 11
12.7086865933
 21
2.7150779784
  0
LINE
  5
3C1
100
AcDbEntity
  8
0
100
AcDbLine
 62
2
  6
CONTINUOUS
 10
12.6886865822
 20
2.366571139
 11
12.6886865822
 21
2.4912273132
  0
LINE
  5
3C2
100
AcDbEntity
  8
0
100
AcDbLine
 62
2
  6
CONTINUOUS
 10
12.6886865822
 20
2.515977327
 11
12.6886865822
 21
2.5672823554
  0
LINE
  5
3C3
100
AcDbEntity
  8
0
100
AcDbLine
 62
2
  6
CONTINUOUS
 10
12.6886865822
 20
2.5920323691
 11
12.6886865822
 21
2.714185542
  0
LINE
  5
3C4
100
AcDbEntity
  8
0
100
AcDbLine
 62
2
  6
CONTINUOUS
 10
12.6686865711
 20
2.3677104027
 11
12.6686865711
 21
2.7130462783
  0
LINE
  5
3C5
100
AcDbEntity
  8
0
100
AcDbLine
 62
2
  6
CONTINUOUS
 10
12.64868656
 20
2.3693682721
 11
12.64868656
 21
2.7113884089
  0
LINE
  5
3C6
100
AcDbEntity
  8
0
100
AcDbLine
 62
2
  6
CONTINUOUS
 10
12.6286865489
 20
2.3710261415
 11
12.6286865489
 21
2.4912273132
  0
LINE
  5
3C7
100
AcDbEntity
  8
0
100
AcDbLine
 62
2
  6
CONTINUOUS
 10
12.6286865489
 20
2.515977327
 11
12.6286865489
 21
2.7097305395
  0
LINE
  5
3C8
100
AcDbEntity
  8
0
100
AcDbLine
 62
2
  6
CONTINUOUS
 10
12.6086865378
 20
2.372684011
 11
12.6086865378
 21
2.4912273132
  0
LINE
  5
3C9
100
AcDbEntity
  8
0
100
AcDbLine
 62
2
  6
CONTINUOUS
 10
12.6086865378
 20
2.5351122279
 11
12.6086865378
 21
2.70807267
  0
LINE
  5
3CA
100
AcDbEntity
  8
0
100
AcDbLine
 62
2
  6
CONTINUOUS
 10
12.5886865267
 20
2.3743418804
 11
12.5886865267
 21
2.4912273132
  0
LINE
  5
3CB
100
AcDbEntity
  8
0
100
AcDbLine
 62
2
  6
CONTINUOUS
 10
12.5886865267
 20
2.5660172622
 11
12.5886865267
 21
2.7064148006
  0
LINE
  5
3CC
100
AcDbEntity
  8
0
100
AcDbLine
 62
2
  6
CONTINUOUS
 10
12.5686865156
 20
2.3759997498
 11
12.5686865156
 21
2.4912273132
  0
LINE
  5
3CD
100
AcDbEntity
  8
0
100
AcDbLine
 62
2
  6
CONTINUOUS
 10
12.5686865156
 20
2.5920323691
 11
12.5686865156
 21
2.7047569312
  0
LINE
  5
3CE
100
AcDbEntity
  8
0
100
AcDbLine
 62
2
  6
CONTINUOUS
 10
12.5486865045
 20
2.3777575277
 11
12.5486865045
 21
2.4912273132
  0
LINE
  5
3CF
100
AcDbEntity
  8
0
100
AcDbLine
 62
2
  6
CONTINUOUS
 10
12.5486865045
 20
2.515977327
 11
12.5486865045
 21
2.5275118824
  0
LINE
  5
3D0
100
AcDbEntity
  8
0
100
AcDbLine
 62
2
  6
CONTINUOUS
 10
12.5486865045
 20
2.5920323691
 11
12.5486865045
 21
2.7029991533
  0
LINE
  5
3D1
100
AcDbEntity
  8
0
100
AcDbLine
 62
2
  6
CONTINUOUS
 10
12.5286864935
 20
2.3802813811
 11
12.5286864935
 21
2.5296213345
  0
LINE
  5
3D2
100
AcDbEntity
  8
0
100
AcDbLine
 62
2
  6
CONTINUOUS
 10
12.5286864935
 20
2.5505713461
 11
12.5286864935
 21
2.5667383551
  0
LINE
  5
3D3
100
AcDbEntity
  8
0
100
AcDbLine
 62
2
  6
CONTINUOUS
 10
12.5286864935
 20
2.5920323691
 11
12.5286864935
 21
2.7004752999
  0
LINE
  5
3D4
100
AcDbEntity
  8
0
100
AcDbLine
 62
2
  6
CONTINUOUS
 10
12.5086864824
 20
2.3828052346
 11
12.5086864824
 21
2.4912273132
  0
LINE
  5
3D5
100
AcDbEntity
  8
0
100
AcDbLine
 62
2
  6
CONTINUOUS
 10
12.5086864824
 20
2.515977327
 11
12.5086864824
 21
2.5279667721
  0
LINE
  5
3D6
100
AcDbEntity
  8
0
100
AcDbLine
 62
2
  6
CONTINUOUS
 10
12.5086864824
 20
2.5868602074
 11
12.5086864824
 21
2.6979514464
  0
LINE
  5
3D7
100
AcDbEntity
  8
0
100
AcDbLine
 62
2
  6
CONTINUOUS
 10
12.4886864713
 20
2.385329088
 11
12.4886864713
 21
2.4912273132
  0
LINE
  5
3D8
100
AcDbEntity
  8
0
100
AcDbLine
 62
2
  6
CONTINUOUS
 10
12.4886864713
 20
2.5553401045
 11
12.4886864713
 21
2.695427593
  0
LINE
  5
3D9
100
AcDbEntity
  8
0
100
AcDbLine
 62
2
  6
CONTINUOUS
 10
12.4686864602
 20
2.3878529415
 11
12.4686864602
 21
2.4912273132
  0
LINE
  5
3DA
100
AcDbEntity
  8
0
100
AcDbLine
 62
2
  6
CONTINUOUS
 10
12.4686864602
 20
2.5238200015
 11
12.4686864602
 21
2.6929037395
  0
LINE
  5
3DB
100
AcDbEntity
  8
0
100
AcDbLine
 62
2
  6
CONTINUOUS
 10
12.4486864491
 20
2.390376795
 11
12.4486864491
 21
2.4912273132
  0
LINE
  5
3DC
100
AcDbEntity
  8
0
100
AcDbLine
 62
2
  6
CONTINUOUS
 10
12.4486864491
 20
2.515977327
 11
12.4486864491
 21
2.690379886
  0
LINE
  5
3DD
100
AcDbEntity
  8
0
100
AcDbLine
 62
2
  6
CONTINUOUS
 10
12.428686438
 20
2.3931794042
 11
12.428686438
 21
2.6875772768
  0
LINE
  5
3DE
100
AcDbEntity
  8
0
100
AcDbLine
 62
2
  6
CONTINUOUS
 10
12.4086864269
 20
2.3964643301
 11
12.4086864269
 21
2.5013773986
  0
LINE
  5
3DF
100
AcDbEntity
  8
0
100
AcDbLine
 62
2
  6
CONTINUOUS
 10
12.4086864269
 20
2.5325739971
 11
12.4086864269
 21
2.5537224311
  0
LINE
  5
3E0
100
AcDbEntity
  8
0
100
AcDbLine
 62
2
  6
CONTINUOUS
 10
12.4086864269
 20
2.5791473398
 11
12.4086864269
 21
2.6842923509
  0
LINE
  5
3E1
100
AcDbEntity
  8
0
100
AcDbLine
 62
2
  6
CONTINUOUS
 10
12.3886864158
 20
2.399749256
 11
12.3886864158
 21
2.4921022658
  0
LINE
  5
3E2
100
AcDbEntity
  8
0
100
AcDbLine
 62
2
  6
CONTINUOUS
 10
12.3886864158
 20
2.5895929958
 11
12.3886864158
 21
2.681007425
  0
LINE
  5
3E3
100
AcDbEntity
  8
0
100
AcDbLine
 62
2
  6
CONTINUOUS
 10
12.3686864047
 20
2.403451877
 11
12.3686864047
 21
2.4912273132
  0
LINE
  5
3E4
100
AcDbEntity
  8
0
100
AcDbLine
 62
2
  6
CONTINUOUS
 10
12.3686864047
 20
2.5920323691
 11
12.3686864047
 21
2.677304804
  0
LINE
  5
3E5
100
AcDbEntity
  8
0
100
AcDbLine
 62
2
  6
CONTINUOUS
 10
12.3486863936
 20
2.407324637
 11
12.3486863936
 21
2.4912273132
  0
LINE
  5
3E6
100
AcDbEntity
  8
0
100
AcDbLine
 62
2
  6
CONTINUOUS
 10
12.3486863936
 20
2.5920323691
 11
12.3486863936
 21
2.673432044
  0
LINE
  5
3E7
100
AcDbEntity
  8
0
100
AcDbLine
 62
2
  6
CONTINUOUS
 10
12.3286863825
 20
2.4113493968
 11
12.3286863825
 21
2.4912273132
  0
LINE
  5
3E8
100
AcDbEntity
  8
0
100
AcDbLine
 62
2
  6
CONTINUOUS
 10
12.3286863825
 20
2.515977327
 11
12.3286863825
 21
2.5333023366
  0
LINE
  5
3E9
100
AcDbEntity
  8
0
100
AcDbLine
 62
2
  6
CONTINUOUS
 10
12.3286863825
 20
2.5499573458
 11
12.3286863825
 21
2.5672823554
  0
LINE
  5
3EA
100
AcDbEntity
  8
0
100
AcDbLine
 62
2
  6
CONTINUOUS
 10
12.3286863825
 20
2.5920323691
 11
12.3286863825
 21
2.6694072842
  0
LINE
  5
3EB
100
AcDbEntity
  8
0
100
AcDbLine
 62
2
  6
CONTINUOUS
 10
12.3086863715
 20
2.4159005505
 11
12.3086863715
 21
2.4912273132
  0
LINE
  5
3EC
100
AcDbEntity
  8
0
100
AcDbLine
 62
2
  6
CONTINUOUS
 10
12.3086863715
 20
2.515977327
 11
12.3086863715
 21
2.5333023366
  0
LINE
  5
3ED
100
AcDbEntity
  8
0
100
AcDbLine
 62
2
  6
CONTINUOUS
 10
12.3086863715
 20
2.5499573458
 11
12.3086863715
 21
2.5672823554
  0
LINE
  5
3EE
100
AcDbEntity
  8
0
100
AcDbLine
 62
2
  6
CONTINUOUS
 10
12.3086863715
 20
2.5920323691
 11
12.3086863715
 21
2.6648561305
  0
LINE
  5
3EF
100
AcDbEntity
  8
0
100
AcDbLine
 62
2
  6
CONTINUOUS
 10
12.2886863604
 20
2.4204517041
 11
12.2886863604
 21
2.4912273132
  0
LINE
  5
3F0
100
AcDbEntity
  8
0
100
AcDbLine
 62
2
  6
CONTINUOUS
 10
12.2886863604
 20
2.5920323691
 11
12.2886863604
 21
2.6603049769
  0
LINE
  5
3F1
100
AcDbEntity
  8
0
100
AcDbLine
 62
2
  6
CONTINUOUS
 10
12.2686863493
 20
2.4257438218
 11
12.2686863493
 21
2.4912273132
  0
LINE
  5
3F2
100
AcDbEntity
  8
0
100
AcDbLine
 62
2
  6
CONTINUOUS
 10
12.2686863493
 20
2.5920323691
 11
12.2686863493
 21
2.6550128592
  0
LINE
  5
3F3
100
AcDbEntity
  8
0
100
AcDbLine
 62
2
  6
CONTINUOUS
 10
12.2486863382
 20
2.4310978667
 11
12.2486863382
 21
2.4912273132
  0
LINE
  5
3F4
100
AcDbEntity
  8
0
100
AcDbLine
 62
2
  6
CONTINUOUS
 10
12.2486863382
 20
2.5920323691
 11
12.2486863382
 21
2.6496588142
  0
LINE
  5
3F5
100
AcDbEntity
  8
0
100
AcDbLine
 62
2
  6
CONTINUOUS
 10
12.2286863271
 20
2.4372566433
 11
12.2286863271
 21
2.4912273132
  0
LINE
  5
3F6
100
AcDbEntity
  8
0
100
AcDbLine
 62
2
  6
CONTINUOUS
 10
12.2286863271
 20
2.515977327
 11
12.2286863271
 21
2.5672823554
  0
LINE
  5
3F7
100
AcDbEntity
  8
0
100
AcDbLine
 62
2
  6
CONTINUOUS
 10
12.2286863271
 20
2.5920323691
 11
12.2286863271
 21
2.6435000377
  0
LINE
  5
3F8
100
AcDbEntity
  8
0
100
AcDbLine
 62
2
  6
CONTINUOUS
 10
12.208686316
 20
2.443589771
 11
12.208686316
 21
2.4912273132
  0
LINE
  5
3F9
100
AcDbEntity
  8
0
100
AcDbLine
 62
2
  6
CONTINUOUS
 10
12.208686316
 20
2.515977327
 11
12.208686316
 21
2.5672823554
  0
LINE
  5
3FA
100
AcDbEntity
  8
0
100
AcDbLine
 62
2
  6
CONTINUOUS
 10
12.208686316
 20
2.5920323691
 11
12.208686316
 21
2.63716691
  0
LINE
  5
3FB
100
AcDbEntity
  8
0
100
AcDbLine
 62
2
  6
CONTINUOUS
 10
12.1886863049
 20
2.4510806436
 11
12.1886863049
 21
2.6296760373
  0
LINE
  5
3FC
100
AcDbEntity
  8
0
100
AcDbLine
 62
2
  6
CONTINUOUS
 10
12.1686862938
 20
2.4591016523
 11
12.1686862938
 21
2.6216550287
  0
LINE
  5
3FD
100
AcDbEntity
  8
0
100
AcDbLine
 62
2
  6
CONTINUOUS
 10
12.1486862827
 20
2.468314272
 11
12.1486862827
 21
2.612442409
  0
LINE
  5
3FE
100
AcDbEntity
  8
0
100
AcDbLine
 62
2
  6
CONTINUOUS
 10
12.1286862716
 20
2.4794932339
 11
12.1286862716
 21
2.601263447
  0
LINE
  5
3FF
100
AcDbEntity
  8
0
100
AcDbLine
 62
2
  6
CONTINUOUS
 10
12.1086862605
 20
2.4934150665
 11
12.1086862605
 21
2.5873416144
  0
LINE
  5
400
100
AcDbEntity
  8
0
100
AcDbLine
 62
2
  6
CONTINUOUS
 10
12.0886862494
 20
2.5144449553
 11
12.0886862494
 21
2.5663117257
  0
ENDBLK
  5
401
100
AcDbEntity
  8
0
  6
BYBLOCK
 62
0
100
AcDbBlockEnd
  0
BLOCK
  5
402
100
AcDbEntity
  8
0
100
AcDbBlockBegin
  2
_FILLED
 70
64
 10
0.0
 20
0.0
  3
_FILLED
  1

  0
SOLID
  5
403
100
AcDbEntity
  8
0
  6
BYBLOCK
 62
0
100
AcDbTrace
 10
0.0
 20
0.0
 11
-1.0
 21
0.1666666667
 12
-1.0
 22
-0.1666666667
 13
-1.0
 23
-0.1666666667
  0
ENDBLK
  5
404
100
AcDbEntity
  8
0
  6
BYBLOCK
 62
0
100
AcDbBlockEnd
  0
BLOCK
  5
405
100
AcDbEntity
  8
SCHEME_DIMS
100
AcDbBlockBegin
 62
2
  6
CONTINUOUS
  2
*D0
 70
65
 10
0.0
 20
0.0
  3
*D0
  1

  0
MTEXT
  5
406
100
AcDbEntity
  8
SCHEME_DIMS
100
AcDbMText
 62
2
  6
CONTINUOUS
  7
STANDARD
 71
2
 72
1
 10
4.9124223316
 20
5.1282141104
 30
0.0
 11
1.0
 21
0.0
 31
0.0
 44
0.9
  1
31\P[1.22]
 40
0.1
 41
0.6
  0
LINE
  5
407
100
AcDbEntity
  8
SCHEME_DIMS
100
AcDbLine
 62
2
  6
CONTINUOUS
 10
4.1450548182
 20
4.4672141104
 11
5.2374223316
 21
4.4672141104
  0
LINE
  5
408
100
AcDbEntity
  8
SCHEME_DIMS
100
AcDbLine
 62
2
  6
CONTINUOUS
 10
4.316239676
 20
5.6892141104
 11
5.2374223316
 21
5.6892141104
  0
LINE
  5
409
100
AcDbEntity
  8
SCHEME_DIMS
100
AcDbLine
 62
2
  6
CONTINUOUS
 10
5.1124223316
 20
4.4672141104
 11
5.1124223316
 21
4.7782141104
  0
LINE
  5
40A
100
AcDbEntity
  8
SCHEME_DIMS
100
AcDbLine
 62
2
  6
CONTINUOUS
 10
5.1124223316
 20
5.6892141104
 11
5.1124223316
 21
5.2282141104
  0
INSERT
  5
40B
100
AcDbEntity
  8
SCHEME_DIMS
100
AcDbBlockReference
 62
2
  6
CONTINUOUS
  2
_FILLED
 10
5.1124223316
 20
4.4672141104
 41
0.1875
 42
0.1875
 43
0.1875
 50
270.0
  0
INSERT
  5
40C
100
AcDbEntity
  8
SCHEME_DIMS
100
AcDbBlockReference
 62
2
  6
CONTINUOUS
  2
_FILLED
 10
5.1124223316
 20
5.6892141104
 41
0.1875
 42
0.1875
 43
0.1875
 50
90.0
  0
ENDBLK
  5
40D
100
AcDbEntity
  8
0
  6
BYBLOCK
 62
0
100
AcDbBlockEnd
  0
BLOCK
  5
40E
100
AcDbEntity
  8
SCHEME_DIMS
100
AcDbBlockBegin
 62
2
  6
CONTINUOUS
  2
*D1
 70
65
 10
0.0
 20
0.0
  3
*D1
  1

  0
MTEXT
  5
40F
100
AcDbEntity
  8
SCHEME_DIMS
100
AcDbMText
 62
2
  6
CONTINUOUS
  7
STANDARD
 71
2
 72
1
 10
7.7065636912
 20
7.0302141104
 30
0.0
 11
1.0
 21
0.0
 31
0.0
 44
0.9
  1
22,2\P[.87]
 40
0.1
 41
0.5
  0
LINE
  5
410
100
AcDbEntity
  8
SCHEME_DIMS
100
AcDbLine
 62
2
  6
CONTINUOUS
 10
7.3196818015
 20
6.2202180471
 11
7.3196818015
 21
7.1052141104
  0
LINE
  5
411
100
AcDbEntity
  8
SCHEME_DIMS
100
AcDbLine
 62
2
  6
CONTINUOUS
 10
8.193445581
 20
6.5892762574
 11
8.193445581
 21
7.1052141104
  0
LINE
  5
412
100
AcDbEntity
  8
SCHEME_DIMS
100
AcDbLine
 62
2
  6
CONTINUOUS
 10
7.3196818015
 20
6.9802141104
 11
6.9196818015
 21
6.9802141104
  0
LINE
  5
413
100
AcDbEntity
  8
SCHEME_DIMS
100
AcDbLine
 62
2
  6
CONTINUOUS
 10
8.193445581
 20
6.9802141104
 11
8.593445581
 21
6.9802141104
  0
INSERT
  5
414
100
AcDbEntity
  8
SCHEME_DIMS
100
AcDbBlockReference
 62
2
  6
CONTINUOUS
  2
_FILLED
 10
7.3196818015
 20
6.9802141104
 41
0.1875
 42
0.1875
 43
0.1875
  0
INSERT
  5
415
100
AcDbEntity
  8
SCHEME_DIMS
100
AcDbBlockReference
 62
2
  6
CONTINUOUS
  2
_FILLED
 10
8.193445581
 20
6.9802141104
 41
0.1875
 42
0.1875
 43
0.1875
 50
180.0
  0
ENDBLK
  5
416
100
AcDbEntity
  8
0
  6
BYBLOCK
 62
0
100
AcDbBlockEnd
  0
BLOCK
  5
417
100
AcDbEntity
  8
SCHEME_DIMS
100
AcDbBlockBegin
 62
2
  6
CONTINUOUS
  2
*D2
 70
65
 10
0.0
 20
0.0
  3
*D2
  1

  0
MTEXT
  5
418
100
AcDbEntity
  8
SCHEME_DIMS
100
AcDbMText
 62
2
  6
CONTINUOUS
  7
STANDARD
 71
2
 72
1
 10
8.0995636912
 20
7.5302141104
 30
0.0
 11
1.0
 21
0.0
 31
0.0
 44
0.9
  1
44,7\P[1.76]
 40
0.1
 41
0.6
  0
LINE
  5
419
100
AcDbEntity
  8
SCHEME_DIMS
100
AcDbLine
 62
2
  6
CONTINUOUS
 10
7.3196818015
 20
6.2202180471
 11
7.3196818015
 21
7.6052141104
  0
LINE
  5
41A
100
AcDbEntity
  8
SCHEME_DIMS
100
AcDbLine
 62
2
  6
CONTINUOUS
 10
9.079445581
 20
6.4792141104
 11
9.079445581
 21
7.6052141104
  0
LINE
  5
41B
100
AcDbEntity
  8
SCHEME_DIMS
100
AcDbLine
 62
2
  6
CONTINUOUS
 10
7.3196818015
 20
7.4802141104
 11
7.7995636912
 21
7.4802141104
  0
LINE
  5
41C
100
AcDbEntity
  8
SCHEME_DIMS
100
AcDbLine
 62
2
  6
CONTINUOUS
 10
9.079445581
 20
7.4802141104
 11
8.5995636912
 21
7.4802141104
  0
INSERT
  5
41D
100
AcDbEntity
  8
SCHEME_DIMS
100
AcDbBlockReference
 62
2
  6
CONTINUOUS
  2
_FILLED
 10
7.3196818015
 20
7.4802141104
 41
0.1875
 42
0.1875
 43
0.1875
 50
180.0
  0
INSERT
  5
41E
100
AcDbEntity
  8
SCHEME_DIMS
100
AcDbBlockReference
 62
2
  6
CONTINUOUS
  2
_FILLED
 10
9.079445581
 20
7.4802141104
 41
0.1875
 42
0.1875
 43
0.1875
  0
ENDBLK
  5
41F
100
AcDbEntity
  8
0
  6
BYBLOCK
 62
0
100
AcDbBlockEnd
  0
BLOCK
  5
420
100
AcDbEntity
  8
SCHEME_DIMS
100
AcDbBlockBegin
 62
2
  6
CONTINUOUS
  2
*D3
 70
65
 10
0.0
 20
0.0
  3
*D3
  1

  0
MTEXT
  5
421
100
AcDbEntity
  8
SCHEME_DIMS
100
AcDbMText
 62
2
  6
CONTINUOUS
  7
TEXTSTYLE_5
 71
2
 72
1
 10
3.7214223316
 20
7.1794975575
 30
0.0
 11
1.0
 21
0.0
 31
0.0
 44
0.9
  1
{\Fgdt;n}\Ftxt;40,2\P[1.58]
 40
0.1
 41
0.6
  0
LINE
  5
422
100
AcDbEntity
  8
SCHEME_DIMS
100
AcDbLine
 62
2
  6
CONTINUOUS
 10
4.6124223316
 20
8.500761337
 11
4.6124223316
 21
7.0044975575
  0
LINE
  5
423
100
AcDbEntity
  8
SCHEME_DIMS
100
AcDbLine
 62
2
  6
CONTINUOUS
 10
3.0304223316
 20
8.500761337
 11
3.0304223316
 21
7.0044975575
  0
LINE
  5
424
100
AcDbEntity
  8
SCHEME_DIMS
100
AcDbLine
 62
2
  6
CONTINUOUS
 10
4.6124223316
 20
7.1294975575
 11
4.2880889983
 21
7.1294975575
  0
LINE
  5
425
100
AcDbEntity
  8
SCHEME_DIMS
100
AcDbLine
 62
2
  6
CONTINUOUS
 10
3.0304223316
 20
7.1294975575
 11
3.354755665
 21
7.1294975575
  0
INSERT
  5
426
100
AcDbEntity
  8
SCHEME_DIMS
100
AcDbBlockReference
 62
2
  6
CONTINUOUS
  2
_FILLED
 10
4.6124223316
 20
7.1294975575
 41
0.1875
 42
0.1875
 43
0.1875
  0
INSERT
  5
427
100
AcDbEntity
  8
SCHEME_DIMS
100
AcDbBlockReference
 62
2
  6
CONTINUOUS
  2
_FILLED
 10
3.0304223316
 20
7.1294975575
 41
0.1875
 42
0.1875
 43
0.1875
 50
180.0
  0
ENDBLK
  5
428
100
AcDbEntity
  8
0
  6
BYBLOCK
 62
0
100
AcDbBlockEnd
  0
BLOCK
  5
429
100
AcDbEntity
  8
SCHEME_DIMS
100
AcDbBlockBegin
 62
2
  6
CONTINUOUS
  2
*D4
 70
65
 10
0.0
 20
0.0
  3
*D4
  1

  0
MTEXT
  5
42A
100
AcDbEntity
  8
SCHEME_DIMS
100
AcDbMText
 62
2
  6
CONTINUOUS
  7
STANDARD
 71
2
 72
1
 10
10.9913499047
 20
5.5219641104
 30
0.0
 11
1.0
 21
0.0
 31
0.0
 44
0.9
  1
51\P[2.01]
 40
0.1
 41
0.6
  0
LINE
  5
42B
100
AcDbEntity
  8
SCHEME_DIMS
100
AcDbLine
 62
2
  6
CONTINUOUS
 10
12.1587174182
 20
4.4672141104
 11
11.0663499047
 21
4.4672141104
  0
LINE
  5
42C
100
AcDbEntity
  8
SCHEME_DIMS
100
AcDbLine
 62
2
  6
CONTINUOUS
 10
12.4198499047
 20
6.4767141104
 11
11.0663499047
 21
6.4767141104
  0
LINE
  5
42D
100
AcDbEntity
  8
SCHEME_DIMS
100
AcDbLine
 62
2
  6
CONTINUOUS
 10
11.1913499047
 20
4.4672141104
 11
11.1913499047
 21
5.1719641104
  0
LINE
  5
42E
100
AcDbEntity
  8
SCHEME_DIMS
100
AcDbLine
 62
2
  6
CONTINUOUS
 10
11.1913499047
 20
6.4767141104
 11
11.1913499047
 21
5.6219641104
  0
INSERT
  5
42F
100
AcDbEntity
  8
SCHEME_DIMS
100
AcDbBlockReference
 62
2
  6
CONTINUOUS
  2
_FILLED
 10
11.1913499047
 20
4.4672141104
 41
0.1875
 42
0.1875
 43
0.1875
 50
270.0
  0
INSERT
  5
430
100
AcDbEntity
  8
SCHEME_DIMS
100
AcDbBlockReference
 62
2
  6
CONTINUOUS
  2
_FILLED
 10
11.1913499047
 20
6.4767141104
 41
0.1875
 42
0.1875
 43
0.1875
 50
90.0
  0
ENDBLK
  5
431
100
AcDbEntity
  8
0
  6
BYBLOCK
 62
0
100
AcDbBlockEnd
  0
ENDSEC
  0
SECTION
  2
ENTITIES
  0
MTEXT
  5
432
100
AcDbEntity
  8
0
100
AcDbMText
 62
2
  6
CONTINUOUS
  7
TEXTSTYLE_2
 71
2
 72
1
 10
11.0287658475
 20
1.794867839
 30
0.0
 11
1.0
 21
0.0
 31
0.0
 44
0.9
  1
THIRD ANGLE PROJECTION
 40
0.1
 41
1.76
  0
MTEXT
  5
433
100
AcDbEntity
  8
0
100
AcDbMText
 62
2
  6
CONTINUOUS
  7
STANDARD
 71
1
 72
1
 10
12.88
 20
1.457
 30
0.0
 11
1.0
 21
0.0
 31
0.0
 44
0.9
  1
DRAWING NO.
 40
0.08
 41
0.88
  0
MTEXT
  5
434
100
AcDbEntity
  8
0
100
AcDbMText
 62
2
  6
CONTINUOUS
  7
TEXTSTYLE_3
 71
2
 72
1
 10
11.03
 20
2.516432
 30
0.0
 11
1.0
 21
0.0
 31
0.0
 44
0.9
  1
and is proprietary in general
 40
0.08
 41
1.972
  0
MTEXT
  5
435
100
AcDbEntity
  8
0
100
AcDbMText
 62
2
  6
CONTINUOUS
  7
TEXTSTYLE_3
 71
2
 72
1
 10
11.03
 20
2.396432
 30
0.0
 11
1.0
 21
0.0
 31
0.0
 44
0.9
  1
and in detail.  Its contents
 40
0.08
 41
1.904
  0
MTEXT
  5
436
100
AcDbEntity
  8
0
100
AcDbMText
 62
2
  6
CONTINUOUS
  7
TEXTSTYLE_3
 71
2
 72
1
 10
11.03
 20
2.276432
 30
0.0
 11
1.0
 21
0.0
 31
0.0
 44
0.9
  1
shall not be revealed to
 40
0.08
 41
1.632
  0
MTEXT
  5
437
100
AcDbEntity
  8
0
100
AcDbMText
 62
2
  6
CONTINUOUS
  7
TEXTSTYLE_3
 71
2
 72
1
 10
11.03
 20
2.156432
 30
0.0
 11
1.0
 21
0.0
 31
0.0
 44
0.9
  1
outside parties without
 40
0.08
 41
1.564
  0
MTEXT
  5
438
100
AcDbEntity
  8
0
100
AcDbMText
 62
2
  6
CONTINUOUS
  7
TEXTSTYLE_3
 71
2
 72
1
 10
11.03
 20
2.036432
 30
0.0
 11
1.0
 21
0.0
 31
0.0
 44
0.9
  1
written consent of BANNER.
 40
0.08
 41
1.768
  0
MTEXT
  5
439
100
AcDbEntity
  8
0
100
AcDbMText
 62
2
  6
CONTINUOUS
  7
TEXTSTYLE_2
 71
1
 72
1
 10
12.08
 20
2.217
 30
0.0
 11
1.0
 21
0.0
 31
0.0
 44
0.9
  1
TITLE
 40
0.1
 41
0.4
  0
MTEXT
  5
43A
100
AcDbEntity
  8
0
100
AcDbMText
 62
2
  6
CONTINUOUS
  7
STANDARD
 71
1
 72
1
 10
12.08
 20
1.457
 30
0.0
 11
1.0
 21
0.0
 31
0.0
 44
0.9
  1
SIZE
 40
0.08
 41
0.32
  0
MTEXT
  5
43B
100
AcDbEntity
  8
0
100
AcDbMText
 62
2
  6
CONTINUOUS
  7
STANDARD
 71
1
 72
1
 10
12.08
 20
1.087
 30
0.0
 11
1.0
 21
0.0
 31
0.0
 44
0.9
  1
SCALE
 40
0.08
 41
0.4
  0
MTEXT
  5
43C
100
AcDbEntity
  8
0
100
AcDbMText
 62
2
  6
CONTINUOUS
  7
TEXTSTYLE_2
 71
2
 72
1
 10
12.5
 20
1.337
 30
0.0
 11
1.0
 21
0.0
 31
0.0
 44
0.9
  1
B
 40
0.1
 41
0.08
  0
MTEXT
  5
43D
100
AcDbEntity
  8
0
100
AcDbMText
 62
2
  6
CONTINUOUS
  7
TEXTSTYLE_3
 71
2
 72
1
 10
11.03
 20
2.636432
 30
0.0
 11
1.0
 21
0.0
 31
0.0
 44
0.9
  1
of BANNER ENGINEERING CORP.
 40
0.08
 41
1.836
  0
MTEXT
  5
43E
100
AcDbEntity
  8
0
100
AcDbMText
 62
2
  6
CONTINUOUS
  7
TEXTSTYLE_3
 71
2
 72
1
 10
11.03
 20
2.756432
 30
0.0
 11
1.0
 21
0.0
 31
0.0
 44
0.9
  1
This drawing is the property
 40
0.08
 41
1.904
  0
MTEXT
  5
43F
100
AcDbEntity
  8
0
100
AcDbMText
 62
2
  6
CONTINUOUS
  7
TEXTSTYLE_2
 71
2
 72
1
 10
15.03
 20
2.4134
 30
0.0
 11
1.0
 21
0.0
 31
0.0
 44
0.9
  1
MINNEAPOLIS, MN 55440
 40
0.1
 41
1.68
  0
MTEXT
  5
440
100
AcDbEntity
  8
0
100
AcDbMText
 62
2
  6
CONTINUOUS
  7
STANDARD
 71
1
 72
1
 10
14.255
 20
1.087
 30
0.0
 11
1.0
 21
0.0
 31
0.0
 44
0.9
  1
SHEET
 40
0.08
 41
0.4
  0
MTEXT
  5
441
100
AcDbEntity
  8
0
100
AcDbMText
 62
2
  6
CONTINUOUS
  7
STANDARD
 71
1
 72
1
 10
15.63
 20
1.457
 30
0.0
 11
1.0
 21
0.0
 31
0.0
 44
0.9
  1
REV.
 40
0.08
 41
0.32
  0
MTEXT
  5
442
100
AcDbEntity
  8
0
100
AcDbMText
 62
2
  6
CONTINUOUS
  7
STANDARD
 71
3
 72
1
 10
16.38
 20
0.835443
 30
0.0
 11
1.0
 21
0.0
 31
0.0
 44
0.9
  1
PRO/E
 40
0.07
 41
0.35
  0
MTEXT
  5
443
100
AcDbEntity
  8
0
100
AcDbMText
 62
2
  6
CONTINUOUS
  7
TEXTSTYLE_4
 71
2
 72
1
 10
15.03
 20
2.751049
 30
0.0
 11
1.0
 21
0.0
 31
0.0
 44
0.9
  1
BANNER ENGINEERING CORP.
 40
0.12
 41
2.6496
  0
MTEXT
  5
444
100
AcDbEntity
  8
0
100
AcDbMText
 62
2
  6
CONTINUOUS
  7
TEXTSTYLE_2
 71
2
 72
1
 10
15.03
 20
2.5724
 30
0.0
 11
1.0
 21
0.0
 31
0.0
 44
0.9
  1
P.O. BOX 9414
 40
0.1
 41
1.04
  0
MTEXT
  5
445
100
AcDbEntity
  8
0
100
AcDbMText
 62
2
  6
CONTINUOUS
  7
TEXTSTYLE_2
 71
2
 72
1
 10
9.485
 20
10.312
 30
0.0
 11
1.0
 21
0.0
 31
0.0
 44
0.9
  1
4
 40
0.1
 41
0.08
  0
MTEXT
  5
446
100
AcDbEntity
  8
0
100
AcDbMText
 62
2
  6
CONTINUOUS
  7
TEXTSTYLE_2
 71
2
 72
1
 10
11.455
 20
10.312
 30
0.0
 11
1.0
 21
0.0
 31
0.0
 44
0.9
  1
3
 40
0.1
 41
0.08
  0
MTEXT
  5
447
100
AcDbEntity
  8
0
100
AcDbMText
 62
2
  6
CONTINUOUS
  7
TEXTSTYLE_2
 71
2
 72
1
 10
13.425
 20
10.312
 30
0.0
 11
1.0
 21
0.0
 31
0.0
 44
0.9
  1
2
 40
0.1
 41
0.08
  0
MTEXT
  5
448
100
AcDbEntity
  8
0
100
AcDbMText
 62
2
  6
CONTINUOUS
  7
TEXTSTYLE_2
 71
2
 72
1
 10
15.395
 20
10.312
 30
0.0
 11
1.0
 21
0.0
 31
0.0
 44
0.9
  1
1
 40
0.1
 41
0.08
  0
MTEXT
  5
449
100
AcDbEntity
  8
0
100
AcDbMText
 62
2
  6
CONTINUOUS
  7
TEXTSTYLE_2
 71
2
 72
1
 10
3.575
 20
10.312
 30
0.0
 11
1.0
 21
0.0
 31
0.0
 44
0.9
  1
7
 40
0.1
 41
0.08
  0
MTEXT
  5
44A
100
AcDbEntity
  8
0
100
AcDbMText
 62
2
  6
CONTINUOUS
  7
TEXTSTYLE_2
 71
2
 72
1
 10
5.545
 20
10.312
 30
0.0
 11
1.0
 21
0.0
 31
0.0
 44
0.9
  1
6
 40
0.1
 41
0.08
  0
MTEXT
  5
44B
100
AcDbEntity
  8
0
100
AcDbMText
 62
2
  6
CONTINUOUS
  7
TEXTSTYLE_2
 71
2
 72
1
 10
7.515
 20
10.312
 30
0.0
 11
1.0
 21
0.0
 31
0.0
 44
0.9
  1
5
 40
0.1
 41
0.08
  0
MTEXT
  5
44C
100
AcDbEntity
  8
0
100
AcDbMText
 62
2
  6
CONTINUOUS
  7
TEXTSTYLE_2
 71
2
 72
1
 10
1.605
 20
10.312
 30
0.0
 11
1.0
 21
0.0
 31
0.0
 44
0.9
  1
8
 40
0.1
 41
0.08
  0
MTEXT
  5
44D
100
AcDbEntity
  8
0
100
AcDbMText
 62
2
  6
CONTINUOUS
  7
TEXTSTYLE_2
 71
2
 72
1
 10
1.605
 20
0.787
 30
0.0
 11
1.0
 21
0.0
 31
0.0
 44
0.9
  1
8
 40
0.1
 41
0.08
  0
MTEXT
  5
44E
100
AcDbEntity
  8
0
100
AcDbMText
 62
2
  6
CONTINUOUS
  7
TEXTSTYLE_2
 71
2
 72
1
 10
3.575
 20
0.787
 30
0.0
 11
1.0
 21
0.0
 31
0.0
 44
0.9
  1
7
 40
0.1
 41
0.08
  0
MTEXT
  5
44F
100
AcDbEntity
  8
0
100
AcDbMText
 62
2
  6
CONTINUOUS
  7
TEXTSTYLE_2
 71
2
 72
1
 10
5.545
 20
0.787
 30
0.0
 11
1.0
 21
0.0
 31
0.0
 44
0.9
  1
6
 40
0.1
 41
0.08
  0
MTEXT
  5
450
100
AcDbEntity
  8
0
100
AcDbMText
 62
2
  6
CONTINUOUS
  7
TEXTSTYLE_2
 71
2
 72
1
 10
7.515
 20
0.787
 30
0.0
 11
1.0
 21
0.0
 31
0.0
 44
0.9
  1
5
 40
0.1
 41
0.08
  0
MTEXT
  5
451
100
AcDbEntity
  8
0
100
AcDbMText
 62
2
  6
CONTINUOUS
  7
TEXTSTYLE_2
 71
2
 72
1
 10
9.485
 20
0.787
 30
0.0
 11
1.0
 21
0.0
 31
0.0
 44
0.9
  1
4
 40
0.1
 41
0.08
  0
MTEXT
  5
452
100
AcDbEntity
  8
0
100
AcDbMText
 62
2
  6
CONTINUOUS
  7
TEXTSTYLE_2
 71
2
 72
1
 10
11.455
 20
0.787
 30
0.0
 11
1.0
 21
0.0
 31
0.0
 44
0.9
  1
3
 40
0.1
 41
0.08
  0
MTEXT
  5
453
100
AcDbEntity
  8
0
100
AcDbMText
 62
2
  6
CONTINUOUS
  7
TEXTSTYLE_2
 71
2
 72
1
 10
13.425
 20
0.787
 30
0.0
 11
1.0
 21
0.0
 31
0.0
 44
0.9
  1
2
 40
0.1
 41
0.08
  0
MTEXT
  5
454
100
AcDbEntity
  8
0
100
AcDbMText
 62
2
  6
CONTINUOUS
  7
TEXTSTYLE_2
 71
2
 72
1
 10
15.395
 20
0.787
 30
0.0
 11
1.0
 21
0.0
 31
0.0
 44
0.9
  1
1
 40
0.1
 41
0.08
  0
MTEXT
  5
455
100
AcDbEntity
  8
0
100
AcDbMText
 62
2
  6
CONTINUOUS
  7
TEXTSTYLE_2
 71
3
 72
1
 10
0.52
 20
4.3995
 30
0.0
 11
1.0
 21
0.0
 31
0.0
 44
0.9
  1
B
 40
0.1
 41
0.08
  0
MTEXT
  5
456
100
AcDbEntity
  8
0
100
AcDbMText
 62
2
  6
CONTINUOUS
  7
TEXTSTYLE_2
 71
3
 72
1
 10
0.52
 20
2.0995
 30
0.0
 11
1.0
 21
0.0
 31
0.0
 44
0.9
  1
A
 40
0.1
 41
0.08
  0
MTEXT
  5
457
100
AcDbEntity
  8
0
100
AcDbMText
 62
2
  6
CONTINUOUS
  7
TEXTSTYLE_2
 71
3
 72
1
 10
0.52
 20
8.9995
 30
0.0
 11
1.0
 21
0.0
 31
0.0
 44
0.9
  1
D
 40
0.1
 41
0.08
  0
MTEXT
  5
458
100
AcDbEntity
  8
0
100
AcDbMText
 62
2
  6
CONTINUOUS
  7
TEXTSTYLE_2
 71
3
 72
1
 10
0.52
 20
6.6995
 30
0.0
 11
1.0
 21
0.0
 31
0.0
 44
0.9
  1
C
 40
0.1
 41
0.08
  0
MTEXT
  5
459
100
AcDbEntity
  8
0
100
AcDbMText
 62
2
  6
CONTINUOUS
  7
TEXTSTYLE_2
 71
1
 72
1
 10
16.48
 20
8.9995
 30
0.0
 11
1.0
 21
0.0
 31
0.0
 44
0.9
  1
D
 40
0.1
 41
0.08
  0
MTEXT
  5
45A
100
AcDbEntity
  8
0
100
AcDbMText
 62
2
  6
CONTINUOUS
  7
TEXTSTYLE_2
 71
1
 72
1
 10
16.48
 20
6.6995
 30
0.0
 11
1.0
 21
0.0
 31
0.0
 44
0.9
  1
C
 40
0.1
 41
0.08
  0
MTEXT
  5
45B
100
AcDbEntity
  8
0
100
AcDbMText
 62
2
  6
CONTINUOUS
  7
TEXTSTYLE_2
 71
1
 72
1
 10
16.48
 20
4.3995
 30
0.0
 11
1.0
 21
0.0
 31
0.0
 44
0.9
  1
B
 40
0.1
 41
0.08
  0
MTEXT
  5
45C
100
AcDbEntity
  8
0
100
AcDbMText
 62
2
  6
CONTINUOUS
  7
TEXTSTYLE_2
 71
1
 72
1
 10
16.48
 20
2.0995
 30
0.0
 11
1.0
 21
0.0
 31
0.0
 44
0.9
  1
A
 40
0.1
 41
0.08
  0
MTEXT
  5
45D
100
AcDbEntity
  8
0
100
AcDbMText
 62
2
  6
CONTINUOUS
  7
STANDARD
 71
1
 72
1
 10
14.819264911
 20
1.0627941725
 30
0.0
 11
1.0
 21
0.0
 31
0.0
 44
0.9
  1
1 OF 1
 40
0.1
 41
0.6
  0
MTEXT
  5
45E
100
AcDbEntity
  8
0
100
AcDbMText
 62
7
  6
CONTINUOUS
  7
STANDARD
 71
1
 72
1
 10
13.8911999818
 20
1.3747321586
 30
0.0
 11
1.0
 21
0.0
 31
0.0
 44
0.9
  1
154439
 40
0.12
 41
0.72
  0
MTEXT
  5
45F
100
AcDbEntity
  8
0
100
AcDbMText
 62
2
  6
CONTINUOUS
  7
STANDARD
 71
1
 72
1
 10
12.644264911
 20
1.0627941725
 30
0.0
 11
1.0
 21
0.0
 31
0.0
 44
0.9
  1
1:1
 40
0.1
 41
0.3
  0
MTEXT
  5
460
100
AcDbEntity
  8
0
100
AcDbMText
 62
2
  6
CONTINUOUS
  7
STANDARD
 71
1
 72
1
 10
1.0597007627
 20
1.6202922458
 30
0.0
 11
1.0
 21
0.0
 31
0.0
 44
0.9
  1
NOTES:\P1. ALL DIMENSIONS ARE MILLIMETERS [INCHES] UNLESS OTHERWISE NOTED.
 40
0.1
 41
6.6
  0
INSERT
  5
461
100
AcDbEntity
  8
0
100
AcDbBlockReference
 62
2
  6
CONTINUOUS
  2
BANNER_LOGO_TITLEBLOCK_BL0
 10
12.9086867042
 20
2.5403783405
  0
DIMENSION
  5
462
100
AcDbEntity
  8
SCHEME_DIMS
100
AcDbDimension
 62
2
  6
CONTINUOUS
  2
*D0
 10
5.1124223316
 20
5.6892141104
 11
5.0374223316
 21
5.0032141104
 70
160
 71
2
 42
31.0388
  3
DIMSTYLE_1
100
AcDbAlignedDimension
 13
4.1450548182
 23
4.4672141104
 14
4.316239676
 24
5.6892141104
 50
90.0
100
AcDbRotatedDimension
  0
DIMENSION
  5
463
100
AcDbEntity
  8
SCHEME_DIMS
100
AcDbDimension
 62
2
  6
CONTINUOUS
  2
*D1
 10
8.193445581
 20
6.9802141104
 11
7.6315636912
 21
6.9052141104
 70
160
 71
2
 42
22.1936
  3
DIMSTYLE_1
100
AcDbAlignedDimension
 13
7.3196818015
 23
6.2202180471
 14
8.193445581
 24
6.5892762574
100
AcDbRotatedDimension
  0
DIMENSION
  5
464
100
AcDbEntity
  8
SCHEME_DIMS
100
AcDbDimension
 62
2
  6
CONTINUOUS
  2
*D2
 10
9.079445581
 20
7.4802141104
 11
8.0745636912
 21
7.4052141104
 70
160
 71
2
 42
44.698
  3
DIMSTYLE_1
100
AcDbAlignedDimension
 13
7.3196818015
 23
6.2202180471
 14
9.079445581
 24
6.4792141104
100
AcDbRotatedDimension
  0
DIMENSION
  5
465
100
AcDbEntity
  8
SCHEME_DIMS
100
AcDbDimension
 62
2
  6
CONTINUOUS
  2
*D3
 10
3.0304223316
 20
7.1294975575
 11
3.7630889983
 21
7.0544975575
 70
160
 71
2
 42
40.1828
  1
%%c<>
  3
DIMSTYLE_1
100
AcDbAlignedDimension
 13
4.6124223316
 23
8.500761337
 14
3.0304223316
 24
8.500761337
 50
180.0
100
AcDbRotatedDimension
  0
DIMENSION
  5
466
100
AcDbEntity
  8
SCHEME_DIMS
100
AcDbDimension
 62
2
  6
CONTINUOUS
  2
*D4
 10
11.1913499047
 20
6.4767141104
 11
11.1163499047
 21
5.3969641104
 70
160
 71
2
 42
51.0413
  3
DIMSTYLE_1
100
AcDbAlignedDimension
 13
12.1587174182
 23
4.4672141104
 14
12.4198499047
 24
6.4767141104
 50
90.0
100
AcDbRotatedDimension
  0
LINE
  5
467
100
AcDbEntity
  8
0
100
AcDbLine
 62
2
  6
CONTINUOUS
 10
16.38
 20
0.887
 11
12.03
 21
0.887
  0
LINE
  5
468
100
AcDbEntity
  8
0
100
AcDbLine
 62
2
  6
CONTINUOUS
 10
16.38
 20
0.887
 11
16.38
 21
2.807
  0
LINE
  5
469
100
AcDbEntity
  8
0
100
AcDbLine
 62
2
  6
CONTINUOUS
 10
16.38
 20
2.807
 11
12.03
 21
2.807
  0
LINE
  5
46A
100
AcDbEntity
  8
0
100
AcDbLine
 62
2
  6
CONTINUOUS
 10
12.03
 20
0.887
 11
12.03
 21
2.807
  0
MTEXT
  5
46B
100
AcDbEntity
  8
NOTES
100
AcDbMText
 62
7
  6
CONTINUOUS
  7
STANDARD
 71
2
 72
1
 10
16.155
 20
1.367
 30
0.0
 11
1.0
 21
0.0
 31
0.0
 44
0.9
  1
1
 40
0.1
 41
0.1
  0
MTEXT
  5
46C
100
AcDbEntity
  8
NOTES
100
AcDbMText
 62
7
  6
CONTINUOUS
  7
STANDARD
 71
2
 72
1
 10
14.205
 20
1.967
 30
0.0
 11
1.0
 21
0.0
 31
0.0
 44
0.9
  1
T30 EZ-LIGHT CABLE/PIGTAIL\PWEB CAD DRAWINGS 2D/3D
 40
0.1
 41
2.6
  0
MTEXT
  5
46D
100
AcDbEntity
  8
NOTES
100
AcDbMText
 62
2
  6
CONTINUOUS
  7
STANDARD
 71
2
 72
1
 10
14.4357535896
 20
6.7286692396
 30
0.0
 11
1.0
 21
0.0
 31
0.0
 44
0.9
  1
ISOMETRIC VIEW\PSCALE  1:1
 40
0.1
 41
1.4
  0
LEADER
  5
46E
100
AcDbEntity
  8
NOTES
100
AcDbLeader
 62
2
  6
CONTINUOUS
  3
STANDARD
 71
1
 72
0
 73
0
 75
0
 40
0.1
 41
0.9
 76
3
 10
7.7577378374
 20
5.1799979636
 30
0.0
 10
7.3032387203
 20
4.6243855389
 30
0.0
 10
7.0532387203
 20
4.6243855389
 30
0.0
340
46F
1001
ACAD
1000
DSTYLE
1002
{
1070
77
1070
0
1002
}
  0
MTEXT
  5
46F
102
{ACAD_REACTORS
330
46E
102
}
100
AcDbEntity
  8
NOTES
100
AcDbMText
 62
2
  6
CONTINUOUS
  7
STANDARD
 71
3
 72
1
 10
7.0532387203
 20
4.6743855389
 30
0.0
 11
1.0
 21
0.0
 31
0.0
 44
0.9
  1
M30 X 1.5
 40
0.1
 41
0.9
  0
LINE
  5
470
100
AcDbEntity
  8
0
100
AcDbLine
 62
2
  6
CONTINUOUS
 10
0.47
 20
5.586103
 11
0.47
 21
5.412897
  0
LINE
  5
471
100
AcDbEntity
  8
0
100
AcDbLine
 62
2
  6
CONTINUOUS
 10
0.62
 20
10.112
 11
0.62
 21
0.887
  0
LINE
  5
472
100
AcDbEntity
  8
0
100
AcDbLine
 62
2
  6
CONTINUOUS
 10
2.59
 20
0.887
 11
2.59
 21
0.637
  0
LINE
  5
473
100
AcDbEntity
  8
0
100
AcDbLine
 62
2
  6
CONTINUOUS
 10
2.59
 20
10.112
 11
2.59
 21
10.362
  0
LINE
  5
474
100
AcDbEntity
  8
0
100
AcDbLine
 62
2
  6
CONTINUOUS
 10
8.413397
 20
0.737
 11
8.586603
 21
0.737
  0
LINE
  5
475
100
AcDbEntity
  8
0
100
AcDbLine
 62
7
  6
CONTINUOUS
 10
11.1389508475
 20
1.425992839
 11
11.7453418475
 21
1.495385839
  0
LINE
  5
476
100
AcDbEntity
  8
0
100
AcDbLine
 62
2
  6
CONTINUOUS
 10
0.62
 20
0.887
 11
16.38
 21
0.887
  0
LINE
  5
477
100
AcDbEntity
  8
0
100
AcDbLine
 62
2
  6
CONTINUOUS
 10
12.03
 20
1.137
 11
16.38
 21
1.137
  0
LINE
  5
478
100
AcDbEntity
  8
0
100
AcDbLine
 62
7
  6
CONTINUOUS
 10
10.2121898475
 20
1.243294839
 11
10.4342808475
 21
1.243294839
  0
LINE
  5
479
100
AcDbEntity
  8
0
100
AcDbLine
 62
7
  6
CONTINUOUS
 10
10.4842808475
 20
1.243294839
 11
10.5842808475
 21
1.243294839
  0
LINE
  5
47A
100
AcDbEntity
  8
0
100
AcDbLine
 62
7
  6
CONTINUOUS
 10
10.6342808475
 20
1.243294839
 11
10.8563718475
 21
1.243294839
  0
LINE
  5
47B
100
AcDbEntity
  8
0
100
AcDbLine
 62
7
  6
CONTINUOUS
 10
11.0389508475
 20
1.243294839
 11
11.3171028475
 21
1.243294839
  0
LINE
  5
47C
100
AcDbEntity
  8
0
100
AcDbLine
 62
7
  6
CONTINUOUS
 10
11.3671028475
 20
1.243294839
 11
11.5171888475
 21
1.243294839
  0
LINE
  5
47D
100
AcDbEntity
  8
0
100
AcDbLine
 62
7
  6
CONTINUOUS
 10
11.5671888475
 20
1.243294839
 11
11.8453418475
 21
1.243294839
  0
LINE
  5
47E
100
AcDbEntity
  8
0
100
AcDbLine
 62
7
  6
CONTINUOUS
 10
11.7453418475
 20
0.991203839
 11
11.1389508475
 21
1.060596839
  0
LINE
  5
47F
100
AcDbEntity
  8
0
100
AcDbLine
 62
2
  6
CONTINUOUS
 10
4.56
 20
0.887
 11
4.56
 21
0.637
  0
LINE
  5
480
100
AcDbEntity
  8
0
100
AcDbLine
 62
2
  6
CONTINUOUS
 10
4.56
 20
10.112
 11
4.56
 21
10.362
  0
LINE
  5
481
100
AcDbEntity
  8
0
100
AcDbLine
 62
2
  6
CONTINUOUS
 10
0.47
 20
5.412897
 11
0.62
 21
5.4995
  0
LINE
  5
482
100
AcDbEntity
  8
0
100
AcDbLine
 62
2
  6
CONTINUOUS
 10
12.03
 20
1.507
 11
16.38
 21
1.507
  0
LINE
  5
483
100
AcDbEntity
  8
0
100
AcDbLine
 62
2
  6
CONTINUOUS
 10
10.03
 20
1.907
 11
12.03
 21
1.907
  0
LINE
  5
484
100
AcDbEntity
  8
0
100
AcDbLine
 62
2
  6
CONTINUOUS
 10
0.62
 20
5.4995
 11
0.47
 21
5.586103
  0
LINE
  5
485
100
AcDbEntity
  8
0
100
AcDbLine
 62
2
  6
CONTINUOUS
 10
12.03
 20
2.267
 11
16.38
 21
2.267
  0
LINE
  5
486
100
AcDbEntity
  8
0
100
AcDbLine
 62
2
  6
CONTINUOUS
 10
8.5
 20
10.112
 11
8.586603
 21
10.262
  0
LINE
  5
487
100
AcDbEntity
  8
0
100
AcDbLine
 62
2
  6
CONTINUOUS
 10
16.38
 20
2.807
 11
10.03
 21
2.807
  0
LINE
  5
488
100
AcDbEntity
  8
0
100
AcDbLine
 62
2
  6
CONTINUOUS
 10
0.62
 20
3.1995
 11
0.37
 21
3.1995
  0
LINE
  5
489
100
AcDbEntity
  8
0
100
AcDbLine
 62
2
  6
CONTINUOUS
 10
16.38
 20
3.1995
 11
16.63
 21
3.1995
  0
LINE
  5
48A
100
AcDbEntity
  8
0
100
AcDbLine
 62
2
  6
CONTINUOUS
 10
8.586603
 20
0.737
 11
8.5
 21
0.887
  0
LINE
  5
48B
100
AcDbEntity
  8
0
100
AcDbLine
 62
2
  6
CONTINUOUS
 10
6.53
 20
0.887
 11
6.53
 21
0.637
  0
LINE
  5
48C
100
AcDbEntity
  8
0
100
AcDbLine
 62
2
  6
CONTINUOUS
 10
6.53
 20
10.112
 11
6.53
 21
10.362
  0
LINE
  5
48D
100
AcDbEntity
  8
0
100
AcDbLine
 62
2
  6
CONTINUOUS
 10
8.5
 20
0.887
 11
8.5
 21
0.637
  0
LINE
  5
48E
100
AcDbEntity
  8
0
100
AcDbLine
 62
2
  6
CONTINUOUS
 10
8.5
 20
10.112
 11
8.5
 21
10.362
  0
LINE
  5
48F
100
AcDbEntity
  8
0
100
AcDbLine
 62
2
  6
CONTINUOUS
 10
0.62
 20
5.4995
 11
0.37
 21
5.4995
  0
LINE
  5
490
100
AcDbEntity
  8
0
100
AcDbLine
 62
2
  6
CONTINUOUS
 10
16.38
 20
5.4995
 11
16.63
 21
5.4995
  0
LINE
  5
491
100
AcDbEntity
  8
0
100
AcDbLine
 62
2
  6
CONTINUOUS
 10
10.03
 20
2.807
 11
10.03
 21
0.887
  0
LINE
  5
492
100
AcDbEntity
  8
0
100
AcDbLine
 62
2
  6
CONTINUOUS
 10
10.47
 20
0.887
 11
10.47
 21
0.637
  0
LINE
  5
493
100
AcDbEntity
  8
0
100
AcDbLine
 62
2
  6
CONTINUOUS
 10
10.47
 20
10.112
 11
10.47
 21
10.362
  0
LINE
  5
494
100
AcDbEntity
  8
0
100
AcDbLine
 62
7
  6
CONTINUOUS
 10
10.5342808475
 20
1.143294839
 11
10.5342808475
 21
0.921203839
  0
LINE
  5
495
100
AcDbEntity
  8
0
100
AcDbLine
 62
7
  6
CONTINUOUS
 10
10.5342808475
 20
1.193294839
 11
10.5342808475
 21
1.293294839
  0
LINE
  5
496
100
AcDbEntity
  8
0
100
AcDbLine
 62
7
  6
CONTINUOUS
 10
10.5342808475
 20
1.343294839
 11
10.5342808475
 21
1.565385839
  0
LINE
  5
497
100
AcDbEntity
  8
0
100
AcDbLine
 62
2
  6
CONTINUOUS
 10
8.5
 20
0.887
 11
8.413397
 21
0.737
  0
LINE
  5
498
100
AcDbEntity
  8
0
100
AcDbLine
 62
2
  6
CONTINUOUS
 10
0.62
 20
7.7995
 11
0.37
 21
7.7995
  0
LINE
  5
499
100
AcDbEntity
  8
0
100
AcDbLine
 62
2
  6
CONTINUOUS
 10
16.38
 20
7.7995
 11
16.63
 21
7.7995
  0
LINE
  5
49A
100
AcDbEntity
  8
0
100
AcDbLine
 62
2
  6
CONTINUOUS
 10
8.413397
 20
10.262
 11
8.5
 21
10.112
  0
LINE
  5
49B
100
AcDbEntity
  8
0
100
AcDbLine
 62
7
  6
CONTINUOUS
 10
11.1389508475
 20
1.060596839
 11
11.1389508475
 21
1.425992839
  0
LINE
  5
49C
100
AcDbEntity
  8
0
100
AcDbLine
 62
7
  6
CONTINUOUS
 10
11.7453418475
 20
1.495385839
 11
11.7453418475
 21
0.991203839
  0
LINE
  5
49D
100
AcDbEntity
  8
0
100
AcDbLine
 62
1
  6
CONTINUOUS
 10
12.03
 20
2.807
 11
12.03
 21
0.887
  0
LINE
  5
49E
100
AcDbEntity
  8
0
100
AcDbLine
 62
2
  6
CONTINUOUS
 10
12.44
 20
0.887
 11
12.44
 21
0.637
  0
LINE
  5
49F
100
AcDbEntity
  8
0
100
AcDbLine
 62
2
  6
CONTINUOUS
 10
12.44
 20
10.112
 11
12.44
 21
10.362
  0
LINE
  5
4A0
100
AcDbEntity
  8
0
100
AcDbLine
 62
2
  6
CONTINUOUS
 10
16.53
 20
5.586103
 11
16.38
 21
5.4995
  0
LINE
  5
4A1
100
AcDbEntity
  8
0
100
AcDbLine
 62
2
  6
CONTINUOUS
 10
16.38
 20
5.4995
 11
16.53
 21
5.412897
  0
LINE
  5
4A2
100
AcDbEntity
  8
0
100
AcDbLine
 62
2
  6
CONTINUOUS
 10
12.83
 20
1.507
 11
12.83
 21
1.137
  0
LINE
  5
4A3
100
AcDbEntity
  8
0
100
AcDbLine
 62
2
  6
CONTINUOUS
 10
16.38
 20
10.112
 11
0.62
 21
10.112
  0
LINE
  5
4A4
100
AcDbEntity
  8
0
100
AcDbLine
 62
2
  6
CONTINUOUS
 10
8.586603
 20
10.262
 11
8.413397
 21
10.262
  0
LINE
  5
4A5
100
AcDbEntity
  8
0
100
AcDbLine
 62
2
  6
CONTINUOUS
 10
14.205
 20
1.137
 11
14.205
 21
0.887
  0
LINE
  5
4A6
100
AcDbEntity
  8
0
100
AcDbLine
 62
2
  6
CONTINUOUS
 10
14.41
 20
0.887
 11
14.41
 21
0.637
  0
LINE
  5
4A7
100
AcDbEntity
  8
0
100
AcDbLine
 62
2
  6
CONTINUOUS
 10
14.41
 20
10.112
 11
14.41
 21
10.362
  0
LINE
  5
4A8
100
AcDbEntity
  8
0
100
AcDbLine
 62
2
  6
CONTINUOUS
 10
15.58
 20
1.507
 11
15.58
 21
1.137
  0
LINE
  5
4A9
100
AcDbEntity
  8
0
100
AcDbLine
 62
2
  6
CONTINUOUS
 10
16.38
 20
0.887
 11
16.38
 21
10.112
  0
LINE
  5
4AA
100
AcDbEntity
  8
0
100
AcDbLine
 62
2
  6
CONTINUOUS
 10
16.53
 20
5.412897
 11
16.53
 21
5.586103
  0
LWPOLYLINE
  5
4AB
100
AcDbEntity
  8
0
100
AcDbPolyline
 62
7
  6
CONTINUOUS
 90
18
 70
0
 10
13.2095807074
 20
8.5016647148
 10
13.2135947235
 20
8.4351996457
 10
13.2253772194
 20
8.3668166683
 10
13.2444536485
 20
8.2978059917
 10
13.270267055
 20
8.2293974191
 10
13.3021974073
 20
8.1627695382
 10
13.3397006356
 20
8.0988475514
 10
13.3821524579
 20
8.0386739758
 10
13.4289157253
 20
7.9832434352
 10
13.479402914
 20
7.9334656959
 10
13.5327639294
 20
7.8904582319
 10
13.5881801949
 20
7.8551826124
 10
13.6446382104
 20
7.8285869328
 10
13.7003268852
 20
7.8115874431
 10
13.7538488991
 20
7.8043141302
 10
13.8043308795
 20
7.8064175215
 10
13.8509148753
 20
7.8173246738
 10
13.8932253773
 20
7.836474319
  0
LWPOLYLINE
  5
4AC
100
AcDbEntity
  8
0
100
AcDbPolyline
 62
9
  6
CONTINUOUS
 90
24
 70
0
 10
13.2326433974
 20
8.4695195059
 10
13.235724085
 20
8.4156934255
 10
13.2449136909
 20
8.3592890987
 10
13.2600496715
 20
8.3013485379
 10
13.2808494996
 20
8.2429719923
 10
13.306922686
 20
8.1852562677
 10
13.3377853695
 20
8.1292718931
 10
13.3728613196
 20
8.076064338
 10
13.4114977876
 20
8.0266237233
 10
13.4529734134
 20
7.9818729364
 10
13.4965177855
 20
7.9426433005
 10
13.5413169999
 20
7.9096681263
 10
13.5865386419
 20
7.8835601059
 10
13.6313378043
 20
7.8648070279
 10
13.6748820798
 20
7.8537573493
 10
13.7163575883
 20
7.8506175382
 10
13.7549939142
 20
7.8554458393
 10
13.790069716
 20
7.8681522983
 10
13.8209322458
 20
7.8885005037
 10
13.8470052678
 20
7.9161103381
 10
13.8678049439
 20
7.9504699815
 10
13.8829408092
 20
7.9909336988
 10
13.8921303034
 20
8.0367273933
 10
13.8952107776
 20
8.0869947044
  0
LWPOLYLINE
  5
4AD
100
AcDbEntity
  8
0
100
AcDbPolyline
 62
7
  6
CONTINUOUS
 90
6
 70
0
 10
13.8286968097
 20
9.3444878259
 10
13.7769249336
 20
9.3068548564
 10
13.7323562199
 20
9.257628285
 10
13.6960062982
 20
9.1969471636
 10
13.6691384093
 20
9.1256161109
 10
13.6527604165
 20
9.0452575889
  0
LINE
  5
4AE
100
AcDbEntity
  8
0
100
AcDbLine
 62
7
  6
CONTINUOUS
 10
14.3066990036
 20
9.6204608739
 11
13.8286968097
 21
9.3444878259
  0
LINE
  5
4AF
100
AcDbEntity
  8
0
100
AcDbLine
 62
7
  6
CONTINUOUS
 10
14.3720883411
 20
9.6541717543
 11
14.3418255625
 21
9.6366996352
  0
LINE
  5
4B0
100
AcDbEntity
  8
0
100
AcDbLine
 62
7
  6
CONTINUOUS
 10
13.5256480631
 20
8.8899112083
 11
13.5222469486
 21
8.886095317
  0
LWPOLYLINE
  5
4B1
100
AcDbEntity
  8
0
100
AcDbPolyline
 62
7
  6
CONTINUOUS
 90
3
 70
0
 10
13.63837025
 20
9.0006555751
 10
13.6441752494
 20
9.00555159
 10
13.6530363158
 20
9.0109763311
  0
LINE
  5
4B2
100
AcDbEntity
  8
0
100
AcDbLine
 62
7
  6
CONTINUOUS
 10
13.580861474
 20
8.9673201272
 11
13.5908403966
 21
8.9750677195
  0
LWPOLYLINE
  5
4B3
100
AcDbEntity
  8
0
100
AcDbPolyline
 62
7
  6
CONTINUOUS
 90
4
 70
0
 10
13.5597345919
 20
8.9571088822
 10
13.5212065209
 20
8.9283632099
 10
13.4857362236
 20
8.8854338845
 10
13.4713537842
 20
8.8567123101
  0
LINE
  5
4B4
100
AcDbEntity
  8
0
100
AcDbLine
 62
9
  6
CONTINUOUS
 10
13.8524069447
 20
9.1323070326
 11
13.8394341589
 21
9.1185315149
  0
LINE
  5
4B5
100
AcDbEntity
  8
0
100
AcDbLine
 62
7
  6
CONTINUOUS
 10
13.7342569801
 20
9.0553677079
 11
13.7464091695
 21
9.0648848564
  0
LINE
  5
4B6
100
AcDbEntity
  8
0
100
AcDbLine
 62
7
  6
CONTINUOUS
 10
13.7955307956
 20
9.090640717
 11
13.8086282368
 21
9.1008068371
  0
LINE
  5
4B7
100
AcDbEntity
  8
0
100
AcDbLine
 62
7
  6
CONTINUOUS
 10
13.6710415571
 20
9.0187678904
 11
13.6841787053
 21
9.0289562955
  0
LINE
  5
4B8
100
AcDbEntity
  8
0
100
AcDbLine
 62
7
  6
CONTINUOUS
 10
13.7021589832
 20
9.036740111
 11
13.7152929205
 21
9.0469199889
  0
LINE
  5
4B9
100
AcDbEntity
  8
0
100
AcDbLine
 62
7
  6
CONTINUOUS
 10
13.8265308082
 20
9.1085495761
 11
13.8397451134
 21
9.1187720671
  0
LINE
  5
4BA
100
AcDbEntity
  8
0
100
AcDbLine
 62
7
  6
CONTINUOUS
 10
13.7638628695
 20
9.0723668772
 11
13.7775186957
 21
9.0828458425
  0
LINE
  5
4BB
100
AcDbEntity
  8
0
100
AcDbLine
 62
7
  6
CONTINUOUS
 10
13.6083350449
 20
8.9825929037
 11
13.6219594663
 21
8.9930342157
  0
LWPOLYLINE
  5
4BC
100
AcDbEntity
  8
0
100
AcDbPolyline
 62
7
  6
CONTINUOUS
 90
7
 70
0
 10
13.3459837327
 20
8.7843303093
 10
13.3077993993
 20
8.7568722778
 10
13.2746083838
 20
8.7212076506
 10
13.2471648196
 20
8.677195019
 10
13.2265437447
 20
8.6250598461
 10
13.2138291052
 20
8.5659339926
 10
13.2095807074
 20
8.5016647148
  0
LINE
  5
4BD
100
AcDbEntity
  8
02___PRT_ALL_AXES
100
AcDbLine
 62
7
  6
CONTINUOUS
 10
13.5659097293
 20
8.9113038847
 11
13.3459837327
 21
8.7843303093
  0
LINE
  5
4BE
100
AcDbEntity
  8
0
100
AcDbLine
 62
7
  6
CONTINUOUS
 10
13.5645882263
 20
8.9598233121
 11
13.5597345919
 21
8.9571088822
  0
LWPOLYLINE
  5
4BF
100
AcDbEntity
  8
02___PRT_ALL_AXES
100
AcDbPolyline
 62
7
  6
CONTINUOUS
 90
20
 70
0
 10
13.5659021362
 20
8.9112974257
 10
13.5928719311
 20
8.9240665361
 10
13.6321861463
 20
8.9343513056
 10
13.6747703066
 20
8.9367984758
 10
13.7199528345
 20
8.9313694536
 10
13.7670211743
 20
8.9181498578
 10
13.8152330304
 20
8.8973481692
 10
13.8638280728
 20
8.8692924431
 10
13.9120399289
 20
8.8344251349
 10
13.9591082687
 20
8.7932961229
 10
14.0042907966
 20
8.7465540362
 10
14.0468749569
 20
8.6949360254
 10
14.0861891721
 20
8.6392561375
 10
14.1216134335
 20
8.5803924774
 10
14.1525890794
 20
8.5192733603
 10
14.1786276052
 20
8.4568626712
 10
14.199318368
 20
8.3941446639
 10
14.2143350619
 20
8.3321084388
 10
14.2234408649
 20
8.2717323443
 10
14.2264921728
 20
8.2139685475
  0
LINE
  5
4C0
100
AcDbEntity
  8
0
100
AcDbLine
 62
7
  6
CONTINUOUS
 10
13.6530363158
 20
9.0109763311
 11
13.6913254849
 21
9.0281287257
  0
LINE
  5
4C1
100
AcDbEntity
  8
0
100
AcDbLine
 62
7
  6
CONTINUOUS
 10
13.6623342274
 20
9.0113907153
 11
13.63837025
 21
9.0006555751
  0
LINE
  5
4C2
100
AcDbEntity
  8
0
100
AcDbLine
 62
7
  6
CONTINUOUS
 10
13.7464091695
 20
9.0648848564
 11
13.7910086139
 21
9.0840098118
  0
LINE
  5
4C3
100
AcDbEntity
  8
0
100
AcDbLine
 62
7
  6
CONTINUOUS
 10
13.7620173564
 20
9.0672718014
 11
13.7342569801
 21
9.0553677079
  0
LWPOLYLINE
  5
4C4
100
AcDbEntity
  8
0
100
AcDbPolyline
 62
7
  6
CONTINUOUS
 90
15
 70
0
 10
13.5908403966
 20
8.9750677195
 10
13.6404848152
 20
8.9956265865
 10
13.6974940265
 20
9.003583583
 10
13.7584349703
 20
8.9982097108
 10
13.8227614481
 20
8.9797523858
 10
13.8895497708
 20
8.9482019821
 10
13.9563465895
 20
8.9045117173
 10
14.0206957661
 20
8.8505343022
 10
14.0815321856
 20
8.7875194936
 10
14.1378221955
 20
8.716654917
 10
14.1880089296
 20
8.6399729971
 10
14.2310969861
 20
8.5590846896
 10
14.2662124457
 20
8.4754953998
 10
14.2924925176
 20
8.3906950968
 10
14.3087974983
 20
8.3078382043
  0
LWPOLYLINE
  5
4C5
100
AcDbEntity
  8
0
100
AcDbPolyline
 62
7
  6
CONTINUOUS
 90
6
 70
0
 10
13.7152929205
 20
9.0469199889
 10
13.7651236051
 20
9.0675285307
 10
13.8219198101
 20
9.0754340616
 10
13.8826414545
 20
9.0701069071
 10
13.9469776599
 20
9.0516923064
 10
14.0137848638
 20
9.0201741185
  0
LINE
  5
4C6
100
AcDbEntity
  8
0
100
AcDbLine
 62
7
  6
CONTINUOUS
 10
13.7361323461
 20
9.0507905194
 11
13.7021589832
 21
9.036740111
  0
LWPOLYLINE
  5
4C7
100
AcDbEntity
  8
0
100
AcDbPolyline
 62
7
  6
CONTINUOUS
 90
15
 70
0
 10
13.8086282368
 20
9.1008068371
 10
13.8584931889
 20
9.1214253595
 10
13.9157163188
 20
9.1293312849
 10
13.9769282057
 20
9.1238141763
 10
14.0406876123
 20
9.1054390226
 10
14.106564331
 20
9.0743760522
 10
14.1728388617
 20
9.0312151056
 10
14.2370925486
 20
8.9775715255
 10
14.2982158101
 20
8.9145187044
 10
14.3551637713
 20
8.8430124671
 10
14.4058341636
 20
8.7656492944
 10
14.4488343362
 20
8.6849303358
 10
14.483969163
 20
8.6013202333
 10
14.510266096
 20
8.5164910654
 10
14.5265817573
 20
8.4336046023
  0
LINE
  5
4C8
100
AcDbEntity
  8
0
100
AcDbLine
 62
7
  6
CONTINUOUS
 10
13.8295019299
 20
9.1046873482
 11
13.7955307956
 21
9.090640717
  0
LWPOLYLINE
  5
4C9
100
AcDbEntity
  8
0
100
AcDbPolyline
 62
7
  6
CONTINUOUS
 90
16
 70
0
 10
13.8397451134
 20
9.1187720671
 10
13.8897778933
 20
9.1394344576
 10
13.9463478209
 20
9.1472845777
 10
14.0069519124
 20
9.1419843
 10
14.0712842969
 20
9.1235977802
 10
14.138094077
 20
9.0921044411
 10
14.2049255859
 20
9.0484533948
 10
14.2693219399
 20
8.9944927411
 10
14.3300976284
 20
8.9316042778
 10
14.3862540634
 20
8.8610060349
 10
14.4367358167
 20
8.7839682317
 10
14.4799439185
 20
8.7028993418
 10
14.515082241
 20
8.6192815638
 10
14.5413796028
 20
8.5344500857
 10
14.5576946116
 20
8.4515652062
 10
14.5636083548
 20
8.3736918072
  0
LINE
  5
4CA
100
AcDbEntity
  8
0
100
AcDbLine
 62
7
  6
CONTINUOUS
 10
13.8607866358
 20
9.1226964471
 11
13.8265308082
 21
9.1085495761
  0
LWPOLYLINE
  5
4CB
100
AcDbEntity
  8
0
100
AcDbPolyline
 62
7
  6
CONTINUOUS
 90
15
 70
0
 10
13.6841787053
 20
9.0289562955
 10
13.7341704244
 20
9.0496087356
 10
13.7913830815
 20
9.0574824718
 10
13.8525770509
 20
9.0519441308
 10
13.9163630847
 20
9.0335401456
 10
13.9819592914
 20
9.0026118857
 10
14.0480413369
 20
8.9596217134
 10
14.1122313178
 20
8.9061028012
 10
14.1734003935
 20
8.8430832934
 10
14.2304954584
 20
8.7714631092
 10
14.2813764725
 20
8.6938108174
 10
14.3244418272
 20
8.6129579205
 10
14.3595539764
 20
8.5293731568
 10
14.3858319935
 20
8.4445763564
 10
14.4021356632
 20
8.3617230943
  0
LINE
  5
4CC
100
AcDbEntity
  8
0
100
AcDbLine
 62
7
  6
CONTINUOUS
 10
13.7051791649
 20
9.032870724
 11
13.6710415571
 21
9.0187678904
  0
LINE
  5
4CD
100
AcDbEntity
  8
0
100
AcDbLine
 62
7
  6
CONTINUOUS
 10
13.6219594663
 20
8.9930342157
 11
13.6731072049
 21
9.0139924595
  0
LINE
  5
4CE
100
AcDbEntity
  8
0
100
AcDbLine
 62
7
  6
CONTINUOUS
 10
13.6441159459
 20
8.9972544483
 11
13.6083350449
 21
8.9825929037
  0
LWPOLYLINE
  5
4CF
100
AcDbEntity
  8
0
100
AcDbPolyline
 62
7
  6
CONTINUOUS
 90
15
 70
0
 10
13.7775186957
 20
9.0828458425
 10
13.8292387718
 20
9.1039550177
 10
13.8864793461
 20
9.1113969569
 10
13.9476789738
 20
9.105487891
 10
14.0117741551
 20
9.0866323156
 10
14.0776207857
 20
9.0551896737
 10
14.1430221797
 20
9.012288041
 10
14.2068225854
 20
8.9588233224
 10
14.267973423
 20
8.8955635097
 10
14.3251547504
 20
8.8235193424
 10
14.3761672595
 20
8.7452361207
 10
14.4192488515
 20
8.6637439406
 10
14.4537427277
 20
8.580921559
 10
14.4794497432
 20
8.4973587444
 10
14.4955159734
 20
8.4153008632
  0
LINE
  5
4D0
100
AcDbEntity
  8
0
100
AcDbLine
 62
7
  6
CONTINUOUS
 10
13.8002475123
 20
9.0872170061
 11
13.7638628695
 21
9.0723668772
  0
LINE
  5
4D1
100
AcDbEntity
  8
0
100
AcDbLine
 62
7
  6
CONTINUOUS
 10
13.6148694082
 20
8.9790763458
 11
13.5645882263
 21
8.9598233121
  0
LWPOLYLINE
  5
4D2
100
AcDbEntity
  8
0
100
AcDbPolyline
 62
7
  6
CONTINUOUS
 90
11
 70
0
 10
13.580861474
 20
8.9673201272
 10
13.6270030348
 20
8.9824930902
 10
13.683834173
 20
8.9867171241
 10
13.7448050023
 20
8.9781863344
 10
13.808490691
 20
8.9571132527
 10
13.8734015588
 20
8.9240066157
 10
13.9380161961
 20
8.8796615595
 10
14.0008199262
 20
8.8251408372
 10
14.0603437639
 20
8.7617464714
 10
14.1151963944
 20
8.6909900927
 10
14.1640957887
 20
8.6145592536
  0
LINE
  5
4D3
100
AcDbEntity
  8
0
100
AcDbLine
 62
7
  6
CONTINUOUS
 10
13.6527604165
 20
9.0452575889
 11
13.6505208602
 21
9.0094363702
  0
LWPOLYLINE
  5
4D4
100
AcDbEntity
  8
0
100
AcDbPolyline
 62
7
  6
CONTINUOUS
 90
3
 70
0
 10
14.0085447025
 20
7.903053565
 10
14.0602978245
 20
7.9029610919
 10
14.1127357095
 20
7.9155729935
  0
LWPOLYLINE
  5
4D5
100
AcDbEntity
  8
0
100
AcDbPolyline
 62
7
  6
CONTINUOUS
 90
4
 70
0
 10
14.0045893956
 20
7.9007699812
 10
14.0055838841
 20
7.9005772507
 10
14.0617913976
 20
7.9017045142
 10
14.1127357095
 20
7.9155729935
  0
LWPOLYLINE
  5
4D6
100
AcDbEntity
  8
0
100
AcDbPolyline
 62
9
  6
CONTINUOUS
 90
14
 70
0
 10
13.8952107776
 20
8.0869947044
 10
13.89213009
 20
8.1408207848
 10
13.882940484
 20
8.1972251117
 10
13.8678045034
 20
8.2551656724
 10
13.8470046754
 20
8.313542218
 10
13.820931489
 20
8.3712579426
 10
13.7900688054
 20
8.4272423172
 10
13.7549928554
 20
8.4804498723
 10
13.7163563874
 20
8.5298904871
 10
13.6748807616
 20
8.5746412739
 10
13.6313363894
 20
8.6138709098
 10
13.5865371751
 20
8.6468460841
 10
13.5413155331
 20
8.6729541044
 10
13.4965163707
 20
8.6917071825
  0
LWPOLYLINE
  5
4D7
100
AcDbEntity
  8
0
100
AcDbPolyline
 62
9
  6
CONTINUOUS
 90
11
 70
0
 10
14.2609445135
 20
7.9998769936
 10
14.3273955812
 20
7.978204195
 10
14.3964956696
 20
7.9680703292
 10
14.4612245385
 20
7.9715125374
 10
14.5202644945
 20
7.988460746
 10
14.5724136546
 20
8.0185699384
 10
14.6166104121
 20
8.0612271783
 10
14.6519550485
 20
8.1155640873
 10
14.677728049
 20
8.1804745227
 10
14.6934047496
 20
8.2546370951
 10
14.6986660179
 20
8.3365420685
  0
LWPOLYLINE
  5
4D8
100
AcDbEntity
  8
0
100
AcDbPolyline
 62
7
  6
CONTINUOUS
 90
12
 70
0
 10
14.3903644408
 20
7.8392823734
 10
14.4322458438
 20
7.8192038152
 10
14.4798044999
 20
7.8039101763
 10
14.5314208561
 20
7.7939222634
 10
14.5853371794
 20
7.7895802028
 10
14.6397174139
 20
7.7910318582
 10
14.6927097061
 20
7.7982277952
 10
14.7425094669
 20
7.8109229649
 10
14.7874208253
 20
7.8286850483
 10
14.8259143788
 20
7.8509091791
 10
14.8566792757
 20
7.8768385412
 10
14.8786678541
 20
7.9055901412
  0
LWPOLYLINE
  5
4D9
100
AcDbEntity
  8
0
100
AcDbPolyline
 62
7
  6
CONTINUOUS
 90
7
 70
0
 10
14.2378147675
 20
7.9876962927
 10
14.2413399462
 20
7.9856970887
 10
14.3255464894
 20
7.9525808767
 10
14.4074688594
 20
7.9350646759
 10
14.4846255868
 20
7.9333041283
 10
14.5558823847
 20
7.9467293893
 10
14.6196932684
 20
7.9744335926
  0
LWPOLYLINE
  5
4DA
100
AcDbEntity
  8
0
100
AcDbPolyline
 62
9
  6
CONTINUOUS
 90
19
 70
0
 10
14.0065661762
 20
8.0869949721
 10
14.0029670211
 20
8.1498734736
 10
13.9922324856
 20
8.2157570614
 10
13.9745522669
 20
8.2834349411
 10
13.9502564954
 20
8.3516219491
 10
13.9198012483
 20
8.4190369918
 10
13.8837517116
 20
8.4844296638
 10
13.8427809454
 20
8.54657883
 10
13.7976513854
 20
8.6043280077
 10
13.7492056042
 20
8.6565992458
 10
13.6983434619
 20
8.7024215464
 10
13.6460155981
 20
8.7409384034
 10
13.5931942899
 20
8.7714341714
 10
13.5408664117
 20
8.7933390902
 10
13.4900042397
 20
8.8062461391
 10
13.4415584126
 20
8.8099141421
 10
13.3964288042
 20
8.8042750504
 10
13.3554579708
 20
8.7894339146
 10
13.3459837469
 20
8.7843303175
  0
LINE
  5
4DB
100
AcDbEntity
  8
0
100
AcDbLine
 62
7
  6
CONTINUOUS
 10
14.334226368
 20
7.8505380653
 11
14.3605787948
 21
7.8165168395
  0
LWPOLYLINE
  5
4DC
100
AcDbEntity
  8
0
100
AcDbPolyline
 62
7
  6
CONTINUOUS
 90
5
 70
0
 10
14.334226368
 20
7.8505380653
 10
14.3272450745
 20
7.8603781222
 10
14.3155877383
 20
7.8832989637
 10
14.3096990457
 20
7.9069443214
 10
14.3089600728
 20
7.9188892779
  0
LWPOLYLINE
  5
4DD
100
AcDbEntity
  8
0
100
AcDbPolyline
 62
7
  6
CONTINUOUS
 90
4
 70
0
 10
14.3117961279
 20
7.9207197908
 10
14.3290963777
 20
7.8909195828
 10
14.3555865119
 20
7.8634620998
 10
14.3903644408
 20
7.8392823734
  0
LINE
  5
4DE
100
AcDbEntity
  8
0
100
AcDbLine
 62
7
  6
CONTINUOUS
 10
14.2795683674
 20
8.2749521334
 11
14.283595232
 21
8.2120271204
  0
LINE
  5
4DF
100
AcDbEntity
  8
0
100
AcDbLine
 62
7
  6
CONTINUOUS
 10
14.3039645945
 20
7.9596975687
 11
14.3042749019
 21
7.9518479134
  0
LINE
  5
4E0
100
AcDbEntity
  8
0
100
AcDbLine
 62
7
  6
CONTINUOUS
 10
14.2814384111
 20
8.1418894681
 11
14.2857165384
 21
8.2132518498
  0
LWPOLYLINE
  5
4E1
100
AcDbEntity
  8
0
100
AcDbPolyline
 62
7
  6
CONTINUOUS
 90
5
 70
0
 10
14.283595232
 20
8.2120271204
 10
14.2792928407
 20
8.1404881184
 10
14.2649324835
 20
8.0764675113
 10
14.2410010204
 20
8.0218623833
 10
14.2080177359
 20
7.9776824285
  0
LWPOLYLINE
  5
4E2
100
AcDbEntity
  8
0
100
AcDbPolyline
 62
7
  6
CONTINUOUS
 90
10
 70
0
 10
14.1972001233
 20
8.5469259495
 10
14.1540373171
 20
8.6268101961
 10
14.1039424599
 20
8.7025090415
 10
14.0480897506
 20
8.7722095912
 10
13.987790631
 20
8.8342429353
 10
13.9244585835
 20
8.8871265778
 10
13.8595799349
 20
8.9295937972
 10
13.7946797477
 20
8.9606241436
 10
13.731281314
 20
8.9794703669
 10
13.6708720698
 20
8.9856740434
  0
LWPOLYLINE
  5
4E3
100
AcDbEntity
  8
0
100
AcDbPolyline
 62
7
  6
CONTINUOUS
 90
15
 70
0
 10
14.1661586733
 20
8.531138858
 10
14.1303669138
 20
8.5980268558
 10
14.0895491204
 20
8.6620262811
 10
14.0444353445
 20
8.7219302517
 10
13.996029832
 20
8.7764296776
 10
13.9451653392
 20
8.824658388
 10
13.8930437246
 20
8.8656034476
 10
13.8403663877
 20
8.8988503172
 10
13.7880178624
 20
8.9239145814
 10
13.7366175125
 20
8.9404996297
 10
13.6872233788
 20
8.9482332986
 10
13.6406266329
 20
8.946978088
 10
13.5977605464
 20
8.9367553814
 10
13.5592159568
 20
8.9176744837
 10
13.5256480631
 20
8.8899112083
  0
LWPOLYLINE
  5
4E4
100
AcDbEntity
  8
0
100
AcDbPolyline
 62
7
  6
CONTINUOUS
 90
6
 70
0
 10
14.1640957887
 20
8.6145592536
 10
14.2059019133
 20
8.5342746271
 10
14.2396427038
 20
8.4520476144
 10
14.2645367821
 20
8.3698351896
 10
14.2800110043
 20
8.2895983492
 10
14.2857165384
 20
8.2132518498
  0
LWPOLYLINE
  5
4E5
100
AcDbEntity
  8
0
100
AcDbPolyline
 62
7
  6
CONTINUOUS
 90
5
 70
0
 10
14.1972001233
 20
8.5469259495
 10
14.2268621692
 20
8.4792455982
 10
14.2509233933
 20
8.4102244027
 10
14.2686408019
 20
8.3415557657
 10
14.2795683674
 20
8.2749521334
  0
LINE
  5
4E6
100
AcDbEntity
  8
0
100
AcDbLine
 62
7
  6
CONTINUOUS
 10
14.3042749019
 20
7.9518479134
 11
14.3117961279
 21
7.9207197908
  0
LINE
  5
4E7
100
AcDbEntity
  8
0
100
AcDbLine
 62
7
  6
CONTINUOUS
 10
14.3087974983
 20
8.3078382043
 11
14.314707798
 21
8.2299898615
  0
LWPOLYLINE
  5
4E8
100
AcDbEntity
  8
0
100
AcDbPolyline
 62
7
  6
CONTINUOUS
 90
3
 70
0
 10
14.3790542444
 20
8.2671400779
 10
14.3731444036
 20
8.3449850827
 10
14.3568407339
 20
8.4278383448
  0
LINE
  5
4E9
100
AcDbEntity
  8
0
100
AcDbLine
 62
7
  6
CONTINUOUS
 10
14.4021356632
 20
8.3617230943
 11
14.4080455041
 21
8.2838780895
  0
LWPOLYLINE
  5
4EA
100
AcDbEntity
  8
0
100
AcDbPolyline
 62
7
  6
CONTINUOUS
 90
15
 70
0
 10
14.4101668306
 20
8.2851028307
 10
14.4042526725
 20
8.3629792373
 10
14.3879366677
 20
8.4458666514
 10
14.3616392551
 20
8.5306965757
 10
14.3265012427
 20
8.6143127722
 10
14.283342719
 20
8.6952974864
 10
14.2330077546
 20
8.7721467945
 10
14.1768147796
 20
8.8428340737
 10
14.1159987314
 20
8.9057931838
 10
14.051617288
 20
8.9597651214
 10
13.9847936049
 20
9.0034361073
 10
13.917986401
 20
9.0349542952
 10
13.8536501956
 20
9.0533688958
 10
13.7929285512
 20
9.0586960503
 10
13.7361323461
 20
9.0507905194
  0
LWPOLYLINE
  5
4EB
100
AcDbEntity
  8
0
100
AcDbPolyline
 62
7
  6
CONTINUOUS
 90
15
 70
0
 10
14.3168291245
 20
8.2312146026
 10
14.3110188032
 20
8.308332752
 10
14.295156134
 20
8.3897725908
 10
14.2694137003
 20
8.4737477853
 10
14.2346959546
 20
8.5571897042
 10
14.1916462437
 20
8.6386281692
 10
14.1408537953
 20
8.7166157346
 10
14.0841284269
 20
8.7882009769
 10
14.0234550042
 20
8.8511618429
 10
13.9591157921
 20
8.9052525944
 10
13.8923046035
 20
8.9490693307
 10
13.8254784309
 20
8.9807501044
 10
13.7610938169
 20
8.9993318951
 10
13.7002888117
 20
9.0048211878
 10
13.6441159459
 20
8.9972544483
  0
LINE
  5
4EC
100
AcDbEntity
  8
0
100
AcDbLine
 62
7
  6
CONTINUOUS
 10
14.3400100616
 20
8.3250707629
 11
14.3458203828
 21
8.2479526135
  0
LWPOLYLINE
  5
4ED
100
AcDbEntity
  8
0
100
AcDbPolyline
 62
7
  6
CONTINUOUS
 90
4
 70
0
 10
14.3479416819
 20
8.2491773387
 10
14.3429859756
 20
8.319796049
 10
14.3296319604
 20
8.3938219226
 10
14.3081193169
 20
8.4698393739
  0
LINE
  5
4EE
100
AcDbEntity
  8
0
100
AcDbLine
 62
7
  6
CONTINUOUS
 10
14.3719772331
 20
8.3365340595
 11
14.3769329395
 21
8.2659153493
  0
LINE
  5
4EF
100
AcDbEntity
  8
0
100
AcDbLine
 62
7
  6
CONTINUOUS
 10
14.3089600728
 20
7.9324573816
 11
14.3089600728
 21
7.9188892779
  0
LWPOLYLINE
  5
4F0
100
AcDbEntity
  8
0
100
AcDbPolyline
 62
7
  6
CONTINUOUS
 90
5
 70
0
 10
14.314707798
 20
8.2299898615
 10
14.3104296707
 20
8.1586274798
 10
14.2959591247
 20
8.094164844
 10
14.2715594788
 20
8.0388680686
 10
14.2382141852
 20
7.9947029103
  0
LINE
  5
4F1
100
AcDbEntity
  8
0
100
AcDbLine
 62
7
  6
CONTINUOUS
 10
14.3747622175
 20
8.1956764491
 11
14.3790542444
 21
8.2671400779
  0
LWPOLYLINE
  5
4F2
100
AcDbEntity
  8
0
100
AcDbPolyline
 62
7
  6
CONTINUOUS
 90
5
 70
0
 10
14.4080455041
 20
8.2838780895
 10
14.4037534772
 20
8.2124144608
 10
14.3894551039
 20
8.1485425484
 10
14.3655164768
 20
8.0938265794
 10
14.3325269587
 20
8.0495944433
  0
LINE
  5
4F3
100
AcDbEntity
  8
0
100
AcDbLine
 62
7
  6
CONTINUOUS
 10
14.4058632003
 20
8.2135548178
 11
14.4101668306
 21
8.2851028307
  0
LINE
  5
4F4
100
AcDbEntity
  8
0
100
AcDbLine
 62
7
  6
CONTINUOUS
 10
14.3436098752
 20
8.1774249391
 11
14.3479416819
 21
8.2491773387
  0
LWPOLYLINE
  5
4F5
100
AcDbEntity
  8
0
100
AcDbPolyline
 62
7
  6
CONTINUOUS
 90
5
 70
0
 10
14.3769329395
 20
8.2659153493
 10
14.3726011329
 20
8.1941629497
 10
14.3579893702
 20
8.1294912058
 10
14.3335552306
 20
8.0744002004
 10
14.3003834526
 20
8.0305713209
  0
LINE
  5
4F6
100
AcDbEntity
  8
0
100
AcDbLine
 62
7
  6
CONTINUOUS
 10
14.3124730779
 20
8.1592869366
 11
14.3168291245
 21
8.2312146026
  0
LWPOLYLINE
  5
4F7
100
AcDbEntity
  8
0
100
AcDbPolyline
 62
7
  6
CONTINUOUS
 90
5
 70
0
 10
14.3458203828
 20
8.2479526135
 10
14.3414643362
 20
8.1760249474
 10
14.326730065
 20
8.1110799366
 10
14.3020159735
 20
8.0557101191
 10
14.2684447242
 20
8.0117697653
  0
LWPOLYLINE
  5
4F8
100
AcDbEntity
  8
0
100
AcDbPolyline
 62
7
  6
CONTINUOUS
 90
9
 70
0
 10
14.2190240311
 20
8.0181591284
 10
14.2375164883
 20
8.0675504103
 10
14.2489661691
 20
8.1233807548
 10
14.2531241631
 20
8.1845197619
 10
14.2499112189
 20
8.2500795324
 10
14.2393802786
 20
8.3186786509
 10
14.2216706161
 20
8.3893180038
 10
14.1971260821
 20
8.4605424076
 10
14.1661586733
 20
8.531138858
  0
LINE
  5
4F9
100
AcDbEntity
  8
0
100
AcDbLine
 62
7
  6
CONTINUOUS
 10
14.5636083548
 20
8.3736918072
 11
14.5329862668
 21
8.378428914
  0
LWPOLYLINE
  5
4FA
100
AcDbEntity
  8
0
100
AcDbPolyline
 62
9
  6
CONTINUOUS
 90
11
 70
0
 10
13.4965163707
 20
8.6917071825
 10
13.4529720952
 20
8.702756861
 10
13.4114965867
 20
8.7058966721
 10
13.3728602608
 20
8.701068371
 10
13.337784459
 20
8.688361912
 10
13.3069219292
 20
8.6680137066
 10
13.2808489072
 20
8.6404038723
 10
13.260049231
 20
8.6060442288
 10
13.2449133657
 20
8.5655805115
 10
13.2357238716
 20
8.5197868171
 10
13.2326433974
 20
8.4695195059
  0
LWPOLYLINE
  5
4FB
100
AcDbEntity
  8
0
100
AcDbPolyline
 62
7
  6
CONTINUOUS
 90
13
 70
0
 10
14.3081193169
 20
8.4698393739
 10
14.2773909661
 20
8.5496610937
 10
14.2387514227
 20
8.6283773606
 10
14.1924231472
 20
8.7050245282
 10
14.1397179011
 20
8.7769679684
 10
14.0824448438
 20
8.8417523578
 10
14.022444403
 20
8.8976514174
 10
13.9603310622
 20
8.9443307878
 10
13.8968653047
 20
8.9810800283
 10
13.8338731266
 20
9.0066581659
 10
13.7733338965
 20
9.0203416605
 10
13.7156482062
 20
9.0220190746
 10
13.6623342274
 20
9.0113907153
  0
LWPOLYLINE
  5
4FC
100
AcDbEntity
  8
0
100
AcDbPolyline
 62
7
  6
CONTINUOUS
 90
13
 70
0
 10
14.3568407339
 20
8.4278383448
 10
14.3305627167
 20
8.5126351451
 10
14.2954505675
 20
8.5962199089
 10
14.2523852128
 20
8.6770728057
 10
14.2015041987
 20
8.7547250976
 10
14.1444091338
 20
8.8263452818
 10
14.0832400582
 20
8.8893647896
 10
14.0190500773
 20
8.9428837017
 10
13.9529680318
 20
8.9858738741
 10
13.8873718251
 20
9.016802134
 10
13.8235857913
 20
9.0352061192
 10
13.7623918219
 20
9.0407444602
 10
13.7051791649
 20
9.032870724
  0
LWPOLYLINE
  5
4FD
100
AcDbEntity
  8
0
100
AcDbPolyline
 62
7
  6
CONTINUOUS
 90
3
 70
0
 10
14.2984049588
 20
8.4904857963
 10
14.3241473925
 20
8.4065106018
 10
14.3400100616
 20
8.3250707629
  0
LWPOLYLINE
  5
4FE
100
AcDbEntity
  8
0
100
AcDbPolyline
 62
7
  6
CONTINUOUS
 90
3
 70
0
 10
14.3371105742
 20
8.4865773842
 10
14.3586232179
 20
8.410559933
 10
14.3719772331
 20
8.3365340595
  0
LINE
  5
4FF
100
AcDbEntity
  8
0
100
AcDbLine
 62
7
  6
CONTINUOUS
 10
14.433243931
 20
8.3797172482
 11
14.439158089
 21
8.3018408416
  0
LWPOLYLINE
  5
500
100
AcDbEntity
  8
0
100
AcDbPolyline
 62
7
  6
CONTINUOUS
 90
15
 70
0
 10
14.5035045367
 20
8.3389910587
 10
14.4975904988
 20
8.4168665913
 10
14.4812748374
 20
8.4997530544
 10
14.4549779044
 20
8.5845822222
 10
14.4198430775
 20
8.6681923248
 10
14.3768429049
 20
8.7489112833
 10
14.3261725126
 20
8.826274456
 10
14.2692245513
 20
8.8977806932
 10
14.2081012898
 20
8.9608335143
 10
14.1438476028
 20
9.0144770944
 10
14.0775730721
 20
9.057638041
 10
14.0116963533
 20
9.0887010114
 10
13.9479369467
 20
9.107076165
 10
13.8867250598
 20
9.1125932737
 10
13.8295019299
 20
9.1046873482
  0
LINE
  5
501
100
AcDbEntity
  8
0
100
AcDbLine
 62
7
  6
CONTINUOUS
 10
14.5265817573
 20
8.4336046023
 11
14.5324957951
 21
8.3557290697
  0
LINE
  5
502
100
AcDbEntity
  8
0
100
AcDbLine
 62
7
  6
CONTINUOUS
 10
14.4723919504
 20
8.3210283059
 11
14.4665247137
 21
8.3985628515
  0
LINE
  5
503
100
AcDbEntity
  8
0
100
AcDbLine
 62
7
  6
CONTINUOUS
 10
14.4955159734
 20
8.4153008632
 11
14.5013832101
 21
8.3377663176
  0
LWPOLYLINE
  5
504
100
AcDbEntity
  8
0
100
AcDbPolyline
 62
7
  6
CONTINUOUS
 90
4
 70
0
 10
14.4412793896
 20
8.3030655678
 10
14.4398627127
 20
8.3378441131
 10
14.4363260994
 20
8.3736651901
 10
14.4306845279
 20
8.4103580978
  0
LINE
  5
505
100
AcDbEntity
  8
0
100
AcDbLine
 62
7
  6
CONTINUOUS
 10
14.4688539702
 20
8.3545821235
 11
14.4702706471
 21
8.3198035782
  0
LINE
  5
506
100
AcDbEntity
  8
AXIS_COSMETIC_THREADS
100
AcDbLine
 62
7
  6
CONTINUOUS
 10
14.4824600728
 20
7.7435652776
 11
14.4824600728
 21
7.1025090147
  0
LINE
  5
507
100
AcDbEntity
  8
0
100
AcDbLine
 62
7
  6
CONTINUOUS
 10
14.4992250882
 20
8.2676190461
 11
14.5035045367
 21
8.3389910587
  0
LWPOLYLINE
  5
508
100
AcDbEntity
  8
0
100
AcDbPolyline
 62
7
  6
CONTINUOUS
 90
5
 70
0
 10
14.439158089
 20
8.3018408416
 10
14.4348544586
 20
8.2302928288
 10
14.4202715611
 20
8.165591636
 10
14.3957302357
 20
8.110239921
 10
14.3622735685
 20
8.0661554847
  0
LINE
  5
509
100
AcDbEntity
  8
0
100
AcDbLine
 62
7
  6
CONTINUOUS
 10
14.4680705569
 20
8.2493513519
 11
14.4723919504
 21
8.3210283059
  0
LWPOLYLINE
  5
50A
100
AcDbEntity
  8
0
100
AcDbPolyline
 62
7
  6
CONTINUOUS
 90
5
 70
0
 10
14.5013832101
 20
8.3377663176
 10
14.4970618166
 20
8.2660893636
 10
14.4825157027
 20
8.2015755214
 10
14.4582451866
 20
8.1466622187
 10
14.4252384188
 20
8.1028367191
  0
LINE
  5
50B
100
AcDbEntity
  8
0
100
AcDbLine
 62
7
  6
CONTINUOUS
 10
14.4369205137
 20
8.2311174874
 11
14.4412793896
 21
8.3030655678
  0
LWPOLYLINE
  5
50C
100
AcDbEntity
  8
0
100
AcDbPolyline
 62
7
  6
CONTINUOUS
 90
5
 70
0
 10
14.4702706471
 20
8.3198035782
 10
14.4659117713
 20
8.2478554979
 10
14.451168561
 20
8.1828950326
 10
14.4264400964
 20
8.1275167104
 10
14.3928512843
 20
8.0835766268
  0
LWPOLYLINE
  5
50D
100
AcDbEntity
  8
0
100
AcDbPolyline
 62
7
  6
CONTINUOUS
 90
3
 70
0
 10
14.2190240311
 20
8.0181591284
 10
14.1886977272
 20
7.9716759732
 10
14.1640643387
 20
7.949046159
  0
LWPOLYLINE
  5
50E
100
AcDbEntity
  8
0
100
AcDbPolyline
 62
7
  6
CONTINUOUS
 90
3
 70
0
 10
14.1548242717
 20
7.9398734574
 10
14.1904955581
 20
7.9743015893
 10
14.2190240311
 20
8.0181591284
  0
LWPOLYLINE
  5
50F
100
AcDbEntity
  8
0
100
AcDbPolyline
 62
9
  6
CONTINUOUS
 90
7
 70
0
 10
13.8932253773
 20
7.836474319
 10
13.9198007559
 20
7.8551377801
 10
13.9502560858
 20
7.8873868014
 10
13.9745519568
 20
7.9275199994
 10
13.9922323358
 20
7.9747830972
 10
14.0029669909
 20
8.028272087
 10
14.0065661762
 20
8.0869949721
  0
LINE
  5
510
100
AcDbEntity
  8
0
100
AcDbLine
 62
7
  6
CONTINUOUS
 10
14.5636083548
 20
8.3736918072
 11
14.5346170975
 21
8.3569537969
  0
LWPOLYLINE
  5
511
100
AcDbEntity
  8
0
100
AcDbPolyline
 62
7
  6
CONTINUOUS
 90
8
 70
0
 10
14.4306845279
 20
8.4103580978
 10
14.4116203659
 20
8.4911174645
 10
14.3833093637
 20
8.5734109156
 10
14.3466960977
 20
8.6545036747
 10
14.3020041882
 20
8.733731508
 10
14.2502236196
 20
8.8088848251
 10
14.1931679759
 20
8.8772531784
 10
14.1327468959
 20
8.9368632471
  0
LINE
  5
512
100
AcDbEntity
  8
0
100
AcDbLine
 62
7
  6
CONTINUOUS
 10
14.4169279262
 20
8.4626046624
 11
14.433243931
 21
8.3797172482
  0
LWPOLYLINE
  5
513
100
AcDbEntity
  8
0
100
AcDbPolyline
 62
7
  6
CONTINUOUS
 90
14
 70
0
 10
14.4665247137
 20
8.3985628515
 10
14.4504584836
 20
8.4806207327
 10
14.4247514681
 20
8.5641835473
 10
14.3902575918
 20
8.6470059289
 10
14.3471759998
 20
8.7284981091
 10
14.2961634907
 20
8.8067813308
 10
14.2389821634
 20
8.8788254981
 10
14.1778313258
 20
8.9420853107
 10
14.1140309201
 20
8.9955500294
 10
14.0486295261
 20
9.0384516621
 10
13.9827828956
 20
9.069894304
 10
13.9186877143
 20
9.0887498794
 10
13.8574880866
 20
9.0946589453
 10
13.8002475123
 20
9.0872170061
  0
LWPOLYLINE
  5
514
100
AcDbEntity
  8
0
100
AcDbPolyline
 62
7
  6
CONTINUOUS
 90
3
 70
0
 10
14.4596757853
 20
8.4270961081
 10
14.4653173568
 20
8.3904032005
 10
14.4688539702
 20
8.3545821235
  0
LWPOLYLINE
  5
515
100
AcDbEntity
  8
0
100
AcDbPolyline
 62
7
  6
CONTINUOUS
 90
14
 70
0
 10
14.5346170975
 20
8.3569537969
 10
14.5287033543
 20
8.4348271958
 10
14.5123883455
 20
8.5177120754
 10
14.4860909837
 20
8.6025435535
 10
14.4509526612
 20
8.6861613315
 10
14.4077445593
 20
8.7672302214
 10
14.357262806
 20
8.8442680246
 10
14.301106371
 20
8.9148662674
 10
14.2403306825
 20
8.9777547307
 10
14.1759343284
 20
9.0317153844
 10
14.1091028196
 20
9.0753664307
 10
14.0422930395
 20
9.1068597698
 10
13.977960655
 20
9.1252462896
 10
13.9173565634
 20
9.1305465673
  0
LWPOLYLINE
  5
516
100
AcDbEntity
  8
0
100
AcDbPolyline
 62
7
  6
CONTINUOUS
 90
16
 70
0
 10
14.5636083548
 20
8.3736918072
 10
14.5584719953
 20
8.4520173987
 10
14.5431893909
 20
8.5343451772
 10
14.5181368502
 20
8.6186479595
 10
14.4839312498
 20
8.7028499312
 10
14.4414148452
 20
8.7848777605
 10
14.3916345312
 20
8.8627116499
 10
14.3358160645
 20
8.9344350707
 10
14.2753338809
 20
8.9982819543
 10
14.2116772526
 20
9.0526801784
 10
14.146413617
 20
9.0962902784
 10
14.0811499813
 20
9.1280384288
 10
14.017493353
 20
9.1471428848
 10
13.9570111694
 20
9.1531332312
 10
13.9011927027
 20
9.1458619658
 10
13.8514149272
 20
9.125509597
  0
LWPOLYLINE
  5
517
100
AcDbEntity
  8
0
100
AcDbPolyline
 62
9
  6
CONTINUOUS
 90
17
 70
0
 10
14.5697954177
 20
8.3905318233
 10
14.5688719141
 20
8.4226559275
 10
14.565664062
 20
8.4596020252
 10
14.5593712876
 20
8.5020622353
 10
14.5489952307
 20
8.5506166385
 10
14.5333405113
 20
8.6056611432
 10
14.5110394145
 20
8.6672791952
 10
14.4806326115
 20
8.7350340363
 10
14.4414135456
 20
8.8065846823
 10
14.3945270489
 20
8.8772868388
 10
14.341919123
 20
8.9431616582
 10
14.2851373235
 20
9.0020065886
 10
14.2257106894
 20
9.0522180742
 10
14.1649723989
 20
9.0927183715
 10
14.1042162111
 20
9.1226664115
 10
14.0447346103
 20
9.1414051967
 10
14.0308797483
 20
9.1431253958
  0
LWPOLYLINE
  5
518
100
AcDbEntity
  8
0
100
AcDbPolyline
 62
9
  6
CONTINUOUS
 90
20
 70
0
 10
14.6051507567
 20
8.3905319083
 10
14.6041871232
 20
8.4240538476
 10
14.6008396793
 20
8.4626090766
 10
14.5942730516
 20
8.5069184477
 10
14.5834454084
 20
8.5575873341
 10
14.5671093422
 20
8.6150289661
 10
14.5438375576
 20
8.6793305519
 10
14.5121069361
 20
8.7500368516
 10
14.4711794001
 20
8.8247059558
 10
14.4222490941
 20
8.8984912415
 10
14.3673470493
 20
8.9672393779
 10
14.3080886343
 20
9.0286510409
 10
14.2460699999
 20
9.08105224
 10
14.1826826962
 20
9.1233181158
 10
14.1192769889
 20
9.1545709665
 10
14.0572018139
 20
9.1741251992
 10
13.9978416089
 20
9.1814931908
 10
13.9427835427
 20
9.1764904208
 10
13.8936285621
 20
9.159515622
 10
13.8524069447
 20
9.1323070326
  0
LWPOLYLINE
  5
519
100
AcDbEntity
  8
0
100
AcDbPolyline
 62
7
  6
CONTINUOUS
 90
5
 70
0
 10
14.5324957951
 20
8.3557290697
 10
14.5282163466
 20
8.284357057
 10
14.513970029
 20
8.2205941793
 10
14.4900015251
 20
8.1657379916
 10
14.457007529
 20
8.1214767996
  0
LWPOLYLINE
  5
51A
100
AcDbEntity
  8
0
100
AcDbPolyline
 62
9
  6
CONTINUOUS
 90
6
 70
0
 10
14.5453695285
 20
8.2458427997
 10
14.5487602293
 20
8.2537881244
 10
14.5592528222
 20
8.2905162742
 10
14.5656170408
 20
8.3258826769
 10
14.5688613388
 20
8.3593000142
 10
14.5697954177
 20
8.3905318233
  0
LWPOLYLINE
  5
51B
100
AcDbEntity
  8
0
100
AcDbPolyline
 62
7
  6
CONTINUOUS
 90
4
 70
0
 10
14.4280162707
 20
8.1047387887
 10
14.4610102667
 20
8.1489999807
 10
14.4849787706
 20
8.2038561684
 10
14.4992250882
 20
8.2676190461
  0
LINE
  5
51C
100
AcDbEntity
  8
0
100
AcDbLine
 62
7
  6
CONTINUOUS
 10
14.3981883376
 20
8.0813342449
 11
14.4280162707
 21
8.1047387887
  0
LINE
  5
51D
100
AcDbEntity
  8
0
100
AcDbLine
 62
7
  6
CONTINUOUS
 10
14.457007529
 20
8.1214767996
 11
14.4141969976
 21
8.0878854356
  0
LWPOLYLINE
  5
51E
100
AcDbEntity
  8
0
100
AcDbPolyline
 62
7
  6
CONTINUOUS
 90
5
 70
0
 10
14.2737560513
 20
8.009495127
 10
14.303535699
 20
8.0328564317
 10
14.3365252171
 20
8.0770885677
 10
14.3604638442
 20
8.1318045368
 10
14.3747622175
 20
8.1956764491
  0
LINE
  5
51F
100
AcDbEntity
  8
0
100
AcDbLine
 62
7
  6
CONTINUOUS
 10
14.3325269587
 20
8.0495944433
 11
14.2897463643
 21
8.0160342579
  0
LINE
  5
520
100
AcDbEntity
  8
0
100
AcDbLine
 62
7
  6
CONTINUOUS
 10
14.2080177359
 20
7.9776824285
 11
14.1652956123
 21
7.9441830116
  0
LWPOLYLINE
  5
521
100
AcDbEntity
  8
0
100
AcDbPolyline
 62
7
  6
CONTINUOUS
 90
5
 70
0
 10
14.3673143418
 20
8.0635084612
 10
14.3962471592
 20
8.0860987075
 10
14.4292539269
 20
8.1299242071
 10
14.453524443
 20
8.1848375097
 10
14.4680705569
 20
8.2493513519
  0
LINE
  5
522
100
AcDbEntity
  8
0
100
AcDbLine
 62
7
  6
CONTINUOUS
 10
14.4252384188
 20
8.1028367191
 11
14.3830799263
 21
8.0699200932
  0
LWPOLYLINE
  5
523
100
AcDbEntity
  8
0
100
AcDbPolyline
 62
7
  6
CONTINUOUS
 90
5
 70
0
 10
14.1807138481
 20
7.9557638627
 10
14.2092229256
 20
7.9779648986
 10
14.2425682191
 20
8.0221300569
 10
14.2669678651
 20
8.0774268324
 10
14.2814384111
 20
8.1418894681
  0
LINE
  5
524
100
AcDbEntity
  8
0
100
AcDbLine
 62
7
  6
CONTINUOUS
 10
14.2382141852
 20
7.9947029103
 11
14.1964015818
 21
7.9621419441
  0
LWPOLYLINE
  5
525
100
AcDbEntity
  8
0
100
AcDbPolyline
 62
7
  6
CONTINUOUS
 90
5
 70
0
 10
14.2430213022
 20
7.9917491133
 10
14.2713921945
 20
8.0138333101
 10
14.3045639726
 20
8.0576621897
 10
14.3289981123
 20
8.1127531952
 10
14.3436098752
 20
8.1774249391
  0
LINE
  5
526
100
AcDbEntity
  8
0
100
AcDbLine
 62
7
  6
CONTINUOUS
 10
14.3003834526
 20
8.0305713209
 11
14.2586266339
 21
7.9980673802
  0
LWPOLYLINE
  5
527
100
AcDbEntity
  8
0
100
AcDbPolyline
 62
7
  6
CONTINUOUS
 90
5
 70
0
 10
14.3052929936
 20
8.0276847461
 10
14.3332823102
 20
8.0494174739
 10
14.3667389774
 20
8.0935019101
 10
14.3912803027
 20
8.1488536251
 10
14.4058632003
 20
8.2135548178
  0
LINE
  5
528
100
AcDbEntity
  8
0
100
AcDbLine
 62
7
  6
CONTINUOUS
 10
14.3622735685
 20
8.0661554847
 11
14.3208515757
 21
8.0339927526
  0
LWPOLYLINE
  5
529
100
AcDbEntity
  8
0
100
AcDbPolyline
 62
7
  6
CONTINUOUS
 90
6
 70
0
 10
14.4414123067
 20
8.1035981076
 10
14.4839312498
 20
8.1365347977
 10
14.5181368502
 20
8.1812404378
 10
14.5431893909
 20
8.2366156923
 10
14.5584719953
 20
8.3012970385
 10
14.5636083548
 20
8.3736918072
  0
LWPOLYLINE
  5
52A
100
AcDbEntity
  8
0
100
AcDbPolyline
 62
7
  6
CONTINUOUS
 90
5
 70
0
 10
14.2120561574
 20
7.9738364557
 10
14.239453466
 20
7.9950317545
 10
14.2730247153
 20
8.0389721083
 10
14.2977388067
 20
8.0943419258
 10
14.3124730779
 20
8.1592869366
  0
LINE
  5
52B
100
AcDbEntity
  8
0
100
AcDbLine
 62
7
  6
CONTINUOUS
 10
14.2684447242
 20
8.0117697653
 11
14.2275137427
 21
7.9801044513
  0
LWPOLYLINE
  5
52C
100
AcDbEntity
  8
0
100
AcDbPolyline
 62
7
  6
CONTINUOUS
 90
5
 70
0
 10
14.3365506455
 20
8.0457180066
 10
14.3638600264
 20
8.0668386161
 10
14.3974488386
 20
8.1107786998
 10
14.4221773033
 20
8.1661570221
 10
14.4369205137
 20
8.2311174874
  0
LINE
  5
52D
100
AcDbEntity
  8
0
100
AcDbLine
 62
7
  6
CONTINUOUS
 10
14.3928512843
 20
8.0835766268
 11
14.3519656002
 21
8.0519563359
  0
LINE
  5
52E
100
AcDbEntity
  8
0
100
AcDbLine
 62
7
  6
CONTINUOUS
 10
14.1345798267
 20
7.9264559255
 11
14.1548242717
 21
7.9398734574
  0
LWPOLYLINE
  5
52F
100
AcDbEntity
  8
02___PRT_ALL_AXES
100
AcDbPolyline
 62
7
  6
CONTINUOUS
 90
8
 70
0
 10
14.113158967
 20
7.9634543534
 10
14.1216134335
 20
7.9686454147
 10
14.1525890794
 20
7.993997746
 10
14.1786276052
 20
8.0263424155
 10
14.199318368
 20
8.0651693284
 10
14.2143350619
 20
8.1098661611
 10
14.2234408649
 20
8.1597280179
 10
14.2264921728
 20
8.2139685475
  0
LINE
  5
530
100
AcDbEntity
  8
02___PRT_ALL_AXES
100
AcDbLine
 62
7
  6
CONTINUOUS
 10
14.1131513739
 20
7.9634478944
 11
13.8932253773
 21
7.836474319
  0
LINE
  5
531
100
AcDbEntity
  8
0
100
AcDbLine
 62
7
  6
CONTINUOUS
 10
14.4414122963
 20
8.1035981016
 11
14.4141888517
 21
8.0878807324
  0
LINE
  5
532
100
AcDbEntity
  8
0
100
AcDbLine
 62
7
  6
CONTINUOUS
 10
14.1127357095
 20
7.9155729935
 11
14.1345798267
 21
7.9264559255
  0
LINE
  5
533
100
AcDbEntity
  8
0
100
AcDbLine
 62
7
  6
CONTINUOUS
 10
14.4141969976
 20
8.0878854356
 11
14.3981883376
 21
8.0813342449
  0
LINE
  5
534
100
AcDbEntity
  8
0
100
AcDbLine
 62
7
  6
CONTINUOUS
 10
14.2897463643
 20
8.0160342579
 11
14.2737560513
 21
8.009495127
  0
LINE
  5
535
100
AcDbEntity
  8
0
100
AcDbLine
 62
7
  6
CONTINUOUS
 10
14.1652956123
 20
7.9441830116
 11
14.1535430445
 21
7.9393806218
  0
LINE
  5
536
100
AcDbEntity
  8
0
100
AcDbLine
 62
7
  6
CONTINUOUS
 10
14.3830799263
 20
8.0699200932
 11
14.3673143418
 21
8.0635084612
  0
LINE
  5
537
100
AcDbEntity
  8
0
100
AcDbLine
 62
7
  6
CONTINUOUS
 10
14.1964015818
 20
7.9621419441
 11
14.1807138481
 21
7.9557638627
  0
LINE
  5
538
100
AcDbEntity
  8
0
100
AcDbLine
 62
7
  6
CONTINUOUS
 10
14.3208515757
 20
8.0339927526
 11
14.3052929936
 21
8.0276847461
  0
LINE
  5
539
100
AcDbEntity
  8
0
100
AcDbLine
 62
7
  6
CONTINUOUS
 10
14.2275137427
 20
7.9801044513
 11
14.2120561574
 21
7.9738364557
  0
LINE
  5
53A
100
AcDbEntity
  8
0
100
AcDbLine
 62
7
  6
CONTINUOUS
 10
14.2586266339
 20
7.9980673802
 11
14.2430213022
 21
7.9917491133
  0
LINE
  5
53B
100
AcDbEntity
  8
0
100
AcDbLine
 62
7
  6
CONTINUOUS
 10
14.3519656002
 20
8.0519563359
 11
14.3365506455
 21
8.0457180066
  0
LWPOLYLINE
  5
53C
100
AcDbEntity
  8
0
100
AcDbPolyline
 62
9
  6
CONTINUOUS
 90
10
 70
0
 10
14.4283853022
 20
8.0960770079
 10
14.4699090555
 20
8.1104164981
 10
14.5111306729
 20
8.1376250874
 10
14.5431655104
 20
8.1716421811
 10
14.5666853182
 20
8.2091329308
 10
14.5832004509
 20
8.2478341436
 10
14.5941495251
 20
8.2861617097
 10
14.6007906332
 20
8.3230683278
 10
14.604176091
 20
8.3579411028
 10
14.6051507567
 20
8.3905319083
  0
LINE
  5
53D
100
AcDbEntity
  8
0
100
AcDbLine
 62
7
  6
CONTINUOUS
 10
14.1327468959
 20
8.9368632471
 11
14.0689293824
 21
8.987749524
  0
LWPOLYLINE
  5
53E
100
AcDbEntity
  8
0
100
AcDbPolyline
 62
7
  6
CONTINUOUS
 90
8
 70
0
 10
14.0806085468
 20
8.9765031326
 10
14.1449899902
 20
8.922531195
 10
14.2058060384
 20
8.8595720849
 10
14.2619990133
 20
8.7888848056
 10
14.3123339777
 20
8.7120354974
 10
14.3554925013
 20
8.6310507833
 10
14.3906305137
 20
8.5474345867
 10
14.4169279262
 20
8.4626046624
  0
LWPOLYLINE
  5
53F
100
AcDbEntity
  8
0
100
AcDbPolyline
 62
9
  6
CONTINUOUS
 90
11
 70
0
 10
14.6986660179
 20
8.3365420685
 10
14.6934047496
 20
8.4245220937
 10
14.677728049
 20
8.5167861512
 10
14.6519550485
 20
8.6114560109
 10
14.6166104121
 20
8.7066044674
 10
14.5724136546
 20
8.8002945725
 10
14.5202644945
 20
8.8906190658
 10
14.4612245385
 20
8.9757392012
 10
14.3964956696
 20
9.0539221781
 10
14.3273955812
 20
9.1235764167
 10
14.2553309515
 20
9.1832839574
  0
LINE
  5
540
100
AcDbEntity
  8
AXIS_COSMETIC_THREADS
100
AcDbLine
 62
7
  6
CONTINUOUS
 10
14.7154600728
 20
7.7433823238
 11
14.7154600728
 21
7.1025090147
  0
LWPOLYLINE
  5
541
100
AcDbEntity
  8
0
100
AcDbPolyline
 62
7
  6
CONTINUOUS
 90
6
 70
0
 10
14.0689293824
 20
8.987749524
 10
14.0032479471
 20
9.0283051193
 10
13.9380330005
 20
9.0569450397
 10
13.8755413128
 20
9.0729409918
 10
13.8164423966
 20
9.076391452
 10
13.7620173564
 20
9.0672718014
  0
LINE
  5
542
100
AcDbEntity
  8
0
100
AcDbLine
 62
7
  6
CONTINUOUS
 10
14.0137848638
 20
9.0201741185
 11
14.0806085468
 21
8.9765031326
  0
LWPOLYLINE
  5
543
100
AcDbEntity
  8
0
100
AcDbPolyline
 62
9
  6
CONTINUOUS
 90
18
 70
0
 10
14.7835188316
 20
8.3365422724
 10
14.7778257219
 20
8.4317436404
 10
14.760862288
 20
8.5315806712
 10
14.7329738565
 20
8.6340209707
 10
14.6947281556
 20
8.7369791501
 10
14.6469037572
 20
8.8383592774
 10
14.5904742284
 20
8.9360975459
 10
14.5265883115
 20
9.0282042861
 10
14.4565465396
 20
9.1128044704
 10
14.3817747612
 20
9.1881758831
 10
14.3037951141
 20
9.2527841796
 10
14.224195039
 20
9.3053141212
 10
14.144594964
 20
9.3446963498
 10
14.0666153169
 20
9.3701291569
 10
13.9918435385
 20
9.3810948037
 10
13.9218017666
 20
9.3773700614
 10
13.8579158497
 20
9.359030755
 10
13.8286968097
 20
9.3444878259
  0
LWPOLYLINE
  5
544
100
AcDbEntity
  8
AXIS
100
AcDbPolyline
 62
7
  6
CONTINUOUS
 90
5
 70
0
 10
14.715454864
 20
7.1024941288
 10
14.7152475541
 20
7.0984482157
 10
14.710185198
 20
7.0824991241
 10
14.6986588419
 20
7.0677129346
 10
14.6813383557
 20
7.0549489668
  0
LWPOLYLINE
  5
545
100
AcDbEntity
  8
0
100
AcDbPolyline
 62
9
  6
CONTINUOUS
 90
7
 70
0
 10
15.1624105659
 20
8.2918111459
 10
15.2043833903
 20
8.3225682635
 10
15.2453620055
 20
8.3690321664
 10
15.2783695673
 20
8.4264703939
 10
15.3026230735
 20
8.4933793275
 10
15.3175687224
 20
8.5684568508
 10
15.3226854869
 20
8.6506861369
  0
LWPOLYLINE
  5
546
100
AcDbEntity
  8
0
100
AcDbPolyline
 62
7
  6
CONTINUOUS
 90
7
 70
0
 10
15.1623628376
 20
8.2917838177
 10
15.2089098573
 20
8.3254946493
 10
15.2540144443
 20
8.3750529845
 10
15.2913448261
 20
8.4374198326
 10
15.3188360279
 20
8.5107920752
 10
15.3351840602
 20
8.5921697224
 10
15.3402589033
 20
8.6751822837
  0
LWPOLYLINE
  5
547
100
AcDbEntity
  8
0
100
AcDbPolyline
 62
7
  6
CONTINUOUS
 90
7
 70
0
 10
15.0976786006
 20
8.2504024264
 10
15.1338082522
 20
8.2754676305
 10
15.1786019332
 20
8.3219949674
 10
15.214355926
 20
8.3801640812
 10
15.2403912615
 20
8.4488718479
 10
15.2562131486
 20
8.5268141052
 10
15.2615210256
 20
8.6125153204
  0
LWPOLYLINE
  5
548
100
AcDbEntity
  8
0
100
AcDbPolyline
 62
9
  6
CONTINUOUS
 90
7
 70
0
 10
14.6196932684
 20
7.9744335926
 10
14.6469037572
 20
7.9924711987
 10
14.6947281556
 20
8.0386297169
 10
14.7329738565
 20
8.0974265637
 10
14.760862288
 20
8.167664805
 10
14.7778257219
 20
8.2479145926
 10
14.7835188316
 20
8.3365422724
  0
LINE
  5
549
100
AcDbEntity
  8
0
100
AcDbLine
 62
7
  6
CONTINUOUS
 10
15.1625065091
 20
8.2918665384
 11
15.1323484197
 21
8.2744548613
  0
LINE
  5
54A
100
AcDbEntity
  8
0
100
AcDbLine
 62
7
  6
CONTINUOUS
 10
15.0976954624
 20
8.2504066406
 11
14.6196932684
 21
7.9744335926
  0
LINE
  5
54B
100
AcDbEntity
  8
0
100
AcDbLine
 62
7
  6
CONTINUOUS
 10
14.8889600728
 20
7.930855002
 11
14.8889600728
 21
7.9188892779
  0
LINE
  5
54C
100
AcDbEntity
  8
0
100
AcDbLine
 62
7
  6
CONTINUOUS
 10
14.8939600728
 20
7.9597143988
 11
14.8939600728
 21
8.1327806607
  0
LINE
  5
54D
100
AcDbEntity
  8
0
100
AcDbLine
 62
7
  6
CONTINUOUS
 10
13.6708720698
 20
8.9856740434
 11
13.6148694082
 21
8.9790763458
  0
LWPOLYLINE
  5
54E
100
AcDbEntity
  8
0
100
AcDbPolyline
 62
7
  6
CONTINUOUS
 90
12
 70
0
 10
13.7446394637
 20
9.038757085
 10
13.8023251539
 20
9.0370796708
 10
13.862864384
 20
9.0233961762
 10
13.9258565621
 20
8.9978180387
 10
13.9893223196
 20
8.9610687981
 10
14.0514356604
 20
8.9143894277
 10
14.1114361011
 20
8.8584903681
 10
14.1687091585
 20
8.7937059787
 10
14.2214144045
 20
8.7217625385
 10
14.26774268
 20
8.6451153709
 10
14.3063822235
 20
8.566399104
 10
14.3371105742
 20
8.4865773842
  0
LWPOLYLINE
  5
54F
100
AcDbEntity
  8
0
100
AcDbPolyline
 62
7
  6
CONTINUOUS
 90
13
 70
0
 10
13.8454336541
 20
9.0931294624
 10
13.9045325703
 20
9.0896790021
 10
13.967024258
 20
9.0736830501
 10
14.0322392045
 20
9.0450431297
 10
14.0979206398
 20
9.0044875343
 10
14.1617381533
 20
8.9536012574
 10
14.2221592333
 20
8.8939911888
 10
14.279214877
 20
8.8256228354
 10
14.3309954456
 20
8.7504695183
 10
14.3756873551
 20
8.671241685
 10
14.412300621
 20
8.5901489259
 10
14.4406116232
 20
8.5078554748
 10
14.4596757853
 20
8.4270961081
  0
LWPOLYLINE
  5
550
100
AcDbEntity
  8
0
100
AcDbPolyline
 62
9
  6
CONTINUOUS
 90
12
 70
0
 10
14.2553309515
 20
9.1832839574
 10
14.1817688088
 20
9.2318293269
 10
14.1082066661
 20
9.2682242816
 10
14.0361420365
 20
9.291727925
 10
13.967041948
 20
9.3018617908
 10
13.9023130792
 20
9.2984195827
 10
13.8432731231
 20
9.2814713741
 10
13.7911239631
 20
9.2513621817
 10
13.7469272056
 20
9.2087049417
 10
13.7115825691
 20
9.1543680327
 10
13.6858095686
 20
9.0894575974
 10
13.6708502679
 20
9.0186888655
  0
LWPOLYLINE
  5
551
100
AcDbEntity
  8
0
100
AcDbPolyline
 62
7
  6
CONTINUOUS
 90
3
 70
0
 10
14.8786678541
 20
7.9055901412
 10
14.8911313196
 20
7.9361848779
 10
14.893955551
 20
7.9597312289
  0
LWPOLYLINE
  5
552
100
AcDbEntity
  8
0
100
AcDbPolyline
 62
7
  6
CONTINUOUS
 90
4
 70
0
 10
15.187466114
 20
8.336416337
 10
15.2157958552
 20
8.37996893
 10
15.2435608865
 20
8.4498963826
 10
15.2604492609
 20
8.5297910827
  0
LWPOLYLINE
  5
553
100
AcDbEntity
  8
0
100
AcDbPolyline
 62
7
  6
CONTINUOUS
 90
5
 70
0
 10
14.8636937776
 20
7.8505380653
 10
14.870675915
 20
7.8603794285
 10
14.8823329205
 20
7.883300326
 10
14.8882212721
 20
7.906945712
 10
14.8889600728
 20
7.9188892779
  0
LINE
  5
554
100
AcDbEntity
  8
0
100
AcDbLine
 62
7
  6
CONTINUOUS
 10
14.8636937776
 20
7.8505380653
 11
14.8373413507
 21
7.8165168395
  0
LWPOLYLINE
  5
555
100
AcDbEntity
  8
0
100
AcDbPolyline
 62
7
  6
CONTINUOUS
 90
4
 70
0
 10
14.7836093936
 20
7.7714592337
 10
14.8090673373
 20
7.7885386943
 10
14.8298318319
 20
7.8076180058
 10
14.8373368482
 20
7.8165152257
  0
LWPOLYLINE
  5
556
100
AcDbEntity
  8
0
100
AcDbPolyline
 62
7
  6
CONTINUOUS
 90
4
 70
0
 10
14.8040218931
 20
7.8004994591
 10
14.8311177562
 20
7.818553265
 10
14.8534875584
 20
7.8386496227
 10
14.8636937776
 20
7.8505380653
  0
LWPOLYLINE
  5
557
100
AcDbEntity
  8
0
100
AcDbPolyline
 62
7
  6
CONTINUOUS
 90
15
 70
0
 10
14.8040218931
 20
7.8004994591
 10
14.7727515626
 20
7.7848557286
 10
14.7379433386
 20
7.7719405345
 10
14.7003058161
 20
7.7620167932
 10
14.6606051865
 20
7.7552865232
 10
14.6196496402
 20
7.7518867335
 10
14.5782729139
 20
7.7518866341
 10
14.5373173186
 20
7.7552862269
 10
14.4976165919
 20
7.762016306
 10
14.4599789263
 20
7.7719398664
 10
14.425170516
 20
7.7848548931
 10
14.39389996
 20
7.8004984733
 10
14.3668038365
 20
7.8185521489
 10
14.3444337444
 20
7.8386483991
 10
14.334226368
 20
7.8505380653
  0
LWPOLYLINE
  5
558
100
AcDbEntity
  8
0
100
AcDbPolyline
 62
7
  6
CONTINUOUS
 90
14
 70
0
 10
14.7836093936
 20
7.7714592337
 10
14.7540266891
 20
7.756761151
 10
14.7209800528
 20
7.744772777
 10
14.6852076917
 20
7.7357619121
 10
14.6475087013
 20
7.7299298442
 10
14.6087252147
 20
7.7274068521
 10
14.5697235911
 20
7.7282492953
 10
14.5313750621
 20
7.7324383549
 10
14.4945362706
 20
7.7398804543
 10
14.4600301343
 20
7.7504093492
 10
14.4286274632
 20
7.7637898416
 10
14.4010297411
 20
7.7797230334
 10
14.3778534556
 20
7.7978530034
 10
14.3605759517
 20
7.8165207367
  0
LINE
  5
559
100
AcDbEntity
  8
0
100
AcDbLine
 62
7
  6
CONTINUOUS
 10
13.6913254849
 20
9.0281287257
 11
13.7446394637
 21
9.038757085
  0
LINE
  5
55A
100
AcDbEntity
  8
0
100
AcDbLine
 62
7
  6
CONTINUOUS
 10
13.7910086139
 20
9.0840098118
 11
13.8454336541
 21
9.0931294624
  0
LINE
  5
55B
100
AcDbEntity
  8
0
100
AcDbLine
 62
7
  6
CONTINUOUS
 10
13.9173565634
 20
9.1305465673
 11
13.8607866358
 21
9.1226964471
  0
LWPOLYLINE
  5
55C
100
AcDbEntity
  8
0
100
AcDbPolyline
 62
7
  6
CONTINUOUS
 90
12
 70
0
 10
13.6731072049
 20
9.0139924595
 10
13.7292800706
 20
9.021559199
 10
13.7900850758
 20
9.0160699063
 10
13.8544696897
 20
8.9974881156
 10
13.9212958623
 20
8.9658073418
 10
13.9881070508
 20
8.9219906055
 10
14.0524462629
 20
8.8678998541
 10
14.1131196856
 20
8.8049389879
 10
14.1698450539
 20
8.7333537457
 10
14.2206375023
 20
8.6553661803
 10
14.2636872132
 20
8.5739277152
 10
14.2984049588
 20
8.4904857963
  0
LWPOLYLINE
  5
55D
100
AcDbEntity
  8
0
100
AcDbPolyline
 62
7
  6
CONTINUOUS
 90
18
 70
0
 10
15.2615210256
 20
8.6125153204
 10
15.2558279159
 20
8.7077166884
 10
15.238864482
 20
8.8075537192
 10
15.2109760505
 20
8.9099940188
 10
15.1727303495
 20
9.0129521981
 10
15.1249059512
 20
9.1143323255
 10
15.0684764223
 20
9.2120705939
 10
15.0045905055
 20
9.3041773341
 10
14.9345487336
 20
9.3887775185
 10
14.8597769552
 20
9.4641489312
 10
14.7817973081
 20
9.5287572276
 10
14.702197233
 20
9.5812871692
 10
14.6225971579
 20
9.6206693978
 10
14.5446175108
 20
9.6461022049
 10
14.4698457324
 20
9.6570678517
 10
14.3998039606
 20
9.6533431094
 10
14.3359180437
 20
9.635003803
 10
14.3067028574
 20
9.6204542124
  0
LWPOLYLINE
  5
55E
100
AcDbEntity
  8
0
100
AcDbPolyline
 62
7
  6
CONTINUOUS
 90
17
 70
0
 10
15.2661171799
 20
8.6180266046
 10
15.2604492609
 20
8.7128067276
 10
15.2435608865
 20
8.8122020016
 10
15.2157958552
 20
8.9141890255
 10
15.1777193829
 20
9.0166916377
 10
15.130106597
 20
9.1176231804
 10
15.0739267563
 20
9.2149289786
 10
15.0103235205
 20
9.3066281669
 10
14.940591668
 20
9.3908540141
 10
14.8661507382
 20
9.465891925
 10
14.7885161337
 20
9.5302143441
 10
14.7092682714
 20
9.5825118523
 10
14.630020409
 20
9.6217198233
 10
14.5523858046
 20
9.6470400958
 10
14.4779448748
 20
9.657957222
 10
14.4082130223
 20
9.6542489609
 10
14.4062519385
 20
9.6536860056
  0
LINE
  5
55F
100
AcDbEntity
  8
0
100
AcDbLine
 62
7
  6
CONTINUOUS
 10
15.2604492609
 20
8.5297910827
 11
15.2661171799
 21
8.6180266046
  0
LWPOLYLINE
  5
560
100
AcDbEntity
  8
0
100
AcDbPolyline
 62
9
  6
CONTINUOUS
 90
4
 70
0
 10
15.3402589034
 20
8.6751805822
 10
15.3382145176
 20
8.666215095
 10
15.3322205525
 20
8.6578604466
 10
15.3226854869
 20
8.6506861369
  0
LWPOLYLINE
  5
561
100
AcDbEntity
  8
0
100
AcDbPolyline
 62
7
  6
CONTINUOUS
 90
18
 70
0
 10
15.3402589034
 20
8.6751805822
 10
15.3346937105
 20
8.769043926
 10
15.3182578996
 20
8.86637698
 10
15.2914578635
 20
8.9653804861
 10
15.2549456643
 20
9.0642509552
 10
15.2095255586
 20
9.1611708614
 10
15.156015183
 20
9.2545652564
 10
15.0953845442
 20
9.3427690182
 10
15.0286503441
 20
9.4242434482
 10
14.9568775706
 20
9.4975361013
 10
14.8813555787
 20
9.5611331666
 10
14.8032415767
 20
9.6138109512
 10
14.72397628
 20
9.6543088299
 10
14.6454770228
 20
9.6814921194
 10
14.5694935617
 20
9.6948270769
 10
14.4978696537
 20
9.6943329655
 10
14.4316686901
 20
9.6805199927
 10
14.3720883411
 20
9.6541717543
  0
LWPOLYLINE
  5
562
100
AcDbEntity
  8
0
100
AcDbPolyline
 62
9
  6
CONTINUOUS
 90
19
 70
0
 10
15.3226854869
 20
8.6506861369
 10
15.3179215673
 20
8.7373642992
 10
15.3037113205
 20
8.8280601503
 10
15.2802978877
 20
8.9212218588
 10
15.2480818792
 20
9.0152554022
 10
15.20761452
 20
9.1085518406
 10
15.1595882177
 20
9.1995148458
 10
15.1048247157
 20
9.2865880158
 10
15.0442610326
 20
9.3682815045
 10
14.97893343
 20
9.4431975135
 10
14.9099596811
 20
9.5100542092
 10
14.838519946
 20
9.5677076551
 10
14.7658365784
 20
9.6151713846
 10
14.6931532107
 20
9.6516332802
 10
14.6217134756
 20
9.6764694688
 10
14.5527397267
 20
9.6892549962
 10
14.4874121241
 20
9.6897710987
 10
14.426848441
 20
9.6780089454
 10
14.3720883411
 20
9.6541717543
  0
LWPOLYLINE
  5
563
100
AcDbEntity
  8
AXIS
100
AcDbPolyline
 62
7
  6
CONTINUOUS
 90
11
 70
0
 10
14.6813383557
 20
7.0549489668
 10
14.6592303432
 20
7.0449490161
 10
14.6336196416
 20
7.0382942433
 10
14.6059946519
 20
7.0353713997
 10
14.577960838
 20
7.0363503501
 10
14.5511474232
 20
7.0411742017
 10
14.5271127059
 20
7.0495626097
 10
14.5072534964
 20
7.0610280703
 10
14.4927239398
 20
7.0749042525
 10
14.484368441
 20
7.0903847233
 10
14.4824652816
 20
7.1025239006
  0
LINE
  5
564
100
AcDbEntity
  8
AXIS
100
AcDbLine
 62
7
  6
CONTINUOUS
 10
3.9379223316
 20
3.5173637167
 11
3.7049223316
 21
3.5173637167
  0
LWPOLYLINE
  5
565
100
AcDbEntity
  8
0
100
AcDbPolyline
 62
7
  6
CONTINUOUS
 90
21
 70
0
 10
3.3775273076
 20
6.021508631
 10
3.3353817065
 20
5.9594861409
 10
3.3018897676
 20
5.8921750793
 10
3.2776211508
 20
5.8204586644
 10
3.2632549367
 20
5.7460721502
 10
3.2590351982
 20
5.6712020013
 10
3.2647402941
 20
5.5969274533
 10
3.2805321837
 20
5.5228147598
 10
3.3071305114
 20
5.4490952514
 10
3.3457591434
 20
5.3763283609
 10
3.3979858028
 20
5.3058285806
 10
3.4624766857
 20
5.2424065579
 10
3.5357579769
 20
5.190155087
 10
3.6158057361
 20
5.1501797253
 10
3.7009507671
 20
5.1230939618
 10
3.7886476131
 20
5.1094850967
 10
3.8778482414
 20
5.1094369498
 10
3.9671593375
 20
5.1232809747
 10
4.0531844817
 20
5.1506996018
 10
4.1336331033
 20
5.1907983947
 10
4.2077911626
 20
5.2433227263
  0
LINE
  5
566
100
AcDbEntity
  8
0
100
AcDbLine
 62
7
  6
CONTINUOUS
 10
4.0825548182
 20
4.4672141104
 11
3.5602898451
 21
4.4672141104
  0
LINE
  5
567
100
AcDbEntity
  8
0
100
AcDbLine
 62
7
  6
CONTINUOUS
 10
4.1114223316
 20
4.5172141104
 11
3.5314223316
 21
4.5172141104
  0
LINE
  5
568
100
AcDbEntity
  8
0
100
AcDbLine
 62
7
  6
CONTINUOUS
 10
3.5314223316
 20
4.5172141104
 11
3.5602898451
 21
4.4672141104
  0
LINE
  5
569
100
AcDbEntity
  8
0
100
AcDbLine
 62
7
  6
CONTINUOUS
 10
3.5264303725
 20
4.5672141104
 11
4.1164142908
 21
4.5672141104
  0
LINE
  5
56A
100
AcDbEntity
  8
0
100
AcDbLine
 62
7
  6
CONTINUOUS
 10
3.5264223316
 20
4.5672141104
 11
3.5264223316
 21
4.9165859113
  0
LINE
  5
56B
100
AcDbEntity
  8
0
100
AcDbLine
 62
7
  6
CONTINUOUS
 10
3.5314223316
 20
4.5672141104
 11
3.5314223316
 21
4.5172141104
  0
LINE
  5
56C
100
AcDbEntity
  8
0
100
AcDbLine
 62
7
  6
CONTINUOUS
 10
3.5264223319
 20
4.9166103439
 11
3.5264223356
 21
4.9166157909
  0
LINE
  5
56D
100
AcDbEntity
  8
AXIS
100
AcDbLine
 62
7
  6
CONTINUOUS
 10
3.7049223316
 20
4.4672141104
 11
3.7049223316
 21
3.5173637167
  0
LINE
  5
56E
100
AcDbEntity
  8
AXIS_COSMETIC_THREADS
100
AcDbLine
 62
7
  6
CONTINUOUS
 10
3.7049223316
 20
4.4672141104
 11
3.7049223316
 21
3.5173637167
  0
LWPOLYLINE
  5
56F
100
AcDbEntity
  8
0
100
AcDbPolyline
 62
9
  6
CONTINUOUS
 90
21
 70
0
 10
3.8214223316
 20
4.8382141104
 10
3.7956586907
 20
4.838497754
 10
3.7702520706
 20
4.8393965474
 10
3.7454372946
 20
4.8409616914
 10
3.7214319341
 20
4.8432150624
 10
3.6984235677
 20
4.8461494263
 10
3.6765618408
 20
4.8497315348
 10
3.6559564734
 20
4.853907141
 10
3.636680152
 20
4.8586067519
 10
3.6187825991
 20
4.8637487438
 10
3.6023012284
 20
4.8692414125
 10
3.5872909457
 20
4.8749756024
 10
3.5738507391
 20
4.8808109184
 10
3.5620551747
 20
4.8866023787
 10
3.5519503656
 20
4.8922127141
 10
3.5435693608
 20
4.8975140799
 10
3.5369145116
 20
4.9024059137
 10
3.531952383
 20
4.9068274543
 10
3.5286170629
 20
4.9107635142
 10
3.5268207115
 20
4.9142405184
 10
3.5264223319
 20
4.9166103439
  0
LWPOLYLINE
  5
570
100
AcDbEntity
  8
0
100
AcDbPolyline
 62
7
  6
CONTINUOUS
 90
6
 70
0
 10
3.4904989803
 20
4.9707637211
 10
3.5039337015
 20
4.9623987097
 10
3.514805369
 20
4.9510027544
 10
3.5221544775
 20
4.9379138954
 10
3.5257824149
 20
4.9248656414
 10
3.5264223337
 20
4.9166119683
  0
LINE
  5
571
100
AcDbEntity
  8
DEFAULT_1
100
AcDbLine
 62
7
  6
CENTER
 10
3.8214223316
 20
5.6892141104
 11
3.8214223316
 21
5.2596429542
  0
LINE
  5
572
100
AcDbEntity
  8
DEFAULT_1
100
AcDbLine
 62
7
  6
CENTER
 10
3.8214223316
 20
5.6892141104
 11
3.8214223316
 21
6.1274853938
  0
LINE
  5
573
100
AcDbEntity
  8
AXIS
100
AcDbLine
 62
7
  6
CONTINUOUS
 10
3.9379223316
 20
4.4672141104
 11
3.9379223316
 21
3.5173637167
  0
LINE
  5
574
100
AcDbEntity
  8
AXIS_COSMETIC_THREADS
100
AcDbLine
 62
7
  6
CONTINUOUS
 10
3.9379223316
 20
4.4672141104
 11
3.9379223316
 21
3.5173637167
  0
LINE
  5
575
100
AcDbEntity
  8
0
100
AcDbLine
 62
7
  6
CONTINUOUS
 10
4.1164223277
 20
4.9166040055
 11
4.1164223314
 21
4.9165985161
  0
LINE
  5
576
100
AcDbEntity
  8
0
100
AcDbLine
 62
7
  6
CONTINUOUS
 10
4.1114223316
 20
4.5672141104
 11
4.1114223316
 21
4.5172141104
  0
LINE
  5
577
100
AcDbEntity
  8
0
100
AcDbLine
 62
7
  6
CONTINUOUS
 10
4.1164223316
 20
4.5672141104
 11
4.1164223316
 21
4.916574123
  0
LWPOLYLINE
  5
578
100
AcDbEntity
  8
0
100
AcDbPolyline
 62
7
  6
CONTINUOUS
 90
6
 70
0
 10
4.1164223296
 20
4.9166001402
 10
4.1170618863
 20
4.924852776
 10
4.1206909102
 20
4.9379072855
 10
4.1280446913
 20
4.9510041571
 10
4.1389217835
 20
4.9624043699
 10
4.1523559634
 20
4.9707684564
  0
LWPOLYLINE
  5
579
100
AcDbEntity
  8
0
100
AcDbPolyline
 62
9
  6
CONTINUOUS
 90
21
 70
0
 10
4.1164223314
 20
4.9165985161
 10
4.1160242363
 20
4.9142292402
 10
4.1142283989
 20
4.9107521709
 10
4.1108937196
 20
4.906816203
 10
4.1059323267
 20
4.9023948978
 10
4.0992782719
 20
4.897503426
 10
4.090898106
 20
4.8922025476
 10
4.0807941944
 20
4.8865928348
 10
4.0689996315
 20
4.8808021465
 10
4.055560468
 20
4.8749677073
 10
4.0405511214
 20
4.8692344305
 10
4.024070528
 20
4.8637426932
 10
4.0061736943
 20
4.8586016761
 10
3.9868979191
 20
4.853903035
 10
3.9662927983
 20
4.8497283542
 10
3.9444308707
 20
4.8461470928
 10
3.9214217451
 20
4.843213477
 10
3.8974149966
 20
4.8409607379
 10
3.8725981949
 20
4.8393960907
 10
3.8471889809
 20
4.83849763
 10
3.8214223316
 20
4.8382141104
  0
LWPOLYLINE
  5
57A
100
AcDbEntity
  8
0
100
AcDbPolyline
 62
7
  6
CONTINUOUS
 90
9
 70
0
 10
4.3581049228
 20
5.4441186263
 10
4.3842570976
 20
5.5176856657
 10
4.4004493241
 20
5.5941590109
 10
4.4063295912
 20
5.6719782194
 10
4.4017858207
 20
5.7499998111
 10
4.3868928842
 20
5.8265693516
 10
4.3618477435
 20
5.9005616687
 10
4.3271366753
 20
5.9704376788
 10
4.283342328
 20
6.0350030884
  0
LINE
  5
57B
100
AcDbEntity
  8
0
100
AcDbLine
 62
7
  6
CONTINUOUS
 10
4.1114223316
 20
4.5172141104
 11
4.0825548182
 21
4.4672141104
  0
LINE
  5
57C
100
AcDbEntity
  8
DEFAULT_1
100
AcDbLine
 62
7
  6
CENTER
 10
3.8214223316
 20
5.6892141104
 11
3.3858972363
 21
5.6892141104
  0
LINE
  5
57D
100
AcDbEntity
  8
DEFAULT_1
100
AcDbLine
 62
7
  6
CENTER
 10
3.8214223316
 20
5.6892141104
 11
4.253739676
 21
5.6892141104
  0
LWPOLYLINE
  5
57E
100
AcDbEntity
  8
0
100
AcDbPolyline
 62
7
  6
CONTINUOUS
 90
15
 70
0
 10
4.283342328
 20
6.0350030884
 10
4.232725347
 20
6.0916153927
 10
4.1750005104
 20
6.1411361211
 10
4.1112002623
 20
6.1826033703
 10
4.042744815
 20
6.2151239384
 10
3.9708118589
 20
6.2382258247
 10
3.8971010716
 20
6.2515182681
 10
3.8226043775
 20
6.254989517
 10
3.7485726913
 20
6.2486717313
 10
3.6758819219
 20
6.232639585
 10
3.606028359
 20
6.2071854015
 10
3.5401308833
 20
6.1727002056
 10
3.4795093348
 20
6.1298700895
 10
3.4249992805
 20
6.0792466957
 10
3.3775273076
 20
6.021508631
  0
LINE
  5
57F
100
AcDbEntity
  8
AXIS
100
AcDbLine
 62
7
  6
CONTINUOUS
 10
8.8999363138
 20
3.5173637167
 11
8.6669548482
 21
3.5173637167
  0
LINE
  5
580
100
AcDbEntity
  8
0
100
AcDbLine
 62
7
  6
CONTINUOUS
 10
7.7364455877
 20
6.2792141104
 11
7.7363016442
 21
6.2790894736
  0
LINE
  5
581
100
AcDbEntity
  8
0
100
AcDbLine
 62
7
  6
CONTINUOUS
 10
7.9123016241
 20
6.2790894733
 11
7.9124455062
 21
6.2792141104
  0
LINE
  5
582
100
AcDbEntity
  8
0
100
AcDbLine
 62
7
  6
CONTINUOUS
 10
7.7803016244
 20
6.2790894733
 11
7.7804455683
 21
6.2792141104
  0
LINE
  5
583
100
AcDbEntity
  8
0
100
AcDbLine
 62
7
  6
CONTINUOUS
 10
7.8243016466
 20
6.2790894733
 11
7.8244455904
 21
6.2792141104
  0
LINE
  5
584
100
AcDbEntity
  8
0
100
AcDbLine
 62
7
  6
CONTINUOUS
 10
7.8683016455
 20
6.2790894736
 11
7.8684461613
 21
6.2792141085
  0
LINE
  5
585
100
AcDbEntity
  8
0
100
AcDbLine
 62
7
  6
CONTINUOUS
 10
7.7363016442
 20
6.2790894736
 11
7.7157924296
 21
6.2435744564
  0
LINE
  5
586
100
AcDbEntity
  8
0
100
AcDbLine
 62
7
  6
CONTINUOUS
 10
7.9563016458
 20
6.2790894733
 11
7.9564455897
 21
6.2792141104
  0
LINE
  5
587
100
AcDbEntity
  8
0
100
AcDbLine
 62
7
  6
CONTINUOUS
 10
8.0003016466
 20
6.2790894736
 11
8.0004455892
 21
6.2792141104
  0
LINE
  5
588
100
AcDbEntity
  8
0
100
AcDbLine
 62
7
  6
CONTINUOUS
 10
8.088301645
 20
6.2790894733
 11
8.0884455458
 21
6.2792141104
  0
LINE
  5
589
100
AcDbEntity
  8
0
100
AcDbLine
 62
7
  6
CONTINUOUS
 10
8.0443016237
 20
6.2790894734
 11
8.0444456287
 21
6.2792141104
  0
LINE
  5
58A
100
AcDbEntity
  8
0
100
AcDbLine
 62
7
  6
CONTINUOUS
 10
7.7803016244
 20
6.2790894733
 11
7.7597924082
 21
6.2435744535
  0
LINE
  5
58B
100
AcDbEntity
  8
0
100
AcDbLine
 62
7
  6
CONTINUOUS
 10
7.8243016466
 20
6.2790894733
 11
7.8037924309
 21
6.2435744544
  0
LINE
  5
58C
100
AcDbEntity
  8
0
100
AcDbLine
 62
7
  6
CONTINUOUS
 10
7.8683016455
 20
6.2790894736
 11
7.8477924308
 21
6.2435744564
  0
LINE
  5
58D
100
AcDbEntity
  8
0
100
AcDbLine
 62
7
  6
CONTINUOUS
 10
8.1323016477
 20
6.2790894736
 11
8.1324455912
 21
6.2792141104
  0
LINE
  5
58E
100
AcDbEntity
  8
0
100
AcDbLine
 62
7
  6
CONTINUOUS
 10
7.3196818015
 20
5.2207101739
 11
7.3196818015
 21
6.157718047
  0
LINE
  5
58F
100
AcDbEntity
  8
0
100
AcDbLine
 62
9
  6
CONTINUOUS
 10
7.3984219589
 20
5.141970016
 11
7.3984219589
 21
6.2364582049
  0
LINE
  5
590
100
AcDbEntity
  8
0
100
AcDbLine
 62
7
  6
CONTINUOUS
 10
7.9123016241
 20
6.2790894733
 11
7.8917924078
 21
6.2435744536
  0
LINE
  5
591
100
AcDbEntity
  8
0
100
AcDbLine
 62
7
  6
CONTINUOUS
 10
7.9563016458
 20
6.2790894733
 11
7.9357924301
 21
6.2435744543
  0
LINE
  5
592
100
AcDbEntity
  8
0
100
AcDbLine
 62
7
  6
CONTINUOUS
 10
8.0003016466
 20
6.2790894736
 11
7.979792432
 21
6.2435744563
  0
LINE
  5
593
100
AcDbEntity
  8
0
100
AcDbLine
 62
7
  6
CONTINUOUS
 10
8.0443016237
 20
6.2790894734
 11
8.0237924075
 21
6.2435744536
  0
LINE
  5
594
100
AcDbEntity
  8
0
100
AcDbLine
 62
7
  6
CONTINUOUS
 10
8.088301645
 20
6.2790894733
 11
8.0677924293
 21
6.2435744543
  0
LINE
  5
595
100
AcDbEntity
  8
0
100
AcDbLine
 62
7
  6
CONTINUOUS
 10
8.1323016477
 20
6.2790894736
 11
8.111792433
 21
6.2435744563
  0
LINE
  5
596
100
AcDbEntity
  8
0
100
AcDbLine
 62
7
  6
CONTINUOUS
 10
7.7159188977
 20
5.1131792792
 11
7.7169977787
 21
5.1004199089
  0
LWPOLYLINE
  5
597
100
AcDbEntity
  8
0
100
AcDbPolyline
 62
7
  6
CONTINUOUS
 90
3
 70
0
 10
7.7116068525
 20
5.1470301556
 10
7.7105262252
 20
5.1892348864
 10
7.709445581
 20
5.2433227263
  0
LWPOLYLINE
  5
598
100
AcDbEntity
  8
0
100
AcDbPolyline
 62
7
  6
CONTINUOUS
 90
7
 70
0
 10
7.722445581
 20
6.0215093567
 10
7.7213622477
 20
6.0859378503
 10
7.7202789143
 20
6.1408908547
 10
7.719195581
 20
6.1850558554
 10
7.7181122477
 20
6.2173780023
 10
7.7170289143
 20
6.2370853047
 10
7.7160987459
 20
6.2435744564
  0
LWPOLYLINE
  5
599
100
AcDbEntity
  8
0
100
AcDbPolyline
 62
7
  6
CONTINUOUS
 90
6
 70
0
 10
7.742945581
 20
6.0427879337
 10
7.741864901
 20
6.1111859036
 10
7.7407841846
 20
6.1695563436
 10
7.7397034741
 20
6.2165091533
 10
7.7386228035
 20
6.2509276263
 10
7.7375421406
 20
6.2719955814
  0
LWPOLYLINE
  5
59A
100
AcDbEntity
  8
0
100
AcDbPolyline
 62
7
  6
CONTINUOUS
 90
6
 70
0
 10
7.742945581
 20
6.0427879337
 10
7.743836809
 20
5.9799797673
 10
7.7447397139
 20
5.9115574826
 10
7.7456471252
 20
5.8390768615
 10
7.7465516198
 20
5.7643272419
 10
7.7474455764
 20
5.6892141104
  0
LWPOLYLINE
  5
59B
100
AcDbEntity
  8
0
100
AcDbPolyline
 62
7
  6
CONTINUOUS
 90
7
 70
0
 10
7.709445581
 20
5.4441186263
 10
7.7105244332
 20
5.3646669059
 10
7.7116033035
 20
5.292901787
 10
7.7126822079
 20
5.2305228428
 10
7.7137611266
 20
5.1790096045
 10
7.7148400252
 20
5.1395839547
 10
7.7159188977
 20
5.1131792792
  0
LWPOLYLINE
  5
59C
100
AcDbEntity
  8
0
100
AcDbPolyline
 62
7
  6
CONTINUOUS
 90
11
 70
0
 10
7.7474455764
 20
5.6892141104
 10
7.7485390345
 20
5.5974621214
 10
7.7496342141
 20
5.5078046164
 10
7.7507248642
 20
5.4229155256
 10
7.7518166829
 20
5.3443929389
 10
7.7529158338
 20
5.2737965332
 10
7.7540289401
 20
5.2127190491
 10
7.7551420209
 20
5.1636561127
 10
7.7562414133
 20
5.1281990922
 10
7.7573310363
 20
5.1066707933
 10
7.7583016256
 20
5.0993387474
  0
LINE
  5
59D
100
AcDbEntity
  8
0
100
AcDbLine
 62
7
  6
CONTINUOUS
 10
7.709445581
 20
5.1077449536
 11
7.709445581
 21
6.2550932663
  0
LINE
  5
59E
100
AcDbEntity
  8
0
100
AcDbLine
 62
7
  6
CONTINUOUS
 10
7.7175895109
 20
5.0993387474
 11
7.7380987265
 21
5.1348537662
  0
LINE
  5
59F
100
AcDbEntity
  8
0
100
AcDbLine
 62
7
  6
CONTINUOUS
 10
8.5223161542
 20
4.4672141104
 11
9.0445750078
 21
4.4672141104
  0
LINE
  5
5A0
100
AcDbEntity
  8
0
100
AcDbLine
 62
7
  6
CONTINUOUS
 10
8.493445581
 20
4.5172141104
 11
9.073445581
 21
4.5172141104
  0
LWPOLYLINE
  5
5A1
100
AcDbEntity
  8
0
100
AcDbPolyline
 62
7
  6
CONTINUOUS
 90
4
 70
0
 10
7.7143016531
 20
5.0993387475
 10
7.7137680337
 20
5.1019736543
 10
7.7126874394
 20
5.1177114612
 10
7.7116068525
 20
5.1470301556
  0
LWPOLYLINE
  5
5A2
100
AcDbEntity
  8
0
100
AcDbPolyline
 62
7
  6
CONTINUOUS
 90
8
 70
0
 10
7.855945581
 20
5.91955881
 10
7.854833081
 20
5.9964505272
 10
7.853720581
 20
6.065604493
 10
7.852608081
 20
6.125279067
 10
7.851495581
 20
6.1739713476
 10
7.850383081
 20
6.2104550223
 10
7.849270581
 20
6.2338112527
 10
7.8480987472
 20
6.2435744564
  0
LWPOLYLINE
  5
5A3
100
AcDbEntity
  8
0
100
AcDbPolyline
 62
7
  6
CONTINUOUS
 90
9
 70
0
 10
7.835445581
 20
5.9343089681
 10
7.8344004119
 20
6.0113870752
 10
7.833351764
 20
6.0815208816
 10
7.8322877737
 20
6.1436993366
 10
7.831219009
 20
6.195612676
 10
7.8301575639
 20
6.2355209139
 10
7.8291112253
 20
6.2626033674
 10
7.8280661783
 20
6.2768988416
 10
7.8275895326
 20
6.2790894736
  0
LWPOLYLINE
  5
5A4
100
AcDbEntity
  8
0
100
AcDbPolyline
 62
7
  6
CONTINUOUS
 90
10
 70
0
 10
7.7925361927
 20
5.597698429
 10
7.7936390868
 20
5.5074139284
 10
7.7947459635
 20
5.4213304805
 10
7.7958434688
 20
5.3425643575
 10
7.7969398428
 20
5.272362753
 10
7.7980430045
 20
5.2120214513
 10
7.7991392859
 20
5.1637610808
 10
7.8002288307
 20
5.1285283621
 10
7.8013284523
 20
5.1067054409
 10
7.8023016342
 20
5.0993387476
  0
LWPOLYLINE
  5
5A5
100
AcDbEntity
  8
0
100
AcDbPolyline
 62
7
  6
CONTINUOUS
 90
10
 70
0
 10
7.7933559961
 20
5.7806446676
 10
7.7922614225
 20
5.8702652581
 10
7.7911596543
 20
5.9560123442
 10
7.7900639644
 20
6.0347539152
 10
7.7889666271
 20
6.1051520176
 10
7.7878592059
 20
6.1658589829
 10
7.7867555641
 20
6.2145259296
 10
7.785665172
 20
6.249825429
 10
7.7845660492
 20
6.2716780817
 10
7.7835895324
 20
6.2790894733
  0
LWPOLYLINE
  5
5A6
100
AcDbEntity
  8
0
100
AcDbPolyline
 62
7
  6
CONTINUOUS
 90
11
 70
0
 10
7.8343559976
 20
5.7806446676
 10
7.8365453052
 20
5.5969419196
 10
7.8376583802
 20
5.5058699797
 10
7.838770803
 20
5.4194691888
 10
7.8398691431
 20
5.340817787
 10
7.8409591109
 20
5.2712167581
 10
7.8420504005
 20
5.2116562927
 10
7.8431490913
 20
5.1633866595
 10
7.844243417
 20
5.1281475445
 10
7.8453415556
 20
5.1065313503
 10
7.8463016531
 20
5.0993387475
  0
LWPOLYLINE
  5
5A7
100
AcDbEntity
  8
0
100
AcDbPolyline
 62
7
  6
CONTINUOUS
 90
4
 70
0
 10
7.8384455774
 20
5.6892141104
 10
7.8374453431
 20
5.7731994949
 10
7.8364457972
 20
5.8554187427
 10
7.835445581
 20
5.9343089681
  0
LINE
  5
5A8
100
AcDbEntity
  8
0
100
AcDbLine
 62
7
  6
CONTINUOUS
 10
7.7615895191
 20
5.0993387476
 11
7.7820987353
 21
5.1348537673
  0
LINE
  5
5A9
100
AcDbEntity
  8
0
100
AcDbLine
 62
7
  6
CONTINUOUS
 10
7.8055895399
 20
5.0993387475
 11
7.826098755
 21
5.1348537654
  0
LINE
  5
5AA
100
AcDbEntity
  8
0
100
AcDbLine
 62
7
  6
CONTINUOUS
 10
7.8495895117
 20
5.0993387473
 11
7.8700987273
 21
5.134853766
  0
LINE
  5
5AB
100
AcDbEntity
  8
0
100
AcDbLine
 62
7
  6
CONTINUOUS
 10
7.7174455657
 20
5.0992141104
 11
7.7175895109
 21
5.0993387474
  0
LINE
  5
5AC
100
AcDbEntity
  8
0
100
AcDbLine
 62
7
  6
CONTINUOUS
 10
7.7615895191
 20
5.0993387476
 11
7.7614455751
 21
5.0992141104
  0
LINE
  5
5AD
100
AcDbEntity
  8
0
100
AcDbLine
 62
7
  6
CONTINUOUS
 10
7.8055895399
 20
5.0993387475
 11
7.8054456009
 21
5.0992141104
  0
LINE
  5
5AE
100
AcDbEntity
  8
0
100
AcDbLine
 62
7
  6
CONTINUOUS
 10
8.488445581
 20
4.5672141104
 11
9.078445581
 21
4.5672141104
  0
LINE
  5
5AF
100
AcDbEntity
  8
0
100
AcDbLine
 62
7
  6
CONTINUOUS
 10
7.709445581
 20
5.1077479087
 11
7.7143016531
 21
5.0993387475
  0
LINE
  5
5B0
100
AcDbEntity
  8
0
100
AcDbLine
 62
7
  6
CONTINUOUS
 10
7.73779241
 20
5.1348537662
 11
7.7583016256
 21
5.0993387474
  0
LINE
  5
5B1
100
AcDbEntity
  8
0
100
AcDbLine
 62
7
  6
CONTINUOUS
 10
7.7169977787
 20
5.1004199089
 11
7.7174455657
 21
5.0992141104
  0
LWPOLYLINE
  5
5B2
100
AcDbEntity
  8
0
100
AcDbPolyline
 62
7
  6
CONTINUOUS
 90
22
 70
0
 10
7.781792418
 20
5.1348537673
 10
7.781408081
 20
5.1363536674
 10
7.780295581
 20
5.1500417412
 10
7.779183081
 20
5.1773088208
 10
7.778070581
 20
5.2174681877
 10
7.776958081
 20
5.2695084324
 10
7.775845581
 20
5.3321189266
 10
7.774733081
 20
5.4037228311
 10
7.773620581
 20
5.4825168085
 10
7.772508081
 20
5.5665164399
 10
7.771395581
 20
5.6536062025
 10
7.770283081
 20
5.7415927484
 10
7.769170581
 20
5.8282601445
 10
7.768058081
 20
5.9114256798
 10
7.766945581
 20
5.9889948373
 10
7.765833081
 20
6.0590140443
 10
7.764720581
 20
6.1197198723
 10
7.763608081
 20
6.1695834497
 10
7.762495581
 20
6.2073489656
 10
7.761383081
 20
6.2320652976
 10
7.760270581
 20
6.243109966
 10
7.7600987252
 20
6.2435744535
  0
LWPOLYLINE
  5
5B3
100
AcDbEntity
  8
0
100
AcDbPolyline
 62
7
  6
CONTINUOUS
 90
11
 70
0
 10
7.8494455679
 20
5.0992141104
 10
7.848354035
 20
5.1063668304
 10
7.8472631971
 20
5.1276336026
 10
7.8461658875
 20
5.1627453472
 10
7.8450546561
 20
5.2114445776
 10
7.8439430832
 20
5.2721694055
 10
7.842845096
 20
5.3424533225
 10
7.8417546604
 20
5.4206778329
 10
7.8406501025
 20
5.5065313382
 10
7.8395424667
 20
5.5971765351
 10
7.8384455774
 20
5.6892141104
  0
LWPOLYLINE
  5
5B4
100
AcDbEntity
  8
0
100
AcDbPolyline
 62
7
  6
CONTINUOUS
 90
11
 70
0
 10
7.8054456009
 20
5.0992141104
 10
7.8043415547
 20
5.1065313503
 10
7.803243416
 20
5.1281475445
 10
7.8021490903
 20
5.1633866595
 10
7.8010503994
 20
5.2116562927
 10
7.7999591097
 20
5.2712167581
 10
7.7988691419
 20
5.340817787
 10
7.7977708017
 20
5.4194691888
 10
7.7966583789
 20
5.5058699797
 10
7.7955453038
 20
5.5969419196
 10
7.7933559961
 20
5.7806446676
  0
LWPOLYLINE
  5
5B5
100
AcDbEntity
  8
0
100
AcDbPolyline
 62
7
  6
CONTINUOUS
 90
11
 70
0
 10
7.7614455751
 20
5.0992141104
 10
7.7603284492
 20
5.1067054409
 10
7.7592288276
 20
5.1285283621
 10
7.7581392827
 20
5.1637610808
 10
7.7570430013
 20
5.2120214513
 10
7.7559398396
 20
5.272362753
 10
7.7548434656
 20
5.3425643575
 10
7.7537459602
 20
5.4213304805
 10
7.7526390835
 20
5.5074139284
 10
7.7515361894
 20
5.597698429
 10
7.7493665617
 20
5.7797631037
  0
LWPOLYLINE
  5
5B6
100
AcDbEntity
  8
0
100
AcDbPolyline
 62
7
  6
CONTINUOUS
 90
15
 70
0
 10
7.73779241
 20
5.1348537662
 10
7.736908081
 20
5.1407953925
 10
7.735795581
 20
5.1606497242
 10
7.734683081
 20
5.1938159318
 10
7.733570581
 20
5.2394587275
 10
7.732458081
 20
5.2964286009
 10
7.731345581
 20
5.3632907689
 10
7.730233081
 20
5.4383613114
 10
7.729120581
 20
5.5197495798
 10
7.728008081
 20
5.6054058134
 10
7.726895581
 20
5.6931727622
 10
7.725783081
 20
5.7808400173
 10
7.724670581
 20
5.8661996802
 10
7.723558081
 20
5.9471019681
 10
7.722445581
 20
6.0215093567
  0
LWPOLYLINE
  5
5B7
100
AcDbEntity
  8
0
100
AcDbPolyline
 62
7
  6
CONTINUOUS
 90
21
 70
0
 10
7.8257924381
 20
5.1348537654
 10
7.824795581
 20
5.1421813705
 10
7.823683081
 20
5.1634106127
 10
7.822570581
 20
5.1978821779
 10
7.821458081
 20
5.244727901
 10
7.820345581
 20
5.3027679749
 10
7.819233081
 20
5.3705406638
 10
7.818120581
 20
5.4463391172
 10
7.817008081
 20
5.5282543562
 10
7.815895581
 20
5.6142233517
 10
7.814783081
 20
5.7020809813
 10
7.813670581
 20
5.7896145578
 10
7.812558081
 20
5.8746195555
 10
7.811445581
 20
5.9549551308
 10
7.810333081
 20
6.0285980396
 10
7.809220581
 20
6.093693592
 10
7.808108081
 20
6.1486023628
 10
7.806995581
 20
6.1919414799
 10
7.805883081
 20
6.2226194523
 10
7.804770581
 20
6.2398636585
 10
7.8040987481
 20
6.2435744544
  0
LWPOLYLINE
  5
5B8
100
AcDbEntity
  8
0
100
AcDbPolyline
 62
7
  6
CONTINUOUS
 90
8
 70
0
 10
7.8690661784
 20
6.2768988416
 10
7.8701112254
 20
6.2626033674
 10
7.8711575639
 20
6.2355209139
 10
7.8722190091
 20
6.195612676
 10
7.8732877737
 20
6.1436993366
 10
7.874351764
 20
6.0815208816
 10
7.8754004119
 20
6.0113870752
 10
7.876445581
 20
5.9343089681
  0
LWPOLYLINE
  5
5B9
100
AcDbEntity
  8
0
100
AcDbPolyline
 62
7
  6
CONTINUOUS
 90
4
 70
0
 10
7.876445581
 20
5.9343089681
 10
7.8774457973
 20
5.8554187427
 10
7.8784453435
 20
5.7731994949
 10
7.8794455778
 20
5.6892141104
  0
LWPOLYLINE
  5
5BA
100
AcDbEntity
  8
0
100
AcDbPolyline
 62
7
  6
CONTINUOUS
 90
10
 70
0
 10
7.968945581
 20
5.8146276313
 10
7.9678728367
 20
5.9011292644
 10
7.9667958785
 20
5.9829756511
 10
7.9657251981
 20
6.0574748171
 10
7.9646438846
 20
6.1239882803
 10
7.9635550598
 20
6.1805067578
 10
7.9624716794
 20
6.2249800706
 10
7.9614022334
 20
6.2563332098
 10
7.9603207788
 20
6.2746124447
 10
7.9595895337
 20
6.2790894736
  0
LWPOLYLINE
  5
5BB
100
AcDbEntity
  8
0
100
AcDbPolyline
 62
7
  6
CONTINUOUS
 90
10
 70
0
 10
7.9245378195
 20
5.5975629725
 10
7.9256301003
 20
5.508134306
 10
7.9267223733
 20
5.4231027758
 10
7.9278149553
 20
5.3445111098
 10
7.9289138641
 20
5.2739145222
 10
7.9300267582
 20
5.2128276459
 10
7.9311396536
 20
5.1637469603
 10
7.9322389056
 20
5.1282646883
 10
7.9333311737
 20
5.1066690516
 10
7.9343016334
 20
5.0993387476
  0
LWPOLYLINE
  5
5BC
100
AcDbEntity
  8
0
100
AcDbPolyline
 62
7
  6
CONTINUOUS
 90
10
 70
0
 10
7.9685391988
 20
5.5974500631
 10
7.969646905
 20
5.506789139
 10
7.9707565804
 20
5.4205354265
 10
7.9718548751
 20
5.3417886265
 10
7.9729504461
 20
5.2717322679
 10
7.9740508224
 20
5.2116354068
 10
7.9751434703
 20
5.1636016112
 10
7.9762340383
 20
5.1283924544
 10
7.9773338153
 20
5.1066340926
 10
7.978301653
 20
5.0993387475
  0
LWPOLYLINE
  5
5BD
100
AcDbEntity
  8
0
100
AcDbPolyline
 62
7
  6
CONTINUOUS
 90
11
 70
0
 10
7.8794455778
 20
5.6892141104
 10
7.8805424674
 20
5.5971765351
 10
7.8816501034
 20
5.5065313382
 10
7.8827546613
 20
5.4206778329
 10
7.8838450971
 20
5.3424533225
 10
7.8849430844
 20
5.2721694055
 10
7.8860546575
 20
5.2114445776
 10
7.8871658891
 20
5.1627453472
 10
7.8882631988
 20
5.1276336026
 10
7.8893540368
 20
5.1063668304
 10
7.8903016263
 20
5.0993387474
  0
LWPOLYLINE
  5
5BE
100
AcDbEntity
  8
0
100
AcDbPolyline
 62
7
  6
CONTINUOUS
 90
11
 70
0
 10
7.8835378162
 20
5.5975629725
 10
7.8813460002
 20
5.7814744753
 10
7.8802331026
 20
5.8725326347
 10
7.8791209117
 20
5.9589176902
 10
7.8780227943
 20
6.0375577588
 10
7.8769318879
 20
6.1072212025
 10
7.8758269894
 20
6.1674524
 10
7.8747194115
 20
6.2159046703
 10
7.8736226162
 20
6.2509319242
 10
7.8725275542
 20
6.2721856833
 10
7.8715895086
 20
6.2790894733
  0
LWPOLYLINE
  5
5BF
100
AcDbEntity
  8
0
100
AcDbPolyline
 62
7
  6
CONTINUOUS
 90
11
 70
0
 10
7.9275391973
 20
5.5974500631
 10
7.9253455941
 20
5.7815103122
 10
7.9242322608
 20
5.8726020126
 10
7.9231196463
 20
5.9590143455
 10
7.9220210936
 20
6.0376750588
 10
7.9209282995
 20
6.107435953
 10
7.9198349962
 20
6.1670582165
 10
7.9187434505
 20
6.2149897473
 10
7.9176513227
 20
6.2501879833
 10
7.9165520018
 20
6.2718654575
 10
7.9155895316
 20
6.2790894733
  0
LWPOLYLINE
  5
5C0
100
AcDbEntity
  8
0
100
AcDbPolyline
 62
7
  6
CONTINUOUS
 90
4
 70
0
 10
7.9704455791
 20
5.6892141104
 10
7.9699455472
 20
5.731306958
 10
7.969445608
 20
5.7731775625
 10
7.968945581
 20
5.8146276313
  0
LINE
  5
5C1
100
AcDbEntity
  8
0
100
AcDbLine
 62
7
  6
CONTINUOUS
 10
7.8935895182
 20
5.0993387476
 11
7.9140987344
 21
5.1348537673
  0
LINE
  5
5C2
100
AcDbEntity
  8
0
100
AcDbLine
 62
7
  6
CONTINUOUS
 10
7.9375895398
 20
5.0993387475
 11
7.9580987549
 21
5.1348537655
  0
LINE
  5
5C3
100
AcDbEntity
  8
0
100
AcDbLine
 62
7
  6
CONTINUOUS
 10
7.9815895126
 20
5.0993387473
 11
8.0020987281
 21
5.1348537659
  0
LINE
  5
5C4
100
AcDbEntity
  8
0
100
AcDbLine
 62
7
  6
CONTINUOUS
 10
7.8495895117
 20
5.0993387473
 11
7.8494455679
 21
5.0992141104
  0
LINE
  5
5C5
100
AcDbEntity
  8
0
100
AcDbLine
 62
7
  6
CONTINUOUS
 10
7.9375895398
 20
5.0993387475
 11
7.9374455959
 21
5.0992141104
  0
LINE
  5
5C6
100
AcDbEntity
  8
0
100
AcDbLine
 62
7
  6
CONTINUOUS
 10
7.9815895126
 20
5.0993387473
 11
7.9814455943
 21
5.0992141105
  0
LINE
  5
5C7
100
AcDbEntity
  8
0
100
AcDbLine
 62
7
  6
CONTINUOUS
 10
7.8935895182
 20
5.0993387476
 11
7.8934455659
 21
5.0992141104
  0
LWPOLYLINE
  5
5C8
100
AcDbEntity
  8
0
100
AcDbPolyline
 62
9
  6
CONTINUOUS
 90
29
 70
0
 10
8.929445581
 20
4.9409013416
 10
8.9137340467
 20
4.9369127021
 10
8.897438473
 20
4.9334618468
 10
8.8805830311
 20
4.9304328795
 10
8.8631895827
 20
4.9277051129
 10
8.8452746221
 20
4.9251550577
 10
8.8268251762
 20
4.9226555068
 10
8.8078174604
 20
4.9200801215
 10
8.7882453704
 20
4.9173084577
 10
8.7681250786
 20
4.9142292402
 10
8.7475344825
 20
4.9107521709
 10
8.7266009193
 20
4.906816203
 10
8.7054772367
 20
4.9023948978
 10
8.6843442366
 20
4.897503426
 10
8.6634130561
 20
4.8922025476
 10
8.6429064874
 20
4.8865928348
 10
8.6230383474
 20
4.8808021465
 10
8.6039899233
 20
4.8749677073
 10
8.5859422304
 20
4.8692344305
 10
8.569065758
 20
4.8637426932
 10
8.5534631165
 20
4.8586016761
 10
8.5392267653
 20
4.853903035
 10
8.5264678623
 20
4.8497283542
 10
8.5153152035
 20
4.8461470928
 10
8.5059115879
 20
4.843213477
 10
8.4984015232
 20
4.8409607379
 10
8.4929184204
 20
4.8393960907
 10
8.489573024
 20
4.83849763
 10
8.488445581
 20
4.8382141104
  0
LINE
  5
5C9
100
AcDbEntity
  8
0
100
AcDbLine
 62
7
  6
CONTINUOUS
 10
7.7144455976
 20
5.0992141104
 11
7.7143016531
 21
5.0993387475
  0
LINE
  5
5CA
100
AcDbEntity
  8
0
100
AcDbLine
 62
7
  6
CONTINUOUS
 10
7.7583016256
 20
5.0993387474
 11
7.7584455457
 21
5.0992141104
  0
LINE
  5
5CB
100
AcDbEntity
  8
0
100
AcDbLine
 62
7
  6
CONTINUOUS
 10
7.781792418
 20
5.1348537673
 11
7.8023016342
 21
5.0993387476
  0
LINE
  5
5CC
100
AcDbEntity
  8
0
100
AcDbLine
 62
7
  6
CONTINUOUS
 10
7.8257924381
 20
5.1348537654
 11
7.8463016531
 21
5.0993387475
  0
LINE
  5
5CD
100
AcDbEntity
  8
0
100
AcDbLine
 62
7
  6
CONTINUOUS
 10
7.8697924107
 20
5.134853766
 11
7.8903016263
 21
5.0993387474
  0
LWPOLYLINE
  5
5CE
100
AcDbEntity
  8
0
100
AcDbPolyline
 62
7
  6
CONTINUOUS
 90
14
 70
0
 10
7.8697924107
 20
5.134853766
 10
7.869295581
 20
5.137107974
 10
7.868183081
 20
5.1521906157
 10
7.867070581
 20
5.1807981768
 10
7.865958081
 20
5.2222101787
 10
7.864845581
 20
5.2753836635
 10
7.863733081
 20
5.3389794602
 10
7.862620581
 20
5.4113959117
 10
7.861508081
 20
5.4908092128
 10
7.860395581
 20
5.5752193422
 10
7.859283081
 20
5.6625004329
 10
7.858170581
 20
5.7504543122
 10
7.857058081
 20
5.8368658627
 10
7.855945581
 20
5.91955881
  0
LWPOLYLINE
  5
5CF
100
AcDbEntity
  8
0
100
AcDbPolyline
 62
7
  6
CONTINUOUS
 90
21
 70
0
 10
7.9577924379
 20
5.1348537655
 10
7.957183081
 20
5.1380050415
 10
7.956070581
 20
5.1544787379
 10
7.954958081
 20
5.1844197052
 10
7.953845581
 20
5.2270738813
 10
7.952733081
 20
5.2813670229
 10
7.951620581
 20
5.3459317605
 10
7.950508081
 20
5.4191420354
 10
7.949395581
 20
5.4991540523
 10
7.948283081
 20
5.5839527143
 10
7.947170581
 20
5.671402374
 10
7.946058081
 20
5.7593006189
 10
7.944945581
 20
5.8454337391
 10
7.943833081
 20
5.9276324796
 10
7.942720581
 20
6.0038266724
 10
7.941608081
 20
6.0720973739
 10
7.940495581
 20
6.130725193
 10
7.939383081
 20
6.1782335937
 10
7.938270581
 20
6.2134260819
 10
7.937158081
 20
6.2354163385
 10
7.9360987473
 20
6.2435744543
  0
LINE
  5
5D0
100
AcDbEntity
  8
0
100
AcDbLine
 62
7
  6
CONTINUOUS
 10
7.7375421406
 20
6.2719955814
 11
7.7364455877
 21
6.2792141104
  0
LWPOLYLINE
  5
5D1
100
AcDbEntity
  8
0
100
AcDbPolyline
 62
7
  6
CONTINUOUS
 90
11
 70
0
 10
7.7804455683
 20
6.2792141104
 10
7.7815551454
 20
6.2718234659
 10
7.7826540243
 20
6.25011691
 10
7.7837467105
 20
6.2148643038
 10
7.7848405634
 20
6.1667819353
 10
7.7859311965
 20
6.1072625368
 10
7.7870225994
 20
6.0375712802
 10
7.7881207787
 20
5.9589279471
 10
7.7892330145
 20
5.8725400099
 10
7.7903459584
 20
5.7814782848
 10
7.7925361927
 20
5.597698429
  0
LWPOLYLINE
  5
5D2
100
AcDbEntity
  8
0
100
AcDbPolyline
 62
7
  6
CONTINUOUS
 90
10
 70
0
 10
7.9374455959
 20
5.0992141104
 10
7.9363338143
 20
5.1066340926
 10
7.9352340372
 20
5.1283924544
 10
7.9341434692
 20
5.1636016112
 10
7.9330508213
 20
5.2116354068
 10
7.9319504449
 20
5.2717322679
 10
7.9308548738
 20
5.3417886265
 10
7.929756579
 20
5.4205354265
 10
7.9286469035
 20
5.506789139
 10
7.9275391973
 20
5.5974500631
  0
LWPOLYLINE
  5
5D3
100
AcDbEntity
  8
0
100
AcDbPolyline
 62
7
  6
CONTINUOUS
 90
10
 70
0
 10
7.8934455659
 20
5.0992141104
 10
7.8923311706
 20
5.1066690516
 10
7.8912389025
 20
5.1282646883
 10
7.8901396504
 20
5.1637469603
 10
7.889026755
 20
5.2128276459
 10
7.8879138608
 20
5.2739145222
 10
7.8868149521
 20
5.3445111098
 10
7.88572237
 20
5.4231027758
 10
7.884630097
 20
5.508134306
 10
7.8835378162
 20
5.5975629725
  0
LWPOLYLINE
  5
5D4
100
AcDbEntity
  8
0
100
AcDbPolyline
 62
7
  6
CONTINUOUS
 90
21
 70
0
 10
7.9137924172
 20
5.1348537673
 10
7.912683081
 20
5.1437079013
 10
7.911570581
 20
5.1663059805
 10
7.910458081
 20
5.2020734528
 10
7.909345581
 20
5.250109518
 10
7.908233081
 20
5.3092043929
 10
7.907120581
 20
5.3778697788
 10
7.906008081
 20
5.4543763447
 10
7.904895581
 20
5.5367972798
 10
7.903783081
 20
5.6230568206
 10
7.902670581
 20
5.7109825284
 10
7.901558081
 20
5.7983600021
 10
7.900445581
 20
5.8829886476
 10
7.899333081
 20
5.9627370994
 10
7.898220581
 20
6.0355968994
 10
7.897108081
 20
6.099733079
 10
7.895995581
 20
6.1535303734
 10
7.894883081
 20
6.1956339013
 10
7.893770581
 20
6.2249832878
 10
7.892658081
 20
6.24083937
 10
7.8920987248
 20
6.2435744536
  0
LWPOLYLINE
  5
5D5
100
AcDbEntity
  8
0
100
AcDbPolyline
 62
7
  6
CONTINUOUS
 90
10
 70
0
 10
7.7395895089
 20
6.2790894733
 10
7.7407345901
 20
6.2692469305
 10
7.7418135799
 20
6.2458020921
 10
7.7428925572
 20
6.2091702292
 10
7.7439715378
 20
6.160218896
 10
7.7450505117
 20
6.1001084046
 10
7.7461294883
 20
6.030262488
 10
7.7472084832
 20
5.95233476
 10
7.7482875185
 20
5.8681694739
 10
7.7493665617
 20
5.7797631037
  0
LWPOLYLINE
  5
5D6
100
AcDbEntity
  8
0
100
AcDbPolyline
 62
7
  6
CONTINUOUS
 90
9
 70
0
 10
8.0013207789
 20
6.2746124447
 10
8.0024022334
 20
6.2563332098
 10
8.0034716794
 20
6.2249800706
 10
8.0045550598
 20
6.1805067578
 10
8.0056438846
 20
6.1239882803
 10
8.0067251981
 20
6.0574748171
 10
8.0077958785
 20
5.9829756511
 10
8.0088728367
 20
5.9011292644
 10
8.009945581
 20
5.8146276313
  0
LWPOLYLINE
  5
5D7
100
AcDbEntity
  8
0
100
AcDbPolyline
 62
7
  6
CONTINUOUS
 90
5
 70
0
 10
8.0518314634
 20
6.1672327022
 10
8.0507262116
 20
6.2156471062
 10
8.0496297961
 20
6.2507471749
 10
8.0485334058
 20
6.2721099019
 10
8.0475895308
 20
6.2790894733
  0
LWPOLYLINE
  5
5D8
100
AcDbEntity
  8
0
100
AcDbPolyline
 62
7
  6
CONTINUOUS
 90
4
 70
0
 10
8.0510639087
 20
6.0347561959
 10
8.0521515005
 20
5.9566231976
 10
8.0532477225
 20
5.8713616704
 10
8.0543502611
 20
5.7811201114
  0
LWPOLYLINE
  5
5D9
100
AcDbEntity
  8
0
100
AcDbPolyline
 62
7
  6
CONTINUOUS
 90
10
 70
0
 10
7.989445581
 20
5.8070800667
 10
7.988333081
 20
5.8913105331
 10
7.987220581
 20
5.9704511976
 10
7.986108081
 20
6.0425089045
 10
7.984995581
 20
6.1056688827
 10
7.983883081
 20
6.1583404506
 10
7.982770581
 20
6.1991970778
 10
7.981658081
 20
6.2272097929
 10
7.980545581
 20
6.2416730985
 10
7.9800987484
 20
6.2435744564
  0
LWPOLYLINE
  5
5DA
100
AcDbEntity
  8
0
100
AcDbPolyline
 62
7
  6
CONTINUOUS
 90
10
 70
0
 10
8.0133502578
 20
5.7811201114
 10
8.0122477192
 20
5.8713616704
 10
8.0111514972
 20
5.9566231976
 10
8.0100639054
 20
6.0347561959
 10
8.0089658273
 20
6.1051982833
 10
8.0078539988
 20
6.1661161551
 10
8.006742353
 20
6.2150307654
 10
8.0056444556
 20
6.2503663274
 10
8.0045551444
 20
6.2718234262
 10
8.0035895083
 20
6.2790894734
  0
LWPOLYLINE
  5
5DB
100
AcDbEntity
  8
0
100
AcDbPolyline
 62
7
  6
CONTINUOUS
 90
4
 70
0
 10
8.009945581
 20
5.8146276313
 10
8.010445608
 20
5.7731775625
 10
8.0109455474
 20
5.731306958
 10
8.0114455794
 20
5.6892141104
  0
LWPOLYLINE
  5
5DC
100
AcDbEntity
  8
0
100
AcDbPolyline
 62
7
  6
CONTINUOUS
 90
11
 70
0
 10
8.0114455794
 20
5.6892141104
 10
8.0125456165
 20
5.5969145901
 10
8.0136590225
 20
5.505817071
 10
8.0147717683
 20
5.4193953779
 10
8.0158703897
 20
5.3407316075
 10
8.0169593919
 20
5.27119874
 10
8.0180559719
 20
5.2113796622
 10
8.019158933
 20
5.1630101929
 10
8.0202547627
 20
5.1278519658
 10
8.0213520168
 20
5.1063932857
 10
8.022301627
 20
5.0993387474
  0
LWPOLYLINE
  5
5DD
100
AcDbEntity
  8
0
100
AcDbPolyline
 62
7
  6
CONTINUOUS
 90
11
 70
0
 10
8.0543502611
 20
5.7811201114
 10
8.0565412488
 20
5.5972775108
 10
8.0576458078
 20
5.506875198
 10
8.0587455711
 20
5.421359822
 10
8.059833286
 20
5.3432588483
 10
8.060930913
 20
5.27289543
 10
8.0620422414
 20
5.2120591836
 10
8.0631533809
 20
5.1632220073
 10
8.064250747
 20
5.1279562738
 10
8.065340404
 20
5.1065463143
 10
8.0663016325
 20
5.0993387476
  0
LWPOLYLINE
  5
5DE
100
AcDbEntity
  8
0
100
AcDbPolyline
 62
7
  6
CONTINUOUS
 90
7
 70
0
 10
8.0595363674
 20
5.5976855448
 10
8.0573456055
 20
5.7815093147
 10
8.0562322843
 20
5.8726000811
 10
8.0551196793
 20
5.9590118171
 10
8.0540212079
 20
6.037667238
 10
8.0529320839
 20
6.1072109496
 10
8.0518314634
 20
6.1672327022
  0
LINE
  5
5DF
100
AcDbEntity
  8
0
100
AcDbLine
 62
7
  6
CONTINUOUS
 10
8.0255895173
 20
5.0993387476
 11
8.0460987335
 21
5.1348537674
  0
LINE
  5
5E0
100
AcDbEntity
  8
0
100
AcDbLine
 62
7
  6
CONTINUOUS
 10
8.0695895396
 20
5.0993387475
 11
8.0900987547
 21
5.1348537655
  0
LINE
  5
5E1
100
AcDbEntity
  8
0
100
AcDbLine
 62
7
  6
CONTINUOUS
 10
8.0695895396
 20
5.0993387475
 11
8.0694455952
 21
5.0992141104
  0
LINE
  5
5E2
100
AcDbEntity
  8
0
100
AcDbLine
 62
7
  6
CONTINUOUS
 10
8.0255895173
 20
5.0993387476
 11
8.0254455396
 21
5.0992141105
  0
LINE
  5
5E3
100
AcDbEntity
  8
0
100
AcDbLine
 62
7
  6
CONTINUOUS
 10
8.428445581
 20
4.8982141104
 11
8.253445581
 21
4.8982141104
  0
LINE
  5
5E4
100
AcDbEntity
  8
0
100
AcDbLine
 62
7
  6
CONTINUOUS
 10
7.8023016342
 20
5.0993387476
 11
7.8024455782
 21
5.0992141104
  0
LINE
  5
5E5
100
AcDbEntity
  8
0
100
AcDbLine
 62
7
  6
CONTINUOUS
 10
7.8463016531
 20
5.0993387475
 11
7.8464456018
 21
5.0992141104
  0
LINE
  5
5E6
100
AcDbEntity
  8
0
100
AcDbLine
 62
7
  6
CONTINUOUS
 10
7.8903016263
 20
5.0993387474
 11
7.8904455698
 21
5.0992141104
  0
LINE
  5
5E7
100
AcDbEntity
  8
0
100
AcDbLine
 62
7
  6
CONTINUOUS
 10
7.9343016334
 20
5.0993387476
 11
7.934445569
 21
5.0992141104
  0
LINE
  5
5E8
100
AcDbEntity
  8
0
100
AcDbLine
 62
7
  6
CONTINUOUS
 10
7.9137924172
 20
5.1348537673
 11
7.9343016334
 21
5.0993387476
  0
LINE
  5
5E9
100
AcDbEntity
  8
0
100
AcDbLine
 62
7
  6
CONTINUOUS
 10
7.9577924379
 20
5.1348537655
 11
7.978301653
 21
5.0993387475
  0
LINE
  5
5EA
100
AcDbEntity
  8
0
100
AcDbLine
 62
7
  6
CONTINUOUS
 10
8.0017924116
 20
5.1348537659
 11
8.022301627
 21
5.0993387474
  0
LWPOLYLINE
  5
5EB
100
AcDbEntity
  8
0
100
AcDbPolyline
 62
7
  6
CONTINUOUS
 90
21
 70
0
 10
8.0457924163
 20
5.1348537674
 10
8.045070581
 20
5.1390439524
 10
8.043958081
 20
5.1569038546
 10
8.042845581
 20
5.1881699417
 10
8.041733081
 20
5.2320547808
 10
8.040620581
 20
5.2874531367
 10
8.039508081
 20
5.3529698073
 10
8.038395581
 20
5.4269547616
 10
8.037283081
 20
5.5075446956
 10
8.036170581
 20
5.5927099592
 10
8.035058081
 20
5.6803056731
 10
8.033945581
 20
5.7681257469
 10
8.032833081
 20
5.8539584395
 10
8.031720581
 20
5.9356420618
 10
8.030608081
 20
6.0111194184
 10
8.029495581
 20
6.0784896177
 10
8.028383081
 20
6.1360559462
 10
8.027270581
 20
6.1823685999
 10
8.026158081
 20
6.2162611973
 10
8.025045581
 20
6.236880155
 10
8.0240987245
 20
6.2435744536
  0
LWPOLYLINE
  5
5EC
100
AcDbEntity
  8
0
100
AcDbPolyline
 62
7
  6
CONTINUOUS
 90
11
 70
0
 10
7.9814455943
 20
5.0992141105
 10
7.9803520152
 20
5.1063932857
 10
7.9792547613
 20
5.1278519658
 10
7.9781589317
 20
5.1630101929
 10
7.9770559707
 20
5.2113796622
 10
7.9759593908
 20
5.27119874
 10
7.9748703888
 20
5.3407316075
 10
7.9737717675
 20
5.4193953779
 10
7.9726590219
 20
5.505817071
 10
7.9715456161
 20
5.5969145901
 10
7.9704455791
 20
5.6892141104
  0
LWPOLYLINE
  5
5ED
100
AcDbEntity
  8
0
100
AcDbPolyline
 62
7
  6
CONTINUOUS
 90
11
 70
0
 10
8.0254455396
 20
5.0992141105
 10
8.0243404008
 20
5.1065463143
 10
8.0232507438
 20
5.1279562738
 10
8.0221533776
 20
5.1632220073
 10
8.0210422381
 20
5.2120591836
 10
8.0199309097
 20
5.27289543
 10
8.0188332827
 20
5.3432588483
 10
8.0177455678
 20
5.421359822
 10
8.0166458044
 20
5.506875198
 10
8.0155412455
 20
5.5972775108
 10
8.0133502578
 20
5.7811201114
  0
LWPOLYLINE
  5
5EE
100
AcDbEntity
  8
0
100
AcDbPolyline
 62
7
  6
CONTINUOUS
 90
10
 70
0
 10
8.0694455952
 20
5.0992141104
 10
8.0683327081
 20
5.1066488299
 10
8.06723603
 20
5.1283403224
 10
8.0661372175
 20
5.1638410738
 10
8.0650248238
 20
5.2129247994
 10
8.0639124549
 20
5.2740000591
 10
8.0628140875
 20
5.3445718359
 10
8.061721065
 20
5.4232026947
 10
8.0606264406
 20
5.5084294323
 10
8.0595363674
 20
5.5976855448
  0
LWPOLYLINE
  5
5EF
100
AcDbEntity
  8
0
100
AcDbPolyline
 62
7
  6
CONTINUOUS
 90
10
 70
0
 10
7.8244455904
 20
6.2792141104
 10
7.8255660513
 20
6.2716780817
 10
7.826665174
 20
6.249825429
 10
7.827755566
 20
6.2145259296
 10
7.8288592078
 20
6.1658589829
 10
7.8299666289
 20
6.1051520176
 10
7.8310639661
 20
6.0347539152
 10
7.8321596559
 20
5.9560123442
 10
7.8332614241
 20
5.8702652581
 10
7.8343559976
 20
5.7806446676
  0
LWPOLYLINE
  5
5F0
100
AcDbEntity
  8
0
100
AcDbPolyline
 62
7
  6
CONTINUOUS
 90
12
 70
0
 10
8.0017924116
 20
5.1348537659
 10
8.000570581
 20
5.1453754209
 10
7.999458081
 20
5.1693367635
 10
7.998345581
 20
5.2063912034
 10
7.997233081
 20
5.2556055277
 10
7.996120581
 20
5.3157402767
 10
7.995008081
 20
5.3852809597
 10
7.993895581
 20
5.4624761976
 10
7.992783081
 20
5.5453818309
 10
7.991670581
 20
5.6319098831
 10
7.990558081
 20
5.7198811469
 10
7.989445581
 20
5.8070800667
  0
LWPOLYLINE
  5
5F1
100
AcDbEntity
  8
0
100
AcDbPolyline
 62
7
  6
CONTINUOUS
 90
11
 70
0
 10
8.122945581
 20
5.6892141104
 10
8.121833081
 20
5.7769334657
 10
8.120720581
 20
5.8624436046
 10
8.119608081
 20
5.9435909555
 10
8.118495581
 20
6.0183318243
 10
8.117383081
 20
6.0847838647
 10
8.116270581
 20
6.1412734848
 10
8.115158081
 20
6.1863779963
 10
8.114045581
 20
6.2189614452
 10
8.112933081
 20
6.2382032203
 10
8.1120987494
 20
6.2435744563
  0
LWPOLYLINE
  5
5F2
100
AcDbEntity
  8
0
100
AcDbPolyline
 62
7
  6
CONTINUOUS
 90
10
 70
0
 10
8.100536369
 20
5.5976855448
 10
8.1016264421
 20
5.5084294323
 10
8.1027210664
 20
5.4232026947
 10
8.1038140889
 20
5.3445718359
 10
8.1049124562
 20
5.2740000591
 10
8.106024825
 20
5.2129247994
 10
8.1071372187
 20
5.1638410738
 10
8.1082360312
 20
5.1283403224
 10
8.1093327092
 20
5.1066488299
 10
8.1103016529
 20
5.0993387475
  0
LWPOLYLINE
  5
5F3
100
AcDbEntity
  8
0
100
AcDbPolyline
 62
7
  6
CONTINUOUS
 90
11
 70
0
 10
8.102445581
 20
5.6892141104
 10
8.1013456251
 20
5.781506879
 10
8.1002323256
 20
5.8725961457
 10
8.0991196916
 20
5.959010437
 10
8.0980211203
 20
6.0376728865
 10
8.0969271679
 20
6.1075029761
 10
8.0958310072
 20
6.1672551612
 10
8.0947405005
 20
6.215102444
 10
8.0936492604
 20
6.2502418063
 10
8.0925497662
 20
6.2718950908
 10
8.0915895348
 20
6.2790894736
  0
LINE
  5
5F4
100
AcDbEntity
  8
0
100
AcDbLine
 62
7
  6
CONTINUOUS
 10
8.143445581
 20
5.0992141104
 11
8.143445581
 21
6.2792141104
  0
LINE
  5
5F5
100
AcDbEntity
  8
0
100
AcDbLine
 62
9
  6
CONTINUOUS
 10
8.168445581
 20
5.1154641104
 11
8.168445581
 21
6.2629641104
  0
LINE
  5
5F6
100
AcDbEntity
  8
0
100
AcDbLine
 62
7
  6
CONTINUOUS
 10
8.193445581
 20
4.9582141104
 11
8.193445581
 21
6.4202141104
  0
LINE
  5
5F7
100
AcDbEntity
  8
0
100
AcDbLine
 62
7
  6
CONTINUOUS
 10
9.0778011744
 20
4.9017141104
 11
9.0660802729
 21
4.9017141104
  0
LINE
  5
5F8
100
AcDbEntity
  8
0
100
AcDbLine
 62
7
  6
CONTINUOUS
 10
7.978301653
 20
5.0993387475
 11
7.9784455968
 21
5.0992141104
  0
LINE
  5
5F9
100
AcDbEntity
  8
0
100
AcDbLine
 62
7
  6
CONTINUOUS
 10
8.022301627
 20
5.0993387474
 11
8.022445596
 21
5.0992141105
  0
LINE
  5
5FA
100
AcDbEntity
  8
0
100
AcDbLine
 62
7
  6
CONTINUOUS
 10
8.1103016529
 20
5.0993387475
 11
8.1104455962
 21
5.0992141104
  0
LINE
  5
5FB
100
AcDbEntity
  8
0
100
AcDbLine
 62
7
  6
CONTINUOUS
 10
8.0663016325
 20
5.0993387476
 11
8.0664455428
 21
5.0992141105
  0
LINE
  5
5FC
100
AcDbEntity
  8
0
100
AcDbLine
 62
7
  6
CONTINUOUS
 10
8.0457924163
 20
5.1348537674
 11
8.0663016325
 21
5.0993387476
  0
LINE
  5
5FD
100
AcDbEntity
  8
0
100
AcDbLine
 62
7
  6
CONTINUOUS
 10
8.0897924377
 20
5.1348537655
 11
8.1103016529
 21
5.0993387475
  0
LINE
  5
5FE
100
AcDbEntity
  8
0
100
AcDbLine
 62
7
  6
CONTINUOUS
 10
8.493445581
 20
4.5172141104
 11
8.5223130945
 21
4.4672141104
  0
LWPOLYLINE
  5
5FF
100
AcDbEntity
  8
0
100
AcDbPolyline
 62
7
  6
CONTINUOUS
 90
22
 70
0
 10
8.0897924377
 20
5.1348537655
 10
8.089570581
 20
5.1355160561
 10
8.088458081
 20
5.1471837778
 10
8.087345581
 20
5.1725024929
 10
8.086233081
 20
5.2108345502
 10
8.085120581
 20
5.2612145589
 10
8.084008081
 20
5.3223737014
 10
8.082895581
 20
5.3927716888
 10
8.081783081
 20
5.4706355529
 10
8.080670581
 20
5.5540042983
 10
8.079558081
 20
5.6407782896
 10
8.078445581
 20
5.7287721312
 10
8.077333081
 20
5.8157697057
 10
8.076220581
 20
5.8995799867
 10
8.075108081
 20
5.97809222
 10
8.073995581
 20
6.0493290821
 10
8.072883081
 20
6.1114964796
 10
8.071770581
 20
6.1630287325
 10
8.070658081
 20
6.2026280063
 10
8.069545581
 20
6.2292969973
 10
8.068433081
 20
6.2423640501
 10
8.0680987465
 20
6.2435744543
  0
LINE
  5
600
100
AcDbEntity
  8
0
100
AcDbLine
 62
7
  6
CONTINUOUS
 10
7.8684461613
 20
6.2792141085
 11
7.8690661784
 21
6.2768988416
  0
LWPOLYLINE
  5
601
100
AcDbEntity
  8
0
100
AcDbPolyline
 62
7
  6
CONTINUOUS
 90
11
 70
0
 10
7.9124455062
 20
6.2792141104
 10
7.9135275575
 20
6.2721856833
 10
7.9146226195
 20
6.2509319242
 10
7.9157194148
 20
6.2159046703
 10
7.9168269927
 20
6.1674524
 10
7.9179318912
 20
6.1072212025
 10
7.9190227976
 20
6.0375577588
 10
7.920120915
 20
5.9589176902
 10
7.9212331059
 20
5.8725326347
 10
7.9223460035
 20
5.7814744753
 10
7.9245378195
 20
5.5975629725
  0
LWPOLYLINE
  5
602
100
AcDbEntity
  8
0
100
AcDbPolyline
 62
7
  6
CONTINUOUS
 90
11
 70
0
 10
7.9564455897
 20
6.2792141104
 10
7.9575520039
 20
6.2718654575
 10
7.9586513248
 20
6.2501879833
 10
7.9597434525
 20
6.2149897473
 10
7.9608349981
 20
6.1670582165
 10
7.9619283013
 20
6.107435953
 10
7.9630210954
 20
6.0376750588
 10
7.964119648
 20
5.9590143455
 10
7.9652322625
 20
5.8726020126
 10
7.9663455957
 20
5.7815103122
 10
7.9685391988
 20
5.5974500631
  0
LINE
  5
603
100
AcDbEntity
  8
0
100
AcDbLine
 62
9
  6
CONTINUOUS
 10
8.253445581
 20
4.8982141104
 11
8.253445581
 21
6.4802141104
  0
LINE
  5
604
100
AcDbEntity
  8
0
100
AcDbLine
 62
7
  6
CONTINUOUS
 10
8.143445581
 20
5.0992141104
 11
8.1104455967
 21
5.0992141104
  0
LINE
  5
605
100
AcDbEntity
  8
0
100
AcDbLine
 62
7
  6
CONTINUOUS
 10
8.0694455957
 20
5.0992141104
 11
8.0664455765
 21
5.0992141104
  0
LINE
  5
606
100
AcDbEntity
  8
0
100
AcDbLine
 62
7
  6
CONTINUOUS
 10
8.0254455734
 20
5.0992141104
 11
8.0224455707
 21
5.0992141104
  0
LINE
  5
607
100
AcDbEntity
  8
0
100
AcDbLine
 62
7
  6
CONTINUOUS
 10
7.981445569
 20
5.0992141104
 11
7.9784455969
 21
5.0992141104
  0
LINE
  5
608
100
AcDbEntity
  8
0
100
AcDbLine
 62
7
  6
CONTINUOUS
 10
7.9374455959
 20
5.0992141104
 11
7.9344455774
 21
5.0992141104
  0
LINE
  5
609
100
AcDbEntity
  8
0
100
AcDbLine
 62
7
  6
CONTINUOUS
 10
7.8934455742
 20
5.0992141104
 11
7.8904455699
 21
5.0992141104
  0
LINE
  5
60A
100
AcDbEntity
  8
0
100
AcDbLine
 62
7
  6
CONTINUOUS
 10
7.8494455681
 20
5.0992141104
 11
7.8464455969
 21
5.0992141104
  0
LINE
  5
60B
100
AcDbEntity
  8
0
100
AcDbLine
 62
7
  6
CONTINUOUS
 10
7.8054455961
 20
5.0992141104
 11
7.8024455782
 21
5.0992141104
  0
LINE
  5
60C
100
AcDbEntity
  8
0
100
AcDbLine
 62
7
  6
CONTINUOUS
 10
7.7614455751
 20
5.0992141104
 11
7.7584455693
 21
5.0992141104
  0
LINE
  5
60D
100
AcDbEntity
  8
0
100
AcDbLine
 62
7
  6
CONTINUOUS
 10
7.7174455672
 20
5.0992141104
 11
7.714445597
 21
5.0992141104
  0
LINE
  5
60E
100
AcDbEntity
  8
0
100
AcDbLine
 62
7
  6
CONTINUOUS
 10
8.168445581
 20
5.1154641104
 11
8.143445581
 21
5.1154641104
  0
LINE
  5
60F
100
AcDbEntity
  8
0
100
AcDbLine
 62
7
  6
CONTINUOUS
 10
8.9724997935
 20
4.930280322
 11
8.929445581
 21
4.9398443753
  0
LINE
  5
610
100
AcDbEntity
  8
0
100
AcDbLine
 62
7
  6
CONTINUOUS
 10
8.0004455892
 20
6.2792141104
 11
8.0013207789
 21
6.2746124447
  0
LWPOLYLINE
  5
611
100
AcDbEntity
  8
0
100
AcDbPolyline
 62
7
  6
CONTINUOUS
 90
11
 70
0
 10
8.0884455458
 20
6.2792141104
 10
8.089533408
 20
6.2721099019
 10
8.0906297982
 20
6.2507471749
 10
8.0917262137
 20
6.2156471062
 10
8.0928314654
 20
6.1672327022
 10
8.0939320858
 20
6.1072109496
 10
8.0950212098
 20
6.037667238
 10
8.0961196812
 20
5.9590118171
 10
8.097232286
 20
5.8726000811
 10
8.0983456072
 20
5.7815093147
 10
8.100536369
 20
5.5976855448
  0
LWPOLYLINE
  5
612
100
AcDbEntity
  8
0
100
AcDbPolyline
 62
7
  6
CONTINUOUS
 90
11
 70
0
 10
8.1324455912
 20
6.2792141104
 10
8.1335497663
 20
6.2718950908
 10
8.1346492605
 20
6.2502418063
 10
8.1357405006
 20
6.215102444
 10
8.1368310073
 20
6.1672551612
 10
8.1379271679
 20
6.1075029761
 10
8.1390211203
 20
6.0376728865
 10
8.1401196916
 20
5.959010437
 10
8.1412323256
 20
5.8725961457
 10
8.1423456251
 20
5.781506879
 10
8.143445581
 20
5.6892141104
  0
LWPOLYLINE
  5
613
100
AcDbEntity
  8
0
100
AcDbPolyline
 62
7
  6
CONTINUOUS
 90
7
 70
0
 10
8.0444456287
 20
6.2792141104
 10
8.0455551476
 20
6.2718234262
 10
8.0466444589
 20
6.2503663274
 10
8.0477423563
 20
6.2150307654
 10
8.0488540021
 20
6.1661161551
 10
8.0499658306
 20
6.1051982833
 10
8.0510639087
 20
6.0347561959
  0
LINE
  5
614
100
AcDbEntity
  8
02___PRT_ALL_AXES
100
AcDbLine
 62
7
  6
CONTINUOUS
 10
7.709445581
 20
5.141970016
 11
7.3984219589
 21
5.141970016
  0
LWPOLYLINE
  5
615
100
AcDbEntity
  8
0
100
AcDbPolyline
 62
7
  6
CONTINUOUS
 90
5
 70
0
 10
9.070390364
 20
4.9001598401
 10
9.0610987741
 20
4.9035104159
 10
9.039480432
 20
4.910887158
 10
9.0095383465
 20
4.9202167511
 10
8.9724997935
 20
4.930280322
  0
LINE
  5
616
100
AcDbEntity
  8
0
100
AcDbLine
 62
7
  6
CONTINUOUS
 10
9.0741463937
 20
4.8988053709
 11
9.070390364
 21
4.9001598401
  0
LINE
  5
617
100
AcDbEntity
  8
0
100
AcDbLine
 62
7
  6
CONTINUOUS
 10
9.078445581
 20
4.8972141104
 11
9.0741463937
 21
4.8988053709
  0
LWPOLYLINE
  5
618
100
AcDbEntity
  8
0
100
AcDbPolyline
 62
9
  6
CONTINUOUS
 90
29
 70
0
 10
8.929445581
 20
4.9409013416
 10
8.9178468379
 20
4.9456662707
 10
8.9044014369
 20
4.950294747
 10
8.889184228
 20
4.9546891638
 10
8.8722771157
 20
4.9587501583
 10
8.8537650051
 20
4.962378497
 10
8.8337077158
 20
4.9654795873
 10
8.8121553983
 20
4.9679574269
 10
8.7891827172
 20
4.9697114505
 10
8.7649000661
 20
4.9706416313
 10
8.7395069593
 20
4.9706567286
 10
8.7132818301
 20
4.9696908036
 10
8.6865500559
 20
4.9677152889
 10
8.6596800129
 20
4.9647471874
 10
8.6330765478
 20
4.9608552433
 10
8.6071458087
 20
4.9561579319
 10
8.582258196
 20
4.9508126151
 10
8.55871157
 20
4.9449968397
 10
8.5367682191
 20
4.938904642
 10
8.5166411268
 20
4.9327340219
 10
8.4984297125
 20
4.9266551952
 10
8.4821965296
 20
4.9208227455
 10
8.4680041616
 20
4.9153853814
 10
8.4559151275
 20
4.9104858202
 10
8.445989006
 20
4.9062593329
 10
8.4382713538
 20
4.9028281196
 10
8.4327843639
 20
4.9002952938
 10
8.4295211369
 20
4.8987398403
 10
8.428445581
 20
4.8982141104
  0
LINE
  5
619
100
AcDbEntity
  8
0
100
AcDbLine
 62
7
  6
CONTINUOUS
 10
7.7160987459
 20
6.2435744564
 11
7.709445581
 21
6.2550953762
  0
LINE
  5
61A
100
AcDbEntity
  8
0
100
AcDbLine
 62
7
  6
CONTINUOUS
 10
7.7600987252
 20
6.2435744535
 11
7.7395895089
 21
6.2790894733
  0
LINE
  5
61B
100
AcDbEntity
  8
0
100
AcDbLine
 62
7
  6
CONTINUOUS
 10
8.488445581
 20
4.5672141104
 11
8.488445581
 21
4.8382141104
  0
LINE
  5
61C
100
AcDbEntity
  8
0
100
AcDbLine
 62
7
  6
CONTINUOUS
 10
8.493445581
 20
4.5672141104
 11
8.493445581
 21
4.5172141104
  0
LINE
  5
61D
100
AcDbEntity
  8
0
100
AcDbLine
 62
7
  6
CONTINUOUS
 10
7.8040987481
 20
6.2435744544
 11
7.7835895324
 21
6.2790894733
  0
LINE
  5
61E
100
AcDbEntity
  8
0
100
AcDbLine
 62
7
  6
CONTINUOUS
 10
7.8480987472
 20
6.2435744564
 11
7.8275895326
 21
6.2790894736
  0
LINE
  5
61F
100
AcDbEntity
  8
0
100
AcDbLine
 62
7
  6
CONTINUOUS
 10
7.8920987248
 20
6.2435744536
 11
7.8715895086
 21
6.2790894733
  0
LINE
  5
620
100
AcDbEntity
  8
AXIS_COSMETIC_THREADS
100
AcDbLine
 62
7
  6
CONTINUOUS
 10
8.666945581
 20
4.4672141104
 11
8.666945581
 21
3.5173637167
  0
LINE
  5
621
100
AcDbEntity
  8
0
100
AcDbLine
 62
7
  6
CONTINUOUS
 10
7.9360987473
 20
6.2435744543
 11
7.9155895316
 21
6.2790894733
  0
LINE
  5
622
100
AcDbEntity
  8
0
100
AcDbLine
 62
7
  6
CONTINUOUS
 10
7.9800987484
 20
6.2435744564
 11
7.9595895337
 21
6.2790894736
  0
LINE
  5
623
100
AcDbEntity
  8
0
100
AcDbLine
 62
7
  6
CONTINUOUS
 10
8.0240987245
 20
6.2435744536
 11
8.0035895083
 21
6.2790894734
  0
LINE
  5
624
100
AcDbEntity
  8
0
100
AcDbLine
 62
7
  6
CONTINUOUS
 10
8.0680987465
 20
6.2435744543
 11
8.0475895308
 21
6.2790894733
  0
LINE
  5
625
100
AcDbEntity
  8
0
100
AcDbLine
 62
7
  6
CONTINUOUS
 10
8.1120987494
 20
6.2435744563
 11
8.0915895348
 21
6.2790894736
  0
LINE
  5
626
100
AcDbEntity
  8
AXIS_COSMETIC_THREADS
100
AcDbLine
 62
7
  6
CONTINUOUS
 10
8.899945581
 20
4.4672141104
 11
8.899945581
 21
3.5173637167
  0
LINE
  5
627
100
AcDbEntity
  8
0
100
AcDbLine
 62
9
  6
CONTINUOUS
 10
9.079445581
 20
5.6892141104
 11
9.019445581
 21
5.6892141104
  0
LINE
  5
628
100
AcDbEntity
  8
0
100
AcDbLine
 62
7
  6
CONTINUOUS
 10
8.143445581
 20
5.6892141104
 11
8.102445581
 21
5.6892141104
  0
LINE
  5
629
100
AcDbEntity
  8
0
100
AcDbLine
 62
7
  6
CONTINUOUS
 10
7.7394455644
 20
6.2792141104
 11
7.7395895089
 21
6.2790894733
  0
LINE
  5
62A
100
AcDbEntity
  8
0
100
AcDbLine
 62
7
  6
CONTINUOUS
 10
7.7835895324
 20
6.2790894733
 11
7.7834455884
 21
6.2792141104
  0
LINE
  5
62B
100
AcDbEntity
  8
0
100
AcDbLine
 62
9
  6
CONTINUOUS
 10
9.0784012084
 20
4.9017141104
 11
9.0778011744
 21
4.9026462594
  0
LWPOLYLINE
  5
62C
100
AcDbEntity
  8
0
100
AcDbPolyline
 62
9
  6
CONTINUOUS
 90
8
 70
0
 10
9.0778011744
 20
4.9026462594
 10
9.0730009022
 20
4.9104120246
 10
9.0641020202
 20
4.927532944
 10
9.052278152
 20
4.956440151
 10
9.0400783569
 20
4.9987945419
 10
9.0304719836
 20
5.054999956
 10
9.0240165833
 20
5.1237286711
 10
9.0202098734
 20
5.2029423029
  0
LWPOLYLINE
  5
62D
100
AcDbEntity
  8
0
100
AcDbPolyline
 62
9
  6
CONTINUOUS
 90
6
 70
0
 10
9.0202098734
 20
5.2029423029
 10
9.0184264779
 20
5.2906070669
 10
9.018040561
 20
5.3846788216
 10
9.0184545335
 20
5.4833599554
 10
9.0191051536
 20
5.5852273613
 10
9.019445581
 20
5.6892141104
  0
LINE
  5
62E
100
AcDbEntity
  8
0
100
AcDbLine
 62
7
  6
CONTINUOUS
 10
8.929445581
 20
4.9398443753
 11
8.929445581
 21
6.4802141104
  0
LINE
  5
62F
100
AcDbEntity
  8
0
100
AcDbLine
 62
7
  6
CONTINUOUS
 10
8.939445581
 20
4.9376229775
 11
8.939445581
 21
6.4767141104
  0
LINE
  5
630
100
AcDbEntity
  8
0
100
AcDbLine
 62
9
  6
CONTINUOUS
 10
9.019445581
 20
5.6892141104
 11
9.019445581
 21
6.4767141104
  0
LINE
  5
631
100
AcDbEntity
  8
0
100
AcDbLine
 62
7
  6
CONTINUOUS
 10
7.8715895086
 20
6.2790894733
 11
7.8714455029
 21
6.2792141104
  0
LINE
  5
632
100
AcDbEntity
  8
0
100
AcDbLine
 62
7
  6
CONTINUOUS
 10
7.9155895316
 20
6.2790894733
 11
7.9154455875
 21
6.2792141104
  0
LINE
  5
633
100
AcDbEntity
  8
0
100
AcDbLine
 62
7
  6
CONTINUOUS
 10
7.9595895337
 20
6.2790894736
 11
7.959445589
 21
6.2792141104
  0
LINE
  5
634
100
AcDbEntity
  8
0
100
AcDbLine
 62
7
  6
CONTINUOUS
 10
7.8275895326
 20
6.2790894736
 11
7.8274461612
 21
6.2792141085
  0
LINE
  5
635
100
AcDbEntity
  8
0
100
AcDbLine
 62
7
  6
CONTINUOUS
 10
9.073445581
 20
4.5672141104
 11
9.073445581
 21
4.5172141104
  0
LINE
  5
636
100
AcDbEntity
  8
0
100
AcDbLine
 62
7
  6
CONTINUOUS
 10
9.078445581
 20
4.5672141104
 11
9.078445581
 21
4.8972141104
  0
LINE
  5
637
100
AcDbEntity
  8
0
100
AcDbLine
 62
7
  6
CONTINUOUS
 10
9.079445581
 20
4.9027266192
 11
9.079445581
 21
6.4167141104
  0
LINE
  5
638
100
AcDbEntity
  8
0
100
AcDbLine
 62
7
  6
CONTINUOUS
 10
8.0475895308
 20
6.2790894733
 11
8.0474455435
 21
6.2792141104
  0
LINE
  5
639
100
AcDbEntity
  8
0
100
AcDbLine
 62
7
  6
CONTINUOUS
 10
8.0915895348
 20
6.2790894736
 11
8.091445591
 21
6.2792141104
  0
LINE
  5
63A
100
AcDbEntity
  8
0
100
AcDbLine
 62
7
  6
CONTINUOUS
 10
8.0035895083
 20
6.2790894734
 11
8.0034456255
 21
6.2792141104
  0
LINE
  5
63B
100
AcDbEntity
  8
0
100
AcDbLine
 62
7
  6
CONTINUOUS
 10
9.073445581
 20
4.5172141104
 11
9.0445780675
 21
4.4672141104
  0
LINE
  5
63C
100
AcDbEntity
  8
02___PRT_ALL_AXES
100
AcDbLine
 62
7
  6
CONTINUOUS
 10
7.709445581
 20
6.2364582049
 11
7.3984219589
 21
6.2364582049
  0
LINE
  5
63D
100
AcDbEntity
  8
0
100
AcDbLine
 62
7
  6
CONTINUOUS
 10
8.168445581
 20
6.2629641104
 11
8.143445581
 21
6.2629641104
  0
LINE
  5
63E
100
AcDbEntity
  8
0
100
AcDbLine
 62
7
  6
CONTINUOUS
 10
8.143445581
 20
6.2792141104
 11
8.1324455913
 21
6.2792141104
  0
LINE
  5
63F
100
AcDbEntity
  8
0
100
AcDbLine
 62
7
  6
CONTINUOUS
 10
8.0914455911
 20
6.2792141104
 11
8.088445589
 21
6.2792141104
  0
LINE
  5
640
100
AcDbEntity
  8
0
100
AcDbLine
 62
7
  6
CONTINUOUS
 10
8.0474455868
 20
6.2792141104
 11
8.0444455676
 21
6.2792141104
  0
LINE
  5
641
100
AcDbEntity
  8
0
100
AcDbLine
 62
7
  6
CONTINUOUS
 10
8.0034455644
 20
6.2792141104
 11
8.0004455902
 21
6.2792141104
  0
LINE
  5
642
100
AcDbEntity
  8
0
100
AcDbLine
 62
7
  6
CONTINUOUS
 10
7.9594455901
 20
6.2792141104
 11
7.9564455898
 21
6.2792141104
  0
LINE
  5
643
100
AcDbEntity
  8
0
100
AcDbLine
 62
7
  6
CONTINUOUS
 10
7.9154455876
 20
6.2792141104
 11
7.9124455679
 21
6.2792141104
  0
LINE
  5
644
100
AcDbEntity
  8
0
100
AcDbLine
 62
7
  6
CONTINUOUS
 10
7.8714455647
 20
6.2792141104
 11
7.868445589
 21
6.2792141104
  0
LINE
  5
645
100
AcDbEntity
  8
0
100
AcDbLine
 62
7
  6
CONTINUOUS
 10
7.827445589
 20
6.2792141104
 11
7.8244455905
 21
6.2792141104
  0
LINE
  5
646
100
AcDbEntity
  8
0
100
AcDbLine
 62
7
  6
CONTINUOUS
 10
7.7834455885
 20
6.2792141104
 11
7.7804455683
 21
6.2792141104
  0
LINE
  5
647
100
AcDbEntity
  8
0
100
AcDbLine
 62
7
  6
CONTINUOUS
 10
7.7394455651
 20
6.2792141104
 11
7.7364455878
 21
6.2792141104
  0
LINE
  5
648
100
AcDbEntity
  8
0
100
AcDbLine
 62
7
  6
CONTINUOUS
 10
8.929445581
 20
6.4512141104
 11
8.939445581
 21
6.4512141104
  0
LINE
  5
649
100
AcDbEntity
  8
0
100
AcDbLine
 62
7
  6
CONTINUOUS
 10
9.019445581
 20
6.4767141104
 11
8.939445581
 21
6.4767141104
  0
LINE
  5
64A
100
AcDbEntity
  8
0
100
AcDbLine
 62
7
  6
CONTINUOUS
 10
8.929445581
 20
6.4802141104
 11
8.253445581
 21
6.4802141104
  0
LINE
  5
64B
100
AcDbEntity
  8
AXIS
100
AcDbLine
 62
7
  6
CONTINUOUS
 10
12.5988499047
 20
3.5173637167
 11
12.3658499047
 21
3.5173637167
  0
LINE
  5
64C
100
AcDbEntity
  8
0
100
AcDbLine
 62
7
  6
CONTINUOUS
 10
12.2212174182
 20
4.4672141104
 11
12.7434823912
 21
4.4672141104
  0
LINE
  5
64D
100
AcDbEntity
  8
0
100
AcDbLine
 62
7
  6
CONTINUOUS
 10
12.1923499047
 20
4.5172141104
 11
12.7723499047
 21
4.5172141104
  0
LINE
  5
64E
100
AcDbEntity
  8
0
100
AcDbLine
 62
7
  6
CONTINUOUS
 10
12.2212174182
 20
4.4672141104
 11
12.1923499047
 21
4.5172141104
  0
LINE
  5
64F
100
AcDbEntity
  8
0
100
AcDbLine
 62
7
  6
CONTINUOUS
 10
12.1873579455
 20
4.5672141104
 11
12.7773418639
 21
4.5672141104
  0
LINE
  5
650
100
AcDbEntity
  8
0
100
AcDbLine
 62
7
  6
CONTINUOUS
 10
12.1873499047
 20
4.5672141104
 11
12.1873499047
 21
4.916574123
  0
LINE
  5
651
100
AcDbEntity
  8
0
100
AcDbLine
 62
7
  6
CONTINUOUS
 10
12.1923499047
 20
4.5672141104
 11
12.1923499047
 21
4.5172141104
  0
LINE
  5
652
100
AcDbEntity
  8
0
100
AcDbLine
 62
7
  6
CONTINUOUS
 10
12.2260122368
 20
4.9409013416
 11
12.2260122368
 21
4.9398443753
  0
LINE
  5
653
100
AcDbEntity
  8
0
100
AcDbLine
 62
7
  6
CONTINUOUS
 10
12.1873499087
 20
4.9166040055
 11
12.1873499049
 21
4.9165985161
  0
LINE
  5
654
100
AcDbEntity
  8
AXIS
100
AcDbLine
 62
7
  6
CONTINUOUS
 10
12.3658499047
 20
4.4672141104
 11
12.3658499047
 21
3.5173637167
  0
LINE
  5
655
100
AcDbEntity
  8
AXIS_COSMETIC_THREADS
100
AcDbLine
 62
7
  6
CONTINUOUS
 10
12.3658499047
 20
4.4672141104
 11
12.3658499047
 21
3.5173637167
  0
LWPOLYLINE
  5
656
100
AcDbEntity
  8
0
100
AcDbPolyline
 62
7
  6
CONTINUOUS
 90
6
 70
0
 10
12.151416273
 20
4.9707684564
 10
12.1648504526
 20
4.9624043701
 10
12.1757275449
 20
4.9510041573
 10
12.1830813262
 20
4.9379072855
 10
12.1867103501
 20
4.9248527758
 10
12.1873499067
 20
4.9166001402
  0
LINE
  5
657
100
AcDbEntity
  8
0
100
AcDbLine
 62
7
  6
CONTINUOUS
 10
12.3903499047
 20
5.8442141104
 11
12.3903499047
 21
5.7192141104
  0
LWPOLYLINE
  5
658
100
AcDbEntity
  8
0
100
AcDbPolyline
 62
9
  6
CONTINUOUS
 90
10
 70
0
 10
12.2260122368
 20
4.9409013416
 10
12.2176804586
 20
4.9369127021
 10
12.2102642186
 20
4.9334618468
 10
12.2038013169
 20
4.9304328795
 10
12.1983324859
 20
4.9277051129
 10
12.1939020417
 20
4.9251550577
 10
12.190556809
 20
4.9226555068
 10
12.1883583887
 20
4.9200801215
 10
12.1873889547
 20
4.9173084577
 10
12.1873499087
 20
4.9166040055
  0
LINE
  5
659
100
AcDbEntity
  8
0
100
AcDbLine
 62
7
  6
CONTINUOUS
 10
12.5753499047
 20
5.7192141104
 11
12.5753499047
 21
5.8442141104
  0
LINE
  5
65A
100
AcDbEntity
  8
AXIS
100
AcDbLine
 62
7
  6
CONTINUOUS
 10
12.5988499047
 20
4.4672141104
 11
12.5988499047
 21
3.5173637167
  0
LINE
  5
65B
100
AcDbEntity
  8
AXIS_COSMETIC_THREADS
100
AcDbLine
 62
7
  6
CONTINUOUS
 10
12.5988499047
 20
4.4672141104
 11
12.5988499047
 21
3.5173637167
  0
LINE
  5
65C
100
AcDbEntity
  8
0
100
AcDbLine
 62
9
  6
CONTINUOUS
 10
12.7470192408
 20
4.9369151739
 11
12.7386875726
 21
4.9409013416
  0
LWPOLYLINE
  5
65D
100
AcDbEntity
  8
0
100
AcDbPolyline
 62
9
  6
CONTINUOUS
 90
9
 70
0
 10
12.7773499008
 20
4.9166157909
 10
12.7773109233
 20
4.9173194979
 10
12.7763416676
 20
4.9200907132
 10
12.7741432784
 20
4.9226654214
 10
12.7707979751
 20
4.9251640524
 10
12.7663674189
 20
4.9277129226
 10
12.7608984712
 20
4.9304392243
 10
12.7544354868
 20
4.9334664225
 10
12.7470192408
 20
4.9369151739
  0
LINE
  5
65E
100
AcDbEntity
  8
0
100
AcDbLine
 62
7
  6
CONTINUOUS
 10
12.7773499045
 20
4.9166103439
 11
12.7773499008
 21
4.9166157909
  0
LINE
  5
65F
100
AcDbEntity
  8
0
100
AcDbLine
 62
7
  6
CONTINUOUS
 10
12.7386875726
 20
4.9409013416
 11
12.7386875726
 21
4.9398443753
  0
LINE
  5
660
100
AcDbEntity
  8
0
100
AcDbLine
 62
7
  6
CONTINUOUS
 10
12.7723499047
 20
4.5672141104
 11
12.7723499047
 21
4.5172141104
  0
LINE
  5
661
100
AcDbEntity
  8
0
100
AcDbLine
 62
7
  6
CONTINUOUS
 10
12.7773499047
 20
4.5672141104
 11
12.7773499047
 21
4.9165859113
  0
LWPOLYLINE
  5
662
100
AcDbEntity
  8
0
100
AcDbPolyline
 62
7
  6
CONTINUOUS
 90
6
 70
0
 10
12.7773499026
 20
4.9166119683
 10
12.7779898215
 20
4.9248656421
 10
12.7816177589
 20
4.9379138956
 10
12.788966867
 20
4.9510027538
 10
12.799838534
 20
4.9623987091
 10
12.813273256
 20
4.9707637211
  0
LINE
  5
663
100
AcDbEntity
  8
0
100
AcDbLine
 62
7
  6
CONTINUOUS
 10
12.7723499047
 20
4.5172141104
 11
12.7434823912
 21
4.4672141104
  0
LWPOLYLINE
  5
664
100
AcDbEntity
  8
0
100
AcDbPolyline
 62
9
  6
CONTINUOUS
 90
26
 70
0
 10
13.2098499047
 20
5.6892141104
 10
13.2031421051
 20
5.5931951136
 10
13.1835981366
 20
5.4993031434
 10
13.1519552436
 20
5.4084248476
 10
13.1088925228
 20
5.3214929644
 10
13.0551882455
 20
5.2395196421
 10
12.9918449121
 20
5.1635309455
 10
12.9201467565
 20
5.0944409067
 10
12.8421981322
 20
5.033308703
 10
12.7608407831
 20
4.9817196234
 10
12.6784483489
 20
4.9423734535
 10
12.5981147121
 20
4.916785522
 10
12.5205748229
 20
4.9042887195
 10
12.4441249865
 20
4.9042887195
 10
12.3665850973
 20
4.916785522
 10
12.2862514605
 20
4.9423734535
 10
12.2038590263
 20
4.9817196234
 10
12.1225016772
 20
5.033308703
 10
12.0445530529
 20
5.0944409067
 10
11.9728548973
 20
5.1635309455
 10
11.9095115639
 20
5.2395196421
 10
11.8558072866
 20
5.3214929644
 10
11.8127445658
 20
5.4084248476
 10
11.7811016728
 20
5.4993031434
 10
11.7615577043
 20
5.5931951136
 10
11.7548499047
 20
5.6892141104
  0
LINE
  5
665
100
AcDbEntity
  8
0
100
AcDbLine
 62
9
  6
CONTINUOUS
 10
11.7548499047
 20
5.6892141104
 11
11.6948499047
 21
5.6892141104
  0
LINE
  5
666
100
AcDbEntity
  8
0
100
AcDbLine
 62
7
  6
CONTINUOUS
 10
12.4203499047
 20
5.6892141104
 11
12.5453499047
 21
5.6892141104
  0
LINE
  5
667
100
AcDbEntity
  8
0
100
AcDbLine
 62
9
  6
CONTINUOUS
 10
13.2098499047
 20
5.6892141104
 11
13.2698499047
 21
5.6892141104
  0
LINE
  5
668
100
AcDbEntity
  8
0
100
AcDbLine
 62
7
  6
CONTINUOUS
 10
12.5453499047
 20
5.8742141104
 11
12.4203499047
 21
5.8742141104
  0
LINE
  5
669
100
AcDbEntity
  8
0
100
AcDbLine
 62
7
  6
CONTINUOUS
 10
3.0349778374
 20
8.8978867409
 11
3.0350515293
 21
8.8980710323
  0
LWPOLYLINE
  5
66A
100
AcDbEntity
  8
0
100
AcDbPolyline
 62
7
  6
CONTINUOUS
 90
3
 70
0
 10
3.0390562607
 20
8.8845710323
 10
3.0389571064
 20
8.8843944439
 10
3.0388833877
 20
8.8839007591
  0
LINE
  5
66B
100
AcDbEntity
  8
0
100
AcDbLine
 62
7
  6
CONTINUOUS
 10
4.2899262686
 20
7.6294975575
 11
3.3529183946
 21
7.6294975575
  0
LWPOLYLINE
  5
66C
100
AcDbEntity
  8
0
100
AcDbPolyline
 62
7
  6
CONTINUOUS
 90
4
 70
0
 10
3.0312405372
 20
8.857936405
 10
3.0312485813
 20
8.8572694002
 10
3.0312712935
 20
8.8567705038
 10
3.0313031439
 20
8.856586405
  0
LWPOLYLINE
  5
66D
100
AcDbEntity
  8
0
100
AcDbPolyline
 62
7
  6
CONTINUOUS
 90
3
 70
0
 10
3.0304580236
 20
8.8852541519
 10
3.0304628602
 20
8.8847552885
 10
3.0304700398
 20
8.8845710323
  0
LINE
  5
66E
100
AcDbEntity
  8
0
100
AcDbLine
 62
7
  6
CONTINUOUS
 10
3.0304223316
 20
9.239261337
 11
3.0304223316
 21
8.9696185668
  0
LINE
  5
66F
100
AcDbEntity
  8
0
100
AcDbLine
 62
7
  6
CONTINUOUS
 10
3.0304223316
 20
8.7729041073
 11
3.0304223316
 21
8.563261337
  0
LINE
  5
670
100
AcDbEntity
  8
0
100
AcDbLine
 62
7
  6
CONTINUOUS
 10
3.0304439309
 20
8.855236405
 11
3.0304453121
 21
8.8437560061
  0
LINE
  5
671
100
AcDbEntity
  8
0
100
AcDbLine
 62
7
  6
CONTINUOUS
 10
3.0304563691
 20
8.8967210323
 11
3.0304580236
 21
8.8852541519
  0
LINE
  5
672
100
AcDbEntity
  8
0
100
AcDbLine
 62
7
  6
CONTINUOUS
 10
3.0306346735
 20
8.8967210323
 11
3.0306346735
 21
8.857936405
  0
LINE
  5
673
100
AcDbEntity
  8
0
100
AcDbLine
 62
7
  6
CONTINUOUS
 10
3.0312405372
 20
8.8737261617
 11
3.0312405372
 21
8.857936405
  0
LINE
  5
674
100
AcDbEntity
  8
0
100
AcDbLine
 62
7
  6
CONTINUOUS
 10
3.03193589
 20
8.855236405
 11
3.03193589
 21
8.844436405
  0
LINE
  5
675
100
AcDbEntity
  8
0
100
AcDbLine
 62
7
  6
CONTINUOUS
 10
3.0339223316
 20
9.329261337
 11
3.0339223316
 21
9.249261337
  0
LINE
  5
676
100
AcDbEntity
  8
0
100
AcDbLine
 62
7
  6
CONTINUOUS
 10
3.0349060029
 20
8.8967210323
 11
3.0349060029
 21
8.8859210323
  0
LINE
  5
677
100
AcDbEntity
  8
0
100
AcDbLine
 62
7
  6
CONTINUOUS
 10
3.036502054
 20
8.8832210323
 11
3.036502054
 21
8.8657412498
  0
LINE
  5
678
100
AcDbEntity
  8
0
100
AcDbLine
 62
7
  6
CONTINUOUS
 10
3.0388563367
 20
8.8832210323
 11
3.0388563367
 21
8.857936405
  0
LWPOLYLINE
  5
679
100
AcDbEntity
  8
0
100
AcDbPolyline
 62
7
  6
CONTINUOUS
 90
4
 70
0
 10
3.0304439309
 20
8.8552364664
 10
3.0304452532
 20
8.8559033606
 10
3.0304491605
 20
8.8564022355
 10
3.0304550571
 20
8.856586405
  0
LWPOLYLINE
  5
67A
100
AcDbEntity
  8
0
100
AcDbPolyline
 62
7
  6
CONTINUOUS
 90
4
 70
0
 10
3.0306346735
 20
8.8967211955
 10
3.0306387527
 20
8.8973860804
 10
3.0306503778
 20
8.8978846471
 10
3.0306669634
 20
8.8980710323
  0
LINE
  5
67B
100
AcDbEntity
  8
0
100
AcDbLine
 62
7
  6
CONTINUOUS
 10
3.0306304135
 20
8.8572547343
 11
3.0306346735
 21
8.8579363871
  0
LINE
  5
67C
100
AcDbEntity
  8
0
100
AcDbLine
 62
7
  6
CONTINUOUS
 10
3.0312503504
 20
8.8744570071
 11
3.0312405372
 21
8.8737261617
  0
LWPOLYLINE
  5
67D
100
AcDbEntity
  8
0
100
AcDbPolyline
 62
7
  6
CONTINUOUS
 90
3
 70
0
 10
3.03193589
 20
8.844436405
 10
3.0319249898
 20
8.8437694342
 10
3.031894706
 20
8.8432705361
  0
LWPOLYLINE
  5
67E
100
AcDbEntity
  8
0
100
AcDbPolyline
 62
7
  6
CONTINUOUS
 90
3
 70
0
 10
3.0349060029
 20
8.8967210323
 10
3.0349248595
 20
8.8973878145
 10
3.0349778374
 20
8.8978867409
  0
LINE
  5
67F
100
AcDbEntity
  8
0
100
AcDbLine
 62
7
  6
CONTINUOUS
 10
3.0364753753
 20
8.8650115971
 11
3.036502054
 21
8.8657412498
  0
LINE
  5
680
100
AcDbEntity
  8
0
100
AcDbLine
 62
7
  6
CONTINUOUS
 10
3.0388833877
 20
8.8839007591
 11
3.0388563367
 21
8.8832210323
  0
LWPOLYLINE
  5
681
100
AcDbEntity
  8
0
100
AcDbPolyline
 62
7
  6
CONTINUOUS
 90
3
 70
0
 10
3.0408594604
 20
8.8859210323
 10
3.0408306095
 20
8.8852545986
 10
3.0407500542
 20
8.8847556243
  0
LWPOLYLINE
  5
682
100
AcDbEntity
  8
0
100
AcDbPolyline
 62
7
  6
CONTINUOUS
 90
4
 70
0
 10
3.0408594604
 20
8.844436405
 10
3.0408306095
 20
8.8437699713
 10
3.0407500542
 20
8.843270997
 10
3.0406391545
 20
8.843086405
  0
LWPOLYLINE
  5
683
100
AcDbEntity
  8
0
100
AcDbPolyline
 62
7
  6
CONTINUOUS
 90
4
 70
0
 10
3.0432155156
 20
8.8967210323
 10
3.0432483731
 20
8.897395137
 10
3.0433394697
 20
8.8978925411
 10
3.043462518
 20
8.8980710323
  0
LWPOLYLINE
  5
684
100
AcDbEntity
  8
0
100
AcDbPolyline
 62
7
  6
CONTINUOUS
 90
3
 70
0
 10
3.0566003747
 20
8.8859210323
 10
3.0565530687
 20
8.8852486404
 10
3.0564218155
 20
8.8847502201
  0
LWPOLYLINE
  5
685
100
AcDbEntity
  8
0
100
AcDbPolyline
 62
7
  6
CONTINUOUS
 90
4
 70
0
 10
3.0588567662
 20
8.8967210323
 10
3.0589061644
 20
8.8973930417
 10
3.0590438718
 20
8.8978917095
 10
3.0592301388
 20
8.8980710323
  0
LWPOLYLINE
  5
686
100
AcDbEntity
  8
0
100
AcDbPolyline
 62
7
  6
CONTINUOUS
 90
3
 70
0
 10
3.0306044562
 20
8.856586405
 10
3.0306190864
 20
8.856761336
 10
3.0306304135
 20
8.8572547343
  0
LWPOLYLINE
  5
687
100
AcDbEntity
  8
0
100
AcDbPolyline
 62
7
  6
CONTINUOUS
 90
5
 70
0
 10
3.0591304248
 20
8.8636281451
 10
3.0591883938
 20
8.8643153383
 10
3.0591394515
 20
8.8650183405
 10
3.0590010535
 20
8.8655214838
 10
3.058815572
 20
8.8657014341
  0
LWPOLYLINE
  5
688
100
AcDbEntity
  8
0
100
AcDbPolyline
 62
7
  6
CONTINUOUS
 90
5
 70
0
 10
3.0612922068
 20
8.8824977432
 10
3.0613524434
 20
8.8831845417
 10
3.0613016795
 20
8.8838873748
 10
3.0611579052
 20
8.8843907939
 10
3.0609649858
 20
8.8845710323
  0
LINE
  5
689
100
AcDbEntity
  8
0
100
AcDbLine
 62
7
  6
CONTINUOUS
 10
3.031894706
 20
8.8432705361
 11
3.0318534143
 21
8.843086405
  0
LWPOLYLINE
  5
68A
100
AcDbEntity
  8
0
100
AcDbPolyline
 62
7
  6
CONTINUOUS
 90
3
 70
0
 10
3.031303243
 20
8.8750714429
 10
3.031278231
 20
8.8749672375
 10
3.0312503504
 20
8.8744570071
  0
LINE
  5
68B
100
AcDbEntity
  8
0
100
AcDbLine
 62
7
  6
CONTINUOUS
 10
3.0579329782
 20
8.8570505326
 11
3.0580656416
 21
8.8575100087
  0
LWPOLYLINE
  5
68C
100
AcDbEntity
  8
0
100
AcDbPolyline
 62
7
  6
CONTINUOUS
 90
3
 70
0
 10
3.0600881953
 20
8.8437131159
 10
3.0599513394
 20
8.8432553189
 10
3.059767817
 20
8.843086405
  0
LWPOLYLINE
  5
68D
100
AcDbEntity
  8
0
100
AcDbPolyline
 62
7
  6
CONTINUOUS
 90
3
 70
0
 10
3.0779603368
 20
8.8634876593
 10
3.0789294361
 20
8.866093899
 10
3.0800634365
 20
8.8682668324
  0
LINE
  5
68E
100
AcDbEntity
  8
0
100
AcDbLine
 62
7
  6
CONTINUOUS
 10
3.0407500542
 20
8.8847556243
 11
3.0406391545
 21
8.8845710323
  0
LWPOLYLINE
  5
68F
100
AcDbEntity
  8
0
100
AcDbPolyline
 62
7
  6
CONTINUOUS
 90
3
 70
0
 10
3.036334623
 20
8.8643960502
 10
3.0364005694
 20
8.8645008097
 10
3.0364753753
 20
8.8650115971
  0
LWPOLYLINE
  5
690
100
AcDbEntity
  8
0
100
AcDbPolyline
 62
7
  6
CONTINUOUS
 90
3
 70
0
 10
3.0787182498
 20
8.8938224622
 10
3.0810047722
 20
8.8967831679
 10
3.0835947829
 20
8.8980710323
  0
LWPOLYLINE
  5
691
100
AcDbEntity
  8
0
100
AcDbPolyline
 62
7
  6
CONTINUOUS
 90
4
 70
0
 10
3.0542235981
 20
8.8845710323
 10
3.054047102
 20
8.8843721084
 10
3.0539233359
 20
8.8838367021
 10
3.0538866956
 20
8.8831429299
  0
LWPOLYLINE
  5
692
100
AcDbEntity
  8
0
100
AcDbPolyline
 62
7
  6
CONTINUOUS
 90
5
 70
0
 10
3.0558157981
 20
8.8657014341
 10
3.0556331088
 20
8.865502299
 10
3.055505103
 20
8.8649668178
 10
3.0554672307
 20
8.864273178
 10
3.0555223734
 20
8.8636179801
  0
LINE
  5
693
100
AcDbEntity
  8
0
100
AcDbLine
 62
7
  6
CONTINUOUS
 10
3.0564218155
 20
8.8847502201
 11
3.0562454255
 21
8.8845710323
  0
LINE
  5
694
100
AcDbEntity
  8
0
100
AcDbLine
 62
9
  6
CONTINUOUS
 10
4.3686664261
 20
7.708237715
 11
3.2741782372
 21
7.708237715
  0
LWPOLYLINE
  5
695
100
AcDbEntity
  8
0
100
AcDbPolyline
 62
7
  6
CONTINUOUS
 90
3
 70
0
 10
3.0313477112
 20
8.8747028946
 10
3.0313152883
 20
8.8750516185
 10
3.031303243
 20
8.8750714429
  0
LINE
  5
696
100
AcDbEntity
  8
0
100
AcDbLine
 62
7
  6
CONTINUOUS
 10
3.0538866956
 20
8.8831429299
 11
3.0539399903
 21
8.8824875782
  0
LINE
  5
697
100
AcDbEntity
  8
0
100
AcDbLine
 62
7
  6
CONTINUOUS
 10
3.0589054254
 20
8.8852537123
 11
3.0588567662
 21
8.8859210323
  0
LINE
  5
698
100
AcDbEntity
  8
0
100
AcDbLine
 62
7
  6
CONTINUOUS
 10
3.0565538018
 20
8.897388559
 11
3.0566003747
 21
8.8967210323
  0
LINE
  5
699
100
AcDbEntity
  8
0
100
AcDbLine
 62
7
  6
CONTINUOUS
 10
3.0771384237
 20
8.8543964549
 11
3.0770158972
 21
8.8563400132
  0
LINE
  5
69A
100
AcDbEntity
  8
0
100
AcDbLine
 62
7
  6
CONTINUOUS
 10
3.043247804
 20
8.8852523736
 11
3.0432155156
 21
8.8859210323
  0
LINE
  5
69B
100
AcDbEntity
  8
0
100
AcDbLine
 62
7
  6
CONTINUOUS
 10
3.0408293728
 20
8.8974005896
 11
3.0408594604
 21
8.8967210323
  0
LWPOLYLINE
  5
69C
100
AcDbEntity
  8
0
100
AcDbPolyline
 62
7
  6
CONTINUOUS
 90
4
 70
0
 10
3.0388563367
 20
8.857936405
 10
3.038882269
 20
8.8572698669
 10
3.0389550756
 20
8.8567709027
 10
3.0390562607
 20
8.856586405
  0
LWPOLYLINE
  5
69D
100
AcDbEntity
  8
0
100
AcDbPolyline
 62
7
  6
CONTINUOUS
 90
3
 70
0
 10
3.0304550566
 20
8.843086405
 10
3.0304492713
 20
8.8432628266
 10
3.0304453121
 20
8.8437560061
  0
LWPOLYLINE
  5
69E
100
AcDbEntity
  8
0
100
AcDbPolyline
 62
7
  6
CONTINUOUS
 90
3
 70
0
 10
3.036502054
 20
8.8832210323
 10
3.0364801119
 20
8.8838877329
 10
3.0364189191
 20
8.8843866658
  0
LINE
  5
69F
100
AcDbEntity
  8
0
100
AcDbLine
 62
7
  6
CONTINUOUS
 10
3.0349256802
 20
8.885240946
 11
3.0349060029
 21
8.8859210323
  0
LINE
  5
6A0
100
AcDbEntity
  8
0
100
AcDbLine
 62
7
  6
CONTINUOUS
 10
3.0768136549
 20
8.8833215899
 11
3.076801389
 21
8.884135104
  0
LINE
  5
6A1
100
AcDbEntity
  8
0
100
AcDbLine
 62
7
  6
CONTINUOUS
 10
3.0408594604
 20
8.8967210323
 11
3.0408594604
 21
8.8859210323
  0
LINE
  5
6A2
100
AcDbEntity
  8
0
100
AcDbLine
 62
7
  6
CONTINUOUS
 10
3.0408594604
 20
8.855236405
 11
3.0408594604
 21
8.844436405
  0
LINE
  5
6A3
100
AcDbEntity
  8
0
100
AcDbLine
 62
7
  6
CONTINUOUS
 10
3.0432155156
 20
8.8967210323
 11
3.0432155156
 21
8.8859210323
  0
LINE
  5
6A4
100
AcDbEntity
  8
0
100
AcDbLine
 62
7
  6
CONTINUOUS
 10
3.0504223316
 20
8.9617135288
 11
3.0504223316
 21
8.8980710323
  0
LINE
  5
6A5
100
AcDbEntity
  8
0
100
AcDbLine
 62
7
  6
CONTINUOUS
 10
3.0504223316
 20
8.843086405
 11
3.0504223316
 21
8.7808149853
  0
LINE
  5
6A6
100
AcDbEntity
  8
0
100
AcDbLine
 62
7
  6
CONTINUOUS
 10
3.0566003747
 20
8.8967210323
 11
3.0566003747
 21
8.8859210323
  0
LINE
  5
6A7
100
AcDbEntity
  8
0
100
AcDbLine
 62
7
  6
CONTINUOUS
 10
3.0588567662
 20
8.8967210323
 11
3.0588567662
 21
8.8859210323
  0
LINE
  5
6A8
100
AcDbEntity
  8
0
100
AcDbLine
 62
7
  6
CONTINUOUS
 10
3.0594223316
 20
9.249261337
 11
3.0594223316
 21
9.239261337
  0
LINE
  5
6A9
100
AcDbEntity
  8
0
100
AcDbLine
 62
7
  6
CONTINUOUS
 10
3.0726809101
 20
8.8967210323
 11
3.0726809101
 21
8.8859210323
  0
LINE
  5
6AA
100
AcDbEntity
  8
0
100
AcDbLine
 62
7
  6
CONTINUOUS
 10
3.1043709323
 20
8.8832210323
 11
3.1043709323
 21
8.8764710323
  0
LINE
  5
6AB
100
AcDbEntity
  8
0
100
AcDbLine
 62
7
  6
CONTINUOUS
 10
3.1043709323
 20
8.864686405
 11
3.1043709323
 21
8.857936405
  0
LWPOLYLINE
  5
6AC
100
AcDbEntity
  8
0
100
AcDbPolyline
 62
7
  6
CONTINUOUS
 90
5
 70
0
 10
3.0770158972
 20
8.8563400132
 10
3.0770424706
 20
8.8583125538
 10
3.0772162407
 20
8.8602170011
 10
3.0775273438
 20
8.8619660014
 10
3.0779603368
 20
8.8634876593
  0
LINE
  5
6AD
100
AcDbEntity
  8
0
100
AcDbLine
 62
7
  6
CONTINUOUS
 10
3.076801389
 20
8.884135104
 11
3.0768175588
 21
8.8849516325
  0
LWPOLYLINE
  5
6AE
100
AcDbEntity
  8
0
100
AcDbPolyline
 62
7
  6
CONTINUOUS
 90
6
 70
0
 10
3.0768175588
 20
8.8849516325
 10
3.07694797
 20
8.8870920869
 10
3.0772167677
 20
8.889112228
 10
3.0776116876
 20
8.8909411805
 10
3.0781173352
 20
8.8925241243
 10
3.0787182498
 20
8.8938224622
  0
LWPOLYLINE
  5
6AF
100
AcDbEntity
  8
0
100
AcDbPolyline
 62
7
  6
CONTINUOUS
 90
4
 70
0
 10
3.0726809101
 20
8.8859210323
 10
3.0726201223
 20
8.8852501473
 10
3.0724506199
 20
8.8847507626
 10
3.0722223466
 20
8.8845710323
  0
LWPOLYLINE
  5
6B0
100
AcDbEntity
  8
0
100
AcDbPolyline
 62
7
  6
CONTINUOUS
 90
4
 70
0
 10
3.1433456046
 20
8.8832210323
 10
3.143437228
 20
8.8838755093
 10
3.1437049387
 20
8.8843832866
 10
3.144077933
 20
8.8845710323
  0
LWPOLYLINE
  5
6B1
100
AcDbEntity
  8
0
100
AcDbPolyline
 62
7
  6
CONTINUOUS
 90
4
 70
0
 10
3.1291695453
 20
8.8859210323
 10
3.1290722399
 20
8.8852544246
 10
3.1288007381
 20
8.8847560478
 10
3.1284249181
 20
8.8845710323
  0
LWPOLYLINE
  5
6B2
100
AcDbEntity
  8
0
100
AcDbPolyline
 62
7
  6
CONTINUOUS
 90
4
 70
0
 10
3.1291695453
 20
8.844436405
 10
3.1290722399
 20
8.8437697973
 10
3.1288007381
 20
8.8432714205
 10
3.1284249181
 20
8.843086405
  0
LINE
  5
6B3
100
AcDbEntity
  8
0
100
AcDbLine
 62
7
  6
CONTINUOUS
 10
3.0577570225
 20
8.8568832977
 11
3.0579329782
 21
8.8570505326
  0
LWPOLYLINE
  5
6B4
100
AcDbEntity
  8
0
100
AcDbPolyline
 62
7
  6
CONTINUOUS
 90
3
 70
0
 10
3.0601101134
 20
8.8771290432
 10
3.0602939514
 20
8.8772963717
 10
3.0604324596
 20
8.8777557541
  0
LWPOLYLINE
  5
6B5
100
AcDbEntity
  8
0
100
AcDbPolyline
 62
7
  6
CONTINUOUS
 90
3
 70
0
 10
3.0805595735
 20
8.843086405
 10
3.0807495479
 20
8.8432577851
 10
3.0808889649
 20
8.8437131158
  0
LWPOLYLINE
  5
6B6
100
AcDbEntity
  8
0
100
AcDbPolyline
 62
7
  6
CONTINUOUS
 90
3
 70
0
 10
3.0681142851
 20
8.8845710323
 10
3.0679059446
 20
8.88440338
 10
3.0677501604
 20
8.8839443213
  0
LINE
  5
6B7
100
AcDbEntity
  8
0
100
AcDbLine
 62
7
  6
CONTINUOUS
 10
3.2315469686
 20
8.0351174071
 11
3.2590044029
 21
8.019261337
  0
LINE
  5
6B8
100
AcDbEntity
  8
0
100
AcDbLine
 62
7
  6
CONTINUOUS
 10
3.2314223316
 20
8.0352613476
 11
3.2315469686
 21
8.0351174071
  0
LINE
  5
6B9
100
AcDbEntity
  8
0
100
AcDbLine
 62
7
  6
CONTINUOUS
 10
3.1206883965
 20
8.8832210323
 11
3.1206883965
 21
8.857936405
  0
LINE
  5
6BA
100
AcDbEntity
  8
0
100
AcDbLine
 62
7
  6
CONTINUOUS
 10
3.1291695453
 20
8.8967210323
 11
3.1291695453
 21
8.8859210323
  0
LINE
  5
6BB
100
AcDbEntity
  8
0
100
AcDbLine
 62
7
  6
CONTINUOUS
 10
3.1291695453
 20
8.855236405
 11
3.1291695453
 21
8.844436405
  0
LINE
  5
6BC
100
AcDbEntity
  8
0
100
AcDbLine
 62
7
  6
CONTINUOUS
 10
3.1433456046
 20
8.8832210323
 11
3.1433456046
 21
8.857936405
  0
LINE
  5
6BD
100
AcDbEntity
  8
0
100
AcDbLine
 62
7
  6
CONTINUOUS
 10
3.1521137927
 20
8.8967210323
 11
3.1521137927
 21
8.8859210323
  0
LINE
  5
6BE
100
AcDbEntity
  8
0
100
AcDbLine
 62
7
  6
CONTINUOUS
 10
3.1521137927
 20
8.855236405
 11
3.1521137927
 21
8.844436405
  0
LWPOLYLINE
  5
6BF
100
AcDbEntity
  8
0
100
AcDbPolyline
 62
7
  6
CONTINUOUS
 90
27
 70
0
 10
3.1708986964
 20
8.871261337
 10
3.17051417
 20
8.8663739948
 10
3.1694375528
 20
8.8617273783
 10
3.1678929296
 20
8.8575772453
 10
3.1660780115
 20
8.8539196036
 10
3.1640899897
 20
8.850636346
 10
3.1618729817
 20
8.8474944308
 10
3.1593452034
 20
8.8443451273
 10
3.156465774
 20
8.8411442248
 10
3.153278836
 20
8.8379448046
 10
3.1498136112
 20
8.8347679032
 10
3.1460532723
 20
8.8315907253
 10
3.1419767264
 20
8.8283937827
 10
3.1375609325
 20
8.8251612315
 10
3.1327877352
 20
8.8218834356
 10
3.1276418534
 20
8.8185542877
 10
3.1221035829
 20
8.8151663853
 10
3.1161629744
 20
8.811719296
 10
3.1098192874
 20
8.808216608
 10
3.103071803
 20
8.8046609868
 10
3.0959218264
 20
8.8010559638
 10
3.0883969628
 20
8.7974162103
 10
3.0805540722
 20
8.7937670059
 10
3.0724977166
 20
8.7901518703
 10
3.0643952122
 20
8.7866345957
 10
3.0564374053
 20
8.7832822774
 10
3.0488315378
 20
8.7801624657
  0
LWPOLYLINE
  5
6C0
100
AcDbEntity
  8
0
100
AcDbPolyline
 62
7
  6
CONTINUOUS
 90
4
 70
0
 10
3.1037437584
 20
8.8751210323
 10
3.1040589502
 20
8.8753043834
 10
3.1042888314
 20
8.8758039224
 10
3.1043709323
 20
8.8764710323
  0
LWPOLYLINE
  5
6C1
100
AcDbEntity
  8
0
100
AcDbPolyline
 62
7
  6
CONTINUOUS
 90
4
 70
0
 10
3.1037437584
 20
8.856586405
 10
3.1040589502
 20
8.8567697561
 10
3.1042888314
 20
8.8572692951
 10
3.1043709323
 20
8.857936405
  0
LWPOLYLINE
  5
6C2
100
AcDbEntity
  8
0
100
AcDbPolyline
 62
7
  6
CONTINUOUS
 90
8
 70
0
 10
3.0937128803
 20
8.8845710323
 10
3.0928646271
 20
8.8841275127
 10
3.0921681171
 20
8.8828450467
 10
3.0917698996
 20
8.8809222463
 10
3.091770869
 20
8.8787599701
 10
3.0921701416
 20
8.8768411638
 10
3.0928646062
 20
8.875564575
 10
3.0937128803
 20
8.8751210323
  0
LWPOLYLINE
  5
6C3
100
AcDbEntity
  8
0
100
AcDbPolyline
 62
7
  6
CONTINUOUS
 90
8
 70
0
 10
3.0937128803
 20
8.866036405
 10
3.0928646271
 20
8.8655928854
 10
3.0921681171
 20
8.8643104194
 10
3.0917698996
 20
8.8623876189
 10
3.091770869
 20
8.8602253428
 10
3.0921701416
 20
8.8583065365
 10
3.0928646062
 20
8.8570299477
 10
3.0937128803
 20
8.856586405
  0
LWPOLYLINE
  5
6C4
100
AcDbEntity
  8
0
100
AcDbPolyline
 62
7
  6
CONTINUOUS
 90
4
 70
0
 10
3.121397005
 20
8.8845710323
 10
3.121041564
 20
8.8843893713
 10
3.1207800471
 20
8.8838857049
 10
3.1206883965
 20
8.8832210323
  0
LINE
  5
6C5
100
AcDbEntity
  8
0
100
AcDbLine
 62
7
  6
CONTINUOUS
 10
3.2315469687
 20
8.0791173791
 11
3.2670619882
 21
8.0586081631
  0
LINE
  5
6C6
100
AcDbEntity
  8
0
100
AcDbLine
 62
7
  6
CONTINUOUS
 10
3.2315469688
 20
8.1231173966
 11
3.2670619882
 21
8.1026081807
  0
LWPOLYLINE
  5
6C7
100
AcDbEntity
  8
0
100
AcDbPolyline
 62
7
  6
CONTINUOUS
 90
3
 70
0
 10
3.0565552141
 20
8.8574998437
 10
3.056683324
 20
8.8570490672
 10
3.0568549043
 20
8.8568832977
  0
LWPOLYLINE
  5
6C8
100
AcDbEntity
  8
0
100
AcDbPolyline
 62
7
  6
CONTINUOUS
 90
3
 70
0
 10
3.0547120016
 20
8.8777455891
 10
3.0548353233
 20
8.8772947453
 10
3.055000433
 20
8.8771290432
  0
LWPOLYLINE
  5
6C9
100
AcDbEntity
  8
0
100
AcDbPolyline
 62
7
  6
CONTINUOUS
 90
3
 70
0
 10
3.0362208537
 20
8.8647645169
 10
3.036303473
 20
8.8644157036
 10
3.036334623
 20
8.8643960502
  0
LWPOLYLINE
  5
6CA
100
AcDbEntity
  8
0
100
AcDbPolyline
 62
7
  6
CONTINUOUS
 90
4
 70
0
 10
3.0318534143
 20
8.856586405
 10
3.0318938826
 20
8.8564100395
 10
3.0319245138
 20
8.8559167646
 10
3.03193589
 20
8.855236405
  0
LWPOLYLINE
  5
6CB
100
AcDbEntity
  8
0
100
AcDbPolyline
 62
7
  6
CONTINUOUS
 90
4
 70
0
 10
3.0776875939
 20
8.8768701167
 10
3.0772485837
 20
8.8788413712
 10
3.0769540336
 20
8.881015871
 10
3.0768136549
 20
8.8833215899
  0
LWPOLYLINE
  5
6CC
100
AcDbEntity
  8
0
100
AcDbPolyline
 62
7
  6
CONTINUOUS
 90
3
 70
0
 10
3.0457749781
 20
8.8839544863
 10
3.0456779553
 20
8.8844056533
 10
3.0455492245
 20
8.8845710323
  0
LWPOLYLINE
  5
6CD
100
AcDbEntity
  8
0
100
AcDbPolyline
 62
7
  6
CONTINUOUS
 90
4
 70
0
 10
3.1206883965
 20
8.857936405
 10
3.1207802127
 20
8.8572711737
 10
3.1210379872
 20
8.8567720392
 10
3.121397005
 20
8.856586405
  0
LWPOLYLINE
  5
6CE
100
AcDbEntity
  8
0
100
AcDbPolyline
 62
7
  6
CONTINUOUS
 90
4
 70
0
 10
3.1043709323
 20
8.864686405
 10
3.1042878031
 20
8.8653573869
 10
3.1040557961
 20
8.8658569814
 10
3.1037437584
 20
8.866036405
  0
LWPOLYLINE
  5
6CF
100
AcDbEntity
  8
0
100
AcDbPolyline
 62
7
  6
CONTINUOUS
 90
4
 70
0
 10
3.1043709323
 20
8.8832210323
 10
3.1042878031
 20
8.8838920143
 10
3.1040557961
 20
8.8843916087
 10
3.1037437584
 20
8.8845710323
  0
LINE
  5
6D0
100
AcDbEntity
  8
0
100
AcDbLine
 62
7
  6
CONTINUOUS
 10
3.2314223316
 20
8.453261337
 11
3.2314223316
 21
8.4312613522
  0
LINE
  5
6D1
100
AcDbEntity
  8
0
100
AcDbLine
 62
7
  6
CONTINUOUS
 10
3.2314223316
 20
8.3902613517
 11
3.2314223316
 21
8.3872613389
  0
LINE
  5
6D2
100
AcDbEntity
  8
0
100
AcDbLine
 62
7
  6
CONTINUOUS
 10
3.2314223316
 20
8.3462613361
 11
3.2314223316
 21
8.3432613232
  0
LINE
  5
6D3
100
AcDbEntity
  8
0
100
AcDbLine
 62
7
  6
CONTINUOUS
 10
3.2314223316
 20
8.3022613205
 11
3.2314223316
 21
8.2992613518
  0
LINE
  5
6D4
100
AcDbEntity
  8
0
100
AcDbLine
 62
7
  6
CONTINUOUS
 10
3.2314223316
 20
8.2582613514
 11
3.2314223316
 21
8.2552613398
  0
LINE
  5
6D5
100
AcDbEntity
  8
0
100
AcDbLine
 62
7
  6
CONTINUOUS
 10
3.2314223316
 20
8.214261337
 11
3.2314223316
 21
8.211261323
  0
LINE
  5
6D6
100
AcDbEntity
  8
0
100
AcDbLine
 62
7
  6
CONTINUOUS
 10
3.2314223316
 20
8.1702613202
 11
3.2314223316
 21
8.1672613513
  0
LINE
  5
6D7
100
AcDbEntity
  8
0
100
AcDbLine
 62
7
  6
CONTINUOUS
 10
3.2314223316
 20
8.126261351
 11
3.2314223316
 21
8.1232613406
  0
LINE
  5
6D8
100
AcDbEntity
  8
0
100
AcDbLine
 62
7
  6
CONTINUOUS
 10
3.2314223316
 20
8.082261338
 11
3.2314223316
 21
8.079261323
  0
LINE
  5
6D9
100
AcDbEntity
  8
0
100
AcDbLine
 62
7
  6
CONTINUOUS
 10
3.2314223316
 20
8.0382613201
 11
3.2314223316
 21
8.0352613508
  0
LINE
  5
6DA
100
AcDbEntity
  8
0
100
AcDbLine
 62
7
  6
CONTINUOUS
 10
3.2476723316
 20
8.478261337
 11
3.2476723316
 21
8.453261337
  0
LINE
  5
6DB
100
AcDbEntity
  8
0
100
AcDbLine
 62
7
  6
CONTINUOUS
 10
3.2741782372
 20
8.019261337
 11
3.2741782372
 21
7.708237715
  0
LINE
  5
6DC
100
AcDbEntity
  8
02___PRT_ALL_AXES
100
AcDbLine
 62
7
  6
CONTINUOUS
 10
3.2741782372
 20
8.019261337
 11
3.2741782372
 21
7.708237715
  0
LWPOLYLINE
  5
6DD
100
AcDbEntity
  8
0
100
AcDbPolyline
 62
7
  6
CONTINUOUS
 90
4
 70
0
 10
3.151343687
 20
8.8845710323
 10
3.1517349808
 20
8.8847587622
 10
3.1520168184
 20
8.8852658565
 10
3.1521137927
 20
8.8859210294
  0
LWPOLYLINE
  5
6DE
100
AcDbEntity
  8
0
100
AcDbPolyline
 62
7
  6
CONTINUOUS
 90
4
 70
0
 10
3.151343687
 20
8.843086405
 10
3.1517349808
 20
8.8432741349
 10
3.1520168184
 20
8.8437812292
 10
3.1521137927
 20
8.8444364021
  0
LWPOLYLINE
  5
6DF
100
AcDbEntity
  8
0
100
AcDbPolyline
 62
7
  6
CONTINUOUS
 90
5
 70
0
 10
4.3757826771
 20
8.036608174
 10
4.3682926395
 20
8.035598837
 10
4.3469111981
 20
8.034486337
 10
4.312295323
 20
8.033373837
 10
4.2653168127
 20
8.032261337
  0
LINE
  5
6E0
100
AcDbEntity
  8
0
100
AcDbLine
 62
7
  6
CONTINUOUS
 10
3.2315469686
 20
8.1671174076
 11
3.2670619861
 21
8.1466081928
  0
LINE
  5
6E1
100
AcDbEntity
  8
0
100
AcDbLine
 62
7
  6
CONTINUOUS
 10
3.2315469687
 20
8.2111173792
 11
3.2670619881
 21
8.1906081632
  0
LWPOLYLINE
  5
6E2
100
AcDbEntity
  8
0
100
AcDbPolyline
 62
7
  6
CONTINUOUS
 90
3
 70
0
 10
3.0336993985
 20
8.843086405
 10
3.0336539322
 20
8.8431823001
 10
3.0336148591
 20
8.8434596721
  0
LINE
  5
6E3
100
AcDbEntity
  8
0
100
AcDbLine
 62
7
  6
CONTINUOUS
 10
3.0364189191
 20
8.8843866658
 11
3.0363348812
 21
8.8845710323
  0
LWPOLYLINE
  5
6E4
100
AcDbEntity
  8
0
100
AcDbPolyline
 62
7
  6
CONTINUOUS
 90
3
 70
0
 10
3.0350515293
 20
8.8845710323
 10
3.0349793018
 20
8.8847474934
 10
3.0349256802
 20
8.885240946
  0
LWPOLYLINE
  5
6E5
100
AcDbEntity
  8
0
100
AcDbPolyline
 62
7
  6
CONTINUOUS
 90
3
 70
0
 10
3.0327128681
 20
8.8980710323
 10
3.0327511359
 20
8.8979751413
 10
3.032784498
 20
8.8976977652
  0
LWPOLYLINE
  5
6E6
100
AcDbEntity
  8
0
100
AcDbPolyline
 62
7
  6
CONTINUOUS
 90
4
 70
0
 10
3.1521137927
 20
8.8552364048
 10
3.1520168554
 20
8.855891464
 10
3.1517351168
 20
8.856398534
 10
3.1513436516
 20
8.856586405
  0
LWPOLYLINE
  5
6E7
100
AcDbEntity
  8
0
100
AcDbPolyline
 62
7
  6
CONTINUOUS
 90
4
 70
0
 10
3.1521137927
 20
8.8967210322
 10
3.1520168554
 20
8.8973760913
 10
3.1517351168
 20
8.8978831613
 10
3.1513436516
 20
8.8980710323
  0
LWPOLYLINE
  5
6E8
100
AcDbEntity
  8
0
100
AcDbPolyline
 62
7
  6
CONTINUOUS
 90
4
 70
0
 10
3.0488315378
 20
8.7801624657
 10
3.0418958925
 20
8.777382243
 10
3.0360829953
 20
8.7750955194
 10
3.0320000679
 20
8.7735116164
  0
LINE
  5
6E9
100
AcDbEntity
  8
0
100
AcDbLine
 62
7
  6
CONTINUOUS
 10
3.0320000679
 20
8.7735116164
 11
3.0304223316
 21
8.7729041073
  0
LWPOLYLINE
  5
6EA
100
AcDbEntity
  8
0
100
AcDbPolyline
 62
7
  6
CONTINUOUS
 90
21
 70
0
 10
4.3757826746
 20
8.0806081682
 10
4.3734358426
 20
8.080098837
 10
4.3581984846
 20
8.078986337
 10
4.3294424655
 20
8.077873837
 10
4.2878920024
 20
8.076761337
 10
4.2345935394
 20
8.075648837
 10
4.170889393
 20
8.074536337
 10
4.0983839461
 20
8.073423837
 10
4.0189032418
 20
8.072311337
 10
3.9344489948
 20
8.071198837
 10
3.8471481781
 20
8.070086337
 10
3.7591994557
 20
8.068973837
 10
3.6728178093
 20
8.067861337
 10
3.5901787542
 20
8.066748837
 10
3.5133635491
 20
8.065636337
 10
3.4443067801
 20
8.064523837
 10
3.3847476374
 20
8.063411337
 10
3.336186115
 20
8.062298837
 10
3.2998452325
 20
8.061186337
 10
3.2766402339
 20
8.060073837
 10
3.2670619882
 20
8.0589144799
  0
LINE
  5
6EB
100
AcDbEntity
  8
0
100
AcDbLine
 62
7
  6
CONTINUOUS
 10
4.4044325201
 20
8.0591823177
 11
4.4114223316
 21
8.0602613251
  0
LWPOLYLINE
  5
6EC
100
AcDbEntity
  8
0
100
AcDbPolyline
 62
7
  6
CONTINUOUS
 90
11
 70
0
 10
4.4114223316
 20
8.1042613496
 10
4.4042949191
 20
8.1031717521
 10
4.3829563751
 20
8.1020771785
 10
4.3476529868
 20
8.1009754103
 10
4.2996505652
 20
8.0998797205
 10
4.2398666618
 20
8.0987823832
 10
4.1691430034
 20
8.097674962
 10
4.0900251847
 20
8.0965713201
 10
4.0053107477
 20
8.0954809281
 10
3.9154208537
 20
8.0943818053
 10
3.7286559636
 20
8.0921556951
  0
LWPOLYLINE
  5
6ED
100
AcDbEntity
  8
0
100
AcDbPolyline
 62
7
  6
CONTINUOUS
 90
6
 70
0
 10
4.2937416638
 20
8.052761337
 10
4.3347987362
 20
8.053652565
 10
4.3679234065
 20
8.0545554699
 10
4.392072098
 20
8.0554628813
 10
4.406621458
 20
8.0563673758
 10
4.4112976948
 20
8.0571173889
  0
LWPOLYLINE
  5
6EE
100
AcDbEntity
  8
0
100
AcDbPolyline
 62
7
  6
CONTINUOUS
 90
6
 70
0
 10
4.2653168127
 20
8.032261337
 10
4.2088145298
 20
8.0311780037
 10
4.1430596424
 20
8.0300946704
 10
4.069622664
 20
8.029011337
 10
3.9902575893
 20
8.0279280037
 10
3.9068600014
 20
8.0268446704
  0
LWPOLYLINE
  5
6EF
100
AcDbEntity
  8
0
100
AcDbPolyline
 62
7
  6
CONTINUOUS
 90
6
 70
0
 10
4.2937416638
 20
8.052761337
 10
4.2337811629
 20
8.0516806571
 10
4.1640173389
 20
8.0505999407
 10
4.0861107102
 20
8.0495192301
 10
4.0019158942
 20
8.0484385595
 10
3.9134318804
 20
8.0473578966
  0
LWPOLYLINE
  5
6F0
100
AcDbEntity
  8
0
100
AcDbPolyline
 62
7
  6
CONTINUOUS
 90
7
 70
0
 10
3.9068600014
 20
8.0268446704
 10
3.7359836085
 20
8.0246780037
 10
3.6525860714
 20
8.0235946704
 10
3.5732210786
 20
8.022511337
 10
3.4997842083
 20
8.0214280037
 10
3.4340294492
 20
8.0203446704
 10
3.3775273076
 20
8.019261337
  0
LWPOLYLINE
  5
6F1
100
AcDbEntity
  8
0
100
AcDbPolyline
 62
7
  6
CONTINUOUS
 90
10
 70
0
 10
3.9134318804
 20
8.0473578966
 10
3.7320589569
 20
8.0451965766
 10
3.6434810493
 20
8.0441159238
 10
3.5591304988
 20
8.0430352485
 10
3.4810118027
 20
8.0419545418
 10
3.4109844642
 20
8.0408738379
 10
3.3507143855
 20
8.0397931669
 10
3.3016326585
 20
8.0387125183
 10
3.2649038427
 20
8.037631849
 10
3.2414017435
 20
8.0365511679
  0
LINE
  5
6F2
100
AcDbEntity
  8
0
100
AcDbLine
 62
7
  6
CONTINUOUS
 10
4.4063508501
 20
8.019261337
 11
3.2590068565
 21
8.019261337
  0
LINE
  5
6F3
100
AcDbEntity
  8
0
100
AcDbLine
 62
7
  6
CONTINUOUS
 10
3.2315469688
 20
8.2551173958
 11
3.2670619882
 21
8.2346081798
  0
LINE
  5
6F4
100
AcDbEntity
  8
0
100
AcDbLine
 62
7
  6
CONTINUOUS
 10
3.2315469686
 20
8.2991174081
 11
3.2670619861
 21
8.2786081932
  0
LWPOLYLINE
  5
6F5
100
AcDbEntity
  8
0
100
AcDbPolyline
 62
7
  6
CONTINUOUS
 90
4
 70
0
 10
3.0406391545
 20
8.856586405
 10
3.0407478092
 20
8.8564097497
 10
3.0408293728
 20
8.8559159623
 10
3.0408594604
 20
8.855236405
  0
LWPOLYLINE
  5
6F6
100
AcDbEntity
  8
0
100
AcDbPolyline
 62
7
  6
CONTINUOUS
 90
3
 70
0
 10
3.0406391545
 20
8.8980710323
 10
3.0407478092
 20
8.897894377
 10
3.0408293728
 20
8.8974005896
  0
LWPOLYLINE
  5
6F7
100
AcDbEntity
  8
0
100
AcDbPolyline
 62
7
  6
CONTINUOUS
 90
4
 70
0
 10
3.0792849299
 20
8.847735236
 10
3.0783669985
 20
8.8494648514
 10
3.0776417577
 20
8.8517260102
 10
3.0771384237
 20
8.8543964549
  0
LWPOLYLINE
  5
6F8
100
AcDbEntity
  8
0
100
AcDbPolyline
 62
7
  6
CONTINUOUS
 90
4
 70
0
 10
4.3757826773
 20
8.1686081755
 10
4.3725231195
 20
8.167986337
 10
4.3558953439
 20
8.166873837
 10
4.3258068678
 20
8.165761337
  0
LINE
  5
6F9
100
AcDbEntity
  8
0
100
AcDbLine
 62
7
  6
CONTINUOUS
 10
4.4114223316
 20
8.1482613334
 11
4.4054141597
 21
8.1472610992
  0
LWPOLYLINE
  5
6FA
100
AcDbEntity
  8
0
100
AcDbPolyline
 62
7
  6
CONTINUOUS
 90
10
 70
0
 10
4.4114223316
 20
8.1922613245
 10
4.4041641485
 20
8.1911617562
 10
4.382220262
 20
8.1900488586
 10
4.3461698701
 20
8.1889366677
 10
4.2976121075
 20
8.1878385503
 10
4.2377996497
 20
8.1867476439
 10
4.1669482183
 20
8.1856427454
 10
4.0873115081
 20
8.1845351675
 10
4.001902518
 20
8.1834383722
 10
3.9122196073
 20
8.1823433102
  0
LWPOLYLINE
  5
6FB
100
AcDbEntity
  8
0
100
AcDbPolyline
 62
7
  6
CONTINUOUS
 90
21
 70
0
 10
4.3757826762
 20
8.1246081918
 10
4.3667499302
 20
8.123486337
 10
4.3439998479
 20
8.122373837
 10
4.3080886953
 20
8.121261337
 10
4.2599208927
 20
8.120148837
 10
4.2007095425
 20
8.119036337
 10
4.1319458781
 20
8.117923837
 10
4.0553617067
 20
8.116811337
 10
3.9728857942
 20
8.115698837
 10
3.8865952893
 20
8.114586337
 10
3.7986634105
 20
8.113473837
 10
3.7113047142
 20
8.112361337
 10
3.6267193211
 20
8.111248837
 10
3.5470375063
 20
8.110136337
 10
3.4742660486
 20
8.109023837
 10
3.4102376903
 20
8.107911337
 10
3.3565649791
 20
8.106798837
 10
3.314599657
 20
8.105686337
 10
3.2853986164
 20
8.104573837
 10
3.2696972825
 20
8.103461337
 10
3.2670619882
 20
8.1029144979
  0
LWPOLYLINE
  5
6FC
100
AcDbEntity
  8
0
100
AcDbPolyline
 62
7
  6
CONTINUOUS
 90
3
 70
0
 10
3.2414017435
 20
8.0365511679
 10
3.2316854608
 20
8.0354705029
 10
3.2314223316
 20
8.0352613476
  0
LWPOLYLINE
  5
6FD
100
AcDbEntity
  8
0
100
AcDbPolyline
 62
7
  6
CONTINUOUS
 90
3
 70
0
 10
4.4054141597
 20
8.1472610992
 10
4.3875283466
 20
8.1462615532
 10
4.3581052089
 20
8.145261337
  0
LWPOLYLINE
  5
6FE
100
AcDbEntity
  8
0
100
AcDbPolyline
 62
7
  6
CONTINUOUS
 90
10
 70
0
 10
3.7286559636
 20
8.0921556951
 10
3.6387020864
 20
8.091056348
 10
3.5538030461
 20
8.0899644742
 10
3.475453976
 20
8.0888734373
 10
3.4052956108
 20
8.0877792167
 10
3.3453286909
 20
8.0866860453
 10
3.2967288327
 20
8.0855873982
 10
3.2606477526
 20
8.0844746961
 10
3.2386861347
 20
8.0833613329
 10
3.2315469688
 20
8.082405282
  0
LWPOLYLINE
  5
6FF
100
AcDbEntity
  8
0
100
AcDbPolyline
 62
7
  6
CONTINUOUS
 90
11
 70
0
 10
3.7278235857
 20
8.08914567
 10
3.914515505
 20
8.0913709014
 10
4.0044197346
 20
8.0924697803
 10
4.0893623888
 20
8.0935624665
 10
4.1678743091
 20
8.0946563195
 10
4.2377581495
 20
8.0957469526
 10
4.297602216
 20
8.0968383554
 10
4.3461645982
 20
8.0979365348
 10
4.3822178511
 20
8.0990487705
 10
4.4041635453
 20
8.1001617144
 10
4.4112976945
 20
8.1011173845
  0
LINE
  5
700
100
AcDbEntity
  8
0
100
AcDbLine
 62
7
  6
CONTINUOUS
 10
3.2315469687
 20
8.3431173794
 11
3.267061988
 21
8.3226081634
  0
LINE
  5
701
100
AcDbEntity
  8
0
100
AcDbLine
 62
7
  6
CONTINUOUS
 10
3.2315469688
 20
8.3871173949
 11
3.2670619883
 21
8.3666081789
  0
LWPOLYLINE
  5
702
100
AcDbEntity
  8
0
100
AcDbPolyline
 62
7
  6
CONTINUOUS
 90
3
 70
0
 10
3.043462518
 20
8.8845710323
 10
3.0433383189
 20
8.8847531485
 10
3.043247804
 20
8.8852523736
  0
LINE
  5
703
100
AcDbEntity
  8
0
100
AcDbLine
 62
7
  6
CONTINUOUS
 10
3.2315469686
 20
8.3904052955
 11
3.2314223316
 21
8.3902613517
  0
LINE
  5
704
100
AcDbEntity
  8
0
100
AcDbLine
 62
7
  6
CONTINUOUS
 10
3.2315469688
 20
8.3464052801
 11
3.2314223316
 21
8.3462613361
  0
LWPOLYLINE
  5
705
100
AcDbEntity
  8
0
100
AcDbPolyline
 62
7
  6
CONTINUOUS
 90
21
 70
0
 10
4.3757826761
 20
8.2566081912
 10
4.371468076
 20
8.255873837
 10
4.3534541606
 20
8.254761337
 10
4.3220410695
 20
8.253648837
 10
4.2780199392
 20
8.252536337
 10
4.2224994388
 20
8.251423837
 10
4.1568778477
 20
8.250311337
 10
4.0828078404
 20
8.249198837
 10
4.0021548635
 20
8.248086337
 10
3.9169501554
 20
8.246973837
 10
3.8293395888
 20
8.245861337
 10
3.7415296279
 20
8.244748837
 10
3.6557317584
 20
8.243636337
 10
3.5741067915
 20
8.242523837
 10
3.4987104441
 20
8.241411337
 10
3.4314415659
 20
8.240298837
 10
3.3739943172
 20
8.239186337
 10
3.3278155011
 20
8.238073837
 10
3.2940681266
 20
8.236961337
 10
3.2736021179
 20
8.235848837
 10
3.2670619882
 20
8.234914497
  0
LWPOLYLINE
  5
706
100
AcDbEntity
  8
0
100
AcDbPolyline
 62
7
  6
CONTINUOUS
 90
10
 70
0
 10
3.2314223316
 20
8.079261323
 10
3.2385569143
 20
8.080351469
 10
3.2598000569
 20
8.0814420779
 10
3.294905038
 20
8.0825397294
 10
3.3427463493
 20
8.0836338681
 10
3.4024783589
 20
8.0847318702
 10
3.4733496795
 20
8.0858425355
 10
3.5528631565
 20
8.0869519319
 10
3.6379512937
 20
8.0880469544
 10
3.7278235857
 20
8.08914567
  0
LWPOLYLINE
  5
707
100
AcDbEntity
  8
0
100
AcDbPolyline
 62
7
  6
CONTINUOUS
 90
10
 70
0
 10
4.4114223316
 20
8.236261349
 10
4.4041584736
 20
8.2351613502
 10
4.3821975784
 20
8.2340480169
 10
4.346120181
 20
8.2329354023
 10
4.2975262777
 20
8.2318368496
 10
4.2375839474
 20
8.2307440555
 10
4.1674931485
 20
8.2296507522
 10
4.0891161486
 20
8.2285592065
 10
4.0042017452
 20
8.2274670788
 10
3.9142523257
 20
8.2263677578
  0
LWPOLYLINE
  5
708
100
AcDbEntity
  8
0
100
AcDbPolyline
 62
7
  6
CONTINUOUS
 90
18
 70
0
 10
3.2380961374
 20
8.1683156379
 10
3.2582875438
 20
8.1693827322
 10
3.2915457951
 20
8.1704502635
 10
3.3365413103
 20
8.1715062947
 10
3.3918614351
 20
8.1725505424
 10
3.4574858005
 20
8.1736064106
 10
3.5318208118
 20
8.1746684462
 10
3.6123441663
 20
8.1757246463
 10
3.6969115553
 20
8.1767723098
 10
3.7849398438
 20
8.1778280517
 10
3.8736397312
 20
8.1788819344
 10
3.9604358562
 20
8.1799269814
 10
4.0442426101
 20
8.18097332
 10
4.124177171
 20
8.1820347651
 10
4.1976445788
 20
8.1831035297
 10
4.2620984001
 20
8.18416752
 10
4.3156940998
 20
8.185216168
 10
4.3581052089
 20
8.186261337
  0
LWPOLYLINE
  5
709
100
AcDbEntity
  8
0
100
AcDbPolyline
 62
7
  6
CONTINUOUS
 90
4
 70
0
 10
4.3581052089
 20
8.186261337
 10
4.3875283466
 20
8.1872615534
 10
4.4054141597
 20
8.1882610995
 10
4.4112976948
 20
8.1891173903
  0
LWPOLYLINE
  5
70A
100
AcDbEntity
  8
0
100
AcDbPolyline
 62
7
  6
CONTINUOUS
 90
18
 70
0
 10
4.3258068678
 20
8.165761337
 10
4.2830154698
 20
8.164648837
 10
4.2285988546
 20
8.163536337
 10
4.1639275062
 20
8.162423837
 10
4.0906301733
 20
8.161311337
 10
4.0105528493
 20
8.160198837
 10
3.9257122814
 20
8.159086337
 10
3.8382451779
 20
8.157973837
 10
3.7503543961
 20
8.156861337
 10
3.6642534629
 20
8.155748837
 10
3.5821108273
 20
8.154636337
 10
3.5059952484
 20
8.153523837
 10
3.4378236933
 20
8.152411337
 10
3.3793130588
 20
8.151298837
 10
3.3319369316
 20
8.150186337
 10
3.2968884757
 20
8.149073837
 10
3.2750503833
 20
8.147961337
 10
3.2670619861
 20
8.1469145095
  0
LWPOLYLINE
  5
70B
100
AcDbEntity
  8
0
100
AcDbPolyline
 62
7
  6
CONTINUOUS
 90
19
 70
0
 10
4.3581052089
 20
8.145261337
 10
4.3156940998
 20
8.144216168
 10
4.2620984001
 20
8.14316752
 10
4.1976445788
 20
8.1421035297
 10
4.124177171
 20
8.1410347651
 10
4.0442426101
 20
8.1399733199
 10
3.9604358562
 20
8.1389269814
 10
3.8736397312
 20
8.1378819343
 10
3.7849398438
 20
8.1368280516
 10
3.6969115553
 20
8.1357723097
 10
3.6123441663
 20
8.1347246461
 10
3.5318208118
 20
8.133668446
 10
3.4574858005
 20
8.1326064104
 10
3.3918614351
 20
8.1315505422
 10
3.3365413103
 20
8.1305062944
 10
3.2915457951
 20
8.1294502632
 10
3.2582875438
 20
8.1283827319
 10
3.2380961374
 20
8.1273156375
 10
3.2315469686
 20
8.1264052947
  0
LWPOLYLINE
  5
70C
100
AcDbEntity
  8
0
100
AcDbPolyline
 62
7
  6
CONTINUOUS
 90
11
 70
0
 10
3.7286559636
 20
8.1331556972
 10
3.9154208537
 20
8.1353818073
 10
4.0053107477
 20
8.13648093
 10
4.0900251847
 20
8.137571322
 10
4.1691430034
 20
8.1386749638
 10
4.2398666618
 20
8.139782385
 10
4.2996505652
 20
8.1408797222
 10
4.3476529868
 20
8.141975412
 10
4.3829563751
 20
8.1430771801
 10
4.4042949191
 20
8.1441717536
 10
4.4112976945
 20
8.1451174071
  0
LWPOLYLINE
  5
70D
100
AcDbEntity
  8
0
100
AcDbPolyline
 62
7
  6
CONTINUOUS
 90
11
 70
0
 10
3.9122196073
 20
8.1823433102
 10
3.7281924046
 20
8.1801501
 10
3.6390748196
 20
8.1790609773
 10
3.5536326248
 20
8.1779621819
 10
3.4738345615
 20
8.1768496573
 10
3.4027857103
 20
8.1757370459
 10
3.3429643227
 20
8.1746382885
 10
3.2952561652
 20
8.1735489502
 10
3.2601726886
 20
8.1724564638
 10
3.2386199415
 20
8.1713562806
 10
3.2315469687
 20
8.170405264
  0
LINE
  5
70E
100
AcDbEntity
  8
0
100
AcDbLine
 62
7
  6
CONTINUOUS
 10
3.2315469686
 20
8.4311174085
 11
3.2670619862
 21
8.4106081936
  0
LWPOLYLINE
  5
70F
100
AcDbEntity
  8
0
100
AcDbPolyline
 62
7
  6
CONTINUOUS
 90
3
 70
0
 10
3.0517088395
 20
8.843086405
 10
3.0515563747
 20
8.8432505374
 10
3.0514413347
 20
8.8437029509
  0
LWPOLYLINE
  5
710
100
AcDbEntity
  8
0
100
AcDbPolyline
 62
7
  6
CONTINUOUS
 90
4
 70
0
 10
3.0796966301
 20
8.8728075839
 10
3.0789319386
 20
8.8738018787
 10
3.0782549419
 20
8.8751700646
 10
3.0776875939
 20
8.8768701167
  0
LINE
  5
711
100
AcDbEntity
  8
0
100
AcDbLine
 62
7
  6
CONTINUOUS
 10
3.2315469686
 20
8.3024052643
 11
3.2314223316
 21
8.3022613205
  0
LINE
  5
712
100
AcDbEntity
  8
0
100
AcDbLine
 62
7
  6
CONTINUOUS
 10
3.2315469686
 20
8.2584052951
 11
3.2314223316
 21
8.2582613514
  0
LINE
  5
713
100
AcDbEntity
  8
0
100
AcDbLine
 62
7
  6
CONTINUOUS
 10
3.2315469688
 20
8.214405281
 11
3.2314223316
 21
8.214261337
  0
LWPOLYLINE
  5
714
100
AcDbEntity
  8
0
100
AcDbPolyline
 62
7
  6
CONTINUOUS
 90
22
 70
0
 10
4.375782676
 20
8.3886081907
 10
4.3745024366
 20
8.388261337
 10
4.361279832
 20
8.387148837
 10
4.3344609632
 20
8.386036337
 10
4.2947212616
 20
8.384923837
 10
4.2430615689
 20
8.383811337
 10
4.1807829303
 20
8.382698837
 10
4.1094538283
 20
8.381586337
 10
4.03087068
 20
8.380473837
 10
3.9470125952
 20
8.379361337
 10
3.8599915321
 20
8.378248837
 10
3.7719991083
 20
8.377136337
 10
3.6852514047
 20
8.376023837
 10
3.6019331539
 20
8.374911337
 10
3.5241427182
 20
8.373798837
 10
3.4538392422
 20
8.372686337
 10
3.392793312
 20
8.371573837
 10
3.3425423634
 20
8.370461337
 10
3.3043519616
 20
8.369348837
 10
3.2791839281
 20
8.368236337
 10
3.2676721172
 20
8.367123837
 10
3.2670619883
 20
8.3669144961
  0
LINE
  5
715
100
AcDbEntity
  8
0
100
AcDbLine
 62
7
  6
CONTINUOUS
 10
3.2314223316
 20
8.1672613513
 11
3.2380961374
 21
8.1683156379
  0
LWPOLYLINE
  5
716
100
AcDbEntity
  8
0
100
AcDbPolyline
 62
7
  6
CONTINUOUS
 90
10
 70
0
 10
4.3757826746
 20
8.3446081669
 10
4.3702714836
 20
8.343761337
 10
4.3508765261
 20
8.342648837
 10
4.3181473086
 20
8.341536337
 10
4.2729081129
 20
8.340423837
 10
4.2162982836
 20
8.339311337
 10
4.1497435338
 20
8.338198837
 10
4.0749200388
 20
8.337086337
 10
3.9937122217
 20
8.335973837
 10
3.9081652948
 20
8.334861337
  0
LWPOLYLINE
  5
717
100
AcDbEntity
  8
0
100
AcDbPolyline
 62
7
  6
CONTINUOUS
 90
10
 70
0
 10
4.4114223316
 20
8.3242613238
 10
4.4042201413
 20
8.3231660138
 10
4.3826016848
 20
8.3220634752
 10
4.347342839
 20
8.3209672532
 10
4.2996489172
 20
8.3198796614
 10
4.2398206681
 20
8.3187815834
 10
4.1687902056
 20
8.3176697548
 10
4.0890355701
 20
8.3165581091
 10
4.0036534745
 20
8.3154602117
 10
3.9145157534
 20
8.3143709004
  0
LWPOLYLINE
  5
718
100
AcDbEntity
  8
0
100
AcDbPolyline
 62
7
  6
CONTINUOUS
 90
10
 70
0
 10
3.2314223316
 20
8.1232613406
 10
3.2386861347
 20
8.1243613355
 10
3.2606477526
 20
8.1254746986
 10
3.2967288327
 20
8.1265874007
 10
3.3453286909
 20
8.1276860477
 10
3.4052956108
 20
8.128779219
 10
3.475453976
 20
8.1298734396
 10
3.5538030461
 20
8.1309644765
 10
3.6387020864
 20
8.1320563502
 10
3.7286559636
 20
8.1331556972
  0
LWPOLYLINE
  5
719
100
AcDbEntity
  8
0
100
AcDbPolyline
 62
7
  6
CONTINUOUS
 90
10
 70
0
 10
4.4114223316
 20
8.3682613484
 10
4.4041586316
 20
8.3671613615
 10
4.38219821
 20
8.3660480403
 10
4.3461214812
 20
8.3649354354
 10
4.2975320017
 20
8.3638369639
 10
4.2378099425
 20
8.3627478399
 10
4.1672520961
 20
8.3616472194
 10
4.0878210948
 20
8.3605419677
 10
4.0024765157
 20
8.3594455521
 10
3.9127048397
 20
8.3583491618
  0
LINE
  5
71A
100
AcDbEntity
  8
0
100
AcDbLine
 62
7
  6
CONTINUOUS
 10
4.409918884
 20
8.2797613033
 11
4.4054173134
 21
8.279261364
  0
LINE
  5
71B
100
AcDbEntity
  8
0
100
AcDbLine
 62
7
  6
CONTINUOUS
 10
4.4054173134
 20
8.279261364
 11
4.3979389826
 21
8.278761337
  0
LWPOLYLINE
  5
71C
100
AcDbEntity
  8
0
100
AcDbPolyline
 62
7
  6
CONTINUOUS
 90
4
 70
0
 10
4.3979389826
 20
8.319761337
 10
4.4054173134
 20
8.3202613641
 10
4.409918884
 20
8.3207613035
 10
4.4112976949
 20
8.3211173919
  0
LWPOLYLINE
  5
71D
100
AcDbEntity
  8
0
100
AcDbPolyline
 62
7
  6
CONTINUOUS
 90
20
 70
0
 10
4.3632433882
 20
8.299261337
 10
4.3377744178
 20
8.298148837
 10
4.2993011256
 20
8.297036337
 10
4.2487924633
 20
8.295923837
 10
4.1875204929
 20
8.294811337
 10
4.1170283496
 20
8.293698837
 10
4.0390913784
 20
8.292586337
 10
3.9556724212
 20
8.291473837
 10
3.8688723832
 20
8.290361337
 10
3.7808773215
 20
8.289248837
 10
3.6939033892
 20
8.288136337
 10
3.6101410217
 20
8.287023837
 10
3.5316997707
 20
8.285911337
 10
3.4605551753
 20
8.284798837
 10
3.3984990083
 20
8.283686337
 10
3.3470941502
 20
8.282573837
 10
3.3076352287
 20
8.281461337
 10
3.2811160131
 20
8.280348837
 10
3.2682043869
 20
8.279236337
 10
3.2670619861
 20
8.2789145099
  0
LWPOLYLINE
  5
71E
100
AcDbEntity
  8
0
100
AcDbPolyline
 62
7
  6
CONTINUOUS
 90
20
 70
0
 10
4.3979389826
 20
8.278761337
 10
4.3720510337
 20
8.2776885927
 10
4.3330903463
 20
8.2766116345
 10
4.2823822561
 20
8.2755409541
 10
4.2202599192
 20
8.2744596406
 10
4.1481202574
 20
8.2733708158
 10
4.0685150996
 20
8.2722874354
 10
3.9841365817
 20
8.2712179894
 10
3.8949668099
 20
8.2701365348
 10
3.803171457
 20
8.2690446888
 10
3.7120332269
 20
8.2679554318
 10
3.6247312016
 20
8.2668812239
 10
3.5422248811
 20
8.2658093945
 10
3.4663271912
 20
8.2647387659
 10
3.3987324209
 20
8.263668462
 10
3.3410192656
 20
8.2625987075
 10
3.2941831496
 20
8.2615207174
 10
3.2594874853
 20
8.2604299648
 10
3.2383959838
 20
8.2593391076
 10
3.2315469686
 20
8.2584052951
  0
LWPOLYLINE
  5
71F
100
AcDbEntity
  8
0
100
AcDbPolyline
 62
7
  6
CONTINUOUS
 90
10
 70
0
 10
3.9142523257
 20
8.2673677599
 10
4.0042017452
 20
8.2684670808
 10
4.0891161487
 20
8.2695592085
 10
4.1674931485
 20
8.2706507541
 10
4.2375839474
 20
8.2717440574
 10
4.2975262777
 20
8.2728368514
 10
4.346120181
 20
8.2739354041
 10
4.3821975784
 20
8.2750480186
 10
4.4041584736
 20
8.2761613518
 10
4.4112976945
 20
8.2771174066
  0
LWPOLYLINE
  5
720
100
AcDbEntity
  8
0
100
AcDbPolyline
 62
7
  6
CONTINUOUS
 90
11
 70
0
 10
3.7281924046
 20
8.2211501032
 10
3.9122196073
 20
8.2233433135
 10
4.001902518
 20
8.2244383755
 10
4.0873115081
 20
8.2255351708
 10
4.1669482183
 20
8.2266427487
 10
4.2377996497
 20
8.2277476472
 10
4.2976121075
 20
8.2288385537
 10
4.3461698701
 20
8.2299366711
 10
4.382220262
 20
8.231048862
 10
4.4041641485
 20
8.2321617595
 10
4.4112976945
 20
8.2331173838
  0
LWPOLYLINE
  5
721
100
AcDbEntity
  8
0
100
AcDbPolyline
 62
7
  6
CONTINUOUS
 90
11
 70
0
 10
3.9142523257
 20
8.2263677578
 10
3.7274964824
 20
8.2241417566
 10
3.6376107546
 20
8.2230427198
 10
3.5528289556
 20
8.2219514942
 10
3.4736123971
 20
8.2208464143
 10
3.4028520669
 20
8.219738184
 10
3.3430802748
 20
8.2186406598
 10
3.2951154996
 20
8.217545277
 10
3.2598603099
 20
8.2164444262
 10
3.2385516884
 20
8.2153510837
 10
3.2315469688
 20
8.214405281
  0
LWPOLYLINE
  5
722
100
AcDbEntity
  8
0
100
AcDbPolyline
 62
7
  6
CONTINUOUS
 90
3
 70
0
 10
3.0592301388
 20
8.8845710323
 10
3.059042058
 20
8.8847541467
 10
3.0589054254
 20
8.8852537123
  0
LWPOLYLINE
  5
723
100
AcDbEntity
  8
0
100
AcDbPolyline
 62
7
  6
CONTINUOUS
 90
3
 70
0
 10
3.0562454255
 20
8.8980710323
 10
3.0564235376
 20
8.8978880594
 10
3.0565538018
 20
8.897388559
  0
LINE
  5
724
100
AcDbEntity
  8
0
100
AcDbLine
 62
7
  6
CONTINUOUS
 10
3.2315469687
 20
8.170405264
 11
3.2314223316
 21
8.1702613202
  0
LINE
  5
725
100
AcDbEntity
  8
0
100
AcDbLine
 62
7
  6
CONTINUOUS
 10
3.2315469686
 20
8.1264052947
 11
3.2314223316
 21
8.126261351
  0
LINE
  5
726
100
AcDbEntity
  8
0
100
AcDbLine
 62
7
  6
CONTINUOUS
 10
3.2315469688
 20
8.082405282
 11
3.2314223316
 21
8.082261338
  0
LINE
  5
727
100
AcDbEntity
  8
0
100
AcDbLine
 62
7
  6
CONTINUOUS
 10
3.2670619862
 20
8.4109145103
 11
3.2315469686
 21
8.3904052955
  0
LWPOLYLINE
  5
728
100
AcDbEntity
  8
0
100
AcDbPolyline
 62
7
  6
CONTINUOUS
 90
11
 70
0
 10
3.2314223316
 20
8.2552613398
 10
3.2385516884
 20
8.2563510863
 10
3.2598603099
 20
8.2574444288
 10
3.2951154996
 20
8.2585452796
 10
3.3430802748
 20
8.2596406623
 10
3.4028520669
 20
8.2607381864
 10
3.4736123971
 20
8.2618464167
 10
3.5528289556
 20
8.2629514965
 10
3.6376107546
 20
8.2640427221
 10
3.7274964824
 20
8.2651417588
 10
3.9142523257
 20
8.2673677599
  0
LWPOLYLINE
  5
729
100
AcDbEntity
  8
0
100
AcDbPolyline
 62
7
  6
CONTINUOUS
 90
10
 70
0
 10
3.2314223316
 20
8.211261323
 10
3.2386199415
 20
8.2123562835
 10
3.2601726886
 20
8.2134564667
 10
3.2952561653
 20
8.2145489532
 10
3.3429643227
 20
8.2156382915
 10
3.4027857103
 20
8.216737049
 10
3.4738345615
 20
8.2178496604
 10
3.5536326248
 20
8.218962185
 10
3.6390748196
 20
8.2200609805
 10
3.7281924046
 20
8.2211501032
  0
LWPOLYLINE
  5
72A
100
AcDbEntity
  8
0
100
AcDbPolyline
 62
7
  6
CONTINUOUS
 90
10
 70
0
 10
4.4114223316
 20
8.412261337
 10
4.4041590173
 20
8.4111613812
 10
4.382199497
 20
8.4100480816
 10
4.3461221908
 20
8.4089354477
 10
4.2975278676
 20
8.4078368763
 10
4.2375165817
 20
8.4067429239
 10
4.1672210503
 20
8.4056467633
 10
4.0888946866
 20
8.4045562565
 10
4.0040364725
 20
8.4034650165
 10
3.9140661394
 20
8.4023655223
  0
LWPOLYLINE
  5
72B
100
AcDbEntity
  8
0
100
AcDbPolyline
 62
7
  6
CONTINUOUS
 90
21
 70
0
 10
4.3757826778
 20
8.432608179
 10
4.368932839
 20
8.431648837
 10
4.3481613404
 20
8.430536337
 10
4.3141239266
 20
8.429423837
 10
4.2676778317
 20
8.428311337
 10
4.209992802
 20
8.427198837
 10
4.1425216356
 20
8.426086337
 10
4.0669635939
 20
8.424973837
 10
3.9852216056
 20
8.423861337
 10
3.8993543413
 20
8.422748837
 10
3.811524366
 20
8.421636337
 10
3.7239436751
 20
8.420523837
 10
3.6388179851
 20
8.419411337
 10
3.5582911828
 20
8.418298837
 10
3.4843913318
 20
8.417186337
 10
3.4189795957
 20
8.416073837
 10
3.3637033651
 20
8.414961337
 10
3.3199547677
 20
8.413848837
 10
3.2888356083
 20
8.412736337
 10
3.2711296198
 20
8.411623837
 10
3.2670619862
 20
8.4109145103
  0
LWPOLYLINE
  5
72C
100
AcDbEntity
  8
0
100
AcDbPolyline
 62
7
  6
CONTINUOUS
 90
11
 70
0
 10
3.9081652948
 20
8.334861337
 10
3.7327271008
 20
8.332636337
 10
3.6472542316
 20
8.331523837
 10
3.566167771
 20
8.330411337
 10
3.4915098764
 20
8.329298837
 10
3.4251608023
 20
8.328186337
 10
3.3687915467
 20
8.327073837
 10
3.3238217665
 20
8.325961337
 10
3.2913840242
 20
8.324848837
 10
3.2722952636
 20
8.323736337
 10
3.267061988
 20
8.3229144802
  0
LWPOLYLINE
  5
72D
100
AcDbEntity
  8
0
100
AcDbPolyline
 62
7
  6
CONTINUOUS
 90
11
 70
0
 10
3.9145157534
 20
8.3143709004
 10
3.7310897592
 20
8.3121849128
 10
3.6415390561
 20
8.3110917095
 10
3.5560869381
 20
8.3099948352
 10
3.4762466811
 20
8.3088850236
 10
3.4050930327
 20
8.3077758027
 10
3.3450737592
 20
8.306680899
 10
3.2965770774
 20
8.3055834373
 10
3.2605785551
 20
8.304472033
 10
3.2386688242
 20
8.3033600003
 10
3.2315469686
 20
8.3024052643
  0
LWPOLYLINE
  5
72E
100
AcDbEntity
  8
0
100
AcDbPolyline
 62
7
  6
CONTINUOUS
 90
11
 70
0
 10
3.7310897592
 20
8.353184916
 10
3.9145157534
 20
8.3553709036
 10
4.0036534745
 20
8.3564602149
 10
4.0890355701
 20
8.3575581123
 10
4.1687902056
 20
8.3586697581
 10
4.2398206681
 20
8.3597815867
 10
4.2996489172
 20
8.3608796647
 10
4.347342839
 20
8.3619672565
 10
4.3826016848
 20
8.3630634785
 10
4.4042201413
 20
8.3641660171
 10
4.4112976945
 20
8.3651173832
  0
LWPOLYLINE
  5
72F
100
AcDbEntity
  8
0
100
AcDbPolyline
 62
7
  6
CONTINUOUS
 90
11
 70
0
 10
3.9127048397
 20
8.3583491618
 10
3.7280166628
 20
8.3561480091
 10
3.6389363503
 20
8.3550592703
 10
3.5534692649
 20
8.3539600264
 10
3.4736568263
 20
8.3528470663
 10
3.4026068227
 20
8.3517340516
 10
3.3427988173
 20
8.3506349489
 10
3.295074493
 20
8.349544199
 10
3.2600946639
 20
8.3484534759
 10
3.2386119765
 20
8.34735569
 10
3.2315469688
 20
8.3464052801
  0
LWPOLYLINE
  5
730
100
AcDbEntity
  8
0
100
AcDbPolyline
 62
7
  6
CONTINUOUS
 90
4
 70
0
 10
3.0722223466
 20
8.8980710323
 10
3.0724531095
 20
8.8978870551
 10
3.0726210494
 20
8.897387139
 10
3.0726809101
 20
8.8967210323
  0
LINE
  5
731
100
AcDbEntity
  8
0
100
AcDbLine
 62
7
  6
CONTINUOUS
 10
3.2314223316
 20
8.0382613171
 11
3.2315469687
 21
8.0384052639
  0
LINE
  5
732
100
AcDbEntity
  8
0
100
AcDbLine
 62
7
  6
CONTINUOUS
 10
3.2670619883
 20
8.3669144961
 11
3.2315469688
 21
8.3464052801
  0
LINE
  5
733
100
AcDbEntity
  8
0
100
AcDbLine
 62
7
  6
CONTINUOUS
 10
3.267061988
 20
8.3229144802
 11
3.2315469686
 21
8.3024052643
  0
LINE
  5
734
100
AcDbEntity
  8
0
100
AcDbLine
 62
7
  6
CONTINUOUS
 10
3.2670619861
 20
8.2789145099
 11
3.2315469686
 21
8.2584052951
  0
LWPOLYLINE
  5
735
100
AcDbEntity
  8
0
100
AcDbPolyline
 62
7
  6
CONTINUOUS
 90
20
 70
0
 10
3.2314223316
 20
8.2992613518
 10
3.2383959838
 20
8.300339108
 10
3.2594874853
 20
8.3014299652
 10
3.2941831496
 20
8.3025207177
 10
3.3410192656
 20
8.3035987078
 10
3.3987324209
 20
8.3046684622
 10
3.4663271912
 20
8.3057387661
 10
3.5422248811
 20
8.3068093947
 10
3.6247312016
 20
8.3078812241
 10
3.7120332269
 20
8.308955432
 10
3.803171457
 20
8.3100446889
 10
3.8949668099
 20
8.3111365349
 10
3.9841365817
 20
8.3122179895
 10
4.0685150996
 20
8.3132874355
 10
4.1481202574
 20
8.3143708159
 10
4.2202599192
 20
8.3154596406
 10
4.2823822561
 20
8.3165409542
 10
4.3330903463
 20
8.3176116345
 10
4.3720510337
 20
8.3186885927
 10
4.3979389826
 20
8.319761337
  0
LWPOLYLINE
  5
736
100
AcDbEntity
  8
0
100
AcDbPolyline
 62
7
  6
CONTINUOUS
 90
10
 70
0
 10
3.2314223316
 20
8.3432613232
 10
3.2386688242
 20
8.3443600031
 10
3.2605785551
 20
8.3454720358
 10
3.2965770774
 20
8.3465834402
 10
3.3450737592
 20
8.3476809019
 10
3.4050930327
 20
8.3487758057
 10
3.4762466811
 20
8.3498850267
 10
3.5560869381
 20
8.3509948383
 10
3.6415390561
 20
8.3520917126
 10
3.7310897592
 20
8.353184916
  0
LWPOLYLINE
  5
737
100
AcDbEntity
  8
0
100
AcDbPolyline
 62
7
  6
CONTINUOUS
 90
3
 70
0
 10
4.382199497
 20
8.4510480816
 10
4.4041590173
 20
8.4521613812
 10
4.4112976949
 20
8.4531173936
  0
LWPOLYLINE
  5
738
100
AcDbEntity
  8
0
100
AcDbPolyline
 62
7
  6
CONTINUOUS
 90
10
 70
0
 10
3.9127048397
 20
8.399349164
 10
4.0024765157
 20
8.4004455542
 10
4.0878210948
 20
8.4015419697
 10
4.1672520961
 20
8.4026472215
 10
4.2378099425
 20
8.4037478418
 10
4.2975320017
 20
8.4048369658
 10
4.3461214812
 20
8.4059354372
 10
4.38219821
 20
8.4070480421
 10
4.4041586316
 20
8.4081613632
 10
4.4112976945
 20
8.4091174061
  0
LWPOLYLINE
  5
739
100
AcDbEntity
  8
0
100
AcDbPolyline
 62
7
  6
CONTINUOUS
 90
11
 70
0
 10
3.9140661394
 20
8.4023655223
 10
3.7272957585
 20
8.4001393481
 10
3.6374154592
 20
8.3990402864
 10
3.5527978779
 20
8.3979510872
 10
3.4738967303
 20
8.3968505999
 10
3.4032627547
 20
8.3957451067
 10
3.3434605206
 20
8.3946483744
 10
3.2953734383
 20
8.3935520564
 10
3.2599612269
 20
8.3924483408
 10
3.2385451878
 20
8.3913505995
 10
3.2315469686
 20
8.3904052955
  0
LWPOLYLINE
  5
73A
100
AcDbEntity
  8
0
100
AcDbPolyline
 62
7
  6
CONTINUOUS
 90
9
 70
0
 10
3.7272957585
 20
8.4411393483
 10
3.9140661394
 20
8.4433655224
 10
4.0040364725
 20
8.4444650166
 10
4.0888946866
 20
8.4455562566
 10
4.1672210503
 20
8.4466467633
 10
4.2375165817
 20
8.447742924
 10
4.2975278676
 20
8.4488368764
 10
4.3461221908
 20
8.4499354477
 10
4.382199497
 20
8.4510480816
  0
LINE
  5
73B
100
AcDbEntity
  8
0
100
AcDbLine
 62
7
  6
CONTINUOUS
 10
4.4063519046
 20
8.019261337
 11
4.3757826771
 21
8.0369144902
  0
LINE
  5
73C
100
AcDbEntity
  8
0
100
AcDbLine
 62
7
  6
CONTINUOUS
 10
4.4112976945
 20
8.0604052691
 11
4.3757826746
 21
8.0809144854
  0
LINE
  5
73D
100
AcDbEntity
  8
0
100
AcDbLine
 62
7
  6
CONTINUOUS
 10
3.2670619882
 20
8.234914497
 11
3.2315469688
 21
8.214405281
  0
LINE
  5
73E
100
AcDbEntity
  8
0
100
AcDbLine
 62
7
  6
CONTINUOUS
 10
3.2670619881
 20
8.19091448
 11
3.2315469687
 21
8.170405264
  0
LWPOLYLINE
  5
73F
100
AcDbEntity
  8
0
100
AcDbPolyline
 62
7
  6
CONTINUOUS
 90
10
 70
0
 10
3.2314223316
 20
8.4312613522
 10
3.2385451878
 20
8.4323506
 10
3.2599612269
 20
8.4334483412
 10
3.2953734383
 20
8.4345520568
 10
3.3434605206
 20
8.4356483747
 10
3.4032627547
 20
8.436745107
 10
3.4738967303
 20
8.4378506002
 10
3.5527978779
 20
8.4389510874
 10
3.6374154592
 20
8.4400402866
 10
3.7272957585
 20
8.4411393483
  0
LWPOLYLINE
  5
740
100
AcDbEntity
  8
0
100
AcDbPolyline
 62
7
  6
CONTINUOUS
 90
11
 70
0
 10
3.2314223316
 20
8.3872613389
 10
3.2386119765
 20
8.3883556928
 10
3.2600946639
 20
8.3894534786
 10
3.295074493
 20
8.3905442016
 10
3.3427988173
 20
8.3916349515
 10
3.4026068227
 20
8.3927340541
 10
3.4736568263
 20
8.3938470687
 10
3.5534692649
 20
8.3949600288
 10
3.6389363503
 20
8.3960592727
 10
3.7280166628
 20
8.3971480114
 10
3.9127048397
 20
8.399349164
  0
LINE
  5
741
100
AcDbEntity
  8
0
100
AcDbLine
 62
7
  6
CONTINUOUS
 10
4.4114223316
 20
8.453261337
 11
3.2314223316
 21
8.453261337
  0
LINE
  5
742
100
AcDbEntity
  8
0
100
AcDbLine
 62
9
  6
CONTINUOUS
 10
4.3951723316
 20
8.478261337
 11
3.2476723316
 21
8.478261337
  0
LINE
  5
743
100
AcDbEntity
  8
0
100
AcDbLine
 62
7
  6
CONTINUOUS
 10
4.5524223316
 20
8.503261337
 11
3.0904223316
 21
8.503261337
  0
LWPOLYLINE
  5
744
100
AcDbEntity
  8
0
100
AcDbPolyline
 62
7
  6
CONTINUOUS
 90
4
 70
0
 10
3.1284249181
 20
8.856586405
 10
3.1287977203
 20
8.8564045769
 10
3.1290727237
 20
8.855901468
 10
3.1291695453
 20
8.855236405
  0
LWPOLYLINE
  5
745
100
AcDbEntity
  8
0
100
AcDbPolyline
 62
7
  6
CONTINUOUS
 90
4
 70
0
 10
3.1440778979
 20
8.856586405
 10
3.1437054887
 20
8.8567735516
 10
3.1434373697
 20
8.8572814557
 10
3.1433456046
 20
8.8579364038
  0
LINE
  5
746
100
AcDbEntity
  8
0
100
AcDbLine
 62
7
  6
CONTINUOUS
 10
4.4112976945
 20
8.1044052935
 11
4.3757826762
 21
8.1249145088
  0
LINE
  5
747
100
AcDbEntity
  8
0
100
AcDbLine
 62
7
  6
CONTINUOUS
 10
4.4112976949
 20
8.1484052769
 11
4.3757826773
 21
8.1689144917
  0
LINE
  5
748
100
AcDbEntity
  8
0
100
AcDbLine
 62
7
  6
CONTINUOUS
 10
3.2670619861
 20
8.1469145095
 11
3.2315469686
 21
8.1264052947
  0
LINE
  5
749
100
AcDbEntity
  8
0
100
AcDbLine
 62
7
  6
CONTINUOUS
 10
3.2670619882
 20
8.1029144979
 11
3.2315469688
 21
8.082405282
  0
LINE
  5
74A
100
AcDbEntity
  8
0
100
AcDbLine
 62
9
  6
CONTINUOUS
 10
4.6124223316
 20
8.563261337
 11
3.0304223316
 21
8.563261337
  0
LWPOLYLINE
  5
74B
100
AcDbEntity
  8
0
100
AcDbPolyline
 62
7
  6
CONTINUOUS
 90
4
 70
0
 10
3.1284249181
 20
8.8980710323
 10
3.1287977203
 20
8.8978892042
 10
3.1290727237
 20
8.8973860954
 10
3.1291695453
 20
8.8967210323
  0
LINE
  5
74C
100
AcDbEntity
  8
0
100
AcDbLine
 62
7
  6
CONTINUOUS
 10
4.4112976945
 20
8.1924052684
 11
4.3757826746
 21
8.2129144847
  0
LINE
  5
74D
100
AcDbEntity
  8
0
100
AcDbLine
 62
7
  6
CONTINUOUS
 10
4.4112976945
 20
8.2364052929
 11
4.3757826761
 21
8.2569145083
  0
LINE
  5
74E
100
AcDbEntity
  8
0
100
AcDbLine
 62
7
  6
CONTINUOUS
 10
3.2670619882
 20
8.0589144799
 11
3.2315469687
 21
8.0384052639
  0
LWPOLYLINE
  5
74F
100
AcDbEntity
  8
0
100
AcDbPolyline
 62
7
  6
CONTINUOUS
 90
4
 70
0
 10
3.0858070793
 20
8.843086405
 10
3.0834719157
 20
8.8436212507
 10
3.0812693492
 20
8.845203465
 10
3.0792849299
 20
8.847735236
  0
LWPOLYLINE
  5
750
100
AcDbEntity
  8
0
100
AcDbPolyline
 62
7
  6
CONTINUOUS
 90
4
 70
0
 10
3.0304223317
 20
8.9696185349
 10
3.0321800942
 20
8.9689415914
 10
3.0366916064
 20
8.9671894758
 10
3.0430350146
 20
8.9646878373
  0
LWPOLYLINE
  5
751
100
AcDbEntity
  8
0
100
AcDbPolyline
 62
7
  6
CONTINUOUS
 90
27
 70
0
 10
3.0430350146
 20
8.9646878373
 10
3.050526507
 20
8.9616715853
 10
3.058680397
 20
8.9583051232
 10
3.067181903
 20
8.9546908233
 10
3.0757978604
 20
8.9509050997
 10
3.0842589568
 20
8.9470488809
 10
3.0923507474
 20
8.9432122668
 10
3.0999881467
 20
8.9394355186
 10
3.107149494
 20
8.9357323197
 10
3.1138545757
 20
8.932097625
 10
3.1201220535
 20
8.9285259199
 10
3.125951849
 20
8.9250219603
 10
3.1313532794
 20
8.9215868527
 10
3.1363444833
 20
8.9182163051
 10
3.1409294075
 20
8.9149153402
 10
3.1451133724
 20
8.9116897376
 10
3.1489445069
 20
8.9085115415
 10
3.1524885682
 20
8.9053269668
 10
3.1558041272
 20
8.9020687548
 10
3.1588491857
 20
8.8987545239
 10
3.1615288372
 20
8.8954803431
 10
3.1638596997
 20
8.8922340657
 10
3.1659308944
 20
8.888866655
 10
3.167805967
 20
8.8851424636
 10
3.1693923868
 20
8.8809417635
 10
3.1704999255
 20
8.8762384467
 10
3.1708986964
 20
8.871261337
  0
LINE
  5
752
100
AcDbEntity
  8
0
100
AcDbLine
 62
7
  6
CONTINUOUS
 10
4.4112976949
 20
8.2804052786
 11
4.3757826775
 21
8.3009144934
  0
LINE
  5
753
100
AcDbEntity
  8
0
100
AcDbLine
 62
7
  6
CONTINUOUS
 10
4.4112976945
 20
8.3244052677
 11
4.3757826746
 21
8.344914484
  0
LINE
  5
754
100
AcDbEntity
  8
0
100
AcDbLine
 62
7
  6
CONTINUOUS
 10
4.4112976945
 20
8.3684052923
 11
4.375782676
 21
8.3889145078
  0
LINE
  5
755
100
AcDbEntity
  8
0
100
AcDbLine
 62
7
  6
CONTINUOUS
 10
4.3759152901
 20
8.432761337
 11
4.4114223316
 21
8.412261337
  0
LWPOLYLINE
  5
756
100
AcDbEntity
  8
0
100
AcDbPolyline
 62
7
  6
CONTINUOUS
 90
21
 70
0
 10
3.2315469687
 20
8.0384052639
 10
3.2324840425
 20
8.0386814949
 10
3.244890253
 20
8.0397604583
 10
3.2709559829
 20
8.0408394253
 10
3.3100639705
 20
8.0419183999
 10
3.3612873576
 20
8.0429973718
 10
3.4234131984
 20
8.0440763534
 10
3.4949704848
 20
8.0451553542
 10
3.5742625272
 20
8.0462343526
 10
3.6594089745
 20
8.047313329
 10
3.7483947872
 20
8.048392315
 10
3.8391132294
 20
8.0494713291
 10
3.9294127373
 20
8.0505503462
 10
4.0171512736
 20
8.0516293359
 10
4.1002513734
 20
8.0527083132
 10
4.1767454128
 20
8.0537872938
 10
4.2448203466
 20
8.0548662677
 10
4.3028639212
 20
8.0559452443
 10
4.3495014202
 20
8.0570242392
 10
4.3836277904
 20
8.0581032746
 10
4.4044325201
 20
8.0591823177
  0
LINE
  5
757
100
AcDbEntity
  8
0
100
AcDbLine
 62
7
  6
CONTINUOUS
 10
3.0304550598
 20
8.843086405
 11
3.0336148591
 21
8.843086405
  0
LINE
  5
758
100
AcDbEntity
  8
0
100
AcDbLine
 62
7
  6
CONTINUOUS
 10
3.0517088395
 20
8.843086405
 11
3.0805595916
 21
8.843086405
  0
LINE
  5
759
100
AcDbEntity
  8
0
100
AcDbLine
 62
7
  6
CONTINUOUS
 10
3.0336993985
 20
8.843086405
 11
3.0514413347
 21
8.843086405
  0
LINE
  5
75A
100
AcDbEntity
  8
0
100
AcDbLine
 62
7
  6
CONTINUOUS
 10
3.08580708
 20
8.843086405
 11
3.1513436682
 21
8.843086405
  0
LINE
  5
75B
100
AcDbEntity
  8
0
100
AcDbLine
 62
9
  6
CONTINUOUS
 10
3.0600881953
 20
8.8437131159
 11
3.080888965
 21
8.8437131159
  0
LINE
  5
75C
100
AcDbEntity
  8
0
100
AcDbLine
 62
7
  6
CONTINUOUS
 10
4.3757826778
 20
8.432608179
 11
4.4112976949
 21
8.4531173936
  0
LINE
  5
75D
100
AcDbEntity
  8
0
100
AcDbLine
 62
7
  6
CONTINUOUS
 10
4.375782676
 20
8.3886081907
 11
4.4112976945
 21
8.4091174061
  0
LWPOLYLINE
  5
75E
100
AcDbEntity
  8
0
100
AcDbPolyline
 62
7
  6
CONTINUOUS
 90
3
 70
0
 10
4.3757826775
 20
8.3006081772
 10
4.375066598
 20
8.300373837
 10
4.3632433882
 20
8.299261337
  0
LINE
  5
75F
100
AcDbEntity
  8
0
100
AcDbLine
 62
9
  6
CONTINUOUS
 10
3.0408594604
 20
8.844436405
 11
3.0514413347
 21
8.844436405
  0
LINE
  5
760
100
AcDbEntity
  8
0
100
AcDbLine
 62
9
  6
CONTINUOUS
 10
3.03193589
 20
8.844436405
 11
3.0336148591
 21
8.844436405
  0
LINE
  5
761
100
AcDbEntity
  8
0
100
AcDbLine
 62
9
  6
CONTINUOUS
 10
3.1291695453
 20
8.844436405
 11
3.1521137927
 21
8.844436405
  0
LINE
  5
762
100
AcDbEntity
  8
0
100
AcDbLine
 62
9
  6
CONTINUOUS
 10
3.0408594604
 20
8.855236405
 11
3.0497517005
 21
8.855236405
  0
LINE
  5
763
100
AcDbEntity
  8
0
100
AcDbLine
 62
9
  6
CONTINUOUS
 10
3.03193589
 20
8.855236405
 11
3.0326314982
 21
8.855236405
  0
LINE
  5
764
100
AcDbEntity
  8
0
100
AcDbLine
 62
9
  6
CONTINUOUS
 10
3.1291695453
 20
8.855236405
 11
3.1521137927
 21
8.855236405
  0
LINE
  5
765
100
AcDbEntity
  8
0
100
AcDbLine
 62
7
  6
CONTINUOUS
 10
3.0315616806
 20
8.856586405
 11
3.0313031439
 21
8.856586405
  0
LINE
  5
766
100
AcDbEntity
  8
0
100
AcDbLine
 62
7
  6
CONTINUOUS
 10
3.0390562607
 20
8.856586405
 11
3.0495539275
 21
8.856586405
  0
LINE
  5
767
100
AcDbEntity
  8
0
100
AcDbLine
 62
7
  6
CONTINUOUS
 10
3.0318534143
 20
8.856586405
 11
3.0325187728
 21
8.856586405
  0
LINE
  5
768
100
AcDbEntity
  8
0
100
AcDbLine
 62
7
  6
CONTINUOUS
 10
3.0937128803
 20
8.856586405
 11
3.1043709323
 21
8.856586405
  0
LINE
  5
769
100
AcDbEntity
  8
0
100
AcDbLine
 62
7
  6
CONTINUOUS
 10
3.121397005
 20
8.856586405
 11
3.1513436682
 21
8.856586405
  0
LINE
  5
76A
100
AcDbEntity
  8
0
100
AcDbLine
 62
7
  6
CONTINUOUS
 10
3.0577570225
 20
8.8568832977
 11
3.0568549043
 21
8.8568832977
  0
LINE
  5
76B
100
AcDbEntity
  8
0
100
AcDbLine
 62
9
  6
CONTINUOUS
 10
3.0565552141
 20
8.8574998437
 11
3.0577570225
 21
8.8574998437
  0
LINE
  5
76C
100
AcDbEntity
  8
0
100
AcDbLine
 62
9
  6
CONTINUOUS
 10
3.0388563367
 20
8.857936405
 11
3.0493561545
 21
8.857936405
  0
LINE
  5
76D
100
AcDbEntity
  8
0
100
AcDbLine
 62
9
  6
CONTINUOUS
 10
3.0312405372
 20
8.857936405
 11
3.0324060473
 21
8.857936405
  0
LINE
  5
76E
100
AcDbEntity
  8
0
100
AcDbLine
 62
9
  6
CONTINUOUS
 10
3.1206883965
 20
8.857936405
 11
3.1433456046
 21
8.857936405
  0
LINE
  5
76F
100
AcDbEntity
  8
0
100
AcDbLine
 62
9
  6
CONTINUOUS
 10
3.0555223734
 20
8.8636179801
 11
3.058815572
 21
8.8636179801
  0
LINE
  5
770
100
AcDbEntity
  8
0
100
AcDbLine
 62
7
  6
CONTINUOUS
 10
3.058815572
 20
8.8657014341
 11
3.0558157981
 21
8.8657014341
  0
LINE
  5
771
100
AcDbEntity
  8
0
100
AcDbLine
 62
7
  6
CONTINUOUS
 10
3.0937128803
 20
8.866036405
 11
3.1043709323
 21
8.866036405
  0
LINE
  5
772
100
AcDbEntity
  8
0
100
AcDbLine
 62
7
  6
CONTINUOUS
 10
3.0937128803
 20
8.8751210323
 11
3.1043709323
 21
8.8751210323
  0
LINE
  5
773
100
AcDbEntity
  8
0
100
AcDbLine
 62
7
  6
CONTINUOUS
 10
3.0601101134
 20
8.8771290432
 11
3.055000433
 21
8.8771290432
  0
LINE
  5
774
100
AcDbEntity
  8
0
100
AcDbLine
 62
9
  6
CONTINUOUS
 10
3.0547120016
 20
8.8777455891
 11
3.0604324596
 21
8.8777455891
  0
LINE
  5
775
100
AcDbEntity
  8
0
100
AcDbLine
 62
9
  6
CONTINUOUS
 10
3.0539399903
 20
8.8824875782
 11
3.0609649858
 21
8.8824875782
  0
LINE
  5
776
100
AcDbEntity
  8
0
100
AcDbLine
 62
9
  6
CONTINUOUS
 10
3.0388563367
 20
8.8832210323
 11
3.0455492245
 21
8.8832210323
  0
LINE
  5
777
100
AcDbEntity
  8
0
100
AcDbLine
 62
9
  6
CONTINUOUS
 10
3.1206883965
 20
8.8832210323
 11
3.1433456046
 21
8.8832210323
  0
LINE
  5
778
100
AcDbEntity
  8
0
100
AcDbLine
 62
9
  6
CONTINUOUS
 10
3.0677501604
 20
8.8839443213
 11
3.0768175588
 21
8.8839443213
  0
LINE
  5
779
100
AcDbEntity
  8
0
100
AcDbLine
 62
7
  6
CONTINUOUS
 10
3.0455492245
 20
8.8845710323
 11
3.043462518
 21
8.8845710323
  0
LINE
  5
77A
100
AcDbEntity
  8
0
100
AcDbLine
 62
7
  6
CONTINUOUS
 10
3.0609649858
 20
8.8845710323
 11
3.0592301388
 21
8.8845710323
  0
LINE
  5
77B
100
AcDbEntity
  8
0
100
AcDbLine
 62
7
  6
CONTINUOUS
 10
3.0363348812
 20
8.8845710323
 11
3.0350515293
 21
8.8845710323
  0
LINE
  5
77C
100
AcDbEntity
  8
0
100
AcDbLine
 62
7
  6
CONTINUOUS
 10
3.0390562607
 20
8.8845710323
 11
3.0432155156
 21
8.8845710323
  0
LINE
  5
77D
100
AcDbEntity
  8
0
100
AcDbLine
 62
7
  6
CONTINUOUS
 10
3.0542235981
 20
8.8845710323
 11
3.0588567662
 21
8.8845710323
  0
LINE
  5
77E
100
AcDbEntity
  8
0
100
AcDbLine
 62
7
  6
CONTINUOUS
 10
3.0681142851
 20
8.8845710323
 11
3.0769388209
 21
8.8845710323
  0
LINE
  5
77F
100
AcDbEntity
  8
0
100
AcDbLine
 62
7
  6
CONTINUOUS
 10
3.0937128803
 20
8.8845710323
 11
3.1043709323
 21
8.8845710323
  0
LINE
  5
780
100
AcDbEntity
  8
0
100
AcDbLine
 62
7
  6
CONTINUOUS
 10
3.121397005
 20
8.8845710323
 11
3.1513436682
 21
8.8845710323
  0
LINE
  5
781
100
AcDbEntity
  8
0
100
AcDbLine
 62
9
  6
CONTINUOUS
 10
3.0408594604
 20
8.8859210323
 11
3.0432155156
 21
8.8859210323
  0
LINE
  5
782
100
AcDbEntity
  8
0
100
AcDbLine
 62
9
  6
CONTINUOUS
 10
3.0566003747
 20
8.8859210323
 11
3.0588567662
 21
8.8859210323
  0
LINE
  5
783
100
AcDbEntity
  8
0
100
AcDbLine
 62
9
  6
CONTINUOUS
 10
3.0726809101
 20
8.8859210323
 11
3.0768175588
 21
8.8859210323
  0
LINE
  5
784
100
AcDbEntity
  8
0
100
AcDbLine
 62
9
  6
CONTINUOUS
 10
3.1291695453
 20
8.8859210323
 11
3.1521137927
 21
8.8859210323
  0
LINE
  5
785
100
AcDbEntity
  8
0
100
AcDbLine
 62
9
  6
CONTINUOUS
 10
3.0408594604
 20
8.8967210323
 11
3.043462518
 21
8.8967210323
  0
LINE
  5
786
100
AcDbEntity
  8
0
100
AcDbLine
 62
9
  6
CONTINUOUS
 10
3.0566003747
 20
8.8967210323
 11
3.0588567662
 21
8.8967210323
  0
LINE
  5
787
100
AcDbEntity
  8
0
100
AcDbLine
 62
9
  6
CONTINUOUS
 10
3.0726809101
 20
8.8967210323
 11
3.0809567855
 21
8.8967210323
  0
LINE
  5
788
100
AcDbEntity
  8
0
100
AcDbLine
 62
9
  6
CONTINUOUS
 10
3.1291695453
 20
8.8967210323
 11
3.1521137927
 21
8.8967210323
  0
LINE
  5
789
100
AcDbEntity
  8
0
100
AcDbLine
 62
9
  6
CONTINUOUS
 10
3.032784498
 20
8.8976977652
 11
3.0350515293
 21
8.8976977652
  0
LINE
  5
78A
100
AcDbEntity
  8
0
100
AcDbLine
 62
7
  6
CONTINUOUS
 10
3.0306671136
 20
8.8980710323
 11
3.0588567662
 21
8.8980710323
  0
LINE
  5
78B
100
AcDbEntity
  8
0
100
AcDbLine
 62
7
  6
CONTINUOUS
 10
3.0592301388
 20
8.8980710323
 11
3.1513436682
 21
8.8980710323
  0
LINE
  5
78C
100
AcDbEntity
  8
0
100
AcDbLine
 62
7
  6
CONTINUOUS
 10
4.3757826746
 20
8.3446081669
 11
4.4112976945
 21
8.3651173832
  0
LINE
  5
78D
100
AcDbEntity
  8
0
100
AcDbLine
 62
7
  6
CONTINUOUS
 10
4.3757826775
 20
8.3006081772
 11
4.4112976949
 21
8.3211173919
  0
LINE
  5
78E
100
AcDbEntity
  8
0
100
AcDbLine
 62
7
  6
CONTINUOUS
 10
4.4114223316
 20
8.2802613352
 11
4.409918884
 21
8.2797613033
  0
LINE
  5
78F
100
AcDbEntity
  8
02___PRT_ALL_AXES
100
AcDbLine
 62
7
  6
CONTINUOUS
 10
4.3686664261
 20
8.019261337
 11
4.3686664261
 21
7.708237715
  0
LINE
  5
790
100
AcDbEntity
  8
0
100
AcDbLine
 62
7
  6
CONTINUOUS
 10
4.3686664261
 20
8.019261337
 11
4.3686664261
 21
7.708237715
  0
LINE
  5
791
100
AcDbEntity
  8
0
100
AcDbLine
 62
7
  6
CONTINUOUS
 10
4.4112976949
 20
8.4531173936
 11
4.4114223316
 21
8.453261337
  0
LINE
  5
792
100
AcDbEntity
  8
0
100
AcDbLine
 62
7
  6
CONTINUOUS
 10
4.4112976945
 20
8.4091174061
 11
4.4114223316
 21
8.40926135
  0
LINE
  5
793
100
AcDbEntity
  8
0
100
AcDbLine
 62
7
  6
CONTINUOUS
 10
4.4112976945
 20
8.3651173832
 11
4.4114223316
 21
8.3652613271
  0
LINE
  5
794
100
AcDbEntity
  8
0
100
AcDbLine
 62
7
  6
CONTINUOUS
 10
4.3757826761
 20
8.2566081912
 11
4.4112976945
 21
8.2771174066
  0
LINE
  5
795
100
AcDbEntity
  8
0
100
AcDbLine
 62
7
  6
CONTINUOUS
 10
4.3757826746
 20
8.2126081675
 11
4.4112976945
 21
8.2331173838
  0
LWPOLYLINE
  5
796
100
AcDbEntity
  8
0
100
AcDbPolyline
 62
7
  6
CONTINUOUS
 90
22
 70
0
 10
4.3757826746
 20
8.2126081675
 10
4.3754878277
 20
8.212486337
 10
4.3650670799
 20
8.211373837
 10
4.3409546855
 20
8.210261337
 10
4.3037579124
 20
8.209148837
 10
4.2544135573
 20
8.208036337
 10
4.1941643529
 20
8.206923837
 10
4.1245276696
 20
8.205811337
 10
4.0472573011
 20
8.204698837
 10
3.9642992948
 20
8.203586337
 10
3.8777429412
 20
8.202473837
 10
3.7897681549
 20
8.201361337
 10
3.7025905742
 20
8.200248837
 10
3.6184057601
 20
8.199136337
 10
3.5393339011
 20
8.198023837
 10
3.467366417
 20
8.196911337
 10
3.4043158044
 20
8.195798837
 10
3.3517699895
 20
8.194686337
 10
3.3110523364
 20
8.193573837
 10
3.2831883176
 20
8.192461337
 10
3.2688796882
 20
8.191348837
 10
3.2670619881
 20
8.19091448
  0
LINE
  5
797
100
AcDbEntity
  8
0
100
AcDbLine
 62
7
  6
CONTINUOUS
 10
4.3951723316
 20
8.478261337
 11
4.3951723316
 21
8.453261337
  0
LINE
  5
798
100
AcDbEntity
  8
0
100
AcDbLine
 62
7
  6
CONTINUOUS
 10
4.4114223316
 20
8.453261337
 11
4.4114223316
 21
8.40926135
  0
LINE
  5
799
100
AcDbEntity
  8
0
100
AcDbLine
 62
7
  6
CONTINUOUS
 10
4.4114223316
 20
8.3682613484
 11
4.4114223316
 21
8.3652613271
  0
LINE
  5
79A
100
AcDbEntity
  8
0
100
AcDbLine
 62
7
  6
CONTINUOUS
 10
4.4114223316
 20
8.3242613238
 11
4.4114223316
 21
8.3212613354
  0
LINE
  5
79B
100
AcDbEntity
  8
0
100
AcDbLine
 62
7
  6
CONTINUOUS
 10
4.4114223316
 20
8.2802613352
 11
4.4114223316
 21
8.2772613506
  0
LINE
  5
79C
100
AcDbEntity
  8
0
100
AcDbLine
 62
7
  6
CONTINUOUS
 10
4.4114223316
 20
8.236261349
 11
4.4114223316
 21
8.2332613278
  0
LINE
  5
79D
100
AcDbEntity
  8
0
100
AcDbLine
 62
7
  6
CONTINUOUS
 10
4.4114223316
 20
8.1922613245
 11
4.4114223316
 21
8.1892613339
  0
LINE
  5
79E
100
AcDbEntity
  8
0
100
AcDbLine
 62
7
  6
CONTINUOUS
 10
4.4114223316
 20
8.1482613334
 11
4.4114223316
 21
8.145261351
  0
LINE
  5
79F
100
AcDbEntity
  8
0
100
AcDbLine
 62
7
  6
CONTINUOUS
 10
4.4114223316
 20
8.1042613496
 11
4.4114223316
 21
8.1012613285
  0
LINE
  5
7A0
100
AcDbEntity
  8
0
100
AcDbLine
 62
7
  6
CONTINUOUS
 10
4.4114223316
 20
8.0602613251
 11
4.4114223316
 21
8.0572613325
  0
LINE
  5
7A1
100
AcDbEntity
  8
0
100
AcDbLine
 62
7
  6
CONTINUOUS
 10
4.4112976949
 20
8.3211173919
 11
4.4114223316
 21
8.3212613354
  0
LINE
  5
7A2
100
AcDbEntity
  8
0
100
AcDbLine
 62
7
  6
CONTINUOUS
 10
4.4112976945
 20
8.2771174066
 11
4.4114223316
 21
8.2772613506
  0
LINE
  5
7A3
100
AcDbEntity
  8
0
100
AcDbLine
 62
7
  6
CONTINUOUS
 10
4.4112976945
 20
8.2331173838
 11
4.4114223316
 21
8.2332613278
  0
LINE
  5
7A4
100
AcDbEntity
  8
0
100
AcDbLine
 62
7
  6
CONTINUOUS
 10
4.3757826773
 20
8.1686081755
 11
4.4112976948
 21
8.1891173903
  0
LINE
  5
7A5
100
AcDbEntity
  8
0
100
AcDbLine
 62
7
  6
CONTINUOUS
 10
4.3757826762
 20
8.1246081918
 11
4.4112976945
 21
8.1451174071
  0
LINE
  5
7A6
100
AcDbEntity
  8
0
100
AcDbLine
 62
7
  6
CONTINUOUS
 10
4.4112976948
 20
8.1891173903
 11
4.4114223316
 21
8.1892613339
  0
LINE
  5
7A7
100
AcDbEntity
  8
0
100
AcDbLine
 62
7
  6
CONTINUOUS
 10
4.4112976945
 20
8.1451174071
 11
4.4114223316
 21
8.145261351
  0
LINE
  5
7A8
100
AcDbEntity
  8
0
100
AcDbLine
 62
7
  6
CONTINUOUS
 10
4.4112976945
 20
8.1011173845
 11
4.4114223316
 21
8.1012613285
  0
LINE
  5
7A9
100
AcDbEntity
  8
0
100
AcDbLine
 62
7
  6
CONTINUOUS
 10
4.3757826746
 20
8.0806081682
 11
4.4112976945
 21
8.1011173845
  0
LINE
  5
7AA
100
AcDbEntity
  8
0
100
AcDbLine
 62
7
  6
CONTINUOUS
 10
4.3757826771
 20
8.036608174
 11
4.4112976948
 21
8.0571173889
  0
LINE
  5
7AB
100
AcDbEntity
  8
0
100
AcDbLine
 62
7
  6
CONTINUOUS
 10
4.6124223316
 20
9.239261337
 11
3.0304223316
 21
9.239261337
  0
LINE
  5
7AC
100
AcDbEntity
  8
0
100
AcDbLine
 62
7
  6
CONTINUOUS
 10
4.5834223316
 20
9.249261337
 11
4.5834223316
 21
9.239261337
  0
LINE
  5
7AD
100
AcDbEntity
  8
0
100
AcDbLine
 62
7
  6
CONTINUOUS
 10
4.6089223316
 20
9.329261337
 11
4.6089223316
 21
9.249261337
  0
LINE
  5
7AE
100
AcDbEntity
  8
0
100
AcDbLine
 62
7
  6
CONTINUOUS
 10
4.6124223316
 20
9.239261337
 11
4.6124223316
 21
8.563261337
  0
LINE
  5
7AF
100
AcDbEntity
  8
0
100
AcDbLine
 62
7
  6
CONTINUOUS
 10
4.4112976948
 20
8.0571173889
 11
4.4114223316
 21
8.0572613325
  0
LINE
  5
7B0
100
AcDbEntity
  8
0
100
AcDbLine
 62
7
  6
CONTINUOUS
 10
4.6089223316
 20
9.249261337
 11
3.0339223316
 21
9.249261337
  0
LINE
  5
7B1
100
AcDbEntity
  8
0
100
AcDbLine
 62
9
  6
CONTINUOUS
 10
4.6089223316
 20
9.329261337
 11
3.0339223316
 21
9.329261337
  0
LINE
  5
7B2
100
AcDbEntity
  8
0
100
AcDbLine
 62
7
  6
CONTINUOUS
 10
4.5489223316
 20
9.389261337
 11
3.0939223316
 21
9.389261337
  0
CIRCLE
  5
7B3
100
AcDbEntity
  8
0
100
AcDbCircle
 62
7
  6
CONTINUOUS
 10
10.5342808475
 20
1.243294839
 40
0.252091
  0
CIRCLE
  5
7B4
100
AcDbEntity
  8
0
100
AcDbCircle
 62
7
  6
CONTINUOUS
 10
10.5342808475
 20
1.243294839
 40
0.182698
  0
CIRCLE
  5
7B5
100
AcDbEntity
  8
0
100
AcDbCircle
 62
7
  6
CONTINUOUS
 10
3.8214223316
 20
5.6892141104
 40
0.791
  0
CIRCLE
  5
7B6
100
AcDbEntity
  8
0
100
AcDbCircle
 62
9
  6
CONTINUOUS
 10
3.8214223316
 20
5.6892141104
 40
0.731
  0
CIRCLE
  5
7B7
100
AcDbEntity
  8
0
100
AcDbCircle
 62
9
  6
CONTINUOUS
 10
3.8214223316
 20
5.6892141104
 40
0.5987499721
  0
CIRCLE
  5
7B8
100
AcDbEntity
  8
0
100
AcDbCircle
 62
7
  6
CONTINUOUS
 10
3.8214223316
 20
5.6892141104
 40
0.59
  0
CIRCLE
  5
7B9
100
AcDbEntity
  8
0
100
AcDbCircle
 62
7
  6
CONTINUOUS
 10
3.8214223316
 20
5.6892141104
 40
0.5472440945
  0
CIRCLE
  5
7BA
100
AcDbEntity
  8
0
100
AcDbCircle
 62
9
  6
CONTINUOUS
 10
3.8214223316
 20
5.6892141104
 40
0.4685039367
  0
ARC
  5
7BB
100
AcDbEntity
  8
0
100
AcDbCircle
 62
7
  6
CONTINUOUS
 10
7.3984219589
 20
6.1577180475
 40
0.0787401575
100
AcDbArc
 50
90.0
 51
180.000000311
  0
ARC
  5
7BC
100
AcDbEntity
  8
0
100
AcDbCircle
 62
7
  6
CONTINUOUS
 10
7.3984219589
 20
5.2207101734
 40
0.0787401575
100
AcDbArc
 50
179.999999689
 51
270.0
  0
ARC
  5
7BD
100
AcDbEntity
  8
0
100
AcDbCircle
 62
7
  6
CONTINUOUS
 10
9.019445581
 20
6.4167141104
 40
0.06
100
AcDbArc
 50
0.0
 51
90.0
  0
ARC
  5
7BE
100
AcDbEntity
  8
0
100
AcDbCircle
 62
7
  6
CONTINUOUS
 10
8.253445581
 20
4.9582141104
 40
0.06
100
AcDbArc
 50
180.0
 51
270.0
  0
ARC
  5
7BF
100
AcDbEntity
  8
0
100
AcDbCircle
 62
7
  6
CONTINUOUS
 10
8.253445581
 20
6.4202141104
 40
0.06
100
AcDbArc
 50
90.0
 51
180.0
  0
ARC
  5
7C0
100
AcDbEntity
  8
0
100
AcDbCircle
 62
7
  6
CONTINUOUS
 10
8.428445581
 20
4.8382141104
 40
0.06
100
AcDbArc
 50
0.0
 51
90.0
  0
ARC
  5
7C1
100
AcDbEntity
  8
0
100
AcDbCircle
 62
7
  6
CONTINUOUS
 10
8.168445581
 20
5.0904641104
 40
0.025
100
AcDbArc
 50
0.0000180902
 51
90.0
  0
ARC
  5
7C2
100
AcDbEntity
  8
0
100
AcDbCircle
 62
7
  6
CONTINUOUS
 10
8.168445581
 20
6.2879641104
 40
0.025
100
AcDbArc
 50
270.0
 51
359.9999819098
  0
ARC
  5
7C3
100
AcDbEntity
  8
0
100
AcDbCircle
 62
7
  6
CONTINUOUS
 10
9.0784135007
 20
4.9027478521
 40
0.0010330709
100
AcDbArc
 50
270.0
 51
360.0
  0
ARC
  5
7C4
100
AcDbEntity
  8
0
100
AcDbCircle
 62
7
  6
CONTINUOUS
 10
12.4823499047
 20
5.6892141104
 40
0.792
100
AcDbArc
 50
251.1156691913
 51
288.8843308087
  0
ARC
  5
7C5
100
AcDbEntity
  8
0
100
AcDbCircle
 62
7
  6
CONTINUOUS
 10
12.4823499047
 20
5.6892141104
 40
0.791
100
AcDbArc
 50
288.9091104244
 51
251.0908895756
  0
CIRCLE
  5
7C6
100
AcDbEntity
  8
0
100
AcDbCircle
 62
7
  6
CONTINUOUS
 10
12.4823499047
 20
5.6892141104
 40
0.7875
  0
ARC
  5
7C7
100
AcDbEntity
  8
0
100
AcDbCircle
 62
9
  6
CONTINUOUS
 10
12.4823499047
 20
5.6892141104
 40
0.7275
100
AcDbArc
 50
0.0
 51
180.0
  0
CIRCLE
  5
7C8
100
AcDbEntity
  8
AXIS_COSMETIC_THREADS
100
AcDbCircle
 62
7
  6
CONTINUOUS
 10
12.4823499047
 20
5.7822141104
 40
0.035
  0
ARC
  5
7C9
100
AcDbEntity
  8
0
100
AcDbCircle
 62
7
  6
CONTINUOUS
 10
12.5453499047
 20
5.7192141104
 40
0.03
100
AcDbArc
 50
270.0
 51
360.0
  0
ARC
  5
7CA
100
AcDbEntity
  8
0
100
AcDbCircle
 62
7
  6
CONTINUOUS
 10
12.5453499047
 20
5.8442141104
 40
0.03
100
AcDbArc
 50
0.0
 51
90.0
  0
ARC
  5
7CB
100
AcDbEntity
  8
0
100
AcDbCircle
 62
7
  6
CONTINUOUS
 10
12.4203499047
 20
5.7192141104
 40
0.03
100
AcDbArc
 50
180.0
 51
270.0
  0
ARC
  5
7CC
100
AcDbEntity
  8
0
100
AcDbCircle
 62
7
  6
CONTINUOUS
 10
12.4203499047
 20
5.8442141104
 40
0.03
100
AcDbArc
 50
90.0
 51
180.0
  0
CIRCLE
  5
7CD
100
AcDbEntity
  8
AXIS_COSMETIC_THREADS
100
AcDbCircle
 62
7
  6
CONTINUOUS
 10
12.4823499047
 20
5.7822141104
 40
0.01
  0
ARC
  5
7CE
100
AcDbEntity
  8
0
100
AcDbCircle
 62
7
  6
CONTINUOUS
 10
3.3529183946
 20
7.708237715
 40
0.0787401575
100
AcDbArc
 50
180.0
 51
270.0
  0
ARC
  5
7CF
100
AcDbEntity
  8
0
100
AcDbCircle
 62
7
  6
CONTINUOUS
 10
3.2226723316
 20
8.478261337
 40
0.025
100
AcDbArc
 50
0.0
 51
90.0
  0
ARC
  5
7D0
100
AcDbEntity
  8
0
100
AcDbCircle
 62
7
  6
CONTINUOUS
 10
3.0939223316
 20
9.329261337
 40
0.06
100
AcDbArc
 50
90.0
 51
180.0
  0
ARC
  5
7D1
100
AcDbEntity
  8
0
100
AcDbCircle
 62
7
  6
CONTINUOUS
 10
3.0904223316
 20
8.563261337
 40
0.06
100
AcDbArc
 50
180.0
 51
270.0
  0
ARC
  5
7D2
100
AcDbEntity
  8
0
100
AcDbCircle
 62
7
  6
CONTINUOUS
 10
4.2899262686
 20
7.708237715
 40
0.0787401575
100
AcDbArc
 50
270.0
 51
360.0
  0
ARC
  5
7D3
100
AcDbEntity
  8
0
100
AcDbCircle
 62
7
  6
CONTINUOUS
 10
4.4201723316
 20
8.478261337
 40
0.025
100
AcDbArc
 50
90.0
 51
180.0
  0
ARC
  5
7D4
100
AcDbEntity
  8
0
100
AcDbCircle
 62
7
  6
CONTINUOUS
 10
4.5489223316
 20
9.329261337
 40
0.06
100
AcDbArc
 50
0.0
 51
90.0
  0
ARC
  5
7D5
100
AcDbEntity
  8
0
100
AcDbCircle
 62
7
  6
CONTINUOUS
 10
4.5524223316
 20
8.563261337
 40
0.06
100
AcDbArc
 50
270.0
 51
360.0
  0
ELLIPSE
  5
7D6
100
AcDbEntity
  8
0
100
AcDbEllipse
 62
7
  6
CONTINUOUS
 10
3.8214223316
 20
8.9698486914
 30
0.0
 11
0.791
 21
0.0
 31
0.0
 40
0.3531126692
 41
-2.7867648337
 42
-2.7793633155
  0
ELLIPSE
  5
7D7
100
AcDbEntity
  8
0
100
AcDbEllipse
 62
7
  6
CONTINUOUS
 10
3.8214223316
 20
8.7084131599
 30
0.0
 11
0.791
 21
0.0
 31
0.0
 40
0.5795910251
 41
2.7793633155
 42
2.7854324955
  0
ELLIPSE
  5
7D8
100
AcDbEntity
  8
0
100
AcDbEllipse
 62
7
  6
CONTINUOUS
 10
3.8214223316
 20
9.1236053758
 30
0.0
 11
0.0
 21
1.222301318
 31
0.0
 40
0.6471399387
 41
-4.5150452497
 42
-4.4813425676
  0
ELLIPSE
  5
7D9
100
AcDbEntity
  8
0
100
AcDbEllipse
 62
7
  6
CONTINUOUS
 10
3.8214223316
 20
8.5376374062
 30
0.0
 11
-0.0
 21
1.2466030328
 31
0.0
 40
0.6345243668
 41
1.2905003783
 42
1.2944565471
  0
ELLIPSE
  5
7DA
100
AcDbEntity
  8
0
100
AcDbEllipse
 62
7
  6
CONTINUOUS
 10
3.8214223316
 20
8.5308303743
 30
0.0
 11
0.0
 21
1.2466030328
 31
0.0
 40
0.6345243668
 41
7.583740621
 42
7.588829733
  0
ELLIPSE
  5
7DB
100
AcDbEntity
  8
0
100
AcDbEllipse
 62
7
  6
CONTINUOUS
 10
3.8214223316
 20
8.9111987407
 30
0.0
 11
0.791
 21
-0.0
 31
0.0
 40
0.9541294769
 41
-3.093216755
 42
-3.0517173737
  0
ELLIPSE
  5
7DC
100
AcDbEntity
  8
0
100
AcDbEllipse
 62
7
  6
CONTINUOUS
 10
3.8214223316
 20
8.5055137432
 30
0.0
 11
0.0
 21
1.2466030328
 31
0.0
 40
0.6345243668
 41
7.5455449827
 42
7.5792415613
  0
ELLIPSE
  5
7DD
100
AcDbEntity
  8
0
100
AcDbEllipse
 62
7
  6
CONTINUOUS
 10
3.8214223316
 20
9.1690885479
 30
0.0
 11
-0.0
 21
1.222301318
 31
0.0
 40
0.6471399387
 41
-4.4597972437
 42
-4.4546243057
  0
ELLIPSE
  5
7DE
100
AcDbEntity
  8
0
100
AcDbEllipse
 62
7
  6
CONTINUOUS
 10
3.8214223316
 20
8.5055137432
 30
0.0
 11
-0.0
 21
1.2150833607
 31
0.0
 40
0.6345243668
 41
7.5705582119
 42
7.5719221943
  0
ELLIPSE
  5
7DF
100
AcDbEntity
  8
0
100
AcDbEllipse
 62
7
  6
CONTINUOUS
 10
3.8214223316
 20
8.9559806871
 30
0.0
 11
0.791
 21
0.0
 31
0.0
 40
0.9541294769
 41
-3.0642907598
 42
-3.0204349388
  0
ELLIPSE
  5
7E0
100
AcDbEntity
  8
0
100
AcDbEllipse
 62
7
  6
CONTINUOUS
 10
3.8214223316
 20
9.1783227328
 30
0.0
 11
0.0
 21
1.222301318
 31
0.0
 40
0.6471399387
 41
-4.4679301488
 42
-4.4639297041
  0
ENDSEC
  0
SECTION
  2
OBJECTS
  0
DICTIONARY
  5
C
100
AcDbDictionary
280
0
281
1
  3
ACAD_GROUP
350
D
  3
ACAD_MLINESTYLE
350
17
  3
ACAD_LAYOUT
350
1A
  3
ACAD_PLOTSETTINGS
350
19
  3
ACAD_PLOTSTYLENAME
350
E
  0
DICTIONARY
  5
D
102
{ACAD_REACTORS
330
C
102
}
100
AcDbDictionary
280
0
281
1
  0
ACDBDICTIONARYWDFLT
  5
E
102
{ACAD_REACTORS
330
C
102
}
100
AcDbDictionary
281
1
  3
Normal
350
F
100
AcDbDictionaryWithDefault
340
F
  0
DICTIONARY
  5
17
102
{ACAD_REACTORS
330
C
102
}
100
AcDbDictionary
280
0
281
1
  3
Standard
350
18
  0
DICTIONARY
  5
19
102
{ACAD_REACTORS
330
C
102
}
100
AcDbDictionary
281
1
  0
DICTIONARY
  5
1A
102
{ACAD_REACTORS
330
C
102
}
100
AcDbDictionary
281
1
  3
Model
350
7E1
  3
Layout1
350
7E2
  0
ACDBPLACEHOLDER
  5
F
102
{ACAD_REACTORS
330
E
102
}
  0
MLINESTYLE
  5
18
102
{ACAD_REACTORS
330
17
102
}
100
AcDbMlineStyle
  2
STANDARD
 70
0
  3

 62
256
 51
90.0
 52
90.0
 71
2
 49
0.5
 62
256
  6
BYLAYER
 49
-0.5
 62
256
  6
BYLAYER
  0
LAYOUT
  5
7E1
102
{ACAD_REACTORS
330
1A
102
}
100
AcDbPlotSettings
  1

  2
none_device
  4
ANSI_B_(17.00_x_11.00_Inches)
  6

 40
0.0
 41
0.0
 42
0.0
 43
0.0
 44
431.8
 45
279.4
 46
0.0
 47
0.0
 48
0.0
 49
0.0
140
0.0
141
0.0
142
1.0
143
1.0
 70
1024
 72
0
 73
0
 74
0
  7

 75
0
147
1.0
148
0.0
149
0.0
100
AcDbLayout
  1
Model
 70
0
 71
0
 10
0.0
 20
0.0
 11
17.0
 21
11.0
 12
0.0
 22
0.0
 32
0.0
 14
0.0
 24
0.0
 34
0.0
 15
0.0
 25
0.0
 35
0.0
146
0.0
 13
0.0
 23
0.0
 33
0.0
 16
1.0
 26
0.0
 36
0.0
 17
0.0
 27
1.0
 37
0.0
 76
0
330
234
345
0
346
0
  0
LAYOUT
  5
7E2
102
{ACAD_REACTORS
330
1A
102
}
100
AcDbPlotSettings
  1

  2
none_device
  4
ANSI_B_(17.00_x_11.00_Inches)
  6

 40
0.0
 41
0.0
 42
0.0
 43
0.0
 44
431.8
 45
279.4
 46
0.0
 47
0.0
 48
0.0
 49
0.0
140
0.0
141
0.0
142
1.0
143
1.0
 70
0
 72
0
 73
0
 74
0
  7

 75
0
147
1.0
148
0.0
149
0.0
100
AcDbLayout
  1
Layout1
 70
0
 71
1
 10
0.0
 20
0.0
 11
17.0
 21
11.0
 12
0.0
 22
0.0
 32
0.0
 14
0.0
 24
0.0
 34
0.0
 15
0.0
 25
0.0
 35
0.0
146
0.0
 13
0.0
 23
0.0
 33
0.0
 16
1.0
 26
0.0
 36
0.0
 17
0.0
 27
1.0
 37
0.0
 76
0
330
235
345
0
346
0
  0
ENDSEC
  0
EOF
