999
DXF file: 152819_1.dxf
999
Pro/ENGINEER 2009141 by Parametric Technology Corporation
  0
SECTION
  2
HEADER
  9
$ACADVER
  1
AC1015
  9
$DWGCODEPAGE
  3
ANSI_1252
  9
$EXTMAX
 10
17.0
 20
11.0
 30
0.0
  9
$EXTMIN
 10
0.0
 20
0.0
 30
0.0
  9
$LIMMIN
 10
0.0
 20
0.0
  9
$LIMMAX
 10
17.0
 20
11.0
  9
$VIEWCTR
 10
8.5
 20
5.5
  9
$VIEWSIZE
 40
11.0
  9
$CLAYER
  8
0
  9
$LTSCALE
 40
0.935
  9
$CELTYPE
  6
BYLAYER
  9
$DIMSCALE
 40
1.0
  9
$DIMASZ
 40
0.1875
  9
$DIMEXO
 40
0.10625
  9
$DIMDLI
 40
0.646
  9
$DIMEXE
 40
0.306
  9
$DIMCEN
 40
0.153
  9
$DIMLFAC
 40
1.0
  9
$DIMBLK
  1
_FILLED
  9
$DIMTXT
 40
0.1
  9
$DIMTOL
 70
1
  9
$DIMLIM
 70
0
  9
$DIMTFAC
 40
1.0
  9
$DIMTP
 40
0.005
  9
$DIMTM
 40
0.005
  9
$PDMODE
 70
3
  9
$PDSIZE
 40
0.3125
  9
$HANDSEED
  5
892
  9
$TILEMODE
 70
1
  9
$MEASUREMENT
 70
0
  9
$INSUNITS
 70
1
  0
ENDSEC
  0
SECTION
  2
CLASSES
  0
CLASS
  1
ACDBDICTIONARYWDFLT
  2
AcDbDictionaryWithDefault
  3
AutoCAD 2000
 90
0
280
0
281
0
  0
CLASS
  1
ACDBPLACEHOLDER
  2
AcDbPlaceHolder
  3
AutoCAD 2000
 90
0
280
0
281
0
  0
CLASS
  1
LAYOUT
  2
AcDbLayout
  3
AutoCAD 2000
 90
0
280
0
281
0
  0
ENDSEC
  0
SECTION
  2
TABLES
  0
TABLE
  2
VPORT
  5
8
100
AcDbSymbolTable
 70
2
  0
VPORT
  5
1F4
100
AcDbSymbolTableRecord
100
AcDbViewportTableRecord
  2
*ACTIVE
 70
0
 10
0.0
 20
0.0
 11
1.0
 21
1.0
 12
8.5
 22
5.5
 13
0.0
 23
0.0
 14
1.0
 24
1.0
 15
0.0
 25
0.0
 16
0.0
 26
0.0
 36
1.0
 17
0.0
 27
0.0
 37
0.0
 40
11.0
 41
1.5454545455
 42
50.0
 43
0.0
 44
0.0
 50
0.0
 51
0.0
 71
0
 72
100
 73
1
 74
1
 75
0
 76
0
 77
0
 78
0
  0
ENDTAB
  0
TABLE
  2
LTYPE
  5
5
100
AcDbSymbolTable
 70
6
  0
LTYPE
  5
14
100
AcDbSymbolTableRecord
100
AcDbLinetypeTableRecord
  2
BYBLOCK
 70
0
  3

 72
65
 73
0
 40
0.0
  0
LTYPE
  5
15
100
AcDbSymbolTableRecord
100
AcDbLinetypeTableRecord
  2
BYLAYER
 70
0
  3

 72
65
 73
0
 40
0.0
  0
LTYPE
  5
16
100
AcDbSymbolTableRecord
100
AcDbLinetypeTableRecord
  2
CONTINUOUS
 70
64
  3
Solid line
 72
65
 73
0
 40
0.0
  0
LTYPE
  5
1F5
100
AcDbSymbolTableRecord
100
AcDbLinetypeTableRecord
  2
CENTER
 70
64
  3
____ _ ____ _ ____ _ ____ _ ____ _ ____ _ ____
 72
65
 73
4
 40
0.6
 49
0.375
 74
0
 49
-0.075
 74
0
 49
0.075
 74
0
 49
-0.075
 74
0
  0
LTYPE
  5
1F6
100
AcDbSymbolTableRecord
100
AcDbLinetypeTableRecord
  2
HIDDEN
 70
64
  3
- - - - - - - - - - - - - - - - - - - -
 72
65
 73
2
 40
0.2
 49
0.1
 74
0
 49
-0.1
 74
0
  0
LTYPE
  5
1F7
100
AcDbSymbolTableRecord
100
AcDbLinetypeTableRecord
  2
PHANTOM
 70
64
  3
_____ _ _ _____ _ _ _____ _ _ _____
 72
65
 73
6
 40
0.8
 49
0.45
 74
0
 49
-0.05
 74
0
 49
0.1
 74
0
 49
-0.05
 74
0
 49
0.1
 74
0
 49
-0.05
 74
0
  0
LTYPE
  5
1F8
100
AcDbSymbolTableRecord
100
AcDbLinetypeTableRecord
  2
DOT
 70
64
  3
. . . . . . . . . . . . . . . . . . . .
 72
65
 73
2
 40
0.2
 49
0.1
 74
0
 49
-0.1
 74
0
  0
LTYPE
  5
1F9
100
AcDbSymbolTableRecord
100
AcDbLinetypeTableRecord
  2
DASHED
 70
64
  3
- - - - - - - - - - - - - - - - - - - -
 72
65
 73
2
 40
0.2
 49
0.1
 74
0
 49
-0.1
 74
0
  0
ENDTAB
  0
TABLE
  2
LAYER
  5
2
100
AcDbSymbolTable
 70
36
  0
LAYER
  5
10
100
AcDbSymbolTableRecord
100
AcDbLayerTableRecord
  2
0
 70
0
 62
7
  6
CONTINUOUS
370
-3
390
F
  0
LAYER
  5
1FA
100
AcDbSymbolTableRecord
100
AcDbLayerTableRecord
  2
DEFAULT_1
 70
0
 62
7
  6
CENTER
370
-3
390
F
  0
LAYER
  5
1FB
100
AcDbSymbolTableRecord
100
AcDbLayerTableRecord
  2
DEFAULT_2
 70
0
 62
8
  6
HIDDEN
370
-3
390
F
  0
LAYER
  5
1FC
100
AcDbSymbolTableRecord
100
AcDbLayerTableRecord
  2
DEFAULT_3
 70
0
 62
7
  6
PHANTOM
370
-3
390
F
  0
LAYER
  5
1FD
100
AcDbSymbolTableRecord
100
AcDbLayerTableRecord
  2
1
 70
0
 62
7
  6
CONTINUOUS
370
-3
390
F
  0
LAYER
  5
1FE
100
AcDbSymbolTableRecord
100
AcDbLayerTableRecord
  2
10
 70
0
 62
7
  6
CONTINUOUS
370
-3
390
F
  0
LAYER
  5
1FF
100
AcDbSymbolTableRecord
100
AcDbLayerTableRecord
  2
11
 70
0
 62
7
  6
CONTINUOUS
370
-3
390
F
  0
LAYER
  5
200
100
AcDbSymbolTableRecord
100
AcDbLayerTableRecord
  2
12
 70
0
 62
7
  6
CONTINUOUS
370
-3
390
F
  0
LAYER
  5
201
100
AcDbSymbolTableRecord
100
AcDbLayerTableRecord
  2
13
 70
0
 62
7
  6
CONTINUOUS
370
-3
390
F
  0
LAYER
  5
202
100
AcDbSymbolTableRecord
100
AcDbLayerTableRecord
  2
14
 70
0
 62
7
  6
CONTINUOUS
370
-3
390
F
  0
LAYER
  5
203
100
AcDbSymbolTableRecord
100
AcDbLayerTableRecord
  2
15
 70
0
 62
7
  6
CONTINUOUS
370
-3
390
F
  0
LAYER
  5
204
100
AcDbSymbolTableRecord
100
AcDbLayerTableRecord
  2
16
 70
0
 62
7
  6
CONTINUOUS
370
-3
390
F
  0
LAYER
  5
205
100
AcDbSymbolTableRecord
100
AcDbLayerTableRecord
  2
17
 70
0
 62
7
  6
CONTINUOUS
370
-3
390
F
  0
LAYER
  5
206
100
AcDbSymbolTableRecord
100
AcDbLayerTableRecord
  2
18
 70
0
 62
7
  6
CONTINUOUS
370
-3
390
F
  0
LAYER
  5
207
100
AcDbSymbolTableRecord
100
AcDbLayerTableRecord
  2
19
 70
0
 62
7
  6
CONTINUOUS
370
-3
390
F
  0
LAYER
  5
208
100
AcDbSymbolTableRecord
100
AcDbLayerTableRecord
  2
2
 70
0
 62
7
  6
CONTINUOUS
370
-3
390
F
  0
LAYER
  5
209
100
AcDbSymbolTableRecord
100
AcDbLayerTableRecord
  2
20
 70
0
 62
7
  6
CONTINUOUS
370
-3
390
F
  0
LAYER
  5
20A
100
AcDbSymbolTableRecord
100
AcDbLayerTableRecord
  2
21
 70
0
 62
7
  6
CONTINUOUS
370
-3
390
F
  0
LAYER
  5
20B
100
AcDbSymbolTableRecord
100
AcDbLayerTableRecord
  2
22
 70
0
 62
7
  6
CONTINUOUS
370
-3
390
F
  0
LAYER
  5
20C
100
AcDbSymbolTableRecord
100
AcDbLayerTableRecord
  2
23
 70
0
 62
7
  6
CONTINUOUS
370
-3
390
F
  0
LAYER
  5
20D
100
AcDbSymbolTableRecord
100
AcDbLayerTableRecord
  2
24
 70
0
 62
7
  6
CONTINUOUS
370
-3
390
F
  0
LAYER
  5
20E
100
AcDbSymbolTableRecord
100
AcDbLayerTableRecord
  2
25
 70
0
 62
7
  6
CONTINUOUS
370
-3
390
F
  0
LAYER
  5
20F
100
AcDbSymbolTableRecord
100
AcDbLayerTableRecord
  2
26
 70
0
 62
7
  6
CONTINUOUS
370
-3
390
F
  0
LAYER
  5
210
100
AcDbSymbolTableRecord
100
AcDbLayerTableRecord
  2
27
 70
0
 62
7
  6
CONTINUOUS
370
-3
390
F
  0
LAYER
  5
211
100
AcDbSymbolTableRecord
100
AcDbLayerTableRecord
  2
28
 70
0
 62
7
  6
CONTINUOUS
370
-3
390
F
  0
LAYER
  5
212
100
AcDbSymbolTableRecord
100
AcDbLayerTableRecord
  2
29
 70
0
 62
7
  6
CONTINUOUS
370
-3
390
F
  0
LAYER
  5
213
100
AcDbSymbolTableRecord
100
AcDbLayerTableRecord
  2
3
 70
0
 62
7
  6
CONTINUOUS
370
-3
390
F
  0
LAYER
  5
214
100
AcDbSymbolTableRecord
100
AcDbLayerTableRecord
  2
30
 70
0
 62
7
  6
CONTINUOUS
370
-3
390
F
  0
LAYER
  5
215
100
AcDbSymbolTableRecord
100
AcDbLayerTableRecord
  2
31
 70
0
 62
7
  6
CONTINUOUS
370
-3
390
F
  0
LAYER
  5
216
100
AcDbSymbolTableRecord
100
AcDbLayerTableRecord
  2
32
 70
0
 62
7
  6
CONTINUOUS
370
-3
390
F
  0
LAYER
  5
217
100
AcDbSymbolTableRecord
100
AcDbLayerTableRecord
  2
4
 70
0
 62
7
  6
CONTINUOUS
370
-3
390
F
  0
LAYER
  5
218
100
AcDbSymbolTableRecord
100
AcDbLayerTableRecord
  2
5
 70
0
 62
7
  6
CONTINUOUS
370
-3
390
F
  0
LAYER
  5
219
100
AcDbSymbolTableRecord
100
AcDbLayerTableRecord
  2
6
 70
0
 62
7
  6
CONTINUOUS
370
-3
390
F
  0
LAYER
  5
21A
100
AcDbSymbolTableRecord
100
AcDbLayerTableRecord
  2
7
 70
0
 62
7
  6
CONTINUOUS
370
-3
390
F
  0
LAYER
  5
21B
100
AcDbSymbolTableRecord
100
AcDbLayerTableRecord
  2
8
 70
0
 62
7
  6
CONTINUOUS
370
-3
390
F
  0
LAYER
  5
21C
100
AcDbSymbolTableRecord
100
AcDbLayerTableRecord
  2
9
 70
0
 62
7
  6
CONTINUOUS
370
-3
390
F
  0
LAYER
  5
21D
100
AcDbSymbolTableRecord
100
AcDbLayerTableRecord
  2
AXIS
 70
0
 62
7
  6
CONTINUOUS
370
-3
390
F
  0
LAYER
  5
21E
100
AcDbSymbolTableRecord
100
AcDbLayerTableRecord
  2
AXIS_COSMETIC_THREADS
 70
0
 62
7
  6
CONTINUOUS
370
-3
390
F
  0
LAYER
  5
21F
100
AcDbSymbolTableRecord
100
AcDbLayerTableRecord
  2
DATUM_CURVES
 70
0
 62
7
  6
CONTINUOUS
370
-3
390
F
  0
LAYER
  5
220
100
AcDbSymbolTableRecord
100
AcDbLayerTableRecord
  2
DATUM_PLANES
 70
0
 62
7
  6
CONTINUOUS
370
-3
390
F
  0
LAYER
  5
221
100
AcDbSymbolTableRecord
100
AcDbLayerTableRecord
  2
NOTES
 70
0
 62
7
  6
CONTINUOUS
370
-3
390
F
  0
LAYER
  5
222
100
AcDbSymbolTableRecord
100
AcDbLayerTableRecord
  2
QUILTS
 70
0
 62
7
  6
CONTINUOUS
370
-3
390
F
  0
LAYER
  5
223
100
AcDbSymbolTableRecord
100
AcDbLayerTableRecord
  2
SCHEME_DIMS
 70
0
 62
7
  6
CONTINUOUS
370
-3
390
F
  0
LAYER
  5
224
100
AcDbSymbolTableRecord
100
AcDbLayerTableRecord
  2
SYMBOLS
 70
0
 62
7
  6
CONTINUOUS
370
-3
390
F
  0
ENDTAB
  0
TABLE
  2
STYLE
  5
3
100
AcDbSymbolTable
 70
1
  0
STYLE
  5
11
100
AcDbSymbolTableRecord
100
AcDbTextStyleTableRecord
  2
STANDARD
 70
0
 40
0.0
 41
1.0
 50
0.0
 71
0
 42
0.2
  3
txt
  4

  0
STYLE
  5
225
100
AcDbSymbolTableRecord
100
AcDbTextStyleTableRecord
  2
TEXTSTYLE_1
 70
0
 40
0.0
 41
0.8
 50
0.0
 71
0
 42
0.2
  3
gdt
  4

  0
STYLE
  5
226
100
AcDbSymbolTableRecord
100
AcDbTextStyleTableRecord
  2
TEXTSTYLE_2
 70
0
 40
0.0
 41
0.8
 50
0.0
 71
0
 42
0.2
  3
txt
  4

  0
STYLE
  5
227
100
AcDbSymbolTableRecord
100
AcDbTextStyleTableRecord
  2
TEXTSTYLE_3
 70
0
 40
0.0
 41
0.85
 50
0.0
 71
0
 42
0.2
  3
txt
  4

  0
STYLE
  5
228
100
AcDbSymbolTableRecord
100
AcDbTextStyleTableRecord
  2
TEXTSTYLE_4
 70
0
 40
0.0
 41
0.92
 50
0.0
 71
0
 42
0.2
  3
txt
  4

  0
STYLE
  5
229
100
AcDbSymbolTableRecord
100
AcDbTextStyleTableRecord
  2
TEXTSTYLE_5
 70
0
 40
0.0
 41
1.0
 50
0.0
 71
0
 42
0.2
  3
gdt
  4

  0
ENDTAB
  0
TABLE
  2
VIEW
  5
6
100
AcDbSymbolTable
 70
0
  0
ENDTAB
  0
TABLE
  2
UCS
  5
7
100
AcDbSymbolTable
 70
0
  0
ENDTAB
  0
TABLE
  2
APPID
  5
9
100
AcDbSymbolTable
 70
1
  0
APPID
  5
22A
100
AcDbSymbolTableRecord
100
AcDbRegAppTableRecord
  2
ACAD
 70
0
  0
ENDTAB
  0
TABLE
  2
BLOCK_RECORD
  5
1
100
AcDbSymbolTable
 70
0
  0
BLOCK_RECORD
  5
22B
100
AcDbSymbolTableRecord
100
AcDbBlockTableRecord
  2
*Model_Space
  0
BLOCK_RECORD
  5
22C
100
AcDbSymbolTableRecord
100
AcDbBlockTableRecord
  2
*Paper_Space
  0
BLOCK_RECORD
  5
22D
100
AcDbSymbolTableRecord
100
AcDbBlockTableRecord
  2
_FILLED
  0
BLOCK_RECORD
  5
22E
100
AcDbSymbolTableRecord
100
AcDbBlockTableRecord
  2
*D0
  0
BLOCK_RECORD
  5
22F
100
AcDbSymbolTableRecord
100
AcDbBlockTableRecord
  2
*D1
  0
BLOCK_RECORD
  5
230
100
AcDbSymbolTableRecord
100
AcDbBlockTableRecord
  2
*D2
  0
BLOCK_RECORD
  5
231
100
AcDbSymbolTableRecord
100
AcDbBlockTableRecord
  2
*D3
  0
BLOCK_RECORD
  5
232
100
AcDbSymbolTableRecord
100
AcDbBlockTableRecord
  2
BANNER_LOGO_TITLEBLOCK_BL0
  0
ENDTAB
  0
TABLE
  2
DIMSTYLE
  5
A
100
AcDbSymbolTable
 70
1
100
AcDbDimStyleTable
 71
0
  0
DIMSTYLE
105
233
100
AcDbSymbolTableRecord
100
AcDbDimStyleTableRecord
  2
STANDARD
 70
0
  3

  4

 40
1.0
 41
0.1875
 42
0.0625
 43
0.38
 44
0.18
 45
0.0
 46
0.0
 47
0.005
 48
0.005
140
0.1
141
0.09
142
0.0
143
25.4
144
1.0
145
0.0
146
1.0
147
0.09
 71
1.0
 72
0.0
 73
1
 74
1
 75
0
 76
0
 77
0
 78
4
170
0
171
2
172
0
173
0
174
0
175
0
176
0
177
0
178
0
270
2
271
3
272
3
273
2
274
2
275
0
280
0
281
0
282
0
283
1
284
4
285
0
286
0
287
3
288
0
340
11
341
22D
342
22D
343
22D
344
22D
  0
DIMSTYLE
105
234
100
AcDbSymbolTableRecord
100
AcDbDimStyleTableRecord
  2
DIMSTYLE_1
 70
0
  3

  4

 40
1.0
 41
0.1875
 42
0.0625
 43
0.38
 44
0.18
 45
0.0
 46
0.0
 47
0.1
 48
0.1
140
0.1
141
0.09
142
0.0
143
25.4
144
1.0
145
0.0
146
1.0
147
0.09
 71
0.0
 72
0.0
 73
1
 74
1
 75
0
 76
0
 77
0
 78
4
170
0
171
2
172
0
173
0
174
0
175
0
176
0
177
0
178
0
270
2
271
1
272
1
273
2
274
2
275
0
280
0
281
0
282
0
283
1
284
4
285
0
286
0
287
3
288
0
340
11
341
22D
342
22D
343
22D
344
22D
  0
DIMSTYLE
105
235
100
AcDbSymbolTableRecord
100
AcDbDimStyleTableRecord
  2
DIMSTYLE_2
 70
0
  3

  4

 40
1.0
 41
0.1875
 42
0.0625
 43
0.38
 44
0.18
 45
0.0
 46
0.0
 47
0.1
 48
0.1
140
0.1
141
0.09
142
0.0
143
25.4
144
1.0
145
0.0
146
1.0
147
0.09
 71
0.0
 72
0.0
 73
1
 74
1
 75
0
 76
0
 77
0
 78
4
170
0
171
2
172
0
173
0
174
0
175
0
176
0
177
0
178
0
270
2
271
1
272
1
273
2
274
2
275
0
280
0
281
0
282
0
283
1
284
4
285
0
286
0
287
3
288
0
340
11
341
22D
342
22D
343
22D
344
22D
  0
ENDTAB
  0
ENDSEC
  0
SECTION
  2
BLOCKS
  0
BLOCK
  5
20
100
AcDbEntity
  8
0
100
AcDbBlockBegin
  2
*Model_Space
 70
0
 10
0.0
 20
0.0
 30
0.0
  3
*Model_Space
  1

  0
ENDBLK
  5
21
100
AcDbEntity
  8
0
100
AcDbBlockEnd
  0
BLOCK
  5
1C
100
AcDbEntity
  8
0
100
AcDbBlockBegin
  2
*Paper_Space
 70
0
 10
0.0
 20
0.0
 30
0.0
  3
*Paper_Space
  1

  0
ENDBLK
  5
1D
100
AcDbEntity
  8
0
100
AcDbBlockEnd
  0
BLOCK
  5
236
100
AcDbEntity
  8
0
100
AcDbBlockBegin
 62
2
  6
CONTINUOUS
  2
BANNER_LOGO_TITLEBLOCK_BL0
 70
64
 10
12.9086867042
 20
2.5403783405
  3
BANNER_LOGO_TITLEBLOCK_BL0
  1

  0
ELLIPSE
  5
237
100
AcDbEntity
  8
0
100
AcDbEllipse
 62
2
  6
CONTINUOUS
 10
12.9046654608
 20
2.5403783405
 30
0.0
 11
-0.8250004575
 21
0.0
 31
0.0
 40
0.218572
 41
0.0
 42
6.2831853072
  0
ARC
  5
238
100
AcDbEntity
  8
0
100
AcDbCircle
 62
2
  6
CONTINUOUS
 10
12.400005721
 20
2.5168763464
 40
0.0153945295
100
AcDbArc
 50
354.0454548824
 51
5.1878013979
  0
ARC
  5
239
100
AcDbEntity
  8
0
100
AcDbCircle
 62
2
  6
CONTINUOUS
 10
12.3931760319
 20
2.5166878286
 40
0.0222174455
100
AcDbArc
 50
4.0793399388
 51
69.834329283
  0
LINE
  5
23A
100
AcDbEntity
  8
0
100
AcDbLine
 62
2
  6
CONTINUOUS
 10
12.4008351814
 20
2.5375433389
 11
12.3907841758
 21
2.5410923409
  0
LINE
  5
23B
100
AcDbEntity
  8
0
100
AcDbLine
 62
2
  6
CONTINUOUS
 10
12.3907841758
 20
2.5410923409
 11
12.3990241804
 21
2.5458683435
  0
ARC
  5
23C
100
AcDbEntity
  8
0
100
AcDbCircle
 62
2
  6
CONTINUOUS
 10
12.3771587979
 20
2.5826952352
 40
0.0428289026
100
AcDbArc
 50
300.6990502959
 51
319.0591802498
  0
ARC
  5
23D
100
AcDbEntity
  8
0
100
AcDbCircle
 62
2
  6
CONTINUOUS
 10
12.3971873948
 20
2.5665668817
 40
0.0171568255
100
AcDbArc
 50
315.9145124245
 51
16.0049121282
  0
ARC
  5
23E
100
AcDbEntity
  8
0
100
AcDbCircle
 62
2
  6
CONTINUOUS
 10
12.3922357827
 20
2.5632132173
 40
0.0229166529
100
AcDbArc
 50
20.6563876465
 51
62.3316896973
  0
ARC
  5
23F
100
AcDbEntity
  8
0
100
AcDbCircle
 62
2
  6
CONTINUOUS
 10
12.371573659
 20
2.5302846524
 40
0.061747717
100
AcDbArc
 50
59.5385584989
 51
90.0050977555
  0
LINE
  5
240
100
AcDbEntity
  8
0
100
AcDbLine
 62
2
  6
CONTINUOUS
 10
12.3715681652
 20
2.5920323691
 11
12.2055050731
 21
2.5920323691
  0
ARC
  5
241
100
AcDbEntity
  8
0
100
AcDbCircle
 62
2
  6
CONTINUOUS
 10
12.2055050712
 20
2.5895573696
 40
0.0024749995
100
AcDbArc
 50
89.9999571957
 51
180.0000428043
  0
LINE
  5
242
100
AcDbEntity
  8
0
100
AcDbLine
 62
2
  6
CONTINUOUS
 10
12.2030300717
 20
2.5895573678
 11
12.2030300717
 21
2.5697573568
  0
ARC
  5
243
100
AcDbEntity
  8
0
100
AcDbCircle
 62
2
  6
CONTINUOUS
 10
12.2055050712
 20
2.5697573549
 40
0.0024749995
100
AcDbArc
 50
179.9999571957
 51
270.0000428043
  0
LINE
  5
244
100
AcDbEntity
  8
0
100
AcDbLine
 62
2
  6
CONTINUOUS
 10
12.2055050731
 20
2.5672823554
 11
12.2294470864
 21
2.5672823554
  0
ARC
  5
245
100
AcDbEntity
  8
0
100
AcDbCircle
 62
2
  6
CONTINUOUS
 10
12.2294470882
 20
2.5648073559
 40
0.0024749995
100
AcDbArc
 50
359.9999571957
 51
90.0000428043
  0
LINE
  5
246
100
AcDbEntity
  8
0
100
AcDbLine
 62
2
  6
CONTINUOUS
 10
12.2319220877
 20
2.564807354
 11
12.2319220877
 21
2.5184523283
  0
ARC
  5
247
100
AcDbEntity
  8
0
100
AcDbCircle
 62
2
  6
CONTINUOUS
 10
12.2294470882
 20
2.5184523265
 40
0.0024749995
100
AcDbArc
 50
269.9999571957
 51
0.0000428043
  0
LINE
  5
248
100
AcDbEntity
  8
0
100
AcDbLine
 62
2
  6
CONTINUOUS
 10
12.2294470864
 20
2.515977327
 11
12.2055050731
 21
2.515977327
  0
ARC
  5
249
100
AcDbEntity
  8
0
100
AcDbCircle
 62
2
  6
CONTINUOUS
 10
12.2055050712
 20
2.5135023274
 40
0.0024749995
100
AcDbArc
 50
89.9999571957
 51
180.0000428043
  0
LINE
  5
24A
100
AcDbEntity
  8
0
100
AcDbLine
 62
2
  6
CONTINUOUS
 10
12.2030300717
 20
2.5135023256
 11
12.2030300717
 21
2.4937023146
  0
ARC
  5
24B
100
AcDbEntity
  8
0
100
AcDbCircle
 62
2
  6
CONTINUOUS
 10
12.2055050712
 20
2.4937023128
 40
0.0024749995
100
AcDbArc
 50
179.9999571957
 51
270.0000428043
  0
LINE
  5
24C
100
AcDbEntity
  8
0
100
AcDbLine
 62
2
  6
CONTINUOUS
 10
12.2055050731
 20
2.4912273132
 11
12.3819511709
 21
2.4912273132
  0
ARC
  5
24D
100
AcDbEntity
  8
0
100
AcDbCircle
 62
2
  6
CONTINUOUS
 10
12.3792298263
 20
2.539634765
 40
0.048483885
100
AcDbArc
 50
273.21763719
 51
303.0749121182
  0
ARC
  5
24E
100
AcDbEntity
  8
0
100
AcDbCircle
 62
2
  6
CONTINUOUS
 10
12.3940692204
 20
2.5168671561
 40
0.0213072145
100
AcDbArc
 50
303.0488228549
 51
355.7263138674
  0
LINE
  5
24F
100
AcDbEntity
  8
0
100
AcDbLine
 62
2
  6
CONTINUOUS
 10
12.2949101227
 20
2.5499573458
 11
12.3362731456
 21
2.5499573458
  0
ARC
  5
250
100
AcDbEntity
  8
0
100
AcDbCircle
 62
2
  6
CONTINUOUS
 10
12.3362731456
 20
2.5586198506
 40
0.0086625048
100
AcDbArc
 50
270.0
 51
90.0
  0
LINE
  5
251
100
AcDbEntity
  8
0
100
AcDbLine
 62
2
  6
CONTINUOUS
 10
12.3362731456
 20
2.5672823554
 11
12.2949101227
 21
2.5672823554
  0
ARC
  5
252
100
AcDbEntity
  8
0
100
AcDbCircle
 62
2
  6
CONTINUOUS
 10
12.2949101208
 20
2.5648073559
 40
0.0024749995
100
AcDbArc
 50
89.9999571957
 51
180.0000428043
  0
LINE
  5
253
100
AcDbEntity
  8
0
100
AcDbLine
 62
2
  6
CONTINUOUS
 10
12.2924351213
 20
2.564807354
 11
12.2924351213
 21
2.5524323472
  0
ARC
  5
254
100
AcDbEntity
  8
0
100
AcDbCircle
 62
2
  6
CONTINUOUS
 10
12.2949101208
 20
2.5524323453
 40
0.0024749995
100
AcDbArc
 50
179.9999571957
 51
270.0000428043
  0
LINE
  5
255
100
AcDbEntity
  8
0
100
AcDbLine
 62
2
  6
CONTINUOUS
 10
12.2924351213
 20
2.5184523283
 11
12.2924351213
 21
2.5308273352
  0
ARC
  5
256
100
AcDbEntity
  8
0
100
AcDbCircle
 62
2
  6
CONTINUOUS
 10
12.2949101208
 20
2.530827337
 40
0.0024749995
100
AcDbArc
 50
89.9999571957
 51
180.0000428043
  0
LINE
  5
257
100
AcDbEntity
  8
0
100
AcDbLine
 62
2
  6
CONTINUOUS
 10
12.2949101227
 20
2.5333023366
 11
12.3362731456
 21
2.5333023366
  0
ARC
  5
258
100
AcDbEntity
  8
0
100
AcDbCircle
 62
2
  6
CONTINUOUS
 10
12.3362731456
 20
2.5246398318
 40
0.0086625048
100
AcDbArc
 50
270.0
 51
90.0
  0
LINE
  5
259
100
AcDbEntity
  8
0
100
AcDbLine
 62
2
  6
CONTINUOUS
 10
12.3362731456
 20
2.515977327
 11
12.2949101227
 21
2.515977327
  0
ARC
  5
25A
100
AcDbEntity
  8
0
100
AcDbCircle
 62
2
  6
CONTINUOUS
 10
12.2949101208
 20
2.5184523265
 40
0.0024749995
100
AcDbArc
 50
179.9999571957
 51
270.0000428043
  0
ARC
  5
25B
100
AcDbEntity
  8
0
100
AcDbCircle
 62
2
  6
CONTINUOUS
 10
13.5806801742
 20
2.5212486481
 40
0.044722495
100
AcDbArc
 50
195.531588407
 51
204.7624440448
  0
LINE
  5
25C
100
AcDbEntity
  8
0
100
AcDbLine
 62
2
  6
CONTINUOUS
 10
13.5375908118
 20
2.5092733232
 11
13.5357868108
 21
2.5153423266
  0
ARC
  5
25D
100
AcDbEntity
  8
0
100
AcDbCircle
 62
2
  6
CONTINUOUS
 10
13.4974076135
 20
2.5055452462
 40
0.0396099176
100
AcDbArc
 50
14.3201081283
 51
22.4984722084
  0
ARC
  5
25E
100
AcDbEntity
  8
0
100
AcDbCircle
 62
2
  6
CONTINUOUS
 10
13.5201739219
 20
2.5145168728
 40
0.0151491919
100
AcDbArc
 50
24.098260853
 51
63.0369451818
  0
ARC
  5
25F
100
AcDbEntity
  8
0
100
AcDbCircle
 62
2
  6
CONTINUOUS
 10
13.5161192671
 20
2.5062372524
 40
0.0243676582
100
AcDbArc
 50
63.3666028271
 51
90.3937697637
  0
LINE
  5
260
100
AcDbEntity
  8
0
100
AcDbLine
 62
2
  6
CONTINUOUS
 10
13.5159517998
 20
2.5306043351
 11
13.4883447845
 21
2.5306043351
  0
ARC
  5
261
100
AcDbEntity
  8
0
100
AcDbCircle
 62
2
  6
CONTINUOUS
 10
13.4883447827
 20
2.5281293355
 40
0.0024749995
100
AcDbArc
 50
89.9999571957
 51
180.0000428043
  0
LINE
  5
262
100
AcDbEntity
  8
0
100
AcDbLine
 62
2
  6
CONTINUOUS
 10
13.4858697831
 20
2.5281293337
 11
13.4858697831
 21
2.5184303283
  0
ARC
  5
263
100
AcDbEntity
  8
0
100
AcDbCircle
 62
2
  6
CONTINUOUS
 10
13.4883447827
 20
2.5184303265
 40
0.0024749995
100
AcDbArc
 50
179.9999571957
 51
270.0000428043
  0
LINE
  5
264
100
AcDbEntity
  8
0
100
AcDbLine
 62
2
  6
CONTINUOUS
 10
13.4883447845
 20
2.5159553269
 11
13.5130037982
 21
2.5159553269
  0
ARC
  5
265
100
AcDbEntity
  8
0
100
AcDbCircle
 62
2
  6
CONTINUOUS
 10
13.5130038
 20
2.5134803274
 40
0.0024749995
100
AcDbArc
 50
359.9999571957
 51
90.0000428043
  0
LINE
  5
266
100
AcDbEntity
  8
0
100
AcDbLine
 62
2
  6
CONTINUOUS
 10
13.5154787995
 20
2.5134803256
 11
13.5154787995
 21
2.4937023146
  0
ARC
  5
267
100
AcDbEntity
  8
0
100
AcDbCircle
 62
2
  6
CONTINUOUS
 10
13.5130038
 20
2.4937023128
 40
0.0024749995
100
AcDbArc
 50
269.9999571957
 51
0.0000428043
  0
LINE
  5
268
100
AcDbEntity
  8
0
100
AcDbLine
 62
2
  6
CONTINUOUS
 10
13.5130037982
 20
2.4912273132
 11
13.3994327352
 21
2.4912273132
  0
ARC
  5
269
100
AcDbEntity
  8
0
100
AcDbCircle
 62
2
  6
CONTINUOUS
 10
13.3994327333
 20
2.4937023128
 40
0.0024749995
100
AcDbArc
 50
179.9999571957
 51
270.0000428043
  0
LINE
  5
26A
100
AcDbEntity
  8
0
100
AcDbLine
 62
2
  6
CONTINUOUS
 10
13.3969577338
 20
2.4937023146
 11
13.3969577338
 21
2.5135023256
  0
ARC
  5
26B
100
AcDbEntity
  8
0
100
AcDbCircle
 62
2
  6
CONTINUOUS
 10
13.3994327333
 20
2.5135023274
 40
0.0024749995
100
AcDbArc
 50
89.9999571957
 51
180.0000428043
  0
LINE
  5
26C
100
AcDbEntity
  8
0
100
AcDbLine
 62
2
  6
CONTINUOUS
 10
13.3994327352
 20
2.515977327
 11
13.4221787478
 21
2.515977327
  0
ARC
  5
26D
100
AcDbEntity
  8
0
100
AcDbCircle
 62
2
  6
CONTINUOUS
 10
13.4221787497
 20
2.5184523265
 40
0.0024749995
100
AcDbArc
 50
269.9999571957
 51
0.0000428042
  0
LINE
  5
26E
100
AcDbEntity
  8
0
100
AcDbLine
 62
2
  6
CONTINUOUS
 10
13.4246537492
 20
2.5184523283
 11
13.4246537492
 21
2.564807354
  0
ARC
  5
26F
100
AcDbEntity
  8
0
100
AcDbCircle
 62
2
  6
CONTINUOUS
 10
13.4221787497
 20
2.5648073559
 40
0.0024749995
100
AcDbArc
 50
359.9999571957
 51
90.0000428043
  0
LINE
  5
270
100
AcDbEntity
  8
0
100
AcDbLine
 62
2
  6
CONTINUOUS
 10
13.4221787478
 20
2.5672823554
 11
13.3994327352
 21
2.5672823554
  0
ARC
  5
271
100
AcDbEntity
  8
0
100
AcDbCircle
 62
2
  6
CONTINUOUS
 10
13.3994327333
 20
2.5697573549
 40
0.0024749995
100
AcDbArc
 50
179.9999571957
 51
270.0000428043
  0
LINE
  5
272
100
AcDbEntity
  8
0
100
AcDbLine
 62
2
  6
CONTINUOUS
 10
13.3969577338
 20
2.5697573568
 11
13.3969577338
 21
2.5895573678
  0
ARC
  5
273
100
AcDbEntity
  8
0
100
AcDbCircle
 62
2
  6
CONTINUOUS
 10
13.3994327333
 20
2.5895573696
 40
0.0024749995
100
AcDbArc
 50
89.9999571957
 51
180.0000428043
  0
LINE
  5
274
100
AcDbEntity
  8
0
100
AcDbLine
 62
2
  6
CONTINUOUS
 10
13.3994327352
 20
2.5920323691
 11
13.5490138181
 21
2.5920323691
  0
ARC
  5
275
100
AcDbEntity
  8
0
100
AcDbCircle
 62
2
  6
CONTINUOUS
 10
13.5463505148
 20
2.4094934586
 40
0.1825583387
100
AcDbArc
 50
79.8618509324
 51
89.1640948679
  0
ARC
  5
276
100
AcDbEntity
  8
0
100
AcDbCircle
 62
2
  6
CONTINUOUS
 10
13.5726548052
 20
2.5503169747
 40
0.039319019
100
AcDbArc
 50
59.1202086415
 51
81.4730239328
  0
ARC
  5
277
100
AcDbEntity
  8
0
100
AcDbCircle
 62
2
  6
CONTINUOUS
 10
13.5783142014
 20
2.5566516438
 40
0.0310192946
100
AcDbArc
 50
34.7540871
 51
62.0879016178
  0
ARC
  5
278
100
AcDbEntity
  8
0
100
AcDbCircle
 62
2
  6
CONTINUOUS
 10
13.5900029525
 20
2.565201245
 40
0.0165459396
100
AcDbArc
 50
1.548452892
 51
33.5033152417
  0
ARC
  5
279
100
AcDbEntity
  8
0
100
AcDbCircle
 62
2
  6
CONTINUOUS
 10
13.5932995477
 20
2.5653696972
 40
0.0132462337
100
AcDbArc
 50
331.1510006998
 51
1.205404301
  0
ARC
  5
27A
100
AcDbEntity
  8
0
100
AcDbCircle
 62
2
  6
CONTINUOUS
 10
13.5822888914
 20
2.5720482849
 40
0.0261183659
100
AcDbArc
 50
305.6373831893
 51
329.9727629745
  0
ARC
  5
27B
100
AcDbEntity
  8
0
100
AcDbCircle
 62
2
  6
CONTINUOUS
 10
13.5519569538
 20
2.6152551345
 40
0.0789082104
100
AcDbArc
 50
292.906155071
 51
305.2574666259
  0
ARC
  5
27C
100
AcDbEntity
  8
0
100
AcDbCircle
 62
2
  6
CONTINUOUS
 10
13.5282557878
 20
2.4386010294
 40
0.117346916
100
AcDbArc
 50
58.614769177
 51
62.3737227606
  0
ARC
  5
27D
100
AcDbEntity
  8
0
100
AcDbCircle
 62
2
  6
CONTINUOUS
 10
13.5761387404
 20
2.5167282896
 40
0.0257145923
100
AcDbArc
 50
39.3804255939
 51
59.0361096173
  0
ARC
  5
27E
100
AcDbEntity
  8
0
100
AcDbCircle
 62
2
  6
CONTINUOUS
 10
13.5750183849
 20
2.5166552064
 40
0.0266349791
100
AcDbArc
 50
20.3630922153
 51
37.9727053099
  0
ARC
  5
27F
100
AcDbEntity
  8
0
100
AcDbCircle
 62
2
  6
CONTINUOUS
 10
13.5571178432
 20
2.509473798
 40
0.0459185159
100
AcDbArc
 50
15.6740290068
 51
20.9917271228
  0
ARC
  5
280
100
AcDbEntity
  8
0
100
AcDbCircle
 62
2
  6
CONTINUOUS
 10
13.6156881783
 20
2.525116781
 40
0.0147197649
100
AcDbArc
 50
192.7054516565
 51
206.0594861022
  0
ARC
  5
281
100
AcDbEntity
  8
0
100
AcDbCircle
 62
2
  6
CONTINUOUS
 10
13.6071938412
 20
2.5209082945
 40
0.0052403997
100
AcDbArc
 50
205.5232099488
 51
227.5054868079
  0
ARC
  5
282
100
AcDbEntity
  8
0
100
AcDbCircle
 62
2
  6
CONTINUOUS
 10
13.6054655419
 20
2.5190929218
 40
0.0027347709
100
AcDbArc
 50
228.5117626737
 51
266.1485845754
  0
LINE
  5
283
100
AcDbEntity
  8
0
100
AcDbLine
 62
2
  6
CONTINUOUS
 10
13.6052818493
 20
2.5163643272
 11
13.60639085
 21
2.5163643272
  0
ARC
  5
284
100
AcDbEntity
  8
0
100
AcDbCircle
 62
2
  6
CONTINUOUS
 10
13.6063292954
 20
2.5296129864
 40
0.0132488022
100
AcDbArc
 50
270.266200055
 51
281.2404888597
  0
ARC
  5
285
100
AcDbEntity
  8
0
100
AcDbCircle
 62
2
  6
CONTINUOUS
 10
13.6075235364
 20
2.5238762928
 40
0.0073895522
100
AcDbArc
 50
280.8288201977
 51
305.0837508495
  0
ARC
  5
286
100
AcDbEntity
  8
0
100
AcDbCircle
 62
2
  6
CONTINUOUS
 10
13.607924718
 20
2.5230254464
 40
0.0064647042
100
AcDbArc
 50
306.5086174083
 51
340.2162360092
  0
ARC
  5
287
100
AcDbEntity
  8
0
100
AcDbCircle
 62
2
  6
CONTINUOUS
 10
13.6027235414
 20
2.524769508
 40
0.0119498009
100
AcDbArc
 50
340.7883861657
 51
1.1691452593
  0
LINE
  5
288
100
AcDbEntity
  8
0
100
AcDbLine
 62
2
  6
CONTINUOUS
 10
13.6146708546
 20
2.525013332
 11
13.6146708546
 21
2.5276393334
  0
ARC
  5
289
100
AcDbEntity
  8
0
100
AcDbCircle
 62
2
  6
CONTINUOUS
 10
13.6171458541
 20
2.5276393353
 40
0.0024749995
100
AcDbArc
 50
89.9999571957
 51
180.0000428043
  0
LINE
  5
28A
100
AcDbEntity
  8
0
100
AcDbLine
 62
2
  6
CONTINUOUS
 10
13.6171458559
 20
2.5301143348
 11
13.6292558626
 21
2.5301143348
  0
ARC
  5
28B
100
AcDbEntity
  8
0
100
AcDbCircle
 62
2
  6
CONTINUOUS
 10
13.6292558645
 20
2.5276393353
 40
0.0024749995
100
AcDbArc
 50
359.9999571957
 51
90.0000428043
  0
LINE
  5
28C
100
AcDbEntity
  8
0
100
AcDbLine
 62
2
  6
CONTINUOUS
 10
13.631730864
 20
2.5276393334
 11
13.631730864
 21
2.516087327
  0
ARC
  5
28D
100
AcDbEntity
  8
0
100
AcDbCircle
 62
2
  6
CONTINUOUS
 10
13.6141751675
 20
2.5161916447
 40
0.0175560065
100
AcDbArc
 50
332.2279060967
 51
359.6595469939
  0
ARC
  5
28E
100
AcDbEntity
  8
0
100
AcDbCircle
 62
2
  6
CONTINUOUS
 10
13.6048681567
 20
2.5210861501
 40
0.0280715479
100
AcDbArc
 50
308.5071794988
 51
332.2400656899
  0
ARC
  5
28F
100
AcDbEntity
  8
0
100
AcDbCircle
 62
2
  6
CONTINUOUS
 10
13.5978759713
 20
2.5286873679
 40
0.0383802683
100
AcDbArc
 50
288.7656836787
 51
309.6104317088
  0
ARC
  5
290
100
AcDbEntity
  8
0
100
AcDbCircle
 62
2
  6
CONTINUOUS
 10
13.6036139387
 20
2.5111006186
 40
0.0198837666
100
AcDbArc
 50
271.8586572978
 51
289.4131338543
  0
LINE
  5
291
100
AcDbEntity
  8
0
100
AcDbLine
 62
2
  6
CONTINUOUS
 10
13.6042588488
 20
2.4912273132
 11
13.5568948225
 21
2.4912273132
  0
ARC
  5
292
100
AcDbEntity
  8
0
100
AcDbCircle
 62
2
  6
CONTINUOUS
 10
13.5577001432
 20
2.5085494649
 40
0.0173408616
100
AcDbArc
 50
232.4713476722
 51
267.338189944
  0
ARC
  5
293
100
AcDbEntity
  8
0
100
AcDbCircle
 62
2
  6
CONTINUOUS
 10
13.5607987082
 20
2.5143997688
 40
0.0238935861
100
AcDbArc
 50
209.8247607259
 51
235.1255079367
  0
ARC
  5
294
100
AcDbEntity
  8
0
100
AcDbCircle
 62
2
  6
CONTINUOUS
 10
13.5295131508
 20
2.5629115009
 40
0.0110815393
100
AcDbArc
 50
306.758405961
 51
320.4502234234
  0
ARC
  5
295
100
AcDbEntity
  8
0
100
AcDbCircle
 62
2
  6
CONTINUOUS
 10
13.5238839599
 20
2.5706523294
 40
0.0206523367
100
AcDbArc
 50
289.6883413472
 51
306.4184925496
  0
ARC
  5
296
100
AcDbEntity
  8
0
100
AcDbCircle
 62
2
  6
CONTINUOUS
 10
13.5219564542
 20
2.5750459767
 40
0.0254407115
100
AcDbArc
 50
270.7327484175
 51
290.441894219
  0
LINE
  5
297
100
AcDbEntity
  8
0
100
AcDbLine
 62
2
  6
CONTINUOUS
 10
13.5222818033
 20
2.5496073456
 11
13.4883447845
 21
2.5496073456
  0
ARC
  5
298
100
AcDbEntity
  8
0
100
AcDbCircle
 62
2
  6
CONTINUOUS
 10
13.4883447827
 20
2.5520823451
 40
0.0024749995
100
AcDbArc
 50
179.9999571957
 51
270.0000428043
  0
LINE
  5
299
100
AcDbEntity
  8
0
100
AcDbLine
 62
2
  6
CONTINUOUS
 10
13.4858697831
 20
2.552082347
 11
13.4858697831
 21
2.564807354
  0
ARC
  5
29A
100
AcDbEntity
  8
0
100
AcDbCircle
 62
2
  6
CONTINUOUS
 10
13.4883447827
 20
2.5648073559
 40
0.0024749995
100
AcDbArc
 50
89.9999571957
 51
180.0000428043
  0
LINE
  5
29B
100
AcDbEntity
  8
0
100
AcDbLine
 62
2
  6
CONTINUOUS
 10
13.4883447845
 20
2.5672823554
 11
13.5251458049
 21
2.5672823554
  0
ARC
  5
29C
100
AcDbEntity
  8
0
100
AcDbCircle
 62
2
  6
CONTINUOUS
 10
13.5236009174
 20
2.5388278764
 40
0.0284963867
100
AcDbArc
 50
70.3834917948
 51
86.8922743861
  0
ARC
  5
29D
100
AcDbEntity
  8
0
100
AcDbCircle
 62
2
  6
CONTINUOUS
 10
13.5284605274
 20
2.5518696094
 40
0.0145814632
100
AcDbArc
 50
54.6746025112
 51
71.1660573124
  0
ARC
  5
29E
100
AcDbEntity
  8
0
100
AcDbCircle
 62
2
  6
CONTINUOUS
 10
13.5335900184
 20
2.5587235346
 40
0.0060275915
100
AcDbArc
 50
20.9055592135
 51
56.7851676243
  0
ARC
  5
29F
100
AcDbEntity
  8
0
100
AcDbCircle
 62
2
  6
CONTINUOUS
 10
13.5348905773
 20
2.5593838168
 40
0.0045795888
100
AcDbArc
 50
355.6235353944
 51
18.9942678268
  0
ARC
  5
2A0
100
AcDbEntity
  8
0
100
AcDbCircle
 62
2
  6
CONTINUOUS
 10
13.533683767
 20
2.559677593
 40
0.0058087709
100
AcDbArc
 50
318.8515287446
 51
353.6422345323
  0
LINE
  5
2A1
100
AcDbEntity
  8
0
100
AcDbLine
 62
2
  6
CONTINUOUS
 10
12.672340332
 20
2.5920323691
 11
12.7727983877
 21
2.5920323691
  0
ARC
  5
2A2
100
AcDbEntity
  8
0
100
AcDbCircle
 62
2
  6
CONTINUOUS
 10
12.7727985224
 20
2.5895582013
 40
0.0024741678
100
AcDbArc
 50
46.3477981899
 51
90.0031206038
  0
LINE
  5
2A3
100
AcDbEntity
  8
0
100
AcDbLine
 62
2
  6
CONTINUOUS
 10
12.7745063886
 20
2.5913483688
 11
12.8345394219
 21
2.534068337
  0
ARC
  5
2A4
100
AcDbEntity
  8
0
100
AcDbCircle
 62
2
  6
CONTINUOUS
 10
12.8362481229
 20
2.5358592748
 40
0.0024753014
100
AcDbArc
 50
226.3461263059
 51
0.0014637321
  0
LINE
  5
2A5
100
AcDbEntity
  8
0
100
AcDbLine
 62
2
  6
CONTINUOUS
 10
12.8387234242
 20
2.535859338
 11
12.8387234242
 21
2.564807354
  0
ARC
  5
2A6
100
AcDbEntity
  8
0
100
AcDbCircle
 62
2
  6
CONTINUOUS
 10
12.8362484247
 20
2.5648073559
 40
0.0024749995
100
AcDbArc
 50
359.9999571957
 51
90.0000428043
  0
LINE
  5
2A7
100
AcDbEntity
  8
0
100
AcDbLine
 62
2
  6
CONTINUOUS
 10
12.8362484229
 20
2.5672823554
 11
12.8174724125
 21
2.5672823554
  0
ARC
  5
2A8
100
AcDbEntity
  8
0
100
AcDbCircle
 62
2
  6
CONTINUOUS
 10
12.8174724106
 20
2.5697573549
 40
0.0024749995
100
AcDbArc
 50
179.9999571957
 51
270.0000428043
  0
LINE
  5
2A9
100
AcDbEntity
  8
0
100
AcDbLine
 62
2
  6
CONTINUOUS
 10
12.8149974111
 20
2.5697573568
 11
12.8149974111
 21
2.5895573678
  0
ARC
  5
2AA
100
AcDbEntity
  8
0
100
AcDbCircle
 62
2
  6
CONTINUOUS
 10
12.8174724106
 20
2.5895573696
 40
0.0024749995
100
AcDbArc
 50
89.9999571957
 51
180.0000428043
  0
LINE
  5
2AB
100
AcDbEntity
  8
0
100
AcDbLine
 62
2
  6
CONTINUOUS
 10
12.8174724125
 20
2.5920323691
 11
12.8914734535
 21
2.5920323691
  0
ARC
  5
2AC
100
AcDbEntity
  8
0
100
AcDbCircle
 62
2
  6
CONTINUOUS
 10
12.8914734553
 20
2.5895573696
 40
0.0024749995
100
AcDbArc
 50
359.9999571957
 51
90.0000428043
  0
LINE
  5
2AD
100
AcDbEntity
  8
0
100
AcDbLine
 62
2
  6
CONTINUOUS
 10
12.8939484549
 20
2.5895573678
 11
12.8939484549
 21
2.5697573568
  0
ARC
  5
2AE
100
AcDbEntity
  8
0
100
AcDbCircle
 62
2
  6
CONTINUOUS
 10
12.8914734553
 20
2.5697573549
 40
0.0024749995
100
AcDbArc
 50
269.9999571957
 51
0.0000428043
  0
LINE
  5
2AF
100
AcDbEntity
  8
0
100
AcDbLine
 62
2
  6
CONTINUOUS
 10
12.8914734535
 20
2.5672823554
 11
12.8735404436
 21
2.5672823554
  0
ARC
  5
2B0
100
AcDbEntity
  8
0
100
AcDbCircle
 62
2
  6
CONTINUOUS
 10
12.8735404417
 20
2.5648073559
 40
0.0024749995
100
AcDbArc
 50
89.9999571957
 51
180.0000428043
  0
LINE
  5
2B1
100
AcDbEntity
  8
0
100
AcDbLine
 62
2
  6
CONTINUOUS
 10
12.8710654422
 20
2.564807354
 11
12.8710654422
 21
2.4937023146
  0
ARC
  5
2B2
100
AcDbEntity
  8
0
100
AcDbCircle
 62
2
  6
CONTINUOUS
 10
12.8685904427
 20
2.4937023128
 40
0.0024749995
100
AcDbArc
 50
269.9999571957
 51
0.0000428043
  0
LINE
  5
2B3
100
AcDbEntity
  8
0
100
AcDbLine
 62
2
  6
CONTINUOUS
 10
12.8685904408
 20
2.4912273132
 11
12.7943853997
 21
2.4912273132
  0
ARC
  5
2B4
100
AcDbEntity
  8
0
100
AcDbCircle
 62
2
  6
CONTINUOUS
 10
12.7943847649
 20
2.4937027294
 40
0.0024754162
100
AcDbArc
 50
226.3593695813
 51
270.0146919953
  0
LINE
  5
2B5
100
AcDbEntity
  8
0
100
AcDbLine
 62
2
  6
CONTINUOUS
 10
12.7926763987
 20
2.4919113136
 11
12.7293963636
 21
2.5522893471
  0
ARC
  5
2B6
100
AcDbEntity
  8
0
100
AcDbCircle
 62
2
  6
CONTINUOUS
 10
12.7276876627
 20
2.5504984093
 40
0.0024753014
100
AcDbArc
 50
46.3461263059
 51
180.0014637321
  0
LINE
  5
2B7
100
AcDbEntity
  8
0
100
AcDbLine
 62
2
  6
CONTINUOUS
 10
12.7252123613
 20
2.5504983461
 11
12.7252123613
 21
2.5184523283
  0
ARC
  5
2B8
100
AcDbEntity
  8
0
100
AcDbCircle
 62
2
  6
CONTINUOUS
 10
12.7276873608
 20
2.5184523265
 40
0.0024749995
100
AcDbArc
 50
179.9999571957
 51
270.0000428043
  0
LINE
  5
2B9
100
AcDbEntity
  8
0
100
AcDbLine
 62
2
  6
CONTINUOUS
 10
12.7276873627
 20
2.515977327
 11
12.7480043739
 21
2.515977327
  0
ARC
  5
2BA
100
AcDbEntity
  8
0
100
AcDbCircle
 62
2
  6
CONTINUOUS
 10
12.7480043758
 20
2.5135023274
 40
0.0024749995
100
AcDbArc
 50
359.9999571957
 51
90.0000428043
  0
LINE
  5
2BB
100
AcDbEntity
  8
0
100
AcDbLine
 62
2
  6
CONTINUOUS
 10
12.7504793753
 20
2.5135023256
 11
12.7504793753
 21
2.4937023146
  0
ARC
  5
2BC
100
AcDbEntity
  8
0
100
AcDbCircle
 62
2
  6
CONTINUOUS
 10
12.7480043758
 20
2.4937023128
 40
0.0024749995
100
AcDbArc
 50
269.9999571957
 51
0.0000428043
  0
LINE
  5
2BD
100
AcDbEntity
  8
0
100
AcDbLine
 62
2
  6
CONTINUOUS
 10
12.7480043739
 20
2.4912273132
 11
12.672340332
 21
2.4912273132
  0
ARC
  5
2BE
100
AcDbEntity
  8
0
100
AcDbCircle
 62
2
  6
CONTINUOUS
 10
12.6723403301
 20
2.4937023128
 40
0.0024749995
100
AcDbArc
 50
179.9999571957
 51
270.0000428043
  0
LINE
  5
2BF
100
AcDbEntity
  8
0
100
AcDbLine
 62
2
  6
CONTINUOUS
 10
12.6698653306
 20
2.4937023146
 11
12.6698653306
 21
2.5135023256
  0
ARC
  5
2C0
100
AcDbEntity
  8
0
100
AcDbCircle
 62
2
  6
CONTINUOUS
 10
12.6723403301
 20
2.5135023274
 40
0.0024749995
100
AcDbArc
 50
89.9999571957
 51
180.0000428043
  0
LINE
  5
2C1
100
AcDbEntity
  8
0
100
AcDbLine
 62
2
  6
CONTINUOUS
 10
12.672340332
 20
2.515977327
 11
12.6909873423
 21
2.515977327
  0
ARC
  5
2C2
100
AcDbEntity
  8
0
100
AcDbCircle
 62
2
  6
CONTINUOUS
 10
12.6909873442
 20
2.5184523265
 40
0.0024749995
100
AcDbArc
 50
269.9999571957
 51
0.0000428043
  0
LINE
  5
2C3
100
AcDbEntity
  8
0
100
AcDbLine
 62
2
  6
CONTINUOUS
 10
12.6934623437
 20
2.5184523283
 11
12.6934623437
 21
2.564807354
  0
ARC
  5
2C4
100
AcDbEntity
  8
0
100
AcDbCircle
 62
2
  6
CONTINUOUS
 10
12.6909873442
 20
2.5648073559
 40
0.0024749995
100
AcDbArc
 50
359.9999571957
 51
90.0000428043
  0
LINE
  5
2C5
100
AcDbEntity
  8
0
100
AcDbLine
 62
2
  6
CONTINUOUS
 10
12.6909873423
 20
2.5672823554
 11
12.672340332
 21
2.5672823554
  0
ARC
  5
2C6
100
AcDbEntity
  8
0
100
AcDbCircle
 62
2
  6
CONTINUOUS
 10
12.6723403301
 20
2.5697573549
 40
0.0024749995
100
AcDbArc
 50
179.9999571957
 51
270.0000428043
  0
LINE
  5
2C7
100
AcDbEntity
  8
0
100
AcDbLine
 62
2
  6
CONTINUOUS
 10
12.6698653306
 20
2.5697573568
 11
12.6698653306
 21
2.5895573678
  0
ARC
  5
2C8
100
AcDbEntity
  8
0
100
AcDbCircle
 62
2
  6
CONTINUOUS
 10
12.6723403301
 20
2.5895573696
 40
0.0024749995
100
AcDbArc
 50
89.9999571957
 51
180.0000428043
  0
LINE
  5
2C9
100
AcDbEntity
  8
0
100
AcDbLine
 62
2
  6
CONTINUOUS
 10
12.5246402501
 20
2.5655893545
 11
12.5175232461
 21
2.5543723483
  0
ARC
  5
2CA
100
AcDbEntity
  8
0
100
AcDbCircle
 62
2
  6
CONTINUOUS
 10
12.519613138
 20
2.5530463862
 40
0.0024750401
100
AcDbArc
 50
147.6063258012
 51
270.0025305754
  0
LINE
  5
2CB
100
AcDbEntity
  8
0
100
AcDbLine
 62
2
  6
CONTINUOUS
 10
12.5196132473
 20
2.5505713461
 11
12.5401702587
 21
2.5505713461
  0
ARC
  5
2CC
100
AcDbEntity
  8
0
100
AcDbCircle
 62
2
  6
CONTINUOUS
 10
12.5401702375
 20
2.5530465533
 40
0.0024752071
100
AcDbArc
 50
270.0004896793
 51
32.9089806818
  0
LINE
  5
2CD
100
AcDbEntity
  8
0
100
AcDbLine
 62
2
  6
CONTINUOUS
 10
12.5422482598
 20
2.5543913483
 11
12.5349892558
 21
2.5656073545
  0
ARC
  5
2CE
100
AcDbEntity
  8
0
100
AcDbCircle
 62
2
  6
CONTINUOUS
 10
12.532910715
 20
2.564262895
 40
0.0024754602
100
AcDbArc
 50
32.8959418573
 51
89.9875097202
  0
LINE
  5
2CF
100
AcDbEntity
  8
0
100
AcDbLine
 62
2
  6
CONTINUOUS
 10
12.5329112547
 20
2.5667383551
 11
12.5267302512
 21
2.5667383551
  0
ARC
  5
2D0
100
AcDbEntity
  8
0
100
AcDbCircle
 62
2
  6
CONTINUOUS
 10
12.5267301809
 20
2.5642631548
 40
0.0024752003
100
AcDbArc
 50
89.998372645
 51
147.602165307
  0
LINE
  5
2D1
100
AcDbEntity
  8
0
100
AcDbLine
 62
2
  6
CONTINUOUS
 10
12.548053263
 20
2.5284903339
 11
12.5536792662
 21
2.5197973291
  0
ARC
  5
2D2
100
AcDbEntity
  8
0
100
AcDbCircle
 62
2
  6
CONTINUOUS
 10
12.5516012439
 20
2.5184525341
 40
0.0024752071
100
AcDbArc
 50
270.0004896794
 51
32.9089806818
  0
LINE
  5
2D3
100
AcDbEntity
  8
0
100
AcDbLine
 62
2
  6
CONTINUOUS
 10
12.551601265
 20
2.515977327
 11
12.537150257
 21
2.515977327
  0
ARC
  5
2D4
100
AcDbEntity
  8
0
100
AcDbCircle
 62
2
  6
CONTINUOUS
 10
12.5371502552
 20
2.5135023274
 40
0.0024749995
100
AcDbArc
 50
89.9999571957
 51
180.0000428043
  0
LINE
  5
2D5
100
AcDbEntity
  8
0
100
AcDbLine
 62
2
  6
CONTINUOUS
 10
12.5346752556
 20
2.5135023256
 11
12.5346752556
 21
2.4937023146
  0
ARC
  5
2D6
100
AcDbEntity
  8
0
100
AcDbCircle
 62
2
  6
CONTINUOUS
 10
12.5371502552
 20
2.4937023128
 40
0.0024749995
100
AcDbArc
 50
179.9999571957
 51
270.0000428043
  0
LINE
  5
2D7
100
AcDbEntity
  8
0
100
AcDbLine
 62
2
  6
CONTINUOUS
 10
12.537150257
 20
2.4912273132
 11
12.6424313154
 21
2.4912273132
  0
ARC
  5
2D8
100
AcDbEntity
  8
0
100
AcDbCircle
 62
2
  6
CONTINUOUS
 10
12.6424313172
 20
2.4937023128
 40
0.0024749995
100
AcDbArc
 50
269.9999571957
 51
0.0000428043
  0
LINE
  5
2D9
100
AcDbEntity
  8
0
100
AcDbLine
 62
2
  6
CONTINUOUS
 10
12.6449063168
 20
2.4937023146
 11
12.6449063168
 21
2.5135023256
  0
ARC
  5
2DA
100
AcDbEntity
  8
0
100
AcDbCircle
 62
2
  6
CONTINUOUS
 10
12.6424313172
 20
2.5135023274
 40
0.0024749995
100
AcDbArc
 50
359.9999571957
 51
90.0000428043
  0
LINE
  5
2DB
100
AcDbEntity
  8
0
100
AcDbLine
 62
2
  6
CONTINUOUS
 10
12.6424313154
 20
2.515977327
 11
12.6224153043
 21
2.515977327
  0
ARC
  5
2DC
100
AcDbEntity
  8
0
100
AcDbCircle
 62
2
  6
CONTINUOUS
 10
12.6224154248
 20
2.518451368
 40
0.002474041
100
AcDbArc
 50
212.9056413127
 51
269.9972091756
  0
LINE
  5
2DD
100
AcDbEntity
  8
0
100
AcDbLine
 62
2
  6
CONTINUOUS
 10
12.6203383031
 20
2.5171073276
 11
12.5725822767
 21
2.5909023685
  0
ARC
  5
2DE
100
AcDbEntity
  8
0
100
AcDbCircle
 62
2
  6
CONTINUOUS
 10
12.570504655
 20
2.589557409
 40
0.0024749602
100
AcDbArc
 50
32.9172174468
 51
90.0087853097
  0
LINE
  5
2DF
100
AcDbEntity
  8
0
100
AcDbLine
 62
2
  6
CONTINUOUS
 10
12.5705042755
 20
2.5920323691
 11
12.5133292438
 21
2.5920323691
  0
ARC
  5
2E0
100
AcDbEntity
  8
0
100
AcDbCircle
 62
2
  6
CONTINUOUS
 10
12.5133291735
 20
2.5895571688
 40
0.0024752003
100
AcDbArc
 50
89.9983726451
 51
147.602165307
  0
LINE
  5
2E1
100
AcDbEntity
  8
0
100
AcDbLine
 62
2
  6
CONTINUOUS
 10
12.5112392426
 20
2.5908833685
 11
12.4644392167
 21
2.5171263276
  0
ARC
  5
2E2
100
AcDbEntity
  8
0
100
AcDbCircle
 62
2
  6
CONTINUOUS
 10
12.4623492858
 20
2.5184525273
 40
0.0024752003
100
AcDbArc
 50
269.9983726451
 51
327.602165307
  0
LINE
  5
2E3
100
AcDbEntity
  8
0
100
AcDbLine
 62
2
  6
CONTINUOUS
 10
12.4623492155
 20
2.515977327
 11
12.4394882028
 21
2.515977327
  0
ARC
  5
2E4
100
AcDbEntity
  8
0
100
AcDbCircle
 62
2
  6
CONTINUOUS
 10
12.439488201
 20
2.5135023274
 40
0.0024749995
100
AcDbArc
 50
89.9999571957
 51
180.0000428043
  0
LINE
  5
2E5
100
AcDbEntity
  8
0
100
AcDbLine
 62
2
  6
CONTINUOUS
 10
12.4370132015
 20
2.5135023256
 11
12.4370132015
 21
2.4937023146
  0
ARC
  5
2E6
100
AcDbEntity
  8
0
100
AcDbCircle
 62
2
  6
CONTINUOUS
 10
12.439488201
 20
2.4937023128
 40
0.0024749995
100
AcDbArc
 50
179.9999571957
 51
270.0000428043
  0
LINE
  5
2E7
100
AcDbEntity
  8
0
100
AcDbLine
 62
2
  6
CONTINUOUS
 10
12.4394882028
 20
2.4912273132
 11
12.5168642458
 21
2.4912273132
  0
ARC
  5
2E8
100
AcDbEntity
  8
0
100
AcDbCircle
 62
2
  6
CONTINUOUS
 10
12.5168642476
 20
2.4937023128
 40
0.0024749995
100
AcDbArc
 50
269.9999571957
 51
0.0000428043
  0
LINE
  5
2E9
100
AcDbEntity
  8
0
100
AcDbLine
 62
2
  6
CONTINUOUS
 10
12.5193392471
 20
2.4937023146
 11
12.5193392471
 21
2.5135023256
  0
ARC
  5
2EA
100
AcDbEntity
  8
0
100
AcDbCircle
 62
2
  6
CONTINUOUS
 10
12.5168642476
 20
2.5135023274
 40
0.0024749995
100
AcDbArc
 50
359.9999571957
 51
90.0000428043
  0
LINE
  5
2EB
100
AcDbEntity
  8
0
100
AcDbLine
 62
2
  6
CONTINUOUS
 10
12.5168642458
 20
2.515977327
 11
12.5055812395
 21
2.515977327
  0
ARC
  5
2EC
100
AcDbEntity
  8
0
100
AcDbCircle
 62
2
  6
CONTINUOUS
 10
12.5055811302
 20
2.518452367
 40
0.0024750401
100
AcDbArc
 50
147.6063258011
 51
270.0025305754
  0
LINE
  5
2ED
100
AcDbEntity
  8
0
100
AcDbLine
 62
2
  6
CONTINUOUS
 10
12.5034912383
 20
2.5197783291
 11
12.5090072414
 21
2.5284723339
  0
ARC
  5
2EE
100
AcDbEntity
  8
0
100
AcDbCircle
 62
2
  6
CONTINUOUS
 10
12.5110971723
 20
2.5271461342
 40
0.0024752003
100
AcDbArc
 50
89.998372645
 51
147.602165307
  0
LINE
  5
2EF
100
AcDbEntity
  8
0
100
AcDbLine
 62
2
  6
CONTINUOUS
 10
12.5110972426
 20
2.5296213345
 11
12.5459752619
 21
2.5296213345
  0
ARC
  5
2F0
100
AcDbEntity
  8
0
100
AcDbCircle
 62
2
  6
CONTINUOUS
 10
12.5459747223
 20
2.5271458744
 40
0.0024754602
100
AcDbArc
 50
32.8959418573
 51
89.9875097202
  0
LINE
  5
2F1
100
AcDbEntity
  8
0
100
AcDbLine
 62
2
  6
CONTINUOUS
 10
12.9205934696
 20
2.5920323691
 11
13.0210515254
 21
2.5920323691
  0
ARC
  5
2F2
100
AcDbEntity
  8
0
100
AcDbCircle
 62
2
  6
CONTINUOUS
 10
13.0210516601
 20
2.5895582013
 40
0.0024741678
100
AcDbArc
 50
46.3477981899
 51
90.0031206038
  0
LINE
  5
2F3
100
AcDbEntity
  8
0
100
AcDbLine
 62
2
  6
CONTINUOUS
 10
13.0227595263
 20
2.5913483688
 11
13.0827925596
 21
2.534068337
  0
ARC
  5
2F4
100
AcDbEntity
  8
0
100
AcDbCircle
 62
2
  6
CONTINUOUS
 10
13.0845012605
 20
2.5358592748
 40
0.0024753014
100
AcDbArc
 50
226.3461263059
 51
0.0014637321
  0
LINE
  5
2F5
100
AcDbEntity
  8
0
100
AcDbLine
 62
2
  6
CONTINUOUS
 10
13.0869765619
 20
2.535859338
 11
13.0869765619
 21
2.564807354
  0
ARC
  5
2F6
100
AcDbEntity
  8
0
100
AcDbCircle
 62
2
  6
CONTINUOUS
 10
13.0845015624
 20
2.5648073559
 40
0.0024749995
100
AcDbArc
 50
359.9999571957
 51
90.0000428043
  0
LINE
  5
2F7
100
AcDbEntity
  8
0
100
AcDbLine
 62
2
  6
CONTINUOUS
 10
13.0845015605
 20
2.5672823554
 11
13.0657255501
 21
2.5672823554
  0
ARC
  5
2F8
100
AcDbEntity
  8
0
100
AcDbCircle
 62
2
  6
CONTINUOUS
 10
13.0657255483
 20
2.5697573549
 40
0.0024749995
100
AcDbArc
 50
179.9999571957
 51
270.0000428043
  0
LINE
  5
2F9
100
AcDbEntity
  8
0
100
AcDbLine
 62
2
  6
CONTINUOUS
 10
13.0632505488
 20
2.5697573568
 11
13.0632505488
 21
2.5895573678
  0
ARC
  5
2FA
100
AcDbEntity
  8
0
100
AcDbCircle
 62
2
  6
CONTINUOUS
 10
13.0657255483
 20
2.5895573696
 40
0.0024749995
100
AcDbArc
 50
89.9999571957
 51
180.0000428043
  0
LINE
  5
2FB
100
AcDbEntity
  8
0
100
AcDbLine
 62
2
  6
CONTINUOUS
 10
13.0657255501
 20
2.5920323691
 11
13.1397265912
 21
2.5920323691
  0
ARC
  5
2FC
100
AcDbEntity
  8
0
100
AcDbCircle
 62
2
  6
CONTINUOUS
 10
13.139726593
 20
2.5895573696
 40
0.0024749995
100
AcDbArc
 50
359.9999571957
 51
90.0000428043
  0
LINE
  5
2FD
100
AcDbEntity
  8
0
100
AcDbLine
 62
2
  6
CONTINUOUS
 10
13.1422015925
 20
2.5895573678
 11
13.1422015925
 21
2.5697573568
  0
ARC
  5
2FE
100
AcDbEntity
  8
0
100
AcDbCircle
 62
2
  6
CONTINUOUS
 10
13.139726593
 20
2.5697573549
 40
0.0024749995
100
AcDbArc
 50
269.9999571957
 51
0.0000428042
  0
LINE
  5
2FF
100
AcDbEntity
  8
0
100
AcDbLine
 62
2
  6
CONTINUOUS
 10
13.1397265912
 20
2.5672823554
 11
13.1217935812
 21
2.5672823554
  0
ARC
  5
300
100
AcDbEntity
  8
0
100
AcDbCircle
 62
2
  6
CONTINUOUS
 10
13.1217935794
 20
2.5648073559
 40
0.0024749995
100
AcDbArc
 50
89.9999571957
 51
180.0000428042
  0
LINE
  5
301
100
AcDbEntity
  8
0
100
AcDbLine
 62
2
  6
CONTINUOUS
 10
13.1193185799
 20
2.564807354
 11
13.1193185799
 21
2.4937023146
  0
ARC
  5
302
100
AcDbEntity
  8
0
100
AcDbCircle
 62
2
  6
CONTINUOUS
 10
13.1168435803
 20
2.4937023128
 40
0.0024749995
100
AcDbArc
 50
269.9999571957
 51
0.0000428043
  0
LINE
  5
303
100
AcDbEntity
  8
0
100
AcDbLine
 62
2
  6
CONTINUOUS
 10
13.1168435785
 20
2.4912273132
 11
13.0426375373
 21
2.4912273132
  0
ARC
  5
304
100
AcDbEntity
  8
0
100
AcDbCircle
 62
2
  6
CONTINUOUS
 10
13.0426374026
 20
2.493701481
 40
0.0024741678
100
AcDbArc
 50
226.3477981898
 51
270.0031206038
  0
LINE
  5
305
100
AcDbEntity
  8
0
100
AcDbLine
 62
2
  6
CONTINUOUS
 10
13.0409295364
 20
2.4919113136
 11
12.9776495013
 21
2.5522893471
  0
ARC
  5
306
100
AcDbEntity
  8
0
100
AcDbCircle
 62
2
  6
CONTINUOUS
 10
12.9759408003
 20
2.5504984093
 40
0.0024753014
100
AcDbArc
 50
46.3461263059
 51
180.0014637321
  0
LINE
  5
307
100
AcDbEntity
  8
0
100
AcDbLine
 62
2
  6
CONTINUOUS
 10
12.973465499
 20
2.5504983461
 11
12.973465499
 21
2.5184523283
  0
ARC
  5
308
100
AcDbEntity
  8
0
100
AcDbCircle
 62
2
  6
CONTINUOUS
 10
12.9759404985
 20
2.5184523265
 40
0.0024749995
100
AcDbArc
 50
179.9999571957
 51
270.0000428043
  0
LINE
  5
309
100
AcDbEntity
  8
0
100
AcDbLine
 62
2
  6
CONTINUOUS
 10
12.9759405003
 20
2.515977327
 11
12.9962575116
 21
2.515977327
  0
ARC
  5
30A
100
AcDbEntity
  8
0
100
AcDbCircle
 62
2
  6
CONTINUOUS
 10
12.9962575135
 20
2.5135023274
 40
0.0024749995
100
AcDbArc
 50
359.9999571957
 51
90.0000428043
  0
LINE
  5
30B
100
AcDbEntity
  8
0
100
AcDbLine
 62
2
  6
CONTINUOUS
 10
12.998732513
 20
2.5135023256
 11
12.998732513
 21
2.4937023146
  0
ARC
  5
30C
100
AcDbEntity
  8
0
100
AcDbCircle
 62
2
  6
CONTINUOUS
 10
12.9962575135
 20
2.4937023128
 40
0.0024749995
100
AcDbArc
 50
269.9999571957
 51
0.0000428043
  0
LINE
  5
30D
100
AcDbEntity
  8
0
100
AcDbLine
 62
2
  6
CONTINUOUS
 10
12.9962575116
 20
2.4912273132
 11
12.9205934696
 21
2.4912273132
  0
ARC
  5
30E
100
AcDbEntity
  8
0
100
AcDbCircle
 62
2
  6
CONTINUOUS
 10
12.9205934678
 20
2.4937023128
 40
0.0024749995
100
AcDbArc
 50
179.9999571957
 51
270.0000428043
  0
LINE
  5
30F
100
AcDbEntity
  8
0
100
AcDbLine
 62
2
  6
CONTINUOUS
 10
12.9181184683
 20
2.4937023146
 11
12.9181184683
 21
2.5135023256
  0
ARC
  5
310
100
AcDbEntity
  8
0
100
AcDbCircle
 62
2
  6
CONTINUOUS
 10
12.9205934678
 20
2.5135023274
 40
0.0024749995
100
AcDbArc
 50
89.9999571957
 51
180.0000428042
  0
LINE
  5
311
100
AcDbEntity
  8
0
100
AcDbLine
 62
2
  6
CONTINUOUS
 10
12.9205934696
 20
2.515977327
 11
12.93923948
 21
2.515977327
  0
ARC
  5
312
100
AcDbEntity
  8
0
100
AcDbCircle
 62
2
  6
CONTINUOUS
 10
12.9392394818
 20
2.5184523265
 40
0.0024749995
100
AcDbArc
 50
269.9999571957
 51
0.0000428043
  0
LINE
  5
313
100
AcDbEntity
  8
0
100
AcDbLine
 62
2
  6
CONTINUOUS
 10
12.9417144814
 20
2.5184523283
 11
12.9417144814
 21
2.564807354
  0
ARC
  5
314
100
AcDbEntity
  8
0
100
AcDbCircle
 62
2
  6
CONTINUOUS
 10
12.9392394818
 20
2.5648073559
 40
0.0024749995
100
AcDbArc
 50
359.9999571957
 51
90.0000428043
  0
LINE
  5
315
100
AcDbEntity
  8
0
100
AcDbLine
 62
2
  6
CONTINUOUS
 10
12.93923948
 20
2.5672823554
 11
12.9205934696
 21
2.5672823554
  0
ARC
  5
316
100
AcDbEntity
  8
0
100
AcDbCircle
 62
2
  6
CONTINUOUS
 10
12.9205934678
 20
2.5697573549
 40
0.0024749995
100
AcDbArc
 50
179.9999571957
 51
270.0000428043
  0
LINE
  5
317
100
AcDbEntity
  8
0
100
AcDbLine
 62
2
  6
CONTINUOUS
 10
12.9181184683
 20
2.5697573568
 11
12.9181184683
 21
2.5895573678
  0
ARC
  5
318
100
AcDbEntity
  8
0
100
AcDbCircle
 62
2
  6
CONTINUOUS
 10
12.9205934678
 20
2.5895573696
 40
0.0024749995
100
AcDbArc
 50
89.9999571957
 51
180.0000428042
  0
LINE
  5
319
100
AcDbEntity
  8
0
100
AcDbLine
 62
2
  6
CONTINUOUS
 10
13.2934226764
 20
2.5324773361
 11
13.2582556569
 21
2.5324773361
  0
ARC
  5
31A
100
AcDbEntity
  8
0
100
AcDbCircle
 62
2
  6
CONTINUOUS
 10
13.2582556551
 20
2.5300023366
 40
0.0024749995
100
AcDbArc
 50
89.9999571957
 51
180.0000428043
  0
LINE
  5
31B
100
AcDbEntity
  8
0
100
AcDbLine
 62
2
  6
CONTINUOUS
 10
13.2557806555
 20
2.5300023347
 11
13.2557806555
 21
2.5184523283
  0
ARC
  5
31C
100
AcDbEntity
  8
0
100
AcDbCircle
 62
2
  6
CONTINUOUS
 10
13.2582556551
 20
2.5184523265
 40
0.0024749995
100
AcDbArc
 50
179.9999571957
 51
270.0000428043
  0
LINE
  5
31D
100
AcDbEntity
  8
0
100
AcDbLine
 62
2
  6
CONTINUOUS
 10
13.2582556569
 20
2.515977327
 11
13.3232596929
 21
2.515977327
  0
ARC
  5
31E
100
AcDbEntity
  8
0
100
AcDbCircle
 62
2
  6
CONTINUOUS
 10
13.3232596948
 20
2.5184523265
 40
0.0024749995
100
AcDbArc
 50
269.9999571957
 51
0.0000428043
  0
LINE
  5
31F
100
AcDbEntity
  8
0
100
AcDbLine
 62
2
  6
CONTINUOUS
 10
13.3257346943
 20
2.5184523283
 11
13.3257346943
 21
2.5267023329
  0
ARC
  5
320
100
AcDbEntity
  8
0
100
AcDbCircle
 62
2
  6
CONTINUOUS
 10
13.3282096938
 20
2.5267023348
 40
0.0024749995
100
AcDbArc
 50
89.9999571957
 51
180.0000428043
  0
LINE
  5
321
100
AcDbEntity
  8
0
100
AcDbLine
 62
2
  6
CONTINUOUS
 10
13.3282096957
 20
2.5291773343
 11
13.3705287192
 21
2.5291773343
  0
ARC
  5
322
100
AcDbEntity
  8
0
100
AcDbCircle
 62
2
  6
CONTINUOUS
 10
13.370528721
 20
2.5267023348
 40
0.0024749995
100
AcDbArc
 50
359.9999571957
 51
90.0000428043
  0
LINE
  5
323
100
AcDbEntity
  8
0
100
AcDbLine
 62
2
  6
CONTINUOUS
 10
13.3730037205
 20
2.5267023329
 11
13.3730037205
 21
2.4937023146
  0
ARC
  5
324
100
AcDbEntity
  8
0
100
AcDbCircle
 62
2
  6
CONTINUOUS
 10
13.370528721
 20
2.4937023128
 40
0.0024749995
100
AcDbArc
 50
269.9999571957
 51
0.0000428043
  0
LINE
  5
325
100
AcDbEntity
  8
0
100
AcDbLine
 62
2
  6
CONTINUOUS
 10
13.3705287192
 20
2.4912273132
 11
13.1673166065
 21
2.4912273132
  0
ARC
  5
326
100
AcDbEntity
  8
0
100
AcDbCircle
 62
2
  6
CONTINUOUS
 10
13.1673166046
 20
2.4937023128
 40
0.0024749995
100
AcDbArc
 50
179.9999571957
 51
270.0000428043
  0
LINE
  5
327
100
AcDbEntity
  8
0
100
AcDbLine
 62
2
  6
CONTINUOUS
 10
13.1648416051
 20
2.4937023146
 11
13.1648416051
 21
2.5135023256
  0
ARC
  5
328
100
AcDbEntity
  8
0
100
AcDbCircle
 62
2
  6
CONTINUOUS
 10
13.1673166046
 20
2.5135023274
 40
0.0024749995
100
AcDbArc
 50
89.9999571957
 51
180.0000428043
  0
LINE
  5
329
100
AcDbEntity
  8
0
100
AcDbLine
 62
2
  6
CONTINUOUS
 10
13.1673166065
 20
2.515977327
 11
13.1912396197
 21
2.515977327
  0
ARC
  5
32A
100
AcDbEntity
  8
0
100
AcDbCircle
 62
2
  6
CONTINUOUS
 10
13.1912396216
 20
2.5184523265
 40
0.0024749995
100
AcDbArc
 50
269.9999571957
 51
0.0000428042
  0
LINE
  5
32B
100
AcDbEntity
  8
0
100
AcDbLine
 62
2
  6
CONTINUOUS
 10
13.1937146211
 20
2.5184523283
 11
13.1937146211
 21
2.564807354
  0
ARC
  5
32C
100
AcDbEntity
  8
0
100
AcDbCircle
 62
2
  6
CONTINUOUS
 10
13.1912396216
 20
2.5648073559
 40
0.0024749995
100
AcDbArc
 50
359.9999571957
 51
90.0000428043
  0
LINE
  5
32D
100
AcDbEntity
  8
0
100
AcDbLine
 62
2
  6
CONTINUOUS
 10
13.1912396197
 20
2.5672823554
 11
13.1673166065
 21
2.5672823554
  0
ARC
  5
32E
100
AcDbEntity
  8
0
100
AcDbCircle
 62
2
  6
CONTINUOUS
 10
13.1673166046
 20
2.5697573549
 40
0.0024749995
100
AcDbArc
 50
179.9999571957
 51
270.0000428043
  0
LINE
  5
32F
100
AcDbEntity
  8
0
100
AcDbLine
 62
2
  6
CONTINUOUS
 10
13.1648416051
 20
2.5697573568
 11
13.1648416051
 21
2.5895573678
  0
ARC
  5
330
100
AcDbEntity
  8
0
100
AcDbCircle
 62
2
  6
CONTINUOUS
 10
13.1673166046
 20
2.5895573696
 40
0.0024749995
100
AcDbArc
 50
89.9999571957
 51
180.0000428043
  0
LINE
  5
331
100
AcDbEntity
  8
0
100
AcDbLine
 62
2
  6
CONTINUOUS
 10
13.1673166065
 20
2.5920323691
 11
13.3691097184
 21
2.5920323691
  0
ARC
  5
332
100
AcDbEntity
  8
0
100
AcDbCircle
 62
2
  6
CONTINUOUS
 10
13.3691097202
 20
2.5895573696
 40
0.0024749995
100
AcDbArc
 50
359.9999571957
 51
90.0000428043
  0
LINE
  5
333
100
AcDbEntity
  8
0
100
AcDbLine
 62
2
  6
CONTINUOUS
 10
13.3715847197
 20
2.5895573678
 11
13.3715847197
 21
2.5565573495
  0
ARC
  5
334
100
AcDbEntity
  8
0
100
AcDbCircle
 62
2
  6
CONTINUOUS
 10
13.3691097202
 20
2.5565573476
 40
0.0024749995
100
AcDbArc
 50
269.9999571957
 51
0.0000428042
  0
LINE
  5
335
100
AcDbEntity
  8
0
100
AcDbLine
 62
2
  6
CONTINUOUS
 10
13.3691097184
 20
2.5540823481
 11
13.3272456952
 21
2.5540823481
  0
ARC
  5
336
100
AcDbEntity
  8
0
100
AcDbCircle
 62
2
  6
CONTINUOUS
 10
13.3272456933
 20
2.5565573476
 40
0.0024749995
100
AcDbArc
 50
179.9999571957
 51
270.0000428043
  0
LINE
  5
337
100
AcDbEntity
  8
0
100
AcDbLine
 62
2
  6
CONTINUOUS
 10
13.3247706938
 20
2.5565573495
 11
13.3247706938
 21
2.564807354
  0
ARC
  5
338
100
AcDbEntity
  8
0
100
AcDbCircle
 62
2
  6
CONTINUOUS
 10
13.3222956943
 20
2.5648073559
 40
0.0024749995
100
AcDbArc
 50
359.9999571957
 51
90.0000428043
  0
LINE
  5
339
100
AcDbEntity
  8
0
100
AcDbLine
 62
2
  6
CONTINUOUS
 10
13.3222956924
 20
2.5672823554
 11
13.2582556569
 21
2.5672823554
  0
ARC
  5
33A
100
AcDbEntity
  8
0
100
AcDbCircle
 62
2
  6
CONTINUOUS
 10
13.2582556551
 20
2.5648073559
 40
0.0024749995
100
AcDbArc
 50
89.9999571957
 51
180.0000428043
  0
LINE
  5
33B
100
AcDbEntity
  8
0
100
AcDbLine
 62
2
  6
CONTINUOUS
 10
13.2557806555
 20
2.564807354
 11
13.2557806555
 21
2.5532573476
  0
ARC
  5
33C
100
AcDbEntity
  8
0
100
AcDbCircle
 62
2
  6
CONTINUOUS
 10
13.2582556551
 20
2.5532573458
 40
0.0024749995
100
AcDbArc
 50
179.9999571957
 51
270.0000428043
  0
LINE
  5
33D
100
AcDbEntity
  8
0
100
AcDbLine
 62
2
  6
CONTINUOUS
 10
13.2582556569
 20
2.5507823463
 11
13.2934226764
 21
2.5507823463
  0
ARC
  5
33E
100
AcDbEntity
  8
0
100
AcDbCircle
 62
2
  6
CONTINUOUS
 10
13.2934226783
 20
2.5483073467
 40
0.0024749995
100
AcDbArc
 50
359.9999571957
 51
90.0000428043
  0
LINE
  5
33F
100
AcDbEntity
  8
0
100
AcDbLine
 62
2
  6
CONTINUOUS
 10
13.2958976778
 20
2.5483073449
 11
13.2958976778
 21
2.5349523375
  0
ARC
  5
340
100
AcDbEntity
  8
0
100
AcDbCircle
 62
2
  6
CONTINUOUS
 10
13.2934226783
 20
2.5349523356
 40
0.0024749995
100
AcDbArc
 50
269.9999571957
 51
0.0000428042
  0
LINE
  5
341
100
AcDbEntity
  8
0
100
AcDbLine
 62
2
  6
CONTINUOUS
 10
13.7286871589
 20
2.5350697372
 11
13.7286871589
 21
2.5456869438
  0
LINE
  5
342
100
AcDbEntity
  8
0
100
AcDbLine
 62
2
  6
CONTINUOUS
 10
13.7086871478
 20
2.5004302075
 11
13.7086871478
 21
2.5803264735
  0
LINE
  5
343
100
AcDbEntity
  8
0
100
AcDbLine
 62
2
  6
CONTINUOUS
 10
13.6886871368
 20
2.4843919416
 11
13.6886871368
 21
2.5963647394
  0
LINE
  5
344
100
AcDbEntity
  8
0
100
AcDbLine
 62
2
  6
CONTINUOUS
 10
13.6686871257
 20
2.4726017898
 11
13.6686871257
 21
2.6081548911
  0
LINE
  5
345
100
AcDbEntity
  8
0
100
AcDbLine
 62
2
  6
CONTINUOUS
 10
13.6486871146
 20
2.4628062688
 11
13.6486871146
 21
2.6179504122
  0
LINE
  5
346
100
AcDbEntity
  8
0
100
AcDbLine
 62
2
  6
CONTINUOUS
 10
13.6286871035
 20
2.4541253507
 11
13.6286871035
 21
2.5062483056
  0
LINE
  5
347
100
AcDbEntity
  8
0
100
AcDbLine
 62
2
  6
CONTINUOUS
 10
13.6286871035
 20
2.5301143348
 11
13.6286871035
 21
2.6266313303
  0
LINE
  5
348
100
AcDbEntity
  8
0
100
AcDbLine
 62
2
  6
CONTINUOUS
 10
13.6086870924
 20
2.4465537903
 11
13.6086870924
 21
2.4918774918
  0
LINE
  5
349
100
AcDbEntity
  8
0
100
AcDbLine
 62
2
  6
CONTINUOUS
 10
13.6086870924
 20
2.5165781173
 11
13.6086870924
 21
2.6342028907
  0
LINE
  5
34A
100
AcDbEntity
  8
0
100
AcDbLine
 62
2
  6
CONTINUOUS
 10
13.5886870813
 20
2.4398033466
 11
13.5886870813
 21
2.4912273132
  0
LINE
  5
34B
100
AcDbEntity
  8
0
100
AcDbLine
 62
2
  6
CONTINUOUS
 10
13.5886870813
 20
2.5391840845
 11
13.5886870813
 21
2.5454298327
  0
LINE
  5
34C
100
AcDbEntity
  8
0
100
AcDbLine
 62
2
  6
CONTINUOUS
 10
13.5886870813
 20
2.5862063472
 11
13.5886870813
 21
2.6409533343
  0
LINE
  5
34D
100
AcDbEntity
  8
0
100
AcDbLine
 62
2
  6
CONTINUOUS
 10
13.5686870702
 20
2.4334702189
 11
13.5686870702
 21
2.4912273132
  0
LINE
  5
34E
100
AcDbEntity
  8
0
100
AcDbLine
 62
2
  6
CONTINUOUS
 10
13.5686870702
 20
2.5906587765
 11
13.5686870702
 21
2.647286462
  0
LINE
  5
34F
100
AcDbEntity
  8
0
100
AcDbLine
 62
2
  6
CONTINUOUS
 10
13.5486870591
 20
2.4278968124
 11
13.5486870591
 21
2.4937461006
  0
LINE
  5
350
100
AcDbEntity
  8
0
100
AcDbLine
 62
2
  6
CONTINUOUS
 10
13.5486870591
 20
2.5920323691
 11
13.5486870591
 21
2.6528598686
  0
LINE
  5
351
100
AcDbEntity
  8
0
100
AcDbLine
 62
2
  6
CONTINUOUS
 10
13.528687048
 20
2.4225427674
 11
13.528687048
 21
2.5270426993
  0
LINE
  5
352
100
AcDbEntity
  8
0
100
AcDbLine
 62
2
  6
CONTINUOUS
 10
13.528687048
 20
2.5505166259
 11
13.528687048
 21
2.5668657091
  0
LINE
  5
353
100
AcDbEntity
  8
0
100
AcDbLine
 62
2
  6
CONTINUOUS
 10
13.528687048
 20
2.5920323691
 11
13.528687048
 21
2.6582139136
  0
LINE
  5
354
100
AcDbEntity
  8
0
100
AcDbLine
 62
2
  6
CONTINUOUS
 10
13.5086870369
 20
2.4177306791
 11
13.5086870369
 21
2.4912273132
  0
LINE
  5
355
100
AcDbEntity
  8
0
100
AcDbLine
 62
2
  6
CONTINUOUS
 10
13.5086870369
 20
2.5159553269
 11
13.5086870369
 21
2.5306043351
  0
LINE
  5
356
100
AcDbEntity
  8
0
100
AcDbLine
 62
2
  6
CONTINUOUS
 10
13.5086870369
 20
2.5496073456
 11
13.5086870369
 21
2.5672823554
  0
LINE
  5
357
100
AcDbEntity
  8
0
100
AcDbLine
 62
2
  6
CONTINUOUS
 10
13.5086870369
 20
2.5920323691
 11
13.5086870369
 21
2.6630260019
  0
LINE
  5
358
100
AcDbEntity
  8
0
100
AcDbLine
 62
2
  6
CONTINUOUS
 10
13.4886870258
 20
2.4131795254
 11
13.4886870258
 21
2.4912273132
  0
LINE
  5
359
100
AcDbEntity
  8
0
100
AcDbLine
 62
2
  6
CONTINUOUS
 10
13.4886870258
 20
2.5159553269
 11
13.4886870258
 21
2.5306043351
  0
LINE
  5
35A
100
AcDbEntity
  8
0
100
AcDbLine
 62
2
  6
CONTINUOUS
 10
13.4886870258
 20
2.5496073456
 11
13.4886870258
 21
2.5672823554
  0
LINE
  5
35B
100
AcDbEntity
  8
0
100
AcDbLine
 62
2
  6
CONTINUOUS
 10
13.4886870258
 20
2.5920323691
 11
13.4886870258
 21
2.6675771555
  0
LINE
  5
35C
100
AcDbEntity
  8
0
100
AcDbLine
 62
2
  6
CONTINUOUS
 10
13.4686870147
 20
2.4088819672
 11
13.4686870147
 21
2.4912273132
  0
LINE
  5
35D
100
AcDbEntity
  8
0
100
AcDbLine
 62
2
  6
CONTINUOUS
 10
13.4686870147
 20
2.5920323691
 11
13.4686870147
 21
2.6718747138
  0
LINE
  5
35E
100
AcDbEntity
  8
0
100
AcDbLine
 62
2
  6
CONTINUOUS
 10
13.4486870037
 20
2.4050092072
 11
13.4486870037
 21
2.4912273132
  0
LINE
  5
35F
100
AcDbEntity
  8
0
100
AcDbLine
 62
2
  6
CONTINUOUS
 10
13.4486870037
 20
2.5920323691
 11
13.4486870037
 21
2.6757474738
  0
LINE
  5
360
100
AcDbEntity
  8
0
100
AcDbLine
 62
2
  6
CONTINUOUS
 10
13.4286869926
 20
2.4011364471
 11
13.4286869926
 21
2.4912273132
  0
LINE
  5
361
100
AcDbEntity
  8
0
100
AcDbLine
 62
2
  6
CONTINUOUS
 10
13.4286869926
 20
2.5920323691
 11
13.4286869926
 21
2.6796202339
  0
LINE
  5
362
100
AcDbEntity
  8
0
100
AcDbLine
 62
2
  6
CONTINUOUS
 10
13.4086869815
 20
2.3980226662
 11
13.4086869815
 21
2.4912273132
  0
LINE
  5
363
100
AcDbEntity
  8
0
100
AcDbLine
 62
2
  6
CONTINUOUS
 10
13.4086869815
 20
2.515977327
 11
13.4086869815
 21
2.5672823554
  0
LINE
  5
364
100
AcDbEntity
  8
0
100
AcDbLine
 62
2
  6
CONTINUOUS
 10
13.4086869815
 20
2.5920323691
 11
13.4086869815
 21
2.6827340148
  0
LINE
  5
365
100
AcDbEntity
  8
0
100
AcDbLine
 62
2
  6
CONTINUOUS
 10
13.3886869704
 20
2.3950052774
 11
13.3886869704
 21
2.6857514036
  0
LINE
  5
366
100
AcDbEntity
  8
0
100
AcDbLine
 62
2
  6
CONTINUOUS
 10
13.3686869593
 20
2.3919878885
 11
13.3686869593
 21
2.4912273132
  0
LINE
  5
367
100
AcDbEntity
  8
0
100
AcDbLine
 62
2
  6
CONTINUOUS
 10
13.3686869593
 20
2.5291773343
 11
13.3686869593
 21
2.5540823481
  0
LINE
  5
368
100
AcDbEntity
  8
0
100
AcDbLine
 62
2
  6
CONTINUOUS
 10
13.3686869593
 20
2.5920323691
 11
13.3686869593
 21
2.6887687924
  0
LINE
  5
369
100
AcDbEntity
  8
0
100
AcDbLine
 62
2
  6
CONTINUOUS
 10
13.3486869482
 20
2.3889704997
 11
13.3486869482
 21
2.4912273132
  0
LINE
  5
36A
100
AcDbEntity
  8
0
100
AcDbLine
 62
2
  6
CONTINUOUS
 10
13.3486869482
 20
2.5291773343
 11
13.3486869482
 21
2.5540823481
  0
LINE
  5
36B
100
AcDbEntity
  8
0
100
AcDbLine
 62
2
  6
CONTINUOUS
 10
13.3486869482
 20
2.5920323691
 11
13.3486869482
 21
2.6917861813
  0
LINE
  5
36C
100
AcDbEntity
  8
0
100
AcDbLine
 62
2
  6
CONTINUOUS
 10
13.3286869371
 20
2.3859531109
 11
13.3286869371
 21
2.4912273132
  0
LINE
  5
36D
100
AcDbEntity
  8
0
100
AcDbLine
 62
2
  6
CONTINUOUS
 10
13.3286869371
 20
2.5291773343
 11
13.3286869371
 21
2.5540823481
  0
LINE
  5
36E
100
AcDbEntity
  8
0
100
AcDbLine
 62
2
  6
CONTINUOUS
 10
13.3286869371
 20
2.5920323691
 11
13.3286869371
 21
2.6948035701
  0
LINE
  5
36F
100
AcDbEntity
  8
0
100
AcDbLine
 62
2
  6
CONTINUOUS
 10
13.308686926
 20
2.3833355437
 11
13.308686926
 21
2.4912273132
  0
LINE
  5
370
100
AcDbEntity
  8
0
100
AcDbLine
 62
2
  6
CONTINUOUS
 10
13.308686926
 20
2.515977327
 11
13.308686926
 21
2.5672823554
  0
LINE
  5
371
100
AcDbEntity
  8
0
100
AcDbLine
 62
2
  6
CONTINUOUS
 10
13.308686926
 20
2.5920323691
 11
13.308686926
 21
2.6974211373
  0
LINE
  5
372
100
AcDbEntity
  8
0
100
AcDbLine
 62
2
  6
CONTINUOUS
 10
13.2886869149
 20
2.3812612684
 11
13.2886869149
 21
2.4912273132
  0
LINE
  5
373
100
AcDbEntity
  8
0
100
AcDbLine
 62
2
  6
CONTINUOUS
 10
13.2886869149
 20
2.515977327
 11
13.2886869149
 21
2.5324773361
  0
LINE
  5
374
100
AcDbEntity
  8
0
100
AcDbLine
 62
2
  6
CONTINUOUS
 10
13.2886869149
 20
2.5507823463
 11
13.2886869149
 21
2.5672823554
  0
LINE
  5
375
100
AcDbEntity
  8
0
100
AcDbLine
 62
2
  6
CONTINUOUS
 10
13.2886869149
 20
2.5920323691
 11
13.2886869149
 21
2.6994954125
  0
LINE
  5
376
100
AcDbEntity
  8
0
100
AcDbLine
 62
2
  6
CONTINUOUS
 10
13.2686869038
 20
2.3791869932
 11
13.2686869038
 21
2.4912273132
  0
LINE
  5
377
100
AcDbEntity
  8
0
100
AcDbLine
 62
2
  6
CONTINUOUS
 10
13.2686869038
 20
2.515977327
 11
13.2686869038
 21
2.5324773361
  0
LINE
  5
378
100
AcDbEntity
  8
0
100
AcDbLine
 62
2
  6
CONTINUOUS
 10
13.2686869038
 20
2.5507823463
 11
13.2686869038
 21
2.5672823554
  0
LINE
  5
379
100
AcDbEntity
  8
0
100
AcDbLine
 62
2
  6
CONTINUOUS
 10
13.2686869038
 20
2.5920323691
 11
13.2686869038
 21
2.7015696878
  0
LINE
  5
37A
100
AcDbEntity
  8
0
100
AcDbLine
 62
2
  6
CONTINUOUS
 10
13.2486868927
 20
2.377112718
 11
13.2486868927
 21
2.4912273132
  0
LINE
  5
37B
100
AcDbEntity
  8
0
100
AcDbLine
 62
2
  6
CONTINUOUS
 10
13.2486868927
 20
2.5920323691
 11
13.2486868927
 21
2.703643963
  0
LINE
  5
37C
100
AcDbEntity
  8
0
100
AcDbLine
 62
2
  6
CONTINUOUS
 10
13.2286868817
 20
2.3750384428
 11
13.2286868817
 21
2.4912273132
  0
LINE
  5
37D
100
AcDbEntity
  8
0
100
AcDbLine
 62
2
  6
CONTINUOUS
 10
13.2286868817
 20
2.5920323691
 11
13.2286868817
 21
2.7057182382
  0
LINE
  5
37E
100
AcDbEntity
  8
0
100
AcDbLine
 62
2
  6
CONTINUOUS
 10
13.2086868706
 20
2.3729641676
 11
13.2086868706
 21
2.4912273132
  0
LINE
  5
37F
100
AcDbEntity
  8
0
100
AcDbLine
 62
2
  6
CONTINUOUS
 10
13.2086868706
 20
2.5920323691
 11
13.2086868706
 21
2.7077925134
  0
LINE
  5
380
100
AcDbEntity
  8
0
100
AcDbLine
 62
2
  6
CONTINUOUS
 10
13.1886868595
 20
2.3712344456
 11
13.1886868595
 21
2.4912273132
  0
LINE
  5
381
100
AcDbEntity
  8
0
100
AcDbLine
 62
2
  6
CONTINUOUS
 10
13.1886868595
 20
2.515977327
 11
13.1886868595
 21
2.5672823554
  0
LINE
  5
382
100
AcDbEntity
  8
0
100
AcDbLine
 62
2
  6
CONTINUOUS
 10
13.1886868595
 20
2.5920323691
 11
13.1886868595
 21
2.7095222354
  0
LINE
  5
383
100
AcDbEntity
  8
0
100
AcDbLine
 62
2
  6
CONTINUOUS
 10
13.1686868484
 20
2.3699682418
 11
13.1686868484
 21
2.4912273132
  0
LINE
  5
384
100
AcDbEntity
  8
0
100
AcDbLine
 62
2
  6
CONTINUOUS
 10
13.1686868484
 20
2.515977327
 11
13.1686868484
 21
2.5672823554
  0
LINE
  5
385
100
AcDbEntity
  8
0
100
AcDbLine
 62
2
  6
CONTINUOUS
 10
13.1686868484
 20
2.5920323691
 11
13.1686868484
 21
2.7107884392
  0
LINE
  5
386
100
AcDbEntity
  8
0
100
AcDbLine
 62
2
  6
CONTINUOUS
 10
13.1486868373
 20
2.3687020381
 11
13.1486868373
 21
2.7120546429
  0
LINE
  5
387
100
AcDbEntity
  8
0
100
AcDbLine
 62
2
  6
CONTINUOUS
 10
13.1286868262
 20
2.3674358343
 11
13.1286868262
 21
2.5672823554
  0
LINE
  5
388
100
AcDbEntity
  8
0
100
AcDbLine
 62
2
  6
CONTINUOUS
 10
13.1286868262
 20
2.5920323691
 11
13.1286868262
 21
2.7133208466
  0
LINE
  5
389
100
AcDbEntity
  8
0
100
AcDbLine
 62
2
  6
CONTINUOUS
 10
13.1086868151
 20
2.3661696306
 11
13.1086868151
 21
2.4912273132
  0
LINE
  5
38A
100
AcDbEntity
  8
0
100
AcDbLine
 62
2
  6
CONTINUOUS
 10
13.1086868151
 20
2.5920323691
 11
13.1086868151
 21
2.7145870504
  0
LINE
  5
38B
100
AcDbEntity
  8
0
100
AcDbLine
 62
2
  6
CONTINUOUS
 10
13.088686804
 20
2.3649034269
 11
13.088686804
 21
2.4912273132
  0
LINE
  5
38C
100
AcDbEntity
  8
0
100
AcDbLine
 62
2
  6
CONTINUOUS
 10
13.088686804
 20
2.5920323691
 11
13.088686804
 21
2.7158532541
  0
LINE
  5
38D
100
AcDbEntity
  8
0
100
AcDbLine
 62
2
  6
CONTINUOUS
 10
13.0686867929
 20
2.3636739922
 11
13.0686867929
 21
2.4912273132
  0
LINE
  5
38E
100
AcDbEntity
  8
0
100
AcDbLine
 62
2
  6
CONTINUOUS
 10
13.0686867929
 20
2.5475272398
 11
13.0686867929
 21
2.5672823554
  0
LINE
  5
38F
100
AcDbEntity
  8
0
100
AcDbLine
 62
2
  6
CONTINUOUS
 10
13.0686867929
 20
2.5920323691
 11
13.0686867929
 21
2.7170826887
  0
LINE
  5
390
100
AcDbEntity
  8
0
100
AcDbLine
 62
2
  6
CONTINUOUS
 10
13.0486867818
 20
2.363143203
 11
13.0486867818
 21
2.4912273132
  0
LINE
  5
391
100
AcDbEntity
  8
0
100
AcDbLine
 62
2
  6
CONTINUOUS
 10
13.0486867818
 20
2.5666100882
 11
13.0486867818
 21
2.717613478
  0
LINE
  5
392
100
AcDbEntity
  8
0
100
AcDbLine
 62
2
  6
CONTINUOUS
 10
13.0286867707
 20
2.3626124138
 11
13.0286867707
 21
2.50359263
  0
LINE
  5
393
100
AcDbEntity
  8
0
100
AcDbLine
 62
2
  6
CONTINUOUS
 10
13.0286867707
 20
2.5856929366
 11
13.0286867707
 21
2.7181442672
  0
LINE
  5
394
100
AcDbEntity
  8
0
100
AcDbLine
 62
2
  6
CONTINUOUS
 10
13.0086867596
 20
2.3620816246
 11
13.0086867596
 21
2.5226754472
  0
LINE
  5
395
100
AcDbEntity
  8
0
100
AcDbLine
 62
2
  6
CONTINUOUS
 10
13.0086867596
 20
2.5920323691
 11
13.0086867596
 21
2.7186750564
  0
LINE
  5
396
100
AcDbEntity
  8
0
100
AcDbLine
 62
2
  6
CONTINUOUS
 10
12.9886867486
 20
2.3615508354
 11
12.9886867486
 21
2.4912273132
  0
LINE
  5
397
100
AcDbEntity
  8
0
100
AcDbLine
 62
2
  6
CONTINUOUS
 10
12.9886867486
 20
2.515977327
 11
12.9886867486
 21
2.5417582644
  0
LINE
  5
398
100
AcDbEntity
  8
0
100
AcDbLine
 62
2
  6
CONTINUOUS
 10
12.9886867486
 20
2.5920323691
 11
12.9886867486
 21
2.7192058456
  0
LINE
  5
399
100
AcDbEntity
  8
0
100
AcDbLine
 62
2
  6
CONTINUOUS
 10
12.9686867375
 20
2.3610200462
 11
12.9686867375
 21
2.4912273132
  0
LINE
  5
39A
100
AcDbEntity
  8
0
100
AcDbLine
 62
2
  6
CONTINUOUS
 10
12.9686867375
 20
2.5920323691
 11
12.9686867375
 21
2.7197366348
  0
LINE
  5
39B
100
AcDbEntity
  8
0
100
AcDbLine
 62
2
  6
CONTINUOUS
 10
12.9486867264
 20
2.360489257
 11
12.9486867264
 21
2.4912273132
  0
LINE
  5
39C
100
AcDbEntity
  8
0
100
AcDbLine
 62
2
  6
CONTINUOUS
 10
12.9486867264
 20
2.5920323691
 11
12.9486867264
 21
2.720267424
  0
LINE
  5
39D
100
AcDbEntity
  8
0
100
AcDbLine
 62
2
  6
CONTINUOUS
 10
12.9286867153
 20
2.3602836008
 11
12.9286867153
 21
2.4912273132
  0
LINE
  5
39E
100
AcDbEntity
  8
0
100
AcDbLine
 62
2
  6
CONTINUOUS
 10
12.9286867153
 20
2.515977327
 11
12.9286867153
 21
2.5672823554
  0
LINE
  5
39F
100
AcDbEntity
  8
0
100
AcDbLine
 62
2
  6
CONTINUOUS
 10
12.9286867153
 20
2.5920323691
 11
12.9286867153
 21
2.7204730802
  0
LINE
  5
3A0
100
AcDbEntity
  8
0
100
AcDbLine
 62
2
  6
CONTINUOUS
 10
12.9086867042
 20
2.3604597639
 11
12.9086867042
 21
2.7202969171
  0
LINE
  5
3A1
100
AcDbEntity
  8
0
100
AcDbLine
 62
2
  6
CONTINUOUS
 10
12.8886866931
 20
2.360635927
 11
12.8886866931
 21
2.5672823554
  0
LINE
  5
3A2
100
AcDbEntity
  8
0
100
AcDbLine
 62
2
  6
CONTINUOUS
 10
12.8886866931
 20
2.5920323691
 11
12.8886866931
 21
2.720120754
  0
LINE
  5
3A3
100
AcDbEntity
  8
0
100
AcDbLine
 62
2
  6
CONTINUOUS
 10
12.868686682
 20
2.3608120901
 11
12.868686682
 21
2.491232357
  0
LINE
  5
3A4
100
AcDbEntity
  8
0
100
AcDbLine
 62
2
  6
CONTINUOUS
 10
12.868686682
 20
2.5920323691
 11
12.868686682
 21
2.7199445909
  0
LINE
  5
3A5
100
AcDbEntity
  8
0
100
AcDbLine
 62
2
  6
CONTINUOUS
 10
12.8486866709
 20
2.3609882532
 11
12.8486866709
 21
2.4912273132
  0
LINE
  5
3A6
100
AcDbEntity
  8
0
100
AcDbLine
 62
2
  6
CONTINUOUS
 10
12.8486866709
 20
2.5920323691
 11
12.8486866709
 21
2.7197684278
  0
LINE
  5
3A7
100
AcDbEntity
  8
0
100
AcDbLine
 62
2
  6
CONTINUOUS
 10
12.8286866598
 20
2.3611644163
 11
12.8286866598
 21
2.4912273132
  0
LINE
  5
3A8
100
AcDbEntity
  8
0
100
AcDbLine
 62
2
  6
CONTINUOUS
 10
12.8286866598
 20
2.5396527025
 11
12.8286866598
 21
2.5672823554
  0
LINE
  5
3A9
100
AcDbEntity
  8
0
100
AcDbLine
 62
2
  6
CONTINUOUS
 10
12.8286866598
 20
2.5920323691
 11
12.8286866598
 21
2.7195922647
  0
LINE
  5
3AA
100
AcDbEntity
  8
0
100
AcDbLine
 62
2
  6
CONTINUOUS
 10
12.8086866487
 20
2.3613405794
 11
12.8086866487
 21
2.4912273132
  0
LINE
  5
3AB
100
AcDbEntity
  8
0
100
AcDbLine
 62
2
  6
CONTINUOUS
 10
12.8086866487
 20
2.5587355508
 11
12.8086866487
 21
2.7194161016
  0
LINE
  5
3AC
100
AcDbEntity
  8
0
100
AcDbLine
 62
2
  6
CONTINUOUS
 10
12.7886866376
 20
2.3621089572
 11
12.7886866376
 21
2.4957181055
  0
LINE
  5
3AD
100
AcDbEntity
  8
0
100
AcDbLine
 62
2
  6
CONTINUOUS
 10
12.7886866376
 20
2.5778183992
 11
12.7886866376
 21
2.7186477238
  0
LINE
  5
3AE
100
AcDbEntity
  8
0
100
AcDbLine
 62
2
  6
CONTINUOUS
 10
12.7686866266
 20
2.3630013935
 11
12.7686866266
 21
2.5148009227
  0
LINE
  5
3AF
100
AcDbEntity
  8
0
100
AcDbLine
 62
2
  6
CONTINUOUS
 10
12.7686866266
 20
2.5920323691
 11
12.7686866266
 21
2.7177552874
  0
LINE
  5
3B0
100
AcDbEntity
  8
0
100
AcDbLine
 62
2
  6
CONTINUOUS
 10
12.7486866155
 20
2.3638938299
 11
12.7486866155
 21
2.4913263218
  0
LINE
  5
3B1
100
AcDbEntity
  8
0
100
AcDbLine
 62
2
  6
CONTINUOUS
 10
12.7486866155
 20
2.5158783184
 11
12.7486866155
 21
2.5338837399
  0
LINE
  5
3B2
100
AcDbEntity
  8
0
100
AcDbLine
 62
2
  6
CONTINUOUS
 10
12.7486866155
 20
2.5920323691
 11
12.7486866155
 21
2.7168628511
  0
LINE
  5
3B3
100
AcDbEntity
  8
0
100
AcDbLine
 62
2
  6
CONTINUOUS
 10
12.7286866044
 20
2.3647862663
 11
12.7286866044
 21
2.4912273132
  0
LINE
  5
3B4
100
AcDbEntity
  8
0
100
AcDbLine
 62
2
  6
CONTINUOUS
 10
12.7286866044
 20
2.515977327
 11
12.7286866044
 21
2.5527601554
  0
LINE
  5
3B5
100
AcDbEntity
  8
0
100
AcDbLine
 62
2
  6
CONTINUOUS
 10
12.7286866044
 20
2.5920323691
 11
12.7286866044
 21
2.7159704147
  0
LINE
  5
3B6
100
AcDbEntity
  8
0
100
AcDbLine
 62
2
  6
CONTINUOUS
 10
12.7086865933
 20
2.3656787026
 11
12.7086865933
 21
2.4912273132
  0
LINE
  5
3B7
100
AcDbEntity
  8
0
100
AcDbLine
 62
2
  6
CONTINUOUS
 10
12.7086865933
 20
2.5920323691
 11
12.7086865933
 21
2.7150779784
  0
LINE
  5
3B8
100
AcDbEntity
  8
0
100
AcDbLine
 62
2
  6
CONTINUOUS
 10
12.6886865822
 20
2.366571139
 11
12.6886865822
 21
2.4912273132
  0
LINE
  5
3B9
100
AcDbEntity
  8
0
100
AcDbLine
 62
2
  6
CONTINUOUS
 10
12.6886865822
 20
2.515977327
 11
12.6886865822
 21
2.5672823554
  0
LINE
  5
3BA
100
AcDbEntity
  8
0
100
AcDbLine
 62
2
  6
CONTINUOUS
 10
12.6886865822
 20
2.5920323691
 11
12.6886865822
 21
2.714185542
  0
LINE
  5
3BB
100
AcDbEntity
  8
0
100
AcDbLine
 62
2
  6
CONTINUOUS
 10
12.6686865711
 20
2.3677104027
 11
12.6686865711
 21
2.7130462783
  0
LINE
  5
3BC
100
AcDbEntity
  8
0
100
AcDbLine
 62
2
  6
CONTINUOUS
 10
12.64868656
 20
2.3693682721
 11
12.64868656
 21
2.7113884089
  0
LINE
  5
3BD
100
AcDbEntity
  8
0
100
AcDbLine
 62
2
  6
CONTINUOUS
 10
12.6286865489
 20
2.3710261415
 11
12.6286865489
 21
2.4912273132
  0
LINE
  5
3BE
100
AcDbEntity
  8
0
100
AcDbLine
 62
2
  6
CONTINUOUS
 10
12.6286865489
 20
2.515977327
 11
12.6286865489
 21
2.7097305395
  0
LINE
  5
3BF
100
AcDbEntity
  8
0
100
AcDbLine
 62
2
  6
CONTINUOUS
 10
12.6086865378
 20
2.372684011
 11
12.6086865378
 21
2.4912273132
  0
LINE
  5
3C0
100
AcDbEntity
  8
0
100
AcDbLine
 62
2
  6
CONTINUOUS
 10
12.6086865378
 20
2.5351122279
 11
12.6086865378
 21
2.70807267
  0
LINE
  5
3C1
100
AcDbEntity
  8
0
100
AcDbLine
 62
2
  6
CONTINUOUS
 10
12.5886865267
 20
2.3743418804
 11
12.5886865267
 21
2.4912273132
  0
LINE
  5
3C2
100
AcDbEntity
  8
0
100
AcDbLine
 62
2
  6
CONTINUOUS
 10
12.5886865267
 20
2.5660172622
 11
12.5886865267
 21
2.7064148006
  0
LINE
  5
3C3
100
AcDbEntity
  8
0
100
AcDbLine
 62
2
  6
CONTINUOUS
 10
12.5686865156
 20
2.3759997498
 11
12.5686865156
 21
2.4912273132
  0
LINE
  5
3C4
100
AcDbEntity
  8
0
100
AcDbLine
 62
2
  6
CONTINUOUS
 10
12.5686865156
 20
2.5920323691
 11
12.5686865156
 21
2.7047569312
  0
LINE
  5
3C5
100
AcDbEntity
  8
0
100
AcDbLine
 62
2
  6
CONTINUOUS
 10
12.5486865045
 20
2.3777575277
 11
12.5486865045
 21
2.4912273132
  0
LINE
  5
3C6
100
AcDbEntity
  8
0
100
AcDbLine
 62
2
  6
CONTINUOUS
 10
12.5486865045
 20
2.515977327
 11
12.5486865045
 21
2.5275118824
  0
LINE
  5
3C7
100
AcDbEntity
  8
0
100
AcDbLine
 62
2
  6
CONTINUOUS
 10
12.5486865045
 20
2.5920323691
 11
12.5486865045
 21
2.7029991533
  0
LINE
  5
3C8
100
AcDbEntity
  8
0
100
AcDbLine
 62
2
  6
CONTINUOUS
 10
12.5286864935
 20
2.3802813811
 11
12.5286864935
 21
2.5296213345
  0
LINE
  5
3C9
100
AcDbEntity
  8
0
100
AcDbLine
 62
2
  6
CONTINUOUS
 10
12.5286864935
 20
2.5505713461
 11
12.5286864935
 21
2.5667383551
  0
LINE
  5
3CA
100
AcDbEntity
  8
0
100
AcDbLine
 62
2
  6
CONTINUOUS
 10
12.5286864935
 20
2.5920323691
 11
12.5286864935
 21
2.7004752999
  0
LINE
  5
3CB
100
AcDbEntity
  8
0
100
AcDbLine
 62
2
  6
CONTINUOUS
 10
12.5086864824
 20
2.3828052346
 11
12.5086864824
 21
2.4912273132
  0
LINE
  5
3CC
100
AcDbEntity
  8
0
100
AcDbLine
 62
2
  6
CONTINUOUS
 10
12.5086864824
 20
2.515977327
 11
12.5086864824
 21
2.5279667721
  0
LINE
  5
3CD
100
AcDbEntity
  8
0
100
AcDbLine
 62
2
  6
CONTINUOUS
 10
12.5086864824
 20
2.5868602074
 11
12.5086864824
 21
2.6979514464
  0
LINE
  5
3CE
100
AcDbEntity
  8
0
100
AcDbLine
 62
2
  6
CONTINUOUS
 10
12.4886864713
 20
2.385329088
 11
12.4886864713
 21
2.4912273132
  0
LINE
  5
3CF
100
AcDbEntity
  8
0
100
AcDbLine
 62
2
  6
CONTINUOUS
 10
12.4886864713
 20
2.5553401045
 11
12.4886864713
 21
2.695427593
  0
LINE
  5
3D0
100
AcDbEntity
  8
0
100
AcDbLine
 62
2
  6
CONTINUOUS
 10
12.4686864602
 20
2.3878529415
 11
12.4686864602
 21
2.4912273132
  0
LINE
  5
3D1
100
AcDbEntity
  8
0
100
AcDbLine
 62
2
  6
CONTINUOUS
 10
12.4686864602
 20
2.5238200015
 11
12.4686864602
 21
2.6929037395
  0
LINE
  5
3D2
100
AcDbEntity
  8
0
100
AcDbLine
 62
2
  6
CONTINUOUS
 10
12.4486864491
 20
2.390376795
 11
12.4486864491
 21
2.4912273132
  0
LINE
  5
3D3
100
AcDbEntity
  8
0
100
AcDbLine
 62
2
  6
CONTINUOUS
 10
12.4486864491
 20
2.515977327
 11
12.4486864491
 21
2.690379886
  0
LINE
  5
3D4
100
AcDbEntity
  8
0
100
AcDbLine
 62
2
  6
CONTINUOUS
 10
12.428686438
 20
2.3931794042
 11
12.428686438
 21
2.6875772768
  0
LINE
  5
3D5
100
AcDbEntity
  8
0
100
AcDbLine
 62
2
  6
CONTINUOUS
 10
12.4086864269
 20
2.3964643301
 11
12.4086864269
 21
2.5013773986
  0
LINE
  5
3D6
100
AcDbEntity
  8
0
100
AcDbLine
 62
2
  6
CONTINUOUS
 10
12.4086864269
 20
2.5325739971
 11
12.4086864269
 21
2.5537224311
  0
LINE
  5
3D7
100
AcDbEntity
  8
0
100
AcDbLine
 62
2
  6
CONTINUOUS
 10
12.4086864269
 20
2.5791473398
 11
12.4086864269
 21
2.6842923509
  0
LINE
  5
3D8
100
AcDbEntity
  8
0
100
AcDbLine
 62
2
  6
CONTINUOUS
 10
12.3886864158
 20
2.399749256
 11
12.3886864158
 21
2.4921022658
  0
LINE
  5
3D9
100
AcDbEntity
  8
0
100
AcDbLine
 62
2
  6
CONTINUOUS
 10
12.3886864158
 20
2.5895929958
 11
12.3886864158
 21
2.681007425
  0
LINE
  5
3DA
100
AcDbEntity
  8
0
100
AcDbLine
 62
2
  6
CONTINUOUS
 10
12.3686864047
 20
2.403451877
 11
12.3686864047
 21
2.4912273132
  0
LINE
  5
3DB
100
AcDbEntity
  8
0
100
AcDbLine
 62
2
  6
CONTINUOUS
 10
12.3686864047
 20
2.5920323691
 11
12.3686864047
 21
2.677304804
  0
LINE
  5
3DC
100
AcDbEntity
  8
0
100
AcDbLine
 62
2
  6
CONTINUOUS
 10
12.3486863936
 20
2.407324637
 11
12.3486863936
 21
2.4912273132
  0
LINE
  5
3DD
100
AcDbEntity
  8
0
100
AcDbLine
 62
2
  6
CONTINUOUS
 10
12.3486863936
 20
2.5920323691
 11
12.3486863936
 21
2.673432044
  0
LINE
  5
3DE
100
AcDbEntity
  8
0
100
AcDbLine
 62
2
  6
CONTINUOUS
 10
12.3286863825
 20
2.4113493968
 11
12.3286863825
 21
2.4912273132
  0
LINE
  5
3DF
100
AcDbEntity
  8
0
100
AcDbLine
 62
2
  6
CONTINUOUS
 10
12.3286863825
 20
2.515977327
 11
12.3286863825
 21
2.5333023366
  0
LINE
  5
3E0
100
AcDbEntity
  8
0
100
AcDbLine
 62
2
  6
CONTINUOUS
 10
12.3286863825
 20
2.5499573458
 11
12.3286863825
 21
2.5672823554
  0
LINE
  5
3E1
100
AcDbEntity
  8
0
100
AcDbLine
 62
2
  6
CONTINUOUS
 10
12.3286863825
 20
2.5920323691
 11
12.3286863825
 21
2.6694072842
  0
LINE
  5
3E2
100
AcDbEntity
  8
0
100
AcDbLine
 62
2
  6
CONTINUOUS
 10
12.3086863715
 20
2.4159005505
 11
12.3086863715
 21
2.4912273132
  0
LINE
  5
3E3
100
AcDbEntity
  8
0
100
AcDbLine
 62
2
  6
CONTINUOUS
 10
12.3086863715
 20
2.515977327
 11
12.3086863715
 21
2.5333023366
  0
LINE
  5
3E4
100
AcDbEntity
  8
0
100
AcDbLine
 62
2
  6
CONTINUOUS
 10
12.3086863715
 20
2.5499573458
 11
12.3086863715
 21
2.5672823554
  0
LINE
  5
3E5
100
AcDbEntity
  8
0
100
AcDbLine
 62
2
  6
CONTINUOUS
 10
12.3086863715
 20
2.5920323691
 11
12.3086863715
 21
2.6648561305
  0
LINE
  5
3E6
100
AcDbEntity
  8
0
100
AcDbLine
 62
2
  6
CONTINUOUS
 10
12.2886863604
 20
2.4204517041
 11
12.2886863604
 21
2.4912273132
  0
LINE
  5
3E7
100
AcDbEntity
  8
0
100
AcDbLine
 62
2
  6
CONTINUOUS
 10
12.2886863604
 20
2.5920323691
 11
12.2886863604
 21
2.6603049769
  0
LINE
  5
3E8
100
AcDbEntity
  8
0
100
AcDbLine
 62
2
  6
CONTINUOUS
 10
12.2686863493
 20
2.4257438218
 11
12.2686863493
 21
2.4912273132
  0
LINE
  5
3E9
100
AcDbEntity
  8
0
100
AcDbLine
 62
2
  6
CONTINUOUS
 10
12.2686863493
 20
2.5920323691
 11
12.2686863493
 21
2.6550128592
  0
LINE
  5
3EA
100
AcDbEntity
  8
0
100
AcDbLine
 62
2
  6
CONTINUOUS
 10
12.2486863382
 20
2.4310978667
 11
12.2486863382
 21
2.4912273132
  0
LINE
  5
3EB
100
AcDbEntity
  8
0
100
AcDbLine
 62
2
  6
CONTINUOUS
 10
12.2486863382
 20
2.5920323691
 11
12.2486863382
 21
2.6496588142
  0
LINE
  5
3EC
100
AcDbEntity
  8
0
100
AcDbLine
 62
2
  6
CONTINUOUS
 10
12.2286863271
 20
2.4372566433
 11
12.2286863271
 21
2.4912273132
  0
LINE
  5
3ED
100
AcDbEntity
  8
0
100
AcDbLine
 62
2
  6
CONTINUOUS
 10
12.2286863271
 20
2.515977327
 11
12.2286863271
 21
2.5672823554
  0
LINE
  5
3EE
100
AcDbEntity
  8
0
100
AcDbLine
 62
2
  6
CONTINUOUS
 10
12.2286863271
 20
2.5920323691
 11
12.2286863271
 21
2.6435000377
  0
LINE
  5
3EF
100
AcDbEntity
  8
0
100
AcDbLine
 62
2
  6
CONTINUOUS
 10
12.208686316
 20
2.443589771
 11
12.208686316
 21
2.4912273132
  0
LINE
  5
3F0
100
AcDbEntity
  8
0
100
AcDbLine
 62
2
  6
CONTINUOUS
 10
12.208686316
 20
2.515977327
 11
12.208686316
 21
2.5672823554
  0
LINE
  5
3F1
100
AcDbEntity
  8
0
100
AcDbLine
 62
2
  6
CONTINUOUS
 10
12.208686316
 20
2.5920323691
 11
12.208686316
 21
2.63716691
  0
LINE
  5
3F2
100
AcDbEntity
  8
0
100
AcDbLine
 62
2
  6
CONTINUOUS
 10
12.1886863049
 20
2.4510806436
 11
12.1886863049
 21
2.6296760373
  0
LINE
  5
3F3
100
AcDbEntity
  8
0
100
AcDbLine
 62
2
  6
CONTINUOUS
 10
12.1686862938
 20
2.4591016523
 11
12.1686862938
 21
2.6216550287
  0
LINE
  5
3F4
100
AcDbEntity
  8
0
100
AcDbLine
 62
2
  6
CONTINUOUS
 10
12.1486862827
 20
2.468314272
 11
12.1486862827
 21
2.612442409
  0
LINE
  5
3F5
100
AcDbEntity
  8
0
100
AcDbLine
 62
2
  6
CONTINUOUS
 10
12.1286862716
 20
2.4794932339
 11
12.1286862716
 21
2.601263447
  0
LINE
  5
3F6
100
AcDbEntity
  8
0
100
AcDbLine
 62
2
  6
CONTINUOUS
 10
12.1086862605
 20
2.4934150665
 11
12.1086862605
 21
2.5873416144
  0
LINE
  5
3F7
100
AcDbEntity
  8
0
100
AcDbLine
 62
2
  6
CONTINUOUS
 10
12.0886862494
 20
2.5144449553
 11
12.0886862494
 21
2.5663117257
  0
ENDBLK
  5
3F8
100
AcDbEntity
  8
0
  6
BYBLOCK
 62
0
100
AcDbBlockEnd
  0
BLOCK
  5
3F9
100
AcDbEntity
  8
0
100
AcDbBlockBegin
  2
_FILLED
 70
64
 10
0.0
 20
0.0
  3
_FILLED
  1

  0
SOLID
  5
3FA
100
AcDbEntity
  8
0
  6
BYBLOCK
 62
0
100
AcDbTrace
 10
0.0
 20
0.0
 11
-1.0
 21
0.1666666667
 12
-1.0
 22
-0.1666666667
 13
-1.0
 23
-0.1666666667
  0
ENDBLK
  5
3FB
100
AcDbEntity
  8
0
  6
BYBLOCK
 62
0
100
AcDbBlockEnd
  0
BLOCK
  5
3FC
100
AcDbEntity
  8
SCHEME_DIMS
100
AcDbBlockBegin
 62
2
  6
CONTINUOUS
  2
*D0
 70
65
 10
0.0
 20
0.0
  3
*D0
  1

  0
MTEXT
  5
3FD
100
AcDbEntity
  8
SCHEME_DIMS
100
AcDbMText
 62
2
  6
CONTINUOUS
  7
TEXTSTYLE_5
 71
3
 72
1
 10
2.3166376698
 20
6.1232440136
 30
0.0
 11
1.0
 21
0.0
 31
0.0
 44
0.9
  1
{\Fgdt;n}\Ftxt;30\P[1.18]
 40
0.1
 41
0.6
  0
LINE
  5
3FE
100
AcDbEntity
  8
SCHEME_DIMS
100
AcDbLine
 62
2
  6
CONTINUOUS
 10
3.2792521938
 20
5.6697659782
 11
3.6409485947
 21
5.2029400888
  0
LINE
  5
3FF
100
AcDbEntity
  8
SCHEME_DIMS
100
AcDbLine
 62
2
  6
CONTINUOUS
 10
3.6409485947
 20
5.2029400888
 11
2.9666376698
 21
6.0732440136
  0
LINE
  5
400
100
AcDbEntity
  8
SCHEME_DIMS
100
AcDbLine
 62
2
  6
CONTINUOUS
 10
2.9666376698
 20
6.0732440136
 11
2.8166376698
 21
6.0732440136
  0
LINE
  5
401
100
AcDbEntity
  8
SCHEME_DIMS
100
AcDbLine
 62
2
  6
CONTINUOUS
 10
4.0026449955
 20
4.7361141993
 11
3.6409485947
 21
5.2029400888
  0
INSERT
  5
402
100
AcDbEntity
  8
SCHEME_DIMS
100
AcDbBlockReference
 62
2
  6
CONTINUOUS
  2
_FILLED
 10
3.2792521938
 20
5.6697659782
 41
0.1875
 42
0.1875
 43
0.1875
 50
127.7685015588
  0
INSERT
  5
403
100
AcDbEntity
  8
SCHEME_DIMS
100
AcDbBlockReference
 62
2
  6
CONTINUOUS
  2
_FILLED
 10
4.0026449955
 20
4.7361141993
 41
0.1875
 42
0.1875
 43
0.1875
 50
307.7685015588
  0
ENDBLK
  5
404
100
AcDbEntity
  8
0
  6
BYBLOCK
 62
0
100
AcDbBlockEnd
  0
BLOCK
  5
405
100
AcDbEntity
  8
SCHEME_DIMS
100
AcDbBlockBegin
 62
2
  6
CONTINUOUS
  2
*D1
 70
65
 10
0.0
 20
0.0
  3
*D1
  1

  0
MTEXT
  5
406
100
AcDbEntity
  8
SCHEME_DIMS
100
AcDbMText
 62
2
  6
CONTINUOUS
  7
STANDARD
 71
2
 72
1
 10
6.9037338967
 20
4.294475029
 30
0.0
 11
1.0
 21
0.0
 31
0.0
 44
0.9
  1
27\P[1.06]
 40
0.1
 41
0.6
  0
LINE
  5
407
100
AcDbEntity
  8
SCHEME_DIMS
100
AcDbLine
 62
2
  6
CONTINUOUS
 10
7.6352299597
 20
4.5892589865
 11
7.6352299597
 21
4.119475029
  0
LINE
  5
408
100
AcDbEntity
  8
SCHEME_DIMS
100
AcDbLine
 62
2
  6
CONTINUOUS
 10
6.5722378337
 20
5.1404400888
 11
6.5722378337
 21
4.119475029
  0
LINE
  5
409
100
AcDbEntity
  8
SCHEME_DIMS
100
AcDbLine
 62
2
  6
CONTINUOUS
 10
7.6352299597
 20
4.244475029
 11
8.0352299597
 21
4.244475029
  0
LINE
  5
40A
100
AcDbEntity
  8
SCHEME_DIMS
100
AcDbLine
 62
2
  6
CONTINUOUS
 10
6.5722378337
 20
4.244475029
 11
6.1722378337
 21
4.244475029
  0
INSERT
  5
40B
100
AcDbEntity
  8
SCHEME_DIMS
100
AcDbBlockReference
 62
2
  6
CONTINUOUS
  2
_FILLED
 10
7.6352299597
 20
4.244475029
 41
0.1875
 42
0.1875
 43
0.1875
 50
180.0
  0
INSERT
  5
40C
100
AcDbEntity
  8
SCHEME_DIMS
100
AcDbBlockReference
 62
2
  6
CONTINUOUS
  2
_FILLED
 10
6.5722378337
 20
4.244475029
 41
0.1875
 42
0.1875
 43
0.1875
  0
ENDBLK
  5
40D
100
AcDbEntity
  8
0
  6
BYBLOCK
 62
0
100
AcDbBlockEnd
  0
BLOCK
  5
40E
100
AcDbEntity
  8
SCHEME_DIMS
100
AcDbBlockBegin
 62
2
  6
CONTINUOUS
  2
*D2
 70
65
 10
0.0
 20
0.0
  3
*D2
  1

  0
MTEXT
  5
40F
100
AcDbEntity
  8
SCHEME_DIMS
100
AcDbMText
 62
2
  6
CONTINUOUS
  7
STANDARD
 71
2
 72
1
 10
7.1990094873
 20
8.4669602095
 30
0.0
 11
1.0
 21
0.0
 31
0.0
 44
0.9
  1
42\P[1.65]
 40
0.1
 41
0.6
  0
LINE
  5
410
100
AcDbEntity
  8
SCHEME_DIMS
100
AcDbLine
 62
2
  6
CONTINUOUS
 10
8.2257811408
 20
7.8052830016
 11
8.2257811408
 21
8.5419602095
  0
LINE
  5
411
100
AcDbEntity
  8
SCHEME_DIMS
100
AcDbLine
 62
2
  6
CONTINUOUS
 10
6.5722378337
 20
7.4509522929
 11
6.5722378337
 21
8.5419602095
  0
LINE
  5
412
100
AcDbEntity
  8
SCHEME_DIMS
100
AcDbLine
 62
2
  6
CONTINUOUS
 10
8.2257811408
 20
8.4169602095
 11
7.7990094873
 21
8.4169602095
  0
LINE
  5
413
100
AcDbEntity
  8
SCHEME_DIMS
100
AcDbLine
 62
2
  6
CONTINUOUS
 10
6.5722378337
 20
8.4169602095
 11
6.9990094873
 21
8.4169602095
  0
INSERT
  5
414
100
AcDbEntity
  8
SCHEME_DIMS
100
AcDbBlockReference
 62
2
  6
CONTINUOUS
  2
_FILLED
 10
8.2257811408
 20
8.4169602095
 41
0.1875
 42
0.1875
 43
0.1875
  0
INSERT
  5
415
100
AcDbEntity
  8
SCHEME_DIMS
100
AcDbBlockReference
 62
2
  6
CONTINUOUS
  2
_FILLED
 10
6.5722378337
 20
8.4169602095
 41
0.1875
 42
0.1875
 43
0.1875
 50
180.0
  0
ENDBLK
  5
416
100
AcDbEntity
  8
0
  6
BYBLOCK
 62
0
100
AcDbBlockEnd
  0
BLOCK
  5
417
100
AcDbEntity
  8
SCHEME_DIMS
100
AcDbBlockBegin
 62
2
  6
CONTINUOUS
  2
*D3
 70
65
 10
0.0
 20
0.0
  3
*D3
  1

  0
MTEXT
  5
418
100
AcDbEntity
  8
SCHEME_DIMS
100
AcDbMText
 62
2
  6
CONTINUOUS
  7
STANDARD
 71
2
 72
1
 10
7.4936945266
 20
8.9608941834
 30
0.0
 11
1.0
 21
0.0
 31
0.0
 44
0.9
  1
57\P[2.24]
 40
0.1
 41
0.6
  0
LINE
  5
419
100
AcDbEntity
  8
SCHEME_DIMS
100
AcDbLine
 62
2
  6
CONTINUOUS
 10
8.8151512195
 20
7.6546924504
 11
8.8151512195
 21
9.0358941834
  0
LINE
  5
41A
100
AcDbEntity
  8
SCHEME_DIMS
100
AcDbLine
 62
2
  6
CONTINUOUS
 10
6.5722378337
 20
7.4509522929
 11
6.5722378337
 21
9.0358941834
  0
LINE
  5
41B
100
AcDbEntity
  8
SCHEME_DIMS
100
AcDbLine
 62
2
  6
CONTINUOUS
 10
8.8151512195
 20
8.9108941834
 11
8.0936945266
 21
8.9108941834
  0
LINE
  5
41C
100
AcDbEntity
  8
SCHEME_DIMS
100
AcDbLine
 62
2
  6
CONTINUOUS
 10
6.5722378337
 20
8.9108941834
 11
7.2936945266
 21
8.9108941834
  0
INSERT
  5
41D
100
AcDbEntity
  8
SCHEME_DIMS
100
AcDbBlockReference
 62
2
  6
CONTINUOUS
  2
_FILLED
 10
8.8151512195
 20
8.9108941834
 41
0.1875
 42
0.1875
 43
0.1875
  0
INSERT
  5
41E
100
AcDbEntity
  8
SCHEME_DIMS
100
AcDbBlockReference
 62
2
  6
CONTINUOUS
  2
_FILLED
 10
6.5722378337
 20
8.9108941834
 41
0.1875
 42
0.1875
 43
0.1875
 50
180.0
  0
ENDBLK
  5
41F
100
AcDbEntity
  8
0
  6
BYBLOCK
 62
0
100
AcDbBlockEnd
  0
ENDSEC
  0
SECTION
  2
ENTITIES
  0
MTEXT
  5
420
100
AcDbEntity
  8
0
100
AcDbMText
 62
2
  6
CONTINUOUS
  7
TEXTSTYLE_2
 71
2
 72
1
 10
11.0287658475
 20
1.794867839
 30
0.0
 11
1.0
 21
0.0
 31
0.0
 44
0.9
  1
THIRD ANGLE PROJECTION
 40
0.1
 41
1.76
  0
MTEXT
  5
421
100
AcDbEntity
  8
0
100
AcDbMText
 62
2
  6
CONTINUOUS
  7
STANDARD
 71
1
 72
1
 10
12.88
 20
1.457
 30
0.0
 11
1.0
 21
0.0
 31
0.0
 44
0.9
  1
DRAWING NO.
 40
0.08
 41
0.88
  0
MTEXT
  5
422
100
AcDbEntity
  8
0
100
AcDbMText
 62
2
  6
CONTINUOUS
  7
TEXTSTYLE_3
 71
2
 72
1
 10
11.03
 20
2.516432
 30
0.0
 11
1.0
 21
0.0
 31
0.0
 44
0.9
  1
and is proprietary in general
 40
0.08
 41
1.972
  0
MTEXT
  5
423
100
AcDbEntity
  8
0
100
AcDbMText
 62
2
  6
CONTINUOUS
  7
TEXTSTYLE_3
 71
2
 72
1
 10
11.03
 20
2.396432
 30
0.0
 11
1.0
 21
0.0
 31
0.0
 44
0.9
  1
and in detail.  Its contents
 40
0.08
 41
1.904
  0
MTEXT
  5
424
100
AcDbEntity
  8
0
100
AcDbMText
 62
2
  6
CONTINUOUS
  7
TEXTSTYLE_3
 71
2
 72
1
 10
11.03
 20
2.276432
 30
0.0
 11
1.0
 21
0.0
 31
0.0
 44
0.9
  1
shall not be revealed to
 40
0.08
 41
1.632
  0
MTEXT
  5
425
100
AcDbEntity
  8
0
100
AcDbMText
 62
2
  6
CONTINUOUS
  7
TEXTSTYLE_3
 71
2
 72
1
 10
11.03
 20
2.156432
 30
0.0
 11
1.0
 21
0.0
 31
0.0
 44
0.9
  1
outside parties without
 40
0.08
 41
1.564
  0
MTEXT
  5
426
100
AcDbEntity
  8
0
100
AcDbMText
 62
2
  6
CONTINUOUS
  7
TEXTSTYLE_3
 71
2
 72
1
 10
11.03
 20
2.036432
 30
0.0
 11
1.0
 21
0.0
 31
0.0
 44
0.9
  1
written consent of BANNER.
 40
0.08
 41
1.768
  0
MTEXT
  5
427
100
AcDbEntity
  8
0
100
AcDbMText
 62
2
  6
CONTINUOUS
  7
TEXTSTYLE_2
 71
1
 72
1
 10
12.08
 20
2.217
 30
0.0
 11
1.0
 21
0.0
 31
0.0
 44
0.9
  1
TITLE
 40
0.1
 41
0.4
  0
MTEXT
  5
428
100
AcDbEntity
  8
0
100
AcDbMText
 62
2
  6
CONTINUOUS
  7
STANDARD
 71
1
 72
1
 10
12.08
 20
1.457
 30
0.0
 11
1.0
 21
0.0
 31
0.0
 44
0.9
  1
SIZE
 40
0.08
 41
0.32
  0
MTEXT
  5
429
100
AcDbEntity
  8
0
100
AcDbMText
 62
2
  6
CONTINUOUS
  7
STANDARD
 71
1
 72
1
 10
12.08
 20
1.087
 30
0.0
 11
1.0
 21
0.0
 31
0.0
 44
0.9
  1
SCALE
 40
0.08
 41
0.4
  0
MTEXT
  5
42A
100
AcDbEntity
  8
0
100
AcDbMText
 62
2
  6
CONTINUOUS
  7
TEXTSTYLE_2
 71
2
 72
1
 10
12.5
 20
1.337
 30
0.0
 11
1.0
 21
0.0
 31
0.0
 44
0.9
  1
B
 40
0.1
 41
0.08
  0
MTEXT
  5
42B
100
AcDbEntity
  8
0
100
AcDbMText
 62
2
  6
CONTINUOUS
  7
TEXTSTYLE_3
 71
2
 72
1
 10
11.03
 20
2.636432
 30
0.0
 11
1.0
 21
0.0
 31
0.0
 44
0.9
  1
of BANNER ENGINEERING CORP.
 40
0.08
 41
1.836
  0
MTEXT
  5
42C
100
AcDbEntity
  8
0
100
AcDbMText
 62
2
  6
CONTINUOUS
  7
TEXTSTYLE_3
 71
2
 72
1
 10
11.03
 20
2.756432
 30
0.0
 11
1.0
 21
0.0
 31
0.0
 44
0.9
  1
This drawing is the property
 40
0.08
 41
1.904
  0
MTEXT
  5
42D
100
AcDbEntity
  8
0
100
AcDbMText
 62
2
  6
CONTINUOUS
  7
TEXTSTYLE_2
 71
2
 72
1
 10
15.03
 20
2.4134
 30
0.0
 11
1.0
 21
0.0
 31
0.0
 44
0.9
  1
MINNEAPOLIS, MN 55440
 40
0.1
 41
1.68
  0
MTEXT
  5
42E
100
AcDbEntity
  8
0
100
AcDbMText
 62
2
  6
CONTINUOUS
  7
STANDARD
 71
1
 72
1
 10
14.255
 20
1.087
 30
0.0
 11
1.0
 21
0.0
 31
0.0
 44
0.9
  1
SHEET
 40
0.08
 41
0.4
  0
MTEXT
  5
42F
100
AcDbEntity
  8
0
100
AcDbMText
 62
2
  6
CONTINUOUS
  7
STANDARD
 71
1
 72
1
 10
15.63
 20
1.457
 30
0.0
 11
1.0
 21
0.0
 31
0.0
 44
0.9
  1
REV.
 40
0.08
 41
0.32
  0
MTEXT
  5
430
100
AcDbEntity
  8
0
100
AcDbMText
 62
2
  6
CONTINUOUS
  7
STANDARD
 71
3
 72
1
 10
16.38
 20
0.835443
 30
0.0
 11
1.0
 21
0.0
 31
0.0
 44
0.9
  1
PRO/E
 40
0.07
 41
0.35
  0
MTEXT
  5
431
100
AcDbEntity
  8
0
100
AcDbMText
 62
2
  6
CONTINUOUS
  7
TEXTSTYLE_4
 71
2
 72
1
 10
15.03
 20
2.751049
 30
0.0
 11
1.0
 21
0.0
 31
0.0
 44
0.9
  1
BANNER ENGINEERING CORP.
 40
0.12
 41
2.6496
  0
MTEXT
  5
432
100
AcDbEntity
  8
0
100
AcDbMText
 62
2
  6
CONTINUOUS
  7
TEXTSTYLE_2
 71
2
 72
1
 10
15.03
 20
2.5724
 30
0.0
 11
1.0
 21
0.0
 31
0.0
 44
0.9
  1
P.O. BOX 9414
 40
0.1
 41
1.04
  0
MTEXT
  5
433
100
AcDbEntity
  8
0
100
AcDbMText
 62
2
  6
CONTINUOUS
  7
TEXTSTYLE_2
 71
2
 72
1
 10
9.485
 20
10.312
 30
0.0
 11
1.0
 21
0.0
 31
0.0
 44
0.9
  1
4
 40
0.1
 41
0.08
  0
MTEXT
  5
434
100
AcDbEntity
  8
0
100
AcDbMText
 62
2
  6
CONTINUOUS
  7
TEXTSTYLE_2
 71
2
 72
1
 10
11.455
 20
10.312
 30
0.0
 11
1.0
 21
0.0
 31
0.0
 44
0.9
  1
3
 40
0.1
 41
0.08
  0
MTEXT
  5
435
100
AcDbEntity
  8
0
100
AcDbMText
 62
2
  6
CONTINUOUS
  7
TEXTSTYLE_2
 71
2
 72
1
 10
13.425
 20
10.312
 30
0.0
 11
1.0
 21
0.0
 31
0.0
 44
0.9
  1
2
 40
0.1
 41
0.08
  0
MTEXT
  5
436
100
AcDbEntity
  8
0
100
AcDbMText
 62
2
  6
CONTINUOUS
  7
TEXTSTYLE_2
 71
2
 72
1
 10
15.395
 20
10.312
 30
0.0
 11
1.0
 21
0.0
 31
0.0
 44
0.9
  1
1
 40
0.1
 41
0.08
  0
MTEXT
  5
437
100
AcDbEntity
  8
0
100
AcDbMText
 62
2
  6
CONTINUOUS
  7
TEXTSTYLE_2
 71
2
 72
1
 10
3.575
 20
10.312
 30
0.0
 11
1.0
 21
0.0
 31
0.0
 44
0.9
  1
7
 40
0.1
 41
0.08
  0
MTEXT
  5
438
100
AcDbEntity
  8
0
100
AcDbMText
 62
2
  6
CONTINUOUS
  7
TEXTSTYLE_2
 71
2
 72
1
 10
5.545
 20
10.312
 30
0.0
 11
1.0
 21
0.0
 31
0.0
 44
0.9
  1
6
 40
0.1
 41
0.08
  0
MTEXT
  5
439
100
AcDbEntity
  8
0
100
AcDbMText
 62
2
  6
CONTINUOUS
  7
TEXTSTYLE_2
 71
2
 72
1
 10
7.515
 20
10.312
 30
0.0
 11
1.0
 21
0.0
 31
0.0
 44
0.9
  1
5
 40
0.1
 41
0.08
  0
MTEXT
  5
43A
100
AcDbEntity
  8
0
100
AcDbMText
 62
2
  6
CONTINUOUS
  7
TEXTSTYLE_2
 71
2
 72
1
 10
1.605
 20
10.312
 30
0.0
 11
1.0
 21
0.0
 31
0.0
 44
0.9
  1
8
 40
0.1
 41
0.08
  0
MTEXT
  5
43B
100
AcDbEntity
  8
0
100
AcDbMText
 62
2
  6
CONTINUOUS
  7
TEXTSTYLE_2
 71
2
 72
1
 10
1.605
 20
0.787
 30
0.0
 11
1.0
 21
0.0
 31
0.0
 44
0.9
  1
8
 40
0.1
 41
0.08
  0
MTEXT
  5
43C
100
AcDbEntity
  8
0
100
AcDbMText
 62
2
  6
CONTINUOUS
  7
TEXTSTYLE_2
 71
2
 72
1
 10
3.575
 20
0.787
 30
0.0
 11
1.0
 21
0.0
 31
0.0
 44
0.9
  1
7
 40
0.1
 41
0.08
  0
MTEXT
  5
43D
100
AcDbEntity
  8
0
100
AcDbMText
 62
2
  6
CONTINUOUS
  7
TEXTSTYLE_2
 71
2
 72
1
 10
5.545
 20
0.787
 30
0.0
 11
1.0
 21
0.0
 31
0.0
 44
0.9
  1
6
 40
0.1
 41
0.08
  0
MTEXT
  5
43E
100
AcDbEntity
  8
0
100
AcDbMText
 62
2
  6
CONTINUOUS
  7
TEXTSTYLE_2
 71
2
 72
1
 10
7.515
 20
0.787
 30
0.0
 11
1.0
 21
0.0
 31
0.0
 44
0.9
  1
5
 40
0.1
 41
0.08
  0
MTEXT
  5
43F
100
AcDbEntity
  8
0
100
AcDbMText
 62
2
  6
CONTINUOUS
  7
TEXTSTYLE_2
 71
2
 72
1
 10
9.485
 20
0.787
 30
0.0
 11
1.0
 21
0.0
 31
0.0
 44
0.9
  1
4
 40
0.1
 41
0.08
  0
MTEXT
  5
440
100
AcDbEntity
  8
0
100
AcDbMText
 62
2
  6
CONTINUOUS
  7
TEXTSTYLE_2
 71
2
 72
1
 10
11.455
 20
0.787
 30
0.0
 11
1.0
 21
0.0
 31
0.0
 44
0.9
  1
3
 40
0.1
 41
0.08
  0
MTEXT
  5
441
100
AcDbEntity
  8
0
100
AcDbMText
 62
2
  6
CONTINUOUS
  7
TEXTSTYLE_2
 71
2
 72
1
 10
13.425
 20
0.787
 30
0.0
 11
1.0
 21
0.0
 31
0.0
 44
0.9
  1
2
 40
0.1
 41
0.08
  0
MTEXT
  5
442
100
AcDbEntity
  8
0
100
AcDbMText
 62
2
  6
CONTINUOUS
  7
TEXTSTYLE_2
 71
2
 72
1
 10
15.395
 20
0.787
 30
0.0
 11
1.0
 21
0.0
 31
0.0
 44
0.9
  1
1
 40
0.1
 41
0.08
  0
MTEXT
  5
443
100
AcDbEntity
  8
0
100
AcDbMText
 62
2
  6
CONTINUOUS
  7
TEXTSTYLE_2
 71
3
 72
1
 10
0.52
 20
4.3995
 30
0.0
 11
1.0
 21
0.0
 31
0.0
 44
0.9
  1
B
 40
0.1
 41
0.08
  0
MTEXT
  5
444
100
AcDbEntity
  8
0
100
AcDbMText
 62
2
  6
CONTINUOUS
  7
TEXTSTYLE_2
 71
3
 72
1
 10
0.52
 20
2.0995
 30
0.0
 11
1.0
 21
0.0
 31
0.0
 44
0.9
  1
A
 40
0.1
 41
0.08
  0
MTEXT
  5
445
100
AcDbEntity
  8
0
100
AcDbMText
 62
2
  6
CONTINUOUS
  7
TEXTSTYLE_2
 71
3
 72
1
 10
0.52
 20
8.9995
 30
0.0
 11
1.0
 21
0.0
 31
0.0
 44
0.9
  1
D
 40
0.1
 41
0.08
  0
MTEXT
  5
446
100
AcDbEntity
  8
0
100
AcDbMText
 62
2
  6
CONTINUOUS
  7
TEXTSTYLE_2
 71
3
 72
1
 10
0.52
 20
6.6995
 30
0.0
 11
1.0
 21
0.0
 31
0.0
 44
0.9
  1
C
 40
0.1
 41
0.08
  0
MTEXT
  5
447
100
AcDbEntity
  8
0
100
AcDbMText
 62
2
  6
CONTINUOUS
  7
TEXTSTYLE_2
 71
1
 72
1
 10
16.48
 20
8.9995
 30
0.0
 11
1.0
 21
0.0
 31
0.0
 44
0.9
  1
D
 40
0.1
 41
0.08
  0
MTEXT
  5
448
100
AcDbEntity
  8
0
100
AcDbMText
 62
2
  6
CONTINUOUS
  7
TEXTSTYLE_2
 71
1
 72
1
 10
16.48
 20
6.6995
 30
0.0
 11
1.0
 21
0.0
 31
0.0
 44
0.9
  1
C
 40
0.1
 41
0.08
  0
MTEXT
  5
449
100
AcDbEntity
  8
0
100
AcDbMText
 62
2
  6
CONTINUOUS
  7
TEXTSTYLE_2
 71
1
 72
1
 10
16.48
 20
4.3995
 30
0.0
 11
1.0
 21
0.0
 31
0.0
 44
0.9
  1
B
 40
0.1
 41
0.08
  0
MTEXT
  5
44A
100
AcDbEntity
  8
0
100
AcDbMText
 62
2
  6
CONTINUOUS
  7
TEXTSTYLE_2
 71
1
 72
1
 10
16.48
 20
2.0995
 30
0.0
 11
1.0
 21
0.0
 31
0.0
 44
0.9
  1
A
 40
0.1
 41
0.08
  0
MTEXT
  5
44B
100
AcDbEntity
  8
0
100
AcDbMText
 62
2
  6
CONTINUOUS
  7
STANDARD
 71
1
 72
1
 10
14.819264911
 20
1.0627941725
 30
0.0
 11
1.0
 21
0.0
 31
0.0
 44
0.9
  1
1 OF 1
 40
0.1
 41
0.6
  0
MTEXT
  5
44C
100
AcDbEntity
  8
0
100
AcDbMText
 62
7
  6
CONTINUOUS
  7
STANDARD
 71
1
 72
1
 10
13.8911999818
 20
1.3747321586
 30
0.0
 11
1.0
 21
0.0
 31
0.0
 44
0.9
  1
152819
 40
0.12
 41
0.72
  0
MTEXT
  5
44D
100
AcDbEntity
  8
0
100
AcDbMText
 62
2
  6
CONTINUOUS
  7
STANDARD
 71
1
 72
1
 10
12.644264911
 20
1.0627941725
 30
0.0
 11
1.0
 21
0.0
 31
0.0
 44
0.9
  1
1:1
 40
0.1
 41
0.3
  0
MTEXT
  5
44E
100
AcDbEntity
  8
0
100
AcDbMText
 62
2
  6
CONTINUOUS
  7
STANDARD
 71
1
 72
1
 10
1.0597007627
 20
1.6202922458
 30
0.0
 11
1.0
 21
0.0
 31
0.0
 44
0.9
  1
NOTES:\P1. ALL DIMENSIONS ARE MILLIMETERS [INCHES] UNLESS OTHERWISE NOTED.
 40
0.1
 41
6.6
  0
INSERT
  5
44F
100
AcDbEntity
  8
0
100
AcDbBlockReference
 62
2
  6
CONTINUOUS
  2
BANNER_LOGO_TITLEBLOCK_BL0
 10
12.9086867042
 20
2.5403783405
  0
DIMENSION
  5
450
100
AcDbEntity
  8
SCHEME_DIMS
100
AcDbDimension
 62
2
  6
CONTINUOUS
  2
*D0
 10
3.2792521938
 20
5.6697659782
 11
2.2166376698
 21
5.9982440136
 70
163
 71
3
 42
30.0
  1
<>
  3
DIMSTYLE_1
100
AcDbDiametricDimension
 15
4.0026449955
 25
4.7361141993
  0
DIMENSION
  5
451
100
AcDbEntity
  8
SCHEME_DIMS
100
AcDbDimension
 62
2
  6
CONTINUOUS
  2
*D1
 10
6.5722378337
 20
4.244475029
 11
7.0287338967
 21
4.169475029
 70
160
 71
2
 42
27.0
  3
DIMSTYLE_2
100
AcDbAlignedDimension
 13
7.6352299597
 23
4.5892589865
 14
6.5722378337
 24
5.1404400888
 50
180.0
100
AcDbRotatedDimension
  0
DIMENSION
  5
452
100
AcDbEntity
  8
SCHEME_DIMS
100
AcDbDimension
 62
2
  6
CONTINUOUS
  2
*D2
 10
6.5722378337
 20
8.4169602095
 11
7.3240094873
 21
8.3419602095
 70
160
 71
2
 42
42.0
  3
DIMSTYLE_2
100
AcDbAlignedDimension
 13
8.2257811408
 23
7.8052830016
 14
6.5722378337
 24
7.4509522929
 50
180.0
100
AcDbRotatedDimension
  0
DIMENSION
  5
453
100
AcDbEntity
  8
SCHEME_DIMS
100
AcDbDimension
 62
2
  6
CONTINUOUS
  2
*D3
 10
6.5722378337
 20
8.9108941834
 11
7.6186945266
 21
8.8358941834
 70
160
 71
2
 42
56.97
  3
DIMSTYLE_2
100
AcDbAlignedDimension
 13
8.8151512195
 23
7.6546924504
 14
6.5722378337
 24
7.4509522929
 50
180.0
100
AcDbRotatedDimension
  0
LINE
  5
454
100
AcDbEntity
  8
0
100
AcDbLine
 62
2
  6
CONTINUOUS
 10
16.38
 20
0.887
 11
12.03
 21
0.887
  0
LINE
  5
455
100
AcDbEntity
  8
0
100
AcDbLine
 62
2
  6
CONTINUOUS
 10
16.38
 20
0.887
 11
16.38
 21
2.807
  0
LINE
  5
456
100
AcDbEntity
  8
0
100
AcDbLine
 62
2
  6
CONTINUOUS
 10
16.38
 20
2.807
 11
12.03
 21
2.807
  0
LINE
  5
457
100
AcDbEntity
  8
0
100
AcDbLine
 62
2
  6
CONTINUOUS
 10
12.03
 20
0.887
 11
12.03
 21
2.807
  0
MTEXT
  5
458
100
AcDbEntity
  8
NOTES
100
AcDbMText
 62
7
  6
CONTINUOUS
  7
STANDARD
 71
2
 72
1
 10
16.155
 20
1.367
 30
0.0
 11
1.0
 21
0.0
 31
0.0
 44
0.9
  1
-
 40
0.1
 41
0.1
  0
MTEXT
  5
459
100
AcDbEntity
  8
NOTES
100
AcDbMText
 62
7
  6
CONTINUOUS
  7
STANDARD
 71
2
 72
1
 10
14.205
 20
1.967
 30
0.0
 11
1.0
 21
0.0
 31
0.0
 44
0.9
  1
K30L QD\PWEB CAD DRAWINGS 2D/3D
 40
0.1
 41
2.2
  0
LEADER
  5
45A
100
AcDbEntity
  8
NOTES
100
AcDbLeader
 62
2
  6
CONTINUOUS
  3
STANDARD
 71
1
 72
0
 73
0
 75
0
 40
0.1
 41
1.3
 76
3
 10
7.9221120535
 20
6.9873527621
 30
0.0
 10
8.3275777186
 20
6.1740609712
 30
0.0
 10
8.5775777186
 20
6.1740609712
 30
0.0
340
45B
1001
ACAD
1000
DSTYLE
1002
{
1070
77
1070
0
1002
}
  0
MTEXT
  5
45B
102
{ACAD_REACTORS
330
45A
102
}
100
AcDbEntity
  8
NOTES
100
AcDbMText
 62
2
  6
CONTINUOUS
  7
STANDARD
 71
1
 72
1
 10
8.5775777186
 20
6.2240609712
 30
0.0
 11
1.0
 21
0.0
 31
0.0
 44
0.9
  1
M22 X 1.5 -6g
 40
0.1
 41
1.3
  0
LEADER
  5
45C
100
AcDbEntity
  8
NOTES
100
AcDbLeader
 62
2
  6
CONTINUOUS
  3
STANDARD
 71
1
 72
0
 73
0
 75
0
 40
0.1
 41
1.1
 76
3
 10
8.5770718358
 20
7.1641123728
 30
0.0
 10
8.9516870771
 20
6.6117697749
 30
0.0
 10
9.2016870771
 20
6.6117697749
 30
0.0
340
45D
1001
ACAD
1000
DSTYLE
1002
{
1070
77
1070
0
1002
}
  0
MTEXT
  5
45D
102
{ACAD_REACTORS
330
45C
102
}
100
AcDbEntity
  8
NOTES
100
AcDbMText
 62
2
  6
CONTINUOUS
  7
STANDARD
 71
1
 72
1
 10
9.2016870771
 20
6.6617697749
 30
0.0
 11
1.0
 21
0.0
 31
0.0
 44
0.9
  1
M12 X 1 -6g
 40
0.1
 41
1.1
  0
LINE
  5
45E
100
AcDbEntity
  8
0
100
AcDbLine
 62
2
  6
CONTINUOUS
 10
0.47
 20
5.586103
 11
0.47
 21
5.412897
  0
LINE
  5
45F
100
AcDbEntity
  8
0
100
AcDbLine
 62
2
  6
CONTINUOUS
 10
0.62
 20
10.112
 11
0.62
 21
0.887
  0
LINE
  5
460
100
AcDbEntity
  8
0
100
AcDbLine
 62
2
  6
CONTINUOUS
 10
2.59
 20
0.887
 11
2.59
 21
0.637
  0
LINE
  5
461
100
AcDbEntity
  8
0
100
AcDbLine
 62
2
  6
CONTINUOUS
 10
2.59
 20
10.112
 11
2.59
 21
10.362
  0
LINE
  5
462
100
AcDbEntity
  8
0
100
AcDbLine
 62
2
  6
CONTINUOUS
 10
8.413397
 20
0.737
 11
8.586603
 21
0.737
  0
LINE
  5
463
100
AcDbEntity
  8
0
100
AcDbLine
 62
7
  6
CONTINUOUS
 10
11.1389508475
 20
1.425992839
 11
11.7453418475
 21
1.495385839
  0
LINE
  5
464
100
AcDbEntity
  8
0
100
AcDbLine
 62
2
  6
CONTINUOUS
 10
0.62
 20
0.887
 11
16.38
 21
0.887
  0
LINE
  5
465
100
AcDbEntity
  8
0
100
AcDbLine
 62
2
  6
CONTINUOUS
 10
12.03
 20
1.137
 11
16.38
 21
1.137
  0
LINE
  5
466
100
AcDbEntity
  8
0
100
AcDbLine
 62
7
  6
CONTINUOUS
 10
10.2121898475
 20
1.243294839
 11
10.4342808475
 21
1.243294839
  0
LINE
  5
467
100
AcDbEntity
  8
0
100
AcDbLine
 62
7
  6
CONTINUOUS
 10
10.4842808475
 20
1.243294839
 11
10.5842808475
 21
1.243294839
  0
LINE
  5
468
100
AcDbEntity
  8
0
100
AcDbLine
 62
7
  6
CONTINUOUS
 10
10.6342808475
 20
1.243294839
 11
10.8563718475
 21
1.243294839
  0
LINE
  5
469
100
AcDbEntity
  8
0
100
AcDbLine
 62
7
  6
CONTINUOUS
 10
11.0389508475
 20
1.243294839
 11
11.3171028475
 21
1.243294839
  0
LINE
  5
46A
100
AcDbEntity
  8
0
100
AcDbLine
 62
7
  6
CONTINUOUS
 10
11.3671028475
 20
1.243294839
 11
11.5171888475
 21
1.243294839
  0
LINE
  5
46B
100
AcDbEntity
  8
0
100
AcDbLine
 62
7
  6
CONTINUOUS
 10
11.5671888475
 20
1.243294839
 11
11.8453418475
 21
1.243294839
  0
LINE
  5
46C
100
AcDbEntity
  8
0
100
AcDbLine
 62
7
  6
CONTINUOUS
 10
11.7453418475
 20
0.991203839
 11
11.1389508475
 21
1.060596839
  0
LINE
  5
46D
100
AcDbEntity
  8
0
100
AcDbLine
 62
2
  6
CONTINUOUS
 10
4.56
 20
0.887
 11
4.56
 21
0.637
  0
LINE
  5
46E
100
AcDbEntity
  8
0
100
AcDbLine
 62
2
  6
CONTINUOUS
 10
4.56
 20
10.112
 11
4.56
 21
10.362
  0
LINE
  5
46F
100
AcDbEntity
  8
0
100
AcDbLine
 62
2
  6
CONTINUOUS
 10
0.47
 20
5.412897
 11
0.62
 21
5.4995
  0
LINE
  5
470
100
AcDbEntity
  8
0
100
AcDbLine
 62
2
  6
CONTINUOUS
 10
12.03
 20
1.507
 11
16.38
 21
1.507
  0
LINE
  5
471
100
AcDbEntity
  8
0
100
AcDbLine
 62
2
  6
CONTINUOUS
 10
10.03
 20
1.907
 11
12.03
 21
1.907
  0
LINE
  5
472
100
AcDbEntity
  8
0
100
AcDbLine
 62
2
  6
CONTINUOUS
 10
0.62
 20
5.4995
 11
0.47
 21
5.586103
  0
LINE
  5
473
100
AcDbEntity
  8
0
100
AcDbLine
 62
2
  6
CONTINUOUS
 10
12.03
 20
2.267
 11
16.38
 21
2.267
  0
LINE
  5
474
100
AcDbEntity
  8
0
100
AcDbLine
 62
2
  6
CONTINUOUS
 10
8.5
 20
10.112
 11
8.586603
 21
10.262
  0
LINE
  5
475
100
AcDbEntity
  8
0
100
AcDbLine
 62
2
  6
CONTINUOUS
 10
16.38
 20
2.807
 11
10.03
 21
2.807
  0
LINE
  5
476
100
AcDbEntity
  8
0
100
AcDbLine
 62
2
  6
CONTINUOUS
 10
0.62
 20
3.1995
 11
0.37
 21
3.1995
  0
LINE
  5
477
100
AcDbEntity
  8
0
100
AcDbLine
 62
2
  6
CONTINUOUS
 10
16.38
 20
3.1995
 11
16.63
 21
3.1995
  0
LINE
  5
478
100
AcDbEntity
  8
0
100
AcDbLine
 62
2
  6
CONTINUOUS
 10
8.586603
 20
0.737
 11
8.5
 21
0.887
  0
LINE
  5
479
100
AcDbEntity
  8
0
100
AcDbLine
 62
2
  6
CONTINUOUS
 10
6.53
 20
0.887
 11
6.53
 21
0.637
  0
LINE
  5
47A
100
AcDbEntity
  8
0
100
AcDbLine
 62
2
  6
CONTINUOUS
 10
6.53
 20
10.112
 11
6.53
 21
10.362
  0
LINE
  5
47B
100
AcDbEntity
  8
0
100
AcDbLine
 62
2
  6
CONTINUOUS
 10
8.5
 20
0.887
 11
8.5
 21
0.637
  0
LINE
  5
47C
100
AcDbEntity
  8
0
100
AcDbLine
 62
2
  6
CONTINUOUS
 10
8.5
 20
10.112
 11
8.5
 21
10.362
  0
LINE
  5
47D
100
AcDbEntity
  8
0
100
AcDbLine
 62
2
  6
CONTINUOUS
 10
0.62
 20
5.4995
 11
0.37
 21
5.4995
  0
LINE
  5
47E
100
AcDbEntity
  8
0
100
AcDbLine
 62
2
  6
CONTINUOUS
 10
16.38
 20
5.4995
 11
16.63
 21
5.4995
  0
LINE
  5
47F
100
AcDbEntity
  8
0
100
AcDbLine
 62
2
  6
CONTINUOUS
 10
10.03
 20
2.807
 11
10.03
 21
0.887
  0
LINE
  5
480
100
AcDbEntity
  8
0
100
AcDbLine
 62
2
  6
CONTINUOUS
 10
10.47
 20
0.887
 11
10.47
 21
0.637
  0
LINE
  5
481
100
AcDbEntity
  8
0
100
AcDbLine
 62
2
  6
CONTINUOUS
 10
10.47
 20
10.112
 11
10.47
 21
10.362
  0
LINE
  5
482
100
AcDbEntity
  8
0
100
AcDbLine
 62
7
  6
CONTINUOUS
 10
10.5342808475
 20
1.143294839
 11
10.5342808475
 21
0.921203839
  0
LINE
  5
483
100
AcDbEntity
  8
0
100
AcDbLine
 62
7
  6
CONTINUOUS
 10
10.5342808475
 20
1.193294839
 11
10.5342808475
 21
1.293294839
  0
LINE
  5
484
100
AcDbEntity
  8
0
100
AcDbLine
 62
7
  6
CONTINUOUS
 10
10.5342808475
 20
1.343294839
 11
10.5342808475
 21
1.565385839
  0
LINE
  5
485
100
AcDbEntity
  8
0
100
AcDbLine
 62
2
  6
CONTINUOUS
 10
8.5
 20
0.887
 11
8.413397
 21
0.737
  0
LINE
  5
486
100
AcDbEntity
  8
0
100
AcDbLine
 62
2
  6
CONTINUOUS
 10
0.62
 20
7.7995
 11
0.37
 21
7.7995
  0
LINE
  5
487
100
AcDbEntity
  8
0
100
AcDbLine
 62
2
  6
CONTINUOUS
 10
16.38
 20
7.7995
 11
16.63
 21
7.7995
  0
LINE
  5
488
100
AcDbEntity
  8
0
100
AcDbLine
 62
2
  6
CONTINUOUS
 10
8.413397
 20
10.262
 11
8.5
 21
10.112
  0
LINE
  5
489
100
AcDbEntity
  8
0
100
AcDbLine
 62
7
  6
CONTINUOUS
 10
11.1389508475
 20
1.060596839
 11
11.1389508475
 21
1.425992839
  0
LINE
  5
48A
100
AcDbEntity
  8
0
100
AcDbLine
 62
7
  6
CONTINUOUS
 10
11.7453418475
 20
1.495385839
 11
11.7453418475
 21
0.991203839
  0
LINE
  5
48B
100
AcDbEntity
  8
0
100
AcDbLine
 62
1
  6
CONTINUOUS
 10
12.03
 20
2.807
 11
12.03
 21
0.887
  0
LINE
  5
48C
100
AcDbEntity
  8
0
100
AcDbLine
 62
2
  6
CONTINUOUS
 10
12.44
 20
0.887
 11
12.44
 21
0.637
  0
LINE
  5
48D
100
AcDbEntity
  8
0
100
AcDbLine
 62
2
  6
CONTINUOUS
 10
12.44
 20
10.112
 11
12.44
 21
10.362
  0
LINE
  5
48E
100
AcDbEntity
  8
0
100
AcDbLine
 62
2
  6
CONTINUOUS
 10
16.53
 20
5.586103
 11
16.38
 21
5.4995
  0
LINE
  5
48F
100
AcDbEntity
  8
0
100
AcDbLine
 62
2
  6
CONTINUOUS
 10
16.38
 20
5.4995
 11
16.53
 21
5.412897
  0
LINE
  5
490
100
AcDbEntity
  8
0
100
AcDbLine
 62
2
  6
CONTINUOUS
 10
12.83
 20
1.507
 11
12.83
 21
1.137
  0
LINE
  5
491
100
AcDbEntity
  8
0
100
AcDbLine
 62
2
  6
CONTINUOUS
 10
16.38
 20
10.112
 11
0.62
 21
10.112
  0
LINE
  5
492
100
AcDbEntity
  8
0
100
AcDbLine
 62
2
  6
CONTINUOUS
 10
8.586603
 20
10.262
 11
8.413397
 21
10.262
  0
LINE
  5
493
100
AcDbEntity
  8
0
100
AcDbLine
 62
2
  6
CONTINUOUS
 10
14.205
 20
1.137
 11
14.205
 21
0.887
  0
LINE
  5
494
100
AcDbEntity
  8
0
100
AcDbLine
 62
2
  6
CONTINUOUS
 10
14.41
 20
0.887
 11
14.41
 21
0.637
  0
LINE
  5
495
100
AcDbEntity
  8
0
100
AcDbLine
 62
2
  6
CONTINUOUS
 10
14.41
 20
10.112
 11
14.41
 21
10.362
  0
LINE
  5
496
100
AcDbEntity
  8
0
100
AcDbLine
 62
2
  6
CONTINUOUS
 10
15.58
 20
1.507
 11
15.58
 21
1.137
  0
LINE
  5
497
100
AcDbEntity
  8
0
100
AcDbLine
 62
2
  6
CONTINUOUS
 10
16.38
 20
0.887
 11
16.38
 21
10.112
  0
LINE
  5
498
100
AcDbEntity
  8
0
100
AcDbLine
 62
2
  6
CONTINUOUS
 10
16.53
 20
5.412897
 11
16.53
 21
5.586103
  0
LINE
  5
499
100
AcDbEntity
  8
0
100
AcDbLine
 62
7
  6
CONTINUOUS
 10
7.595859881
 20
4.6123889077
 11
7.1627890148
 21
4.6123889077
  0
LINE
  5
49A
100
AcDbEntity
  8
AXIS
100
AcDbLine
 62
7
  6
CONTINUOUS
 10
7.1627890148
 20
4.6123889077
 11
7.595859881
 21
4.6123889077
  0
LINE
  5
49B
100
AcDbEntity
  8
AXIS
100
AcDbLine
 62
7
  6
CONTINUOUS
 10
7.1627890148
 20
5.7934912699
 11
7.1627890148
 21
4.6123889077
  0
LWPOLYLINE
  5
49C
100
AcDbEntity
  8
0
100
AcDbPolyline
 62
9
  6
CONTINUOUS
 90
6
 70
0
 10
8.2060961014
 20
4.8497029934
 10
8.2121782106
 20
4.8506126456
 10
8.2176661819
 20
4.8532532999
 10
8.2220214708
 20
4.8573664429
 10
8.2248176438
 20
4.8625492291
 10
8.2257811408
 20
4.8682944195
  0
LINE
  5
49D
100
AcDbEntity
  8
0
100
AcDbLine
 62
7
  6
CONTINUOUS
 10
7.6549149991
 20
4.8486093801
 11
8.2060961014
 21
4.8486093801
  0
LINE
  5
49E
100
AcDbEntity
  8
0
100
AcDbLine
 62
9
  6
CONTINUOUS
 10
8.1864110621
 20
4.8497029934
 11
8.2060961014
 21
4.8497029934
  0
LINE
  5
49F
100
AcDbEntity
  8
0
100
AcDbLine
 62
9
  6
CONTINUOUS
 10
7.6549149991
 20
4.8522442675
 11
7.6983240802
 21
4.8522442675
  0
LWPOLYLINE
  5
4A0
100
AcDbEntity
  8
0
100
AcDbPolyline
 62
7
  6
CONTINUOUS
 90
3
 70
0
 10
7.6821631422
 20
5.5572707974
 10
7.6807750528
 20
5.5563173974
 10
7.6804035558
 20
5.5536359101
  0
LINE
  5
4A1
100
AcDbEntity
  8
0
100
AcDbLine
 62
7
  6
CONTINUOUS
 10
8.3007811408
 20
4.9049400888
 11
8.2507811408
 21
4.9049400888
  0
LINE
  5
4A2
100
AcDbEntity
  8
0
100
AcDbLine
 62
7
  6
CONTINUOUS
 10
8.2257811408
 20
4.9129400888
 11
8.2507811408
 21
4.9129400888
  0
LINE
  5
4A3
100
AcDbEntity
  8
0
100
AcDbLine
 62
7
  6
CONTINUOUS
 10
8.2688980803
 20
4.9129400888
 11
8.2826642013
 21
4.9129400888
  0
LINE
  5
4A4
100
AcDbEntity
  8
0
100
AcDbLine
 62
7
  6
CONTINUOUS
 10
8.3007811408
 20
4.9129400888
 11
8.3257811408
 21
4.9129400888
  0
LINE
  5
4A5
100
AcDbEntity
  8
0
100
AcDbLine
 62
7
  6
CONTINUOUS
 10
8.2507811408
 20
4.9140196845
 11
8.2601561408
 21
4.9140196845
  0
LINE
  5
4A6
100
AcDbEntity
  8
0
100
AcDbLine
 62
7
  6
CONTINUOUS
 10
8.2914061408
 20
4.9140196845
 11
8.3007811408
 21
4.9140196845
  0
LINE
  5
4A7
100
AcDbEntity
  8
0
100
AcDbLine
 62
7
  6
CONTINUOUS
 10
8.4257811408
 20
4.9669400888
 11
8.4717811298
 21
4.9669400888
  0
LINE
  5
4A8
100
AcDbEntity
  8
0
100
AcDbLine
 62
7
  6
CONTINUOUS
 10
8.503781131
 20
4.9669400888
 11
8.5107811504
 21
4.9669400888
  0
LINE
  5
4A9
100
AcDbEntity
  8
0
100
AcDbLine
 62
7
  6
CONTINUOUS
 10
8.542781151
 20
4.9669400888
 11
8.5497811416
 21
4.9669400888
  0
LINE
  5
4AA
100
AcDbEntity
  8
0
100
AcDbLine
 62
7
  6
CONTINUOUS
 10
8.5817811416
 20
4.9669400888
 11
8.5887811299
 21
4.9669400888
  0
LINE
  5
4AB
100
AcDbEntity
  8
0
100
AcDbLine
 62
7
  6
CONTINUOUS
 10
8.6207811311
 20
4.9669400888
 11
8.6277811505
 21
4.9669400888
  0
LINE
  5
4AC
100
AcDbEntity
  8
0
100
AcDbLine
 62
7
  6
CONTINUOUS
 10
8.6597811512
 20
4.9669400888
 11
8.6667811412
 21
4.9669400888
  0
LINE
  5
4AD
100
AcDbEntity
  8
0
100
AcDbLine
 62
7
  6
CONTINUOUS
 10
8.6987811412
 20
4.9669400888
 11
8.70578113
 21
4.9669400888
  0
LINE
  5
4AE
100
AcDbEntity
  8
0
100
AcDbLine
 62
7
  6
CONTINUOUS
 10
8.7377811313
 20
4.9669400888
 11
8.7447811507
 21
4.9669400888
  0
LINE
  5
4AF
100
AcDbEntity
  8
0
100
AcDbLine
 62
7
  6
CONTINUOUS
 10
8.8151512195
 20
4.9991999313
 11
8.7757811408
 21
4.9991999313
  0
LINE
  5
4B0
100
AcDbEntity
  8
0
100
AcDbLine
 62
9
  6
CONTINUOUS
 10
7.595859881
 20
4.6123889077
 11
7.595859881
 21
5.7934912699
  0
LWPOLYLINE
  5
4B1
100
AcDbEntity
  8
0
100
AcDbPolyline
 62
7
  6
CONTINUOUS
 90
3
 70
0
 10
7.6983240802
 20
4.8522442675
 10
7.6989510904
 20
4.8495682842
 10
7.7005858888
 20
4.8486093801
  0
LWPOLYLINE
  5
4B2
100
AcDbEntity
  8
0
100
AcDbPolyline
 62
7
  6
CONTINUOUS
 90
14
 70
0
 10
7.6983240802
 20
4.8522442675
 10
7.6969505455
 20
4.8922450613
 10
7.695567224
 20
4.9392229858
 10
7.6941889459
 20
4.99170207
 10
7.6928215154
 20
5.0482521689
 10
7.6914497653
 20
5.1082635614
 10
7.6900579675
 20
5.1712029169
 10
7.6886585907
 20
5.2351828012
 10
7.6872668181
 20
5.2981099354
 10
7.6858948395
 20
5.3581096027
 10
7.6845254545
 20
5.4147055119
 10
7.683154347
 20
5.466876392
 10
7.6817757753
 20
5.513676733
 10
7.6804035558
 20
5.5536359101
  0
LINE
  5
4B3
100
AcDbEntity
  8
0
100
AcDbLine
 62
7
  6
CONTINUOUS
 10
7.6352299597
 20
4.6517589864
 11
7.6352299597
 21
5.7541211911
  0
LINE
  5
4B4
100
AcDbEntity
  8
0
100
AcDbLine
 62
9
  6
CONTINUOUS
 10
7.6549149991
 20
5.5572707974
 11
7.6549149991
 21
4.8486093801
  0
LWPOLYLINE
  5
4B5
100
AcDbEntity
  8
0
100
AcDbPolyline
 62
9
  6
CONTINUOUS
 90
16
 70
0
 10
7.7026847499
 20
5.5572707974
 10
7.704124892
 20
5.5288641339
 10
7.705565034
 20
5.4928204868
 10
7.707005176
 20
5.4499844233
 10
7.7084453181
 20
5.401359669
 10
7.7098854601
 20
5.3480855889
 10
7.7113256021
 20
5.29141049
 10
7.7127657442
 20
5.2326623712
 10
7.7142058862
 20
5.1732178063
 10
7.7156460283
 20
5.1144696876
 10
7.7170861703
 20
5.0577945887
 10
7.7185263123
 20
5.0045205085
 10
7.7199664544
 20
4.9558957542
 10
7.7214065964
 20
4.9130596907
 10
7.7228467384
 20
4.8770160436
 10
7.7242868805
 20
4.8486093801
  0
LWPOLYLINE
  5
4B6
100
AcDbEntity
  8
0
100
AcDbPolyline
 62
9
  6
CONTINUOUS
 90
16
 70
0
 10
7.7060942988
 20
5.5572707974
 10
7.7075344408
 20
5.5288641339
 10
7.7089745828
 20
5.4928204868
 10
7.7104147249
 20
5.4499844233
 10
7.7118548669
 20
5.401359669
 10
7.7132950089
 20
5.3480855889
 10
7.714735151
 20
5.29141049
 10
7.716175293
 20
5.2326623712
 10
7.7176154351
 20
5.1732178063
 10
7.7190555771
 20
5.1144696876
 10
7.7204957191
 20
5.0577945887
 10
7.7219358612
 20
5.0045205085
 10
7.7233760032
 20
4.9558957542
 10
7.7248161452
 20
4.9130596907
 10
7.7262562873
 20
4.8770160436
 10
7.7276964293
 20
4.8486093801
  0
LWPOLYLINE
  5
4B7
100
AcDbEntity
  8
0
100
AcDbPolyline
 62
9
  6
CONTINUOUS
 90
16
 70
0
 10
7.761739868
 20
5.5572707974
 10
7.7631800101
 20
5.5288641339
 10
7.7646201521
 20
5.4928204868
 10
7.7660602941
 20
5.4499844233
 10
7.7675004362
 20
5.401359669
 10
7.7689405782
 20
5.3480855889
 10
7.7703807203
 20
5.29141049
 10
7.7718208623
 20
5.2326623712
 10
7.7732610043
 20
5.1732178063
 10
7.7747011464
 20
5.1144696876
 10
7.7761412884
 20
5.0577945887
 10
7.7775814304
 20
5.0045205085
 10
7.7790215725
 20
4.9558957542
 10
7.7804617145
 20
4.9130596907
 10
7.7819018566
 20
4.8770160436
 10
7.7833419986
 20
4.8486093801
  0
LWPOLYLINE
  5
4B8
100
AcDbEntity
  8
0
100
AcDbPolyline
 62
9
  6
CONTINUOUS
 90
16
 70
0
 10
7.7651494169
 20
5.5572707974
 10
7.7665895589
 20
5.5288641339
 10
7.7680297009
 20
5.4928204868
 10
7.769469843
 20
5.4499844233
 10
7.770909985
 20
5.401359669
 10
7.7723501271
 20
5.3480855889
 10
7.7737902691
 20
5.29141049
 10
7.7752304111
 20
5.2326623712
 10
7.7766705532
 20
5.1732178063
 10
7.7781106952
 20
5.1144696876
 10
7.7795508372
 20
5.0577945887
 10
7.7809909793
 20
5.0045205085
 10
7.7824311213
 20
4.9558957542
 10
7.7838712633
 20
4.9130596907
 10
7.7853114054
 20
4.8770160436
 10
7.7867515474
 20
4.8486093801
  0
LWPOLYLINE
  5
4B9
100
AcDbEntity
  8
0
100
AcDbPolyline
 62
7
  6
CONTINUOUS
 90
14
 70
0
 10
7.7319184638
 20
5.5572707974
 10
7.7333113644
 20
5.5173844152
 10
7.7347114812
 20
5.4703460521
 10
7.7361042572
 20
5.4176758381
 10
7.737495004
 20
5.3603853405
 10
7.7388880724
 20
5.2995503741
 10
7.7403012854
 20
5.235677841
 10
7.7417224192
 20
5.1707051035
 10
7.7431356542
 20
5.1068202147
 10
7.7445284587
 20
5.0459744651
 10
7.7459174136
 20
4.9887220674
 10
7.7473176857
 20
4.9357333073
 10
7.7487223511
 20
4.8885272091
 10
7.7501162587
 20
4.8486093801
  0
LWPOLYLINE
  5
4BA
100
AcDbEntity
  8
0
100
AcDbPolyline
 62
7
  6
CONTINUOUS
 90
14
 70
0
 10
7.7575178335
 20
4.8486093801
 10
7.7561241006
 20
4.888521755
 10
7.7547140093
 20
4.9359216589
 10
7.7533030984
 20
4.9893529355
 10
7.7519064865
 20
5.0469782117
 10
7.7505161344
 20
5.1077613836
 10
7.7491047128
 20
5.1715850467
 10
7.7476856211
 20
5.236464401
 10
7.7462746111
 20
5.3002207562
 10
7.7448832248
 20
5.3609538816
 10
7.7434895505
 20
5.4183210979
 10
7.7420998357
 20
5.4708196513
 10
7.7407089267
 20
5.517509674
 10
7.7393200386
 20
5.5572707974
  0
LWPOLYLINE
  5
4BB
100
AcDbEntity
  8
0
100
AcDbPolyline
 62
9
  6
CONTINUOUS
 90
6
 70
0
 10
7.6352299597
 20
4.8361941154
 10
7.6361934141
 20
4.8411538852
 10
7.6389894677
 20
4.8456281581
 10
7.6433444232
 20
4.8491789612
 10
7.6488319874
 20
4.8514587171
 10
7.6549149991
 20
4.8522442674
  0
LWPOLYLINE
  5
4BC
100
AcDbEntity
  8
0
100
AcDbPolyline
 62
9
  6
CONTINUOUS
 90
16
 70
0
 10
7.8207949861
 20
5.5572707974
 10
7.8222351282
 20
5.5288641339
 10
7.8236752702
 20
5.4928204868
 10
7.8251154123
 20
5.4499844233
 10
7.8265555543
 20
5.401359669
 10
7.8279956963
 20
5.3480855889
 10
7.8294358384
 20
5.29141049
 10
7.8308759804
 20
5.2326623712
 10
7.8323161224
 20
5.1732178063
 10
7.8337562645
 20
5.1144696876
 10
7.8351964065
 20
5.0577945887
 10
7.8366365486
 20
5.0045205085
 10
7.8380766906
 20
4.9558957542
 10
7.8395168326
 20
4.9130596907
 10
7.8409569747
 20
4.8770160436
 10
7.8423971167
 20
4.8486093801
  0
LWPOLYLINE
  5
4BD
100
AcDbEntity
  8
0
100
AcDbPolyline
 62
9
  6
CONTINUOUS
 90
16
 70
0
 10
7.824204535
 20
5.5572707974
 10
7.825644677
 20
5.5288641339
 10
7.8270848191
 20
5.4928204868
 10
7.8285249611
 20
5.4499844233
 10
7.8299651031
 20
5.401359669
 10
7.8314052452
 20
5.3480855889
 10
7.8328453872
 20
5.29141049
 10
7.8342855292
 20
5.2326623712
 10
7.8357256713
 20
5.1732178063
 10
7.8371658133
 20
5.1144696876
 10
7.8386059553
 20
5.0577945887
 10
7.8400460974
 20
5.0045205085
 10
7.8414862394
 20
4.9558957542
 10
7.8429263815
 20
4.9130596907
 10
7.8443665235
 20
4.8770160436
 10
7.8458066655
 20
4.8486093801
  0
LWPOLYLINE
  5
4BE
100
AcDbEntity
  8
0
100
AcDbPolyline
 62
7
  6
CONTINUOUS
 90
14
 70
0
 10
7.8756280698
 20
4.8486093801
 10
7.8743034953
 20
4.886370668
 10
7.872961381
 20
4.9310303407
 10
7.8716141629
 20
4.9814250954
 10
7.8702764014
 20
5.0359643344
 10
7.8689549398
 20
5.0931591241
 10
7.8676380017
 20
5.152314869
 10
7.8663122829
 20
5.212864614
 10
7.8649808401
 20
5.2734756483
 10
7.8636550181
 20
5.3324283236
 10
7.8623311643
 20
5.3887274459
 10
7.8609929237
 20
5.4418944859
 10
7.8596536633
 20
5.490260169
 10
7.8583270726
 20
5.532429677
  0
LWPOLYLINE
  5
4BF
100
AcDbEntity
  8
0
100
AcDbPolyline
 62
7
  6
CONTINUOUS
 90
14
 70
0
 10
7.7909735819
 20
5.5572707974
 10
7.79236247
 20
5.517509674
 10
7.793753379
 20
5.4708196513
 10
7.7951430938
 20
5.4183210979
 10
7.7965367681
 20
5.3609538816
 10
7.7979281545
 20
5.3002207562
 10
7.7993391645
 20
5.236464401
 10
7.8007582561
 20
5.1715850467
 10
7.8021696777
 20
5.1077613836
 10
7.8035600298
 20
5.0469782117
 10
7.8049566417
 20
4.9893529355
 10
7.8063675526
 20
4.9359216589
 10
7.8077776439
 20
4.888521755
 10
7.8091713768
 20
4.8486093801
  0
LWPOLYLINE
  5
4C0
100
AcDbEntity
  8
0
100
AcDbPolyline
 62
7
  6
CONTINUOUS
 90
14
 70
0
 10
7.8165729516
 20
4.8486093801
 10
7.8151795638
 20
4.8885109784
 10
7.8137664758
 20
4.9360167999
 10
7.8123493487
 20
4.989705273
 10
7.810943707
 20
5.047741793
 10
7.8095564058
 20
5.10842408
 10
7.8081533901
 20
5.1718790166
 10
7.8067404685
 20
5.2364767516
 10
7.8053333918
 20
5.3000574858
 10
7.8039433887
 20
5.3607390961
 10
7.8025462919
 20
5.4182567938
 10
7.801147983
 20
5.471069157
 10
7.7997607022
 20
5.5176139751
 10
7.7983751567
 20
5.5572707974
  0
LWPOLYLINE
  5
4C1
100
AcDbEntity
  8
0
100
AcDbPolyline
 62
7
  6
CONTINUOUS
 90
14
 70
0
 10
7.8500287
 20
5.5572707974
 10
7.8514142455
 20
5.5176139751
 10
7.8528015263
 20
5.471069157
 10
7.8541998352
 20
5.4182567938
 10
7.855596932
 20
5.3607390961
 10
7.8569869351
 20
5.3000574858
 10
7.8583940119
 20
5.2364767516
 10
7.8598069334
 20
5.1718790166
 10
7.8612099492
 20
5.10842408
 10
7.8625972503
 20
5.047741793
 10
7.864002892
 20
4.989705273
 10
7.8654200191
 20
4.9360167999
 10
7.8668331071
 20
4.8885109784
 10
7.8682264949
 20
4.8486093801
  0
LWPOLYLINE
  5
4C2
100
AcDbEntity
  8
0
100
AcDbPolyline
 62
7
  6
CONTINUOUS
 90
3
 70
0
 10
7.8583270726
 20
5.532429677
 10
7.8578797276
 20
5.5452104965
 10
7.8574302748
 20
5.5572707974
  0
LWPOLYLINE
  5
4C3
100
AcDbEntity
  8
0
100
AcDbPolyline
 62
9
  6
CONTINUOUS
 90
3
 70
0
 10
7.8798501043
 20
5.5572707974
 10
7.881149587
 20
5.5319873126
 10
7.8824490698
 20
5.5004239381
  0
LWPOLYLINE
  5
4C4
100
AcDbEntity
  8
0
100
AcDbPolyline
 62
9
  6
CONTINUOUS
 90
3
 70
0
 10
7.8832596531
 20
5.5572707974
 10
7.8845591359
 20
5.5319873126
 10
7.8858586186
 20
5.5004239381
  0
LWPOLYLINE
  5
4C5
100
AcDbEntity
  8
0
100
AcDbPolyline
 62
9
  6
CONTINUOUS
 90
7
 70
0
 10
7.9389052224
 20
5.5572707974
 10
7.9403453644
 20
5.5288641339
 10
7.9417855064
 20
5.4928204868
 10
7.9432256485
 20
5.4499844233
 10
7.9446657905
 20
5.401359669
 10
7.9461059326
 20
5.3480855889
 10
7.9475460746
 20
5.29141049
  0
LWPOLYLINE
  5
4C6
100
AcDbEntity
  8
0
100
AcDbPolyline
 62
7
  6
CONTINUOUS
 90
3
 70
0
 10
7.9090838181
 20
5.5572707974
 10
7.9095332709
 20
5.5452104965
 10
7.9099806159
 20
5.532429677
  0
LWPOLYLINE
  5
4C7
100
AcDbEntity
  8
0
100
AcDbPolyline
 62
7
  6
CONTINUOUS
 90
14
 70
0
 10
7.9346831879
 20
4.8486093801
 10
7.9332903796
 20
4.8884928805
 10
7.9318778845
 20
4.9359747294
 10
7.9304613537
 20
4.9896349807
 10
7.9290563079
 20
5.0476408728
 10
7.9276693587
 20
5.1083028024
 10
7.9262812103
 20
5.1710764852
 10
7.9248934805
 20
5.2345248463
 10
7.9234999912
 20
5.2975430437
 10
7.9221120535
 20
5.3582486693
 10
7.9207071537
 20
5.4162481151
 10
7.9192906351
 20
5.469907645
 10
7.9178780811
 20
5.517391046
 10
7.916485393
 20
5.5572707974
  0
LWPOLYLINE
  5
4C8
100
AcDbEntity
  8
0
100
AcDbPolyline
 62
9
  6
CONTINUOUS
 90
14
 70
0
 10
7.8824490698
 20
5.5004239381
 10
7.8839108517
 20
5.458167302
 10
7.8853726336
 20
5.4097495238
 10
7.8868344156
 20
5.3563394008
 10
7.8882961975
 20
5.2992262441
 10
7.8897579794
 20
5.2397887559
 10
7.8912197613
 20
5.1794617471
 10
7.8926815433
 20
5.1197015015
 10
7.8941433252
 20
5.0619506213
 10
7.8956051071
 20
5.0076032032
 10
7.897066889
 20
4.9579711846
 10
7.898528671
 20
4.9142526741
 10
7.8999904529
 20
4.8775030292
 10
7.9014522348
 20
4.8486093801
  0
LWPOLYLINE
  5
4C9
100
AcDbEntity
  8
0
100
AcDbPolyline
 62
9
  6
CONTINUOUS
 90
14
 70
0
 10
7.8858586186
 20
5.5004239381
 10
7.8873204006
 20
5.458167302
 10
7.8887821825
 20
5.4097495238
 10
7.8902439644
 20
5.3563394008
 10
7.8917057463
 20
5.2992262441
 10
7.8931675282
 20
5.2397887559
 10
7.8946293102
 20
5.1794617471
 10
7.8960910921
 20
5.1197015015
 10
7.897552874
 20
5.0619506213
 10
7.8990146559
 20
5.0076032032
 10
7.9004764379
 20
4.9579711846
 10
7.9019382198
 20
4.9142526741
 10
7.9034000017
 20
4.8775030292
 10
7.9048617836
 20
4.8486093801
  0
LWPOLYLINE
  5
4CA
100
AcDbEntity
  8
0
100
AcDbPolyline
 62
7
  6
CONTINUOUS
 90
14
 70
0
 10
7.9099806159
 20
5.532429677
 10
7.9113072067
 20
5.490260169
 10
7.912646467
 20
5.4418944859
 10
7.9139847076
 20
5.3887274459
 10
7.9153085614
 20
5.3324283236
 10
7.9166343835
 20
5.2734756483
 10
7.9179658263
 20
5.212864614
 10
7.919291545
 20
5.152314869
 10
7.9206084831
 20
5.0931591241
 10
7.9219299447
 20
5.0359643344
 10
7.9232677062
 20
4.9814250954
 10
7.9246149243
 20
4.9310303407
 10
7.9259570386
 20
4.886370668
 10
7.9272816131
 20
4.8486093801
  0
LWPOLYLINE
  5
4CB
100
AcDbEntity
  8
0
100
AcDbPolyline
 62
9
  6
CONTINUOUS
 90
8
 70
0
 10
7.9504263587
 20
5.1732178063
 10
7.9518665007
 20
5.1144696876
 10
7.9533066427
 20
5.0577945887
 10
7.9547467848
 20
5.0045205085
 10
7.9561869268
 20
4.9558957542
 10
7.9576270688
 20
4.9130596907
 10
7.9590672109
 20
4.8770160436
 10
7.9605073529
 20
4.8486093801
  0
LWPOLYLINE
  5
4CC
100
AcDbEntity
  8
0
100
AcDbPolyline
 62
9
  6
CONTINUOUS
 90
3
 70
0
 10
7.9475460746
 20
5.29141049
 10
7.9489862166
 20
5.2326623712
 10
7.9504263587
 20
5.1732178063
  0
LWPOLYLINE
  5
4CD
100
AcDbEntity
  8
0
100
AcDbPolyline
 62
9
  6
CONTINUOUS
 90
10
 70
0
 10
7.9509556234
 20
5.29141049
 10
7.9523957655
 20
5.2326623712
 10
7.9538359075
 20
5.1732178063
 10
7.9552760495
 20
5.1144696876
 10
7.9567161916
 20
5.0577945887
 10
7.9581563336
 20
5.0045205085
 10
7.9595964756
 20
4.9558957542
 10
7.9610366177
 20
4.9130596907
 10
7.9624767597
 20
4.8770160436
 10
7.9639169018
 20
4.8486093801
  0
LINE
  5
4CE
100
AcDbEntity
  8
0
100
AcDbLine
 62
7
  6
CONTINUOUS
 10
8.8151512195
 20
5.4066802462
 11
8.7757811408
 21
5.4066802462
  0
LINE
  5
4CF
100
AcDbEntity
  8
0
100
AcDbLine
 62
7
  6
CONTINUOUS
 10
8.4257811408
 20
5.4389400888
 11
8.4522811279
 21
5.4389400888
  0
LINE
  5
4D0
100
AcDbEntity
  8
0
100
AcDbLine
 62
7
  6
CONTINUOUS
 10
8.4842811288
 20
5.4389400888
 11
8.4912811399
 21
5.4389400888
  0
LINE
  5
4D1
100
AcDbEntity
  8
0
100
AcDbLine
 62
7
  6
CONTINUOUS
 10
8.5232811409
 20
5.4389400888
 11
8.5302811536
 21
5.4389400888
  0
LINE
  5
4D2
100
AcDbEntity
  8
0
100
AcDbLine
 62
7
  6
CONTINUOUS
 10
8.5622811538
 20
5.4389400888
 11
8.5692811278
 21
5.4389400888
  0
LINE
  5
4D3
100
AcDbEntity
  8
0
100
AcDbLine
 62
7
  6
CONTINUOUS
 10
8.6012811288
 20
5.4389400888
 11
8.6082811401
 21
5.4389400888
  0
LINE
  5
4D4
100
AcDbEntity
  8
0
100
AcDbLine
 62
7
  6
CONTINUOUS
 10
8.6402811411
 20
5.4389400888
 11
8.6472811535
 21
5.4389400888
  0
LINE
  5
4D5
100
AcDbEntity
  8
0
100
AcDbLine
 62
7
  6
CONTINUOUS
 10
8.6792811537
 20
5.4389400888
 11
8.6862811277
 21
5.4389400888
  0
LINE
  5
4D6
100
AcDbEntity
  8
0
100
AcDbLine
 62
7
  6
CONTINUOUS
 10
8.7182811287
 20
5.4389400888
 11
8.7252811403
 21
5.4389400888
  0
LINE
  5
4D7
100
AcDbEntity
  8
0
100
AcDbLine
 62
7
  6
CONTINUOUS
 10
8.7572811413
 20
5.4389400888
 11
8.7642811534
 21
5.4389400888
  0
LWPOLYLINE
  5
4D8
100
AcDbEntity
  8
0
100
AcDbPolyline
 62
9
  6
CONTINUOUS
 90
7
 70
0
 10
7.9423147712
 20
5.5572707974
 10
7.9437549132
 20
5.5288641339
 10
7.9451950553
 20
5.4928204868
 10
7.9466351973
 20
5.4499844233
 10
7.9480753393
 20
5.401359669
 10
7.9495154814
 20
5.3480855889
 10
7.9509556234
 20
5.29141049
  0
LWPOLYLINE
  5
4D9
100
AcDbEntity
  8
0
100
AcDbPolyline
 62
9
  6
CONTINUOUS
 90
16
 70
0
 10
7.9979603405
 20
5.5572707974
 10
7.9994004825
 20
5.5288641339
 10
8.0008406246
 20
5.4928204868
 10
8.0022807666
 20
5.4499844233
 10
8.0037209086
 20
5.401359669
 10
8.0051610507
 20
5.3480855889
 10
8.0066011927
 20
5.29141049
 10
8.0080413347
 20
5.2326623712
 10
8.0094814768
 20
5.1732178063
 10
8.0109216188
 20
5.1144696876
 10
8.0123617608
 20
5.0577945887
 10
8.0138019029
 20
5.0045205085
 10
8.0152420449
 20
4.9558957542
 10
8.016682187
 20
4.9130596907
 10
8.018122329
 20
4.8770160436
 10
8.019562471
 20
4.8486093801
  0
LWPOLYLINE
  5
4DA
100
AcDbEntity
  8
0
100
AcDbPolyline
 62
9
  6
CONTINUOUS
 90
16
 70
0
 10
8.0013698893
 20
5.5572707974
 10
8.0028100313
 20
5.5288641339
 10
8.0042501734
 20
5.4928204868
 10
8.0056903154
 20
5.4499844233
 10
8.0071304575
 20
5.401359669
 10
8.0085705995
 20
5.3480855889
 10
8.0100107415
 20
5.29141049
 10
8.0114508836
 20
5.2326623712
 10
8.0128910256
 20
5.1732178063
 10
8.0143311676
 20
5.1144696876
 10
8.0157713097
 20
5.0577945887
 10
8.0172114517
 20
5.0045205085
 10
8.0186515938
 20
4.9558957542
 10
8.0200917358
 20
4.9130596907
 10
8.0215318778
 20
4.8770160436
 10
8.0229720199
 20
4.8486093801
  0
LWPOLYLINE
  5
4DB
100
AcDbEntity
  8
0
100
AcDbPolyline
 62
7
  6
CONTINUOUS
 90
9
 70
0
 10
8.0527934241
 20
4.8486093801
 10
8.0514630751
 20
4.8865496212
 10
8.0501215083
 20
4.9312157224
 10
8.0487695025
 20
4.9818180648
 10
8.0474214649
 20
5.0368204581
 10
8.0460865629
 20
5.0946523278
 10
8.0447420484
 20
5.1551020191
 10
8.0433932172
 20
5.2167264104
 10
8.0420541067
 20
5.2776293148
  0
LWPOLYLINE
  5
4DC
100
AcDbEntity
  8
0
100
AcDbPolyline
 62
7
  6
CONTINUOUS
 90
14
 70
0
 10
7.9681389363
 20
5.5572707974
 10
7.9695316244
 20
5.517391046
 10
7.9709441784
 20
5.469907645
 10
7.972360697
 20
5.4162481151
 10
7.9737655968
 20
5.3582486693
 10
7.9751535345
 20
5.2975430437
 10
7.9765470238
 20
5.2345248463
 10
7.9779347536
 20
5.1710764852
 10
7.979322902
 20
5.1083028024
 10
7.9807098512
 20
5.0476408728
 10
7.982114897
 20
4.9896349807
 10
7.9835314278
 20
4.9359747294
 10
7.9849439229
 20
4.8884928805
 10
7.9863367312
 20
4.8486093801
  0
LWPOLYLINE
  5
4DD
100
AcDbEntity
  8
0
100
AcDbPolyline
 62
7
  6
CONTINUOUS
 90
14
 70
0
 10
7.993738306
 20
4.8486093801
 10
7.9923457431
 20
4.8884852188
 10
7.9909333123
 20
4.9359636161
 10
7.9895168516
 20
4.9896198875
 10
7.9881119779
 20
5.047617319
 10
7.9867239549
 20
5.108326101
 10
7.9853298242
 20
5.1713733256
 10
7.98394126
 20
5.2348597598
 10
7.9825538536
 20
5.297599098
 10
7.9811671411
 20
5.3582499716
 10
7.9797622217
 20
5.4162501041
 10
7.9783457831
 20
5.4699065735
 10
7.9769333179
 20
5.5173873406
 10
7.9755405111
 20
5.5572707974
  0
LWPOLYLINE
  5
4DE
100
AcDbEntity
  8
0
100
AcDbPolyline
 62
7
  6
CONTINUOUS
 90
14
 70
0
 10
8.0271940544
 20
5.5572707974
 10
8.0285868612
 20
5.5173873406
 10
8.0299993264
 20
5.4699065735
 10
8.031415765
 20
5.4162501041
 10
8.0328206844
 20
5.3582499716
 10
8.0342073969
 20
5.297599098
 10
8.0355948033
 20
5.2348597598
 10
8.0369833675
 20
5.1713733256
 10
8.0383774982
 20
5.108326101
 10
8.0397655213
 20
5.047617319
 10
8.0411703949
 20
4.9896198875
 10
8.0425868556
 20
4.9359636161
 10
8.0439992864
 20
4.8884852188
 10
8.0453918493
 20
4.8486093801
  0
LINE
  5
4DF
100
AcDbEntity
  8
0
100
AcDbLine
 62
7
  6
CONTINUOUS
 10
8.4840389732
 20
5.4387605134
 11
8.4842811211
 21
5.4389400888
  0
LINE
  5
4E0
100
AcDbEntity
  8
0
100
AcDbLine
 62
7
  6
CONTINUOUS
 10
8.5230389849
 20
5.4387605131
 11
8.523281141
 21
5.4389400888
  0
LINE
  5
4E1
100
AcDbEntity
  8
0
100
AcDbLine
 62
7
  6
CONTINUOUS
 10
8.5620389981
 20
5.4387605134
 11
8.5622811558
 21
5.4389400888
  0
LINE
  5
4E2
100
AcDbEntity
  8
0
100
AcDbLine
 62
7
  6
CONTINUOUS
 10
8.2507811408
 20
5.491860493
 11
8.2601561408
 21
5.491860493
  0
LINE
  5
4E3
100
AcDbEntity
  8
0
100
AcDbLine
 62
7
  6
CONTINUOUS
 10
8.2914061408
 20
5.491860493
 11
8.3007811408
 21
5.491860493
  0
LINE
  5
4E4
100
AcDbEntity
  8
0
100
AcDbLine
 62
7
  6
CONTINUOUS
 10
8.2257811408
 20
5.4929400888
 11
8.2507811408
 21
5.4929400888
  0
LINE
  5
4E5
100
AcDbEntity
  8
0
100
AcDbLine
 62
7
  6
CONTINUOUS
 10
8.2688980803
 20
5.4929400888
 11
8.2826642013
 21
5.4929400888
  0
LINE
  5
4E6
100
AcDbEntity
  8
0
100
AcDbLine
 62
7
  6
CONTINUOUS
 10
8.3007811408
 20
5.4929400888
 11
8.3257811408
 21
5.4929400888
  0
LINE
  5
4E7
100
AcDbEntity
  8
0
100
AcDbLine
 62
7
  6
CONTINUOUS
 10
8.3007811408
 20
5.5009400888
 11
8.2507811408
 21
5.5009400888
  0
LWPOLYLINE
  5
4E8
100
AcDbEntity
  8
0
100
AcDbPolyline
 62
9
  6
CONTINUOUS
 90
6
 70
0
 10
7.6549149991
 20
5.5536359101
 10
7.6488319874
 20
5.5544214604
 10
7.6433444232
 20
5.5567012163
 10
7.6389894677
 20
5.5602520194
 10
7.6361934141
 20
5.5647262923
 10
7.6352299597
 20
5.5696860621
  0
LINE
  5
4E9
100
AcDbEntity
  8
0
100
AcDbLine
 62
7
  6
CONTINUOUS
 10
8.5815389864
 20
4.9671196638
 11
8.5817815809
 21
4.9669400893
  0
LINE
  5
4EA
100
AcDbEntity
  8
0
100
AcDbLine
 62
7
  6
CONTINUOUS
 10
8.5035389751
 20
4.9671196643
 11
8.5037811047
 21
4.9669400888
  0
LINE
  5
4EB
100
AcDbEntity
  8
0
100
AcDbLine
 62
7
  6
CONTINUOUS
 10
8.5425389951
 20
4.9671196643
 11
8.5427811511
 21
4.9669400888
  0
LWPOLYLINE
  5
4EC
100
AcDbEntity
  8
0
100
AcDbPolyline
 62
9
  6
CONTINUOUS
 90
8
 70
0
 10
8.0570154586
 20
5.5572707974
 10
8.0583241222
 20
5.5317857028
 10
8.0596327858
 20
5.4999357164
 10
8.0609414494
 20
5.4623373029
 10
8.0622501131
 20
5.4197181892
 10
8.0635587767
 20
5.3729032795
 10
8.0648674403
 20
5.3227986882
 10
8.0661761039
 20
5.2703742028
  0
LWPOLYLINE
  5
4ED
100
AcDbEntity
  8
0
100
AcDbPolyline
 62
9
  6
CONTINUOUS
 90
8
 70
0
 10
8.0604250074
 20
5.5572707974
 10
8.061733671
 20
5.5317857028
 10
8.0630423347
 20
5.4999357164
 10
8.0643509983
 20
5.4623373029
 10
8.0656596619
 20
5.4197181892
 10
8.0669683255
 20
5.3729032795
 10
8.0682769891
 20
5.3227986882
 10
8.0695856528
 20
5.2703742028
  0
LWPOLYLINE
  5
4EE
100
AcDbEntity
  8
0
100
AcDbPolyline
 62
7
  6
CONTINUOUS
 90
7
 70
0
 10
8.0862491725
 20
5.5572707974
 10
8.0874853359
 20
5.5222344483
 10
8.0887354912
 20
5.4811949368
 10
8.0899920615
 20
5.4349927231
 10
8.0912428111
 20
5.3848904066
 10
8.092480281
 20
5.3321505158
 10
8.09370765
 20
5.2776293148
  0
LWPOLYLINE
  5
4EF
100
AcDbEntity
  8
0
100
AcDbPolyline
 62
7
  6
CONTINUOUS
 90
14
 70
0
 10
8.1118485422
 20
4.8486093801
 10
8.1104629863
 20
4.8882665262
 10
8.109076483
 20
4.9347835748
 10
8.1076796302
 20
4.9875353165
 10
8.1062832922
 20
5.0450141441
 10
8.1048934904
 20
5.1056807843
 10
8.1034860082
 20
5.1692766925
 10
8.1020719649
 20
5.233925571
 10
8.1006671034
 20
5.2974645645
 10
8.0992791457
 20
5.3581745008
 10
8.0978737572
 20
5.4161984712
 10
8.0964568697
 20
5.4698760618
 10
8.0950439605
 20
5.5173746537
 10
8.0936507473
 20
5.5572707974
  0
LWPOLYLINE
  5
4F0
100
AcDbEntity
  8
0
100
AcDbPolyline
 62
9
  6
CONTINUOUS
 90
10
 70
0
 10
8.0661761039
 20
5.2703742028
 10
8.0675584912
 20
5.2135999596
 10
8.0689408784
 20
5.1565955336
 10
8.0703232657
 20
5.1005918442
 10
8.0717056529
 20
5.0467982014
 10
8.0730880402
 20
4.9963761929
 10
8.0744704274
 20
4.9504146015
 10
8.0758528146
 20
4.9099058941
 10
8.0772352019
 20
4.8757247916
 10
8.0786175891
 20
4.8486093801
  0
LWPOLYLINE
  5
4F1
100
AcDbEntity
  8
0
100
AcDbPolyline
 62
9
  6
CONTINUOUS
 90
10
 70
0
 10
8.0695856528
 20
5.2703742028
 10
8.07096804
 20
5.2135999596
 10
8.0723504272
 20
5.1565955336
 10
8.0737328145
 20
5.1005918442
 10
8.0751152017
 20
5.0467982014
 10
8.076497589
 20
4.9963761929
 10
8.0778799762
 20
4.9504146015
 10
8.0792623635
 20
4.9099058941
 10
8.0806447507
 20
4.8757247916
 10
8.082027138
 20
4.8486093801
  0
LWPOLYLINE
  5
4F2
100
AcDbEntity
  8
0
100
AcDbPolyline
 62
7
  6
CONTINUOUS
 90
7
 70
0
 10
8.0420541067
 20
5.2776293148
 10
8.0408267377
 20
5.3321505158
 10
8.0395892678
 20
5.3848904066
 10
8.0383385182
 20
5.4349927231
 10
8.0370819479
 20
5.4811949368
 10
8.0358317926
 20
5.5222344483
 10
8.0345956292
 20
5.5572707974
  0
LWPOLYLINE
  5
4F3
100
AcDbEntity
  8
0
100
AcDbPolyline
 62
7
  6
CONTINUOUS
 90
9
 70
0
 10
8.09370765
 20
5.2776293148
 10
8.0950467605
 20
5.2167264104
 10
8.0963955917
 20
5.1551020191
 10
8.0977401062
 20
5.0946523278
 10
8.0990750082
 20
5.0368204581
 10
8.1004230459
 20
4.9818180648
 10
8.1017750516
 20
4.9312157224
 10
8.1031166184
 20
4.8865496212
 10
8.1044469674
 20
4.8486093801
  0
LINE
  5
4F4
100
AcDbEntity
  8
0
100
AcDbLine
 62
7
  6
CONTINUOUS
 10
8.6010389731
 20
5.4387605134
 11
8.6012810863
 21
5.4389400888
  0
LINE
  5
4F5
100
AcDbEntity
  8
0
100
AcDbLine
 62
7
  6
CONTINUOUS
 10
8.6400389851
 20
5.4387605131
 11
8.6402811412
 21
5.4389400888
  0
LINE
  5
4F6
100
AcDbEntity
  8
0
100
AcDbLine
 62
7
  6
CONTINUOUS
 10
8.6790389981
 20
5.4387605134
 11
8.6792811674
 21
5.4389400888
  0
LINE
  5
4F7
100
AcDbEntity
  8
0
100
AcDbLine
 62
7
  6
CONTINUOUS
 10
8.7180389731
 20
5.4387605134
 11
8.7182810821
 21
5.4389400888
  0
LINE
  5
4F8
100
AcDbEntity
  8
0
100
AcDbLine
 62
9
  6
CONTINUOUS
 10
7.6804035558
 20
5.5536359101
 11
7.6549149991
 21
5.5536359101
  0
LINE
  5
4F9
100
AcDbEntity
  8
0
100
AcDbLine
 62
9
  6
CONTINUOUS
 10
8.2060961014
 20
5.5561771841
 11
8.1864110621
 21
5.5561771841
  0
LINE
  5
4FA
100
AcDbEntity
  8
0
100
AcDbLine
 62
7
  6
CONTINUOUS
 10
7.6549149991
 20
5.5572707974
 11
8.2060961014
 21
5.5572707974
  0
LINE
  5
4FB
100
AcDbEntity
  8
0
100
AcDbLine
 62
7
  6
CONTINUOUS
 10
8.698538986
 20
4.9671196638
 11
8.6987814401
 21
4.966940089
  0
LINE
  5
4FC
100
AcDbEntity
  8
0
100
AcDbLine
 62
7
  6
CONTINUOUS
 10
8.6205389752
 20
4.9671196643
 11
8.6207811215
 21
4.9669400888
  0
LINE
  5
4FD
100
AcDbEntity
  8
0
100
AcDbLine
 62
7
  6
CONTINUOUS
 10
8.6595389953
 20
4.9671196643
 11
8.6597811513
 21
4.9669400888
  0
LINE
  5
4FE
100
AcDbEntity
  8
0
100
AcDbLine
 62
7
  6
CONTINUOUS
 10
8.7375389754
 20
4.9671196643
 11
8.7377811307
 21
4.9669400888
  0
LWPOLYLINE
  5
4FF
100
AcDbEntity
  8
0
100
AcDbPolyline
 62
7
  6
CONTINUOUS
 90
12
 70
0
 10
8.5497815809
 20
4.9669400893
 10
8.5495065891
 20
4.9671709194
 10
8.5485611175
 20
4.9714842281
 10
8.5476215489
 20
4.9810808141
 10
8.5466753957
 20
4.9958712258
 10
8.5457222912
 20
5.0156243536
 10
8.5447733412
 20
5.0396712998
 10
8.543836193
 20
5.0671596711
 10
8.5428901692
 20
5.0980395232
 10
8.5419332719
 20
5.1317454785
 10
8.5409764807
 20
5.1671361258
 10
8.5390634217
 20
5.2395855415
  0
LWPOLYLINE
  5
500
100
AcDbEntity
  8
0
100
AcDbPolyline
 62
9
  6
CONTINUOUS
 90
7
 70
0
 10
8.1785352436
 20
5.5572707974
 10
8.17984788
 20
5.5316983639
 10
8.1811605164
 20
5.4997240991
 10
8.1824731529
 20
5.4619706301
 10
8.1837857893
 20
5.4191731213
 10
8.1850984257
 20
5.3721649583
 10
8.1864110621
 20
5.3218615198
  0
LWPOLYLINE
  5
501
100
AcDbEntity
  8
0
100
AcDbPolyline
 62
9
  6
CONTINUOUS
 90
9
 70
0
 10
8.1751256948
 20
5.5572707974
 10
8.1765363657
 20
5.5295245751
 10
8.1779470366
 20
5.4944353075
 10
8.1793577075
 20
5.4527919547
 10
8.1807683784
 20
5.405530841
 10
8.1821790493
 20
5.3537146026
 10
8.1835897202
 20
5.2985082948
 10
8.1850003912
 20
5.2411531965
 10
8.1864110621
 20
5.1829389006
  0
LWPOLYLINE
  5
502
100
AcDbEntity
  8
0
100
AcDbPolyline
 62
9
  6
CONTINUOUS
 90
16
 70
0
 10
8.1160705767
 20
5.5572707974
 10
8.1175107187
 20
5.5288641339
 10
8.1189508608
 20
5.4928204868
 10
8.1203910028
 20
5.4499844233
 10
8.1218311448
 20
5.401359669
 10
8.1232712869
 20
5.3480855889
 10
8.1247114289
 20
5.29141049
 10
8.126151571
 20
5.2326623712
 10
8.127591713
 20
5.1732178063
 10
8.129031855
 20
5.1144696876
 10
8.1304719971
 20
5.0577945887
 10
8.1319121391
 20
5.0045205085
 10
8.1333522811
 20
4.9558957542
 10
8.1347924232
 20
4.9130596907
 10
8.1362325652
 20
4.8770160436
 10
8.1376727072
 20
4.8486093801
  0
LWPOLYLINE
  5
503
100
AcDbEntity
  8
0
100
AcDbPolyline
 62
9
  6
CONTINUOUS
 90
16
 70
0
 10
8.1194801255
 20
5.5572707974
 10
8.1209202676
 20
5.5288641339
 10
8.1223604096
 20
5.4928204868
 10
8.1238005516
 20
5.4499844233
 10
8.1252406937
 20
5.401359669
 10
8.1266808357
 20
5.3480855889
 10
8.1281209778
 20
5.29141049
 10
8.1295611198
 20
5.2326623712
 10
8.1310012618
 20
5.1732178063
 10
8.1324414039
 20
5.1144696876
 10
8.1338815459
 20
5.0577945887
 10
8.1353216879
 20
5.0045205085
 10
8.13676183
 20
4.9558957542
 10
8.138201972
 20
4.9130596907
 10
8.139642114
 20
4.8770160436
 10
8.1410822561
 20
4.8486093801
  0
LWPOLYLINE
  5
504
100
AcDbEntity
  8
0
100
AcDbPolyline
 62
7
  6
CONTINUOUS
 90
14
 70
0
 10
8.1635020855
 20
4.8486093801
 10
8.1621022712
 20
4.8887117226
 10
8.1607024547
 20
4.9357712415
 10
8.1593026257
 20
4.9887464574
 10
8.1579027957
 20
5.0464641187
 10
8.1565029643
 20
5.1076463385
 10
8.1551031186
 20
5.1709390914
 10
8.1537032658
 20
5.2349407059
 10
8.1523034305
 20
5.298233005
 10
8.1509036113
 20
5.3594147413
 10
8.1495037748
 20
5.4171327512
 10
8.1481039248
 20
5.4701088134
 10
8.1467040891
 20
5.517168949
 10
8.1453042906
 20
5.5572707974
  0
LWPOLYLINE
  5
505
100
AcDbEntity
  8
0
100
AcDbPolyline
 62
7
  6
CONTINUOUS
 90
14
 70
0
 10
8.1527058654
 20
5.5572707974
 10
8.1541056632
 20
5.517168969
 10
8.1555054927
 20
5.4701090625
 10
8.15690533
 20
5.4171335276
 10
8.1583051503
 20
5.359416264
 10
8.1597049687
 20
5.2982346364
 10
8.1611048134
 20
5.2349419469
 10
8.1625046749
 20
5.1709399353
 10
8.1639045271
 20
5.107646877
 10
8.1653043608
 20
5.0464645332
 10
8.1667041867
 20
4.9887470069
 10
8.1681040125
 20
4.9357718519
 10
8.1695038356
 20
4.8887120492
 10
8.1709036603
 20
4.8486093801
  0
LINE
  5
506
100
AcDbEntity
  8
0
100
AcDbLine
 62
7
  6
CONTINUOUS
 10
8.1864110621
 20
4.8486093801
 11
8.1864110621
 21
5.5572707974
  0
LINE
  5
507
100
AcDbEntity
  8
0
100
AcDbLine
 62
9
  6
CONTINUOUS
 10
8.2060961014
 20
4.8486093801
 11
8.2060961014
 21
5.5572707974
  0
LINE
  5
508
100
AcDbEntity
  8
0
100
AcDbLine
 62
7
  6
CONTINUOUS
 10
8.7572811413
 20
5.4389400888
 11
8.7570389853
 21
5.4387605131
  0
LINE
  5
509
100
AcDbEntity
  8
0
100
AcDbLine
 62
7
  6
CONTINUOUS
 10
8.2257811408
 20
5.537585758
 11
8.2257811408
 21
4.8682944195
  0
LINE
  5
50A
100
AcDbEntity
  8
0
100
AcDbLine
 62
7
  6
CONTINUOUS
 10
8.2507811408
 20
5.5009400888
 11
8.2507811408
 21
5.491860493
  0
LINE
  5
50B
100
AcDbEntity
  8
0
100
AcDbLine
 62
7
  6
CONTINUOUS
 10
8.2507811408
 20
4.9140196845
 11
8.2507811408
 21
4.9049400888
  0
LINE
  5
50C
100
AcDbEntity
  8
0
100
AcDbLine
 62
7
  6
CONTINUOUS
 10
8.2601561408
 20
5.5009400888
 11
8.2601561408
 21
5.491860493
  0
LINE
  5
50D
100
AcDbEntity
  8
0
100
AcDbLine
 62
7
  6
CONTINUOUS
 10
8.2601561408
 20
4.9140196845
 11
8.2601561408
 21
4.9049400888
  0
LINE
  5
50E
100
AcDbEntity
  8
0
100
AcDbLine
 62
7
  6
CONTINUOUS
 10
8.2757811408
 20
5.5009400888
 11
8.2757811408
 21
5.4929400888
  0
LINE
  5
50F
100
AcDbEntity
  8
0
100
AcDbLine
 62
7
  6
CONTINUOUS
 10
8.2757811408
 20
4.9129400888
 11
8.2757811408
 21
4.9049400888
  0
LINE
  5
510
100
AcDbEntity
  8
0
100
AcDbLine
 62
7
  6
CONTINUOUS
 10
8.2914061408
 20
5.5009400888
 11
8.2914061408
 21
5.491860493
  0
LINE
  5
511
100
AcDbEntity
  8
0
100
AcDbLine
 62
7
  6
CONTINUOUS
 10
8.2914061408
 20
4.9140196845
 11
8.2914061408
 21
4.9049400888
  0
LINE
  5
512
100
AcDbEntity
  8
0
100
AcDbLine
 62
7
  6
CONTINUOUS
 10
8.4840389732
 20
5.4387605134
 11
8.4657791832
 21
5.4116847837
  0
LINE
  5
513
100
AcDbEntity
  8
0
100
AcDbLine
 62
7
  6
CONTINUOUS
 10
8.5230389849
 20
5.4387605131
 11
8.5047791953
 21
5.411684784
  0
LINE
  5
514
100
AcDbEntity
  8
0
100
AcDbLine
 62
7
  6
CONTINUOUS
 10
8.5620389981
 20
5.4387605134
 11
8.5437792086
 21
5.4116847843
  0
LINE
  5
515
100
AcDbEntity
  8
0
100
AcDbLine
 62
7
  6
CONTINUOUS
 10
8.3257811408
 20
4.9129400888
 11
8.4257811408
 21
4.9669400888
  0
LINE
  5
516
100
AcDbEntity
  8
0
100
AcDbLine
 62
7
  6
CONTINUOUS
 10
7.595859881
 20
5.7934912699
 11
7.1627890148
 21
5.7934912699
  0
LINE
  5
517
100
AcDbEntity
  8
AXIS
100
AcDbLine
 62
7
  6
CONTINUOUS
 10
7.1627890148
 20
5.7934912699
 11
7.595859881
 21
5.7934912699
  0
LINE
  5
518
100
AcDbEntity
  8
0
100
AcDbLine
 62
7
  6
CONTINUOUS
 10
8.3257811408
 20
5.4929400888
 11
8.4257811408
 21
5.4389400888
  0
LINE
  5
519
100
AcDbEntity
  8
0
100
AcDbLine
 62
7
  6
CONTINUOUS
 10
8.4849531727
 20
4.9946787696
 11
8.5035389751
 21
4.9671196643
  0
LINE
  5
51A
100
AcDbEntity
  8
0
100
AcDbLine
 62
7
  6
CONTINUOUS
 10
8.523953193
 20
4.9946787692
 11
8.5425389951
 21
4.9671196643
  0
LWPOLYLINE
  5
51B
100
AcDbEntity
  8
0
100
AcDbPolyline
 62
9
  6
CONTINUOUS
 90
6
 70
0
 10
8.2257811408
 20
5.537585758
 10
8.2248176864
 20
5.5433308247
 10
8.2220216328
 20
5.5485135241
 10
8.2176666773
 20
5.5526265377
 10
8.2121791131
 20
5.555267255
 10
8.2060961014
 20
5.5561771841
  0
LINE
  5
51C
100
AcDbEntity
  8
0
100
AcDbLine
 62
7
  6
CONTINUOUS
 10
8.3007811408
 20
5.5009400888
 11
8.3007811408
 21
5.491860493
  0
LINE
  5
51D
100
AcDbEntity
  8
0
100
AcDbLine
 62
7
  6
CONTINUOUS
 10
8.3007811408
 20
4.9140196845
 11
8.3007811408
 21
4.9049400888
  0
LINE
  5
51E
100
AcDbEntity
  8
0
100
AcDbLine
 62
7
  6
CONTINUOUS
 10
8.3257811408
 20
4.9129400888
 11
8.3257811408
 21
5.4929400888
  0
LINE
  5
51F
100
AcDbEntity
  8
0
100
AcDbLine
 62
7
  6
CONTINUOUS
 10
8.6010389731
 20
5.4387605134
 11
8.5827791831
 21
5.4116847837
  0
LINE
  5
520
100
AcDbEntity
  8
0
100
AcDbLine
 62
7
  6
CONTINUOUS
 10
8.6400389851
 20
5.4387605131
 11
8.6217791955
 21
5.411684784
  0
LINE
  5
521
100
AcDbEntity
  8
0
100
AcDbLine
 62
7
  6
CONTINUOUS
 10
8.6790389981
 20
5.4387605134
 11
8.6607792085
 21
5.4116847843
  0
LINE
  5
522
100
AcDbEntity
  8
0
100
AcDbLine
 62
7
  6
CONTINUOUS
 10
8.5629531848
 20
4.9946787681
 11
8.5815389864
 21
4.9671196638
  0
LINE
  5
523
100
AcDbEntity
  8
0
100
AcDbLine
 62
7
  6
CONTINUOUS
 10
8.6019531728
 20
4.9946787696
 11
8.6205389752
 21
4.9671196643
  0
LINE
  5
524
100
AcDbEntity
  8
0
100
AcDbLine
 62
7
  6
CONTINUOUS
 10
8.6409531932
 20
4.9946787692
 11
8.6595389953
 21
4.9671196643
  0
LWPOLYLINE
  5
525
100
AcDbEntity
  8
0
100
AcDbPolyline
 62
7
  6
CONTINUOUS
 90
10
 70
0
 10
8.4717811034
 20
4.9669400888
 10
8.4707953587
 20
4.9699100536
 10
8.4698301082
 20
4.9785027484
 10
8.4688556922
 20
4.9926700852
 10
8.4678690984
 20
5.0122812892
 10
8.4668824024
 20
5.0367019774
 10
8.4659080124
 20
5.0649347624
 10
8.4649409732
 20
5.0963120438
 10
8.4639741468
 20
5.1302645534
 10
8.463001198
 20
5.1662066831
  0
LWPOLYLINE
  5
526
100
AcDbEntity
  8
0
100
AcDbPolyline
 62
7
  6
CONTINUOUS
 90
11
 70
0
 10
8.463001198
 20
5.1662066831
 10
8.4610584798
 20
5.2397702735
 10
8.4600748682
 20
5.2760943899
 10
8.4590926076
 20
5.3105395971
 10
8.4581230704
 20
5.3419051153
 10
8.4571501397
 20
5.3699781845
 10
8.4561652453
 20
5.3942224092
 10
8.4551807462
 20
5.4136539818
 10
8.454208651
 20
5.4276520357
 10
8.4532416499
 20
5.4361200144
 10
8.4526151167
 20
5.4385985251
  0
LINE
  5
527
100
AcDbEntity
  8
0
100
AcDbLine
 62
7
  6
CONTINUOUS
 10
8.4257811408
 20
4.9669400888
 11
8.4257811408
 21
5.4389400888
  0
LINE
  5
528
100
AcDbEntity
  8
0
100
AcDbLine
 62
7
  6
CONTINUOUS
 10
8.7180389731
 20
5.4387605134
 11
8.699779183
 21
5.4116847837
  0
LINE
  5
529
100
AcDbEntity
  8
0
100
AcDbLine
 62
7
  6
CONTINUOUS
 10
8.7570389853
 20
5.4387605131
 11
8.7387791957
 21
5.411684784
  0
LINE
  5
52A
100
AcDbEntity
  8
0
100
AcDbLine
 62
7
  6
CONTINUOUS
 10
8.4721151189
 20
4.9672816529
 11
8.4717811034
 21
4.9669400888
  0
LINE
  5
52B
100
AcDbEntity
  8
0
100
AcDbLine
 62
7
  6
CONTINUOUS
 10
8.5111151396
 20
4.9672816529
 11
8.5107811504
 21
4.9669400888
  0
LINE
  5
52C
100
AcDbEntity
  8
0
100
AcDbLine
 62
7
  6
CONTINUOUS
 10
8.4526151167
 20
5.4385985251
 11
8.4522811201
 21
5.4389400888
  0
LINE
  5
52D
100
AcDbEntity
  8
0
100
AcDbLine
 62
7
  6
CONTINUOUS
 10
8.4916151292
 20
5.4385985245
 11
8.4912811399
 21
5.4389400888
  0
LINE
  5
52E
100
AcDbEntity
  8
0
100
AcDbLine
 62
7
  6
CONTINUOUS
 10
8.5306151424
 20
5.438598525
 11
8.5302811556
 21
5.4389400888
  0
LINE
  5
52F
100
AcDbEntity
  8
0
100
AcDbLine
 62
7
  6
CONTINUOUS
 10
8.6799531844
 20
4.9946787681
 11
8.698538986
 21
4.9671196638
  0
LINE
  5
530
100
AcDbEntity
  8
0
100
AcDbLine
 62
7
  6
CONTINUOUS
 10
8.7189531729
 20
4.9946787696
 11
8.7375389754
 21
4.9671196643
  0
LINE
  5
531
100
AcDbEntity
  8
0
100
AcDbLine
 62
7
  6
CONTINUOUS
 10
8.7579531933
 20
4.9946787692
 11
8.774968643
 21
4.9694483779
  0
LINE
  5
532
100
AcDbEntity
  8
0
100
AcDbLine
 62
7
  6
CONTINUOUS
 10
8.774968643
 20
4.9694483779
 11
8.7757811408
 21
4.9682435231
  0
LWPOLYLINE
  5
533
100
AcDbEntity
  8
0
100
AcDbPolyline
 62
7
  6
CONTINUOUS
 90
12
 70
0
 10
8.6667814401
 20
4.966940089
 10
8.6662055431
 20
4.9679540959
 10
8.6652940376
 20
4.9736809835
 10
8.6643862032
 20
4.9842904036
 10
8.6634669957
 20
4.9997885019
 10
8.6625417729
 20
5.0198780359
 10
8.6616205907
 20
5.0439139472
 10
8.6607118834
 20
5.0710524377
 10
8.6597953968
 20
5.1012794555
 10
8.6588697714
 20
5.1340510456
 10
8.6579449324
 20
5.1683222003
 10
8.656061929
 20
5.2396415968
  0
LWPOLYLINE
  5
534
100
AcDbEntity
  8
0
100
AcDbPolyline
 62
7
  6
CONTINUOUS
 90
21
 70
0
 10
8.6019531728
 20
4.9946787696
 10
8.6017856902
 20
4.9950028642
 10
8.6007885392
 20
5.0000505973
 10
8.5997913882
 20
5.0103232236
 10
8.5987942372
 20
5.0255561986
 10
8.5977970862
 20
5.0453572369
 10
8.5967999352
 20
5.0692164144
 10
8.5958027842
 20
5.0965192999
 10
8.5948056332
 20
5.1265627785
 10
8.5938084822
 20
5.1585731582
 10
8.5928113312
 20
5.1917260947
 10
8.5918141802
 20
5.2251678197
 10
8.5908170292
 20
5.2580371278
 10
8.5898198782
 20
5.2894875547
 10
8.5888227272
 20
5.3187091755
 10
8.5878255762
 20
5.3449494625
 10
8.5868284252
 20
5.3675326641
 10
8.5858312742
 20
5.3858772077
 10
8.5848341232
 20
5.3995106763
 10
8.5838369722
 20
5.4080819743
 10
8.5831052748
 20
5.4110181942
  0
LWPOLYLINE
  5
535
100
AcDbEntity
  8
0
100
AcDbPolyline
 62
7
  6
CONTINUOUS
 90
11
 70
0
 10
8.5107811504
 20
4.9669400888
 10
8.5097971628
 20
4.9698993391
 10
8.508822031
 20
4.9785981293
 10
8.5078547762
 20
4.9926862517
 10
8.5068867996
 20
5.0118858683
 10
8.5059121918
 20
5.035900482
 10
8.5049411714
 20
5.063914622
 10
8.5039674148
 20
5.0954167918
 10
8.5029834348
 20
5.1299293401
 10
8.5020010312
 20
5.1662136476
 10
8.5000563013
 20
5.2398527517
  0
LWPOLYLINE
  5
536
100
AcDbEntity
  8
0
100
AcDbPolyline
 62
7
  6
CONTINUOUS
 90
20
 70
0
 10
8.4849531727
 20
4.9946787696
 10
8.4841218725
 20
4.9977725876
 10
8.4831247215
 20
5.0063214907
 10
8.4821275705
 20
5.0199337967
 10
8.4811304195
 20
5.0382589564
 10
8.4801332685
 20
5.0608250531
 10
8.4791361175
 20
5.0870509555
 10
8.4781389665
 20
5.1162612838
 10
8.4771418155
 20
5.1477038016
 10
8.4761446645
 20
5.1805687883
 10
8.4751475135
 20
5.2140098911
 10
8.4741503625
 20
5.2471659208
 10
8.4731532115
 20
5.2791830292
 10
8.4721560605
 20
5.309236698
 10
8.4711589095
 20
5.3365529723
 10
8.4701617585
 20
5.3604283913
 10
8.4691646075
 20
5.3802481047
 10
8.4681674566
 20
5.3955017061
 10
8.4671703056
 20
5.4057963777
 10
8.4661052748
 20
5.4110181942
  0
LWPOLYLINE
  5
537
100
AcDbEntity
  8
0
100
AcDbPolyline
 62
7
  6
CONTINUOUS
 90
20
 70
0
 10
8.523953193
 20
4.9946787692
 10
8.5230107614
 20
4.9984666178
 10
8.5220136104
 20
5.0075931851
 10
8.5210164594
 20
5.0217504044
 10
8.5200193084
 20
5.0405736933
 10
8.5190221574
 20
5.0635783065
 10
8.5180250064
 20
5.0901718198
 10
8.5170278554
 20
5.1196693865
 10
8.5160307044
 20
5.1513113732
 10
8.5150335534
 20
5.1842829229
 10
8.5140364024
 20
5.217734939
 10
8.5130392514
 20
5.2508059519
 10
8.5120421004
 20
5.2826443039
 10
8.5110449494
 20
5.3124300809
 10
8.5100477984
 20
5.3393962281
 10
8.5090506474
 20
5.3628483025
 10
8.5080534964
 20
5.382182357
 10
8.5070563454
 20
5.3969004935
 10
8.5060591944
 20
5.4066236848
 10
8.5051052875
 20
5.4110181935
  0
LWPOLYLINE
  5
538
100
AcDbEntity
  8
0
100
AcDbPolyline
 62
7
  6
CONTINUOUS
 90
10
 70
0
 10
8.5000563013
 20
5.2398527517
 10
8.4990696132
 20
5.2762849468
 10
8.4980834999
 20
5.3108482487
 10
8.4971098339
 20
5.3423120642
 10
8.4961415373
 20
5.3702094952
 10
8.4951732016
 20
5.3940454023
 10
8.4942052245
 20
5.4132334559
 10
8.4932370852
 20
5.4273194845
 10
8.4922628381
 20
5.435994565
 10
8.4916151292
 20
5.4385985245
  0
LWPOLYLINE
  5
539
100
AcDbEntity
  8
0
100
AcDbPolyline
 62
7
  6
CONTINUOUS
 90
10
 70
0
 10
8.5390634217
 20
5.2395855415
 10
8.5380960086
 20
5.2753306349
 10
8.5371273317
 20
5.3093636972
 10
8.5361588396
 20
5.3408043615
 10
8.5351849896
 20
5.3690401961
 10
8.5341987434
 20
5.3934742072
 10
8.5332124821
 20
5.4131082691
 10
8.5322382785
 20
5.4273055621
 10
8.531267914
 20
5.4359641684
 10
8.5306151424
 20
5.438598525
  0
LWPOLYLINE
  5
53A
100
AcDbEntity
  8
0
100
AcDbPolyline
 62
7
  6
CONTINUOUS
 90
11
 70
0
 10
8.4930584809
 20
5.2397702735
 10
8.4950011992
 20
5.1662066831
 10
8.495974148
 20
5.1302645534
 10
8.4969409744
 20
5.0963120438
 10
8.4979080136
 20
5.0649347624
 10
8.4988824036
 20
5.0367019774
 10
8.4998690996
 20
5.0122812892
 10
8.5008556934
 20
4.9926700852
 10
8.5018301095
 20
4.9785027484
 10
8.50279536
 20
4.9699100536
 10
8.5035389751
 20
4.9671196643
  0
LWPOLYLINE
  5
53B
100
AcDbEntity
  8
0
100
AcDbPolyline
 62
7
  6
CONTINUOUS
 90
11
 70
0
 10
8.5320563022
 20
5.2398527517
 10
8.5340010321
 20
5.1662136476
 10
8.5349834357
 20
5.1299293401
 10
8.5359674156
 20
5.0954167918
 10
8.5369411722
 20
5.063914622
 10
8.5379121926
 20
5.035900482
 10
8.5388868003
 20
5.0118858683
 10
8.5398547769
 20
4.9926862517
 10
8.5408220317
 20
4.9785981293
 10
8.5417971635
 20
4.9698993391
 10
8.5425389951
 20
4.9671196643
  0
LINE
  5
53C
100
AcDbEntity
  8
0
100
AcDbLine
 62
7
  6
CONTINUOUS
 10
8.4721151189
 20
4.9672816529
 11
8.4852791852
 21
4.9941953938
  0
LINE
  5
53D
100
AcDbEntity
  8
0
100
AcDbLine
 62
7
  6
CONTINUOUS
 10
8.5111151396
 20
4.9672816529
 11
8.5242792056
 21
4.9941953933
  0
LINE
  5
53E
100
AcDbEntity
  8
0
100
AcDbLine
 62
7
  6
CONTINUOUS
 10
8.5501151297
 20
4.9672816518
 11
8.5497815809
 21
4.9669400893
  0
LINE
  5
53F
100
AcDbEntity
  8
0
100
AcDbLine
 62
7
  6
CONTINUOUS
 10
8.5891151191
 20
4.9672816529
 11
8.5887811203
 21
4.9669400888
  0
LINE
  5
540
100
AcDbEntity
  8
0
100
AcDbLine
 62
7
  6
CONTINUOUS
 10
8.6281151397
 20
4.9672816529
 11
8.6277811506
 21
4.9669400888
  0
LINE
  5
541
100
AcDbEntity
  8
0
100
AcDbLine
 62
7
  6
CONTINUOUS
 10
8.5696151166
 20
5.438598525
 11
8.5692810853
 21
5.4389400888
  0
LINE
  5
542
100
AcDbEntity
  8
0
100
AcDbLine
 62
7
  6
CONTINUOUS
 10
8.6086151294
 20
5.4385985245
 11
8.6082811401
 21
5.4389400888
  0
LINE
  5
543
100
AcDbEntity
  8
0
100
AcDbLine
 62
7
  6
CONTINUOUS
 10
8.6476151423
 20
5.438598525
 11
8.6472811672
 21
5.4389400888
  0
LINE
  5
544
100
AcDbEntity
  8
0
100
AcDbLine
 62
7
  6
CONTINUOUS
 10
8.4661052748
 20
5.4110181942
 11
8.4526151167
 21
5.4385985251
  0
LINE
  5
545
100
AcDbEntity
  8
0
100
AcDbLine
 62
7
  6
CONTINUOUS
 10
8.5051052875
 20
5.4110181935
 11
8.4916151292
 21
5.4385985245
  0
LINE
  5
546
100
AcDbEntity
  8
0
100
AcDbLine
 62
7
  6
CONTINUOUS
 10
8.5441053003
 20
5.4110181948
 11
8.5306151424
 21
5.438598525
  0
LWPOLYLINE
  5
547
100
AcDbEntity
  8
0
100
AcDbPolyline
 62
7
  6
CONTINUOUS
 90
21
 70
0
 10
8.6409531932
 20
4.9946787692
 10
8.6406745791
 20
4.9953014828
 10
8.6396774281
 20
5.000940471
 10
8.6386802771
 20
5.0117814349
 10
8.6376831261
 20
5.0275451935
 10
8.6366859751
 20
5.0478257917
 10
8.6356888241
 20
5.0721009553
 10
8.6346916731
 20
5.0997455405
 10
8.6336945221
 20
5.1300476326
 10
8.6326973711
 20
5.16222688
 10
8.6317002201
 20
5.1954545899
 10
8.6307030691
 20
5.2288750689
 10
8.6297059181
 20
5.2616276598
 10
8.6287087671
 20
5.2928689047
 10
8.6277116161
 20
5.3217942668
 10
8.6267144651
 20
5.3476588487
 10
8.6257173141
 20
5.3697965756
 10
8.6247201631
 20
5.387637348
 10
8.6237230121
 20
5.4007217232
 10
8.6227258611
 20
5.4087127474
 10
8.6221052877
 20
5.4110181935
  0
LWPOLYLINE
  5
548
100
AcDbEntity
  8
0
100
AcDbPolyline
 62
7
  6
CONTINUOUS
 90
21
 70
0
 10
8.6799531844
 20
4.9946787681
 10
8.6795634679
 20
4.9956665555
 10
8.6785663169
 20
5.0018948518
 10
8.677569166
 20
5.0133005612
 10
8.676572015
 20
5.0295899577
 10
8.675574864
 20
5.050343548
 10
8.674577713
 20
5.0750268753
 10
8.673580562
 20
5.1030042824
 10
8.672583411
 20
5.1335552814
 10
8.67158626
 20
5.1658931085
 10
8.670589109
 20
5.1991849849
 10
8.669591958
 20
5.2325735628
 10
8.668594807
 20
5.2651990044
 10
8.667597656
 20
5.2962211246
 10
8.666600505
 20
5.324841028
 10
8.665603354
 20
5.3503216825
 10
8.664606203
 20
5.3720068994
 10
8.663609052
 20
5.3893382317
 10
8.662611901
 20
5.4018693561
 10
8.66161475
 20
5.409277566
 10
8.6611053002
 20
5.4110181948
  0
LWPOLYLINE
  5
549
100
AcDbEntity
  8
0
100
AcDbPolyline
 62
7
  6
CONTINUOUS
 90
10
 70
0
 10
8.4842811211
 20
5.4389400888
 10
8.4852416509
 20
5.4361200144
 10
8.486208652
 20
5.4276520357
 10
8.4871807472
 20
5.4136539818
 10
8.4881652464
 20
5.3942224092
 10
8.4891501408
 20
5.3699781845
 10
8.4901230715
 20
5.3419051152
 10
8.4910926087
 20
5.3105395971
 10
8.4920748693
 20
5.2760943899
 10
8.4930584809
 20
5.2397702735
  0
LWPOLYLINE
  5
54A
100
AcDbEntity
  8
0
100
AcDbPolyline
 62
7
  6
CONTINUOUS
 90
10
 70
0
 10
8.6277811506
 20
4.9669400888
 10
8.6268024109
 20
4.9698679231
 10
8.6258278528
 20
4.9785295186
 10
8.6248602491
 20
4.992591826
 10
8.6238934744
 20
5.0117369983
 10
8.622922672
 20
5.0356192376
 10
8.6219533386
 20
5.0635410708
 10
8.6209794915
 20
5.0950082541
 10
8.6199931921
 20
5.1295766519
 10
8.6190062602
 20
5.1660172782
  0
LWPOLYLINE
  5
54B
100
AcDbEntity
  8
0
100
AcDbPolyline
 62
7
  6
CONTINUOUS
 90
11
 70
0
 10
8.5887811203
 20
4.9669400888
 10
8.5877941173
 20
4.9699175237
 10
8.5868268021
 20
4.9785416452
 10
8.5858523785
 20
4.9927273238
 10
8.5848658318
 20
5.0123545151
 10
8.5838792229
 20
5.0367878078
 10
8.5829049711
 20
5.0650285849
 10
8.5819369212
 20
5.0964495089
 10
8.5809698604
 20
5.1304196278
 10
8.580000002
 20
5.1662516035
 10
8.5780573969
 20
5.2398109402
  0
LWPOLYLINE
  5
54C
100
AcDbEntity
  8
0
100
AcDbPolyline
 62
7
  6
CONTINUOUS
 90
20
 70
0
 10
8.5629531848
 20
4.9946787681
 10
8.5618996503
 20
4.9992259961
 10
8.5609024993
 20
5.0089271798
 10
8.5599053483
 20
5.023624676
 10
8.5589081973
 20
5.0429399869
 10
8.5579110463
 20
5.0663756949
 10
8.5569138953
 20
5.0933282719
 10
8.5559167443
 20
5.1231036221
 10
8.5549195933
 20
5.1549349565
 10
8.5539224423
 20
5.1880025395
 10
8.5529252913
 20
5.2214547994
 10
8.5519281403
 20
5.2544302585
 10
8.5509309893
 20
5.2860797178
 10
8.5499338383
 20
5.3155881265
 10
8.5489366873
 20
5.342195571
 10
8.5479395363
 20
5.365216845
 10
8.5469423853
 20
5.384059095
 10
8.5459452343
 20
5.3982370876
 10
8.5449480833
 20
5.4073857055
 10
8.5441053003
 20
5.4110181948
  0
LWPOLYLINE
  5
54D
100
AcDbEntity
  8
0
100
AcDbPolyline
 62
7
  6
CONTINUOUS
 90
10
 70
0
 10
8.5780573969
 20
5.2398109402
 10
8.5770718358
 20
5.276203997
 10
8.5760868218
 20
5.3107353384
 10
8.5751141613
 20
5.3421787549
 10
8.5741444082
 20
5.3701320553
 10
8.5731618873
 20
5.3942971629
 10
8.5721786012
 20
5.4136906955
 10
8.5712065283
 20
5.4276766845
 10
8.5702378305
 20
5.4361423525
 10
8.5696151166
 20
5.438598525
  0
LWPOLYLINE
  5
54E
100
AcDbEntity
  8
0
100
AcDbPolyline
 62
7
  6
CONTINUOUS
 90
11
 70
0
 10
8.5710634217
 20
5.2395855415
 10
8.5729764808
 20
5.1671361258
 10
8.5739332719
 20
5.1317454785
 10
8.5748901692
 20
5.0980395232
 10
8.575836193
 20
5.0671596711
 10
8.5767733413
 20
5.0396712998
 10
8.5777222912
 20
5.0156243536
 10
8.5786753957
 20
4.9958712258
 10
8.5796215489
 20
4.9810808141
 10
8.5805611175
 20
4.9714842281
 10
8.5815389864
 20
4.9671196638
  0
LWPOLYLINE
  5
54F
100
AcDbEntity
  8
0
100
AcDbPolyline
 62
7
  6
CONTINUOUS
 90
11
 70
0
 10
8.6100573981
 20
5.2398109402
 10
8.6120000032
 20
5.1662516035
 10
8.6129698616
 20
5.1304196278
 10
8.6139369225
 20
5.0964495089
 10
8.6149049723
 20
5.0650285849
 10
8.6158792242
 20
5.0367878078
 10
8.6168658331
 20
5.0123545151
 10
8.6178523797
 20
4.9927273238
 10
8.6188268034
 20
4.9785416452
 10
8.6197941186
 20
4.9699175237
 10
8.6205389752
 20
4.9671196643
  0
LWPOLYLINE
  5
550
100
AcDbEntity
  8
0
100
AcDbPolyline
 62
7
  6
CONTINUOUS
 90
11
 70
0
 10
8.6190062602
 20
5.1660172782
 10
8.6170576953
 20
5.2398004085
 10
8.6160719323
 20
5.2762011413
 10
8.6150861652
 20
5.3107581188
 10
8.6141122522
 20
5.3422378591
 10
8.6131424143
 20
5.3701859759
 10
8.6121705512
 20
5.3941045173
 10
8.6112036778
 20
5.4132601437
 10
8.6102361207
 20
5.4273308489
 10
8.6092613979
 20
5.4360031843
 10
8.6086151294
 20
5.4385985245
  0
LINE
  5
551
100
AcDbEntity
  8
0
100
AcDbLine
 62
7
  6
CONTINUOUS
 10
8.5501151297
 20
4.9672816518
 11
8.5632791964
 21
4.9941953936
  0
LINE
  5
552
100
AcDbEntity
  8
0
100
AcDbLine
 62
7
  6
CONTINUOUS
 10
8.5891151191
 20
4.9672816529
 11
8.6022791854
 21
4.9941953937
  0
LINE
  5
553
100
AcDbEntity
  8
0
100
AcDbLine
 62
7
  6
CONTINUOUS
 10
8.7061151192
 20
4.9672816529
 11
8.7057811294
 21
4.9669400888
  0
LINE
  5
554
100
AcDbEntity
  8
0
100
AcDbLine
 62
7
  6
CONTINUOUS
 10
8.7451151399
 20
4.9672816529
 11
8.7447811507
 21
4.9669400888
  0
LINE
  5
555
100
AcDbEntity
  8
0
100
AcDbLine
 62
7
  6
CONTINUOUS
 10
8.6671144741
 20
4.9672803133
 11
8.6667814401
 21
4.966940089
  0
LINE
  5
556
100
AcDbEntity
  8
0
100
AcDbLine
 62
7
  6
CONTINUOUS
 10
8.6866151165
 20
5.438598525
 11
8.6862810811
 21
5.4389400888
  0
LINE
  5
557
100
AcDbEntity
  8
0
100
AcDbLine
 62
7
  6
CONTINUOUS
 10
8.7256151296
 20
5.4385985245
 11
8.7252811403
 21
5.4389400888
  0
LINE
  5
558
100
AcDbEntity
  8
0
100
AcDbLine
 62
7
  6
CONTINUOUS
 10
8.7642811541
 20
5.4389400888
 11
8.7646151423
 21
5.438598525
  0
LINE
  5
559
100
AcDbEntity
  8
0
100
AcDbLine
 62
7
  6
CONTINUOUS
 10
8.5831052748
 20
5.4110181942
 11
8.5696151166
 21
5.438598525
  0
LINE
  5
55A
100
AcDbEntity
  8
0
100
AcDbLine
 62
7
  6
CONTINUOUS
 10
8.6221052877
 20
5.4110181935
 11
8.6086151294
 21
5.4385985245
  0
LWPOLYLINE
  5
55B
100
AcDbEntity
  8
0
100
AcDbPolyline
 62
7
  6
CONTINUOUS
 90
10
 70
0
 10
8.6012810863
 20
5.4389400888
 10
8.6022378315
 20
5.4361423525
 10
8.6032065293
 20
5.4276766845
 10
8.6041786023
 20
5.4136906955
 10
8.6051618883
 20
5.3942971629
 10
8.6061444094
 20
5.3701320553
 10
8.6071141625
 20
5.3421787549
 10
8.6080868229
 20
5.3107353384
 10
8.609071837
 20
5.276203997
 10
8.6100573981
 20
5.2398109402
  0
LWPOLYLINE
  5
55C
100
AcDbEntity
  8
0
100
AcDbPolyline
 62
7
  6
CONTINUOUS
 90
10
 70
0
 10
8.523281141
 20
5.4389400888
 10
8.5242628391
 20
5.435994565
 10
8.5252370862
 20
5.4273194845
 10
8.5262052256
 20
5.4132334559
 10
8.5271732026
 20
5.3940454023
 10
8.5281415383
 20
5.3702094952
 10
8.5291098349
 20
5.3423120642
 10
8.5300835008
 20
5.3108482487
 10
8.5310696142
 20
5.2762849468
 10
8.5320563022
 20
5.2398527517
  0
LWPOLYLINE
  5
55D
100
AcDbEntity
  8
0
100
AcDbPolyline
 62
7
  6
CONTINUOUS
 90
10
 70
0
 10
8.7447811507
 20
4.9669400888
 10
8.7437983382
 20
4.96989229
 10
8.742824208
 20
4.9785724523
 10
8.7418559154
 20
4.9926665885
 10
8.7408872679
 20
5.0118754216
 10
8.7399197966
 20
5.0356963605
 10
8.7389519361
 20
5.063584108
 10
8.7379784341
 20
5.095044016
 10
8.7369924821
 20
5.1296023183
 10
8.7360059073
 20
5.1660305362
  0
LWPOLYLINE
  5
55E
100
AcDbEntity
  8
0
100
AcDbPolyline
 62
7
  6
CONTINUOUS
 90
11
 70
0
 10
8.7057811294
 20
4.9669400888
 10
8.7047947564
 20
4.9699136779
 10
8.7038229644
 20
4.9785868758
 10
8.7028489346
 20
4.9927868739
 10
8.7018628661
 20
5.0124210425
 10
8.7008767713
 20
5.0368540207
 10
8.6999030651
 20
5.0650874008
 10
8.698934458
 20
5.0965330972
 10
8.6979651218
 20
5.1305911014
 10
8.6969984028
 20
5.1663116719
 10
8.6950565295
 20
5.2398435175
  0
LWPOLYLINE
  5
55F
100
AcDbEntity
  8
0
100
AcDbPolyline
 62
7
  6
CONTINUOUS
 90
10
 70
0
 10
8.5622811558
 20
5.4389400888
 10
8.5632679142
 20
5.4359641684
 10
8.5642382786
 20
5.4273055621
 10
8.5652124823
 20
5.4131082691
 10
8.5661987436
 20
5.3934742072
 10
8.5671849897
 20
5.3690401961
 10
8.5681588397
 20
5.3408043615
 10
8.5691273318
 20
5.3093636972
 10
8.5700960087
 20
5.2753306349
 10
8.5710634217
 20
5.2395855415
  0
LWPOLYLINE
  5
560
100
AcDbEntity
  8
0
100
AcDbPolyline
 62
7
  6
CONTINUOUS
 90
21
 70
0
 10
8.7189531729
 20
4.9946787696
 10
8.7182520755
 20
4.9970431323
 10
8.7172601951
 20
5.0048565295
 10
8.7162683146
 20
5.0177173874
 10
8.7152764342
 20
5.0352979929
 10
8.7142845538
 20
5.0571503666
 10
8.7132926733
 20
5.082717678
 10
8.7123007929
 20
5.1113484347
 10
8.7113089125
 20
5.1423130829
 10
8.710317032
 20
5.1748225978
 10
8.7093251516
 20
5.2080485889
 10
8.7083332712
 20
5.2411444089
 10
8.7073413907
 20
5.2732667271
 10
8.7063495103
 20
5.3035970192
 10
8.7053576298
 20
5.3313624239
 10
8.7043657494
 20
5.3558554373
 10
8.703373869
 20
5.3764519404
 10
8.7023819885
 20
5.3926271032
 10
8.7013901081
 20
5.403968758
 10
8.7003982277
 20
5.4101879019
 10
8.7001052747
 20
5.4110181942
  0
LWPOLYLINE
  5
561
100
AcDbEntity
  8
0
100
AcDbPolyline
 62
7
  6
CONTINUOUS
 90
10
 70
0
 10
8.656061929
 20
5.2396415968
 10
8.6550912211
 20
5.2755038573
 10
8.6541244432
 20
5.3094617043
 10
8.6531566302
 20
5.3408725279
 10
8.6521823436
 20
5.3691116453
 10
8.6511956953
 20
5.3935425671
 10
8.6502090691
 20
5.4131672657
 10
8.6492345682
 20
5.4273492678
 10
8.6482680367
 20
5.4359634296
 10
8.6476151423
 20
5.438598525
  0
LWPOLYLINE
  5
562
100
AcDbEntity
  8
0
100
AcDbPolyline
 62
7
  6
CONTINUOUS
 90
10
 70
0
 10
8.6950565295
 20
5.2398435175
 10
8.6940700907
 20
5.2762670695
 10
8.6930842194
 20
5.3108233515
 10
8.6921108149
 20
5.3422814662
 10
8.691144547
 20
5.370128332
 10
8.6901663142
 20
5.3941986011
 10
8.6891851943
 20
5.4135777631
 10
8.6882131503
 20
5.4275997016
 10
8.6872425673
 20
5.4361146348
 10
8.6866151165
 20
5.438598525
  0
LWPOLYLINE
  5
563
100
AcDbEntity
  8
0
100
AcDbPolyline
 62
7
  6
CONTINUOUS
 90
11
 70
0
 10
8.6490576962
 20
5.2398004085
 10
8.651006261
 20
5.1660172782
 10
8.651993193
 20
5.1295766519
 10
8.6529794923
 20
5.0950082541
 10
8.6539533394
 20
5.0635410708
 10
8.6549226728
 20
5.0356192376
 10
8.6558934751
 20
5.0117369983
 10
8.6568602498
 20
4.992591826
 10
8.6578278535
 20
4.9785295186
 10
8.6588024115
 20
4.9698679231
 10
8.6595389953
 20
4.9671196643
  0
LWPOLYLINE
  5
564
100
AcDbEntity
  8
0
100
AcDbPolyline
 62
7
  6
CONTINUOUS
 90
12
 70
0
 10
8.6880619291
 20
5.2396415968
 10
8.6899449324
 20
5.1683222003
 10
8.6908697715
 20
5.1340510456
 10
8.6917953968
 20
5.1012794555
 10
8.6927118834
 20
5.0710524377
 10
8.6936205908
 20
5.0439139472
 10
8.6945417729
 20
5.0198780359
 10
8.6954669957
 20
4.9997885019
 10
8.6963862032
 20
4.9842904036
 10
8.6972940376
 20
4.9736809835
 10
8.6982055431
 20
4.9679540959
 10
8.698538986
 20
4.9671196638
  0
LINE
  5
565
100
AcDbEntity
  8
0
100
AcDbLine
 62
7
  6
CONTINUOUS
 10
8.6281151397
 20
4.9672816529
 11
8.6412792058
 21
4.9941953933
  0
LINE
  5
566
100
AcDbEntity
  8
0
100
AcDbLine
 62
7
  6
CONTINUOUS
 10
8.6671151293
 20
4.9672816518
 11
8.680279196
 21
4.9941953936
  0
LINE
  5
567
100
AcDbEntity
  8
0
100
AcDbLine
 62
7
  6
CONTINUOUS
 10
8.7061151192
 20
4.9672816529
 11
8.7192791855
 21
4.9941953937
  0
LINE
  5
568
100
AcDbEntity
  8
0
100
AcDbLine
 62
7
  6
CONTINUOUS
 10
8.6611053002
 20
5.4110181948
 11
8.6476151423
 21
5.438598525
  0
LINE
  5
569
100
AcDbEntity
  8
0
100
AcDbLine
 62
7
  6
CONTINUOUS
 10
8.7001052747
 20
5.4110181942
 11
8.6866151165
 21
5.438598525
  0
LWPOLYLINE
  5
56A
100
AcDbEntity
  8
0
100
AcDbPolyline
 62
7
  6
CONTINUOUS
 90
10
 70
0
 10
8.6402811412
 20
5.4389400888
 10
8.6412613989
 20
5.4360031843
 10
8.6422361218
 20
5.4273308489
 10
8.6432036788
 20
5.4132601437
 10
8.6441705522
 20
5.3941045173
 10
8.6451424153
 20
5.3701859759
 10
8.6461122532
 20
5.3422378591
 10
8.6470861662
 20
5.3107581188
 10
8.6480719332
 20
5.2762011413
 10
8.6490576962
 20
5.2398004085
  0
LWPOLYLINE
  5
56B
100
AcDbEntity
  8
0
100
AcDbPolyline
 62
7
  6
CONTINUOUS
 90
10
 70
0
 10
8.6792811674
 20
5.4389400888
 10
8.6802680369
 20
5.4359634296
 10
8.6812345684
 20
5.4273492678
 10
8.6822090693
 20
5.4131672657
 10
8.6831956955
 20
5.3935425671
 10
8.6841823437
 20
5.3691116453
 10
8.6851566303
 20
5.3408725279
 10
8.6861244433
 20
5.3094617043
 10
8.6870912212
 20
5.2755038573
 10
8.6880619291
 20
5.2396415968
  0
LWPOLYLINE
  5
56C
100
AcDbEntity
  8
0
100
AcDbPolyline
 62
7
  6
CONTINUOUS
 90
20
 70
0
 10
8.7579531933
 20
4.9946787692
 10
8.7569354125
 20
4.9989744832
 10
8.7559435321
 20
5.0084273263
 10
8.7549516516
 20
5.0228366397
 10
8.7539597712
 20
5.0418352528
 10
8.7529678908
 20
5.0649390528
 10
8.7519760103
 20
5.0915593209
 10
8.7509841299
 20
5.1210177336
 10
8.7499922495
 20
5.1525636474
 10
8.749000369
 20
5.1853932262
 10
8.7480084886
 20
5.2186699244
 10
8.7470166082
 20
5.2515458031
 10
8.7460247277
 20
5.2831831369
 10
8.7450328473
 20
5.3127757604
 10
8.7440409668
 20
5.3395696105
 10
8.7430490864
 20
5.3628819407
 10
8.742057206
 20
5.382118719
 10
8.7410653255
 20
5.3967897642
 10
8.7400734451
 20
5.4065212368
 10
8.7391052879
 20
5.4110181935
  0
LWPOLYLINE
  5
56D
100
AcDbEntity
  8
0
100
AcDbPolyline
 62
7
  6
CONTINUOUS
 90
10
 70
0
 10
8.7660409402
 20
5.2404295466
 10
8.765066723
 20
5.2763894358
 10
8.7640924986
 20
5.310543897
 10
8.7631183035
 20
5.3420521031
 10
8.7621441154
 20
5.3701403694
 10
8.7611699147
 20
5.3941187345
 10
8.7601957344
 20
5.4133969987
 10
8.7592215588
 20
5.4275017598
 10
8.7582473592
 20
5.4360865417
 10
8.7572811413
 20
5.4389400888
  0
LWPOLYLINE
  5
56E
100
AcDbEntity
  8
0
100
AcDbPolyline
 62
7
  6
CONTINUOUS
 90
11
 70
0
 10
8.7270565307
 20
5.2398435175
 10
8.728998404
 20
5.1663116719
 10
8.729965123
 20
5.1305911014
 10
8.7309344593
 20
5.0965330972
 10
8.7319030663
 20
5.0650874008
 10
8.7328767726
 20
5.0368540207
 10
8.7338628674
 20
5.0124210425
 10
8.7348489359
 20
4.9927868739
 10
8.7358229657
 20
4.9785868758
 10
8.7367947577
 20
4.9699136779
 10
8.7375389754
 20
4.9671196643
  0
LWPOLYLINE
  5
56F
100
AcDbEntity
  8
0
100
AcDbPolyline
 62
7
  6
CONTINUOUS
 90
11
 70
0
 10
8.7360059073
 20
5.1660305362
 10
8.7340623094
 20
5.2396271266
 10
8.7330812182
 20
5.2758654451
 10
8.7320979221
 20
5.3103602983
 10
8.731124265
 20
5.3418689102
 10
8.7301529063
 20
5.3699042906
 10
8.7291773837
 20
5.3939520686
 10
8.7282086863
 20
5.4131736922
 10
8.7272416361
 20
5.4272658011
 10
8.7262664847
 20
5.4359726896
 10
8.7256151296
 20
5.4385985245
  0
LINE
  5
570
100
AcDbEntity
  8
0
100
AcDbLine
 62
7
  6
CONTINUOUS
 10
8.7757811408
 20
5.415772446
 11
8.7757811408
 21
4.968246212
  0
LINE
  5
571
100
AcDbEntity
  8
0
100
AcDbLine
 62
7
  6
CONTINUOUS
 10
8.7451151399
 20
4.9672816529
 11
8.7582792059
 21
4.9941953933
  0
LINE
  5
572
100
AcDbEntity
  8
0
100
AcDbLine
 62
7
  6
CONTINUOUS
 10
8.7391052879
 20
5.4110181935
 11
8.7256151296
 21
5.4385985245
  0
LINE
  5
573
100
AcDbEntity
  8
0
100
AcDbLine
 62
7
  6
CONTINUOUS
 10
8.7757811408
 20
5.4157690561
 11
8.7646151423
 21
5.438598525
  0
LWPOLYLINE
  5
574
100
AcDbEntity
  8
0
100
AcDbPolyline
 62
7
  6
CONTINUOUS
 90
10
 70
0
 10
8.7182810821
 20
5.4389400888
 10
8.7192425683
 20
5.4361146348
 10
8.7202131514
 20
5.4275997016
 10
8.7211851953
 20
5.4135777631
 10
8.7221663153
 20
5.3941986011
 10
8.7231445481
 20
5.370128332
 10
8.724110816
 20
5.3422814662
 10
8.7250842205
 20
5.3108233515
 10
8.7260700918
 20
5.2762670695
 10
8.7270565307
 20
5.2398435175
  0
LWPOLYLINE
  5
575
100
AcDbEntity
  8
0
100
AcDbPolyline
 62
7
  6
CONTINUOUS
 90
13
 70
0
 10
8.7646151423
 20
5.438598525
 10
8.7651564229
 20
5.4365976057
 10
8.7661223271
 20
5.4286334862
 10
8.7670882531
 20
5.4152146781
 10
8.7680542074
 20
5.3966649875
 10
8.7690201605
 20
5.3734330997
 10
8.7699860856
 20
5.3460813366
 10
8.7709519937
 20
5.3152707031
 10
8.7719179019
 20
5.2817453454
 10
8.7728838237
 20
5.2463149813
 10
8.7738497388
 20
5.2098365865
 10
8.7748154635
 20
5.1731987062
 10
8.7757811408
 20
5.1372810432
  0
LWPOLYLINE
  5
576
100
AcDbEntity
  8
0
100
AcDbPolyline
 62
7
  6
CONTINUOUS
 90
10
 70
0
 10
8.7757811408
 20
4.9699962884
 10
8.7748072007
 20
4.9787738126
 10
8.7738332165
 20
4.9930598472
 10
8.7728592014
 20
5.0125037789
 10
8.7718851694
 20
5.036627887
 10
8.7709111333
 20
5.0648391625
 10
8.7699370978
 20
5.096444211
 10
8.7689630665
 20
5.1306662157
 10
8.7679890628
 20
5.1666632707
 10
8.7660409402
 20
5.2404295466
  0
LINE
  5
577
100
AcDbEntity
  8
0
100
AcDbLine
 62
7
  6
CONTINUOUS
 10
8.8151512195
 20
5.4066802462
 11
8.8151512195
 21
4.9991999313
  0
LINE
  5
578
100
AcDbEntity
  8
AXIS
100
AcDbLine
 62
7
  6
CONTINUOUS
 10
7.1627890148
 20
6.7979011118
 11
7.595859881
 21
6.7979011118
  0
LINE
  5
579
100
AcDbEntity
  8
AXIS
100
AcDbLine
 62
7
  6
CONTINUOUS
 10
7.1627890148
 20
6.7979011118
 11
7.1627890148
 21
7.979003474
  0
LINE
  5
57A
100
AcDbEntity
  8
AXIS
100
AcDbLine
 62
7
  6
CONTINUOUS
 10
7.6549149991
 20
6.9583341827
 11
7.689363818
 21
6.9583341827
  0
LINE
  5
57B
100
AcDbEntity
  8
AXIS
100
AcDbLine
 62
7
  6
CONTINUOUS
 10
7.7410173613
 20
6.9583341827
 11
7.7484189361
 21
6.9583341827
  0
LINE
  5
57C
100
AcDbEntity
  8
AXIS
100
AcDbLine
 62
7
  6
CONTINUOUS
 10
7.8000724794
 20
6.9583341827
 11
7.8074740542
 21
6.9583341827
  0
LINE
  5
57D
100
AcDbEntity
  8
AXIS
100
AcDbLine
 62
7
  6
CONTINUOUS
 10
7.8591275975
 20
6.9583341827
 11
7.8665291723
 21
6.9583341827
  0
LINE
  5
57E
100
AcDbEntity
  8
AXIS
100
AcDbLine
 62
7
  6
CONTINUOUS
 10
7.9181827156
 20
6.9583341827
 11
7.9255842904
 21
6.9583341827
  0
LINE
  5
57F
100
AcDbEntity
  8
AXIS
100
AcDbLine
 62
7
  6
CONTINUOUS
 10
7.9772378337
 20
6.9583341827
 11
7.9846394085
 21
6.9583341827
  0
LINE
  5
580
100
AcDbEntity
  8
AXIS
100
AcDbLine
 62
7
  6
CONTINUOUS
 10
8.0362929518
 20
6.9583341827
 11
8.0436945266
 21
6.9583341827
  0
LINE
  5
581
100
AcDbEntity
  8
AXIS
100
AcDbLine
 62
7
  6
CONTINUOUS
 10
8.0953480699
 20
6.9583341827
 11
8.1027496447
 21
6.9583341827
  0
LINE
  5
582
100
AcDbEntity
  8
AXIS
100
AcDbLine
 62
7
  6
CONTINUOUS
 10
8.154403188
 20
6.9583341827
 11
8.1618047628
 21
6.9583341827
  0
LINE
  5
583
100
AcDbEntity
  8
0
100
AcDbLine
 62
7
  6
CONTINUOUS
 10
8.1864110621
 20
7.0144365449
 11
8.2060961014
 21
7.0144365449
  0
LWPOLYLINE
  5
584
100
AcDbEntity
  8
0
100
AcDbPolyline
 62
7
  6
CONTINUOUS
 90
3
 70
0
 10
7.7151176784
 20
7.0010983456
 10
7.7164413091
 20
7.0005375
 10
7.7165228145
 20
7.0004197324
  0
LINE
  5
585
100
AcDbEntity
  8
0
100
AcDbLine
 62
7
  6
CONTINUOUS
 10
7.7701893538
 20
7.8182626573
 11
7.7705449269
 21
7.8185704031
  0
LWPOLYLINE
  5
586
100
AcDbEntity
  8
0
100
AcDbPolyline
 62
7
  6
CONTINUOUS
 90
3
 70
0
 10
7.9232023934
 20
7.7764617852
 10
7.9216069092
 20
7.775829723
 10
7.9206118648
 20
7.7763878301
  0
LWPOLYLINE
  5
587
100
AcDbEntity
  8
0
100
AcDbPolyline
 62
9
  6
CONTINUOUS
 90
6
 70
0
 10
7.6549149991
 20
7.1394261303
 10
7.6488319874
 20
7.1388683175
 10
7.6433444232
 20
7.137249482
 10
7.6389894677
 20
7.1347280865
 10
7.6361934141
 20
7.1315509428
 10
7.6352299597
 20
7.1280290519
  0
LINE
  5
588
100
AcDbEntity
  8
0
100
AcDbLine
 62
7
  6
CONTINUOUS
 10
8.2257811408
 20
7.0984522929
 11
8.3257811408
 21
7.0984522929
  0
LINE
  5
589
100
AcDbEntity
  8
0
100
AcDbLine
 62
9
  6
CONTINUOUS
 10
7.6804035558
 20
7.1394261303
 11
7.6549149991
 21
7.1394261303
  0
LINE
  5
58A
100
AcDbEntity
  8
0
100
AcDbLine
 62
7
  6
CONTINUOUS
 10
7.7319184638
 20
7.144625843
 11
7.7393200386
 21
7.144625843
  0
LINE
  5
58B
100
AcDbEntity
  8
0
100
AcDbLine
 62
7
  6
CONTINUOUS
 10
7.7909735819
 20
7.144625843
 11
7.7983751567
 21
7.144625843
  0
LINE
  5
58C
100
AcDbEntity
  8
0
100
AcDbLine
 62
7
  6
CONTINUOUS
 10
7.8500287
 20
7.144625843
 11
7.8574302748
 21
7.144625843
  0
LINE
  5
58D
100
AcDbEntity
  8
0
100
AcDbLine
 62
7
  6
CONTINUOUS
 10
7.9090838181
 20
7.144625843
 11
7.916485393
 21
7.144625843
  0
LINE
  5
58E
100
AcDbEntity
  8
0
100
AcDbLine
 62
7
  6
CONTINUOUS
 10
7.9681389363
 20
7.144625843
 11
7.9755405111
 21
7.144625843
  0
LINE
  5
58F
100
AcDbEntity
  8
0
100
AcDbLine
 62
7
  6
CONTINUOUS
 10
8.0271940544
 20
7.144625843
 11
8.0345956292
 21
7.144625843
  0
LINE
  5
590
100
AcDbEntity
  8
0
100
AcDbLine
 62
7
  6
CONTINUOUS
 10
8.0862491725
 20
7.144625843
 11
8.0936507473
 21
7.144625843
  0
LINE
  5
591
100
AcDbEntity
  8
0
100
AcDbLine
 62
7
  6
CONTINUOUS
 10
8.1453042906
 20
7.144625843
 11
8.1527058654
 21
7.144625843
  0
LINE
  5
592
100
AcDbEntity
  8
0
100
AcDbLine
 62
7
  6
CONTINUOUS
 10
7.9512472894
 20
7.0010907455
 11
7.9527415367
 21
7.0004226047
  0
LWPOLYLINE
  5
593
100
AcDbEntity
  8
0
100
AcDbPolyline
 62
7
  6
CONTINUOUS
 90
3
 70
0
 10
7.8923772719
 20
7.0010992526
 10
7.8936448501
 20
7.0004884505
 10
7.8936809781
 20
7.0004311858
  0
LWPOLYLINE
  5
594
100
AcDbEntity
  8
0
100
AcDbPolyline
 62
7
  6
CONTINUOUS
 90
8
 70
0
 10
7.8665295981
 20
6.9583341831
 10
7.8663122829
 20
6.9584486969
 10
7.8649808401
 20
6.9641572027
 10
7.8636550181
 20
6.9782884405
 10
7.8623311643
 20
7.0005287867
 10
7.8609929237
 20
7.0308178638
 10
7.8596536633
 20
7.0683761141
 10
7.8583270726
 20
7.1119777009
  0
LWPOLYLINE
  5
595
100
AcDbEntity
  8
0
100
AcDbPolyline
 62
7
  6
CONTINUOUS
 90
3
 70
0
 10
7.774632946
 20
7.0010532855
 10
7.7755034825
 20
7.0005289295
 10
7.7755744902
 20
7.0004253947
  0
LINE
  5
596
100
AcDbEntity
  8
0
100
AcDbLine
 62
9
  6
CONTINUOUS
 10
7.7127657442
 20
7.0012538087
 11
7.7138795939
 21
7.0004554803
  0
LINE
  5
597
100
AcDbEntity
  8
0
100
AcDbLine
 62
9
  6
CONTINUOUS
 10
7.7718208623
 20
7.0012538087
 11
7.772934712
 21
7.0004554803
  0
LINE
  5
598
100
AcDbEntity
  8
0
100
AcDbLine
 62
7
  6
CONTINUOUS
 10
7.7406617948
 20
6.9586419285
 11
7.7410173676
 21
6.9583341827
  0
LINE
  5
599
100
AcDbEntity
  8
0
100
AcDbLine
 62
7
  6
CONTINUOUS
 10
7.7997169129
 20
6.9586419285
 11
7.8000724866
 21
6.9583341827
  0
LWPOLYLINE
  5
59A
100
AcDbEntity
  8
0
100
AcDbPolyline
 62
7
  6
CONTINUOUS
 90
4
 70
0
 10
7.7460445926
 20
7.776475315
 10
7.7460155204
 20
7.7764281398
 10
7.7445970886
 20
7.7758102824
 10
7.7438118029
 20
7.7760708162
  0
LINE
  5
59B
100
AcDbEntity
  8
0
100
AcDbLine
 62
7
  6
CONTINUOUS
 10
7.829244472
 20
7.8182626573
 11
7.8296000481
 21
7.8185704031
  0
LINE
  5
59C
100
AcDbEntity
  8
0
100
AcDbLine
 62
7
  6
CONTINUOUS
 10
7.8882995901
 20
7.8182626573
 11
7.8886557953
 21
7.8185704021
  0
LINE
  5
59D
100
AcDbEntity
  8
0
100
AcDbLine
 62
7
  6
CONTINUOUS
 10
7.9473547082
 20
7.8182626573
 11
7.9477109589
 21
7.818570402
  0
LWPOLYLINE
  5
59E
100
AcDbEntity
  8
0
100
AcDbPolyline
 62
7
  6
CONTINUOUS
 90
3
 70
0
 10
7.9822446936
 20
7.7764409512
 10
7.9808462292
 20
7.7758083442
 10
7.9797485077
 20
7.7762993408
  0
LWPOLYLINE
  5
59F
100
AcDbEntity
  8
0
100
AcDbPolyline
 62
7
  6
CONTINUOUS
 90
3
 70
0
 10
8.041309385
 20
7.7764561771
 10
8.0397372547
 20
7.7758263631
 10
8.0387287356
 20
7.7763812453
  0
LINE
  5
5A0
100
AcDbEntity
  8
0
100
AcDbLine
 62
9
  6
CONTINUOUS
 10
7.6352299597
 20
7.1508232086
 11
7.6821631422
 21
7.1508232086
  0
LINE
  5
5A1
100
AcDbEntity
  8
0
100
AcDbLine
 62
7
  6
CONTINUOUS
 10
8.7350311459
 20
7.1524522929
 11
8.7280311286
 21
7.1524522929
  0
LINE
  5
5A2
100
AcDbEntity
  8
0
100
AcDbLine
 62
7
  6
CONTINUOUS
 10
8.6960311274
 20
7.1524522929
 11
8.6890311498
 21
7.1524522929
  0
LINE
  5
5A3
100
AcDbEntity
  8
0
100
AcDbLine
 62
7
  6
CONTINUOUS
 10
8.6570311497
 20
7.1524522929
 11
8.6500311466
 21
7.1524522929
  0
LINE
  5
5A4
100
AcDbEntity
  8
0
100
AcDbLine
 62
7
  6
CONTINUOUS
 10
8.6180311457
 20
7.1524522929
 11
8.6110311285
 21
7.1524522929
  0
LINE
  5
5A5
100
AcDbEntity
  8
0
100
AcDbLine
 62
7
  6
CONTINUOUS
 10
8.5790311273
 20
7.1524522929
 11
8.57203115
 21
7.1524522929
  0
LINE
  5
5A6
100
AcDbEntity
  8
0
100
AcDbLine
 62
7
  6
CONTINUOUS
 10
8.54003115
 20
7.1524522929
 11
8.5330311464
 21
7.1524522929
  0
LINE
  5
5A7
100
AcDbEntity
  8
0
100
AcDbLine
 62
7
  6
CONTINUOUS
 10
8.5010311456
 20
7.1524522929
 11
8.4940311285
 21
7.1524522929
  0
LINE
  5
5A8
100
AcDbEntity
  8
0
100
AcDbLine
 62
7
  6
CONTINUOUS
 10
8.4620311273
 20
7.1524522929
 11
8.4257811408
 21
7.1524522929
  0
LINE
  5
5A9
100
AcDbEntity
  8
0
100
AcDbLine
 62
7
  6
CONTINUOUS
 10
8.7670311468
 20
7.1524522929
 11
8.7740311495
 21
7.1524522929
  0
LINE
  5
5AA
100
AcDbEntity
  8
0
100
AcDbLine
 62
7
  6
CONTINUOUS
 10
8.7757811408
 20
7.1847121354
 11
8.8151512195
 21
7.1847121354
  0
LWPOLYLINE
  5
5AB
100
AcDbEntity
  8
0
100
AcDbPolyline
 62
7
  6
CONTINUOUS
 90
3
 70
0
 10
8.0105790752
 20
7.0010953128
 10
8.0117621668
 20
7.0004784498
 10
8.0117888903
 20
7.0004352076
  0
LINE
  5
5AC
100
AcDbEntity
  8
0
100
AcDbLine
 62
9
  6
CONTINUOUS
 10
7.9489862166
 20
7.0012538087
 11
7.9501000663
 21
7.0004554803
  0
LINE
  5
5AD
100
AcDbEntity
  8
0
100
AcDbLine
 62
7
  6
CONTINUOUS
 10
7.858772031
 20
6.9586419285
 11
7.8591278887
 21
6.9583341829
  0
LINE
  5
5AE
100
AcDbEntity
  8
0
100
AcDbLine
 62
7
  6
CONTINUOUS
 10
7.8342313336
 20
7.00082178
 11
7.8345991553
 21
7.000477752
  0
LINE
  5
5AF
100
AcDbEntity
  8
0
100
AcDbLine
 62
7
  6
CONTINUOUS
 10
7.7165015854
 20
7.0004554802
 11
7.7165228145
 21
7.0004197324
  0
LWPOLYLINE
  5
5B0
100
AcDbEntity
  8
0
100
AcDbPolyline
 62
7
  6
CONTINUOUS
 90
8
 70
0
 10
7.6893638239
 20
6.9583341827
 10
7.6886585907
 20
6.9595443818
 10
7.6872668181
 20
6.9689951568
 10
7.6858948395
 20
6.9872989423
 10
7.6845254545
 20
7.0140768206
 10
7.683154347
 20
7.0488360145
 10
7.6817757753
 20
7.091056384
 10
7.6804035558
 20
7.1394261303
  0
LINE
  5
5B1
100
AcDbEntity
  8
0
100
AcDbLine
 62
7
  6
CONTINUOUS
 10
7.7165015854
 20
7.0004554802
 11
7.7406617948
 21
6.9586419285
  0
LWPOLYLINE
  5
5B2
100
AcDbEntity
  8
0
100
AcDbPolyline
 62
7
  6
CONTINUOUS
 90
8
 70
0
 10
7.7484189433
 20
6.9583341827
 10
7.7476856211
 20
6.9596426507
 10
7.7462746111
 20
6.9694796679
 10
7.7448832248
 20
6.9884107575
 10
7.7434895505
 20
7.0161451487
 10
7.7420998357
 20
7.0519376146
 10
7.7407089267
 20
7.0951136408
 10
7.7393200386
 20
7.144625843
  0
LINE
  5
5B3
100
AcDbEntity
  8
0
100
AcDbLine
 62
9
  6
CONTINUOUS
 10
7.595859881
 20
6.7979011118
 11
7.595859881
 21
7.979003474
  0
LINE
  5
5B4
100
AcDbEntity
  8
0
100
AcDbLine
 62
7
  6
CONTINUOUS
 10
7.7701893538
 20
7.8182626573
 11
7.7460291444
 21
7.7764491055
  0
LINE
  5
5B5
100
AcDbEntity
  8
0
100
AcDbLine
 62
7
  6
CONTINUOUS
 10
7.829244472
 20
7.8182626573
 11
7.8050842625
 21
7.7764491055
  0
LINE
  5
5B6
100
AcDbEntity
  8
0
100
AcDbLine
 62
7
  6
CONTINUOUS
 10
7.7460291444
 20
7.7764491055
 11
7.7460445926
 21
7.776475315
  0
LINE
  5
5B7
100
AcDbEntity
  8
0
100
AcDbLine
 62
7
  6
CONTINUOUS
 10
7.8050842625
 20
7.7764491055
 11
7.8051074264
 21
7.776488013
  0
LWPOLYLINE
  5
5B8
100
AcDbEntity
  8
0
100
AcDbPolyline
 62
7
  6
CONTINUOUS
 90
4
 70
0
 10
7.8051074264
 20
7.776488013
 10
7.8050388381
 20
7.7763853574
 10
7.8030957525
 20
7.7759509283
 10
7.8025342479
 20
7.7763434131
  0
LINE
  5
5B9
100
AcDbEntity
  8
0
100
AcDbLine
 62
7
  6
CONTINUOUS
 10
8.0654649444
 20
7.8182626573
 11
8.0658197721
 21
7.8185704018
  0
LINE
  5
5BA
100
AcDbEntity
  8
0
100
AcDbLine
 62
7
  6
CONTINUOUS
 10
8.0064098263
 20
7.8182626573
 11
8.0067653483
 21
7.8185704031
  0
LINE
  5
5BB
100
AcDbEntity
  8
0
100
AcDbLine
 62
9
  6
CONTINUOUS
 10
8.2060961014
 20
7.2655241259
 11
8.1864110621
 21
7.2655241259
  0
LINE
  5
5BC
100
AcDbEntity
  8
0
100
AcDbLine
 62
9
  6
CONTINUOUS
 10
8.1864110621
 20
7.2719940295
 11
8.2257811408
 21
7.2719940295
  0
LWPOLYLINE
  5
5BD
100
AcDbEntity
  8
0
100
AcDbPolyline
 62
7
  6
CONTINUOUS
 90
3
 70
0
 10
8.0436939554
 20
6.9583341835
 10
8.0433932172
 20
6.9585551818
 10
8.0420541067
 20
6.9648686432
  0
LINE
  5
5BE
100
AcDbEntity
  8
0
100
AcDbLine
 62
7
  6
CONTINUOUS
 10
7.9768822672
 20
6.9586419285
 11
7.9772381692
 21
6.9583341829
  0
LINE
  5
5BF
100
AcDbEntity
  8
0
100
AcDbLine
 62
7
  6
CONTINUOUS
 10
8.0359373853
 20
6.9586419285
 11
8.03629253
 21
6.9583341831
  0
LINE
  5
5C0
100
AcDbEntity
  8
0
100
AcDbLine
 62
9
  6
CONTINUOUS
 10
7.8897579794
 20
7.0018669129
 11
7.8910449482
 21
7.0004554803
  0
LINE
  5
5C1
100
AcDbEntity
  8
0
100
AcDbLine
 62
7
  6
CONTINUOUS
 10
7.7755567035
 20
7.0004554802
 11
7.7755744902
 21
7.0004253947
  0
LINE
  5
5C2
100
AcDbEntity
  8
0
100
AcDbLine
 62
7
  6
CONTINUOUS
 10
7.7755567035
 20
7.0004554802
 11
7.7997169129
 21
6.9586419285
  0
LWPOLYLINE
  5
5C3
100
AcDbEntity
  8
0
100
AcDbPolyline
 62
7
  6
CONTINUOUS
 90
8
 70
0
 10
7.8074743454
 20
6.9583341829
 10
7.8067404685
 20
6.9596436165
 10
7.8053333918
 20
6.9694417919
 10
7.8039433887
 20
6.9883259853
 10
7.8025462919
 20
7.0161079559
 10
7.801147983
 20
7.0521363826
 10
7.7997607022
 20
7.0952255308
 10
7.7983751567
 20
7.144625843
  0
LWPOLYLINE
  5
5C4
100
AcDbEntity
  8
0
100
AcDbPolyline
 62
9
  6
CONTINUOUS
 90
8
 70
0
 10
7.7026847499
 20
7.2295314662
 10
7.704124892
 20
7.1773134829
 10
7.705565034
 20
7.1300428598
 10
7.707005176
 20
7.0888272321
 10
7.7084453181
 20
7.0546323557
 10
7.7098854601
 20
7.0282594778
 10
7.7113256021
 20
7.010326562
 10
7.7127657442
 20
7.0012538087
  0
LWPOLYLINE
  5
5C5
100
AcDbEntity
  8
0
100
AcDbPolyline
 62
9
  6
CONTINUOUS
 90
7
 70
0
 10
7.7060942988
 20
7.2295314662
 10
7.7075344408
 20
7.1773134829
 10
7.7089745828
 20
7.1300428598
 10
7.7104147249
 20
7.0888272321
 10
7.7118548669
 20
7.0546323557
 10
7.7132950089
 20
7.0282594778
 10
7.714735151
 20
7.010326562
  0
LINE
  5
5C6
100
AcDbEntity
  8
0
100
AcDbLine
 62
7
  6
CONTINUOUS
 10
7.6352299597
 20
7.9396333953
 11
7.6352299597
 21
6.8372711905
  0
LINE
  5
5C7
100
AcDbEntity
  8
0
100
AcDbLine
 62
9
  6
CONTINUOUS
 10
7.6549149991
 20
6.9583341827
 11
7.6549149991
 21
7.8185704031
  0
LINE
  5
5C8
100
AcDbEntity
  8
0
100
AcDbLine
 62
7
  6
CONTINUOUS
 10
7.923211703
 20
7.776478228
 11
7.9232023934
 21
7.7764617852
  0
LINE
  5
5C9
100
AcDbEntity
  8
0
100
AcDbLine
 62
7
  6
CONTINUOUS
 10
7.8882995901
 20
7.8182626573
 11
7.8641393806
 21
7.7764491055
  0
LINE
  5
5CA
100
AcDbEntity
  8
0
100
AcDbLine
 62
7
  6
CONTINUOUS
 10
7.9473547082
 20
7.8182626573
 11
7.9231944988
 21
7.7764491055
  0
LINE
  5
5CB
100
AcDbEntity
  8
0
100
AcDbLine
 62
7
  6
CONTINUOUS
 10
7.9231944988
 20
7.7764491055
 11
7.923211703
 21
7.776478228
  0
LINE
  5
5CC
100
AcDbEntity
  8
0
100
AcDbLine
 62
7
  6
CONTINUOUS
 10
7.8641393806
 20
7.7764491055
 11
7.8641571941
 21
7.7764792355
  0
LWPOLYLINE
  5
5CD
100
AcDbEntity
  8
0
100
AcDbPolyline
 62
7
  6
CONTINUOUS
 90
4
 70
0
 10
7.8641571941
 20
7.7764792355
 10
7.8641177592
 20
7.7764167851
 10
7.8625581036
 20
7.7758286412
 10
7.8618354398
 20
7.7761271364
  0
LINE
  5
5CE
100
AcDbEntity
  8
0
100
AcDbLine
 62
7
  6
CONTINUOUS
 10
8.1245200625
 20
7.8182626573
 11
8.1248750746
 21
7.8185704024
  0
LINE
  5
5CF
100
AcDbEntity
  8
0
100
AcDbLine
 62
7
  6
CONTINUOUS
 10
8.1839307473
 20
7.8185704031
 11
8.1835751806
 21
7.8182626573
  0
LINE
  5
5D0
100
AcDbEntity
  8
0
100
AcDbLine
 62
7
  6
CONTINUOUS
 10
8.3007811408
 20
7.3634522929
 11
8.2914061408
 21
7.3634522929
  0
LINE
  5
5D1
100
AcDbEntity
  8
0
100
AcDbLine
 62
7
  6
CONTINUOUS
 10
8.2601561408
 20
7.3634522929
 11
8.2507811408
 21
7.3634522929
  0
LINE
  5
5D2
100
AcDbEntity
  8
0
100
AcDbLine
 62
7
  6
CONTINUOUS
 10
8.1544031874
 20
6.9583341827
 11
8.1540476216
 21
6.9586419285
  0
LINE
  5
5D3
100
AcDbEntity
  8
0
100
AcDbLine
 62
7
  6
CONTINUOUS
 10
8.0949925034
 20
6.9586419285
 11
8.0953474987
 21
6.9583341835
  0
LWPOLYLINE
  5
5D4
100
AcDbEntity
  8
0
100
AcDbPolyline
 62
7
  6
CONTINUOUS
 90
3
 70
0
 10
7.9178271491
 20
6.9586419285
 10
7.9179658263
 20
6.9584486969
 10
7.9181831414
 20
6.9583341831
  0
LWPOLYLINE
  5
5D5
100
AcDbEntity
  8
0
100
AcDbPolyline
 62
7
  6
CONTINUOUS
 90
8
 70
0
 10
7.9255846259
 20
6.9583341829
 10
7.9248934805
 20
6.9594954281
 10
7.9234999912
 20
6.9688669384
 10
7.9221120535
 20
6.9873527621
 10
7.9207071537
 20
7.0149535986
 10
7.9192906351
 20
7.0512136346
 10
7.9178780811
 20
7.0949864785
 10
7.916485393
 20
7.144625843
  0
LINE
  5
5D6
100
AcDbEntity
  8
0
100
AcDbLine
 62
7
  6
CONTINUOUS
 10
7.8936669397
 20
7.0004554802
 11
7.8936871467
 21
7.0004214082
  0
LINE
  5
5D7
100
AcDbEntity
  8
0
100
AcDbLine
 62
7
  6
CONTINUOUS
 10
7.8346118216
 20
7.0004554802
 11
7.858772031
 21
6.9586419285
  0
LINE
  5
5D8
100
AcDbEntity
  8
0
100
AcDbLine
 62
7
  6
CONTINUOUS
 10
7.8936669397
 20
7.0004554802
 11
7.9178271491
 21
6.9586419285
  0
LINE
  5
5D9
100
AcDbEntity
  8
0
100
AcDbLine
 62
7
  6
CONTINUOUS
 10
7.8345991553
 20
7.000477752
 11
7.8346118216
 21
7.0004554802
  0
LINE
  5
5DA
100
AcDbEntity
  8
0
100
AcDbLine
 62
9
  6
CONTINUOUS
 10
7.7752304111
 20
7.0012538087
 11
7.7755567035
 21
7.0004554802
  0
LWPOLYLINE
  5
5DB
100
AcDbEntity
  8
0
100
AcDbPolyline
 62
7
  6
CONTINUOUS
 90
4
 70
0
 10
7.7319184638
 20
7.144625843
 10
7.7222769656
 20
7.1736441948
 10
7.7136587316
 20
7.2019514844
 10
7.7060942988
 20
7.2295314662
  0
LWPOLYLINE
  5
5DC
100
AcDbEntity
  8
0
100
AcDbPolyline
 62
7
  6
CONTINUOUS
 90
10
 70
0
 10
7.7060942988
 20
7.2295314662
 10
7.7058315938
 20
7.2303439893
 10
7.7055008854
 20
7.2310258321
 10
7.705091829
 20
7.2315703992
 10
7.7045852152
 20
7.2319098275
 10
7.7040341971
 20
7.2318893115
 10
7.7035725279
 20
7.2315439523
 10
7.703206724
 20
7.2310160941
 10
7.7029101773
 20
7.230340134
 10
7.7026847499
 20
7.2295314662
  0
LWPOLYLINE
  5
5DD
100
AcDbEntity
  8
0
100
AcDbPolyline
 62
9
  6
CONTINUOUS
 90
3
 70
0
 10
7.714735151
 20
7.010326562
 10
7.716175293
 20
7.0012538087
 10
7.7165015854
 20
7.0004554802
  0
LWPOLYLINE
  5
5DE
100
AcDbEntity
  8
0
100
AcDbPolyline
 62
7
  6
CONTINUOUS
 90
8
 70
0
 10
7.7278516392
 20
7.6374784555
 10
7.7264776435
 20
7.685906921
 10
7.7250911438
 20
7.7283408974
 10
7.7237074066
 20
7.763329908
 10
7.7223380408
 20
7.789972912
 10
7.7209672132
 20
7.8081226609
 10
7.7195760078
 20
7.8174298299
 10
7.7192469435
 20
7.8182626573
  0
LWPOLYLINE
  5
5DF
100
AcDbEntity
  8
0
100
AcDbPolyline
 62
7
  6
CONTINUOUS
 90
8
 70
0
 10
7.7319184638
 20
7.144625843
 10
7.7333113644
 20
7.0949793736
 10
7.7347114812
 20
7.0515611539
 10
7.7361042572
 20
7.0157726091
 10
7.737495004
 20
6.9881866543
 10
7.7388880724
 20
6.9693245778
 10
7.7403012854
 20
6.9595818832
 10
7.7406617948
 20
6.9586419285
  0
LWPOLYLINE
  5
5E0
100
AcDbEntity
  8
0
100
AcDbPolyline
 62
7
  6
CONTINUOUS
 90
8
 70
0
 10
7.7909735819
 20
7.144625843
 10
7.79236247
 20
7.0951136408
 10
7.793753379
 20
7.0519376146
 10
7.7951430938
 20
7.0161451487
 10
7.7965367681
 20
6.9884107575
 10
7.7979281545
 20
6.9694796679
 10
7.7993391645
 20
6.9596426507
 10
7.7997169129
 20
6.9586419285
  0
LWPOLYLINE
  5
5E1
100
AcDbEntity
  8
0
100
AcDbPolyline
 62
9
  6
CONTINUOUS
 90
8
 70
0
 10
7.761739868
 20
7.2295314662
 10
7.7631800101
 20
7.1773134829
 10
7.7646201521
 20
7.1300428598
 10
7.7660602941
 20
7.0888272321
 10
7.7675004362
 20
7.0546323557
 10
7.7689405782
 20
7.0282594778
 10
7.7703807203
 20
7.010326562
 10
7.7718208623
 20
7.0012538087
  0
LWPOLYLINE
  5
5E2
100
AcDbEntity
  8
0
100
AcDbPolyline
 62
9
  6
CONTINUOUS
 90
8
 70
0
 10
7.7651494169
 20
7.2295314662
 10
7.7665895589
 20
7.1773134829
 10
7.7680297009
 20
7.1300428598
 10
7.769469843
 20
7.0888272321
 10
7.770909985
 20
7.0546323557
 10
7.7723501271
 20
7.0282594778
 10
7.7737902691
 20
7.010326562
 10
7.7752304111
 20
7.0012538087
  0
LWPOLYLINE
  5
5E3
100
AcDbEntity
  8
0
100
AcDbPolyline
 62
7
  6
CONTINUOUS
 90
3
 70
0
 10
7.6821631422
 20
7.1508232086
 10
7.6807750528
 20
7.1447712286
 10
7.6804035558
 20
7.1394261303
  0
LWPOLYLINE
  5
5E4
100
AcDbEntity
  8
0
100
AcDbPolyline
 62
7
  6
CONTINUOUS
 90
4
 70
0
 10
7.7026847499
 20
7.2295314662
 10
7.6967896889
 20
7.2039241952
 10
7.6899425085
 20
7.177680954
 10
7.6821631422
 20
7.1508232086
  0
LWPOLYLINE
  5
5E5
100
AcDbEntity
  8
0
100
AcDbPolyline
 62
7
  6
CONTINUOUS
 90
4
 70
0
 10
7.7572239884
 20
7.5473731196
 10
7.7636061394
 20
7.5749526091
 10
7.7710880138
 20
7.6032625415
 10
7.7796438178
 20
7.6322787428
  0
LWPOLYLINE
  5
5E6
100
AcDbEntity
  8
0
100
AcDbPolyline
 62
7
  6
CONTINUOUS
 90
4
 70
0
 10
7.8162791065
 20
7.5473731196
 10
7.8226612576
 20
7.5749526091
 10
7.8301431319
 20
7.6032625415
 10
7.8386989359
 20
7.6322787428
  0
LINE
  5
5E7
100
AcDbEntity
  8
0
100
AcDbLine
 62
7
  6
CONTINUOUS
 10
8.0064098263
 20
7.8182626573
 11
7.9822496169
 21
7.7764491055
  0
LINE
  5
5E8
100
AcDbEntity
  8
0
100
AcDbLine
 62
7
  6
CONTINUOUS
 10
7.9822654163
 20
7.7764758988
 11
7.9822446936
 21
7.7764409512
  0
LWPOLYLINE
  5
5E9
100
AcDbEntity
  8
0
100
AcDbPolyline
 62
7
  6
CONTINUOUS
 90
4
 70
0
 10
8.1003843174
 20
7.7764901274
 10
8.1001412778
 20
7.7762086159
 10
8.0982192746
 20
7.7760266176
 10
8.0977437394
 20
7.7764388579
  0
LINE
  5
5EA
100
AcDbEntity
  8
0
100
AcDbLine
 62
7
  6
CONTINUOUS
 10
8.2507811408
 20
7.4134522929
 11
8.2570311408
 21
7.4134522929
  0
LINE
  5
5EB
100
AcDbEntity
  8
0
100
AcDbLine
 62
7
  6
CONTINUOUS
 10
8.2716144736
 20
7.4134522929
 11
8.2799478065
 21
7.4134522929
  0
LINE
  5
5EC
100
AcDbEntity
  8
0
100
AcDbLine
 62
7
  6
CONTINUOUS
 10
8.2945311408
 20
7.4134522929
 11
8.3007811408
 21
7.4134522929
  0
LINE
  5
5ED
100
AcDbEntity
  8
0
100
AcDbLine
 62
7
  6
CONTINUOUS
 10
7.9527220578
 20
7.0004554802
 11
7.9527415367
 21
7.0004226047
  0
LINE
  5
5EE
100
AcDbEntity
  8
0
100
AcDbLine
 62
7
  6
CONTINUOUS
 10
8.0117771759
 20
7.0004554802
 11
8.0117953455
 21
7.0004247622
  0
LWPOLYLINE
  5
5EF
100
AcDbEntity
  8
0
100
AcDbPolyline
 62
7
  6
CONTINUOUS
 90
8
 70
0
 10
7.9846389867
 20
6.9583341831
 10
7.98394126
 20
6.9595202198
 10
7.9825538536
 20
6.9688795808
 10
7.9811671411
 20
6.9873532664
 10
7.9797622217
 20
7.0149547345
 10
7.9783457831
 20
7.0512127863
 10
7.9769333179
 20
7.0949825081
 10
7.9755405111
 20
7.144625843
  0
LINE
  5
5F0
100
AcDbEntity
  8
0
100
AcDbLine
 62
7
  6
CONTINUOUS
 10
7.9527220578
 20
7.0004554802
 11
7.9768822672
 21
6.9586419285
  0
LINE
  5
5F1
100
AcDbEntity
  8
0
100
AcDbLine
 62
7
  6
CONTINUOUS
 10
8.0117771759
 20
7.0004554802
 11
8.0359373853
 21
6.9586419285
  0
LINE
  5
5F2
100
AcDbEntity
  8
0
100
AcDbLine
 62
9
  6
CONTINUOUS
 10
7.8931675282
 20
7.0018669129
 11
7.8936669397
 21
7.0004554802
  0
LWPOLYLINE
  5
5F3
100
AcDbEntity
  8
0
100
AcDbPolyline
 62
7
  6
CONTINUOUS
 90
4
 70
0
 10
7.7909735819
 20
7.144625843
 10
7.7813320837
 20
7.1736441948
 10
7.7727138497
 20
7.2019514844
 10
7.7651494169
 20
7.2295314662
  0
LWPOLYLINE
  5
5F4
100
AcDbEntity
  8
0
100
AcDbPolyline
 62
7
  6
CONTINUOUS
 90
4
 70
0
 10
7.8500287
 20
7.144625843
 10
7.8403872018
 20
7.1736441948
 10
7.8317689678
 20
7.2019514844
 10
7.824204535
 20
7.2295314662
  0
LWPOLYLINE
  5
5F5
100
AcDbEntity
  8
0
100
AcDbPolyline
 62
7
  6
CONTINUOUS
 90
10
 70
0
 10
7.7651494169
 20
7.2295314662
 10
7.7648867119
 20
7.2303439893
 10
7.7645560035
 20
7.2310258321
 10
7.7641469471
 20
7.2315703992
 10
7.7636403333
 20
7.2319098275
 10
7.7630893152
 20
7.2318893115
 10
7.762627646
 20
7.2315439523
 10
7.7622618421
 20
7.2310160941
 10
7.7619652954
 20
7.230340134
 10
7.761739868
 20
7.2295314662
  0
LWPOLYLINE
  5
5F6
100
AcDbEntity
  8
0
100
AcDbPolyline
 62
7
  6
CONTINUOUS
 90
10
 70
0
 10
7.824204535
 20
7.2295314662
 10
7.82394183
 20
7.2303439893
 10
7.8236111216
 20
7.2310258321
 10
7.8232020652
 20
7.2315703992
 10
7.8226954514
 20
7.2319098275
 10
7.8221444333
 20
7.2318893115
 10
7.8216827641
 20
7.2315439523
 10
7.8213169602
 20
7.2310160941
 10
7.8210204135
 20
7.230340134
 10
7.8207949861
 20
7.2295314662
  0
LWPOLYLINE
  5
5F7
100
AcDbEntity
  8
0
100
AcDbPolyline
 62
9
  6
CONTINUOUS
 90
6
 70
0
 10
7.6352299597
 20
7.6488755339
 10
7.6361934141
 20
7.645353643
 10
7.6389894677
 20
7.6421764993
 10
7.6433444232
 20
7.6396551038
 10
7.6488319874
 20
7.6380362683
 10
7.6549149991
 20
7.6374784555
  0
LWPOLYLINE
  5
5F8
100
AcDbEntity
  8
0
100
AcDbPolyline
 62
7
  6
CONTINUOUS
 90
3
 70
0
 10
7.7278516392
 20
7.6374784555
 10
7.7284786494
 20
7.6321503666
 10
7.7301134478
 20
7.6260813772
  0
LWPOLYLINE
  5
5F9
100
AcDbEntity
  8
0
100
AcDbPolyline
 62
9
  6
CONTINUOUS
 90
6
 70
0
 10
7.8824490698
 20
7.1388337046
 10
7.8839108517
 20
7.0957661984
 10
7.8853726336
 20
7.0597640853
 10
7.8868344156
 20
7.0316964501
 10
7.8882961975
 20
7.012240841
 10
7.8897579794
 20
7.0018669129
  0
LWPOLYLINE
  5
5FA
100
AcDbEntity
  8
0
100
AcDbPolyline
 62
7
  6
CONTINUOUS
 90
8
 70
0
 10
7.7870453926
 20
7.6322787428
 10
7.7856526645
 20
7.6819194415
 10
7.7842407859
 20
7.7256728991
 10
7.7828253736
 20
7.7619114516
 10
7.7814217843
 20
7.7895013665
 10
7.780031715
 20
7.8080283794
 10
7.778622169
 20
7.8174594656
 10
7.7783020616
 20
7.8182626573
  0
LWPOLYLINE
  5
5FB
100
AcDbEntity
  8
0
100
AcDbPolyline
 62
7
  6
CONTINUOUS
 90
8
 70
0
 10
7.8500287
 20
7.144625843
 10
7.8514142455
 20
7.0952255308
 10
7.8528015263
 20
7.0521363826
 10
7.8541998352
 20
7.0161079559
 10
7.855596932
 20
6.9883259853
 10
7.8569869351
 20
6.9694417919
 10
7.8583940119
 20
6.9596436165
 10
7.858772031
 20
6.9586419285
  0
LWPOLYLINE
  5
5FC
100
AcDbEntity
  8
0
100
AcDbPolyline
 62
7
  6
CONTINUOUS
 90
3
 70
0
 10
7.8583270726
 20
7.1119777009
 10
7.8578797276
 20
7.1279670597
 10
7.8574302748
 20
7.144625843
  0
LWPOLYLINE
  5
5FD
100
AcDbEntity
  8
0
100
AcDbPolyline
 62
7
  6
CONTINUOUS
 90
8
 70
0
 10
7.8461005107
 20
7.6322787428
 10
7.8447065475
 20
7.6819607624
 10
7.8432928763
 20
7.7257588883
 10
7.8418751769
 20
7.7620320511
 10
7.8404690145
 20
7.7896316755
 10
7.8390824379
 20
7.8080725918
 10
7.8376875505
 20
7.8174254746
 10
7.8373571797
 20
7.8182626573
  0
LWPOLYLINE
  5
5FE
100
AcDbEntity
  8
0
100
AcDbPolyline
 62
9
  6
CONTINUOUS
 90
9
 70
0
 10
7.8207949861
 20
7.2295314662
 10
7.8222351282
 20
7.1773134829
 10
7.8236752702
 20
7.1300428598
 10
7.8251154123
 20
7.0888272321
 10
7.8265555543
 20
7.0546323557
 10
7.8279956963
 20
7.0282594778
 10
7.8294358384
 20
7.010326562
 10
7.8308759804
 20
7.0012538087
 10
7.8319774457
 20
7.0004343855
  0
LWPOLYLINE
  5
5FF
100
AcDbEntity
  8
0
100
AcDbPolyline
 62
9
  6
CONTINUOUS
 90
9
 70
0
 10
7.824204535
 20
7.2295314662
 10
7.825644677
 20
7.1773134829
 10
7.8270848191
 20
7.1300428598
 10
7.8285249611
 20
7.0888272321
 10
7.8299651031
 20
7.0546323557
 10
7.8314052452
 20
7.0282594778
 10
7.8328453872
 20
7.010326562
 10
7.8342855292
 20
7.0012538087
 10
7.8345991553
 20
7.000477752
  0
LWPOLYLINE
  5
600
100
AcDbEntity
  8
0
100
AcDbPolyline
 62
7
  6
CONTINUOUS
 90
4
 70
0
 10
7.761739868
 20
7.2295314662
 10
7.7553587418
 20
7.2019561069
 10
7.7478769919
 20
7.1736461504
 10
7.7393200386
 20
7.144625843
  0
LWPOLYLINE
  5
601
100
AcDbEntity
  8
0
100
AcDbPolyline
 62
7
  6
CONTINUOUS
 90
4
 70
0
 10
7.8753342246
 20
7.5473731196
 10
7.8817163757
 20
7.5749526091
 10
7.8891982501
 20
7.6032625415
 10
7.897754054
 20
7.6322787428
  0
LWPOLYLINE
  5
602
100
AcDbEntity
  8
0
100
AcDbPolyline
 62
7
  6
CONTINUOUS
 90
4
 70
0
 10
7.8207949861
 20
7.2295314662
 10
7.8144138599
 20
7.2019561069
 10
7.80693211
 20
7.1736461504
 10
7.7983751567
 20
7.144625843
  0
LINE
  5
603
100
AcDbEntity
  8
0
100
AcDbLine
 62
7
  6
CONTINUOUS
 10
8.0654649444
 20
7.8182626573
 11
8.041304735
 21
7.7764491055
  0
LINE
  5
604
100
AcDbEntity
  8
0
100
AcDbLine
 62
7
  6
CONTINUOUS
 10
8.1245200625
 20
7.8182626573
 11
8.1003598531
 21
7.7764491055
  0
LINE
  5
605
100
AcDbEntity
  8
0
100
AcDbLine
 62
7
  6
CONTINUOUS
 10
8.041304735
 20
7.7764491055
 11
8.0413238814
 21
7.776481434
  0
LINE
  5
606
100
AcDbEntity
  8
0
100
AcDbLine
 62
7
  6
CONTINUOUS
 10
8.1003598531
 20
7.7764491055
 11
8.1003843174
 21
7.7764901274
  0
LWPOLYLINE
  5
607
100
AcDbEntity
  8
0
100
AcDbPolyline
 62
7
  6
CONTINUOUS
 90
4
 70
0
 10
8.1594394355
 20
7.7764901274
 10
8.159196396
 20
7.7762086159
 10
8.1572743927
 20
7.7760266176
 10
8.1567988575
 20
7.7764388579
  0
LINE
  5
608
100
AcDbEntity
  8
0
100
AcDbLine
 62
9
  6
CONTINUOUS
 10
8.1864110621
 20
7.5049105563
 11
8.2257811408
 21
7.5049105563
  0
LINE
  5
609
100
AcDbEntity
  8
0
100
AcDbLine
 62
9
  6
CONTINUOUS
 10
8.1864110621
 20
7.5113804599
 11
8.2060961014
 21
7.5113804599
  0
LWPOLYLINE
  5
60A
100
AcDbEntity
  8
0
100
AcDbPolyline
 62
9
  6
CONTINUOUS
 90
6
 70
0
 10
8.2060961014
 20
7.5113804599
 10
8.2121782106
 20
7.5110638966
 10
8.2176661819
 20
7.5101449365
 10
8.2220214708
 20
7.5087135435
 10
8.2248176438
 20
7.5069099096
 10
8.2257811408
 20
7.5049105563
  0
LWPOLYLINE
  5
60B
100
AcDbEntity
  8
0
100
AcDbPolyline
 62
7
  6
CONTINUOUS
 90
8
 70
0
 10
8.1027494405
 20
6.9583341828
 10
8.1020719649
 20
6.9594517234
 10
8.1006671034
 20
6.9688492516
 10
8.0992791457
 20
6.9873240515
 10
8.0978737572
 20
7.0149252509
 10
8.0964568697
 20
7.0511886349
 10
8.0950439605
 20
7.0949689149
 10
8.0936507473
 20
7.144625843
  0
LINE
  5
60C
100
AcDbEntity
  8
0
100
AcDbLine
 62
7
  6
CONTINUOUS
 10
8.070832294
 20
7.0004554802
 11
8.0708567584
 21
7.0004144584
  0
LINE
  5
60D
100
AcDbEntity
  8
0
100
AcDbLine
 62
7
  6
CONTINUOUS
 10
8.1298874121
 20
7.0004554802
 11
8.1299118765
 21
7.0004144584
  0
LINE
  5
60E
100
AcDbEntity
  8
0
100
AcDbLine
 62
7
  6
CONTINUOUS
 10
8.070832294
 20
7.0004554802
 11
8.0949925034
 21
6.9586419285
  0
LINE
  5
60F
100
AcDbEntity
  8
0
100
AcDbLine
 62
9
  6
CONTINUOUS
 10
8.0114508836
 20
7.0012538087
 11
8.0117771759
 21
7.0004554802
  0
LWPOLYLINE
  5
610
100
AcDbEntity
  8
0
100
AcDbPolyline
 62
7
  6
CONTINUOUS
 90
4
 70
0
 10
7.9090838181
 20
7.144625843
 10
7.8994423199
 20
7.1736441948
 10
7.890824086
 20
7.2019514844
 10
7.8832596531
 20
7.2295314662
  0
LWPOLYLINE
  5
611
100
AcDbEntity
  8
0
100
AcDbPolyline
 62
7
  6
CONTINUOUS
 90
4
 70
0
 10
7.7870453926
 20
7.6322787428
 10
7.7966881697
 20
7.6032563781
 10
7.8053062938
 20
7.5749490657
 10
7.8128695576
 20
7.5473731196
  0
LWPOLYLINE
  5
612
100
AcDbEntity
  8
0
100
AcDbPolyline
 62
7
  6
CONTINUOUS
 90
4
 70
0
 10
7.7301134478
 20
7.6260813772
 10
7.738910747
 20
7.5992223642
 10
7.746819078
 20
7.5729813662
 10
7.7538144395
 20
7.5473731196
  0
LWPOLYLINE
  5
613
100
AcDbEntity
  8
0
100
AcDbPolyline
 62
7
  6
CONTINUOUS
 90
10
 70
0
 10
7.8832596531
 20
7.2295314662
 10
7.8829969481
 20
7.2303439893
 10
7.8826662397
 20
7.2310258321
 10
7.8822571833
 20
7.2315703992
 10
7.8817505695
 20
7.2319098275
 10
7.8811995514
 20
7.2318893115
 10
7.8807378822
 20
7.2315439523
 10
7.8803720783
 20
7.2310160941
 10
7.8800755316
 20
7.230340134
 10
7.8798501043
 20
7.2295314662
  0
LWPOLYLINE
  5
614
100
AcDbEntity
  8
0
100
AcDbPolyline
 62
7
  6
CONTINUOUS
 90
10
 70
0
 10
7.7538144395
 20
7.5473731196
 10
7.7540687271
 20
7.5465818949
 10
7.7543853821
 20
7.5459170785
 10
7.7547707181
 20
7.5453825578
 10
7.7552633185
 20
7.5450173145
 10
7.755825361
 20
7.5449965279
 10
7.7563296803
 20
7.5453534719
 10
7.7567227564
 20
7.5459270369
 10
7.7570119869
 20
7.5466029919
 10
7.7572239884
 20
7.5473731196
  0
LWPOLYLINE
  5
615
100
AcDbEntity
  8
0
100
AcDbPolyline
 62
7
  6
CONTINUOUS
 90
10
 70
0
 10
7.8128695576
 20
7.5473731196
 10
7.8131238452
 20
7.5465818949
 10
7.8134405002
 20
7.5459170785
 10
7.8138258362
 20
7.5453825578
 10
7.8143184366
 20
7.5450173145
 10
7.8148804791
 20
7.5449965279
 10
7.8153847985
 20
7.5453534719
 10
7.8157778745
 20
7.5459270369
 10
7.816067105
 20
7.5466029919
 10
7.8162791065
 20
7.5473731196
  0
LWPOLYLINE
  5
616
100
AcDbEntity
  8
0
100
AcDbPolyline
 62
9
  6
CONTINUOUS
 90
8
 70
0
 10
7.8027885634
 20
7.7756507771
 10
7.8042287054
 20
7.7665780238
 10
7.8056688475
 20
7.748645108
 10
7.8071089895
 20
7.7222722301
 10
7.8085491315
 20
7.6880773537
 10
7.8099892736
 20
7.646861726
 10
7.8114294156
 20
7.5995911028
 10
7.8128695576
 20
7.5473731196
  0
LWPOLYLINE
  5
617
100
AcDbEntity
  8
0
100
AcDbPolyline
 62
9
  6
CONTINUOUS
 90
6
 70
0
 10
7.8858586186
 20
7.1388337046
 10
7.8873204006
 20
7.0957661984
 10
7.8887821825
 20
7.0597640853
 10
7.8902439644
 20
7.0316964501
 10
7.8917057463
 20
7.012240841
 10
7.8931675282
 20
7.0018669129
  0
LWPOLYLINE
  5
618
100
AcDbEntity
  8
0
100
AcDbPolyline
 62
7
  6
CONTINUOUS
 90
7
 70
0
 10
7.9099806159
 20
7.1119777009
 10
7.9113072067
 20
7.0683761141
 10
7.912646467
 20
7.0308178638
 10
7.9139847076
 20
7.0005287867
 10
7.9153085614
 20
6.9782884405
 10
7.9166343835
 20
6.9641572027
 10
7.9178271491
 20
6.9586419285
  0
LWPOLYLINE
  5
619
100
AcDbEntity
  8
0
100
AcDbPolyline
 62
7
  6
CONTINUOUS
 90
8
 70
0
 10
7.9051556288
 20
7.6322787428
 10
7.9037627315
 20
7.6819251039
 10
7.902350173
 20
7.725697019
 10
7.9009335755
 20
7.7619576267
 10
7.8995284424
 20
7.7895605131
 10
7.8981419716
 20
7.8080281739
 10
7.8967563044
 20
7.817379523
 10
7.8964122978
 20
7.8182626573
  0
LWPOLYLINE
  5
61A
100
AcDbEntity
  8
0
100
AcDbPolyline
 62
9
  6
CONTINUOUS
 90
8
 70
0
 10
7.9389052224
 20
7.2295314662
 10
7.9403453644
 20
7.1773134829
 10
7.9417855064
 20
7.1300428598
 10
7.9432256485
 20
7.0888272321
 10
7.9446657905
 20
7.0546323557
 10
7.9461059326
 20
7.0282594778
 10
7.9475460746
 20
7.010326562
 10
7.9489862166
 20
7.0012538087
  0
LWPOLYLINE
  5
61B
100
AcDbEntity
  8
0
100
AcDbPolyline
 62
9
  6
CONTINUOUS
 90
7
 70
0
 10
7.9423147712
 20
7.2295314662
 10
7.9437549132
 20
7.1773134829
 10
7.9451950553
 20
7.1300428598
 10
7.9466351973
 20
7.0888272321
 10
7.9480753393
 20
7.0546323557
 10
7.9495154814
 20
7.0282594778
 10
7.9509556234
 20
7.010326562
  0
LWPOLYLINE
  5
61C
100
AcDbEntity
  8
0
100
AcDbPolyline
 62
9
  6
CONTINUOUS
 90
3
 70
0
 10
7.8798501043
 20
7.2295314662
 10
7.881149587
 20
7.1822145545
 10
7.8824490698
 20
7.1388337046
  0
LWPOLYLINE
  5
61D
100
AcDbEntity
  8
0
100
AcDbPolyline
 62
9
  6
CONTINUOUS
 90
3
 70
0
 10
7.8832596531
 20
7.2295314662
 10
7.8845591359
 20
7.1822145545
 10
7.8858586186
 20
7.1388337046
  0
LWPOLYLINE
  5
61E
100
AcDbEntity
  8
0
100
AcDbPolyline
 62
7
  6
CONTINUOUS
 90
3
 70
0
 10
7.9090838181
 20
7.144625843
 10
7.9095332709
 20
7.1279670597
 10
7.9099806159
 20
7.1119777009
  0
LWPOLYLINE
  5
61F
100
AcDbEntity
  8
0
100
AcDbPolyline
 62
7
  6
CONTINUOUS
 90
4
 70
0
 10
7.9343893427
 20
7.5473731196
 10
7.9407564586
 20
7.5748920087
 10
7.9482369515
 20
7.6032038851
 10
7.9568091721
 20
7.6322787428
  0
LWPOLYLINE
  5
620
100
AcDbEntity
  8
0
100
AcDbPolyline
 62
7
  6
CONTINUOUS
 90
4
 70
0
 10
7.8798501043
 20
7.2295314662
 10
7.873468978
 20
7.2019561069
 10
7.8659872281
 20
7.1736461504
 10
7.8574302748
 20
7.144625843
  0
LWPOLYLINE
  5
621
100
AcDbEntity
  8
0
100
AcDbPolyline
 62
7
  6
CONTINUOUS
 90
4
 70
0
 10
7.9934444608
 20
7.5473731196
 10
7.9998348632
 20
7.5749858592
 10
8.0073189805
 20
7.6033000303
 10
8.0158642902
 20
7.6322787428
  0
LINE
  5
622
100
AcDbEntity
  8
0
100
AcDbLine
 62
7
  6
CONTINUOUS
 10
7.7138795939
 20
7.0004554803
 11
7.7139099409
 21
7.000510019
  0
LINE
  5
623
100
AcDbEntity
  8
0
100
AcDbLine
 62
7
  6
CONTINUOUS
 10
7.772934712
 20
7.0004554803
 11
7.7729596211
 21
7.0004999488
  0
LINE
  5
624
100
AcDbEntity
  8
0
100
AcDbLine
 62
7
  6
CONTINUOUS
 10
8.1835751806
 20
7.8182626573
 11
8.1594149712
 21
7.7764491055
  0
LINE
  5
625
100
AcDbEntity
  8
0
100
AcDbLine
 62
7
  6
CONTINUOUS
 10
7.6897193844
 20
6.9586419285
 11
7.7138795939
 21
7.0004554803
  0
LINE
  5
626
100
AcDbEntity
  8
0
100
AcDbLine
 62
7
  6
CONTINUOUS
 10
7.7487745026
 20
6.9586419285
 11
7.772934712
 21
7.0004554803
  0
LINE
  5
627
100
AcDbEntity
  8
0
100
AcDbLine
 62
7
  6
CONTINUOUS
 10
8.1594149712
 20
7.7764491055
 11
8.1594394355
 21
7.7764901274
  0
LINE
  5
628
100
AcDbEntity
  8
0
100
AcDbLine
 62
7
  6
CONTINUOUS
 10
8.7757811408
 20
7.5921924504
 11
8.8151512195
 21
7.5921924504
  0
LINE
  5
629
100
AcDbEntity
  8
0
100
AcDbLine
 62
7
  6
CONTINUOUS
 10
8.4815311343
 20
7.6244522929
 11
8.474531133
 21
7.6244522929
  0
LINE
  5
62A
100
AcDbEntity
  8
0
100
AcDbLine
 62
7
  6
CONTINUOUS
 10
8.4425311325
 20
7.6244522929
 11
8.4257811408
 21
7.6244522929
  0
LINE
  5
62B
100
AcDbEntity
  8
0
100
AcDbLine
 62
7
  6
CONTINUOUS
 10
8.5135311355
 20
7.6244522929
 11
8.5205311534
 21
7.6244522929
  0
LINE
  5
62C
100
AcDbEntity
  8
0
100
AcDbLine
 62
7
  6
CONTINUOUS
 10
8.5525311538
 20
7.6244522929
 11
8.5595311322
 21
7.6244522929
  0
LINE
  5
62D
100
AcDbEntity
  8
0
100
AcDbLine
 62
7
  6
CONTINUOUS
 10
8.5915311328
 20
7.6244522929
 11
8.5985311344
 21
7.6244522929
  0
LINE
  5
62E
100
AcDbEntity
  8
0
100
AcDbLine
 62
7
  6
CONTINUOUS
 10
8.6305311357
 20
7.6244522929
 11
8.6375311534
 21
7.6244522929
  0
LINE
  5
62F
100
AcDbEntity
  8
0
100
AcDbLine
 62
7
  6
CONTINUOUS
 10
8.6695311539
 20
7.6244522929
 11
8.676531132
 21
7.6244522929
  0
LINE
  5
630
100
AcDbEntity
  8
0
100
AcDbLine
 62
7
  6
CONTINUOUS
 10
8.7085311326
 20
7.6244522929
 11
8.7155311346
 21
7.6244522929
  0
LINE
  5
631
100
AcDbEntity
  8
0
100
AcDbLine
 62
7
  6
CONTINUOUS
 10
8.7475311358
 20
7.6244522929
 11
8.7545311535
 21
7.6244522929
  0
LINE
  5
632
100
AcDbEntity
  8
0
100
AcDbLine
 62
9
  6
CONTINUOUS
 10
7.6352299597
 20
7.6260813772
 11
7.7301134478
 21
7.6260813772
  0
LINE
  5
633
100
AcDbEntity
  8
0
100
AcDbLine
 62
7
  6
CONTINUOUS
 10
7.7796438178
 20
7.6322787428
 11
7.7870453926
 21
7.6322787428
  0
LINE
  5
634
100
AcDbEntity
  8
0
100
AcDbLine
 62
7
  6
CONTINUOUS
 10
7.8386989359
 20
7.6322787428
 11
7.8461005107
 21
7.6322787428
  0
LINE
  5
635
100
AcDbEntity
  8
0
100
AcDbLine
 62
7
  6
CONTINUOUS
 10
7.897754054
 20
7.6322787428
 11
7.9051556288
 21
7.6322787428
  0
LINE
  5
636
100
AcDbEntity
  8
0
100
AcDbLine
 62
7
  6
CONTINUOUS
 10
7.9568091721
 20
7.6322787428
 11
7.9642107469
 21
7.6322787428
  0
LINE
  5
637
100
AcDbEntity
  8
0
100
AcDbLine
 62
7
  6
CONTINUOUS
 10
8.0158642902
 20
7.6322787428
 11
8.023265865
 21
7.6322787428
  0
LINE
  5
638
100
AcDbEntity
  8
0
100
AcDbLine
 62
7
  6
CONTINUOUS
 10
8.0749194083
 20
7.6322787428
 11
8.0823209831
 21
7.6322787428
  0
LINE
  5
639
100
AcDbEntity
  8
0
100
AcDbLine
 62
7
  6
CONTINUOUS
 10
8.1339745264
 20
7.6322787428
 11
8.1413761012
 21
7.6322787428
  0
LINE
  5
63A
100
AcDbEntity
  8
0
100
AcDbLine
 62
9
  6
CONTINUOUS
 10
7.6549149991
 20
7.6374784555
 11
7.7278516392
 21
7.6374784555
  0
LINE
  5
63B
100
AcDbEntity
  8
0
100
AcDbLine
 62
7
  6
CONTINUOUS
 10
8.2257811408
 20
7.6484522929
 11
8.3813366964
 21
7.6484522929
  0
LINE
  5
63C
100
AcDbEntity
  8
0
100
AcDbLine
 62
7
  6
CONTINUOUS
 10
8.1298874121
 20
7.0004554802
 11
8.1540476216
 21
6.9586419285
  0
LINE
  5
63D
100
AcDbEntity
  8
0
100
AcDbLine
 62
7
  6
CONTINUOUS
 10
7.7192469435
 20
7.8182626573
 11
7.7434085222
 21
7.7764467318
  0
LINE
  5
63E
100
AcDbEntity
  8
0
100
AcDbLine
 62
9
  6
CONTINUOUS
 10
8.1295611198
 20
7.0012538087
 11
8.1298874121
 21
7.0004554802
  0
LWPOLYLINE
  5
63F
100
AcDbEntity
  8
0
100
AcDbPolyline
 62
9
  6
CONTINUOUS
 90
9
 70
0
 10
7.7434085222
 20
7.7764467318
 10
7.7437334453
 20
7.7756507771
 10
7.7451735873
 20
7.7665780238
 10
7.7466137293
 20
7.748645108
 10
7.7480538714
 20
7.7222722301
 10
7.7494940134
 20
7.6880773537
 10
7.7509341555
 20
7.646861726
 10
7.7523742975
 20
7.5995911028
 10
7.7538144395
 20
7.5473731196
  0
LINE
  5
640
100
AcDbEntity
  8
0
100
AcDbLine
 62
9
  6
CONTINUOUS
 10
7.8024943831
 20
7.7763912702
 11
7.8027885634
 21
7.7756507771
  0
LWPOLYLINE
  5
641
100
AcDbEntity
  8
0
100
AcDbPolyline
 62
7
  6
CONTINUOUS
 90
4
 70
0
 10
7.9681389363
 20
7.144625843
 10
7.9585209834
 20
7.1735703243
 10
7.949899058
 20
7.2018829562
 10
7.9423147712
 20
7.2295314662
  0
LWPOLYLINE
  5
642
100
AcDbEntity
  8
0
100
AcDbPolyline
 62
7
  6
CONTINUOUS
 90
4
 70
0
 10
7.8461005107
 20
7.6322787428
 10
7.8557432878
 20
7.6032563781
 10
7.864361412
 20
7.5749490657
 10
7.8719246758
 20
7.5473731196
  0
LWPOLYLINE
  5
643
100
AcDbEntity
  8
0
100
AcDbPolyline
 62
7
  6
CONTINUOUS
 90
4
 70
0
 10
8.0271940544
 20
7.144625843
 10
8.0175425934
 20
7.1736754566
 10
8.0089254156
 20
7.2019822323
 10
8.0013698893
 20
7.2295314662
  0
LWPOLYLINE
  5
644
100
AcDbEntity
  8
0
100
AcDbPolyline
 62
7
  6
CONTINUOUS
 90
10
 70
0
 10
7.9423147712
 20
7.2295314662
 10
7.9420520663
 20
7.2303439893
 10
7.9417213578
 20
7.2310258321
 10
7.9413123014
 20
7.2315703992
 10
7.9408056876
 20
7.2319098275
 10
7.9402546696
 20
7.2318893115
 10
7.9397930003
 20
7.2315439523
 10
7.9394271964
 20
7.2310160941
 10
7.9391306497
 20
7.230340134
 10
7.9389052224
 20
7.2295314662
  0
LWPOLYLINE
  5
645
100
AcDbEntity
  8
0
100
AcDbPolyline
 62
7
  6
CONTINUOUS
 90
10
 70
0
 10
8.0013698893
 20
7.2295314662
 10
8.0011071844
 20
7.2303439893
 10
8.0007764759
 20
7.2310258321
 10
8.0003674195
 20
7.2315703992
 10
7.9998608057
 20
7.2319098275
 10
7.9993097877
 20
7.2318893115
 10
7.9988481184
 20
7.2315439523
 10
7.9984823145
 20
7.2310160941
 10
7.9981857678
 20
7.230340134
 10
7.9979603405
 20
7.2295314662
  0
LWPOLYLINE
  5
646
100
AcDbEntity
  8
0
100
AcDbPolyline
 62
7
  6
CONTINUOUS
 90
10
 70
0
 10
7.8719246758
 20
7.5473731196
 10
7.8721789634
 20
7.5465818949
 10
7.8724956183
 20
7.5459170785
 10
7.8728809543
 20
7.5453825578
 10
7.8733735547
 20
7.5450173145
 10
7.8739355972
 20
7.5449965279
 10
7.8744399166
 20
7.5453534719
 10
7.8748329926
 20
7.5459270369
 10
7.8751222231
 20
7.5466029919
 10
7.8753342246
 20
7.5473731196
  0
LWPOLYLINE
  5
647
100
AcDbEntity
  8
0
100
AcDbPolyline
 62
9
  6
CONTINUOUS
 90
3
 70
0
 10
7.9509556234
 20
7.010326562
 10
7.9523957655
 20
7.0012538087
 10
7.9527220578
 20
7.0004554802
  0
LWPOLYLINE
  5
648
100
AcDbEntity
  8
0
100
AcDbPolyline
 62
7
  6
CONTINUOUS
 90
7
 70
0
 10
8.0420541067
 20
6.9648686432
 10
8.0408267377
 20
6.9782008404
 10
8.0395892678
 20
6.9987143417
 10
8.0383385182
 20
7.0263015458
 10
8.0370819479
 20
7.06046475
 10
8.0358317926
 20
7.1002636382
 10
8.0345956292
 20
7.144625843
  0
LWPOLYLINE
  5
649
100
AcDbEntity
  8
0
100
AcDbPolyline
 62
7
  6
CONTINUOUS
 90
8
 70
0
 10
7.9681389363
 20
7.144625843
 10
7.9695316244
 20
7.0949864785
 10
7.9709441784
 20
7.0512136346
 10
7.972360697
 20
7.0149535986
 10
7.9737655968
 20
6.9873527621
 10
7.9751535345
 20
6.9688669384
 10
7.9765470238
 20
6.9594954281
 10
7.9768822672
 20
6.9586419285
  0
LWPOLYLINE
  5
64A
100
AcDbEntity
  8
0
100
AcDbPolyline
 62
7
  6
CONTINUOUS
 90
8
 70
0
 10
7.9642107469
 20
7.6322787428
 10
7.9628179085
 20
7.6819231324
 10
7.9614052849
 20
7.7256971942
 10
7.9599886317
 20
7.761959032
 10
7.9585835144
 20
7.7895612751
 10
7.957195884
 20
7.8080403117
 10
7.95580463
 20
7.8174025261
 10
7.9554674159
 20
7.8182626573
  0
LWPOLYLINE
  5
64B
100
AcDbEntity
  8
0
100
AcDbPolyline
 62
7
  6
CONTINUOUS
 90
8
 70
0
 10
8.0271940544
 20
7.144625843
 10
8.0285868612
 20
7.0949825081
 10
8.0299993264
 20
7.0512127863
 10
8.031415765
 20
7.0149547345
 10
8.0328206844
 20
6.9873532664
 10
8.0342073969
 20
6.9688795808
 10
8.0355948033
 20
6.9595202198
 10
8.0359373853
 20
6.9586419285
  0
LWPOLYLINE
  5
64C
100
AcDbEntity
  8
0
100
AcDbPolyline
 62
7
  6
CONTINUOUS
 90
8
 70
0
 10
8.023265865
 20
7.6322787428
 10
8.0218764372
 20
7.6818090092
 10
8.02046786
 20
7.7254852862
 10
8.0190537181
 20
7.7617326062
 10
8.017649649
 20
7.789378991
 10
8.0162607504
 20
7.8079419786
 10
8.0148631702
 20
7.8173909653
 10
8.014522534
 20
7.8182626573
  0
LWPOLYLINE
  5
64D
100
AcDbEntity
  8
0
100
AcDbPolyline
 62
9
  6
CONTINUOUS
 90
9
 70
0
 10
7.9979603405
 20
7.2295314662
 10
7.9994004825
 20
7.1773134829
 10
8.0008406246
 20
7.1300428598
 10
8.0022807666
 20
7.0888272321
 10
8.0037209086
 20
7.0546323557
 10
8.0051610507
 20
7.0282594778
 10
8.0066011927
 20
7.010326562
 10
8.0080413347
 20
7.0012538087
 10
8.0091527815
 20
7.0004513346
  0
LWPOLYLINE
  5
64E
100
AcDbEntity
  8
0
100
AcDbPolyline
 62
9
  6
CONTINUOUS
 90
8
 70
0
 10
8.0013698893
 20
7.2295314662
 10
8.0028100313
 20
7.1773134829
 10
8.0042501734
 20
7.1300428598
 10
8.0056903154
 20
7.0888272321
 10
8.0071304575
 20
7.0546323557
 10
8.0085705995
 20
7.0282594778
 10
8.0100107415
 20
7.010326562
 10
8.0114508836
 20
7.0012538087
  0
LWPOLYLINE
  5
64F
100
AcDbEntity
  8
0
100
AcDbPolyline
 62
7
  6
CONTINUOUS
 90
4
 70
0
 10
7.9389052224
 20
7.2295314662
 10
7.9325073242
 20
7.2018885256
 10
7.9250216059
 20
7.1735720634
 10
7.916485393
 20
7.144625843
  0
LWPOLYLINE
  5
650
100
AcDbEntity
  8
0
100
AcDbPolyline
 62
7
  6
CONTINUOUS
 90
4
 70
0
 10
8.0524995789
 20
7.5473731196
 10
8.05888173
 20
7.5749526091
 10
8.0663636044
 20
7.6032625415
 10
8.0749194083
 20
7.6322787428
  0
LWPOLYLINE
  5
651
100
AcDbEntity
  8
0
100
AcDbPolyline
 62
7
  6
CONTINUOUS
 90
4
 70
0
 10
7.9979603405
 20
7.2295314662
 10
7.9915872624
 20
7.2019885439
 10
7.9841066292
 20
7.173678895
 10
7.9755405111
 20
7.144625843
  0
LINE
  5
652
100
AcDbEntity
  8
0
100
AcDbLine
 62
7
  6
CONTINUOUS
 10
7.8078296207
 20
6.9586419285
 11
7.8319898301
 21
7.0004554803
  0
LINE
  5
653
100
AcDbEntity
  8
0
100
AcDbLine
 62
7
  6
CONTINUOUS
 10
7.8319774457
 20
7.0004343855
 11
7.8319898301
 21
7.0004554803
  0
LWPOLYLINE
  5
654
100
AcDbEntity
  8
0
100
AcDbPolyline
 62
7
  6
CONTINUOUS
 90
4
 70
0
 10
7.8319774457
 20
7.0004343855
 10
7.8320240149
 20
7.0005047652
 10
7.8336203802
 20
7.001066841
 10
7.8342313336
 20
7.00082178
  0
LINE
  5
655
100
AcDbEntity
  8
0
100
AcDbLine
 62
7
  6
CONTINUOUS
 10
7.6897193844
 20
6.9586419285
 11
7.6893638239
 21
6.9583341827
  0
LWPOLYLINE
  5
656
100
AcDbEntity
  8
0
100
AcDbPolyline
 62
7
  6
CONTINUOUS
 90
3
 70
0
 10
7.7139099409
 20
7.000510019
 10
7.7144606321
 20
7.0009296143
 10
7.7151176784
 20
7.0010983456
  0
LINE
  5
657
100
AcDbEntity
  8
0
100
AcDbLine
 62
7
  6
CONTINUOUS
 10
8.4742889776
 20
7.6242727177
 11
8.474531133
 21
7.6244522929
  0
LINE
  5
658
100
AcDbEntity
  8
0
100
AcDbLine
 62
7
  6
CONTINUOUS
 10
8.5132889795
 20
7.6242727173
 11
8.5135311355
 21
7.6244522929
  0
LINE
  5
659
100
AcDbEntity
  8
0
100
AcDbLine
 62
7
  6
CONTINUOUS
 10
8.552288998
 20
7.6242727174
 11
8.5525311538
 21
7.6244522929
  0
LINE
  5
65A
100
AcDbEntity
  8
0
100
AcDbLine
 62
7
  6
CONTINUOUS
 10
8.5912889774
 20
7.6242727177
 11
8.5915311328
 21
7.6244522929
  0
LINE
  5
65B
100
AcDbEntity
  8
0
100
AcDbLine
 62
7
  6
CONTINUOUS
 10
8.4937889727
 20
7.1526318684
 11
8.4940311285
 21
7.1524522929
  0
LINE
  5
65C
100
AcDbEntity
  8
0
100
AcDbLine
 62
7
  6
CONTINUOUS
 10
8.5327889905
 20
7.1526318685
 11
8.5330311464
 21
7.1524522929
  0
LINE
  5
65D
100
AcDbEntity
  8
0
100
AcDbLine
 62
7
  6
CONTINUOUS
 10
8.5717889946
 20
7.1526318681
 11
8.57203115
 21
7.1524522929
  0
LWPOLYLINE
  5
65E
100
AcDbEntity
  8
0
100
AcDbPolyline
 62
9
  6
CONTINUOUS
 90
9
 70
0
 10
7.7460445926
 20
7.776475315
 10
7.7471429941
 20
7.7756507771
 10
7.7485831361
 20
7.7665780238
 10
7.7500232782
 20
7.748645108
 10
7.7514634202
 20
7.7222722301
 10
7.7529035623
 20
7.6880773537
 10
7.7543437043
 20
7.646861726
 10
7.7557838463
 20
7.5995911028
 10
7.7572239884
 20
7.5473731196
  0
LINE
  5
65F
100
AcDbEntity
  8
0
100
AcDbLine
 62
7
  6
CONTINUOUS
 10
7.7192469435
 20
7.8182626573
 11
7.7188913828
 21
7.8185704031
  0
LINE
  5
660
100
AcDbEntity
  8
0
100
AcDbLine
 62
7
  6
CONTINUOUS
 10
7.7438118029
 20
7.7760708162
 11
7.7434085222
 21
7.7764467318
  0
LINE
  5
661
100
AcDbEntity
  8
0
100
AcDbLine
 62
7
  6
CONTINUOUS
 10
7.8025342479
 20
7.7763434131
 11
7.8024943831
 21
7.7763912702
  0
LWPOLYLINE
  5
662
100
AcDbEntity
  8
0
100
AcDbPolyline
 62
7
  6
CONTINUOUS
 90
8
 70
0
 10
7.8296000481
 20
7.8185704031
 10
7.8302757123
 20
7.8174594656
 10
7.8316852583
 20
7.8080283794
 10
7.8330753276
 20
7.7895013665
 10
7.8344789169
 20
7.7619114516
 10
7.8358943292
 20
7.7256728991
 10
7.8373062078
 20
7.6819194415
 10
7.8386989359
 20
7.6322787428
  0
LWPOLYLINE
  5
663
100
AcDbEntity
  8
0
100
AcDbPolyline
 62
7
  6
CONTINUOUS
 90
8
 70
0
 10
7.7705449269
 20
7.8185704031
 10
7.7712404866
 20
7.8173931192
 10
7.7726531293
 20
7.8077956316
 10
7.7740450593
 20
7.7890890009
 10
7.7754361441
 20
7.7616308632
 10
7.7768420031
 20
7.7255935732
 10
7.7782496894
 20
7.6819662887
 10
7.7796438178
 20
7.6322787428
  0
LINE
  5
664
100
AcDbEntity
  8
0
100
AcDbLine
 62
7
  6
CONTINUOUS
 10
7.802462271
 20
7.7764491055
 11
7.7783020616
 21
7.8182626573
  0
LINE
  5
665
100
AcDbEntity
  8
0
100
AcDbLine
 62
7
  6
CONTINUOUS
 10
7.8615173891
 20
7.7764491055
 11
7.8373571797
 21
7.8182626573
  0
LINE
  5
666
100
AcDbEntity
  8
0
100
AcDbLine
 62
7
  6
CONTINUOUS
 10
7.8615173891
 20
7.7764491055
 11
7.8615314898
 21
7.7764242673
  0
LINE
  5
667
100
AcDbEntity
  8
0
100
AcDbLine
 62
7
  6
CONTINUOUS
 10
7.802462271
 20
7.7764491055
 11
7.8024943831
 21
7.7763912702
  0
LWPOLYLINE
  5
668
100
AcDbEntity
  8
0
100
AcDbPolyline
 62
9
  6
CONTINUOUS
 90
9
 70
0
 10
7.8615314898
 20
7.7764242673
 10
7.8618436815
 20
7.7756507771
 10
7.8632838235
 20
7.7665780238
 10
7.8647239656
 20
7.748645108
 10
7.8661641076
 20
7.7222722301
 10
7.8676042496
 20
7.6880773537
 10
7.8690443917
 20
7.646861726
 10
7.8704845337
 20
7.5995911028
 10
7.8719246758
 20
7.5473731196
  0
LWPOLYLINE
  5
669
100
AcDbEntity
  8
0
100
AcDbPolyline
 62
7
  6
CONTINUOUS
 90
8
 70
0
 10
8.1540476216
 20
6.9586419285
 10
8.1537032658
 20
6.9595262512
 10
8.1523034305
 20
6.9690230988
 10
8.1509036113
 20
6.9878062248
 10
8.1495037748
 20
7.0154602124
 10
8.1481039248
 20
7.0513729828
 10
8.1467040891
 20
7.0947486801
 10
8.1453042906
 20
7.144625843
  0
LWPOLYLINE
  5
66A
100
AcDbEntity
  8
0
100
AcDbPolyline
 62
7
  6
CONTINUOUS
 90
4
 70
0
 10
7.9051556288
 20
7.6322787428
 10
7.9148170716
 20
7.6031978045
 10
7.923433891
 20
7.574889127
 10
7.9309797939
 20
7.5473731196
  0
LWPOLYLINE
  5
66B
100
AcDbEntity
  8
0
100
AcDbPolyline
 62
7
  6
CONTINUOUS
 90
4
 70
0
 10
8.0862491725
 20
7.144625843
 10
8.0766076743
 20
7.1736441948
 10
8.0679894403
 20
7.2019514844
 10
8.0604250074
 20
7.2295314662
  0
LWPOLYLINE
  5
66C
100
AcDbEntity
  8
0
100
AcDbPolyline
 62
7
  6
CONTINUOUS
 90
4
 70
0
 10
7.9642107469
 20
7.6322787428
 10
7.9738422639
 20
7.6032917079
 10
7.9824624267
 20
7.5749808973
 10
7.990034912
 20
7.5473731196
  0
LWPOLYLINE
  5
66D
100
AcDbEntity
  8
0
100
AcDbPolyline
 62
7
  6
CONTINUOUS
 90
10
 70
0
 10
8.0604250074
 20
7.2295314662
 10
8.0601623025
 20
7.2303439893
 10
8.059831594
 20
7.2310258321
 10
8.0594225377
 20
7.2315703992
 10
8.0589159238
 20
7.2319098275
 10
8.0583649058
 20
7.2318893115
 10
8.0579032366
 20
7.2315439523
 10
8.0575374326
 20
7.2310160941
 10
8.057240886
 20
7.230340134
 10
8.0570154586
 20
7.2295314662
  0
LWPOLYLINE
  5
66E
100
AcDbEntity
  8
0
100
AcDbPolyline
 62
7
  6
CONTINUOUS
 90
10
 70
0
 10
7.9309797939
 20
7.5473731196
 10
7.9312340815
 20
7.5465818949
 10
7.9315507364
 20
7.5459170785
 10
7.9319360724
 20
7.5453825578
 10
7.9324286729
 20
7.5450173145
 10
7.9329907153
 20
7.5449965279
 10
7.9334950347
 20
7.5453534719
 10
7.9338881108
 20
7.5459270369
 10
7.9341773412
 20
7.5466029919
 10
7.9343893427
 20
7.5473731196
  0
LWPOLYLINE
  5
66F
100
AcDbEntity
  8
0
100
AcDbPolyline
 62
7
  6
CONTINUOUS
 90
10
 70
0
 10
7.990034912
 20
7.5473731196
 10
7.9902891996
 20
7.5465818949
 10
7.9906058545
 20
7.5459170785
 10
7.9909911905
 20
7.5453825578
 10
7.991483791
 20
7.5450173145
 10
7.9920458334
 20
7.5449965279
 10
7.9925501528
 20
7.5453534719
 10
7.9929432289
 20
7.5459270369
 10
7.9932324593
 20
7.5466029919
 10
7.9934444608
 20
7.5473731196
  0
LWPOLYLINE
  5
670
100
AcDbEntity
  8
0
100
AcDbPolyline
 62
9
  6
CONTINUOUS
 90
3
 70
0
 10
8.0661761039
 20
7.006014428
 10
8.0675584912
 20
7.0002610418
 10
8.0682103025
 20
7.0004554803
  0
LINE
  5
671
100
AcDbEntity
  8
0
100
AcDbLine
 62
9
  6
CONTINUOUS
 10
8.0695856528
 20
7.006014428
 11
8.070832294
 21
7.0004554802
  0
LINE
  5
672
100
AcDbEntity
  8
0
100
AcDbLine
 62
7
  6
CONTINUOUS
 10
8.09370765
 20
6.9648686432
 11
8.0949925034
 21
6.9586419285
  0
LWPOLYLINE
  5
673
100
AcDbEntity
  8
0
100
AcDbPolyline
 62
9
  6
CONTINUOUS
 90
8
 70
0
 10
7.9208987996
 20
7.7756507771
 10
7.9223389416
 20
7.7665780238
 10
7.9237790837
 20
7.748645108
 10
7.9252192257
 20
7.7222722301
 10
7.9266593678
 20
7.6880773537
 10
7.9280995098
 20
7.646861726
 10
7.9295396518
 20
7.5995911028
 10
7.9309797939
 20
7.5473731196
  0
LWPOLYLINE
  5
674
100
AcDbEntity
  8
0
100
AcDbPolyline
 62
9
  6
CONTINUOUS
 90
8
 70
0
 10
7.9799539177
 20
7.7756507771
 10
7.9813940598
 20
7.7665780238
 10
7.9828342018
 20
7.748645108
 10
7.9842743438
 20
7.7222722301
 10
7.9857144859
 20
7.6880773537
 10
7.9871546279
 20
7.646861726
 10
7.9885947699
 20
7.5995911028
 10
7.990034912
 20
7.5473731196
  0
LWPOLYLINE
  5
675
100
AcDbEntity
  8
0
100
AcDbPolyline
 62
7
  6
CONTINUOUS
 90
8
 70
0
 10
8.0823209831
 20
7.6322787428
 10
8.0809355823
 20
7.6816742126
 10
8.0795445105
 20
7.7248722
 10
8.0781417131
 20
7.7609828482
 10
8.0767422764
 20
7.7887542138
 10
8.0753519604
 20
7.8075739853
 10
8.0739466804
 20
7.8172928542
 10
8.0735776522
 20
7.8182626573
  0
LWPOLYLINE
  5
676
100
AcDbEntity
  8
0
100
AcDbPolyline
 62
7
  6
CONTINUOUS
 90
7
 70
0
 10
8.0862491725
 20
7.144625843
 10
8.0874853359
 20
7.1002636382
 10
8.0887354912
 20
7.06046475
 10
8.0899920615
 20
7.0263015458
 10
8.0912428111
 20
6.9987143417
 10
8.092480281
 20
6.9782008404
 10
8.09370765
 20
6.9648686432
  0
LWPOLYLINE
  5
677
100
AcDbEntity
  8
0
100
AcDbPolyline
 62
9
  6
CONTINUOUS
 90
9
 70
0
 10
8.1160705767
 20
7.2295314662
 10
8.1175107187
 20
7.1773134829
 10
8.1189508608
 20
7.1300428598
 10
8.1203910028
 20
7.0888272321
 10
8.1218311448
 20
7.0546323557
 10
8.1232712869
 20
7.0282594778
 10
8.1247114289
 20
7.010326562
 10
8.126151571
 20
7.0012538087
 10
8.1272654206
 20
7.0004554803
  0
LWPOLYLINE
  5
678
100
AcDbEntity
  8
0
100
AcDbPolyline
 62
9
  6
CONTINUOUS
 90
8
 70
0
 10
8.1194801255
 20
7.2295314662
 10
8.1209202676
 20
7.1773134829
 10
8.1223604096
 20
7.1300428598
 10
8.1238005516
 20
7.0888272321
 10
8.1252406937
 20
7.0546323557
 10
8.1266808357
 20
7.0282594778
 10
8.1281209778
 20
7.010326562
 10
8.1295611198
 20
7.0012538087
  0
LWPOLYLINE
  5
679
100
AcDbEntity
  8
0
100
AcDbPolyline
 62
9
  6
CONTINUOUS
 90
8
 70
0
 10
8.0570154586
 20
7.2295314662
 10
8.0583241222
 20
7.1818932399
 10
8.0596327858
 20
7.1382530175
 10
8.0609414494
 20
7.0994554667
 10
8.0622501131
 20
7.0662515241
 10
8.0635587767
 20
7.0392838607
 10
8.0648674403
 20
7.0190744424
 10
8.0661761039
 20
7.006014428
  0
LWPOLYLINE
  5
67A
100
AcDbEntity
  8
0
100
AcDbPolyline
 62
9
  6
CONTINUOUS
 90
8
 70
0
 10
8.0604250074
 20
7.2295314662
 10
8.061733671
 20
7.1818932399
 10
8.0630423347
 20
7.1382530175
 10
8.0643509983
 20
7.0994554667
 10
8.0656596619
 20
7.0662515241
 10
8.0669683255
 20
7.0392838607
 10
8.0682769891
 20
7.0190744424
 10
8.0695856528
 20
7.006014428
  0
LWPOLYLINE
  5
67B
100
AcDbEntity
  8
0
100
AcDbPolyline
 62
7
  6
CONTINUOUS
 90
4
 70
0
 10
8.111554697
 20
7.5473731196
 10
8.1179339494
 20
7.5749409271
 10
8.1254152878
 20
7.6032502704
 10
8.1339745264
 20
7.6322787428
  0
LWPOLYLINE
  5
67C
100
AcDbEntity
  8
0
100
AcDbPolyline
 62
7
  6
CONTINUOUS
 90
4
 70
0
 10
8.0570154586
 20
7.2295314662
 10
8.0506343323
 20
7.2019561069
 10
8.0431525824
 20
7.1736461504
 10
8.0345956292
 20
7.144625843
  0
LWPOLYLINE
  5
67D
100
AcDbEntity
  8
0
100
AcDbPolyline
 62
7
  6
CONTINUOUS
 90
3
 70
0
 10
8.1706098151
 20
7.5473731196
 10
8.1778239309
 20
7.5782792633
 10
8.1864110621
 20
7.6100951203
  0
LINE
  5
67E
100
AcDbEntity
  8
0
100
AcDbLine
 62
7
  6
CONTINUOUS
 10
7.9501000663
 20
7.0004554803
 11
7.9501102228
 21
7.0004732828
  0
LINE
  5
67F
100
AcDbEntity
  8
0
100
AcDbLine
 62
7
  6
CONTINUOUS
 10
7.8668847388
 20
6.9586419285
 11
7.8910507277
 21
7.0004655552
  0
LINE
  5
680
100
AcDbEntity
  8
0
100
AcDbLine
 62
7
  6
CONTINUOUS
 10
7.9259398569
 20
6.9586419285
 11
7.9501000663
 21
7.0004554803
  0
LINE
  5
681
100
AcDbEntity
  8
0
100
AcDbLine
 62
7
  6
CONTINUOUS
 10
7.8078296207
 20
6.9586419285
 11
7.8074743454
 21
6.9583341829
  0
LINE
  5
682
100
AcDbEntity
  8
0
100
AcDbLine
 62
7
  6
CONTINUOUS
 10
7.7487745026
 20
6.9586419285
 11
7.7484189433
 21
6.9583341827
  0
LINE
  5
683
100
AcDbEntity
  8
0
100
AcDbLine
 62
7
  6
CONTINUOUS
 10
8.6302889797
 20
7.6242727173
 11
8.6305311357
 21
7.6244522929
  0
LINE
  5
684
100
AcDbEntity
  8
0
100
AcDbLine
 62
7
  6
CONTINUOUS
 10
8.6692889981
 20
7.6242727174
 11
8.6695311539
 21
7.6244522929
  0
LINE
  5
685
100
AcDbEntity
  8
0
100
AcDbLine
 62
7
  6
CONTINUOUS
 10
8.7082889772
 20
7.6242727177
 11
8.7085311326
 21
7.6244522929
  0
LWPOLYLINE
  5
686
100
AcDbEntity
  8
0
100
AcDbPolyline
 62
7
  6
CONTINUOUS
 90
3
 70
0
 10
7.7729596211
 20
7.0004999488
 10
7.7737135134
 20
7.0010099039
 10
7.774632946
 20
7.0010532855
  0
LINE
  5
687
100
AcDbEntity
  8
0
100
AcDbLine
 62
7
  6
CONTINUOUS
 10
8.1864110621
 20
7.7624680409
 11
8.2060961014
 21
7.7624680409
  0
LINE
  5
688
100
AcDbEntity
  8
AXIS
100
AcDbLine
 62
7
  6
CONTINUOUS
 10
7.6549149991
 20
7.8185704031
 11
7.718891377
 21
7.8185704031
  0
LINE
  5
689
100
AcDbEntity
  8
AXIS
100
AcDbLine
 62
7
  6
CONTINUOUS
 10
7.7705449203
 20
7.8185704031
 11
7.7779464951
 21
7.8185704031
  0
LINE
  5
68A
100
AcDbEntity
  8
AXIS
100
AcDbLine
 62
7
  6
CONTINUOUS
 10
7.8296000384
 20
7.8185704031
 11
7.8370016132
 21
7.8185704031
  0
LINE
  5
68B
100
AcDbEntity
  8
AXIS
100
AcDbLine
 62
7
  6
CONTINUOUS
 10
7.8886551565
 20
7.8185704031
 11
7.8960567314
 21
7.8185704031
  0
LINE
  5
68C
100
AcDbEntity
  8
AXIS
100
AcDbLine
 62
7
  6
CONTINUOUS
 10
7.9477102747
 20
7.8185704031
 11
7.9551118495
 21
7.8185704031
  0
LINE
  5
68D
100
AcDbEntity
  8
AXIS
100
AcDbLine
 62
7
  6
CONTINUOUS
 10
8.0067653928
 20
7.8185704031
 11
8.0141669676
 21
7.8185704031
  0
LINE
  5
68E
100
AcDbEntity
  8
AXIS
100
AcDbLine
 62
7
  6
CONTINUOUS
 10
8.0658205109
 20
7.8185704031
 11
8.0732220857
 21
7.8185704031
  0
LINE
  5
68F
100
AcDbEntity
  8
AXIS
100
AcDbLine
 62
7
  6
CONTINUOUS
 10
8.124875629
 20
7.8185704031
 11
8.1322772038
 21
7.8185704031
  0
LINE
  5
690
100
AcDbEntity
  8
AXIS
100
AcDbLine
 62
7
  6
CONTINUOUS
 10
8.1839307471
 20
7.8185704031
 11
8.1864110621
 21
7.8185704031
  0
LINE
  5
691
100
AcDbEntity
  8
0
100
AcDbLine
 62
7
  6
CONTINUOUS
 10
8.6107889727
 20
7.1526318684
 11
8.6110311285
 21
7.1524522929
  0
LINE
  5
692
100
AcDbEntity
  8
0
100
AcDbLine
 62
7
  6
CONTINUOUS
 10
8.6497889906
 20
7.1526318685
 11
8.6500311466
 21
7.1524522929
  0
LINE
  5
693
100
AcDbEntity
  8
0
100
AcDbLine
 62
7
  6
CONTINUOUS
 10
8.6887889944
 20
7.1526318681
 11
8.6890311498
 21
7.1524522929
  0
LINE
  5
694
100
AcDbEntity
  8
0
100
AcDbLine
 62
7
  6
CONTINUOUS
 10
8.7277889728
 20
7.1526318684
 11
8.7280311286
 21
7.1524522929
  0
LWPOLYLINE
  5
695
100
AcDbEntity
  8
0
100
AcDbPolyline
 62
9
  6
CONTINUOUS
 90
9
 70
0
 10
7.8641571941
 20
7.7764792355
 10
7.8652532303
 20
7.7756507771
 10
7.8666933724
 20
7.7665780238
 10
7.8681335144
 20
7.748645108
 10
7.8695736564
 20
7.7222722301
 10
7.8710137985
 20
7.6880773537
 10
7.8724539405
 20
7.646861726
 10
7.8738940825
 20
7.5995911028
 10
7.8753342246
 20
7.5473731196
  0
LWPOLYLINE
  5
696
100
AcDbEntity
  8
0
100
AcDbPolyline
 62
9
  6
CONTINUOUS
 90
9
 70
0
 10
7.8051074264
 20
7.776488013
 10
7.8061981122
 20
7.7756507771
 10
7.8076382543
 20
7.7665780238
 10
7.8090783963
 20
7.748645108
 10
7.8105185383
 20
7.7222722301
 10
7.8119586804
 20
7.6880773537
 10
7.8133988224
 20
7.646861726
 10
7.8148389644
 20
7.5995911028
 10
7.8162791065
 20
7.5473731196
  0
LINE
  5
697
100
AcDbEntity
  8
0
100
AcDbLine
 62
7
  6
CONTINUOUS
 10
7.7783020616
 20
7.8182626573
 11
7.7779465048
 21
7.8185704031
  0
LINE
  5
698
100
AcDbEntity
  8
0
100
AcDbLine
 62
7
  6
CONTINUOUS
 10
7.8373571797
 20
7.8182626573
 11
7.837002252
 21
7.8185704021
  0
LINE
  5
699
100
AcDbEntity
  8
0
100
AcDbLine
 62
7
  6
CONTINUOUS
 10
7.8618354398
 20
7.7761271364
 11
7.8615314898
 21
7.7764242673
  0
LINE
  5
69A
100
AcDbEntity
  8
0
100
AcDbLine
 62
7
  6
CONTINUOUS
 10
7.9206118648
 20
7.7763878301
 11
7.9205835885
 21
7.7764296594
  0
LWPOLYLINE
  5
69B
100
AcDbEntity
  8
0
100
AcDbPolyline
 62
7
  6
CONTINUOUS
 90
8
 70
0
 10
7.8886557953
 20
7.8185704021
 10
7.8893410938
 20
7.8174254746
 10
7.8907359812
 20
7.8080725918
 10
7.8921225578
 20
7.7896316755
 10
7.8935287202
 20
7.7620320511
 10
7.8949464196
 20
7.7257588883
 10
7.8963600908
 20
7.6819607624
 10
7.897754054
 20
7.6322787428
  0
LINE
  5
69C
100
AcDbEntity
  8
0
100
AcDbLine
 62
7
  6
CONTINUOUS
 10
7.9205725073
 20
7.7764491055
 11
7.8964122978
 21
7.8182626573
  0
LINE
  5
69D
100
AcDbEntity
  8
0
100
AcDbLine
 62
7
  6
CONTINUOUS
 10
7.9205725073
 20
7.7764491055
 11
7.9205835885
 21
7.7764296594
  0
LINE
  5
69E
100
AcDbEntity
  8
0
100
AcDbLine
 62
9
  6
CONTINUOUS
 10
7.9796276254
 20
7.7764491055
 11
7.9799539177
 21
7.7756507771
  0
LINE
  5
69F
100
AcDbEntity
  8
0
100
AcDbLine
 62
9
  6
CONTINUOUS
 10
7.9205835885
 20
7.7764296594
 11
7.9208987996
 21
7.7756507771
  0
LWPOLYLINE
  5
6A0
100
AcDbEntity
  8
0
100
AcDbPolyline
 62
7
  6
CONTINUOUS
 90
4
 70
0
 10
8.1453042906
 20
7.144625843
 10
8.1356627924
 20
7.1736441948
 10
8.1270445584
 20
7.2019514845
 10
8.1194801255
 20
7.2295314662
  0
LWPOLYLINE
  5
6A1
100
AcDbEntity
  8
0
100
AcDbPolyline
 62
7
  6
CONTINUOUS
 90
4
 70
0
 10
8.023265865
 20
7.6322787428
 10
8.0329086421
 20
7.6032563781
 10
8.0415267663
 20
7.5749490657
 10
8.0490900301
 20
7.5473731196
  0
LWPOLYLINE
  5
6A2
100
AcDbEntity
  8
0
100
AcDbPolyline
 62
7
  6
CONTINUOUS
 90
10
 70
0
 10
8.1194801255
 20
7.2295314662
 10
8.1192174206
 20
7.2303439893
 10
8.1188867121
 20
7.2310258321
 10
8.1184776558
 20
7.2315703992
 10
8.1179710419
 20
7.2319098275
 10
8.1174200239
 20
7.2318893115
 10
8.1169583547
 20
7.2315439523
 10
8.1165925507
 20
7.2310160941
 10
8.1162960041
 20
7.230340134
 10
8.1160705767
 20
7.2295314662
  0
LWPOLYLINE
  5
6A3
100
AcDbEntity
  8
0
100
AcDbPolyline
 62
7
  6
CONTINUOUS
 90
10
 70
0
 10
8.1785352436
 20
7.2295314662
 10
8.1782725387
 20
7.2303439893
 10
8.1779418302
 20
7.2310258321
 10
8.1775327739
 20
7.2315703992
 10
8.17702616
 20
7.2319098275
 10
8.176475142
 20
7.2318893115
 10
8.1760134728
 20
7.2315439523
 10
8.1756476688
 20
7.2310160941
 10
8.1753511222
 20
7.230340134
 10
8.1751256948
 20
7.2295314662
  0
LWPOLYLINE
  5
6A4
100
AcDbEntity
  8
0
100
AcDbPolyline
 62
7
  6
CONTINUOUS
 90
10
 70
0
 10
8.0490900301
 20
7.5473731196
 10
8.0493443177
 20
7.5465818949
 10
8.0496609726
 20
7.5459170785
 10
8.0500463086
 20
7.5453825578
 10
8.0505389091
 20
7.5450173145
 10
8.0511009515
 20
7.5449965279
 10
8.0516052709
 20
7.5453534719
 10
8.051998347
 20
7.5459270369
 10
8.0522875774
 20
7.5466029919
 10
8.0524995789
 20
7.5473731196
  0
LWPOLYLINE
  5
6A5
100
AcDbEntity
  8
0
100
AcDbPolyline
 62
7
  6
CONTINUOUS
 90
3
 70
0
 10
8.1864110621
 20
7.2008787084
 10
8.1823305783
 20
7.2153004816
 10
8.1785352436
 20
7.2295314662
  0
LWPOLYLINE
  5
6A6
100
AcDbEntity
  8
0
100
AcDbPolyline
 62
9
  6
CONTINUOUS
 90
8
 70
0
 10
8.0390090358
 20
7.7756507771
 10
8.0404491779
 20
7.7665780238
 10
8.0418893199
 20
7.748645108
 10
8.0433294619
 20
7.7222722301
 10
8.044769604
 20
7.6880773537
 10
8.046209746
 20
7.646861726
 10
8.047649888
 20
7.5995911028
 10
8.0490900301
 20
7.5473731196
  0
LWPOLYLINE
  5
6A7
100
AcDbEntity
  8
0
100
AcDbPolyline
 62
7
  6
CONTINUOUS
 90
8
 70
0
 10
8.1527058654
 20
7.144625843
 10
8.1541056632
 20
7.0947487016
 10
8.1555054927
 20
7.0513731802
 10
8.15690533
 20
7.0154606582
 10
8.1583051503
 20
6.9878068195
 10
8.1597049687
 20
6.9690234694
 10
8.1611048134
 20
6.9595263438
 10
8.1618047624
 20
6.9583341827
  0
LWPOLYLINE
  5
6A8
100
AcDbEntity
  8
0
100
AcDbPolyline
 62
7
  6
CONTINUOUS
 90
8
 70
0
 10
8.1413761012
 20
7.6322787428
 10
8.1399893767
 20
7.6817185281
 10
8.1386023938
 20
7.7247933409
 10
8.1372105247
 20
7.7606692233
 10
8.1358163816
 20
7.7884355225
 10
8.1344263187
 20
7.8073752863
 10
8.1330168751
 20
7.817239165
 10
8.1326327703
 20
7.8182626573
  0
LWPOLYLINE
  5
6A9
100
AcDbEntity
  8
0
100
AcDbPolyline
 62
9
  6
CONTINUOUS
 90
9
 70
0
 10
8.1751256948
 20
7.2295314662
 10
8.1765363657
 20
7.178336483
 10
8.1779470366
 20
7.1318658207
 10
8.1793577075
 20
7.0911643427
 10
8.1807683784
 20
7.0571471958
 10
8.1821790493
 20
7.0305792341
 10
8.1835897202
 20
7.0120578213
 10
8.1850003912
 20
7.0019993997
 10
8.1863205388
 20
7.0004554803
  0
LWPOLYLINE
  5
6AA
100
AcDbEntity
  8
0
100
AcDbPolyline
 62
9
  6
CONTINUOUS
 90
7
 70
0
 10
8.1785352436
 20
7.2295314662
 10
8.17984788
 20
7.1817542601
 10
8.1811605164
 20
7.1380020354
 10
8.1824731529
 20
7.0991267688
 10
8.1837857893
 20
7.065885469
 10
8.1850984257
 20
7.0389254358
 10
8.1864110621
 20
7.0187716557
  0
LINE
  5
6AB
100
AcDbEntity
  8
0
100
AcDbLine
 62
7
  6
CONTINUOUS
 10
8.1864110621
 20
7.0005742971
 11
8.1864110621
 21
7.2719940295
  0
LINE
  5
6AC
100
AcDbEntity
  8
0
100
AcDbLine
 62
7
  6
CONTINUOUS
 10
8.1864110621
 20
7.5049105563
 11
8.1864110621
 21
7.8185704131
  0
LINE
  5
6AD
100
AcDbEntity
  8
0
100
AcDbLine
 62
9
  6
CONTINUOUS
 10
8.2060961014
 20
7.0144365449
 11
8.2060961014
 21
7.7624680409
  0
LWPOLYLINE
  5
6AE
100
AcDbEntity
  8
0
100
AcDbPolyline
 62
7
  6
CONTINUOUS
 90
4
 70
0
 10
8.1160705767
 20
7.2295314662
 10
8.1096894505
 20
7.2019561069
 10
8.1022077006
 20
7.1736461504
 10
8.0936507473
 20
7.144625843
  0
LWPOLYLINE
  5
6AF
100
AcDbEntity
  8
0
100
AcDbPolyline
 62
7
  6
CONTINUOUS
 90
4
 70
0
 10
8.1751256948
 20
7.2295314662
 10
8.1687445686
 20
7.2019561069
 10
8.1612628187
 20
7.1736461504
 10
8.1527058654
 20
7.144625843
  0
LINE
  5
6B0
100
AcDbEntity
  8
0
100
AcDbLine
 62
7
  6
CONTINUOUS
 10
8.0682103025
 20
7.0004554803
 11
8.0682161804
 21
7.0004657279
  0
LINE
  5
6B1
100
AcDbEntity
  8
0
100
AcDbLine
 62
7
  6
CONTINUOUS
 10
7.984994975
 20
6.9586419285
 11
8.0091551844
 21
7.0004554803
  0
LINE
  5
6B2
100
AcDbEntity
  8
0
100
AcDbLine
 62
7
  6
CONTINUOUS
 10
8.4742889776
 20
7.6242727177
 11
8.4560291875
 21
7.5971969879
  0
LINE
  5
6B3
100
AcDbEntity
  8
0
100
AcDbLine
 62
7
  6
CONTINUOUS
 10
7.8668847388
 20
6.9586419285
 11
7.8665295981
 21
6.9583341831
  0
LINE
  5
6B4
100
AcDbEntity
  8
0
100
AcDbLine
 62
7
  6
CONTINUOUS
 10
7.9259398569
 20
6.9586419285
 11
7.9255846259
 21
6.9583341829
  0
LINE
  5
6B5
100
AcDbEntity
  8
0
100
AcDbLine
 62
7
  6
CONTINUOUS
 10
7.984994975
 20
6.9586419285
 11
7.9846389867
 21
6.9583341831
  0
LINE
  5
6B6
100
AcDbEntity
  8
0
100
AcDbLine
 62
7
  6
CONTINUOUS
 10
8.7472889799
 20
7.6242727173
 11
8.7475311358
 21
7.6244522929
  0
LWPOLYLINE
  5
6B7
100
AcDbEntity
  8
0
100
AcDbPolyline
 62
7
  6
CONTINUOUS
 90
3
 70
0
 10
7.8910507277
 20
7.0004655552
 10
7.8921282305
 20
7.0010825926
 10
7.8923772719
 20
7.0010992526
  0
LWPOLYLINE
  5
6B8
100
AcDbEntity
  8
0
100
AcDbPolyline
 62
7
  6
CONTINUOUS
 90
3
 70
0
 10
8.0091527815
 20
7.0004513346
 10
8.0103332071
 20
7.0010933468
 10
8.0105790752
 20
7.0010953128
  0
LINE
  5
6B9
100
AcDbEntity
  8
0
100
AcDbLine
 62
7
  6
CONTINUOUS
 10
7.9501102228
 20
7.0004732828
 11
7.9512472894
 21
7.0010907455
  0
LINE
  5
6BA
100
AcDbEntity
  8
0
100
AcDbLine
 62
7
  6
CONTINUOUS
 10
8.7670311487
 20
7.1524522929
 11
8.7667889908
 21
7.1526318685
  0
LWPOLYLINE
  5
6BB
100
AcDbEntity
  8
0
100
AcDbPolyline
 62
9
  6
CONTINUOUS
 90
9
 70
0
 10
7.9822654163
 20
7.7764758988
 10
7.9833634666
 20
7.7756507771
 10
7.9848036086
 20
7.7665780238
 10
7.9862437506
 20
7.748645108
 10
7.9876838927
 20
7.7222722301
 10
7.9891240347
 20
7.6880773537
 10
7.9905641767
 20
7.646861726
 10
7.9920043188
 20
7.5995911028
 10
7.9934444608
 20
7.5473731196
  0
LWPOLYLINE
  5
6BC
100
AcDbEntity
  8
0
100
AcDbPolyline
 62
9
  6
CONTINUOUS
 90
9
 70
0
 10
7.923211703
 20
7.776478228
 10
7.9243083484
 20
7.7756507771
 10
7.9257484905
 20
7.7665780238
 10
7.9271886325
 20
7.748645108
 10
7.9286287746
 20
7.7222722301
 10
7.9300689166
 20
7.6880773537
 10
7.9315090586
 20
7.646861726
 10
7.9329492007
 20
7.5995911028
 10
7.9343893427
 20
7.5473731196
  0
LINE
  5
6BD
100
AcDbEntity
  8
0
100
AcDbLine
 62
7
  6
CONTINUOUS
 10
7.9554674159
 20
7.8182626573
 11
7.955111805
 21
7.8185704031
  0
LINE
  5
6BE
100
AcDbEntity
  8
0
100
AcDbLine
 62
7
  6
CONTINUOUS
 10
7.8964122978
 20
7.8182626573
 11
7.8960574156
 21
7.818570402
  0
LINE
  5
6BF
100
AcDbEntity
  8
0
100
AcDbLine
 62
7
  6
CONTINUOUS
 10
7.9797485077
 20
7.7762993408
 11
7.9796275578
 21
7.7764492224
  0
LINE
  5
6C0
100
AcDbEntity
  8
0
100
AcDbLine
 62
7
  6
CONTINUOUS
 10
8.0387287356
 20
7.7763812453
 11
8.0386845835
 21
7.7764459139
  0
LWPOLYLINE
  5
6C1
100
AcDbEntity
  8
0
100
AcDbPolyline
 62
7
  6
CONTINUOUS
 90
8
 70
0
 10
8.0067653483
 20
7.8185704031
 10
8.0074581733
 20
7.8174025261
 10
8.0088494273
 20
7.8080403117
 10
8.0102370577
 20
7.7895612751
 10
8.011642175
 20
7.761959032
 10
8.0130588283
 20
7.7256971942
 10
8.0144714518
 20
7.6819231324
 10
8.0158642902
 20
7.6322787428
  0
LWPOLYLINE
  5
6C2
100
AcDbEntity
  8
0
100
AcDbPolyline
 62
7
  6
CONTINUOUS
 90
8
 70
0
 10
7.9477109589
 20
7.818570402
 10
7.9484098477
 20
7.817379523
 10
7.9497955149
 20
7.8080281739
 10
7.9511819857
 20
7.7895605131
 10
7.9525871188
 20
7.7619576267
 10
7.9540037163
 20
7.725697019
 10
7.9554162748
 20
7.6819251039
 10
7.9568091721
 20
7.6322787428
  0
LINE
  5
6C3
100
AcDbEntity
  8
0
100
AcDbLine
 62
7
  6
CONTINUOUS
 10
7.9796276254
 20
7.7764491055
 11
7.9554674159
 21
7.8182626573
  0
LINE
  5
6C4
100
AcDbEntity
  8
0
100
AcDbLine
 62
7
  6
CONTINUOUS
 10
8.014522534
 20
7.8182626573
 11
8.0386845835
 21
7.7764459139
  0
LINE
  5
6C5
100
AcDbEntity
  8
0
100
AcDbLine
 62
9
  6
CONTINUOUS
 10
8.0386845835
 20
7.7764459139
 11
8.0390090358
 21
7.7756507771
  0
LWPOLYLINE
  5
6C6
100
AcDbEntity
  8
0
100
AcDbPolyline
 62
7
  6
CONTINUOUS
 90
4
 70
0
 10
8.0823209831
 20
7.6322787428
 10
8.0919637602
 20
7.6032563781
 10
8.1005818844
 20
7.5749490657
 10
8.1081451482
 20
7.5473731196
  0
LWPOLYLINE
  5
6C7
100
AcDbEntity
  8
0
100
AcDbPolyline
 62
7
  6
CONTINUOUS
 90
4
 70
0
 10
8.1413761012
 20
7.6322787428
 10
8.1510188784
 20
7.6032563781
 10
8.1596370025
 20
7.5749490657
 10
8.1672002663
 20
7.5473731196
  0
LWPOLYLINE
  5
6C8
100
AcDbEntity
  8
0
100
AcDbPolyline
 62
7
  6
CONTINUOUS
 90
10
 70
0
 10
8.1081451482
 20
7.5473731196
 10
8.1083994358
 20
7.5465818949
 10
8.1087160907
 20
7.5459170785
 10
8.1091014267
 20
7.5453825578
 10
8.1095940272
 20
7.5450173145
 10
8.1101560697
 20
7.5449965279
 10
8.110660389
 20
7.5453534719
 10
8.1110534651
 20
7.5459270369
 10
8.1113426955
 20
7.5466029919
 10
8.111554697
 20
7.5473731196
  0
LWPOLYLINE
  5
6C9
100
AcDbEntity
  8
0
100
AcDbPolyline
 62
7
  6
CONTINUOUS
 90
10
 70
0
 10
8.1672002663
 20
7.5473731196
 10
8.1674545539
 20
7.5465818949
 10
8.1677712089
 20
7.5459170785
 10
8.1681565449
 20
7.5453825578
 10
8.1686491453
 20
7.5450173145
 10
8.1692111878
 20
7.5449965279
 10
8.1697155071
 20
7.5453534719
 10
8.1701085832
 20
7.5459270369
 10
8.1703978136
 20
7.5466029919
 10
8.1706098151
 20
7.5473731196
  0
LINE
  5
6CA
100
AcDbEntity
  8
0
100
AcDbLine
 62
7
  6
CONTINUOUS
 10
8.2257811408
 20
7.7427830016
 11
8.2257811408
 21
7.0341215842
  0
LINE
  5
6CB
100
AcDbEntity
  8
0
100
AcDbLine
 62
7
  6
CONTINUOUS
 10
8.2507811408
 20
7.3634522929
 11
8.2507811408
 21
7.4134522929
  0
LINE
  5
6CC
100
AcDbEntity
  8
0
100
AcDbLine
 62
7
  6
CONTINUOUS
 10
8.2570311408
 20
7.4134522929
 11
8.2570311408
 21
7.3740905895
  0
LINE
  5
6CD
100
AcDbEntity
  8
0
100
AcDbLine
 62
7
  6
CONTINUOUS
 10
8.2945311408
 20
7.3740905895
 11
8.2945311408
 21
7.4134522929
  0
LINE
  5
6CE
100
AcDbEntity
  8
0
100
AcDbLine
 62
7
  6
CONTINUOUS
 10
8.2757811408
 20
7.4081331439
 11
8.2601561408
 21
7.3634522929
  0
LINE
  5
6CF
100
AcDbEntity
  8
0
100
AcDbLine
 62
7
  6
CONTINUOUS
 10
8.2570311408
 20
7.3740905895
 11
8.2716144736
 21
7.4134522929
  0
LWPOLYLINE
  5
6D0
100
AcDbEntity
  8
0
100
AcDbPolyline
 62
9
  6
CONTINUOUS
 90
6
 70
0
 10
8.2257811408
 20
7.2719940295
 10
8.2248176864
 20
7.2699947193
 10
8.2220216328
 20
7.2681911156
 10
8.2176666773
 20
7.2667597675
 10
8.2121791131
 20
7.2658407855
 10
8.2060961014
 20
7.2655241259
  0
LINE
  5
6D1
100
AcDbEntity
  8
0
100
AcDbLine
 62
7
  6
CONTINUOUS
 10
8.0440500931
 20
6.9586419285
 11
8.0682103025
 21
7.0004554803
  0
LINE
  5
6D2
100
AcDbEntity
  8
0
100
AcDbLine
 62
7
  6
CONTINUOUS
 10
8.1031052112
 20
6.9586419285
 11
8.1272712985
 21
7.0004657279
  0
LINE
  5
6D3
100
AcDbEntity
  8
0
100
AcDbLine
 62
7
  6
CONTINUOUS
 10
8.5132889795
 20
7.6242727173
 11
8.4950291898
 21
7.597196988
  0
LINE
  5
6D4
100
AcDbEntity
  8
0
100
AcDbLine
 62
7
  6
CONTINUOUS
 10
8.552288998
 20
7.6242727174
 11
8.5340292085
 21
7.5971969884
  0
LWPOLYLINE
  5
6D5
100
AcDbEntity
  8
0
100
AcDbPolyline
 62
7
  6
CONTINUOUS
 90
4
 70
0
 10
8.0682161804
 20
7.0004657279
 10
8.0686917155
 20
7.0008779682
 10
8.0706137188
 20
7.0006959699
 10
8.0708567584
 20
7.0004144584
  0
LWPOLYLINE
  5
6D6
100
AcDbEntity
  8
0
100
AcDbPolyline
 62
7
  6
CONTINUOUS
 90
4
 70
0
 10
8.1272712985
 20
7.0004657279
 10
8.1277468336
 20
7.0008779682
 10
8.1296688369
 20
7.0006959699
 10
8.1299118765
 20
7.0004144584
  0
LINE
  5
6D7
100
AcDbEntity
  8
0
100
AcDbLine
 62
7
  6
CONTINUOUS
 10
8.1031052112
 20
6.9586419285
 11
8.1027494405
 21
6.9583341828
  0
LINE
  5
6D8
100
AcDbEntity
  8
0
100
AcDbLine
 62
7
  6
CONTINUOUS
 10
8.0440500931
 20
6.9586419285
 11
8.0436939554
 21
6.9583341835
  0
LINE
  5
6D9
100
AcDbEntity
  8
0
100
AcDbLine
 62
7
  6
CONTINUOUS
 10
8.4257811408
 20
7.1524522929
 11
8.3257811408
 21
7.0984522929
  0
LINE
  5
6DA
100
AcDbEntity
  8
AXIS
100
AcDbLine
 62
7
  6
CONTINUOUS
 10
7.1627890148
 20
7.979003474
 11
7.3015685424
 21
7.979003474
  0
LINE
  5
6DB
100
AcDbEntity
  8
AXIS
100
AcDbLine
 62
7
  6
CONTINUOUS
 10
7.4570803534
 20
7.979003474
 11
7.595859881
 21
7.979003474
  0
LINE
  5
6DC
100
AcDbEntity
  8
0
100
AcDbLine
 62
7
  6
CONTINUOUS
 10
8.4257811408
 20
7.6244522929
 11
8.3813366964
 21
7.6484522929
  0
LWPOLYLINE
  5
6DD
100
AcDbEntity
  8
0
100
AcDbPolyline
 62
9
  6
CONTINUOUS
 90
9
 70
0
 10
8.0413238814
 20
7.776481434
 10
8.0424185847
 20
7.7756507771
 10
8.0438587267
 20
7.7665780238
 10
8.0452988687
 20
7.748645108
 10
8.0467390108
 20
7.7222722301
 10
8.0481791528
 20
7.6880773537
 10
8.0496192948
 20
7.646861726
 10
8.0510594369
 20
7.5995911028
 10
8.0524995789
 20
7.5473731196
  0
LWPOLYLINE
  5
6DE
100
AcDbEntity
  8
0
100
AcDbPolyline
 62
9
  6
CONTINUOUS
 90
9
 70
0
 10
8.1003843174
 20
7.7764901274
 10
8.1014737028
 20
7.7756507771
 10
8.1029138448
 20
7.7665780238
 10
8.1043539868
 20
7.748645108
 10
8.1057941289
 20
7.7222722301
 10
8.1072342709
 20
7.6880773537
 10
8.108674413
 20
7.646861726
 10
8.110114555
 20
7.5995911028
 10
8.111554697
 20
7.5473731196
  0
LWPOLYLINE
  5
6DF
100
AcDbEntity
  8
0
100
AcDbPolyline
 62
9
  6
CONTINUOUS
 90
9
 70
0
 10
8.1594394355
 20
7.7764901274
 10
8.1605288209
 20
7.7756507771
 10
8.1619689629
 20
7.7665780238
 10
8.163409105
 20
7.748645108
 10
8.164849247
 20
7.7222722301
 10
8.166289389
 20
7.6880773537
 10
8.1677295311
 20
7.646861726
 10
8.1691696731
 20
7.5995911028
 10
8.1706098151
 20
7.5473731196
  0
LINE
  5
6E0
100
AcDbEntity
  8
0
100
AcDbLine
 62
7
  6
CONTINUOUS
 10
8.014522534
 20
7.8182626573
 11
8.0141662288
 21
7.8185704018
  0
LINE
  5
6E1
100
AcDbEntity
  8
0
100
AcDbLine
 62
7
  6
CONTINUOUS
 10
8.0735776522
 20
7.8182626573
 11
8.0732215313
 21
7.8185704024
  0
LINE
  5
6E2
100
AcDbEntity
  8
0
100
AcDbLine
 62
7
  6
CONTINUOUS
 10
8.4752031703
 20
7.1801909736
 11
8.4937889727
 21
7.1526318684
  0
LINE
  5
6E3
100
AcDbEntity
  8
0
100
AcDbLine
 62
7
  6
CONTINUOUS
 10
8.5142031882
 20
7.1801909736
 11
8.5327889905
 21
7.1526318685
  0
LINE
  5
6E4
100
AcDbEntity
  8
0
100
AcDbLine
 62
7
  6
CONTINUOUS
 10
8.5532031929
 20
7.1801909725
 11
8.5717889946
 21
7.1526318681
  0
LWPOLYLINE
  5
6E5
100
AcDbEntity
  8
0
100
AcDbPolyline
 62
7
  6
CONTINUOUS
 90
8
 70
0
 10
8.0658197721
 20
7.8185704018
 10
8.0665167135
 20
7.8173909653
 10
8.0679142937
 20
7.8079419786
 10
8.0693031923
 20
7.789378991
 10
8.0707072615
 20
7.7617326062
 10
8.0721214033
 20
7.7254852862
 10
8.0735299806
 20
7.6818090092
 10
8.0749194083
 20
7.6322787428
  0
LINE
  5
6E6
100
AcDbEntity
  8
0
100
AcDbLine
 62
7
  6
CONTINUOUS
 10
8.0735776522
 20
7.8182626573
 11
8.0977437394
 21
7.7764388579
  0
LINE
  5
6E7
100
AcDbEntity
  8
0
100
AcDbLine
 62
7
  6
CONTINUOUS
 10
8.1326327703
 20
7.8182626573
 11
8.1567988575
 21
7.7764388579
  0
LWPOLYLINE
  5
6E8
100
AcDbEntity
  8
0
100
AcDbPolyline
 62
7
  6
CONTINUOUS
 90
8
 70
0
 10
8.1248750746
 20
7.8185704024
 10
8.1256002237
 20
7.8172928542
 10
8.1270055037
 20
7.8075739853
 10
8.1283958197
 20
7.7887542138
 10
8.1297952565
 20
7.7609828482
 10
8.1311980538
 20
7.7248722
 10
8.1325891256
 20
7.6816742126
 10
8.1339745264
 20
7.6322787428
  0
LWPOLYLINE
  5
6E9
100
AcDbEntity
  8
0
100
AcDbPolyline
 62
9
  6
CONTINUOUS
 90
9
 70
0
 10
8.0977437394
 20
7.7764388579
 10
8.0980641539
 20
7.7756507771
 10
8.099504296
 20
7.7665780238
 10
8.100944438
 20
7.748645108
 10
8.10238458
 20
7.7222722301
 10
8.1038247221
 20
7.6880773537
 10
8.1052648641
 20
7.646861726
 10
8.1067050062
 20
7.5995911028
 10
8.1081451482
 20
7.5473731196
  0
LWPOLYLINE
  5
6EA
100
AcDbEntity
  8
0
100
AcDbPolyline
 62
9
  6
CONTINUOUS
 90
9
 70
0
 10
8.1567988575
 20
7.7764388579
 10
8.157119272
 20
7.7756507771
 10
8.1585594141
 20
7.7665780238
 10
8.1599995561
 20
7.748645108
 10
8.1614396982
 20
7.7222722301
 10
8.1628798402
 20
7.6880773537
 10
8.1643199822
 20
7.646861726
 10
8.1657601243
 20
7.5995911028
 10
8.1672002663
 20
7.5473731196
  0
LINE
  5
6EB
100
AcDbEntity
  8
0
100
AcDbLine
 62
7
  6
CONTINUOUS
 10
8.2799478065
 20
7.4134522929
 11
8.2945311408
 21
7.3740905895
  0
LINE
  5
6EC
100
AcDbEntity
  8
0
100
AcDbLine
 62
7
  6
CONTINUOUS
 10
8.2914061408
 20
7.3634522929
 11
8.2757811408
 21
7.4081331439
  0
LWPOLYLINE
  5
6ED
100
AcDbEntity
  8
0
100
AcDbPolyline
 62
7
  6
CONTINUOUS
 90
3
 70
0
 10
8.1864110621
 20
7.8036804191
 10
8.1849636681
 20
7.8159756297
 10
8.1839307473
 20
7.8185704031
  0
LINE
  5
6EE
100
AcDbEntity
  8
0
100
AcDbLine
 62
7
  6
CONTINUOUS
 10
8.3007811408
 20
7.4134522929
 11
8.3007811408
 21
7.3634522929
  0
LINE
  5
6EF
100
AcDbEntity
  8
0
100
AcDbLine
 62
7
  6
CONTINUOUS
 10
8.3257811408
 20
7.0984522929
 11
8.3257811408
 21
7.6484522929
  0
LINE
  5
6F0
100
AcDbEntity
  8
0
100
AcDbLine
 62
7
  6
CONTINUOUS
 10
8.1621603293
 20
6.9586419285
 11
8.1863264166
 21
7.0004657279
  0
LINE
  5
6F1
100
AcDbEntity
  8
0
100
AcDbLine
 62
7
  6
CONTINUOUS
 10
8.5912889774
 20
7.6242727177
 11
8.5730291873
 21
7.5971969879
  0
LINE
  5
6F2
100
AcDbEntity
  8
0
100
AcDbLine
 62
7
  6
CONTINUOUS
 10
8.6302889797
 20
7.6242727173
 11
8.6120291899
 21
7.597196988
  0
LINE
  5
6F3
100
AcDbEntity
  8
0
100
AcDbLine
 62
7
  6
CONTINUOUS
 10
8.6692889981
 20
7.6242727174
 11
8.6510292086
 21
7.5971969884
  0
LINE
  5
6F4
100
AcDbEntity
  8
0
100
AcDbLine
 62
7
  6
CONTINUOUS
 10
8.1863264166
 20
7.0004657279
 11
8.1864110621
 21
7.0005734688
  0
LINE
  5
6F5
100
AcDbEntity
  8
0
100
AcDbLine
 62
7
  6
CONTINUOUS
 10
8.1618047624
 20
6.9583341827
 11
8.1621603293
 21
6.9586419285
  0
LWPOLYLINE
  5
6F6
100
AcDbEntity
  8
AXIS
100
AcDbPolyline
 62
7
  6
CONTINUOUS
 90
16
 70
0
 10
7.4570803534
 20
7.979003474
 10
7.4553863066
 20
7.978782813
 10
7.4503691852
 20
7.9781573644
 10
7.4422378018
 20
7.9772330728
 10
7.4313908674
 20
7.9761729993
 10
7.418221161
 20
7.9751529584
 10
7.4033993519
 20
7.9743569931
 10
7.3874363171
 20
7.9739183629
 10
7.371190248
 20
7.9739186727
 10
7.3552277853
 20
7.9743578875
 10
7.3404043053
 20
7.9751545122
 10
7.3272397956
 20
7.9761746148
 10
7.3163958795
 20
7.9772346987
 10
7.3082724849
 20
7.978158235
 10
7.3032594348
 20
7.9787832195
 10
7.3015685424
 20
7.979003474
  0
LINE
  5
6F7
100
AcDbEntity
  8
0
100
AcDbLine
 62
7
  6
CONTINUOUS
 10
8.1326327703
 20
7.8182626573
 11
8.132277202
 21
7.8185704031
  0
LINE
  5
6F8
100
AcDbEntity
  8
0
100
AcDbLine
 62
7
  6
CONTINUOUS
 10
8.5922031703
 20
7.1801909736
 11
8.6107889727
 21
7.1526318684
  0
LINE
  5
6F9
100
AcDbEntity
  8
0
100
AcDbLine
 62
7
  6
CONTINUOUS
 10
8.6312031884
 20
7.1801909735
 11
8.6497889906
 21
7.1526318685
  0
LWPOLYLINE
  5
6FA
100
AcDbEntity
  8
0
100
AcDbPolyline
 62
7
  6
CONTINUOUS
 90
21
 70
0
 10
8.5142031882
 20
7.1801909736
 10
8.5140364024
 20
7.1805134059
 10
8.5130392514
 20
7.1855574249
 10
8.5120421004
 20
7.1958264732
 10
8.5110449494
 20
7.2110560981
 10
8.5100477984
 20
7.2308541002
 10
8.5090506474
 20
7.2547106334
 10
8.5080534964
 20
7.2820113348
 10
8.5070563454
 20
7.3120531459
 10
8.5060591944
 20
7.344062418
 10
8.5050620434
 20
7.3772148358
 10
8.5040648925
 20
7.410656645
 10
8.5030677415
 20
7.443526639
 10
8.5020705905
 20
7.4749783367
 10
8.5010734395
 20
7.5042017815
 10
8.5000762885
 20
7.5304443996
 10
8.4990791375
 20
7.5530303807
 10
8.4980819865
 20
7.5713780816
 10
8.4970848355
 20
7.585015005
 10
8.4960876845
 20
7.5935899672
 10
8.4953552819
 20
7.5965303976
  0
LWPOLYLINE
  5
6FB
100
AcDbEntity
  8
0
100
AcDbPolyline
 62
7
  6
CONTINUOUS
 90
11
 70
0
 10
8.4620311273
 20
7.1524522929
 10
8.4610584798
 20
7.1553438686
 10
8.4600748682
 20
7.1640766074
 10
8.4590926076
 20
7.1784086169
 10
8.4581230704
 20
7.1977044976
 10
8.4571501397
 20
7.2217361432
 10
8.4561652453
 20
7.2502239532
 10
8.4551807462
 20
7.2821712726
 10
8.454208651
 20
7.3163375169
 10
8.4532416499
 20
7.3520775453
 10
8.4513085143
 20
7.425281216
  0
LWPOLYLINE
  5
6FC
100
AcDbEntity
  8
0
100
AcDbPolyline
 62
7
  6
CONTINUOUS
 90
10
 70
0
 10
8.4513085143
 20
7.425281216
 10
8.4503424301
 20
7.4609715105
 10
8.44937017
 20
7.4951180983
 10
8.4483856241
 20
7.5270313139
 10
8.4474007733
 20
7.5554734369
 10
8.446427967
 20
7.579450969
 10
8.4454621599
 20
7.5986256599
 10
8.4444839984
 20
7.6128679195
 10
8.4435029108
 20
7.6215658677
 10
8.4428651209
 20
7.6241107295
  0
LINE
  5
6FD
100
AcDbEntity
  8
0
100
AcDbLine
 62
7
  6
CONTINUOUS
 10
8.4257811408
 20
7.1524522929
 11
8.4257811408
 21
7.6244522929
  0
LINE
  5
6FE
100
AcDbEntity
  8
0
100
AcDbLine
 62
7
  6
CONTINUOUS
 10
8.7082889772
 20
7.6242727177
 11
8.6900291871
 21
7.5971969879
  0
LINE
  5
6FF
100
AcDbEntity
  8
0
100
AcDbLine
 62
7
  6
CONTINUOUS
 10
8.7472889799
 20
7.6242727173
 11
8.7290291901
 21
7.597196988
  0
LINE
  5
700
100
AcDbEntity
  8
0
100
AcDbLine
 62
7
  6
CONTINUOUS
 10
8.4623651163
 20
7.1527938568
 11
8.4620311273
 21
7.1524522929
  0
LINE
  5
701
100
AcDbEntity
  8
0
100
AcDbLine
 62
7
  6
CONTINUOUS
 10
8.5013651349
 20
7.1527938571
 11
8.5010311456
 21
7.1524522929
  0
LINE
  5
702
100
AcDbEntity
  8
0
100
AcDbLine
 62
7
  6
CONTINUOUS
 10
8.5403651385
 20
7.1527938563
 11
8.54003115
 21
7.1524522929
  0
LINE
  5
703
100
AcDbEntity
  8
0
100
AcDbLine
 62
7
  6
CONTINUOUS
 10
8.4428651209
 20
7.6241107295
 11
8.4425311325
 21
7.6244522929
  0
LINE
  5
704
100
AcDbEntity
  8
0
100
AcDbLine
 62
7
  6
CONTINUOUS
 10
8.4818651236
 20
7.6241107287
 11
8.4815311343
 21
7.6244522929
  0
LINE
  5
705
100
AcDbEntity
  8
0
100
AcDbLine
 62
7
  6
CONTINUOUS
 10
8.5208651424
 20
7.6241107289
 11
8.5205311534
 21
7.6244522929
  0
LINE
  5
706
100
AcDbEntity
  8
0
100
AcDbLine
 62
7
  6
CONTINUOUS
 10
8.6702031927
 20
7.1801909725
 11
8.6887889944
 21
7.1526318681
  0
LINE
  5
707
100
AcDbEntity
  8
0
100
AcDbLine
 62
7
  6
CONTINUOUS
 10
8.7092031704
 20
7.1801909736
 11
8.7277889728
 21
7.1526318684
  0
LINE
  5
708
100
AcDbEntity
  8
0
100
AcDbLine
 62
7
  6
CONTINUOUS
 10
8.7482031886
 20
7.1801909735
 11
8.7667889908
 21
7.1526318685
  0
LWPOLYLINE
  5
709
100
AcDbEntity
  8
0
100
AcDbPolyline
 62
7
  6
CONTINUOUS
 90
21
 70
0
 10
8.5532031929
 20
7.1801909725
 10
8.5529252913
 20
7.1808115597
 10
8.5519281403
 20
7.1864467707
 10
8.5509309893
 20
7.1972841192
 10
8.5499338383
 20
7.2130445161
 10
8.5489366873
 20
7.233322092
 10
8.5479395363
 20
7.2575946491
 10
8.5469423853
 20
7.2852371093
 10
8.5459452343
 20
7.3155376113
 10
8.5449480833
 20
7.347715843
 10
8.5439509323
 20
7.3809431362
 10
8.5429537813
 20
7.4143638072
 10
8.5419566303
 20
7.4471171923
 10
8.5409594793
 20
7.4783598125
 10
8.5399623283
 20
7.5072870944
 10
8.5389651774
 20
7.5331540907
 10
8.5379680264
 20
7.5552946638
 10
8.5369708754
 20
7.5731386407
 10
8.5359737244
 20
7.5862264962
 10
8.5349765734
 20
7.5942211868
 10
8.5343553004
 20
7.5965303985
  0
LWPOLYLINE
  5
70A
100
AcDbEntity
  8
0
100
AcDbPolyline
 62
7
  6
CONTINUOUS
 90
21
 70
0
 10
8.5922031703
 20
7.1801909736
 10
8.5918141802
 20
7.1811761577
 10
8.5908170292
 20
7.1874005967
 10
8.5898198782
 20
7.1988026043
 10
8.5888227272
 20
7.2150885516
 10
8.5878255762
 20
7.2358390365
 10
8.5868284252
 20
7.2605196841
 10
8.5858312742
 20
7.2884949081
 10
8.5848341232
 20
7.319044279
 10
8.5838369722
 20
7.3513810764
 10
8.5828398212
 20
7.3846725492
 10
8.5818426702
 20
7.418061361
 10
8.5808455192
 20
7.4506876684
 10
8.5798483682
 20
7.4817112643
 10
8.5788512172
 20
7.510333215
 10
8.5778540662
 20
7.535816435
 10
8.5768569152
 20
7.5575046685
 10
8.5758597642
 20
7.5748393898
 10
8.5748626132
 20
7.5873741868
 10
8.5738654622
 20
7.5947862569
 10
8.5733552787
 20
7.596530399
  0
LWPOLYLINE
  5
70B
100
AcDbEntity
  8
0
100
AcDbPolyline
 62
7
  6
CONTINUOUS
 90
10
 70
0
 10
8.54003115
 20
7.1524522929
 10
8.5390634217
 20
7.1553147567
 10
8.5380960086
 20
7.1638290331
 10
8.5371273317
 20
7.1778103798
 10
8.5361588396
 20
7.1969074096
 10
8.5351849896
 20
7.2208016014
 10
8.5341987434
 20
7.2491944396
 10
8.5332124821
 20
7.2810961753
 10
8.5322382785
 20
7.3152666772
 10
8.531267914
 20
7.3510921763
  0
LWPOLYLINE
  5
70C
100
AcDbEntity
  8
0
100
AcDbPolyline
 62
7
  6
CONTINUOUS
 90
11
 70
0
 10
8.5790311273
 20
7.1524522929
 10
8.5780573969
 20
7.1553502974
 10
8.5770718358
 20
7.1641123728
 10
8.5760868218
 20
7.1785090049
 10
8.5751141613
 20
7.1979041524
 10
8.5741444082
 20
7.2218904535
 10
8.5731618873
 20
7.2503274574
 10
8.5721786012
 20
7.2822440928
 10
8.5712065283
 20
7.3164143686
 10
8.5702378305
 20
7.3522210329
 10
8.5683010422
 20
7.425561804
  0
LWPOLYLINE
  5
70D
100
AcDbEntity
  8
0
100
AcDbPolyline
 62
7
  6
CONTINUOUS
 90
11
 70
0
 10
8.5010311456
 20
7.1524522929
 10
8.5000563013
 20
7.1553569148
 10
8.4990696132
 20
7.1641388252
 10
8.4980834999
 20
7.1785670171
 10
8.4971098339
 20
7.1980016367
 10
8.4961415373
 20
7.2219682226
 10
8.4951732016
 20
7.2499793383
 10
8.4942052245
 20
7.2813416038
 10
8.4932370852
 20
7.3153093728
 10
8.4922628381
 20
7.3512822635
 10
8.490289998
 20
7.4259768571
  0
LWPOLYLINE
  5
70E
100
AcDbEntity
  8
0
100
AcDbPolyline
 62
7
  6
CONTINUOUS
 90
20
 70
0
 10
8.4752031703
 20
7.1801909736
 10
8.4741503625
 20
7.1847330154
 10
8.4731532115
 20
7.1944304326
 10
8.4721560605
 20
7.2091243835
 10
8.4711589095
 20
7.2284364637
 10
8.4701617585
 20
7.2518693408
 10
8.4691646075
 20
7.2788195617
 10
8.4681674566
 20
7.308593093
 10
8.4671703056
 20
7.3404231944
 10
8.4661731546
 20
7.3734901632
 10
8.4651760036
 20
7.4069424448
 10
8.4641788526
 20
7.4399185612
 10
8.4631817016
 20
7.4715692969
 10
8.4621845506
 20
7.5010795679
 10
8.4611873996
 20
7.5276894123
 10
8.4601902486
 20
7.550713561
 10
8.4591930976
 20
7.5695590853
 10
8.4581959466
 20
7.5837406661
 10
8.4571987956
 20
7.5928930922
 10
8.4563552789
 20
7.596530399
  0
LWPOLYLINE
  5
70F
100
AcDbEntity
  8
0
100
AcDbPolyline
 62
7
  6
CONTINUOUS
 90
10
 70
0
 10
8.490289998
 20
7.4259768571
 10
8.4893158953
 20
7.4619312919
 10
8.4883468084
 20
7.4959099945
 10
8.4873649808
 20
7.5276661205
 10
8.4863813061
 20
7.5559957369
 10
8.4854081314
 20
7.5798931161
 10
8.4844380226
 20
7.5990415948
 10
8.4834646361
 20
7.6130946909
 10
8.4824975859
 20
7.6215973678
 10
8.4818651236
 20
7.6241107287
  0
LWPOLYLINE
  5
710
100
AcDbEntity
  8
0
100
AcDbPolyline
 62
7
  6
CONTINUOUS
 90
11
 70
0
 10
8.4833085152
 20
7.425281216
 10
8.4852416509
 20
7.3520775453
 10
8.486208652
 20
7.3163375169
 10
8.4871807472
 20
7.2821712726
 10
8.4881652464
 20
7.2502239532
 10
8.4891501408
 20
7.2217361432
 10
8.4901230715
 20
7.1977044976
 10
8.4910926087
 20
7.1784086169
 10
8.4920748693
 20
7.1640766074
 10
8.4930584809
 20
7.1553438686
 10
8.4937889727
 20
7.1526318684
  0
LWPOLYLINE
  5
711
100
AcDbEntity
  8
0
100
AcDbPolyline
 62
7
  6
CONTINUOUS
 90
11
 70
0
 10
8.5222899991
 20
7.4259768571
 10
8.5242628391
 20
7.3512822635
 10
8.5252370862
 20
7.3153093728
 10
8.5262052256
 20
7.2813416038
 10
8.5271732026
 20
7.2499793383
 10
8.5281415383
 20
7.2219682226
 10
8.5291098349
 20
7.1980016367
 10
8.5300835008
 20
7.1785670171
 10
8.5310696142
 20
7.1641388252
 10
8.5320563022
 20
7.1553569148
 10
8.5327889905
 20
7.1526318685
  0
LWPOLYLINE
  5
712
100
AcDbEntity
  8
0
100
AcDbPolyline
 62
7
  6
CONTINUOUS
 90
11
 70
0
 10
8.531267914
 20
7.3510921763
 10
8.529300098
 20
7.4255982211
 10
8.5283265697
 20
7.461546048
 10
8.527357124
 20
7.4955611826
 10
8.5263848479
 20
7.5270559608
 10
8.5254183608
 20
7.5550009859
 10
8.5244518033
 20
7.578917767
 10
8.5234783509
 20
7.5983453366
 10
8.5224924283
 20
7.6127687925
 10
8.5215058843
 20
7.6215483424
 10
8.5208651424
 20
7.6241107289
  0
LINE
  5
713
100
AcDbEntity
  8
0
100
AcDbLine
 62
7
  6
CONTINUOUS
 10
8.4623651163
 20
7.1527938568
 11
8.4755291827
 21
7.179707598
  0
LINE
  5
714
100
AcDbEntity
  8
0
100
AcDbLine
 62
7
  6
CONTINUOUS
 10
8.5013651349
 20
7.1527938571
 11
8.5145292009
 21
7.1797075975
  0
LINE
  5
715
100
AcDbEntity
  8
0
100
AcDbLine
 62
7
  6
CONTINUOUS
 10
8.7757811408
 20
7.6086908945
 11
8.7680292086
 21
7.5971969884
  0
LINE
  5
716
100
AcDbEntity
  8
0
100
AcDbLine
 62
7
  6
CONTINUOUS
 10
8.5793651164
 20
7.1527938569
 11
8.5790311273
 21
7.1524522929
  0
LINE
  5
717
100
AcDbEntity
  8
0
100
AcDbLine
 62
7
  6
CONTINUOUS
 10
8.6183651351
 20
7.1527938571
 11
8.6180311457
 21
7.1524522929
  0
LINE
  5
718
100
AcDbEntity
  8
0
100
AcDbLine
 62
7
  6
CONTINUOUS
 10
8.6573651383
 20
7.1527938563
 11
8.6570311497
 21
7.1524522929
  0
LINE
  5
719
100
AcDbEntity
  8
0
100
AcDbLine
 62
7
  6
CONTINUOUS
 10
8.5598651207
 20
7.6241107295
 11
8.5595311322
 21
7.6244522929
  0
LINE
  5
71A
100
AcDbEntity
  8
0
100
AcDbLine
 62
7
  6
CONTINUOUS
 10
8.5988651237
 20
7.6241107287
 11
8.5985311344
 21
7.6244522929
  0
LINE
  5
71B
100
AcDbEntity
  8
0
100
AcDbLine
 62
7
  6
CONTINUOUS
 10
8.6378651425
 20
7.6241107289
 11
8.6375311534
 21
7.6244522929
  0
LWPOLYLINE
  5
71C
100
AcDbEntity
  8
0
100
AcDbPolyline
 62
7
  6
CONTINUOUS
 90
21
 70
0
 10
8.7482031886
 20
7.1801909735
 10
8.7480084886
 20
7.1805820435
 10
8.7470166082
 20
7.1857333918
 10
8.7460247277
 20
7.1960503139
 10
8.7450328473
 20
7.2112699192
 10
8.7440409668
 20
7.2310043901
 10
8.7430490864
 20
7.2547508632
 10
8.742057206
 20
7.2819042438
 10
8.7410653255
 20
7.3117726242
 10
8.7400734451
 20
7.3435949142
 10
8.7390815647
 20
7.3765602358
 10
8.7380896842
 20
7.4098285842
 10
8.7370978038
 20
7.4425522336
 10
8.7361059234
 20
7.4738973376
 10
8.7351140429
 20
7.5030651773
 10
8.7341221625
 20
7.5293125135
 10
8.7331302821
 20
7.5519705258
 10
8.7321384016
 20
7.5704618548
 10
8.7311465212
 20
7.5843153146
 10
8.7301546407
 20
7.5931778985
 10
8.7293552823
 20
7.5965303976
  0
LINE
  5
71D
100
AcDbEntity
  8
0
100
AcDbLine
 62
7
  6
CONTINUOUS
 10
8.4563552789
 20
7.596530399
 11
8.4428651209
 21
7.6241107295
  0
LINE
  5
71E
100
AcDbEntity
  8
0
100
AcDbLine
 62
7
  6
CONTINUOUS
 10
8.4953552819
 20
7.5965303976
 11
8.4818651236
 21
7.6241107287
  0
LINE
  5
71F
100
AcDbEntity
  8
0
100
AcDbLine
 62
7
  6
CONTINUOUS
 10
8.5343553004
 20
7.5965303985
 11
8.5208651424
 21
7.6241107289
  0
LWPOLYLINE
  5
720
100
AcDbEntity
  8
0
100
AcDbPolyline
 62
7
  6
CONTINUOUS
 90
10
 70
0
 10
8.6312031884
 20
7.1801909735
 10
8.6307030691
 20
7.1816073144
 10
8.6297059181
 20
7.1884192023
 10
8.6287087671
 20
7.2003824219
 10
8.6277116161
 20
7.2171888915
 10
8.6267144651
 20
7.2384058041
 10
8.6257173141
 20
7.2634867733
 10
8.6247201631
 20
7.2917859041
 10
8.6237230121
 20
7.322574426
 10
8.6227258611
 20
7.3550594607
  0
LWPOLYLINE
  5
721
100
AcDbEntity
  8
0
100
AcDbPolyline
 62
7
  6
CONTINUOUS
 90
10
 70
0
 10
8.5135311355
 20
7.6244522929
 10
8.5144975871
 20
7.6215973678
 10
8.5154646373
 20
7.6130946909
 10
8.5164380238
 20
7.5990415948
 10
8.5174081326
 20
7.5798931161
 10
8.5183813073
 20
7.5559957369
 10
8.519364982
 20
7.5276661205
 10
8.5203468095
 20
7.4959099945
 10
8.5213158964
 20
7.4619312919
 10
8.5222899991
 20
7.4259768571
  0
LWPOLYLINE
  5
722
100
AcDbEntity
  8
0
100
AcDbPolyline
 62
7
  6
CONTINUOUS
 90
10
 70
0
 10
8.6570311497
 20
7.1524522929
 10
8.656061929
 20
7.1553235746
 10
8.6550912211
 20
7.1638849322
 10
8.6541244432
 20
7.177859925
 10
8.6531566302
 20
7.1969564908
 10
8.6521823436
 20
7.2208724201
 10
8.6511956953
 20
7.2492880186
 10
8.6502090691
 20
7.2812117498
 10
8.6492345682
 20
7.3154008018
 10
8.6482680367
 20
7.3510875688
  0
LWPOLYLINE
  5
723
100
AcDbEntity
  8
0
100
AcDbPolyline
 62
7
  6
CONTINUOUS
 90
10
 70
0
 10
8.474531133
 20
7.6244522929
 10
8.4755029114
 20
7.6215658677
 10
8.476483999
 20
7.6128679195
 10
8.4774621606
 20
7.5986256599
 10
8.4784279677
 20
7.579450969
 10
8.4794007741
 20
7.5554734369
 10
8.4803856249
 20
7.5270313139
 10
8.4813701709
 20
7.4951180983
 10
8.482342431
 20
7.4609715105
 10
8.4833085152
 20
7.425281216
  0
LWPOLYLINE
  5
724
100
AcDbEntity
  8
0
100
AcDbPolyline
 62
7
  6
CONTINUOUS
 90
11
 70
0
 10
8.6180311457
 20
7.1524522929
 10
8.6170576953
 20
7.1553486318
 10
8.6160719323
 20
7.1641114402
 10
8.6150861652
 20
7.1785207031
 10
8.6141122522
 20
7.1979473555
 10
8.6131424143
 20
7.2219445957
 10
8.6121705512
 20
7.2500609591
 10
8.6112036778
 20
7.2813940167
 10
8.6102361207
 20
7.3153442443
 10
8.6092613979
 20
7.3513363465
 10
8.6072876503
 20
7.4260649899
  0
LWPOLYLINE
  5
725
100
AcDbEntity
  8
0
100
AcDbPolyline
 62
7
  6
CONTINUOUS
 90
11
 70
0
 10
8.6227258611
 20
7.3550594607
 10
8.6207315591
 20
7.4217506534
 10
8.6197344081
 20
7.4542393534
 10
8.6187372571
 20
7.485033879
 10
8.6177401061
 20
7.5133411974
 10
8.6167429551
 20
7.5384323272
 10
8.6157458041
 20
7.5596611117
 10
8.6147486531
 20
7.5764808589
 10
8.6137515021
 20
7.5884584196
 10
8.6127543511
 20
7.595285343
 10
8.6123552821
 20
7.5965303976
  0
LWPOLYLINE
  5
726
100
AcDbEntity
  8
0
100
AcDbPolyline
 62
7
  6
CONTINUOUS
 90
10
 70
0
 10
8.5632679142
 20
7.3510921763
 10
8.5642382786
 20
7.3152666772
 10
8.5652124823
 20
7.2810961753
 10
8.5661987436
 20
7.2491944396
 10
8.5671849897
 20
7.2208016014
 10
8.5681588397
 20
7.1969074096
 10
8.5691273318
 20
7.1778103798
 10
8.5700960087
 20
7.1638290331
 10
8.5710634217
 20
7.1553147567
 10
8.5717889946
 20
7.1526318681
  0
LWPOLYLINE
  5
727
100
AcDbEntity
  8
0
100
AcDbPolyline
 62
7
  6
CONTINUOUS
 90
10
 70
0
 10
8.5683010422
 20
7.425561804
 10
8.567335432
 20
7.4612246649
 10
8.5663624467
 20
7.495379959
 10
8.5653772458
 20
7.5272890336
 10
8.5643918427
 20
7.5557131515
 10
8.5634185767
 20
7.579660456
 10
8.562454499
 20
7.5987579861
 10
8.5614808398
 20
7.6129050517
 10
8.5605023567
 20
7.6215691504
 10
8.5598651207
 20
7.6241107295
  0
LWPOLYLINE
  5
728
100
AcDbEntity
  8
0
100
AcDbPolyline
 62
7
  6
CONTINUOUS
 90
10
 70
0
 10
8.6072876503
 20
7.4260649899
 10
8.6063131259
 20
7.4620313541
 10
8.6053469914
 20
7.4959038062
 10
8.6043698923
 20
7.5275152945
 10
8.6033888817
 20
7.5557927631
 10
8.6024162108
 20
7.5797133189
 10
8.6014447207
 20
7.5989265204
 10
8.6004677908
 20
7.6130579014
 10
8.5994972095
 20
7.6215995873
 10
8.5988651237
 20
7.6241107287
  0
LWPOLYLINE
  5
729
100
AcDbEntity
  8
0
100
AcDbPolyline
 62
7
  6
CONTINUOUS
 90
11
 70
0
 10
8.6003010431
 20
7.425561804
 10
8.6022378315
 20
7.3522210329
 10
8.6032065293
 20
7.3164143686
 10
8.6041786023
 20
7.2822440928
 10
8.6051618883
 20
7.2503274574
 10
8.6061444094
 20
7.2218904535
 10
8.6071141625
 20
7.1979041524
 10
8.6080868229
 20
7.1785090049
 10
8.609071837
 20
7.1641123728
 10
8.6100573981
 20
7.1553502974
 10
8.6107889727
 20
7.1526318684
  0
LINE
  5
72A
100
AcDbEntity
  8
0
100
AcDbLine
 62
7
  6
CONTINUOUS
 10
8.5403651385
 20
7.1527938563
 11
8.5535292048
 21
7.1797075975
  0
LINE
  5
72B
100
AcDbEntity
  8
0
100
AcDbLine
 62
7
  6
CONTINUOUS
 10
8.5793651164
 20
7.1527938569
 11
8.5925291828
 21
7.179707598
  0
LINE
  5
72C
100
AcDbEntity
  8
0
100
AcDbLine
 62
7
  6
CONTINUOUS
 10
8.6183651351
 20
7.1527938571
 11
8.6315292011
 21
7.1797075975
  0
LINE
  5
72D
100
AcDbEntity
  8
0
100
AcDbLine
 62
7
  6
CONTINUOUS
 10
8.6963651164
 20
7.1527938569
 11
8.6960311274
 21
7.1524522929
  0
LINE
  5
72E
100
AcDbEntity
  8
0
100
AcDbLine
 62
7
  6
CONTINUOUS
 10
8.7353651352
 20
7.1527938571
 11
8.7350311459
 21
7.1524522929
  0
LINE
  5
72F
100
AcDbEntity
  8
0
100
AcDbLine
 62
7
  6
CONTINUOUS
 10
8.774031162
 20
7.1524522929
 11
8.7743651381
 21
7.1527938563
  0
LINE
  5
730
100
AcDbEntity
  8
0
100
AcDbLine
 62
7
  6
CONTINUOUS
 10
8.6768651205
 20
7.6241107295
 11
8.676531132
 21
7.6244522929
  0
LINE
  5
731
100
AcDbEntity
  8
0
100
AcDbLine
 62
7
  6
CONTINUOUS
 10
8.7158651239
 20
7.6241107287
 11
8.7155311346
 21
7.6244522929
  0
LINE
  5
732
100
AcDbEntity
  8
0
100
AcDbLine
 62
7
  6
CONTINUOUS
 10
8.7545311535
 20
7.6244522929
 11
8.7548651425
 21
7.6241107289
  0
LINE
  5
733
100
AcDbEntity
  8
0
100
AcDbLine
 62
7
  6
CONTINUOUS
 10
8.5733552787
 20
7.596530399
 11
8.5598651207
 21
7.6241107295
  0
LINE
  5
734
100
AcDbEntity
  8
0
100
AcDbLine
 62
7
  6
CONTINUOUS
 10
8.6123552821
 20
7.5965303976
 11
8.5988651237
 21
7.6241107287
  0
LWPOLYLINE
  5
735
100
AcDbEntity
  8
0
100
AcDbPolyline
 62
7
  6
CONTINUOUS
 90
10
 70
0
 10
8.7350311459
 20
7.1524522929
 10
8.7340623094
 20
7.155321297
 10
8.7330812182
 20
7.1640020926
 10
8.7320979221
 20
7.1783168637
 10
8.731124265
 20
7.1976781265
 10
8.7301529063
 20
7.2216621394
 10
8.7291773837
 20
7.2498506207
 10
8.7282086863
 20
7.2812243488
 10
8.7272416361
 20
7.3151448936
 10
8.7262664847
 20
7.3511453639
  0
LWPOLYLINE
  5
736
100
AcDbEntity
  8
0
100
AcDbPolyline
 62
7
  6
CONTINUOUS
 90
10
 70
0
 10
8.5915311328
 20
7.6244522929
 10
8.5925023574
 20
7.6215691504
 10
8.5934808405
 20
7.6129050517
 10
8.5944544997
 20
7.5987579861
 10
8.5954185775
 20
7.579660456
 10
8.5963918435
 20
7.5557131515
 10
8.5973772466
 20
7.5272890336
 10
8.5983624475
 20
7.495379959
 10
8.5993354329
 20
7.4612246649
 10
8.6003010431
 20
7.425561804
  0
LWPOLYLINE
  5
737
100
AcDbEntity
  8
0
100
AcDbPolyline
 62
7
  6
CONTINUOUS
 90
11
 70
0
 10
8.6960311274
 20
7.1524522929
 10
8.6950565295
 20
7.1553554526
 10
8.6940700907
 20
7.1641329805
 10
8.6930842194
 20
7.1785542185
 10
8.6921108149
 20
7.1979792488
 10
8.691144547
 20
7.2218867163
 10
8.6901663142
 20
7.2501910133
 10
8.6891851943
 20
7.2820202952
 10
8.6882131503
 20
7.3161746451
 10
8.6872425673
 20
7.3520430759
 10
8.6852987649
 20
7.4256473069
  0
LWPOLYLINE
  5
738
100
AcDbEntity
  8
0
100
AcDbPolyline
 62
7
  6
CONTINUOUS
 90
11
 70
0
 10
8.5525311538
 20
7.6244522929
 10
8.5535058847
 20
7.6215483424
 10
8.5544924287
 20
7.6127687925
 10
8.5554783513
 20
7.5983453366
 10
8.5564518036
 20
7.578917767
 10
8.5574183611
 20
7.5550009859
 10
8.5583848482
 20
7.5270559608
 10
8.5593571243
 20
7.4955611826
 10
8.5603265699
 20
7.461546048
 10
8.5613000982
 20
7.4255982211
 10
8.5632679142
 20
7.3510921763
  0
LWPOLYLINE
  5
739
100
AcDbEntity
  8
0
100
AcDbPolyline
 62
7
  6
CONTINUOUS
 90
21
 70
0
 10
8.6702031927
 20
7.1801909725
 10
8.669591958
 20
7.182104708
 10
8.668594807
 20
7.1895018066
 10
8.667597656
 20
7.2020223679
 10
8.666600505
 20
7.2193439561
 10
8.665603354
 20
7.2410204972
 10
8.664606203
 20
7.2664937667
 10
8.663609052
 20
7.2951077652
 10
8.662611901
 20
7.326125612
 10
8.66161475
 20
7.3587485215
 10
8.660617599
 20
7.3921363742
 10
8.659620448
 20
7.4254293516
 10
8.658623297
 20
7.4577700784
 10
8.657626146
 20
7.4883257025
 10
8.656628995
 20
7.5163093426
 10
8.655631844
 20
7.5410003523
 10
8.654634693
 20
7.5617628785
 10
8.653637542
 20
7.5780622364
 10
8.652640391
 20
7.5894786784
 10
8.65164324
 20
7.595718204
 10
8.6513553005
 20
7.5965303985
  0
LWPOLYLINE
  5
73A
100
AcDbEntity
  8
0
100
AcDbPolyline
 62
7
  6
CONTINUOUS
 90
21
 70
0
 10
8.7092031704
 20
7.1801909736
 10
8.7083332712
 20
7.1835184056
 10
8.7073413907
 20
7.1922084849
 10
8.7063495103
 20
7.2058991483
 10
8.7053576298
 20
7.2242415378
 10
8.7043657494
 20
7.2467682626
 10
8.703373869
 20
7.2729053085
 10
8.7023819885
 20
7.301986665
 10
8.7013901081
 20
7.3332712961
 10
8.7003982277
 20
7.3659620227
 10
8.6994063472
 20
7.3992258365
 10
8.6984144668
 20
7.4322151255
 10
8.6974225864
 20
7.4640892731
 10
8.6964307059
 20
7.4940360781
 10
8.6954388255
 20
7.5212924503
 10
8.694446945
 20
7.545163856
 10
8.6934550646
 20
7.5650420152
 10
8.6924631842
 20
7.5804204019
 10
8.6914713037
 20
7.5909071507
 10
8.6904794233
 20
7.5962350427
 10
8.6903552785
 20
7.596530399
  0
LWPOLYLINE
  5
73B
100
AcDbEntity
  8
0
100
AcDbPolyline
 62
7
  6
CONTINUOUS
 90
10
 70
0
 10
8.6802680369
 20
7.3510875688
 10
8.6812345684
 20
7.3154008018
 10
8.6822090693
 20
7.2812117498
 10
8.6831956955
 20
7.2492880186
 10
8.6841823437
 20
7.2208724201
 10
8.6851566303
 20
7.1969564908
 10
8.6861244433
 20
7.177859925
 10
8.6870912212
 20
7.1638849322
 10
8.6880619291
 20
7.1553235746
 10
8.6887889944
 20
7.1526318681
  0
LWPOLYLINE
  5
73C
100
AcDbEntity
  8
0
100
AcDbPolyline
 62
7
  6
CONTINUOUS
 90
10
 70
0
 10
8.6852987649
 20
7.4256473069
 10
8.6843333205
 20
7.4613010268
 10
8.6833594346
 20
7.4954820374
 10
8.6823733415
 20
7.5274090419
 10
8.6813870942
 20
7.5558404706
 10
8.680413067
 20
7.5797831684
 10
8.6794478037
 20
7.5988733712
 10
8.6784782378
 20
7.6129355965
 10
8.6775020757
 20
7.6215708141
 10
8.6768651205
 20
7.6241107295
  0
LWPOLYLINE
  5
73D
100
AcDbEntity
  8
0
100
AcDbPolyline
 62
7
  6
CONTINUOUS
 90
11
 70
0
 10
8.6392876514
 20
7.4260649899
 10
8.6412613989
 20
7.3513363465
 10
8.6422361218
 20
7.3153442443
 10
8.6432036788
 20
7.2813940167
 10
8.6441705522
 20
7.2500609591
 10
8.6451424153
 20
7.2219445957
 10
8.6461122532
 20
7.1979473555
 10
8.6470861662
 20
7.1785207031
 10
8.6480719332
 20
7.1641114402
 10
8.6490576962
 20
7.1553486318
 10
8.6497889906
 20
7.1526318685
  0
LWPOLYLINE
  5
73E
100
AcDbEntity
  8
0
100
AcDbPolyline
 62
7
  6
CONTINUOUS
 90
11
 70
0
 10
8.6482680367
 20
7.3510875688
 10
8.6463077976
 20
7.4253090903
 10
8.6453348354
 20
7.4612471624
 10
8.6443640831
 20
7.4953253412
 10
8.6433883481
 20
7.5269482273
 10
8.6424191985
 20
7.5549784197
 10
8.6414532891
 20
7.5788844031
 10
8.6404795006
 20
7.5983253492
 10
8.6394931995
 20
7.6127596793
 10
8.6385062677
 20
7.6215460624
 10
8.6378651425
 20
7.6241107289
  0
LWPOLYLINE
  5
73F
100
AcDbEntity
  8
0
100
AcDbPolyline
 62
7
  6
CONTINUOUS
 90
11
 70
0
 10
8.7172987659
 20
7.4256473069
 10
8.7192425683
 20
7.3520430759
 10
8.7202131514
 20
7.3161746451
 10
8.7211851953
 20
7.2820202952
 10
8.7221663153
 20
7.2501910133
 10
8.7231445481
 20
7.2218867163
 10
8.724110816
 20
7.1979792488
 10
8.7250842205
 20
7.1785542185
 10
8.7260700918
 20
7.1641329805
 10
8.7270565307
 20
7.1553554526
 10
8.7277889728
 20
7.1526318684
  0
LINE
  5
740
100
AcDbEntity
  8
0
100
AcDbLine
 62
7
  6
CONTINUOUS
 10
8.6573651383
 20
7.1527938563
 11
8.6705292046
 21
7.1797075975
  0
LINE
  5
741
100
AcDbEntity
  8
0
100
AcDbLine
 62
7
  6
CONTINUOUS
 10
8.6963651164
 20
7.1527938569
 11
8.7095291828
 21
7.179707598
  0
LINE
  5
742
100
AcDbEntity
  8
0
100
AcDbLine
 62
7
  6
CONTINUOUS
 10
8.6513553005
 20
7.5965303985
 11
8.6378651425
 21
7.6241107289
  0
LINE
  5
743
100
AcDbEntity
  8
0
100
AcDbLine
 62
7
  6
CONTINUOUS
 10
8.6903552785
 20
7.596530399
 11
8.6768651205
 21
7.6241107295
  0
LINE
  5
744
100
AcDbEntity
  8
0
100
AcDbLine
 62
7
  6
CONTINUOUS
 10
8.7293552823
 20
7.5965303976
 11
8.7158651239
 21
7.6241107287
  0
LWPOLYLINE
  5
745
100
AcDbEntity
  8
0
100
AcDbPolyline
 62
7
  6
CONTINUOUS
 90
10
 70
0
 10
8.6305311357
 20
7.6244522929
 10
8.6314972107
 20
7.6215995873
 10
8.632467792
 20
7.6130579014
 10
8.6334447219
 20
7.5989265204
 10
8.634416212
 20
7.5797133189
 10
8.6353888829
 20
7.5557927631
 10
8.6363698934
 20
7.5275152945
 10
8.6373469925
 20
7.4959038062
 10
8.638313127
 20
7.4620313541
 10
8.6392876514
 20
7.4260649899
  0
LWPOLYLINE
  5
746
100
AcDbEntity
  8
0
100
AcDbPolyline
 62
7
  6
CONTINUOUS
 90
11
 70
0
 10
8.6695311539
 20
7.6244522929
 10
8.6705062681
 20
7.6215460624
 10
8.6714931999
 20
7.6127596793
 10
8.672479501
 20
7.5983253492
 10
8.6734532895
 20
7.5788844031
 10
8.6744191988
 20
7.5549784197
 10
8.6753883483
 20
7.5269482273
 10
8.6763640834
 20
7.4953253412
 10
8.6773348356
 20
7.4612471624
 10
8.6783077978
 20
7.4253090903
 10
8.6802680369
 20
7.3510875688
  0
LWPOLYLINE
  5
747
100
AcDbEntity
  8
0
100
AcDbPolyline
 62
7
  6
CONTINUOUS
 90
11
 70
0
 10
8.7667889908
 20
7.1526318685
 10
8.7660409402
 20
7.155448987
 10
8.765066723
 20
7.1641730174
 10
8.7640924986
 20
7.1784108197
 10
8.7631183035
 20
7.197811669
 10
8.7621441154
 20
7.2218987995
 10
8.7611699147
 20
7.2500805999
 10
8.7601957344
 20
7.2816632997
 10
8.7592215588
 20
7.3158709185
 10
8.7582473592
 20
7.3518636133
 10
8.7562988848
 20
7.4256432875
  0
LWPOLYLINE
  5
748
100
AcDbEntity
  8
0
100
AcDbPolyline
 62
7
  6
CONTINUOUS
 90
9
 70
0
 10
8.7757811408
 20
7.4527486454
 10
8.7747892604
 20
7.4834831772
 10
8.7737973799
 20
7.5117961791
 10
8.7728054995
 20
7.5369661939
 10
8.7718136191
 20
7.5583518524
 10
8.7708217386
 20
7.5754082168
 10
8.7698298582
 20
7.5877006659
 10
8.7688379777
 20
7.5949159704
 10
8.7683553005
 20
7.5965303985
  0
LWPOLYLINE
  5
749
100
AcDbEntity
  8
0
100
AcDbPolyline
 62
7
  6
CONTINUOUS
 90
9
 70
0
 10
8.7562988848
 20
7.4256432875
 10
8.7553246852
 20
7.4616136783
 10
8.754350513
 20
7.4957846202
 10
8.7533763218
 20
7.5273177508
 10
8.7524021121
 20
7.55543771
 10
8.7514279213
 20
7.5794521656
 10
8.7504537286
 20
7.5987713958
 10
8.7494795125
 20
7.6129207081
 10
8.7485053095
 20
7.6215516574
  0
LWPOLYLINE
  5
74A
100
AcDbEntity
  8
0
100
AcDbPolyline
 62
7
  6
CONTINUOUS
 90
11
 70
0
 10
8.7262664847
 20
7.3511453639
 10
8.7242916789
 20
7.4259137724
 10
8.7233165578
 20
7.4619073669
 10
8.7223504727
 20
7.4957859487
 10
8.7213780492
 20
7.527264604
 10
8.7203996411
 20
7.5555040547
 10
8.719427384
 20
7.5794641387
 10
8.7184545046
 20
7.5987579892
 10
8.7174740064
 20
7.6129852462
 10
8.7164977191
 20
7.6215965842
 10
8.7158651239
 20
7.6241107287
  0
LINE
  5
74B
100
AcDbEntity
  8
0
100
AcDbLine
 62
7
  6
CONTINUOUS
 10
8.7757811408
 20
7.6086885805
 11
8.7757811408
 21
7.1556913662
  0
LINE
  5
74C
100
AcDbEntity
  8
0
100
AcDbLine
 62
7
  6
CONTINUOUS
 10
8.7743651381
 20
7.1527938563
 11
8.7757811408
 21
7.1556893438
  0
LINE
  5
74D
100
AcDbEntity
  8
0
100
AcDbLine
 62
7
  6
CONTINUOUS
 10
8.7353651352
 20
7.1527938571
 11
8.7485292013
 21
7.1797075975
  0
LINE
  5
74E
100
AcDbEntity
  8
0
100
AcDbLine
 62
7
  6
CONTINUOUS
 10
8.7683553005
 20
7.5965303985
 11
8.7548651425
 21
7.6241107289
  0
LWPOLYLINE
  5
74F
100
AcDbEntity
  8
0
100
AcDbPolyline
 62
7
  6
CONTINUOUS
 90
10
 70
0
 10
8.7085311326
 20
7.6244522929
 10
8.7095020763
 20
7.6215708141
 10
8.7104782385
 20
7.6129355965
 10
8.7114478044
 20
7.5988733712
 10
8.7124130677
 20
7.5797831684
 10
8.713387095
 20
7.5558404706
 10
8.7143733424
 20
7.5274090419
 10
8.7153594354
 20
7.4954820374
 10
8.7163333214
 20
7.4613010268
 10
8.7172987659
 20
7.4256473069
  0
LINE
  5
750
100
AcDbEntity
  8
0
100
AcDbLine
 62
7
  6
CONTINUOUS
 10
8.7485053095
 20
7.6215516574
 11
8.7475311358
 21
7.6244522929
  0
LWPOLYLINE
  5
751
100
AcDbEntity
  8
0
100
AcDbPolyline
 62
7
  6
CONTINUOUS
 90
22
 70
0
 10
8.7548651425
 20
7.6241107289
 10
8.7554970874
 20
7.621600417
 10
8.7564630559
 20
7.6131133125
 10
8.7574290199
 20
7.5991961897
 10
8.7583949474
 20
7.5801862057
 10
8.7593608517
 20
7.5565429932
 10
8.7603267792
 20
7.5288368283
 10
8.7612927191
 20
7.4977374137
 10
8.7622586399
 20
7.4639973988
 10
8.7632245612
 20
7.4284316064
 10
8.7641904989
 20
7.3918989773
 10
8.7651564229
 20
7.3552835612
 10
8.7661223271
 20
7.3194704813
 10
8.7670882531
 20
7.2853237387
 10
8.7680542074
 20
7.2536685267
 10
8.7690201605
 20
7.2252710034
 10
8.7699860856
 20
7.2008181191
 10
8.7709519937
 20
7.180900292
 10
8.7719179019
 20
7.1659984066
 10
8.7728838237
 20
7.1564725121
 10
8.7738497388
 20
7.1525530807
 10
8.774031162
 20
7.1524522929
  0
LINE
  5
752
100
AcDbEntity
  8
0
100
AcDbLine
 62
7
  6
CONTINUOUS
 10
8.8151512195
 20
7.1847121354
 11
8.8151512195
 21
7.5921924504
  0
LWPOLYLINE
  5
753
100
AcDbEntity
  8
0
100
AcDbPolyline
 62
7
  6
CONTINUOUS
 90
8
 70
0
 10
13.9397213714
 20
7.0478372637
 10
13.9050910856
 20
7.038838577
 10
13.8684097477
 20
7.0331633057
 10
13.8306260795
 20
7.0309582348
 10
13.7927172896
 20
7.0322807137
 10
13.755664037
 20
7.0370971658
 10
13.7204252951
 20
7.0452839088
 10
13.6879137475
 20
7.0566302653
  0
LWPOLYLINE
  5
754
100
AcDbEntity
  8
0
100
AcDbPolyline
 62
7
  6
CONTINUOUS
 90
14
 70
0
 10
13.6879137475
 20
7.0566302653
 10
13.7195311047
 20
7.0463382991
 10
13.753762546
 20
7.0390347579
 10
13.7897667318
 20
7.0349190981
 10
13.8266585004
 20
7.0341122952
 10
13.8635307922
 20
7.0366538368
 10
13.8994773091
 20
7.0425008151
 10
13.9336145601
 20
7.0515290429
 10
13.9651029404
 20
7.0635358354
 10
13.9931680252
 20
7.0782448891
 10
14.0171276803
 20
7.0953194644
 10
14.0363862093
 20
7.1143568345
 10
14.0504692714
 20
7.1349081013
 10
14.0590303156
 20
7.1564867922
  0
LWPOLYLINE
  5
755
100
AcDbEntity
  8
0
100
AcDbPolyline
 62
7
  6
CONTINUOUS
 90
7
 70
0
 10
13.6879137475
 20
7.0566302653
 10
13.6610803277
 20
7.0707934398
 10
13.6384758306
 20
7.087086554
 10
13.6205585793
 20
7.1051440691
 10
13.6077634575
 20
7.1244890536
 10
13.6003121511
 20
7.144828556
 10
13.5996746425
 20
7.1519883789
  0
LWPOLYLINE
  5
756
100
AcDbEntity
  8
0
100
AcDbPolyline
 62
7
  6
CONTINUOUS
 90
12
 70
0
 10
13.6502664628
 20
7.164874496
 10
13.675153287
 20
7.1517986819
 10
13.7033496469
 20
7.1409400183
 10
13.7340545958
 20
7.1326165531
 10
13.7671386369
 20
7.1269203511
 10
13.8017356362
 20
7.1241043958
 10
13.8367141933
 20
7.1242869979
 10
13.8709886506
 20
7.1273991159
 10
13.9045764972
 20
7.133435717
 10
13.9367581615
 20
7.1423692174
 10
13.966454191
 20
7.1539614921
 10
13.9927377324
 20
7.1677979972
  0
LWPOLYLINE
  5
757
100
AcDbEntity
  8
0
100
AcDbPolyline
 62
7
  6
CONTINUOUS
 90
5
 70
0
 10
13.6502664628
 20
7.1387464187
 10
13.6286234773
 20
7.154201155
 10
13.6114346073
 20
7.17134351
 10
13.5989761778
 20
7.1899824777
 10
13.5917106555
 20
7.2096778012
  0
LWPOLYLINE
  5
758
100
AcDbEntity
  8
0
100
AcDbPolyline
 62
7
  6
CONTINUOUS
 90
13
 70
0
 10
13.9332388931
 20
7.2743140914
 10
13.8993365585
 20
7.2653761582
 10
13.8636471473
 20
7.2595724233
 10
13.826762904
 20
7.2570199306
 10
13.7893941115
 20
7.257849645
 10
13.7529485476
 20
7.2620732834
 10
13.7187535407
 20
7.2694523517
 10
13.6874748274
 20
7.2797068109
 10
13.6592825517
 20
7.2927628432
 10
13.6350809923
 20
7.308275424
 10
13.615745432
 20
7.3256453908
 10
13.6015636492
 20
7.3445185764
 10
13.5928251592
 20
7.3645642425
  0
LWPOLYLINE
  5
759
100
AcDbEntity
  8
0
100
AcDbPolyline
 62
7
  6
CONTINUOUS
 90
12
 70
0
 10
13.6420558751
 20
7.2657059494
 10
13.666525567
 20
7.2514253145
 10
13.6947864029
 20
7.239402999
 10
13.7258792003
 20
7.2300545653
 10
13.7594987309
 20
7.2234933934
 10
13.7949192132
 20
7.2199501067
 10
13.8309098675
 20
7.2195800697
 10
13.8663407197
 20
7.2223334511
 10
13.9011704373
 20
7.2282102181
 10
13.9346212006
 20
7.2371994461
 10
13.9654889655
 20
7.2490553683
 10
13.9927377324
 20
7.2633287798
  0
LWPOLYLINE
  5
75A
100
AcDbEntity
  8
0
100
AcDbPolyline
 62
7
  6
CONTINUOUS
 90
5
 70
0
 10
13.6420558751
 20
7.239577872
 10
13.6225855802
 20
7.2550827261
 10
13.6073641075
 20
7.2720728078
 10
13.5966337811
 20
7.2904108556
 10
13.5908545022
 20
7.3095732453
  0
LWPOLYLINE
  5
75B
100
AcDbEntity
  8
0
100
AcDbPolyline
 62
7
  6
CONTINUOUS
 90
4
 70
0
 10
13.6429042944
 20
7.0838945579
 10
13.6470417883
 20
7.0786639847
 10
13.6627579471
 20
7.0645453186
 10
13.6817943901
 20
7.0518616679
  0
LWPOLYLINE
  5
75C
100
AcDbEntity
  8
0
100
AcDbPolyline
 62
7
  6
CONTINUOUS
 90
6
 70
0
 10
13.7477232875
 20
7.4229171549
 10
13.8113488085
 20
7.4200695471
 10
13.8752957098
 20
7.4227168022
 10
13.9381486327
 20
7.4308257191
 10
13.9985154457
 20
7.4442420797
 10
14.055059589
 20
7.4626941587
  0
LINE
  5
75D
100
AcDbEntity
  8
0
100
AcDbLine
 62
7
  6
CONTINUOUS
 10
13.7765821522
 20
7.4100027552
 11
13.7202288775
 21
7.4170726346
  0
LWPOLYLINE
  5
75E
100
AcDbEntity
  8
0
100
AcDbPolyline
 62
9
  6
CONTINUOUS
 90
3
 70
0
 10
13.7067759362
 20
7.4278523496
 10
13.6933416249
 20
7.4304056481
 10
13.6630082341
 20
7.4379411054
  0
LWPOLYLINE
  5
75F
100
AcDbEntity
  8
0
100
AcDbPolyline
 62
7
  6
CONTINUOUS
 90
3
 70
0
 10
13.7477232875
 20
7.4168737512
 10
13.7305957522
 20
7.4201470043
 10
13.7137923955
 20
7.4238014866
  0
LINE
  5
760
100
AcDbEntity
  8
0
100
AcDbLine
 62
7
  6
CONTINUOUS
 10
13.7202288775
 20
7.4170726346
 11
13.6662850134
 21
7.4292125161
  0
LINE
  5
761
100
AcDbEntity
  8
0
100
AcDbLine
 62
7
  6
CONTINUOUS
 10
13.5974651507
 20
7.4435710697
 11
13.6328206369
 21
7.4231590319
  0
LINE
  5
762
100
AcDbEntity
  8
0
100
AcDbLine
 62
7
  6
CONTINUOUS
 10
13.6252981939
 20
7.4326051583
 11
13.5974651507
 21
7.4486742098
  0
LWPOLYLINE
  5
763
100
AcDbEntity
  8
0
100
AcDbPolyline
 62
7
  6
CONTINUOUS
 90
5
 70
0
 10
13.6343752417
 20
7.3406557357
 10
13.6170250298
 20
7.3561249
 10
13.6036817475
 20
7.3729334789
 10
13.5946321276
 20
7.3908936826
 10
13.5902632746
 20
7.4094677801
  0
LWPOLYLINE
  5
764
100
AcDbEntity
  8
AXIS
100
AcDbPolyline
 62
7
  6
CONTINUOUS
 90
8
 70
0
 10
13.2353086562
 20
8.4841951302
 10
13.2390221933
 20
8.4460194305
 10
13.2501155544
 20
8.4083252318
 10
13.2684492338
 20
8.3715851412
 10
13.293792675
 20
8.3362611864
 10
13.3258271695
 20
8.3027975869
 10
13.3641498649
 20
8.2716151667
 10
13.408278831
 20
8.2431060629
  0
LWPOLYLINE
  5
765
100
AcDbEntity
  8
0
100
AcDbPolyline
 62
9
  6
CONTINUOUS
 90
11
 70
0
 10
13.2353086562
 20
8.1305917079
 10
13.2366413357
 20
8.1076991463
 10
13.241481733
 20
8.0814228916
 10
13.2498391657
 20
8.055424355
 10
13.2616702563
 20
8.02986115
 10
13.2768545949
 20
8.004969818
 10
13.2953102356
 20
7.9808520645
 10
13.3172272981
 20
7.957347132
 10
13.3429811515
 20
7.9343133748
 10
13.3731017179
 20
7.9116878819
 10
13.408278831
 20
7.889502654
  0
LINE
  5
766
100
AcDbEntity
  8
AXIS
100
AcDbLine
 62
7
  6
CONTINUOUS
 10
13.2353086562
 20
8.4841951302
 11
13.2353086562
 21
8.1305917212
  0
LWPOLYLINE
  5
767
100
AcDbEntity
  8
AXIS
100
AcDbPolyline
 62
7
  6
CONTINUOUS
 90
18
 70
0
 10
13.2353086562
 20
8.4841951302
 10
13.2406204944
 20
8.5632242959
 10
13.2570391986
 20
8.642920612
 10
13.2855131785
 20
8.7224726697
 10
13.3263829992
 20
8.7992722409
 10
13.3750045893
 20
8.8656138541
 10
13.434519802
 20
8.9264661719
 10
13.4985962829
 20
8.9757734693
 10
13.5648085913
 20
9.013914815
 10
13.6345179767
 20
9.042889134
 10
13.7009887035
 20
9.0613934475
 10
13.7647147541
 20
9.0715723312
 10
13.8268599255
 20
9.0747454645
 10
13.8876102632
 20
9.0715090006
 10
13.9474418641
 20
9.0620952152
 10
14.0049103937
 20
9.0469487137
 10
14.0620055732
 20
9.0254768396
 10
14.1211304179
 20
8.9956303477
  0
LWPOLYLINE
  5
768
100
AcDbEntity
  8
0
100
AcDbPolyline
 62
7
  6
CONTINUOUS
 90
8
 70
0
 10
13.7477232875
 20
7.4650923979
 10
13.8106966946
 20
7.462246143
 10
13.8740421145
 20
7.4647868686
 10
13.9367985773
 20
7.4727665829
 10
13.9970875844
 20
7.4860300091
 10
14.0533505347
 20
7.5042152809
 10
14.105264084
 20
7.527317753
 10
14.1511202655
 20
7.5547824569
  0
LINE
  5
769
100
AcDbEntity
  8
0
100
AcDbLine
 62
7
  6
CONTINUOUS
 10
13.5994407842
 20
7.4670903181
 11
13.5974651507
 21
7.4673857239
  0
LINE
  5
76A
100
AcDbEntity
  8
0
100
AcDbLine
 62
9
  6
CONTINUOUS
 10
13.7154089683
 20
7.471729737
 11
13.6876856956
 21
7.4758849355
  0
LWPOLYLINE
  5
76B
100
AcDbEntity
  8
0
100
AcDbPolyline
 62
7
  6
CONTINUOUS
 90
10
 70
0
 10
13.6873722116
 20
7.478743934
 10
13.6871262129
 20
7.4787842241
 10
13.6866561148
 20
7.4787970797
 10
13.68627815
 20
7.4787006651
 10
13.6860198829
 20
7.4784475628
 10
13.6860051845
 20
7.4779971397
 10
13.6862575831
 20
7.4774396427
 10
13.6866631565
 20
7.4768845425
 10
13.6871411309
 20
7.4763724327
 10
13.6876856956
 20
7.4758849355
  0
LINE
  5
76C
100
AcDbEntity
  8
0
100
AcDbLine
 62
7
  6
CONTINUOUS
 10
13.6012263727
 20
7.4618121367
 11
13.6117446143
 21
7.4599868591
  0
LWPOLYLINE
  5
76D
100
AcDbEntity
  8
0
100
AcDbPolyline
 62
7
  6
CONTINUOUS
 90
3
 70
0
 10
13.7477232875
 20
7.4650923979
 10
13.7272012912
 20
7.4690671591
 10
13.7071849153
 20
7.4735866385
  0
LINE
  5
76E
100
AcDbEntity
  8
0
100
AcDbLine
 62
7
  6
CONTINUOUS
 10
13.6876856956
 20
7.4786688403
 11
13.6873722116
 21
7.478743934
  0
LINE
  5
76F
100
AcDbEntity
  8
0
100
AcDbLine
 62
7
  6
CONTINUOUS
 10
13.7071849153
 20
7.4735866385
 11
13.6876856956
 21
7.4786688403
  0
LWPOLYLINE
  5
770
100
AcDbEntity
  8
0
100
AcDbPolyline
 62
9
  6
CONTINUOUS
 90
4
 70
0
 10
13.6576600042
 20
7.4401359225
 10
13.6592972789
 20
7.4392907042
 10
13.6610874507
 20
7.43855605
 10
13.6630082341
 20
7.4379411054
  0
LWPOLYLINE
  5
771
100
AcDbEntity
  8
0
100
AcDbPolyline
 62
7
  6
CONTINUOUS
 90
4
 70
0
 10
13.6617358418
 20
7.4311250636
 10
13.6629618413
 20
7.4304736667
 10
13.6652700911
 20
7.4295256765
 10
13.6662856611
 20
7.4292123353
  0
LINE
  5
772
100
AcDbEntity
  8
0
100
AcDbLine
 62
7
  6
CONTINUOUS
 10
13.6617370184
 20
7.4311243841
 11
13.4970394771
 21
7.5262104028
  0
LINE
  5
773
100
AcDbEntity
  8
0
100
AcDbLine
 62
9
  6
CONTINUOUS
 10
13.6576600042
 20
7.4401359225
 11
13.4929624629
 21
7.5352219412
  0
LINE
  5
774
100
AcDbEntity
  8
0
100
AcDbLine
 62
7
  6
CONTINUOUS
 10
13.4126628721
 20
7.597654765
 11
13.4929624629
 21
7.5512948234
  0
LINE
  5
775
100
AcDbEntity
  8
0
100
AcDbLine
 62
7
  6
CONTINUOUS
 10
13.6576600042
 20
7.4562088047
 11
13.7137923955
 21
7.4238014866
  0
LINE
  5
776
100
AcDbEntity
  8
0
100
AcDbLine
 62
7
  6
CONTINUOUS
 10
13.6086862551
 20
7.4493026461
 11
13.6038853676
 21
7.4523809016
  0
LINE
  5
777
100
AcDbEntity
  8
0
100
AcDbLine
 62
9
  6
CONTINUOUS
 10
13.6646450189
 20
7.4304478896
 11
13.6662839548
 21
7.4292128117
  0
LINE
  5
778
100
AcDbEntity
  8
0
100
AcDbLine
 62
9
  6
CONTINUOUS
 10
13.4956210498
 20
7.5273091081
 11
13.4970394939
 21
7.5262103931
  0
LWPOLYLINE
  5
779
100
AcDbEntity
  8
0
100
AcDbPolyline
 62
7
  6
CONTINUOUS
 90
4
 70
0
 10
13.4629367714
 20
7.6019536252
 10
13.4434379667
 20
7.6184212157
 10
13.4234197211
 20
7.6360873606
 10
13.4028991796
 20
7.6549214058
  0
LINE
  5
77A
100
AcDbEntity
  8
0
100
AcDbLine
 62
7
  6
CONTINUOUS
 10
13.4635085883
 20
7.6014394321
 11
13.4629367714
 21
7.6019536252
  0
LWPOLYLINE
  5
77B
100
AcDbEntity
  8
0
100
AcDbPolyline
 62
7
  6
CONTINUOUS
 90
3
 70
0
 10
13.4126628721
 20
7.597654765
 10
13.4077951983
 20
7.6021464831
 10
13.4028991796
 20
7.6067027591
  0
LWPOLYLINE
  5
77C
100
AcDbEntity
  8
0
100
AcDbPolyline
 62
7
  6
CONTINUOUS
 90
3
 70
0
 10
13.4917923359
 20
7.5306167265
 10
13.4949860742
 20
7.5275741185
 10
13.4970401548
 20
7.5262100116
  0
LINE
  5
77D
100
AcDbEntity
  8
0
100
AcDbLine
 62
7
  6
CONTINUOUS
 10
13.6328206369
 20
7.4308137421
 11
13.6012263727
 21
7.4618121367
  0
LINE
  5
77E
100
AcDbEntity
  8
0
100
AcDbLine
 62
7
  6
CONTINUOUS
 10
13.5974651507
 20
7.4605815375
 11
13.6252981939
 21
7.4326051583
  0
LWPOLYLINE
  5
77F
100
AcDbEntity
  8
0
100
AcDbPolyline
 62
9
  6
CONTINUOUS
 90
4
 70
0
 10
13.4891608293
 20
7.5383096807
 10
13.4902199459
 20
7.5372062668
 10
13.4914949218
 20
7.5361697661
 10
13.4929624629
 20
7.5352219412
  0
LWPOLYLINE
  5
780
100
AcDbEntity
  8
0
100
AcDbPolyline
 62
7
  6
CONTINUOUS
 90
3
 70
0
 10
13.4642469024
 20
7.6005814923
 10
13.4639865663
 20
7.6009213466
 10
13.4635085883
 20
7.6014394321
  0
LWPOLYLINE
  5
781
100
AcDbEntity
  8
0
100
AcDbPolyline
 62
9
  6
CONTINUOUS
 90
3
 70
0
 10
13.4891608293
 20
7.5383096807
 10
13.4761082737
 20
7.5558228489
 10
13.4716859951
 20
7.5635785199
  0
LINE
  5
782
100
AcDbEntity
  8
0
100
AcDbLine
 62
7
  6
CONTINUOUS
 10
13.5578323277
 20
7.4706798508
 11
13.6077408985
 21
7.4009337038
  0
LWPOLYLINE
  5
783
100
AcDbEntity
  8
0
100
AcDbPolyline
 62
7
  6
CONTINUOUS
 90
3
 70
0
 10
13.4917923359
 20
7.5306167265
 10
13.4695241437
 20
7.563481985
 10
13.4688500992
 20
7.5652157881
  0
LWPOLYLINE
  5
784
100
AcDbEntity
  8
0
100
AcDbPolyline
 62
9
  6
CONTINUOUS
 90
3
 70
0
 10
13.4917923359
 20
7.5306167265
 10
13.4900281568
 20
7.5335850868
 10
13.4891608293
 20
7.5383096807
  0
LINE
  5
785
100
AcDbEntity
  8
0
100
AcDbLine
 62
9
  6
CONTINUOUS
 10
13.4936417462
 20
7.5306543679
 11
13.4956210498
 21
7.5273091081
  0
LWPOLYLINE
  5
786
100
AcDbEntity
  8
0
100
AcDbPolyline
 62
7
  6
CONTINUOUS
 90
13
 70
0
 10
13.7477232875
 20
7.5615296912
 10
13.8110171589
 20
7.5586827002
 10
13.8755394927
 20
7.5613500427
 10
13.9391199466
 20
7.569608578
 10
13.9996480046
 20
7.5831643912
 10
14.0556490491
 20
7.6015338266
 10
14.1068593653
 20
7.6245834098
 10
14.1517323995
 20
7.6516458031
 10
14.189477531
 20
7.6822124644
 10
14.2193010738
 20
7.7156467945
 10
14.2407959235
 20
7.7517401737
 10
14.2530981978
 20
7.7896036536
 10
14.2559779426
 20
7.8192182725
  0
LWPOLYLINE
  5
787
100
AcDbEntity
  8
0
100
AcDbPolyline
 62
7
  6
CONTINUOUS
 90
9
 70
0
 10
13.7477232875
 20
7.5133110446
 10
13.8081721342
 20
7.5104754146
 10
13.869485494
 20
7.512641369
 10
13.9303750037
 20
7.5199073823
 10
13.9889375993
 20
7.5321061299
 10
14.0436331559
 20
7.5488369529
 10
14.0942870802
 20
7.5700464121
 10
14.1395926262
 20
7.5953063346
 10
14.1781929937
 20
7.6238403885
  0
LINE
  5
788
100
AcDbEntity
  8
0
100
AcDbLine
 62
9
  6
CONTINUOUS
 10
13.7154065692
 20
7.56816739
 11
13.6876856956
 21
7.5723222288
  0
LINE
  5
789
100
AcDbEntity
  8
0
100
AcDbLine
 62
9
  6
CONTINUOUS
 10
13.7161257277
 20
7.5197865472
 11
13.6876856956
 21
7.5241035822
  0
LWPOLYLINE
  5
78A
100
AcDbEntity
  8
0
100
AcDbPolyline
 62
7
  6
CONTINUOUS
 90
10
 70
0
 10
13.6873723502
 20
7.5269625529
 10
13.6871262129
 20
7.5270028708
 10
13.6866561148
 20
7.5270157264
 10
13.68627815
 20
7.5269193117
 10
13.6860198829
 20
7.5266662095
 10
13.6860051845
 20
7.5262157864
 10
13.6862575831
 20
7.5256582893
 10
13.6866631565
 20
7.5251031891
 10
13.6871411309
 20
7.5245910794
 10
13.6876856956
 20
7.5241035822
  0
LWPOLYLINE
  5
78B
100
AcDbEntity
  8
0
100
AcDbPolyline
 62
7
  6
CONTINUOUS
 90
10
 70
0
 10
13.6873724494
 20
7.5751811797
 10
13.6871262129
 20
7.5752215175
 10
13.6866561148
 20
7.5752343731
 10
13.68627815
 20
7.5751379584
 10
13.6860198829
 20
7.5748848562
 10
13.6860051845
 20
7.5744344331
 10
13.6862575831
 20
7.573876936
 10
13.6866631565
 20
7.5733218358
 10
13.6871411309
 20
7.5728097261
 10
13.6876856956
 20
7.5723222288
  0
LWPOLYLINE
  5
78C
100
AcDbEntity
  8
0
100
AcDbPolyline
 62
7
  6
CONTINUOUS
 90
3
 70
0
 10
13.7477232875
 20
7.5133110446
 10
13.7272012912
 20
7.5172858058
 10
13.7071849153
 20
7.5218052852
  0
LWPOLYLINE
  5
78D
100
AcDbEntity
  8
0
100
AcDbPolyline
 62
7
  6
CONTINUOUS
 90
4
 70
0
 10
13.4028991796
 20
7.6127461628
 10
13.4234183384
 20
7.6087719956
 10
13.4434346981
 20
7.6042526152
 10
13.4629367714
 20
7.5991697204
  0
LWPOLYLINE
  5
78E
100
AcDbEntity
  8
0
100
AcDbPolyline
 62
7
  6
CONTINUOUS
 90
3
 70
0
 10
13.7477232875
 20
7.5615296912
 10
13.7272649933
 20
7.5654911206
 10
13.7072455545
 20
7.5700092092
  0
LWPOLYLINE
  5
78F
100
AcDbEntity
  8
0
100
AcDbPolyline
 62
7
  6
CONTINUOUS
 90
8
 70
0
 10
13.4629367714
 20
7.5991697204
 10
13.4635113145
 20
7.5990525145
 10
13.4639934521
 20
7.5990441828
 10
13.4643785208
 20
7.5991558638
 10
13.4646185338
 20
7.5994309468
 10
13.4646040268
 20
7.5998892298
 10
13.46435982
 20
7.6004071735
 10
13.4642469024
 20
7.6005814923
  0
LINE
  5
790
100
AcDbEntity
  8
0
100
AcDbLine
 62
7
  6
CONTINUOUS
 10
13.6876856956
 20
7.526887487
 11
13.6873723502
 21
7.5269625529
  0
LINE
  5
791
100
AcDbEntity
  8
0
100
AcDbLine
 62
7
  6
CONTINUOUS
 10
13.6876856956
 20
7.5751061337
 11
13.6873724494
 21
7.5751811797
  0
LINE
  5
792
100
AcDbEntity
  8
0
100
AcDbLine
 62
7
  6
CONTINUOUS
 10
13.7071849153
 20
7.5218052852
 11
13.6876856956
 21
7.526887487
  0
LINE
  5
793
100
AcDbEntity
  8
0
100
AcDbLine
 62
7
  6
CONTINUOUS
 10
13.7072455545
 20
7.5700092092
 11
13.6876856956
 21
7.5751061337
  0
LWPOLYLINE
  5
794
100
AcDbEntity
  8
0
100
AcDbPolyline
 62
7
  6
CONTINUOUS
 90
4
 70
0
 10
13.4629367714
 20
7.6501722719
 10
13.4434379667
 20
7.6666398624
 10
13.4234197211
 20
7.6843060073
 10
13.4028991796
 20
7.7031400525
  0
LWPOLYLINE
  5
795
100
AcDbEntity
  8
0
100
AcDbPolyline
 62
7
  6
CONTINUOUS
 90
4
 70
0
 10
13.6876856956
 20
7.4758849355
 10
13.7071874208
 20
7.4594148221
 10
13.7272056494
 20
7.4417485854
 10
13.7477232875
 20
7.4229171549
  0
LWPOLYLINE
  5
796
100
AcDbEntity
  8
0
100
AcDbPolyline
 62
7
  6
CONTINUOUS
 90
4
 70
0
 10
13.4629367714
 20
7.6983909186
 10
13.4434905073
 20
7.714813124
 10
13.4234697414
 20
7.7324796106
 10
13.4028991796
 20
7.7513586992
  0
LWPOLYLINE
  5
797
100
AcDbEntity
  8
0
100
AcDbPolyline
 62
7
  6
CONTINUOUS
 90
4
 70
0
 10
13.6876856956
 20
7.5241035822
 10
13.7071874208
 20
7.5076334688
 10
13.7272056494
 20
7.4899672321
 10
13.7477232875
 20
7.4711358016
  0
LINE
  5
798
100
AcDbEntity
  8
0
100
AcDbLine
 62
7
  6
CONTINUOUS
 10
13.4634386782
 20
7.6979447093
 11
13.4629367714
 21
7.6983909186
  0
LINE
  5
799
100
AcDbEntity
  8
0
100
AcDbLine
 62
7
  6
CONTINUOUS
 10
13.4635085883
 20
7.6496580788
 11
13.4629367714
 21
7.6501722719
  0
LINE
  5
79A
100
AcDbEntity
  8
0
100
AcDbLine
 62
7
  6
CONTINUOUS
 10
13.4635085883
 20
7.7460953721
 11
13.4629367714
 21
7.7466095653
  0
LWPOLYLINE
  5
79B
100
AcDbEntity
  8
0
100
AcDbPolyline
 62
7
  6
CONTINUOUS
 90
3
 70
0
 10
13.4642453577
 20
7.697019212
 10
13.4638806649
 20
7.6974830539
 10
13.4634386782
 20
7.6979447093
  0
LWPOLYLINE
  5
79C
100
AcDbEntity
  8
0
100
AcDbPolyline
 62
7
  6
CONTINUOUS
 90
3
 70
0
 10
13.4642467703
 20
7.6488003292
 10
13.4639865663
 20
7.6491399932
 10
13.4635085883
 20
7.6496580788
  0
LWPOLYLINE
  5
79D
100
AcDbEntity
  8
0
100
AcDbPolyline
 62
7
  6
CONTINUOUS
 90
3
 70
0
 10
13.4642469744
 20
7.7452373286
 10
13.4639865663
 20
7.7455772866
 10
13.4635085883
 20
7.7460953721
  0
LWPOLYLINE
  5
79E
100
AcDbEntity
  8
0
100
AcDbPolyline
 62
7
  6
CONTINUOUS
 90
3
 70
0
 10
13.5578323277
 20
7.4706798508
 10
13.5492188105
 20
7.4843780298
 10
13.5431712763
 20
7.4995767986
  0
LINE
  5
79F
100
AcDbEntity
  8
0
100
AcDbLine
 62
9
  6
CONTINUOUS
 10
13.4629367714
 20
7.5991697204
 11
13.4602611166
 21
7.6042133323
  0
LINE
  5
7A0
100
AcDbEntity
  8
0
100
AcDbLine
 62
9
  6
CONTINUOUS
 10
13.4629367714
 20
7.647388367
 11
13.4602611166
 21
7.652431979
  0
LINE
  5
7A1
100
AcDbEntity
  8
0
100
AcDbLine
 62
9
  6
CONTINUOUS
 10
13.4629367714
 20
7.6956070137
 11
13.4602612505
 21
7.7006503734
  0
LWPOLYLINE
  5
7A2
100
AcDbEntity
  8
0
100
AcDbPolyline
 62
7
  6
CONTINUOUS
 90
3
 70
0
 10
13.4028991796
 20
7.6067027591
 10
13.3959980385
 20
7.6421076919
 10
13.395741727
 20
7.6504143523
  0
LINE
  5
7A3
100
AcDbEntity
  8
0
100
AcDbLine
 62
7
  6
CONTINUOUS
 10
13.4028991796
 20
7.7574021029
 11
13.3959974641
 21
7.7928163462
  0
LINE
  5
7A4
100
AcDbEntity
  8
0
100
AcDbLine
 62
7
  6
CONTINUOUS
 10
13.3959972466
 20
7.6903391769
 11
13.4028991796
 21
7.6549214058
  0
LINE
  5
7A5
100
AcDbEntity
  8
0
100
AcDbLine
 62
7
  6
CONTINUOUS
 10
13.4028991796
 20
7.6609648095
 11
13.3959958609
 21
7.696405094
  0
LINE
  5
7A6
100
AcDbEntity
  8
0
100
AcDbLine
 62
7
  6
CONTINUOUS
 10
13.3959958609
 20
7.738580337
 11
13.4028991796
 21
7.7031400525
  0
LINE
  5
7A7
100
AcDbEntity
  8
0
100
AcDbLine
 62
7
  6
CONTINUOUS
 10
13.4028991796
 20
7.7091834562
 11
13.3959970021
 21
7.7446051963
  0
LINE
  5
7A8
100
AcDbEntity
  8
0
100
AcDbLine
 62
7
  6
CONTINUOUS
 10
13.3959970021
 20
7.7867804392
 11
13.4028991796
 21
7.7513586992
  0
LINE
  5
7A9
100
AcDbEntity
  8
0
100
AcDbLine
 62
7
  6
CONTINUOUS
 10
13.3959187118
 20
7.6495548586
 11
13.4028991796
 21
7.6127461628
  0
LINE
  5
7AA
100
AcDbEntity
  8
AXIS
100
AcDbLine
 62
7
  6
CONTINUOUS
 10
13.2353086562
 20
8.4841951261
 11
13.2403612243
 21
8.4396908164
  0
LINE
  5
7AB
100
AcDbEntity
  8
0
100
AcDbLine
 62
7
  6
CONTINUOUS
 10
13.3960007577
 20
7.8409817514
 11
13.395741732
 21
7.8492958481
  0
LINE
  5
7AC
100
AcDbEntity
  8
0
100
AcDbLine
 62
7
  6
CONTINUOUS
 10
13.3959411882
 20
7.8850690312
 11
13.3960007577
 21
7.8831569944
  0
LINE
  5
7AD
100
AcDbEntity
  8
0
100
AcDbLine
 62
7
  6
CONTINUOUS
 10
13.3957417313
 20
7.6985992239
 11
13.3959972466
 21
7.6903391769
  0
LINE
  5
7AE
100
AcDbEntity
  8
0
100
AcDbLine
 62
7
  6
CONTINUOUS
 10
13.3959958609
 20
7.696405094
 11
13.395741732
 21
7.7046400246
  0
LINE
  5
7AF
100
AcDbEntity
  8
0
100
AcDbLine
 62
7
  6
CONTINUOUS
 10
13.395741732
 20
7.7468152676
 11
13.3959958609
 21
7.738580337
  0
LINE
  5
7B0
100
AcDbEntity
  8
0
100
AcDbLine
 62
7
  6
CONTINUOUS
 10
13.3959970021
 20
7.7446051963
 11
13.3957417319
 21
7.7528587009
  0
LINE
  5
7B1
100
AcDbEntity
  8
0
100
AcDbLine
 62
7
  6
CONTINUOUS
 10
13.3957417319
 20
7.7950339439
 11
13.3959970021
 21
7.7867804392
  0
LINE
  5
7B2
100
AcDbEntity
  8
0
100
AcDbLine
 62
7
  6
CONTINUOUS
 10
13.3959974641
 20
7.7928163462
 11
13.395741732
 21
7.8010771684
  0
LINE
  5
7B3
100
AcDbEntity
  8
0
100
AcDbLine
 62
7
  6
CONTINUOUS
 10
13.395741732
 20
7.8432524113
 11
13.3959974641
 21
7.8349915892
  0
LINE
  5
7B4
100
AcDbEntity
  8
0
100
AcDbLine
 62
7
  6
CONTINUOUS
 10
13.395741727
 20
7.6564577399
 11
13.3959187118
 21
7.6495548586
  0
LINE
  5
7B5
100
AcDbEntity
  8
0
100
AcDbLine
 62
7
  6
CONTINUOUS
 10
13.4028991796
 20
7.8538393962
 11
13.4028991796
 21
7.8477959925
  0
LINE
  5
7B6
100
AcDbEntity
  8
0
100
AcDbLine
 62
7
  6
CONTINUOUS
 10
13.4028991796
 20
7.8056207496
 11
13.4028991796
 21
7.7995773458
  0
LINE
  5
7B7
100
AcDbEntity
  8
0
100
AcDbLine
 62
7
  6
CONTINUOUS
 10
13.4028991796
 20
7.7574021029
 11
13.4028991796
 21
7.7513586992
  0
LINE
  5
7B8
100
AcDbEntity
  8
0
100
AcDbLine
 62
7
  6
CONTINUOUS
 10
13.4028991796
 20
7.7091834562
 11
13.4028991796
 21
7.7031400525
  0
LINE
  5
7B9
100
AcDbEntity
  8
0
100
AcDbLine
 62
7
  6
CONTINUOUS
 10
13.4028991796
 20
7.6609648095
 11
13.4028991796
 21
7.6549214058
  0
LINE
  5
7BA
100
AcDbEntity
  8
0
100
AcDbLine
 62
7
  6
CONTINUOUS
 10
13.4028991796
 20
7.6127461628
 11
13.4028991796
 21
7.6067027591
  0
LINE
  5
7BB
100
AcDbEntity
  8
0
100
AcDbLine
 62
7
  6
CONTINUOUS
 10
13.395741732
 20
7.8492958481
 11
13.3981146311
 21
7.8723213737
  0
LINE
  5
7BC
100
AcDbEntity
  8
0
100
AcDbLine
 62
7
  6
CONTINUOUS
 10
13.395741732
 20
7.8010771684
 11
13.3981228242
 21
7.8240858921
  0
LINE
  5
7BD
100
AcDbEntity
  8
0
100
AcDbLine
 62
7
  6
CONTINUOUS
 10
13.3957417319
 20
7.7528587009
 11
13.3981237673
 21
7.7758659525
  0
LINE
  5
7BE
100
AcDbEntity
  8
0
100
AcDbLine
 62
7
  6
CONTINUOUS
 10
13.395741732
 20
7.7046400246
 11
13.3981265047
 21
7.7276420294
  0
LWPOLYLINE
  5
7BF
100
AcDbEntity
  8
0
100
AcDbPolyline
 62
7
  6
CONTINUOUS
 90
13
 70
0
 10
13.7477232875
 20
7.6097483379
 10
13.8110283816
 20
7.6069013235
 10
13.875553572
 20
7.6095698876
 10
13.9391367144
 20
7.6178301774
 10
13.9996711086
 20
7.6313893809
 10
14.0556288591
 20
7.6497446806
 10
14.106633949
 20
7.6726845223
 10
14.1515131113
 20
7.6997116104
 10
14.1894468344
 20
7.7304020409
 10
14.2193005095
 20
7.7638646787
 10
14.2407953203
 20
7.7999575038
 10
14.2530983557
 20
7.8378231084
 10
14.2559779425
 20
7.8674373049
  0
LWPOLYLINE
  5
7C0
100
AcDbEntity
  8
0
100
AcDbPolyline
 62
7
  6
CONTINUOUS
 90
9
 70
0
 10
13.7477232875
 20
7.6579669846
 10
13.8079081071
 20
7.6551329605
 10
13.869247519
 20
7.6572790721
 10
13.9299303848
 20
7.6644909881
 10
13.9880779883
 20
7.6765427786
 10
14.0423006085
 20
7.6930155073
 10
14.0920892004
 20
7.7136455556
 10
14.1369372317
 20
7.7382733182
 10
14.1757589867
 20
7.7664349896
  0
LINE
  5
7C1
100
AcDbEntity
  8
0
100
AcDbLine
 62
9
  6
CONTINUOUS
 10
13.7151499233
 20
7.6646628133
 11
13.6876856956
 21
7.6687595222
  0
LINE
  5
7C2
100
AcDbEntity
  8
0
100
AcDbLine
 62
9
  6
CONTINUOUS
 10
13.7154094379
 20
7.6163856067
 11
13.6876856956
 21
7.6205408755
  0
LWPOLYLINE
  5
7C3
100
AcDbEntity
  8
0
100
AcDbPolyline
 62
7
  6
CONTINUOUS
 90
10
 70
0
 10
13.6873722479
 20
7.6233998667
 10
13.6871262129
 20
7.6234401641
 10
13.6866561148
 20
7.6234530197
 10
13.68627815
 20
7.6233566051
 10
13.6860198829
 20
7.6231035028
 10
13.6860051845
 20
7.6226530797
 10
13.6862575831
 20
7.6220955827
 10
13.6866631565
 20
7.6215404825
 10
13.6871411309
 20
7.6210283728
 10
13.6876856956
 20
7.6205408755
  0
LWPOLYLINE
  5
7C4
100
AcDbEntity
  8
0
100
AcDbPolyline
 62
7
  6
CONTINUOUS
 90
10
 70
0
 10
13.6873724531
 20
7.6716184724
 10
13.6871262129
 20
7.6716588108
 10
13.6866561148
 20
7.6716716664
 10
13.68627815
 20
7.6715752518
 10
13.6860198829
 20
7.6713221495
 10
13.6860051845
 20
7.6708717264
 10
13.6862575831
 20
7.6703142294
 10
13.6866631565
 20
7.6697591292
 10
13.6871411309
 20
7.6692470194
 10
13.6876856956
 20
7.6687595222
  0
LWPOLYLINE
  5
7C5
100
AcDbEntity
  8
0
100
AcDbPolyline
 62
7
  6
CONTINUOUS
 90
3
 70
0
 10
13.7477232875
 20
7.6097483379
 10
13.7271889621
 20
7.6137256802
 10
13.70717306
 20
7.6182454577
  0
LWPOLYLINE
  5
7C6
100
AcDbEntity
  8
0
100
AcDbPolyline
 62
7
  6
CONTINUOUS
 90
3
 70
0
 10
13.7477232875
 20
7.6579669846
 10
13.7272012912
 20
7.6619417458
 10
13.7071849153
 20
7.6664612252
  0
LWPOLYLINE
  5
7C7
100
AcDbEntity
  8
0
100
AcDbPolyline
 62
7
  6
CONTINUOUS
 90
4
 70
0
 10
13.4028991796
 20
7.6609648095
 10
13.4234596159
 20
7.6569820003
 10
13.4434769209
 20
7.652461007
 10
13.4629367714
 20
7.647388367
  0
LWPOLYLINE
  5
7C8
100
AcDbEntity
  8
0
100
AcDbPolyline
 62
7
  6
CONTINUOUS
 90
4
 70
0
 10
13.4028991796
 20
7.7091834562
 10
13.423467116
 20
7.7051990764
 10
13.4434852912
 20
7.7006776203
 10
13.4629367714
 20
7.6956070137
  0
LWPOLYLINE
  5
7C9
100
AcDbEntity
  8
0
100
AcDbPolyline
 62
7
  6
CONTINUOUS
 90
8
 70
0
 10
13.4629367714
 20
7.647388367
 10
13.4635113145
 20
7.6472711612
 10
13.4639934521
 20
7.6472628294
 10
13.4643785208
 20
7.6473745105
 10
13.4646185338
 20
7.6476495934
 10
13.4646040268
 20
7.6481078764
 10
13.46435982
 20
7.6486258202
 10
13.4642467703
 20
7.6488003292
  0
LWPOLYLINE
  5
7CA
100
AcDbEntity
  8
0
100
AcDbPolyline
 62
7
  6
CONTINUOUS
 90
8
 70
0
 10
13.4629367714
 20
7.6956070137
 10
13.4634306753
 20
7.6955004528
 10
13.463871
 20
7.6954728285
 10
13.4642503847
 20
7.6955363617
 10
13.4645346523
 20
7.695720178
 10
13.4646481251
 20
7.6960712713
 10
13.4645238869
 20
7.6965387322
 10
13.4642453577
 20
7.697019212
  0
LINE
  5
7CB
100
AcDbEntity
  8
0
100
AcDbLine
 62
7
  6
CONTINUOUS
 10
13.6876856956
 20
7.6233247804
 11
13.6873722479
 21
7.6233998667
  0
LINE
  5
7CC
100
AcDbEntity
  8
0
100
AcDbLine
 62
7
  6
CONTINUOUS
 10
13.6876856956
 20
7.6715434271
 11
13.6873724531
 21
7.6716184724
  0
LINE
  5
7CD
100
AcDbEntity
  8
0
100
AcDbLine
 62
7
  6
CONTINUOUS
 10
13.70717306
 20
7.6182454577
 11
13.6876856956
 21
7.6233247804
  0
LINE
  5
7CE
100
AcDbEntity
  8
0
100
AcDbLine
 62
7
  6
CONTINUOUS
 10
13.7071849153
 20
7.6664612252
 11
13.6876856956
 21
7.6715434271
  0
LWPOLYLINE
  5
7CF
100
AcDbEntity
  8
0
100
AcDbPolyline
 62
7
  6
CONTINUOUS
 90
4
 70
0
 10
13.4629367714
 20
7.794828212
 10
13.4434379667
 20
7.8112958024
 10
13.4234197211
 20
7.8289619473
 10
13.4028991796
 20
7.8477959925
  0
LWPOLYLINE
  5
7D0
100
AcDbEntity
  8
0
100
AcDbPolyline
 62
7
  6
CONTINUOUS
 90
4
 70
0
 10
13.6876856956
 20
7.6205408755
 10
13.707176002
 20
7.6040806264
 10
13.7271937521
 20
7.5864152395
 10
13.7477232875
 20
7.567573095
  0
LINE
  5
7D1
100
AcDbEntity
  8
0
100
AcDbLine
 62
7
  6
CONTINUOUS
 10
13.4629367714
 20
7.8430468586
 11
13.4480244942
 21
7.8556409268
  0
LWPOLYLINE
  5
7D2
100
AcDbEntity
  8
0
100
AcDbPolyline
 62
7
  6
CONTINUOUS
 90
4
 70
0
 10
13.4629367714
 20
7.7466095653
 10
13.4434269733
 20
7.7630866526
 10
13.423407628
 20
7.7807541912
 10
13.4028991796
 20
7.7995773458
  0
LWPOLYLINE
  5
7D3
100
AcDbEntity
  8
0
100
AcDbPolyline
 62
7
  6
CONTINUOUS
 90
4
 70
0
 10
13.6876856956
 20
7.5723222288
 10
13.7072487296
 20
7.5557991494
 10
13.7272708029
 20
7.538127201
 10
13.7477232875
 20
7.5193544483
  0
LINE
  5
7D4
100
AcDbEntity
  8
0
100
AcDbLine
 62
7
  6
CONTINUOUS
 10
13.4635085883
 20
7.7943140188
 11
13.4629367714
 21
7.794828212
  0
LINE
  5
7D5
100
AcDbEntity
  8
0
100
AcDbLine
 62
7
  6
CONTINUOUS
 10
13.4635085883
 20
7.8425326655
 11
13.4629367714
 21
7.8430468586
  0
LWPOLYLINE
  5
7D6
100
AcDbEntity
  8
0
100
AcDbPolyline
 62
7
  6
CONTINUOUS
 90
3
 70
0
 10
13.4642461086
 20
7.7934572219
 10
13.4639865663
 20
7.7937959333
 10
13.4635085883
 20
7.7943140188
  0
LWPOLYLINE
  5
7D7
100
AcDbEntity
  8
0
100
AcDbPolyline
 62
7
  6
CONTINUOUS
 90
3
 70
0
 10
13.4642469593
 20
7.8416746438
 10
13.4639865663
 20
7.84201458
 10
13.4635085883
 20
7.8425326655
  0
LINE
  5
7D8
100
AcDbEntity
  8
0
100
AcDbLine
 62
9
  6
CONTINUOUS
 10
13.4629367714
 20
7.7438256604
 11
13.4602610886
 21
7.7488693252
  0
LINE
  5
7D9
100
AcDbEntity
  8
0
100
AcDbLine
 62
9
  6
CONTINUOUS
 10
13.4629367714
 20
7.7920443071
 11
13.4602611166
 21
7.7970879191
  0
LINE
  5
7DA
100
AcDbEntity
  8
0
100
AcDbLine
 62
9
  6
CONTINUOUS
 10
13.4629367714
 20
7.8402629538
 11
13.4602611166
 21
7.8453065657
  0
LINE
  5
7DB
100
AcDbEntity
  8
AXIS
100
AcDbLine
 62
7
  6
CONTINUOUS
 10
13.2403612243
 20
8.4396908164
 11
13.2554318361
 21
8.3959494033
  0
LINE
  5
7DC
100
AcDbEntity
  8
0
100
AcDbLine
 62
7
  6
CONTINUOUS
 10
13.4028991796
 20
7.8538393962
 11
13.3969165106
 21
7.8844222269
  0
LINE
  5
7DD
100
AcDbEntity
  8
0
100
AcDbLine
 62
7
  6
CONTINUOUS
 10
13.4028991796
 20
7.8056207496
 11
13.3960007577
 21
7.8409817514
  0
LINE
  5
7DE
100
AcDbEntity
  8
0
100
AcDbLine
 62
7
  6
CONTINUOUS
 10
13.3960007577
 20
7.8831569944
 11
13.4028991796
 21
7.8477959925
  0
LINE
  5
7DF
100
AcDbEntity
  8
0
100
AcDbLine
 62
7
  6
CONTINUOUS
 10
13.3959974641
 20
7.8349915892
 11
13.4028991796
 21
7.7995773458
  0
LINE
  5
7E0
100
AcDbEntity
  8
0
100
AcDbLine
 62
9
  6
CONTINUOUS
 10
13.4929624629
 20
7.5352219412
 11
13.4936417462
 21
7.5306543679
  0
LINE
  5
7E1
100
AcDbEntity
  8
0
100
AcDbLine
 62
9
  6
CONTINUOUS
 10
13.4891608293
 20
7.5383096807
 11
13.4891608293
 21
7.5534896479
  0
LINE
  5
7E2
100
AcDbEntity
  8
0
100
AcDbLine
 62
9
  6
CONTINUOUS
 10
13.4929624629
 20
7.5352219412
 11
13.4929624629
 21
7.5512948234
  0
LINE
  5
7E3
100
AcDbEntity
  8
0
100
AcDbLine
 62
7
  6
CONTINUOUS
 10
13.3982467096
 20
7.678795894
 11
13.395741727
 21
7.6564577399
  0
LWPOLYLINE
  5
7E4
100
AcDbEntity
  8
0
100
AcDbPolyline
 62
7
  6
CONTINUOUS
 90
9
 70
0
 10
13.7477232875
 20
7.7061856313
 10
13.8110548898
 20
7.7033385626
 10
13.8756068666
 20
7.7060117191
 10
13.9392147983
 20
7.7142812267
 10
13.9997700892
 20
7.7278538594
 10
14.0557339446
 20
7.7462225433
 10
14.1072430434
 20
7.7694397721
 10
14.1527885256
 20
7.7970411806
 10
14.1908183216
 20
7.8281465398
  0
LINE
  5
7E5
100
AcDbEntity
  8
0
100
AcDbLine
 62
9
  6
CONTINUOUS
 10
13.7154089683
 20
7.7128229704
 11
13.6876856956
 21
7.7169781689
  0
LWPOLYLINE
  5
7E6
100
AcDbEntity
  8
0
100
AcDbPolyline
 62
7
  6
CONTINUOUS
 90
10
 70
0
 10
13.6873722336
 20
7.719837163
 10
13.6871262129
 20
7.7198774575
 10
13.6866561148
 20
7.7198903131
 10
13.68627815
 20
7.7197938985
 10
13.6860198829
 20
7.7195407962
 10
13.6860051845
 20
7.7190903731
 10
13.6862575831
 20
7.7185328761
 10
13.6866631565
 20
7.7179777759
 10
13.6871411309
 20
7.7174656661
 10
13.6876856956
 20
7.7169781689
  0
LWPOLYLINE
  5
7E7
100
AcDbEntity
  8
0
100
AcDbPolyline
 62
7
  6
CONTINUOUS
 90
4
 70
0
 10
13.4028991796
 20
7.7574021029
 10
13.4234057657
 20
7.7534305674
 10
13.4434231596
 20
7.7489113571
 10
13.4629367714
 20
7.7438256604
  0
LWPOLYLINE
  5
7E8
100
AcDbEntity
  8
0
100
AcDbPolyline
 62
7
  6
CONTINUOUS
 90
3
 70
0
 10
13.7477232875
 20
7.7061856313
 10
13.7272012912
 20
7.7101603925
 10
13.7071849153
 20
7.7146798719
  0
LWPOLYLINE
  5
7E9
100
AcDbEntity
  8
0
100
AcDbPolyline
 62
7
  6
CONTINUOUS
 90
4
 70
0
 10
13.4028991796
 20
7.8056207496
 10
13.4234183384
 20
7.8016465823
 10
13.4434346981
 20
7.7971272019
 10
13.4629367714
 20
7.7920443071
  0
LWPOLYLINE
  5
7EA
100
AcDbEntity
  8
0
100
AcDbPolyline
 62
7
  6
CONTINUOUS
 90
8
 70
0
 10
13.4629367714
 20
7.7438256604
 10
13.4635113145
 20
7.7437084546
 10
13.4639934521
 20
7.7437001228
 10
13.4643785208
 20
7.7438118039
 10
13.4646185338
 20
7.7440868868
 10
13.4646040268
 20
7.7445451698
 10
13.46435982
 20
7.7450631135
 10
13.4642469744
 20
7.7452373286
  0
LWPOLYLINE
  5
7EB
100
AcDbEntity
  8
0
100
AcDbPolyline
 62
7
  6
CONTINUOUS
 90
8
 70
0
 10
13.4629367714
 20
7.7920443071
 10
13.4635113145
 20
7.7919271012
 10
13.4639934521
 20
7.7919187695
 10
13.4643785208
 20
7.7920304505
 10
13.4646185338
 20
7.7923055335
 10
13.4646040268
 20
7.7927638165
 10
13.46435982
 20
7.7932817602
 10
13.4642461086
 20
7.7934572219
  0
LINE
  5
7EC
100
AcDbEntity
  8
0
100
AcDbLine
 62
7
  6
CONTINUOUS
 10
13.6876856956
 20
7.7197620737
 11
13.6873722336
 21
7.719837163
  0
LINE
  5
7ED
100
AcDbEntity
  8
0
100
AcDbLine
 62
7
  6
CONTINUOUS
 10
13.7071849153
 20
7.7146798719
 11
13.6876856956
 21
7.7197620737
  0
LWPOLYLINE
  5
7EE
100
AcDbEntity
  8
0
100
AcDbPolyline
 62
9
  6
CONTINUOUS
 90
32
 70
0
 10
13.408278831
 20
7.889502654
 10
13.4467116127
 20
7.8691907137
 10
13.4859104821
 20
7.8517976118
 10
13.5258180718
 20
7.8369262431
 10
13.5665422093
 20
7.824271074
 10
13.6083270057
 20
7.8136156199
 10
13.6514509649
 20
7.8048499313
 10
13.695737495
 20
7.7980212343
 10
13.7407753048
 20
7.7931989948
 10
13.7862924699
 20
7.7904078521
 10
13.8320507722
 20
7.7896604478
 10
13.8777718663
 20
7.7909615574
 10
13.9231739896
 20
7.7943026825
 10
13.967984921
 20
7.7996628445
 10
14.0119368259
 20
7.8070091349
 10
14.0547664145
 20
7.8162967413
 10
14.0962190187
 20
7.8274697825
 10
14.1360489935
 20
7.8404617707
 10
14.1740185749
 20
7.8551952281
 10
14.2098996974
 20
7.8715818573
 10
14.2434762853
 20
7.8895231176
 10
14.2745462458
 20
7.9089110281
 10
14.3029237222
 20
7.9296296327
 10
14.3284387425
 20
7.9515550471
 10
14.3509375159
 20
7.9745553574
 10
14.3702845452
 20
7.9984920895
 10
14.3863634348
 20
8.0232209838
 10
14.3990784827
 20
8.0485947593
 10
14.4083539889
 20
8.0744639187
 10
14.4141331695
 20
8.1006745726
 10
14.4163794938
 20
8.1270688561
 10
14.4164110184
 20
8.1305917212
  0
LWPOLYLINE
  5
7EF
100
AcDbEntity
  8
0
100
AcDbPolyline
 62
7
  6
CONTINUOUS
 90
7
 70
0
 10
13.4164328594
 20
7.8714795773
 10
13.3623994589
 20
7.907312887
 10
13.3169324474
 20
7.9474484425
 10
13.2810818969
 20
7.990939064
 10
13.255512481
 20
8.0366088171
 10
13.2403271763
 20
8.0833915093
 10
13.2353086562
 20
8.1305917212
  0
LWPOLYLINE
  5
7F0
100
AcDbEntity
  8
0
100
AcDbPolyline
 62
7
  6
CONTINUOUS
 90
4
 70
0
 10
13.6876856956
 20
7.6687595222
 10
13.7071874208
 20
7.6522894088
 10
13.7272056494
 20
7.6346231721
 10
13.7477232875
 20
7.6157917416
  0
LWPOLYLINE
  5
7F1
100
AcDbEntity
  8
0
100
AcDbPolyline
 62
7
  6
CONTINUOUS
 90
4
 70
0
 10
13.6876856956
 20
7.7169781689
 10
13.7071874208
 20
7.7005080555
 10
13.7272056494
 20
7.6828418188
 10
13.7477232875
 20
7.6640103883
  0
LINE
  5
7F2
100
AcDbEntity
  8
AXIS
100
AcDbLine
 62
7
  6
CONTINUOUS
 10
13.2554318361
 20
8.3959494033
 11
13.2802626291
 21
8.353717899
  0
LINE
  5
7F3
100
AcDbEntity
  8
0
100
AcDbLine
 62
9
  6
CONTINUOUS
 10
13.6634276077
 20
7.4334756428
 11
13.6646450189
 21
7.4304478896
  0
LWPOLYLINE
  5
7F4
100
AcDbEntity
  8
0
100
AcDbPolyline
 62
7
  6
CONTINUOUS
 90
5
 70
0
 10
13.59385036
 20
7.4203454306
 10
13.5946321276
 20
7.4170217601
 10
13.6036817475
 20
7.3990615563
 10
13.6170250298
 20
7.3822529774
 10
13.6343752417
 20
7.366783813
  0
LINE
  5
7F5
100
AcDbEntity
  8
0
100
AcDbLine
 62
7
  6
CONTINUOUS
 10
13.5928251592
 20
7.3645642425
 11
13.5898598373
 21
7.3852923106
  0
LWPOLYLINE
  5
7F6
100
AcDbEntity
  8
0
100
AcDbPolyline
 62
7
  6
CONTINUOUS
 90
16
 70
0
 10
13.5898598373
 20
7.411420389
 10
13.5928251592
 20
7.3906923209
 10
13.6015636492
 20
7.3706466548
 10
13.615745432
 20
7.3517734692
 10
13.6350809923
 20
7.3344035024
 10
13.6592825517
 20
7.3188909216
 10
13.6874748274
 20
7.3058348893
 10
13.7187535407
 20
7.2955804301
 10
13.7529485476
 20
7.2882013618
 10
13.7893941115
 20
7.2839777233
 10
13.826762904
 20
7.283148009
 10
13.8636471473
 20
7.2857005016
 10
13.8993365585
 20
7.2915042366
 10
13.9332388931
 20
7.3004421697
 10
13.9647295367
 20
7.3124019488
 10
13.9927377324
 20
7.3270159868
  0
LINE
  5
7F7
100
AcDbEntity
  8
0
100
AcDbLine
 62
7
  6
CONTINUOUS
 10
13.5928027186
 20
7.2691115172
 11
13.5898598373
 21
7.2897608443
  0
LWPOLYLINE
  5
7F8
100
AcDbEntity
  8
0
100
AcDbPolyline
 62
7
  6
CONTINUOUS
 90
16
 70
0
 10
13.5898598373
 20
7.3158889226
 10
13.5928027186
 20
7.2952395956
 10
13.6014825891
 20
7.2752535478
 10
13.615609611
 20
7.2563898342
 10
13.6349253952
 20
7.2389905493
 10
13.6591773995
 20
7.2234174791
 10
13.6875130681
 20
7.2102891415
 10
13.7188655702
 20
7.2000194264
 10
13.7530683895
 20
7.1926508296
 10
13.7895168282
 20
7.1884385464
 10
13.8268837936
 20
7.1876201071
 10
13.8637612893
 20
7.190182908
 10
13.8994829495
 20
7.1960044829
 10
13.9333839977
 20
7.2049577279
 10
13.964766302
 20
7.2168875933
 10
13.9927377324
 20
7.231485204
  0
LINE
  5
7F9
100
AcDbEntity
  8
0
100
AcDbLine
 62
7
  6
CONTINUOUS
 10
13.5927824028
 20
7.1736516631
 11
13.5898598373
 21
7.194229716
  0
LWPOLYLINE
  5
7FA
100
AcDbEntity
  8
0
100
AcDbPolyline
 62
7
  6
CONTINUOUS
 90
16
 70
0
 10
13.5898598373
 20
7.2203577944
 10
13.5927824028
 20
7.1997797415
 10
13.6014004483
 20
7.1798628074
 10
13.615464502
 20
7.1610167762
 10
13.6347472906
 20
7.1435949879
 10
13.6590330482
 20
7.1279655332
 10
13.6874933861
 20
7.11476606
 10
13.7189956505
 20
7.1044536068
 10
13.7531929605
 20
7.0970995609
 10
13.7896282512
 20
7.0929001748
 10
13.8269770103
 20
7.0920915702
 10
13.863832818
 20
7.0946604074
 10
13.8995719264
 20
7.1004925899
 10
13.9335443498
 20
7.109478242
 10
13.9648154553
 20
7.1213787829
 10
13.9927377324
 20
7.1359544212
  0
LINE
  5
7FB
100
AcDbEntity
  8
0
100
AcDbLine
 62
7
  6
CONTINUOUS
 10
13.5927345968
 20
7.3330375225
 11
13.5898598373
 21
7.3534484046
  0
LWPOLYLINE
  5
7FC
100
AcDbEntity
  8
0
100
AcDbPolyline
 62
7
  6
CONTINUOUS
 90
16
 70
0
 10
13.5898598373
 20
7.3795764824
 10
13.5927345968
 20
7.3591656003
 10
13.6013347013
 20
7.3391932438
 10
13.6153137776
 20
7.3203991267
 10
13.6345833237
 20
7.3029377599
 10
13.65889295
 20
7.2872601363
 10
13.6874199036
 20
7.2740127833
 10
13.7190279829
 20
7.2636628619
 10
13.7529824065
 20
7.2563521671
 10
13.7887300788
 20
7.2521801929
 10
13.8256310307
 20
7.251279158
 10
13.8624028712
 20
7.2537152741
 10
13.8983812213
 20
7.2594596477
 10
13.932924945
 20
7.2684985502
 10
13.9647352372
 20
7.280560886
 10
13.9927377324
 20
7.2951723777
  0
LINE
  5
7FD
100
AcDbEntity
  8
0
100
AcDbLine
 62
7
  6
CONTINUOUS
 10
13.5926853916
 20
7.237681051
 11
13.5898598373
 21
7.2579188018
  0
LWPOLYLINE
  5
7FE
100
AcDbEntity
  8
0
100
AcDbPolyline
 62
7
  6
CONTINUOUS
 90
16
 70
0
 10
13.5898598373
 20
7.2840468796
 10
13.5926853916
 20
7.2638091288
 10
13.6012900322
 20
7.2437390808
 10
13.6152597452
 20
7.2249274189
 10
13.6344967262
 20
7.207473026
 10
13.6587694647
 20
7.1917970225
 10
13.6872583571
 20
7.1785453317
 10
13.7188306599
 20
7.1681852281
 10
13.7527845243
 20
7.1608540636
 10
13.788479482
 20
7.1566670894
 10
13.8252325666
 20
7.1557402354
 10
13.8619457724
 20
7.1581334593
 10
13.8979441345
 20
7.1638377872
 10
13.9325942079
 20
7.172862784
 10
13.9645744485
 20
7.184958331
 10
13.9927377324
 20
7.1996415947
  0
LWPOLYLINE
  5
7FF
100
AcDbEntity
  8
0
100
AcDbPolyline
 62
7
  6
CONTINUOUS
 90
16
 70
0
 10
13.5898598373
 20
7.1885172233
 10
13.5926645832
 20
7.1683525258
 10
13.6013048349
 20
7.1481828894
 10
13.6153465012
 20
7.1293018197
 10
13.6346031024
 20
7.111861121
 10
13.6588890707
 20
7.0962006947
 10
13.6873837219
 20
7.0829653916
 10
13.718954192
 20
7.0726211562
 10
13.7529412231
 20
7.0652973934
 10
13.7887125044
 20
7.0611198618
 10
13.8253419006
 20
7.0602116472
 10
13.8619984756
 20
7.0626085331
 10
13.8979824238
 20
7.0683149609
 10
13.9326182915
 20
7.0773396327
 10
13.9645853081
 20
7.0894323916
 10
13.9927377324
 20
7.1041108118
  0
LINE
  5
800
100
AcDbEntity
  8
0
100
AcDbLine
 62
7
  6
CONTINUOUS
 10
13.5917106555
 20
7.2096778012
 11
13.5898598393
 21
7.2260904411
  0
LWPOLYLINE
  5
801
100
AcDbEntity
  8
0
100
AcDbPolyline
 62
7
  6
CONTINUOUS
 90
6
 70
0
 10
13.5898598393
 20
7.2522185187
 10
13.5917106555
 20
7.2358058787
 10
13.5989761778
 20
7.2161105552
 10
13.6114346073
 20
7.1974715875
 10
13.6286234773
 20
7.1803292324
 10
13.6502664628
 20
7.164874496
  0
LINE
  5
802
100
AcDbEntity
  8
0
100
AcDbLine
 62
7
  6
CONTINUOUS
 10
13.5908545022
 20
7.3095732453
 11
13.5898598412
 21
7.3216281465
  0
LWPOLYLINE
  5
803
100
AcDbEntity
  8
0
100
AcDbPolyline
 62
7
  6
CONTINUOUS
 90
6
 70
0
 10
13.5898598412
 20
7.3477562241
 10
13.5908545022
 20
7.3357013229
 10
13.5966337811
 20
7.3165389331
 10
13.6073641075
 20
7.2982008852
 10
13.6225855802
 20
7.2812108035
 10
13.6420558751
 20
7.2657059494
  0
LINE
  5
804
100
AcDbEntity
  8
0
100
AcDbLine
 62
7
  6
CONTINUOUS
 10
13.5902632746
 20
7.4094677801
 11
13.5898598405
 21
7.417156695
  0
LINE
  5
805
100
AcDbEntity
  8
0
100
AcDbLine
 62
7
  6
CONTINUOUS
 10
13.5974651507
 20
7.4673857239
 11
13.5974651507
 21
7.4605815375
  0
LINE
  5
806
100
AcDbEntity
  8
0
100
AcDbLine
 62
7
  6
CONTINUOUS
 10
13.5974651507
 20
7.4486742098
 11
13.5974651507
 21
7.4435710697
  0
LINE
  5
807
100
AcDbEntity
  8
0
100
AcDbLine
 62
7
  6
CONTINUOUS
 10
13.9388232814
 20
7.7624309929
 11
13.9990206704
 21
7.7758671099
  0
LWPOLYLINE
  5
808
100
AcDbEntity
  8
0
100
AcDbPolyline
 62
7
  6
CONTINUOUS
 90
4
 70
0
 10
13.9381214818
 20
7.7683515053
 10
13.8752476235
 20
7.7602432548
 10
13.8110786617
 20
7.7576005651
 10
13.7477232875
 20
7.7604476817
  0
LWPOLYLINE
  5
809
100
AcDbEntity
  8
0
100
AcDbPolyline
 62
7
  6
CONTINUOUS
 90
4
 70
0
 10
13.7477232875
 20
7.754404278
 10
13.8110706736
 20
7.7515571774
 10
13.8754863341
 20
7.7542201078
 10
13.9388232814
 20
7.7624309929
  0
LINE
  5
80A
100
AcDbEntity
  8
0
100
AcDbLine
 62
9
  6
CONTINUOUS
 10
13.7154089683
 20
7.7610416171
 11
13.6876856956
 21
7.7651968156
  0
LWPOLYLINE
  5
80B
100
AcDbEntity
  8
0
100
AcDbPolyline
 62
7
  6
CONTINUOUS
 90
10
 70
0
 10
13.6873724089
 20
7.7680557746
 10
13.6871262129
 20
7.7680961042
 10
13.6866561148
 20
7.7681089598
 10
13.68627815
 20
7.7680125451
 10
13.6860198829
 20
7.7677594429
 10
13.6860051845
 20
7.7673090198
 10
13.6862575831
 20
7.7667515227
 10
13.6866631565
 20
7.7661964226
 10
13.6871411309
 20
7.7656843128
 10
13.6876856956
 20
7.7651968156
  0
LWPOLYLINE
  5
80C
100
AcDbEntity
  8
0
100
AcDbPolyline
 62
7
  6
CONTINUOUS
 90
3
 70
0
 10
13.7477232875
 20
7.754404278
 10
13.7272012912
 20
7.7583790392
 10
13.7071849153
 20
7.7628985186
  0
LWPOLYLINE
  5
80D
100
AcDbEntity
  8
0
100
AcDbPolyline
 62
7
  6
CONTINUOUS
 90
4
 70
0
 10
13.4028991796
 20
7.8538393962
 10
13.4234183384
 20
7.849865229
 10
13.4434346981
 20
7.8453458486
 10
13.4629367714
 20
7.8402629538
  0
LWPOLYLINE
  5
80E
100
AcDbEntity
  8
0
100
AcDbPolyline
 62
7
  6
CONTINUOUS
 90
8
 70
0
 10
13.4629367714
 20
7.8402629538
 10
13.4635113145
 20
7.8401457479
 10
13.4639934521
 20
7.8401374162
 10
13.4643785208
 20
7.8402490972
 10
13.4646185338
 20
7.8405241802
 10
13.4646040268
 20
7.8409824632
 10
13.46435982
 20
7.8415004069
 10
13.4642469593
 20
7.8416746438
  0
LINE
  5
80F
100
AcDbEntity
  8
0
100
AcDbLine
 62
7
  6
CONTINUOUS
 10
13.6876856956
 20
7.7679807204
 11
13.6873724089
 21
7.7680557746
  0
LINE
  5
810
100
AcDbEntity
  8
0
100
AcDbLine
 62
7
  6
CONTINUOUS
 10
13.7071849153
 20
7.7628985186
 11
13.6876856956
 21
7.7679807204
  0
LWPOLYLINE
  5
811
100
AcDbEntity
  8
0
100
AcDbPolyline
 62
7
  6
CONTINUOUS
 90
4
 70
0
 10
13.6876856956
 20
7.7651968156
 10
13.7071874208
 20
7.7487267022
 10
13.7272056494
 20
7.7310604655
 10
13.7477232875
 20
7.712229035
  0
LINE
  5
812
100
AcDbEntity
  8
0
100
AcDbLine
 62
7
  6
CONTINUOUS
 10
13.7279173828
 20
7.7786258713
 11
13.7477232875
 21
7.7604476817
  0
LWPOLYLINE
  5
813
100
AcDbEntity
  8
0
100
AcDbPolyline
 62
9
  6
CONTINUOUS
 90
4
 70
0
 10
13.6576600042
 20
7.4401359225
 10
13.6583410592
 20
7.4355630705
 10
13.6603181122
 20
7.4322235741
 10
13.6617358418
 20
7.4311250636
  0
LINE
  5
814
100
AcDbEntity
  8
0
100
AcDbLine
 62
9
  6
CONTINUOUS
 10
13.6630082341
 20
7.4379411054
 11
13.6634276077
 21
7.4334756428
  0
LINE
  5
815
100
AcDbEntity
  8
0
100
AcDbLine
 62
7
  6
CONTINUOUS
 10
13.6328206369
 20
7.4231590319
 11
13.6328206369
 21
7.4308137421
  0
LINE
  5
816
100
AcDbEntity
  8
0
100
AcDbLine
 62
7
  6
CONTINUOUS
 10
13.6343752417
 20
7.366783813
 11
13.6343752417
 21
7.3406557357
  0
LINE
  5
817
100
AcDbEntity
  8
0
100
AcDbLine
 62
7
  6
CONTINUOUS
 10
13.6392408539
 20
7.434520434
 11
13.6392408539
 21
7.4268657238
  0
LINE
  5
818
100
AcDbEntity
  8
0
100
AcDbLine
 62
9
  6
CONTINUOUS
 10
13.6576600042
 20
7.4562088047
 11
13.6576600042
 21
7.4401359225
  0
LINE
  5
819
100
AcDbEntity
  8
0
100
AcDbLine
 62
9
  6
CONTINUOUS
 10
13.6630082341
 20
7.4531210726
 11
13.6630082341
 21
7.4379411054
  0
LWPOLYLINE
  5
81A
100
AcDbEntity
  8
0
100
AcDbPolyline
 62
7
  6
CONTINUOUS
 90
3
 70
0
 10
13.5898598393
 20
7.2260904411
 10
13.5899515366
 20
7.2297300067
 10
13.5914757396
 20
7.2378890618
  0
LWPOLYLINE
  5
81B
100
AcDbEntity
  8
0
100
AcDbPolyline
 62
7
  6
CONTINUOUS
 90
3
 70
0
 10
13.5898598412
 20
7.3216281465
 10
13.590227379
 20
7.3289225851
 10
13.5913909657
 20
7.3339225676
  0
LINE
  5
81C
100
AcDbEntity
  8
0
100
AcDbLine
 62
7
  6
CONTINUOUS
 10
13.5898598405
 20
7.417156695
 11
13.5904572894
 21
7.4250871732
  0
LINE
  5
81D
100
AcDbEntity
  8
AXIS
100
AcDbLine
 62
7
  6
CONTINUOUS
 10
13.2802626291
 20
8.353717899
 11
13.3144287416
 21
8.3137188963
  0
LINE
  5
81E
100
AcDbEntity
  8
0
100
AcDbLine
 62
7
  6
CONTINUOUS
 10
13.7477232875
 20
7.7604476817
 11
13.7477232875
 21
7.754404278
  0
LINE
  5
81F
100
AcDbEntity
  8
0
100
AcDbLine
 62
7
  6
CONTINUOUS
 10
13.7477232875
 20
7.712229035
 11
13.7477232875
 21
7.7061856313
  0
LINE
  5
820
100
AcDbEntity
  8
0
100
AcDbLine
 62
7
  6
CONTINUOUS
 10
13.7477232875
 20
7.6640103883
 11
13.7477232875
 21
7.6579669846
  0
LINE
  5
821
100
AcDbEntity
  8
0
100
AcDbLine
 62
7
  6
CONTINUOUS
 10
13.7477232875
 20
7.6157917416
 11
13.7477232875
 21
7.6097483379
  0
LINE
  5
822
100
AcDbEntity
  8
0
100
AcDbLine
 62
7
  6
CONTINUOUS
 10
13.7477232875
 20
7.567573095
 11
13.7477232875
 21
7.5615296912
  0
LINE
  5
823
100
AcDbEntity
  8
0
100
AcDbLine
 62
7
  6
CONTINUOUS
 10
13.7477232875
 20
7.5193544483
 11
13.7477232875
 21
7.5133110446
  0
LINE
  5
824
100
AcDbEntity
  8
0
100
AcDbLine
 62
7
  6
CONTINUOUS
 10
13.7477232875
 20
7.4711358016
 11
13.7477232875
 21
7.4650923979
  0
LINE
  5
825
100
AcDbEntity
  8
0
100
AcDbLine
 62
7
  6
CONTINUOUS
 10
13.7477232875
 20
7.4229171549
 11
13.7477232875
 21
7.4168737512
  0
LINE
  5
826
100
AcDbEntity
  8
0
100
AcDbLine
 62
7
  6
CONTINUOUS
 10
13.5898598373
 20
7.3852923106
 11
13.5916976747
 21
7.3985736159
  0
LINE
  5
827
100
AcDbEntity
  8
0
100
AcDbLine
 62
7
  6
CONTINUOUS
 10
13.5898598373
 20
7.2897608443
 11
13.5916944608
 21
7.3030159122
  0
LINE
  5
828
100
AcDbEntity
  8
0
100
AcDbLine
 62
7
  6
CONTINUOUS
 10
13.5898598373
 20
7.194229716
 11
13.5916931939
 21
7.2074489619
  0
LINE
  5
829
100
AcDbEntity
  8
0
100
AcDbLine
 62
7
  6
CONTINUOUS
 10
13.5898598373
 20
7.3534484046
 11
13.591711194
 21
7.3664317922
  0
LINE
  5
82A
100
AcDbEntity
  8
0
100
AcDbLine
 62
7
  6
CONTINUOUS
 10
13.5898598373
 20
7.2579188018
 11
13.5917133405
 21
7.2707713481
  0
LINE
  5
82B
100
AcDbEntity
  8
AXIS
100
AcDbLine
 62
7
  6
CONTINUOUS
 10
13.3144287416
 20
8.3137188963
 11
13.3573455819
 21
8.2766367892
  0
LINE
  5
82C
100
AcDbEntity
  8
AXIS
100
AcDbLine
 62
7
  6
CONTINUOUS
 10
13.466357007
 20
8.2137004374
 11
13.408278831
 21
8.2431060629
  0
LINE
  5
82D
100
AcDbEntity
  8
AXIS
100
AcDbLine
 62
7
  6
CONTINUOUS
 10
13.4576591207
 20
8.2176287941
 11
13.408278831
 21
8.2431060629
  0
LINE
  5
82E
100
AcDbEntity
  8
AXIS
100
AcDbLine
 62
7
  6
CONTINUOUS
 10
13.3573455819
 20
8.2766367892
 11
13.408278831
 21
8.2431060629
  0
LINE
  5
82F
100
AcDbEntity
  8
0
100
AcDbLine
 62
7
  6
CONTINUOUS
 10
14.0601416811
 20
7.3185021549
 11
14.0618598373
 21
7.305680659
  0
LINE
  5
830
100
AcDbEntity
  8
0
100
AcDbLine
 62
7
  6
CONTINUOUS
 10
14.0601485186
 20
7.2229777491
 11
14.0618598373
 21
7.210150004
  0
LINE
  5
831
100
AcDbEntity
  8
0
100
AcDbLine
 62
7
  6
CONTINUOUS
 10
14.0601364439
 20
7.4141161528
 11
14.0618598373
 21
7.4012123221
  0
LINE
  5
832
100
AcDbEntity
  8
0
100
AcDbLine
 62
7
  6
CONTINUOUS
 10
14.0618598373
 20
7.1783079804
 11
14.0601394103
 21
7.1912501357
  0
LINE
  5
833
100
AcDbEntity
  8
0
100
AcDbLine
 62
7
  6
CONTINUOUS
 10
14.0601508324
 20
7.2867032146
 11
14.0618598373
 21
7.2738384565
  0
LINE
  5
834
100
AcDbEntity
  8
0
100
AcDbLine
 62
7
  6
CONTINUOUS
 10
14.0601553071
 20
7.3822351822
 11
14.0618598373
 21
7.3693695553
  0
LINE
  5
835
100
AcDbEntity
  8
0
100
AcDbLine
 62
7
  6
CONTINUOUS
 10
14.060134167
 20
7.2553250576
 11
14.0618598372
 21
7.2419916276
  0
LINE
  5
836
100
AcDbEntity
  8
0
100
AcDbLine
 62
7
  6
CONTINUOUS
 10
14.0601351129
 20
7.3508909855
 11
14.0618598372
 21
7.3375220614
  0
LWPOLYLINE
  5
837
100
AcDbEntity
  8
0
100
AcDbPolyline
 62
7
  6
CONTINUOUS
 90
6
 70
0
 10
14.0618598373
 20
7.3693695553
 10
14.0590798071
 20
7.3477389526
 10
14.050574031
 20
7.3261650295
 10
14.0363365023
 20
7.3053594237
 10
14.0167849317
 20
7.2860954261
 10
13.9927377324
 20
7.2690442996
  0
LWPOLYLINE
  5
838
100
AcDbEntity
  8
0
100
AcDbPolyline
 62
7
  6
CONTINUOUS
 90
6
 70
0
 10
14.0618598373
 20
7.4012123221
 10
14.0590021619
 20
7.3792843003
 10
14.0504677885
 20
7.3578105166
 10
14.0362457536
 20
7.3370955336
 10
14.0167358361
 20
7.3178982442
 10
13.9927377324
 20
7.3008879085
  0
LINE
  5
839
100
AcDbEntity
  8
0
100
AcDbLine
 62
7
  6
CONTINUOUS
 10
14.061049442
 20
7.8029525344
 11
14.054342108
 21
7.7999492803
  0
LWPOLYLINE
  5
83A
100
AcDbEntity
  8
0
100
AcDbPolyline
 62
7
  6
CONTINUOUS
 90
3
 70
0
 10
13.9990206704
 20
7.7758671099
 10
14.0551594086
 20
7.7942196893
 10
14.0918022145
 20
7.8106982823
  0
LWPOLYLINE
  5
83B
100
AcDbEntity
  8
0
100
AcDbPolyline
 62
7
  6
CONTINUOUS
 90
3
 70
0
 10
14.054342108
 20
7.7999492803
 10
13.9980337388
 20
7.7816415392
 10
13.9381214818
 20
7.7683515053
  0
LWPOLYLINE
  5
83C
100
AcDbEntity
  8
0
100
AcDbPolyline
 62
7
  6
CONTINUOUS
 90
8
 70
0
 10
14.0618598373
 20
7.1725924225
 10
14.0597535119
 20
7.153751498
 10
14.052051284
 20
7.132253302
 10
14.038882643
 20
7.1116945473
 10
14.0205655493
 20
7.0925527725
 10
13.9975430044
 20
7.0752719374
 10
13.9703770267
 20
7.0602531988
 10
13.9397213714
 20
7.0478372637
  0
LWPOLYLINE
  5
83D
100
AcDbEntity
  8
0
100
AcDbPolyline
 62
7
  6
CONTINUOUS
 90
4
 70
0
 10
14.0618598373
 20
7.210150004
 10
14.0590740018
 20
7.188498549
 10
14.050565476
 20
7.1669310815
 10
14.036327994
 20
7.146131378
  0
LWPOLYLINE
  5
83E
100
AcDbEntity
  8
0
100
AcDbPolyline
 62
7
  6
CONTINUOUS
 90
6
 70
0
 10
14.0618598373
 20
7.2738384565
 10
14.0590657191
 20
7.2521537417
 10
14.0505430488
 20
7.2305763682
 10
14.0362966073
 20
7.2097813546
 10
14.0167537766
 20
7.1905387549
 10
13.9927377324
 20
7.1735135167
  0
LWPOLYLINE
  5
83F
100
AcDbEntity
  8
0
100
AcDbPolyline
 62
7
  6
CONTINUOUS
 90
6
 70
0
 10
14.0618598373
 20
7.305680659
 10
14.0590544757
 20
7.2839540108
 10
14.0505352126
 20
7.2624053506
 10
14.0362979671
 20
7.241626574
 10
14.0167600458
 20
7.222387572
 10
13.9927377324
 20
7.2053571257
  0
LINE
  5
840
100
AcDbEntity
  8
0
100
AcDbLine
 62
7
  6
CONTINUOUS
 10
14.0590303156
 20
7.1564867922
 11
14.0618598373
 21
7.1783079804
  0
LWPOLYLINE
  5
841
100
AcDbEntity
  8
0
100
AcDbPolyline
 62
7
  6
CONTINUOUS
 90
6
 70
0
 10
14.0618598372
 20
7.2419916276
 10
14.0588009383
 20
7.2193120135
 10
14.0500935918
 20
7.1979025104
 10
14.0359637211
 20
7.1775448797
 10
14.0166591984
 20
7.1586166411
 10
13.9927377324
 20
7.1416699198
  0
LWPOLYLINE
  5
842
100
AcDbEntity
  8
0
100
AcDbPolyline
 62
7
  6
CONTINUOUS
 90
6
 70
0
 10
14.0618598372
 20
7.3375220614
 10
14.0587874433
 20
7.3147931269
 10
14.0500593245
 20
7.2933706975
 10
14.0358807617
 20
7.2729782163
 10
14.0166257967
 20
7.2541197211
 10
13.9927377324
 20
7.2372007024
  0
LINE
  5
843
100
AcDbEntity
  8
0
100
AcDbLine
 62
7
  6
CONTINUOUS
 10
13.5981971266
 20
7.4678083279
 11
13.5974651507
 21
7.4673857239
  0
LINE
  5
844
100
AcDbEntity
  8
0
100
AcDbLine
 62
7
  6
CONTINUOUS
 10
13.6038853676
 20
7.4523809016
 11
13.5974651507
 21
7.4486742098
  0
LWPOLYLINE
  5
845
100
AcDbEntity
  8
0
100
AcDbPolyline
 62
7
  6
CONTINUOUS
 90
3
 70
0
 10
14.2541280567
 20
7.7484011399
 10
14.2554151045
 20
7.7418780508
 10
14.2559779433
 20
7.728821414
  0
LWPOLYLINE
  5
846
100
AcDbEntity
  8
0
100
AcDbPolyline
 62
7
  6
CONTINUOUS
 90
3
 70
0
 10
14.2537687802
 20
7.7964997652
 10
14.2557220345
 20
7.7858340217
 10
14.2559779426
 20
7.7770430295
  0
LWPOLYLINE
  5
847
100
AcDbEntity
  8
0
100
AcDbPolyline
 62
7
  6
CONTINUOUS
 90
3
 70
0
 10
14.2537689147
 20
7.84471926
 10
14.2557218471
 20
7.8340558989
 10
14.2559779425
 20
7.825262062
  0
LINE
  5
848
100
AcDbEntity
  8
0
100
AcDbLine
 62
7
  6
CONTINUOUS
 10
14.2551466294
 20
7.884794035
 11
14.2559779421
 21
7.8734823667
  0
LWPOLYLINE
  5
849
100
AcDbEntity
  8
0
100
AcDbPolyline
 62
7
  6
CONTINUOUS
 90
3
 70
0
 10
14.2559779475
 20
7.6805671363
 10
14.255732951
 20
7.6892064045
 10
14.2537617107
 20
7.7000076366
  0
LWPOLYLINE
  5
84A
100
AcDbEntity
  8
0
100
AcDbPolyline
 62
7
  6
CONTINUOUS
 90
14
 70
0
 10
14.2559779421
 20
7.8734823667
 10
14.2553539474
 20
7.8596568196
 10
14.2477121912
 20
7.8234854944
 10
14.2315352743
 20
7.7883224488
 10
14.2074523139
 20
7.7551783158
 10
14.1757589867
 20
7.7242597466
 10
14.1369372317
 20
7.6960980752
 10
14.0920892004
 20
7.6714703126
 10
14.0423006085
 20
7.6508402643
 10
13.9880779883
 20
7.6343675357
 10
13.9299303848
 20
7.6223157451
 10
13.869247519
 20
7.6151038292
 10
13.8079081071
 20
7.6129577176
 10
13.7477232875
 20
7.6157917416
  0
LWPOLYLINE
  5
84B
100
AcDbEntity
  8
0
100
AcDbPolyline
 62
7
  6
CONTINUOUS
 90
6
 70
0
 10
14.2559779433
 20
7.728821414
 10
14.2545380894
 20
7.7078556271
 10
14.2460254607
 20
7.6740210385
 10
14.2301051007
 20
7.6412835996
 10
14.2073178179
 20
7.6103680031
 10
14.1781929937
 20
7.5816651456
  0
LINE
  5
84C
100
AcDbEntity
  8
0
100
AcDbLine
 62
7
  6
CONTINUOUS
 10
14.253127926
 20
7.6511436826
 11
14.2559779475
 21
7.6805671363
  0
LWPOLYLINE
  5
84D
100
AcDbEntity
  8
0
100
AcDbPolyline
 62
7
  6
CONTINUOUS
 90
13
 70
0
 10
14.2559779475
 20
7.6745237187
 10
14.2531279625
 20
7.6451004668
 10
14.241062852
 20
7.6076695888
 10
14.2198050518
 20
7.5716744727
 10
14.1898251776
 20
7.5378863468
 10
14.151786184
 20
7.507027386
 10
14.1065302059
 20
7.4797558967
 10
14.0550600563
 20
7.4566509348
 10
13.9985158532
 20
7.438198787
 10
13.9381492444
 20
7.4247824222
 10
13.8752964835
 20
7.4166734641
 10
13.8113492865
 20
7.4140261426
 10
13.7477232875
 20
7.4168737512
  0
LWPOLYLINE
  5
84E
100
AcDbEntity
  8
0
100
AcDbPolyline
 62
7
  6
CONTINUOUS
 90
4
 70
0
 10
14.2559779425
 20
7.825262062
 10
14.2530983557
 20
7.7956478655
 10
14.2407953203
 20
7.7577822609
 10
14.2193005095
 20
7.7216894357
  0
LWPOLYLINE
  5
84F
100
AcDbEntity
  8
0
100
AcDbPolyline
 62
7
  6
CONTINUOUS
 90
5
 70
0
 10
14.2559779426
 20
7.7770430295
 10
14.2530981978
 20
7.7474284107
 10
14.2407959235
 20
7.7095649307
 10
14.2193010738
 20
7.6734715515
 10
14.189477531
 20
7.6400372214
  0
LWPOLYLINE
  5
850
100
AcDbEntity
  8
0
100
AcDbPolyline
 62
7
  6
CONTINUOUS
 90
12
 70
0
 10
14.249540522
 20
7.8812151038
 10
14.2413994074
 20
7.8555521771
 10
14.2203733243
 20
7.8195884477
 10
14.1908183216
 20
7.7859712968
 10
14.1527885256
 20
7.7548659377
 10
14.1072430434
 20
7.7272645291
 10
14.0557339446
 20
7.7040473003
 10
13.9997700892
 20
7.6856786164
 10
13.9392147983
 20
7.6721059837
 10
13.8756068666
 20
7.6638364761
 10
13.8110548898
 20
7.6611633196
 10
13.7477232875
 20
7.6640103883
  0
LWPOLYLINE
  5
851
100
AcDbEntity
  8
0
100
AcDbPolyline
 62
7
  6
CONTINUOUS
 90
10
 70
0
 10
14.2139041838
 20
7.8604623119
 10
14.1909069882
 20
7.8342750507
 10
14.1527804753
 20
7.803078927
 10
14.107020054
 20
7.775366636
 10
14.0551594086
 20
7.7520444463
 10
13.9990206704
 20
7.733691867
 10
13.9388232814
 20
7.72025575
 10
13.8754863341
 20
7.7120448648
 10
13.8110706736
 20
7.7093819344
 10
13.7477232875
 20
7.712229035
  0
LWPOLYLINE
  5
852
100
AcDbEntity
  8
0
100
AcDbPolyline
 62
7
  6
CONTINUOUS
 90
3
 70
0
 10
14.1908183216
 20
7.8281465398
 10
14.2203733243
 20
7.8617636907
 10
14.2218427512
 20
7.8642770486
  0
LWPOLYLINE
  5
853
100
AcDbEntity
  8
0
100
AcDbPolyline
 62
7
  6
CONTINUOUS
 90
5
 70
0
 10
14.1757589867
 20
7.7664349896
 10
14.2074523139
 20
7.7973535587
 10
14.2315352743
 20
7.8304976918
 10
14.2477121912
 20
7.8656607374
 10
14.251225557
 20
7.8822908278
  0
LINE
  5
854
100
AcDbEntity
  8
0
100
AcDbLine
 62
7
  6
CONTINUOUS
 10
13.6392408539
 20
7.434520434
 11
13.6328206369
 21
7.4308137421
  0
LINE
  5
855
100
AcDbEntity
  8
0
100
AcDbLine
 62
7
  6
CONTINUOUS
 10
13.6392408539
 20
7.4268657238
 11
13.6328206369
 21
7.4231590319
  0
LWPOLYLINE
  5
856
100
AcDbEntity
  8
AXIS
100
AcDbPolyline
 62
7
  6
CONTINUOUS
 90
21
 70
0
 10
14.4164110184
 20
8.4841951302
 10
14.4126980318
 20
8.4460222516
 10
14.4016052144
 20
8.4083279996
 10
14.3832720649
 20
8.3715878209
 10
14.3579291331
 20
8.3362637443
 10
14.3258951213
 20
8.3027999908
 10
14.2875728756
 20
8.2716173864
 10
14.2434443206
 20
8.2431080704
 10
14.1940643985
 20
8.2176305642
 10
14.1400540903
 20
8.195505262
 10
14.0820926071
 20
8.1770104024
 10
14.0209088481
 20
8.1623785689
 10
13.9572722347
 20
8.1517937655
 10
13.8919830341
 20
8.1453891021
 10
13.825862296
 20
8.1432451211
 10
13.7597415269
 20
8.1453887842
 10
13.694452234
 20
8.1517931338
 10
13.6308154679
 20
8.1623776313
 10
13.5696314979
 20
8.1770091706
 10
13.511669748
 20
8.1955037515
 10
13.4576591207
 20
8.2176287941
  0
LWPOLYLINE
  5
857
100
AcDbEntity
  8
AXIS
100
AcDbPolyline
 62
7
  6
CONTINUOUS
 90
18
 70
0
 10
14.4164110184
 20
8.4841951342
 10
14.4113590921
 20
8.4396936311
 10
14.3962891112
 20
8.3959521455
 10
14.3714589273
 20
8.3537205219
 10
14.3372933917
 20
8.313721355
 10
14.2943770862
 20
8.2766390416
 10
14.2434443206
 20
8.2431080704
 10
14.1853665688
 20
8.2137021657
 10
14.1211375571
 20
8.1889244706
 10
14.0518562618
 20
8.1691989384
 10
13.978708105
 20
8.1548630783
 10
13.9029446719
 20
8.1461621809
 10
13.825862296
 20
8.1432451211
 10
13.748779878
 20
8.1461618104
 10
13.6730163194
 20
8.1548623435
 10
13.5998679559
 20
8.1691978519
 10
13.530586376
 20
8.1889230511
 10
13.466357007
 20
8.2137004374
  0
LINE
  5
858
100
AcDbEntity
  8
0
100
AcDbLine
 62
7
  6
CONTINUOUS
 10
14.0938873468
 20
7.4706798508
 11
14.0969139783
 21
7.4754391699
  0
LINE
  5
859
100
AcDbEntity
  8
0
100
AcDbLine
 62
7
  6
CONTINUOUS
 10
14.0938873468
 20
7.4706798508
 11
14.0439787761
 21
7.4009337038
  0
LWPOLYLINE
  5
85A
100
AcDbEntity
  8
0
100
AcDbPolyline
 62
7
  6
CONTINUOUS
 90
10
 70
0
 10
14.2193005095
 20
7.7216894357
 10
14.1894468344
 20
7.6882267979
 10
14.1515131113
 20
7.6575363674
 10
14.106633949
 20
7.6305092793
 10
14.0556288591
 20
7.6075694377
 10
13.9996711086
 20
7.5892141379
 10
13.9391367144
 20
7.5756549344
 10
13.875553572
 20
7.5673946446
 10
13.8110283816
 20
7.5647260806
 10
13.7477232875
 20
7.567573095
  0
LWPOLYLINE
  5
85B
100
AcDbEntity
  8
0
100
AcDbPolyline
 62
7
  6
CONTINUOUS
 90
6
 70
0
 10
14.1781929937
 20
7.6238403885
 10
14.2073178179
 20
7.6525432461
 10
14.2301051007
 20
7.6834588426
 10
14.2460254607
 20
7.7161962815
 10
14.2545380894
 20
7.75003087
 10
14.2559779433
 20
7.770996657
  0
LWPOLYLINE
  5
85C
100
AcDbEntity
  8
0
100
AcDbPolyline
 62
7
  6
CONTINUOUS
 90
9
 70
0
 10
14.189477531
 20
7.6400372214
 10
14.1517323995
 20
7.6094705601
 10
14.1068593653
 20
7.5824081668
 10
14.0556490491
 20
7.5593585836
 10
13.9996480046
 20
7.5409891482
 10
13.9391199466
 20
7.527433335
 10
13.8755394927
 20
7.5191747997
 10
13.8110171589
 20
7.5165074572
 10
13.7477232875
 20
7.5193544483
  0
LINE
  5
85D
100
AcDbEntity
  8
AXIS
100
AcDbLine
 62
7
  6
CONTINUOUS
 10
14.4164110184
 20
8.4841951302
 11
14.4164110184
 21
8.1305917212
  0
LWPOLYLINE
  5
85E
100
AcDbEntity
  8
0
100
AcDbPolyline
 62
7
  6
CONTINUOUS
 90
18
 70
0
 10
14.4164110184
 20
8.1305917212
 10
14.4111397049
 20
8.0822234996
 10
14.3951013212
 20
8.0341246932
 10
14.3682173864
 20
7.9874688835
 10
14.3305984913
 20
7.9432065555
 10
14.2830111727
 20
7.9025827209
 10
14.2265566294
 20
7.8665422186
 10
14.1626552575
 20
7.8358355559
 10
14.092693385
 20
7.8109227428
 10
14.0179361743
 20
7.7920935296
 10
13.9398331603
 20
7.7795993511
 10
13.8597610058
 20
7.7735802056
 10
13.7791140182
 20
7.7741025318
 10
13.6993373019
 20
7.7811509867
 10
13.621787185
 20
7.7946357537
 10
13.5479253449
 20
7.8143640211
 10
13.4790608219
 20
7.8400806827
 10
13.4164328594
 20
7.8714795773
  0
LWPOLYLINE
  5
85F
100
AcDbEntity
  8
0
100
AcDbPolyline
 62
7
  6
CONTINUOUS
 90
6
 70
0
 10
14.1511202655
 20
7.5547824569
 10
14.189403848
 20
7.5857054063
 10
14.2192683662
 20
7.6191653199
 10
14.2407802618
 20
7.6552687043
 10
14.2530937007
 20
7.6931433502
 10
14.2559779426
 20
7.7227810228
  0
LWPOLYLINE
  5
860
100
AcDbEntity
  8
0
100
AcDbPolyline
 62
7
  6
CONTINUOUS
 90
9
 70
0
 10
14.1781929937
 20
7.5816651456
 10
14.1395926262
 20
7.5531310917
 10
14.0942870802
 20
7.5278711692
 10
14.0436331559
 20
7.5066617099
 10
13.9889375993
 20
7.4899308869
 10
13.9303750037
 20
7.4777321393
 10
13.869485494
 20
7.470466126
 10
13.8081721342
 20
7.4683001717
 10
13.7477232875
 20
7.4711358016
  0
LWPOLYLINE
  5
861
100
AcDbEntity
  8
0
100
AcDbPolyline
 62
7
  6
CONTINUOUS
 90
4
 70
0
 10
14.0309216576
 20
7.4162194294
 10
14.0605993924
 20
7.4362959528
 10
14.0844435202
 20
7.4588156993
 10
14.0938873468
 20
7.4706798508
  0
LWPOLYLINE
  5
862
100
AcDbEntity
  8
0
100
AcDbPolyline
 62
7
  6
CONTINUOUS
 90
7
 70
0
 10
14.0792938246
 20
7.4675294789
 10
14.049461609
 20
7.4520051457
 10
14.0003376746
 20
7.433618045
 10
13.9472305622
 20
7.4200369377
 10
13.8913815168
 20
7.4114932397
 10
13.834066279
 20
7.4081304949
 10
13.7765821522
 20
7.4100027552
  0
LWPOLYLINE
  5
863
100
AcDbEntity
  8
0
100
AcDbPolyline
 62
7
  6
CONTINUOUS
 90
7
 70
0
 10
14.055059589
 20
7.4626941587
 10
14.1065295646
 20
7.4857989665
 10
14.1517853719
 20
7.513070223
 10
14.1898242862
 20
7.5439289033
 10
14.2198043956
 20
7.5777169828
 10
14.2410626183
 20
7.6137124776
 10
14.253127926
 20
7.6511436826
  0
LWPOLYLINE
  5
864
100
AcDbEntity
  8
0
100
AcDbPolyline
 62
7
  6
CONTINUOUS
 90
6
 70
0
 10
13.9927377324
 20
7.2951723777
 10
14.0167849317
 20
7.3122235042
 10
14.0363365023
 20
7.3314875018
 10
14.050574031
 20
7.3522931077
 10
14.0590798071
 20
7.3738670308
 10
14.0618598373
 20
7.3954976334
  0
LWPOLYLINE
  5
865
100
AcDbEntity
  8
0
100
AcDbPolyline
 62
7
  6
CONTINUOUS
 90
6
 70
0
 10
13.9927377324
 20
7.3270159868
 10
14.0167358361
 20
7.3440263225
 10
14.0362457536
 20
7.3632236119
 10
14.0504677885
 20
7.3839385949
 10
14.0590021619
 20
7.4054123786
 10
14.0616338456
 20
7.4256062812
  0
LWPOLYLINE
  5
866
100
AcDbEntity
  8
0
100
AcDbPolyline
 62
7
  6
CONTINUOUS
 90
4
 70
0
 10
13.9927377324
 20
7.3566141884
 10
14.0191802833
 20
7.3748081241
 10
14.0397488903
 20
7.3953766348
 10
14.0439787761
 20
7.4009337038
  0
LWPOLYLINE
  5
867
100
AcDbEntity
  8
0
100
AcDbPolyline
 62
7
  6
CONTINUOUS
 90
14
 70
0
 10
14.0309216576
 20
7.4162194294
 10
13.9961478491
 20
7.399085059
 10
13.9571421447
 20
7.3853186547
 10
13.9148738911
 20
7.3752623309
 10
13.8703935134
 20
7.3691660013
 10
13.8248064114
 20
7.3671811684
 10
13.7792454885
 20
7.3693571579
 10
13.7348429976
 20
7.3756398935
 10
13.6927024027
 20
7.3858732405
 10
13.6538709567
 20
7.3998028857
 10
13.6193136755
 20
7.417082658
 10
13.5898893559
 20
7.4372831308
 10
13.5663292336
 20
7.459902294
 10
13.5578323277
 20
7.4706798508
  0
LWPOLYLINE
  5
868
100
AcDbEntity
  8
0
100
AcDbPolyline
 62
7
  6
CONTINUOUS
 90
13
 70
0
 10
13.9927377324
 20
7.3566141884
 10
13.9612246811
 20
7.3413476413
 10
13.9255986376
 20
7.3294723491
 10
13.886942081
 20
7.3213491364
 10
13.8464295714
 20
7.317224823
 10
13.8052920608
 20
7.3172247241
 10
13.7647794917
 20
7.3213488427
 10
13.726122818
 20
7.3294718696
 10
13.6904966032
 20
7.3413469906
 10
13.6589833317
 20
7.3566133862
 10
13.6325405184
 20
7.3748071947
 10
13.6119716148
 20
7.3953756065
 10
13.6077408985
 20
7.4009337038
  0
LWPOLYLINE
  5
869
100
AcDbEntity
  8
0
100
AcDbPolyline
 62
7
  6
CONTINUOUS
 90
15
 70
0
 10
14.0085010045
 20
7.083497066
 10
14.0046786994
 20
7.0786648444
 10
13.9889627441
 20
7.0645461027
 10
13.969926484
 20
7.0518623604
 10
13.9479574425
 20
7.0408718221
 10
13.9235028458
 20
7.0317982232
 10
13.897060519
 20
7.0248262762
 10
13.8691687517
 20
7.0200979098
 10
13.8403953398
 20
7.0177093799
 10
13.8113260269
 20
7.01770931
 10
13.7825525806
 20
7.0200977016
 10
13.7546607451
 20
7.024825934
 10
13.7282183177
 20
7.0317977538
 10
13.7037635902
 20
7.0408712351
 10
13.6817943901
 20
7.0518616679
  0
LWPOLYLINE
  5
86A
100
AcDbEntity
  8
0
100
AcDbPolyline
 62
7
  6
CONTINUOUS
 90
3
 70
0
 10
14.036327994
 20
7.146131378
 10
14.016779436
 20
7.1268729015
 10
13.9927377324
 20
7.1098263428
  0
LWPOLYLINE
  5
86B
100
AcDbEntity
  8
0
100
AcDbPolyline
 62
7
  6
CONTINUOUS
 90
5
 70
0
 10
14.0166505769
 20
7.1210503822
 10
14.036136556
 20
7.1401893818
 10
14.0504058852
 20
7.1609184406
 10
14.0589952084
 20
7.1824806971
 10
14.0618598373
 20
7.2044359024
  0
LWPOLYLINE
  5
86C
100
AcDbEntity
  8
0
100
AcDbPolyline
 62
7
  6
CONTINUOUS
 90
6
 70
0
 10
13.9927377324
 20
7.231485204
 10
14.0167600458
 20
7.2485156503
 10
14.0362979671
 20
7.2677546523
 10
14.0505352126
 20
7.2885334288
 10
14.0590544757
 20
7.3100820891
 10
14.0618598373
 20
7.3318087373
  0
LWPOLYLINE
  5
86D
100
AcDbEntity
  8
0
100
AcDbPolyline
 62
7
  6
CONTINUOUS
 90
6
 70
0
 10
13.9927377324
 20
7.1996415947
 10
14.0167537766
 20
7.216666833
 10
14.0362966073
 20
7.2359094327
 10
14.0505430488
 20
7.2567044463
 10
14.0590657191
 20
7.2782818198
 10
14.0618598373
 20
7.2999665347
  0
LWPOLYLINE
  5
86E
100
AcDbEntity
  8
0
100
AcDbPolyline
 62
7
  6
CONTINUOUS
 90
6
 70
0
 10
13.9927377324
 20
7.2633287798
 10
14.0166257967
 20
7.2802477985
 10
14.0358807617
 20
7.2991062937
 10
14.0500593245
 20
7.319498775
 10
14.0587874433
 20
7.3409212044
 10
14.0618598372
 20
7.3636501389
  0
LWPOLYLINE
  5
86F
100
AcDbEntity
  8
0
100
AcDbPolyline
 62
7
  6
CONTINUOUS
 90
12
 70
0
 10
13.9927377324
 20
7.2372007024
 10
13.9654889655
 20
7.2229272909
 10
13.9346212006
 20
7.2110713687
 10
13.9011704373
 20
7.2020821407
 10
13.8663407197
 20
7.1962053737
 10
13.8309098675
 20
7.1934519924
 10
13.7949192132
 20
7.1938220293
 10
13.7594987309
 20
7.197365316
 10
13.7258792003
 20
7.2039264879
 10
13.6947864029
 20
7.2132749216
 10
13.666525567
 20
7.2252972372
 10
13.6420558751
 20
7.239577872
  0
LWPOLYLINE
  5
870
100
AcDbEntity
  8
0
100
AcDbPolyline
 62
7
  6
CONTINUOUS
 90
3
 70
0
 10
13.9927377324
 20
7.3008879085
 10
13.9647295367
 20
7.2862738705
 10
13.9332388931
 20
7.2743140914
  0
LWPOLYLINE
  5
871
100
AcDbEntity
  8
0
100
AcDbPolyline
 62
7
  6
CONTINUOUS
 90
15
 70
0
 10
13.9927377324
 20
7.2690442996
 10
13.9647352372
 20
7.2544328079
 10
13.932924945
 20
7.2423704721
 10
13.8983812213
 20
7.2333315697
 10
13.8624028712
 20
7.2275871961
 10
13.8256310307
 20
7.2251510801
 10
13.7887300788
 20
7.226052115
 10
13.7529824065
 20
7.2302240892
 10
13.7190279829
 20
7.2375347839
 10
13.6874199036
 20
7.2478847054
 10
13.65889295
 20
7.2611320584
 10
13.6345833237
 20
7.276809682
 10
13.6153137776
 20
7.2942710489
 10
13.6013347013
 20
7.313065166
 10
13.5927345968
 20
7.3330375225
  0
LWPOLYLINE
  5
872
100
AcDbEntity
  8
0
100
AcDbPolyline
 62
7
  6
CONTINUOUS
 90
6
 70
0
 10
13.9927377324
 20
7.1359544212
 10
14.016779436
 20
7.1530009799
 10
14.036327994
 20
7.1722594563
 10
14.050565476
 20
7.1930591598
 10
14.0590740018
 20
7.2146266273
 10
14.0618598373
 20
7.2362780823
  0
LWPOLYLINE
  5
873
100
AcDbEntity
  8
0
100
AcDbPolyline
 62
7
  6
CONTINUOUS
 90
6
 70
0
 10
13.9927377324
 20
7.1677979972
 10
14.0166591984
 20
7.1847447185
 10
14.0359637211
 20
7.2036729571
 10
14.0500935918
 20
7.2240305878
 10
14.0588009383
 20
7.245440091
 10
14.0618598372
 20
7.268119705
  0
LINE
  5
874
100
AcDbEntity
  8
0
100
AcDbLine
 62
7
  6
CONTINUOUS
 10
13.9927377324
 20
7.1041108118
 11
14.0166505769
 21
7.1210503822
  0
LWPOLYLINE
  5
875
100
AcDbEntity
  8
0
100
AcDbPolyline
 62
7
  6
CONTINUOUS
 90
12
 70
0
 10
13.9927377324
 20
7.1416699198
 10
13.966454191
 20
7.1278334147
 10
13.9367581615
 20
7.11624114
 10
13.9045764972
 20
7.1073076396
 10
13.8709886506
 20
7.1012710385
 10
13.8367141933
 20
7.0981589206
 10
13.8017356362
 20
7.0979763185
 10
13.7671386369
 20
7.1007922738
 10
13.7340545958
 20
7.1064884758
 10
13.7033496469
 20
7.114811941
 10
13.675153287
 20
7.1256706045
 10
13.6502664628
 20
7.1387464187
  0
LWPOLYLINE
  5
876
100
AcDbEntity
  8
0
100
AcDbPolyline
 62
7
  6
CONTINUOUS
 90
15
 70
0
 10
13.9927377324
 20
7.2053571257
 10
13.964766302
 20
7.1907595149
 10
13.9333839977
 20
7.1788296496
 10
13.8994829495
 20
7.1698764046
 10
13.8637612893
 20
7.1640548297
 10
13.8268837936
 20
7.1614920288
 10
13.7895168282
 20
7.162310468
 10
13.7530683895
 20
7.1665227513
 10
13.7188655702
 20
7.173891348
 10
13.6875130681
 20
7.1841610631
 10
13.6591773995
 20
7.1972894007
 10
13.6349253952
 20
7.2128624709
 10
13.615609611
 20
7.2302617558
 10
13.6014825891
 20
7.2491254694
 10
13.5928027186
 20
7.2691115172
  0
LWPOLYLINE
  5
877
100
AcDbEntity
  8
0
100
AcDbPolyline
 62
7
  6
CONTINUOUS
 90
15
 70
0
 10
13.9927377324
 20
7.1735135167
 10
13.9645744485
 20
7.158830253
 10
13.9325942079
 20
7.146734706
 10
13.8979441345
 20
7.1377097092
 10
13.8619457724
 20
7.1320053813
 10
13.8252325666
 20
7.1296121574
 10
13.788479482
 20
7.1305390114
 10
13.7527845243
 20
7.1347259856
 10
13.7188306599
 20
7.1420571502
 10
13.6872583571
 20
7.1524172538
 10
13.6587694647
 20
7.1656689446
 10
13.6344967262
 20
7.1813449481
 10
13.6152597452
 20
7.1987993411
 10
13.6012900322
 20
7.217611003
 10
13.5926853916
 20
7.237681051
  0
LWPOLYLINE
  5
878
100
AcDbEntity
  8
0
100
AcDbPolyline
 62
7
  6
CONTINUOUS
 90
15
 70
0
 10
13.9927377324
 20
7.1098263428
 10
13.9648154553
 20
7.0952507045
 10
13.9335443498
 20
7.0833501636
 10
13.8995719264
 20
7.0743645116
 10
13.863832818
 20
7.068532329
 10
13.8269770103
 20
7.0659634919
 10
13.7896282512
 20
7.0667720964
 10
13.7531929605
 20
7.0709714826
 10
13.7189956505
 20
7.0783255284
 10
13.6874933861
 20
7.0886379816
 10
13.6590330482
 20
7.1018374549
 10
13.6347472906
 20
7.1174669095
 10
13.615464502
 20
7.1348886978
 10
13.6014004483
 20
7.153734729
 10
13.5927824028
 20
7.1736516631
  0
LWPOLYLINE
  5
879
100
AcDbEntity
  8
AXIS
100
AcDbPolyline
 62
7
  6
CONTINUOUS
 90
9
 70
0
 10
14.1211304179
 20
8.9956303477
 10
14.1813748572
 20
8.9557455179
 10
14.2355486637
 20
8.9095253113
 10
14.2857983809
 20
8.8546100781
 10
14.3304897742
 20
8.7909512617
 10
14.3671146816
 20
8.7204024353
 10
14.394127424
 20
8.6448893968
 10
14.4107625412
 20
8.5656784073
 10
14.4164110184
 20
8.4841951302
  0
CIRCLE
  5
87A
100
AcDbEntity
  8
0
100
AcDbCircle
 62
7
  6
CONTINUOUS
 10
10.5342808475
 20
1.243294839
 40
0.252091
  0
CIRCLE
  5
87B
100
AcDbEntity
  8
0
100
AcDbCircle
 62
7
  6
CONTINUOUS
 10
10.5342808475
 20
1.243294839
 40
0.182698
  0
ARC
  5
87C
100
AcDbEntity
  8
AXIS
100
AcDbCircle
 62
7
  6
CONTINUOUS
 10
7.1627890148
 20
5.2029400888
 40
0.5905511811
100
AcDbArc
 50
90.0
 51
270.0
  0
ARC
  5
87D
100
AcDbEntity
  8
0
100
AcDbCircle
 62
7
  6
CONTINUOUS
 10
7.595859881
 20
5.7541211911
 40
0.0393700787
100
AcDbArc
 50
0.0
 51
90.0
  0
ARC
  5
87E
100
AcDbEntity
  8
0
100
AcDbCircle
 62
7
  6
CONTINUOUS
 10
7.595859881
 20
4.6517589864
 40
0.0393700787
100
AcDbArc
 50
270.0
 51
360.0
  0
ARC
  5
87F
100
AcDbEntity
  8
0
100
AcDbCircle
 62
7
  6
CONTINUOUS
 10
8.2060961014
 20
4.8682944195
 40
0.0196850394
100
AcDbArc
 50
270.0
 51
360.0
  0
ARC
  5
880
100
AcDbEntity
  8
0
100
AcDbCircle
 62
7
  6
CONTINUOUS
 10
8.2060961014
 20
5.537585758
 40
0.0196850394
100
AcDbArc
 50
0.0
 51
90.0
  0
ARC
  5
881
100
AcDbEntity
  8
0
100
AcDbCircle
 62
7
  6
CONTINUOUS
 10
7.6549149991
 20
4.8289243407
 40
0.0196850394
100
AcDbArc
 50
90.0
 51
179.9999999703
  0
ARC
  5
882
100
AcDbEntity
  8
0
100
AcDbCircle
 62
7
  6
CONTINUOUS
 10
7.6549149991
 20
5.5769558368
 40
0.0196850394
100
AcDbArc
 50
180.0000000323
 51
270.0
  0
ARC
  5
883
100
AcDbEntity
  8
AXIS
100
AcDbCircle
 62
7
  6
CONTINUOUS
 10
7.1627890148
 20
7.3884522929
 40
0.5905511811
100
AcDbArc
 50
90.0
 51
270.0
  0
ARC
  5
884
100
AcDbEntity
  8
0
100
AcDbCircle
 62
7
  6
CONTINUOUS
 10
7.595859881
 20
6.8372711905
 40
0.0393700787
100
AcDbArc
 50
270.0
 51
360.0
  0
ARC
  5
885
100
AcDbEntity
  8
0
100
AcDbCircle
 62
7
  6
CONTINUOUS
 10
7.595859881
 20
7.9396333953
 40
0.0393700787
100
AcDbArc
 50
0.0
 51
90.0
  0
ARC
  5
886
100
AcDbEntity
  8
0
100
AcDbCircle
 62
7
  6
CONTINUOUS
 10
8.2060961014
 20
7.7427830016
 40
0.0196850394
100
AcDbArc
 50
0.0
 51
90.0
  0
ARC
  5
887
100
AcDbEntity
  8
0
100
AcDbCircle
 62
7
  6
CONTINUOUS
 10
8.2060961014
 20
7.0341215842
 40
0.0196850394
100
AcDbArc
 50
270.0
 51
360.0
  0
ARC
  5
888
100
AcDbEntity
  8
0
100
AcDbCircle
 62
7
  6
CONTINUOUS
 10
7.6549149991
 20
6.9386491433
 40
0.0196850394
100
AcDbArc
 50
90.0
 51
180.0
  0
ARC
  5
889
100
AcDbEntity
  8
0
100
AcDbCircle
 62
7
  6
CONTINUOUS
 10
7.6549149991
 20
7.8382554425
 40
0.0196850394
100
AcDbArc
 50
180.0
 51
270.0
  0
CIRCLE
  5
88A
100
AcDbEntity
  8
AXIS
100
AcDbCircle
 62
7
  6
CONTINUOUS
 10
3.6409485947
 20
5.2029400888
 40
0.5905511811
  0
ELLIPSE
  5
88B
100
AcDbEntity
  8
0
100
AcDbEllipse
 62
7
  6
CONTINUOUS
 10
8.2826635813
 20
5.2029400888
 30
0.0
 11
0.0
 21
0.29
 31
0.0
 40
0.3497023818
 41
-0.0863140315
 42
-0.0000093693
  0
ELLIPSE
  5
88C
100
AcDbEntity
  8
0
100
AcDbEllipse
 62
7
  6
CONTINUOUS
 10
8.2826635813
 20
5.2029400888
 30
0.0
 11
0.0
 21
0.29
 31
0.0
 40
0.3497023818
 41
-3.1415832841
 42
-3.0552786221
  0
ELLIPSE
  5
88D
100
AcDbEntity
  8
0
100
AcDbEllipse
 62
7
  6
CONTINUOUS
 10
8.2688987003
 20
5.2029400888
 30
0.0
 11
0.0
 21
0.29
 31
0.0
 40
0.3497023818
 41
6.2831946765
 42
6.3694993387
  0
ELLIPSE
  5
88E
100
AcDbEntity
  8
0
100
AcDbEllipse
 62
7
  6
CONTINUOUS
 10
8.2688987003
 20
5.2029400888
 30
0.0
 11
0.0
 21
0.29
 31
0.0
 40
0.3497023818
 41
3.0552786221
 42
3.1415832841
  0
ELLIPSE
  5
88F
100
AcDbEntity
  8
0
100
AcDbEllipse
 62
7
  6
CONTINUOUS
 10
13.8258598373
 20
7.5698148398
 30
0.0
 11
0.2758283978
 21
-0.125469631
 31
0.0
 40
0.7136959406
 41
-2.078638737
 42
-1.9559627072
  0
ENDSEC
  0
SECTION
  2
OBJECTS
  0
DICTIONARY
  5
C
100
AcDbDictionary
280
0
281
1
  3
ACAD_GROUP
350
D
  3
ACAD_MLINESTYLE
350
17
  3
ACAD_LAYOUT
350
1A
  3
ACAD_PLOTSETTINGS
350
19
  3
ACAD_PLOTSTYLENAME
350
E
  0
DICTIONARY
  5
D
102
{ACAD_REACTORS
330
C
102
}
100
AcDbDictionary
280
0
281
1
  0
ACDBDICTIONARYWDFLT
  5
E
102
{ACAD_REACTORS
330
C
102
}
100
AcDbDictionary
281
1
  3
Normal
350
F
100
AcDbDictionaryWithDefault
340
F
  0
DICTIONARY
  5
17
102
{ACAD_REACTORS
330
C
102
}
100
AcDbDictionary
280
0
281
1
  3
Standard
350
18
  0
DICTIONARY
  5
19
102
{ACAD_REACTORS
330
C
102
}
100
AcDbDictionary
281
1
  0
DICTIONARY
  5
1A
102
{ACAD_REACTORS
330
C
102
}
100
AcDbDictionary
281
1
  3
Model
350
890
  3
Layout1
350
891
  0
ACDBPLACEHOLDER
  5
F
102
{ACAD_REACTORS
330
E
102
}
  0
MLINESTYLE
  5
18
102
{ACAD_REACTORS
330
17
102
}
100
AcDbMlineStyle
  2
STANDARD
 70
0
  3

 62
256
 51
90.0
 52
90.0
 71
2
 49
0.5
 62
256
  6
BYLAYER
 49
-0.5
 62
256
  6
BYLAYER
  0
LAYOUT
  5
890
102
{ACAD_REACTORS
330
1A
102
}
100
AcDbPlotSettings
  1

  2
none_device
  4
ANSI_B_(17.00_x_11.00_Inches)
  6

 40
0.0
 41
0.0
 42
0.0
 43
0.0
 44
431.8
 45
279.4
 46
0.0
 47
0.0
 48
0.0
 49
0.0
140
0.0
141
0.0
142
1.0
143
1.0
 70
1024
 72
0
 73
0
 74
0
  7

 75
0
147
1.0
148
0.0
149
0.0
100
AcDbLayout
  1
Model
 70
0
 71
0
 10
0.0
 20
0.0
 11
17.0
 21
11.0
 12
0.0
 22
0.0
 32
0.0
 14
0.0
 24
0.0
 34
0.0
 15
0.0
 25
0.0
 35
0.0
146
0.0
 13
0.0
 23
0.0
 33
0.0
 16
1.0
 26
0.0
 36
0.0
 17
0.0
 27
1.0
 37
0.0
 76
0
330
22B
345
0
346
0
  0
LAYOUT
  5
891
102
{ACAD_REACTORS
330
1A
102
}
100
AcDbPlotSettings
  1

  2
none_device
  4
ANSI_B_(17.00_x_11.00_Inches)
  6

 40
0.0
 41
0.0
 42
0.0
 43
0.0
 44
431.8
 45
279.4
 46
0.0
 47
0.0
 48
0.0
 49
0.0
140
0.0
141
0.0
142
1.0
143
1.0
 70
0
 72
0
 73
0
 74
0
  7

 75
0
147
1.0
148
0.0
149
0.0
100
AcDbLayout
  1
Layout1
 70
0
 71
1
 10
0.0
 20
0.0
 11
17.0
 21
11.0
 12
0.0
 22
0.0
 32
0.0
 14
0.0
 24
0.0
 34
0.0
 15
0.0
 25
0.0
 35
0.0
146
0.0
 13
0.0
 23
0.0
 33
0.0
 16
1.0
 26
0.0
 36
0.0
 17
0.0
 27
1.0
 37
0.0
 76
0
330
22C
345
0
346
0
  0
ENDSEC
  0
EOF
