999
DXF file: 152818_1.dxf
999
Pro/ENGINEER 2009141 by Parametric Technology Corporation
  0
SECTION
  2
HEADER
  9
$ACADVER
  1
AC1015
  9
$DWGCODEPAGE
  3
ANSI_1252
  9
$EXTMAX
 10
17.0
 20
11.0
 30
0.0
  9
$EXTMIN
 10
0.0
 20
0.0
 30
0.0
  9
$LIMMIN
 10
0.0
 20
0.0
  9
$LIMMAX
 10
17.0
 20
11.0
  9
$VIEWCTR
 10
8.5
 20
5.5
  9
$VIEWSIZE
 40
11.0
  9
$CLAYER
  8
0
  9
$LTSCALE
 40
0.935
  9
$CELTYPE
  6
BYLAYER
  9
$DIMSCALE
 40
1.0
  9
$DIMASZ
 40
0.1875
  9
$DIMEXO
 40
0.10625
  9
$DIMDLI
 40
0.646
  9
$DIMEXE
 40
0.306
  9
$DIMCEN
 40
0.153
  9
$DIMLFAC
 40
1.0
  9
$DIMBLK
  1
_FILLED
  9
$DIMTXT
 40
0.1
  9
$DIMTOL
 70
1
  9
$DIMLIM
 70
0
  9
$DIMTFAC
 40
1.0
  9
$DIMTP
 40
0.005
  9
$DIMTM
 40
0.005
  9
$PDMODE
 70
3
  9
$PDSIZE
 40
0.3125
  9
$HANDSEED
  5
71C
  9
$TILEMODE
 70
1
  9
$MEASUREMENT
 70
0
  9
$INSUNITS
 70
1
  0
ENDSEC
  0
SECTION
  2
CLASSES
  0
CLASS
  1
ACDBDICTIONARYWDFLT
  2
AcDbDictionaryWithDefault
  3
AutoCAD 2000
 90
0
280
0
281
0
  0
CLASS
  1
ACDBPLACEHOLDER
  2
AcDbPlaceHolder
  3
AutoCAD 2000
 90
0
280
0
281
0
  0
CLASS
  1
LAYOUT
  2
AcDbLayout
  3
AutoCAD 2000
 90
0
280
0
281
0
  0
ENDSEC
  0
SECTION
  2
TABLES
  0
TABLE
  2
VPORT
  5
8
100
AcDbSymbolTable
 70
2
  0
VPORT
  5
1F4
100
AcDbSymbolTableRecord
100
AcDbViewportTableRecord
  2
*ACTIVE
 70
0
 10
0.0
 20
0.0
 11
1.0
 21
1.0
 12
8.5
 22
5.5
 13
0.0
 23
0.0
 14
1.0
 24
1.0
 15
0.0
 25
0.0
 16
0.0
 26
0.0
 36
1.0
 17
0.0
 27
0.0
 37
0.0
 40
11.0
 41
1.5454545455
 42
50.0
 43
0.0
 44
0.0
 50
0.0
 51
0.0
 71
0
 72
100
 73
1
 74
1
 75
0
 76
0
 77
0
 78
0
  0
ENDTAB
  0
TABLE
  2
LTYPE
  5
5
100
AcDbSymbolTable
 70
6
  0
LTYPE
  5
14
100
AcDbSymbolTableRecord
100
AcDbLinetypeTableRecord
  2
BYBLOCK
 70
0
  3

 72
65
 73
0
 40
0.0
  0
LTYPE
  5
15
100
AcDbSymbolTableRecord
100
AcDbLinetypeTableRecord
  2
BYLAYER
 70
0
  3

 72
65
 73
0
 40
0.0
  0
LTYPE
  5
16
100
AcDbSymbolTableRecord
100
AcDbLinetypeTableRecord
  2
CONTINUOUS
 70
64
  3
Solid line
 72
65
 73
0
 40
0.0
  0
LTYPE
  5
1F5
100
AcDbSymbolTableRecord
100
AcDbLinetypeTableRecord
  2
CENTER
 70
64
  3
____ _ ____ _ ____ _ ____ _ ____ _ ____ _ ____
 72
65
 73
4
 40
0.6
 49
0.375
 74
0
 49
-0.075
 74
0
 49
0.075
 74
0
 49
-0.075
 74
0
  0
LTYPE
  5
1F6
100
AcDbSymbolTableRecord
100
AcDbLinetypeTableRecord
  2
HIDDEN
 70
64
  3
- - - - - - - - - - - - - - - - - - - -
 72
65
 73
2
 40
0.2
 49
0.1
 74
0
 49
-0.1
 74
0
  0
LTYPE
  5
1F7
100
AcDbSymbolTableRecord
100
AcDbLinetypeTableRecord
  2
PHANTOM
 70
64
  3
_____ _ _ _____ _ _ _____ _ _ _____
 72
65
 73
6
 40
0.8
 49
0.45
 74
0
 49
-0.05
 74
0
 49
0.1
 74
0
 49
-0.05
 74
0
 49
0.1
 74
0
 49
-0.05
 74
0
  0
LTYPE
  5
1F8
100
AcDbSymbolTableRecord
100
AcDbLinetypeTableRecord
  2
DOT
 70
64
  3
. . . . . . . . . . . . . . . . . . . .
 72
65
 73
2
 40
0.2
 49
0.1
 74
0
 49
-0.1
 74
0
  0
LTYPE
  5
1F9
100
AcDbSymbolTableRecord
100
AcDbLinetypeTableRecord
  2
DASHED
 70
64
  3
- - - - - - - - - - - - - - - - - - - -
 72
65
 73
2
 40
0.2
 49
0.1
 74
0
 49
-0.1
 74
0
  0
ENDTAB
  0
TABLE
  2
LAYER
  5
2
100
AcDbSymbolTable
 70
36
  0
LAYER
  5
10
100
AcDbSymbolTableRecord
100
AcDbLayerTableRecord
  2
0
 70
0
 62
7
  6
CONTINUOUS
370
-3
390
F
  0
LAYER
  5
1FA
100
AcDbSymbolTableRecord
100
AcDbLayerTableRecord
  2
DEFAULT_1
 70
0
 62
7
  6
CENTER
370
-3
390
F
  0
LAYER
  5
1FB
100
AcDbSymbolTableRecord
100
AcDbLayerTableRecord
  2
DEFAULT_2
 70
0
 62
8
  6
HIDDEN
370
-3
390
F
  0
LAYER
  5
1FC
100
AcDbSymbolTableRecord
100
AcDbLayerTableRecord
  2
DEFAULT_3
 70
0
 62
7
  6
PHANTOM
370
-3
390
F
  0
LAYER
  5
1FD
100
AcDbSymbolTableRecord
100
AcDbLayerTableRecord
  2
1
 70
0
 62
7
  6
CONTINUOUS
370
-3
390
F
  0
LAYER
  5
1FE
100
AcDbSymbolTableRecord
100
AcDbLayerTableRecord
  2
10
 70
0
 62
7
  6
CONTINUOUS
370
-3
390
F
  0
LAYER
  5
1FF
100
AcDbSymbolTableRecord
100
AcDbLayerTableRecord
  2
11
 70
0
 62
7
  6
CONTINUOUS
370
-3
390
F
  0
LAYER
  5
200
100
AcDbSymbolTableRecord
100
AcDbLayerTableRecord
  2
12
 70
0
 62
7
  6
CONTINUOUS
370
-3
390
F
  0
LAYER
  5
201
100
AcDbSymbolTableRecord
100
AcDbLayerTableRecord
  2
13
 70
0
 62
7
  6
CONTINUOUS
370
-3
390
F
  0
LAYER
  5
202
100
AcDbSymbolTableRecord
100
AcDbLayerTableRecord
  2
14
 70
0
 62
7
  6
CONTINUOUS
370
-3
390
F
  0
LAYER
  5
203
100
AcDbSymbolTableRecord
100
AcDbLayerTableRecord
  2
15
 70
0
 62
7
  6
CONTINUOUS
370
-3
390
F
  0
LAYER
  5
204
100
AcDbSymbolTableRecord
100
AcDbLayerTableRecord
  2
16
 70
0
 62
7
  6
CONTINUOUS
370
-3
390
F
  0
LAYER
  5
205
100
AcDbSymbolTableRecord
100
AcDbLayerTableRecord
  2
17
 70
0
 62
7
  6
CONTINUOUS
370
-3
390
F
  0
LAYER
  5
206
100
AcDbSymbolTableRecord
100
AcDbLayerTableRecord
  2
18
 70
0
 62
7
  6
CONTINUOUS
370
-3
390
F
  0
LAYER
  5
207
100
AcDbSymbolTableRecord
100
AcDbLayerTableRecord
  2
19
 70
0
 62
7
  6
CONTINUOUS
370
-3
390
F
  0
LAYER
  5
208
100
AcDbSymbolTableRecord
100
AcDbLayerTableRecord
  2
2
 70
0
 62
7
  6
CONTINUOUS
370
-3
390
F
  0
LAYER
  5
209
100
AcDbSymbolTableRecord
100
AcDbLayerTableRecord
  2
20
 70
0
 62
7
  6
CONTINUOUS
370
-3
390
F
  0
LAYER
  5
20A
100
AcDbSymbolTableRecord
100
AcDbLayerTableRecord
  2
21
 70
0
 62
7
  6
CONTINUOUS
370
-3
390
F
  0
LAYER
  5
20B
100
AcDbSymbolTableRecord
100
AcDbLayerTableRecord
  2
22
 70
0
 62
7
  6
CONTINUOUS
370
-3
390
F
  0
LAYER
  5
20C
100
AcDbSymbolTableRecord
100
AcDbLayerTableRecord
  2
23
 70
0
 62
7
  6
CONTINUOUS
370
-3
390
F
  0
LAYER
  5
20D
100
AcDbSymbolTableRecord
100
AcDbLayerTableRecord
  2
24
 70
0
 62
7
  6
CONTINUOUS
370
-3
390
F
  0
LAYER
  5
20E
100
AcDbSymbolTableRecord
100
AcDbLayerTableRecord
  2
25
 70
0
 62
7
  6
CONTINUOUS
370
-3
390
F
  0
LAYER
  5
20F
100
AcDbSymbolTableRecord
100
AcDbLayerTableRecord
  2
26
 70
0
 62
7
  6
CONTINUOUS
370
-3
390
F
  0
LAYER
  5
210
100
AcDbSymbolTableRecord
100
AcDbLayerTableRecord
  2
27
 70
0
 62
7
  6
CONTINUOUS
370
-3
390
F
  0
LAYER
  5
211
100
AcDbSymbolTableRecord
100
AcDbLayerTableRecord
  2
28
 70
0
 62
7
  6
CONTINUOUS
370
-3
390
F
  0
LAYER
  5
212
100
AcDbSymbolTableRecord
100
AcDbLayerTableRecord
  2
29
 70
0
 62
7
  6
CONTINUOUS
370
-3
390
F
  0
LAYER
  5
213
100
AcDbSymbolTableRecord
100
AcDbLayerTableRecord
  2
3
 70
0
 62
7
  6
CONTINUOUS
370
-3
390
F
  0
LAYER
  5
214
100
AcDbSymbolTableRecord
100
AcDbLayerTableRecord
  2
30
 70
0
 62
7
  6
CONTINUOUS
370
-3
390
F
  0
LAYER
  5
215
100
AcDbSymbolTableRecord
100
AcDbLayerTableRecord
  2
31
 70
0
 62
7
  6
CONTINUOUS
370
-3
390
F
  0
LAYER
  5
216
100
AcDbSymbolTableRecord
100
AcDbLayerTableRecord
  2
32
 70
0
 62
7
  6
CONTINUOUS
370
-3
390
F
  0
LAYER
  5
217
100
AcDbSymbolTableRecord
100
AcDbLayerTableRecord
  2
4
 70
0
 62
7
  6
CONTINUOUS
370
-3
390
F
  0
LAYER
  5
218
100
AcDbSymbolTableRecord
100
AcDbLayerTableRecord
  2
5
 70
0
 62
7
  6
CONTINUOUS
370
-3
390
F
  0
LAYER
  5
219
100
AcDbSymbolTableRecord
100
AcDbLayerTableRecord
  2
6
 70
0
 62
7
  6
CONTINUOUS
370
-3
390
F
  0
LAYER
  5
21A
100
AcDbSymbolTableRecord
100
AcDbLayerTableRecord
  2
7
 70
0
 62
7
  6
CONTINUOUS
370
-3
390
F
  0
LAYER
  5
21B
100
AcDbSymbolTableRecord
100
AcDbLayerTableRecord
  2
8
 70
0
 62
7
  6
CONTINUOUS
370
-3
390
F
  0
LAYER
  5
21C
100
AcDbSymbolTableRecord
100
AcDbLayerTableRecord
  2
9
 70
0
 62
7
  6
CONTINUOUS
370
-3
390
F
  0
LAYER
  5
21D
100
AcDbSymbolTableRecord
100
AcDbLayerTableRecord
  2
AXIS
 70
0
 62
7
  6
CONTINUOUS
370
-3
390
F
  0
LAYER
  5
21E
100
AcDbSymbolTableRecord
100
AcDbLayerTableRecord
  2
AXIS_COSMETIC_THREADS
 70
0
 62
7
  6
CONTINUOUS
370
-3
390
F
  0
LAYER
  5
21F
100
AcDbSymbolTableRecord
100
AcDbLayerTableRecord
  2
DATUM_CURVES
 70
0
 62
7
  6
CONTINUOUS
370
-3
390
F
  0
LAYER
  5
220
100
AcDbSymbolTableRecord
100
AcDbLayerTableRecord
  2
DATUM_PLANES
 70
0
 62
7
  6
CONTINUOUS
370
-3
390
F
  0
LAYER
  5
221
100
AcDbSymbolTableRecord
100
AcDbLayerTableRecord
  2
NOTES
 70
0
 62
7
  6
CONTINUOUS
370
-3
390
F
  0
LAYER
  5
222
100
AcDbSymbolTableRecord
100
AcDbLayerTableRecord
  2
SCHEME_DIMS
 70
0
 62
7
  6
CONTINUOUS
370
-3
390
F
  0
LAYER
  5
223
100
AcDbSymbolTableRecord
100
AcDbLayerTableRecord
  2
SYMBOLS
 70
0
 62
7
  6
CONTINUOUS
370
-3
390
F
  0
ENDTAB
  0
TABLE
  2
STYLE
  5
3
100
AcDbSymbolTable
 70
1
  0
STYLE
  5
11
100
AcDbSymbolTableRecord
100
AcDbTextStyleTableRecord
  2
STANDARD
 70
0
 40
0.0
 41
1.0
 50
0.0
 71
0
 42
0.2
  3
txt
  4

  0
STYLE
  5
224
100
AcDbSymbolTableRecord
100
AcDbTextStyleTableRecord
  2
TEXTSTYLE_1
 70
0
 40
0.0
 41
0.8
 50
0.0
 71
0
 42
0.2
  3
gdt
  4

  0
STYLE
  5
225
100
AcDbSymbolTableRecord
100
AcDbTextStyleTableRecord
  2
TEXTSTYLE_2
 70
0
 40
0.0
 41
0.8
 50
0.0
 71
0
 42
0.2
  3
txt
  4

  0
STYLE
  5
226
100
AcDbSymbolTableRecord
100
AcDbTextStyleTableRecord
  2
TEXTSTYLE_3
 70
0
 40
0.0
 41
0.85
 50
0.0
 71
0
 42
0.2
  3
txt
  4

  0
STYLE
  5
227
100
AcDbSymbolTableRecord
100
AcDbTextStyleTableRecord
  2
TEXTSTYLE_4
 70
0
 40
0.0
 41
0.92
 50
0.0
 71
0
 42
0.2
  3
txt
  4

  0
STYLE
  5
228
100
AcDbSymbolTableRecord
100
AcDbTextStyleTableRecord
  2
TEXTSTYLE_5
 70
0
 40
0.0
 41
1.0
 50
0.0
 71
0
 42
0.2
  3
gdt
  4

  0
ENDTAB
  0
TABLE
  2
VIEW
  5
6
100
AcDbSymbolTable
 70
0
  0
ENDTAB
  0
TABLE
  2
UCS
  5
7
100
AcDbSymbolTable
 70
0
  0
ENDTAB
  0
TABLE
  2
APPID
  5
9
100
AcDbSymbolTable
 70
1
  0
APPID
  5
229
100
AcDbSymbolTableRecord
100
AcDbRegAppTableRecord
  2
ACAD
 70
0
  0
ENDTAB
  0
TABLE
  2
BLOCK_RECORD
  5
1
100
AcDbSymbolTable
 70
0
  0
BLOCK_RECORD
  5
22A
100
AcDbSymbolTableRecord
100
AcDbBlockTableRecord
  2
*Model_Space
  0
BLOCK_RECORD
  5
22B
100
AcDbSymbolTableRecord
100
AcDbBlockTableRecord
  2
*Paper_Space
  0
BLOCK_RECORD
  5
22C
100
AcDbSymbolTableRecord
100
AcDbBlockTableRecord
  2
_FILLED
  0
BLOCK_RECORD
  5
22D
100
AcDbSymbolTableRecord
100
AcDbBlockTableRecord
  2
*D0
  0
BLOCK_RECORD
  5
22E
100
AcDbSymbolTableRecord
100
AcDbBlockTableRecord
  2
*D1
  0
BLOCK_RECORD
  5
22F
100
AcDbSymbolTableRecord
100
AcDbBlockTableRecord
  2
*D2
  0
BLOCK_RECORD
  5
230
100
AcDbSymbolTableRecord
100
AcDbBlockTableRecord
  2
*D3
  0
BLOCK_RECORD
  5
231
100
AcDbSymbolTableRecord
100
AcDbBlockTableRecord
  2
BANNER_LOGO_TITLEBLOCK_BL0
  0
ENDTAB
  0
TABLE
  2
DIMSTYLE
  5
A
100
AcDbSymbolTable
 70
1
100
AcDbDimStyleTable
 71
0
  0
DIMSTYLE
105
232
100
AcDbSymbolTableRecord
100
AcDbDimStyleTableRecord
  2
STANDARD
 70
0
  3

  4

 40
1.0
 41
0.1875
 42
0.0625
 43
0.38
 44
0.18
 45
0.0
 46
0.0
 47
0.005
 48
0.005
140
0.1
141
0.09
142
0.0
143
25.4
144
1.0
145
0.0
146
1.0
147
0.09
 71
1.0
 72
0.0
 73
1
 74
1
 75
0
 76
0
 77
0
 78
4
170
0
171
2
172
0
173
0
174
0
175
0
176
0
177
0
178
0
270
2
271
3
272
3
273
2
274
2
275
0
280
0
281
0
282
0
283
1
284
4
285
0
286
0
287
3
288
0
340
11
341
22C
342
22C
343
22C
344
22C
  0
DIMSTYLE
105
233
100
AcDbSymbolTableRecord
100
AcDbDimStyleTableRecord
  2
DIMSTYLE_1
 70
0
  3

  4

 40
1.0
 41
0.1875
 42
0.0625
 43
0.38
 44
0.18
 45
0.0
 46
0.0
 47
0.1
 48
0.1
140
0.1
141
0.09
142
0.0
143
25.4
144
1.0
145
0.0
146
1.0
147
0.09
 71
0.0
 72
0.0
 73
1
 74
1
 75
0
 76
0
 77
0
 78
4
170
0
171
2
172
0
173
0
174
0
175
0
176
0
177
0
178
0
270
2
271
3
272
3
273
2
274
2
275
0
280
0
281
0
282
0
283
1
284
4
285
0
286
0
287
3
288
0
340
11
341
22C
342
22C
343
22C
344
22C
  0
DIMSTYLE
105
234
100
AcDbSymbolTableRecord
100
AcDbDimStyleTableRecord
  2
DIMSTYLE_2
 70
0
  3

  4

 40
1.0
 41
0.1875
 42
0.0625
 43
0.38
 44
0.18
 45
0.0
 46
0.0
 47
0.1
 48
0.1
140
0.1
141
0.09
142
0.0
143
25.4
144
1.0
145
0.0
146
1.0
147
0.09
 71
0.0
 72
0.0
 73
1
 74
1
 75
0
 76
0
 77
0
 78
4
170
0
171
2
172
0
173
0
174
0
175
0
176
0
177
0
178
0
270
2
271
1
272
1
273
2
274
2
275
0
280
0
281
0
282
0
283
1
284
4
285
0
286
0
287
3
288
0
340
11
341
22C
342
22C
343
22C
344
22C
  0
ENDTAB
  0
ENDSEC
  0
SECTION
  2
BLOCKS
  0
BLOCK
  5
20
100
AcDbEntity
  8
0
100
AcDbBlockBegin
  2
*Model_Space
 70
0
 10
0.0
 20
0.0
 30
0.0
  3
*Model_Space
  1

  0
ENDBLK
  5
21
100
AcDbEntity
  8
0
100
AcDbBlockEnd
  0
BLOCK
  5
1C
100
AcDbEntity
  8
0
100
AcDbBlockBegin
  2
*Paper_Space
 70
0
 10
0.0
 20
0.0
 30
0.0
  3
*Paper_Space
  1

  0
ENDBLK
  5
1D
100
AcDbEntity
  8
0
100
AcDbBlockEnd
  0
BLOCK
  5
235
100
AcDbEntity
  8
0
100
AcDbBlockBegin
 62
2
  6
CONTINUOUS
  2
BANNER_LOGO_TITLEBLOCK_BL0
 70
64
 10
12.9086867042
 20
2.5403783405
  3
BANNER_LOGO_TITLEBLOCK_BL0
  1

  0
ELLIPSE
  5
236
100
AcDbEntity
  8
0
100
AcDbEllipse
 62
2
  6
CONTINUOUS
 10
12.9046654608
 20
2.5403783405
 30
0.0
 11
-0.8250004575
 21
0.0
 31
0.0
 40
0.218572
 41
0.0
 42
6.2831853072
  0
ARC
  5
237
100
AcDbEntity
  8
0
100
AcDbCircle
 62
2
  6
CONTINUOUS
 10
12.400005721
 20
2.5168763464
 40
0.0153945295
100
AcDbArc
 50
354.0454548824
 51
5.1878013979
  0
ARC
  5
238
100
AcDbEntity
  8
0
100
AcDbCircle
 62
2
  6
CONTINUOUS
 10
12.3931760319
 20
2.5166878286
 40
0.0222174455
100
AcDbArc
 50
4.0793399388
 51
69.834329283
  0
LINE
  5
239
100
AcDbEntity
  8
0
100
AcDbLine
 62
2
  6
CONTINUOUS
 10
12.4008351814
 20
2.5375433389
 11
12.3907841758
 21
2.5410923409
  0
LINE
  5
23A
100
AcDbEntity
  8
0
100
AcDbLine
 62
2
  6
CONTINUOUS
 10
12.3907841758
 20
2.5410923409
 11
12.3990241804
 21
2.5458683435
  0
ARC
  5
23B
100
AcDbEntity
  8
0
100
AcDbCircle
 62
2
  6
CONTINUOUS
 10
12.3771587979
 20
2.5826952352
 40
0.0428289026
100
AcDbArc
 50
300.6990502959
 51
319.0591802498
  0
ARC
  5
23C
100
AcDbEntity
  8
0
100
AcDbCircle
 62
2
  6
CONTINUOUS
 10
12.3971873948
 20
2.5665668817
 40
0.0171568255
100
AcDbArc
 50
315.9145124245
 51
16.0049121282
  0
ARC
  5
23D
100
AcDbEntity
  8
0
100
AcDbCircle
 62
2
  6
CONTINUOUS
 10
12.3922357827
 20
2.5632132173
 40
0.0229166529
100
AcDbArc
 50
20.6563876465
 51
62.3316896973
  0
ARC
  5
23E
100
AcDbEntity
  8
0
100
AcDbCircle
 62
2
  6
CONTINUOUS
 10
12.371573659
 20
2.5302846524
 40
0.061747717
100
AcDbArc
 50
59.5385584989
 51
90.0050977555
  0
LINE
  5
23F
100
AcDbEntity
  8
0
100
AcDbLine
 62
2
  6
CONTINUOUS
 10
12.3715681652
 20
2.5920323691
 11
12.2055050731
 21
2.5920323691
  0
ARC
  5
240
100
AcDbEntity
  8
0
100
AcDbCircle
 62
2
  6
CONTINUOUS
 10
12.2055050712
 20
2.5895573696
 40
0.0024749995
100
AcDbArc
 50
89.9999571957
 51
180.0000428043
  0
LINE
  5
241
100
AcDbEntity
  8
0
100
AcDbLine
 62
2
  6
CONTINUOUS
 10
12.2030300717
 20
2.5895573678
 11
12.2030300717
 21
2.5697573568
  0
ARC
  5
242
100
AcDbEntity
  8
0
100
AcDbCircle
 62
2
  6
CONTINUOUS
 10
12.2055050712
 20
2.5697573549
 40
0.0024749995
100
AcDbArc
 50
179.9999571957
 51
270.0000428043
  0
LINE
  5
243
100
AcDbEntity
  8
0
100
AcDbLine
 62
2
  6
CONTINUOUS
 10
12.2055050731
 20
2.5672823554
 11
12.2294470864
 21
2.5672823554
  0
ARC
  5
244
100
AcDbEntity
  8
0
100
AcDbCircle
 62
2
  6
CONTINUOUS
 10
12.2294470882
 20
2.5648073559
 40
0.0024749995
100
AcDbArc
 50
359.9999571957
 51
90.0000428043
  0
LINE
  5
245
100
AcDbEntity
  8
0
100
AcDbLine
 62
2
  6
CONTINUOUS
 10
12.2319220877
 20
2.564807354
 11
12.2319220877
 21
2.5184523283
  0
ARC
  5
246
100
AcDbEntity
  8
0
100
AcDbCircle
 62
2
  6
CONTINUOUS
 10
12.2294470882
 20
2.5184523265
 40
0.0024749995
100
AcDbArc
 50
269.9999571957
 51
0.0000428043
  0
LINE
  5
247
100
AcDbEntity
  8
0
100
AcDbLine
 62
2
  6
CONTINUOUS
 10
12.2294470864
 20
2.515977327
 11
12.2055050731
 21
2.515977327
  0
ARC
  5
248
100
AcDbEntity
  8
0
100
AcDbCircle
 62
2
  6
CONTINUOUS
 10
12.2055050712
 20
2.5135023274
 40
0.0024749995
100
AcDbArc
 50
89.9999571957
 51
180.0000428043
  0
LINE
  5
249
100
AcDbEntity
  8
0
100
AcDbLine
 62
2
  6
CONTINUOUS
 10
12.2030300717
 20
2.5135023256
 11
12.2030300717
 21
2.4937023146
  0
ARC
  5
24A
100
AcDbEntity
  8
0
100
AcDbCircle
 62
2
  6
CONTINUOUS
 10
12.2055050712
 20
2.4937023128
 40
0.0024749995
100
AcDbArc
 50
179.9999571957
 51
270.0000428043
  0
LINE
  5
24B
100
AcDbEntity
  8
0
100
AcDbLine
 62
2
  6
CONTINUOUS
 10
12.2055050731
 20
2.4912273132
 11
12.3819511709
 21
2.4912273132
  0
ARC
  5
24C
100
AcDbEntity
  8
0
100
AcDbCircle
 62
2
  6
CONTINUOUS
 10
12.3792298263
 20
2.539634765
 40
0.048483885
100
AcDbArc
 50
273.21763719
 51
303.0749121182
  0
ARC
  5
24D
100
AcDbEntity
  8
0
100
AcDbCircle
 62
2
  6
CONTINUOUS
 10
12.3940692204
 20
2.5168671561
 40
0.0213072145
100
AcDbArc
 50
303.0488228549
 51
355.7263138674
  0
LINE
  5
24E
100
AcDbEntity
  8
0
100
AcDbLine
 62
2
  6
CONTINUOUS
 10
12.2949101227
 20
2.5499573458
 11
12.3362731456
 21
2.5499573458
  0
ARC
  5
24F
100
AcDbEntity
  8
0
100
AcDbCircle
 62
2
  6
CONTINUOUS
 10
12.3362731456
 20
2.5586198506
 40
0.0086625048
100
AcDbArc
 50
270.0
 51
90.0
  0
LINE
  5
250
100
AcDbEntity
  8
0
100
AcDbLine
 62
2
  6
CONTINUOUS
 10
12.3362731456
 20
2.5672823554
 11
12.2949101227
 21
2.5672823554
  0
ARC
  5
251
100
AcDbEntity
  8
0
100
AcDbCircle
 62
2
  6
CONTINUOUS
 10
12.2949101208
 20
2.5648073559
 40
0.0024749995
100
AcDbArc
 50
89.9999571957
 51
180.0000428043
  0
LINE
  5
252
100
AcDbEntity
  8
0
100
AcDbLine
 62
2
  6
CONTINUOUS
 10
12.2924351213
 20
2.564807354
 11
12.2924351213
 21
2.5524323472
  0
ARC
  5
253
100
AcDbEntity
  8
0
100
AcDbCircle
 62
2
  6
CONTINUOUS
 10
12.2949101208
 20
2.5524323453
 40
0.0024749995
100
AcDbArc
 50
179.9999571957
 51
270.0000428043
  0
LINE
  5
254
100
AcDbEntity
  8
0
100
AcDbLine
 62
2
  6
CONTINUOUS
 10
12.2924351213
 20
2.5184523283
 11
12.2924351213
 21
2.5308273352
  0
ARC
  5
255
100
AcDbEntity
  8
0
100
AcDbCircle
 62
2
  6
CONTINUOUS
 10
12.2949101208
 20
2.530827337
 40
0.0024749995
100
AcDbArc
 50
89.9999571957
 51
180.0000428043
  0
LINE
  5
256
100
AcDbEntity
  8
0
100
AcDbLine
 62
2
  6
CONTINUOUS
 10
12.2949101227
 20
2.5333023366
 11
12.3362731456
 21
2.5333023366
  0
ARC
  5
257
100
AcDbEntity
  8
0
100
AcDbCircle
 62
2
  6
CONTINUOUS
 10
12.3362731456
 20
2.5246398318
 40
0.0086625048
100
AcDbArc
 50
270.0
 51
90.0
  0
LINE
  5
258
100
AcDbEntity
  8
0
100
AcDbLine
 62
2
  6
CONTINUOUS
 10
12.3362731456
 20
2.515977327
 11
12.2949101227
 21
2.515977327
  0
ARC
  5
259
100
AcDbEntity
  8
0
100
AcDbCircle
 62
2
  6
CONTINUOUS
 10
12.2949101208
 20
2.5184523265
 40
0.0024749995
100
AcDbArc
 50
179.9999571957
 51
270.0000428043
  0
ARC
  5
25A
100
AcDbEntity
  8
0
100
AcDbCircle
 62
2
  6
CONTINUOUS
 10
13.5806801742
 20
2.5212486481
 40
0.044722495
100
AcDbArc
 50
195.531588407
 51
204.7624440448
  0
LINE
  5
25B
100
AcDbEntity
  8
0
100
AcDbLine
 62
2
  6
CONTINUOUS
 10
13.5375908118
 20
2.5092733232
 11
13.5357868108
 21
2.5153423266
  0
ARC
  5
25C
100
AcDbEntity
  8
0
100
AcDbCircle
 62
2
  6
CONTINUOUS
 10
13.4974076135
 20
2.5055452462
 40
0.0396099176
100
AcDbArc
 50
14.3201081283
 51
22.4984722084
  0
ARC
  5
25D
100
AcDbEntity
  8
0
100
AcDbCircle
 62
2
  6
CONTINUOUS
 10
13.5201739219
 20
2.5145168728
 40
0.0151491919
100
AcDbArc
 50
24.098260853
 51
63.0369451818
  0
ARC
  5
25E
100
AcDbEntity
  8
0
100
AcDbCircle
 62
2
  6
CONTINUOUS
 10
13.5161192671
 20
2.5062372524
 40
0.0243676582
100
AcDbArc
 50
63.3666028271
 51
90.3937697637
  0
LINE
  5
25F
100
AcDbEntity
  8
0
100
AcDbLine
 62
2
  6
CONTINUOUS
 10
13.5159517998
 20
2.5306043351
 11
13.4883447845
 21
2.5306043351
  0
ARC
  5
260
100
AcDbEntity
  8
0
100
AcDbCircle
 62
2
  6
CONTINUOUS
 10
13.4883447827
 20
2.5281293355
 40
0.0024749995
100
AcDbArc
 50
89.9999571957
 51
180.0000428043
  0
LINE
  5
261
100
AcDbEntity
  8
0
100
AcDbLine
 62
2
  6
CONTINUOUS
 10
13.4858697831
 20
2.5281293337
 11
13.4858697831
 21
2.5184303283
  0
ARC
  5
262
100
AcDbEntity
  8
0
100
AcDbCircle
 62
2
  6
CONTINUOUS
 10
13.4883447827
 20
2.5184303265
 40
0.0024749995
100
AcDbArc
 50
179.9999571957
 51
270.0000428043
  0
LINE
  5
263
100
AcDbEntity
  8
0
100
AcDbLine
 62
2
  6
CONTINUOUS
 10
13.4883447845
 20
2.5159553269
 11
13.5130037982
 21
2.5159553269
  0
ARC
  5
264
100
AcDbEntity
  8
0
100
AcDbCircle
 62
2
  6
CONTINUOUS
 10
13.5130038
 20
2.5134803274
 40
0.0024749995
100
AcDbArc
 50
359.9999571957
 51
90.0000428043
  0
LINE
  5
265
100
AcDbEntity
  8
0
100
AcDbLine
 62
2
  6
CONTINUOUS
 10
13.5154787995
 20
2.5134803256
 11
13.5154787995
 21
2.4937023146
  0
ARC
  5
266
100
AcDbEntity
  8
0
100
AcDbCircle
 62
2
  6
CONTINUOUS
 10
13.5130038
 20
2.4937023128
 40
0.0024749995
100
AcDbArc
 50
269.9999571957
 51
0.0000428043
  0
LINE
  5
267
100
AcDbEntity
  8
0
100
AcDbLine
 62
2
  6
CONTINUOUS
 10
13.5130037982
 20
2.4912273132
 11
13.3994327352
 21
2.4912273132
  0
ARC
  5
268
100
AcDbEntity
  8
0
100
AcDbCircle
 62
2
  6
CONTINUOUS
 10
13.3994327333
 20
2.4937023128
 40
0.0024749995
100
AcDbArc
 50
179.9999571957
 51
270.0000428043
  0
LINE
  5
269
100
AcDbEntity
  8
0
100
AcDbLine
 62
2
  6
CONTINUOUS
 10
13.3969577338
 20
2.4937023146
 11
13.3969577338
 21
2.5135023256
  0
ARC
  5
26A
100
AcDbEntity
  8
0
100
AcDbCircle
 62
2
  6
CONTINUOUS
 10
13.3994327333
 20
2.5135023274
 40
0.0024749995
100
AcDbArc
 50
89.9999571957
 51
180.0000428043
  0
LINE
  5
26B
100
AcDbEntity
  8
0
100
AcDbLine
 62
2
  6
CONTINUOUS
 10
13.3994327352
 20
2.515977327
 11
13.4221787478
 21
2.515977327
  0
ARC
  5
26C
100
AcDbEntity
  8
0
100
AcDbCircle
 62
2
  6
CONTINUOUS
 10
13.4221787497
 20
2.5184523265
 40
0.0024749995
100
AcDbArc
 50
269.9999571957
 51
0.0000428042
  0
LINE
  5
26D
100
AcDbEntity
  8
0
100
AcDbLine
 62
2
  6
CONTINUOUS
 10
13.4246537492
 20
2.5184523283
 11
13.4246537492
 21
2.564807354
  0
ARC
  5
26E
100
AcDbEntity
  8
0
100
AcDbCircle
 62
2
  6
CONTINUOUS
 10
13.4221787497
 20
2.5648073559
 40
0.0024749995
100
AcDbArc
 50
359.9999571957
 51
90.0000428043
  0
LINE
  5
26F
100
AcDbEntity
  8
0
100
AcDbLine
 62
2
  6
CONTINUOUS
 10
13.4221787478
 20
2.5672823554
 11
13.3994327352
 21
2.5672823554
  0
ARC
  5
270
100
AcDbEntity
  8
0
100
AcDbCircle
 62
2
  6
CONTINUOUS
 10
13.3994327333
 20
2.5697573549
 40
0.0024749995
100
AcDbArc
 50
179.9999571957
 51
270.0000428043
  0
LINE
  5
271
100
AcDbEntity
  8
0
100
AcDbLine
 62
2
  6
CONTINUOUS
 10
13.3969577338
 20
2.5697573568
 11
13.3969577338
 21
2.5895573678
  0
ARC
  5
272
100
AcDbEntity
  8
0
100
AcDbCircle
 62
2
  6
CONTINUOUS
 10
13.3994327333
 20
2.5895573696
 40
0.0024749995
100
AcDbArc
 50
89.9999571957
 51
180.0000428043
  0
LINE
  5
273
100
AcDbEntity
  8
0
100
AcDbLine
 62
2
  6
CONTINUOUS
 10
13.3994327352
 20
2.5920323691
 11
13.5490138181
 21
2.5920323691
  0
ARC
  5
274
100
AcDbEntity
  8
0
100
AcDbCircle
 62
2
  6
CONTINUOUS
 10
13.5463505148
 20
2.4094934586
 40
0.1825583387
100
AcDbArc
 50
79.8618509324
 51
89.1640948679
  0
ARC
  5
275
100
AcDbEntity
  8
0
100
AcDbCircle
 62
2
  6
CONTINUOUS
 10
13.5726548052
 20
2.5503169747
 40
0.039319019
100
AcDbArc
 50
59.1202086415
 51
81.4730239328
  0
ARC
  5
276
100
AcDbEntity
  8
0
100
AcDbCircle
 62
2
  6
CONTINUOUS
 10
13.5783142014
 20
2.5566516438
 40
0.0310192946
100
AcDbArc
 50
34.7540871
 51
62.0879016178
  0
ARC
  5
277
100
AcDbEntity
  8
0
100
AcDbCircle
 62
2
  6
CONTINUOUS
 10
13.5900029525
 20
2.565201245
 40
0.0165459396
100
AcDbArc
 50
1.548452892
 51
33.5033152417
  0
ARC
  5
278
100
AcDbEntity
  8
0
100
AcDbCircle
 62
2
  6
CONTINUOUS
 10
13.5932995477
 20
2.5653696972
 40
0.0132462337
100
AcDbArc
 50
331.1510006998
 51
1.205404301
  0
ARC
  5
279
100
AcDbEntity
  8
0
100
AcDbCircle
 62
2
  6
CONTINUOUS
 10
13.5822888914
 20
2.5720482849
 40
0.0261183659
100
AcDbArc
 50
305.6373831893
 51
329.9727629745
  0
ARC
  5
27A
100
AcDbEntity
  8
0
100
AcDbCircle
 62
2
  6
CONTINUOUS
 10
13.5519569538
 20
2.6152551345
 40
0.0789082104
100
AcDbArc
 50
292.906155071
 51
305.2574666259
  0
ARC
  5
27B
100
AcDbEntity
  8
0
100
AcDbCircle
 62
2
  6
CONTINUOUS
 10
13.5282557878
 20
2.4386010294
 40
0.117346916
100
AcDbArc
 50
58.614769177
 51
62.3737227606
  0
ARC
  5
27C
100
AcDbEntity
  8
0
100
AcDbCircle
 62
2
  6
CONTINUOUS
 10
13.5761387404
 20
2.5167282896
 40
0.0257145923
100
AcDbArc
 50
39.3804255939
 51
59.0361096173
  0
ARC
  5
27D
100
AcDbEntity
  8
0
100
AcDbCircle
 62
2
  6
CONTINUOUS
 10
13.5750183849
 20
2.5166552064
 40
0.0266349791
100
AcDbArc
 50
20.3630922153
 51
37.9727053099
  0
ARC
  5
27E
100
AcDbEntity
  8
0
100
AcDbCircle
 62
2
  6
CONTINUOUS
 10
13.5571178432
 20
2.509473798
 40
0.0459185159
100
AcDbArc
 50
15.6740290068
 51
20.9917271228
  0
ARC
  5
27F
100
AcDbEntity
  8
0
100
AcDbCircle
 62
2
  6
CONTINUOUS
 10
13.6156881783
 20
2.525116781
 40
0.0147197649
100
AcDbArc
 50
192.7054516565
 51
206.0594861022
  0
ARC
  5
280
100
AcDbEntity
  8
0
100
AcDbCircle
 62
2
  6
CONTINUOUS
 10
13.6071938412
 20
2.5209082945
 40
0.0052403997
100
AcDbArc
 50
205.5232099488
 51
227.5054868079
  0
ARC
  5
281
100
AcDbEntity
  8
0
100
AcDbCircle
 62
2
  6
CONTINUOUS
 10
13.6054655419
 20
2.5190929218
 40
0.0027347709
100
AcDbArc
 50
228.5117626737
 51
266.1485845754
  0
LINE
  5
282
100
AcDbEntity
  8
0
100
AcDbLine
 62
2
  6
CONTINUOUS
 10
13.6052818493
 20
2.5163643272
 11
13.60639085
 21
2.5163643272
  0
ARC
  5
283
100
AcDbEntity
  8
0
100
AcDbCircle
 62
2
  6
CONTINUOUS
 10
13.6063292954
 20
2.5296129864
 40
0.0132488022
100
AcDbArc
 50
270.266200055
 51
281.2404888597
  0
ARC
  5
284
100
AcDbEntity
  8
0
100
AcDbCircle
 62
2
  6
CONTINUOUS
 10
13.6075235364
 20
2.5238762928
 40
0.0073895522
100
AcDbArc
 50
280.8288201977
 51
305.0837508495
  0
ARC
  5
285
100
AcDbEntity
  8
0
100
AcDbCircle
 62
2
  6
CONTINUOUS
 10
13.607924718
 20
2.5230254464
 40
0.0064647042
100
AcDbArc
 50
306.5086174083
 51
340.2162360092
  0
ARC
  5
286
100
AcDbEntity
  8
0
100
AcDbCircle
 62
2
  6
CONTINUOUS
 10
13.6027235414
 20
2.524769508
 40
0.0119498009
100
AcDbArc
 50
340.7883861657
 51
1.1691452593
  0
LINE
  5
287
100
AcDbEntity
  8
0
100
AcDbLine
 62
2
  6
CONTINUOUS
 10
13.6146708546
 20
2.525013332
 11
13.6146708546
 21
2.5276393334
  0
ARC
  5
288
100
AcDbEntity
  8
0
100
AcDbCircle
 62
2
  6
CONTINUOUS
 10
13.6171458541
 20
2.5276393353
 40
0.0024749995
100
AcDbArc
 50
89.9999571957
 51
180.0000428043
  0
LINE
  5
289
100
AcDbEntity
  8
0
100
AcDbLine
 62
2
  6
CONTINUOUS
 10
13.6171458559
 20
2.5301143348
 11
13.6292558626
 21
2.5301143348
  0
ARC
  5
28A
100
AcDbEntity
  8
0
100
AcDbCircle
 62
2
  6
CONTINUOUS
 10
13.6292558645
 20
2.5276393353
 40
0.0024749995
100
AcDbArc
 50
359.9999571957
 51
90.0000428043
  0
LINE
  5
28B
100
AcDbEntity
  8
0
100
AcDbLine
 62
2
  6
CONTINUOUS
 10
13.631730864
 20
2.5276393334
 11
13.631730864
 21
2.516087327
  0
ARC
  5
28C
100
AcDbEntity
  8
0
100
AcDbCircle
 62
2
  6
CONTINUOUS
 10
13.6141751675
 20
2.5161916447
 40
0.0175560065
100
AcDbArc
 50
332.2279060967
 51
359.6595469939
  0
ARC
  5
28D
100
AcDbEntity
  8
0
100
AcDbCircle
 62
2
  6
CONTINUOUS
 10
13.6048681567
 20
2.5210861501
 40
0.0280715479
100
AcDbArc
 50
308.5071794988
 51
332.2400656899
  0
ARC
  5
28E
100
AcDbEntity
  8
0
100
AcDbCircle
 62
2
  6
CONTINUOUS
 10
13.5978759713
 20
2.5286873679
 40
0.0383802683
100
AcDbArc
 50
288.7656836787
 51
309.6104317088
  0
ARC
  5
28F
100
AcDbEntity
  8
0
100
AcDbCircle
 62
2
  6
CONTINUOUS
 10
13.6036139387
 20
2.5111006186
 40
0.0198837666
100
AcDbArc
 50
271.8586572978
 51
289.4131338543
  0
LINE
  5
290
100
AcDbEntity
  8
0
100
AcDbLine
 62
2
  6
CONTINUOUS
 10
13.6042588488
 20
2.4912273132
 11
13.5568948225
 21
2.4912273132
  0
ARC
  5
291
100
AcDbEntity
  8
0
100
AcDbCircle
 62
2
  6
CONTINUOUS
 10
13.5577001432
 20
2.5085494649
 40
0.0173408616
100
AcDbArc
 50
232.4713476722
 51
267.338189944
  0
ARC
  5
292
100
AcDbEntity
  8
0
100
AcDbCircle
 62
2
  6
CONTINUOUS
 10
13.5607987082
 20
2.5143997688
 40
0.0238935861
100
AcDbArc
 50
209.8247607259
 51
235.1255079367
  0
ARC
  5
293
100
AcDbEntity
  8
0
100
AcDbCircle
 62
2
  6
CONTINUOUS
 10
13.5295131508
 20
2.5629115009
 40
0.0110815393
100
AcDbArc
 50
306.758405961
 51
320.4502234234
  0
ARC
  5
294
100
AcDbEntity
  8
0
100
AcDbCircle
 62
2
  6
CONTINUOUS
 10
13.5238839599
 20
2.5706523294
 40
0.0206523367
100
AcDbArc
 50
289.6883413472
 51
306.4184925496
  0
ARC
  5
295
100
AcDbEntity
  8
0
100
AcDbCircle
 62
2
  6
CONTINUOUS
 10
13.5219564542
 20
2.5750459767
 40
0.0254407115
100
AcDbArc
 50
270.7327484175
 51
290.441894219
  0
LINE
  5
296
100
AcDbEntity
  8
0
100
AcDbLine
 62
2
  6
CONTINUOUS
 10
13.5222818033
 20
2.5496073456
 11
13.4883447845
 21
2.5496073456
  0
ARC
  5
297
100
AcDbEntity
  8
0
100
AcDbCircle
 62
2
  6
CONTINUOUS
 10
13.4883447827
 20
2.5520823451
 40
0.0024749995
100
AcDbArc
 50
179.9999571957
 51
270.0000428043
  0
LINE
  5
298
100
AcDbEntity
  8
0
100
AcDbLine
 62
2
  6
CONTINUOUS
 10
13.4858697831
 20
2.552082347
 11
13.4858697831
 21
2.564807354
  0
ARC
  5
299
100
AcDbEntity
  8
0
100
AcDbCircle
 62
2
  6
CONTINUOUS
 10
13.4883447827
 20
2.5648073559
 40
0.0024749995
100
AcDbArc
 50
89.9999571957
 51
180.0000428043
  0
LINE
  5
29A
100
AcDbEntity
  8
0
100
AcDbLine
 62
2
  6
CONTINUOUS
 10
13.4883447845
 20
2.5672823554
 11
13.5251458049
 21
2.5672823554
  0
ARC
  5
29B
100
AcDbEntity
  8
0
100
AcDbCircle
 62
2
  6
CONTINUOUS
 10
13.5236009174
 20
2.5388278764
 40
0.0284963867
100
AcDbArc
 50
70.3834917948
 51
86.8922743861
  0
ARC
  5
29C
100
AcDbEntity
  8
0
100
AcDbCircle
 62
2
  6
CONTINUOUS
 10
13.5284605274
 20
2.5518696094
 40
0.0145814632
100
AcDbArc
 50
54.6746025112
 51
71.1660573124
  0
ARC
  5
29D
100
AcDbEntity
  8
0
100
AcDbCircle
 62
2
  6
CONTINUOUS
 10
13.5335900184
 20
2.5587235346
 40
0.0060275915
100
AcDbArc
 50
20.9055592135
 51
56.7851676243
  0
ARC
  5
29E
100
AcDbEntity
  8
0
100
AcDbCircle
 62
2
  6
CONTINUOUS
 10
13.5348905773
 20
2.5593838168
 40
0.0045795888
100
AcDbArc
 50
355.6235353944
 51
18.9942678268
  0
ARC
  5
29F
100
AcDbEntity
  8
0
100
AcDbCircle
 62
2
  6
CONTINUOUS
 10
13.533683767
 20
2.559677593
 40
0.0058087709
100
AcDbArc
 50
318.8515287446
 51
353.6422345323
  0
LINE
  5
2A0
100
AcDbEntity
  8
0
100
AcDbLine
 62
2
  6
CONTINUOUS
 10
12.672340332
 20
2.5920323691
 11
12.7727983877
 21
2.5920323691
  0
ARC
  5
2A1
100
AcDbEntity
  8
0
100
AcDbCircle
 62
2
  6
CONTINUOUS
 10
12.7727985224
 20
2.5895582013
 40
0.0024741678
100
AcDbArc
 50
46.3477981899
 51
90.0031206038
  0
LINE
  5
2A2
100
AcDbEntity
  8
0
100
AcDbLine
 62
2
  6
CONTINUOUS
 10
12.7745063886
 20
2.5913483688
 11
12.8345394219
 21
2.534068337
  0
ARC
  5
2A3
100
AcDbEntity
  8
0
100
AcDbCircle
 62
2
  6
CONTINUOUS
 10
12.8362481229
 20
2.5358592748
 40
0.0024753014
100
AcDbArc
 50
226.3461263059
 51
0.0014637321
  0
LINE
  5
2A4
100
AcDbEntity
  8
0
100
AcDbLine
 62
2
  6
CONTINUOUS
 10
12.8387234242
 20
2.535859338
 11
12.8387234242
 21
2.564807354
  0
ARC
  5
2A5
100
AcDbEntity
  8
0
100
AcDbCircle
 62
2
  6
CONTINUOUS
 10
12.8362484247
 20
2.5648073559
 40
0.0024749995
100
AcDbArc
 50
359.9999571957
 51
90.0000428043
  0
LINE
  5
2A6
100
AcDbEntity
  8
0
100
AcDbLine
 62
2
  6
CONTINUOUS
 10
12.8362484229
 20
2.5672823554
 11
12.8174724125
 21
2.5672823554
  0
ARC
  5
2A7
100
AcDbEntity
  8
0
100
AcDbCircle
 62
2
  6
CONTINUOUS
 10
12.8174724106
 20
2.5697573549
 40
0.0024749995
100
AcDbArc
 50
179.9999571957
 51
270.0000428043
  0
LINE
  5
2A8
100
AcDbEntity
  8
0
100
AcDbLine
 62
2
  6
CONTINUOUS
 10
12.8149974111
 20
2.5697573568
 11
12.8149974111
 21
2.5895573678
  0
ARC
  5
2A9
100
AcDbEntity
  8
0
100
AcDbCircle
 62
2
  6
CONTINUOUS
 10
12.8174724106
 20
2.5895573696
 40
0.0024749995
100
AcDbArc
 50
89.9999571957
 51
180.0000428043
  0
LINE
  5
2AA
100
AcDbEntity
  8
0
100
AcDbLine
 62
2
  6
CONTINUOUS
 10
12.8174724125
 20
2.5920323691
 11
12.8914734535
 21
2.5920323691
  0
ARC
  5
2AB
100
AcDbEntity
  8
0
100
AcDbCircle
 62
2
  6
CONTINUOUS
 10
12.8914734553
 20
2.5895573696
 40
0.0024749995
100
AcDbArc
 50
359.9999571957
 51
90.0000428043
  0
LINE
  5
2AC
100
AcDbEntity
  8
0
100
AcDbLine
 62
2
  6
CONTINUOUS
 10
12.8939484549
 20
2.5895573678
 11
12.8939484549
 21
2.5697573568
  0
ARC
  5
2AD
100
AcDbEntity
  8
0
100
AcDbCircle
 62
2
  6
CONTINUOUS
 10
12.8914734553
 20
2.5697573549
 40
0.0024749995
100
AcDbArc
 50
269.9999571957
 51
0.0000428043
  0
LINE
  5
2AE
100
AcDbEntity
  8
0
100
AcDbLine
 62
2
  6
CONTINUOUS
 10
12.8914734535
 20
2.5672823554
 11
12.8735404436
 21
2.5672823554
  0
ARC
  5
2AF
100
AcDbEntity
  8
0
100
AcDbCircle
 62
2
  6
CONTINUOUS
 10
12.8735404417
 20
2.5648073559
 40
0.0024749995
100
AcDbArc
 50
89.9999571957
 51
180.0000428043
  0
LINE
  5
2B0
100
AcDbEntity
  8
0
100
AcDbLine
 62
2
  6
CONTINUOUS
 10
12.8710654422
 20
2.564807354
 11
12.8710654422
 21
2.4937023146
  0
ARC
  5
2B1
100
AcDbEntity
  8
0
100
AcDbCircle
 62
2
  6
CONTINUOUS
 10
12.8685904427
 20
2.4937023128
 40
0.0024749995
100
AcDbArc
 50
269.9999571957
 51
0.0000428043
  0
LINE
  5
2B2
100
AcDbEntity
  8
0
100
AcDbLine
 62
2
  6
CONTINUOUS
 10
12.8685904408
 20
2.4912273132
 11
12.7943853997
 21
2.4912273132
  0
ARC
  5
2B3
100
AcDbEntity
  8
0
100
AcDbCircle
 62
2
  6
CONTINUOUS
 10
12.7943847649
 20
2.4937027294
 40
0.0024754162
100
AcDbArc
 50
226.3593695813
 51
270.0146919953
  0
LINE
  5
2B4
100
AcDbEntity
  8
0
100
AcDbLine
 62
2
  6
CONTINUOUS
 10
12.7926763987
 20
2.4919113136
 11
12.7293963636
 21
2.5522893471
  0
ARC
  5
2B5
100
AcDbEntity
  8
0
100
AcDbCircle
 62
2
  6
CONTINUOUS
 10
12.7276876627
 20
2.5504984093
 40
0.0024753014
100
AcDbArc
 50
46.3461263059
 51
180.0014637321
  0
LINE
  5
2B6
100
AcDbEntity
  8
0
100
AcDbLine
 62
2
  6
CONTINUOUS
 10
12.7252123613
 20
2.5504983461
 11
12.7252123613
 21
2.5184523283
  0
ARC
  5
2B7
100
AcDbEntity
  8
0
100
AcDbCircle
 62
2
  6
CONTINUOUS
 10
12.7276873608
 20
2.5184523265
 40
0.0024749995
100
AcDbArc
 50
179.9999571957
 51
270.0000428043
  0
LINE
  5
2B8
100
AcDbEntity
  8
0
100
AcDbLine
 62
2
  6
CONTINUOUS
 10
12.7276873627
 20
2.515977327
 11
12.7480043739
 21
2.515977327
  0
ARC
  5
2B9
100
AcDbEntity
  8
0
100
AcDbCircle
 62
2
  6
CONTINUOUS
 10
12.7480043758
 20
2.5135023274
 40
0.0024749995
100
AcDbArc
 50
359.9999571957
 51
90.0000428043
  0
LINE
  5
2BA
100
AcDbEntity
  8
0
100
AcDbLine
 62
2
  6
CONTINUOUS
 10
12.7504793753
 20
2.5135023256
 11
12.7504793753
 21
2.4937023146
  0
ARC
  5
2BB
100
AcDbEntity
  8
0
100
AcDbCircle
 62
2
  6
CONTINUOUS
 10
12.7480043758
 20
2.4937023128
 40
0.0024749995
100
AcDbArc
 50
269.9999571957
 51
0.0000428043
  0
LINE
  5
2BC
100
AcDbEntity
  8
0
100
AcDbLine
 62
2
  6
CONTINUOUS
 10
12.7480043739
 20
2.4912273132
 11
12.672340332
 21
2.4912273132
  0
ARC
  5
2BD
100
AcDbEntity
  8
0
100
AcDbCircle
 62
2
  6
CONTINUOUS
 10
12.6723403301
 20
2.4937023128
 40
0.0024749995
100
AcDbArc
 50
179.9999571957
 51
270.0000428043
  0
LINE
  5
2BE
100
AcDbEntity
  8
0
100
AcDbLine
 62
2
  6
CONTINUOUS
 10
12.6698653306
 20
2.4937023146
 11
12.6698653306
 21
2.5135023256
  0
ARC
  5
2BF
100
AcDbEntity
  8
0
100
AcDbCircle
 62
2
  6
CONTINUOUS
 10
12.6723403301
 20
2.5135023274
 40
0.0024749995
100
AcDbArc
 50
89.9999571957
 51
180.0000428043
  0
LINE
  5
2C0
100
AcDbEntity
  8
0
100
AcDbLine
 62
2
  6
CONTINUOUS
 10
12.672340332
 20
2.515977327
 11
12.6909873423
 21
2.515977327
  0
ARC
  5
2C1
100
AcDbEntity
  8
0
100
AcDbCircle
 62
2
  6
CONTINUOUS
 10
12.6909873442
 20
2.5184523265
 40
0.0024749995
100
AcDbArc
 50
269.9999571957
 51
0.0000428043
  0
LINE
  5
2C2
100
AcDbEntity
  8
0
100
AcDbLine
 62
2
  6
CONTINUOUS
 10
12.6934623437
 20
2.5184523283
 11
12.6934623437
 21
2.564807354
  0
ARC
  5
2C3
100
AcDbEntity
  8
0
100
AcDbCircle
 62
2
  6
CONTINUOUS
 10
12.6909873442
 20
2.5648073559
 40
0.0024749995
100
AcDbArc
 50
359.9999571957
 51
90.0000428043
  0
LINE
  5
2C4
100
AcDbEntity
  8
0
100
AcDbLine
 62
2
  6
CONTINUOUS
 10
12.6909873423
 20
2.5672823554
 11
12.672340332
 21
2.5672823554
  0
ARC
  5
2C5
100
AcDbEntity
  8
0
100
AcDbCircle
 62
2
  6
CONTINUOUS
 10
12.6723403301
 20
2.5697573549
 40
0.0024749995
100
AcDbArc
 50
179.9999571957
 51
270.0000428043
  0
LINE
  5
2C6
100
AcDbEntity
  8
0
100
AcDbLine
 62
2
  6
CONTINUOUS
 10
12.6698653306
 20
2.5697573568
 11
12.6698653306
 21
2.5895573678
  0
ARC
  5
2C7
100
AcDbEntity
  8
0
100
AcDbCircle
 62
2
  6
CONTINUOUS
 10
12.6723403301
 20
2.5895573696
 40
0.0024749995
100
AcDbArc
 50
89.9999571957
 51
180.0000428043
  0
LINE
  5
2C8
100
AcDbEntity
  8
0
100
AcDbLine
 62
2
  6
CONTINUOUS
 10
12.5246402501
 20
2.5655893545
 11
12.5175232461
 21
2.5543723483
  0
ARC
  5
2C9
100
AcDbEntity
  8
0
100
AcDbCircle
 62
2
  6
CONTINUOUS
 10
12.519613138
 20
2.5530463862
 40
0.0024750401
100
AcDbArc
 50
147.6063258012
 51
270.0025305754
  0
LINE
  5
2CA
100
AcDbEntity
  8
0
100
AcDbLine
 62
2
  6
CONTINUOUS
 10
12.5196132473
 20
2.5505713461
 11
12.5401702587
 21
2.5505713461
  0
ARC
  5
2CB
100
AcDbEntity
  8
0
100
AcDbCircle
 62
2
  6
CONTINUOUS
 10
12.5401702375
 20
2.5530465533
 40
0.0024752071
100
AcDbArc
 50
270.0004896793
 51
32.9089806818
  0
LINE
  5
2CC
100
AcDbEntity
  8
0
100
AcDbLine
 62
2
  6
CONTINUOUS
 10
12.5422482598
 20
2.5543913483
 11
12.5349892558
 21
2.5656073545
  0
ARC
  5
2CD
100
AcDbEntity
  8
0
100
AcDbCircle
 62
2
  6
CONTINUOUS
 10
12.532910715
 20
2.564262895
 40
0.0024754602
100
AcDbArc
 50
32.8959418573
 51
89.9875097202
  0
LINE
  5
2CE
100
AcDbEntity
  8
0
100
AcDbLine
 62
2
  6
CONTINUOUS
 10
12.5329112547
 20
2.5667383551
 11
12.5267302512
 21
2.5667383551
  0
ARC
  5
2CF
100
AcDbEntity
  8
0
100
AcDbCircle
 62
2
  6
CONTINUOUS
 10
12.5267301809
 20
2.5642631548
 40
0.0024752003
100
AcDbArc
 50
89.998372645
 51
147.602165307
  0
LINE
  5
2D0
100
AcDbEntity
  8
0
100
AcDbLine
 62
2
  6
CONTINUOUS
 10
12.548053263
 20
2.5284903339
 11
12.5536792662
 21
2.5197973291
  0
ARC
  5
2D1
100
AcDbEntity
  8
0
100
AcDbCircle
 62
2
  6
CONTINUOUS
 10
12.5516012439
 20
2.5184525341
 40
0.0024752071
100
AcDbArc
 50
270.0004896794
 51
32.9089806818
  0
LINE
  5
2D2
100
AcDbEntity
  8
0
100
AcDbLine
 62
2
  6
CONTINUOUS
 10
12.551601265
 20
2.515977327
 11
12.537150257
 21
2.515977327
  0
ARC
  5
2D3
100
AcDbEntity
  8
0
100
AcDbCircle
 62
2
  6
CONTINUOUS
 10
12.5371502552
 20
2.5135023274
 40
0.0024749995
100
AcDbArc
 50
89.9999571957
 51
180.0000428043
  0
LINE
  5
2D4
100
AcDbEntity
  8
0
100
AcDbLine
 62
2
  6
CONTINUOUS
 10
12.5346752556
 20
2.5135023256
 11
12.5346752556
 21
2.4937023146
  0
ARC
  5
2D5
100
AcDbEntity
  8
0
100
AcDbCircle
 62
2
  6
CONTINUOUS
 10
12.5371502552
 20
2.4937023128
 40
0.0024749995
100
AcDbArc
 50
179.9999571957
 51
270.0000428043
  0
LINE
  5
2D6
100
AcDbEntity
  8
0
100
AcDbLine
 62
2
  6
CONTINUOUS
 10
12.537150257
 20
2.4912273132
 11
12.6424313154
 21
2.4912273132
  0
ARC
  5
2D7
100
AcDbEntity
  8
0
100
AcDbCircle
 62
2
  6
CONTINUOUS
 10
12.6424313172
 20
2.4937023128
 40
0.0024749995
100
AcDbArc
 50
269.9999571957
 51
0.0000428043
  0
LINE
  5
2D8
100
AcDbEntity
  8
0
100
AcDbLine
 62
2
  6
CONTINUOUS
 10
12.6449063168
 20
2.4937023146
 11
12.6449063168
 21
2.5135023256
  0
ARC
  5
2D9
100
AcDbEntity
  8
0
100
AcDbCircle
 62
2
  6
CONTINUOUS
 10
12.6424313172
 20
2.5135023274
 40
0.0024749995
100
AcDbArc
 50
359.9999571957
 51
90.0000428043
  0
LINE
  5
2DA
100
AcDbEntity
  8
0
100
AcDbLine
 62
2
  6
CONTINUOUS
 10
12.6424313154
 20
2.515977327
 11
12.6224153043
 21
2.515977327
  0
ARC
  5
2DB
100
AcDbEntity
  8
0
100
AcDbCircle
 62
2
  6
CONTINUOUS
 10
12.6224154248
 20
2.518451368
 40
0.002474041
100
AcDbArc
 50
212.9056413127
 51
269.9972091756
  0
LINE
  5
2DC
100
AcDbEntity
  8
0
100
AcDbLine
 62
2
  6
CONTINUOUS
 10
12.6203383031
 20
2.5171073276
 11
12.5725822767
 21
2.5909023685
  0
ARC
  5
2DD
100
AcDbEntity
  8
0
100
AcDbCircle
 62
2
  6
CONTINUOUS
 10
12.570504655
 20
2.589557409
 40
0.0024749602
100
AcDbArc
 50
32.9172174468
 51
90.0087853097
  0
LINE
  5
2DE
100
AcDbEntity
  8
0
100
AcDbLine
 62
2
  6
CONTINUOUS
 10
12.5705042755
 20
2.5920323691
 11
12.5133292438
 21
2.5920323691
  0
ARC
  5
2DF
100
AcDbEntity
  8
0
100
AcDbCircle
 62
2
  6
CONTINUOUS
 10
12.5133291735
 20
2.5895571688
 40
0.0024752003
100
AcDbArc
 50
89.9983726451
 51
147.602165307
  0
LINE
  5
2E0
100
AcDbEntity
  8
0
100
AcDbLine
 62
2
  6
CONTINUOUS
 10
12.5112392426
 20
2.5908833685
 11
12.4644392167
 21
2.5171263276
  0
ARC
  5
2E1
100
AcDbEntity
  8
0
100
AcDbCircle
 62
2
  6
CONTINUOUS
 10
12.4623492858
 20
2.5184525273
 40
0.0024752003
100
AcDbArc
 50
269.9983726451
 51
327.602165307
  0
LINE
  5
2E2
100
AcDbEntity
  8
0
100
AcDbLine
 62
2
  6
CONTINUOUS
 10
12.4623492155
 20
2.515977327
 11
12.4394882028
 21
2.515977327
  0
ARC
  5
2E3
100
AcDbEntity
  8
0
100
AcDbCircle
 62
2
  6
CONTINUOUS
 10
12.439488201
 20
2.5135023274
 40
0.0024749995
100
AcDbArc
 50
89.9999571957
 51
180.0000428043
  0
LINE
  5
2E4
100
AcDbEntity
  8
0
100
AcDbLine
 62
2
  6
CONTINUOUS
 10
12.4370132015
 20
2.5135023256
 11
12.4370132015
 21
2.4937023146
  0
ARC
  5
2E5
100
AcDbEntity
  8
0
100
AcDbCircle
 62
2
  6
CONTINUOUS
 10
12.439488201
 20
2.4937023128
 40
0.0024749995
100
AcDbArc
 50
179.9999571957
 51
270.0000428043
  0
LINE
  5
2E6
100
AcDbEntity
  8
0
100
AcDbLine
 62
2
  6
CONTINUOUS
 10
12.4394882028
 20
2.4912273132
 11
12.5168642458
 21
2.4912273132
  0
ARC
  5
2E7
100
AcDbEntity
  8
0
100
AcDbCircle
 62
2
  6
CONTINUOUS
 10
12.5168642476
 20
2.4937023128
 40
0.0024749995
100
AcDbArc
 50
269.9999571957
 51
0.0000428043
  0
LINE
  5
2E8
100
AcDbEntity
  8
0
100
AcDbLine
 62
2
  6
CONTINUOUS
 10
12.5193392471
 20
2.4937023146
 11
12.5193392471
 21
2.5135023256
  0
ARC
  5
2E9
100
AcDbEntity
  8
0
100
AcDbCircle
 62
2
  6
CONTINUOUS
 10
12.5168642476
 20
2.5135023274
 40
0.0024749995
100
AcDbArc
 50
359.9999571957
 51
90.0000428043
  0
LINE
  5
2EA
100
AcDbEntity
  8
0
100
AcDbLine
 62
2
  6
CONTINUOUS
 10
12.5168642458
 20
2.515977327
 11
12.5055812395
 21
2.515977327
  0
ARC
  5
2EB
100
AcDbEntity
  8
0
100
AcDbCircle
 62
2
  6
CONTINUOUS
 10
12.5055811302
 20
2.518452367
 40
0.0024750401
100
AcDbArc
 50
147.6063258011
 51
270.0025305754
  0
LINE
  5
2EC
100
AcDbEntity
  8
0
100
AcDbLine
 62
2
  6
CONTINUOUS
 10
12.5034912383
 20
2.5197783291
 11
12.5090072414
 21
2.5284723339
  0
ARC
  5
2ED
100
AcDbEntity
  8
0
100
AcDbCircle
 62
2
  6
CONTINUOUS
 10
12.5110971723
 20
2.5271461342
 40
0.0024752003
100
AcDbArc
 50
89.998372645
 51
147.602165307
  0
LINE
  5
2EE
100
AcDbEntity
  8
0
100
AcDbLine
 62
2
  6
CONTINUOUS
 10
12.5110972426
 20
2.5296213345
 11
12.5459752619
 21
2.5296213345
  0
ARC
  5
2EF
100
AcDbEntity
  8
0
100
AcDbCircle
 62
2
  6
CONTINUOUS
 10
12.5459747223
 20
2.5271458744
 40
0.0024754602
100
AcDbArc
 50
32.8959418573
 51
89.9875097202
  0
LINE
  5
2F0
100
AcDbEntity
  8
0
100
AcDbLine
 62
2
  6
CONTINUOUS
 10
12.9205934696
 20
2.5920323691
 11
13.0210515254
 21
2.5920323691
  0
ARC
  5
2F1
100
AcDbEntity
  8
0
100
AcDbCircle
 62
2
  6
CONTINUOUS
 10
13.0210516601
 20
2.5895582013
 40
0.0024741678
100
AcDbArc
 50
46.3477981899
 51
90.0031206038
  0
LINE
  5
2F2
100
AcDbEntity
  8
0
100
AcDbLine
 62
2
  6
CONTINUOUS
 10
13.0227595263
 20
2.5913483688
 11
13.0827925596
 21
2.534068337
  0
ARC
  5
2F3
100
AcDbEntity
  8
0
100
AcDbCircle
 62
2
  6
CONTINUOUS
 10
13.0845012605
 20
2.5358592748
 40
0.0024753014
100
AcDbArc
 50
226.3461263059
 51
0.0014637321
  0
LINE
  5
2F4
100
AcDbEntity
  8
0
100
AcDbLine
 62
2
  6
CONTINUOUS
 10
13.0869765619
 20
2.535859338
 11
13.0869765619
 21
2.564807354
  0
ARC
  5
2F5
100
AcDbEntity
  8
0
100
AcDbCircle
 62
2
  6
CONTINUOUS
 10
13.0845015624
 20
2.5648073559
 40
0.0024749995
100
AcDbArc
 50
359.9999571957
 51
90.0000428043
  0
LINE
  5
2F6
100
AcDbEntity
  8
0
100
AcDbLine
 62
2
  6
CONTINUOUS
 10
13.0845015605
 20
2.5672823554
 11
13.0657255501
 21
2.5672823554
  0
ARC
  5
2F7
100
AcDbEntity
  8
0
100
AcDbCircle
 62
2
  6
CONTINUOUS
 10
13.0657255483
 20
2.5697573549
 40
0.0024749995
100
AcDbArc
 50
179.9999571957
 51
270.0000428043
  0
LINE
  5
2F8
100
AcDbEntity
  8
0
100
AcDbLine
 62
2
  6
CONTINUOUS
 10
13.0632505488
 20
2.5697573568
 11
13.0632505488
 21
2.5895573678
  0
ARC
  5
2F9
100
AcDbEntity
  8
0
100
AcDbCircle
 62
2
  6
CONTINUOUS
 10
13.0657255483
 20
2.5895573696
 40
0.0024749995
100
AcDbArc
 50
89.9999571957
 51
180.0000428043
  0
LINE
  5
2FA
100
AcDbEntity
  8
0
100
AcDbLine
 62
2
  6
CONTINUOUS
 10
13.0657255501
 20
2.5920323691
 11
13.1397265912
 21
2.5920323691
  0
ARC
  5
2FB
100
AcDbEntity
  8
0
100
AcDbCircle
 62
2
  6
CONTINUOUS
 10
13.139726593
 20
2.5895573696
 40
0.0024749995
100
AcDbArc
 50
359.9999571957
 51
90.0000428043
  0
LINE
  5
2FC
100
AcDbEntity
  8
0
100
AcDbLine
 62
2
  6
CONTINUOUS
 10
13.1422015925
 20
2.5895573678
 11
13.1422015925
 21
2.5697573568
  0
ARC
  5
2FD
100
AcDbEntity
  8
0
100
AcDbCircle
 62
2
  6
CONTINUOUS
 10
13.139726593
 20
2.5697573549
 40
0.0024749995
100
AcDbArc
 50
269.9999571957
 51
0.0000428042
  0
LINE
  5
2FE
100
AcDbEntity
  8
0
100
AcDbLine
 62
2
  6
CONTINUOUS
 10
13.1397265912
 20
2.5672823554
 11
13.1217935812
 21
2.5672823554
  0
ARC
  5
2FF
100
AcDbEntity
  8
0
100
AcDbCircle
 62
2
  6
CONTINUOUS
 10
13.1217935794
 20
2.5648073559
 40
0.0024749995
100
AcDbArc
 50
89.9999571957
 51
180.0000428042
  0
LINE
  5
300
100
AcDbEntity
  8
0
100
AcDbLine
 62
2
  6
CONTINUOUS
 10
13.1193185799
 20
2.564807354
 11
13.1193185799
 21
2.4937023146
  0
ARC
  5
301
100
AcDbEntity
  8
0
100
AcDbCircle
 62
2
  6
CONTINUOUS
 10
13.1168435803
 20
2.4937023128
 40
0.0024749995
100
AcDbArc
 50
269.9999571957
 51
0.0000428043
  0
LINE
  5
302
100
AcDbEntity
  8
0
100
AcDbLine
 62
2
  6
CONTINUOUS
 10
13.1168435785
 20
2.4912273132
 11
13.0426375373
 21
2.4912273132
  0
ARC
  5
303
100
AcDbEntity
  8
0
100
AcDbCircle
 62
2
  6
CONTINUOUS
 10
13.0426374026
 20
2.493701481
 40
0.0024741678
100
AcDbArc
 50
226.3477981898
 51
270.0031206038
  0
LINE
  5
304
100
AcDbEntity
  8
0
100
AcDbLine
 62
2
  6
CONTINUOUS
 10
13.0409295364
 20
2.4919113136
 11
12.9776495013
 21
2.5522893471
  0
ARC
  5
305
100
AcDbEntity
  8
0
100
AcDbCircle
 62
2
  6
CONTINUOUS
 10
12.9759408003
 20
2.5504984093
 40
0.0024753014
100
AcDbArc
 50
46.3461263059
 51
180.0014637321
  0
LINE
  5
306
100
AcDbEntity
  8
0
100
AcDbLine
 62
2
  6
CONTINUOUS
 10
12.973465499
 20
2.5504983461
 11
12.973465499
 21
2.5184523283
  0
ARC
  5
307
100
AcDbEntity
  8
0
100
AcDbCircle
 62
2
  6
CONTINUOUS
 10
12.9759404985
 20
2.5184523265
 40
0.0024749995
100
AcDbArc
 50
179.9999571957
 51
270.0000428043
  0
LINE
  5
308
100
AcDbEntity
  8
0
100
AcDbLine
 62
2
  6
CONTINUOUS
 10
12.9759405003
 20
2.515977327
 11
12.9962575116
 21
2.515977327
  0
ARC
  5
309
100
AcDbEntity
  8
0
100
AcDbCircle
 62
2
  6
CONTINUOUS
 10
12.9962575135
 20
2.5135023274
 40
0.0024749995
100
AcDbArc
 50
359.9999571957
 51
90.0000428043
  0
LINE
  5
30A
100
AcDbEntity
  8
0
100
AcDbLine
 62
2
  6
CONTINUOUS
 10
12.998732513
 20
2.5135023256
 11
12.998732513
 21
2.4937023146
  0
ARC
  5
30B
100
AcDbEntity
  8
0
100
AcDbCircle
 62
2
  6
CONTINUOUS
 10
12.9962575135
 20
2.4937023128
 40
0.0024749995
100
AcDbArc
 50
269.9999571957
 51
0.0000428043
  0
LINE
  5
30C
100
AcDbEntity
  8
0
100
AcDbLine
 62
2
  6
CONTINUOUS
 10
12.9962575116
 20
2.4912273132
 11
12.9205934696
 21
2.4912273132
  0
ARC
  5
30D
100
AcDbEntity
  8
0
100
AcDbCircle
 62
2
  6
CONTINUOUS
 10
12.9205934678
 20
2.4937023128
 40
0.0024749995
100
AcDbArc
 50
179.9999571957
 51
270.0000428043
  0
LINE
  5
30E
100
AcDbEntity
  8
0
100
AcDbLine
 62
2
  6
CONTINUOUS
 10
12.9181184683
 20
2.4937023146
 11
12.9181184683
 21
2.5135023256
  0
ARC
  5
30F
100
AcDbEntity
  8
0
100
AcDbCircle
 62
2
  6
CONTINUOUS
 10
12.9205934678
 20
2.5135023274
 40
0.0024749995
100
AcDbArc
 50
89.9999571957
 51
180.0000428042
  0
LINE
  5
310
100
AcDbEntity
  8
0
100
AcDbLine
 62
2
  6
CONTINUOUS
 10
12.9205934696
 20
2.515977327
 11
12.93923948
 21
2.515977327
  0
ARC
  5
311
100
AcDbEntity
  8
0
100
AcDbCircle
 62
2
  6
CONTINUOUS
 10
12.9392394818
 20
2.5184523265
 40
0.0024749995
100
AcDbArc
 50
269.9999571957
 51
0.0000428043
  0
LINE
  5
312
100
AcDbEntity
  8
0
100
AcDbLine
 62
2
  6
CONTINUOUS
 10
12.9417144814
 20
2.5184523283
 11
12.9417144814
 21
2.564807354
  0
ARC
  5
313
100
AcDbEntity
  8
0
100
AcDbCircle
 62
2
  6
CONTINUOUS
 10
12.9392394818
 20
2.5648073559
 40
0.0024749995
100
AcDbArc
 50
359.9999571957
 51
90.0000428043
  0
LINE
  5
314
100
AcDbEntity
  8
0
100
AcDbLine
 62
2
  6
CONTINUOUS
 10
12.93923948
 20
2.5672823554
 11
12.9205934696
 21
2.5672823554
  0
ARC
  5
315
100
AcDbEntity
  8
0
100
AcDbCircle
 62
2
  6
CONTINUOUS
 10
12.9205934678
 20
2.5697573549
 40
0.0024749995
100
AcDbArc
 50
179.9999571957
 51
270.0000428043
  0
LINE
  5
316
100
AcDbEntity
  8
0
100
AcDbLine
 62
2
  6
CONTINUOUS
 10
12.9181184683
 20
2.5697573568
 11
12.9181184683
 21
2.5895573678
  0
ARC
  5
317
100
AcDbEntity
  8
0
100
AcDbCircle
 62
2
  6
CONTINUOUS
 10
12.9205934678
 20
2.5895573696
 40
0.0024749995
100
AcDbArc
 50
89.9999571957
 51
180.0000428042
  0
LINE
  5
318
100
AcDbEntity
  8
0
100
AcDbLine
 62
2
  6
CONTINUOUS
 10
13.2934226764
 20
2.5324773361
 11
13.2582556569
 21
2.5324773361
  0
ARC
  5
319
100
AcDbEntity
  8
0
100
AcDbCircle
 62
2
  6
CONTINUOUS
 10
13.2582556551
 20
2.5300023366
 40
0.0024749995
100
AcDbArc
 50
89.9999571957
 51
180.0000428043
  0
LINE
  5
31A
100
AcDbEntity
  8
0
100
AcDbLine
 62
2
  6
CONTINUOUS
 10
13.2557806555
 20
2.5300023347
 11
13.2557806555
 21
2.5184523283
  0
ARC
  5
31B
100
AcDbEntity
  8
0
100
AcDbCircle
 62
2
  6
CONTINUOUS
 10
13.2582556551
 20
2.5184523265
 40
0.0024749995
100
AcDbArc
 50
179.9999571957
 51
270.0000428043
  0
LINE
  5
31C
100
AcDbEntity
  8
0
100
AcDbLine
 62
2
  6
CONTINUOUS
 10
13.2582556569
 20
2.515977327
 11
13.3232596929
 21
2.515977327
  0
ARC
  5
31D
100
AcDbEntity
  8
0
100
AcDbCircle
 62
2
  6
CONTINUOUS
 10
13.3232596948
 20
2.5184523265
 40
0.0024749995
100
AcDbArc
 50
269.9999571957
 51
0.0000428043
  0
LINE
  5
31E
100
AcDbEntity
  8
0
100
AcDbLine
 62
2
  6
CONTINUOUS
 10
13.3257346943
 20
2.5184523283
 11
13.3257346943
 21
2.5267023329
  0
ARC
  5
31F
100
AcDbEntity
  8
0
100
AcDbCircle
 62
2
  6
CONTINUOUS
 10
13.3282096938
 20
2.5267023348
 40
0.0024749995
100
AcDbArc
 50
89.9999571957
 51
180.0000428043
  0
LINE
  5
320
100
AcDbEntity
  8
0
100
AcDbLine
 62
2
  6
CONTINUOUS
 10
13.3282096957
 20
2.5291773343
 11
13.3705287192
 21
2.5291773343
  0
ARC
  5
321
100
AcDbEntity
  8
0
100
AcDbCircle
 62
2
  6
CONTINUOUS
 10
13.370528721
 20
2.5267023348
 40
0.0024749995
100
AcDbArc
 50
359.9999571957
 51
90.0000428043
  0
LINE
  5
322
100
AcDbEntity
  8
0
100
AcDbLine
 62
2
  6
CONTINUOUS
 10
13.3730037205
 20
2.5267023329
 11
13.3730037205
 21
2.4937023146
  0
ARC
  5
323
100
AcDbEntity
  8
0
100
AcDbCircle
 62
2
  6
CONTINUOUS
 10
13.370528721
 20
2.4937023128
 40
0.0024749995
100
AcDbArc
 50
269.9999571957
 51
0.0000428043
  0
LINE
  5
324
100
AcDbEntity
  8
0
100
AcDbLine
 62
2
  6
CONTINUOUS
 10
13.3705287192
 20
2.4912273132
 11
13.1673166065
 21
2.4912273132
  0
ARC
  5
325
100
AcDbEntity
  8
0
100
AcDbCircle
 62
2
  6
CONTINUOUS
 10
13.1673166046
 20
2.4937023128
 40
0.0024749995
100
AcDbArc
 50
179.9999571957
 51
270.0000428043
  0
LINE
  5
326
100
AcDbEntity
  8
0
100
AcDbLine
 62
2
  6
CONTINUOUS
 10
13.1648416051
 20
2.4937023146
 11
13.1648416051
 21
2.5135023256
  0
ARC
  5
327
100
AcDbEntity
  8
0
100
AcDbCircle
 62
2
  6
CONTINUOUS
 10
13.1673166046
 20
2.5135023274
 40
0.0024749995
100
AcDbArc
 50
89.9999571957
 51
180.0000428043
  0
LINE
  5
328
100
AcDbEntity
  8
0
100
AcDbLine
 62
2
  6
CONTINUOUS
 10
13.1673166065
 20
2.515977327
 11
13.1912396197
 21
2.515977327
  0
ARC
  5
329
100
AcDbEntity
  8
0
100
AcDbCircle
 62
2
  6
CONTINUOUS
 10
13.1912396216
 20
2.5184523265
 40
0.0024749995
100
AcDbArc
 50
269.9999571957
 51
0.0000428042
  0
LINE
  5
32A
100
AcDbEntity
  8
0
100
AcDbLine
 62
2
  6
CONTINUOUS
 10
13.1937146211
 20
2.5184523283
 11
13.1937146211
 21
2.564807354
  0
ARC
  5
32B
100
AcDbEntity
  8
0
100
AcDbCircle
 62
2
  6
CONTINUOUS
 10
13.1912396216
 20
2.5648073559
 40
0.0024749995
100
AcDbArc
 50
359.9999571957
 51
90.0000428043
  0
LINE
  5
32C
100
AcDbEntity
  8
0
100
AcDbLine
 62
2
  6
CONTINUOUS
 10
13.1912396197
 20
2.5672823554
 11
13.1673166065
 21
2.5672823554
  0
ARC
  5
32D
100
AcDbEntity
  8
0
100
AcDbCircle
 62
2
  6
CONTINUOUS
 10
13.1673166046
 20
2.5697573549
 40
0.0024749995
100
AcDbArc
 50
179.9999571957
 51
270.0000428043
  0
LINE
  5
32E
100
AcDbEntity
  8
0
100
AcDbLine
 62
2
  6
CONTINUOUS
 10
13.1648416051
 20
2.5697573568
 11
13.1648416051
 21
2.5895573678
  0
ARC
  5
32F
100
AcDbEntity
  8
0
100
AcDbCircle
 62
2
  6
CONTINUOUS
 10
13.1673166046
 20
2.5895573696
 40
0.0024749995
100
AcDbArc
 50
89.9999571957
 51
180.0000428043
  0
LINE
  5
330
100
AcDbEntity
  8
0
100
AcDbLine
 62
2
  6
CONTINUOUS
 10
13.1673166065
 20
2.5920323691
 11
13.3691097184
 21
2.5920323691
  0
ARC
  5
331
100
AcDbEntity
  8
0
100
AcDbCircle
 62
2
  6
CONTINUOUS
 10
13.3691097202
 20
2.5895573696
 40
0.0024749995
100
AcDbArc
 50
359.9999571957
 51
90.0000428043
  0
LINE
  5
332
100
AcDbEntity
  8
0
100
AcDbLine
 62
2
  6
CONTINUOUS
 10
13.3715847197
 20
2.5895573678
 11
13.3715847197
 21
2.5565573495
  0
ARC
  5
333
100
AcDbEntity
  8
0
100
AcDbCircle
 62
2
  6
CONTINUOUS
 10
13.3691097202
 20
2.5565573476
 40
0.0024749995
100
AcDbArc
 50
269.9999571957
 51
0.0000428042
  0
LINE
  5
334
100
AcDbEntity
  8
0
100
AcDbLine
 62
2
  6
CONTINUOUS
 10
13.3691097184
 20
2.5540823481
 11
13.3272456952
 21
2.5540823481
  0
ARC
  5
335
100
AcDbEntity
  8
0
100
AcDbCircle
 62
2
  6
CONTINUOUS
 10
13.3272456933
 20
2.5565573476
 40
0.0024749995
100
AcDbArc
 50
179.9999571957
 51
270.0000428043
  0
LINE
  5
336
100
AcDbEntity
  8
0
100
AcDbLine
 62
2
  6
CONTINUOUS
 10
13.3247706938
 20
2.5565573495
 11
13.3247706938
 21
2.564807354
  0
ARC
  5
337
100
AcDbEntity
  8
0
100
AcDbCircle
 62
2
  6
CONTINUOUS
 10
13.3222956943
 20
2.5648073559
 40
0.0024749995
100
AcDbArc
 50
359.9999571957
 51
90.0000428043
  0
LINE
  5
338
100
AcDbEntity
  8
0
100
AcDbLine
 62
2
  6
CONTINUOUS
 10
13.3222956924
 20
2.5672823554
 11
13.2582556569
 21
2.5672823554
  0
ARC
  5
339
100
AcDbEntity
  8
0
100
AcDbCircle
 62
2
  6
CONTINUOUS
 10
13.2582556551
 20
2.5648073559
 40
0.0024749995
100
AcDbArc
 50
89.9999571957
 51
180.0000428043
  0
LINE
  5
33A
100
AcDbEntity
  8
0
100
AcDbLine
 62
2
  6
CONTINUOUS
 10
13.2557806555
 20
2.564807354
 11
13.2557806555
 21
2.5532573476
  0
ARC
  5
33B
100
AcDbEntity
  8
0
100
AcDbCircle
 62
2
  6
CONTINUOUS
 10
13.2582556551
 20
2.5532573458
 40
0.0024749995
100
AcDbArc
 50
179.9999571957
 51
270.0000428043
  0
LINE
  5
33C
100
AcDbEntity
  8
0
100
AcDbLine
 62
2
  6
CONTINUOUS
 10
13.2582556569
 20
2.5507823463
 11
13.2934226764
 21
2.5507823463
  0
ARC
  5
33D
100
AcDbEntity
  8
0
100
AcDbCircle
 62
2
  6
CONTINUOUS
 10
13.2934226783
 20
2.5483073467
 40
0.0024749995
100
AcDbArc
 50
359.9999571957
 51
90.0000428043
  0
LINE
  5
33E
100
AcDbEntity
  8
0
100
AcDbLine
 62
2
  6
CONTINUOUS
 10
13.2958976778
 20
2.5483073449
 11
13.2958976778
 21
2.5349523375
  0
ARC
  5
33F
100
AcDbEntity
  8
0
100
AcDbCircle
 62
2
  6
CONTINUOUS
 10
13.2934226783
 20
2.5349523356
 40
0.0024749995
100
AcDbArc
 50
269.9999571957
 51
0.0000428042
  0
LINE
  5
340
100
AcDbEntity
  8
0
100
AcDbLine
 62
2
  6
CONTINUOUS
 10
13.7286871589
 20
2.5350697372
 11
13.7286871589
 21
2.5456869438
  0
LINE
  5
341
100
AcDbEntity
  8
0
100
AcDbLine
 62
2
  6
CONTINUOUS
 10
13.7086871478
 20
2.5004302075
 11
13.7086871478
 21
2.5803264735
  0
LINE
  5
342
100
AcDbEntity
  8
0
100
AcDbLine
 62
2
  6
CONTINUOUS
 10
13.6886871368
 20
2.4843919416
 11
13.6886871368
 21
2.5963647394
  0
LINE
  5
343
100
AcDbEntity
  8
0
100
AcDbLine
 62
2
  6
CONTINUOUS
 10
13.6686871257
 20
2.4726017898
 11
13.6686871257
 21
2.6081548911
  0
LINE
  5
344
100
AcDbEntity
  8
0
100
AcDbLine
 62
2
  6
CONTINUOUS
 10
13.6486871146
 20
2.4628062688
 11
13.6486871146
 21
2.6179504122
  0
LINE
  5
345
100
AcDbEntity
  8
0
100
AcDbLine
 62
2
  6
CONTINUOUS
 10
13.6286871035
 20
2.4541253507
 11
13.6286871035
 21
2.5062483056
  0
LINE
  5
346
100
AcDbEntity
  8
0
100
AcDbLine
 62
2
  6
CONTINUOUS
 10
13.6286871035
 20
2.5301143348
 11
13.6286871035
 21
2.6266313303
  0
LINE
  5
347
100
AcDbEntity
  8
0
100
AcDbLine
 62
2
  6
CONTINUOUS
 10
13.6086870924
 20
2.4465537903
 11
13.6086870924
 21
2.4918774918
  0
LINE
  5
348
100
AcDbEntity
  8
0
100
AcDbLine
 62
2
  6
CONTINUOUS
 10
13.6086870924
 20
2.5165781173
 11
13.6086870924
 21
2.6342028907
  0
LINE
  5
349
100
AcDbEntity
  8
0
100
AcDbLine
 62
2
  6
CONTINUOUS
 10
13.5886870813
 20
2.4398033466
 11
13.5886870813
 21
2.4912273132
  0
LINE
  5
34A
100
AcDbEntity
  8
0
100
AcDbLine
 62
2
  6
CONTINUOUS
 10
13.5886870813
 20
2.5391840845
 11
13.5886870813
 21
2.5454298327
  0
LINE
  5
34B
100
AcDbEntity
  8
0
100
AcDbLine
 62
2
  6
CONTINUOUS
 10
13.5886870813
 20
2.5862063472
 11
13.5886870813
 21
2.6409533343
  0
LINE
  5
34C
100
AcDbEntity
  8
0
100
AcDbLine
 62
2
  6
CONTINUOUS
 10
13.5686870702
 20
2.4334702189
 11
13.5686870702
 21
2.4912273132
  0
LINE
  5
34D
100
AcDbEntity
  8
0
100
AcDbLine
 62
2
  6
CONTINUOUS
 10
13.5686870702
 20
2.5906587765
 11
13.5686870702
 21
2.647286462
  0
LINE
  5
34E
100
AcDbEntity
  8
0
100
AcDbLine
 62
2
  6
CONTINUOUS
 10
13.5486870591
 20
2.4278968124
 11
13.5486870591
 21
2.4937461006
  0
LINE
  5
34F
100
AcDbEntity
  8
0
100
AcDbLine
 62
2
  6
CONTINUOUS
 10
13.5486870591
 20
2.5920323691
 11
13.5486870591
 21
2.6528598686
  0
LINE
  5
350
100
AcDbEntity
  8
0
100
AcDbLine
 62
2
  6
CONTINUOUS
 10
13.528687048
 20
2.4225427674
 11
13.528687048
 21
2.5270426993
  0
LINE
  5
351
100
AcDbEntity
  8
0
100
AcDbLine
 62
2
  6
CONTINUOUS
 10
13.528687048
 20
2.5505166259
 11
13.528687048
 21
2.5668657091
  0
LINE
  5
352
100
AcDbEntity
  8
0
100
AcDbLine
 62
2
  6
CONTINUOUS
 10
13.528687048
 20
2.5920323691
 11
13.528687048
 21
2.6582139136
  0
LINE
  5
353
100
AcDbEntity
  8
0
100
AcDbLine
 62
2
  6
CONTINUOUS
 10
13.5086870369
 20
2.4177306791
 11
13.5086870369
 21
2.4912273132
  0
LINE
  5
354
100
AcDbEntity
  8
0
100
AcDbLine
 62
2
  6
CONTINUOUS
 10
13.5086870369
 20
2.5159553269
 11
13.5086870369
 21
2.5306043351
  0
LINE
  5
355
100
AcDbEntity
  8
0
100
AcDbLine
 62
2
  6
CONTINUOUS
 10
13.5086870369
 20
2.5496073456
 11
13.5086870369
 21
2.5672823554
  0
LINE
  5
356
100
AcDbEntity
  8
0
100
AcDbLine
 62
2
  6
CONTINUOUS
 10
13.5086870369
 20
2.5920323691
 11
13.5086870369
 21
2.6630260019
  0
LINE
  5
357
100
AcDbEntity
  8
0
100
AcDbLine
 62
2
  6
CONTINUOUS
 10
13.4886870258
 20
2.4131795254
 11
13.4886870258
 21
2.4912273132
  0
LINE
  5
358
100
AcDbEntity
  8
0
100
AcDbLine
 62
2
  6
CONTINUOUS
 10
13.4886870258
 20
2.5159553269
 11
13.4886870258
 21
2.5306043351
  0
LINE
  5
359
100
AcDbEntity
  8
0
100
AcDbLine
 62
2
  6
CONTINUOUS
 10
13.4886870258
 20
2.5496073456
 11
13.4886870258
 21
2.5672823554
  0
LINE
  5
35A
100
AcDbEntity
  8
0
100
AcDbLine
 62
2
  6
CONTINUOUS
 10
13.4886870258
 20
2.5920323691
 11
13.4886870258
 21
2.6675771555
  0
LINE
  5
35B
100
AcDbEntity
  8
0
100
AcDbLine
 62
2
  6
CONTINUOUS
 10
13.4686870147
 20
2.4088819672
 11
13.4686870147
 21
2.4912273132
  0
LINE
  5
35C
100
AcDbEntity
  8
0
100
AcDbLine
 62
2
  6
CONTINUOUS
 10
13.4686870147
 20
2.5920323691
 11
13.4686870147
 21
2.6718747138
  0
LINE
  5
35D
100
AcDbEntity
  8
0
100
AcDbLine
 62
2
  6
CONTINUOUS
 10
13.4486870037
 20
2.4050092072
 11
13.4486870037
 21
2.4912273132
  0
LINE
  5
35E
100
AcDbEntity
  8
0
100
AcDbLine
 62
2
  6
CONTINUOUS
 10
13.4486870037
 20
2.5920323691
 11
13.4486870037
 21
2.6757474738
  0
LINE
  5
35F
100
AcDbEntity
  8
0
100
AcDbLine
 62
2
  6
CONTINUOUS
 10
13.4286869926
 20
2.4011364471
 11
13.4286869926
 21
2.4912273132
  0
LINE
  5
360
100
AcDbEntity
  8
0
100
AcDbLine
 62
2
  6
CONTINUOUS
 10
13.4286869926
 20
2.5920323691
 11
13.4286869926
 21
2.6796202339
  0
LINE
  5
361
100
AcDbEntity
  8
0
100
AcDbLine
 62
2
  6
CONTINUOUS
 10
13.4086869815
 20
2.3980226662
 11
13.4086869815
 21
2.4912273132
  0
LINE
  5
362
100
AcDbEntity
  8
0
100
AcDbLine
 62
2
  6
CONTINUOUS
 10
13.4086869815
 20
2.515977327
 11
13.4086869815
 21
2.5672823554
  0
LINE
  5
363
100
AcDbEntity
  8
0
100
AcDbLine
 62
2
  6
CONTINUOUS
 10
13.4086869815
 20
2.5920323691
 11
13.4086869815
 21
2.6827340148
  0
LINE
  5
364
100
AcDbEntity
  8
0
100
AcDbLine
 62
2
  6
CONTINUOUS
 10
13.3886869704
 20
2.3950052774
 11
13.3886869704
 21
2.6857514036
  0
LINE
  5
365
100
AcDbEntity
  8
0
100
AcDbLine
 62
2
  6
CONTINUOUS
 10
13.3686869593
 20
2.3919878885
 11
13.3686869593
 21
2.4912273132
  0
LINE
  5
366
100
AcDbEntity
  8
0
100
AcDbLine
 62
2
  6
CONTINUOUS
 10
13.3686869593
 20
2.5291773343
 11
13.3686869593
 21
2.5540823481
  0
LINE
  5
367
100
AcDbEntity
  8
0
100
AcDbLine
 62
2
  6
CONTINUOUS
 10
13.3686869593
 20
2.5920323691
 11
13.3686869593
 21
2.6887687924
  0
LINE
  5
368
100
AcDbEntity
  8
0
100
AcDbLine
 62
2
  6
CONTINUOUS
 10
13.3486869482
 20
2.3889704997
 11
13.3486869482
 21
2.4912273132
  0
LINE
  5
369
100
AcDbEntity
  8
0
100
AcDbLine
 62
2
  6
CONTINUOUS
 10
13.3486869482
 20
2.5291773343
 11
13.3486869482
 21
2.5540823481
  0
LINE
  5
36A
100
AcDbEntity
  8
0
100
AcDbLine
 62
2
  6
CONTINUOUS
 10
13.3486869482
 20
2.5920323691
 11
13.3486869482
 21
2.6917861813
  0
LINE
  5
36B
100
AcDbEntity
  8
0
100
AcDbLine
 62
2
  6
CONTINUOUS
 10
13.3286869371
 20
2.3859531109
 11
13.3286869371
 21
2.4912273132
  0
LINE
  5
36C
100
AcDbEntity
  8
0
100
AcDbLine
 62
2
  6
CONTINUOUS
 10
13.3286869371
 20
2.5291773343
 11
13.3286869371
 21
2.5540823481
  0
LINE
  5
36D
100
AcDbEntity
  8
0
100
AcDbLine
 62
2
  6
CONTINUOUS
 10
13.3286869371
 20
2.5920323691
 11
13.3286869371
 21
2.6948035701
  0
LINE
  5
36E
100
AcDbEntity
  8
0
100
AcDbLine
 62
2
  6
CONTINUOUS
 10
13.308686926
 20
2.3833355437
 11
13.308686926
 21
2.4912273132
  0
LINE
  5
36F
100
AcDbEntity
  8
0
100
AcDbLine
 62
2
  6
CONTINUOUS
 10
13.308686926
 20
2.515977327
 11
13.308686926
 21
2.5672823554
  0
LINE
  5
370
100
AcDbEntity
  8
0
100
AcDbLine
 62
2
  6
CONTINUOUS
 10
13.308686926
 20
2.5920323691
 11
13.308686926
 21
2.6974211373
  0
LINE
  5
371
100
AcDbEntity
  8
0
100
AcDbLine
 62
2
  6
CONTINUOUS
 10
13.2886869149
 20
2.3812612684
 11
13.2886869149
 21
2.4912273132
  0
LINE
  5
372
100
AcDbEntity
  8
0
100
AcDbLine
 62
2
  6
CONTINUOUS
 10
13.2886869149
 20
2.515977327
 11
13.2886869149
 21
2.5324773361
  0
LINE
  5
373
100
AcDbEntity
  8
0
100
AcDbLine
 62
2
  6
CONTINUOUS
 10
13.2886869149
 20
2.5507823463
 11
13.2886869149
 21
2.5672823554
  0
LINE
  5
374
100
AcDbEntity
  8
0
100
AcDbLine
 62
2
  6
CONTINUOUS
 10
13.2886869149
 20
2.5920323691
 11
13.2886869149
 21
2.6994954125
  0
LINE
  5
375
100
AcDbEntity
  8
0
100
AcDbLine
 62
2
  6
CONTINUOUS
 10
13.2686869038
 20
2.3791869932
 11
13.2686869038
 21
2.4912273132
  0
LINE
  5
376
100
AcDbEntity
  8
0
100
AcDbLine
 62
2
  6
CONTINUOUS
 10
13.2686869038
 20
2.515977327
 11
13.2686869038
 21
2.5324773361
  0
LINE
  5
377
100
AcDbEntity
  8
0
100
AcDbLine
 62
2
  6
CONTINUOUS
 10
13.2686869038
 20
2.5507823463
 11
13.2686869038
 21
2.5672823554
  0
LINE
  5
378
100
AcDbEntity
  8
0
100
AcDbLine
 62
2
  6
CONTINUOUS
 10
13.2686869038
 20
2.5920323691
 11
13.2686869038
 21
2.7015696878
  0
LINE
  5
379
100
AcDbEntity
  8
0
100
AcDbLine
 62
2
  6
CONTINUOUS
 10
13.2486868927
 20
2.377112718
 11
13.2486868927
 21
2.4912273132
  0
LINE
  5
37A
100
AcDbEntity
  8
0
100
AcDbLine
 62
2
  6
CONTINUOUS
 10
13.2486868927
 20
2.5920323691
 11
13.2486868927
 21
2.703643963
  0
LINE
  5
37B
100
AcDbEntity
  8
0
100
AcDbLine
 62
2
  6
CONTINUOUS
 10
13.2286868817
 20
2.3750384428
 11
13.2286868817
 21
2.4912273132
  0
LINE
  5
37C
100
AcDbEntity
  8
0
100
AcDbLine
 62
2
  6
CONTINUOUS
 10
13.2286868817
 20
2.5920323691
 11
13.2286868817
 21
2.7057182382
  0
LINE
  5
37D
100
AcDbEntity
  8
0
100
AcDbLine
 62
2
  6
CONTINUOUS
 10
13.2086868706
 20
2.3729641676
 11
13.2086868706
 21
2.4912273132
  0
LINE
  5
37E
100
AcDbEntity
  8
0
100
AcDbLine
 62
2
  6
CONTINUOUS
 10
13.2086868706
 20
2.5920323691
 11
13.2086868706
 21
2.7077925134
  0
LINE
  5
37F
100
AcDbEntity
  8
0
100
AcDbLine
 62
2
  6
CONTINUOUS
 10
13.1886868595
 20
2.3712344456
 11
13.1886868595
 21
2.4912273132
  0
LINE
  5
380
100
AcDbEntity
  8
0
100
AcDbLine
 62
2
  6
CONTINUOUS
 10
13.1886868595
 20
2.515977327
 11
13.1886868595
 21
2.5672823554
  0
LINE
  5
381
100
AcDbEntity
  8
0
100
AcDbLine
 62
2
  6
CONTINUOUS
 10
13.1886868595
 20
2.5920323691
 11
13.1886868595
 21
2.7095222354
  0
LINE
  5
382
100
AcDbEntity
  8
0
100
AcDbLine
 62
2
  6
CONTINUOUS
 10
13.1686868484
 20
2.3699682418
 11
13.1686868484
 21
2.4912273132
  0
LINE
  5
383
100
AcDbEntity
  8
0
100
AcDbLine
 62
2
  6
CONTINUOUS
 10
13.1686868484
 20
2.515977327
 11
13.1686868484
 21
2.5672823554
  0
LINE
  5
384
100
AcDbEntity
  8
0
100
AcDbLine
 62
2
  6
CONTINUOUS
 10
13.1686868484
 20
2.5920323691
 11
13.1686868484
 21
2.7107884392
  0
LINE
  5
385
100
AcDbEntity
  8
0
100
AcDbLine
 62
2
  6
CONTINUOUS
 10
13.1486868373
 20
2.3687020381
 11
13.1486868373
 21
2.7120546429
  0
LINE
  5
386
100
AcDbEntity
  8
0
100
AcDbLine
 62
2
  6
CONTINUOUS
 10
13.1286868262
 20
2.3674358343
 11
13.1286868262
 21
2.5672823554
  0
LINE
  5
387
100
AcDbEntity
  8
0
100
AcDbLine
 62
2
  6
CONTINUOUS
 10
13.1286868262
 20
2.5920323691
 11
13.1286868262
 21
2.7133208466
  0
LINE
  5
388
100
AcDbEntity
  8
0
100
AcDbLine
 62
2
  6
CONTINUOUS
 10
13.1086868151
 20
2.3661696306
 11
13.1086868151
 21
2.4912273132
  0
LINE
  5
389
100
AcDbEntity
  8
0
100
AcDbLine
 62
2
  6
CONTINUOUS
 10
13.1086868151
 20
2.5920323691
 11
13.1086868151
 21
2.7145870504
  0
LINE
  5
38A
100
AcDbEntity
  8
0
100
AcDbLine
 62
2
  6
CONTINUOUS
 10
13.088686804
 20
2.3649034269
 11
13.088686804
 21
2.4912273132
  0
LINE
  5
38B
100
AcDbEntity
  8
0
100
AcDbLine
 62
2
  6
CONTINUOUS
 10
13.088686804
 20
2.5920323691
 11
13.088686804
 21
2.7158532541
  0
LINE
  5
38C
100
AcDbEntity
  8
0
100
AcDbLine
 62
2
  6
CONTINUOUS
 10
13.0686867929
 20
2.3636739922
 11
13.0686867929
 21
2.4912273132
  0
LINE
  5
38D
100
AcDbEntity
  8
0
100
AcDbLine
 62
2
  6
CONTINUOUS
 10
13.0686867929
 20
2.5475272398
 11
13.0686867929
 21
2.5672823554
  0
LINE
  5
38E
100
AcDbEntity
  8
0
100
AcDbLine
 62
2
  6
CONTINUOUS
 10
13.0686867929
 20
2.5920323691
 11
13.0686867929
 21
2.7170826887
  0
LINE
  5
38F
100
AcDbEntity
  8
0
100
AcDbLine
 62
2
  6
CONTINUOUS
 10
13.0486867818
 20
2.363143203
 11
13.0486867818
 21
2.4912273132
  0
LINE
  5
390
100
AcDbEntity
  8
0
100
AcDbLine
 62
2
  6
CONTINUOUS
 10
13.0486867818
 20
2.5666100882
 11
13.0486867818
 21
2.717613478
  0
LINE
  5
391
100
AcDbEntity
  8
0
100
AcDbLine
 62
2
  6
CONTINUOUS
 10
13.0286867707
 20
2.3626124138
 11
13.0286867707
 21
2.50359263
  0
LINE
  5
392
100
AcDbEntity
  8
0
100
AcDbLine
 62
2
  6
CONTINUOUS
 10
13.0286867707
 20
2.5856929366
 11
13.0286867707
 21
2.7181442672
  0
LINE
  5
393
100
AcDbEntity
  8
0
100
AcDbLine
 62
2
  6
CONTINUOUS
 10
13.0086867596
 20
2.3620816246
 11
13.0086867596
 21
2.5226754472
  0
LINE
  5
394
100
AcDbEntity
  8
0
100
AcDbLine
 62
2
  6
CONTINUOUS
 10
13.0086867596
 20
2.5920323691
 11
13.0086867596
 21
2.7186750564
  0
LINE
  5
395
100
AcDbEntity
  8
0
100
AcDbLine
 62
2
  6
CONTINUOUS
 10
12.9886867486
 20
2.3615508354
 11
12.9886867486
 21
2.4912273132
  0
LINE
  5
396
100
AcDbEntity
  8
0
100
AcDbLine
 62
2
  6
CONTINUOUS
 10
12.9886867486
 20
2.515977327
 11
12.9886867486
 21
2.5417582644
  0
LINE
  5
397
100
AcDbEntity
  8
0
100
AcDbLine
 62
2
  6
CONTINUOUS
 10
12.9886867486
 20
2.5920323691
 11
12.9886867486
 21
2.7192058456
  0
LINE
  5
398
100
AcDbEntity
  8
0
100
AcDbLine
 62
2
  6
CONTINUOUS
 10
12.9686867375
 20
2.3610200462
 11
12.9686867375
 21
2.4912273132
  0
LINE
  5
399
100
AcDbEntity
  8
0
100
AcDbLine
 62
2
  6
CONTINUOUS
 10
12.9686867375
 20
2.5920323691
 11
12.9686867375
 21
2.7197366348
  0
LINE
  5
39A
100
AcDbEntity
  8
0
100
AcDbLine
 62
2
  6
CONTINUOUS
 10
12.9486867264
 20
2.360489257
 11
12.9486867264
 21
2.4912273132
  0
LINE
  5
39B
100
AcDbEntity
  8
0
100
AcDbLine
 62
2
  6
CONTINUOUS
 10
12.9486867264
 20
2.5920323691
 11
12.9486867264
 21
2.720267424
  0
LINE
  5
39C
100
AcDbEntity
  8
0
100
AcDbLine
 62
2
  6
CONTINUOUS
 10
12.9286867153
 20
2.3602836008
 11
12.9286867153
 21
2.4912273132
  0
LINE
  5
39D
100
AcDbEntity
  8
0
100
AcDbLine
 62
2
  6
CONTINUOUS
 10
12.9286867153
 20
2.515977327
 11
12.9286867153
 21
2.5672823554
  0
LINE
  5
39E
100
AcDbEntity
  8
0
100
AcDbLine
 62
2
  6
CONTINUOUS
 10
12.9286867153
 20
2.5920323691
 11
12.9286867153
 21
2.7204730802
  0
LINE
  5
39F
100
AcDbEntity
  8
0
100
AcDbLine
 62
2
  6
CONTINUOUS
 10
12.9086867042
 20
2.3604597639
 11
12.9086867042
 21
2.7202969171
  0
LINE
  5
3A0
100
AcDbEntity
  8
0
100
AcDbLine
 62
2
  6
CONTINUOUS
 10
12.8886866931
 20
2.360635927
 11
12.8886866931
 21
2.5672823554
  0
LINE
  5
3A1
100
AcDbEntity
  8
0
100
AcDbLine
 62
2
  6
CONTINUOUS
 10
12.8886866931
 20
2.5920323691
 11
12.8886866931
 21
2.720120754
  0
LINE
  5
3A2
100
AcDbEntity
  8
0
100
AcDbLine
 62
2
  6
CONTINUOUS
 10
12.868686682
 20
2.3608120901
 11
12.868686682
 21
2.491232357
  0
LINE
  5
3A3
100
AcDbEntity
  8
0
100
AcDbLine
 62
2
  6
CONTINUOUS
 10
12.868686682
 20
2.5920323691
 11
12.868686682
 21
2.7199445909
  0
LINE
  5
3A4
100
AcDbEntity
  8
0
100
AcDbLine
 62
2
  6
CONTINUOUS
 10
12.8486866709
 20
2.3609882532
 11
12.8486866709
 21
2.4912273132
  0
LINE
  5
3A5
100
AcDbEntity
  8
0
100
AcDbLine
 62
2
  6
CONTINUOUS
 10
12.8486866709
 20
2.5920323691
 11
12.8486866709
 21
2.7197684278
  0
LINE
  5
3A6
100
AcDbEntity
  8
0
100
AcDbLine
 62
2
  6
CONTINUOUS
 10
12.8286866598
 20
2.3611644163
 11
12.8286866598
 21
2.4912273132
  0
LINE
  5
3A7
100
AcDbEntity
  8
0
100
AcDbLine
 62
2
  6
CONTINUOUS
 10
12.8286866598
 20
2.5396527025
 11
12.8286866598
 21
2.5672823554
  0
LINE
  5
3A8
100
AcDbEntity
  8
0
100
AcDbLine
 62
2
  6
CONTINUOUS
 10
12.8286866598
 20
2.5920323691
 11
12.8286866598
 21
2.7195922647
  0
LINE
  5
3A9
100
AcDbEntity
  8
0
100
AcDbLine
 62
2
  6
CONTINUOUS
 10
12.8086866487
 20
2.3613405794
 11
12.8086866487
 21
2.4912273132
  0
LINE
  5
3AA
100
AcDbEntity
  8
0
100
AcDbLine
 62
2
  6
CONTINUOUS
 10
12.8086866487
 20
2.5587355508
 11
12.8086866487
 21
2.7194161016
  0
LINE
  5
3AB
100
AcDbEntity
  8
0
100
AcDbLine
 62
2
  6
CONTINUOUS
 10
12.7886866376
 20
2.3621089572
 11
12.7886866376
 21
2.4957181055
  0
LINE
  5
3AC
100
AcDbEntity
  8
0
100
AcDbLine
 62
2
  6
CONTINUOUS
 10
12.7886866376
 20
2.5778183992
 11
12.7886866376
 21
2.7186477238
  0
LINE
  5
3AD
100
AcDbEntity
  8
0
100
AcDbLine
 62
2
  6
CONTINUOUS
 10
12.7686866266
 20
2.3630013935
 11
12.7686866266
 21
2.5148009227
  0
LINE
  5
3AE
100
AcDbEntity
  8
0
100
AcDbLine
 62
2
  6
CONTINUOUS
 10
12.7686866266
 20
2.5920323691
 11
12.7686866266
 21
2.7177552874
  0
LINE
  5
3AF
100
AcDbEntity
  8
0
100
AcDbLine
 62
2
  6
CONTINUOUS
 10
12.7486866155
 20
2.3638938299
 11
12.7486866155
 21
2.4913263218
  0
LINE
  5
3B0
100
AcDbEntity
  8
0
100
AcDbLine
 62
2
  6
CONTINUOUS
 10
12.7486866155
 20
2.5158783184
 11
12.7486866155
 21
2.5338837399
  0
LINE
  5
3B1
100
AcDbEntity
  8
0
100
AcDbLine
 62
2
  6
CONTINUOUS
 10
12.7486866155
 20
2.5920323691
 11
12.7486866155
 21
2.7168628511
  0
LINE
  5
3B2
100
AcDbEntity
  8
0
100
AcDbLine
 62
2
  6
CONTINUOUS
 10
12.7286866044
 20
2.3647862663
 11
12.7286866044
 21
2.4912273132
  0
LINE
  5
3B3
100
AcDbEntity
  8
0
100
AcDbLine
 62
2
  6
CONTINUOUS
 10
12.7286866044
 20
2.515977327
 11
12.7286866044
 21
2.5527601554
  0
LINE
  5
3B4
100
AcDbEntity
  8
0
100
AcDbLine
 62
2
  6
CONTINUOUS
 10
12.7286866044
 20
2.5920323691
 11
12.7286866044
 21
2.7159704147
  0
LINE
  5
3B5
100
AcDbEntity
  8
0
100
AcDbLine
 62
2
  6
CONTINUOUS
 10
12.7086865933
 20
2.3656787026
 11
12.7086865933
 21
2.4912273132
  0
LINE
  5
3B6
100
AcDbEntity
  8
0
100
AcDbLine
 62
2
  6
CONTINUOUS
 10
12.7086865933
 20
2.5920323691
 11
12.7086865933
 21
2.7150779784
  0
LINE
  5
3B7
100
AcDbEntity
  8
0
100
AcDbLine
 62
2
  6
CONTINUOUS
 10
12.6886865822
 20
2.366571139
 11
12.6886865822
 21
2.4912273132
  0
LINE
  5
3B8
100
AcDbEntity
  8
0
100
AcDbLine
 62
2
  6
CONTINUOUS
 10
12.6886865822
 20
2.515977327
 11
12.6886865822
 21
2.5672823554
  0
LINE
  5
3B9
100
AcDbEntity
  8
0
100
AcDbLine
 62
2
  6
CONTINUOUS
 10
12.6886865822
 20
2.5920323691
 11
12.6886865822
 21
2.714185542
  0
LINE
  5
3BA
100
AcDbEntity
  8
0
100
AcDbLine
 62
2
  6
CONTINUOUS
 10
12.6686865711
 20
2.3677104027
 11
12.6686865711
 21
2.7130462783
  0
LINE
  5
3BB
100
AcDbEntity
  8
0
100
AcDbLine
 62
2
  6
CONTINUOUS
 10
12.64868656
 20
2.3693682721
 11
12.64868656
 21
2.7113884089
  0
LINE
  5
3BC
100
AcDbEntity
  8
0
100
AcDbLine
 62
2
  6
CONTINUOUS
 10
12.6286865489
 20
2.3710261415
 11
12.6286865489
 21
2.4912273132
  0
LINE
  5
3BD
100
AcDbEntity
  8
0
100
AcDbLine
 62
2
  6
CONTINUOUS
 10
12.6286865489
 20
2.515977327
 11
12.6286865489
 21
2.7097305395
  0
LINE
  5
3BE
100
AcDbEntity
  8
0
100
AcDbLine
 62
2
  6
CONTINUOUS
 10
12.6086865378
 20
2.372684011
 11
12.6086865378
 21
2.4912273132
  0
LINE
  5
3BF
100
AcDbEntity
  8
0
100
AcDbLine
 62
2
  6
CONTINUOUS
 10
12.6086865378
 20
2.5351122279
 11
12.6086865378
 21
2.70807267
  0
LINE
  5
3C0
100
AcDbEntity
  8
0
100
AcDbLine
 62
2
  6
CONTINUOUS
 10
12.5886865267
 20
2.3743418804
 11
12.5886865267
 21
2.4912273132
  0
LINE
  5
3C1
100
AcDbEntity
  8
0
100
AcDbLine
 62
2
  6
CONTINUOUS
 10
12.5886865267
 20
2.5660172622
 11
12.5886865267
 21
2.7064148006
  0
LINE
  5
3C2
100
AcDbEntity
  8
0
100
AcDbLine
 62
2
  6
CONTINUOUS
 10
12.5686865156
 20
2.3759997498
 11
12.5686865156
 21
2.4912273132
  0
LINE
  5
3C3
100
AcDbEntity
  8
0
100
AcDbLine
 62
2
  6
CONTINUOUS
 10
12.5686865156
 20
2.5920323691
 11
12.5686865156
 21
2.7047569312
  0
LINE
  5
3C4
100
AcDbEntity
  8
0
100
AcDbLine
 62
2
  6
CONTINUOUS
 10
12.5486865045
 20
2.3777575277
 11
12.5486865045
 21
2.4912273132
  0
LINE
  5
3C5
100
AcDbEntity
  8
0
100
AcDbLine
 62
2
  6
CONTINUOUS
 10
12.5486865045
 20
2.515977327
 11
12.5486865045
 21
2.5275118824
  0
LINE
  5
3C6
100
AcDbEntity
  8
0
100
AcDbLine
 62
2
  6
CONTINUOUS
 10
12.5486865045
 20
2.5920323691
 11
12.5486865045
 21
2.7029991533
  0
LINE
  5
3C7
100
AcDbEntity
  8
0
100
AcDbLine
 62
2
  6
CONTINUOUS
 10
12.5286864935
 20
2.3802813811
 11
12.5286864935
 21
2.5296213345
  0
LINE
  5
3C8
100
AcDbEntity
  8
0
100
AcDbLine
 62
2
  6
CONTINUOUS
 10
12.5286864935
 20
2.5505713461
 11
12.5286864935
 21
2.5667383551
  0
LINE
  5
3C9
100
AcDbEntity
  8
0
100
AcDbLine
 62
2
  6
CONTINUOUS
 10
12.5286864935
 20
2.5920323691
 11
12.5286864935
 21
2.7004752999
  0
LINE
  5
3CA
100
AcDbEntity
  8
0
100
AcDbLine
 62
2
  6
CONTINUOUS
 10
12.5086864824
 20
2.3828052346
 11
12.5086864824
 21
2.4912273132
  0
LINE
  5
3CB
100
AcDbEntity
  8
0
100
AcDbLine
 62
2
  6
CONTINUOUS
 10
12.5086864824
 20
2.515977327
 11
12.5086864824
 21
2.5279667721
  0
LINE
  5
3CC
100
AcDbEntity
  8
0
100
AcDbLine
 62
2
  6
CONTINUOUS
 10
12.5086864824
 20
2.5868602074
 11
12.5086864824
 21
2.6979514464
  0
LINE
  5
3CD
100
AcDbEntity
  8
0
100
AcDbLine
 62
2
  6
CONTINUOUS
 10
12.4886864713
 20
2.385329088
 11
12.4886864713
 21
2.4912273132
  0
LINE
  5
3CE
100
AcDbEntity
  8
0
100
AcDbLine
 62
2
  6
CONTINUOUS
 10
12.4886864713
 20
2.5553401045
 11
12.4886864713
 21
2.695427593
  0
LINE
  5
3CF
100
AcDbEntity
  8
0
100
AcDbLine
 62
2
  6
CONTINUOUS
 10
12.4686864602
 20
2.3878529415
 11
12.4686864602
 21
2.4912273132
  0
LINE
  5
3D0
100
AcDbEntity
  8
0
100
AcDbLine
 62
2
  6
CONTINUOUS
 10
12.4686864602
 20
2.5238200015
 11
12.4686864602
 21
2.6929037395
  0
LINE
  5
3D1
100
AcDbEntity
  8
0
100
AcDbLine
 62
2
  6
CONTINUOUS
 10
12.4486864491
 20
2.390376795
 11
12.4486864491
 21
2.4912273132
  0
LINE
  5
3D2
100
AcDbEntity
  8
0
100
AcDbLine
 62
2
  6
CONTINUOUS
 10
12.4486864491
 20
2.515977327
 11
12.4486864491
 21
2.690379886
  0
LINE
  5
3D3
100
AcDbEntity
  8
0
100
AcDbLine
 62
2
  6
CONTINUOUS
 10
12.428686438
 20
2.3931794042
 11
12.428686438
 21
2.6875772768
  0
LINE
  5
3D4
100
AcDbEntity
  8
0
100
AcDbLine
 62
2
  6
CONTINUOUS
 10
12.4086864269
 20
2.3964643301
 11
12.4086864269
 21
2.5013773986
  0
LINE
  5
3D5
100
AcDbEntity
  8
0
100
AcDbLine
 62
2
  6
CONTINUOUS
 10
12.4086864269
 20
2.5325739971
 11
12.4086864269
 21
2.5537224311
  0
LINE
  5
3D6
100
AcDbEntity
  8
0
100
AcDbLine
 62
2
  6
CONTINUOUS
 10
12.4086864269
 20
2.5791473398
 11
12.4086864269
 21
2.6842923509
  0
LINE
  5
3D7
100
AcDbEntity
  8
0
100
AcDbLine
 62
2
  6
CONTINUOUS
 10
12.3886864158
 20
2.399749256
 11
12.3886864158
 21
2.4921022658
  0
LINE
  5
3D8
100
AcDbEntity
  8
0
100
AcDbLine
 62
2
  6
CONTINUOUS
 10
12.3886864158
 20
2.5895929958
 11
12.3886864158
 21
2.681007425
  0
LINE
  5
3D9
100
AcDbEntity
  8
0
100
AcDbLine
 62
2
  6
CONTINUOUS
 10
12.3686864047
 20
2.403451877
 11
12.3686864047
 21
2.4912273132
  0
LINE
  5
3DA
100
AcDbEntity
  8
0
100
AcDbLine
 62
2
  6
CONTINUOUS
 10
12.3686864047
 20
2.5920323691
 11
12.3686864047
 21
2.677304804
  0
LINE
  5
3DB
100
AcDbEntity
  8
0
100
AcDbLine
 62
2
  6
CONTINUOUS
 10
12.3486863936
 20
2.407324637
 11
12.3486863936
 21
2.4912273132
  0
LINE
  5
3DC
100
AcDbEntity
  8
0
100
AcDbLine
 62
2
  6
CONTINUOUS
 10
12.3486863936
 20
2.5920323691
 11
12.3486863936
 21
2.673432044
  0
LINE
  5
3DD
100
AcDbEntity
  8
0
100
AcDbLine
 62
2
  6
CONTINUOUS
 10
12.3286863825
 20
2.4113493968
 11
12.3286863825
 21
2.4912273132
  0
LINE
  5
3DE
100
AcDbEntity
  8
0
100
AcDbLine
 62
2
  6
CONTINUOUS
 10
12.3286863825
 20
2.515977327
 11
12.3286863825
 21
2.5333023366
  0
LINE
  5
3DF
100
AcDbEntity
  8
0
100
AcDbLine
 62
2
  6
CONTINUOUS
 10
12.3286863825
 20
2.5499573458
 11
12.3286863825
 21
2.5672823554
  0
LINE
  5
3E0
100
AcDbEntity
  8
0
100
AcDbLine
 62
2
  6
CONTINUOUS
 10
12.3286863825
 20
2.5920323691
 11
12.3286863825
 21
2.6694072842
  0
LINE
  5
3E1
100
AcDbEntity
  8
0
100
AcDbLine
 62
2
  6
CONTINUOUS
 10
12.3086863715
 20
2.4159005505
 11
12.3086863715
 21
2.4912273132
  0
LINE
  5
3E2
100
AcDbEntity
  8
0
100
AcDbLine
 62
2
  6
CONTINUOUS
 10
12.3086863715
 20
2.515977327
 11
12.3086863715
 21
2.5333023366
  0
LINE
  5
3E3
100
AcDbEntity
  8
0
100
AcDbLine
 62
2
  6
CONTINUOUS
 10
12.3086863715
 20
2.5499573458
 11
12.3086863715
 21
2.5672823554
  0
LINE
  5
3E4
100
AcDbEntity
  8
0
100
AcDbLine
 62
2
  6
CONTINUOUS
 10
12.3086863715
 20
2.5920323691
 11
12.3086863715
 21
2.6648561305
  0
LINE
  5
3E5
100
AcDbEntity
  8
0
100
AcDbLine
 62
2
  6
CONTINUOUS
 10
12.2886863604
 20
2.4204517041
 11
12.2886863604
 21
2.4912273132
  0
LINE
  5
3E6
100
AcDbEntity
  8
0
100
AcDbLine
 62
2
  6
CONTINUOUS
 10
12.2886863604
 20
2.5920323691
 11
12.2886863604
 21
2.6603049769
  0
LINE
  5
3E7
100
AcDbEntity
  8
0
100
AcDbLine
 62
2
  6
CONTINUOUS
 10
12.2686863493
 20
2.4257438218
 11
12.2686863493
 21
2.4912273132
  0
LINE
  5
3E8
100
AcDbEntity
  8
0
100
AcDbLine
 62
2
  6
CONTINUOUS
 10
12.2686863493
 20
2.5920323691
 11
12.2686863493
 21
2.6550128592
  0
LINE
  5
3E9
100
AcDbEntity
  8
0
100
AcDbLine
 62
2
  6
CONTINUOUS
 10
12.2486863382
 20
2.4310978667
 11
12.2486863382
 21
2.4912273132
  0
LINE
  5
3EA
100
AcDbEntity
  8
0
100
AcDbLine
 62
2
  6
CONTINUOUS
 10
12.2486863382
 20
2.5920323691
 11
12.2486863382
 21
2.6496588142
  0
LINE
  5
3EB
100
AcDbEntity
  8
0
100
AcDbLine
 62
2
  6
CONTINUOUS
 10
12.2286863271
 20
2.4372566433
 11
12.2286863271
 21
2.4912273132
  0
LINE
  5
3EC
100
AcDbEntity
  8
0
100
AcDbLine
 62
2
  6
CONTINUOUS
 10
12.2286863271
 20
2.515977327
 11
12.2286863271
 21
2.5672823554
  0
LINE
  5
3ED
100
AcDbEntity
  8
0
100
AcDbLine
 62
2
  6
CONTINUOUS
 10
12.2286863271
 20
2.5920323691
 11
12.2286863271
 21
2.6435000377
  0
LINE
  5
3EE
100
AcDbEntity
  8
0
100
AcDbLine
 62
2
  6
CONTINUOUS
 10
12.208686316
 20
2.443589771
 11
12.208686316
 21
2.4912273132
  0
LINE
  5
3EF
100
AcDbEntity
  8
0
100
AcDbLine
 62
2
  6
CONTINUOUS
 10
12.208686316
 20
2.515977327
 11
12.208686316
 21
2.5672823554
  0
LINE
  5
3F0
100
AcDbEntity
  8
0
100
AcDbLine
 62
2
  6
CONTINUOUS
 10
12.208686316
 20
2.5920323691
 11
12.208686316
 21
2.63716691
  0
LINE
  5
3F1
100
AcDbEntity
  8
0
100
AcDbLine
 62
2
  6
CONTINUOUS
 10
12.1886863049
 20
2.4510806436
 11
12.1886863049
 21
2.6296760373
  0
LINE
  5
3F2
100
AcDbEntity
  8
0
100
AcDbLine
 62
2
  6
CONTINUOUS
 10
12.1686862938
 20
2.4591016523
 11
12.1686862938
 21
2.6216550287
  0
LINE
  5
3F3
100
AcDbEntity
  8
0
100
AcDbLine
 62
2
  6
CONTINUOUS
 10
12.1486862827
 20
2.468314272
 11
12.1486862827
 21
2.612442409
  0
LINE
  5
3F4
100
AcDbEntity
  8
0
100
AcDbLine
 62
2
  6
CONTINUOUS
 10
12.1286862716
 20
2.4794932339
 11
12.1286862716
 21
2.601263447
  0
LINE
  5
3F5
100
AcDbEntity
  8
0
100
AcDbLine
 62
2
  6
CONTINUOUS
 10
12.1086862605
 20
2.4934150665
 11
12.1086862605
 21
2.5873416144
  0
LINE
  5
3F6
100
AcDbEntity
  8
0
100
AcDbLine
 62
2
  6
CONTINUOUS
 10
12.0886862494
 20
2.5144449553
 11
12.0886862494
 21
2.5663117257
  0
ENDBLK
  5
3F7
100
AcDbEntity
  8
0
  6
BYBLOCK
 62
0
100
AcDbBlockEnd
  0
BLOCK
  5
3F8
100
AcDbEntity
  8
0
100
AcDbBlockBegin
  2
_FILLED
 70
64
 10
0.0
 20
0.0
  3
_FILLED
  1

  0
SOLID
  5
3F9
100
AcDbEntity
  8
0
  6
BYBLOCK
 62
0
100
AcDbTrace
 10
0.0
 20
0.0
 11
-1.0
 21
0.1666666667
 12
-1.0
 22
-0.1666666667
 13
-1.0
 23
-0.1666666667
  0
ENDBLK
  5
3FA
100
AcDbEntity
  8
0
  6
BYBLOCK
 62
0
100
AcDbBlockEnd
  0
BLOCK
  5
3FB
100
AcDbEntity
  8
SCHEME_DIMS
100
AcDbBlockBegin
 62
2
  6
CONTINUOUS
  2
*D0
 70
65
 10
0.0
 20
0.0
  3
*D0
  1

  0
MTEXT
  5
3FC
100
AcDbEntity
  8
SCHEME_DIMS
100
AcDbMText
 62
2
  6
CONTINUOUS
  7
TEXTSTYLE_5
 71
1
 72
1
 10
3.8998140382
 20
6.1577384955
 30
0.0
 11
1.0
 21
0.0
 31
0.0
 44
0.9
  1
{\Fgdt;n}\Ftxt;30\P[1.1811]
 40
0.1
 41
0.8
  0
LINE
  5
3FD
100
AcDbEntity
  8
SCHEME_DIMS
100
AcDbLine
 62
2
  6
CONTINUOUS
 10
3.3548918718
 20
5.8318369553
 11
3.0646693417
 21
5.3175203402
  0
LINE
  5
3FE
100
AcDbEntity
  8
SCHEME_DIMS
100
AcDbLine
 62
2
  6
CONTINUOUS
 10
3.0646693417
 20
5.3175203402
 11
3.5105797121
 21
6.1077384955
  0
LINE
  5
3FF
100
AcDbEntity
  8
SCHEME_DIMS
100
AcDbLine
 62
2
  6
CONTINUOUS
 10
3.5105797121
 20
6.1077384955
 11
3.7998140382
 21
6.1077384955
  0
LINE
  5
400
100
AcDbEntity
  8
SCHEME_DIMS
100
AcDbLine
 62
2
  6
CONTINUOUS
 10
2.7744468116
 20
4.8032037252
 11
3.0646693417
 21
5.3175203402
  0
INSERT
  5
401
100
AcDbEntity
  8
SCHEME_DIMS
100
AcDbBlockReference
 62
2
  6
CONTINUOUS
  2
_FILLED
 10
3.3548918718
 20
5.8318369553
 41
0.1875
 42
0.1875
 43
0.1875
 50
60.5644981642
  0
INSERT
  5
402
100
AcDbEntity
  8
SCHEME_DIMS
100
AcDbBlockReference
 62
2
  6
CONTINUOUS
  2
_FILLED
 10
2.7744468116
 20
4.8032037252
 41
0.1875
 42
0.1875
 43
0.1875
 50
240.5644981642
  0
ENDBLK
  5
403
100
AcDbEntity
  8
0
  6
BYBLOCK
 62
0
100
AcDbBlockEnd
  0
BLOCK
  5
404
100
AcDbEntity
  8
SCHEME_DIMS
100
AcDbBlockBegin
 62
2
  6
CONTINUOUS
  2
*D1
 70
65
 10
0.0
 20
0.0
  3
*D1
  1

  0
MTEXT
  5
405
100
AcDbEntity
  8
SCHEME_DIMS
100
AcDbMText
 62
2
  6
CONTINUOUS
  7
STANDARD
 71
2
 72
1
 10
6.1754595796
 20
4.4010569606
 30
0.0
 11
1.0
 21
0.0
 31
0.0
 44
0.9
  1
27\P[1.06]
 40
0.1
 41
0.6
  0
LINE
  5
406
100
AcDbEntity
  8
SCHEME_DIMS
100
AcDbLine
 62
2
  6
CONTINUOUS
 10
6.7939710272
 20
4.703839238
 11
6.7939710272
 21
4.2260569606
  0
LINE
  5
407
100
AcDbEntity
  8
SCHEME_DIMS
100
AcDbLine
 62
2
  6
CONTINUOUS
 10
5.7309789012
 20
5.2550203402
 11
5.7309789012
 21
4.2260569606
  0
LINE
  5
408
100
AcDbEntity
  8
SCHEME_DIMS
100
AcDbLine
 62
2
  6
CONTINUOUS
 10
6.7939710272
 20
4.3510569606
 11
7.1939710272
 21
4.3510569606
  0
LINE
  5
409
100
AcDbEntity
  8
SCHEME_DIMS
100
AcDbLine
 62
2
  6
CONTINUOUS
 10
5.7309789012
 20
4.3510569606
 11
5.3309789012
 21
4.3510569606
  0
INSERT
  5
40A
100
AcDbEntity
  8
SCHEME_DIMS
100
AcDbBlockReference
 62
2
  6
CONTINUOUS
  2
_FILLED
 10
6.7939710272
 20
4.3510569606
 41
0.1875
 42
0.1875
 43
0.1875
 50
180.0
  0
INSERT
  5
40B
100
AcDbEntity
  8
SCHEME_DIMS
100
AcDbBlockReference
 62
2
  6
CONTINUOUS
  2
_FILLED
 10
5.7309789012
 20
4.3510569606
 41
0.1875
 42
0.1875
 43
0.1875
  0
ENDBLK
  5
40C
100
AcDbEntity
  8
0
  6
BYBLOCK
 62
0
100
AcDbBlockEnd
  0
BLOCK
  5
40D
100
AcDbEntity
  8
SCHEME_DIMS
100
AcDbBlockBegin
 62
2
  6
CONTINUOUS
  2
*D2
 70
65
 10
0.0
 20
0.0
  3
*D2
  1

  0
MTEXT
  5
40E
100
AcDbEntity
  8
SCHEME_DIMS
100
AcDbMText
 62
2
  6
CONTINUOUS
  7
STANDARD
 71
2
 72
1
 10
6.3577505547
 20
8.6016131144
 30
0.0
 11
1.0
 21
0.0
 31
0.0
 44
0.9
  1
42\P[1.65]
 40
0.1
 41
0.6
  0
LINE
  5
40F
100
AcDbEntity
  8
SCHEME_DIMS
100
AcDbLine
 62
2
  6
CONTINUOUS
 10
7.3845222083
 20
7.9178602205
 11
7.3845222083
 21
8.6766131144
  0
LINE
  5
410
100
AcDbEntity
  8
SCHEME_DIMS
100
AcDbLine
 62
2
  6
CONTINUOUS
 10
5.7309789012
 20
7.5635295118
 11
5.7309789012
 21
8.6766131144
  0
LINE
  5
411
100
AcDbEntity
  8
SCHEME_DIMS
100
AcDbLine
 62
2
  6
CONTINUOUS
 10
7.3845222083
 20
8.5516131144
 11
6.9577505547
 21
8.5516131144
  0
LINE
  5
412
100
AcDbEntity
  8
SCHEME_DIMS
100
AcDbLine
 62
2
  6
CONTINUOUS
 10
5.7309789012
 20
8.5516131144
 11
6.1577505547
 21
8.5516131144
  0
INSERT
  5
413
100
AcDbEntity
  8
SCHEME_DIMS
100
AcDbBlockReference
 62
2
  6
CONTINUOUS
  2
_FILLED
 10
7.3845222083
 20
8.5516131144
 41
0.1875
 42
0.1875
 43
0.1875
  0
INSERT
  5
414
100
AcDbEntity
  8
SCHEME_DIMS
100
AcDbBlockReference
 62
2
  6
CONTINUOUS
  2
_FILLED
 10
5.7309789012
 20
8.5516131144
 41
0.1875
 42
0.1875
 43
0.1875
 50
180.0
  0
ENDBLK
  5
415
100
AcDbEntity
  8
0
  6
BYBLOCK
 62
0
100
AcDbBlockEnd
  0
BLOCK
  5
416
100
AcDbEntity
  8
SCHEME_DIMS
100
AcDbBlockBegin
 62
2
  6
CONTINUOUS
  2
*D3
 70
65
 10
0.0
 20
0.0
  3
*D3
  1

  0
MTEXT
  5
417
100
AcDbEntity
  8
SCHEME_DIMS
100
AcDbMText
 62
2
  6
CONTINUOUS
  7
STANDARD
 71
2
 72
1
 10
6.5077505547
 20
9.1259051854
 30
0.0
 11
1.0
 21
0.0
 31
0.0
 44
0.9
  1
44,5\P[1.75]
 40
0.1
 41
0.6
  0
LINE
  5
418
100
AcDbEntity
  8
SCHEME_DIMS
100
AcDbLine
 62
2
  6
CONTINUOUS
 10
7.4845222083
 20
7.8246619984
 11
7.4845222083
 21
9.2009051854
  0
LINE
  5
419
100
AcDbEntity
  8
SCHEME_DIMS
100
AcDbLine
 62
2
  6
CONTINUOUS
 10
5.7309789012
 20
7.5635295118
 11
5.7309789012
 21
9.2009051854
  0
LINE
  5
41A
100
AcDbEntity
  8
SCHEME_DIMS
100
AcDbLine
 62
2
  6
CONTINUOUS
 10
7.4845222083
 20
9.0759051854
 11
7.0077505547
 21
9.0759051854
  0
LINE
  5
41B
100
AcDbEntity
  8
SCHEME_DIMS
100
AcDbLine
 62
2
  6
CONTINUOUS
 10
5.7309789012
 20
9.0759051854
 11
6.2077505547
 21
9.0759051854
  0
INSERT
  5
41C
100
AcDbEntity
  8
SCHEME_DIMS
100
AcDbBlockReference
 62
2
  6
CONTINUOUS
  2
_FILLED
 10
7.4845222083
 20
9.0759051854
 41
0.1875
 42
0.1875
 43
0.1875
  0
INSERT
  5
41D
100
AcDbEntity
  8
SCHEME_DIMS
100
AcDbBlockReference
 62
2
  6
CONTINUOUS
  2
_FILLED
 10
5.7309789012
 20
9.0759051854
 41
0.1875
 42
0.1875
 43
0.1875
 50
180.0
  0
ENDBLK
  5
41E
100
AcDbEntity
  8
0
  6
BYBLOCK
 62
0
100
AcDbBlockEnd
  0
ENDSEC
  0
SECTION
  2
ENTITIES
  0
MTEXT
  5
41F
100
AcDbEntity
  8
0
100
AcDbMText
 62
2
  6
CONTINUOUS
  7
TEXTSTYLE_2
 71
2
 72
1
 10
11.0287658475
 20
1.794867839
 30
0.0
 11
1.0
 21
0.0
 31
0.0
 44
0.9
  1
THIRD ANGLE PROJECTION
 40
0.1
 41
1.76
  0
MTEXT
  5
420
100
AcDbEntity
  8
0
100
AcDbMText
 62
2
  6
CONTINUOUS
  7
STANDARD
 71
1
 72
1
 10
12.88
 20
1.457
 30
0.0
 11
1.0
 21
0.0
 31
0.0
 44
0.9
  1
DRAWING NO.
 40
0.08
 41
0.88
  0
MTEXT
  5
421
100
AcDbEntity
  8
0
100
AcDbMText
 62
2
  6
CONTINUOUS
  7
TEXTSTYLE_3
 71
2
 72
1
 10
11.03
 20
2.516432
 30
0.0
 11
1.0
 21
0.0
 31
0.0
 44
0.9
  1
and is proprietary in general
 40
0.08
 41
1.972
  0
MTEXT
  5
422
100
AcDbEntity
  8
0
100
AcDbMText
 62
2
  6
CONTINUOUS
  7
TEXTSTYLE_3
 71
2
 72
1
 10
11.03
 20
2.396432
 30
0.0
 11
1.0
 21
0.0
 31
0.0
 44
0.9
  1
and in detail.  Its contents
 40
0.08
 41
1.904
  0
MTEXT
  5
423
100
AcDbEntity
  8
0
100
AcDbMText
 62
2
  6
CONTINUOUS
  7
TEXTSTYLE_3
 71
2
 72
1
 10
11.03
 20
2.276432
 30
0.0
 11
1.0
 21
0.0
 31
0.0
 44
0.9
  1
shall not be revealed to
 40
0.08
 41
1.632
  0
MTEXT
  5
424
100
AcDbEntity
  8
0
100
AcDbMText
 62
2
  6
CONTINUOUS
  7
TEXTSTYLE_3
 71
2
 72
1
 10
11.03
 20
2.156432
 30
0.0
 11
1.0
 21
0.0
 31
0.0
 44
0.9
  1
outside parties without
 40
0.08
 41
1.564
  0
MTEXT
  5
425
100
AcDbEntity
  8
0
100
AcDbMText
 62
2
  6
CONTINUOUS
  7
TEXTSTYLE_3
 71
2
 72
1
 10
11.03
 20
2.036432
 30
0.0
 11
1.0
 21
0.0
 31
0.0
 44
0.9
  1
written consent of BANNER.
 40
0.08
 41
1.768
  0
MTEXT
  5
426
100
AcDbEntity
  8
0
100
AcDbMText
 62
2
  6
CONTINUOUS
  7
TEXTSTYLE_2
 71
1
 72
1
 10
12.08
 20
2.217
 30
0.0
 11
1.0
 21
0.0
 31
0.0
 44
0.9
  1
TITLE
 40
0.1
 41
0.4
  0
MTEXT
  5
427
100
AcDbEntity
  8
0
100
AcDbMText
 62
2
  6
CONTINUOUS
  7
STANDARD
 71
1
 72
1
 10
12.08
 20
1.457
 30
0.0
 11
1.0
 21
0.0
 31
0.0
 44
0.9
  1
SIZE
 40
0.08
 41
0.32
  0
MTEXT
  5
428
100
AcDbEntity
  8
0
100
AcDbMText
 62
2
  6
CONTINUOUS
  7
STANDARD
 71
1
 72
1
 10
12.08
 20
1.087
 30
0.0
 11
1.0
 21
0.0
 31
0.0
 44
0.9
  1
SCALE
 40
0.08
 41
0.4
  0
MTEXT
  5
429
100
AcDbEntity
  8
0
100
AcDbMText
 62
2
  6
CONTINUOUS
  7
TEXTSTYLE_2
 71
2
 72
1
 10
12.5
 20
1.337
 30
0.0
 11
1.0
 21
0.0
 31
0.0
 44
0.9
  1
B
 40
0.1
 41
0.08
  0
MTEXT
  5
42A
100
AcDbEntity
  8
0
100
AcDbMText
 62
2
  6
CONTINUOUS
  7
TEXTSTYLE_3
 71
2
 72
1
 10
11.03
 20
2.636432
 30
0.0
 11
1.0
 21
0.0
 31
0.0
 44
0.9
  1
of BANNER ENGINEERING CORP.
 40
0.08
 41
1.836
  0
MTEXT
  5
42B
100
AcDbEntity
  8
0
100
AcDbMText
 62
2
  6
CONTINUOUS
  7
TEXTSTYLE_3
 71
2
 72
1
 10
11.03
 20
2.756432
 30
0.0
 11
1.0
 21
0.0
 31
0.0
 44
0.9
  1
This drawing is the property
 40
0.08
 41
1.904
  0
MTEXT
  5
42C
100
AcDbEntity
  8
0
100
AcDbMText
 62
2
  6
CONTINUOUS
  7
TEXTSTYLE_2
 71
2
 72
1
 10
15.03
 20
2.4134
 30
0.0
 11
1.0
 21
0.0
 31
0.0
 44
0.9
  1
MINNEAPOLIS, MN 55440
 40
0.1
 41
1.68
  0
MTEXT
  5
42D
100
AcDbEntity
  8
0
100
AcDbMText
 62
2
  6
CONTINUOUS
  7
STANDARD
 71
1
 72
1
 10
14.255
 20
1.087
 30
0.0
 11
1.0
 21
0.0
 31
0.0
 44
0.9
  1
SHEET
 40
0.08
 41
0.4
  0
MTEXT
  5
42E
100
AcDbEntity
  8
0
100
AcDbMText
 62
2
  6
CONTINUOUS
  7
STANDARD
 71
1
 72
1
 10
15.63
 20
1.457
 30
0.0
 11
1.0
 21
0.0
 31
0.0
 44
0.9
  1
REV.
 40
0.08
 41
0.32
  0
MTEXT
  5
42F
100
AcDbEntity
  8
0
100
AcDbMText
 62
2
  6
CONTINUOUS
  7
STANDARD
 71
3
 72
1
 10
16.38
 20
0.835443
 30
0.0
 11
1.0
 21
0.0
 31
0.0
 44
0.9
  1
PRO/E
 40
0.07
 41
0.35
  0
MTEXT
  5
430
100
AcDbEntity
  8
0
100
AcDbMText
 62
2
  6
CONTINUOUS
  7
TEXTSTYLE_4
 71
2
 72
1
 10
15.03
 20
2.751049
 30
0.0
 11
1.0
 21
0.0
 31
0.0
 44
0.9
  1
BANNER ENGINEERING CORP.
 40
0.12
 41
2.6496
  0
MTEXT
  5
431
100
AcDbEntity
  8
0
100
AcDbMText
 62
2
  6
CONTINUOUS
  7
TEXTSTYLE_2
 71
2
 72
1
 10
15.03
 20
2.5724
 30
0.0
 11
1.0
 21
0.0
 31
0.0
 44
0.9
  1
P.O. BOX 9414
 40
0.1
 41
1.04
  0
MTEXT
  5
432
100
AcDbEntity
  8
0
100
AcDbMText
 62
2
  6
CONTINUOUS
  7
TEXTSTYLE_2
 71
2
 72
1
 10
9.485
 20
10.312
 30
0.0
 11
1.0
 21
0.0
 31
0.0
 44
0.9
  1
4
 40
0.1
 41
0.08
  0
MTEXT
  5
433
100
AcDbEntity
  8
0
100
AcDbMText
 62
2
  6
CONTINUOUS
  7
TEXTSTYLE_2
 71
2
 72
1
 10
11.455
 20
10.312
 30
0.0
 11
1.0
 21
0.0
 31
0.0
 44
0.9
  1
3
 40
0.1
 41
0.08
  0
MTEXT
  5
434
100
AcDbEntity
  8
0
100
AcDbMText
 62
2
  6
CONTINUOUS
  7
TEXTSTYLE_2
 71
2
 72
1
 10
13.425
 20
10.312
 30
0.0
 11
1.0
 21
0.0
 31
0.0
 44
0.9
  1
2
 40
0.1
 41
0.08
  0
MTEXT
  5
435
100
AcDbEntity
  8
0
100
AcDbMText
 62
2
  6
CONTINUOUS
  7
TEXTSTYLE_2
 71
2
 72
1
 10
15.395
 20
10.312
 30
0.0
 11
1.0
 21
0.0
 31
0.0
 44
0.9
  1
1
 40
0.1
 41
0.08
  0
MTEXT
  5
436
100
AcDbEntity
  8
0
100
AcDbMText
 62
2
  6
CONTINUOUS
  7
TEXTSTYLE_2
 71
2
 72
1
 10
3.575
 20
10.312
 30
0.0
 11
1.0
 21
0.0
 31
0.0
 44
0.9
  1
7
 40
0.1
 41
0.08
  0
MTEXT
  5
437
100
AcDbEntity
  8
0
100
AcDbMText
 62
2
  6
CONTINUOUS
  7
TEXTSTYLE_2
 71
2
 72
1
 10
5.545
 20
10.312
 30
0.0
 11
1.0
 21
0.0
 31
0.0
 44
0.9
  1
6
 40
0.1
 41
0.08
  0
MTEXT
  5
438
100
AcDbEntity
  8
0
100
AcDbMText
 62
2
  6
CONTINUOUS
  7
TEXTSTYLE_2
 71
2
 72
1
 10
7.515
 20
10.312
 30
0.0
 11
1.0
 21
0.0
 31
0.0
 44
0.9
  1
5
 40
0.1
 41
0.08
  0
MTEXT
  5
439
100
AcDbEntity
  8
0
100
AcDbMText
 62
2
  6
CONTINUOUS
  7
TEXTSTYLE_2
 71
2
 72
1
 10
1.605
 20
10.312
 30
0.0
 11
1.0
 21
0.0
 31
0.0
 44
0.9
  1
8
 40
0.1
 41
0.08
  0
MTEXT
  5
43A
100
AcDbEntity
  8
0
100
AcDbMText
 62
2
  6
CONTINUOUS
  7
TEXTSTYLE_2
 71
2
 72
1
 10
1.605
 20
0.787
 30
0.0
 11
1.0
 21
0.0
 31
0.0
 44
0.9
  1
8
 40
0.1
 41
0.08
  0
MTEXT
  5
43B
100
AcDbEntity
  8
0
100
AcDbMText
 62
2
  6
CONTINUOUS
  7
TEXTSTYLE_2
 71
2
 72
1
 10
3.575
 20
0.787
 30
0.0
 11
1.0
 21
0.0
 31
0.0
 44
0.9
  1
7
 40
0.1
 41
0.08
  0
MTEXT
  5
43C
100
AcDbEntity
  8
0
100
AcDbMText
 62
2
  6
CONTINUOUS
  7
TEXTSTYLE_2
 71
2
 72
1
 10
5.545
 20
0.787
 30
0.0
 11
1.0
 21
0.0
 31
0.0
 44
0.9
  1
6
 40
0.1
 41
0.08
  0
MTEXT
  5
43D
100
AcDbEntity
  8
0
100
AcDbMText
 62
2
  6
CONTINUOUS
  7
TEXTSTYLE_2
 71
2
 72
1
 10
7.515
 20
0.787
 30
0.0
 11
1.0
 21
0.0
 31
0.0
 44
0.9
  1
5
 40
0.1
 41
0.08
  0
MTEXT
  5
43E
100
AcDbEntity
  8
0
100
AcDbMText
 62
2
  6
CONTINUOUS
  7
TEXTSTYLE_2
 71
2
 72
1
 10
9.485
 20
0.787
 30
0.0
 11
1.0
 21
0.0
 31
0.0
 44
0.9
  1
4
 40
0.1
 41
0.08
  0
MTEXT
  5
43F
100
AcDbEntity
  8
0
100
AcDbMText
 62
2
  6
CONTINUOUS
  7
TEXTSTYLE_2
 71
2
 72
1
 10
11.455
 20
0.787
 30
0.0
 11
1.0
 21
0.0
 31
0.0
 44
0.9
  1
3
 40
0.1
 41
0.08
  0
MTEXT
  5
440
100
AcDbEntity
  8
0
100
AcDbMText
 62
2
  6
CONTINUOUS
  7
TEXTSTYLE_2
 71
2
 72
1
 10
13.425
 20
0.787
 30
0.0
 11
1.0
 21
0.0
 31
0.0
 44
0.9
  1
2
 40
0.1
 41
0.08
  0
MTEXT
  5
441
100
AcDbEntity
  8
0
100
AcDbMText
 62
2
  6
CONTINUOUS
  7
TEXTSTYLE_2
 71
2
 72
1
 10
15.395
 20
0.787
 30
0.0
 11
1.0
 21
0.0
 31
0.0
 44
0.9
  1
1
 40
0.1
 41
0.08
  0
MTEXT
  5
442
100
AcDbEntity
  8
0
100
AcDbMText
 62
2
  6
CONTINUOUS
  7
TEXTSTYLE_2
 71
3
 72
1
 10
0.52
 20
4.3995
 30
0.0
 11
1.0
 21
0.0
 31
0.0
 44
0.9
  1
B
 40
0.1
 41
0.08
  0
MTEXT
  5
443
100
AcDbEntity
  8
0
100
AcDbMText
 62
2
  6
CONTINUOUS
  7
TEXTSTYLE_2
 71
3
 72
1
 10
0.52
 20
2.0995
 30
0.0
 11
1.0
 21
0.0
 31
0.0
 44
0.9
  1
A
 40
0.1
 41
0.08
  0
MTEXT
  5
444
100
AcDbEntity
  8
0
100
AcDbMText
 62
2
  6
CONTINUOUS
  7
TEXTSTYLE_2
 71
3
 72
1
 10
0.52
 20
8.9995
 30
0.0
 11
1.0
 21
0.0
 31
0.0
 44
0.9
  1
D
 40
0.1
 41
0.08
  0
MTEXT
  5
445
100
AcDbEntity
  8
0
100
AcDbMText
 62
2
  6
CONTINUOUS
  7
TEXTSTYLE_2
 71
3
 72
1
 10
0.52
 20
6.6995
 30
0.0
 11
1.0
 21
0.0
 31
0.0
 44
0.9
  1
C
 40
0.1
 41
0.08
  0
MTEXT
  5
446
100
AcDbEntity
  8
0
100
AcDbMText
 62
2
  6
CONTINUOUS
  7
TEXTSTYLE_2
 71
1
 72
1
 10
16.48
 20
8.9995
 30
0.0
 11
1.0
 21
0.0
 31
0.0
 44
0.9
  1
D
 40
0.1
 41
0.08
  0
MTEXT
  5
447
100
AcDbEntity
  8
0
100
AcDbMText
 62
2
  6
CONTINUOUS
  7
TEXTSTYLE_2
 71
1
 72
1
 10
16.48
 20
6.6995
 30
0.0
 11
1.0
 21
0.0
 31
0.0
 44
0.9
  1
C
 40
0.1
 41
0.08
  0
MTEXT
  5
448
100
AcDbEntity
  8
0
100
AcDbMText
 62
2
  6
CONTINUOUS
  7
TEXTSTYLE_2
 71
1
 72
1
 10
16.48
 20
4.3995
 30
0.0
 11
1.0
 21
0.0
 31
0.0
 44
0.9
  1
B
 40
0.1
 41
0.08
  0
MTEXT
  5
449
100
AcDbEntity
  8
0
100
AcDbMText
 62
2
  6
CONTINUOUS
  7
TEXTSTYLE_2
 71
1
 72
1
 10
16.48
 20
2.0995
 30
0.0
 11
1.0
 21
0.0
 31
0.0
 44
0.9
  1
A
 40
0.1
 41
0.08
  0
MTEXT
  5
44A
100
AcDbEntity
  8
0
100
AcDbMText
 62
2
  6
CONTINUOUS
  7
STANDARD
 71
1
 72
1
 10
14.819264911
 20
1.0627941725
 30
0.0
 11
1.0
 21
0.0
 31
0.0
 44
0.9
  1
1 OF 1
 40
0.1
 41
0.6
  0
MTEXT
  5
44B
100
AcDbEntity
  8
0
100
AcDbMText
 62
7
  6
CONTINUOUS
  7
STANDARD
 71
1
 72
1
 10
13.8911999818
 20
1.3747321586
 30
0.0
 11
1.0
 21
0.0
 31
0.0
 44
0.9
  1
152818
 40
0.12
 41
0.72
  0
MTEXT
  5
44C
100
AcDbEntity
  8
0
100
AcDbMText
 62
2
  6
CONTINUOUS
  7
STANDARD
 71
1
 72
1
 10
12.644264911
 20
1.0627941725
 30
0.0
 11
1.0
 21
0.0
 31
0.0
 44
0.9
  1
1:1
 40
0.1
 41
0.3
  0
MTEXT
  5
44D
100
AcDbEntity
  8
0
100
AcDbMText
 62
2
  6
CONTINUOUS
  7
STANDARD
 71
1
 72
1
 10
1.0597007627
 20
1.6202922458
 30
0.0
 11
1.0
 21
0.0
 31
0.0
 44
0.9
  1
NOTES:\P1. ALL DIMENSIONS ARE MILLIMETERS [INCHES] UNLESS OTHERWISE NOTED.
 40
0.1
 41
6.6
  0
INSERT
  5
44E
100
AcDbEntity
  8
0
100
AcDbBlockReference
 62
2
  6
CONTINUOUS
  2
BANNER_LOGO_TITLEBLOCK_BL0
 10
12.9086867042
 20
2.5403783405
  0
DIMENSION
  5
44F
100
AcDbEntity
  8
SCHEME_DIMS
100
AcDbDimension
 62
2
  6
CONTINUOUS
  2
*D0
 10
3.3548918718
 20
5.8318369553
 11
4.3664807049
 21
6.0327384955
 70
163
 71
1
 42
30.0
  1
<>
  3
DIMSTYLE_1
100
AcDbDiametricDimension
 15
2.7744468116
 25
4.8032037252
  0
DIMENSION
  5
450
100
AcDbEntity
  8
SCHEME_DIMS
100
AcDbDimension
 62
2
  6
CONTINUOUS
  2
*D1
 10
5.7309789012
 20
4.3510569606
 11
6.3004595796
 21
4.2760569606
 70
160
 71
2
 42
27.0
  3
DIMSTYLE_2
100
AcDbAlignedDimension
 13
6.7939710272
 23
4.703839238
 14
5.7309789012
 24
5.2550203402
 50
180.0
100
AcDbRotatedDimension
  0
DIMENSION
  5
451
100
AcDbEntity
  8
SCHEME_DIMS
100
AcDbDimension
 62
2
  6
CONTINUOUS
  2
*D2
 10
5.7309789012
 20
8.5516131144
 11
6.4827505547
 21
8.4766131144
 70
160
 71
2
 42
42.0
  3
DIMSTYLE_2
100
AcDbAlignedDimension
 13
7.3845222083
 23
7.9178602205
 14
5.7309789012
 24
7.5635295118
 50
180.0
100
AcDbRotatedDimension
  0
DIMENSION
  5
452
100
AcDbEntity
  8
SCHEME_DIMS
100
AcDbDimension
 62
2
  6
CONTINUOUS
  2
*D3
 10
5.7309789012
 20
9.0759051854
 11
6.4827505547
 21
9.0009051854
 70
160
 71
2
 42
44.54
  3
DIMSTYLE_2
100
AcDbAlignedDimension
 13
7.4845222083
 23
7.8246619984
 14
5.7309789012
 24
7.5635295118
 50
180.0
100
AcDbRotatedDimension
  0
LINE
  5
453
100
AcDbEntity
  8
0
100
AcDbLine
 62
2
  6
CONTINUOUS
 10
16.38
 20
0.887
 11
12.03
 21
0.887
  0
LINE
  5
454
100
AcDbEntity
  8
0
100
AcDbLine
 62
2
  6
CONTINUOUS
 10
16.38
 20
0.887
 11
16.38
 21
2.807
  0
LINE
  5
455
100
AcDbEntity
  8
0
100
AcDbLine
 62
2
  6
CONTINUOUS
 10
16.38
 20
2.807
 11
12.03
 21
2.807
  0
LINE
  5
456
100
AcDbEntity
  8
0
100
AcDbLine
 62
2
  6
CONTINUOUS
 10
12.03
 20
0.887
 11
12.03
 21
2.807
  0
MTEXT
  5
457
100
AcDbEntity
  8
NOTES
100
AcDbMText
 62
7
  6
CONTINUOUS
  7
STANDARD
 71
2
 72
1
 10
16.155
 20
1.367
 30
0.0
 11
1.0
 21
0.0
 31
0.0
 44
0.9
  1
-
 40
0.1
 41
0.1
  0
MTEXT
  5
458
100
AcDbEntity
  8
NOTES
100
AcDbMText
 62
7
  6
CONTINUOUS
  7
STANDARD
 71
2
 72
1
 10
14.205
 20
1.967
 30
0.0
 11
1.0
 21
0.0
 31
0.0
 44
0.9
  1
K30L CABLE/PIGTAIL\PWEB CAD DRAWINGS 2D/3D
 40
0.1
 41
2.2
  0
LEADER
  5
459
100
AcDbEntity
  8
NOTES
100
AcDbLeader
 62
2
  6
CONTINUOUS
  3
STANDARD
 71
1
 72
0
 73
0
 75
0
 40
0.1
 41
1.3
 76
3
 10
7.1338946019
 20
7.0814441574
 30
0.0
 10
7.3865590859
 20
6.6073229068
 30
0.0
 10
7.6365590859
 20
6.6073229068
 30
0.0
340
45A
1001
ACAD
1000
DSTYLE
1002
{
1070
77
1070
0
1002
}
  0
MTEXT
  5
45A
102
{ACAD_REACTORS
330
459
102
}
100
AcDbEntity
  8
NOTES
100
AcDbMText
 62
2
  6
CONTINUOUS
  7
STANDARD
 71
1
 72
1
 10
7.6365590859
 20
6.6573229068
 30
0.0
 11
1.0
 21
0.0
 31
0.0
 44
0.9
  1
M22 X 1.5 -6g
 40
0.1
 41
1.3
  0
LINE
  5
45B
100
AcDbEntity
  8
0
100
AcDbLine
 62
2
  6
CONTINUOUS
 10
0.47
 20
5.586103
 11
0.47
 21
5.412897
  0
LINE
  5
45C
100
AcDbEntity
  8
0
100
AcDbLine
 62
2
  6
CONTINUOUS
 10
0.62
 20
10.112
 11
0.62
 21
0.887
  0
LINE
  5
45D
100
AcDbEntity
  8
0
100
AcDbLine
 62
2
  6
CONTINUOUS
 10
2.59
 20
0.887
 11
2.59
 21
0.637
  0
LINE
  5
45E
100
AcDbEntity
  8
0
100
AcDbLine
 62
2
  6
CONTINUOUS
 10
2.59
 20
10.112
 11
2.59
 21
10.362
  0
LINE
  5
45F
100
AcDbEntity
  8
0
100
AcDbLine
 62
2
  6
CONTINUOUS
 10
8.413397
 20
0.737
 11
8.586603
 21
0.737
  0
LINE
  5
460
100
AcDbEntity
  8
0
100
AcDbLine
 62
7
  6
CONTINUOUS
 10
11.1389508475
 20
1.425992839
 11
11.7453418475
 21
1.495385839
  0
LINE
  5
461
100
AcDbEntity
  8
0
100
AcDbLine
 62
2
  6
CONTINUOUS
 10
0.62
 20
0.887
 11
16.38
 21
0.887
  0
LINE
  5
462
100
AcDbEntity
  8
0
100
AcDbLine
 62
2
  6
CONTINUOUS
 10
12.03
 20
1.137
 11
16.38
 21
1.137
  0
LINE
  5
463
100
AcDbEntity
  8
0
100
AcDbLine
 62
7
  6
CONTINUOUS
 10
10.2121898475
 20
1.243294839
 11
10.4342808475
 21
1.243294839
  0
LINE
  5
464
100
AcDbEntity
  8
0
100
AcDbLine
 62
7
  6
CONTINUOUS
 10
10.4842808475
 20
1.243294839
 11
10.5842808475
 21
1.243294839
  0
LINE
  5
465
100
AcDbEntity
  8
0
100
AcDbLine
 62
7
  6
CONTINUOUS
 10
10.6342808475
 20
1.243294839
 11
10.8563718475
 21
1.243294839
  0
LINE
  5
466
100
AcDbEntity
  8
0
100
AcDbLine
 62
7
  6
CONTINUOUS
 10
11.0389508475
 20
1.243294839
 11
11.3171028475
 21
1.243294839
  0
LINE
  5
467
100
AcDbEntity
  8
0
100
AcDbLine
 62
7
  6
CONTINUOUS
 10
11.3671028475
 20
1.243294839
 11
11.5171888475
 21
1.243294839
  0
LINE
  5
468
100
AcDbEntity
  8
0
100
AcDbLine
 62
7
  6
CONTINUOUS
 10
11.5671888475
 20
1.243294839
 11
11.8453418475
 21
1.243294839
  0
LINE
  5
469
100
AcDbEntity
  8
0
100
AcDbLine
 62
7
  6
CONTINUOUS
 10
11.7453418475
 20
0.991203839
 11
11.1389508475
 21
1.060596839
  0
LINE
  5
46A
100
AcDbEntity
  8
0
100
AcDbLine
 62
2
  6
CONTINUOUS
 10
4.56
 20
0.887
 11
4.56
 21
0.637
  0
LINE
  5
46B
100
AcDbEntity
  8
0
100
AcDbLine
 62
2
  6
CONTINUOUS
 10
4.56
 20
10.112
 11
4.56
 21
10.362
  0
LINE
  5
46C
100
AcDbEntity
  8
0
100
AcDbLine
 62
2
  6
CONTINUOUS
 10
0.47
 20
5.412897
 11
0.62
 21
5.4995
  0
LINE
  5
46D
100
AcDbEntity
  8
0
100
AcDbLine
 62
2
  6
CONTINUOUS
 10
12.03
 20
1.507
 11
16.38
 21
1.507
  0
LINE
  5
46E
100
AcDbEntity
  8
0
100
AcDbLine
 62
2
  6
CONTINUOUS
 10
10.03
 20
1.907
 11
12.03
 21
1.907
  0
LINE
  5
46F
100
AcDbEntity
  8
0
100
AcDbLine
 62
2
  6
CONTINUOUS
 10
0.62
 20
5.4995
 11
0.47
 21
5.586103
  0
LINE
  5
470
100
AcDbEntity
  8
0
100
AcDbLine
 62
2
  6
CONTINUOUS
 10
12.03
 20
2.267
 11
16.38
 21
2.267
  0
LINE
  5
471
100
AcDbEntity
  8
0
100
AcDbLine
 62
2
  6
CONTINUOUS
 10
8.5
 20
10.112
 11
8.586603
 21
10.262
  0
LINE
  5
472
100
AcDbEntity
  8
0
100
AcDbLine
 62
2
  6
CONTINUOUS
 10
16.38
 20
2.807
 11
10.03
 21
2.807
  0
LINE
  5
473
100
AcDbEntity
  8
0
100
AcDbLine
 62
2
  6
CONTINUOUS
 10
0.62
 20
3.1995
 11
0.37
 21
3.1995
  0
LINE
  5
474
100
AcDbEntity
  8
0
100
AcDbLine
 62
2
  6
CONTINUOUS
 10
16.38
 20
3.1995
 11
16.63
 21
3.1995
  0
LINE
  5
475
100
AcDbEntity
  8
0
100
AcDbLine
 62
2
  6
CONTINUOUS
 10
8.586603
 20
0.737
 11
8.5
 21
0.887
  0
LINE
  5
476
100
AcDbEntity
  8
0
100
AcDbLine
 62
2
  6
CONTINUOUS
 10
6.53
 20
0.887
 11
6.53
 21
0.637
  0
LINE
  5
477
100
AcDbEntity
  8
0
100
AcDbLine
 62
2
  6
CONTINUOUS
 10
6.53
 20
10.112
 11
6.53
 21
10.362
  0
LINE
  5
478
100
AcDbEntity
  8
0
100
AcDbLine
 62
2
  6
CONTINUOUS
 10
8.5
 20
0.887
 11
8.5
 21
0.637
  0
LINE
  5
479
100
AcDbEntity
  8
0
100
AcDbLine
 62
2
  6
CONTINUOUS
 10
8.5
 20
10.112
 11
8.5
 21
10.362
  0
LINE
  5
47A
100
AcDbEntity
  8
0
100
AcDbLine
 62
2
  6
CONTINUOUS
 10
0.62
 20
5.4995
 11
0.37
 21
5.4995
  0
LINE
  5
47B
100
AcDbEntity
  8
0
100
AcDbLine
 62
2
  6
CONTINUOUS
 10
16.38
 20
5.4995
 11
16.63
 21
5.4995
  0
LINE
  5
47C
100
AcDbEntity
  8
0
100
AcDbLine
 62
2
  6
CONTINUOUS
 10
10.03
 20
2.807
 11
10.03
 21
0.887
  0
LINE
  5
47D
100
AcDbEntity
  8
0
100
AcDbLine
 62
2
  6
CONTINUOUS
 10
10.47
 20
0.887
 11
10.47
 21
0.637
  0
LINE
  5
47E
100
AcDbEntity
  8
0
100
AcDbLine
 62
2
  6
CONTINUOUS
 10
10.47
 20
10.112
 11
10.47
 21
10.362
  0
LINE
  5
47F
100
AcDbEntity
  8
0
100
AcDbLine
 62
7
  6
CONTINUOUS
 10
10.5342808475
 20
1.143294839
 11
10.5342808475
 21
0.921203839
  0
LINE
  5
480
100
AcDbEntity
  8
0
100
AcDbLine
 62
7
  6
CONTINUOUS
 10
10.5342808475
 20
1.193294839
 11
10.5342808475
 21
1.293294839
  0
LINE
  5
481
100
AcDbEntity
  8
0
100
AcDbLine
 62
7
  6
CONTINUOUS
 10
10.5342808475
 20
1.343294839
 11
10.5342808475
 21
1.565385839
  0
LINE
  5
482
100
AcDbEntity
  8
0
100
AcDbLine
 62
2
  6
CONTINUOUS
 10
8.5
 20
0.887
 11
8.413397
 21
0.737
  0
LINE
  5
483
100
AcDbEntity
  8
0
100
AcDbLine
 62
2
  6
CONTINUOUS
 10
0.62
 20
7.7995
 11
0.37
 21
7.7995
  0
LINE
  5
484
100
AcDbEntity
  8
0
100
AcDbLine
 62
2
  6
CONTINUOUS
 10
16.38
 20
7.7995
 11
16.63
 21
7.7995
  0
LINE
  5
485
100
AcDbEntity
  8
0
100
AcDbLine
 62
2
  6
CONTINUOUS
 10
8.413397
 20
10.262
 11
8.5
 21
10.112
  0
LINE
  5
486
100
AcDbEntity
  8
0
100
AcDbLine
 62
7
  6
CONTINUOUS
 10
11.1389508475
 20
1.060596839
 11
11.1389508475
 21
1.425992839
  0
LINE
  5
487
100
AcDbEntity
  8
0
100
AcDbLine
 62
7
  6
CONTINUOUS
 10
11.7453418475
 20
1.495385839
 11
11.7453418475
 21
0.991203839
  0
LINE
  5
488
100
AcDbEntity
  8
0
100
AcDbLine
 62
1
  6
CONTINUOUS
 10
12.03
 20
2.807
 11
12.03
 21
0.887
  0
LINE
  5
489
100
AcDbEntity
  8
0
100
AcDbLine
 62
2
  6
CONTINUOUS
 10
12.44
 20
0.887
 11
12.44
 21
0.637
  0
LINE
  5
48A
100
AcDbEntity
  8
0
100
AcDbLine
 62
2
  6
CONTINUOUS
 10
12.44
 20
10.112
 11
12.44
 21
10.362
  0
LINE
  5
48B
100
AcDbEntity
  8
0
100
AcDbLine
 62
2
  6
CONTINUOUS
 10
16.53
 20
5.586103
 11
16.38
 21
5.4995
  0
LINE
  5
48C
100
AcDbEntity
  8
0
100
AcDbLine
 62
2
  6
CONTINUOUS
 10
16.38
 20
5.4995
 11
16.53
 21
5.412897
  0
LINE
  5
48D
100
AcDbEntity
  8
0
100
AcDbLine
 62
2
  6
CONTINUOUS
 10
12.83
 20
1.507
 11
12.83
 21
1.137
  0
LINE
  5
48E
100
AcDbEntity
  8
0
100
AcDbLine
 62
2
  6
CONTINUOUS
 10
16.38
 20
10.112
 11
0.62
 21
10.112
  0
LINE
  5
48F
100
AcDbEntity
  8
0
100
AcDbLine
 62
2
  6
CONTINUOUS
 10
8.586603
 20
10.262
 11
8.413397
 21
10.262
  0
LINE
  5
490
100
AcDbEntity
  8
0
100
AcDbLine
 62
2
  6
CONTINUOUS
 10
14.205
 20
1.137
 11
14.205
 21
0.887
  0
LINE
  5
491
100
AcDbEntity
  8
0
100
AcDbLine
 62
2
  6
CONTINUOUS
 10
14.41
 20
0.887
 11
14.41
 21
0.637
  0
LINE
  5
492
100
AcDbEntity
  8
0
100
AcDbLine
 62
2
  6
CONTINUOUS
 10
14.41
 20
10.112
 11
14.41
 21
10.362
  0
LINE
  5
493
100
AcDbEntity
  8
0
100
AcDbLine
 62
2
  6
CONTINUOUS
 10
15.58
 20
1.507
 11
15.58
 21
1.137
  0
LINE
  5
494
100
AcDbEntity
  8
0
100
AcDbLine
 62
2
  6
CONTINUOUS
 10
16.38
 20
0.887
 11
16.38
 21
10.112
  0
LINE
  5
495
100
AcDbEntity
  8
0
100
AcDbLine
 62
2
  6
CONTINUOUS
 10
16.53
 20
5.412897
 11
16.53
 21
5.586103
  0
LINE
  5
496
100
AcDbEntity
  8
AXIS
100
AcDbLine
 62
7
  6
CONTINUOUS
 10
6.3215300823
 20
5.9080715213
 11
6.3215300823
 21
4.7269691591
  0
LINE
  5
497
100
AcDbEntity
  8
0
100
AcDbLine
 62
9
  6
CONTINUOUS
 10
6.7546009484
 20
4.7269691591
 11
6.7546009484
 21
5.9080715213
  0
LINE
  5
498
100
AcDbEntity
  8
0
100
AcDbLine
 62
7
  6
CONTINUOUS
 10
6.7939710272
 20
4.7663392379
 11
6.7939710272
 21
5.8687014426
  0
LWPOLYLINE
  5
499
100
AcDbEntity
  8
0
100
AcDbPolyline
 62
9
  6
CONTINUOUS
 90
16
 70
0
 10
6.8614258174
 20
5.6718510489
 10
6.8628659594
 20
5.6434443854
 10
6.8643061015
 20
5.6074007383
 10
6.8657462435
 20
5.5645646748
 10
6.8671863856
 20
5.5159399205
 10
6.8686265276
 20
5.4626658403
 10
6.8700666696
 20
5.4059907414
 10
6.8715068117
 20
5.3472426227
 10
6.8729469537
 20
5.2877980578
 10
6.8743870957
 20
5.229049939
 10
6.8758272378
 20
5.1723748401
 10
6.8772673798
 20
5.11910076
 10
6.8787075218
 20
5.0704760057
 10
6.8801476639
 20
5.0276399422
 10
6.8815878059
 20
4.9915962951
 10
6.883027948
 20
4.9631896316
  0
LWPOLYLINE
  5
49A
100
AcDbEntity
  8
0
100
AcDbPolyline
 62
9
  6
CONTINUOUS
 90
16
 70
0
 10
6.8648353662
 20
5.6718510489
 10
6.8662755083
 20
5.6434443854
 10
6.8677156503
 20
5.6074007383
 10
6.8691557923
 20
5.5645646748
 10
6.8705959344
 20
5.5159399205
 10
6.8720360764
 20
5.4626658403
 10
6.8734762185
 20
5.4059907414
 10
6.8749163605
 20
5.3472426227
 10
6.8763565025
 20
5.2877980578
 10
6.8777966446
 20
5.229049939
 10
6.8792367866
 20
5.1723748401
 10
6.8806769286
 20
5.11910076
 10
6.8821170707
 20
5.0704760057
 10
6.8835572127
 20
5.0276399422
 10
6.8849973548
 20
4.9915962951
 10
6.8864374968
 20
4.9631896316
  0
LWPOLYLINE
  5
49B
100
AcDbEntity
  8
0
100
AcDbPolyline
 62
9
  6
CONTINUOUS
 90
16
 70
0
 10
6.9204809355
 20
5.6718510489
 10
6.9219210776
 20
5.6434443854
 10
6.9233612196
 20
5.6074007383
 10
6.9248013616
 20
5.5645646748
 10
6.9262415037
 20
5.5159399205
 10
6.9276816457
 20
5.4626658403
 10
6.9291217877
 20
5.4059907414
 10
6.9305619298
 20
5.3472426227
 10
6.9320020718
 20
5.2877980578
 10
6.9334422138
 20
5.229049939
 10
6.9348823559
 20
5.1723748401
 10
6.9363224979
 20
5.11910076
 10
6.93776264
 20
5.0704760057
 10
6.939202782
 20
5.0276399422
 10
6.940642924
 20
4.9915962951
 10
6.9420830661
 20
4.9631896316
  0
LWPOLYLINE
  5
49C
100
AcDbEntity
  8
0
100
AcDbPolyline
 62
9
  6
CONTINUOUS
 90
16
 70
0
 10
6.9238904843
 20
5.6718510489
 10
6.9253306264
 20
5.6434443854
 10
6.9267707684
 20
5.6074007383
 10
6.9282109105
 20
5.5645646748
 10
6.9296510525
 20
5.5159399205
 10
6.9310911945
 20
5.4626658403
 10
6.9325313366
 20
5.4059907414
 10
6.9339714786
 20
5.3472426227
 10
6.9354116206
 20
5.2877980578
 10
6.9368517627
 20
5.229049939
 10
6.9382919047
 20
5.1723748401
 10
6.9397320468
 20
5.11910076
 10
6.9411721888
 20
5.0704760057
 10
6.9426123308
 20
5.0276399422
 10
6.9440524729
 20
4.9915962951
 10
6.9454926149
 20
4.9631896316
  0
LWPOLYLINE
  5
49D
100
AcDbEntity
  8
0
100
AcDbPolyline
 62
7
  6
CONTINUOUS
 90
14
 70
0
 10
6.8906595313
 20
5.6718510489
 10
6.8920524319
 20
5.6319646666
 10
6.8934525487
 20
5.5849263035
 10
6.8948453247
 20
5.5322560896
 10
6.8962360715
 20
5.474965592
 10
6.8976291399
 20
5.4141306255
 10
6.8990423529
 20
5.3502580925
 10
6.9004634867
 20
5.285285355
 10
6.9018767217
 20
5.2214004662
 10
6.9032695262
 20
5.1605547166
 10
6.9046584811
 20
5.1033023189
 10
6.9060587532
 20
5.0503135588
 10
6.9074634186
 20
5.0031074606
 10
6.9088573262
 20
4.9631896316
  0
LWPOLYLINE
  5
49E
100
AcDbEntity
  8
0
100
AcDbPolyline
 62
7
  6
CONTINUOUS
 90
14
 70
0
 10
6.916258901
 20
4.9631896316
 10
6.914865168
 20
5.0031020065
 10
6.9134550768
 20
5.0505019104
 10
6.9120441659
 20
5.103933187
 10
6.9106475539
 20
5.1615584632
 10
6.9092572019
 20
5.2223416351
 10
6.9078457803
 20
5.2861652981
 10
6.9064266886
 20
5.3510446525
 10
6.9050156786
 20
5.4148010077
 10
6.9036242922
 20
5.4755341331
 10
6.902230618
 20
5.5329013494
 10
6.9008409032
 20
5.5853999028
 10
6.8994499941
 20
5.6320899255
 10
6.8980611061
 20
5.6718510489
  0
LWPOLYLINE
  5
49F
100
AcDbEntity
  8
0
100
AcDbPolyline
 62
7
  6
CONTINUOUS
 90
14
 70
0
 10
6.9497146494
 20
5.6718510489
 10
6.9511035374
 20
5.6320899255
 10
6.9524944465
 20
5.5853999028
 10
6.9538841613
 20
5.5329013494
 10
6.9552778356
 20
5.4755341331
 10
6.9566692219
 20
5.4148010077
 10
6.9580802319
 20
5.3510446525
 10
6.9594993236
 20
5.2861652981
 10
6.9609107452
 20
5.2223416351
 10
6.9623010972
 20
5.1615584632
 10
6.9636977092
 20
5.103933187
 10
6.9651086201
 20
5.0505019104
 10
6.9665187113
 20
5.0031020065
 10
6.9679124443
 20
4.9631896316
  0
LWPOLYLINE
  5
4A0
100
AcDbEntity
  8
0
100
AcDbPolyline
 62
7
  6
CONTINUOUS
 90
14
 70
0
 10
6.9753140191
 20
4.9631896316
 10
6.9739206313
 20
5.0030912299
 10
6.9725075433
 20
5.0505970514
 10
6.9710904162
 20
5.1042855245
 10
6.9696847744
 20
5.1623220445
 10
6.9682974733
 20
5.2230043314
 10
6.9668944576
 20
5.2864592681
 10
6.965481536
 20
5.3510570031
 10
6.9640744593
 20
5.4146377373
 10
6.9626844562
 20
5.4753193476
 10
6.9612873594
 20
5.5328370453
 10
6.9598890505
 20
5.5856494084
 10
6.9585017697
 20
5.6321942266
 10
6.9571162242
 20
5.6718510489
  0
LWPOLYLINE
  5
4A1
100
AcDbEntity
  8
0
100
AcDbPolyline
 62
7
  6
CONTINUOUS
 90
14
 70
0
 10
6.8570651476
 20
4.9668245189
 10
6.855691613
 20
5.0068253128
 10
6.8543082915
 20
5.0538032372
 10
6.8529300134
 20
5.1062823215
 10
6.8515625829
 20
5.1628324204
 10
6.8501908328
 20
5.2228438129
 10
6.848799035
 20
5.2857831683
 10
6.8473996582
 20
5.3497630527
 10
6.8460078856
 20
5.4126901869
 10
6.844635907
 20
5.4726898541
 10
6.843266522
 20
5.5292857634
 10
6.8418954145
 20
5.5814566435
 10
6.8405168427
 20
5.6282569845
 10
6.8391446232
 20
5.6682161615
  0
LINE
  5
4A2
100
AcDbEntity
  8
0
100
AcDbLine
 62
9
  6
CONTINUOUS
 10
6.8136560665
 20
5.6718510489
 11
6.8136560665
 21
4.9631896316
  0
LWPOLYLINE
  5
4A3
100
AcDbEntity
  8
0
100
AcDbPolyline
 62
9
  6
CONTINUOUS
 90
6
 70
0
 10
6.7939710272
 20
4.9507743669
 10
6.7949344816
 20
4.9557341367
 10
6.7977305352
 20
4.9602084096
 10
6.8020854907
 20
4.9637592127
 10
6.8075730548
 20
4.9660389686
 10
6.8136560665
 20
4.9668245189
  0
LWPOLYLINE
  5
4A4
100
AcDbEntity
  8
0
100
AcDbPolyline
 62
7
  6
CONTINUOUS
 90
3
 70
0
 10
6.8570651476
 20
4.9668245189
 10
6.8576921578
 20
4.9641485357
 10
6.8593269562
 20
4.9631896316
  0
LWPOLYLINE
  5
4A5
100
AcDbEntity
  8
0
100
AcDbPolyline
 62
9
  6
CONTINUOUS
 90
3
 70
0
 10
7.0385911717
 20
5.6718510489
 10
7.0398906545
 20
5.6465675641
 10
7.0411901373
 20
5.6150041896
  0
LWPOLYLINE
  5
4A6
100
AcDbEntity
  8
0
100
AcDbPolyline
 62
9
  6
CONTINUOUS
 90
3
 70
0
 10
7.0420007206
 20
5.6718510489
 10
7.0433002033
 20
5.6465675641
 10
7.0445996861
 20
5.6150041896
  0
LWPOLYLINE
  5
4A7
100
AcDbEntity
  8
0
100
AcDbPolyline
 62
9
  6
CONTINUOUS
 90
16
 70
0
 10
6.9795360536
 20
5.6718510489
 10
6.9809761957
 20
5.6434443854
 10
6.9824163377
 20
5.6074007383
 10
6.9838564797
 20
5.5645646748
 10
6.9852966218
 20
5.5159399205
 10
6.9867367638
 20
5.4626658403
 10
6.9881769058
 20
5.4059907414
 10
6.9896170479
 20
5.3472426227
 10
6.9910571899
 20
5.2877980578
 10
6.992497332
 20
5.229049939
 10
6.993937474
 20
5.1723748401
 10
6.995377616
 20
5.11910076
 10
6.9968177581
 20
5.0704760057
 10
6.9982579001
 20
5.0276399422
 10
6.9996980421
 20
4.9915962951
 10
7.0011381842
 20
4.9631896316
  0
LWPOLYLINE
  5
4A8
100
AcDbEntity
  8
0
100
AcDbPolyline
 62
9
  6
CONTINUOUS
 90
16
 70
0
 10
6.9829456025
 20
5.6718510489
 10
6.9843857445
 20
5.6434443854
 10
6.9858258865
 20
5.6074007383
 10
6.9872660286
 20
5.5645646748
 10
6.9887061706
 20
5.5159399205
 10
6.9901463126
 20
5.4626658403
 10
6.9915864547
 20
5.4059907414
 10
6.9930265967
 20
5.3472426227
 10
6.9944667388
 20
5.2877980578
 10
6.9959068808
 20
5.229049939
 10
6.9973470228
 20
5.1723748401
 10
6.9987871649
 20
5.11910076
 10
7.0002273069
 20
5.0704760057
 10
7.0016674489
 20
5.0276399422
 10
7.003107591
 20
4.9915962951
 10
7.004547733
 20
4.9631896316
  0
LWPOLYLINE
  5
4A9
100
AcDbEntity
  8
0
100
AcDbPolyline
 62
9
  6
CONTINUOUS
 90
7
 70
0
 10
7.0976462898
 20
5.6718510489
 10
7.0990864319
 20
5.6434443854
 10
7.1005265739
 20
5.6074007383
 10
7.101966716
 20
5.5645646748
 10
7.103406858
 20
5.5159399205
 10
7.104847
 20
5.4626658403
 10
7.1062871421
 20
5.4059907414
  0
LWPOLYLINE
  5
4AA
100
AcDbEntity
  8
0
100
AcDbPolyline
 62
9
  6
CONTINUOUS
 90
7
 70
0
 10
7.1010558387
 20
5.6718510489
 10
7.1024959807
 20
5.6434443854
 10
7.1039361228
 20
5.6074007383
 10
7.1053762648
 20
5.5645646748
 10
7.1068164068
 20
5.5159399205
 10
7.1082565489
 20
5.4626658403
 10
7.1096966909
 20
5.4059907414
  0
LWPOLYLINE
  5
4AB
100
AcDbEntity
  8
0
100
AcDbPolyline
 62
7
  6
CONTINUOUS
 90
3
 70
0
 10
7.0678248856
 20
5.6718510489
 10
7.0682743383
 20
5.659790748
 10
7.0687216833
 20
5.6470099285
  0
LWPOLYLINE
  5
4AC
100
AcDbEntity
  8
0
100
AcDbPolyline
 62
7
  6
CONTINUOUS
 90
14
 70
0
 10
7.0343691372
 20
4.9631896316
 10
7.0330445627
 20
5.0009509195
 10
7.0317024484
 20
5.0456105921
 10
7.0303552303
 20
5.0960053468
 10
7.0290174689
 20
5.1505445859
 10
7.0276960073
 20
5.2077393755
 10
7.0263790692
 20
5.2668951205
 10
7.0250533504
 20
5.3274448654
 10
7.0237219076
 20
5.3880558998
 10
7.0223960856
 20
5.4470085751
 10
7.0210722318
 20
5.5033076974
 10
7.0197339912
 20
5.5564747374
 10
7.0183947308
 20
5.6048404205
 10
7.01706814
 20
5.6470099285
  0
LWPOLYLINE
  5
4AD
100
AcDbEntity
  8
0
100
AcDbPolyline
 62
7
  6
CONTINUOUS
 90
14
 70
0
 10
7.0087697675
 20
5.6718510489
 10
7.010155313
 20
5.6321942266
 10
7.0115425938
 20
5.5856494084
 10
7.0129409027
 20
5.5328370453
 10
7.0143379995
 20
5.4753193476
 10
7.0157280026
 20
5.4146377373
 10
7.0171350793
 20
5.3510570031
 10
7.0185480009
 20
5.2864592681
 10
7.0199510166
 20
5.2230043314
 10
7.0213383178
 20
5.1623220445
 10
7.0227439595
 20
5.1042855245
 10
7.0241610866
 20
5.0505970514
 10
7.0255741746
 20
5.0030912299
 10
7.0269675624
 20
4.9631896316
  0
LWPOLYLINE
  5
4AE
100
AcDbEntity
  8
0
100
AcDbPolyline
 62
7
  6
CONTINUOUS
 90
3
 70
0
 10
7.01706814
 20
5.6470099285
 10
7.016620795
 20
5.659790748
 10
7.0161713423
 20
5.6718510489
  0
LWPOLYLINE
  5
4AF
100
AcDbEntity
  8
0
100
AcDbPolyline
 62
7
  6
CONTINUOUS
 90
14
 70
0
 10
7.0934242553
 20
4.9631896316
 10
7.0920314471
 20
5.003073132
 10
7.0906189519
 20
5.0505549808
 10
7.0892024212
 20
5.1042152322
 10
7.0877973754
 20
5.1622211243
 10
7.0864104262
 20
5.2228830539
 10
7.0850222778
 20
5.2856567367
 10
7.0836345479
 20
5.3491050978
 10
7.0822410586
 20
5.4121232951
 10
7.0808531209
 20
5.4728289207
 10
7.0794482211
 20
5.5308283666
 10
7.0780317026
 20
5.5844878965
 10
7.0766191486
 20
5.6319712975
 10
7.0752264604
 20
5.6718510489
  0
LWPOLYLINE
  5
4B0
100
AcDbEntity
  8
0
100
AcDbPolyline
 62
9
  6
CONTINUOUS
 90
14
 70
0
 10
7.0411901373
 20
5.6150041896
 10
7.0426519192
 20
5.5727475535
 10
7.0441137011
 20
5.5243297753
 10
7.045575483
 20
5.4709196523
 10
7.047037265
 20
5.4138064956
 10
7.0484990469
 20
5.3543690074
 10
7.0499608288
 20
5.2940419986
 10
7.0514226107
 20
5.2342817529
 10
7.0528843927
 20
5.1765308728
 10
7.0543461746
 20
5.1221834547
 10
7.0558079565
 20
5.0725514361
 10
7.0572697384
 20
5.0288329256
 10
7.0587315204
 20
4.9920832807
 10
7.0601933023
 20
4.9631896316
  0
LWPOLYLINE
  5
4B1
100
AcDbEntity
  8
0
100
AcDbPolyline
 62
9
  6
CONTINUOUS
 90
14
 70
0
 10
7.0445996861
 20
5.6150041896
 10
7.046061468
 20
5.5727475535
 10
7.04752325
 20
5.5243297753
 10
7.0489850319
 20
5.4709196523
 10
7.0504468138
 20
5.4138064956
 10
7.0519085957
 20
5.3543690074
 10
7.0533703777
 20
5.2940419986
 10
7.0548321596
 20
5.2342817529
 10
7.0562939415
 20
5.1765308728
 10
7.0577557234
 20
5.1221834547
 10
7.0592175053
 20
5.0725514361
 10
7.0606792873
 20
5.0288329256
 10
7.0621410692
 20
4.9920832807
 10
7.0636028511
 20
4.9631896316
  0
LWPOLYLINE
  5
4B2
100
AcDbEntity
  8
0
100
AcDbPolyline
 62
7
  6
CONTINUOUS
 90
14
 70
0
 10
7.0687216833
 20
5.6470099285
 10
7.0700482741
 20
5.6048404205
 10
7.0713875345
 20
5.5564747374
 10
7.0727257751
 20
5.5033076974
 10
7.0740496289
 20
5.4470085751
 10
7.0753754509
 20
5.3880558998
 10
7.0767068937
 20
5.3274448654
 10
7.0780326125
 20
5.2668951205
 10
7.0793495506
 20
5.2077393755
 10
7.0806710122
 20
5.1505445859
 10
7.0820087736
 20
5.0960053468
 10
7.0833559918
 20
5.0456105921
 10
7.084698106
 20
5.0009509195
 10
7.0860226805
 20
4.9631896316
  0
LWPOLYLINE
  5
4B3
100
AcDbEntity
  8
0
100
AcDbPolyline
 62
9
  6
CONTINUOUS
 90
8
 70
0
 10
7.1091674261
 20
5.2877980578
 10
7.1106075682
 20
5.229049939
 10
7.1120477102
 20
5.1723748401
 10
7.1134878522
 20
5.11910076
 10
7.1149279943
 20
5.0704760057
 10
7.1163681363
 20
5.0276399422
 10
7.1178082784
 20
4.9915962951
 10
7.1192484204
 20
4.9631896316
  0
LWPOLYLINE
  5
4B4
100
AcDbEntity
  8
0
100
AcDbPolyline
 62
9
  6
CONTINUOUS
 90
3
 70
0
 10
7.1062871421
 20
5.4059907414
 10
7.1077272841
 20
5.3472426227
 10
7.1091674261
 20
5.2877980578
  0
LWPOLYLINE
  5
4B5
100
AcDbEntity
  8
0
100
AcDbPolyline
 62
9
  6
CONTINUOUS
 90
10
 70
0
 10
7.1096966909
 20
5.4059907414
 10
7.1111368329
 20
5.3472426227
 10
7.112576975
 20
5.2877980578
 10
7.114017117
 20
5.229049939
 10
7.115457259
 20
5.1723748401
 10
7.1168974011
 20
5.11910076
 10
7.1183375431
 20
5.0704760057
 10
7.1197776852
 20
5.0276399422
 10
7.1212178272
 20
4.9915962951
 10
7.1226579692
 20
4.9631896316
  0
LWPOLYLINE
  5
4B6
100
AcDbEntity
  8
0
100
AcDbPolyline
 62
7
  6
CONTINUOUS
 90
3
 70
0
 10
6.8409042097
 20
5.6718510489
 10
6.8395161203
 20
5.6708976489
 10
6.8391446232
 20
5.6682161615
  0
LWPOLYLINE
  5
4B7
100
AcDbEntity
  8
0
100
AcDbPolyline
 62
9
  6
CONTINUOUS
 90
8
 70
0
 10
7.2157565261
 20
5.6718510489
 10
7.2170651897
 20
5.6463659543
 10
7.2183738533
 20
5.6145159679
 10
7.2196825169
 20
5.5769175544
 10
7.2209911805
 20
5.5342984407
 10
7.2222998442
 20
5.4874835309
 10
7.2236085078
 20
5.4373789397
 10
7.2249171714
 20
5.3849544543
  0
LWPOLYLINE
  5
4B8
100
AcDbEntity
  8
0
100
AcDbPolyline
 62
9
  6
CONTINUOUS
 90
8
 70
0
 10
7.2191660749
 20
5.6718510489
 10
7.2204747385
 20
5.6463659543
 10
7.2217834021
 20
5.6145159679
 10
7.2230920658
 20
5.5769175544
 10
7.2244007294
 20
5.5342984407
 10
7.225709393
 20
5.4874835309
 10
7.2270180566
 20
5.4373789397
 10
7.2283267202
 20
5.3849544543
  0
LWPOLYLINE
  5
4B9
100
AcDbEntity
  8
0
100
AcDbPolyline
 62
9
  6
CONTINUOUS
 90
16
 70
0
 10
7.156701408
 20
5.6718510489
 10
7.15814155
 20
5.6434443854
 10
7.159581692
 20
5.6074007383
 10
7.1610218341
 20
5.5645646748
 10
7.1624619761
 20
5.5159399205
 10
7.1639021181
 20
5.4626658403
 10
7.1653422602
 20
5.4059907414
 10
7.1667824022
 20
5.3472426227
 10
7.1682225442
 20
5.2877980578
 10
7.1696626863
 20
5.229049939
 10
7.1711028283
 20
5.1723748401
 10
7.1725429704
 20
5.11910076
 10
7.1739831124
 20
5.0704760057
 10
7.1754232544
 20
5.0276399422
 10
7.1768633965
 20
4.9915962951
 10
7.1783035385
 20
4.9631896316
  0
LWPOLYLINE
  5
4BA
100
AcDbEntity
  8
0
100
AcDbPolyline
 62
9
  6
CONTINUOUS
 90
16
 70
0
 10
7.1601109568
 20
5.6718510489
 10
7.1615510988
 20
5.6434443854
 10
7.1629912409
 20
5.6074007383
 10
7.1644313829
 20
5.5645646748
 10
7.1658715249
 20
5.5159399205
 10
7.167311667
 20
5.4626658403
 10
7.168751809
 20
5.4059907414
 10
7.170191951
 20
5.3472426227
 10
7.1716320931
 20
5.2877980578
 10
7.1730722351
 20
5.229049939
 10
7.1745123772
 20
5.1723748401
 10
7.1759525192
 20
5.11910076
 10
7.1773926612
 20
5.0704760057
 10
7.1788328033
 20
5.0276399422
 10
7.1802729453
 20
4.9915962951
 10
7.1817130873
 20
4.9631896316
  0
LWPOLYLINE
  5
4BB
100
AcDbEntity
  8
0
100
AcDbPolyline
 62
7
  6
CONTINUOUS
 90
7
 70
0
 10
7.24499024
 20
5.6718510489
 10
7.2462264034
 20
5.6368146998
 10
7.2474765587
 20
5.5957751883
 10
7.248733129
 20
5.5495729746
 10
7.2499838785
 20
5.499470658
 10
7.2512213485
 20
5.4467307673
 10
7.2524487175
 20
5.3922095663
  0
LWPOLYLINE
  5
4BC
100
AcDbEntity
  8
0
100
AcDbPolyline
 62
7
  6
CONTINUOUS
 90
9
 70
0
 10
7.2115344916
 20
4.9631896316
 10
7.2102041426
 20
5.0011298727
 10
7.2088625758
 20
5.0457959739
 10
7.20751057
 20
5.0963983163
 10
7.2061625324
 20
5.1514007096
 10
7.2048276304
 20
5.2092325792
 10
7.2034831159
 20
5.2696822706
 10
7.2021342847
 20
5.3313066619
 10
7.2007951742
 20
5.3922095663
  0
LWPOLYLINE
  5
4BD
100
AcDbEntity
  8
0
100
AcDbPolyline
 62
7
  6
CONTINUOUS
 90
14
 70
0
 10
7.1268800037
 20
5.6718510489
 10
7.1282726919
 20
5.6319712975
 10
7.1296852459
 20
5.5844878965
 10
7.1311017644
 20
5.5308283666
 10
7.1325066643
 20
5.4728289207
 10
7.1338946019
 20
5.4121232951
 10
7.1352880912
 20
5.3491050978
 10
7.1366758211
 20
5.2856567367
 10
7.1380639695
 20
5.2228830539
 10
7.1394509187
 20
5.1622211243
 10
7.1408559645
 20
5.1042152322
 10
7.1422724952
 20
5.0505549808
 10
7.1436849904
 20
5.003073132
 10
7.1450777986
 20
4.9631896316
  0
LWPOLYLINE
  5
4BE
100
AcDbEntity
  8
0
100
AcDbPolyline
 62
7
  6
CONTINUOUS
 90
14
 70
0
 10
7.1524793734
 20
4.9631896316
 10
7.1510868106
 20
5.0030654703
 10
7.1496743798
 20
5.0505438675
 10
7.1482579191
 20
5.104200139
 10
7.1468530454
 20
5.1621975705
 10
7.1454650224
 20
5.2229063525
 10
7.1440708917
 20
5.2859535771
 10
7.1426823275
 20
5.3494400113
 10
7.1412949211
 20
5.4121793494
 10
7.1399082085
 20
5.4728302231
 10
7.1385032892
 20
5.5308303555
 10
7.1370868506
 20
5.584486825
 10
7.1356743854
 20
5.6319675921
 10
7.1342815785
 20
5.6718510489
  0
LWPOLYLINE
  5
4BF
100
AcDbEntity
  8
0
100
AcDbPolyline
 62
7
  6
CONTINUOUS
 90
14
 70
0
 10
7.1859351218
 20
5.6718510489
 10
7.1873279287
 20
5.6319675921
 10
7.1887403939
 20
5.584486825
 10
7.1901568325
 20
5.5308303555
 10
7.1915617518
 20
5.4728302231
 10
7.1929484644
 20
5.4121793494
 10
7.1943358708
 20
5.3494400113
 10
7.195724435
 20
5.2859535771
 10
7.1971185657
 20
5.2229063525
 10
7.1985065887
 20
5.1621975705
 10
7.1999114624
 20
5.104200139
 10
7.2013279231
 20
5.0505438675
 10
7.2027403539
 20
5.0030654703
 10
7.2041329168
 20
4.9631896316
  0
LWPOLYLINE
  5
4C0
100
AcDbEntity
  8
0
100
AcDbPolyline
 62
7
  6
CONTINUOUS
 90
14
 70
0
 10
7.2705896097
 20
4.9631896316
 10
7.2692040538
 20
5.0028467777
 10
7.2678175504
 20
5.0493638263
 10
7.2664206977
 20
5.102115568
 10
7.2650243596
 20
5.1595943956
 10
7.2636345579
 20
5.2202610358
 10
7.2622270757
 20
5.283856944
 10
7.2608130324
 20
5.3485058225
 10
7.2594081709
 20
5.412044816
 10
7.2580202132
 20
5.4727547522
 10
7.2566148247
 20
5.5307787227
 10
7.2551979371
 20
5.5844563133
 10
7.2537850279
 20
5.6319549051
 10
7.2523918148
 20
5.6718510489
  0
LWPOLYLINE
  5
4C1
100
AcDbEntity
  8
0
100
AcDbPolyline
 62
9
  6
CONTINUOUS
 90
10
 70
0
 10
7.2249171714
 20
5.3849544543
 10
7.2262995586
 20
5.3281802111
 10
7.2276819459
 20
5.2711757851
 10
7.2290643331
 20
5.2151720956
 10
7.2304467204
 20
5.1613784528
 10
7.2318291076
 20
5.1109564444
 10
7.2332114949
 20
5.064994853
 10
7.2345938821
 20
5.0244861456
 10
7.2359762694
 20
4.9903050431
 10
7.2373586566
 20
4.9631896316
  0
LWPOLYLINE
  5
4C2
100
AcDbEntity
  8
0
100
AcDbPolyline
 62
9
  6
CONTINUOUS
 90
10
 70
0
 10
7.2283267202
 20
5.3849544543
 10
7.2297091075
 20
5.3281802111
 10
7.2310914947
 20
5.2711757851
 10
7.232473882
 20
5.2151720956
 10
7.2338562692
 20
5.1613784528
 10
7.2352386565
 20
5.1109564444
 10
7.2366210437
 20
5.064994853
 10
7.238003431
 20
5.0244861456
 10
7.2393858182
 20
4.9903050431
 10
7.2407682054
 20
4.9631896316
  0
LWPOLYLINE
  5
4C3
100
AcDbEntity
  8
0
100
AcDbPolyline
 62
7
  6
CONTINUOUS
 90
7
 70
0
 10
7.2007951742
 20
5.3922095663
 10
7.1995678052
 20
5.4467307673
 10
7.1983303352
 20
5.499470658
 10
7.1970795857
 20
5.5495729746
 10
7.1958230154
 20
5.5957751883
 10
7.1945728601
 20
5.6368146998
 10
7.1933366967
 20
5.6718510489
  0
LWPOLYLINE
  5
4C4
100
AcDbEntity
  8
0
100
AcDbPolyline
 62
7
  6
CONTINUOUS
 90
9
 70
0
 10
7.2524487175
 20
5.3922095663
 10
7.253787828
 20
5.3313066619
 10
7.2551366592
 20
5.2696822706
 10
7.2564811737
 20
5.2092325792
 10
7.2578160757
 20
5.1514007096
 10
7.2591641133
 20
5.0963983163
 10
7.2605161191
 20
5.0457959739
 10
7.2618576859
 20
5.0011298727
 10
7.2631880349
 20
4.9631896316
  0
LWPOLYLINE
  5
4C5
100
AcDbEntity
  8
0
100
AcDbPolyline
 62
9
  6
CONTINUOUS
 90
7
 70
0
 10
7.3372763111
 20
5.6718510489
 10
7.3385889475
 20
5.6462786154
 10
7.3399015839
 20
5.6143043506
 10
7.3412142203
 20
5.5765508816
 10
7.3425268567
 20
5.5337533728
 10
7.3438394931
 20
5.4867452097
 10
7.3451521295
 20
5.4364417713
  0
LWPOLYLINE
  5
4C6
100
AcDbEntity
  8
0
100
AcDbPolyline
 62
9
  6
CONTINUOUS
 90
9
 70
0
 10
7.3338667623
 20
5.6718510489
 10
7.3352774332
 20
5.6441048266
 10
7.3366881041
 20
5.609015559
 10
7.338098775
 20
5.5673722062
 10
7.3395094459
 20
5.5201110925
 10
7.3409201168
 20
5.4682948541
 10
7.3423307877
 20
5.4130885463
 10
7.3437414586
 20
5.355733448
 10
7.3451521295
 20
5.2975191521
  0
LWPOLYLINE
  5
4C7
100
AcDbEntity
  8
0
100
AcDbPolyline
 62
9
  6
CONTINUOUS
 90
16
 70
0
 10
7.2748116442
 20
5.6718510489
 10
7.2762517862
 20
5.6434443854
 10
7.2776919282
 20
5.6074007383
 10
7.2791320703
 20
5.5645646748
 10
7.2805722123
 20
5.5159399205
 10
7.2820123544
 20
5.4626658403
 10
7.2834524964
 20
5.4059907414
 10
7.2848926384
 20
5.3472426227
 10
7.2863327805
 20
5.2877980578
 10
7.2877729225
 20
5.229049939
 10
7.2892130645
 20
5.1723748401
 10
7.2906532066
 20
5.11910076
 10
7.2920933486
 20
5.0704760057
 10
7.2935334907
 20
5.0276399422
 10
7.2949736327
 20
4.9915962951
 10
7.2964137747
 20
4.9631896316
  0
LWPOLYLINE
  5
4C8
100
AcDbEntity
  8
0
100
AcDbPolyline
 62
9
  6
CONTINUOUS
 90
16
 70
0
 10
7.278221193
 20
5.6718510489
 10
7.279661335
 20
5.6434443854
 10
7.2811014771
 20
5.6074007383
 10
7.2825416191
 20
5.5645646748
 10
7.2839817612
 20
5.5159399205
 10
7.2854219032
 20
5.4626658403
 10
7.2868620452
 20
5.4059907414
 10
7.2883021873
 20
5.3472426227
 10
7.2897423293
 20
5.2877980578
 10
7.2911824713
 20
5.229049939
 10
7.2926226134
 20
5.1723748401
 10
7.2940627554
 20
5.11910076
 10
7.2955028974
 20
5.0704760057
 10
7.2969430395
 20
5.0276399422
 10
7.2983831815
 20
4.9915962951
 10
7.2998233236
 20
4.9631896316
  0
LWPOLYLINE
  5
4C9
100
AcDbEntity
  8
0
100
AcDbPolyline
 62
7
  6
CONTINUOUS
 90
14
 70
0
 10
7.322243153
 20
4.9631896316
 10
7.3208433387
 20
5.0032919741
 10
7.3194435222
 20
5.0503514929
 10
7.3180436932
 20
5.1033267088
 10
7.3166438632
 20
5.1610443702
 10
7.3152440318
 20
5.22222659
 10
7.3138441861
 20
5.2855193428
 10
7.3124443333
 20
5.3495209574
 10
7.3110444979
 20
5.4128132564
 10
7.3096446787
 20
5.4739949928
 10
7.3082448422
 20
5.5317130027
 10
7.3068449923
 20
5.5846890649
 10
7.3054451565
 20
5.6317492004
 10
7.3040453581
 20
5.6718510489
  0
LWPOLYLINE
  5
4CA
100
AcDbEntity
  8
0
100
AcDbPolyline
 62
7
  6
CONTINUOUS
 90
14
 70
0
 10
7.3114469329
 20
5.6718510489
 10
7.3128467307
 20
5.6317492205
 10
7.3142465602
 20
5.5846893139
 10
7.3156463975
 20
5.531713779
 10
7.3170462178
 20
5.4739965155
 10
7.3184460362
 20
5.4128148879
 10
7.3198458809
 20
5.3495221984
 10
7.3212457424
 20
5.2855201868
 10
7.3226455945
 20
5.2222271285
 10
7.3240454283
 20
5.1610447846
 10
7.3254452542
 20
5.1033272584
 10
7.3268450799
 20
5.0503521033
 10
7.328244903
 20
5.0032923007
 10
7.3296447278
 20
4.9631896316
  0
LINE
  5
4CB
100
AcDbEntity
  8
0
100
AcDbLine
 62
7
  6
CONTINUOUS
 10
7.3451521295
 20
4.9631896316
 11
7.3451521295
 21
5.6718510489
  0
LINE
  5
4CC
100
AcDbEntity
  8
0
100
AcDbLine
 62
9
  6
CONTINUOUS
 10
7.3648371689
 20
4.9631896316
 11
7.3648371689
 21
5.6718510489
  0
LINE
  5
4CD
100
AcDbEntity
  8
0
100
AcDbLine
 62
7
  6
CONTINUOUS
 10
7.3845222083
 20
5.6521660095
 11
7.3845222083
 21
4.9828746709
  0
LINE
  5
4CE
100
AcDbEntity
  8
0
100
AcDbLine
 62
7
  6
CONTINUOUS
 10
7.4345222083
 20
5.0275203402
 11
7.4345222083
 21
5.6075203402
  0
LWPOLYLINE
  5
4CF
100
AcDbEntity
  8
0
100
AcDbPolyline
 62
9
  6
CONTINUOUS
 90
6
 70
0
 10
7.3845222083
 20
5.6521660095
 10
7.3835587539
 20
5.6579110761
 10
7.3807627003
 20
5.6630937756
 10
7.3764077447
 20
5.6672067892
 10
7.3709201806
 20
5.6698475064
 10
7.3648371689
 20
5.6707574356
  0
LINE
  5
4D0
100
AcDbEntity
  8
0
100
AcDbLine
 62
7
  6
CONTINUOUS
 10
7.4845222083
 20
5.0563909134
 11
7.4845222083
 21
5.578649767
  0
LINE
  5
4D1
100
AcDbEntity
  8
0
100
AcDbLine
 62
7
  6
CONTINUOUS
 10
6.7546009484
 20
4.7269691591
 11
6.3215300823
 21
4.7269691591
  0
LINE
  5
4D2
100
AcDbEntity
  8
AXIS
100
AcDbLine
 62
7
  6
CONTINUOUS
 10
6.3215300823
 20
4.7269691591
 11
6.7546009484
 21
4.7269691591
  0
LINE
  5
4D3
100
AcDbEntity
  8
0
100
AcDbLine
 62
7
  6
CONTINUOUS
 10
6.8136560665
 20
4.9631896316
 11
7.3648371689
 21
4.9631896316
  0
LINE
  5
4D4
100
AcDbEntity
  8
0
100
AcDbLine
 62
9
  6
CONTINUOUS
 10
7.3451521295
 20
4.9642832449
 11
7.3648371689
 21
4.9642832449
  0
LINE
  5
4D5
100
AcDbEntity
  8
0
100
AcDbLine
 62
9
  6
CONTINUOUS
 10
6.8136560665
 20
4.9668245189
 11
6.8570651476
 21
4.9668245189
  0
LWPOLYLINE
  5
4D6
100
AcDbEntity
  8
0
100
AcDbPolyline
 62
9
  6
CONTINUOUS
 90
6
 70
0
 10
7.3648371689
 20
4.9642832449
 10
7.3709192781
 20
4.9651928971
 10
7.3764072493
 20
4.9678335514
 10
7.3807625383
 20
4.9719466943
 10
7.3835587113
 20
4.9771294806
 10
7.3845222083
 20
4.9828746709
  0
LINE
  5
4D7
100
AcDbEntity
  8
0
100
AcDbLine
 62
7
  6
CONTINUOUS
 10
7.3845222083
 20
5.0275203402
 11
7.4345222083
 21
5.0275203402
  0
LINE
  5
4D8
100
AcDbEntity
  8
0
100
AcDbLine
 62
7
  6
CONTINUOUS
 10
7.4345222083
 20
5.0275203402
 11
7.4845222083
 21
5.0563878537
  0
LINE
  5
4D9
100
AcDbEntity
  8
AXIS_COSMETIC_THREADS
100
AcDbLine
 62
7
  6
CONTINUOUS
 10
10.1245222083
 20
5.2010203402
 11
7.4845222083
 21
5.2010203402
  0
LINE
  5
4DA
100
AcDbEntity
  8
AXIS_COSMETIC_THREADS
100
AcDbLine
 62
7
  6
CONTINUOUS
 10
10.1245222083
 20
5.2525203402
 11
10.4245222083
 21
5.2525203402
  0
LINE
  5
4DB
100
AcDbEntity
  8
AXIS_COSMETIC_THREADS
100
AcDbLine
 62
7
  6
CONTINUOUS
 10
10.1245222083
 20
5.3025203402
 11
10.4245222083
 21
5.3025203402
  0
LINE
  5
4DC
100
AcDbEntity
  8
AXIS_COSMETIC_THREADS
100
AcDbLine
 62
7
  6
CONTINUOUS
 10
10.1245222083
 20
5.3325203402
 11
10.4245222083
 21
5.3325203402
  0
LINE
  5
4DD
100
AcDbEntity
  8
0
100
AcDbLine
 62
7
  6
CONTINUOUS
 10
7.4345222083
 20
5.6075203402
 11
7.4845222083
 21
5.5786528268
  0
LINE
  5
4DE
100
AcDbEntity
  8
AXIS_COSMETIC_THREADS
100
AcDbLine
 62
7
  6
CONTINUOUS
 10
10.1245222083
 20
5.3825203402
 11
10.4245222083
 21
5.3825203402
  0
LINE
  5
4DF
100
AcDbEntity
  8
AXIS_COSMETIC_THREADS
100
AcDbLine
 62
7
  6
CONTINUOUS
 10
10.1245222083
 20
5.4340203402
 11
7.4845222083
 21
5.4340203402
  0
LINE
  5
4E0
100
AcDbEntity
  8
0
100
AcDbLine
 62
7
  6
CONTINUOUS
 10
7.3845222083
 20
5.6075203402
 11
7.4345222083
 21
5.6075203402
  0
LWPOLYLINE
  5
4E1
100
AcDbEntity
  8
0
100
AcDbPolyline
 62
9
  6
CONTINUOUS
 90
6
 70
0
 10
6.8136560665
 20
5.6682161616
 10
6.8075730548
 20
5.6690017119
 10
6.8020854907
 20
5.6712814678
 10
6.7977305352
 20
5.6748322709
 10
6.7949344816
 20
5.6793065438
 10
6.7939710272
 20
5.6842663136
  0
LINE
  5
4E2
100
AcDbEntity
  8
0
100
AcDbLine
 62
9
  6
CONTINUOUS
 10
6.8391446232
 20
5.6682161615
 11
6.8136560665
 21
5.6682161615
  0
LINE
  5
4E3
100
AcDbEntity
  8
0
100
AcDbLine
 62
9
  6
CONTINUOUS
 10
7.3648371689
 20
5.6707574356
 11
7.3451521295
 21
5.6707574356
  0
LINE
  5
4E4
100
AcDbEntity
  8
0
100
AcDbLine
 62
7
  6
CONTINUOUS
 10
6.8136560665
 20
5.6718510489
 11
7.3648371689
 21
5.6718510489
  0
LINE
  5
4E5
100
AcDbEntity
  8
0
100
AcDbLine
 62
7
  6
CONTINUOUS
 10
6.7546009484
 20
5.9080715213
 11
6.3215300823
 21
5.9080715213
  0
LINE
  5
4E6
100
AcDbEntity
  8
AXIS
100
AcDbLine
 62
7
  6
CONTINUOUS
 10
6.3215300823
 20
5.9080715213
 11
6.7546009484
 21
5.9080715213
  0
LINE
  5
4E7
100
AcDbEntity
  8
AXIS_COSMETIC_THREADS
100
AcDbLine
 62
7
  6
CONTINUOUS
 10
10.1245222083
 20
5.2010203402
 11
10.1245222083
 21
5.4340203402
  0
LINE
  5
4E8
100
AcDbEntity
  8
AXIS_COSMETIC_THREADS
100
AcDbLine
 62
7
  6
CONTINUOUS
 10
10.4245222083
 20
5.3825203402
 11
10.4245222083
 21
5.3325203402
  0
LINE
  5
4E9
100
AcDbEntity
  8
AXIS_COSMETIC_THREADS
100
AcDbLine
 62
7
  6
CONTINUOUS
 10
10.4245222083
 20
5.3025203402
 11
10.4245222083
 21
5.2525203402
  0
LINE
  5
4EA
100
AcDbEntity
  8
AXIS
100
AcDbLine
 62
7
  6
CONTINUOUS
 10
6.3215300823
 20
6.9104783307
 11
6.3215300823
 21
8.0915806929
  0
LINE
  5
4EB
100
AcDbEntity
  8
0
100
AcDbLine
 62
9
  6
CONTINUOUS
 10
6.7546009484
 20
6.9104783307
 11
6.7546009484
 21
8.0915806929
  0
LINE
  5
4EC
100
AcDbEntity
  8
0
100
AcDbLine
 62
7
  6
CONTINUOUS
 10
6.7939710272
 20
8.0522106142
 11
6.7939710272
 21
6.9498484095
  0
LWPOLYLINE
  5
4ED
100
AcDbEntity
  8
0
100
AcDbPolyline
 62
7
  6
CONTINUOUS
 90
8
 70
0
 10
6.8481048914
 20
7.0709114016
 10
6.8473996582
 20
7.0721216007
 10
6.8460078856
 20
7.0815723757
 10
6.844635907
 20
7.0998761612
 10
6.843266522
 20
7.1266540395
 10
6.8418954145
 20
7.1614132334
 10
6.8405168427
 20
7.2036336029
 10
6.8391446232
 20
7.2520033492
  0
LWPOLYLINE
  5
4EE
100
AcDbEntity
  8
0
100
AcDbPolyline
 62
7
  6
CONTINUOUS
 90
8
 70
0
 10
6.8865927067
 20
7.7500556745
 10
6.885218711
 20
7.79848414
 10
6.8838322113
 20
7.8409181163
 10
6.8824484741
 20
7.8759071269
 10
6.8810791083
 20
7.9025501309
 10
6.8797082807
 20
7.9206998799
 10
6.8783170753
 20
7.9300070488
 10
6.877988011
 20
7.9308398762
  0
LWPOLYLINE
  5
4EF
100
AcDbEntity
  8
0
100
AcDbPolyline
 62
7
  6
CONTINUOUS
 90
8
 70
0
 10
6.8906595313
 20
7.257203062
 10
6.8920524319
 20
7.2075565926
 10
6.8934525487
 20
7.1641383728
 10
6.8948453247
 20
7.128349828
 10
6.8962360715
 20
7.1007638732
 10
6.8976291399
 20
7.0819017968
 10
6.8990423529
 20
7.0721591021
 10
6.8994028623
 20
7.0712191475
  0
LWPOLYLINE
  5
4F0
100
AcDbEntity
  8
0
100
AcDbPolyline
 62
7
  6
CONTINUOUS
 90
8
 70
0
 10
6.9497146494
 20
7.257203062
 10
6.9511035374
 20
7.2076908598
 10
6.9524944465
 20
7.1645148335
 10
6.9538841613
 20
7.1287223676
 10
6.9552778356
 20
7.1009879765
 10
6.9566692219
 20
7.0820568868
 10
6.9580802319
 20
7.0722198696
 10
6.9584579804
 20
7.0712191475
  0
LWPOLYLINE
  5
4F1
100
AcDbEntity
  8
0
100
AcDbPolyline
 62
7
  6
CONTINUOUS
 90
8
 70
0
 10
6.9457864601
 20
7.7448559617
 10
6.944393732
 20
7.7944966605
 10
6.9429818534
 20
7.8382501181
 10
6.9415664411
 20
7.8744886705
 10
6.9401628518
 20
7.9020785854
 10
6.9387727824
 20
7.9206055984
 10
6.9373632365
 20
7.9300366846
 10
6.9370431291
 20
7.9308398762
  0
LWPOLYLINE
  5
4F2
100
AcDbEntity
  8
0
100
AcDbPolyline
 62
9
  6
CONTINUOUS
 90
9
 70
0
 10
6.8614258174
 20
7.3421086851
 10
6.8628659594
 20
7.2898907019
 10
6.8643061015
 20
7.2426200788
 10
6.8657462435
 20
7.2014044511
 10
6.8671863856
 20
7.1672095747
 10
6.8686265276
 20
7.1408366967
 10
6.8700666696
 20
7.1229037809
 10
6.8715068117
 20
7.1138310276
 10
6.8726206613
 20
7.1130326992
  0
LWPOLYLINE
  5
4F3
100
AcDbEntity
  8
0
100
AcDbPolyline
 62
9
  6
CONTINUOUS
 90
9
 70
0
 10
6.8648353662
 20
7.3421086851
 10
6.8662755083
 20
7.2898907019
 10
6.8677156503
 20
7.2426200788
 10
6.8691557923
 20
7.2014044511
 10
6.8705959344
 20
7.1672095747
 10
6.8720360764
 20
7.1408366967
 10
6.8734762185
 20
7.1229037809
 10
6.8749163605
 20
7.1138310276
 10
6.8752426529
 20
7.1130326992
  0
LWPOLYLINE
  5
4F4
100
AcDbEntity
  8
0
100
AcDbPolyline
 62
9
  6
CONTINUOUS
 90
9
 70
0
 10
6.9204809355
 20
7.3421086851
 10
6.9219210776
 20
7.2898907019
 10
6.9233612196
 20
7.2426200788
 10
6.9248013616
 20
7.2014044511
 10
6.9262415037
 20
7.1672095747
 10
6.9276816457
 20
7.1408366967
 10
6.9291217877
 20
7.1229037809
 10
6.9305619298
 20
7.1138310276
 10
6.9316757795
 20
7.1130326992
  0
LWPOLYLINE
  5
4F5
100
AcDbEntity
  8
0
100
AcDbPolyline
 62
9
  6
CONTINUOUS
 90
9
 70
0
 10
6.9238904843
 20
7.3421086851
 10
6.9253306264
 20
7.2898907019
 10
6.9267707684
 20
7.2426200788
 10
6.9282109105
 20
7.2014044511
 10
6.9296510525
 20
7.1672095747
 10
6.9310911945
 20
7.1408366967
 10
6.9325313366
 20
7.1229037809
 10
6.9339714786
 20
7.1138310276
 10
6.934297771
 20
7.1130326992
  0
LINE
  5
4F6
100
AcDbEntity
  8
0
100
AcDbLine
 62
9
  6
CONTINUOUS
 10
6.8136560665
 20
7.0709114016
 11
6.8136560665
 21
7.9311476221
  0
LWPOLYLINE
  5
4F7
100
AcDbEntity
  8
0
100
AcDbPolyline
 62
7
  6
CONTINUOUS
 90
3
 70
0
 10
6.8409042097
 20
7.2634004276
 10
6.8395161203
 20
7.2573484475
 10
6.8391446232
 20
7.2520033492
  0
LWPOLYLINE
  5
4F8
100
AcDbEntity
  8
0
100
AcDbPolyline
 62
7
  6
CONTINUOUS
 90
4
 70
0
 10
6.8614258174
 20
7.3421086851
 10
6.8555307564
 20
7.3165014142
 10
6.848683576
 20
7.290258173
 10
6.8409042097
 20
7.2634004276
  0
LWPOLYLINE
  5
4F9
100
AcDbEntity
  8
0
100
AcDbPolyline
 62
7
  6
CONTINUOUS
 90
4
 70
0
 10
6.9159650558
 20
7.6599503386
 10
6.9223472069
 20
7.687529828
 10
6.9298290813
 20
7.7158397605
 10
6.9383848853
 20
7.7448559617
  0
LWPOLYLINE
  5
4FA
100
AcDbEntity
  8
0
100
AcDbPolyline
 62
7
  6
CONTINUOUS
 90
4
 70
0
 10
6.975020174
 20
7.6599503386
 10
6.981402325
 20
7.687529828
 10
6.9888841994
 20
7.7158397605
 10
6.9974400034
 20
7.7448559617
  0
LINE
  5
4FB
100
AcDbEntity
  8
0
100
AcDbLine
 62
7
  6
CONTINUOUS
 10
6.9289304213
 20
7.9308398762
 11
6.9047702119
 21
7.8890263245
  0
LINE
  5
4FC
100
AcDbEntity
  8
0
100
AcDbLine
 62
7
  6
CONTINUOUS
 10
6.9879855394
 20
7.9308398762
 11
6.96382533
 21
7.8890263245
  0
LINE
  5
4FD
100
AcDbEntity
  8
0
100
AcDbLine
 62
7
  6
CONTINUOUS
 10
6.9047702119
 20
7.8890263245
 11
6.9047856601
 21
7.889052534
  0
LINE
  5
4FE
100
AcDbEntity
  8
0
100
AcDbLine
 62
7
  6
CONTINUOUS
 10
6.96382533
 20
7.8890263245
 11
6.9638484939
 21
7.889065232
  0
LWPOLYLINE
  5
4FF
100
AcDbEntity
  8
0
100
AcDbPolyline
 62
7
  6
CONTINUOUS
 90
4
 70
0
 10
6.9047856601
 20
7.889052534
 10
6.9047565879
 20
7.8890053587
 10
6.9033381561
 20
7.8883875013
 10
6.9025528704
 20
7.8886480351
  0
LWPOLYLINE
  5
500
100
AcDbEntity
  8
0
100
AcDbPolyline
 62
7
  6
CONTINUOUS
 90
4
 70
0
 10
6.9638484939
 20
7.889065232
 10
6.9637799056
 20
7.8889625764
 10
6.96183682
 20
7.8885281472
 10
6.9612753154
 20
7.888920632
  0
LINE
  5
501
100
AcDbEntity
  8
0
100
AcDbLine
 62
7
  6
CONTINUOUS
 10
6.8752426529
 20
7.1130326992
 11
6.8752638819
 21
7.1129969513
  0
LINE
  5
502
100
AcDbEntity
  8
0
100
AcDbLine
 62
7
  6
CONTINUOUS
 10
6.934297771
 20
7.1130326992
 11
6.9343155576
 21
7.1130026136
  0
LINE
  5
503
100
AcDbEntity
  8
0
100
AcDbLine
 62
7
  6
CONTINUOUS
 10
6.8752426529
 20
7.1130326992
 11
6.8994028623
 21
7.0712191475
  0
LINE
  5
504
100
AcDbEntity
  8
0
100
AcDbLine
 62
7
  6
CONTINUOUS
 10
6.934297771
 20
7.1130326992
 11
6.9584579804
 21
7.0712191475
  0
LINE
  5
505
100
AcDbEntity
  8
0
100
AcDbLine
 62
7
  6
CONTINUOUS
 10
6.9933528891
 20
7.1130326992
 11
7.0175130985
 21
7.0712191475
  0
LINE
  5
506
100
AcDbEntity
  8
0
100
AcDbLine
 62
7
  6
CONTINUOUS
 10
6.9933402227
 20
7.113054971
 11
6.9933528891
 21
7.1130326992
  0
LWPOLYLINE
  5
507
100
AcDbEntity
  8
0
100
AcDbPolyline
 62
7
  6
CONTINUOUS
 90
8
 70
0
 10
6.9071600108
 20
7.0709114016
 10
6.9064266886
 20
7.0722198696
 10
6.9050156786
 20
7.0820568868
 10
6.9036242922
 20
7.1009879765
 10
6.902230618
 20
7.1287223676
 10
6.9008409032
 20
7.1645148335
 10
6.8994499941
 20
7.2076908598
 10
6.8980611061
 20
7.257203062
  0
LWPOLYLINE
  5
508
100
AcDbEntity
  8
0
100
AcDbPolyline
 62
7
  6
CONTINUOUS
 90
8
 70
0
 10
6.9662154128
 20
7.0709114018
 10
6.965481536
 20
7.0722208354
 10
6.9640744593
 20
7.0820190108
 10
6.9626844562
 20
7.1009032042
 10
6.9612873594
 20
7.1286851749
 10
6.9598890505
 20
7.1647136015
 10
6.9585017697
 20
7.2078027497
 10
6.9571162242
 20
7.257203062
  0
LWPOLYLINE
  5
509
100
AcDbEntity
  8
0
100
AcDbPolyline
 62
7
  6
CONTINUOUS
 90
4
 70
0
 10
6.8906595313
 20
7.257203062
 10
6.8810180331
 20
7.2862214138
 10
6.8723997991
 20
7.3145287034
 10
6.8648353662
 20
7.3421086851
  0
LWPOLYLINE
  5
50A
100
AcDbEntity
  8
0
100
AcDbPolyline
 62
7
  6
CONTINUOUS
 90
4
 70
0
 10
6.9497146494
 20
7.257203062
 10
6.9400731512
 20
7.2862214138
 10
6.9314549172
 20
7.3145287034
 10
6.9238904843
 20
7.3421086851
  0
LWPOLYLINE
  5
50B
100
AcDbEntity
  8
0
100
AcDbPolyline
 62
7
  6
CONTINUOUS
 90
10
 70
0
 10
6.8648353662
 20
7.3421086851
 10
6.8645726613
 20
7.3429212083
 10
6.8642419528
 20
7.343603051
 10
6.8638328965
 20
7.3441476181
 10
6.8633262826
 20
7.3444870464
 10
6.8627752646
 20
7.3444665305
 10
6.8623135954
 20
7.3441211713
 10
6.8619477914
 20
7.343593313
 10
6.8616512448
 20
7.3429173529
 10
6.8614258174
 20
7.3421086851
  0
LWPOLYLINE
  5
50C
100
AcDbEntity
  8
0
100
AcDbPolyline
 62
7
  6
CONTINUOUS
 90
10
 70
0
 10
6.9238904843
 20
7.3421086851
 10
6.9236277794
 20
7.3429212083
 10
6.9232970709
 20
7.343603051
 10
6.9228880146
 20
7.3441476181
 10
6.9223814007
 20
7.3444870464
 10
6.9218303827
 20
7.3444665305
 10
6.9213687135
 20
7.3441211713
 10
6.9210029095
 20
7.343593313
 10
6.9207063629
 20
7.3429173529
 10
6.9204809355
 20
7.3421086851
  0
LWPOLYLINE
  5
50D
100
AcDbEntity
  8
0
100
AcDbPolyline
 62
9
  6
CONTINUOUS
 90
6
 70
0
 10
6.7939710272
 20
7.7614527528
 10
6.7949344816
 20
7.7579308619
 10
6.7977305352
 20
7.7547537183
 10
6.8020854907
 20
7.7522323228
 10
6.8075730548
 20
7.7506134872
 10
6.8136560665
 20
7.7500556744
  0
LWPOLYLINE
  5
50E
100
AcDbEntity
  8
0
100
AcDbPolyline
 62
7
  6
CONTINUOUS
 90
3
 70
0
 10
6.8865927067
 20
7.7500556745
 10
6.8872197169
 20
7.7447275856
 10
6.8888545153
 20
7.7386585961
  0
LWPOLYLINE
  5
50F
100
AcDbEntity
  8
0
100
AcDbPolyline
 62
9
  6
CONTINUOUS
 90
7
 70
0
 10
7.0411901373
 20
7.2514109235
 10
7.0426519192
 20
7.2083434174
 10
7.0441137011
 20
7.1723413042
 10
7.045575483
 20
7.1442736691
 10
7.047037265
 20
7.1248180599
 10
7.0484990469
 20
7.1144441319
 10
7.0497860157
 20
7.1130326992
  0
LWPOLYLINE
  5
510
100
AcDbEntity
  8
0
100
AcDbPolyline
 62
9
  6
CONTINUOUS
 90
7
 70
0
 10
7.0445996861
 20
7.2514109235
 10
7.046061468
 20
7.2083434174
 10
7.04752325
 20
7.1723413042
 10
7.0489850319
 20
7.1442736691
 10
7.0504468138
 20
7.1248180599
 10
7.0519085957
 20
7.1144441319
 10
7.0524080072
 20
7.1130326992
  0
LWPOLYLINE
  5
511
100
AcDbEntity
  8
0
100
AcDbPolyline
 62
7
  6
CONTINUOUS
 90
7
 70
0
 10
7.0687216833
 20
7.2245549199
 10
7.0700482741
 20
7.180953333
 10
7.0713875345
 20
7.1433950828
 10
7.0727257751
 20
7.1131060056
 10
7.0740496289
 20
7.0908656595
 10
7.0753754509
 20
7.0767344216
 10
7.0765682166
 20
7.0712191475
  0
LWPOLYLINE
  5
512
100
AcDbEntity
  8
0
100
AcDbPolyline
 62
7
  6
CONTINUOUS
 90
8
 70
0
 10
7.0087697675
 20
7.257203062
 10
7.010155313
 20
7.2078027497
 10
7.0115425938
 20
7.1647136015
 10
7.0129409027
 20
7.1286851749
 10
7.0143379995
 20
7.1009032042
 10
7.0157280026
 20
7.0820190108
 10
7.0171350793
 20
7.0722208354
 10
7.0175130985
 20
7.0712191475
  0
LWPOLYLINE
  5
513
100
AcDbEntity
  8
0
100
AcDbPolyline
 62
7
  6
CONTINUOUS
 90
3
 70
0
 10
7.01706814
 20
7.2245549199
 10
7.016620795
 20
7.2405442786
 10
7.0161713423
 20
7.257203062
  0
LWPOLYLINE
  5
514
100
AcDbEntity
  8
0
100
AcDbPolyline
 62
7
  6
CONTINUOUS
 90
8
 70
0
 10
7.0048415782
 20
7.7448559617
 10
7.0034476149
 20
7.7945379813
 10
7.0020339438
 20
7.8383361072
 10
7.0006162444
 20
7.87460927
 10
6.999210082
 20
7.9022088944
 10
6.9978235054
 20
7.9206498107
 10
6.996428618
 20
7.9300026936
 10
6.9960982472
 20
7.9308398762
  0
LWPOLYLINE
  5
515
100
AcDbEntity
  8
0
100
AcDbPolyline
 62
7
  6
CONTINUOUS
 90
8
 70
0
 10
7.0638966963
 20
7.7448559617
 10
7.062503799
 20
7.7945023229
 10
7.0610912405
 20
7.8382742379
 10
7.059674643
 20
7.8745348456
 10
7.0582695099
 20
7.9021377321
 10
7.0568830391
 20
7.9206053928
 10
7.0554973719
 20
7.9299567419
 10
7.0551533653
 20
7.9308398762
  0
LWPOLYLINE
  5
516
100
AcDbEntity
  8
0
100
AcDbPolyline
 62
7
  6
CONTINUOUS
 90
8
 70
0
 10
7.1268800037
 20
7.257203062
 10
7.1282726919
 20
7.2075636974
 10
7.1296852459
 20
7.1637908535
 10
7.1311017644
 20
7.1275308176
 10
7.1325066643
 20
7.0999299811
 10
7.1338946019
 20
7.0814441574
 10
7.1352880912
 20
7.072072647
 10
7.1356233347
 20
7.0712191475
  0
LWPOLYLINE
  5
517
100
AcDbEntity
  8
0
100
AcDbPolyline
 62
7
  6
CONTINUOUS
 90
8
 70
0
 10
7.1229518144
 20
7.7448559617
 10
7.121558976
 20
7.7945003513
 10
7.1201463524
 20
7.8382744131
 10
7.1187296992
 20
7.8745362509
 10
7.1173245818
 20
7.902138494
 10
7.1159369515
 20
7.9206175306
 10
7.1145456975
 20
7.929979745
 10
7.1142084834
 20
7.9308398762
  0
LWPOLYLINE
  5
518
100
AcDbEntity
  8
0
100
AcDbPolyline
 62
9
  6
CONTINUOUS
 90
9
 70
0
 10
6.9795360536
 20
7.3421086851
 10
6.9809761957
 20
7.2898907019
 10
6.9824163377
 20
7.2426200788
 10
6.9838564797
 20
7.2014044511
 10
6.9852966218
 20
7.1672095747
 10
6.9867367638
 20
7.1408366967
 10
6.9881769058
 20
7.1229037809
 10
6.9896170479
 20
7.1138310276
 10
6.9907185132
 20
7.1130116044
  0
LWPOLYLINE
  5
519
100
AcDbEntity
  8
0
100
AcDbPolyline
 62
9
  6
CONTINUOUS
 90
9
 70
0
 10
6.9829456025
 20
7.3421086851
 10
6.9843857445
 20
7.2898907019
 10
6.9858258865
 20
7.2426200788
 10
6.9872660286
 20
7.2014044511
 10
6.9887061706
 20
7.1672095747
 10
6.9901463126
 20
7.1408366967
 10
6.9915864547
 20
7.1229037809
 10
6.9930265967
 20
7.1138310276
 10
6.9933402227
 20
7.113054971
  0
LWPOLYLINE
  5
51A
100
AcDbEntity
  8
0
100
AcDbPolyline
 62
9
  6
CONTINUOUS
 90
9
 70
0
 10
7.0976462898
 20
7.3421086851
 10
7.0990864319
 20
7.2898907019
 10
7.1005265739
 20
7.2426200788
 10
7.101966716
 20
7.2014044511
 10
7.103406858
 20
7.1672095747
 10
7.104847
 20
7.1408366967
 10
7.1062871421
 20
7.1229037809
 10
7.1077272841
 20
7.1138310276
 10
7.1088411338
 20
7.1130326992
  0
LWPOLYLINE
  5
51B
100
AcDbEntity
  8
0
100
AcDbPolyline
 62
9
  6
CONTINUOUS
 90
9
 70
0
 10
7.1010558387
 20
7.3421086851
 10
7.1024959807
 20
7.2898907019
 10
7.1039361228
 20
7.2426200788
 10
7.1053762648
 20
7.2014044511
 10
7.1068164068
 20
7.1672095747
 10
7.1082565489
 20
7.1408366967
 10
7.1096966909
 20
7.1229037809
 10
7.1111368329
 20
7.1138310276
 10
7.1114631253
 20
7.1130326992
  0
LWPOLYLINE
  5
51C
100
AcDbEntity
  8
0
100
AcDbPolyline
 62
9
  6
CONTINUOUS
 90
3
 70
0
 10
7.0385911717
 20
7.3421086851
 10
7.0398906545
 20
7.2947917734
 10
7.0411901373
 20
7.2514109235
  0
LWPOLYLINE
  5
51D
100
AcDbEntity
  8
0
100
AcDbPolyline
 62
9
  6
CONTINUOUS
 90
3
 70
0
 10
7.0420007206
 20
7.3421086851
 10
7.0433002033
 20
7.2947917734
 10
7.0445996861
 20
7.2514109235
  0
LWPOLYLINE
  5
51E
100
AcDbEntity
  8
0
100
AcDbPolyline
 62
7
  6
CONTINUOUS
 90
3
 70
0
 10
7.0678248856
 20
7.257203062
 10
7.0682743383
 20
7.2405442786
 10
7.0687216833
 20
7.2245549199
  0
LWPOLYLINE
  5
51F
100
AcDbEntity
  8
0
100
AcDbPolyline
 62
7
  6
CONTINUOUS
 90
4
 70
0
 10
6.9204809355
 20
7.3421086851
 10
6.9140998093
 20
7.3145333258
 10
6.9066180594
 20
7.2862233693
 10
6.8980611061
 20
7.257203062
  0
LWPOLYLINE
  5
520
100
AcDbEntity
  8
0
100
AcDbPolyline
 62
7
  6
CONTINUOUS
 90
4
 70
0
 10
7.0340752921
 20
7.6599503386
 10
7.0404574431
 20
7.687529828
 10
7.0479393175
 20
7.7158397605
 10
7.0564951215
 20
7.7448559617
  0
LWPOLYLINE
  5
521
100
AcDbEntity
  8
0
100
AcDbPolyline
 62
7
  6
CONTINUOUS
 90
4
 70
0
 10
6.9795360536
 20
7.3421086851
 10
6.9731549274
 20
7.3145333258
 10
6.9656731775
 20
7.2862233693
 10
6.9571162242
 20
7.257203062
  0
LWPOLYLINE
  5
522
100
AcDbEntity
  8
0
100
AcDbPolyline
 62
7
  6
CONTINUOUS
 90
4
 70
0
 10
7.0931304102
 20
7.6599503386
 10
7.0994975261
 20
7.6874692277
 10
7.1069780189
 20
7.715781104
 10
7.1155502396
 20
7.7448559617
  0
LWPOLYLINE
  5
523
100
AcDbEntity
  8
0
100
AcDbPolyline
 62
7
  6
CONTINUOUS
 90
4
 70
0
 10
7.0385911717
 20
7.3421086851
 10
7.0322100455
 20
7.3145333258
 10
7.0247282956
 20
7.2862233693
 10
7.0161713423
 20
7.257203062
  0
LINE
  5
524
100
AcDbEntity
  8
0
100
AcDbLine
 62
7
  6
CONTINUOUS
 10
7.0819527705
 20
7.8890554469
 11
7.0819434608
 21
7.8890390041
  0
LINE
  5
525
100
AcDbEntity
  8
0
100
AcDbLine
 62
7
  6
CONTINUOUS
 10
7.0470406575
 20
7.9308398762
 11
7.0228804481
 21
7.8890263245
  0
LINE
  5
526
100
AcDbEntity
  8
0
100
AcDbLine
 62
7
  6
CONTINUOUS
 10
7.1060957757
 20
7.9308398762
 11
7.0819355662
 21
7.8890263245
  0
LINE
  5
527
100
AcDbEntity
  8
0
100
AcDbLine
 62
7
  6
CONTINUOUS
 10
7.1651508938
 20
7.9308398762
 11
7.1409906843
 21
7.8890263245
  0
LINE
  5
528
100
AcDbEntity
  8
0
100
AcDbLine
 62
7
  6
CONTINUOUS
 10
7.2242060119
 20
7.9308398762
 11
7.2000458025
 21
7.8890263245
  0
LINE
  5
529
100
AcDbEntity
  8
0
100
AcDbLine
 62
7
  6
CONTINUOUS
 10
7.0819355662
 20
7.8890263245
 11
7.0819527705
 21
7.8890554469
  0
LINE
  5
52A
100
AcDbEntity
  8
0
100
AcDbLine
 62
7
  6
CONTINUOUS
 10
7.0228804481
 20
7.8890263245
 11
7.0228982616
 21
7.8890564544
  0
LINE
  5
52B
100
AcDbEntity
  8
0
100
AcDbLine
 62
7
  6
CONTINUOUS
 10
7.2000458025
 20
7.8890263245
 11
7.2000649489
 21
7.8890586529
  0
LINE
  5
52C
100
AcDbEntity
  8
0
100
AcDbLine
 62
7
  6
CONTINUOUS
 10
7.1410064838
 20
7.8890531177
 11
7.1409857611
 21
7.8890181701
  0
LWPOLYLINE
  5
52D
100
AcDbEntity
  8
0
100
AcDbPolyline
 62
7
  6
CONTINUOUS
 90
4
 70
0
 10
7.0228982616
 20
7.8890564544
 10
7.0228588267
 20
7.888994004
 10
7.0212991711
 20
7.8884058601
 10
7.0205765072
 20
7.8887043554
  0
LINE
  5
52E
100
AcDbEntity
  8
0
100
AcDbLine
 62
7
  6
CONTINUOUS
 10
6.9289304213
 20
7.9308398762
 11
6.9292859944
 21
7.9311476221
  0
LINE
  5
52F
100
AcDbEntity
  8
0
100
AcDbLine
 62
7
  6
CONTINUOUS
 10
6.9879855394
 20
7.9308398762
 11
6.9883411156
 21
7.9311476221
  0
LINE
  5
530
100
AcDbEntity
  8
0
100
AcDbLine
 62
7
  6
CONTINUOUS
 10
7.0470406575
 20
7.9308398762
 11
7.0473968628
 21
7.9311476211
  0
LINE
  5
531
100
AcDbEntity
  8
0
100
AcDbLine
 62
7
  6
CONTINUOUS
 10
7.1060957757
 20
7.9308398762
 11
7.1064520264
 21
7.9311476209
  0
LINE
  5
532
100
AcDbEntity
  8
0
100
AcDbLine
 62
7
  6
CONTINUOUS
 10
7.0175130985
 20
7.0712191475
 11
7.0178689562
 21
7.0709114018
  0
LINE
  5
533
100
AcDbEntity
  8
0
100
AcDbLine
 62
7
  6
CONTINUOUS
 10
6.8994028623
 20
7.0712191475
 11
6.899758435
 21
7.0709114016
  0
LINE
  5
534
100
AcDbEntity
  8
0
100
AcDbLine
 62
7
  6
CONTINUOUS
 10
6.9584579804
 20
7.0712191475
 11
6.9588135541
 21
7.0709114016
  0
LINE
  5
535
100
AcDbEntity
  8
0
100
AcDbLine
 62
7
  6
CONTINUOUS
 10
6.992972401
 20
7.1133989989
 11
6.9933402227
 21
7.113054971
  0
LWPOLYLINE
  5
536
100
AcDbEntity
  8
0
100
AcDbPolyline
 62
7
  6
CONTINUOUS
 90
3
 70
0
 10
7.0765682166
 20
7.0712191475
 10
7.0767068937
 20
7.0710259159
 10
7.0769242089
 20
7.070911402
  0
LWPOLYLINE
  5
537
100
AcDbEntity
  8
0
100
AcDbPolyline
 62
7
  6
CONTINUOUS
 90
8
 70
0
 10
7.0843256934
 20
7.0709114019
 10
7.0836345479
 20
7.072072647
 10
7.0822410586
 20
7.0814441574
 10
7.0808531209
 20
7.0999299811
 10
7.0794482211
 20
7.1275308176
 10
7.0780317026
 20
7.1637908535
 10
7.0766191486
 20
7.2075636974
 10
7.0752264604
 20
7.257203062
  0
LINE
  5
538
100
AcDbEntity
  8
0
100
AcDbLine
 62
7
  6
CONTINUOUS
 10
7.0524080072
 20
7.1130326992
 11
7.0524282141
 21
7.1129986272
  0
LINE
  5
539
100
AcDbEntity
  8
0
100
AcDbLine
 62
7
  6
CONTINUOUS
 10
7.1114631253
 20
7.1130326992
 11
7.1114826042
 21
7.1129998237
  0
LINE
  5
53A
100
AcDbEntity
  8
0
100
AcDbLine
 62
7
  6
CONTINUOUS
 10
7.1705182434
 20
7.1130326992
 11
7.170536413
 21
7.1130019811
  0
LWPOLYLINE
  5
53B
100
AcDbEntity
  8
0
100
AcDbPolyline
 62
7
  6
CONTINUOUS
 90
8
 70
0
 10
7.1433800542
 20
7.070911402
 10
7.1426823275
 20
7.0720974387
 10
7.1412949211
 20
7.0814567997
 10
7.1399082085
 20
7.0999304853
 10
7.1385032892
 20
7.1275319534
 10
7.1370868506
 20
7.1637900053
 10
7.1356743854
 20
7.2075597271
 10
7.1342815785
 20
7.257203062
  0
LINE
  5
53C
100
AcDbEntity
  8
0
100
AcDbLine
 62
7
  6
CONTINUOUS
 10
7.0524080072
 20
7.1130326992
 11
7.0765682166
 21
7.0712191475
  0
LINE
  5
53D
100
AcDbEntity
  8
0
100
AcDbLine
 62
7
  6
CONTINUOUS
 10
7.1114631253
 20
7.1130326992
 11
7.1356233347
 21
7.0712191475
  0
LINE
  5
53E
100
AcDbEntity
  8
0
100
AcDbLine
 62
7
  6
CONTINUOUS
 10
7.1705182434
 20
7.1130326992
 11
7.1946784528
 21
7.0712191475
  0
LWPOLYLINE
  5
53F
100
AcDbEntity
  8
0
100
AcDbPolyline
 62
7
  6
CONTINUOUS
 90
4
 70
0
 10
7.0087697675
 20
7.257203062
 10
6.9991282693
 20
7.2862214138
 10
6.9905100353
 20
7.3145287034
 10
6.9829456025
 20
7.3421086851
  0
LWPOLYLINE
  5
540
100
AcDbEntity
  8
0
100
AcDbPolyline
 62
7
  6
CONTINUOUS
 90
4
 70
0
 10
7.0678248856
 20
7.257203062
 10
7.0581833874
 20
7.2862214138
 10
7.0495651534
 20
7.3145287034
 10
7.0420007206
 20
7.3421086851
  0
LWPOLYLINE
  5
541
100
AcDbEntity
  8
0
100
AcDbPolyline
 62
7
  6
CONTINUOUS
 90
4
 70
0
 10
6.9457864601
 20
7.7448559617
 10
6.9554292372
 20
7.715833597
 10
6.9640473613
 20
7.6875262846
 10
6.9716106251
 20
7.6599503386
  0
LWPOLYLINE
  5
542
100
AcDbEntity
  8
0
100
AcDbPolyline
 62
7
  6
CONTINUOUS
 90
4
 70
0
 10
7.1268800037
 20
7.257203062
 10
7.1172620509
 20
7.2861475432
 10
7.1086401255
 20
7.3144601751
 10
7.1010558387
 20
7.3421086851
  0
LWPOLYLINE
  5
543
100
AcDbEntity
  8
0
100
AcDbPolyline
 62
7
  6
CONTINUOUS
 90
4
 70
0
 10
6.8888545153
 20
7.7386585961
 10
6.8976518145
 20
7.7117995831
 10
6.9055601454
 20
7.6855585852
 10
6.912555507
 20
7.6599503386
  0
LWPOLYLINE
  5
544
100
AcDbEntity
  8
0
100
AcDbPolyline
 62
7
  6
CONTINUOUS
 90
10
 70
0
 10
6.9829456025
 20
7.3421086851
 10
6.9826828975
 20
7.3429212083
 10
6.9823521891
 20
7.343603051
 10
6.9819431327
 20
7.3441476181
 10
6.9814365189
 20
7.3444870464
 10
6.9808855008
 20
7.3444665305
 10
6.9804238316
 20
7.3441211713
 10
6.9800580277
 20
7.343593313
 10
6.979761481
 20
7.3429173529
 10
6.9795360536
 20
7.3421086851
  0
LWPOLYLINE
  5
545
100
AcDbEntity
  8
0
100
AcDbPolyline
 62
7
  6
CONTINUOUS
 90
10
 70
0
 10
7.0420007206
 20
7.3421086851
 10
7.0417380156
 20
7.3429212083
 10
7.0414073072
 20
7.343603051
 10
7.0409982508
 20
7.3441476181
 10
7.040491637
 20
7.3444870464
 10
7.0399406189
 20
7.3444665305
 10
7.0394789497
 20
7.3441211713
 10
7.0391131458
 20
7.343593313
 10
7.0388165991
 20
7.3429173529
 10
7.0385911717
 20
7.3421086851
  0
LWPOLYLINE
  5
546
100
AcDbEntity
  8
0
100
AcDbPolyline
 62
7
  6
CONTINUOUS
 90
10
 70
0
 10
7.1010558387
 20
7.3421086851
 10
7.1007931337
 20
7.3429212083
 10
7.1004624253
 20
7.343603051
 10
7.1000533689
 20
7.3441476181
 10
7.0995467551
 20
7.3444870464
 10
7.098995737
 20
7.3444665305
 10
7.0985340678
 20
7.3441211713
 10
7.0981682639
 20
7.343593313
 10
7.0978717172
 20
7.3429173529
 10
7.0976462898
 20
7.3421086851
  0
LWPOLYLINE
  5
547
100
AcDbEntity
  8
0
100
AcDbPolyline
 62
7
  6
CONTINUOUS
 90
10
 70
0
 10
6.912555507
 20
7.6599503386
 10
6.9128097946
 20
7.6591591138
 10
6.9131264496
 20
7.6584942975
 10
6.9135117856
 20
7.6579597767
 10
6.914004386
 20
7.6575945334
 10
6.9145664285
 20
7.6575737469
 10
6.9150707478
 20
7.6579306908
 10
6.9154638239
 20
7.6585042558
 10
6.9157530544
 20
7.6591802109
 10
6.9159650558
 20
7.6599503386
  0
LWPOLYLINE
  5
548
100
AcDbEntity
  8
0
100
AcDbPolyline
 62
7
  6
CONTINUOUS
 90
10
 70
0
 10
6.9716106251
 20
7.6599503386
 10
6.9718649127
 20
7.6591591138
 10
6.9721815677
 20
7.6584942975
 10
6.9725669037
 20
7.6579597767
 10
6.9730595041
 20
7.6575945334
 10
6.9736215466
 20
7.6575737469
 10
6.9741258659
 20
7.6579306908
 10
6.974518942
 20
7.6585042558
 10
6.9748081725
 20
7.6591802109
 10
6.975020174
 20
7.6599503386
  0
LWPOLYLINE
  5
549
100
AcDbEntity
  8
0
100
AcDbPolyline
 62
7
  6
CONTINUOUS
 90
10
 70
0
 10
7.0306657432
 20
7.6599503386
 10
7.0309200308
 20
7.6591591138
 10
7.0312366858
 20
7.6584942975
 10
7.0316220218
 20
7.6579597767
 10
7.0321146222
 20
7.6575945334
 10
7.0326766647
 20
7.6575737469
 10
7.033180984
 20
7.6579306908
 10
7.0335740601
 20
7.6585042558
 10
7.0338632906
 20
7.6591802109
 10
7.0340752921
 20
7.6599503386
  0
LWPOLYLINE
  5
54A
100
AcDbEntity
  8
0
100
AcDbPolyline
 62
7
  6
CONTINUOUS
 90
7
 70
0
 10
7.2007951742
 20
7.0774458622
 10
7.1995678052
 20
7.0907780593
 10
7.1983303352
 20
7.1112915606
 10
7.1970795857
 20
7.1388787647
 10
7.1958230154
 20
7.1730419689
 10
7.1945728601
 20
7.2128408572
 10
7.1933366967
 20
7.257203062
  0
LWPOLYLINE
  5
54B
100
AcDbEntity
  8
0
100
AcDbPolyline
 62
7
  6
CONTINUOUS
 90
8
 70
0
 10
7.1859351218
 20
7.257203062
 10
7.1873279287
 20
7.2075597271
 10
7.1887403939
 20
7.1637900053
 10
7.1901568325
 20
7.1275319534
 10
7.1915617518
 20
7.0999304853
 10
7.1929484644
 20
7.0814567997
 10
7.1943358708
 20
7.0720974387
 10
7.1946784528
 20
7.0712191475
  0
LWPOLYLINE
  5
54C
100
AcDbEntity
  8
0
100
AcDbPolyline
 62
7
  6
CONTINUOUS
 90
8
 70
0
 10
7.1820069325
 20
7.7448559617
 10
7.1806175047
 20
7.7943862281
 10
7.1792089275
 20
7.8380625051
 10
7.1777947856
 20
7.8743098252
 10
7.1763907164
 20
7.9019562099
 10
7.1750018179
 20
7.9205191976
 10
7.1736042376
 20
7.9299681842
 10
7.1732636015
 20
7.9308398762
  0
LWPOLYLINE
  5
54D
100
AcDbEntity
  8
0
100
AcDbPolyline
 62
7
  6
CONTINUOUS
 90
8
 70
0
 10
7.2410620506
 20
7.7448559617
 10
7.2396766498
 20
7.7942514315
 10
7.238285578
 20
7.8374494189
 10
7.2368827806
 20
7.8735600671
 10
7.2354833439
 20
7.9013314328
 10
7.2340930279
 20
7.9201512042
 10
7.2326877478
 20
7.9298700731
 10
7.2323187196
 20
7.9308398762
  0
LWPOLYLINE
  5
54E
100
AcDbEntity
  8
0
100
AcDbPolyline
 62
7
  6
CONTINUOUS
 90
7
 70
0
 10
7.24499024
 20
7.257203062
 10
7.2462264034
 20
7.2128408572
 10
7.2474765587
 20
7.1730419689
 10
7.248733129
 20
7.1388787647
 10
7.2499838785
 20
7.1112915606
 10
7.2512213485
 20
7.0907780593
 10
7.2524487175
 20
7.0774458622
  0
LWPOLYLINE
  5
54F
100
AcDbEntity
  8
0
100
AcDbPolyline
 62
9
  6
CONTINUOUS
 90
9
 70
0
 10
7.156701408
 20
7.3421086851
 10
7.15814155
 20
7.2898907019
 10
7.159581692
 20
7.2426200788
 10
7.1610218341
 20
7.2014044511
 10
7.1624619761
 20
7.1672095747
 10
7.1639021181
 20
7.1408366967
 10
7.1653422602
 20
7.1229037809
 10
7.1667824022
 20
7.1138310276
 10
7.1678938489
 20
7.1130285535
  0
LWPOLYLINE
  5
550
100
AcDbEntity
  8
0
100
AcDbPolyline
 62
9
  6
CONTINUOUS
 90
9
 70
0
 10
7.1601109568
 20
7.3421086851
 10
7.1615510988
 20
7.2898907019
 10
7.1629912409
 20
7.2426200788
 10
7.1644313829
 20
7.2014044511
 10
7.1658715249
 20
7.1672095747
 10
7.167311667
 20
7.1408366967
 10
7.168751809
 20
7.1229037809
 10
7.170191951
 20
7.1138310276
 10
7.1705182434
 20
7.1130326992
  0
LWPOLYLINE
  5
551
100
AcDbEntity
  8
0
100
AcDbPolyline
 62
9
  6
CONTINUOUS
 90
9
 70
0
 10
7.2748116442
 20
7.3421086851
 10
7.2762517862
 20
7.2898907019
 10
7.2776919282
 20
7.2426200788
 10
7.2791320703
 20
7.2014044511
 10
7.2805722123
 20
7.1672095747
 10
7.2820123544
 20
7.1408366967
 10
7.2834524964
 20
7.1229037809
 10
7.2848926384
 20
7.1138310276
 10
7.2860064881
 20
7.1130326992
  0
LWPOLYLINE
  5
552
100
AcDbEntity
  8
0
100
AcDbPolyline
 62
9
  6
CONTINUOUS
 90
9
 70
0
 10
7.278221193
 20
7.3421086851
 10
7.279661335
 20
7.2898907019
 10
7.2811014771
 20
7.2426200788
 10
7.2825416191
 20
7.2014044511
 10
7.2839817612
 20
7.1672095747
 10
7.2854219032
 20
7.1408366967
 10
7.2868620452
 20
7.1229037809
 10
7.2883021873
 20
7.1138310276
 10
7.2886284796
 20
7.1130326992
  0
LWPOLYLINE
  5
553
100
AcDbEntity
  8
0
100
AcDbPolyline
 62
9
  6
CONTINUOUS
 90
8
 70
0
 10
7.2157565261
 20
7.3421086851
 10
7.2170651897
 20
7.2944704588
 10
7.2183738533
 20
7.2508302364
 10
7.2196825169
 20
7.2120326856
 10
7.2209911805
 20
7.178828743
 10
7.2222998442
 20
7.1518610796
 10
7.2236085078
 20
7.1316516614
 10
7.2249171714
 20
7.1185916469
  0
LWPOLYLINE
  5
554
100
AcDbEntity
  8
0
100
AcDbPolyline
 62
9
  6
CONTINUOUS
 90
8
 70
0
 10
7.2191660749
 20
7.3421086851
 10
7.2204747385
 20
7.2944704588
 10
7.2217834021
 20
7.2508302364
 10
7.2230920658
 20
7.2120326856
 10
7.2244007294
 20
7.178828743
 10
7.225709393
 20
7.1518610796
 10
7.2270180566
 20
7.1316516614
 10
7.2283267202
 20
7.1185916469
  0
LWPOLYLINE
  5
555
100
AcDbEntity
  8
0
100
AcDbPolyline
 62
7
  6
CONTINUOUS
 90
4
 70
0
 10
7.1521855283
 20
7.6599503386
 10
7.1585759307
 20
7.6875630782
 10
7.166060048
 20
7.7158772492
 10
7.1746053577
 20
7.7448559617
  0
LWPOLYLINE
  5
556
100
AcDbEntity
  8
0
100
AcDbPolyline
 62
7
  6
CONTINUOUS
 90
4
 70
0
 10
7.0976462898
 20
7.3421086851
 10
7.0912483917
 20
7.3144657445
 10
7.0837626734
 20
7.2861492823
 10
7.0752264604
 20
7.257203062
  0
LWPOLYLINE
  5
557
100
AcDbEntity
  8
0
100
AcDbPolyline
 62
7
  6
CONTINUOUS
 90
4
 70
0
 10
7.2112406464
 20
7.6599503386
 10
7.2176227975
 20
7.687529828
 10
7.2251046719
 20
7.7158397605
 10
7.2336604758
 20
7.7448559617
  0
LWPOLYLINE
  5
558
100
AcDbEntity
  8
0
100
AcDbPolyline
 62
7
  6
CONTINUOUS
 90
4
 70
0
 10
7.156701408
 20
7.3421086851
 10
7.1503283298
 20
7.3145657628
 10
7.1428476967
 20
7.286256114
 10
7.1342815785
 20
7.257203062
  0
LWPOLYLINE
  5
559
100
AcDbEntity
  8
0
100
AcDbPolyline
 62
7
  6
CONTINUOUS
 90
4
 70
0
 10
7.2702957645
 20
7.6599503386
 10
7.2766750169
 20
7.687518146
 10
7.2841563553
 20
7.7158274894
 10
7.2927155939
 20
7.7448559617
  0
LWPOLYLINE
  5
55A
100
AcDbEntity
  8
0
100
AcDbPolyline
 62
7
  6
CONTINUOUS
 90
4
 70
0
 10
7.2157565261
 20
7.3421086851
 10
7.2093753998
 20
7.3145333258
 10
7.2018936499
 20
7.2862233693
 10
7.1933366967
 20
7.257203062
  0
LINE
  5
55B
100
AcDbEntity
  8
0
100
AcDbLine
 62
7
  6
CONTINUOUS
 10
6.8726206613
 20
7.1130326992
 11
6.8726510083
 21
7.1130872379
  0
LINE
  5
55C
100
AcDbEntity
  8
0
100
AcDbLine
 62
7
  6
CONTINUOUS
 10
6.9316757795
 20
7.1130326992
 11
6.9317006886
 21
7.1130771678
  0
LINE
  5
55D
100
AcDbEntity
  8
0
100
AcDbLine
 62
7
  6
CONTINUOUS
 10
7.28326113
 20
7.9308398762
 11
7.2591009206
 21
7.8890263245
  0
LINE
  5
55E
100
AcDbEntity
  8
0
100
AcDbLine
 62
7
  6
CONTINUOUS
 10
7.3423162481
 20
7.9308398762
 11
7.3181560387
 21
7.8890263245
  0
LINE
  5
55F
100
AcDbEntity
  8
0
100
AcDbLine
 62
7
  6
CONTINUOUS
 10
6.8484604519
 20
7.0712191474
 11
6.8726206613
 21
7.1130326992
  0
LINE
  5
560
100
AcDbEntity
  8
0
100
AcDbLine
 62
7
  6
CONTINUOUS
 10
6.90751557
 20
7.0712191474
 11
6.9316757795
 21
7.1130326992
  0
LINE
  5
561
100
AcDbEntity
  8
0
100
AcDbLine
 62
7
  6
CONTINUOUS
 10
7.2591009206
 20
7.8890263245
 11
7.2591253849
 21
7.8890673464
  0
LINE
  5
562
100
AcDbEntity
  8
0
100
AcDbLine
 62
7
  6
CONTINUOUS
 10
7.3181560387
 20
7.8890263245
 11
7.318180503
 21
7.8890673464
  0
LWPOLYLINE
  5
563
100
AcDbEntity
  8
0
100
AcDbPolyline
 62
7
  6
CONTINUOUS
 90
4
 70
0
 10
7.2591253849
 20
7.8890673464
 10
7.2588823453
 20
7.8887858348
 10
7.2569603421
 20
7.8886038365
 10
7.2564848069
 20
7.8890160768
  0
LWPOLYLINE
  5
564
100
AcDbEntity
  8
0
100
AcDbPolyline
 62
7
  6
CONTINUOUS
 90
4
 70
0
 10
7.318180503
 20
7.8890673464
 10
7.3179374634
 20
7.8887858348
 10
7.3160154602
 20
7.8886038365
 10
7.315539925
 20
7.8890160768
  0
LINE
  5
565
100
AcDbEntity
  8
0
100
AcDbLine
 62
7
  6
CONTINUOUS
 10
7.2242060119
 20
7.9308398762
 11
7.2245608396
 21
7.9311476207
  0
LINE
  5
566
100
AcDbEntity
  8
0
100
AcDbLine
 62
7
  6
CONTINUOUS
 10
7.28326113
 20
7.9308398762
 11
7.2836161421
 21
7.9311476213
  0
LINE
  5
567
100
AcDbEntity
  8
0
100
AcDbLine
 62
7
  6
CONTINUOUS
 10
7.1651508938
 20
7.9308398762
 11
7.1655064158
 21
7.9311476221
  0
LINE
  5
568
100
AcDbEntity
  8
0
100
AcDbLine
 62
7
  6
CONTINUOUS
 10
7.3426718148
 20
7.9311476221
 11
7.3423162481
 21
7.9308398762
  0
LWPOLYLINE
  5
569
100
AcDbEntity
  8
0
100
AcDbPolyline
 62
7
  6
CONTINUOUS
 90
3
 70
0
 10
6.8738587459
 20
7.1136755646
 10
6.8751823766
 20
7.1131147189
 10
6.8752638819
 20
7.1129969513
  0
LWPOLYLINE
  5
56A
100
AcDbEntity
  8
0
100
AcDbPolyline
 62
7
  6
CONTINUOUS
 90
3
 70
0
 10
7.0511183393
 20
7.1136764715
 10
7.0523859176
 20
7.1130656694
 10
7.0524220455
 20
7.1130084047
  0
LWPOLYLINE
  5
56B
100
AcDbEntity
  8
0
100
AcDbPolyline
 62
7
  6
CONTINUOUS
 90
8
 70
0
 10
7.0252706656
 20
7.070911402
 10
7.0250533504
 20
7.0710259159
 10
7.0237219076
 20
7.0767344216
 10
7.0223960856
 20
7.0908656595
 10
7.0210722318
 20
7.1131060056
 10
7.0197339912
 20
7.1433950828
 10
7.0183947308
 20
7.180953333
 10
7.01706814
 20
7.2245549199
  0
LWPOLYLINE
  5
56C
100
AcDbEntity
  8
0
100
AcDbPolyline
 62
7
  6
CONTINUOUS
 90
3
 70
0
 10
6.9333740134
 20
7.1136305045
 10
6.9342445499
 20
7.1131061484
 10
6.9343155576
 20
7.1130026136
  0
LWPOLYLINE
  5
56D
100
AcDbEntity
  8
0
100
AcDbPolyline
 62
7
  6
CONTINUOUS
 90
3
 70
0
 10
7.2024350229
 20
7.0709114024
 10
7.2021342847
 20
7.0711324008
 10
7.2007951742
 20
7.0774458622
  0
LINE
  5
56E
100
AcDbEntity
  8
0
100
AcDbLine
 62
7
  6
CONTINUOUS
 10
7.1356233347
 20
7.0712191475
 11
7.1359792367
 21
7.0709114019
  0
LINE
  5
56F
100
AcDbEntity
  8
0
100
AcDbLine
 62
7
  6
CONTINUOUS
 10
7.3131442549
 20
7.0709114016
 11
7.312788689
 21
7.0712191475
  0
LINE
  5
570
100
AcDbEntity
  8
0
100
AcDbLine
 62
7
  6
CONTINUOUS
 10
7.1946784528
 20
7.0712191475
 11
7.1950335975
 21
7.070911402
  0
LINE
  5
571
100
AcDbEntity
  8
0
100
AcDbLine
 62
7
  6
CONTINUOUS
 10
7.2537335709
 20
7.0712191475
 11
7.2540885662
 21
7.0709114024
  0
LWPOLYLINE
  5
572
100
AcDbEntity
  8
0
100
AcDbPolyline
 62
7
  6
CONTINUOUS
 90
8
 70
0
 10
7.2614905079
 20
7.0709114017
 10
7.2608130324
 20
7.0720289423
 10
7.2594081709
 20
7.0814264706
 10
7.2580202132
 20
7.0999012704
 10
7.2566148247
 20
7.1275024699
 10
7.2551979371
 20
7.1637658538
 10
7.2537850279
 20
7.2075461339
 10
7.2523918148
 20
7.257203062
  0
LINE
  5
573
100
AcDbEntity
  8
0
100
AcDbLine
 62
7
  6
CONTINUOUS
 10
7.2295733615
 20
7.1130326992
 11
7.2295978259
 21
7.1129916773
  0
LINE
  5
574
100
AcDbEntity
  8
0
100
AcDbLine
 62
7
  6
CONTINUOUS
 10
7.2886284796
 20
7.1130326992
 11
7.288652944
 21
7.1129916773
  0
LINE
  5
575
100
AcDbEntity
  8
0
100
AcDbLine
 62
7
  6
CONTINUOUS
 10
7.2295733615
 20
7.1130326992
 11
7.2537335709
 21
7.0712191475
  0
LINE
  5
576
100
AcDbEntity
  8
0
100
AcDbLine
 62
7
  6
CONTINUOUS
 10
7.2886284796
 20
7.1130326992
 11
7.312788689
 21
7.0712191475
  0
LINE
  5
577
100
AcDbEntity
  8
0
100
AcDbLine
 62
7
  6
CONTINUOUS
 10
6.877988011
 20
7.9308398762
 11
6.9021495897
 21
7.8890239508
  0
LINE
  5
578
100
AcDbEntity
  8
0
100
AcDbLine
 62
7
  6
CONTINUOUS
 10
6.9612033385
 20
7.8890263245
 11
6.9612354506
 21
7.8889684891
  0
LWPOLYLINE
  5
579
100
AcDbEntity
  8
0
100
AcDbPolyline
 62
9
  6
CONTINUOUS
 90
9
 70
0
 10
6.9021495897
 20
7.8890239508
 10
6.9024745128
 20
7.8882279961
 10
6.9039146548
 20
7.8791552427
 10
6.9053547968
 20
7.861222327
 10
6.9067949389
 20
7.834849449
 10
6.9082350809
 20
7.8006545726
 10
6.9096752229
 20
7.7594389449
 10
6.911115365
 20
7.7121683218
 10
6.912555507
 20
7.6599503386
  0
LWPOLYLINE
  5
57A
100
AcDbEntity
  8
0
100
AcDbPolyline
 62
9
  6
CONTINUOUS
 90
9
 70
0
 10
7.0202725573
 20
7.8890014862
 10
7.020584749
 20
7.8882279961
 10
7.022024891
 20
7.8791552427
 10
7.023465033
 20
7.861222327
 10
7.0249051751
 20
7.834849449
 10
7.0263453171
 20
7.8006545726
 10
7.0277854592
 20
7.7594389449
 10
7.0292256012
 20
7.7121683218
 10
7.0306657432
 20
7.6599503386
  0
LWPOLYLINE
  5
57B
100
AcDbEntity
  8
0
100
AcDbPolyline
 62
9
  6
CONTINUOUS
 90
9
 70
0
 10
6.9612354506
 20
7.8889684891
 10
6.9615296309
 20
7.8882279961
 10
6.9629697729
 20
7.8791552427
 10
6.9644099149
 20
7.861222327
 10
6.965850057
 20
7.834849449
 10
6.967290199
 20
7.8006545726
 10
6.968730341
 20
7.7594389449
 10
6.9701704831
 20
7.7121683218
 10
6.9716106251
 20
7.6599503386
  0
LWPOLYLINE
  5
57C
100
AcDbEntity
  8
0
100
AcDbPolyline
 62
7
  6
CONTINUOUS
 90
8
 70
0
 10
7.312788689
 20
7.0712191475
 10
7.3124443333
 20
7.0721034701
 10
7.3110444979
 20
7.0816003177
 10
7.3096446787
 20
7.1003834438
 10
7.3082448422
 20
7.1280374314
 10
7.3068449923
 20
7.1639502017
 10
7.3054451565
 20
7.207325899
 10
7.3040453581
 20
7.257203062
  0
LWPOLYLINE
  5
57D
100
AcDbEntity
  8
0
100
AcDbPolyline
 62
7
  6
CONTINUOUS
 90
4
 70
0
 10
7.0048415782
 20
7.7448559617
 10
7.0144843553
 20
7.715833597
 10
7.0231024794
 20
7.6875262846
 10
7.0306657432
 20
7.6599503386
  0
LWPOLYLINE
  5
57E
100
AcDbEntity
  8
0
100
AcDbPolyline
 62
7
  6
CONTINUOUS
 90
4
 70
0
 10
7.1859351218
 20
7.257203062
 10
7.1762836609
 20
7.2862526756
 10
7.1676664831
 20
7.3145594512
 10
7.1601109568
 20
7.3421086851
  0
LWPOLYLINE
  5
57F
100
AcDbEntity
  8
0
100
AcDbPolyline
 62
7
  6
CONTINUOUS
 90
4
 70
0
 10
7.0638966963
 20
7.7448559617
 10
7.073558139
 20
7.7157750234
 10
7.0821749585
 20
7.6874663459
 10
7.0897208613
 20
7.6599503386
  0
LWPOLYLINE
  5
580
100
AcDbEntity
  8
0
100
AcDbPolyline
 62
7
  6
CONTINUOUS
 90
4
 70
0
 10
7.24499024
 20
7.257203062
 10
7.2353487417
 20
7.2862214138
 10
7.2267305078
 20
7.3145287034
 10
7.2191660749
 20
7.3421086851
  0
LWPOLYLINE
  5
581
100
AcDbEntity
  8
0
100
AcDbPolyline
 62
7
  6
CONTINUOUS
 90
4
 70
0
 10
7.1229518144
 20
7.7448559617
 10
7.1325833314
 20
7.7158689269
 10
7.1412034942
 20
7.6875581162
 10
7.1487759794
 20
7.6599503386
  0
LWPOLYLINE
  5
582
100
AcDbEntity
  8
0
100
AcDbPolyline
 62
7
  6
CONTINUOUS
 90
4
 70
0
 10
7.3040453581
 20
7.257203062
 10
7.2944038599
 20
7.2862214138
 10
7.2857856259
 20
7.3145287034
 10
7.278221193
 20
7.3421086851
  0
LWPOLYLINE
  5
583
100
AcDbEntity
  8
0
100
AcDbPolyline
 62
7
  6
CONTINUOUS
 90
10
 70
0
 10
7.1601109568
 20
7.3421086851
 10
7.1598482518
 20
7.3429212083
 10
7.1595175434
 20
7.343603051
 10
7.159108487
 20
7.3441476181
 10
7.1586018732
 20
7.3444870464
 10
7.1580508551
 20
7.3444665305
 10
7.1575891859
 20
7.3441211713
 10
7.157223382
 20
7.343593313
 10
7.1569268353
 20
7.3429173529
 10
7.156701408
 20
7.3421086851
  0
LWPOLYLINE
  5
584
100
AcDbEntity
  8
0
100
AcDbPolyline
 62
7
  6
CONTINUOUS
 90
10
 70
0
 10
7.2191660749
 20
7.3421086851
 10
7.21890337
 20
7.3429212083
 10
7.2185726615
 20
7.343603051
 10
7.2181636051
 20
7.3441476181
 10
7.2176569913
 20
7.3444870464
 10
7.2171059733
 20
7.3444665305
 10
7.216644304
 20
7.3441211713
 10
7.2162785001
 20
7.343593313
 10
7.2159819534
 20
7.3429173529
 10
7.2157565261
 20
7.3421086851
  0
LWPOLYLINE
  5
585
100
AcDbEntity
  8
0
100
AcDbPolyline
 62
7
  6
CONTINUOUS
 90
10
 70
0
 10
7.278221193
 20
7.3421086851
 10
7.2779584881
 20
7.3429212083
 10
7.2776277796
 20
7.343603051
 10
7.2772187232
 20
7.3441476181
 10
7.2767121094
 20
7.3444870464
 10
7.2761610914
 20
7.3444665305
 10
7.2756994221
 20
7.3441211713
 10
7.2753336182
 20
7.343593313
 10
7.2750370715
 20
7.3429173529
 10
7.2748116442
 20
7.3421086851
  0
LWPOLYLINE
  5
586
100
AcDbEntity
  8
0
100
AcDbPolyline
 62
7
  6
CONTINUOUS
 90
10
 70
0
 10
7.0897208613
 20
7.6599503386
 10
7.0899751489
 20
7.6591591138
 10
7.0902918039
 20
7.6584942975
 10
7.0906771399
 20
7.6579597767
 10
7.0911697403
 20
7.6575945334
 10
7.0917317828
 20
7.6575737469
 10
7.0922361022
 20
7.6579306908
 10
7.0926291782
 20
7.6585042558
 10
7.0929184087
 20
7.6591802109
 10
7.0931304102
 20
7.6599503386
  0
LWPOLYLINE
  5
587
100
AcDbEntity
  8
0
100
AcDbPolyline
 62
7
  6
CONTINUOUS
 90
10
 70
0
 10
7.1487759794
 20
7.6599503386
 10
7.1490302671
 20
7.6591591138
 10
7.149346922
 20
7.6584942975
 10
7.149732258
 20
7.6579597767
 10
7.1502248584
 20
7.6575945334
 10
7.1507869009
 20
7.6575737469
 10
7.1512912203
 20
7.6579306908
 10
7.1516842963
 20
7.6585042558
 10
7.1519735268
 20
7.6591802109
 10
7.1521855283
 20
7.6599503386
  0
LWPOLYLINE
  5
588
100
AcDbEntity
  8
0
100
AcDbPolyline
 62
9
  6
CONTINUOUS
 90
3
 70
0
 10
7.2249171714
 20
7.1185916469
 10
7.2262995586
 20
7.1128382607
 10
7.22695137
 20
7.1130326992
  0
LINE
  5
589
100
AcDbEntity
  8
0
100
AcDbLine
 62
9
  6
CONTINUOUS
 10
7.2283267202
 20
7.1185916469
 11
7.2295733615
 21
7.1130326992
  0
LINE
  5
58A
100
AcDbEntity
  8
0
100
AcDbLine
 62
7
  6
CONTINUOUS
 10
7.2524487175
 20
7.0774458622
 11
7.2537335709
 21
7.0712191475
  0
LWPOLYLINE
  5
58B
100
AcDbEntity
  8
0
100
AcDbPolyline
 62
7
  6
CONTINUOUS
 90
8
 70
0
 10
7.3114469329
 20
7.257203062
 10
7.3128467307
 20
7.2073259205
 10
7.3142465602
 20
7.1639503991
 10
7.3156463975
 20
7.1280378772
 10
7.3170462178
 20
7.1003840385
 10
7.3184460362
 20
7.0816006884
 10
7.3198458809
 20
7.0721035627
 10
7.3205458299
 20
7.0709114016
  0
LWPOLYLINE
  5
58C
100
AcDbEntity
  8
0
100
AcDbPolyline
 62
7
  6
CONTINUOUS
 90
8
 70
0
 10
7.3001171687
 20
7.7448559617
 10
7.2987304442
 20
7.794295747
 10
7.2973434612
 20
7.8373705599
 10
7.2959515922
 20
7.8732464422
 10
7.2945574491
 20
7.9010127414
 10
7.2931673862
 20
7.9199525052
 10
7.2917579425
 20
7.929816384
 10
7.2913738377
 20
7.9308398762
  0
LWPOLYLINE
  5
58D
100
AcDbEntity
  8
0
100
AcDbPolyline
 62
9
  6
CONTINUOUS
 90
9
 70
0
 10
7.3338667623
 20
7.3421086851
 10
7.3352774332
 20
7.290913702
 10
7.3366881041
 20
7.2444430397
 10
7.338098775
 20
7.2037415616
 10
7.3395094459
 20
7.1697244147
 10
7.3409201168
 20
7.143156453
 10
7.3423307877
 20
7.1246350402
 10
7.3437414586
 20
7.1145766186
 10
7.3450616062
 20
7.1130326992
  0
LWPOLYLINE
  5
58E
100
AcDbEntity
  8
0
100
AcDbPolyline
 62
9
  6
CONTINUOUS
 90
7
 70
0
 10
7.3372763111
 20
7.3421086851
 10
7.3385889475
 20
7.294331479
 10
7.3399015839
 20
7.2505792543
 10
7.3412142203
 20
7.2117039877
 10
7.3425268567
 20
7.1784626879
 10
7.3438394931
 20
7.1515026548
 10
7.3451521295
 20
7.1313488747
  0
LINE
  5
58F
100
AcDbEntity
  8
0
100
AcDbLine
 62
7
  6
CONTINUOUS
 10
7.3451521295
 20
7.113151516
 11
7.3451521295
 21
7.3845712484
  0
LINE
  5
590
100
AcDbEntity
  8
0
100
AcDbLine
 62
7
  6
CONTINUOUS
 10
7.3451521295
 20
7.6174877753
 11
7.3451521295
 21
7.931147632
  0
LINE
  5
591
100
AcDbEntity
  8
0
100
AcDbLine
 62
9
  6
CONTINUOUS
 10
7.3648371689
 20
7.1270137638
 11
7.3648371689
 21
7.8750452599
  0
LINE
  5
592
100
AcDbEntity
  8
0
100
AcDbLine
 62
7
  6
CONTINUOUS
 10
7.3845222083
 20
7.8553602205
 11
7.3845222083
 21
7.1466988032
  0
LINE
  5
593
100
AcDbEntity
  8
0
100
AcDbLine
 62
7
  6
CONTINUOUS
 10
7.4345222083
 20
7.2110295118
 11
7.4345222083
 21
7.7910295118
  0
LWPOLYLINE
  5
594
100
AcDbEntity
  8
0
100
AcDbPolyline
 62
7
  6
CONTINUOUS
 90
4
 70
0
 10
7.2748116442
 20
7.3421086851
 10
7.2684305179
 20
7.3145333258
 10
7.260948768
 20
7.2862233693
 10
7.2523918148
 20
7.257203062
  0
LWPOLYLINE
  5
595
100
AcDbEntity
  8
0
100
AcDbPolyline
 62
7
  6
CONTINUOUS
 90
4
 70
0
 10
7.3338667623
 20
7.3421086851
 10
7.327485636
 20
7.3145333258
 10
7.3200038861
 20
7.2862233693
 10
7.3114469329
 20
7.257203062
  0
LWPOLYLINE
  5
596
100
AcDbEntity
  8
0
100
AcDbPolyline
 62
7
  6
CONTINUOUS
 90
3
 70
0
 10
7.3293508826
 20
7.6599503386
 10
7.3365649983
 20
7.6908564822
 10
7.3451521295
 20
7.7226723393
  0
LINE
  5
597
100
AcDbEntity
  8
0
100
AcDbLine
 62
7
  6
CONTINUOUS
 10
7.1088411338
 20
7.1130326992
 11
7.1088512902
 21
7.1130505018
  0
LINE
  5
598
100
AcDbEntity
  8
0
100
AcDbLine
 62
7
  6
CONTINUOUS
 10
6.9665706881
 20
7.0712191474
 11
6.9907308976
 21
7.1130326992
  0
LINE
  5
599
100
AcDbEntity
  8
0
100
AcDbLine
 62
7
  6
CONTINUOUS
 10
7.0256258062
 20
7.0712191474
 11
7.0497917952
 21
7.1130427742
  0
LINE
  5
59A
100
AcDbEntity
  8
0
100
AcDbLine
 62
7
  6
CONTINUOUS
 10
7.0846809244
 20
7.0712191474
 11
7.1088411338
 21
7.1130326992
  0
LINE
  5
59B
100
AcDbEntity
  8
0
100
AcDbLine
 62
7
  6
CONTINUOUS
 10
6.9907185132
 20
7.1130116044
 11
6.9907308976
 21
7.1130326992
  0
LWPOLYLINE
  5
59C
100
AcDbEntity
  8
0
100
AcDbPolyline
 62
7
  6
CONTINUOUS
 90
4
 70
0
 10
6.9907185132
 20
7.1130116044
 10
6.9907650824
 20
7.1130819841
 10
6.9923614477
 20
7.11364406
 10
6.992972401
 20
7.1133989989
  0
LWPOLYLINE
  5
59D
100
AcDbEntity
  8
0
100
AcDbPolyline
 62
7
  6
CONTINUOUS
 90
3
 70
0
 10
7.1409857611
 20
7.8890181701
 10
7.1395872967
 20
7.8883855632
 10
7.1384895751
 20
7.8888765597
  0
LWPOLYLINE
  5
59E
100
AcDbEntity
  8
0
100
AcDbPolyline
 62
7
  6
CONTINUOUS
 90
3
 70
0
 10
7.2000504525
 20
7.8890333961
 10
7.1984783222
 20
7.8884035821
 10
7.197469803
 20
7.8889584643
  0
LWPOLYLINE
  5
59F
100
AcDbEntity
  8
0
100
AcDbPolyline
 62
7
  6
CONTINUOUS
 90
3
 70
0
 10
7.0819434608
 20
7.8890390041
 10
7.0803479767
 20
7.8884069419
 10
7.0793529323
 20
7.888965049
  0
LINE
  5
5A0
100
AcDbEntity
  8
0
100
AcDbLine
 62
7
  6
CONTINUOUS
 10
7.1099883569
 20
7.1136679644
 11
7.1114826042
 21
7.1129998237
  0
LWPOLYLINE
  5
5A1
100
AcDbEntity
  8
0
100
AcDbPolyline
 62
7
  6
CONTINUOUS
 90
3
 70
0
 10
7.1693201427
 20
7.1136725317
 10
7.1705032342
 20
7.1130556687
 10
7.1705299578
 20
7.1130124265
  0
LWPOLYLINE
  5
5A2
100
AcDbEntity
  8
0
100
AcDbPolyline
 62
7
  6
CONTINUOUS
 90
8
 70
0
 10
6.9883411156
 20
7.9311476221
 10
6.9890167798
 20
7.9300366846
 10
6.9904263257
 20
7.9206055984
 10
6.9918163951
 20
7.9020785854
 10
6.9932199844
 20
7.8744886705
 10
6.9946353967
 20
7.8382501181
 10
6.9960472753
 20
7.7944966605
 10
6.9974400034
 20
7.7448559617
  0
LWPOLYLINE
  5
5A3
100
AcDbEntity
  8
0
100
AcDbPolyline
 62
7
  6
CONTINUOUS
 90
8
 70
0
 10
7.0473968628
 20
7.9311476211
 10
7.0480821613
 20
7.9300026936
 10
7.0494770487
 20
7.9206498107
 10
7.0508636253
 20
7.9022088944
 10
7.0522697877
 20
7.87460927
 10
7.0536874871
 20
7.8383361072
 10
7.0551011583
 20
7.7945379813
 10
7.0564951215
 20
7.7448559617
  0
LWPOLYLINE
  5
5A4
100
AcDbEntity
  8
0
100
AcDbPolyline
 62
7
  6
CONTINUOUS
 90
8
 70
0
 10
6.9292859944
 20
7.9311476221
 10
6.9299815541
 20
7.9299703382
 10
6.9313941967
 20
7.9203728505
 10
6.9327861268
 20
7.9016662198
 10
6.9341772116
 20
7.8742080821
 10
6.9355830706
 20
7.8381707922
 10
6.9369907568
 20
7.7945435077
 10
6.9383848853
 20
7.7448559617
  0
LINE
  5
5A5
100
AcDbEntity
  8
0
100
AcDbLine
 62
7
  6
CONTINUOUS
 10
6.9612033385
 20
7.8890263245
 11
6.9370431291
 21
7.9308398762
  0
LINE
  5
5A6
100
AcDbEntity
  8
0
100
AcDbLine
 62
7
  6
CONTINUOUS
 10
7.0202584566
 20
7.8890263245
 11
6.9960982472
 21
7.9308398762
  0
LINE
  5
5A7
100
AcDbEntity
  8
0
100
AcDbLine
 62
7
  6
CONTINUOUS
 10
7.0793135747
 20
7.8890263245
 11
7.0551533653
 21
7.9308398762
  0
LINE
  5
5A8
100
AcDbEntity
  8
0
100
AcDbLine
 62
7
  6
CONTINUOUS
 10
7.0793135747
 20
7.8890263245
 11
7.079324656
 21
7.8890068783
  0
LINE
  5
5A9
100
AcDbEntity
  8
0
100
AcDbLine
 62
7
  6
CONTINUOUS
 10
7.0202584566
 20
7.8890263245
 11
7.0202725573
 21
7.8890014862
  0
LWPOLYLINE
  5
5AA
100
AcDbEntity
  8
0
100
AcDbPolyline
 62
9
  6
CONTINUOUS
 90
9
 70
0
 10
7.1383686928
 20
7.8890263245
 10
7.1386949852
 20
7.8882279961
 10
7.1401351272
 20
7.8791552427
 10
7.1415752693
 20
7.861222327
 10
7.1430154113
 20
7.834849449
 10
7.1444555533
 20
7.8006545726
 10
7.1458956954
 20
7.7594389449
 10
7.1473358374
 20
7.7121683218
 10
7.1487759794
 20
7.6599503386
  0
LWPOLYLINE
  5
5AB
100
AcDbEntity
  8
0
100
AcDbPolyline
 62
9
  6
CONTINUOUS
 90
9
 70
0
 10
7.197425651
 20
7.8890231329
 10
7.1977501033
 20
7.8882279961
 10
7.1991902453
 20
7.8791552427
 10
7.2006303874
 20
7.861222327
 10
7.2020705294
 20
7.834849449
 10
7.2035106715
 20
7.8006545726
 10
7.2049508135
 20
7.7594389449
 10
7.2063909555
 20
7.7121683218
 10
7.2078310976
 20
7.6599503386
  0
LWPOLYLINE
  5
5AC
100
AcDbEntity
  8
0
100
AcDbPolyline
 62
9
  6
CONTINUOUS
 90
9
 70
0
 10
7.079324656
 20
7.8890068783
 10
7.0796398671
 20
7.8882279961
 10
7.0810800091
 20
7.8791552427
 10
7.0825201512
 20
7.861222327
 10
7.0839602932
 20
7.834849449
 10
7.0854004352
 20
7.8006545726
 10
7.0868405773
 20
7.7594389449
 10
7.0882807193
 20
7.7121683218
 10
7.0897208613
 20
7.6599503386
  0
LWPOLYLINE
  5
5AD
100
AcDbEntity
  8
0
100
AcDbPolyline
 62
7
  6
CONTINUOUS
 90
4
 70
0
 10
7.1820069325
 20
7.7448559617
 10
7.1916497096
 20
7.715833597
 10
7.2002678338
 20
7.6875262846
 10
7.2078310976
 20
7.6599503386
  0
LWPOLYLINE
  5
5AE
100
AcDbEntity
  8
0
100
AcDbPolyline
 62
7
  6
CONTINUOUS
 90
4
 70
0
 10
7.2410620506
 20
7.7448559617
 10
7.2507048277
 20
7.715833597
 10
7.2593229519
 20
7.6875262846
 10
7.2668862157
 20
7.6599503386
  0
LWPOLYLINE
  5
5AF
100
AcDbEntity
  8
0
100
AcDbPolyline
 62
7
  6
CONTINUOUS
 90
4
 70
0
 10
7.3001171687
 20
7.7448559617
 10
7.3097599458
 20
7.715833597
 10
7.31837807
 20
7.6875262846
 10
7.3259413338
 20
7.6599503386
  0
LWPOLYLINE
  5
5B0
100
AcDbEntity
  8
0
100
AcDbPolyline
 62
7
  6
CONTINUOUS
 90
10
 70
0
 10
7.3372763111
 20
7.3421086851
 10
7.3370136062
 20
7.3429212083
 10
7.3366828977
 20
7.343603051
 10
7.3362738414
 20
7.3441476181
 10
7.3357672275
 20
7.3444870464
 10
7.3352162095
 20
7.3444665305
 10
7.3347545403
 20
7.3441211713
 10
7.3343887363
 20
7.343593313
 10
7.3340921897
 20
7.3429173529
 10
7.3338667623
 20
7.3421086851
  0
LWPOLYLINE
  5
5B1
100
AcDbEntity
  8
0
100
AcDbPolyline
 62
7
  6
CONTINUOUS
 90
10
 70
0
 10
7.2078310976
 20
7.6599503386
 10
7.2080853852
 20
7.6591591138
 10
7.2084020401
 20
7.6584942975
 10
7.2087873761
 20
7.6579597767
 10
7.2092799765
 20
7.6575945334
 10
7.209842019
 20
7.6575737469
 10
7.2103463384
 20
7.6579306908
 10
7.2107394145
 20
7.6585042558
 10
7.2110286449
 20
7.6591802109
 10
7.2112406464
 20
7.6599503386
  0
LWPOLYLINE
  5
5B2
100
AcDbEntity
  8
0
100
AcDbPolyline
 62
7
  6
CONTINUOUS
 90
10
 70
0
 10
7.2668862157
 20
7.6599503386
 10
7.2671405033
 20
7.6591591138
 10
7.2674571582
 20
7.6584942975
 10
7.2678424942
 20
7.6579597767
 10
7.2683350947
 20
7.6575945334
 10
7.2688971371
 20
7.6575737469
 10
7.2694014565
 20
7.6579306908
 10
7.2697945326
 20
7.6585042558
 10
7.270083763
 20
7.6591802109
 10
7.2702957645
 20
7.6599503386
  0
LWPOLYLINE
  5
5B3
100
AcDbEntity
  8
0
100
AcDbPolyline
 62
7
  6
CONTINUOUS
 90
10
 70
0
 10
7.3259413338
 20
7.6599503386
 10
7.3261956214
 20
7.6591591138
 10
7.3265122763
 20
7.6584942975
 10
7.3268976123
 20
7.6579597767
 10
7.3273902128
 20
7.6575945334
 10
7.3279522552
 20
7.6575737469
 10
7.3284565746
 20
7.6579306908
 10
7.3288496507
 20
7.6585042558
 10
7.3291388811
 20
7.6591802109
 10
7.3293508826
 20
7.6599503386
  0
LWPOLYLINE
  5
5B4
100
AcDbEntity
  8
0
100
AcDbPolyline
 62
7
  6
CONTINUOUS
 90
3
 70
0
 10
7.3451521295
 20
7.3134559273
 10
7.3410716457
 20
7.3278777006
 10
7.3372763111
 20
7.3421086851
  0
LWPOLYLINE
  5
5B5
100
AcDbEntity
  8
0
100
AcDbPolyline
 62
7
  6
CONTINUOUS
 90
3
 70
0
 10
7.3451521295
 20
7.916257638
 10
7.3437047356
 20
7.9285528487
 10
7.3426718148
 20
7.9311476221
  0
LINE
  5
5B6
100
AcDbEntity
  8
0
100
AcDbLine
 62
7
  6
CONTINUOUS
 10
7.4845222083
 20
7.2398970253
 11
7.4845222083
 21
7.7621619984
  0
LWPOLYLINE
  5
5B7
100
AcDbEntity
  8
0
100
AcDbPolyline
 62
9
  6
CONTINUOUS
 90
6
 70
0
 10
7.3845222083
 20
7.3845712484
 10
7.3835587539
 20
7.3825719382
 10
7.3807627003
 20
7.3807683345
 10
7.3764077447
 20
7.3793369865
 10
7.3709201806
 20
7.3784180045
 10
7.3648371689
 20
7.3781013449
  0
LINE
  5
5B8
100
AcDbEntity
  8
0
100
AcDbLine
 62
7
  6
CONTINUOUS
 10
7.1437360425
 20
7.0712191474
 11
7.1678962519
 21
7.1130326992
  0
LINE
  5
5B9
100
AcDbEntity
  8
0
100
AcDbLine
 62
7
  6
CONTINUOUS
 10
7.2027911606
 20
7.0712191474
 11
7.2269572479
 21
7.1130429469
  0
LINE
  5
5BA
100
AcDbEntity
  8
0
100
AcDbLine
 62
7
  6
CONTINUOUS
 10
7.2618462787
 20
7.0712191474
 11
7.286012366
 21
7.1130429469
  0
LINE
  5
5BB
100
AcDbEntity
  8
0
100
AcDbLine
 62
7
  6
CONTINUOUS
 10
6.8484604519
 20
7.0712191474
 11
6.8481048914
 21
7.0709114016
  0
LINE
  5
5BC
100
AcDbEntity
  8
AXIS
100
AcDbLine
 62
7
  6
CONTINUOUS
 10
6.3215300823
 20
6.9104783307
 11
6.7546009484
 21
6.9104783307
  0
LINE
  5
5BD
100
AcDbEntity
  8
0
100
AcDbLine
 62
7
  6
CONTINUOUS
 10
6.9025528704
 20
7.8886480351
 11
6.9021495897
 21
7.8890239508
  0
LINE
  5
5BE
100
AcDbEntity
  8
0
100
AcDbLine
 62
7
  6
CONTINUOUS
 10
6.9612753154
 20
7.888920632
 11
6.9612354506
 21
7.8889684891
  0
LINE
  5
5BF
100
AcDbEntity
  8
0
100
AcDbLine
 62
7
  6
CONTINUOUS
 10
7.1384895751
 20
7.8888765597
 11
7.1383686253
 21
7.8890264414
  0
LINE
  5
5C0
100
AcDbEntity
  8
0
100
AcDbLine
 62
7
  6
CONTINUOUS
 10
7.197469803
 20
7.8889584643
 11
7.197425651
 21
7.8890231329
  0
LINE
  5
5C1
100
AcDbEntity
  8
0
100
AcDbLine
 62
7
  6
CONTINUOUS
 10
7.0793529323
 20
7.888965049
 11
7.079324656
 21
7.8890068783
  0
LWPOLYLINE
  5
5C2
100
AcDbEntity
  8
0
100
AcDbPolyline
 62
7
  6
CONTINUOUS
 90
8
 70
0
 10
7.1655064158
 20
7.9311476221
 10
7.1661992408
 20
7.929979745
 10
7.1675904948
 20
7.9206175306
 10
7.1689781252
 20
7.902138494
 10
7.1703832425
 20
7.8745362509
 10
7.1717998957
 20
7.8382744131
 10
7.1732125193
 20
7.7945003513
 10
7.1746053577
 20
7.7448559617
  0
LWPOLYLINE
  5
5C3
100
AcDbEntity
  8
0
100
AcDbPolyline
 62
7
  6
CONTINUOUS
 90
8
 70
0
 10
7.2245608396
 20
7.9311476207
 10
7.2252577809
 20
7.9299681842
 10
7.2266553612
 20
7.9205191976
 10
7.2280442597
 20
7.9019562099
 10
7.2294483289
 20
7.8743098252
 10
7.2308624708
 20
7.8380625051
 10
7.232271048
 20
7.7943862281
 10
7.2336604758
 20
7.7448559617
  0
LWPOLYLINE
  5
5C4
100
AcDbEntity
  8
0
100
AcDbPolyline
 62
7
  6
CONTINUOUS
 90
8
 70
0
 10
7.1064520264
 20
7.9311476209
 10
7.1071509152
 20
7.9299567419
 10
7.1085365824
 20
7.9206053928
 10
7.1099230532
 20
7.9021377321
 10
7.1113281863
 20
7.8745348456
 10
7.1127447838
 20
7.8382742379
 10
7.1141573423
 20
7.7945023229
 10
7.1155502396
 20
7.7448559617
  0
LINE
  5
5C5
100
AcDbEntity
  8
0
100
AcDbLine
 62
7
  6
CONTINUOUS
 10
7.1383686928
 20
7.8890263245
 11
7.1142084834
 21
7.9308398762
  0
LINE
  5
5C6
100
AcDbEntity
  8
0
100
AcDbLine
 62
7
  6
CONTINUOUS
 10
7.1732636015
 20
7.9308398762
 11
7.197425651
 21
7.8890231329
  0
LINE
  5
5C7
100
AcDbEntity
  8
0
100
AcDbLine
 62
7
  6
CONTINUOUS
 10
7.2323187196
 20
7.9308398762
 11
7.2564848069
 21
7.8890160768
  0
LINE
  5
5C8
100
AcDbEntity
  8
0
100
AcDbLine
 62
7
  6
CONTINUOUS
 10
7.2913738377
 20
7.9308398762
 11
7.315539925
 21
7.8890160768
  0
LWPOLYLINE
  5
5C9
100
AcDbEntity
  8
0
100
AcDbPolyline
 62
7
  6
CONTINUOUS
 90
8
 70
0
 10
7.2836161421
 20
7.9311476213
 10
7.2843412911
 20
7.9298700731
 10
7.2857465712
 20
7.9201512042
 10
7.2871368872
 20
7.9013314328
 10
7.2885363239
 20
7.8735600671
 10
7.2899391213
 20
7.8374494189
 10
7.2913301931
 20
7.7942514315
 10
7.2927155939
 20
7.7448559617
  0
LWPOLYLINE
  5
5CA
100
AcDbEntity
  8
0
100
AcDbPolyline
 62
9
  6
CONTINUOUS
 90
9
 70
0
 10
7.2564848069
 20
7.8890160768
 10
7.2568052214
 20
7.8882279961
 10
7.2582453635
 20
7.8791552427
 10
7.2596855055
 20
7.861222327
 10
7.2611256475
 20
7.834849449
 10
7.2625657896
 20
7.8006545726
 10
7.2640059316
 20
7.7594389449
 10
7.2654460736
 20
7.7121683218
 10
7.2668862157
 20
7.6599503386
  0
LWPOLYLINE
  5
5CB
100
AcDbEntity
  8
0
100
AcDbPolyline
 62
9
  6
CONTINUOUS
 90
9
 70
0
 10
7.315539925
 20
7.8890160768
 10
7.3158603395
 20
7.8882279961
 10
7.3173004816
 20
7.8791552427
 10
7.3187406236
 20
7.861222327
 10
7.3201807656
 20
7.834849449
 10
7.3216209077
 20
7.8006545726
 10
7.3230610497
 20
7.7594389449
 10
7.3245011917
 20
7.7121683218
 10
7.3259413338
 20
7.6599503386
  0
LINE
  5
5CC
100
AcDbEntity
  8
0
100
AcDbLine
 62
7
  6
CONTINUOUS
 10
7.3209013968
 20
7.0712191474
 11
7.3450674841
 21
7.1130429469
  0
LINE
  5
5CD
100
AcDbEntity
  8
0
100
AcDbLine
 62
7
  6
CONTINUOUS
 10
7.3450674841
 20
7.1130429469
 11
7.3451521295
 21
7.1131506878
  0
LINE
  5
5CE
100
AcDbEntity
  8
0
100
AcDbLine
 62
7
  6
CONTINUOUS
 10
7.0256258062
 20
7.0712191474
 11
7.0252706656
 21
7.070911402
  0
LINE
  5
5CF
100
AcDbEntity
  8
0
100
AcDbLine
 62
7
  6
CONTINUOUS
 10
6.9665706881
 20
7.0712191474
 11
6.9662154128
 21
7.0709114018
  0
LINE
  5
5D0
100
AcDbEntity
  8
0
100
AcDbLine
 62
7
  6
CONTINUOUS
 10
7.0846809244
 20
7.0712191474
 11
7.0843256934
 21
7.0709114019
  0
LINE
  5
5D1
100
AcDbEntity
  8
0
100
AcDbLine
 62
7
  6
CONTINUOUS
 10
6.90751557
 20
7.0712191474
 11
6.9071600108
 21
7.0709114016
  0
LWPOLYLINE
  5
5D2
100
AcDbEntity
  8
0
100
AcDbPolyline
 62
7
  6
CONTINUOUS
 90
3
 70
0
 10
6.8726510083
 20
7.1130872379
 10
6.8732016995
 20
7.1135068333
 10
6.8738587459
 20
7.1136755646
  0
LWPOLYLINE
  5
5D3
100
AcDbEntity
  8
0
100
AcDbPolyline
 62
7
  6
CONTINUOUS
 90
3
 70
0
 10
6.9317006886
 20
7.1130771678
 10
6.9324545809
 20
7.1135871228
 10
6.9333740134
 20
7.1136305045
  0
LINE
  5
5D4
100
AcDbEntity
  8
AXIS
100
AcDbLine
 62
7
  6
CONTINUOUS
 10
6.8136560665
 20
7.0709114016
 11
6.8481048854
 21
7.0709114016
  0
LINE
  5
5D5
100
AcDbEntity
  8
AXIS
100
AcDbLine
 62
7
  6
CONTINUOUS
 10
6.8997584287
 20
7.0709114016
 11
6.9071600036
 21
7.0709114016
  0
LINE
  5
5D6
100
AcDbEntity
  8
AXIS
100
AcDbLine
 62
7
  6
CONTINUOUS
 10
6.9588135469
 20
7.0709114016
 11
6.9662151217
 21
7.0709114016
  0
LINE
  5
5D7
100
AcDbEntity
  8
AXIS
100
AcDbLine
 62
7
  6
CONTINUOUS
 10
7.017868665
 20
7.0709114016
 11
7.0252702398
 21
7.0709114016
  0
LINE
  5
5D8
100
AcDbEntity
  8
AXIS
100
AcDbLine
 62
7
  6
CONTINUOUS
 10
7.0769237831
 20
7.0709114016
 11
7.0843253579
 21
7.0709114016
  0
LINE
  5
5D9
100
AcDbEntity
  8
AXIS
100
AcDbLine
 62
7
  6
CONTINUOUS
 10
7.1359789012
 20
7.0709114016
 11
7.143380476
 21
7.0709114016
  0
LINE
  5
5DA
100
AcDbEntity
  8
AXIS
100
AcDbLine
 62
7
  6
CONTINUOUS
 10
7.1950340193
 20
7.0709114016
 11
7.2024355941
 21
7.0709114016
  0
LINE
  5
5DB
100
AcDbEntity
  8
AXIS
100
AcDbLine
 62
7
  6
CONTINUOUS
 10
7.2540891374
 20
7.0709114016
 11
7.2614907122
 21
7.0709114016
  0
LINE
  5
5DC
100
AcDbEntity
  8
AXIS
100
AcDbLine
 62
7
  6
CONTINUOUS
 10
7.3131442555
 20
7.0709114016
 11
7.3205458303
 21
7.0709114016
  0
LINE
  5
5DD
100
AcDbEntity
  8
0
100
AcDbLine
 62
7
  6
CONTINUOUS
 10
7.3451521295
 20
7.1270137638
 11
7.3648371689
 21
7.1270137638
  0
LWPOLYLINE
  5
5DE
100
AcDbEntity
  8
0
100
AcDbPolyline
 62
9
  6
CONTINUOUS
 90
9
 70
0
 10
6.9047856601
 20
7.889052534
 10
6.9058840616
 20
7.8882279961
 10
6.9073242036
 20
7.8791552427
 10
6.9087643457
 20
7.861222327
 10
6.9102044877
 20
7.834849449
 10
6.9116446297
 20
7.8006545726
 10
6.9130847718
 20
7.7594389449
 10
6.9145249138
 20
7.7121683218
 10
6.9159650558
 20
7.6599503386
  0
LWPOLYLINE
  5
5DF
100
AcDbEntity
  8
0
100
AcDbPolyline
 62
9
  6
CONTINUOUS
 90
9
 70
0
 10
7.0228982616
 20
7.8890564544
 10
7.0239942978
 20
7.8882279961
 10
7.0254344398
 20
7.8791552427
 10
7.0268745819
 20
7.861222327
 10
7.0283147239
 20
7.834849449
 10
7.029754866
 20
7.8006545726
 10
7.031195008
 20
7.7594389449
 10
7.03263515
 20
7.7121683218
 10
7.0340752921
 20
7.6599503386
  0
LWPOLYLINE
  5
5E0
100
AcDbEntity
  8
0
100
AcDbPolyline
 62
9
  6
CONTINUOUS
 90
9
 70
0
 10
6.9638484939
 20
7.889065232
 10
6.9649391797
 20
7.8882279961
 10
6.9663793217
 20
7.8791552427
 10
6.9678194638
 20
7.861222327
 10
6.9692596058
 20
7.834849449
 10
6.9706997478
 20
7.8006545726
 10
6.9721398899
 20
7.7594389449
 10
6.9735800319
 20
7.7121683218
 10
6.975020174
 20
7.6599503386
  0
LINE
  5
5E1
100
AcDbEntity
  8
0
100
AcDbLine
 62
7
  6
CONTINUOUS
 10
6.877988011
 20
7.9308398762
 11
6.8776324503
 21
7.9311476221
  0
LINE
  5
5E2
100
AcDbEntity
  8
0
100
AcDbLine
 62
7
  6
CONTINUOUS
 10
6.9370431291
 20
7.9308398762
 11
6.9366875723
 21
7.9311476221
  0
LINE
  5
5E3
100
AcDbEntity
  8
0
100
AcDbLine
 62
7
  6
CONTINUOUS
 10
7.1142084834
 20
7.9308398762
 11
7.1138528725
 21
7.9311476221
  0
LINE
  5
5E4
100
AcDbEntity
  8
0
100
AcDbLine
 62
7
  6
CONTINUOUS
 10
6.9960982472
 20
7.9308398762
 11
6.9957433195
 21
7.9311476211
  0
LINE
  5
5E5
100
AcDbEntity
  8
0
100
AcDbLine
 62
7
  6
CONTINUOUS
 10
7.0551533653
 20
7.9308398762
 11
7.0547984831
 21
7.9311476209
  0
LINE
  5
5E6
100
AcDbEntity
  8
0
100
AcDbLine
 62
7
  6
CONTINUOUS
 10
7.0205765072
 20
7.8887043554
 11
7.0202725573
 21
7.8890014862
  0
LWPOLYLINE
  5
5E7
100
AcDbEntity
  8
0
100
AcDbPolyline
 62
7
  6
CONTINUOUS
 90
4
 70
0
 10
7.2269572479
 20
7.1130429469
 10
7.227432783
 20
7.1134551871
 10
7.2293547863
 20
7.1132731889
 10
7.2295978259
 20
7.1129916773
  0
LWPOLYLINE
  5
5E8
100
AcDbEntity
  8
0
100
AcDbPolyline
 62
7
  6
CONTINUOUS
 90
4
 70
0
 10
7.286012366
 20
7.1130429469
 10
7.2864879011
 20
7.1134551871
 10
7.2884099044
 20
7.1132731889
 10
7.288652944
 20
7.1129916773
  0
LINE
  5
5E9
100
AcDbEntity
  8
0
100
AcDbLine
 62
7
  6
CONTINUOUS
 10
7.3205458299
 20
7.0709114016
 11
7.3209013968
 21
7.0712191474
  0
LINE
  5
5EA
100
AcDbEntity
  8
0
100
AcDbLine
 62
7
  6
CONTINUOUS
 10
7.2618462787
 20
7.0712191474
 11
7.2614905079
 21
7.0709114017
  0
LINE
  5
5EB
100
AcDbEntity
  8
0
100
AcDbLine
 62
7
  6
CONTINUOUS
 10
7.1437360425
 20
7.0712191474
 11
7.1433800542
 21
7.070911402
  0
LINE
  5
5EC
100
AcDbEntity
  8
0
100
AcDbLine
 62
7
  6
CONTINUOUS
 10
7.2027911606
 20
7.0712191474
 11
7.2024350229
 21
7.0709114024
  0
LWPOLYLINE
  5
5ED
100
AcDbEntity
  8
0
100
AcDbPolyline
 62
7
  6
CONTINUOUS
 90
3
 70
0
 10
7.0497917952
 20
7.1130427742
 10
7.050869298
 20
7.1136598116
 10
7.0511183393
 20
7.1136764715
  0
LINE
  5
5EE
100
AcDbEntity
  8
0
100
AcDbLine
 62
7
  6
CONTINUOUS
 10
7.4345222083
 20
7.2110295118
 11
7.3845222083
 21
7.2110295118
  0
LINE
  5
5EF
100
AcDbEntity
  8
0
100
AcDbLine
 62
9
  6
CONTINUOUS
 10
6.8391446232
 20
7.2520033492
 11
6.8136560665
 21
7.2520033492
  0
LINE
  5
5F0
100
AcDbEntity
  8
0
100
AcDbLine
 62
7
  6
CONTINUOUS
 10
6.8906595313
 20
7.257203062
 11
6.8980611061
 21
7.257203062
  0
LINE
  5
5F1
100
AcDbEntity
  8
0
100
AcDbLine
 62
7
  6
CONTINUOUS
 10
6.9497146494
 20
7.257203062
 11
6.9571162242
 21
7.257203062
  0
LINE
  5
5F2
100
AcDbEntity
  8
0
100
AcDbLine
 62
7
  6
CONTINUOUS
 10
7.0087697675
 20
7.257203062
 11
7.0161713423
 21
7.257203062
  0
LINE
  5
5F3
100
AcDbEntity
  8
0
100
AcDbLine
 62
7
  6
CONTINUOUS
 10
7.0678248856
 20
7.257203062
 11
7.0752264604
 21
7.257203062
  0
LINE
  5
5F4
100
AcDbEntity
  8
0
100
AcDbLine
 62
7
  6
CONTINUOUS
 10
7.1268800037
 20
7.257203062
 11
7.1342815785
 21
7.257203062
  0
LINE
  5
5F5
100
AcDbEntity
  8
0
100
AcDbLine
 62
7
  6
CONTINUOUS
 10
7.1859351218
 20
7.257203062
 11
7.1933366967
 21
7.257203062
  0
LINE
  5
5F6
100
AcDbEntity
  8
0
100
AcDbLine
 62
7
  6
CONTINUOUS
 10
7.24499024
 20
7.257203062
 11
7.2523918148
 21
7.257203062
  0
LINE
  5
5F7
100
AcDbEntity
  8
0
100
AcDbLine
 62
7
  6
CONTINUOUS
 10
7.3040453581
 20
7.257203062
 11
7.3114469329
 21
7.257203062
  0
LINE
  5
5F8
100
AcDbEntity
  8
0
100
AcDbLine
 62
9
  6
CONTINUOUS
 10
6.7939710272
 20
7.2634004275
 11
6.8409042097
 21
7.2634004276
  0
LWPOLYLINE
  5
5F9
100
AcDbEntity
  8
0
100
AcDbPolyline
 62
9
  6
CONTINUOUS
 90
9
 70
0
 10
7.1410064838
 20
7.8890531177
 10
7.142104534
 20
7.8882279961
 10
7.1435446761
 20
7.8791552427
 10
7.1449848181
 20
7.861222327
 10
7.1464249601
 20
7.834849449
 10
7.1478651022
 20
7.8006545726
 10
7.1493052442
 20
7.7594389449
 10
7.1507453862
 20
7.7121683218
 10
7.1521855283
 20
7.6599503386
  0
LWPOLYLINE
  5
5FA
100
AcDbEntity
  8
0
100
AcDbPolyline
 62
9
  6
CONTINUOUS
 90
9
 70
0
 10
7.0819527705
 20
7.8890554469
 10
7.0830494159
 20
7.8882279961
 10
7.084489558
 20
7.8791552427
 10
7.0859297
 20
7.861222327
 10
7.087369842
 20
7.834849449
 10
7.0888099841
 20
7.8006545726
 10
7.0902501261
 20
7.7594389449
 10
7.0916902681
 20
7.7121683218
 10
7.0931304102
 20
7.6599503386
  0
LWPOLYLINE
  5
5FB
100
AcDbEntity
  8
0
100
AcDbPolyline
 62
9
  6
CONTINUOUS
 90
9
 70
0
 10
7.2000649489
 20
7.8890586529
 10
7.2011596521
 20
7.8882279961
 10
7.2025997942
 20
7.8791552427
 10
7.2040399362
 20
7.861222327
 10
7.2054800782
 20
7.834849449
 10
7.2069202203
 20
7.8006545726
 10
7.2083603623
 20
7.7594389449
 10
7.2098005044
 20
7.7121683218
 10
7.2112406464
 20
7.6599503386
  0
LWPOLYLINE
  5
5FC
100
AcDbEntity
  8
0
100
AcDbPolyline
 62
9
  6
CONTINUOUS
 90
9
 70
0
 10
7.2591253849
 20
7.8890673464
 10
7.2602147702
 20
7.8882279961
 10
7.2616549123
 20
7.8791552427
 10
7.2630950543
 20
7.861222327
 10
7.2645351964
 20
7.834849449
 10
7.2659753384
 20
7.8006545726
 10
7.2674154804
 20
7.7594389449
 10
7.2688556225
 20
7.7121683218
 10
7.2702957645
 20
7.6599503386
  0
LWPOLYLINE
  5
5FD
100
AcDbEntity
  8
0
100
AcDbPolyline
 62
9
  6
CONTINUOUS
 90
9
 70
0
 10
7.318180503
 20
7.8890673464
 10
7.3192698884
 20
7.8882279961
 10
7.3207100304
 20
7.8791552427
 10
7.3221501724
 20
7.861222327
 10
7.3235903145
 20
7.834849449
 10
7.3250304565
 20
7.8006545726
 10
7.3264705985
 20
7.7594389449
 10
7.3279107406
 20
7.7121683218
 10
7.3293508826
 20
7.6599503386
  0
LINE
  5
5FE
100
AcDbEntity
  8
0
100
AcDbLine
 62
7
  6
CONTINUOUS
 10
7.1732636015
 20
7.9308398762
 11
7.1729072962
 21
7.9311476207
  0
LINE
  5
5FF
100
AcDbEntity
  8
0
100
AcDbLine
 62
7
  6
CONTINUOUS
 10
7.2323187196
 20
7.9308398762
 11
7.2319625988
 21
7.9311476213
  0
LINE
  5
600
100
AcDbEntity
  8
0
100
AcDbLine
 62
7
  6
CONTINUOUS
 10
7.2913738377
 20
7.9308398762
 11
7.2910182695
 21
7.9311476221
  0
LINE
  5
601
100
AcDbEntity
  8
0
100
AcDbLine
 62
7
  6
CONTINUOUS
 10
7.4845222083
 20
7.2398970253
 11
7.4345222083
 21
7.2110295118
  0
LWPOLYLINE
  5
602
100
AcDbEntity
  8
0
100
AcDbPolyline
 62
7
  6
CONTINUOUS
 90
3
 70
0
 10
7.1678938489
 20
7.1130285535
 10
7.1690742746
 20
7.1136705657
 10
7.1693201427
 20
7.1136725317
  0
LINE
  5
603
100
AcDbEntity
  8
0
100
AcDbLine
 62
7
  6
CONTINUOUS
 10
7.1088512902
 20
7.1130505018
 11
7.1099883569
 21
7.1136679644
  0
LWPOLYLINE
  5
604
100
AcDbEntity
  8
0
100
AcDbPolyline
 62
9
  6
CONTINUOUS
 90
6
 70
0
 10
6.8136560665
 20
7.2520033492
 10
6.8075730548
 20
7.2514455365
 10
6.8020854907
 20
7.2498267009
 10
6.7977305352
 20
7.2473053054
 10
6.7949344816
 20
7.2441281617
 10
6.7939710272
 20
7.2406062709
  0
LINE
  5
605
100
AcDbEntity
  8
0
100
AcDbLine
 62
9
  6
CONTINUOUS
 10
7.3648371689
 20
7.3781013449
 11
7.3451521295
 21
7.3781013449
  0
LINE
  5
606
100
AcDbEntity
  8
AXIS_COSMETIC_THREADS
100
AcDbLine
 62
7
  6
CONTINUOUS
 10
10.1245222083
 20
7.3845295118
 11
7.4845222083
 21
7.3845295118
  0
LINE
  5
607
100
AcDbEntity
  8
0
100
AcDbLine
 62
9
  6
CONTINUOUS
 10
7.3451521295
 20
7.3845712484
 11
7.3845222083
 21
7.3845712484
  0
LINE
  5
608
100
AcDbEntity
  8
AXIS_COSMETIC_THREADS
100
AcDbLine
 62
7
  6
CONTINUOUS
 10
10.1245222083
 20
7.4360295118
 11
10.4245222083
 21
7.4360295118
  0
LINE
  5
609
100
AcDbEntity
  8
AXIS_COSMETIC_THREADS
100
AcDbLine
 62
7
  6
CONTINUOUS
 10
10.1245222083
 20
7.4860295118
 11
10.4245222083
 21
7.4860295118
  0
LINE
  5
60A
100
AcDbEntity
  8
AXIS_COSMETIC_THREADS
100
AcDbLine
 62
7
  6
CONTINUOUS
 10
10.1245222083
 20
7.5160295118
 11
10.4245222083
 21
7.5160295118
  0
LINE
  5
60B
100
AcDbEntity
  8
0
100
AcDbLine
 62
7
  6
CONTINUOUS
 10
7.4845222083
 20
7.7621619984
 11
7.4345222083
 21
7.7910295118
  0
LINE
  5
60C
100
AcDbEntity
  8
AXIS_COSMETIC_THREADS
100
AcDbLine
 62
7
  6
CONTINUOUS
 10
10.1245222083
 20
7.5660295118
 11
10.4245222083
 21
7.5660295118
  0
LINE
  5
60D
100
AcDbEntity
  8
0
100
AcDbLine
 62
9
  6
CONTINUOUS
 10
7.3451521295
 20
7.6174877753
 11
7.3845222083
 21
7.6174877753
  0
LINE
  5
60E
100
AcDbEntity
  8
AXIS_COSMETIC_THREADS
100
AcDbLine
 62
7
  6
CONTINUOUS
 10
10.1245222083
 20
7.6175295118
 11
7.4845222083
 21
7.6175295118
  0
LINE
  5
60F
100
AcDbEntity
  8
0
100
AcDbLine
 62
9
  6
CONTINUOUS
 10
7.3451521295
 20
7.6239576788
 11
7.3648371689
 21
7.6239576788
  0
LWPOLYLINE
  5
610
100
AcDbEntity
  8
0
100
AcDbPolyline
 62
9
  6
CONTINUOUS
 90
6
 70
0
 10
7.3648371689
 20
7.6239576788
 10
7.3709192781
 20
7.6236411156
 10
7.3764072493
 20
7.6227221555
 10
7.3807625383
 20
7.6212907624
 10
7.3835587113
 20
7.6194871285
 10
7.3845222083
 20
7.6174877753
  0
LINE
  5
611
100
AcDbEntity
  8
0
100
AcDbLine
 62
9
  6
CONTINUOUS
 10
6.7939710272
 20
7.7386585962
 11
6.8888545153
 21
7.7386585961
  0
LINE
  5
612
100
AcDbEntity
  8
0
100
AcDbLine
 62
7
  6
CONTINUOUS
 10
6.9383848853
 20
7.7448559617
 11
6.9457864601
 21
7.7448559617
  0
LINE
  5
613
100
AcDbEntity
  8
0
100
AcDbLine
 62
7
  6
CONTINUOUS
 10
6.9974400034
 20
7.7448559617
 11
7.0048415782
 21
7.7448559617
  0
LINE
  5
614
100
AcDbEntity
  8
0
100
AcDbLine
 62
7
  6
CONTINUOUS
 10
7.0564951215
 20
7.7448559617
 11
7.0638966963
 21
7.7448559617
  0
LINE
  5
615
100
AcDbEntity
  8
0
100
AcDbLine
 62
7
  6
CONTINUOUS
 10
7.1155502396
 20
7.7448559617
 11
7.1229518144
 21
7.7448559617
  0
LINE
  5
616
100
AcDbEntity
  8
0
100
AcDbLine
 62
7
  6
CONTINUOUS
 10
7.1746053577
 20
7.7448559617
 11
7.1820069325
 21
7.7448559617
  0
LINE
  5
617
100
AcDbEntity
  8
0
100
AcDbLine
 62
7
  6
CONTINUOUS
 10
7.2336604758
 20
7.7448559617
 11
7.2410620506
 21
7.7448559617
  0
LINE
  5
618
100
AcDbEntity
  8
0
100
AcDbLine
 62
7
  6
CONTINUOUS
 10
7.2927155939
 20
7.7448559617
 11
7.3001171687
 21
7.7448559617
  0
LINE
  5
619
100
AcDbEntity
  8
0
100
AcDbLine
 62
9
  6
CONTINUOUS
 10
6.8136560665
 20
7.7500556745
 11
6.8865927067
 21
7.7500556745
  0
LINE
  5
61A
100
AcDbEntity
  8
0
100
AcDbLine
 62
7
  6
CONTINUOUS
 10
7.4345222083
 20
7.7910295118
 11
7.3845222083
 21
7.7910295118
  0
LINE
  5
61B
100
AcDbEntity
  8
0
100
AcDbLine
 62
7
  6
CONTINUOUS
 10
7.3451521295
 20
7.8750452599
 11
7.3648371689
 21
7.8750452599
  0
LINE
  5
61C
100
AcDbEntity
  8
AXIS
100
AcDbLine
 62
7
  6
CONTINUOUS
 10
6.8136560665
 20
7.9311476221
 11
6.8776324445
 21
7.9311476221
  0
LINE
  5
61D
100
AcDbEntity
  8
AXIS
100
AcDbLine
 62
7
  6
CONTINUOUS
 10
6.9292859878
 20
7.9311476221
 11
6.9366875626
 21
7.9311476221
  0
LINE
  5
61E
100
AcDbEntity
  8
AXIS
100
AcDbLine
 62
7
  6
CONTINUOUS
 10
6.9883411059
 20
7.9311476221
 11
6.9957426807
 21
7.9311476221
  0
LINE
  5
61F
100
AcDbEntity
  8
AXIS
100
AcDbLine
 62
7
  6
CONTINUOUS
 10
7.047396224
 20
7.9311476221
 11
7.0547977988
 21
7.9311476221
  0
LINE
  5
620
100
AcDbEntity
  8
AXIS
100
AcDbLine
 62
7
  6
CONTINUOUS
 10
7.1064513421
 20
7.9311476221
 11
7.1138529169
 21
7.9311476221
  0
LINE
  5
621
100
AcDbEntity
  8
AXIS
100
AcDbLine
 62
7
  6
CONTINUOUS
 10
7.1655064602
 20
7.9311476221
 11
7.172908035
 21
7.9311476221
  0
LINE
  5
622
100
AcDbEntity
  8
AXIS
100
AcDbLine
 62
7
  6
CONTINUOUS
 10
7.2245615784
 20
7.9311476221
 11
7.2319631532
 21
7.9311476221
  0
LINE
  5
623
100
AcDbEntity
  8
AXIS
100
AcDbLine
 62
7
  6
CONTINUOUS
 10
7.2836166965
 20
7.9311476221
 11
7.2910182713
 21
7.9311476221
  0
LINE
  5
624
100
AcDbEntity
  8
AXIS
100
AcDbLine
 62
7
  6
CONTINUOUS
 10
7.3426718146
 20
7.9311476221
 11
7.3451521295
 21
7.9311476221
  0
LINE
  5
625
100
AcDbEntity
  8
AXIS
100
AcDbLine
 62
7
  6
CONTINUOUS
 10
6.4620012974
 20
8.0913603393
 11
6.4603096099
 21
8.0915806929
  0
LINE
  5
626
100
AcDbEntity
  8
AXIS
100
AcDbLine
 62
7
  6
CONTINUOUS
 10
6.3215300823
 20
8.0915806929
 11
6.4603096099
 21
8.0915806929
  0
LINE
  5
627
100
AcDbEntity
  8
AXIS
100
AcDbLine
 62
7
  6
CONTINUOUS
 10
6.6158214209
 20
8.0915806929
 11
6.7546009484
 21
8.0915806929
  0
LWPOLYLINE
  5
628
100
AcDbEntity
  8
AXIS
100
AcDbPolyline
 62
7
  6
CONTINUOUS
 90
15
 70
0
 10
6.6158214209
 20
8.0915806929
 10
6.614127374
 20
8.091360032
 10
6.6091102526
 20
8.0907345833
 10
6.6009788693
 20
8.0898102917
 10
6.5901319349
 20
8.0887502182
 10
6.5769622284
 20
8.0877301774
 10
6.5621404194
 20
8.086934212
 10
6.5461773846
 20
8.0864955818
 10
6.5299313155
 20
8.0864958916
 10
6.5139688528
 20
8.0869351065
 10
6.4991453728
 20
8.0877317312
 10
6.4859808631
 20
8.0887518337
 10
6.475136947
 20
8.0898119176
 10
6.4670135524
 20
8.0907354539
 10
6.4620012974
 20
8.0913603393
  0
LINE
  5
629
100
AcDbEntity
  8
AXIS_COSMETIC_THREADS
100
AcDbLine
 62
7
  6
CONTINUOUS
 10
10.1245222083
 20
7.3845295118
 11
10.1245222083
 21
7.6175295118
  0
LINE
  5
62A
100
AcDbEntity
  8
AXIS_COSMETIC_THREADS
100
AcDbLine
 62
7
  6
CONTINUOUS
 10
10.4245222083
 20
7.5660295118
 11
10.4245222083
 21
7.5160295118
  0
LINE
  5
62B
100
AcDbEntity
  8
AXIS_COSMETIC_THREADS
100
AcDbLine
 62
7
  6
CONTINUOUS
 10
10.4245222083
 20
7.4860295118
 11
10.4245222083
 21
7.4360295118
  0
LWPOLYLINE
  5
62C
100
AcDbEntity
  8
AXIS_COSMETIC_THREADS
100
AcDbPolyline
 62
7
  6
CONTINUOUS
 90
4
 70
0
 10
14.5542487607
 20
4.7642123968
 10
14.5701974619
 20
4.7669161087
 10
14.5853173631
 20
4.7709027151
 10
14.5993006669
 20
4.7760910603
  0
LWPOLYLINE
  5
62D
100
AcDbEntity
  8
AXIS_COSMETIC_THREADS
100
AcDbPolyline
 62
7
  6
CONTINUOUS
 90
5
 70
0
 10
14.488772308
 20
4.7669159129
 10
14.5047210482
 20
4.7642122777
 10
14.5211738994
 20
4.7628465792
 10
14.5377959291
 20
4.7628466192
 10
14.5542487607
 20
4.7642123968
  0
LWPOLYLINE
  5
62E
100
AcDbEntity
  8
AXIS_COSMETIC_THREADS
100
AcDbPolyline
 62
7
  6
CONTINUOUS
 90
4
 70
0
 10
14.4471068334
 20
4.7823751284
 10
14.4596689706
 20
4.7760907247
 10
14.4736523492
 20
4.7709024467
 10
14.488772308
 20
4.7669159129
  0
LWPOLYLINE
  5
62F
100
AcDbEntity
  8
AXIS_COSMETIC_THREADS
100
AcDbPolyline
 62
7
  6
CONTINUOUS
 90
3
 70
0
 10
14.455238292
 20
4.5747786074
 10
14.4498189395
 20
4.5794611751
 10
14.447915888
 20
4.5849847097
  0
LWPOLYLINE
  5
630
100
AcDbEntity
  8
AXIS_COSMETIC_THREADS
100
AcDbPolyline
 62
7
  6
CONTINUOUS
 90
3
 70
0
 10
14.5118070701
 20
4.542119347
 10
14.5063877175
 20
4.5468019148
 10
14.504484666
 20
4.5523254494
  0
LWPOLYLINE
  5
631
100
AcDbEntity
  8
AXIS_COSMETIC_THREADS
100
AcDbPolyline
 62
7
  6
CONTINUOUS
 90
3
 70
0
 10
14.568375377
 20
4.5747788794
 10
14.5629560245
 20
4.5794614471
 10
14.561052973
 20
4.5849849817
  0
LWPOLYLINE
  5
632
100
AcDbEntity
  8
AXIS
100
AcDbPolyline
 62
7
  6
CONTINUOUS
 90
18
 70
0
 10
13.9389332494
 20
7.9350878356
 10
13.9442450876
 20
8.0141170013
 10
13.9606637918
 20
8.0938133173
 10
13.9891377717
 20
8.173365375
 10
14.0300075924
 20
8.2501649463
 10
14.0786291825
 20
8.3165065594
 10
14.1381443952
 20
8.3773588772
 10
14.2022208761
 20
8.4266661747
 10
14.2684331844
 20
8.4648075203
 10
14.3381425699
 20
8.4937818394
 10
14.4046132967
 20
8.5122861528
 10
14.4683393473
 20
8.5224650366
 10
14.5304845187
 20
8.5256381698
 10
14.5912348564
 20
8.522401706
 10
14.6510664573
 20
8.5129879206
 10
14.7085349869
 20
8.4978414191
 10
14.7656301664
 20
8.4763695449
 10
14.8247550111
 20
8.4465230531
  0
LINE
  5
633
100
AcDbEntity
  8
AXIS
100
AcDbLine
 62
7
  6
CONTINUOUS
 10
13.9389332494
 20
7.9350878356
 11
13.9389332494
 21
7.5814844266
  0
LINE
  5
634
100
AcDbEntity
  8
0
100
AcDbLine
 62
7
  6
CONTINUOUS
 10
14.7646740352
 20
7.2538452397
 11
14.7579667012
 21
7.2508419857
  0
LWPOLYLINE
  5
635
100
AcDbEntity
  8
0
100
AcDbPolyline
 62
7
  6
CONTINUOUS
 90
3
 70
0
 10
14.7026452636
 20
7.2267598153
 10
14.7587840018
 20
7.2451123947
 10
14.7954268077
 20
7.2615909877
  0
LWPOLYLINE
  5
636
100
AcDbEntity
  8
0
100
AcDbPolyline
 62
7
  6
CONTINUOUS
 90
3
 70
0
 10
14.7579667012
 20
7.2508419857
 10
14.701658332
 20
7.2325342446
 10
14.641746075
 20
7.2192442107
  0
LWPOLYLINE
  5
637
100
AcDbEntity
  8
AXIS
100
AcDbPolyline
 62
7
  6
CONTINUOUS
 90
8
 70
0
 10
13.9389332494
 20
7.9350878356
 10
13.9426467865
 20
7.8969121358
 10
13.9537401476
 20
7.8592179372
 10
13.972073827
 20
7.8224778465
 10
13.9974172682
 20
7.7871538918
 10
14.0294517627
 20
7.7536902923
 10
14.0677744581
 20
7.7225078721
 10
14.1119034242
 20
7.6939987683
  0
LINE
  5
638
100
AcDbEntity
  8
0
100
AcDbLine
 62
9
  6
CONTINUOUS
 10
13.9389332494
 20
7.5814844133
 11
13.9402659289
 21
7.5585918516
  0
LINE
  5
639
100
AcDbEntity
  8
0
100
AcDbLine
 62
7
  6
CONTINUOUS
 10
14.0996253509
 20
7.2918744568
 11
14.0993663252
 21
7.3001885535
  0
LINE
  5
63A
100
AcDbEntity
  8
0
100
AcDbLine
 62
7
  6
CONTINUOUS
 10
14.0995657813
 20
7.3359617365
 11
14.0996253509
 21
7.3340496997
  0
LINE
  5
63B
100
AcDbEntity
  8
0
100
AcDbLine
 62
7
  6
CONTINUOUS
 10
14.0993663245
 20
7.1494919293
 11
14.0996218398
 21
7.1412318823
  0
LINE
  5
63C
100
AcDbEntity
  8
0
100
AcDbLine
 62
7
  6
CONTINUOUS
 10
14.0996204541
 20
7.1472977994
 11
14.0993663251
 21
7.15553273
  0
LINE
  5
63D
100
AcDbEntity
  8
0
100
AcDbLine
 62
7
  6
CONTINUOUS
 10
14.0993663251
 20
7.197707973
 11
14.0996204541
 21
7.1894730424
  0
LINE
  5
63E
100
AcDbEntity
  8
0
100
AcDbLine
 62
7
  6
CONTINUOUS
 10
14.0996215953
 20
7.1954979016
 11
14.0993663251
 21
7.2037514063
  0
LINE
  5
63F
100
AcDbEntity
  8
0
100
AcDbLine
 62
7
  6
CONTINUOUS
 10
14.0993663251
 20
7.2459266493
 11
14.0996215953
 21
7.2376731446
  0
LINE
  5
640
100
AcDbEntity
  8
0
100
AcDbLine
 62
7
  6
CONTINUOUS
 10
14.0996220573
 20
7.2437090516
 11
14.0993663252
 21
7.2519698737
  0
LINE
  5
641
100
AcDbEntity
  8
0
100
AcDbLine
 62
7
  6
CONTINUOUS
 10
14.0993663252
 20
7.2941451167
 11
14.0996220573
 21
7.2858842946
  0
LINE
  5
642
100
AcDbEntity
  8
0
100
AcDbLine
 62
7
  6
CONTINUOUS
 10
14.0993663202
 20
7.1073504453
 11
14.099543305
 21
7.100447564
  0
LINE
  5
643
100
AcDbEntity
  8
0
100
AcDbLine
 62
7
  6
CONTINUOUS
 10
14.1065237728
 20
7.3047321016
 11
14.1065237728
 21
7.2986886979
  0
LINE
  5
644
100
AcDbEntity
  8
0
100
AcDbLine
 62
7
  6
CONTINUOUS
 10
14.1065237728
 20
7.2565134549
 11
14.1065237728
 21
7.2504700512
  0
LINE
  5
645
100
AcDbEntity
  8
0
100
AcDbLine
 62
7
  6
CONTINUOUS
 10
14.1065237728
 20
7.2082948082
 11
14.1065237728
 21
7.2022514045
  0
LINE
  5
646
100
AcDbEntity
  8
0
100
AcDbLine
 62
7
  6
CONTINUOUS
 10
14.1065237728
 20
7.1600761616
 11
14.1065237728
 21
7.1540327578
  0
LINE
  5
647
100
AcDbEntity
  8
0
100
AcDbLine
 62
7
  6
CONTINUOUS
 10
14.1065237728
 20
7.1118575149
 11
14.1065237728
 21
7.1058141112
  0
LINE
  5
648
100
AcDbEntity
  8
0
100
AcDbLine
 62
7
  6
CONTINUOUS
 10
14.1065237728
 20
7.0636388682
 11
14.1065237728
 21
7.0575954645
  0
LINE
  5
649
100
AcDbEntity
  8
0
100
AcDbLine
 62
7
  6
CONTINUOUS
 10
14.0993663252
 20
7.3001885535
 11
14.1017392243
 21
7.3232140791
  0
LINE
  5
64A
100
AcDbEntity
  8
0
100
AcDbLine
 62
7
  6
CONTINUOUS
 10
14.0993663252
 20
7.2519698737
 11
14.1017474174
 21
7.2749785974
  0
LINE
  5
64B
100
AcDbEntity
  8
0
100
AcDbLine
 62
7
  6
CONTINUOUS
 10
14.0993663251
 20
7.2037514063
 11
14.1017483605
 21
7.2267586579
  0
LINE
  5
64C
100
AcDbEntity
  8
0
100
AcDbLine
 62
7
  6
CONTINUOUS
 10
14.0993663251
 20
7.15553273
 11
14.1017510979
 21
7.1785347347
  0
LINE
  5
64D
100
AcDbEntity
  8
0
100
AcDbLine
 62
7
  6
CONTINUOUS
 10
14.1018713028
 20
7.1296885994
 11
14.0993663202
 21
7.1073504453
  0
LINE
  5
64E
100
AcDbEntity
  8
AXIS
100
AcDbLine
 62
7
  6
CONTINUOUS
 10
13.9389332494
 20
7.9350878315
 11
13.9439858175
 21
7.8905835218
  0
LINE
  5
64F
100
AcDbEntity
  8
0
100
AcDbLine
 62
9
  6
CONTINUOUS
 10
14.1927854225
 20
6.989202386
 11
14.1927854225
 21
7.0043823532
  0
LINE
  5
650
100
AcDbEntity
  8
0
100
AcDbLine
 62
9
  6
CONTINUOUS
 10
14.1965870561
 20
6.9861146465
 11
14.1965870561
 21
7.0021875287
  0
LINE
  5
651
100
AcDbEntity
  8
0
100
AcDbLine
 62
7
  6
CONTINUOUS
 10
14.1065237728
 20
7.3047321016
 11
14.1005411038
 21
7.3353149323
  0
LINE
  5
652
100
AcDbEntity
  8
0
100
AcDbLine
 62
7
  6
CONTINUOUS
 10
14.1065237728
 20
7.2565134549
 11
14.0996253509
 21
7.2918744568
  0
LINE
  5
653
100
AcDbEntity
  8
0
100
AcDbLine
 62
7
  6
CONTINUOUS
 10
14.0996253509
 20
7.3340496997
 11
14.1065237728
 21
7.2986886979
  0
LWPOLYLINE
  5
654
100
AcDbEntity
  8
0
100
AcDbPolyline
 62
7
  6
CONTINUOUS
 90
3
 70
0
 10
14.1065237728
 20
7.0575954645
 10
14.0996226317
 20
7.0930003972
 10
14.0993663202
 20
7.1013070576
  0
LINE
  5
655
100
AcDbEntity
  8
0
100
AcDbLine
 62
7
  6
CONTINUOUS
 10
14.1065237728
 20
7.2082948082
 11
14.0996220573
 21
7.2437090516
  0
LINE
  5
656
100
AcDbEntity
  8
0
100
AcDbLine
 62
7
  6
CONTINUOUS
 10
14.0996220573
 20
7.2858842946
 11
14.1065237728
 21
7.2504700512
  0
LINE
  5
657
100
AcDbEntity
  8
0
100
AcDbLine
 62
7
  6
CONTINUOUS
 10
14.0996218398
 20
7.1412318823
 11
14.1065237728
 21
7.1058141112
  0
LINE
  5
658
100
AcDbEntity
  8
0
100
AcDbLine
 62
7
  6
CONTINUOUS
 10
14.1065237728
 20
7.1118575149
 11
14.0996204541
 21
7.1472977994
  0
LINE
  5
659
100
AcDbEntity
  8
0
100
AcDbLine
 62
7
  6
CONTINUOUS
 10
14.0996204541
 20
7.1894730424
 11
14.1065237728
 21
7.1540327578
  0
LINE
  5
65A
100
AcDbEntity
  8
0
100
AcDbLine
 62
7
  6
CONTINUOUS
 10
14.1065237728
 20
7.1600761616
 11
14.0996215953
 21
7.1954979016
  0
LINE
  5
65B
100
AcDbEntity
  8
0
100
AcDbLine
 62
7
  6
CONTINUOUS
 10
14.0996215953
 20
7.2376731446
 11
14.1065237728
 21
7.2022514045
  0
LINE
  5
65C
100
AcDbEntity
  8
0
100
AcDbLine
 62
7
  6
CONTINUOUS
 10
14.099543305
 20
7.100447564
 11
14.1065237728
 21
7.0636388682
  0
LWPOLYLINE
  5
65D
100
AcDbEntity
  8
0
100
AcDbPolyline
 62
9
  6
CONTINUOUS
 90
10
 70
0
 10
13.9402659289
 20
7.5585918516
 10
13.9451063262
 20
7.5323155969
 10
13.9534637589
 20
7.5063170604
 10
13.9652948495
 20
7.4807538554
 10
13.9804791881
 20
7.4558625233
 10
13.9989348288
 20
7.4317447698
 10
14.0208518913
 20
7.4082398373
 10
14.0466057447
 20
7.3852060802
 10
14.0767263111
 20
7.3625805873
 10
14.1119034242
 20
7.3403953593
  0
LWPOLYLINE
  5
65E
100
AcDbEntity
  8
0
100
AcDbPolyline
 62
9
  6
CONTINUOUS
 90
4
 70
0
 10
14.1965870561
 20
6.9861146465
 10
14.1972663394
 20
6.9815470733
 10
14.199245643
 20
6.9782018134
 10
14.2006640871
 20
6.9771030985
  0
LINE
  5
65F
100
AcDbEntity
  8
0
100
AcDbLine
 62
9
  6
CONTINUOUS
 10
14.3666328273
 20
6.8888338108
 11
14.3670522009
 21
6.8843683481
  0
LWPOLYLINE
  5
660
100
AcDbEntity
  8
AXIS_COSMETIC_THREADS
100
AcDbPolyline
 62
7
  6
CONTINUOUS
 90
7
 70
0
 10
14.4129855639
 20
4.8299355728
 10
14.4132812937
 20
4.825136995
 10
14.4156469237
 20
4.8156380841
 10
14.420329957
 20
4.8064302288
 10
14.4272350606
 20
4.7977008745
 10
14.4362216666
 20
4.7896277257
 10
14.4471068334
 20
4.7823751284
  0
LINE
  5
661
100
AcDbEntity
  8
0
100
AcDbLine
 62
9
  6
CONTINUOUS
 10
14.3612845974
 20
6.9071015101
 11
14.3612845974
 21
6.8910286278
  0
LINE
  5
662
100
AcDbEntity
  8
0
100
AcDbLine
 62
9
  6
CONTINUOUS
 10
14.3666328273
 20
6.904013778
 11
14.3666328273
 21
6.8888338108
  0
LWPOLYLINE
  5
663
100
AcDbEntity
  8
0
100
AcDbPolyline
 62
7
  6
CONTINUOUS
 90
10
 70
0
 10
14.917528777
 20
7.3113550172
 10
14.8945315814
 20
7.2851677561
 10
14.8564050685
 20
7.2539716324
 10
14.8106446472
 20
7.2262593414
 10
14.7587840018
 20
7.2029371517
 10
14.7026452636
 20
7.1845845723
 10
14.6424478746
 20
7.1711484553
 10
14.5791109273
 20
7.1629375702
 10
14.5146952668
 20
7.1602746398
 10
14.4513478807
 20
7.1631217404
  0
LWPOLYLINE
  5
664
100
AcDbEntity
  8
0
100
AcDbPolyline
 62
7
  6
CONTINUOUS
 90
3
 70
0
 10
14.8944429148
 20
7.2790392452
 10
14.9239979175
 20
7.3126563961
 10
14.9254673444
 20
7.315169754
  0
LWPOLYLINE
  5
665
100
AcDbEntity
  8
0
100
AcDbPolyline
 62
7
  6
CONTINUOUS
 90
10
 70
0
 10
14.9229251027
 20
7.1725821411
 10
14.8930714276
 20
7.1391195033
 10
14.8551377045
 20
7.1084290728
 10
14.8102585422
 20
7.0814019847
 10
14.7592534523
 20
7.058462143
 10
14.7032957018
 20
7.0401068433
 10
14.6427613076
 20
7.0265476398
 10
14.5791781651
 20
7.01828735
 10
14.5146529748
 20
7.0156187859
 10
14.4513478807
 20
7.0184658003
  0
LWPOLYLINE
  5
666
100
AcDbEntity
  8
0
100
AcDbPolyline
 62
7
  6
CONTINUOUS
 90
4
 70
0
 10
14.8818175869
 20
7.0747330939
 10
14.9109424111
 20
7.1034359514
 10
14.9337296939
 20
7.134351548
 10
14.9496500539
 20
7.1670889868
  0
LWPOLYLINE
  5
667
100
AcDbEntity
  8
0
100
AcDbPolyline
 62
7
  6
CONTINUOUS
 90
5
 70
0
 10
14.8793835799
 20
7.2173276949
 10
14.9110769071
 20
7.2482462641
 10
14.9351598675
 20
7.2813903971
 10
14.9513367844
 20
7.3165534428
 10
14.9548501502
 20
7.3331835332
  0
LWPOLYLINE
  5
668
100
AcDbEntity
  8
0
100
AcDbPolyline
 62
7
  6
CONTINUOUS
 90
9
 70
0
 10
14.8931021242
 20
7.0909299268
 10
14.8553569927
 20
7.0603632655
 10
14.8104839585
 20
7.0333008722
 10
14.7592736423
 20
7.010251289
 10
14.7032725978
 20
6.9918818536
 10
14.6427445398
 20
6.9783260404
 10
14.5791640859
 20
6.9700675051
 10
14.5146417521
 20
6.9674001626
 10
14.4513478807
 20
6.9702471536
  0
LINE
  5
669
100
AcDbEntity
  8
0
100
AcDbLine
 62
7
  6
CONTINUOUS
 10
14.8547448587
 20
7.0056751622
 11
14.8930284412
 21
7.0365981117
  0
LWPOLYLINE
  5
66A
100
AcDbEntity
  8
0
100
AcDbPolyline
 62
7
  6
CONTINUOUS
 90
9
 70
0
 10
14.8818175869
 20
7.0325578509
 10
14.8432172194
 20
7.004023797
 10
14.7979116734
 20
6.9787638745
 10
14.7472577491
 20
6.9575544153
 10
14.6925621925
 20
6.9408235923
 10
14.6339995969
 20
6.9286248447
 10
14.5731100872
 20
6.9213588314
 10
14.5117967274
 20
6.919192877
 10
14.4513478807
 20
6.922028507
  0
LWPOLYLINE
  5
66B
100
AcDbEntity
  8
0
100
AcDbPolyline
 62
7
  6
CONTINUOUS
 90
3
 70
0
 10
14.7141337513
 20
6.8788970303
 10
14.739591695
 20
6.8959764908
 10
14.7430264348
 20
6.8991324776
  0
LWPOLYLINE
  5
66C
100
AcDbEntity
  8
0
100
AcDbPolyline
 62
7
  6
CONTINUOUS
 90
6
 70
0
 10
14.8101541578
 20
6.9366916719
 10
14.8554099651
 20
6.9639629284
 10
14.8934488794
 20
6.9948216087
 10
14.9234289888
 20
7.0286096882
 10
14.9446872115
 20
7.0646051829
 10
14.9567525192
 20
7.1020363879
  0
LWPOLYLINE
  5
66D
100
AcDbEntity
  8
0
100
AcDbPolyline
 62
7
  6
CONTINUOUS
 90
7
 70
0
 10
14.7829184178
 20
6.9184221842
 10
14.7530862022
 20
6.902897851
 10
14.7039622678
 20
6.8845107504
 10
14.6508551553
 20
6.8709296431
 10
14.59500611
 20
6.8623859451
 10
14.5376908722
 20
6.8590232002
 10
14.4802067454
 20
6.8608954606
  0
LWPOLYLINE
  5
66E
100
AcDbEntity
  8
0
100
AcDbPolyline
 62
7
  6
CONTINUOUS
 90
14
 70
0
 10
14.7141337513
 20
6.8788970303
 10
14.6845510468
 20
6.8641989475
 10
14.6515044105
 20
6.8522105735
 10
14.6157320494
 20
6.8431997086
 10
14.578033059
 20
6.8373676407
 10
14.5392495724
 20
6.8348446486
 10
14.5002479488
 20
6.8356870918
 10
14.4618994198
 20
6.8398761514
 10
14.4250606283
 20
6.8473182508
 10
14.390554492
 20
6.8578471457
 10
14.3591518209
 20
6.8712276381
 10
14.3315540988
 20
6.8871608299
 10
14.3083778133
 20
6.9052907999
 10
14.2911003094
 20
6.9239585333
  0
LINE
  5
66F
100
AcDbEntity
  8
0
100
AcDbLine
 62
7
  6
CONTINUOUS
 10
14.7586841822
 20
6.9135868641
 11
14.8101541578
 21
6.9366916719
  0
LWPOLYLINE
  5
670
100
AcDbEntity
  8
0
100
AcDbPolyline
 62
7
  6
CONTINUOUS
 90
7
 70
0
 10
14.8101547991
 20
6.9306486021
 10
14.7586846495
 20
6.9075436401
 10
14.7021404464
 20
6.8890914924
 10
14.6417738376
 20
6.8756751276
 10
14.5789210767
 20
6.8675661695
 10
14.5149738797
 20
6.864918848
 10
14.4513478807
 20
6.8677664566
  0
LINE
  5
671
100
AcDbEntity
  8
AXIS_COSMETIC_THREADS
100
AcDbLine
 62
7
  6
CONTINUOUS
 10
14.4129844305
 20
4.8299355724
 11
14.4129844305
 21
6.8510030742
  0
LINE
  5
672
100
AcDbEntity
  8
AXIS_COSMETIC_THREADS
100
AcDbLine
 62
7
  6
CONTINUOUS
 10
14.447915888
 20
4.7819703864
 11
14.447915888
 21
4.5849847113
  0
LINE
  5
673
100
AcDbEntity
  8
0
100
AcDbLine
 62
7
  6
CONTINUOUS
 10
14.4513478807
 20
7.211340387
 11
14.4513478807
 21
7.2052969833
  0
LINE
  5
674
100
AcDbEntity
  8
0
100
AcDbLine
 62
7
  6
CONTINUOUS
 10
14.4513478807
 20
7.1631217404
 11
14.4513478807
 21
7.1570783366
  0
LINE
  5
675
100
AcDbEntity
  8
0
100
AcDbLine
 62
7
  6
CONTINUOUS
 10
14.4513478807
 20
7.1149030937
 11
14.4513478807
 21
7.10885969
  0
LINE
  5
676
100
AcDbEntity
  8
0
100
AcDbLine
 62
7
  6
CONTINUOUS
 10
14.4513478807
 20
7.066684447
 11
14.4513478807
 21
7.0606410433
  0
LINE
  5
677
100
AcDbEntity
  8
0
100
AcDbLine
 62
7
  6
CONTINUOUS
 10
14.4513478807
 20
7.0184658003
 11
14.4513478807
 21
7.0124223966
  0
LINE
  5
678
100
AcDbEntity
  8
0
100
AcDbLine
 62
7
  6
CONTINUOUS
 10
14.4513478807
 20
6.9702471536
 11
14.4513478807
 21
6.9642037499
  0
LINE
  5
679
100
AcDbEntity
  8
0
100
AcDbLine
 62
7
  6
CONTINUOUS
 10
14.4513478807
 20
6.922028507
 11
14.4513478807
 21
6.9159851032
  0
LINE
  5
67A
100
AcDbEntity
  8
0
100
AcDbLine
 62
7
  6
CONTINUOUS
 10
14.4513478807
 20
6.8738098603
 11
14.4513478807
 21
6.8677664566
  0
LINE
  5
67B
100
AcDbEntity
  8
AXIS_COSMETIC_THREADS
100
AcDbLine
 62
7
  6
CONTINUOUS
 10
14.497915888
 20
4.7653658905
 11
14.497915888
 21
4.5849847113
  0
LINE
  5
67C
100
AcDbEntity
  8
AXIS_COSMETIC_THREADS
100
AcDbLine
 62
7
  6
CONTINUOUS
 10
14.504484666
 20
4.7642523493
 11
14.504484666
 21
4.5523254509
  0
LWPOLYLINE
  5
67D
100
AcDbEntity
  8
0
100
AcDbPolyline
 62
7
  6
CONTINUOUS
 90
4
 70
0
 10
14.8930284412
 20
7.0365981117
 10
14.9228929594
 20
7.0700580253
 10
14.944404855
 20
7.1061614096
 10
14.9567182939
 20
7.1440360555
  0
LWPOLYLINE
  5
67E
100
AcDbEntity
  8
0
100
AcDbPolyline
 62
9
  6
CONTINUOUS
 90
3
 70
0
 10
14.1927854225
 20
6.989202386
 10
14.1797328669
 20
7.0067155543
 10
14.1753105883
 20
7.0144712253
  0
LWPOLYLINE
  5
67F
100
AcDbEntity
  8
0
100
AcDbPolyline
 62
7
  6
CONTINUOUS
 90
3
 70
0
 10
14.195416929
 20
6.9815094319
 10
14.1731487369
 20
7.0143746903
 10
14.1724746924
 20
7.0161084935
  0
LWPOLYLINE
  5
680
100
AcDbEntity
  8
0
100
AcDbPolyline
 62
9
  6
CONTINUOUS
 90
3
 70
0
 10
14.195416929
 20
6.9815094319
 10
14.19365275
 20
6.9844777922
 10
14.1927854225
 20
6.989202386
  0
LINE
  5
681
100
AcDbEntity
  8
0
100
AcDbLine
 62
9
  6
CONTINUOUS
 10
14.1665613646
 20
7.0500624257
 11
14.1638857098
 21
7.0551060377
  0
LINE
  5
682
100
AcDbEntity
  8
0
100
AcDbLine
 62
9
  6
CONTINUOUS
 10
14.1665613646
 20
7.0982810724
 11
14.1638857098
 21
7.1033246844
  0
LINE
  5
683
100
AcDbEntity
  8
0
100
AcDbLine
 62
9
  6
CONTINUOUS
 10
14.1665613646
 20
7.1464997191
 11
14.1638858437
 21
7.1515430788
  0
LINE
  5
684
100
AcDbEntity
  8
0
100
AcDbLine
 62
9
  6
CONTINUOUS
 10
14.1665613646
 20
7.1947183658
 11
14.1638856818
 21
7.1997620305
  0
LINE
  5
685
100
AcDbEntity
  8
0
100
AcDbLine
 62
9
  6
CONTINUOUS
 10
14.1665613646
 20
7.2429370125
 11
14.1638857098
 21
7.2479806244
  0
LINE
  5
686
100
AcDbEntity
  8
0
100
AcDbLine
 62
9
  6
CONTINUOUS
 10
14.3670522009
 20
6.8843683481
 11
14.3682696121
 21
6.881340595
  0
LINE
  5
687
100
AcDbEntity
  8
AXIS
100
AcDbLine
 62
7
  6
CONTINUOUS
 10
13.9439858175
 20
7.8905835218
 11
13.9590564293
 21
7.8468421086
  0
LWPOLYLINE
  5
688
100
AcDbEntity
  8
0
100
AcDbPolyline
 62
9
  6
CONTINUOUS
 90
4
 70
0
 10
14.3612845974
 20
6.8910286278
 10
14.3619656524
 20
6.8864557759
 10
14.3639427054
 20
6.8831162794
 10
14.365360435
 20
6.8820177689
  0
LINE
  5
689
100
AcDbEntity
  8
AXIS_COSMETIC_THREADS
100
AcDbLine
 62
7
  6
CONTINUOUS
 10
14.554484666
 20
4.7642523887
 11
14.554484666
 21
4.5523254509
  0
LINE
  5
68A
100
AcDbEntity
  8
AXIS_COSMETIC_THREADS
100
AcDbLine
 62
7
  6
CONTINUOUS
 10
14.561052973
 20
4.7653658844
 11
14.561052973
 21
4.5849849832
  0
LINE
  5
68B
100
AcDbEntity
  8
AXIS_COSMETIC_THREADS
100
AcDbLine
 62
7
  6
CONTINUOUS
 10
14.611052973
 20
4.7819704324
 11
14.611052973
 21
4.5849849832
  0
LINE
  5
68C
100
AcDbEntity
  8
AXIS_COSMETIC_THREADS
100
AcDbLine
 62
7
  6
CONTINUOUS
 10
14.6459844305
 20
4.8299355724
 11
14.6459844305
 21
6.8508201203
  0
LWPOLYLINE
  5
68D
100
AcDbEntity
  8
0
100
AcDbPolyline
 62
7
  6
CONTINUOUS
 90
3
 70
0
 10
14.1162874653
 20
7.0485474703
 10
14.1114197915
 20
7.0530391884
 10
14.1065237728
 20
7.0575954645
  0
LWPOLYLINE
  5
68E
100
AcDbEntity
  8
0
100
AcDbPolyline
 62
7
  6
CONTINUOUS
 90
3
 70
0
 10
14.195416929
 20
6.9815094319
 10
14.1986106674
 20
6.9784668239
 10
14.200664748
 20
6.977102717
  0
LWPOLYLINE
  5
68F
100
AcDbEntity
  8
0
100
AcDbPolyline
 62
9
  6
CONTINUOUS
 90
4
 70
0
 10
14.1927854225
 20
6.989202386
 10
14.1938445391
 20
6.9880989722
 10
14.195119515
 20
6.9870624715
 10
14.1965870561
 20
6.9861146465
  0
LWPOLYLINE
  5
690
100
AcDbEntity
  8
0
100
AcDbPolyline
 62
7
  6
CONTINUOUS
 90
4
 70
0
 10
14.1678699509
 20
7.1479119173
 10
14.1675052581
 20
7.1483757593
 10
14.1670632714
 20
7.1488374147
 10
14.1665613646
 20
7.149283624
  0
LINE
  5
691
100
AcDbEntity
  8
0
100
AcDbLine
 62
7
  6
CONTINUOUS
 10
14.2897935524
 20
6.9256453418
 11
14.2911031525
 21
6.923954636
  0
LWPOLYLINE
  5
692
100
AcDbEntity
  8
0
100
AcDbPolyline
 62
7
  6
CONTINUOUS
 90
4
 70
0
 10
14.1678707018
 20
7.2443499272
 10
14.1676111595
 20
7.2446886386
 10
14.1671331815
 20
7.2452067242
 10
14.1665613646
 20
7.2457209173
  0
LWPOLYLINE
  5
693
100
AcDbEntity
  8
0
100
AcDbPolyline
 62
7
  6
CONTINUOUS
 90
4
 70
0
 10
14.1678714956
 20
7.0514741977
 10
14.1676111595
 20
7.0518140519
 10
14.1671331815
 20
7.0523321374
 10
14.1665613646
 20
7.0528463306
  0
LWPOLYLINE
  5
694
100
AcDbEntity
  8
0
100
AcDbPolyline
 62
7
  6
CONTINUOUS
 90
4
 70
0
 10
14.1678713635
 20
7.0996930346
 10
14.1676111595
 20
7.1000326986
 10
14.1671331815
 20
7.1005507841
 10
14.1665613646
 20
7.1010649773
  0
LWPOLYLINE
  5
695
100
AcDbEntity
  8
0
100
AcDbPolyline
 62
7
  6
CONTINUOUS
 90
4
 70
0
 10
14.1678715676
 20
7.1961300339
 10
14.1676111595
 20
7.196469992
 10
14.1671331815
 20
7.1969880775
 10
14.1665613646
 20
7.1975022706
  0
LINE
  5
696
100
AcDbEntity
  8
0
100
AcDbLine
 62
9
  6
CONTINUOUS
 10
14.1665613646
 20
7.2911556591
 11
14.1638857098
 21
7.2961992711
  0
LWPOLYLINE
  5
697
100
AcDbEntity
  8
0
100
AcDbPolyline
 62
7
  6
CONTINUOUS
 90
13
 70
0
 10
14.9589785405
 20
7.310549525
 10
14.9513367844
 20
7.2743781998
 10
14.9351598675
 20
7.2392151542
 10
14.9110769071
 20
7.2060710211
 10
14.8793835799
 20
7.175152452
 10
14.8405618249
 20
7.1469907806
 10
14.7957137936
 20
7.122363018
 10
14.7459252017
 20
7.1017329697
 10
14.6917025815
 20
7.085260241
 10
14.6335549779
 20
7.0732084505
 10
14.5728721122
 20
7.0659965345
 10
14.5115327003
 20
7.0638504229
 10
14.4513478807
 20
7.066684447
  0
LWPOLYLINE
  5
698
100
AcDbEntity
  8
0
100
AcDbPolyline
 62
7
  6
CONTINUOUS
 90
3
 70
0
 10
14.9496500539
 20
7.1670889868
 10
14.9581626826
 20
7.2009235754
 10
14.9596025365
 20
7.2218893623
  0
LWPOLYLINE
  5
699
100
AcDbEntity
  8
0
100
AcDbPolyline
 62
7
  6
CONTINUOUS
 90
5
 70
0
 10
14.9581626826
 20
7.1587483324
 10
14.9496500539
 20
7.1249137439
 10
14.9337296939
 20
7.092176305
 10
14.9109424111
 20
7.0612607085
 10
14.8818175869
 20
7.0325578509
  0
LWPOLYLINE
  5
69A
100
AcDbEntity
  8
0
100
AcDbPolyline
 62
7
  6
CONTINUOUS
 90
12
 70
0
 10
14.9531651152
 20
7.3321078091
 10
14.9450240006
 20
7.3064448825
 10
14.9239979175
 20
7.2704811531
 10
14.8944429148
 20
7.2368640022
 10
14.8564131188
 20
7.205758643
 10
14.8108676366
 20
7.1781572345
 10
14.7593585378
 20
7.1549400057
 10
14.7033946824
 20
7.1365713218
 10
14.6428393915
 20
7.1229986891
 10
14.5792314598
 20
7.1147291815
 10
14.514679483
 20
7.112056025
 10
14.4513478807
 20
7.1149030937
  0
LWPOLYLINE
  5
69B
100
AcDbEntity
  8
0
100
AcDbPolyline
 62
9
  6
CONTINUOUS
 90
4
 70
0
 10
14.3612845974
 20
6.8910286278
 10
14.3629218721
 20
6.8901834095
 10
14.3647120439
 20
6.8894487553
 10
14.3666328273
 20
6.8888338108
  0
LWPOLYLINE
  5
69C
100
AcDbEntity
  8
0
100
AcDbPolyline
 62
7
  6
CONTINUOUS
 90
4
 70
0
 10
14.365360435
 20
6.8820177689
 10
14.3665864345
 20
6.8813663721
 10
14.3688946843
 20
6.8804183819
 10
14.3699102543
 20
6.8801050407
  0
LINE
  5
69D
100
AcDbEntity
  8
0
100
AcDbLine
 62
7
  6
CONTINUOUS
 10
14.3653616116
 20
6.8820170895
 11
14.2006640703
 21
6.9771031082
  0
LINE
  5
69E
100
AcDbEntity
  8
0
100
AcDbLine
 62
9
  6
CONTINUOUS
 10
14.3612845974
 20
6.8910286278
 11
14.1965870561
 21
6.9861146465
  0
LINE
  5
69F
100
AcDbEntity
  8
0
100
AcDbLine
 62
7
  6
CONTINUOUS
 10
14.1162874653
 20
7.0485474703
 11
14.1965870561
 21
7.0021875287
  0
LINE
  5
6A0
100
AcDbEntity
  8
0
100
AcDbLine
 62
7
  6
CONTINUOUS
 10
14.3612845974
 20
6.9071015101
 11
14.4174169887
 21
6.874694192
  0
LINE
  5
6A1
100
AcDbEntity
  8
0
100
AcDbLine
 62
9
  6
CONTINUOUS
 10
14.3682696121
 20
6.881340595
 11
14.369908548
 21
6.8801055171
  0
LWPOLYLINE
  5
6A2
100
AcDbEntity
  8
0
100
AcDbPolyline
 62
7
  6
CONTINUOUS
 90
4
 70
0
 10
14.1665613646
 20
7.0528463306
 10
14.1470625599
 20
7.0693139211
 10
14.1270443143
 20
7.086980066
 10
14.1065237728
 20
7.1058141112
  0
LWPOLYLINE
  5
6A3
100
AcDbEntity
  8
0
100
AcDbPolyline
 62
7
  6
CONTINUOUS
 90
4
 70
0
 10
14.1665613646
 20
7.1010649773
 10
14.1470625599
 20
7.1175325678
 10
14.1270443143
 20
7.1351987126
 10
14.1065237728
 20
7.1540327578
  0
LWPOLYLINE
  5
6A4
100
AcDbEntity
  8
0
100
AcDbPolyline
 62
7
  6
CONTINUOUS
 90
4
 70
0
 10
14.3913102888
 20
6.9267776408
 10
14.410812014
 20
6.9103075275
 10
14.4308302426
 20
6.8926412908
 10
14.4513478807
 20
6.8738098603
  0
LWPOLYLINE
  5
6A5
100
AcDbEntity
  8
0
100
AcDbPolyline
 62
7
  6
CONTINUOUS
 90
4
 70
0
 10
14.1665613646
 20
7.149283624
 10
14.1471151005
 20
7.1657058294
 10
14.1270943346
 20
7.183372316
 10
14.1065237728
 20
7.2022514045
  0
LWPOLYLINE
  5
6A6
100
AcDbEntity
  8
0
100
AcDbPolyline
 62
7
  6
CONTINUOUS
 90
4
 70
0
 10
14.3913102888
 20
6.9749962875
 10
14.410812014
 20
6.9585261742
 10
14.4308302426
 20
6.9408599374
 10
14.4513478807
 20
6.922028507
  0
LWPOLYLINE
  5
6A7
100
AcDbEntity
  8
0
100
AcDbPolyline
 62
7
  6
CONTINUOUS
 90
4
 70
0
 10
14.1665613646
 20
7.1975022706
 10
14.1470515665
 20
7.213979358
 10
14.1270322212
 20
7.2316468966
 10
14.1065237728
 20
7.2504700512
  0
LWPOLYLINE
  5
6A8
100
AcDbEntity
  8
0
100
AcDbPolyline
 62
7
  6
CONTINUOUS
 90
4
 70
0
 10
14.3913102888
 20
7.0232149342
 10
14.4108733228
 20
7.0066918548
 10
14.4308953961
 20
6.9890199064
 10
14.4513478807
 20
6.9702471536
  0
LWPOLYLINE
  5
6A9
100
AcDbEntity
  8
0
100
AcDbPolyline
 62
7
  6
CONTINUOUS
 90
4
 70
0
 10
14.1678715525
 20
7.2925673491
 10
14.1676111595
 20
7.2929072853
 10
14.1671331815
 20
7.2934253708
 10
14.1665613646
 20
7.293939564
  0
LINE
  5
6AA
100
AcDbEntity
  8
AXIS
100
AcDbLine
 62
7
  6
CONTINUOUS
 10
13.9590564293
 20
7.8468421086
 11
13.9838872223
 21
7.8046106043
  0
LINE
  5
6AB
100
AcDbEntity
  8
0
100
AcDbLine
 62
7
  6
CONTINUOUS
 10
14.9596025353
 20
7.3243750721
 11
14.9589785405
 21
7.310549525
  0
LINE
  5
6AC
100
AcDbEntity
  8
0
100
AcDbLine
 62
7
  6
CONTINUOUS
 10
14.9596025365
 20
7.1797141194
 11
14.9581626826
 21
7.1587483324
  0
LINE
  5
6AD
100
AcDbEntity
  8
0
100
AcDbLine
 62
7
  6
CONTINUOUS
 10
14.9567525192
 20
7.1020363879
 11
14.9596025407
 21
7.1314598416
  0
LWPOLYLINE
  5
6AE
100
AcDbEntity
  8
0
100
AcDbPolyline
 62
7
  6
CONTINUOUS
 90
7
 70
0
 10
14.9596025407
 20
7.1254164241
 10
14.9567525557
 20
7.0959931721
 10
14.9446874452
 20
7.0585622941
 10
14.923429645
 20
7.022567178
 10
14.8934497708
 20
6.9887790521
 10
14.8554107772
 20
6.9579200913
 10
14.8101547991
 20
6.9306486021
  0
LINE
  5
6AF
100
AcDbEntity
  8
0
100
AcDbLine
 62
7
  6
CONTINUOUS
 10
14.9567229489
 20
7.2887158138
 11
14.9596025357
 21
7.3183300103
  0
LWPOLYLINE
  5
6B0
100
AcDbEntity
  8
0
100
AcDbPolyline
 62
7
  6
CONTINUOUS
 90
4
 70
0
 10
14.9596025357
 20
7.2761547673
 10
14.9567229489
 20
7.2465405708
 10
14.9444199135
 20
7.2086749662
 10
14.9229251027
 20
7.1725821411
  0
LINE
  5
6B1
100
AcDbEntity
  8
0
100
AcDbLine
 62
7
  6
CONTINUOUS
 10
14.956722791
 20
7.240496359
 11
14.9596025358
 21
7.2701109779
  0
LWPOLYLINE
  5
6B2
100
AcDbEntity
  8
0
100
AcDbPolyline
 62
7
  6
CONTINUOUS
 90
5
 70
0
 10
14.9596025358
 20
7.2279357349
 10
14.956722791
 20
7.198321116
 10
14.9444205167
 20
7.1604576361
 10
14.922925667
 20
7.1243642569
 10
14.8931021242
 20
7.0909299268
  0
LINE
  5
6B3
100
AcDbEntity
  8
0
100
AcDbLine
 62
7
  6
CONTINUOUS
 10
14.9567182939
 20
7.1440360555
 11
14.9596025358
 21
7.1736737281
  0
LWPOLYLINE
  5
6B4
100
AcDbEntity
  8
AXIS
100
AcDbPolyline
 62
7
  6
CONTINUOUS
 90
18
 70
0
 10
15.1200356116
 20
7.9350878396
 10
15.1149836853
 20
7.8905863365
 10
15.0999137044
 20
7.8468448509
 10
15.0750835205
 20
7.8046132273
 10
15.0409179849
 20
7.7646140603
 10
14.9980016794
 20
7.7275317469
 10
14.9470689138
 20
7.6940007758
 10
14.888991162
 20
7.6645948711
 10
14.8247621503
 20
7.639817176
 10
14.755480855
 20
7.6200916437
 10
14.6823326982
 20
7.6057557837
 10
14.6065692651
 20
7.5970548863
 10
14.5294868892
 20
7.5941378264
 10
14.4524044712
 20
7.5970545157
 10
14.3766409126
 20
7.6057550489
 10
14.303492549
 20
7.6200905573
 10
14.2342109692
 20
7.6398157565
 10
14.1699816002
 20
7.6645931428
  0
LINE
  5
6B5
100
AcDbEntity
  8
0
100
AcDbLine
 62
7
  6
CONTINUOUS
 10
14.542826492
 20
6.8593245124
 11
14.5284407273
 21
6.8593244778
  0
LWPOLYLINE
  5
6B6
100
AcDbEntity
  8
0
100
AcDbPolyline
 62
7
  6
CONTINUOUS
 90
6
 70
0
 10
14.4513478807
 20
6.8738098603
 10
14.5149734017
 20
6.8709622525
 10
14.578920303
 20
6.8736095076
 10
14.6417732259
 20
6.8817184245
 10
14.7021400389
 20
6.8951347851
 10
14.7586841822
 20
6.9135868641
  0
LWPOLYLINE
  5
6B7
100
AcDbEntity
  8
0
100
AcDbPolyline
 62
7
  6
CONTINUOUS
 90
8
 70
0
 10
14.4513478807
 20
6.9159851032
 10
14.5143212877
 20
6.9131388484
 10
14.5776667077
 20
6.9156795739
 10
14.6404231705
 20
6.9236592882
 10
14.7007121776
 20
6.9369227145
 10
14.7569751278
 20
6.9551079863
 10
14.8088886772
 20
6.9782104584
 10
14.8547448587
 20
7.0056751622
  0
LWPOLYLINE
  5
6B8
100
AcDbEntity
  8
0
100
AcDbPolyline
 62
7
  6
CONTINUOUS
 90
9
 70
0
 10
14.4513478807
 20
6.9642037499
 10
14.5117967274
 20
6.96136812
 10
14.5731100872
 20
6.9635340744
 10
14.6339995969
 20
6.9708000876
 10
14.6925621925
 20
6.9829988353
 10
14.7472577491
 20
6.9997296582
 10
14.7979116734
 20
7.0209391175
 10
14.8432172194
 20
7.04619904
 10
14.8818175869
 20
7.0747330939
  0
LINE
  5
6B9
100
AcDbEntity
  8
0
100
AcDbLine
 62
7
  6
CONTINUOUS
 10
14.4802067454
 20
6.8608954606
 11
14.4238534707
 21
6.86796534
  0
LINE
  5
6BA
100
AcDbEntity
  8
0
100
AcDbLine
 62
9
  6
CONTINUOUS
 10
14.4190335615
 20
6.9226224424
 11
14.3913102888
 21
6.9267776408
  0
LINE
  5
6BB
100
AcDbEntity
  8
0
100
AcDbLine
 62
9
  6
CONTINUOUS
 10
14.4197503209
 20
6.9706792526
 11
14.3913102888
 21
6.9749962875
  0
LWPOLYLINE
  5
6BC
100
AcDbEntity
  8
0
100
AcDbPolyline
 62
7
  6
CONTINUOUS
 90
10
 70
0
 10
14.3909968048
 20
6.9296366393
 10
14.3907508061
 20
6.9296769295
 10
14.390280708
 20
6.9296897851
 10
14.3899027432
 20
6.9295933704
 10
14.3896444761
 20
6.9293402682
 10
14.3896297777
 20
6.9288898451
 10
14.3898821763
 20
6.928332348
 10
14.3902877497
 20
6.9277772478
 10
14.3907657241
 20
6.9272651381
 10
14.3913102888
 20
6.9267776408
  0
LWPOLYLINE
  5
6BD
100
AcDbEntity
  8
0
100
AcDbPolyline
 62
7
  6
CONTINUOUS
 90
10
 70
0
 10
14.3909969434
 20
6.9778552583
 10
14.3907508061
 20
6.9778955761
 10
14.390280708
 20
6.9779084317
 10
14.3899027432
 20
6.9778120171
 10
14.3896444761
 20
6.9775589148
 10
14.3896297777
 20
6.9771084917
 10
14.3898821763
 20
6.9765509947
 10
14.3902877497
 20
6.9759958945
 10
14.3907657241
 20
6.9754837848
 10
14.3913102888
 20
6.9749962875
  0
LWPOLYLINE
  5
6BE
100
AcDbEntity
  8
0
100
AcDbPolyline
 62
9
  6
CONTINUOUS
 90
3
 70
0
 10
14.4104005294
 20
6.878745055
 10
14.3969662181
 20
6.8812983535
 10
14.3666328273
 20
6.8888338108
  0
LWPOLYLINE
  5
6BF
100
AcDbEntity
  8
0
100
AcDbPolyline
 62
7
  6
CONTINUOUS
 90
3
 70
0
 10
14.4513478807
 20
6.8677664566
 10
14.4342203454
 20
6.8710397097
 10
14.4174169887
 20
6.874694192
  0
LWPOLYLINE
  5
6C0
100
AcDbEntity
  8
0
100
AcDbPolyline
 62
7
  6
CONTINUOUS
 90
4
 70
0
 10
14.4513478807
 20
6.9159851032
 10
14.4308258844
 20
6.9199598645
 10
14.4108095085
 20
6.9244793439
 10
14.3913102888
 20
6.9295615457
  0
LWPOLYLINE
  5
6C1
100
AcDbEntity
  8
0
100
AcDbPolyline
 62
7
  6
CONTINUOUS
 90
4
 70
0
 10
14.4513478807
 20
6.9642037499
 10
14.4308258844
 20
6.9681785112
 10
14.4108095085
 20
6.9726979905
 10
14.3913102888
 20
6.9777801924
  0
LINE
  5
6C2
100
AcDbEntity
  8
0
100
AcDbLine
 62
7
  6
CONTINUOUS
 10
14.4238534707
 20
6.86796534
 11
14.3699096066
 21
6.8801052214
  0
LINE
  5
6C3
100
AcDbEntity
  8
0
100
AcDbLine
 62
7
  6
CONTINUOUS
 10
14.3913102888
 20
6.9295615457
 11
14.3909968048
 21
6.9296366393
  0
LINE
  5
6C4
100
AcDbEntity
  8
0
100
AcDbLine
 62
7
  6
CONTINUOUS
 10
14.3913102888
 20
6.9777801924
 11
14.3909969434
 21
6.9778552583
  0
LINE
  5
6C5
100
AcDbEntity
  8
0
100
AcDbLine
 62
7
  6
CONTINUOUS
 10
14.1470592913
 20
7.0551453206
 11
14.1665613646
 21
7.0500624257
  0
LWPOLYLINE
  5
6C6
100
AcDbEntity
  8
0
100
AcDbPolyline
 62
7
  6
CONTINUOUS
 90
7
 70
0
 10
14.1200574526
 20
7.3223722826
 10
14.0660240521
 20
7.3582055924
 10
14.0205570406
 20
7.3983411478
 10
13.9847064901
 20
7.4418317693
 10
13.9591370742
 20
7.4875015225
 10
13.9439517695
 20
7.5342842147
 10
13.9389332494
 20
7.5814844266
  0
LWPOLYLINE
  5
6C7
100
AcDbEntity
  8
0
100
AcDbPolyline
 62
7
  6
CONTINUOUS
 90
4
 70
0
 10
14.1665613646
 20
7.2457209173
 10
14.1470625599
 20
7.2621885078
 10
14.1270443143
 20
7.2798546527
 10
14.1065237728
 20
7.2986886979
  0
LWPOLYLINE
  5
6C8
100
AcDbEntity
  8
0
100
AcDbPolyline
 62
7
  6
CONTINUOUS
 90
4
 70
0
 10
14.3913102888
 20
7.0714335809
 10
14.4108005952
 20
7.0549733318
 10
14.4308183453
 20
7.0373079448
 10
14.4513478807
 20
7.0184658003
  0
LINE
  5
6C9
100
AcDbEntity
  8
0
100
AcDbLine
 62
7
  6
CONTINUOUS
 10
14.1665613646
 20
7.293939564
 11
14.1516490873
 21
7.3065336321
  0
LWPOLYLINE
  5
6CA
100
AcDbEntity
  8
0
100
AcDbPolyline
 62
7
  6
CONTINUOUS
 90
4
 70
0
 10
14.3913102888
 20
7.1196522276
 10
14.410812014
 20
7.1031821142
 10
14.4308302426
 20
7.0855158775
 10
14.4513478807
 20
7.066684447
  0
LWPOLYLINE
  5
6CB
100
AcDbEntity
  8
0
100
AcDbPolyline
 62
7
  6
CONTINUOUS
 90
4
 70
0
 10
14.3913102888
 20
7.1678708742
 10
14.410812014
 20
7.1514007609
 10
14.4308302426
 20
7.1337345242
 10
14.4513478807
 20
7.1149030937
  0
LWPOLYLINE
  5
6CC
100
AcDbEntity
  8
0
100
AcDbPolyline
 62
7
  6
CONTINUOUS
 90
4
 70
0
 10
14.3913102888
 20
7.2160895209
 10
14.410812014
 20
7.1996194076
 10
14.4308302426
 20
7.1819531708
 10
14.4513478807
 20
7.1631217404
  0
LINE
  5
6CD
100
AcDbEntity
  8
AXIS
100
AcDbLine
 62
7
  6
CONTINUOUS
 10
13.9838872223
 20
7.8046106043
 11
14.0180533348
 21
7.7646116017
  0
LINE
  5
6CE
100
AcDbEntity
  8
0
100
AcDbLine
 62
7
  6
CONTINUOUS
 10
14.9587712226
 20
7.3356867403
 11
14.9596025353
 21
7.3243750721
  0
LWPOLYLINE
  5
6CF
100
AcDbEntity
  8
0
100
AcDbPolyline
 62
7
  6
CONTINUOUS
 90
3
 70
0
 10
14.9596025407
 20
7.1314598416
 10
14.9593575442
 20
7.1400991098
 10
14.9573863039
 20
7.1509003419
  0
LWPOLYLINE
  5
6D0
100
AcDbEntity
  8
AXIS
100
AcDbPolyline
 62
7
  6
CONTINUOUS
 90
21
 70
0
 10
15.1200356116
 20
7.9350878356
 10
15.116322625
 20
7.896914957
 10
15.1052298076
 20
7.859220705
 10
15.0868966581
 20
7.8224805262
 10
15.0615537263
 20
7.7871564497
 10
15.0295197145
 20
7.7536926961
 10
14.9911974688
 20
7.7225100917
 10
14.9470689138
 20
7.6940007758
 10
14.8976889917
 20
7.6685232695
 10
14.8436786835
 20
7.6463979673
 10
14.7857172003
 20
7.6279031077
 10
14.7245334413
 20
7.6132712743
 10
14.6608968279
 20
7.6026864709
 10
14.5956076273
 20
7.5962818075
 10
14.5294868892
 20
7.5941378264
 10
14.4633661201
 20
7.5962814896
 10
14.3980768272
 20
7.6026858391
 10
14.3344400611
 20
7.6132703366
 10
14.2732560911
 20
7.6279018759
 10
14.2152943411
 20
7.6463964569
 10
14.1612837139
 20
7.6685214994
  0
LWPOLYLINE
  5
6D1
100
AcDbEntity
  8
0
100
AcDbPolyline
 62
7
  6
CONTINUOUS
 90
18
 70
0
 10
15.1200356116
 20
7.5814844266
 10
15.1147642981
 20
7.5331162049
 10
15.0987259144
 20
7.4850173986
 10
15.0718419796
 20
7.4383615889
 10
15.0342230845
 20
7.3940992608
 10
14.9866357659
 20
7.3534754262
 10
14.9301812226
 20
7.3174349239
 10
14.8662798507
 20
7.2867282612
 10
14.7963179782
 20
7.2618154481
 10
14.7215607675
 20
7.2429862349
 10
14.6434577535
 20
7.2304920564
 10
14.563385599
 20
7.224472911
 10
14.4827386114
 20
7.2249952372
 10
14.4029618951
 20
7.232043692
 10
14.3254117781
 20
7.2455284591
 10
14.2515499381
 20
7.2652567265
 10
14.1826854151
 20
7.290973388
 10
14.1200574526
 20
7.3223722826
  0
LWPOLYLINE
  5
6D2
100
AcDbEntity
  8
0
100
AcDbPolyline
 62
7
  6
CONTINUOUS
 90
12
 70
0
 10
14.4513478807
 20
7.0124223966
 10
14.5146417521
 20
7.0095754055
 10
14.5791640859
 20
7.012242748
 10
14.6427445398
 20
7.0205012833
 10
14.7032725978
 20
7.0340570965
 10
14.7592736423
 20
7.0524265319
 10
14.8104839585
 20
7.0754761151
 10
14.8553569927
 20
7.1025385084
 10
14.8931021242
 20
7.1331051698
 10
14.922925667
 20
7.1665394998
 10
14.9444205167
 20
7.202632879
 10
14.956722791
 20
7.240496359
  0
LWPOLYLINE
  5
6D3
100
AcDbEntity
  8
0
100
AcDbPolyline
 62
7
  6
CONTINUOUS
 90
12
 70
0
 10
14.4513478807
 20
7.0606410433
 10
14.5146529748
 20
7.0577940289
 10
14.5791781651
 20
7.060462593
 10
14.6427613076
 20
7.0687228828
 10
14.7032957018
 20
7.0822820863
 10
14.7592534523
 20
7.100637386
 10
14.8102585422
 20
7.1235772276
 10
14.8551377045
 20
7.1506043157
 10
14.8930714276
 20
7.1812947462
 10
14.9229251027
 20
7.2147573841
 10
14.9444199135
 20
7.2508502092
 10
14.9567229489
 20
7.2887158138
  0
LWPOLYLINE
  5
6D4
100
AcDbEntity
  8
0
100
AcDbPolyline
 62
7
  6
CONTINUOUS
 90
9
 70
0
 10
14.4513478807
 20
7.10885969
 10
14.5115327003
 20
7.1060256659
 10
14.5728721122
 20
7.1081717775
 10
14.6335549779
 20
7.1153836934
 10
14.6917025815
 20
7.127435484
 10
14.7459252017
 20
7.1439082126
 10
14.7957137936
 20
7.164538261
 10
14.8405618249
 20
7.1891660236
 10
14.8793835799
 20
7.2173276949
  0
LINE
  5
6D5
100
AcDbEntity
  8
0
100
AcDbLine
 62
9
  6
CONTINUOUS
 10
14.4187745165
 20
7.1155555186
 11
14.3913102888
 21
7.1196522276
  0
LINE
  5
6D6
100
AcDbEntity
  8
0
100
AcDbLine
 62
9
  6
CONTINUOUS
 10
14.4190311624
 20
7.0190600953
 11
14.3913102888
 21
7.0232149342
  0
LINE
  5
6D7
100
AcDbEntity
  8
0
100
AcDbLine
 62
9
  6
CONTINUOUS
 10
14.419034031
 20
7.067278312
 11
14.3913102888
 21
7.0714335809
  0
LWPOLYLINE
  5
6D8
100
AcDbEntity
  8
0
100
AcDbPolyline
 62
7
  6
CONTINUOUS
 90
10
 70
0
 10
14.3909968411
 20
7.0742925721
 10
14.3907508061
 20
7.0743328695
 10
14.390280708
 20
7.0743457251
 10
14.3899027432
 20
7.0742493105
 10
14.3896444761
 20
7.0739962082
 10
14.3896297777
 20
7.0735457851
 10
14.3898821763
 20
7.0729882881
 10
14.3902877497
 20
7.0724331879
 10
14.3907657241
 20
7.0719210781
 10
14.3913102888
 20
7.0714335809
  0
LWPOLYLINE
  5
6D9
100
AcDbEntity
  8
0
100
AcDbPolyline
 62
7
  6
CONTINUOUS
 90
10
 70
0
 10
14.3909970426
 20
7.0260738851
 10
14.3907508061
 20
7.0261142228
 10
14.390280708
 20
7.0261270784
 10
14.3899027432
 20
7.0260306638
 10
14.3896444761
 20
7.0257775615
 10
14.3896297777
 20
7.0253271384
 10
14.3898821763
 20
7.0247696414
 10
14.3902877497
 20
7.0242145412
 10
14.3907657241
 20
7.0237024314
 10
14.3913102888
 20
7.0232149342
  0
LWPOLYLINE
  5
6DA
100
AcDbEntity
  8
0
100
AcDbPolyline
 62
7
  6
CONTINUOUS
 90
10
 70
0
 10
14.3909970463
 20
7.1225111777
 10
14.3907508061
 20
7.1225515162
 10
14.390280708
 20
7.1225643718
 10
14.3899027432
 20
7.1224679571
 10
14.3896444761
 20
7.1222148549
 10
14.3896297777
 20
7.1217644318
 10
14.3898821763
 20
7.1212069347
 10
14.3902877497
 20
7.1206518346
 10
14.3907657241
 20
7.1201397248
 10
14.3913102888
 20
7.1196522276
  0
LWPOLYLINE
  5
6DB
100
AcDbEntity
  8
0
100
AcDbPolyline
 62
7
  6
CONTINUOUS
 90
3
 70
0
 10
14.1065237728
 20
7.0636388682
 10
14.1270429316
 20
7.059664701
 10
14.1470592913
 20
7.0551453206
  0
LWPOLYLINE
  5
6DC
100
AcDbEntity
  8
0
100
AcDbPolyline
 62
7
  6
CONTINUOUS
 90
4
 70
0
 10
14.4513478807
 20
7.0124223966
 10
14.4308895865
 20
7.0163838259
 10
14.4108701477
 20
7.0209019145
 10
14.3913102888
 20
7.0259988391
  0
LWPOLYLINE
  5
6DD
100
AcDbEntity
  8
0
100
AcDbPolyline
 62
7
  6
CONTINUOUS
 90
4
 70
0
 10
14.4513478807
 20
7.0606410433
 10
14.4308135553
 20
7.0646183855
 10
14.4107976532
 20
7.069138163
 10
14.3913102888
 20
7.0742174857
  0
LWPOLYLINE
  5
6DE
100
AcDbEntity
  8
0
100
AcDbPolyline
 62
7
  6
CONTINUOUS
 90
4
 70
0
 10
14.4513478807
 20
7.10885969
 10
14.4308258844
 20
7.1128344512
 10
14.4108095085
 20
7.1173539306
 10
14.3913102888
 20
7.1224361324
  0
LWPOLYLINE
  5
6DF
100
AcDbEntity
  8
0
100
AcDbPolyline
 62
7
  6
CONTINUOUS
 90
4
 70
0
 10
14.1065237728
 20
7.1118575149
 10
14.1270842091
 20
7.1078747056
 10
14.1471015141
 20
7.1033537123
 10
14.1665613646
 20
7.0982810724
  0
LWPOLYLINE
  5
6E0
100
AcDbEntity
  8
0
100
AcDbPolyline
 62
7
  6
CONTINUOUS
 90
4
 70
0
 10
14.1065237728
 20
7.1600761616
 10
14.1270917092
 20
7.1560917818
 10
14.1471098844
 20
7.1515703257
 10
14.1665613646
 20
7.1464997191
  0
LWPOLYLINE
  5
6E1
100
AcDbEntity
  8
0
100
AcDbPolyline
 62
7
  6
CONTINUOUS
 90
8
 70
0
 10
14.1665613646
 20
7.0500624257
 10
14.1671359077
 20
7.0499452199
 10
14.1676180453
 20
7.0499368881
 10
14.168003114
 20
7.0500485692
 10
14.168243127
 20
7.0503236521
 10
14.16822862
 20
7.0507819351
 10
14.1679844132
 20
7.0512998789
 10
14.1678714956
 20
7.0514741977
  0
LWPOLYLINE
  5
6E2
100
AcDbEntity
  8
0
100
AcDbPolyline
 62
7
  6
CONTINUOUS
 90
8
 70
0
 10
14.1665613646
 20
7.0982810724
 10
14.1671359077
 20
7.0981638666
 10
14.1676180453
 20
7.0981555348
 10
14.168003114
 20
7.0982672159
 10
14.168243127
 20
7.0985422988
 10
14.16822862
 20
7.0990005818
 10
14.1679844132
 20
7.0995185255
 10
14.1678713635
 20
7.0996930346
  0
LWPOLYLINE
  5
6E3
100
AcDbEntity
  8
0
100
AcDbPolyline
 62
7
  6
CONTINUOUS
 90
8
 70
0
 10
14.1665613646
 20
7.1464997191
 10
14.1670552685
 20
7.1463931581
 10
14.1674955932
 20
7.1463655339
 10
14.1678749779
 20
7.1464290671
 10
14.1681592455
 20
7.1466128833
 10
14.1682727183
 20
7.1469639767
 10
14.1681484801
 20
7.1474314375
 10
14.1678699509
 20
7.1479119173
  0
LINE
  5
6E4
100
AcDbEntity
  8
0
100
AcDbLine
 62
7
  6
CONTINUOUS
 10
14.3913102888
 20
7.0742174857
 11
14.3909968411
 21
7.0742925721
  0
LINE
  5
6E5
100
AcDbEntity
  8
0
100
AcDbLine
 62
7
  6
CONTINUOUS
 10
14.3913102888
 20
7.0259988391
 11
14.3909970426
 21
7.0260738851
  0
LINE
  5
6E6
100
AcDbEntity
  8
0
100
AcDbLine
 62
7
  6
CONTINUOUS
 10
14.3913102888
 20
7.1224361324
 11
14.3909970463
 21
7.1225111777
  0
LWPOLYLINE
  5
6E7
100
AcDbEntity
  8
0
100
AcDbPolyline
 62
9
  6
CONTINUOUS
 90
32
 70
0
 10
14.1119034242
 20
7.3403953593
 10
14.1503362059
 20
7.3200834191
 10
14.1895350753
 20
7.3026903172
 10
14.229442665
 20
7.2878189485
 10
14.2701668025
 20
7.2751637794
 10
14.3119515989
 20
7.2645083253
 10
14.3550755581
 20
7.2557426366
 10
14.3993620882
 20
7.2489139396
 10
14.444399898
 20
7.2440917002
 10
14.489917063
 20
7.2413005575
 10
14.5356753653
 20
7.2405531531
 10
14.5813964595
 20
7.2418542628
 10
14.6267985828
 20
7.2451953878
 10
14.6716095142
 20
7.2505555499
 10
14.7155614191
 20
7.2579018403
 10
14.7583910077
 20
7.2671894466
 10
14.7998436119
 20
7.2783624879
 10
14.8396735866
 20
7.291354476
 10
14.8776431681
 20
7.3060879334
 10
14.9135242906
 20
7.3224745626
 10
14.9471008785
 20
7.3404158229
 10
14.978170839
 20
7.3598037335
 10
15.0065483154
 20
7.3805223381
 10
15.0320633357
 20
7.4024477525
 10
15.0545621091
 20
7.4254480628
 10
15.0739091384
 20
7.4493847949
 10
15.089988028
 20
7.4741136892
 10
15.1027030759
 20
7.4994874647
 10
15.1119785821
 20
7.525356624
 10
15.1177577627
 20
7.551567278
 10
15.120004087
 20
7.5779615615
 10
15.1200356116
 20
7.5814844266
  0
LINE
  5
6E8
100
AcDbEntity
  8
0
100
AcDbLine
 62
7
  6
CONTINUOUS
 10
14.431541976
 20
7.2295185767
 11
14.4513478807
 21
7.211340387
  0
LWPOLYLINE
  5
6E9
100
AcDbEntity
  8
0
100
AcDbPolyline
 62
7
  6
CONTINUOUS
 90
3
 70
0
 10
14.9577526499
 20
7.1992938453
 10
14.9590396977
 20
7.1927707561
 10
14.9596025365
 20
7.1797141194
  0
LWPOLYLINE
  5
6EA
100
AcDbEntity
  8
0
100
AcDbPolyline
 62
7
  6
CONTINUOUS
 90
3
 70
0
 10
14.9573933734
 20
7.2473924705
 10
14.9593466277
 20
7.2367267271
 10
14.9596025358
 20
7.2279357349
  0
LWPOLYLINE
  5
6EB
100
AcDbEntity
  8
0
100
AcDbPolyline
 62
7
  6
CONTINUOUS
 90
3
 70
0
 10
14.9573935079
 20
7.2956119653
 10
14.9593464403
 20
7.2849486043
 10
14.9596025357
 20
7.2761547673
  0
LINE
  5
6EC
100
AcDbEntity
  8
AXIS
100
AcDbLine
 62
7
  6
CONTINUOUS
 10
15.1200356116
 20
7.9350878356
 11
15.1200356116
 21
7.5814844266
  0
LWPOLYLINE
  5
6ED
100
AcDbEntity
  8
AXIS_COSMETIC_THREADS
100
AcDbPolyline
 62
7
  6
CONTINUOUS
 90
7
 70
0
 10
14.497915888
 20
4.5849847128
 10
14.4960129161
 20
4.5794612862
 10
14.4905936311
 20
4.5747786924
 10
14.4824830699
 20
4.5716498725
 10
14.4729159921
 20
4.5705511609
 10
14.4633488983
 20
4.5716498265
 10
14.455238292
 20
4.5747786074
  0
LWPOLYLINE
  5
6EE
100
AcDbEntity
  8
AXIS_COSMETIC_THREADS
100
AcDbPolyline
 62
7
  6
CONTINUOUS
 90
7
 70
0
 10
14.554484666
 20
4.5523254524
 10
14.5525816941
 20
4.5468020258
 10
14.5471624091
 20
4.542119432
 10
14.539051848
 20
4.5389906121
 10
14.5294847701
 20
4.5378919005
 10
14.5199176763
 20
4.5389905661
 10
14.5118070701
 20
4.542119347
  0
LWPOLYLINE
  5
6EF
100
AcDbEntity
  8
AXIS_COSMETIC_THREADS
100
AcDbPolyline
 62
7
  6
CONTINUOUS
 90
7
 70
0
 10
14.611052973
 20
4.5849849847
 10
14.6091500011
 20
4.5794615581
 10
14.6037307161
 20
4.5747789643
 10
14.5956201549
 20
4.5716501444
 10
14.5860530771
 20
4.5705514328
 10
14.5764859833
 20
4.5716500984
 10
14.568375377
 20
4.5747788794
  0
LINE
  5
6F0
100
AcDbEntity
  8
0
100
AcDbLine
 62
7
  6
CONTINUOUS
 10
14.6424478746
 20
7.2133236983
 11
14.7026452636
 21
7.2267598153
  0
LWPOLYLINE
  5
6F1
100
AcDbEntity
  8
0
100
AcDbPolyline
 62
7
  6
CONTINUOUS
 90
4
 70
0
 10
14.641746075
 20
7.2192442107
 10
14.5788722167
 20
7.2111359601
 10
14.5147032549
 20
7.2084932704
 10
14.4513478807
 20
7.211340387
  0
LWPOLYLINE
  5
6F2
100
AcDbEntity
  8
0
100
AcDbPolyline
 62
7
  6
CONTINUOUS
 90
9
 70
0
 10
14.4513478807
 20
7.1570783366
 10
14.514679483
 20
7.1542312679
 10
14.5792314598
 20
7.1569044245
 10
14.6428393915
 20
7.165173932
 10
14.7033946824
 20
7.1787465647
 10
14.7593585378
 20
7.1971152486
 10
14.8108676366
 20
7.2203324775
 10
14.8564131188
 20
7.247933886
 10
14.8944429148
 20
7.2790392452
  0
LWPOLYLINE
  5
6F3
100
AcDbEntity
  8
0
100
AcDbPolyline
 62
7
  6
CONTINUOUS
 90
4
 70
0
 10
14.4513478807
 20
7.2052969833
 10
14.5146952668
 20
7.2024498827
 10
14.5791109273
 20
7.2051128131
 10
14.6424478746
 20
7.2133236983
  0
LINE
  5
6F4
100
AcDbEntity
  8
0
100
AcDbLine
 62
9
  6
CONTINUOUS
 10
14.4190335615
 20
7.1637156758
 11
14.3913102888
 21
7.1678708742
  0
LINE
  5
6F5
100
AcDbEntity
  8
0
100
AcDbLine
 62
9
  6
CONTINUOUS
 10
14.4190335615
 20
7.2119343225
 11
14.3913102888
 21
7.2160895209
  0
LWPOLYLINE
  5
6F6
100
AcDbEntity
  8
0
100
AcDbPolyline
 62
7
  6
CONTINUOUS
 90
10
 70
0
 10
14.3909968268
 20
7.1707298683
 10
14.3907508061
 20
7.1707701629
 10
14.390280708
 20
7.1707830185
 10
14.3899027432
 20
7.1706866038
 10
14.3896444761
 20
7.1704335016
 10
14.3896297777
 20
7.1699830785
 10
14.3898821763
 20
7.1694255814
 10
14.3902877497
 20
7.1688704812
 10
14.3907657241
 20
7.1683583715
 10
14.3913102888
 20
7.1678708742
  0
LWPOLYLINE
  5
6F7
100
AcDbEntity
  8
0
100
AcDbPolyline
 62
7
  6
CONTINUOUS
 90
10
 70
0
 10
14.3909970021
 20
7.2189484799
 10
14.3907508061
 20
7.2189888095
 10
14.390280708
 20
7.2190016651
 10
14.3899027432
 20
7.2189052505
 10
14.3896444761
 20
7.2186521482
 10
14.3896297777
 20
7.2182017251
 10
14.3898821763
 20
7.2176442281
 10
14.3902877497
 20
7.2170891279
 10
14.3907657241
 20
7.2165770182
 10
14.3913102888
 20
7.2160895209
  0
LWPOLYLINE
  5
6F8
100
AcDbEntity
  8
0
100
AcDbPolyline
 62
7
  6
CONTINUOUS
 90
4
 70
0
 10
14.1065237728
 20
7.2082948082
 10
14.1270303589
 20
7.2043232727
 10
14.1470477528
 20
7.1998040625
 10
14.1665613646
 20
7.1947183658
  0
LWPOLYLINE
  5
6F9
100
AcDbEntity
  8
0
100
AcDbPolyline
 62
7
  6
CONTINUOUS
 90
4
 70
0
 10
14.4513478807
 20
7.1570783366
 10
14.4308258844
 20
7.1610530979
 10
14.4108095085
 20
7.1655725773
 10
14.3913102888
 20
7.1706547791
  0
LWPOLYLINE
  5
6FA
100
AcDbEntity
  8
0
100
AcDbPolyline
 62
7
  6
CONTINUOUS
 90
4
 70
0
 10
14.1065237728
 20
7.2565134549
 10
14.1270429316
 20
7.2525392877
 10
14.1470592913
 20
7.2480199073
 10
14.1665613646
 20
7.2429370125
  0
LWPOLYLINE
  5
6FB
100
AcDbEntity
  8
0
100
AcDbPolyline
 62
7
  6
CONTINUOUS
 90
4
 70
0
 10
14.4513478807
 20
7.2052969833
 10
14.4308258844
 20
7.2092717446
 10
14.4108095085
 20
7.2137912239
 10
14.3913102888
 20
7.2188734258
  0
LWPOLYLINE
  5
6FC
100
AcDbEntity
  8
0
100
AcDbPolyline
 62
7
  6
CONTINUOUS
 90
4
 70
0
 10
14.1065237728
 20
7.3047321016
 10
14.1270429316
 20
7.3007579344
 10
14.1470592913
 20
7.296238554
 10
14.1665613646
 20
7.2911556591
  0
LWPOLYLINE
  5
6FD
100
AcDbEntity
  8
0
100
AcDbPolyline
 62
7
  6
CONTINUOUS
 90
8
 70
0
 10
14.1665613646
 20
7.1947183658
 10
14.1671359077
 20
7.1946011599
 10
14.1676180453
 20
7.1945928282
 10
14.168003114
 20
7.1947045092
 10
14.168243127
 20
7.1949795922
 10
14.16822862
 20
7.1954378752
 10
14.1679844132
 20
7.1959558189
 10
14.1678715676
 20
7.1961300339
  0
LWPOLYLINE
  5
6FE
100
AcDbEntity
  8
0
100
AcDbPolyline
 62
7
  6
CONTINUOUS
 90
8
 70
0
 10
14.1665613646
 20
7.2429370125
 10
14.1671359077
 20
7.2428198066
 10
14.1676180453
 20
7.2428114749
 10
14.168003114
 20
7.2429231559
 10
14.168243127
 20
7.2431982389
 10
14.16822862
 20
7.2436565219
 10
14.1679844132
 20
7.2441744656
 10
14.1678707018
 20
7.2443499272
  0
LWPOLYLINE
  5
6FF
100
AcDbEntity
  8
0
100
AcDbPolyline
 62
7
  6
CONTINUOUS
 90
8
 70
0
 10
14.1665613646
 20
7.2911556591
 10
14.1671359077
 20
7.2910384533
 10
14.1676180453
 20
7.2910301215
 10
14.168003114
 20
7.2911418026
 10
14.168243127
 20
7.2914168855
 10
14.16822862
 20
7.2918751685
 10
14.1679844132
 20
7.2923931123
 10
14.1678715525
 20
7.2925673491
  0
LINE
  5
700
100
AcDbEntity
  8
0
100
AcDbLine
 62
7
  6
CONTINUOUS
 10
14.3913102888
 20
7.1706547791
 11
14.3909968268
 21
7.1707298683
  0
LINE
  5
701
100
AcDbEntity
  8
0
100
AcDbLine
 62
7
  6
CONTINUOUS
 10
14.3913102888
 20
7.2188734258
 11
14.3909970021
 21
7.2189484799
  0
LINE
  5
702
100
AcDbEntity
  8
AXIS
100
AcDbLine
 62
7
  6
CONTINUOUS
 10
14.0180533348
 20
7.7646116017
 11
14.0609701751
 21
7.7275294946
  0
LINE
  5
703
100
AcDbEntity
  8
AXIS
100
AcDbLine
 62
7
  6
CONTINUOUS
 10
14.1699816002
 20
7.6645931428
 11
14.1119034242
 21
7.6939987683
  0
LINE
  5
704
100
AcDbEntity
  8
AXIS
100
AcDbLine
 62
7
  6
CONTINUOUS
 10
14.1612837139
 20
7.6685214994
 11
14.1119034242
 21
7.6939987683
  0
LINE
  5
705
100
AcDbEntity
  8
AXIS
100
AcDbLine
 62
7
  6
CONTINUOUS
 10
14.0609701751
 20
7.7275294946
 11
14.1119034242
 21
7.6939987683
  0
LWPOLYLINE
  5
706
100
AcDbEntity
  8
AXIS_COSMETIC_THREADS
100
AcDbPolyline
 62
7
  6
CONTINUOUS
 90
7
 70
0
 10
14.6118627135
 20
4.7823755245
 10
14.6227477757
 20
4.7896281741
 10
14.6317342652
 20
4.797701366
 10
14.6386392429
 20
4.8064307535
 10
14.6433221435
 20
4.8156386313
 10
14.6456876364
 20
4.8251375536
 10
14.645983297
 20
4.8299355719
  0
LINE
  5
707
100
AcDbEntity
  8
AXIS_COSMETIC_THREADS
100
AcDbLine
 62
7
  6
CONTINUOUS
 10
14.5993006669
 20
4.7760910603
 11
14.6118627135
 21
4.7823755245
  0
LWPOLYLINE
  5
708
100
AcDbEntity
  8
AXIS
100
AcDbPolyline
 62
7
  6
CONTINUOUS
 90
9
 70
0
 10
14.8247550111
 20
8.4465230531
 10
14.8849994504
 20
8.4066382232
 10
14.9391732569
 20
8.3604180167
 10
14.989422974
 20
8.3055027835
 10
15.0341143674
 20
8.2418439671
 10
15.0707392748
 20
8.1712951407
 10
15.0977520172
 20
8.0957821022
 10
15.1143871344
 20
8.0165711126
 10
15.1200356116
 20
7.9350878356
  0
CIRCLE
  5
709
100
AcDbEntity
  8
0
100
AcDbCircle
 62
7
  6
CONTINUOUS
 10
10.5342808475
 20
1.243294839
 40
0.252091
  0
CIRCLE
  5
70A
100
AcDbEntity
  8
0
100
AcDbCircle
 62
7
  6
CONTINUOUS
 10
10.5342808475
 20
1.243294839
 40
0.182698
  0
ARC
  5
70B
100
AcDbEntity
  8
AXIS
100
AcDbCircle
 62
7
  6
CONTINUOUS
 10
6.3215300823
 20
5.3175203402
 40
0.5905511811
100
AcDbArc
 50
90.0
 51
270.0
  0
ARC
  5
70C
100
AcDbEntity
  8
0
100
AcDbCircle
 62
7
  6
CONTINUOUS
 10
6.7546009484
 20
5.8687014426
 40
0.0393700787
100
AcDbArc
 50
0.0
 51
90.0
  0
ARC
  5
70D
100
AcDbEntity
  8
0
100
AcDbCircle
 62
7
  6
CONTINUOUS
 10
6.7546009484
 20
4.7663392379
 40
0.0393700787
100
AcDbArc
 50
270.0
 51
360.0
  0
ARC
  5
70E
100
AcDbEntity
  8
0
100
AcDbCircle
 62
7
  6
CONTINUOUS
 10
7.3648371689
 20
5.6521660095
 40
0.0196850394
100
AcDbArc
 50
0.0
 51
90.0
  0
ARC
  5
70F
100
AcDbEntity
  8
0
100
AcDbCircle
 62
7
  6
CONTINUOUS
 10
7.3648371689
 20
4.9828746709
 40
0.0196850394
100
AcDbArc
 50
270.0
 51
360.0
  0
ARC
  5
710
100
AcDbEntity
  8
0
100
AcDbCircle
 62
7
  6
CONTINUOUS
 10
6.8136560665
 20
4.9435045922
 40
0.0196850394
100
AcDbArc
 50
90.0
 51
179.9999999703
  0
ARC
  5
711
100
AcDbEntity
  8
0
100
AcDbCircle
 62
7
  6
CONTINUOUS
 10
6.8136560665
 20
5.6915360883
 40
0.0196850394
100
AcDbArc
 50
180.0000000323
 51
270.0
  0
ARC
  5
712
100
AcDbEntity
  8
AXIS
100
AcDbCircle
 62
7
  6
CONTINUOUS
 10
6.3215300823
 20
7.5010295118
 40
0.5905511811
100
AcDbArc
 50
90.0
 51
270.0
  0
ARC
  5
713
100
AcDbEntity
  8
0
100
AcDbCircle
 62
7
  6
CONTINUOUS
 10
6.7546009484
 20
6.9498484095
 40
0.0393700787
100
AcDbArc
 50
270.0
 51
360.0
  0
ARC
  5
714
100
AcDbEntity
  8
0
100
AcDbCircle
 62
7
  6
CONTINUOUS
 10
6.7546009484
 20
8.0522106142
 40
0.0393700787
100
AcDbArc
 50
0.0
 51
90.0
  0
ARC
  5
715
100
AcDbEntity
  8
0
100
AcDbCircle
 62
7
  6
CONTINUOUS
 10
7.3648371689
 20
7.8553602205
 40
0.0196850394
100
AcDbArc
 50
0.0
 51
90.0
  0
ARC
  5
716
100
AcDbEntity
  8
0
100
AcDbCircle
 62
7
  6
CONTINUOUS
 10
7.3648371689
 20
7.1466988032
 40
0.0196850394
100
AcDbArc
 50
270.0
 51
360.0
  0
ARC
  5
717
100
AcDbEntity
  8
0
100
AcDbCircle
 62
7
  6
CONTINUOUS
 10
6.8136560665
 20
7.0512263622
 40
0.0196850394
100
AcDbArc
 50
90.0
 51
180.0
  0
ARC
  5
718
100
AcDbEntity
  8
0
100
AcDbCircle
 62
7
  6
CONTINUOUS
 10
6.8136560665
 20
7.9508326614
 40
0.0196850394
100
AcDbArc
 50
180.0
 51
270.0
  0
CIRCLE
  5
719
100
AcDbEntity
  8
AXIS
100
AcDbCircle
 62
7
  6
CONTINUOUS
 10
3.0646693417
 20
5.3175203402
 40
0.5905511811
  0
ENDSEC
  0
SECTION
  2
OBJECTS
  0
DICTIONARY
  5
C
100
AcDbDictionary
280
0
281
1
  3
ACAD_GROUP
350
D
  3
ACAD_MLINESTYLE
350
17
  3
ACAD_LAYOUT
350
1A
  3
ACAD_PLOTSETTINGS
350
19
  3
ACAD_PLOTSTYLENAME
350
E
  0
DICTIONARY
  5
D
102
{ACAD_REACTORS
330
C
102
}
100
AcDbDictionary
280
0
281
1
  0
ACDBDICTIONARYWDFLT
  5
E
102
{ACAD_REACTORS
330
C
102
}
100
AcDbDictionary
281
1
  3
Normal
350
F
100
AcDbDictionaryWithDefault
340
F
  0
DICTIONARY
  5
17
102
{ACAD_REACTORS
330
C
102
}
100
AcDbDictionary
280
0
281
1
  3
Standard
350
18
  0
DICTIONARY
  5
19
102
{ACAD_REACTORS
330
C
102
}
100
AcDbDictionary
281
1
  0
DICTIONARY
  5
1A
102
{ACAD_REACTORS
330
C
102
}
100
AcDbDictionary
281
1
  3
Model
350
71A
  3
Layout1
350
71B
  0
ACDBPLACEHOLDER
  5
F
102
{ACAD_REACTORS
330
E
102
}
  0
MLINESTYLE
  5
18
102
{ACAD_REACTORS
330
17
102
}
100
AcDbMlineStyle
  2
STANDARD
 70
0
  3

 62
256
 51
90.0
 52
90.0
 71
2
 49
0.5
 62
256
  6
BYLAYER
 49
-0.5
 62
256
  6
BYLAYER
  0
LAYOUT
  5
71A
102
{ACAD_REACTORS
330
1A
102
}
100
AcDbPlotSettings
  1

  2
none_device
  4
ANSI_B_(17.00_x_11.00_Inches)
  6

 40
0.0
 41
0.0
 42
0.0
 43
0.0
 44
431.8
 45
279.4
 46
0.0
 47
0.0
 48
0.0
 49
0.0
140
0.0
141
0.0
142
1.0
143
1.0
 70
1024
 72
0
 73
0
 74
0
  7

 75
0
147
1.0
148
0.0
149
0.0
100
AcDbLayout
  1
Model
 70
0
 71
0
 10
0.0
 20
0.0
 11
17.0
 21
11.0
 12
0.0
 22
0.0
 32
0.0
 14
0.0
 24
0.0
 34
0.0
 15
0.0
 25
0.0
 35
0.0
146
0.0
 13
0.0
 23
0.0
 33
0.0
 16
1.0
 26
0.0
 36
0.0
 17
0.0
 27
1.0
 37
0.0
 76
0
330
22A
345
0
346
0
  0
LAYOUT
  5
71B
102
{ACAD_REACTORS
330
1A
102
}
100
AcDbPlotSettings
  1

  2
none_device
  4
ANSI_B_(17.00_x_11.00_Inches)
  6

 40
0.0
 41
0.0
 42
0.0
 43
0.0
 44
431.8
 45
279.4
 46
0.0
 47
0.0
 48
0.0
 49
0.0
140
0.0
141
0.0
142
1.0
143
1.0
 70
0
 72
0
 73
0
 74
0
  7

 75
0
147
1.0
148
0.0
149
0.0
100
AcDbLayout
  1
Layout1
 70
0
 71
1
 10
0.0
 20
0.0
 11
17.0
 21
11.0
 12
0.0
 22
0.0
 32
0.0
 14
0.0
 24
0.0
 34
0.0
 15
0.0
 25
0.0
 35
0.0
146
0.0
 13
0.0
 23
0.0
 33
0.0
 16
1.0
 26
0.0
 36
0.0
 17
0.0
 27
1.0
 37
0.0
 76
0
330
22B
345
0
346
0
  0
ENDSEC
  0
EOF
