999
DXF file: 152789_1.dxf
999
Pro/ENGINEER 2009141 by Parametric Technology Corporation
  0
SECTION
  2
HEADER
  9
$ACADVER
  1
AC1015
  9
$DWGCODEPAGE
  3
ANSI_1252
  9
$EXTMAX
 10
17.0
 20
11.0
 30
0.0
  9
$EXTMIN
 10
0.0
 20
0.0
 30
0.0
  9
$LIMMIN
 10
0.0
 20
0.0
  9
$LIMMAX
 10
17.0
 20
11.0
  9
$VIEWCTR
 10
8.5
 20
5.5
  9
$VIEWSIZE
 40
11.0
  9
$CLAYER
  8
0
  9
$LTSCALE
 40
0.935
  9
$CELTYPE
  6
BYLAYER
  9
$DIMSCALE
 40
1.0
  9
$DIMASZ
 40
0.1875
  9
$DIMEXO
 40
0.10625
  9
$DIMDLI
 40
0.646
  9
$DIMEXE
 40
0.306
  9
$DIMCEN
 40
0.153
  9
$DIMLFAC
 40
1.0
  9
$DIMBLK
  1
_FILLED
  9
$DIMTXT
 40
0.1
  9
$DIMTOL
 70
1
  9
$DIMLIM
 70
0
  9
$DIMTFAC
 40
1.0
  9
$DIMTP
 40
0.005
  9
$DIMTM
 40
0.005
  9
$PDMODE
 70
3
  9
$PDSIZE
 40
0.3125
  9
$HANDSEED
  5
7B5
  9
$TILEMODE
 70
1
  9
$MEASUREMENT
 70
0
  9
$INSUNITS
 70
1
  0
ENDSEC
  0
SECTION
  2
CLASSES
  0
CLASS
  1
ACDBDICTIONARYWDFLT
  2
AcDbDictionaryWithDefault
  3
AutoCAD 2000
 90
0
280
0
281
0
  0
CLASS
  1
ACDBPLACEHOLDER
  2
AcDbPlaceHolder
  3
AutoCAD 2000
 90
0
280
0
281
0
  0
CLASS
  1
LAYOUT
  2
AcDbLayout
  3
AutoCAD 2000
 90
0
280
0
281
0
  0
ENDSEC
  0
SECTION
  2
TABLES
  0
TABLE
  2
VPORT
  5
8
100
AcDbSymbolTable
 70
2
  0
VPORT
  5
1F4
100
AcDbSymbolTableRecord
100
AcDbViewportTableRecord
  2
*ACTIVE
 70
0
 10
0.0
 20
0.0
 11
1.0
 21
1.0
 12
8.5
 22
5.5
 13
0.0
 23
0.0
 14
1.0
 24
1.0
 15
0.0
 25
0.0
 16
0.0
 26
0.0
 36
1.0
 17
0.0
 27
0.0
 37
0.0
 40
11.0
 41
1.5454545455
 42
50.0
 43
0.0
 44
0.0
 50
0.0
 51
0.0
 71
0
 72
100
 73
1
 74
1
 75
0
 76
0
 77
0
 78
0
  0
ENDTAB
  0
TABLE
  2
LTYPE
  5
5
100
AcDbSymbolTable
 70
6
  0
LTYPE
  5
14
100
AcDbSymbolTableRecord
100
AcDbLinetypeTableRecord
  2
BYBLOCK
 70
0
  3

 72
65
 73
0
 40
0.0
  0
LTYPE
  5
15
100
AcDbSymbolTableRecord
100
AcDbLinetypeTableRecord
  2
BYLAYER
 70
0
  3

 72
65
 73
0
 40
0.0
  0
LTYPE
  5
16
100
AcDbSymbolTableRecord
100
AcDbLinetypeTableRecord
  2
CONTINUOUS
 70
64
  3
Solid line
 72
65
 73
0
 40
0.0
  0
LTYPE
  5
1F5
100
AcDbSymbolTableRecord
100
AcDbLinetypeTableRecord
  2
CENTER
 70
64
  3
____ _ ____ _ ____ _ ____ _ ____ _ ____ _ ____
 72
65
 73
4
 40
0.6
 49
0.375
 74
0
 49
-0.075
 74
0
 49
0.075
 74
0
 49
-0.075
 74
0
  0
LTYPE
  5
1F6
100
AcDbSymbolTableRecord
100
AcDbLinetypeTableRecord
  2
HIDDEN
 70
64
  3
- - - - - - - - - - - - - - - - - - - -
 72
65
 73
2
 40
0.2
 49
0.1
 74
0
 49
-0.1
 74
0
  0
LTYPE
  5
1F7
100
AcDbSymbolTableRecord
100
AcDbLinetypeTableRecord
  2
PHANTOM
 70
64
  3
_____ _ _ _____ _ _ _____ _ _ _____
 72
65
 73
6
 40
0.8
 49
0.45
 74
0
 49
-0.05
 74
0
 49
0.1
 74
0
 49
-0.05
 74
0
 49
0.1
 74
0
 49
-0.05
 74
0
  0
LTYPE
  5
1F8
100
AcDbSymbolTableRecord
100
AcDbLinetypeTableRecord
  2
DOT
 70
64
  3
. . . . . . . . . . . . . . . . . . . .
 72
65
 73
2
 40
0.2
 49
0.1
 74
0
 49
-0.1
 74
0
  0
LTYPE
  5
1F9
100
AcDbSymbolTableRecord
100
AcDbLinetypeTableRecord
  2
DASHED
 70
64
  3
- - - - - - - - - - - - - - - - - - - -
 72
65
 73
2
 40
0.2
 49
0.1
 74
0
 49
-0.1
 74
0
  0
ENDTAB
  0
TABLE
  2
LAYER
  5
2
100
AcDbSymbolTable
 70
36
  0
LAYER
  5
10
100
AcDbSymbolTableRecord
100
AcDbLayerTableRecord
  2
0
 70
0
 62
7
  6
CONTINUOUS
370
-3
390
F
  0
LAYER
  5
1FA
100
AcDbSymbolTableRecord
100
AcDbLayerTableRecord
  2
DEFAULT_1
 70
0
 62
7
  6
CENTER
370
-3
390
F
  0
LAYER
  5
1FB
100
AcDbSymbolTableRecord
100
AcDbLayerTableRecord
  2
DEFAULT_2
 70
0
 62
8
  6
HIDDEN
370
-3
390
F
  0
LAYER
  5
1FC
100
AcDbSymbolTableRecord
100
AcDbLayerTableRecord
  2
DEFAULT_3
 70
0
 62
7
  6
PHANTOM
370
-3
390
F
  0
LAYER
  5
1FD
100
AcDbSymbolTableRecord
100
AcDbLayerTableRecord
  2
01_ALL_DTM_PLN
 70
0
 62
7
  6
CONTINUOUS
370
-3
390
F
  0
LAYER
  5
1FE
100
AcDbSymbolTableRecord
100
AcDbLayerTableRecord
  2
01__ASM_ALL_DTM_PLN
 70
0
 62
7
  6
CONTINUOUS
370
-3
390
F
  0
LAYER
  5
1FF
100
AcDbSymbolTableRecord
100
AcDbLayerTableRecord
  2
01__ASM_DEF_DTM_PLN
 70
0
 62
7
  6
CONTINUOUS
370
-3
390
F
  0
LAYER
  5
200
100
AcDbSymbolTableRecord
100
AcDbLayerTableRecord
  2
01___PRT_ALL_DTM_PLN
 70
0
 62
7
  6
CONTINUOUS
370
-3
390
F
  0
LAYER
  5
201
100
AcDbSymbolTableRecord
100
AcDbLayerTableRecord
  2
01___PRT_DEF_DTM_PLN
 70
0
 62
7
  6
CONTINUOUS
370
-3
390
F
  0
LAYER
  5
202
100
AcDbSymbolTableRecord
100
AcDbLayerTableRecord
  2
02_ALL_AXES
 70
0
 62
7
  6
CONTINUOUS
370
-3
390
F
  0
LAYER
  5
203
100
AcDbSymbolTableRecord
100
AcDbLayerTableRecord
  2
02__ASM_ALL_AXES
 70
0
 62
7
  6
CONTINUOUS
370
-3
390
F
  0
LAYER
  5
204
100
AcDbSymbolTableRecord
100
AcDbLayerTableRecord
  2
02___PRT_ALL_AXES
 70
0
 62
7
  6
CONTINUOUS
370
-3
390
F
  0
LAYER
  5
205
100
AcDbSymbolTableRecord
100
AcDbLayerTableRecord
  2
03_ALL_CURVES
 70
0
 62
7
  6
CONTINUOUS
370
-3
390
F
  0
LAYER
  5
206
100
AcDbSymbolTableRecord
100
AcDbLayerTableRecord
  2
03__ASM_ALL_CURVES
 70
0
 62
7
  6
CONTINUOUS
370
-3
390
F
  0
LAYER
  5
207
100
AcDbSymbolTableRecord
100
AcDbLayerTableRecord
  2
03___PRT_ALL_CURVES
 70
0
 62
7
  6
CONTINUOUS
370
-3
390
F
  0
LAYER
  5
208
100
AcDbSymbolTableRecord
100
AcDbLayerTableRecord
  2
04_ALL_DTM_PNT
 70
0
 62
7
  6
CONTINUOUS
370
-3
390
F
  0
LAYER
  5
209
100
AcDbSymbolTableRecord
100
AcDbLayerTableRecord
  2
04__ASM_ALL_DTM_PNT
 70
0
 62
7
  6
CONTINUOUS
370
-3
390
F
  0
LAYER
  5
20A
100
AcDbSymbolTableRecord
100
AcDbLayerTableRecord
  2
04___PRT_ALL_DTM_PNT
 70
0
 62
7
  6
CONTINUOUS
370
-3
390
F
  0
LAYER
  5
20B
100
AcDbSymbolTableRecord
100
AcDbLayerTableRecord
  2
05_ALL_DTM_CSYS
 70
0
 62
7
  6
CONTINUOUS
370
-3
390
F
  0
LAYER
  5
20C
100
AcDbSymbolTableRecord
100
AcDbLayerTableRecord
  2
05__ASM_ALL_DTM_CSYS
 70
0
 62
7
  6
CONTINUOUS
370
-3
390
F
  0
LAYER
  5
20D
100
AcDbSymbolTableRecord
100
AcDbLayerTableRecord
  2
05__ASM_DEF_DTM_CSYS
 70
0
 62
7
  6
CONTINUOUS
370
-3
390
F
  0
LAYER
  5
20E
100
AcDbSymbolTableRecord
100
AcDbLayerTableRecord
  2
05___PRT_ALL_DTM_CSYS
 70
0
 62
7
  6
CONTINUOUS
370
-3
390
F
  0
LAYER
  5
20F
100
AcDbSymbolTableRecord
100
AcDbLayerTableRecord
  2
05___PRT_DEF_DTM_CSYS
 70
0
 62
7
  6
CONTINUOUS
370
-3
390
F
  0
LAYER
  5
210
100
AcDbSymbolTableRecord
100
AcDbLayerTableRecord
  2
06_ALL_SURFS
 70
0
 62
7
  6
CONTINUOUS
370
-3
390
F
  0
LAYER
  5
211
100
AcDbSymbolTableRecord
100
AcDbLayerTableRecord
  2
06__ASM_ALL_SURFS
 70
0
 62
7
  6
CONTINUOUS
370
-3
390
F
  0
LAYER
  5
212
100
AcDbSymbolTableRecord
100
AcDbLayerTableRecord
  2
06___PRT_ALL_SURFS
 70
0
 62
7
  6
CONTINUOUS
370
-3
390
F
  0
LAYER
  5
213
100
AcDbSymbolTableRecord
100
AcDbLayerTableRecord
  2
07__ASM_ALL_SKELETONS
 70
0
 62
7
  6
CONTINUOUS
370
-3
390
F
  0
LAYER
  5
214
100
AcDbSymbolTableRecord
100
AcDbLayerTableRecord
  2
1
 70
0
 62
7
  6
CONTINUOUS
370
-3
390
F
  0
LAYER
  5
215
100
AcDbSymbolTableRecord
100
AcDbLayerTableRecord
  2
10
 70
0
 62
7
  6
CONTINUOUS
370
-3
390
F
  0
LAYER
  5
216
100
AcDbSymbolTableRecord
100
AcDbLayerTableRecord
  2
11
 70
0
 62
7
  6
CONTINUOUS
370
-3
390
F
  0
LAYER
  5
217
100
AcDbSymbolTableRecord
100
AcDbLayerTableRecord
  2
12
 70
0
 62
7
  6
CONTINUOUS
370
-3
390
F
  0
LAYER
  5
218
100
AcDbSymbolTableRecord
100
AcDbLayerTableRecord
  2
13
 70
0
 62
7
  6
CONTINUOUS
370
-3
390
F
  0
LAYER
  5
219
100
AcDbSymbolTableRecord
100
AcDbLayerTableRecord
  2
14
 70
0
 62
7
  6
CONTINUOUS
370
-3
390
F
  0
LAYER
  5
21A
100
AcDbSymbolTableRecord
100
AcDbLayerTableRecord
  2
15
 70
0
 62
7
  6
CONTINUOUS
370
-3
390
F
  0
LAYER
  5
21B
100
AcDbSymbolTableRecord
100
AcDbLayerTableRecord
  2
16
 70
0
 62
7
  6
CONTINUOUS
370
-3
390
F
  0
LAYER
  5
21C
100
AcDbSymbolTableRecord
100
AcDbLayerTableRecord
  2
17
 70
0
 62
7
  6
CONTINUOUS
370
-3
390
F
  0
LAYER
  5
21D
100
AcDbSymbolTableRecord
100
AcDbLayerTableRecord
  2
18
 70
0
 62
7
  6
CONTINUOUS
370
-3
390
F
  0
LAYER
  5
21E
100
AcDbSymbolTableRecord
100
AcDbLayerTableRecord
  2
19
 70
0
 62
7
  6
CONTINUOUS
370
-3
390
F
  0
LAYER
  5
21F
100
AcDbSymbolTableRecord
100
AcDbLayerTableRecord
  2
2
 70
0
 62
7
  6
CONTINUOUS
370
-3
390
F
  0
LAYER
  5
220
100
AcDbSymbolTableRecord
100
AcDbLayerTableRecord
  2
20
 70
0
 62
7
  6
CONTINUOUS
370
-3
390
F
  0
LAYER
  5
221
100
AcDbSymbolTableRecord
100
AcDbLayerTableRecord
  2
21
 70
0
 62
7
  6
CONTINUOUS
370
-3
390
F
  0
LAYER
  5
222
100
AcDbSymbolTableRecord
100
AcDbLayerTableRecord
  2
22
 70
0
 62
7
  6
CONTINUOUS
370
-3
390
F
  0
LAYER
  5
223
100
AcDbSymbolTableRecord
100
AcDbLayerTableRecord
  2
23
 70
0
 62
7
  6
CONTINUOUS
370
-3
390
F
  0
LAYER
  5
224
100
AcDbSymbolTableRecord
100
AcDbLayerTableRecord
  2
24
 70
0
 62
7
  6
CONTINUOUS
370
-3
390
F
  0
LAYER
  5
225
100
AcDbSymbolTableRecord
100
AcDbLayerTableRecord
  2
25
 70
0
 62
7
  6
CONTINUOUS
370
-3
390
F
  0
LAYER
  5
226
100
AcDbSymbolTableRecord
100
AcDbLayerTableRecord
  2
26
 70
0
 62
7
  6
CONTINUOUS
370
-3
390
F
  0
LAYER
  5
227
100
AcDbSymbolTableRecord
100
AcDbLayerTableRecord
  2
27
 70
0
 62
7
  6
CONTINUOUS
370
-3
390
F
  0
LAYER
  5
228
100
AcDbSymbolTableRecord
100
AcDbLayerTableRecord
  2
28
 70
0
 62
7
  6
CONTINUOUS
370
-3
390
F
  0
LAYER
  5
229
100
AcDbSymbolTableRecord
100
AcDbLayerTableRecord
  2
29
 70
0
 62
7
  6
CONTINUOUS
370
-3
390
F
  0
LAYER
  5
22A
100
AcDbSymbolTableRecord
100
AcDbLayerTableRecord
  2
3
 70
0
 62
7
  6
CONTINUOUS
370
-3
390
F
  0
LAYER
  5
22B
100
AcDbSymbolTableRecord
100
AcDbLayerTableRecord
  2
30
 70
0
 62
7
  6
CONTINUOUS
370
-3
390
F
  0
LAYER
  5
22C
100
AcDbSymbolTableRecord
100
AcDbLayerTableRecord
  2
31
 70
0
 62
7
  6
CONTINUOUS
370
-3
390
F
  0
LAYER
  5
22D
100
AcDbSymbolTableRecord
100
AcDbLayerTableRecord
  2
32
 70
0
 62
7
  6
CONTINUOUS
370
-3
390
F
  0
LAYER
  5
22E
100
AcDbSymbolTableRecord
100
AcDbLayerTableRecord
  2
4
 70
0
 62
7
  6
CONTINUOUS
370
-3
390
F
  0
LAYER
  5
22F
100
AcDbSymbolTableRecord
100
AcDbLayerTableRecord
  2
5
 70
0
 62
7
  6
CONTINUOUS
370
-3
390
F
  0
LAYER
  5
230
100
AcDbSymbolTableRecord
100
AcDbLayerTableRecord
  2
6
 70
0
 62
7
  6
CONTINUOUS
370
-3
390
F
  0
LAYER
  5
231
100
AcDbSymbolTableRecord
100
AcDbLayerTableRecord
  2
7
 70
0
 62
7
  6
CONTINUOUS
370
-3
390
F
  0
LAYER
  5
232
100
AcDbSymbolTableRecord
100
AcDbLayerTableRecord
  2
8
 70
0
 62
7
  6
CONTINUOUS
370
-3
390
F
  0
LAYER
  5
233
100
AcDbSymbolTableRecord
100
AcDbLayerTableRecord
  2
9
 70
0
 62
7
  6
CONTINUOUS
370
-3
390
F
  0
LAYER
  5
234
100
AcDbSymbolTableRecord
100
AcDbLayerTableRecord
  2
AXIS
 70
0
 62
7
  6
CONTINUOUS
370
-3
390
F
  0
LAYER
  5
235
100
AcDbSymbolTableRecord
100
AcDbLayerTableRecord
  2
AXIS_COSMETIC_THREADS
 70
0
 62
7
  6
CONTINUOUS
370
-3
390
F
  0
LAYER
  5
236
100
AcDbSymbolTableRecord
100
AcDbLayerTableRecord
  2
COSMETIC_THREADS
 70
0
 62
7
  6
CONTINUOUS
370
-3
390
F
  0
LAYER
  5
237
100
AcDbSymbolTableRecord
100
AcDbLayerTableRecord
  2
DATUMS
 70
0
 62
7
  6
CONTINUOUS
370
-3
390
F
  0
LAYER
  5
238
100
AcDbSymbolTableRecord
100
AcDbLayerTableRecord
  2
DATUM_CURVES
 70
0
 62
7
  6
CONTINUOUS
370
-3
390
F
  0
LAYER
  5
239
100
AcDbSymbolTableRecord
100
AcDbLayerTableRecord
  2
DATUM_PLANES
 70
0
 62
7
  6
CONTINUOUS
370
-3
390
F
  0
LAYER
  5
23A
100
AcDbSymbolTableRecord
100
AcDbLayerTableRecord
  2
NOTES
 70
0
 62
7
  6
CONTINUOUS
370
-3
390
F
  0
LAYER
  5
23B
100
AcDbSymbolTableRecord
100
AcDbLayerTableRecord
  2
QUILTS
 70
0
 62
7
  6
CONTINUOUS
370
-3
390
F
  0
LAYER
  5
23C
100
AcDbSymbolTableRecord
100
AcDbLayerTableRecord
  2
SCHEME_DIMS
 70
0
 62
7
  6
CONTINUOUS
370
-3
390
F
  0
LAYER
  5
23D
100
AcDbSymbolTableRecord
100
AcDbLayerTableRecord
  2
SYMBOLS
 70
0
 62
7
  6
CONTINUOUS
370
-3
390
F
  0
LAYER
  5
23E
100
AcDbSymbolTableRecord
100
AcDbLayerTableRecord
  2
WHITE
 70
0
 62
7
  6
CONTINUOUS
370
-3
390
F
  0
LAYER
  5
23F
100
AcDbSymbolTableRecord
100
AcDbLayerTableRecord
  2
XSEC_DATUMS
 70
0
 62
7
  6
CONTINUOUS
370
-3
390
F
  0
ENDTAB
  0
TABLE
  2
STYLE
  5
3
100
AcDbSymbolTable
 70
1
  0
STYLE
  5
11
100
AcDbSymbolTableRecord
100
AcDbTextStyleTableRecord
  2
STANDARD
 70
0
 40
0.0
 41
1.0
 50
0.0
 71
0
 42
0.2
  3
txt
  4

  0
STYLE
  5
240
100
AcDbSymbolTableRecord
100
AcDbTextStyleTableRecord
  2
TEXTSTYLE_1
 70
0
 40
0.0
 41
0.8
 50
0.0
 71
0
 42
0.2
  3
gdt
  4

  0
STYLE
  5
241
100
AcDbSymbolTableRecord
100
AcDbTextStyleTableRecord
  2
TEXTSTYLE_2
 70
0
 40
0.0
 41
0.8
 50
0.0
 71
0
 42
0.2
  3
txt
  4

  0
STYLE
  5
242
100
AcDbSymbolTableRecord
100
AcDbTextStyleTableRecord
  2
TEXTSTYLE_3
 70
0
 40
0.0
 41
0.85
 50
0.0
 71
0
 42
0.2
  3
txt
  4

  0
STYLE
  5
243
100
AcDbSymbolTableRecord
100
AcDbTextStyleTableRecord
  2
TEXTSTYLE_4
 70
0
 40
0.0
 41
0.92
 50
0.0
 71
0
 42
0.2
  3
txt
  4

  0
STYLE
  5
244
100
AcDbSymbolTableRecord
100
AcDbTextStyleTableRecord
  2
TEXTSTYLE_5
 70
0
 40
0.0
 41
1.0
 50
0.0
 71
0
 42
0.2
  3
gdt
  4

  0
ENDTAB
  0
TABLE
  2
VIEW
  5
6
100
AcDbSymbolTable
 70
0
  0
ENDTAB
  0
TABLE
  2
UCS
  5
7
100
AcDbSymbolTable
 70
0
  0
ENDTAB
  0
TABLE
  2
APPID
  5
9
100
AcDbSymbolTable
 70
1
  0
APPID
  5
245
100
AcDbSymbolTableRecord
100
AcDbRegAppTableRecord
  2
ACAD
 70
0
  0
ENDTAB
  0
TABLE
  2
BLOCK_RECORD
  5
1
100
AcDbSymbolTable
 70
0
  0
BLOCK_RECORD
  5
246
100
AcDbSymbolTableRecord
100
AcDbBlockTableRecord
  2
*Model_Space
  0
BLOCK_RECORD
  5
247
100
AcDbSymbolTableRecord
100
AcDbBlockTableRecord
  2
*Paper_Space
  0
BLOCK_RECORD
  5
248
100
AcDbSymbolTableRecord
100
AcDbBlockTableRecord
  2
_FILLED
  0
BLOCK_RECORD
  5
249
100
AcDbSymbolTableRecord
100
AcDbBlockTableRecord
  2
*D0
  0
BLOCK_RECORD
  5
24A
100
AcDbSymbolTableRecord
100
AcDbBlockTableRecord
  2
*D1
  0
BLOCK_RECORD
  5
24B
100
AcDbSymbolTableRecord
100
AcDbBlockTableRecord
  2
*D2
  0
BLOCK_RECORD
  5
24C
100
AcDbSymbolTableRecord
100
AcDbBlockTableRecord
  2
*D3
  0
BLOCK_RECORD
  5
24D
100
AcDbSymbolTableRecord
100
AcDbBlockTableRecord
  2
*D4
  0
BLOCK_RECORD
  5
24E
100
AcDbSymbolTableRecord
100
AcDbBlockTableRecord
  2
CL_BL1
  0
BLOCK_RECORD
  5
24F
100
AcDbSymbolTableRecord
100
AcDbBlockTableRecord
  2
BANNER_LOGO_TITLEBLOCK_BL0
  0
ENDTAB
  0
TABLE
  2
DIMSTYLE
  5
A
100
AcDbSymbolTable
 70
1
100
AcDbDimStyleTable
 71
0
  0
DIMSTYLE
105
250
100
AcDbSymbolTableRecord
100
AcDbDimStyleTableRecord
  2
STANDARD
 70
0
  3

  4

 40
1.0
 41
0.1875
 42
0.0625
 43
0.38
 44
0.18
 45
0.0
 46
0.0
 47
0.005
 48
0.005
140
0.1
141
0.09
142
0.0
143
25.4
144
1.0
145
0.0
146
1.0
147
0.09
 71
1.0
 72
0.0
 73
1
 74
1
 75
0
 76
0
 77
0
 78
4
170
0
171
2
172
0
173
0
174
0
175
0
176
0
177
0
178
0
270
2
271
3
272
3
273
2
274
2
275
0
280
0
281
0
282
0
283
1
284
4
285
0
286
0
287
3
288
0
340
11
341
248
342
248
343
248
344
248
  0
DIMSTYLE
105
251
100
AcDbSymbolTableRecord
100
AcDbDimStyleTableRecord
  2
DIMSTYLE_1
 70
0
  3

  4

 40
1.0
 41
0.1875
 42
0.0625
 43
0.38
 44
0.18
 45
0.0
 46
0.0
 47
0.1
 48
0.1
140
0.1
141
0.09
142
0.0
143
25.4
144
1.0
145
0.0
146
1.0
147
0.09
 71
0.0
 72
0.0
 73
1
 74
1
 75
0
 76
0
 77
0
 78
4
170
0
171
2
172
0
173
0
174
0
175
0
176
0
177
0
178
0
270
2
271
1
272
1
273
2
274
2
275
0
280
0
281
0
282
0
283
1
284
4
285
0
286
0
287
3
288
0
340
11
341
248
342
248
343
248
344
248
  0
DIMSTYLE
105
252
100
AcDbSymbolTableRecord
100
AcDbDimStyleTableRecord
  2
DIMSTYLE_2
 70
0
  3

  4

 40
1.0
 41
0.1875
 42
0.0625
 43
0.38
 44
0.18
 45
0.0
 46
0.0
 47
0.1
 48
0.1
140
0.1
141
0.09
142
0.0
143
25.4
144
1.0
145
0.0
146
1.0
147
0.09
 71
0.0
 72
0.0
 73
1
 74
1
 75
0
 76
0
 77
0
 78
4
170
0
171
2
172
0
173
0
174
0
175
0
176
0
177
0
178
0
270
2
271
1
272
1
273
2
274
2
275
0
280
0
281
0
282
0
283
1
284
4
285
0
286
0
287
3
288
0
340
11
341
248
342
248
343
248
344
248
  0
ENDTAB
  0
ENDSEC
  0
SECTION
  2
BLOCKS
  0
BLOCK
  5
20
100
AcDbEntity
  8
0
100
AcDbBlockBegin
  2
*Model_Space
 70
0
 10
0.0
 20
0.0
 30
0.0
  3
*Model_Space
  1

  0
ENDBLK
  5
21
100
AcDbEntity
  8
0
100
AcDbBlockEnd
  0
BLOCK
  5
1C
100
AcDbEntity
  8
0
100
AcDbBlockBegin
  2
*Paper_Space
 70
0
 10
0.0
 20
0.0
 30
0.0
  3
*Paper_Space
  1

  0
ENDBLK
  5
1D
100
AcDbEntity
  8
0
100
AcDbBlockEnd
  0
BLOCK
  5
253
100
AcDbEntity
  8
SYMBOLS
100
AcDbBlockBegin
 62
2
  6
CONTINUOUS
  2
CL_BL1
 70
64
 10
3.4790367607
 20
7.9613496646
  3
CL_BL1
  1

  0
MTEXT
  5
254
100
AcDbEntity
  8
SYMBOLS
100
AcDbMText
 62
2
  6
CONTINUOUS
  7
TEXTSTYLE_5
 71
1
 72
1
 10
3.3940367607
 20
8.0213496646
 30
0.0
 11
1.0
 21
0.0
 31
0.0
 44
0.9
  1
{\Fgdt;q}
 40
0.12
 41
0.17
  0
ENDBLK
  5
255
100
AcDbEntity
  8
0
  6
BYBLOCK
 62
0
100
AcDbBlockEnd
  0
BLOCK
  5
256
100
AcDbEntity
  8
0
100
AcDbBlockBegin
 62
2
  6
CONTINUOUS
  2
BANNER_LOGO_TITLEBLOCK_BL0
 70
64
 10
12.9086867042
 20
2.5403783405
  3
BANNER_LOGO_TITLEBLOCK_BL0
  1

  0
ELLIPSE
  5
257
100
AcDbEntity
  8
0
100
AcDbEllipse
 62
2
  6
CONTINUOUS
 10
12.9046654608
 20
2.5403783405
 30
0.0
 11
-0.8250004575
 21
0.0
 31
0.0
 40
0.218572
 41
0.0
 42
6.2831853072
  0
ARC
  5
258
100
AcDbEntity
  8
0
100
AcDbCircle
 62
2
  6
CONTINUOUS
 10
12.400005721
 20
2.5168763464
 40
0.0153945295
100
AcDbArc
 50
354.0454548824
 51
5.1878013979
  0
ARC
  5
259
100
AcDbEntity
  8
0
100
AcDbCircle
 62
2
  6
CONTINUOUS
 10
12.3931760319
 20
2.5166878286
 40
0.0222174455
100
AcDbArc
 50
4.0793399388
 51
69.834329283
  0
LINE
  5
25A
100
AcDbEntity
  8
0
100
AcDbLine
 62
2
  6
CONTINUOUS
 10
12.4008351814
 20
2.5375433389
 11
12.3907841758
 21
2.5410923409
  0
LINE
  5
25B
100
AcDbEntity
  8
0
100
AcDbLine
 62
2
  6
CONTINUOUS
 10
12.3907841758
 20
2.5410923409
 11
12.3990241804
 21
2.5458683435
  0
ARC
  5
25C
100
AcDbEntity
  8
0
100
AcDbCircle
 62
2
  6
CONTINUOUS
 10
12.3771587979
 20
2.5826952352
 40
0.0428289026
100
AcDbArc
 50
300.6990502959
 51
319.0591802498
  0
ARC
  5
25D
100
AcDbEntity
  8
0
100
AcDbCircle
 62
2
  6
CONTINUOUS
 10
12.3971873948
 20
2.5665668817
 40
0.0171568255
100
AcDbArc
 50
315.9145124245
 51
16.0049121282
  0
ARC
  5
25E
100
AcDbEntity
  8
0
100
AcDbCircle
 62
2
  6
CONTINUOUS
 10
12.3922357827
 20
2.5632132173
 40
0.0229166529
100
AcDbArc
 50
20.6563876465
 51
62.3316896973
  0
ARC
  5
25F
100
AcDbEntity
  8
0
100
AcDbCircle
 62
2
  6
CONTINUOUS
 10
12.371573659
 20
2.5302846524
 40
0.061747717
100
AcDbArc
 50
59.5385584989
 51
90.0050977555
  0
LINE
  5
260
100
AcDbEntity
  8
0
100
AcDbLine
 62
2
  6
CONTINUOUS
 10
12.3715681652
 20
2.5920323691
 11
12.2055050731
 21
2.5920323691
  0
ARC
  5
261
100
AcDbEntity
  8
0
100
AcDbCircle
 62
2
  6
CONTINUOUS
 10
12.2055050712
 20
2.5895573696
 40
0.0024749995
100
AcDbArc
 50
89.9999571957
 51
180.0000428043
  0
LINE
  5
262
100
AcDbEntity
  8
0
100
AcDbLine
 62
2
  6
CONTINUOUS
 10
12.2030300717
 20
2.5895573678
 11
12.2030300717
 21
2.5697573568
  0
ARC
  5
263
100
AcDbEntity
  8
0
100
AcDbCircle
 62
2
  6
CONTINUOUS
 10
12.2055050712
 20
2.5697573549
 40
0.0024749995
100
AcDbArc
 50
179.9999571957
 51
270.0000428043
  0
LINE
  5
264
100
AcDbEntity
  8
0
100
AcDbLine
 62
2
  6
CONTINUOUS
 10
12.2055050731
 20
2.5672823554
 11
12.2294470864
 21
2.5672823554
  0
ARC
  5
265
100
AcDbEntity
  8
0
100
AcDbCircle
 62
2
  6
CONTINUOUS
 10
12.2294470882
 20
2.5648073559
 40
0.0024749995
100
AcDbArc
 50
359.9999571957
 51
90.0000428043
  0
LINE
  5
266
100
AcDbEntity
  8
0
100
AcDbLine
 62
2
  6
CONTINUOUS
 10
12.2319220877
 20
2.564807354
 11
12.2319220877
 21
2.5184523283
  0
ARC
  5
267
100
AcDbEntity
  8
0
100
AcDbCircle
 62
2
  6
CONTINUOUS
 10
12.2294470882
 20
2.5184523265
 40
0.0024749995
100
AcDbArc
 50
269.9999571957
 51
0.0000428043
  0
LINE
  5
268
100
AcDbEntity
  8
0
100
AcDbLine
 62
2
  6
CONTINUOUS
 10
12.2294470864
 20
2.515977327
 11
12.2055050731
 21
2.515977327
  0
ARC
  5
269
100
AcDbEntity
  8
0
100
AcDbCircle
 62
2
  6
CONTINUOUS
 10
12.2055050712
 20
2.5135023274
 40
0.0024749995
100
AcDbArc
 50
89.9999571957
 51
180.0000428043
  0
LINE
  5
26A
100
AcDbEntity
  8
0
100
AcDbLine
 62
2
  6
CONTINUOUS
 10
12.2030300717
 20
2.5135023256
 11
12.2030300717
 21
2.4937023146
  0
ARC
  5
26B
100
AcDbEntity
  8
0
100
AcDbCircle
 62
2
  6
CONTINUOUS
 10
12.2055050712
 20
2.4937023128
 40
0.0024749995
100
AcDbArc
 50
179.9999571957
 51
270.0000428043
  0
LINE
  5
26C
100
AcDbEntity
  8
0
100
AcDbLine
 62
2
  6
CONTINUOUS
 10
12.2055050731
 20
2.4912273132
 11
12.3819511709
 21
2.4912273132
  0
ARC
  5
26D
100
AcDbEntity
  8
0
100
AcDbCircle
 62
2
  6
CONTINUOUS
 10
12.3792298263
 20
2.539634765
 40
0.048483885
100
AcDbArc
 50
273.21763719
 51
303.0749121182
  0
ARC
  5
26E
100
AcDbEntity
  8
0
100
AcDbCircle
 62
2
  6
CONTINUOUS
 10
12.3940692204
 20
2.5168671561
 40
0.0213072145
100
AcDbArc
 50
303.0488228549
 51
355.7263138674
  0
LINE
  5
26F
100
AcDbEntity
  8
0
100
AcDbLine
 62
2
  6
CONTINUOUS
 10
12.2949101227
 20
2.5499573458
 11
12.3362731456
 21
2.5499573458
  0
ARC
  5
270
100
AcDbEntity
  8
0
100
AcDbCircle
 62
2
  6
CONTINUOUS
 10
12.3362731456
 20
2.5586198506
 40
0.0086625048
100
AcDbArc
 50
270.0
 51
90.0
  0
LINE
  5
271
100
AcDbEntity
  8
0
100
AcDbLine
 62
2
  6
CONTINUOUS
 10
12.3362731456
 20
2.5672823554
 11
12.2949101227
 21
2.5672823554
  0
ARC
  5
272
100
AcDbEntity
  8
0
100
AcDbCircle
 62
2
  6
CONTINUOUS
 10
12.2949101208
 20
2.5648073559
 40
0.0024749995
100
AcDbArc
 50
89.9999571957
 51
180.0000428043
  0
LINE
  5
273
100
AcDbEntity
  8
0
100
AcDbLine
 62
2
  6
CONTINUOUS
 10
12.2924351213
 20
2.564807354
 11
12.2924351213
 21
2.5524323472
  0
ARC
  5
274
100
AcDbEntity
  8
0
100
AcDbCircle
 62
2
  6
CONTINUOUS
 10
12.2949101208
 20
2.5524323453
 40
0.0024749995
100
AcDbArc
 50
179.9999571957
 51
270.0000428043
  0
LINE
  5
275
100
AcDbEntity
  8
0
100
AcDbLine
 62
2
  6
CONTINUOUS
 10
12.2924351213
 20
2.5184523283
 11
12.2924351213
 21
2.5308273352
  0
ARC
  5
276
100
AcDbEntity
  8
0
100
AcDbCircle
 62
2
  6
CONTINUOUS
 10
12.2949101208
 20
2.530827337
 40
0.0024749995
100
AcDbArc
 50
89.9999571957
 51
180.0000428043
  0
LINE
  5
277
100
AcDbEntity
  8
0
100
AcDbLine
 62
2
  6
CONTINUOUS
 10
12.2949101227
 20
2.5333023366
 11
12.3362731456
 21
2.5333023366
  0
ARC
  5
278
100
AcDbEntity
  8
0
100
AcDbCircle
 62
2
  6
CONTINUOUS
 10
12.3362731456
 20
2.5246398318
 40
0.0086625048
100
AcDbArc
 50
270.0
 51
90.0
  0
LINE
  5
279
100
AcDbEntity
  8
0
100
AcDbLine
 62
2
  6
CONTINUOUS
 10
12.3362731456
 20
2.515977327
 11
12.2949101227
 21
2.515977327
  0
ARC
  5
27A
100
AcDbEntity
  8
0
100
AcDbCircle
 62
2
  6
CONTINUOUS
 10
12.2949101208
 20
2.5184523265
 40
0.0024749995
100
AcDbArc
 50
179.9999571957
 51
270.0000428043
  0
ARC
  5
27B
100
AcDbEntity
  8
0
100
AcDbCircle
 62
2
  6
CONTINUOUS
 10
13.5806801742
 20
2.5212486481
 40
0.044722495
100
AcDbArc
 50
195.531588407
 51
204.7624440448
  0
LINE
  5
27C
100
AcDbEntity
  8
0
100
AcDbLine
 62
2
  6
CONTINUOUS
 10
13.5375908118
 20
2.5092733232
 11
13.5357868108
 21
2.5153423266
  0
ARC
  5
27D
100
AcDbEntity
  8
0
100
AcDbCircle
 62
2
  6
CONTINUOUS
 10
13.4974076135
 20
2.5055452462
 40
0.0396099176
100
AcDbArc
 50
14.3201081283
 51
22.4984722084
  0
ARC
  5
27E
100
AcDbEntity
  8
0
100
AcDbCircle
 62
2
  6
CONTINUOUS
 10
13.5201739219
 20
2.5145168728
 40
0.0151491919
100
AcDbArc
 50
24.098260853
 51
63.0369451818
  0
ARC
  5
27F
100
AcDbEntity
  8
0
100
AcDbCircle
 62
2
  6
CONTINUOUS
 10
13.5161192671
 20
2.5062372524
 40
0.0243676582
100
AcDbArc
 50
63.3666028271
 51
90.3937697637
  0
LINE
  5
280
100
AcDbEntity
  8
0
100
AcDbLine
 62
2
  6
CONTINUOUS
 10
13.5159517998
 20
2.5306043351
 11
13.4883447845
 21
2.5306043351
  0
ARC
  5
281
100
AcDbEntity
  8
0
100
AcDbCircle
 62
2
  6
CONTINUOUS
 10
13.4883447827
 20
2.5281293355
 40
0.0024749995
100
AcDbArc
 50
89.9999571957
 51
180.0000428043
  0
LINE
  5
282
100
AcDbEntity
  8
0
100
AcDbLine
 62
2
  6
CONTINUOUS
 10
13.4858697831
 20
2.5281293337
 11
13.4858697831
 21
2.5184303283
  0
ARC
  5
283
100
AcDbEntity
  8
0
100
AcDbCircle
 62
2
  6
CONTINUOUS
 10
13.4883447827
 20
2.5184303265
 40
0.0024749995
100
AcDbArc
 50
179.9999571957
 51
270.0000428043
  0
LINE
  5
284
100
AcDbEntity
  8
0
100
AcDbLine
 62
2
  6
CONTINUOUS
 10
13.4883447845
 20
2.5159553269
 11
13.5130037982
 21
2.5159553269
  0
ARC
  5
285
100
AcDbEntity
  8
0
100
AcDbCircle
 62
2
  6
CONTINUOUS
 10
13.5130038
 20
2.5134803274
 40
0.0024749995
100
AcDbArc
 50
359.9999571957
 51
90.0000428043
  0
LINE
  5
286
100
AcDbEntity
  8
0
100
AcDbLine
 62
2
  6
CONTINUOUS
 10
13.5154787995
 20
2.5134803256
 11
13.5154787995
 21
2.4937023146
  0
ARC
  5
287
100
AcDbEntity
  8
0
100
AcDbCircle
 62
2
  6
CONTINUOUS
 10
13.5130038
 20
2.4937023128
 40
0.0024749995
100
AcDbArc
 50
269.9999571957
 51
0.0000428043
  0
LINE
  5
288
100
AcDbEntity
  8
0
100
AcDbLine
 62
2
  6
CONTINUOUS
 10
13.5130037982
 20
2.4912273132
 11
13.3994327352
 21
2.4912273132
  0
ARC
  5
289
100
AcDbEntity
  8
0
100
AcDbCircle
 62
2
  6
CONTINUOUS
 10
13.3994327333
 20
2.4937023128
 40
0.0024749995
100
AcDbArc
 50
179.9999571957
 51
270.0000428043
  0
LINE
  5
28A
100
AcDbEntity
  8
0
100
AcDbLine
 62
2
  6
CONTINUOUS
 10
13.3969577338
 20
2.4937023146
 11
13.3969577338
 21
2.5135023256
  0
ARC
  5
28B
100
AcDbEntity
  8
0
100
AcDbCircle
 62
2
  6
CONTINUOUS
 10
13.3994327333
 20
2.5135023274
 40
0.0024749995
100
AcDbArc
 50
89.9999571957
 51
180.0000428043
  0
LINE
  5
28C
100
AcDbEntity
  8
0
100
AcDbLine
 62
2
  6
CONTINUOUS
 10
13.3994327352
 20
2.515977327
 11
13.4221787478
 21
2.515977327
  0
ARC
  5
28D
100
AcDbEntity
  8
0
100
AcDbCircle
 62
2
  6
CONTINUOUS
 10
13.4221787497
 20
2.5184523265
 40
0.0024749995
100
AcDbArc
 50
269.9999571957
 51
0.0000428042
  0
LINE
  5
28E
100
AcDbEntity
  8
0
100
AcDbLine
 62
2
  6
CONTINUOUS
 10
13.4246537492
 20
2.5184523283
 11
13.4246537492
 21
2.564807354
  0
ARC
  5
28F
100
AcDbEntity
  8
0
100
AcDbCircle
 62
2
  6
CONTINUOUS
 10
13.4221787497
 20
2.5648073559
 40
0.0024749995
100
AcDbArc
 50
359.9999571957
 51
90.0000428043
  0
LINE
  5
290
100
AcDbEntity
  8
0
100
AcDbLine
 62
2
  6
CONTINUOUS
 10
13.4221787478
 20
2.5672823554
 11
13.3994327352
 21
2.5672823554
  0
ARC
  5
291
100
AcDbEntity
  8
0
100
AcDbCircle
 62
2
  6
CONTINUOUS
 10
13.3994327333
 20
2.5697573549
 40
0.0024749995
100
AcDbArc
 50
179.9999571957
 51
270.0000428043
  0
LINE
  5
292
100
AcDbEntity
  8
0
100
AcDbLine
 62
2
  6
CONTINUOUS
 10
13.3969577338
 20
2.5697573568
 11
13.3969577338
 21
2.5895573678
  0
ARC
  5
293
100
AcDbEntity
  8
0
100
AcDbCircle
 62
2
  6
CONTINUOUS
 10
13.3994327333
 20
2.5895573696
 40
0.0024749995
100
AcDbArc
 50
89.9999571957
 51
180.0000428043
  0
LINE
  5
294
100
AcDbEntity
  8
0
100
AcDbLine
 62
2
  6
CONTINUOUS
 10
13.3994327352
 20
2.5920323691
 11
13.5490138181
 21
2.5920323691
  0
ARC
  5
295
100
AcDbEntity
  8
0
100
AcDbCircle
 62
2
  6
CONTINUOUS
 10
13.5463505148
 20
2.4094934586
 40
0.1825583387
100
AcDbArc
 50
79.8618509324
 51
89.1640948679
  0
ARC
  5
296
100
AcDbEntity
  8
0
100
AcDbCircle
 62
2
  6
CONTINUOUS
 10
13.5726548052
 20
2.5503169747
 40
0.039319019
100
AcDbArc
 50
59.1202086415
 51
81.4730239328
  0
ARC
  5
297
100
AcDbEntity
  8
0
100
AcDbCircle
 62
2
  6
CONTINUOUS
 10
13.5783142014
 20
2.5566516438
 40
0.0310192946
100
AcDbArc
 50
34.7540871
 51
62.0879016178
  0
ARC
  5
298
100
AcDbEntity
  8
0
100
AcDbCircle
 62
2
  6
CONTINUOUS
 10
13.5900029525
 20
2.565201245
 40
0.0165459396
100
AcDbArc
 50
1.548452892
 51
33.5033152417
  0
ARC
  5
299
100
AcDbEntity
  8
0
100
AcDbCircle
 62
2
  6
CONTINUOUS
 10
13.5932995477
 20
2.5653696972
 40
0.0132462337
100
AcDbArc
 50
331.1510006998
 51
1.205404301
  0
ARC
  5
29A
100
AcDbEntity
  8
0
100
AcDbCircle
 62
2
  6
CONTINUOUS
 10
13.5822888914
 20
2.5720482849
 40
0.0261183659
100
AcDbArc
 50
305.6373831893
 51
329.9727629745
  0
ARC
  5
29B
100
AcDbEntity
  8
0
100
AcDbCircle
 62
2
  6
CONTINUOUS
 10
13.5519569538
 20
2.6152551345
 40
0.0789082104
100
AcDbArc
 50
292.906155071
 51
305.2574666259
  0
ARC
  5
29C
100
AcDbEntity
  8
0
100
AcDbCircle
 62
2
  6
CONTINUOUS
 10
13.5282557878
 20
2.4386010294
 40
0.117346916
100
AcDbArc
 50
58.614769177
 51
62.3737227606
  0
ARC
  5
29D
100
AcDbEntity
  8
0
100
AcDbCircle
 62
2
  6
CONTINUOUS
 10
13.5761387404
 20
2.5167282896
 40
0.0257145923
100
AcDbArc
 50
39.3804255939
 51
59.0361096173
  0
ARC
  5
29E
100
AcDbEntity
  8
0
100
AcDbCircle
 62
2
  6
CONTINUOUS
 10
13.5750183849
 20
2.5166552064
 40
0.0266349791
100
AcDbArc
 50
20.3630922153
 51
37.9727053099
  0
ARC
  5
29F
100
AcDbEntity
  8
0
100
AcDbCircle
 62
2
  6
CONTINUOUS
 10
13.5571178432
 20
2.509473798
 40
0.0459185159
100
AcDbArc
 50
15.6740290068
 51
20.9917271228
  0
ARC
  5
2A0
100
AcDbEntity
  8
0
100
AcDbCircle
 62
2
  6
CONTINUOUS
 10
13.6156881783
 20
2.525116781
 40
0.0147197649
100
AcDbArc
 50
192.7054516565
 51
206.0594861022
  0
ARC
  5
2A1
100
AcDbEntity
  8
0
100
AcDbCircle
 62
2
  6
CONTINUOUS
 10
13.6071938412
 20
2.5209082945
 40
0.0052403997
100
AcDbArc
 50
205.5232099488
 51
227.5054868079
  0
ARC
  5
2A2
100
AcDbEntity
  8
0
100
AcDbCircle
 62
2
  6
CONTINUOUS
 10
13.6054655419
 20
2.5190929218
 40
0.0027347709
100
AcDbArc
 50
228.5117626737
 51
266.1485845754
  0
LINE
  5
2A3
100
AcDbEntity
  8
0
100
AcDbLine
 62
2
  6
CONTINUOUS
 10
13.6052818493
 20
2.5163643272
 11
13.60639085
 21
2.5163643272
  0
ARC
  5
2A4
100
AcDbEntity
  8
0
100
AcDbCircle
 62
2
  6
CONTINUOUS
 10
13.6063292954
 20
2.5296129864
 40
0.0132488022
100
AcDbArc
 50
270.266200055
 51
281.2404888597
  0
ARC
  5
2A5
100
AcDbEntity
  8
0
100
AcDbCircle
 62
2
  6
CONTINUOUS
 10
13.6075235364
 20
2.5238762928
 40
0.0073895522
100
AcDbArc
 50
280.8288201977
 51
305.0837508495
  0
ARC
  5
2A6
100
AcDbEntity
  8
0
100
AcDbCircle
 62
2
  6
CONTINUOUS
 10
13.607924718
 20
2.5230254464
 40
0.0064647042
100
AcDbArc
 50
306.5086174083
 51
340.2162360092
  0
ARC
  5
2A7
100
AcDbEntity
  8
0
100
AcDbCircle
 62
2
  6
CONTINUOUS
 10
13.6027235414
 20
2.524769508
 40
0.0119498009
100
AcDbArc
 50
340.7883861657
 51
1.1691452593
  0
LINE
  5
2A8
100
AcDbEntity
  8
0
100
AcDbLine
 62
2
  6
CONTINUOUS
 10
13.6146708546
 20
2.525013332
 11
13.6146708546
 21
2.5276393334
  0
ARC
  5
2A9
100
AcDbEntity
  8
0
100
AcDbCircle
 62
2
  6
CONTINUOUS
 10
13.6171458541
 20
2.5276393353
 40
0.0024749995
100
AcDbArc
 50
89.9999571957
 51
180.0000428043
  0
LINE
  5
2AA
100
AcDbEntity
  8
0
100
AcDbLine
 62
2
  6
CONTINUOUS
 10
13.6171458559
 20
2.5301143348
 11
13.6292558626
 21
2.5301143348
  0
ARC
  5
2AB
100
AcDbEntity
  8
0
100
AcDbCircle
 62
2
  6
CONTINUOUS
 10
13.6292558645
 20
2.5276393353
 40
0.0024749995
100
AcDbArc
 50
359.9999571957
 51
90.0000428043
  0
LINE
  5
2AC
100
AcDbEntity
  8
0
100
AcDbLine
 62
2
  6
CONTINUOUS
 10
13.631730864
 20
2.5276393334
 11
13.631730864
 21
2.516087327
  0
ARC
  5
2AD
100
AcDbEntity
  8
0
100
AcDbCircle
 62
2
  6
CONTINUOUS
 10
13.6141751675
 20
2.5161916447
 40
0.0175560065
100
AcDbArc
 50
332.2279060967
 51
359.6595469939
  0
ARC
  5
2AE
100
AcDbEntity
  8
0
100
AcDbCircle
 62
2
  6
CONTINUOUS
 10
13.6048681567
 20
2.5210861501
 40
0.0280715479
100
AcDbArc
 50
308.5071794988
 51
332.2400656899
  0
ARC
  5
2AF
100
AcDbEntity
  8
0
100
AcDbCircle
 62
2
  6
CONTINUOUS
 10
13.5978759713
 20
2.5286873679
 40
0.0383802683
100
AcDbArc
 50
288.7656836787
 51
309.6104317088
  0
ARC
  5
2B0
100
AcDbEntity
  8
0
100
AcDbCircle
 62
2
  6
CONTINUOUS
 10
13.6036139387
 20
2.5111006186
 40
0.0198837666
100
AcDbArc
 50
271.8586572978
 51
289.4131338543
  0
LINE
  5
2B1
100
AcDbEntity
  8
0
100
AcDbLine
 62
2
  6
CONTINUOUS
 10
13.6042588488
 20
2.4912273132
 11
13.5568948225
 21
2.4912273132
  0
ARC
  5
2B2
100
AcDbEntity
  8
0
100
AcDbCircle
 62
2
  6
CONTINUOUS
 10
13.5577001432
 20
2.5085494649
 40
0.0173408616
100
AcDbArc
 50
232.4713476722
 51
267.338189944
  0
ARC
  5
2B3
100
AcDbEntity
  8
0
100
AcDbCircle
 62
2
  6
CONTINUOUS
 10
13.5607987082
 20
2.5143997688
 40
0.0238935861
100
AcDbArc
 50
209.8247607259
 51
235.1255079367
  0
ARC
  5
2B4
100
AcDbEntity
  8
0
100
AcDbCircle
 62
2
  6
CONTINUOUS
 10
13.5295131508
 20
2.5629115009
 40
0.0110815393
100
AcDbArc
 50
306.758405961
 51
320.4502234234
  0
ARC
  5
2B5
100
AcDbEntity
  8
0
100
AcDbCircle
 62
2
  6
CONTINUOUS
 10
13.5238839599
 20
2.5706523294
 40
0.0206523367
100
AcDbArc
 50
289.6883413472
 51
306.4184925496
  0
ARC
  5
2B6
100
AcDbEntity
  8
0
100
AcDbCircle
 62
2
  6
CONTINUOUS
 10
13.5219564542
 20
2.5750459767
 40
0.0254407115
100
AcDbArc
 50
270.7327484175
 51
290.441894219
  0
LINE
  5
2B7
100
AcDbEntity
  8
0
100
AcDbLine
 62
2
  6
CONTINUOUS
 10
13.5222818033
 20
2.5496073456
 11
13.4883447845
 21
2.5496073456
  0
ARC
  5
2B8
100
AcDbEntity
  8
0
100
AcDbCircle
 62
2
  6
CONTINUOUS
 10
13.4883447827
 20
2.5520823451
 40
0.0024749995
100
AcDbArc
 50
179.9999571957
 51
270.0000428043
  0
LINE
  5
2B9
100
AcDbEntity
  8
0
100
AcDbLine
 62
2
  6
CONTINUOUS
 10
13.4858697831
 20
2.552082347
 11
13.4858697831
 21
2.564807354
  0
ARC
  5
2BA
100
AcDbEntity
  8
0
100
AcDbCircle
 62
2
  6
CONTINUOUS
 10
13.4883447827
 20
2.5648073559
 40
0.0024749995
100
AcDbArc
 50
89.9999571957
 51
180.0000428043
  0
LINE
  5
2BB
100
AcDbEntity
  8
0
100
AcDbLine
 62
2
  6
CONTINUOUS
 10
13.4883447845
 20
2.5672823554
 11
13.5251458049
 21
2.5672823554
  0
ARC
  5
2BC
100
AcDbEntity
  8
0
100
AcDbCircle
 62
2
  6
CONTINUOUS
 10
13.5236009174
 20
2.5388278764
 40
0.0284963867
100
AcDbArc
 50
70.3834917948
 51
86.8922743861
  0
ARC
  5
2BD
100
AcDbEntity
  8
0
100
AcDbCircle
 62
2
  6
CONTINUOUS
 10
13.5284605274
 20
2.5518696094
 40
0.0145814632
100
AcDbArc
 50
54.6746025112
 51
71.1660573124
  0
ARC
  5
2BE
100
AcDbEntity
  8
0
100
AcDbCircle
 62
2
  6
CONTINUOUS
 10
13.5335900184
 20
2.5587235346
 40
0.0060275915
100
AcDbArc
 50
20.9055592135
 51
56.7851676243
  0
ARC
  5
2BF
100
AcDbEntity
  8
0
100
AcDbCircle
 62
2
  6
CONTINUOUS
 10
13.5348905773
 20
2.5593838168
 40
0.0045795888
100
AcDbArc
 50
355.6235353944
 51
18.9942678268
  0
ARC
  5
2C0
100
AcDbEntity
  8
0
100
AcDbCircle
 62
2
  6
CONTINUOUS
 10
13.533683767
 20
2.559677593
 40
0.0058087709
100
AcDbArc
 50
318.8515287446
 51
353.6422345323
  0
LINE
  5
2C1
100
AcDbEntity
  8
0
100
AcDbLine
 62
2
  6
CONTINUOUS
 10
12.672340332
 20
2.5920323691
 11
12.7727983877
 21
2.5920323691
  0
ARC
  5
2C2
100
AcDbEntity
  8
0
100
AcDbCircle
 62
2
  6
CONTINUOUS
 10
12.7727985224
 20
2.5895582013
 40
0.0024741678
100
AcDbArc
 50
46.3477981899
 51
90.0031206038
  0
LINE
  5
2C3
100
AcDbEntity
  8
0
100
AcDbLine
 62
2
  6
CONTINUOUS
 10
12.7745063886
 20
2.5913483688
 11
12.8345394219
 21
2.534068337
  0
ARC
  5
2C4
100
AcDbEntity
  8
0
100
AcDbCircle
 62
2
  6
CONTINUOUS
 10
12.8362481229
 20
2.5358592748
 40
0.0024753014
100
AcDbArc
 50
226.3461263059
 51
0.0014637321
  0
LINE
  5
2C5
100
AcDbEntity
  8
0
100
AcDbLine
 62
2
  6
CONTINUOUS
 10
12.8387234242
 20
2.535859338
 11
12.8387234242
 21
2.564807354
  0
ARC
  5
2C6
100
AcDbEntity
  8
0
100
AcDbCircle
 62
2
  6
CONTINUOUS
 10
12.8362484247
 20
2.5648073559
 40
0.0024749995
100
AcDbArc
 50
359.9999571957
 51
90.0000428043
  0
LINE
  5
2C7
100
AcDbEntity
  8
0
100
AcDbLine
 62
2
  6
CONTINUOUS
 10
12.8362484229
 20
2.5672823554
 11
12.8174724125
 21
2.5672823554
  0
ARC
  5
2C8
100
AcDbEntity
  8
0
100
AcDbCircle
 62
2
  6
CONTINUOUS
 10
12.8174724106
 20
2.5697573549
 40
0.0024749995
100
AcDbArc
 50
179.9999571957
 51
270.0000428043
  0
LINE
  5
2C9
100
AcDbEntity
  8
0
100
AcDbLine
 62
2
  6
CONTINUOUS
 10
12.8149974111
 20
2.5697573568
 11
12.8149974111
 21
2.5895573678
  0
ARC
  5
2CA
100
AcDbEntity
  8
0
100
AcDbCircle
 62
2
  6
CONTINUOUS
 10
12.8174724106
 20
2.5895573696
 40
0.0024749995
100
AcDbArc
 50
89.9999571957
 51
180.0000428043
  0
LINE
  5
2CB
100
AcDbEntity
  8
0
100
AcDbLine
 62
2
  6
CONTINUOUS
 10
12.8174724125
 20
2.5920323691
 11
12.8914734535
 21
2.5920323691
  0
ARC
  5
2CC
100
AcDbEntity
  8
0
100
AcDbCircle
 62
2
  6
CONTINUOUS
 10
12.8914734553
 20
2.5895573696
 40
0.0024749995
100
AcDbArc
 50
359.9999571957
 51
90.0000428043
  0
LINE
  5
2CD
100
AcDbEntity
  8
0
100
AcDbLine
 62
2
  6
CONTINUOUS
 10
12.8939484549
 20
2.5895573678
 11
12.8939484549
 21
2.5697573568
  0
ARC
  5
2CE
100
AcDbEntity
  8
0
100
AcDbCircle
 62
2
  6
CONTINUOUS
 10
12.8914734553
 20
2.5697573549
 40
0.0024749995
100
AcDbArc
 50
269.9999571957
 51
0.0000428043
  0
LINE
  5
2CF
100
AcDbEntity
  8
0
100
AcDbLine
 62
2
  6
CONTINUOUS
 10
12.8914734535
 20
2.5672823554
 11
12.8735404436
 21
2.5672823554
  0
ARC
  5
2D0
100
AcDbEntity
  8
0
100
AcDbCircle
 62
2
  6
CONTINUOUS
 10
12.8735404417
 20
2.5648073559
 40
0.0024749995
100
AcDbArc
 50
89.9999571957
 51
180.0000428043
  0
LINE
  5
2D1
100
AcDbEntity
  8
0
100
AcDbLine
 62
2
  6
CONTINUOUS
 10
12.8710654422
 20
2.564807354
 11
12.8710654422
 21
2.4937023146
  0
ARC
  5
2D2
100
AcDbEntity
  8
0
100
AcDbCircle
 62
2
  6
CONTINUOUS
 10
12.8685904427
 20
2.4937023128
 40
0.0024749995
100
AcDbArc
 50
269.9999571957
 51
0.0000428043
  0
LINE
  5
2D3
100
AcDbEntity
  8
0
100
AcDbLine
 62
2
  6
CONTINUOUS
 10
12.8685904408
 20
2.4912273132
 11
12.7943853997
 21
2.4912273132
  0
ARC
  5
2D4
100
AcDbEntity
  8
0
100
AcDbCircle
 62
2
  6
CONTINUOUS
 10
12.7943847649
 20
2.4937027294
 40
0.0024754162
100
AcDbArc
 50
226.3593695813
 51
270.0146919953
  0
LINE
  5
2D5
100
AcDbEntity
  8
0
100
AcDbLine
 62
2
  6
CONTINUOUS
 10
12.7926763987
 20
2.4919113136
 11
12.7293963636
 21
2.5522893471
  0
ARC
  5
2D6
100
AcDbEntity
  8
0
100
AcDbCircle
 62
2
  6
CONTINUOUS
 10
12.7276876627
 20
2.5504984093
 40
0.0024753014
100
AcDbArc
 50
46.3461263059
 51
180.0014637321
  0
LINE
  5
2D7
100
AcDbEntity
  8
0
100
AcDbLine
 62
2
  6
CONTINUOUS
 10
12.7252123613
 20
2.5504983461
 11
12.7252123613
 21
2.5184523283
  0
ARC
  5
2D8
100
AcDbEntity
  8
0
100
AcDbCircle
 62
2
  6
CONTINUOUS
 10
12.7276873608
 20
2.5184523265
 40
0.0024749995
100
AcDbArc
 50
179.9999571957
 51
270.0000428043
  0
LINE
  5
2D9
100
AcDbEntity
  8
0
100
AcDbLine
 62
2
  6
CONTINUOUS
 10
12.7276873627
 20
2.515977327
 11
12.7480043739
 21
2.515977327
  0
ARC
  5
2DA
100
AcDbEntity
  8
0
100
AcDbCircle
 62
2
  6
CONTINUOUS
 10
12.7480043758
 20
2.5135023274
 40
0.0024749995
100
AcDbArc
 50
359.9999571957
 51
90.0000428043
  0
LINE
  5
2DB
100
AcDbEntity
  8
0
100
AcDbLine
 62
2
  6
CONTINUOUS
 10
12.7504793753
 20
2.5135023256
 11
12.7504793753
 21
2.4937023146
  0
ARC
  5
2DC
100
AcDbEntity
  8
0
100
AcDbCircle
 62
2
  6
CONTINUOUS
 10
12.7480043758
 20
2.4937023128
 40
0.0024749995
100
AcDbArc
 50
269.9999571957
 51
0.0000428043
  0
LINE
  5
2DD
100
AcDbEntity
  8
0
100
AcDbLine
 62
2
  6
CONTINUOUS
 10
12.7480043739
 20
2.4912273132
 11
12.672340332
 21
2.4912273132
  0
ARC
  5
2DE
100
AcDbEntity
  8
0
100
AcDbCircle
 62
2
  6
CONTINUOUS
 10
12.6723403301
 20
2.4937023128
 40
0.0024749995
100
AcDbArc
 50
179.9999571957
 51
270.0000428043
  0
LINE
  5
2DF
100
AcDbEntity
  8
0
100
AcDbLine
 62
2
  6
CONTINUOUS
 10
12.6698653306
 20
2.4937023146
 11
12.6698653306
 21
2.5135023256
  0
ARC
  5
2E0
100
AcDbEntity
  8
0
100
AcDbCircle
 62
2
  6
CONTINUOUS
 10
12.6723403301
 20
2.5135023274
 40
0.0024749995
100
AcDbArc
 50
89.9999571957
 51
180.0000428043
  0
LINE
  5
2E1
100
AcDbEntity
  8
0
100
AcDbLine
 62
2
  6
CONTINUOUS
 10
12.672340332
 20
2.515977327
 11
12.6909873423
 21
2.515977327
  0
ARC
  5
2E2
100
AcDbEntity
  8
0
100
AcDbCircle
 62
2
  6
CONTINUOUS
 10
12.6909873442
 20
2.5184523265
 40
0.0024749995
100
AcDbArc
 50
269.9999571957
 51
0.0000428043
  0
LINE
  5
2E3
100
AcDbEntity
  8
0
100
AcDbLine
 62
2
  6
CONTINUOUS
 10
12.6934623437
 20
2.5184523283
 11
12.6934623437
 21
2.564807354
  0
ARC
  5
2E4
100
AcDbEntity
  8
0
100
AcDbCircle
 62
2
  6
CONTINUOUS
 10
12.6909873442
 20
2.5648073559
 40
0.0024749995
100
AcDbArc
 50
359.9999571957
 51
90.0000428043
  0
LINE
  5
2E5
100
AcDbEntity
  8
0
100
AcDbLine
 62
2
  6
CONTINUOUS
 10
12.6909873423
 20
2.5672823554
 11
12.672340332
 21
2.5672823554
  0
ARC
  5
2E6
100
AcDbEntity
  8
0
100
AcDbCircle
 62
2
  6
CONTINUOUS
 10
12.6723403301
 20
2.5697573549
 40
0.0024749995
100
AcDbArc
 50
179.9999571957
 51
270.0000428043
  0
LINE
  5
2E7
100
AcDbEntity
  8
0
100
AcDbLine
 62
2
  6
CONTINUOUS
 10
12.6698653306
 20
2.5697573568
 11
12.6698653306
 21
2.5895573678
  0
ARC
  5
2E8
100
AcDbEntity
  8
0
100
AcDbCircle
 62
2
  6
CONTINUOUS
 10
12.6723403301
 20
2.5895573696
 40
0.0024749995
100
AcDbArc
 50
89.9999571957
 51
180.0000428043
  0
LINE
  5
2E9
100
AcDbEntity
  8
0
100
AcDbLine
 62
2
  6
CONTINUOUS
 10
12.5246402501
 20
2.5655893545
 11
12.5175232461
 21
2.5543723483
  0
ARC
  5
2EA
100
AcDbEntity
  8
0
100
AcDbCircle
 62
2
  6
CONTINUOUS
 10
12.519613138
 20
2.5530463862
 40
0.0024750401
100
AcDbArc
 50
147.6063258012
 51
270.0025305754
  0
LINE
  5
2EB
100
AcDbEntity
  8
0
100
AcDbLine
 62
2
  6
CONTINUOUS
 10
12.5196132473
 20
2.5505713461
 11
12.5401702587
 21
2.5505713461
  0
ARC
  5
2EC
100
AcDbEntity
  8
0
100
AcDbCircle
 62
2
  6
CONTINUOUS
 10
12.5401702375
 20
2.5530465533
 40
0.0024752071
100
AcDbArc
 50
270.0004896793
 51
32.9089806818
  0
LINE
  5
2ED
100
AcDbEntity
  8
0
100
AcDbLine
 62
2
  6
CONTINUOUS
 10
12.5422482598
 20
2.5543913483
 11
12.5349892558
 21
2.5656073545
  0
ARC
  5
2EE
100
AcDbEntity
  8
0
100
AcDbCircle
 62
2
  6
CONTINUOUS
 10
12.532910715
 20
2.564262895
 40
0.0024754602
100
AcDbArc
 50
32.8959418573
 51
89.9875097202
  0
LINE
  5
2EF
100
AcDbEntity
  8
0
100
AcDbLine
 62
2
  6
CONTINUOUS
 10
12.5329112547
 20
2.5667383551
 11
12.5267302512
 21
2.5667383551
  0
ARC
  5
2F0
100
AcDbEntity
  8
0
100
AcDbCircle
 62
2
  6
CONTINUOUS
 10
12.5267301809
 20
2.5642631548
 40
0.0024752003
100
AcDbArc
 50
89.998372645
 51
147.602165307
  0
LINE
  5
2F1
100
AcDbEntity
  8
0
100
AcDbLine
 62
2
  6
CONTINUOUS
 10
12.548053263
 20
2.5284903339
 11
12.5536792662
 21
2.5197973291
  0
ARC
  5
2F2
100
AcDbEntity
  8
0
100
AcDbCircle
 62
2
  6
CONTINUOUS
 10
12.5516012439
 20
2.5184525341
 40
0.0024752071
100
AcDbArc
 50
270.0004896794
 51
32.9089806818
  0
LINE
  5
2F3
100
AcDbEntity
  8
0
100
AcDbLine
 62
2
  6
CONTINUOUS
 10
12.551601265
 20
2.515977327
 11
12.537150257
 21
2.515977327
  0
ARC
  5
2F4
100
AcDbEntity
  8
0
100
AcDbCircle
 62
2
  6
CONTINUOUS
 10
12.5371502552
 20
2.5135023274
 40
0.0024749995
100
AcDbArc
 50
89.9999571957
 51
180.0000428043
  0
LINE
  5
2F5
100
AcDbEntity
  8
0
100
AcDbLine
 62
2
  6
CONTINUOUS
 10
12.5346752556
 20
2.5135023256
 11
12.5346752556
 21
2.4937023146
  0
ARC
  5
2F6
100
AcDbEntity
  8
0
100
AcDbCircle
 62
2
  6
CONTINUOUS
 10
12.5371502552
 20
2.4937023128
 40
0.0024749995
100
AcDbArc
 50
179.9999571957
 51
270.0000428043
  0
LINE
  5
2F7
100
AcDbEntity
  8
0
100
AcDbLine
 62
2
  6
CONTINUOUS
 10
12.537150257
 20
2.4912273132
 11
12.6424313154
 21
2.4912273132
  0
ARC
  5
2F8
100
AcDbEntity
  8
0
100
AcDbCircle
 62
2
  6
CONTINUOUS
 10
12.6424313172
 20
2.4937023128
 40
0.0024749995
100
AcDbArc
 50
269.9999571957
 51
0.0000428043
  0
LINE
  5
2F9
100
AcDbEntity
  8
0
100
AcDbLine
 62
2
  6
CONTINUOUS
 10
12.6449063168
 20
2.4937023146
 11
12.6449063168
 21
2.5135023256
  0
ARC
  5
2FA
100
AcDbEntity
  8
0
100
AcDbCircle
 62
2
  6
CONTINUOUS
 10
12.6424313172
 20
2.5135023274
 40
0.0024749995
100
AcDbArc
 50
359.9999571957
 51
90.0000428043
  0
LINE
  5
2FB
100
AcDbEntity
  8
0
100
AcDbLine
 62
2
  6
CONTINUOUS
 10
12.6424313154
 20
2.515977327
 11
12.6224153043
 21
2.515977327
  0
ARC
  5
2FC
100
AcDbEntity
  8
0
100
AcDbCircle
 62
2
  6
CONTINUOUS
 10
12.6224154248
 20
2.518451368
 40
0.002474041
100
AcDbArc
 50
212.9056413127
 51
269.9972091756
  0
LINE
  5
2FD
100
AcDbEntity
  8
0
100
AcDbLine
 62
2
  6
CONTINUOUS
 10
12.6203383031
 20
2.5171073276
 11
12.5725822767
 21
2.5909023685
  0
ARC
  5
2FE
100
AcDbEntity
  8
0
100
AcDbCircle
 62
2
  6
CONTINUOUS
 10
12.570504655
 20
2.589557409
 40
0.0024749602
100
AcDbArc
 50
32.9172174468
 51
90.0087853097
  0
LINE
  5
2FF
100
AcDbEntity
  8
0
100
AcDbLine
 62
2
  6
CONTINUOUS
 10
12.5705042755
 20
2.5920323691
 11
12.5133292438
 21
2.5920323691
  0
ARC
  5
300
100
AcDbEntity
  8
0
100
AcDbCircle
 62
2
  6
CONTINUOUS
 10
12.5133291735
 20
2.5895571688
 40
0.0024752003
100
AcDbArc
 50
89.9983726451
 51
147.602165307
  0
LINE
  5
301
100
AcDbEntity
  8
0
100
AcDbLine
 62
2
  6
CONTINUOUS
 10
12.5112392426
 20
2.5908833685
 11
12.4644392167
 21
2.5171263276
  0
ARC
  5
302
100
AcDbEntity
  8
0
100
AcDbCircle
 62
2
  6
CONTINUOUS
 10
12.4623492858
 20
2.5184525273
 40
0.0024752003
100
AcDbArc
 50
269.9983726451
 51
327.602165307
  0
LINE
  5
303
100
AcDbEntity
  8
0
100
AcDbLine
 62
2
  6
CONTINUOUS
 10
12.4623492155
 20
2.515977327
 11
12.4394882028
 21
2.515977327
  0
ARC
  5
304
100
AcDbEntity
  8
0
100
AcDbCircle
 62
2
  6
CONTINUOUS
 10
12.439488201
 20
2.5135023274
 40
0.0024749995
100
AcDbArc
 50
89.9999571957
 51
180.0000428043
  0
LINE
  5
305
100
AcDbEntity
  8
0
100
AcDbLine
 62
2
  6
CONTINUOUS
 10
12.4370132015
 20
2.5135023256
 11
12.4370132015
 21
2.4937023146
  0
ARC
  5
306
100
AcDbEntity
  8
0
100
AcDbCircle
 62
2
  6
CONTINUOUS
 10
12.439488201
 20
2.4937023128
 40
0.0024749995
100
AcDbArc
 50
179.9999571957
 51
270.0000428043
  0
LINE
  5
307
100
AcDbEntity
  8
0
100
AcDbLine
 62
2
  6
CONTINUOUS
 10
12.4394882028
 20
2.4912273132
 11
12.5168642458
 21
2.4912273132
  0
ARC
  5
308
100
AcDbEntity
  8
0
100
AcDbCircle
 62
2
  6
CONTINUOUS
 10
12.5168642476
 20
2.4937023128
 40
0.0024749995
100
AcDbArc
 50
269.9999571957
 51
0.0000428043
  0
LINE
  5
309
100
AcDbEntity
  8
0
100
AcDbLine
 62
2
  6
CONTINUOUS
 10
12.5193392471
 20
2.4937023146
 11
12.5193392471
 21
2.5135023256
  0
ARC
  5
30A
100
AcDbEntity
  8
0
100
AcDbCircle
 62
2
  6
CONTINUOUS
 10
12.5168642476
 20
2.5135023274
 40
0.0024749995
100
AcDbArc
 50
359.9999571957
 51
90.0000428043
  0
LINE
  5
30B
100
AcDbEntity
  8
0
100
AcDbLine
 62
2
  6
CONTINUOUS
 10
12.5168642458
 20
2.515977327
 11
12.5055812395
 21
2.515977327
  0
ARC
  5
30C
100
AcDbEntity
  8
0
100
AcDbCircle
 62
2
  6
CONTINUOUS
 10
12.5055811302
 20
2.518452367
 40
0.0024750401
100
AcDbArc
 50
147.6063258011
 51
270.0025305754
  0
LINE
  5
30D
100
AcDbEntity
  8
0
100
AcDbLine
 62
2
  6
CONTINUOUS
 10
12.5034912383
 20
2.5197783291
 11
12.5090072414
 21
2.5284723339
  0
ARC
  5
30E
100
AcDbEntity
  8
0
100
AcDbCircle
 62
2
  6
CONTINUOUS
 10
12.5110971723
 20
2.5271461342
 40
0.0024752003
100
AcDbArc
 50
89.998372645
 51
147.602165307
  0
LINE
  5
30F
100
AcDbEntity
  8
0
100
AcDbLine
 62
2
  6
CONTINUOUS
 10
12.5110972426
 20
2.5296213345
 11
12.5459752619
 21
2.5296213345
  0
ARC
  5
310
100
AcDbEntity
  8
0
100
AcDbCircle
 62
2
  6
CONTINUOUS
 10
12.5459747223
 20
2.5271458744
 40
0.0024754602
100
AcDbArc
 50
32.8959418573
 51
89.9875097202
  0
LINE
  5
311
100
AcDbEntity
  8
0
100
AcDbLine
 62
2
  6
CONTINUOUS
 10
12.9205934696
 20
2.5920323691
 11
13.0210515254
 21
2.5920323691
  0
ARC
  5
312
100
AcDbEntity
  8
0
100
AcDbCircle
 62
2
  6
CONTINUOUS
 10
13.0210516601
 20
2.5895582013
 40
0.0024741678
100
AcDbArc
 50
46.3477981899
 51
90.0031206038
  0
LINE
  5
313
100
AcDbEntity
  8
0
100
AcDbLine
 62
2
  6
CONTINUOUS
 10
13.0227595263
 20
2.5913483688
 11
13.0827925596
 21
2.534068337
  0
ARC
  5
314
100
AcDbEntity
  8
0
100
AcDbCircle
 62
2
  6
CONTINUOUS
 10
13.0845012605
 20
2.5358592748
 40
0.0024753014
100
AcDbArc
 50
226.3461263059
 51
0.0014637321
  0
LINE
  5
315
100
AcDbEntity
  8
0
100
AcDbLine
 62
2
  6
CONTINUOUS
 10
13.0869765619
 20
2.535859338
 11
13.0869765619
 21
2.564807354
  0
ARC
  5
316
100
AcDbEntity
  8
0
100
AcDbCircle
 62
2
  6
CONTINUOUS
 10
13.0845015624
 20
2.5648073559
 40
0.0024749995
100
AcDbArc
 50
359.9999571957
 51
90.0000428043
  0
LINE
  5
317
100
AcDbEntity
  8
0
100
AcDbLine
 62
2
  6
CONTINUOUS
 10
13.0845015605
 20
2.5672823554
 11
13.0657255501
 21
2.5672823554
  0
ARC
  5
318
100
AcDbEntity
  8
0
100
AcDbCircle
 62
2
  6
CONTINUOUS
 10
13.0657255483
 20
2.5697573549
 40
0.0024749995
100
AcDbArc
 50
179.9999571957
 51
270.0000428043
  0
LINE
  5
319
100
AcDbEntity
  8
0
100
AcDbLine
 62
2
  6
CONTINUOUS
 10
13.0632505488
 20
2.5697573568
 11
13.0632505488
 21
2.5895573678
  0
ARC
  5
31A
100
AcDbEntity
  8
0
100
AcDbCircle
 62
2
  6
CONTINUOUS
 10
13.0657255483
 20
2.5895573696
 40
0.0024749995
100
AcDbArc
 50
89.9999571957
 51
180.0000428043
  0
LINE
  5
31B
100
AcDbEntity
  8
0
100
AcDbLine
 62
2
  6
CONTINUOUS
 10
13.0657255501
 20
2.5920323691
 11
13.1397265912
 21
2.5920323691
  0
ARC
  5
31C
100
AcDbEntity
  8
0
100
AcDbCircle
 62
2
  6
CONTINUOUS
 10
13.139726593
 20
2.5895573696
 40
0.0024749995
100
AcDbArc
 50
359.9999571957
 51
90.0000428043
  0
LINE
  5
31D
100
AcDbEntity
  8
0
100
AcDbLine
 62
2
  6
CONTINUOUS
 10
13.1422015925
 20
2.5895573678
 11
13.1422015925
 21
2.5697573568
  0
ARC
  5
31E
100
AcDbEntity
  8
0
100
AcDbCircle
 62
2
  6
CONTINUOUS
 10
13.139726593
 20
2.5697573549
 40
0.0024749995
100
AcDbArc
 50
269.9999571957
 51
0.0000428042
  0
LINE
  5
31F
100
AcDbEntity
  8
0
100
AcDbLine
 62
2
  6
CONTINUOUS
 10
13.1397265912
 20
2.5672823554
 11
13.1217935812
 21
2.5672823554
  0
ARC
  5
320
100
AcDbEntity
  8
0
100
AcDbCircle
 62
2
  6
CONTINUOUS
 10
13.1217935794
 20
2.5648073559
 40
0.0024749995
100
AcDbArc
 50
89.9999571957
 51
180.0000428042
  0
LINE
  5
321
100
AcDbEntity
  8
0
100
AcDbLine
 62
2
  6
CONTINUOUS
 10
13.1193185799
 20
2.564807354
 11
13.1193185799
 21
2.4937023146
  0
ARC
  5
322
100
AcDbEntity
  8
0
100
AcDbCircle
 62
2
  6
CONTINUOUS
 10
13.1168435803
 20
2.4937023128
 40
0.0024749995
100
AcDbArc
 50
269.9999571957
 51
0.0000428043
  0
LINE
  5
323
100
AcDbEntity
  8
0
100
AcDbLine
 62
2
  6
CONTINUOUS
 10
13.1168435785
 20
2.4912273132
 11
13.0426375373
 21
2.4912273132
  0
ARC
  5
324
100
AcDbEntity
  8
0
100
AcDbCircle
 62
2
  6
CONTINUOUS
 10
13.0426374026
 20
2.493701481
 40
0.0024741678
100
AcDbArc
 50
226.3477981898
 51
270.0031206038
  0
LINE
  5
325
100
AcDbEntity
  8
0
100
AcDbLine
 62
2
  6
CONTINUOUS
 10
13.0409295364
 20
2.4919113136
 11
12.9776495013
 21
2.5522893471
  0
ARC
  5
326
100
AcDbEntity
  8
0
100
AcDbCircle
 62
2
  6
CONTINUOUS
 10
12.9759408003
 20
2.5504984093
 40
0.0024753014
100
AcDbArc
 50
46.3461263059
 51
180.0014637321
  0
LINE
  5
327
100
AcDbEntity
  8
0
100
AcDbLine
 62
2
  6
CONTINUOUS
 10
12.973465499
 20
2.5504983461
 11
12.973465499
 21
2.5184523283
  0
ARC
  5
328
100
AcDbEntity
  8
0
100
AcDbCircle
 62
2
  6
CONTINUOUS
 10
12.9759404985
 20
2.5184523265
 40
0.0024749995
100
AcDbArc
 50
179.9999571957
 51
270.0000428043
  0
LINE
  5
329
100
AcDbEntity
  8
0
100
AcDbLine
 62
2
  6
CONTINUOUS
 10
12.9759405003
 20
2.515977327
 11
12.9962575116
 21
2.515977327
  0
ARC
  5
32A
100
AcDbEntity
  8
0
100
AcDbCircle
 62
2
  6
CONTINUOUS
 10
12.9962575135
 20
2.5135023274
 40
0.0024749995
100
AcDbArc
 50
359.9999571957
 51
90.0000428043
  0
LINE
  5
32B
100
AcDbEntity
  8
0
100
AcDbLine
 62
2
  6
CONTINUOUS
 10
12.998732513
 20
2.5135023256
 11
12.998732513
 21
2.4937023146
  0
ARC
  5
32C
100
AcDbEntity
  8
0
100
AcDbCircle
 62
2
  6
CONTINUOUS
 10
12.9962575135
 20
2.4937023128
 40
0.0024749995
100
AcDbArc
 50
269.9999571957
 51
0.0000428043
  0
LINE
  5
32D
100
AcDbEntity
  8
0
100
AcDbLine
 62
2
  6
CONTINUOUS
 10
12.9962575116
 20
2.4912273132
 11
12.9205934696
 21
2.4912273132
  0
ARC
  5
32E
100
AcDbEntity
  8
0
100
AcDbCircle
 62
2
  6
CONTINUOUS
 10
12.9205934678
 20
2.4937023128
 40
0.0024749995
100
AcDbArc
 50
179.9999571957
 51
270.0000428043
  0
LINE
  5
32F
100
AcDbEntity
  8
0
100
AcDbLine
 62
2
  6
CONTINUOUS
 10
12.9181184683
 20
2.4937023146
 11
12.9181184683
 21
2.5135023256
  0
ARC
  5
330
100
AcDbEntity
  8
0
100
AcDbCircle
 62
2
  6
CONTINUOUS
 10
12.9205934678
 20
2.5135023274
 40
0.0024749995
100
AcDbArc
 50
89.9999571957
 51
180.0000428042
  0
LINE
  5
331
100
AcDbEntity
  8
0
100
AcDbLine
 62
2
  6
CONTINUOUS
 10
12.9205934696
 20
2.515977327
 11
12.93923948
 21
2.515977327
  0
ARC
  5
332
100
AcDbEntity
  8
0
100
AcDbCircle
 62
2
  6
CONTINUOUS
 10
12.9392394818
 20
2.5184523265
 40
0.0024749995
100
AcDbArc
 50
269.9999571957
 51
0.0000428043
  0
LINE
  5
333
100
AcDbEntity
  8
0
100
AcDbLine
 62
2
  6
CONTINUOUS
 10
12.9417144814
 20
2.5184523283
 11
12.9417144814
 21
2.564807354
  0
ARC
  5
334
100
AcDbEntity
  8
0
100
AcDbCircle
 62
2
  6
CONTINUOUS
 10
12.9392394818
 20
2.5648073559
 40
0.0024749995
100
AcDbArc
 50
359.9999571957
 51
90.0000428043
  0
LINE
  5
335
100
AcDbEntity
  8
0
100
AcDbLine
 62
2
  6
CONTINUOUS
 10
12.93923948
 20
2.5672823554
 11
12.9205934696
 21
2.5672823554
  0
ARC
  5
336
100
AcDbEntity
  8
0
100
AcDbCircle
 62
2
  6
CONTINUOUS
 10
12.9205934678
 20
2.5697573549
 40
0.0024749995
100
AcDbArc
 50
179.9999571957
 51
270.0000428043
  0
LINE
  5
337
100
AcDbEntity
  8
0
100
AcDbLine
 62
2
  6
CONTINUOUS
 10
12.9181184683
 20
2.5697573568
 11
12.9181184683
 21
2.5895573678
  0
ARC
  5
338
100
AcDbEntity
  8
0
100
AcDbCircle
 62
2
  6
CONTINUOUS
 10
12.9205934678
 20
2.5895573696
 40
0.0024749995
100
AcDbArc
 50
89.9999571957
 51
180.0000428042
  0
LINE
  5
339
100
AcDbEntity
  8
0
100
AcDbLine
 62
2
  6
CONTINUOUS
 10
13.2934226764
 20
2.5324773361
 11
13.2582556569
 21
2.5324773361
  0
ARC
  5
33A
100
AcDbEntity
  8
0
100
AcDbCircle
 62
2
  6
CONTINUOUS
 10
13.2582556551
 20
2.5300023366
 40
0.0024749995
100
AcDbArc
 50
89.9999571957
 51
180.0000428043
  0
LINE
  5
33B
100
AcDbEntity
  8
0
100
AcDbLine
 62
2
  6
CONTINUOUS
 10
13.2557806555
 20
2.5300023347
 11
13.2557806555
 21
2.5184523283
  0
ARC
  5
33C
100
AcDbEntity
  8
0
100
AcDbCircle
 62
2
  6
CONTINUOUS
 10
13.2582556551
 20
2.5184523265
 40
0.0024749995
100
AcDbArc
 50
179.9999571957
 51
270.0000428043
  0
LINE
  5
33D
100
AcDbEntity
  8
0
100
AcDbLine
 62
2
  6
CONTINUOUS
 10
13.2582556569
 20
2.515977327
 11
13.3232596929
 21
2.515977327
  0
ARC
  5
33E
100
AcDbEntity
  8
0
100
AcDbCircle
 62
2
  6
CONTINUOUS
 10
13.3232596948
 20
2.5184523265
 40
0.0024749995
100
AcDbArc
 50
269.9999571957
 51
0.0000428043
  0
LINE
  5
33F
100
AcDbEntity
  8
0
100
AcDbLine
 62
2
  6
CONTINUOUS
 10
13.3257346943
 20
2.5184523283
 11
13.3257346943
 21
2.5267023329
  0
ARC
  5
340
100
AcDbEntity
  8
0
100
AcDbCircle
 62
2
  6
CONTINUOUS
 10
13.3282096938
 20
2.5267023348
 40
0.0024749995
100
AcDbArc
 50
89.9999571957
 51
180.0000428043
  0
LINE
  5
341
100
AcDbEntity
  8
0
100
AcDbLine
 62
2
  6
CONTINUOUS
 10
13.3282096957
 20
2.5291773343
 11
13.3705287192
 21
2.5291773343
  0
ARC
  5
342
100
AcDbEntity
  8
0
100
AcDbCircle
 62
2
  6
CONTINUOUS
 10
13.370528721
 20
2.5267023348
 40
0.0024749995
100
AcDbArc
 50
359.9999571957
 51
90.0000428043
  0
LINE
  5
343
100
AcDbEntity
  8
0
100
AcDbLine
 62
2
  6
CONTINUOUS
 10
13.3730037205
 20
2.5267023329
 11
13.3730037205
 21
2.4937023146
  0
ARC
  5
344
100
AcDbEntity
  8
0
100
AcDbCircle
 62
2
  6
CONTINUOUS
 10
13.370528721
 20
2.4937023128
 40
0.0024749995
100
AcDbArc
 50
269.9999571957
 51
0.0000428043
  0
LINE
  5
345
100
AcDbEntity
  8
0
100
AcDbLine
 62
2
  6
CONTINUOUS
 10
13.3705287192
 20
2.4912273132
 11
13.1673166065
 21
2.4912273132
  0
ARC
  5
346
100
AcDbEntity
  8
0
100
AcDbCircle
 62
2
  6
CONTINUOUS
 10
13.1673166046
 20
2.4937023128
 40
0.0024749995
100
AcDbArc
 50
179.9999571957
 51
270.0000428043
  0
LINE
  5
347
100
AcDbEntity
  8
0
100
AcDbLine
 62
2
  6
CONTINUOUS
 10
13.1648416051
 20
2.4937023146
 11
13.1648416051
 21
2.5135023256
  0
ARC
  5
348
100
AcDbEntity
  8
0
100
AcDbCircle
 62
2
  6
CONTINUOUS
 10
13.1673166046
 20
2.5135023274
 40
0.0024749995
100
AcDbArc
 50
89.9999571957
 51
180.0000428043
  0
LINE
  5
349
100
AcDbEntity
  8
0
100
AcDbLine
 62
2
  6
CONTINUOUS
 10
13.1673166065
 20
2.515977327
 11
13.1912396197
 21
2.515977327
  0
ARC
  5
34A
100
AcDbEntity
  8
0
100
AcDbCircle
 62
2
  6
CONTINUOUS
 10
13.1912396216
 20
2.5184523265
 40
0.0024749995
100
AcDbArc
 50
269.9999571957
 51
0.0000428042
  0
LINE
  5
34B
100
AcDbEntity
  8
0
100
AcDbLine
 62
2
  6
CONTINUOUS
 10
13.1937146211
 20
2.5184523283
 11
13.1937146211
 21
2.564807354
  0
ARC
  5
34C
100
AcDbEntity
  8
0
100
AcDbCircle
 62
2
  6
CONTINUOUS
 10
13.1912396216
 20
2.5648073559
 40
0.0024749995
100
AcDbArc
 50
359.9999571957
 51
90.0000428043
  0
LINE
  5
34D
100
AcDbEntity
  8
0
100
AcDbLine
 62
2
  6
CONTINUOUS
 10
13.1912396197
 20
2.5672823554
 11
13.1673166065
 21
2.5672823554
  0
ARC
  5
34E
100
AcDbEntity
  8
0
100
AcDbCircle
 62
2
  6
CONTINUOUS
 10
13.1673166046
 20
2.5697573549
 40
0.0024749995
100
AcDbArc
 50
179.9999571957
 51
270.0000428043
  0
LINE
  5
34F
100
AcDbEntity
  8
0
100
AcDbLine
 62
2
  6
CONTINUOUS
 10
13.1648416051
 20
2.5697573568
 11
13.1648416051
 21
2.5895573678
  0
ARC
  5
350
100
AcDbEntity
  8
0
100
AcDbCircle
 62
2
  6
CONTINUOUS
 10
13.1673166046
 20
2.5895573696
 40
0.0024749995
100
AcDbArc
 50
89.9999571957
 51
180.0000428043
  0
LINE
  5
351
100
AcDbEntity
  8
0
100
AcDbLine
 62
2
  6
CONTINUOUS
 10
13.1673166065
 20
2.5920323691
 11
13.3691097184
 21
2.5920323691
  0
ARC
  5
352
100
AcDbEntity
  8
0
100
AcDbCircle
 62
2
  6
CONTINUOUS
 10
13.3691097202
 20
2.5895573696
 40
0.0024749995
100
AcDbArc
 50
359.9999571957
 51
90.0000428043
  0
LINE
  5
353
100
AcDbEntity
  8
0
100
AcDbLine
 62
2
  6
CONTINUOUS
 10
13.3715847197
 20
2.5895573678
 11
13.3715847197
 21
2.5565573495
  0
ARC
  5
354
100
AcDbEntity
  8
0
100
AcDbCircle
 62
2
  6
CONTINUOUS
 10
13.3691097202
 20
2.5565573476
 40
0.0024749995
100
AcDbArc
 50
269.9999571957
 51
0.0000428042
  0
LINE
  5
355
100
AcDbEntity
  8
0
100
AcDbLine
 62
2
  6
CONTINUOUS
 10
13.3691097184
 20
2.5540823481
 11
13.3272456952
 21
2.5540823481
  0
ARC
  5
356
100
AcDbEntity
  8
0
100
AcDbCircle
 62
2
  6
CONTINUOUS
 10
13.3272456933
 20
2.5565573476
 40
0.0024749995
100
AcDbArc
 50
179.9999571957
 51
270.0000428043
  0
LINE
  5
357
100
AcDbEntity
  8
0
100
AcDbLine
 62
2
  6
CONTINUOUS
 10
13.3247706938
 20
2.5565573495
 11
13.3247706938
 21
2.564807354
  0
ARC
  5
358
100
AcDbEntity
  8
0
100
AcDbCircle
 62
2
  6
CONTINUOUS
 10
13.3222956943
 20
2.5648073559
 40
0.0024749995
100
AcDbArc
 50
359.9999571957
 51
90.0000428043
  0
LINE
  5
359
100
AcDbEntity
  8
0
100
AcDbLine
 62
2
  6
CONTINUOUS
 10
13.3222956924
 20
2.5672823554
 11
13.2582556569
 21
2.5672823554
  0
ARC
  5
35A
100
AcDbEntity
  8
0
100
AcDbCircle
 62
2
  6
CONTINUOUS
 10
13.2582556551
 20
2.5648073559
 40
0.0024749995
100
AcDbArc
 50
89.9999571957
 51
180.0000428043
  0
LINE
  5
35B
100
AcDbEntity
  8
0
100
AcDbLine
 62
2
  6
CONTINUOUS
 10
13.2557806555
 20
2.564807354
 11
13.2557806555
 21
2.5532573476
  0
ARC
  5
35C
100
AcDbEntity
  8
0
100
AcDbCircle
 62
2
  6
CONTINUOUS
 10
13.2582556551
 20
2.5532573458
 40
0.0024749995
100
AcDbArc
 50
179.9999571957
 51
270.0000428043
  0
LINE
  5
35D
100
AcDbEntity
  8
0
100
AcDbLine
 62
2
  6
CONTINUOUS
 10
13.2582556569
 20
2.5507823463
 11
13.2934226764
 21
2.5507823463
  0
ARC
  5
35E
100
AcDbEntity
  8
0
100
AcDbCircle
 62
2
  6
CONTINUOUS
 10
13.2934226783
 20
2.5483073467
 40
0.0024749995
100
AcDbArc
 50
359.9999571957
 51
90.0000428043
  0
LINE
  5
35F
100
AcDbEntity
  8
0
100
AcDbLine
 62
2
  6
CONTINUOUS
 10
13.2958976778
 20
2.5483073449
 11
13.2958976778
 21
2.5349523375
  0
ARC
  5
360
100
AcDbEntity
  8
0
100
AcDbCircle
 62
2
  6
CONTINUOUS
 10
13.2934226783
 20
2.5349523356
 40
0.0024749995
100
AcDbArc
 50
269.9999571957
 51
0.0000428042
  0
LINE
  5
361
100
AcDbEntity
  8
0
100
AcDbLine
 62
2
  6
CONTINUOUS
 10
13.7286871589
 20
2.5350697372
 11
13.7286871589
 21
2.5456869438
  0
LINE
  5
362
100
AcDbEntity
  8
0
100
AcDbLine
 62
2
  6
CONTINUOUS
 10
13.7086871478
 20
2.5004302075
 11
13.7086871478
 21
2.5803264735
  0
LINE
  5
363
100
AcDbEntity
  8
0
100
AcDbLine
 62
2
  6
CONTINUOUS
 10
13.6886871368
 20
2.4843919416
 11
13.6886871368
 21
2.5963647394
  0
LINE
  5
364
100
AcDbEntity
  8
0
100
AcDbLine
 62
2
  6
CONTINUOUS
 10
13.6686871257
 20
2.4726017898
 11
13.6686871257
 21
2.6081548911
  0
LINE
  5
365
100
AcDbEntity
  8
0
100
AcDbLine
 62
2
  6
CONTINUOUS
 10
13.6486871146
 20
2.4628062688
 11
13.6486871146
 21
2.6179504122
  0
LINE
  5
366
100
AcDbEntity
  8
0
100
AcDbLine
 62
2
  6
CONTINUOUS
 10
13.6286871035
 20
2.4541253507
 11
13.6286871035
 21
2.5062483056
  0
LINE
  5
367
100
AcDbEntity
  8
0
100
AcDbLine
 62
2
  6
CONTINUOUS
 10
13.6286871035
 20
2.5301143348
 11
13.6286871035
 21
2.6266313303
  0
LINE
  5
368
100
AcDbEntity
  8
0
100
AcDbLine
 62
2
  6
CONTINUOUS
 10
13.6086870924
 20
2.4465537903
 11
13.6086870924
 21
2.4918774918
  0
LINE
  5
369
100
AcDbEntity
  8
0
100
AcDbLine
 62
2
  6
CONTINUOUS
 10
13.6086870924
 20
2.5165781173
 11
13.6086870924
 21
2.6342028907
  0
LINE
  5
36A
100
AcDbEntity
  8
0
100
AcDbLine
 62
2
  6
CONTINUOUS
 10
13.5886870813
 20
2.4398033466
 11
13.5886870813
 21
2.4912273132
  0
LINE
  5
36B
100
AcDbEntity
  8
0
100
AcDbLine
 62
2
  6
CONTINUOUS
 10
13.5886870813
 20
2.5391840845
 11
13.5886870813
 21
2.5454298327
  0
LINE
  5
36C
100
AcDbEntity
  8
0
100
AcDbLine
 62
2
  6
CONTINUOUS
 10
13.5886870813
 20
2.5862063472
 11
13.5886870813
 21
2.6409533343
  0
LINE
  5
36D
100
AcDbEntity
  8
0
100
AcDbLine
 62
2
  6
CONTINUOUS
 10
13.5686870702
 20
2.4334702189
 11
13.5686870702
 21
2.4912273132
  0
LINE
  5
36E
100
AcDbEntity
  8
0
100
AcDbLine
 62
2
  6
CONTINUOUS
 10
13.5686870702
 20
2.5906587765
 11
13.5686870702
 21
2.647286462
  0
LINE
  5
36F
100
AcDbEntity
  8
0
100
AcDbLine
 62
2
  6
CONTINUOUS
 10
13.5486870591
 20
2.4278968124
 11
13.5486870591
 21
2.4937461006
  0
LINE
  5
370
100
AcDbEntity
  8
0
100
AcDbLine
 62
2
  6
CONTINUOUS
 10
13.5486870591
 20
2.5920323691
 11
13.5486870591
 21
2.6528598686
  0
LINE
  5
371
100
AcDbEntity
  8
0
100
AcDbLine
 62
2
  6
CONTINUOUS
 10
13.528687048
 20
2.4225427674
 11
13.528687048
 21
2.5270426993
  0
LINE
  5
372
100
AcDbEntity
  8
0
100
AcDbLine
 62
2
  6
CONTINUOUS
 10
13.528687048
 20
2.5505166259
 11
13.528687048
 21
2.5668657091
  0
LINE
  5
373
100
AcDbEntity
  8
0
100
AcDbLine
 62
2
  6
CONTINUOUS
 10
13.528687048
 20
2.5920323691
 11
13.528687048
 21
2.6582139136
  0
LINE
  5
374
100
AcDbEntity
  8
0
100
AcDbLine
 62
2
  6
CONTINUOUS
 10
13.5086870369
 20
2.4177306791
 11
13.5086870369
 21
2.4912273132
  0
LINE
  5
375
100
AcDbEntity
  8
0
100
AcDbLine
 62
2
  6
CONTINUOUS
 10
13.5086870369
 20
2.5159553269
 11
13.5086870369
 21
2.5306043351
  0
LINE
  5
376
100
AcDbEntity
  8
0
100
AcDbLine
 62
2
  6
CONTINUOUS
 10
13.5086870369
 20
2.5496073456
 11
13.5086870369
 21
2.5672823554
  0
LINE
  5
377
100
AcDbEntity
  8
0
100
AcDbLine
 62
2
  6
CONTINUOUS
 10
13.5086870369
 20
2.5920323691
 11
13.5086870369
 21
2.6630260019
  0
LINE
  5
378
100
AcDbEntity
  8
0
100
AcDbLine
 62
2
  6
CONTINUOUS
 10
13.4886870258
 20
2.4131795254
 11
13.4886870258
 21
2.4912273132
  0
LINE
  5
379
100
AcDbEntity
  8
0
100
AcDbLine
 62
2
  6
CONTINUOUS
 10
13.4886870258
 20
2.5159553269
 11
13.4886870258
 21
2.5306043351
  0
LINE
  5
37A
100
AcDbEntity
  8
0
100
AcDbLine
 62
2
  6
CONTINUOUS
 10
13.4886870258
 20
2.5496073456
 11
13.4886870258
 21
2.5672823554
  0
LINE
  5
37B
100
AcDbEntity
  8
0
100
AcDbLine
 62
2
  6
CONTINUOUS
 10
13.4886870258
 20
2.5920323691
 11
13.4886870258
 21
2.6675771555
  0
LINE
  5
37C
100
AcDbEntity
  8
0
100
AcDbLine
 62
2
  6
CONTINUOUS
 10
13.4686870147
 20
2.4088819672
 11
13.4686870147
 21
2.4912273132
  0
LINE
  5
37D
100
AcDbEntity
  8
0
100
AcDbLine
 62
2
  6
CONTINUOUS
 10
13.4686870147
 20
2.5920323691
 11
13.4686870147
 21
2.6718747138
  0
LINE
  5
37E
100
AcDbEntity
  8
0
100
AcDbLine
 62
2
  6
CONTINUOUS
 10
13.4486870037
 20
2.4050092072
 11
13.4486870037
 21
2.4912273132
  0
LINE
  5
37F
100
AcDbEntity
  8
0
100
AcDbLine
 62
2
  6
CONTINUOUS
 10
13.4486870037
 20
2.5920323691
 11
13.4486870037
 21
2.6757474738
  0
LINE
  5
380
100
AcDbEntity
  8
0
100
AcDbLine
 62
2
  6
CONTINUOUS
 10
13.4286869926
 20
2.4011364471
 11
13.4286869926
 21
2.4912273132
  0
LINE
  5
381
100
AcDbEntity
  8
0
100
AcDbLine
 62
2
  6
CONTINUOUS
 10
13.4286869926
 20
2.5920323691
 11
13.4286869926
 21
2.6796202339
  0
LINE
  5
382
100
AcDbEntity
  8
0
100
AcDbLine
 62
2
  6
CONTINUOUS
 10
13.4086869815
 20
2.3980226662
 11
13.4086869815
 21
2.4912273132
  0
LINE
  5
383
100
AcDbEntity
  8
0
100
AcDbLine
 62
2
  6
CONTINUOUS
 10
13.4086869815
 20
2.515977327
 11
13.4086869815
 21
2.5672823554
  0
LINE
  5
384
100
AcDbEntity
  8
0
100
AcDbLine
 62
2
  6
CONTINUOUS
 10
13.4086869815
 20
2.5920323691
 11
13.4086869815
 21
2.6827340148
  0
LINE
  5
385
100
AcDbEntity
  8
0
100
AcDbLine
 62
2
  6
CONTINUOUS
 10
13.3886869704
 20
2.3950052774
 11
13.3886869704
 21
2.6857514036
  0
LINE
  5
386
100
AcDbEntity
  8
0
100
AcDbLine
 62
2
  6
CONTINUOUS
 10
13.3686869593
 20
2.3919878885
 11
13.3686869593
 21
2.4912273132
  0
LINE
  5
387
100
AcDbEntity
  8
0
100
AcDbLine
 62
2
  6
CONTINUOUS
 10
13.3686869593
 20
2.5291773343
 11
13.3686869593
 21
2.5540823481
  0
LINE
  5
388
100
AcDbEntity
  8
0
100
AcDbLine
 62
2
  6
CONTINUOUS
 10
13.3686869593
 20
2.5920323691
 11
13.3686869593
 21
2.6887687924
  0
LINE
  5
389
100
AcDbEntity
  8
0
100
AcDbLine
 62
2
  6
CONTINUOUS
 10
13.3486869482
 20
2.3889704997
 11
13.3486869482
 21
2.4912273132
  0
LINE
  5
38A
100
AcDbEntity
  8
0
100
AcDbLine
 62
2
  6
CONTINUOUS
 10
13.3486869482
 20
2.5291773343
 11
13.3486869482
 21
2.5540823481
  0
LINE
  5
38B
100
AcDbEntity
  8
0
100
AcDbLine
 62
2
  6
CONTINUOUS
 10
13.3486869482
 20
2.5920323691
 11
13.3486869482
 21
2.6917861813
  0
LINE
  5
38C
100
AcDbEntity
  8
0
100
AcDbLine
 62
2
  6
CONTINUOUS
 10
13.3286869371
 20
2.3859531109
 11
13.3286869371
 21
2.4912273132
  0
LINE
  5
38D
100
AcDbEntity
  8
0
100
AcDbLine
 62
2
  6
CONTINUOUS
 10
13.3286869371
 20
2.5291773343
 11
13.3286869371
 21
2.5540823481
  0
LINE
  5
38E
100
AcDbEntity
  8
0
100
AcDbLine
 62
2
  6
CONTINUOUS
 10
13.3286869371
 20
2.5920323691
 11
13.3286869371
 21
2.6948035701
  0
LINE
  5
38F
100
AcDbEntity
  8
0
100
AcDbLine
 62
2
  6
CONTINUOUS
 10
13.308686926
 20
2.3833355437
 11
13.308686926
 21
2.4912273132
  0
LINE
  5
390
100
AcDbEntity
  8
0
100
AcDbLine
 62
2
  6
CONTINUOUS
 10
13.308686926
 20
2.515977327
 11
13.308686926
 21
2.5672823554
  0
LINE
  5
391
100
AcDbEntity
  8
0
100
AcDbLine
 62
2
  6
CONTINUOUS
 10
13.308686926
 20
2.5920323691
 11
13.308686926
 21
2.6974211373
  0
LINE
  5
392
100
AcDbEntity
  8
0
100
AcDbLine
 62
2
  6
CONTINUOUS
 10
13.2886869149
 20
2.3812612684
 11
13.2886869149
 21
2.4912273132
  0
LINE
  5
393
100
AcDbEntity
  8
0
100
AcDbLine
 62
2
  6
CONTINUOUS
 10
13.2886869149
 20
2.515977327
 11
13.2886869149
 21
2.5324773361
  0
LINE
  5
394
100
AcDbEntity
  8
0
100
AcDbLine
 62
2
  6
CONTINUOUS
 10
13.2886869149
 20
2.5507823463
 11
13.2886869149
 21
2.5672823554
  0
LINE
  5
395
100
AcDbEntity
  8
0
100
AcDbLine
 62
2
  6
CONTINUOUS
 10
13.2886869149
 20
2.5920323691
 11
13.2886869149
 21
2.6994954125
  0
LINE
  5
396
100
AcDbEntity
  8
0
100
AcDbLine
 62
2
  6
CONTINUOUS
 10
13.2686869038
 20
2.3791869932
 11
13.2686869038
 21
2.4912273132
  0
LINE
  5
397
100
AcDbEntity
  8
0
100
AcDbLine
 62
2
  6
CONTINUOUS
 10
13.2686869038
 20
2.515977327
 11
13.2686869038
 21
2.5324773361
  0
LINE
  5
398
100
AcDbEntity
  8
0
100
AcDbLine
 62
2
  6
CONTINUOUS
 10
13.2686869038
 20
2.5507823463
 11
13.2686869038
 21
2.5672823554
  0
LINE
  5
399
100
AcDbEntity
  8
0
100
AcDbLine
 62
2
  6
CONTINUOUS
 10
13.2686869038
 20
2.5920323691
 11
13.2686869038
 21
2.7015696878
  0
LINE
  5
39A
100
AcDbEntity
  8
0
100
AcDbLine
 62
2
  6
CONTINUOUS
 10
13.2486868927
 20
2.377112718
 11
13.2486868927
 21
2.4912273132
  0
LINE
  5
39B
100
AcDbEntity
  8
0
100
AcDbLine
 62
2
  6
CONTINUOUS
 10
13.2486868927
 20
2.5920323691
 11
13.2486868927
 21
2.703643963
  0
LINE
  5
39C
100
AcDbEntity
  8
0
100
AcDbLine
 62
2
  6
CONTINUOUS
 10
13.2286868817
 20
2.3750384428
 11
13.2286868817
 21
2.4912273132
  0
LINE
  5
39D
100
AcDbEntity
  8
0
100
AcDbLine
 62
2
  6
CONTINUOUS
 10
13.2286868817
 20
2.5920323691
 11
13.2286868817
 21
2.7057182382
  0
LINE
  5
39E
100
AcDbEntity
  8
0
100
AcDbLine
 62
2
  6
CONTINUOUS
 10
13.2086868706
 20
2.3729641676
 11
13.2086868706
 21
2.4912273132
  0
LINE
  5
39F
100
AcDbEntity
  8
0
100
AcDbLine
 62
2
  6
CONTINUOUS
 10
13.2086868706
 20
2.5920323691
 11
13.2086868706
 21
2.7077925134
  0
LINE
  5
3A0
100
AcDbEntity
  8
0
100
AcDbLine
 62
2
  6
CONTINUOUS
 10
13.1886868595
 20
2.3712344456
 11
13.1886868595
 21
2.4912273132
  0
LINE
  5
3A1
100
AcDbEntity
  8
0
100
AcDbLine
 62
2
  6
CONTINUOUS
 10
13.1886868595
 20
2.515977327
 11
13.1886868595
 21
2.5672823554
  0
LINE
  5
3A2
100
AcDbEntity
  8
0
100
AcDbLine
 62
2
  6
CONTINUOUS
 10
13.1886868595
 20
2.5920323691
 11
13.1886868595
 21
2.7095222354
  0
LINE
  5
3A3
100
AcDbEntity
  8
0
100
AcDbLine
 62
2
  6
CONTINUOUS
 10
13.1686868484
 20
2.3699682418
 11
13.1686868484
 21
2.4912273132
  0
LINE
  5
3A4
100
AcDbEntity
  8
0
100
AcDbLine
 62
2
  6
CONTINUOUS
 10
13.1686868484
 20
2.515977327
 11
13.1686868484
 21
2.5672823554
  0
LINE
  5
3A5
100
AcDbEntity
  8
0
100
AcDbLine
 62
2
  6
CONTINUOUS
 10
13.1686868484
 20
2.5920323691
 11
13.1686868484
 21
2.7107884392
  0
LINE
  5
3A6
100
AcDbEntity
  8
0
100
AcDbLine
 62
2
  6
CONTINUOUS
 10
13.1486868373
 20
2.3687020381
 11
13.1486868373
 21
2.7120546429
  0
LINE
  5
3A7
100
AcDbEntity
  8
0
100
AcDbLine
 62
2
  6
CONTINUOUS
 10
13.1286868262
 20
2.3674358343
 11
13.1286868262
 21
2.5672823554
  0
LINE
  5
3A8
100
AcDbEntity
  8
0
100
AcDbLine
 62
2
  6
CONTINUOUS
 10
13.1286868262
 20
2.5920323691
 11
13.1286868262
 21
2.7133208466
  0
LINE
  5
3A9
100
AcDbEntity
  8
0
100
AcDbLine
 62
2
  6
CONTINUOUS
 10
13.1086868151
 20
2.3661696306
 11
13.1086868151
 21
2.4912273132
  0
LINE
  5
3AA
100
AcDbEntity
  8
0
100
AcDbLine
 62
2
  6
CONTINUOUS
 10
13.1086868151
 20
2.5920323691
 11
13.1086868151
 21
2.7145870504
  0
LINE
  5
3AB
100
AcDbEntity
  8
0
100
AcDbLine
 62
2
  6
CONTINUOUS
 10
13.088686804
 20
2.3649034269
 11
13.088686804
 21
2.4912273132
  0
LINE
  5
3AC
100
AcDbEntity
  8
0
100
AcDbLine
 62
2
  6
CONTINUOUS
 10
13.088686804
 20
2.5920323691
 11
13.088686804
 21
2.7158532541
  0
LINE
  5
3AD
100
AcDbEntity
  8
0
100
AcDbLine
 62
2
  6
CONTINUOUS
 10
13.0686867929
 20
2.3636739922
 11
13.0686867929
 21
2.4912273132
  0
LINE
  5
3AE
100
AcDbEntity
  8
0
100
AcDbLine
 62
2
  6
CONTINUOUS
 10
13.0686867929
 20
2.5475272398
 11
13.0686867929
 21
2.5672823554
  0
LINE
  5
3AF
100
AcDbEntity
  8
0
100
AcDbLine
 62
2
  6
CONTINUOUS
 10
13.0686867929
 20
2.5920323691
 11
13.0686867929
 21
2.7170826887
  0
LINE
  5
3B0
100
AcDbEntity
  8
0
100
AcDbLine
 62
2
  6
CONTINUOUS
 10
13.0486867818
 20
2.363143203
 11
13.0486867818
 21
2.4912273132
  0
LINE
  5
3B1
100
AcDbEntity
  8
0
100
AcDbLine
 62
2
  6
CONTINUOUS
 10
13.0486867818
 20
2.5666100882
 11
13.0486867818
 21
2.717613478
  0
LINE
  5
3B2
100
AcDbEntity
  8
0
100
AcDbLine
 62
2
  6
CONTINUOUS
 10
13.0286867707
 20
2.3626124138
 11
13.0286867707
 21
2.50359263
  0
LINE
  5
3B3
100
AcDbEntity
  8
0
100
AcDbLine
 62
2
  6
CONTINUOUS
 10
13.0286867707
 20
2.5856929366
 11
13.0286867707
 21
2.7181442672
  0
LINE
  5
3B4
100
AcDbEntity
  8
0
100
AcDbLine
 62
2
  6
CONTINUOUS
 10
13.0086867596
 20
2.3620816246
 11
13.0086867596
 21
2.5226754472
  0
LINE
  5
3B5
100
AcDbEntity
  8
0
100
AcDbLine
 62
2
  6
CONTINUOUS
 10
13.0086867596
 20
2.5920323691
 11
13.0086867596
 21
2.7186750564
  0
LINE
  5
3B6
100
AcDbEntity
  8
0
100
AcDbLine
 62
2
  6
CONTINUOUS
 10
12.9886867486
 20
2.3615508354
 11
12.9886867486
 21
2.4912273132
  0
LINE
  5
3B7
100
AcDbEntity
  8
0
100
AcDbLine
 62
2
  6
CONTINUOUS
 10
12.9886867486
 20
2.515977327
 11
12.9886867486
 21
2.5417582644
  0
LINE
  5
3B8
100
AcDbEntity
  8
0
100
AcDbLine
 62
2
  6
CONTINUOUS
 10
12.9886867486
 20
2.5920323691
 11
12.9886867486
 21
2.7192058456
  0
LINE
  5
3B9
100
AcDbEntity
  8
0
100
AcDbLine
 62
2
  6
CONTINUOUS
 10
12.9686867375
 20
2.3610200462
 11
12.9686867375
 21
2.4912273132
  0
LINE
  5
3BA
100
AcDbEntity
  8
0
100
AcDbLine
 62
2
  6
CONTINUOUS
 10
12.9686867375
 20
2.5920323691
 11
12.9686867375
 21
2.7197366348
  0
LINE
  5
3BB
100
AcDbEntity
  8
0
100
AcDbLine
 62
2
  6
CONTINUOUS
 10
12.9486867264
 20
2.360489257
 11
12.9486867264
 21
2.4912273132
  0
LINE
  5
3BC
100
AcDbEntity
  8
0
100
AcDbLine
 62
2
  6
CONTINUOUS
 10
12.9486867264
 20
2.5920323691
 11
12.9486867264
 21
2.720267424
  0
LINE
  5
3BD
100
AcDbEntity
  8
0
100
AcDbLine
 62
2
  6
CONTINUOUS
 10
12.9286867153
 20
2.3602836008
 11
12.9286867153
 21
2.4912273132
  0
LINE
  5
3BE
100
AcDbEntity
  8
0
100
AcDbLine
 62
2
  6
CONTINUOUS
 10
12.9286867153
 20
2.515977327
 11
12.9286867153
 21
2.5672823554
  0
LINE
  5
3BF
100
AcDbEntity
  8
0
100
AcDbLine
 62
2
  6
CONTINUOUS
 10
12.9286867153
 20
2.5920323691
 11
12.9286867153
 21
2.7204730802
  0
LINE
  5
3C0
100
AcDbEntity
  8
0
100
AcDbLine
 62
2
  6
CONTINUOUS
 10
12.9086867042
 20
2.3604597639
 11
12.9086867042
 21
2.7202969171
  0
LINE
  5
3C1
100
AcDbEntity
  8
0
100
AcDbLine
 62
2
  6
CONTINUOUS
 10
12.8886866931
 20
2.360635927
 11
12.8886866931
 21
2.5672823554
  0
LINE
  5
3C2
100
AcDbEntity
  8
0
100
AcDbLine
 62
2
  6
CONTINUOUS
 10
12.8886866931
 20
2.5920323691
 11
12.8886866931
 21
2.720120754
  0
LINE
  5
3C3
100
AcDbEntity
  8
0
100
AcDbLine
 62
2
  6
CONTINUOUS
 10
12.868686682
 20
2.3608120901
 11
12.868686682
 21
2.491232357
  0
LINE
  5
3C4
100
AcDbEntity
  8
0
100
AcDbLine
 62
2
  6
CONTINUOUS
 10
12.868686682
 20
2.5920323691
 11
12.868686682
 21
2.7199445909
  0
LINE
  5
3C5
100
AcDbEntity
  8
0
100
AcDbLine
 62
2
  6
CONTINUOUS
 10
12.8486866709
 20
2.3609882532
 11
12.8486866709
 21
2.4912273132
  0
LINE
  5
3C6
100
AcDbEntity
  8
0
100
AcDbLine
 62
2
  6
CONTINUOUS
 10
12.8486866709
 20
2.5920323691
 11
12.8486866709
 21
2.7197684278
  0
LINE
  5
3C7
100
AcDbEntity
  8
0
100
AcDbLine
 62
2
  6
CONTINUOUS
 10
12.8286866598
 20
2.3611644163
 11
12.8286866598
 21
2.4912273132
  0
LINE
  5
3C8
100
AcDbEntity
  8
0
100
AcDbLine
 62
2
  6
CONTINUOUS
 10
12.8286866598
 20
2.5396527025
 11
12.8286866598
 21
2.5672823554
  0
LINE
  5
3C9
100
AcDbEntity
  8
0
100
AcDbLine
 62
2
  6
CONTINUOUS
 10
12.8286866598
 20
2.5920323691
 11
12.8286866598
 21
2.7195922647
  0
LINE
  5
3CA
100
AcDbEntity
  8
0
100
AcDbLine
 62
2
  6
CONTINUOUS
 10
12.8086866487
 20
2.3613405794
 11
12.8086866487
 21
2.4912273132
  0
LINE
  5
3CB
100
AcDbEntity
  8
0
100
AcDbLine
 62
2
  6
CONTINUOUS
 10
12.8086866487
 20
2.5587355508
 11
12.8086866487
 21
2.7194161016
  0
LINE
  5
3CC
100
AcDbEntity
  8
0
100
AcDbLine
 62
2
  6
CONTINUOUS
 10
12.7886866376
 20
2.3621089572
 11
12.7886866376
 21
2.4957181055
  0
LINE
  5
3CD
100
AcDbEntity
  8
0
100
AcDbLine
 62
2
  6
CONTINUOUS
 10
12.7886866376
 20
2.5778183992
 11
12.7886866376
 21
2.7186477238
  0
LINE
  5
3CE
100
AcDbEntity
  8
0
100
AcDbLine
 62
2
  6
CONTINUOUS
 10
12.7686866266
 20
2.3630013935
 11
12.7686866266
 21
2.5148009227
  0
LINE
  5
3CF
100
AcDbEntity
  8
0
100
AcDbLine
 62
2
  6
CONTINUOUS
 10
12.7686866266
 20
2.5920323691
 11
12.7686866266
 21
2.7177552874
  0
LINE
  5
3D0
100
AcDbEntity
  8
0
100
AcDbLine
 62
2
  6
CONTINUOUS
 10
12.7486866155
 20
2.3638938299
 11
12.7486866155
 21
2.4913263218
  0
LINE
  5
3D1
100
AcDbEntity
  8
0
100
AcDbLine
 62
2
  6
CONTINUOUS
 10
12.7486866155
 20
2.5158783184
 11
12.7486866155
 21
2.5338837399
  0
LINE
  5
3D2
100
AcDbEntity
  8
0
100
AcDbLine
 62
2
  6
CONTINUOUS
 10
12.7486866155
 20
2.5920323691
 11
12.7486866155
 21
2.7168628511
  0
LINE
  5
3D3
100
AcDbEntity
  8
0
100
AcDbLine
 62
2
  6
CONTINUOUS
 10
12.7286866044
 20
2.3647862663
 11
12.7286866044
 21
2.4912273132
  0
LINE
  5
3D4
100
AcDbEntity
  8
0
100
AcDbLine
 62
2
  6
CONTINUOUS
 10
12.7286866044
 20
2.515977327
 11
12.7286866044
 21
2.5527601554
  0
LINE
  5
3D5
100
AcDbEntity
  8
0
100
AcDbLine
 62
2
  6
CONTINUOUS
 10
12.7286866044
 20
2.5920323691
 11
12.7286866044
 21
2.7159704147
  0
LINE
  5
3D6
100
AcDbEntity
  8
0
100
AcDbLine
 62
2
  6
CONTINUOUS
 10
12.7086865933
 20
2.3656787026
 11
12.7086865933
 21
2.4912273132
  0
LINE
  5
3D7
100
AcDbEntity
  8
0
100
AcDbLine
 62
2
  6
CONTINUOUS
 10
12.7086865933
 20
2.5920323691
 11
12.7086865933
 21
2.7150779784
  0
LINE
  5
3D8
100
AcDbEntity
  8
0
100
AcDbLine
 62
2
  6
CONTINUOUS
 10
12.6886865822
 20
2.366571139
 11
12.6886865822
 21
2.4912273132
  0
LINE
  5
3D9
100
AcDbEntity
  8
0
100
AcDbLine
 62
2
  6
CONTINUOUS
 10
12.6886865822
 20
2.515977327
 11
12.6886865822
 21
2.5672823554
  0
LINE
  5
3DA
100
AcDbEntity
  8
0
100
AcDbLine
 62
2
  6
CONTINUOUS
 10
12.6886865822
 20
2.5920323691
 11
12.6886865822
 21
2.714185542
  0
LINE
  5
3DB
100
AcDbEntity
  8
0
100
AcDbLine
 62
2
  6
CONTINUOUS
 10
12.6686865711
 20
2.3677104027
 11
12.6686865711
 21
2.7130462783
  0
LINE
  5
3DC
100
AcDbEntity
  8
0
100
AcDbLine
 62
2
  6
CONTINUOUS
 10
12.64868656
 20
2.3693682721
 11
12.64868656
 21
2.7113884089
  0
LINE
  5
3DD
100
AcDbEntity
  8
0
100
AcDbLine
 62
2
  6
CONTINUOUS
 10
12.6286865489
 20
2.3710261415
 11
12.6286865489
 21
2.4912273132
  0
LINE
  5
3DE
100
AcDbEntity
  8
0
100
AcDbLine
 62
2
  6
CONTINUOUS
 10
12.6286865489
 20
2.515977327
 11
12.6286865489
 21
2.7097305395
  0
LINE
  5
3DF
100
AcDbEntity
  8
0
100
AcDbLine
 62
2
  6
CONTINUOUS
 10
12.6086865378
 20
2.372684011
 11
12.6086865378
 21
2.4912273132
  0
LINE
  5
3E0
100
AcDbEntity
  8
0
100
AcDbLine
 62
2
  6
CONTINUOUS
 10
12.6086865378
 20
2.5351122279
 11
12.6086865378
 21
2.70807267
  0
LINE
  5
3E1
100
AcDbEntity
  8
0
100
AcDbLine
 62
2
  6
CONTINUOUS
 10
12.5886865267
 20
2.3743418804
 11
12.5886865267
 21
2.4912273132
  0
LINE
  5
3E2
100
AcDbEntity
  8
0
100
AcDbLine
 62
2
  6
CONTINUOUS
 10
12.5886865267
 20
2.5660172622
 11
12.5886865267
 21
2.7064148006
  0
LINE
  5
3E3
100
AcDbEntity
  8
0
100
AcDbLine
 62
2
  6
CONTINUOUS
 10
12.5686865156
 20
2.3759997498
 11
12.5686865156
 21
2.4912273132
  0
LINE
  5
3E4
100
AcDbEntity
  8
0
100
AcDbLine
 62
2
  6
CONTINUOUS
 10
12.5686865156
 20
2.5920323691
 11
12.5686865156
 21
2.7047569312
  0
LINE
  5
3E5
100
AcDbEntity
  8
0
100
AcDbLine
 62
2
  6
CONTINUOUS
 10
12.5486865045
 20
2.3777575277
 11
12.5486865045
 21
2.4912273132
  0
LINE
  5
3E6
100
AcDbEntity
  8
0
100
AcDbLine
 62
2
  6
CONTINUOUS
 10
12.5486865045
 20
2.515977327
 11
12.5486865045
 21
2.5275118824
  0
LINE
  5
3E7
100
AcDbEntity
  8
0
100
AcDbLine
 62
2
  6
CONTINUOUS
 10
12.5486865045
 20
2.5920323691
 11
12.5486865045
 21
2.7029991533
  0
LINE
  5
3E8
100
AcDbEntity
  8
0
100
AcDbLine
 62
2
  6
CONTINUOUS
 10
12.5286864935
 20
2.3802813811
 11
12.5286864935
 21
2.5296213345
  0
LINE
  5
3E9
100
AcDbEntity
  8
0
100
AcDbLine
 62
2
  6
CONTINUOUS
 10
12.5286864935
 20
2.5505713461
 11
12.5286864935
 21
2.5667383551
  0
LINE
  5
3EA
100
AcDbEntity
  8
0
100
AcDbLine
 62
2
  6
CONTINUOUS
 10
12.5286864935
 20
2.5920323691
 11
12.5286864935
 21
2.7004752999
  0
LINE
  5
3EB
100
AcDbEntity
  8
0
100
AcDbLine
 62
2
  6
CONTINUOUS
 10
12.5086864824
 20
2.3828052346
 11
12.5086864824
 21
2.4912273132
  0
LINE
  5
3EC
100
AcDbEntity
  8
0
100
AcDbLine
 62
2
  6
CONTINUOUS
 10
12.5086864824
 20
2.515977327
 11
12.5086864824
 21
2.5279667721
  0
LINE
  5
3ED
100
AcDbEntity
  8
0
100
AcDbLine
 62
2
  6
CONTINUOUS
 10
12.5086864824
 20
2.5868602074
 11
12.5086864824
 21
2.6979514464
  0
LINE
  5
3EE
100
AcDbEntity
  8
0
100
AcDbLine
 62
2
  6
CONTINUOUS
 10
12.4886864713
 20
2.385329088
 11
12.4886864713
 21
2.4912273132
  0
LINE
  5
3EF
100
AcDbEntity
  8
0
100
AcDbLine
 62
2
  6
CONTINUOUS
 10
12.4886864713
 20
2.5553401045
 11
12.4886864713
 21
2.695427593
  0
LINE
  5
3F0
100
AcDbEntity
  8
0
100
AcDbLine
 62
2
  6
CONTINUOUS
 10
12.4686864602
 20
2.3878529415
 11
12.4686864602
 21
2.4912273132
  0
LINE
  5
3F1
100
AcDbEntity
  8
0
100
AcDbLine
 62
2
  6
CONTINUOUS
 10
12.4686864602
 20
2.5238200015
 11
12.4686864602
 21
2.6929037395
  0
LINE
  5
3F2
100
AcDbEntity
  8
0
100
AcDbLine
 62
2
  6
CONTINUOUS
 10
12.4486864491
 20
2.390376795
 11
12.4486864491
 21
2.4912273132
  0
LINE
  5
3F3
100
AcDbEntity
  8
0
100
AcDbLine
 62
2
  6
CONTINUOUS
 10
12.4486864491
 20
2.515977327
 11
12.4486864491
 21
2.690379886
  0
LINE
  5
3F4
100
AcDbEntity
  8
0
100
AcDbLine
 62
2
  6
CONTINUOUS
 10
12.428686438
 20
2.3931794042
 11
12.428686438
 21
2.6875772768
  0
LINE
  5
3F5
100
AcDbEntity
  8
0
100
AcDbLine
 62
2
  6
CONTINUOUS
 10
12.4086864269
 20
2.3964643301
 11
12.4086864269
 21
2.5013773986
  0
LINE
  5
3F6
100
AcDbEntity
  8
0
100
AcDbLine
 62
2
  6
CONTINUOUS
 10
12.4086864269
 20
2.5325739971
 11
12.4086864269
 21
2.5537224311
  0
LINE
  5
3F7
100
AcDbEntity
  8
0
100
AcDbLine
 62
2
  6
CONTINUOUS
 10
12.4086864269
 20
2.5791473398
 11
12.4086864269
 21
2.6842923509
  0
LINE
  5
3F8
100
AcDbEntity
  8
0
100
AcDbLine
 62
2
  6
CONTINUOUS
 10
12.3886864158
 20
2.399749256
 11
12.3886864158
 21
2.4921022658
  0
LINE
  5
3F9
100
AcDbEntity
  8
0
100
AcDbLine
 62
2
  6
CONTINUOUS
 10
12.3886864158
 20
2.5895929958
 11
12.3886864158
 21
2.681007425
  0
LINE
  5
3FA
100
AcDbEntity
  8
0
100
AcDbLine
 62
2
  6
CONTINUOUS
 10
12.3686864047
 20
2.403451877
 11
12.3686864047
 21
2.4912273132
  0
LINE
  5
3FB
100
AcDbEntity
  8
0
100
AcDbLine
 62
2
  6
CONTINUOUS
 10
12.3686864047
 20
2.5920323691
 11
12.3686864047
 21
2.677304804
  0
LINE
  5
3FC
100
AcDbEntity
  8
0
100
AcDbLine
 62
2
  6
CONTINUOUS
 10
12.3486863936
 20
2.407324637
 11
12.3486863936
 21
2.4912273132
  0
LINE
  5
3FD
100
AcDbEntity
  8
0
100
AcDbLine
 62
2
  6
CONTINUOUS
 10
12.3486863936
 20
2.5920323691
 11
12.3486863936
 21
2.673432044
  0
LINE
  5
3FE
100
AcDbEntity
  8
0
100
AcDbLine
 62
2
  6
CONTINUOUS
 10
12.3286863825
 20
2.4113493968
 11
12.3286863825
 21
2.4912273132
  0
LINE
  5
3FF
100
AcDbEntity
  8
0
100
AcDbLine
 62
2
  6
CONTINUOUS
 10
12.3286863825
 20
2.515977327
 11
12.3286863825
 21
2.5333023366
  0
LINE
  5
400
100
AcDbEntity
  8
0
100
AcDbLine
 62
2
  6
CONTINUOUS
 10
12.3286863825
 20
2.5499573458
 11
12.3286863825
 21
2.5672823554
  0
LINE
  5
401
100
AcDbEntity
  8
0
100
AcDbLine
 62
2
  6
CONTINUOUS
 10
12.3286863825
 20
2.5920323691
 11
12.3286863825
 21
2.6694072842
  0
LINE
  5
402
100
AcDbEntity
  8
0
100
AcDbLine
 62
2
  6
CONTINUOUS
 10
12.3086863715
 20
2.4159005505
 11
12.3086863715
 21
2.4912273132
  0
LINE
  5
403
100
AcDbEntity
  8
0
100
AcDbLine
 62
2
  6
CONTINUOUS
 10
12.3086863715
 20
2.515977327
 11
12.3086863715
 21
2.5333023366
  0
LINE
  5
404
100
AcDbEntity
  8
0
100
AcDbLine
 62
2
  6
CONTINUOUS
 10
12.3086863715
 20
2.5499573458
 11
12.3086863715
 21
2.5672823554
  0
LINE
  5
405
100
AcDbEntity
  8
0
100
AcDbLine
 62
2
  6
CONTINUOUS
 10
12.3086863715
 20
2.5920323691
 11
12.3086863715
 21
2.6648561305
  0
LINE
  5
406
100
AcDbEntity
  8
0
100
AcDbLine
 62
2
  6
CONTINUOUS
 10
12.2886863604
 20
2.4204517041
 11
12.2886863604
 21
2.4912273132
  0
LINE
  5
407
100
AcDbEntity
  8
0
100
AcDbLine
 62
2
  6
CONTINUOUS
 10
12.2886863604
 20
2.5920323691
 11
12.2886863604
 21
2.6603049769
  0
LINE
  5
408
100
AcDbEntity
  8
0
100
AcDbLine
 62
2
  6
CONTINUOUS
 10
12.2686863493
 20
2.4257438218
 11
12.2686863493
 21
2.4912273132
  0
LINE
  5
409
100
AcDbEntity
  8
0
100
AcDbLine
 62
2
  6
CONTINUOUS
 10
12.2686863493
 20
2.5920323691
 11
12.2686863493
 21
2.6550128592
  0
LINE
  5
40A
100
AcDbEntity
  8
0
100
AcDbLine
 62
2
  6
CONTINUOUS
 10
12.2486863382
 20
2.4310978667
 11
12.2486863382
 21
2.4912273132
  0
LINE
  5
40B
100
AcDbEntity
  8
0
100
AcDbLine
 62
2
  6
CONTINUOUS
 10
12.2486863382
 20
2.5920323691
 11
12.2486863382
 21
2.6496588142
  0
LINE
  5
40C
100
AcDbEntity
  8
0
100
AcDbLine
 62
2
  6
CONTINUOUS
 10
12.2286863271
 20
2.4372566433
 11
12.2286863271
 21
2.4912273132
  0
LINE
  5
40D
100
AcDbEntity
  8
0
100
AcDbLine
 62
2
  6
CONTINUOUS
 10
12.2286863271
 20
2.515977327
 11
12.2286863271
 21
2.5672823554
  0
LINE
  5
40E
100
AcDbEntity
  8
0
100
AcDbLine
 62
2
  6
CONTINUOUS
 10
12.2286863271
 20
2.5920323691
 11
12.2286863271
 21
2.6435000377
  0
LINE
  5
40F
100
AcDbEntity
  8
0
100
AcDbLine
 62
2
  6
CONTINUOUS
 10
12.208686316
 20
2.443589771
 11
12.208686316
 21
2.4912273132
  0
LINE
  5
410
100
AcDbEntity
  8
0
100
AcDbLine
 62
2
  6
CONTINUOUS
 10
12.208686316
 20
2.515977327
 11
12.208686316
 21
2.5672823554
  0
LINE
  5
411
100
AcDbEntity
  8
0
100
AcDbLine
 62
2
  6
CONTINUOUS
 10
12.208686316
 20
2.5920323691
 11
12.208686316
 21
2.63716691
  0
LINE
  5
412
100
AcDbEntity
  8
0
100
AcDbLine
 62
2
  6
CONTINUOUS
 10
12.1886863049
 20
2.4510806436
 11
12.1886863049
 21
2.6296760373
  0
LINE
  5
413
100
AcDbEntity
  8
0
100
AcDbLine
 62
2
  6
CONTINUOUS
 10
12.1686862938
 20
2.4591016523
 11
12.1686862938
 21
2.6216550287
  0
LINE
  5
414
100
AcDbEntity
  8
0
100
AcDbLine
 62
2
  6
CONTINUOUS
 10
12.1486862827
 20
2.468314272
 11
12.1486862827
 21
2.612442409
  0
LINE
  5
415
100
AcDbEntity
  8
0
100
AcDbLine
 62
2
  6
CONTINUOUS
 10
12.1286862716
 20
2.4794932339
 11
12.1286862716
 21
2.601263447
  0
LINE
  5
416
100
AcDbEntity
  8
0
100
AcDbLine
 62
2
  6
CONTINUOUS
 10
12.1086862605
 20
2.4934150665
 11
12.1086862605
 21
2.5873416144
  0
LINE
  5
417
100
AcDbEntity
  8
0
100
AcDbLine
 62
2
  6
CONTINUOUS
 10
12.0886862494
 20
2.5144449553
 11
12.0886862494
 21
2.5663117257
  0
ENDBLK
  5
418
100
AcDbEntity
  8
0
  6
BYBLOCK
 62
0
100
AcDbBlockEnd
  0
BLOCK
  5
419
100
AcDbEntity
  8
0
100
AcDbBlockBegin
  2
_FILLED
 70
64
 10
0.0
 20
0.0
  3
_FILLED
  1

  0
SOLID
  5
41A
100
AcDbEntity
  8
0
  6
BYBLOCK
 62
0
100
AcDbTrace
 10
0.0
 20
0.0
 11
-1.0
 21
0.1666666667
 12
-1.0
 22
-0.1666666667
 13
-1.0
 23
-0.1666666667
  0
ENDBLK
  5
41B
100
AcDbEntity
  8
0
  6
BYBLOCK
 62
0
100
AcDbBlockEnd
  0
BLOCK
  5
41C
100
AcDbEntity
  8
SCHEME_DIMS
100
AcDbBlockBegin
 62
2
  6
CONTINUOUS
  2
*D0
 70
65
 10
0.0
 20
0.0
  3
*D0
  1

  0
MTEXT
  5
41D
100
AcDbEntity
  8
SCHEME_DIMS
100
AcDbMText
 62
2
  6
CONTINUOUS
  7
STANDARD
 71
2
 72
1
 10
4.35132088
 20
6.7403861885
 30
0.0
 11
1.0
 21
0.0
 31
0.0
 44
0.9
  1
26\P[1.03]
 40
0.1
 41
0.6
  0
LINE
  5
41E
100
AcDbEntity
  8
SCHEME_DIMS
100
AcDbLine
 62
2
  6
CONTINUOUS
 10
3.7965556982
 20
6.1027877633
 11
4.67632088
 21
6.1027877633
  0
LINE
  5
41F
100
AcDbEntity
  8
SCHEME_DIMS
100
AcDbLine
 62
2
  6
CONTINUOUS
 10
4.2261457375
 20
7.1279846137
 11
4.67632088
 21
7.1279846137
  0
LINE
  5
420
100
AcDbEntity
  8
SCHEME_DIMS
100
AcDbLine
 62
2
  6
CONTINUOUS
 10
4.55132088
 20
6.1027877633
 11
4.55132088
 21
6.3903861885
  0
LINE
  5
421
100
AcDbEntity
  8
SCHEME_DIMS
100
AcDbLine
 62
2
  6
CONTINUOUS
 10
4.55132088
 20
7.1279846137
 11
4.55132088
 21
6.8403861885
  0
INSERT
  5
422
100
AcDbEntity
  8
SCHEME_DIMS
100
AcDbBlockReference
 62
2
  6
CONTINUOUS
  2
_FILLED
 10
4.55132088
 20
6.1027877633
 41
0.1875
 42
0.1875
 43
0.1875
 50
270.0
  0
INSERT
  5
423
100
AcDbEntity
  8
SCHEME_DIMS
100
AcDbBlockReference
 62
2
  6
CONTINUOUS
  2
_FILLED
 10
4.55132088
 20
7.1279846137
 41
0.1875
 42
0.1875
 43
0.1875
 50
90.0
  0
ENDBLK
  5
424
100
AcDbEntity
  8
0
  6
BYBLOCK
 62
0
100
AcDbBlockEnd
  0
BLOCK
  5
425
100
AcDbEntity
  8
SCHEME_DIMS
100
AcDbBlockBegin
 62
2
  6
CONTINUOUS
  2
*D1
 70
65
 10
0.0
 20
0.0
  3
*D1
  1

  0
MTEXT
  5
426
100
AcDbEntity
  8
SCHEME_DIMS
100
AcDbMText
 62
2
  6
CONTINUOUS
  7
STANDARD
 71
2
 72
1
 10
5.1710923474
 20
7.0943818572
 30
0.0
 11
1.0
 21
0.0
 31
0.0
 44
0.9
  1
41,1\P[1.62]
 40
0.1
 41
0.6
  0
LINE
  5
427
100
AcDbEntity
  8
SCHEME_DIMS
100
AcDbLine
 62
2
  6
CONTINUOUS
 10
3.7965556982
 20
6.1027877633
 11
5.3960923474
 21
6.1027877633
  0
LINE
  5
428
100
AcDbEntity
  8
SCHEME_DIMS
100
AcDbLine
 62
2
  6
CONTINUOUS
 10
3.6337642136
 20
7.7189846137
 11
5.3960923474
 21
7.7189846137
  0
LINE
  5
429
100
AcDbEntity
  8
SCHEME_DIMS
100
AcDbLine
 62
2
  6
CONTINUOUS
 10
5.2710923474
 20
6.1027877633
 11
5.2710923474
 21
6.7443818572
  0
LINE
  5
42A
100
AcDbEntity
  8
SCHEME_DIMS
100
AcDbLine
 62
2
  6
CONTINUOUS
 10
5.2710923474
 20
7.7189846137
 11
5.2710923474
 21
7.1943818572
  0
INSERT
  5
42B
100
AcDbEntity
  8
SCHEME_DIMS
100
AcDbBlockReference
 62
2
  6
CONTINUOUS
  2
_FILLED
 10
5.2710923474
 20
6.1027877633
 41
0.1875
 42
0.1875
 43
0.1875
 50
270.0
  0
INSERT
  5
42C
100
AcDbEntity
  8
SCHEME_DIMS
100
AcDbBlockReference
 62
2
  6
CONTINUOUS
  2
_FILLED
 10
5.2710923474
 20
7.7189846137
 41
0.1875
 42
0.1875
 43
0.1875
 50
90.0
  0
ENDBLK
  5
42D
100
AcDbEntity
  8
0
  6
BYBLOCK
 62
0
100
AcDbBlockEnd
  0
BLOCK
  5
42E
100
AcDbEntity
  8
SCHEME_DIMS
100
AcDbBlockBegin
 62
2
  6
CONTINUOUS
  2
*D2
 70
65
 10
0.0
 20
0.0
  3
*D2
  1

  0
MTEXT
  5
42F
100
AcDbEntity
  8
SCHEME_DIMS
100
AcDbMText
 62
2
  6
CONTINUOUS
  7
STANDARD
 71
2
 72
1
 10
8.0708083593
 20
8.2689846137
 30
0.0
 11
1.0
 21
0.0
 31
0.0
 44
0.9
  1
15\P[.59]
 40
0.1
 41
0.5
  0
LINE
  5
430
100
AcDbEntity
  8
SCHEME_DIMS
100
AcDbLine
 62
2
  6
CONTINUOUS
 10
7.9255327687
 20
7.5238646842
 11
7.9255327687
 21
8.3439846137
  0
LINE
  5
431
100
AcDbEntity
  8
SCHEME_DIMS
100
AcDbLine
 62
2
  6
CONTINUOUS
 10
8.5160839498
 20
7.7561384147
 11
8.5160839498
 21
8.3439846137
  0
LINE
  5
432
100
AcDbEntity
  8
SCHEME_DIMS
100
AcDbLine
 62
2
  6
CONTINUOUS
 10
7.9255327687
 20
8.2189846137
 11
7.5255327687
 21
8.2189846137
  0
LINE
  5
433
100
AcDbEntity
  8
SCHEME_DIMS
100
AcDbLine
 62
2
  6
CONTINUOUS
 10
8.5160839498
 20
8.2189846137
 11
8.9160839498
 21
8.2189846137
  0
INSERT
  5
434
100
AcDbEntity
  8
SCHEME_DIMS
100
AcDbBlockReference
 62
2
  6
CONTINUOUS
  2
_FILLED
 10
7.9255327687
 20
8.2189846137
 41
0.1875
 42
0.1875
 43
0.1875
  0
INSERT
  5
435
100
AcDbEntity
  8
SCHEME_DIMS
100
AcDbBlockReference
 62
2
  6
CONTINUOUS
  2
_FILLED
 10
8.5160839498
 20
8.2189846137
 41
0.1875
 42
0.1875
 43
0.1875
 50
180.0
  0
ENDBLK
  5
436
100
AcDbEntity
  8
0
  6
BYBLOCK
 62
0
100
AcDbBlockEnd
  0
BLOCK
  5
437
100
AcDbEntity
  8
SCHEME_DIMS
100
AcDbBlockBegin
 62
2
  6
CONTINUOUS
  2
*D3
 70
65
 10
0.0
 20
0.0
  3
*D3
  1

  0
MTEXT
  5
438
100
AcDbEntity
  8
SCHEME_DIMS
100
AcDbMText
 62
2
  6
CONTINUOUS
  7
STANDARD
 71
2
 72
1
 10
8.3160839498
 20
8.7719179628
 30
0.0
 11
1.0
 21
0.0
 31
0.0
 44
0.9
  1
30\P[1.18]
 40
0.1
 41
0.6
  0
LINE
  5
439
100
AcDbEntity
  8
SCHEME_DIMS
100
AcDbLine
 62
2
  6
CONTINUOUS
 10
7.9255327687
 20
7.5172560062
 11
7.9255327687
 21
8.8469179628
  0
LINE
  5
43A
100
AcDbEntity
  8
SCHEME_DIMS
100
AcDbLine
 62
2
  6
CONTINUOUS
 10
9.1066351309
 20
7.7604735508
 11
9.1066351309
 21
8.8469179628
  0
LINE
  5
43B
100
AcDbEntity
  8
SCHEME_DIMS
100
AcDbLine
 62
2
  6
CONTINUOUS
 10
7.9255327687
 20
8.7219179628
 11
7.5255327687
 21
8.7219179628
  0
LINE
  5
43C
100
AcDbEntity
  8
SCHEME_DIMS
100
AcDbLine
 62
2
  6
CONTINUOUS
 10
9.1066351309
 20
8.7219179628
 11
9.5066351309
 21
8.7219179628
  0
INSERT
  5
43D
100
AcDbEntity
  8
SCHEME_DIMS
100
AcDbBlockReference
 62
2
  6
CONTINUOUS
  2
_FILLED
 10
7.9255327687
 20
8.7219179628
 41
0.1875
 42
0.1875
 43
0.1875
  0
INSERT
  5
43E
100
AcDbEntity
  8
SCHEME_DIMS
100
AcDbBlockReference
 62
2
  6
CONTINUOUS
  2
_FILLED
 10
9.1066351309
 20
8.7219179628
 41
0.1875
 42
0.1875
 43
0.1875
 50
180.0
  0
ENDBLK
  5
43F
100
AcDbEntity
  8
0
  6
BYBLOCK
 62
0
100
AcDbBlockEnd
  0
BLOCK
  5
440
100
AcDbEntity
  8
SCHEME_DIMS
100
AcDbBlockBegin
 62
2
  6
CONTINUOUS
  2
*D4
 70
65
 10
0.0
 20
0.0
  3
*D4
  1

  0
MTEXT
  5
441
100
AcDbEntity
  8
SCHEME_DIMS
100
AcDbMText
 62
2
  6
CONTINUOUS
  7
TEXTSTYLE_5
 71
3
 72
1
 10
2.0266214815
 20
7.9441847379
 30
0.0
 11
1.0
 21
0.0
 31
0.0
 44
0.9
  1
{\Fgdt;n}\Ftxt;30\P[1.18]
 40
0.1
 41
0.6
  0
LINE
  5
442
100
AcDbEntity
  8
SCHEME_DIMS
100
AcDbLine
 62
2
  6
CONTINUOUS
 10
3.0380671066
 20
7.540820145
 11
2.6766214815
 21
7.8941847379
  0
LINE
  5
443
100
AcDbEntity
  8
SCHEME_DIMS
100
AcDbLine
 62
2
  6
CONTINUOUS
 10
2.6766214815
 20
7.8941847379
 11
2.5266214815
 21
7.8941847379
  0
INSERT
  5
444
100
AcDbEntity
  8
SCHEME_DIMS
100
AcDbBlockReference
 62
2
  6
CONTINUOUS
  2
_FILLED
 10
3.0380671066
 20
7.540820145
 41
0.1875
 42
0.1875
 43
0.1875
 50
315.6477094216
  0
ENDBLK
  5
445
100
AcDbEntity
  8
0
  6
BYBLOCK
 62
0
100
AcDbBlockEnd
  0
ENDSEC
  0
SECTION
  2
ENTITIES
  0
MTEXT
  5
446
100
AcDbEntity
  8
0
100
AcDbMText
 62
2
  6
CONTINUOUS
  7
TEXTSTYLE_2
 71
2
 72
1
 10
11.0287658475
 20
1.794867839
 30
0.0
 11
1.0
 21
0.0
 31
0.0
 44
0.9
  1
THIRD ANGLE PROJECTION
 40
0.1
 41
1.76
  0
MTEXT
  5
447
100
AcDbEntity
  8
0
100
AcDbMText
 62
2
  6
CONTINUOUS
  7
STANDARD
 71
1
 72
1
 10
12.88
 20
1.457
 30
0.0
 11
1.0
 21
0.0
 31
0.0
 44
0.9
  1
DRAWING NO.
 40
0.08
 41
0.88
  0
MTEXT
  5
448
100
AcDbEntity
  8
0
100
AcDbMText
 62
2
  6
CONTINUOUS
  7
TEXTSTYLE_3
 71
2
 72
1
 10
11.03
 20
2.516432
 30
0.0
 11
1.0
 21
0.0
 31
0.0
 44
0.9
  1
and is proprietary in general
 40
0.08
 41
1.972
  0
MTEXT
  5
449
100
AcDbEntity
  8
0
100
AcDbMText
 62
2
  6
CONTINUOUS
  7
TEXTSTYLE_3
 71
2
 72
1
 10
11.03
 20
2.396432
 30
0.0
 11
1.0
 21
0.0
 31
0.0
 44
0.9
  1
and in detail.  Its contents
 40
0.08
 41
1.904
  0
MTEXT
  5
44A
100
AcDbEntity
  8
0
100
AcDbMText
 62
2
  6
CONTINUOUS
  7
TEXTSTYLE_3
 71
2
 72
1
 10
11.03
 20
2.276432
 30
0.0
 11
1.0
 21
0.0
 31
0.0
 44
0.9
  1
shall not be revealed to
 40
0.08
 41
1.632
  0
MTEXT
  5
44B
100
AcDbEntity
  8
0
100
AcDbMText
 62
2
  6
CONTINUOUS
  7
TEXTSTYLE_3
 71
2
 72
1
 10
11.03
 20
2.156432
 30
0.0
 11
1.0
 21
0.0
 31
0.0
 44
0.9
  1
outside parties without
 40
0.08
 41
1.564
  0
MTEXT
  5
44C
100
AcDbEntity
  8
0
100
AcDbMText
 62
2
  6
CONTINUOUS
  7
TEXTSTYLE_3
 71
2
 72
1
 10
11.03
 20
2.036432
 30
0.0
 11
1.0
 21
0.0
 31
0.0
 44
0.9
  1
written consent of BANNER.
 40
0.08
 41
1.768
  0
MTEXT
  5
44D
100
AcDbEntity
  8
0
100
AcDbMText
 62
2
  6
CONTINUOUS
  7
TEXTSTYLE_2
 71
1
 72
1
 10
12.08
 20
2.217
 30
0.0
 11
1.0
 21
0.0
 31
0.0
 44
0.9
  1
TITLE
 40
0.1
 41
0.4
  0
MTEXT
  5
44E
100
AcDbEntity
  8
0
100
AcDbMText
 62
2
  6
CONTINUOUS
  7
STANDARD
 71
1
 72
1
 10
12.08
 20
1.457
 30
0.0
 11
1.0
 21
0.0
 31
0.0
 44
0.9
  1
SIZE
 40
0.08
 41
0.32
  0
MTEXT
  5
44F
100
AcDbEntity
  8
0
100
AcDbMText
 62
2
  6
CONTINUOUS
  7
STANDARD
 71
1
 72
1
 10
12.08
 20
1.087
 30
0.0
 11
1.0
 21
0.0
 31
0.0
 44
0.9
  1
SCALE
 40
0.08
 41
0.4
  0
MTEXT
  5
450
100
AcDbEntity
  8
0
100
AcDbMText
 62
2
  6
CONTINUOUS
  7
TEXTSTYLE_2
 71
2
 72
1
 10
12.5
 20
1.337
 30
0.0
 11
1.0
 21
0.0
 31
0.0
 44
0.9
  1
B
 40
0.1
 41
0.08
  0
MTEXT
  5
451
100
AcDbEntity
  8
0
100
AcDbMText
 62
2
  6
CONTINUOUS
  7
TEXTSTYLE_3
 71
2
 72
1
 10
11.03
 20
2.636432
 30
0.0
 11
1.0
 21
0.0
 31
0.0
 44
0.9
  1
of BANNER ENGINEERING CORP.
 40
0.08
 41
1.836
  0
MTEXT
  5
452
100
AcDbEntity
  8
0
100
AcDbMText
 62
2
  6
CONTINUOUS
  7
TEXTSTYLE_3
 71
2
 72
1
 10
11.03
 20
2.756432
 30
0.0
 11
1.0
 21
0.0
 31
0.0
 44
0.9
  1
This drawing is the property
 40
0.08
 41
1.904
  0
MTEXT
  5
453
100
AcDbEntity
  8
0
100
AcDbMText
 62
2
  6
CONTINUOUS
  7
TEXTSTYLE_2
 71
2
 72
1
 10
15.03
 20
2.4134
 30
0.0
 11
1.0
 21
0.0
 31
0.0
 44
0.9
  1
MINNEAPOLIS, MN 55440
 40
0.1
 41
1.68
  0
MTEXT
  5
454
100
AcDbEntity
  8
0
100
AcDbMText
 62
2
  6
CONTINUOUS
  7
STANDARD
 71
1
 72
1
 10
14.255
 20
1.087
 30
0.0
 11
1.0
 21
0.0
 31
0.0
 44
0.9
  1
SHEET
 40
0.08
 41
0.4
  0
MTEXT
  5
455
100
AcDbEntity
  8
0
100
AcDbMText
 62
2
  6
CONTINUOUS
  7
STANDARD
 71
1
 72
1
 10
15.63
 20
1.457
 30
0.0
 11
1.0
 21
0.0
 31
0.0
 44
0.9
  1
REV.
 40
0.08
 41
0.32
  0
MTEXT
  5
456
100
AcDbEntity
  8
0
100
AcDbMText
 62
2
  6
CONTINUOUS
  7
STANDARD
 71
3
 72
1
 10
16.38
 20
0.835443
 30
0.0
 11
1.0
 21
0.0
 31
0.0
 44
0.9
  1
PRO/E
 40
0.07
 41
0.35
  0
MTEXT
  5
457
100
AcDbEntity
  8
0
100
AcDbMText
 62
2
  6
CONTINUOUS
  7
TEXTSTYLE_4
 71
2
 72
1
 10
15.03
 20
2.751049
 30
0.0
 11
1.0
 21
0.0
 31
0.0
 44
0.9
  1
BANNER ENGINEERING CORP.
 40
0.12
 41
2.6496
  0
MTEXT
  5
458
100
AcDbEntity
  8
0
100
AcDbMText
 62
2
  6
CONTINUOUS
  7
TEXTSTYLE_2
 71
2
 72
1
 10
15.03
 20
2.5724
 30
0.0
 11
1.0
 21
0.0
 31
0.0
 44
0.9
  1
P.O. BOX 9414
 40
0.1
 41
1.04
  0
MTEXT
  5
459
100
AcDbEntity
  8
0
100
AcDbMText
 62
2
  6
CONTINUOUS
  7
TEXTSTYLE_2
 71
2
 72
1
 10
9.485
 20
10.312
 30
0.0
 11
1.0
 21
0.0
 31
0.0
 44
0.9
  1
4
 40
0.1
 41
0.08
  0
MTEXT
  5
45A
100
AcDbEntity
  8
0
100
AcDbMText
 62
2
  6
CONTINUOUS
  7
TEXTSTYLE_2
 71
2
 72
1
 10
11.455
 20
10.312
 30
0.0
 11
1.0
 21
0.0
 31
0.0
 44
0.9
  1
3
 40
0.1
 41
0.08
  0
MTEXT
  5
45B
100
AcDbEntity
  8
0
100
AcDbMText
 62
2
  6
CONTINUOUS
  7
TEXTSTYLE_2
 71
2
 72
1
 10
13.425
 20
10.312
 30
0.0
 11
1.0
 21
0.0
 31
0.0
 44
0.9
  1
2
 40
0.1
 41
0.08
  0
MTEXT
  5
45C
100
AcDbEntity
  8
0
100
AcDbMText
 62
2
  6
CONTINUOUS
  7
TEXTSTYLE_2
 71
2
 72
1
 10
15.395
 20
10.312
 30
0.0
 11
1.0
 21
0.0
 31
0.0
 44
0.9
  1
1
 40
0.1
 41
0.08
  0
MTEXT
  5
45D
100
AcDbEntity
  8
0
100
AcDbMText
 62
2
  6
CONTINUOUS
  7
TEXTSTYLE_2
 71
2
 72
1
 10
3.575
 20
10.312
 30
0.0
 11
1.0
 21
0.0
 31
0.0
 44
0.9
  1
7
 40
0.1
 41
0.08
  0
MTEXT
  5
45E
100
AcDbEntity
  8
0
100
AcDbMText
 62
2
  6
CONTINUOUS
  7
TEXTSTYLE_2
 71
2
 72
1
 10
5.545
 20
10.312
 30
0.0
 11
1.0
 21
0.0
 31
0.0
 44
0.9
  1
6
 40
0.1
 41
0.08
  0
MTEXT
  5
45F
100
AcDbEntity
  8
0
100
AcDbMText
 62
2
  6
CONTINUOUS
  7
TEXTSTYLE_2
 71
2
 72
1
 10
7.515
 20
10.312
 30
0.0
 11
1.0
 21
0.0
 31
0.0
 44
0.9
  1
5
 40
0.1
 41
0.08
  0
MTEXT
  5
460
100
AcDbEntity
  8
0
100
AcDbMText
 62
2
  6
CONTINUOUS
  7
TEXTSTYLE_2
 71
2
 72
1
 10
1.605
 20
10.312
 30
0.0
 11
1.0
 21
0.0
 31
0.0
 44
0.9
  1
8
 40
0.1
 41
0.08
  0
MTEXT
  5
461
100
AcDbEntity
  8
0
100
AcDbMText
 62
2
  6
CONTINUOUS
  7
TEXTSTYLE_2
 71
2
 72
1
 10
1.605
 20
0.787
 30
0.0
 11
1.0
 21
0.0
 31
0.0
 44
0.9
  1
8
 40
0.1
 41
0.08
  0
MTEXT
  5
462
100
AcDbEntity
  8
0
100
AcDbMText
 62
2
  6
CONTINUOUS
  7
TEXTSTYLE_2
 71
2
 72
1
 10
3.575
 20
0.787
 30
0.0
 11
1.0
 21
0.0
 31
0.0
 44
0.9
  1
7
 40
0.1
 41
0.08
  0
MTEXT
  5
463
100
AcDbEntity
  8
0
100
AcDbMText
 62
2
  6
CONTINUOUS
  7
TEXTSTYLE_2
 71
2
 72
1
 10
5.545
 20
0.787
 30
0.0
 11
1.0
 21
0.0
 31
0.0
 44
0.9
  1
6
 40
0.1
 41
0.08
  0
MTEXT
  5
464
100
AcDbEntity
  8
0
100
AcDbMText
 62
2
  6
CONTINUOUS
  7
TEXTSTYLE_2
 71
2
 72
1
 10
7.515
 20
0.787
 30
0.0
 11
1.0
 21
0.0
 31
0.0
 44
0.9
  1
5
 40
0.1
 41
0.08
  0
MTEXT
  5
465
100
AcDbEntity
  8
0
100
AcDbMText
 62
2
  6
CONTINUOUS
  7
TEXTSTYLE_2
 71
2
 72
1
 10
9.485
 20
0.787
 30
0.0
 11
1.0
 21
0.0
 31
0.0
 44
0.9
  1
4
 40
0.1
 41
0.08
  0
MTEXT
  5
466
100
AcDbEntity
  8
0
100
AcDbMText
 62
2
  6
CONTINUOUS
  7
TEXTSTYLE_2
 71
2
 72
1
 10
11.455
 20
0.787
 30
0.0
 11
1.0
 21
0.0
 31
0.0
 44
0.9
  1
3
 40
0.1
 41
0.08
  0
MTEXT
  5
467
100
AcDbEntity
  8
0
100
AcDbMText
 62
2
  6
CONTINUOUS
  7
TEXTSTYLE_2
 71
2
 72
1
 10
13.425
 20
0.787
 30
0.0
 11
1.0
 21
0.0
 31
0.0
 44
0.9
  1
2
 40
0.1
 41
0.08
  0
MTEXT
  5
468
100
AcDbEntity
  8
0
100
AcDbMText
 62
2
  6
CONTINUOUS
  7
TEXTSTYLE_2
 71
2
 72
1
 10
15.395
 20
0.787
 30
0.0
 11
1.0
 21
0.0
 31
0.0
 44
0.9
  1
1
 40
0.1
 41
0.08
  0
MTEXT
  5
469
100
AcDbEntity
  8
0
100
AcDbMText
 62
2
  6
CONTINUOUS
  7
TEXTSTYLE_2
 71
3
 72
1
 10
0.52
 20
4.3995
 30
0.0
 11
1.0
 21
0.0
 31
0.0
 44
0.9
  1
B
 40
0.1
 41
0.08
  0
MTEXT
  5
46A
100
AcDbEntity
  8
0
100
AcDbMText
 62
2
  6
CONTINUOUS
  7
TEXTSTYLE_2
 71
3
 72
1
 10
0.52
 20
2.0995
 30
0.0
 11
1.0
 21
0.0
 31
0.0
 44
0.9
  1
A
 40
0.1
 41
0.08
  0
MTEXT
  5
46B
100
AcDbEntity
  8
0
100
AcDbMText
 62
2
  6
CONTINUOUS
  7
TEXTSTYLE_2
 71
3
 72
1
 10
0.52
 20
8.9995
 30
0.0
 11
1.0
 21
0.0
 31
0.0
 44
0.9
  1
D
 40
0.1
 41
0.08
  0
MTEXT
  5
46C
100
AcDbEntity
  8
0
100
AcDbMText
 62
2
  6
CONTINUOUS
  7
TEXTSTYLE_2
 71
3
 72
1
 10
0.52
 20
6.6995
 30
0.0
 11
1.0
 21
0.0
 31
0.0
 44
0.9
  1
C
 40
0.1
 41
0.08
  0
MTEXT
  5
46D
100
AcDbEntity
  8
0
100
AcDbMText
 62
2
  6
CONTINUOUS
  7
TEXTSTYLE_2
 71
1
 72
1
 10
16.48
 20
8.9995
 30
0.0
 11
1.0
 21
0.0
 31
0.0
 44
0.9
  1
D
 40
0.1
 41
0.08
  0
MTEXT
  5
46E
100
AcDbEntity
  8
0
100
AcDbMText
 62
2
  6
CONTINUOUS
  7
TEXTSTYLE_2
 71
1
 72
1
 10
16.48
 20
6.6995
 30
0.0
 11
1.0
 21
0.0
 31
0.0
 44
0.9
  1
C
 40
0.1
 41
0.08
  0
MTEXT
  5
46F
100
AcDbEntity
  8
0
100
AcDbMText
 62
2
  6
CONTINUOUS
  7
TEXTSTYLE_2
 71
1
 72
1
 10
16.48
 20
4.3995
 30
0.0
 11
1.0
 21
0.0
 31
0.0
 44
0.9
  1
B
 40
0.1
 41
0.08
  0
MTEXT
  5
470
100
AcDbEntity
  8
0
100
AcDbMText
 62
2
  6
CONTINUOUS
  7
TEXTSTYLE_2
 71
1
 72
1
 10
16.48
 20
2.0995
 30
0.0
 11
1.0
 21
0.0
 31
0.0
 44
0.9
  1
A
 40
0.1
 41
0.08
  0
MTEXT
  5
471
100
AcDbEntity
  8
0
100
AcDbMText
 62
2
  6
CONTINUOUS
  7
STANDARD
 71
1
 72
1
 10
14.819264911
 20
1.0627941725
 30
0.0
 11
1.0
 21
0.0
 31
0.0
 44
0.9
  1
1 OF 1
 40
0.1
 41
0.6
  0
MTEXT
  5
472
100
AcDbEntity
  8
0
100
AcDbMText
 62
7
  6
CONTINUOUS
  7
STANDARD
 71
1
 72
1
 10
13.8911999818
 20
1.3747321586
 30
0.0
 11
1.0
 21
0.0
 31
0.0
 44
0.9
  1
152789
 40
0.12
 41
0.72
  0
MTEXT
  5
473
100
AcDbEntity
  8
0
100
AcDbMText
 62
2
  6
CONTINUOUS
  7
STANDARD
 71
1
 72
1
 10
12.644264911
 20
1.0627941725
 30
0.0
 11
1.0
 21
0.0
 31
0.0
 44
0.9
  1
1:1
 40
0.1
 41
0.3
  0
MTEXT
  5
474
100
AcDbEntity
  8
0
100
AcDbMText
 62
2
  6
CONTINUOUS
  7
STANDARD
 71
1
 72
1
 10
1.0597007627
 20
1.6202922458
 30
0.0
 11
1.0
 21
0.0
 31
0.0
 44
0.9
  1
NOTES:\P1. ALL DIMENSIONS ARE MILLIMETERS [INCHES] UNLESS OTHERWISE NOTED.
 40
0.1
 41
6.6
  0
INSERT
  5
475
100
AcDbEntity
  8
0
100
AcDbBlockReference
 62
2
  6
CONTINUOUS
  2
BANNER_LOGO_TITLEBLOCK_BL0
 10
12.9086867042
 20
2.5403783405
  0
DIMENSION
  5
476
100
AcDbEntity
  8
SCHEME_DIMS
100
AcDbDimension
 62
2
  6
CONTINUOUS
  2
*D0
 10
4.55132088
 20
7.1279846137
 11
4.47632088
 21
6.6153861885
 70
160
 71
2
 42
26.04
  3
DIMSTYLE_1
100
AcDbAlignedDimension
 13
3.7965556982
 23
6.1027877633
 14
4.2261457375
 24
7.1279846137
 50
90.0
100
AcDbRotatedDimension
  0
DIMENSION
  5
477
100
AcDbEntity
  8
SCHEME_DIMS
100
AcDbDimension
 62
2
  6
CONTINUOUS
  2
*D1
 10
5.2710923474
 20
7.7189846137
 11
5.1460923474
 21
6.9693818572
 70
160
 71
2
 42
41.0514
  3
DIMSTYLE_1
100
AcDbAlignedDimension
 13
3.7965556982
 23
6.1027877633
 14
3.6337642136
 24
7.7189846137
 50
90.0
100
AcDbRotatedDimension
  0
DIMENSION
  5
478
100
AcDbEntity
  8
SCHEME_DIMS
100
AcDbDimension
 62
2
  6
CONTINUOUS
  2
*D2
 10
8.5160839498
 20
8.2189846137
 11
8.1458083593
 21
8.1439846137
 70
160
 71
2
 42
15.0
  3
DIMSTYLE_1
100
AcDbAlignedDimension
 13
7.9255327687
 23
7.5238646842
 14
8.5160839498
 24
7.7561384147
100
AcDbRotatedDimension
  0
DIMENSION
  5
479
100
AcDbEntity
  8
SCHEME_DIMS
100
AcDbDimension
 62
2
  6
CONTINUOUS
  2
*D3
 10
9.1066351309
 20
8.7219179628
 11
8.4410839498
 21
8.6469179628
 70
160
 71
2
 42
30.0
  3
DIMSTYLE_1
100
AcDbAlignedDimension
 13
7.9255327687
 23
7.5172560062
 14
9.1066351309
 24
7.7604735508
100
AcDbRotatedDimension
  0
DIMENSION
  5
47A
100
AcDbEntity
  8
SCHEME_DIMS
100
AcDbDimension
 62
2
  6
CONTINUOUS
  2
*D4
 10
3.0380671066
 20
7.540820145
 11
1.9266214815
 21
7.8191847379
 70
163
 71
3
 42
30.0
  1
<>
  3
DIMSTYLE_2
100
AcDbDiametricDimension
 15
3.8826202941
 25
6.7151490825
  0
LINE
  5
47B
100
AcDbEntity
  8
0
100
AcDbLine
 62
2
  6
CONTINUOUS
 10
16.38
 20
0.887
 11
12.03
 21
0.887
  0
LINE
  5
47C
100
AcDbEntity
  8
0
100
AcDbLine
 62
2
  6
CONTINUOUS
 10
16.38
 20
0.887
 11
16.38
 21
2.807
  0
LINE
  5
47D
100
AcDbEntity
  8
0
100
AcDbLine
 62
2
  6
CONTINUOUS
 10
16.38
 20
2.807
 11
12.03
 21
2.807
  0
LINE
  5
47E
100
AcDbEntity
  8
0
100
AcDbLine
 62
2
  6
CONTINUOUS
 10
12.03
 20
0.887
 11
12.03
 21
2.807
  0
MTEXT
  5
47F
100
AcDbEntity
  8
NOTES
100
AcDbMText
 62
7
  6
CONTINUOUS
  7
STANDARD
 71
2
 72
1
 10
16.155
 20
1.367
 30
0.0
 11
1.0
 21
0.0
 31
0.0
 44
0.9
  1
A
 40
0.1
 41
0.1
  0
MTEXT
  5
480
100
AcDbEntity
  8
NOTES
100
AcDbMText
 62
7
  6
CONTINUOUS
  7
STANDARD
 71
2
 72
1
 10
14.205
 20
1.967
 30
0.0
 11
1.0
 21
0.0
 31
0.0
 44
0.9
  1
TM18 LP CABLE\PWEB CAD DRAWINGS 2D/3D
 40
0.1
 41
2.2
  0
LEADER
  5
481
100
AcDbEntity
  8
NOTES
100
AcDbLeader
 62
2
  6
CONTINUOUS
  3
STANDARD
 71
1
 72
0
 73
0
 75
0
 40
0.1
 41
1.0
 76
3
 10
8.0395818637
 20
6.9140765321
 30
0.0
 10
7.7993952611
 20
6.5343802161
 30
0.0
 10
7.5493952611
 20
6.5343802161
 30
0.0
340
482
1001
ACAD
1000
DSTYLE
1002
{
1070
77
1070
0
1002
}
  0
MTEXT
  5
482
102
{ACAD_REACTORS
330
481
102
}
100
AcDbEntity
  8
NOTES
100
AcDbMText
 62
2
  6
CONTINUOUS
  7
STANDARD
 71
3
 72
1
 10
7.5493952611
 20
6.5843802161
 30
0.0
 11
1.0
 21
0.0
 31
0.0
 44
0.9
  1
M18 X 1 6g
 40
0.1
 41
1.0
  0
MTEXT
  5
483
100
AcDbEntity
  8
NOTES
100
AcDbMText
 62
2
  6
CONTINUOUS
  7
STANDARD
 71
2
 72
1
 10
15.2839295907
 20
5.3364648724
 30
0.0
 11
1.0
 21
0.0
 31
0.0
 44
0.9
  1
ISOMETRIC VIEW\P\H0.1;SCALE  1:1
 40
0.125
 41
1.75
  0
INSERT
  5
484
100
AcDbEntity
  8
SYMBOLS
100
AcDbBlockReference
 62
2
  6
CONTINUOUS
  2
CL_BL1
 10
3.4790367607
 20
7.9613496646
  0
LINE
  5
485
100
AcDbEntity
  8
0
100
AcDbLine
 62
2
  6
CONTINUOUS
 10
0.47
 20
5.586103
 11
0.47
 21
5.412897
  0
LINE
  5
486
100
AcDbEntity
  8
0
100
AcDbLine
 62
2
  6
CONTINUOUS
 10
0.62
 20
10.112
 11
0.62
 21
0.887
  0
LINE
  5
487
100
AcDbEntity
  8
0
100
AcDbLine
 62
2
  6
CONTINUOUS
 10
2.59
 20
0.887
 11
2.59
 21
0.637
  0
LINE
  5
488
100
AcDbEntity
  8
0
100
AcDbLine
 62
2
  6
CONTINUOUS
 10
2.59
 20
10.112
 11
2.59
 21
10.362
  0
LINE
  5
489
100
AcDbEntity
  8
0
100
AcDbLine
 62
2
  6
CONTINUOUS
 10
8.413397
 20
0.737
 11
8.586603
 21
0.737
  0
LINE
  5
48A
100
AcDbEntity
  8
0
100
AcDbLine
 62
7
  6
CONTINUOUS
 10
11.1389508475
 20
1.425992839
 11
11.7453418475
 21
1.495385839
  0
LINE
  5
48B
100
AcDbEntity
  8
0
100
AcDbLine
 62
2
  6
CONTINUOUS
 10
0.62
 20
0.887
 11
16.38
 21
0.887
  0
LINE
  5
48C
100
AcDbEntity
  8
0
100
AcDbLine
 62
2
  6
CONTINUOUS
 10
12.03
 20
1.137
 11
16.38
 21
1.137
  0
LINE
  5
48D
100
AcDbEntity
  8
0
100
AcDbLine
 62
7
  6
CONTINUOUS
 10
10.2121898475
 20
1.243294839
 11
10.4342808475
 21
1.243294839
  0
LINE
  5
48E
100
AcDbEntity
  8
0
100
AcDbLine
 62
7
  6
CONTINUOUS
 10
10.4842808475
 20
1.243294839
 11
10.5842808475
 21
1.243294839
  0
LINE
  5
48F
100
AcDbEntity
  8
0
100
AcDbLine
 62
7
  6
CONTINUOUS
 10
10.6342808475
 20
1.243294839
 11
10.8563718475
 21
1.243294839
  0
LINE
  5
490
100
AcDbEntity
  8
0
100
AcDbLine
 62
7
  6
CONTINUOUS
 10
11.0389508475
 20
1.243294839
 11
11.3171028475
 21
1.243294839
  0
LINE
  5
491
100
AcDbEntity
  8
0
100
AcDbLine
 62
7
  6
CONTINUOUS
 10
11.3671028475
 20
1.243294839
 11
11.5171888475
 21
1.243294839
  0
LINE
  5
492
100
AcDbEntity
  8
0
100
AcDbLine
 62
7
  6
CONTINUOUS
 10
11.5671888475
 20
1.243294839
 11
11.8453418475
 21
1.243294839
  0
LINE
  5
493
100
AcDbEntity
  8
0
100
AcDbLine
 62
7
  6
CONTINUOUS
 10
11.7453418475
 20
0.991203839
 11
11.1389508475
 21
1.060596839
  0
LINE
  5
494
100
AcDbEntity
  8
0
100
AcDbLine
 62
2
  6
CONTINUOUS
 10
4.56
 20
0.887
 11
4.56
 21
0.637
  0
LINE
  5
495
100
AcDbEntity
  8
0
100
AcDbLine
 62
2
  6
CONTINUOUS
 10
4.56
 20
10.112
 11
4.56
 21
10.362
  0
LINE
  5
496
100
AcDbEntity
  8
0
100
AcDbLine
 62
2
  6
CONTINUOUS
 10
0.47
 20
5.412897
 11
0.62
 21
5.4995
  0
LINE
  5
497
100
AcDbEntity
  8
0
100
AcDbLine
 62
2
  6
CONTINUOUS
 10
12.03
 20
1.507
 11
16.38
 21
1.507
  0
LINE
  5
498
100
AcDbEntity
  8
0
100
AcDbLine
 62
2
  6
CONTINUOUS
 10
10.03
 20
1.907
 11
12.03
 21
1.907
  0
LINE
  5
499
100
AcDbEntity
  8
0
100
AcDbLine
 62
2
  6
CONTINUOUS
 10
0.62
 20
5.4995
 11
0.47
 21
5.586103
  0
LINE
  5
49A
100
AcDbEntity
  8
0
100
AcDbLine
 62
2
  6
CONTINUOUS
 10
12.03
 20
2.267
 11
16.38
 21
2.267
  0
LINE
  5
49B
100
AcDbEntity
  8
0
100
AcDbLine
 62
2
  6
CONTINUOUS
 10
8.5
 20
10.112
 11
8.586603
 21
10.262
  0
LINE
  5
49C
100
AcDbEntity
  8
0
100
AcDbLine
 62
2
  6
CONTINUOUS
 10
16.38
 20
2.807
 11
10.03
 21
2.807
  0
LINE
  5
49D
100
AcDbEntity
  8
0
100
AcDbLine
 62
2
  6
CONTINUOUS
 10
0.62
 20
3.1995
 11
0.37
 21
3.1995
  0
LINE
  5
49E
100
AcDbEntity
  8
0
100
AcDbLine
 62
2
  6
CONTINUOUS
 10
16.38
 20
3.1995
 11
16.63
 21
3.1995
  0
LINE
  5
49F
100
AcDbEntity
  8
0
100
AcDbLine
 62
2
  6
CONTINUOUS
 10
8.586603
 20
0.737
 11
8.5
 21
0.887
  0
LINE
  5
4A0
100
AcDbEntity
  8
0
100
AcDbLine
 62
2
  6
CONTINUOUS
 10
6.53
 20
0.887
 11
6.53
 21
0.637
  0
LINE
  5
4A1
100
AcDbEntity
  8
0
100
AcDbLine
 62
2
  6
CONTINUOUS
 10
6.53
 20
10.112
 11
6.53
 21
10.362
  0
LINE
  5
4A2
100
AcDbEntity
  8
0
100
AcDbLine
 62
2
  6
CONTINUOUS
 10
8.5
 20
0.887
 11
8.5
 21
0.637
  0
LINE
  5
4A3
100
AcDbEntity
  8
0
100
AcDbLine
 62
2
  6
CONTINUOUS
 10
8.5
 20
10.112
 11
8.5
 21
10.362
  0
LINE
  5
4A4
100
AcDbEntity
  8
0
100
AcDbLine
 62
2
  6
CONTINUOUS
 10
0.62
 20
5.4995
 11
0.37
 21
5.4995
  0
LINE
  5
4A5
100
AcDbEntity
  8
0
100
AcDbLine
 62
2
  6
CONTINUOUS
 10
16.38
 20
5.4995
 11
16.63
 21
5.4995
  0
LINE
  5
4A6
100
AcDbEntity
  8
0
100
AcDbLine
 62
2
  6
CONTINUOUS
 10
10.03
 20
2.807
 11
10.03
 21
0.887
  0
LINE
  5
4A7
100
AcDbEntity
  8
0
100
AcDbLine
 62
2
  6
CONTINUOUS
 10
10.47
 20
0.887
 11
10.47
 21
0.637
  0
LINE
  5
4A8
100
AcDbEntity
  8
0
100
AcDbLine
 62
2
  6
CONTINUOUS
 10
10.47
 20
10.112
 11
10.47
 21
10.362
  0
LINE
  5
4A9
100
AcDbEntity
  8
0
100
AcDbLine
 62
7
  6
CONTINUOUS
 10
10.5342808475
 20
1.143294839
 11
10.5342808475
 21
0.921203839
  0
LINE
  5
4AA
100
AcDbEntity
  8
0
100
AcDbLine
 62
7
  6
CONTINUOUS
 10
10.5342808475
 20
1.193294839
 11
10.5342808475
 21
1.293294839
  0
LINE
  5
4AB
100
AcDbEntity
  8
0
100
AcDbLine
 62
7
  6
CONTINUOUS
 10
10.5342808475
 20
1.343294839
 11
10.5342808475
 21
1.565385839
  0
LINE
  5
4AC
100
AcDbEntity
  8
0
100
AcDbLine
 62
2
  6
CONTINUOUS
 10
8.5
 20
0.887
 11
8.413397
 21
0.737
  0
LINE
  5
4AD
100
AcDbEntity
  8
0
100
AcDbLine
 62
2
  6
CONTINUOUS
 10
0.62
 20
7.7995
 11
0.37
 21
7.7995
  0
LINE
  5
4AE
100
AcDbEntity
  8
0
100
AcDbLine
 62
2
  6
CONTINUOUS
 10
16.38
 20
7.7995
 11
16.63
 21
7.7995
  0
LINE
  5
4AF
100
AcDbEntity
  8
0
100
AcDbLine
 62
2
  6
CONTINUOUS
 10
8.413397
 20
10.262
 11
8.5
 21
10.112
  0
LINE
  5
4B0
100
AcDbEntity
  8
0
100
AcDbLine
 62
7
  6
CONTINUOUS
 10
11.1389508475
 20
1.060596839
 11
11.1389508475
 21
1.425992839
  0
LINE
  5
4B1
100
AcDbEntity
  8
0
100
AcDbLine
 62
7
  6
CONTINUOUS
 10
11.7453418475
 20
1.495385839
 11
11.7453418475
 21
0.991203839
  0
LINE
  5
4B2
100
AcDbEntity
  8
0
100
AcDbLine
 62
1
  6
CONTINUOUS
 10
12.03
 20
2.807
 11
12.03
 21
0.887
  0
LINE
  5
4B3
100
AcDbEntity
  8
0
100
AcDbLine
 62
2
  6
CONTINUOUS
 10
12.44
 20
0.887
 11
12.44
 21
0.637
  0
LINE
  5
4B4
100
AcDbEntity
  8
0
100
AcDbLine
 62
2
  6
CONTINUOUS
 10
12.44
 20
10.112
 11
12.44
 21
10.362
  0
LINE
  5
4B5
100
AcDbEntity
  8
0
100
AcDbLine
 62
2
  6
CONTINUOUS
 10
16.53
 20
5.586103
 11
16.38
 21
5.4995
  0
LINE
  5
4B6
100
AcDbEntity
  8
0
100
AcDbLine
 62
2
  6
CONTINUOUS
 10
16.38
 20
5.4995
 11
16.53
 21
5.412897
  0
LINE
  5
4B7
100
AcDbEntity
  8
0
100
AcDbLine
 62
2
  6
CONTINUOUS
 10
12.83
 20
1.507
 11
12.83
 21
1.137
  0
LINE
  5
4B8
100
AcDbEntity
  8
0
100
AcDbLine
 62
2
  6
CONTINUOUS
 10
16.38
 20
10.112
 11
0.62
 21
10.112
  0
LINE
  5
4B9
100
AcDbEntity
  8
0
100
AcDbLine
 62
2
  6
CONTINUOUS
 10
8.586603
 20
10.262
 11
8.413397
 21
10.262
  0
LINE
  5
4BA
100
AcDbEntity
  8
0
100
AcDbLine
 62
2
  6
CONTINUOUS
 10
14.205
 20
1.137
 11
14.205
 21
0.887
  0
LINE
  5
4BB
100
AcDbEntity
  8
0
100
AcDbLine
 62
2
  6
CONTINUOUS
 10
14.41
 20
0.887
 11
14.41
 21
0.637
  0
LINE
  5
4BC
100
AcDbEntity
  8
0
100
AcDbLine
 62
2
  6
CONTINUOUS
 10
14.41
 20
10.112
 11
14.41
 21
10.362
  0
LINE
  5
4BD
100
AcDbEntity
  8
0
100
AcDbLine
 62
2
  6
CONTINUOUS
 10
15.58
 20
1.507
 11
15.58
 21
1.137
  0
LINE
  5
4BE
100
AcDbEntity
  8
0
100
AcDbLine
 62
2
  6
CONTINUOUS
 10
16.38
 20
0.887
 11
16.38
 21
10.112
  0
LINE
  5
4BF
100
AcDbEntity
  8
0
100
AcDbLine
 62
2
  6
CONTINUOUS
 10
16.53
 20
5.412897
 11
16.53
 21
5.586103
  0
LINE
  5
4C0
100
AcDbEntity
  8
AXIS
100
AcDbLine
 62
7
  6
CONTINUOUS
 10
3.5784539365
 20
3.3468822515
 11
3.3422334641
 21
3.3468822515
  0
LWPOLYLINE
  5
4C1
100
AcDbEntity
  8
0
100
AcDbPolyline
 62
7
  6
CONTINUOUS
 90
17
 70
0
 10
3.3446101103
 20
7.4586932751
 10
3.2928169942
 20
7.434704682
 10
3.2457032267
 20
7.4026715933
 10
3.2045096549
 20
7.3634727508
 10
3.1703158585
 20
7.3181766741
 10
3.1440110177
 20
7.2680111843
 10
3.126271785
 20
7.2143302565
 10
3.1175457706
 20
7.1585817115
 10
3.118037747
 20
7.102266523
 10
3.127704516
 20
7.0468961987
 10
3.1462570903
 20
6.9939536047
 10
3.1731672711
 20
6.9448558106
 10
3.2076827047
 20
6.9009123006
 10
3.2488486877
 20
6.8632896592
 10
3.2955325035
 20
6.8329826416
 10
3.3464531534
 20
6.8107869206
 10
3.4002192507
 20
6.7972759523
  0
LINE
  5
4C2
100
AcDbEntity
  8
0
100
AcDbLine
 62
7
  6
CONTINUOUS
 10
3.5289737293
 20
7.460316327
 11
3.5260280675
 21
7.4594117485
  0
LWPOLYLINE
  5
4C3
100
AcDbEntity
  8
0
100
AcDbPolyline
 62
7
  6
CONTINUOUS
 90
5
 70
0
 10
3.2084351698
 20
7.3497564298
 10
3.2473557671
 20
7.3879325766
 10
3.291984059
 20
7.4193405568
 10
3.341151185
 20
7.4431403417
 10
3.3935695351
 20
7.4586932751
  0
LWPOLYLINE
  5
4C4
100
AcDbEntity
  8
0
100
AcDbPolyline
 62
9
  6
CONTINUOUS
 90
16
 70
0
 10
3.4603436885
 20
6.5964885456
 10
3.4460888682
 20
6.5879747568
 10
3.4331256543
 20
6.580670829
 10
3.4208420074
 20
6.5741477246
 10
3.4085886592
 20
6.5680410017
 10
3.3957003613
 20
6.562068691
 10
3.3817193472
 20
6.5561422082
 10
3.3663499307
 20
6.5503388463
 10
3.3493228388
 20
6.5448648622
 10
3.3305873869
 20
6.5401562497
 10
3.3120932211
 20
6.5370961525
 10
3.2958003568
 20
6.5359870299
 10
3.2820082091
 20
6.5364847924
 10
3.270263394
 20
6.5382005597
 10
3.2601303949
 20
6.5408696456
 10
3.2511914091
 20
6.5443638625
  0
LWPOLYLINE
  5
4C5
100
AcDbEntity
  8
0
100
AcDbPolyline
 62
9
  6
CONTINUOUS
 90
15
 70
0
 10
3.6694959915
 20
6.5443638625
 10
3.6546012001
 20
6.5391529069
 10
3.6351925568
 20
6.5362172134
 10
3.6144325636
 20
6.5365105665
 10
3.5947767219
 20
6.5392218345
 10
3.576905061
 20
6.543320228
 10
3.5606694044
 20
6.5481802378
 10
3.5458802213
 20
6.5534364048
 10
3.5323817701
 20
6.5588602256
 10
3.5199737818
 20
6.5643353827
 10
3.5083789179
 20
6.569851607
 10
3.4971636876
 20
6.5755380736
 10
3.4857634134
 20
6.5816586313
 10
3.4736442777
 20
6.5885290538
 10
3.4603436885
 20
6.5964885456
  0
LWPOLYLINE
  5
4C6
100
AcDbEntity
  8
0
100
AcDbPolyline
 62
9
  6
CONTINUOUS
 90
14
 70
0
 10
3.682570164
 20
6.5808410344
 10
3.6654555897
 20
6.5751626791
 10
3.6434364634
 20
6.5708580231
 10
3.6204314084
 20
6.5689945304
 10
3.5990841692
 20
6.56908603
 10
3.5797483098
 20
6.5703831999
 10
3.562113084
 20
6.5724195181
 10
3.5460137413
 20
6.5749061759
 10
3.5312294698
 20
6.5776698591
 10
3.5174780989
 20
6.5806243156
 10
3.5042686217
 20
6.5837916939
 10
3.4908520351
 20
6.5873246645
 10
3.4764693521
 20
6.5914529443
 10
3.4603657975
 20
6.5964812271
  0
LWPOLYLINE
  5
4C7
100
AcDbEntity
  8
0
100
AcDbPolyline
 62
9
  6
CONTINUOUS
 90
16
 70
0
 10
3.4603438631
 20
6.5964885978
 10
3.444254456
 20
6.5914638339
 10
3.4298394579
 20
6.5873257893
 10
3.4163246644
 20
6.5837680202
 10
3.4029747004
 20
6.5805709309
 10
3.389066386
 20
6.5775910382
 10
3.3741223807
 20
6.5748117687
 10
3.3578502176
 20
6.5723212496
 10
3.3399897369
 20
6.570295584
 10
3.3205041388
 20
6.5690447888
 10
3.3013799408
 20
6.5689595592
 10
3.2845725805
 20
6.5700108821
 10
3.2703305405
 20
6.571907099
 10
3.2581483973
 20
6.5744199678
 10
3.2475599933
 20
6.57741141
 10
3.2381196358
 20
6.58084006
  0
LWPOLYLINE
  5
4C8
100
AcDbEntity
  8
0
100
AcDbPolyline
 62
7
  6
CONTINUOUS
 90
6
 70
0
 10
3.7296240358
 20
6.9428693959
 10
3.6962055954
 20
6.9011830539
 10
3.6564036932
 20
6.8654568944
 10
3.6112711891
 20
6.8366565212
 10
3.5620041265
 20
6.8155626946
 10
3.5099081739
 20
6.8027507054
  0
LWPOLYLINE
  5
4C9
100
AcDbEntity
  8
0
100
AcDbPolyline
 62
9
  6
CONTINUOUS
 90
5
 70
0
 10
3.6825679352
 20
6.580840343
 10
3.6754082182
 20
6.5757045766
 10
3.6705527218
 20
6.5672824891
 10
3.6685105856
 20
6.5564572095
 10
3.6694959439
 20
6.5443638625
  0
LWPOLYLINE
  5
4CA
100
AcDbEntity
  8
0
100
AcDbPolyline
 62
9
  6
CONTINUOUS
 90
6
 70
0
 10
3.7556192909
 20
6.5943058062
 10
3.7525481207
 20
6.592139036
 10
3.7429635038
 20
6.5855759878
 10
3.7260488502
 20
6.5747033717
 10
3.7013206716
 20
6.5603463639
 10
3.6694959915
 20
6.5443638625
  0
LWPOLYLINE
  5
4CB
100
AcDbEntity
  8
0
100
AcDbPolyline
 62
7
  6
CONTINUOUS
 90
4
 70
0
 10
3.7296240358
 20
6.9428693959
 10
3.7456903015
 20
6.970967397
 10
3.7583433921
 20
6.999131155
 10
3.768148167
 20
7.0279728799
  0
LWPOLYLINE
  5
4CC
100
AcDbEntity
  8
0
100
AcDbPolyline
 62
7
  6
CONTINUOUS
 90
3
 70
0
 10
3.7235801626
 20
6.9287287887
 10
3.750491963
 20
6.9722459958
 10
3.7703061418
 20
7.0193150224
  0
LINE
  5
4CD
100
AcDbEntity
  8
AXIS
100
AcDbLine
 62
7
  6
CONTINUOUS
 10
3.1650681098
 20
6.5943058062
 11
3.1650681098
 21
6.2027877633
  0
LINE
  5
4CE
100
AcDbEntity
  8
0
100
AcDbLine
 62
7
  6
CONTINUOUS
 10
3.1650681098
 20
6.2027877633
 11
3.1650681098
 21
6.5943058062
  0
LINE
  5
4CF
100
AcDbEntity
  8
0
100
AcDbLine
 62
7
  6
CONTINUOUS
 10
3.1703437003
 20
6.2027877633
 11
3.1703437003
 21
6.1527877633
  0
LINE
  5
4D0
100
AcDbEntity
  8
0
100
AcDbLine
 62
7
  6
CONTINUOUS
 10
3.1753437003
 20
7.2216595837
 11
3.1753437003
 21
7.0343096437
  0
LINE
  5
4D1
100
AcDbEntity
  8
0
100
AcDbLine
 62
7
  6
CONTINUOUS
 10
3.2303437003
 20
7.2902875712
 11
3.2303437003
 21
6.9656816563
  0
LINE
  5
4D2
100
AcDbEntity
  8
0
100
AcDbLine
 62
7
  6
CONTINUOUS
 10
3.2323437003
 20
7.2922313793
 11
3.2323437003
 21
6.9637378481
  0
LWPOLYLINE
  5
4D3
100
AcDbEntity
  8
0
100
AcDbPolyline
 62
7
  6
CONTINUOUS
 90
4
 70
0
 10
3.768148167
 20
7.0279728799
 10
3.7776928814
 20
7.0591193224
 10
3.7838376688
 20
7.0895387833
 10
3.787004063
 20
7.119466961
  0
LINE
  5
4D4
100
AcDbEntity
  8
AXIS
100
AcDbLine
 62
7
  6
CONTINUOUS
 10
3.3422334641
 20
6.1027877633
 11
3.3422334641
 21
3.3468822515
  0
LINE
  5
4D5
100
AcDbEntity
  8
AXIS_COSMETIC_THREADS
100
AcDbLine
 62
7
  6
CENTER
 10
3.4603437003
 20
7.1279846137
 11
3.4603437003
 21
6.4369846137
  0
LINE
  5
4D6
100
AcDbEntity
  8
AXIS_COSMETIC_THREADS
100
AcDbLine
 62
7
  6
CENTER
 10
3.4603437003
 20
7.1279846137
 11
3.4603437003
 21
7.8189846137
  0
LWPOLYLINE
  5
4D7
100
AcDbEntity
  8
0
100
AcDbPolyline
 62
7
  6
CONTINUOUS
 90
3
 70
0
 10
3.7703061418
 20
7.0193150224
 10
3.7825673619
 20
7.0687897119
 10
3.787004063
 20
7.119466961
  0
LINE
  5
4D8
100
AcDbEntity
  8
0
100
AcDbLine
 62
7
  6
CONTINUOUS
 10
3.7503437003
 20
6.1527877633
 11
3.7214761869
 21
6.1027877633
  0
LWPOLYLINE
  5
4D9
100
AcDbEntity
  8
0
100
AcDbPolyline
 62
7
  6
CONTINUOUS
 90
7
 70
0
 10
3.1380772893
 20
7.0442332848
 10
3.1283237687
 20
7.0975369868
 10
3.1273376006
 20
7.1517734039
 10
3.135160862
 20
7.2055092947
 10
3.1516014494
 20
7.2573192694
 10
3.1762384122
 20
7.3058299867
 10
3.2084351698
 20
7.3497564298
  0
LINE
  5
4DA
100
AcDbEntity
  8
AXIS
100
AcDbLine
 62
7
  6
CONTINUOUS
 10
3.5784539365
 20
6.1027877633
 11
3.5784539365
 21
3.3468822515
  0
LINE
  5
4DB
100
AcDbEntity
  8
0
100
AcDbLine
 62
7
  6
CONTINUOUS
 10
3.1703437003
 20
6.1527877633
 11
3.1992112138
 21
6.1027877633
  0
LINE
  5
4DC
100
AcDbEntity
  8
0
100
AcDbLine
 62
7
  6
CONTINUOUS
 10
3.6883437003
 20
6.9637378481
 11
3.6883437003
 21
7.2922313793
  0
LINE
  5
4DD
100
AcDbEntity
  8
0
100
AcDbLine
 62
7
  6
CONTINUOUS
 10
3.6903437003
 20
6.9656816563
 11
3.6903437003
 21
7.2902875712
  0
LINE
  5
4DE
100
AcDbEntity
  8
0
100
AcDbLine
 62
7
  6
CONTINUOUS
 10
3.7453437003
 20
7.2216595837
 11
3.7453437003
 21
7.0343096437
  0
LINE
  5
4DF
100
AcDbEntity
  8
0
100
AcDbLine
 62
7
  6
CONTINUOUS
 10
3.7503437003
 20
6.2027877633
 11
3.7503437003
 21
6.1527877633
  0
LINE
  5
4E0
100
AcDbEntity
  8
AXIS
100
AcDbLine
 62
7
  6
CONTINUOUS
 10
3.7556192909
 20
6.5943058062
 11
3.7556192909
 21
6.2027877633
  0
LINE
  5
4E1
100
AcDbEntity
  8
0
100
AcDbLine
 62
7
  6
CONTINUOUS
 10
3.7556192909
 20
6.2027877633
 11
3.7556192909
 21
6.5943058062
  0
LWPOLYLINE
  5
4E2
100
AcDbEntity
  8
0
100
AcDbPolyline
 62
7
  6
CONTINUOUS
 90
9
 70
0
 10
3.8025287847
 20
7.1279846136
 10
3.7986052642
 20
7.0735202522
 10
3.7860619356
 20
7.020319405
 10
3.7652043883
 20
6.9697401182
 10
3.7365513418
 20
6.9230744914
 10
3.7008176225
 20
6.8815117885
 10
3.6588990642
 20
6.8461152236
 10
3.6118511611
 20
6.8177937481
 10
3.5608585774
 20
6.7972759523
  0
LINE
  5
4E3
100
AcDbEntity
  8
0
100
AcDbLine
 62
7
  6
CONTINUOUS
 10
3.7214761869
 20
6.1027877633
 11
3.1992112138
 21
6.1027877633
  0
LINE
  5
4E4
100
AcDbEntity
  8
0
100
AcDbLine
 62
7
  6
CONTINUOUS
 10
3.7503437003
 20
6.1527877633
 11
3.1703437003
 21
6.1527877633
  0
LINE
  5
4E5
100
AcDbEntity
  8
AXIS
100
AcDbLine
 62
7
  6
CONTINUOUS
 10
3.7556192909
 20
6.2027877633
 11
3.1650681098
 21
6.2027877633
  0
LWPOLYLINE
  5
4E6
100
AcDbEntity
  8
0
100
AcDbPolyline
 62
9
  6
CONTINUOUS
 90
5
 70
0
 10
3.2381194338
 20
6.5808402649
 10
3.2452791325
 20
6.5757044912
 10
3.2501346345
 20
6.5672824234
 10
3.2521768039
 20
6.556457178
 10
3.2511915038
 20
6.5443638625
  0
LWPOLYLINE
  5
4E7
100
AcDbEntity
  8
0
100
AcDbPolyline
 62
9
  6
CONTINUOUS
 90
6
 70
0
 10
3.2511914091
 20
6.5443638625
 10
3.2193672
 20
6.560346107
 10
3.1946389328
 20
6.5747031666
 10
3.1777263224
 20
6.5855743827
 10
3.168141809
 20
6.5921372577
 10
3.1650681098
 20
6.5943058062
  0
LWPOLYLINE
  5
4E8
100
AcDbEntity
  8
0
100
AcDbPolyline
 62
7
  6
CONTINUOUS
 90
6
 70
0
 10
3.5095679504
 20
6.7972759523
 10
3.5597265888
 20
6.8096244738
 10
3.6072888262
 20
6.8295265376
 10
3.6511253613
 20
6.8564823834
 10
3.6901968442
 20
6.8898235202
 10
3.7235801626
 20
6.9287287887
  0
LWPOLYLINE
  5
4E9
100
AcDbEntity
  8
0
100
AcDbPolyline
 62
7
  6
CONTINUOUS
 90
15
 70
0
 10
3.4076701249
 20
6.7775909129
 10
3.4029090553
 20
6.7783856612
 10
3.3984827067
 20
6.7793089061
 10
3.3944122208
 20
6.7804066934
 10
3.3908994058
 20
6.7816962218
 10
3.3879976146
 20
6.7832707438
 10
3.3858461048
 20
6.7853292171
 10
3.3849634801
 20
6.7877793468
 10
3.3853667722
 20
6.7901055904
 10
3.3866432042
 20
6.7921759218
 10
3.3886108034
 20
6.793975686
 10
3.391139403
 20
6.7954108527
 10
3.3942036422
 20
6.7964490121
 10
3.3978541333
 20
6.7970730827
 10
3.4021263886
 20
6.7972759523
  0
LWPOLYLINE
  5
4EA
100
AcDbEntity
  8
0
100
AcDbPolyline
 62
7
  6
CONTINUOUS
 90
16
 70
0
 10
3.3543187812
 20
6.7972759523
 10
3.3012876356
 20
6.8187573555
 10
3.2524516841
 20
6.8486776684
 10
3.2091434716
 20
6.8862381948
 10
3.1725449276
 20
6.9304334172
 10
3.1436569907
 20
6.9800786751
 10
3.1232743155
 20
7.0338399974
 10
3.1119630601
 20
7.0902679448
 10
3.1100431953
 20
7.1478361162
 10
3.1175777626
 20
7.2049858167
 10
3.1343784977
 20
7.2601883349
 10
3.1600071778
 20
7.3119489463
 10
3.1937873132
 20
7.3588669671
 10
3.234822009
 20
7.3996706483
 10
3.2820172136
 20
7.4332511495
 10
3.3341109158
 20
7.4586932751
  0
LWPOLYLINE
  5
4EB
100
AcDbEntity
  8
0
100
AcDbPolyline
 62
7
  6
CONTINUOUS
 90
10
 70
0
 10
3.5099081739
 20
6.8027507054
 10
3.4563665596
 20
6.7985765813
 10
3.402804328
 20
6.803166629
 10
3.3506481798
 20
6.8164132434
 10
3.3012873087
 20
6.8379785665
 10
3.2560383181
 20
6.8673034556
 10
3.216110928
 20
6.9036212692
 10
3.1825736909
 20
6.9459794707
 10
3.1563263407
 20
6.9932653317
 10
3.1380772893
 20
7.0442332848
  0
LINE
  5
4EC
100
AcDbEntity
  8
0
100
AcDbLine
 62
9
  6
CONTINUOUS
 10
3.4076701249
 20
6.7775909129
 11
3.5130172758
 21
6.7775909129
  0
LINE
  5
4ED
100
AcDbEntity
  8
0
100
AcDbLine
 62
7
  6
CONTINUOUS
 10
3.3331350828
 20
6.7972759523
 11
3.5875523178
 21
6.7972759523
  0
LWPOLYLINE
  5
4EE
100
AcDbEntity
  8
0
100
AcDbPolyline
 62
7
  6
CONTINUOUS
 90
15
 70
0
 10
3.5185610121
 20
6.7972759523
 10
3.522832574
 20
6.7970731549
 10
3.5264851781
 20
6.7964486583
 10
3.5295522781
 20
6.7954089515
 10
3.5320874398
 20
6.7939678802
 10
3.5340618639
 20
6.792154904
 10
3.5353430818
 20
6.7900493217
 10
3.535716811
 20
6.7876859286
 10
3.5347486887
 20
6.7851987426
 10
3.5325059271
 20
6.78314631
 10
3.5294949321
 20
6.7815700014
 10
3.5260301039
 20
6.7803310999
 10
3.5221492218
 20
6.7792958796
 10
3.5178170051
 20
6.7783928463
 10
3.5130172758
 20
6.7775909129
  0
LWPOLYLINE
  5
4EF
100
AcDbEntity
  8
0
100
AcDbPolyline
 62
7
  6
CONTINUOUS
 90
11
 70
0
 10
3.3888689325
 20
7.4618127758
 10
3.3868753729
 20
7.4635281286
 10
3.3855201213
 20
7.4655143525
 10
3.3849550931
 20
7.4677552078
 10
3.3855942696
 20
7.470240499
 10
3.3876443894
 20
7.4724450547
 10
3.3906853295
 20
7.474177981
 10
3.3942970792
 20
7.4755265025
 10
3.39833037
 20
7.4766243241
 10
3.4027886389
 20
7.477561142
 10
3.4076701249
 20
7.4783783145
  0
LINE
  5
4F0
100
AcDbEntity
  8
AXIS_COSMETIC_THREADS
100
AcDbLine
 62
7
  6
CENTER
 10
3.4603437003
 20
7.1279846137
 11
2.7693437003
 21
7.1279846137
  0
LINE
  5
4F1
100
AcDbEntity
  8
AXIS_COSMETIC_THREADS
100
AcDbLine
 62
7
  6
CENTER
 10
3.4603437003
 20
7.1279846137
 11
4.1513437003
 21
7.1279846137
  0
LINE
  5
4F2
100
AcDbEntity
  8
0
100
AcDbLine
 62
7
  6
CONTINUOUS
 10
3.3913818335
 20
7.4604530874
 11
3.3888689325
 21
7.4618127758
  0
LINE
  5
4F3
100
AcDbEntity
  8
0
100
AcDbLine
 62
7
  6
CONTINUOUS
 10
3.3331350828
 20
7.4586932751
 11
3.5875523178
 21
7.4586932751
  0
LINE
  5
4F4
100
AcDbEntity
  8
0
100
AcDbLine
 62
9
  6
CONTINUOUS
 10
3.5130172758
 20
7.4783783145
 11
3.4076701249
 21
7.4783783145
  0
LWPOLYLINE
  5
4F5
100
AcDbEntity
  8
0
100
AcDbPolyline
 62
7
  6
CONTINUOUS
 90
3
 70
0
 10
3.3979681339
 20
7.4588844881
 10
3.3943972297
 20
7.4594729032
 10
3.3913818335
 20
7.4604530874
  0
LWPOLYLINE
  5
4F6
100
AcDbEntity
  8
0
100
AcDbPolyline
 62
7
  6
CONTINUOUS
 90
13
 70
0
 10
3.5130172758
 20
7.4783783145
 10
3.5174942636
 20
7.4776359571
 10
3.5216877812
 20
7.4767800662
 10
3.5255530277
 20
7.4757811865
 10
3.5289518941
 20
7.4746223021
 10
3.5318218097
 20
7.4732487829
 10
3.5341069089
 20
7.4715234479
 10
3.5354964224
 20
7.4693452184
 10
3.5356657776
 20
7.4670706465
 10
3.5348934772
 20
7.4649937271
 10
3.5334555885
 20
7.4631556644
 10
3.5314463172
 20
7.461568199
 10
3.5289737293
 20
7.460316327
  0
LWPOLYLINE
  5
4F7
100
AcDbEntity
  8
0
100
AcDbPolyline
 62
7
  6
CONTINUOUS
 90
10
 70
0
 10
3.5325831599
 20
7.4586932751
 10
3.5815967126
 20
7.4444678911
 10
3.6279605955
 20
7.4230201974
 10
3.6706168242
 20
7.3948260489
 10
3.7085898848
 20
7.3605161944
 10
3.7410109627
 20
7.320860739
 10
3.7671377754
 20
7.2767500769
 10
3.7863694958
 20
7.2291758107
 10
3.7982597014
 20
7.1792116426
 10
3.8025287847
 20
7.1279846136
  0
LWPOLYLINE
  5
4F8
100
AcDbEntity
  8
0
100
AcDbPolyline
 62
7
  6
CONTINUOUS
 90
3
 70
0
 10
3.5958332696
 20
7.4553877715
 10
3.5915049516
 20
7.4570690837
 10
3.5871556167
 20
7.4586932751
  0
LINE
  5
4F9
100
AcDbEntity
  8
AXIS
100
AcDbLine
 62
7
  6
CONTINUOUS
 10
8.9294697766
 20
3.3468822515
 11
8.6932493042
 21
3.3468822515
  0
LINE
  5
4FA
100
AcDbEntity
  8
0
100
AcDbLine
 62
7
  6
CONTINUOUS
 10
7.9255327687
 20
7.4547560062
 11
7.9325633161
 21
7.4588150913
  0
LINE
  5
4FB
100
AcDbEntity
  8
0
100
AcDbLine
 62
7
  6
CONTINUOUS
 10
7.9570673947
 20
7.4586932751
 11
7.9530918239
 21
7.4518111682
  0
LINE
  5
4FC
100
AcDbEntity
  8
0
100
AcDbLine
 62
7
  6
CONTINUOUS
 10
7.9964374734
 20
7.4586932751
 11
7.9924619026
 21
7.4518111682
  0
LINE
  5
4FD
100
AcDbEntity
  8
0
100
AcDbLine
 62
7
  6
CONTINUOUS
 10
8.0358075522
 20
7.4586932751
 11
8.0318319813
 21
7.4518111682
  0
LINE
  5
4FE
100
AcDbEntity
  8
0
100
AcDbLine
 62
7
  6
CONTINUOUS
 10
8.0751776309
 20
7.4586932751
 11
8.0712020601
 21
7.4518111682
  0
LINE
  5
4FF
100
AcDbEntity
  8
0
100
AcDbLine
 62
7
  6
CONTINUOUS
 10
7.9300844225
 20
6.7985853248
 11
7.930239152
 21
6.7986745872
  0
LINE
  5
500
100
AcDbEntity
  8
0
100
AcDbLine
 62
7
  6
CONTINUOUS
 10
8.1145477097
 20
7.4586932751
 11
8.1105721388
 21
7.4518111682
  0
LINE
  5
501
100
AcDbEntity
  8
0
100
AcDbLine
 62
7
  6
CONTINUOUS
 10
8.1539177884
 20
7.4586932751
 11
8.1499422176
 21
7.4518111682
  0
LINE
  5
502
100
AcDbEntity
  8
0
100
AcDbLine
 62
7
  6
CONTINUOUS
 10
8.1932878671
 20
7.4586932751
 11
8.1893122963
 21
7.4518111682
  0
LINE
  5
503
100
AcDbEntity
  8
0
100
AcDbLine
 62
7
  6
CONTINUOUS
 10
8.2326579459
 20
7.4586932751
 11
8.228682375
 21
7.4518111682
  0
LINE
  5
504
100
AcDbEntity
  8
0
100
AcDbLine
 62
7
  6
CONTINUOUS
 10
8.2720280246
 20
7.4586932751
 11
8.2680524538
 21
7.4518111682
  0
LINE
  5
505
100
AcDbEntity
  8
0
100
AcDbLine
 62
7
  6
CONTINUOUS
 10
8.3113981034
 20
7.4586932751
 11
8.3074225325
 21
7.4518111682
  0
LINE
  5
506
100
AcDbEntity
  8
0
100
AcDbLine
 62
7
  6
CONTINUOUS
 10
7.930239152
 20
6.7986745872
 11
7.9334067842
 21
6.8041580597
  0
LINE
  5
507
100
AcDbEntity
  8
0
100
AcDbLine
 62
7
  6
CONTINUOUS
 10
8.3507681821
 20
7.4586932751
 11
8.3467926113
 21
7.4518111682
  0
LINE
  5
508
100
AcDbEntity
  8
0
100
AcDbLine
 62
7
  6
CONTINUOUS
 10
7.9688012924
 20
6.7972759523
 11
7.9727768632
 21
6.8041580593
  0
LINE
  5
509
100
AcDbEntity
  8
0
100
AcDbLine
 62
7
  6
CONTINUOUS
 10
8.3901382608
 20
7.4586932751
 11
8.38616269
 21
7.4518111682
  0
LINE
  5
50A
100
AcDbEntity
  8
0
100
AcDbLine
 62
7
  6
CONTINUOUS
 10
8.0081713711
 20
6.7972759523
 11
8.012146942
 21
6.8041580593
  0
LINE
  5
50B
100
AcDbEntity
  8
0
100
AcDbLine
 62
7
  6
CONTINUOUS
 10
8.4295083396
 20
7.4586932751
 11
8.4255327687
 21
7.4518111682
  0
LINE
  5
50C
100
AcDbEntity
  8
0
100
AcDbLine
 62
7
  6
CONTINUOUS
 10
8.0475414499
 20
6.7972759523
 11
8.0515170207
 21
6.8041580593
  0
LINE
  5
50D
100
AcDbEntity
  8
0
100
AcDbLine
 62
7
  6
CONTINUOUS
 10
8.4688784183
 20
7.4586932751
 11
8.4649028475
 21
7.4518111682
  0
LINE
  5
50E
100
AcDbEntity
  8
0
100
AcDbLine
 62
7
  6
CONTINUOUS
 10
8.0869115286
 20
6.7972759523
 11
8.0908870994
 21
6.8041580593
  0
LINE
  5
50F
100
AcDbEntity
  8
0
100
AcDbLine
 62
7
  6
CONTINUOUS
 10
8.1262816074
 20
6.7972759523
 11
8.1302571782
 21
6.8041580593
  0
LINE
  5
510
100
AcDbEntity
  8
0
100
AcDbLine
 62
7
  6
CONTINUOUS
 10
8.1656516861
 20
6.7972759523
 11
8.1696272569
 21
6.8041580593
  0
LINE
  5
511
100
AcDbEntity
  8
0
100
AcDbLine
 62
7
  6
CONTINUOUS
 10
8.2050217648
 20
6.7972759523
 11
8.2089973357
 21
6.8041580593
  0
LWPOLYLINE
  5
512
100
AcDbEntity
  8
0
100
AcDbPolyline
 62
7
  6
CONTINUOUS
 90
13
 70
0
 10
8.5751404034
 20
6.5808410344
 10
8.564841725
 20
6.5751626791
 10
8.5534926958
 20
6.5708580231
 10
8.543660216
 20
6.5689945304
 10
8.5361620361
 20
6.56908603
 10
8.5305722532
 20
6.5703831999
 10
8.5263770643
 20
6.5724195181
 10
8.5232400853
 20
6.5749061759
 10
8.5209028238
 20
6.5776698591
 10
8.5191691219
 20
6.5806243156
 10
8.5178833108
 20
6.5837916939
 10
8.5169408968
 20
6.5873246645
 10
8.5163202706
 20
6.5914529443
  0
LWPOLYLINE
  5
513
100
AcDbEntity
  8
0
100
AcDbPolyline
 62
9
  6
CONTINUOUS
 90
15
 70
0
 10
8.6029297118
 20
6.5443638625
 10
8.5889821626
 20
6.5391529069
 10
8.5734193131
 20
6.5362172134
 10
8.5594780274
 20
6.5365105665
 10
8.5484613908
 20
6.5392218345
 10
8.5400642703
 20
6.543320228
 10
8.5336502905
 20
6.5481802378
 10
8.528744647
 20
6.5534364048
 10
8.525006278
 20
6.5588602256
 10
8.5221676875
 20
6.5643353827
 10
8.5200173151
 20
6.569851607
 10
8.5183886154
 20
6.5755380736
 10
8.517180152
 20
6.5816586313
 10
8.5163836617
 20
6.5885290538
 10
8.5160839498
 20
6.596488538
  0
LINE
  5
514
100
AcDbEntity
  8
0
100
AcDbLine
 62
7
  6
CONTINUOUS
 10
8.2443918436
 20
6.7972759523
 11
8.2483674144
 21
6.8041580593
  0
LINE
  5
515
100
AcDbEntity
  8
0
100
AcDbLine
 62
7
  6
CONTINUOUS
 10
8.2837619223
 20
6.7972759523
 11
8.2877374931
 21
6.8041580593
  0
LINE
  5
516
100
AcDbEntity
  8
0
100
AcDbLine
 62
7
  6
CONTINUOUS
 10
8.3231320011
 20
6.7972759523
 11
8.3271075719
 21
6.8041580593
  0
LINE
  5
517
100
AcDbEntity
  8
0
100
AcDbLine
 62
7
  6
CONTINUOUS
 10
8.3625020798
 20
6.7972759523
 11
8.3664776506
 21
6.8041580593
  0
LINE
  5
518
100
AcDbEntity
  8
0
100
AcDbLine
 62
7
  6
CONTINUOUS
 10
7.9255327687
 20
6.8012191036
 11
7.9255327687
 21
7.4547547338
  0
LINE
  5
519
100
AcDbEntity
  8
0
100
AcDbLine
 62
7
  6
CONTINUOUS
 10
8.4018721585
 20
6.7972759523
 11
8.4058477294
 21
6.8041580593
  0
LINE
  5
51A
100
AcDbEntity
  8
0
100
AcDbLine
 62
7
  6
CONTINUOUS
 10
8.4412422373
 20
6.7972759523
 11
8.4452178081
 21
6.8041580593
  0
LWPOLYLINE
  5
51B
100
AcDbEntity
  8
0
100
AcDbPolyline
 62
7
  6
CONTINUOUS
 90
10
 70
0
 10
7.9458588631
 20
7.4586932751
 10
7.9465676145
 20
7.4444678911
 10
7.9472761792
 20
7.4230201974
 10
7.9479845474
 20
7.3948260489
 10
7.9486926928
 20
7.3605161944
 10
7.949400603
 20
7.320860739
 10
7.9501082942
 20
7.2767500769
 10
7.9508157839
 20
7.2291758107
 10
7.9515230477
 20
7.1792116426
 10
7.9522300876
 20
7.1279846136
  0
LWPOLYLINE
  5
51C
100
AcDbEntity
  8
0
100
AcDbPolyline
 62
7
  6
CONTINUOUS
 90
16
 70
0
 10
7.9881924943
 20
6.7972759523
 10
7.9871973808
 20
6.821555265
 10
7.9862022466
 20
6.8535477237
 10
7.9852071047
 20
6.8924479917
 10
7.9842119727
 20
6.9372762558
 10
7.9832168232
 20
6.9869054778
 10
7.9822216441
 20
7.0400873395
 10
7.9812264678
 20
7.0954815918
 10
7.9802314067
 20
7.1516874962
 10
7.9792365324
 20
7.2072866084
 10
7.9782415875
 20
7.2608944523
 10
7.9772466252
 20
7.3111591109
 10
7.9762516696
 20
7.356814631
 10
7.9752567219
 20
7.3967123479
 10
7.9742617995
 20
7.4298480575
 10
7.9732669428
 20
7.4553877715
  0
LWPOLYLINE
  5
51D
100
AcDbEntity
  8
0
100
AcDbPolyline
 62
7
  6
CONTINUOUS
 90
16
 70
0
 10
7.9770462716
 20
7.4586932751
 10
7.978051827
 20
7.4341170577
 10
7.9790574118
 20
7.4016726601
 10
7.9800629818
 20
7.362195116
 10
7.9810685137
 20
7.3167003812
 10
7.9820740404
 20
7.2663564324
 10
7.9830795665
 20
7.2124567824
 10
7.9840850799
 20
7.1563871729
 10
7.9850906124
 20
7.0995866424
 10
7.9860961879
 20
7.0435135029
 10
7.9871017862
 20
6.9896100376
 10
7.9881073591
 20
6.9392641053
 10
7.9891128977
 20
6.8937696221
 10
7.9901184395
 20
6.8542937814
 10
7.9911239757
 20
6.8218513441
 10
7.9921295021
 20
6.7972759523
  0
LWPOLYLINE
  5
51E
100
AcDbEntity
  8
0
100
AcDbPolyline
 62
7
  6
CONTINUOUS
 90
16
 70
0
 10
8.027562573
 20
6.7972759523
 10
8.0265570929
 20
6.8218500229
 10
8.025551582
 20
6.8542912105
 10
8.0245460474
 20
6.8937662747
 10
8.0235404976
 20
6.9392608692
 10
8.0225349268
 20
6.9896064101
 10
8.0215293347
 20
7.0435093321
 10
8.0205237468
 20
7.0995830631
 10
8.0195181749
 20
7.1563858117
 10
8.0185126118
 20
7.2124581875
 10
8.017507049
 20
7.2663596764
 10
8.016501498
 20
7.316704524
 10
8.0154959533
 20
7.3621993361
 10
8.0144904016
 20
7.4016755693
 10
8.0134848539
 20
7.4341183113
 10
8.0124793424
 20
7.4586932751
  0
LWPOLYLINE
  5
51F
100
AcDbEntity
  8
0
100
AcDbPolyline
 62
7
  6
CONTINUOUS
 90
8
 70
0
 10
7.9266064982
 20
6.9769501756
 10
7.9276802276
 20
6.9303516217
 10
7.928753957
 20
6.8895421982
 10
7.9298276864
 20
6.8557173083
 10
7.9309014158
 20
6.8298677616
 10
7.9319751453
 20
6.8127507517
 10
7.9330488747
 20
6.8048676755
 10
7.9331967445
 20
6.8045216593
  0
LINE
  5
520
100
AcDbEntity
  8
0
100
AcDbLine
 62
7
  6
CONTINUOUS
 10
7.9255327687
 20
7.0279728799
 11
7.9266064982
 21
6.9769501756
  0
LWPOLYLINE
  5
521
100
AcDbEntity
  8
0
100
AcDbPolyline
 62
7
  6
CONTINUOUS
 90
7
 70
0
 10
7.9255327687
 20
6.9428693959
 10
7.9263014505
 20
6.9011830539
 10
7.9270698974
 20
6.8654568944
 10
7.9278380891
 20
6.8366565212
 10
7.9286060169
 20
6.8155626946
 10
7.9293737018
 20
6.8027507054
 10
7.9300844225
 20
6.7985853248
  0
LWPOLYLINE
  5
522
100
AcDbEntity
  8
0
100
AcDbPolyline
 62
7
  6
CONTINUOUS
 90
9
 70
0
 10
7.9522300876
 20
7.1279846136
 10
7.9529803203
 20
7.0735202522
 10
7.9537303464
 20
7.020319405
 10
7.9544801323
 20
6.9697401182
 10
7.9552296457
 20
6.9230744914
 10
7.9559789249
 20
6.8815117885
 10
7.9567279758
 20
6.8461152236
 10
7.9574767741
 20
6.8177937481
 10
7.9582253306
 20
6.7972759523
  0
LINE
  5
523
100
AcDbEntity
  8
0
100
AcDbLine
 62
7
  6
CONTINUOUS
 10
7.9732669428
 20
7.4586932751
 11
7.9732669428
 21
7.4553877715
  0
LWPOLYLINE
  5
524
100
AcDbEntity
  8
0
100
AcDbPolyline
 62
7
  6
CONTINUOUS
 90
3
 70
0
 10
7.9732669428
 20
7.4553877715
 10
7.973143774
 20
7.4570690837
 10
7.973020599
 20
7.4586932751
  0
LWPOLYLINE
  5
525
100
AcDbEntity
  8
0
100
AcDbPolyline
 62
7
  6
CONTINUOUS
 90
16
 70
0
 10
8.0164163503
 20
7.4586932751
 10
8.0174218586
 20
7.4341184006
 10
8.0184274081
 20
7.4016756206
 10
8.0194329619
 20
7.3621993031
 10
8.0204385053
 20
7.3167045501
 10
8.021444053
 20
7.2663598782
 10
8.0224496124
 20
7.2124585853
 10
8.023455181
 20
7.1563859146
 10
8.0244607548
 20
7.0995830535
 10
8.0254663431
 20
7.0435093037
 10
8.0264719356
 20
6.9896063624
 10
8.027477507
 20
6.9392607955
 10
8.0284830543
 20
6.8937663145
 10
8.0294885814
 20
6.8542915135
 10
8.030494091
 20
6.8218503029
 10
8.0314995809
 20
6.7972759523
  0
LWPOLYLINE
  5
526
100
AcDbEntity
  8
0
100
AcDbPolyline
 62
7
  6
CONTINUOUS
 90
16
 70
0
 10
8.0669326517
 20
6.7972759523
 10
8.0659271618
 20
6.8218503029
 10
8.0649216523
 20
6.8542915135
 10
8.0639161252
 20
6.8937663145
 10
8.0629105779
 20
6.9392607955
 10
8.0619050064
 20
6.9896063624
 10
8.060899414
 20
7.0435093037
 10
8.0598938257
 20
7.0995830535
 10
8.0588882518
 20
7.1563859146
 10
8.0578826833
 20
7.2124585853
 10
8.0568771239
 20
7.2663598782
 10
8.0558715762
 20
7.3167045501
 10
8.0548660328
 20
7.3621993031
 10
8.0538604789
 20
7.4016756206
 10
8.0528549295
 20
7.4341184006
 10
8.0518494212
 20
7.4586932751
  0
LWPOLYLINE
  5
527
100
AcDbEntity
  8
0
100
AcDbPolyline
 62
7
  6
CONTINUOUS
 90
16
 70
0
 10
8.055786429
 20
7.4586932751
 10
8.0567919395
 20
7.4341183408
 10
8.0577974862
 20
7.4016756417
 10
8.0588030374
 20
7.3621994397
 10
8.0598085799
 20
7.3167047496
 10
8.0608141246
 20
7.2663602517
 10
8.0618196865
 20
7.2124588434
 10
8.062825259
 20
7.1563859529
 10
8.063830833
 20
7.0995830839
 10
8.0648364202
 20
7.043509395
 10
8.0658420114
 20
6.9896065134
 10
8.0668475815
 20
6.9392609998
 10
8.067853124
 20
6.8937667
 10
8.0688586494
 20
6.8542919006
 10
8.0698641652
 20
6.8218504315
 10
8.0708696596
 20
6.7972759523
  0
LWPOLYLINE
  5
528
100
AcDbEntity
  8
0
100
AcDbPolyline
 62
7
  6
CONTINUOUS
 90
16
 70
0
 10
8.1063027305
 20
6.7972759523
 10
8.105297236
 20
6.8218504315
 10
8.1042917202
 20
6.8542919006
 10
8.1032861949
 20
6.8937667
 10
8.1022806523
 20
6.9392609998
 10
8.1012750823
 20
6.9896065134
 10
8.100269491
 20
7.043509395
 10
8.0992639039
 20
7.0995830839
 10
8.0982583299
 20
7.1563859529
 10
8.0972527574
 20
7.2124588434
 10
8.0962471954
 20
7.2663602517
 10
8.0952416507
 20
7.3167047496
 10
8.0942361083
 20
7.3621994397
 10
8.0932305571
 20
7.4016756417
 10
8.0922250103
 20
7.4341183408
 10
8.0912194999
 20
7.4586932751
  0
LWPOLYLINE
  5
529
100
AcDbEntity
  8
0
100
AcDbPolyline
 62
7
  6
CONTINUOUS
 90
16
 70
0
 10
8.0951565078
 20
7.4586932751
 10
8.0961620147
 20
7.434118441
 10
8.0971675585
 20
7.4016758734
 10
8.0981731076
 20
7.3621998035
 10
8.0991786474
 20
7.316705286
 10
8.1001841932
 20
7.2663607765
 10
8.1011897619
 20
7.2124590271
 10
8.1021953376
 20
7.1563859618
 10
8.1032009106
 20
7.0995831483
 10
8.1042064955
 20
7.0435095857
 10
8.1052120841
 20
6.9896068286
 10
8.106217651
 20
6.9392614427
 10
8.1072231891
 20
6.8937672797
 10
8.1082287168
 20
6.854292305
 10
8.1092342417
 20
6.8218504954
 10
8.1102397384
 20
6.7972759523
  0
LWPOLYLINE
  5
52A
100
AcDbEntity
  8
0
100
AcDbPolyline
 62
7
  6
CONTINUOUS
 90
16
 70
0
 10
8.1456728092
 20
6.7972759523
 10
8.1446673125
 20
6.8218504954
 10
8.1436617877
 20
6.854292305
 10
8.1426562599
 20
6.8937672797
 10
8.1416507218
 20
6.9392614427
 10
8.140645155
 20
6.9896068286
 10
8.1396395663
 20
7.0435095857
 10
8.1386339815
 20
7.0995831483
 10
8.1376284085
 20
7.1563859618
 10
8.1366228327
 20
7.2124590271
 10
8.1356172641
 20
7.2663607765
 10
8.1346117183
 20
7.316705286
 10
8.1336061785
 20
7.3621998035
 10
8.1326006294
 20
7.4016758734
 10
8.1315950856
 20
7.434118441
 10
8.1305895786
 20
7.4586932751
  0
LWPOLYLINE
  5
52B
100
AcDbEntity
  8
0
100
AcDbPolyline
 62
7
  6
CONTINUOUS
 90
16
 70
0
 10
8.1345265865
 20
7.4586932751
 10
8.1355320881
 20
7.4341185927
 10
8.1365376275
 20
7.4016762222
 10
8.1375431731
 20
7.3622003644
 10
8.1385487118
 20
7.3167059713
 10
8.1395542626
 20
7.2663612616
 10
8.1405598392
 20
7.2124591071
 10
8.1415654168
 20
7.1563859366
 10
8.1425709877
 20
7.099583244
 10
8.1435765689
 20
7.0435098736
 10
8.1445821536
 20
6.9896073084
 10
8.1455877151
 20
6.9392621407
 10
8.146593253
 20
6.8937679083
 10
8.147598788
 20
6.8542925772
 10
8.1486043199
 20
6.8218505106
 10
8.1496098171
 20
6.7972759523
  0
LWPOLYLINE
  5
52C
100
AcDbEntity
  8
0
100
AcDbPolyline
 62
7
  6
CONTINUOUS
 90
10
 70
0
 10
7.9386627394
 20
6.7972759523
 10
7.9372075492
 20
6.8096244738
 10
7.9357514546
 20
6.8295265376
 10
7.9342944218
 20
6.8564823834
 10
7.9328364621
 20
6.8898235202
 10
7.9313776013
 20
6.9287287887
 10
7.9299178177
 20
6.9722459958
 10
7.92845706
 20
7.0193150224
 10
7.9269953586
 20
7.0687897119
 10
7.9255327687
 20
7.119466961
  0
LWPOLYLINE
  5
52D
100
AcDbEntity
  8
0
100
AcDbPolyline
 62
7
  6
CONTINUOUS
 90
16
 70
0
 10
8.185042888
 20
6.7972759523
 10
8.1840373908
 20
6.8218505106
 10
8.1830318589
 20
6.8542925772
 10
8.1820263239
 20
6.8937679083
 10
8.181020786
 20
6.9392621407
 10
8.1800152245
 20
6.9896073084
 10
8.1790096398
 20
7.0435098736
 10
8.1780040585
 20
7.099583244
 10
8.1769984877
 20
7.1563859366
 10
8.17599291
 20
7.2124591071
 10
8.1749873335
 20
7.2663612616
 10
8.1739817827
 20
7.3167059713
 10
8.172976244
 20
7.3622003644
 10
8.1719706984
 20
7.4016762222
 10
8.170965159
 20
7.4341185927
 10
8.1699596574
 20
7.4586932751
  0
LWPOLYLINE
  5
52E
100
AcDbEntity
  8
0
100
AcDbPolyline
 62
7
  6
CONTINUOUS
 90
16
 70
0
 10
8.1738966653
 20
7.4586932751
 10
8.1749021624
 20
7.43411872
 10
8.1759076947
 20
7.4016766389
 10
8.1769132305
 20
7.3622012722
 10
8.1779187685
 20
7.3167070259
 10
8.1789243295
 20
7.2663618813
 10
8.1799299138
 20
7.212459335
 10
8.1809354948
 20
7.1563859778
 10
8.1819410655
 20
7.0995832963
 10
8.1829466431
 20
7.0435101231
 10
8.1839522202
 20
6.9896079397
 10
8.1849577716
 20
6.9392632038
 10
8.1859633103
 20
6.8937688164
 10
8.1869688555
 20
6.8542929804
 10
8.1879743946
 20
6.8218506249
 10
8.1889798958
 20
6.7972759523
  0
LWPOLYLINE
  5
52F
100
AcDbEntity
  8
0
100
AcDbPolyline
 62
7
  6
CONTINUOUS
 90
16
 70
0
 10
8.2244129667
 20
6.7972759523
 10
8.2234074655
 20
6.8218506249
 10
8.2224019264
 20
6.8542929804
 10
8.2213963812
 20
6.8937688164
 10
8.2203908425
 20
6.9392632038
 10
8.2193852911
 20
6.9896079397
 10
8.218379714
 20
7.0435101231
 10
8.2173741363
 20
7.0995832963
 10
8.2163685657
 20
7.1563859778
 10
8.2153629846
 20
7.212459335
 10
8.2143574003
 20
7.2663618813
 10
8.2133518394
 20
7.3167070259
 10
8.2123463013
 20
7.3622012722
 10
8.2113407655
 20
7.4016766389
 10
8.2103352332
 20
7.43411872
 10
8.2093297361
 20
7.4586932751
  0
LWPOLYLINE
  5
530
100
AcDbEntity
  8
0
100
AcDbPolyline
 62
7
  6
CONTINUOUS
 90
16
 70
0
 10
8.213266744
 20
7.4586932751
 10
8.2142722407
 20
7.4341187307
 10
8.2152777662
 20
7.4016768992
 10
8.2162832943
 20
7.3622019023
 10
8.2172888323
 20
7.3167077425
 10
8.2182943987
 20
7.266362374
 10
8.2192999871
 20
7.2124596305
 10
8.2203055718
 20
7.1563860762
 10
8.2213111447
 20
7.0995832681
 10
8.2223167206
 20
7.043510194
 10
8.22332229
 20
6.9896084089
 10
8.224327836
 20
6.9392638919
 10
8.2253333755
 20
6.8937693923
 10
8.2263389243
 20
6.8542933378
 10
8.2273444679
 20
6.8218507805
 10
8.2283499746
 20
6.7972759523
  0
LWPOLYLINE
  5
531
100
AcDbEntity
  8
0
100
AcDbPolyline
 62
7
  6
CONTINUOUS
 90
16
 70
0
 10
8.2637830454
 20
6.7972759523
 10
8.2627775388
 20
6.8218507805
 10
8.2617719952
 20
6.8542933378
 10
8.2607664464
 20
6.8937693923
 10
8.2597609069
 20
6.9392638919
 10
8.2587553608
 20
6.9896084089
 10
8.2577497915
 20
7.043510194
 10
8.2567442156
 20
7.0995832681
 10
8.2557386427
 20
7.1563860762
 10
8.254733058
 20
7.2124596305
 10
8.2537274696
 20
7.266362374
 10
8.2527219032
 20
7.3167077425
 10
8.2517163652
 20
7.3622019023
 10
8.250710837
 20
7.4016768992
 10
8.2497053116
 20
7.4341187307
 10
8.2486998149
 20
7.4586932751
  0
LWPOLYLINE
  5
532
100
AcDbEntity
  8
0
100
AcDbPolyline
 62
7
  6
CONTINUOUS
 90
16
 70
0
 10
8.2526368227
 20
7.4586932751
 10
8.2536423174
 20
7.43411879
 10
8.254647834
 20
7.4016772928
 10
8.2556533593
 20
7.3622024854
 10
8.2566589014
 20
7.3167082042
 10
8.2576644712
 20
7.2663627014
 10
8.2586700623
 20
7.2124598283
 10
8.2596756493
 20
7.1563861429
 10
8.2606812234
 20
7.0995832738
 10
8.2616867962
 20
7.0435103676
 10
8.2626923585
 20
6.98960894
 10
8.2636979032
 20
6.9392644462
 10
8.2647034453
 20
6.8937697703
 10
8.2657089963
 20
6.8542935785
 10
8.266714543
 20
6.8218508847
 10
8.2677200533
 20
6.7972759523
  0
LWPOLYLINE
  5
533
100
AcDbEntity
  8
0
100
AcDbPolyline
 62
7
  6
CONTINUOUS
 90
16
 70
0
 10
8.3031531242
 20
6.7972759523
 10
8.3021476138
 20
6.8218508847
 10
8.3011420672
 20
6.8542935785
 10
8.3001365162
 20
6.8937697703
 10
8.299130974
 20
6.9392644462
 10
8.2981254294
 20
6.98960894
 10
8.297119867
 20
7.0435103676
 10
8.2961142942
 20
7.0995832738
 10
8.2951087202
 20
7.1563861429
 10
8.2941031331
 20
7.2124598283
 10
8.2930975421
 20
7.2663627014
 10
8.2920919722
 20
7.3167082042
 10
8.2910864302
 20
7.3622024854
 10
8.2900809048
 20
7.4016772928
 10
8.2890753883
 20
7.43411879
 10
8.2880698936
 20
7.4586932751
  0
LWPOLYLINE
  5
534
100
AcDbEntity
  8
0
100
AcDbPolyline
 62
7
  6
CONTINUOUS
 90
16
 70
0
 10
8.2920069015
 20
7.4586932751
 10
8.2930123918
 20
7.434118912
 10
8.2940179017
 20
7.4016776892
 10
8.2950234285
 20
7.3622028942
 10
8.2960289755
 20
7.3167084259
 10
8.2970345468
 20
7.2663628646
 10
8.2980401392
 20
7.2124599272
 10
8.2990457275
 20
7.1563861759
 10
8.3000513015
 20
7.0995833082
 10
8.3010568704
 20
7.0435106165
 10
8.3020624299
 20
6.9896093204
 10
8.3030679773
 20
6.9392646677
 10
8.3040735207
 20
6.8937699136
 10
8.3050790745
 20
6.8542935977
 10
8.3060846241
 20
6.8218508171
 10
8.3070901321
 20
6.7972759523
  0
LWPOLYLINE
  5
535
100
AcDbEntity
  8
0
100
AcDbPolyline
 62
7
  6
CONTINUOUS
 90
16
 70
0
 10
8.3425232029
 20
6.7972759523
 10
8.3415176949
 20
6.8218508171
 10
8.3405121454
 20
6.8542935977
 10
8.3395065916
 20
6.8937699136
 10
8.3385010481
 20
6.9392646677
 10
8.3374955008
 20
6.9896093204
 10
8.3364899412
 20
7.0435106165
 10
8.3354843724
 20
7.0995833082
 10
8.3344787984
 20
7.1563861759
 10
8.3334732101
 20
7.2124599272
 10
8.3324676177
 20
7.2663628646
 10
8.3314620464
 20
7.3167084259
 10
8.3304564993
 20
7.3622028942
 10
8.3294509725
 20
7.4016776892
 10
8.3284454627
 20
7.434118912
 10
8.3274399723
 20
7.4586932751
  0
LWPOLYLINE
  5
536
100
AcDbEntity
  8
0
100
AcDbPolyline
 62
7
  6
CONTINUOUS
 90
16
 70
0
 10
8.3313769802
 20
7.4586932751
 10
8.3323824609
 20
7.4341191881
 10
8.3333879715
 20
7.4016780089
 10
8.3343935055
 20
7.3622029654
 10
8.3353990553
 20
7.316708375
 10
8.3364046262
 20
7.2663628329
 10
8.3374102183
 20
7.2124599084
 10
8.3384158064
 20
7.1563861695
 10
8.3394213784
 20
7.0995834085
 10
8.3404269416
 20
7.0435110286
 10
8.3414325042
 20
6.9896095555
 10
8.3424380549
 20
6.9392647189
 10
8.3434435996
 20
6.893769908
 10
8.3444491512
 20
6.8542936723
 10
8.3454546991
 20
6.8218509238
 10
8.3464602108
 20
6.7972759523
  0
LWPOLYLINE
  5
537
100
AcDbEntity
  8
0
100
AcDbPolyline
 62
7
  6
CONTINUOUS
 90
16
 70
0
 10
8.3818932817
 20
6.7972759523
 10
8.3808877699
 20
6.8218509238
 10
8.3798822221
 20
6.8542936723
 10
8.3788766704
 20
6.893769908
 10
8.3778711258
 20
6.9392647189
 10
8.376865575
 20
6.9896095555
 10
8.3758600125
 20
7.0435110286
 10
8.3748544493
 20
7.0995834085
 10
8.3738488772
 20
7.1563861695
 10
8.3728432891
 20
7.2124599084
 10
8.371837697
 20
7.2663628329
 10
8.3708321262
 20
7.316708375
 10
8.3698265764
 20
7.3622029654
 10
8.3688210424
 20
7.4016780089
 10
8.3678155318
 20
7.4341191881
 10
8.3668100511
 20
7.4586932751
  0
LWPOLYLINE
  5
538
100
AcDbEntity
  8
0
100
AcDbPolyline
 62
7
  6
CONTINUOUS
 90
16
 70
0
 10
8.370747059
 20
7.4586932751
 10
8.3717525357
 20
7.4341192997
 10
8.3727580518
 20
7.4016779538
 10
8.3737635913
 20
7.3622026651
 10
8.3747691405
 20
7.3167080649
 10
8.3757747091
 20
7.2663626137
 10
8.3767802994
 20
7.2124597764
 10
8.3777858859
 20
7.1563861251
 10
8.3787914553
 20
7.0995835159
 10
8.3797970193
 20
7.0435110885
 10
8.3808025869
 20
6.9896093469
 10
8.3818081405
 20
6.9392643946
 10
8.3828136847
 20
6.8937696387
 10
8.3838192347
 20
6.8542935034
 10
8.3848247805
 20
6.8218508469
 10
8.3858302895
 20
6.7972759523
  0
LWPOLYLINE
  5
539
100
AcDbEntity
  8
0
100
AcDbPolyline
 62
7
  6
CONTINUOUS
 90
16
 70
0
 10
8.4212633604
 20
6.7972759523
 10
8.4202578514
 20
6.8218508469
 10
8.4192523055
 20
6.8542935034
 10
8.4182467555
 20
6.8937696387
 10
8.4172412113
 20
6.9392643946
 10
8.4162356578
 20
6.9896093469
 10
8.4152300901
 20
7.0435110885
 10
8.4142245261
 20
7.0995835159
 10
8.4132189568
 20
7.1563861251
 10
8.4122133703
 20
7.2124597764
 10
8.41120778
 20
7.2663626137
 10
8.4102022114
 20
7.3167080649
 10
8.4091966622
 20
7.3622026651
 10
8.4081911226
 20
7.4016779538
 10
8.4071856066
 20
7.4341192997
 10
8.4061801298
 20
7.4586932751
  0
LWPOLYLINE
  5
53A
100
AcDbEntity
  8
0
100
AcDbPolyline
 62
7
  6
CONTINUOUS
 90
16
 70
0
 10
8.4101171377
 20
7.4586932751
 10
8.4111226187
 20
7.4341191789
 10
8.4121281425
 20
7.4016775228
 10
8.4131336844
 20
7.3622020551
 10
8.4141392308
 20
7.3167075109
 10
8.4151447954
 20
7.266362221
 10
8.4161503824
 20
7.2124595414
 10
8.417155966
 20
7.1563860485
 10
8.418161533
 20
7.0995835731
 10
8.4191671016
 20
7.043510892
 10
8.4201726756
 20
6.9896088274
 10
8.4211782313
 20
6.939263817
 10
8.4221837743
 20
6.8937691767
 10
8.4231893216
 20
6.8542932081
 10
8.4241948641
 20
6.8218507092
 10
8.4252003683
 20
6.7972759523
  0
LWPOLYLINE
  5
53B
100
AcDbEntity
  8
0
100
AcDbPolyline
 62
7
  6
CONTINUOUS
 90
16
 70
0
 10
8.4604062505
 20
6.8021045869
 10
8.4594160372
 20
6.8280581536
 10
8.4584257561
 20
6.8614889787
 10
8.4574354484
 20
6.9015634352
 10
8.4564451322
 20
6.9472822193
 10
8.45545481
 20
6.9975056967
 10
8.454464508
 20
7.0509805495
 10
8.4534742983
 20
7.1063696228
 10
8.4524838816
 20
7.1623090248
 10
8.4514933292
 20
7.2174000761
 10
8.450502776
 20
7.2702612483
 10
8.4495122542
 20
7.3195726917
 10
8.4485217498
 20
7.3641057001
 10
8.4475312263
 20
7.4027513579
 10
8.4465407031
 20
7.4345450241
 10
8.4455502086
 20
7.4586932751
  0
LWPOLYLINE
  5
53C
100
AcDbEntity
  8
0
100
AcDbPolyline
 62
7
  6
CONTINUOUS
 90
4
 70
0
 10
8.4747453672
 20
7.1279846137
 10
8.4755209916
 20
7.0874816378
 10
8.4762966161
 20
7.0465205678
 10
8.4770722405
 20
7.0057530359
  0
LINE
  5
53D
100
AcDbEntity
  8
0
100
AcDbLine
 62
7
  6
CONTINUOUS
 10
8.4604062505
 20
6.8021045869
 11
8.4604978266
 21
6.7972759523
  0
LWPOLYLINE
  5
53E
100
AcDbEntity
  8
0
100
AcDbPolyline
 62
7
  6
CONTINUOUS
 90
9
 70
0
 10
8.4570288317
 20
7.1279846137
 10
8.4560910327
 20
7.1808181409
 10
8.4551421266
 20
7.2330703978
 10
8.4541930143
 20
7.2829277468
 10
8.4532556021
 20
7.3286920292
 10
8.4523185938
 20
7.3699558753
 10
8.4513735388
 20
7.4061009654
 10
8.450426214
 20
7.435994945
 10
8.4494872164
 20
7.4586932751
  0
LINE
  5
53F
100
AcDbEntity
  8
0
100
AcDbLine
 62
7
  6
CONTINUOUS
 10
8.4604062505
 20
6.8021045869
 11
8.4604062505
 21
7.0834201184
  0
LINE
  5
540
100
AcDbEntity
  8
0
100
AcDbLine
 62
7
  6
CONTINUOUS
 10
8.5160839498
 20
7.659480675
 11
8.5160839498
 21
6.5964850895
  0
LINE
  5
541
100
AcDbEntity
  8
AXIS
100
AcDbLine
 62
7
  6
CONTINUOUS
 10
8.5160839498
 20
6.5964885385
 11
8.5160839498
 21
6.2027877633
  0
LINE
  5
542
100
AcDbEntity
  8
0
100
AcDbLine
 62
7
  6
CONTINUOUS
 10
8.5213595404
 20
6.2027877633
 11
8.5213595404
 21
6.1527877633
  0
LWPOLYLINE
  5
543
100
AcDbEntity
  8
0
100
AcDbPolyline
 62
7
  6
CONTINUOUS
 90
3
 70
0
 10
8.4815418428
 20
7.1279846137
 10
8.4800076022
 20
7.0864760562
 10
8.4770722405
 20
7.0057530359
  0
LWPOLYLINE
  5
544
100
AcDbEntity
  8
0
100
AcDbPolyline
 62
7
  6
CONTINUOUS
 90
20
 70
0
 10
7.9926719426
 20
7.4514475681
 10
7.9931777222
 20
7.4495197806
 10
7.9942514516
 20
7.4385194957
 10
7.9953251811
 20
7.418422921
 10
7.9963989105
 20
7.3898187321
 10
7.9974726399
 20
7.3535448122
 10
7.9985463693
 20
7.310663709
 10
7.9996200987
 20
7.2624315097
 10
8.0006938282
 20
7.2102610478
 10
8.0017675576
 20
7.1556805176
 10
8.002841287
 20
7.1002887099
 10
8.0039150164
 20
7.0457081796
 10
8.0049887458
 20
6.9935377177
 10
8.0060624753
 20
6.9453055184
 10
8.0071362047
 20
6.9024244152
 10
8.0082099341
 20
6.8661504953
 10
8.0092836635
 20
6.8375463064
 10
8.0103573929
 20
6.8174497318
 10
8.0114311224
 20
6.8064494468
 10
8.011936902
 20
6.8045216593
  0
LWPOLYLINE
  5
545
100
AcDbEntity
  8
0
100
AcDbPolyline
 62
7
  6
CONTINUOUS
 90
20
 70
0
 10
8.1107821788
 20
7.4514475681
 10
8.1115779437
 20
7.4474687388
 10
8.1126555919
 20
7.4339026683
 10
8.11373324
 20
7.4113101789
 10
8.1148108882
 20
7.3803578846
 10
8.1158885363
 20
7.3419590638
 10
8.1169661845
 20
7.2972467123
 10
8.1180438326
 20
7.2475401128
 10
8.1191214807
 20
7.1943059084
 10
8.1201991289
 20
7.1391148277
 10
8.121276777
 20
7.0835953389
 10
8.1223544252
 20
7.0293856001
 10
8.1234320733
 20
6.9780851242
 10
8.1245097214
 20
6.9312075829
 10
8.1255873696
 20
6.8901361454
 10
8.1266650177
 20
6.8560826654
 10
8.1277426659
 20
6.830051925
 10
8.128820314
 20
6.8128119875
 10
8.1298979621
 20
6.8048715343
 10
8.1300471382
 20
6.8045216593
  0
LWPOLYLINE
  5
546
100
AcDbEntity
  8
0
100
AcDbPolyline
 62
7
  6
CONTINUOUS
 90
19
 70
0
 10
8.0320420213
 20
7.4514475681
 10
8.0329096295
 20
7.4468546511
 10
8.0339872776
 20
7.4326713392
 10
8.0350649258
 20
7.4094979398
 10
8.0361425739
 20
7.3780182074
 10
8.037220222
 20
7.3391609832
 10
8.0382978702
 20
7.2940727883
 10
8.0393755183
 20
7.2440839953
 10
8.0404531665
 20
7.1906695736
 10
8.0415308146
 20
7.1354055693
 10
8.0426084627
 20
7.0799226023
 10
8.0436861109
 20
7.0258577531
 10
8.044763759
 20
6.9748062594
 10
8.0458414072
 20
6.9282744466
 10
8.0469190553
 20
6.8876352826
 10
8.0479967034
 20
6.8540878666
 10
8.0490743516
 20
6.8286220488
 10
8.0501519997
 20
6.8119892238
 10
8.0513069807
 20
6.8045216593
  0
LWPOLYLINE
  5
547
100
AcDbEntity
  8
0
100
AcDbPolyline
 62
7
  6
CONTINUOUS
 90
3
 70
0
 10
8.4604062505
 20
7.0834201184
 10
8.4587177221
 20
7.1056556103
 10
8.4570288317
 20
7.1279846137
  0
LWPOLYLINE
  5
548
100
AcDbEntity
  8
0
100
AcDbPolyline
 62
7
  6
CONTINUOUS
 90
10
 70
0
 10
8.4745157551
 20
7.4586932751
 10
8.4752422967
 20
7.444183871
 10
8.4759811642
 20
7.4226000422
 10
8.4767385186
 20
7.3941602403
 10
8.4775086246
 20
7.3596443775
 10
8.478285719
 20
7.3201456839
 10
8.4790755471
 20
7.2763181271
 10
8.4798879516
 20
7.2285697007
 10
8.4807132448
 20
7.1785386219
 10
8.4815418428
 20
7.1279846137
  0
LINE
  5
549
100
AcDbEntity
  8
0
100
AcDbLine
 62
7
  6
CONTINUOUS
 10
8.5163202706
 20
6.5914529443
 11
8.5160839503
 21
6.5964812271
  0
LINE
  5
54A
100
AcDbEntity
  8
0
100
AcDbLine
 62
9
  6
CONTINUOUS
 10
8.575139068
 20
7.7185357948
 11
8.575139068
 21
6.6084496572
  0
LINE
  5
54B
100
AcDbEntity
  8
0
100
AcDbLine
 62
9
  6
CONTINUOUS
 10
8.575139068
 20
6.6084496572
 11
8.5751398832
 21
6.5886154331
  0
LINE
  5
54C
100
AcDbEntity
  8
0
100
AcDbLine
 62
9
  6
CONTINUOUS
 10
8.5751398832
 20
6.5886154331
 11
8.5751404034
 21
6.5808405935
  0
LINE
  5
54D
100
AcDbEntity
  8
0
100
AcDbLine
 62
7
  6
CONTINUOUS
 10
7.9331967445
 20
6.8045216593
 11
7.9373823553
 21
6.7972759523
  0
LINE
  5
54E
100
AcDbEntity
  8
0
100
AcDbLine
 62
7
  6
CONTINUOUS
 10
7.9725668232
 20
6.8045216593
 11
7.9767524341
 21
6.7972759523
  0
LWPOLYLINE
  5
54F
100
AcDbEntity
  8
0
100
AcDbPolyline
 62
7
  6
CONTINUOUS
 90
20
 70
0
 10
8.1895223363
 20
7.4514475681
 10
8.190246258
 20
7.448040827
 10
8.1913239062
 20
7.4350937815
 10
8.1924015543
 20
7.4130851721
 10
8.1934792024
 20
7.3826643847
 10
8.1945568506
 20
7.3447290153
 10
8.1956344987
 20
7.300398385
 10
8.1967121469
 20
7.2509805135
 10
8.197789795
 20
7.1979335246
 10
8.1988674431
 20
7.1428226229
 10
8.1999450913
 20
7.0872739109
 10
8.2010227394
 20
7.032926409
 10
8.2021003876
 20
6.9813836947
 10
8.2031780357
 20
6.9341665876
 10
8.2042556838
 20
6.8926682757
 10
8.205333332
 20
6.8581132084
 10
8.2064109801
 20
6.8315209675
 10
8.2074886283
 20
6.8136761838
 10
8.2085662764
 20
6.8051053855
 10
8.2087872957
 20
6.8045216593
  0
LWPOLYLINE
  5
550
100
AcDbEntity
  8
0
100
AcDbPolyline
 62
7
  6
CONTINUOUS
 90
19
 70
0
 10
8.3076325725
 20
7.4514475681
 10
8.3087875535
 20
7.4439800037
 10
8.3098652016
 20
7.4273471786
 10
8.3109428498
 20
7.4018813608
 10
8.3120204979
 20
7.3683339448
 10
8.3130981461
 20
7.3276947808
 10
8.3141757942
 20
7.281162968
 10
8.3152534423
 20
7.2301114743
 10
8.3163310905
 20
7.1760466251
 10
8.3174087386
 20
7.1205636581
 10
8.3184863868
 20
7.0652996538
 10
8.3195640349
 20
7.0118852321
 10
8.320641683
 20
6.9618964391
 10
8.3217193312
 20
6.9168082443
 10
8.3227969793
 20
6.87795102
 10
8.3238746275
 20
6.8464712876
 10
8.3249522756
 20
6.8232978883
 10
8.3260299237
 20
6.8091145763
 10
8.3268975319
 20
6.8045216593
  0
LWPOLYLINE
  5
551
100
AcDbEntity
  8
0
100
AcDbPolyline
 62
7
  6
CONTINUOUS
 90
34
 70
0
 10
8.4770722405
 20
7.0057530359
 10
8.4762346511
 20
7.0130612387
 10
8.4754430652
 20
7.0198347664
 10
8.4746956492
 20
7.0260978805
 10
8.473990462
 20
7.0318771282
 10
8.4733260203
 20
7.0371962353
 10
8.4727004411
 20
7.0420827322
 10
8.4721114946
 20
7.0465668181
 10
8.4715566116
 20
7.0506806675
 10
8.4710328804
 20
7.0544578662
 10
8.4705370313
 20
7.0579329746
 10
8.4700654068
 20
7.0611411985
 10
8.469613914
 20
7.0641181429
 10
8.4691779575
 20
7.0668996194
 10
8.468752342
 20
7.0695214786
 10
8.4683311246
 20
7.0720194586
 10
8.4679074103
 20
7.0744288675
 10
8.4674757005
 20
7.0767699417
 10
8.4670366901
 20
7.0790244257
 10
8.4665914604
 20
7.0811710129
 10
8.4661403234
 20
7.0831907497
 10
8.4656826419
 20
7.0850660071
 10
8.4652167973
 20
7.0867778882
 10
8.4647325136
 20
7.0883249726
 10
8.4642138737
 20
7.089687662
 10
8.4636719281
 20
7.0907417722
 10
8.4630799176
 20
7.0913898728
 10
8.4624511406
 20
7.0913858146
 10
8.4619149049
 20
7.0906865509
 10
8.461500587
 20
7.0896004925
 10
8.4611726665
 20
7.0883269401
 10
8.460890656
 20
7.086878332
 10
8.4606378124
 20
7.0852464509
 10
8.4604062505
 20
7.0834201184
  0
LINE
  5
552
100
AcDbEntity
  8
AXIS
100
AcDbLine
 62
7
  6
CONTINUOUS
 10
8.6932493042
 20
6.1027877633
 11
8.6932493042
 21
3.3468822515
  0
LINE
  5
553
100
AcDbEntity
  8
0
100
AcDbLine
 62
7
  6
CONTINUOUS
 10
9.1013595404
 20
6.1527877633
 11
9.0724920269
 21
6.1027877633
  0
LINE
  5
554
100
AcDbEntity
  8
0
100
AcDbLine
 62
7
  6
CONTINUOUS
 10
8.011936902
 20
6.8045216593
 11
8.0161225128
 21
6.7972759523
  0
LINE
  5
555
100
AcDbEntity
  8
0
100
AcDbLine
 62
7
  6
CONTINUOUS
 10
8.0513069807
 20
6.8045216593
 11
8.0554925915
 21
6.7972759523
  0
LINE
  5
556
100
AcDbEntity
  8
0
100
AcDbLine
 62
7
  6
CONTINUOUS
 10
8.0906770595
 20
6.8045216593
 11
8.0948626703
 21
6.7972759523
  0
LINE
  5
557
100
AcDbEntity
  8
0
100
AcDbLine
 62
7
  6
CONTINUOUS
 10
8.1300471382
 20
6.8045216593
 11
8.134232749
 21
6.7972759523
  0
LINE
  5
558
100
AcDbEntity
  8
0
100
AcDbLine
 62
7
  6
CONTINUOUS
 10
8.5213595404
 20
6.1527877633
 11
8.5502270539
 21
6.1027877633
  0
LWPOLYLINE
  5
559
100
AcDbEntity
  8
0
100
AcDbPolyline
 62
7
  6
CONTINUOUS
 90
20
 70
0
 10
7.9533018639
 20
7.4514475681
 10
7.9534497337
 20
7.4511015519
 10
7.9545234631
 20
7.4432184757
 10
7.9555971925
 20
7.4261014658
 10
7.9566709219
 20
7.4002519192
 10
7.9577446513
 20
7.3664270292
 10
7.9588183808
 20
7.3256176058
 10
7.9598921102
 20
7.2790190518
 10
7.9609658396
 20
7.2279963475
 10
7.962039569
 20
7.1740440667
 10
7.9631132984
 20
7.1187425973
 10
7.9641870279
 20
7.063711848
 10
7.9652607573
 20
7.0105637977
 10
7.9663344867
 20
6.9608552765
 10
7.9674082161
 20
6.9160423627
 10
7.9684819455
 20
6.8774377309
 10
7.969555675
 20
6.8461722006
 10
7.9706294044
 20
6.8231616121
 10
7.9717031338
 20
6.809079999
 10
7.9725668232
 20
6.8045216593
  0
LWPOLYLINE
  5
55A
100
AcDbEntity
  8
0
100
AcDbPolyline
 62
7
  6
CONTINUOUS
 90
20
 70
0
 10
8.0714121001
 20
7.4514475681
 10
8.0717049625
 20
7.450587545
 10
8.0727826107
 20
7.4413875283
 10
8.0738602588
 20
7.4229402444
 10
8.074937907
 20
7.3957899987
 10
8.0760155551
 20
7.3607378867
 10
8.0770932032
 20
7.3188181559
 10
8.0781708514
 20
7.27126769
 10
8.0792484995
 20
7.2194895133
 10
8.0803261477
 20
7.1650113928
 10
8.0814037958
 20
7.10944076
 10
8.082481444
 20
7.0544172822
 10
8.0835590921
 20
7.0015644823
 10
8.0846367402
 20
6.9524418352
 10
8.0857143884
 20
6.9084987538
 10
8.0867920365
 20
6.8710318228
 10
8.0878696847
 20
6.8411465416
 10
8.0889473328
 20
6.8197247053
 10
8.0900249809
 20
6.8073983868
 10
8.0906770595
 20
6.8045216593
  0
LWPOLYLINE
  5
55B
100
AcDbEntity
  8
0
100
AcDbPolyline
 62
7
  6
CONTINUOUS
 90
20
 70
0
 10
8.3470026513
 20
7.4514475681
 10
8.3475828866
 20
7.44905871
 10
8.3486605347
 20
7.4373547388
 10
8.3497381828
 20
7.4165224919
 10
8.350815831
 20
7.3871766455
 10
8.3518934791
 20
7.3501830783
 10
8.3529711273
 20
7.3066333226
 10
8.3540487754
 20
7.2578123575
 10
8.3551264235
 20
7.2051606947
 10
8.3562040717
 20
7.1502318742
 10
8.3572817198
 20
7.094646626
 10
8.358359368
 20
7.0400450485
 10
8.3594370161
 20
6.9880382161
 10
8.3605146643
 20
6.9401606425
 10
8.3615923124
 20
6.8978250036
 10
8.3626699605
 20
6.8622804547
 10
8.3637476087
 20
6.8345757735
 10
8.3648252568
 20
6.8155284144
 10
8.365902905
 20
6.8057003888
 10
8.3662676106
 20
6.8045216593
  0
LWPOLYLINE
  5
55C
100
AcDbEntity
  8
0
100
AcDbPolyline
 62
7
  6
CONTINUOUS
 90
20
 70
0
 10
8.2682624938
 20
7.4514475681
 10
8.2689145723
 20
7.4485708406
 10
8.2699922204
 20
7.4362445221
 10
8.2710698686
 20
7.4148226859
 10
8.2721475167
 20
7.3849374046
 10
8.2732251649
 20
7.3474704736
 10
8.274302813
 20
7.3035273922
 10
8.2753804611
 20
7.2544047451
 10
8.2764581093
 20
7.2015519452
 10
8.2775357574
 20
7.1465284674
 10
8.2786134056
 20
7.0909578347
 10
8.2796910537
 20
7.0364797141
 10
8.2807687018
 20
6.9847015374
 10
8.28184635
 20
6.9371510716
 10
8.2829239981
 20
6.8952313408
 10
8.2840016463
 20
6.8601792287
 10
8.2850792944
 20
6.8330289831
 10
8.2861569425
 20
6.8145816991
 10
8.2872345907
 20
6.8053816825
 10
8.2875274532
 20
6.8045216593
  0
LWPOLYLINE
  5
55D
100
AcDbEntity
  8
0
100
AcDbPolyline
 62
7
  6
CONTINUOUS
 90
10
 70
0
 10
8.4651128875
 20
7.4514475681
 10
8.466124182
 20
7.4455008061
 10
8.4672018302
 20
7.4300886855
 10
8.4682794783
 20
7.4057626814
 10
8.4693571265
 20
7.3732405567
 10
8.4704347746
 20
7.3334819096
 10
8.4715124227
 20
7.2876598586
 10
8.4725900709
 20
7.2371264294
 10
8.473667719
 20
7.1833726615
 10
8.4747453672
 20
7.1279846137
  0
LWPOLYLINE
  5
55E
100
AcDbEntity
  8
0
100
AcDbPolyline
 62
7
  6
CONTINUOUS
 90
19
 70
0
 10
8.38637273
 20
7.4514475681
 10
8.3874558678
 20
7.4447612266
 10
8.3885335159
 20
7.4287377006
 10
8.3896111641
 20
7.4038401531
 10
8.3906888122
 20
7.3708032113
 10
8.3917664603
 20
7.3306016632
 10
8.3928441085
 20
7.2844216959
 10
8.3939217566
 20
7.2336258957
 10
8.3949994048
 20
7.1797130434
 10
8.3960770529
 20
7.124273892
 10
8.397154701
 20
7.0689442291
 10
8.3982323492
 20
7.015356612
 10
8.3993099973
 20
6.965092197
 10
8.4003876455
 20
6.9196340862
 10
8.4014652936
 20
6.8803235666
 10
8.4025429417
 20
6.8483205345
 10
8.4036205899
 20
6.8245692716
 10
8.404698238
 20
6.8097705826
 10
8.4056376894
 20
6.8045216593
  0
LINE
  5
55F
100
AcDbEntity
  8
AXIS
100
AcDbLine
 62
7
  6
CONTINUOUS
 10
8.9294697766
 20
6.1027877633
 11
8.9294697766
 21
3.3468822515
  0
LINE
  5
560
100
AcDbEntity
  8
AXIS_COSMETIC_THREADS
100
AcDbLine
 62
7
  6
CONTINUOUS
 10
8.9675800128
 20
6.5369846137
 11
8.9675800128
 21
7.7189846137
  0
LINE
  5
561
100
AcDbEntity
  8
0
100
AcDbLine
 62
7
  6
CONTINUOUS
 10
8.9727768632
 20
7.6919609917
 11
8.9727768632
 21
6.5638215424
  0
LINE
  5
562
100
AcDbEntity
  8
0
100
AcDbLine
 62
7
  6
CONTINUOUS
 10
8.1694172169
 20
6.8045216593
 11
8.1736028278
 21
6.7972759523
  0
LINE
  5
563
100
AcDbEntity
  8
0
100
AcDbLine
 62
7
  6
CONTINUOUS
 10
8.2087872957
 20
6.8045216593
 11
8.2129729065
 21
6.7972759523
  0
LINE
  5
564
100
AcDbEntity
  8
0
100
AcDbLine
 62
7
  6
CONTINUOUS
 10
8.2481573744
 20
6.8045216593
 11
8.2523429852
 21
6.7972759523
  0
LINE
  5
565
100
AcDbEntity
  8
0
100
AcDbLine
 62
7
  6
CONTINUOUS
 10
8.2875274532
 20
6.8045216593
 11
8.291713064
 21
6.7972759523
  0
LINE
  5
566
100
AcDbEntity
  8
0
100
AcDbLine
 62
7
  6
CONTINUOUS
 10
8.3268975319
 20
6.8045216593
 11
8.3310831427
 21
6.7972759523
  0
LINE
  5
567
100
AcDbEntity
  8
0
100
AcDbLine
 62
7
  6
CONTINUOUS
 10
7.9533018639
 20
7.4514475681
 11
7.949116253
 21
7.4586932751
  0
LWPOLYLINE
  5
568
100
AcDbEntity
  8
0
100
AcDbPolyline
 62
7
  6
CONTINUOUS
 90
20
 70
0
 10
8.1501522576
 20
7.4514475681
 10
8.1503732768
 20
7.4508638419
 10
8.151450925
 20
7.4422930436
 10
8.1525285731
 20
7.4244482599
 10
8.1536062212
 20
7.3978560191
 10
8.1546838694
 20
7.3633009517
 10
8.1557615175
 20
7.3218026398
 10
8.1568391657
 20
7.2745855327
 10
8.1579168138
 20
7.2230428185
 10
8.1589944619
 20
7.1686953166
 10
8.1600721101
 20
7.1131466046
 10
8.1611497582
 20
7.0580357029
 10
8.1622274064
 20
7.004988714
 10
8.1633050545
 20
6.9555708424
 10
8.1643827026
 20
6.9112402121
 10
8.1654603508
 20
6.8733048427
 10
8.1665379989
 20
6.8428840554
 10
8.1676156471
 20
6.8208754459
 10
8.1686932952
 20
6.8079284004
 10
8.1694172169
 20
6.8045216593
  0
LWPOLYLINE
  5
569
100
AcDbEntity
  8
0
100
AcDbPolyline
 62
7
  6
CONTINUOUS
 90
20
 70
0
 10
8.4257428087
 20
7.4514475681
 10
8.4262512008
 20
7.4495043709
 10
8.427328849
 20
7.4384242857
 10
8.4284064971
 20
7.4181843667
 10
8.4294841453
 20
7.389381813
 10
8.4305617934
 20
7.3528664728
 10
8.4316394415
 20
7.3097157678
 10
8.4327170897
 20
7.2612029028
 10
8.4337947378
 20
7.2087592986
 10
8.434872386
 20
7.1539323564
 10
8.4359500341
 20
7.0983398
 10
8.4370276822
 20
7.0436219435
 10
8.4381053304
 20
6.9913932922
 10
8.4391829785
 20
6.9431949049
 10
8.4402606267
 20
6.9004489232
 10
8.4413382748
 20
6.8644166102
 10
8.4424159229
 20
6.8361611355
 10
8.4434935711
 20
6.8165162052
 10
8.4445712192
 20
6.8060614627
 10
8.4450077681
 20
6.8045216593
  0
LWPOLYLINE
  5
56A
100
AcDbEntity
  8
0
100
AcDbPolyline
 62
9
  6
CONTINUOUS
 90
28
 70
0
 10
9.0470626516
 20
6.8074551301
 10
9.0476184683
 20
6.7878011875
 10
9.048337999
 20
6.7687322284
 10
9.0492361619
 20
6.7502778486
 10
9.0503275913
 20
6.7324658184
 10
9.0516264637
 20
6.7153240755
 10
9.0531463804
 20
6.6988800727
 10
9.0549011973
 20
6.6831524062
 10
9.056905193
 20
6.668154598
 10
9.0591727574
 20
6.6539000848
 10
9.0617153946
 20
6.6404169958
 10
9.0645387213
 20
6.6277491829
 10
9.0676693044
 20
6.6158470275
 10
9.0711595203
 20
6.6045609105
 10
9.0749203529
 20
6.5940206684
 10
9.0788133448
 20
6.5843847379
 10
9.0826953421
 20
6.5757640411
 10
9.0864337389
 20
6.5682150556
 10
9.0899142894
 20
6.5617488122
 10
9.0930589763
 20
6.5563182399
 10
9.0958844499
 20
6.5517447509
 10
9.0983853312
 20
6.5479260542
 10
9.1005569181
 20
6.5447817533
 10
9.10239752
 20
6.5422436876
 10
9.1039042363
 20
6.5402578227
 10
9.1050758089
 20
6.5387772504
 10
9.1059121028
 20
6.5377610534
 10
9.106413265
 20
6.5371739096
  0
LINE
  5
56B
100
AcDbEntity
  8
0
100
AcDbLine
 62
7
  6
CONTINUOUS
 10
9.1013595404
 20
6.2027877633
 11
9.1013595404
 21
6.1527877633
  0
LINE
  5
56C
100
AcDbEntity
  8
AXIS
100
AcDbLine
 62
7
  6
CONTINUOUS
 10
9.1066351309
 20
6.5279882579
 11
9.1066351309
 21
6.2027877633
  0
LINE
  5
56D
100
AcDbEntity
  8
0
100
AcDbLine
 62
7
  6
CONTINUOUS
 10
9.1075800128
 20
7.6589846137
 11
9.1075800128
 21
6.5379846137
  0
LINE
  5
56E
100
AcDbEntity
  8
0
100
AcDbLine
 62
9
  6
CONTINUOUS
 10
9.0475800128
 20
7.7189846137
 11
9.0475784949
 21
7.1279846138
  0
LWPOLYLINE
  5
56F
100
AcDbEntity
  8
0
100
AcDbPolyline
 62
9
  6
CONTINUOUS
 90
16
 70
0
 10
9.0475784949
 20
7.1279846138
 10
9.0475780692
 20
7.1227910439
 10
9.0475241072
 20
7.0991680232
 10
9.0474081323
 20
7.0756071061
 10
9.0472457023
 20
7.0520729499
 10
9.0470520034
 20
7.0285278651
 10
9.046843064
 20
7.0050130275
 10
9.0466361556
 20
6.9816503502
 10
9.0464486991
 20
6.9585550812
 10
9.0462974234
 20
6.9357809778
 10
9.0461986669
 20
6.9133478534
 10
9.0461688003
 20
6.8912761687
 10
9.0462242326
 20
6.8696079237
 10
9.0463811123
 20
6.8483917086
 10
9.0466553523
 20
6.8276628514
 10
9.0470626516
 20
6.8074551301
  0
LINE
  5
570
100
AcDbEntity
  8
0
100
AcDbLine
 62
7
  6
CONTINUOUS
 10
8.5502301136
 20
6.1027877633
 11
9.0724889672
 21
6.1027877633
  0
LINE
  5
571
100
AcDbEntity
  8
0
100
AcDbLine
 62
7
  6
CONTINUOUS
 10
8.5213595404
 20
6.1527877633
 11
9.1013595404
 21
6.1527877633
  0
LINE
  5
572
100
AcDbEntity
  8
0
100
AcDbLine
 62
7
  6
CONTINUOUS
 10
8.3662676106
 20
6.8045216593
 11
8.3704532215
 21
6.7972759523
  0
LINE
  5
573
100
AcDbEntity
  8
0
100
AcDbLine
 62
7
  6
CONTINUOUS
 10
7.9926719426
 20
7.4514475681
 11
7.9884863318
 21
7.4586932751
  0
LINE
  5
574
100
AcDbEntity
  8
0
100
AcDbLine
 62
7
  6
CONTINUOUS
 10
8.4056376894
 20
6.8045216593
 11
8.4098233002
 21
6.7972759523
  0
LINE
  5
575
100
AcDbEntity
  8
0
100
AcDbLine
 62
7
  6
CONTINUOUS
 10
8.0320420213
 20
7.4514475681
 11
8.0278564105
 21
7.4586932751
  0
LINE
  5
576
100
AcDbEntity
  8
0
100
AcDbLine
 62
7
  6
CONTINUOUS
 10
8.4450077681
 20
6.8045216593
 11
8.4491933789
 21
6.7972759523
  0
LINE
  5
577
100
AcDbEntity
  8
0
100
AcDbLine
 62
7
  6
CONTINUOUS
 10
8.0714121001
 20
7.4514475681
 11
8.0672264892
 21
7.4586932751
  0
LINE
  5
578
100
AcDbEntity
  8
0
100
AcDbLine
 62
7
  6
CONTINUOUS
 10
8.1107821788
 20
7.4514475681
 11
8.106596568
 21
7.4586932751
  0
LWPOLYLINE
  5
579
100
AcDbEntity
  8
0
100
AcDbPolyline
 62
7
  6
CONTINUOUS
 90
20
 70
0
 10
8.228892415
 20
7.4514475681
 10
8.2290415911
 20
7.4510976931
 10
8.2301192392
 20
7.44315724
 10
8.2311968874
 20
7.4259173024
 10
8.2322745355
 20
7.3998865621
 10
8.2333521836
 20
7.3658330821
 10
8.2344298318
 20
7.3247616445
 10
8.2355074799
 20
7.2778841033
 10
8.2365851281
 20
7.2265836273
 10
8.2376627762
 20
7.1723738886
 10
8.2387404244
 20
7.1168543997
 10
8.2398180725
 20
7.061663319
 10
8.2408957206
 20
7.0084291147
 10
8.2419733688
 20
6.9587225152
 10
8.2430510169
 20
6.9140101636
 10
8.2441286651
 20
6.8756113428
 10
8.2452063132
 20
6.8446590485
 10
8.2462839613
 20
6.8220665591
 10
8.2473616095
 20
6.8085004887
 10
8.2481573744
 20
6.8045216593
  0
LINE
  5
57A
100
AcDbEntity
  8
AXIS
100
AcDbLine
 62
7
  6
CONTINUOUS
 10
9.1066351309
 20
6.2027877633
 11
8.5160839498
 21
6.2027877633
  0
LINE
  5
57B
100
AcDbEntity
  8
0
100
AcDbLine
 62
7
  6
CONTINUOUS
 10
8.1501522576
 20
7.4514475681
 11
8.1459666467
 21
7.4586932751
  0
LINE
  5
57C
100
AcDbEntity
  8
0
100
AcDbLine
 62
7
  6
CONTINUOUS
 10
8.1895223363
 20
7.4514475681
 11
8.1853367255
 21
7.4586932751
  0
LINE
  5
57D
100
AcDbEntity
  8
0
100
AcDbLine
 62
7
  6
CONTINUOUS
 10
8.228892415
 20
7.4514475681
 11
8.2247068042
 21
7.4586932751
  0
LINE
  5
57E
100
AcDbEntity
  8
0
100
AcDbLine
 62
7
  6
CONTINUOUS
 10
8.2682624938
 20
7.4514475681
 11
8.2640768829
 21
7.4586932751
  0
LINE
  5
57F
100
AcDbEntity
  8
0
100
AcDbLine
 62
7
  6
CONTINUOUS
 10
7.9255327687
 20
6.8012132213
 11
7.9300844139
 21
6.7985853298
  0
LINE
  5
580
100
AcDbEntity
  8
0
100
AcDbLine
 62
7
  6
CONTINUOUS
 10
8.3076325725
 20
7.4514475681
 11
8.3034469617
 21
7.4586932751
  0
LINE
  5
581
100
AcDbEntity
  8
0
100
AcDbLine
 62
7
  6
CONTINUOUS
 10
8.3470026513
 20
7.4514475681
 11
8.3428170404
 21
7.4586932751
  0
LINE
  5
582
100
AcDbEntity
  8
0
100
AcDbLine
 62
7
  6
CONTINUOUS
 10
8.38637273
 20
7.4514475681
 11
8.3821871192
 21
7.4586932751
  0
LINE
  5
583
100
AcDbEntity
  8
0
100
AcDbLine
 62
7
  6
CONTINUOUS
 10
8.4257428087
 20
7.4514475681
 11
8.4215571979
 21
7.4586932751
  0
LINE
  5
584
100
AcDbEntity
  8
0
100
AcDbLine
 62
7
  6
CONTINUOUS
 10
8.4651128875
 20
7.4514475681
 11
8.4609272766
 21
7.4586932751
  0
LWPOLYLINE
  5
585
100
AcDbEntity
  8
0
100
AcDbPolyline
 62
9
  6
CONTINUOUS
 90
6
 70
0
 10
8.8113595404
 20
6.5943058062
 10
8.7688830634
 20
6.592139036
 10
8.7258392444
 20
6.5855759878
 10
8.6825633924
 20
6.5747033717
 10
8.6407202317
 20
6.5603463639
 10
8.6029297118
 20
6.5443638625
  0
LINE
  5
586
100
AcDbEntity
  8
0
100
AcDbLine
 62
7
  6
CONTINUOUS
 10
9.1065800128
 20
6.5369846137
 11
9.0870161821
 21
6.5369846137
  0
LINE
  5
587
100
AcDbEntity
  8
AXIS_COSMETIC_THREADS
100
AcDbLine
 62
7
  6
CONTINUOUS
 10
9.0870161821
 20
6.5369846137
 11
9.1065800128
 21
6.5369846137
  0
LWPOLYLINE
  5
588
100
AcDbEntity
  8
0
100
AcDbPolyline
 62
9
  6
CONTINUOUS
 90
5
 70
0
 10
8.575139068
 20
6.580840343
 10
8.5843527499
 20
6.5757045766
 10
8.5926003146
 20
6.5672824891
 10
8.5990169311
 20
6.5564572095
 10
8.6029297593
 20
6.5443638625
  0
LWPOLYLINE
  5
589
100
AcDbEntity
  8
0
100
AcDbPolyline
 62
9
  6
CONTINUOUS
 90
6
 70
0
 10
8.8113595404
 20
6.6276607316
 10
8.7632450007
 20
6.6256315658
 10
8.7144456303
 20
6.6194780312
 10
8.6653814087
 20
6.6092812225
 10
8.6179440382
 20
6.5958160345
 10
8.5751404034
 20
6.5808405935
  0
LWPOLYLINE
  5
58A
100
AcDbEntity
  8
0
100
AcDbPolyline
 62
9
  6
CONTINUOUS
 90
5
 70
0
 10
8.9675800128
 20
6.6065329027
 10
8.9351452281
 20
6.6143780085
 10
8.894107556
 20
6.621681816
 10
8.8523801481
 20
6.6261848696
 10
8.8113595404
 20
6.6276607316
  0
LWPOLYLINE
  5
58B
100
AcDbEntity
  8
0
100
AcDbPolyline
 62
9
  6
CONTINUOUS
 90
5
 70
0
 10
8.9727768632
 20
6.5638215424
 10
8.9372940308
 20
6.575550298
 10
8.8961698691
 20
6.5857192171
 10
8.8534716431
 20
6.5921758941
 10
8.8113595404
 20
6.5943058062
  0
LWPOLYLINE
  5
58C
100
AcDbEntity
  8
0
100
AcDbPolyline
 62
7
  6
CONTINUOUS
 90
3
 70
0
 10
9.0394740339
 20
6.557615309
 10
9.0078430772
 20
6.5695128581
 10
8.9727768632
 20
6.5808644499
  0
LINE
  5
58D
100
AcDbEntity
  8
0
100
AcDbLine
 62
7
  6
CONTINUOUS
 10
9.0658496458
 20
6.5465638235
 11
9.0394740339
 21
6.557615309
  0
LINE
  5
58E
100
AcDbEntity
  8
0
100
AcDbLine
 62
7
  6
CONTINUOUS
 10
9.0860140747
 20
6.5374593463
 11
9.0658496458
 21
6.5465638235
  0
LINE
  5
58F
100
AcDbEntity
  8
0
100
AcDbLine
 62
7
  6
CONTINUOUS
 10
9.0992759827
 20
6.531175763
 11
9.0860140747
 21
6.5374593463
  0
LINE
  5
590
100
AcDbEntity
  8
0
100
AcDbLine
 62
7
  6
CONTINUOUS
 10
9.1058266225
 20
6.5279881252
 11
9.0992759827
 21
6.531175763
  0
LINE
  5
591
100
AcDbEntity
  8
0
100
AcDbLine
 62
7
  6
CONTINUOUS
 10
9.1066351309
 20
6.5275898036
 11
9.1058266225
 21
6.5279881252
  0
LINE
  5
592
100
AcDbEntity
  8
0
100
AcDbLine
 62
9
  6
CONTINUOUS
 10
9.106413265
 20
6.5371739096
 11
9.1065800128
 21
6.5369846137
  0
LINE
  5
593
100
AcDbEntity
  8
0
100
AcDbLine
 62
7
  6
CONTINUOUS
 10
7.9373830797
 20
6.7972759523
 11
7.9687990321
 21
6.7972759523
  0
LINE
  5
594
100
AcDbEntity
  8
0
100
AcDbLine
 62
7
  6
CONTINUOUS
 10
7.9767534784
 20
6.7972759523
 11
8.0081697362
 21
6.7972759523
  0
LINE
  5
595
100
AcDbEntity
  8
0
100
AcDbLine
 62
7
  6
CONTINUOUS
 10
8.0161241966
 20
6.7972759523
 11
8.0475401749
 21
6.7972759523
  0
LINE
  5
596
100
AcDbEntity
  8
0
100
AcDbLine
 62
7
  6
CONTINUOUS
 10
8.0554938659
 20
6.7972759523
 11
8.0869101165
 21
6.7972759523
  0
LINE
  5
597
100
AcDbEntity
  8
0
100
AcDbLine
 62
7
  6
CONTINUOUS
 10
8.0948641604
 20
6.7972759523
 11
8.1262803324
 21
6.7972759523
  0
LINE
  5
598
100
AcDbEntity
  8
0
100
AcDbLine
 62
7
  6
CONTINUOUS
 10
8.1342340234
 20
6.7972759523
 11
8.1656520479
 21
6.7972759523
  0
LINE
  5
599
100
AcDbEntity
  8
0
100
AcDbLine
 62
7
  6
CONTINUOUS
 10
8.1736038143
 20
6.7972759523
 11
8.205023592
 21
6.7972759523
  0
LINE
  5
59A
100
AcDbEntity
  8
0
100
AcDbLine
 62
7
  6
CONTINUOUS
 10
8.2129688641
 20
6.7972759523
 11
8.2443927795
 21
6.7972759523
  0
LINE
  5
59B
100
AcDbEntity
  8
0
100
AcDbLine
 62
7
  6
CONTINUOUS
 10
8.252342473
 20
6.7972759523
 11
8.2837650538
 21
6.7972759523
  0
LINE
  5
59C
100
AcDbEntity
  8
0
100
AcDbLine
 62
7
  6
CONTINUOUS
 10
8.2917129511
 20
6.7972759523
 11
8.3231319216
 21
6.7972759523
  0
LINE
  5
59D
100
AcDbEntity
  8
0
100
AcDbLine
 62
7
  6
CONTINUOUS
 10
8.3310832221
 20
6.7972759523
 11
8.3625025577
 21
6.7972759523
  0
LINE
  5
59E
100
AcDbEntity
  8
0
100
AcDbLine
 62
7
  6
CONTINUOUS
 10
8.3704498134
 20
6.7972759523
 11
8.4018713442
 21
6.7972759523
  0
LINE
  5
59F
100
AcDbEntity
  8
0
100
AcDbLine
 62
7
  6
CONTINUOUS
 10
8.4098236774
 20
6.7972759523
 11
8.4412463138
 21
6.7972759523
  0
LINE
  5
5A0
100
AcDbEntity
  8
0
100
AcDbLine
 62
7
  6
CONTINUOUS
 10
8.4491947474
 20
6.7972759523
 11
8.4963989105
 21
6.7972759523
  0
LINE
  5
5A1
100
AcDbEntity
  8
0
100
AcDbLine
 62
7
  6
CONTINUOUS
 10
8.4570288317
 20
7.1279846137
 11
8.4815418428
 21
7.1279846137
  0
LINE
  5
5A2
100
AcDbEntity
  8
0
100
AcDbLine
 62
7
  6
CONTINUOUS
 10
8.4963989105
 20
7.4586932751
 11
8.4688785722
 21
7.4586932751
  0
LINE
  5
5A3
100
AcDbEntity
  8
0
100
AcDbLine
 62
7
  6
CONTINUOUS
 10
8.4609276385
 20
7.4586932751
 11
8.4295096139
 21
7.4586932751
  0
LINE
  5
5A4
100
AcDbEntity
  8
0
100
AcDbLine
 62
7
  6
CONTINUOUS
 10
8.421555923
 20
7.4586932751
 11
8.3901397529
 21
7.4586932751
  0
LINE
  5
5A5
100
AcDbEntity
  8
0
100
AcDbLine
 62
7
  6
CONTINUOUS
 10
8.3821857071
 20
7.4586932751
 11
8.3507694565
 21
7.4586932751
  0
LINE
  5
5A6
100
AcDbEntity
  8
0
100
AcDbLine
 62
7
  6
CONTINUOUS
 10
8.3428157655
 20
7.4586932751
 11
8.3113993777
 21
7.4586932751
  0
LINE
  5
5A7
100
AcDbEntity
  8
0
100
AcDbLine
 62
7
  6
CONTINUOUS
 10
8.3034456868
 20
7.4586932751
 11
8.2720295268
 21
7.4586932751
  0
LINE
  5
5A8
100
AcDbEntity
  8
0
100
AcDbLine
 62
7
  6
CONTINUOUS
 10
8.2640754151
 20
7.4586932751
 11
8.2326592202
 21
7.4586932751
  0
LINE
  5
5A9
100
AcDbEntity
  8
0
100
AcDbLine
 62
7
  6
CONTINUOUS
 10
8.2247055293
 20
7.4586932751
 11
8.193287432
 21
7.4586932751
  0
LINE
  5
5AA
100
AcDbEntity
  8
0
100
AcDbLine
 62
7
  6
CONTINUOUS
 10
8.1853357857
 20
7.4586932751
 11
8.1539159339
 21
7.4586932751
  0
LINE
  5
5AB
100
AcDbEntity
  8
0
100
AcDbLine
 62
7
  6
CONTINUOUS
 10
8.1459707232
 20
7.4586932751
 11
8.1145480869
 21
7.4586932751
  0
LINE
  5
5AC
100
AcDbEntity
  8
0
100
AcDbLine
 62
7
  6
CONTINUOUS
 10
8.1065957537
 20
7.4586932751
 11
8.0751742229
 21
7.4586932751
  0
LINE
  5
5AD
100
AcDbEntity
  8
0
100
AcDbLine
 62
7
  6
CONTINUOUS
 10
8.0672269671
 20
7.4586932751
 11
8.0358076315
 21
7.4586932751
  0
LINE
  5
5AE
100
AcDbEntity
  8
0
100
AcDbLine
 62
7
  6
CONTINUOUS
 10
8.0278563311
 20
7.4586932751
 11
7.9964354793
 21
7.4586932751
  0
LINE
  5
5AF
100
AcDbEntity
  8
0
100
AcDbLine
 62
7
  6
CONTINUOUS
 10
7.9323511854
 20
7.4586932751
 11
7.9491167678
 21
7.4586932751
  0
LINE
  5
5B0
100
AcDbEntity
  8
0
100
AcDbLine
 62
7
  6
CONTINUOUS
 10
7.9570671744
 20
7.4586932751
 11
7.988486845
 21
7.4586932751
  0
LINE
  5
5B1
100
AcDbEntity
  8
AXIS
100
AcDbLine
 62
7
  6
CONTINUOUS
 10
8.9675800128
 20
7.7185357948
 11
8.575139068
 21
7.7185357948
  0
LINE
  5
5B2
100
AcDbEntity
  8
0
100
AcDbLine
 62
7
  6
CONTINUOUS
 10
9.0475800128
 20
7.7189846137
 11
8.9675800128
 21
7.7189846137
  0
LINE
  5
5B3
100
AcDbEntity
  8
AXIS_COSMETIC_THREADS
100
AcDbLine
 62
7
  6
CONTINUOUS
 10
8.9675800128
 20
7.7189846137
 11
9.0475800128
 21
7.7189846137
  0
LINE
  5
5B4
100
AcDbEntity
  8
AXIS
100
AcDbLine
 62
7
  6
CONTINUOUS
 10
12.5719228455
 20
3.3468822515
 11
12.3357023731
 21
3.3468822515
  0
LWPOLYLINE
  5
5B5
100
AcDbEntity
  8
0
100
AcDbPolyline
 62
9
  6
CONTINUOUS
 90
5
 70
0
 10
12.7490881998
 20
6.5943058062
 10
12.7460871958
 20
6.5921881707
 10
12.7366989112
 20
6.5857544792
 10
12.7209385061
 20
6.5755828804
 10
12.7010617193
 20
6.5638215173
  0
LINE
  5
5B6
100
AcDbEntity
  8
AXIS
100
AcDbLine
 62
7
  6
CONTINUOUS
 10
12.1585370187
 20
6.5943058062
 11
12.1585370187
 21
6.2027877633
  0
LINE
  5
5B7
100
AcDbEntity
  8
0
100
AcDbLine
 62
7
  6
CONTINUOUS
 10
12.1585370187
 20
6.2027877633
 11
12.1585370187
 21
6.5943058062
  0
LINE
  5
5B8
100
AcDbEntity
  8
0
100
AcDbLine
 62
7
  6
CONTINUOUS
 10
12.1638126093
 20
6.2027877633
 11
12.1638126093
 21
6.1527877633
  0
LINE
  5
5B9
100
AcDbEntity
  8
0
100
AcDbLine
 62
7
  6
CONTINUOUS
 10
12.2065634995
 20
6.5638215424
 11
12.2065634995
 21
6.5808644499
  0
LINE
  5
5BA
100
AcDbEntity
  8
AXIS
100
AcDbLine
 62
7
  6
CONTINUOUS
 10
12.3357023731
 20
6.1027877633
 11
12.3357023731
 21
3.3468822515
  0
LINE
  5
5BB
100
AcDbEntity
  8
0
100
AcDbLine
 62
7
  6
CONTINUOUS
 10
12.3618126093
 20
7.2829846137
 11
12.3618126093
 21
7.1579846137
  0
LINE
  5
5BC
100
AcDbEntity
  8
AXIS
100
AcDbLine
 62
7
  6
CONTINUOUS
 10
12.3710645778
 20
7.1672365822
 11
12.3710645778
 21
7.2672365822
  0
LWPOLYLINE
  5
5BD
100
AcDbEntity
  8
0
100
AcDbPolyline
 62
7
  6
CONTINUOUS
 90
5
 70
0
 10
12.7021108598
 20
6.5726054588
 10
12.7054594938
 20
6.5818542122
 10
12.7111274353
 20
6.5907937887
 10
12.7190690542
 20
6.5988999329
 10
12.725540749
 20
6.6032143522
  0
LINE
  5
5BE
100
AcDbEntity
  8
0
100
AcDbLine
 62
7
  6
CONTINUOUS
 10
12.7438126093
 20
6.1527877633
 11
12.7149450958
 21
6.1027877633
  0
LINE
  5
5BF
100
AcDbEntity
  8
AXIS
100
AcDbLine
 62
7
  6
CONTINUOUS
 10
12.5310645778
 20
7.2672365822
 11
12.5310645778
 21
7.1672365822
  0
LINE
  5
5C0
100
AcDbEntity
  8
0
100
AcDbLine
 62
7
  6
CONTINUOUS
 10
12.5468126093
 20
7.1579846137
 11
12.5468126093
 21
7.2829846137
  0
LINE
  5
5C1
100
AcDbEntity
  8
AXIS
100
AcDbLine
 62
7
  6
CONTINUOUS
 10
12.5719228455
 20
6.1027877633
 11
12.5719228455
 21
3.3468822515
  0
LINE
  5
5C2
100
AcDbEntity
  8
0
100
AcDbLine
 62
7
  6
CONTINUOUS
 10
12.7010617199
 20
6.5638215173
 11
12.7021108598
 21
6.5726054588
  0
LINE
  5
5C3
100
AcDbEntity
  8
0
100
AcDbLine
 62
7
  6
CONTINUOUS
 10
12.1638126093
 20
6.1527877633
 11
12.1926801227
 21
6.1027877633
  0
LWPOLYLINE
  5
5C4
100
AcDbEntity
  8
0
100
AcDbPolyline
 62
7
  6
CONTINUOUS
 90
3
 70
0
 10
12.2021657293
 20
6.5818542114
 10
12.2055143608
 20
6.572605474
 10
12.2065634995
 20
6.5638215424
  0
LINE
  5
5C5
100
AcDbEntity
  8
0
100
AcDbLine
 62
7
  6
CONTINUOUS
 10
12.7010617199
 20
6.5638215173
 11
12.701061719
 21
6.5808644499
  0
LINE
  5
5C6
100
AcDbEntity
  8
0
100
AcDbLine
 62
7
  6
CONTINUOUS
 10
12.7438126093
 20
6.2027877633
 11
12.7438126093
 21
6.1527877633
  0
LINE
  5
5C7
100
AcDbEntity
  8
AXIS
100
AcDbLine
 62
7
  6
CONTINUOUS
 10
12.7490881998
 20
6.5943058062
 11
12.7490881998
 21
6.2027877633
  0
LINE
  5
5C8
100
AcDbEntity
  8
0
100
AcDbLine
 62
7
  6
CONTINUOUS
 10
12.7490881998
 20
6.2027877633
 11
12.7490881998
 21
6.5943058062
  0
LINE
  5
5C9
100
AcDbEntity
  8
0
100
AcDbLine
 62
7
  6
CONTINUOUS
 10
12.1926801227
 20
6.1027877633
 11
12.7149450958
 21
6.1027877633
  0
LINE
  5
5CA
100
AcDbEntity
  8
0
100
AcDbLine
 62
7
  6
CONTINUOUS
 10
12.1638126093
 20
6.1527877633
 11
12.7438126093
 21
6.1527877633
  0
LINE
  5
5CB
100
AcDbEntity
  8
AXIS
100
AcDbLine
 62
7
  6
CONTINUOUS
 10
12.7490881998
 20
6.2027877633
 11
12.1585370187
 21
6.2027877633
  0
LWPOLYLINE
  5
5CC
100
AcDbEntity
  8
0
100
AcDbPolyline
 62
9
  6
CONTINUOUS
 90
5
 70
0
 10
12.2065634995
 20
6.5638215424
 10
12.1867392514
 20
6.575550298
 10
12.1709789435
 20
6.5857192171
 10
12.1615554534
 20
6.5921758941
 10
12.1585370187
 20
6.5943058062
  0
LWPOLYLINE
  5
5CD
100
AcDbEntity
  8
0
100
AcDbPolyline
 62
7
  6
CONTINUOUS
 90
4
 70
0
 10
12.18207847
 20
6.6032183472
 10
12.1885561701
 20
6.5988999146
 10
12.1964977888
 20
6.5907937743
 10
12.2021657293
 20
6.5818542114
  0
LWPOLYLINE
  5
5CE
100
AcDbEntity
  8
0
100
AcDbPolyline
 62
9
  6
CONTINUOUS
 90
82
 70
0
 10
12.4538126093
 20
6.5379846137
 10
12.4687425314
 20
6.5383403807
 10
12.4840154451
 20
6.5394271448
 10
12.499618738
 20
6.5412744924
 10
12.5155465039
 20
6.5439143136
 10
12.5317974015
 20
6.547381766
 10
12.5483672745
 20
6.5517144007
 10
12.5652553863
 20
6.5569535288
 10
12.5824836957
 20
6.5631523591
 10
12.6000691551
 20
6.5703693959
 10
12.6180531896
 20
6.578681127
 10
12.6366113349
 20
6.5882470858
 10
12.6554976452
 20
6.5990132253
 10
12.6744099375
 20
6.6108310071
 10
12.6930834089
 20
6.6235027858
 10
12.7112798475
 20
6.6367828149
 10
12.7288059476
 20
6.6504003326
 10
12.745580119
 20
6.6641572607
 10
12.7618608654
 20
6.6782232046
 10
12.7777578662
 20
6.6927011692
 10
12.793218208
 20
6.7075575085
 10
12.8082159503
 20
6.7227797832
 10
12.8227486612
 20
6.7383794099
 10
12.8368115096
 20
6.7543687465
 10
12.8503938442
 20
6.7707568531
 10
12.8634742529
 20
6.787541699
 10
12.8760306666
 20
6.8047206169
 10
12.8880419864
 20
6.822292689
 10
12.8994850528
 20
6.8402546673
 10
12.9103349721
 20
6.8586008516
 10
12.9205655854
 20
6.8773232666
 10
12.9301499307
 20
6.8964120159
 10
12.9390602084
 20
6.915854793
 10
12.9472637718
 20
6.9356260457
 10
12.9547274859
 20
6.9556921474
 10
12.9614309681
 20
6.9760499059
 10
12.9673531809
 20
6.9967017061
 10
12.9724661364
 20
7.0176340637
 10
12.976720802
 20
7.0387229345
 10
12.9800772655
 20
7.0597846017
 10
12.982537631
 20
7.08079061
 10
12.9841132669
 20
7.1018721604
 10
12.9847876778
 20
7.1230600107
 10
12.9845594156
 20
7.1443764349
 10
12.9834633009
 20
7.1658157239
 10
12.9814922563
 20
7.1872735047
 10
12.9786533105
 20
7.2086273088
 10
12.9749560489
 20
7.2298203318
 10
12.9704025279
 20
7.2508498102
 10
12.9650003264
 20
7.2716791429
 10
12.958758761
 20
7.2922721176
 10
12.9516883869
 20
7.312594229
 10
12.943800699
 20
7.3326127447
 10
12.935108414
 20
7.3522954435
 10
12.9256257775
 20
7.3716100112
 10
12.915368436
 20
7.3905245513
 10
12.9043532317
 20
7.4090080069
 10
12.8925982513
 20
7.4270300289
 10
12.8801227959
 20
7.4445610259
 10
12.8669473502
 20
7.4615722121
 10
12.8530935481
 20
7.4780356555
 10
12.8385841371
 20
7.4939243237
 10
12.8234429414
 20
7.5092121278
 10
12.8076948224
 20
7.5238739659
 10
12.7913656381
 20
7.5378857635
 10
12.7744822008
 20
7.5512245137
 10
12.7570722326
 20
7.5638683146
 10
12.7391643203
 20
7.5757964055
 10
12.7207878681
 20
7.5869892008
 10
12.7019730498
 20
7.5974283223
 10
12.6827507589
 20
7.6070966292
 10
12.6631525579
 20
7.6159782465
 10
12.6432106265
 20
7.6240585909
 10
12.6229577089
 20
7.6313243946
 10
12.6024270598
 20
7.6377637274
 10
12.58165239
 20
7.6433660163
 10
12.5606678111
 20
7.6481220624
 10
12.539507779
 20
7.6520240562
 10
12.5182070383
 20
7.6550655918
 10
12.4968005637
 20
7.6572416726
 10
12.4753235047
 20
7.6585487311
 10
12.4538126093
 20
7.6589846137
  0
LINE
  5
5CF
100
AcDbEntity
  8
0
100
AcDbLine
 62
7
  6
CONTINUOUS
 10
12.3918126093
 20
7.1279846137
 11
12.5168126093
 21
7.1279846137
  0
LINE
  5
5D0
100
AcDbEntity
  8
AXIS
100
AcDbLine
 62
7
  6
CONTINUOUS
 10
12.5010645778
 20
7.1372365822
 11
12.4010645778
 21
7.1372365822
  0
LINE
  5
5D1
100
AcDbEntity
  8
AXIS
100
AcDbLine
 62
7
  6
CONTINUOUS
 10
12.4010645778
 20
7.2972365822
 11
12.5010645778
 21
7.2972365822
  0
LINE
  5
5D2
100
AcDbEntity
  8
0
100
AcDbLine
 62
7
  6
CONTINUOUS
 10
12.5168126093
 20
7.3129846137
 11
12.3918126093
 21
7.3129846137
  0
LWPOLYLINE
  5
5D3
100
AcDbEntity
  8
0
100
AcDbPolyline
 62
9
  6
CONTINUOUS
 90
82
 70
0
 10
12.4538126093
 20
7.6589846137
 10
12.4323016163
 20
7.6585487259
 10
12.4108259392
 20
7.6572417782
 10
12.3894208361
 20
7.6550659163
 10
12.3681214489
 20
7.6520247124
 10
12.3469627461
 20
7.6481231594
 10
12.3259794654
 20
7.6433676628
 10
12.3052060563
 20
7.63776603
 10
12.2846766237
 20
7.6313274575
 10
12.2644248722
 20
7.6240625159
 10
12.2444840502
 20
7.6159831325
 10
12.2248868959
 20
7.6071025718
 10
12.205665583
 20
7.5974354134
 10
12.1868516685
 20
7.5869975287
 10
12.1684760403
 20
7.575806054
 10
12.1505688668
 20
7.5638793632
 10
12.1331595473
 20
7.551237037
 10
12.1162766637
 20
7.5378998311
 10
12.0999479338
 20
7.5238896421
 10
12.0842001655
 20
7.5092294712
 10
12.0690592128
 20
7.4939433872
 10
12.0545499335
 20
7.4780564859
 10
12.0406961483
 20
7.4615948499
 10
12.0275206023
 20
7.4445855057
 10
12.0150449266
 20
7.4270563787
 10
12.0032896024
 20
7.4090362465
 10
11.9922739288
 20
7.3905546928
 10
11.9820159914
 20
7.3716420605
 10
11.972532634
 20
7.3523294051
 10
11.9638394238
 20
7.3326484296
 10
11.9559506155
 20
7.3126313985
 10
11.9488791819
 20
7.2923112211
 10
11.9426367571
 20
7.2717213458
 10
11.9372335945
 20
7.2508956444
 10
11.9326785099
 20
7.2298681281
 10
11.9289789336
 20
7.2086729828
 10
11.9261419835
 20
7.1873538877
 10
11.9241741832
 20
7.1659864249
 10
11.9230733935
 20
7.1446244718
 10
11.9228350564
 20
7.1233183269
 10
11.9235000352
 20
7.1020962913
 10
11.9250732758
 20
7.0809398525
 10
11.9275426958
 20
7.0598226587
 10
11.9309060554
 20
7.0387138533
 10
11.9351553513
 20
7.0176507922
 10
11.9402617833
 20
6.9967403239
 10
11.9461848642
 20
6.9760803772
 10
11.952891067
 20
6.955711158
 10
11.9603559336
 20
6.9356400585
 10
11.9685571902
 20
6.9158727045
 10
11.9774657943
 20
6.8964317873
 10
11.987048787
 20
6.8773439563
 10
11.9972780765
 20
6.8586222447
 10
12.008126581
 20
6.8402767859
 10
12.0195682105
 20
6.8223154407
 10
12.0315781628
 20
6.8047437932
 10
12.0441331676
 20
6.787565272
 10
12.0572117761
 20
6.7707812309
 10
12.0707928694
 20
6.7543931478
 10
12.084855706
 20
6.7384024397
 10
12.0993874531
 20
6.722802548
 10
12.1143818514
 20
6.7075823531
 10
12.1298353463
 20
6.692731101
 10
12.1457288252
 20
6.6782547345
 10
12.1620176664
 20
6.664180278
 10
12.1787798877
 20
6.6504320923
 10
12.1962998831
 20
6.6368170043
 10
12.2145055181
 20
6.6235284181
 10
12.2331949805
 20
6.6108442264
 10
12.2521231762
 20
6.5990158639
 10
12.2710197787
 20
6.5882438892
 10
12.2895860123
 20
6.5786743031
 10
12.3075678884
 20
6.570364244
 10
12.3251522894
 20
6.5631482191
 10
12.342378855
 20
6.5569505107
 10
12.3592656835
 20
6.5517121915
 10
12.3758349975
 20
6.5473800635
 10
12.392084372
 20
6.5439132412
 10
12.4080109529
 20
6.5412738585
 10
12.4236136114
 20
6.5394267722
 10
12.4388851367
 20
6.5383402837
 10
12.4538126093
 20
6.5379846137
  0
LINE
  5
5D4
100
AcDbEntity
  8
AXIS_COSMETIC_THREADS
100
AcDbLine
 62
7
  6
CONTINUOUS
 10
15.2033956173
 20
9.401171632
 11
15.2327128836
 21
9.4112423619
  0
LINE
  5
5D5
100
AcDbEntity
  8
0
100
AcDbLine
 62
7
  6
CONTINUOUS
 10
15.2392938288
 20
9.4234426749
 11
15.2394190564
 21
9.4235150359
  0
LINE
  5
5D6
100
AcDbEntity
  8
AXIS_COSMETIC_THREADS
100
AcDbLine
 62
7
  6
CONTINUOUS
 10
15.1865210644
 20
9.3929745483
 11
15.2394190564
 21
9.4235150359
  0
LINE
  5
5D7
100
AcDbEntity
  8
AXIS
100
AcDbLine
 62
7
  6
CONTINUOUS
 10
15.1867498707
 20
9.3925883982
 11
14.9055786598
 21
9.2302550929
  0
LINE
  5
5D8
100
AcDbEntity
  8
0
100
AcDbLine
 62
9
  6
CONTINUOUS
 10
14.9055788403
 20
9.2302551972
 11
14.905595623
 21
9.2302648855
  0
LWPOLYLINE
  5
5D9
100
AcDbEntity
  8
0
100
AcDbPolyline
 62
9
  6
CONTINUOUS
 90
3
 70
0
 10
15.2394190564
 20
9.4235150359
 10
15.2440150446
 20
9.4260872309
 10
15.2564089141
 20
9.4322558945
  0
LWPOLYLINE
  5
5DA
100
AcDbEntity
  8
0
100
AcDbPolyline
 62
9
  6
CONTINUOUS
 90
14
 70
0
 10
14.905595623
 20
9.2302648855
 10
14.9150459577
 20
9.2353812364
 10
14.9408338296
 20
9.2462425407
 10
14.9683522684
 20
9.2535878661
 10
14.9974175714
 20
9.2573692318
 10
15.0278365355
 20
9.2575623232
 10
15.0594059572
 20
9.2541665434
 10
15.091914615
 20
9.247205444
 10
15.1251460886
 20
9.2367262354
 10
15.1588796658
 20
9.2227992133
 10
15.1928902401
 20
9.2055179569
 10
15.2269507322
 20
9.1849986351
 10
15.2608348746
 20
9.1613783732
 10
15.2943177839
 20
9.1348146115
  0
LINE
  5
5DB
100
AcDbEntity
  8
AXIS_COSMETIC_THREADS
100
AcDbLine
 62
7
  6
CONTINUOUS
 10
15.1828476619
 20
9.3908531372
 11
15.2033956173
 21
9.401171632
  0
LWPOLYLINE
  5
5DC
100
AcDbEntity
  8
0
100
AcDbPolyline
 62
9
  6
CONTINUOUS
 90
3
 70
0
 10
15.2564089141
 20
9.4322558945
 10
15.2692600854
 20
9.4375698123
 10
15.2825474573
 20
9.442020259
  0
LWPOLYLINE
  5
5DD
100
AcDbEntity
  8
AXIS_COSMETIC_THREADS
100
AcDbPolyline
 62
7
  6
CONTINUOUS
 90
3
 70
0
 10
15.1742181869
 20
9.3853532704
 10
15.1762921175
 20
9.3868969547
 10
15.1828476619
 20
9.3908531372
  0
LWPOLYLINE
  5
5DE
100
AcDbEntity
  8
0
100
AcDbPolyline
 62
7
  6
CONTINUOUS
 90
7
 70
0
 10
14.905595623
 20
9.2302648855
 10
14.8849304441
 20
9.2168550292
 10
14.8438452598
 20
9.1791333585
 10
14.8109160776
 20
9.1318181573
 10
14.7863825608
 20
9.0748916001
 10
14.7712006445
 20
9.0094303686
 10
14.7659717753
 20
8.9358003585
  0
LWPOLYLINE
  5
5DF
100
AcDbEntity
  8
AXIS
100
AcDbPolyline
 62
7
  6
CONTINUOUS
 90
7
 70
0
 10
15.2843691297
 20
5.6797606
 10
15.2733335106
 20
5.687113441
 10
15.2642226938
 20
5.695298175
 10
15.2572221495
 20
5.7041481844
 10
15.2524743883
 20
5.7134833085
 10
15.2500760612
 20
5.7231135112
 10
15.2497762439
 20
5.7279784139
  0
LWPOLYLINE
  5
5E0
100
AcDbEntity
  8
0
100
AcDbPolyline
 62
7
  6
CONTINUOUS
 90
3
 70
0
 10
14.620722722
 20
8.7930309226
 10
14.6095987529
 20
8.7857904593
 10
14.6035512743
 20
8.7800081677
  0
LWPOLYLINE
  5
5E1
100
AcDbEntity
  8
0
100
AcDbPolyline
 62
7
  6
CONTINUOUS
 90
3
 70
0
 10
14.6485614524
 20
8.8091035251
 10
14.637437401
 20
8.8018630014
 10
14.6361141481
 20
8.8005977717
  0
LWPOLYLINE
  5
5E2
100
AcDbEntity
  8
0
100
AcDbPolyline
 62
7
  6
CONTINUOUS
 90
3
 70
0
 10
14.6764001925
 20
8.8251761333
 10
14.6652761383
 20
8.8179356084
 10
14.6639528928
 20
8.8166703855
  0
LWPOLYLINE
  5
5E3
100
AcDbEntity
  8
0
100
AcDbPolyline
 62
7
  6
CONTINUOUS
 90
3
 70
0
 10
14.7042389293
 20
8.8412487396
 10
14.6931150443
 20
8.8340083386
 10
14.6917916785
 20
8.8327430049
  0
LWPOLYLINE
  5
5E4
100
AcDbEntity
  8
0
100
AcDbPolyline
 62
7
  6
CONTINUOUS
 90
3
 70
0
 10
14.7320776671
 20
8.8573213464
 10
14.7209540736
 20
8.8500811586
 10
14.7196305002
 20
8.8488156341
  0
LWPOLYLINE
  5
5E5
100
AcDbEntity
  8
0
100
AcDbPolyline
 62
7
  6
CONTINUOUS
 90
3
 70
0
 10
14.7877551694
 20
8.8894665754
 10
14.7766327842
 20
8.8822272743
 10
14.7753083196
 20
8.8809609268
  0
LWPOLYLINE
  5
5E6
100
AcDbEntity
  8
0
100
AcDbPolyline
 62
7
  6
CONTINUOUS
 90
3
 70
0
 10
14.8155939218
 20
8.9055391907
 10
14.8044719235
 20
8.8983001746
 10
14.8031471715
 20
8.8970335612
  0
LWPOLYLINE
  5
5E7
100
AcDbEntity
  8
0
100
AcDbPolyline
 62
7
  6
CONTINUOUS
 90
3
 70
0
 10
14.8434326687
 20
8.9216118028
 10
14.8323108646
 20
8.9143729303
 10
14.8309859835
 20
8.9131061983
  0
LWPOLYLINE
  5
5E8
100
AcDbEntity
  8
0
100
AcDbPolyline
 62
7
  6
CONTINUOUS
 90
3
 70
0
 10
14.8712714047
 20
8.9376844085
 10
14.8601495728
 20
8.9304455162
 10
14.8588247412
 20
8.9291788316
  0
LWPOLYLINE
  5
5E9
100
AcDbEntity
  8
0
100
AcDbPolyline
 62
7
  6
CONTINUOUS
 90
3
 70
0
 10
14.899110121
 20
8.953757003
 10
14.8879880601
 20
8.9465179409
 10
14.8866634134
 20
8.9452514288
  0
LWPOLYLINE
  5
5EA
100
AcDbEntity
  8
0
100
AcDbPolyline
 62
7
  6
CONTINUOUS
 90
3
 70
0
 10
14.9269488592
 20
8.96982961
 10
14.9158261163
 20
8.9625900512
 10
14.914501917
 20
8.961323947
  0
LINE
  5
5EB
100
AcDbEntity
  8
0
100
AcDbLine
 62
7
  6
CONTINUOUS
 10
15.0187996149
 20
8.9876028727
 11
15.0160157415
 21
8.9859956123
  0
LINE
  5
5EC
100
AcDbEntity
  8
0
100
AcDbLine
 62
7
  6
CONTINUOUS
 10
14.9909608812
 20
8.9715302683
 11
14.9881770078
 21
8.9699230078
  0
LINE
  5
5ED
100
AcDbEntity
  8
0
100
AcDbLine
 62
7
  6
CONTINUOUS
 10
14.9631221474
 20
8.9554576638
 11
14.960338274
 21
8.9538504033
  0
LINE
  5
5EE
100
AcDbEntity
  8
0
100
AcDbLine
 62
7
  6
CONTINUOUS
 10
14.9352834137
 20
8.9393850593
 11
14.9324995403
 21
8.9377777988
  0
LINE
  5
5EF
100
AcDbEntity
  8
0
100
AcDbLine
 62
7
  6
CONTINUOUS
 10
14.9074446799
 20
8.9233124548
 11
14.9046608065
 21
8.9217051944
  0
LINE
  5
5F0
100
AcDbEntity
  8
0
100
AcDbLine
 62
7
  6
CONTINUOUS
 10
14.8796059462
 20
8.9072398503
 11
14.8768220728
 21
8.9056325899
  0
LINE
  5
5F1
100
AcDbEntity
  8
0
100
AcDbLine
 62
7
  6
CONTINUOUS
 10
14.8517672124
 20
8.8911672458
 11
14.848983339
 21
8.8895599854
  0
LINE
  5
5F2
100
AcDbEntity
  8
0
100
AcDbLine
 62
7
  6
CONTINUOUS
 10
14.8239284787
 20
8.8750946414
 11
14.8211446053
 21
8.8734873809
  0
LINE
  5
5F3
100
AcDbEntity
  8
0
100
AcDbLine
 62
7
  6
CONTINUOUS
 10
14.7960897449
 20
8.8590220369
 11
14.7933058715
 21
8.8574147764
  0
LINE
  5
5F4
100
AcDbEntity
  8
0
100
AcDbLine
 62
7
  6
CONTINUOUS
 10
14.7682510112
 20
8.8429494324
 11
14.7654671378
 21
8.8413421719
  0
LINE
  5
5F5
100
AcDbEntity
  8
0
100
AcDbLine
 62
7
  6
CONTINUOUS
 10
14.7404122774
 20
8.8268768279
 11
14.737628404
 21
8.8252695675
  0
LINE
  5
5F6
100
AcDbEntity
  8
0
100
AcDbLine
 62
7
  6
CONTINUOUS
 10
14.7125735437
 20
8.8108042234
 11
14.7097896703
 21
8.809196963
  0
LINE
  5
5F7
100
AcDbEntity
  8
0
100
AcDbLine
 62
7
  6
CONTINUOUS
 10
14.5847184902
 20
8.7692549173
 11
14.6142800757
 21
8.7861341598
  0
LINE
  5
5F8
100
AcDbEntity
  8
0
100
AcDbLine
 62
7
  6
CONTINUOUS
 10
14.5742238478
 20
8.7437972894
 11
14.6022849926
 21
8.7593910058
  0
LWPOLYLINE
  5
5F9
100
AcDbEntity
  8
0
100
AcDbPolyline
 62
7
  6
CONTINUOUS
 90
4
 70
0
 10
14.6164764925
 20
8.7809681459
 10
14.5862615701
 20
8.7651517765
 10
14.5609955887
 20
8.7414990213
 10
14.5413072817
 20
8.710649391
  0
LINE
  5
5FA
100
AcDbEntity
  8
0
100
AcDbLine
 62
7
  6
CONTINUOUS
 10
14.598526537
 20
8.7457629619
 11
14.5695460168
 21
8.7311111927
  0
LWPOLYLINE
  5
5FB
100
AcDbEntity
  8
0
100
AcDbPolyline
 62
7
  6
CONTINUOUS
 90
4
 70
0
 10
14.9297326895
 20
8.9714368456
 10
14.9482002143
 20
8.9801663534
 10
14.981879598
 20
8.9880320161
 10
15.0187996149
 20
8.9876028727
  0
LINE
  5
5FC
100
AcDbEntity
  8
0
100
AcDbLine
 62
7
  6
CONTINUOUS
 10
14.9018939711
 20
8.95536425
 11
14.92036172
 21
8.9640938392
  0
LINE
  5
5FD
100
AcDbEntity
  8
0
100
AcDbLine
 62
7
  6
CONTINUOUS
 10
14.8740552607
 20
8.9392916589
 11
14.892523342
 21
8.9480213687
  0
LINE
  5
5FE
100
AcDbEntity
  8
0
100
AcDbLine
 62
7
  6
CONTINUOUS
 10
14.8462165443
 20
8.9232190645
 11
14.8646849488
 21
8.9319488925
  0
LINE
  5
5FF
100
AcDbEntity
  8
0
100
AcDbLine
 62
7
  6
CONTINUOUS
 10
14.8183778084
 20
8.9071464587
 11
14.8368464816
 21
8.9158763884
  0
LINE
  5
600
100
AcDbEntity
  8
0
100
AcDbLine
 62
7
  6
CONTINUOUS
 10
14.7905390614
 20
8.8910738466
 11
14.8090076739
 21
8.8998037561
  0
LINE
  5
601
100
AcDbEntity
  8
0
100
AcDbLine
 62
7
  6
CONTINUOUS
 10
14.762700309
 20
8.8750012314
 11
14.7811685347
 21
8.8837309988
  0
LINE
  5
602
100
AcDbEntity
  8
0
100
AcDbLine
 62
7
  6
CONTINUOUS
 10
14.7505446497
 20
8.8660506525
 11
14.7320776671
 21
8.8573213464
  0
LINE
  5
603
100
AcDbEntity
  8
0
100
AcDbLine
 62
7
  6
CONTINUOUS
 10
14.7070228068
 20
8.8428560024
 11
14.7254897893
 21
8.8515853085
  0
LINE
  5
604
100
AcDbEntity
  8
0
100
AcDbLine
 62
7
  6
CONTINUOUS
 10
14.6791840689
 20
8.8267833955
 11
14.6976507958
 21
8.8355126062
  0
LINE
  5
605
100
AcDbEntity
  8
0
100
AcDbLine
 62
7
  6
CONTINUOUS
 10
14.6513453321
 20
8.8107107893
 11
14.6698119135
 21
8.8194399457
  0
LINE
  5
606
100
AcDbEntity
  8
0
100
AcDbLine
 62
7
  6
CONTINUOUS
 10
14.623506592
 20
8.7946381811
 11
14.6419732402
 21
8.803367364
  0
LINE
  5
607
100
AcDbEntity
  8
0
100
AcDbLine
 62
7
  6
CONTINUOUS
 10
14.7598988796
 20
8.8733838331
 11
14.7823296409
 21
8.8835364213
  0
LINE
  5
608
100
AcDbEntity
  8
0
100
AcDbLine
 62
7
  6
CONTINUOUS
 10
14.7572747805
 20
8.8690710773
 11
14.7348440192
 21
8.8589184891
  0
LINE
  5
609
100
AcDbEntity
  8
0
100
AcDbLine
 62
7
  6
CONTINUOUS
 10
14.5458380771
 20
8.6877117062
 11
14.5659801994
 21
8.7119338169
  0
LINE
  5
60A
100
AcDbEntity
  8
0
100
AcDbLine
 62
7
  6
CONTINUOUS
 10
14.5509170373
 20
8.7207634057
 11
14.5742238478
 21
8.7437972894
  0
LINE
  5
60B
100
AcDbEntity
  8
0
100
AcDbLine
 62
7
  6
CONTINUOUS
 10
14.5695460168
 20
8.7311111927
 11
14.545649939
 21
8.7082551549
  0
LWPOLYLINE
  5
60C
100
AcDbEntity
  8
0
100
AcDbPolyline
 62
7
  6
CONTINUOUS
 90
3
 70
0
 10
14.5841888624
 20
8.7087677247
 10
14.5659609725
 20
8.6924867689
 10
14.5511315457
 20
8.6715821023
  0
LWPOLYLINE
  5
60D
100
AcDbEntity
  8
0
100
AcDbPolyline
 62
7
  6
CONTINUOUS
 90
6
 70
0
 10
14.9587512507
 20
8.9826304987
 10
14.9762379532
 20
8.9980681994
 10
15.0073052817
 20
9.0125230705
 10
15.0426090934
 20
9.0181078765
 10
15.0811570161
 20
9.0146681219
 10
15.1218488304
 20
9.0023139018
  0
LWPOLYLINE
  5
60E
100
AcDbEntity
  8
0
100
AcDbPolyline
 62
7
  6
CONTINUOUS
 90
3
 70
0
 10
14.7485202792
 20
8.8651086239
 10
14.7538758792
 20
8.8696724044
 10
14.7598988796
 20
8.8733838331
  0
LINE
  5
60F
100
AcDbEntity
  8
0
100
AcDbLine
 62
7
  6
CONTINUOUS
 10
14.5974589733
 20
8.695410321
 11
14.5788785848
 21
8.6800401613
  0
LINE
  5
610
100
AcDbEntity
  8
0
100
AcDbLine
 62
7
  6
CONTINUOUS
 10
14.5759670763
 20
8.7086854612
 11
14.5940403705
 21
8.7219367366
  0
LINE
  5
611
100
AcDbEntity
  8
0
100
AcDbLine
 62
7
  6
CONTINUOUS
 10
14.5659801994
 20
8.7119338169
 11
14.590855627
 21
8.7289067646
  0
LINE
  5
612
100
AcDbEntity
  8
0
100
AcDbLine
 62
7
  6
CONTINUOUS
 10
14.5915112275
 20
8.713427565
 11
14.5841888624
 21
8.7087677247
  0
LWPOLYLINE
  5
613
100
AcDbEntity
  8
0
100
AcDbPolyline
 62
7
  6
CONTINUOUS
 90
3
 70
0
 10
14.6010093371
 20
8.6969736056
 10
14.5974208423
 20
8.6947938196
 10
14.5802928043
 20
8.6808108038
  0
LINE
  5
614
100
AcDbEntity
  8
0
100
AcDbLine
 62
7
  6
CONTINUOUS
 10
14.6007580507
 20
8.6974058046
 11
14.5974589733
 21
8.695410321
  0
LINE
  5
615
100
AcDbEntity
  8
0
100
AcDbLine
 62
7
  6
CONTINUOUS
 10
14.5915144931
 20
8.7134320395
 11
14.6269852127
 21
8.7339109468
  0
LINE
  5
616
100
AcDbEntity
  8
0
100
AcDbLine
 62
7
  6
CONTINUOUS
 10
14.5788785848
 20
8.6800401613
 11
14.5802729496
 21
8.6808451934
  0
LINE
  5
617
100
AcDbEntity
  8
0
100
AcDbLine
 62
7
  6
CONTINUOUS
 10
14.5940403705
 20
8.7219367366
 11
14.6002188557
 21
8.725226021
  0
LINE
  5
618
100
AcDbEntity
  8
0
100
AcDbLine
 62
7
  6
CONTINUOUS
 10
14.6191516974
 20
8.7055566365
 11
14.6007580507
 21
8.6974058046
  0
LINE
  5
619
100
AcDbEntity
  8
0
100
AcDbLine
 62
7
  6
CONTINUOUS
 10
14.590855627
 20
8.7289067646
 11
14.6197631901
 21
8.7382916466
  0
LWPOLYLINE
  5
61A
100
AcDbEntity
  8
0
100
AcDbPolyline
 62
7
  6
CONTINUOUS
 90
6
 70
0
 10
14.6002188557
 20
8.725226021
 10
14.6284005258
 20
8.7343701758
 10
14.6598736025
 20
8.7359363438
 10
14.6938050385
 20
8.7298410312
 10
14.7291811826
 20
8.7162502694
 10
14.7414106081
 20
8.7097745133
  0
LWPOLYLINE
  5
61B
100
AcDbEntity
  8
0
100
AcDbPolyline
 62
7
  6
CONTINUOUS
 90
4
 70
0
 10
14.539724877
 20
8.7078437338
 10
14.5416183282
 20
8.7123064373
 10
14.5602865061
 20
8.7444215971
 10
14.5847184902
 20
8.7692549173
  0
LINE
  5
61C
100
AcDbEntity
  8
0
100
AcDbLine
 62
7
  6
CONTINUOUS
 10
14.5301070512
 20
8.684321376
 11
14.5329556572
 21
8.6909001341
  0
LINE
  5
61D
100
AcDbEntity
  8
0
100
AcDbLine
 62
7
  6
CONTINUOUS
 10
14.5511315457
 20
8.6715821023
 11
14.5399875499
 21
8.6464584852
  0
LINE
  5
61E
100
AcDbEntity
  8
0
100
AcDbLine
 62
7
  6
CONTINUOUS
 10
14.5413072817
 20
8.710649391
 11
14.5363172988
 21
8.6995098051
  0
LWPOLYLINE
  5
61F
100
AcDbEntity
  8
0
100
AcDbPolyline
 62
7
  6
CONTINUOUS
 90
3
 70
0
 10
14.5420139478
 20
8.6552064619
 10
14.5563272043
 20
8.6850787957
 10
14.5759670763
 20
8.7086854612
  0
LWPOLYLINE
  5
620
100
AcDbEntity
  8
0
100
AcDbPolyline
 62
7
  6
CONTINUOUS
 90
3
 70
0
 10
14.545649939
 20
8.7082551549
 10
14.5275448795
 20
8.6778707318
 10
14.5256677837
 20
8.6734611505
  0
LINE
  5
621
100
AcDbEntity
  8
0
100
AcDbLine
 62
7
  6
CONTINUOUS
 10
14.5329556572
 20
8.6909001341
 11
14.5509170373
 21
8.7207634057
  0
LINE
  5
622
100
AcDbEntity
  8
0
100
AcDbLine
 62
7
  6
CONTINUOUS
 10
15.2019544727
 20
8.8856180503
 11
15.1991705993
 21
8.8840107899
  0
LINE
  5
623
100
AcDbEntity
  8
0
100
AcDbLine
 62
7
  6
CONTINUOUS
 10
15.1741157389
 20
8.8695454458
 11
15.1713318655
 21
8.8679381854
  0
LINE
  5
624
100
AcDbEntity
  8
0
100
AcDbLine
 62
7
  6
CONTINUOUS
 10
15.1462770052
 20
8.8534728413
 11
15.1434931318
 21
8.8518655809
  0
LINE
  5
625
100
AcDbEntity
  8
0
100
AcDbLine
 62
7
  6
CONTINUOUS
 10
15.1184382714
 20
8.8374002368
 11
15.115654398
 21
8.8357929764
  0
LINE
  5
626
100
AcDbEntity
  8
0
100
AcDbLine
 62
7
  6
CONTINUOUS
 10
15.0905995377
 20
8.8213276324
 11
15.0878156643
 21
8.8197203719
  0
LINE
  5
627
100
AcDbEntity
  8
0
100
AcDbLine
 62
7
  6
CONTINUOUS
 10
15.0627608039
 20
8.8052550279
 11
15.0599769305
 21
8.8036477674
  0
LINE
  5
628
100
AcDbEntity
  8
0
100
AcDbLine
 62
7
  6
CONTINUOUS
 10
15.0349220702
 20
8.7891824234
 11
15.0321381968
 21
8.787575163
  0
LINE
  5
629
100
AcDbEntity
  8
0
100
AcDbLine
 62
7
  6
CONTINUOUS
 10
15.0070833364
 20
8.7731098189
 11
15.004299463
 21
8.7715025585
  0
LINE
  5
62A
100
AcDbEntity
  8
0
100
AcDbLine
 62
7
  6
CONTINUOUS
 10
14.9792446027
 20
8.7570372144
 11
14.9764607293
 21
8.755429954
  0
LINE
  5
62B
100
AcDbEntity
  8
0
100
AcDbLine
 62
7
  6
CONTINUOUS
 10
14.9514058689
 20
8.74096461
 11
14.9486219955
 21
8.7393573495
  0
LINE
  5
62C
100
AcDbEntity
  8
0
100
AcDbLine
 62
7
  6
CONTINUOUS
 10
14.9235671352
 20
8.7248920055
 11
14.9207832618
 21
8.723284745
  0
LINE
  5
62D
100
AcDbEntity
  8
0
100
AcDbLine
 62
7
  6
CONTINUOUS
 10
14.8957284014
 20
8.708819401
 11
14.892944528
 21
8.7072121405
  0
LINE
  5
62E
100
AcDbEntity
  8
0
100
AcDbLine
 62
7
  6
CONTINUOUS
 10
14.8678896677
 20
8.6927467965
 11
14.8652172898
 21
8.6912039076
  0
LINE
  5
62F
100
AcDbEntity
  8
0
100
AcDbLine
 62
7
  6
CONTINUOUS
 10
14.5788785848
 20
8.4149986472
 11
14.5802928043
 21
8.4158151423
  0
LINE
  5
630
100
AcDbEntity
  8
0
100
AcDbLine
 62
7
  6
CONTINUOUS
 10
14.5334370834
 20
8.6202876036
 11
14.5420139478
 21
8.6552064619
  0
LWPOLYLINE
  5
631
100
AcDbEntity
  8
0
100
AcDbPolyline
 62
7
  6
CONTINUOUS
 90
11
 70
0
 10
14.5256677837
 20
8.6734611505
 10
14.5157661633
 20
8.6408567618
 10
14.5106617859
 20
8.5983084247
 10
14.512381745
 20
8.5514873958
 10
14.5208741498
 20
8.5017747066
 10
14.535887621
 20
8.4506397942
 10
14.5569787917
 20
8.3995925107
 10
14.5835250178
 20
8.3501407624
 10
14.6147419365
 20
8.3037466696
 10
14.6497069212
 20
8.2617821022
 10
14.6873863038
 20
8.2254881016
  0
LINE
  5
632
100
AcDbEntity
  8
0
100
AcDbLine
 62
7
  6
CONTINUOUS
 10
14.5363172988
 20
8.6995098051
 11
14.5340878887
 21
8.6927826251
  0
LINE
  5
633
100
AcDbEntity
  8
0
100
AcDbLine
 62
7
  6
CONTINUOUS
 10
14.9028908361
 20
8.4947430842
 11
14.9027348389
 21
8.4946530198
  0
LINE
  5
634
100
AcDbEntity
  8
0
100
AcDbLine
 62
7
  6
CONTINUOUS
 10
14.9430400933
 20
8.4137612551
 11
14.9506398394
 21
8.4181489444
  0
LINE
  5
635
100
AcDbEntity
  8
0
100
AcDbLine
 62
7
  6
CONTINUOUS
 10
14.5399875499
 20
8.6464584852
 11
14.5399875499
 21
8.4934868063
  0
LINE
  5
636
100
AcDbEntity
  8
0
100
AcDbLine
 62
7
  6
CONTINUOUS
 10
14.5788785848
 20
8.6800401613
 11
14.5788785848
 21
8.4149986472
  0
LINE
  5
637
100
AcDbEntity
  8
0
100
AcDbLine
 62
7
  6
CONTINUOUS
 10
14.5802928043
 20
8.6808108038
 11
14.5802928043
 21
8.4125950416
  0
LWPOLYLINE
  5
638
100
AcDbEntity
  8
0
100
AcDbPolyline
 62
7
  6
CONTINUOUS
 90
4
 70
0
 10
14.5194980713
 20
8.5818019841
 10
14.5223705164
 20
8.6212384024
 10
14.5311596691
 20
8.6570630863
 10
14.5458380771
 20
8.6877117062
  0
LINE
  5
639
100
AcDbEntity
  8
0
100
AcDbLine
 62
7
  6
CONTINUOUS
 10
14.5306336112
 20
8.5818020109
 11
14.5334370834
 21
8.6202876036
  0
LINE
  5
63A
100
AcDbEntity
  8
0
100
AcDbLine
 62
7
  6
CONTINUOUS
 10
14.9378354647
 20
8.2285980375
 11
14.9181964671
 21
8.2049918768
  0
LINE
  5
63B
100
AcDbEntity
  8
0
100
AcDbLine
 62
7
  6
CONTINUOUS
 10
14.9319245656
 20
8.1925458006
 11
14.9088375993
 21
8.1724653808
  0
LINE
  5
63C
100
AcDbEntity
  8
0
100
AcDbLine
 62
7
  6
CONTINUOUS
 10
14.8855686699
 20
8.2118377404
 11
14.9041490584
 21
8.2272079001
  0
LINE
  5
63D
100
AcDbEntity
  8
0
100
AcDbLine
 62
7
  6
CONTINUOUS
 10
14.9066903421
 20
8.1716885663
 11
14.9319245656
 21
8.1925458006
  0
LINE
  5
63E
100
AcDbEntity
  8
0
100
AcDbLine
 62
7
  6
CONTINUOUS
 10
14.9092096846
 20
8.1683111914
 11
14.9317837876
 21
8.1858534347
  0
LINE
  5
63F
100
AcDbEntity
  8
0
100
AcDbLine
 62
7
  6
CONTINUOUS
 10
14.9578217067
 20
8.185678781
 11
14.9330838645
 21
8.166636583
  0
LINE
  5
640
100
AcDbEntity
  8
0
100
AcDbLine
 62
7
  6
CONTINUOUS
 10
14.9181964671
 20
8.2049918768
 11
14.9001229329
 21
8.1917404629
  0
LINE
  5
641
100
AcDbEntity
  8
0
100
AcDbLine
 62
7
  6
CONTINUOUS
 10
14.9170474438
 20
8.1953142445
 11
14.8921720162
 21
8.1783412968
  0
LINE
  5
642
100
AcDbEntity
  8
0
100
AcDbLine
 62
7
  6
CONTINUOUS
 10
14.9889711627
 20
8.1873474909
 11
14.9995326203
 21
8.1942628491
  0
LINE
  5
643
100
AcDbEntity
  8
0
100
AcDbLine
 62
7
  6
CONTINUOUS
 10
15.0168098944
 20
8.2034200942
 11
15.0273713782
 21
8.2103354714
  0
LINE
  5
644
100
AcDbEntity
  8
0
100
AcDbLine
 62
7
  6
CONTINUOUS
 10
15.0446486447
 20
8.2194927082
 11
15.0552103456
 21
8.2264082482
  0
LINE
  5
645
100
AcDbEntity
  8
0
100
AcDbLine
 62
7
  6
CONTINUOUS
 10
14.9611325012
 20
8.1712749281
 11
14.9708906143
 21
8.1776030443
  0
LWPOLYLINE
  5
646
100
AcDbEntity
  8
0
100
AcDbPolyline
 62
7
  6
CONTINUOUS
 90
3
 70
0
 10
14.8820183061
 20
8.2102744559
 10
14.8856068009
 20
8.2124542418
 10
14.9027348389
 20
8.2264372576
  0
LINE
  5
647
100
AcDbEntity
  8
0
100
AcDbLine
 62
7
  6
CONTINUOUS
 10
14.8822695925
 20
8.2098422568
 11
14.8855686699
 21
8.2118377404
  0
LINE
  5
648
100
AcDbEntity
  8
0
100
AcDbLine
 62
7
  6
CONTINUOUS
 10
14.9430400933
 20
8.2607895763
 11
14.9543176628
 21
8.2673006452
  0
LINE
  5
649
100
AcDbEntity
  8
0
100
AcDbLine
 62
7
  6
CONTINUOUS
 10
14.9041292037
 20
8.2272422896
 11
14.9027348389
 21
8.2264372576
  0
LINE
  5
64A
100
AcDbEntity
  8
0
100
AcDbLine
 62
7
  6
CONTINUOUS
 10
14.8875117464
 20
8.2134451017
 11
14.8820131926
 21
8.2102705291
  0
LINE
  5
64B
100
AcDbEntity
  8
0
100
AcDbLine
 62
7
  6
CONTINUOUS
 10
14.8915131501
 20
8.1938160219
 11
14.9249676546
 21
8.2131308738
  0
LINE
  5
64C
100
AcDbEntity
  8
0
100
AcDbLine
 62
7
  6
CONTINUOUS
 10
14.9001229329
 20
8.1917404629
 11
14.8939443475
 21
8.1884511206
  0
LINE
  5
64D
100
AcDbEntity
  8
0
100
AcDbLine
 62
7
  6
CONTINUOUS
 10
14.8915164158
 20
8.1938204964
 11
14.8775651875
 21
8.1871383739
  0
LINE
  5
64E
100
AcDbEntity
  8
0
100
AcDbLine
 62
7
  6
CONTINUOUS
 10
15.2543772383
 20
8.3420037918
 11
15.2673585674
 21
8.3480735746
  0
LINE
  5
64F
100
AcDbEntity
  8
0
100
AcDbLine
 62
7
  6
CONTINUOUS
 10
15.226538551
 20
8.3259311986
 11
15.2395198366
 21
8.3320009717
  0
LINE
  5
650
100
AcDbEntity
  8
0
100
AcDbLine
 62
7
  6
CONTINUOUS
 10
15.1986998289
 20
8.3098586044
 11
15.2116811089
 21
8.3159283708
  0
LINE
  5
651
100
AcDbEntity
  8
0
100
AcDbLine
 62
7
  6
CONTINUOUS
 10
15.1708610626
 20
8.2937859858
 11
15.1838423719
 21
8.2998557644
  0
LINE
  5
652
100
AcDbEntity
  8
0
100
AcDbLine
 62
7
  6
CONTINUOUS
 10
15.143022266
 20
8.2777133669
 11
15.156003638
 21
8.2837831598
  0
LINE
  5
653
100
AcDbEntity
  8
0
100
AcDbLine
 62
7
  6
CONTINUOUS
 10
15.1151834326
 20
8.2616407378
 11
15.1281648975
 21
8.2677105515
  0
LINE
  5
654
100
AcDbEntity
  8
0
100
AcDbLine
 62
7
  6
CONTINUOUS
 10
15.0873445214
 20
8.2455680749
 11
15.100326149
 21
8.2516379384
  0
LINE
  5
655
100
AcDbEntity
  8
0
100
AcDbLine
 62
7
  6
CONTINUOUS
 10
15.0595056632
 20
8.2294954287
 11
15.0724874006
 21
8.2355653255
  0
LINE
  5
656
100
AcDbEntity
  8
0
100
AcDbLine
 62
7
  6
CONTINUOUS
 10
15.0316668294
 20
8.213422802
 11
15.0446486447
 21
8.2194927082
  0
LINE
  5
657
100
AcDbEntity
  8
0
100
AcDbLine
 62
7
  6
CONTINUOUS
 10
15.003828042
 20
8.197350196
 11
15.0168098944
 21
8.2034200942
  0
LINE
  5
658
100
AcDbEntity
  8
0
100
AcDbLine
 62
7
  6
CONTINUOUS
 10
14.9759901758
 20
8.181278016
 11
14.9889711627
 21
8.1873474909
  0
LINE
  5
659
100
AcDbEntity
  8
0
100
AcDbLine
 62
7
  6
CONTINUOUS
 10
14.9088375993
 20
8.1724653808
 11
14.8812366589
 21
8.1598573577
  0
LINE
  5
65A
100
AcDbEntity
  8
0
100
AcDbLine
 62
7
  6
CONTINUOUS
 10
14.8765731357
 20
8.1591639829
 11
14.9066903421
 21
8.1716885663
  0
LINE
  5
65B
100
AcDbEntity
  8
0
100
AcDbLine
 62
7
  6
CONTINUOUS
 10
14.9330838645
 20
8.166636583
 11
14.903972501
 21
8.1551538617
  0
LINE
  5
65C
100
AcDbEntity
  8
0
100
AcDbLine
 62
7
  6
CONTINUOUS
 10
14.8921720162
 20
8.1783412968
 11
14.8632644531
 21
8.1689564149
  0
LWPOLYLINE
  5
65D
100
AcDbEntity
  8
0
100
AcDbPolyline
 62
7
  6
CONTINUOUS
 90
3
 70
0
 10
14.8939443475
 20
8.1884511206
 10
14.8657624449
 20
8.1793068315
 10
14.8342894351
 20
8.1777407021
  0
LWPOLYLINE
  5
65E
100
AcDbEntity
  8
0
100
AcDbPolyline
 62
7
  6
CONTINUOUS
 90
4
 70
0
 10
14.9497811648
 20
8.2098028977
 10
14.962759056
 20
8.2395495705
 10
14.9703955092
 20
8.2743435133
 10
14.9724985409
 20
8.3133132737
  0
LWPOLYLINE
  5
65F
100
AcDbEntity
  8
0
100
AcDbPolyline
 62
7
  6
CONTINUOUS
 90
5
 70
0
 10
14.9430400933
 20
8.2607895763
 10
14.9318960975
 20
8.2356659591
 10
14.9170666707
 20
8.2147612925
 10
14.8988387809
 20
8.1984803367
 10
14.8915164158
 20
8.1938204964
  0
LINE
  5
660
100
AcDbEntity
  8
0
100
AcDbLine
 62
7
  6
CONTINUOUS
 10
14.9518679741
 20
8.2501849751
 11
14.9371895661
 21
8.2195363553
  0
LINE
  5
661
100
AcDbEntity
  8
0
100
AcDbLine
 62
7
  6
CONTINUOUS
 10
15.0157046789
 20
8.2326102351
 11
14.9978166435
 21
8.2026511198
  0
LWPOLYLINE
  5
662
100
AcDbEntity
  8
0
100
AcDbPolyline
 62
7
  6
CONTINUOUS
 90
4
 70
0
 10
14.9319245656
 20
8.1925458006
 10
14.9432851784
 20
8.208928982
 10
14.9522323017
 20
8.2267592512
 10
14.9591653534
 20
8.2463058806
  0
LINE
  5
663
100
AcDbEntity
  8
0
100
AcDbLine
 62
7
  6
CONTINUOUS
 10
14.9317837876
 20
8.1858534347
 11
14.9497811648
 21
8.2098028977
  0
LINE
  5
664
100
AcDbEntity
  8
0
100
AcDbLine
 62
7
  6
CONTINUOUS
 10
14.9775525707
 20
8.2117780523
 11
14.9578217067
 21
8.185678781
  0
LINE
  5
665
100
AcDbEntity
  8
0
100
AcDbLine
 62
7
  6
CONTINUOUS
 10
14.9371895661
 20
8.2195363553
 11
14.9170474438
 21
8.1953142445
  0
LWPOLYLINE
  5
666
100
AcDbEntity
  8
0
100
AcDbPolyline
 62
7
  6
CONTINUOUS
 90
3
 70
0
 10
14.9978166435
 20
8.2026511198
 10
14.9744797892
 20
8.1797990022
 10
14.9639163626
 20
8.1728821816
  0
LWPOLYLINE
  5
667
100
AcDbEntity
  8
0
100
AcDbPolyline
 62
7
  6
CONTINUOUS
 90
4
 70
0
 10
14.9995326203
 20
8.1942628491
 10
15.0228701116
 20
8.2171146805
 10
15.0407585004
 20
8.247073274
 10
15.0527194433
 20
8.2833585954
  0
LWPOLYLINE
  5
668
100
AcDbEntity
  8
0
100
AcDbPolyline
 62
7
  6
CONTINUOUS
 90
3
 70
0
 10
15.0256539533
 20
8.2187219004
 10
15.0023165179
 20
8.1958701273
 10
14.991755034
 20
8.1889547501
  0
LWPOLYLINE
  5
669
100
AcDbEntity
  8
0
100
AcDbPolyline
 62
7
  6
CONTINUOUS
 90
4
 70
0
 10
15.0273713782
 20
8.2103354714
 10
15.0507088137
 20
8.2331872444
 10
15.0685972205
 20
8.2631458481
 10
15.0805581725
 20
8.2994311797
  0
LWPOLYLINE
  5
66A
100
AcDbEntity
  8
0
100
AcDbPolyline
 62
7
  6
CONTINUOUS
 90
3
 70
0
 10
15.0534927749
 20
8.2347946174
 10
15.0301554853
 20
8.2119429042
 10
15.0195937843
 20
8.2050273642
  0
LWPOLYLINE
  5
66B
100
AcDbEntity
  8
0
100
AcDbPolyline
 62
7
  6
CONTINUOUS
 90
3
 70
0
 10
15.0552103456
 20
8.2264082482
 10
15.0785476353
 20
8.2492599615
 10
15.0964359975
 20
8.2792185485
  0
LWPOLYLINE
  5
66C
100
AcDbEntity
  8
0
100
AcDbPolyline
 62
7
  6
CONTINUOUS
 90
3
 70
0
 10
15.0813316992
 20
8.250867466
 10
15.0579945705
 20
8.228015768
 10
15.0474325402
 20
8.2210999815
  0
LWPOLYLINE
  5
66D
100
AcDbEntity
  8
0
100
AcDbPolyline
 62
7
  6
CONTINUOUS
 90
13
 70
0
 10
15.0830494308
 20
8.242481112
 10
15.1063865596
 20
8.26533281
 10
15.1242748215
 20
8.2952913534
 10
15.1362356853
 20
8.3315765886
 10
15.1419430229
 20
8.3732446882
 10
15.141231985
 20
8.4192137996
 10
15.1341026481
 20
8.4682925904
 10
15.1207200672
 20
8.5192087328
 10
15.1014103651
 20
8.5706423464
 10
15.0766514191
 20
8.621261986
 10
15.0470608132
 20
8.6697570381
 10
15.0133810878
 20
8.7148700236
 10
14.9764607293
 20
8.755429954
  0
LWPOLYLINE
  5
66E
100
AcDbEntity
  8
0
100
AcDbPolyline
 62
7
  6
CONTINUOUS
 90
3
 70
0
 10
15.1091707333
 20
8.2669404551
 10
15.0858336853
 20
8.2440886536
 10
15.0752712886
 20
8.2371725944
  0
LWPOLYLINE
  5
66F
100
AcDbEntity
  8
0
100
AcDbPolyline
 62
7
  6
CONTINUOUS
 90
13
 70
0
 10
15.1108885457
 20
8.2585539976
 10
15.1342255936
 20
8.2814057991
 10
15.1521136927
 20
8.3113642627
 10
15.1640744653
 20
8.3476493971
 10
15.1697817609
 20
8.389317367
 10
15.1690707205
 20
8.4352863829
 10
15.1619413669
 20
8.4843652677
 10
15.1485586489
 20
8.5352818135
 10
15.1292487837
 20
8.5867156807
 10
15.1044897941
 20
8.6373352448
 10
15.0748992402
 20
8.6858300965
 10
15.0412196338
 20
8.730942856
 10
15.004299463
 20
8.7715025585
  0
LWPOLYLINE
  5
670
100
AcDbEntity
  8
0
100
AcDbPolyline
 62
7
  6
CONTINUOUS
 90
3
 70
0
 10
15.1370099244
 20
8.2830136454
 10
15.1136729696
 20
8.2601616643
 10
15.1031100372
 20
8.2532452074
  0
LWPOLYLINE
  5
671
100
AcDbEntity
  8
0
100
AcDbPolyline
 62
7
  6
CONTINUOUS
 90
13
 70
0
 10
15.13872783
 20
8.2746270083
 10
15.1620647847
 20
8.2974789895
 10
15.1799526072
 20
8.3274372684
 10
15.1919132392
 20
8.3637221785
 10
15.1976204969
 20
8.4053900121
 10
15.1969094514
 20
8.451359022
 10
15.1897800582
 20
8.5004380794
 10
15.1763971883
 20
8.5513550264
 10
15.1570870326
 20
8.6027894081
 10
15.1323279473
 20
8.6534089081
 10
15.1027376073
 20
8.7019032434
 10
15.0690582098
 20
8.7470156519
 10
15.0321381968
 20
8.787575163
  0
LWPOLYLINE
  5
672
100
AcDbEntity
  8
0
100
AcDbPolyline
 62
7
  6
CONTINUOUS
 90
3
 70
0
 10
15.1648489541
 20
8.2990866291
 10
15.1415120524
 20
8.2762345263
 10
15.1309487776
 20
8.2693178158
  0
LWPOLYLINE
  5
673
100
AcDbEntity
  8
0
100
AcDbPolyline
 62
7
  6
CONTINUOUS
 90
13
 70
0
 10
15.1665669128
 20
8.2906998703
 10
15.1899038145
 20
8.3135519731
 10
15.2077914753
 20
8.343510171
 10
15.2197519843
 20
8.3797948332
 10
15.2254592294
 20
8.4214625947
 10
15.2247481783
 20
8.4674317093
 10
15.2176187368
 20
8.5165109526
 10
15.2042357676
 20
8.5674281146
 10
15.1849254369
 20
8.6188627757
 10
15.1601662781
 20
8.6694822477
 10
15.1305761121
 20
8.7179761866
 10
15.0968969303
 20
8.7630882724
 10
15.0599769305
 20
8.8036477674
  0
LWPOLYLINE
  5
674
100
AcDbEntity
  8
0
100
AcDbPolyline
 62
7
  6
CONTINUOUS
 90
3
 70
0
 10
15.1926879264
 20
8.315159539
 10
15.1693510153
 20
8.2923072999
 10
15.1587875116
 20
8.2853904204
  0
LWPOLYLINE
  5
675
100
AcDbEntity
  8
0
100
AcDbPolyline
 62
7
  6
CONTINUOUS
 90
13
 70
0
 10
15.1944058757
 20
8.3067726439
 10
15.2177427867
 20
8.3296248831
 10
15.2356303612
 20
8.359583113
 10
15.247590746
 20
8.3958675608
 10
15.2532979634
 20
8.4375352035
 10
15.2525869074
 20
8.48350437
 10
15.2454574337
 20
8.5325837369
 10
15.2320743987
 20
8.5835010406
 10
15.2127639584
 20
8.6349358719
 10
15.1880046389
 20
8.6855555324
 10
15.1584144996
 20
8.7340493035
 10
15.1247355907
 20
8.779160966
 10
15.0878156643
 20
8.8197203719
  0
LWPOLYLINE
  5
676
100
AcDbEntity
  8
0
100
AcDbPolyline
 62
7
  6
CONTINUOUS
 90
3
 70
0
 10
15.2205267554
 20
8.3312322656
 10
15.197189836
 20
8.3083799684
 10
15.1866262486
 20
8.3014630267
  0
LWPOLYLINE
  5
677
100
AcDbEntity
  8
0
100
AcDbPolyline
 62
7
  6
CONTINUOUS
 90
13
 70
0
 10
15.2222446964
 20
8.3228453125
 10
15.2455816158
 20
8.3456976096
 10
15.2634692039
 20
8.3756559593
 10
15.2754295197
 20
8.4119403417
 10
15.2811366987
 20
8.4536078348
 10
15.2804256389
 20
8.4995770023
 10
15.273296149
 20
8.5486564313
 10
15.2599130813
 20
8.5995738054
 10
15.2406025902
 20
8.6510087125
 10
15.2158431112
 20
8.7016286137
 10
15.1862528847
 20
8.7501224239
 10
15.1525741733
 20
8.7952337538
 10
15.115654398
 20
8.8357929764
  0
LWPOLYLINE
  5
678
100
AcDbEntity
  8
0
100
AcDbPolyline
 62
7
  6
CONTINUOUS
 90
3
 70
0
 10
15.2483655112
 20
8.3473048983
 10
15.2250285663
 20
8.3244525704
 10
15.2144649762
 20
8.3175356277
  0
LWPOLYLINE
  5
679
100
AcDbEntity
  8
0
100
AcDbPolyline
 62
7
  6
CONTINUOUS
 90
13
 70
0
 10
15.2500834267
 20
8.3389179145
 10
15.2734203715
 20
8.3617702423
 10
15.291308005
 20
8.3917287131
 10
15.3032683197
 20
8.4280132383
 10
15.3089754369
 20
8.4696805172
 10
15.3082643731
 20
8.5156496014
 10
15.3011348863
 20
8.5647290187
 10
15.2877518249
 20
8.6156463787
 10
15.2684413474
 20
8.6670812627
 10
15.2436817994
 20
8.7177013012
 10
15.2140913372
 20
8.7661954445
 10
15.1804125653
 20
8.8113067731
 10
15.1434931318
 20
8.8518655809
  0
LWPOLYLINE
  5
67A
100
AcDbEntity
  8
0
100
AcDbPolyline
 62
7
  6
CONTINUOUS
 90
3
 70
0
 10
15.2762041054
 20
8.3633773241
 10
15.2528671368
 20
8.3405250545
 10
15.2423037071
 20
8.3336082305
  0
LWPOLYLINE
  5
67B
100
AcDbEntity
  8
0
100
AcDbPolyline
 62
7
  6
CONTINUOUS
 90
13
 70
0
 10
15.2779219972
 20
8.3549903985
 10
15.3012589658
 20
8.3778426681
 10
15.319146679
 20
8.407801185
 10
15.3311070631
 20
8.4440858852
 10
15.3368141754
 20
8.485753205
 10
15.3361031099
 20
8.5317221684
 10
15.3289736446
 20
8.5808015031
 10
15.3155906274
 20
8.6317187679
 10
15.2962802237
 20
8.6831535369
 10
15.2715207252
 20
8.7337735554
 10
15.2419301194
 20
8.7822679774
 10
15.2082511608
 20
8.8273795453
 10
15.1713318655
 20
8.8679381854
  0
LWPOLYLINE
  5
67C
100
AcDbEntity
  8
0
100
AcDbPolyline
 62
7
  6
CONTINUOUS
 90
3
 70
0
 10
15.3040425906
 20
8.3794496102
 10
15.2807055905
 20
8.3565974523
 10
15.2701424369
 20
8.3496808328
  0
LWPOLYLINE
  5
67D
100
AcDbEntity
  8
0
100
AcDbPolyline
 62
7
  6
CONTINUOUS
 90
4
 70
0
 10
14.9708906143
 20
8.1776030443
 10
14.9941711137
 20
8.199952225
 10
15.0121369524
 20
8.2292897362
 10
15.0243180266
 20
8.2648677222
  0
LINE
  5
67E
100
AcDbEntity
  8
0
100
AcDbLine
 62
7
  6
CONTINUOUS
 10
15.2951972313
 20
8.3641461387
 11
15.3103472605
 21
8.3746305842
  0
LINE
  5
67F
100
AcDbEntity
  8
0
100
AcDbLine
 62
7
  6
CONTINUOUS
 10
15.0724874006
 20
8.2355653255
 11
15.0830494308
 21
8.242481112
  0
LINE
  5
680
100
AcDbEntity
  8
0
100
AcDbLine
 62
7
  6
CONTINUOUS
 10
15.100326149
 20
8.2516379384
 11
15.1108885457
 21
8.2585539976
  0
LINE
  5
681
100
AcDbEntity
  8
0
100
AcDbLine
 62
7
  6
CONTINUOUS
 10
15.1281648975
 20
8.2677105515
 11
15.13872783
 21
8.2746270083
  0
LINE
  5
682
100
AcDbEntity
  8
0
100
AcDbLine
 62
7
  6
CONTINUOUS
 10
15.156003638
 20
8.2837831598
 11
15.1665669128
 21
8.2906998703
  0
LINE
  5
683
100
AcDbEntity
  8
0
100
AcDbLine
 62
7
  6
CONTINUOUS
 10
15.1838423719
 20
8.2998557644
 11
15.1944058757
 21
8.3067726439
  0
LINE
  5
684
100
AcDbEntity
  8
0
100
AcDbLine
 62
7
  6
CONTINUOUS
 10
15.2116811089
 20
8.3159283708
 11
15.2222446964
 21
8.3228453125
  0
LINE
  5
685
100
AcDbEntity
  8
0
100
AcDbLine
 62
7
  6
CONTINUOUS
 10
15.2395198366
 20
8.3320009717
 11
15.2500834267
 21
8.3389179145
  0
LINE
  5
686
100
AcDbEntity
  8
0
100
AcDbLine
 62
7
  6
CONTINUOUS
 10
15.2673585674
 20
8.3480735746
 11
15.2779219972
 21
8.3549903985
  0
LWPOLYLINE
  5
687
100
AcDbEntity
  8
0
100
AcDbPolyline
 62
7
  6
CONTINUOUS
 90
4
 70
0
 10
15.2968894742
 20
8.3651231497
 10
15.30791
 20
8.3723317426
 10
15.3303462185
 20
8.3936909046
 10
15.3481309146
 20
8.4211960826
  0
LINE
  5
688
100
AcDbEntity
  8
0
100
AcDbLine
 62
9
  6
CONTINUOUS
 10
15.3975283368
 20
8.1774191714
 11
15.3683974185
 21
8.1682551293
  0
LINE
  5
689
100
AcDbEntity
  8
0
100
AcDbLine
 62
7
  6
CONTINUOUS
 10
14.7659717753
 20
8.9358003585
 11
14.7694139475
 21
8.8781747091
  0
LINE
  5
68A
100
AcDbEntity
  8
0
100
AcDbLine
 62
9
  6
CONTINUOUS
 10
14.7841317135
 20
8.8871081525
 11
14.7832687928
 21
8.9116914517
  0
LWPOLYLINE
  5
68B
100
AcDbEntity
  8
0
100
AcDbPolyline
 62
9
  6
CONTINUOUS
 90
19
 70
0
 10
14.7832687928
 20
8.9116914517
 10
14.7845550546
 20
8.9468221887
 10
14.7884052912
 20
8.9802288636
 10
14.7947922729
 20
9.0116775225
 10
14.8036714037
 20
9.0409535701
 10
14.8149815093
 20
9.0678583789
 10
14.8286448696
 20
9.0922088529
 10
14.8445675599
 20
9.1138389235
 10
14.8626396695
 20
9.1326006819
 10
14.8827371155
 20
9.1483667353
 10
14.9047225939
 20
9.1610304291
 10
14.9284453159
 20
9.1705057388
 10
14.9537420951
 20
9.1767284436
 10
14.9804398794
 20
9.1796569687
 10
15.0083566675
 20
9.1792721062
 10
15.0373010716
 20
9.1755771633
 10
15.0670745727
 20
9.168598295
 10
15.0974740872
 20
9.1583839144
 10
15.1282925094
 20
9.1450042462
  0
LINE
  5
68C
100
AcDbEntity
  8
0
100
AcDbLine
 62
7
  6
CONTINUOUS
 10
15.0001101321
 20
8.2822668942
 11
14.9917709688
 21
8.2442551657
  0
LWPOLYLINE
  5
68D
100
AcDbEntity
  8
0
100
AcDbPolyline
 62
7
  6
CONTINUOUS
 90
4
 70
0
 10
14.9591653534
 20
8.2463058806
 10
14.9659145138
 20
8.2678404847
 10
14.9702595528
 20
8.2901694954
 10
14.9724985409
 20
8.3133132737
  0
LINE
  5
68E
100
AcDbEntity
  8
0
100
AcDbLine
 62
7
  6
CONTINUOUS
 10
14.9917709688
 20
8.2442551657
 11
14.9775525707
 21
8.2117780523
  0
LINE
  5
68F
100
AcDbEntity
  8
0
100
AcDbLine
 62
7
  6
CONTINUOUS
 10
15.0435423601
 20
8.2486805041
 11
15.0256539533
 21
8.2187219004
  0
LINE
  5
690
100
AcDbEntity
  8
0
100
AcDbLine
 62
7
  6
CONTINUOUS
 10
15.0713811371
 20
8.2647532045
 11
15.0534927749
 21
8.2347946174
  0
LINE
  5
691
100
AcDbEntity
  8
0
100
AcDbLine
 62
7
  6
CONTINUOUS
 10
15.0992199612
 20
8.2808260093
 11
15.0813316992
 21
8.250867466
  0
LINE
  5
692
100
AcDbEntity
  8
0
100
AcDbLine
 62
7
  6
CONTINUOUS
 10
15.1270588323
 20
8.2968989187
 11
15.1091707333
 21
8.2669404551
  0
LINE
  5
693
100
AcDbEntity
  8
0
100
AcDbLine
 62
7
  6
CONTINUOUS
 10
15.1548977468
 20
8.3129719243
 11
15.1370099244
 21
8.2830136454
  0
LINE
  5
694
100
AcDbEntity
  8
0
100
AcDbLine
 62
7
  6
CONTINUOUS
 10
15.182736615
 20
8.329044827
 11
15.1648489541
 21
8.2990866291
  0
LINE
  5
695
100
AcDbEntity
  8
0
100
AcDbLine
 62
7
  6
CONTINUOUS
 10
15.2105755008
 20
8.345117769
 11
15.1926879264
 21
8.315159539
  0
LINE
  5
696
100
AcDbEntity
  8
0
100
AcDbLine
 62
7
  6
CONTINUOUS
 10
15.2384143435
 20
8.3611906152
 11
15.2205267554
 21
8.3312322656
  0
LINE
  5
697
100
AcDbEntity
  8
0
100
AcDbLine
 62
7
  6
CONTINUOUS
 10
15.2662531446
 20
8.3772633691
 11
15.2483655112
 21
8.3473048983
  0
LWPOLYLINE
  5
698
100
AcDbEntity
  8
0
100
AcDbPolyline
 62
7
  6
CONTINUOUS
 90
3
 70
0
 10
15.3103472605
 20
8.3746305842
 10
15.3324439081
 20
8.3983942903
 10
15.3491683665
 20
8.4289376491
  0
LINE
  5
699
100
AcDbEntity
  8
AXIS_COSMETIC_THREADS
100
AcDbLine
 62
7
  6
CONTINUOUS
 10
15.7738511911
 20
8.3672143152
 11
15.7804067355
 21
8.3711704976
  0
LINE
  5
69A
100
AcDbEntity
  8
AXIS
100
AcDbLine
 62
7
  6
CONTINUOUS
 10
15.777298408
 20
8.3697222217
 11
15.4961271971
 21
8.2073889164
  0
LINE
  5
69B
100
AcDbEntity
  8
AXIS_COSMETIC_THREADS
100
AcDbLine
 62
7
  6
CONTINUOUS
 10
15.7775123472
 20
8.3693274882
 11
15.8336157025
 21
8.4017185821
  0
LINE
  5
69C
100
AcDbEntity
  8
0
100
AcDbLine
 62
7
  6
CONTINUOUS
 10
15.8335949906
 20
8.4017066242
 11
15.8335583993
 21
8.4016855058
  0
LINE
  5
69D
100
AcDbEntity
  8
AXIS_COSMETIC_THREADS
100
AcDbLine
 62
7
  6
CONTINUOUS
 10
15.7669655226
 20
8.3637565631
 11
15.7738511911
 21
8.3672143152
  0
LWPOLYLINE
  5
69E
100
AcDbEntity
  8
0
100
AcDbPolyline
 62
7
  6
CONTINUOUS
 90
10
 70
0
 10
14.5399875499
 20
8.4934868063
 10
14.5511315457
 20
8.4554955024
 10
14.5659609725
 20
8.417467676
 10
14.5841888624
 20
8.3801394422
 10
14.6054624557
 20
8.3442334054
 10
14.6293700239
 20
8.3104446749
 10
14.655448834
 20
8.2794274101
 10
14.6831941003
 20
8.2517821573
 10
14.7120685672
 20
8.2280443586
 10
14.7415138216
 20
8.2086733056
  0
LWPOLYLINE
  5
69F
100
AcDbEntity
  8
0
100
AcDbPolyline
 62
7
  6
CONTINUOUS
 90
3
 70
0
 10
14.5399875499
 20
8.5058368655
 10
14.5334338178
 20
8.5401046673
 10
14.5306336112
 20
8.5818020109
  0
LINE
  5
6A0
100
AcDbEntity
  8
0
100
AcDbLine
 62
7
  6
CONTINUOUS
 10
14.9027348389
 20
8.2264372576
 11
14.9027348389
 21
8.4946530198
  0
LINE
  5
6A1
100
AcDbEntity
  8
0
100
AcDbLine
 62
7
  6
CONTINUOUS
 10
14.9041490584
 20
8.2272079001
 11
14.9041490584
 21
8.4922494142
  0
LINE
  5
6A2
100
AcDbEntity
  8
0
100
AcDbLine
 62
7
  6
CONTINUOUS
 10
14.9430400933
 20
8.4137612551
 11
14.9430400933
 21
8.2607895763
  0
LINE
  5
6A3
100
AcDbEntity
  8
0
100
AcDbLine
 62
7
  6
CONTINUOUS
 10
14.963529576
 20
8.3254480357
 11
14.9635295719
 21
8.3254460773
  0
LWPOLYLINE
  5
6A4
100
AcDbEntity
  8
0
100
AcDbPolyline
 62
7
  6
CONTINUOUS
 90
3
 70
0
 10
14.9725772357
 20
8.3202225243
 10
14.9725574026
 20
8.3167545573
 10
14.9724985409
 20
8.3133132737
  0
LINE
  5
6A5
100
AcDbEntity
  8
0
100
AcDbLine
 62
7
  6
CONTINUOUS
 10
15.0023539991
 20
8.324829158
 11
15.0001101321
 21
8.2822668942
  0
LWPOLYLINE
  5
6A6
100
AcDbEntity
  8
0
100
AcDbPolyline
 62
7
  6
CONTINUOUS
 90
4
 70
0
 10
14.9633048725
 20
8.3287940188
 10
14.9607232743
 20
8.2933878952
 10
14.9521495439
 20
8.2584708463
 10
14.9378354647
 20
8.2285980375
  0
LWPOLYLINE
  5
6A7
100
AcDbEntity
  8
0
100
AcDbPolyline
 62
7
  6
CONTINUOUS
 90
3
 70
0
 10
14.9635295719
 20
8.3254460773
 10
14.9606571269
 20
8.2860096591
 10
14.9518679741
 20
8.2501849751
  0
LWPOLYLINE
  5
6A8
100
AcDbEntity
  8
0
100
AcDbPolyline
 62
7
  6
CONTINUOUS
 90
3
 70
0
 10
15.0333721161
 20
8.3105642437
 10
15.0276652532
 20
8.2688962078
 10
15.0157046789
 20
8.2326102351
  0
LWPOLYLINE
  5
6A9
100
AcDbEntity
  8
0
100
AcDbPolyline
 62
7
  6
CONTINUOUS
 90
10
 70
0
 10
15.0527194433
 20
8.2833585954
 10
15.0584268179
 20
8.3250268086
 10
15.0577157942
 20
8.3709958598
 10
15.0505866034
 20
8.4200740135
 10
15.0372042109
 20
8.4709898392
 10
15.0178945142
 20
8.5224237215
 10
14.9931355168
 20
8.5730436273
 10
14.9635448795
 20
8.6215388288
 10
14.9298650471
 20
8.6666520153
 10
14.892944528
 20
8.7072121405
  0
LWPOLYLINE
  5
6AA
100
AcDbEntity
  8
0
100
AcDbPolyline
 62
7
  6
CONTINUOUS
 90
3
 70
0
 10
15.0612106908
 20
8.3266340616
 10
15.0555033121
 20
8.2849658357
 10
15.0435423601
 20
8.2486805041
  0
LWPOLYLINE
  5
6AB
100
AcDbEntity
  8
0
100
AcDbPolyline
 62
7
  6
CONTINUOUS
 90
10
 70
0
 10
15.0805581725
 20
8.2994311797
 10
15.0862655512
 20
8.3410994056
 10
15.0855545208
 20
8.3870685509
 10
15.078425263
 20
8.4361469797
 10
15.0650428814
 20
8.4870626417
 10
15.0457332359
 20
8.5384963538
 10
15.0209742716
 20
8.5891161934
 10
14.9913835681
 20
8.6376115
 10
14.9577036703
 20
8.6827247539
 10
14.9207832618
 20
8.723284745
  0
LWPOLYLINE
  5
6AC
100
AcDbEntity
  8
0
100
AcDbPolyline
 62
7
  6
CONTINUOUS
 90
3
 70
0
 10
15.0890494259
 20
8.3427066897
 10
15.0833420605
 20
8.3010385049
 10
15.0713811371
 20
8.2647532045
  0
LWPOLYLINE
  5
6AD
100
AcDbEntity
  8
0
100
AcDbPolyline
 62
7
  6
CONTINUOUS
 90
10
 70
0
 10
15.0243180266
 20
8.2648677222
 10
15.0303893798
 20
8.3057795019
 10
15.0301809034
 20
8.350979671
 10
15.0236830017
 20
8.3993156644
 10
15.0110408872
 20
8.4495730075
 10
14.9925548033
 20
8.5004745585
 10
14.9686725205
 20
8.5507281686
 10
14.9399773715
 20
8.5990591717
 10
14.9071743441
 20
8.6442406312
 10
14.8710728313
 20
8.6851243339
  0
LWPOLYLINE
  5
6AE
100
AcDbEntity
  8
0
100
AcDbPolyline
 62
7
  6
CONTINUOUS
 90
11
 70
0
 10
15.0964359975
 20
8.2792185485
 10
15.1083969209
 20
8.3155038489
 10
15.1141042863
 20
8.3571720337
 10
15.1133932519
 20
8.4031411876
 10
15.1062639486
 20
8.4522198189
 10
15.092881498
 20
8.503135613
 10
15.0735718779
 20
8.5545691707
 10
15.048812918
 20
8.6051889572
 10
15.0192222833
 20
8.6536841319
 10
14.9855424781
 20
8.6987972686
 10
14.9486219955
 20
8.7393573495
  0
LWPOLYLINE
  5
6AF
100
AcDbEntity
  8
0
100
AcDbPolyline
 62
9
  6
CONTINUOUS
 90
4
 70
0
 10
15.8575077818
 20
8.418403749
 10
15.8473822857
 20
8.4105971409
 10
15.8369392947
 20
8.4036904989
 10
15.8335949906
 20
8.4017066242
  0
LINE
  5
6B0
100
AcDbEntity
  8
AXIS_COSMETIC_THREADS
100
AcDbLine
 62
7
  6
CONTINUOUS
 10
15.7804067355
 20
8.3711704976
 11
15.8050782475
 21
8.3895341911
  0
LWPOLYLINE
  5
6B1
100
AcDbEntity
  8
0
100
AcDbPolyline
 62
7
  6
CONTINUOUS
 90
18
 70
0
 10
15.833558484
 20
8.4016855612
 10
15.8576627441
 20
8.4179511907
 10
15.8934879074
 20
8.4526097124
 10
15.9243027917
 20
8.4975977016
 10
15.9481353951
 20
8.5516645265
 10
15.9636920258
 20
8.6133374952
 10
15.9702124973
 20
8.6811156208
 10
15.9675177945
 20
8.7530926812
 10
15.956149968
 20
8.827670951
 10
15.9366126756
 20
8.9033769359
 10
15.9094338428
 20
8.9789614684
 10
15.8751936382
 20
9.053151132
 10
15.8345464567
 20
9.124650231
 10
15.7882187285
 20
9.1921782589
 10
15.7370163173
 20
9.2544747566
 10
15.6818002289
 20
9.3103406593
 10
15.6234541405
 20
9.3586610586
 10
15.564915957
 20
9.3972185917
  0
LWPOLYLINE
  5
6B2
100
AcDbEntity
  8
0
100
AcDbPolyline
 62
7
  6
CONTINUOUS
 90
12
 70
0
 10
14.9725772357
 20
8.3202225243
 10
14.969161986
 20
8.3678967717
 10
14.9590170662
 20
8.4181075263
 10
14.9424416784
 20
8.4693696036
 10
14.9199257618
 20
8.5201667286
 10
14.8921350374
 20
8.5689966996
 10
14.8598910368
 20
8.6144158957
 10
14.8241469859
 20
8.6550814456
 10
14.7859596813
 20
8.6897909223
 10
14.7464581738
 20
8.7175180128
 10
14.7068103843
 20
8.737442858
 10
14.6681885702
 20
8.7489762932
  0
LINE
  5
6B3
100
AcDbEntity
  8
0
100
AcDbLine
 62
7
  6
CONTINUOUS
 10
14.9606596789
 20
8.3681826926
 11
14.963529576
 21
8.3254480357
  0
LINE
  5
6B4
100
AcDbEntity
  8
AXIS
100
AcDbLine
 62
7
  6
CONTINUOUS
 10
15.0726097404
 20
8.2355653255
 11
15.0726097404
 21
8.0598321669
  0
LINE
  5
6B5
100
AcDbEntity
  8
0
100
AcDbLine
 62
7
  6
CONTINUOUS
 10
15.077885331
 20
8.0313795727
 11
15.077885331
 21
8.0190070461
  0
LWPOLYLINE
  5
6B6
100
AcDbEntity
  8
0
100
AcDbPolyline
 62
7
  6
CONTINUOUS
 90
3
 70
0
 10
15.2004043691
 20
8.4069972506
 10
15.1946971239
 20
8.3653294892
 10
15.182736615
 20
8.329044827
  0
LINE
  5
6B7
100
AcDbEntity
  8
0
100
AcDbLine
 62
7
  6
CONTINUOUS
 10
15.3491683665
 20
8.4289376491
 11
15.3600859722
 21
8.4654882924
  0
LWPOLYLINE
  5
6B8
100
AcDbEntity
  8
0
100
AcDbPolyline
 62
7
  6
CONTINUOUS
 90
3
 70
0
 10
15.3338909048
 20
8.4456930064
 10
15.3219304036
 20
8.4094081153
 10
15.3040425906
 20
8.3794496102
  0
LINE
  5
6B9
100
AcDbEntity
  8
0
100
AcDbLine
 62
7
  6
CONTINUOUS
 10
15.3481309146
 20
8.4211960826
 11
15.3608713174
 21
8.4542398312
  0
LINE
  5
6BA
100
AcDbEntity
  8
0
100
AcDbLine
 62
9
  6
CONTINUOUS
 10
15.8766744832
 20
8.4366551791
 11
15.8672823971
 21
8.4270952122
  0
LINE
  5
6BB
100
AcDbEntity
  8
AXIS_COSMETIC_THREADS
100
AcDbLine
 62
7
  6
CONTINUOUS
 10
15.8050782475
 20
8.3895341911
 11
15.8271191311
 21
8.4118390469
  0
LINE
  5
6BC
100
AcDbEntity
  8
0
100
AcDbLine
 62
9
  6
CONTINUOUS
 10
15.8672823971
 20
8.4270952122
 11
15.8575077818
 21
8.418403749
  0
LWPOLYLINE
  5
6BD
100
AcDbEntity
  8
0
100
AcDbPolyline
 62
7
  6
CONTINUOUS
 90
15
 70
0
 10
15.5729471512
 20
7.9006172272
 10
15.5416768208
 20
7.8849734967
 10
15.5068685968
 20
7.8720583027
 10
15.4692310743
 20
7.8621345613
 10
15.4295304447
 20
7.8554042913
 10
15.3885748984
 20
7.8520045017
 10
15.3471981721
 20
7.8520044022
 10
15.3062425768
 20
7.855403995
 10
15.2665418501
 20
7.8621340741
 10
15.2289041845
 20
7.8720576345
 10
15.1940957742
 20
7.8849726612
 10
15.1628252182
 20
7.9006162414
 10
15.1357290946
 20
7.918669917
 10
15.1133590026
 20
7.9387661672
 10
15.1031516261
 20
7.9506558334
  0
LWPOLYLINE
  5
6BE
100
AcDbEntity
  8
0
100
AcDbPolyline
 62
7
  6
CONTINUOUS
 90
3
 70
0
 10
15.5525346517
 20
7.8715770019
 10
15.5229519473
 20
7.8568789191
 10
15.4899053109
 20
7.8448905451
  0
LWPOLYLINE
  5
6BF
100
AcDbEntity
  8
AXIS
100
AcDbPolyline
 62
7
  6
CONTINUOUS
 90
13
 70
0
 10
15.5766775726
 20
7.939288637
 10
15.5372494589
 20
7.9201876255
 10
15.4926753019
 20
7.9053296427
 10
15.4443094648
 20
7.895166141
 10
15.393621519
 20
7.8900059331
 10
15.3421515922
 20
7.8900058093
 10
15.291463572
 20
7.8951657736
 10
15.2430975883
 20
7.9053290428
 10
15.198523217
 20
7.9201868113
 10
15.1590948278
 20
7.9392876333
 10
15.1260104325
 20
7.9620511399
 10
15.1002752835
 20
7.9877856736
 10
15.0826713303
 20
8.0157093034
  0
LWPOLYLINE
  5
6C0
100
AcDbEntity
  8
0
100
AcDbPolyline
 62
7
  6
CONTINUOUS
 90
8
 70
0
 10
14.5802928043
 20
8.4125950416
 10
14.5974208423
 20
8.3788347185
 10
14.617179433
 20
8.3464397445
 10
14.6392078646
 20
8.3160015202
 10
14.6631039875
 20
8.288075724
 10
14.6884315555
 20
8.2631721676
 10
14.7147281901
 20
8.2417454887
 10
14.7415138216
 20
8.2241868515
  0
LWPOLYLINE
  5
6C1
100
AcDbEntity
  8
0
100
AcDbPolyline
 62
7
  6
CONTINUOUS
 90
4
 70
0
 10
14.5788785848
 20
8.4149986472
 10
14.5974589733
 20
8.3781741883
 10
14.6191516974
 20
8.3429798393
 10
14.6434880812
 20
8.3101759815
  0
LINE
  5
6C2
100
AcDbEntity
  8
AXIS
100
AcDbLine
 62
7
  6
CONTINUOUS
 10
15.2497750947
 20
7.8441743789
 11
15.2497750947
 21
5.7279784134
  0
LWPOLYLINE
  5
6C3
100
AcDbEntity
  8
0
100
AcDbPolyline
 62
7
  6
CONTINUOUS
 90
10
 70
0
 10
15.3600859722
 20
8.4654882924
 10
15.3649073736
 20
8.5071215423
 10
15.3634953092
 20
8.5528027797
 10
15.3558644061
 20
8.6013815928
 10
15.3421872532
 20
8.6516304285
 10
15.322788184
 20
8.702284403
 10
15.2981336289
 20
8.7520709755
 10
15.268820024
 20
8.7997403391
 10
15.2355613462
 20
8.8440926728
 10
15.1991705993
 20
8.8840107899
  0
LWPOLYLINE
  5
6C4
100
AcDbEntity
  8
0
100
AcDbPolyline
 62
7
  6
CONTINUOUS
 90
4
 70
0
 10
15.311759315
 20
8.471287861
 10
15.3060522027
 20
8.4296205412
 10
15.2940918186
 20
8.393335841
 10
15.2762041054
 20
8.3633773241
  0
LINE
  5
6C5
100
AcDbEntity
  8
0
100
AcDbLine
 62
7
  6
CONTINUOUS
 10
15.3608713174
 20
8.4542398312
 11
15.3682860582
 21
8.492092387
  0
LINE
  5
6C6
100
AcDbEntity
  8
AXIS_COSMETIC_THREADS
100
AcDbLine
 62
7
  6
CONTINUOUS
 10
15.8271191311
 20
8.4118390469
 11
15.8463519262
 21
8.4379054796
  0
LWPOLYLINE
  5
6C7
100
AcDbEntity
  8
0
100
AcDbPolyline
 62
7
  6
CONTINUOUS
 90
4
 70
0
 10
15.5525346517
 20
7.8715770019
 10
15.5779925954
 20
7.8886564624
 10
15.5987570901
 20
7.9077357739
 10
15.6062621064
 20
7.9166329939
  0
LWPOLYLINE
  5
6C8
100
AcDbEntity
  8
0
100
AcDbPolyline
 62
7
  6
CONTINUOUS
 90
4
 70
0
 10
15.5729471512
 20
7.9006172272
 10
15.6000430144
 20
7.9186710331
 10
15.6224128166
 20
7.9387673908
 10
15.6326190358
 20
7.9506558334
  0
LWPOLYLINE
  5
6C9
100
AcDbEntity
  8
0
100
AcDbPolyline
 62
7
  6
CONTINUOUS
 90
3
 70
0
 10
14.6855787754
 20
8.7944221236
 10
14.6870453717
 20
8.7909669405
 10
14.6885854984
 20
8.7875855759
  0
LWPOLYLINE
  5
6CA
100
AcDbEntity
  8
AXIS
100
AcDbPolyline
 62
7
  6
CONTINUOUS
 90
3
 70
0
 10
15.0826713303
 20
8.0157093034
 10
15.0737334603
 20
8.0449735842
 10
15.0726161458
 20
8.0598321687
  0
LWPOLYLINE
  5
6CB
100
AcDbEntity
  8
0
100
AcDbPolyline
 62
7
  6
CONTINUOUS
 90
3
 70
0
 10
15.3682860582
 20
8.492092387
 10
15.3685836505
 20
8.5086972565
 10
15.3678874172
 20
8.5259519554
  0
LWPOLYLINE
  5
6CC
100
AcDbEntity
  8
0
100
AcDbPolyline
 62
7
  6
CONTINUOUS
 90
3
 70
0
 10
15.3718463185
 20
8.5436807546
 10
15.3692243165
 20
8.5100500173
 10
15.3685465108
 20
8.5066249566
  0
LWPOLYLINE
  5
6CD
100
AcDbEntity
  8
0
100
AcDbPolyline
 62
9
  6
CONTINUOUS
 90
18
 70
0
 10
15.5298280561
 20
8.4094747789
 10
15.5234714043
 20
8.3780436744
 10
15.514625878
 20
8.3487726339
 10
15.5033511106
 20
8.3218617166
 10
15.4897237306
 20
8.2974958993
 10
15.4738365696
 20
8.2758425335
 10
15.4557972751
 20
8.2570496114
 10
15.4357283986
 20
8.2412461951
 10
15.4137671543
 20
8.2285414635
 10
15.3900634279
 20
8.2190229577
 10
15.3647782429
 20
8.2127562378
 10
15.3380839858
 20
8.2097850438
 10
15.3101636986
 20
8.2101305784
 10
15.2812081422
 20
8.2137911267
 10
15.2514147019
 20
8.2207424409
 10
15.2209860636
 20
8.2309381461
 10
15.1901306052
 20
8.2443094185
 10
15.1591384957
 20
8.2607172407
  0
LWPOLYLINE
  5
6CE
100
AcDbEntity
  8
AXIS_COSMETIC_THREADS
100
AcDbPolyline
 62
7
  6
CONTINUOUS
 90
24
 70
0
 10
15.8463519262
 20
8.4379054796
 10
15.8626217815
 20
8.4675236176
 10
15.8757977018
 20
8.5004549929
 10
15.8857736022
 20
8.5364344617
 10
15.8924691627
 20
8.5751723383
 10
15.8958304747
 20
8.6163567281
 10
15.8958304747
 20
8.6596560386
 10
15.8924691627
 20
8.7047216493
 10
15.8857736022
 20
8.7511907184
 10
15.8757977018
 20
8.7986891041
 10
15.8626217815
 20
8.8468343776
 10
15.8463519262
 20
8.8952389012
 10
15.8271191311
 20
8.9435129503
 10
15.8050782475
 20
8.9912678506
 10
15.7804067355
 20
9.0381191078
 10
15.7533032356
 20
9.0836895029
 10
15.7239859694
 20
9.1276121301
 10
15.6926909821
 20
9.1695333502
 10
15.6596702427
 20
9.2091156381
 10
15.6251896146
 20
9.2460403005
 10
15.5895267157
 20
9.2800100418
 10
15.5529686827
 20
9.3107513575
 10
15.5158098593
 20
9.3380167368
 10
15.4783494265
 20
9.3615866547
  0
LWPOLYLINE
  5
6CF
100
AcDbEntity
  8
0
100
AcDbPolyline
 62
7
  6
CONTINUOUS
 90
5
 70
0
 10
15.6326190358
 20
7.9506558334
 10
15.6396011731
 20
7.9604971966
 10
15.6512581787
 20
7.9834180941
 10
15.6571465303
 20
8.0070634801
 10
15.657885331
 20
8.0190070461
  0
LINE
  5
6D0
100
AcDbEntity
  8
0
100
AcDbLine
 62
7
  6
CONTINUOUS
 10
15.6326190358
 20
7.9506558334
 11
15.6062666089
 21
7.9166346076
  0
LWPOLYLINE
  5
6D1
100
AcDbEntity
  8
0
100
AcDbPolyline
 62
7
  6
CONTINUOUS
 90
9
 70
0
 10
14.6868245896
 20
8.2367352662
 10
14.65201958
 20
8.2706806022
 10
14.6197389274
 20
8.3095710616
 10
14.5908335553
 20
8.3523387807
 10
14.5659587262
 20
8.3980430056
 10
14.5458201966
 20
8.4455267024
 10
14.531149983
 20
8.4931143989
 10
14.5223679643
 20
8.5390653688
 10
14.5194980713
 20
8.5818019841
  0
LWPOLYLINE
  5
6D2
100
AcDbEntity
  8
0
100
AcDbPolyline
 62
7
  6
CONTINUOUS
 90
5
 70
0
 10
14.6434880812
 20
8.3101759815
 10
14.6699423319
 20
8.2804713493
 10
14.6979428999
 20
8.2545077176
 10
14.7268848268
 20
8.2328460362
 10
14.7561428164
 20
8.2159543102
  0
LINE
  5
6D3
100
AcDbEntity
  8
0
100
AcDbLine
 62
7
  6
CONTINUOUS
 10
15.1031516261
 20
7.9506558334
 11
15.129504053
 21
7.9166346076
  0
LWPOLYLINE
  5
6D4
100
AcDbEntity
  8
0
100
AcDbPolyline
 62
7
  6
CONTINUOUS
 90
5
 70
0
 10
15.1031516261
 20
7.9506558334
 10
15.0961703326
 20
7.9604958903
 10
15.0845129965
 20
7.9834167318
 10
15.0786243039
 20
8.0070620895
 10
15.077885331
 20
8.0190070461
  0
LWPOLYLINE
  5
6D5
100
AcDbEntity
  8
0
100
AcDbPolyline
 62
7
  6
CONTINUOUS
 90
4
 70
0
 10
14.9027348389
 20
8.4946530198
 10
14.8856068009
 20
8.5284133429
 10
14.8658482102
 20
8.5608083169
 10
14.8438197786
 20
8.5912465412
  0
LWPOLYLINE
  5
6D6
100
AcDbEntity
  8
0
100
AcDbPolyline
 62
7
  6
CONTINUOUS
 90
10
 70
0
 10
14.9041490584
 20
8.4922494142
 10
14.8855686699
 20
8.5290738731
 10
14.8638759458
 20
8.5642682221
 10
14.839539562
 20
8.5970720799
 10
14.8130853113
 20
8.6267767121
 10
14.7850847434
 20
8.6527403438
 10
14.7561428164
 20
8.6744020253
 10
14.7268848268
 20
8.6912937512
 10
14.6979428999
 20
8.7030505724
 10
14.6699423319
 20
8.7094184802
  0
LWPOLYLINE
  5
6D7
100
AcDbEntity
  8
0
100
AcDbPolyline
 62
7
  6
CONTINUOUS
 90
3
 70
0
 10
14.9170666707
 20
8.4897803854
 10
14.9318960975
 20
8.451752559
 10
14.9430400933
 20
8.4137612551
  0
LWPOLYLINE
  5
6D8
100
AcDbEntity
  8
0
100
AcDbPolyline
 62
7
  6
CONTINUOUS
 90
9
 70
0
 10
15.3678874172
 20
8.5259519554
 10
15.3644233705
 20
8.5703248855
 10
15.3552809024
 20
8.6174925023
 10
15.3406576314
 20
8.665868774
 10
15.3211480732
 20
8.7137336354
 10
15.2970371322
 20
8.7605807589
 10
15.2685827309
 20
8.805749477
 10
15.2365230319
 20
8.8478937676
 10
15.2019544727
 20
8.8856180503
  0
LINE
  5
6D9
100
AcDbEntity
  8
AXIS
100
AcDbLine
 62
7
  6
CONTINUOUS
 10
15.4859955672
 20
7.8439057017
 11
15.4859955672
 21
5.7279784134
  0
LINE
  5
6DA
100
AcDbEntity
  8
0
100
AcDbLine
 62
9
  6
CONTINUOUS
 10
15.533653079
 20
8.4428515032
 11
15.5298280561
 21
8.4094747789
  0
LWPOLYLINE
  5
6DB
100
AcDbEntity
  8
AXIS
100
AcDbPolyline
 62
7
  6
CONTINUOUS
 90
5
 70
0
 10
15.6620374159
 20
8.0449749983
 10
15.6530999679
 20
8.0157106746
 10
15.6354964175
 20
7.9877869601
 10
15.6097616397
 20
7.9620523027
 10
15.5766775726
 20
7.939288637
  0
LWPOLYLINE
  5
6DC
100
AcDbEntity
  8
0
100
AcDbPolyline
 62
7
  6
CONTINUOUS
 90
7
 70
0
 10
15.4899053109
 20
7.8448905451
 10
15.4541329498
 20
7.8358796802
 10
15.4164339595
 20
7.8300476123
 10
15.3776504729
 20
7.8275246203
 10
15.3386488493
 20
7.8283670634
 10
15.3003003203
 20
7.832556123
 10
15.2634615288
 20
7.8399982224
  0
LWPOLYLINE
  5
6DD
100
AcDbEntity
  8
0
100
AcDbPolyline
 62
7
  6
CONTINUOUS
 90
6
 70
0
 10
15.2634615288
 20
7.8399982224
 10
15.2289553924
 20
7.8505271173
 10
15.1975527214
 20
7.8639076097
 10
15.1699549993
 20
7.8798408015
 10
15.1467787138
 20
7.8979707715
 10
15.1295012099
 20
7.9166385049
  0
LWPOLYLINE
  5
6DE
100
AcDbEntity
  8
0
100
AcDbPolyline
 62
7
  6
CONTINUOUS
 90
3
 70
0
 10
14.6873863038
 20
8.2254881016
 10
14.726666033
 20
8.1959379996
 10
14.7663846801
 20
8.1740056093
  0
LINE
  5
6DF
100
AcDbEntity
  8
0
100
AcDbLine
 62
7
  6
CONTINUOUS
 10
14.7231144225
 20
8.2087661054
 11
14.6868245896
 21
8.2367352662
  0
LINE
  5
6E0
100
AcDbEntity
  8
0
100
AcDbLine
 62
7
  6
CONTINUOUS
 10
15.657885331
 20
8.0313796232
 11
15.657885331
 21
8.0190070461
  0
LINE
  5
6E1
100
AcDbEntity
  8
AXIS
100
AcDbLine
 62
7
  6
CONTINUOUS
 10
15.6631609215
 20
8.3038253065
 11
15.6631609215
 21
8.0598321669
  0
LWPOLYLINE
  5
6E2
100
AcDbEntity
  8
AXIS
100
AcDbPolyline
 62
7
  6
CONTINUOUS
 90
18
 70
0
 10
15.485994418
 20
5.7279784129
 10
15.4856946709
 20
5.7231140776
 10
15.4832964826
 20
5.7134838634
 10
15.4785488561
 20
5.7041487164
 10
15.4715484394
 20
5.6952986733
 10
15.4624377407
 20
5.6871138955
 10
15.4514022276
 20
5.6797610015
 10
15.4386665514
 20
5.6733896749
 10
15.4244899736
 20
5.6681296176
 10
15.4091610885
 20
5.6640879092
 10
15.392991948
 20
5.6613468272
 10
15.3763117092
 20
5.6599621722
 10
15.3594599337
 20
5.6599621316
 10
15.3427796749
 20
5.6613467065
 10
15.3266104949
 20
5.6640877107
 10
15.3112815515
 20
5.6681293455
 10
15.2971048979
 20
5.6733893346
 10
15.2843691297
 20
5.6797606
  0
LWPOLYLINE
  5
6E3
100
AcDbEntity
  8
0
100
AcDbPolyline
 62
9
  6
CONTINUOUS
 90
11
 70
0
 10
15.6180721479
 20
8.4577823102
 10
15.6152597689
 20
8.4201973889
 10
15.6096880772
 20
8.3845982443
 10
15.601393635
 20
8.3512223382
 10
15.590430882
 20
8.3202917385
 10
15.5768721719
 20
8.2920131617
 10
15.5608075591
 20
8.2665762211
 10
15.5423435252
 20
8.2441508487
 10
15.5216021173
 20
8.2248866762
 10
15.4987211513
 20
8.2089130739
 10
15.4961272685
 20
8.2073889576
  0
LINE
  5
6E4
100
AcDbEntity
  8
AXIS
100
AcDbLine
 62
7
  6
CONTINUOUS
 10
15.6631545161
 20
8.0598321651
 11
15.6620374159
 21
8.0449749983
  0
LWPOLYLINE
  5
6E5
100
AcDbEntity
  8
0
100
AcDbPolyline
 62
7
  6
CONTINUOUS
 90
3
 70
0
 10
14.7663846801
 20
8.1740056093
 10
14.8053678347
 20
8.160339349
 10
14.8239565924
 20
8.1567839242
  0
LWPOLYLINE
  5
6E6
100
AcDbEntity
  8
0
100
AcDbPolyline
 62
7
  6
CONTINUOUS
 90
5
 70
0
 10
14.7415138216
 20
8.2241868515
 10
14.7682994531
 20
8.2108168053
 10
14.7945960877
 20
8.201879433
 10
14.8199236557
 20
8.1975378946
 10
14.8438197786
 20
8.197871449
  0
LWPOLYLINE
  5
6E7
100
AcDbEntity
  8
0
100
AcDbPolyline
 62
7
  6
CONTINUOUS
 90
7
 70
0
 10
14.8438197786
 20
8.5912465412
 10
14.8199236557
 20
8.6191723374
 10
14.7945960877
 20
8.6440758938
 10
14.7682994531
 20
8.6655025727
 10
14.7415138216
 20
8.6830612099
 10
14.7147281901
 20
8.6964312561
 10
14.6884315555
 20
8.7053686284
  0
LINE
  5
6E8
100
AcDbEntity
  8
0
100
AcDbLine
 62
9
  6
CONTINUOUS
 10
15.3657162458
 20
8.174973807
 11
15.3683974184
 21
8.1682551682
  0
LWPOLYLINE
  5
6E9
100
AcDbEntity
  8
0
100
AcDbPolyline
 62
7
  6
CONTINUOUS
 90
15
 70
0
 10
15.1040094336
 20
8.9804678964
 10
15.1030044782
 20
8.9834389808
 10
15.1024225975
 20
8.9864990776
 10
15.1021645257
 20
8.9896124392
 10
15.1021543578
 20
8.992768512
 10
15.1023623421
 20
8.9959168988
 10
15.1028030474
 20
8.9988996424
 10
15.1035859779
 20
9.0016426675
 10
15.104993678
 20
9.0039627648
 10
15.1070411145
 20
9.005270972
 10
15.1095181527
 20
9.0056331285
 10
15.1122457759
 20
9.0053600328
 10
15.1151892338
 20
9.0046626681
 10
15.1183850856
 20
9.0036325726
 10
15.1218488304
 20
9.0023139018
  0
LINE
  5
6EA
100
AcDbEntity
  8
0
100
AcDbLine
 62
7
  6
CONTINUOUS
 10
14.8334157244
 20
8.1554887726
 11
14.8515584485
 21
8.1530159096
  0
LWPOLYLINE
  5
6EB
100
AcDbEntity
  8
0
100
AcDbPolyline
 62
7
  6
CONTINUOUS
 90
4
 70
0
 10
14.8275788092
 20
8.1800503708
 10
14.7998335429
 20
8.1844418672
 10
14.770959076
 20
8.1940446766
 10
14.7415138216
 20
8.2086733056
  0
LWPOLYLINE
  5
6EC
100
AcDbEntity
  8
0
100
AcDbPolyline
 62
7
  6
CONTINUOUS
 90
3
 70
0
 10
14.8342894351
 20
8.1777407021
 10
14.8003581533
 20
8.1838361039
 10
14.7920008003
 20
8.18704681
  0
LWPOLYLINE
  5
6ED
100
AcDbEntity
  8
0
100
AcDbPolyline
 62
7
  6
CONTINUOUS
 90
3
 70
0
 10
14.7561428164
 20
8.2159543102
 10
14.7850847434
 20
8.204197489
 10
14.8130853113
 20
8.1978295812
  0
LINE
  5
6EE
100
AcDbEntity
  8
0
100
AcDbLine
 62
9
  6
CONTINUOUS
 10
15.1591384957
 20
8.2607172407
 11
15.1379978261
 21
8.2739334514
  0
LWPOLYLINE
  5
6EF
100
AcDbEntity
  8
0
100
AcDbPolyline
 62
7
  6
CONTINUOUS
 90
5
 70
0
 10
14.7072931185
 20
8.758411563
 10
14.7258707871
 20
8.7403700982
 10
14.7481535008
 20
8.7253970982
 10
14.7747944845
 20
8.7128772554
 10
14.8069677053
 20
8.7024553698
  0
LWPOLYLINE
  5
6F0
100
AcDbEntity
  8
0
100
AcDbPolyline
 62
7
  6
CONTINUOUS
 90
3
 70
0
 10
14.8710728313
 20
8.6851243339
 10
14.8679251425
 20
8.6882138423
 10
14.864762588
 20
8.6912652888
  0
LWPOLYLINE
  5
6F1
100
AcDbEntity
  8
0
100
AcDbPolyline
 62
7
  6
CONTINUOUS
 90
3
 70
0
 10
14.8652172898
 20
8.6912039076
 10
14.868152407
 20
8.6881811508
 10
14.8710728313
 20
8.6851243339
  0
LWPOLYLINE
  5
6F2
100
AcDbEntity
  8
0
100
AcDbPolyline
 62
7
  6
CONTINUOUS
 90
9
 70
0
 10
14.8678896677
 20
8.6927467965
 10
14.9048117389
 20
8.6521847875
 10
14.9384925782
 20
8.6070696981
 10
14.9680833554
 20
8.5585733606
 10
14.9928415584
 20
8.5079539659
 10
15.0121503677
 20
8.45652131
 10
15.025532005
 20
8.4056073919
 10
15.0326608393
 20
8.3565316619
 10
15.0333721161
 20
8.3105642437
  0
LWPOLYLINE
  5
6F3
100
AcDbEntity
  8
0
100
AcDbPolyline
 62
7
  6
CONTINUOUS
 90
9
 70
0
 10
14.8957284014
 20
8.708819401
 10
14.93264881
 20
8.6682594099
 10
14.9663287077
 20
8.623146156
 10
14.9959194113
 20
8.5746508493
 10
15.0206783755
 20
8.5240310098
 10
15.039988021
 20
8.4725972977
 10
15.0533704026
 20
8.4216816357
 10
15.0604996604
 20
8.3726032069
 10
15.0612106908
 20
8.3266340616
  0
LWPOLYLINE
  5
6F4
100
AcDbEntity
  8
0
100
AcDbPolyline
 62
7
  6
CONTINUOUS
 90
9
 70
0
 10
14.9235671352
 20
8.7248920055
 10
14.9604876177
 20
8.6843319245
 10
14.994167423
 20
8.6392187879
 10
15.0237580576
 20
8.5907236131
 10
15.0485170176
 20
8.5401038266
 10
15.0678266377
 20
8.488670269
 10
15.0812090882
 20
8.4377544748
 10
15.0883383915
 20
8.3886758435
 10
15.0890494259
 20
8.3427066897
  0
LWPOLYLINE
  5
6F5
100
AcDbEntity
  8
0
100
AcDbPolyline
 62
9
  6
CONTINUOUS
 90
15
 70
0
 10
15.3683974185
 20
8.1682551293
 10
15.3480028011
 20
8.1643870269
 10
15.3232742101
 20
8.163559983
 10
15.2987366803
 20
8.1665831334
 10
15.2770479375
 20
8.1723237284
 10
15.2584730762
 20
8.1795379416
 10
15.2424573358
 20
8.1875157383
 10
15.2285309612
 20
8.1958422584
 10
15.21634266
 20
8.2042552718
 10
15.2055616726
 20
8.2126323593
 10
15.195842295
 20
8.2209919888
 10
15.1867602367
 20
8.2295486095
 10
15.1778444829
 20
8.238706768
 10
15.1687117229
 20
8.2489388472
 10
15.1590948195
 20
8.2607452784
  0
LINE
  5
6F6
100
AcDbEntity
  8
0
100
AcDbLine
 62
7
  6
CONTINUOUS
 10
14.8812366589
 20
8.1598573577
 11
14.8498662176
 21
8.1550803206
  0
LWPOLYLINE
  5
6F7
100
AcDbEntity
  8
0
100
AcDbPolyline
 62
7
  6
CONTINUOUS
 90
3
 70
0
 10
14.8526458212
 20
8.1541150198
 10
14.882612788
 20
8.1576338478
 10
14.9092096846
 20
8.1683111914
  0
LINE
  5
6F8
100
AcDbEntity
  8
0
100
AcDbLine
 62
7
  6
CONTINUOUS
 10
14.8424628824
 20
8.1553430456
 11
14.8765731357
 21
8.1591639829
  0
LWPOLYLINE
  5
6F9
100
AcDbEntity
  8
0
100
AcDbPolyline
 62
7
  6
CONTINUOUS
 90
3
 70
0
 10
14.903972501
 20
8.1551538617
 10
14.8712339493
 20
8.1515418725
 10
14.8515570284
 20
8.1530161032
  0
LWPOLYLINE
  5
6FA
100
AcDbEntity
  8
0
100
AcDbPolyline
 62
7
  6
CONTINUOUS
 90
5
 70
0
 10
14.8632644531
 20
8.1689564149
 10
14.8309799413
 20
8.1673458794
 10
14.796172843
 20
8.1735955518
 10
14.7598829762
 20
8.1875353417
 10
14.7231144225
 20
8.2087661054
  0
LINE
  5
6FB
100
AcDbEntity
  8
0
100
AcDbLine
 62
7
  6
CONTINUOUS
 10
14.8130853113
 20
8.1978295812
 11
14.839539562
 21
8.1969881669
  0
LWPOLYLINE
  5
6FC
100
AcDbEntity
  8
0
100
AcDbPolyline
 62
7
  6
CONTINUOUS
 90
4
 70
0
 10
14.9064504138
 20
8.1561312526
 10
14.9109176796
 20
8.1559685919
 10
14.9428985563
 20
8.162814253
 10
14.9611325012
 20
8.1712749281
  0
LINE
  5
6FD
100
AcDbEntity
  8
0
100
AcDbLine
 62
7
  6
CONTINUOUS
 10
14.8498662176
 20
8.1550803206
 11
14.8334451142
 21
8.1560365603
  0
LINE
  5
6FE
100
AcDbEntity
  8
0
100
AcDbLine
 62
7
  6
CONTINUOUS
 10
14.8288477285
 20
8.1563042769
 11
14.8263770153
 21
8.1564481524
  0
LINE
  5
6FF
100
AcDbEntity
  8
0
100
AcDbLine
 62
7
  6
CONTINUOUS
 10
14.833413235
 20
8.1554891119
 11
14.8526458212
 21
8.1541150198
  0
LINE
  5
700
100
AcDbEntity
  8
0
100
AcDbLine
 62
7
  6
CONTINUOUS
 10
14.8239565924
 20
8.1567839242
 11
14.8424628824
 21
8.1553430456
  0
LWPOLYLINE
  5
701
100
AcDbEntity
  8
0
100
AcDbPolyline
 62
9
  6
CONTINUOUS
 90
3
 70
0
 10
15.1590949429
 20
8.2607452499
 10
15.1478843109
 20
8.263306908
 10
15.1381307669
 20
8.2660666844
  0
LWPOLYLINE
  5
702
100
AcDbEntity
  8
0
100
AcDbPolyline
 62
7
  6
CONTINUOUS
 90
6
 70
0
 10
15.2857103858
 20
8.1856829153
 10
15.300821128
 20
8.1820925271
 10
15.3617226267
 20
8.1746668214
 10
15.4186391578
 20
8.1790419397
 10
15.4716736574
 20
8.1950983684
 10
15.4961249904
 20
8.2073876424
  0
LINE
  5
703
100
AcDbEntity
  8
0
100
AcDbLine
 62
7
  6
CONTINUOUS
 10
15.2857085764
 20
8.1856833852
 11
15.2856983261
 21
8.1856860471
  0
LWPOLYLINE
  5
704
100
AcDbEntity
  8
0
100
AcDbPolyline
 62
9
  6
CONTINUOUS
 90
11
 70
0
 10
15.2856983261
 20
8.1856860471
 10
15.2713968545
 20
8.189928301
 10
15.2537717233
 20
8.196599133
 10
15.2383352495
 20
8.2037485483
 10
15.2247330779
 20
8.2110706649
 10
15.2126262891
 20
8.2184085877
 10
15.2016766537
 20
8.225727005
 10
15.191426902
 20
8.2331808991
 10
15.1812735185
 20
8.2411580405
 10
15.1706645363
 20
8.2501470213
 10
15.1591104533
 20
8.2607302773
  0
LINE
  5
705
100
AcDbEntity
  8
0
100
AcDbLine
 62
9
  6
CONTINUOUS
 10
15.1381307669
 20
8.2660666844
 11
15.1300465166
 21
8.2687968983
  0
LWPOLYLINE
  5
706
100
AcDbEntity
  8
0
100
AcDbPolyline
 62
7
  6
CONTINUOUS
 90
8
 70
0
 10
14.7415138216
 20
8.6985747558
 10
14.770959076
 20
8.6792037028
 10
14.7998335429
 20
8.6554659041
 10
14.8275788092
 20
8.6278206513
 10
14.8536576193
 20
8.5968033865
 10
14.8775651875
 20
8.563014656
 10
14.8988387809
 20
8.5271086192
 10
14.9170666707
 20
8.4897803854
  0
LWPOLYLINE
  5
707
100
AcDbEntity
  8
0
100
AcDbPolyline
 62
7
  6
CONTINUOUS
 90
10
 70
0
 10
14.8069677053
 20
8.7024553698
 10
14.8421268259
 20
8.6711203233
 10
14.8754122072
 20
8.6349698704
 10
14.9060757313
 20
8.5948244561
 10
14.933427584
 20
8.5515973223
 10
14.9568534096
 20
8.506271942
 10
14.975828344
 20
8.4598783609
 10
14.9899275493
 20
8.413471514
 10
14.9988353382
 20
8.3681103198
 10
15.0023539991
 20
8.324829158
  0
LWPOLYLINE
  5
708
100
AcDbEntity
  8
0
100
AcDbPolyline
 62
7
  6
CONTINUOUS
 90
11
 70
0
 10
14.9514058689
 20
8.74096461
 10
14.9883262274
 20
8.7004046795
 10
15.0220059528
 20
8.655291694
 10
15.0515965587
 20
8.606796642
 10
15.0763555047
 20
8.5561770024
 10
15.0956652069
 20
8.5047433887
 10
15.1090477877
 20
8.4538272464
 10
15.1161771246
 20
8.4047484556
 10
15.1168881625
 20
8.3587793442
 10
15.1111808249
 20
8.3171112445
 10
15.0992199612
 20
8.2808260093
  0
LWPOLYLINE
  5
709
100
AcDbEntity
  8
0
100
AcDbPolyline
 62
7
  6
CONTINUOUS
 90
11
 70
0
 10
14.9792446027
 20
8.7570372144
 10
15.0161647734
 20
8.716477512
 10
15.0498443798
 20
8.6713647525
 10
15.0794349338
 20
8.6228699007
 10
15.1041939233
 20
8.5722503367
 10
15.1235037885
 20
8.5208164694
 10
15.1368865066
 20
8.4698999236
 10
15.1440158601
 20
8.4208210388
 10
15.1447269005
 20
8.374852023
 10
15.1390196049
 20
8.3331840531
 10
15.1270588323
 20
8.2968989187
  0
LWPOLYLINE
  5
70A
100
AcDbEntity
  8
0
100
AcDbPolyline
 62
7
  6
CONTINUOUS
 90
11
 70
0
 10
15.0070833364
 20
8.7731098189
 10
15.0440033494
 20
8.7325503078
 10
15.0776827469
 20
8.6874378994
 10
15.107273087
 20
8.6389435641
 10
15.1320321723
 20
8.5883240641
 10
15.151342328
 20
8.5368896824
 10
15.1647251978
 20
8.4859727354
 10
15.171854591
 20
8.436893678
 10
15.1725656366
 20
8.390924668
 10
15.1668583788
 20
8.3492568345
 10
15.1548977468
 20
8.3129719243
  0
LWPOLYLINE
  5
70B
100
AcDbEntity
  8
0
100
AcDbPolyline
 62
7
  6
CONTINUOUS
 90
9
 70
0
 10
15.0349220702
 20
8.7891824234
 10
15.0718420699
 20
8.7486229284
 10
15.1055212518
 20
8.7035108426
 10
15.1351114177
 20
8.6550169037
 10
15.1598705765
 20
8.6043974317
 10
15.1791809072
 20
8.5529627706
 10
15.1925638765
 20
8.5020456085
 10
15.199693318
 20
8.4529663653
 10
15.2004043691
 20
8.4069972506
  0
LWPOLYLINE
  5
70C
100
AcDbEntity
  8
0
100
AcDbPolyline
 62
7
  6
CONTINUOUS
 90
3
 70
0
 10
15.2819766332
 20
8.3578420882
 10
15.2834468489
 20
8.3582488701
 10
15.2951972313
 20
8.3641461387
  0
LWPOLYLINE
  5
70D
100
AcDbEntity
  8
0
100
AcDbPolyline
 62
7
  6
CONTINUOUS
 90
3
 70
0
 10
14.8775651875
 20
8.1871383739
 10
14.8536576193
 20
8.1809551008
 10
14.8275788092
 20
8.1800503708
  0
LWPOLYLINE
  5
70E
100
AcDbEntity
  8
0
100
AcDbPolyline
 62
7
  6
CONTINUOUS
 90
3
 70
0
 10
14.8438197786
 20
8.197871449
 10
14.8658482102
 20
8.2028740069
 10
14.8820183061
 20
8.2102744559
  0
LWPOLYLINE
  5
70F
100
AcDbEntity
  8
0
100
AcDbPolyline
 62
7
  6
CONTINUOUS
 90
3
 70
0
 10
14.839539562
 20
8.1969881669
 10
14.8638759458
 20
8.2016914249
 10
14.8822695925
 20
8.2098422568
  0
LWPOLYLINE
  5
710
100
AcDbEntity
  8
0
100
AcDbPolyline
 62
9
  6
CONTINUOUS
 90
7
 70
0
 10
15.1590948195
 20
8.2607452784
 10
15.1492585437
 20
8.2597537009
 10
15.1407376076
 20
8.2594548034
 10
15.1330395766
 20
8.2597136932
 10
15.1257305903
 20
8.2605124348
 10
15.1184498197
 20
8.2619556434
 10
15.1168901933
 20
8.2624387771
  0
LINE
  5
711
100
AcDbEntity
  8
0
100
AcDbLine
 62
7
  6
CONTINUOUS
 10
14.7415138216
 20
8.6985747558
 11
14.7120685672
 21
8.7132033848
  0
LWPOLYLINE
  5
712
100
AcDbEntity
  8
0
100
AcDbPolyline
 62
7
  6
CONTINUOUS
 90
10
 70
0
 10
14.7415192862
 20
8.709979751
 10
14.7599132207
 20
8.698481956
 10
14.7962030536
 20
8.6705127952
 10
14.8310080632
 20
8.6365674592
 10
14.8632887158
 20
8.5976769998
 10
14.8921940879
 20
8.5549092807
 10
14.917068917
 20
8.5092050558
 10
14.9372074466
 20
8.461721359
 10
14.9518776602
 20
8.4141336625
 10
14.9606596789
 20
8.3681826926
  0
LWPOLYLINE
  5
713
100
AcDbEntity
  8
0
100
AcDbPolyline
 62
7
  6
CONTINUOUS
 90
11
 70
0
 10
15.0627608039
 20
8.8052550279
 10
15.0996807303
 20
8.7646956219
 10
15.1333596393
 20
8.7195839594
 10
15.1629497785
 20
8.6710901884
 10
15.187709098
 20
8.6204705279
 10
15.2070195383
 20
8.5690356966
 10
15.2204025733
 20
8.5181183929
 10
15.2275320471
 20
8.4690390259
 10
15.2282431031
 20
8.4230698595
 10
15.2225358856
 20
8.3814022168
 10
15.2105755008
 20
8.345117769
  0
LWPOLYLINE
  5
714
100
AcDbEntity
  8
0
100
AcDbPolyline
 62
7
  6
CONTINUOUS
 90
11
 70
0
 10
15.0905995377
 20
8.8213276324
 10
15.127519313
 20
8.7807684098
 10
15.1611980243
 20
8.7356570799
 10
15.1907882508
 20
8.6871632696
 10
15.2155477298
 20
8.6365433684
 10
15.2348582209
 20
8.5851084613
 10
15.2482412886
 20
8.5341910872
 10
15.2553707785
 20
8.4851116582
 10
15.2560818383
 20
8.4391424908
 10
15.2503746593
 20
8.3974749977
 10
15.2384143435
 20
8.3611906152
  0
LWPOLYLINE
  5
715
100
AcDbEntity
  8
0
100
AcDbPolyline
 62
7
  6
CONTINUOUS
 90
11
 70
0
 10
15.1184382714
 20
8.8374002368
 10
15.1553577049
 20
8.7968414291
 10
15.1890364768
 20
8.7517301005
 10
15.218626939
 20
8.7032359572
 10
15.243386487
 20
8.6526159187
 10
15.2626969646
 20
8.6011810347
 10
15.2760800259
 20
8.5502636747
 10
15.2832095127
 20
8.5011842573
 10
15.2839205765
 20
8.4552151731
 10
15.2782134593
 20
8.4135478943
 10
15.2662531446
 20
8.3772633691
  0
LWPOLYLINE
  5
716
100
AcDbEntity
  8
0
100
AcDbPolyline
 62
7
  6
CONTINUOUS
 90
9
 70
0
 10
15.1462770052
 20
8.8534728413
 10
15.1831963004
 20
8.8129142013
 10
15.216875259
 20
8.7678026333
 10
15.2464658648
 20
8.7193082114
 10
15.2712253633
 20
8.6686881929
 10
15.2905357671
 20
8.6172534239
 10
15.3039187843
 20
8.5663361591
 10
15.3110482496
 20
8.5172568244
 10
15.311759315
 20
8.471287861
  0
LWPOLYLINE
  5
717
100
AcDbEntity
  8
0
100
AcDbPolyline
 62
7
  6
CONTINUOUS
 90
6
 70
0
 10
14.7120685672
 20
8.7132033848
 10
14.6831941003
 20
8.7228061942
 10
14.655448834
 20
8.7271976906
 10
14.6293700239
 20
8.7262929606
 10
14.6054624557
 20
8.7201096875
 10
14.5915112275
 20
8.713427565
  0
LWPOLYLINE
  5
718
100
AcDbEntity
  8
0
100
AcDbPolyline
 62
7
  6
CONTINUOUS
 90
13
 70
0
 10
14.864762588
 20
8.6912652888
 10
14.8466948515
 20
8.6981009803
 10
14.8289058669
 20
8.705285349
 10
14.8115402353
 20
8.7127975531
 10
14.7947330102
 20
8.7206052929
 10
14.778618443
 20
8.7286563185
 10
14.7634034124
 20
8.736832103
 10
14.749214422
 20
8.7450196492
 10
14.7359236388
 20
8.7532354801
 10
14.7233266322
 20
8.7615579545
 10
14.7112846262
 20
8.7700431806
 10
14.6997242091
 20
8.7787132898
 10
14.6885854984
 20
8.7875855759
  0
LWPOLYLINE
  5
719
100
AcDbEntity
  8
0
100
AcDbPolyline
 62
7
  6
CONTINUOUS
 90
10
 70
0
 10
14.892944528
 20
8.7072121405
 10
14.8635791566
 20
8.718540325
 10
14.8380644746
 20
8.7294608308
 10
14.8155219643
 20
8.7401277456
 10
14.7951576278
 20
8.750743666
 10
14.7762847769
 20
8.7615523232
 10
14.7583536944
 20
8.7728148908
 10
14.7412824618
 20
8.784554513
 10
14.7250976931
 20
8.7967045941
 10
14.7097896703
 20
8.809196963
  0
LWPOLYLINE
  5
71A
100
AcDbEntity
  8
0
100
AcDbPolyline
 62
7
  6
CONTINUOUS
 90
9
 70
0
 10
14.6855787754
 20
8.7944221236
 10
14.7150184856
 20
8.7830291452
 10
14.7417696494
 20
8.7715075888
 10
14.7663501246
 20
8.7597116053
 10
14.7891968456
 20
8.7474910994
 10
14.810684559
 20
8.734685304
 10
14.8309418259
 20
8.7212555092
 10
14.8499855658
 20
8.7072589895
 10
14.8678896677
 20
8.6927467965
  0
LWPOLYLINE
  5
71B
100
AcDbEntity
  8
0
100
AcDbPolyline
 62
7
  6
CONTINUOUS
 90
6
 70
0
 10
14.7072931185
 20
8.758411563
 10
14.7303711616
 20
8.747688527
 10
14.7513752926
 20
8.7369216451
 10
14.7708929582
 20
8.7259056918
 10
14.7893938089
 20
8.7144249979
 10
14.8069677053
 20
8.7024553698
  0
LWPOLYLINE
  5
71C
100
AcDbEntity
  8
0
100
AcDbPolyline
 62
7
  6
CONTINUOUS
 90
9
 70
0
 10
14.8137945928
 20
8.7653795257
 10
14.8251573585
 20
8.7588844338
 10
14.8362032439
 20
8.7522082595
 10
14.8469256094
 20
8.7453583607
 10
14.8573212968
 20
8.7383436797
 10
14.8673905433
 20
8.7311744525
 10
14.877141261
 20
8.723858408
 10
14.8865829202
 20
8.7164042053
 10
14.8957284014
 20
8.708819401
  0
LWPOLYLINE
  5
71D
100
AcDbEntity
  8
0
100
AcDbPolyline
 62
7
  6
CONTINUOUS
 90
9
 70
0
 10
14.8195622127
 20
8.7687094427
 10
14.8081996098
 20
8.775204439
 10
14.7971538656
 20
8.78188052
 10
14.7864317066
 20
8.7887302724
 10
14.7760362063
 20
8.7957448051
 10
14.7659669754
 20
8.8029139945
 10
14.7562161129
 20
8.8102301228
 10
14.7467742255
 20
8.8176844877
 10
14.737628404
 20
8.8252695675
  0
LWPOLYLINE
  5
71E
100
AcDbEntity
  8
0
100
AcDbPolyline
 62
7
  6
CONTINUOUS
 90
10
 70
0
 10
15.1741157389
 20
8.8695454458
 10
15.2110351838
 20
8.8289866243
 10
15.2447143719
 20
8.7838746768
 10
15.2743049887
 20
8.7353801043
 10
15.2990643518
 20
8.6847602075
 10
15.3183746239
 20
8.6333256428
 10
15.3317575618
 20
8.5824085499
 10
15.3388869886
 20
8.5333293644
 10
15.3395980513
 20
8.4873605099
 10
15.3338909048
 20
8.4456930064
  0
LINE
  5
71F
100
AcDbEntity
  8
0
100
AcDbLine
 62
7
  6
CONTINUOUS
 10
14.864762588
 20
8.6912652888
 11
14.8652172898
 21
8.6912039076
  0
LINE
  5
720
100
AcDbEntity
  8
0
100
AcDbLine
 62
7
  6
CONTINUOUS
 10
15.3664380759
 20
8.5445173868
 11
15.3718463185
 21
8.5436807546
  0
LINE
  5
721
100
AcDbEntity
  8
0
100
AcDbLine
 62
7
  6
CONTINUOUS
 10
14.6884315555
 20
8.7053686284
 11
14.6631039875
 21
8.7097101668
  0
LINE
  5
722
100
AcDbEntity
  8
0
100
AcDbLine
 62
7
  6
CONTINUOUS
 10
14.6696881327
 20
8.7668004062
 11
14.7072931185
 21
8.758411563
  0
LWPOLYLINE
  5
723
100
AcDbEntity
  8
0
100
AcDbPolyline
 62
7
  6
CONTINUOUS
 90
9
 70
0
 10
14.9207832618
 20
8.723284745
 10
14.9073017452
 20
8.728337766
 10
14.8940239579
 20
8.73355781
 10
14.8809660787
 20
8.7389524385
 10
14.8681462911
 20
8.7445274471
 10
14.8555803221
 20
8.7502882731
 10
14.8432850751
 20
8.7562379522
 10
14.8312744324
 20
8.7623785751
 10
14.8195622127
 20
8.7687094427
  0
LWPOLYLINE
  5
724
100
AcDbEntity
  8
0
100
AcDbPolyline
 62
7
  6
CONTINUOUS
 90
9
 70
0
 10
14.7125735437
 20
8.8108042234
 10
14.7260550221
 20
8.8057512171
 10
14.7393327339
 20
8.8005312042
 10
14.7523906606
 20
8.795136558
 10
14.7652105382
 20
8.7895615107
 10
14.7777765588
 20
8.7838006598
 10
14.7900718471
 20
8.7778509581
 10
14.8020824555
 20
8.7717103499
 10
14.8137945928
 20
8.7653795257
  0
LWPOLYLINE
  5
725
100
AcDbEntity
  8
0
100
AcDbPolyline
 62
7
  6
CONTINUOUS
 90
13
 70
0
 10
14.7682510112
 20
8.8429494324
 10
14.784507995
 20
8.8368260669
 10
14.8005154426
 20
8.8304351365
 10
14.8161888396
 20
8.8237841279
 10
14.8314512844
 20
8.8168848808
 10
14.8463749003
 20
8.8096846111
 10
14.8613208758
 20
8.8019679662
 10
14.8765917833
 20
8.7934976101
 10
14.8921260695
 20
8.7842008963
 10
14.9077218396
 20
8.7740971512
 10
14.9230360527
 20
8.7633430237
 10
14.9377002397
 20
8.7521963051
 10
14.9514058689
 20
8.74096461
  0
LWPOLYLINE
  5
726
100
AcDbEntity
  8
0
100
AcDbPolyline
 62
7
  6
CONTINUOUS
 90
13
 70
0
 10
14.9764607293
 20
8.755429954
 10
14.9565939001
 20
8.7629615971
 10
14.9369187803
 20
8.7709810838
 10
14.9178335244
 20
8.7793804752
 10
14.8996865742
 20
8.7880236771
 10
14.882754492
 20
8.7967521106
 10
14.8672425989
 20
8.8053878474
 10
14.8531524323
 20
8.8138263465
 10
14.8400904018
 20
8.8222081032
 10
14.827678623
 20
8.8307173095
 10
14.8157751921
 20
8.8394175303
 10
14.8043338899
 20
8.8483137496
 10
14.7933058715
 20
8.8574147764
  0
LWPOLYLINE
  5
727
100
AcDbEntity
  8
0
100
AcDbPolyline
 62
7
  6
CONTINUOUS
 90
10
 70
0
 10
14.7404122774
 20
8.8268768279
 10
14.7621685331
 20
8.818600638
 10
14.7834391668
 20
8.8098403327
 10
14.804075856
 20
8.800595773
 10
14.8239336802
 20
8.7908866871
 10
14.8431229288
 20
8.7806211097
 10
14.8622251201
 20
8.7694047397
 10
14.8817499546
 20
8.7567594078
 10
14.9021045731
 20
8.7421279407
 10
14.9235671352
 20
8.7248920055
  0
LWPOLYLINE
  5
728
100
AcDbEntity
  8
0
100
AcDbPolyline
 62
7
  6
CONTINUOUS
 90
10
 70
0
 10
15.004299463
 20
8.7715025585
 10
14.9825458746
 20
8.7797776937
 10
14.9611577058
 20
8.7885883662
 10
14.9404265848
 20
8.7978815617
 10
14.9206057013
 20
8.807580844
 10
14.9016829856
 20
8.8177055605
 10
14.8829116667
 20
8.8287132149
 10
14.8635591138
 20
8.8412138335
 10
14.8431027669
 20
8.855876165
 10
14.8211446053
 20
8.8734873809
  0
LWPOLYLINE
  5
729
100
AcDbEntity
  8
0
100
AcDbPolyline
 62
7
  6
CONTINUOUS
 90
9
 70
0
 10
14.8239284787
 20
8.8750946414
 10
14.8495755146
 20
8.8652687501
 10
14.8758599557
 20
8.8541664034
 10
14.9010552381
 20
8.842325996
 10
14.9247661222
 20
8.8298828681
 10
14.9472413397
 20
8.8166954171
 10
14.9684939346
 20
8.8027604202
 10
14.9884409099
 20
8.7881913835
 10
15.0070833364
 20
8.7731098189
  0
LWPOLYLINE
  5
72A
100
AcDbEntity
  8
0
100
AcDbPolyline
 62
7
  6
CONTINUOUS
 90
9
 70
0
 10
15.0321381968
 20
8.787575163
 10
15.0054432793
 20
8.7978222911
 10
14.979534835
 20
8.8088028633
 10
14.9546381618
 20
8.8205292894
 10
14.9309745695
 20
8.8329679462
 10
14.9085502302
 20
8.8461451944
 10
14.887110456
 20
8.8602299594
 10
14.8669155677
 20
8.875026061
 10
14.848983339
 20
8.8895599854
  0
LWPOLYLINE
  5
72B
100
AcDbEntity
  8
0
100
AcDbPolyline
 62
7
  6
CONTINUOUS
 90
9
 70
0
 10
15.0599769305
 20
8.8036477674
 10
15.0333116014
 20
8.8138829786
 10
15.0074991482
 20
8.8248194329
 10
14.9826749758
 20
8.8365034285
 10
14.9589868286
 20
8.8489441612
 10
14.9365322764
 20
8.8621287894
 10
14.915360606
 20
8.8760172257
 10
14.8954775995
 20
8.890540943
 10
14.8768220728
 20
8.9056325899
  0
LWPOLYLINE
  5
72C
100
AcDbEntity
  8
0
100
AcDbPolyline
 62
7
  6
CONTINUOUS
 90
10
 70
0
 10
14.9486219955
 20
8.7393573495
 10
14.9179606427
 20
8.7512141409
 10
14.8918534107
 20
8.7624603824
 10
14.869221713
 20
8.773260595
 10
14.8490913482
 20
8.7838462437
 10
14.8306171145
 20
8.7945072245
 10
14.8130930967
 20
8.8055783608
 10
14.7963635975
 20
8.8171291573
 10
14.780482728
 20
8.8290790735
 10
14.7654671378
 20
8.8413421719
  0
LWPOLYLINE
  5
72D
100
AcDbEntity
  8
0
100
AcDbPolyline
 62
7
  6
CONTINUOUS
 90
10
 70
0
 10
14.7960897449
 20
8.8590220369
 10
14.827311892
 20
8.8469356948
 10
14.8534336447
 20
8.8356573859
 10
14.8758049384
 20
8.8249607086
 10
14.8955814126
 20
8.8145546317
 10
14.9138329751
 20
8.8040300907
 10
14.9313698393
 20
8.7929653013
 10
14.9482129361
 20
8.781347714
 10
14.9642082428
 20
8.7693166082
 10
14.9792446027
 20
8.7570372144
  0
LWPOLYLINE
  5
72E
100
AcDbEntity
  8
0
100
AcDbPolyline
 62
7
  6
CONTINUOUS
 90
16
 70
0
 10
15.1963408253
 20
8.9593069014
 10
15.1994966455
 20
8.9568673594
 10
15.2024258701
 20
8.9544357428
 10
15.2050833011
 20
8.9519984859
 10
15.2073526205
 20
8.9495873037
 10
15.2091568106
 20
8.9471642128
 10
15.210382299
 20
8.9445972477
 10
15.2106840056
 20
8.9418583858
 10
15.2098301883
 20
8.9393699671
 10
15.2080969942
 20
8.9373040775
 10
15.2056988474
 20
8.9355927517
 10
15.2026957375
 20
8.934203293
 10
15.1992390797
 20
8.9332042851
 10
15.1953477684
 20
8.9326241568
 10
15.1910310287
 20
8.9325161488
 10
15.1863414883
 20
8.9329345378
  0
LWPOLYLINE
  5
72F
100
AcDbEntity
  8
0
100
AcDbPolyline
 62
7
  6
CONTINUOUS
 90
15
 70
0
 10
15.1963408253
 20
8.9593069014
 10
15.2370679617
 20
8.9246415789
 10
15.2756191556
 20
8.8835590914
 10
15.3109183948
 20
8.8372060047
 10
15.3419804628
 20
8.7868759811
 10
15.3679384144
 20
8.7339736676
 10
15.3880677492
 20
8.6799755174
 10
15.4018066352
 20
8.6263885827
 10
15.408771591
 20
8.574708453
 10
15.408768192
 20
8.5263775123
 10
15.4017964988
 20
8.4827446808
 10
15.3880510576
 20
8.445027765
 10
15.367915473
 20
8.414279466
 10
15.3419517024
 20
8.3913579965
 10
15.3144589087
 20
8.3785662693
  0
LWPOLYLINE
  5
730
100
AcDbEntity
  8
0
100
AcDbPolyline
 62
7
  6
CONTINUOUS
 90
10
 70
0
 10
15.1791852406
 20
8.9191989142
 10
15.2139839686
 20
8.887854558
 10
15.246888811
 20
8.8518373914
 10
15.2774008069
 20
8.8116188797
 10
15.3045588701
 20
8.7683860112
 10
15.3275899298
 20
8.7234730279
 10
15.3461921331
 20
8.6775928577
 10
15.3600846321
 20
8.6312488089
 10
15.3686982463
 20
8.5860991888
 10
15.3718463185
 20
8.5436807546
  0
LWPOLYLINE
  5
731
100
AcDbEntity
  8
0
100
AcDbPolyline
 62
7
  6
CONTINUOUS
 90
5
 70
0
 10
14.6197631901
 20
8.7382916466
 10
14.652047702
 20
8.739902182
 10
14.6868548003
 20
8.7336525096
 10
14.723144667
 20
8.7197127197
 10
14.7415192862
 20
8.709979751
  0
LWPOLYLINE
  5
732
100
AcDbEntity
  8
0
100
AcDbPolyline
 62
7
  6
CONTINUOUS
 90
4
 70
0
 10
14.6631039875
 20
8.7097101668
 10
14.6392078646
 20
8.7093766124
 10
14.617179433
 20
8.7043740545
 10
14.6010093371
 20
8.6969736056
  0
LINE
  5
733
100
AcDbEntity
  8
0
100
AcDbLine
 62
7
  6
CONTINUOUS
 10
14.6481976372
 20
8.7946005838
 11
14.6855787754
 21
8.7944221236
  0
LINE
  5
734
100
AcDbEntity
  8
0
100
AcDbLine
 62
7
  6
CONTINUOUS
 10
14.6885854984
 20
8.7875855759
 11
14.6508769516
 21
8.7885163958
  0
LINE
  5
735
100
AcDbEntity
  8
0
100
AcDbLine
 62
7
  6
CONTINUOUS
 10
14.6699423319
 20
8.7094184802
 11
14.6434880812
 21
8.7102598945
  0
LINE
  5
736
100
AcDbEntity
  8
0
100
AcDbLine
 62
7
  6
CONTINUOUS
 10
14.6681885702
 20
8.7489762932
 11
14.6317346715
 21
8.7517772714
  0
LWPOLYLINE
  5
737
100
AcDbEntity
  8
0
100
AcDbPolyline
 62
7
  6
CONTINUOUS
 90
9
 70
0
 10
14.8517672124
 20
8.8911672458
 10
14.8784391312
 20
8.8809293807
 10
14.9042567079
 20
8.8699903551
 10
14.92908559
 20
8.8583034244
 10
14.9527777981
 20
8.845859478
 10
14.9752341849
 20
8.8326723665
 10
14.9964043135
 20
8.8187833927
 10
15.0162805432
 20
8.8042632956
 10
15.0349220702
 20
8.7891824234
  0
LWPOLYLINE
  5
738
100
AcDbEntity
  8
0
100
AcDbPolyline
 62
7
  6
CONTINUOUS
 90
9
 70
0
 10
15.115654398
 20
8.8357929764
 10
15.0889890689
 20
8.8460281876
 10
15.0631766157
 20
8.8569646419
 10
15.0383524433
 20
8.8686486375
 10
15.0146642961
 20
8.8810893701
 10
14.9922097439
 20
8.8942739983
 10
14.9710380735
 20
8.9081624347
 10
14.951155067
 20
8.9226861519
 10
14.9324995403
 20
8.9377777988
  0
LWPOLYLINE
  5
739
100
AcDbEntity
  8
0
100
AcDbPolyline
 62
7
  6
CONTINUOUS
 90
9
 70
0
 10
14.9074446799
 20
8.9233124548
 10
14.9341165987
 20
8.9130745897
 10
14.9599341754
 20
8.902135564
 10
14.9847630575
 20
8.8904486333
 10
15.0084552656
 20
8.878004687
 10
15.0309116524
 20
8.8648175755
 10
15.052081781
 20
8.8509286017
 10
15.0719580107
 20
8.8364085046
 10
15.0905995377
 20
8.8213276324
  0
LWPOLYLINE
  5
73A
100
AcDbEntity
  8
0
100
AcDbPolyline
 62
7
  6
CONTINUOUS
 90
9
 70
0
 10
15.1434931318
 20
8.8518655809
 10
15.1168278026
 20
8.8621007921
 10
15.0910153494
 20
8.8730372464
 10
15.0661911771
 20
8.884721242
 10
15.0425030299
 20
8.8971619746
 10
15.0200484776
 20
8.9103466028
 10
14.9988768072
 20
8.9242350392
 10
14.9789938008
 20
8.9387587564
 10
14.960338274
 20
8.9538504033
  0
LWPOLYLINE
  5
73B
100
AcDbEntity
  8
0
100
AcDbPolyline
 62
7
  6
CONTINUOUS
 90
9
 70
0
 10
14.9352834137
 20
8.9393850593
 10
14.9619553325
 20
8.9291471942
 10
14.9877729091
 20
8.9182081685
 10
15.0126017912
 20
8.9065212378
 10
15.0362939994
 20
8.8940772915
 10
15.0587503862
 20
8.88089018
 10
15.0799205148
 20
8.8670012062
 10
15.0997967444
 20
8.8524811091
 10
15.1184382714
 20
8.8374002368
  0
LWPOLYLINE
  5
73C
100
AcDbEntity
  8
0
100
AcDbPolyline
 62
7
  6
CONTINUOUS
 90
9
 70
0
 10
15.1991705993
 20
8.8840107899
 10
15.1725052701
 20
8.894246001
 10
15.1466928169
 20
8.9051824553
 10
15.1218686446
 20
8.9168664509
 10
15.0981804974
 20
8.9293071836
 10
15.0757259451
 20
8.9424918118
 10
15.0545542747
 20
8.9563802481
 10
15.0346712683
 20
8.9709039654
 10
15.0160157415
 20
8.9859956123
  0
LWPOLYLINE
  5
73D
100
AcDbEntity
  8
0
100
AcDbPolyline
 62
7
  6
CONTINUOUS
 90
9
 70
0
 10
14.9909608812
 20
8.9715302683
 10
15.0176328
 20
8.9612924031
 10
15.0434503766
 20
8.9503533775
 10
15.0682792587
 20
8.9386664468
 10
15.0919714669
 20
8.9262225004
 10
15.1144278537
 20
8.9130353889
 10
15.1355979823
 20
8.8991464151
 10
15.1554742119
 20
8.8846263181
 10
15.1741157389
 20
8.8695454458
  0
LWPOLYLINE
  5
73E
100
AcDbEntity
  8
0
100
AcDbPolyline
 62
7
  6
CONTINUOUS
 90
7
 70
0
 10
15.0878156643
 20
8.8197203719
 10
15.0518393228
 20
8.8337728236
 10
15.0181300949
 20
8.848855597
 10
14.9865983012
 20
8.8651430207
 10
14.9572686848
 20
8.8826920077
 10
14.9300474291
 20
8.9015247036
 10
14.9046608065
 20
8.9217051944
  0
LWPOLYLINE
  5
73F
100
AcDbEntity
  8
0
100
AcDbPolyline
 62
7
  6
CONTINUOUS
 90
7
 70
0
 10
14.8796059462
 20
8.9072398503
 10
14.9156099133
 20
8.8931758676
 10
14.9493239921
 20
8.8780890275
 10
14.9808282271
 20
8.8618144679
 10
15.0101411751
 20
8.8442757802
 10
15.0373685374
 20
8.8254397099
 10
15.0627608039
 20
8.8052550279
  0
LWPOLYLINE
  5
740
100
AcDbEntity
  8
0
100
AcDbPolyline
 62
7
  6
CONTINUOUS
 90
7
 70
0
 10
15.1713318655
 20
8.8679381854
 10
15.1353216089
 20
8.8820047935
 10
15.1016135468
 20
8.8970891392
 10
15.0701102729
 20
8.9133631852
 10
15.0407949163
 20
8.9309033631
 10
15.0135639025
 20
8.9497423149
 10
14.9881770078
 20
8.9699230078
  0
LWPOLYLINE
  5
741
100
AcDbEntity
  8
0
100
AcDbPolyline
 62
7
  6
CONTINUOUS
 90
7
 70
0
 10
14.9631221474
 20
8.9554576638
 10
14.9990912113
 20
8.9414082496
 10
15.0328059254
 20
8.926323299
 10
15.06434459
 20
8.9100321915
 10
15.0936706563
 20
8.8924850432
 10
15.1208880194
 20
8.8736550871
 10
15.1462770052
 20
8.8534728413
  0
LWPOLYLINE
  5
742
100
AcDbEntity
  8
0
100
AcDbPolyline
 62
7
  6
CONTINUOUS
 90
6
 70
0
 10
15.1791852406
 20
8.9191989142
 10
15.156144277
 20
8.9297865392
 10
15.1342831609
 20
8.9408812876
 10
15.1134816648
 20
8.9525592875
 10
15.0936791542
 20
8.9648599933
 10
15.0749142509
 20
8.9777374592
  0
LINE
  5
743
100
AcDbEntity
  8
0
100
AcDbLine
 62
9
  6
CONTINUOUS
 10
15.1863414883
 20
8.9329345378
 11
15.1040094336
 21
8.9804678964
  0
LINE
  5
744
100
AcDbEntity
  8
0
100
AcDbLine
 62
9
  6
CONTINUOUS
 10
15.1963408253
 20
8.9593069014
 11
15.1218488304
 21
9.0023139018
  0
LWPOLYLINE
  5
745
100
AcDbEntity
  8
0
100
AcDbPolyline
 62
9
  6
CONTINUOUS
 90
18
 70
0
 10
15.2943177839
 20
9.1348146115
 10
15.3271764491
 20
9.1054849257
 10
15.3591918434
 20
9.0735856167
 10
15.3901512028
 20
9.0393295946
 10
15.4198494277
 20
9.0029446659
 10
15.4480902021
 20
8.9646719831
 10
15.4746871709
 20
8.9247643052
 10
15.4994646734
 20
8.8834848106
 10
15.5222579178
 20
8.8411071871
 10
15.5429141125
 20
8.7979147459
 10
15.5612948122
 20
8.7541968189
 10
15.5772776311
 20
8.710244879
 10
15.5907568938
 20
8.6663497775
 10
15.601643523
 20
8.6228007037
 10
15.6098647532
 20
8.5798862504
 10
15.6153650066
 20
8.5378931529
 10
15.6181070676
 20
8.4971015438
 10
15.6180721479
 20
8.4577823102
  0
LWPOLYLINE
  5
746
100
AcDbEntity
  8
0
100
AcDbPolyline
 62
9
  6
CONTINUOUS
 90
18
 70
0
 10
15.2515277436
 20
9.0619859962
 10
15.2812756507
 20
9.0345681844
 10
15.3101873233
 20
9.0048346414
 10
15.3380659527
 20
8.9729886392
 10
15.3647222959
 20
8.9392471167
 10
15.3899757619
 20
8.9038391548
 10
15.4136554921
 20
8.8670043398
 10
15.435600873
 20
8.8289919629
 10
15.4556617537
 20
8.7900612548
 10
15.4737000511
 20
8.7504796406
 10
15.4895920572
 20
8.710518661
 10
15.5032295858
 20
8.6704507658
 10
15.5145203095
 20
8.630547134
 10
15.5233874723
 20
8.5910775364
 10
15.5297699024
 20
8.5523113843
 10
15.5336232731
 20
8.5145145828
 10
15.5349208188
 20
8.4779449316
 10
15.533653079
 20
8.4428515032
  0
LINE
  5
747
100
AcDbEntity
  8
0
100
AcDbLine
 62
7
  6
CONTINUOUS
 10
14.6142800757
 20
8.7861341598
 11
14.6481976372
 21
8.7946005838
  0
LWPOLYLINE
  5
748
100
AcDbEntity
  8
0
100
AcDbPolyline
 62
7
  6
CONTINUOUS
 90
3
 70
0
 10
14.6022849926
 20
8.7593910058
 10
14.6343819318
 20
8.7671282849
 10
14.6696881327
 20
8.7668004062
  0
LWPOLYLINE
  5
749
100
AcDbEntity
  8
0
100
AcDbPolyline
 62
7
  6
CONTINUOUS
 90
3
 70
0
 10
14.6728691875
 20
8.8096260573
 10
14.6391893842
 20
8.8017601101
 10
14.620722722
 20
8.7930309226
  0
LINE
  5
74A
100
AcDbEntity
  8
0
100
AcDbLine
 62
7
  6
CONTINUOUS
 10
14.6419732402
 20
8.803367364
 11
14.6756531443
 21
8.8112333265
  0
LWPOLYLINE
  5
74B
100
AcDbEntity
  8
0
100
AcDbPolyline
 62
7
  6
CONTINUOUS
 90
3
 70
0
 10
14.7007080075
 20
8.8256986709
 10
14.6670281058
 20
8.81783271
 10
14.6485614524
 20
8.8091035251
  0
LINE
  5
74C
100
AcDbEntity
  8
0
100
AcDbLine
 62
7
  6
CONTINUOUS
 10
14.6698119135
 20
8.8194399457
 11
14.7034917489
 21
8.8273059174
  0
LWPOLYLINE
  5
74D
100
AcDbEntity
  8
0
100
AcDbPolyline
 62
7
  6
CONTINUOUS
 90
3
 70
0
 10
14.7285466092
 20
8.8417712615
 10
14.6948667739
 20
8.8339052898
 10
14.6764001925
 20
8.8251761333
  0
LINE
  5
74E
100
AcDbEntity
  8
0
100
AcDbLine
 62
7
  6
CONTINUOUS
 10
14.6976507958
 20
8.8355126062
 11
14.7313305778
 21
8.8433785319
  0
LINE
  5
74F
100
AcDbEntity
  8
0
100
AcDbLine
 62
7
  6
CONTINUOUS
 10
14.6508769516
 20
8.7885163958
 11
14.6164764925
 21
8.7809681459
  0
LINE
  5
750
100
AcDbEntity
  8
0
100
AcDbLine
 62
7
  6
CONTINUOUS
 10
14.6434880812
 20
8.7102598945
 11
14.6191516974
 21
8.7055566365
  0
LINE
  5
751
100
AcDbEntity
  8
0
100
AcDbLine
 62
7
  6
CONTINUOUS
 10
14.6317346715
 20
8.7517772714
 11
14.598526537
 21
8.7457629619
  0
LINE
  5
752
100
AcDbEntity
  8
0
100
AcDbLine
 62
7
  6
CONTINUOUS
 10
14.7097896703
 20
8.809196963
 11
14.6728691875
 21
8.8096260573
  0
LINE
  5
753
100
AcDbEntity
  8
0
100
AcDbLine
 62
7
  6
CONTINUOUS
 10
14.6756531443
 20
8.8112333265
 11
14.7125735437
 21
8.8108042234
  0
LINE
  5
754
100
AcDbEntity
  8
0
100
AcDbLine
 62
7
  6
CONTINUOUS
 10
14.737628404
 20
8.8252695675
 11
14.7007080075
 21
8.8256986709
  0
LINE
  5
755
100
AcDbEntity
  8
0
100
AcDbLine
 62
7
  6
CONTINUOUS
 10
14.7034917489
 20
8.8273059174
 11
14.7404122774
 21
8.8268768279
  0
LINE
  5
756
100
AcDbEntity
  8
0
100
AcDbLine
 62
7
  6
CONTINUOUS
 10
14.7654671378
 20
8.8413421719
 11
14.7285466092
 21
8.8417712615
  0
LINE
  5
757
100
AcDbEntity
  8
0
100
AcDbLine
 62
7
  6
CONTINUOUS
 10
14.7313305778
 20
8.8433785319
 11
14.7682510112
 21
8.8429494324
  0
LINE
  5
758
100
AcDbEntity
  8
0
100
AcDbLine
 62
7
  6
CONTINUOUS
 10
14.7933058715
 20
8.8574147764
 11
14.7563854382
 21
8.857843876
  0
LINE
  5
759
100
AcDbEntity
  8
0
100
AcDbLine
 62
7
  6
CONTINUOUS
 10
14.759169482
 20
8.8594511544
 11
14.7960897449
 21
8.8590220369
  0
LINE
  5
75A
100
AcDbEntity
  8
0
100
AcDbLine
 62
7
  6
CONTINUOUS
 10
14.8211446053
 20
8.8734873809
 11
14.7842243424
 21
8.8739164984
  0
LINE
  5
75B
100
AcDbEntity
  8
0
100
AcDbLine
 62
7
  6
CONTINUOUS
 10
14.8148477428
 20
8.8915964469
 11
14.8517672124
 21
8.8911672458
  0
LINE
  5
75C
100
AcDbEntity
  8
0
100
AcDbLine
 62
7
  6
CONTINUOUS
 10
14.8768220728
 20
8.9056325899
 11
14.8399026032
 21
8.9060617909
  0
LINE
  5
75D
100
AcDbEntity
  8
0
100
AcDbLine
 62
7
  6
CONTINUOUS
 10
14.8426866494
 20
8.9076690695
 11
14.8796059462
 21
8.9072398503
  0
LINE
  5
75E
100
AcDbEntity
  8
0
100
AcDbLine
 62
7
  6
CONTINUOUS
 10
14.9046608065
 20
8.9217051944
 11
14.8677415098
 21
8.9221344136
  0
LINE
  5
75F
100
AcDbEntity
  8
0
100
AcDbLine
 62
7
  6
CONTINUOUS
 10
14.8705252668
 20
8.9237416618
 11
14.9074446799
 21
8.9233124548
  0
LINE
  5
760
100
AcDbEntity
  8
0
100
AcDbLine
 62
7
  6
CONTINUOUS
 10
14.8239284787
 20
8.8750946414
 11
14.7893444391
 21
8.875751059
  0
LWPOLYLINE
  5
761
100
AcDbEntity
  8
0
100
AcDbPolyline
 62
7
  6
CONTINUOUS
 90
13
 70
0
 10
15.1863414883
 20
8.9329345378
 10
15.1833521169
 20
8.9332833104
 10
15.1804468675
 20
8.9334144222
 10
15.1777655339
 20
8.9332022132
 10
15.1756047108
 20
8.932480673
 10
15.1743614298
 20
8.9312558531
 10
15.173982073
 20
8.9297894138
 10
15.174161935
 20
8.9281812172
 10
15.1747155592
 20
8.9265029887
 10
15.1755150366
 20
8.9248108802
 10
15.1765307171
 20
8.9230447369
 10
15.1777530242
 20
8.9211806587
 10
15.1791852406
 20
8.9191989142
  0
LINE
  5
762
100
AcDbEntity
  8
0
100
AcDbLine
 62
7
  6
CONTINUOUS
 10
15.0749142509
 20
8.9777374592
 11
15.0557170717
 21
8.9827832086
  0
LWPOLYLINE
  5
763
100
AcDbEntity
  8
0
100
AcDbPolyline
 62
7
  6
CONTINUOUS
 90
13
 70
0
 10
15.0749142509
 20
8.9777374592
 10
15.0791287612
 20
8.9766127039
 10
15.0830698495
 20
8.9756441929
 10
15.0867682994
 20
8.9748266238
 10
15.0903576903
 20
8.9741445322
 10
15.0938333807
 20
8.9736316994
 10
15.0970722083
 20
8.9733563835
 10
15.1000457218
 20
8.9734082069
 10
15.1026923551
 20
8.9740057863
 10
15.1043210299
 20
8.9752631385
 10
15.1048345471
 20
8.976890026
 10
15.1046382412
 20
8.9786445537
 10
15.1040094336
 20
8.9804678964
  0
LWPOLYLINE
  5
764
100
AcDbEntity
  8
0
100
AcDbPolyline
 62
7
  6
CONTINUOUS
 90
9
 70
0
 10
15.0187996149
 20
8.9876028727
 10
15.045492795
 20
8.9773564443
 10
15.0713962131
 20
8.9663781911
 10
15.0962926973
 20
8.9546522039
 10
15.1199598994
 20
8.942211947
 10
15.1423851765
 20
8.9290343355
 10
15.1638090745
 20
8.9149607683
 10
15.1839827601
 20
8.9001824753
 10
15.2019544727
 20
8.8856180503
  0
LWPOLYLINE
  5
765
100
AcDbEntity
  8
0
100
AcDbPolyline
 62
9
  6
CONTINUOUS
 90
5
 70
0
 10
15.1282925094
 20
9.1450042462
 10
15.159318768
 20
9.1285515521
 10
15.1903405821
 20
9.1091391723
 10
15.2211468329
 20
9.0868999692
 10
15.2515277436
 20
9.0619859962
  0
LWPOLYLINE
  5
766
100
AcDbEntity
  8
0
100
AcDbPolyline
 62
7
  6
CONTINUOUS
 90
3
 70
0
 10
14.7563854382
 20
8.857843876
 10
14.7227056562
 20
8.8499779502
 10
14.7042389293
 20
8.8412487396
  0
LINE
  5
767
100
AcDbEntity
  8
0
100
AcDbLine
 62
7
  6
CONTINUOUS
 10
14.7254897893
 20
8.8515853085
 11
14.759169482
 21
8.8594511544
  0
LINE
  5
768
100
AcDbEntity
  8
0
100
AcDbLine
 62
7
  6
CONTINUOUS
 10
14.7842243424
 20
8.8739164984
 11
14.7505446497
 21
8.8660506525
  0
LINE
  5
769
100
AcDbEntity
  8
0
100
AcDbLine
 62
7
  6
CONTINUOUS
 10
14.7811685347
 20
8.8837309988
 11
14.8148477428
 21
8.8915964469
  0
LWPOLYLINE
  5
76A
100
AcDbEntity
  8
0
100
AcDbPolyline
 62
7
  6
CONTINUOUS
 90
3
 70
0
 10
14.8399026032
 20
8.9060617909
 10
14.806223395
 20
8.8981963429
 10
14.7877551694
 20
8.8894665754
  0
LINE
  5
76B
100
AcDbEntity
  8
0
100
AcDbLine
 62
7
  6
CONTINUOUS
 10
14.8090076739
 20
8.8998037561
 11
14.8426866494
 21
8.9076690695
  0
LWPOLYLINE
  5
76C
100
AcDbEntity
  8
0
100
AcDbPolyline
 62
7
  6
CONTINUOUS
 90
3
 70
0
 10
14.8677415098
 20
8.9221344136
 10
14.8340625343
 20
8.9142691001
 10
14.8155939218
 20
8.9055391907
  0
LINE
  5
76D
100
AcDbEntity
  8
0
100
AcDbLine
 62
7
  6
CONTINUOUS
 10
14.8368464816
 20
8.9158763884
 11
14.8705252668
 21
8.9237416618
  0
LWPOLYLINE
  5
76E
100
AcDbEntity
  8
0
100
AcDbPolyline
 62
7
  6
CONTINUOUS
 90
3
 70
0
 10
14.8955801271
 20
8.9382070058
 10
14.861901342
 20
8.9303417324
 10
14.8434326687
 20
8.9216118028
  0
LINE
  5
76F
100
AcDbEntity
  8
0
100
AcDbLine
 62
7
  6
CONTINUOUS
 10
14.8646849488
 20
8.9319488925
 11
14.8983636538
 21
8.9398142297
  0
LWPOLYLINE
  5
770
100
AcDbEntity
  8
0
100
AcDbPolyline
 62
7
  6
CONTINUOUS
 90
3
 70
0
 10
14.9234185142
 20
8.9542795738
 10
14.8897398092
 20
8.9464142365
 10
14.8712714047
 20
8.9376844085
  0
LINE
  5
771
100
AcDbEntity
  8
0
100
AcDbLine
 62
7
  6
CONTINUOUS
 10
14.892523342
 20
8.9480213687
 11
14.9262022284
 21
8.9558868175
  0
LWPOLYLINE
  5
772
100
AcDbEntity
  8
0
100
AcDbPolyline
 62
7
  6
CONTINUOUS
 90
3
 70
0
 10
14.9512570888
 20
8.9703521615
 10
14.9175782023
 20
8.9624867127
 10
14.899110121
 20
8.953757003
  0
LINE
  5
773
100
AcDbEntity
  8
0
100
AcDbLine
 62
7
  6
CONTINUOUS
 10
14.92036172
 20
8.9640938392
 11
14.954040883
 21
8.9719594136
  0
LINE
  5
774
100
AcDbEntity
  8
0
100
AcDbLine
 62
7
  6
CONTINUOUS
 10
14.7893444391
 20
8.875751059
 11
14.7572747805
 21
8.8690710773
  0
LWPOLYLINE
  5
775
100
AcDbEntity
  8
0
100
AcDbPolyline
 62
7
  6
CONTINUOUS
 90
3
 70
0
 10
14.7823296409
 20
8.8835364213
 10
14.8143992995
 20
8.8902164031
 10
14.848983339
 20
8.8895599854
  0
LINE
  5
776
100
AcDbEntity
  8
0
100
AcDbLine
 62
7
  6
CONTINUOUS
 10
14.9324995403
 20
8.9377777988
 11
14.8955801271
 21
8.9382070058
  0
LINE
  5
777
100
AcDbEntity
  8
0
100
AcDbLine
 62
7
  6
CONTINUOUS
 10
14.8983636538
 20
8.9398142297
 11
14.9352834137
 21
8.9393850593
  0
LINE
  5
778
100
AcDbEntity
  8
0
100
AcDbLine
 62
7
  6
CONTINUOUS
 10
14.960338274
 20
8.9538504033
 11
14.9234185142
 21
8.9542795738
  0
LINE
  5
779
100
AcDbEntity
  8
0
100
AcDbLine
 62
7
  6
CONTINUOUS
 10
14.9262022284
 20
8.9558868175
 11
14.9631221474
 21
8.9554576638
  0
LINE
  5
77A
100
AcDbEntity
  8
0
100
AcDbLine
 62
7
  6
CONTINUOUS
 10
14.9881770078
 20
8.9699230078
 11
14.9512570888
 21
8.9703521615
  0
LINE
  5
77B
100
AcDbEntity
  8
0
100
AcDbLine
 62
7
  6
CONTINUOUS
 10
14.954040883
 20
8.9719594136
 11
14.9909608812
 21
8.9715302683
  0
LWPOLYLINE
  5
77C
100
AcDbEntity
  8
0
100
AcDbPolyline
 62
7
  6
CONTINUOUS
 90
4
 70
0
 10
15.0160157415
 20
8.9859956123
 10
14.9790956013
 20
8.9864247427
 10
14.9454165658
 20
8.9785591777
 10
14.9269488592
 20
8.96982961
  0
LWPOLYLINE
  5
77D
100
AcDbEntity
  8
0
100
AcDbPolyline
 62
7
  6
CONTINUOUS
 90
3
 70
0
 10
15.0557170717
 20
8.9827832086
 10
15.0372317365
 20
8.9857768629
 10
15.0235809444
 20
8.9857675144
  0
LWPOLYLINE
  5
77E
100
AcDbEntity
  8
0
100
AcDbPolyline
 62
9
  6
CONTINUOUS
 90
55
 70
0
 10
15.5349177334
 20
9.394246187
 10
15.5518470813
 20
9.3840761261
 10
15.5687486352
 20
9.373130525
 10
15.5855946468
 20
9.3614273538
 10
15.602357459
 20
9.3489858263
 10
15.6190095512
 20
9.3358263685
 10
15.6355235847
 20
9.3219705852
 10
15.6518724473
 20
9.3074412242
 10
15.6680292981
 20
9.2922621393
 10
15.6839676115
 20
9.2764582509
 10
15.6996612204
 20
9.2600555053
 10
15.7150843598
 20
9.2430808318
 10
15.7302117085
 20
9.2255620988
 10
15.7450184309
 20
9.207528068
 10
15.7594802181
 20
9.1890083468
 10
15.7735733271
 20
9.1700333403
 10
15.7872746205
 20
9.1506342009
 10
15.800561604
 20
9.1308427773
 10
15.8134124635
 20
9.1106915625
 10
15.8258061009
 20
9.0902136398
 10
15.837722169
 20
9.0694426292
 10
15.8491411042
 20
9.0484126317
 10
15.8600441596
 20
9.0271581733
 10
15.8704134346
 20
9.0057141496
 10
15.8802319053
 20
8.9841157665
 10
15.8894834527
 20
8.9623984822
 10
15.8981528884
 20
8.94059795
 10
15.9062259788
 20
8.9187499621
 10
15.9136894676
 20
8.8968903938
 10
15.9205311034
 20
8.8750551289
 10
15.9267396676
 20
8.853279965
 10
15.9323049504
 20
8.8316007033
 10
15.9372177957
 20
8.8100530269
 10
15.941470134
 20
8.7886723756
 10
15.9450550271
 20
8.7674936635
 10
15.9479666274
 20
8.7465513335
 10
15.9501993331
 20
8.7258883136
 10
15.9517480099
 20
8.7055762543
 10
15.9526143414
 20
8.6856631454
 10
15.9528020701
 20
8.6661909329
 10
15.9522829853
 20
8.6471583075
 10
15.9510536177
 20
8.62853583
 10
15.9491214935
 20
8.6103030007
 10
15.9464862294
 20
8.5924416665
 10
15.9431519224
 20
8.5749961691
 10
15.9391392103
 20
8.5580682377
 10
15.9344784289
 20
8.5417486826
 10
15.9291951735
 20
8.5260802781
 10
15.9233087903
 20
8.511081373
 10
15.916837967
 20
8.4967712507
 10
15.9098079875
 20
8.4831830045
 10
15.9022486554
 20
8.4703522866
 10
15.8941875029
 20
8.4583050397
 10
15.8856529613
 20
8.4470652472
 10
15.8766744832
 20
8.4366551791
  0
LWPOLYLINE
  5
77F
100
AcDbEntity
  8
0
100
AcDbPolyline
 62
9
  6
CONTINUOUS
 90
17
 70
0
 10
15.2825474573
 20
9.442020259
 10
15.2962492126
 20
9.445599927
 10
15.3103428533
 20
9.4483029388
 10
15.3248052382
 20
9.4501248561
 10
15.3396126205
 20
9.4510626873
 10
15.3547406871
 20
9.4511148926
 10
15.3701645981
 20
9.4502813862
 10
15.3858590281
 20
9.4485635367
 10
15.4017982073
 20
9.4459641648
 10
15.4179559642
 20
9.4424875385
 10
15.4343057683
 20
9.4381393664
 10
15.4508207738
 20
9.432926788
 10
15.4674738635
 20
9.4268583621
 10
15.4842376938
 20
9.419944053
 10
15.5010847389
 20
9.4121952137
 10
15.5179873366
 20
9.4036245674
 10
15.5349177334
 20
9.394246187
  0
LINE
  5
780
100
AcDbEntity
  8
AXIS_COSMETIC_THREADS
100
AcDbLine
 62
7
  6
CONTINUOUS
 10
15.2327128836
 20
9.4112423619
 11
15.2640078708
 21
9.4170280608
  0
LINE
  5
781
100
AcDbEntity
  8
AXIS_COSMETIC_THREADS
100
AcDbLine
 62
7
  6
CONTINUOUS
 10
15.2640078708
 20
9.4170280608
 11
15.2970286103
 21
9.4184821457
  0
LWPOLYLINE
  5
782
100
AcDbEntity
  8
0
100
AcDbPolyline
 62
7
  6
CONTINUOUS
 90
19
 70
0
 10
15.3015691884
 20
9.4188754823
 10
15.3352404285
 20
9.417314936
 10
15.3927259899
 20
9.4037428445
 10
15.4520520878
 20
9.3794021317
 10
15.5119961509
 20
9.3447941969
 10
15.5713222496
 20
9.3006325884
 10
15.6288078126
 20
9.2478275784
 10
15.6832683604
 20
9.1874674437
 10
15.7335817891
 20
9.1207960925
 10
15.778711487
 20
9.0491874256
 10
15.8177276879
 20
8.9741170227
 10
15.8498266226
 20
8.8971317349
 10
15.8743470718
 20
8.819817811
 10
15.8907839825
 20
8.7437682146
 10
15.8987988654
 20
8.6705498043
 10
15.8982267604
 20
8.6016710544
 10
15.8890796268
 20
8.5385509803
 10
15.8715460887
 20
8.4824899081
 10
15.8580688926
 20
8.457259746
  0
LWPOLYLINE
  5
783
100
AcDbEntity
  8
AXIS_COSMETIC_THREADS
100
AcDbPolyline
 62
7
  6
CONTINUOUS
 90
6
 70
0
 10
15.2970286103
 20
9.4184821457
 10
15.3315092383
 20
9.415592909
 10
15.3671721372
 20
9.4083836134
 10
15.4037301702
 20
9.3969123037
 10
15.4408889937
 20
9.3812713402
 10
15.4783494265
 20
9.3615866547
  0
LWPOLYLINE
  5
784
100
AcDbEntity
  8
0
100
AcDbPolyline
 62
7
  6
CONTINUOUS
 90
8
 70
0
 10
15.5649182816
 20
9.3972172483
 10
15.5121016337
 20
9.4238926272
 10
15.4570349957
 20
9.4435139292
 10
15.4031897531
 20
9.4542608739
 10
15.3520505447
 20
9.4560411188
 10
15.3043253343
 20
9.4492402029
 10
15.2605570043
 20
9.4343464342
 10
15.2392938908
 20
9.423442706
  0
CIRCLE
  5
785
100
AcDbEntity
  8
0
100
AcDbCircle
 62
7
  6
CONTINUOUS
 10
10.5342808475
 20
1.243294839
 40
0.252091
  0
CIRCLE
  5
786
100
AcDbEntity
  8
0
100
AcDbCircle
 62
7
  6
CONTINUOUS
 10
10.5342808475
 20
1.243294839
 40
0.182698
  0
ARC
  5
787
100
AcDbEntity
  8
0
100
AcDbCircle
 62
7
  6
CONTINUOUS
 10
3.1256983139
 20
6.5943054953
 40
0.0393700455
100
AcDbArc
 50
0.0004524462
 51
57.9106378685
  0
ARC
  5
788
100
AcDbEntity
  8
AXIS_COSMETIC_THREADS
100
AcDbCircle
 62
7
  6
CONTINUOUS
 10
3.4603437003
 20
7.1279846137
 40
0.591
100
AcDbArc
 50
302.089984682
 51
237.9100154656
  0
ARC
  5
789
100
AcDbEntity
  8
0
100
AcDbCircle
 62
7
  6
CONTINUOUS
 10
3.4603437003
 20
7.1279846137
 40
0.5905511811
100
AcDbArc
 50
292.1047850198
 51
247.8953398136
  0
CIRCLE
  5
78A
100
AcDbEntity
  8
0
100
AcDbCircle
 62
9
  6
CONTINUOUS
 10
3.4603437003
 20
7.1279846137
 40
0.531496063
  0
ARC
  5
78B
100
AcDbEntity
  8
0
100
AcDbCircle
 62
7
  6
CONTINUOUS
 10
3.4603437003
 20
7.1279846137
 40
0.3543307087
100
AcDbArc
 50
291.0394697813
 51
68.9605302187
  0
ARC
  5
78C
100
AcDbEntity
  8
0
100
AcDbCircle
 62
7
  6
CONTINUOUS
 10
3.4603437003
 20
7.1279846137
 40
0.3543307087
100
AcDbArc
 50
111.0394697813
 51
248.9605302187
  0
ARC
  5
78D
100
AcDbEntity
  8
0
100
AcDbCircle
 62
7
  6
CONTINUOUS
 10
3.4603437003
 20
7.1279846137
 40
0.3543307087
100
AcDbArc
 50
248.9661153107
 51
261.4509211695
  0
ARC
  5
78E
100
AcDbEntity
  8
0
100
AcDbCircle
 62
7
  6
CONTINUOUS
 10
3.4603437003
 20
7.1279846137
 40
0.3543307087
100
AcDbArc
 50
98.5490788305
 51
111.033347416
  0
ARC
  5
78F
100
AcDbEntity
  8
0
100
AcDbCircle
 62
7
  6
CONTINUOUS
 10
3.4603437003
 20
7.1279846137
 40
0.3543307087
100
AcDbArc
 50
69.0253371408
 51
81.4509211695
  0
ARC
  5
790
100
AcDbEntity
  8
0
100
AcDbCircle
 62
7
  6
CONTINUOUS
 10
3.4603437003
 20
7.1279846137
 40
0.3543307087
100
AcDbArc
 50
278.5490788305
 51
290.9269359877
  0
ARC
  5
791
100
AcDbEntity
  8
0
100
AcDbCircle
 62
7
  6
CONTINUOUS
 10
3.4603437003
 20
7.1279846137
 40
0.3267713925
100
AcDbArc
 50
358.506353842
 51
325.4936461618
  0
CIRCLE
  5
792
100
AcDbEntity
  8
0
100
AcDbCircle
 62
7
  6
CONTINUOUS
 10
3.4603437003
 20
7.1279846137
 40
0.3139761856
  0
CIRCLE
  5
793
100
AcDbEntity
  8
0
100
AcDbCircle
 62
7
  6
CONTINUOUS
 10
3.4603437003
 20
7.1279846137
 40
0.3061023622
  0
CIRCLE
  5
794
100
AcDbEntity
  8
0
100
AcDbCircle
 62
7
  6
CONTINUOUS
 10
3.4603437003
 20
7.1279846137
 40
0.3
  0
ARC
  5
795
100
AcDbEntity
  8
0
100
AcDbCircle
 62
7
  6
CONTINUOUS
 10
3.4603437003
 20
7.1279846137
 40
0.2815
100
AcDbArc
 50
35.2092814998
 51
144.7907185002
  0
ARC
  5
796
100
AcDbEntity
  8
0
100
AcDbCircle
 62
7
  6
CONTINUOUS
 10
3.4603437003
 20
7.1279846137
 40
0.2815
100
AcDbArc
 50
215.2092814998
 51
324.7907185002
  0
ARC
  5
797
100
AcDbEntity
  8
0
100
AcDbCircle
 62
7
  6
CONTINUOUS
 10
3.4603437003
 20
7.1279846137
 40
0.281
100
AcDbArc
 50
215.7682444839
 51
324.2317555161
  0
ARC
  5
798
100
AcDbEntity
  8
0
100
AcDbCircle
 62
7
  6
CONTINUOUS
 10
3.4603437003
 20
7.1279846137
 40
0.281
100
AcDbArc
 50
35.7682444839
 51
144.2317555161
  0
ARC
  5
799
100
AcDbEntity
  8
0
100
AcDbCircle
 62
7
  6
CONTINUOUS
 10
3.7949891679
 20
6.5943055855
 40
0.039370055
100
AcDbArc
 50
122.0895318877
 51
179.9996788206
  0
ARC
  5
79A
100
AcDbEntity
  8
0
100
AcDbCircle
 62
7
  6
CONTINUOUS
 10
9.0475800128
 20
7.6589846137
 40
0.06
100
AcDbArc
 50
0.0
 51
90.0
  0
ARC
  5
79B
100
AcDbEntity
  8
0
100
AcDbCircle
 62
7
  6
CONTINUOUS
 10
8.575139068
 20
7.6594806767
 40
0.0590551181
100
AcDbArc
 50
90.0
 51
180.0
  0
ARC
  5
79C
100
AcDbEntity
  8
0
100
AcDbCircle
 62
7
  6
CONTINUOUS
 10
8.4963989105
 20
7.4783783145
 40
0.0196850394
100
AcDbArc
 50
270.0
 51
360.0
  0
ARC
  5
79D
100
AcDbEntity
  8
0
100
AcDbCircle
 62
7
  6
CONTINUOUS
 10
8.4963989105
 20
6.7775909129
 40
0.0196850394
100
AcDbArc
 50
0.0
 51
90.0
  0
ARC
  5
79E
100
AcDbEntity
  8
0
100
AcDbCircle
 62
7
  6
CONTINUOUS
 10
9.1065799609
 20
6.5379846706
 40
0.0010000519
100
AcDbArc
 50
270.0029759244
 51
359.9967384197
  0
ARC
  5
79F
100
AcDbEntity
  8
0
100
AcDbCircle
 62
7
  6
CONTINUOUS
 10
12.4538126093
 20
7.1279846137
 40
0.6003937008
100
AcDbArc
 50
245.6813103999
 51
294.3186895984
  0
CIRCLE
  5
7A0
100
AcDbEntity
  8
0
100
AcDbCircle
 62
7
  6
CONTINUOUS
 10
12.4538126093
 20
7.1279846137
 40
0.591
  0
ARC
  5
7A1
100
AcDbEntity
  8
0
100
AcDbCircle
 62
7
  6
CONTINUOUS
 10
12.4538126093
 20
7.1279846137
 40
0.5905511811
100
AcDbArc
 50
297.7335790013
 51
242.2664331897
  0
CIRCLE
  5
7A2
100
AcDbEntity
  8
0
100
AcDbCircle
 62
7
  6
CONTINUOUS
 10
12.3288126093
 20
7.5279846137
 40
0.094
  0
CIRCLE
  5
7A3
100
AcDbEntity
  8
0
100
AcDbCircle
 62
7
  6
CONTINUOUS
 10
12.5788126093
 20
7.5279846137
 40
0.094
  0
CIRCLE
  5
7A4
100
AcDbEntity
  8
0
100
AcDbCircle
 62
7
  6
CONTINUOUS
 10
12.5788126093
 20
7.5279846137
 40
0.064
  0
CIRCLE
  5
7A5
100
AcDbEntity
  8
0
100
AcDbCircle
 62
7
  6
CONTINUOUS
 10
12.3288126093
 20
7.5279846137
 40
0.064
  0
CIRCLE
  5
7A6
100
AcDbEntity
  8
AXIS_COSMETIC_THREADS
100
AcDbCircle
 62
7
  6
CONTINUOUS
 10
12.5788126093
 20
7.5279846137
 40
0.06
  0
CIRCLE
  5
7A7
100
AcDbEntity
  8
0
100
AcDbCircle
 62
9
  6
CONTINUOUS
 10
12.3288126093
 20
7.5279846137
 40
0.059958628
  0
CIRCLE
  5
7A8
100
AcDbEntity
  8
AXIS_COSMETIC_THREADS
100
AcDbCircle
 62
9
  6
CONTINUOUS
 10
12.5788126093
 20
7.5279846137
 40
0.0564683042
  0
ARC
  5
7A9
100
AcDbEntity
  8
0
100
AcDbCircle
 62
7
  6
CONTINUOUS
 10
12.1191671417
 20
6.5943055855
 40
0.039370055
100
AcDbArc
 50
0.0003211794
 51
54.5027766927
  0
ARC
  5
7AA
100
AcDbEntity
  8
0
100
AcDbCircle
 62
7
  6
CONTINUOUS
 10
12.7884579957
 20
6.5943054953
 40
0.0393700455
100
AcDbArc
 50
125.5003736162
 51
179.9995475538
  0
ARC
  5
7AB
100
AcDbEntity
  8
AXIS
100
AcDbCircle
 62
7
  6
CONTINUOUS
 10
12.5010645778
 20
7.2672365822
 40
0.03
100
AcDbArc
 50
0.0
 51
90.0
  0
ARC
  5
7AC
100
AcDbEntity
  8
AXIS
100
AcDbCircle
 62
7
  6
CONTINUOUS
 10
12.5010645778
 20
7.1672365822
 40
0.03
100
AcDbArc
 50
270.0
 51
360.0
  0
ARC
  5
7AD
100
AcDbEntity
  8
AXIS
100
AcDbCircle
 62
7
  6
CONTINUOUS
 10
12.4010645778
 20
7.1672365822
 40
0.03
100
AcDbArc
 50
180.0
 51
270.0
  0
ARC
  5
7AE
100
AcDbEntity
  8
AXIS
100
AcDbCircle
 62
7
  6
CONTINUOUS
 10
12.4010645778
 20
7.2672365822
 40
0.03
100
AcDbArc
 50
90.0
 51
180.0
  0
ARC
  5
7AF
100
AcDbEntity
  8
0
100
AcDbCircle
 62
7
  6
CONTINUOUS
 10
12.5168126093
 20
7.2829846137
 40
0.03
100
AcDbArc
 50
0.0
 51
90.0
  0
ARC
  5
7B0
100
AcDbEntity
  8
0
100
AcDbCircle
 62
7
  6
CONTINUOUS
 10
12.5168126093
 20
7.1579846137
 40
0.03
100
AcDbArc
 50
270.0
 51
360.0
  0
ARC
  5
7B1
100
AcDbEntity
  8
0
100
AcDbCircle
 62
7
  6
CONTINUOUS
 10
12.3918126093
 20
7.1579846137
 40
0.03
100
AcDbArc
 50
180.0
 51
270.0
  0
ARC
  5
7B2
100
AcDbEntity
  8
0
100
AcDbCircle
 62
7
  6
CONTINUOUS
 10
12.3918126093
 20
7.2829846137
 40
0.03
100
AcDbArc
 50
90.0
 51
180.0
  0
ENDSEC
  0
SECTION
  2
OBJECTS
  0
DICTIONARY
  5
C
100
AcDbDictionary
280
0
281
1
  3
ACAD_GROUP
350
D
  3
ACAD_MLINESTYLE
350
17
  3
ACAD_LAYOUT
350
1A
  3
ACAD_PLOTSETTINGS
350
19
  3
ACAD_PLOTSTYLENAME
350
E
  0
DICTIONARY
  5
D
102
{ACAD_REACTORS
330
C
102
}
100
AcDbDictionary
280
0
281
1
  0
ACDBDICTIONARYWDFLT
  5
E
102
{ACAD_REACTORS
330
C
102
}
100
AcDbDictionary
281
1
  3
Normal
350
F
100
AcDbDictionaryWithDefault
340
F
  0
DICTIONARY
  5
17
102
{ACAD_REACTORS
330
C
102
}
100
AcDbDictionary
280
0
281
1
  3
Standard
350
18
  0
DICTIONARY
  5
19
102
{ACAD_REACTORS
330
C
102
}
100
AcDbDictionary
281
1
  0
DICTIONARY
  5
1A
102
{ACAD_REACTORS
330
C
102
}
100
AcDbDictionary
281
1
  3
Model
350
7B3
  3
Layout1
350
7B4
  0
ACDBPLACEHOLDER
  5
F
102
{ACAD_REACTORS
330
E
102
}
  0
MLINESTYLE
  5
18
102
{ACAD_REACTORS
330
17
102
}
100
AcDbMlineStyle
  2
STANDARD
 70
0
  3

 62
256
 51
90.0
 52
90.0
 71
2
 49
0.5
 62
256
  6
BYLAYER
 49
-0.5
 62
256
  6
BYLAYER
  0
LAYOUT
  5
7B3
102
{ACAD_REACTORS
330
1A
102
}
100
AcDbPlotSettings
  1

  2
none_device
  4
ANSI_B_(17.00_x_11.00_Inches)
  6

 40
0.0
 41
0.0
 42
0.0
 43
0.0
 44
431.8
 45
279.4
 46
0.0
 47
0.0
 48
0.0
 49
0.0
140
0.0
141
0.0
142
1.0
143
1.0
 70
1024
 72
0
 73
0
 74
0
  7

 75
0
147
1.0
148
0.0
149
0.0
100
AcDbLayout
  1
Model
 70
0
 71
0
 10
0.0
 20
0.0
 11
17.0
 21
11.0
 12
0.0
 22
0.0
 32
0.0
 14
0.0
 24
0.0
 34
0.0
 15
0.0
 25
0.0
 35
0.0
146
0.0
 13
0.0
 23
0.0
 33
0.0
 16
1.0
 26
0.0
 36
0.0
 17
0.0
 27
1.0
 37
0.0
 76
0
330
246
345
0
346
0
  0
LAYOUT
  5
7B4
102
{ACAD_REACTORS
330
1A
102
}
100
AcDbPlotSettings
  1

  2
none_device
  4
ANSI_B_(17.00_x_11.00_Inches)
  6

 40
0.0
 41
0.0
 42
0.0
 43
0.0
 44
431.8
 45
279.4
 46
0.0
 47
0.0
 48
0.0
 49
0.0
140
0.0
141
0.0
142
1.0
143
1.0
 70
0
 72
0
 73
0
 74
0
  7

 75
0
147
1.0
148
0.0
149
0.0
100
AcDbLayout
  1
Layout1
 70
0
 71
1
 10
0.0
 20
0.0
 11
17.0
 21
11.0
 12
0.0
 22
0.0
 32
0.0
 14
0.0
 24
0.0
 34
0.0
 15
0.0
 25
0.0
 35
0.0
146
0.0
 13
0.0
 23
0.0
 33
0.0
 16
1.0
 26
0.0
 36
0.0
 17
0.0
 27
1.0
 37
0.0
 76
0
330
247
345
0
346
0
  0
ENDSEC
  0
EOF
