999
DXF file: 150311_1.dxf
999
Pro/ENGINEER 2009141 by Parametric Technology Corporation
  0
SECTION
  2
HEADER
  9
$ACADVER
  1
AC1015
  9
$DWGCODEPAGE
  3
ANSI_1252
  9
$EXTMAX
 10
17.0
 20
11.0
 30
0.0
  9
$EXTMIN
 10
0.0
 20
0.0
 30
0.0
  9
$LIMMIN
 10
0.0
 20
0.0
  9
$LIMMAX
 10
17.0
 20
11.0
  9
$VIEWCTR
 10
8.5
 20
5.5
  9
$VIEWSIZE
 40
11.0
  9
$CLAYER
  8
0
  9
$LTSCALE
 40
0.935
  9
$CELTYPE
  6
BYLAYER
  9
$DIMSCALE
 40
1.0
  9
$DIMASZ
 40
0.1875
  9
$DIMEXO
 40
0.10625
  9
$DIMDLI
 40
0.646
  9
$DIMEXE
 40
0.306
  9
$DIMCEN
 40
0.153
  9
$DIMLFAC
 40
1.0
  9
$DIMBLK
  1
_FILLED
  9
$DIMTXT
 40
0.1
  9
$DIMTOL
 70
1
  9
$DIMLIM
 70
0
  9
$DIMTFAC
 40
1.0
  9
$DIMTP
 40
0.005
  9
$DIMTM
 40
0.005
  9
$PDMODE
 70
3
  9
$PDSIZE
 40
0.3125
  9
$HANDSEED
  5
79F
  9
$TILEMODE
 70
1
  9
$MEASUREMENT
 70
0
  9
$INSUNITS
 70
1
  0
ENDSEC
  0
SECTION
  2
CLASSES
  0
CLASS
  1
ACDBDICTIONARYWDFLT
  2
AcDbDictionaryWithDefault
  3
AutoCAD 2000
 90
0
280
0
281
0
  0
CLASS
  1
ACDBPLACEHOLDER
  2
AcDbPlaceHolder
  3
AutoCAD 2000
 90
0
280
0
281
0
  0
CLASS
  1
LAYOUT
  2
AcDbLayout
  3
AutoCAD 2000
 90
0
280
0
281
0
  0
ENDSEC
  0
SECTION
  2
TABLES
  0
TABLE
  2
VPORT
  5
8
100
AcDbSymbolTable
 70
2
  0
VPORT
  5
1F4
100
AcDbSymbolTableRecord
100
AcDbViewportTableRecord
  2
*ACTIVE
 70
0
 10
0.0
 20
0.0
 11
1.0
 21
1.0
 12
8.5
 22
5.5
 13
0.0
 23
0.0
 14
1.0
 24
1.0
 15
0.0
 25
0.0
 16
0.0
 26
0.0
 36
1.0
 17
0.0
 27
0.0
 37
0.0
 40
11.0
 41
1.5454545455
 42
50.0
 43
0.0
 44
0.0
 50
0.0
 51
0.0
 71
0
 72
100
 73
1
 74
1
 75
0
 76
0
 77
0
 78
0
  0
ENDTAB
  0
TABLE
  2
LTYPE
  5
5
100
AcDbSymbolTable
 70
6
  0
LTYPE
  5
14
100
AcDbSymbolTableRecord
100
AcDbLinetypeTableRecord
  2
BYBLOCK
 70
0
  3

 72
65
 73
0
 40
0.0
  0
LTYPE
  5
15
100
AcDbSymbolTableRecord
100
AcDbLinetypeTableRecord
  2
BYLAYER
 70
0
  3

 72
65
 73
0
 40
0.0
  0
LTYPE
  5
16
100
AcDbSymbolTableRecord
100
AcDbLinetypeTableRecord
  2
CONTINUOUS
 70
64
  3
Solid line
 72
65
 73
0
 40
0.0
  0
LTYPE
  5
1F5
100
AcDbSymbolTableRecord
100
AcDbLinetypeTableRecord
  2
CENTER
 70
64
  3
____ _ ____ _ ____ _ ____ _ ____ _ ____ _ ____
 72
65
 73
4
 40
0.6
 49
0.375
 74
0
 49
-0.075
 74
0
 49
0.075
 74
0
 49
-0.075
 74
0
  0
LTYPE
  5
1F6
100
AcDbSymbolTableRecord
100
AcDbLinetypeTableRecord
  2
HIDDEN
 70
64
  3
- - - - - - - - - - - - - - - - - - - -
 72
65
 73
2
 40
0.2
 49
0.1
 74
0
 49
-0.1
 74
0
  0
LTYPE
  5
1F7
100
AcDbSymbolTableRecord
100
AcDbLinetypeTableRecord
  2
PHANTOM
 70
64
  3
_____ _ _ _____ _ _ _____ _ _ _____
 72
65
 73
6
 40
0.8
 49
0.45
 74
0
 49
-0.05
 74
0
 49
0.1
 74
0
 49
-0.05
 74
0
 49
0.1
 74
0
 49
-0.05
 74
0
  0
LTYPE
  5
1F8
100
AcDbSymbolTableRecord
100
AcDbLinetypeTableRecord
  2
DOT
 70
64
  3
. . . . . . . . . . . . . . . . . . . .
 72
65
 73
2
 40
0.2
 49
0.1
 74
0
 49
-0.1
 74
0
  0
LTYPE
  5
1F9
100
AcDbSymbolTableRecord
100
AcDbLinetypeTableRecord
  2
DASHED
 70
64
  3
- - - - - - - - - - - - - - - - - - - -
 72
65
 73
2
 40
0.2
 49
0.1
 74
0
 49
-0.1
 74
0
  0
ENDTAB
  0
TABLE
  2
LAYER
  5
2
100
AcDbSymbolTable
 70
36
  0
LAYER
  5
10
100
AcDbSymbolTableRecord
100
AcDbLayerTableRecord
  2
0
 70
0
 62
7
  6
CONTINUOUS
370
-3
390
F
  0
LAYER
  5
1FA
100
AcDbSymbolTableRecord
100
AcDbLayerTableRecord
  2
DEFAULT_1
 70
0
 62
7
  6
CENTER
370
-3
390
F
  0
LAYER
  5
1FB
100
AcDbSymbolTableRecord
100
AcDbLayerTableRecord
  2
DEFAULT_2
 70
0
 62
8
  6
HIDDEN
370
-3
390
F
  0
LAYER
  5
1FC
100
AcDbSymbolTableRecord
100
AcDbLayerTableRecord
  2
DEFAULT_3
 70
0
 62
7
  6
PHANTOM
370
-3
390
F
  0
LAYER
  5
1FD
100
AcDbSymbolTableRecord
100
AcDbLayerTableRecord
  2
01_ALL_DTM_PLN
 70
0
 62
7
  6
CONTINUOUS
370
-3
390
F
  0
LAYER
  5
1FE
100
AcDbSymbolTableRecord
100
AcDbLayerTableRecord
  2
01__ASM_ALL_DTM_PLN
 70
0
 62
7
  6
CONTINUOUS
370
-3
390
F
  0
LAYER
  5
1FF
100
AcDbSymbolTableRecord
100
AcDbLayerTableRecord
  2
01__ASM_DEF_DTM_PLN
 70
0
 62
7
  6
CONTINUOUS
370
-3
390
F
  0
LAYER
  5
200
100
AcDbSymbolTableRecord
100
AcDbLayerTableRecord
  2
01___PRT_ALL_DTM_PLN
 70
0
 62
7
  6
CONTINUOUS
370
-3
390
F
  0
LAYER
  5
201
100
AcDbSymbolTableRecord
100
AcDbLayerTableRecord
  2
01___PRT_DEF_DTM_PLN
 70
0
 62
7
  6
CONTINUOUS
370
-3
390
F
  0
LAYER
  5
202
100
AcDbSymbolTableRecord
100
AcDbLayerTableRecord
  2
02_ALL_AXES
 70
0
 62
7
  6
CONTINUOUS
370
-3
390
F
  0
LAYER
  5
203
100
AcDbSymbolTableRecord
100
AcDbLayerTableRecord
  2
02__ASM_ALL_AXES
 70
0
 62
7
  6
CONTINUOUS
370
-3
390
F
  0
LAYER
  5
204
100
AcDbSymbolTableRecord
100
AcDbLayerTableRecord
  2
02___PRT_ALL_AXES
 70
0
 62
7
  6
CONTINUOUS
370
-3
390
F
  0
LAYER
  5
205
100
AcDbSymbolTableRecord
100
AcDbLayerTableRecord
  2
03_ALL_CURVES
 70
0
 62
7
  6
CONTINUOUS
370
-3
390
F
  0
LAYER
  5
206
100
AcDbSymbolTableRecord
100
AcDbLayerTableRecord
  2
03__ASM_ALL_CURVES
 70
0
 62
7
  6
CONTINUOUS
370
-3
390
F
  0
LAYER
  5
207
100
AcDbSymbolTableRecord
100
AcDbLayerTableRecord
  2
03___PRT_ALL_CURVES
 70
0
 62
7
  6
CONTINUOUS
370
-3
390
F
  0
LAYER
  5
208
100
AcDbSymbolTableRecord
100
AcDbLayerTableRecord
  2
04_ALL_DTM_PNT
 70
0
 62
7
  6
CONTINUOUS
370
-3
390
F
  0
LAYER
  5
209
100
AcDbSymbolTableRecord
100
AcDbLayerTableRecord
  2
04__ASM_ALL_DTM_PNT
 70
0
 62
7
  6
CONTINUOUS
370
-3
390
F
  0
LAYER
  5
20A
100
AcDbSymbolTableRecord
100
AcDbLayerTableRecord
  2
04___PRT_ALL_DTM_PNT
 70
0
 62
7
  6
CONTINUOUS
370
-3
390
F
  0
LAYER
  5
20B
100
AcDbSymbolTableRecord
100
AcDbLayerTableRecord
  2
05_ALL_DTM_CSYS
 70
0
 62
7
  6
CONTINUOUS
370
-3
390
F
  0
LAYER
  5
20C
100
AcDbSymbolTableRecord
100
AcDbLayerTableRecord
  2
05__ASM_ALL_DTM_CSYS
 70
0
 62
7
  6
CONTINUOUS
370
-3
390
F
  0
LAYER
  5
20D
100
AcDbSymbolTableRecord
100
AcDbLayerTableRecord
  2
05__ASM_DEF_DTM_CSYS
 70
0
 62
7
  6
CONTINUOUS
370
-3
390
F
  0
LAYER
  5
20E
100
AcDbSymbolTableRecord
100
AcDbLayerTableRecord
  2
05___PRT_ALL_DTM_CSYS
 70
0
 62
7
  6
CONTINUOUS
370
-3
390
F
  0
LAYER
  5
20F
100
AcDbSymbolTableRecord
100
AcDbLayerTableRecord
  2
05___PRT_DEF_DTM_CSYS
 70
0
 62
7
  6
CONTINUOUS
370
-3
390
F
  0
LAYER
  5
210
100
AcDbSymbolTableRecord
100
AcDbLayerTableRecord
  2
06_ALL_SURFS
 70
0
 62
7
  6
CONTINUOUS
370
-3
390
F
  0
LAYER
  5
211
100
AcDbSymbolTableRecord
100
AcDbLayerTableRecord
  2
06__ASM_ALL_SURFS
 70
0
 62
7
  6
CONTINUOUS
370
-3
390
F
  0
LAYER
  5
212
100
AcDbSymbolTableRecord
100
AcDbLayerTableRecord
  2
06___PRT_ALL_SURFS
 70
0
 62
7
  6
CONTINUOUS
370
-3
390
F
  0
LAYER
  5
213
100
AcDbSymbolTableRecord
100
AcDbLayerTableRecord
  2
07__ASM_ALL_SKELETONS
 70
0
 62
7
  6
CONTINUOUS
370
-3
390
F
  0
LAYER
  5
214
100
AcDbSymbolTableRecord
100
AcDbLayerTableRecord
  2
AXIS
 70
0
 62
7
  6
CONTINUOUS
370
-3
390
F
  0
LAYER
  5
215
100
AcDbSymbolTableRecord
100
AcDbLayerTableRecord
  2
CURVES
 70
0
 62
7
  6
CONTINUOUS
370
-3
390
F
  0
LAYER
  5
216
100
AcDbSymbolTableRecord
100
AcDbLayerTableRecord
  2
DATUM_PLANES
 70
0
 62
7
  6
CONTINUOUS
370
-3
390
F
  0
LAYER
  5
217
100
AcDbSymbolTableRecord
100
AcDbLayerTableRecord
  2
DEF_CSY
 70
0
 62
7
  6
CONTINUOUS
370
-3
390
F
  0
LAYER
  5
218
100
AcDbSymbolTableRecord
100
AcDbLayerTableRecord
  2
GEOMTOL
 70
0
 62
7
  6
CONTINUOUS
370
-3
390
F
  0
LAYER
  5
219
100
AcDbSymbolTableRecord
100
AcDbLayerTableRecord
  2
LAYER_AXIS
 70
0
 62
7
  6
CONTINUOUS
370
-3
390
F
  0
LAYER
  5
21A
100
AcDbSymbolTableRecord
100
AcDbLayerTableRecord
  2
LAYER_CHAMFER_FEAT
 70
0
 62
7
  6
CONTINUOUS
370
-3
390
F
  0
LAYER
  5
21B
100
AcDbSymbolTableRecord
100
AcDbLayerTableRecord
  2
LAYER_CURVE
 70
0
 62
7
  6
CONTINUOUS
370
-3
390
F
  0
LAYER
  5
21C
100
AcDbSymbolTableRecord
100
AcDbLayerTableRecord
  2
LAYER_CURVE_ENT
 70
0
 62
7
  6
CONTINUOUS
370
-3
390
F
  0
LAYER
  5
21D
100
AcDbSymbolTableRecord
100
AcDbLayerTableRecord
  2
LAYER_CUT_FEAT
 70
0
 62
7
  6
CONTINUOUS
370
-3
390
F
  0
LAYER
  5
21E
100
AcDbSymbolTableRecord
100
AcDbLayerTableRecord
  2
LAYER_DATUM
 70
0
 62
7
  6
CONTINUOUS
370
-3
390
F
  0
LAYER
  5
21F
100
AcDbSymbolTableRecord
100
AcDbLayerTableRecord
  2
LAYER_DATUM_POINT
 70
0
 62
7
  6
CONTINUOUS
370
-3
390
F
  0
LAYER
  5
220
100
AcDbSymbolTableRecord
100
AcDbLayerTableRecord
  2
LAYER_DEF_DATUM
 70
0
 62
7
  6
CONTINUOUS
370
-3
390
F
  0
LAYER
  5
221
100
AcDbSymbolTableRecord
100
AcDbLayerTableRecord
  2
LAYER_DIM
 70
0
 62
7
  6
CONTINUOUS
370
-3
390
F
  0
LAYER
  5
222
100
AcDbSymbolTableRecord
100
AcDbLayerTableRecord
  2
LAYER_FEATURE
 70
0
 62
7
  6
CONTINUOUS
370
-3
390
F
  0
LAYER
  5
223
100
AcDbSymbolTableRecord
100
AcDbLayerTableRecord
  2
LAYER_GEOM_FEAT
 70
0
 62
7
  6
CONTINUOUS
370
-3
390
F
  0
LAYER
  5
224
100
AcDbSymbolTableRecord
100
AcDbLayerTableRecord
  2
LAYER_NOGEOM_FEAT
 70
0
 62
7
  6
CONTINUOUS
370
-3
390
F
  0
LAYER
  5
225
100
AcDbSymbolTableRecord
100
AcDbLayerTableRecord
  2
LAYER_PARAMETER_DIM
 70
0
 62
7
  6
CONTINUOUS
370
-3
390
F
  0
LAYER
  5
226
100
AcDbSymbolTableRecord
100
AcDbLayerTableRecord
  2
LAYER_POINT
 70
0
 62
7
  6
CONTINUOUS
370
-3
390
F
  0
LAYER
  5
227
100
AcDbSymbolTableRecord
100
AcDbLayerTableRecord
  2
LAYER_PROTRUSION_FEAT
 70
0
 62
7
  6
CONTINUOUS
370
-3
390
F
  0
LAYER
  5
228
100
AcDbSymbolTableRecord
100
AcDbLayerTableRecord
  2
LAYER_QUILT
 70
0
 62
7
  6
CONTINUOUS
370
-3
390
F
  0
LAYER
  5
229
100
AcDbSymbolTableRecord
100
AcDbLayerTableRecord
  2
LAYER_SURFACE
 70
0
 62
7
  6
CONTINUOUS
370
-3
390
F
  0
LAYER
  5
22A
100
AcDbSymbolTableRecord
100
AcDbLayerTableRecord
  2
NOTES
 70
0
 62
7
  6
CONTINUOUS
370
-3
390
F
  0
LAYER
  5
22B
100
AcDbSymbolTableRecord
100
AcDbLayerTableRecord
  2
PNTS
 70
0
 62
7
  6
CONTINUOUS
370
-3
390
F
  0
LAYER
  5
22C
100
AcDbSymbolTableRecord
100
AcDbLayerTableRecord
  2
QUILTS
 70
0
 62
7
  6
CONTINUOUS
370
-3
390
F
  0
LAYER
  5
22D
100
AcDbSymbolTableRecord
100
AcDbLayerTableRecord
  2
SCHEME_DIMS
 70
0
 62
7
  6
CONTINUOUS
370
-3
390
F
  0
LAYER
  5
22E
100
AcDbSymbolTableRecord
100
AcDbLayerTableRecord
  2
SURFACES
 70
0
 62
7
  6
CONTINUOUS
370
-3
390
F
  0
LAYER
  5
22F
100
AcDbSymbolTableRecord
100
AcDbLayerTableRecord
  2
SYMBOLS
 70
0
 62
7
  6
CONTINUOUS
370
-3
390
F
  0
ENDTAB
  0
TABLE
  2
STYLE
  5
3
100
AcDbSymbolTable
 70
1
  0
STYLE
  5
11
100
AcDbSymbolTableRecord
100
AcDbTextStyleTableRecord
  2
STANDARD
 70
0
 40
0.0
 41
1.0
 50
0.0
 71
0
 42
0.2
  3
txt
  4

  0
STYLE
  5
230
100
AcDbSymbolTableRecord
100
AcDbTextStyleTableRecord
  2
TEXTSTYLE_1
 70
0
 40
0.0
 41
0.8
 50
0.0
 71
0
 42
0.2
  3
gdt
  4

  0
STYLE
  5
231
100
AcDbSymbolTableRecord
100
AcDbTextStyleTableRecord
  2
TEXTSTYLE_2
 70
0
 40
0.0
 41
0.8
 50
0.0
 71
0
 42
0.2
  3
txt
  4

  0
STYLE
  5
232
100
AcDbSymbolTableRecord
100
AcDbTextStyleTableRecord
  2
TEXTSTYLE_3
 70
0
 40
0.0
 41
0.85
 50
0.0
 71
0
 42
0.2
  3
txt
  4

  0
STYLE
  5
233
100
AcDbSymbolTableRecord
100
AcDbTextStyleTableRecord
  2
TEXTSTYLE_4
 70
0
 40
0.0
 41
0.92
 50
0.0
 71
0
 42
0.2
  3
txt
  4

  0
STYLE
  5
234
100
AcDbSymbolTableRecord
100
AcDbTextStyleTableRecord
  2
TEXTSTYLE_5
 70
0
 40
0.0
 41
1.0
 50
0.0
 71
0
 42
0.2
  3
gdt
  4

  0
ENDTAB
  0
TABLE
  2
VIEW
  5
6
100
AcDbSymbolTable
 70
0
  0
ENDTAB
  0
TABLE
  2
UCS
  5
7
100
AcDbSymbolTable
 70
0
  0
ENDTAB
  0
TABLE
  2
APPID
  5
9
100
AcDbSymbolTable
 70
1
  0
APPID
  5
235
100
AcDbSymbolTableRecord
100
AcDbRegAppTableRecord
  2
ACAD
 70
0
  0
ENDTAB
  0
TABLE
  2
BLOCK_RECORD
  5
1
100
AcDbSymbolTable
 70
0
  0
BLOCK_RECORD
  5
236
100
AcDbSymbolTableRecord
100
AcDbBlockTableRecord
  2
*Model_Space
  0
BLOCK_RECORD
  5
237
100
AcDbSymbolTableRecord
100
AcDbBlockTableRecord
  2
*Paper_Space
  0
BLOCK_RECORD
  5
238
100
AcDbSymbolTableRecord
100
AcDbBlockTableRecord
  2
_FILLED
  0
BLOCK_RECORD
  5
239
100
AcDbSymbolTableRecord
100
AcDbBlockTableRecord
  2
*D0
  0
BLOCK_RECORD
  5
23A
100
AcDbSymbolTableRecord
100
AcDbBlockTableRecord
  2
*D1
  0
BLOCK_RECORD
  5
23B
100
AcDbSymbolTableRecord
100
AcDbBlockTableRecord
  2
*D2
  0
BLOCK_RECORD
  5
23C
100
AcDbSymbolTableRecord
100
AcDbBlockTableRecord
  2
*D3
  0
BLOCK_RECORD
  5
23D
100
AcDbSymbolTableRecord
100
AcDbBlockTableRecord
  2
*D4
  0
BLOCK_RECORD
  5
23E
100
AcDbSymbolTableRecord
100
AcDbBlockTableRecord
  2
*D5
  0
BLOCK_RECORD
  5
23F
100
AcDbSymbolTableRecord
100
AcDbBlockTableRecord
  2
*D6
  0
BLOCK_RECORD
  5
240
100
AcDbSymbolTableRecord
100
AcDbBlockTableRecord
  2
*D7
  0
BLOCK_RECORD
  5
241
100
AcDbSymbolTableRecord
100
AcDbBlockTableRecord
  2
*D8
  0
BLOCK_RECORD
  5
242
100
AcDbSymbolTableRecord
100
AcDbBlockTableRecord
  2
*D9
  0
BLOCK_RECORD
  5
243
100
AcDbSymbolTableRecord
100
AcDbBlockTableRecord
  2
*D10
  0
BLOCK_RECORD
  5
244
100
AcDbSymbolTableRecord
100
AcDbBlockTableRecord
  2
*D11
  0
BLOCK_RECORD
  5
245
100
AcDbSymbolTableRecord
100
AcDbBlockTableRecord
  2
CL_BL1
  0
BLOCK_RECORD
  5
246
100
AcDbSymbolTableRecord
100
AcDbBlockTableRecord
  2
BANNER_LOGO_TITLEBLOCK_BL0
  0
ENDTAB
  0
TABLE
  2
DIMSTYLE
  5
A
100
AcDbSymbolTable
 70
1
100
AcDbDimStyleTable
 71
0
  0
DIMSTYLE
105
247
100
AcDbSymbolTableRecord
100
AcDbDimStyleTableRecord
  2
STANDARD
 70
0
  3

  4

 40
1.0
 41
0.1875
 42
0.0625
 43
0.38
 44
0.18
 45
0.0
 46
0.0
 47
0.005
 48
0.005
140
0.1
141
0.09
142
0.0
143
25.4
144
1.0
145
0.0
146
1.0
147
0.09
 71
1.0
 72
0.0
 73
1
 74
1
 75
0
 76
0
 77
0
 78
4
170
0
171
2
172
0
173
0
174
0
175
0
176
0
177
0
178
0
270
2
271
3
272
3
273
2
274
2
275
0
280
0
281
0
282
0
283
1
284
4
285
0
286
0
287
3
288
0
340
11
341
238
342
238
343
238
344
238
  0
DIMSTYLE
105
248
100
AcDbSymbolTableRecord
100
AcDbDimStyleTableRecord
  2
DIMSTYLE_1
 70
0
  3

  4

 40
1.0
 41
0.1875
 42
0.0625
 43
0.38
 44
0.18
 45
0.0
 46
0.0
 47
0.0
 48
0.0
140
0.1
141
0.09
142
0.0
143
25.4
144
1.0
145
0.0
146
1.0
147
0.09
 71
0.0
 72
0.0
 73
1
 74
1
 75
0
 76
0
 77
0
 78
4
170
0
171
2
172
0
173
0
174
0
175
0
176
0
177
0
178
0
270
2
271
1
272
1
273
2
274
2
275
0
280
0
281
0
282
0
283
1
284
4
285
0
286
0
287
3
288
0
340
11
341
238
342
238
343
238
344
238
  0
DIMSTYLE
105
249
100
AcDbSymbolTableRecord
100
AcDbDimStyleTableRecord
  2
DIMSTYLE_2
 70
0
  3

  4

 40
1.0
 41
0.1875
 42
0.0625
 43
0.38
 44
0.18
 45
0.0
 46
0.0
 47
0.0
 48
0.0
140
0.1
141
0.09
142
0.0
143
25.4
144
1.0
145
0.0
146
1.0
147
0.09
 71
0.0
 72
0.0
 73
1
 74
1
 75
0
 76
0
 77
0
 78
4
170
0
171
2
172
0
173
0
174
0
175
0
176
0
177
0
178
0
270
2
271
1
272
1
273
2
274
2
275
0
280
0
281
0
282
0
283
1
284
4
285
0
286
0
287
3
288
0
340
11
341
238
342
238
343
238
344
238
  0
DIMSTYLE
105
24A
100
AcDbSymbolTableRecord
100
AcDbDimStyleTableRecord
  2
DIMSTYLE_3
 70
0
  3

  4

 40
1.0
 41
0.1875
 42
0.0625
 43
0.38
 44
0.18
 45
0.0
 46
0.0
 47
0.0
 48
0.0
140
0.1
141
0.09
142
0.0
143
25.4
144
1.0
145
0.0
146
1.0
147
0.09
 71
0.0
 72
0.0
 73
1
 74
1
 75
0
 76
0
 77
0
 78
4
170
0
171
2
172
0
173
0
174
0
175
0
176
0
177
0
178
0
270
2
271
2
272
2
273
2
274
2
275
0
280
0
281
0
282
0
283
1
284
4
285
0
286
0
287
3
288
0
340
11
341
238
342
238
343
238
344
238
  0
ENDTAB
  0
ENDSEC
  0
SECTION
  2
BLOCKS
  0
BLOCK
  5
20
100
AcDbEntity
  8
0
100
AcDbBlockBegin
  2
*Model_Space
 70
0
 10
0.0
 20
0.0
 30
0.0
  3
*Model_Space
  1

  0
ENDBLK
  5
21
100
AcDbEntity
  8
0
100
AcDbBlockEnd
  0
BLOCK
  5
1C
100
AcDbEntity
  8
0
100
AcDbBlockBegin
  2
*Paper_Space
 70
0
 10
0.0
 20
0.0
 30
0.0
  3
*Paper_Space
  1

  0
ENDBLK
  5
1D
100
AcDbEntity
  8
0
100
AcDbBlockEnd
  0
BLOCK
  5
24B
100
AcDbEntity
  8
SYMBOLS
100
AcDbBlockBegin
 62
2
  6
CONTINUOUS
  2
CL_BL1
 70
64
 10
3.5968615138
 20
9.1913694229
  3
CL_BL1
  1

  0
MTEXT
  5
24C
100
AcDbEntity
  8
SYMBOLS
100
AcDbMText
 62
2
  6
CONTINUOUS
  7
TEXTSTYLE_5
 71
1
 72
1
 10
3.5118615138
 20
9.2513694229
 30
0.0
 11
1.0
 21
0.0
 31
0.0
 44
0.9
  1
{\Fgdt;q}
 40
0.12
 41
0.17
  0
ENDBLK
  5
24D
100
AcDbEntity
  8
0
  6
BYBLOCK
 62
0
100
AcDbBlockEnd
  0
BLOCK
  5
24E
100
AcDbEntity
  8
0
100
AcDbBlockBegin
 62
2
  6
CONTINUOUS
  2
BANNER_LOGO_TITLEBLOCK_BL0
 70
64
 10
12.9086867042
 20
2.5403783405
  3
BANNER_LOGO_TITLEBLOCK_BL0
  1

  0
ELLIPSE
  5
24F
100
AcDbEntity
  8
0
100
AcDbEllipse
 62
2
  6
CONTINUOUS
 10
12.9046654608
 20
2.5403783405
 30
0.0
 11
-0.8250004575
 21
0.0
 31
0.0
 40
0.218572
 41
0.0
 42
6.2831853072
  0
ARC
  5
250
100
AcDbEntity
  8
0
100
AcDbCircle
 62
2
  6
CONTINUOUS
 10
12.400005721
 20
2.5168763464
 40
0.0153945295
100
AcDbArc
 50
354.0454548824
 51
5.1878013979
  0
ARC
  5
251
100
AcDbEntity
  8
0
100
AcDbCircle
 62
2
  6
CONTINUOUS
 10
12.3931760319
 20
2.5166878286
 40
0.0222174455
100
AcDbArc
 50
4.0793399388
 51
69.834329283
  0
LINE
  5
252
100
AcDbEntity
  8
0
100
AcDbLine
 62
2
  6
CONTINUOUS
 10
12.4008351814
 20
2.5375433389
 11
12.3907841758
 21
2.5410923409
  0
LINE
  5
253
100
AcDbEntity
  8
0
100
AcDbLine
 62
2
  6
CONTINUOUS
 10
12.3907841758
 20
2.5410923409
 11
12.3990241804
 21
2.5458683435
  0
ARC
  5
254
100
AcDbEntity
  8
0
100
AcDbCircle
 62
2
  6
CONTINUOUS
 10
12.3771587979
 20
2.5826952352
 40
0.0428289026
100
AcDbArc
 50
300.6990502959
 51
319.0591802498
  0
ARC
  5
255
100
AcDbEntity
  8
0
100
AcDbCircle
 62
2
  6
CONTINUOUS
 10
12.3971873948
 20
2.5665668817
 40
0.0171568255
100
AcDbArc
 50
315.9145124245
 51
16.0049121282
  0
ARC
  5
256
100
AcDbEntity
  8
0
100
AcDbCircle
 62
2
  6
CONTINUOUS
 10
12.3922357827
 20
2.5632132173
 40
0.0229166529
100
AcDbArc
 50
20.6563876465
 51
62.3316896973
  0
ARC
  5
257
100
AcDbEntity
  8
0
100
AcDbCircle
 62
2
  6
CONTINUOUS
 10
12.371573659
 20
2.5302846524
 40
0.061747717
100
AcDbArc
 50
59.5385584989
 51
90.0050977555
  0
LINE
  5
258
100
AcDbEntity
  8
0
100
AcDbLine
 62
2
  6
CONTINUOUS
 10
12.3715681652
 20
2.5920323691
 11
12.2055050731
 21
2.5920323691
  0
ARC
  5
259
100
AcDbEntity
  8
0
100
AcDbCircle
 62
2
  6
CONTINUOUS
 10
12.2055050712
 20
2.5895573696
 40
0.0024749995
100
AcDbArc
 50
89.9999571957
 51
180.0000428043
  0
LINE
  5
25A
100
AcDbEntity
  8
0
100
AcDbLine
 62
2
  6
CONTINUOUS
 10
12.2030300717
 20
2.5895573678
 11
12.2030300717
 21
2.5697573568
  0
ARC
  5
25B
100
AcDbEntity
  8
0
100
AcDbCircle
 62
2
  6
CONTINUOUS
 10
12.2055050712
 20
2.5697573549
 40
0.0024749995
100
AcDbArc
 50
179.9999571957
 51
270.0000428043
  0
LINE
  5
25C
100
AcDbEntity
  8
0
100
AcDbLine
 62
2
  6
CONTINUOUS
 10
12.2055050731
 20
2.5672823554
 11
12.2294470864
 21
2.5672823554
  0
ARC
  5
25D
100
AcDbEntity
  8
0
100
AcDbCircle
 62
2
  6
CONTINUOUS
 10
12.2294470882
 20
2.5648073559
 40
0.0024749995
100
AcDbArc
 50
359.9999571957
 51
90.0000428043
  0
LINE
  5
25E
100
AcDbEntity
  8
0
100
AcDbLine
 62
2
  6
CONTINUOUS
 10
12.2319220877
 20
2.564807354
 11
12.2319220877
 21
2.5184523283
  0
ARC
  5
25F
100
AcDbEntity
  8
0
100
AcDbCircle
 62
2
  6
CONTINUOUS
 10
12.2294470882
 20
2.5184523265
 40
0.0024749995
100
AcDbArc
 50
269.9999571957
 51
0.0000428043
  0
LINE
  5
260
100
AcDbEntity
  8
0
100
AcDbLine
 62
2
  6
CONTINUOUS
 10
12.2294470864
 20
2.515977327
 11
12.2055050731
 21
2.515977327
  0
ARC
  5
261
100
AcDbEntity
  8
0
100
AcDbCircle
 62
2
  6
CONTINUOUS
 10
12.2055050712
 20
2.5135023274
 40
0.0024749995
100
AcDbArc
 50
89.9999571957
 51
180.0000428043
  0
LINE
  5
262
100
AcDbEntity
  8
0
100
AcDbLine
 62
2
  6
CONTINUOUS
 10
12.2030300717
 20
2.5135023256
 11
12.2030300717
 21
2.4937023146
  0
ARC
  5
263
100
AcDbEntity
  8
0
100
AcDbCircle
 62
2
  6
CONTINUOUS
 10
12.2055050712
 20
2.4937023128
 40
0.0024749995
100
AcDbArc
 50
179.9999571957
 51
270.0000428043
  0
LINE
  5
264
100
AcDbEntity
  8
0
100
AcDbLine
 62
2
  6
CONTINUOUS
 10
12.2055050731
 20
2.4912273132
 11
12.3819511709
 21
2.4912273132
  0
ARC
  5
265
100
AcDbEntity
  8
0
100
AcDbCircle
 62
2
  6
CONTINUOUS
 10
12.3792298263
 20
2.539634765
 40
0.048483885
100
AcDbArc
 50
273.21763719
 51
303.0749121182
  0
ARC
  5
266
100
AcDbEntity
  8
0
100
AcDbCircle
 62
2
  6
CONTINUOUS
 10
12.3940692204
 20
2.5168671561
 40
0.0213072145
100
AcDbArc
 50
303.0488228549
 51
355.7263138674
  0
LINE
  5
267
100
AcDbEntity
  8
0
100
AcDbLine
 62
2
  6
CONTINUOUS
 10
12.2949101227
 20
2.5499573458
 11
12.3362731456
 21
2.5499573458
  0
ARC
  5
268
100
AcDbEntity
  8
0
100
AcDbCircle
 62
2
  6
CONTINUOUS
 10
12.3362731456
 20
2.5586198506
 40
0.0086625048
100
AcDbArc
 50
270.0
 51
90.0
  0
LINE
  5
269
100
AcDbEntity
  8
0
100
AcDbLine
 62
2
  6
CONTINUOUS
 10
12.3362731456
 20
2.5672823554
 11
12.2949101227
 21
2.5672823554
  0
ARC
  5
26A
100
AcDbEntity
  8
0
100
AcDbCircle
 62
2
  6
CONTINUOUS
 10
12.2949101208
 20
2.5648073559
 40
0.0024749995
100
AcDbArc
 50
89.9999571957
 51
180.0000428043
  0
LINE
  5
26B
100
AcDbEntity
  8
0
100
AcDbLine
 62
2
  6
CONTINUOUS
 10
12.2924351213
 20
2.564807354
 11
12.2924351213
 21
2.5524323472
  0
ARC
  5
26C
100
AcDbEntity
  8
0
100
AcDbCircle
 62
2
  6
CONTINUOUS
 10
12.2949101208
 20
2.5524323453
 40
0.0024749995
100
AcDbArc
 50
179.9999571957
 51
270.0000428043
  0
LINE
  5
26D
100
AcDbEntity
  8
0
100
AcDbLine
 62
2
  6
CONTINUOUS
 10
12.2924351213
 20
2.5184523283
 11
12.2924351213
 21
2.5308273352
  0
ARC
  5
26E
100
AcDbEntity
  8
0
100
AcDbCircle
 62
2
  6
CONTINUOUS
 10
12.2949101208
 20
2.530827337
 40
0.0024749995
100
AcDbArc
 50
89.9999571957
 51
180.0000428043
  0
LINE
  5
26F
100
AcDbEntity
  8
0
100
AcDbLine
 62
2
  6
CONTINUOUS
 10
12.2949101227
 20
2.5333023366
 11
12.3362731456
 21
2.5333023366
  0
ARC
  5
270
100
AcDbEntity
  8
0
100
AcDbCircle
 62
2
  6
CONTINUOUS
 10
12.3362731456
 20
2.5246398318
 40
0.0086625048
100
AcDbArc
 50
270.0
 51
90.0
  0
LINE
  5
271
100
AcDbEntity
  8
0
100
AcDbLine
 62
2
  6
CONTINUOUS
 10
12.3362731456
 20
2.515977327
 11
12.2949101227
 21
2.515977327
  0
ARC
  5
272
100
AcDbEntity
  8
0
100
AcDbCircle
 62
2
  6
CONTINUOUS
 10
12.2949101208
 20
2.5184523265
 40
0.0024749995
100
AcDbArc
 50
179.9999571957
 51
270.0000428043
  0
ARC
  5
273
100
AcDbEntity
  8
0
100
AcDbCircle
 62
2
  6
CONTINUOUS
 10
13.5806801742
 20
2.5212486481
 40
0.044722495
100
AcDbArc
 50
195.531588407
 51
204.7624440448
  0
LINE
  5
274
100
AcDbEntity
  8
0
100
AcDbLine
 62
2
  6
CONTINUOUS
 10
13.5375908118
 20
2.5092733232
 11
13.5357868108
 21
2.5153423266
  0
ARC
  5
275
100
AcDbEntity
  8
0
100
AcDbCircle
 62
2
  6
CONTINUOUS
 10
13.4974076135
 20
2.5055452462
 40
0.0396099176
100
AcDbArc
 50
14.3201081283
 51
22.4984722084
  0
ARC
  5
276
100
AcDbEntity
  8
0
100
AcDbCircle
 62
2
  6
CONTINUOUS
 10
13.5201739219
 20
2.5145168728
 40
0.0151491919
100
AcDbArc
 50
24.098260853
 51
63.0369451818
  0
ARC
  5
277
100
AcDbEntity
  8
0
100
AcDbCircle
 62
2
  6
CONTINUOUS
 10
13.5161192671
 20
2.5062372524
 40
0.0243676582
100
AcDbArc
 50
63.3666028271
 51
90.3937697637
  0
LINE
  5
278
100
AcDbEntity
  8
0
100
AcDbLine
 62
2
  6
CONTINUOUS
 10
13.5159517998
 20
2.5306043351
 11
13.4883447845
 21
2.5306043351
  0
ARC
  5
279
100
AcDbEntity
  8
0
100
AcDbCircle
 62
2
  6
CONTINUOUS
 10
13.4883447827
 20
2.5281293355
 40
0.0024749995
100
AcDbArc
 50
89.9999571957
 51
180.0000428043
  0
LINE
  5
27A
100
AcDbEntity
  8
0
100
AcDbLine
 62
2
  6
CONTINUOUS
 10
13.4858697831
 20
2.5281293337
 11
13.4858697831
 21
2.5184303283
  0
ARC
  5
27B
100
AcDbEntity
  8
0
100
AcDbCircle
 62
2
  6
CONTINUOUS
 10
13.4883447827
 20
2.5184303265
 40
0.0024749995
100
AcDbArc
 50
179.9999571957
 51
270.0000428043
  0
LINE
  5
27C
100
AcDbEntity
  8
0
100
AcDbLine
 62
2
  6
CONTINUOUS
 10
13.4883447845
 20
2.5159553269
 11
13.5130037982
 21
2.5159553269
  0
ARC
  5
27D
100
AcDbEntity
  8
0
100
AcDbCircle
 62
2
  6
CONTINUOUS
 10
13.5130038
 20
2.5134803274
 40
0.0024749995
100
AcDbArc
 50
359.9999571957
 51
90.0000428043
  0
LINE
  5
27E
100
AcDbEntity
  8
0
100
AcDbLine
 62
2
  6
CONTINUOUS
 10
13.5154787995
 20
2.5134803256
 11
13.5154787995
 21
2.4937023146
  0
ARC
  5
27F
100
AcDbEntity
  8
0
100
AcDbCircle
 62
2
  6
CONTINUOUS
 10
13.5130038
 20
2.4937023128
 40
0.0024749995
100
AcDbArc
 50
269.9999571957
 51
0.0000428043
  0
LINE
  5
280
100
AcDbEntity
  8
0
100
AcDbLine
 62
2
  6
CONTINUOUS
 10
13.5130037982
 20
2.4912273132
 11
13.3994327352
 21
2.4912273132
  0
ARC
  5
281
100
AcDbEntity
  8
0
100
AcDbCircle
 62
2
  6
CONTINUOUS
 10
13.3994327333
 20
2.4937023128
 40
0.0024749995
100
AcDbArc
 50
179.9999571957
 51
270.0000428043
  0
LINE
  5
282
100
AcDbEntity
  8
0
100
AcDbLine
 62
2
  6
CONTINUOUS
 10
13.3969577338
 20
2.4937023146
 11
13.3969577338
 21
2.5135023256
  0
ARC
  5
283
100
AcDbEntity
  8
0
100
AcDbCircle
 62
2
  6
CONTINUOUS
 10
13.3994327333
 20
2.5135023274
 40
0.0024749995
100
AcDbArc
 50
89.9999571957
 51
180.0000428043
  0
LINE
  5
284
100
AcDbEntity
  8
0
100
AcDbLine
 62
2
  6
CONTINUOUS
 10
13.3994327352
 20
2.515977327
 11
13.4221787478
 21
2.515977327
  0
ARC
  5
285
100
AcDbEntity
  8
0
100
AcDbCircle
 62
2
  6
CONTINUOUS
 10
13.4221787497
 20
2.5184523265
 40
0.0024749995
100
AcDbArc
 50
269.9999571957
 51
0.0000428042
  0
LINE
  5
286
100
AcDbEntity
  8
0
100
AcDbLine
 62
2
  6
CONTINUOUS
 10
13.4246537492
 20
2.5184523283
 11
13.4246537492
 21
2.564807354
  0
ARC
  5
287
100
AcDbEntity
  8
0
100
AcDbCircle
 62
2
  6
CONTINUOUS
 10
13.4221787497
 20
2.5648073559
 40
0.0024749995
100
AcDbArc
 50
359.9999571957
 51
90.0000428043
  0
LINE
  5
288
100
AcDbEntity
  8
0
100
AcDbLine
 62
2
  6
CONTINUOUS
 10
13.4221787478
 20
2.5672823554
 11
13.3994327352
 21
2.5672823554
  0
ARC
  5
289
100
AcDbEntity
  8
0
100
AcDbCircle
 62
2
  6
CONTINUOUS
 10
13.3994327333
 20
2.5697573549
 40
0.0024749995
100
AcDbArc
 50
179.9999571957
 51
270.0000428043
  0
LINE
  5
28A
100
AcDbEntity
  8
0
100
AcDbLine
 62
2
  6
CONTINUOUS
 10
13.3969577338
 20
2.5697573568
 11
13.3969577338
 21
2.5895573678
  0
ARC
  5
28B
100
AcDbEntity
  8
0
100
AcDbCircle
 62
2
  6
CONTINUOUS
 10
13.3994327333
 20
2.5895573696
 40
0.0024749995
100
AcDbArc
 50
89.9999571957
 51
180.0000428043
  0
LINE
  5
28C
100
AcDbEntity
  8
0
100
AcDbLine
 62
2
  6
CONTINUOUS
 10
13.3994327352
 20
2.5920323691
 11
13.5490138181
 21
2.5920323691
  0
ARC
  5
28D
100
AcDbEntity
  8
0
100
AcDbCircle
 62
2
  6
CONTINUOUS
 10
13.5463505148
 20
2.4094934586
 40
0.1825583387
100
AcDbArc
 50
79.8618509324
 51
89.1640948679
  0
ARC
  5
28E
100
AcDbEntity
  8
0
100
AcDbCircle
 62
2
  6
CONTINUOUS
 10
13.5726548052
 20
2.5503169747
 40
0.039319019
100
AcDbArc
 50
59.1202086415
 51
81.4730239328
  0
ARC
  5
28F
100
AcDbEntity
  8
0
100
AcDbCircle
 62
2
  6
CONTINUOUS
 10
13.5783142014
 20
2.5566516438
 40
0.0310192946
100
AcDbArc
 50
34.7540871
 51
62.0879016178
  0
ARC
  5
290
100
AcDbEntity
  8
0
100
AcDbCircle
 62
2
  6
CONTINUOUS
 10
13.5900029525
 20
2.565201245
 40
0.0165459396
100
AcDbArc
 50
1.548452892
 51
33.5033152417
  0
ARC
  5
291
100
AcDbEntity
  8
0
100
AcDbCircle
 62
2
  6
CONTINUOUS
 10
13.5932995477
 20
2.5653696972
 40
0.0132462337
100
AcDbArc
 50
331.1510006998
 51
1.205404301
  0
ARC
  5
292
100
AcDbEntity
  8
0
100
AcDbCircle
 62
2
  6
CONTINUOUS
 10
13.5822888914
 20
2.5720482849
 40
0.0261183659
100
AcDbArc
 50
305.6373831893
 51
329.9727629745
  0
ARC
  5
293
100
AcDbEntity
  8
0
100
AcDbCircle
 62
2
  6
CONTINUOUS
 10
13.5519569538
 20
2.6152551345
 40
0.0789082104
100
AcDbArc
 50
292.906155071
 51
305.2574666259
  0
ARC
  5
294
100
AcDbEntity
  8
0
100
AcDbCircle
 62
2
  6
CONTINUOUS
 10
13.5282557878
 20
2.4386010294
 40
0.117346916
100
AcDbArc
 50
58.614769177
 51
62.3737227606
  0
ARC
  5
295
100
AcDbEntity
  8
0
100
AcDbCircle
 62
2
  6
CONTINUOUS
 10
13.5761387404
 20
2.5167282896
 40
0.0257145923
100
AcDbArc
 50
39.3804255939
 51
59.0361096173
  0
ARC
  5
296
100
AcDbEntity
  8
0
100
AcDbCircle
 62
2
  6
CONTINUOUS
 10
13.5750183849
 20
2.5166552064
 40
0.0266349791
100
AcDbArc
 50
20.3630922153
 51
37.9727053099
  0
ARC
  5
297
100
AcDbEntity
  8
0
100
AcDbCircle
 62
2
  6
CONTINUOUS
 10
13.5571178432
 20
2.509473798
 40
0.0459185159
100
AcDbArc
 50
15.6740290068
 51
20.9917271228
  0
ARC
  5
298
100
AcDbEntity
  8
0
100
AcDbCircle
 62
2
  6
CONTINUOUS
 10
13.6156881783
 20
2.525116781
 40
0.0147197649
100
AcDbArc
 50
192.7054516565
 51
206.0594861022
  0
ARC
  5
299
100
AcDbEntity
  8
0
100
AcDbCircle
 62
2
  6
CONTINUOUS
 10
13.6071938412
 20
2.5209082945
 40
0.0052403997
100
AcDbArc
 50
205.5232099488
 51
227.5054868079
  0
ARC
  5
29A
100
AcDbEntity
  8
0
100
AcDbCircle
 62
2
  6
CONTINUOUS
 10
13.6054655419
 20
2.5190929218
 40
0.0027347709
100
AcDbArc
 50
228.5117626737
 51
266.1485845754
  0
LINE
  5
29B
100
AcDbEntity
  8
0
100
AcDbLine
 62
2
  6
CONTINUOUS
 10
13.6052818493
 20
2.5163643272
 11
13.60639085
 21
2.5163643272
  0
ARC
  5
29C
100
AcDbEntity
  8
0
100
AcDbCircle
 62
2
  6
CONTINUOUS
 10
13.6063292954
 20
2.5296129864
 40
0.0132488022
100
AcDbArc
 50
270.266200055
 51
281.2404888597
  0
ARC
  5
29D
100
AcDbEntity
  8
0
100
AcDbCircle
 62
2
  6
CONTINUOUS
 10
13.6075235364
 20
2.5238762928
 40
0.0073895522
100
AcDbArc
 50
280.8288201977
 51
305.0837508495
  0
ARC
  5
29E
100
AcDbEntity
  8
0
100
AcDbCircle
 62
2
  6
CONTINUOUS
 10
13.607924718
 20
2.5230254464
 40
0.0064647042
100
AcDbArc
 50
306.5086174083
 51
340.2162360092
  0
ARC
  5
29F
100
AcDbEntity
  8
0
100
AcDbCircle
 62
2
  6
CONTINUOUS
 10
13.6027235414
 20
2.524769508
 40
0.0119498009
100
AcDbArc
 50
340.7883861657
 51
1.1691452593
  0
LINE
  5
2A0
100
AcDbEntity
  8
0
100
AcDbLine
 62
2
  6
CONTINUOUS
 10
13.6146708546
 20
2.525013332
 11
13.6146708546
 21
2.5276393334
  0
ARC
  5
2A1
100
AcDbEntity
  8
0
100
AcDbCircle
 62
2
  6
CONTINUOUS
 10
13.6171458541
 20
2.5276393353
 40
0.0024749995
100
AcDbArc
 50
89.9999571957
 51
180.0000428043
  0
LINE
  5
2A2
100
AcDbEntity
  8
0
100
AcDbLine
 62
2
  6
CONTINUOUS
 10
13.6171458559
 20
2.5301143348
 11
13.6292558626
 21
2.5301143348
  0
ARC
  5
2A3
100
AcDbEntity
  8
0
100
AcDbCircle
 62
2
  6
CONTINUOUS
 10
13.6292558645
 20
2.5276393353
 40
0.0024749995
100
AcDbArc
 50
359.9999571957
 51
90.0000428043
  0
LINE
  5
2A4
100
AcDbEntity
  8
0
100
AcDbLine
 62
2
  6
CONTINUOUS
 10
13.631730864
 20
2.5276393334
 11
13.631730864
 21
2.516087327
  0
ARC
  5
2A5
100
AcDbEntity
  8
0
100
AcDbCircle
 62
2
  6
CONTINUOUS
 10
13.6141751675
 20
2.5161916447
 40
0.0175560065
100
AcDbArc
 50
332.2279060967
 51
359.6595469939
  0
ARC
  5
2A6
100
AcDbEntity
  8
0
100
AcDbCircle
 62
2
  6
CONTINUOUS
 10
13.6048681567
 20
2.5210861501
 40
0.0280715479
100
AcDbArc
 50
308.5071794988
 51
332.2400656899
  0
ARC
  5
2A7
100
AcDbEntity
  8
0
100
AcDbCircle
 62
2
  6
CONTINUOUS
 10
13.5978759713
 20
2.5286873679
 40
0.0383802683
100
AcDbArc
 50
288.7656836787
 51
309.6104317088
  0
ARC
  5
2A8
100
AcDbEntity
  8
0
100
AcDbCircle
 62
2
  6
CONTINUOUS
 10
13.6036139387
 20
2.5111006186
 40
0.0198837666
100
AcDbArc
 50
271.8586572978
 51
289.4131338543
  0
LINE
  5
2A9
100
AcDbEntity
  8
0
100
AcDbLine
 62
2
  6
CONTINUOUS
 10
13.6042588488
 20
2.4912273132
 11
13.5568948225
 21
2.4912273132
  0
ARC
  5
2AA
100
AcDbEntity
  8
0
100
AcDbCircle
 62
2
  6
CONTINUOUS
 10
13.5577001432
 20
2.5085494649
 40
0.0173408616
100
AcDbArc
 50
232.4713476722
 51
267.338189944
  0
ARC
  5
2AB
100
AcDbEntity
  8
0
100
AcDbCircle
 62
2
  6
CONTINUOUS
 10
13.5607987082
 20
2.5143997688
 40
0.0238935861
100
AcDbArc
 50
209.8247607259
 51
235.1255079367
  0
ARC
  5
2AC
100
AcDbEntity
  8
0
100
AcDbCircle
 62
2
  6
CONTINUOUS
 10
13.5295131508
 20
2.5629115009
 40
0.0110815393
100
AcDbArc
 50
306.758405961
 51
320.4502234234
  0
ARC
  5
2AD
100
AcDbEntity
  8
0
100
AcDbCircle
 62
2
  6
CONTINUOUS
 10
13.5238839599
 20
2.5706523294
 40
0.0206523367
100
AcDbArc
 50
289.6883413472
 51
306.4184925496
  0
ARC
  5
2AE
100
AcDbEntity
  8
0
100
AcDbCircle
 62
2
  6
CONTINUOUS
 10
13.5219564542
 20
2.5750459767
 40
0.0254407115
100
AcDbArc
 50
270.7327484175
 51
290.441894219
  0
LINE
  5
2AF
100
AcDbEntity
  8
0
100
AcDbLine
 62
2
  6
CONTINUOUS
 10
13.5222818033
 20
2.5496073456
 11
13.4883447845
 21
2.5496073456
  0
ARC
  5
2B0
100
AcDbEntity
  8
0
100
AcDbCircle
 62
2
  6
CONTINUOUS
 10
13.4883447827
 20
2.5520823451
 40
0.0024749995
100
AcDbArc
 50
179.9999571957
 51
270.0000428043
  0
LINE
  5
2B1
100
AcDbEntity
  8
0
100
AcDbLine
 62
2
  6
CONTINUOUS
 10
13.4858697831
 20
2.552082347
 11
13.4858697831
 21
2.564807354
  0
ARC
  5
2B2
100
AcDbEntity
  8
0
100
AcDbCircle
 62
2
  6
CONTINUOUS
 10
13.4883447827
 20
2.5648073559
 40
0.0024749995
100
AcDbArc
 50
89.9999571957
 51
180.0000428043
  0
LINE
  5
2B3
100
AcDbEntity
  8
0
100
AcDbLine
 62
2
  6
CONTINUOUS
 10
13.4883447845
 20
2.5672823554
 11
13.5251458049
 21
2.5672823554
  0
ARC
  5
2B4
100
AcDbEntity
  8
0
100
AcDbCircle
 62
2
  6
CONTINUOUS
 10
13.5236009174
 20
2.5388278764
 40
0.0284963867
100
AcDbArc
 50
70.3834917948
 51
86.8922743861
  0
ARC
  5
2B5
100
AcDbEntity
  8
0
100
AcDbCircle
 62
2
  6
CONTINUOUS
 10
13.5284605274
 20
2.5518696094
 40
0.0145814632
100
AcDbArc
 50
54.6746025112
 51
71.1660573124
  0
ARC
  5
2B6
100
AcDbEntity
  8
0
100
AcDbCircle
 62
2
  6
CONTINUOUS
 10
13.5335900184
 20
2.5587235346
 40
0.0060275915
100
AcDbArc
 50
20.9055592135
 51
56.7851676243
  0
ARC
  5
2B7
100
AcDbEntity
  8
0
100
AcDbCircle
 62
2
  6
CONTINUOUS
 10
13.5348905773
 20
2.5593838168
 40
0.0045795888
100
AcDbArc
 50
355.6235353944
 51
18.9942678268
  0
ARC
  5
2B8
100
AcDbEntity
  8
0
100
AcDbCircle
 62
2
  6
CONTINUOUS
 10
13.533683767
 20
2.559677593
 40
0.0058087709
100
AcDbArc
 50
318.8515287446
 51
353.6422345323
  0
LINE
  5
2B9
100
AcDbEntity
  8
0
100
AcDbLine
 62
2
  6
CONTINUOUS
 10
12.672340332
 20
2.5920323691
 11
12.7727983877
 21
2.5920323691
  0
ARC
  5
2BA
100
AcDbEntity
  8
0
100
AcDbCircle
 62
2
  6
CONTINUOUS
 10
12.7727985224
 20
2.5895582013
 40
0.0024741678
100
AcDbArc
 50
46.3477981899
 51
90.0031206038
  0
LINE
  5
2BB
100
AcDbEntity
  8
0
100
AcDbLine
 62
2
  6
CONTINUOUS
 10
12.7745063886
 20
2.5913483688
 11
12.8345394219
 21
2.534068337
  0
ARC
  5
2BC
100
AcDbEntity
  8
0
100
AcDbCircle
 62
2
  6
CONTINUOUS
 10
12.8362481229
 20
2.5358592748
 40
0.0024753014
100
AcDbArc
 50
226.3461263059
 51
0.0014637321
  0
LINE
  5
2BD
100
AcDbEntity
  8
0
100
AcDbLine
 62
2
  6
CONTINUOUS
 10
12.8387234242
 20
2.535859338
 11
12.8387234242
 21
2.564807354
  0
ARC
  5
2BE
100
AcDbEntity
  8
0
100
AcDbCircle
 62
2
  6
CONTINUOUS
 10
12.8362484247
 20
2.5648073559
 40
0.0024749995
100
AcDbArc
 50
359.9999571957
 51
90.0000428043
  0
LINE
  5
2BF
100
AcDbEntity
  8
0
100
AcDbLine
 62
2
  6
CONTINUOUS
 10
12.8362484229
 20
2.5672823554
 11
12.8174724125
 21
2.5672823554
  0
ARC
  5
2C0
100
AcDbEntity
  8
0
100
AcDbCircle
 62
2
  6
CONTINUOUS
 10
12.8174724106
 20
2.5697573549
 40
0.0024749995
100
AcDbArc
 50
179.9999571957
 51
270.0000428043
  0
LINE
  5
2C1
100
AcDbEntity
  8
0
100
AcDbLine
 62
2
  6
CONTINUOUS
 10
12.8149974111
 20
2.5697573568
 11
12.8149974111
 21
2.5895573678
  0
ARC
  5
2C2
100
AcDbEntity
  8
0
100
AcDbCircle
 62
2
  6
CONTINUOUS
 10
12.8174724106
 20
2.5895573696
 40
0.0024749995
100
AcDbArc
 50
89.9999571957
 51
180.0000428043
  0
LINE
  5
2C3
100
AcDbEntity
  8
0
100
AcDbLine
 62
2
  6
CONTINUOUS
 10
12.8174724125
 20
2.5920323691
 11
12.8914734535
 21
2.5920323691
  0
ARC
  5
2C4
100
AcDbEntity
  8
0
100
AcDbCircle
 62
2
  6
CONTINUOUS
 10
12.8914734553
 20
2.5895573696
 40
0.0024749995
100
AcDbArc
 50
359.9999571957
 51
90.0000428043
  0
LINE
  5
2C5
100
AcDbEntity
  8
0
100
AcDbLine
 62
2
  6
CONTINUOUS
 10
12.8939484549
 20
2.5895573678
 11
12.8939484549
 21
2.5697573568
  0
ARC
  5
2C6
100
AcDbEntity
  8
0
100
AcDbCircle
 62
2
  6
CONTINUOUS
 10
12.8914734553
 20
2.5697573549
 40
0.0024749995
100
AcDbArc
 50
269.9999571957
 51
0.0000428043
  0
LINE
  5
2C7
100
AcDbEntity
  8
0
100
AcDbLine
 62
2
  6
CONTINUOUS
 10
12.8914734535
 20
2.5672823554
 11
12.8735404436
 21
2.5672823554
  0
ARC
  5
2C8
100
AcDbEntity
  8
0
100
AcDbCircle
 62
2
  6
CONTINUOUS
 10
12.8735404417
 20
2.5648073559
 40
0.0024749995
100
AcDbArc
 50
89.9999571957
 51
180.0000428043
  0
LINE
  5
2C9
100
AcDbEntity
  8
0
100
AcDbLine
 62
2
  6
CONTINUOUS
 10
12.8710654422
 20
2.564807354
 11
12.8710654422
 21
2.4937023146
  0
ARC
  5
2CA
100
AcDbEntity
  8
0
100
AcDbCircle
 62
2
  6
CONTINUOUS
 10
12.8685904427
 20
2.4937023128
 40
0.0024749995
100
AcDbArc
 50
269.9999571957
 51
0.0000428043
  0
LINE
  5
2CB
100
AcDbEntity
  8
0
100
AcDbLine
 62
2
  6
CONTINUOUS
 10
12.8685904408
 20
2.4912273132
 11
12.7943853997
 21
2.4912273132
  0
ARC
  5
2CC
100
AcDbEntity
  8
0
100
AcDbCircle
 62
2
  6
CONTINUOUS
 10
12.7943847649
 20
2.4937027294
 40
0.0024754162
100
AcDbArc
 50
226.3593695813
 51
270.0146919953
  0
LINE
  5
2CD
100
AcDbEntity
  8
0
100
AcDbLine
 62
2
  6
CONTINUOUS
 10
12.7926763987
 20
2.4919113136
 11
12.7293963636
 21
2.5522893471
  0
ARC
  5
2CE
100
AcDbEntity
  8
0
100
AcDbCircle
 62
2
  6
CONTINUOUS
 10
12.7276876627
 20
2.5504984093
 40
0.0024753014
100
AcDbArc
 50
46.3461263059
 51
180.0014637321
  0
LINE
  5
2CF
100
AcDbEntity
  8
0
100
AcDbLine
 62
2
  6
CONTINUOUS
 10
12.7252123613
 20
2.5504983461
 11
12.7252123613
 21
2.5184523283
  0
ARC
  5
2D0
100
AcDbEntity
  8
0
100
AcDbCircle
 62
2
  6
CONTINUOUS
 10
12.7276873608
 20
2.5184523265
 40
0.0024749995
100
AcDbArc
 50
179.9999571957
 51
270.0000428043
  0
LINE
  5
2D1
100
AcDbEntity
  8
0
100
AcDbLine
 62
2
  6
CONTINUOUS
 10
12.7276873627
 20
2.515977327
 11
12.7480043739
 21
2.515977327
  0
ARC
  5
2D2
100
AcDbEntity
  8
0
100
AcDbCircle
 62
2
  6
CONTINUOUS
 10
12.7480043758
 20
2.5135023274
 40
0.0024749995
100
AcDbArc
 50
359.9999571957
 51
90.0000428043
  0
LINE
  5
2D3
100
AcDbEntity
  8
0
100
AcDbLine
 62
2
  6
CONTINUOUS
 10
12.7504793753
 20
2.5135023256
 11
12.7504793753
 21
2.4937023146
  0
ARC
  5
2D4
100
AcDbEntity
  8
0
100
AcDbCircle
 62
2
  6
CONTINUOUS
 10
12.7480043758
 20
2.4937023128
 40
0.0024749995
100
AcDbArc
 50
269.9999571957
 51
0.0000428043
  0
LINE
  5
2D5
100
AcDbEntity
  8
0
100
AcDbLine
 62
2
  6
CONTINUOUS
 10
12.7480043739
 20
2.4912273132
 11
12.672340332
 21
2.4912273132
  0
ARC
  5
2D6
100
AcDbEntity
  8
0
100
AcDbCircle
 62
2
  6
CONTINUOUS
 10
12.6723403301
 20
2.4937023128
 40
0.0024749995
100
AcDbArc
 50
179.9999571957
 51
270.0000428043
  0
LINE
  5
2D7
100
AcDbEntity
  8
0
100
AcDbLine
 62
2
  6
CONTINUOUS
 10
12.6698653306
 20
2.4937023146
 11
12.6698653306
 21
2.5135023256
  0
ARC
  5
2D8
100
AcDbEntity
  8
0
100
AcDbCircle
 62
2
  6
CONTINUOUS
 10
12.6723403301
 20
2.5135023274
 40
0.0024749995
100
AcDbArc
 50
89.9999571957
 51
180.0000428043
  0
LINE
  5
2D9
100
AcDbEntity
  8
0
100
AcDbLine
 62
2
  6
CONTINUOUS
 10
12.672340332
 20
2.515977327
 11
12.6909873423
 21
2.515977327
  0
ARC
  5
2DA
100
AcDbEntity
  8
0
100
AcDbCircle
 62
2
  6
CONTINUOUS
 10
12.6909873442
 20
2.5184523265
 40
0.0024749995
100
AcDbArc
 50
269.9999571957
 51
0.0000428043
  0
LINE
  5
2DB
100
AcDbEntity
  8
0
100
AcDbLine
 62
2
  6
CONTINUOUS
 10
12.6934623437
 20
2.5184523283
 11
12.6934623437
 21
2.564807354
  0
ARC
  5
2DC
100
AcDbEntity
  8
0
100
AcDbCircle
 62
2
  6
CONTINUOUS
 10
12.6909873442
 20
2.5648073559
 40
0.0024749995
100
AcDbArc
 50
359.9999571957
 51
90.0000428043
  0
LINE
  5
2DD
100
AcDbEntity
  8
0
100
AcDbLine
 62
2
  6
CONTINUOUS
 10
12.6909873423
 20
2.5672823554
 11
12.672340332
 21
2.5672823554
  0
ARC
  5
2DE
100
AcDbEntity
  8
0
100
AcDbCircle
 62
2
  6
CONTINUOUS
 10
12.6723403301
 20
2.5697573549
 40
0.0024749995
100
AcDbArc
 50
179.9999571957
 51
270.0000428043
  0
LINE
  5
2DF
100
AcDbEntity
  8
0
100
AcDbLine
 62
2
  6
CONTINUOUS
 10
12.6698653306
 20
2.5697573568
 11
12.6698653306
 21
2.5895573678
  0
ARC
  5
2E0
100
AcDbEntity
  8
0
100
AcDbCircle
 62
2
  6
CONTINUOUS
 10
12.6723403301
 20
2.5895573696
 40
0.0024749995
100
AcDbArc
 50
89.9999571957
 51
180.0000428043
  0
LINE
  5
2E1
100
AcDbEntity
  8
0
100
AcDbLine
 62
2
  6
CONTINUOUS
 10
12.5246402501
 20
2.5655893545
 11
12.5175232461
 21
2.5543723483
  0
ARC
  5
2E2
100
AcDbEntity
  8
0
100
AcDbCircle
 62
2
  6
CONTINUOUS
 10
12.519613138
 20
2.5530463862
 40
0.0024750401
100
AcDbArc
 50
147.6063258012
 51
270.0025305754
  0
LINE
  5
2E3
100
AcDbEntity
  8
0
100
AcDbLine
 62
2
  6
CONTINUOUS
 10
12.5196132473
 20
2.5505713461
 11
12.5401702587
 21
2.5505713461
  0
ARC
  5
2E4
100
AcDbEntity
  8
0
100
AcDbCircle
 62
2
  6
CONTINUOUS
 10
12.5401702375
 20
2.5530465533
 40
0.0024752071
100
AcDbArc
 50
270.0004896793
 51
32.9089806818
  0
LINE
  5
2E5
100
AcDbEntity
  8
0
100
AcDbLine
 62
2
  6
CONTINUOUS
 10
12.5422482598
 20
2.5543913483
 11
12.5349892558
 21
2.5656073545
  0
ARC
  5
2E6
100
AcDbEntity
  8
0
100
AcDbCircle
 62
2
  6
CONTINUOUS
 10
12.532910715
 20
2.564262895
 40
0.0024754602
100
AcDbArc
 50
32.8959418573
 51
89.9875097202
  0
LINE
  5
2E7
100
AcDbEntity
  8
0
100
AcDbLine
 62
2
  6
CONTINUOUS
 10
12.5329112547
 20
2.5667383551
 11
12.5267302512
 21
2.5667383551
  0
ARC
  5
2E8
100
AcDbEntity
  8
0
100
AcDbCircle
 62
2
  6
CONTINUOUS
 10
12.5267301809
 20
2.5642631548
 40
0.0024752003
100
AcDbArc
 50
89.998372645
 51
147.602165307
  0
LINE
  5
2E9
100
AcDbEntity
  8
0
100
AcDbLine
 62
2
  6
CONTINUOUS
 10
12.548053263
 20
2.5284903339
 11
12.5536792662
 21
2.5197973291
  0
ARC
  5
2EA
100
AcDbEntity
  8
0
100
AcDbCircle
 62
2
  6
CONTINUOUS
 10
12.5516012439
 20
2.5184525341
 40
0.0024752071
100
AcDbArc
 50
270.0004896794
 51
32.9089806818
  0
LINE
  5
2EB
100
AcDbEntity
  8
0
100
AcDbLine
 62
2
  6
CONTINUOUS
 10
12.551601265
 20
2.515977327
 11
12.537150257
 21
2.515977327
  0
ARC
  5
2EC
100
AcDbEntity
  8
0
100
AcDbCircle
 62
2
  6
CONTINUOUS
 10
12.5371502552
 20
2.5135023274
 40
0.0024749995
100
AcDbArc
 50
89.9999571957
 51
180.0000428043
  0
LINE
  5
2ED
100
AcDbEntity
  8
0
100
AcDbLine
 62
2
  6
CONTINUOUS
 10
12.5346752556
 20
2.5135023256
 11
12.5346752556
 21
2.4937023146
  0
ARC
  5
2EE
100
AcDbEntity
  8
0
100
AcDbCircle
 62
2
  6
CONTINUOUS
 10
12.5371502552
 20
2.4937023128
 40
0.0024749995
100
AcDbArc
 50
179.9999571957
 51
270.0000428043
  0
LINE
  5
2EF
100
AcDbEntity
  8
0
100
AcDbLine
 62
2
  6
CONTINUOUS
 10
12.537150257
 20
2.4912273132
 11
12.6424313154
 21
2.4912273132
  0
ARC
  5
2F0
100
AcDbEntity
  8
0
100
AcDbCircle
 62
2
  6
CONTINUOUS
 10
12.6424313172
 20
2.4937023128
 40
0.0024749995
100
AcDbArc
 50
269.9999571957
 51
0.0000428043
  0
LINE
  5
2F1
100
AcDbEntity
  8
0
100
AcDbLine
 62
2
  6
CONTINUOUS
 10
12.6449063168
 20
2.4937023146
 11
12.6449063168
 21
2.5135023256
  0
ARC
  5
2F2
100
AcDbEntity
  8
0
100
AcDbCircle
 62
2
  6
CONTINUOUS
 10
12.6424313172
 20
2.5135023274
 40
0.0024749995
100
AcDbArc
 50
359.9999571957
 51
90.0000428043
  0
LINE
  5
2F3
100
AcDbEntity
  8
0
100
AcDbLine
 62
2
  6
CONTINUOUS
 10
12.6424313154
 20
2.515977327
 11
12.6224153043
 21
2.515977327
  0
ARC
  5
2F4
100
AcDbEntity
  8
0
100
AcDbCircle
 62
2
  6
CONTINUOUS
 10
12.6224154248
 20
2.518451368
 40
0.002474041
100
AcDbArc
 50
212.9056413127
 51
269.9972091756
  0
LINE
  5
2F5
100
AcDbEntity
  8
0
100
AcDbLine
 62
2
  6
CONTINUOUS
 10
12.6203383031
 20
2.5171073276
 11
12.5725822767
 21
2.5909023685
  0
ARC
  5
2F6
100
AcDbEntity
  8
0
100
AcDbCircle
 62
2
  6
CONTINUOUS
 10
12.570504655
 20
2.589557409
 40
0.0024749602
100
AcDbArc
 50
32.9172174468
 51
90.0087853097
  0
LINE
  5
2F7
100
AcDbEntity
  8
0
100
AcDbLine
 62
2
  6
CONTINUOUS
 10
12.5705042755
 20
2.5920323691
 11
12.5133292438
 21
2.5920323691
  0
ARC
  5
2F8
100
AcDbEntity
  8
0
100
AcDbCircle
 62
2
  6
CONTINUOUS
 10
12.5133291735
 20
2.5895571688
 40
0.0024752003
100
AcDbArc
 50
89.9983726451
 51
147.602165307
  0
LINE
  5
2F9
100
AcDbEntity
  8
0
100
AcDbLine
 62
2
  6
CONTINUOUS
 10
12.5112392426
 20
2.5908833685
 11
12.4644392167
 21
2.5171263276
  0
ARC
  5
2FA
100
AcDbEntity
  8
0
100
AcDbCircle
 62
2
  6
CONTINUOUS
 10
12.4623492858
 20
2.5184525273
 40
0.0024752003
100
AcDbArc
 50
269.9983726451
 51
327.602165307
  0
LINE
  5
2FB
100
AcDbEntity
  8
0
100
AcDbLine
 62
2
  6
CONTINUOUS
 10
12.4623492155
 20
2.515977327
 11
12.4394882028
 21
2.515977327
  0
ARC
  5
2FC
100
AcDbEntity
  8
0
100
AcDbCircle
 62
2
  6
CONTINUOUS
 10
12.439488201
 20
2.5135023274
 40
0.0024749995
100
AcDbArc
 50
89.9999571957
 51
180.0000428043
  0
LINE
  5
2FD
100
AcDbEntity
  8
0
100
AcDbLine
 62
2
  6
CONTINUOUS
 10
12.4370132015
 20
2.5135023256
 11
12.4370132015
 21
2.4937023146
  0
ARC
  5
2FE
100
AcDbEntity
  8
0
100
AcDbCircle
 62
2
  6
CONTINUOUS
 10
12.439488201
 20
2.4937023128
 40
0.0024749995
100
AcDbArc
 50
179.9999571957
 51
270.0000428043
  0
LINE
  5
2FF
100
AcDbEntity
  8
0
100
AcDbLine
 62
2
  6
CONTINUOUS
 10
12.4394882028
 20
2.4912273132
 11
12.5168642458
 21
2.4912273132
  0
ARC
  5
300
100
AcDbEntity
  8
0
100
AcDbCircle
 62
2
  6
CONTINUOUS
 10
12.5168642476
 20
2.4937023128
 40
0.0024749995
100
AcDbArc
 50
269.9999571957
 51
0.0000428043
  0
LINE
  5
301
100
AcDbEntity
  8
0
100
AcDbLine
 62
2
  6
CONTINUOUS
 10
12.5193392471
 20
2.4937023146
 11
12.5193392471
 21
2.5135023256
  0
ARC
  5
302
100
AcDbEntity
  8
0
100
AcDbCircle
 62
2
  6
CONTINUOUS
 10
12.5168642476
 20
2.5135023274
 40
0.0024749995
100
AcDbArc
 50
359.9999571957
 51
90.0000428043
  0
LINE
  5
303
100
AcDbEntity
  8
0
100
AcDbLine
 62
2
  6
CONTINUOUS
 10
12.5168642458
 20
2.515977327
 11
12.5055812395
 21
2.515977327
  0
ARC
  5
304
100
AcDbEntity
  8
0
100
AcDbCircle
 62
2
  6
CONTINUOUS
 10
12.5055811302
 20
2.518452367
 40
0.0024750401
100
AcDbArc
 50
147.6063258011
 51
270.0025305754
  0
LINE
  5
305
100
AcDbEntity
  8
0
100
AcDbLine
 62
2
  6
CONTINUOUS
 10
12.5034912383
 20
2.5197783291
 11
12.5090072414
 21
2.5284723339
  0
ARC
  5
306
100
AcDbEntity
  8
0
100
AcDbCircle
 62
2
  6
CONTINUOUS
 10
12.5110971723
 20
2.5271461342
 40
0.0024752003
100
AcDbArc
 50
89.998372645
 51
147.602165307
  0
LINE
  5
307
100
AcDbEntity
  8
0
100
AcDbLine
 62
2
  6
CONTINUOUS
 10
12.5110972426
 20
2.5296213345
 11
12.5459752619
 21
2.5296213345
  0
ARC
  5
308
100
AcDbEntity
  8
0
100
AcDbCircle
 62
2
  6
CONTINUOUS
 10
12.5459747223
 20
2.5271458744
 40
0.0024754602
100
AcDbArc
 50
32.8959418573
 51
89.9875097202
  0
LINE
  5
309
100
AcDbEntity
  8
0
100
AcDbLine
 62
2
  6
CONTINUOUS
 10
12.9205934696
 20
2.5920323691
 11
13.0210515254
 21
2.5920323691
  0
ARC
  5
30A
100
AcDbEntity
  8
0
100
AcDbCircle
 62
2
  6
CONTINUOUS
 10
13.0210516601
 20
2.5895582013
 40
0.0024741678
100
AcDbArc
 50
46.3477981899
 51
90.0031206038
  0
LINE
  5
30B
100
AcDbEntity
  8
0
100
AcDbLine
 62
2
  6
CONTINUOUS
 10
13.0227595263
 20
2.5913483688
 11
13.0827925596
 21
2.534068337
  0
ARC
  5
30C
100
AcDbEntity
  8
0
100
AcDbCircle
 62
2
  6
CONTINUOUS
 10
13.0845012605
 20
2.5358592748
 40
0.0024753014
100
AcDbArc
 50
226.3461263059
 51
0.0014637321
  0
LINE
  5
30D
100
AcDbEntity
  8
0
100
AcDbLine
 62
2
  6
CONTINUOUS
 10
13.0869765619
 20
2.535859338
 11
13.0869765619
 21
2.564807354
  0
ARC
  5
30E
100
AcDbEntity
  8
0
100
AcDbCircle
 62
2
  6
CONTINUOUS
 10
13.0845015624
 20
2.5648073559
 40
0.0024749995
100
AcDbArc
 50
359.9999571957
 51
90.0000428043
  0
LINE
  5
30F
100
AcDbEntity
  8
0
100
AcDbLine
 62
2
  6
CONTINUOUS
 10
13.0845015605
 20
2.5672823554
 11
13.0657255501
 21
2.5672823554
  0
ARC
  5
310
100
AcDbEntity
  8
0
100
AcDbCircle
 62
2
  6
CONTINUOUS
 10
13.0657255483
 20
2.5697573549
 40
0.0024749995
100
AcDbArc
 50
179.9999571957
 51
270.0000428043
  0
LINE
  5
311
100
AcDbEntity
  8
0
100
AcDbLine
 62
2
  6
CONTINUOUS
 10
13.0632505488
 20
2.5697573568
 11
13.0632505488
 21
2.5895573678
  0
ARC
  5
312
100
AcDbEntity
  8
0
100
AcDbCircle
 62
2
  6
CONTINUOUS
 10
13.0657255483
 20
2.5895573696
 40
0.0024749995
100
AcDbArc
 50
89.9999571957
 51
180.0000428043
  0
LINE
  5
313
100
AcDbEntity
  8
0
100
AcDbLine
 62
2
  6
CONTINUOUS
 10
13.0657255501
 20
2.5920323691
 11
13.1397265912
 21
2.5920323691
  0
ARC
  5
314
100
AcDbEntity
  8
0
100
AcDbCircle
 62
2
  6
CONTINUOUS
 10
13.139726593
 20
2.5895573696
 40
0.0024749995
100
AcDbArc
 50
359.9999571957
 51
90.0000428043
  0
LINE
  5
315
100
AcDbEntity
  8
0
100
AcDbLine
 62
2
  6
CONTINUOUS
 10
13.1422015925
 20
2.5895573678
 11
13.1422015925
 21
2.5697573568
  0
ARC
  5
316
100
AcDbEntity
  8
0
100
AcDbCircle
 62
2
  6
CONTINUOUS
 10
13.139726593
 20
2.5697573549
 40
0.0024749995
100
AcDbArc
 50
269.9999571957
 51
0.0000428042
  0
LINE
  5
317
100
AcDbEntity
  8
0
100
AcDbLine
 62
2
  6
CONTINUOUS
 10
13.1397265912
 20
2.5672823554
 11
13.1217935812
 21
2.5672823554
  0
ARC
  5
318
100
AcDbEntity
  8
0
100
AcDbCircle
 62
2
  6
CONTINUOUS
 10
13.1217935794
 20
2.5648073559
 40
0.0024749995
100
AcDbArc
 50
89.9999571957
 51
180.0000428042
  0
LINE
  5
319
100
AcDbEntity
  8
0
100
AcDbLine
 62
2
  6
CONTINUOUS
 10
13.1193185799
 20
2.564807354
 11
13.1193185799
 21
2.4937023146
  0
ARC
  5
31A
100
AcDbEntity
  8
0
100
AcDbCircle
 62
2
  6
CONTINUOUS
 10
13.1168435803
 20
2.4937023128
 40
0.0024749995
100
AcDbArc
 50
269.9999571957
 51
0.0000428043
  0
LINE
  5
31B
100
AcDbEntity
  8
0
100
AcDbLine
 62
2
  6
CONTINUOUS
 10
13.1168435785
 20
2.4912273132
 11
13.0426375373
 21
2.4912273132
  0
ARC
  5
31C
100
AcDbEntity
  8
0
100
AcDbCircle
 62
2
  6
CONTINUOUS
 10
13.0426374026
 20
2.493701481
 40
0.0024741678
100
AcDbArc
 50
226.3477981898
 51
270.0031206038
  0
LINE
  5
31D
100
AcDbEntity
  8
0
100
AcDbLine
 62
2
  6
CONTINUOUS
 10
13.0409295364
 20
2.4919113136
 11
12.9776495013
 21
2.5522893471
  0
ARC
  5
31E
100
AcDbEntity
  8
0
100
AcDbCircle
 62
2
  6
CONTINUOUS
 10
12.9759408003
 20
2.5504984093
 40
0.0024753014
100
AcDbArc
 50
46.3461263059
 51
180.0014637321
  0
LINE
  5
31F
100
AcDbEntity
  8
0
100
AcDbLine
 62
2
  6
CONTINUOUS
 10
12.973465499
 20
2.5504983461
 11
12.973465499
 21
2.5184523283
  0
ARC
  5
320
100
AcDbEntity
  8
0
100
AcDbCircle
 62
2
  6
CONTINUOUS
 10
12.9759404985
 20
2.5184523265
 40
0.0024749995
100
AcDbArc
 50
179.9999571957
 51
270.0000428043
  0
LINE
  5
321
100
AcDbEntity
  8
0
100
AcDbLine
 62
2
  6
CONTINUOUS
 10
12.9759405003
 20
2.515977327
 11
12.9962575116
 21
2.515977327
  0
ARC
  5
322
100
AcDbEntity
  8
0
100
AcDbCircle
 62
2
  6
CONTINUOUS
 10
12.9962575135
 20
2.5135023274
 40
0.0024749995
100
AcDbArc
 50
359.9999571957
 51
90.0000428043
  0
LINE
  5
323
100
AcDbEntity
  8
0
100
AcDbLine
 62
2
  6
CONTINUOUS
 10
12.998732513
 20
2.5135023256
 11
12.998732513
 21
2.4937023146
  0
ARC
  5
324
100
AcDbEntity
  8
0
100
AcDbCircle
 62
2
  6
CONTINUOUS
 10
12.9962575135
 20
2.4937023128
 40
0.0024749995
100
AcDbArc
 50
269.9999571957
 51
0.0000428043
  0
LINE
  5
325
100
AcDbEntity
  8
0
100
AcDbLine
 62
2
  6
CONTINUOUS
 10
12.9962575116
 20
2.4912273132
 11
12.9205934696
 21
2.4912273132
  0
ARC
  5
326
100
AcDbEntity
  8
0
100
AcDbCircle
 62
2
  6
CONTINUOUS
 10
12.9205934678
 20
2.4937023128
 40
0.0024749995
100
AcDbArc
 50
179.9999571957
 51
270.0000428043
  0
LINE
  5
327
100
AcDbEntity
  8
0
100
AcDbLine
 62
2
  6
CONTINUOUS
 10
12.9181184683
 20
2.4937023146
 11
12.9181184683
 21
2.5135023256
  0
ARC
  5
328
100
AcDbEntity
  8
0
100
AcDbCircle
 62
2
  6
CONTINUOUS
 10
12.9205934678
 20
2.5135023274
 40
0.0024749995
100
AcDbArc
 50
89.9999571957
 51
180.0000428042
  0
LINE
  5
329
100
AcDbEntity
  8
0
100
AcDbLine
 62
2
  6
CONTINUOUS
 10
12.9205934696
 20
2.515977327
 11
12.93923948
 21
2.515977327
  0
ARC
  5
32A
100
AcDbEntity
  8
0
100
AcDbCircle
 62
2
  6
CONTINUOUS
 10
12.9392394818
 20
2.5184523265
 40
0.0024749995
100
AcDbArc
 50
269.9999571957
 51
0.0000428043
  0
LINE
  5
32B
100
AcDbEntity
  8
0
100
AcDbLine
 62
2
  6
CONTINUOUS
 10
12.9417144814
 20
2.5184523283
 11
12.9417144814
 21
2.564807354
  0
ARC
  5
32C
100
AcDbEntity
  8
0
100
AcDbCircle
 62
2
  6
CONTINUOUS
 10
12.9392394818
 20
2.5648073559
 40
0.0024749995
100
AcDbArc
 50
359.9999571957
 51
90.0000428043
  0
LINE
  5
32D
100
AcDbEntity
  8
0
100
AcDbLine
 62
2
  6
CONTINUOUS
 10
12.93923948
 20
2.5672823554
 11
12.9205934696
 21
2.5672823554
  0
ARC
  5
32E
100
AcDbEntity
  8
0
100
AcDbCircle
 62
2
  6
CONTINUOUS
 10
12.9205934678
 20
2.5697573549
 40
0.0024749995
100
AcDbArc
 50
179.9999571957
 51
270.0000428043
  0
LINE
  5
32F
100
AcDbEntity
  8
0
100
AcDbLine
 62
2
  6
CONTINUOUS
 10
12.9181184683
 20
2.5697573568
 11
12.9181184683
 21
2.5895573678
  0
ARC
  5
330
100
AcDbEntity
  8
0
100
AcDbCircle
 62
2
  6
CONTINUOUS
 10
12.9205934678
 20
2.5895573696
 40
0.0024749995
100
AcDbArc
 50
89.9999571957
 51
180.0000428042
  0
LINE
  5
331
100
AcDbEntity
  8
0
100
AcDbLine
 62
2
  6
CONTINUOUS
 10
13.2934226764
 20
2.5324773361
 11
13.2582556569
 21
2.5324773361
  0
ARC
  5
332
100
AcDbEntity
  8
0
100
AcDbCircle
 62
2
  6
CONTINUOUS
 10
13.2582556551
 20
2.5300023366
 40
0.0024749995
100
AcDbArc
 50
89.9999571957
 51
180.0000428043
  0
LINE
  5
333
100
AcDbEntity
  8
0
100
AcDbLine
 62
2
  6
CONTINUOUS
 10
13.2557806555
 20
2.5300023347
 11
13.2557806555
 21
2.5184523283
  0
ARC
  5
334
100
AcDbEntity
  8
0
100
AcDbCircle
 62
2
  6
CONTINUOUS
 10
13.2582556551
 20
2.5184523265
 40
0.0024749995
100
AcDbArc
 50
179.9999571957
 51
270.0000428043
  0
LINE
  5
335
100
AcDbEntity
  8
0
100
AcDbLine
 62
2
  6
CONTINUOUS
 10
13.2582556569
 20
2.515977327
 11
13.3232596929
 21
2.515977327
  0
ARC
  5
336
100
AcDbEntity
  8
0
100
AcDbCircle
 62
2
  6
CONTINUOUS
 10
13.3232596948
 20
2.5184523265
 40
0.0024749995
100
AcDbArc
 50
269.9999571957
 51
0.0000428043
  0
LINE
  5
337
100
AcDbEntity
  8
0
100
AcDbLine
 62
2
  6
CONTINUOUS
 10
13.3257346943
 20
2.5184523283
 11
13.3257346943
 21
2.5267023329
  0
ARC
  5
338
100
AcDbEntity
  8
0
100
AcDbCircle
 62
2
  6
CONTINUOUS
 10
13.3282096938
 20
2.5267023348
 40
0.0024749995
100
AcDbArc
 50
89.9999571957
 51
180.0000428043
  0
LINE
  5
339
100
AcDbEntity
  8
0
100
AcDbLine
 62
2
  6
CONTINUOUS
 10
13.3282096957
 20
2.5291773343
 11
13.3705287192
 21
2.5291773343
  0
ARC
  5
33A
100
AcDbEntity
  8
0
100
AcDbCircle
 62
2
  6
CONTINUOUS
 10
13.370528721
 20
2.5267023348
 40
0.0024749995
100
AcDbArc
 50
359.9999571957
 51
90.0000428043
  0
LINE
  5
33B
100
AcDbEntity
  8
0
100
AcDbLine
 62
2
  6
CONTINUOUS
 10
13.3730037205
 20
2.5267023329
 11
13.3730037205
 21
2.4937023146
  0
ARC
  5
33C
100
AcDbEntity
  8
0
100
AcDbCircle
 62
2
  6
CONTINUOUS
 10
13.370528721
 20
2.4937023128
 40
0.0024749995
100
AcDbArc
 50
269.9999571957
 51
0.0000428043
  0
LINE
  5
33D
100
AcDbEntity
  8
0
100
AcDbLine
 62
2
  6
CONTINUOUS
 10
13.3705287192
 20
2.4912273132
 11
13.1673166065
 21
2.4912273132
  0
ARC
  5
33E
100
AcDbEntity
  8
0
100
AcDbCircle
 62
2
  6
CONTINUOUS
 10
13.1673166046
 20
2.4937023128
 40
0.0024749995
100
AcDbArc
 50
179.9999571957
 51
270.0000428043
  0
LINE
  5
33F
100
AcDbEntity
  8
0
100
AcDbLine
 62
2
  6
CONTINUOUS
 10
13.1648416051
 20
2.4937023146
 11
13.1648416051
 21
2.5135023256
  0
ARC
  5
340
100
AcDbEntity
  8
0
100
AcDbCircle
 62
2
  6
CONTINUOUS
 10
13.1673166046
 20
2.5135023274
 40
0.0024749995
100
AcDbArc
 50
89.9999571957
 51
180.0000428043
  0
LINE
  5
341
100
AcDbEntity
  8
0
100
AcDbLine
 62
2
  6
CONTINUOUS
 10
13.1673166065
 20
2.515977327
 11
13.1912396197
 21
2.515977327
  0
ARC
  5
342
100
AcDbEntity
  8
0
100
AcDbCircle
 62
2
  6
CONTINUOUS
 10
13.1912396216
 20
2.5184523265
 40
0.0024749995
100
AcDbArc
 50
269.9999571957
 51
0.0000428042
  0
LINE
  5
343
100
AcDbEntity
  8
0
100
AcDbLine
 62
2
  6
CONTINUOUS
 10
13.1937146211
 20
2.5184523283
 11
13.1937146211
 21
2.564807354
  0
ARC
  5
344
100
AcDbEntity
  8
0
100
AcDbCircle
 62
2
  6
CONTINUOUS
 10
13.1912396216
 20
2.5648073559
 40
0.0024749995
100
AcDbArc
 50
359.9999571957
 51
90.0000428043
  0
LINE
  5
345
100
AcDbEntity
  8
0
100
AcDbLine
 62
2
  6
CONTINUOUS
 10
13.1912396197
 20
2.5672823554
 11
13.1673166065
 21
2.5672823554
  0
ARC
  5
346
100
AcDbEntity
  8
0
100
AcDbCircle
 62
2
  6
CONTINUOUS
 10
13.1673166046
 20
2.5697573549
 40
0.0024749995
100
AcDbArc
 50
179.9999571957
 51
270.0000428043
  0
LINE
  5
347
100
AcDbEntity
  8
0
100
AcDbLine
 62
2
  6
CONTINUOUS
 10
13.1648416051
 20
2.5697573568
 11
13.1648416051
 21
2.5895573678
  0
ARC
  5
348
100
AcDbEntity
  8
0
100
AcDbCircle
 62
2
  6
CONTINUOUS
 10
13.1673166046
 20
2.5895573696
 40
0.0024749995
100
AcDbArc
 50
89.9999571957
 51
180.0000428043
  0
LINE
  5
349
100
AcDbEntity
  8
0
100
AcDbLine
 62
2
  6
CONTINUOUS
 10
13.1673166065
 20
2.5920323691
 11
13.3691097184
 21
2.5920323691
  0
ARC
  5
34A
100
AcDbEntity
  8
0
100
AcDbCircle
 62
2
  6
CONTINUOUS
 10
13.3691097202
 20
2.5895573696
 40
0.0024749995
100
AcDbArc
 50
359.9999571957
 51
90.0000428043
  0
LINE
  5
34B
100
AcDbEntity
  8
0
100
AcDbLine
 62
2
  6
CONTINUOUS
 10
13.3715847197
 20
2.5895573678
 11
13.3715847197
 21
2.5565573495
  0
ARC
  5
34C
100
AcDbEntity
  8
0
100
AcDbCircle
 62
2
  6
CONTINUOUS
 10
13.3691097202
 20
2.5565573476
 40
0.0024749995
100
AcDbArc
 50
269.9999571957
 51
0.0000428042
  0
LINE
  5
34D
100
AcDbEntity
  8
0
100
AcDbLine
 62
2
  6
CONTINUOUS
 10
13.3691097184
 20
2.5540823481
 11
13.3272456952
 21
2.5540823481
  0
ARC
  5
34E
100
AcDbEntity
  8
0
100
AcDbCircle
 62
2
  6
CONTINUOUS
 10
13.3272456933
 20
2.5565573476
 40
0.0024749995
100
AcDbArc
 50
179.9999571957
 51
270.0000428043
  0
LINE
  5
34F
100
AcDbEntity
  8
0
100
AcDbLine
 62
2
  6
CONTINUOUS
 10
13.3247706938
 20
2.5565573495
 11
13.3247706938
 21
2.564807354
  0
ARC
  5
350
100
AcDbEntity
  8
0
100
AcDbCircle
 62
2
  6
CONTINUOUS
 10
13.3222956943
 20
2.5648073559
 40
0.0024749995
100
AcDbArc
 50
359.9999571957
 51
90.0000428043
  0
LINE
  5
351
100
AcDbEntity
  8
0
100
AcDbLine
 62
2
  6
CONTINUOUS
 10
13.3222956924
 20
2.5672823554
 11
13.2582556569
 21
2.5672823554
  0
ARC
  5
352
100
AcDbEntity
  8
0
100
AcDbCircle
 62
2
  6
CONTINUOUS
 10
13.2582556551
 20
2.5648073559
 40
0.0024749995
100
AcDbArc
 50
89.9999571957
 51
180.0000428043
  0
LINE
  5
353
100
AcDbEntity
  8
0
100
AcDbLine
 62
2
  6
CONTINUOUS
 10
13.2557806555
 20
2.564807354
 11
13.2557806555
 21
2.5532573476
  0
ARC
  5
354
100
AcDbEntity
  8
0
100
AcDbCircle
 62
2
  6
CONTINUOUS
 10
13.2582556551
 20
2.5532573458
 40
0.0024749995
100
AcDbArc
 50
179.9999571957
 51
270.0000428043
  0
LINE
  5
355
100
AcDbEntity
  8
0
100
AcDbLine
 62
2
  6
CONTINUOUS
 10
13.2582556569
 20
2.5507823463
 11
13.2934226764
 21
2.5507823463
  0
ARC
  5
356
100
AcDbEntity
  8
0
100
AcDbCircle
 62
2
  6
CONTINUOUS
 10
13.2934226783
 20
2.5483073467
 40
0.0024749995
100
AcDbArc
 50
359.9999571957
 51
90.0000428043
  0
LINE
  5
357
100
AcDbEntity
  8
0
100
AcDbLine
 62
2
  6
CONTINUOUS
 10
13.2958976778
 20
2.5483073449
 11
13.2958976778
 21
2.5349523375
  0
ARC
  5
358
100
AcDbEntity
  8
0
100
AcDbCircle
 62
2
  6
CONTINUOUS
 10
13.2934226783
 20
2.5349523356
 40
0.0024749995
100
AcDbArc
 50
269.9999571957
 51
0.0000428042
  0
LINE
  5
359
100
AcDbEntity
  8
0
100
AcDbLine
 62
2
  6
CONTINUOUS
 10
13.7286871589
 20
2.5350697372
 11
13.7286871589
 21
2.5456869438
  0
LINE
  5
35A
100
AcDbEntity
  8
0
100
AcDbLine
 62
2
  6
CONTINUOUS
 10
13.7086871478
 20
2.5004302075
 11
13.7086871478
 21
2.5803264735
  0
LINE
  5
35B
100
AcDbEntity
  8
0
100
AcDbLine
 62
2
  6
CONTINUOUS
 10
13.6886871368
 20
2.4843919416
 11
13.6886871368
 21
2.5963647394
  0
LINE
  5
35C
100
AcDbEntity
  8
0
100
AcDbLine
 62
2
  6
CONTINUOUS
 10
13.6686871257
 20
2.4726017898
 11
13.6686871257
 21
2.6081548911
  0
LINE
  5
35D
100
AcDbEntity
  8
0
100
AcDbLine
 62
2
  6
CONTINUOUS
 10
13.6486871146
 20
2.4628062688
 11
13.6486871146
 21
2.6179504122
  0
LINE
  5
35E
100
AcDbEntity
  8
0
100
AcDbLine
 62
2
  6
CONTINUOUS
 10
13.6286871035
 20
2.4541253507
 11
13.6286871035
 21
2.5062483056
  0
LINE
  5
35F
100
AcDbEntity
  8
0
100
AcDbLine
 62
2
  6
CONTINUOUS
 10
13.6286871035
 20
2.5301143348
 11
13.6286871035
 21
2.6266313303
  0
LINE
  5
360
100
AcDbEntity
  8
0
100
AcDbLine
 62
2
  6
CONTINUOUS
 10
13.6086870924
 20
2.4465537903
 11
13.6086870924
 21
2.4918774918
  0
LINE
  5
361
100
AcDbEntity
  8
0
100
AcDbLine
 62
2
  6
CONTINUOUS
 10
13.6086870924
 20
2.5165781173
 11
13.6086870924
 21
2.6342028907
  0
LINE
  5
362
100
AcDbEntity
  8
0
100
AcDbLine
 62
2
  6
CONTINUOUS
 10
13.5886870813
 20
2.4398033466
 11
13.5886870813
 21
2.4912273132
  0
LINE
  5
363
100
AcDbEntity
  8
0
100
AcDbLine
 62
2
  6
CONTINUOUS
 10
13.5886870813
 20
2.5391840845
 11
13.5886870813
 21
2.5454298327
  0
LINE
  5
364
100
AcDbEntity
  8
0
100
AcDbLine
 62
2
  6
CONTINUOUS
 10
13.5886870813
 20
2.5862063472
 11
13.5886870813
 21
2.6409533343
  0
LINE
  5
365
100
AcDbEntity
  8
0
100
AcDbLine
 62
2
  6
CONTINUOUS
 10
13.5686870702
 20
2.4334702189
 11
13.5686870702
 21
2.4912273132
  0
LINE
  5
366
100
AcDbEntity
  8
0
100
AcDbLine
 62
2
  6
CONTINUOUS
 10
13.5686870702
 20
2.5906587765
 11
13.5686870702
 21
2.647286462
  0
LINE
  5
367
100
AcDbEntity
  8
0
100
AcDbLine
 62
2
  6
CONTINUOUS
 10
13.5486870591
 20
2.4278968124
 11
13.5486870591
 21
2.4937461006
  0
LINE
  5
368
100
AcDbEntity
  8
0
100
AcDbLine
 62
2
  6
CONTINUOUS
 10
13.5486870591
 20
2.5920323691
 11
13.5486870591
 21
2.6528598686
  0
LINE
  5
369
100
AcDbEntity
  8
0
100
AcDbLine
 62
2
  6
CONTINUOUS
 10
13.528687048
 20
2.4225427674
 11
13.528687048
 21
2.5270426993
  0
LINE
  5
36A
100
AcDbEntity
  8
0
100
AcDbLine
 62
2
  6
CONTINUOUS
 10
13.528687048
 20
2.5505166259
 11
13.528687048
 21
2.5668657091
  0
LINE
  5
36B
100
AcDbEntity
  8
0
100
AcDbLine
 62
2
  6
CONTINUOUS
 10
13.528687048
 20
2.5920323691
 11
13.528687048
 21
2.6582139136
  0
LINE
  5
36C
100
AcDbEntity
  8
0
100
AcDbLine
 62
2
  6
CONTINUOUS
 10
13.5086870369
 20
2.4177306791
 11
13.5086870369
 21
2.4912273132
  0
LINE
  5
36D
100
AcDbEntity
  8
0
100
AcDbLine
 62
2
  6
CONTINUOUS
 10
13.5086870369
 20
2.5159553269
 11
13.5086870369
 21
2.5306043351
  0
LINE
  5
36E
100
AcDbEntity
  8
0
100
AcDbLine
 62
2
  6
CONTINUOUS
 10
13.5086870369
 20
2.5496073456
 11
13.5086870369
 21
2.5672823554
  0
LINE
  5
36F
100
AcDbEntity
  8
0
100
AcDbLine
 62
2
  6
CONTINUOUS
 10
13.5086870369
 20
2.5920323691
 11
13.5086870369
 21
2.6630260019
  0
LINE
  5
370
100
AcDbEntity
  8
0
100
AcDbLine
 62
2
  6
CONTINUOUS
 10
13.4886870258
 20
2.4131795254
 11
13.4886870258
 21
2.4912273132
  0
LINE
  5
371
100
AcDbEntity
  8
0
100
AcDbLine
 62
2
  6
CONTINUOUS
 10
13.4886870258
 20
2.5159553269
 11
13.4886870258
 21
2.5306043351
  0
LINE
  5
372
100
AcDbEntity
  8
0
100
AcDbLine
 62
2
  6
CONTINUOUS
 10
13.4886870258
 20
2.5496073456
 11
13.4886870258
 21
2.5672823554
  0
LINE
  5
373
100
AcDbEntity
  8
0
100
AcDbLine
 62
2
  6
CONTINUOUS
 10
13.4886870258
 20
2.5920323691
 11
13.4886870258
 21
2.6675771555
  0
LINE
  5
374
100
AcDbEntity
  8
0
100
AcDbLine
 62
2
  6
CONTINUOUS
 10
13.4686870147
 20
2.4088819672
 11
13.4686870147
 21
2.4912273132
  0
LINE
  5
375
100
AcDbEntity
  8
0
100
AcDbLine
 62
2
  6
CONTINUOUS
 10
13.4686870147
 20
2.5920323691
 11
13.4686870147
 21
2.6718747138
  0
LINE
  5
376
100
AcDbEntity
  8
0
100
AcDbLine
 62
2
  6
CONTINUOUS
 10
13.4486870037
 20
2.4050092072
 11
13.4486870037
 21
2.4912273132
  0
LINE
  5
377
100
AcDbEntity
  8
0
100
AcDbLine
 62
2
  6
CONTINUOUS
 10
13.4486870037
 20
2.5920323691
 11
13.4486870037
 21
2.6757474738
  0
LINE
  5
378
100
AcDbEntity
  8
0
100
AcDbLine
 62
2
  6
CONTINUOUS
 10
13.4286869926
 20
2.4011364471
 11
13.4286869926
 21
2.4912273132
  0
LINE
  5
379
100
AcDbEntity
  8
0
100
AcDbLine
 62
2
  6
CONTINUOUS
 10
13.4286869926
 20
2.5920323691
 11
13.4286869926
 21
2.6796202339
  0
LINE
  5
37A
100
AcDbEntity
  8
0
100
AcDbLine
 62
2
  6
CONTINUOUS
 10
13.4086869815
 20
2.3980226662
 11
13.4086869815
 21
2.4912273132
  0
LINE
  5
37B
100
AcDbEntity
  8
0
100
AcDbLine
 62
2
  6
CONTINUOUS
 10
13.4086869815
 20
2.515977327
 11
13.4086869815
 21
2.5672823554
  0
LINE
  5
37C
100
AcDbEntity
  8
0
100
AcDbLine
 62
2
  6
CONTINUOUS
 10
13.4086869815
 20
2.5920323691
 11
13.4086869815
 21
2.6827340148
  0
LINE
  5
37D
100
AcDbEntity
  8
0
100
AcDbLine
 62
2
  6
CONTINUOUS
 10
13.3886869704
 20
2.3950052774
 11
13.3886869704
 21
2.6857514036
  0
LINE
  5
37E
100
AcDbEntity
  8
0
100
AcDbLine
 62
2
  6
CONTINUOUS
 10
13.3686869593
 20
2.3919878885
 11
13.3686869593
 21
2.4912273132
  0
LINE
  5
37F
100
AcDbEntity
  8
0
100
AcDbLine
 62
2
  6
CONTINUOUS
 10
13.3686869593
 20
2.5291773343
 11
13.3686869593
 21
2.5540823481
  0
LINE
  5
380
100
AcDbEntity
  8
0
100
AcDbLine
 62
2
  6
CONTINUOUS
 10
13.3686869593
 20
2.5920323691
 11
13.3686869593
 21
2.6887687924
  0
LINE
  5
381
100
AcDbEntity
  8
0
100
AcDbLine
 62
2
  6
CONTINUOUS
 10
13.3486869482
 20
2.3889704997
 11
13.3486869482
 21
2.4912273132
  0
LINE
  5
382
100
AcDbEntity
  8
0
100
AcDbLine
 62
2
  6
CONTINUOUS
 10
13.3486869482
 20
2.5291773343
 11
13.3486869482
 21
2.5540823481
  0
LINE
  5
383
100
AcDbEntity
  8
0
100
AcDbLine
 62
2
  6
CONTINUOUS
 10
13.3486869482
 20
2.5920323691
 11
13.3486869482
 21
2.6917861813
  0
LINE
  5
384
100
AcDbEntity
  8
0
100
AcDbLine
 62
2
  6
CONTINUOUS
 10
13.3286869371
 20
2.3859531109
 11
13.3286869371
 21
2.4912273132
  0
LINE
  5
385
100
AcDbEntity
  8
0
100
AcDbLine
 62
2
  6
CONTINUOUS
 10
13.3286869371
 20
2.5291773343
 11
13.3286869371
 21
2.5540823481
  0
LINE
  5
386
100
AcDbEntity
  8
0
100
AcDbLine
 62
2
  6
CONTINUOUS
 10
13.3286869371
 20
2.5920323691
 11
13.3286869371
 21
2.6948035701
  0
LINE
  5
387
100
AcDbEntity
  8
0
100
AcDbLine
 62
2
  6
CONTINUOUS
 10
13.308686926
 20
2.3833355437
 11
13.308686926
 21
2.4912273132
  0
LINE
  5
388
100
AcDbEntity
  8
0
100
AcDbLine
 62
2
  6
CONTINUOUS
 10
13.308686926
 20
2.515977327
 11
13.308686926
 21
2.5672823554
  0
LINE
  5
389
100
AcDbEntity
  8
0
100
AcDbLine
 62
2
  6
CONTINUOUS
 10
13.308686926
 20
2.5920323691
 11
13.308686926
 21
2.6974211373
  0
LINE
  5
38A
100
AcDbEntity
  8
0
100
AcDbLine
 62
2
  6
CONTINUOUS
 10
13.2886869149
 20
2.3812612684
 11
13.2886869149
 21
2.4912273132
  0
LINE
  5
38B
100
AcDbEntity
  8
0
100
AcDbLine
 62
2
  6
CONTINUOUS
 10
13.2886869149
 20
2.515977327
 11
13.2886869149
 21
2.5324773361
  0
LINE
  5
38C
100
AcDbEntity
  8
0
100
AcDbLine
 62
2
  6
CONTINUOUS
 10
13.2886869149
 20
2.5507823463
 11
13.2886869149
 21
2.5672823554
  0
LINE
  5
38D
100
AcDbEntity
  8
0
100
AcDbLine
 62
2
  6
CONTINUOUS
 10
13.2886869149
 20
2.5920323691
 11
13.2886869149
 21
2.6994954125
  0
LINE
  5
38E
100
AcDbEntity
  8
0
100
AcDbLine
 62
2
  6
CONTINUOUS
 10
13.2686869038
 20
2.3791869932
 11
13.2686869038
 21
2.4912273132
  0
LINE
  5
38F
100
AcDbEntity
  8
0
100
AcDbLine
 62
2
  6
CONTINUOUS
 10
13.2686869038
 20
2.515977327
 11
13.2686869038
 21
2.5324773361
  0
LINE
  5
390
100
AcDbEntity
  8
0
100
AcDbLine
 62
2
  6
CONTINUOUS
 10
13.2686869038
 20
2.5507823463
 11
13.2686869038
 21
2.5672823554
  0
LINE
  5
391
100
AcDbEntity
  8
0
100
AcDbLine
 62
2
  6
CONTINUOUS
 10
13.2686869038
 20
2.5920323691
 11
13.2686869038
 21
2.7015696878
  0
LINE
  5
392
100
AcDbEntity
  8
0
100
AcDbLine
 62
2
  6
CONTINUOUS
 10
13.2486868927
 20
2.377112718
 11
13.2486868927
 21
2.4912273132
  0
LINE
  5
393
100
AcDbEntity
  8
0
100
AcDbLine
 62
2
  6
CONTINUOUS
 10
13.2486868927
 20
2.5920323691
 11
13.2486868927
 21
2.703643963
  0
LINE
  5
394
100
AcDbEntity
  8
0
100
AcDbLine
 62
2
  6
CONTINUOUS
 10
13.2286868817
 20
2.3750384428
 11
13.2286868817
 21
2.4912273132
  0
LINE
  5
395
100
AcDbEntity
  8
0
100
AcDbLine
 62
2
  6
CONTINUOUS
 10
13.2286868817
 20
2.5920323691
 11
13.2286868817
 21
2.7057182382
  0
LINE
  5
396
100
AcDbEntity
  8
0
100
AcDbLine
 62
2
  6
CONTINUOUS
 10
13.2086868706
 20
2.3729641676
 11
13.2086868706
 21
2.4912273132
  0
LINE
  5
397
100
AcDbEntity
  8
0
100
AcDbLine
 62
2
  6
CONTINUOUS
 10
13.2086868706
 20
2.5920323691
 11
13.2086868706
 21
2.7077925134
  0
LINE
  5
398
100
AcDbEntity
  8
0
100
AcDbLine
 62
2
  6
CONTINUOUS
 10
13.1886868595
 20
2.3712344456
 11
13.1886868595
 21
2.4912273132
  0
LINE
  5
399
100
AcDbEntity
  8
0
100
AcDbLine
 62
2
  6
CONTINUOUS
 10
13.1886868595
 20
2.515977327
 11
13.1886868595
 21
2.5672823554
  0
LINE
  5
39A
100
AcDbEntity
  8
0
100
AcDbLine
 62
2
  6
CONTINUOUS
 10
13.1886868595
 20
2.5920323691
 11
13.1886868595
 21
2.7095222354
  0
LINE
  5
39B
100
AcDbEntity
  8
0
100
AcDbLine
 62
2
  6
CONTINUOUS
 10
13.1686868484
 20
2.3699682418
 11
13.1686868484
 21
2.4912273132
  0
LINE
  5
39C
100
AcDbEntity
  8
0
100
AcDbLine
 62
2
  6
CONTINUOUS
 10
13.1686868484
 20
2.515977327
 11
13.1686868484
 21
2.5672823554
  0
LINE
  5
39D
100
AcDbEntity
  8
0
100
AcDbLine
 62
2
  6
CONTINUOUS
 10
13.1686868484
 20
2.5920323691
 11
13.1686868484
 21
2.7107884392
  0
LINE
  5
39E
100
AcDbEntity
  8
0
100
AcDbLine
 62
2
  6
CONTINUOUS
 10
13.1486868373
 20
2.3687020381
 11
13.1486868373
 21
2.7120546429
  0
LINE
  5
39F
100
AcDbEntity
  8
0
100
AcDbLine
 62
2
  6
CONTINUOUS
 10
13.1286868262
 20
2.3674358343
 11
13.1286868262
 21
2.5672823554
  0
LINE
  5
3A0
100
AcDbEntity
  8
0
100
AcDbLine
 62
2
  6
CONTINUOUS
 10
13.1286868262
 20
2.5920323691
 11
13.1286868262
 21
2.7133208466
  0
LINE
  5
3A1
100
AcDbEntity
  8
0
100
AcDbLine
 62
2
  6
CONTINUOUS
 10
13.1086868151
 20
2.3661696306
 11
13.1086868151
 21
2.4912273132
  0
LINE
  5
3A2
100
AcDbEntity
  8
0
100
AcDbLine
 62
2
  6
CONTINUOUS
 10
13.1086868151
 20
2.5920323691
 11
13.1086868151
 21
2.7145870504
  0
LINE
  5
3A3
100
AcDbEntity
  8
0
100
AcDbLine
 62
2
  6
CONTINUOUS
 10
13.088686804
 20
2.3649034269
 11
13.088686804
 21
2.4912273132
  0
LINE
  5
3A4
100
AcDbEntity
  8
0
100
AcDbLine
 62
2
  6
CONTINUOUS
 10
13.088686804
 20
2.5920323691
 11
13.088686804
 21
2.7158532541
  0
LINE
  5
3A5
100
AcDbEntity
  8
0
100
AcDbLine
 62
2
  6
CONTINUOUS
 10
13.0686867929
 20
2.3636739922
 11
13.0686867929
 21
2.4912273132
  0
LINE
  5
3A6
100
AcDbEntity
  8
0
100
AcDbLine
 62
2
  6
CONTINUOUS
 10
13.0686867929
 20
2.5475272398
 11
13.0686867929
 21
2.5672823554
  0
LINE
  5
3A7
100
AcDbEntity
  8
0
100
AcDbLine
 62
2
  6
CONTINUOUS
 10
13.0686867929
 20
2.5920323691
 11
13.0686867929
 21
2.7170826887
  0
LINE
  5
3A8
100
AcDbEntity
  8
0
100
AcDbLine
 62
2
  6
CONTINUOUS
 10
13.0486867818
 20
2.363143203
 11
13.0486867818
 21
2.4912273132
  0
LINE
  5
3A9
100
AcDbEntity
  8
0
100
AcDbLine
 62
2
  6
CONTINUOUS
 10
13.0486867818
 20
2.5666100882
 11
13.0486867818
 21
2.717613478
  0
LINE
  5
3AA
100
AcDbEntity
  8
0
100
AcDbLine
 62
2
  6
CONTINUOUS
 10
13.0286867707
 20
2.3626124138
 11
13.0286867707
 21
2.50359263
  0
LINE
  5
3AB
100
AcDbEntity
  8
0
100
AcDbLine
 62
2
  6
CONTINUOUS
 10
13.0286867707
 20
2.5856929366
 11
13.0286867707
 21
2.7181442672
  0
LINE
  5
3AC
100
AcDbEntity
  8
0
100
AcDbLine
 62
2
  6
CONTINUOUS
 10
13.0086867596
 20
2.3620816246
 11
13.0086867596
 21
2.5226754472
  0
LINE
  5
3AD
100
AcDbEntity
  8
0
100
AcDbLine
 62
2
  6
CONTINUOUS
 10
13.0086867596
 20
2.5920323691
 11
13.0086867596
 21
2.7186750564
  0
LINE
  5
3AE
100
AcDbEntity
  8
0
100
AcDbLine
 62
2
  6
CONTINUOUS
 10
12.9886867486
 20
2.3615508354
 11
12.9886867486
 21
2.4912273132
  0
LINE
  5
3AF
100
AcDbEntity
  8
0
100
AcDbLine
 62
2
  6
CONTINUOUS
 10
12.9886867486
 20
2.515977327
 11
12.9886867486
 21
2.5417582644
  0
LINE
  5
3B0
100
AcDbEntity
  8
0
100
AcDbLine
 62
2
  6
CONTINUOUS
 10
12.9886867486
 20
2.5920323691
 11
12.9886867486
 21
2.7192058456
  0
LINE
  5
3B1
100
AcDbEntity
  8
0
100
AcDbLine
 62
2
  6
CONTINUOUS
 10
12.9686867375
 20
2.3610200462
 11
12.9686867375
 21
2.4912273132
  0
LINE
  5
3B2
100
AcDbEntity
  8
0
100
AcDbLine
 62
2
  6
CONTINUOUS
 10
12.9686867375
 20
2.5920323691
 11
12.9686867375
 21
2.7197366348
  0
LINE
  5
3B3
100
AcDbEntity
  8
0
100
AcDbLine
 62
2
  6
CONTINUOUS
 10
12.9486867264
 20
2.360489257
 11
12.9486867264
 21
2.4912273132
  0
LINE
  5
3B4
100
AcDbEntity
  8
0
100
AcDbLine
 62
2
  6
CONTINUOUS
 10
12.9486867264
 20
2.5920323691
 11
12.9486867264
 21
2.720267424
  0
LINE
  5
3B5
100
AcDbEntity
  8
0
100
AcDbLine
 62
2
  6
CONTINUOUS
 10
12.9286867153
 20
2.3602836008
 11
12.9286867153
 21
2.4912273132
  0
LINE
  5
3B6
100
AcDbEntity
  8
0
100
AcDbLine
 62
2
  6
CONTINUOUS
 10
12.9286867153
 20
2.515977327
 11
12.9286867153
 21
2.5672823554
  0
LINE
  5
3B7
100
AcDbEntity
  8
0
100
AcDbLine
 62
2
  6
CONTINUOUS
 10
12.9286867153
 20
2.5920323691
 11
12.9286867153
 21
2.7204730802
  0
LINE
  5
3B8
100
AcDbEntity
  8
0
100
AcDbLine
 62
2
  6
CONTINUOUS
 10
12.9086867042
 20
2.3604597639
 11
12.9086867042
 21
2.7202969171
  0
LINE
  5
3B9
100
AcDbEntity
  8
0
100
AcDbLine
 62
2
  6
CONTINUOUS
 10
12.8886866931
 20
2.360635927
 11
12.8886866931
 21
2.5672823554
  0
LINE
  5
3BA
100
AcDbEntity
  8
0
100
AcDbLine
 62
2
  6
CONTINUOUS
 10
12.8886866931
 20
2.5920323691
 11
12.8886866931
 21
2.720120754
  0
LINE
  5
3BB
100
AcDbEntity
  8
0
100
AcDbLine
 62
2
  6
CONTINUOUS
 10
12.868686682
 20
2.3608120901
 11
12.868686682
 21
2.491232357
  0
LINE
  5
3BC
100
AcDbEntity
  8
0
100
AcDbLine
 62
2
  6
CONTINUOUS
 10
12.868686682
 20
2.5920323691
 11
12.868686682
 21
2.7199445909
  0
LINE
  5
3BD
100
AcDbEntity
  8
0
100
AcDbLine
 62
2
  6
CONTINUOUS
 10
12.8486866709
 20
2.3609882532
 11
12.8486866709
 21
2.4912273132
  0
LINE
  5
3BE
100
AcDbEntity
  8
0
100
AcDbLine
 62
2
  6
CONTINUOUS
 10
12.8486866709
 20
2.5920323691
 11
12.8486866709
 21
2.7197684278
  0
LINE
  5
3BF
100
AcDbEntity
  8
0
100
AcDbLine
 62
2
  6
CONTINUOUS
 10
12.8286866598
 20
2.3611644163
 11
12.8286866598
 21
2.4912273132
  0
LINE
  5
3C0
100
AcDbEntity
  8
0
100
AcDbLine
 62
2
  6
CONTINUOUS
 10
12.8286866598
 20
2.5396527025
 11
12.8286866598
 21
2.5672823554
  0
LINE
  5
3C1
100
AcDbEntity
  8
0
100
AcDbLine
 62
2
  6
CONTINUOUS
 10
12.8286866598
 20
2.5920323691
 11
12.8286866598
 21
2.7195922647
  0
LINE
  5
3C2
100
AcDbEntity
  8
0
100
AcDbLine
 62
2
  6
CONTINUOUS
 10
12.8086866487
 20
2.3613405794
 11
12.8086866487
 21
2.4912273132
  0
LINE
  5
3C3
100
AcDbEntity
  8
0
100
AcDbLine
 62
2
  6
CONTINUOUS
 10
12.8086866487
 20
2.5587355508
 11
12.8086866487
 21
2.7194161016
  0
LINE
  5
3C4
100
AcDbEntity
  8
0
100
AcDbLine
 62
2
  6
CONTINUOUS
 10
12.7886866376
 20
2.3621089572
 11
12.7886866376
 21
2.4957181055
  0
LINE
  5
3C5
100
AcDbEntity
  8
0
100
AcDbLine
 62
2
  6
CONTINUOUS
 10
12.7886866376
 20
2.5778183992
 11
12.7886866376
 21
2.7186477238
  0
LINE
  5
3C6
100
AcDbEntity
  8
0
100
AcDbLine
 62
2
  6
CONTINUOUS
 10
12.7686866266
 20
2.3630013935
 11
12.7686866266
 21
2.5148009227
  0
LINE
  5
3C7
100
AcDbEntity
  8
0
100
AcDbLine
 62
2
  6
CONTINUOUS
 10
12.7686866266
 20
2.5920323691
 11
12.7686866266
 21
2.7177552874
  0
LINE
  5
3C8
100
AcDbEntity
  8
0
100
AcDbLine
 62
2
  6
CONTINUOUS
 10
12.7486866155
 20
2.3638938299
 11
12.7486866155
 21
2.4913263218
  0
LINE
  5
3C9
100
AcDbEntity
  8
0
100
AcDbLine
 62
2
  6
CONTINUOUS
 10
12.7486866155
 20
2.5158783184
 11
12.7486866155
 21
2.5338837399
  0
LINE
  5
3CA
100
AcDbEntity
  8
0
100
AcDbLine
 62
2
  6
CONTINUOUS
 10
12.7486866155
 20
2.5920323691
 11
12.7486866155
 21
2.7168628511
  0
LINE
  5
3CB
100
AcDbEntity
  8
0
100
AcDbLine
 62
2
  6
CONTINUOUS
 10
12.7286866044
 20
2.3647862663
 11
12.7286866044
 21
2.4912273132
  0
LINE
  5
3CC
100
AcDbEntity
  8
0
100
AcDbLine
 62
2
  6
CONTINUOUS
 10
12.7286866044
 20
2.515977327
 11
12.7286866044
 21
2.5527601554
  0
LINE
  5
3CD
100
AcDbEntity
  8
0
100
AcDbLine
 62
2
  6
CONTINUOUS
 10
12.7286866044
 20
2.5920323691
 11
12.7286866044
 21
2.7159704147
  0
LINE
  5
3CE
100
AcDbEntity
  8
0
100
AcDbLine
 62
2
  6
CONTINUOUS
 10
12.7086865933
 20
2.3656787026
 11
12.7086865933
 21
2.4912273132
  0
LINE
  5
3CF
100
AcDbEntity
  8
0
100
AcDbLine
 62
2
  6
CONTINUOUS
 10
12.7086865933
 20
2.5920323691
 11
12.7086865933
 21
2.7150779784
  0
LINE
  5
3D0
100
AcDbEntity
  8
0
100
AcDbLine
 62
2
  6
CONTINUOUS
 10
12.6886865822
 20
2.366571139
 11
12.6886865822
 21
2.4912273132
  0
LINE
  5
3D1
100
AcDbEntity
  8
0
100
AcDbLine
 62
2
  6
CONTINUOUS
 10
12.6886865822
 20
2.515977327
 11
12.6886865822
 21
2.5672823554
  0
LINE
  5
3D2
100
AcDbEntity
  8
0
100
AcDbLine
 62
2
  6
CONTINUOUS
 10
12.6886865822
 20
2.5920323691
 11
12.6886865822
 21
2.714185542
  0
LINE
  5
3D3
100
AcDbEntity
  8
0
100
AcDbLine
 62
2
  6
CONTINUOUS
 10
12.6686865711
 20
2.3677104027
 11
12.6686865711
 21
2.7130462783
  0
LINE
  5
3D4
100
AcDbEntity
  8
0
100
AcDbLine
 62
2
  6
CONTINUOUS
 10
12.64868656
 20
2.3693682721
 11
12.64868656
 21
2.7113884089
  0
LINE
  5
3D5
100
AcDbEntity
  8
0
100
AcDbLine
 62
2
  6
CONTINUOUS
 10
12.6286865489
 20
2.3710261415
 11
12.6286865489
 21
2.4912273132
  0
LINE
  5
3D6
100
AcDbEntity
  8
0
100
AcDbLine
 62
2
  6
CONTINUOUS
 10
12.6286865489
 20
2.515977327
 11
12.6286865489
 21
2.7097305395
  0
LINE
  5
3D7
100
AcDbEntity
  8
0
100
AcDbLine
 62
2
  6
CONTINUOUS
 10
12.6086865378
 20
2.372684011
 11
12.6086865378
 21
2.4912273132
  0
LINE
  5
3D8
100
AcDbEntity
  8
0
100
AcDbLine
 62
2
  6
CONTINUOUS
 10
12.6086865378
 20
2.5351122279
 11
12.6086865378
 21
2.70807267
  0
LINE
  5
3D9
100
AcDbEntity
  8
0
100
AcDbLine
 62
2
  6
CONTINUOUS
 10
12.5886865267
 20
2.3743418804
 11
12.5886865267
 21
2.4912273132
  0
LINE
  5
3DA
100
AcDbEntity
  8
0
100
AcDbLine
 62
2
  6
CONTINUOUS
 10
12.5886865267
 20
2.5660172622
 11
12.5886865267
 21
2.7064148006
  0
LINE
  5
3DB
100
AcDbEntity
  8
0
100
AcDbLine
 62
2
  6
CONTINUOUS
 10
12.5686865156
 20
2.3759997498
 11
12.5686865156
 21
2.4912273132
  0
LINE
  5
3DC
100
AcDbEntity
  8
0
100
AcDbLine
 62
2
  6
CONTINUOUS
 10
12.5686865156
 20
2.5920323691
 11
12.5686865156
 21
2.7047569312
  0
LINE
  5
3DD
100
AcDbEntity
  8
0
100
AcDbLine
 62
2
  6
CONTINUOUS
 10
12.5486865045
 20
2.3777575277
 11
12.5486865045
 21
2.4912273132
  0
LINE
  5
3DE
100
AcDbEntity
  8
0
100
AcDbLine
 62
2
  6
CONTINUOUS
 10
12.5486865045
 20
2.515977327
 11
12.5486865045
 21
2.5275118824
  0
LINE
  5
3DF
100
AcDbEntity
  8
0
100
AcDbLine
 62
2
  6
CONTINUOUS
 10
12.5486865045
 20
2.5920323691
 11
12.5486865045
 21
2.7029991533
  0
LINE
  5
3E0
100
AcDbEntity
  8
0
100
AcDbLine
 62
2
  6
CONTINUOUS
 10
12.5286864935
 20
2.3802813811
 11
12.5286864935
 21
2.5296213345
  0
LINE
  5
3E1
100
AcDbEntity
  8
0
100
AcDbLine
 62
2
  6
CONTINUOUS
 10
12.5286864935
 20
2.5505713461
 11
12.5286864935
 21
2.5667383551
  0
LINE
  5
3E2
100
AcDbEntity
  8
0
100
AcDbLine
 62
2
  6
CONTINUOUS
 10
12.5286864935
 20
2.5920323691
 11
12.5286864935
 21
2.7004752999
  0
LINE
  5
3E3
100
AcDbEntity
  8
0
100
AcDbLine
 62
2
  6
CONTINUOUS
 10
12.5086864824
 20
2.3828052346
 11
12.5086864824
 21
2.4912273132
  0
LINE
  5
3E4
100
AcDbEntity
  8
0
100
AcDbLine
 62
2
  6
CONTINUOUS
 10
12.5086864824
 20
2.515977327
 11
12.5086864824
 21
2.5279667721
  0
LINE
  5
3E5
100
AcDbEntity
  8
0
100
AcDbLine
 62
2
  6
CONTINUOUS
 10
12.5086864824
 20
2.5868602074
 11
12.5086864824
 21
2.6979514464
  0
LINE
  5
3E6
100
AcDbEntity
  8
0
100
AcDbLine
 62
2
  6
CONTINUOUS
 10
12.4886864713
 20
2.385329088
 11
12.4886864713
 21
2.4912273132
  0
LINE
  5
3E7
100
AcDbEntity
  8
0
100
AcDbLine
 62
2
  6
CONTINUOUS
 10
12.4886864713
 20
2.5553401045
 11
12.4886864713
 21
2.695427593
  0
LINE
  5
3E8
100
AcDbEntity
  8
0
100
AcDbLine
 62
2
  6
CONTINUOUS
 10
12.4686864602
 20
2.3878529415
 11
12.4686864602
 21
2.4912273132
  0
LINE
  5
3E9
100
AcDbEntity
  8
0
100
AcDbLine
 62
2
  6
CONTINUOUS
 10
12.4686864602
 20
2.5238200015
 11
12.4686864602
 21
2.6929037395
  0
LINE
  5
3EA
100
AcDbEntity
  8
0
100
AcDbLine
 62
2
  6
CONTINUOUS
 10
12.4486864491
 20
2.390376795
 11
12.4486864491
 21
2.4912273132
  0
LINE
  5
3EB
100
AcDbEntity
  8
0
100
AcDbLine
 62
2
  6
CONTINUOUS
 10
12.4486864491
 20
2.515977327
 11
12.4486864491
 21
2.690379886
  0
LINE
  5
3EC
100
AcDbEntity
  8
0
100
AcDbLine
 62
2
  6
CONTINUOUS
 10
12.428686438
 20
2.3931794042
 11
12.428686438
 21
2.6875772768
  0
LINE
  5
3ED
100
AcDbEntity
  8
0
100
AcDbLine
 62
2
  6
CONTINUOUS
 10
12.4086864269
 20
2.3964643301
 11
12.4086864269
 21
2.5013773986
  0
LINE
  5
3EE
100
AcDbEntity
  8
0
100
AcDbLine
 62
2
  6
CONTINUOUS
 10
12.4086864269
 20
2.5325739971
 11
12.4086864269
 21
2.5537224311
  0
LINE
  5
3EF
100
AcDbEntity
  8
0
100
AcDbLine
 62
2
  6
CONTINUOUS
 10
12.4086864269
 20
2.5791473398
 11
12.4086864269
 21
2.6842923509
  0
LINE
  5
3F0
100
AcDbEntity
  8
0
100
AcDbLine
 62
2
  6
CONTINUOUS
 10
12.3886864158
 20
2.399749256
 11
12.3886864158
 21
2.4921022658
  0
LINE
  5
3F1
100
AcDbEntity
  8
0
100
AcDbLine
 62
2
  6
CONTINUOUS
 10
12.3886864158
 20
2.5895929958
 11
12.3886864158
 21
2.681007425
  0
LINE
  5
3F2
100
AcDbEntity
  8
0
100
AcDbLine
 62
2
  6
CONTINUOUS
 10
12.3686864047
 20
2.403451877
 11
12.3686864047
 21
2.4912273132
  0
LINE
  5
3F3
100
AcDbEntity
  8
0
100
AcDbLine
 62
2
  6
CONTINUOUS
 10
12.3686864047
 20
2.5920323691
 11
12.3686864047
 21
2.677304804
  0
LINE
  5
3F4
100
AcDbEntity
  8
0
100
AcDbLine
 62
2
  6
CONTINUOUS
 10
12.3486863936
 20
2.407324637
 11
12.3486863936
 21
2.4912273132
  0
LINE
  5
3F5
100
AcDbEntity
  8
0
100
AcDbLine
 62
2
  6
CONTINUOUS
 10
12.3486863936
 20
2.5920323691
 11
12.3486863936
 21
2.673432044
  0
LINE
  5
3F6
100
AcDbEntity
  8
0
100
AcDbLine
 62
2
  6
CONTINUOUS
 10
12.3286863825
 20
2.4113493968
 11
12.3286863825
 21
2.4912273132
  0
LINE
  5
3F7
100
AcDbEntity
  8
0
100
AcDbLine
 62
2
  6
CONTINUOUS
 10
12.3286863825
 20
2.515977327
 11
12.3286863825
 21
2.5333023366
  0
LINE
  5
3F8
100
AcDbEntity
  8
0
100
AcDbLine
 62
2
  6
CONTINUOUS
 10
12.3286863825
 20
2.5499573458
 11
12.3286863825
 21
2.5672823554
  0
LINE
  5
3F9
100
AcDbEntity
  8
0
100
AcDbLine
 62
2
  6
CONTINUOUS
 10
12.3286863825
 20
2.5920323691
 11
12.3286863825
 21
2.6694072842
  0
LINE
  5
3FA
100
AcDbEntity
  8
0
100
AcDbLine
 62
2
  6
CONTINUOUS
 10
12.3086863715
 20
2.4159005505
 11
12.3086863715
 21
2.4912273132
  0
LINE
  5
3FB
100
AcDbEntity
  8
0
100
AcDbLine
 62
2
  6
CONTINUOUS
 10
12.3086863715
 20
2.515977327
 11
12.3086863715
 21
2.5333023366
  0
LINE
  5
3FC
100
AcDbEntity
  8
0
100
AcDbLine
 62
2
  6
CONTINUOUS
 10
12.3086863715
 20
2.5499573458
 11
12.3086863715
 21
2.5672823554
  0
LINE
  5
3FD
100
AcDbEntity
  8
0
100
AcDbLine
 62
2
  6
CONTINUOUS
 10
12.3086863715
 20
2.5920323691
 11
12.3086863715
 21
2.6648561305
  0
LINE
  5
3FE
100
AcDbEntity
  8
0
100
AcDbLine
 62
2
  6
CONTINUOUS
 10
12.2886863604
 20
2.4204517041
 11
12.2886863604
 21
2.4912273132
  0
LINE
  5
3FF
100
AcDbEntity
  8
0
100
AcDbLine
 62
2
  6
CONTINUOUS
 10
12.2886863604
 20
2.5920323691
 11
12.2886863604
 21
2.6603049769
  0
LINE
  5
400
100
AcDbEntity
  8
0
100
AcDbLine
 62
2
  6
CONTINUOUS
 10
12.2686863493
 20
2.4257438218
 11
12.2686863493
 21
2.4912273132
  0
LINE
  5
401
100
AcDbEntity
  8
0
100
AcDbLine
 62
2
  6
CONTINUOUS
 10
12.2686863493
 20
2.5920323691
 11
12.2686863493
 21
2.6550128592
  0
LINE
  5
402
100
AcDbEntity
  8
0
100
AcDbLine
 62
2
  6
CONTINUOUS
 10
12.2486863382
 20
2.4310978667
 11
12.2486863382
 21
2.4912273132
  0
LINE
  5
403
100
AcDbEntity
  8
0
100
AcDbLine
 62
2
  6
CONTINUOUS
 10
12.2486863382
 20
2.5920323691
 11
12.2486863382
 21
2.6496588142
  0
LINE
  5
404
100
AcDbEntity
  8
0
100
AcDbLine
 62
2
  6
CONTINUOUS
 10
12.2286863271
 20
2.4372566433
 11
12.2286863271
 21
2.4912273132
  0
LINE
  5
405
100
AcDbEntity
  8
0
100
AcDbLine
 62
2
  6
CONTINUOUS
 10
12.2286863271
 20
2.515977327
 11
12.2286863271
 21
2.5672823554
  0
LINE
  5
406
100
AcDbEntity
  8
0
100
AcDbLine
 62
2
  6
CONTINUOUS
 10
12.2286863271
 20
2.5920323691
 11
12.2286863271
 21
2.6435000377
  0
LINE
  5
407
100
AcDbEntity
  8
0
100
AcDbLine
 62
2
  6
CONTINUOUS
 10
12.208686316
 20
2.443589771
 11
12.208686316
 21
2.4912273132
  0
LINE
  5
408
100
AcDbEntity
  8
0
100
AcDbLine
 62
2
  6
CONTINUOUS
 10
12.208686316
 20
2.515977327
 11
12.208686316
 21
2.5672823554
  0
LINE
  5
409
100
AcDbEntity
  8
0
100
AcDbLine
 62
2
  6
CONTINUOUS
 10
12.208686316
 20
2.5920323691
 11
12.208686316
 21
2.63716691
  0
LINE
  5
40A
100
AcDbEntity
  8
0
100
AcDbLine
 62
2
  6
CONTINUOUS
 10
12.1886863049
 20
2.4510806436
 11
12.1886863049
 21
2.6296760373
  0
LINE
  5
40B
100
AcDbEntity
  8
0
100
AcDbLine
 62
2
  6
CONTINUOUS
 10
12.1686862938
 20
2.4591016523
 11
12.1686862938
 21
2.6216550287
  0
LINE
  5
40C
100
AcDbEntity
  8
0
100
AcDbLine
 62
2
  6
CONTINUOUS
 10
12.1486862827
 20
2.468314272
 11
12.1486862827
 21
2.612442409
  0
LINE
  5
40D
100
AcDbEntity
  8
0
100
AcDbLine
 62
2
  6
CONTINUOUS
 10
12.1286862716
 20
2.4794932339
 11
12.1286862716
 21
2.601263447
  0
LINE
  5
40E
100
AcDbEntity
  8
0
100
AcDbLine
 62
2
  6
CONTINUOUS
 10
12.1086862605
 20
2.4934150665
 11
12.1086862605
 21
2.5873416144
  0
LINE
  5
40F
100
AcDbEntity
  8
0
100
AcDbLine
 62
2
  6
CONTINUOUS
 10
12.0886862494
 20
2.5144449553
 11
12.0886862494
 21
2.5663117257
  0
ENDBLK
  5
410
100
AcDbEntity
  8
0
  6
BYBLOCK
 62
0
100
AcDbBlockEnd
  0
BLOCK
  5
411
100
AcDbEntity
  8
0
100
AcDbBlockBegin
  2
_FILLED
 70
64
 10
0.0
 20
0.0
  3
_FILLED
  1

  0
SOLID
  5
412
100
AcDbEntity
  8
0
  6
BYBLOCK
 62
0
100
AcDbTrace
 10
0.0
 20
0.0
 11
-1.0
 21
0.1666666667
 12
-1.0
 22
-0.1666666667
 13
-1.0
 23
-0.1666666667
  0
ENDBLK
  5
413
100
AcDbEntity
  8
0
  6
BYBLOCK
 62
0
100
AcDbBlockEnd
  0
BLOCK
  5
414
100
AcDbEntity
  8
SCHEME_DIMS
100
AcDbBlockBegin
 62
2
  6
CONTINUOUS
  2
*D0
 70
65
 10
0.0
 20
0.0
  3
*D0
  1

  0
MTEXT
  5
415
100
AcDbEntity
  8
SCHEME_DIMS
100
AcDbMText
 62
2
  6
CONTINUOUS
  7
STANDARD
 71
2
 72
1
 10
2.7028958269
 20
9.2076807591
 30
0.0
 11
1.0
 21
0.0
 31
0.0
 44
0.9
  1
32\P[1.26]
 40
0.1
 41
0.6
  0
LINE
  5
416
100
AcDbEntity
  8
SCHEME_DIMS
100
AcDbLine
 62
2
  6
CONTINUOUS
 10
3.7757761978
 20
8.5277594993
 11
3.2030505809
 21
8.5277594993
  0
LINE
  5
417
100
AcDbEntity
  8
SCHEME_DIMS
100
AcDbLine
 62
2
  6
CONTINUOUS
 10
3.0821685679
 20
8.5277594993
 11
2.7778958269
 21
8.5277594993
  0
LINE
  5
418
100
AcDbEntity
  8
SCHEME_DIMS
100
AcDbLine
 62
2
  6
CONTINUOUS
 10
3.7757761978
 20
9.787602019
 11
2.7778958269
 21
9.787602019
  0
LINE
  5
419
100
AcDbEntity
  8
SCHEME_DIMS
100
AcDbLine
 62
2
  6
CONTINUOUS
 10
2.9028958269
 20
8.5277594993
 11
2.9028958269
 21
8.8576807591
  0
LINE
  5
41A
100
AcDbEntity
  8
SCHEME_DIMS
100
AcDbLine
 62
2
  6
CONTINUOUS
 10
2.9028958269
 20
9.787602019
 11
2.9028958269
 21
9.3076807591
  0
INSERT
  5
41B
100
AcDbEntity
  8
SCHEME_DIMS
100
AcDbBlockReference
 62
2
  6
CONTINUOUS
  2
_FILLED
 10
2.9028958269
 20
8.5277594993
 41
0.1875
 42
0.1875
 43
0.1875
 50
270.0
  0
INSERT
  5
41C
100
AcDbEntity
  8
SCHEME_DIMS
100
AcDbBlockReference
 62
2
  6
CONTINUOUS
  2
_FILLED
 10
2.9028958269
 20
9.787602019
 41
0.1875
 42
0.1875
 43
0.1875
 50
90.0
  0
ENDBLK
  5
41D
100
AcDbEntity
  8
0
  6
BYBLOCK
 62
0
100
AcDbBlockEnd
  0
BLOCK
  5
41E
100
AcDbEntity
  8
SCHEME_DIMS
100
AcDbBlockBegin
 62
2
  6
CONTINUOUS
  2
*D1
 70
65
 10
0.0
 20
0.0
  3
*D1
  1

  0
MTEXT
  5
41F
100
AcDbEntity
  8
SCHEME_DIMS
100
AcDbMText
 62
2
  6
CONTINUOUS
  7
STANDARD
 71
2
 72
1
 10
12.029322473
 20
5.1823196979
 30
0.0
 11
1.0
 21
0.0
 31
0.0
 44
0.9
  1
80\P[3.15]
 40
0.1
 41
0.6
  0
LINE
  5
420
100
AcDbEntity
  8
SCHEME_DIMS
100
AcDbLine
 62
2
  6
CONTINUOUS
 10
11.4172736458
 20
3.4351455187
 11
12.354322473
 21
3.4351455187
  0
LINE
  5
421
100
AcDbEntity
  8
SCHEME_DIMS
100
AcDbLine
 62
2
  6
CONTINUOUS
 10
11.4600850487
 20
6.5847518179
 11
12.354322473
 21
6.5847518179
  0
LINE
  5
422
100
AcDbEntity
  8
SCHEME_DIMS
100
AcDbLine
 62
2
  6
CONTINUOUS
 10
12.229322473
 20
3.4351455187
 11
12.229322473
 21
4.8323196979
  0
LINE
  5
423
100
AcDbEntity
  8
SCHEME_DIMS
100
AcDbLine
 62
2
  6
CONTINUOUS
 10
12.229322473
 20
6.5847518179
 11
12.229322473
 21
5.2823196979
  0
INSERT
  5
424
100
AcDbEntity
  8
SCHEME_DIMS
100
AcDbBlockReference
 62
2
  6
CONTINUOUS
  2
_FILLED
 10
12.229322473
 20
3.4351455187
 41
0.1875
 42
0.1875
 43
0.1875
 50
270.0
  0
INSERT
  5
425
100
AcDbEntity
  8
SCHEME_DIMS
100
AcDbBlockReference
 62
2
  6
CONTINUOUS
  2
_FILLED
 10
12.229322473
 20
6.5847518179
 41
0.1875
 42
0.1875
 43
0.1875
 50
90.0
  0
ENDBLK
  5
426
100
AcDbEntity
  8
0
  6
BYBLOCK
 62
0
100
AcDbBlockEnd
  0
BLOCK
  5
427
100
AcDbEntity
  8
SCHEME_DIMS
100
AcDbBlockBegin
 62
2
  6
CONTINUOUS
  2
*D2
 70
65
 10
0.0
 20
0.0
  3
*D2
  1

  0
MTEXT
  5
428
100
AcDbEntity
  8
SCHEME_DIMS
100
AcDbMText
 62
2
  6
CONTINUOUS
  7
STANDARD
 71
2
 72
1
 10
4.9561491301
 20
2.4722166653
 30
0.0
 11
1.0
 21
0.0
 31
0.0
 44
0.9
  1
65\P[2.56]
 40
0.1
 41
0.6
  0
LINE
  5
429
100
AcDbEntity
  8
SCHEME_DIMS
100
AcDbLine
 62
2
  6
CONTINUOUS
 10
6.4356766891
 20
3.5301258336
 11
6.4356766891
 21
2.2972166653
  0
LINE
  5
42A
100
AcDbEntity
  8
SCHEME_DIMS
100
AcDbLine
 62
2
  6
CONTINUOUS
 10
3.876621571
 20
3.5301258336
 11
3.876621571
 21
2.2972166653
  0
LINE
  5
42B
100
AcDbEntity
  8
SCHEME_DIMS
100
AcDbLine
 62
2
  6
CONTINUOUS
 10
6.4356766891
 20
2.4222166653
 11
5.5561491301
 21
2.4222166653
  0
LINE
  5
42C
100
AcDbEntity
  8
SCHEME_DIMS
100
AcDbLine
 62
2
  6
CONTINUOUS
 10
3.876621571
 20
2.4222166653
 11
4.7561491301
 21
2.4222166653
  0
INSERT
  5
42D
100
AcDbEntity
  8
SCHEME_DIMS
100
AcDbBlockReference
 62
2
  6
CONTINUOUS
  2
_FILLED
 10
6.4356766891
 20
2.4222166653
 41
0.1875
 42
0.1875
 43
0.1875
  0
INSERT
  5
42E
100
AcDbEntity
  8
SCHEME_DIMS
100
AcDbBlockReference
 62
2
  6
CONTINUOUS
  2
_FILLED
 10
3.876621571
 20
2.4222166653
 41
0.1875
 42
0.1875
 43
0.1875
 50
180.0
  0
ENDBLK
  5
42F
100
AcDbEntity
  8
0
  6
BYBLOCK
 62
0
100
AcDbBlockEnd
  0
BLOCK
  5
430
100
AcDbEntity
  8
SCHEME_DIMS
100
AcDbBlockBegin
 62
2
  6
CONTINUOUS
  2
*D3
 70
65
 10
0.0
 20
0.0
  3
*D3
  1

  0
MTEXT
  5
431
100
AcDbEntity
  8
SCHEME_DIMS
100
AcDbMText
 62
2
  6
CONTINUOUS
  7
STANDARD
 71
2
 72
1
 10
5.113629445
 20
7.4388236495
 30
0.0
 11
1.0
 21
0.0
 31
0.0
 44
0.9
  1
57\P[2.24]
 40
0.1
 41
0.6
  0
LINE
  5
432
100
AcDbEntity
  8
SCHEME_DIMS
100
AcDbLine
 62
2
  6
CONTINUOUS
 10
4.1915822009
 20
6.5446929321
 11
4.1915822009
 21
7.5138236495
  0
LINE
  5
433
100
AcDbEntity
  8
SCHEME_DIMS
100
AcDbLine
 62
2
  6
CONTINUOUS
 10
6.4356766891
 20
6.5186195593
 11
6.4356766891
 21
7.5138236495
  0
LINE
  5
434
100
AcDbEntity
  8
SCHEME_DIMS
100
AcDbLine
 62
2
  6
CONTINUOUS
 10
4.1915822009
 20
7.3888236495
 11
4.913629445
 21
7.3888236495
  0
LINE
  5
435
100
AcDbEntity
  8
SCHEME_DIMS
100
AcDbLine
 62
2
  6
CONTINUOUS
 10
6.4356766891
 20
7.3888236495
 11
5.713629445
 21
7.3888236495
  0
INSERT
  5
436
100
AcDbEntity
  8
SCHEME_DIMS
100
AcDbBlockReference
 62
2
  6
CONTINUOUS
  2
_FILLED
 10
4.1915822009
 20
7.3888236495
 41
0.1875
 42
0.1875
 43
0.1875
 50
180.0
  0
INSERT
  5
437
100
AcDbEntity
  8
SCHEME_DIMS
100
AcDbBlockReference
 62
2
  6
CONTINUOUS
  2
_FILLED
 10
6.4356766891
 20
7.3888236495
 41
0.1875
 42
0.1875
 43
0.1875
  0
ENDBLK
  5
438
100
AcDbEntity
  8
0
  6
BYBLOCK
 62
0
100
AcDbBlockEnd
  0
BLOCK
  5
439
100
AcDbEntity
  8
SCHEME_DIMS
100
AcDbBlockBegin
 62
2
  6
CONTINUOUS
  2
*D4
 70
65
 10
0.0
 20
0.0
  3
*D4
  1

  0
MTEXT
  5
43A
100
AcDbEntity
  8
SCHEME_DIMS
100
AcDbMText
 62
2
  6
CONTINUOUS
  7
STANDARD
 71
2
 72
1
 10
8.8061752312
 20
5.0599486683
 30
0.0
 11
1.0
 21
0.0
 31
0.0
 44
0.9
  1
72\P[2.83]
 40
0.1
 41
0.6
  0
LINE
  5
43B
100
AcDbEntity
  8
SCHEME_DIMS
100
AcDbLine
 62
2
  6
CONTINUOUS
 10
6.5659885745
 20
3.5926258336
 11
9.1311752312
 21
3.5926258336
  0
LINE
  5
43C
100
AcDbEntity
  8
SCHEME_DIMS
100
AcDbLine
 62
2
  6
CONTINUOUS
 10
4.7191246692
 20
6.4272715029
 11
9.1311752312
 21
6.4272715029
  0
LINE
  5
43D
100
AcDbEntity
  8
SCHEME_DIMS
100
AcDbLine
 62
2
  6
CONTINUOUS
 10
9.0061752312
 20
3.5926258336
 11
9.0061752312
 21
4.7099486683
  0
LINE
  5
43E
100
AcDbEntity
  8
SCHEME_DIMS
100
AcDbLine
 62
2
  6
CONTINUOUS
 10
9.0061752312
 20
6.4272715029
 11
9.0061752312
 21
5.1599486683
  0
INSERT
  5
43F
100
AcDbEntity
  8
SCHEME_DIMS
100
AcDbBlockReference
 62
2
  6
CONTINUOUS
  2
_FILLED
 10
9.0061752312
 20
3.5926258336
 41
0.1875
 42
0.1875
 43
0.1875
 50
270.0
  0
INSERT
  5
440
100
AcDbEntity
  8
SCHEME_DIMS
100
AcDbBlockReference
 62
2
  6
CONTINUOUS
  2
_FILLED
 10
9.0061752312
 20
6.4272715029
 41
0.1875
 42
0.1875
 43
0.1875
 50
90.0
  0
ENDBLK
  5
441
100
AcDbEntity
  8
0
  6
BYBLOCK
 62
0
100
AcDbBlockEnd
  0
BLOCK
  5
442
100
AcDbEntity
  8
SCHEME_DIMS
100
AcDbBlockBegin
 62
2
  6
CONTINUOUS
  2
*D5
 70
65
 10
0.0
 20
0.0
  3
*D5
  1

  0
MTEXT
  5
443
100
AcDbEntity
  8
SCHEME_DIMS
100
AcDbMText
 62
2
  6
CONTINUOUS
  7
STANDARD
 71
2
 72
1
 10
4.9561491301
 20
2.9657856121
 30
0.0
 11
1.0
 21
0.0
 31
0.0
 44
0.9
  1
55\P[2.17]
 40
0.1
 41
0.6
  0
LINE
  5
444
100
AcDbEntity
  8
SCHEME_DIMS
100
AcDbLine
 62
2
  6
CONTINUOUS
 10
4.0734719647
 20
3.3352345653
 11
4.0734719647
 21
2.7907856121
  0
LINE
  5
445
100
AcDbEntity
  8
SCHEME_DIMS
100
AcDbLine
 62
2
  6
CONTINUOUS
 10
6.2388262954
 20
3.2239881747
 11
6.2388262954
 21
2.7907856121
  0
LINE
  5
446
100
AcDbEntity
  8
SCHEME_DIMS
100
AcDbLine
 62
2
  6
CONTINUOUS
 10
4.0734719647
 20
2.9157856121
 11
4.7561491301
 21
2.9157856121
  0
LINE
  5
447
100
AcDbEntity
  8
SCHEME_DIMS
100
AcDbLine
 62
2
  6
CONTINUOUS
 10
6.2388262954
 20
2.9157856121
 11
5.5561491301
 21
2.9157856121
  0
INSERT
  5
448
100
AcDbEntity
  8
SCHEME_DIMS
100
AcDbBlockReference
 62
2
  6
CONTINUOUS
  2
_FILLED
 10
4.0734719647
 20
2.9157856121
 41
0.1875
 42
0.1875
 43
0.1875
 50
180.0
  0
INSERT
  5
449
100
AcDbEntity
  8
SCHEME_DIMS
100
AcDbBlockReference
 62
2
  6
CONTINUOUS
  2
_FILLED
 10
6.2388262954
 20
2.9157856121
 41
0.1875
 42
0.1875
 43
0.1875
  0
ENDBLK
  5
44A
100
AcDbEntity
  8
0
  6
BYBLOCK
 62
0
100
AcDbBlockEnd
  0
BLOCK
  5
44B
100
AcDbEntity
  8
SCHEME_DIMS
100
AcDbBlockBegin
 62
2
  6
CONTINUOUS
  2
*D6
 70
65
 10
0.0
 20
0.0
  3
*D6
  1

  0
MTEXT
  5
44C
100
AcDbEntity
  8
SCHEME_DIMS
100
AcDbMText
 62
2
  6
CONTINUOUS
  7
STANDARD
 71
3
 72
1
 10
8.3593417399
 20
3.0358007536
 30
0.0
 11
1.0
 21
0.0
 31
0.0
 44
0.9
  1
4\P[.16]
 40
0.1
 41
0.5
  0
LINE
  5
44D
100
AcDbEntity
  8
SCHEME_DIMS
100
AcDbLine
 62
2
  6
CONTINUOUS
 10
8.127674965
 20
3.5926258336
 11
9.1311752312
 21
3.5926258336
  0
LINE
  5
44E
100
AcDbEntity
  8
SCHEME_DIMS
100
AcDbLine
 62
2
  6
CONTINUOUS
 10
6.4845092846
 20
3.4351455187
 11
9.1311752312
 21
3.4351455187
  0
LINE
  5
44F
100
AcDbEntity
  8
SCHEME_DIMS
100
AcDbLine
 62
2
  6
CONTINUOUS
 10
9.0061752312
 20
3.5926258336
 11
9.0061752312
 21
3.9926258336
  0
LINE
  5
450
100
AcDbEntity
  8
SCHEME_DIMS
100
AcDbLine
 62
2
  6
CONTINUOUS
 10
9.0061752312
 20
3.4351455187
 11
9.0061752312
 21
2.9858007536
  0
LINE
  5
451
100
AcDbEntity
  8
SCHEME_DIMS
100
AcDbLine
 62
2
  6
CONTINUOUS
 10
9.0061752312
 20
2.9858007536
 11
8.8593417399
 21
2.9858007536
  0
INSERT
  5
452
100
AcDbEntity
  8
SCHEME_DIMS
100
AcDbBlockReference
 62
2
  6
CONTINUOUS
  2
_FILLED
 10
9.0061752312
 20
3.5926258336
 41
0.1875
 42
0.1875
 43
0.1875
 50
270.0
  0
INSERT
  5
453
100
AcDbEntity
  8
SCHEME_DIMS
100
AcDbBlockReference
 62
2
  6
CONTINUOUS
  2
_FILLED
 10
9.0061752312
 20
3.4351455187
 41
0.1875
 42
0.1875
 43
0.1875
 50
90.0
  0
ENDBLK
  5
454
100
AcDbEntity
  8
0
  6
BYBLOCK
 62
0
100
AcDbBlockEnd
  0
BLOCK
  5
455
100
AcDbEntity
  8
SCHEME_DIMS
100
AcDbBlockBegin
 62
2
  6
CONTINUOUS
  2
*D7
 70
65
 10
0.0
 20
0.0
  3
*D7
  1

  0
MTEXT
  5
456
100
AcDbEntity
  8
SCHEME_DIMS
100
AcDbMText
 62
2
  6
CONTINUOUS
  7
STANDARD
 71
1
 72
1
 10
6.9509750984
 20
2.9657856121
 30
0.0
 11
1.0
 21
0.0
 31
0.0
 44
0.9
  1
5\P[.20]
 40
0.1
 41
0.5
  0
LINE
  5
457
100
AcDbEntity
  8
SCHEME_DIMS
100
AcDbLine
 62
2
  6
CONTINUOUS
 10
6.2388262954
 20
3.3296722457
 11
6.2388262954
 21
2.7907856121
  0
LINE
  5
458
100
AcDbEntity
  8
SCHEME_DIMS
100
AcDbLine
 62
2
  6
CONTINUOUS
 10
6.4356766891
 20
3.5301258336
 11
6.4356766891
 21
2.7907856121
  0
LINE
  5
459
100
AcDbEntity
  8
SCHEME_DIMS
100
AcDbLine
 62
2
  6
CONTINUOUS
 10
6.2388262954
 20
2.9157856121
 11
5.8388262954
 21
2.9157856121
  0
LINE
  5
45A
100
AcDbEntity
  8
SCHEME_DIMS
100
AcDbLine
 62
2
  6
CONTINUOUS
 10
6.4356766891
 20
2.9157856121
 11
6.8509750984
 21
2.9157856121
  0
INSERT
  5
45B
100
AcDbEntity
  8
SCHEME_DIMS
100
AcDbBlockReference
 62
2
  6
CONTINUOUS
  2
_FILLED
 10
6.2388262954
 20
2.9157856121
 41
0.1875
 42
0.1875
 43
0.1875
  0
INSERT
  5
45C
100
AcDbEntity
  8
SCHEME_DIMS
100
AcDbBlockReference
 62
2
  6
CONTINUOUS
  2
_FILLED
 10
6.4356766891
 20
2.9157856121
 41
0.1875
 42
0.1875
 43
0.1875
 50
180.0
  0
ENDBLK
  5
45D
100
AcDbEntity
  8
0
  6
BYBLOCK
 62
0
100
AcDbBlockEnd
  0
BLOCK
  5
45E
100
AcDbEntity
  8
SCHEME_DIMS
100
AcDbBlockBegin
 62
2
  6
CONTINUOUS
  2
*D8
 70
65
 10
0.0
 20
0.0
  3
*D8
  1

  0
MTEXT
  5
45F
100
AcDbEntity
  8
SCHEME_DIMS
100
AcDbMText
 62
2
  6
CONTINUOUS
  7
STANDARD
 71
2
 72
1
 10
5.113629445
 20
7.058722762
 30
0.0
 11
1.0
 21
0.0
 31
0.0
 44
0.9
  1
47\P[1.85]
 40
0.1
 41
0.6
  0
LINE
  5
460
100
AcDbEntity
  8
SCHEME_DIMS
100
AcDbLine
 62
2
  6
CONTINUOUS
 10
6.2388262954
 20
3.8574723075
 11
6.2388262954
 21
7.133722762
  0
LINE
  5
461
100
AcDbEntity
  8
SCHEME_DIMS
100
AcDbLine
 62
2
  6
CONTINUOUS
 10
4.3884325946
 20
6.4897715029
 11
4.3884325946
 21
7.133722762
  0
LINE
  5
462
100
AcDbEntity
  8
SCHEME_DIMS
100
AcDbLine
 62
2
  6
CONTINUOUS
 10
6.2388262954
 20
7.008722762
 11
5.713629445
 21
7.008722762
  0
LINE
  5
463
100
AcDbEntity
  8
SCHEME_DIMS
100
AcDbLine
 62
2
  6
CONTINUOUS
 10
4.3884325946
 20
7.008722762
 11
4.913629445
 21
7.008722762
  0
INSERT
  5
464
100
AcDbEntity
  8
SCHEME_DIMS
100
AcDbBlockReference
 62
2
  6
CONTINUOUS
  2
_FILLED
 10
6.2388262954
 20
7.008722762
 41
0.1875
 42
0.1875
 43
0.1875
  0
INSERT
  5
465
100
AcDbEntity
  8
SCHEME_DIMS
100
AcDbBlockReference
 62
2
  6
CONTINUOUS
  2
_FILLED
 10
4.3884325946
 20
7.008722762
 41
0.1875
 42
0.1875
 43
0.1875
 50
180.0
  0
ENDBLK
  5
466
100
AcDbEntity
  8
0
  6
BYBLOCK
 62
0
100
AcDbBlockEnd
  0
BLOCK
  5
467
100
AcDbEntity
  8
SCHEME_DIMS
100
AcDbBlockBegin
 62
2
  6
CONTINUOUS
  2
*D9
 70
65
 10
0.0
 20
0.0
  3
*D9
  1

  0
MTEXT
  5
468
100
AcDbEntity
  8
SCHEME_DIMS
100
AcDbMText
 62
2
  6
CONTINUOUS
  7
STANDARD
 71
1
 72
1
 10
7.4772540159
 20
5.1012101392
 30
0.0
 11
1.0
 21
0.0
 31
0.0
 44
0.9
  1
3X \Fgdt;{\Fgdt;n}\Ftxt;4,3\P[.17]
 40
0.1
 41
0.7333333333
  0
LINE
  5
469
100
AcDbEntity
  8
SCHEME_DIMS
100
AcDbLine
 62
2
  6
CONTINUOUS
 10
6.2863113343
 20
3.6626976569
 11
7.2272540159
 21
5.0512101392
  0
LINE
  5
46A
100
AcDbEntity
  8
SCHEME_DIMS
100
AcDbLine
 62
2
  6
CONTINUOUS
 10
7.2272540159
 20
5.0512101392
 11
7.3772540159
 21
5.0512101392
  0
INSERT
  5
46B
100
AcDbEntity
  8
SCHEME_DIMS
100
AcDbBlockReference
 62
2
  6
CONTINUOUS
  2
_FILLED
 10
6.2863113343
 20
3.6626976569
 41
0.1875
 42
0.1875
 43
0.1875
 50
235.8759834877
  0
ENDBLK
  5
46C
100
AcDbEntity
  8
0
  6
BYBLOCK
 62
0
100
AcDbBlockEnd
  0
BLOCK
  5
46D
100
AcDbEntity
  8
SCHEME_DIMS
100
AcDbBlockBegin
 62
2
  6
CONTINUOUS
  2
*D10
 70
65
 10
0.0
 20
0.0
  3
*D10
  1

  0
MTEXT
  5
46E
100
AcDbEntity
  8
SCHEME_DIMS
100
AcDbMText
 62
2
  6
CONTINUOUS
  7
STANDARD
 71
2
 72
1
 10
11.5952147276
 20
3.8788463061
 30
0.0
 11
1.0
 21
0.0
 31
0.0
 44
0.9
  1
20\P[.79]
 40
0.1
 41
0.5
  0
LINE
  5
46F
100
AcDbEntity
  8
SCHEME_DIMS
100
AcDbLine
 62
2
  6
CONTINUOUS
 10
11.4172736458
 20
3.4351455187
 11
11.8702147276
 21
3.4351455187
  0
LINE
  5
470
100
AcDbEntity
  8
SCHEME_DIMS
100
AcDbLine
 62
2
  6
CONTINUOUS
 10
11.1113192803
 20
4.2225470935
 11
11.8702147276
 21
4.2225470935
  0
LINE
  5
471
100
AcDbEntity
  8
SCHEME_DIMS
100
AcDbLine
 62
2
  6
CONTINUOUS
 10
11.7452147276
 20
3.4351455187
 11
11.7452147276
 21
3.0351455187
  0
LINE
  5
472
100
AcDbEntity
  8
SCHEME_DIMS
100
AcDbLine
 62
2
  6
CONTINUOUS
 10
11.7452147276
 20
4.2225470935
 11
11.7452147276
 21
4.6225470935
  0
INSERT
  5
473
100
AcDbEntity
  8
SCHEME_DIMS
100
AcDbBlockReference
 62
2
  6
CONTINUOUS
  2
_FILLED
 10
11.7452147276
 20
3.4351455187
 41
0.1875
 42
0.1875
 43
0.1875
 50
90.0
  0
INSERT
  5
474
100
AcDbEntity
  8
SCHEME_DIMS
100
AcDbBlockReference
 62
2
  6
CONTINUOUS
  2
_FILLED
 10
11.7452147276
 20
4.2225470935
 41
0.1875
 42
0.1875
 43
0.1875
 50
270.0
  0
ENDBLK
  5
475
100
AcDbEntity
  8
0
  6
BYBLOCK
 62
0
100
AcDbBlockEnd
  0
BLOCK
  5
476
100
AcDbEntity
  8
0
100
AcDbBlockBegin
 62
2
  6
CONTINUOUS
  2
*D11
 70
65
 10
0.0
 20
0.0
  3
*D11
  1

  0
MTEXT
  5
477
100
AcDbEntity
  8
0
100
AcDbMText
 62
2
  6
CONTINUOUS
  7
STANDARD
 71
2
 72
1
 10
2.7582660799
 20
6.4284733398
 30
0.0
 11
1.0
 21
0.0
 31
0.0
 44
0.9
  1
15\P[.591]
 40
0.1
 41
0.6
  0
LINE
  5
478
100
AcDbEntity
  8
0
100
AcDbLine
 62
2
  6
CONTINUOUS
 10
3.4034546739
 20
5.9942006368
 11
2.8332660799
 21
5.9942006368
  0
LINE
  5
479
100
AcDbEntity
  8
0
100
AcDbLine
 62
2
  6
CONTINUOUS
 10
4.2728943342
 20
6.5847518179
 11
4.1601564214
 21
6.5847518179
  0
LINE
  5
47A
100
AcDbEntity
  8
0
100
AcDbLine
 62
2
  6
CONTINUOUS
 10
4.0062844052
 20
6.5847518179
 11
3.7762381237
 21
6.5847518179
  0
LINE
  5
47B
100
AcDbEntity
  8
0
100
AcDbLine
 62
2
  6
CONTINUOUS
 10
3.6619767256
 20
6.5847518179
 11
2.8332660799
 21
6.5847518179
  0
LINE
  5
47C
100
AcDbEntity
  8
0
100
AcDbLine
 62
2
  6
CONTINUOUS
 10
2.9582660799
 20
5.9942006368
 11
2.9582660799
 21
5.5942006368
  0
LINE
  5
47D
100
AcDbEntity
  8
0
100
AcDbLine
 62
2
  6
CONTINUOUS
 10
2.9582660799
 20
6.5847518179
 11
2.9582660799
 21
6.9847518179
  0
INSERT
  5
47E
100
AcDbEntity
  8
0
100
AcDbBlockReference
 62
2
  6
CONTINUOUS
  2
_FILLED
 10
2.9582660799
 20
5.9942006368
 41
0.1875
 42
0.1875
 43
0.1875
 50
90.0
  0
INSERT
  5
47F
100
AcDbEntity
  8
0
100
AcDbBlockReference
 62
2
  6
CONTINUOUS
  2
_FILLED
 10
2.9582660799
 20
6.5847518179
 41
0.1875
 42
0.1875
 43
0.1875
 50
270.0
  0
ENDBLK
  5
480
100
AcDbEntity
  8
0
  6
BYBLOCK
 62
0
100
AcDbBlockEnd
  0
ENDSEC
  0
SECTION
  2
ENTITIES
  0
MTEXT
  5
481
100
AcDbEntity
  8
0
100
AcDbMText
 62
2
  6
CONTINUOUS
  7
TEXTSTYLE_2
 71
2
 72
1
 10
11.0287658475
 20
1.794867839
 30
0.0
 11
1.0
 21
0.0
 31
0.0
 44
0.9
  1
THIRD ANGLE PROJECTION
 40
0.1
 41
1.76
  0
MTEXT
  5
482
100
AcDbEntity
  8
0
100
AcDbMText
 62
2
  6
CONTINUOUS
  7
STANDARD
 71
1
 72
1
 10
12.88
 20
1.457
 30
0.0
 11
1.0
 21
0.0
 31
0.0
 44
0.9
  1
DRAWING NO.
 40
0.08
 41
0.88
  0
MTEXT
  5
483
100
AcDbEntity
  8
0
100
AcDbMText
 62
2
  6
CONTINUOUS
  7
TEXTSTYLE_3
 71
2
 72
1
 10
11.03
 20
2.516432
 30
0.0
 11
1.0
 21
0.0
 31
0.0
 44
0.9
  1
and is proprietary in general
 40
0.08
 41
1.972
  0
MTEXT
  5
484
100
AcDbEntity
  8
0
100
AcDbMText
 62
2
  6
CONTINUOUS
  7
TEXTSTYLE_3
 71
2
 72
1
 10
11.03
 20
2.396432
 30
0.0
 11
1.0
 21
0.0
 31
0.0
 44
0.9
  1
and in detail.  Its contents
 40
0.08
 41
1.904
  0
MTEXT
  5
485
100
AcDbEntity
  8
0
100
AcDbMText
 62
2
  6
CONTINUOUS
  7
TEXTSTYLE_3
 71
2
 72
1
 10
11.03
 20
2.276432
 30
0.0
 11
1.0
 21
0.0
 31
0.0
 44
0.9
  1
shall not be revealed to
 40
0.08
 41
1.632
  0
MTEXT
  5
486
100
AcDbEntity
  8
0
100
AcDbMText
 62
2
  6
CONTINUOUS
  7
TEXTSTYLE_3
 71
2
 72
1
 10
11.03
 20
2.156432
 30
0.0
 11
1.0
 21
0.0
 31
0.0
 44
0.9
  1
outside parties without
 40
0.08
 41
1.564
  0
MTEXT
  5
487
100
AcDbEntity
  8
0
100
AcDbMText
 62
2
  6
CONTINUOUS
  7
TEXTSTYLE_3
 71
2
 72
1
 10
11.03
 20
2.036432
 30
0.0
 11
1.0
 21
0.0
 31
0.0
 44
0.9
  1
written consent of BANNER.
 40
0.08
 41
1.768
  0
MTEXT
  5
488
100
AcDbEntity
  8
0
100
AcDbMText
 62
2
  6
CONTINUOUS
  7
TEXTSTYLE_2
 71
1
 72
1
 10
12.08
 20
2.217
 30
0.0
 11
1.0
 21
0.0
 31
0.0
 44
0.9
  1
TITLE
 40
0.1
 41
0.4
  0
MTEXT
  5
489
100
AcDbEntity
  8
0
100
AcDbMText
 62
2
  6
CONTINUOUS
  7
STANDARD
 71
1
 72
1
 10
12.08
 20
1.457
 30
0.0
 11
1.0
 21
0.0
 31
0.0
 44
0.9
  1
SIZE
 40
0.08
 41
0.32
  0
MTEXT
  5
48A
100
AcDbEntity
  8
0
100
AcDbMText
 62
2
  6
CONTINUOUS
  7
STANDARD
 71
1
 72
1
 10
12.08
 20
1.087
 30
0.0
 11
1.0
 21
0.0
 31
0.0
 44
0.9
  1
SCALE
 40
0.08
 41
0.4
  0
MTEXT
  5
48B
100
AcDbEntity
  8
0
100
AcDbMText
 62
2
  6
CONTINUOUS
  7
TEXTSTYLE_2
 71
2
 72
1
 10
12.5
 20
1.337
 30
0.0
 11
1.0
 21
0.0
 31
0.0
 44
0.9
  1
B
 40
0.1
 41
0.08
  0
MTEXT
  5
48C
100
AcDbEntity
  8
0
100
AcDbMText
 62
2
  6
CONTINUOUS
  7
TEXTSTYLE_3
 71
2
 72
1
 10
11.03
 20
2.636432
 30
0.0
 11
1.0
 21
0.0
 31
0.0
 44
0.9
  1
of BANNER ENGINEERING CORP.
 40
0.08
 41
1.836
  0
MTEXT
  5
48D
100
AcDbEntity
  8
0
100
AcDbMText
 62
2
  6
CONTINUOUS
  7
TEXTSTYLE_3
 71
2
 72
1
 10
11.03
 20
2.756432
 30
0.0
 11
1.0
 21
0.0
 31
0.0
 44
0.9
  1
This drawing is the property
 40
0.08
 41
1.904
  0
MTEXT
  5
48E
100
AcDbEntity
  8
0
100
AcDbMText
 62
2
  6
CONTINUOUS
  7
TEXTSTYLE_2
 71
2
 72
1
 10
15.03
 20
2.4134
 30
0.0
 11
1.0
 21
0.0
 31
0.0
 44
0.9
  1
MINNEAPOLIS, MN 55440
 40
0.1
 41
1.68
  0
MTEXT
  5
48F
100
AcDbEntity
  8
0
100
AcDbMText
 62
2
  6
CONTINUOUS
  7
STANDARD
 71
1
 72
1
 10
14.255
 20
1.087
 30
0.0
 11
1.0
 21
0.0
 31
0.0
 44
0.9
  1
SHEET
 40
0.08
 41
0.4
  0
MTEXT
  5
490
100
AcDbEntity
  8
0
100
AcDbMText
 62
2
  6
CONTINUOUS
  7
STANDARD
 71
1
 72
1
 10
15.63
 20
1.457
 30
0.0
 11
1.0
 21
0.0
 31
0.0
 44
0.9
  1
REV.
 40
0.08
 41
0.32
  0
MTEXT
  5
491
100
AcDbEntity
  8
0
100
AcDbMText
 62
2
  6
CONTINUOUS
  7
STANDARD
 71
3
 72
1
 10
16.38
 20
0.835443
 30
0.0
 11
1.0
 21
0.0
 31
0.0
 44
0.9
  1
PRO/E
 40
0.07
 41
0.35
  0
MTEXT
  5
492
100
AcDbEntity
  8
0
100
AcDbMText
 62
2
  6
CONTINUOUS
  7
TEXTSTYLE_4
 71
2
 72
1
 10
15.03
 20
2.751049
 30
0.0
 11
1.0
 21
0.0
 31
0.0
 44
0.9
  1
BANNER ENGINEERING CORP.
 40
0.12
 41
2.6496
  0
MTEXT
  5
493
100
AcDbEntity
  8
0
100
AcDbMText
 62
2
  6
CONTINUOUS
  7
TEXTSTYLE_2
 71
2
 72
1
 10
15.03
 20
2.5724
 30
0.0
 11
1.0
 21
0.0
 31
0.0
 44
0.9
  1
P.O. BOX 9414
 40
0.1
 41
1.04
  0
MTEXT
  5
494
100
AcDbEntity
  8
0
100
AcDbMText
 62
2
  6
CONTINUOUS
  7
TEXTSTYLE_2
 71
2
 72
1
 10
9.485
 20
10.312
 30
0.0
 11
1.0
 21
0.0
 31
0.0
 44
0.9
  1
4
 40
0.1
 41
0.08
  0
MTEXT
  5
495
100
AcDbEntity
  8
0
100
AcDbMText
 62
2
  6
CONTINUOUS
  7
TEXTSTYLE_2
 71
2
 72
1
 10
11.455
 20
10.312
 30
0.0
 11
1.0
 21
0.0
 31
0.0
 44
0.9
  1
3
 40
0.1
 41
0.08
  0
MTEXT
  5
496
100
AcDbEntity
  8
0
100
AcDbMText
 62
2
  6
CONTINUOUS
  7
TEXTSTYLE_2
 71
2
 72
1
 10
13.425
 20
10.312
 30
0.0
 11
1.0
 21
0.0
 31
0.0
 44
0.9
  1
2
 40
0.1
 41
0.08
  0
MTEXT
  5
497
100
AcDbEntity
  8
0
100
AcDbMText
 62
2
  6
CONTINUOUS
  7
TEXTSTYLE_2
 71
2
 72
1
 10
15.395
 20
10.312
 30
0.0
 11
1.0
 21
0.0
 31
0.0
 44
0.9
  1
1
 40
0.1
 41
0.08
  0
MTEXT
  5
498
100
AcDbEntity
  8
0
100
AcDbMText
 62
2
  6
CONTINUOUS
  7
TEXTSTYLE_2
 71
2
 72
1
 10
3.575
 20
10.312
 30
0.0
 11
1.0
 21
0.0
 31
0.0
 44
0.9
  1
7
 40
0.1
 41
0.08
  0
MTEXT
  5
499
100
AcDbEntity
  8
0
100
AcDbMText
 62
2
  6
CONTINUOUS
  7
TEXTSTYLE_2
 71
2
 72
1
 10
5.545
 20
10.312
 30
0.0
 11
1.0
 21
0.0
 31
0.0
 44
0.9
  1
6
 40
0.1
 41
0.08
  0
MTEXT
  5
49A
100
AcDbEntity
  8
0
100
AcDbMText
 62
2
  6
CONTINUOUS
  7
TEXTSTYLE_2
 71
2
 72
1
 10
7.515
 20
10.312
 30
0.0
 11
1.0
 21
0.0
 31
0.0
 44
0.9
  1
5
 40
0.1
 41
0.08
  0
MTEXT
  5
49B
100
AcDbEntity
  8
0
100
AcDbMText
 62
2
  6
CONTINUOUS
  7
TEXTSTYLE_2
 71
2
 72
1
 10
1.605
 20
10.312
 30
0.0
 11
1.0
 21
0.0
 31
0.0
 44
0.9
  1
8
 40
0.1
 41
0.08
  0
MTEXT
  5
49C
100
AcDbEntity
  8
0
100
AcDbMText
 62
2
  6
CONTINUOUS
  7
TEXTSTYLE_2
 71
2
 72
1
 10
1.605
 20
0.787
 30
0.0
 11
1.0
 21
0.0
 31
0.0
 44
0.9
  1
8
 40
0.1
 41
0.08
  0
MTEXT
  5
49D
100
AcDbEntity
  8
0
100
AcDbMText
 62
2
  6
CONTINUOUS
  7
TEXTSTYLE_2
 71
2
 72
1
 10
3.575
 20
0.787
 30
0.0
 11
1.0
 21
0.0
 31
0.0
 44
0.9
  1
7
 40
0.1
 41
0.08
  0
MTEXT
  5
49E
100
AcDbEntity
  8
0
100
AcDbMText
 62
2
  6
CONTINUOUS
  7
TEXTSTYLE_2
 71
2
 72
1
 10
5.545
 20
0.787
 30
0.0
 11
1.0
 21
0.0
 31
0.0
 44
0.9
  1
6
 40
0.1
 41
0.08
  0
MTEXT
  5
49F
100
AcDbEntity
  8
0
100
AcDbMText
 62
2
  6
CONTINUOUS
  7
TEXTSTYLE_2
 71
2
 72
1
 10
7.515
 20
0.787
 30
0.0
 11
1.0
 21
0.0
 31
0.0
 44
0.9
  1
5
 40
0.1
 41
0.08
  0
MTEXT
  5
4A0
100
AcDbEntity
  8
0
100
AcDbMText
 62
2
  6
CONTINUOUS
  7
TEXTSTYLE_2
 71
2
 72
1
 10
9.485
 20
0.787
 30
0.0
 11
1.0
 21
0.0
 31
0.0
 44
0.9
  1
4
 40
0.1
 41
0.08
  0
MTEXT
  5
4A1
100
AcDbEntity
  8
0
100
AcDbMText
 62
2
  6
CONTINUOUS
  7
TEXTSTYLE_2
 71
2
 72
1
 10
11.455
 20
0.787
 30
0.0
 11
1.0
 21
0.0
 31
0.0
 44
0.9
  1
3
 40
0.1
 41
0.08
  0
MTEXT
  5
4A2
100
AcDbEntity
  8
0
100
AcDbMText
 62
2
  6
CONTINUOUS
  7
TEXTSTYLE_2
 71
2
 72
1
 10
13.425
 20
0.787
 30
0.0
 11
1.0
 21
0.0
 31
0.0
 44
0.9
  1
2
 40
0.1
 41
0.08
  0
MTEXT
  5
4A3
100
AcDbEntity
  8
0
100
AcDbMText
 62
2
  6
CONTINUOUS
  7
TEXTSTYLE_2
 71
2
 72
1
 10
15.395
 20
0.787
 30
0.0
 11
1.0
 21
0.0
 31
0.0
 44
0.9
  1
1
 40
0.1
 41
0.08
  0
MTEXT
  5
4A4
100
AcDbEntity
  8
0
100
AcDbMText
 62
2
  6
CONTINUOUS
  7
TEXTSTYLE_2
 71
3
 72
1
 10
0.52
 20
4.3995
 30
0.0
 11
1.0
 21
0.0
 31
0.0
 44
0.9
  1
B
 40
0.1
 41
0.08
  0
MTEXT
  5
4A5
100
AcDbEntity
  8
0
100
AcDbMText
 62
2
  6
CONTINUOUS
  7
TEXTSTYLE_2
 71
3
 72
1
 10
0.52
 20
2.0995
 30
0.0
 11
1.0
 21
0.0
 31
0.0
 44
0.9
  1
A
 40
0.1
 41
0.08
  0
MTEXT
  5
4A6
100
AcDbEntity
  8
0
100
AcDbMText
 62
2
  6
CONTINUOUS
  7
TEXTSTYLE_2
 71
3
 72
1
 10
0.52
 20
8.9995
 30
0.0
 11
1.0
 21
0.0
 31
0.0
 44
0.9
  1
D
 40
0.1
 41
0.08
  0
MTEXT
  5
4A7
100
AcDbEntity
  8
0
100
AcDbMText
 62
2
  6
CONTINUOUS
  7
TEXTSTYLE_2
 71
3
 72
1
 10
0.52
 20
6.6995
 30
0.0
 11
1.0
 21
0.0
 31
0.0
 44
0.9
  1
C
 40
0.1
 41
0.08
  0
MTEXT
  5
4A8
100
AcDbEntity
  8
0
100
AcDbMText
 62
2
  6
CONTINUOUS
  7
TEXTSTYLE_2
 71
1
 72
1
 10
16.48
 20
8.9995
 30
0.0
 11
1.0
 21
0.0
 31
0.0
 44
0.9
  1
D
 40
0.1
 41
0.08
  0
MTEXT
  5
4A9
100
AcDbEntity
  8
0
100
AcDbMText
 62
2
  6
CONTINUOUS
  7
TEXTSTYLE_2
 71
1
 72
1
 10
16.48
 20
6.6995
 30
0.0
 11
1.0
 21
0.0
 31
0.0
 44
0.9
  1
C
 40
0.1
 41
0.08
  0
MTEXT
  5
4AA
100
AcDbEntity
  8
0
100
AcDbMText
 62
2
  6
CONTINUOUS
  7
TEXTSTYLE_2
 71
1
 72
1
 10
16.48
 20
4.3995
 30
0.0
 11
1.0
 21
0.0
 31
0.0
 44
0.9
  1
B
 40
0.1
 41
0.08
  0
MTEXT
  5
4AB
100
AcDbEntity
  8
0
100
AcDbMText
 62
2
  6
CONTINUOUS
  7
TEXTSTYLE_2
 71
1
 72
1
 10
16.48
 20
2.0995
 30
0.0
 11
1.0
 21
0.0
 31
0.0
 44
0.9
  1
A
 40
0.1
 41
0.08
  0
MTEXT
  5
4AC
100
AcDbEntity
  8
0
100
AcDbMText
 62
2
  6
CONTINUOUS
  7
STANDARD
 71
1
 72
1
 10
14.819264911
 20
1.0627941725
 30
0.0
 11
1.0
 21
0.0
 31
0.0
 44
0.9
  1
1 OF 1
 40
0.1
 41
0.6
  0
MTEXT
  5
4AD
100
AcDbEntity
  8
0
100
AcDbMText
 62
7
  6
CONTINUOUS
  7
STANDARD
 71
1
 72
1
 10
13.8911999818
 20
1.3747321586
 30
0.0
 11
1.0
 21
0.0
 31
0.0
 44
0.9
  1
150311
 40
0.12
 41
0.72
  0
MTEXT
  5
4AE
100
AcDbEntity
  8
0
100
AcDbMText
 62
2
  6
CONTINUOUS
  7
STANDARD
 71
1
 72
1
 10
12.644264911
 20
1.0627941725
 30
0.0
 11
1.0
 21
0.0
 31
0.0
 44
0.9
  1
1:1
 40
0.1
 41
0.3
  0
MTEXT
  5
4AF
100
AcDbEntity
  8
0
100
AcDbMText
 62
2
  6
CONTINUOUS
  7
STANDARD
 71
1
 72
1
 10
1.0597007627
 20
1.6202922458
 30
0.0
 11
1.0
 21
0.0
 31
0.0
 44
0.9
  1
NOTES:\P1. ALL DIMENSIONS ARE MILLIMETERS [INCHES] UNLESS OTHERWISE NOTED.
 40
0.1
 41
6.6
  0
INSERT
  5
4B0
100
AcDbEntity
  8
0
100
AcDbBlockReference
 62
2
  6
CONTINUOUS
  2
BANNER_LOGO_TITLEBLOCK_BL0
 10
12.9086867042
 20
2.5403783405
  0
DIMENSION
  5
4B1
100
AcDbEntity
  8
SCHEME_DIMS
100
AcDbDimension
 62
2
  6
CONTINUOUS
  2
*D0
 10
2.9028958269
 20
9.787602019
 11
2.8278958269
 21
9.0826807591
 70
160
 71
2
 42
32.0
  3
DIMSTYLE_1
100
AcDbAlignedDimension
 13
3.7757761978
 23
8.5277594993
 14
3.7757761978
 24
9.787602019
 50
90.0
100
AcDbRotatedDimension
  0
DIMENSION
  5
4B2
100
AcDbEntity
  8
SCHEME_DIMS
100
AcDbDimension
 62
2
  6
CONTINUOUS
  2
*D1
 10
12.229322473
 20
6.5847518179
 11
12.154322473
 21
5.0573196979
 70
160
 71
2
 42
80.0
  3
DIMSTYLE_1
100
AcDbAlignedDimension
 13
11.4172736458
 23
3.4351455187
 14
11.4600850487
 24
6.5847518179
 50
90.0
100
AcDbRotatedDimension
  0
DIMENSION
  5
4B3
100
AcDbEntity
  8
SCHEME_DIMS
100
AcDbDimension
 62
2
  6
CONTINUOUS
  2
*D2
 10
3.876621571
 20
2.4222166653
 11
5.0811491301
 21
2.3472166653
 70
160
 71
2
 42
65.0
  3
DIMSTYLE_1
100
AcDbAlignedDimension
 13
6.4356766891
 23
3.5301258336
 14
3.876621571
 24
3.5301258336
 50
180.0
100
AcDbRotatedDimension
  0
DIMENSION
  5
4B4
100
AcDbEntity
  8
SCHEME_DIMS
100
AcDbDimension
 62
2
  6
CONTINUOUS
  2
*D3
 10
6.4356766891
 20
7.3888236495
 11
5.238629445
 21
7.3138236495
 70
160
 71
2
 42
57.0
  3
DIMSTYLE_1
100
AcDbAlignedDimension
 13
4.1915822009
 23
6.5446929321
 14
6.4356766891
 24
6.5186195593
100
AcDbRotatedDimension
  0
DIMENSION
  5
4B5
100
AcDbEntity
  8
SCHEME_DIMS
100
AcDbDimension
 62
2
  6
CONTINUOUS
  2
*D4
 10
9.0061752312
 20
6.4272715029
 11
8.9311752312
 21
4.9349486683
 70
160
 71
2
 42
72.0
  3
DIMSTYLE_1
100
AcDbAlignedDimension
 13
6.5659885745
 23
3.5926258336
 14
4.7191246692
 24
6.4272715029
 50
90.0
100
AcDbRotatedDimension
  0
DIMENSION
  5
4B6
100
AcDbEntity
  8
SCHEME_DIMS
100
AcDbDimension
 62
2
  6
CONTINUOUS
  2
*D5
 10
6.2388262954
 20
2.9157856121
 11
5.0811491301
 21
2.8407856121
 70
160
 71
2
 42
55.0
  3
DIMSTYLE_1
100
AcDbAlignedDimension
 13
4.0734719647
 23
3.3352345653
 14
6.2388262954
 24
3.2239881747
100
AcDbRotatedDimension
  0
DIMENSION
  5
4B7
100
AcDbEntity
  8
SCHEME_DIMS
100
AcDbDimension
 62
2
  6
CONTINUOUS
  2
*D6
 10
9.0061752312
 20
3.4351455187
 11
8.3593417399
 21
2.9108007536
 70
160
 71
3
 42
4.0
  3
DIMSTYLE_1
100
AcDbAlignedDimension
 13
8.127674965
 23
3.5926258336
 14
6.4845092846
 24
3.4351455187
 50
270.0
100
AcDbRotatedDimension
  0
DIMENSION
  5
4B8
100
AcDbEntity
  8
SCHEME_DIMS
100
AcDbDimension
 62
2
  6
CONTINUOUS
  2
*D7
 10
6.4356766891
 20
2.9157856121
 11
7.2009750984
 21
2.8407856121
 70
160
 71
1
 42
5.0
  3
DIMSTYLE_1
100
AcDbAlignedDimension
 13
6.2388262954
 23
3.3296722457
 14
6.4356766891
 24
3.5301258336
100
AcDbRotatedDimension
  0
DIMENSION
  5
4B9
100
AcDbEntity
  8
SCHEME_DIMS
100
AcDbDimension
 62
2
  6
CONTINUOUS
  2
*D8
 10
4.3884325946
 20
7.008722762
 11
5.238629445
 21
6.933722762
 70
160
 71
2
 42
47.0
  3
DIMSTYLE_1
100
AcDbAlignedDimension
 13
6.2388262954
 23
3.8574723075
 14
4.3884325946
 24
6.4897715029
 50
180.0
100
AcDbRotatedDimension
  0
DIMENSION
  5
4BA
100
AcDbEntity
  8
SCHEME_DIMS
100
AcDbDimension
 62
2
  6
CONTINUOUS
  2
*D9
 10
6.2863113343
 20
3.6626976569
 11
7.9439206826
 21
4.9762101392
 70
163
 71
1
 42
4.3
  1
3X <>
  3
DIMSTYLE_2
100
AcDbDiametricDimension
 15
6.1913412565
 25
3.5225540104
  0
DIMENSION
  5
4BB
100
AcDbEntity
  8
SCHEME_DIMS
100
AcDbDimension
 62
2
  6
CONTINUOUS
  2
*D10
 10
11.7452147276
 20
4.2225470935
 11
11.6702147276
 21
3.7538463061
 70
160
 71
2
 42
20.0
  3
DIMSTYLE_1
100
AcDbAlignedDimension
 13
11.4172736458
 23
3.4351455187
 14
11.1113192803
 24
4.2225470935
 50
90.0
100
AcDbRotatedDimension
  0
DIMENSION
  5
4BC
100
AcDbEntity
  8
0
100
AcDbDimension
 62
2
  6
CONTINUOUS
  2
*D11
 10
2.9582660799
 20
6.5847518179
 11
2.8832660799
 21
6.3034733398
 70
160
 71
2
 42
15.0
  3
DIMSTYLE_3
100
AcDbAlignedDimension
 13
3.4034546739
 23
5.9942006368
 14
4.2728943342
 24
6.5847518179
 50
90.0
100
AcDbRotatedDimension
  0
LINE
  5
4BD
100
AcDbEntity
  8
0
100
AcDbLine
 62
2
  6
CONTINUOUS
 10
16.38
 20
0.887
 11
12.03
 21
0.887
  0
LINE
  5
4BE
100
AcDbEntity
  8
0
100
AcDbLine
 62
2
  6
CONTINUOUS
 10
16.38
 20
0.887
 11
16.38
 21
2.807
  0
LINE
  5
4BF
100
AcDbEntity
  8
0
100
AcDbLine
 62
2
  6
CONTINUOUS
 10
16.38
 20
2.807
 11
12.03
 21
2.807
  0
LINE
  5
4C0
100
AcDbEntity
  8
0
100
AcDbLine
 62
2
  6
CONTINUOUS
 10
12.03
 20
0.887
 11
12.03
 21
2.807
  0
MTEXT
  5
4C1
100
AcDbEntity
  8
NOTES
100
AcDbMText
 62
7
  6
CONTINUOUS
  7
STANDARD
 71
2
 72
1
 10
16.155
 20
1.367
 30
0.0
 11
1.0
 21
0.0
 31
0.0
 44
0.9
  1
B
 40
0.1
 41
0.1
  0
MTEXT
  5
4C2
100
AcDbEntity
  8
NOTES
100
AcDbMText
 62
7
  6
CONTINUOUS
  7
STANDARD
 71
2
 72
1
 10
14.205
 20
1.967
 30
0.0
 11
1.0
 21
0.0
 31
0.0
 44
0.9
  1
LH\PWEB CAD DRAWINGS 2D/3D
 40
0.1
 41
2.2
  0
LEADER
  5
4C3
100
AcDbEntity
  8
NOTES
100
AcDbLeader
 62
2
  6
CONTINUOUS
  3
STANDARD
 71
1
 72
0
 73
0
 75
0
 40
0.1
 41
0.7
 76
3
 10
3.8725717944
 20
9.1576807591
 30
0.0
 10
2.621677752
 20
8.0417154678
 30
0.0
 10
2.371677752
 20
8.0417154678
 30
0.0
340
4C5
1001
ACAD
1000
DSTYLE
1002
{
1070
77
1070
0
1002
}
  0
LEADER
  5
4C4
100
AcDbEntity
  8
NOTES
100
AcDbLeader
 62
2
  6
CONTINUOUS
  3
STANDARD
 71
1
 72
0
 73
0
 75
0
 40
0.1
 41
0.7
 76
3
 10
4.1573625542
 20
5.9942006368
 30
0.0
 10
2.621677752
 20
8.0417154678
 30
0.0
 10
2.371677752
 20
8.0417154678
 30
0.0
340
4C5
1001
ACAD
1000
DSTYLE
1002
{
1070
77
1070
0
1002
}
  0
MTEXT
  5
4C5
102
{ACAD_REACTORS
330
4C3
330
4C4
102
}
100
AcDbEntity
  8
NOTES
100
AcDbMText
 62
2
  6
CONTINUOUS
  7
STANDARD
 71
3
 72
1
 10
2.371677752
 20
8.0917154678
 30
0.0
 11
1.0
 21
0.0
 31
0.0
 44
0.9
  1
EMITTER\PBEAM
 40
0.1
 41
0.7
  0
LEADER
  5
4C6
100
AcDbEntity
  8
NOTES
100
AcDbLeader
 62
2
  6
CONTINUOUS
  3
STANDARD
 71
1
 72
0
 73
0
 75
0
 40
0.1
 41
1.1
 76
3
 10
4.1915822009
 20
6.4575612597
 30
0.0
 10
3.0549972179
 20
8.0396994977
 30
0.0
 10
3.3594376868
 20
8.0396994977
 30
0.0
340
4C7
1001
ACAD
1000
DSTYLE
1002
{
1070
77
1070
0
1002
}
  0
MTEXT
  5
4C7
102
{ACAD_REACTORS
330
4C6
102
}
100
AcDbEntity
  8
NOTES
100
AcDbMText
 62
2
  6
CONTINUOUS
  7
STANDARD
 71
1
 72
1
 10
3.3594376868
 20
8.0896994977
 30
0.0
 11
1.0
 21
0.0
 31
0.0
 44
0.9
  1
MEASUREMENT\PRANGE\PREFERENCE
 40
0.1
 41
1.1
  0
INSERT
  5
4C8
100
AcDbEntity
  8
SYMBOLS
100
AcDbBlockReference
 62
2
  6
CONTINUOUS
  2
CL_BL1
 10
3.5968615138
 20
9.1913694229
  0
LINE
  5
4C9
100
AcDbEntity
  8
0
100
AcDbLine
 62
2
  6
CONTINUOUS
 10
0.47
 20
5.586103
 11
0.47
 21
5.412897
  0
LINE
  5
4CA
100
AcDbEntity
  8
0
100
AcDbLine
 62
2
  6
CONTINUOUS
 10
0.62
 20
10.112
 11
0.62
 21
0.887
  0
LINE
  5
4CB
100
AcDbEntity
  8
0
100
AcDbLine
 62
2
  6
CONTINUOUS
 10
2.59
 20
0.887
 11
2.59
 21
0.637
  0
LINE
  5
4CC
100
AcDbEntity
  8
0
100
AcDbLine
 62
2
  6
CONTINUOUS
 10
2.59
 20
10.112
 11
2.59
 21
10.362
  0
LINE
  5
4CD
100
AcDbEntity
  8
0
100
AcDbLine
 62
2
  6
CONTINUOUS
 10
8.413397
 20
0.737
 11
8.586603
 21
0.737
  0
LINE
  5
4CE
100
AcDbEntity
  8
0
100
AcDbLine
 62
7
  6
CONTINUOUS
 10
11.1389508475
 20
1.425992839
 11
11.7453418475
 21
1.495385839
  0
LINE
  5
4CF
100
AcDbEntity
  8
0
100
AcDbLine
 62
2
  6
CONTINUOUS
 10
0.62
 20
0.887
 11
16.38
 21
0.887
  0
LINE
  5
4D0
100
AcDbEntity
  8
0
100
AcDbLine
 62
2
  6
CONTINUOUS
 10
12.03
 20
1.137
 11
16.38
 21
1.137
  0
LINE
  5
4D1
100
AcDbEntity
  8
0
100
AcDbLine
 62
7
  6
CONTINUOUS
 10
10.2121898475
 20
1.243294839
 11
10.4342808475
 21
1.243294839
  0
LINE
  5
4D2
100
AcDbEntity
  8
0
100
AcDbLine
 62
7
  6
CONTINUOUS
 10
10.4842808475
 20
1.243294839
 11
10.5842808475
 21
1.243294839
  0
LINE
  5
4D3
100
AcDbEntity
  8
0
100
AcDbLine
 62
7
  6
CONTINUOUS
 10
10.6342808475
 20
1.243294839
 11
10.8563718475
 21
1.243294839
  0
LINE
  5
4D4
100
AcDbEntity
  8
0
100
AcDbLine
 62
7
  6
CONTINUOUS
 10
11.0389508475
 20
1.243294839
 11
11.3171028475
 21
1.243294839
  0
LINE
  5
4D5
100
AcDbEntity
  8
0
100
AcDbLine
 62
7
  6
CONTINUOUS
 10
11.3671028475
 20
1.243294839
 11
11.5171888475
 21
1.243294839
  0
LINE
  5
4D6
100
AcDbEntity
  8
0
100
AcDbLine
 62
7
  6
CONTINUOUS
 10
11.5671888475
 20
1.243294839
 11
11.8453418475
 21
1.243294839
  0
LINE
  5
4D7
100
AcDbEntity
  8
0
100
AcDbLine
 62
7
  6
CONTINUOUS
 10
11.7453418475
 20
0.991203839
 11
11.1389508475
 21
1.060596839
  0
LINE
  5
4D8
100
AcDbEntity
  8
0
100
AcDbLine
 62
2
  6
CONTINUOUS
 10
4.56
 20
0.887
 11
4.56
 21
0.637
  0
LINE
  5
4D9
100
AcDbEntity
  8
0
100
AcDbLine
 62
2
  6
CONTINUOUS
 10
4.56
 20
10.112
 11
4.56
 21
10.362
  0
LINE
  5
4DA
100
AcDbEntity
  8
0
100
AcDbLine
 62
2
  6
CONTINUOUS
 10
0.47
 20
5.412897
 11
0.62
 21
5.4995
  0
LINE
  5
4DB
100
AcDbEntity
  8
0
100
AcDbLine
 62
2
  6
CONTINUOUS
 10
12.03
 20
1.507
 11
16.38
 21
1.507
  0
LINE
  5
4DC
100
AcDbEntity
  8
0
100
AcDbLine
 62
2
  6
CONTINUOUS
 10
10.03
 20
1.907
 11
12.03
 21
1.907
  0
LINE
  5
4DD
100
AcDbEntity
  8
0
100
AcDbLine
 62
2
  6
CONTINUOUS
 10
0.62
 20
5.4995
 11
0.47
 21
5.586103
  0
LINE
  5
4DE
100
AcDbEntity
  8
0
100
AcDbLine
 62
2
  6
CONTINUOUS
 10
12.03
 20
2.267
 11
16.38
 21
2.267
  0
LINE
  5
4DF
100
AcDbEntity
  8
0
100
AcDbLine
 62
2
  6
CONTINUOUS
 10
8.5
 20
10.112
 11
8.586603
 21
10.262
  0
LINE
  5
4E0
100
AcDbEntity
  8
0
100
AcDbLine
 62
2
  6
CONTINUOUS
 10
16.38
 20
2.807
 11
10.03
 21
2.807
  0
LINE
  5
4E1
100
AcDbEntity
  8
0
100
AcDbLine
 62
2
  6
CONTINUOUS
 10
0.62
 20
3.1995
 11
0.37
 21
3.1995
  0
LINE
  5
4E2
100
AcDbEntity
  8
0
100
AcDbLine
 62
2
  6
CONTINUOUS
 10
16.38
 20
3.1995
 11
16.63
 21
3.1995
  0
LINE
  5
4E3
100
AcDbEntity
  8
0
100
AcDbLine
 62
2
  6
CONTINUOUS
 10
8.586603
 20
0.737
 11
8.5
 21
0.887
  0
LINE
  5
4E4
100
AcDbEntity
  8
0
100
AcDbLine
 62
2
  6
CONTINUOUS
 10
6.53
 20
0.887
 11
6.53
 21
0.637
  0
LINE
  5
4E5
100
AcDbEntity
  8
0
100
AcDbLine
 62
2
  6
CONTINUOUS
 10
6.53
 20
10.112
 11
6.53
 21
10.362
  0
LINE
  5
4E6
100
AcDbEntity
  8
0
100
AcDbLine
 62
2
  6
CONTINUOUS
 10
8.5
 20
0.887
 11
8.5
 21
0.637
  0
LINE
  5
4E7
100
AcDbEntity
  8
0
100
AcDbLine
 62
2
  6
CONTINUOUS
 10
8.5
 20
10.112
 11
8.5
 21
10.362
  0
LINE
  5
4E8
100
AcDbEntity
  8
0
100
AcDbLine
 62
2
  6
CONTINUOUS
 10
0.62
 20
5.4995
 11
0.37
 21
5.4995
  0
LINE
  5
4E9
100
AcDbEntity
  8
0
100
AcDbLine
 62
2
  6
CONTINUOUS
 10
16.38
 20
5.4995
 11
16.63
 21
5.4995
  0
LINE
  5
4EA
100
AcDbEntity
  8
0
100
AcDbLine
 62
2
  6
CONTINUOUS
 10
10.03
 20
2.807
 11
10.03
 21
0.887
  0
LINE
  5
4EB
100
AcDbEntity
  8
0
100
AcDbLine
 62
2
  6
CONTINUOUS
 10
10.47
 20
0.887
 11
10.47
 21
0.637
  0
LINE
  5
4EC
100
AcDbEntity
  8
0
100
AcDbLine
 62
2
  6
CONTINUOUS
 10
10.47
 20
10.112
 11
10.47
 21
10.362
  0
LINE
  5
4ED
100
AcDbEntity
  8
0
100
AcDbLine
 62
7
  6
CONTINUOUS
 10
10.5342808475
 20
1.143294839
 11
10.5342808475
 21
0.921203839
  0
LINE
  5
4EE
100
AcDbEntity
  8
0
100
AcDbLine
 62
7
  6
CONTINUOUS
 10
10.5342808475
 20
1.193294839
 11
10.5342808475
 21
1.293294839
  0
LINE
  5
4EF
100
AcDbEntity
  8
0
100
AcDbLine
 62
7
  6
CONTINUOUS
 10
10.5342808475
 20
1.343294839
 11
10.5342808475
 21
1.565385839
  0
LINE
  5
4F0
100
AcDbEntity
  8
0
100
AcDbLine
 62
2
  6
CONTINUOUS
 10
8.5
 20
0.887
 11
8.413397
 21
0.737
  0
LINE
  5
4F1
100
AcDbEntity
  8
0
100
AcDbLine
 62
2
  6
CONTINUOUS
 10
0.62
 20
7.7995
 11
0.37
 21
7.7995
  0
LINE
  5
4F2
100
AcDbEntity
  8
0
100
AcDbLine
 62
2
  6
CONTINUOUS
 10
16.38
 20
7.7995
 11
16.63
 21
7.7995
  0
LINE
  5
4F3
100
AcDbEntity
  8
0
100
AcDbLine
 62
2
  6
CONTINUOUS
 10
8.413397
 20
10.262
 11
8.5
 21
10.112
  0
LINE
  5
4F4
100
AcDbEntity
  8
0
100
AcDbLine
 62
7
  6
CONTINUOUS
 10
11.1389508475
 20
1.060596839
 11
11.1389508475
 21
1.425992839
  0
LINE
  5
4F5
100
AcDbEntity
  8
0
100
AcDbLine
 62
7
  6
CONTINUOUS
 10
11.7453418475
 20
1.495385839
 11
11.7453418475
 21
0.991203839
  0
LINE
  5
4F6
100
AcDbEntity
  8
0
100
AcDbLine
 62
1
  6
CONTINUOUS
 10
12.03
 20
2.807
 11
12.03
 21
0.887
  0
LINE
  5
4F7
100
AcDbEntity
  8
0
100
AcDbLine
 62
2
  6
CONTINUOUS
 10
12.44
 20
0.887
 11
12.44
 21
0.637
  0
LINE
  5
4F8
100
AcDbEntity
  8
0
100
AcDbLine
 62
2
  6
CONTINUOUS
 10
12.44
 20
10.112
 11
12.44
 21
10.362
  0
LINE
  5
4F9
100
AcDbEntity
  8
0
100
AcDbLine
 62
2
  6
CONTINUOUS
 10
16.53
 20
5.586103
 11
16.38
 21
5.4995
  0
LINE
  5
4FA
100
AcDbEntity
  8
0
100
AcDbLine
 62
2
  6
CONTINUOUS
 10
16.38
 20
5.4995
 11
16.53
 21
5.412897
  0
LINE
  5
4FB
100
AcDbEntity
  8
0
100
AcDbLine
 62
2
  6
CONTINUOUS
 10
12.83
 20
1.507
 11
12.83
 21
1.137
  0
LINE
  5
4FC
100
AcDbEntity
  8
0
100
AcDbLine
 62
2
  6
CONTINUOUS
 10
16.38
 20
10.112
 11
0.62
 21
10.112
  0
LINE
  5
4FD
100
AcDbEntity
  8
0
100
AcDbLine
 62
2
  6
CONTINUOUS
 10
8.586603
 20
10.262
 11
8.413397
 21
10.262
  0
LINE
  5
4FE
100
AcDbEntity
  8
0
100
AcDbLine
 62
2
  6
CONTINUOUS
 10
14.205
 20
1.137
 11
14.205
 21
0.887
  0
LINE
  5
4FF
100
AcDbEntity
  8
0
100
AcDbLine
 62
2
  6
CONTINUOUS
 10
14.41
 20
0.887
 11
14.41
 21
0.637
  0
LINE
  5
500
100
AcDbEntity
  8
0
100
AcDbLine
 62
2
  6
CONTINUOUS
 10
14.41
 20
10.112
 11
14.41
 21
10.362
  0
LINE
  5
501
100
AcDbEntity
  8
0
100
AcDbLine
 62
2
  6
CONTINUOUS
 10
15.58
 20
1.507
 11
15.58
 21
1.137
  0
LINE
  5
502
100
AcDbEntity
  8
0
100
AcDbLine
 62
2
  6
CONTINUOUS
 10
16.38
 20
0.887
 11
16.38
 21
10.112
  0
LINE
  5
503
100
AcDbEntity
  8
0
100
AcDbLine
 62
2
  6
CONTINUOUS
 10
16.53
 20
5.412897
 11
16.53
 21
5.586103
  0
LINE
  5
504
100
AcDbEntity
  8
0
100
AcDbLine
 62
7
  6
CONTINUOUS
 10
3.876621571
 20
3.7894762273
 11
3.876621571
 21
3.5926258336
  0
LINE
  5
505
100
AcDbEntity
  8
0
100
AcDbLine
 62
7
  6
CONTINUOUS
 10
4.0242593663
 20
3.9272715029
 11
4.0242593663
 21
3.8879014242
  0
LINE
  5
506
100
AcDbEntity
  8
AXIS
100
AcDbLine
 62
7
  6
CENTER
 10
4.0734719647
 20
3.5926258336
 11
4.0734719647
 21
3.4079801644
  0
LINE
  5
507
100
AcDbEntity
  8
AXIS
100
AcDbLine
 62
7
  6
CENTER
 10
4.0734719647
 20
3.5926258336
 11
4.0734719647
 21
3.7772715029
  0
LINE
  5
508
100
AcDbEntity
  8
0
100
AcDbLine
 62
7
  6
CONTINUOUS
 10
4.0833144844
 20
3.986326621
 11
4.0833144844
 21
3.9272715029
  0
LINE
  5
509
100
AcDbEntity
  8
0
100
AcDbLine
 62
7
  6
CONTINUOUS
 10
4.0833144844
 20
3.8879014242
 11
4.0833144844
 21
3.8288463061
  0
LINE
  5
50A
100
AcDbEntity
  8
0
100
AcDbLine
 62
7
  6
CONTINUOUS
 10
4.1226845631
 20
3.8288463061
 11
4.1226845631
 21
3.8879014242
  0
LINE
  5
50B
100
AcDbEntity
  8
0
100
AcDbLine
 62
7
  6
CONTINUOUS
 10
4.1226845631
 20
3.9272715029
 11
4.1226845631
 21
3.986326621
  0
LINE
  5
50C
100
AcDbEntity
  8
0
100
AcDbLine
 62
7
  6
CONTINUOUS
 10
4.1817396812
 20
3.8879014242
 11
4.1817396812
 21
3.9272715029
  0
LINE
  5
50D
100
AcDbEntity
  8
NOTES
100
AcDbLine
 62
2
  6
CONTINUOUS
 10
4.1915822009
 20
6.4575612597
 11
4.1915822009
 21
6.4272715029
  0
LINE
  5
50E
100
AcDbEntity
  8
0
100
AcDbLine
 62
7
  6
CONTINUOUS
 10
4.1915822009
 20
6.4272715029
 11
4.1915822009
 21
6.2422321329
  0
LINE
  5
50F
100
AcDbEntity
  8
0
100
AcDbLine
 62
7
  6
CONTINUOUS
 10
4.1915822009
 20
6.2422321329
 11
3.876621571
 21
3.7737281958
  0
LINE
  5
510
100
AcDbEntity
  8
0
100
AcDbLine
 62
7
  6
CONTINUOUS
 10
4.0565990738
 20
5.1843018741
 11
3.876621571
 21
3.7894762273
  0
LINE
  5
511
100
AcDbEntity
  8
0
100
AcDbLine
 62
7
  6
CONTINUOUS
 10
4.2427633033
 20
3.4351455187
 11
4.2427633033
 21
3.5847518179
  0
LINE
  5
512
100
AcDbEntity
  8
0
100
AcDbLine
 62
7
  6
CONTINUOUS
 10
4.2585113348
 20
3.5867203218
 11
4.2585113348
 21
3.4351455187
  0
LINE
  5
513
100
AcDbEntity
  8
AXIS
100
AcDbLine
 62
7
  6
CENTER
 10
4.3884325946
 20
6.4272715029
 11
4.3884325946
 21
6.2426258336
  0
LINE
  5
514
100
AcDbEntity
  8
AXIS
100
AcDbLine
 62
7
  6
CENTER
 10
4.3884325946
 20
6.4272715029
 11
4.3884325946
 21
6.6119171722
  0
LINE
  5
515
100
AcDbEntity
  8
AXIS
100
AcDbLine
 62
7
  6
CONTINUOUS
 10
4.4868577915
 20
6.5847518179
 11
4.4868577915
 21
6.5886888258
  0
LINE
  5
516
100
AcDbEntity
  8
0
100
AcDbLine
 62
7
  6
CONTINUOUS
 10
4.565597949
 20
6.5847518179
 11
4.565597949
 21
6.4312085108
  0
LINE
  5
517
100
AcDbEntity
  8
0
100
AcDbLine
 62
7
  6
CONTINUOUS
 10
4.5774089726
 20
6.5847518179
 11
4.5774089726
 21
6.4213659911
  0
LINE
  5
518
100
AcDbEntity
  8
AXIS
100
AcDbLine
 62
7
  6
CONTINUOUS
 10
4.6049680277
 20
6.5847518179
 11
4.6049680277
 21
6.5886888258
  0
LINE
  5
519
100
AcDbEntity
  8
0
100
AcDbLine
 62
7
  6
CONTINUOUS
 10
4.6344955868
 20
6.4075864636
 11
4.6344955868
 21
6.3682163848
  0
LINE
  5
51A
100
AcDbEntity
  8
0
100
AcDbLine
 62
7
  6
CONTINUOUS
 10
4.6935507049
 20
6.4666415817
 11
4.6935507049
 21
6.4075864636
  0
LINE
  5
51B
100
AcDbEntity
  8
0
100
AcDbLine
 62
7
  6
CONTINUOUS
 10
4.6935507049
 20
6.3682163848
 11
4.6935507049
 21
6.3091612667
  0
LINE
  5
51C
100
AcDbEntity
  8
0
100
AcDbLine
 62
7
  6
CONTINUOUS
 10
4.7329207836
 20
6.3091612667
 11
4.7329207836
 21
6.3682163848
  0
LINE
  5
51D
100
AcDbEntity
  8
0
100
AcDbLine
 62
7
  6
CONTINUOUS
 10
4.7329207836
 20
6.4075864636
 11
4.7329207836
 21
6.4666415817
  0
LINE
  5
51E
100
AcDbEntity
  8
0
100
AcDbLine
 62
7
  6
CONTINUOUS
 10
4.7919759017
 20
6.3682163848
 11
4.7919759017
 21
6.4075864636
  0
LINE
  5
51F
100
AcDbEntity
  8
0
100
AcDbLine
 62
7
  6
CONTINUOUS
 10
4.034101886
 20
3.4351455187
 11
4.5734719647
 21
3.4351455187
  0
LINE
  5
520
100
AcDbEntity
  8
0
100
AcDbLine
 62
7
  6
CONTINUOUS
 10
5.7486688151
 20
3.4351455187
 11
6.2781963742
 21
3.4351455187
  0
LINE
  5
521
100
AcDbEntity
  8
0
100
AcDbLine
 62
7
  6
CONTINUOUS
 10
4.6522121222
 20
3.4548305581
 11
5.6758341694
 21
3.4548305581
  0
LINE
  5
522
100
AcDbEntity
  8
0
100
AcDbLine
 62
7
  6
CONTINUOUS
 10
5.7486688151
 20
3.4351455187
 11
5.6699286576
 21
3.4548305581
  0
LINE
  5
523
100
AcDbEntity
  8
0
100
AcDbLine
 62
7
  6
CONTINUOUS
 10
5.6758341694
 20
3.4548305581
 11
5.7545743269
 21
3.4351455187
  0
LINE
  5
524
100
AcDbEntity
  8
AXIS
100
AcDbLine
 62
7
  6
CENTER
 10
6.2388262954
 20
3.5926258336
 11
5.1198302053
 21
3.5926258336
  0
LINE
  5
525
100
AcDbEntity
  8
AXIS
100
AcDbLine
 62
7
  6
CENTER
 10
4.0734719647
 20
3.5926258336
 11
3.8888262954
 21
3.5926258336
  0
LINE
  5
526
100
AcDbEntity
  8
AXIS
100
AcDbLine
 62
7
  6
CENTER
 10
4.0734719647
 20
3.5926258336
 11
5.1198302053
 21
3.5926258336
  0
LINE
  5
527
100
AcDbEntity
  8
AXIS
100
AcDbLine
 62
7
  6
CENTER
 10
6.2388262954
 20
3.5926258336
 11
6.4234719647
 21
3.5926258336
  0
LINE
  5
528
100
AcDbEntity
  8
0
100
AcDbLine
 62
7
  6
CONTINUOUS
 10
3.876621571
 20
3.7579801644
 11
4.0695349568
 21
3.7579801644
  0
LINE
  5
529
100
AcDbEntity
  8
0
100
AcDbLine
 62
7
  6
CONTINUOUS
 10
6.4356766891
 20
3.7619171722
 11
6.2427633033
 21
3.7619171722
  0
LINE
  5
52A
100
AcDbEntity
  8
0
100
AcDbLine
 62
7
  6
CONTINUOUS
 10
3.876621571
 20
3.7737281958
 11
4.0715034608
 21
3.7737281958
  0
LINE
  5
52B
100
AcDbEntity
  8
0
100
AcDbLine
 62
7
  6
CONTINUOUS
 10
6.2407947994
 20
3.7737281958
 11
6.4356766891
 21
3.7737281958
  0
LINE
  5
52C
100
AcDbEntity
  8
0
100
AcDbLine
 62
7
  6
CONTINUOUS
 10
4.0833144844
 20
3.8288463061
 11
4.1226845631
 21
3.8288463061
  0
LINE
  5
52D
100
AcDbEntity
  8
0
100
AcDbLine
 62
7
  6
CONTINUOUS
 10
6.1502436182
 20
3.8288463061
 11
6.189613697
 21
3.8288463061
  0
LINE
  5
52E
100
AcDbEntity
  8
0
100
AcDbLine
 62
7
  6
CONTINUOUS
 10
4.5734719647
 20
3.4351455187
 11
4.6522121222
 21
3.4548305581
  0
LINE
  5
52F
100
AcDbEntity
  8
0
100
AcDbLine
 62
7
  6
CONTINUOUS
 10
4.0242593663
 20
3.8879014242
 11
4.0833144844
 21
3.8879014242
  0
LINE
  5
530
100
AcDbEntity
  8
0
100
AcDbLine
 62
7
  6
CONTINUOUS
 10
4.1226845631
 20
3.8879014242
 11
4.1817396812
 21
3.8879014242
  0
LINE
  5
531
100
AcDbEntity
  8
0
100
AcDbLine
 62
7
  6
CONTINUOUS
 10
6.0911885001
 20
3.8879014242
 11
6.1502436182
 21
3.8879014242
  0
LINE
  5
532
100
AcDbEntity
  8
0
100
AcDbLine
 62
7
  6
CONTINUOUS
 10
6.189613697
 20
3.8879014242
 11
6.2486688151
 21
3.8879014242
  0
LINE
  5
533
100
AcDbEntity
  8
0
100
AcDbLine
 62
7
  6
CONTINUOUS
 10
6.2486688151
 20
3.9272715029
 11
6.189613697
 21
3.9272715029
  0
LINE
  5
534
100
AcDbEntity
  8
0
100
AcDbLine
 62
7
  6
CONTINUOUS
 10
6.1502436182
 20
3.9272715029
 11
6.0911885001
 21
3.9272715029
  0
LINE
  5
535
100
AcDbEntity
  8
0
100
AcDbLine
 62
7
  6
CONTINUOUS
 10
4.1817396812
 20
3.9272715029
 11
4.1226845631
 21
3.9272715029
  0
LINE
  5
536
100
AcDbEntity
  8
0
100
AcDbLine
 62
7
  6
CONTINUOUS
 10
4.0833144844
 20
3.9272715029
 11
4.0242593663
 21
3.9272715029
  0
LINE
  5
537
100
AcDbEntity
  8
0
100
AcDbLine
 62
7
  6
CONTINUOUS
 10
6.6186850779
 20
3.952828473
 11
6.4356766891
 21
3.952828473
  0
LINE
  5
538
100
AcDbEntity
  8
0
100
AcDbLine
 62
9
  6
CONTINUOUS
 10
6.6203058154
 20
3.9554657682
 11
6.4356766891
 21
3.9554657682
  0
LINE
  5
539
100
AcDbEntity
  8
0
100
AcDbLine
 62
7
  6
CONTINUOUS
 10
6.189613697
 20
3.986326621
 11
6.1502436182
 21
3.986326621
  0
LINE
  5
53A
100
AcDbEntity
  8
0
100
AcDbLine
 62
7
  6
CONTINUOUS
 10
4.1226845631
 20
3.986326621
 11
4.0833144844
 21
3.986326621
  0
LINE
  5
53B
100
AcDbEntity
  8
AXIS
100
AcDbLine
 62
7
  6
CONTINUOUS
 10
6.6325270828
 20
4.0060116604
 11
6.7309522797
 21
4.0060116604
  0
LINE
  5
53C
100
AcDbEntity
  8
0
100
AcDbLine
 62
7
  6
CONTINUOUS
 10
6.6325270828
 20
4.0060116604
 11
6.7309522797
 21
4.0060116604
  0
LINE
  5
53D
100
AcDbEntity
  8
0
100
AcDbLine
 62
9
  6
CONTINUOUS
 10
6.6203058154
 20
4.0804825587
 11
6.4356766891
 21
4.0804825587
  0
LINE
  5
53E
100
AcDbEntity
  8
0
100
AcDbLine
 62
9
  6
CONTINUOUS
 10
6.6203058154
 20
4.0975303029
 11
6.4356766891
 21
4.0975303029
  0
LINE
  5
53F
100
AcDbEntity
  8
AXIS
100
AcDbLine
 62
7
  6
CONTINUOUS
 10
6.750637319
 20
4.143806936
 11
8.7978814135
 21
4.143806936
  0
LINE
  5
540
100
AcDbEntity
  8
AXIS
100
AcDbLine
 62
7
  6
CONTINUOUS
 10
6.750637319
 20
4.301287251
 11
8.7978814135
 21
4.301287251
  0
LINE
  5
541
100
AcDbEntity
  8
0
100
AcDbLine
 62
9
  6
CONTINUOUS
 10
6.6203058154
 20
4.3475638841
 11
6.4356766891
 21
4.3475638841
  0
LINE
  5
542
100
AcDbEntity
  8
0
100
AcDbLine
 62
9
  6
CONTINUOUS
 10
6.6203058154
 20
4.3646116282
 11
6.4356766891
 21
4.3646116282
  0
LINE
  5
543
100
AcDbEntity
  8
AXIS
100
AcDbLine
 62
7
  6
CONTINUOUS
 10
6.6325270828
 20
4.4390825266
 11
6.7309522797
 21
4.4390825266
  0
LINE
  5
544
100
AcDbEntity
  8
0
100
AcDbLine
 62
7
  6
CONTINUOUS
 10
6.6325270828
 20
4.4390825266
 11
6.7309522797
 21
4.4390825266
  0
LINE
  5
545
100
AcDbEntity
  8
0
100
AcDbLine
 62
9
  6
CONTINUOUS
 10
6.6203058154
 20
4.4896284188
 11
6.4356766891
 21
4.4896284188
  0
LINE
  5
546
100
AcDbEntity
  8
0
100
AcDbLine
 62
7
  6
CONTINUOUS
 10
6.6186850779
 20
4.492265714
 11
6.4356766891
 21
4.492265714
  0
LINE
  5
547
100
AcDbEntity
  8
0
100
AcDbLine
 62
7
  6
CONTINUOUS
 10
6.0537869253
 20
3.4351455187
 11
6.0537869253
 21
3.5867203218
  0
LINE
  5
548
100
AcDbEntity
  8
0
100
AcDbLine
 62
7
  6
CONTINUOUS
 10
6.0695349568
 20
3.4351455187
 11
6.0695349568
 21
3.5886888258
  0
LINE
  5
549
100
AcDbEntity
  8
0
100
AcDbLine
 62
7
  6
CONTINUOUS
 10
6.0911885001
 20
6.4075864636
 11
6.0911885001
 21
6.3682163848
  0
LINE
  5
54A
100
AcDbEntity
  8
0
100
AcDbLine
 62
7
  6
CONTINUOUS
 10
6.0911885001
 20
3.9272715029
 11
6.0911885001
 21
3.8879014242
  0
LINE
  5
54B
100
AcDbEntity
  8
0
100
AcDbLine
 62
7
  6
CONTINUOUS
 10
6.1502436182
 20
6.4666415817
 11
6.1502436182
 21
6.4075864636
  0
LINE
  5
54C
100
AcDbEntity
  8
0
100
AcDbLine
 62
7
  6
CONTINUOUS
 10
6.1502436182
 20
6.3682163848
 11
6.1502436182
 21
6.3091612667
  0
LINE
  5
54D
100
AcDbEntity
  8
0
100
AcDbLine
 62
7
  6
CONTINUOUS
 10
6.1502436182
 20
3.986326621
 11
6.1502436182
 21
3.9272715029
  0
LINE
  5
54E
100
AcDbEntity
  8
0
100
AcDbLine
 62
7
  6
CONTINUOUS
 10
6.1502436182
 20
3.8879014242
 11
6.1502436182
 21
3.8288463061
  0
LINE
  5
54F
100
AcDbEntity
  8
0
100
AcDbLine
 62
7
  6
CONTINUOUS
 10
6.4159916497
 20
6.0965628415
 11
6.4356766891
 21
6.175302999
  0
LINE
  5
550
100
AcDbEntity
  8
0
100
AcDbLine
 62
7
  6
CONTINUOUS
 10
6.189613697
 20
3.8288463061
 11
6.189613697
 21
3.8879014242
  0
LINE
  5
551
100
AcDbEntity
  8
0
100
AcDbLine
 62
7
  6
CONTINUOUS
 10
6.189613697
 20
3.9272715029
 11
6.189613697
 21
3.986326621
  0
LINE
  5
552
100
AcDbEntity
  8
0
100
AcDbLine
 62
7
  6
CONTINUOUS
 10
6.189613697
 20
6.3091612667
 11
6.189613697
 21
6.3682163848
  0
LINE
  5
553
100
AcDbEntity
  8
0
100
AcDbLine
 62
7
  6
CONTINUOUS
 10
6.189613697
 20
6.4075864636
 11
6.189613697
 21
6.4666415817
  0
LINE
  5
554
100
AcDbEntity
  8
AXIS
100
AcDbLine
 62
7
  6
CENTER
 10
6.2388262954
 20
3.5926258336
 11
6.2388262954
 21
3.4079801644
  0
LINE
  5
555
100
AcDbEntity
  8
AXIS
100
AcDbLine
 62
7
  6
CENTER
 10
6.2388262954
 20
3.5926258336
 11
6.2388262954
 21
3.7772715029
  0
LINE
  5
556
100
AcDbEntity
  8
0
100
AcDbLine
 62
7
  6
CONTINUOUS
 10
6.2486688151
 20
3.8879014242
 11
6.2486688151
 21
3.9272715029
  0
LINE
  5
557
100
AcDbEntity
  8
0
100
AcDbLine
 62
7
  6
CONTINUOUS
 10
6.2486688151
 20
6.3682163848
 11
6.2486688151
 21
6.4075864636
  0
LWPOLYLINE
  5
558
100
AcDbEntity
  8
0
100
AcDbPolyline
 62
7
  6
CONTINUOUS
 90
3
 70
0
 10
6.6186850779
 20
4.492265714
 10
6.6190948237
 20
4.4916167036
 10
6.6203058154
 20
4.4896284188
  0
LINE
  5
559
100
AcDbEntity
  8
0
100
AcDbLine
 62
7
  6
CONTINUOUS
 10
6.623773151
 20
4.4828677697
 11
6.6203058154
 21
4.4896284188
  0
LINE
  5
55A
100
AcDbEntity
  8
0
100
AcDbLine
 62
7
  6
CONTINUOUS
 10
6.4159916497
 20
5.0729407943
 11
6.4159916497
 21
6.0965628415
  0
LINE
  5
55B
100
AcDbEntity
  8
0
100
AcDbLine
 62
7
  6
CONTINUOUS
 10
6.4356766891
 20
3.5926258336
 11
6.4356766891
 21
5.0099486683
  0
LINE
  5
55C
100
AcDbEntity
  8
0
100
AcDbLine
 62
7
  6
CONTINUOUS
 10
6.4356766891
 20
6.175302999
 11
6.4356766891
 21
6.4075864636
  0
LINE
  5
55D
100
AcDbEntity
  8
0
100
AcDbLine
 62
7
  6
CONTINUOUS
 10
6.4356766891
 20
4.9942006368
 11
6.4159916497
 21
5.0729407943
  0
LINE
  5
55E
100
AcDbEntity
  8
0
100
AcDbLine
 62
7
  6
CONTINUOUS
 10
6.4159916497
 20
5.0886888258
 11
6.4356766891
 21
5.0099486683
  0
LWPOLYLINE
  5
55F
100
AcDbEntity
  8
0
100
AcDbPolyline
 62
7
  6
CONTINUOUS
 90
5
 70
0
 10
6.6305424898
 20
4.4549639709
 10
6.6295961292
 20
4.4621872612
 10
6.6282495728
 20
4.4691454543
 10
6.6263636431
 20
4.4760229507
 10
6.623773151
 20
4.4828677697
  0
LWPOLYLINE
  5
560
100
AcDbEntity
  8
0
100
AcDbPolyline
 62
7
  6
CONTINUOUS
 90
3
 70
0
 10
6.6315670454
 20
4.4388733709
 10
6.631180045
 20
4.4472633701
 10
6.6305424898
 20
4.4549639709
  0
LINE
  5
561
100
AcDbEntity
  8
AXIS
100
AcDbLine
 62
7
  6
CONTINUOUS
 10
6.6325270828
 20
3.9974181825
 11
6.6325270828
 21
4.4476760045
  0
LINE
  5
562
100
AcDbEntity
  8
0
100
AcDbLine
 62
9
  6
CONTINUOUS
 10
6.7309522797
 20
4.4390825266
 11
6.7309522797
 21
4.0060116604
  0
LINE
  5
563
100
AcDbEntity
  8
0
100
AcDbLine
 62
7
  6
CONTINUOUS
 10
6.750637319
 20
4.4193974872
 11
6.750637319
 21
4.0256966998
  0
LWPOLYLINE
  5
564
100
AcDbEntity
  8
0
100
AcDbPolyline
 62
7
  6
CONTINUOUS
 90
7
 70
0
 10
6.6315716099
 20
4.0063681487
 10
6.6317354612
 20
4.0156512603
 10
6.6316617367
 20
4.0260387329
 10
6.6312032301
 20
4.0377445322
 10
6.6299045251
 20
4.0510001413
 10
6.6267593028
 20
4.0656110828
 10
6.6203058154
 20
4.0804825587
  0
LWPOLYLINE
  5
565
100
AcDbEntity
  8
0
100
AcDbPolyline
 62
7
  6
CONTINUOUS
 90
3
 70
0
 10
6.6305560132
 20
3.9902594866
 10
6.631189052
 20
3.9979745146
 10
6.6315716099
 20
4.0063681487
  0
LWPOLYLINE
  5
566
100
AcDbEntity
  8
0
100
AcDbPolyline
 62
7
  6
CONTINUOUS
 90
4
 70
0
 10
6.6203058154
 20
4.0975303029
 10
6.6188677461
 20
4.0907368067
 10
6.6188735665
 20
4.0848855293
 10
6.6203058154
 20
4.0804825587
  0
LWPOLYLINE
  5
567
100
AcDbEntity
  8
0
100
AcDbPolyline
 62
7
  6
CONTINUOUS
 90
8
 70
0
 10
6.6203058154
 20
4.0975303029
 10
6.6269474141
 20
4.1285325339
 10
6.6304155573
 20
4.1645272172
 10
6.6316232099
 20
4.2030303396
 10
6.6316198658
 20
4.2423275534
 10
6.6304040087
 20
4.2807711747
 10
6.6269307028
 20
4.3166750667
 10
6.6203058154
 20
4.3475638841
  0
LWPOLYLINE
  5
568
100
AcDbEntity
  8
0
100
AcDbPolyline
 62
7
  6
CONTINUOUS
 90
4
 70
0
 10
6.6203058154
 20
4.3646116282
 10
6.6188677461
 20
4.3601675075
 10
6.6188735665
 20
4.3543070189
 10
6.6203058154
 20
4.3475638841
  0
LWPOLYLINE
  5
569
100
AcDbEntity
  8
0
100
AcDbPolyline
 62
7
  6
CONTINUOUS
 90
7
 70
0
 10
6.6203058154
 20
4.3646116282
 10
6.626754407
 20
4.3794669664
 10
6.6299046617
 20
4.3940950037
 10
6.6312069397
 20
4.4074102816
 10
6.6316639408
 20
4.4191644748
 10
6.6317346706
 20
4.4295795666
 10
6.6315670454
 20
4.4388733709
  0
LWPOLYLINE
  5
56A
100
AcDbEntity
  8
0
100
AcDbPolyline
 62
7
  6
CONTINUOUS
 90
5
 70
0
 10
6.6237849271
 20
3.9622531894
 10
6.6263812276
 20
3.9691259265
 10
6.62826844
 20
3.9760307573
 10
6.6296132675
 20
3.9830144824
 10
6.6305560132
 20
3.9902594866
  0
LINE
  5
56B
100
AcDbEntity
  8
0
100
AcDbLine
 62
7
  6
CONTINUOUS
 10
6.6203058154
 20
3.9554657682
 11
6.6237849271
 21
3.9622531894
  0
LWPOLYLINE
  5
56C
100
AcDbEntity
  8
0
100
AcDbPolyline
 62
7
  6
CONTINUOUS
 90
3
 70
0
 10
6.6203058154
 20
3.9554657682
 10
6.6190964954
 20
3.9534801548
 10
6.6186850779
 20
3.952828473
  0
LINE
  5
56D
100
AcDbEntity
  8
02__ASM_ALL_AXES
100
AcDbLine
 62
7
  6
CENTER
 10
6.5618410071
 20
5.9942006368
 11
3.469731993
 21
5.9942006368
  0
LINE
  5
56E
100
AcDbEntity
  8
0
100
AcDbLine
 62
7
  6
CONTINUOUS
 10
4.8057554293
 20
6.5650667785
 11
4.7270152718
 21
6.5847518179
  0
LINE
  5
56F
100
AcDbEntity
  8
0
100
AcDbLine
 62
7
  6
CONTINUOUS
 10
4.3982751143
 20
6.2422321329
 11
4.1915822009
 21
6.2422321329
  0
LINE
  5
570
100
AcDbEntity
  8
0
100
AcDbLine
 62
7
  6
CONTINUOUS
 10
4.3923696025
 20
6.2579801644
 11
4.1915822009
 21
6.2579801644
  0
LINE
  5
571
100
AcDbEntity
  8
0
100
AcDbLine
 62
7
  6
CONTINUOUS
 10
4.6935507049
 20
6.3091612667
 11
4.7329207836
 21
6.3091612667
  0
LINE
  5
572
100
AcDbEntity
  8
0
100
AcDbLine
 62
7
  6
CONTINUOUS
 10
6.1502436182
 20
6.3091612667
 11
6.189613697
 21
6.3091612667
  0
LINE
  5
573
100
AcDbEntity
  8
0
100
AcDbLine
 62
7
  6
CONTINUOUS
 10
4.6344955868
 20
6.3682163848
 11
4.6935507049
 21
6.3682163848
  0
LINE
  5
574
100
AcDbEntity
  8
0
100
AcDbLine
 62
7
  6
CONTINUOUS
 10
4.7329207836
 20
6.3682163848
 11
4.7919759017
 21
6.3682163848
  0
LINE
  5
575
100
AcDbEntity
  8
0
100
AcDbLine
 62
7
  6
CONTINUOUS
 10
6.0911885001
 20
6.3682163848
 11
6.1502436182
 21
6.3682163848
  0
LINE
  5
576
100
AcDbEntity
  8
0
100
AcDbLine
 62
7
  6
CONTINUOUS
 10
6.189613697
 20
6.3682163848
 11
6.2486688151
 21
6.3682163848
  0
LINE
  5
577
100
AcDbEntity
  8
0
100
AcDbLine
 62
7
  6
CONTINUOUS
 10
6.2486688151
 20
6.4075864636
 11
6.189613697
 21
6.4075864636
  0
LINE
  5
578
100
AcDbEntity
  8
0
100
AcDbLine
 62
7
  6
CONTINUOUS
 10
6.1502436182
 20
6.4075864636
 11
6.0911885001
 21
6.4075864636
  0
LINE
  5
579
100
AcDbEntity
  8
0
100
AcDbLine
 62
7
  6
CONTINUOUS
 10
4.7919759017
 20
6.4075864636
 11
4.7329207836
 21
6.4075864636
  0
LINE
  5
57A
100
AcDbEntity
  8
0
100
AcDbLine
 62
7
  6
CONTINUOUS
 10
4.6935507049
 20
6.4075864636
 11
4.6344955868
 21
6.4075864636
  0
LINE
  5
57B
100
AcDbEntity
  8
AXIS
100
AcDbLine
 62
7
  6
CENTER
 10
4.3884325946
 20
6.4272715029
 11
4.2037869253
 21
6.4272715029
  0
LINE
  5
57C
100
AcDbEntity
  8
AXIS
100
AcDbLine
 62
7
  6
CENTER
 10
4.3884325946
 20
6.4272715029
 11
4.5730782639
 21
6.4272715029
  0
LINE
  5
57D
100
AcDbEntity
  8
0
100
AcDbLine
 62
7
  6
CONTINUOUS
 10
6.189613697
 20
6.4666415817
 11
6.1502436182
 21
6.4666415817
  0
LINE
  5
57E
100
AcDbEntity
  8
0
100
AcDbLine
 62
7
  6
CONTINUOUS
 10
4.7329207836
 20
6.4666415817
 11
4.6935507049
 21
6.4666415817
  0
LINE
  5
57F
100
AcDbEntity
  8
0
100
AcDbLine
 62
7
  6
CONTINUOUS
 10
5.908117634
 20
6.5650667785
 11
4.8057554293
 21
6.5650667785
  0
LINE
  5
580
100
AcDbEntity
  8
0
100
AcDbLine
 62
7
  6
CONTINUOUS
 10
6.2585113348
 20
6.5847518179
 11
5.9829207836
 21
6.5847518179
  0
LINE
  5
581
100
AcDbEntity
  8
0
100
AcDbLine
 62
7
  6
CONTINUOUS
 10
4.7270152718
 20
6.5847518179
 11
4.3490625159
 21
6.5847518179
  0
LINE
  5
582
100
AcDbEntity
  8
AXIS
100
AcDbLine
 62
7
  6
CONTINUOUS
 10
4.4868577915
 20
6.5886888258
 11
4.6049680277
 21
6.5886888258
  0
LINE
  5
583
100
AcDbEntity
  8
0
100
AcDbLine
 62
7
  6
CONTINUOUS
 10
5.9868577915
 20
6.5847518179
 11
5.908117634
 21
6.5650667785
  0
LINE
  5
584
100
AcDbEntity
  8
0
100
AcDbLine
 62
7
  6
CONTINUOUS
 10
5.9041806261
 20
6.5650667785
 11
5.9829207836
 21
6.5847518179
  0
LINE
  5
585
100
AcDbEntity
  8
AXIS
100
AcDbLine
 62
7
  6
CONTINUOUS
 10
8.7978814135
 20
4.301287251
 11
8.7978814135
 21
4.143806936
  0
LINE
  5
586
100
AcDbEntity
  8
0
100
AcDbLine
 62
7
  6
CONTINUOUS
 10
3.9060458184
 20
8.943980632
 11
3.905403758
 21
8.9820902079
  0
LWPOLYLINE
  5
587
100
AcDbEntity
  8
0
100
AcDbPolyline
 62
7
  6
CONTINUOUS
 90
9
 70
0
 10
3.9061594942
 20
8.9742161922
 10
3.9064828343
 20
8.9485625829
 10
3.9074404287
 20
8.9238948275
 10
3.9089954776
 20
8.9011608938
 10
3.9110882214
 20
8.8812344344
 10
3.9136382371
 20
8.8648812117
 10
3.9165475289
 20
8.852729671
 10
3.9197042946
 20
8.8452467892
 10
3.9229872213
 20
8.8427201292
  0
LINE
  5
588
100
AcDbEntity
  8
0
100
AcDbLine
 62
7
  6
CONTINUOUS
 10
3.876621571
 20
9.787602019
 11
3.876621571
 21
8.5277594993
  0
LINE
  5
589
100
AcDbEntity
  8
0
100
AcDbLine
 62
7
  6
CONTINUOUS
 10
3.905403758
 20
9.3332713103
 11
3.905403758
 21
8.9820902079
  0
LINE
  5
58A
100
AcDbEntity
  8
0
100
AcDbLine
 62
7
  6
CONTINUOUS
 10
3.9061594942
 20
9.3411453261
 11
3.9061594942
 21
8.9742161922
  0
LWPOLYLINE
  5
58B
100
AcDbEntity
  8
0
100
AcDbPolyline
 62
7
  6
CONTINUOUS
 90
5
 70
0
 10
3.905403758
 20
9.3332713103
 10
3.9060458184
 20
9.3713808862
 10
3.9079282445
 20
9.4068933576
 10
3.9109227519
 20
9.437388608
 10
3.9148252698
 20
9.4607884367
  0
LWPOLYLINE
  5
58C
100
AcDbEntity
  8
0
100
AcDbPolyline
 62
7
  6
CONTINUOUS
 90
3
 70
0
 10
3.9148252698
 20
9.4607884367
 10
3.9193698483
 20
9.4754981839
 10
3.9242467817
 20
9.4805154048
  0
LWPOLYLINE
  5
58D
100
AcDbEntity
  8
0
100
AcDbPolyline
 62
7
  6
CONTINUOUS
 90
5
 70
0
 10
3.9193698483
 20
8.8398633343
 10
3.9148252698
 20
8.8545730816
 10
3.9109227519
 20
8.8779729102
 10
3.9079282445
 20
8.9084681607
 10
3.9060458184
 20
8.943980632
  0
LINE
  5
58E
100
AcDbEntity
  8
0
100
AcDbLine
 62
7
  6
CONTINUOUS
 10
3.9974625937
 20
9.4754981839
 11
3.9965799865
 21
9.4726413891
  0
LWPOLYLINE
  5
58F
100
AcDbEntity
  8
0
100
AcDbPolyline
 62
7
  6
CONTINUOUS
 90
3
 70
0
 10
3.9965799865
 20
8.8427201292
 10
3.9974625937
 20
8.8398633343
 10
4.0023395271
 20
8.8348461135
  0
LWPOLYLINE
  5
590
100
AcDbEntity
  8
0
100
AcDbPolyline
 62
7
  6
CONTINUOUS
 90
9
 70
0
 10
4.1731863011
 20
9.3411453261
 10
4.172862961
 20
9.3667989353
 10
4.1719053666
 20
9.3914666908
 10
4.1703503177
 20
9.4142006244
 10
4.1682575739
 20
9.4341270839
 10
4.1657075583
 20
9.4504803066
 10
4.1627982664
 20
9.4626318473
 10
4.1596415007
 20
9.4701147291
 10
4.156358574
 20
9.4726413891
  0
LINE
  5
591
100
AcDbEntity
  8
0
100
AcDbLine
 62
7
  6
CONTINUOUS
 10
4.1731863011
 20
8.9742161922
 11
4.1731863011
 21
9.3411453261
  0
LINE
  5
592
100
AcDbEntity
  8
0
100
AcDbLine
 62
7
  6
CONTINUOUS
 10
4.1744458615
 20
8.9820902079
 11
4.1744458615
 21
9.3332713103
  0
LINE
  5
593
100
AcDbEntity
  8
0
100
AcDbLine
 62
7
  6
CONTINUOUS
 10
4.1915822009
 20
8.5277594993
 11
4.1915822009
 21
9.787602019
  0
LWPOLYLINE
  5
594
100
AcDbEntity
  8
0
100
AcDbPolyline
 62
7
  6
CONTINUOUS
 90
5
 70
0
 10
4.1744458615
 20
8.9820902079
 10
4.173803801
 20
8.943980632
 10
4.171921375
 20
8.9084681607
 10
4.1689268676
 20
8.8779729102
 10
4.1650243496
 20
8.8545730816
  0
LINE
  5
595
100
AcDbEntity
  8
0
100
AcDbLine
 62
9
  6
CONTINUOUS
 10
4.3490625159
 20
8.5277594993
 11
4.3490625159
 21
9.787602019
  0
LWPOLYLINE
  5
596
100
AcDbEntity
  8
0
100
AcDbPolyline
 62
7
  6
CONTINUOUS
 90
3
 70
0
 10
4.1650243496
 20
8.8545730816
 10
4.1604797712
 20
8.8398633343
 10
4.1556028378
 20
8.8348461135
  0
LINE
  5
597
100
AcDbEntity
  8
0
100
AcDbLine
 62
7
  6
CONTINUOUS
 10
4.0023395271
 20
9.4805154048
 11
3.9974625937
 21
9.4754981839
  0
LINE
  5
598
100
AcDbEntity
  8
0
100
AcDbLine
 62
7
  6
CONTINUOUS
 10
3.9242467817
 20
8.8348461135
 11
3.9193698483
 21
8.8398633343
  0
LWPOLYLINE
  5
599
100
AcDbEntity
  8
0
100
AcDbPolyline
 62
7
  6
CONTINUOUS
 90
6
 70
0
 10
4.1604797712
 20
9.4754981839
 10
4.1650243496
 20
9.4607884367
 10
4.1689268676
 20
9.437388608
 10
4.171921375
 20
9.4068933576
 10
4.173803801
 20
9.3713808862
 10
4.1744458615
 20
9.3332713103
  0
LINE
  5
59A
100
AcDbEntity
  8
0
100
AcDbLine
 62
7
  6
CONTINUOUS
 10
4.565597949
 20
9.787602019
 11
4.565597949
 21
9.7088618615
  0
LINE
  5
59B
100
AcDbEntity
  8
0
100
AcDbLine
 62
7
  6
CONTINUOUS
 10
4.565597949
 20
8.5277594993
 11
4.565597949
 21
8.6064996568
  0
LINE
  5
59C
100
AcDbEntity
  8
0
100
AcDbLine
 62
7
  6
CONTINUOUS
 10
4.5774089726
 20
9.787602019
 11
4.5774089726
 21
9.7088618615
  0
LINE
  5
59D
100
AcDbEntity
  8
0
100
AcDbLine
 62
7
  6
CONTINUOUS
 10
4.5774089726
 20
8.6064996568
 11
4.5774089726
 21
8.5277594993
  0
LWPOLYLINE
  5
59E
100
AcDbEntity
  8
0
100
AcDbPolyline
 62
7
  6
CONTINUOUS
 90
9
 70
0
 10
3.9229872213
 20
9.4726413891
 10
3.9197042946
 20
9.4701147291
 10
3.9165475289
 20
9.4626318473
 10
3.9136382371
 20
9.4504803066
 10
3.9110882214
 20
9.4341270839
 10
3.9089954776
 20
9.4142006244
 10
3.9074404287
 20
9.3914666908
 10
3.9064828343
 20
9.3667989353
 10
3.9061594942
 20
9.3411453261
  0
LINE
  5
59F
100
AcDbEntity
  8
0
100
AcDbLine
 62
7
  6
CONTINUOUS
 10
4.7230782639
 20
8.6064996568
 11
4.7230782639
 21
9.7088618615
  0
LINE
  5
5A0
100
AcDbEntity
  8
0
100
AcDbLine
 62
7
  6
CONTINUOUS
 10
4.7270152718
 20
8.5277594993
 11
4.7270152718
 21
8.6064996568
  0
LINE
  5
5A1
100
AcDbEntity
  8
0
100
AcDbLine
 62
7
  6
CONTINUOUS
 10
4.7270152718
 20
9.7088618615
 11
4.7270152718
 21
9.787602019
  0
LINE
  5
5A2
100
AcDbEntity
  8
0
100
AcDbLine
 62
7
  6
CONTINUOUS
 10
4.8018184214
 20
8.6064996568
 11
4.8018184214
 21
9.7088618615
  0
LINE
  5
5A3
100
AcDbEntity
  8
0
100
AcDbLine
 62
7
  6
CONTINUOUS
 10
4.8057554293
 20
8.5277594993
 11
4.8057554293
 21
8.6064996568
  0
LINE
  5
5A4
100
AcDbEntity
  8
0
100
AcDbLine
 62
7
  6
CONTINUOUS
 10
4.8057554293
 20
9.7088618615
 11
4.8057554293
 21
9.787602019
  0
LINE
  5
5A5
100
AcDbEntity
  8
0
100
AcDbLine
 62
7
  6
CONTINUOUS
 10
4.1556028378
 20
9.4805154048
 11
4.1604797712
 21
9.4754981839
  0
LWPOLYLINE
  5
5A6
100
AcDbEntity
  8
0
100
AcDbPolyline
 62
7
  6
CONTINUOUS
 90
9
 70
0
 10
4.156358574
 20
8.8427201292
 10
4.1596415007
 20
8.8452467892
 10
4.1627982664
 20
8.852729671
 10
4.1657075583
 20
8.8648812117
 10
4.1682575739
 20
8.8812344344
 10
4.1703503177
 20
8.9011608938
 10
4.1719053666
 20
8.9238948275
 10
4.172862961
 20
8.9485625829
 10
4.1731863011
 20
8.9742161922
  0
LINE
  5
5A7
100
AcDbEntity
  8
0
100
AcDbLine
 62
7
  6
CONTINUOUS
 10
6.4356766891
 20
8.5277594993
 11
3.876621571
 21
8.5277594993
  0
LINE
  5
5A8
100
AcDbEntity
  8
0
100
AcDbLine
 62
7
  6
CONTINUOUS
 10
4.1915822009
 20
8.6064996568
 11
3.876621571
 21
8.6064996568
  0
LINE
  5
5A9
100
AcDbEntity
  8
0
100
AcDbLine
 62
7
  6
CONTINUOUS
 10
4.565597949
 20
8.6064996568
 11
6.4356766891
 21
8.6064996568
  0
LINE
  5
5AA
100
AcDbEntity
  8
0
100
AcDbLine
 62
7
  6
CONTINUOUS
 10
5.9041806261
 20
8.6064996568
 11
5.9041806261
 21
9.7088618615
  0
LINE
  5
5AB
100
AcDbEntity
  8
0
100
AcDbLine
 62
7
  6
CONTINUOUS
 10
5.908117634
 20
8.5277594993
 11
5.908117634
 21
8.6064996568
  0
LINE
  5
5AC
100
AcDbEntity
  8
0
100
AcDbLine
 62
7
  6
CONTINUOUS
 10
5.908117634
 20
9.7088618615
 11
5.908117634
 21
9.787602019
  0
LINE
  5
5AD
100
AcDbEntity
  8
0
100
AcDbLine
 62
7
  6
CONTINUOUS
 10
5.9829207836
 20
8.6064996568
 11
5.9829207836
 21
9.7088618615
  0
LINE
  5
5AE
100
AcDbEntity
  8
0
100
AcDbLine
 62
7
  6
CONTINUOUS
 10
5.9868577915
 20
8.5277594993
 11
5.9868577915
 21
8.6064996568
  0
LINE
  5
5AF
100
AcDbEntity
  8
0
100
AcDbLine
 62
7
  6
CONTINUOUS
 10
5.9868577915
 20
9.7088618615
 11
5.9868577915
 21
9.787602019
  0
LINE
  5
5B0
100
AcDbEntity
  8
0
100
AcDbLine
 62
7
  6
CONTINUOUS
 10
3.9242467817
 20
8.8348461135
 11
4.1556028378
 21
8.8348461135
  0
LINE
  5
5B1
100
AcDbEntity
  8
0
100
AcDbLine
 62
7
  6
CONTINUOUS
 10
3.9229872213
 20
8.8427201292
 11
4.1613623784
 21
8.8427201292
  0
LINE
  5
5B2
100
AcDbEntity
  8
0
100
AcDbLine
 62
7
  6
CONTINUOUS
 10
6.631773011
 20
8.9214602867
 11
6.4356766891
 21
8.9214602867
  0
LINE
  5
5B3
100
AcDbEntity
  8
0
100
AcDbLine
 62
9
  6
CONTINUOUS
 10
6.6203058154
 20
8.9313028064
 11
6.4356766891
 21
8.9313028064
  0
LINE
  5
5B4
100
AcDbEntity
  8
AXIS
100
AcDbLine
 62
7
  6
CONTINUOUS
 10
6.6325270828
 20
8.9411453261
 11
6.7309522797
 21
8.9411453261
  0
LINE
  5
5B5
100
AcDbEntity
  8
0
100
AcDbLine
 62
9
  6
CONTINUOUS
 10
4.1731863011
 20
8.9742161922
 11
4.1743132021
 21
8.9742161922
  0
LINE
  5
5B6
100
AcDbEntity
  8
0
100
AcDbLine
 62
9
  6
CONTINUOUS
 10
3.905403758
 20
8.9820902079
 11
3.9061594942
 21
8.9820902079
  0
LINE
  5
5B7
100
AcDbEntity
  8
0
100
AcDbLine
 62
9
  6
CONTINUOUS
 10
6.2585113348
 20
8.5277594993
 11
6.2585113348
 21
9.787602019
  0
LWPOLYLINE
  5
5B8
100
AcDbEntity
  8
0
100
AcDbPolyline
 62
7
  6
CONTINUOUS
 90
4
 70
0
 10
6.6203058154
 20
9.3939012316
 10
6.6188677461
 20
9.3926918298
 10
6.6188735665
 20
9.3893029571
 10
6.6203058154
 20
9.3840587119
  0
LINE
  5
5B9
100
AcDbEntity
  8
AXIS
100
AcDbLine
 62
7
  6
CONTINUOUS
 10
6.750637319
 20
9.0789406017
 11
8.7978814135
 21
9.0789406017
  0
LINE
  5
5BA
100
AcDbEntity
  8
0
100
AcDbLine
 62
9
  6
CONTINUOUS
 10
6.6203058154
 20
9.1478382394
 11
6.4356766891
 21
9.1478382394
  0
LINE
  5
5BB
100
AcDbEntity
  8
02__ASM_ALL_AXES
100
AcDbLine
 62
7
  6
CENTER
 10
6.9583276514
 20
9.1576807591
 11
3.6855761721
 21
9.1576807591
  0
LINE
  5
5BC
100
AcDbEntity
  8
0
100
AcDbLine
 62
9
  6
CONTINUOUS
 10
6.6203058154
 20
9.1675232788
 11
6.4356766891
 21
9.1675232788
  0
LINE
  5
5BD
100
AcDbEntity
  8
0
100
AcDbLine
 62
7
  6
CONTINUOUS
 10
6.4356766891
 20
8.5277594993
 11
6.4356766891
 21
9.787602019
  0
LINE
  5
5BE
100
AcDbEntity
  8
AXIS
100
AcDbLine
 62
7
  6
CONTINUOUS
 10
6.750637319
 20
9.2364209166
 11
8.7978814135
 21
9.2364209166
  0
LINE
  5
5BF
100
AcDbEntity
  8
0
100
AcDbLine
 62
9
  6
CONTINUOUS
 10
3.905403758
 20
9.3332713103
 11
3.9061594942
 21
9.3332713103
  0
LINE
  5
5C0
100
AcDbEntity
  8
0
100
AcDbLine
 62
9
  6
CONTINUOUS
 10
4.1731863011
 20
9.3411453261
 11
4.1743132021
 21
9.3411453261
  0
LWPOLYLINE
  5
5C1
100
AcDbEntity
  8
0
100
AcDbPolyline
 62
7
  6
CONTINUOUS
 90
3
 70
0
 10
6.6186850779
 20
9.1576807591
 10
6.6190948237
 20
9.1526677386
 10
6.6203058154
 20
9.1478382394
  0
LINE
  5
5C2
100
AcDbEntity
  8
AXIS
100
AcDbLine
 62
7
  6
CONTINUOUS
 10
6.6325270828
 20
9.3828096701
 11
6.6316215498
 21
9.3947169633
  0
LINE
  5
5C3
100
AcDbEntity
  8
AXIS
100
AcDbLine
 62
7
  6
CONTINUOUS
 10
6.6325270828
 20
8.9325518482
 11
6.6325270828
 21
9.3828096701
  0
LINE
  5
5C4
100
AcDbEntity
  8
AXIS
100
AcDbLine
 62
7
  6
CONTINUOUS
 10
6.6325270828
 20
8.9325518482
 11
6.6316215498
 21
8.920644555
  0
LWPOLYLINE
  5
5C5
100
AcDbEntity
  8
0
100
AcDbPolyline
 62
7
  6
CONTINUOUS
 90
14
 70
0
 10
6.6203058154
 20
8.9313028064
 10
6.626754407
 20
8.9570330069
 10
6.6299046617
 20
8.9823695107
 10
6.6312069397
 20
9.0054322486
 10
6.6316639408
 20
9.0257911084
 10
6.6317346706
 20
9.0438305765
 10
6.6315670454
 20
9.0599279178
 10
6.631180045
 20
9.0744598227
 10
6.6305424898
 20
9.0877976545
 10
6.6295961292
 20
9.1003087603
 10
6.6282495728
 20
9.1123607043
 10
6.6263636431
 20
9.1242728774
 10
6.623773151
 20
9.1361284517
 10
6.6203058154
 20
9.1478382394
  0
LWPOLYLINE
  5
5C6
100
AcDbEntity
  8
0
100
AcDbPolyline
 62
7
  6
CONTINUOUS
 90
3
 70
0
 10
6.6203058154
 20
9.1675232788
 10
6.6190964954
 20
9.1627039131
 10
6.6186850779
 20
9.1576807591
  0
LWPOLYLINE
  5
5C7
100
AcDbEntity
  8
0
100
AcDbPolyline
 62
7
  6
CONTINUOUS
 90
4
 70
0
 10
6.6203058154
 20
8.9313028064
 10
6.6188677461
 20
8.926024167
 10
6.6188735665
 20
8.9226512484
 10
6.6203058154
 20
8.9214602867
  0
LWPOLYLINE
  5
5C8
100
AcDbEntity
  8
0
100
AcDbPolyline
 62
7
  6
CONTINUOUS
 90
13
 70
0
 10
6.6203058154
 20
9.1675232788
 10
6.6237849271
 20
9.1792794373
 10
6.6263812276
 20
9.1911833671
 10
6.62826844
 20
9.2031428849
 10
6.6296132675
 20
9.2152390515
 10
6.6305560132
 20
9.2277877669
 10
6.631189052
 20
9.2411505875
 10
6.6315716099
 20
9.2556887881
 10
6.6317354612
 20
9.2717676091
 10
6.6316617367
 20
9.2897592394
 10
6.6312032301
 20
9.3100342786
 10
6.6299045251
 20
9.3329936669
 10
6.6267593028
 20
9.3583005599
  0
LINE
  5
5C9
100
AcDbEntity
  8
AXIS
100
AcDbLine
 62
7
  6
CONTINUOUS
 10
6.6325270828
 20
9.3742161922
 11
6.7309522797
 21
9.3742161922
  0
LINE
  5
5CA
100
AcDbEntity
  8
0
100
AcDbLine
 62
9
  6
CONTINUOUS
 10
6.6203058154
 20
9.3840587119
 11
6.4356766891
 21
9.3840587119
  0
LINE
  5
5CB
100
AcDbEntity
  8
0
100
AcDbLine
 62
7
  6
CONTINUOUS
 10
6.4356766891
 20
9.3939012316
 11
6.631773011
 21
9.3939012316
  0
LINE
  5
5CC
100
AcDbEntity
  8
0
100
AcDbLine
 62
7
  6
CONTINUOUS
 10
3.9229872213
 20
9.4726413891
 11
4.1613623784
 21
9.4726413891
  0
LINE
  5
5CD
100
AcDbEntity
  8
0
100
AcDbLine
 62
7
  6
CONTINUOUS
 10
4.1556028378
 20
9.4805154048
 11
3.9242467817
 21
9.4805154048
  0
LINE
  5
5CE
100
AcDbEntity
  8
0
100
AcDbLine
 62
7
  6
CONTINUOUS
 10
6.6267593028
 20
9.3583005599
 11
6.6203058154
 21
9.3840587119
  0
LINE
  5
5CF
100
AcDbEntity
  8
0
100
AcDbLine
 62
9
  6
CONTINUOUS
 10
6.7309522797
 20
9.3742161922
 11
6.7309522797
 21
8.9411453261
  0
LINE
  5
5D0
100
AcDbEntity
  8
0
100
AcDbLine
 62
7
  6
CONTINUOUS
 10
6.750637319
 20
9.3545222329
 11
6.750637319
 21
8.9608392853
  0
LINE
  5
5D1
100
AcDbEntity
  8
0
100
AcDbLine
 62
7
  6
CONTINUOUS
 10
6.4356766891
 20
9.7088618615
 11
4.565597949
 21
9.7088618615
  0
LINE
  5
5D2
100
AcDbEntity
  8
0
100
AcDbLine
 62
7
  6
CONTINUOUS
 10
4.1915822009
 20
9.7088618615
 11
3.876621571
 21
9.7088618615
  0
LINE
  5
5D3
100
AcDbEntity
  8
0
100
AcDbLine
 62
7
  6
CONTINUOUS
 10
3.876621571
 20
9.787602019
 11
6.4356766891
 21
9.787602019
  0
LINE
  5
5D4
100
AcDbEntity
  8
AXIS
100
AcDbLine
 62
7
  6
CONTINUOUS
 10
8.7978814135
 20
9.2364209166
 11
8.7978814135
 21
9.0789406017
  0
LINE
  5
5D5
100
AcDbEntity
  8
0
100
AcDbLine
 62
7
  6
CONTINUOUS
 10
10.0949311261
 20
3.4351455187
 11
11.3547736458
 21
3.4351455187
  0
LINE
  5
5D6
100
AcDbEntity
  8
0
100
AcDbLine
 62
9
  6
CONTINUOUS
 10
10.0949311261
 20
3.5926258336
 11
11.3547736458
 21
3.5926258336
  0
LINE
  5
5D7
100
AcDbEntity
  8
0
100
AcDbLine
 62
7
  6
CONTINUOUS
 10
11.3547736458
 20
3.7619171722
 11
11.2760334883
 21
3.7619171722
  0
LINE
  5
5D8
100
AcDbEntity
  8
0
100
AcDbLine
 62
7
  6
CONTINUOUS
 10
10.0949311261
 20
3.7619171722
 11
10.1736712836
 21
3.7619171722
  0
LINE
  5
5D9
100
AcDbEntity
  8
0
100
AcDbLine
 62
7
  6
CONTINUOUS
 10
11.3547736458
 20
3.7737281958
 11
11.2760334883
 21
3.7737281958
  0
LINE
  5
5DA
100
AcDbEntity
  8
0
100
AcDbLine
 62
7
  6
CONTINUOUS
 10
10.1736712836
 20
3.7737281958
 11
10.0949311261
 21
3.7737281958
  0
LINE
  5
5DB
100
AcDbEntity
  8
0
100
AcDbLine
 62
7
  6
CONTINUOUS
 10
10.7150098662
 20
3.9554657682
 11
10.4984744332
 21
4.0804825587
  0
LINE
  5
5DC
100
AcDbEntity
  8
AXIS
100
AcDbLine
 62
7
  6
CENTER
 10
10.7248523859
 20
4.2225470935
 11
10.4083169528
 21
4.2225470935
  0
LINE
  5
5DD
100
AcDbEntity
  8
AXIS
100
AcDbLine
 62
7
  6
CENTER
 10
10.7248523859
 20
4.2225470935
 11
11.041387819
 21
4.2225470935
  0
LINE
  5
5DE
100
AcDbEntity
  8
0
100
AcDbLine
 62
7
  6
CONTINUOUS
 10
10.0949311261
 20
3.4351455187
 11
10.0949311261
 21
6.5847518179
  0
LINE
  5
5DF
100
AcDbEntity
  8
0
100
AcDbLine
 62
7
  6
CONTINUOUS
 10
10.1736712836
 20
3.7619171722
 11
10.1736712836
 21
6.5847518179
  0
LINE
  5
5E0
100
AcDbEntity
  8
0
100
AcDbLine
 62
7
  6
CONTINUOUS
 10
10.7346949056
 20
4.4896284188
 11
10.9512303387
 21
4.3646116282
  0
LINE
  5
5E1
100
AcDbEntity
  8
AXIS
100
AcDbLine
 62
7
  6
CONTINUOUS
 10
10.4689468741
 20
6.5847518179
 11
10.4689468741
 21
6.5886888258
  0
LINE
  5
5E2
100
AcDbEntity
  8
0
100
AcDbLine
 62
7
  6
CONTINUOUS
 10
10.4886319135
 20
4.0975303029
 11
10.4886319135
 21
4.3475638841
  0
LINE
  5
5E3
100
AcDbEntity
  8
AXIS
100
AcDbLine
 62
7
  6
CONTINUOUS
 10
10.5870571103
 20
6.5847518179
 11
10.5870571103
 21
6.5886888258
  0
LINE
  5
5E4
100
AcDbEntity
  8
AXIS
100
AcDbLine
 62
7
  6
CENTER
 10
10.7248523859
 20
4.2225470935
 11
10.7248523859
 21
3.9060116604
  0
LINE
  5
5E5
100
AcDbEntity
  8
AXIS
100
AcDbLine
 62
7
  6
CENTER
 10
10.7248523859
 20
4.2225470935
 11
10.7248523859
 21
4.5390825266
  0
LINE
  5
5E6
100
AcDbEntity
  8
0
100
AcDbLine
 62
7
  6
CONTINUOUS
 10
10.0949311261
 20
4.9942006368
 11
10.1736712836
 21
4.9942006368
  0
LINE
  5
5E7
100
AcDbEntity
  8
0
100
AcDbLine
 62
7
  6
CONTINUOUS
 10
11.2760334883
 20
4.9942006368
 11
11.3547736458
 21
4.9942006368
  0
LINE
  5
5E8
100
AcDbEntity
  8
0
100
AcDbLine
 62
7
  6
CONTINUOUS
 10
10.1736712836
 20
5.0099486683
 11
11.2760334883
 21
5.0099486683
  0
LINE
  5
5E9
100
AcDbEntity
  8
0
100
AcDbLine
 62
7
  6
CONTINUOUS
 10
10.0949311261
 20
5.0729407943
 11
10.1736712836
 21
5.0729407943
  0
LINE
  5
5EA
100
AcDbEntity
  8
0
100
AcDbLine
 62
7
  6
CONTINUOUS
 10
11.2760334883
 20
5.0729407943
 11
11.3547736458
 21
5.0729407943
  0
LINE
  5
5EB
100
AcDbEntity
  8
0
100
AcDbLine
 62
7
  6
CONTINUOUS
 10
10.1736712836
 20
5.0886888258
 11
11.2760334883
 21
5.0886888258
  0
LINE
  5
5EC
100
AcDbEntity
  8
AXIS
100
AcDbLine
 62
7
  6
CONTINUOUS
 10
10.8626476615
 20
6.5886888258
 11
10.8626476615
 21
6.5847518179
  0
LINE
  5
5ED
100
AcDbEntity
  8
0
100
AcDbLine
 62
7
  6
CONTINUOUS
 10
10.9610728584
 20
4.3475638841
 11
10.9610728584
 21
4.0975303029
  0
LINE
  5
5EE
100
AcDbEntity
  8
AXIS
100
AcDbLine
 62
7
  6
CONTINUOUS
 10
10.9807578977
 20
6.5886888258
 11
10.9807578977
 21
6.5847518179
  0
LINE
  5
5EF
100
AcDbEntity
  8
0
100
AcDbLine
 62
7
  6
CONTINUOUS
 10
10.4984744332
 20
4.3646116282
 11
10.7150098662
 21
4.4896284188
  0
LINE
  5
5F0
100
AcDbEntity
  8
0
100
AcDbLine
 62
7
  6
CONTINUOUS
 10
11.2760334883
 20
3.7619171722
 11
11.2760334883
 21
6.5847518179
  0
LINE
  5
5F1
100
AcDbEntity
  8
0
100
AcDbLine
 62
7
  6
CONTINUOUS
 10
11.3547736458
 20
3.4351455187
 11
11.3547736458
 21
6.5847518179
  0
LINE
  5
5F2
100
AcDbEntity
  8
0
100
AcDbLine
 62
7
  6
CONTINUOUS
 10
10.9512303387
 20
4.0804825587
 11
10.7346949056
 21
3.9554657682
  0
LINE
  5
5F3
100
AcDbEntity
  8
0
100
AcDbLine
 62
7
  6
CONTINUOUS
 10
10.0949311261
 20
6.0965628415
 11
10.1736712836
 21
6.0965628415
  0
LINE
  5
5F4
100
AcDbEntity
  8
0
100
AcDbLine
 62
7
  6
CONTINUOUS
 10
11.2760334883
 20
6.0965628415
 11
11.3547736458
 21
6.0965628415
  0
LINE
  5
5F5
100
AcDbEntity
  8
0
100
AcDbLine
 62
7
  6
CONTINUOUS
 10
10.1736712836
 20
6.112310873
 11
11.2760334883
 21
6.112310873
  0
LINE
  5
5F6
100
AcDbEntity
  8
0
100
AcDbLine
 62
7
  6
CONTINUOUS
 10
10.0949311261
 20
6.175302999
 11
10.1736712836
 21
6.175302999
  0
LINE
  5
5F7
100
AcDbEntity
  8
0
100
AcDbLine
 62
7
  6
CONTINUOUS
 10
11.2760334883
 20
6.175302999
 11
11.3547736458
 21
6.175302999
  0
LINE
  5
5F8
100
AcDbEntity
  8
0
100
AcDbLine
 62
7
  6
CONTINUOUS
 10
10.1736712836
 20
6.1910510305
 11
11.2760334883
 21
6.1910510305
  0
LINE
  5
5F9
100
AcDbEntity
  8
0
100
AcDbLine
 62
9
  6
CONTINUOUS
 10
10.0949311261
 20
6.4075864636
 11
11.3547736458
 21
6.4075864636
  0
LINE
  5
5FA
100
AcDbEntity
  8
0
100
AcDbLine
 62
7
  6
CONTINUOUS
 10
10.0949311261
 20
6.5847518179
 11
11.3547736458
 21
6.5847518179
  0
LINE
  5
5FB
100
AcDbEntity
  8
AXIS
100
AcDbLine
 62
7
  6
CONTINUOUS
 10
10.980737556
 20
6.5886888258
 11
10.8626680032
 21
6.5886888258
  0
LINE
  5
5FC
100
AcDbEntity
  8
AXIS
100
AcDbLine
 62
7
  6
CONTINUOUS
 10
10.4689672158
 20
6.5886888258
 11
10.5870367686
 21
6.5886888258
  0
LWPOLYLINE
  5
5FD
100
AcDbEntity
  8
0
100
AcDbPolyline
 62
7
  6
CONTINUOUS
 90
5
 70
0
 10
13.6740870732
 20
4.9001411769
 10
13.6833925644
 20
4.8959011302
 10
13.7045061351
 20
4.8927719339
 10
13.7280424266
 20
4.8968506569
 10
13.7528212307
 20
4.907932775
  0
LWPOLYLINE
  5
5FE
100
AcDbEntity
  8
AXIS
100
AcDbPolyline
 62
7
  6
CONTINUOUS
 90
3
 70
0
 10
13.3324538012
 20
5.2599255072
 10
13.3467360317
 20
5.2545877843
 10
13.3592956144
 20
5.2557097501
  0
LINE
  5
5FF
100
AcDbEntity
  8
0
100
AcDbLine
 62
7
  6
CONTINUOUS
 10
13.6740824092
 20
4.9001331082
 11
12.7832355114
 21
5.414452169
  0
LINE
  5
600
100
AcDbEntity
  8
0
100
AcDbLine
 62
9
  6
CONTINUOUS
 10
13.6414662957
 20
4.9722254149
 11
12.7506193979
 21
5.4865444757
  0
LWPOLYLINE
  5
601
100
AcDbEntity
  8
0
100
AcDbPolyline
 62
7
  6
CONTINUOUS
 90
5
 70
0
 10
12.7832401754
 20
5.4144602377
 10
12.774913539
 20
5.4204003957
 10
12.7616470032
 20
5.4371211307
 10
12.7534112986
 20
5.4595439486
 10
12.7506193979
 20
5.4865444757
  0
LWPOLYLINE
  5
602
100
AcDbEntity
  8
AXIS
100
AcDbPolyline
 62
7
  6
CONTINUOUS
 90
4
 70
0
 10
13.3324538012
 20
5.3563628006
 10
13.3181715707
 20
5.3617005234
 10
13.305611988
 20
5.3605785577
 10
13.3029518572
 20
5.3592889831
  0
LWPOLYLINE
  5
603
100
AcDbEntity
  8
AXIS
100
AcDbPolyline
 62
7
  6
CONTINUOUS
 90
3
 70
0
 10
13.3352376746
 20
5.357970061
 10
13.3223336044
 20
5.3630600723
 10
13.3106926745
 20
5.3629318608
  0
LWPOLYLINE
  5
604
100
AcDbEntity
  8
0
100
AcDbPolyline
 62
7
  6
CONTINUOUS
 90
4
 70
0
 10
13.8366449305
 20
5.2202810349
 10
13.8264088903
 20
5.2249450862
 10
13.8031839625
 20
5.2283872021
 10
13.7772940419
 20
5.2239006068
  0
LINE
  5
605
100
AcDbEntity
  8
0
100
AcDbLine
 62
7
  6
CONTINUOUS
 10
13.8725277858
 20
4.9899029508
 11
13.8836632793
 21
4.9834740161
  0
LINE
  5
606
100
AcDbEntity
  8
0
100
AcDbLine
 62
7
  6
CONTINUOUS
 10
13.6414662957
 20
5.1490271194
 11
13.5857883646
 21
5.1811720607
  0
LINE
  5
607
100
AcDbEntity
  8
0
100
AcDbLine
 62
7
  6
CONTINUOUS
 10
12.7506193979
 20
5.6633461802
 11
12.806297329
 21
5.6312012389
  0
LINE
  5
608
100
AcDbEntity
  8
0
100
AcDbLine
 62
7
  6
CONTINUOUS
 10
12.7506193979
 20
5.6729899096
 11
12.806297329
 21
5.6408449683
  0
LINE
  5
609
100
AcDbEntity
  8
0
100
AcDbLine
 62
7
  6
CONTINUOUS
 10
13.5857883646
 20
5.19081579
 11
13.6414662957
 21
5.1586708487
  0
LINE
  5
60A
100
AcDbEntity
  8
0
100
AcDbLine
 62
9
  6
CONTINUOUS
 10
13.7416855233
 20
5.2165321014
 11
13.7500373573
 21
5.2117102769
  0
LINE
  5
60B
100
AcDbEntity
  8
0
100
AcDbLine
 62
7
  6
CONTINUOUS
 10
13.5857883646
 20
5.3097551185
 11
12.806297329
 21
5.7597842967
  0
LINE
  5
60C
100
AcDbEntity
  8
0
100
AcDbLine
 62
7
  6
CONTINUOUS
 10
13.6414662957
 20
5.2808247537
 11
13.5857883646
 21
5.312969695
  0
LINE
  5
60D
100
AcDbEntity
  8
0
100
AcDbLine
 62
7
  6
CONTINUOUS
 10
12.806297329
 20
5.7629988732
 11
12.7506193979
 21
5.7951438145
  0
LINE
  5
60E
100
AcDbEntity
  8
0
100
AcDbLine
 62
9
  6
CONTINUOUS
 10
13.8705835964
 20
5.1597906671
 11
13.8836632793
 21
5.1522392795
  0
LWPOLYLINE
  5
60F
100
AcDbEntity
  8
AXIS
100
AcDbPolyline
 62
7
  6
CONTINUOUS
 90
9
 70
0
 10
13.056848019
 20
5.5186947675
 10
13.0697520892
 20
5.5088847791
 10
13.0813930191
 20
5.4953150836
 10
13.0906313134
 20
5.4793139774
 10
13.0965626634
 20
5.4624477602
 10
13.0986064674
 20
5.4463674149
 10
13.0965626634
 20
5.4326469977
 10
13.0906313134
 20
5.4226295586
 10
13.0863687578
 20
5.4193443913
  0
LWPOLYLINE
  5
610
100
AcDbEntity
  8
AXIS
100
AcDbPolyline
 62
7
  6
CONTINUOUS
 90
8
 70
0
 10
13.0540641456
 20
5.4206502137
 10
13.0397819152
 20
5.431803817
 10
13.0272223325
 20
5.4474280115
 10
13.0179002686
 20
5.4656382889
 10
13.012940102
 20
5.4842382208
 10
13.012940102
 20
5.5009843811
 10
13.0179002686
 20
5.5138569356
 10
13.0245622016
 20
5.5200136896
  0
LWPOLYLINE
  5
611
100
AcDbEntity
  8
AXIS
100
AcDbPolyline
 62
7
  6
CONTINUOUS
 90
8
 70
0
 10
13.0540641456
 20
5.5170875071
 10
13.0683463761
 20
5.5059339038
 10
13.0809059588
 20
5.4903097092
 10
13.0902280227
 20
5.4720994319
 10
13.0951881893
 20
5.4534995
 10
13.0951881893
 20
5.4367533397
 10
13.0902280227
 20
5.4238807852
 10
13.0835660897
 20
5.4177240311
  0
LWPOLYLINE
  5
612
100
AcDbEntity
  8
AXIS
100
AcDbPolyline
 62
7
  6
CONTINUOUS
 90
10
 70
0
 10
13.710499108
 20
4.9953558863
 10
13.7009867718
 20
5.0041784404
 10
13.6950074041
 20
5.0173951057
 10
13.6929679531
 20
5.0341054977
 10
13.6950074041
 20
5.0531708307
 10
13.7009867718
 20
5.0732918339
 10
13.7104985723
 20
5.0930972942
 10
13.7228945919
 20
5.1112375021
 10
13.7373300626
 20
5.1264762324
 10
13.7528212307
 20
5.1377749909
  0
LINE
  5
613
100
AcDbEntity
  8
0
100
AcDbLine
 62
7
  6
CONTINUOUS
 10
13.8012037354
 20
5.2407543931
 11
13.836650061
 21
5.2202899104
  0
LINE
  5
614
100
AcDbEntity
  8
0
100
AcDbLine
 62
7
  6
CONTINUOUS
 10
13.5997077315
 20
5.3820829497
 11
12.8202166959
 21
5.8321121279
  0
LINE
  5
615
100
AcDbEntity
  8
0
100
AcDbLine
 62
7
  6
CONTINUOUS
 10
13.6553856626
 20
5.3531525848
 11
13.5997077315
 21
5.3852975261
  0
LINE
  5
616
100
AcDbEntity
  8
0
100
AcDbLine
 62
7
  6
CONTINUOUS
 10
12.8202166959
 20
5.8353267043
 11
12.7645387648
 21
5.8674716456
  0
LINE
  5
617
100
AcDbEntity
  8
0
100
AcDbLine
 62
7
  6
CONTINUOUS
 10
13.7945793313
 20
5.2936815319
 11
13.7806598486
 21
5.3017177672
  0
LINE
  5
618
100
AcDbEntity
  8
0
100
AcDbLine
 62
7
  6
CONTINUOUS
 10
13.7667405976
 20
5.3258275741
 11
13.7528211148
 21
5.3338638094
  0
LINE
  5
619
100
AcDbEntity
  8
0
100
AcDbLine
 62
7
  6
CONTINUOUS
 10
13.7945793313
 20
5.3419001785
 11
13.7806598486
 21
5.3499364139
  0
LINE
  5
61A
100
AcDbEntity
  8
0
100
AcDbLine
 62
7
  6
CONTINUOUS
 10
13.7945793313
 20
5.374045943
 11
13.7806598486
 21
5.3820821783
  0
LINE
  5
61B
100
AcDbEntity
  8
0
100
AcDbLine
 62
7
  6
CONTINUOUS
 10
13.836337432
 20
5.3660090853
 11
13.8224179492
 21
5.3740453206
  0
LWPOLYLINE
  5
61C
100
AcDbEntity
  8
0
100
AcDbPolyline
 62
7
  6
CONTINUOUS
 90
5
 70
0
 10
13.8465571449
 20
5.2342351003
 10
13.8560286938
 20
5.2274781706
 10
13.8711193783
 20
5.2084583345
 10
13.8804874923
 20
5.1829523791
 10
13.8836632793
 20
5.1522392795
  0
LWPOLYLINE
  5
61D
100
AcDbEntity
  8
AXIS
100
AcDbPolyline
 62
7
  6
CONTINUOUS
 90
10
 70
0
 10
13.7951433534
 20
5.1419673082
 10
13.8046556896
 20
5.1331447542
 10
13.8106350573
 20
5.1199280889
 10
13.8126745083
 20
5.1032176969
 10
13.8106350573
 20
5.0841523639
 10
13.8046556896
 20
5.0640313607
 10
13.7951438891
 20
5.0442259004
 10
13.7827478695
 20
5.0260856925
 10
13.7683123989
 20
5.0108469622
 10
13.7528212307
 20
4.9995482037
  0
LWPOLYLINE
  5
61E
100
AcDbEntity
  8
AXIS
100
AcDbPolyline
 62
7
  6
CONTINUOUS
 90
3
 70
0
 10
13.0809059588
 20
5.4164344566
 10
13.0683463761
 20
5.4153124908
 10
13.0540641456
 20
5.4206502137
  0
LWPOLYLINE
  5
61F
100
AcDbEntity
  8
AXIS
100
AcDbPolyline
 62
7
  6
CONTINUOUS
 90
3
 70
0
 10
13.0323030189
 20
5.5236565673
 10
13.0439439488
 20
5.5237847788
 10
13.056848019
 20
5.5186947675
  0
LINE
  5
620
100
AcDbEntity
  8
0
100
AcDbLine
 62
7
  6
CONTINUOUS
 10
12.7506193979
 20
7.0456140517
 11
12.7506193979
 21
6.823808277
  0
LINE
  5
621
100
AcDbEntity
  8
0
100
AcDbLine
 62
7
  6
CONTINUOUS
 10
12.7506193979
 20
5.7951438145
 11
12.7506193979
 21
5.6729899096
  0
LINE
  5
622
100
AcDbEntity
  8
0
100
AcDbLine
 62
7
  6
CONTINUOUS
 10
12.7506193979
 20
5.6633461802
 11
12.7506193979
 21
5.4865444757
  0
LINE
  5
623
100
AcDbEntity
  8
0
100
AcDbLine
 62
7
  6
CONTINUOUS
 10
12.7645387648
 20
6.7675530503
 11
12.7645387648
 21
5.8674716456
  0
LWPOLYLINE
  5
624
100
AcDbEntity
  8
AXIS
100
AcDbPolyline
 62
7
  6
CONTINUOUS
 90
4
 70
0
 10
14.8106889406
 20
9.8583575389
 10
14.7962087289
 20
9.8468508376
 10
14.788596085
 20
9.8333239216
 10
14.7876445436
 20
9.8262125992
  0
LINE
  5
625
100
AcDbEntity
  8
0
100
AcDbLine
 62
7
  6
CONTINUOUS
 10
12.7645387648
 20
6.7675530503
 11
12.7506193979
 21
6.823808277
  0
LINE
  5
626
100
AcDbEntity
  8
0
100
AcDbLine
 62
7
  6
CONTINUOUS
 10
12.8202166959
 20
6.7321935326
 11
12.806297329
 21
6.7884487593
  0
LINE
  5
627
100
AcDbEntity
  8
0
100
AcDbLine
 62
7
  6
CONTINUOUS
 10
12.806297329
 20
6.7916633357
 11
12.8070468327
 21
6.7886342108
  0
LINE
  5
628
100
AcDbEntity
  8
0
100
AcDbLine
 62
7
  6
CONTINUOUS
 10
12.806297329
 20
7.0134691104
 11
12.806297329
 21
6.7884487593
  0
LINE
  5
629
100
AcDbEntity
  8
0
100
AcDbLine
 62
7
  6
CONTINUOUS
 10
12.806297329
 20
5.7629988732
 11
12.806297329
 21
5.6312012389
  0
LINE
  5
62A
100
AcDbEntity
  8
0
100
AcDbLine
 62
7
  6
CONTINUOUS
 10
12.8202166959
 20
6.735408109
 11
12.8202166959
 21
5.8321121279
  0
LWPOLYLINE
  5
62B
100
AcDbEntity
  8
0
100
AcDbPolyline
 62
7
  6
CONTINUOUS
 90
8
 70
0
 10
12.7506193979
 20
7.0456140517
 10
12.7537602862
 20
7.0796164085
 10
12.7630254538
 20
7.1155405089
 10
12.7779503066
 20
7.1515849685
 10
12.7977864501
 20
7.1859423675
 10
12.8215392172
 20
7.2168898827
 10
12.8480175451
 20
7.2428756762
 10
12.8758936998
 20
7.262596712
  0
LWPOLYLINE
  5
62C
100
AcDbEntity
  8
AXIS
100
AcDbPolyline
 62
7
  6
CONTINUOUS
 90
4
 70
0
 10
14.9220448028
 20
9.7940676563
 10
14.9365250146
 20
9.8055743576
 10
14.9441376585
 20
9.8191012736
 10
14.9450891999
 20
9.826212596
  0
LINE
  5
62D
100
AcDbEntity
  8
0
100
AcDbLine
 62
7
  6
CONTINUOUS
 10
12.7506193979
 20
5.7951438145
 11
12.7645387648
 21
5.8674716456
  0
LINE
  5
62E
100
AcDbEntity
  8
0
100
AcDbLine
 62
7
  6
CONTINUOUS
 10
12.8202166959
 20
5.8353267043
 11
12.806297329
 21
5.7629988732
  0
LINE
  5
62F
100
AcDbEntity
  8
0
100
AcDbLine
 62
7
  6
CONTINUOUS
 10
12.806297329
 20
5.7597842967
 11
12.8202166959
 21
5.8321121279
  0
LINE
  5
630
100
AcDbEntity
  8
0
100
AcDbLine
 62
7
  6
CONTINUOUS
 10
13.5997077315
 20
6.2821643544
 11
12.8202166959
 21
6.7321935326
  0
LINE
  5
631
100
AcDbEntity
  8
0
100
AcDbLine
 62
7
  6
CONTINUOUS
 10
13.6553856626
 20
6.2532339895
 11
13.5997077315
 21
6.2853789308
  0
LINE
  5
632
100
AcDbEntity
  8
0
100
AcDbLine
 62
7
  6
CONTINUOUS
 10
12.819288746
 20
6.735943849
 11
12.7645387648
 21
6.7675530503
  0
LINE
  5
633
100
AcDbEntity
  8
0
100
AcDbLine
 62
7
  6
CONTINUOUS
 10
13.5857883646
 20
6.338419581
 11
12.806297329
 21
6.7884487593
  0
LINE
  5
634
100
AcDbEntity
  8
0
100
AcDbLine
 62
7
  6
CONTINUOUS
 10
13.6414662957
 20
6.3094892162
 11
13.5857883646
 21
6.3416341575
  0
LINE
  5
635
100
AcDbEntity
  8
0
100
AcDbLine
 62
7
  6
CONTINUOUS
 10
12.806297329
 20
6.7916633357
 11
12.7506193979
 21
6.823808277
  0
LWPOLYLINE
  5
636
100
AcDbEntity
  8
0
100
AcDbPolyline
 62
7
  6
CONTINUOUS
 90
3
 70
0
 10
13.8192026235
 20
5.2303629653
 10
13.8154414472
 20
5.2406032758
 10
13.814094801
 20
5.2423005474
  0
LINE
  5
637
100
AcDbEntity
  8
0
100
AcDbLine
 62
9
  6
CONTINUOUS
 10
13.6414662957
 20
6.5312949909
 11
12.7506193979
 21
7.0456140517
  0
LINE
  5
638
100
AcDbEntity
  8
0
100
AcDbLine
 62
7
  6
CONTINUOUS
 10
13.7945793313
 20
6.4830748167
 11
13.7806598486
 21
6.491111052
  0
LINE
  5
639
100
AcDbEntity
  8
0
100
AcDbLine
 62
7
  6
CONTINUOUS
 10
13.7667405976
 20
6.5152208589
 11
13.7528211148
 21
6.5232570942
  0
LINE
  5
63A
100
AcDbEntity
  8
0
100
AcDbLine
 62
7
  6
CONTINUOUS
 10
13.7945793313
 20
6.5312934633
 11
13.7806598486
 21
6.5393296987
  0
LINE
  5
63B
100
AcDbEntity
  8
0
100
AcDbLine
 62
7
  6
CONTINUOUS
 10
13.7945793313
 20
6.5634392278
 11
13.7806598486
 21
6.5714754631
  0
LINE
  5
63C
100
AcDbEntity
  8
0
100
AcDbLine
 62
7
  6
CONTINUOUS
 10
13.5997077315
 20
6.2821643544
 11
13.5857883646
 21
6.338419581
  0
LWPOLYLINE
  5
63D
100
AcDbEntity
  8
0
100
AcDbPolyline
 62
7
  6
CONTINUOUS
 90
5
 70
0
 10
13.6414662957
 20
4.9722254149
 10
13.6442581964
 20
4.9452248878
 10
13.652493901
 20
4.9228020699
 10
13.6657604368
 20
4.9060813348
 10
13.6740870732
 20
4.9001411769
  0
LINE
  5
63E
100
AcDbEntity
  8
0
100
AcDbLine
 62
7
  6
CONTINUOUS
 10
13.836337432
 20
6.5554023701
 11
13.8224179492
 21
6.5634386054
  0
LINE
  5
63F
100
AcDbEntity
  8
0
100
AcDbLine
 62
9
  6
CONTINUOUS
 10
13.7667405976
 20
6.7482776511
 11
12.8758936998
 21
7.262596712
  0
LINE
  5
640
100
AcDbEntity
  8
0
100
AcDbLine
 62
7
  6
CONTINUOUS
 10
13.5997077315
 20
6.2853789308
 11
13.5857883646
 21
6.3416341575
  0
LINE
  5
641
100
AcDbEntity
  8
0
100
AcDbLine
 62
7
  6
CONTINUOUS
 10
13.6414662957
 20
6.3094892162
 11
13.6553856626
 21
6.2532339895
  0
LWPOLYLINE
  5
642
100
AcDbEntity
  8
0
100
AcDbPolyline
 62
7
  6
CONTINUOUS
 90
5
 70
0
 10
13.8725277858
 20
5.140988373
 10
13.869456695
 20
5.1706889528
 10
13.86039742
 20
5.1953540526
 10
13.8458042306
 20
5.2137468611
 10
13.8366449305
 20
5.2202810349
  0
LINE
  5
643
100
AcDbEntity
  8
0
100
AcDbLine
 62
7
  6
CONTINUOUS
 10
13.5857883646
 20
6.5634399322
 11
13.5857883646
 21
6.338419581
  0
LINE
  5
644
100
AcDbEntity
  8
0
100
AcDbLine
 62
7
  6
CONTINUOUS
 10
13.5857883646
 20
5.312969695
 11
13.5857883646
 21
5.1811720607
  0
LINE
  5
645
100
AcDbEntity
  8
0
100
AcDbLine
 62
7
  6
CONTINUOUS
 10
13.5997077315
 20
6.2853789308
 11
13.5997077315
 21
5.3820829497
  0
LINE
  5
646
100
AcDbEntity
  8
0
100
AcDbLine
 62
7
  6
CONTINUOUS
 10
13.6414662957
 20
6.5312949909
 11
13.6414662957
 21
6.3094892162
  0
LINE
  5
647
100
AcDbEntity
  8
0
100
AcDbLine
 62
7
  6
CONTINUOUS
 10
13.6414662957
 20
5.2808247537
 11
13.6414662957
 21
5.1586708487
  0
LINE
  5
648
100
AcDbEntity
  8
0
100
AcDbLine
 62
7
  6
CONTINUOUS
 10
13.6414662957
 20
5.1490271194
 11
13.6414662957
 21
4.9722254149
  0
LINE
  5
649
100
AcDbEntity
  8
0
100
AcDbLine
 62
7
  6
CONTINUOUS
 10
13.6553856626
 20
6.2532339895
 11
13.6553856626
 21
5.3531525848
  0
LWPOLYLINE
  5
64A
100
AcDbEntity
  8
LAYER_AXIS
100
AcDbPolyline
 62
7
  6
CONTINUOUS
 90
44
 70
0
 10
13.7027248196
 20
6.4959976869
 10
13.7027248196
 20
6.4926711832
 10
13.7028312697
 20
6.4894084098
 10
13.7030440243
 20
6.4862138234
 10
13.703362793
 20
6.4830917874
 10
13.7037871404
 20
6.480046566
 10
13.7043164868
 20
6.4770823188
 10
13.7049501091
 20
6.4742030944
 10
13.7056871421
 20
6.4714128257
 10
13.7065265789
 20
6.4687153236
 10
13.707467273
 20
6.4661142728
 10
13.7085079395
 20
6.463613226
 10
13.7096471569
 20
6.4612155992
 10
13.7108833694
 20
6.4589246673
 10
13.7122148882
 20
6.4567435595
 10
13.7136398949
 20
6.4546752549
 10
13.7151564428
 20
6.4527225786
 10
13.7167624607
 20
6.4508881976
 10
13.7184557549
 20
6.4491746176
 10
13.7202340126
 20
6.447584179
 10
13.7220948049
 20
6.4461190543
 10
13.7240355901
 20
6.4447812445
 10
13.7260537174
 20
6.443572577
 10
13.7281464302
 20
6.4424947027
 10
13.7303108703
 20
6.4415490939
 10
13.7325440811
 20
6.440737042
 10
13.7348430125
 20
6.4400596564
 10
13.7372045243
 20
6.4395178621
 10
13.739625391
 20
6.4391123993
 10
13.742102306
 20
6.4388438217
 10
13.7446318861
 20
6.4387124962
 10
13.7472106762
 20
6.4387186022
 10
13.7498351541
 20
6.4388621313
 10
13.7525017349
 20
6.4391428875
 10
13.7552067765
 20
6.4395604873
 10
13.757946584
 20
6.4401143603
 10
13.7607174153
 20
6.44080375
 10
13.7635154858
 20
6.4416277148
 10
13.7663369735
 20
6.4425851292
 10
13.7691780247
 20
6.4436746855
 10
13.7720347589
 20
6.4448948955
 10
13.7749032741
 20
6.4462440926
 10
13.7777796522
 20
6.4477204339
 10
13.7806599645
 20
6.4493219028
  0
LWPOLYLINE
  5
64B
100
AcDbEntity
  8
LAYER_AXIS
100
AcDbPolyline
 62
7
  6
CONTINUOUS
 90
44
 70
0
 10
13.7027248196
 20
5.3066044021
 10
13.7027248196
 20
5.3032778984
 10
13.7028312697
 20
5.300015125
 10
13.7030440243
 20
5.2968205386
 10
13.703362793
 20
5.2936985026
 10
13.7037871404
 20
5.2906532812
 10
13.7043164868
 20
5.287689034
 10
13.7049501091
 20
5.2848098096
 10
13.7056871421
 20
5.2820195409
 10
13.7065265789
 20
5.2793220388
 10
13.707467273
 20
5.276720988
 10
13.7085079395
 20
5.2742199412
 10
13.7096471569
 20
5.2718223144
 10
13.7108833694
 20
5.2695313825
 10
13.7122148882
 20
5.2673502747
 10
13.7136398949
 20
5.2652819701
 10
13.7151564428
 20
5.2633292938
 10
13.7167624607
 20
5.2614949128
 10
13.7184557549
 20
5.2597813328
 10
13.7202340126
 20
5.2581908942
 10
13.7220948049
 20
5.2567257695
 10
13.7240355901
 20
5.2553879597
 10
13.7260537174
 20
5.2541792922
 10
13.7281464302
 20
5.253101418
 10
13.7303108703
 20
5.2521558091
 10
13.7325440811
 20
5.2513437572
 10
13.7348430125
 20
5.2506663716
 10
13.7372045243
 20
5.2501245773
 10
13.739625391
 20
5.2497191145
 10
13.742102306
 20
5.2494505369
 10
13.7446318861
 20
5.2493192114
 10
13.7472106762
 20
5.2493253174
 10
13.7498351541
 20
5.2494688465
 10
13.7525017349
 20
5.2497496027
 10
13.7552067765
 20
5.2501672025
 10
13.757946584
 20
5.2507210755
 10
13.7607174153
 20
5.2514104652
 10
13.7635154858
 20
5.25223443
 10
13.7663369735
 20
5.2531918444
 10
13.7691780247
 20
5.2542814007
 10
13.7720347589
 20
5.2555016107
 10
13.7749032741
 20
5.2568508078
 10
13.7777796522
 20
5.2583271491
 10
13.7806599645
 20
5.2599286181
  0
LINE
  5
64C
100
AcDbEntity
  8
0
100
AcDbLine
 62
7
  6
CONTINUOUS
 10
13.724982497
 20
6.5232577166
 11
13.724982497
 21
6.4911119521
  0
LINE
  5
64D
100
AcDbEntity
  8
0
100
AcDbLine
 62
7
  6
CONTINUOUS
 10
13.724982497
 20
5.3338644318
 11
13.724982497
 21
5.3017186673
  0
LWPOLYLINE
  5
64E
100
AcDbEntity
  8
0
100
AcDbPolyline
 62
7
  6
CONTINUOUS
 90
8
 70
0
 10
13.5857883646
 20
6.5634399322
 10
13.5889292529
 20
6.597442289
 10
13.5981944205
 20
6.6333663894
 10
13.6131192733
 20
6.6694108489
 10
13.6329554168
 20
6.703768248
 10
13.656708184
 20
6.7347157631
 10
13.6831865118
 20
6.7607015567
 10
13.7110626665
 20
6.7804225924
  0
LINE
  5
64F
100
AcDbEntity
  8
0
100
AcDbLine
 62
7
  6
CONTINUOUS
 10
13.8196267738
 20
7.7913851217
 11
13.8753042413
 21
7.8396032129
  0
LINE
  5
650
100
AcDbEntity
  8
0
100
AcDbLine
 62
7
  6
CONTINUOUS
 10
13.8641692115
 20
7.7528111386
 11
13.9198466789
 21
7.8010292298
  0
LWPOLYLINE
  5
651
100
AcDbEntity
  8
0
100
AcDbPolyline
 62
7
  6
CONTINUOUS
 90
8
 70
0
 10
12.9315716309
 20
7.2304517707
 10
12.9036954762
 20
7.2107307349
 10
12.8772171484
 20
7.1847449414
 10
12.8534643812
 20
7.1537974262
 10
12.8336282377
 20
7.1194400272
 10
12.8187033849
 20
7.0833955676
 10
12.8094382173
 20
7.0474714672
 10
12.806297329
 20
7.0134691104
  0
LINE
  5
652
100
AcDbEntity
  8
0
100
AcDbLine
 62
7
  6
CONTINUOUS
 10
14.7876267142
 20
8.3663296941
 11
14.7466566077
 21
8.3426757332
  0
LINE
  5
653
100
AcDbEntity
  8
0
100
AcDbLine
 62
7
  6
CONTINUOUS
 10
14.7383049875
 20
8.3378539519
 11
13.8753042413
 21
7.8396032129
  0
LINE
  5
654
100
AcDbEntity
  8
0
100
AcDbLine
 62
7
  6
CONTINUOUS
 10
13.0401422289
 20
7.3574250784
 11
12.8758936998
 21
7.262596712
  0
LINE
  5
655
100
AcDbEntity
  8
0
100
AcDbLine
 62
7
  6
CONTINUOUS
 10
13.8196267738
 20
7.7913851217
 11
13.0958196964
 21
7.3734974051
  0
LINE
  5
656
100
AcDbEntity
  8
0
100
AcDbLine
 62
7
  6
CONTINUOUS
 10
15.6402873789
 20
5.7404892434
 11
15.6291518854
 21
5.7469181781
  0
LINE
  5
657
100
AcDbEntity
  8
0
100
AcDbLine
 62
7
  6
CONTINUOUS
 10
15.5484195575
 20
5.8079962653
 11
15.5345000747
 21
5.8160325006
  0
LINE
  5
658
100
AcDbEntity
  8
0
100
AcDbLine
 62
7
  6
CONTINUOUS
 10
15.5205808237
 20
5.8401423075
 11
15.506661341
 21
5.8481785428
  0
LINE
  5
659
100
AcDbEntity
  8
0
100
AcDbLine
 62
7
  6
CONTINUOUS
 10
15.5484195575
 20
5.8562149119
 11
15.5345000747
 21
5.8642511473
  0
LINE
  5
65A
100
AcDbEntity
  8
0
100
AcDbLine
 62
7
  6
CONTINUOUS
 10
15.5484195575
 20
5.8883606764
 11
15.5345000747
 21
5.8963969117
  0
LINE
  5
65B
100
AcDbEntity
  8
0
100
AcDbLine
 62
7
  6
CONTINUOUS
 10
13.8641757021
 20
6.8688219171
 11
13.0846846665
 21
7.3188510953
  0
LINE
  5
65C
100
AcDbEntity
  8
0
100
AcDbLine
 62
7
  6
CONTINUOUS
 10
15.5901776581
 20
5.8803238187
 11
15.5762581753
 21
5.888360054
  0
LINE
  5
65D
100
AcDbEntity
  8
0
100
AcDbLine
 62
7
  6
CONTINUOUS
 10
13.9309891267
 20
6.8431060176
 11
13.8753111956
 21
6.8752509589
  0
LINE
  5
65E
100
AcDbEntity
  8
0
100
AcDbLine
 62
7
  6
CONTINUOUS
 10
13.09582016
 20
7.3252801371
 11
13.0401422289
 21
7.3574250784
  0
LINE
  5
65F
100
AcDbEntity
  8
0
100
AcDbLine
 62
7
  6
CONTINUOUS
 10
13.9161412117
 20
6.8870372953
 11
13.140362134
 21
7.3349234221
  0
LINE
  5
660
100
AcDbEntity
  8
0
100
AcDbLine
 62
9
  6
CONTINUOUS
 10
15.6301385238
 20
5.9038628008
 11
15.6402873789
 21
5.8980034892
  0
LINE
  5
661
100
AcDbEntity
  8
0
100
AcDbLine
 62
7
  6
CONTINUOUS
 10
13.9866665942
 20
6.8591783443
 11
13.9309886631
 21
6.8913232856
  0
LINE
  5
662
100
AcDbEntity
  8
0
100
AcDbLine
 62
7
  6
CONTINUOUS
 10
13.1514976275
 20
7.3413524638
 11
13.0958196964
 21
7.3734974051
  0
LINE
  5
663
100
AcDbEntity
  8
0
100
AcDbLine
 62
7
  6
CONTINUOUS
 10
13.7667405976
 20
6.59558527
 11
13.7667405976
 21
6.5473666233
  0
LINE
  5
664
100
AcDbEntity
  8
0
100
AcDbLine
 62
7
  6
CONTINUOUS
 10
13.7667405976
 20
6.5152208589
 11
13.7667405976
 21
6.4670022122
  0
LINE
  5
665
100
AcDbEntity
  8
0
100
AcDbLine
 62
7
  6
CONTINUOUS
 10
13.7667405976
 20
5.4061919852
 11
13.7667405976
 21
5.3579733385
  0
LINE
  5
666
100
AcDbEntity
  8
0
100
AcDbLine
 62
7
  6
CONTINUOUS
 10
13.7667405976
 20
5.3258275741
 11
13.7667405976
 21
5.2776089274
  0
LINE
  5
667
100
AcDbEntity
  8
0
100
AcDbLine
 62
7
  6
CONTINUOUS
 10
13.7806598486
 20
5.3017177672
 11
13.7806598486
 21
5.3499364139
  0
LINE
  5
668
100
AcDbEntity
  8
0
100
AcDbLine
 62
7
  6
CONTINUOUS
 10
13.7806598486
 20
5.3820821783
 11
13.7806598486
 21
5.4142282205
  0
LINE
  5
669
100
AcDbEntity
  8
0
100
AcDbLine
 62
7
  6
CONTINUOUS
 10
13.7806598486
 20
6.491111052
 11
13.7806598486
 21
6.5393296987
  0
LINE
  5
66A
100
AcDbEntity
  8
0
100
AcDbLine
 62
7
  6
CONTINUOUS
 10
13.7806598486
 20
6.5714754631
 11
13.7806598486
 21
6.6036215053
  0
LINE
  5
66B
100
AcDbEntity
  8
0
100
AcDbLine
 62
7
  6
CONTINUOUS
 10
13.7945793313
 20
5.2936815319
 11
13.7945793313
 21
5.3419001785
  0
LINE
  5
66C
100
AcDbEntity
  8
0
100
AcDbLine
 62
7
  6
CONTINUOUS
 10
13.7945793313
 20
5.374045943
 11
13.7945793313
 21
5.4222645897
  0
LINE
  5
66D
100
AcDbEntity
  8
0
100
AcDbLine
 62
7
  6
CONTINUOUS
 10
13.7945793313
 20
6.4830748167
 11
13.7945793313
 21
6.5312934633
  0
LINE
  5
66E
100
AcDbEntity
  8
0
100
AcDbLine
 62
7
  6
CONTINUOUS
 10
13.7945793313
 20
6.5634392278
 11
13.7945793313
 21
6.6116578745
  0
LINE
  5
66F
100
AcDbEntity
  8
0
100
AcDbLine
 62
7
  6
CONTINUOUS
 10
13.8224179492
 20
5.3740453206
 11
13.8224179492
 21
5.3901184806
  0
LINE
  5
670
100
AcDbEntity
  8
0
100
AcDbLine
 62
7
  6
CONTINUOUS
 10
13.8224179492
 20
6.5634386054
 11
13.8224179492
 21
6.5795117654
  0
LINE
  5
671
100
AcDbEntity
  8
0
100
AcDbLine
 62
7
  6
CONTINUOUS
 10
13.836337432
 20
5.3660090853
 11
13.836337432
 21
5.3981548497
  0
LINE
  5
672
100
AcDbEntity
  8
0
100
AcDbLine
 62
7
  6
CONTINUOUS
 10
13.836337432
 20
6.5554023701
 11
13.836337432
 21
6.5875481345
  0
LINE
  5
673
100
AcDbEntity
  8
0
100
AcDbLine
 62
7
  6
CONTINUOUS
 10
13.8725277858
 20
5.140988373
 11
13.8725277858
 21
4.9770449743
  0
LINE
  5
674
100
AcDbEntity
  8
0
100
AcDbLine
 62
7
  6
CONTINUOUS
 10
13.8836632793
 20
5.1522392795
 11
13.8836632793
 21
4.9834740161
  0
LWPOLYLINE
  5
675
100
AcDbEntity
  8
LAYER_AXIS
100
AcDbPolyline
 62
7
  6
CONTINUOUS
 90
3
 70
0
 10
13.7030440243
 20
6.5028236303
 10
13.7028312697
 20
6.4993833775
 10
13.7027248196
 20
6.4959976869
  0
LWPOLYLINE
  5
676
100
AcDbEntity
  8
LAYER_AXIS
100
AcDbPolyline
 62
7
  6
CONTINUOUS
 90
3
 70
0
 10
13.7030440243
 20
5.3134303455
 10
13.7028312697
 20
5.3099900927
 10
13.7027248196
 20
5.3066044021
  0
LWPOLYLINE
  5
677
100
AcDbEntity
  8
0
100
AcDbPolyline
 62
7
  6
CONTINUOUS
 90
8
 70
0
 10
13.6894313679
 20
6.4991236682
 10
13.6910752213
 20
6.5111112232
 10
13.697882038
 20
6.5375466333
 10
13.709015197
 20
6.5643673093
 10
13.7239808438
 20
6.5900897454
 10
13.7417822269
 20
6.6129962877
 10
13.7611183701
 20
6.6316973995
 10
13.7698894752
 20
6.6384877562
  0
LINE
  5
678
100
AcDbEntity
  8
0
100
AcDbLine
 62
7
  6
CONTINUOUS
 10
14.7876267142
 20
8.3020392762
 11
13.9198466789
 21
7.8010292298
  0
LINE
  5
679
100
AcDbEntity
  8
0
100
AcDbLine
 62
7
  6
CONTINUOUS
 10
13.09582016
 20
7.3252801371
 11
12.9315716309
 21
7.2304517707
  0
LINE
  5
67A
100
AcDbEntity
  8
0
100
AcDbLine
 62
7
  6
CONTINUOUS
 10
13.8641692115
 20
7.7528111386
 11
13.140362134
 21
7.3349234221
  0
LINE
  5
67B
100
AcDbEntity
  8
0
100
AcDbLine
 62
9
  6
CONTINUOUS
 10
15.7526287451
 20
6.1160237438
 11
15.7627778074
 21
6.1101643125
  0
LWPOLYLINE
  5
67C
100
AcDbEntity
  8
0
100
AcDbPolyline
 62
7
  6
CONTINUOUS
 90
8
 70
0
 10
13.6894313679
 20
5.3097303834
 10
13.6910752213
 20
5.3217179384
 10
13.697882038
 20
5.3481533485
 10
13.709015197
 20
5.3749740245
 10
13.7239808438
 20
5.4006964606
 10
13.7417822269
 20
5.4236030029
 10
13.7611183701
 20
5.4423041147
 10
13.7698894752
 20
5.4490944714
  0
LINE
  5
67D
100
AcDbEntity
  8
0
100
AcDbLine
 62
7
  6
CONTINUOUS
 10
13.5857883646
 20
5.312969695
 11
13.5997077315
 21
5.3852975261
  0
LINE
  5
67E
100
AcDbEntity
  8
0
100
AcDbLine
 62
7
  6
CONTINUOUS
 10
13.5857883646
 20
5.3097551185
 11
13.5997077315
 21
5.3820829497
  0
LINE
  5
67F
100
AcDbEntity
  8
0
100
AcDbLine
 62
7
  6
CONTINUOUS
 10
13.6553856626
 20
5.3531525848
 11
13.6414662957
 21
5.2808247537
  0
LWPOLYLINE
  5
680
100
AcDbEntity
  8
0
100
AcDbPolyline
 62
7
  6
CONTINUOUS
 90
4
 70
0
 10
14.610933226
 20
8.0936143082
 10
14.6069846986
 20
8.089172989
 10
14.6052435427
 20
8.0854055156
 10
14.6051676712
 20
8.0845975879
  0
LWPOLYLINE
  5
681
100
AcDbEntity
  8
0
100
AcDbPolyline
 62
7
  6
CONTINUOUS
 90
3
 70
0
 10
14.610933226
 20
8.0936143082
 10
14.6328550225
 20
8.1116936692
 10
14.6498314386
 20
8.1233837186
  0
LWPOLYLINE
  5
682
100
AcDbEntity
  8
AXIS
100
AcDbPolyline
 62
7
  6
CONTINUOUS
 90
4
 70
0
 10
14.9220448028
 20
8.1224879047
 10
14.9354756107
 20
8.1328463526
 10
14.9433076395
 20
8.1449698126
 10
14.9451001754
 20
8.154649476
  0
LWPOLYLINE
  5
683
100
AcDbEntity
  8
0
100
AcDbPolyline
 62
7
  6
CONTINUOUS
 90
8
 70
0
 10
15.1218005174
 20
8.0028194082
 10
15.0998787209
 20
7.9955858101
 10
15.0744267422
 20
7.9837229384
 10
15.0472010366
 20
7.968990315
 10
15.0194138259
 20
7.9529447267
 10
14.9922301938
 20
7.9362575928
 10
14.966842414
 20
7.9187640761
 10
14.9450008127
 20
7.9007446604
  0
LINE
  5
684
100
AcDbEntity
  8
0
100
AcDbLine
 62
7
  6
CONTINUOUS
 10
13.0401422289
 20
7.3574250784
 11
13.0958196964
 21
7.3734974051
  0
LINE
  5
685
100
AcDbEntity
  8
0
100
AcDbLine
 62
7
  6
CONTINUOUS
 10
13.1514976275
 20
7.3413524638
 11
13.09582016
 21
7.3252801371
  0
LINE
  5
686
100
AcDbEntity
  8
0
100
AcDbLine
 62
7
  6
CONTINUOUS
 10
13.0846846665
 20
7.3188510953
 11
13.140362134
 21
7.3349234221
  0
LINE
  5
687
100
AcDbEntity
  8
0
100
AcDbLine
 62
7
  6
CONTINUOUS
 10
15.8685649956
 20
6.1712402095
 11
15.8574292169
 21
6.1776693089
  0
LWPOLYLINE
  5
688
100
AcDbEntity
  8
LAYER_AXIS
100
AcDbPolyline
 62
7
  6
CONTINUOUS
 90
16
 70
0
 10
13.8484151253
 20
6.5339475914
 10
13.8476800341
 20
6.5320629034
 10
13.8461634861
 20
6.5283590788
 10
13.8445574682
 20
6.5246702391
 10
13.842864174
 20
6.5210014231
 10
13.8410859163
 20
6.5173576417
 10
13.8392251241
 20
6.5137438719
 10
13.8372843388
 20
6.5101650498
 10
13.8352662115
 20
6.5066260636
 10
13.8331734987
 20
6.503131747
 10
13.8310090586
 20
6.499686873
 10
13.8287758478
 20
6.4962961468
 10
13.8264769164
 20
6.4929641997
 10
13.8241154047
 20
6.4896955828
 10
13.821694538
 20
6.4864947606
 10
13.8191999897
 20
6.483344339
  0
LINE
  5
689
100
AcDbEntity
  8
0
100
AcDbLine
 62
7
  6
CONTINUOUS
 10
14.9450008127
 20
7.7499945326
 11
15.1218005174
 21
7.8520692803
  0
LWPOLYLINE
  5
68A
100
AcDbEntity
  8
0
100
AcDbPolyline
 62
7
  6
CONTINUOUS
 90
4
 70
0
 10
15.1218005174
 20
8.0028194082
 10
15.1257490449
 20
8.0049123534
 10
15.1274902007
 20
8.0086893314
 10
15.1275660723
 20
8.0098657092
  0
LWPOLYLINE
  5
68B
100
AcDbEntity
  8
0
100
AcDbPolyline
 62
7
  6
CONTINUOUS
 90
4
 70
0
 10
14.9450008127
 20
7.7499945326
 10
14.9394006613
 20
7.7477305996
 10
14.9327970758
 20
7.746709019
 10
14.925986546
 20
7.7470530083
  0
LWPOLYLINE
  5
68C
100
AcDbEntity
  8
AXIS
100
AcDbPolyline
 62
7
  6
CONTINUOUS
 90
10
 70
0
 10
15.7148879379
 20
5.8954172935
 10
15.7053756017
 20
5.9042398475
 10
15.699396234
 20
5.9174565128
 10
15.697356783
 20
5.9341669048
 10
15.699396234
 20
5.9532322379
 10
15.7053756017
 20
5.9733532411
 10
15.7148874022
 20
5.9931587013
 10
15.7272834218
 20
6.0112989092
 10
15.7417188925
 20
6.0265376395
 10
15.7572100606
 20
6.037836398
  0
LWPOLYLINE
  5
68D
100
AcDbEntity
  8
AXIS
100
AcDbPolyline
 62
9
  6
CONTINUOUS
 90
3
 70
0
 10
14.641546443
 20
8.0649974503
 10
14.6489087998
 20
8.0918353923
 10
14.6498314386
 20
8.0932230837
  0
LWPOLYLINE
  5
68E
100
AcDbEntity
  8
LAYER_AXIS
100
AcDbPolyline
 62
7
  6
CONTINUOUS
 90
15
 70
0
 10
13.8191999897
 20
6.483344339
 10
13.8166880428
 20
6.4803138894
 10
13.8141092527
 20
6.4773422828
 10
13.8114847749
 20
6.474455344
 10
13.808818194
 20
6.4716570163
 10
13.8061131525
 20
6.4689511218
 10
13.8033733449
 20
6.4663413564
 10
13.8006025136
 20
6.4638312848
 10
13.7978044431
 20
6.4614243354
 10
13.7949829554
 20
6.4591237958
 10
13.7921419042
 20
6.4569328083
 10
13.78928517
 20
6.4548543655
 10
13.7864166548
 20
6.4528913064
 10
13.7835402767
 20
6.4510463121
 10
13.7806599645
 20
6.4493219028
  0
LWPOLYLINE
  5
68F
100
AcDbEntity
  8
0
100
AcDbPolyline
 62
7
  6
CONTINUOUS
 90
8
 70
0
 10
13.7667405976
 20
6.7482776511
 10
13.7388644429
 20
6.7285566154
 10
13.7123861151
 20
6.7025708218
 10
13.6886333479
 20
6.6716233067
 10
13.6687972044
 20
6.6372659076
 10
13.6538723517
 20
6.6012214481
 10
13.644607184
 20
6.5652973477
 10
13.6414662957
 20
6.5312949909
  0
LINE
  5
690
100
AcDbEntity
  8
0
100
AcDbLine
 62
7
  6
CONTINUOUS
 10
15.5818255744
 20
7.8605016137
 11
14.6993377145
 21
7.3510000516
  0
LINE
  5
691
100
AcDbEntity
  8
0
100
AcDbLine
 62
7
  6
CONTINUOUS
 10
13.8753111956
 20
6.8752509589
 11
13.7110626665
 21
6.7804225924
  0
LWPOLYLINE
  5
692
100
AcDbEntity
  8
AXIS
100
AcDbPolyline
 62
7
  6
CONTINUOUS
 90
4
 70
0
 10
15.7572100606
 20
7.805853443
 10
15.7727012288
 20
7.8124422379
 10
15.7871366994
 20
7.8138720538
 10
15.7995321833
 20
7.8100457604
  0
LINE
  5
693
100
AcDbEntity
  8
0
100
AcDbLine
 62
7
  6
CONTINUOUS
 10
14.643660247
 20
7.3027819604
 11
13.8641692115
 21
7.7528111386
  0
LINE
  5
694
100
AcDbEntity
  8
0
100
AcDbLine
 62
7
  6
CONTINUOUS
 10
14.7104736717
 20
7.2770660609
 11
14.6547957405
 21
7.3092110022
  0
LINE
  5
695
100
AcDbEntity
  8
0
100
AcDbLine
 62
7
  6
CONTINUOUS
 10
13.8730775606
 20
7.7605259937
 11
13.8196267738
 21
7.7913851217
  0
LINE
  5
696
100
AcDbEntity
  8
0
100
AcDbLine
 62
7
  6
CONTINUOUS
 10
14.6993377145
 20
7.3510000516
 11
13.9198466789
 21
7.8010292298
  0
LINE
  5
697
100
AcDbEntity
  8
0
100
AcDbLine
 62
7
  6
CONTINUOUS
 10
14.7661511392
 20
7.3252841521
 11
14.710473208
 21
7.3574290934
  0
LINE
  5
698
100
AcDbEntity
  8
0
100
AcDbLine
 62
7
  6
CONTINUOUS
 10
13.9309821724
 20
7.8074582716
 11
13.8753042413
 21
7.8396032129
  0
LWPOLYLINE
  5
699
100
AcDbEntity
  8
AXIS
100
AcDbPolyline
 62
7
  6
CONTINUOUS
 90
10
 70
0
 10
15.7995321833
 20
6.0420287154
 10
15.8090445195
 20
6.0332061614
 10
15.8150238872
 20
6.0199894961
 10
15.8170633382
 20
6.0032791041
 10
15.8150238872
 20
5.984213771
 10
15.8090445195
 20
5.9640927678
 10
15.799532719
 20
5.9442873076
 10
15.7871366994
 20
5.9261470997
 10
15.7727012288
 20
5.9109083694
 10
15.7572100606
 20
5.8996096109
  0
LWPOLYLINE
  5
69A
100
AcDbEntity
  8
AXIS
100
AcDbPolyline
 62
7
  6
CONTINUOUS
 90
5
 70
0
 10
14.6498442532
 20
8.0581955548
 10
14.6511930689
 20
8.0441977961
 10
14.6619829838
 20
8.0169052233
 10
14.6830215602
 20
7.9916831201
 10
14.7132538361
 20
7.969796228
  0
LINE
  5
69B
100
AcDbEntity
  8
0
100
AcDbLine
 62
7
  6
CONTINUOUS
 10
14.6051676695
 20
8.0826365487
 11
14.6051676695
 21
7.9348279451
  0
LINE
  5
69C
100
AcDbEntity
  8
0
100
AcDbLine
 62
9
  6
CONTINUOUS
 10
14.6058384421
 20
8.0826365487
 11
14.6058384421
 21
7.9318864208
  0
LINE
  5
69D
100
AcDbEntity
  8
AXIS
100
AcDbLine
 62
7
  6
CONTINUOUS
 10
14.6498314386
 20
8.0581955526
 11
14.6498314386
 21
8.1385599638
  0
LINE
  5
69E
100
AcDbEntity
  8
0
100
AcDbLine
 62
9
  6
CONTINUOUS
 10
14.6705529004
 20
7.9432005862
 11
14.6705529004
 21
7.7924504584
  0
LINE
  5
69F
100
AcDbEntity
  8
0
100
AcDbLine
 62
9
  6
CONTINUOUS
 10
14.6844723831
 20
7.9351643509
 11
14.6844723831
 21
7.784414223
  0
LWPOLYLINE
  5
6A0
100
AcDbEntity
  8
LAYER_AXIS
100
AcDbPolyline
 62
7
  6
CONTINUOUS
 90
16
 70
0
 10
13.8484151253
 20
5.3445543066
 10
13.8476800341
 20
5.3426696186
 10
13.8461634861
 20
5.338965794
 10
13.8445574682
 20
5.3352769544
 10
13.842864174
 20
5.3316081383
 10
13.8410859163
 20
5.3279643569
 10
13.8392251241
 20
5.3243505871
 10
13.8372843388
 20
5.320771765
 10
13.8352662115
 20
5.3172327788
 10
13.8331734987
 20
5.3137384622
 10
13.8310090586
 20
5.3102935882
 10
13.8287758478
 20
5.306902862
 10
13.8264769164
 20
5.3035709149
 10
13.8241154047
 20
5.300302298
 10
13.821694538
 20
5.2971014758
 10
13.8191999897
 20
5.2939510542
  0
LINE
  5
6A1
100
AcDbEntity
  8
0
100
AcDbLine
 62
7
  6
CONTINUOUS
 10
14.643660247
 20
7.3027819604
 11
14.6993377145
 21
7.3510000516
  0
LINE
  5
6A2
100
AcDbEntity
  8
0
100
AcDbLine
 62
7
  6
CONTINUOUS
 10
14.6547957405
 20
7.3092110022
 11
14.710473208
 21
7.3574290934
  0
LINE
  5
6A3
100
AcDbEntity
  8
0
100
AcDbLine
 62
7
  6
CONTINUOUS
 10
14.7661511392
 20
7.3252841521
 11
14.7104736717
 21
7.2770660609
  0
LWPOLYLINE
  5
6A4
100
AcDbEntity
  8
LAYER_AXIS
100
AcDbPolyline
 62
7
  6
CONTINUOUS
 90
39
 70
0
 10
13.7749032741
 20
6.6257687803
 10
13.7720347589
 20
6.6238057211
 10
13.7691780247
 20
6.6217272783
 10
13.7663369735
 20
6.6195362908
 10
13.7635154858
 20
6.6172357513
 10
13.7607174153
 20
6.6148288019
 10
13.757946584
 20
6.6123187303
 10
13.7552067765
 20
6.6097089649
 10
13.7525017349
 20
6.6070030703
 10
13.7498351541
 20
6.6042047426
 10
13.7472106762
 20
6.6013178038
 10
13.7446318861
 20
6.5983461972
 10
13.742102306
 20
6.5952939816
 10
13.739625391
 20
6.5921653261
 10
13.7372045243
 20
6.5889645038
 10
13.7348430125
 20
6.5856958869
 10
13.7325440811
 20
6.5823639398
 10
13.7303108703
 20
6.5789732136
 10
13.7281464302
 20
6.5755283396
 10
13.7260537174
 20
6.5720340231
 10
13.7240355901
 20
6.5684950368
 10
13.7220948049
 20
6.5649162147
 10
13.7202340126
 20
6.561302445
 10
13.7184557549
 20
6.5576586636
 10
13.7167624607
 20
6.5539898475
 10
13.7151564428
 20
6.5503010079
 10
13.7136398949
 20
6.5465971832
 10
13.7122148882
 20
6.5428834326
 10
13.7108833694
 20
6.5391648284
 10
13.7096471569
 20
6.5354464499
 10
13.7085079395
 20
6.5317333759
 10
13.707467273
 20
6.528030678
 10
13.7065265789
 20
6.5243434137
 10
13.7056871421
 20
6.5206766194
 10
13.7049501091
 20
6.5170353033
 10
13.7043164868
 20
6.5134244393
 10
13.7037871404
 20
6.5098489591
 10
13.703362793
 20
6.5063137466
 10
13.7030440243
 20
6.5028236303
  0
LINE
  5
6A5
100
AcDbEntity
  8
0
100
AcDbLine
 62
7
  6
CONTINUOUS
 10
13.7698894752
 20
6.6384877562
 11
13.7806599645
 21
6.645411066
  0
LINE
  5
6A6
100
AcDbEntity
  8
LAYER_AXIS
100
AcDbLine
 62
7
  6
CONTINUOUS
 10
13.7777796522
 20
6.6276137745
 11
13.7749032741
 21
6.6257687803
  0
LINE
  5
6A7
100
AcDbEntity
  8
LAYER_AXIS
100
AcDbLine
 62
7
  6
CONTINUOUS
 10
13.7806599645
 20
6.6293381838
 11
13.7777796522
 21
6.6276137745
  0
LINE
  5
6A8
100
AcDbEntity
  8
LAYER_AXIS
100
AcDbLine
 62
7
  6
CONTINUOUS
 10
15.5345001906
 20
7.6419122662
 11
15.5316198783
 21
7.6401878569
  0
LINE
  5
6A9
100
AcDbEntity
  8
0
100
AcDbLine
 62
7
  6
CONTINUOUS
 10
14.6547957405
 20
7.3092110022
 11
13.9309886631
 21
6.8913232856
  0
LINE
  5
6AA
100
AcDbEntity
  8
0
100
AcDbLine
 62
7
  6
CONTINUOUS
 10
15.7572100606
 20
7.8974688717
 11
15.6375035055
 21
7.8283566724
  0
LINE
  5
6AB
100
AcDbEntity
  8
0
100
AcDbLine
 62
7
  6
CONTINUOUS
 10
15.6291518854
 20
7.8235348911
 11
14.7661511392
 21
7.3252841521
  0
LINE
  5
6AC
100
AcDbEntity
  8
0
100
AcDbLine
 62
7
  6
CONTINUOUS
 10
13.9309891267
 20
6.8431060176
 11
13.7667405976
 21
6.7482776511
  0
LINE
  5
6AD
100
AcDbEntity
  8
0
100
AcDbLine
 62
7
  6
CONTINUOUS
 10
14.7104736717
 20
7.2770660609
 11
13.9866665942
 21
6.8591783443
  0
LINE
  5
6AE
100
AcDbEntity
  8
0
100
AcDbLine
 62
7
  6
CONTINUOUS
 10
15.5484195575
 20
7.6242319569
 11
15.5205808237
 21
7.6081593524
  0
LINE
  5
6AF
100
AcDbEntity
  8
0
100
AcDbLine
 62
7
  6
CONTINUOUS
 10
13.7945793313
 20
6.6116578745
 11
13.7667405976
 21
6.59558527
  0
LWPOLYLINE
  5
6B0
100
AcDbEntity
  8
LAYER_AXIS
100
AcDbPolyline
 62
7
  6
CONTINUOUS
 90
58
 70
0
 10
15.5345001906
 20
7.6419122662
 10
15.5373805029
 20
7.6435137352
 10
15.540256881
 20
7.6449900765
 10
15.5431253962
 20
7.6463392736
 10
15.5459821303
 20
7.6475594836
 10
15.5488231815
 20
7.6486490399
 10
15.5516446693
 20
7.6496064543
 10
15.5544427397
 20
7.6504304191
 10
15.557213571
 20
7.6511198087
 10
15.5599533786
 20
7.6516736818
 10
15.5626584202
 20
7.6520912816
 10
15.565325001
 20
7.6523720377
 10
15.5679494789
 20
7.6525155669
 10
15.570528269
 20
7.6525216728
 10
15.5730578491
 20
7.6523903474
 10
15.5755347641
 20
7.6521217698
 10
15.5779556308
 20
7.651716307
 10
15.5803171426
 20
7.6511745127
 10
15.582616074
 20
7.650497127
 10
15.5848492848
 20
7.6496850752
 10
15.5870137248
 20
7.6487394663
 10
15.5891064377
 20
7.647661592
 10
15.591124565
 20
7.6464529246
 10
15.5930653502
 20
7.6451151148
 10
15.5949261425
 20
7.6436499901
 10
15.5967044001
 20
7.6420595515
 10
15.5983976943
 20
7.6403459715
 10
15.6000037122
 20
7.6385115905
 10
15.6015202602
 20
7.6365589142
 10
15.6029452668
 20
7.6344906096
 10
15.6042767857
 20
7.6323095018
 10
15.6055129981
 20
7.6300185699
 10
15.6066522156
 20
7.6276209431
 10
15.6076928821
 20
7.6251198962
 10
15.6086335762
 20
7.6225188454
 10
15.609473013
 20
7.6198213434
 10
15.6102100459
 20
7.6170310746
 10
15.6108436683
 20
7.6141518503
 10
15.6113730147
 20
7.611187603
 10
15.611797362
 20
7.6081423817
 10
15.6121161307
 20
7.6050203457
 10
15.6123288854
 20
7.6018257592
 10
15.6124353355
 20
7.5985629859
 10
15.6124353355
 20
7.5952364821
 10
15.6123288854
 20
7.5918507916
 10
15.6121161307
 20
7.5884105387
 10
15.611797362
 20
7.5849204225
 10
15.6113730147
 20
7.58138521
 10
15.6108436683
 20
7.5778097298
 10
15.6102100459
 20
7.5741988657
 10
15.609473013
 20
7.5705575497
 10
15.6086335762
 20
7.5668907554
 10
15.6076928821
 20
7.5632034911
 10
15.6066522156
 20
7.5595007932
 10
15.6055129981
 20
7.5557877192
 10
15.6042767857
 20
7.5520693407
 10
15.6029452668
 20
7.5483507365
 10
15.6022553514
 20
7.5465216738
  0
LWPOLYLINE
  5
6B1
100
AcDbEntity
  8
LAYER_AXIS
100
AcDbPolyline
 62
7
  6
CONTINUOUS
 90
58
 70
0
 10
13.7806599645
 20
6.6293381838
 10
13.7835402767
 20
6.6309396528
 10
13.7864166548
 20
6.6324159941
 10
13.78928517
 20
6.6337651911
 10
13.7921419042
 20
6.6349854012
 10
13.7949829554
 20
6.6360749575
 10
13.7978044431
 20
6.6370323719
 10
13.8006025136
 20
6.6378563366
 10
13.8033733449
 20
6.6385457263
 10
13.8061131525
 20
6.6390995993
 10
13.808818194
 20
6.6395171991
 10
13.8114847749
 20
6.6397979553
 10
13.8141092527
 20
6.6399414844
 10
13.8166880428
 20
6.6399475904
 10
13.819217623
 20
6.6398162649
 10
13.821694538
 20
6.6395476873
 10
13.8241154047
 20
6.6391422245
 10
13.8264769164
 20
6.6386004303
 10
13.8287758478
 20
6.6379230446
 10
13.8310090586
 20
6.6371109928
 10
13.8331734987
 20
6.6361653839
 10
13.8352662115
 20
6.6350875096
 10
13.8372843388
 20
6.6338788421
 10
13.8392251241
 20
6.6325410324
 10
13.8410859163
 20
6.6310759076
 10
13.842864174
 20
6.6294854691
 10
13.8445574682
 20
6.627771889
 10
13.8461634861
 20
6.6259375081
 10
13.8476800341
 20
6.6239848317
 10
13.8491050407
 20
6.6219165271
 10
13.8504365595
 20
6.6197354193
 10
13.851672772
 20
6.6174444875
 10
13.8528119895
 20
6.6150468607
 10
13.853852656
 20
6.6125458138
 10
13.85479335
 20
6.609944763
 10
13.8556327868
 20
6.607247261
 10
13.8563698198
 20
6.6044569922
 10
13.8570034422
 20
6.6015777679
 10
13.8575327885
 20
6.5986135206
 10
13.8579571359
 20
6.5955682993
 10
13.8582759046
 20
6.5924462632
 10
13.8584886593
 20
6.5892516768
 10
13.8585951093
 20
6.5859889035
 10
13.8585951093
 20
6.5826623997
 10
13.8584886593
 20
6.5792767092
 10
13.8582759046
 20
6.5758364563
 10
13.8579571359
 20
6.5723463401
 10
13.8575327885
 20
6.5688111275
 10
13.8570034422
 20
6.5652356474
 10
13.8563698198
 20
6.5616247833
 10
13.8556327868
 20
6.5579834673
 10
13.85479335
 20
6.5543166729
 10
13.853852656
 20
6.5506294086
 10
13.8528119895
 20
6.5469267108
 10
13.851672772
 20
6.5432136368
 10
13.8504365595
 20
6.5394952583
 10
13.8491050407
 20
6.5357766541
 10
13.8484151253
 20
6.5339475914
  0
LWPOLYLINE
  5
6B2
100
AcDbEntity
  8
0
100
AcDbPolyline
 62
7
  6
CONTINUOUS
 90
15
 70
0
 10
15.5345001906
 20
7.6579851485
 10
15.5541275607
 20
7.6668835388
 10
15.5733650347
 20
7.6704483979
 10
15.5912194682
 20
7.6681021975
 10
15.6061586312
 20
7.6596540776
 10
15.6172689826
 20
7.6457216966
 10
15.6240717738
 20
7.6271859899
 10
15.6263679828
 20
7.6049849339
 10
15.6240849338
 20
7.5801229458
 10
15.617278117
 20
7.5536875358
 10
15.6061449581
 20
7.5268668598
 10
15.5911793113
 20
7.5011444237
 10
15.5733779281
 20
7.4782378813
 10
15.554041785
 20
7.4595367696
 10
15.5345001906
 20
7.4458231031
  0
LWPOLYLINE
  5
6B3
100
AcDbEntity
  8
0
100
AcDbPolyline
 62
7
  6
CONTINUOUS
 90
5
 70
0
 10
15.7613858707
 20
7.5880658472
 10
15.7319610408
 20
7.5749058319
 10
15.7040116947
 20
7.5700623483
 10
15.6789393294
 20
7.5737782689
 10
15.6678890587
 20
7.5788133243
  0
LWPOLYLINE
  5
6B4
100
AcDbEntity
  8
AXIS
100
AcDbPolyline
 62
7
  6
CONTINUOUS
 90
4
 70
0
 10
15.7572100606
 20
7.6676266558
 10
15.7417188925
 20
7.6610378609
 10
15.7272834218
 20
7.659608045
 10
15.7148879379
 20
7.6634343385
  0
LINE
  5
6B5
100
AcDbEntity
  8
0
100
AcDbLine
 62
7
  6
CONTINUOUS
 10
13.8753111956
 20
6.8752509589
 11
13.9309886631
 21
6.8913232856
  0
LINE
  5
6B6
100
AcDbEntity
  8
0
100
AcDbLine
 62
7
  6
CONTINUOUS
 10
13.9866665942
 20
6.8591783443
 11
13.9309891267
 21
6.8431060176
  0
LWPOLYLINE
  5
6B7
100
AcDbEntity
  8
0
100
AcDbPolyline
 62
7
  6
CONTINUOUS
 90
3
 70
0
 10
15.6445973324
 20
7.6027610579
 10
15.6483337636
 20
7.6022072896
 10
15.6533887476
 20
7.6030832934
  0
LINE
  5
6B8
100
AcDbEntity
  8
0
100
AcDbLine
 62
7
  6
CONTINUOUS
 10
14.6058384421
 20
7.9318864208
 11
14.6051697936
 21
7.9348466689
  0
LWPOLYLINE
  5
6B9
100
AcDbEntity
  8
AXIS
100
AcDbPolyline
 62
7
  6
CONTINUOUS
 90
10
 70
0
 10
14.787633568
 20
8.154616216
 10
14.7878273585
 20
8.1513895779
 10
14.7925914174
 20
8.1387460266
 10
14.8033323248
 20
8.127389531
 10
14.8191799163
 20
8.1182401268
 10
14.8388503143
 20
8.1120390442
 10
14.8607499402
 20
8.1092886581
 10
14.8831046164
 20
8.1102117885
 10
14.9041033001
 20
8.1147336488
 10
14.9220448028
 20
8.1224879047
  0
LINE
  5
6BA
100
AcDbEntity
  8
0
100
AcDbLine
 62
7
  6
CONTINUOUS
 10
14.7466566077
 20
8.3426757332
 11
14.7466566077
 21
8.3330322508
  0
LINE
  5
6BB
100
AcDbEntity
  8
AXIS
100
AcDbLine
 62
7
  6
CONTINUOUS
 10
14.7876267142
 20
8.154632846
 11
14.7876267142
 21
9.8262125976
  0
LWPOLYLINE
  5
6BC
100
AcDbEntity
  8
LAYER_AXIS
100
AcDbPolyline
 62
7
  6
CONTINUOUS
 90
39
 70
0
 10
15.5287435002
 20
7.6383428627
 10
15.5258749851
 20
7.6363798035
 10
15.5230182509
 20
7.6343013608
 10
15.5201771997
 20
7.6321103733
 10
15.517355712
 20
7.6298098337
 10
15.5145576415
 20
7.6274028843
 10
15.5117868102
 20
7.6248928127
 10
15.5090470026
 20
7.6222830473
 10
15.506341961
 20
7.6195771528
 10
15.5036753802
 20
7.616778825
 10
15.5010509024
 20
7.6138918863
 10
15.4984721122
 20
7.6109202797
 10
15.4959425321
 20
7.6078680641
 10
15.4934656171
 20
7.6047394085
 10
15.4910447504
 20
7.6015385863
 10
15.4886832386
 20
7.5982699694
 10
15.4863843073
 20
7.5949380223
 10
15.4841510964
 20
7.5915472961
 10
15.4819866564
 20
7.588102422
 10
15.4798939435
 20
7.5846081055
 10
15.4778758162
 20
7.5810691193
 10
15.475935031
 20
7.5774902972
 10
15.4740742388
 20
7.5738765274
 10
15.4722959811
 20
7.570232746
 10
15.4706026869
 20
7.5665639299
 10
15.468996669
 20
7.5628750903
 10
15.467480121
 20
7.5591712657
 10
15.4660551144
 20
7.555457515
 10
15.4647235955
 20
7.5517389108
 10
15.4634873831
 20
7.5480205323
 10
15.4623481656
 20
7.5443074583
 10
15.4613074991
 20
7.5406047604
 10
15.460366805
 20
7.5369174962
 10
15.4595273682
 20
7.5332507018
 10
15.4587903353
 20
7.5296093858
 10
15.4581567129
 20
7.5259985217
 10
15.4576273665
 20
7.5224230416
 10
15.4572030192
 20
7.518887829
 10
15.4568842505
 20
7.5153977128
  0
LINE
  5
6BD
100
AcDbEntity
  8
0
100
AcDbLine
 62
7
  6
CONTINUOUS
 10
15.5237297013
 20
7.6510618386
 11
15.5345001906
 21
7.6579851485
  0
LINE
  5
6BE
100
AcDbEntity
  8
LAYER_AXIS
100
AcDbLine
 62
7
  6
CONTINUOUS
 10
15.5316198783
 20
7.6401878569
 11
15.5287435002
 21
7.6383428627
  0
LINE
  5
6BF
100
AcDbEntity
  8
0
100
AcDbLine
 62
7
  6
CONTINUOUS
 10
15.5901776581
 20
7.600122217
 11
15.5484195575
 21
7.5760133102
  0
LINE
  5
6C0
100
AcDbEntity
  8
0
100
AcDbLine
 62
7
  6
CONTINUOUS
 10
15.5205808237
 20
7.5599407057
 11
15.4788227231
 21
7.535831799
  0
LINE
  5
6C1
100
AcDbEntity
  8
0
100
AcDbLine
 62
7
  6
CONTINUOUS
 10
13.836337432
 20
6.5875481345
 11
13.7945793313
 21
6.5634392278
  0
LINE
  5
6C2
100
AcDbEntity
  8
0
100
AcDbLine
 62
7
  6
CONTINUOUS
 10
13.7667405976
 20
6.5473666233
 11
13.724982497
 21
6.5232577166
  0
LINE
  5
6C3
100
AcDbEntity
  8
0
100
AcDbLine
 62
7
  6
CONTINUOUS
 10
13.724982497
 20
6.5071845566
 11
13.7528211148
 21
6.5232570942
  0
LINE
  5
6C4
100
AcDbEntity
  8
0
100
AcDbLine
 62
7
  6
CONTINUOUS
 10
13.7806598486
 20
6.5393296987
 11
13.8224179492
 21
6.5634386054
  0
LINE
  5
6C5
100
AcDbEntity
  8
0
100
AcDbLine
 62
7
  6
CONTINUOUS
 10
15.4788227231
 20
7.519758639
 11
15.506661341
 21
7.5358311766
  0
LINE
  5
6C6
100
AcDbEntity
  8
0
100
AcDbLine
 62
7
  6
CONTINUOUS
 10
15.5345000747
 20
7.5519037811
 11
15.5762581753
 21
7.5760126878
  0
LINE
  5
6C7
100
AcDbEntity
  8
0
100
AcDbLine
 62
7
  6
CONTINUOUS
 10
13.724982497
 20
6.4911119521
 11
13.7667405976
 21
6.5152208589
  0
LINE
  5
6C8
100
AcDbEntity
  8
0
100
AcDbLine
 62
7
  6
CONTINUOUS
 10
13.7945793313
 20
6.5312934633
 11
13.836337432
 21
6.5554023701
  0
LINE
  5
6C9
100
AcDbEntity
  8
0
100
AcDbLine
 62
7
  6
CONTINUOUS
 10
15.4788227231
 20
7.5036860346
 11
15.5205808237
 21
7.5277949413
  0
LINE
  5
6CA
100
AcDbEntity
  8
0
100
AcDbLine
 62
7
  6
CONTINUOUS
 10
15.5484195575
 20
7.5438675458
 11
15.5901776581
 21
7.5679764525
  0
LINE
  5
6CB
100
AcDbEntity
  8
0
100
AcDbLine
 62
7
  6
CONTINUOUS
 10
13.7667405976
 20
6.4830748167
 11
13.7806598486
 21
6.491111052
  0
LINE
  5
6CC
100
AcDbEntity
  8
0
100
AcDbLine
 62
7
  6
CONTINUOUS
 10
15.5205808237
 20
7.4956488991
 11
15.5345000747
 21
7.5036851344
  0
LINE
  5
6CD
100
AcDbEntity
  8
0
100
AcDbLine
 62
7
  6
CONTINUOUS
 10
13.7667405976
 20
6.4670022122
 11
13.7945793313
 21
6.4830748167
  0
LINE
  5
6CE
100
AcDbEntity
  8
0
100
AcDbLine
 62
7
  6
CONTINUOUS
 10
15.5205808237
 20
7.4795762946
 11
15.5484195575
 21
7.4956488991
  0
LINE
  5
6CF
100
AcDbEntity
  8
0
100
AcDbLine
 62
7
  6
CONTINUOUS
 10
15.8685649956
 20
7.6628036802
 11
15.759993934
 21
7.6001205227
  0
LINE
  5
6D0
100
AcDbEntity
  8
0
100
AcDbLine
 62
7
  6
CONTINUOUS
 10
15.8685649956
 20
7.6499453744
 11
15.7613858707
 21
7.5880658472
  0
LWPOLYLINE
  5
6D1
100
AcDbEntity
  8
0
100
AcDbPolyline
 62
7
  6
CONTINUOUS
 90
9
 70
0
 10
15.5345001906
 20
7.4458231031
 10
15.5148728205
 20
7.4369247127
 10
15.4956353465
 20
7.4333598536
 10
15.477780913
 20
7.435706054
 10
15.4628417501
 20
7.4441541739
 10
15.4517313987
 20
7.4580865549
 10
15.4449286074
 20
7.4766222616
 10
15.4426323985
 20
7.4988233176
 10
15.443271594
 20
7.5116977507
  0
LWPOLYLINE
  5
6D2
100
AcDbEntity
  8
0
100
AcDbPolyline
 62
7
  6
CONTINUOUS
 90
15
 70
0
 10
13.7806599645
 20
6.645411066
 10
13.8002873346
 20
6.6543094563
 10
13.8195248086
 20
6.6578743154
 10
13.8373792421
 20
6.6555281151
 10
13.852318405
 20
6.6470799952
 10
13.8634287564
 20
6.6331476142
 10
13.8702315477
 20
6.6146119075
 10
13.8725277566
 20
6.5924108515
 10
13.8702447076
 20
6.5675488634
 10
13.8634378909
 20
6.5411134534
 10
13.852304732
 20
6.5142927774
 10
13.8373390851
 20
6.4885703412
 10
13.819537702
 20
6.4656637989
 10
13.8002015588
 20
6.4469626872
 10
13.7806599645
 20
6.4332490206
  0
LINE
  5
6D3
100
AcDbEntity
  8
0
100
AcDbLine
 62
7
  6
CONTINUOUS
 10
14.6844723831
 20
7.784414223
 11
14.925986546
 21
7.7470530083
  0
LWPOLYLINE
  5
6D4
100
AcDbEntity
  8
0
100
AcDbPolyline
 62
7
  6
CONTINUOUS
 90
4
 70
0
 10
14.6844723831
 20
7.784414223
 10
14.6782763595
 20
7.7860822922
 10
14.6734421738
 20
7.7888732475
 10
14.6705529004
 20
7.7924504584
  0
LWPOLYLINE
  5
6D5
100
AcDbEntity
  8
0
100
AcDbPolyline
 62
7
  6
CONTINUOUS
 90
3
 70
0
 10
14.6705529004
 20
7.9432005862
 10
14.6725566859
 20
7.939435097
 10
14.6756478002
 20
7.9367824721
  0
LINE
  5
6D6
100
AcDbEntity
  8
0
100
AcDbLine
 62
7
  6
CONTINUOUS
 10
14.6058384421
 20
7.9318864208
 11
14.6705529004
 21
7.7924504584
  0
LINE
  5
6D7
100
AcDbEntity
  8
0
100
AcDbLine
 62
7
  6
CONTINUOUS
 10
14.6051676712
 20
8.0845975879
 11
14.6058384421
 21
8.0826365487
  0
LWPOLYLINE
  5
6D8
100
AcDbEntity
  8
0
100
AcDbPolyline
 62
7
  6
CONTINUOUS
 90
14
 70
0
 10
14.6705529004
 20
7.9432005862
 10
14.667039418
 20
7.9536115574
 10
14.6634817722
 20
7.963396867
 10
14.6599075132
 20
7.9726389999
 10
14.656292415
 20
7.9815262679
 10
14.6525420666
 20
7.9903766497
 10
14.6485484121
 20
7.9994983905
 10
14.6442034799
 20
8.009172488
 10
14.6393981131
 20
8.019660079
 10
14.634021078
 20
8.0311854245
 10
14.6279616163
 20
8.0438669742
 10
14.6210999015
 20
8.0575910613
 10
14.6135366041
 20
8.0713191163
 10
14.6058384421
 20
8.0826365487
  0
LWPOLYLINE
  5
6D9
100
AcDbEntity
  8
0
100
AcDbPolyline
 62
9
  6
CONTINUOUS
 90
5
 70
0
 10
14.6498314386
 20
8.1385602975
 10
14.6524936924
 20
8.1190166427
 10
14.6642085521
 20
8.093766231
 10
14.6847578783
 20
8.0704782245
 10
14.7132538361
 20
8.0501606391
  0
LINE
  5
6DA
100
AcDbEntity
  8
0
100
AcDbLine
 62
9
  6
CONTINUOUS
 10
14.925986546
 20
7.8978031362
 11
14.925986546
 21
7.7470530083
  0
LINE
  5
6DB
100
AcDbEntity
  8
0
100
AcDbLine
 62
9
  6
CONTINUOUS
 10
14.9450008127
 20
7.9007446604
 11
14.9450008127
 21
7.7499945326
  0
LINE
  5
6DC
100
AcDbEntity
  8
AXIS
100
AcDbLine
 62
7
  6
CONTINUOUS
 10
14.9451070292
 20
8.154632846
 11
14.9451070292
 21
9.8262125976
  0
LINE
  5
6DD
100
AcDbEntity
  8
AXIS
100
AcDbLine
 62
7
  6
CONTINUOUS
 10
15.0829023048
 20
8.0581955526
 11
15.0829023048
 21
8.1385599638
  0
LINE
  5
6DE
100
AcDbEntity
  8
0
100
AcDbLine
 62
9
  6
CONTINUOUS
 10
15.0829022619
 20
8.1384812449
 11
15.0829023048
 21
8.13855963
  0
LWPOLYLINE
  5
6DF
100
AcDbEntity
  8
0
100
AcDbPolyline
 62
7
  6
CONTINUOUS
 90
4
 70
0
 10
15.1275639499
 20
7.8600867918
 10
15.1274911736
 20
7.8591150378
 10
15.1257217737
 20
7.8553025019
 10
15.1218005174
 20
7.8520692803
  0
LWPOLYLINE
  5
6E0
100
AcDbEntity
  8
AXIS
100
AcDbPolyline
 62
7
  6
CONTINUOUS
 90
8
 70
0
 10
13.3029518572
 20
5.3592889831
 10
13.2962899241
 20
5.3531322291
 10
13.2913297575
 20
5.3402596746
 10
13.2913297575
 20
5.3235135143
 10
13.2962899241
 20
5.3049135824
 10
13.305611988
 20
5.286703305
 10
13.3181715707
 20
5.2710791105
 10
13.3324538012
 20
5.2599255072
  0
LINE
  5
6E1
100
AcDbEntity
  8
0
100
AcDbLine
 62
7
  6
CONTINUOUS
 10
12.7506193979
 20
5.6633461802
 11
12.7589712319
 21
5.668168085
  0
LWPOLYLINE
  5
6E2
100
AcDbEntity
  8
0
100
AcDbPolyline
 62
7
  6
CONTINUOUS
 90
9
 70
0
 10
13.7806599645
 20
6.4332490206
 10
13.7610325943
 20
6.4243506303
 10
13.7417951204
 20
6.4207857712
 10
13.7239406869
 20
6.4231319716
 10
13.7090015239
 20
6.4315800914
 10
13.6978911725
 20
6.4455124724
 10
13.6910883812
 20
6.4640481792
 10
13.6887921723
 20
6.4862492352
 10
13.6894313679
 20
6.4991236682
  0
LWPOLYLINE
  5
6E3
100
AcDbEntity
  8
0
100
AcDbPolyline
 62
9
  6
CONTINUOUS
 90
11
 70
0
 10
14.7876267142
 20
8.2582506789
 10
14.7769922719
 20
8.2558938597
 10
14.7424701444
 20
8.2429485808
 10
14.7133658081
 20
8.2261411259
 10
14.6909533136
 20
8.2062077324
 10
14.6762105529
 20
8.1840184137
 10
14.6697833865
 20
8.1605469687
 10
14.6719507051
 20
8.1368158032
 10
14.6826234859
 20
8.1138566989
 10
14.7013296085
 20
8.0926851947
 10
14.727173203
 20
8.0742698236
  0
LWPOLYLINE
  5
6E4
100
AcDbEntity
  8
0
100
AcDbPolyline
 62
7
  6
CONTINUOUS
 90
7
 70
0
 10
14.7876267142
 20
8.2620966044
 10
14.7719992035
 20
8.2588706722
 10
14.7278813406
 20
8.2416694321
 10
14.6917033291
 20
8.2181955266
 10
14.6660592123
 20
8.1899771115
 10
14.6523561387
 20
8.1592390101
 10
14.6498314816
 20
8.1386386826
  0
LWPOLYLINE
  5
6E5
100
AcDbEntity
  8
0
100
AcDbPolyline
 62
7
  6
CONTINUOUS
 90
4
 70
0
 10
14.925986546
 20
7.8978031362
 10
14.9328615781
 20
7.8962882798
 10
14.9393905755
 20
7.8973085795
 10
14.9450008127
 20
7.9007446604
  0
LWPOLYLINE
  5
6E6
100
AcDbEntity
  8
0
100
AcDbPolyline
 62
7
  6
CONTINUOUS
 90
14
 70
0
 10
14.925986546
 20
7.8978031362
 10
14.8972882043
 20
7.9075079384
 10
14.8690289748
 20
7.9144517116
 10
14.8433058044
 20
7.91949429
 10
14.8205984216
 20
7.923380168
 10
14.8004779869
 20
7.9265504649
 10
14.7825237156
 20
7.929191048
 10
14.7663154637
 20
7.9313824089
 10
14.7514390288
 20
7.9331631648
 10
14.7374846879
 20
7.9345491363
 10
14.724042476
 20
7.9355291229
 10
14.7107561585
 20
7.9360445935
 10
14.6975329689
 20
7.9359750217
 10
14.6844723831
 20
7.9351643509
  0
LWPOLYLINE
  5
6E7
100
AcDbEntity
  8
0
100
AcDbPolyline
 62
7
  6
CONTINUOUS
 90
3
 70
0
 10
14.6756478002
 20
7.9367824721
 10
14.6796514734
 20
7.935335466
 10
14.6844723831
 20
7.9351643509
  0
LWPOLYLINE
  5
6E8
100
AcDbEntity
  8
0
100
AcDbPolyline
 62
7
  6
CONTINUOUS
 90
5
 70
0
 10
15.6733863608
 20
7.5915497647
 10
15.683622401
 20
7.5868857134
 10
15.7068473289
 20
7.5834435975
 10
15.7327372494
 20
7.5879301928
 10
15.759993934
 20
7.6001205227
  0
LWPOLYLINE
  5
6E9
100
AcDbEntity
  8
AXIS
100
AcDbPolyline
 62
7
  6
CONTINUOUS
 90
12
 70
0
 10
14.7132538361
 20
7.969796228
 10
14.751163839
 20
7.9523420471
 10
14.7948506029
 20
7.940195803
 10
14.8421234913
 20
7.9339665591
 10
14.8906120439
 20
7.9339666757
 10
14.9378848424
 20
7.9401961468
 10
14.9815714312
 20
7.9523426009
 10
15.0194811823
 20
7.9697969641
 10
15.0497131425
 20
7.9916840015
 10
15.0707513552
 20
8.0169062059
 10
15.0815408764
 20
8.0441988305
 10
15.0828894902
 20
8.0581955504
  0
LWPOLYLINE
  5
6EA
100
AcDbEntity
  8
0
100
AcDbPolyline
 62
9
  6
CONTINUOUS
 90
13
 70
0
 10
14.7132538361
 20
8.0501606391
 10
14.7484476098
 20
8.0337081661
 10
14.7887913434
 20
8.0218431232
 10
14.8325288307
 20
8.0150808523
 10
14.8777301528
 20
8.0137172191
 10
14.9224308488
 20
8.0178079127
 10
14.9646867755
 20
8.0271751562
 10
15.0026443749
 20
8.0414084904
 10
15.0346487896
 20
8.0598870989
 10
15.0592997255
 20
8.0818024932
 10
15.075521906
 20
8.1061991048
 10
15.0826046403
 20
8.1320071649
 10
15.0829022619
 20
8.1384812449
  0
LWPOLYLINE
  5
6EB
100
AcDbEntity
  8
0
100
AcDbPolyline
 62
9
  6
CONTINUOUS
 90
12
 70
0
 10
14.727173203
 20
8.0742698236
 10
14.7590929358
 20
8.0593408493
 10
14.7957742565
 20
8.0485422
 10
14.835546511
 20
8.0423844779
 10
14.87665407
 20
8.0411381685
 10
14.9173089497
 20
8.0448543658
 10
14.9557414715
 20
8.0533718323
 10
14.990263599
 20
8.0663171112
 10
15.0193679353
 20
8.0831245661
 10
15.0417804298
 20
8.1030579596
 10
15.0565231906
 20
8.1252472783
 10
15.0629503569
 20
8.1487187233
  0
LINE
  5
6EC
100
AcDbEntity
  8
0
100
AcDbLine
 62
7
  6
CONTINUOUS
 10
15.5484195575
 20
7.4956488991
 11
15.5345000747
 21
7.5036851344
  0
LINE
  5
6ED
100
AcDbEntity
  8
0
100
AcDbLine
 62
7
  6
CONTINUOUS
 10
15.5205808237
 20
7.5277949413
 11
15.506661341
 21
7.5358311766
  0
LINE
  5
6EE
100
AcDbEntity
  8
0
100
AcDbLine
 62
7
  6
CONTINUOUS
 10
15.5484195575
 20
7.5438675458
 11
15.5345000747
 21
7.5519037811
  0
LINE
  5
6EF
100
AcDbEntity
  8
0
100
AcDbLine
 62
7
  6
CONTINUOUS
 10
15.5484195575
 20
7.5760133102
 11
15.5345000747
 21
7.5840495456
  0
LINE
  5
6F0
100
AcDbEntity
  8
0
100
AcDbLine
 62
7
  6
CONTINUOUS
 10
15.5901776581
 20
7.5679764525
 11
15.5762581753
 21
7.5760126878
  0
LWPOLYLINE
  5
6F1
100
AcDbEntity
  8
AXIS
100
AcDbPolyline
 62
9
  6
CONTINUOUS
 90
5
 70
0
 10
14.7071773549
 20
7.9662879909
 10
14.6775583906
 20
7.987404889
 10
14.6561912629
 20
8.0116156789
 10
14.6440098178
 20
8.0378622328
 10
14.641546443
 20
8.0649974503
  0
LWPOLYLINE
  5
6F2
100
AcDbEntity
  8
AXIS
100
AcDbPolyline
 62
7
  6
CONTINUOUS
 90
9
 70
0
 10
14.7876445436
 20
9.8262125992
 10
14.7885961875
 20
9.8191008997
 10
14.7962090265
 20
9.8055740203
 10
14.8106894042
 20
9.7940673886
 10
14.8306198804
 20
9.785707354
 10
14.8540495211
 20
9.7813122548
 10
14.8786848699
 20
9.781312314
 10
14.9021144473
 20
9.7857075258
 10
14.9220448028
 20
9.7940676563
  0
LWPOLYLINE
  5
6F3
100
AcDbEntity
  8
0
100
AcDbPolyline
 62
9
  6
CONTINUOUS
 90
4
 70
0
 10
15.0629503569
 20
8.1487187233
 10
15.0607830383
 20
8.1724498888
 10
15.0501102575
 20
8.1954089931
 10
15.031404135
 20
8.2165804973
  0
LWPOLYLINE
  5
6F4
100
AcDbEntity
  8
AXIS
100
AcDbPolyline
 62
9
  6
CONTINUOUS
 90
13
 70
0
 10
15.0887239256
 20
8.0785288725
 10
15.0911873004
 20
8.0513936549
 10
15.0838249437
 20
8.024555713
 10
15.0669586257
 20
7.9991879934
 10
15.0413254855
 20
7.9763991874
 10
15.0080458144
 20
7.957185275
 10
14.9685740937
 20
7.9423859964
 10
14.9246354268
 20
7.9326481512
 10
14.8781501446
 20
7.9283973299
 10
14.8311498767
 20
7.9298193137
 10
14.7856887606
 20
7.9368519552
 10
14.743753665
 20
7.9491878941
 10
14.7071773549
 20
7.9662879909
  0
LINE
  5
6F5
100
AcDbEntity
  8
0
100
AcDbLine
 62
7
  6
CONTINUOUS
 10
15.0829022619
 20
8.1384812449
 11
15.0821699688
 21
8.1497257845
  0
LINE
  5
6F6
100
AcDbEntity
  8
0
100
AcDbLine
 62
9
  6
CONTINUOUS
 10
15.1218005174
 20
8.0028194082
 11
15.1218005174
 21
7.8520692803
  0
LINE
  5
6F7
100
AcDbEntity
  8
0
100
AcDbLine
 62
7
  6
CONTINUOUS
 10
15.127566074
 20
8.0099799716
 11
15.127566074
 21
7.8601055157
  0
LWPOLYLINE
  5
6F8
100
AcDbEntity
  8
LAYER_AXIS
100
AcDbPolyline
 62
7
  6
CONTINUOUS
 90
15
 70
0
 10
15.5730402158
 20
7.4959184214
 10
15.570528269
 20
7.4928879719
 10
15.5679494789
 20
7.4899163653
 10
15.565325001
 20
7.4870294265
 10
15.5626584202
 20
7.4842310987
 10
15.5599533786
 20
7.4815252042
 10
15.557213571
 20
7.4789154388
 10
15.5544427397
 20
7.4764053672
 10
15.5516446693
 20
7.4739984178
 10
15.5488231815
 20
7.4716978782
 10
15.5459821303
 20
7.4695068907
 10
15.5431253962
 20
7.467428448
 10
15.540256881
 20
7.4654653888
 10
15.5373805029
 20
7.4636203946
 10
15.5345001906
 20
7.4618959853
  0
LWPOLYLINE
  5
6F9
100
AcDbEntity
  8
LAYER_AXIS
100
AcDbPolyline
 62
7
  6
CONTINUOUS
 90
15
 70
0
 10
13.8191999897
 20
5.2939510542
 10
13.8166880428
 20
5.2909206046
 10
13.8141092527
 20
5.287948998
 10
13.8114847749
 20
5.2850620592
 10
13.808818194
 20
5.2822637315
 10
13.8061131525
 20
5.279557837
 10
13.8033733449
 20
5.2769480716
 10
13.8006025136
 20
5.274438
 10
13.7978044431
 20
5.2720310506
 10
13.7949829554
 20
5.269730511
 10
13.7921419042
 20
5.2675395235
 10
13.78928517
 20
5.2654610807
 10
13.7864166548
 20
5.2634980216
 10
13.7835402767
 20
5.2616530273
 10
13.7806599645
 20
5.2599286181
  0
LWPOLYLINE
  5
6FA
100
AcDbEntity
  8
AXIS
100
AcDbPolyline
 62
7
  6
CONTINUOUS
 90
8
 70
0
 10
13.3619557453
 20
5.2569993246
 10
13.3686176783
 20
5.2631560787
 10
13.3735778449
 20
5.2760286332
 10
13.3735778449
 20
5.2927747935
 10
13.3686176783
 20
5.3113747254
 10
13.3592956144
 20
5.3295850027
 10
13.3467360317
 20
5.3452091973
 10
13.3324538012
 20
5.3563628006
  0
LINE
  5
6FB
100
AcDbEntity
  8
0
100
AcDbLine
 62
7
  6
CONTINUOUS
 10
15.6404792966
 20
7.6105363997
 11
15.6733812303
 21
7.5915408892
  0
LINE
  5
6FC
100
AcDbEntity
  8
0
100
AcDbLine
 62
9
  6
CONTINUOUS
 10
15.7490127816
 20
7.5952092918
 11
15.7613858707
 21
7.5880658472
  0
LINE
  5
6FD
100
AcDbEntity
  8
0
100
AcDbLine
 62
9
  6
CONTINUOUS
 10
15.6291518854
 20
7.6756641276
 11
15.6375035055
 21
7.6708424266
  0
LWPOLYLINE
  5
6FE
100
AcDbEntity
  8
0
100
AcDbPolyline
 62
7
  6
CONTINUOUS
 90
5
 70
0
 10
15.6678890587
 20
7.5788133243
 10
15.6580011779
 20
7.5858672619
 10
15.6422471666
 20
7.6057231348
 10
15.6324672675
 20
7.6323502311
 10
15.6291518854
 20
7.664413357
  0
LINE
  5
6FF
100
AcDbEntity
  8
AXIS
100
AcDbLine
 62
9
  6
CONTINUOUS
 10
15.0829023048
 20
8.0910723337
 11
15.0887239256
 21
8.0785288725
  0
LWPOLYLINE
  5
700
100
AcDbEntity
  8
0
100
AcDbPolyline
 62
7
  6
CONTINUOUS
 90
4
 70
0
 10
15.0821699688
 20
8.1497257845
 10
15.0718741856
 20
8.1812600876
 10
15.0493437018
 20
8.2107044785
 10
15.0154028929
 20
8.2359708269
  0
LINE
  5
701
100
AcDbEntity
  8
0
100
AcDbLine
 62
7
  6
CONTINUOUS
 10
15.1275660723
 20
8.0098657092
 11
15.1268953013
 21
8.0137971678
  0
LWPOLYLINE
  5
702
100
AcDbEntity
  8
AXIS
100
AcDbPolyline
 62
7
  6
CONTINUOUS
 90
9
 70
0
 10
14.9450891999
 20
9.826212596
 10
14.9441375559
 20
9.8333242955
 10
14.9365247169
 20
9.8468511749
 10
14.9220443392
 20
9.8583578066
 10
14.9021138631
 20
9.8667178412
 10
14.8786842223
 20
9.8711129404
 10
14.8540488735
 20
9.8711128812
 10
14.8306192962
 20
9.8667176693
 10
14.8106889406
 20
9.8583575389
  0
LWPOLYLINE
  5
703
100
AcDbEntity
  8
LAYER_AXIS
100
AcDbPolyline
 62
7
  6
CONTINUOUS
 90
44
 70
0
 10
15.4565650458
 20
7.5085717694
 10
15.4565650458
 20
7.5052452656
 10
15.4566714958
 20
7.5019824923
 10
15.4568842505
 20
7.4987879059
 10
15.4572030192
 20
7.4956658698
 10
15.4576273665
 20
7.4926206485
 10
15.4581567129
 20
7.4896564012
 10
15.4587903353
 20
7.4867771769
 10
15.4595273682
 20
7.4839869081
 10
15.460366805
 20
7.4812894061
 10
15.4613074991
 20
7.4786883553
 10
15.4623481656
 20
7.4761873084
 10
15.4634873831
 20
7.4737896816
 10
15.4647235955
 20
7.4714987497
 10
15.4660551144
 20
7.4693176419
 10
15.467480121
 20
7.4672493373
 10
15.468996669
 20
7.465296661
 10
15.4706026869
 20
7.46346228
 10
15.4722959811
 20
7.4617487
 10
15.4740742388
 20
7.4601582614
 10
15.475935031
 20
7.4586931367
 10
15.4778758162
 20
7.4573553269
 10
15.4798939435
 20
7.4561466595
 10
15.4819866564
 20
7.4550687852
 10
15.4841510964
 20
7.4541231763
 10
15.4863843073
 20
7.4533111245
 10
15.4886832386
 20
7.4526337388
 10
15.4910447504
 20
7.4520919446
 10
15.4934656171
 20
7.4516864817
 10
15.4959425321
 20
7.4514179042
 10
15.4984721122
 20
7.4512865787
 10
15.5010509024
 20
7.4512926847
 10
15.5036753802
 20
7.4514362138
 10
15.506341961
 20
7.45171697
 10
15.5090470026
 20
7.4521345698
 10
15.5117868102
 20
7.4526884428
 10
15.5145576415
 20
7.4533778325
 10
15.517355712
 20
7.4542017972
 10
15.5201771997
 20
7.4551592116
 10
15.5230182509
 20
7.4562487679
 10
15.5258749851
 20
7.4574689779
 10
15.5287435002
 20
7.458818175
 10
15.5316198783
 20
7.4602945163
 10
15.5345001906
 20
7.4618959853
  0
LWPOLYLINE
  5
704
100
AcDbEntity
  8
LAYER_AXIS
100
AcDbPolyline
 62
7
  6
CONTINUOUS
 90
44
 70
0
 10
15.4565650458
 20
5.8209191355
 10
15.4565650458
 20
5.8175926318
 10
15.4566714958
 20
5.8143298584
 10
15.4568842505
 20
5.811135272
 10
15.4572030192
 20
5.808013236
 10
15.4576273665
 20
5.8049680146
 10
15.4581567129
 20
5.8020037674
 10
15.4587903353
 20
5.799124543
 10
15.4595273682
 20
5.7963342743
 10
15.460366805
 20
5.7936367723
 10
15.4613074991
 20
5.7910357214
 10
15.4623481656
 20
5.7885346746
 10
15.4634873831
 20
5.7861370478
 10
15.4647235955
 20
5.7838461159
 10
15.4660551144
 20
5.7816650081
 10
15.467480121
 20
5.7795967035
 10
15.468996669
 20
5.7776440272
 10
15.4706026869
 20
5.7758096462
 10
15.4722959811
 20
5.7740960662
 10
15.4740742388
 20
5.7725056276
 10
15.475935031
 20
5.7710405029
 10
15.4778758162
 20
5.7697026931
 10
15.4798939435
 20
5.7684940256
 10
15.4819866564
 20
5.7674161514
 10
15.4841510964
 20
5.7664705425
 10
15.4863843073
 20
5.7656584906
 10
15.4886832386
 20
5.764981105
 10
15.4910447504
 20
5.7644393107
 10
15.4934656171
 20
5.7640338479
 10
15.4959425321
 20
5.7637652703
 10
15.4984721122
 20
5.7636339448
 10
15.5010509024
 20
5.7636400508
 10
15.5036753802
 20
5.7637835799
 10
15.506341961
 20
5.7640643361
 10
15.5090470026
 20
5.7644819359
 10
15.5117868102
 20
5.7650358089
 10
15.5145576415
 20
5.7657251986
 10
15.517355712
 20
5.7665491634
 10
15.5201771997
 20
5.7675065778
 10
15.5230182509
 20
5.7685961341
 10
15.5258749851
 20
5.7698163441
 10
15.5287435002
 20
5.7711655412
 10
15.5316198783
 20
5.7726418825
 10
15.5345001906
 20
5.7742433515
  0
LINE
  5
705
100
AcDbEntity
  8
0
100
AcDbLine
 62
7
  6
CONTINUOUS
 10
15.4788227231
 20
7.535831799
 11
15.4788227231
 21
7.5036860346
  0
LINE
  5
706
100
AcDbEntity
  8
0
100
AcDbLine
 62
7
  6
CONTINUOUS
 10
15.4788227231
 20
5.8481791652
 11
15.4788227231
 21
5.8160334007
  0
LWPOLYLINE
  5
707
100
AcDbEntity
  8
LAYER_AXIS
100
AcDbPolyline
 62
7
  6
CONTINUOUS
 90
3
 70
0
 10
15.4568842505
 20
7.5153977128
 10
15.4566714958
 20
7.5119574599
 10
15.4565650458
 20
7.5085717694
  0
LWPOLYLINE
  5
708
100
AcDbEntity
  8
0
100
AcDbPolyline
 62
7
  6
CONTINUOUS
 90
8
 70
0
 10
15.443271594
 20
7.5116977507
 10
15.4449154474
 20
7.5236853057
 10
15.4517222642
 20
7.5501207157
 10
15.4628554231
 20
7.5769413917
 10
15.47782107
 20
7.6026638278
 10
15.4956224531
 20
7.6255703702
 10
15.5149585963
 20
7.6442714819
 10
15.5237297013
 20
7.6510618386
  0
LWPOLYLINE
  5
709
100
AcDbEntity
  8
LAYER_AXIS
100
AcDbPolyline
 62
7
  6
CONTINUOUS
 90
16
 70
0
 10
15.6022553514
 20
7.5465216738
 10
15.6015202602
 20
7.5446369858
 10
15.6000037122
 20
7.5409331612
 10
15.5983976943
 20
7.5372443216
 10
15.5967044001
 20
7.5335755055
 10
15.5949261425
 20
7.5299317241
 10
15.5930653502
 20
7.5263179544
 10
15.591124565
 20
7.5227391322
 10
15.5891064377
 20
7.519200146
 10
15.5870137248
 20
7.5157058295
 10
15.5848492848
 20
7.5122609555
 10
15.582616074
 20
7.5088702292
 10
15.5803171426
 20
7.5055382822
 10
15.5779556308
 20
7.5022696652
 10
15.5755347641
 20
7.499068843
 10
15.5730402158
 20
7.4959184214
  0
LWPOLYLINE
  5
70A
100
AcDbEntity
  8
AXIS
100
AcDbPolyline
 62
7
  6
CONTINUOUS
 90
9
 70
0
 10
13.3647584134
 20
5.2586196848
 10
13.3690209689
 20
5.2619048521
 10
13.374952319
 20
5.2719222911
 10
13.3769961229
 20
5.2856427084
 10
13.374952319
 20
5.3017230537
 10
13.3690209689
 20
5.3185892709
 10
13.3597826747
 20
5.3345903771
 10
13.3481417448
 20
5.3481600726
 10
13.3352376746
 20
5.357970061
  0
LWPOLYLINE
  5
70B
100
AcDbEntity
  8
AXIS
100
AcDbPolyline
 62
7
  6
CONTINUOUS
 90
4
 70
0
 10
13.0245622016
 20
5.5200136896
 10
13.0272223325
 20
5.5213032642
 10
13.0397819152
 20
5.5224252299
 10
13.0540641456
 20
5.5170875071
  0
LWPOLYLINE
  5
70C
100
AcDbEntity
  8
0
100
AcDbPolyline
 62
7
  6
CONTINUOUS
 90
3
 70
0
 10
15.0154028929
 20
8.2359708269
 10
14.9729692183
 20
8.254999854
 10
14.9451070292
 20
8.2619680179
  0
LWPOLYLINE
  5
70D
100
AcDbEntity
  8
0
100
AcDbPolyline
 62
7
  6
CONTINUOUS
 90
5
 70
0
 10
15.8359442181
 20
7.9052604698
 10
15.826638727
 20
7.9095005165
 10
15.8055251562
 20
7.9126297128
 10
15.7819888647
 20
7.9085509898
 10
15.7572100606
 20
7.8974688717
  0
LWPOLYLINE
  5
70E
100
AcDbEntity
  8
0
100
AcDbPolyline
 62
9
  6
CONTINUOUS
 90
3
 70
0
 10
15.0055605405
 20
8.2349958684
 10
14.9736408076
 20
8.2499248427
 10
14.9451070292
 20
8.2583249292
  0
LINE
  5
70F
100
AcDbEntity
  8
0
100
AcDbLine
 62
7
  6
CONTINUOUS
 10
15.8574292169
 20
7.6563744738
 11
15.8685649956
 21
7.6499453744
  0
LINE
  5
710
100
AcDbEntity
  8
0
100
AcDbLine
 62
7
  6
CONTINUOUS
 10
14.7383049875
 20
8.3378539519
 11
14.7876267142
 21
8.3093786839
  0
LINE
  5
711
100
AcDbEntity
  8
0
100
AcDbLine
 62
7
  6
CONTINUOUS
 10
15.5734739542
 20
7.8556798324
 11
15.6291518854
 21
7.8235348911
  0
LINE
  5
712
100
AcDbEntity
  8
0
100
AcDbLine
 62
7
  6
CONTINUOUS
 10
15.6375035055
 20
7.8283566724
 11
15.5818255744
 21
7.8605016137
  0
LINE
  5
713
100
AcDbEntity
  8
0
100
AcDbLine
 62
7
  6
CONTINUOUS
 10
14.7466566077
 20
8.3426757332
 11
14.7876267142
 21
8.3190221663
  0
LINE
  5
714
100
AcDbEntity
  8
0
100
AcDbLine
 62
9
  6
CONTINUOUS
 10
15.7572100606
 20
7.8974688717
 11
14.9451070292
 21
8.3663261685
  0
LINE
  5
715
100
AcDbEntity
  8
0
100
AcDbLine
 62
9
  6
CONTINUOUS
 10
15.031404135
 20
8.2165804973
 11
15.0055605405
 21
8.2349958684
  0
LWPOLYLINE
  5
716
100
AcDbEntity
  8
AXIS
100
AcDbPolyline
 62
7
  6
CONTINUOUS
 90
10
 70
0
 10
15.7148879379
 20
7.6634343385
 10
15.7053756017
 20
7.6722568925
 10
15.699396234
 20
7.6854735578
 10
15.697356783
 20
7.7021839498
 10
15.699396234
 20
7.7212492828
 10
15.7053756017
 20
7.7413702861
 10
15.7148874022
 20
7.7611757463
 10
15.7272834218
 20
7.7793159542
 10
15.7417188925
 20
7.7945546845
 10
15.7572100606
 20
7.805853443
  0
LWPOLYLINE
  5
717
100
AcDbEntity
  8
0
100
AcDbPolyline
 62
7
  6
CONTINUOUS
 90
9
 70
0
 10
15.0829023048
 20
8.117306101
 10
15.0841853313
 20
8.1147077039
 10
15.0885302635
 20
8.1056583254
 10
15.0933356304
 20
8.0954383043
 10
15.0987126654
 20
8.0837925664
 10
15.1047721272
 20
8.0703622732
 10
15.1116338419
 20
8.0545173945
 10
15.1191971393
 20
8.0356531764
 10
15.1268953013
 20
8.0137971678
  0
LWPOLYLINE
  5
718
100
AcDbEntity
  8
0
100
AcDbPolyline
 62
7
  6
CONTINUOUS
 90
5
 70
0
 10
15.6375035055
 20
7.6708424266
 10
15.6405745963
 20
7.6411418468
 10
15.6496338713
 20
7.616476747
 10
15.6642270607
 20
7.5980839385
 10
15.6733863608
 20
7.5915497647
  0
LINE
  5
719
100
AcDbEntity
  8
0
100
AcDbLine
 62
7
  6
CONTINUOUS
 10
15.5205808237
 20
7.6081593524
 11
15.5205808237
 21
7.5599407057
  0
LINE
  5
71A
100
AcDbEntity
  8
0
100
AcDbLine
 62
7
  6
CONTINUOUS
 10
15.5205808237
 20
7.5277949413
 11
15.5205808237
 21
7.4795762946
  0
LINE
  5
71B
100
AcDbEntity
  8
0
100
AcDbLine
 62
7
  6
CONTINUOUS
 10
15.5205808237
 20
5.9205067186
 11
15.5205808237
 21
5.8722880719
  0
LINE
  5
71C
100
AcDbEntity
  8
0
100
AcDbLine
 62
7
  6
CONTINUOUS
 10
15.5205808237
 20
5.8401423075
 11
15.5205808237
 21
5.7919236608
  0
LINE
  5
71D
100
AcDbEntity
  8
0
100
AcDbLine
 62
7
  6
CONTINUOUS
 10
15.5345000747
 20
5.8160325006
 11
15.5345000747
 21
5.8642511473
  0
LINE
  5
71E
100
AcDbEntity
  8
0
100
AcDbLine
 62
7
  6
CONTINUOUS
 10
15.5345000747
 20
5.8963969117
 11
15.5345000747
 21
5.9285429539
  0
LINE
  5
71F
100
AcDbEntity
  8
0
100
AcDbLine
 62
7
  6
CONTINUOUS
 10
15.5345000747
 20
7.5036851344
 11
15.5345000747
 21
7.5519037811
  0
LINE
  5
720
100
AcDbEntity
  8
0
100
AcDbLine
 62
7
  6
CONTINUOUS
 10
15.5345000747
 20
7.5840495456
 11
15.5345000747
 21
7.6161955877
  0
LINE
  5
721
100
AcDbEntity
  8
0
100
AcDbLine
 62
7
  6
CONTINUOUS
 10
15.5484195575
 20
5.8079962653
 11
15.5484195575
 21
5.8562149119
  0
LINE
  5
722
100
AcDbEntity
  8
0
100
AcDbLine
 62
7
  6
CONTINUOUS
 10
15.5484195575
 20
5.8883606764
 11
15.5484195575
 21
5.9365793231
  0
LINE
  5
723
100
AcDbEntity
  8
0
100
AcDbLine
 62
7
  6
CONTINUOUS
 10
15.5484195575
 20
7.4956488991
 11
15.5484195575
 21
7.5438675458
  0
LINE
  5
724
100
AcDbEntity
  8
0
100
AcDbLine
 62
7
  6
CONTINUOUS
 10
15.5484195575
 20
7.5760133102
 11
15.5484195575
 21
7.6242319569
  0
LINE
  5
725
100
AcDbEntity
  8
0
100
AcDbLine
 62
7
  6
CONTINUOUS
 10
15.5762581753
 20
5.888360054
 11
15.5762581753
 21
5.904433214
  0
LINE
  5
726
100
AcDbEntity
  8
0
100
AcDbLine
 62
7
  6
CONTINUOUS
 10
15.5762581753
 20
7.5760126878
 11
15.5762581753
 21
7.5920858478
  0
LINE
  5
727
100
AcDbEntity
  8
0
100
AcDbLine
 62
7
  6
CONTINUOUS
 10
15.5818255744
 20
7.8508581313
 11
15.5818255744
 21
7.8605016137
  0
LINE
  5
728
100
AcDbEntity
  8
0
100
AcDbLine
 62
7
  6
CONTINUOUS
 10
15.5901776581
 20
5.8803238187
 11
15.5901776581
 21
5.9124695831
  0
LINE
  5
729
100
AcDbEntity
  8
0
100
AcDbLine
 62
7
  6
CONTINUOUS
 10
15.5901776581
 20
7.5679764525
 11
15.5901776581
 21
7.600122217
  0
LINE
  5
72A
100
AcDbEntity
  8
0
100
AcDbLine
 62
7
  6
CONTINUOUS
 10
15.6291518854
 20
5.7340602016
 11
15.6291518854
 21
5.8931817356
  0
LINE
  5
72B
100
AcDbEntity
  8
0
100
AcDbLine
 62
7
  6
CONTINUOUS
 10
15.6291518854
 20
7.664413357
 11
15.6291518854
 21
7.8235348911
  0
LINE
  5
72C
100
AcDbEntity
  8
0
100
AcDbLine
 62
7
  6
CONTINUOUS
 10
15.6375035055
 20
7.8283566724
 11
15.6375035055
 21
7.6708424266
  0
LINE
  5
72D
100
AcDbEntity
  8
0
100
AcDbLine
 62
7
  6
CONTINUOUS
 10
15.6402873789
 20
5.7404892434
 11
15.6402873789
 21
5.8980034892
  0
LWPOLYLINE
  5
72E
100
AcDbEntity
  8
LAYER_AXIS
100
AcDbPolyline
 62
7
  6
CONTINUOUS
 90
3
 70
0
 10
15.4568842505
 20
5.8277450789
 10
15.4566714958
 20
5.8243048261
 10
15.4565650458
 20
5.8209191355
  0
LWPOLYLINE
  5
72F
100
AcDbEntity
  8
0
100
AcDbPolyline
 62
7
  6
CONTINUOUS
 90
8
 70
0
 10
15.443271594
 20
5.8240451168
 10
15.4449154474
 20
5.8360326718
 10
15.4517222642
 20
5.8624680819
 10
15.4628554231
 20
5.8892887579
 10
15.47782107
 20
5.915011194
 10
15.4956224531
 20
5.9379177363
 10
15.5149585963
 20
5.9566188481
 10
15.5237297013
 20
5.9634092048
  0
LWPOLYLINE
  5
730
100
AcDbEntity
  8
LAYER_AXIS
100
AcDbPolyline
 62
7
  6
CONTINUOUS
 90
39
 70
0
 10
13.7749032741
 20
5.4363754955
 10
13.7720347589
 20
5.4344124363
 10
13.7691780247
 20
5.4323339935
 10
13.7663369735
 20
5.4301430061
 10
13.7635154858
 20
5.4278424665
 10
13.7607174153
 20
5.4254355171
 10
13.757946584
 20
5.4229254455
 10
13.7552067765
 20
5.4203156801
 10
13.7525017349
 20
5.4176097855
 10
13.7498351541
 20
5.4148114578
 10
13.7472106762
 20
5.411924519
 10
13.7446318861
 20
5.4089529124
 10
13.742102306
 20
5.4059006969
 10
13.739625391
 20
5.4027720413
 10
13.7372045243
 20
5.3995712191
 10
13.7348430125
 20
5.3963026021
 10
13.7325440811
 20
5.392970655
 10
13.7303108703
 20
5.3895799288
 10
13.7281464302
 20
5.3861350548
 10
13.7260537174
 20
5.3826407383
 10
13.7240355901
 20
5.379101752
 10
13.7220948049
 20
5.3755229299
 10
13.7202340126
 20
5.3719091602
 10
13.7184557549
 20
5.3682653788
 10
13.7167624607
 20
5.3645965627
 10
13.7151564428
 20
5.3609077231
 10
13.7136398949
 20
5.3572038984
 10
13.7122148882
 20
5.3534901478
 10
13.7108833694
 20
5.3497715436
 10
13.7096471569
 20
5.3460531651
 10
13.7085079395
 20
5.3423400911
 10
13.707467273
 20
5.3386373932
 10
13.7065265789
 20
5.3349501289
 10
13.7056871421
 20
5.3312833346
 10
13.7049501091
 20
5.3276420186
 10
13.7043164868
 20
5.3240311545
 10
13.7037871404
 20
5.3204556743
 10
13.703362793
 20
5.3169204618
 10
13.7030440243
 20
5.3134303455
  0
LINE
  5
731
100
AcDbEntity
  8
0
100
AcDbLine
 62
7
  6
CONTINUOUS
 10
13.7698894752
 20
5.4490944714
 11
13.7806599645
 21
5.4560177812
  0
LINE
  5
732
100
AcDbEntity
  8
LAYER_AXIS
100
AcDbLine
 62
7
  6
CONTINUOUS
 10
13.7777796522
 20
5.4382204897
 11
13.7749032741
 21
5.4363754955
  0
LINE
  5
733
100
AcDbEntity
  8
LAYER_AXIS
100
AcDbLine
 62
7
  6
CONTINUOUS
 10
13.7806599645
 20
5.439944899
 11
13.7777796522
 21
5.4382204897
  0
LINE
  5
734
100
AcDbEntity
  8
AXIS
100
AcDbLine
 62
7
  6
CONTINUOUS
 10
13.0835660897
 20
5.4177240311
 11
13.0809059588
 21
5.4164344566
  0
LINE
  5
735
100
AcDbEntity
  8
AXIS
100
AcDbLine
 62
7
  6
CONTINUOUS
 10
13.0273272802
 20
5.5216078504
 11
13.0323030189
 21
5.5236565673
  0
LINE
  5
736
100
AcDbEntity
  8
0
100
AcDbLine
 62
7
  6
CONTINUOUS
 10
15.8359488821
 20
7.9052685385
 11
14.9451019843
 21
8.4195875994
  0
LWPOLYLINE
  5
737
100
AcDbEntity
  8
AXIS
100
AcDbPolyline
 62
7
  6
CONTINUOUS
 90
10
 70
0
 10
15.7995321833
 20
7.8100457604
 10
15.8090445195
 20
7.8012232063
 10
15.8150238872
 20
7.788006541
 10
15.8170633382
 20
7.7712961491
 10
15.8150238872
 20
7.752230816
 10
15.8090445195
 20
7.7321098128
 10
15.799532719
 20
7.7123043525
 10
15.7871366994
 20
7.6941641447
 10
15.7727012288
 20
7.6789254143
 10
15.7572100606
 20
7.6676266558
  0
LINE
  5
738
100
AcDbEntity
  8
0
100
AcDbLine
 62
7
  6
CONTINUOUS
 10
15.8685649956
 20
6.4412646309
 11
15.8546456287
 21
6.4975198576
  0
LINE
  5
739
100
AcDbEntity
  8
0
100
AcDbLine
 62
7
  6
CONTINUOUS
 10
15.8546456287
 20
6.4975198576
 11
15.8546456287
 21
7.3333097334
  0
LINE
  5
73A
100
AcDbEntity
  8
0
100
AcDbLine
 62
7
  6
CONTINUOUS
 10
15.8685649956
 20
6.0008676579
 11
15.8685649956
 21
6.1712402095
  0
LINE
  5
73B
100
AcDbEntity
  8
0
100
AcDbLine
 62
7
  6
CONTINUOUS
 10
15.8685649956
 20
6.1840985153
 11
15.8685649956
 21
6.4412646309
  0
LINE
  5
73C
100
AcDbEntity
  8
0
100
AcDbLine
 62
7
  6
CONTINUOUS
 10
15.8685649956
 20
7.4056375646
 11
15.8685649956
 21
7.6499453744
  0
LINE
  5
73D
100
AcDbEntity
  8
0
100
AcDbLine
 62
7
  6
CONTINUOUS
 10
15.8685649956
 20
7.6628036802
 11
15.8685649956
 21
7.8331762318
  0
LWPOLYLINE
  5
73E
100
AcDbEntity
  8
0
100
AcDbPolyline
 62
7
  6
CONTINUOUS
 90
8
 70
0
 10
15.6291518854
 20
5.8931817356
 10
15.6324672675
 20
5.9290731122
 10
15.6422471666
 20
5.9669929959
 10
15.6580011779
 20
6.0050399255
 10
15.6789393294
 20
6.0413060689
 10
15.7040116947
 20
6.0739728905
 10
15.7319610408
 20
6.1014023392
 10
15.7613858707
 20
6.1222189881
  0
LINE
  5
73F
100
AcDbEntity
  8
0
100
AcDbLine
 62
7
  6
CONTINUOUS
 10
15.8546456287
 20
7.3333097334
 11
15.8685649956
 21
7.4056375646
  0
LINE
  5
740
100
AcDbEntity
  8
0
100
AcDbLine
 62
7
  6
CONTINUOUS
 10
13.7945793313
 20
5.4222645897
 11
13.7667405976
 21
5.4061919852
  0
LINE
  5
741
100
AcDbEntity
  8
0
100
AcDbLine
 62
7
  6
CONTINUOUS
 10
13.836337432
 20
5.3981548497
 11
13.7945793313
 21
5.374045943
  0
LINE
  5
742
100
AcDbEntity
  8
0
100
AcDbLine
 62
7
  6
CONTINUOUS
 10
13.7667405976
 20
5.3579733385
 11
13.724982497
 21
5.3338644318
  0
LINE
  5
743
100
AcDbEntity
  8
0
100
AcDbLine
 62
7
  6
CONTINUOUS
 10
13.724982497
 20
5.3177912718
 11
13.7528211148
 21
5.3338638094
  0
LINE
  5
744
100
AcDbEntity
  8
0
100
AcDbLine
 62
7
  6
CONTINUOUS
 10
13.7806598486
 20
5.3499364139
 11
13.8224179492
 21
5.3740453206
  0
LINE
  5
745
100
AcDbEntity
  8
0
100
AcDbLine
 62
7
  6
CONTINUOUS
 10
13.724982497
 20
5.3017186673
 11
13.7667405976
 21
5.3258275741
  0
LINE
  5
746
100
AcDbEntity
  8
0
100
AcDbLine
 62
7
  6
CONTINUOUS
 10
13.7945793313
 20
5.3419001785
 11
13.836337432
 21
5.3660090853
  0
LINE
  5
747
100
AcDbEntity
  8
0
100
AcDbLine
 62
7
  6
CONTINUOUS
 10
13.7667405976
 20
5.2936815319
 11
13.7806598486
 21
5.3017177672
  0
LINE
  5
748
100
AcDbEntity
  8
0
100
AcDbLine
 62
7
  6
CONTINUOUS
 10
13.5857883646
 20
5.1811720607
 11
13.5941401986
 21
5.1859939655
  0
LINE
  5
749
100
AcDbEntity
  8
0
100
AcDbLine
 62
7
  6
CONTINUOUS
 10
13.7667405976
 20
5.2776089274
 11
13.7945793313
 21
5.2936815319
  0
LINE
  5
74A
100
AcDbEntity
  8
0
100
AcDbLine
 62
7
  6
CONTINUOUS
 10
13.6414662957
 20
5.1586708487
 11
13.7569970408
 21
5.2253721573
  0
LWPOLYLINE
  5
74B
100
AcDbEntity
  8
LAYER_AXIS
100
AcDbPolyline
 62
7
  6
CONTINUOUS
 90
58
 70
0
 10
13.7806599645
 20
5.439944899
 10
13.7835402767
 20
5.441546368
 10
13.7864166548
 20
5.4430227093
 10
13.78928517
 20
5.4443719063
 10
13.7921419042
 20
5.4455921164
 10
13.7949829554
 20
5.4466816727
 10
13.7978044431
 20
5.4476390871
 10
13.8006025136
 20
5.4484630518
 10
13.8033733449
 20
5.4491524415
 10
13.8061131525
 20
5.4497063145
 10
13.808818194
 20
5.4501239143
 10
13.8114847749
 20
5.4504046705
 10
13.8141092527
 20
5.4505481996
 10
13.8166880428
 20
5.4505543056
 10
13.819217623
 20
5.4504229801
 10
13.821694538
 20
5.4501544025
 10
13.8241154047
 20
5.4497489397
 10
13.8264769164
 20
5.4492071455
 10
13.8287758478
 20
5.4485297598
 10
13.8310090586
 20
5.447717708
 10
13.8331734987
 20
5.4467720991
 10
13.8352662115
 20
5.4456942248
 10
13.8372843388
 20
5.4444855573
 10
13.8392251241
 20
5.4431477476
 10
13.8410859163
 20
5.4416826228
 10
13.842864174
 20
5.4400921843
 10
13.8445574682
 20
5.4383786042
 10
13.8461634861
 20
5.4365442233
 10
13.8476800341
 20
5.4345915469
 10
13.8491050407
 20
5.4325232423
 10
13.8504365595
 20
5.4303421345
 10
13.851672772
 20
5.4280512027
 10
13.8528119895
 20
5.4256535759
 10
13.853852656
 20
5.423152529
 10
13.85479335
 20
5.4205514782
 10
13.8556327868
 20
5.4178539762
 10
13.8563698198
 20
5.4150637074
 10
13.8570034422
 20
5.4121844831
 10
13.8575327885
 20
5.4092202358
 10
13.8579571359
 20
5.4061750145
 10
13.8582759046
 20
5.4030529784
 10
13.8584886593
 20
5.399858392
 10
13.8585951093
 20
5.3965956187
 10
13.8585951093
 20
5.3932691149
 10
13.8584886593
 20
5.3898834244
 10
13.8582759046
 20
5.3864431715
 10
13.8579571359
 20
5.3829530553
 10
13.8575327885
 20
5.3794178427
 10
13.8570034422
 20
5.3758423626
 10
13.8563698198
 20
5.3722314985
 10
13.8556327868
 20
5.3685901825
 10
13.85479335
 20
5.3649233881
 10
13.853852656
 20
5.3612361238
 10
13.8528119895
 20
5.357533426
 10
13.851672772
 20
5.353820352
 10
13.8504365595
 20
5.3501019735
 10
13.8491050407
 20
5.3463833693
 10
13.8484151253
 20
5.3445543066
  0
LINE
  5
74C
100
AcDbEntity
  8
AXIS
100
AcDbLine
 62
7
  6
CONTINUOUS
 10
13.3592956144
 20
5.2557097501
 11
13.3619557453
 21
5.2569993246
  0
LWPOLYLINE
  5
74D
100
AcDbEntity
  8
0
100
AcDbPolyline
 62
7
  6
CONTINUOUS
 90
15
 70
0
 10
13.7806599645
 20
5.4560177812
 10
13.8002873346
 20
5.4649161715
 10
13.8195248086
 20
5.4684810306
 10
13.8373792421
 20
5.4661348303
 10
13.852318405
 20
5.4576867104
 10
13.8634287564
 20
5.4437543294
 10
13.8702315477
 20
5.4252186227
 10
13.8725277566
 20
5.4030175667
 10
13.8702447076
 20
5.3781555786
 10
13.8634378909
 20
5.3517201686
 10
13.852304732
 20
5.3248994926
 10
13.8373390851
 20
5.2991770564
 10
13.819537702
 20
5.2762705141
 10
13.8002015588
 20
5.2575694024
 10
13.7806599645
 20
5.2438557358
  0
LINE
  5
74E
100
AcDbEntity
  8
AXIS
100
AcDbLine
 62
7
  6
CONTINUOUS
 10
13.3106926745
 20
5.3629318608
 11
13.3057169358
 21
5.3608831439
  0
LWPOLYLINE
  5
74F
100
AcDbEntity
  8
0
100
AcDbPolyline
 62
7
  6
CONTINUOUS
 90
5
 70
0
 10
15.8685649956
 20
7.8331762318
 10
15.8657730949
 20
7.8601767589
 10
15.8575373903
 20
7.8825995768
 10
15.8442708545
 20
7.8993203119
 10
15.8359442181
 20
7.9052604698
  0
LWPOLYLINE
  5
750
100
AcDbEntity
  8
LAYER_AXIS
100
AcDbPolyline
 62
7
  6
CONTINUOUS
 90
16
 70
0
 10
15.6022553514
 20
5.85886904
 10
15.6015202602
 20
5.856984352
 10
15.6000037122
 20
5.8532805274
 10
15.5983976943
 20
5.8495916878
 10
15.5967044001
 20
5.8459228717
 10
15.5949261425
 20
5.8422790903
 10
15.5930653502
 20
5.8386653205
 10
15.591124565
 20
5.8350864984
 10
15.5891064377
 20
5.8315475122
 10
15.5870137248
 20
5.8280531956
 10
15.5848492848
 20
5.8246083216
 10
15.582616074
 20
5.8212175954
 10
15.5803171426
 20
5.8178856483
 10
15.5779556308
 20
5.8146170314
 10
15.5755347641
 20
5.8114162092
 10
15.5730402158
 20
5.8082657876
  0
LINE
  5
751
100
AcDbEntity
  8
0
100
AcDbLine
 62
7
  6
CONTINUOUS
 10
13.6414662957
 20
5.1490271194
 11
13.7500373573
 21
5.2117102769
  0
LWPOLYLINE
  5
752
100
AcDbEntity
  8
0
100
AcDbPolyline
 62
7
  6
CONTINUOUS
 90
9
 70
0
 10
13.7806599645
 20
5.2438557358
 10
13.7610325943
 20
5.2349573455
 10
13.7417951204
 20
5.2313924864
 10
13.7239406869
 20
5.2337386868
 10
13.7090015239
 20
5.2421868066
 10
13.6978911725
 20
5.2561191876
 10
13.6910883812
 20
5.2746548944
 10
13.6887921723
 20
5.2968559504
 10
13.6894313679
 20
5.3097303834
  0
LWPOLYLINE
  5
753
100
AcDbEntity
  8
0
100
AcDbPolyline
 62
7
  6
CONTINUOUS
 90
5
 70
0
 10
13.7569970408
 20
5.2253721573
 10
13.7851829305
 20
5.2379780667
 10
13.811955462
 20
5.2426176141
 10
13.8359721488
 20
5.2390581533
 10
13.8465571449
 20
5.2342351003
  0
LINE
  5
754
100
AcDbEntity
  8
0
100
AcDbLine
 62
7
  6
CONTINUOUS
 10
13.7772940419
 20
5.2239006068
 11
13.7500373573
 21
5.2117102769
  0
LWPOLYLINE
  5
755
100
AcDbEntity
  8
LAYER_AXIS
100
AcDbPolyline
 62
7
  6
CONTINUOUS
 90
15
 70
0
 10
15.5730402158
 20
5.8082657876
 10
15.570528269
 20
5.805235338
 10
15.5679494789
 20
5.8022637314
 10
15.565325001
 20
5.7993767926
 10
15.5626584202
 20
5.7965784649
 10
15.5599533786
 20
5.7938725704
 10
15.557213571
 20
5.791262805
 10
15.5544427397
 20
5.7887527334
 10
15.5516446693
 20
5.786345784
 10
15.5488231815
 20
5.7840452444
 10
15.5459821303
 20
5.7818542569
 10
15.5431253962
 20
5.7797758141
 10
15.540256881
 20
5.777812755
 10
15.5373805029
 20
5.7759677607
 10
15.5345001906
 20
5.7742433515
  0
LWPOLYLINE
  5
756
100
AcDbEntity
  8
0
100
AcDbPolyline
 62
7
  6
CONTINUOUS
 90
8
 70
0
 10
15.7627778074
 20
6.1101643125
 10
15.7355211228
 20
6.090881522
 10
15.7096312022
 20
6.0654731905
 10
15.6864062744
 20
6.035213398
 10
15.6670109341
 20
6.0016194966
 10
15.6524177447
 20
5.966376025
 10
15.6433584696
 20
5.931250238
 10
15.6402873789
 20
5.8980034892
  0
LWPOLYLINE
  5
757
100
AcDbEntity
  8
LAYER_AXIS
100
AcDbPolyline
 62
7
  6
CONTINUOUS
 90
39
 70
0
 10
15.5287435002
 20
5.9506902289
 10
15.5258749851
 20
5.9487271697
 10
15.5230182509
 20
5.9466487269
 10
15.5201771997
 20
5.9444577395
 10
15.517355712
 20
5.9421571999
 10
15.5145576415
 20
5.9397502505
 10
15.5117868102
 20
5.9372401789
 10
15.5090470026
 20
5.9346304135
 10
15.506341961
 20
5.9319245189
 10
15.5036753802
 20
5.9291261912
 10
15.5010509024
 20
5.9262392524
 10
15.4984721122
 20
5.9232676458
 10
15.4959425321
 20
5.9202154303
 10
15.4934656171
 20
5.9170867747
 10
15.4910447504
 20
5.9138859525
 10
15.4886832386
 20
5.9106173355
 10
15.4863843073
 20
5.9072853884
 10
15.4841510964
 20
5.9038946622
 10
15.4819866564
 20
5.9004497882
 10
15.4798939435
 20
5.8969554717
 10
15.4778758162
 20
5.8934164854
 10
15.475935031
 20
5.8898376633
 10
15.4740742388
 20
5.8862238936
 10
15.4722959811
 20
5.8825801122
 10
15.4706026869
 20
5.8789112961
 10
15.468996669
 20
5.8752224565
 10
15.467480121
 20
5.8715186318
 10
15.4660551144
 20
5.8678048812
 10
15.4647235955
 20
5.864086277
 10
15.4634873831
 20
5.8603678985
 10
15.4623481656
 20
5.8566548245
 10
15.4613074991
 20
5.8529521266
 10
15.460366805
 20
5.8492648623
 10
15.4595273682
 20
5.845598068
 10
15.4587903353
 20
5.841956752
 10
15.4581567129
 20
5.8383458879
 10
15.4576273665
 20
5.8347704077
 10
15.4572030192
 20
5.8312351952
 10
15.4568842505
 20
5.8277450789
  0
LINE
  5
758
100
AcDbEntity
  8
0
100
AcDbLine
 62
7
  6
CONTINUOUS
 10
15.5237297013
 20
5.9634092048
 11
15.5345001906
 21
5.9703325146
  0
LINE
  5
759
100
AcDbEntity
  8
LAYER_AXIS
100
AcDbLine
 62
7
  6
CONTINUOUS
 10
15.5316198783
 20
5.9525352231
 11
15.5287435002
 21
5.9506902289
  0
LINE
  5
75A
100
AcDbEntity
  8
LAYER_AXIS
100
AcDbLine
 62
7
  6
CONTINUOUS
 10
15.5345001906
 20
5.9542596324
 11
15.5316198783
 21
5.9525352231
  0
LINE
  5
75B
100
AcDbEntity
  8
0
100
AcDbLine
 62
7
  6
CONTINUOUS
 10
15.7613858707
 20
6.1222189881
 11
15.8685649956
 21
6.1840985153
  0
LINE
  5
75C
100
AcDbEntity
  8
0
100
AcDbLine
 62
7
  6
CONTINUOUS
 10
15.8685649956
 20
6.1712402095
 11
15.7627778074
 21
6.1101643125
  0
LINE
  5
75D
100
AcDbEntity
  8
0
100
AcDbLine
 62
7
  6
CONTINUOUS
 10
13.7528212307
 20
4.907932775
 11
13.8725277858
 21
4.9770449743
  0
LINE
  5
75E
100
AcDbEntity
  8
0
100
AcDbLine
 62
7
  6
CONTINUOUS
 10
15.5484195575
 20
5.9365793231
 11
15.5205808237
 21
5.9205067186
  0
LINE
  5
75F
100
AcDbEntity
  8
0
100
AcDbLine
 62
7
  6
CONTINUOUS
 10
15.5901776581
 20
5.9124695831
 11
15.5484195575
 21
5.8883606764
  0
LINE
  5
760
100
AcDbEntity
  8
0
100
AcDbLine
 62
7
  6
CONTINUOUS
 10
15.5205808237
 20
5.8722880719
 11
15.4788227231
 21
5.8481791652
  0
LINE
  5
761
100
AcDbEntity
  8
0
100
AcDbLine
 62
7
  6
CONTINUOUS
 10
15.4788227231
 20
5.8321060052
 11
15.506661341
 21
5.8481785428
  0
LINE
  5
762
100
AcDbEntity
  8
0
100
AcDbLine
 62
7
  6
CONTINUOUS
 10
15.5345000747
 20
5.8642511473
 11
15.5762581753
 21
5.888360054
  0
LINE
  5
763
100
AcDbEntity
  8
0
100
AcDbLine
 62
7
  6
CONTINUOUS
 10
15.4788227231
 20
5.8160334007
 11
15.5205808237
 21
5.8401423075
  0
LINE
  5
764
100
AcDbEntity
  8
0
100
AcDbLine
 62
7
  6
CONTINUOUS
 10
15.5484195575
 20
5.8562149119
 11
15.5901776581
 21
5.8803238187
  0
LINE
  5
765
100
AcDbEntity
  8
0
100
AcDbLine
 62
7
  6
CONTINUOUS
 10
15.5205808237
 20
5.8079962653
 11
15.5345000747
 21
5.8160325006
  0
LINE
  5
766
100
AcDbEntity
  8
0
100
AcDbLine
 62
7
  6
CONTINUOUS
 10
15.5205808237
 20
5.7919236608
 11
15.5484195575
 21
5.8079962653
  0
LWPOLYLINE
  5
767
100
AcDbEntity
  8
LAYER_AXIS
100
AcDbPolyline
 62
7
  6
CONTINUOUS
 90
58
 70
0
 10
15.5345001906
 20
5.9542596324
 10
15.5373805029
 20
5.9558611014
 10
15.540256881
 20
5.9573374427
 10
15.5431253962
 20
5.9586866397
 10
15.5459821303
 20
5.9599068498
 10
15.5488231815
 20
5.9609964061
 10
15.5516446693
 20
5.9619538205
 10
15.5544427397
 20
5.9627777852
 10
15.557213571
 20
5.9634671749
 10
15.5599533786
 20
5.9640210479
 10
15.5626584202
 20
5.9644386477
 10
15.565325001
 20
5.9647194039
 10
15.5679494789
 20
5.964862933
 10
15.570528269
 20
5.964869039
 10
15.5730578491
 20
5.9647377135
 10
15.5755347641
 20
5.9644691359
 10
15.5779556308
 20
5.9640636731
 10
15.5803171426
 20
5.9635218789
 10
15.582616074
 20
5.9628444932
 10
15.5848492848
 20
5.9620324414
 10
15.5870137248
 20
5.9610868325
 10
15.5891064377
 20
5.9600089582
 10
15.591124565
 20
5.9588002907
 10
15.5930653502
 20
5.957462481
 10
15.5949261425
 20
5.9559973562
 10
15.5967044001
 20
5.9544069177
 10
15.5983976943
 20
5.9526933376
 10
15.6000037122
 20
5.9508589567
 10
15.6015202602
 20
5.9489062803
 10
15.6029452668
 20
5.9468379757
 10
15.6042767857
 20
5.9446568679
 10
15.6055129981
 20
5.9423659361
 10
15.6066522156
 20
5.9399683093
 10
15.6076928821
 20
5.9374672624
 10
15.6086335762
 20
5.9348662116
 10
15.609473013
 20
5.9321687096
 10
15.6102100459
 20
5.9293784408
 10
15.6108436683
 20
5.9264992165
 10
15.6113730147
 20
5.9235349692
 10
15.611797362
 20
5.9204897479
 10
15.6121161307
 20
5.9173677118
 10
15.6123288854
 20
5.9141731254
 10
15.6124353355
 20
5.9109103521
 10
15.6124353355
 20
5.9075838483
 10
15.6123288854
 20
5.9041981578
 10
15.6121161307
 20
5.9007579049
 10
15.611797362
 20
5.8972677887
 10
15.6113730147
 20
5.8937325761
 10
15.6108436683
 20
5.890157096
 10
15.6102100459
 20
5.8865462319
 10
15.609473013
 20
5.8829049159
 10
15.6086335762
 20
5.8792381215
 10
15.6076928821
 20
5.8755508572
 10
15.6066522156
 20
5.8718481594
 10
15.6055129981
 20
5.8681350854
 10
15.6042767857
 20
5.8644167069
 10
15.6029452668
 20
5.8606981027
 10
15.6022553514
 20
5.85886904
  0
LWPOLYLINE
  5
768
100
AcDbEntity
  8
0
100
AcDbPolyline
 62
7
  6
CONTINUOUS
 90
14
 70
0
 10
15.5345001906
 20
5.9703325146
 10
15.5541275607
 20
5.9792309049
 10
15.5733650347
 20
5.982795764
 10
15.5912194682
 20
5.9804495637
 10
15.6061586312
 20
5.9720014438
 10
15.6172689826
 20
5.9580690628
 10
15.6240717738
 20
5.9395333561
 10
15.6263679828
 20
5.9173323001
 10
15.6240849338
 20
5.892470312
 10
15.617278117
 20
5.866034902
 10
15.6061449581
 20
5.839214226
 10
15.5911793113
 20
5.8134917898
 10
15.5733779281
 20
5.7905852475
 10
15.554041785
 20
5.7718841358
  0
LWPOLYLINE
  5
769
100
AcDbEntity
  8
AXIS
100
AcDbPolyline
 62
7
  6
CONTINUOUS
 90
4
 70
0
 10
15.7572100606
 20
6.037836398
 10
15.7727012288
 20
6.044425193
 10
15.7871366994
 20
6.0458550088
 10
15.7995321833
 20
6.0420287154
  0
LWPOLYLINE
  5
76A
100
AcDbEntity
  8
AXIS
100
AcDbPolyline
 62
7
  6
CONTINUOUS
 90
4
 70
0
 10
13.7528212307
 20
5.1377749909
 10
13.7683123989
 20
5.1443637858
 10
13.7827478695
 20
5.1457936017
 10
13.7951433534
 20
5.1419673082
  0
LWPOLYLINE
  5
76B
100
AcDbEntity
  8
AXIS
100
AcDbPolyline
 62
7
  6
CONTINUOUS
 90
4
 70
0
 10
15.7572100606
 20
5.8996096109
 10
15.7417188925
 20
5.8930208159
 10
15.7272834218
 20
5.8915910001
 10
15.7148879379
 20
5.8954172935
  0
LWPOLYLINE
  5
76C
100
AcDbEntity
  8
AXIS
100
AcDbPolyline
 62
7
  6
CONTINUOUS
 90
4
 70
0
 10
13.7528212307
 20
4.9995482037
 10
13.7373300626
 20
4.9929594088
 10
13.7228945919
 20
4.9915295929
 10
13.710499108
 20
4.9953558863
  0
LWPOLYLINE
  5
76D
100
AcDbEntity
  8
0
100
AcDbPolyline
 62
7
  6
CONTINUOUS
 90
8
 70
0
 10
15.7572100606
 20
5.8079941822
 10
15.7819888647
 20
5.8255239917
 10
15.8055251562
 20
5.8486224749
 10
15.826638727
 20
5.8761313772
 10
15.8442708545
 20
5.9066712875
 10
15.8575373903
 20
5.9387108071
 10
15.8657730949
 20
5.9706433408
 10
15.8685649956
 20
6.0008676579
  0
LINE
  5
76E
100
AcDbEntity
  8
0
100
AcDbLine
 62
7
  6
CONTINUOUS
 10
15.554041785
 20
5.7718841358
 11
15.5345001906
 21
5.7581704692
  0
LINE
  5
76F
100
AcDbEntity
  8
0
100
AcDbLine
 62
7
  6
CONTINUOUS
 10
15.6402873789
 20
5.7404892434
 11
15.7572100606
 21
5.8079941822
  0
LWPOLYLINE
  5
770
100
AcDbEntity
  8
0
100
AcDbPolyline
 62
7
  6
CONTINUOUS
 90
9
 70
0
 10
15.5345001906
 20
5.7581704692
 10
15.5148728205
 20
5.7492720789
 10
15.4956353465
 20
5.7457072198
 10
15.477780913
 20
5.7480534202
 10
15.4628417501
 20
5.75650154
 10
15.4517313987
 20
5.770433921
 10
15.4449286074
 20
5.7889696278
 10
15.4426323985
 20
5.8111706838
 10
15.443271594
 20
5.8240451168
  0
LINE
  5
771
100
AcDbEntity
  8
0
100
AcDbLine
 62
7
  6
CONTINUOUS
 10
13.8836632793
 20
4.9834740161
 11
15.6291518854
 21
5.7340602016
  0
CIRCLE
  5
772
100
AcDbEntity
  8
0
100
AcDbCircle
 62
7
  6
CONTINUOUS
 10
10.5342808475
 20
1.243294839
 40
0.252091
  0
CIRCLE
  5
773
100
AcDbEntity
  8
0
100
AcDbCircle
 62
7
  6
CONTINUOUS
 10
10.5342808475
 20
1.243294839
 40
0.182698
  0
ARC
  5
774
100
AcDbEntity
  8
0
100
AcDbCircle
 62
7
  6
CONTINUOUS
 10
4.0715034608
 20
3.5867203218
 40
0.187007874
100
AcDbArc
 50
0.0
 51
90.0
  0
ARC
  5
775
100
AcDbEntity
  8
0
100
AcDbCircle
 62
7
  6
CONTINUOUS
 10
4.0695349568
 20
3.5847518179
 40
0.1732283465
100
AcDbArc
 50
0.0
 51
90.0
  0
ARC
  5
776
100
AcDbEntity
  8
0
100
AcDbCircle
 62
7
  6
CONTINUOUS
 10
4.034101886
 20
3.5926258336
 40
0.157480315
100
AcDbArc
 50
180.0
 51
270.0
  0
CIRCLE
  5
777
100
AcDbEntity
  8
0
100
AcDbCircle
 62
7
  6
CONTINUOUS
 10
4.1029995238
 20
3.9075864636
 40
0.1299225203
  0
CIRCLE
  5
778
100
AcDbEntity
  8
LAYER_AXIS
100
AcDbCircle
 62
7
  6
CONTINUOUS
 10
4.1029995238
 20
3.9075864636
 40
0.1102362205
  0
CIRCLE
  5
779
100
AcDbEntity
  8
AXIS
100
AcDbCircle
 62
7
  6
CONTINUOUS
 10
4.0734719647
 20
3.5926258336
 40
0.0846456693
  0
ARC
  5
77A
100
AcDbEntity
  8
0
100
AcDbCircle
 62
7
  6
CONTINUOUS
 10
4.3982751143
 20
6.4213659911
 40
0.1791338583
100
AcDbArc
 50
270.0
 51
360.0
  0
ARC
  5
77B
100
AcDbEntity
  8
0
100
AcDbCircle
 62
7
  6
CONTINUOUS
 10
4.3923696025
 20
6.4312085108
 40
0.1732283465
100
AcDbArc
 50
270.0
 51
360.0
  0
ARC
  5
77C
100
AcDbEntity
  8
0
100
AcDbCircle
 62
7
  6
CONTINUOUS
 10
4.3490625159
 20
6.4272715029
 40
0.157480315
100
AcDbArc
 50
90.0
 51
180.0
  0
CIRCLE
  5
77D
100
AcDbEntity
  8
0
100
AcDbCircle
 62
7
  6
CONTINUOUS
 10
4.7132357442
 20
6.3879014242
 40
0.1299225203
  0
CIRCLE
  5
77E
100
AcDbEntity
  8
LAYER_AXIS
100
AcDbCircle
 62
7
  6
CONTINUOUS
 10
4.7132357442
 20
6.3879014242
 40
0.1102362205
  0
CIRCLE
  5
77F
100
AcDbEntity
  8
AXIS
100
AcDbCircle
 62
7
  6
CONTINUOUS
 10
4.3884325946
 20
6.4272715029
 40
0.0846456693
  0
ARC
  5
780
100
AcDbEntity
  8
0
100
AcDbCircle
 62
7
  6
CONTINUOUS
 10
6.2407947994
 20
3.5867203218
 40
0.187007874
100
AcDbArc
 50
90.0
 51
180.0
  0
ARC
  5
781
100
AcDbEntity
  8
0
100
AcDbCircle
 62
7
  6
CONTINUOUS
 10
6.2427633033
 20
3.5886888258
 40
0.1732283465
100
AcDbArc
 50
90.0
 51
180.0
  0
ARC
  5
782
100
AcDbEntity
  8
0
100
AcDbCircle
 62
7
  6
CONTINUOUS
 10
6.2781963742
 20
3.5926258336
 40
0.157480315
100
AcDbArc
 50
270.0
 51
360.0
  0
CIRCLE
  5
783
100
AcDbEntity
  8
0
100
AcDbCircle
 62
7
  6
CONTINUOUS
 10
6.1699286576
 20
3.9075864636
 40
0.1299225203
  0
CIRCLE
  5
784
100
AcDbEntity
  8
LAYER_AXIS
100
AcDbCircle
 62
7
  6
CONTINUOUS
 10
6.1699286576
 20
3.9075864636
 40
0.1102362205
  0
CIRCLE
  5
785
100
AcDbEntity
  8
AXIS
100
AcDbCircle
 62
7
  6
CONTINUOUS
 10
6.2388262954
 20
3.5926258336
 40
0.0846456693
  0
ARC
  5
786
100
AcDbEntity
  8
AXIS
100
AcDbCircle
 62
7
  6
CONTINUOUS
 10
6.5537869253
 20
4.4476760045
 40
0.0787401575
100
AcDbArc
 50
0.0
 51
32.2420462704
  0
ARC
  5
787
100
AcDbEntity
  8
AXIS
100
AcDbCircle
 62
7
  6
CONTINUOUS
 10
6.5537869253
 20
3.9974181825
 40
0.0787401575
100
AcDbArc
 50
327.7579537296
 51
360.0
  0
ARC
  5
788
100
AcDbEntity
  8
0
100
AcDbCircle
 62
7
  6
CONTINUOUS
 10
6.5537869253
 20
4.4476760045
 40
0.0787401575
100
AcDbArc
 50
0.0
 51
22.9945809059
  0
ARC
  5
789
100
AcDbEntity
  8
0
100
AcDbCircle
 62
7
  6
CONTINUOUS
 10
6.5537869253
 20
3.9974181825
 40
0.0787401575
100
AcDbArc
 50
337.0054190941
 51
360.0
  0
ARC
  5
78A
100
AcDbEntity
  8
0
100
AcDbCircle
 62
7
  6
CONTINUOUS
 10
6.7309522797
 20
4.4193974872
 40
0.0196850394
100
AcDbArc
 50
0.0
 51
90.0
  0
ARC
  5
78B
100
AcDbEntity
  8
0
100
AcDbCircle
 62
7
  6
CONTINUOUS
 10
6.7309522797
 20
4.0256966998
 40
0.0196850394
100
AcDbArc
 50
270.0
 51
360.0
  0
ARC
  5
78C
100
AcDbEntity
  8
0
100
AcDbCircle
 62
7
  6
CONTINUOUS
 10
6.2585113348
 20
6.4075864636
 40
0.1771653543
100
AcDbArc
 50
0.0
 51
90.0
  0
CIRCLE
  5
78D
100
AcDbEntity
  8
0
100
AcDbCircle
 62
7
  6
CONTINUOUS
 10
6.1699286576
 20
6.3879014242
 40
0.1299225203
  0
CIRCLE
  5
78E
100
AcDbEntity
  8
LAYER_AXIS
100
AcDbCircle
 62
7
  6
CONTINUOUS
 10
6.1699286576
 20
6.3879014242
 40
0.1102362205
  0
CIRCLE
  5
78F
100
AcDbEntity
  8
AXIS
100
AcDbCircle
 62
7
  6
CONTINUOUS
 10
4.5459129096
 20
9.3545311528
 40
0.0590551181
  0
CIRCLE
  5
790
100
AcDbEntity
  8
AXIS
100
AcDbCircle
 62
7
  6
CONTINUOUS
 10
4.5459129096
 20
8.9608303654
 40
0.0590551181
  0
ARC
  5
791
100
AcDbEntity
  8
0
100
AcDbCircle
 62
7
  6
CONTINUOUS
 10
6.7309522797
 20
8.9608303654
 40
0.0196850394
100
AcDbArc
 50
270.0
 51
0.0000499779
  0
ARC
  5
792
100
AcDbEntity
  8
0
100
AcDbCircle
 62
7
  6
CONTINUOUS
 10
6.7309522797
 20
9.3545311528
 40
0.0196850394
100
AcDbArc
 50
359.9999500221
 51
90.0
  0
CIRCLE
  5
793
100
AcDbEntity
  8
AXIS
100
AcDbCircle
 62
9
  6
CONTINUOUS
 10
10.7248523859
 20
4.2225470935
 40
0.225128911
  0
CIRCLE
  5
794
100
AcDbEntity
  8
0
100
AcDbCircle
 62
7
  6
CONTINUOUS
 10
10.7248523859
 20
4.2225470935
 40
0.2165354331
  0
CIRCLE
  5
795
100
AcDbEntity
  8
0
100
AcDbCircle
 62
9
  6
CONTINUOUS
 10
10.7248523859
 20
4.2225470935
 40
0.1968503166
  0
CIRCLE
  5
796
100
AcDbEntity
  8
AXIS
100
AcDbCircle
 62
7
  6
CONTINUOUS
 10
10.7248523859
 20
4.2225470935
 40
0.0787401575
  0
ARC
  5
797
100
AcDbEntity
  8
0
100
AcDbCircle
 62
7
  6
CONTINUOUS
 10
10.941387819
 20
4.3475638841
 40
0.0196850394
100
AcDbArc
 50
0.0
 51
60.0
  0
ARC
  5
798
100
AcDbEntity
  8
0
100
AcDbCircle
 62
7
  6
CONTINUOUS
 10
10.941387819
 20
4.0975303029
 40
0.0196850394
100
AcDbArc
 50
300.0
 51
360.0
  0
ARC
  5
799
100
AcDbEntity
  8
0
100
AcDbCircle
 62
7
  6
CONTINUOUS
 10
10.7248523859
 20
4.4725806746
 40
0.0196850394
100
AcDbArc
 50
60.0
 51
120.0
  0
ARC
  5
79A
100
AcDbEntity
  8
0
100
AcDbCircle
 62
7
  6
CONTINUOUS
 10
10.5083169528
 20
4.3475638841
 40
0.0196850394
100
AcDbArc
 50
120.0
 51
180.0
  0
ARC
  5
79B
100
AcDbEntity
  8
0
100
AcDbCircle
 62
7
  6
CONTINUOUS
 10
10.5083169528
 20
4.0975303029
 40
0.0196850394
100
AcDbArc
 50
180.0
 51
240.0
  0
ARC
  5
79C
100
AcDbEntity
  8
0
100
AcDbCircle
 62
7
  6
CONTINUOUS
 10
10.7248523859
 20
3.9725135123
 40
0.0196850394
100
AcDbArc
 50
240.0
 51
300.0
  0
ENDSEC
  0
SECTION
  2
OBJECTS
  0
DICTIONARY
  5
C
100
AcDbDictionary
280
0
281
1
  3
ACAD_GROUP
350
D
  3
ACAD_MLINESTYLE
350
17
  3
ACAD_LAYOUT
350
1A
  3
ACAD_PLOTSETTINGS
350
19
  3
ACAD_PLOTSTYLENAME
350
E
  0
DICTIONARY
  5
D
102
{ACAD_REACTORS
330
C
102
}
100
AcDbDictionary
280
0
281
1
  0
ACDBDICTIONARYWDFLT
  5
E
102
{ACAD_REACTORS
330
C
102
}
100
AcDbDictionary
281
1
  3
Normal
350
F
100
AcDbDictionaryWithDefault
340
F
  0
DICTIONARY
  5
17
102
{ACAD_REACTORS
330
C
102
}
100
AcDbDictionary
280
0
281
1
  3
Standard
350
18
  0
DICTIONARY
  5
19
102
{ACAD_REACTORS
330
C
102
}
100
AcDbDictionary
281
1
  0
DICTIONARY
  5
1A
102
{ACAD_REACTORS
330
C
102
}
100
AcDbDictionary
281
1
  3
Model
350
79D
  3
Layout1
350
79E
  0
ACDBPLACEHOLDER
  5
F
102
{ACAD_REACTORS
330
E
102
}
  0
MLINESTYLE
  5
18
102
{ACAD_REACTORS
330
17
102
}
100
AcDbMlineStyle
  2
STANDARD
 70
0
  3

 62
256
 51
90.0
 52
90.0
 71
2
 49
0.5
 62
256
  6
BYLAYER
 49
-0.5
 62
256
  6
BYLAYER
  0
LAYOUT
  5
79D
102
{ACAD_REACTORS
330
1A
102
}
100
AcDbPlotSettings
  1

  2
none_device
  4
ANSI_B_(17.00_x_11.00_Inches)
  6

 40
0.0
 41
0.0
 42
0.0
 43
0.0
 44
431.8
 45
279.4
 46
0.0
 47
0.0
 48
0.0
 49
0.0
140
0.0
141
0.0
142
1.0
143
1.0
 70
1024
 72
0
 73
0
 74
0
  7

 75
0
147
1.0
148
0.0
149
0.0
100
AcDbLayout
  1
Model
 70
0
 71
0
 10
0.0
 20
0.0
 11
17.0
 21
11.0
 12
0.0
 22
0.0
 32
0.0
 14
0.0
 24
0.0
 34
0.0
 15
0.0
 25
0.0
 35
0.0
146
0.0
 13
0.0
 23
0.0
 33
0.0
 16
1.0
 26
0.0
 36
0.0
 17
0.0
 27
1.0
 37
0.0
 76
0
330
236
345
0
346
0
  0
LAYOUT
  5
79E
102
{ACAD_REACTORS
330
1A
102
}
100
AcDbPlotSettings
  1

  2
none_device
  4
ANSI_B_(17.00_x_11.00_Inches)
  6

 40
0.0
 41
0.0
 42
0.0
 43
0.0
 44
431.8
 45
279.4
 46
0.0
 47
0.0
 48
0.0
 49
0.0
140
0.0
141
0.0
142
1.0
143
1.0
 70
0
 72
0
 73
0
 74
0
  7

 75
0
147
1.0
148
0.0
149
0.0
100
AcDbLayout
  1
Layout1
 70
0
 71
1
 10
0.0
 20
0.0
 11
17.0
 21
11.0
 12
0.0
 22
0.0
 32
0.0
 14
0.0
 24
0.0
 34
0.0
 15
0.0
 25
0.0
 35
0.0
146
0.0
 13
0.0
 23
0.0
 33
0.0
 16
1.0
 26
0.0
 36
0.0
 17
0.0
 27
1.0
 37
0.0
 76
0
330
237
345
0
346
0
  0
ENDSEC
  0
EOF
