999
DXF file: 145187_1.dxf
999
Pro/ENGINEER 2006170 by Parametric Technology Corporation
  0
SECTION
  2
HEADER
  9
$ACADVER
  1
AC1015
  9
$DWGCODEPAGE
  3
ANSI_1252
  9
$EXTMAX
 10
22.0
 20
17.0
 30
0.0
  9
$EXTMIN
 10
0.0
 20
0.0
 30
0.0
  9
$LIMMIN
 10
0.0
 20
0.0
  9
$LIMMAX
 10
22.0
 20
17.0
  9
$VIEWCTR
 10
11.0
 20
8.5
  9
$VIEWSIZE
 40
17.0
  9
$CLAYER
  8
0
  9
$LTSCALE
 40
1.21
  9
$CELTYPE
  6
BYLAYER
  9
$DIMSCALE
 40
1.0
  9
$DIMASZ
 40
0.1875
  9
$DIMEXO
 40
0.1375
  9
$DIMDLI
 40
0.836
  9
$DIMEXE
 40
0.396
  9
$DIMCEN
 40
0.198
  9
$DIMLFAC
 40
1.0
  9
$DIMBLK
  1
_FILLED
  9
$DIMTXT
 40
0.1
  9
$DIMTOL
 70
1
  9
$DIMLIM
 70
0
  9
$DIMTFAC
 40
1.0
  9
$DIMTP
 40
0.005
  9
$DIMTM
 40
0.005
  9
$PDMODE
 70
3
  9
$PDSIZE
 40
0.3125
  9
$HANDSEED
  5
7E7
  9
$MEASUREMENT
 70
0
  9
$INSUNITS
 70
1
  0
ENDSEC
  0
SECTION
  2
CLASSES
  0
CLASS
  1
ACDBDICTIONARYWDFLT
  2
AcDbDictionaryWithDefault
  3
AutoCAD 2000
 90
0
280
0
281
0
  0
CLASS
  1
ACDBPLACEHOLDER
  2
AcDbPlaceHolder
  3
AutoCAD 2000
 90
0
280
0
281
0
  0
CLASS
  1
LAYOUT
  2
AcDbLayout
  3
AutoCAD 2000
 90
0
280
0
281
0
  0
ENDSEC
  0
SECTION
  2
TABLES
  0
TABLE
  2
VPORT
  5
8
100
AcDbSymbolTable
 70
2
  0
VPORT
  5
1F4
100
AcDbSymbolTableRecord
100
AcDbViewportTableRecord
  2
*ACTIVE
 70
0
 10
0.0
 20
0.0
 11
1.0
 21
1.0
 12
11.0
 22
8.5
 13
0.0
 23
0.0
 14
1.0
 24
1.0
 15
0.0
 25
0.0
 16
0.0
 26
0.0
 36
1.0
 17
0.0
 27
0.0
 37
0.0
 40
17.0
 41
1.2941176471
 42
50.0
 43
0.0
 44
0.0
 50
0.0
 51
0.0
 71
0
 72
100
 73
1
 74
1
 75
0
 76
0
 77
0
 78
0
  0
ENDTAB
  0
TABLE
  2
LTYPE
  5
5
100
AcDbSymbolTable
 70
6
  0
LTYPE
  5
14
100
AcDbSymbolTableRecord
100
AcDbLinetypeTableRecord
  2
BYBLOCK
 70
0
  3

 72
65
 73
0
 40
0.0
  0
LTYPE
  5
15
100
AcDbSymbolTableRecord
100
AcDbLinetypeTableRecord
  2
BYLAYER
 70
0
  3

 72
65
 73
0
 40
0.0
  0
LTYPE
  5
16
100
AcDbSymbolTableRecord
100
AcDbLinetypeTableRecord
  2
CONTINUOUS
 70
64
  3
Solid line
 72
65
 73
0
 40
0.0
  0
LTYPE
  5
1F5
100
AcDbSymbolTableRecord
100
AcDbLinetypeTableRecord
  2
CENTER
 70
64
  3
____ _ ____ _ ____ _ ____ _ ____ _ ____ _ ____
 72
65
 73
4
 40
0.6
 49
0.375
 74
0
 49
-0.075
 74
0
 49
0.075
 74
0
 49
-0.075
 74
0
  0
LTYPE
  5
1F6
100
AcDbSymbolTableRecord
100
AcDbLinetypeTableRecord
  2
HIDDEN
 70
64
  3
- - - - - - - - - - - - - - - - - - - -
 72
65
 73
2
 40
0.2
 49
0.1
 74
0
 49
-0.1
 74
0
  0
LTYPE
  5
1F7
100
AcDbSymbolTableRecord
100
AcDbLinetypeTableRecord
  2
PHANTOM
 70
64
  3
_____ _ _ _____ _ _ _____ _ _ _____
 72
65
 73
6
 40
0.8
 49
0.45
 74
0
 49
-0.05
 74
0
 49
0.1
 74
0
 49
-0.05
 74
0
 49
0.1
 74
0
 49
-0.05
 74
0
  0
LTYPE
  5
1F8
100
AcDbSymbolTableRecord
100
AcDbLinetypeTableRecord
  2
DOT
 70
64
  3
. . . . . . . . . . . . . . . . . . . .
 72
65
 73
2
 40
0.2
 49
0.1
 74
0
 49
-0.1
 74
0
  0
LTYPE
  5
1F9
100
AcDbSymbolTableRecord
100
AcDbLinetypeTableRecord
  2
DASHED
 70
64
  3
- - - - - - - - - - - - - - - - - - - -
 72
65
 73
2
 40
0.2
 49
0.1
 74
0
 49
-0.1
 74
0
  0
ENDTAB
  0
TABLE
  2
LAYER
  5
2
100
AcDbSymbolTable
 70
36
  0
LAYER
  5
10
100
AcDbSymbolTableRecord
100
AcDbLayerTableRecord
  2
0
 70
0
 62
7
  6
CONTINUOUS
370
-3
390
F
  0
LAYER
  5
1FA
100
AcDbSymbolTableRecord
100
AcDbLayerTableRecord
  2
DEFAULT_1
 70
0
 62
7
  6
CENTER
370
-3
390
F
  0
LAYER
  5
1FB
100
AcDbSymbolTableRecord
100
AcDbLayerTableRecord
  2
DEFAULT_2
 70
0
 62
8
  6
HIDDEN
370
-3
390
F
  0
LAYER
  5
1FC
100
AcDbSymbolTableRecord
100
AcDbLayerTableRecord
  2
DEFAULT_3
 70
0
 62
7
  6
PHANTOM
370
-3
390
F
  0
LAYER
  5
1FD
100
AcDbSymbolTableRecord
100
AcDbLayerTableRecord
  2
_2D_DELETED_OBJS
 70
0
 62
7
  6
CONTINUOUS
370
-3
390
F
  0
LAYER
  5
1FE
100
AcDbSymbolTableRecord
100
AcDbLayerTableRecord
  2
_BLACK_HOLE
 70
0
 62
7
  6
CONTINUOUS
370
-3
390
F
  0
LAYER
  5
1FF
100
AcDbSymbolTableRecord
100
AcDbLayerTableRecord
  2
01___PRT_ALL_DTM_PLN
 70
0
 62
7
  6
CONTINUOUS
370
-3
390
F
  0
LAYER
  5
200
100
AcDbSymbolTableRecord
100
AcDbLayerTableRecord
  2
01___PRT_DEF_DTM_PLN
 70
0
 62
7
  6
CONTINUOUS
370
-3
390
F
  0
LAYER
  5
201
100
AcDbSymbolTableRecord
100
AcDbLayerTableRecord
  2
02___PRT_ALL_AXES
 70
0
 62
7
  6
CONTINUOUS
370
-3
390
F
  0
LAYER
  5
202
100
AcDbSymbolTableRecord
100
AcDbLayerTableRecord
  2
03___PRT_ALL_CURVES
 70
0
 62
7
  6
CONTINUOUS
370
-3
390
F
  0
LAYER
  5
203
100
AcDbSymbolTableRecord
100
AcDbLayerTableRecord
  2
04___PRT_ALL_DTM_PNT
 70
0
 62
7
  6
CONTINUOUS
370
-3
390
F
  0
LAYER
  5
204
100
AcDbSymbolTableRecord
100
AcDbLayerTableRecord
  2
05___PRT_ALL_DTM_CSYS
 70
0
 62
7
  6
CONTINUOUS
370
-3
390
F
  0
LAYER
  5
205
100
AcDbSymbolTableRecord
100
AcDbLayerTableRecord
  2
05___PRT_DEF_DTM_CSYS
 70
0
 62
7
  6
CONTINUOUS
370
-3
390
F
  0
LAYER
  5
206
100
AcDbSymbolTableRecord
100
AcDbLayerTableRecord
  2
06___PRT_ALL_SURFS
 70
0
 62
7
  6
CONTINUOUS
370
-3
390
F
  0
LAYER
  5
207
100
AcDbSymbolTableRecord
100
AcDbLayerTableRecord
  2
AXIS
 70
0
 62
7
  6
CONTINUOUS
370
-3
390
F
  0
LAYER
  5
208
100
AcDbSymbolTableRecord
100
AcDbLayerTableRecord
  2
AXIS_COSMETIC_THREADS
 70
0
 62
7
  6
CONTINUOUS
370
-3
390
F
  0
LAYER
  5
209
100
AcDbSymbolTableRecord
100
AcDbLayerTableRecord
  2
DATUM_CURVES
 70
0
 62
7
  6
CONTINUOUS
370
-3
390
F
  0
LAYER
  5
20A
100
AcDbSymbolTableRecord
100
AcDbLayerTableRecord
  2
DATUM_PLANES
 70
0
 62
7
  6
CONTINUOUS
370
-3
390
F
  0
LAYER
  5
20B
100
AcDbSymbolTableRecord
100
AcDbLayerTableRecord
  2
HIDE
 70
0
 62
7
  6
CONTINUOUS
370
-3
390
F
  0
LAYER
  5
20C
100
AcDbSymbolTableRecord
100
AcDbLayerTableRecord
  2
NOTES
 70
0
 62
7
  6
CONTINUOUS
370
-3
390
F
  0
LAYER
  5
20D
100
AcDbSymbolTableRecord
100
AcDbLayerTableRecord
  2
QUILTS
 70
0
 62
7
  6
CONTINUOUS
370
-3
390
F
  0
LAYER
  5
20E
100
AcDbSymbolTableRecord
100
AcDbLayerTableRecord
  2
SCHEME_DIMS
 70
0
 62
7
  6
CONTINUOUS
370
-3
390
F
  0
LAYER
  5
20F
100
AcDbSymbolTableRecord
100
AcDbLayerTableRecord
  2
SYMBOLS
 70
0
 62
7
  6
CONTINUOUS
370
-3
390
F
  0
ENDTAB
  0
TABLE
  2
STYLE
  5
3
100
AcDbSymbolTable
 70
1
  0
STYLE
  5
11
100
AcDbSymbolTableRecord
100
AcDbTextStyleTableRecord
  2
STANDARD
 70
0
 40
0.0
 41
1.0
 50
0.0
 71
0
 42
0.2
  3
txt
  4

  0
ENDTAB
  0
TABLE
  2
VIEW
  5
6
100
AcDbSymbolTable
 70
0
  0
ENDTAB
  0
TABLE
  2
UCS
  5
7
100
AcDbSymbolTable
 70
0
  0
ENDTAB
  0
TABLE
  2
APPID
  5
9
100
AcDbSymbolTable
 70
1
  0
APPID
  5
210
100
AcDbSymbolTableRecord
100
AcDbRegAppTableRecord
  2
ACAD
 70
0
  0
ENDTAB
  0
TABLE
  2
BLOCK_RECORD
  5
1
100
AcDbSymbolTable
 70
0
  0
BLOCK_RECORD
  5
1F
100
AcDbSymbolTableRecord
100
AcDbBlockTableRecord
  2
*MODEL_SPACE
  0
BLOCK_RECORD
  5
1B
100
AcDbSymbolTableRecord
100
AcDbBlockTableRecord
  2
*PAPER_SPACE
  0
BLOCK_RECORD
  5
211
100
AcDbSymbolTableRecord
100
AcDbBlockTableRecord
  2
_FILLED
  0
BLOCK_RECORD
  5
212
100
AcDbSymbolTableRecord
100
AcDbBlockTableRecord
  2
BANNER_LOGO_TITLEBLOCK_BL0
  0
BLOCK_RECORD
  5
213
100
AcDbSymbolTableRecord
100
AcDbBlockTableRecord
  2
*D0
  0
BLOCK_RECORD
  5
214
100
AcDbSymbolTableRecord
100
AcDbBlockTableRecord
  2
*D1
  0
BLOCK_RECORD
  5
215
100
AcDbSymbolTableRecord
100
AcDbBlockTableRecord
  2
*D2
  0
BLOCK_RECORD
  5
216
100
AcDbSymbolTableRecord
100
AcDbBlockTableRecord
  2
*D3
  0
BLOCK_RECORD
  5
217
100
AcDbSymbolTableRecord
100
AcDbBlockTableRecord
  2
*D4
  0
ENDTAB
  0
TABLE
  2
DIMSTYLE
  5
A
100
AcDbSymbolTable
 70
1
100
AcDbDimStyleTable
 71
0
  0
DIMSTYLE
105
218
100
AcDbSymbolTableRecord
100
AcDbDimStyleTableRecord
  2
STANDARD
 70
0
  3

  4

 40
1.0
 41
0.1875
 42
0.0625
 43
0.38
 44
0.18
 45
0.0
 46
0.0
 47
0.005
 48
0.005
140
0.1
141
0.09
142
0.0
143
25.4
144
1.0
145
0.0
146
1.0
147
0.09
 71
1.0
 72
0.0
 73
1
 74
1
 75
0
 76
0
 77
0
 78
4
170
0
171
2
172
0
173
0
174
0
175
0
176
0
177
0
178
0
270
2
271
3
272
3
273
2
274
2
275
0
280
0
281
0
282
0
283
1
284
4
285
0
286
0
287
3
288
0
340
11
341
211
342
211
343
211
344
211
  0
DIMSTYLE
105
219
100
AcDbSymbolTableRecord
100
AcDbDimStyleTableRecord
  2
DIMSTYLE_1
 70
0
  3

  4

 40
1.0
 41
0.1875
 42
0.0625
 43
0.38
 44
0.18
 45
0.0
 46
0.0
 47
0.1
 48
0.1
140
0.1
141
0.09
142
0.0
143
25.4
144
1.0
145
0.0
146
1.0
147
0.09
 71
0.0
 72
0.0
 73
1
 74
1
 75
0
 76
0
 77
0
 78
4
170
0
171
2
172
0
173
0
174
0
175
0
176
0
177
0
178
0
270
2
271
1
272
1
273
2
274
2
275
0
280
0
281
0
282
0
283
1
284
4
285
0
286
0
287
3
288
0
340
11
341
211
342
211
343
211
344
211
  0
DIMSTYLE
105
21A
100
AcDbSymbolTableRecord
100
AcDbDimStyleTableRecord
  2
DIMSTYLE_2
 70
0
  3

  4

 40
1.0
 41
0.1875
 42
0.0625
 43
0.38
 44
0.18
 45
0.0
 46
0.0
 47
0.1
 48
0.1
140
0.1
141
0.09
142
0.0
143
25.4
144
1.0
145
0.0
146
1.0
147
0.09
 71
0.0
 72
0.0
 73
1
 74
1
 75
0
 76
0
 77
0
 78
4
170
0
171
2
172
0
173
0
174
0
175
0
176
0
177
0
178
0
270
2
271
1
272
1
273
2
274
2
275
0
280
0
281
0
282
0
283
1
284
4
285
0
286
0
287
3
288
0
340
11
341
211
342
211
343
211
344
211
  0
ENDTAB
  0
ENDSEC
  0
SECTION
  2
BLOCKS
  0
BLOCK
  5
20
100
AcDbEntity
  8
0
100
AcDbBlockBegin
  2
*MODEL_SPACE
 70
0
 10
0.0
 20
0.0
 30
0.0
  3
*MODEL_SPACE
  1

  0
ENDBLK
  5
21
100
AcDbEntity
  8
0
100
AcDbBlockEnd
  0
BLOCK
  5
1C
100
AcDbEntity
  8
0
100
AcDbBlockBegin
  2
*PAPER_SPACE
 70
0
 10
0.0
 20
0.0
 30
0.0
  3
*PAPER_SPACE
  1

  0
ENDBLK
  5
1D
100
AcDbEntity
  8
0
100
AcDbBlockEnd
  0
BLOCK
  5
21B
100
AcDbEntity
  8
0
100
AcDbBlockBegin
 62
2
  6
CONTINUOUS
  2
BANNER_LOGO_TITLEBLOCK_BL0
 70
64
 10
17.5737928667
 20
2.4016160592
  3
BANNER_LOGO_TITLEBLOCK_BL0
  1

  0
LWPOLYLINE
  5
21C
100
AcDbEntity
  8
0
100
AcDbPolyline
 62
2
  6
CONTINUOUS
 90
29
 70
0
 10
16.7487923615
 20
2.4016160592
 10
16.7691351996
 20
2.3618196847
 10
16.8307163685
 20
2.3232759622
 10
16.9281409297
 20
2.2893628079
 10
17.0602177432
 20
2.2604945935
 10
17.2153753953
 20
2.2392004647
 10
17.3917175036
 20
2.2257402979
 10
17.5737926282
 20
2.2212942658
 10
17.7558682297
 20
2.2257402979
 10
17.932210338
 20
2.2392004647
 10
18.0873675133
 20
2.2604945935
 10
18.2194448036
 20
2.2893628079
 10
18.316868888
 20
2.3232759622
 10
18.3784505337
 20
2.3618196847
 10
18.3987933719
 20
2.4016160592
 10
18.3784505337
 20
2.4414124337
 10
18.316868888
 20
2.4799561562
 10
18.2194448036
 20
2.5138693105
 10
18.0873675133
 20
2.5427375249
 10
17.932210338
 20
2.5640316537
 10
17.7558682297
 20
2.5774918205
 10
17.5737926282
 20
2.5819378526
 10
17.3917175036
 20
2.5774918205
 10
17.2153753953
 20
2.5640316537
 10
17.0602177432
 20
2.5427375249
 10
16.9281409297
 20
2.5138693105
 10
16.8307163685
 20
2.4799561562
 10
16.7691351996
 20
2.4414124337
 10
16.7487923615
 20
2.4016160592
  0
ARC
  5
21D
100
AcDbEntity
  8
0
100
AcDbCircle
 62
2
  6
CONTINUOUS
 10
17.0691330821
 20
2.3781140608
 40
0.0153945295
100
AcDbArc
 50
354.0454548824
 51
5.1878013979
  0
ARC
  5
21E
100
AcDbEntity
  8
0
100
AcDbCircle
 62
2
  6
CONTINUOUS
 10
17.062303393
 20
2.377925543
 40
0.0222174455
100
AcDbArc
 50
4.0793399388
 51
69.834329283
  0
LINE
  5
21F
100
AcDbEntity
  8
0
100
AcDbLine
 62
2
  6
CONTINUOUS
 10
17.0699625425
 20
2.3987810533
 11
17.0599115369
 21
2.4023300553
  0
LINE
  5
220
100
AcDbEntity
  8
0
100
AcDbLine
 62
2
  6
CONTINUOUS
 10
17.0599115369
 20
2.4023300553
 11
17.0681515415
 21
2.4071060579
  0
ARC
  5
221
100
AcDbEntity
  8
0
100
AcDbCircle
 62
2
  6
CONTINUOUS
 10
17.046286159
 20
2.4439329496
 40
0.0428289026
100
AcDbArc
 50
300.6990502959
 51
319.0591802498
  0
ARC
  5
222
100
AcDbEntity
  8
0
100
AcDbCircle
 62
2
  6
CONTINUOUS
 10
17.0663147559
 20
2.4278045961
 40
0.0171568255
100
AcDbArc
 50
315.9145124245
 51
16.0049121282
  0
ARC
  5
223
100
AcDbEntity
  8
0
100
AcDbCircle
 62
2
  6
CONTINUOUS
 10
17.0613631438
 20
2.4244509317
 40
0.0229166529
100
AcDbArc
 50
20.6563876465
 51
62.3316896973
  0
ARC
  5
224
100
AcDbEntity
  8
0
100
AcDbCircle
 62
2
  6
CONTINUOUS
 10
17.0407010201
 20
2.3915223668
 40
0.061747717
100
AcDbArc
 50
59.5385584989
 51
90.0050977555
  0
LINE
  5
225
100
AcDbEntity
  8
0
100
AcDbLine
 62
2
  6
CONTINUOUS
 10
17.0406955262
 20
2.4532700835
 11
16.8746324342
 21
2.4532700835
  0
ARC
  5
226
100
AcDbEntity
  8
0
100
AcDbCircle
 62
2
  6
CONTINUOUS
 10
16.8746324323
 20
2.450795084
 40
0.0024749995
100
AcDbArc
 50
89.9999571957
 51
180.0000428043
  0
LINE
  5
227
100
AcDbEntity
  8
0
100
AcDbLine
 62
2
  6
CONTINUOUS
 10
16.8721574328
 20
2.4507950822
 11
16.8721574328
 21
2.4309950712
  0
ARC
  5
228
100
AcDbEntity
  8
0
100
AcDbCircle
 62
2
  6
CONTINUOUS
 10
16.8746324323
 20
2.4309950693
 40
0.0024749995
100
AcDbArc
 50
179.9999571957
 51
270.0000428043
  0
LINE
  5
229
100
AcDbEntity
  8
0
100
AcDbLine
 62
2
  6
CONTINUOUS
 10
16.8746324342
 20
2.4285200698
 11
16.8985744474
 21
2.4285200698
  0
ARC
  5
22A
100
AcDbEntity
  8
0
100
AcDbCircle
 62
2
  6
CONTINUOUS
 10
16.8985744493
 20
2.4260450703
 40
0.0024749995
100
AcDbArc
 50
359.9999571957
 51
90.0000428043
  0
LINE
  5
22B
100
AcDbEntity
  8
0
100
AcDbLine
 62
2
  6
CONTINUOUS
 10
16.9010494488
 20
2.4260450684
 11
16.9010494488
 21
2.3796900427
  0
ARC
  5
22C
100
AcDbEntity
  8
0
100
AcDbCircle
 62
2
  6
CONTINUOUS
 10
16.8985744493
 20
2.3796900409
 40
0.0024749995
100
AcDbArc
 50
269.9999571957
 51
0.0000428043
  0
LINE
  5
22D
100
AcDbEntity
  8
0
100
AcDbLine
 62
2
  6
CONTINUOUS
 10
16.8985744474
 20
2.3772150414
 11
16.8746324342
 21
2.3772150414
  0
ARC
  5
22E
100
AcDbEntity
  8
0
100
AcDbCircle
 62
2
  6
CONTINUOUS
 10
16.8746324323
 20
2.3747400418
 40
0.0024749995
100
AcDbArc
 50
89.9999571957
 51
180.0000428043
  0
LINE
  5
22F
100
AcDbEntity
  8
0
100
AcDbLine
 62
2
  6
CONTINUOUS
 10
16.8721574328
 20
2.37474004
 11
16.8721574328
 21
2.354940029
  0
ARC
  5
230
100
AcDbEntity
  8
0
100
AcDbCircle
 62
2
  6
CONTINUOUS
 10
16.8746324323
 20
2.3549400272
 40
0.0024749995
100
AcDbArc
 50
179.9999571957
 51
270.0000428043
  0
LINE
  5
231
100
AcDbEntity
  8
0
100
AcDbLine
 62
2
  6
CONTINUOUS
 10
16.8746324342
 20
2.3524650276
 11
17.051078532
 21
2.3524650276
  0
ARC
  5
232
100
AcDbEntity
  8
0
100
AcDbCircle
 62
2
  6
CONTINUOUS
 10
17.0483571873
 20
2.4008724794
 40
0.048483885
100
AcDbArc
 50
273.21763719
 51
303.0749121182
  0
ARC
  5
233
100
AcDbEntity
  8
0
100
AcDbCircle
 62
2
  6
CONTINUOUS
 10
17.0631965815
 20
2.3781048705
 40
0.0213072145
100
AcDbArc
 50
303.0488228549
 51
355.7263138674
  0
LINE
  5
234
100
AcDbEntity
  8
0
100
AcDbLine
 62
2
  6
CONTINUOUS
 10
16.9640374837
 20
2.4111950602
 11
17.0054005067
 21
2.4111950602
  0
ARC
  5
235
100
AcDbEntity
  8
0
100
AcDbCircle
 62
2
  6
CONTINUOUS
 10
17.0054005067
 20
2.419857565
 40
0.0086625048
100
AcDbArc
 50
270.0
 51
90.0
  0
LINE
  5
236
100
AcDbEntity
  8
0
100
AcDbLine
 62
2
  6
CONTINUOUS
 10
17.0054005067
 20
2.4285200698
 11
16.9640374837
 21
2.4285200698
  0
ARC
  5
237
100
AcDbEntity
  8
0
100
AcDbCircle
 62
2
  6
CONTINUOUS
 10
16.9640374819
 20
2.4260450703
 40
0.0024749995
100
AcDbArc
 50
89.9999571957
 51
180.0000428043
  0
LINE
  5
238
100
AcDbEntity
  8
0
100
AcDbLine
 62
2
  6
CONTINUOUS
 10
16.9615624824
 20
2.4260450684
 11
16.9615624824
 21
2.4136700616
  0
ARC
  5
239
100
AcDbEntity
  8
0
100
AcDbCircle
 62
2
  6
CONTINUOUS
 10
16.9640374819
 20
2.4136700597
 40
0.0024749995
100
AcDbArc
 50
179.9999571957
 51
270.0000428043
  0
LINE
  5
23A
100
AcDbEntity
  8
0
100
AcDbLine
 62
2
  6
CONTINUOUS
 10
16.9615624824
 20
2.3796900427
 11
16.9615624824
 21
2.3920650496
  0
ARC
  5
23B
100
AcDbEntity
  8
0
100
AcDbCircle
 62
2
  6
CONTINUOUS
 10
16.9640374819
 20
2.3920650514
 40
0.0024749995
100
AcDbArc
 50
89.9999571957
 51
180.0000428043
  0
LINE
  5
23C
100
AcDbEntity
  8
0
100
AcDbLine
 62
2
  6
CONTINUOUS
 10
16.9640374837
 20
2.394540051
 11
17.0054005067
 21
2.394540051
  0
ARC
  5
23D
100
AcDbEntity
  8
0
100
AcDbCircle
 62
2
  6
CONTINUOUS
 10
17.0054005067
 20
2.3858775462
 40
0.0086625048
100
AcDbArc
 50
270.0
 51
90.0
  0
LINE
  5
23E
100
AcDbEntity
  8
0
100
AcDbLine
 62
2
  6
CONTINUOUS
 10
17.0054005067
 20
2.3772150414
 11
16.9640374837
 21
2.3772150414
  0
ARC
  5
23F
100
AcDbEntity
  8
0
100
AcDbCircle
 62
2
  6
CONTINUOUS
 10
16.9640374819
 20
2.3796900409
 40
0.0024749995
100
AcDbArc
 50
179.9999571957
 51
270.0000428043
  0
ARC
  5
240
100
AcDbEntity
  8
0
100
AcDbCircle
 62
2
  6
CONTINUOUS
 10
18.2498075353
 20
2.3824863625
 40
0.044722495
100
AcDbArc
 50
195.531588407
 51
204.7624440448
  0
LINE
  5
241
100
AcDbEntity
  8
0
100
AcDbLine
 62
2
  6
CONTINUOUS
 10
18.2067181729
 20
2.3705110376
 11
18.2049141719
 21
2.376580041
  0
ARC
  5
242
100
AcDbEntity
  8
0
100
AcDbCircle
 62
2
  6
CONTINUOUS
 10
18.1665349746
 20
2.3667829606
 40
0.0396099176
100
AcDbArc
 50
14.3201081283
 51
22.4984722084
  0
ARC
  5
243
100
AcDbEntity
  8
0
100
AcDbCircle
 62
2
  6
CONTINUOUS
 10
18.189301283
 20
2.3757545872
 40
0.0151491919
100
AcDbArc
 50
24.098260853
 51
63.0369451818
  0
ARC
  5
244
100
AcDbEntity
  8
0
100
AcDbCircle
 62
2
  6
CONTINUOUS
 10
18.1852466282
 20
2.3674749668
 40
0.0243676582
100
AcDbArc
 50
63.3666028271
 51
90.3937697637
  0
LINE
  5
245
100
AcDbEntity
  8
0
100
AcDbLine
 62
2
  6
CONTINUOUS
 10
18.1850791609
 20
2.3918420495
 11
18.1574721456
 21
2.3918420495
  0
ARC
  5
246
100
AcDbEntity
  8
0
100
AcDbCircle
 62
2
  6
CONTINUOUS
 10
18.1574721437
 20
2.3893670499
 40
0.0024749995
100
AcDbArc
 50
89.9999571957
 51
180.0000428043
  0
LINE
  5
247
100
AcDbEntity
  8
0
100
AcDbLine
 62
2
  6
CONTINUOUS
 10
18.1549971442
 20
2.3893670481
 11
18.1549971442
 21
2.3796680427
  0
ARC
  5
248
100
AcDbEntity
  8
0
100
AcDbCircle
 62
2
  6
CONTINUOUS
 10
18.1574721437
 20
2.3796680409
 40
0.0024749995
100
AcDbArc
 50
179.9999571957
 51
270.0000428043
  0
LINE
  5
249
100
AcDbEntity
  8
0
100
AcDbLine
 62
2
  6
CONTINUOUS
 10
18.1574721456
 20
2.3771930413
 11
18.1821311592
 21
2.3771930413
  0
ARC
  5
24A
100
AcDbEntity
  8
0
100
AcDbCircle
 62
2
  6
CONTINUOUS
 10
18.1821311611
 20
2.3747180418
 40
0.0024749995
100
AcDbArc
 50
359.9999571957
 51
90.0000428043
  0
LINE
  5
24B
100
AcDbEntity
  8
0
100
AcDbLine
 62
2
  6
CONTINUOUS
 10
18.1846061606
 20
2.37471804
 11
18.1846061606
 21
2.354940029
  0
ARC
  5
24C
100
AcDbEntity
  8
0
100
AcDbCircle
 62
2
  6
CONTINUOUS
 10
18.1821311611
 20
2.3549400272
 40
0.0024749995
100
AcDbArc
 50
269.9999571957
 51
0.0000428043
  0
LINE
  5
24D
100
AcDbEntity
  8
0
100
AcDbLine
 62
2
  6
CONTINUOUS
 10
18.1821311592
 20
2.3524650276
 11
18.0685600963
 21
2.3524650276
  0
ARC
  5
24E
100
AcDbEntity
  8
0
100
AcDbCircle
 62
2
  6
CONTINUOUS
 10
18.0685600944
 20
2.3549400272
 40
0.0024749995
100
AcDbArc
 50
179.9999571957
 51
270.0000428043
  0
LINE
  5
24F
100
AcDbEntity
  8
0
100
AcDbLine
 62
2
  6
CONTINUOUS
 10
18.0660850949
 20
2.354940029
 11
18.0660850949
 21
2.37474004
  0
ARC
  5
250
100
AcDbEntity
  8
0
100
AcDbCircle
 62
2
  6
CONTINUOUS
 10
18.0685600944
 20
2.3747400418
 40
0.0024749995
100
AcDbArc
 50
89.9999571957
 51
180.0000428043
  0
LINE
  5
251
100
AcDbEntity
  8
0
100
AcDbLine
 62
2
  6
CONTINUOUS
 10
18.0685600963
 20
2.3772150414
 11
18.0913061089
 21
2.3772150414
  0
ARC
  5
252
100
AcDbEntity
  8
0
100
AcDbCircle
 62
2
  6
CONTINUOUS
 10
18.0913061107
 20
2.3796900409
 40
0.0024749995
100
AcDbArc
 50
269.9999571957
 51
0.0000428043
  0
LINE
  5
253
100
AcDbEntity
  8
0
100
AcDbLine
 62
2
  6
CONTINUOUS
 10
18.0937811102
 20
2.3796900427
 11
18.0937811102
 21
2.4260450684
  0
ARC
  5
254
100
AcDbEntity
  8
0
100
AcDbCircle
 62
2
  6
CONTINUOUS
 10
18.0913061107
 20
2.4260450703
 40
0.0024749995
100
AcDbArc
 50
359.9999571957
 51
90.0000428043
  0
LINE
  5
255
100
AcDbEntity
  8
0
100
AcDbLine
 62
2
  6
CONTINUOUS
 10
18.0913061089
 20
2.4285200698
 11
18.0685600963
 21
2.4285200698
  0
ARC
  5
256
100
AcDbEntity
  8
0
100
AcDbCircle
 62
2
  6
CONTINUOUS
 10
18.0685600944
 20
2.4309950693
 40
0.0024749995
100
AcDbArc
 50
179.9999571957
 51
270.0000428043
  0
LINE
  5
257
100
AcDbEntity
  8
0
100
AcDbLine
 62
2
  6
CONTINUOUS
 10
18.0660850949
 20
2.4309950712
 11
18.0660850949
 21
2.4507950822
  0
ARC
  5
258
100
AcDbEntity
  8
0
100
AcDbCircle
 62
2
  6
CONTINUOUS
 10
18.0685600944
 20
2.450795084
 40
0.0024749995
100
AcDbArc
 50
89.9999571957
 51
180.0000428043
  0
LINE
  5
259
100
AcDbEntity
  8
0
100
AcDbLine
 62
2
  6
CONTINUOUS
 10
18.0685600963
 20
2.4532700835
 11
18.2181411792
 21
2.4532700835
  0
ARC
  5
25A
100
AcDbEntity
  8
0
100
AcDbCircle
 62
2
  6
CONTINUOUS
 10
18.2154778759
 20
2.270731173
 40
0.1825583387
100
AcDbArc
 50
79.8618509324
 51
89.1640948679
  0
ARC
  5
25B
100
AcDbEntity
  8
0
100
AcDbCircle
 62
2
  6
CONTINUOUS
 10
18.2417821663
 20
2.4115546891
 40
0.039319019
100
AcDbArc
 50
59.1202086415
 51
81.4730239328
  0
ARC
  5
25C
100
AcDbEntity
  8
0
100
AcDbCircle
 62
2
  6
CONTINUOUS
 10
18.2474415625
 20
2.4178893582
 40
0.0310192946
100
AcDbArc
 50
34.7540871
 51
62.0879016178
  0
ARC
  5
25D
100
AcDbEntity
  8
0
100
AcDbCircle
 62
2
  6
CONTINUOUS
 10
18.2591303136
 20
2.4264389594
 40
0.0165459396
100
AcDbArc
 50
1.548452892
 51
33.5033152417
  0
ARC
  5
25E
100
AcDbEntity
  8
0
100
AcDbCircle
 62
2
  6
CONTINUOUS
 10
18.2624269088
 20
2.4266074116
 40
0.0132462337
100
AcDbArc
 50
331.1510006998
 51
1.205404301
  0
ARC
  5
25F
100
AcDbEntity
  8
0
100
AcDbCircle
 62
2
  6
CONTINUOUS
 10
18.2514162524
 20
2.4332859993
 40
0.0261183659
100
AcDbArc
 50
305.6373831893
 51
329.9727629745
  0
ARC
  5
260
100
AcDbEntity
  8
0
100
AcDbCircle
 62
2
  6
CONTINUOUS
 10
18.2210843148
 20
2.4764928489
 40
0.0789082104
100
AcDbArc
 50
292.906155071
 51
305.2574666259
  0
ARC
  5
261
100
AcDbEntity
  8
0
100
AcDbCircle
 62
2
  6
CONTINUOUS
 10
18.1973831488
 20
2.2998387438
 40
0.117346916
100
AcDbArc
 50
58.614769177
 51
62.3737227606
  0
ARC
  5
262
100
AcDbEntity
  8
0
100
AcDbCircle
 62
2
  6
CONTINUOUS
 10
18.2452661015
 20
2.377966004
 40
0.0257145923
100
AcDbArc
 50
39.3804255939
 51
59.0361096173
  0
ARC
  5
263
100
AcDbEntity
  8
0
100
AcDbCircle
 62
2
  6
CONTINUOUS
 10
18.244145746
 20
2.3778929208
 40
0.0266349791
100
AcDbArc
 50
20.3630922153
 51
37.9727053099
  0
ARC
  5
264
100
AcDbEntity
  8
0
100
AcDbCircle
 62
2
  6
CONTINUOUS
 10
18.2262452042
 20
2.3707115124
 40
0.0459185159
100
AcDbArc
 50
15.6740290068
 51
20.9917271228
  0
ARC
  5
265
100
AcDbEntity
  8
0
100
AcDbCircle
 62
2
  6
CONTINUOUS
 10
18.2848155393
 20
2.3863544954
 40
0.0147197649
100
AcDbArc
 50
192.7054516566
 51
206.0594861022
  0
ARC
  5
266
100
AcDbEntity
  8
0
100
AcDbCircle
 62
2
  6
CONTINUOUS
 10
18.2763212023
 20
2.3821460089
 40
0.0052403997
100
AcDbArc
 50
205.5232099488
 51
227.5054868079
  0
ARC
  5
267
100
AcDbEntity
  8
0
100
AcDbCircle
 62
2
  6
CONTINUOUS
 10
18.274592903
 20
2.3803306362
 40
0.0027347709
100
AcDbArc
 50
228.5117626737
 51
266.1485845754
  0
LINE
  5
268
100
AcDbEntity
  8
0
100
AcDbLine
 62
2
  6
CONTINUOUS
 10
18.2744092104
 20
2.3776020416
 11
18.275518211
 21
2.3776020416
  0
ARC
  5
269
100
AcDbEntity
  8
0
100
AcDbCircle
 62
2
  6
CONTINUOUS
 10
18.2754566564
 20
2.3908507008
 40
0.0132488022
100
AcDbArc
 50
270.266200055
 51
281.2404888597
  0
ARC
  5
26A
100
AcDbEntity
  8
0
100
AcDbCircle
 62
2
  6
CONTINUOUS
 10
18.2766508974
 20
2.3851140072
 40
0.0073895522
100
AcDbArc
 50
280.8288201977
 51
305.0837508495
  0
ARC
  5
26B
100
AcDbEntity
  8
0
100
AcDbCircle
 62
2
  6
CONTINUOUS
 10
18.2770520791
 20
2.3842631608
 40
0.0064647042
100
AcDbArc
 50
306.5086174083
 51
340.2162360092
  0
ARC
  5
26C
100
AcDbEntity
  8
0
100
AcDbCircle
 62
2
  6
CONTINUOUS
 10
18.2718509025
 20
2.3860072224
 40
0.0119498009
100
AcDbArc
 50
340.7883861657
 51
1.1691452593
  0
LINE
  5
26D
100
AcDbEntity
  8
0
100
AcDbLine
 62
2
  6
CONTINUOUS
 10
18.2837982156
 20
2.3862510464
 11
18.2837982156
 21
2.3888770478
  0
ARC
  5
26E
100
AcDbEntity
  8
0
100
AcDbCircle
 62
2
  6
CONTINUOUS
 10
18.2862732151
 20
2.3888770497
 40
0.0024749995
100
AcDbArc
 50
89.9999571957
 51
180.0000428043
  0
LINE
  5
26F
100
AcDbEntity
  8
0
100
AcDbLine
 62
2
  6
CONTINUOUS
 10
18.286273217
 20
2.3913520492
 11
18.2983832237
 21
2.3913520492
  0
ARC
  5
270
100
AcDbEntity
  8
0
100
AcDbCircle
 62
2
  6
CONTINUOUS
 10
18.2983832256
 20
2.3888770497
 40
0.0024749995
100
AcDbArc
 50
359.9999571957
 51
90.0000428043
  0
LINE
  5
271
100
AcDbEntity
  8
0
100
AcDbLine
 62
2
  6
CONTINUOUS
 10
18.3008582251
 20
2.3888770478
 11
18.3008582251
 21
2.3773250414
  0
ARC
  5
272
100
AcDbEntity
  8
0
100
AcDbCircle
 62
2
  6
CONTINUOUS
 10
18.2833025285
 20
2.3774293591
 40
0.0175560065
100
AcDbArc
 50
332.2279060967
 51
359.6595469939
  0
ARC
  5
273
100
AcDbEntity
  8
0
100
AcDbCircle
 62
2
  6
CONTINUOUS
 10
18.2739955177
 20
2.3823238645
 40
0.0280715479
100
AcDbArc
 50
308.5071794988
 51
332.2400656899
  0
ARC
  5
274
100
AcDbEntity
  8
0
100
AcDbCircle
 62
2
  6
CONTINUOUS
 10
18.2670033323
 20
2.3899250823
 40
0.0383802683
100
AcDbArc
 50
288.7656836787
 51
309.6104317088
  0
ARC
  5
275
100
AcDbEntity
  8
0
100
AcDbCircle
 62
2
  6
CONTINUOUS
 10
18.2727412998
 20
2.372338333
 40
0.0198837666
100
AcDbArc
 50
271.8586572978
 51
289.4131338543
  0
LINE
  5
276
100
AcDbEntity
  8
0
100
AcDbLine
 62
2
  6
CONTINUOUS
 10
18.2733862098
 20
2.3524650276
 11
18.2260221836
 21
2.3524650276
  0
ARC
  5
277
100
AcDbEntity
  8
0
100
AcDbCircle
 62
2
  6
CONTINUOUS
 10
18.2268275043
 20
2.3697871793
 40
0.0173408616
100
AcDbArc
 50
232.4713476722
 51
267.338189944
  0
ARC
  5
278
100
AcDbEntity
  8
0
100
AcDbCircle
 62
2
  6
CONTINUOUS
 10
18.2299260692
 20
2.3756374832
 40
0.0238935861
100
AcDbArc
 50
209.8247607259
 51
235.1255079367
  0
ARC
  5
279
100
AcDbEntity
  8
0
100
AcDbCircle
 62
2
  6
CONTINUOUS
 10
18.1986405119
 20
2.4241492153
 40
0.0110815393
100
AcDbArc
 50
306.758405961
 51
320.4502234234
  0
ARC
  5
27A
100
AcDbEntity
  8
0
100
AcDbCircle
 62
2
  6
CONTINUOUS
 10
18.1930113209
 20
2.4318900438
 40
0.0206523367
100
AcDbArc
 50
289.6883413472
 51
306.4184925496
  0
ARC
  5
27B
100
AcDbEntity
  8
0
100
AcDbCircle
 62
2
  6
CONTINUOUS
 10
18.1910838152
 20
2.4362836911
 40
0.0254407115
100
AcDbArc
 50
270.7327484175
 51
290.441894219
  0
LINE
  5
27C
100
AcDbEntity
  8
0
100
AcDbLine
 62
2
  6
CONTINUOUS
 10
18.1914091644
 20
2.41084506
 11
18.1574721456
 21
2.41084506
  0
ARC
  5
27D
100
AcDbEntity
  8
0
100
AcDbCircle
 62
2
  6
CONTINUOUS
 10
18.1574721437
 20
2.4133200595
 40
0.0024749995
100
AcDbArc
 50
179.9999571957
 51
270.0000428043
  0
LINE
  5
27E
100
AcDbEntity
  8
0
100
AcDbLine
 62
2
  6
CONTINUOUS
 10
18.1549971442
 20
2.4133200614
 11
18.1549971442
 21
2.4260450684
  0
ARC
  5
27F
100
AcDbEntity
  8
0
100
AcDbCircle
 62
2
  6
CONTINUOUS
 10
18.1574721437
 20
2.4260450703
 40
0.0024749995
100
AcDbArc
 50
89.9999571957
 51
180.0000428043
  0
LINE
  5
280
100
AcDbEntity
  8
0
100
AcDbLine
 62
2
  6
CONTINUOUS
 10
18.1574721456
 20
2.4285200698
 11
18.194273166
 21
2.4285200698
  0
ARC
  5
281
100
AcDbEntity
  8
0
100
AcDbCircle
 62
2
  6
CONTINUOUS
 10
18.1927282785
 20
2.4000655908
 40
0.0284963867
100
AcDbArc
 50
70.3834917948
 51
86.8922743861
  0
ARC
  5
282
100
AcDbEntity
  8
0
100
AcDbCircle
 62
2
  6
CONTINUOUS
 10
18.1975878885
 20
2.4131073238
 40
0.0145814632
100
AcDbArc
 50
54.6746025112
 51
71.1660573124
  0
ARC
  5
283
100
AcDbEntity
  8
0
100
AcDbCircle
 62
2
  6
CONTINUOUS
 10
18.2027173795
 20
2.419961249
 40
0.0060275915
100
AcDbArc
 50
20.9055592135
 51
56.7851676243
  0
ARC
  5
284
100
AcDbEntity
  8
0
100
AcDbCircle
 62
2
  6
CONTINUOUS
 10
18.2040179384
 20
2.4206215312
 40
0.0045795888
100
AcDbArc
 50
355.6235353944
 51
18.9942678268
  0
ARC
  5
285
100
AcDbEntity
  8
0
100
AcDbCircle
 62
2
  6
CONTINUOUS
 10
18.202811128
 20
2.4209153074
 40
0.0058087709
100
AcDbArc
 50
318.8515287446
 51
353.6422345323
  0
LINE
  5
286
100
AcDbEntity
  8
0
100
AcDbLine
 62
2
  6
CONTINUOUS
 10
17.341467693
 20
2.4532700835
 11
17.4419257488
 21
2.4532700835
  0
ARC
  5
287
100
AcDbEntity
  8
0
100
AcDbCircle
 62
2
  6
CONTINUOUS
 10
17.4419258835
 20
2.4507959157
 40
0.0024741678
100
AcDbArc
 50
46.3477981898
 51
90.0031206038
  0
LINE
  5
288
100
AcDbEntity
  8
0
100
AcDbLine
 62
2
  6
CONTINUOUS
 10
17.4436337497
 20
2.4525860832
 11
17.503666783
 21
2.3953060514
  0
ARC
  5
289
100
AcDbEntity
  8
0
100
AcDbCircle
 62
2
  6
CONTINUOUS
 10
17.5053754839
 20
2.3970969891
 40
0.0024753014
100
AcDbArc
 50
226.3461263059
 51
0.0014637322
  0
LINE
  5
28A
100
AcDbEntity
  8
0
100
AcDbLine
 62
2
  6
CONTINUOUS
 10
17.5078507853
 20
2.3970970524
 11
17.5078507853
 21
2.4260450684
  0
ARC
  5
28B
100
AcDbEntity
  8
0
100
AcDbCircle
 62
2
  6
CONTINUOUS
 10
17.5053757858
 20
2.4260450703
 40
0.0024749995
100
AcDbArc
 50
359.9999571957
 51
90.0000428043
  0
LINE
  5
28C
100
AcDbEntity
  8
0
100
AcDbLine
 62
2
  6
CONTINUOUS
 10
17.5053757839
 20
2.4285200698
 11
17.4865997735
 21
2.4285200698
  0
ARC
  5
28D
100
AcDbEntity
  8
0
100
AcDbCircle
 62
2
  6
CONTINUOUS
 10
17.4865997717
 20
2.4309950693
 40
0.0024749995
100
AcDbArc
 50
179.9999571957
 51
270.0000428043
  0
LINE
  5
28E
100
AcDbEntity
  8
0
100
AcDbLine
 62
2
  6
CONTINUOUS
 10
17.4841247722
 20
2.4309950712
 11
17.4841247722
 21
2.4507950822
  0
ARC
  5
28F
100
AcDbEntity
  8
0
100
AcDbCircle
 62
2
  6
CONTINUOUS
 10
17.4865997717
 20
2.450795084
 40
0.0024749995
100
AcDbArc
 50
89.9999571957
 51
180.0000428043
  0
LINE
  5
290
100
AcDbEntity
  8
0
100
AcDbLine
 62
2
  6
CONTINUOUS
 10
17.4865997735
 20
2.4532700835
 11
17.5606008146
 21
2.4532700835
  0
ARC
  5
291
100
AcDbEntity
  8
0
100
AcDbCircle
 62
2
  6
CONTINUOUS
 10
17.5606008164
 20
2.450795084
 40
0.0024749995
100
AcDbArc
 50
359.9999571957
 51
90.0000428043
  0
LINE
  5
292
100
AcDbEntity
  8
0
100
AcDbLine
 62
2
  6
CONTINUOUS
 10
17.5630758159
 20
2.4507950822
 11
17.5630758159
 21
2.4309950712
  0
ARC
  5
293
100
AcDbEntity
  8
0
100
AcDbCircle
 62
2
  6
CONTINUOUS
 10
17.5606008164
 20
2.4309950693
 40
0.0024749995
100
AcDbArc
 50
269.9999571957
 51
0.0000428043
  0
LINE
  5
294
100
AcDbEntity
  8
0
100
AcDbLine
 62
2
  6
CONTINUOUS
 10
17.5606008146
 20
2.4285200698
 11
17.5426678046
 21
2.4285200698
  0
ARC
  5
295
100
AcDbEntity
  8
0
100
AcDbCircle
 62
2
  6
CONTINUOUS
 10
17.5426678028
 20
2.4260450703
 40
0.0024749995
100
AcDbArc
 50
89.9999571957
 51
180.0000428043
  0
LINE
  5
296
100
AcDbEntity
  8
0
100
AcDbLine
 62
2
  6
CONTINUOUS
 10
17.5401928032
 20
2.4260450684
 11
17.5401928032
 21
2.354940029
  0
ARC
  5
297
100
AcDbEntity
  8
0
100
AcDbCircle
 62
2
  6
CONTINUOUS
 10
17.5377178037
 20
2.3549400272
 40
0.0024749995
100
AcDbArc
 50
269.9999571957
 51
0.0000428043
  0
LINE
  5
298
100
AcDbEntity
  8
0
100
AcDbLine
 62
2
  6
CONTINUOUS
 10
17.5377178019
 20
2.3524650276
 11
17.4635127607
 21
2.3524650276
  0
ARC
  5
299
100
AcDbEntity
  8
0
100
AcDbCircle
 62
2
  6
CONTINUOUS
 10
17.463512126
 20
2.3549404438
 40
0.0024754162
100
AcDbArc
 50
226.3593695813
 51
270.0146919953
  0
LINE
  5
29A
100
AcDbEntity
  8
0
100
AcDbLine
 62
2
  6
CONTINUOUS
 10
17.4618037598
 20
2.353149028
 11
17.3985237247
 21
2.4135270615
  0
ARC
  5
29B
100
AcDbEntity
  8
0
100
AcDbCircle
 62
2
  6
CONTINUOUS
 10
17.3968150237
 20
2.4117361237
 40
0.0024753014
100
AcDbArc
 50
46.3461263059
 51
180.0014637321
  0
LINE
  5
29C
100
AcDbEntity
  8
0
100
AcDbLine
 62
2
  6
CONTINUOUS
 10
17.3943397224
 20
2.4117360605
 11
17.3943397224
 21
2.3796900427
  0
ARC
  5
29D
100
AcDbEntity
  8
0
100
AcDbCircle
 62
2
  6
CONTINUOUS
 10
17.3968147219
 20
2.3796900409
 40
0.0024749995
100
AcDbArc
 50
179.9999571957
 51
270.0000428043
  0
LINE
  5
29E
100
AcDbEntity
  8
0
100
AcDbLine
 62
2
  6
CONTINUOUS
 10
17.3968147237
 20
2.3772150414
 11
17.417131735
 21
2.3772150414
  0
ARC
  5
29F
100
AcDbEntity
  8
0
100
AcDbCircle
 62
2
  6
CONTINUOUS
 10
17.4171317369
 20
2.3747400418
 40
0.0024749995
100
AcDbArc
 50
359.9999571957
 51
90.0000428043
  0
LINE
  5
2A0
100
AcDbEntity
  8
0
100
AcDbLine
 62
2
  6
CONTINUOUS
 10
17.4196067364
 20
2.37474004
 11
17.4196067364
 21
2.354940029
  0
ARC
  5
2A1
100
AcDbEntity
  8
0
100
AcDbCircle
 62
2
  6
CONTINUOUS
 10
17.4171317369
 20
2.3549400272
 40
0.0024749995
100
AcDbArc
 50
269.9999571957
 51
0.0000428043
  0
LINE
  5
2A2
100
AcDbEntity
  8
0
100
AcDbLine
 62
2
  6
CONTINUOUS
 10
17.417131735
 20
2.3524650276
 11
17.341467693
 21
2.3524650276
  0
ARC
  5
2A3
100
AcDbEntity
  8
0
100
AcDbCircle
 62
2
  6
CONTINUOUS
 10
17.3414676912
 20
2.3549400272
 40
0.0024749995
100
AcDbArc
 50
179.9999571957
 51
270.0000428043
  0
LINE
  5
2A4
100
AcDbEntity
  8
0
100
AcDbLine
 62
2
  6
CONTINUOUS
 10
17.3389926917
 20
2.354940029
 11
17.3389926917
 21
2.37474004
  0
ARC
  5
2A5
100
AcDbEntity
  8
0
100
AcDbCircle
 62
2
  6
CONTINUOUS
 10
17.3414676912
 20
2.3747400418
 40
0.0024749995
100
AcDbArc
 50
89.9999571957
 51
180.0000428043
  0
LINE
  5
2A6
100
AcDbEntity
  8
0
100
AcDbLine
 62
2
  6
CONTINUOUS
 10
17.341467693
 20
2.3772150414
 11
17.3601147034
 21
2.3772150414
  0
ARC
  5
2A7
100
AcDbEntity
  8
0
100
AcDbCircle
 62
2
  6
CONTINUOUS
 10
17.3601147052
 20
2.3796900409
 40
0.0024749995
100
AcDbArc
 50
269.9999571957
 51
0.0000428043
  0
LINE
  5
2A8
100
AcDbEntity
  8
0
100
AcDbLine
 62
2
  6
CONTINUOUS
 10
17.3625897048
 20
2.3796900427
 11
17.3625897048
 21
2.4260450684
  0
ARC
  5
2A9
100
AcDbEntity
  8
0
100
AcDbCircle
 62
2
  6
CONTINUOUS
 10
17.3601147052
 20
2.4260450703
 40
0.0024749995
100
AcDbArc
 50
359.9999571957
 51
90.0000428043
  0
LINE
  5
2AA
100
AcDbEntity
  8
0
100
AcDbLine
 62
2
  6
CONTINUOUS
 10
17.3601147034
 20
2.4285200698
 11
17.341467693
 21
2.4285200698
  0
ARC
  5
2AB
100
AcDbEntity
  8
0
100
AcDbCircle
 62
2
  6
CONTINUOUS
 10
17.3414676912
 20
2.4309950693
 40
0.0024749995
100
AcDbArc
 50
179.9999571957
 51
270.0000428043
  0
LINE
  5
2AC
100
AcDbEntity
  8
0
100
AcDbLine
 62
2
  6
CONTINUOUS
 10
17.3389926917
 20
2.4309950712
 11
17.3389926917
 21
2.4507950822
  0
ARC
  5
2AD
100
AcDbEntity
  8
0
100
AcDbCircle
 62
2
  6
CONTINUOUS
 10
17.3414676912
 20
2.450795084
 40
0.0024749995
100
AcDbArc
 50
89.9999571957
 51
180.0000428043
  0
LINE
  5
2AE
100
AcDbEntity
  8
0
100
AcDbLine
 62
2
  6
CONTINUOUS
 10
17.1937676111
 20
2.4268270689
 11
17.1866506072
 21
2.4156100627
  0
ARC
  5
2AF
100
AcDbEntity
  8
0
100
AcDbCircle
 62
2
  6
CONTINUOUS
 10
17.188740499
 20
2.4142841006
 40
0.0024750401
100
AcDbArc
 50
147.6063258012
 51
270.0025305754
  0
LINE
  5
2B0
100
AcDbEntity
  8
0
100
AcDbLine
 62
2
  6
CONTINUOUS
 10
17.1887406083
 20
2.4118090605
 11
17.2092976197
 21
2.4118090605
  0
ARC
  5
2B1
100
AcDbEntity
  8
0
100
AcDbCircle
 62
2
  6
CONTINUOUS
 10
17.2092975986
 20
2.4142842677
 40
0.0024752071
100
AcDbArc
 50
270.0004896793
 51
32.9089806818
  0
LINE
  5
2B2
100
AcDbEntity
  8
0
100
AcDbLine
 62
2
  6
CONTINUOUS
 10
17.2113756209
 20
2.4156290627
 11
17.2041166169
 21
2.4268450689
  0
ARC
  5
2B3
100
AcDbEntity
  8
0
100
AcDbCircle
 62
2
  6
CONTINUOUS
 10
17.2020380761
 20
2.4255006094
 40
0.0024754602
100
AcDbArc
 50
32.8959418573
 51
89.9875097202
  0
LINE
  5
2B4
100
AcDbEntity
  8
0
100
AcDbLine
 62
2
  6
CONTINUOUS
 10
17.2020386157
 20
2.4279760695
 11
17.1958576123
 21
2.4279760695
  0
ARC
  5
2B5
100
AcDbEntity
  8
0
100
AcDbCircle
 62
2
  6
CONTINUOUS
 10
17.195857542
 20
2.4255008692
 40
0.0024752003
100
AcDbArc
 50
89.998372645
 51
147.602165307
  0
LINE
  5
2B6
100
AcDbEntity
  8
0
100
AcDbLine
 62
2
  6
CONTINUOUS
 10
17.2171806241
 20
2.3897280483
 11
17.2228066272
 21
2.3810350435
  0
ARC
  5
2B7
100
AcDbEntity
  8
0
100
AcDbCircle
 62
2
  6
CONTINUOUS
 10
17.2207286049
 20
2.3796902485
 40
0.0024752071
100
AcDbArc
 50
270.0004896793
 51
32.9089806818
  0
LINE
  5
2B8
100
AcDbEntity
  8
0
100
AcDbLine
 62
2
  6
CONTINUOUS
 10
17.2207286261
 20
2.3772150414
 11
17.2062776181
 21
2.3772150414
  0
ARC
  5
2B9
100
AcDbEntity
  8
0
100
AcDbCircle
 62
2
  6
CONTINUOUS
 10
17.2062776162
 20
2.3747400418
 40
0.0024749995
100
AcDbArc
 50
89.9999571957
 51
180.0000428043
  0
LINE
  5
2BA
100
AcDbEntity
  8
0
100
AcDbLine
 62
2
  6
CONTINUOUS
 10
17.2038026167
 20
2.37474004
 11
17.2038026167
 21
2.354940029
  0
ARC
  5
2BB
100
AcDbEntity
  8
0
100
AcDbCircle
 62
2
  6
CONTINUOUS
 10
17.2062776162
 20
2.3549400272
 40
0.0024749995
100
AcDbArc
 50
179.9999571957
 51
270.0000428043
  0
LINE
  5
2BC
100
AcDbEntity
  8
0
100
AcDbLine
 62
2
  6
CONTINUOUS
 10
17.2062776181
 20
2.3524650276
 11
17.3115586765
 21
2.3524650276
  0
ARC
  5
2BD
100
AcDbEntity
  8
0
100
AcDbCircle
 62
2
  6
CONTINUOUS
 10
17.3115586783
 20
2.3549400272
 40
0.0024749995
100
AcDbArc
 50
269.9999571957
 51
0.0000428043
  0
LINE
  5
2BE
100
AcDbEntity
  8
0
100
AcDbLine
 62
2
  6
CONTINUOUS
 10
17.3140336778
 20
2.354940029
 11
17.3140336778
 21
2.37474004
  0
ARC
  5
2BF
100
AcDbEntity
  8
0
100
AcDbCircle
 62
2
  6
CONTINUOUS
 10
17.3115586783
 20
2.3747400418
 40
0.0024749995
100
AcDbArc
 50
359.9999571957
 51
90.0000428043
  0
LINE
  5
2C0
100
AcDbEntity
  8
0
100
AcDbLine
 62
2
  6
CONTINUOUS
 10
17.3115586765
 20
2.3772150414
 11
17.2915426654
 21
2.3772150414
  0
ARC
  5
2C1
100
AcDbEntity
  8
0
100
AcDbCircle
 62
2
  6
CONTINUOUS
 10
17.2915427859
 20
2.3796890824
 40
0.002474041
100
AcDbArc
 50
212.9056413127
 51
269.9972091756
  0
LINE
  5
2C2
100
AcDbEntity
  8
0
100
AcDbLine
 62
2
  6
CONTINUOUS
 10
17.2894656642
 20
2.378345042
 11
17.2417096377
 21
2.4521400829
  0
ARC
  5
2C3
100
AcDbEntity
  8
0
100
AcDbCircle
 62
2
  6
CONTINUOUS
 10
17.2396320161
 20
2.4507951234
 40
0.0024749602
100
AcDbArc
 50
32.9172174468
 51
90.0087853097
  0
LINE
  5
2C4
100
AcDbEntity
  8
0
100
AcDbLine
 62
2
  6
CONTINUOUS
 10
17.2396316366
 20
2.4532700835
 11
17.1824566049
 21
2.4532700835
  0
ARC
  5
2C5
100
AcDbEntity
  8
0
100
AcDbCircle
 62
2
  6
CONTINUOUS
 10
17.1824565346
 20
2.4507948832
 40
0.0024752003
100
AcDbArc
 50
89.998372645
 51
147.602165307
  0
LINE
  5
2C6
100
AcDbEntity
  8
0
100
AcDbLine
 62
2
  6
CONTINUOUS
 10
17.1803666037
 20
2.4521210829
 11
17.1335665777
 21
2.378364042
  0
ARC
  5
2C7
100
AcDbEntity
  8
0
100
AcDbCircle
 62
2
  6
CONTINUOUS
 10
17.1314766469
 20
2.3796902417
 40
0.0024752003
100
AcDbArc
 50
269.998372645
 51
327.602165307
  0
LINE
  5
2C8
100
AcDbEntity
  8
0
100
AcDbLine
 62
2
  6
CONTINUOUS
 10
17.1314765766
 20
2.3772150414
 11
17.1086155639
 21
2.3772150414
  0
ARC
  5
2C9
100
AcDbEntity
  8
0
100
AcDbCircle
 62
2
  6
CONTINUOUS
 10
17.1086155621
 20
2.3747400418
 40
0.0024749995
100
AcDbArc
 50
89.9999571957
 51
180.0000428043
  0
LINE
  5
2CA
100
AcDbEntity
  8
0
100
AcDbLine
 62
2
  6
CONTINUOUS
 10
17.1061405625
 20
2.37474004
 11
17.1061405625
 21
2.354940029
  0
ARC
  5
2CB
100
AcDbEntity
  8
0
100
AcDbCircle
 62
2
  6
CONTINUOUS
 10
17.1086155621
 20
2.3549400272
 40
0.0024749995
100
AcDbArc
 50
179.9999571957
 51
270.0000428043
  0
LINE
  5
2CC
100
AcDbEntity
  8
0
100
AcDbLine
 62
2
  6
CONTINUOUS
 10
17.1086155639
 20
2.3524650276
 11
17.1859916068
 21
2.3524650276
  0
ARC
  5
2CD
100
AcDbEntity
  8
0
100
AcDbCircle
 62
2
  6
CONTINUOUS
 10
17.1859916087
 20
2.3549400272
 40
0.0024749995
100
AcDbArc
 50
269.9999571957
 51
0.0000428043
  0
LINE
  5
2CE
100
AcDbEntity
  8
0
100
AcDbLine
 62
2
  6
CONTINUOUS
 10
17.1884666082
 20
2.354940029
 11
17.1884666082
 21
2.37474004
  0
ARC
  5
2CF
100
AcDbEntity
  8
0
100
AcDbCircle
 62
2
  6
CONTINUOUS
 10
17.1859916087
 20
2.3747400418
 40
0.0024749995
100
AcDbArc
 50
359.9999571957
 51
90.0000428043
  0
LINE
  5
2D0
100
AcDbEntity
  8
0
100
AcDbLine
 62
2
  6
CONTINUOUS
 10
17.1859916068
 20
2.3772150414
 11
17.1747086006
 21
2.3772150414
  0
ARC
  5
2D1
100
AcDbEntity
  8
0
100
AcDbCircle
 62
2
  6
CONTINUOUS
 10
17.1747084912
 20
2.3796900814
 40
0.0024750401
100
AcDbArc
 50
147.6063258011
 51
270.0025305754
  0
LINE
  5
2D2
100
AcDbEntity
  8
0
100
AcDbLine
 62
2
  6
CONTINUOUS
 10
17.1726185994
 20
2.3810160435
 11
17.1781346025
 21
2.3897100483
  0
ARC
  5
2D3
100
AcDbEntity
  8
0
100
AcDbCircle
 62
2
  6
CONTINUOUS
 10
17.1802245333
 20
2.3883838486
 40
0.0024752003
100
AcDbArc
 50
89.998372645
 51
147.602165307
  0
LINE
  5
2D4
100
AcDbEntity
  8
0
100
AcDbLine
 62
2
  6
CONTINUOUS
 10
17.1802246036
 20
2.3908590489
 11
17.215102623
 21
2.3908590489
  0
ARC
  5
2D5
100
AcDbEntity
  8
0
100
AcDbCircle
 62
2
  6
CONTINUOUS
 10
17.2151020833
 20
2.3883835888
 40
0.0024754602
100
AcDbArc
 50
32.8959418573
 51
89.9875097202
  0
LINE
  5
2D6
100
AcDbEntity
  8
0
100
AcDbLine
 62
2
  6
CONTINUOUS
 10
17.5897208307
 20
2.4532700835
 11
17.6901788864
 21
2.4532700835
  0
ARC
  5
2D7
100
AcDbEntity
  8
0
100
AcDbCircle
 62
2
  6
CONTINUOUS
 10
17.6901790212
 20
2.4507959157
 40
0.0024741678
100
AcDbArc
 50
46.3477981899
 51
90.0031206038
  0
LINE
  5
2D8
100
AcDbEntity
  8
0
100
AcDbLine
 62
2
  6
CONTINUOUS
 10
17.6918868874
 20
2.4525860832
 11
17.7519199207
 21
2.3953060514
  0
ARC
  5
2D9
100
AcDbEntity
  8
0
100
AcDbCircle
 62
2
  6
CONTINUOUS
 10
17.7536286216
 20
2.3970969891
 40
0.0024753014
100
AcDbArc
 50
226.3461263059
 51
0.0014637321
  0
LINE
  5
2DA
100
AcDbEntity
  8
0
100
AcDbLine
 62
2
  6
CONTINUOUS
 10
17.756103923
 20
2.3970970524
 11
17.756103923
 21
2.4260450684
  0
ARC
  5
2DB
100
AcDbEntity
  8
0
100
AcDbCircle
 62
2
  6
CONTINUOUS
 10
17.7536289235
 20
2.4260450703
 40
0.0024749995
100
AcDbArc
 50
359.9999571957
 51
90.0000428043
  0
LINE
  5
2DC
100
AcDbEntity
  8
0
100
AcDbLine
 62
2
  6
CONTINUOUS
 10
17.7536289216
 20
2.4285200698
 11
17.7348529112
 21
2.4285200698
  0
ARC
  5
2DD
100
AcDbEntity
  8
0
100
AcDbCircle
 62
2
  6
CONTINUOUS
 10
17.7348529093
 20
2.4309950693
 40
0.0024749995
100
AcDbArc
 50
179.9999571957
 51
270.0000428043
  0
LINE
  5
2DE
100
AcDbEntity
  8
0
100
AcDbLine
 62
2
  6
CONTINUOUS
 10
17.7323779098
 20
2.4309950712
 11
17.7323779098
 21
2.4507950822
  0
ARC
  5
2DF
100
AcDbEntity
  8
0
100
AcDbCircle
 62
2
  6
CONTINUOUS
 10
17.7348529093
 20
2.450795084
 40
0.0024749995
100
AcDbArc
 50
89.9999571957
 51
180.0000428043
  0
LINE
  5
2E0
100
AcDbEntity
  8
0
100
AcDbLine
 62
2
  6
CONTINUOUS
 10
17.7348529112
 20
2.4532700835
 11
17.8088539522
 21
2.4532700835
  0
ARC
  5
2E1
100
AcDbEntity
  8
0
100
AcDbCircle
 62
2
  6
CONTINUOUS
 10
17.8088539541
 20
2.450795084
 40
0.0024749995
100
AcDbArc
 50
359.9999571957
 51
90.0000428043
  0
LINE
  5
2E2
100
AcDbEntity
  8
0
100
AcDbLine
 62
2
  6
CONTINUOUS
 10
17.8113289536
 20
2.4507950822
 11
17.8113289536
 21
2.4309950712
  0
ARC
  5
2E3
100
AcDbEntity
  8
0
100
AcDbCircle
 62
2
  6
CONTINUOUS
 10
17.8088539541
 20
2.4309950693
 40
0.0024749995
100
AcDbArc
 50
269.9999571957
 51
0.0000428043
  0
LINE
  5
2E4
100
AcDbEntity
  8
0
100
AcDbLine
 62
2
  6
CONTINUOUS
 10
17.8088539522
 20
2.4285200698
 11
17.7909209423
 21
2.4285200698
  0
ARC
  5
2E5
100
AcDbEntity
  8
0
100
AcDbCircle
 62
2
  6
CONTINUOUS
 10
17.7909209404
 20
2.4260450703
 40
0.0024749995
100
AcDbArc
 50
89.9999571957
 51
180.0000428043
  0
LINE
  5
2E6
100
AcDbEntity
  8
0
100
AcDbLine
 62
2
  6
CONTINUOUS
 10
17.7884459409
 20
2.4260450684
 11
17.7884459409
 21
2.354940029
  0
ARC
  5
2E7
100
AcDbEntity
  8
0
100
AcDbCircle
 62
2
  6
CONTINUOUS
 10
17.7859709414
 20
2.3549400272
 40
0.0024749995
100
AcDbArc
 50
269.9999571957
 51
0.0000428043
  0
LINE
  5
2E8
100
AcDbEntity
  8
0
100
AcDbLine
 62
2
  6
CONTINUOUS
 10
17.7859709395
 20
2.3524650276
 11
17.7117648984
 21
2.3524650276
  0
ARC
  5
2E9
100
AcDbEntity
  8
0
100
AcDbCircle
 62
2
  6
CONTINUOUS
 10
17.7117647636
 20
2.3549391954
 40
0.0024741678
100
AcDbArc
 50
226.3477981898
 51
270.0031206038
  0
LINE
  5
2EA
100
AcDbEntity
  8
0
100
AcDbLine
 62
2
  6
CONTINUOUS
 10
17.7100568974
 20
2.353149028
 11
17.6467768624
 21
2.4135270615
  0
ARC
  5
2EB
100
AcDbEntity
  8
0
100
AcDbCircle
 62
2
  6
CONTINUOUS
 10
17.6450681614
 20
2.4117361237
 40
0.0024753014
100
AcDbArc
 50
46.3461263059
 51
180.0014637321
  0
LINE
  5
2EC
100
AcDbEntity
  8
0
100
AcDbLine
 62
2
  6
CONTINUOUS
 10
17.64259286
 20
2.4117360605
 11
17.64259286
 21
2.3796900427
  0
ARC
  5
2ED
100
AcDbEntity
  8
0
100
AcDbCircle
 62
2
  6
CONTINUOUS
 10
17.6450678596
 20
2.3796900409
 40
0.0024749995
100
AcDbArc
 50
179.9999571957
 51
270.0000428043
  0
LINE
  5
2EE
100
AcDbEntity
  8
0
100
AcDbLine
 62
2
  6
CONTINUOUS
 10
17.6450678614
 20
2.3772150414
 11
17.6653848727
 21
2.3772150414
  0
ARC
  5
2EF
100
AcDbEntity
  8
0
100
AcDbCircle
 62
2
  6
CONTINUOUS
 10
17.6653848745
 20
2.3747400418
 40
0.0024749995
100
AcDbArc
 50
359.9999571957
 51
90.0000428043
  0
LINE
  5
2F0
100
AcDbEntity
  8
0
100
AcDbLine
 62
2
  6
CONTINUOUS
 10
17.667859874
 20
2.37474004
 11
17.667859874
 21
2.354940029
  0
ARC
  5
2F1
100
AcDbEntity
  8
0
100
AcDbCircle
 62
2
  6
CONTINUOUS
 10
17.6653848745
 20
2.3549400272
 40
0.0024749995
100
AcDbArc
 50
269.9999571957
 51
0.0000428043
  0
LINE
  5
2F2
100
AcDbEntity
  8
0
100
AcDbLine
 62
2
  6
CONTINUOUS
 10
17.6653848727
 20
2.3524650276
 11
17.5897208307
 21
2.3524650276
  0
ARC
  5
2F3
100
AcDbEntity
  8
0
100
AcDbCircle
 62
2
  6
CONTINUOUS
 10
17.5897208289
 20
2.3549400272
 40
0.0024749995
100
AcDbArc
 50
179.9999571957
 51
270.0000428043
  0
LINE
  5
2F4
100
AcDbEntity
  8
0
100
AcDbLine
 62
2
  6
CONTINUOUS
 10
17.5872458293
 20
2.354940029
 11
17.5872458293
 21
2.37474004
  0
ARC
  5
2F5
100
AcDbEntity
  8
0
100
AcDbCircle
 62
2
  6
CONTINUOUS
 10
17.5897208289
 20
2.3747400418
 40
0.0024749995
100
AcDbArc
 50
89.9999571957
 51
180.0000428043
  0
LINE
  5
2F6
100
AcDbEntity
  8
0
100
AcDbLine
 62
2
  6
CONTINUOUS
 10
17.5897208307
 20
2.3772150414
 11
17.6083668411
 21
2.3772150414
  0
ARC
  5
2F7
100
AcDbEntity
  8
0
100
AcDbCircle
 62
2
  6
CONTINUOUS
 10
17.6083668429
 20
2.3796900409
 40
0.0024749995
100
AcDbArc
 50
269.9999571957
 51
0.0000428043
  0
LINE
  5
2F8
100
AcDbEntity
  8
0
100
AcDbLine
 62
2
  6
CONTINUOUS
 10
17.6108418424
 20
2.3796900427
 11
17.6108418424
 21
2.4260450684
  0
ARC
  5
2F9
100
AcDbEntity
  8
0
100
AcDbCircle
 62
2
  6
CONTINUOUS
 10
17.6083668429
 20
2.4260450703
 40
0.0024749995
100
AcDbArc
 50
359.9999571957
 51
90.0000428043
  0
LINE
  5
2FA
100
AcDbEntity
  8
0
100
AcDbLine
 62
2
  6
CONTINUOUS
 10
17.6083668411
 20
2.4285200698
 11
17.5897208307
 21
2.4285200698
  0
ARC
  5
2FB
100
AcDbEntity
  8
0
100
AcDbCircle
 62
2
  6
CONTINUOUS
 10
17.5897208289
 20
2.4309950693
 40
0.0024749995
100
AcDbArc
 50
179.9999571957
 51
270.0000428043
  0
LINE
  5
2FC
100
AcDbEntity
  8
0
100
AcDbLine
 62
2
  6
CONTINUOUS
 10
17.5872458293
 20
2.4309950712
 11
17.5872458293
 21
2.4507950822
  0
ARC
  5
2FD
100
AcDbEntity
  8
0
100
AcDbCircle
 62
2
  6
CONTINUOUS
 10
17.5897208289
 20
2.450795084
 40
0.0024749995
100
AcDbArc
 50
89.9999571957
 51
180.0000428043
  0
LINE
  5
2FE
100
AcDbEntity
  8
0
100
AcDbLine
 62
2
  6
CONTINUOUS
 10
17.9625500375
 20
2.3937150505
 11
17.927383018
 21
2.3937150505
  0
ARC
  5
2FF
100
AcDbEntity
  8
0
100
AcDbCircle
 62
2
  6
CONTINUOUS
 10
17.9273830161
 20
2.391240051
 40
0.0024749995
100
AcDbArc
 50
89.9999571957
 51
180.0000428043
  0
LINE
  5
300
100
AcDbEntity
  8
0
100
AcDbLine
 62
2
  6
CONTINUOUS
 10
17.9249080166
 20
2.3912400491
 11
17.9249080166
 21
2.3796900427
  0
ARC
  5
301
100
AcDbEntity
  8
0
100
AcDbCircle
 62
2
  6
CONTINUOUS
 10
17.9273830161
 20
2.3796900409
 40
0.0024749995
100
AcDbArc
 50
179.9999571957
 51
270.0000428043
  0
LINE
  5
302
100
AcDbEntity
  8
0
100
AcDbLine
 62
2
  6
CONTINUOUS
 10
17.927383018
 20
2.3772150414
 11
17.992387054
 21
2.3772150414
  0
ARC
  5
303
100
AcDbEntity
  8
0
100
AcDbCircle
 62
2
  6
CONTINUOUS
 10
17.9923870559
 20
2.3796900409
 40
0.0024749995
100
AcDbArc
 50
269.9999571957
 51
0.0000428043
  0
LINE
  5
304
100
AcDbEntity
  8
0
100
AcDbLine
 62
2
  6
CONTINUOUS
 10
17.9948620554
 20
2.3796900427
 11
17.9948620554
 21
2.3879400473
  0
ARC
  5
305
100
AcDbEntity
  8
0
100
AcDbCircle
 62
2
  6
CONTINUOUS
 10
17.9973370549
 20
2.3879400492
 40
0.0024749995
100
AcDbArc
 50
89.9999571957
 51
180.0000428043
  0
LINE
  5
306
100
AcDbEntity
  8
0
100
AcDbLine
 62
2
  6
CONTINUOUS
 10
17.9973370568
 20
2.3904150487
 11
18.0396560802
 21
2.3904150487
  0
ARC
  5
307
100
AcDbEntity
  8
0
100
AcDbCircle
 62
2
  6
CONTINUOUS
 10
18.0396560821
 20
2.3879400492
 40
0.0024749995
100
AcDbArc
 50
359.9999571957
 51
90.0000428043
  0
LINE
  5
308
100
AcDbEntity
  8
0
100
AcDbLine
 62
2
  6
CONTINUOUS
 10
18.0421310816
 20
2.3879400473
 11
18.0421310816
 21
2.354940029
  0
ARC
  5
309
100
AcDbEntity
  8
0
100
AcDbCircle
 62
2
  6
CONTINUOUS
 10
18.0396560821
 20
2.3549400272
 40
0.0024749995
100
AcDbArc
 50
269.9999571957
 51
0.0000428043
  0
LINE
  5
30A
100
AcDbEntity
  8
0
100
AcDbLine
 62
2
  6
CONTINUOUS
 10
18.0396560802
 20
2.3524650276
 11
17.8364439675
 21
2.3524650276
  0
ARC
  5
30B
100
AcDbEntity
  8
0
100
AcDbCircle
 62
2
  6
CONTINUOUS
 10
17.8364439657
 20
2.3549400272
 40
0.0024749995
100
AcDbArc
 50
179.9999571957
 51
270.0000428043
  0
LINE
  5
30C
100
AcDbEntity
  8
0
100
AcDbLine
 62
2
  6
CONTINUOUS
 10
17.8339689662
 20
2.354940029
 11
17.8339689662
 21
2.37474004
  0
ARC
  5
30D
100
AcDbEntity
  8
0
100
AcDbCircle
 62
2
  6
CONTINUOUS
 10
17.8364439657
 20
2.3747400418
 40
0.0024749995
100
AcDbArc
 50
89.9999571957
 51
180.0000428043
  0
LINE
  5
30E
100
AcDbEntity
  8
0
100
AcDbLine
 62
2
  6
CONTINUOUS
 10
17.8364439675
 20
2.3772150414
 11
17.8603669808
 21
2.3772150414
  0
ARC
  5
30F
100
AcDbEntity
  8
0
100
AcDbCircle
 62
2
  6
CONTINUOUS
 10
17.8603669827
 20
2.3796900409
 40
0.0024749995
100
AcDbArc
 50
269.9999571956
 51
0.0000428042
  0
LINE
  5
310
100
AcDbEntity
  8
0
100
AcDbLine
 62
2
  6
CONTINUOUS
 10
17.8628419822
 20
2.3796900427
 11
17.8628419822
 21
2.4260450684
  0
ARC
  5
311
100
AcDbEntity
  8
0
100
AcDbCircle
 62
2
  6
CONTINUOUS
 10
17.8603669827
 20
2.4260450703
 40
0.0024749995
100
AcDbArc
 50
359.9999571957
 51
90.0000428043
  0
LINE
  5
312
100
AcDbEntity
  8
0
100
AcDbLine
 62
2
  6
CONTINUOUS
 10
17.8603669808
 20
2.4285200698
 11
17.8364439675
 21
2.4285200698
  0
ARC
  5
313
100
AcDbEntity
  8
0
100
AcDbCircle
 62
2
  6
CONTINUOUS
 10
17.8364439657
 20
2.4309950693
 40
0.0024749995
100
AcDbArc
 50
179.9999571957
 51
270.0000428043
  0
LINE
  5
314
100
AcDbEntity
  8
0
100
AcDbLine
 62
2
  6
CONTINUOUS
 10
17.8339689662
 20
2.4309950712
 11
17.8339689662
 21
2.4507950822
  0
ARC
  5
315
100
AcDbEntity
  8
0
100
AcDbCircle
 62
2
  6
CONTINUOUS
 10
17.8364439657
 20
2.450795084
 40
0.0024749995
100
AcDbArc
 50
89.9999571957
 51
180.0000428043
  0
LINE
  5
316
100
AcDbEntity
  8
0
100
AcDbLine
 62
2
  6
CONTINUOUS
 10
17.8364439675
 20
2.4532700835
 11
18.0382370794
 21
2.4532700835
  0
ARC
  5
317
100
AcDbEntity
  8
0
100
AcDbCircle
 62
2
  6
CONTINUOUS
 10
18.0382370813
 20
2.450795084
 40
0.0024749995
100
AcDbArc
 50
359.9999571957
 51
90.0000428043
  0
LINE
  5
318
100
AcDbEntity
  8
0
100
AcDbLine
 62
2
  6
CONTINUOUS
 10
18.0407120808
 20
2.4507950822
 11
18.0407120808
 21
2.4177950639
  0
ARC
  5
319
100
AcDbEntity
  8
0
100
AcDbCircle
 62
2
  6
CONTINUOUS
 10
18.0382370813
 20
2.417795062
 40
0.0024749995
100
AcDbArc
 50
269.9999571957
 51
0.0000428043
  0
LINE
  5
31A
100
AcDbEntity
  8
0
100
AcDbLine
 62
2
  6
CONTINUOUS
 10
18.0382370794
 20
2.4153200625
 11
17.9963730562
 21
2.4153200625
  0
ARC
  5
31B
100
AcDbEntity
  8
0
100
AcDbCircle
 62
2
  6
CONTINUOUS
 10
17.9963730544
 20
2.417795062
 40
0.0024749995
100
AcDbArc
 50
179.9999571957
 51
270.0000428043
  0
LINE
  5
31C
100
AcDbEntity
  8
0
100
AcDbLine
 62
2
  6
CONTINUOUS
 10
17.9938980549
 20
2.4177950639
 11
17.9938980549
 21
2.4260450684
  0
ARC
  5
31D
100
AcDbEntity
  8
0
100
AcDbCircle
 62
2
  6
CONTINUOUS
 10
17.9914230553
 20
2.4260450703
 40
0.0024749995
100
AcDbArc
 50
359.9999571957
 51
90.0000428043
  0
LINE
  5
31E
100
AcDbEntity
  8
0
100
AcDbLine
 62
2
  6
CONTINUOUS
 10
17.9914230535
 20
2.4285200698
 11
17.927383018
 21
2.4285200698
  0
ARC
  5
31F
100
AcDbEntity
  8
0
100
AcDbCircle
 62
2
  6
CONTINUOUS
 10
17.9273830161
 20
2.4260450703
 40
0.0024749995
100
AcDbArc
 50
89.9999571957
 51
180.0000428043
  0
LINE
  5
320
100
AcDbEntity
  8
0
100
AcDbLine
 62
2
  6
CONTINUOUS
 10
17.9249080166
 20
2.4260450684
 11
17.9249080166
 21
2.414495062
  0
ARC
  5
321
100
AcDbEntity
  8
0
100
AcDbCircle
 62
2
  6
CONTINUOUS
 10
17.9273830161
 20
2.4144950602
 40
0.0024749995
100
AcDbArc
 50
179.9999571957
 51
270.0000428043
  0
LINE
  5
322
100
AcDbEntity
  8
0
100
AcDbLine
 62
2
  6
CONTINUOUS
 10
17.927383018
 20
2.4120200607
 11
17.9625500375
 21
2.4120200607
  0
ARC
  5
323
100
AcDbEntity
  8
0
100
AcDbCircle
 62
2
  6
CONTINUOUS
 10
17.9625500393
 20
2.4095450611
 40
0.0024749995
100
AcDbArc
 50
359.9999571957
 51
90.0000428043
  0
LINE
  5
324
100
AcDbEntity
  8
0
100
AcDbLine
 62
2
  6
CONTINUOUS
 10
17.9650250388
 20
2.4095450593
 11
17.9650250388
 21
2.3961900519
  0
ARC
  5
325
100
AcDbEntity
  8
0
100
AcDbCircle
 62
2
  6
CONTINUOUS
 10
17.9625500393
 20
2.39619005
 40
0.0024749995
100
AcDbArc
 50
269.9999571956
 51
0.0000428042
  0
LINE
  5
326
100
AcDbEntity
  8
0
100
AcDbLine
 62
2
  6
CONTINUOUS
 10
18.39781452
 20
2.3963074516
 11
18.39781452
 21
2.4069246582
  0
LINE
  5
327
100
AcDbEntity
  8
0
100
AcDbLine
 62
2
  6
CONTINUOUS
 10
18.3778145089
 20
2.3616679219
 11
18.3778145089
 21
2.4415641879
  0
LINE
  5
328
100
AcDbEntity
  8
0
100
AcDbLine
 62
2
  6
CONTINUOUS
 10
18.3578144978
 20
2.345629656
 11
18.3578144978
 21
2.4576024538
  0
LINE
  5
329
100
AcDbEntity
  8
0
100
AcDbLine
 62
2
  6
CONTINUOUS
 10
18.3378144867
 20
2.3338395042
 11
18.3378144867
 21
2.4693926055
  0
LINE
  5
32A
100
AcDbEntity
  8
0
100
AcDbLine
 62
2
  6
CONTINUOUS
 10
18.3178144756
 20
2.3240439832
 11
18.3178144756
 21
2.4791881266
  0
LINE
  5
32B
100
AcDbEntity
  8
0
100
AcDbLine
 62
2
  6
CONTINUOUS
 10
18.2978144645
 20
2.3153630651
 11
18.2978144645
 21
2.36748602
  0
LINE
  5
32C
100
AcDbEntity
  8
0
100
AcDbLine
 62
2
  6
CONTINUOUS
 10
18.2978144645
 20
2.3913520492
 11
18.2978144645
 21
2.4878690447
  0
LINE
  5
32D
100
AcDbEntity
  8
0
100
AcDbLine
 62
2
  6
CONTINUOUS
 10
18.2778144535
 20
2.3077915047
 11
18.2778144535
 21
2.3531152062
  0
LINE
  5
32E
100
AcDbEntity
  8
0
100
AcDbLine
 62
2
  6
CONTINUOUS
 10
18.2778144535
 20
2.3778158317
 11
18.2778144535
 21
2.4954406051
  0
LINE
  5
32F
100
AcDbEntity
  8
0
100
AcDbLine
 62
2
  6
CONTINUOUS
 10
18.2578144424
 20
2.301041061
 11
18.2578144424
 21
2.3524650276
  0
LINE
  5
330
100
AcDbEntity
  8
0
100
AcDbLine
 62
2
  6
CONTINUOUS
 10
18.2578144424
 20
2.4004217989
 11
18.2578144424
 21
2.4066675471
  0
LINE
  5
331
100
AcDbEntity
  8
0
100
AcDbLine
 62
2
  6
CONTINUOUS
 10
18.2578144424
 20
2.4474440616
 11
18.2578144424
 21
2.5021910487
  0
LINE
  5
332
100
AcDbEntity
  8
0
100
AcDbLine
 62
2
  6
CONTINUOUS
 10
18.2378144313
 20
2.2947079333
 11
18.2378144313
 21
2.3524650276
  0
LINE
  5
333
100
AcDbEntity
  8
0
100
AcDbLine
 62
2
  6
CONTINUOUS
 10
18.2378144313
 20
2.4518964909
 11
18.2378144313
 21
2.5085241764
  0
LINE
  5
334
100
AcDbEntity
  8
0
100
AcDbLine
 62
2
  6
CONTINUOUS
 10
18.2178144202
 20
2.2891345268
 11
18.2178144202
 21
2.354983815
  0
LINE
  5
335
100
AcDbEntity
  8
0
100
AcDbLine
 62
2
  6
CONTINUOUS
 10
18.2178144202
 20
2.4532700835
 11
18.2178144202
 21
2.514097583
  0
LINE
  5
336
100
AcDbEntity
  8
0
100
AcDbLine
 62
2
  6
CONTINUOUS
 10
18.1978144091
 20
2.2837804818
 11
18.1978144091
 21
2.3882804137
  0
LINE
  5
337
100
AcDbEntity
  8
0
100
AcDbLine
 62
2
  6
CONTINUOUS
 10
18.1978144091
 20
2.4117543403
 11
18.1978144091
 21
2.4281034235
  0
LINE
  5
338
100
AcDbEntity
  8
0
100
AcDbLine
 62
2
  6
CONTINUOUS
 10
18.1978144091
 20
2.4532700835
 11
18.1978144091
 21
2.519451628
  0
LINE
  5
339
100
AcDbEntity
  8
0
100
AcDbLine
 62
2
  6
CONTINUOUS
 10
18.177814398
 20
2.2789683935
 11
18.177814398
 21
2.3524650276
  0
LINE
  5
33A
100
AcDbEntity
  8
0
100
AcDbLine
 62
2
  6
CONTINUOUS
 10
18.177814398
 20
2.3771930413
 11
18.177814398
 21
2.3918420495
  0
LINE
  5
33B
100
AcDbEntity
  8
0
100
AcDbLine
 62
2
  6
CONTINUOUS
 10
18.177814398
 20
2.41084506
 11
18.177814398
 21
2.4285200698
  0
LINE
  5
33C
100
AcDbEntity
  8
0
100
AcDbLine
 62
2
  6
CONTINUOUS
 10
18.177814398
 20
2.4532700835
 11
18.177814398
 21
2.5242637163
  0
LINE
  5
33D
100
AcDbEntity
  8
0
100
AcDbLine
 62
2
  6
CONTINUOUS
 10
18.1578143869
 20
2.2744172398
 11
18.1578143869
 21
2.3524650276
  0
LINE
  5
33E
100
AcDbEntity
  8
0
100
AcDbLine
 62
2
  6
CONTINUOUS
 10
18.1578143869
 20
2.3771930413
 11
18.1578143869
 21
2.3918420495
  0
LINE
  5
33F
100
AcDbEntity
  8
0
100
AcDbLine
 62
2
  6
CONTINUOUS
 10
18.1578143869
 20
2.41084506
 11
18.1578143869
 21
2.4285200698
  0
LINE
  5
340
100
AcDbEntity
  8
0
100
AcDbLine
 62
2
  6
CONTINUOUS
 10
18.1578143869
 20
2.4532700835
 11
18.1578143869
 21
2.5288148699
  0
LINE
  5
341
100
AcDbEntity
  8
0
100
AcDbLine
 62
2
  6
CONTINUOUS
 10
18.1378143758
 20
2.2701196816
 11
18.1378143758
 21
2.3524650276
  0
LINE
  5
342
100
AcDbEntity
  8
0
100
AcDbLine
 62
2
  6
CONTINUOUS
 10
18.1378143758
 20
2.4532700835
 11
18.1378143758
 21
2.5331124282
  0
LINE
  5
343
100
AcDbEntity
  8
0
100
AcDbLine
 62
2
  6
CONTINUOUS
 10
18.1178143647
 20
2.2662469216
 11
18.1178143647
 21
2.3524650276
  0
LINE
  5
344
100
AcDbEntity
  8
0
100
AcDbLine
 62
2
  6
CONTINUOUS
 10
18.1178143647
 20
2.4532700835
 11
18.1178143647
 21
2.5369851882
  0
LINE
  5
345
100
AcDbEntity
  8
0
100
AcDbLine
 62
2
  6
CONTINUOUS
 10
18.0978143536
 20
2.2623741615
 11
18.0978143536
 21
2.3524650276
  0
LINE
  5
346
100
AcDbEntity
  8
0
100
AcDbLine
 62
2
  6
CONTINUOUS
 10
18.0978143536
 20
2.4532700835
 11
18.0978143536
 21
2.5408579483
  0
LINE
  5
347
100
AcDbEntity
  8
0
100
AcDbLine
 62
2
  6
CONTINUOUS
 10
18.0778143425
 20
2.2592603806
 11
18.0778143425
 21
2.3524650276
  0
LINE
  5
348
100
AcDbEntity
  8
0
100
AcDbLine
 62
2
  6
CONTINUOUS
 10
18.0778143425
 20
2.3772150414
 11
18.0778143425
 21
2.4285200698
  0
LINE
  5
349
100
AcDbEntity
  8
0
100
AcDbLine
 62
2
  6
CONTINUOUS
 10
18.0778143425
 20
2.4532700835
 11
18.0778143425
 21
2.5439717292
  0
LINE
  5
34A
100
AcDbEntity
  8
0
100
AcDbLine
 62
2
  6
CONTINUOUS
 10
18.0578143315
 20
2.2562429918
 11
18.0578143315
 21
2.546989118
  0
LINE
  5
34B
100
AcDbEntity
  8
0
100
AcDbLine
 62
2
  6
CONTINUOUS
 10
18.0378143204
 20
2.2532256029
 11
18.0378143204
 21
2.3524650276
  0
LINE
  5
34C
100
AcDbEntity
  8
0
100
AcDbLine
 62
2
  6
CONTINUOUS
 10
18.0378143204
 20
2.3904150487
 11
18.0378143204
 21
2.4153200625
  0
LINE
  5
34D
100
AcDbEntity
  8
0
100
AcDbLine
 62
2
  6
CONTINUOUS
 10
18.0378143204
 20
2.4532700835
 11
18.0378143204
 21
2.5500065068
  0
LINE
  5
34E
100
AcDbEntity
  8
0
100
AcDbLine
 62
2
  6
CONTINUOUS
 10
18.0178143093
 20
2.2502082141
 11
18.0178143093
 21
2.3524650276
  0
LINE
  5
34F
100
AcDbEntity
  8
0
100
AcDbLine
 62
2
  6
CONTINUOUS
 10
18.0178143093
 20
2.3904150487
 11
18.0178143093
 21
2.4153200625
  0
LINE
  5
350
100
AcDbEntity
  8
0
100
AcDbLine
 62
2
  6
CONTINUOUS
 10
18.0178143093
 20
2.4532700835
 11
18.0178143093
 21
2.5530238957
  0
LINE
  5
351
100
AcDbEntity
  8
0
100
AcDbLine
 62
2
  6
CONTINUOUS
 10
17.9978142982
 20
2.2471908253
 11
17.9978142982
 21
2.3524650276
  0
LINE
  5
352
100
AcDbEntity
  8
0
100
AcDbLine
 62
2
  6
CONTINUOUS
 10
17.9978142982
 20
2.3904150487
 11
17.9978142982
 21
2.4153200625
  0
LINE
  5
353
100
AcDbEntity
  8
0
100
AcDbLine
 62
2
  6
CONTINUOUS
 10
17.9978142982
 20
2.4532700835
 11
17.9978142982
 21
2.5560412845
  0
LINE
  5
354
100
AcDbEntity
  8
0
100
AcDbLine
 62
2
  6
CONTINUOUS
 10
17.9778142871
 20
2.2445732581
 11
17.9778142871
 21
2.3524650276
  0
LINE
  5
355
100
AcDbEntity
  8
0
100
AcDbLine
 62
2
  6
CONTINUOUS
 10
17.9778142871
 20
2.3772150414
 11
17.9778142871
 21
2.4285200698
  0
LINE
  5
356
100
AcDbEntity
  8
0
100
AcDbLine
 62
2
  6
CONTINUOUS
 10
17.9778142871
 20
2.4532700835
 11
17.9778142871
 21
2.5586588517
  0
LINE
  5
357
100
AcDbEntity
  8
0
100
AcDbLine
 62
2
  6
CONTINUOUS
 10
17.957814276
 20
2.2424989828
 11
17.957814276
 21
2.3524650276
  0
LINE
  5
358
100
AcDbEntity
  8
0
100
AcDbLine
 62
2
  6
CONTINUOUS
 10
17.957814276
 20
2.3772150414
 11
17.957814276
 21
2.3937150505
  0
LINE
  5
359
100
AcDbEntity
  8
0
100
AcDbLine
 62
2
  6
CONTINUOUS
 10
17.957814276
 20
2.4120200607
 11
17.957814276
 21
2.4285200698
  0
LINE
  5
35A
100
AcDbEntity
  8
0
100
AcDbLine
 62
2
  6
CONTINUOUS
 10
17.957814276
 20
2.4532700835
 11
17.957814276
 21
2.5607331269
  0
LINE
  5
35B
100
AcDbEntity
  8
0
100
AcDbLine
 62
2
  6
CONTINUOUS
 10
17.9378142649
 20
2.2404247076
 11
17.9378142649
 21
2.3524650276
  0
LINE
  5
35C
100
AcDbEntity
  8
0
100
AcDbLine
 62
2
  6
CONTINUOUS
 10
17.9378142649
 20
2.3772150414
 11
17.9378142649
 21
2.3937150505
  0
LINE
  5
35D
100
AcDbEntity
  8
0
100
AcDbLine
 62
2
  6
CONTINUOUS
 10
17.9378142649
 20
2.4120200607
 11
17.9378142649
 21
2.4285200698
  0
LINE
  5
35E
100
AcDbEntity
  8
0
100
AcDbLine
 62
2
  6
CONTINUOUS
 10
17.9378142649
 20
2.4532700835
 11
17.9378142649
 21
2.5628074022
  0
LINE
  5
35F
100
AcDbEntity
  8
0
100
AcDbLine
 62
2
  6
CONTINUOUS
 10
17.9178142538
 20
2.2383504324
 11
17.9178142538
 21
2.3524650276
  0
LINE
  5
360
100
AcDbEntity
  8
0
100
AcDbLine
 62
2
  6
CONTINUOUS
 10
17.9178142538
 20
2.4532700835
 11
17.9178142538
 21
2.5648816774
  0
LINE
  5
361
100
AcDbEntity
  8
0
100
AcDbLine
 62
2
  6
CONTINUOUS
 10
17.8978142427
 20
2.2362761572
 11
17.8978142427
 21
2.3524650276
  0
LINE
  5
362
100
AcDbEntity
  8
0
100
AcDbLine
 62
2
  6
CONTINUOUS
 10
17.8978142427
 20
2.4532700835
 11
17.8978142427
 21
2.5669559526
  0
LINE
  5
363
100
AcDbEntity
  8
0
100
AcDbLine
 62
2
  6
CONTINUOUS
 10
17.8778142316
 20
2.234201882
 11
17.8778142316
 21
2.3524650276
  0
LINE
  5
364
100
AcDbEntity
  8
0
100
AcDbLine
 62
2
  6
CONTINUOUS
 10
17.8778142316
 20
2.4532700835
 11
17.8778142316
 21
2.5690302278
  0
LINE
  5
365
100
AcDbEntity
  8
0
100
AcDbLine
 62
2
  6
CONTINUOUS
 10
17.8578142205
 20
2.23247216
 11
17.8578142205
 21
2.3524650276
  0
LINE
  5
366
100
AcDbEntity
  8
0
100
AcDbLine
 62
2
  6
CONTINUOUS
 10
17.8578142205
 20
2.3772150414
 11
17.8578142205
 21
2.4285200698
  0
LINE
  5
367
100
AcDbEntity
  8
0
100
AcDbLine
 62
2
  6
CONTINUOUS
 10
17.8578142205
 20
2.4532700835
 11
17.8578142205
 21
2.5707599498
  0
LINE
  5
368
100
AcDbEntity
  8
0
100
AcDbLine
 62
2
  6
CONTINUOUS
 10
17.8378142094
 20
2.2312059562
 11
17.8378142094
 21
2.3524650276
  0
LINE
  5
369
100
AcDbEntity
  8
0
100
AcDbLine
 62
2
  6
CONTINUOUS
 10
17.8378142094
 20
2.3772150414
 11
17.8378142094
 21
2.4285200698
  0
LINE
  5
36A
100
AcDbEntity
  8
0
100
AcDbLine
 62
2
  6
CONTINUOUS
 10
17.8378142094
 20
2.4532700835
 11
17.8378142094
 21
2.5720261536
  0
LINE
  5
36B
100
AcDbEntity
  8
0
100
AcDbLine
 62
2
  6
CONTINUOUS
 10
17.8178141984
 20
2.2299397525
 11
17.8178141984
 21
2.5732923573
  0
LINE
  5
36C
100
AcDbEntity
  8
0
100
AcDbLine
 62
2
  6
CONTINUOUS
 10
17.7978141873
 20
2.2286735487
 11
17.7978141873
 21
2.4285200698
  0
LINE
  5
36D
100
AcDbEntity
  8
0
100
AcDbLine
 62
2
  6
CONTINUOUS
 10
17.7978141873
 20
2.4532700835
 11
17.7978141873
 21
2.574558561
  0
LINE
  5
36E
100
AcDbEntity
  8
0
100
AcDbLine
 62
2
  6
CONTINUOUS
 10
17.7778141762
 20
2.227407345
 11
17.7778141762
 21
2.3524650276
  0
LINE
  5
36F
100
AcDbEntity
  8
0
100
AcDbLine
 62
2
  6
CONTINUOUS
 10
17.7778141762
 20
2.4532700835
 11
17.7778141762
 21
2.5758247648
  0
LINE
  5
370
100
AcDbEntity
  8
0
100
AcDbLine
 62
2
  6
CONTINUOUS
 10
17.7578141651
 20
2.2261411413
 11
17.7578141651
 21
2.3524650276
  0
LINE
  5
371
100
AcDbEntity
  8
0
100
AcDbLine
 62
2
  6
CONTINUOUS
 10
17.7578141651
 20
2.4532700835
 11
17.7578141651
 21
2.5770909685
  0
LINE
  5
372
100
AcDbEntity
  8
0
100
AcDbLine
 62
2
  6
CONTINUOUS
 10
17.737814154
 20
2.2249117066
 11
17.737814154
 21
2.3524650276
  0
LINE
  5
373
100
AcDbEntity
  8
0
100
AcDbLine
 62
2
  6
CONTINUOUS
 10
17.737814154
 20
2.4087649542
 11
17.737814154
 21
2.4285200698
  0
LINE
  5
374
100
AcDbEntity
  8
0
100
AcDbLine
 62
2
  6
CONTINUOUS
 10
17.737814154
 20
2.4532700835
 11
17.737814154
 21
2.5783204031
  0
LINE
  5
375
100
AcDbEntity
  8
0
100
AcDbLine
 62
2
  6
CONTINUOUS
 10
17.7178141429
 20
2.2243809174
 11
17.7178141429
 21
2.3524650276
  0
LINE
  5
376
100
AcDbEntity
  8
0
100
AcDbLine
 62
2
  6
CONTINUOUS
 10
17.7178141429
 20
2.4278478026
 11
17.7178141429
 21
2.5788511924
  0
LINE
  5
377
100
AcDbEntity
  8
0
100
AcDbLine
 62
2
  6
CONTINUOUS
 10
17.6978141318
 20
2.2238501282
 11
17.6978141318
 21
2.3648303444
  0
LINE
  5
378
100
AcDbEntity
  8
0
100
AcDbLine
 62
2
  6
CONTINUOUS
 10
17.6978141318
 20
2.446930651
 11
17.6978141318
 21
2.5793819816
  0
LINE
  5
379
100
AcDbEntity
  8
0
100
AcDbLine
 62
2
  6
CONTINUOUS
 10
17.6778141207
 20
2.223319339
 11
17.6778141207
 21
2.3839131616
  0
LINE
  5
37A
100
AcDbEntity
  8
0
100
AcDbLine
 62
2
  6
CONTINUOUS
 10
17.6778141207
 20
2.4532700835
 11
17.6778141207
 21
2.5799127708
  0
LINE
  5
37B
100
AcDbEntity
  8
0
100
AcDbLine
 62
2
  6
CONTINUOUS
 10
17.6578141096
 20
2.2227885498
 11
17.6578141096
 21
2.3524650276
  0
LINE
  5
37C
100
AcDbEntity
  8
0
100
AcDbLine
 62
2
  6
CONTINUOUS
 10
17.6578141096
 20
2.3772150414
 11
17.6578141096
 21
2.4029959788
  0
LINE
  5
37D
100
AcDbEntity
  8
0
100
AcDbLine
 62
2
  6
CONTINUOUS
 10
17.6578141096
 20
2.4532700835
 11
17.6578141096
 21
2.58044356
  0
LINE
  5
37E
100
AcDbEntity
  8
0
100
AcDbLine
 62
2
  6
CONTINUOUS
 10
17.6378140985
 20
2.2222577606
 11
17.6378140985
 21
2.3524650276
  0
LINE
  5
37F
100
AcDbEntity
  8
0
100
AcDbLine
 62
2
  6
CONTINUOUS
 10
17.6378140985
 20
2.4532700835
 11
17.6378140985
 21
2.5809743492
  0
LINE
  5
380
100
AcDbEntity
  8
0
100
AcDbLine
 62
2
  6
CONTINUOUS
 10
17.6178140874
 20
2.2217269714
 11
17.6178140874
 21
2.3524650276
  0
LINE
  5
381
100
AcDbEntity
  8
0
100
AcDbLine
 62
2
  6
CONTINUOUS
 10
17.6178140874
 20
2.4532700835
 11
17.6178140874
 21
2.5815051384
  0
LINE
  5
382
100
AcDbEntity
  8
0
100
AcDbLine
 62
2
  6
CONTINUOUS
 10
17.5978140764
 20
2.2215213152
 11
17.5978140764
 21
2.3524650276
  0
LINE
  5
383
100
AcDbEntity
  8
0
100
AcDbLine
 62
2
  6
CONTINUOUS
 10
17.5978140764
 20
2.3772150414
 11
17.5978140764
 21
2.4285200698
  0
LINE
  5
384
100
AcDbEntity
  8
0
100
AcDbLine
 62
2
  6
CONTINUOUS
 10
17.5978140764
 20
2.4532700835
 11
17.5978140764
 21
2.5817107946
  0
LINE
  5
385
100
AcDbEntity
  8
0
100
AcDbLine
 62
2
  6
CONTINUOUS
 10
17.5778140653
 20
2.2216974783
 11
17.5778140653
 21
2.5815346315
  0
LINE
  5
386
100
AcDbEntity
  8
0
100
AcDbLine
 62
2
  6
CONTINUOUS
 10
17.5578140542
 20
2.2218736414
 11
17.5578140542
 21
2.4285200698
  0
LINE
  5
387
100
AcDbEntity
  8
0
100
AcDbLine
 62
2
  6
CONTINUOUS
 10
17.5578140542
 20
2.4532700835
 11
17.5578140542
 21
2.5813584684
  0
LINE
  5
388
100
AcDbEntity
  8
0
100
AcDbLine
 62
2
  6
CONTINUOUS
 10
17.5378140431
 20
2.2220498045
 11
17.5378140431
 21
2.3524700714
  0
LINE
  5
389
100
AcDbEntity
  8
0
100
AcDbLine
 62
2
  6
CONTINUOUS
 10
17.5378140431
 20
2.4532700835
 11
17.5378140431
 21
2.5811823053
  0
LINE
  5
38A
100
AcDbEntity
  8
0
100
AcDbLine
 62
2
  6
CONTINUOUS
 10
17.517814032
 20
2.2222259676
 11
17.517814032
 21
2.3524650276
  0
LINE
  5
38B
100
AcDbEntity
  8
0
100
AcDbLine
 62
2
  6
CONTINUOUS
 10
17.517814032
 20
2.4532700835
 11
17.517814032
 21
2.5810061422
  0
LINE
  5
38C
100
AcDbEntity
  8
0
100
AcDbLine
 62
2
  6
CONTINUOUS
 10
17.4978140209
 20
2.2224021307
 11
17.4978140209
 21
2.3524650276
  0
LINE
  5
38D
100
AcDbEntity
  8
0
100
AcDbLine
 62
2
  6
CONTINUOUS
 10
17.4978140209
 20
2.4008904169
 11
17.4978140209
 21
2.4285200698
  0
LINE
  5
38E
100
AcDbEntity
  8
0
100
AcDbLine
 62
2
  6
CONTINUOUS
 10
17.4978140209
 20
2.4532700835
 11
17.4978140209
 21
2.5808299791
  0
LINE
  5
38F
100
AcDbEntity
  8
0
100
AcDbLine
 62
2
  6
CONTINUOUS
 10
17.4778140098
 20
2.2225782938
 11
17.4778140098
 21
2.3524650276
  0
LINE
  5
390
100
AcDbEntity
  8
0
100
AcDbLine
 62
2
  6
CONTINUOUS
 10
17.4778140098
 20
2.4199732652
 11
17.4778140098
 21
2.580653816
  0
LINE
  5
391
100
AcDbEntity
  8
0
100
AcDbLine
 62
2
  6
CONTINUOUS
 10
17.4578139987
 20
2.2233466716
 11
17.4578139987
 21
2.3569558199
  0
LINE
  5
392
100
AcDbEntity
  8
0
100
AcDbLine
 62
2
  6
CONTINUOUS
 10
17.4578139987
 20
2.4390561136
 11
17.4578139987
 21
2.5798854382
  0
LINE
  5
393
100
AcDbEntity
  8
0
100
AcDbLine
 62
2
  6
CONTINUOUS
 10
17.4378139876
 20
2.2242391079
 11
17.4378139876
 21
2.3760386371
  0
LINE
  5
394
100
AcDbEntity
  8
0
100
AcDbLine
 62
2
  6
CONTINUOUS
 10
17.4378139876
 20
2.4532700835
 11
17.4378139876
 21
2.5789930018
  0
LINE
  5
395
100
AcDbEntity
  8
0
100
AcDbLine
 62
2
  6
CONTINUOUS
 10
17.4178139765
 20
2.2251315443
 11
17.4178139765
 21
2.3525640362
  0
LINE
  5
396
100
AcDbEntity
  8
0
100
AcDbLine
 62
2
  6
CONTINUOUS
 10
17.4178139765
 20
2.3771160328
 11
17.4178139765
 21
2.3951214543
  0
LINE
  5
397
100
AcDbEntity
  8
0
100
AcDbLine
 62
2
  6
CONTINUOUS
 10
17.4178139765
 20
2.4532700835
 11
17.4178139765
 21
2.5781005655
  0
LINE
  5
398
100
AcDbEntity
  8
0
100
AcDbLine
 62
2
  6
CONTINUOUS
 10
17.3978139654
 20
2.2260239807
 11
17.3978139654
 21
2.3524650276
  0
LINE
  5
399
100
AcDbEntity
  8
0
100
AcDbLine
 62
2
  6
CONTINUOUS
 10
17.3978139654
 20
2.3772150414
 11
17.3978139654
 21
2.4139978698
  0
LINE
  5
39A
100
AcDbEntity
  8
0
100
AcDbLine
 62
2
  6
CONTINUOUS
 10
17.3978139654
 20
2.4532700835
 11
17.3978139654
 21
2.5772081291
  0
LINE
  5
39B
100
AcDbEntity
  8
0
100
AcDbLine
 62
2
  6
CONTINUOUS
 10
17.3778139543
 20
2.226916417
 11
17.3778139543
 21
2.3524650276
  0
LINE
  5
39C
100
AcDbEntity
  8
0
100
AcDbLine
 62
2
  6
CONTINUOUS
 10
17.3778139543
 20
2.4532700835
 11
17.3778139543
 21
2.5763156928
  0
LINE
  5
39D
100
AcDbEntity
  8
0
100
AcDbLine
 62
2
  6
CONTINUOUS
 10
17.3578139433
 20
2.2278088534
 11
17.3578139433
 21
2.3524650276
  0
LINE
  5
39E
100
AcDbEntity
  8
0
100
AcDbLine
 62
2
  6
CONTINUOUS
 10
17.3578139433
 20
2.3772150414
 11
17.3578139433
 21
2.4285200698
  0
LINE
  5
39F
100
AcDbEntity
  8
0
100
AcDbLine
 62
2
  6
CONTINUOUS
 10
17.3578139433
 20
2.4532700835
 11
17.3578139433
 21
2.5754232564
  0
LINE
  5
3A0
100
AcDbEntity
  8
0
100
AcDbLine
 62
2
  6
CONTINUOUS
 10
17.3378139322
 20
2.2289481171
 11
17.3378139322
 21
2.5742839927
  0
LINE
  5
3A1
100
AcDbEntity
  8
0
100
AcDbLine
 62
2
  6
CONTINUOUS
 10
17.3178139211
 20
2.2306059865
 11
17.3178139211
 21
2.5726261233
  0
LINE
  5
3A2
100
AcDbEntity
  8
0
100
AcDbLine
 62
2
  6
CONTINUOUS
 10
17.29781391
 20
2.2322638559
 11
17.29781391
 21
2.3524650276
  0
LINE
  5
3A3
100
AcDbEntity
  8
0
100
AcDbLine
 62
2
  6
CONTINUOUS
 10
17.29781391
 20
2.3772150414
 11
17.29781391
 21
2.5709682538
  0
LINE
  5
3A4
100
AcDbEntity
  8
0
100
AcDbLine
 62
2
  6
CONTINUOUS
 10
17.2778138989
 20
2.2339217254
 11
17.2778138989
 21
2.3524650276
  0
LINE
  5
3A5
100
AcDbEntity
  8
0
100
AcDbLine
 62
2
  6
CONTINUOUS
 10
17.2778138989
 20
2.3963499423
 11
17.2778138989
 21
2.5693103844
  0
LINE
  5
3A6
100
AcDbEntity
  8
0
100
AcDbLine
 62
2
  6
CONTINUOUS
 10
17.2578138878
 20
2.2355795948
 11
17.2578138878
 21
2.3524650276
  0
LINE
  5
3A7
100
AcDbEntity
  8
0
100
AcDbLine
 62
2
  6
CONTINUOUS
 10
17.2578138878
 20
2.4272549766
 11
17.2578138878
 21
2.567652515
  0
LINE
  5
3A8
100
AcDbEntity
  8
0
100
AcDbLine
 62
2
  6
CONTINUOUS
 10
17.2378138767
 20
2.2372374642
 11
17.2378138767
 21
2.3524650276
  0
LINE
  5
3A9
100
AcDbEntity
  8
0
100
AcDbLine
 62
2
  6
CONTINUOUS
 10
17.2378138767
 20
2.4532700835
 11
17.2378138767
 21
2.5659946456
  0
LINE
  5
3AA
100
AcDbEntity
  8
0
100
AcDbLine
 62
2
  6
CONTINUOUS
 10
17.2178138656
 20
2.2389952421
 11
17.2178138656
 21
2.3524650276
  0
LINE
  5
3AB
100
AcDbEntity
  8
0
100
AcDbLine
 62
2
  6
CONTINUOUS
 10
17.2178138656
 20
2.3772150414
 11
17.2178138656
 21
2.3887495968
  0
LINE
  5
3AC
100
AcDbEntity
  8
0
100
AcDbLine
 62
2
  6
CONTINUOUS
 10
17.2178138656
 20
2.4532700835
 11
17.2178138656
 21
2.5642368677
  0
LINE
  5
3AD
100
AcDbEntity
  8
0
100
AcDbLine
 62
2
  6
CONTINUOUS
 10
17.1978138545
 20
2.2415190955
 11
17.1978138545
 21
2.3908590489
  0
LINE
  5
3AE
100
AcDbEntity
  8
0
100
AcDbLine
 62
2
  6
CONTINUOUS
 10
17.1978138545
 20
2.4118090605
 11
17.1978138545
 21
2.4279760695
  0
LINE
  5
3AF
100
AcDbEntity
  8
0
100
AcDbLine
 62
2
  6
CONTINUOUS
 10
17.1978138545
 20
2.4532700835
 11
17.1978138545
 21
2.5617130143
  0
LINE
  5
3B0
100
AcDbEntity
  8
0
100
AcDbLine
 62
2
  6
CONTINUOUS
 10
17.1778138434
 20
2.244042949
 11
17.1778138434
 21
2.3524650276
  0
LINE
  5
3B1
100
AcDbEntity
  8
0
100
AcDbLine
 62
2
  6
CONTINUOUS
 10
17.1778138434
 20
2.3772150414
 11
17.1778138434
 21
2.3892044865
  0
LINE
  5
3B2
100
AcDbEntity
  8
0
100
AcDbLine
 62
2
  6
CONTINUOUS
 10
17.1778138434
 20
2.4480979218
 11
17.1778138434
 21
2.5591891608
  0
LINE
  5
3B3
100
AcDbEntity
  8
0
100
AcDbLine
 62
2
  6
CONTINUOUS
 10
17.1578138323
 20
2.2465668024
 11
17.1578138323
 21
2.3524650276
  0
LINE
  5
3B4
100
AcDbEntity
  8
0
100
AcDbLine
 62
2
  6
CONTINUOUS
 10
17.1578138323
 20
2.4165778189
 11
17.1578138323
 21
2.5566653073
  0
LINE
  5
3B5
100
AcDbEntity
  8
0
100
AcDbLine
 62
2
  6
CONTINUOUS
 10
17.1378138213
 20
2.2490906559
 11
17.1378138213
 21
2.3524650276
  0
LINE
  5
3B6
100
AcDbEntity
  8
0
100
AcDbLine
 62
2
  6
CONTINUOUS
 10
17.1378138213
 20
2.3850577159
 11
17.1378138213
 21
2.5541414539
  0
LINE
  5
3B7
100
AcDbEntity
  8
0
100
AcDbLine
 62
2
  6
CONTINUOUS
 10
17.1178138102
 20
2.2516145094
 11
17.1178138102
 21
2.3524650276
  0
LINE
  5
3B8
100
AcDbEntity
  8
0
100
AcDbLine
 62
2
  6
CONTINUOUS
 10
17.1178138102
 20
2.3772150414
 11
17.1178138102
 21
2.5516176004
  0
LINE
  5
3B9
100
AcDbEntity
  8
0
100
AcDbLine
 62
2
  6
CONTINUOUS
 10
17.0978137991
 20
2.2544171186
 11
17.0978137991
 21
2.5488149912
  0
LINE
  5
3BA
100
AcDbEntity
  8
0
100
AcDbLine
 62
2
  6
CONTINUOUS
 10
17.077813788
 20
2.2577020445
 11
17.077813788
 21
2.362615113
  0
LINE
  5
3BB
100
AcDbEntity
  8
0
100
AcDbLine
 62
2
  6
CONTINUOUS
 10
17.077813788
 20
2.3938117115
 11
17.077813788
 21
2.4149601455
  0
LINE
  5
3BC
100
AcDbEntity
  8
0
100
AcDbLine
 62
2
  6
CONTINUOUS
 10
17.077813788
 20
2.4403850542
 11
17.077813788
 21
2.5455300653
  0
LINE
  5
3BD
100
AcDbEntity
  8
0
100
AcDbLine
 62
2
  6
CONTINUOUS
 10
17.0578137769
 20
2.2609869704
 11
17.0578137769
 21
2.3533399802
  0
LINE
  5
3BE
100
AcDbEntity
  8
0
100
AcDbLine
 62
2
  6
CONTINUOUS
 10
17.0578137769
 20
2.4508307102
 11
17.0578137769
 21
2.5422451394
  0
LINE
  5
3BF
100
AcDbEntity
  8
0
100
AcDbLine
 62
2
  6
CONTINUOUS
 10
17.0378137658
 20
2.2646895914
 11
17.0378137658
 21
2.3524650276
  0
LINE
  5
3C0
100
AcDbEntity
  8
0
100
AcDbLine
 62
2
  6
CONTINUOUS
 10
17.0378137658
 20
2.4532700835
 11
17.0378137658
 21
2.5385425184
  0
LINE
  5
3C1
100
AcDbEntity
  8
0
100
AcDbLine
 62
2
  6
CONTINUOUS
 10
17.0178137547
 20
2.2685623514
 11
17.0178137547
 21
2.3524650276
  0
LINE
  5
3C2
100
AcDbEntity
  8
0
100
AcDbLine
 62
2
  6
CONTINUOUS
 10
17.0178137547
 20
2.4532700835
 11
17.0178137547
 21
2.5346697584
  0
LINE
  5
3C3
100
AcDbEntity
  8
0
100
AcDbLine
 62
2
  6
CONTINUOUS
 10
16.9978137436
 20
2.2725871112
 11
16.9978137436
 21
2.3524650276
  0
LINE
  5
3C4
100
AcDbEntity
  8
0
100
AcDbLine
 62
2
  6
CONTINUOUS
 10
16.9978137436
 20
2.3772150414
 11
16.9978137436
 21
2.394540051
  0
LINE
  5
3C5
100
AcDbEntity
  8
0
100
AcDbLine
 62
2
  6
CONTINUOUS
 10
16.9978137436
 20
2.4111950602
 11
16.9978137436
 21
2.4285200698
  0
LINE
  5
3C6
100
AcDbEntity
  8
0
100
AcDbLine
 62
2
  6
CONTINUOUS
 10
16.9978137436
 20
2.4532700835
 11
16.9978137436
 21
2.5306449986
  0
LINE
  5
3C7
100
AcDbEntity
  8
0
100
AcDbLine
 62
2
  6
CONTINUOUS
 10
16.9778137325
 20
2.2771382649
 11
16.9778137325
 21
2.3524650276
  0
LINE
  5
3C8
100
AcDbEntity
  8
0
100
AcDbLine
 62
2
  6
CONTINUOUS
 10
16.9778137325
 20
2.3772150414
 11
16.9778137325
 21
2.394540051
  0
LINE
  5
3C9
100
AcDbEntity
  8
0
100
AcDbLine
 62
2
  6
CONTINUOUS
 10
16.9778137325
 20
2.4111950602
 11
16.9778137325
 21
2.4285200698
  0
LINE
  5
3CA
100
AcDbEntity
  8
0
100
AcDbLine
 62
2
  6
CONTINUOUS
 10
16.9778137325
 20
2.4532700835
 11
16.9778137325
 21
2.5260938449
  0
LINE
  5
3CB
100
AcDbEntity
  8
0
100
AcDbLine
 62
2
  6
CONTINUOUS
 10
16.9578137214
 20
2.2816894185
 11
16.9578137214
 21
2.3524650276
  0
LINE
  5
3CC
100
AcDbEntity
  8
0
100
AcDbLine
 62
2
  6
CONTINUOUS
 10
16.9578137214
 20
2.4532700835
 11
16.9578137214
 21
2.5215426913
  0
LINE
  5
3CD
100
AcDbEntity
  8
0
100
AcDbLine
 62
2
  6
CONTINUOUS
 10
16.9378137103
 20
2.2869815362
 11
16.9378137103
 21
2.3524650276
  0
LINE
  5
3CE
100
AcDbEntity
  8
0
100
AcDbLine
 62
2
  6
CONTINUOUS
 10
16.9378137103
 20
2.4532700835
 11
16.9378137103
 21
2.5162505736
  0
LINE
  5
3CF
100
AcDbEntity
  8
0
100
AcDbLine
 62
2
  6
CONTINUOUS
 10
16.9178136992
 20
2.2923355811
 11
16.9178136992
 21
2.3524650276
  0
LINE
  5
3D0
100
AcDbEntity
  8
0
100
AcDbLine
 62
2
  6
CONTINUOUS
 10
16.9178136992
 20
2.4532700835
 11
16.9178136992
 21
2.5108965286
  0
LINE
  5
3D1
100
AcDbEntity
  8
0
100
AcDbLine
 62
2
  6
CONTINUOUS
 10
16.8978136882
 20
2.2984943577
 11
16.8978136882
 21
2.3524650276
  0
LINE
  5
3D2
100
AcDbEntity
  8
0
100
AcDbLine
 62
2
  6
CONTINUOUS
 10
16.8978136882
 20
2.3772150414
 11
16.8978136882
 21
2.4285200698
  0
LINE
  5
3D3
100
AcDbEntity
  8
0
100
AcDbLine
 62
2
  6
CONTINUOUS
 10
16.8978136882
 20
2.4532700835
 11
16.8978136882
 21
2.5047377521
  0
LINE
  5
3D4
100
AcDbEntity
  8
0
100
AcDbLine
 62
2
  6
CONTINUOUS
 10
16.8778136771
 20
2.3048274854
 11
16.8778136771
 21
2.3524650276
  0
LINE
  5
3D5
100
AcDbEntity
  8
0
100
AcDbLine
 62
2
  6
CONTINUOUS
 10
16.8778136771
 20
2.3772150414
 11
16.8778136771
 21
2.4285200698
  0
LINE
  5
3D6
100
AcDbEntity
  8
0
100
AcDbLine
 62
2
  6
CONTINUOUS
 10
16.8778136771
 20
2.4532700835
 11
16.8778136771
 21
2.4984046244
  0
LINE
  5
3D7
100
AcDbEntity
  8
0
100
AcDbLine
 62
2
  6
CONTINUOUS
 10
16.857813666
 20
2.312318358
 11
16.857813666
 21
2.4909137517
  0
LINE
  5
3D8
100
AcDbEntity
  8
0
100
AcDbLine
 62
2
  6
CONTINUOUS
 10
16.8378136549
 20
2.3203393667
 11
16.8378136549
 21
2.4828927431
  0
LINE
  5
3D9
100
AcDbEntity
  8
0
100
AcDbLine
 62
2
  6
CONTINUOUS
 10
16.8178136438
 20
2.3295519864
 11
16.8178136438
 21
2.4736801234
  0
LINE
  5
3DA
100
AcDbEntity
  8
0
100
AcDbLine
 62
2
  6
CONTINUOUS
 10
16.7978136327
 20
2.3407309483
 11
16.7978136327
 21
2.4625011614
  0
LINE
  5
3DB
100
AcDbEntity
  8
0
100
AcDbLine
 62
2
  6
CONTINUOUS
 10
16.7778136216
 20
2.3546527809
 11
16.7778136216
 21
2.4485793288
  0
LINE
  5
3DC
100
AcDbEntity
  8
0
100
AcDbLine
 62
2
  6
CONTINUOUS
 10
16.7578136105
 20
2.3756826696
 11
16.7578136105
 21
2.4275494401
  0
ENDBLK
  5
3DD
100
AcDbEntity
  8
0
  6
BYBLOCK
 62
0
100
AcDbBlockEnd
  0
BLOCK
  5
3DE
100
AcDbEntity
  8
SCHEME_DIMS
100
AcDbBlockBegin
 62
2
  6
CONTINUOUS
  2
*D0
 70
65
 10
0.0
 20
0.0
  3
*D0
  1

  0
TEXT
  5
3DF
100
AcDbEntity
  8
SCHEME_DIMS
100
AcDbText
 62
2
  6
CONTINUOUS
 10
7.3609846487
 20
6.4330224293
  7
STANDARD
 40
0.1
  1
19
 41
1.0
 72
0
100
AcDbText
  0
TEXT
  5
3E0
100
AcDbEntity
  8
SCHEME_DIMS
100
AcDbText
 62
2
  6
CONTINUOUS
 10
7.4609846487
 20
6.2830224293
  7
STANDARD
 40
0.1
  1
.75
 41
1.0
 72
0
100
AcDbText
  0
TEXT
  5
3E1
100
AcDbEntity
  8
SCHEME_DIMS
100
AcDbText
 62
2
  6
CONTINUOUS
 10
7.3609846487
 20
6.2830224293
  7
STANDARD
 40
0.1
  1
[
 41
1.0
 72
0
100
AcDbText
  0
TEXT
  5
3E2
100
AcDbEntity
  8
SCHEME_DIMS
100
AcDbText
 62
2
  6
CONTINUOUS
 10
7.7609846487
 20
6.2830224293
  7
STANDARD
 40
0.1
  1
]
 41
1.0
 72
0
100
AcDbText
  0
LINE
  5
3E3
100
AcDbEntity
  8
SCHEME_DIMS
100
AcDbLine
 62
2
  6
CONTINUOUS
 10
6.7010437038
 20
6.0340066813
 11
7.7359846487
 21
6.0340066813
  0
LINE
  5
3E4
100
AcDbEntity
  8
SCHEME_DIMS
100
AcDbLine
 62
2
  6
CONTINUOUS
 10
6.9642967565
 20
6.7820381774
 11
6.9895621123
 21
6.7820381774
  0
LINE
  5
3E5
100
AcDbEntity
  8
SCHEME_DIMS
100
AcDbLine
 62
2
  6
CONTINUOUS
 10
7.0321591493
 20
6.7820381774
 11
7.7359846487
 21
6.7820381774
  0
LINE
  5
3E6
100
AcDbEntity
  8
SCHEME_DIMS
100
AcDbLine
 62
2
  6
CONTINUOUS
 10
7.6109846487
 20
6.0340066813
 11
7.6109846487
 21
5.6340066813
  0
LINE
  5
3E7
100
AcDbEntity
  8
SCHEME_DIMS
100
AcDbLine
 62
2
  6
CONTINUOUS
 10
7.6109846487
 20
6.7820381774
 11
7.6109846487
 21
7.1820381774
  0
INSERT
  5
3E8
100
AcDbEntity
  8
SCHEME_DIMS
100
AcDbBlockReference
 62
2
  6
CONTINUOUS
  2
_FILLED
 10
7.6109846487
 20
6.0340066813
 41
0.1875
 42
0.1875
 43
0.1875
 50
90.0
  0
INSERT
  5
3E9
100
AcDbEntity
  8
SCHEME_DIMS
100
AcDbBlockReference
 62
2
  6
CONTINUOUS
  2
_FILLED
 10
7.6109846487
 20
6.7820381774
 41
0.1875
 42
0.1875
 43
0.1875
 50
270.0
  0
ENDBLK
  5
3EA
100
AcDbEntity
  8
0
  6
BYBLOCK
 62
0
100
AcDbBlockEnd
  0
BLOCK
  5
3EB
100
AcDbEntity
  8
SCHEME_DIMS
100
AcDbBlockBegin
 62
2
  6
CONTINUOUS
  2
*D1
 70
65
 10
0.0
 20
0.0
  3
*D1
  1

  0
TEXT
  5
3EC
100
AcDbEntity
  8
SCHEME_DIMS
100
AcDbText
 62
2
  6
CONTINUOUS
 10
8.0609846487
 20
10.9929372012
  7
STANDARD
 40
0.1
  1
242,9
 41
1.0
 72
0
100
AcDbText
  0
TEXT
  5
3ED
100
AcDbEntity
  8
SCHEME_DIMS
100
AcDbText
 62
2
  6
CONTINUOUS
 10
8.1609846487
 20
10.8429372012
  7
STANDARD
 40
0.1
  1
9.56
 41
1.0
 72
0
100
AcDbText
  0
TEXT
  5
3EE
100
AcDbEntity
  8
SCHEME_DIMS
100
AcDbText
 62
2
  6
CONTINUOUS
 10
8.0609846487
 20
10.8429372012
  7
STANDARD
 40
0.1
  1
[
 41
1.0
 72
0
100
AcDbText
  0
TEXT
  5
3EF
100
AcDbEntity
  8
SCHEME_DIMS
100
AcDbText
 62
2
  6
CONTINUOUS
 10
8.5609846487
 20
10.8429372012
  7
STANDARD
 40
0.1
  1
]
 41
1.0
 72
0
100
AcDbText
  0
LINE
  5
3F0
100
AcDbEntity
  8
SCHEME_DIMS
100
AcDbLine
 62
2
  6
CONTINUOUS
 10
6.7010437038
 20
6.0340066813
 11
8.4859846487
 21
6.0340066813
  0
LINE
  5
3F1
100
AcDbEntity
  8
SCHEME_DIMS
100
AcDbLine
 62
2
  6
CONTINUOUS
 10
7.1347090293
 20
15.5969988073
 11
8.4859846487
 21
15.5969988073
  0
LINE
  5
3F2
100
AcDbEntity
  8
SCHEME_DIMS
100
AcDbLine
 62
2
  6
CONTINUOUS
 10
8.3609846487
 20
6.0340066813
 11
8.3609846487
 21
10.7429372012
  0
LINE
  5
3F3
100
AcDbEntity
  8
SCHEME_DIMS
100
AcDbLine
 62
2
  6
CONTINUOUS
 10
8.3609846487
 20
15.5969988073
 11
8.3609846487
 21
11.1929372012
  0
INSERT
  5
3F4
100
AcDbEntity
  8
SCHEME_DIMS
100
AcDbBlockReference
 62
2
  6
CONTINUOUS
  2
_FILLED
 10
8.3609846487
 20
6.0340066813
 41
0.1875
 42
0.1875
 43
0.1875
 50
270.0
  0
INSERT
  5
3F5
100
AcDbEntity
  8
SCHEME_DIMS
100
AcDbBlockReference
 62
2
  6
CONTINUOUS
  2
_FILLED
 10
8.3609846487
 20
15.5969988073
 41
0.1875
 42
0.1875
 43
0.1875
 50
90.0
  0
ENDBLK
  5
3F6
100
AcDbEntity
  8
0
  6
BYBLOCK
 62
0
100
AcDbBlockEnd
  0
BLOCK
  5
3F7
100
AcDbEntity
  8
SCHEME_DIMS
100
AcDbBlockBegin
 62
2
  6
CONTINUOUS
  2
*D2
 70
65
 10
0.0
 20
0.0
  3
*D2
  1

  0
TEXT
  5
3F8
100
AcDbEntity
  8
SCHEME_DIMS
100
AcDbText
 62
2
  6
CONTINUOUS
 10
5.8267326802
 20
4.671712604
  7
STANDARD
 40
0.1
  1
45
 41
1.0
 72
0
100
AcDbText
  0
TEXT
  5
3F9
100
AcDbEntity
  8
SCHEME_DIMS
100
AcDbText
 62
2
  6
CONTINUOUS
 10
5.9267326802
 20
4.521712604
  7
STANDARD
 40
0.1
  1
1.77
 41
1.0
 72
0
100
AcDbText
  0
TEXT
  5
3FA
100
AcDbEntity
  8
SCHEME_DIMS
100
AcDbText
 62
2
  6
CONTINUOUS
 10
5.8267326802
 20
4.521712604
  7
STANDARD
 40
0.1
  1
[
 41
1.0
 72
0
100
AcDbText
  0
TEXT
  5
3FB
100
AcDbEntity
  8
SCHEME_DIMS
100
AcDbText
 62
2
  6
CONTINUOUS
 10
6.3267326802
 20
4.521712604
  7
STANDARD
 40
0.1
  1
]
 41
1.0
 72
0
100
AcDbText
  0
LINE
  5
3FC
100
AcDbEntity
  8
SCHEME_DIMS
100
AcDbLine
 62
2
  6
CONTINUOUS
 10
5.2409059085
 20
6.8133883726
 11
5.2409059085
 21
6.0741992987
  0
LINE
  5
3FD
100
AcDbEntity
  8
SCHEME_DIMS
100
AcDbLine
 62
2
  6
CONTINUOUS
 10
5.2409059085
 20
6.0177165682
 11
5.2409059085
 21
4.596712604
  0
LINE
  5
3FE
100
AcDbEntity
  8
SCHEME_DIMS
100
AcDbLine
 62
2
  6
CONTINUOUS
 10
7.0125594518
 20
6.8064409275
 11
7.0125594518
 21
6.0734379161
  0
LINE
  5
3FF
100
AcDbEntity
  8
SCHEME_DIMS
100
AcDbLine
 62
2
  6
CONTINUOUS
 10
7.0125594518
 20
5.9969753718
 11
7.0125594518
 21
4.596712604
  0
LINE
  5
400
100
AcDbEntity
  8
SCHEME_DIMS
100
AcDbLine
 62
2
  6
CONTINUOUS
 10
5.2409059085
 20
4.721712604
 11
5.7267326802
 21
4.721712604
  0
LINE
  5
401
100
AcDbEntity
  8
SCHEME_DIMS
100
AcDbLine
 62
2
  6
CONTINUOUS
 10
7.0125594518
 20
4.721712604
 11
6.5267326802
 21
4.721712604
  0
INSERT
  5
402
100
AcDbEntity
  8
SCHEME_DIMS
100
AcDbBlockReference
 62
2
  6
CONTINUOUS
  2
_FILLED
 10
5.2409059085
 20
4.721712604
 41
0.1875
 42
0.1875
 43
0.1875
 50
180.0
  0
INSERT
  5
403
100
AcDbEntity
  8
SCHEME_DIMS
100
AcDbBlockReference
 62
2
  6
CONTINUOUS
  2
_FILLED
 10
7.0125594518
 20
4.721712604
 41
0.1875
 42
0.1875
 43
0.1875
  0
ENDBLK
  5
404
100
AcDbEntity
  8
0
  6
BYBLOCK
 62
0
100
AcDbBlockEnd
  0
BLOCK
  5
405
100
AcDbEntity
  8
SCHEME_DIMS
100
AcDbBlockBegin
 62
2
  6
CONTINUOUS
  2
*D3
 70
65
 10
0.0
 20
0.0
  3
*D3
  1

  0
TEXT
  5
406
100
AcDbEntity
  8
SCHEME_DIMS
100
AcDbText
 62
2
  6
CONTINUOUS
 10
7.4647947649
 20
3.9015304369
  7
STANDARD
 40
0.1
  1
%%c
 41
1.3333333333
 72
0
100
AcDbText
  0
TEXT
  5
407
100
AcDbEntity
  8
SCHEME_DIMS
100
AcDbText
 62
2
  6
CONTINUOUS
 10
7.5981280982
 20
3.9015304369
  7
STANDARD
 40
0.1
  1
50
 41
1.0
 72
0
100
AcDbText
  0
TEXT
  5
408
100
AcDbEntity
  8
SCHEME_DIMS
100
AcDbText
 62
2
  6
CONTINUOUS
 10
7.6981280982
 20
3.7515304369
  7
STANDARD
 40
0.1
  1
1.97
 41
1.0
 72
0
100
AcDbText
  0
TEXT
  5
409
100
AcDbEntity
  8
SCHEME_DIMS
100
AcDbText
 62
2
  6
CONTINUOUS
 10
7.5981280982
 20
3.7515304369
  7
STANDARD
 40
0.1
  1
[
 41
1.0
 72
0
100
AcDbText
  0
TEXT
  5
40A
100
AcDbEntity
  8
SCHEME_DIMS
100
AcDbText
 62
2
  6
CONTINUOUS
 10
8.0981280982
 20
3.7515304369
  7
STANDARD
 40
0.1
  1
]
 41
1.0
 72
0
100
AcDbText
  0
LINE
  5
40B
100
AcDbEntity
  8
SCHEME_DIMS
100
AcDbLine
 62
2
  6
CONTINUOUS
 10
6.9194537257
 20
3.7341786187
 11
6.1267326802
 21
3.1507874278
  0
LINE
  5
40C
100
AcDbEntity
  8
SCHEME_DIMS
100
AcDbLine
 62
2
  6
CONTINUOUS
 10
6.1267326802
 20
3.1507874278
 11
7.2147947649
 21
3.9515304369
  0
LINE
  5
40D
100
AcDbEntity
  8
SCHEME_DIMS
100
AcDbLine
 62
2
  6
CONTINUOUS
 10
7.2147947649
 20
3.9515304369
 11
7.3647947649
 21
3.9515304369
  0
LINE
  5
40E
100
AcDbEntity
  8
SCHEME_DIMS
100
AcDbLine
 62
2
  6
CONTINUOUS
 10
5.3340116346
 20
2.567396237
 11
6.1267326802
 21
3.1507874278
  0
INSERT
  5
40F
100
AcDbEntity
  8
SCHEME_DIMS
100
AcDbBlockReference
 62
2
  6
CONTINUOUS
  2
_FILLED
 10
6.9194537257
 20
3.7341786187
 41
0.1875
 42
0.1875
 43
0.1875
 50
36.3506538711
  0
INSERT
  5
410
100
AcDbEntity
  8
SCHEME_DIMS
100
AcDbBlockReference
 62
2
  6
CONTINUOUS
  2
_FILLED
 10
5.3340116346
 20
2.567396237
 41
0.1875
 42
0.1875
 43
0.1875
 50
216.3506538711
  0
ENDBLK
  5
411
100
AcDbEntity
  8
0
  6
BYBLOCK
 62
0
100
AcDbBlockEnd
  0
BLOCK
  5
412
100
AcDbEntity
  8
SCHEME_DIMS
100
AcDbBlockBegin
 62
2
  6
CONTINUOUS
  2
*D4
 70
65
 10
0.0
 20
0.0
  3
*D4
  1

  0
TEXT
  5
413
100
AcDbEntity
  8
SCHEME_DIMS
100
AcDbText
 62
2
  6
CONTINUOUS
 10
7.1609846487
 20
8.2615657364
  7
STANDARD
 40
0.1
  1
5X 
 41
1.0
 72
0
100
AcDbText
  0
TEXT
  5
414
100
AcDbEntity
  8
SCHEME_DIMS
100
AcDbText
 62
2
  6
CONTINUOUS
 10
7.4609846487
 20
8.2615657364
  7
STANDARD
 40
0.1
  1
26,9
 41
1.0
 72
0
100
AcDbText
  0
TEXT
  5
415
100
AcDbEntity
  8
SCHEME_DIMS
100
AcDbText
 62
2
  6
CONTINUOUS
 10
7.5609846487
 20
8.1115657364
  7
STANDARD
 40
0.1
  1
1.06
 41
1.0
 72
0
100
AcDbText
  0
TEXT
  5
416
100
AcDbEntity
  8
SCHEME_DIMS
100
AcDbText
 62
2
  6
CONTINUOUS
 10
7.4609846487
 20
8.1115657364
  7
STANDARD
 40
0.1
  1
[
 41
1.0
 72
0
100
AcDbText
  0
TEXT
  5
417
100
AcDbEntity
  8
SCHEME_DIMS
100
AcDbText
 62
2
  6
CONTINUOUS
 10
7.9609846487
 20
8.1115657364
  7
STANDARD
 40
0.1
  1
]
 41
1.0
 72
0
100
AcDbText
  0
LINE
  5
418
100
AcDbEntity
  8
SCHEME_DIMS
100
AcDbLine
 62
2
  6
CONTINUOUS
 10
7.1734846487
 20
7.7820381774
 11
7.7359846487
 21
7.7820381774
  0
LINE
  5
419
100
AcDbEntity
  8
SCHEME_DIMS
100
AcDbLine
 62
2
  6
CONTINUOUS
 10
7.1734846487
 20
8.8410932955
 11
7.7359846487
 21
8.8410932955
  0
LINE
  5
41A
100
AcDbEntity
  8
SCHEME_DIMS
100
AcDbLine
 62
2
  6
CONTINUOUS
 10
7.6109846487
 20
7.7820381774
 11
7.6109846487
 21
8.0115657364
  0
LINE
  5
41B
100
AcDbEntity
  8
SCHEME_DIMS
100
AcDbLine
 62
2
  6
CONTINUOUS
 10
7.6109846487
 20
8.8410932955
 11
7.6109846487
 21
8.4615657364
  0
INSERT
  5
41C
100
AcDbEntity
  8
SCHEME_DIMS
100
AcDbBlockReference
 62
2
  6
CONTINUOUS
  2
_FILLED
 10
7.6109846487
 20
7.7820381774
 41
0.1875
 42
0.1875
 43
0.1875
 50
270.0
  0
INSERT
  5
41D
100
AcDbEntity
  8
SCHEME_DIMS
100
AcDbBlockReference
 62
2
  6
CONTINUOUS
  2
_FILLED
 10
7.6109846487
 20
8.8410932955
 41
0.1875
 42
0.1875
 43
0.1875
 50
90.0
  0
ENDBLK
  5
41E
100
AcDbEntity
  8
0
  6
BYBLOCK
 62
0
100
AcDbBlockEnd
  0
BLOCK
  5
41F
100
AcDbEntity
  8
0
100
AcDbBlockBegin
  2
_FILLED
 70
64
 10
0.0
 20
0.0
  3
_FILLED
  1

  0
SOLID
  5
420
100
AcDbEntity
  8
0
  6
BYBLOCK
 62
0
100
AcDbTrace
 10
0.0
 20
0.0
 11
-1.0
 21
0.1666666667
 12
-1.0
 22
-0.1666666667
 13
-1.0
 23
-0.1666666667
  0
ENDBLK
  5
421
100
AcDbEntity
  8
0
  6
BYBLOCK
 62
0
100
AcDbBlockEnd
  0
ENDSEC
  0
SECTION
  2
ENTITIES
  0
TEXT
  5
422
100
AcDbEntity
  8
0
100
AcDbText
 62
2
  6
CONTINUOUS
 10
14.8374677477
 20
1.5655662523
  7
STANDARD
 40
0.1
  1
%%uTHIRD ANGLE PROJECTION
 41
0.8
 72
1
 11
15.7174677477
 21
1.5655662523
100
AcDbText
  0
TEXT
  5
423
100
AcDbEntity
  8
0
100
AcDbText
 62
2
  6
CONTINUOUS
 10
17.55
 20
1.24
  7
STANDARD
 40
0.08
  1
DRAWING NO.
 41
1.0
 72
0
100
AcDbText
  0
TEXT
  5
424
100
AcDbEntity
  8
0
100
AcDbText
 62
2
  6
CONTINUOUS
 10
14.714
 20
2.299432
  7
STANDARD
 40
0.08
  1
and is proprietary in general
 41
0.85
 72
1
 11
15.7
 21
2.299432
100
AcDbText
  0
TEXT
  5
425
100
AcDbEntity
  8
0
100
AcDbText
 62
2
  6
CONTINUOUS
 10
14.748
 20
2.179432
  7
STANDARD
 40
0.08
  1
and in detail.  Its contents
 41
0.85
 72
1
 11
15.7
 21
2.179432
100
AcDbText
  0
TEXT
  5
426
100
AcDbEntity
  8
0
100
AcDbText
 62
2
  6
CONTINUOUS
 10
14.884
 20
2.059432
  7
STANDARD
 40
0.08
  1
shall not be revealed to
 41
0.85
 72
1
 11
15.7
 21
2.059432
100
AcDbText
  0
TEXT
  5
427
100
AcDbEntity
  8
0
100
AcDbText
 62
2
  6
CONTINUOUS
 10
14.918
 20
1.939432
  7
STANDARD
 40
0.08
  1
outside parties without
 41
0.85
 72
1
 11
15.7
 21
1.939432
100
AcDbText
  0
TEXT
  5
428
100
AcDbEntity
  8
0
100
AcDbText
 62
2
  6
CONTINUOUS
 10
14.816
 20
1.819432
  7
STANDARD
 40
0.08
  1
written consent of BANNER.
 41
0.85
 72
1
 11
15.7
 21
1.819432
100
AcDbText
  0
TEXT
  5
429
100
AcDbEntity
  8
0
100
AcDbText
 62
2
  6
CONTINUOUS
 10
16.75
 20
1.98
  7
STANDARD
 40
0.1
  1
TITLE
 41
0.8
 72
0
100
AcDbText
  0
TEXT
  5
42A
100
AcDbEntity
  8
0
100
AcDbText
 62
2
  6
CONTINUOUS
 10
16.75
 20
1.24
  7
STANDARD
 40
0.08
  1
SIZE
 41
1.0
 72
0
100
AcDbText
  0
TEXT
  5
42B
100
AcDbEntity
  8
0
100
AcDbText
 62
2
  6
CONTINUOUS
 10
16.75
 20
0.87
  7
STANDARD
 40
0.08
  1
SCALE
 41
1.0
 72
0
100
AcDbText
  0
TEXT
  5
42C
100
AcDbEntity
  8
0
100
AcDbText
 62
2
  6
CONTINUOUS
 10
17.13
 20
1.1
  7
STANDARD
 40
0.1
  1
C
 41
0.8
 72
1
 11
17.17
 21
1.1
100
AcDbText
  0
TEXT
  5
42D
100
AcDbEntity
  8
0
100
AcDbText
 62
2
  6
CONTINUOUS
 10
14.782
 20
2.419432
  7
STANDARD
 40
0.08
  1
of BANNER ENGINEERING CORP.
 41
0.85
 72
1
 11
15.7
 21
2.419432
100
AcDbText
  0
TEXT
  5
42E
100
AcDbEntity
  8
0
100
AcDbText
 62
2
  6
CONTINUOUS
 10
14.748
 20
2.539432
  7
STANDARD
 40
0.08
  1
This drawing is the property
 41
0.85
 72
1
 11
15.7
 21
2.539432
100
AcDbText
  0
TEXT
  5
42F
100
AcDbEntity
  8
0
100
AcDbText
 62
2
  6
CONTINUOUS
 10
18.86
 20
2.1764
  7
STANDARD
 40
0.1
  1
MINNEAPOLIS, MN 55440
 41
0.8
 72
1
 11
19.7
 21
2.1764
100
AcDbText
  0
TEXT
  5
430
100
AcDbEntity
  8
0
100
AcDbText
 62
2
  6
CONTINUOUS
 10
18.925
 20
0.87
  7
STANDARD
 40
0.08
  1
SHEET
 41
1.0
 72
0
100
AcDbText
  0
TEXT
  5
431
100
AcDbEntity
  8
0
100
AcDbText
 62
2
  6
CONTINUOUS
 10
20.3
 20
1.24
  7
STANDARD
 40
0.08
  1
REV.
 41
1.0
 72
0
100
AcDbText
  0
TEXT
  5
432
100
AcDbEntity
  8
0
100
AcDbText
 62
2
  6
CONTINUOUS
 10
20.7
 20
0.628443
  7
STANDARD
 40
0.07
  1
PRO/E
 41
1.0
 72
2
 11
21.05
 21
0.628443
100
AcDbText
  0
TEXT
  5
433
100
AcDbEntity
  8
0
100
AcDbText
 62
2
  6
CONTINUOUS
 10
18.3752
 20
2.494049
  7
STANDARD
 40
0.12
  1
BANNER ENGINEERING CORP.
 41
0.92
 72
1
 11
19.7
 21
2.494049
100
AcDbText
  0
TEXT
  5
434
100
AcDbEntity
  8
0
100
AcDbText
 62
2
  6
CONTINUOUS
 10
19.18
 20
2.3354
  7
STANDARD
 40
0.1
  1
P.O. BOX 9414
 41
0.8
 72
1
 11
19.7
 21
2.3354
100
AcDbText
  0
TEXT
  5
435
100
AcDbEntity
  8
0
100
AcDbText
 62
2
  6
CONTINUOUS
 10
12.217
 20
15.85
  7
STANDARD
 40
0.1
  1
4
 41
0.8
 72
1
 11
12.257
 21
15.85
100
AcDbText
  0
TEXT
  5
436
100
AcDbEntity
  8
0
100
AcDbText
 62
2
  6
CONTINUOUS
 10
12.217
 20
0.55
  7
STANDARD
 40
0.1
  1
4
 41
0.8
 72
1
 11
12.257
 21
0.55
100
AcDbText
  0
TEXT
  5
437
100
AcDbEntity
  8
0
100
AcDbText
 62
2
  6
CONTINUOUS
 10
0.784
 20
6.275
  7
STANDARD
 40
0.1
  1
B
 41
0.8
 72
2
 11
0.864
 21
6.275
100
AcDbText
  0
TEXT
  5
438
100
AcDbEntity
  8
0
100
AcDbText
 62
2
  6
CONTINUOUS
 10
21.15
 20
6.275
  7
STANDARD
 40
0.1
  1
B
 41
0.8
 72
0
100
AcDbText
  0
TEXT
  5
439
100
AcDbEntity
  8
0
100
AcDbText
 62
2
  6
CONTINUOUS
 10
0.784
 20
2.425
  7
STANDARD
 40
0.1
  1
A
 41
0.8
 72
2
 11
0.864
 21
2.425
100
AcDbText
  0
TEXT
  5
43A
100
AcDbEntity
  8
0
100
AcDbText
 62
2
  6
CONTINUOUS
 10
21.15
 20
2.425
  7
STANDARD
 40
0.1
  1
A
 41
0.8
 72
0
100
AcDbText
  0
TEXT
  5
43B
100
AcDbEntity
  8
0
100
AcDbText
 62
2
  6
CONTINUOUS
 10
0.784
 20
13.975
  7
STANDARD
 40
0.1
  1
D
 41
0.8
 72
2
 11
0.864
 21
13.975
100
AcDbText
  0
TEXT
  5
43C
100
AcDbEntity
  8
0
100
AcDbText
 62
2
  6
CONTINUOUS
 10
21.15
 20
13.975
  7
STANDARD
 40
0.1
  1
D
 41
0.8
 72
0
100
AcDbText
  0
TEXT
  5
43D
100
AcDbEntity
  8
0
100
AcDbText
 62
2
  6
CONTINUOUS
 10
0.784
 20
10.125
  7
STANDARD
 40
0.1
  1
C
 41
0.8
 72
2
 11
0.864
 21
10.125
100
AcDbText
  0
TEXT
  5
43E
100
AcDbEntity
  8
0
100
AcDbText
 62
2
  6
CONTINUOUS
 10
21.15
 20
10.125
  7
STANDARD
 40
0.1
  1
C
 41
0.8
 72
0
100
AcDbText
  0
TEXT
  5
43F
100
AcDbEntity
  8
0
100
AcDbText
 62
2
  6
CONTINUOUS
 10
14.717
 20
0.55
  7
STANDARD
 40
0.1
  1
3
 41
0.8
 72
1
 11
14.757
 21
0.55
100
AcDbText
  0
TEXT
  5
440
100
AcDbEntity
  8
0
100
AcDbText
 62
2
  6
CONTINUOUS
 10
14.717
 20
15.85
  7
STANDARD
 40
0.1
  1
3
 41
0.8
 72
1
 11
14.757
 21
15.85
100
AcDbText
  0
TEXT
  5
441
100
AcDbEntity
  8
0
100
AcDbText
 62
2
  6
CONTINUOUS
 10
17.217
 20
15.85
  7
STANDARD
 40
0.1
  1
2
 41
0.8
 72
1
 11
17.257
 21
15.85
100
AcDbText
  0
TEXT
  5
442
100
AcDbEntity
  8
0
100
AcDbText
 62
2
  6
CONTINUOUS
 10
17.217
 20
0.55
  7
STANDARD
 40
0.1
  1
2
 41
0.8
 72
1
 11
17.257
 21
0.55
100
AcDbText
  0
TEXT
  5
443
100
AcDbEntity
  8
0
100
AcDbText
 62
2
  6
CONTINUOUS
 10
19.717
 20
0.55
  7
STANDARD
 40
0.1
  1
1
 41
0.8
 72
1
 11
19.757
 21
0.55
100
AcDbText
  0
TEXT
  5
444
100
AcDbEntity
  8
0
100
AcDbText
 62
2
  6
CONTINUOUS
 10
19.717
 20
15.85
  7
STANDARD
 40
0.1
  1
1
 41
0.8
 72
1
 11
19.757
 21
15.85
100
AcDbText
  0
TEXT
  5
445
100
AcDbEntity
  8
0
100
AcDbText
 62
2
  6
CONTINUOUS
 10
2.217
 20
0.55
  7
STANDARD
 40
0.1
  1
8
 41
0.8
 72
1
 11
2.257
 21
0.55
100
AcDbText
  0
TEXT
  5
446
100
AcDbEntity
  8
0
100
AcDbText
 62
2
  6
CONTINUOUS
 10
4.717
 20
0.55
  7
STANDARD
 40
0.1
  1
7
 41
0.8
 72
1
 11
4.757
 21
0.55
100
AcDbText
  0
TEXT
  5
447
100
AcDbEntity
  8
0
100
AcDbText
 62
2
  6
CONTINUOUS
 10
7.217
 20
0.55
  7
STANDARD
 40
0.1
  1
6
 41
0.8
 72
1
 11
7.257
 21
0.55
100
AcDbText
  0
TEXT
  5
448
100
AcDbEntity
  8
0
100
AcDbText
 62
2
  6
CONTINUOUS
 10
9.717
 20
0.55
  7
STANDARD
 40
0.1
  1
5
 41
0.8
 72
1
 11
9.757
 21
0.55
100
AcDbText
  0
TEXT
  5
449
100
AcDbEntity
  8
0
100
AcDbText
 62
2
  6
CONTINUOUS
 10
9.717
 20
15.85
  7
STANDARD
 40
0.1
  1
5
 41
0.8
 72
1
 11
9.757
 21
15.85
100
AcDbText
  0
TEXT
  5
44A
100
AcDbEntity
  8
0
100
AcDbText
 62
2
  6
CONTINUOUS
 10
7.217
 20
15.85
  7
STANDARD
 40
0.1
  1
6
 41
0.8
 72
1
 11
7.257
 21
15.85
100
AcDbText
  0
TEXT
  5
44B
100
AcDbEntity
  8
0
100
AcDbText
 62
2
  6
CONTINUOUS
 10
4.717
 20
15.85
  7
STANDARD
 40
0.1
  1
7
 41
0.8
 72
1
 11
4.757
 21
15.85
100
AcDbText
  0
TEXT
  5
44C
100
AcDbEntity
  8
0
100
AcDbText
 62
2
  6
CONTINUOUS
 10
2.217
 20
15.85
  7
STANDARD
 40
0.1
  1
8
 41
0.8
 72
1
 11
2.257
 21
15.85
100
AcDbText
  0
TEXT
  5
44D
100
AcDbEntity
  8
0
100
AcDbText
 62
2
  6
CONTINUOUS
 10
17.2749123633
 20
0.8184107931
  7
STANDARD
 40
0.1
  1
1:1
 41
1.0
 72
0
100
AcDbText
  0
MTEXT
  5
44E
100
AcDbEntity
  8
0
100
AcDbMText
 62
2
  6
CONTINUOUS
  7
STANDARD
 71
1
 72
1
 10
19.4499123633
 20
0.9184107931
 30
0.0
 11
1.0
 21
0.0
 31
0.0
  1
1 OF 1
 40
0.1
 41
0.6
  0
TEXT
  5
44F
100
AcDbEntity
  8
0
100
AcDbText
 62
7
  6
CONTINUOUS
 10
18.5204017884
 20
1.1200373234
  7
STANDARD
 40
0.12
  1
145187
 41
1.0
 72
0
100
AcDbText
  0
MTEXT
  5
450
100
AcDbEntity
  8
0
100
AcDbMText
 62
2
  6
CONTINUOUS
  7
STANDARD
 71
1
 72
1
 10
1.7464424763
 20
1.7731130192
 30
0.0
 11
1.0
 21
0.0
 31
0.0
  1
NOTES:\P1. ALL DIMENSIONS ARE MILLIMETERS [INCHES] UNLESS OTHERWISE NOTED.
 40
0.1
 41
6.6
  0
INSERT
  5
451
100
AcDbEntity
  8
0
100
AcDbBlockReference
 62
2
  6
CONTINUOUS
  2
BANNER_LOGO_TITLEBLOCK_BL0
 10
17.5737928667
 20
2.4016160592
  0
DIMENSION
  5
452
100
AcDbEntity
  8
SCHEME_DIMS
100
AcDbDimension
 62
2
  6
CONTINUOUS
  2
*D0
 10
7.6109846487
 20
6.7820381774
 11
7.6109846487
 21
6.4080224293
 70
160
 42
19.0
  3
DIMSTYLE_1
100
AcDbAlignedDimension
 13
6.7010437038
 23
6.0340066813
 14
6.9642967565
 24
6.7820381774
 50
90.0
100
AcDbRotatedDimension
  0
DIMENSION
  5
453
100
AcDbEntity
  8
SCHEME_DIMS
100
AcDbDimension
 62
2
  6
CONTINUOUS
  2
*D1
 10
8.3609846487
 20
15.5969988073
 11
8.3609846487
 21
10.9679372012
 70
160
 42
242.9
  3
DIMSTYLE_1
100
AcDbAlignedDimension
 13
6.7010437038
 23
6.0340066813
 14
7.1347090293
 24
15.5969988073
 50
90.0
100
AcDbRotatedDimension
  0
DIMENSION
  5
454
100
AcDbEntity
  8
SCHEME_DIMS
100
AcDbDimension
 62
2
  6
CONTINUOUS
  2
*D2
 10
7.0125594518
 20
4.721712604
 11
6.1267326802
 21
4.646712604
 70
160
 42
45.0
  3
DIMSTYLE_1
100
AcDbAlignedDimension
 13
5.2409059085
 23
6.8133883726
 14
7.0125594518
 24
6.8064409275
100
AcDbRotatedDimension
  0
DIMENSION
  5
455
100
AcDbEntity
  8
SCHEME_DIMS
100
AcDbDimension
 62
2
  6
CONTINUOUS
  2
*D3
 10
6.9194537257
 20
3.7341786187
 11
7.8314614316
 21
3.8765304369
 70
163
 42
50.0
  1
<>
  3
DIMSTYLE_2
100
AcDbDiametricDimension
 15
5.3340116346
 25
2.567396237
  0
DIMENSION
  5
456
100
AcDbEntity
  8
SCHEME_DIMS
100
AcDbDimension
 62
2
  6
CONTINUOUS
  2
*D4
 10
7.6109846487
 20
8.8410932955
 11
7.6109846487
 21
8.2365657364
 70
160
 42
26.9
  1
5X <>
  3
DIMSTYLE_1
100
AcDbAlignedDimension
 13
7.1734846487
 23
7.7820381774
 14
7.1734846487
 24
8.8410932955
 50
90.0
100
AcDbRotatedDimension
  0
LINE
  5
457
100
AcDbEntity
  8
0
100
AcDbLine
 62
2
  6
CONTINUOUS
 10
21.05
 20
0.75
 11
16.7
 21
0.75
  0
LINE
  5
458
100
AcDbEntity
  8
0
100
AcDbLine
 62
2
  6
CONTINUOUS
 10
21.05
 20
0.75
 11
21.05
 21
2.67
  0
LINE
  5
459
100
AcDbEntity
  8
0
100
AcDbLine
 62
2
  6
CONTINUOUS
 10
21.05
 20
2.67
 11
16.7
 21
2.67
  0
LINE
  5
45A
100
AcDbEntity
  8
0
100
AcDbLine
 62
2
  6
CONTINUOUS
 10
16.7
 20
0.75
 11
16.7
 21
2.67
  0
TEXT
  5
45B
100
AcDbEntity
  8
0
100
AcDbText
 62
7
  6
CONTINUOUS
 10
20.775
 20
1.13
  7
STANDARD
 40
0.1
  1
A
 41
1.0
 72
1
 11
20.825
 21
1.13
100
AcDbText
  0
MTEXT
  5
45C
100
AcDbEntity
  8
0
100
AcDbMText
 62
7
  6
CONTINUOUS
  7
STANDARD
 71
2
 72
1
 10
18.875
 20
1.83
 30
0.0
 11
1.0
 21
0.0
 31
0.0
  1
TL50 5-STACK CABLE\PWEB CAD DRAWINGS 2D/3D
 40
0.1
 41
2.2
  0
TEXT
  5
45D
100
AcDbEntity
  8
NOTES
100
AcDbText
 62
2
  6
CONTINUOUS
 10
3.5052756225
 20
5.8870001751
  7
STANDARD
 40
0.1
  1
M30 X 1.5-6g
 41
1.0
 72
0
100
AcDbText
  0
LINE
  5
45E
100
AcDbEntity
  8
NOTES
100
AcDbLine
 62
2
  6
CONTINUOUS
 10
5.5849415201
 20
6.1865728337
 11
4.9552756225
 21
5.9370001751
  0
LINE
  5
45F
100
AcDbEntity
  8
NOTES
100
AcDbLine
 62
2
  6
CONTINUOUS
 10
4.9552756225
 20
5.9370001751
 11
4.7052756225
 21
5.9370001751
  0
SOLID
  5
460
100
AcDbEntity
  8
NOTES
100
AcDbTrace
 62
2
  6
CONTINUOUS
 10
5.4221487235
 20
6.0884335557
 11
5.5849415201
 21
6.1865728337
 12
5.3991193791
 22
6.1465360453
 13
5.3991193791
 23
6.1465360453
  0
MTEXT
  5
461
100
AcDbEntity
  8
NOTES
100
AcDbMText
 62
2
  6
CONTINUOUS
  7
STANDARD
 71
2
 72
1
 10
17.4356240593
 20
4.1113670405
 30
0.0
 11
1.0
 21
0.0
 31
0.0
  1
ISOMETRIC VIEW\P\H0.1;SCALE  1:1
 40
0.125
 41
1.75
  0
TEXT
  5
462
100
AcDbEntity
  8
NOTES
100
AcDbText
 62
2
  6
CONTINUOUS
 10
3.4102131097
 20
3.826577988
  7
STANDARD
 40
0.1
  1
1/2-14 NPSM
 41
1.0
 72
0
100
AcDbText
  0
LINE
  5
463
100
AcDbEntity
  8
NOTES
100
AcDbLine
 62
2
  6
CONTINUOUS
 10
5.7672895237
 20
3.2738353086
 11
4.7602131097
 21
3.876577988
  0
LINE
  5
464
100
AcDbEntity
  8
NOTES
100
AcDbLine
 62
2
  6
CONTINUOUS
 10
4.7602131097
 20
3.876577988
 11
4.5102131097
 21
3.876577988
  0
SOLID
  5
465
100
AcDbEntity
  8
NOTES
100
AcDbTrace
 62
2
  6
CONTINUOUS
 10
5.5903551995
 20
3.3433123366
 11
5.7672895237
 21
3.2738353086
 12
5.6224523072
 22
3.3969409267
 13
5.6224523072
 23
3.3969409267
  0
LINE
  5
466
100
AcDbEntity
  8
0
100
AcDbLine
 62
2
  6
CONTINUOUS
 10
0.814
 20
8.336603
 11
0.814
 21
8.163397
  0
LINE
  5
467
100
AcDbEntity
  8
0
100
AcDbLine
 62
2
  6
CONTINUOUS
 10
0.964
 20
15.75
 11
0.964
 21
0.75
  0
LINE
  5
468
100
AcDbEntity
  8
0
100
AcDbLine
 62
7
  6
CONTINUOUS
 10
15.8276527477
 20
1.2966912523
 11
16.4340437477
 21
1.3660842523
  0
LINE
  5
469
100
AcDbEntity
  8
0
100
AcDbLine
 62
2
  6
CONTINUOUS
 10
10.920397
 20
0.6
 11
11.093603
 21
0.6
  0
LINE
  5
46A
100
AcDbEntity
  8
0
100
AcDbLine
 62
2
  6
CONTINUOUS
 10
0.964
 20
0.75
 11
21.05
 21
0.75
  0
LINE
  5
46B
100
AcDbEntity
  8
0
100
AcDbLine
 62
2
  6
CONTINUOUS
 10
3.507
 20
0.75
 11
3.507
 21
0.5
  0
LINE
  5
46C
100
AcDbEntity
  8
0
100
AcDbLine
 62
2
  6
CONTINUOUS
 10
3.507
 20
15.75
 11
3.507
 21
16.0
  0
LINE
  5
46D
100
AcDbEntity
  8
0
100
AcDbLine
 62
2
  6
CONTINUOUS
 10
16.7
 20
1.0
 11
21.05
 21
1.0
  0
LINE
  5
46E
100
AcDbEntity
  8
0
100
AcDbLine
 62
7
  6
CONTINUOUS
 10
14.9008917477
 20
1.1139932523
 11
15.1229827477
 21
1.1139932523
  0
LINE
  5
46F
100
AcDbEntity
  8
0
100
AcDbLine
 62
7
  6
CONTINUOUS
 10
15.1729827477
 20
1.1139932523
 11
15.2729827477
 21
1.1139932523
  0
LINE
  5
470
100
AcDbEntity
  8
0
100
AcDbLine
 62
7
  6
CONTINUOUS
 10
15.3229827477
 20
1.1139932523
 11
15.5450737477
 21
1.1139932523
  0
LINE
  5
471
100
AcDbEntity
  8
0
100
AcDbLine
 62
7
  6
CONTINUOUS
 10
15.7276527477
 20
1.1139932523
 11
16.0058047477
 21
1.1139932523
  0
LINE
  5
472
100
AcDbEntity
  8
0
100
AcDbLine
 62
7
  6
CONTINUOUS
 10
16.0558047477
 20
1.1139932523
 11
16.2058907477
 21
1.1139932523
  0
LINE
  5
473
100
AcDbEntity
  8
0
100
AcDbLine
 62
7
  6
CONTINUOUS
 10
16.2558907477
 20
1.1139932523
 11
16.5340437477
 21
1.1139932523
  0
LINE
  5
474
100
AcDbEntity
  8
0
100
AcDbLine
 62
2
  6
CONTINUOUS
 10
16.7
 20
1.37
 11
21.05
 21
1.37
  0
LINE
  5
475
100
AcDbEntity
  8
0
100
AcDbLine
 62
7
  6
CONTINUOUS
 10
16.4340437477
 20
0.8619022523
 11
15.8276527477
 21
0.9312952523
  0
LINE
  5
476
100
AcDbEntity
  8
0
100
AcDbLine
 62
2
  6
CONTINUOUS
 10
14.7
 20
1.77
 11
16.7
 21
1.77
  0
LINE
  5
477
100
AcDbEntity
  8
0
100
AcDbLine
 62
2
  6
CONTINUOUS
 10
16.7
 20
2.13
 11
21.05
 21
2.13
  0
LINE
  5
478
100
AcDbEntity
  8
0
100
AcDbLine
 62
2
  6
CONTINUOUS
 10
21.05
 20
2.67
 11
14.7
 21
2.67
  0
LINE
  5
479
100
AcDbEntity
  8
0
100
AcDbLine
 62
2
  6
CONTINUOUS
 10
6.007
 20
0.75
 11
6.007
 21
0.5
  0
LINE
  5
47A
100
AcDbEntity
  8
0
100
AcDbLine
 62
2
  6
CONTINUOUS
 10
6.007
 20
15.75
 11
6.007
 21
16.0
  0
LINE
  5
47B
100
AcDbEntity
  8
0
100
AcDbLine
 62
2
  6
CONTINUOUS
 10
0.814
 20
8.163397
 11
0.964
 21
8.25
  0
LINE
  5
47C
100
AcDbEntity
  8
0
100
AcDbLine
 62
2
  6
CONTINUOUS
 10
0.964
 20
8.25
 11
0.814
 21
8.336603
  0
LINE
  5
47D
100
AcDbEntity
  8
0
100
AcDbLine
 62
2
  6
CONTINUOUS
 10
0.964
 20
4.4
 11
0.714
 21
4.4
  0
LINE
  5
47E
100
AcDbEntity
  8
0
100
AcDbLine
 62
2
  6
CONTINUOUS
 10
21.05
 20
4.4
 11
21.3
 21
4.4
  0
LINE
  5
47F
100
AcDbEntity
  8
0
100
AcDbLine
 62
2
  6
CONTINUOUS
 10
11.093603
 20
0.6
 11
11.007
 21
0.75
  0
LINE
  5
480
100
AcDbEntity
  8
0
100
AcDbLine
 62
2
  6
CONTINUOUS
 10
11.007
 20
15.75
 11
11.093603
 21
15.9
  0
LINE
  5
481
100
AcDbEntity
  8
0
100
AcDbLine
 62
2
  6
CONTINUOUS
 10
8.507
 20
0.75
 11
8.507
 21
0.5
  0
LINE
  5
482
100
AcDbEntity
  8
0
100
AcDbLine
 62
2
  6
CONTINUOUS
 10
8.507
 20
15.75
 11
8.507
 21
16.0
  0
LINE
  5
483
100
AcDbEntity
  8
0
100
AcDbLine
 62
2
  6
CONTINUOUS
 10
11.007
 20
0.75
 11
11.007
 21
0.5
  0
LINE
  5
484
100
AcDbEntity
  8
0
100
AcDbLine
 62
2
  6
CONTINUOUS
 10
11.007
 20
15.75
 11
11.007
 21
16.0
  0
LINE
  5
485
100
AcDbEntity
  8
0
100
AcDbLine
 62
2
  6
CONTINUOUS
 10
0.964
 20
8.25
 11
0.714
 21
8.25
  0
LINE
  5
486
100
AcDbEntity
  8
0
100
AcDbLine
 62
2
  6
CONTINUOUS
 10
21.05
 20
8.25
 11
21.3
 21
8.25
  0
LINE
  5
487
100
AcDbEntity
  8
0
100
AcDbLine
 62
2
  6
CONTINUOUS
 10
13.507
 20
0.75
 11
13.507
 21
0.5
  0
LINE
  5
488
100
AcDbEntity
  8
0
100
AcDbLine
 62
2
  6
CONTINUOUS
 10
13.507
 20
15.75
 11
13.507
 21
16.0
  0
LINE
  5
489
100
AcDbEntity
  8
0
100
AcDbLine
 62
2
  6
CONTINUOUS
 10
14.7
 20
2.67
 11
14.7
 21
0.75
  0
LINE
  5
48A
100
AcDbEntity
  8
0
100
AcDbLine
 62
2
  6
CONTINUOUS
 10
11.007
 20
0.75
 11
10.920397
 21
0.6
  0
LINE
  5
48B
100
AcDbEntity
  8
0
100
AcDbLine
 62
2
  6
CONTINUOUS
 10
0.964
 20
12.1
 11
0.714
 21
12.1
  0
LINE
  5
48C
100
AcDbEntity
  8
0
100
AcDbLine
 62
2
  6
CONTINUOUS
 10
21.05
 20
12.1
 11
21.3
 21
12.1
  0
LINE
  5
48D
100
AcDbEntity
  8
0
100
AcDbLine
 62
2
  6
CONTINUOUS
 10
10.920397
 20
15.9
 11
11.007
 21
15.75
  0
LINE
  5
48E
100
AcDbEntity
  8
0
100
AcDbLine
 62
7
  6
CONTINUOUS
 10
15.2229827477
 20
1.0139932523
 11
15.2229827477
 21
0.7919022523
  0
LINE
  5
48F
100
AcDbEntity
  8
0
100
AcDbLine
 62
7
  6
CONTINUOUS
 10
15.2229827477
 20
1.0639932523
 11
15.2229827477
 21
1.1639932523
  0
LINE
  5
490
100
AcDbEntity
  8
0
100
AcDbLine
 62
7
  6
CONTINUOUS
 10
15.2229827477
 20
1.2139932523
 11
15.2229827477
 21
1.4360842523
  0
LINE
  5
491
100
AcDbEntity
  8
0
100
AcDbLine
 62
7
  6
CONTINUOUS
 10
15.8276527477
 20
0.9312952523
 11
15.8276527477
 21
1.2966912523
  0
LINE
  5
492
100
AcDbEntity
  8
0
100
AcDbLine
 62
2
  6
CONTINUOUS
 10
16.007
 20
0.75
 11
16.007
 21
0.5
  0
LINE
  5
493
100
AcDbEntity
  8
0
100
AcDbLine
 62
2
  6
CONTINUOUS
 10
16.007
 20
15.75
 11
16.007
 21
16.0
  0
LINE
  5
494
100
AcDbEntity
  8
0
100
AcDbLine
 62
7
  6
CONTINUOUS
 10
16.4340437477
 20
1.3660842523
 11
16.4340437477
 21
0.8619022523
  0
LINE
  5
495
100
AcDbEntity
  8
0
100
AcDbLine
 62
2
  6
CONTINUOUS
 10
21.2
 20
8.336603
 11
21.05
 21
8.25
  0
LINE
  5
496
100
AcDbEntity
  8
0
100
AcDbLine
 62
2
  6
CONTINUOUS
 10
21.05
 20
8.25
 11
21.2
 21
8.163397
  0
LINE
  5
497
100
AcDbEntity
  8
0
100
AcDbLine
 62
7
  6
CONTINUOUS
 10
16.7
 20
2.67
 11
16.7
 21
0.75
  0
LINE
  5
498
100
AcDbEntity
  8
0
100
AcDbLine
 62
2
  6
CONTINUOUS
 10
17.5
 20
1.37
 11
17.5
 21
1.0
  0
LINE
  5
499
100
AcDbEntity
  8
0
100
AcDbLine
 62
2
  6
CONTINUOUS
 10
18.507
 20
0.75
 11
18.507
 21
0.5
  0
LINE
  5
49A
100
AcDbEntity
  8
0
100
AcDbLine
 62
2
  6
CONTINUOUS
 10
18.507
 20
15.75
 11
18.507
 21
16.0
  0
LINE
  5
49B
100
AcDbEntity
  8
0
100
AcDbLine
 62
2
  6
CONTINUOUS
 10
21.05
 20
15.75
 11
0.964
 21
15.75
  0
LINE
  5
49C
100
AcDbEntity
  8
0
100
AcDbLine
 62
2
  6
CONTINUOUS
 10
11.093603
 20
15.9
 11
10.920397
 21
15.9
  0
LINE
  5
49D
100
AcDbEntity
  8
0
100
AcDbLine
 62
2
  6
CONTINUOUS
 10
18.875
 20
1.0
 11
18.875
 21
0.75
  0
LINE
  5
49E
100
AcDbEntity
  8
0
100
AcDbLine
 62
2
  6
CONTINUOUS
 10
20.25
 20
1.37
 11
20.25
 21
1.0
  0
LINE
  5
49F
100
AcDbEntity
  8
0
100
AcDbLine
 62
2
  6
CONTINUOUS
 10
21.05
 20
0.75
 11
21.05
 21
15.75
  0
LINE
  5
4A0
100
AcDbEntity
  8
0
100
AcDbLine
 62
2
  6
CONTINUOUS
 10
21.2
 20
8.163397
 11
21.2
 21
8.336603
  0
LINE
  5
4A1
100
AcDbEntity
  8
02___PRT_ALL_AXES
100
AcDbLine
 62
7
  6
CONTINUOUS
 10
6.0192326802
 20
4.9788885711
 11
6.2342326802
 21
4.9788885711
  0
LWPOLYLINE
  5
4A2
100
AcDbEntity
  8
02___PRT_ALL_AXES
100
AcDbPolyline
 62
7
  6
CONTINUOUS
 90
5
 70
0
 10
6.3527165892
 20
6.1423003637
 10
6.3230685295
 20
6.1356349223
 10
6.292010616
 20
6.1294711928
 10
6.2607881014
 20
6.1241657854
 10
6.2304300596
 20
6.1199050416
  0
LWPOLYLINE
  5
4A3
100
AcDbEntity
  8
02___PRT_ALL_AXES
100
AcDbPolyline
 62
7
  6
CONTINUOUS
 90
4
 70
0
 10
6.3527165892
 20
6.2013554818
 10
6.3117408885
 20
6.1923424593
 10
6.2709603061
 20
6.1848485215
 10
6.2304300596
 20
6.1789601597
  0
LWPOLYLINE
  5
4A4
100
AcDbEntity
  8
02___PRT_ALL_AXES
100
AcDbPolyline
 62
7
  6
CONTINUOUS
 90
4
 70
0
 10
5.9007487711
 20
6.142248432
 10
5.9417178181
 20
6.1512601087
 10
5.9824978248
 20
6.1587542006
 10
6.0230353007
 20
6.1646437541
  0
LWPOLYLINE
  5
4A5
100
AcDbEntity
  8
02___PRT_ALL_AXES
100
AcDbPolyline
 62
7
  6
CONTINUOUS
 90
4
 70
0
 10
6.3527165892
 20
6.2604105999
 10
6.3117408885
 20
6.2513975774
 10
6.2709603061
 20
6.2439036396
 10
6.2304300596
 20
6.2380152778
  0
LWPOLYLINE
  5
4A6
100
AcDbEntity
  8
02___PRT_ALL_AXES
100
AcDbPolyline
 62
7
  6
CONTINUOUS
 90
4
 70
0
 10
5.9007487711
 20
6.2013035502
 10
5.9417178181
 20
6.2103152268
 10
5.9824978248
 20
6.2178093187
 10
6.0230353007
 20
6.2236988722
  0
LWPOLYLINE
  5
4A7
100
AcDbEntity
  8
02___PRT_ALL_AXES
100
AcDbPolyline
 62
7
  6
CONTINUOUS
 90
4
 70
0
 10
6.3527165892
 20
6.319465718
 10
6.3117408885
 20
6.3104526955
 10
6.2709603061
 20
6.3029587577
 10
6.2304300596
 20
6.297070396
  0
LWPOLYLINE
  5
4A8
100
AcDbEntity
  8
02___PRT_ALL_AXES
100
AcDbPolyline
 62
7
  6
CONTINUOUS
 90
5
 70
0
 10
5.6493958434
 20
6.3337454704
 10
5.6121134444
 20
6.3322668388
 10
5.5874854027
 20
6.3307836058
 10
5.5761944213
 20
6.3292781943
 10
5.5757918304
 20
6.3291017312
  0
LWPOLYLINE
  5
4A9
100
AcDbEntity
  8
02___PRT_ALL_AXES
100
AcDbPolyline
 62
7
  6
CONTINUOUS
 90
7
 70
0
 10
5.6493958434
 20
6.2854489946
 10
5.6932031044
 20
6.2867836503
 10
5.7460158171
 20
6.2881248712
 10
5.8061680671
 20
6.2894577116
 10
5.8731770191
 20
6.2907986413
 10
5.9461477933
 20
6.2921541873
 10
6.0230353007
 20
6.2935126326
  0
LWPOLYLINE
  5
4AA
100
AcDbEntity
  8
02___PRT_ALL_AXES
100
AcDbPolyline
 62
7
  6
CONTINUOUS
 90
5
 70
0
 10
5.6187099039
 20
6.3059062876
 10
5.6730168753
 20
6.3074376899
 10
5.7393422321
 20
6.3089690921
 10
5.8159290953
 20
6.3105004944
 10
5.9007487711
 20
6.3120318966
  0
LWPOLYLINE
  5
4AB
100
AcDbEntity
  8
02___PRT_ALL_AXES
100
AcDbPolyline
 62
7
  6
CONTINUOUS
 90
5
 70
0
 10
5.6187099039
 20
6.3132881774
 10
5.6730168753
 20
6.3148195796
 10
5.7393422321
 20
6.3163509819
 10
5.8159290953
 20
6.3178823841
 10
5.9007487711
 20
6.3194137864
  0
LWPOLYLINE
  5
4AC
100
AcDbEntity
  8
02___PRT_ALL_AXES
100
AcDbPolyline
 62
7
  6
CONTINUOUS
 90
7
 70
0
 10
6.4723689443
 20
6.3016621234
 10
6.537267728
 20
6.303189204
 10
6.5915717581
 20
6.3047232197
 10
6.6332106367
 20
6.3062438066
 10
6.6615036898
 20
6.307756053
 10
6.6760965032
 20
6.3092918523
 10
6.6776735299
 20
6.3097777731
  0
LWPOLYLINE
  5
4AD
100
AcDbEntity
  8
02___PRT_ALL_AXES
100
AcDbPolyline
 62
7
  6
CONTINUOUS
 90
5
 70
0
 10
6.5367629214
 20
6.2333625527
 10
6.4714093866
 20
6.2318273758
 10
6.3979869523
 20
6.2303138526
 10
6.3170373643
 20
6.2287910904
 10
6.2304300596
 20
6.2272566355
  0
LWPOLYLINE
  5
4AE
100
AcDbEntity
  8
02___PRT_ALL_AXES
100
AcDbPolyline
 62
7
  6
CONTINUOUS
 90
3
 70
0
 10
5.7448543339
 20
6.1983577185
 10
5.8190309436
 20
6.1998306343
 10
5.9007487711
 20
6.2013035502
  0
LWPOLYLINE
  5
4AF
100
AcDbEntity
  8
02___PRT_ALL_AXES
100
AcDbPolyline
 62
7
  6
CONTINUOUS
 90
9
 70
0
 10
6.3527165892
 20
6.1423003637
 10
6.4344344167
 20
6.1437732795
 10
6.5086110264
 20
6.1452461954
 10
6.5734284825
 20
6.1467191112
 10
6.6272982255
 20
6.148192027
 10
6.6689000045
 20
6.1496649429
 10
6.6972142345
 20
6.1511378587
 10
6.7115469845
 20
6.1526107746
 10
6.7131210954
 20
6.1530864659
  0
LWPOLYLINE
  5
4B0
100
AcDbEntity
  8
02___PRT_ALL_AXES
100
AcDbPolyline
 62
7
  6
CONTINUOUS
 90
9
 70
0
 10
6.3527165892
 20
6.1496822534
 10
6.4344344167
 20
6.1511551693
 10
6.5086110264
 20
6.1526280851
 10
6.5734284825
 20
6.154101001
 10
6.6272982255
 20
6.1555739168
 10
6.6689000045
 20
6.1570468326
 10
6.6972142345
 20
6.1585197485
 10
6.7115469845
 20
6.1599926643
 10
6.7133468534
 20
6.1607291223
  0
LWPOLYLINE
  5
4B1
100
AcDbEntity
  8
02___PRT_ALL_AXES
100
AcDbPolyline
 62
7
  6
CONTINUOUS
 90
9
 70
0
 10
6.3527165892
 20
6.2013554818
 10
6.4344344167
 20
6.2028283976
 10
6.5086110264
 20
6.2043013135
 10
6.5734284825
 20
6.2057742293
 10
6.6272982255
 20
6.2072471452
 10
6.6689000045
 20
6.208720061
 10
6.6972142345
 20
6.2101929768
 10
6.7115469845
 20
6.2116658927
 10
6.7131210954
 20
6.212141584
  0
LWPOLYLINE
  5
4B2
100
AcDbEntity
  8
02___PRT_ALL_AXES
100
AcDbPolyline
 62
7
  6
CONTINUOUS
 90
9
 70
0
 10
6.3527165892
 20
6.2087373715
 10
6.4344344167
 20
6.2102102874
 10
6.5086110264
 20
6.2116832032
 10
6.5734284825
 20
6.2131561191
 10
6.6272982255
 20
6.2146290349
 10
6.6689000045
 20
6.2161019508
 10
6.6972142345
 20
6.2175748666
 10
6.7115469845
 20
6.2190477824
 10
6.7133468534
 20
6.2197842404
  0
LWPOLYLINE
  5
4B3
100
AcDbEntity
  8
02___PRT_ALL_AXES
100
AcDbPolyline
 62
7
  6
CONTINUOUS
 90
9
 70
0
 10
6.3527165892
 20
6.2604105999
 10
6.4344344167
 20
6.2618835157
 10
6.5086110264
 20
6.2633564316
 10
6.5734284825
 20
6.2648293474
 10
6.6272982255
 20
6.2663022633
 10
6.6689000045
 20
6.2677751791
 10
6.6972142345
 20
6.269248095
 10
6.7115469845
 20
6.2707210108
 10
6.7131210954
 20
6.2711967021
  0
LWPOLYLINE
  5
4B4
100
AcDbEntity
  8
02___PRT_ALL_AXES
100
AcDbPolyline
 62
7
  6
CONTINUOUS
 90
9
 70
0
 10
6.3527165892
 20
6.2677924896
 10
6.4344344167
 20
6.2692654055
 10
6.5086110264
 20
6.2707383213
 10
6.5734284825
 20
6.2722112372
 10
6.6272982255
 20
6.273684153
 10
6.6689000045
 20
6.2751570689
 10
6.6972142345
 20
6.2766299847
 10
6.7115469845
 20
6.2781029006
 10
6.7133468534
 20
6.2788393585
  0
LWPOLYLINE
  5
4B5
100
AcDbEntity
  8
02___PRT_ALL_AXES
100
AcDbPolyline
 62
7
  6
CONTINUOUS
 90
9
 70
0
 10
6.3527165892
 20
6.319465718
 10
6.4344344167
 20
6.3209386338
 10
6.5086110264
 20
6.3224115497
 10
6.5734284825
 20
6.3238844655
 10
6.6272982255
 20
6.3253573814
 10
6.6689000045
 20
6.3268302972
 10
6.6972142345
 20
6.3283032131
 10
6.7115469845
 20
6.3297761289
 10
6.7131210954
 20
6.3302518203
  0
LWPOLYLINE
  5
4B6
100
AcDbEntity
  8
02___PRT_ALL_AXES
100
AcDbPolyline
 62
7
  6
CONTINUOUS
 90
9
 70
0
 10
6.3527165892
 20
6.3268476078
 10
6.4344344167
 20
6.3283205236
 10
6.5086110264
 20
6.3297934394
 10
6.5734284825
 20
6.3312663553
 10
6.6272982255
 20
6.3327392711
 10
6.6689000045
 20
6.334212187
 10
6.6972142345
 20
6.3356851028
 10
6.7115469845
 20
6.3371580187
 10
6.7133468534
 20
6.3378944766
  0
LWPOLYLINE
  5
4B7
100
AcDbEntity
  8
02___PRT_ALL_AXES
100
AcDbPolyline
 62
7
  6
CONTINUOUS
 90
9
 70
0
 10
6.3527165892
 20
6.3785208361
 10
6.4344344167
 20
6.3799937519
 10
6.5086110264
 20
6.3814666678
 10
6.5734284825
 20
6.3829395836
 10
6.6272982255
 20
6.3844124995
 10
6.6689000045
 20
6.3858854153
 10
6.6972142345
 20
6.3873583312
 10
6.7115469845
 20
6.388831247
 10
6.7131210954
 20
6.3893069384
  0
LWPOLYLINE
  5
4B8
100
AcDbEntity
  8
02___PRT_ALL_AXES
100
AcDbPolyline
 62
7
  6
CONTINUOUS
 90
10
 70
0
 10
6.2304300596
 20
6.1199050416
 10
6.3162048002
 20
6.1214243736
 10
6.3973682677
 20
6.1229501439
 10
6.4709650492
 20
6.1244660762
 10
6.5361929849
 20
6.1259964283
 10
6.5910270319
 20
6.1275406043
 10
6.6331818064
 20
6.1290772063
 10
6.6615323386
 20
6.1305927166
 10
6.6760893505
 20
6.1321249962
 10
6.6776735299
 20
6.1326124188
  0
LWPOLYLINE
  5
4B9
100
AcDbEntity
  8
02___PRT_ALL_AXES
100
AcDbPolyline
 62
7
  6
CONTINUOUS
 90
10
 70
0
 10
6.0230353007
 20
6.1646437541
 10
5.9358015628
 20
6.1630979146
 10
5.8540232911
 20
6.1615580087
 10
5.7805250258
 20
6.1600395114
 10
5.7161113551
 20
6.1585227408
 10
5.6624678763
 20
6.1570091263
 10
5.6207584415
 20
6.1554920582
 10
5.5922316019
 20
6.1539770258
 10
5.5774596712
 20
6.1524411515
 10
5.5757918304
 20
6.1519363769
  0
LWPOLYLINE
  5
4BA
100
AcDbEntity
  8
02___PRT_ALL_AXES
100
AcDbPolyline
 62
7
  6
CONTINUOUS
 90
10
 70
0
 10
6.2304300596
 20
6.1789601597
 10
6.3170373643
 20
6.1804946146
 10
6.3979869523
 20
6.1820173768
 10
6.4714093866
 20
6.1835309001
 10
6.5367629214
 20
6.1850660769
 10
6.5916188643
 20
6.1866144786
 10
6.6337055682
 20
6.1881550209
 10
6.6618939293
 20
6.1896734552
 10
6.6761594679
 20
6.1911949657
 10
6.6776735299
 20
6.1916675369
  0
LWPOLYLINE
  5
4BB
100
AcDbEntity
  8
02___PRT_ALL_AXES
100
AcDbPolyline
 62
7
  6
CONTINUOUS
 90
10
 70
0
 10
6.0230353007
 20
6.2236988722
 10
5.935916703
 20
6.2221551256
 10
5.8542849119
 20
6.2206182597
 10
5.7808109447
 20
6.2191008937
 10
5.7157251459
 20
6.2175679806
 10
5.6611358386
 20
6.2160219535
 10
5.6193032383
 20
6.2144841216
 10
5.5913188148
 20
6.2129675081
 10
5.5772037445
 20
6.2114418899
 10
5.5757918304
 20
6.210991495
  0
LWPOLYLINE
  5
4BC
100
AcDbEntity
  8
02___PRT_ALL_AXES
100
AcDbPolyline
 62
7
  6
CONTINUOUS
 90
10
 70
0
 10
6.2304300596
 20
6.2380152778
 10
6.3176054834
 20
6.2395600574
 10
6.3993403032
 20
6.2410990264
 10
6.4727792779
 20
6.2426159915
 10
6.5369999436
 20
6.2441272452
 10
6.5908215692
 20
6.2456443428
 10
6.6327270215
 20
6.2471678381
 10
6.6612460694
 20
6.2486828661
 10
6.6760046459
 20
6.2502176665
 10
6.6776735299
 20
6.250722655
  0
LWPOLYLINE
  5
4BD
100
AcDbEntity
  8
02___PRT_ALL_AXES
100
AcDbPolyline
 62
7
  6
CONTINUOUS
 90
10
 70
0
 10
6.0230353007
 20
6.2827539903
 10
5.9376048562
 20
6.2812409097
 10
5.8567785201
 20
6.2797222212
 10
5.7831251274
 20
6.2782065901
 10
5.7177544792
 20
6.2766748753
 10
5.6627830695
 20
6.2751293261
 10
5.6205045374
 20
6.2735913634
 10
5.5920798201
 20
6.2720766372
 10
5.5775089179
 20
6.2705614246
 10
5.5757918304
 20
6.2700466131
  0
LWPOLYLINE
  5
4BE
100
AcDbEntity
  8
02___PRT_ALL_AXES
100
AcDbPolyline
 62
7
  6
CONTINUOUS
 90
4
 70
0
 10
6.2304300596
 20
6.297070396
 10
6.3172095944
 20
6.2986079804
 10
6.3987987817
 20
6.3001435233
 10
6.4723689443
 20
6.3016621234
  0
LWPOLYLINE
  5
4BF
100
AcDbEntity
  8
02___PRT_ALL_AXES
100
AcDbPolyline
 62
7
  6
CONTINUOUS
 90
7
 70
0
 10
6.0230353007
 20
6.3418091084
 10
5.9461477933
 20
6.340450663
 10
5.8731770191
 20
6.3390951171
 10
5.8061680671
 20
6.3377541874
 10
5.7460158171
 20
6.336421347
 10
5.6932031044
 20
6.335080126
 10
5.6493958434
 20
6.3337454704
  0
LWPOLYLINE
  5
4C0
100
AcDbEntity
  8
02___PRT_ALL_AXES
100
AcDbPolyline
 62
7
  6
CONTINUOUS
 90
10
 70
0
 10
6.2304300596
 20
6.3561255141
 10
6.3163796282
 20
6.3576480209
 10
6.3968942479
 20
6.3591613403
 10
6.4705222583
 20
6.3606768847
 10
6.5359539955
 20
6.3622108152
 10
6.5909429584
 20
6.3637584171
 10
6.6331990606
 20
6.3652984244
 10
6.6615665359
 20
6.3668156001
 10
6.6760145571
 20
6.3683299377
 10
6.6776735299
 20
6.3688328912
  0
LINE
  5
4C1
100
AcDbEntity
  8
0
100
AcDbLine
 62
7
  6
CONTINUOUS
 10
6.6385437038
 20
6.0340066813
 11
5.6149216565
 21
6.0340066813
  0
LINE
  5
4C2
100
AcDbEntity
  8
0
100
AcDbLine
 62
9
  6
CONTINUOUS
 10
5.5755515778
 20
6.0733767601
 11
6.6779137825
 21
6.0733767601
  0
LWPOLYLINE
  5
4C3
100
AcDbEntity
  8
02___PRT_ALL_AXES
100
AcDbPolyline
 62
7
  6
CONTINUOUS
 90
4
 70
0
 10
6.0230353007
 20
6.1163472783
 10
5.9825058502
 20
6.1208987321
 10
5.9417220699
 20
6.1270973298
 10
5.9007487711
 20
6.1348665423
  0
LWPOLYLINE
  5
4C4
100
AcDbEntity
  8
02___PRT_ALL_AXES
100
AcDbPolyline
 62
7
  6
CONTINUOUS
 90
4
 70
0
 10
6.0230353007
 20
6.1754023964
 10
5.9825058502
 20
6.1799538502
 10
5.9417220699
 20
6.1861524479
 10
5.9007487711
 20
6.1939216604
  0
LWPOLYLINE
  5
4C5
100
AcDbEntity
  8
02___PRT_ALL_AXES
100
AcDbPolyline
 62
7
  6
CONTINUOUS
 90
4
 70
0
 10
6.0230353007
 20
6.2344575145
 10
5.9825158756
 20
6.2390076407
 10
5.9417330789
 20
6.2452056817
 10
5.9007487711
 20
6.2529767785
  0
LWPOLYLINE
  5
4C6
100
AcDbEntity
  8
02___PRT_ALL_AXES
100
AcDbPolyline
 62
7
  6
CONTINUOUS
 90
4
 70
0
 10
6.2304300596
 20
6.2272566355
 10
6.2709670733
 20
6.2227041802
 10
6.3117502091
 20
6.2165053997
 10
6.3527165892
 20
6.2087373715
  0
LWPOLYLINE
  5
4C7
100
AcDbEntity
  8
02___PRT_ALL_AXES
100
AcDbPolyline
 62
7
  6
CONTINUOUS
 90
4
 70
0
 10
6.0230353007
 20
6.2935126326
 10
5.9825058502
 20
6.2980640864
 10
5.9417220699
 20
6.3042626842
 10
5.9007487711
 20
6.3120318966
  0
LWPOLYLINE
  5
4C8
100
AcDbEntity
  8
02___PRT_ALL_AXES
100
AcDbPolyline
 62
7
  6
CONTINUOUS
 90
4
 70
0
 10
6.2304300596
 20
6.2863117536
 10
6.2709670733
 20
6.2817592983
 10
6.3117502091
 20
6.2755605178
 10
6.3527165892
 20
6.2677924896
  0
LWPOLYLINE
  5
4C9
100
AcDbEntity
  8
02___PRT_ALL_AXES
100
AcDbPolyline
 62
7
  6
CONTINUOUS
 90
4
 70
0
 10
6.0230353007
 20
6.3525677508
 10
5.9825058502
 20
6.3571192045
 10
5.9417220699
 20
6.3633178023
 10
5.9007487711
 20
6.3710870147
  0
LWPOLYLINE
  5
4CA
100
AcDbEntity
  8
02___PRT_ALL_AXES
100
AcDbPolyline
 62
7
  6
CONTINUOUS
 90
4
 70
0
 10
6.2304300596
 20
6.1682015174
 10
6.2712364042
 20
6.1636133586
 10
6.3127800329
 20
6.1572735136
 10
6.3527165892
 20
6.1496822534
  0
LWPOLYLINE
  5
4CB
100
AcDbEntity
  8
02___PRT_ALL_AXES
100
AcDbPolyline
 62
7
  6
CONTINUOUS
 90
5
 70
0
 10
6.3527165892
 20
6.3785208361
 10
6.3233900591
 20
6.3719236662
 10
6.2927099762
 20
6.3658209018
 10
6.2614711474
 20
6.36049245
 10
6.2304300596
 20
6.3561255141
  0
LWPOLYLINE
  5
4CC
100
AcDbEntity
  8
02___PRT_ALL_AXES
100
AcDbPolyline
 62
7
  6
CONTINUOUS
 90
5
 70
0
 10
5.9007487711
 20
6.4375240226
 10
5.9300052734
 20
6.4441063114
 10
5.9606676456
 20
6.4502077119
 10
5.9919289268
 20
6.4555422353
 10
6.0230353007
 20
6.4599193446
  0
LWPOLYLINE
  5
4CD
100
AcDbEntity
  8
02___PRT_ALL_AXES
100
AcDbPolyline
 62
7
  6
CONTINUOUS
 90
4
 70
0
 10
5.9007487711
 20
6.2603586683
 10
5.9417262041
 20
6.2693720411
 10
5.9825053631
 20
6.2768656795
 10
6.0230353007
 20
6.2827539903
  0
LWPOLYLINE
  5
4CE
100
AcDbEntity
  8
02___PRT_ALL_AXES
100
AcDbPolyline
 62
7
  6
CONTINUOUS
 90
4
 70
0
 10
5.9007487711
 20
6.3194137864
 10
5.9417178181
 20
6.3284254631
 10
5.9824978248
 20
6.3359195549
 10
6.0230353007
 20
6.3418091084
  0
LWPOLYLINE
  5
4CF
100
AcDbEntity
  8
02___PRT_ALL_AXES
100
AcDbPolyline
 62
7
  6
CONTINUOUS
 90
4
 70
0
 10
6.3527165892
 20
6.4375759542
 10
6.3117408885
 20
6.4285629317
 10
6.2709603061
 20
6.4210689939
 10
6.2304300596
 20
6.4151806322
  0
LWPOLYLINE
  5
4D0
100
AcDbEntity
  8
02___PRT_ALL_AXES
100
AcDbPolyline
 62
7
  6
CONTINUOUS
 90
4
 70
0
 10
5.9007487711
 20
6.3784689045
 10
5.9417178181
 20
6.3874805812
 10
5.9824978248
 20
6.394974673
 10
6.0230353007
 20
6.4008642265
  0
LWPOLYLINE
  5
4D1
100
AcDbEntity
  8
02___PRT_ALL_AXES
100
AcDbPolyline
 62
7
  6
CONTINUOUS
 90
4
 70
0
 10
6.3527165892
 20
6.4966310723
 10
6.3117408885
 20
6.4876180498
 10
6.2709603061
 20
6.480124112
 10
6.2304300596
 20
6.4742357503
  0
LWPOLYLINE
  5
4D2
100
AcDbEntity
  8
02___PRT_ALL_AXES
100
AcDbPolyline
 62
7
  6
CONTINUOUS
 90
4
 70
0
 10
6.3527165892
 20
6.5556861904
 10
6.3117302863
 20
6.5466710236
 10
6.2709507308
 20
6.5391776517
 10
6.2304300596
 20
6.5332908684
  0
LWPOLYLINE
  5
4D3
100
AcDbEntity
  8
02___PRT_ALL_AXES
100
AcDbPolyline
 62
7
  6
CONTINUOUS
 90
4
 70
0
 10
5.9007487711
 20
6.4965791407
 10
5.9417178181
 20
6.5055908174
 10
5.9824978248
 20
6.5130849092
 10
6.0230353007
 20
6.5189744627
  0
LWPOLYLINE
  5
4D4
100
AcDbEntity
  8
02___PRT_ALL_AXES
100
AcDbPolyline
 62
7
  6
CONTINUOUS
 90
4
 70
0
 10
6.3527165892
 20
6.6147413085
 10
6.3117408885
 20
6.6057282861
 10
6.2709603061
 20
6.5982343482
 10
6.2304300596
 20
6.5923459865
  0
LWPOLYLINE
  5
4D5
100
AcDbEntity
  8
02___PRT_ALL_AXES
100
AcDbPolyline
 62
7
  6
CONTINUOUS
 90
4
 70
0
 10
5.9007487711
 20
6.5556342588
 10
5.9417178181
 20
6.5646459355
 10
5.9824978248
 20
6.5721400273
 10
6.0230353007
 20
6.5780295809
  0
LWPOLYLINE
  5
4D6
100
AcDbEntity
  8
02___PRT_ALL_AXES
100
AcDbPolyline
 62
7
  6
CONTINUOUS
 90
4
 70
0
 10
6.3527165892
 20
6.6737964267
 10
6.3117408885
 20
6.6647834042
 10
6.2709603061
 20
6.6572894663
 10
6.2304300596
 20
6.6514011046
  0
LWPOLYLINE
  5
4D7
100
AcDbEntity
  8
02___PRT_ALL_AXES
100
AcDbPolyline
 62
7
  6
CONTINUOUS
 90
5
 70
0
 10
6.6040695169
 20
6.4822993883
 10
6.6413484351
 20
6.4837778542
 10
6.6659781245
 20
6.4852611018
 10
6.6772706289
 20
6.4867665548
 10
6.6776735299
 20
6.4869431275
  0
LWPOLYLINE
  5
4D8
100
AcDbEntity
  8
02___PRT_ALL_AXES
100
AcDbPolyline
 62
7
  6
CONTINUOUS
 90
5
 70
0
 10
6.6347554564
 20
6.5027566813
 10
6.6738291664
 20
6.5042083294
 10
6.6998781753
 20
6.5056599774
 10
6.7122823355
 20
6.5071116255
 10
6.7131210954
 20
6.5074171746
  0
LWPOLYLINE
  5
4D9
100
AcDbEntity
  8
02___PRT_ALL_AXES
100
AcDbPolyline
 62
7
  6
CONTINUOUS
 90
5
 70
0
 10
6.6347554564
 20
6.5101385711
 10
6.6738291664
 20
6.5115902191
 10
6.6998781753
 20
6.5130418672
 10
6.7122823355
 20
6.5144935153
 10
6.7133468534
 20
6.5150598309
  0
LWPOLYLINE
  5
4DA
100
AcDbEntity
  8
02___PRT_ALL_AXES
100
AcDbPolyline
 62
7
  6
CONTINUOUS
 90
7
 70
0
 10
6.6040695169
 20
6.5305958641
 10
6.5602530274
 20
6.5292609536
 10
6.5074331371
 20
6.5279196006
 10
6.4472711058
 20
6.5265865981
 10
6.3802723563
 20
6.5252459104
 10
6.3073079769
 20
6.5238904983
 10
6.2304300596
 20
6.5225322261
  0
LWPOLYLINE
  5
4DB
100
AcDbEntity
  8
02___PRT_ALL_AXES
100
AcDbPolyline
 62
7
  6
CONTINUOUS
 90
5
 70
0
 10
5.7175378346
 20
6.4055382415
 10
5.7829716682
 20
6.4070721214
 10
5.8566053374
 20
6.4085877122
 10
5.9371165156
 20
6.4101009211
 10
6.0230353007
 20
6.4116228689
  0
LWPOLYLINE
  5
4DC
100
AcDbEntity
  8
02___PRT_ALL_AXES
100
AcDbPolyline
 62
7
  6
CONTINUOUS
 90
4
 70
0
 10
5.6800368778
 20
6.6028887396
 10
5.7448543339
 20
6.6043616555
 10
5.8190309436
 20
6.6058345713
 10
5.9007487711
 20
6.6073074872
  0
LWPOLYLINE
  5
4DD
100
AcDbEntity
  8
02___PRT_ALL_AXES
100
AcDbPolyline
 62
7
  6
CONTINUOUS
 90
8
 70
0
 10
6.4344344167
 20
6.6826512323
 10
6.5086110264
 20
6.6841241481
 10
6.5734284825
 20
6.685597064
 10
6.6272982255
 20
6.6870699798
 10
6.6689000045
 20
6.6885428956
 10
6.6972142345
 20
6.6900158115
 10
6.7115469845
 20
6.6914887273
 10
6.7133468534
 20
6.6922251853
  0
LWPOLYLINE
  5
4DE
100
AcDbEntity
  8
02___PRT_ALL_AXES
100
AcDbPolyline
 62
7
  6
CONTINUOUS
 90
3
 70
0
 10
5.8555403886
 20
6.5857322202
 10
5.9364555965
 20
6.5872542698
 10
6.0230353007
 20
6.5887882232
  0
LWPOLYLINE
  5
4DF
100
AcDbEntity
  8
02___PRT_ALL_AXES
100
AcDbPolyline
 62
7
  6
CONTINUOUS
 90
3
 70
0
 10
6.3992311025
 20
6.6437240685
 10
6.3175663378
 20
6.6421865302
 10
6.2304300596
 20
6.6406424623
  0
LWPOLYLINE
  5
4E0
100
AcDbEntity
  8
02___PRT_ALL_AXES
100
AcDbPolyline
 62
7
  6
CONTINUOUS
 90
9
 70
0
 10
6.31586143
 20
6.5348039659
 10
6.3966670545
 20
6.5363222505
 10
6.4703172512
 20
6.5378377675
 10
6.5356882057
 20
6.5393694066
 10
6.5906636089
 20
6.5409149426
 10
6.6329491251
 20
6.542452991
 10
6.6613793652
 20
6.5439677883
 10
6.6759515328
 20
6.5454824405
 10
6.6776735299
 20
6.5459982456
  0
LWPOLYLINE
  5
4E1
100
AcDbEntity
  8
02___PRT_ALL_AXES
100
AcDbPolyline
 62
7
  6
CONTINUOUS
 90
9
 70
0
 10
6.3527165892
 20
6.3859027259
 10
6.4344344167
 20
6.3873756417
 10
6.5086110264
 20
6.3888485576
 10
6.5734284825
 20
6.3903214734
 10
6.6272982255
 20
6.3917943892
 10
6.6689000045
 20
6.3932673051
 10
6.6972142345
 20
6.3947402209
 10
6.7115469845
 20
6.3962131368
 10
6.7133468534
 20
6.3969495947
  0
LWPOLYLINE
  5
4E2
100
AcDbEntity
  8
02___PRT_ALL_AXES
100
AcDbPolyline
 62
7
  6
CONTINUOUS
 90
9
 70
0
 10
6.3527165892
 20
6.4375759542
 10
6.4344344167
 20
6.4390488701
 10
6.5086110264
 20
6.4405217859
 10
6.5734284825
 20
6.4419947017
 10
6.6272982255
 20
6.4434676176
 10
6.6689000045
 20
6.4449405334
 10
6.6972142345
 20
6.4464134493
 10
6.7115469845
 20
6.4478863651
 10
6.7131210954
 20
6.4483620565
  0
LWPOLYLINE
  5
4E3
100
AcDbEntity
  8
02___PRT_ALL_AXES
100
AcDbPolyline
 62
7
  6
CONTINUOUS
 90
9
 70
0
 10
6.3527165892
 20
6.444957844
 10
6.4344344167
 20
6.4464307598
 10
6.5086110264
 20
6.4479036757
 10
6.5734284825
 20
6.4493765915
 10
6.6272982255
 20
6.4508495074
 10
6.6689000045
 20
6.4523224232
 10
6.6972142345
 20
6.453795339
 10
6.7115469845
 20
6.4552682549
 10
6.7133468534
 20
6.4560047128
  0
LWPOLYLINE
  5
4E4
100
AcDbEntity
  8
02___PRT_ALL_AXES
100
AcDbPolyline
 62
7
  6
CONTINUOUS
 90
5
 70
0
 10
6.3527165892
 20
6.4966310723
 10
6.437536265
 20
6.4981624746
 10
6.5141231282
 20
6.4996938768
 10
6.580448485
 20
6.5012252791
 10
6.6347554564
 20
6.5027566813
  0
LWPOLYLINE
  5
4E5
100
AcDbEntity
  8
02___PRT_ALL_AXES
100
AcDbPolyline
 62
7
  6
CONTINUOUS
 90
5
 70
0
 10
6.3527165892
 20
6.5040129621
 10
6.437536265
 20
6.5055443643
 10
6.5141231282
 20
6.5070757666
 10
6.580448485
 20
6.5086071688
 10
6.6347554564
 20
6.5101385711
  0
LWPOLYLINE
  5
4E6
100
AcDbEntity
  8
02___PRT_ALL_AXES
100
AcDbPolyline
 62
7
  6
CONTINUOUS
 90
9
 70
0
 10
6.3527165892
 20
6.5556861904
 10
6.4344344167
 20
6.5571591063
 10
6.5086110264
 20
6.5586320221
 10
6.5734284825
 20
6.560104938
 10
6.6272982255
 20
6.5615778538
 10
6.6689000045
 20
6.5630507697
 10
6.6972142345
 20
6.5645236855
 10
6.7115469845
 20
6.5659966013
 10
6.7131210954
 20
6.5664722927
  0
LINE
  5
4E7
100
AcDbEntity
  8
02___PRT_ALL_AXES
100
AcDbLine
 62
7
  6
CONTINUOUS
 10
5.8190309436
 20
6.5467794532
 11
5.9007487711
 21
6.548252369
  0
LWPOLYLINE
  5
4E8
100
AcDbEntity
  8
02___PRT_ALL_AXES
100
AcDbPolyline
 62
7
  6
CONTINUOUS
 90
9
 70
0
 10
6.3527165892
 20
6.5630680802
 10
6.4344344167
 20
6.564540996
 10
6.5086110264
 20
6.5660139119
 10
6.5734284825
 20
6.5674868277
 10
6.6272982255
 20
6.5689597436
 10
6.6689000045
 20
6.5704326594
 10
6.6972142345
 20
6.5719055753
 10
6.7115469845
 20
6.5733784911
 10
6.7133468534
 20
6.574114949
  0
LWPOLYLINE
  5
4E9
100
AcDbEntity
  8
02___PRT_ALL_AXES
100
AcDbPolyline
 62
7
  6
CONTINUOUS
 90
9
 70
0
 10
6.3527165892
 20
6.6147413085
 10
6.4344344167
 20
6.6162142244
 10
6.5086110264
 20
6.6176871402
 10
6.5734284825
 20
6.6191600561
 10
6.6272982255
 20
6.6206329719
 10
6.6689000045
 20
6.6221058878
 10
6.6972142345
 20
6.6235788036
 10
6.7115469845
 20
6.6250517195
 10
6.7131210954
 20
6.6255274108
  0
LWPOLYLINE
  5
4EA
100
AcDbEntity
  8
02___PRT_ALL_AXES
100
AcDbPolyline
 62
7
  6
CONTINUOUS
 90
9
 70
0
 10
6.3527165892
 20
6.6221231983
 10
6.4344344167
 20
6.6235961142
 10
6.5086110264
 20
6.62506903
 10
6.5734284825
 20
6.6265419458
 10
6.6272982255
 20
6.6280148617
 10
6.6689000045
 20
6.6294877775
 10
6.6972142345
 20
6.6309606934
 10
6.7115469845
 20
6.6324336092
 10
6.7133468534
 20
6.6331700671
  0
LWPOLYLINE
  5
4EB
100
AcDbEntity
  8
02___PRT_ALL_AXES
100
AcDbPolyline
 62
7
  6
CONTINUOUS
 90
9
 70
0
 10
6.3527165892
 20
6.6737964267
 10
6.4344344167
 20
6.6752693425
 10
6.5086110264
 20
6.6767422583
 10
6.5734284825
 20
6.6782151742
 10
6.6272982255
 20
6.67968809
 10
6.6689000045
 20
6.6811610059
 10
6.6972142345
 20
6.6826339217
 10
6.7115469845
 20
6.6841068376
 10
6.7131210954
 20
6.6845825289
  0
LINE
  5
4EC
100
AcDbEntity
  8
02___PRT_ALL_AXES
100
AcDbLine
 62
7
  6
CONTINUOUS
 10
5.8190309436
 20
6.6648896894
 11
5.9007487711
 21
6.6663626053
  0
LINE
  5
4ED
100
AcDbEntity
  8
02___PRT_ALL_AXES
100
AcDbLine
 62
7
  6
CONTINUOUS
 10
6.3527165892
 20
6.6811783164
 11
6.4344344167
 21
6.6826512323
  0
LWPOLYLINE
  5
4EE
100
AcDbEntity
  8
02___PRT_ALL_AXES
100
AcDbPolyline
 62
7
  6
CONTINUOUS
 90
10
 70
0
 10
6.0230353007
 20
6.4008642265
 10
5.9358507702
 20
6.3993192815
 10
5.8541148646
 20
6.397780278
 10
5.780672895
 20
6.3962632239
 10
5.7162977806
 20
6.3947479774
 10
5.6620044556
 20
6.3932149194
 10
5.6200905108
 20
6.3916837115
 10
5.5918087262
 20
6.3901677763
 10
5.5773383982
 20
6.3886363417
 10
5.5757918304
 20
6.3881568493
  0
LWPOLYLINE
  5
4EF
100
AcDbEntity
  8
02___PRT_ALL_AXES
100
AcDbPolyline
 62
7
  6
CONTINUOUS
 90
10
 70
0
 10
6.2304300596
 20
6.4151806322
 10
6.3176096004
 20
6.4167254865
 10
6.39934638
 20
6.4182645
 10
6.472786811
 20
6.4197815109
 10
6.5371367908
 20
6.4212960947
 10
6.5914126794
 20
6.42282841
 10
6.6333319257
 20
6.424359289
 10
6.6616291462
 20
6.4258751389
 10
6.6761184794
 20
6.4274067212
 10
6.6776735299
 20
6.4278880093
  0
LWPOLYLINE
  5
4F0
100
AcDbEntity
  8
02___PRT_ALL_AXES
100
AcDbPolyline
 62
7
  6
CONTINUOUS
 90
10
 70
0
 10
6.0230353007
 20
6.4599193446
 10
5.9371165156
 20
6.4583973969
 10
5.8566053374
 20
6.456884188
 10
5.7829716682
 20
6.4553685972
 10
5.7175378346
 20
6.4538347173
 10
5.6625468941
 20
6.4522872162
 10
5.6202883627
 20
6.4507473877
 10
5.5919150405
 20
6.4492304022
 10
5.5774581586
 20
6.4477164317
 10
5.5757918304
 20
6.4472119675
  0
LWPOLYLINE
  5
4F1
100
AcDbEntity
  8
02___PRT_ALL_AXES
100
AcDbPolyline
 62
7
  6
CONTINUOUS
 90
7
 70
0
 10
6.2304300596
 20
6.4742357503
 10
6.3073079769
 20
6.4755940226
 10
6.3802723563
 20
6.4769494346
 10
6.4472711058
 20
6.4782901224
 10
6.5074331371
 20
6.4796231249
 10
6.5602530274
 20
6.4809644778
 10
6.6040695169
 20
6.4822993883
  0
LWPOLYLINE
  5
4F2
100
AcDbEntity
  8
02___PRT_ALL_AXES
100
AcDbPolyline
 62
7
  6
CONTINUOUS
 90
10
 70
0
 10
6.0230353007
 20
6.5189744627
 10
5.9362140573
 20
6.5174361204
 10
5.8546108589
 20
6.5159002429
 10
5.7810436123
 20
6.5143815793
 10
5.7161584704
 20
6.5128546538
 10
5.6618787407
 20
6.5113211673
 10
5.6202618555
 20
6.5098013603
 10
5.5919637334
 20
6.508288951
 10
5.5773689636
 20
6.5067530287
 10
5.5757918304
 20
6.5062670856
  0
LINE
  5
4F3
100
AcDbEntity
  8
02___PRT_ALL_AXES
100
AcDbLine
 62
7
  6
CONTINUOUS
 10
6.2304300596
 20
6.5332908684
 11
6.31586143
 21
6.5348039659
  0
LWPOLYLINE
  5
4F4
100
AcDbEntity
  8
02___PRT_ALL_AXES
100
AcDbPolyline
 62
7
  6
CONTINUOUS
 90
10
 70
0
 10
6.0230353007
 20
6.5780295809
 10
5.935863525
 20
6.5764848677
 10
5.8541365999
 20
6.5749460587
 10
5.7807043797
 20
6.573429268
 10
5.716491276
 20
6.5719182738
 10
5.6626476997
 20
6.5704006395
 10
5.6207360104
 20
6.5688769205
 10
5.5922179576
 20
6.5673618994
 10
5.5774603308
 20
6.5658271135
 10
5.5757918304
 20
6.5653222037
  0
LWPOLYLINE
  5
4F5
100
AcDbEntity
  8
02___PRT_ALL_AXES
100
AcDbPolyline
 62
7
  6
CONTINUOUS
 90
10
 70
0
 10
6.2304300596
 20
6.5923459865
 10
6.3175663378
 20
6.5938900545
 10
6.3992311025
 20
6.5954275927
 10
6.4727212607
 20
6.5969454292
 10
6.5377868647
 20
6.598478072
 10
6.5923608839
 20
6.6000239045
 10
6.6341822078
 20
6.6015616144
 10
6.6621569631
 20
6.6030780987
 10
6.6762654309
 20
6.6046038102
 10
6.6776735299
 20
6.6050533637
  0
LWPOLYLINE
  5
4F6
100
AcDbEntity
  8
02___PRT_ALL_AXES
100
AcDbPolyline
 62
7
  6
CONTINUOUS
 90
10
 70
0
 10
6.0230353007
 20
6.637084699
 10
5.9364555965
 20
6.6355507456
 10
5.8555403886
 20
6.634028696
 10
5.7821035277
 20
6.6325149978
 10
5.7167392284
 20
6.6309797205
 10
5.6618745925
 20
6.6294312719
 10
5.6197809665
 20
6.6278907578
 10
5.5915847819
 20
6.6263723545
 10
5.5773115324
 20
6.6248510985
 10
5.5757918304
 20
6.6243773218
  0
LWPOLYLINE
  5
4F7
100
AcDbEntity
  8
02___PRT_ALL_AXES
100
AcDbPolyline
 62
7
  6
CONTINUOUS
 90
10
 70
0
 10
6.2304300596
 20
6.6514011046
 10
6.3176653094
 20
6.6529469716
 10
6.3994496193
 20
6.6544869981
 10
6.4729520562
 20
6.6560056042
 10
6.5373759199
 20
6.6575226781
 10
6.5910221997
 20
6.6590365144
 10
6.632718352
 20
6.6605532921
 10
6.6612399474
 20
6.6620682652
 10
6.6760077791
 20
6.663604136
 10
6.6776735299
 20
6.6641084818
  0
LWPOLYLINE
  5
4F8
100
AcDbEntity
  8
02___PRT_ALL_AXES
100
AcDbPolyline
 62
7
  6
CONTINUOUS
 90
10
 70
0
 10
6.0230353007
 20
6.6961398171
 10
5.9372263347
 20
6.6946198636
 10
5.8560554087
 20
6.6930938988
 10
5.7824648935
 20
6.6915780091
 10
5.7172443499
 20
6.6900477164
 10
5.6624196829
 20
6.6885036644
 10
5.6202745024
 20
6.6869672612
 10
5.5919235788
 20
6.6854514766
 10
5.5773688145
 20
6.6839183517
 10
5.5757918304
 20
6.6834324399
  0
LWPOLYLINE
  5
4F9
100
AcDbEntity
  8
02___PRT_ALL_AXES
100
AcDbPolyline
 62
7
  6
CONTINUOUS
 90
5
 70
0
 10
6.0230353007
 20
6.6478433413
 10
5.9927040589
 20
6.651095332
 10
5.9614882248
 20
6.6553918897
 10
5.930419207
 20
6.6605865723
 10
5.9007487711
 20
6.6663626053
  0
LWPOLYLINE
  5
4FA
100
AcDbEntity
  8
02___PRT_ALL_AXES
100
AcDbPolyline
 62
7
  6
CONTINUOUS
 90
5
 70
0
 10
6.0230353007
 20
6.4116228689
 10
5.9920254772
 20
6.4149581427
 10
5.9607994118
 20
6.4192768079
 10
5.9301094496
 20
6.4244223597
 10
5.9007487711
 20
6.4301421328
  0
LWPOLYLINE
  5
4FB
100
AcDbEntity
  8
02___PRT_ALL_AXES
100
AcDbPolyline
 62
7
  6
CONTINUOUS
 90
5
 70
0
 10
6.2304300596
 20
6.4044219898
 10
6.2615009035
 20
6.4010792046
 10
6.2927540354
 20
6.3967545407
 10
6.3234309021
 20
6.3916088656
 10
6.3527165892
 20
6.3859027259
  0
LWPOLYLINE
  5
4FC
100
AcDbEntity
  8
02___PRT_ALL_AXES
100
AcDbPolyline
 62
7
  6
CONTINUOUS
 90
4
 70
0
 10
6.2304300596
 20
6.3453668717
 10
6.2709670733
 20
6.3408144164
 10
6.3117502091
 20
6.3346156359
 10
6.3527165892
 20
6.3268476078
  0
LWPOLYLINE
  5
4FD
100
AcDbEntity
  8
02___PRT_ALL_AXES
100
AcDbPolyline
 62
7
  6
CONTINUOUS
 90
4
 70
0
 10
6.0230353007
 20
6.470677987
 10
5.9825058502
 20
6.4752294407
 10
5.9417220699
 20
6.4814280385
 10
5.9007487711
 20
6.4891972509
  0
LWPOLYLINE
  5
4FE
100
AcDbEntity
  8
02___PRT_ALL_AXES
100
AcDbPolyline
 62
7
  6
CONTINUOUS
 90
4
 70
0
 10
6.2304300596
 20
6.4634771079
 10
6.2709670733
 20
6.4589246526
 10
6.311750209
 20
6.4527258722
 10
6.3527165892
 20
6.444957844
  0
LWPOLYLINE
  5
4FF
100
AcDbEntity
  8
02___PRT_ALL_AXES
100
AcDbPolyline
 62
7
  6
CONTINUOUS
 90
4
 70
0
 10
6.0230353007
 20
6.5297331051
 10
5.9825058502
 20
6.5342845588
 10
5.9417220699
 20
6.5404831566
 10
5.9007487711
 20
6.548252369
  0
LWPOLYLINE
  5
500
100
AcDbEntity
  8
02___PRT_ALL_AXES
100
AcDbPolyline
 62
7
  6
CONTINUOUS
 90
4
 70
0
 10
6.2304300596
 20
6.5225322261
 10
6.2709670733
 20
6.5179797707
 10
6.311750209
 20
6.5117809903
 10
6.3527165892
 20
6.5040129621
  0
LWPOLYLINE
  5
501
100
AcDbEntity
  8
02___PRT_ALL_AXES
100
AcDbPolyline
 62
7
  6
CONTINUOUS
 90
4
 70
0
 10
6.0230353007
 20
6.5887882232
 10
5.9825058502
 20
6.5933396769
 10
5.9417220699
 20
6.5995382747
 10
5.9007487711
 20
6.6073074872
  0
LWPOLYLINE
  5
502
100
AcDbEntity
  8
02___PRT_ALL_AXES
100
AcDbPolyline
 62
7
  6
CONTINUOUS
 90
4
 70
0
 10
6.2304300596
 20
6.5815873442
 10
6.2709596424
 20
6.5770358729
 10
6.3117419907
 20
6.5708375151
 10
6.3527165892
 20
6.5630680802
  0
LWPOLYLINE
  5
503
100
AcDbEntity
  8
02___PRT_ALL_AXES
100
AcDbPolyline
 62
7
  6
CONTINUOUS
 90
4
 70
0
 10
6.2304300596
 20
6.6406424623
 10
6.2709670733
 20
6.636090007
 10
6.3117502091
 20
6.6298912265
 10
6.3527165892
 20
6.6221231983
  0
LWPOLYLINE
  5
504
100
AcDbEntity
  8
02___PRT_ALL_AXES
100
AcDbPolyline
 62
7
  6
CONTINUOUS
 90
4
 70
0
 10
6.2304300596
 20
6.6996975804
 10
6.2709670733
 20
6.6951451251
 10
6.3117502091
 20
6.6889463446
 10
6.3527165892
 20
6.6811783164
  0
LINE
  5
505
100
AcDbEntity
  8
0
100
AcDbLine
 62
7
  6
CONTINUOUS
 10
5.5403442649
 20
6.1235589069
 11
5.5757918304
 21
6.1030848597
  0
LINE
  5
506
100
AcDbEntity
  8
0
100
AcDbLine
 62
7
  6
CONTINUOUS
 10
5.5403442649
 20
6.182614025
 11
5.5757918304
 21
6.1621399779
  0
LINE
  5
507
100
AcDbEntity
  8
0
100
AcDbLine
 62
7
  6
CONTINUOUS
 10
5.5403442649
 20
6.2416691431
 11
5.5757918304
 21
6.221195096
  0
LINE
  5
508
100
AcDbEntity
  8
0
100
AcDbLine
 62
7
  6
CONTINUOUS
 10
5.5403442649
 20
6.3007242612
 11
5.5757918304
 21
6.2802502141
  0
LINE
  5
509
100
AcDbEntity
  8
0
100
AcDbLine
 62
7
  6
CONTINUOUS
 10
5.5403442649
 20
6.3597793793
 11
5.5757918304
 21
6.3393053322
  0
LINE
  5
50A
100
AcDbEntity
  8
0
100
AcDbLine
 62
7
  6
CONTINUOUS
 10
5.5403442649
 20
6.4188344974
 11
5.5757918304
 21
6.3983604503
  0
LINE
  5
50B
100
AcDbEntity
  8
0
100
AcDbLine
 62
7
  6
CONTINUOUS
 10
5.5403442649
 20
6.4778896155
 11
5.5757918304
 21
6.4574155684
  0
LWPOLYLINE
  5
50C
100
AcDbEntity
  8
02___PRT_ALL_AXES
100
AcDbPolyline
 62
7
  6
CONTINUOUS
 90
4
 70
0
 10
5.9007487711
 20
6.673744495
 10
5.9406420591
 20
6.6825380709
 10
5.9821892033
 20
6.6901993405
 10
6.0230353007
 20
6.6961398171
  0
LWPOLYLINE
  5
50D
100
AcDbEntity
  8
02___PRT_ALL_AXES
100
AcDbPolyline
 62
7
  6
CONTINUOUS
 90
4
 70
0
 10
5.9007487711
 20
6.6146893769
 10
5.9417178181
 20
6.6237010536
 10
5.9824978248
 20
6.6311951454
 10
6.0230353007
 20
6.637084699
  0
LINE
  5
50E
100
AcDbEntity
  8
0
100
AcDbLine
 62
9
  6
CONTINUOUS
 10
6.6779137825
 20
6.7426680986
 11
5.5755515778
 21
6.7426680986
  0
LINE
  5
50F
100
AcDbEntity
  8
02___PRT_ALL_AXES
100
AcDbLine
 62
7
  6
CONTINUOUS
 10
6.8550791368
 20
6.7820381774
 11
5.3983862235
 21
6.7820381774
  0
LINE
  5
510
100
AcDbEntity
  8
02___PRT_ALL_AXES
100
AcDbLine
 62
9
  6
CONTINUOUS
 10
5.2409059085
 20
6.9395184923
 11
7.0125594518
 21
6.9395184923
  0
LINE
  5
511
100
AcDbEntity
  8
0
100
AcDbLine
 62
7
  6
CONTINUOUS
 10
5.5403442649
 20
6.5369447336
 11
5.5757918304
 21
6.5164706865
  0
LINE
  5
512
100
AcDbEntity
  8
0
100
AcDbLine
 62
7
  6
CONTINUOUS
 10
5.5403442649
 20
6.5959998518
 11
5.5757918304
 21
6.5755258046
  0
LINE
  5
513
100
AcDbEntity
  8
0
100
AcDbLine
 62
7
  6
CONTINUOUS
 10
5.5403442649
 20
6.6550549699
 11
5.5757918304
 21
6.6345809227
  0
LINE
  5
514
100
AcDbEntity
  8
0
100
AcDbLine
 62
7
  6
CONTINUOUS
 10
6.7131210954
 20
6.1609898888
 11
6.6776735299
 21
6.181463936
  0
LINE
  5
515
100
AcDbEntity
  8
0
100
AcDbLine
 62
7
  6
CONTINUOUS
 10
6.7131210954
 20
6.2200450069
 11
6.6776735299
 21
6.2405190541
  0
LINE
  5
516
100
AcDbEntity
  8
02___PRT_ALL_AXES
100
AcDbLine
 62
9
  6
CONTINUOUS
 10
5.2409059085
 20
7.3725893585
 11
7.0125594518
 21
7.3725893585
  0
LINE
  5
517
100
AcDbEntity
  8
02___PRT_ALL_AXES
100
AcDbLine
 62
7
  6
CONTINUOUS
 10
7.0716145699
 20
7.4316444766
 11
5.1818507904
 21
7.4316444766
  0
LINE
  5
518
100
AcDbEntity
  8
0
100
AcDbLine
 62
7
  6
CONTINUOUS
 10
6.7131210954
 20
6.2791001251
 11
6.6776735299
 21
6.2995741722
  0
LINE
  5
519
100
AcDbEntity
  8
0
100
AcDbLine
 62
7
  6
CONTINUOUS
 10
6.7131210954
 20
6.3381552432
 11
6.6776735299
 21
6.3586292903
  0
LINE
  5
51A
100
AcDbEntity
  8
0
100
AcDbLine
 62
7
  6
CONTINUOUS
 10
6.7131210954
 20
6.3972103613
 11
6.6776735299
 21
6.4176844084
  0
LINE
  5
51B
100
AcDbEntity
  8
0
100
AcDbLine
 62
7
  6
CONTINUOUS
 10
6.7131210954
 20
6.4562654794
 11
6.6776735299
 21
6.4767395265
  0
LINE
  5
51C
100
AcDbEntity
  8
0
100
AcDbLine
 62
7
  6
CONTINUOUS
 10
6.7131210954
 20
6.5153205975
 11
6.6776735299
 21
6.5357946446
  0
LINE
  5
51D
100
AcDbEntity
  8
0
100
AcDbLine
 62
7
  6
CONTINUOUS
 10
6.7131210954
 20
6.5743757156
 11
6.6776735299
 21
6.5948497627
  0
LINE
  5
51E
100
AcDbEntity
  8
0
100
AcDbLine
 62
7
  6
CONTINUOUS
 10
6.7131210954
 20
6.6334308337
 11
6.6776735299
 21
6.6539048808
  0
LINE
  5
51F
100
AcDbEntity
  8
02___PRT_ALL_AXES
100
AcDbLine
 62
7
  6
CONTINUOUS
 10
5.5403442649
 20
6.1235589069
 11
5.5401185069
 21
6.1238196734
  0
LINE
  5
520
100
AcDbEntity
  8
02___PRT_ALL_AXES
100
AcDbLine
 62
7
  6
CONTINUOUS
 10
5.5403442649
 20
6.182614025
 11
5.5401185069
 21
6.1828747916
  0
LINE
  5
521
100
AcDbEntity
  8
02___PRT_ALL_AXES
100
AcDbLine
 62
7
  6
CONTINUOUS
 10
5.5403442649
 20
6.2416691431
 11
5.5401185069
 21
6.2419299097
  0
LINE
  5
522
100
AcDbEntity
  8
02___PRT_ALL_AXES
100
AcDbLine
 62
7
  6
CONTINUOUS
 10
5.5403442649
 20
6.3007242612
 11
5.5401185069
 21
6.3009850278
  0
LINE
  5
523
100
AcDbEntity
  8
02___PRT_ALL_AXES
100
AcDbLine
 62
7
  6
CONTINUOUS
 10
5.5403442649
 20
6.3597793793
 11
5.5401185069
 21
6.3600401459
  0
LINE
  5
524
100
AcDbEntity
  8
02___PRT_ALL_AXES
100
AcDbLine
 62
7
  6
CONTINUOUS
 10
5.5403442649
 20
6.4188344974
 11
5.5401185069
 21
6.419095264
  0
LINE
  5
525
100
AcDbEntity
  8
02___PRT_ALL_AXES
100
AcDbLine
 62
7
  6
CONTINUOUS
 10
5.5403442649
 20
6.4778896155
 11
5.5401185069
 21
6.4781503821
  0
LINE
  5
526
100
AcDbEntity
  8
02___PRT_ALL_AXES
100
AcDbLine
 62
7
  6
CONTINUOUS
 10
5.5403442649
 20
6.5369447336
 11
5.5401185069
 21
6.5372055002
  0
LINE
  5
527
100
AcDbEntity
  8
02___PRT_ALL_AXES
100
AcDbLine
 62
7
  6
CONTINUOUS
 10
5.5403442649
 20
6.5959998518
 11
5.5401185069
 21
6.5962606183
  0
LINE
  5
528
100
AcDbEntity
  8
02___PRT_ALL_AXES
100
AcDbLine
 62
9
  6
CONTINUOUS
 10
7.1109846487
 20
7.4710145553
 11
5.1424807116
 21
7.4710145553
  0
LINE
  5
529
100
AcDbEntity
  8
02___PRT_ALL_AXES
100
AcDbLine
 62
7
  6
CONTINUOUS
 10
5.1424807116
 20
7.7820381774
 11
7.1109846487
 21
7.7820381774
  0
LINE
  5
52A
100
AcDbEntity
  8
AXIS
100
AcDbLine
 62
7
  6
CONTINUOUS
 10
5.1424807116
 20
7.7820381774
 11
7.1109846487
 21
7.7820381774
  0
LINE
  5
52B
100
AcDbEntity
  8
0
100
AcDbLine
 62
7
  6
CONTINUOUS
 10
6.7131210954
 20
6.6924859518
 11
6.6776735299
 21
6.712959999
  0
LINE
  5
52C
100
AcDbEntity
  8
02___PRT_ALL_AXES
100
AcDbLine
 62
7
  6
CONTINUOUS
 10
5.5403442649
 20
6.6550549699
 11
5.5401185069
 21
6.6553157364
  0
LINE
  5
52D
100
AcDbEntity
  8
02___PRT_ALL_AXES
100
AcDbLine
 62
7
  6
CONTINUOUS
 10
6.7133468534
 20
6.1607291223
 11
6.7131210954
 21
6.1609898888
  0
LINE
  5
52E
100
AcDbEntity
  8
02___PRT_ALL_AXES
100
AcDbLine
 62
7
  6
CONTINUOUS
 10
6.7133468534
 20
6.2197842404
 11
6.7131210954
 21
6.2200450069
  0
LINE
  5
52F
100
AcDbEntity
  8
02___PRT_ALL_AXES
100
AcDbLine
 62
7
  6
CONTINUOUS
 10
6.7133468534
 20
6.2788393585
 11
6.7131210954
 21
6.2791001251
  0
LINE
  5
530
100
AcDbEntity
  8
02___PRT_ALL_AXES
100
AcDbLine
 62
7
  6
CONTINUOUS
 10
6.7133468534
 20
6.3378944766
 11
6.7131210954
 21
6.3381552432
  0
LINE
  5
531
100
AcDbEntity
  8
02___PRT_ALL_AXES
100
AcDbLine
 62
7
  6
CONTINUOUS
 10
6.7133468534
 20
6.3969495947
 11
6.7131210954
 21
6.3972103613
  0
LINE
  5
532
100
AcDbEntity
  8
02___PRT_ALL_AXES
100
AcDbLine
 62
7
  6
CONTINUOUS
 10
6.7133468534
 20
6.4560047128
 11
6.7131210954
 21
6.4562654794
  0
LINE
  5
533
100
AcDbEntity
  8
02___PRT_ALL_AXES
100
AcDbLine
 62
7
  6
CONTINUOUS
 10
6.7133468534
 20
6.5150598309
 11
6.7131210954
 21
6.5153205975
  0
LINE
  5
534
100
AcDbEntity
  8
02___PRT_ALL_AXES
100
AcDbLine
 62
7
  6
CONTINUOUS
 10
6.7133468534
 20
6.574114949
 11
6.7131210954
 21
6.5743757156
  0
LINE
  5
535
100
AcDbEntity
  8
02___PRT_ALL_AXES
100
AcDbLine
 62
7
  6
CONTINUOUS
 10
6.7133468534
 20
6.6331700671
 11
6.7131210954
 21
6.6334308337
  0
LINE
  5
536
100
AcDbEntity
  8
02___PRT_ALL_AXES
100
AcDbLine
 62
7
  6
CONTINUOUS
 10
6.7133468534
 20
6.6922251853
 11
6.7131210954
 21
6.6924859518
  0
LINE
  5
537
100
AcDbEntity
  8
AXIS
100
AcDbLine
 62
7
  6
CONTINUOUS
 10
5.1424807116
 20
8.8410932955
 11
7.1109846487
 21
8.8410932955
  0
LINE
  5
538
100
AcDbEntity
  8
0
100
AcDbLine
 62
7
  6
CONTINUOUS
 10
5.1424807116
 20
15.2505421144
 11
5.147177708
 21
15.5196328551
  0
LINE
  5
539
100
AcDbEntity
  8
0
100
AcDbLine
 62
7
  6
CONTINUOUS
 10
5.1424807116
 20
9.3844003821
 11
5.1472220808
 21
8.8410932955
  0
LINE
  5
53A
100
AcDbEntity
  8
0
100
AcDbLine
 62
7
  6
CONTINUOUS
 10
5.1424807116
 20
10.9867625868
 11
5.1472220808
 21
10.4434555002
  0
LINE
  5
53B
100
AcDbEntity
  8
0
100
AcDbLine
 62
7
  6
CONTINUOUS
 10
5.1424807116
 20
12.5891247916
 11
5.1472220808
 21
12.0458177049
  0
LINE
  5
53C
100
AcDbEntity
  8
0
100
AcDbLine
 62
7
  6
CONTINUOUS
 10
5.1424807116
 20
14.1914869963
 11
5.1472220808
 21
13.6481799097
  0
LINE
  5
53D
100
AcDbEntity
  8
02___PRT_ALL_AXES
100
AcDbLine
 62
7
  6
CONTINUOUS
 10
5.1424807116
 20
7.7820381774
 11
5.1424807116
 21
7.4710145553
  0
LINE
  5
53E
100
AcDbEntity
  8
AXIS
100
AcDbLine
 62
7
  6
CONTINUOUS
 10
5.1424807116
 20
7.7820381774
 11
5.1424807116
 21
8.8410932955
  0
LINE
  5
53F
100
AcDbEntity
  8
AXIS
100
AcDbLine
 62
7
  6
CONTINUOUS
 10
5.1424807116
 20
9.3844003821
 11
5.1424807116
 21
10.4434555002
  0
LINE
  5
540
100
AcDbEntity
  8
AXIS
100
AcDbLine
 62
7
  6
CONTINUOUS
 10
5.1424807116
 20
10.9867625868
 11
5.1424807116
 21
12.0458177049
  0
LINE
  5
541
100
AcDbEntity
  8
AXIS
100
AcDbLine
 62
7
  6
CONTINUOUS
 10
5.1424807116
 20
12.5891247916
 11
5.1424807116
 21
13.6481799097
  0
LINE
  5
542
100
AcDbEntity
  8
AXIS
100
AcDbLine
 62
7
  6
CONTINUOUS
 10
5.1424807116
 20
14.1914869963
 11
5.1424807116
 21
15.2505421144
  0
LINE
  5
543
100
AcDbEntity
  8
02___PRT_ALL_AXES
100
AcDbLine
 62
7
  6
CONTINUOUS
 10
5.2409059085
 20
7.3725893585
 11
5.2409059085
 21
6.9395184923
  0
LINE
  5
544
100
AcDbEntity
  8
0
100
AcDbLine
 62
7
  6
CONTINUOUS
 10
7.1109846487
 20
9.3844003821
 11
5.1424807116
 21
9.3844003821
  0
LINE
  5
545
100
AcDbEntity
  8
AXIS
100
AcDbLine
 62
7
  6
CONTINUOUS
 10
5.1424807116
 20
9.3844003821
 11
7.1109846487
 21
9.3844003821
  0
LINE
  5
546
100
AcDbEntity
  8
0
100
AcDbLine
 62
7
  6
CONTINUOUS
 10
5.5401185069
 20
6.6626976262
 11
5.5401185069
 21
6.6553157364
  0
LINE
  5
547
100
AcDbEntity
  8
0
100
AcDbLine
 62
7
  6
CONTINUOUS
 10
5.5401185069
 20
6.6036425081
 11
5.5401185069
 21
6.5962606183
  0
LINE
  5
548
100
AcDbEntity
  8
0
100
AcDbLine
 62
7
  6
CONTINUOUS
 10
5.5401185069
 20
6.54458739
 11
5.5401185069
 21
6.5372055002
  0
LINE
  5
549
100
AcDbEntity
  8
0
100
AcDbLine
 62
7
  6
CONTINUOUS
 10
5.5401185069
 20
6.4855322719
 11
5.5401185069
 21
6.4781503821
  0
LINE
  5
54A
100
AcDbEntity
  8
0
100
AcDbLine
 62
7
  6
CONTINUOUS
 10
5.5401185069
 20
6.4264771538
 11
5.5401185069
 21
6.419095264
  0
LINE
  5
54B
100
AcDbEntity
  8
0
100
AcDbLine
 62
7
  6
CONTINUOUS
 10
5.5401185069
 20
6.3674220356
 11
5.5401185069
 21
6.3600401459
  0
LINE
  5
54C
100
AcDbEntity
  8
0
100
AcDbLine
 62
7
  6
CONTINUOUS
 10
5.5401185069
 20
6.3083669175
 11
5.5401185069
 21
6.3009850278
  0
LINE
  5
54D
100
AcDbEntity
  8
0
100
AcDbLine
 62
7
  6
CONTINUOUS
 10
5.5401185069
 20
6.2493117994
 11
5.5401185069
 21
6.2419299097
  0
LINE
  5
54E
100
AcDbEntity
  8
0
100
AcDbLine
 62
7
  6
CONTINUOUS
 10
5.5401185069
 20
6.1902566813
 11
5.5401185069
 21
6.1828747916
  0
LINE
  5
54F
100
AcDbEntity
  8
0
100
AcDbLine
 62
7
  6
CONTINUOUS
 10
5.5401185069
 20
6.1312015632
 11
5.5401185069
 21
6.1238196734
  0
LINE
  5
550
100
AcDbEntity
  8
02___PRT_ALL_AXES
100
AcDbLine
 62
7
  6
CONTINUOUS
 10
5.5755515778
 20
6.7426680986
 11
5.5755515778
 21
6.6831549192
  0
LINE
  5
551
100
AcDbEntity
  8
02___PRT_ALL_AXES
100
AcDbLine
 62
7
  6
CONTINUOUS
 10
5.5755515778
 20
6.6348584434
 11
5.5755515778
 21
6.6240998011
  0
LINE
  5
552
100
AcDbEntity
  8
02___PRT_ALL_AXES
100
AcDbLine
 62
7
  6
CONTINUOUS
 10
5.5755515778
 20
6.5758033253
 11
5.5755515778
 21
6.565044683
  0
LINE
  5
553
100
AcDbEntity
  8
02___PRT_ALL_AXES
100
AcDbLine
 62
7
  6
CONTINUOUS
 10
5.5755515778
 20
6.5167482072
 11
5.5755515778
 21
6.5059895649
  0
LINE
  5
554
100
AcDbEntity
  8
02___PRT_ALL_AXES
100
AcDbLine
 62
7
  6
CONTINUOUS
 10
5.5755515778
 20
6.4576930891
 11
5.5755515778
 21
6.4469344468
  0
LINE
  5
555
100
AcDbEntity
  8
02___PRT_ALL_AXES
100
AcDbLine
 62
7
  6
CONTINUOUS
 10
5.5755515778
 20
6.398637971
 11
5.5755515778
 21
6.3878793286
  0
LINE
  5
556
100
AcDbEntity
  8
02___PRT_ALL_AXES
100
AcDbLine
 62
7
  6
CONTINUOUS
 10
5.5755515778
 20
6.3395828529
 11
5.5755515778
 21
6.3288242105
  0
LINE
  5
557
100
AcDbEntity
  8
02___PRT_ALL_AXES
100
AcDbLine
 62
7
  6
CONTINUOUS
 10
5.5755515778
 20
6.2805277348
 11
5.5755515778
 21
6.2697690924
  0
LINE
  5
558
100
AcDbEntity
  8
02___PRT_ALL_AXES
100
AcDbLine
 62
7
  6
CONTINUOUS
 10
5.5755515778
 20
6.2214726167
 11
5.5755515778
 21
6.2107139743
  0
LINE
  5
559
100
AcDbEntity
  8
02___PRT_ALL_AXES
100
AcDbLine
 62
7
  6
CONTINUOUS
 10
5.5755515778
 20
6.1624174985
 11
5.5755515778
 21
6.1516588562
  0
LINE
  5
55A
100
AcDbEntity
  8
02___PRT_ALL_AXES
100
AcDbLine
 62
7
  6
CONTINUOUS
 10
5.5755515778
 20
6.1033623804
 11
5.5755515778
 21
6.0733767601
  0
LWPOLYLINE
  5
55B
100
AcDbEntity
  8
0
100
AcDbPolyline
 62
7
  6
CONTINUOUS
 90
6
 70
0
 10
6.0230353007
 20
6.0733767601
 10
6.0232193179
 20
6.061179657
 10
6.0237542774
 20
6.0501949027
 10
6.0245912878
 20
6.0414956432
 10
6.0256535059
 20
6.0359231383
 10
6.0268420151
 20
6.0340066813
  0
LWPOLYLINE
  5
55C
100
AcDbEntity
  8
0
100
AcDbPolyline
 62
7
  6
CONTINUOUS
 90
6
 70
0
 10
6.0230353007
 20
6.7426680986
 10
6.0228517202
 20
6.7548616129
 10
6.0223216538
 20
6.7658444352
 10
6.0215029273
 20
6.7745444998
 10
6.0204821191
 20
6.7801198796
 10
6.0193634664
 20
6.7820381774
  0
LINE
  5
55D
100
AcDbEntity
  8
02___PRT_ALL_AXES
100
AcDbLine
 62
7
  6
CONTINUOUS
 10
5.9007487711
 20
6.1348665423
 11
5.9007487711
 21
6.142248432
  0
LINE
  5
55E
100
AcDbEntity
  8
02___PRT_ALL_AXES
100
AcDbLine
 62
7
  6
CONTINUOUS
 10
5.9007487711
 20
6.1939216604
 11
5.9007487711
 21
6.2013035502
  0
LINE
  5
55F
100
AcDbEntity
  8
02___PRT_ALL_AXES
100
AcDbLine
 62
7
  6
CONTINUOUS
 10
5.9007487711
 20
6.2529767785
 11
5.9007487711
 21
6.2603586683
  0
LINE
  5
560
100
AcDbEntity
  8
02___PRT_ALL_AXES
100
AcDbLine
 62
7
  6
CONTINUOUS
 10
5.9007487711
 20
6.3120318966
 11
5.9007487711
 21
6.3194137864
  0
LINE
  5
561
100
AcDbEntity
  8
02___PRT_ALL_AXES
100
AcDbLine
 62
7
  6
CONTINUOUS
 10
5.9007487711
 20
6.3710870147
 11
5.9007487711
 21
6.3784689045
  0
LINE
  5
562
100
AcDbEntity
  8
02___PRT_ALL_AXES
100
AcDbLine
 62
7
  6
CONTINUOUS
 10
5.9007487711
 20
6.4301421328
 11
5.9007487711
 21
6.4375240226
  0
LINE
  5
563
100
AcDbEntity
  8
02___PRT_ALL_AXES
100
AcDbLine
 62
7
  6
CONTINUOUS
 10
5.9007487711
 20
6.4891972509
 11
5.9007487711
 21
6.4965791407
  0
LINE
  5
564
100
AcDbEntity
  8
02___PRT_ALL_AXES
100
AcDbLine
 62
7
  6
CONTINUOUS
 10
5.9007487711
 20
6.548252369
 11
5.9007487711
 21
6.5556342588
  0
LINE
  5
565
100
AcDbEntity
  8
02___PRT_ALL_AXES
100
AcDbLine
 62
7
  6
CONTINUOUS
 10
5.9007487711
 20
6.6073074872
 11
5.9007487711
 21
6.6146893769
  0
LINE
  5
566
100
AcDbEntity
  8
02___PRT_ALL_AXES
100
AcDbLine
 62
7
  6
CONTINUOUS
 10
5.9007487711
 20
6.6663626053
 11
5.9007487711
 21
6.673744495
  0
LINE
  5
567
100
AcDbEntity
  8
02___PRT_ALL_AXES
100
AcDbLine
 62
7
  6
CONTINUOUS
 10
6.0192326802
 20
4.9788885711
 11
6.0192326802
 21
6.0340066813
  0
LINE
  5
568
100
AcDbEntity
  8
0
100
AcDbLine
 62
7
  6
CONTINUOUS
 10
6.0230353007
 20
6.7426680986
 11
6.0230353007
 21
6.6961398171
  0
LINE
  5
569
100
AcDbEntity
  8
02___PRT_ALL_AXES
100
AcDbLine
 62
7
  6
CONTINUOUS
 10
6.0230353007
 20
6.6478433413
 11
6.0230353007
 21
6.637084699
  0
LINE
  5
56A
100
AcDbEntity
  8
02___PRT_ALL_AXES
100
AcDbLine
 62
7
  6
CONTINUOUS
 10
6.0230353007
 20
6.5887882232
 11
6.0230353007
 21
6.5780295809
  0
LINE
  5
56B
100
AcDbEntity
  8
02___PRT_ALL_AXES
100
AcDbLine
 62
7
  6
CONTINUOUS
 10
6.0230353007
 20
6.5297331051
 11
6.0230353007
 21
6.5189744627
  0
LINE
  5
56C
100
AcDbEntity
  8
02___PRT_ALL_AXES
100
AcDbLine
 62
7
  6
CONTINUOUS
 10
6.0230353007
 20
6.470677987
 11
6.0230353007
 21
6.4599193446
  0
LINE
  5
56D
100
AcDbEntity
  8
02___PRT_ALL_AXES
100
AcDbLine
 62
7
  6
CONTINUOUS
 10
6.0230353007
 20
6.4116228689
 11
6.0230353007
 21
6.4008642265
  0
LINE
  5
56E
100
AcDbEntity
  8
02___PRT_ALL_AXES
100
AcDbLine
 62
7
  6
CONTINUOUS
 10
6.0230353007
 20
6.3525677508
 11
6.0230353007
 21
6.3418091084
  0
LINE
  5
56F
100
AcDbEntity
  8
02___PRT_ALL_AXES
100
AcDbLine
 62
7
  6
CONTINUOUS
 10
6.0230353007
 20
6.2935126326
 11
6.0230353007
 21
6.2827539903
  0
LINE
  5
570
100
AcDbEntity
  8
02___PRT_ALL_AXES
100
AcDbLine
 62
7
  6
CONTINUOUS
 10
6.0230353007
 20
6.2344575145
 11
6.0230353007
 21
6.2236988722
  0
LINE
  5
571
100
AcDbEntity
  8
02___PRT_ALL_AXES
100
AcDbLine
 62
7
  6
CONTINUOUS
 10
6.0230353007
 20
6.1754023964
 11
6.0230353007
 21
6.1646437541
  0
LINE
  5
572
100
AcDbEntity
  8
0
100
AcDbLine
 62
7
  6
CONTINUOUS
 10
6.0230353007
 20
6.1163472783
 11
6.0230353007
 21
6.0733767601
  0
LINE
  5
573
100
AcDbEntity
  8
0
100
AcDbLine
 62
7
  6
CONTINUOUS
 10
6.2304300596
 20
6.7426680986
 11
6.2304300596
 21
6.6996975804
  0
LINE
  5
574
100
AcDbEntity
  8
02___PRT_ALL_AXES
100
AcDbLine
 62
7
  6
CONTINUOUS
 10
6.2304300596
 20
6.6514011046
 11
6.2304300596
 21
6.6406424623
  0
LINE
  5
575
100
AcDbEntity
  8
02___PRT_ALL_AXES
100
AcDbLine
 62
7
  6
CONTINUOUS
 10
6.2304300596
 20
6.5923459865
 11
6.2304300596
 21
6.5815873442
  0
LINE
  5
576
100
AcDbEntity
  8
02___PRT_ALL_AXES
100
AcDbLine
 62
7
  6
CONTINUOUS
 10
6.2304300596
 20
6.5332908684
 11
6.2304300596
 21
6.5225322261
  0
LINE
  5
577
100
AcDbEntity
  8
02___PRT_ALL_AXES
100
AcDbLine
 62
7
  6
CONTINUOUS
 10
6.2304300596
 20
6.4742357503
 11
6.2304300596
 21
6.4634771079
  0
LINE
  5
578
100
AcDbEntity
  8
02___PRT_ALL_AXES
100
AcDbLine
 62
7
  6
CONTINUOUS
 10
6.2304300596
 20
6.4151806322
 11
6.2304300596
 21
6.4044219898
  0
LINE
  5
579
100
AcDbEntity
  8
02___PRT_ALL_AXES
100
AcDbLine
 62
7
  6
CONTINUOUS
 10
6.2304300596
 20
6.3561255141
 11
6.2304300596
 21
6.3453668717
  0
LINE
  5
57A
100
AcDbEntity
  8
02___PRT_ALL_AXES
100
AcDbLine
 62
7
  6
CONTINUOUS
 10
6.2304300596
 20
6.297070396
 11
6.2304300596
 21
6.2863117536
  0
LINE
  5
57B
100
AcDbEntity
  8
02___PRT_ALL_AXES
100
AcDbLine
 62
7
  6
CONTINUOUS
 10
6.2304300596
 20
6.2380152778
 11
6.2304300596
 21
6.2272566355
  0
LINE
  5
57C
100
AcDbEntity
  8
02___PRT_ALL_AXES
100
AcDbLine
 62
7
  6
CONTINUOUS
 10
6.2304300596
 20
6.1789601597
 11
6.2304300596
 21
6.1682015174
  0
LINE
  5
57D
100
AcDbEntity
  8
0
100
AcDbLine
 62
7
  6
CONTINUOUS
 10
6.2304300596
 20
6.1199050416
 11
6.2304300596
 21
6.0733767601
  0
LINE
  5
57E
100
AcDbEntity
  8
02___PRT_ALL_AXES
100
AcDbLine
 62
7
  6
CONTINUOUS
 10
6.2342326802
 20
4.9788885711
 11
6.2342326802
 21
6.0340066813
  0
LINE
  5
57F
100
AcDbEntity
  8
02___PRT_ALL_AXES
100
AcDbLine
 62
7
  6
CONTINUOUS
 10
6.3527165892
 20
6.6811783164
 11
6.3527165892
 21
6.6737964267
  0
LINE
  5
580
100
AcDbEntity
  8
02___PRT_ALL_AXES
100
AcDbLine
 62
7
  6
CONTINUOUS
 10
6.3527165892
 20
6.6221231983
 11
6.3527165892
 21
6.6147413085
  0
LINE
  5
581
100
AcDbEntity
  8
02___PRT_ALL_AXES
100
AcDbLine
 62
7
  6
CONTINUOUS
 10
6.3527165892
 20
6.5630680802
 11
6.3527165892
 21
6.5556861904
  0
LINE
  5
582
100
AcDbEntity
  8
02___PRT_ALL_AXES
100
AcDbLine
 62
7
  6
CONTINUOUS
 10
6.3527165892
 20
6.5040129621
 11
6.3527165892
 21
6.4966310723
  0
LINE
  5
583
100
AcDbEntity
  8
02___PRT_ALL_AXES
100
AcDbLine
 62
7
  6
CONTINUOUS
 10
6.3527165892
 20
6.444957844
 11
6.3527165892
 21
6.4375759542
  0
LINE
  5
584
100
AcDbEntity
  8
02___PRT_ALL_AXES
100
AcDbLine
 62
7
  6
CONTINUOUS
 10
6.3527165892
 20
6.3859027259
 11
6.3527165892
 21
6.3785208361
  0
LINE
  5
585
100
AcDbEntity
  8
02___PRT_ALL_AXES
100
AcDbLine
 62
7
  6
CONTINUOUS
 10
6.3527165892
 20
6.3268476078
 11
6.3527165892
 21
6.319465718
  0
LINE
  5
586
100
AcDbEntity
  8
02___PRT_ALL_AXES
100
AcDbLine
 62
7
  6
CONTINUOUS
 10
6.3527165892
 20
6.2677924896
 11
6.3527165892
 21
6.2604105999
  0
LINE
  5
587
100
AcDbEntity
  8
02___PRT_ALL_AXES
100
AcDbLine
 62
7
  6
CONTINUOUS
 10
6.3527165892
 20
6.2087373715
 11
6.3527165892
 21
6.2013554818
  0
LINE
  5
588
100
AcDbEntity
  8
02___PRT_ALL_AXES
100
AcDbLine
 62
7
  6
CONTINUOUS
 10
6.3527165892
 20
6.1496822534
 11
6.3527165892
 21
6.1423003637
  0
LWPOLYLINE
  5
589
100
AcDbEntity
  8
0
100
AcDbPolyline
 62
7
  6
CONTINUOUS
 90
6
 70
0
 10
6.2304300596
 20
6.7426680986
 10
6.2306136401
 20
6.7548616129
 10
6.2311437065
 20
6.7658444352
 10
6.231962433
 20
6.7745444998
 10
6.2329832412
 20
6.7801198796
 10
6.2341018939
 20
6.7820381774
  0
LWPOLYLINE
  5
58A
100
AcDbEntity
  8
0
100
AcDbPolyline
 62
7
  6
CONTINUOUS
 90
6
 70
0
 10
6.2304300596
 20
6.0733767601
 10
6.2302460424
 20
6.061179657
 10
6.2297110829
 20
6.0501949027
 10
6.2288740725
 20
6.0414956432
 10
6.2278118544
 20
6.0359231383
 10
6.2266233452
 20
6.0340066813
  0
LINE
  5
58B
100
AcDbEntity
  8
AXIS
100
AcDbLine
 62
7
  6
CONTINUOUS
 10
5.1424807116
 20
10.4434555002
 11
7.1109846487
 21
10.4434555002
  0
LINE
  5
58C
100
AcDbEntity
  8
02___PRT_ALL_AXES
100
AcDbLine
 62
7
  6
CONTINUOUS
 10
6.6779137825
 20
6.7426680986
 11
6.6779137825
 21
6.7126824783
  0
LINE
  5
58D
100
AcDbEntity
  8
02___PRT_ALL_AXES
100
AcDbLine
 62
7
  6
CONTINUOUS
 10
6.6779137825
 20
6.6643860025
 11
6.6779137825
 21
6.6536273601
  0
LINE
  5
58E
100
AcDbEntity
  8
02___PRT_ALL_AXES
100
AcDbLine
 62
7
  6
CONTINUOUS
 10
6.6779137825
 20
6.6053308844
 11
6.6779137825
 21
6.594572242
  0
LINE
  5
58F
100
AcDbEntity
  8
02___PRT_ALL_AXES
100
AcDbLine
 62
7
  6
CONTINUOUS
 10
6.6779137825
 20
6.5462757663
 11
6.6779137825
 21
6.5355171239
  0
LINE
  5
590
100
AcDbEntity
  8
02___PRT_ALL_AXES
100
AcDbLine
 62
7
  6
CONTINUOUS
 10
6.6779137825
 20
6.4872206482
 11
6.6779137825
 21
6.4764620058
  0
LINE
  5
591
100
AcDbEntity
  8
02___PRT_ALL_AXES
100
AcDbLine
 62
7
  6
CONTINUOUS
 10
6.6779137825
 20
6.42816553
 11
6.6779137825
 21
6.4174068877
  0
LINE
  5
592
100
AcDbEntity
  8
02___PRT_ALL_AXES
100
AcDbLine
 62
7
  6
CONTINUOUS
 10
6.6779137825
 20
6.3691104119
 11
6.6779137825
 21
6.3583517696
  0
LINE
  5
593
100
AcDbEntity
  8
02___PRT_ALL_AXES
100
AcDbLine
 62
7
  6
CONTINUOUS
 10
6.6779137825
 20
6.3100552938
 11
6.6779137825
 21
6.2992966515
  0
LINE
  5
594
100
AcDbEntity
  8
02___PRT_ALL_AXES
100
AcDbLine
 62
7
  6
CONTINUOUS
 10
6.6779137825
 20
6.2510001757
 11
6.6779137825
 21
6.2402415334
  0
LINE
  5
595
100
AcDbEntity
  8
02___PRT_ALL_AXES
100
AcDbLine
 62
7
  6
CONTINUOUS
 10
6.6779137825
 20
6.1919450576
 11
6.6779137825
 21
6.1811864153
  0
LINE
  5
596
100
AcDbEntity
  8
02___PRT_ALL_AXES
100
AcDbLine
 62
7
  6
CONTINUOUS
 10
6.6779137825
 20
6.1328899395
 11
6.6779137825
 21
6.0733767601
  0
LINE
  5
597
100
AcDbEntity
  8
0
100
AcDbLine
 62
7
  6
CONTINUOUS
 10
6.7133468534
 20
6.1533472325
 11
6.7133468534
 21
6.1607291223
  0
LINE
  5
598
100
AcDbEntity
  8
0
100
AcDbLine
 62
7
  6
CONTINUOUS
 10
6.7133468534
 20
6.2124023506
 11
6.7133468534
 21
6.2197842404
  0
LINE
  5
599
100
AcDbEntity
  8
0
100
AcDbLine
 62
7
  6
CONTINUOUS
 10
6.7133468534
 20
6.2714574687
 11
6.7133468534
 21
6.2788393585
  0
LINE
  5
59A
100
AcDbEntity
  8
0
100
AcDbLine
 62
7
  6
CONTINUOUS
 10
6.7133468534
 20
6.3305125868
 11
6.7133468534
 21
6.3378944766
  0
LINE
  5
59B
100
AcDbEntity
  8
0
100
AcDbLine
 62
7
  6
CONTINUOUS
 10
6.7133468534
 20
6.3895677049
 11
6.7133468534
 21
6.3969495947
  0
LINE
  5
59C
100
AcDbEntity
  8
0
100
AcDbLine
 62
7
  6
CONTINUOUS
 10
6.7133468534
 20
6.448622823
 11
6.7133468534
 21
6.4560047128
  0
LINE
  5
59D
100
AcDbEntity
  8
0
100
AcDbLine
 62
7
  6
CONTINUOUS
 10
6.7133468534
 20
6.5076779412
 11
6.7133468534
 21
6.5150598309
  0
LINE
  5
59E
100
AcDbEntity
  8
0
100
AcDbLine
 62
7
  6
CONTINUOUS
 10
6.7133468534
 20
6.5667330593
 11
6.7133468534
 21
6.574114949
  0
LINE
  5
59F
100
AcDbEntity
  8
0
100
AcDbLine
 62
7
  6
CONTINUOUS
 10
6.7133468534
 20
6.6257881774
 11
6.7133468534
 21
6.6331700671
  0
LINE
  5
5A0
100
AcDbEntity
  8
0
100
AcDbLine
 62
7
  6
CONTINUOUS
 10
6.7133468534
 20
6.6848432955
 11
6.7133468534
 21
6.6922251853
  0
LINE
  5
5A1
100
AcDbEntity
  8
0
100
AcDbLine
 62
7
  6
CONTINUOUS
 10
7.1109846487
 20
10.9867625868
 11
5.1424807116
 21
10.9867625868
  0
LINE
  5
5A2
100
AcDbEntity
  8
AXIS
100
AcDbLine
 62
7
  6
CONTINUOUS
 10
5.1424807116
 20
10.9867625868
 11
7.1109846487
 21
10.9867625868
  0
LINE
  5
5A3
100
AcDbEntity
  8
0
100
AcDbLine
 62
7
  6
CONTINUOUS
 10
7.1109846487
 20
15.2505421144
 11
7.1062876523
 21
15.5196328551
  0
LINE
  5
5A4
100
AcDbEntity
  8
02___PRT_ALL_AXES
100
AcDbLine
 62
7
  6
CONTINUOUS
 10
7.0125594518
 20
7.3725893585
 11
7.0125594518
 21
6.9395184923
  0
LINE
  5
5A5
100
AcDbEntity
  8
02___PRT_ALL_AXES
100
AcDbLine
 62
7
  6
CONTINUOUS
 10
7.1109846487
 20
7.7820381774
 11
7.1109846487
 21
7.4710145553
  0
LINE
  5
5A6
100
AcDbEntity
  8
AXIS
100
AcDbLine
 62
7
  6
CONTINUOUS
 10
7.1109846487
 20
7.7820381774
 11
7.1109846487
 21
8.8410932955
  0
LINE
  5
5A7
100
AcDbEntity
  8
AXIS
100
AcDbLine
 62
7
  6
CONTINUOUS
 10
7.1109846487
 20
9.3844003821
 11
7.1109846487
 21
10.4434555002
  0
LINE
  5
5A8
100
AcDbEntity
  8
AXIS
100
AcDbLine
 62
7
  6
CONTINUOUS
 10
7.1109846487
 20
10.9867625868
 11
7.1109846487
 21
12.0458177049
  0
LINE
  5
5A9
100
AcDbEntity
  8
AXIS
100
AcDbLine
 62
7
  6
CONTINUOUS
 10
7.1109846487
 20
12.5891247916
 11
7.1109846487
 21
13.6481799097
  0
LINE
  5
5AA
100
AcDbEntity
  8
AXIS
100
AcDbLine
 62
7
  6
CONTINUOUS
 10
7.1109846487
 20
14.1914869963
 11
7.1109846487
 21
15.2505421144
  0
LINE
  5
5AB
100
AcDbEntity
  8
0
100
AcDbLine
 62
7
  6
CONTINUOUS
 10
7.1109846487
 20
14.1914869963
 11
7.1062432795
 21
13.6481799097
  0
LINE
  5
5AC
100
AcDbEntity
  8
0
100
AcDbLine
 62
7
  6
CONTINUOUS
 10
7.1109846487
 20
12.5891247916
 11
7.1062432795
 21
12.0458177049
  0
LINE
  5
5AD
100
AcDbEntity
  8
0
100
AcDbLine
 62
7
  6
CONTINUOUS
 10
7.1109846487
 20
10.9867625868
 11
7.1062432795
 21
10.4434555002
  0
LINE
  5
5AE
100
AcDbEntity
  8
0
100
AcDbLine
 62
7
  6
CONTINUOUS
 10
7.1109846487
 20
9.3844003821
 11
7.1062432795
 21
8.8410932955
  0
LINE
  5
5AF
100
AcDbEntity
  8
AXIS
100
AcDbLine
 62
7
  6
CONTINUOUS
 10
5.1424807116
 20
12.0458177049
 11
7.1109846487
 21
12.0458177049
  0
LINE
  5
5B0
100
AcDbEntity
  8
02___PRT_ALL_AXES
100
AcDbLine
 62
7
  6
CONTINUOUS
 10
5.5401185069
 20
6.6626976262
 11
5.5403442649
 21
6.6629583928
  0
LINE
  5
5B1
100
AcDbEntity
  8
02___PRT_ALL_AXES
100
AcDbLine
 62
7
  6
CONTINUOUS
 10
5.5401185069
 20
6.6036425081
 11
5.5403442649
 21
6.6039032747
  0
LINE
  5
5B2
100
AcDbEntity
  8
02___PRT_ALL_AXES
100
AcDbLine
 62
7
  6
CONTINUOUS
 10
5.5401185069
 20
6.54458739
 11
5.5403442649
 21
6.5448481566
  0
LINE
  5
5B3
100
AcDbEntity
  8
02___PRT_ALL_AXES
100
AcDbLine
 62
7
  6
CONTINUOUS
 10
5.5401185069
 20
6.4855322719
 11
5.5403442649
 21
6.4857930384
  0
LINE
  5
5B4
100
AcDbEntity
  8
02___PRT_ALL_AXES
100
AcDbLine
 62
7
  6
CONTINUOUS
 10
5.5401185069
 20
6.4264771538
 11
5.5403442649
 21
6.4267379203
  0
LINE
  5
5B5
100
AcDbEntity
  8
02___PRT_ALL_AXES
100
AcDbLine
 62
7
  6
CONTINUOUS
 10
5.5401185069
 20
6.3674220356
 11
5.5403442649
 21
6.3676828022
  0
LINE
  5
5B6
100
AcDbEntity
  8
02___PRT_ALL_AXES
100
AcDbLine
 62
7
  6
CONTINUOUS
 10
5.5401185069
 20
6.3083669175
 11
5.5403442649
 21
6.3086276841
  0
LINE
  5
5B7
100
AcDbEntity
  8
02___PRT_ALL_AXES
100
AcDbLine
 62
7
  6
CONTINUOUS
 10
5.5401185069
 20
6.2493117994
 11
5.5403442649
 21
6.249572566
  0
LINE
  5
5B8
100
AcDbEntity
  8
02___PRT_ALL_AXES
100
AcDbLine
 62
7
  6
CONTINUOUS
 10
5.5401185069
 20
6.1902566813
 11
5.5403442649
 21
6.1905174479
  0
LINE
  5
5B9
100
AcDbEntity
  8
02___PRT_ALL_AXES
100
AcDbLine
 62
7
  6
CONTINUOUS
 10
5.5401185069
 20
6.1312015632
 11
5.5403442649
 21
6.1314623298
  0
LINE
  5
5BA
100
AcDbEntity
  8
0
100
AcDbLine
 62
7
  6
CONTINUOUS
 10
7.1109846487
 20
12.5891247916
 11
5.1424807116
 21
12.5891247916
  0
LINE
  5
5BB
100
AcDbEntity
  8
AXIS
100
AcDbLine
 62
7
  6
CONTINUOUS
 10
5.1424807116
 20
12.5891247916
 11
7.1109846487
 21
12.5891247916
  0
LINE
  5
5BC
100
AcDbEntity
  8
02___PRT_ALL_AXES
100
AcDbLine
 62
7
  6
CONTINUOUS
 10
6.7131210954
 20
6.6845825289
 11
6.7133468534
 21
6.6848432955
  0
LINE
  5
5BD
100
AcDbEntity
  8
02___PRT_ALL_AXES
100
AcDbLine
 62
7
  6
CONTINUOUS
 10
6.7131210954
 20
6.6255274108
 11
6.7133468534
 21
6.6257881774
  0
LINE
  5
5BE
100
AcDbEntity
  8
02___PRT_ALL_AXES
100
AcDbLine
 62
7
  6
CONTINUOUS
 10
6.7131210954
 20
6.5664722927
 11
6.7133468534
 21
6.5667330593
  0
LINE
  5
5BF
100
AcDbEntity
  8
02___PRT_ALL_AXES
100
AcDbLine
 62
7
  6
CONTINUOUS
 10
6.7131210954
 20
6.5074171746
 11
6.7133468534
 21
6.5076779412
  0
LINE
  5
5C0
100
AcDbEntity
  8
0
100
AcDbLine
 62
7
  6
CONTINUOUS
 10
5.5757918304
 20
6.6834324399
 11
5.5403442649
 21
6.6629583928
  0
LINE
  5
5C1
100
AcDbEntity
  8
0
100
AcDbLine
 62
7
  6
CONTINUOUS
 10
5.5757918304
 20
6.6243773218
 11
5.5403442649
 21
6.6039032747
  0
LINE
  5
5C2
100
AcDbEntity
  8
02___PRT_ALL_AXES
100
AcDbLine
 62
7
  6
CONTINUOUS
 10
6.7131210954
 20
6.4483620565
 11
6.7133468534
 21
6.448622823
  0
LINE
  5
5C3
100
AcDbEntity
  8
02___PRT_ALL_AXES
100
AcDbLine
 62
7
  6
CONTINUOUS
 10
6.7131210954
 20
6.3893069384
 11
6.7133468534
 21
6.3895677049
  0
LINE
  5
5C4
100
AcDbEntity
  8
02___PRT_ALL_AXES
100
AcDbLine
 62
7
  6
CONTINUOUS
 10
6.7131210954
 20
6.3302518203
 11
6.7133468534
 21
6.3305125868
  0
LINE
  5
5C5
100
AcDbEntity
  8
02___PRT_ALL_AXES
100
AcDbLine
 62
7
  6
CONTINUOUS
 10
6.7131210954
 20
6.2711967021
 11
6.7133468534
 21
6.2714574687
  0
LINE
  5
5C6
100
AcDbEntity
  8
02___PRT_ALL_AXES
100
AcDbLine
 62
7
  6
CONTINUOUS
 10
6.7131210954
 20
6.212141584
 11
6.7133468534
 21
6.2124023506
  0
LINE
  5
5C7
100
AcDbEntity
  8
02___PRT_ALL_AXES
100
AcDbLine
 62
7
  6
CONTINUOUS
 10
6.7131210954
 20
6.1530864659
 11
6.7133468534
 21
6.1533472325
  0
LWPOLYLINE
  5
5C8
100
AcDbEntity
  8
02___PRT_ALL_AXES
100
AcDbPolyline
 62
7
  6
CONTINUOUS
 90
5
 70
0
 10
5.5755515778
 20
6.2805277251
 10
5.5761944213
 20
6.2809817186
 10
5.5874854027
 20
6.2824871301
 10
5.6121134444
 20
6.283970363
 10
5.6493958434
 20
6.2854489946
  0
LINE
  5
5C9
100
AcDbEntity
  8
0
100
AcDbLine
 62
7
  6
CONTINUOUS
 10
5.5757918304
 20
6.5653222037
 11
5.5403442649
 21
6.5448481566
  0
LINE
  5
5CA
100
AcDbEntity
  8
0
100
AcDbLine
 62
7
  6
CONTINUOUS
 10
5.5757918304
 20
6.5062670856
 11
5.5403442649
 21
6.4857930384
  0
LINE
  5
5CB
100
AcDbEntity
  8
0
100
AcDbLine
 62
7
  6
CONTINUOUS
 10
5.5757918304
 20
6.4472119675
 11
5.5403442649
 21
6.4267379203
  0
LINE
  5
5CC
100
AcDbEntity
  8
0
100
AcDbLine
 62
7
  6
CONTINUOUS
 10
5.5757918304
 20
6.3881568493
 11
5.5403442649
 21
6.3676828022
  0
LINE
  5
5CD
100
AcDbEntity
  8
0
100
AcDbLine
 62
7
  6
CONTINUOUS
 10
5.5757918304
 20
6.3291017312
 11
5.5403442649
 21
6.3086276841
  0
LINE
  5
5CE
100
AcDbEntity
  8
0
100
AcDbLine
 62
7
  6
CONTINUOUS
 10
5.5757918304
 20
6.2700466131
 11
5.5403442649
 21
6.249572566
  0
LINE
  5
5CF
100
AcDbEntity
  8
0
100
AcDbLine
 62
7
  6
CONTINUOUS
 10
5.5757918304
 20
6.210991495
 11
5.5403442649
 21
6.1905174479
  0
LWPOLYLINE
  5
5D0
100
AcDbEntity
  8
02___PRT_ALL_AXES
100
AcDbPolyline
 62
7
  6
CONTINUOUS
 90
5
 70
0
 10
5.5401185069
 20
6.3009850278
 10
5.5411830248
 20
6.3015513434
 10
5.553587185
 20
6.3030029915
 10
5.5796361939
 20
6.3044546396
 10
5.6187099039
 20
6.3059062876
  0
LWPOLYLINE
  5
5D1
100
AcDbEntity
  8
02___PRT_ALL_AXES
100
AcDbPolyline
 62
7
  6
CONTINUOUS
 90
8
 70
0
 10
5.5755515779
 20
6.5758031351
 10
5.5773115324
 20
6.5765546227
 10
5.5915847819
 20
6.5780758787
 10
5.6197809665
 20
6.5795942821
 10
5.6618745925
 20
6.5811347961
 10
5.7167392284
 20
6.5826832447
 10
5.7821035277
 20
6.584218522
 10
5.8555403886
 20
6.5857322202
  0
LWPOLYLINE
  5
5D2
100
AcDbEntity
  8
02___PRT_ALL_AXES
100
AcDbPolyline
 62
7
  6
CONTINUOUS
 90
10
 70
0
 10
5.5755515778
 20
6.6348584812
 10
5.5773688145
 20
6.635621876
 10
5.5919235788
 20
6.6371550008
 10
5.6202745024
 20
6.6386707855
 10
5.6624196829
 20
6.6402071886
 10
5.7172443499
 20
6.6417512407
 10
5.7824648935
 20
6.6432815333
 10
5.8560554087
 20
6.6447974231
 10
5.9372263347
 20
6.6463233879
 10
6.0230353007
 20
6.6478433413
  0
LWPOLYLINE
  5
5D3
100
AcDbEntity
  8
02___PRT_ALL_AXES
100
AcDbPolyline
 62
7
  6
CONTINUOUS
 90
10
 70
0
 10
5.5755515778
 20
6.516748201
 10
5.5774603308
 20
6.5175306377
 10
5.5922179576
 20
6.5190654237
 10
5.6207360104
 20
6.5205804447
 10
5.6626476997
 20
6.5221041637
 10
5.716491276
 20
6.523621798
 10
5.7807043797
 20
6.5251327922
 10
5.8541365999
 20
6.526649583
 10
5.935863525
 20
6.5281883919
 10
6.0230353007
 20
6.5297331051
  0
LWPOLYLINE
  5
5D4
100
AcDbEntity
  8
02___PRT_ALL_AXES
100
AcDbPolyline
 62
7
  6
CONTINUOUS
 90
8
 70
0
 10
5.5401185069
 20
6.6553157364
 10
5.5419183758
 20
6.6560521944
 10
5.5562511258
 20
6.6575251102
 10
5.5845653558
 20
6.658998026
 10
5.6261671348
 20
6.6604709419
 10
5.6800368778
 20
6.6619438577
 10
5.7448543339
 20
6.6634167736
 10
5.8190309436
 20
6.6648896894
  0
LWPOLYLINE
  5
5D5
100
AcDbEntity
  8
02___PRT_ALL_AXES
100
AcDbPolyline
 62
7
  6
CONTINUOUS
 90
6
 70
0
 10
5.5401185069
 20
6.5962606183
 10
5.5419183758
 20
6.5969970762
 10
5.5562511258
 20
6.5984699921
 10
5.5845653558
 20
6.5999429079
 10
5.6261671348
 20
6.6014158238
 10
5.6800368778
 20
6.6028887396
  0
LWPOLYLINE
  5
5D6
100
AcDbEntity
  8
02___PRT_ALL_AXES
100
AcDbPolyline
 62
7
  6
CONTINUOUS
 90
8
 70
0
 10
5.5401185069
 20
6.5372055002
 10
5.5419183758
 20
6.5379419581
 10
5.5562511258
 20
6.539414874
 10
5.5845653558
 20
6.5408877898
 10
5.6261671348
 20
6.5423607057
 10
5.6800368778
 20
6.5438336215
 10
5.7448543339
 20
6.5453065374
 10
5.8190309436
 20
6.5467794532
  0
LWPOLYLINE
  5
5D7
100
AcDbEntity
  8
02___PRT_ALL_AXES
100
AcDbPolyline
 62
7
  6
CONTINUOUS
 90
5
 70
0
 10
6.6779137825
 20
6.5355171329
 10
6.6772706289
 20
6.5350630306
 10
6.6659781245
 20
6.5335575776
 10
6.6413484351
 20
6.5320743299
 10
6.6040695169
 20
6.5305958641
  0
LINE
  5
5D8
100
AcDbEntity
  8
0
100
AcDbLine
 62
7
  6
CONTINUOUS
 10
5.5757918304
 20
6.1519363769
 11
5.5403442649
 21
6.1314623298
  0
LINE
  5
5D9
100
AcDbEntity
  8
0
100
AcDbLine
 62
7
  6
CONTINUOUS
 10
6.6776735299
 20
6.6641084818
 11
6.7131210954
 21
6.6845825289
  0
LINE
  5
5DA
100
AcDbEntity
  8
0
100
AcDbLine
 62
7
  6
CONTINUOUS
 10
6.6776735299
 20
6.6050533637
 11
6.7131210954
 21
6.6255274108
  0
LINE
  5
5DB
100
AcDbEntity
  8
0
100
AcDbLine
 62
7
  6
CONTINUOUS
 10
6.6776735299
 20
6.5459982456
 11
6.7131210954
 21
6.5664722927
  0
LINE
  5
5DC
100
AcDbEntity
  8
0
100
AcDbLine
 62
7
  6
CONTINUOUS
 10
6.6776735299
 20
6.4869431275
 11
6.7131210954
 21
6.5074171746
  0
LINE
  5
5DD
100
AcDbEntity
  8
0
100
AcDbLine
 62
7
  6
CONTINUOUS
 10
6.6776735299
 20
6.4278880093
 11
6.7131210954
 21
6.4483620565
  0
LWPOLYLINE
  5
5DE
100
AcDbEntity
  8
02___PRT_ALL_AXES
100
AcDbPolyline
 62
7
  6
CONTINUOUS
 90
8
 70
0
 10
6.6779137803
 20
6.6536282093
 10
6.6762654309
 20
6.6529002859
 10
6.6621569631
 20
6.6513745745
 10
6.6341822078
 20
6.6498580902
 10
6.5923608839
 20
6.6483203803
 10
6.5377868647
 20
6.6467745478
 10
6.4727212607
 20
6.645241905
 10
6.3992311025
 20
6.6437240685
  0
LWPOLYLINE
  5
5DF
100
AcDbEntity
  8
02___PRT_ALL_AXES
100
AcDbPolyline
 62
7
  6
CONTINUOUS
 90
10
 70
0
 10
5.57555158
 20
6.162416655
 10
5.5772037445
 20
6.1631454141
 10
5.5913188148
 20
6.1646710324
 10
5.6193032383
 20
6.1661876458
 10
5.6611358386
 20
6.1677254778
 10
5.7157251459
 20
6.1692715049
 10
5.7808109447
 20
6.1708044179
 10
5.8542849119
 20
6.1723217839
 10
5.935916703
 20
6.1738586498
 10
6.0230353007
 20
6.1754023964
  0
LWPOLYLINE
  5
5E0
100
AcDbEntity
  8
02___PRT_ALL_AXES
100
AcDbPolyline
 62
7
  6
CONTINUOUS
 90
10
 70
0
 10
5.5755515787
 20
6.3395823228
 10
5.5773383982
 20
6.3403398659
 10
5.5918087262
 20
6.3418713005
 10
5.6200905108
 20
6.3433872357
 10
5.6620044556
 20
6.3449184437
 10
5.7162977806
 20
6.3464515017
 10
5.780672895
 20
6.3479667481
 10
5.8541148646
 20
6.3494838022
 10
5.9358507702
 20
6.3510228057
 10
6.0230353007
 20
6.3525677508
  0
LWPOLYLINE
  5
5E1
100
AcDbEntity
  8
02___PRT_ALL_AXES
100
AcDbPolyline
 62
7
  6
CONTINUOUS
 90
10
 70
0
 10
5.5755515778
 20
6.4576930834
 10
5.5773689636
 20
6.458456553
 10
5.5919637334
 20
6.4599924752
 10
5.6202618555
 20
6.4615048846
 10
5.6618787407
 20
6.4630246916
 10
5.7161584704
 20
6.464558178
 10
5.7810436123
 20
6.4660851035
 10
5.8546108589
 20
6.4676037671
 10
5.9362140573
 20
6.4691396446
 10
6.0230353007
 20
6.470677987
  0
LWPOLYLINE
  5
5E2
100
AcDbEntity
  8
02___PRT_ALL_AXES
100
AcDbPolyline
 62
7
  6
CONTINUOUS
 90
10
 70
0
 10
6.6779137825
 20
6.7126824716
 10
6.6760077791
 20
6.7119006118
 10
6.6612399474
 20
6.710364741
 10
6.632718352
 20
6.7088497678
 10
6.5910221997
 20
6.7073329902
 10
6.5373759199
 20
6.7058191539
 10
6.4729520562
 20
6.70430208
 10
6.3994496193
 20
6.7027834739
 10
6.3176653094
 20
6.7012434474
 10
6.2304300596
 20
6.6996975804
  0
LWPOLYLINE
  5
5E3
100
AcDbEntity
  8
02___PRT_ALL_AXES
100
AcDbPolyline
 62
7
  6
CONTINUOUS
 90
6
 70
0
 10
5.575551579
 20
6.3986385947
 10
5.5774581586
 20
6.3994199559
 10
5.5919150405
 20
6.4009339264
 10
5.6202883627
 20
6.402450912
 10
5.6625468941
 20
6.4039907404
 10
5.7175378346
 20
6.4055382415
  0
LWPOLYLINE
  5
5E4
100
AcDbEntity
  8
02___PRT_ALL_AXES
100
AcDbPolyline
 62
7
  6
CONTINUOUS
 90
9
 70
0
 10
5.5401185069
 20
6.4781503821
 10
5.5419183758
 20
6.47888684
 10
5.5562511258
 20
6.4803597559
 10
5.5845653558
 20
6.4818326717
 10
5.6261671348
 20
6.4833055876
 10
5.6800368778
 20
6.4847785034
 10
5.7448543339
 20
6.4862514192
 10
5.8190309436
 20
6.4877243351
 10
5.9007487711
 20
6.4891972509
  0
LWPOLYLINE
  5
5E5
100
AcDbEntity
  8
02___PRT_ALL_AXES
100
AcDbPolyline
 62
7
  6
CONTINUOUS
 90
9
 70
0
 10
5.5401185069
 20
6.419095264
 10
5.5419183758
 20
6.4198317219
 10
5.5562511258
 20
6.4213046378
 10
5.5845653558
 20
6.4227775536
 10
5.6261671348
 20
6.4242504694
 10
5.6800368778
 20
6.4257233853
 10
5.7448543339
 20
6.4271963011
 10
5.8190309436
 20
6.428669217
 10
5.9007487711
 20
6.4301421328
  0
LWPOLYLINE
  5
5E6
100
AcDbEntity
  8
02___PRT_ALL_AXES
100
AcDbPolyline
 62
7
  6
CONTINUOUS
 90
9
 70
0
 10
5.5401185069
 20
6.3600401459
 10
5.5419183758
 20
6.3607766038
 10
5.5562511258
 20
6.3622495197
 10
5.5845653558
 20
6.3637224355
 10
5.6261671348
 20
6.3651953513
 10
5.6800368778
 20
6.3666682672
 10
5.7448543339
 20
6.368141183
 10
5.8190309436
 20
6.3696140989
 10
5.9007487711
 20
6.3710870147
  0
LWPOLYLINE
  5
5E7
100
AcDbEntity
  8
02___PRT_ALL_AXES
100
AcDbPolyline
 62
7
  6
CONTINUOUS
 90
9
 70
0
 10
5.5401185069
 20
6.2419299097
 10
5.5419183758
 20
6.2426663676
 10
5.5562511258
 20
6.2441392834
 10
5.5845653558
 20
6.2456121993
 10
5.6261671348
 20
6.2470851151
 10
5.6800368778
 20
6.248558031
 10
5.7448543339
 20
6.2500309468
 10
5.8190309436
 20
6.2515038627
 10
5.9007487711
 20
6.2529767785
  0
LWPOLYLINE
  5
5E8
100
AcDbEntity
  8
02___PRT_ALL_AXES
100
AcDbPolyline
 62
7
  6
CONTINUOUS
 90
9
 70
0
 10
5.5401185069
 20
6.1828747916
 10
5.5419183758
 20
6.1836112495
 10
5.5562511258
 20
6.1850841653
 10
5.5845653558
 20
6.1865570812
 10
5.6261671348
 20
6.188029997
 10
5.6800368778
 20
6.1895029129
 10
5.7448543339
 20
6.1909758287
 10
5.8190309436
 20
6.1924487445
 10
5.9007487711
 20
6.1939216604
  0
LWPOLYLINE
  5
5E9
100
AcDbEntity
  8
02___PRT_ALL_AXES
100
AcDbPolyline
 62
7
  6
CONTINUOUS
 90
9
 70
0
 10
5.5401185069
 20
6.1238196734
 10
5.5419183758
 20
6.1245561314
 10
5.5562511258
 20
6.1260290472
 10
5.5845653558
 20
6.1275019631
 10
5.6261671348
 20
6.1289748789
 10
5.6800368778
 20
6.1304477947
 10
5.7448543339
 20
6.1319207106
 10
5.8190309436
 20
6.1333936264
 10
5.9007487711
 20
6.1348665423
  0
LWPOLYLINE
  5
5EA
100
AcDbEntity
  8
02___PRT_ALL_AXES
100
AcDbPolyline
 62
7
  6
CONTINUOUS
 90
10
 70
0
 10
5.5755515798
 20
6.2214734224
 10
5.5775089179
 20
6.2222649488
 10
5.5920798201
 20
6.2237801614
 10
5.6205045374
 20
6.2252948877
 10
5.6627830695
 20
6.2268328503
 10
5.7177544792
 20
6.2283783996
 10
5.7831251274
 20
6.2299101143
 10
5.8567785201
 20
6.2314257455
 10
5.9376048562
 20
6.2329444339
 10
6.0230353007
 20
6.2344575145
  0
LWPOLYLINE
  5
5EB
100
AcDbEntity
  8
02___PRT_ALL_AXES
100
AcDbPolyline
 62
7
  6
CONTINUOUS
 90
10
 70
0
 10
6.6779137804
 20
6.5945714174
 10
6.6759515328
 20
6.5937789162
 10
6.6613793652
 20
6.5922642641
 10
6.6329491251
 20
6.5907494668
 10
6.5906636089
 20
6.5892114183
 10
6.5356882057
 20
6.5876658824
 10
6.4703172512
 20
6.5861342432
 10
6.3966670545
 20
6.5846187262
 10
6.31586143
 20
6.5831004416
 10
6.2304300596
 20
6.5815873442
  0
LWPOLYLINE
  5
5EC
100
AcDbEntity
  8
02___PRT_ALL_AXES
100
AcDbPolyline
 62
7
  6
CONTINUOUS
 90
5
 70
0
 10
5.5403442649
 20
6.3086276841
 10
5.5411830248
 20
6.3089332332
 10
5.553587185
 20
6.3103848813
 10
5.5796361939
 20
6.3118365293
 10
5.6187099039
 20
6.3132881774
  0
LWPOLYLINE
  5
5ED
100
AcDbEntity
  8
02___PRT_ALL_AXES
100
AcDbPolyline
 62
7
  6
CONTINUOUS
 90
9
 70
0
 10
5.5403442649
 20
6.6629583928
 10
5.5419183758
 20
6.6634340841
 10
5.5562511258
 20
6.664907
 10
5.5845653558
 20
6.6663799158
 10
5.6261671348
 20
6.6678528317
 10
5.6800368778
 20
6.6693257475
 10
5.7448543339
 20
6.6707986633
 10
5.8190309436
 20
6.6722715792
 10
5.9007487711
 20
6.673744495
  0
LWPOLYLINE
  5
5EE
100
AcDbEntity
  8
02___PRT_ALL_AXES
100
AcDbPolyline
 62
7
  6
CONTINUOUS
 90
9
 70
0
 10
5.5403442649
 20
6.6039032747
 10
5.5419183758
 20
6.604378966
 10
5.5562511258
 20
6.6058518819
 10
5.5845653558
 20
6.6073247977
 10
5.6261671348
 20
6.6087977135
 10
5.6800368778
 20
6.6102706294
 10
5.7448543339
 20
6.6117435452
 10
5.8190309436
 20
6.6132164611
 10
5.9007487711
 20
6.6146893769
  0
LWPOLYLINE
  5
5EF
100
AcDbEntity
  8
02___PRT_ALL_AXES
100
AcDbPolyline
 62
7
  6
CONTINUOUS
 90
9
 70
0
 10
5.5403442649
 20
6.5448481566
 10
5.5419183758
 20
6.5453238479
 10
5.5562511258
 20
6.5467967637
 10
5.5845653558
 20
6.5482696796
 10
5.6261671348
 20
6.5497425954
 10
5.6800368778
 20
6.5512155113
 10
5.7448543339
 20
6.5526884271
 10
5.8190309436
 20
6.554161343
 10
5.9007487711
 20
6.5556342588
  0
LWPOLYLINE
  5
5F0
100
AcDbEntity
  8
02___PRT_ALL_AXES
100
AcDbPolyline
 62
7
  6
CONTINUOUS
 90
9
 70
0
 10
5.5403442649
 20
6.4857930384
 10
5.5419183758
 20
6.4862687298
 10
5.5562511258
 20
6.4877416456
 10
5.5845653558
 20
6.4892145615
 10
5.6261671348
 20
6.4906874773
 10
5.6800368778
 20
6.4921603932
 10
5.7448543339
 20
6.493633309
 10
5.8190309436
 20
6.4951062249
 10
5.9007487711
 20
6.4965791407
  0
LWPOLYLINE
  5
5F1
100
AcDbEntity
  8
02___PRT_ALL_AXES
100
AcDbPolyline
 62
7
  6
CONTINUOUS
 90
9
 70
0
 10
5.5403442649
 20
6.4267379203
 10
5.5419183758
 20
6.4272136117
 10
5.5562511258
 20
6.4286865275
 10
5.5845653558
 20
6.4301594434
 10
5.6261671348
 20
6.4316323592
 10
5.6800368778
 20
6.4331052751
 10
5.7448543339
 20
6.4345781909
 10
5.8190309436
 20
6.4360511067
 10
5.9007487711
 20
6.4375240226
  0
LWPOLYLINE
  5
5F2
100
AcDbEntity
  8
02___PRT_ALL_AXES
100
AcDbPolyline
 62
7
  6
CONTINUOUS
 90
9
 70
0
 10
5.5403442649
 20
6.3676828022
 10
5.5419183758
 20
6.3681584936
 10
5.5562511258
 20
6.3696314094
 10
5.5845653558
 20
6.3711043253
 10
5.6261671348
 20
6.3725772411
 10
5.6800368778
 20
6.3740501569
 10
5.7448543339
 20
6.3755230728
 10
5.8190309436
 20
6.3769959886
 10
5.9007487711
 20
6.3784689045
  0
LINE
  5
5F3
100
AcDbEntity
  8
AXIS
100
AcDbLine
 62
7
  6
CONTINUOUS
 10
5.1424807116
 20
13.6481799097
 11
7.1109846487
 21
13.6481799097
  0
LINE
  5
5F4
100
AcDbEntity
  8
0
100
AcDbLine
 62
7
  6
CONTINUOUS
 10
6.6776735299
 20
6.3688328912
 11
6.7131210954
 21
6.3893069384
  0
LINE
  5
5F5
100
AcDbEntity
  8
0
100
AcDbLine
 62
7
  6
CONTINUOUS
 10
6.6776735299
 20
6.3097777731
 11
6.7131210954
 21
6.3302518203
  0
LINE
  5
5F6
100
AcDbEntity
  8
0
100
AcDbLine
 62
7
  6
CONTINUOUS
 10
6.6776735299
 20
6.250722655
 11
6.7131210954
 21
6.2711967021
  0
LINE
  5
5F7
100
AcDbEntity
  8
0
100
AcDbLine
 62
7
  6
CONTINUOUS
 10
6.6776735299
 20
6.1916675369
 11
6.7131210954
 21
6.212141584
  0
LINE
  5
5F8
100
AcDbEntity
  8
0
100
AcDbLine
 62
7
  6
CONTINUOUS
 10
6.6776735299
 20
6.1326124188
 11
6.7131210954
 21
6.1530864659
  0
LWPOLYLINE
  5
5F9
100
AcDbEntity
  8
02___PRT_ALL_AXES
100
AcDbPolyline
 62
7
  6
CONTINUOUS
 90
6
 70
0
 10
6.6779137824
 20
6.2402417599
 10
6.6761594679
 20
6.2394914414
 10
6.6618939293
 20
6.237969931
 10
6.6337055682
 20
6.2364514967
 10
6.5916188643
 20
6.2349109543
 10
6.5367629214
 20
6.2333625527
  0
LWPOLYLINE
  5
5FA
100
AcDbEntity
  8
02___PRT_ALL_AXES
100
AcDbPolyline
 62
7
  6
CONTINUOUS
 90
10
 70
0
 10
6.6779137818
 20
6.476462491
 10
6.6761184794
 20
6.475703197
 10
6.6616291462
 20
6.4741716147
 10
6.6333319257
 20
6.4726557648
 10
6.5914126794
 20
6.4711248858
 10
6.5371367908
 20
6.4695925705
 10
6.472786811
 20
6.4680779867
 10
6.39934638
 20
6.4665609757
 10
6.3176096004
 20
6.4650219623
 10
6.2304300596
 20
6.4634771079
  0
LWPOLYLINE
  5
5FB
100
AcDbEntity
  8
02___PRT_ALL_AXES
100
AcDbPolyline
 62
7
  6
CONTINUOUS
 90
10
 70
0
 10
6.6779137825
 20
6.3583517658
 10
6.6760965032
 20
6.3575883281
 10
6.6615036898
 20
6.3560525287
 10
6.6332106367
 20
6.3545402824
 10
6.5915717581
 20
6.3530196955
 10
6.537267728
 20
6.3514856798
 10
6.4723689443
 20
6.3499585992
 10
6.3987987817
 20
6.348439999
 10
6.3172095944
 20
6.3469044562
 10
6.2304300596
 20
6.3453668717
  0
LWPOLYLINE
  5
5FC
100
AcDbEntity
  8
02___PRT_ALL_AXES
100
AcDbPolyline
 62
7
  6
CONTINUOUS
 90
10
 70
0
 10
6.6779137825
 20
6.1811863311
 10
6.6760893505
 20
6.180421472
 10
6.6615323386
 20
6.1788891924
 10
6.6331818064
 20
6.1773736821
 10
6.5910270319
 20
6.1758370801
 10
6.5361929849
 20
6.1742929041
 10
6.4709650492
 20
6.172762552
 10
6.3973682677
 20
6.1712466197
 10
6.3162048002
 20
6.1697208493
 10
6.2304300596
 20
6.1682015174
  0
LWPOLYLINE
  5
5FD
100
AcDbEntity
  8
02___PRT_ALL_AXES
100
AcDbPolyline
 62
7
  6
CONTINUOUS
 90
10
 70
0
 10
6.6779137814
 20
6.4174062959
 10
6.6760145571
 20
6.4166264135
 10
6.6615665359
 20
6.4151120759
 10
6.6331990606
 20
6.4135949002
 10
6.5909429584
 20
6.4120548928
 10
6.5359539955
 20
6.4105072909
 10
6.4705222583
 20
6.4089733605
 10
6.3968942479
 20
6.407457816
 10
6.3163796282
 20
6.4059444967
 10
6.2304300596
 20
6.4044219898
  0
LWPOLYLINE
  5
5FE
100
AcDbEntity
  8
02___PRT_ALL_AXES
100
AcDbPolyline
 62
7
  6
CONTINUOUS
 90
10
 70
0
 10
5.5755515778
 20
6.1033623797
 10
5.5774596712
 20
6.1041446757
 10
5.5922316019
 20
6.10568055
 10
5.6207584415
 20
6.1071955825
 10
5.6624678763
 20
6.1087126505
 10
5.7161113551
 20
6.1102262651
 10
5.7805250258
 20
6.1117430356
 10
5.8540232911
 20
6.113261533
 10
5.9358015628
 20
6.1148014388
 10
6.0230353007
 20
6.1163472783
  0
LWPOLYLINE
  5
5FF
100
AcDbEntity
  8
02___PRT_ALL_AXES
100
AcDbPolyline
 62
7
  6
CONTINUOUS
 90
10
 70
0
 10
6.6779137825
 20
6.299296648
 10
6.6760046459
 20
6.2985141423
 10
6.6612460694
 20
6.2969793419
 10
6.6327270215
 20
6.2954643138
 10
6.5908215692
 20
6.2939408185
 10
6.5369999436
 20
6.292423721
 10
6.4727792779
 20
6.2909124673
 10
6.3993403032
 20
6.2893955022
 10
6.3176054834
 20
6.2878565331
 10
6.2304300596
 20
6.2863117536
  0
LWPOLYLINE
  5
600
100
AcDbEntity
  8
02___PRT_ALL_AXES
100
AcDbPolyline
 62
7
  6
CONTINUOUS
 90
9
 70
0
 10
5.5403442649
 20
6.249572566
 10
5.5419183758
 20
6.2500482573
 10
5.5562511258
 20
6.2515211732
 10
5.5845653558
 20
6.252994089
 10
5.6261671348
 20
6.2544670049
 10
5.6800368778
 20
6.2559399207
 10
5.7448543339
 20
6.2574128366
 10
5.8190309436
 20
6.2588857524
 10
5.9007487711
 20
6.2603586683
  0
LWPOLYLINE
  5
601
100
AcDbEntity
  8
02___PRT_ALL_AXES
100
AcDbPolyline
 62
7
  6
CONTINUOUS
 90
7
 70
0
 10
5.5403442649
 20
6.1905174479
 10
5.5419183758
 20
6.1909931392
 10
5.5562511258
 20
6.1924660551
 10
5.5845653558
 20
6.1939389709
 10
5.6261671348
 20
6.1954118868
 10
5.6800368778
 20
6.1968848026
 10
5.7448543339
 20
6.1983577185
  0
LWPOLYLINE
  5
602
100
AcDbEntity
  8
02___PRT_ALL_AXES
100
AcDbPolyline
 62
7
  6
CONTINUOUS
 90
9
 70
0
 10
5.5403442649
 20
6.1314623298
 10
5.5419183758
 20
6.1319380211
 10
5.5562511258
 20
6.133410937
 10
5.5845653558
 20
6.1348838528
 10
5.6261671348
 20
6.1363567687
 10
5.6800368778
 20
6.1378296845
 10
5.7448543339
 20
6.1393026004
 10
5.8190309436
 20
6.1407755162
 10
5.9007487711
 20
6.142248432
  0
LINE
  5
603
100
AcDbEntity
  8
0
100
AcDbLine
 62
7
  6
CONTINUOUS
 10
7.1109846487
 20
14.1914869963
 11
5.1424807116
 21
14.1914869963
  0
LINE
  5
604
100
AcDbEntity
  8
AXIS
100
AcDbLine
 62
7
  6
CONTINUOUS
 10
5.1424807116
 20
14.1914869963
 11
7.1109846487
 21
14.1914869963
  0
LINE
  5
605
100
AcDbEntity
  8
AXIS
100
AcDbLine
 62
7
  6
CONTINUOUS
 10
5.1424807116
 20
15.2505421144
 11
7.1109846487
 21
15.2505421144
  0
LINE
  5
606
100
AcDbEntity
  8
0
100
AcDbLine
 62
7
  6
CONTINUOUS
 10
5.1424807116
 20
15.2505421144
 11
7.1109846487
 21
15.2505421144
  0
LINE
  5
607
100
AcDbEntity
  8
0
100
AcDbLine
 62
9
  6
CONTINUOUS
 10
5.147177708
 20
15.5196328551
 11
7.1062876523
 21
15.5196328551
  0
LINE
  5
608
100
AcDbEntity
  8
0
100
AcDbLine
 62
7
  6
CONTINUOUS
 10
5.2259058733
 20
15.5969988073
 11
7.0275594873
 21
15.5969988073
  0
LWPOLYLINE
  5
609
100
AcDbEntity
  8
02___PRT_ALL_AXES
100
AcDbPolyline
 62
7
  6
CONTINUOUS
 90
18
 70
0
 10
17.3221746198
 20
4.5869406527
 10
17.3337662914
 20
4.5811417394
 10
17.346669409
 20
4.5763542726
 10
17.3606213023
 20
4.5726757114
 10
17.375337951
 20
4.5701809407
 10
17.3905197665
 20
4.5689207468
 10
17.4058576909
 20
4.5689207837
 10
17.4210394883
 20
4.5701810505
 10
17.4357561009
 20
4.572675892
 10
17.4497079412
 20
4.5763545203
 10
17.4626109897
 20
4.5811420491
 10
17.4742025777
 20
4.5869410182
 10
17.4842467339
 20
4.5936333772
 10
17.4925389882
 20
4.6010828892
 10
17.4989105341
 20
4.6091379033
 10
17.5032316655
 20
4.6176344429
 10
17.5054144165
 20
4.6263995429
 10
17.5056872364
 20
4.6308268988
  0
LWPOLYLINE
  5
60A
100
AcDbEntity
  8
02___PRT_ALL_AXES
100
AcDbPolyline
 62
7
  6
CONTINUOUS
 90
14
 70
0
 10
17.175201113
 20
5.2675012869
 10
17.2626144064
 20
5.2524500627
 10
17.3533503724
 20
5.2454744892
 10
17.4451852352
 20
5.2467749998
 10
17.5358682869
 20
5.2563491956
 10
17.6231770486
 20
5.273991905
 10
17.7049717391
 20
5.2993002113
 10
17.779247717
 20
5.3316833277
 10
17.8441846115
 20
5.3703770768
 10
17.8981909357
 20
5.4144626186
 10
17.9399430913
 20
5.4628889701
 10
17.968417808
 20
5.5144987628
 10
17.9829172214
 20
5.5680566077
 10
17.9848024555
 20
5.595802534
  0
LWPOLYLINE
  5
60B
100
AcDbEntity
  8
02___PRT_ALL_AXES
100
AcDbPolyline
 62
7
  6
CONTINUOUS
 90
13
 70
0
 10
17.175201113
 20
5.2735286177
 10
17.2626144064
 20
5.2584773936
 10
17.3533503724
 20
5.2515018201
 10
17.4451852352
 20
5.2528023306
 10
17.5358682869
 20
5.2623765265
 10
17.6231770486
 20
5.2800192359
 10
17.7049717391
 20
5.3053275421
 10
17.779247717
 20
5.3377106586
 10
17.8441846115
 20
5.3764044077
 10
17.8981909357
 20
5.4204899495
 10
17.9399430913
 20
5.468916301
 10
17.968417808
 20
5.5205260936
 10
17.9829172214
 20
5.5740839385
  0
LWPOLYLINE
  5
60C
100
AcDbEntity
  8
02___PRT_ALL_AXES
100
AcDbPolyline
 62
7
  6
CONTINUOUS
 90
11
 70
0
 10
17.175201113
 20
5.3157199335
 10
17.2626144064
 20
5.3006687094
 10
17.3533503724
 20
5.2936931359
 10
17.4451852352
 20
5.2949936464
 10
17.5358682869
 20
5.3045678423
 10
17.6231770486
 20
5.3222105517
 10
17.7049717391
 20
5.347518858
 10
17.779247717
 20
5.3799019744
 10
17.8441846115
 20
5.4185957235
 10
17.8981909357
 20
5.4626812653
 10
17.9399430913
 20
5.5111076168
  0
LWPOLYLINE
  5
60D
100
AcDbEntity
  8
02___PRT_ALL_AXES
100
AcDbPolyline
 62
7
  6
CONTINUOUS
 90
11
 70
0
 10
17.175201113
 20
5.3217472644
 10
17.2626144064
 20
5.3066960402
 10
17.3533503724
 20
5.2997204668
 10
17.4451852352
 20
5.3010209773
 10
17.5358682869
 20
5.3105951732
 10
17.6231770486
 20
5.3282378825
 10
17.7049717391
 20
5.3535461888
 10
17.779247717
 20
5.3859293053
 10
17.8441846115
 20
5.4246230543
 10
17.8981909357
 20
5.4687085961
 10
17.9399430913
 20
5.5171349476
  0
LWPOLYLINE
  5
60E
100
AcDbEntity
  8
02___PRT_ALL_AXES
100
AcDbPolyline
 62
7
  6
CONTINUOUS
 90
12
 70
0
 10
17.175201113
 20
5.3639385802
 10
17.2626144064
 20
5.3488873561
 10
17.3533503724
 20
5.3419117826
 10
17.4451852352
 20
5.3432122931
 10
17.5358682869
 20
5.352786489
 10
17.6231770486
 20
5.3704291984
 10
17.7049717391
 20
5.3957375047
 10
17.779247717
 20
5.4281206211
 10
17.8441846115
 20
5.4668143702
 10
17.8981909357
 20
5.510899912
 10
17.9399430913
 20
5.5593262635
 10
17.968417808
 20
5.6109360562
  0
LWPOLYLINE
  5
60F
100
AcDbEntity
  8
02___PRT_ALL_AXES
100
AcDbPolyline
 62
7
  6
CONTINUOUS
 90
12
 70
0
 10
17.175201113
 20
5.3699659111
 10
17.2626144064
 20
5.3549146869
 10
17.3533503724
 20
5.3479391134
 10
17.4451852352
 20
5.349239624
 10
17.5358682869
 20
5.3588138198
 10
17.6231770486
 20
5.3764565292
 10
17.7049717391
 20
5.4017648355
 10
17.779247717
 20
5.4341479519
 10
17.8441846115
 20
5.472841701
 10
17.8981909357
 20
5.5169272428
 10
17.9399430913
 20
5.5653535943
 10
17.968417808
 20
5.616963387
  0
LWPOLYLINE
  5
610
100
AcDbEntity
  8
02___PRT_ALL_AXES
100
AcDbPolyline
 62
7
  6
CONTINUOUS
 90
11
 70
0
 10
17.175201113
 20
5.4121572269
 10
17.2626144064
 20
5.3971060028
 10
17.3533503724
 20
5.3901304293
 10
17.4451852352
 20
5.3914309398
 10
17.5358682869
 20
5.4010051357
 10
17.6231770486
 20
5.4186478451
 10
17.7049717391
 20
5.4439561513
 10
17.779247717
 20
5.4763392678
 10
17.8441846115
 20
5.5150330169
 10
17.8981909357
 20
5.5591185587
 10
17.9399430913
 20
5.6075449102
  0
LWPOLYLINE
  5
611
100
AcDbEntity
  8
02___PRT_ALL_AXES
100
AcDbPolyline
 62
7
  6
CONTINUOUS
 90
12
 70
0
 10
17.175201113
 20
5.4181845577
 10
17.2626144064
 20
5.4031333336
 10
17.3533503724
 20
5.3961577601
 10
17.4451852352
 20
5.3974582706
 10
17.5358682869
 20
5.4070324665
 10
17.6231770486
 20
5.4246751759
 10
17.7049717391
 20
5.4499834822
 10
17.779247717
 20
5.4823665986
 10
17.8441846115
 20
5.5210603477
 10
17.8981909357
 20
5.5651458895
 10
17.9399430913
 20
5.613572241
 10
17.968417808
 20
5.6651820337
  0
LINE
  5
612
100
AcDbEntity
  8
02___PRT_ALL_AXES
100
AcDbLine
 62
7
  6
CONTINUOUS
 10
17.2522160603
 20
5.3940014408
 11
17.16752947
 21
5.4105868597
  0
LINE
  5
613
100
AcDbEntity
  8
02___PRT_ALL_AXES
100
AcDbLine
 62
7
  6
CONTINUOUS
 10
17.2507163093
 20
5.3460002497
 11
17.1669797082
 21
5.3625062422
  0
LWPOLYLINE
  5
614
100
AcDbEntity
  8
02___PRT_ALL_AXES
100
AcDbPolyline
 62
7
  6
CONTINUOUS
 90
3
 70
0
 10
17.2500318852
 20
5.2978817099
 10
17.1661749509
 20
5.3144904025
 10
17.0887311187
 20
5.3385719866
  0
LWPOLYLINE
  5
615
100
AcDbEntity
  8
02___PRT_ALL_AXES
100
AcDbPolyline
 62
7
  6
CONTINUOUS
 90
5
 70
0
 10
17.175201113
 20
5.2675012869
 10
17.1542366817
 20
5.2741624841
 10
17.1322753291
 20
5.2818088901
 10
17.1101975853
 20
5.290223315
 10
17.0887311187
 20
5.2991377974
  0
LWPOLYLINE
  5
616
100
AcDbEntity
  8
02___PRT_ALL_AXES
100
AcDbPolyline
 62
7
  6
CONTINUOUS
 90
3
 70
0
 10
17.175201113
 20
5.3157199335
 10
17.1462267966
 20
5.3250887298
 10
17.1173904502
 20
5.3356182072
  0
LWPOLYLINE
  5
617
100
AcDbEntity
  8
0
100
AcDbPolyline
 62
9
  6
CONTINUOUS
 90
14
 70
0
 10
17.0887311187
 20
5.261147343
 10
17.1621357251
 20
5.2369188937
 10
17.2410477452
 20
5.2194657748
 10
17.3236608463
 20
5.2091815448
 10
17.4080436369
 20
5.2063100156
 10
17.4921947573
 20
5.2109216302
 10
17.5741312863
 20
5.2229072327
 10
17.651927846
 20
5.2419843157
 10
17.7237590813
 20
5.2677051863
 10
17.7879343198
 20
5.299464862
 10
17.8429437758
 20
5.3365162753
 10
17.8874934427
 20
5.3779877101
 10
17.9205356109
 20
5.4229032503
 10
17.9361539237
 20
5.4584940937
  0
LWPOLYLINE
  5
618
100
AcDbEntity
  8
02___PRT_ALL_AXES
100
AcDbPolyline
 62
7
  6
CONTINUOUS
 90
7
 70
0
 10
17.5500175615
 20
5.5479323898
 10
17.635377145
 20
5.5664965209
 10
17.715089984
 20
5.5924350382
 10
17.7872583587
 20
5.6251586424
 10
17.8501641597
 20
5.6639165018
 10
17.9023097917
 20
5.7078141277
 10
17.9424538259
 20
5.7558346691
  0
LWPOLYLINE
  5
619
100
AcDbEntity
  8
02___PRT_ALL_AXES
100
AcDbPolyline
 62
7
  6
CONTINUOUS
 90
8
 70
0
 10
17.5500175615
 20
5.5539597206
 10
17.635377145
 20
5.5725238517
 10
17.715089984
 20
5.598462369
 10
17.7872583587
 20
5.6311859732
 10
17.8501641597
 20
5.6699438326
 10
17.9023097917
 20
5.7138414586
 10
17.9424538259
 20
5.7618619999
 10
17.9505041981
 20
5.7769722409
  0
LINE
  5
61A
100
AcDbEntity
  8
02___PRT_ALL_AXES
100
AcDbLine
 62
7
  6
CONTINUOUS
 10
17.5358682869
 20
5.5938797224
 11
17.6231770486
 21
5.6115224318
  0
LWPOLYLINE
  5
61B
100
AcDbEntity
  8
02___PRT_ALL_AXES
100
AcDbPolyline
 62
7
  6
CONTINUOUS
 90
5
 70
0
 10
17.6028559304
 20
5.5550232792
 10
17.5171584224
 20
5.5385227033
 10
17.4282275833
 20
5.5302432552
 10
17.3395339124
 20
5.5303405908
 10
17.2522228025
 20
5.5386564091
  0
LWPOLYLINE
  5
61C
100
AcDbEntity
  8
02___PRT_ALL_AXES
100
AcDbPolyline
 62
7
  6
CONTINUOUS
 90
5
 70
0
 10
17.5408466655
 20
5.5904230729
 10
17.464048476
 20
5.5807695759
 10
17.3855462751
 20
5.5774781846
 10
17.3077841488
 20
5.5806156633
 10
17.2314077871
 20
5.5901290344
  0
LINE
  5
61D
100
AcDbEntity
  8
02___PRT_ALL_AXES
100
AcDbLine
 62
7
  6
CONTINUOUS
 10
17.4560921426
 20
5.542822792
 11
17.5500175615
 21
5.5539597206
  0
LWPOLYLINE
  5
61E
100
AcDbEntity
  8
02___PRT_ALL_AXES
100
AcDbPolyline
 62
7
  6
CONTINUOUS
 90
5
 70
0
 10
17.175201113
 20
5.5568131669
 10
17.266168494
 20
5.5413290153
 10
17.3606329201
 20
5.534585867
 10
17.4560921426
 20
5.5367954611
 10
17.5500175615
 20
5.5479323898
  0
LWPOLYLINE
  5
61F
100
AcDbEntity
  8
02___PRT_ALL_AXES
100
AcDbPolyline
 62
7
  6
CONTINUOUS
 90
4
 70
0
 10
17.175201113
 20
5.5628404978
 10
17.266168494
 20
5.5473563462
 10
17.3606329201
 20
5.5406131978
 10
17.4560921426
 20
5.542822792
  0
LWPOLYLINE
  5
620
100
AcDbEntity
  8
02___PRT_ALL_AXES
100
AcDbPolyline
 62
7
  6
CONTINUOUS
 90
11
 70
0
 10
17.175201113
 20
5.4603758736
 10
17.2626144064
 20
5.4453246494
 10
17.3533503724
 20
5.438349076
 10
17.4451852352
 20
5.4396495865
 10
17.5358682869
 20
5.4492237824
 10
17.6231770486
 20
5.4668664918
 10
17.7049717391
 20
5.492174798
 10
17.779247717
 20
5.5245579145
 10
17.8441846115
 20
5.5632516635
 10
17.8981909357
 20
5.6073372054
 10
17.9399430913
 20
5.6557635568
  0
LWPOLYLINE
  5
621
100
AcDbEntity
  8
02___PRT_ALL_AXES
100
AcDbPolyline
 62
7
  6
CONTINUOUS
 90
12
 70
0
 10
17.175201113
 20
5.4664032044
 10
17.2626144064
 20
5.4513519803
 10
17.3533503724
 20
5.4443764068
 10
17.4451852352
 20
5.4456769173
 10
17.5358682869
 20
5.4552511132
 10
17.6231770486
 20
5.4728938226
 10
17.7049717391
 20
5.4982021288
 10
17.779247717
 20
5.5305852453
 10
17.8441846115
 20
5.5692789944
 10
17.8981909357
 20
5.6133645362
 10
17.9399430913
 20
5.6617908877
 10
17.968417808
 20
5.7134006804
  0
LWPOLYLINE
  5
622
100
AcDbEntity
  8
02___PRT_ALL_AXES
100
AcDbPolyline
 62
7
  6
CONTINUOUS
 90
11
 70
0
 10
17.175201113
 20
5.5085945203
 10
17.2626144064
 20
5.4935432961
 10
17.3533503724
 20
5.4865677226
 10
17.4451852352
 20
5.4878682332
 10
17.5358682869
 20
5.497442429
 10
17.6231770486
 20
5.5150851384
 10
17.7049717391
 20
5.5403934447
 10
17.779247717
 20
5.5727765612
 10
17.8441846115
 20
5.6114703102
 10
17.8981909357
 20
5.655555852
 10
17.9399430913
 20
5.7039822035
  0
LWPOLYLINE
  5
623
100
AcDbEntity
  8
02___PRT_ALL_AXES
100
AcDbPolyline
 62
7
  6
CONTINUOUS
 90
12
 70
0
 10
17.175201113
 20
5.5146218511
 10
17.2626144064
 20
5.499570627
 10
17.3533503724
 20
5.4925950535
 10
17.4451852352
 20
5.493895564
 10
17.5358682869
 20
5.5034697599
 10
17.6231770486
 20
5.5211124693
 10
17.7049717391
 20
5.5464207755
 10
17.779247717
 20
5.578803892
 10
17.8441846115
 20
5.6174976411
 10
17.8981909357
 20
5.6615831829
 10
17.9399430913
 20
5.7100095344
 10
17.968417808
 20
5.761619327
  0
LWPOLYLINE
  5
624
100
AcDbEntity
  8
02___PRT_ALL_AXES
100
AcDbPolyline
 62
7
  6
CONTINUOUS
 90
5
 70
0
 10
17.175201113
 20
5.6050318136
 10
17.2626144064
 20
5.5899805895
 10
17.3533503724
 20
5.583005016
 10
17.4451852352
 20
5.5843055265
 10
17.5358682869
 20
5.5938797224
  0
LWPOLYLINE
  5
625
100
AcDbEntity
  8
02___PRT_ALL_AXES
100
AcDbPolyline
 62
7
  6
CONTINUOUS
 90
6
 70
0
 10
17.175201113
 20
5.6110591445
 10
17.2626144064
 20
5.5960079203
 10
17.3533503724
 20
5.5890323468
 10
17.4451852352
 20
5.5903328574
 10
17.5358682869
 20
5.5999070532
 10
17.6231770486
 20
5.6175497626
  0
LWPOLYLINE
  5
626
100
AcDbEntity
  8
02___PRT_ALL_AXES
100
AcDbPolyline
 62
7
  6
CONTINUOUS
 90
8
 70
0
 10
17.175201113
 20
5.6532504603
 10
17.2626144064
 20
5.6381992362
 10
17.3533503724
 20
5.6312236627
 10
17.4451852352
 20
5.6325241732
 10
17.5358682869
 20
5.6420983691
 10
17.6231770486
 20
5.6597410785
 10
17.7049717391
 20
5.6850493847
 10
17.7261069486
 20
5.6942639918
  0
LWPOLYLINE
  5
627
100
AcDbEntity
  8
02___PRT_ALL_AXES
100
AcDbPolyline
 62
7
  6
CONTINUOUS
 90
7
 70
0
 10
17.175201113
 20
5.6592777911
 10
17.2626144064
 20
5.644226567
 10
17.3533503724
 20
5.6372509935
 10
17.4451852352
 20
5.638551504
 10
17.5358682869
 20
5.6481256999
 10
17.6231770486
 20
5.6657684093
 10
17.6868094097
 20
5.6854570624
  0
LINE
  5
628
100
AcDbEntity
  8
02___PRT_ALL_AXES
100
AcDbLine
 62
7
  6
CONTINUOUS
 10
17.2522228025
 20
5.5386564091
 11
17.1675334558
 21
5.5552418005
  0
LINE
  5
629
100
AcDbEntity
  8
02___PRT_ALL_AXES
100
AcDbLine
 62
7
  6
CONTINUOUS
 10
17.2516155306
 20
5.4423068472
 11
17.1671463202
 21
5.45890166
  0
LWPOLYLINE
  5
62A
100
AcDbEntity
  8
02___PRT_ALL_AXES
100
AcDbPolyline
 62
7
  6
CONTINUOUS
 90
3
 70
0
 10
17.2495080001
 20
5.490833291
 10
17.1663438506
 20
5.5073223502
 10
17.0887311187
 20
5.5314465733
  0
LWPOLYLINE
  5
62B
100
AcDbEntity
  8
02___PRT_ALL_AXES
100
AcDbPolyline
 62
7
  6
CONTINUOUS
 90
3
 70
0
 10
17.2492570612
 20
5.6355262243
 10
17.1658433619
 20
5.6521047546
 10
17.0887311187
 20
5.6761025133
  0
LWPOLYLINE
  5
62C
100
AcDbEntity
  8
02___PRT_ALL_AXES
100
AcDbPolyline
 62
7
  6
CONTINUOUS
 90
3
 70
0
 10
17.2314077871
 20
5.5901290344
 10
17.1576419482
 20
5.6060084271
 10
17.0887311187
 20
5.6278838667
  0
LWPOLYLINE
  5
62D
100
AcDbEntity
  8
02___PRT_ALL_AXES
100
AcDbPolyline
 62
7
  6
CONTINUOUS
 90
3
 70
0
 10
17.1365510389
 20
5.6784171224
 10
17.0182279436
 20
5.7073738927
 10
16.9067889367
 20
5.7472672952
  0
LINE
  5
62E
100
AcDbEntity
  8
02___PRT_ALL_AXES
100
AcDbLine
 62
7
  6
CONTINUOUS
 10
17.16752947
 20
5.4105868597
 11
17.0887311187
 21
5.4350092799
  0
LINE
  5
62F
100
AcDbEntity
  8
02___PRT_ALL_AXES
100
AcDbLine
 62
7
  6
CONTINUOUS
 10
17.1675334558
 20
5.5552418005
 11
17.0887311187
 21
5.57966522
  0
LINE
  5
630
100
AcDbEntity
  8
02___PRT_ALL_AXES
100
AcDbLine
 62
7
  6
CONTINUOUS
 10
17.1669797082
 20
5.3625062422
 11
17.0887311187
 21
5.3867906333
  0
LINE
  5
631
100
AcDbEntity
  8
02___PRT_ALL_AXES
100
AcDbLine
 62
7
  6
CONTINUOUS
 10
17.1671463202
 20
5.45890166
 11
17.0887311187
 21
5.4832279266
  0
LWPOLYLINE
  5
632
100
AcDbEntity
  8
02___PRT_ALL_AXES
100
AcDbPolyline
 62
7
  6
CONTINUOUS
 90
4
 70
0
 10
17.175201113
 20
5.4603758736
 10
17.1544640385
 20
5.4669615531
 10
17.1327698534
 20
5.4745034915
 10
17.1106805738
 20
5.4829057608
  0
LWPOLYLINE
  5
633
100
AcDbEntity
  8
02___PRT_ALL_AXES
100
AcDbPolyline
 62
7
  6
CONTINUOUS
 90
5
 70
0
 10
16.8556102735
 20
5.693063801
 10
16.8762978308
 20
5.6864945592
 10
16.8979794923
 20
5.6789587375
 10
16.9200846483
 20
5.6705522597
 10
16.9420802678
 20
5.6614272905
  0
LWPOLYLINE
  5
634
100
AcDbEntity
  8
02___PRT_ALL_AXES
100
AcDbPolyline
 62
7
  6
CONTINUOUS
 90
4
 70
0
 10
16.8556102735
 20
5.4519705676
 10
16.884579885
 20
5.4426033888
 10
16.9134158243
 20
5.4320742722
 10
16.9420802678
 20
5.4203340571
  0
LWPOLYLINE
  5
635
100
AcDbEntity
  8
02___PRT_ALL_AXES
100
AcDbPolyline
 62
7
  6
CONTINUOUS
 90
3
 70
0
 10
17.175201113
 20
5.3639385802
 10
17.1462267966
 20
5.3733073765
 10
17.1173904502
 20
5.3838368539
  0
LWPOLYLINE
  5
636
100
AcDbEntity
  8
02___PRT_ALL_AXES
100
AcDbPolyline
 62
7
  6
CONTINUOUS
 90
4
 70
0
 10
16.8556102735
 20
5.5001892143
 10
16.884579885
 20
5.4908220355
 10
16.9134158243
 20
5.4802929188
 10
16.9420802678
 20
5.4685527038
  0
LWPOLYLINE
  5
637
100
AcDbEntity
  8
02___PRT_ALL_AXES
100
AcDbPolyline
 62
7
  6
CONTINUOUS
 90
3
 70
0
 10
17.175201113
 20
5.4121572269
 10
17.1462267966
 20
5.4215260232
 10
17.1173904502
 20
5.4320555006
  0
LWPOLYLINE
  5
638
100
AcDbEntity
  8
02___PRT_ALL_AXES
100
AcDbPolyline
 62
7
  6
CONTINUOUS
 90
4
 70
0
 10
16.8556102735
 20
5.548407861
 10
16.8845858148
 20
5.5390386436
 10
16.9134211547
 20
5.5285095028
 10
16.9420802678
 20
5.5167713505
  0
LWPOLYLINE
  5
639
100
AcDbEntity
  8
02___PRT_ALL_AXES
100
AcDbPolyline
 62
7
  6
CONTINUOUS
 90
4
 70
0
 10
16.8556102735
 20
5.5966265077
 10
16.884579885
 20
5.5872593288
 10
16.9134158243
 20
5.5767302122
 10
16.9420802678
 20
5.5649899971
  0
LWPOLYLINE
  5
63A
100
AcDbEntity
  8
02___PRT_ALL_AXES
100
AcDbPolyline
 62
7
  6
CONTINUOUS
 90
3
 70
0
 10
17.175201113
 20
5.5085945203
 10
17.1462267966
 20
5.5179633166
 10
17.1173904502
 20
5.528492794
  0
LWPOLYLINE
  5
63B
100
AcDbEntity
  8
02___PRT_ALL_AXES
100
AcDbPolyline
 62
7
  6
CONTINUOUS
 90
4
 70
0
 10
16.8556102735
 20
5.6448451543
 10
16.884579885
 20
5.6354779755
 10
16.9134158243
 20
5.6249488589
 10
16.9420802678
 20
5.6132086438
  0
LWPOLYLINE
  5
63C
100
AcDbEntity
  8
02___PRT_ALL_AXES
100
AcDbPolyline
 62
7
  6
CONTINUOUS
 90
3
 70
0
 10
17.175201113
 20
5.5568131669
 10
17.1462267966
 20
5.5661819633
 10
17.1173904502
 20
5.5767114406
  0
LWPOLYLINE
  5
63D
100
AcDbEntity
  8
02___PRT_ALL_AXES
100
AcDbPolyline
 62
7
  6
CONTINUOUS
 90
3
 70
0
 10
17.175201113
 20
5.6050318136
 10
17.1462192997
 20
5.6144031873
 10
17.1173836794
 20
5.6249327076
  0
LWPOLYLINE
  5
63E
100
AcDbEntity
  8
02___PRT_ALL_AXES
100
AcDbPolyline
 62
7
  6
CONTINUOUS
 90
4
 70
0
 10
16.8556102735
 20
5.7412824477
 10
16.884579885
 20
5.7319152689
 10
16.9134158243
 20
5.7213861523
 10
16.9420802678
 20
5.7096459372
  0
LWPOLYLINE
  5
63F
100
AcDbEntity
  8
02___PRT_ALL_AXES
100
AcDbPolyline
 62
7
  6
CONTINUOUS
 90
3
 70
0
 10
17.175201113
 20
5.6532504603
 10
17.1462267966
 20
5.6626192566
 10
17.1173904502
 20
5.673148734
  0
LINE
  5
640
100
AcDbEntity
  8
02___PRT_ALL_AXES
100
AcDbLine
 62
7
  6
CONTINUOUS
 10
17.1173904502
 20
5.3356182072
 11
17.0887311187
 21
5.3473564441
  0
LINE
  5
641
100
AcDbEntity
  8
02___PRT_ALL_AXES
100
AcDbLine
 62
7
  6
CONTINUOUS
 10
17.1173904502
 20
5.3838368539
 11
17.0887311187
 21
5.3955750907
  0
LINE
  5
642
100
AcDbEntity
  8
02___PRT_ALL_AXES
100
AcDbLine
 62
7
  6
CONTINUOUS
 10
17.1173904502
 20
5.4320555006
 11
17.0887311187
 21
5.4437937374
  0
LINE
  5
643
100
AcDbEntity
  8
02___PRT_ALL_AXES
100
AcDbLine
 62
7
  6
CONTINUOUS
 10
17.1173904502
 20
5.528492794
 11
17.0887311187
 21
5.5402310308
  0
LINE
  5
644
100
AcDbEntity
  8
02___PRT_ALL_AXES
100
AcDbLine
 62
7
  6
CONTINUOUS
 10
17.1173904502
 20
5.5767114406
 11
17.0887311187
 21
5.5884496775
  0
LINE
  5
645
100
AcDbEntity
  8
02___PRT_ALL_AXES
100
AcDbLine
 62
7
  6
CONTINUOUS
 10
17.1106805738
 20
5.4829057608
 11
17.0887311187
 21
5.4920123841
  0
LINE
  5
646
100
AcDbEntity
  8
0
100
AcDbLine
 62
7
  6
CONTINUOUS
 10
17.0961076473
 20
5.243573146
 11
17.0975674118
 21
5.2428724703
  0
LINE
  5
647
100
AcDbEntity
  8
0
100
AcDbLine
 62
7
  6
CONTINUOUS
 10
17.0960832272
 20
5.2435872446
 11
16.9510362161
 21
5.327328281
  0
LINE
  5
648
100
AcDbEntity
  8
0
100
AcDbLine
 62
9
  6
CONTINUOUS
 10
17.0887311187
 20
5.261147343
 11
16.9420802678
 21
5.3458143359
  0
LINE
  5
649
100
AcDbEntity
  8
02___PRT_ALL_AXES
100
AcDbLine
 62
7
  6
CONTINUOUS
 10
17.1173836794
 20
5.6249327076
 11
17.0887311187
 21
5.6366683241
  0
LINE
  5
64A
100
AcDbEntity
  8
02___PRT_ALL_AXES
100
AcDbLine
 62
7
  6
CONTINUOUS
 10
17.1173904502
 20
5.673148734
 11
17.0887311187
 21
5.6848869708
  0
LINE
  5
64B
100
AcDbEntity
  8
02___PRT_ALL_AXES
100
AcDbLine
 62
7
  6
CONTINUOUS
 10
16.9067889367
 20
5.7472672952
 11
16.8044328865
 21
5.7979600615
  0
LINE
  5
64C
100
AcDbEntity
  8
02___PRT_ALL_AXES
100
AcDbLine
 62
9
  6
CONTINUOUS
 10
16.8721694318
 20
5.8201932741
 11
16.7718167729
 21
5.8700523682
  0
LWPOLYLINE
  5
64D
100
AcDbEntity
  8
02___PRT_ALL_AXES
100
AcDbPolyline
 62
7
  6
CONTINUOUS
 90
7
 70
0
 10
16.8044328865
 20
5.7979600615
 10
16.7151701579
 20
5.8579148169
 10
16.6408880758
 20
5.9258241758
 10
16.5835548861
 20
5.9991732118
 10
16.5435722438
 20
6.0754419901
 10
16.5200989839
 20
6.1532105239
 10
16.5123615106
 20
6.2316859691
  0
LWPOLYLINE
  5
64E
100
AcDbEntity
  8
02___PRT_ALL_AXES
100
AcDbPolyline
 62
7
  6
CONTINUOUS
 90
5
 70
0
 10
16.9420802678
 20
5.6219931013
 10
16.92015292
 20
5.6373758342
 10
16.8980726655
 20
5.6536497873
 10
16.8763714948
 20
5.6703800361
 10
16.8556102735
 20
5.6870364702
  0
LWPOLYLINE
  5
64F
100
AcDbEntity
  8
02___PRT_ALL_AXES
100
AcDbPolyline
 62
7
  6
CONTINUOUS
 90
5
 70
0
 10
17.0887311187
 20
5.5314465733
 10
17.1107016146
 20
5.5160327963
 10
17.1328010081
 20
5.4997428956
 10
17.1544929189
 20
5.4830178923
 10
17.175201113
 20
5.4664032044
  0
LINE
  5
650
100
AcDbEntity
  8
0
100
AcDbLine
 62
7
  6
CONTINUOUS
 10
16.9486717604
 20
5.3289956626
 11
16.9510139804
 21
5.3273411185
  0
LWPOLYLINE
  5
651
100
AcDbEntity
  8
02___PRT_ALL_AXES
100
AcDbPolyline
 62
7
  6
CONTINUOUS
 90
4
 70
0
 10
16.9420802678
 20
5.3808998679
 10
16.9134214992
 20
5.4011619143
 10
16.8845828915
 20
5.4228726857
 10
16.8556102735
 20
5.4459432368
  0
LWPOLYLINE
  5
652
100
AcDbEntity
  8
02___PRT_ALL_AXES
100
AcDbPolyline
 62
7
  6
CONTINUOUS
 90
4
 70
0
 10
16.9420802678
 20
5.4291185146
 10
16.9134214992
 20
5.449380561
 10
16.8845828915
 20
5.4710913323
 10
16.8556102735
 20
5.4941618835
  0
LWPOLYLINE
  5
653
100
AcDbEntity
  8
02___PRT_ALL_AXES
100
AcDbPolyline
 62
7
  6
CONTINUOUS
 90
4
 70
0
 10
16.9420802678
 20
5.4773371613
 10
16.9134285882
 20
5.4975940309
 10
16.8845906761
 20
5.5193039461
 10
16.8556102735
 20
5.5423805301
  0
LWPOLYLINE
  5
654
100
AcDbEntity
  8
02___PRT_ALL_AXES
100
AcDbPolyline
 62
7
  6
CONTINUOUS
 90
4
 70
0
 10
17.0887311187
 20
5.3867906333
 10
17.1173952353
 20
5.3665246814
 10
17.1462333873
 20
5.3448140241
 10
17.175201113
 20
5.3217472644
  0
LWPOLYLINE
  5
655
100
AcDbEntity
  8
02___PRT_ALL_AXES
100
AcDbPolyline
 62
7
  6
CONTINUOUS
 90
4
 70
0
 10
16.9420802678
 20
5.5255558079
 10
16.9134214992
 20
5.5458178544
 10
16.8845828915
 20
5.5675286257
 10
16.8556102735
 20
5.5905991768
  0
LWPOLYLINE
  5
656
100
AcDbEntity
  8
02___PRT_ALL_AXES
100
AcDbPolyline
 62
7
  6
CONTINUOUS
 90
4
 70
0
 10
17.0887311187
 20
5.4350092799
 10
17.1173952353
 20
5.4147433281
 10
17.1462333873
 20
5.3930326708
 10
17.175201113
 20
5.3699659111
  0
LWPOLYLINE
  5
657
100
AcDbEntity
  8
02___PRT_ALL_AXES
100
AcDbPolyline
 62
7
  6
CONTINUOUS
 90
4
 70
0
 10
16.9420802678
 20
5.5737744546
 10
16.9134214992
 20
5.594036501
 10
16.8845828915
 20
5.6157472724
 10
16.8556102735
 20
5.6388178235
  0
LWPOLYLINE
  5
658
100
AcDbEntity
  8
02___PRT_ALL_AXES
100
AcDbPolyline
 62
7
  6
CONTINUOUS
 90
4
 70
0
 10
17.0887311187
 20
5.4832279266
 10
17.1173952353
 20
5.4629619748
 10
17.1462333873
 20
5.4412513174
 10
17.175201113
 20
5.4181845577
  0
LWPOLYLINE
  5
659
100
AcDbEntity
  8
02___PRT_ALL_AXES
100
AcDbPolyline
 62
7
  6
CONTINUOUS
 90
4
 70
0
 10
16.9420802678
 20
5.670211748
 10
16.9134214992
 20
5.6904737944
 10
16.8845828915
 20
5.7121845657
 10
16.8556102735
 20
5.7352551169
  0
LWPOLYLINE
  5
65A
100
AcDbEntity
  8
02___PRT_ALL_AXES
100
AcDbPolyline
 62
7
  6
CONTINUOUS
 90
4
 70
0
 10
17.0887311187
 20
5.57966522
 10
17.1173952353
 20
5.5593992682
 10
17.1462333873
 20
5.5376886108
 10
17.175201113
 20
5.5146218511
  0
LWPOLYLINE
  5
65B
100
AcDbEntity
  8
02___PRT_ALL_AXES
100
AcDbPolyline
 62
7
  6
CONTINUOUS
 90
4
 70
0
 10
17.0887311187
 20
5.3385719866
 10
17.1175856818
 20
5.3181669309
 10
17.1469615858
 20
5.2960306298
 10
17.175201113
 20
5.2735286177
  0
LINE
  5
65C
100
AcDbEntity
  8
0
100
AcDbLine
 62
7
  6
CONTINUOUS
 10
16.9479263286
 20
5.3296744618
 11
16.9486717604
 21
5.3289956626
  0
LWPOLYLINE
  5
65D
100
AcDbEntity
  8
0
100
AcDbPolyline
 62
9
  6
CONTINUOUS
 90
14
 70
0
 10
17.9757680008
 20
12.7806018306
 10
18.0352849615
 20
12.8077889191
 10
18.0909781332
 20
12.8375549389
 10
18.1425122311
 20
12.8697207015
 10
18.1895789201
 20
12.9040937865
 10
18.2318962424
 20
12.9404686318
 10
18.2692090896
 20
12.9786263551
 10
18.301292701
 20
13.0183371829
 10
18.3279540065
 20
13.0593617304
 10
18.349034275
 20
13.1014555816
 10
18.3644079952
 20
13.1443706806
 10
18.3739810508
 20
13.1878517185
 10
18.377692917
 20
13.2316368137
 10
18.3776686423
 20
13.2443501451
  0
LWPOLYLINE
  5
65E
100
AcDbEntity
  8
02___PRT_ALL_AXES
100
AcDbPolyline
 62
7
  6
CONTINUOUS
 90
3
 70
0
 10
17.0518781104
 20
6.117747218
 10
16.928673542
 20
6.1508512677
 10
16.814135296
 20
6.1937513282
  0
LINE
  5
65F
100
AcDbEntity
  8
02___PRT_ALL_AXES
100
AcDbLine
 62
9
  6
CONTINUOUS
 10
16.9842724825
 20
6.1331296559
 11
16.9546929264
 21
6.1438600741
  0
LINE
  5
660
100
AcDbEntity
  8
02___PRT_ALL_AXES
100
AcDbLine
 62
7
  6
CONTINUOUS
 10
16.814135296
 20
6.1937513282
 11
16.710373967
 21
6.2458156004
  0
LWPOLYLINE
  5
661
100
AcDbEntity
  8
02___PRT_ALL_AXES
100
AcDbPolyline
 62
7
  6
CONTINUOUS
 90
7
 70
0
 10
16.710373967
 20
6.2458156004
 10
16.6224318521
 20
6.3039618654
 10
16.548352249
 20
6.3687921645
 10
16.4896799594
 20
6.4389726028
 10
16.4475223576
 20
6.5128619242
 10
16.4223041813
 20
6.5888333574
 10
16.4139363138
 20
6.6656537892
  0
LWPOLYLINE
  5
662
100
AcDbEntity
  8
02___PRT_ALL_AXES
100
AcDbPolyline
 62
9
  6
CONTINUOUS
 90
5
 70
0
 10
16.7022199386
 20
6.2638386771
 10
16.6102564458
 20
6.3251123521
 10
16.534332973
 20
6.3933184687
 10
16.4759951031
 20
6.4670685471
 10
16.436430427
 20
6.5448612484
  0
LWPOLYLINE
  5
663
100
AcDbEntity
  8
02___PRT_ALL_AXES
100
AcDbPolyline
 62
7
  6
CONTINUOUS
 90
3
 70
0
 10
16.9420802678
 20
5.7184303947
 10
16.9134214992
 20
5.7386924411
 10
16.8928839567
 20
5.7541538632
  0
LWPOLYLINE
  5
664
100
AcDbEntity
  8
02___PRT_ALL_AXES
100
AcDbPolyline
 62
7
  6
CONTINUOUS
 90
4
 70
0
 10
17.0887311187
 20
5.6278838667
 10
17.1173952353
 20
5.6076179148
 10
17.1462333873
 20
5.5859072575
 10
17.175201113
 20
5.5628404978
  0
LWPOLYLINE
  5
665
100
AcDbEntity
  8
02___PRT_ALL_AXES
100
AcDbPolyline
 62
7
  6
CONTINUOUS
 90
4
 70
0
 10
17.0887311187
 20
5.6761025133
 10
17.1173899809
 20
5.6558403986
 10
17.146227576
 20
5.6341304078
 10
17.175201113
 20
5.6110591445
  0
LINE
  5
666
100
AcDbEntity
  8
02___PRT_ALL_AXES
100
AcDbLine
 62
7
  6
CONTINUOUS
 10
17.1544331451
 20
5.6758151517
 11
17.175201113
 21
5.6592777911
  0
LINE
  5
667
100
AcDbEntity
  8
02___PRT_ALL_AXES
100
AcDbLine
 62
7
  6
CONTINUOUS
 10
16.9420802678
 20
5.5649899971
 11
16.9079127002
 21
5.5981837288
  0
LINE
  5
668
100
AcDbEntity
  8
02___PRT_ALL_AXES
100
AcDbLine
 62
7
  6
CONTINUOUS
 10
16.9420802678
 20
5.5167713505
 11
16.9106237039
 21
5.5479241382
  0
LINE
  5
669
100
AcDbEntity
  8
02___PRT_ALL_AXES
100
AcDbLine
 62
7
  6
CONTINUOUS
 10
16.9420802678
 20
5.6614272905
 11
16.9107683408
 21
5.6924711902
  0
LINE
  5
66A
100
AcDbEntity
  8
02___PRT_ALL_AXES
100
AcDbLine
 62
7
  6
CONTINUOUS
 10
16.9420802678
 20
5.4685527038
 11
16.9111187649
 21
5.4993329248
  0
LINE
  5
66B
100
AcDbEntity
  8
02___PRT_ALL_AXES
100
AcDbLine
 62
7
  6
CONTINUOUS
 10
16.9420802678
 20
5.4203340571
 11
16.9111526766
 21
5.4510886146
  0
LINE
  5
66C
100
AcDbEntity
  8
02___PRT_ALL_AXES
100
AcDbLine
 62
7
  6
CONTINUOUS
 10
16.9420802678
 20
5.6132086438
 11
16.9109599467
 21
5.6441513909
  0
LWPOLYLINE
  5
66D
100
AcDbEntity
  8
0
100
AcDbPolyline
 62
7
  6
CONTINUOUS
 90
4
 70
0
 10
16.9486723089
 20
5.3289953523
 10
16.9044174716
 20
5.3739799237
 10
16.8723231492
 20
5.422782313
 10
16.8670204388
 20
5.4368574578
  0
LWPOLYLINE
  5
66E
100
AcDbEntity
  8
02___PRT_ALL_AXES
100
AcDbPolyline
 62
7
  6
CONTINUOUS
 90
3
 70
0
 10
16.5458031228
 20
6.6354782719
 10
16.61733119
 20
6.5736747601
 10
16.7022199386
 20
6.5177902163
  0
LINE
  5
66F
100
AcDbEntity
  8
02___PRT_ALL_AXES
100
AcDbLine
 62
7
  6
CONTINUOUS
 10
16.9420802678
 20
5.7096459372
 11
16.9110329089
 21
5.7404906603
  0
LWPOLYLINE
  5
670
100
AcDbEntity
  8
AXIS
100
AcDbPolyline
 62
7
  6
CONTINUOUS
 90
7
 70
0
 10
18.0941624212
 20
12.615845079
 10
18.1861250303
 20
12.6771191961
 10
18.2620475194
 20
12.7453256778
 10
18.3203843256
 20
12.8190760366
 10
18.3599478797
 20
12.8968689281
 10
18.3799327819
 20
12.9771207132
 10
18.3824306747
 20
13.0176568413
  0
LINE
  5
671
100
AcDbEntity
  8
02___PRT_ALL_AXES
100
AcDbLine
 62
7
  6
CONTINUOUS
 10
16.4888596019
 20
6.7021432764
 11
16.5458031228
 21
6.6354782719
  0
LINE
  5
672
100
AcDbEntity
  8
02___PRT_ALL_AXES
100
AcDbLine
 62
7
  6
CONTINUOUS
 10
16.8274566257
 20
5.4952078291
 11
16.8556102735
 21
5.4459432368
  0
LINE
  5
673
100
AcDbEntity
  8
02___PRT_ALL_AXES
100
AcDbLine
 62
7
  6
CONTINUOUS
 10
16.8274566257
 20
5.5434264758
 11
16.8556102735
 21
5.4941618835
  0
LINE
  5
674
100
AcDbEntity
  8
02___PRT_ALL_AXES
100
AcDbLine
 62
7
  6
CONTINUOUS
 10
16.8274566257
 20
5.5494538066
 11
16.8556102735
 21
5.5001892143
  0
LINE
  5
675
100
AcDbEntity
  8
02___PRT_ALL_AXES
100
AcDbLine
 62
7
  6
CONTINUOUS
 10
16.8274566257
 20
5.5916451224
 11
16.8556102735
 21
5.5423805301
  0
LINE
  5
676
100
AcDbEntity
  8
02___PRT_ALL_AXES
100
AcDbLine
 62
7
  6
CONTINUOUS
 10
16.8274566257
 20
5.6880824158
 11
16.8556102735
 21
5.6388178235
  0
LINE
  5
677
100
AcDbEntity
  8
02___PRT_ALL_AXES
100
AcDbLine
 62
7
  6
CONTINUOUS
 10
16.8274566257
 20
5.7363010625
 11
16.8556102735
 21
5.6870364702
  0
LINE
  5
678
100
AcDbEntity
  8
02___PRT_ALL_AXES
100
AcDbLine
 62
7
  6
CONTINUOUS
 10
16.8274566257
 20
5.7845197092
 11
16.8556102735
 21
5.7352551169
  0
LINE
  5
679
100
AcDbEntity
  8
02___PRT_ALL_AXES
100
AcDbLine
 62
7
  6
CONTINUOUS
 10
16.8306367085
 20
5.7849823799
 11
16.8556102735
 21
5.7412824477
  0
LINE
  5
67A
100
AcDbEntity
  8
02___PRT_ALL_AXES
100
AcDbLine
 62
7
  6
CONTINUOUS
 10
16.826624019
 20
5.6418679349
 11
16.8556102735
 21
5.5905991768
  0
LWPOLYLINE
  5
67B
100
AcDbEntity
  8
0
100
AcDbPolyline
 62
7
  6
CONTINUOUS
 90
11
 70
0
 10
18.0941624212
 20
11.7511240152
 10
17.9880317857
 20
11.698029627
 10
17.8698936375
 20
11.6541958161
 10
17.7421529284
 20
11.6205149128
 10
17.6074100912
 20
11.5976725629
 10
17.4684081012
 20
11.586133771
 10
17.3279766382
 20
11.5861334334
 10
17.1889744818
 20
11.5976715571
 10
17.0542313151
 20
11.6205132592
 10
16.9264901203
 20
11.6541935485
 10
16.8083513398
 20
11.6980267913
  0
LWPOLYLINE
  5
67C
100
AcDbEntity
  8
AXIS
100
AcDbPolyline
 62
7
  6
CONTINUOUS
 90
12
 70
0
 10
16.7022199386
 20
7.3825112801
 10
16.8083513398
 20
7.3294174021
 10
16.9264901203
 20
7.2855841592
 10
17.0542313151
 20
7.2519038699
 10
17.1889744818
 20
7.2290621678
 10
17.3279766382
 20
7.2175240441
 10
17.4684081012
 20
7.2175243817
 10
17.6074100912
 20
7.2290631736
 10
17.7421529284
 20
7.2519055235
 10
17.8698936375
 20
7.2855864269
 10
17.9880317857
 20
7.3294202377
 10
18.0941624212
 20
7.3825146259
  0
LWPOLYLINE
  5
67D
100
AcDbEntity
  8
0
100
AcDbPolyline
 62
7
  6
CONTINUOUS
 90
7
 70
0
 10
16.7055725789
 20
7.3844469163
 10
16.6140520955
 20
7.4454254219
 10
16.5384943636
 20
7.5133029739
 10
16.4804375207
 20
7.5866977811
 10
16.4410634368
 20
7.664115737
 10
16.4211736546
 20
7.7439808351
 10
16.4187057828
 20
7.7808309262
  0
LINE
  5
67E
100
AcDbEntity
  8
02___PRT_ALL_AXES
100
AcDbLine
 62
7
  6
CONTINUOUS
 10
16.4474749469
 20
6.7725291168
 11
16.4888596019
 21
6.7021432764
  0
LWPOLYLINE
  5
67F
100
AcDbEntity
  8
AXIS
100
AcDbPolyline
 62
7
  6
CONTINUOUS
 90
3
 70
0
 10
16.4181524351
 20
11.756721664
 10
16.4164437827
 20
11.7498603641
 10
16.4139458899
 20
11.7093242361
  0
LINE
  5
680
100
AcDbEntity
  8
0
100
AcDbLine
 62
7
  6
CONTINUOUS
 10
18.1861250303
 20
11.8123981323
 11
18.0941624212
 21
11.7511240152
  0
LWPOLYLINE
  5
681
100
AcDbEntity
  8
AXIS
100
AcDbPolyline
 62
7
  6
CONTINUOUS
 90
6
 70
0
 10
18.0941624212
 20
11.7511240152
 10
18.1861250303
 20
11.8123981323
 10
18.2620475194
 20
11.8806046139
 10
18.3203843256
 20
11.9543549728
 10
18.3599478797
 20
12.0321478642
 10
18.3799327819
 20
12.1123996494
  0
LINE
  5
682
100
AcDbEntity
  8
0
100
AcDbLine
 62
7
  6
CONTINUOUS
 10
16.8083513398
 20
7.7730289515
 11
16.7022199386
 21
7.8261228296
  0
LWPOLYLINE
  5
683
100
AcDbEntity
  8
0
100
AcDbPolyline
 62
9
  6
CONTINUOUS
 90
4
 70
0
 10
16.8694450989
 20
5.4349267298
 10
16.8698840481
 20
5.4337514676
 10
16.9001157717
 20
5.3881917237
 10
16.9420802678
 20
5.3458143359
  0
LINE
  5
684
100
AcDbEntity
  8
02___PRT_ALL_AXES
100
AcDbLine
 62
7
  6
CONTINUOUS
 10
16.4223572607
 20
6.8454314721
 11
16.4474749469
 21
6.7725291168
  0
LWPOLYLINE
  5
685
100
AcDbEntity
  8
02___PRT_ALL_AXES
100
AcDbPolyline
 62
9
  6
CONTINUOUS
 90
3
 70
0
 10
16.436430427
 20
6.5448612484
 10
16.4164443673
 20
6.6251129374
 10
16.4139363138
 20
6.6656537892
  0
LWPOLYLINE
  5
686
100
AcDbEntity
  8
AXIS
100
AcDbPolyline
 62
7
  6
CONTINUOUS
 90
3
 70
0
 10
16.4181524351
 20
10.4483890508
 10
16.4164437827
 20
10.4415277509
 10
16.4139458899
 20
10.4009916228
  0
LINE
  5
687
100
AcDbEntity
  8
0
100
AcDbLine
 62
7
  6
CONTINUOUS
 10
18.2620475194
 20
11.8806046139
 11
18.1861250303
 21
11.8123981323
  0
LWPOLYLINE
  5
688
100
AcDbEntity
  8
AXIS
100
AcDbPolyline
 62
7
  6
CONTINUOUS
 90
6
 70
0
 10
18.0941624212
 20
11.3075124658
 10
18.1861250303
 20
11.3687865829
 10
18.2620475194
 20
11.4369930645
 10
18.3203843256
 20
11.5107434233
 10
18.3599478797
 20
11.5885363148
 10
18.3799327819
 20
11.6687880999
  0
LINE
  5
689
100
AcDbEntity
  8
0
100
AcDbLine
 62
7
  6
CONTINUOUS
 10
16.7022199386
 20
7.8261228296
 11
16.6102564458
 21
7.8873965046
  0
LINE
  5
68A
100
AcDbEntity
  8
0
100
AcDbLine
 62
7
  6
CONTINUOUS
 10
16.6102564458
 20
7.8873965046
 11
16.534332973
 21
7.9556026212
  0
LINE
  5
68B
100
AcDbEntity
  8
0
100
AcDbLine
 62
7
  6
CONTINUOUS
 10
16.534332973
 20
7.9556026212
 11
16.4759951031
 21
8.0293526996
  0
LINE
  5
68C
100
AcDbEntity
  8
0
100
AcDbLine
 62
7
  6
CONTINUOUS
 10
16.4759951031
 20
8.0293526996
 11
16.436430427
 21
8.1071454009
  0
LINE
  5
68D
100
AcDbEntity
  8
02___PRT_ALL_AXES
100
AcDbLine
 62
7
  6
CONTINUOUS
 10
16.8132905876
 20
5.5946094538
 11
16.8274566257
 21
5.5434264758
  0
LINE
  5
68E
100
AcDbEntity
  8
02___PRT_ALL_AXES
100
AcDbLine
 62
7
  6
CONTINUOUS
 10
16.8132905876
 20
5.6006367846
 11
16.8274566257
 21
5.5494538066
  0
LINE
  5
68F
100
AcDbEntity
  8
02___PRT_ALL_AXES
100
AcDbLine
 62
7
  6
CONTINUOUS
 10
16.8132905876
 20
5.6428281005
 11
16.8274566257
 21
5.5916451224
  0
LWPOLYLINE
  5
690
100
AcDbEntity
  8
02___PRT_ALL_AXES
100
AcDbPolyline
 62
7
  6
CONTINUOUS
 90
3
 70
0
 10
16.8132905876
 20
5.6488554313
 10
16.8274566257
 20
5.5976724533
 10
16.8556102735
 20
5.548407861
  0
LINE
  5
691
100
AcDbEntity
  8
02___PRT_ALL_AXES
100
AcDbLine
 62
7
  6
CONTINUOUS
 10
16.8132905876
 20
5.7392653938
 11
16.8274566257
 21
5.6880824158
  0
LWPOLYLINE
  5
692
100
AcDbEntity
  8
02___PRT_ALL_AXES
100
AcDbPolyline
 62
7
  6
CONTINUOUS
 90
3
 70
0
 10
16.8132905876
 20
5.7452927247
 10
16.8274566257
 20
5.6941097466
 10
16.8556102735
 20
5.6448451543
  0
LINE
  5
693
100
AcDbEntity
  8
02___PRT_ALL_AXES
100
AcDbLine
 62
7
  6
CONTINUOUS
 10
16.8132905876
 20
5.7874840405
 11
16.8274566257
 21
5.7363010625
  0
LWPOLYLINE
  5
694
100
AcDbEntity
  8
02___PRT_ALL_AXES
100
AcDbPolyline
 62
7
  6
CONTINUOUS
 90
3
 70
0
 10
16.8132905876
 20
5.7935113714
 10
16.8274566257
 20
5.7423283933
 10
16.8556102735
 20
5.693063801
  0
LINE
  5
695
100
AcDbEntity
  8
02___PRT_ALL_AXES
100
AcDbLine
 62
7
  6
CONTINUOUS
 10
16.8268030802
 20
5.7868810193
 11
16.8274566257
 21
5.7845197092
  0
LINE
  5
696
100
AcDbEntity
  8
02___PRT_ALL_AXES
100
AcDbLine
 62
7
  6
CONTINUOUS
 10
16.8127778136
 20
5.6951557569
 11
16.826624019
 21
5.6418679349
  0
LWPOLYLINE
  5
697
100
AcDbEntity
  8
02___PRT_ALL_AXES
100
AcDbPolyline
 62
7
  6
CONTINUOUS
 90
3
 70
0
 10
16.8127778136
 20
5.7011830877
 10
16.826624019
 20
5.6478952657
 10
16.8556102735
 20
5.5966265077
  0
LINE
  5
698
100
AcDbEntity
  8
02___PRT_ALL_AXES
100
AcDbLine
 62
7
  6
CONTINUOUS
 10
16.4139363138
 20
6.9196053216
 11
16.4223572607
 21
6.8454314721
  0
LINE
  5
699
100
AcDbEntity
  8
0
100
AcDbLine
 62
7
  6
CONTINUOUS
 10
16.4164443673
 20
8.1873970899
 11
16.4139645497
 21
8.2244255557
  0
LINE
  5
69A
100
AcDbEntity
  8
0
100
AcDbLine
 62
7
  6
CONTINUOUS
 10
16.4164443673
 20
9.4957297032
 11
16.4139645497
 21
9.532758169
  0
LWPOLYLINE
  5
69B
100
AcDbEntity
  8
AXIS
100
AcDbPolyline
 62
7
  6
CONTINUOUS
 90
18
 70
0
 10
16.4139458899
 20
6.9196053324
 10
16.4164443673
 20
6.8790644766
 10
16.436430427
 20
6.7988127876
 10
16.4759951031
 20
6.7210200863
 10
16.534332973
 20
6.6472700079
 10
16.6102564458
 20
6.5790638913
 10
16.7022199386
 20
6.5177902163
 10
16.8083513398
 20
6.4646963383
 10
16.9264901203
 20
6.4208630954
 10
17.0542313151
 20
6.3871828061
 10
17.1889744818
 20
6.364341104
 10
17.3279766382
 20
6.3528029803
 10
17.4684081012
 20
6.3528033179
 10
17.6074100912
 20
6.3643421098
 10
17.7421529284
 20
6.3871844597
 10
17.8698936375
 20
6.420865363
 10
17.9880317857
 20
6.4646991739
 10
18.0941624212
 20
6.5177935621
  0
LWPOLYLINE
  5
69C
100
AcDbEntity
  8
AXIS
100
AcDbPolyline
 62
7
  6
CONTINUOUS
 90
7
 70
0
 10
16.4139458899
 20
7.7843263962
 10
16.4164443673
 20
7.7437855404
 10
16.436430427
 20
7.6635338514
 10
16.4759951031
 20
7.5857411501
 10
16.534332973
 20
7.5119910717
 10
16.6102564458
 20
7.4437849551
 10
16.7022199386
 20
7.3825112801
  0
LWPOLYLINE
  5
69D
100
AcDbEntity
  8
AXIS
100
AcDbPolyline
 62
7
  6
CONTINUOUS
 90
18
 70
0
 10
16.4139458899
 20
8.2279379457
 10
16.4164443673
 20
8.1873970899
 10
16.436430427
 20
8.1071454009
 10
16.4759951031
 20
8.0293526996
 10
16.534332973
 20
7.9556026212
 10
16.6102564458
 20
7.8873965046
 10
16.7022199386
 20
7.8261228296
 10
16.8083513398
 20
7.7730289515
 10
16.9264901203
 20
7.7291957087
 10
17.0542313151
 20
7.6955154194
 10
17.1889744818
 20
7.6726737173
 10
17.3279766382
 20
7.6611355936
 10
17.4684081012
 20
7.6611359311
 10
17.6074100912
 20
7.6726747231
 10
17.7421529284
 20
7.695517073
 10
17.8698936375
 20
7.7291979763
 10
17.9880317857
 20
7.7730317871
 10
18.0941624212
 20
7.8261261754
  0
LWPOLYLINE
  5
69E
100
AcDbEntity
  8
AXIS
100
AcDbPolyline
 62
7
  6
CONTINUOUS
 90
7
 70
0
 10
16.4139458899
 20
9.0926590095
 10
16.4164443673
 20
9.0521181537
 10
16.436430427
 20
8.9718664647
 10
16.4759951031
 20
8.8940737634
 10
16.534332973
 20
8.820323685
 10
16.6102564458
 20
8.7521175684
 10
16.7022199386
 20
8.6908438934
  0
LWPOLYLINE
  5
69F
100
AcDbEntity
  8
AXIS
100
AcDbPolyline
 62
7
  6
CONTINUOUS
 90
18
 70
0
 10
16.4139458899
 20
9.536270559
 10
16.4164443673
 20
9.4957297032
 10
16.436430427
 20
9.4154780141
 10
16.4759951031
 20
9.3376853129
 10
16.534332973
 20
9.2639352345
 10
16.6102564458
 20
9.1957291179
 10
16.7022199386
 20
9.1344554429
 10
16.8083513398
 20
9.0813615648
 10
16.9264901203
 20
9.0375283219
 10
17.0542313151
 20
9.0038480327
 10
17.1889744818
 20
8.9810063306
 10
17.3279766382
 20
8.9694682069
 10
17.4684081012
 20
8.9694685444
 10
17.6074100912
 20
8.9810073364
 10
17.7421529284
 20
9.0038496862
 10
17.8698936375
 20
9.0375305896
 10
17.9880317857
 20
9.0813644004
 10
18.0941624212
 20
9.1344587887
  0
LWPOLYLINE
  5
6A0
100
AcDbEntity
  8
AXIS
100
AcDbPolyline
 62
7
  6
CONTINUOUS
 90
7
 70
0
 10
16.4139458899
 20
10.4009916228
 10
16.4164443673
 20
10.360450767
 10
16.436430427
 20
10.2801990779
 10
16.4759951031
 20
10.2024063767
 10
16.534332973
 20
10.1286562983
 10
16.6102564458
 20
10.0604501817
 10
16.7022199386
 20
9.9991765067
  0
LWPOLYLINE
  5
6A1
100
AcDbEntity
  8
02___PRT_ALL_AXES
100
AcDbPolyline
 62
9
  6
CONTINUOUS
 90
7
 70
0
 10
16.5123615106
 20
6.2316859691
 10
16.512981103
 20
6.2125610493
 10
16.527805281
 20
6.1366040307
 10
16.5620723771
 20
6.0627709855
 10
16.6150169208
 20
5.9927112219
 10
16.6854562186
 20
5.9279897593
 10
16.7718167729
 20
5.8700523682
  0
LINE
  5
6A2
100
AcDbEntity
  8
0
100
AcDbLine
 62
7
  6
CONTINUOUS
 10
16.4139550529
 20
8.2244314441
 11
16.4186963317
 21
7.7808367862
  0
LINE
  5
6A3
100
AcDbEntity
  8
0
100
AcDbLine
 62
7
  6
CONTINUOUS
 10
16.4139550529
 20
9.5327640574
 11
16.4186963317
 21
9.0891693995
  0
LINE
  5
6A4
100
AcDbEntity
  8
0
100
AcDbLine
 62
7
  6
CONTINUOUS
 10
16.4139550529
 20
10.8410966706
 11
16.4186963317
 21
10.3975020128
  0
LINE
  5
6A5
100
AcDbEntity
  8
0
100
AcDbLine
 62
7
  6
CONTINUOUS
 10
16.4139550529
 20
12.1494292839
 11
16.4186963317
 21
11.7058346261
  0
LINE
  5
6A6
100
AcDbEntity
  8
02___PRT_ALL_AXES
100
AcDbLine
 62
7
  6
CONTINUOUS
 10
16.4139363138
 20
6.9196053284
 11
16.4139363138
 21
6.6656537892
  0
LINE
  5
6A7
100
AcDbEntity
  8
AXIS
100
AcDbLine
 62
7
  6
CONTINUOUS
 10
16.4139363138
 20
6.9196053284
 11
16.4139363138
 21
7.7843263922
  0
LINE
  5
6A8
100
AcDbEntity
  8
AXIS
100
AcDbLine
 62
7
  6
CONTINUOUS
 10
16.4139363138
 20
8.2279379417
 11
16.4139363138
 21
9.0926590055
  0
LINE
  5
6A9
100
AcDbEntity
  8
AXIS
100
AcDbLine
 62
7
  6
CONTINUOUS
 10
16.4139363138
 20
9.5362705549
 11
16.4139363138
 21
10.4009916187
  0
LINE
  5
6AA
100
AcDbEntity
  8
AXIS
100
AcDbLine
 62
7
  6
CONTINUOUS
 10
16.4139363138
 20
10.8446031682
 11
16.4139363138
 21
11.709324232
  0
LINE
  5
6AB
100
AcDbEntity
  8
AXIS
100
AcDbLine
 62
7
  6
CONTINUOUS
 10
16.4139363138
 20
12.1529357815
 11
16.4139363138
 21
13.0176568453
  0
LINE
  5
6AC
100
AcDbEntity
  8
0
100
AcDbLine
 62
7
  6
CONTINUOUS
 10
16.4140112837
 20
13.0246703746
 11
16.4187079223
 21
13.2443501452
  0
LWPOLYLINE
  5
6AD
100
AcDbEntity
  8
AXIS
100
AcDbPolyline
 62
7
  6
CONTINUOUS
 90
3
 70
0
 10
16.4181524351
 20
9.1400564375
 10
16.4164437827
 20
9.1331951376
 10
16.4139458899
 20
9.0926590095
  0
LINE
  5
6AE
100
AcDbEntity
  8
0
100
AcDbLine
 62
9
  6
CONTINUOUS
 10
18.2532294683
 20
13.1368414705
 11
18.2726151734
 21
13.1755526322
  0
LINE
  5
6AF
100
AcDbEntity
  8
0
100
AcDbLine
 62
7
  6
CONTINUOUS
 10
18.3203843256
 20
11.9543549728
 11
18.2620475194
 21
11.8806046139
  0
LINE
  5
6B0
100
AcDbEntity
  8
0
100
AcDbLine
 62
7
  6
CONTINUOUS
 10
16.436430427
 20
8.1071454009
 11
16.4164443673
 21
8.1873970899
  0
LWPOLYLINE
  5
6B1
100
AcDbEntity
  8
0
100
AcDbPolyline
 62
7
  6
CONTINUOUS
 90
3
 70
0
 10
16.9420802678
 20
5.3458143359
 10
16.9435800634
 20
5.3365710261
 10
16.9479263286
 20
5.3296744618
  0
LWPOLYLINE
  5
6B2
100
AcDbEntity
  8
02___PRT_ALL_AXES
100
AcDbPolyline
 62
7
  6
CONTINUOUS
 90
3
 70
0
 10
16.8115741091
 20
5.5716932107
 10
16.8132905876
 20
5.5463908071
 10
16.8274566257
 20
5.4952078291
  0
LWPOLYLINE
  5
6B3
100
AcDbEntity
  8
02___PRT_ALL_AXES
100
AcDbPolyline
 62
7
  6
CONTINUOUS
 90
4
 70
0
 10
16.8115741091
 20
5.5777205415
 10
16.8132905876
 20
5.552418138
 10
16.8274566257
 20
5.5012351599
 10
16.8556102735
 20
5.4519705676
  0
LINE
  5
6B4
100
AcDbEntity
  8
02___PRT_ALL_AXES
100
AcDbLine
 62
7
  6
CONTINUOUS
 10
16.8115741091
 20
5.6199118574
 11
16.8132905876
 21
5.5946094538
  0
LINE
  5
6B5
100
AcDbEntity
  8
02___PRT_ALL_AXES
100
AcDbLine
 62
7
  6
CONTINUOUS
 10
16.8115741091
 20
5.6259391882
 11
16.8132905876
 21
5.6006367846
  0
LINE
  5
6B6
100
AcDbEntity
  8
02___PRT_ALL_AXES
100
AcDbLine
 62
7
  6
CONTINUOUS
 10
16.8115741091
 20
5.668130504
 11
16.8132905876
 21
5.6428281005
  0
LINE
  5
6B7
100
AcDbEntity
  8
02___PRT_ALL_AXES
100
AcDbLine
 62
7
  6
CONTINUOUS
 10
16.8115741091
 20
5.6741578349
 11
16.8132905876
 21
5.6488554313
  0
LINE
  5
6B8
100
AcDbEntity
  8
02___PRT_ALL_AXES
100
AcDbLine
 62
7
  6
CONTINUOUS
 10
16.8115741091
 20
5.7645677974
 11
16.8132905876
 21
5.7392653938
  0
LINE
  5
6B9
100
AcDbEntity
  8
02___PRT_ALL_AXES
100
AcDbLine
 62
7
  6
CONTINUOUS
 10
16.8115741091
 20
5.7705951282
 11
16.8132905876
 21
5.7452927247
  0
LINE
  5
6BA
100
AcDbEntity
  8
02___PRT_ALL_AXES
100
AcDbLine
 62
7
  6
CONTINUOUS
 10
16.8128631465
 20
5.7937848984
 11
16.8132905876
 21
5.7874840405
  0
LINE
  5
6BB
100
AcDbEntity
  8
02___PRT_ALL_AXES
100
AcDbLine
 62
7
  6
CONTINUOUS
 10
16.8132862471
 20
5.793575354
 11
16.8132905876
 21
5.7935113714
  0
LINE
  5
6BC
100
AcDbEntity
  8
0
100
AcDbLine
 62
7
  6
CONTINUOUS
 10
16.4164443673
 20
10.8040623165
 11
16.4139645497
 21
10.8410907822
  0
LINE
  5
6BD
100
AcDbEntity
  8
0
100
AcDbLine
 62
7
  6
CONTINUOUS
 10
16.4164443673
 20
12.1123949297
 11
16.4139645497
 21
12.1494233955
  0
LWPOLYLINE
  5
6BE
100
AcDbEntity
  8
AXIS
100
AcDbPolyline
 62
7
  6
CONTINUOUS
 90
18
 70
0
 10
16.4139458899
 20
10.8446031722
 10
16.4164443673
 20
10.8040623165
 10
16.436430427
 20
10.7238106274
 10
16.4759951031
 20
10.6460179262
 10
16.534332973
 20
10.5722678478
 10
16.6102564458
 20
10.5040617311
 10
16.7022199386
 20
10.4427880561
 10
16.8083513398
 20
10.3896941781
 10
16.9264901203
 20
10.3458609352
 10
17.0542313151
 20
10.3121806459
 10
17.1889744818
 20
10.2893389439
 10
17.3279766382
 20
10.2778008201
 10
17.4684081012
 20
10.2778011577
 10
17.6074100912
 20
10.2893399497
 10
17.7421529284
 20
10.3121822995
 10
17.8698936375
 20
10.3458632029
 10
17.9880317857
 20
10.3896970137
 10
18.0941624212
 20
10.442791402
  0
LWPOLYLINE
  5
6BF
100
AcDbEntity
  8
AXIS
100
AcDbPolyline
 62
7
  6
CONTINUOUS
 90
7
 70
0
 10
16.4139458899
 20
11.7093242361
 10
16.4164443673
 20
11.6687833803
 10
16.436430427
 20
11.5885316912
 10
16.4759951031
 20
11.51073899
 10
16.534332973
 20
11.4369889116
 10
16.6102564458
 20
11.3687827949
 10
16.7022199386
 20
11.3075091199
  0
LWPOLYLINE
  5
6C0
100
AcDbEntity
  8
AXIS
100
AcDbPolyline
 62
7
  6
CONTINUOUS
 90
18
 70
0
 10
16.4139458899
 20
12.1529357855
 10
16.4164443673
 20
12.1123949297
 10
16.436430427
 20
12.0321432407
 10
16.4759951031
 20
11.9543505394
 10
16.534332973
 20
11.880600461
 10
16.6102564458
 20
11.8123943444
 10
16.7022199386
 20
11.7511206694
 10
16.8083513398
 20
11.6980267913
 10
16.9264901203
 20
11.6541935485
 10
17.0542313151
 20
11.6205132592
 10
17.1889744818
 20
11.5976715571
 10
17.3279766382
 20
11.5861334334
 10
17.4684081012
 20
11.586133771
 10
17.6074100912
 20
11.5976725629
 10
17.7421529284
 20
11.6205149128
 10
17.8698936375
 20
11.6541958161
 10
17.9880317857
 20
11.698029627
 10
18.0941624212
 20
11.7511240152
  0
LWPOLYLINE
  5
6C1
100
AcDbEntity
  8
AXIS
100
AcDbPolyline
 62
7
  6
CONTINUOUS
 90
7
 70
0
 10
16.4139458899
 20
13.0176568493
 10
16.4164443673
 20
12.9771159935
 10
16.436430427
 20
12.8968643045
 10
16.4759951031
 20
12.8190716032
 10
16.534332973
 20
12.7453215248
 10
16.6102564458
 20
12.6771154082
 10
16.7022199386
 20
12.6158417332
  0
LINE
  5
6C2
100
AcDbEntity
  8
02___PRT_ALL_AXES
100
AcDbLine
 62
7
  6
CONTINUOUS
 10
16.8115741091
 20
5.7163491507
 11
16.8127778136
 21
5.6951557569
  0
LINE
  5
6C3
100
AcDbEntity
  8
02___PRT_ALL_AXES
100
AcDbLine
 62
7
  6
CONTINUOUS
 10
16.8115741091
 20
5.7223764816
 11
16.8127778136
 21
5.7011830877
  0
LWPOLYLINE
  5
6C4
100
AcDbEntity
  8
0
100
AcDbPolyline
 62
7
  6
CONTINUOUS
 90
7
 70
0
 10
16.4140205425
 20
13.0246818979
 10
16.4164443673
 20
12.9771159935
 10
16.436430427
 20
12.8968643045
 10
16.4759951031
 20
12.8190716032
 10
16.534332973
 20
12.7453215248
 10
16.6102564458
 20
12.6771154082
 10
16.7022199386
 20
12.6158417332
  0
LWPOLYLINE
  5
6C5
100
AcDbEntity
  8
0
100
AcDbPolyline
 62
9
  6
CONTINUOUS
 90
11
 70
0
 10
16.4187079223
 20
13.2443501451
 10
16.420857166
 20
13.1992837441
 10
16.4289022817
 20
13.1556958948
 10
16.4427819389
 20
13.1125698099
 10
16.4624245976
 20
13.0701657478
 10
16.4876307781
 20
13.0288760838
 10
16.5182601533
 20
12.9888751932
 10
16.554620027
 20
12.9499021431
 10
16.5973269361
 20
12.911722039
 10
16.6472531037
 20
12.8742296211
 10
16.7055412027
 20
12.8374724947
  0
LINE
  5
6C6
100
AcDbEntity
  8
02___PRT_ALL_AXES
100
AcDbLine
 62
7
  6
CONTINUOUS
 10
16.5123615106
 20
6.411842228
 11
16.5123615106
 21
6.2316859691
  0
LWPOLYLINE
  5
6C7
100
AcDbEntity
  8
AXIS
100
AcDbPolyline
 62
7
  6
CONTINUOUS
 90
3
 70
0
 10
16.4181524351
 20
7.8317238242
 10
16.4164437827
 20
7.8248625243
 10
16.4139458899
 20
7.7843263962
  0
LINE
  5
6C8
100
AcDbEntity
  8
0
100
AcDbLine
 62
7
  6
CONTINUOUS
 10
18.1861250303
 20
10.5040655191
 11
18.0941624212
 21
10.442791402
  0
LWPOLYLINE
  5
6C9
100
AcDbEntity
  8
AXIS
100
AcDbPolyline
 62
7
  6
CONTINUOUS
 90
6
 70
0
 10
18.0941624212
 20
10.442791402
 10
18.1861250303
 20
10.5040655191
 10
18.2620475194
 20
10.5722720007
 10
18.3203843256
 20
10.6460223595
 10
18.3599478797
 20
10.723815251
 10
18.3799327819
 20
10.8040670361
  0
LWPOLYLINE
  5
6CA
100
AcDbEntity
  8
0
100
AcDbPolyline
 62
7
  6
CONTINUOUS
 90
8
 70
0
 10
18.0941624212
 20
10.442791402
 10
17.9880317857
 20
10.3896970137
 10
17.8698936375
 20
10.3458632029
 10
17.7421529284
 20
10.3121822995
 10
17.6074100912
 20
10.2893399497
 10
17.4684081012
 20
10.2778011577
 10
17.3279766382
 20
10.2778008201
 10
17.1889744818
 20
10.2893389439
  0
LWPOLYLINE
  5
6CB
100
AcDbEntity
  8
AXIS
100
AcDbPolyline
 62
7
  6
CONTINUOUS
 90
12
 70
0
 10
16.7022199386
 20
8.6908438934
 10
16.8083513398
 20
8.6377500153
 10
16.9264901203
 20
8.5939167725
 10
17.0542313151
 20
8.5602364832
 10
17.1889744818
 20
8.5373947811
 10
17.3279766382
 20
8.5258566574
 10
17.4684081012
 20
8.5258569949
 10
17.6074100912
 20
8.5373957869
 10
17.7421529284
 20
8.5602381368
 10
17.8698936375
 20
8.5939190401
 10
17.9880317857
 20
8.6377528509
 10
18.0941624212
 20
8.6908472392
  0
LWPOLYLINE
  5
6CC
100
AcDbEntity
  8
0
100
AcDbPolyline
 62
7
  6
CONTINUOUS
 90
7
 70
0
 10
16.7055725789
 20
8.6927795296
 10
16.6140520955
 20
8.7537580352
 10
16.5384943636
 20
8.8216355872
 10
16.4804375207
 20
8.8950303944
 10
16.4410634368
 20
8.9724483502
 10
16.4211736546
 20
9.0523134484
 10
16.4187057828
 20
9.0891635395
  0
LINE
  5
6CD
100
AcDbEntity
  8
0
100
AcDbLine
 62
7
  6
CONTINUOUS
 10
16.436430427
 20
9.4154780141
 11
16.4164443673
 21
9.4957297032
  0
LWPOLYLINE
  5
6CE
100
AcDbEntity
  8
0
100
AcDbPolyline
 62
7
  6
CONTINUOUS
 90
4
 70
0
 10
17.0887311187
 20
5.261147343
 10
17.0899706737
 20
5.2520542799
 10
17.0935603887
 20
5.2455945002
 10
17.0961076473
 20
5.243573146
  0
LWPOLYLINE
  5
6CF
100
AcDbEntity
  8
02___PRT_ALL_AXES
100
AcDbPolyline
 62
7
  6
CONTINUOUS
 90
7
 70
0
 10
17.2906893282
 20
4.6308268997
 10
17.2909622119
 20
4.6263990274
 10
17.2931450893
 20
4.617633938
 10
17.2974663433
 20
4.6091374191
 10
17.3038380054
 20
4.6010824356
 10
17.3121303671
 20
4.5936329635
 10
17.3221746198
 20
4.5869406527
  0
LINE
  5
6D0
100
AcDbEntity
  8
02___PRT_ALL_AXES
100
AcDbLine
 62
7
  6
CONTINUOUS
 10
16.8556102735
 20
5.4459432368
 11
16.8556102735
 21
5.4519705676
  0
LINE
  5
6D1
100
AcDbEntity
  8
02___PRT_ALL_AXES
100
AcDbLine
 62
7
  6
CONTINUOUS
 10
16.8556102735
 20
5.4941618835
 11
16.8556102735
 21
5.5001892143
  0
LINE
  5
6D2
100
AcDbEntity
  8
02___PRT_ALL_AXES
100
AcDbLine
 62
7
  6
CONTINUOUS
 10
16.8556102735
 20
5.5423805301
 11
16.8556102735
 21
5.548407861
  0
LINE
  5
6D3
100
AcDbEntity
  8
02___PRT_ALL_AXES
100
AcDbLine
 62
7
  6
CONTINUOUS
 10
16.8556102735
 20
5.5905991768
 11
16.8556102735
 21
5.5966265077
  0
LINE
  5
6D4
100
AcDbEntity
  8
02___PRT_ALL_AXES
100
AcDbLine
 62
7
  6
CONTINUOUS
 10
16.8556102735
 20
5.6388178235
 11
16.8556102735
 21
5.6448451543
  0
LINE
  5
6D5
100
AcDbEntity
  8
02___PRT_ALL_AXES
100
AcDbLine
 62
7
  6
CONTINUOUS
 10
16.8556102735
 20
5.6870364702
 11
16.8556102735
 21
5.693063801
  0
LINE
  5
6D6
100
AcDbEntity
  8
02___PRT_ALL_AXES
100
AcDbLine
 62
7
  6
CONTINUOUS
 10
16.8556102735
 20
5.7352551169
 11
16.8556102735
 21
5.7412824477
  0
LINE
  5
6D7
100
AcDbEntity
  8
02___PRT_ALL_AXES
100
AcDbLine
 62
7
  6
CONTINUOUS
 10
16.9420802678
 20
5.7184303947
 11
16.9420802678
 21
5.7096459372
  0
LINE
  5
6D8
100
AcDbEntity
  8
02___PRT_ALL_AXES
100
AcDbLine
 62
7
  6
CONTINUOUS
 10
16.9420802678
 20
5.670211748
 11
16.9420802678
 21
5.6614272905
  0
LINE
  5
6D9
100
AcDbEntity
  8
02___PRT_ALL_AXES
100
AcDbLine
 62
7
  6
CONTINUOUS
 10
16.9420802678
 20
5.6219931013
 11
16.9420802678
 21
5.6132086438
  0
LINE
  5
6DA
100
AcDbEntity
  8
02___PRT_ALL_AXES
100
AcDbLine
 62
7
  6
CONTINUOUS
 10
16.9420802678
 20
5.5737744546
 11
16.9420802678
 21
5.5649899971
  0
LINE
  5
6DB
100
AcDbEntity
  8
02___PRT_ALL_AXES
100
AcDbLine
 62
7
  6
CONTINUOUS
 10
16.9420802678
 20
5.5255558079
 11
16.9420802678
 21
5.5167713505
  0
LINE
  5
6DC
100
AcDbEntity
  8
02___PRT_ALL_AXES
100
AcDbLine
 62
7
  6
CONTINUOUS
 10
16.9420802678
 20
5.4773371613
 11
16.9420802678
 21
5.4685527038
  0
LINE
  5
6DD
100
AcDbEntity
  8
02___PRT_ALL_AXES
100
AcDbLine
 62
7
  6
CONTINUOUS
 10
16.9420802678
 20
5.4291185146
 11
16.9420802678
 21
5.4203340571
  0
LINE
  5
6DE
100
AcDbEntity
  8
0
100
AcDbLine
 62
7
  6
CONTINUOUS
 10
16.9420802678
 20
5.3808998679
 11
16.9420802678
 21
5.3458143359
  0
LINE
  5
6DF
100
AcDbEntity
  8
02___PRT_ALL_AXES
100
AcDbLine
 62
7
  6
CONTINUOUS
 10
17.0887311187
 20
5.6848869708
 11
17.0887311187
 21
5.6761025133
  0
LINE
  5
6E0
100
AcDbEntity
  8
02___PRT_ALL_AXES
100
AcDbLine
 62
7
  6
CONTINUOUS
 10
17.0887311187
 20
5.6366683241
 11
17.0887311187
 21
5.6278838667
  0
LINE
  5
6E1
100
AcDbEntity
  8
02___PRT_ALL_AXES
100
AcDbLine
 62
7
  6
CONTINUOUS
 10
17.0887311187
 20
5.5884496775
 11
17.0887311187
 21
5.57966522
  0
LINE
  5
6E2
100
AcDbEntity
  8
02___PRT_ALL_AXES
100
AcDbLine
 62
7
  6
CONTINUOUS
 10
17.0887311187
 20
5.5402310308
 11
17.0887311187
 21
5.5314465733
  0
LINE
  5
6E3
100
AcDbEntity
  8
02___PRT_ALL_AXES
100
AcDbLine
 62
7
  6
CONTINUOUS
 10
17.0887311187
 20
5.4920123841
 11
17.0887311187
 21
5.4832279266
  0
LINE
  5
6E4
100
AcDbEntity
  8
02___PRT_ALL_AXES
100
AcDbLine
 62
7
  6
CONTINUOUS
 10
17.0887311187
 20
5.4437937374
 11
17.0887311187
 21
5.4350092799
  0
LINE
  5
6E5
100
AcDbEntity
  8
02___PRT_ALL_AXES
100
AcDbLine
 62
7
  6
CONTINUOUS
 10
17.0887311187
 20
5.3955750907
 11
17.0887311187
 21
5.3867906333
  0
LINE
  5
6E6
100
AcDbEntity
  8
02___PRT_ALL_AXES
100
AcDbLine
 62
7
  6
CONTINUOUS
 10
17.0887311187
 20
5.3473564441
 11
17.0887311187
 21
5.3385719866
  0
LINE
  5
6E7
100
AcDbEntity
  8
0
100
AcDbLine
 62
7
  6
CONTINUOUS
 10
17.0887311187
 20
5.2991377974
 11
17.0887311187
 21
5.261147343
  0
LINE
  5
6E8
100
AcDbEntity
  8
02___PRT_ALL_AXES
100
AcDbLine
 62
7
  6
CONTINUOUS
 10
16.8130388061
 20
5.791195521
 11
16.8115741091
 21
5.7705951282
  0
LINE
  5
6E9
100
AcDbEntity
  8
02___PRT_ALL_AXES
100
AcDbLine
 62
7
  6
CONTINUOUS
 10
16.8130049252
 20
5.6942817064
 11
16.8115741091
 21
5.6741578349
  0
LINE
  5
6EA
100
AcDbEntity
  8
02___PRT_ALL_AXES
100
AcDbLine
 62
7
  6
CONTINUOUS
 10
16.8130388061
 20
5.646539581
 11
16.8115741091
 21
5.6259391882
  0
LINE
  5
6EB
100
AcDbEntity
  8
02___PRT_ALL_AXES
100
AcDbLine
 62
7
  6
CONTINUOUS
 10
16.8130388061
 20
5.5983209343
 11
16.8115741091
 21
5.5777205415
  0
LINE
  5
6EC
100
AcDbEntity
  8
02___PRT_ALL_AXES
100
AcDbLine
 62
7
  6
CONTINUOUS
 10
16.8131877699
 20
5.740781016
 11
16.8115741091
 21
5.7223764816
  0
LWPOLYLINE
  5
6ED
100
AcDbEntity
  8
0
100
AcDbPolyline
 62
9
  6
CONTINUOUS
 90
14
 70
0
 10
18.2726151734
 20
13.1755526322
 10
18.2867528629
 20
13.2150190256
 10
18.2955559862
 20
13.2550058537
 10
18.2989688861
 20
13.2952722748
 10
18.2969693168
 20
13.3355704057
 10
18.2895699628
 20
13.3756553635
 10
18.276804906
 20
13.4153156275
 10
18.2587399539
 20
13.454311829
 10
18.2355585692
 20
13.4922831319
 10
18.2073897269
 20
13.5290692692
 10
18.1739507025
 20
13.5649102779
 10
18.1346743657
 20
13.6000221544
 10
18.0887585385
 20
13.6345017213
 10
18.0351663743
 20
13.6682968502
  0
LINE
  5
6EE
100
AcDbEntity
  8
0
100
AcDbLine
 62
7
  6
CONTINUOUS
 10
18.3599478797
 20
12.0321478642
 11
18.3203843256
 21
11.9543549728
  0
LINE
  5
6EF
100
AcDbEntity
  8
0
100
AcDbLine
 62
7
  6
CONTINUOUS
 10
18.2620475194
 20
10.5722720007
 11
18.1861250303
 21
10.5040655191
  0
LWPOLYLINE
  5
6F0
100
AcDbEntity
  8
AXIS
100
AcDbPolyline
 62
7
  6
CONTINUOUS
 90
6
 70
0
 10
18.0941624212
 20
9.9991798525
 10
18.1861250303
 20
10.0604539696
 10
18.2620475194
 20
10.1286604512
 10
18.3203843256
 20
10.2024108101
 10
18.3599478797
 20
10.2802037015
 10
18.3799327819
 20
10.3604554866
  0
LINE
  5
6F1
100
AcDbEntity
  8
0
100
AcDbLine
 62
7
  6
CONTINUOUS
 10
16.8083513398
 20
9.0813615648
 11
16.7022199386
 21
9.1344554429
  0
LWPOLYLINE
  5
6F2
100
AcDbEntity
  8
0
100
AcDbPolyline
 62
7
  6
CONTINUOUS
 90
5
 70
0
 10
16.7022199386
 20
9.1344554429
 10
16.6102564458
 20
9.1957291179
 10
16.534332973
 20
9.2639352345
 10
16.4759951031
 20
9.3376853129
 10
16.436430427
 20
9.4154780141
  0
LINE
  5
6F3
100
AcDbEntity
  8
02___PRT_ALL_AXES
100
AcDbLine
 62
7
  6
CONTINUOUS
 10
17.175201113
 20
5.6592777911
 11
17.175201113
 21
5.6532504603
  0
LINE
  5
6F4
100
AcDbEntity
  8
02___PRT_ALL_AXES
100
AcDbLine
 62
7
  6
CONTINUOUS
 10
17.175201113
 20
5.6110591445
 11
17.175201113
 21
5.6050318136
  0
LINE
  5
6F5
100
AcDbEntity
  8
02___PRT_ALL_AXES
100
AcDbLine
 62
7
  6
CONTINUOUS
 10
17.175201113
 20
5.5628404978
 11
17.175201113
 21
5.5568131669
  0
LINE
  5
6F6
100
AcDbEntity
  8
02___PRT_ALL_AXES
100
AcDbLine
 62
7
  6
CONTINUOUS
 10
17.175201113
 20
5.5146218511
 11
17.175201113
 21
5.5085945203
  0
LINE
  5
6F7
100
AcDbEntity
  8
02___PRT_ALL_AXES
100
AcDbLine
 62
7
  6
CONTINUOUS
 10
17.175201113
 20
5.4664032044
 11
17.175201113
 21
5.4603758736
  0
LINE
  5
6F8
100
AcDbEntity
  8
02___PRT_ALL_AXES
100
AcDbLine
 62
7
  6
CONTINUOUS
 10
17.175201113
 20
5.4181845577
 11
17.175201113
 21
5.4121572269
  0
LINE
  5
6F9
100
AcDbEntity
  8
02___PRT_ALL_AXES
100
AcDbLine
 62
7
  6
CONTINUOUS
 10
17.175201113
 20
5.3699659111
 11
17.175201113
 21
5.3639385802
  0
LINE
  5
6FA
100
AcDbEntity
  8
02___PRT_ALL_AXES
100
AcDbLine
 62
7
  6
CONTINUOUS
 10
17.175201113
 20
5.3217472644
 11
17.175201113
 21
5.3157199335
  0
LINE
  5
6FB
100
AcDbEntity
  8
02___PRT_ALL_AXES
100
AcDbLine
 62
7
  6
CONTINUOUS
 10
17.175201113
 20
5.2735286177
 11
17.175201113
 21
5.2675012869
  0
LINE
  5
6FC
100
AcDbEntity
  8
02___PRT_ALL_AXES
100
AcDbLine
 62
7
  6
CONTINUOUS
 10
17.2906882823
 20
4.6308268993
 11
17.2906882823
 21
5.1969017307
  0
LINE
  5
6FD
100
AcDbEntity
  8
0
100
AcDbLine
 62
7
  6
CONTINUOUS
 10
18.3203843256
 20
10.6460223595
 11
18.2620475194
 21
10.5722720007
  0
LWPOLYLINE
  5
6FE
100
AcDbEntity
  8
0
100
AcDbPolyline
 62
7
  6
CONTINUOUS
 90
3
 70
0
 10
16.4759951031
 20
10.6460179262
 10
16.436430427
 20
10.7238106274
 10
16.4164443673
 20
10.8040623165
  0
LINE
  5
6FF
100
AcDbEntity
  8
0
100
AcDbLine
 62
7
  6
CONTINUOUS
 10
16.436430427
 20
12.0321432407
 11
16.4164443673
 21
12.1123949297
  0
LINE
  5
700
100
AcDbEntity
  8
02___PRT_ALL_AXES
100
AcDbLine
 62
7
  6
CONTINUOUS
 10
17.9848024555
 20
5.6018298649
 11
17.9834027311
 21
5.6234207419
  0
LINE
  5
701
100
AcDbEntity
  8
02___PRT_ALL_AXES
100
AcDbLine
 62
7
  6
CONTINUOUS
 10
17.9848024555
 20
5.6500485115
 11
17.9834027311
 21
5.6716393886
  0
LINE
  5
702
100
AcDbEntity
  8
02___PRT_ALL_AXES
100
AcDbLine
 62
7
  6
CONTINUOUS
 10
17.5056882823
 20
4.6308268993
 11
17.5056882823
 21
5.1968611282
  0
LINE
  5
703
100
AcDbEntity
  8
0
100
AcDbLine
 62
7
  6
CONTINUOUS
 10
18.3799327819
 20
12.1123996494
 11
18.3599478797
 21
12.0321478642
  0
LWPOLYLINE
  5
704
100
AcDbEntity
  8
0
100
AcDbPolyline
 62
7
  6
CONTINUOUS
 90
10
 70
0
 10
17.9880317857
 20
9.0813644004
 10
17.8698936375
 20
9.0375305896
 10
17.7421529284
 20
9.0038496862
 10
17.6074100912
 20
8.9810073364
 10
17.4684081012
 20
8.9694685444
 10
17.3279766382
 20
8.9694682069
 10
17.1889744818
 20
8.9810063306
 10
17.0542313151
 20
9.0038480327
 10
16.9264901203
 20
9.0375283219
 10
16.8083513398
 20
9.0813615648
  0
LWPOLYLINE
  5
705
100
AcDbEntity
  8
0
100
AcDbPolyline
 62
7
  6
CONTINUOUS
 90
7
 70
0
 10
16.7055725789
 20
10.0011121429
 10
16.6140520955
 20
10.0620906484
 10
16.5384943636
 20
10.1299682004
 10
16.4804375207
 20
10.2033630077
 10
16.4410634368
 20
10.2807809635
 10
16.4211736546
 20
10.3606460616
 10
16.4187057828
 20
10.3974961528
  0
LINE
  5
706
100
AcDbEntity
  8
0
100
AcDbLine
 62
7
  6
CONTINUOUS
 10
16.534332973
 20
10.5722678478
 11
16.4759951031
 21
10.6460179262
  0
LINE
  5
707
100
AcDbEntity
  8
02___PRT_ALL_AXES
100
AcDbLine
 62
7
  6
CONTINUOUS
 10
17.9848024555
 20
5.6982671582
 11
17.9834027311
 21
5.7198580353
  0
LINE
  5
708
100
AcDbEntity
  8
02___PRT_ALL_AXES
100
AcDbLine
 62
7
  6
CONTINUOUS
 10
17.9848024555
 20
5.7464858049
 11
17.9834027311
 21
5.768076682
  0
LWPOLYLINE
  5
709
100
AcDbEntity
  8
0
100
AcDbPolyline
 62
7
  6
CONTINUOUS
 90
3
 70
0
 10
18.3799327819
 20
10.8040670361
 10
18.3599478797
 20
10.723815251
 10
18.3203843256
 20
10.6460223595
  0
LINE
  5
70A
100
AcDbEntity
  8
0
100
AcDbLine
 62
7
  6
CONTINUOUS
 10
18.2620475194
 20
9.2639393874
 11
18.1861250303
 21
9.1957329058
  0
LINE
  5
70B
100
AcDbEntity
  8
0
100
AcDbLine
 62
7
  6
CONTINUOUS
 10
18.1861250303
 20
9.1957329058
 11
18.0941624212
 21
9.1344587887
  0
LWPOLYLINE
  5
70C
100
AcDbEntity
  8
AXIS
100
AcDbPolyline
 62
7
  6
CONTINUOUS
 90
6
 70
0
 10
18.0941624212
 20
9.1344587887
 10
18.1861250303
 20
9.1957329058
 10
18.2620475194
 20
9.2639393874
 10
18.3203843256
 20
9.3376897462
 10
18.3599478797
 20
9.4154826377
 10
18.3799327819
 20
9.4957344228
  0
LINE
  5
70D
100
AcDbEntity
  8
0
100
AcDbLine
 62
7
  6
CONTINUOUS
 10
18.0941624212
 20
9.1344587887
 11
17.9880317857
 21
9.0813644004
  0
LWPOLYLINE
  5
70E
100
AcDbEntity
  8
AXIS
100
AcDbPolyline
 62
7
  6
CONTINUOUS
 90
12
 70
0
 10
16.7022199386
 20
9.9991765067
 10
16.8083513398
 20
9.9460826286
 10
16.9264901203
 20
9.9022493857
 10
17.0542313151
 20
9.8685690965
 10
17.1889744818
 20
9.8457273944
 10
17.3279766382
 20
9.8341892707
 10
17.4684081012
 20
9.8341896082
 10
17.6074100912
 20
9.8457284002
 10
17.7421529284
 20
9.86857075
 10
17.8698936375
 20
9.9022516534
 10
17.9880317857
 20
9.9460854642
 10
18.0941624212
 20
9.9991798525
  0
LINE
  5
70F
100
AcDbEntity
  8
0
100
AcDbLine
 62
7
  6
CONTINUOUS
 10
16.7022199386
 20
10.4427880561
 11
16.6102564458
 21
10.5040617311
  0
LINE
  5
710
100
AcDbEntity
  8
0
100
AcDbLine
 62
7
  6
CONTINUOUS
 10
16.6102564458
 20
10.5040617311
 11
16.534332973
 21
10.5722678478
  0
LINE
  5
711
100
AcDbEntity
  8
0
100
AcDbLine
 62
7
  6
CONTINUOUS
 10
16.4759951031
 20
11.9543505394
 11
16.436430427
 21
12.0321432407
  0
LWPOLYLINE
  5
712
100
AcDbEntity
  8
AXIS
100
AcDbPolyline
 62
7
  6
CONTINUOUS
 90
3
 70
0
 10
18.3824306747
 20
7.7843263882
 10
18.3799321972
 20
7.824867244
 10
18.3782241496
 20
7.8317257097
  0
LWPOLYLINE
  5
713
100
AcDbEntity
  8
AXIS
100
AcDbPolyline
 62
7
  6
CONTINUOUS
 90
3
 70
0
 10
18.3824306747
 20
9.0926590014
 10
18.3799321972
 20
9.1331998572
 10
18.3782241496
 20
9.140058323
  0
LINE
  5
714
100
AcDbEntity
  8
02___PRT_ALL_AXES
100
AcDbLine
 62
7
  6
CONTINUOUS
 10
18.2840150539
 20
6.4114991803
 11
18.2840150539
 21
6.2316859691
  0
LINE
  5
715
100
AcDbEntity
  8
02___PRT_ALL_AXES
100
AcDbLine
 62
7
  6
CONTINUOUS
 10
18.3824402508
 20
6.9196053284
 11
18.3824402508
 21
6.6656537892
  0
LINE
  5
716
100
AcDbEntity
  8
AXIS
100
AcDbLine
 62
7
  6
CONTINUOUS
 10
18.3824402508
 20
6.9196053284
 11
18.3824402508
 21
7.7843263922
  0
LINE
  5
717
100
AcDbEntity
  8
AXIS
100
AcDbLine
 62
7
  6
CONTINUOUS
 10
18.3824402508
 20
8.2279379417
 11
18.3824402508
 21
9.0926590055
  0
LINE
  5
718
100
AcDbEntity
  8
AXIS
100
AcDbLine
 62
7
  6
CONTINUOUS
 10
18.3824402508
 20
9.5362705549
 11
18.3824402508
 21
10.4009916187
  0
LINE
  5
719
100
AcDbEntity
  8
AXIS
100
AcDbLine
 62
7
  6
CONTINUOUS
 10
18.3824402508
 20
10.8446031682
 11
18.3824402508
 21
11.709324232
  0
LINE
  5
71A
100
AcDbEntity
  8
AXIS
100
AcDbLine
 62
7
  6
CONTINUOUS
 10
18.3824402508
 20
12.1529357815
 11
18.3824402508
 21
13.0176568453
  0
LINE
  5
71B
100
AcDbEntity
  8
0
100
AcDbLine
 62
7
  6
CONTINUOUS
 10
18.3824215117
 20
12.1494292839
 11
18.3776802329
 21
11.7058346261
  0
LINE
  5
71C
100
AcDbEntity
  8
0
100
AcDbLine
 62
7
  6
CONTINUOUS
 10
18.3824215117
 20
10.8410966706
 11
18.3776802329
 21
10.3975020128
  0
LINE
  5
71D
100
AcDbEntity
  8
0
100
AcDbLine
 62
7
  6
CONTINUOUS
 10
18.3824215117
 20
9.5327640574
 11
18.3776802329
 21
9.0891693995
  0
LINE
  5
71E
100
AcDbEntity
  8
0
100
AcDbLine
 62
7
  6
CONTINUOUS
 10
18.3799327819
 20
12.9771207132
 11
18.3823560215
 21
13.0246818906
  0
LINE
  5
71F
100
AcDbEntity
  8
AXIS
100
AcDbLine
 62
7
  6
CONTINUOUS
 10
18.3799327819
 20
12.1123996494
 11
18.3824306747
 21
12.1529357775
  0
LINE
  5
720
100
AcDbEntity
  8
AXIS
100
AcDbLine
 62
7
  6
CONTINUOUS
 10
18.3799327819
 20
11.6687880999
 11
18.3824306747
 21
11.709324228
  0
LINE
  5
721
100
AcDbEntity
  8
AXIS
100
AcDbLine
 62
7
  6
CONTINUOUS
 10
18.3799327819
 20
10.8040670361
 11
18.3824306747
 21
10.8446031642
  0
LINE
  5
722
100
AcDbEntity
  8
AXIS
100
AcDbLine
 62
7
  6
CONTINUOUS
 10
18.3799327819
 20
10.3604554866
 11
18.3824306747
 21
10.4009916147
  0
LINE
  5
723
100
AcDbEntity
  8
AXIS
100
AcDbLine
 62
7
  6
CONTINUOUS
 10
18.3799327819
 20
9.4957344228
 11
18.3824306747
 21
9.5362705509
  0
LINE
  5
724
100
AcDbEntity
  8
AXIS
100
AcDbLine
 62
7
  6
CONTINUOUS
 10
18.3799327819
 20
9.0521228734
 11
18.3824306747
 21
9.0926590014
  0
LINE
  5
725
100
AcDbEntity
  8
0
100
AcDbLine
 62
7
  6
CONTINUOUS
 10
18.3824120152
 20
12.1494233876
 11
18.3799327819
 21
12.1123996494
  0
LWPOLYLINE
  5
726
100
AcDbEntity
  8
0
100
AcDbPolyline
 62
7
  6
CONTINUOUS
 90
18
 70
0
 10
18.3776707821
 20
11.7058287582
 10
18.3752034919
 20
11.6689833718
 10
18.3553148615
 20
11.5891181781
 10
18.3159418942
 20
11.511700033
 10
18.2578861098
 20
11.4383049466
 10
18.1823293569
 20
11.3704270314
 10
18.090809753
 20
11.3094480859
 10
17.9851903733
 20
11.2566094655
 10
17.8676213238
 20
11.2129868123
 10
17.7404959713
 20
11.1794681576
 10
17.6064022214
 20
11.1567358447
 10
17.4680698361
 20
11.1452526377
 10
17.3283148639
 20
11.1452523018
 10
17.189982313
 20
11.1567348437
 10
17.0558882352
 20
11.179466512
 10
16.9287623993
 20
11.2129845556
 10
16.8111927207
 20
11.2566066436
 10
16.7055725789
 20
11.3094447562
  0
LINE
  5
727
100
AcDbEntity
  8
0
100
AcDbLine
 62
7
  6
CONTINUOUS
 10
18.3824120152
 20
10.8410907744
 11
18.3799327819
 21
10.8040670361
  0
LWPOLYLINE
  5
728
100
AcDbEntity
  8
0
100
AcDbPolyline
 62
7
  6
CONTINUOUS
 90
18
 70
0
 10
18.3776707821
 20
10.3974961449
 10
18.3752034919
 20
10.3606507585
 10
18.3553148615
 20
10.2807855648
 10
18.3159418942
 20
10.2033674197
 10
18.2578861098
 20
10.1299723334
 10
18.1823293569
 20
10.0620944181
 10
18.090809753
 20
10.0011154726
 10
17.9851903733
 20
9.9482768523
 10
17.8676213238
 20
9.904654199
 10
17.7404959713
 20
9.8711355444
 10
17.6064022214
 20
9.8484032314
 10
17.4680698361
 20
9.8369200244
 10
17.3283148639
 20
9.8369196885
 10
17.189982313
 20
9.8484022304
 10
17.0558882352
 20
9.8711338988
 10
16.9287623993
 20
9.9046519423
 10
16.8111927207
 20
9.9482740303
 10
16.7055725789
 20
10.0011121429
  0
LINE
  5
729
100
AcDbEntity
  8
0
100
AcDbLine
 62
7
  6
CONTINUOUS
 10
18.3824120152
 20
9.5327581611
 11
18.3799327819
 21
9.4957344228
  0
LWPOLYLINE
  5
72A
100
AcDbEntity
  8
0
100
AcDbPolyline
 62
7
  6
CONTINUOUS
 90
18
 70
0
 10
18.3776707821
 20
9.0891635316
 10
18.3752034919
 20
9.0523181453
 10
18.3553148615
 20
8.9724529515
 10
18.3159418942
 20
8.8950348064
 10
18.2578861098
 20
8.8216397201
 10
18.1823293569
 20
8.7537618048
 10
18.090809753
 20
8.6927828593
 10
17.9851903733
 20
8.639944239
 10
17.8676213238
 20
8.5963215858
 10
17.7404959713
 20
8.5628029311
 10
17.6064022214
 20
8.5400706181
 10
17.4680698361
 20
8.5285874112
 10
17.3283148639
 20
8.5285870752
 10
17.189982313
 20
8.5400696172
 10
17.0558882352
 20
8.5628012855
 10
16.9287623993
 20
8.596319329
 10
16.8111927207
 20
8.639941417
 10
16.7055725789
 20
8.6927795296
  0
LINE
  5
72B
100
AcDbEntity
  8
02___PRT_ALL_AXES
100
AcDbLine
 62
7
  6
CONTINUOUS
 10
17.9829172214
 20
5.7669585253
 11
17.9848024555
 21
5.7947044516
  0
LINE
  5
72C
100
AcDbEntity
  8
02___PRT_ALL_AXES
100
AcDbLine
 62
7
  6
CONTINUOUS
 10
17.9829172214
 20
5.7187398786
 11
17.9848024555
 21
5.7464858049
  0
LINE
  5
72D
100
AcDbEntity
  8
02___PRT_ALL_AXES
100
AcDbLine
 62
7
  6
CONTINUOUS
 10
17.9829172214
 20
5.6705212319
 11
17.9848024555
 21
5.6982671582
  0
LINE
  5
72E
100
AcDbEntity
  8
02___PRT_ALL_AXES
100
AcDbLine
 62
7
  6
CONTINUOUS
 10
17.9829172214
 20
5.6223025852
 11
17.9848024555
 21
5.6500485115
  0
LINE
  5
72F
100
AcDbEntity
  8
02___PRT_ALL_AXES
100
AcDbLine
 62
7
  6
CONTINUOUS
 10
17.9829172214
 20
5.5740839385
 11
17.9848024555
 21
5.6018298649
  0
LINE
  5
730
100
AcDbEntity
  8
0
100
AcDbLine
 62
7
  6
CONTINUOUS
 10
18.3799327819
 20
9.4957344228
 11
18.3599478797
 21
9.4154826377
  0
LWPOLYLINE
  5
731
100
AcDbEntity
  8
0
100
AcDbPolyline
 62
7
  6
CONTINUOUS
 90
3
 70
0
 10
18.3599478797
 20
9.4154826377
 10
18.3203843256
 20
9.3376897462
 10
18.2620475194
 20
9.2639393874
  0
LWPOLYLINE
  5
732
100
AcDbEntity
  8
AXIS
100
AcDbPolyline
 62
7
  6
CONTINUOUS
 90
6
 70
0
 10
18.0941624212
 20
8.6908472392
 10
18.1861250303
 20
8.7521213563
 10
18.2620475194
 20
8.8203278379
 10
18.3203843256
 20
8.8940781968
 10
18.3599478797
 20
8.9718710882
 10
18.3799327819
 20
9.0521228734
  0
LINE
  5
733
100
AcDbEntity
  8
0
100
AcDbLine
 62
7
  6
CONTINUOUS
 10
16.8083513398
 20
10.3896941781
 11
16.7022199386
 21
10.4427880561
  0
LINE
  5
734
100
AcDbEntity
  8
0
100
AcDbLine
 62
7
  6
CONTINUOUS
 10
16.534332973
 20
11.880600461
 11
16.4759951031
 21
11.9543505394
  0
LWPOLYLINE
  5
735
100
AcDbEntity
  8
0
100
AcDbPolyline
 62
9
  6
CONTINUOUS
 90
8
 70
0
 10
16.5195716586
 20
13.1857635175
 10
16.5376366107
 20
13.146767316
 10
16.5608179954
 20
13.1087960131
 10
16.5889868376
 20
13.0720098758
 10
16.6224258621
 20
13.036168867
 10
16.6617021988
 20
13.0010569906
 10
16.7076180261
 20
12.9665774236
 10
16.7612101903
 20
12.9327822948
  0
LWPOLYLINE
  5
736
100
AcDbEntity
  8
AXIS
100
AcDbPolyline
 62
7
  6
CONTINUOUS
 90
3
 70
0
 10
18.3824306747
 20
10.4009916147
 10
18.3799321972
 20
10.4415324705
 10
18.3782241496
 20
10.4483909362
  0
LWPOLYLINE
  5
737
100
AcDbEntity
  8
AXIS
100
AcDbPolyline
 62
7
  6
CONTINUOUS
 90
3
 70
0
 10
18.3824306747
 20
11.709324228
 10
18.3799321972
 20
11.7498650838
 10
18.3782241496
 20
11.7567235495
  0
LINE
  5
738
100
AcDbEntity
  8
0
100
AcDbLine
 62
7
  6
CONTINUOUS
 10
18.3823652809
 20
13.0246703746
 11
18.3776686423
 21
13.2443501452
  0
LINE
  5
739
100
AcDbEntity
  8
0
100
AcDbLine
 62
7
  6
CONTINUOUS
 10
18.3824215117
 20
8.2244314441
 11
18.3776802329
 21
7.7808367862
  0
LINE
  5
73A
100
AcDbEntity
  8
AXIS
100
AcDbLine
 62
7
  6
CONTINUOUS
 10
18.3799327819
 20
8.1874018095
 11
18.3824306747
 21
8.2279379376
  0
LINE
  5
73B
100
AcDbEntity
  8
AXIS
100
AcDbLine
 62
7
  6
CONTINUOUS
 10
18.3799327819
 20
7.7437902601
 11
18.3824306747
 21
7.7843263882
  0
LINE
  5
73C
100
AcDbEntity
  8
02___PRT_ALL_AXES
100
AcDbLine
 62
9
  6
CONTINUOUS
 10
18.3824402508
 20
6.6656537892
 11
18.3799327819
 21
6.6251176571
  0
LINE
  5
73D
100
AcDbEntity
  8
0
100
AcDbLine
 62
7
  6
CONTINUOUS
 10
18.3824120152
 20
8.2244255478
 11
18.3799327819
 21
8.1874018095
  0
LWPOLYLINE
  5
73E
100
AcDbEntity
  8
0
100
AcDbPolyline
 62
7
  6
CONTINUOUS
 90
18
 70
0
 10
18.3776707821
 20
7.7808309184
 10
18.3752034919
 20
7.743985532
 10
18.3553148615
 20
7.6641203383
 10
18.3159418942
 20
7.5867021931
 10
18.2578861098
 20
7.5133071068
 10
18.1823293569
 20
7.4454291916
 10
18.090809753
 20
7.384450246
 10
17.9851903733
 20
7.3316116257
 10
17.8676213238
 20
7.2879889725
 10
17.7404959713
 20
7.2544703178
 10
17.6064022214
 20
7.2317380048
 10
17.4680698361
 20
7.2202547979
 10
17.3283148639
 20
7.220254462
 10
17.189982313
 20
7.2317370039
 10
17.0558882352
 20
7.2544686722
 10
16.9287623993
 20
7.2879867157
 10
16.8111927207
 20
7.3316088038
 10
16.7055725789
 20
7.3844469163
  0
LWPOLYLINE
  5
73F
100
AcDbEntity
  8
02___PRT_ALL_AXES
100
AcDbPolyline
 62
9
  6
CONTINUOUS
 90
16
 70
0
 10
18.2840150539
 20
6.2316859691
 10
18.2784455741
 20
6.1744266512
 10
18.2538321932
 20
6.0993214921
 10
18.2101051412
 20
6.0271731367
 10
18.1482412083
 20
5.95959326
 10
18.0696223325
 20
5.8980914848
 10
17.9760047294
 20
5.8440416591
 10
17.8694796618
 20
5.7986511667
 10
17.7524267235
 20
5.7629339563
 10
17.6274606838
 20
5.7376878912
 10
17.4973730776
 20
5.7234769269
 10
17.3650698468
 20
5.7206185128
 10
17.2335064273
 20
5.7291765012
 10
17.1056217282
 20
5.7489597207
 10
16.9842724825
 20
5.7795262469
 10
16.8721694318
 20
5.8201932741
  0
LWPOLYLINE
  5
740
100
AcDbEntity
  8
02___PRT_ALL_AXES
100
AcDbPolyline
 62
7
  6
CONTINUOUS
 90
6
 70
0
 10
18.2840150539
 20
6.2316859691
 10
18.2758940948
 20
6.1513007906
 10
18.2509619732
 20
6.0710063503
 10
18.2082864508
 20
5.992283171
 10
18.1473628698
 20
5.9172499229
 10
18.0690382317
 20
5.8486087523
  0
LWPOLYLINE
  5
741
100
AcDbEntity
  8
02___PRT_ALL_AXES
100
AcDbPolyline
 62
7
  6
CONTINUOUS
 90
15
 70
0
 10
18.3824402508
 20
6.6656537892
 10
18.3734077067
 20
6.5858558952
 10
18.3461026182
 20
6.5068520173
 10
18.3006505714
 20
6.4305108365
 10
18.2375004165
 20
6.3583406119
 10
18.1579842215
 20
6.2921729378
 10
18.0638769706
 20
6.2334347453
 10
17.957246243
 20
6.1832386719
 10
17.8403052947
 20
6.1424236607
 10
17.7152197019
 20
6.1115853115
 10
17.5843777724
 20
6.0912018524
 10
17.4501788398
 20
6.0815706703
 10
17.315052429
 20
6.0828294078
 10
17.1814891428
 20
6.0949502562
 10
17.0518781104
 20
6.117747218
  0
LINE
  5
742
100
AcDbEntity
  8
02___PRT_ALL_AXES
100
AcDbLine
 62
7
  6
CONTINUOUS
 10
18.3824402508
 20
6.9196053351
 11
18.3740203736
 21
6.8454361633
  0
LINE
  5
743
100
AcDbEntity
  8
0
100
AcDbLine
 62
7
  6
CONTINUOUS
 10
18.3799327819
 20
8.1874018095
 11
18.3599478797
 21
8.1071500244
  0
LWPOLYLINE
  5
744
100
AcDbEntity
  8
0
100
AcDbPolyline
 62
7
  6
CONTINUOUS
 90
4
 70
0
 10
17.1889744818
 20
10.2893389439
 10
17.0542313151
 20
10.3121806459
 10
16.9264901203
 20
10.3458609352
 10
16.8083513398
 20
10.3896941781
  0
LWPOLYLINE
  5
745
100
AcDbEntity
  8
02___PRT_ALL_AXES
100
AcDbPolyline
 62
9
  6
CONTINUOUS
 90
17
 70
0
 10
18.3799327819
 20
6.6251176571
 10
18.3599478797
 20
6.544865872
 10
18.3203843256
 20
6.4670729805
 10
18.2620475194
 20
6.3933226217
 10
18.1861250303
 20
6.32511614
 10
18.0941624212
 20
6.2638420229
 10
17.9880317857
 20
6.2107476347
 10
17.8698936375
 20
6.1669138239
 10
17.7421529284
 20
6.1332329205
 10
17.6074100912
 20
6.1103905706
 10
17.4684081012
 20
6.0988517787
 10
17.3279766382
 20
6.0988514411
 10
17.1889744818
 20
6.1103895648
 10
17.0542313151
 20
6.1332312669
 10
16.9264901203
 20
6.1669115562
 10
16.8083513398
 20
6.2107447991
 10
16.7022199386
 20
6.2638386771
  0
LINE
  5
746
100
AcDbEntity
  8
02___PRT_ALL_AXES
100
AcDbLine
 62
7
  6
CONTINUOUS
 10
17.968417808
 20
5.761619327
 11
17.9763616526
 21
5.7909622517
  0
LINE
  5
747
100
AcDbEntity
  8
02___PRT_ALL_AXES
100
AcDbLine
 62
7
  6
CONTINUOUS
 10
17.968417808
 20
5.7555919962
 11
17.9778819712
 21
5.7905506645
  0
LINE
  5
748
100
AcDbEntity
  8
02___PRT_ALL_AXES
100
AcDbLine
 62
7
  6
CONTINUOUS
 10
17.968417808
 20
5.7134006804
 11
17.9829172214
 21
5.7669585253
  0
LWPOLYLINE
  5
749
100
AcDbEntity
  8
02___PRT_ALL_AXES
100
AcDbPolyline
 62
7
  6
CONTINUOUS
 90
3
 70
0
 10
17.968417808
 20
5.7073733495
 10
17.9829172214
 20
5.7609311944
 10
17.9848024555
 20
5.7886771207
  0
LINE
  5
74A
100
AcDbEntity
  8
02___PRT_ALL_AXES
100
AcDbLine
 62
7
  6
CONTINUOUS
 10
17.968417808
 20
5.6651820337
 11
17.9829172214
 21
5.7187398786
  0
LWPOLYLINE
  5
74B
100
AcDbEntity
  8
02___PRT_ALL_AXES
100
AcDbPolyline
 62
7
  6
CONTINUOUS
 90
3
 70
0
 10
17.968417808
 20
5.6591547028
 10
17.9829172214
 20
5.7127125477
 10
17.9848024555
 20
5.7404584741
  0
LINE
  5
74C
100
AcDbEntity
  8
02___PRT_ALL_AXES
100
AcDbLine
 62
7
  6
CONTINUOUS
 10
17.968417808
 20
5.616963387
 11
17.9829172214
 21
5.6705212319
  0
LWPOLYLINE
  5
74D
100
AcDbEntity
  8
02___PRT_ALL_AXES
100
AcDbPolyline
 62
7
  6
CONTINUOUS
 90
3
 70
0
 10
17.968417808
 20
5.6109360562
 10
17.9829172214
 20
5.6644939011
 10
17.9848024555
 20
5.6922398274
  0
LINE
  5
74E
100
AcDbEntity
  8
02___PRT_ALL_AXES
100
AcDbLine
 62
7
  6
CONTINUOUS
 10
17.968417808
 20
5.5687447403
 11
17.9829172214
 21
5.6223025852
  0
LWPOLYLINE
  5
74F
100
AcDbEntity
  8
02___PRT_ALL_AXES
100
AcDbPolyline
 62
7
  6
CONTINUOUS
 90
3
 70
0
 10
17.968417808
 20
5.5627174095
 10
17.9829172214
 20
5.6162752544
 10
17.9848024555
 20
5.6440211807
  0
LINE
  5
750
100
AcDbEntity
  8
0
100
AcDbLine
 62
7
  6
CONTINUOUS
 10
18.3599478797
 20
8.1071500244
 11
18.3203843256
 21
8.029357133
  0
LINE
  5
751
100
AcDbEntity
  8
0
100
AcDbLine
 62
7
  6
CONTINUOUS
 10
18.3203843256
 20
8.029357133
 11
18.2620475194
 21
7.9556067741
  0
LINE
  5
752
100
AcDbEntity
  8
0
100
AcDbLine
 62
7
  6
CONTINUOUS
 10
18.2620475194
 20
7.9556067741
 11
18.1861250303
 21
7.8874002925
  0
LINE
  5
753
100
AcDbEntity
  8
0
100
AcDbLine
 62
7
  6
CONTINUOUS
 10
18.1861250303
 20
7.8874002925
 11
18.0941624212
 21
7.8261261754
  0
LWPOLYLINE
  5
754
100
AcDbEntity
  8
AXIS
100
AcDbPolyline
 62
7
  6
CONTINUOUS
 90
6
 70
0
 10
18.0941624212
 20
7.8261261754
 10
18.1861250303
 20
7.8874002925
 10
18.2620475194
 20
7.9556067741
 10
18.3203843256
 20
8.029357133
 10
18.3599478797
 20
8.1071500244
 10
18.3799327819
 20
8.1874018095
  0
LWPOLYLINE
  5
755
100
AcDbEntity
  8
0
100
AcDbPolyline
 62
7
  6
CONTINUOUS
 90
11
 70
0
 10
18.0941624212
 20
7.8261261754
 10
17.9880317857
 20
7.7730317871
 10
17.8698936375
 20
7.7291979763
 10
17.7421529284
 20
7.695517073
 10
17.6074100912
 20
7.6726747231
 10
17.4684081012
 20
7.6611359311
 10
17.3279766382
 20
7.6611355936
 10
17.1889744818
 20
7.6726737173
 10
17.0542313151
 20
7.6955154194
 10
16.9264901203
 20
7.7291957087
 10
16.8083513398
 20
7.7730289515
  0
LWPOLYLINE
  5
756
100
AcDbEntity
  8
AXIS
100
AcDbPolyline
 62
7
  6
CONTINUOUS
 90
12
 70
0
 10
16.7022199386
 20
11.3075091199
 10
16.8083513398
 20
11.2544152419
 10
16.9264901203
 20
11.210581999
 10
17.0542313151
 20
11.1769017098
 10
17.1889744818
 20
11.1540600077
 10
17.3279766382
 20
11.1425218839
 10
17.4684081012
 20
11.1425222215
 10
17.6074100912
 20
11.1540610135
 10
17.7421529284
 20
11.1769033633
 10
17.8698936375
 20
11.2105842667
 10
17.9880317857
 20
11.2544180775
 10
18.0941624212
 20
11.3075124658
  0
LWPOLYLINE
  5
757
100
AcDbEntity
  8
0
100
AcDbPolyline
 62
7
  6
CONTINUOUS
 90
7
 70
0
 10
16.7055725789
 20
11.3094447562
 10
16.6140520955
 20
11.3704232617
 10
16.5384943636
 20
11.4383008137
 10
16.4804375207
 20
11.511695621
 10
16.4410634368
 20
11.5891135768
 10
16.4211736546
 20
11.6689786749
 10
16.4187057828
 20
11.705828766
  0
LINE
  5
758
100
AcDbEntity
  8
0
100
AcDbLine
 62
7
  6
CONTINUOUS
 10
16.6102564458
 20
11.8123943444
 11
16.534332973
 21
11.880600461
  0
LWPOLYLINE
  5
759
100
AcDbEntity
  8
0
100
AcDbPolyline
 62
7
  6
CONTINUOUS
 90
7
 70
0
 10
18.3776686423
 20
13.2443501451
 10
18.3679682053
 20
13.3221183034
 10
18.3418854038
 20
13.399316134
 10
18.2989367078
 20
13.4747815336
 10
18.2392058568
 20
13.546705689
 10
18.1637884603
 20
13.6130611077
 10
18.0745357851
 20
13.6721966836
  0
LINE
  5
75A
100
AcDbEntity
  8
02___PRT_ALL_AXES
100
AcDbLine
 62
7
  6
CONTINUOUS
 10
18.3740203736
 20
6.8454361633
 11
18.3489037388
 21
6.7725336873
  0
LWPOLYLINE
  5
75B
100
AcDbEntity
  8
0
100
AcDbPolyline
 62
7
  6
CONTINUOUS
 90
13
 70
0
 10
17.9388831221
 20
5.4616595619
 10
17.920570404
 20
5.4162168261
 10
17.8842217165
 20
5.3648325543
 10
17.8338347484
 20
5.3176792193
 10
17.7711979764
 20
5.2765932185
 10
17.6984950017
 20
5.2427499304
 10
17.6179501291
 20
5.2168669807
 10
17.5318210097
 20
5.1994137904
 10
17.4423464167
 20
5.1906738526
 10
17.3518014615
 20
5.1907832117
 10
17.2624714056
 20
5.1997267432
 10
17.1766251605
 20
5.2173368279
 10
17.0975686231
 20
5.2428717818
  0
LWPOLYLINE
  5
75C
100
AcDbEntity
  8
AXIS
100
AcDbPolyline
 62
7
  6
CONTINUOUS
 90
6
 70
0
 10
18.0941624212
 20
7.3825146259
 10
18.1861250303
 20
7.443788743
 10
18.2620475194
 20
7.5119952247
 10
18.3203843256
 20
7.5857455835
 10
18.3599478797
 20
7.663538475
 10
18.3799327819
 20
7.7437902601
  0
LINE
  5
75D
100
AcDbEntity
  8
0
100
AcDbLine
 62
7
  6
CONTINUOUS
 10
16.7022199386
 20
11.7511206694
 11
16.6102564458
 21
11.8123943444
  0
LINE
  5
75E
100
AcDbEntity
  8
02___PRT_ALL_AXES
100
AcDbLine
 62
7
  6
CONTINUOUS
 10
17.9424538259
 20
5.7558346691
 11
17.9547834686
 21
5.7789769373
  0
LINE
  5
75F
100
AcDbEntity
  8
02___PRT_ALL_AXES
100
AcDbLine
 62
7
  6
CONTINUOUS
 10
17.9399430913
 20
5.7039822035
 11
17.968417808
 21
5.7555919962
  0
LINE
  5
760
100
AcDbEntity
  8
02___PRT_ALL_AXES
100
AcDbLine
 62
7
  6
CONTINUOUS
 10
17.9399430913
 20
5.6557635568
 11
17.968417808
 21
5.7073733495
  0
LINE
  5
761
100
AcDbEntity
  8
02___PRT_ALL_AXES
100
AcDbLine
 62
7
  6
CONTINUOUS
 10
17.9399430913
 20
5.6075449102
 11
17.968417808
 21
5.6591547028
  0
LINE
  5
762
100
AcDbEntity
  8
02___PRT_ALL_AXES
100
AcDbLine
 62
7
  6
CONTINUOUS
 10
18.3489037388
 20
6.7725336873
 11
18.307520099
 21
6.7021476479
  0
LINE
  5
763
100
AcDbEntity
  8
0
100
AcDbLine
 62
7
  6
CONTINUOUS
 10
16.8083513398
 20
11.6980267913
 11
16.7022199386
 21
11.7511206694
  0
LINE
  5
764
100
AcDbEntity
  8
02___PRT_ALL_AXES
100
AcDbLine
 62
7
  6
CONTINUOUS
 10
17.9399430913
 20
5.5171349476
 11
17.968417808
 21
5.5687447403
  0
LINE
  5
765
100
AcDbEntity
  8
02___PRT_ALL_AXES
100
AcDbLine
 62
7
  6
CONTINUOUS
 10
17.9399430913
 20
5.5111076168
 11
17.968417808
 21
5.5627174095
  0
LINE
  5
766
100
AcDbEntity
  8
02___PRT_ALL_AXES
100
AcDbLine
 62
7
  6
CONTINUOUS
 10
18.307520099
 20
6.7021476479
 11
18.2505775397
 21
6.6354823697
  0
LWPOLYLINE
  5
767
100
AcDbEntity
  8
02___PRT_ALL_AXES
100
AcDbPolyline
 62
7
  6
CONTINUOUS
 90
3
 70
0
 10
18.2505775397
 20
6.6354823697
 10
18.1790503638
 20
6.573678514
 10
18.0941624212
 20
6.5177935621
  0
LWPOLYLINE
  5
768
100
AcDbEntity
  8
AXIS
100
AcDbPolyline
 62
7
  6
CONTINUOUS
 90
7
 70
0
 10
18.0941624212
 20
6.5177935621
 10
18.1861250303
 20
6.5790676792
 10
18.2620475194
 20
6.6472741608
 10
18.3203843256
 20
6.7210245197
 10
18.3599478797
 20
6.7988174111
 10
18.3799327819
 20
6.8790691963
 10
18.3824306747
 20
6.9196053244
  0
LWPOLYLINE
  5
769
100
AcDbEntity
  8
02___PRT_ALL_AXES
100
AcDbPolyline
 62
7
  6
CONTINUOUS
 90
13
 70
0
 10
18.0941624212
 20
6.5177935621
 10
17.9973661682
 20
6.4687837209
 10
17.8903178154
 20
6.4274875624
 10
17.7748489898
 20
6.3946116754
 10
17.6529353951
 20
6.3707185752
 10
17.5266630067
 20
6.3562170796
 10
17.3981923801
 20
6.3513553132
 10
17.2697216834
 20
6.356216462
 10
17.1434490859
 20
6.3707173506
 10
17.0215351466
 20
6.3946098646
 10
16.9060658469
 20
6.4274851966
 10
16.7990168985
 20
6.4687808405
 10
16.7022199386
 20
6.5177902163
  0
LWPOLYLINE
  5
76A
100
AcDbEntity
  8
0
100
AcDbPolyline
 62
7
  6
CONTINUOUS
 90
17
 70
0
 10
16.7022199386
 20
12.6158417332
 10
16.8083513398
 20
12.5627478552
 10
16.9264901203
 20
12.5189146123
 10
17.0542313151
 20
12.485234323
 10
17.1889744818
 20
12.4623926209
 10
17.3279766382
 20
12.4508544972
 10
17.4684081012
 20
12.4508548348
 10
17.6074100912
 20
12.4623936267
 10
17.7421529284
 20
12.4852359766
 10
17.8698936375
 20
12.51891688
 10
17.9880317857
 20
12.5627506908
 10
18.0941624212
 20
12.615845079
 10
18.1861250303
 20
12.6771191961
 10
18.2620475194
 20
12.7453256778
 10
18.3203843256
 20
12.8190760366
 10
18.3599478797
 20
12.8968689281
 10
18.3799327819
 20
12.9771207132
  0
LWPOLYLINE
  5
76B
100
AcDbEntity
  8
AXIS
100
AcDbPolyline
 62
7
  6
CONTINUOUS
 90
12
 70
0
 10
16.7022199386
 20
12.6158417332
 10
16.8083513398
 20
12.5627478552
 10
16.9264901203
 20
12.5189146123
 10
17.0542313151
 20
12.485234323
 10
17.1889744818
 20
12.4623926209
 10
17.3279766382
 20
12.4508544972
 10
17.4684081012
 20
12.4508548348
 10
17.6074100912
 20
12.4623936267
 10
17.7421529284
 20
12.4852359766
 10
17.8698936375
 20
12.51891688
 10
17.9880317857
 20
12.5627506908
 10
18.0941624212
 20
12.615845079
  0
LWPOLYLINE
  5
76C
100
AcDbEntity
  8
02___PRT_ALL_AXES
100
AcDbPolyline
 62
7
  6
CONTINUOUS
 90
9
 70
0
 10
18.0690382317
 20
5.8486087523
 10
17.9751794057
 20
5.7885317575
 10
17.8696165548
 20
5.7390790619
 10
17.7554912733
 20
5.7008492814
 10
17.6352248906
 20
5.6738965109
 10
17.5109646901
 20
5.6582018753
 10
17.3850924717
 20
5.6537610751
 10
17.2595796491
 20
5.660515605
 10
17.1365510389
 20
5.6784171224
  0
LWPOLYLINE
  5
76D
100
AcDbEntity
  8
02___PRT_ALL_AXES
100
AcDbPolyline
 62
9
  6
CONTINUOUS
 90
8
 70
0
 10
17.8614680079
 20
6.1498099218
 10
17.7524267235
 20
6.1165373653
 10
17.6274606838
 20
6.0912913002
 10
17.4973730776
 20
6.0770803359
 10
17.3650698468
 20
6.0742219218
 10
17.2335064273
 20
6.0827799102
 10
17.1056217282
 20
6.1025631297
 10
16.9842724825
 20
6.1331296559
  0
LWPOLYLINE
  5
76E
100
AcDbEntity
  8
0
100
AcDbPolyline
 62
9
  6
CONTINUOUS
 90
19
 70
0
 10
16.7055412027
 20
12.8374724947
 10
16.7692826628
 20
12.8037844382
 10
16.8343007985
 20
12.7749343223
 10
16.9004995915
 20
12.750265183
 10
16.9680560272
 20
12.7292716561
 10
17.0373726704
 20
12.7115956327
 10
17.1089100683
 20
12.6970550488
 10
17.1823759904
 20
12.685728023
 10
17.2570885208
 20
12.677729744
 10
17.3325960863
 20
12.6731011496
 10
17.4085033528
 20
12.6718632003
 10
17.4843486322
 20
12.674023799
 10
17.5596644384
 20
12.6795688348
 10
17.6339990694
 20
12.6884634839
 10
17.7069081348
 20
12.7006531251
 10
17.7779547961
 20
12.7160633851
 10
17.8467165097
 20
12.7346015203
 10
17.9127857294
 20
12.7561571916
 10
17.9757680008
 20
12.7806018306
  0
LWPOLYLINE
  5
76F
100
AcDbEntity
  8
0
100
AcDbPolyline
 62
9
  6
CONTINUOUS
 90
27
 70
0
 10
16.7612101903
 20
12.9327822948
 10
16.8198189045
 20
12.9018064924
 10
16.8796122039
 20
12.8752740677
 10
16.9404911336
 20
12.8525868043
 10
17.0026184913
 20
12.8332799218
 10
17.0663644774
 20
12.817024029
 10
17.1321527184
 20
12.8036516462
 10
17.1997145726
 20
12.7932345868
 10
17.2684229287
 20
12.7858787886
 10
17.3378624724
 20
12.7816219059
 10
17.4076696329
 20
12.7804832165
 10
17.4774198209
 20
12.78246999
 10
17.5466831095
 20
12.7875692514
 10
17.6150440878
 20
12.7957489761
 10
17.6820940687
 20
12.8069589328
 10
17.7474313106
 20
12.821130725
 10
17.810667218
 20
12.8381790613
 10
17.871426987
 20
12.858002468
 10
17.9293478485
 20
12.8804827047
 10
17.9840818387
 20
12.9054850236
 10
18.0352992821
 20
12.9328590436
 10
18.0826918333
 20
12.9624399721
 10
18.1259759318
 20
12.9940508476
 10
18.1648922755
 20
13.0275026228
 10
18.1992062551
 20
13.0625940004
 10
18.2287111708
 20
13.099113667
 10
18.2532294683
 20
13.1368414705
  0
LWPOLYLINE
  5
770
100
AcDbEntity
  8
02___PRT_ALL_AXES
100
AcDbPolyline
 62
7
  6
CONTINUOUS
 90
4
 70
0
 10
17.7229193072
 20
5.6446555854
 10
17.6988253682
 20
5.633502167
 10
17.6224877799
 20
5.608327681
 10
17.5408466655
 20
5.5904230729
  0
LWPOLYLINE
  5
771
100
AcDbEntity
  8
02___PRT_ALL_AXES
100
AcDbPolyline
 62
7
  6
CONTINUOUS
 90
5
 70
0
 10
17.7049717391
 20
5.6368307381
 10
17.779247717
 20
5.6692138545
 10
17.8441846115
 20
5.7079076036
 10
17.8981909357
 20
5.7519931454
 10
17.8988737187
 20
5.7527850731
  0
LWPOLYLINE
  5
772
100
AcDbEntity
  8
02___PRT_ALL_AXES
100
AcDbPolyline
 62
7
  6
CONTINUOUS
 90
3
 70
0
 10
17.7078802793
 20
5.590089004
 10
17.6823809348
 20
5.5790701333
 10
17.6028559304
 20
5.5550232792
  0
LWPOLYLINE
  5
773
100
AcDbEntity
  8
02___PRT_ALL_AXES
100
AcDbPolyline
 62
7
  6
CONTINUOUS
 90
7
 70
0
 10
17.7456718392
 20
5.5581380253
 10
17.6821587757
 20
5.5307707348
 10
17.6025429947
 20
5.5067277509
 10
17.5163065317
 20
5.4901835966
 10
17.4264613028
 20
5.4819459638
 10
17.3366479209
 20
5.4822642835
 10
17.2495080001
 20
5.490833291
  0
LWPOLYLINE
  5
774
100
AcDbEntity
  8
02___PRT_ALL_AXES
100
AcDbPolyline
 62
7
  6
CONTINUOUS
 90
7
 70
0
 10
17.7256687695
 20
5.694165792
 10
17.6814967564
 20
5.6751865327
 10
17.6019553224
 20
5.6512396614
 10
17.5158007581
 20
5.6347684067
 10
17.42606522
 20
5.6265847189
 10
17.3363873384
 20
5.6269335119
 10
17.2492570612
 20
5.6355262243
  0
LWPOLYLINE
  5
775
100
AcDbEntity
  8
02___PRT_ALL_AXES
100
AcDbPolyline
 62
7
  6
CONTINUOUS
 90
5
 70
0
 10
17.6231770486
 20
5.6175497626
 10
17.7049717391
 20
5.6428580689
 10
17.779247717
 20
5.6752411853
 10
17.8441846115
 20
5.7139349344
 10
17.8822200278
 20
5.7449833711
  0
LINE
  5
776
100
AcDbEntity
  8
02___PRT_ALL_AXES
100
AcDbLine
 62
7
  6
CONTINUOUS
 10
17.6231770486
 20
5.6115224318
 11
17.7049717391
 21
5.6368307381
  0
LWPOLYLINE
  5
777
100
AcDbEntity
  8
02___PRT_ALL_AXES
100
AcDbPolyline
 62
7
  6
CONTINUOUS
 90
7
 70
0
 10
17.7034849319
 20
5.3952774678
 10
17.6833244426
 20
5.3865394266
 10
17.6037379565
 20
5.3623660836
 10
17.5175329353
 20
5.3457013336
 10
17.4276686312
 20
5.3373434254
 10
17.337776844
 20
5.3375516091
 10
17.2507163093
 20
5.3460002497
  0
LWPOLYLINE
  5
778
100
AcDbEntity
  8
02___PRT_ALL_AXES
100
AcDbPolyline
 62
7
  6
CONTINUOUS
 90
7
 70
0
 10
17.7030383618
 20
5.4915765868
 10
17.6819361381
 20
5.4824712458
 10
17.6025702452
 20
5.4585157939
 10
17.5174473409
 20
5.4421264503
 10
17.4284234831
 20
5.4338148869
 10
17.3390003302
 20
5.4339289467
 10
17.2516155306
 20
5.4423068472
  0
LWPOLYLINE
  5
779
100
AcDbEntity
  8
02___PRT_ALL_AXES
100
AcDbPolyline
 62
7
  6
CONTINUOUS
 90
7
 70
0
 10
17.7030910826
 20
5.3469369592
 10
17.6820375845
 20
5.3378521318
 10
17.6025023833
 20
5.3138431963
 10
17.5164588752
 20
5.2973304915
 10
17.4268177049
 20
5.2890869815
 10
17.3372111335
 20
5.2893612228
 10
17.2500318852
 20
5.2978817099
  0
LWPOLYLINE
  5
77A
100
AcDbEntity
  8
02___PRT_ALL_AXES
100
AcDbPolyline
 62
7
  6
CONTINUOUS
 90
7
 70
0
 10
17.7461371871
 20
5.4619036161
 10
17.681027202
 20
5.4339234186
 10
17.6014341776
 20
5.410019084
 10
17.5160866733
 20
5.3937153478
 10
17.4280229206
 20
5.3855780341
 10
17.3395242889
 20
5.3856851107
 10
17.2522160603
 20
5.3940014408
  0
LWPOLYLINE
  5
77B
100
AcDbEntity
  8
0
100
AcDbPolyline
 62
7
  6
CONTINUOUS
 90
18
 70
0
 10
18.0745357851
 20
13.6721966836
 10
17.9704830178
 20
13.7243519039
 10
17.8560817053
 20
13.7670222024
 10
17.7335531675
 20
13.7996539653
 10
17.6052030544
 20
13.8218451946
 10
17.4734474549
 20
13.8333428898
 10
17.3404317598
 20
13.834054834
 10
17.2084985607
 20
13.8239879455
 10
17.0798852992
 20
13.8032711766
 10
16.9567634527
 20
13.7721306217
 10
16.8415318731
 20
13.7309922894
 10
16.7361843608
 20
13.6803103859
 10
16.6429443256
 20
13.6208120501
 10
16.5642426615
 20
13.5538314735
 10
16.5017461193
 20
13.4808850918
 10
16.4566088769
 20
13.4039507932
 10
16.4289664994
 20
13.3245175744
 10
16.4187079223
 20
13.2443501451
  0
LWPOLYLINE
  5
77C
100
AcDbEntity
  8
0
100
AcDbPolyline
 62
9
  6
CONTINUOUS
 90
34
 70
0
 10
18.0351663743
 20
13.6682968502
 10
17.9765576601
 20
13.6992726526
 10
17.9167643607
 20
13.7258050773
 10
17.855885431
 20
13.7484923406
 10
17.7937580733
 20
13.7677992231
 10
17.7300120872
 20
13.784055116
 10
17.6642238462
 20
13.7974274988
 10
17.596661992
 20
13.8078445581
 10
17.5279536359
 20
13.8152003564
 10
17.4585140922
 20
13.8194572391
 10
17.3887069317
 20
13.8205959285
 10
17.3189567437
 20
13.8186091549
 10
17.2496934551
 20
13.8135098936
 10
17.1813324768
 20
13.8053301689
 10
17.1142824959
 20
13.7941202122
 10
17.048945254
 20
13.77994842
 10
16.9857093466
 20
13.7629000837
 10
16.9249495776
 20
13.7430766769
 10
16.8670287161
 20
13.7205964403
 10
16.8122947258
 20
13.6955941214
 10
16.7610772824
 20
13.6682201014
 10
16.7136847313
 20
13.6386391729
 10
16.6704006328
 20
13.6070282974
 10
16.6314842891
 20
13.5735765221
 10
16.5971703095
 20
13.5384851445
 10
16.5676653938
 20
13.5019654779
 10
16.5431470963
 20
13.4642376745
 10
16.5237613912
 20
13.4255265128
 10
16.5096237017
 20
13.3860601194
 10
16.5008205784
 20
13.3460732913
 10
16.4974076785
 20
13.3058068702
 10
16.4994072477
 20
13.2655087393
 10
16.5068066018
 20
13.2254237815
 10
16.5195716586
 20
13.1857635175
  0
LINE
  5
77D
100
AcDbEntity
  8
02___PRT_ALL_AXES
100
AcDbLine
 62
7
  6
CONTINUOUS
 10
5.5419183758
 20
3.1048699182
 11
5.5419183758
 21
3.1967049375
  0
LINE
  5
77E
100
AcDbEntity
  8
02___PRT_ALL_AXES
100
AcDbLine
 62
7
  6
CONTINUOUS
 10
5.5419183758
 20
3.1967049375
 11
5.5562511258
 21
3.2874146009
  0
LINE
  5
77F
100
AcDbEntity
  8
02___PRT_ALL_AXES
100
AcDbLine
 62
7
  6
CONTINUOUS
 10
5.5562511258
 20
3.2874146009
 11
5.5845653558
 21
3.3747757772
  0
LINE
  5
780
100
AcDbEntity
  8
02___PRT_ALL_AXES
100
AcDbLine
 62
7
  6
CONTINUOUS
 10
5.5845653558
 20
3.3747757772
 11
5.6261671348
 21
3.4566474008
  0
LINE
  5
781
100
AcDbEntity
  8
02___PRT_ALL_AXES
100
AcDbLine
 62
7
  6
CONTINUOUS
 10
5.6261671348
 20
3.4566474008
 11
5.6800368778
 21
3.5310229448
  0
LINE
  5
782
100
AcDbEntity
  8
02___PRT_ALL_AXES
100
AcDbLine
 62
7
  6
CONTINUOUS
 10
5.6800368778
 20
3.5310229448
 11
5.7448543339
 21
3.5960795981
  0
LINE
  5
783
100
AcDbEntity
  8
02___PRT_ALL_AXES
100
AcDbLine
 62
7
  6
CONTINUOUS
 10
5.7448543339
 20
3.5960795981
 11
5.8190309436
 21
3.6502229388
  0
LINE
  5
784
100
AcDbEntity
  8
02___PRT_ALL_AXES
100
AcDbLine
 62
7
  6
CONTINUOUS
 10
5.8190309436
 20
3.6502229388
 11
5.9007487711
 21
3.6921260105
  0
LINE
  5
785
100
AcDbEntity
  8
0
100
AcDbLine
 62
9
  6
CONTINUOUS
 10
6.0193634664
 20
2.5700787664
 11
6.2341018939
 21
2.5700787664
  0
LINE
  5
786
100
AcDbEntity
  8
02___PRT_ALL_AXES
100
AcDbLine
 62
7
  6
CONTINUOUS
 10
5.9007487711
 20
2.6094488452
 11
5.8190309436
 21
2.6513519169
  0
LINE
  5
787
100
AcDbEntity
  8
02___PRT_ALL_AXES
100
AcDbLine
 62
7
  6
CONTINUOUS
 10
5.8190309436
 20
2.6513519169
 11
5.7448543339
 21
2.7054952576
  0
LINE
  5
788
100
AcDbEntity
  8
02___PRT_ALL_AXES
100
AcDbLine
 62
7
  6
CONTINUOUS
 10
5.7448543339
 20
2.7054952576
 11
5.6800368778
 21
2.7705519109
  0
LINE
  5
789
100
AcDbEntity
  8
02___PRT_ALL_AXES
100
AcDbLine
 62
7
  6
CONTINUOUS
 10
5.6800368778
 20
2.7705519109
 11
5.6261671348
 21
2.8449274549
  0
LINE
  5
78A
100
AcDbEntity
  8
02___PRT_ALL_AXES
100
AcDbLine
 62
7
  6
CONTINUOUS
 10
5.6261671348
 20
2.8449274549
 11
5.5845653558
 21
2.9267990784
  0
LINE
  5
78B
100
AcDbEntity
  8
02___PRT_ALL_AXES
100
AcDbLine
 62
7
  6
CONTINUOUS
 10
5.5845653558
 20
2.9267990784
 11
5.5562511258
 21
3.0141602548
  0
LINE
  5
78C
100
AcDbEntity
  8
02___PRT_ALL_AXES
100
AcDbLine
 62
7
  6
CONTINUOUS
 10
5.5562511258
 20
3.0141602548
 11
5.5419183758
 21
3.1048699182
  0
LINE
  5
78D
100
AcDbEntity
  8
02___PRT_ALL_AXES
100
AcDbLine
 62
7
  6
CONTINUOUS
 10
5.9007487711
 20
2.6094488452
 11
6.0230353007
 21
2.6094488452
  0
LINE
  5
78E
100
AcDbEntity
  8
0
100
AcDbLine
 62
7
  6
CONTINUOUS
 10
6.0230353007
 20
2.6094488452
 11
6.2304300596
 21
2.6094488452
  0
LINE
  5
78F
100
AcDbEntity
  8
02___PRT_ALL_AXES
100
AcDbLine
 62
7
  6
CONTINUOUS
 10
6.2304300596
 20
2.6094488452
 11
6.3527165892
 21
2.6094488452
  0
LINE
  5
790
100
AcDbEntity
  8
0
100
AcDbLine
 62
9
  6
CONTINUOUS
 10
6.0268420151
 20
2.6488189239
 11
6.2266233452
 21
2.6488189239
  0
LWPOLYLINE
  5
791
100
AcDbEntity
  8
0
100
AcDbPolyline
 62
7
  6
CONTINUOUS
 90
22
 70
0
 10
6.1267326802
 20
2.770866168
 10
6.0811634413
 20
2.7712391495
 10
6.0357792998
 20
2.7770741655
 10
5.9914032927
 20
2.788266973
 10
5.9489286714
 20
2.8045066855
 10
5.908250783
 20
2.8258294469
 10
5.8685644364
 20
2.8531672211
 10
5.8297414973
 20
2.8879626154
 10
5.7923898316
 20
2.9322121888
 10
5.7591249103
 20
2.9866618723
 10
5.7339155997
 20
3.0487723932
 10
5.7191514122
 20
3.1151711023
 10
5.715623449
 20
3.1836741061
 10
5.7235719243
 20
3.2521144126
 10
5.7429150982
 20
3.31878688
 10
5.7733465544
 20
3.3819103893
 10
5.8135323856
 20
3.4387944362
 10
5.8620674576
 20
3.48800671
 10
5.9180997053
 20
3.5288993807
 10
5.9799225728
 20
3.5602667775
 10
6.0464666706
 20
3.5815252716
 10
6.1158175471
 20
3.5919455563
  0
LWPOLYLINE
  5
792
100
AcDbEntity
  8
0
100
AcDbPolyline
 62
7
  6
CONTINUOUS
 90
4
 70
0
 10
6.0237542774
 20
3.6845773803
 10
6.0245912878
 20
3.675855661
 10
6.0256535059
 20
3.6648897407
 10
6.0268420151
 20
3.6527559318
  0
LWPOLYLINE
  5
793
100
AcDbEntity
  8
0
100
AcDbPolyline
 62
7
  6
CONTINUOUS
 90
6
 70
0
 10
6.0237542774
 20
3.6845773803
 10
6.0228517202
 20
3.6940618628
 10
6.0223216538
 20
3.6996706195
 10
6.0215029273
 20
3.7083898531
 10
6.0204821191
 20
3.7193565998
 10
6.0193634664
 20
3.7314960893
  0
LWPOLYLINE
  5
794
100
AcDbEntity
  8
0
100
AcDbPolyline
 62
7
  6
CONTINUOUS
 90
4
 70
0
 10
6.0223216538
 20
2.6019042361
 10
6.0215029273
 20
2.5931850026
 10
6.0204821191
 20
2.5822182559
 10
6.0193634664
 20
2.5700787664
  0
LWPOLYLINE
  5
795
100
AcDbEntity
  8
0
100
AcDbPolyline
 62
7
  6
CONTINUOUS
 90
6
 70
0
 10
6.0223216538
 20
2.6019042361
 10
6.0232193179
 20
2.6113858666
 10
6.0237542774
 20
2.6169974754
 10
6.0245912878
 20
2.6257191947
 10
6.0256535059
 20
2.636685115
 10
6.0268420151
 20
2.6488189239
  0
LINE
  5
796
100
AcDbEntity
  8
AXIS_COSMETIC_THREADS
100
AcDbLine
 62
7
  6
CONTINUOUS
 10
6.1590929486
 20
3.2658921751
 11
6.1583409361
 21
3.2645896513
  0
LINE
  5
797
100
AcDbEntity
  8
AXIS_COSMETIC_THREADS
100
AcDbLine
 62
7
  6
CONTINUOUS
 10
6.0439811917
 20
3.0665127635
 11
6.0431223024
 21
3.0650251237
  0
LINE
  5
798
100
AcDbEntity
  8
AXIS_COSMETIC_THREADS
100
AcDbLine
 62
7
  6
CONTINUOUS
 10
6.0106147205
 20
3.1212598688
 11
6.0123729357
 21
3.1212598688
  0
LINE
  5
799
100
AcDbEntity
  8
AXIS_COSMETIC_THREADS
100
AcDbLine
 62
7
  6
CONTINUOUS
 10
6.2410924246
 20
3.1212598688
 11
6.2428506398
 21
3.1212598688
  0
LINE
  5
79A
100
AcDbEntity
  8
AXIS_COSMETIC_THREADS
100
AcDbLine
 62
7
  6
CONTINUOUS
 10
6.0431223024
 20
3.236549732
 11
6.0439811917
 21
3.2350620922
  0
LINE
  5
79B
100
AcDbEntity
  8
AXIS_COSMETIC_THREADS
100
AcDbLine
 62
7
  6
CONTINUOUS
 10
6.1583409361
 20
3.0369852044
 11
6.1590929486
 21
3.0356826806
  0
LWPOLYLINE
  5
79C
100
AcDbEntity
  8
0
100
AcDbPolyline
 62
7
  6
CONTINUOUS
 90
4
 70
0
 10
6.2297110829
 20
2.6169974754
 10
6.2288740725
 20
2.6257191947
 10
6.2278118544
 20
2.636685115
 10
6.2266233452
 20
2.6488189239
  0
LWPOLYLINE
  5
79D
100
AcDbEntity
  8
0
100
AcDbPolyline
 62
7
  6
CONTINUOUS
 90
6
 70
0
 10
6.2341018939
 20
2.5700787664
 10
6.2329832412
 20
2.5822182559
 10
6.231962433
 20
2.5931850026
 10
6.2311437065
 20
2.6019042361
 10
6.2306136401
 20
2.6075129929
 10
6.2297110829
 20
2.6169974754
  0
LWPOLYLINE
  5
79E
100
AcDbEntity
  8
0
100
AcDbPolyline
 62
7
  6
CONTINUOUS
 90
4
 70
0
 10
6.2311437065
 20
3.6996706195
 10
6.231962433
 20
3.7083898531
 10
6.2329832412
 20
3.7193565998
 10
6.2341018939
 20
3.7314960893
  0
LWPOLYLINE
  5
79F
100
AcDbEntity
  8
0
100
AcDbPolyline
 62
7
  6
CONTINUOUS
 90
6
 70
0
 10
6.2311437065
 20
3.6996706195
 10
6.2302460424
 20
3.6901889891
 10
6.2297110829
 20
3.6845773803
 10
6.2288740725
 20
3.675855661
 10
6.2278118544
 20
3.6648897407
 10
6.2266233452
 20
3.6527559318
  0
LINE
  5
7A0
100
AcDbEntity
  8
AXIS_COSMETIC_THREADS
100
AcDbLine
 62
7
  6
CONTINUOUS
 10
6.0943724117
 20
3.0356826806
 11
6.0951244242
 21
3.0369852044
  0
LINE
  5
7A1
100
AcDbEntity
  8
AXIS_COSMETIC_THREADS
100
AcDbLine
 62
7
  6
CONTINUOUS
 10
6.2094841686
 20
3.2350620922
 11
6.2103430579
 21
3.236549732
  0
LINE
  5
7A2
100
AcDbEntity
  8
AXIS_COSMETIC_THREADS
100
AcDbLine
 62
7
  6
CONTINUOUS
 10
6.2428506398
 20
3.1803149869
 11
6.2410924246
 21
3.1803149869
  0
LINE
  5
7A3
100
AcDbEntity
  8
AXIS_COSMETIC_THREADS
100
AcDbLine
 62
7
  6
CONTINUOUS
 10
6.0123729357
 20
3.1803149869
 11
6.0106147205
 21
3.1803149869
  0
LINE
  5
7A4
100
AcDbEntity
  8
AXIS_COSMETIC_THREADS
100
AcDbLine
 62
7
  6
CONTINUOUS
 10
6.2103430579
 20
3.0650251237
 11
6.2094841686
 21
3.0665127635
  0
LINE
  5
7A5
100
AcDbEntity
  8
AXIS_COSMETIC_THREADS
100
AcDbLine
 62
7
  6
CONTINUOUS
 10
6.0951244242
 20
3.2645896513
 11
6.0943724117
 21
3.2658921751
  0
LWPOLYLINE
  5
7A6
100
AcDbEntity
  8
0
100
AcDbPolyline
 62
7
  6
CONTINUOUS
 90
19
 70
0
 10
6.1158175471
 20
3.5919455563
 10
6.1901210633
 20
3.5841217584
 10
6.2614746176
 20
3.5639713242
 10
6.3281809188
 20
3.5320781782
 10
6.3879554967
 20
3.489667814
 10
6.4396368819
 20
3.4376315741
 10
6.4812359238
 20
3.3780634506
 10
6.5117786125
 20
3.3127322438
 10
6.530603881
 20
3.243181381
 10
6.5370770931
 20
3.1722964429
 10
6.5312388317
 20
3.1015512844
 10
6.5133321037
 20
3.0332706561
 10
6.4842017576
 20
2.9698544515
 10
6.4444726941
 20
2.9124342335
 10
6.3958393894
 20
2.8633316687
 10
6.339858843
 20
2.8237899167
 10
6.2779431299
 20
2.7947092634
 10
6.2127258225
 20
2.7771542298
 10
6.1455211997
 20
2.7713310335
  0
LINE
  5
7A7
100
AcDbEntity
  8
0
100
AcDbLine
 62
9
  6
CONTINUOUS
 10
6.2266233452
 20
3.6527559318
 11
6.0268420151
 21
3.6527559318
  0
LINE
  5
7A8
100
AcDbEntity
  8
02___PRT_ALL_AXES
100
AcDbLine
 62
7
  6
CONTINUOUS
 10
6.3527165892
 20
3.6921260105
 11
6.2304300596
 21
3.6921260105
  0
LINE
  5
7A9
100
AcDbEntity
  8
0
100
AcDbLine
 62
7
  6
CONTINUOUS
 10
6.2304300596
 20
3.6921260105
 11
6.0230353007
 21
3.6921260105
  0
LINE
  5
7AA
100
AcDbEntity
  8
02___PRT_ALL_AXES
100
AcDbLine
 62
7
  6
CONTINUOUS
 10
6.0230353007
 20
3.6921260105
 11
5.9007487711
 21
3.6921260105
  0
LINE
  5
7AB
100
AcDbEntity
  8
02___PRT_ALL_AXES
100
AcDbLine
 62
7
  6
CONTINUOUS
 10
6.7115469845
 20
3.1967049375
 11
6.7115469845
 21
3.1048699182
  0
LINE
  5
7AC
100
AcDbEntity
  8
02___PRT_ALL_AXES
100
AcDbLine
 62
7
  6
CONTINUOUS
 10
6.7115469845
 20
3.1048699182
 11
6.6972142345
 21
3.0141602548
  0
LINE
  5
7AD
100
AcDbEntity
  8
02___PRT_ALL_AXES
100
AcDbLine
 62
7
  6
CONTINUOUS
 10
6.6972142345
 20
3.0141602548
 11
6.6689000045
 21
2.9267990784
  0
LINE
  5
7AE
100
AcDbEntity
  8
02___PRT_ALL_AXES
100
AcDbLine
 62
7
  6
CONTINUOUS
 10
6.6689000045
 20
2.9267990784
 11
6.6272982255
 21
2.8449274549
  0
LINE
  5
7AF
100
AcDbEntity
  8
02___PRT_ALL_AXES
100
AcDbLine
 62
7
  6
CONTINUOUS
 10
6.6272982255
 20
2.8449274549
 11
6.5734284825
 21
2.7705519109
  0
LINE
  5
7B0
100
AcDbEntity
  8
02___PRT_ALL_AXES
100
AcDbLine
 62
7
  6
CONTINUOUS
 10
6.5734284825
 20
2.7705519109
 11
6.5086110264
 21
2.7054952576
  0
LINE
  5
7B1
100
AcDbEntity
  8
02___PRT_ALL_AXES
100
AcDbLine
 62
7
  6
CONTINUOUS
 10
6.5086110264
 20
2.7054952576
 11
6.4344344167
 21
2.6513519169
  0
LINE
  5
7B2
100
AcDbEntity
  8
02___PRT_ALL_AXES
100
AcDbLine
 62
7
  6
CONTINUOUS
 10
6.4344344167
 20
2.6513519169
 11
6.3527165892
 21
2.6094488452
  0
LINE
  5
7B3
100
AcDbEntity
  8
0
100
AcDbLine
 62
9
  6
CONTINUOUS
 10
6.2341018939
 20
3.7314960893
 11
6.0193634664
 21
3.7314960893
  0
LINE
  5
7B4
100
AcDbEntity
  8
02___PRT_ALL_AXES
100
AcDbLine
 62
7
  6
CONTINUOUS
 10
6.3527165892
 20
3.6921260105
 11
6.4344344167
 21
3.6502229388
  0
LINE
  5
7B5
100
AcDbEntity
  8
02___PRT_ALL_AXES
100
AcDbLine
 62
7
  6
CONTINUOUS
 10
6.4344344167
 20
3.6502229388
 11
6.5086110264
 21
3.5960795981
  0
LINE
  5
7B6
100
AcDbEntity
  8
02___PRT_ALL_AXES
100
AcDbLine
 62
7
  6
CONTINUOUS
 10
6.5086110264
 20
3.5960795981
 11
6.5734284825
 21
3.5310229448
  0
LINE
  5
7B7
100
AcDbEntity
  8
02___PRT_ALL_AXES
100
AcDbLine
 62
7
  6
CONTINUOUS
 10
6.5734284825
 20
3.5310229448
 11
6.6272982255
 21
3.4566474008
  0
LINE
  5
7B8
100
AcDbEntity
  8
02___PRT_ALL_AXES
100
AcDbLine
 62
7
  6
CONTINUOUS
 10
6.6272982255
 20
3.4566474008
 11
6.6689000045
 21
3.3747757772
  0
LINE
  5
7B9
100
AcDbEntity
  8
02___PRT_ALL_AXES
100
AcDbLine
 62
7
  6
CONTINUOUS
 10
6.6689000045
 20
3.3747757772
 11
6.6972142345
 21
3.2874146009
  0
LINE
  5
7BA
100
AcDbEntity
  8
02___PRT_ALL_AXES
100
AcDbLine
 62
7
  6
CONTINUOUS
 10
6.6972142345
 20
3.2874146009
 11
6.7115469845
 21
3.1967049375
  0
CIRCLE
  5
7BB
100
AcDbEntity
  8
0
100
AcDbCircle
 62
7
  6
CONTINUOUS
 10
15.2229827477
 20
1.1139932523
 40
0.252091
  0
CIRCLE
  5
7BC
100
AcDbEntity
  8
0
100
AcDbCircle
 62
7
  6
CONTINUOUS
 10
15.2229827477
 20
1.1139932523
 40
0.182698
  0
ARC
  5
7BD
100
AcDbEntity
  8
02___PRT_ALL_AXES
100
AcDbCircle
 62
7
  6
CONTINUOUS
 10
5.3983862235
 20
6.9395184923
 40
0.157480315
100
AcDbArc
 50
180.0
 51
270.0
  0
ARC
  5
7BE
100
AcDbEntity
  8
02___PRT_ALL_AXES
100
AcDbCircle
 62
7
  6
CONTINUOUS
 10
6.8550791368
 20
6.9395184923
 40
0.157480315
100
AcDbArc
 50
270.0
 51
360.0
  0
ARC
  5
7BF
100
AcDbEntity
  8
0
100
AcDbCircle
 62
7
  6
CONTINUOUS
 10
7.0275594873
 20
15.5182586498
 40
0.0787401575
100
AcDbArc
 50
1.0000000028
 51
90.0
  0
ARC
  5
7C0
100
AcDbEntity
  8
0
100
AcDbCircle
 62
7
  6
CONTINUOUS
 10
5.225905873
 20
15.5182586498
 40
0.0787401575
100
AcDbArc
 50
90.0
 51
178.9999999972
  0
ARC
  5
7C1
100
AcDbEntity
  8
02___PRT_ALL_AXES
100
AcDbCircle
 62
7
  6
CONTINUOUS
 10
5.1818507904
 20
7.3725893585
 40
0.0590551181
100
AcDbArc
 50
0.0
 51
90.0
  0
ARC
  5
7C2
100
AcDbEntity
  8
02___PRT_ALL_AXES
100
AcDbCircle
 62
7
  6
CONTINUOUS
 10
7.0716145699
 20
7.3725893585
 40
0.0590551181
100
AcDbArc
 50
90.0
 51
180.0
  0
ARC
  5
7C3
100
AcDbEntity
  8
02___PRT_ALL_AXES
100
AcDbCircle
 62
7
  6
CONTINUOUS
 10
5.1818507904
 20
7.4710145553
 40
0.0393700787
100
AcDbArc
 50
180.0
 51
270.0
  0
ARC
  5
7C4
100
AcDbEntity
  8
02___PRT_ALL_AXES
100
AcDbCircle
 62
7
  6
CONTINUOUS
 10
7.0716145699
 20
7.4710145553
 40
0.0393700787
100
AcDbArc
 50
270.0
 51
360.0
  0
ARC
  5
7C5
100
AcDbEntity
  8
0
100
AcDbCircle
 62
7
  6
CONTINUOUS
 10
6.6385437038
 20
6.0733767601
 40
0.0393700787
100
AcDbArc
 50
270.0
 51
360.0
  0
ARC
  5
7C6
100
AcDbEntity
  8
0
100
AcDbCircle
 62
7
  6
CONTINUOUS
 10
5.6149216565
 20
6.0733767601
 40
0.0393700787
100
AcDbArc
 50
180.0
 51
270.0
  0
ARC
  5
7C7
100
AcDbEntity
  8
0
100
AcDbCircle
 62
7
  6
CONTINUOUS
 10
5.536181499
 20
6.7426680986
 40
0.0393700787
100
AcDbArc
 50
0.0
 51
90.0
  0
ARC
  5
7C8
100
AcDbEntity
  8
0
100
AcDbCircle
 62
7
  6
CONTINUOUS
 10
6.7172838613
 20
6.7426680986
 40
0.0393700787
100
AcDbArc
 50
90.0
 51
180.0
  0
CIRCLE
  5
7C9
100
AcDbEntity
  8
AXIS_COSMETIC_THREADS
100
AcDbCircle
 62
7
  6
CONTINUOUS
 10
5.9298822864
 20
3.1507874278
 40
0.0255905512
  0
CIRCLE
  5
7CA
100
AcDbEntity
  8
AXIS_COSMETIC_THREADS
100
AcDbCircle
 62
7
  6
CONTINUOUS
 10
6.1267326802
 20
2.9539370341
 40
0.0255905512
  0
ARC
  5
7CB
100
AcDbEntity
  8
AXIS
100
AcDbCircle
 62
7
  6
CONTINUOUS
 10
6.1267326802
 20
3.1507874278
 40
0.9842519685
100
AcDbArc
 50
270.0
 51
90.0
  0
CIRCLE
  5
7CC
100
AcDbEntity
  8
02___PRT_ALL_AXES
100
AcDbCircle
 62
7
  6
CONTINUOUS
 10
6.1267326802
 20
3.1507874278
 40
0.9842519685
  0
CIRCLE
  5
7CD
100
AcDbEntity
  8
02___PRT_ALL_AXES
100
AcDbCircle
 62
9
  6
CONTINUOUS
 10
6.1267326802
 20
3.1507874278
 40
0.9448818898
  0
CIRCLE
  5
7CE
100
AcDbEntity
  8
02___PRT_ALL_AXES
100
AcDbCircle
 62
7
  6
CONTINUOUS
 10
6.1267326802
 20
3.1507874278
 40
0.8858267717
  0
CIRCLE
  5
7CF
100
AcDbEntity
  8
02___PRT_ALL_AXES
100
AcDbCircle
 62
9
  6
CONTINUOUS
 10
6.1267326802
 20
3.1507874278
 40
0.7283464567
  0
ARC
  5
7D0
100
AcDbEntity
  8
0
100
AcDbCircle
 62
9
  6
CONTINUOUS
 10
6.1267326802
 20
3.1507874278
 40
0.5905511811
100
AcDbArc
 50
100.4753138432
 51
259.5246861568
  0
ARC
  5
7D1
100
AcDbEntity
  8
0
100
AcDbCircle
 62
9
  6
CONTINUOUS
 10
6.1267326802
 20
3.1507874278
 40
0.5905511811
100
AcDbArc
 50
280.4753138432
 51
79.5246861568
  0
ARC
  5
7D2
100
AcDbEntity
  8
0
100
AcDbCircle
 62
7
  6
CONTINUOUS
 10
6.1267326802
 20
3.1507874278
 40
0.5511811024
100
AcDbArc
 50
280.8440625637
 51
79.1559374363
  0
ARC
  5
7D3
100
AcDbEntity
  8
0
100
AcDbCircle
 62
7
  6
CONTINUOUS
 10
6.1267326802
 20
3.1507874278
 40
0.5511811024
100
AcDbArc
 50
100.8440625637
 51
259.1559374363
  0
ARC
  5
7D4
100
AcDbEntity
  8
0
100
AcDbCircle
 62
9
  6
CONTINUOUS
 10
6.1267326802
 20
3.1507874278
 40
0.5118110236
100
AcDbArc
 50
101.2547126182
 51
258.7452873818
  0
ARC
  5
7D5
100
AcDbEntity
  8
0
100
AcDbCircle
 62
9
  6
CONTINUOUS
 10
6.1267326802
 20
3.1507874278
 40
0.5118110236
100
AcDbArc
 50
281.2547126182
 51
78.7452873818
  0
CIRCLE
  5
7D6
100
AcDbEntity
  8
0
100
AcDbCircle
 62
7
  6
CONTINUOUS
 10
6.1267326802
 20
3.1507874278
 40
0.3799212598
  0
CIRCLE
  5
7D7
100
AcDbEntity
  8
0
100
AcDbCircle
 62
7
  6
CONTINUOUS
 10
6.1267326802
 20
3.1507874278
 40
0.3208224134
  0
CIRCLE
  5
7D8
100
AcDbEntity
  8
0
100
AcDbCircle
 62
7
  6
CONTINUOUS
 10
6.1267326802
 20
3.1507874278
 40
0.3090551181
  0
CIRCLE
  5
7D9
100
AcDbEntity
  8
0
100
AcDbCircle
 62
7
  6
CONTINUOUS
 10
6.1267326802
 20
3.1507874278
 40
0.2952755906
  0
CIRCLE
  5
7DA
100
AcDbEntity
  8
0
100
AcDbCircle
 62
7
  6
CONTINUOUS
 10
6.1267326802
 20
3.1507874278
 40
0.292807021
  0
CIRCLE
  5
7DB
100
AcDbEntity
  8
0
100
AcDbCircle
 62
9
  6
CONTINUOUS
 10
6.1267326802
 20
3.1507874278
 40
0.277559055
  0
CIRCLE
  5
7DC
100
AcDbEntity
  8
0
100
AcDbCircle
 62
7
  6
CONTINUOUS
 10
6.1267326802
 20
3.1507874278
 40
0.1358267717
  0
CIRCLE
  5
7DD
100
AcDbEntity
  8
0
100
AcDbCircle
 62
7
  6
CONTINUOUS
 10
6.1267326802
 20
3.1507874278
 40
0.1200787402
  0
ARC
  5
7DE
100
AcDbEntity
  8
AXIS_COSMETIC_THREADS
100
AcDbCircle
 62
7
  6
CONTINUOUS
 10
6.1267326802
 20
3.1507874278
 40
0.1181102362
100
AcDbArc
 50
14.4775121859
 51
45.5224878141
  0
ARC
  5
7DF
100
AcDbEntity
  8
AXIS_COSMETIC_THREADS
100
AcDbCircle
 62
7
  6
CONTINUOUS
 10
6.1267326802
 20
3.1507874278
 40
0.1181102362
100
AcDbArc
 50
314.4775121859
 51
345.5224878141
  0
ARC
  5
7E0
100
AcDbEntity
  8
AXIS_COSMETIC_THREADS
100
AcDbCircle
 62
7
  6
CONTINUOUS
 10
6.1267326802
 20
3.1507874278
 40
0.1181102362
100
AcDbArc
 50
194.4775121859
 51
225.5224878141
  0
ARC
  5
7E1
100
AcDbEntity
  8
AXIS_COSMETIC_THREADS
100
AcDbCircle
 62
7
  6
CONTINUOUS
 10
6.1267326802
 20
3.1507874278
 40
0.1181102362
100
AcDbArc
 50
134.4775121859
 51
165.5224878141
  0
ARC
  5
7E2
100
AcDbEntity
  8
AXIS_COSMETIC_THREADS
100
AcDbCircle
 62
7
  6
CONTINUOUS
 10
6.1267326802
 20
3.1507874278
 40
0.1181102362
100
AcDbArc
 50
74.4775121859
 51
105.5224878141
  0
ARC
  5
7E3
100
AcDbEntity
  8
AXIS_COSMETIC_THREADS
100
AcDbCircle
 62
7
  6
CONTINUOUS
 10
6.1267326802
 20
3.1507874278
 40
0.1181102362
100
AcDbArc
 50
254.4775121859
 51
285.5224878141
  0
CIRCLE
  5
7E4
100
AcDbEntity
  8
02___PRT_ALL_AXES
100
AcDbCircle
 62
7
  6
CONTINUOUS
 10
6.1267326802
 20
3.1507874278
 40
0.1075
  0
CIRCLE
  5
7E5
100
AcDbEntity
  8
AXIS_COSMETIC_THREADS
100
AcDbCircle
 62
7
  6
CONTINUOUS
 10
6.1267326802
 20
3.3476378215
 40
0.0255905512
  0
CIRCLE
  5
7E6
100
AcDbEntity
  8
AXIS_COSMETIC_THREADS
100
AcDbCircle
 62
7
  6
CONTINUOUS
 10
6.3235830739
 20
3.1507874278
 40
0.0255905512
  0
ENDSEC
  0
SECTION
  2
OBJECTS
  0
DICTIONARY
  5
C
100
AcDbDictionary
280
0
281
1
  3
ACAD_GROUP
350
D
  3
ACAD_MLINESTYLE
350
17
  3
ACAD_LAYOUT
350
1A
  3
ACAD_PLOTSETTINGS
350
19
  3
ACAD_PLOTSTYLENAME
350
E
  0
DICTIONARY
  5
D
102
{ACAD_REACTORS
330
C
102
}
100
AcDbDictionary
280
0
281
1
  0
ACDBDICTIONARYWDFLT
  5
E
102
{ACAD_REACTORS
330
C
102
}
100
AcDbDictionary
281
1
  3
Normal
350
F
100
AcDbDictionaryWithDefault
340
F
  0
DICTIONARY
  5
17
102
{ACAD_REACTORS
330
C
102
}
100
AcDbDictionary
280
0
281
1
  3
Standard
350
18
  0
DICTIONARY
  5
19
102
{ACAD_REACTORS
330
C
102
}
100
AcDbDictionary
281
1
  0
DICTIONARY
  5
1A
102
{ACAD_REACTORS
330
C
102
}
100
AcDbDictionary
281
1
  3
Layout1
350
1E
  3
Model
350
22
  0
ACDBPLACEHOLDER
  5
F
102
{ACAD_REACTORS
330
E
102
}
  0
MLINESTYLE
  5
18
102
{ACAD_REACTORS
330
17
102
}
100
AcDbMlineStyle
  2
STANDARD
 70
0
  3

 62
256
 51
90.0
 52
90.0
 71
2
 49
0.5
 62
256
  6
BYLAYER
 49
-0.5
 62
256
  6
BYLAYER
  0
LAYOUT
  5
1E
102
{ACAD_REACTORS
330
1A
102
}
100
AcDbPlotSettings
  1

  2

  4

  6

 40
0.0
 41
0.0
 42
0.0
 43
0.0
 44
0.0
 45
0.0
 46
0.0
 47
0.0
 48
0.0
 49
0.0
140
0.0
141
0.0
142
1.0
143
1.0
 70
0
 72
0
 73
0
 74
0
  7

 75
0
147
1.0
148
0.0
149
0.0
100
AcDbLayout
  1
Layout1
 70
0
 71
0
 10
0.0
 20
0.0
 11
0.0
 21
0.0
 12
0.0
 22
0.0
 32
0.0
 14
0.0
 24
0.0
 34
0.0
 15
0.0
 25
0.0
 35
0.0
146
0.0
 13
0.0
 23
0.0
 33
0.0
 16
0.0
 26
0.0
 36
0.0
 17
0.0
 27
0.0
 37
0.0
 76
0
330
1B
331
0
345
0
346
0
  0
LAYOUT
  5
22
102
{ACAD_REACTORS
330
1A
102
}
100
AcDbPlotSettings
  1

  2

  4

  6

 40
0.0
 41
0.0
 42
0.0
 43
0.0
 44
0.0
 45
0.0
 46
0.0
 47
0.0
 48
0.0
 49
0.0
140
0.0
141
0.0
142
1.0
143
1.0
 70
0
 72
0
 73
0
 74
0
  7

 75
0
147
1.0
148
0.0
149
0.0
100
AcDbLayout
  1
Model
 70
0
 71
0
 10
0.0
 20
0.0
 11
0.0
 21
0.0
 12
0.0
 22
0.0
 32
0.0
 14
0.0
 24
0.0
 34
0.0
 15
0.0
 25
0.0
 35
0.0
146
0.0
 13
0.0
 23
0.0
 33
0.0
 16
0.0
 26
0.0
 36
0.0
 17
0.0
 27
0.0
 37
0.0
 76
0
330
1F
331
0
345
0
346
0
  0
ENDSEC
  0
EOF
