999
DXF file: 145185_1.dxf
999
Pro/ENGINEER 2006170 by Parametric Technology Corporation
  0
SECTION
  2
HEADER
  9
$ACADVER
  1
AC1015
  9
$DWGCODEPAGE
  3
ANSI_1252
  9
$EXTMAX
 10
22.0
 20
17.0
 30
0.0
  9
$EXTMIN
 10
0.0
 20
0.0
 30
0.0
  9
$LIMMIN
 10
0.0
 20
0.0
  9
$LIMMAX
 10
22.0
 20
17.0
  9
$VIEWCTR
 10
11.0
 20
8.5
  9
$VIEWSIZE
 40
17.0
  9
$CLAYER
  8
0
  9
$LTSCALE
 40
1.21
  9
$CELTYPE
  6
BYLAYER
  9
$DIMSCALE
 40
1.0
  9
$DIMASZ
 40
0.1875
  9
$DIMEXO
 40
0.1375
  9
$DIMDLI
 40
0.836
  9
$DIMEXE
 40
0.396
  9
$DIMCEN
 40
0.198
  9
$DIMLFAC
 40
1.0
  9
$DIMBLK
  1
_FILLED
  9
$DIMTXT
 40
0.1
  9
$DIMTOL
 70
1
  9
$DIMLIM
 70
0
  9
$DIMTFAC
 40
1.0
  9
$DIMTP
 40
0.005
  9
$DIMTM
 40
0.005
  9
$PDMODE
 70
3
  9
$PDSIZE
 40
0.3125
  9
$HANDSEED
  5
7C1
  9
$MEASUREMENT
 70
0
  9
$INSUNITS
 70
1
  0
ENDSEC
  0
SECTION
  2
CLASSES
  0
CLASS
  1
ACDBDICTIONARYWDFLT
  2
AcDbDictionaryWithDefault
  3
AutoCAD 2000
 90
0
280
0
281
0
  0
CLASS
  1
ACDBPLACEHOLDER
  2
AcDbPlaceHolder
  3
AutoCAD 2000
 90
0
280
0
281
0
  0
CLASS
  1
LAYOUT
  2
AcDbLayout
  3
AutoCAD 2000
 90
0
280
0
281
0
  0
ENDSEC
  0
SECTION
  2
TABLES
  0
TABLE
  2
VPORT
  5
8
100
AcDbSymbolTable
 70
2
  0
VPORT
  5
1F4
100
AcDbSymbolTableRecord
100
AcDbViewportTableRecord
  2
*ACTIVE
 70
0
 10
0.0
 20
0.0
 11
1.0
 21
1.0
 12
11.0
 22
8.5
 13
0.0
 23
0.0
 14
1.0
 24
1.0
 15
0.0
 25
0.0
 16
0.0
 26
0.0
 36
1.0
 17
0.0
 27
0.0
 37
0.0
 40
17.0
 41
1.2941176471
 42
50.0
 43
0.0
 44
0.0
 50
0.0
 51
0.0
 71
0
 72
100
 73
1
 74
1
 75
0
 76
0
 77
0
 78
0
  0
ENDTAB
  0
TABLE
  2
LTYPE
  5
5
100
AcDbSymbolTable
 70
6
  0
LTYPE
  5
14
100
AcDbSymbolTableRecord
100
AcDbLinetypeTableRecord
  2
BYBLOCK
 70
0
  3

 72
65
 73
0
 40
0.0
  0
LTYPE
  5
15
100
AcDbSymbolTableRecord
100
AcDbLinetypeTableRecord
  2
BYLAYER
 70
0
  3

 72
65
 73
0
 40
0.0
  0
LTYPE
  5
16
100
AcDbSymbolTableRecord
100
AcDbLinetypeTableRecord
  2
CONTINUOUS
 70
64
  3
Solid line
 72
65
 73
0
 40
0.0
  0
LTYPE
  5
1F5
100
AcDbSymbolTableRecord
100
AcDbLinetypeTableRecord
  2
CENTER
 70
64
  3
____ _ ____ _ ____ _ ____ _ ____ _ ____ _ ____
 72
65
 73
4
 40
0.6
 49
0.375
 74
0
 49
-0.075
 74
0
 49
0.075
 74
0
 49
-0.075
 74
0
  0
LTYPE
  5
1F6
100
AcDbSymbolTableRecord
100
AcDbLinetypeTableRecord
  2
HIDDEN
 70
64
  3
- - - - - - - - - - - - - - - - - - - -
 72
65
 73
2
 40
0.2
 49
0.1
 74
0
 49
-0.1
 74
0
  0
LTYPE
  5
1F7
100
AcDbSymbolTableRecord
100
AcDbLinetypeTableRecord
  2
PHANTOM
 70
64
  3
_____ _ _ _____ _ _ _____ _ _ _____
 72
65
 73
6
 40
0.8
 49
0.45
 74
0
 49
-0.05
 74
0
 49
0.1
 74
0
 49
-0.05
 74
0
 49
0.1
 74
0
 49
-0.05
 74
0
  0
LTYPE
  5
1F8
100
AcDbSymbolTableRecord
100
AcDbLinetypeTableRecord
  2
DOT
 70
64
  3
. . . . . . . . . . . . . . . . . . . .
 72
65
 73
2
 40
0.2
 49
0.1
 74
0
 49
-0.1
 74
0
  0
LTYPE
  5
1F9
100
AcDbSymbolTableRecord
100
AcDbLinetypeTableRecord
  2
DASHED
 70
64
  3
- - - - - - - - - - - - - - - - - - - -
 72
65
 73
2
 40
0.2
 49
0.1
 74
0
 49
-0.1
 74
0
  0
ENDTAB
  0
TABLE
  2
LAYER
  5
2
100
AcDbSymbolTable
 70
36
  0
LAYER
  5
10
100
AcDbSymbolTableRecord
100
AcDbLayerTableRecord
  2
0
 70
0
 62
7
  6
CONTINUOUS
370
-3
390
F
  0
LAYER
  5
1FA
100
AcDbSymbolTableRecord
100
AcDbLayerTableRecord
  2
DEFAULT_1
 70
0
 62
7
  6
CENTER
370
-3
390
F
  0
LAYER
  5
1FB
100
AcDbSymbolTableRecord
100
AcDbLayerTableRecord
  2
DEFAULT_2
 70
0
 62
8
  6
HIDDEN
370
-3
390
F
  0
LAYER
  5
1FC
100
AcDbSymbolTableRecord
100
AcDbLayerTableRecord
  2
DEFAULT_3
 70
0
 62
7
  6
PHANTOM
370
-3
390
F
  0
LAYER
  5
1FD
100
AcDbSymbolTableRecord
100
AcDbLayerTableRecord
  2
_2D_DELETED_OBJS
 70
0
 62
7
  6
CONTINUOUS
370
-3
390
F
  0
LAYER
  5
1FE
100
AcDbSymbolTableRecord
100
AcDbLayerTableRecord
  2
_BLACK_HOLE
 70
0
 62
7
  6
CONTINUOUS
370
-3
390
F
  0
LAYER
  5
1FF
100
AcDbSymbolTableRecord
100
AcDbLayerTableRecord
  2
01___PRT_ALL_DTM_PLN
 70
0
 62
7
  6
CONTINUOUS
370
-3
390
F
  0
LAYER
  5
200
100
AcDbSymbolTableRecord
100
AcDbLayerTableRecord
  2
01___PRT_DEF_DTM_PLN
 70
0
 62
7
  6
CONTINUOUS
370
-3
390
F
  0
LAYER
  5
201
100
AcDbSymbolTableRecord
100
AcDbLayerTableRecord
  2
02___PRT_ALL_AXES
 70
0
 62
7
  6
CONTINUOUS
370
-3
390
F
  0
LAYER
  5
202
100
AcDbSymbolTableRecord
100
AcDbLayerTableRecord
  2
03___PRT_ALL_CURVES
 70
0
 62
7
  6
CONTINUOUS
370
-3
390
F
  0
LAYER
  5
203
100
AcDbSymbolTableRecord
100
AcDbLayerTableRecord
  2
04___PRT_ALL_DTM_PNT
 70
0
 62
7
  6
CONTINUOUS
370
-3
390
F
  0
LAYER
  5
204
100
AcDbSymbolTableRecord
100
AcDbLayerTableRecord
  2
05___PRT_ALL_DTM_CSYS
 70
0
 62
7
  6
CONTINUOUS
370
-3
390
F
  0
LAYER
  5
205
100
AcDbSymbolTableRecord
100
AcDbLayerTableRecord
  2
05___PRT_DEF_DTM_CSYS
 70
0
 62
7
  6
CONTINUOUS
370
-3
390
F
  0
LAYER
  5
206
100
AcDbSymbolTableRecord
100
AcDbLayerTableRecord
  2
06___PRT_ALL_SURFS
 70
0
 62
7
  6
CONTINUOUS
370
-3
390
F
  0
LAYER
  5
207
100
AcDbSymbolTableRecord
100
AcDbLayerTableRecord
  2
AXIS
 70
0
 62
7
  6
CONTINUOUS
370
-3
390
F
  0
LAYER
  5
208
100
AcDbSymbolTableRecord
100
AcDbLayerTableRecord
  2
AXIS_COSMETIC_THREADS
 70
0
 62
7
  6
CONTINUOUS
370
-3
390
F
  0
LAYER
  5
209
100
AcDbSymbolTableRecord
100
AcDbLayerTableRecord
  2
DATUM_CURVES
 70
0
 62
7
  6
CONTINUOUS
370
-3
390
F
  0
LAYER
  5
20A
100
AcDbSymbolTableRecord
100
AcDbLayerTableRecord
  2
DATUM_PLANES
 70
0
 62
7
  6
CONTINUOUS
370
-3
390
F
  0
LAYER
  5
20B
100
AcDbSymbolTableRecord
100
AcDbLayerTableRecord
  2
HIDE
 70
0
 62
7
  6
CONTINUOUS
370
-3
390
F
  0
LAYER
  5
20C
100
AcDbSymbolTableRecord
100
AcDbLayerTableRecord
  2
NOTES
 70
0
 62
7
  6
CONTINUOUS
370
-3
390
F
  0
LAYER
  5
20D
100
AcDbSymbolTableRecord
100
AcDbLayerTableRecord
  2
QUILTS
 70
0
 62
7
  6
CONTINUOUS
370
-3
390
F
  0
LAYER
  5
20E
100
AcDbSymbolTableRecord
100
AcDbLayerTableRecord
  2
SCHEME_DIMS
 70
0
 62
7
  6
CONTINUOUS
370
-3
390
F
  0
LAYER
  5
20F
100
AcDbSymbolTableRecord
100
AcDbLayerTableRecord
  2
SYMBOLS
 70
0
 62
7
  6
CONTINUOUS
370
-3
390
F
  0
ENDTAB
  0
TABLE
  2
STYLE
  5
3
100
AcDbSymbolTable
 70
1
  0
STYLE
  5
11
100
AcDbSymbolTableRecord
100
AcDbTextStyleTableRecord
  2
STANDARD
 70
0
 40
0.0
 41
1.0
 50
0.0
 71
0
 42
0.2
  3
txt
  4

  0
ENDTAB
  0
TABLE
  2
VIEW
  5
6
100
AcDbSymbolTable
 70
0
  0
ENDTAB
  0
TABLE
  2
UCS
  5
7
100
AcDbSymbolTable
 70
0
  0
ENDTAB
  0
TABLE
  2
APPID
  5
9
100
AcDbSymbolTable
 70
1
  0
APPID
  5
210
100
AcDbSymbolTableRecord
100
AcDbRegAppTableRecord
  2
ACAD
 70
0
  0
ENDTAB
  0
TABLE
  2
BLOCK_RECORD
  5
1
100
AcDbSymbolTable
 70
0
  0
BLOCK_RECORD
  5
1F
100
AcDbSymbolTableRecord
100
AcDbBlockTableRecord
  2
*MODEL_SPACE
  0
BLOCK_RECORD
  5
1B
100
AcDbSymbolTableRecord
100
AcDbBlockTableRecord
  2
*PAPER_SPACE
  0
BLOCK_RECORD
  5
211
100
AcDbSymbolTableRecord
100
AcDbBlockTableRecord
  2
_FILLED
  0
BLOCK_RECORD
  5
212
100
AcDbSymbolTableRecord
100
AcDbBlockTableRecord
  2
BANNER_LOGO_TITLEBLOCK_BL0
  0
BLOCK_RECORD
  5
213
100
AcDbSymbolTableRecord
100
AcDbBlockTableRecord
  2
*D0
  0
BLOCK_RECORD
  5
214
100
AcDbSymbolTableRecord
100
AcDbBlockTableRecord
  2
*D1
  0
BLOCK_RECORD
  5
215
100
AcDbSymbolTableRecord
100
AcDbBlockTableRecord
  2
*D2
  0
BLOCK_RECORD
  5
216
100
AcDbSymbolTableRecord
100
AcDbBlockTableRecord
  2
*D3
  0
BLOCK_RECORD
  5
217
100
AcDbSymbolTableRecord
100
AcDbBlockTableRecord
  2
*D4
  0
ENDTAB
  0
TABLE
  2
DIMSTYLE
  5
A
100
AcDbSymbolTable
 70
1
100
AcDbDimStyleTable
 71
0
  0
DIMSTYLE
105
218
100
AcDbSymbolTableRecord
100
AcDbDimStyleTableRecord
  2
STANDARD
 70
0
  3

  4

 40
1.0
 41
0.1875
 42
0.0625
 43
0.38
 44
0.18
 45
0.0
 46
0.0
 47
0.005
 48
0.005
140
0.1
141
0.09
142
0.0
143
25.4
144
1.0
145
0.0
146
1.0
147
0.09
 71
1.0
 72
0.0
 73
1
 74
1
 75
0
 76
0
 77
0
 78
4
170
0
171
2
172
0
173
0
174
0
175
0
176
0
177
0
178
0
270
2
271
3
272
3
273
2
274
2
275
0
280
0
281
0
282
0
283
1
284
4
285
0
286
0
287
3
288
0
340
11
341
211
342
211
343
211
344
211
  0
DIMSTYLE
105
219
100
AcDbSymbolTableRecord
100
AcDbDimStyleTableRecord
  2
DIMSTYLE_1
 70
0
  3

  4

 40
1.0
 41
0.1875
 42
0.0625
 43
0.38
 44
0.18
 45
0.0
 46
0.0
 47
0.1
 48
0.1
140
0.1
141
0.09
142
0.0
143
25.4
144
1.0
145
0.0
146
1.0
147
0.09
 71
0.0
 72
0.0
 73
1
 74
1
 75
0
 76
0
 77
0
 78
4
170
0
171
2
172
0
173
0
174
0
175
0
176
0
177
0
178
0
270
2
271
1
272
1
273
2
274
2
275
0
280
0
281
0
282
0
283
1
284
4
285
0
286
0
287
3
288
0
340
11
341
211
342
211
343
211
344
211
  0
DIMSTYLE
105
21A
100
AcDbSymbolTableRecord
100
AcDbDimStyleTableRecord
  2
DIMSTYLE_2
 70
0
  3

  4

 40
1.0
 41
0.1875
 42
0.0625
 43
0.38
 44
0.18
 45
0.0
 46
0.0
 47
0.1
 48
0.1
140
0.1
141
0.09
142
0.0
143
25.4
144
1.0
145
0.0
146
1.0
147
0.09
 71
0.0
 72
0.0
 73
1
 74
1
 75
0
 76
0
 77
0
 78
4
170
0
171
2
172
0
173
0
174
0
175
0
176
0
177
0
178
0
270
2
271
1
272
1
273
2
274
2
275
0
280
0
281
0
282
0
283
1
284
4
285
0
286
0
287
3
288
0
340
11
341
211
342
211
343
211
344
211
  0
ENDTAB
  0
ENDSEC
  0
SECTION
  2
BLOCKS
  0
BLOCK
  5
20
100
AcDbEntity
  8
0
100
AcDbBlockBegin
  2
*MODEL_SPACE
 70
0
 10
0.0
 20
0.0
 30
0.0
  3
*MODEL_SPACE
  1

  0
ENDBLK
  5
21
100
AcDbEntity
  8
0
100
AcDbBlockEnd
  0
BLOCK
  5
1C
100
AcDbEntity
  8
0
100
AcDbBlockBegin
  2
*PAPER_SPACE
 70
0
 10
0.0
 20
0.0
 30
0.0
  3
*PAPER_SPACE
  1

  0
ENDBLK
  5
1D
100
AcDbEntity
  8
0
100
AcDbBlockEnd
  0
BLOCK
  5
21B
100
AcDbEntity
  8
0
100
AcDbBlockBegin
 62
2
  6
CONTINUOUS
  2
BANNER_LOGO_TITLEBLOCK_BL0
 70
64
 10
17.5737928667
 20
2.4016160592
  3
BANNER_LOGO_TITLEBLOCK_BL0
  1

  0
LWPOLYLINE
  5
21C
100
AcDbEntity
  8
0
100
AcDbPolyline
 62
2
  6
CONTINUOUS
 90
29
 70
0
 10
16.7487923615
 20
2.4016160592
 10
16.7691351996
 20
2.3618196847
 10
16.8307163685
 20
2.3232759622
 10
16.9281409297
 20
2.2893628079
 10
17.0602177432
 20
2.2604945935
 10
17.2153753953
 20
2.2392004647
 10
17.3917175036
 20
2.2257402979
 10
17.5737926282
 20
2.2212942658
 10
17.7558682297
 20
2.2257402979
 10
17.932210338
 20
2.2392004647
 10
18.0873675133
 20
2.2604945935
 10
18.2194448036
 20
2.2893628079
 10
18.316868888
 20
2.3232759622
 10
18.3784505337
 20
2.3618196847
 10
18.3987933719
 20
2.4016160592
 10
18.3784505337
 20
2.4414124337
 10
18.316868888
 20
2.4799561562
 10
18.2194448036
 20
2.5138693105
 10
18.0873675133
 20
2.5427375249
 10
17.932210338
 20
2.5640316537
 10
17.7558682297
 20
2.5774918205
 10
17.5737926282
 20
2.5819378526
 10
17.3917175036
 20
2.5774918205
 10
17.2153753953
 20
2.5640316537
 10
17.0602177432
 20
2.5427375249
 10
16.9281409297
 20
2.5138693105
 10
16.8307163685
 20
2.4799561562
 10
16.7691351996
 20
2.4414124337
 10
16.7487923615
 20
2.4016160592
  0
ARC
  5
21D
100
AcDbEntity
  8
0
100
AcDbCircle
 62
2
  6
CONTINUOUS
 10
17.0691330821
 20
2.3781140608
 40
0.0153945295
100
AcDbArc
 50
354.0454548824
 51
5.1878013979
  0
ARC
  5
21E
100
AcDbEntity
  8
0
100
AcDbCircle
 62
2
  6
CONTINUOUS
 10
17.062303393
 20
2.377925543
 40
0.0222174455
100
AcDbArc
 50
4.0793399388
 51
69.834329283
  0
LINE
  5
21F
100
AcDbEntity
  8
0
100
AcDbLine
 62
2
  6
CONTINUOUS
 10
17.0699625425
 20
2.3987810533
 11
17.0599115369
 21
2.4023300553
  0
LINE
  5
220
100
AcDbEntity
  8
0
100
AcDbLine
 62
2
  6
CONTINUOUS
 10
17.0599115369
 20
2.4023300553
 11
17.0681515415
 21
2.4071060579
  0
ARC
  5
221
100
AcDbEntity
  8
0
100
AcDbCircle
 62
2
  6
CONTINUOUS
 10
17.046286159
 20
2.4439329496
 40
0.0428289026
100
AcDbArc
 50
300.6990502959
 51
319.0591802498
  0
ARC
  5
222
100
AcDbEntity
  8
0
100
AcDbCircle
 62
2
  6
CONTINUOUS
 10
17.0663147559
 20
2.4278045961
 40
0.0171568255
100
AcDbArc
 50
315.9145124245
 51
16.0049121282
  0
ARC
  5
223
100
AcDbEntity
  8
0
100
AcDbCircle
 62
2
  6
CONTINUOUS
 10
17.0613631438
 20
2.4244509317
 40
0.0229166529
100
AcDbArc
 50
20.6563876465
 51
62.3316896973
  0
ARC
  5
224
100
AcDbEntity
  8
0
100
AcDbCircle
 62
2
  6
CONTINUOUS
 10
17.0407010201
 20
2.3915223668
 40
0.061747717
100
AcDbArc
 50
59.5385584989
 51
90.0050977555
  0
LINE
  5
225
100
AcDbEntity
  8
0
100
AcDbLine
 62
2
  6
CONTINUOUS
 10
17.0406955262
 20
2.4532700835
 11
16.8746324342
 21
2.4532700835
  0
ARC
  5
226
100
AcDbEntity
  8
0
100
AcDbCircle
 62
2
  6
CONTINUOUS
 10
16.8746324323
 20
2.450795084
 40
0.0024749995
100
AcDbArc
 50
89.9999571957
 51
180.0000428043
  0
LINE
  5
227
100
AcDbEntity
  8
0
100
AcDbLine
 62
2
  6
CONTINUOUS
 10
16.8721574328
 20
2.4507950822
 11
16.8721574328
 21
2.4309950712
  0
ARC
  5
228
100
AcDbEntity
  8
0
100
AcDbCircle
 62
2
  6
CONTINUOUS
 10
16.8746324323
 20
2.4309950693
 40
0.0024749995
100
AcDbArc
 50
179.9999571957
 51
270.0000428043
  0
LINE
  5
229
100
AcDbEntity
  8
0
100
AcDbLine
 62
2
  6
CONTINUOUS
 10
16.8746324342
 20
2.4285200698
 11
16.8985744474
 21
2.4285200698
  0
ARC
  5
22A
100
AcDbEntity
  8
0
100
AcDbCircle
 62
2
  6
CONTINUOUS
 10
16.8985744493
 20
2.4260450703
 40
0.0024749995
100
AcDbArc
 50
359.9999571957
 51
90.0000428043
  0
LINE
  5
22B
100
AcDbEntity
  8
0
100
AcDbLine
 62
2
  6
CONTINUOUS
 10
16.9010494488
 20
2.4260450684
 11
16.9010494488
 21
2.3796900427
  0
ARC
  5
22C
100
AcDbEntity
  8
0
100
AcDbCircle
 62
2
  6
CONTINUOUS
 10
16.8985744493
 20
2.3796900409
 40
0.0024749995
100
AcDbArc
 50
269.9999571957
 51
0.0000428043
  0
LINE
  5
22D
100
AcDbEntity
  8
0
100
AcDbLine
 62
2
  6
CONTINUOUS
 10
16.8985744474
 20
2.3772150414
 11
16.8746324342
 21
2.3772150414
  0
ARC
  5
22E
100
AcDbEntity
  8
0
100
AcDbCircle
 62
2
  6
CONTINUOUS
 10
16.8746324323
 20
2.3747400418
 40
0.0024749995
100
AcDbArc
 50
89.9999571957
 51
180.0000428043
  0
LINE
  5
22F
100
AcDbEntity
  8
0
100
AcDbLine
 62
2
  6
CONTINUOUS
 10
16.8721574328
 20
2.37474004
 11
16.8721574328
 21
2.354940029
  0
ARC
  5
230
100
AcDbEntity
  8
0
100
AcDbCircle
 62
2
  6
CONTINUOUS
 10
16.8746324323
 20
2.3549400272
 40
0.0024749995
100
AcDbArc
 50
179.9999571957
 51
270.0000428043
  0
LINE
  5
231
100
AcDbEntity
  8
0
100
AcDbLine
 62
2
  6
CONTINUOUS
 10
16.8746324342
 20
2.3524650276
 11
17.051078532
 21
2.3524650276
  0
ARC
  5
232
100
AcDbEntity
  8
0
100
AcDbCircle
 62
2
  6
CONTINUOUS
 10
17.0483571873
 20
2.4008724794
 40
0.048483885
100
AcDbArc
 50
273.21763719
 51
303.0749121182
  0
ARC
  5
233
100
AcDbEntity
  8
0
100
AcDbCircle
 62
2
  6
CONTINUOUS
 10
17.0631965815
 20
2.3781048705
 40
0.0213072145
100
AcDbArc
 50
303.0488228549
 51
355.7263138674
  0
LINE
  5
234
100
AcDbEntity
  8
0
100
AcDbLine
 62
2
  6
CONTINUOUS
 10
16.9640374837
 20
2.4111950602
 11
17.0054005067
 21
2.4111950602
  0
ARC
  5
235
100
AcDbEntity
  8
0
100
AcDbCircle
 62
2
  6
CONTINUOUS
 10
17.0054005067
 20
2.419857565
 40
0.0086625048
100
AcDbArc
 50
270.0
 51
90.0
  0
LINE
  5
236
100
AcDbEntity
  8
0
100
AcDbLine
 62
2
  6
CONTINUOUS
 10
17.0054005067
 20
2.4285200698
 11
16.9640374837
 21
2.4285200698
  0
ARC
  5
237
100
AcDbEntity
  8
0
100
AcDbCircle
 62
2
  6
CONTINUOUS
 10
16.9640374819
 20
2.4260450703
 40
0.0024749995
100
AcDbArc
 50
89.9999571957
 51
180.0000428043
  0
LINE
  5
238
100
AcDbEntity
  8
0
100
AcDbLine
 62
2
  6
CONTINUOUS
 10
16.9615624824
 20
2.4260450684
 11
16.9615624824
 21
2.4136700616
  0
ARC
  5
239
100
AcDbEntity
  8
0
100
AcDbCircle
 62
2
  6
CONTINUOUS
 10
16.9640374819
 20
2.4136700597
 40
0.0024749995
100
AcDbArc
 50
179.9999571957
 51
270.0000428043
  0
LINE
  5
23A
100
AcDbEntity
  8
0
100
AcDbLine
 62
2
  6
CONTINUOUS
 10
16.9615624824
 20
2.3796900427
 11
16.9615624824
 21
2.3920650496
  0
ARC
  5
23B
100
AcDbEntity
  8
0
100
AcDbCircle
 62
2
  6
CONTINUOUS
 10
16.9640374819
 20
2.3920650514
 40
0.0024749995
100
AcDbArc
 50
89.9999571957
 51
180.0000428043
  0
LINE
  5
23C
100
AcDbEntity
  8
0
100
AcDbLine
 62
2
  6
CONTINUOUS
 10
16.9640374837
 20
2.394540051
 11
17.0054005067
 21
2.394540051
  0
ARC
  5
23D
100
AcDbEntity
  8
0
100
AcDbCircle
 62
2
  6
CONTINUOUS
 10
17.0054005067
 20
2.3858775462
 40
0.0086625048
100
AcDbArc
 50
270.0
 51
90.0
  0
LINE
  5
23E
100
AcDbEntity
  8
0
100
AcDbLine
 62
2
  6
CONTINUOUS
 10
17.0054005067
 20
2.3772150414
 11
16.9640374837
 21
2.3772150414
  0
ARC
  5
23F
100
AcDbEntity
  8
0
100
AcDbCircle
 62
2
  6
CONTINUOUS
 10
16.9640374819
 20
2.3796900409
 40
0.0024749995
100
AcDbArc
 50
179.9999571957
 51
270.0000428043
  0
ARC
  5
240
100
AcDbEntity
  8
0
100
AcDbCircle
 62
2
  6
CONTINUOUS
 10
18.2498075353
 20
2.3824863625
 40
0.044722495
100
AcDbArc
 50
195.531588407
 51
204.7624440448
  0
LINE
  5
241
100
AcDbEntity
  8
0
100
AcDbLine
 62
2
  6
CONTINUOUS
 10
18.2067181729
 20
2.3705110376
 11
18.2049141719
 21
2.376580041
  0
ARC
  5
242
100
AcDbEntity
  8
0
100
AcDbCircle
 62
2
  6
CONTINUOUS
 10
18.1665349746
 20
2.3667829606
 40
0.0396099176
100
AcDbArc
 50
14.3201081283
 51
22.4984722084
  0
ARC
  5
243
100
AcDbEntity
  8
0
100
AcDbCircle
 62
2
  6
CONTINUOUS
 10
18.189301283
 20
2.3757545872
 40
0.0151491919
100
AcDbArc
 50
24.098260853
 51
63.0369451818
  0
ARC
  5
244
100
AcDbEntity
  8
0
100
AcDbCircle
 62
2
  6
CONTINUOUS
 10
18.1852466282
 20
2.3674749668
 40
0.0243676582
100
AcDbArc
 50
63.3666028271
 51
90.3937697637
  0
LINE
  5
245
100
AcDbEntity
  8
0
100
AcDbLine
 62
2
  6
CONTINUOUS
 10
18.1850791609
 20
2.3918420495
 11
18.1574721456
 21
2.3918420495
  0
ARC
  5
246
100
AcDbEntity
  8
0
100
AcDbCircle
 62
2
  6
CONTINUOUS
 10
18.1574721437
 20
2.3893670499
 40
0.0024749995
100
AcDbArc
 50
89.9999571957
 51
180.0000428043
  0
LINE
  5
247
100
AcDbEntity
  8
0
100
AcDbLine
 62
2
  6
CONTINUOUS
 10
18.1549971442
 20
2.3893670481
 11
18.1549971442
 21
2.3796680427
  0
ARC
  5
248
100
AcDbEntity
  8
0
100
AcDbCircle
 62
2
  6
CONTINUOUS
 10
18.1574721437
 20
2.3796680409
 40
0.0024749995
100
AcDbArc
 50
179.9999571957
 51
270.0000428043
  0
LINE
  5
249
100
AcDbEntity
  8
0
100
AcDbLine
 62
2
  6
CONTINUOUS
 10
18.1574721456
 20
2.3771930413
 11
18.1821311592
 21
2.3771930413
  0
ARC
  5
24A
100
AcDbEntity
  8
0
100
AcDbCircle
 62
2
  6
CONTINUOUS
 10
18.1821311611
 20
2.3747180418
 40
0.0024749995
100
AcDbArc
 50
359.9999571957
 51
90.0000428043
  0
LINE
  5
24B
100
AcDbEntity
  8
0
100
AcDbLine
 62
2
  6
CONTINUOUS
 10
18.1846061606
 20
2.37471804
 11
18.1846061606
 21
2.354940029
  0
ARC
  5
24C
100
AcDbEntity
  8
0
100
AcDbCircle
 62
2
  6
CONTINUOUS
 10
18.1821311611
 20
2.3549400272
 40
0.0024749995
100
AcDbArc
 50
269.9999571957
 51
0.0000428043
  0
LINE
  5
24D
100
AcDbEntity
  8
0
100
AcDbLine
 62
2
  6
CONTINUOUS
 10
18.1821311592
 20
2.3524650276
 11
18.0685600963
 21
2.3524650276
  0
ARC
  5
24E
100
AcDbEntity
  8
0
100
AcDbCircle
 62
2
  6
CONTINUOUS
 10
18.0685600944
 20
2.3549400272
 40
0.0024749995
100
AcDbArc
 50
179.9999571957
 51
270.0000428043
  0
LINE
  5
24F
100
AcDbEntity
  8
0
100
AcDbLine
 62
2
  6
CONTINUOUS
 10
18.0660850949
 20
2.354940029
 11
18.0660850949
 21
2.37474004
  0
ARC
  5
250
100
AcDbEntity
  8
0
100
AcDbCircle
 62
2
  6
CONTINUOUS
 10
18.0685600944
 20
2.3747400418
 40
0.0024749995
100
AcDbArc
 50
89.9999571957
 51
180.0000428043
  0
LINE
  5
251
100
AcDbEntity
  8
0
100
AcDbLine
 62
2
  6
CONTINUOUS
 10
18.0685600963
 20
2.3772150414
 11
18.0913061089
 21
2.3772150414
  0
ARC
  5
252
100
AcDbEntity
  8
0
100
AcDbCircle
 62
2
  6
CONTINUOUS
 10
18.0913061107
 20
2.3796900409
 40
0.0024749995
100
AcDbArc
 50
269.9999571957
 51
0.0000428043
  0
LINE
  5
253
100
AcDbEntity
  8
0
100
AcDbLine
 62
2
  6
CONTINUOUS
 10
18.0937811102
 20
2.3796900427
 11
18.0937811102
 21
2.4260450684
  0
ARC
  5
254
100
AcDbEntity
  8
0
100
AcDbCircle
 62
2
  6
CONTINUOUS
 10
18.0913061107
 20
2.4260450703
 40
0.0024749995
100
AcDbArc
 50
359.9999571957
 51
90.0000428043
  0
LINE
  5
255
100
AcDbEntity
  8
0
100
AcDbLine
 62
2
  6
CONTINUOUS
 10
18.0913061089
 20
2.4285200698
 11
18.0685600963
 21
2.4285200698
  0
ARC
  5
256
100
AcDbEntity
  8
0
100
AcDbCircle
 62
2
  6
CONTINUOUS
 10
18.0685600944
 20
2.4309950693
 40
0.0024749995
100
AcDbArc
 50
179.9999571957
 51
270.0000428043
  0
LINE
  5
257
100
AcDbEntity
  8
0
100
AcDbLine
 62
2
  6
CONTINUOUS
 10
18.0660850949
 20
2.4309950712
 11
18.0660850949
 21
2.4507950822
  0
ARC
  5
258
100
AcDbEntity
  8
0
100
AcDbCircle
 62
2
  6
CONTINUOUS
 10
18.0685600944
 20
2.450795084
 40
0.0024749995
100
AcDbArc
 50
89.9999571957
 51
180.0000428043
  0
LINE
  5
259
100
AcDbEntity
  8
0
100
AcDbLine
 62
2
  6
CONTINUOUS
 10
18.0685600963
 20
2.4532700835
 11
18.2181411792
 21
2.4532700835
  0
ARC
  5
25A
100
AcDbEntity
  8
0
100
AcDbCircle
 62
2
  6
CONTINUOUS
 10
18.2154778759
 20
2.270731173
 40
0.1825583387
100
AcDbArc
 50
79.8618509324
 51
89.1640948679
  0
ARC
  5
25B
100
AcDbEntity
  8
0
100
AcDbCircle
 62
2
  6
CONTINUOUS
 10
18.2417821663
 20
2.4115546891
 40
0.039319019
100
AcDbArc
 50
59.1202086415
 51
81.4730239328
  0
ARC
  5
25C
100
AcDbEntity
  8
0
100
AcDbCircle
 62
2
  6
CONTINUOUS
 10
18.2474415625
 20
2.4178893582
 40
0.0310192946
100
AcDbArc
 50
34.7540871
 51
62.0879016178
  0
ARC
  5
25D
100
AcDbEntity
  8
0
100
AcDbCircle
 62
2
  6
CONTINUOUS
 10
18.2591303136
 20
2.4264389594
 40
0.0165459396
100
AcDbArc
 50
1.548452892
 51
33.5033152417
  0
ARC
  5
25E
100
AcDbEntity
  8
0
100
AcDbCircle
 62
2
  6
CONTINUOUS
 10
18.2624269088
 20
2.4266074116
 40
0.0132462337
100
AcDbArc
 50
331.1510006998
 51
1.205404301
  0
ARC
  5
25F
100
AcDbEntity
  8
0
100
AcDbCircle
 62
2
  6
CONTINUOUS
 10
18.2514162524
 20
2.4332859993
 40
0.0261183659
100
AcDbArc
 50
305.6373831893
 51
329.9727629745
  0
ARC
  5
260
100
AcDbEntity
  8
0
100
AcDbCircle
 62
2
  6
CONTINUOUS
 10
18.2210843148
 20
2.4764928489
 40
0.0789082104
100
AcDbArc
 50
292.906155071
 51
305.2574666259
  0
ARC
  5
261
100
AcDbEntity
  8
0
100
AcDbCircle
 62
2
  6
CONTINUOUS
 10
18.1973831488
 20
2.2998387438
 40
0.117346916
100
AcDbArc
 50
58.614769177
 51
62.3737227606
  0
ARC
  5
262
100
AcDbEntity
  8
0
100
AcDbCircle
 62
2
  6
CONTINUOUS
 10
18.2452661015
 20
2.377966004
 40
0.0257145923
100
AcDbArc
 50
39.3804255939
 51
59.0361096173
  0
ARC
  5
263
100
AcDbEntity
  8
0
100
AcDbCircle
 62
2
  6
CONTINUOUS
 10
18.244145746
 20
2.3778929208
 40
0.0266349791
100
AcDbArc
 50
20.3630922153
 51
37.9727053099
  0
ARC
  5
264
100
AcDbEntity
  8
0
100
AcDbCircle
 62
2
  6
CONTINUOUS
 10
18.2262452042
 20
2.3707115124
 40
0.0459185159
100
AcDbArc
 50
15.6740290068
 51
20.9917271228
  0
ARC
  5
265
100
AcDbEntity
  8
0
100
AcDbCircle
 62
2
  6
CONTINUOUS
 10
18.2848155393
 20
2.3863544954
 40
0.0147197649
100
AcDbArc
 50
192.7054516566
 51
206.0594861022
  0
ARC
  5
266
100
AcDbEntity
  8
0
100
AcDbCircle
 62
2
  6
CONTINUOUS
 10
18.2763212023
 20
2.3821460089
 40
0.0052403997
100
AcDbArc
 50
205.5232099488
 51
227.5054868079
  0
ARC
  5
267
100
AcDbEntity
  8
0
100
AcDbCircle
 62
2
  6
CONTINUOUS
 10
18.274592903
 20
2.3803306362
 40
0.0027347709
100
AcDbArc
 50
228.5117626737
 51
266.1485845754
  0
LINE
  5
268
100
AcDbEntity
  8
0
100
AcDbLine
 62
2
  6
CONTINUOUS
 10
18.2744092104
 20
2.3776020416
 11
18.275518211
 21
2.3776020416
  0
ARC
  5
269
100
AcDbEntity
  8
0
100
AcDbCircle
 62
2
  6
CONTINUOUS
 10
18.2754566564
 20
2.3908507008
 40
0.0132488022
100
AcDbArc
 50
270.266200055
 51
281.2404888597
  0
ARC
  5
26A
100
AcDbEntity
  8
0
100
AcDbCircle
 62
2
  6
CONTINUOUS
 10
18.2766508974
 20
2.3851140072
 40
0.0073895522
100
AcDbArc
 50
280.8288201977
 51
305.0837508495
  0
ARC
  5
26B
100
AcDbEntity
  8
0
100
AcDbCircle
 62
2
  6
CONTINUOUS
 10
18.2770520791
 20
2.3842631608
 40
0.0064647042
100
AcDbArc
 50
306.5086174083
 51
340.2162360092
  0
ARC
  5
26C
100
AcDbEntity
  8
0
100
AcDbCircle
 62
2
  6
CONTINUOUS
 10
18.2718509025
 20
2.3860072224
 40
0.0119498009
100
AcDbArc
 50
340.7883861657
 51
1.1691452593
  0
LINE
  5
26D
100
AcDbEntity
  8
0
100
AcDbLine
 62
2
  6
CONTINUOUS
 10
18.2837982156
 20
2.3862510464
 11
18.2837982156
 21
2.3888770478
  0
ARC
  5
26E
100
AcDbEntity
  8
0
100
AcDbCircle
 62
2
  6
CONTINUOUS
 10
18.2862732151
 20
2.3888770497
 40
0.0024749995
100
AcDbArc
 50
89.9999571957
 51
180.0000428043
  0
LINE
  5
26F
100
AcDbEntity
  8
0
100
AcDbLine
 62
2
  6
CONTINUOUS
 10
18.286273217
 20
2.3913520492
 11
18.2983832237
 21
2.3913520492
  0
ARC
  5
270
100
AcDbEntity
  8
0
100
AcDbCircle
 62
2
  6
CONTINUOUS
 10
18.2983832256
 20
2.3888770497
 40
0.0024749995
100
AcDbArc
 50
359.9999571957
 51
90.0000428043
  0
LINE
  5
271
100
AcDbEntity
  8
0
100
AcDbLine
 62
2
  6
CONTINUOUS
 10
18.3008582251
 20
2.3888770478
 11
18.3008582251
 21
2.3773250414
  0
ARC
  5
272
100
AcDbEntity
  8
0
100
AcDbCircle
 62
2
  6
CONTINUOUS
 10
18.2833025285
 20
2.3774293591
 40
0.0175560065
100
AcDbArc
 50
332.2279060967
 51
359.6595469939
  0
ARC
  5
273
100
AcDbEntity
  8
0
100
AcDbCircle
 62
2
  6
CONTINUOUS
 10
18.2739955177
 20
2.3823238645
 40
0.0280715479
100
AcDbArc
 50
308.5071794988
 51
332.2400656899
  0
ARC
  5
274
100
AcDbEntity
  8
0
100
AcDbCircle
 62
2
  6
CONTINUOUS
 10
18.2670033323
 20
2.3899250823
 40
0.0383802683
100
AcDbArc
 50
288.7656836787
 51
309.6104317088
  0
ARC
  5
275
100
AcDbEntity
  8
0
100
AcDbCircle
 62
2
  6
CONTINUOUS
 10
18.2727412998
 20
2.372338333
 40
0.0198837666
100
AcDbArc
 50
271.8586572978
 51
289.4131338543
  0
LINE
  5
276
100
AcDbEntity
  8
0
100
AcDbLine
 62
2
  6
CONTINUOUS
 10
18.2733862098
 20
2.3524650276
 11
18.2260221836
 21
2.3524650276
  0
ARC
  5
277
100
AcDbEntity
  8
0
100
AcDbCircle
 62
2
  6
CONTINUOUS
 10
18.2268275043
 20
2.3697871793
 40
0.0173408616
100
AcDbArc
 50
232.4713476722
 51
267.338189944
  0
ARC
  5
278
100
AcDbEntity
  8
0
100
AcDbCircle
 62
2
  6
CONTINUOUS
 10
18.2299260692
 20
2.3756374832
 40
0.0238935861
100
AcDbArc
 50
209.8247607259
 51
235.1255079367
  0
ARC
  5
279
100
AcDbEntity
  8
0
100
AcDbCircle
 62
2
  6
CONTINUOUS
 10
18.1986405119
 20
2.4241492153
 40
0.0110815393
100
AcDbArc
 50
306.758405961
 51
320.4502234234
  0
ARC
  5
27A
100
AcDbEntity
  8
0
100
AcDbCircle
 62
2
  6
CONTINUOUS
 10
18.1930113209
 20
2.4318900438
 40
0.0206523367
100
AcDbArc
 50
289.6883413472
 51
306.4184925496
  0
ARC
  5
27B
100
AcDbEntity
  8
0
100
AcDbCircle
 62
2
  6
CONTINUOUS
 10
18.1910838152
 20
2.4362836911
 40
0.0254407115
100
AcDbArc
 50
270.7327484175
 51
290.441894219
  0
LINE
  5
27C
100
AcDbEntity
  8
0
100
AcDbLine
 62
2
  6
CONTINUOUS
 10
18.1914091644
 20
2.41084506
 11
18.1574721456
 21
2.41084506
  0
ARC
  5
27D
100
AcDbEntity
  8
0
100
AcDbCircle
 62
2
  6
CONTINUOUS
 10
18.1574721437
 20
2.4133200595
 40
0.0024749995
100
AcDbArc
 50
179.9999571957
 51
270.0000428043
  0
LINE
  5
27E
100
AcDbEntity
  8
0
100
AcDbLine
 62
2
  6
CONTINUOUS
 10
18.1549971442
 20
2.4133200614
 11
18.1549971442
 21
2.4260450684
  0
ARC
  5
27F
100
AcDbEntity
  8
0
100
AcDbCircle
 62
2
  6
CONTINUOUS
 10
18.1574721437
 20
2.4260450703
 40
0.0024749995
100
AcDbArc
 50
89.9999571957
 51
180.0000428043
  0
LINE
  5
280
100
AcDbEntity
  8
0
100
AcDbLine
 62
2
  6
CONTINUOUS
 10
18.1574721456
 20
2.4285200698
 11
18.194273166
 21
2.4285200698
  0
ARC
  5
281
100
AcDbEntity
  8
0
100
AcDbCircle
 62
2
  6
CONTINUOUS
 10
18.1927282785
 20
2.4000655908
 40
0.0284963867
100
AcDbArc
 50
70.3834917948
 51
86.8922743861
  0
ARC
  5
282
100
AcDbEntity
  8
0
100
AcDbCircle
 62
2
  6
CONTINUOUS
 10
18.1975878885
 20
2.4131073238
 40
0.0145814632
100
AcDbArc
 50
54.6746025112
 51
71.1660573124
  0
ARC
  5
283
100
AcDbEntity
  8
0
100
AcDbCircle
 62
2
  6
CONTINUOUS
 10
18.2027173795
 20
2.419961249
 40
0.0060275915
100
AcDbArc
 50
20.9055592135
 51
56.7851676243
  0
ARC
  5
284
100
AcDbEntity
  8
0
100
AcDbCircle
 62
2
  6
CONTINUOUS
 10
18.2040179384
 20
2.4206215312
 40
0.0045795888
100
AcDbArc
 50
355.6235353944
 51
18.9942678268
  0
ARC
  5
285
100
AcDbEntity
  8
0
100
AcDbCircle
 62
2
  6
CONTINUOUS
 10
18.202811128
 20
2.4209153074
 40
0.0058087709
100
AcDbArc
 50
318.8515287446
 51
353.6422345323
  0
LINE
  5
286
100
AcDbEntity
  8
0
100
AcDbLine
 62
2
  6
CONTINUOUS
 10
17.341467693
 20
2.4532700835
 11
17.4419257488
 21
2.4532700835
  0
ARC
  5
287
100
AcDbEntity
  8
0
100
AcDbCircle
 62
2
  6
CONTINUOUS
 10
17.4419258835
 20
2.4507959157
 40
0.0024741678
100
AcDbArc
 50
46.3477981898
 51
90.0031206038
  0
LINE
  5
288
100
AcDbEntity
  8
0
100
AcDbLine
 62
2
  6
CONTINUOUS
 10
17.4436337497
 20
2.4525860832
 11
17.503666783
 21
2.3953060514
  0
ARC
  5
289
100
AcDbEntity
  8
0
100
AcDbCircle
 62
2
  6
CONTINUOUS
 10
17.5053754839
 20
2.3970969891
 40
0.0024753014
100
AcDbArc
 50
226.3461263059
 51
0.0014637322
  0
LINE
  5
28A
100
AcDbEntity
  8
0
100
AcDbLine
 62
2
  6
CONTINUOUS
 10
17.5078507853
 20
2.3970970524
 11
17.5078507853
 21
2.4260450684
  0
ARC
  5
28B
100
AcDbEntity
  8
0
100
AcDbCircle
 62
2
  6
CONTINUOUS
 10
17.5053757858
 20
2.4260450703
 40
0.0024749995
100
AcDbArc
 50
359.9999571957
 51
90.0000428043
  0
LINE
  5
28C
100
AcDbEntity
  8
0
100
AcDbLine
 62
2
  6
CONTINUOUS
 10
17.5053757839
 20
2.4285200698
 11
17.4865997735
 21
2.4285200698
  0
ARC
  5
28D
100
AcDbEntity
  8
0
100
AcDbCircle
 62
2
  6
CONTINUOUS
 10
17.4865997717
 20
2.4309950693
 40
0.0024749995
100
AcDbArc
 50
179.9999571957
 51
270.0000428043
  0
LINE
  5
28E
100
AcDbEntity
  8
0
100
AcDbLine
 62
2
  6
CONTINUOUS
 10
17.4841247722
 20
2.4309950712
 11
17.4841247722
 21
2.4507950822
  0
ARC
  5
28F
100
AcDbEntity
  8
0
100
AcDbCircle
 62
2
  6
CONTINUOUS
 10
17.4865997717
 20
2.450795084
 40
0.0024749995
100
AcDbArc
 50
89.9999571957
 51
180.0000428043
  0
LINE
  5
290
100
AcDbEntity
  8
0
100
AcDbLine
 62
2
  6
CONTINUOUS
 10
17.4865997735
 20
2.4532700835
 11
17.5606008146
 21
2.4532700835
  0
ARC
  5
291
100
AcDbEntity
  8
0
100
AcDbCircle
 62
2
  6
CONTINUOUS
 10
17.5606008164
 20
2.450795084
 40
0.0024749995
100
AcDbArc
 50
359.9999571957
 51
90.0000428043
  0
LINE
  5
292
100
AcDbEntity
  8
0
100
AcDbLine
 62
2
  6
CONTINUOUS
 10
17.5630758159
 20
2.4507950822
 11
17.5630758159
 21
2.4309950712
  0
ARC
  5
293
100
AcDbEntity
  8
0
100
AcDbCircle
 62
2
  6
CONTINUOUS
 10
17.5606008164
 20
2.4309950693
 40
0.0024749995
100
AcDbArc
 50
269.9999571957
 51
0.0000428043
  0
LINE
  5
294
100
AcDbEntity
  8
0
100
AcDbLine
 62
2
  6
CONTINUOUS
 10
17.5606008146
 20
2.4285200698
 11
17.5426678046
 21
2.4285200698
  0
ARC
  5
295
100
AcDbEntity
  8
0
100
AcDbCircle
 62
2
  6
CONTINUOUS
 10
17.5426678028
 20
2.4260450703
 40
0.0024749995
100
AcDbArc
 50
89.9999571957
 51
180.0000428043
  0
LINE
  5
296
100
AcDbEntity
  8
0
100
AcDbLine
 62
2
  6
CONTINUOUS
 10
17.5401928032
 20
2.4260450684
 11
17.5401928032
 21
2.354940029
  0
ARC
  5
297
100
AcDbEntity
  8
0
100
AcDbCircle
 62
2
  6
CONTINUOUS
 10
17.5377178037
 20
2.3549400272
 40
0.0024749995
100
AcDbArc
 50
269.9999571957
 51
0.0000428043
  0
LINE
  5
298
100
AcDbEntity
  8
0
100
AcDbLine
 62
2
  6
CONTINUOUS
 10
17.5377178019
 20
2.3524650276
 11
17.4635127607
 21
2.3524650276
  0
ARC
  5
299
100
AcDbEntity
  8
0
100
AcDbCircle
 62
2
  6
CONTINUOUS
 10
17.463512126
 20
2.3549404438
 40
0.0024754162
100
AcDbArc
 50
226.3593695813
 51
270.0146919953
  0
LINE
  5
29A
100
AcDbEntity
  8
0
100
AcDbLine
 62
2
  6
CONTINUOUS
 10
17.4618037598
 20
2.353149028
 11
17.3985237247
 21
2.4135270615
  0
ARC
  5
29B
100
AcDbEntity
  8
0
100
AcDbCircle
 62
2
  6
CONTINUOUS
 10
17.3968150237
 20
2.4117361237
 40
0.0024753014
100
AcDbArc
 50
46.3461263059
 51
180.0014637321
  0
LINE
  5
29C
100
AcDbEntity
  8
0
100
AcDbLine
 62
2
  6
CONTINUOUS
 10
17.3943397224
 20
2.4117360605
 11
17.3943397224
 21
2.3796900427
  0
ARC
  5
29D
100
AcDbEntity
  8
0
100
AcDbCircle
 62
2
  6
CONTINUOUS
 10
17.3968147219
 20
2.3796900409
 40
0.0024749995
100
AcDbArc
 50
179.9999571957
 51
270.0000428043
  0
LINE
  5
29E
100
AcDbEntity
  8
0
100
AcDbLine
 62
2
  6
CONTINUOUS
 10
17.3968147237
 20
2.3772150414
 11
17.417131735
 21
2.3772150414
  0
ARC
  5
29F
100
AcDbEntity
  8
0
100
AcDbCircle
 62
2
  6
CONTINUOUS
 10
17.4171317369
 20
2.3747400418
 40
0.0024749995
100
AcDbArc
 50
359.9999571957
 51
90.0000428043
  0
LINE
  5
2A0
100
AcDbEntity
  8
0
100
AcDbLine
 62
2
  6
CONTINUOUS
 10
17.4196067364
 20
2.37474004
 11
17.4196067364
 21
2.354940029
  0
ARC
  5
2A1
100
AcDbEntity
  8
0
100
AcDbCircle
 62
2
  6
CONTINUOUS
 10
17.4171317369
 20
2.3549400272
 40
0.0024749995
100
AcDbArc
 50
269.9999571957
 51
0.0000428043
  0
LINE
  5
2A2
100
AcDbEntity
  8
0
100
AcDbLine
 62
2
  6
CONTINUOUS
 10
17.417131735
 20
2.3524650276
 11
17.341467693
 21
2.3524650276
  0
ARC
  5
2A3
100
AcDbEntity
  8
0
100
AcDbCircle
 62
2
  6
CONTINUOUS
 10
17.3414676912
 20
2.3549400272
 40
0.0024749995
100
AcDbArc
 50
179.9999571957
 51
270.0000428043
  0
LINE
  5
2A4
100
AcDbEntity
  8
0
100
AcDbLine
 62
2
  6
CONTINUOUS
 10
17.3389926917
 20
2.354940029
 11
17.3389926917
 21
2.37474004
  0
ARC
  5
2A5
100
AcDbEntity
  8
0
100
AcDbCircle
 62
2
  6
CONTINUOUS
 10
17.3414676912
 20
2.3747400418
 40
0.0024749995
100
AcDbArc
 50
89.9999571957
 51
180.0000428043
  0
LINE
  5
2A6
100
AcDbEntity
  8
0
100
AcDbLine
 62
2
  6
CONTINUOUS
 10
17.341467693
 20
2.3772150414
 11
17.3601147034
 21
2.3772150414
  0
ARC
  5
2A7
100
AcDbEntity
  8
0
100
AcDbCircle
 62
2
  6
CONTINUOUS
 10
17.3601147052
 20
2.3796900409
 40
0.0024749995
100
AcDbArc
 50
269.9999571957
 51
0.0000428043
  0
LINE
  5
2A8
100
AcDbEntity
  8
0
100
AcDbLine
 62
2
  6
CONTINUOUS
 10
17.3625897048
 20
2.3796900427
 11
17.3625897048
 21
2.4260450684
  0
ARC
  5
2A9
100
AcDbEntity
  8
0
100
AcDbCircle
 62
2
  6
CONTINUOUS
 10
17.3601147052
 20
2.4260450703
 40
0.0024749995
100
AcDbArc
 50
359.9999571957
 51
90.0000428043
  0
LINE
  5
2AA
100
AcDbEntity
  8
0
100
AcDbLine
 62
2
  6
CONTINUOUS
 10
17.3601147034
 20
2.4285200698
 11
17.341467693
 21
2.4285200698
  0
ARC
  5
2AB
100
AcDbEntity
  8
0
100
AcDbCircle
 62
2
  6
CONTINUOUS
 10
17.3414676912
 20
2.4309950693
 40
0.0024749995
100
AcDbArc
 50
179.9999571957
 51
270.0000428043
  0
LINE
  5
2AC
100
AcDbEntity
  8
0
100
AcDbLine
 62
2
  6
CONTINUOUS
 10
17.3389926917
 20
2.4309950712
 11
17.3389926917
 21
2.4507950822
  0
ARC
  5
2AD
100
AcDbEntity
  8
0
100
AcDbCircle
 62
2
  6
CONTINUOUS
 10
17.3414676912
 20
2.450795084
 40
0.0024749995
100
AcDbArc
 50
89.9999571957
 51
180.0000428043
  0
LINE
  5
2AE
100
AcDbEntity
  8
0
100
AcDbLine
 62
2
  6
CONTINUOUS
 10
17.1937676111
 20
2.4268270689
 11
17.1866506072
 21
2.4156100627
  0
ARC
  5
2AF
100
AcDbEntity
  8
0
100
AcDbCircle
 62
2
  6
CONTINUOUS
 10
17.188740499
 20
2.4142841006
 40
0.0024750401
100
AcDbArc
 50
147.6063258012
 51
270.0025305754
  0
LINE
  5
2B0
100
AcDbEntity
  8
0
100
AcDbLine
 62
2
  6
CONTINUOUS
 10
17.1887406083
 20
2.4118090605
 11
17.2092976197
 21
2.4118090605
  0
ARC
  5
2B1
100
AcDbEntity
  8
0
100
AcDbCircle
 62
2
  6
CONTINUOUS
 10
17.2092975986
 20
2.4142842677
 40
0.0024752071
100
AcDbArc
 50
270.0004896793
 51
32.9089806818
  0
LINE
  5
2B2
100
AcDbEntity
  8
0
100
AcDbLine
 62
2
  6
CONTINUOUS
 10
17.2113756209
 20
2.4156290627
 11
17.2041166169
 21
2.4268450689
  0
ARC
  5
2B3
100
AcDbEntity
  8
0
100
AcDbCircle
 62
2
  6
CONTINUOUS
 10
17.2020380761
 20
2.4255006094
 40
0.0024754602
100
AcDbArc
 50
32.8959418573
 51
89.9875097202
  0
LINE
  5
2B4
100
AcDbEntity
  8
0
100
AcDbLine
 62
2
  6
CONTINUOUS
 10
17.2020386157
 20
2.4279760695
 11
17.1958576123
 21
2.4279760695
  0
ARC
  5
2B5
100
AcDbEntity
  8
0
100
AcDbCircle
 62
2
  6
CONTINUOUS
 10
17.195857542
 20
2.4255008692
 40
0.0024752003
100
AcDbArc
 50
89.998372645
 51
147.602165307
  0
LINE
  5
2B6
100
AcDbEntity
  8
0
100
AcDbLine
 62
2
  6
CONTINUOUS
 10
17.2171806241
 20
2.3897280483
 11
17.2228066272
 21
2.3810350435
  0
ARC
  5
2B7
100
AcDbEntity
  8
0
100
AcDbCircle
 62
2
  6
CONTINUOUS
 10
17.2207286049
 20
2.3796902485
 40
0.0024752071
100
AcDbArc
 50
270.0004896793
 51
32.9089806818
  0
LINE
  5
2B8
100
AcDbEntity
  8
0
100
AcDbLine
 62
2
  6
CONTINUOUS
 10
17.2207286261
 20
2.3772150414
 11
17.2062776181
 21
2.3772150414
  0
ARC
  5
2B9
100
AcDbEntity
  8
0
100
AcDbCircle
 62
2
  6
CONTINUOUS
 10
17.2062776162
 20
2.3747400418
 40
0.0024749995
100
AcDbArc
 50
89.9999571957
 51
180.0000428043
  0
LINE
  5
2BA
100
AcDbEntity
  8
0
100
AcDbLine
 62
2
  6
CONTINUOUS
 10
17.2038026167
 20
2.37474004
 11
17.2038026167
 21
2.354940029
  0
ARC
  5
2BB
100
AcDbEntity
  8
0
100
AcDbCircle
 62
2
  6
CONTINUOUS
 10
17.2062776162
 20
2.3549400272
 40
0.0024749995
100
AcDbArc
 50
179.9999571957
 51
270.0000428043
  0
LINE
  5
2BC
100
AcDbEntity
  8
0
100
AcDbLine
 62
2
  6
CONTINUOUS
 10
17.2062776181
 20
2.3524650276
 11
17.3115586765
 21
2.3524650276
  0
ARC
  5
2BD
100
AcDbEntity
  8
0
100
AcDbCircle
 62
2
  6
CONTINUOUS
 10
17.3115586783
 20
2.3549400272
 40
0.0024749995
100
AcDbArc
 50
269.9999571957
 51
0.0000428043
  0
LINE
  5
2BE
100
AcDbEntity
  8
0
100
AcDbLine
 62
2
  6
CONTINUOUS
 10
17.3140336778
 20
2.354940029
 11
17.3140336778
 21
2.37474004
  0
ARC
  5
2BF
100
AcDbEntity
  8
0
100
AcDbCircle
 62
2
  6
CONTINUOUS
 10
17.3115586783
 20
2.3747400418
 40
0.0024749995
100
AcDbArc
 50
359.9999571957
 51
90.0000428043
  0
LINE
  5
2C0
100
AcDbEntity
  8
0
100
AcDbLine
 62
2
  6
CONTINUOUS
 10
17.3115586765
 20
2.3772150414
 11
17.2915426654
 21
2.3772150414
  0
ARC
  5
2C1
100
AcDbEntity
  8
0
100
AcDbCircle
 62
2
  6
CONTINUOUS
 10
17.2915427859
 20
2.3796890824
 40
0.002474041
100
AcDbArc
 50
212.9056413127
 51
269.9972091756
  0
LINE
  5
2C2
100
AcDbEntity
  8
0
100
AcDbLine
 62
2
  6
CONTINUOUS
 10
17.2894656642
 20
2.378345042
 11
17.2417096377
 21
2.4521400829
  0
ARC
  5
2C3
100
AcDbEntity
  8
0
100
AcDbCircle
 62
2
  6
CONTINUOUS
 10
17.2396320161
 20
2.4507951234
 40
0.0024749602
100
AcDbArc
 50
32.9172174468
 51
90.0087853097
  0
LINE
  5
2C4
100
AcDbEntity
  8
0
100
AcDbLine
 62
2
  6
CONTINUOUS
 10
17.2396316366
 20
2.4532700835
 11
17.1824566049
 21
2.4532700835
  0
ARC
  5
2C5
100
AcDbEntity
  8
0
100
AcDbCircle
 62
2
  6
CONTINUOUS
 10
17.1824565346
 20
2.4507948832
 40
0.0024752003
100
AcDbArc
 50
89.998372645
 51
147.602165307
  0
LINE
  5
2C6
100
AcDbEntity
  8
0
100
AcDbLine
 62
2
  6
CONTINUOUS
 10
17.1803666037
 20
2.4521210829
 11
17.1335665777
 21
2.378364042
  0
ARC
  5
2C7
100
AcDbEntity
  8
0
100
AcDbCircle
 62
2
  6
CONTINUOUS
 10
17.1314766469
 20
2.3796902417
 40
0.0024752003
100
AcDbArc
 50
269.998372645
 51
327.602165307
  0
LINE
  5
2C8
100
AcDbEntity
  8
0
100
AcDbLine
 62
2
  6
CONTINUOUS
 10
17.1314765766
 20
2.3772150414
 11
17.1086155639
 21
2.3772150414
  0
ARC
  5
2C9
100
AcDbEntity
  8
0
100
AcDbCircle
 62
2
  6
CONTINUOUS
 10
17.1086155621
 20
2.3747400418
 40
0.0024749995
100
AcDbArc
 50
89.9999571957
 51
180.0000428043
  0
LINE
  5
2CA
100
AcDbEntity
  8
0
100
AcDbLine
 62
2
  6
CONTINUOUS
 10
17.1061405625
 20
2.37474004
 11
17.1061405625
 21
2.354940029
  0
ARC
  5
2CB
100
AcDbEntity
  8
0
100
AcDbCircle
 62
2
  6
CONTINUOUS
 10
17.1086155621
 20
2.3549400272
 40
0.0024749995
100
AcDbArc
 50
179.9999571957
 51
270.0000428043
  0
LINE
  5
2CC
100
AcDbEntity
  8
0
100
AcDbLine
 62
2
  6
CONTINUOUS
 10
17.1086155639
 20
2.3524650276
 11
17.1859916068
 21
2.3524650276
  0
ARC
  5
2CD
100
AcDbEntity
  8
0
100
AcDbCircle
 62
2
  6
CONTINUOUS
 10
17.1859916087
 20
2.3549400272
 40
0.0024749995
100
AcDbArc
 50
269.9999571957
 51
0.0000428043
  0
LINE
  5
2CE
100
AcDbEntity
  8
0
100
AcDbLine
 62
2
  6
CONTINUOUS
 10
17.1884666082
 20
2.354940029
 11
17.1884666082
 21
2.37474004
  0
ARC
  5
2CF
100
AcDbEntity
  8
0
100
AcDbCircle
 62
2
  6
CONTINUOUS
 10
17.1859916087
 20
2.3747400418
 40
0.0024749995
100
AcDbArc
 50
359.9999571957
 51
90.0000428043
  0
LINE
  5
2D0
100
AcDbEntity
  8
0
100
AcDbLine
 62
2
  6
CONTINUOUS
 10
17.1859916068
 20
2.3772150414
 11
17.1747086006
 21
2.3772150414
  0
ARC
  5
2D1
100
AcDbEntity
  8
0
100
AcDbCircle
 62
2
  6
CONTINUOUS
 10
17.1747084912
 20
2.3796900814
 40
0.0024750401
100
AcDbArc
 50
147.6063258011
 51
270.0025305754
  0
LINE
  5
2D2
100
AcDbEntity
  8
0
100
AcDbLine
 62
2
  6
CONTINUOUS
 10
17.1726185994
 20
2.3810160435
 11
17.1781346025
 21
2.3897100483
  0
ARC
  5
2D3
100
AcDbEntity
  8
0
100
AcDbCircle
 62
2
  6
CONTINUOUS
 10
17.1802245333
 20
2.3883838486
 40
0.0024752003
100
AcDbArc
 50
89.998372645
 51
147.602165307
  0
LINE
  5
2D4
100
AcDbEntity
  8
0
100
AcDbLine
 62
2
  6
CONTINUOUS
 10
17.1802246036
 20
2.3908590489
 11
17.215102623
 21
2.3908590489
  0
ARC
  5
2D5
100
AcDbEntity
  8
0
100
AcDbCircle
 62
2
  6
CONTINUOUS
 10
17.2151020833
 20
2.3883835888
 40
0.0024754602
100
AcDbArc
 50
32.8959418573
 51
89.9875097202
  0
LINE
  5
2D6
100
AcDbEntity
  8
0
100
AcDbLine
 62
2
  6
CONTINUOUS
 10
17.5897208307
 20
2.4532700835
 11
17.6901788864
 21
2.4532700835
  0
ARC
  5
2D7
100
AcDbEntity
  8
0
100
AcDbCircle
 62
2
  6
CONTINUOUS
 10
17.6901790212
 20
2.4507959157
 40
0.0024741678
100
AcDbArc
 50
46.3477981899
 51
90.0031206038
  0
LINE
  5
2D8
100
AcDbEntity
  8
0
100
AcDbLine
 62
2
  6
CONTINUOUS
 10
17.6918868874
 20
2.4525860832
 11
17.7519199207
 21
2.3953060514
  0
ARC
  5
2D9
100
AcDbEntity
  8
0
100
AcDbCircle
 62
2
  6
CONTINUOUS
 10
17.7536286216
 20
2.3970969891
 40
0.0024753014
100
AcDbArc
 50
226.3461263059
 51
0.0014637321
  0
LINE
  5
2DA
100
AcDbEntity
  8
0
100
AcDbLine
 62
2
  6
CONTINUOUS
 10
17.756103923
 20
2.3970970524
 11
17.756103923
 21
2.4260450684
  0
ARC
  5
2DB
100
AcDbEntity
  8
0
100
AcDbCircle
 62
2
  6
CONTINUOUS
 10
17.7536289235
 20
2.4260450703
 40
0.0024749995
100
AcDbArc
 50
359.9999571957
 51
90.0000428043
  0
LINE
  5
2DC
100
AcDbEntity
  8
0
100
AcDbLine
 62
2
  6
CONTINUOUS
 10
17.7536289216
 20
2.4285200698
 11
17.7348529112
 21
2.4285200698
  0
ARC
  5
2DD
100
AcDbEntity
  8
0
100
AcDbCircle
 62
2
  6
CONTINUOUS
 10
17.7348529093
 20
2.4309950693
 40
0.0024749995
100
AcDbArc
 50
179.9999571957
 51
270.0000428043
  0
LINE
  5
2DE
100
AcDbEntity
  8
0
100
AcDbLine
 62
2
  6
CONTINUOUS
 10
17.7323779098
 20
2.4309950712
 11
17.7323779098
 21
2.4507950822
  0
ARC
  5
2DF
100
AcDbEntity
  8
0
100
AcDbCircle
 62
2
  6
CONTINUOUS
 10
17.7348529093
 20
2.450795084
 40
0.0024749995
100
AcDbArc
 50
89.9999571957
 51
180.0000428043
  0
LINE
  5
2E0
100
AcDbEntity
  8
0
100
AcDbLine
 62
2
  6
CONTINUOUS
 10
17.7348529112
 20
2.4532700835
 11
17.8088539522
 21
2.4532700835
  0
ARC
  5
2E1
100
AcDbEntity
  8
0
100
AcDbCircle
 62
2
  6
CONTINUOUS
 10
17.8088539541
 20
2.450795084
 40
0.0024749995
100
AcDbArc
 50
359.9999571957
 51
90.0000428043
  0
LINE
  5
2E2
100
AcDbEntity
  8
0
100
AcDbLine
 62
2
  6
CONTINUOUS
 10
17.8113289536
 20
2.4507950822
 11
17.8113289536
 21
2.4309950712
  0
ARC
  5
2E3
100
AcDbEntity
  8
0
100
AcDbCircle
 62
2
  6
CONTINUOUS
 10
17.8088539541
 20
2.4309950693
 40
0.0024749995
100
AcDbArc
 50
269.9999571957
 51
0.0000428043
  0
LINE
  5
2E4
100
AcDbEntity
  8
0
100
AcDbLine
 62
2
  6
CONTINUOUS
 10
17.8088539522
 20
2.4285200698
 11
17.7909209423
 21
2.4285200698
  0
ARC
  5
2E5
100
AcDbEntity
  8
0
100
AcDbCircle
 62
2
  6
CONTINUOUS
 10
17.7909209404
 20
2.4260450703
 40
0.0024749995
100
AcDbArc
 50
89.9999571957
 51
180.0000428043
  0
LINE
  5
2E6
100
AcDbEntity
  8
0
100
AcDbLine
 62
2
  6
CONTINUOUS
 10
17.7884459409
 20
2.4260450684
 11
17.7884459409
 21
2.354940029
  0
ARC
  5
2E7
100
AcDbEntity
  8
0
100
AcDbCircle
 62
2
  6
CONTINUOUS
 10
17.7859709414
 20
2.3549400272
 40
0.0024749995
100
AcDbArc
 50
269.9999571957
 51
0.0000428043
  0
LINE
  5
2E8
100
AcDbEntity
  8
0
100
AcDbLine
 62
2
  6
CONTINUOUS
 10
17.7859709395
 20
2.3524650276
 11
17.7117648984
 21
2.3524650276
  0
ARC
  5
2E9
100
AcDbEntity
  8
0
100
AcDbCircle
 62
2
  6
CONTINUOUS
 10
17.7117647636
 20
2.3549391954
 40
0.0024741678
100
AcDbArc
 50
226.3477981898
 51
270.0031206038
  0
LINE
  5
2EA
100
AcDbEntity
  8
0
100
AcDbLine
 62
2
  6
CONTINUOUS
 10
17.7100568974
 20
2.353149028
 11
17.6467768624
 21
2.4135270615
  0
ARC
  5
2EB
100
AcDbEntity
  8
0
100
AcDbCircle
 62
2
  6
CONTINUOUS
 10
17.6450681614
 20
2.4117361237
 40
0.0024753014
100
AcDbArc
 50
46.3461263059
 51
180.0014637321
  0
LINE
  5
2EC
100
AcDbEntity
  8
0
100
AcDbLine
 62
2
  6
CONTINUOUS
 10
17.64259286
 20
2.4117360605
 11
17.64259286
 21
2.3796900427
  0
ARC
  5
2ED
100
AcDbEntity
  8
0
100
AcDbCircle
 62
2
  6
CONTINUOUS
 10
17.6450678596
 20
2.3796900409
 40
0.0024749995
100
AcDbArc
 50
179.9999571957
 51
270.0000428043
  0
LINE
  5
2EE
100
AcDbEntity
  8
0
100
AcDbLine
 62
2
  6
CONTINUOUS
 10
17.6450678614
 20
2.3772150414
 11
17.6653848727
 21
2.3772150414
  0
ARC
  5
2EF
100
AcDbEntity
  8
0
100
AcDbCircle
 62
2
  6
CONTINUOUS
 10
17.6653848745
 20
2.3747400418
 40
0.0024749995
100
AcDbArc
 50
359.9999571957
 51
90.0000428043
  0
LINE
  5
2F0
100
AcDbEntity
  8
0
100
AcDbLine
 62
2
  6
CONTINUOUS
 10
17.667859874
 20
2.37474004
 11
17.667859874
 21
2.354940029
  0
ARC
  5
2F1
100
AcDbEntity
  8
0
100
AcDbCircle
 62
2
  6
CONTINUOUS
 10
17.6653848745
 20
2.3549400272
 40
0.0024749995
100
AcDbArc
 50
269.9999571957
 51
0.0000428043
  0
LINE
  5
2F2
100
AcDbEntity
  8
0
100
AcDbLine
 62
2
  6
CONTINUOUS
 10
17.6653848727
 20
2.3524650276
 11
17.5897208307
 21
2.3524650276
  0
ARC
  5
2F3
100
AcDbEntity
  8
0
100
AcDbCircle
 62
2
  6
CONTINUOUS
 10
17.5897208289
 20
2.3549400272
 40
0.0024749995
100
AcDbArc
 50
179.9999571957
 51
270.0000428043
  0
LINE
  5
2F4
100
AcDbEntity
  8
0
100
AcDbLine
 62
2
  6
CONTINUOUS
 10
17.5872458293
 20
2.354940029
 11
17.5872458293
 21
2.37474004
  0
ARC
  5
2F5
100
AcDbEntity
  8
0
100
AcDbCircle
 62
2
  6
CONTINUOUS
 10
17.5897208289
 20
2.3747400418
 40
0.0024749995
100
AcDbArc
 50
89.9999571957
 51
180.0000428043
  0
LINE
  5
2F6
100
AcDbEntity
  8
0
100
AcDbLine
 62
2
  6
CONTINUOUS
 10
17.5897208307
 20
2.3772150414
 11
17.6083668411
 21
2.3772150414
  0
ARC
  5
2F7
100
AcDbEntity
  8
0
100
AcDbCircle
 62
2
  6
CONTINUOUS
 10
17.6083668429
 20
2.3796900409
 40
0.0024749995
100
AcDbArc
 50
269.9999571957
 51
0.0000428043
  0
LINE
  5
2F8
100
AcDbEntity
  8
0
100
AcDbLine
 62
2
  6
CONTINUOUS
 10
17.6108418424
 20
2.3796900427
 11
17.6108418424
 21
2.4260450684
  0
ARC
  5
2F9
100
AcDbEntity
  8
0
100
AcDbCircle
 62
2
  6
CONTINUOUS
 10
17.6083668429
 20
2.4260450703
 40
0.0024749995
100
AcDbArc
 50
359.9999571957
 51
90.0000428043
  0
LINE
  5
2FA
100
AcDbEntity
  8
0
100
AcDbLine
 62
2
  6
CONTINUOUS
 10
17.6083668411
 20
2.4285200698
 11
17.5897208307
 21
2.4285200698
  0
ARC
  5
2FB
100
AcDbEntity
  8
0
100
AcDbCircle
 62
2
  6
CONTINUOUS
 10
17.5897208289
 20
2.4309950693
 40
0.0024749995
100
AcDbArc
 50
179.9999571957
 51
270.0000428043
  0
LINE
  5
2FC
100
AcDbEntity
  8
0
100
AcDbLine
 62
2
  6
CONTINUOUS
 10
17.5872458293
 20
2.4309950712
 11
17.5872458293
 21
2.4507950822
  0
ARC
  5
2FD
100
AcDbEntity
  8
0
100
AcDbCircle
 62
2
  6
CONTINUOUS
 10
17.5897208289
 20
2.450795084
 40
0.0024749995
100
AcDbArc
 50
89.9999571957
 51
180.0000428043
  0
LINE
  5
2FE
100
AcDbEntity
  8
0
100
AcDbLine
 62
2
  6
CONTINUOUS
 10
17.9625500375
 20
2.3937150505
 11
17.927383018
 21
2.3937150505
  0
ARC
  5
2FF
100
AcDbEntity
  8
0
100
AcDbCircle
 62
2
  6
CONTINUOUS
 10
17.9273830161
 20
2.391240051
 40
0.0024749995
100
AcDbArc
 50
89.9999571957
 51
180.0000428043
  0
LINE
  5
300
100
AcDbEntity
  8
0
100
AcDbLine
 62
2
  6
CONTINUOUS
 10
17.9249080166
 20
2.3912400491
 11
17.9249080166
 21
2.3796900427
  0
ARC
  5
301
100
AcDbEntity
  8
0
100
AcDbCircle
 62
2
  6
CONTINUOUS
 10
17.9273830161
 20
2.3796900409
 40
0.0024749995
100
AcDbArc
 50
179.9999571957
 51
270.0000428043
  0
LINE
  5
302
100
AcDbEntity
  8
0
100
AcDbLine
 62
2
  6
CONTINUOUS
 10
17.927383018
 20
2.3772150414
 11
17.992387054
 21
2.3772150414
  0
ARC
  5
303
100
AcDbEntity
  8
0
100
AcDbCircle
 62
2
  6
CONTINUOUS
 10
17.9923870559
 20
2.3796900409
 40
0.0024749995
100
AcDbArc
 50
269.9999571957
 51
0.0000428043
  0
LINE
  5
304
100
AcDbEntity
  8
0
100
AcDbLine
 62
2
  6
CONTINUOUS
 10
17.9948620554
 20
2.3796900427
 11
17.9948620554
 21
2.3879400473
  0
ARC
  5
305
100
AcDbEntity
  8
0
100
AcDbCircle
 62
2
  6
CONTINUOUS
 10
17.9973370549
 20
2.3879400492
 40
0.0024749995
100
AcDbArc
 50
89.9999571957
 51
180.0000428043
  0
LINE
  5
306
100
AcDbEntity
  8
0
100
AcDbLine
 62
2
  6
CONTINUOUS
 10
17.9973370568
 20
2.3904150487
 11
18.0396560802
 21
2.3904150487
  0
ARC
  5
307
100
AcDbEntity
  8
0
100
AcDbCircle
 62
2
  6
CONTINUOUS
 10
18.0396560821
 20
2.3879400492
 40
0.0024749995
100
AcDbArc
 50
359.9999571957
 51
90.0000428043
  0
LINE
  5
308
100
AcDbEntity
  8
0
100
AcDbLine
 62
2
  6
CONTINUOUS
 10
18.0421310816
 20
2.3879400473
 11
18.0421310816
 21
2.354940029
  0
ARC
  5
309
100
AcDbEntity
  8
0
100
AcDbCircle
 62
2
  6
CONTINUOUS
 10
18.0396560821
 20
2.3549400272
 40
0.0024749995
100
AcDbArc
 50
269.9999571957
 51
0.0000428043
  0
LINE
  5
30A
100
AcDbEntity
  8
0
100
AcDbLine
 62
2
  6
CONTINUOUS
 10
18.0396560802
 20
2.3524650276
 11
17.8364439675
 21
2.3524650276
  0
ARC
  5
30B
100
AcDbEntity
  8
0
100
AcDbCircle
 62
2
  6
CONTINUOUS
 10
17.8364439657
 20
2.3549400272
 40
0.0024749995
100
AcDbArc
 50
179.9999571957
 51
270.0000428043
  0
LINE
  5
30C
100
AcDbEntity
  8
0
100
AcDbLine
 62
2
  6
CONTINUOUS
 10
17.8339689662
 20
2.354940029
 11
17.8339689662
 21
2.37474004
  0
ARC
  5
30D
100
AcDbEntity
  8
0
100
AcDbCircle
 62
2
  6
CONTINUOUS
 10
17.8364439657
 20
2.3747400418
 40
0.0024749995
100
AcDbArc
 50
89.9999571957
 51
180.0000428043
  0
LINE
  5
30E
100
AcDbEntity
  8
0
100
AcDbLine
 62
2
  6
CONTINUOUS
 10
17.8364439675
 20
2.3772150414
 11
17.8603669808
 21
2.3772150414
  0
ARC
  5
30F
100
AcDbEntity
  8
0
100
AcDbCircle
 62
2
  6
CONTINUOUS
 10
17.8603669827
 20
2.3796900409
 40
0.0024749995
100
AcDbArc
 50
269.9999571956
 51
0.0000428042
  0
LINE
  5
310
100
AcDbEntity
  8
0
100
AcDbLine
 62
2
  6
CONTINUOUS
 10
17.8628419822
 20
2.3796900427
 11
17.8628419822
 21
2.4260450684
  0
ARC
  5
311
100
AcDbEntity
  8
0
100
AcDbCircle
 62
2
  6
CONTINUOUS
 10
17.8603669827
 20
2.4260450703
 40
0.0024749995
100
AcDbArc
 50
359.9999571957
 51
90.0000428043
  0
LINE
  5
312
100
AcDbEntity
  8
0
100
AcDbLine
 62
2
  6
CONTINUOUS
 10
17.8603669808
 20
2.4285200698
 11
17.8364439675
 21
2.4285200698
  0
ARC
  5
313
100
AcDbEntity
  8
0
100
AcDbCircle
 62
2
  6
CONTINUOUS
 10
17.8364439657
 20
2.4309950693
 40
0.0024749995
100
AcDbArc
 50
179.9999571957
 51
270.0000428043
  0
LINE
  5
314
100
AcDbEntity
  8
0
100
AcDbLine
 62
2
  6
CONTINUOUS
 10
17.8339689662
 20
2.4309950712
 11
17.8339689662
 21
2.4507950822
  0
ARC
  5
315
100
AcDbEntity
  8
0
100
AcDbCircle
 62
2
  6
CONTINUOUS
 10
17.8364439657
 20
2.450795084
 40
0.0024749995
100
AcDbArc
 50
89.9999571957
 51
180.0000428043
  0
LINE
  5
316
100
AcDbEntity
  8
0
100
AcDbLine
 62
2
  6
CONTINUOUS
 10
17.8364439675
 20
2.4532700835
 11
18.0382370794
 21
2.4532700835
  0
ARC
  5
317
100
AcDbEntity
  8
0
100
AcDbCircle
 62
2
  6
CONTINUOUS
 10
18.0382370813
 20
2.450795084
 40
0.0024749995
100
AcDbArc
 50
359.9999571957
 51
90.0000428043
  0
LINE
  5
318
100
AcDbEntity
  8
0
100
AcDbLine
 62
2
  6
CONTINUOUS
 10
18.0407120808
 20
2.4507950822
 11
18.0407120808
 21
2.4177950639
  0
ARC
  5
319
100
AcDbEntity
  8
0
100
AcDbCircle
 62
2
  6
CONTINUOUS
 10
18.0382370813
 20
2.417795062
 40
0.0024749995
100
AcDbArc
 50
269.9999571957
 51
0.0000428043
  0
LINE
  5
31A
100
AcDbEntity
  8
0
100
AcDbLine
 62
2
  6
CONTINUOUS
 10
18.0382370794
 20
2.4153200625
 11
17.9963730562
 21
2.4153200625
  0
ARC
  5
31B
100
AcDbEntity
  8
0
100
AcDbCircle
 62
2
  6
CONTINUOUS
 10
17.9963730544
 20
2.417795062
 40
0.0024749995
100
AcDbArc
 50
179.9999571957
 51
270.0000428043
  0
LINE
  5
31C
100
AcDbEntity
  8
0
100
AcDbLine
 62
2
  6
CONTINUOUS
 10
17.9938980549
 20
2.4177950639
 11
17.9938980549
 21
2.4260450684
  0
ARC
  5
31D
100
AcDbEntity
  8
0
100
AcDbCircle
 62
2
  6
CONTINUOUS
 10
17.9914230553
 20
2.4260450703
 40
0.0024749995
100
AcDbArc
 50
359.9999571957
 51
90.0000428043
  0
LINE
  5
31E
100
AcDbEntity
  8
0
100
AcDbLine
 62
2
  6
CONTINUOUS
 10
17.9914230535
 20
2.4285200698
 11
17.927383018
 21
2.4285200698
  0
ARC
  5
31F
100
AcDbEntity
  8
0
100
AcDbCircle
 62
2
  6
CONTINUOUS
 10
17.9273830161
 20
2.4260450703
 40
0.0024749995
100
AcDbArc
 50
89.9999571957
 51
180.0000428043
  0
LINE
  5
320
100
AcDbEntity
  8
0
100
AcDbLine
 62
2
  6
CONTINUOUS
 10
17.9249080166
 20
2.4260450684
 11
17.9249080166
 21
2.414495062
  0
ARC
  5
321
100
AcDbEntity
  8
0
100
AcDbCircle
 62
2
  6
CONTINUOUS
 10
17.9273830161
 20
2.4144950602
 40
0.0024749995
100
AcDbArc
 50
179.9999571957
 51
270.0000428043
  0
LINE
  5
322
100
AcDbEntity
  8
0
100
AcDbLine
 62
2
  6
CONTINUOUS
 10
17.927383018
 20
2.4120200607
 11
17.9625500375
 21
2.4120200607
  0
ARC
  5
323
100
AcDbEntity
  8
0
100
AcDbCircle
 62
2
  6
CONTINUOUS
 10
17.9625500393
 20
2.4095450611
 40
0.0024749995
100
AcDbArc
 50
359.9999571957
 51
90.0000428043
  0
LINE
  5
324
100
AcDbEntity
  8
0
100
AcDbLine
 62
2
  6
CONTINUOUS
 10
17.9650250388
 20
2.4095450593
 11
17.9650250388
 21
2.3961900519
  0
ARC
  5
325
100
AcDbEntity
  8
0
100
AcDbCircle
 62
2
  6
CONTINUOUS
 10
17.9625500393
 20
2.39619005
 40
0.0024749995
100
AcDbArc
 50
269.9999571956
 51
0.0000428042
  0
LINE
  5
326
100
AcDbEntity
  8
0
100
AcDbLine
 62
2
  6
CONTINUOUS
 10
18.39781452
 20
2.3963074516
 11
18.39781452
 21
2.4069246582
  0
LINE
  5
327
100
AcDbEntity
  8
0
100
AcDbLine
 62
2
  6
CONTINUOUS
 10
18.3778145089
 20
2.3616679219
 11
18.3778145089
 21
2.4415641879
  0
LINE
  5
328
100
AcDbEntity
  8
0
100
AcDbLine
 62
2
  6
CONTINUOUS
 10
18.3578144978
 20
2.345629656
 11
18.3578144978
 21
2.4576024538
  0
LINE
  5
329
100
AcDbEntity
  8
0
100
AcDbLine
 62
2
  6
CONTINUOUS
 10
18.3378144867
 20
2.3338395042
 11
18.3378144867
 21
2.4693926055
  0
LINE
  5
32A
100
AcDbEntity
  8
0
100
AcDbLine
 62
2
  6
CONTINUOUS
 10
18.3178144756
 20
2.3240439832
 11
18.3178144756
 21
2.4791881266
  0
LINE
  5
32B
100
AcDbEntity
  8
0
100
AcDbLine
 62
2
  6
CONTINUOUS
 10
18.2978144645
 20
2.3153630651
 11
18.2978144645
 21
2.36748602
  0
LINE
  5
32C
100
AcDbEntity
  8
0
100
AcDbLine
 62
2
  6
CONTINUOUS
 10
18.2978144645
 20
2.3913520492
 11
18.2978144645
 21
2.4878690447
  0
LINE
  5
32D
100
AcDbEntity
  8
0
100
AcDbLine
 62
2
  6
CONTINUOUS
 10
18.2778144535
 20
2.3077915047
 11
18.2778144535
 21
2.3531152062
  0
LINE
  5
32E
100
AcDbEntity
  8
0
100
AcDbLine
 62
2
  6
CONTINUOUS
 10
18.2778144535
 20
2.3778158317
 11
18.2778144535
 21
2.4954406051
  0
LINE
  5
32F
100
AcDbEntity
  8
0
100
AcDbLine
 62
2
  6
CONTINUOUS
 10
18.2578144424
 20
2.301041061
 11
18.2578144424
 21
2.3524650276
  0
LINE
  5
330
100
AcDbEntity
  8
0
100
AcDbLine
 62
2
  6
CONTINUOUS
 10
18.2578144424
 20
2.4004217989
 11
18.2578144424
 21
2.4066675471
  0
LINE
  5
331
100
AcDbEntity
  8
0
100
AcDbLine
 62
2
  6
CONTINUOUS
 10
18.2578144424
 20
2.4474440616
 11
18.2578144424
 21
2.5021910487
  0
LINE
  5
332
100
AcDbEntity
  8
0
100
AcDbLine
 62
2
  6
CONTINUOUS
 10
18.2378144313
 20
2.2947079333
 11
18.2378144313
 21
2.3524650276
  0
LINE
  5
333
100
AcDbEntity
  8
0
100
AcDbLine
 62
2
  6
CONTINUOUS
 10
18.2378144313
 20
2.4518964909
 11
18.2378144313
 21
2.5085241764
  0
LINE
  5
334
100
AcDbEntity
  8
0
100
AcDbLine
 62
2
  6
CONTINUOUS
 10
18.2178144202
 20
2.2891345268
 11
18.2178144202
 21
2.354983815
  0
LINE
  5
335
100
AcDbEntity
  8
0
100
AcDbLine
 62
2
  6
CONTINUOUS
 10
18.2178144202
 20
2.4532700835
 11
18.2178144202
 21
2.514097583
  0
LINE
  5
336
100
AcDbEntity
  8
0
100
AcDbLine
 62
2
  6
CONTINUOUS
 10
18.1978144091
 20
2.2837804818
 11
18.1978144091
 21
2.3882804137
  0
LINE
  5
337
100
AcDbEntity
  8
0
100
AcDbLine
 62
2
  6
CONTINUOUS
 10
18.1978144091
 20
2.4117543403
 11
18.1978144091
 21
2.4281034235
  0
LINE
  5
338
100
AcDbEntity
  8
0
100
AcDbLine
 62
2
  6
CONTINUOUS
 10
18.1978144091
 20
2.4532700835
 11
18.1978144091
 21
2.519451628
  0
LINE
  5
339
100
AcDbEntity
  8
0
100
AcDbLine
 62
2
  6
CONTINUOUS
 10
18.177814398
 20
2.2789683935
 11
18.177814398
 21
2.3524650276
  0
LINE
  5
33A
100
AcDbEntity
  8
0
100
AcDbLine
 62
2
  6
CONTINUOUS
 10
18.177814398
 20
2.3771930413
 11
18.177814398
 21
2.3918420495
  0
LINE
  5
33B
100
AcDbEntity
  8
0
100
AcDbLine
 62
2
  6
CONTINUOUS
 10
18.177814398
 20
2.41084506
 11
18.177814398
 21
2.4285200698
  0
LINE
  5
33C
100
AcDbEntity
  8
0
100
AcDbLine
 62
2
  6
CONTINUOUS
 10
18.177814398
 20
2.4532700835
 11
18.177814398
 21
2.5242637163
  0
LINE
  5
33D
100
AcDbEntity
  8
0
100
AcDbLine
 62
2
  6
CONTINUOUS
 10
18.1578143869
 20
2.2744172398
 11
18.1578143869
 21
2.3524650276
  0
LINE
  5
33E
100
AcDbEntity
  8
0
100
AcDbLine
 62
2
  6
CONTINUOUS
 10
18.1578143869
 20
2.3771930413
 11
18.1578143869
 21
2.3918420495
  0
LINE
  5
33F
100
AcDbEntity
  8
0
100
AcDbLine
 62
2
  6
CONTINUOUS
 10
18.1578143869
 20
2.41084506
 11
18.1578143869
 21
2.4285200698
  0
LINE
  5
340
100
AcDbEntity
  8
0
100
AcDbLine
 62
2
  6
CONTINUOUS
 10
18.1578143869
 20
2.4532700835
 11
18.1578143869
 21
2.5288148699
  0
LINE
  5
341
100
AcDbEntity
  8
0
100
AcDbLine
 62
2
  6
CONTINUOUS
 10
18.1378143758
 20
2.2701196816
 11
18.1378143758
 21
2.3524650276
  0
LINE
  5
342
100
AcDbEntity
  8
0
100
AcDbLine
 62
2
  6
CONTINUOUS
 10
18.1378143758
 20
2.4532700835
 11
18.1378143758
 21
2.5331124282
  0
LINE
  5
343
100
AcDbEntity
  8
0
100
AcDbLine
 62
2
  6
CONTINUOUS
 10
18.1178143647
 20
2.2662469216
 11
18.1178143647
 21
2.3524650276
  0
LINE
  5
344
100
AcDbEntity
  8
0
100
AcDbLine
 62
2
  6
CONTINUOUS
 10
18.1178143647
 20
2.4532700835
 11
18.1178143647
 21
2.5369851882
  0
LINE
  5
345
100
AcDbEntity
  8
0
100
AcDbLine
 62
2
  6
CONTINUOUS
 10
18.0978143536
 20
2.2623741615
 11
18.0978143536
 21
2.3524650276
  0
LINE
  5
346
100
AcDbEntity
  8
0
100
AcDbLine
 62
2
  6
CONTINUOUS
 10
18.0978143536
 20
2.4532700835
 11
18.0978143536
 21
2.5408579483
  0
LINE
  5
347
100
AcDbEntity
  8
0
100
AcDbLine
 62
2
  6
CONTINUOUS
 10
18.0778143425
 20
2.2592603806
 11
18.0778143425
 21
2.3524650276
  0
LINE
  5
348
100
AcDbEntity
  8
0
100
AcDbLine
 62
2
  6
CONTINUOUS
 10
18.0778143425
 20
2.3772150414
 11
18.0778143425
 21
2.4285200698
  0
LINE
  5
349
100
AcDbEntity
  8
0
100
AcDbLine
 62
2
  6
CONTINUOUS
 10
18.0778143425
 20
2.4532700835
 11
18.0778143425
 21
2.5439717292
  0
LINE
  5
34A
100
AcDbEntity
  8
0
100
AcDbLine
 62
2
  6
CONTINUOUS
 10
18.0578143315
 20
2.2562429918
 11
18.0578143315
 21
2.546989118
  0
LINE
  5
34B
100
AcDbEntity
  8
0
100
AcDbLine
 62
2
  6
CONTINUOUS
 10
18.0378143204
 20
2.2532256029
 11
18.0378143204
 21
2.3524650276
  0
LINE
  5
34C
100
AcDbEntity
  8
0
100
AcDbLine
 62
2
  6
CONTINUOUS
 10
18.0378143204
 20
2.3904150487
 11
18.0378143204
 21
2.4153200625
  0
LINE
  5
34D
100
AcDbEntity
  8
0
100
AcDbLine
 62
2
  6
CONTINUOUS
 10
18.0378143204
 20
2.4532700835
 11
18.0378143204
 21
2.5500065068
  0
LINE
  5
34E
100
AcDbEntity
  8
0
100
AcDbLine
 62
2
  6
CONTINUOUS
 10
18.0178143093
 20
2.2502082141
 11
18.0178143093
 21
2.3524650276
  0
LINE
  5
34F
100
AcDbEntity
  8
0
100
AcDbLine
 62
2
  6
CONTINUOUS
 10
18.0178143093
 20
2.3904150487
 11
18.0178143093
 21
2.4153200625
  0
LINE
  5
350
100
AcDbEntity
  8
0
100
AcDbLine
 62
2
  6
CONTINUOUS
 10
18.0178143093
 20
2.4532700835
 11
18.0178143093
 21
2.5530238957
  0
LINE
  5
351
100
AcDbEntity
  8
0
100
AcDbLine
 62
2
  6
CONTINUOUS
 10
17.9978142982
 20
2.2471908253
 11
17.9978142982
 21
2.3524650276
  0
LINE
  5
352
100
AcDbEntity
  8
0
100
AcDbLine
 62
2
  6
CONTINUOUS
 10
17.9978142982
 20
2.3904150487
 11
17.9978142982
 21
2.4153200625
  0
LINE
  5
353
100
AcDbEntity
  8
0
100
AcDbLine
 62
2
  6
CONTINUOUS
 10
17.9978142982
 20
2.4532700835
 11
17.9978142982
 21
2.5560412845
  0
LINE
  5
354
100
AcDbEntity
  8
0
100
AcDbLine
 62
2
  6
CONTINUOUS
 10
17.9778142871
 20
2.2445732581
 11
17.9778142871
 21
2.3524650276
  0
LINE
  5
355
100
AcDbEntity
  8
0
100
AcDbLine
 62
2
  6
CONTINUOUS
 10
17.9778142871
 20
2.3772150414
 11
17.9778142871
 21
2.4285200698
  0
LINE
  5
356
100
AcDbEntity
  8
0
100
AcDbLine
 62
2
  6
CONTINUOUS
 10
17.9778142871
 20
2.4532700835
 11
17.9778142871
 21
2.5586588517
  0
LINE
  5
357
100
AcDbEntity
  8
0
100
AcDbLine
 62
2
  6
CONTINUOUS
 10
17.957814276
 20
2.2424989828
 11
17.957814276
 21
2.3524650276
  0
LINE
  5
358
100
AcDbEntity
  8
0
100
AcDbLine
 62
2
  6
CONTINUOUS
 10
17.957814276
 20
2.3772150414
 11
17.957814276
 21
2.3937150505
  0
LINE
  5
359
100
AcDbEntity
  8
0
100
AcDbLine
 62
2
  6
CONTINUOUS
 10
17.957814276
 20
2.4120200607
 11
17.957814276
 21
2.4285200698
  0
LINE
  5
35A
100
AcDbEntity
  8
0
100
AcDbLine
 62
2
  6
CONTINUOUS
 10
17.957814276
 20
2.4532700835
 11
17.957814276
 21
2.5607331269
  0
LINE
  5
35B
100
AcDbEntity
  8
0
100
AcDbLine
 62
2
  6
CONTINUOUS
 10
17.9378142649
 20
2.2404247076
 11
17.9378142649
 21
2.3524650276
  0
LINE
  5
35C
100
AcDbEntity
  8
0
100
AcDbLine
 62
2
  6
CONTINUOUS
 10
17.9378142649
 20
2.3772150414
 11
17.9378142649
 21
2.3937150505
  0
LINE
  5
35D
100
AcDbEntity
  8
0
100
AcDbLine
 62
2
  6
CONTINUOUS
 10
17.9378142649
 20
2.4120200607
 11
17.9378142649
 21
2.4285200698
  0
LINE
  5
35E
100
AcDbEntity
  8
0
100
AcDbLine
 62
2
  6
CONTINUOUS
 10
17.9378142649
 20
2.4532700835
 11
17.9378142649
 21
2.5628074022
  0
LINE
  5
35F
100
AcDbEntity
  8
0
100
AcDbLine
 62
2
  6
CONTINUOUS
 10
17.9178142538
 20
2.2383504324
 11
17.9178142538
 21
2.3524650276
  0
LINE
  5
360
100
AcDbEntity
  8
0
100
AcDbLine
 62
2
  6
CONTINUOUS
 10
17.9178142538
 20
2.4532700835
 11
17.9178142538
 21
2.5648816774
  0
LINE
  5
361
100
AcDbEntity
  8
0
100
AcDbLine
 62
2
  6
CONTINUOUS
 10
17.8978142427
 20
2.2362761572
 11
17.8978142427
 21
2.3524650276
  0
LINE
  5
362
100
AcDbEntity
  8
0
100
AcDbLine
 62
2
  6
CONTINUOUS
 10
17.8978142427
 20
2.4532700835
 11
17.8978142427
 21
2.5669559526
  0
LINE
  5
363
100
AcDbEntity
  8
0
100
AcDbLine
 62
2
  6
CONTINUOUS
 10
17.8778142316
 20
2.234201882
 11
17.8778142316
 21
2.3524650276
  0
LINE
  5
364
100
AcDbEntity
  8
0
100
AcDbLine
 62
2
  6
CONTINUOUS
 10
17.8778142316
 20
2.4532700835
 11
17.8778142316
 21
2.5690302278
  0
LINE
  5
365
100
AcDbEntity
  8
0
100
AcDbLine
 62
2
  6
CONTINUOUS
 10
17.8578142205
 20
2.23247216
 11
17.8578142205
 21
2.3524650276
  0
LINE
  5
366
100
AcDbEntity
  8
0
100
AcDbLine
 62
2
  6
CONTINUOUS
 10
17.8578142205
 20
2.3772150414
 11
17.8578142205
 21
2.4285200698
  0
LINE
  5
367
100
AcDbEntity
  8
0
100
AcDbLine
 62
2
  6
CONTINUOUS
 10
17.8578142205
 20
2.4532700835
 11
17.8578142205
 21
2.5707599498
  0
LINE
  5
368
100
AcDbEntity
  8
0
100
AcDbLine
 62
2
  6
CONTINUOUS
 10
17.8378142094
 20
2.2312059562
 11
17.8378142094
 21
2.3524650276
  0
LINE
  5
369
100
AcDbEntity
  8
0
100
AcDbLine
 62
2
  6
CONTINUOUS
 10
17.8378142094
 20
2.3772150414
 11
17.8378142094
 21
2.4285200698
  0
LINE
  5
36A
100
AcDbEntity
  8
0
100
AcDbLine
 62
2
  6
CONTINUOUS
 10
17.8378142094
 20
2.4532700835
 11
17.8378142094
 21
2.5720261536
  0
LINE
  5
36B
100
AcDbEntity
  8
0
100
AcDbLine
 62
2
  6
CONTINUOUS
 10
17.8178141984
 20
2.2299397525
 11
17.8178141984
 21
2.5732923573
  0
LINE
  5
36C
100
AcDbEntity
  8
0
100
AcDbLine
 62
2
  6
CONTINUOUS
 10
17.7978141873
 20
2.2286735487
 11
17.7978141873
 21
2.4285200698
  0
LINE
  5
36D
100
AcDbEntity
  8
0
100
AcDbLine
 62
2
  6
CONTINUOUS
 10
17.7978141873
 20
2.4532700835
 11
17.7978141873
 21
2.574558561
  0
LINE
  5
36E
100
AcDbEntity
  8
0
100
AcDbLine
 62
2
  6
CONTINUOUS
 10
17.7778141762
 20
2.227407345
 11
17.7778141762
 21
2.3524650276
  0
LINE
  5
36F
100
AcDbEntity
  8
0
100
AcDbLine
 62
2
  6
CONTINUOUS
 10
17.7778141762
 20
2.4532700835
 11
17.7778141762
 21
2.5758247648
  0
LINE
  5
370
100
AcDbEntity
  8
0
100
AcDbLine
 62
2
  6
CONTINUOUS
 10
17.7578141651
 20
2.2261411413
 11
17.7578141651
 21
2.3524650276
  0
LINE
  5
371
100
AcDbEntity
  8
0
100
AcDbLine
 62
2
  6
CONTINUOUS
 10
17.7578141651
 20
2.4532700835
 11
17.7578141651
 21
2.5770909685
  0
LINE
  5
372
100
AcDbEntity
  8
0
100
AcDbLine
 62
2
  6
CONTINUOUS
 10
17.737814154
 20
2.2249117066
 11
17.737814154
 21
2.3524650276
  0
LINE
  5
373
100
AcDbEntity
  8
0
100
AcDbLine
 62
2
  6
CONTINUOUS
 10
17.737814154
 20
2.4087649542
 11
17.737814154
 21
2.4285200698
  0
LINE
  5
374
100
AcDbEntity
  8
0
100
AcDbLine
 62
2
  6
CONTINUOUS
 10
17.737814154
 20
2.4532700835
 11
17.737814154
 21
2.5783204031
  0
LINE
  5
375
100
AcDbEntity
  8
0
100
AcDbLine
 62
2
  6
CONTINUOUS
 10
17.7178141429
 20
2.2243809174
 11
17.7178141429
 21
2.3524650276
  0
LINE
  5
376
100
AcDbEntity
  8
0
100
AcDbLine
 62
2
  6
CONTINUOUS
 10
17.7178141429
 20
2.4278478026
 11
17.7178141429
 21
2.5788511924
  0
LINE
  5
377
100
AcDbEntity
  8
0
100
AcDbLine
 62
2
  6
CONTINUOUS
 10
17.6978141318
 20
2.2238501282
 11
17.6978141318
 21
2.3648303444
  0
LINE
  5
378
100
AcDbEntity
  8
0
100
AcDbLine
 62
2
  6
CONTINUOUS
 10
17.6978141318
 20
2.446930651
 11
17.6978141318
 21
2.5793819816
  0
LINE
  5
379
100
AcDbEntity
  8
0
100
AcDbLine
 62
2
  6
CONTINUOUS
 10
17.6778141207
 20
2.223319339
 11
17.6778141207
 21
2.3839131616
  0
LINE
  5
37A
100
AcDbEntity
  8
0
100
AcDbLine
 62
2
  6
CONTINUOUS
 10
17.6778141207
 20
2.4532700835
 11
17.6778141207
 21
2.5799127708
  0
LINE
  5
37B
100
AcDbEntity
  8
0
100
AcDbLine
 62
2
  6
CONTINUOUS
 10
17.6578141096
 20
2.2227885498
 11
17.6578141096
 21
2.3524650276
  0
LINE
  5
37C
100
AcDbEntity
  8
0
100
AcDbLine
 62
2
  6
CONTINUOUS
 10
17.6578141096
 20
2.3772150414
 11
17.6578141096
 21
2.4029959788
  0
LINE
  5
37D
100
AcDbEntity
  8
0
100
AcDbLine
 62
2
  6
CONTINUOUS
 10
17.6578141096
 20
2.4532700835
 11
17.6578141096
 21
2.58044356
  0
LINE
  5
37E
100
AcDbEntity
  8
0
100
AcDbLine
 62
2
  6
CONTINUOUS
 10
17.6378140985
 20
2.2222577606
 11
17.6378140985
 21
2.3524650276
  0
LINE
  5
37F
100
AcDbEntity
  8
0
100
AcDbLine
 62
2
  6
CONTINUOUS
 10
17.6378140985
 20
2.4532700835
 11
17.6378140985
 21
2.5809743492
  0
LINE
  5
380
100
AcDbEntity
  8
0
100
AcDbLine
 62
2
  6
CONTINUOUS
 10
17.6178140874
 20
2.2217269714
 11
17.6178140874
 21
2.3524650276
  0
LINE
  5
381
100
AcDbEntity
  8
0
100
AcDbLine
 62
2
  6
CONTINUOUS
 10
17.6178140874
 20
2.4532700835
 11
17.6178140874
 21
2.5815051384
  0
LINE
  5
382
100
AcDbEntity
  8
0
100
AcDbLine
 62
2
  6
CONTINUOUS
 10
17.5978140764
 20
2.2215213152
 11
17.5978140764
 21
2.3524650276
  0
LINE
  5
383
100
AcDbEntity
  8
0
100
AcDbLine
 62
2
  6
CONTINUOUS
 10
17.5978140764
 20
2.3772150414
 11
17.5978140764
 21
2.4285200698
  0
LINE
  5
384
100
AcDbEntity
  8
0
100
AcDbLine
 62
2
  6
CONTINUOUS
 10
17.5978140764
 20
2.4532700835
 11
17.5978140764
 21
2.5817107946
  0
LINE
  5
385
100
AcDbEntity
  8
0
100
AcDbLine
 62
2
  6
CONTINUOUS
 10
17.5778140653
 20
2.2216974783
 11
17.5778140653
 21
2.5815346315
  0
LINE
  5
386
100
AcDbEntity
  8
0
100
AcDbLine
 62
2
  6
CONTINUOUS
 10
17.5578140542
 20
2.2218736414
 11
17.5578140542
 21
2.4285200698
  0
LINE
  5
387
100
AcDbEntity
  8
0
100
AcDbLine
 62
2
  6
CONTINUOUS
 10
17.5578140542
 20
2.4532700835
 11
17.5578140542
 21
2.5813584684
  0
LINE
  5
388
100
AcDbEntity
  8
0
100
AcDbLine
 62
2
  6
CONTINUOUS
 10
17.5378140431
 20
2.2220498045
 11
17.5378140431
 21
2.3524700714
  0
LINE
  5
389
100
AcDbEntity
  8
0
100
AcDbLine
 62
2
  6
CONTINUOUS
 10
17.5378140431
 20
2.4532700835
 11
17.5378140431
 21
2.5811823053
  0
LINE
  5
38A
100
AcDbEntity
  8
0
100
AcDbLine
 62
2
  6
CONTINUOUS
 10
17.517814032
 20
2.2222259676
 11
17.517814032
 21
2.3524650276
  0
LINE
  5
38B
100
AcDbEntity
  8
0
100
AcDbLine
 62
2
  6
CONTINUOUS
 10
17.517814032
 20
2.4532700835
 11
17.517814032
 21
2.5810061422
  0
LINE
  5
38C
100
AcDbEntity
  8
0
100
AcDbLine
 62
2
  6
CONTINUOUS
 10
17.4978140209
 20
2.2224021307
 11
17.4978140209
 21
2.3524650276
  0
LINE
  5
38D
100
AcDbEntity
  8
0
100
AcDbLine
 62
2
  6
CONTINUOUS
 10
17.4978140209
 20
2.4008904169
 11
17.4978140209
 21
2.4285200698
  0
LINE
  5
38E
100
AcDbEntity
  8
0
100
AcDbLine
 62
2
  6
CONTINUOUS
 10
17.4978140209
 20
2.4532700835
 11
17.4978140209
 21
2.5808299791
  0
LINE
  5
38F
100
AcDbEntity
  8
0
100
AcDbLine
 62
2
  6
CONTINUOUS
 10
17.4778140098
 20
2.2225782938
 11
17.4778140098
 21
2.3524650276
  0
LINE
  5
390
100
AcDbEntity
  8
0
100
AcDbLine
 62
2
  6
CONTINUOUS
 10
17.4778140098
 20
2.4199732652
 11
17.4778140098
 21
2.580653816
  0
LINE
  5
391
100
AcDbEntity
  8
0
100
AcDbLine
 62
2
  6
CONTINUOUS
 10
17.4578139987
 20
2.2233466716
 11
17.4578139987
 21
2.3569558199
  0
LINE
  5
392
100
AcDbEntity
  8
0
100
AcDbLine
 62
2
  6
CONTINUOUS
 10
17.4578139987
 20
2.4390561136
 11
17.4578139987
 21
2.5798854382
  0
LINE
  5
393
100
AcDbEntity
  8
0
100
AcDbLine
 62
2
  6
CONTINUOUS
 10
17.4378139876
 20
2.2242391079
 11
17.4378139876
 21
2.3760386371
  0
LINE
  5
394
100
AcDbEntity
  8
0
100
AcDbLine
 62
2
  6
CONTINUOUS
 10
17.4378139876
 20
2.4532700835
 11
17.4378139876
 21
2.5789930018
  0
LINE
  5
395
100
AcDbEntity
  8
0
100
AcDbLine
 62
2
  6
CONTINUOUS
 10
17.4178139765
 20
2.2251315443
 11
17.4178139765
 21
2.3525640362
  0
LINE
  5
396
100
AcDbEntity
  8
0
100
AcDbLine
 62
2
  6
CONTINUOUS
 10
17.4178139765
 20
2.3771160328
 11
17.4178139765
 21
2.3951214543
  0
LINE
  5
397
100
AcDbEntity
  8
0
100
AcDbLine
 62
2
  6
CONTINUOUS
 10
17.4178139765
 20
2.4532700835
 11
17.4178139765
 21
2.5781005655
  0
LINE
  5
398
100
AcDbEntity
  8
0
100
AcDbLine
 62
2
  6
CONTINUOUS
 10
17.3978139654
 20
2.2260239807
 11
17.3978139654
 21
2.3524650276
  0
LINE
  5
399
100
AcDbEntity
  8
0
100
AcDbLine
 62
2
  6
CONTINUOUS
 10
17.3978139654
 20
2.3772150414
 11
17.3978139654
 21
2.4139978698
  0
LINE
  5
39A
100
AcDbEntity
  8
0
100
AcDbLine
 62
2
  6
CONTINUOUS
 10
17.3978139654
 20
2.4532700835
 11
17.3978139654
 21
2.5772081291
  0
LINE
  5
39B
100
AcDbEntity
  8
0
100
AcDbLine
 62
2
  6
CONTINUOUS
 10
17.3778139543
 20
2.226916417
 11
17.3778139543
 21
2.3524650276
  0
LINE
  5
39C
100
AcDbEntity
  8
0
100
AcDbLine
 62
2
  6
CONTINUOUS
 10
17.3778139543
 20
2.4532700835
 11
17.3778139543
 21
2.5763156928
  0
LINE
  5
39D
100
AcDbEntity
  8
0
100
AcDbLine
 62
2
  6
CONTINUOUS
 10
17.3578139433
 20
2.2278088534
 11
17.3578139433
 21
2.3524650276
  0
LINE
  5
39E
100
AcDbEntity
  8
0
100
AcDbLine
 62
2
  6
CONTINUOUS
 10
17.3578139433
 20
2.3772150414
 11
17.3578139433
 21
2.4285200698
  0
LINE
  5
39F
100
AcDbEntity
  8
0
100
AcDbLine
 62
2
  6
CONTINUOUS
 10
17.3578139433
 20
2.4532700835
 11
17.3578139433
 21
2.5754232564
  0
LINE
  5
3A0
100
AcDbEntity
  8
0
100
AcDbLine
 62
2
  6
CONTINUOUS
 10
17.3378139322
 20
2.2289481171
 11
17.3378139322
 21
2.5742839927
  0
LINE
  5
3A1
100
AcDbEntity
  8
0
100
AcDbLine
 62
2
  6
CONTINUOUS
 10
17.3178139211
 20
2.2306059865
 11
17.3178139211
 21
2.5726261233
  0
LINE
  5
3A2
100
AcDbEntity
  8
0
100
AcDbLine
 62
2
  6
CONTINUOUS
 10
17.29781391
 20
2.2322638559
 11
17.29781391
 21
2.3524650276
  0
LINE
  5
3A3
100
AcDbEntity
  8
0
100
AcDbLine
 62
2
  6
CONTINUOUS
 10
17.29781391
 20
2.3772150414
 11
17.29781391
 21
2.5709682538
  0
LINE
  5
3A4
100
AcDbEntity
  8
0
100
AcDbLine
 62
2
  6
CONTINUOUS
 10
17.2778138989
 20
2.2339217254
 11
17.2778138989
 21
2.3524650276
  0
LINE
  5
3A5
100
AcDbEntity
  8
0
100
AcDbLine
 62
2
  6
CONTINUOUS
 10
17.2778138989
 20
2.3963499423
 11
17.2778138989
 21
2.5693103844
  0
LINE
  5
3A6
100
AcDbEntity
  8
0
100
AcDbLine
 62
2
  6
CONTINUOUS
 10
17.2578138878
 20
2.2355795948
 11
17.2578138878
 21
2.3524650276
  0
LINE
  5
3A7
100
AcDbEntity
  8
0
100
AcDbLine
 62
2
  6
CONTINUOUS
 10
17.2578138878
 20
2.4272549766
 11
17.2578138878
 21
2.567652515
  0
LINE
  5
3A8
100
AcDbEntity
  8
0
100
AcDbLine
 62
2
  6
CONTINUOUS
 10
17.2378138767
 20
2.2372374642
 11
17.2378138767
 21
2.3524650276
  0
LINE
  5
3A9
100
AcDbEntity
  8
0
100
AcDbLine
 62
2
  6
CONTINUOUS
 10
17.2378138767
 20
2.4532700835
 11
17.2378138767
 21
2.5659946456
  0
LINE
  5
3AA
100
AcDbEntity
  8
0
100
AcDbLine
 62
2
  6
CONTINUOUS
 10
17.2178138656
 20
2.2389952421
 11
17.2178138656
 21
2.3524650276
  0
LINE
  5
3AB
100
AcDbEntity
  8
0
100
AcDbLine
 62
2
  6
CONTINUOUS
 10
17.2178138656
 20
2.3772150414
 11
17.2178138656
 21
2.3887495968
  0
LINE
  5
3AC
100
AcDbEntity
  8
0
100
AcDbLine
 62
2
  6
CONTINUOUS
 10
17.2178138656
 20
2.4532700835
 11
17.2178138656
 21
2.5642368677
  0
LINE
  5
3AD
100
AcDbEntity
  8
0
100
AcDbLine
 62
2
  6
CONTINUOUS
 10
17.1978138545
 20
2.2415190955
 11
17.1978138545
 21
2.3908590489
  0
LINE
  5
3AE
100
AcDbEntity
  8
0
100
AcDbLine
 62
2
  6
CONTINUOUS
 10
17.1978138545
 20
2.4118090605
 11
17.1978138545
 21
2.4279760695
  0
LINE
  5
3AF
100
AcDbEntity
  8
0
100
AcDbLine
 62
2
  6
CONTINUOUS
 10
17.1978138545
 20
2.4532700835
 11
17.1978138545
 21
2.5617130143
  0
LINE
  5
3B0
100
AcDbEntity
  8
0
100
AcDbLine
 62
2
  6
CONTINUOUS
 10
17.1778138434
 20
2.244042949
 11
17.1778138434
 21
2.3524650276
  0
LINE
  5
3B1
100
AcDbEntity
  8
0
100
AcDbLine
 62
2
  6
CONTINUOUS
 10
17.1778138434
 20
2.3772150414
 11
17.1778138434
 21
2.3892044865
  0
LINE
  5
3B2
100
AcDbEntity
  8
0
100
AcDbLine
 62
2
  6
CONTINUOUS
 10
17.1778138434
 20
2.4480979218
 11
17.1778138434
 21
2.5591891608
  0
LINE
  5
3B3
100
AcDbEntity
  8
0
100
AcDbLine
 62
2
  6
CONTINUOUS
 10
17.1578138323
 20
2.2465668024
 11
17.1578138323
 21
2.3524650276
  0
LINE
  5
3B4
100
AcDbEntity
  8
0
100
AcDbLine
 62
2
  6
CONTINUOUS
 10
17.1578138323
 20
2.4165778189
 11
17.1578138323
 21
2.5566653073
  0
LINE
  5
3B5
100
AcDbEntity
  8
0
100
AcDbLine
 62
2
  6
CONTINUOUS
 10
17.1378138213
 20
2.2490906559
 11
17.1378138213
 21
2.3524650276
  0
LINE
  5
3B6
100
AcDbEntity
  8
0
100
AcDbLine
 62
2
  6
CONTINUOUS
 10
17.1378138213
 20
2.3850577159
 11
17.1378138213
 21
2.5541414539
  0
LINE
  5
3B7
100
AcDbEntity
  8
0
100
AcDbLine
 62
2
  6
CONTINUOUS
 10
17.1178138102
 20
2.2516145094
 11
17.1178138102
 21
2.3524650276
  0
LINE
  5
3B8
100
AcDbEntity
  8
0
100
AcDbLine
 62
2
  6
CONTINUOUS
 10
17.1178138102
 20
2.3772150414
 11
17.1178138102
 21
2.5516176004
  0
LINE
  5
3B9
100
AcDbEntity
  8
0
100
AcDbLine
 62
2
  6
CONTINUOUS
 10
17.0978137991
 20
2.2544171186
 11
17.0978137991
 21
2.5488149912
  0
LINE
  5
3BA
100
AcDbEntity
  8
0
100
AcDbLine
 62
2
  6
CONTINUOUS
 10
17.077813788
 20
2.2577020445
 11
17.077813788
 21
2.362615113
  0
LINE
  5
3BB
100
AcDbEntity
  8
0
100
AcDbLine
 62
2
  6
CONTINUOUS
 10
17.077813788
 20
2.3938117115
 11
17.077813788
 21
2.4149601455
  0
LINE
  5
3BC
100
AcDbEntity
  8
0
100
AcDbLine
 62
2
  6
CONTINUOUS
 10
17.077813788
 20
2.4403850542
 11
17.077813788
 21
2.5455300653
  0
LINE
  5
3BD
100
AcDbEntity
  8
0
100
AcDbLine
 62
2
  6
CONTINUOUS
 10
17.0578137769
 20
2.2609869704
 11
17.0578137769
 21
2.3533399802
  0
LINE
  5
3BE
100
AcDbEntity
  8
0
100
AcDbLine
 62
2
  6
CONTINUOUS
 10
17.0578137769
 20
2.4508307102
 11
17.0578137769
 21
2.5422451394
  0
LINE
  5
3BF
100
AcDbEntity
  8
0
100
AcDbLine
 62
2
  6
CONTINUOUS
 10
17.0378137658
 20
2.2646895914
 11
17.0378137658
 21
2.3524650276
  0
LINE
  5
3C0
100
AcDbEntity
  8
0
100
AcDbLine
 62
2
  6
CONTINUOUS
 10
17.0378137658
 20
2.4532700835
 11
17.0378137658
 21
2.5385425184
  0
LINE
  5
3C1
100
AcDbEntity
  8
0
100
AcDbLine
 62
2
  6
CONTINUOUS
 10
17.0178137547
 20
2.2685623514
 11
17.0178137547
 21
2.3524650276
  0
LINE
  5
3C2
100
AcDbEntity
  8
0
100
AcDbLine
 62
2
  6
CONTINUOUS
 10
17.0178137547
 20
2.4532700835
 11
17.0178137547
 21
2.5346697584
  0
LINE
  5
3C3
100
AcDbEntity
  8
0
100
AcDbLine
 62
2
  6
CONTINUOUS
 10
16.9978137436
 20
2.2725871112
 11
16.9978137436
 21
2.3524650276
  0
LINE
  5
3C4
100
AcDbEntity
  8
0
100
AcDbLine
 62
2
  6
CONTINUOUS
 10
16.9978137436
 20
2.3772150414
 11
16.9978137436
 21
2.394540051
  0
LINE
  5
3C5
100
AcDbEntity
  8
0
100
AcDbLine
 62
2
  6
CONTINUOUS
 10
16.9978137436
 20
2.4111950602
 11
16.9978137436
 21
2.4285200698
  0
LINE
  5
3C6
100
AcDbEntity
  8
0
100
AcDbLine
 62
2
  6
CONTINUOUS
 10
16.9978137436
 20
2.4532700835
 11
16.9978137436
 21
2.5306449986
  0
LINE
  5
3C7
100
AcDbEntity
  8
0
100
AcDbLine
 62
2
  6
CONTINUOUS
 10
16.9778137325
 20
2.2771382649
 11
16.9778137325
 21
2.3524650276
  0
LINE
  5
3C8
100
AcDbEntity
  8
0
100
AcDbLine
 62
2
  6
CONTINUOUS
 10
16.9778137325
 20
2.3772150414
 11
16.9778137325
 21
2.394540051
  0
LINE
  5
3C9
100
AcDbEntity
  8
0
100
AcDbLine
 62
2
  6
CONTINUOUS
 10
16.9778137325
 20
2.4111950602
 11
16.9778137325
 21
2.4285200698
  0
LINE
  5
3CA
100
AcDbEntity
  8
0
100
AcDbLine
 62
2
  6
CONTINUOUS
 10
16.9778137325
 20
2.4532700835
 11
16.9778137325
 21
2.5260938449
  0
LINE
  5
3CB
100
AcDbEntity
  8
0
100
AcDbLine
 62
2
  6
CONTINUOUS
 10
16.9578137214
 20
2.2816894185
 11
16.9578137214
 21
2.3524650276
  0
LINE
  5
3CC
100
AcDbEntity
  8
0
100
AcDbLine
 62
2
  6
CONTINUOUS
 10
16.9578137214
 20
2.4532700835
 11
16.9578137214
 21
2.5215426913
  0
LINE
  5
3CD
100
AcDbEntity
  8
0
100
AcDbLine
 62
2
  6
CONTINUOUS
 10
16.9378137103
 20
2.2869815362
 11
16.9378137103
 21
2.3524650276
  0
LINE
  5
3CE
100
AcDbEntity
  8
0
100
AcDbLine
 62
2
  6
CONTINUOUS
 10
16.9378137103
 20
2.4532700835
 11
16.9378137103
 21
2.5162505736
  0
LINE
  5
3CF
100
AcDbEntity
  8
0
100
AcDbLine
 62
2
  6
CONTINUOUS
 10
16.9178136992
 20
2.2923355811
 11
16.9178136992
 21
2.3524650276
  0
LINE
  5
3D0
100
AcDbEntity
  8
0
100
AcDbLine
 62
2
  6
CONTINUOUS
 10
16.9178136992
 20
2.4532700835
 11
16.9178136992
 21
2.5108965286
  0
LINE
  5
3D1
100
AcDbEntity
  8
0
100
AcDbLine
 62
2
  6
CONTINUOUS
 10
16.8978136882
 20
2.2984943577
 11
16.8978136882
 21
2.3524650276
  0
LINE
  5
3D2
100
AcDbEntity
  8
0
100
AcDbLine
 62
2
  6
CONTINUOUS
 10
16.8978136882
 20
2.3772150414
 11
16.8978136882
 21
2.4285200698
  0
LINE
  5
3D3
100
AcDbEntity
  8
0
100
AcDbLine
 62
2
  6
CONTINUOUS
 10
16.8978136882
 20
2.4532700835
 11
16.8978136882
 21
2.5047377521
  0
LINE
  5
3D4
100
AcDbEntity
  8
0
100
AcDbLine
 62
2
  6
CONTINUOUS
 10
16.8778136771
 20
2.3048274854
 11
16.8778136771
 21
2.3524650276
  0
LINE
  5
3D5
100
AcDbEntity
  8
0
100
AcDbLine
 62
2
  6
CONTINUOUS
 10
16.8778136771
 20
2.3772150414
 11
16.8778136771
 21
2.4285200698
  0
LINE
  5
3D6
100
AcDbEntity
  8
0
100
AcDbLine
 62
2
  6
CONTINUOUS
 10
16.8778136771
 20
2.4532700835
 11
16.8778136771
 21
2.4984046244
  0
LINE
  5
3D7
100
AcDbEntity
  8
0
100
AcDbLine
 62
2
  6
CONTINUOUS
 10
16.857813666
 20
2.312318358
 11
16.857813666
 21
2.4909137517
  0
LINE
  5
3D8
100
AcDbEntity
  8
0
100
AcDbLine
 62
2
  6
CONTINUOUS
 10
16.8378136549
 20
2.3203393667
 11
16.8378136549
 21
2.4828927431
  0
LINE
  5
3D9
100
AcDbEntity
  8
0
100
AcDbLine
 62
2
  6
CONTINUOUS
 10
16.8178136438
 20
2.3295519864
 11
16.8178136438
 21
2.4736801234
  0
LINE
  5
3DA
100
AcDbEntity
  8
0
100
AcDbLine
 62
2
  6
CONTINUOUS
 10
16.7978136327
 20
2.3407309483
 11
16.7978136327
 21
2.4625011614
  0
LINE
  5
3DB
100
AcDbEntity
  8
0
100
AcDbLine
 62
2
  6
CONTINUOUS
 10
16.7778136216
 20
2.3546527809
 11
16.7778136216
 21
2.4485793288
  0
LINE
  5
3DC
100
AcDbEntity
  8
0
100
AcDbLine
 62
2
  6
CONTINUOUS
 10
16.7578136105
 20
2.3756826696
 11
16.7578136105
 21
2.4275494401
  0
ENDBLK
  5
3DD
100
AcDbEntity
  8
0
  6
BYBLOCK
 62
0
100
AcDbBlockEnd
  0
BLOCK
  5
3DE
100
AcDbEntity
  8
SCHEME_DIMS
100
AcDbBlockBegin
 62
2
  6
CONTINUOUS
  2
*D0
 70
65
 10
0.0
 20
0.0
  3
*D0
  1

  0
TEXT
  5
3DF
100
AcDbEntity
  8
SCHEME_DIMS
100
AcDbText
 62
2
  6
CONTINUOUS
 10
7.3609846487
 20
7.2342035317
  7
STANDARD
 40
0.1
  1
19
 41
1.0
 72
0
100
AcDbText
  0
TEXT
  5
3E0
100
AcDbEntity
  8
SCHEME_DIMS
100
AcDbText
 62
2
  6
CONTINUOUS
 10
7.4609846487
 20
7.0842035317
  7
STANDARD
 40
0.1
  1
.75
 41
1.0
 72
0
100
AcDbText
  0
TEXT
  5
3E1
100
AcDbEntity
  8
SCHEME_DIMS
100
AcDbText
 62
2
  6
CONTINUOUS
 10
7.3609846487
 20
7.0842035317
  7
STANDARD
 40
0.1
  1
[
 41
1.0
 72
0
100
AcDbText
  0
TEXT
  5
3E2
100
AcDbEntity
  8
SCHEME_DIMS
100
AcDbText
 62
2
  6
CONTINUOUS
 10
7.7609846487
 20
7.0842035317
  7
STANDARD
 40
0.1
  1
]
 41
1.0
 72
0
100
AcDbText
  0
LINE
  5
3E3
100
AcDbEntity
  8
SCHEME_DIMS
100
AcDbLine
 62
2
  6
CONTINUOUS
 10
6.7010437038
 20
6.8351877837
 11
7.7359846487
 21
6.8351877837
  0
LINE
  5
3E4
100
AcDbEntity
  8
SCHEME_DIMS
100
AcDbLine
 62
2
  6
CONTINUOUS
 10
6.9642967565
 20
7.5832192797
 11
6.9895621123
 21
7.5832192797
  0
LINE
  5
3E5
100
AcDbEntity
  8
SCHEME_DIMS
100
AcDbLine
 62
2
  6
CONTINUOUS
 10
7.0321591493
 20
7.5832192797
 11
7.7359846487
 21
7.5832192797
  0
LINE
  5
3E6
100
AcDbEntity
  8
SCHEME_DIMS
100
AcDbLine
 62
2
  6
CONTINUOUS
 10
7.6109846487
 20
6.8351877837
 11
7.6109846487
 21
6.4351877837
  0
LINE
  5
3E7
100
AcDbEntity
  8
SCHEME_DIMS
100
AcDbLine
 62
2
  6
CONTINUOUS
 10
7.6109846487
 20
7.5832192797
 11
7.6109846487
 21
7.9832192797
  0
INSERT
  5
3E8
100
AcDbEntity
  8
SCHEME_DIMS
100
AcDbBlockReference
 62
2
  6
CONTINUOUS
  2
_FILLED
 10
7.6109846487
 20
6.8351877837
 41
0.1875
 42
0.1875
 43
0.1875
 50
90.0
  0
INSERT
  5
3E9
100
AcDbEntity
  8
SCHEME_DIMS
100
AcDbBlockReference
 62
2
  6
CONTINUOUS
  2
_FILLED
 10
7.6109846487
 20
7.5832192797
 41
0.1875
 42
0.1875
 43
0.1875
 50
270.0
  0
ENDBLK
  5
3EA
100
AcDbEntity
  8
0
  6
BYBLOCK
 62
0
100
AcDbBlockEnd
  0
BLOCK
  5
3EB
100
AcDbEntity
  8
SCHEME_DIMS
100
AcDbBlockBegin
 62
2
  6
CONTINUOUS
  2
*D1
 70
65
 10
0.0
 20
0.0
  3
*D1
  1

  0
TEXT
  5
3EC
100
AcDbEntity
  8
SCHEME_DIMS
100
AcDbText
 62
2
  6
CONTINUOUS
 10
8.0609846487
 20
10.954828587
  7
STANDARD
 40
0.1
  1
202,2
 41
1.0
 72
0
100
AcDbText
  0
TEXT
  5
3ED
100
AcDbEntity
  8
SCHEME_DIMS
100
AcDbText
 62
2
  6
CONTINUOUS
 10
8.1609846487
 20
10.804828587
  7
STANDARD
 40
0.1
  1
7.96
 41
1.0
 72
0
100
AcDbText
  0
TEXT
  5
3EE
100
AcDbEntity
  8
SCHEME_DIMS
100
AcDbText
 62
2
  6
CONTINUOUS
 10
8.0609846487
 20
10.804828587
  7
STANDARD
 40
0.1
  1
[
 41
1.0
 72
0
100
AcDbText
  0
TEXT
  5
3EF
100
AcDbEntity
  8
SCHEME_DIMS
100
AcDbText
 62
2
  6
CONTINUOUS
 10
8.5609846487
 20
10.804828587
  7
STANDARD
 40
0.1
  1
]
 41
1.0
 72
0
100
AcDbText
  0
LINE
  5
3F0
100
AcDbEntity
  8
SCHEME_DIMS
100
AcDbLine
 62
2
  6
CONTINUOUS
 10
6.7010437038
 20
6.8351877837
 11
8.4859846487
 21
6.8351877837
  0
LINE
  5
3F1
100
AcDbEntity
  8
SCHEME_DIMS
100
AcDbLine
 62
2
  6
CONTINUOUS
 10
7.1347090293
 20
14.7958177049
 11
8.4859846487
 21
14.7958177049
  0
LINE
  5
3F2
100
AcDbEntity
  8
SCHEME_DIMS
100
AcDbLine
 62
2
  6
CONTINUOUS
 10
8.3609846487
 20
6.8351877837
 11
8.3609846487
 21
10.704828587
  0
LINE
  5
3F3
100
AcDbEntity
  8
SCHEME_DIMS
100
AcDbLine
 62
2
  6
CONTINUOUS
 10
8.3609846487
 20
14.7958177049
 11
8.3609846487
 21
11.154828587
  0
INSERT
  5
3F4
100
AcDbEntity
  8
SCHEME_DIMS
100
AcDbBlockReference
 62
2
  6
CONTINUOUS
  2
_FILLED
 10
8.3609846487
 20
6.8351877837
 41
0.1875
 42
0.1875
 43
0.1875
 50
270.0
  0
INSERT
  5
3F5
100
AcDbEntity
  8
SCHEME_DIMS
100
AcDbBlockReference
 62
2
  6
CONTINUOUS
  2
_FILLED
 10
8.3609846487
 20
14.7958177049
 41
0.1875
 42
0.1875
 43
0.1875
 50
90.0
  0
ENDBLK
  5
3F6
100
AcDbEntity
  8
0
  6
BYBLOCK
 62
0
100
AcDbBlockEnd
  0
BLOCK
  5
3F7
100
AcDbEntity
  8
SCHEME_DIMS
100
AcDbBlockBegin
 62
2
  6
CONTINUOUS
  2
*D2
 70
65
 10
0.0
 20
0.0
  3
*D2
  1

  0
TEXT
  5
3F8
100
AcDbEntity
  8
SCHEME_DIMS
100
AcDbText
 62
2
  6
CONTINUOUS
 10
5.8267326802
 20
5.4728937063
  7
STANDARD
 40
0.1
  1
45
 41
1.0
 72
0
100
AcDbText
  0
TEXT
  5
3F9
100
AcDbEntity
  8
SCHEME_DIMS
100
AcDbText
 62
2
  6
CONTINUOUS
 10
5.9267326802
 20
5.3228937063
  7
STANDARD
 40
0.1
  1
1.77
 41
1.0
 72
0
100
AcDbText
  0
TEXT
  5
3FA
100
AcDbEntity
  8
SCHEME_DIMS
100
AcDbText
 62
2
  6
CONTINUOUS
 10
5.8267326802
 20
5.3228937063
  7
STANDARD
 40
0.1
  1
[
 41
1.0
 72
0
100
AcDbText
  0
TEXT
  5
3FB
100
AcDbEntity
  8
SCHEME_DIMS
100
AcDbText
 62
2
  6
CONTINUOUS
 10
6.3267326802
 20
5.3228937063
  7
STANDARD
 40
0.1
  1
]
 41
1.0
 72
0
100
AcDbText
  0
LINE
  5
3FC
100
AcDbEntity
  8
SCHEME_DIMS
100
AcDbLine
 62
2
  6
CONTINUOUS
 10
5.2409059085
 20
7.6145694749
 11
5.2409059085
 21
6.875380401
  0
LINE
  5
3FD
100
AcDbEntity
  8
SCHEME_DIMS
100
AcDbLine
 62
2
  6
CONTINUOUS
 10
5.2409059085
 20
6.8188976705
 11
5.2409059085
 21
5.3978937063
  0
LINE
  5
3FE
100
AcDbEntity
  8
SCHEME_DIMS
100
AcDbLine
 62
2
  6
CONTINUOUS
 10
7.0125594518
 20
7.6076220299
 11
7.0125594518
 21
6.8746190185
  0
LINE
  5
3FF
100
AcDbEntity
  8
SCHEME_DIMS
100
AcDbLine
 62
2
  6
CONTINUOUS
 10
7.0125594518
 20
6.7981564742
 11
7.0125594518
 21
5.3978937063
  0
LINE
  5
400
100
AcDbEntity
  8
SCHEME_DIMS
100
AcDbLine
 62
2
  6
CONTINUOUS
 10
5.2409059085
 20
5.5228937063
 11
5.7267326802
 21
5.5228937063
  0
LINE
  5
401
100
AcDbEntity
  8
SCHEME_DIMS
100
AcDbLine
 62
2
  6
CONTINUOUS
 10
7.0125594518
 20
5.5228937063
 11
6.5267326802
 21
5.5228937063
  0
INSERT
  5
402
100
AcDbEntity
  8
SCHEME_DIMS
100
AcDbBlockReference
 62
2
  6
CONTINUOUS
  2
_FILLED
 10
5.2409059085
 20
5.5228937063
 41
0.1875
 42
0.1875
 43
0.1875
 50
180.0
  0
INSERT
  5
403
100
AcDbEntity
  8
SCHEME_DIMS
100
AcDbBlockReference
 62
2
  6
CONTINUOUS
  2
_FILLED
 10
7.0125594518
 20
5.5228937063
 41
0.1875
 42
0.1875
 43
0.1875
  0
ENDBLK
  5
404
100
AcDbEntity
  8
0
  6
BYBLOCK
 62
0
100
AcDbBlockEnd
  0
BLOCK
  5
405
100
AcDbEntity
  8
SCHEME_DIMS
100
AcDbBlockBegin
 62
2
  6
CONTINUOUS
  2
*D3
 70
65
 10
0.0
 20
0.0
  3
*D3
  1

  0
TEXT
  5
406
100
AcDbEntity
  8
SCHEME_DIMS
100
AcDbText
 62
2
  6
CONTINUOUS
 10
7.4647947649
 20
4.6676278213
  7
STANDARD
 40
0.1
  1
%%c
 41
1.3333333333
 72
0
100
AcDbText
  0
TEXT
  5
407
100
AcDbEntity
  8
SCHEME_DIMS
100
AcDbText
 62
2
  6
CONTINUOUS
 10
7.5981280982
 20
4.6676278213
  7
STANDARD
 40
0.1
  1
50
 41
1.0
 72
0
100
AcDbText
  0
TEXT
  5
408
100
AcDbEntity
  8
SCHEME_DIMS
100
AcDbText
 62
2
  6
CONTINUOUS
 10
7.6981280982
 20
4.5176278213
  7
STANDARD
 40
0.1
  1
1.97
 41
1.0
 72
0
100
AcDbText
  0
TEXT
  5
409
100
AcDbEntity
  8
SCHEME_DIMS
100
AcDbText
 62
2
  6
CONTINUOUS
 10
7.5981280982
 20
4.5176278213
  7
STANDARD
 40
0.1
  1
[
 41
1.0
 72
0
100
AcDbText
  0
TEXT
  5
40A
100
AcDbEntity
  8
SCHEME_DIMS
100
AcDbText
 62
2
  6
CONTINUOUS
 10
8.0981280982
 20
4.5176278213
  7
STANDARD
 40
0.1
  1
]
 41
1.0
 72
0
100
AcDbText
  0
LINE
  5
40B
100
AcDbEntity
  8
SCHEME_DIMS
100
AcDbLine
 62
2
  6
CONTINUOUS
 10
6.9194537257
 20
4.5002760031
 11
6.1267326802
 21
3.9168848123
  0
LINE
  5
40C
100
AcDbEntity
  8
SCHEME_DIMS
100
AcDbLine
 62
2
  6
CONTINUOUS
 10
6.1267326802
 20
3.9168848123
 11
7.2147947649
 21
4.7176278213
  0
LINE
  5
40D
100
AcDbEntity
  8
SCHEME_DIMS
100
AcDbLine
 62
2
  6
CONTINUOUS
 10
7.2147947649
 20
4.7176278213
 11
7.3647947649
 21
4.7176278213
  0
LINE
  5
40E
100
AcDbEntity
  8
SCHEME_DIMS
100
AcDbLine
 62
2
  6
CONTINUOUS
 10
5.3340116346
 20
3.3334936215
 11
6.1267326802
 21
3.9168848123
  0
INSERT
  5
40F
100
AcDbEntity
  8
SCHEME_DIMS
100
AcDbBlockReference
 62
2
  6
CONTINUOUS
  2
_FILLED
 10
6.9194537257
 20
4.5002760031
 41
0.1875
 42
0.1875
 43
0.1875
 50
36.3506538711
  0
INSERT
  5
410
100
AcDbEntity
  8
SCHEME_DIMS
100
AcDbBlockReference
 62
2
  6
CONTINUOUS
  2
_FILLED
 10
5.3340116346
 20
3.3334936215
 41
0.1875
 42
0.1875
 43
0.1875
 50
216.3506538711
  0
ENDBLK
  5
411
100
AcDbEntity
  8
0
  6
BYBLOCK
 62
0
100
AcDbBlockEnd
  0
BLOCK
  5
412
100
AcDbEntity
  8
SCHEME_DIMS
100
AcDbBlockBegin
 62
2
  6
CONTINUOUS
  2
*D4
 70
65
 10
0.0
 20
0.0
  3
*D4
  1

  0
TEXT
  5
413
100
AcDbEntity
  8
SCHEME_DIMS
100
AcDbText
 62
2
  6
CONTINUOUS
 10
7.1609846487
 20
9.0627468388
  7
STANDARD
 40
0.1
  1
4X 
 41
1.0
 72
0
100
AcDbText
  0
TEXT
  5
414
100
AcDbEntity
  8
SCHEME_DIMS
100
AcDbText
 62
2
  6
CONTINUOUS
 10
7.4609846487
 20
9.0627468388
  7
STANDARD
 40
0.1
  1
26,9
 41
1.0
 72
0
100
AcDbText
  0
TEXT
  5
415
100
AcDbEntity
  8
SCHEME_DIMS
100
AcDbText
 62
2
  6
CONTINUOUS
 10
7.5609846487
 20
8.9127468388
  7
STANDARD
 40
0.1
  1
1.06
 41
1.0
 72
0
100
AcDbText
  0
TEXT
  5
416
100
AcDbEntity
  8
SCHEME_DIMS
100
AcDbText
 62
2
  6
CONTINUOUS
 10
7.4609846487
 20
8.9127468388
  7
STANDARD
 40
0.1
  1
[
 41
1.0
 72
0
100
AcDbText
  0
TEXT
  5
417
100
AcDbEntity
  8
SCHEME_DIMS
100
AcDbText
 62
2
  6
CONTINUOUS
 10
7.9609846487
 20
8.9127468388
  7
STANDARD
 40
0.1
  1
]
 41
1.0
 72
0
100
AcDbText
  0
LINE
  5
418
100
AcDbEntity
  8
SCHEME_DIMS
100
AcDbLine
 62
2
  6
CONTINUOUS
 10
7.1734846487
 20
8.5832192797
 11
7.7359846487
 21
8.5832192797
  0
LINE
  5
419
100
AcDbEntity
  8
SCHEME_DIMS
100
AcDbLine
 62
2
  6
CONTINUOUS
 10
7.1734846487
 20
9.6422743979
 11
7.7359846487
 21
9.6422743979
  0
LINE
  5
41A
100
AcDbEntity
  8
SCHEME_DIMS
100
AcDbLine
 62
2
  6
CONTINUOUS
 10
7.6109846487
 20
8.5832192797
 11
7.6109846487
 21
8.8127468388
  0
LINE
  5
41B
100
AcDbEntity
  8
SCHEME_DIMS
100
AcDbLine
 62
2
  6
CONTINUOUS
 10
7.6109846487
 20
9.6422743979
 11
7.6109846487
 21
9.2627468388
  0
INSERT
  5
41C
100
AcDbEntity
  8
SCHEME_DIMS
100
AcDbBlockReference
 62
2
  6
CONTINUOUS
  2
_FILLED
 10
7.6109846487
 20
8.5832192797
 41
0.1875
 42
0.1875
 43
0.1875
 50
270.0
  0
INSERT
  5
41D
100
AcDbEntity
  8
SCHEME_DIMS
100
AcDbBlockReference
 62
2
  6
CONTINUOUS
  2
_FILLED
 10
7.6109846487
 20
9.6422743979
 41
0.1875
 42
0.1875
 43
0.1875
 50
90.0
  0
ENDBLK
  5
41E
100
AcDbEntity
  8
0
  6
BYBLOCK
 62
0
100
AcDbBlockEnd
  0
BLOCK
  5
41F
100
AcDbEntity
  8
0
100
AcDbBlockBegin
  2
_FILLED
 70
64
 10
0.0
 20
0.0
  3
_FILLED
  1

  0
SOLID
  5
420
100
AcDbEntity
  8
0
  6
BYBLOCK
 62
0
100
AcDbTrace
 10
0.0
 20
0.0
 11
-1.0
 21
0.1666666667
 12
-1.0
 22
-0.1666666667
 13
-1.0
 23
-0.1666666667
  0
ENDBLK
  5
421
100
AcDbEntity
  8
0
  6
BYBLOCK
 62
0
100
AcDbBlockEnd
  0
ENDSEC
  0
SECTION
  2
ENTITIES
  0
TEXT
  5
422
100
AcDbEntity
  8
0
100
AcDbText
 62
2
  6
CONTINUOUS
 10
14.8374677477
 20
1.5655662523
  7
STANDARD
 40
0.1
  1
%%uTHIRD ANGLE PROJECTION
 41
0.8
 72
1
 11
15.7174677477
 21
1.5655662523
100
AcDbText
  0
TEXT
  5
423
100
AcDbEntity
  8
0
100
AcDbText
 62
2
  6
CONTINUOUS
 10
17.55
 20
1.24
  7
STANDARD
 40
0.08
  1
DRAWING NO.
 41
1.0
 72
0
100
AcDbText
  0
TEXT
  5
424
100
AcDbEntity
  8
0
100
AcDbText
 62
2
  6
CONTINUOUS
 10
14.714
 20
2.299432
  7
STANDARD
 40
0.08
  1
and is proprietary in general
 41
0.85
 72
1
 11
15.7
 21
2.299432
100
AcDbText
  0
TEXT
  5
425
100
AcDbEntity
  8
0
100
AcDbText
 62
2
  6
CONTINUOUS
 10
14.748
 20
2.179432
  7
STANDARD
 40
0.08
  1
and in detail.  Its contents
 41
0.85
 72
1
 11
15.7
 21
2.179432
100
AcDbText
  0
TEXT
  5
426
100
AcDbEntity
  8
0
100
AcDbText
 62
2
  6
CONTINUOUS
 10
14.884
 20
2.059432
  7
STANDARD
 40
0.08
  1
shall not be revealed to
 41
0.85
 72
1
 11
15.7
 21
2.059432
100
AcDbText
  0
TEXT
  5
427
100
AcDbEntity
  8
0
100
AcDbText
 62
2
  6
CONTINUOUS
 10
14.918
 20
1.939432
  7
STANDARD
 40
0.08
  1
outside parties without
 41
0.85
 72
1
 11
15.7
 21
1.939432
100
AcDbText
  0
TEXT
  5
428
100
AcDbEntity
  8
0
100
AcDbText
 62
2
  6
CONTINUOUS
 10
14.816
 20
1.819432
  7
STANDARD
 40
0.08
  1
written consent of BANNER.
 41
0.85
 72
1
 11
15.7
 21
1.819432
100
AcDbText
  0
TEXT
  5
429
100
AcDbEntity
  8
0
100
AcDbText
 62
2
  6
CONTINUOUS
 10
16.75
 20
1.98
  7
STANDARD
 40
0.1
  1
TITLE
 41
0.8
 72
0
100
AcDbText
  0
TEXT
  5
42A
100
AcDbEntity
  8
0
100
AcDbText
 62
2
  6
CONTINUOUS
 10
16.75
 20
1.24
  7
STANDARD
 40
0.08
  1
SIZE
 41
1.0
 72
0
100
AcDbText
  0
TEXT
  5
42B
100
AcDbEntity
  8
0
100
AcDbText
 62
2
  6
CONTINUOUS
 10
16.75
 20
0.87
  7
STANDARD
 40
0.08
  1
SCALE
 41
1.0
 72
0
100
AcDbText
  0
TEXT
  5
42C
100
AcDbEntity
  8
0
100
AcDbText
 62
2
  6
CONTINUOUS
 10
17.13
 20
1.1
  7
STANDARD
 40
0.1
  1
C
 41
0.8
 72
1
 11
17.17
 21
1.1
100
AcDbText
  0
TEXT
  5
42D
100
AcDbEntity
  8
0
100
AcDbText
 62
2
  6
CONTINUOUS
 10
14.782
 20
2.419432
  7
STANDARD
 40
0.08
  1
of BANNER ENGINEERING CORP.
 41
0.85
 72
1
 11
15.7
 21
2.419432
100
AcDbText
  0
TEXT
  5
42E
100
AcDbEntity
  8
0
100
AcDbText
 62
2
  6
CONTINUOUS
 10
14.748
 20
2.539432
  7
STANDARD
 40
0.08
  1
This drawing is the property
 41
0.85
 72
1
 11
15.7
 21
2.539432
100
AcDbText
  0
TEXT
  5
42F
100
AcDbEntity
  8
0
100
AcDbText
 62
2
  6
CONTINUOUS
 10
18.86
 20
2.1764
  7
STANDARD
 40
0.1
  1
MINNEAPOLIS, MN 55440
 41
0.8
 72
1
 11
19.7
 21
2.1764
100
AcDbText
  0
TEXT
  5
430
100
AcDbEntity
  8
0
100
AcDbText
 62
2
  6
CONTINUOUS
 10
18.925
 20
0.87
  7
STANDARD
 40
0.08
  1
SHEET
 41
1.0
 72
0
100
AcDbText
  0
TEXT
  5
431
100
AcDbEntity
  8
0
100
AcDbText
 62
2
  6
CONTINUOUS
 10
20.3
 20
1.24
  7
STANDARD
 40
0.08
  1
REV.
 41
1.0
 72
0
100
AcDbText
  0
TEXT
  5
432
100
AcDbEntity
  8
0
100
AcDbText
 62
2
  6
CONTINUOUS
 10
20.7
 20
0.628443
  7
STANDARD
 40
0.07
  1
PRO/E
 41
1.0
 72
2
 11
21.05
 21
0.628443
100
AcDbText
  0
TEXT
  5
433
100
AcDbEntity
  8
0
100
AcDbText
 62
2
  6
CONTINUOUS
 10
18.3752
 20
2.494049
  7
STANDARD
 40
0.12
  1
BANNER ENGINEERING CORP.
 41
0.92
 72
1
 11
19.7
 21
2.494049
100
AcDbText
  0
TEXT
  5
434
100
AcDbEntity
  8
0
100
AcDbText
 62
2
  6
CONTINUOUS
 10
19.18
 20
2.3354
  7
STANDARD
 40
0.1
  1
P.O. BOX 9414
 41
0.8
 72
1
 11
19.7
 21
2.3354
100
AcDbText
  0
TEXT
  5
435
100
AcDbEntity
  8
0
100
AcDbText
 62
2
  6
CONTINUOUS
 10
12.217
 20
15.85
  7
STANDARD
 40
0.1
  1
4
 41
0.8
 72
1
 11
12.257
 21
15.85
100
AcDbText
  0
TEXT
  5
436
100
AcDbEntity
  8
0
100
AcDbText
 62
2
  6
CONTINUOUS
 10
12.217
 20
0.55
  7
STANDARD
 40
0.1
  1
4
 41
0.8
 72
1
 11
12.257
 21
0.55
100
AcDbText
  0
TEXT
  5
437
100
AcDbEntity
  8
0
100
AcDbText
 62
2
  6
CONTINUOUS
 10
0.784
 20
6.275
  7
STANDARD
 40
0.1
  1
B
 41
0.8
 72
2
 11
0.864
 21
6.275
100
AcDbText
  0
TEXT
  5
438
100
AcDbEntity
  8
0
100
AcDbText
 62
2
  6
CONTINUOUS
 10
21.15
 20
6.275
  7
STANDARD
 40
0.1
  1
B
 41
0.8
 72
0
100
AcDbText
  0
TEXT
  5
439
100
AcDbEntity
  8
0
100
AcDbText
 62
2
  6
CONTINUOUS
 10
0.784
 20
2.425
  7
STANDARD
 40
0.1
  1
A
 41
0.8
 72
2
 11
0.864
 21
2.425
100
AcDbText
  0
TEXT
  5
43A
100
AcDbEntity
  8
0
100
AcDbText
 62
2
  6
CONTINUOUS
 10
21.15
 20
2.425
  7
STANDARD
 40
0.1
  1
A
 41
0.8
 72
0
100
AcDbText
  0
TEXT
  5
43B
100
AcDbEntity
  8
0
100
AcDbText
 62
2
  6
CONTINUOUS
 10
0.784
 20
13.975
  7
STANDARD
 40
0.1
  1
D
 41
0.8
 72
2
 11
0.864
 21
13.975
100
AcDbText
  0
TEXT
  5
43C
100
AcDbEntity
  8
0
100
AcDbText
 62
2
  6
CONTINUOUS
 10
21.15
 20
13.975
  7
STANDARD
 40
0.1
  1
D
 41
0.8
 72
0
100
AcDbText
  0
TEXT
  5
43D
100
AcDbEntity
  8
0
100
AcDbText
 62
2
  6
CONTINUOUS
 10
0.784
 20
10.125
  7
STANDARD
 40
0.1
  1
C
 41
0.8
 72
2
 11
0.864
 21
10.125
100
AcDbText
  0
TEXT
  5
43E
100
AcDbEntity
  8
0
100
AcDbText
 62
2
  6
CONTINUOUS
 10
21.15
 20
10.125
  7
STANDARD
 40
0.1
  1
C
 41
0.8
 72
0
100
AcDbText
  0
TEXT
  5
43F
100
AcDbEntity
  8
0
100
AcDbText
 62
2
  6
CONTINUOUS
 10
14.717
 20
0.55
  7
STANDARD
 40
0.1
  1
3
 41
0.8
 72
1
 11
14.757
 21
0.55
100
AcDbText
  0
TEXT
  5
440
100
AcDbEntity
  8
0
100
AcDbText
 62
2
  6
CONTINUOUS
 10
14.717
 20
15.85
  7
STANDARD
 40
0.1
  1
3
 41
0.8
 72
1
 11
14.757
 21
15.85
100
AcDbText
  0
TEXT
  5
441
100
AcDbEntity
  8
0
100
AcDbText
 62
2
  6
CONTINUOUS
 10
17.217
 20
15.85
  7
STANDARD
 40
0.1
  1
2
 41
0.8
 72
1
 11
17.257
 21
15.85
100
AcDbText
  0
TEXT
  5
442
100
AcDbEntity
  8
0
100
AcDbText
 62
2
  6
CONTINUOUS
 10
17.217
 20
0.55
  7
STANDARD
 40
0.1
  1
2
 41
0.8
 72
1
 11
17.257
 21
0.55
100
AcDbText
  0
TEXT
  5
443
100
AcDbEntity
  8
0
100
AcDbText
 62
2
  6
CONTINUOUS
 10
19.717
 20
0.55
  7
STANDARD
 40
0.1
  1
1
 41
0.8
 72
1
 11
19.757
 21
0.55
100
AcDbText
  0
TEXT
  5
444
100
AcDbEntity
  8
0
100
AcDbText
 62
2
  6
CONTINUOUS
 10
19.717
 20
15.85
  7
STANDARD
 40
0.1
  1
1
 41
0.8
 72
1
 11
19.757
 21
15.85
100
AcDbText
  0
TEXT
  5
445
100
AcDbEntity
  8
0
100
AcDbText
 62
2
  6
CONTINUOUS
 10
2.217
 20
0.55
  7
STANDARD
 40
0.1
  1
8
 41
0.8
 72
1
 11
2.257
 21
0.55
100
AcDbText
  0
TEXT
  5
446
100
AcDbEntity
  8
0
100
AcDbText
 62
2
  6
CONTINUOUS
 10
4.717
 20
0.55
  7
STANDARD
 40
0.1
  1
7
 41
0.8
 72
1
 11
4.757
 21
0.55
100
AcDbText
  0
TEXT
  5
447
100
AcDbEntity
  8
0
100
AcDbText
 62
2
  6
CONTINUOUS
 10
7.217
 20
0.55
  7
STANDARD
 40
0.1
  1
6
 41
0.8
 72
1
 11
7.257
 21
0.55
100
AcDbText
  0
TEXT
  5
448
100
AcDbEntity
  8
0
100
AcDbText
 62
2
  6
CONTINUOUS
 10
9.717
 20
0.55
  7
STANDARD
 40
0.1
  1
5
 41
0.8
 72
1
 11
9.757
 21
0.55
100
AcDbText
  0
TEXT
  5
449
100
AcDbEntity
  8
0
100
AcDbText
 62
2
  6
CONTINUOUS
 10
9.717
 20
15.85
  7
STANDARD
 40
0.1
  1
5
 41
0.8
 72
1
 11
9.757
 21
15.85
100
AcDbText
  0
TEXT
  5
44A
100
AcDbEntity
  8
0
100
AcDbText
 62
2
  6
CONTINUOUS
 10
7.217
 20
15.85
  7
STANDARD
 40
0.1
  1
6
 41
0.8
 72
1
 11
7.257
 21
15.85
100
AcDbText
  0
TEXT
  5
44B
100
AcDbEntity
  8
0
100
AcDbText
 62
2
  6
CONTINUOUS
 10
4.717
 20
15.85
  7
STANDARD
 40
0.1
  1
7
 41
0.8
 72
1
 11
4.757
 21
15.85
100
AcDbText
  0
TEXT
  5
44C
100
AcDbEntity
  8
0
100
AcDbText
 62
2
  6
CONTINUOUS
 10
2.217
 20
15.85
  7
STANDARD
 40
0.1
  1
8
 41
0.8
 72
1
 11
2.257
 21
15.85
100
AcDbText
  0
TEXT
  5
44D
100
AcDbEntity
  8
0
100
AcDbText
 62
2
  6
CONTINUOUS
 10
17.2749123633
 20
0.8184107931
  7
STANDARD
 40
0.1
  1
1:1
 41
1.0
 72
0
100
AcDbText
  0
MTEXT
  5
44E
100
AcDbEntity
  8
0
100
AcDbMText
 62
2
  6
CONTINUOUS
  7
STANDARD
 71
1
 72
1
 10
19.4499123633
 20
0.9184107931
 30
0.0
 11
1.0
 21
0.0
 31
0.0
  1
1 OF 1
 40
0.1
 41
0.6
  0
TEXT
  5
44F
100
AcDbEntity
  8
0
100
AcDbText
 62
7
  6
CONTINUOUS
 10
18.5204017884
 20
1.1200373234
  7
STANDARD
 40
0.12
  1
145185
 41
1.0
 72
0
100
AcDbText
  0
MTEXT
  5
450
100
AcDbEntity
  8
0
100
AcDbMText
 62
2
  6
CONTINUOUS
  7
STANDARD
 71
1
 72
1
 10
1.7464424763
 20
1.7731130192
 30
0.0
 11
1.0
 21
0.0
 31
0.0
  1
NOTES:\P1. ALL DIMENSIONS ARE MILLIMETERS [INCHES] UNLESS OTHERWISE NOTED.
 40
0.1
 41
6.6
  0
INSERT
  5
451
100
AcDbEntity
  8
0
100
AcDbBlockReference
 62
2
  6
CONTINUOUS
  2
BANNER_LOGO_TITLEBLOCK_BL0
 10
17.5737928667
 20
2.4016160592
  0
DIMENSION
  5
452
100
AcDbEntity
  8
SCHEME_DIMS
100
AcDbDimension
 62
2
  6
CONTINUOUS
  2
*D0
 10
7.6109846487
 20
7.5832192797
 11
7.6109846487
 21
7.2092035317
 70
160
 42
19.0
  3
DIMSTYLE_1
100
AcDbAlignedDimension
 13
6.7010437038
 23
6.8351877837
 14
6.9642967565
 24
7.5832192797
 50
90.0
100
AcDbRotatedDimension
  0
DIMENSION
  5
453
100
AcDbEntity
  8
SCHEME_DIMS
100
AcDbDimension
 62
2
  6
CONTINUOUS
  2
*D1
 10
8.3609846487
 20
14.7958177049
 11
8.3609846487
 21
10.929828587
 70
160
 42
202.2
  3
DIMSTYLE_1
100
AcDbAlignedDimension
 13
6.7010437038
 23
6.8351877837
 14
7.1347090293
 24
14.7958177049
 50
90.0
100
AcDbRotatedDimension
  0
DIMENSION
  5
454
100
AcDbEntity
  8
SCHEME_DIMS
100
AcDbDimension
 62
2
  6
CONTINUOUS
  2
*D2
 10
7.0125594518
 20
5.5228937063
 11
6.1267326802
 21
5.4478937063
 70
160
 42
45.0
  3
DIMSTYLE_1
100
AcDbAlignedDimension
 13
5.2409059085
 23
7.6145694749
 14
7.0125594518
 24
7.6076220299
100
AcDbRotatedDimension
  0
DIMENSION
  5
455
100
AcDbEntity
  8
SCHEME_DIMS
100
AcDbDimension
 62
2
  6
CONTINUOUS
  2
*D3
 10
6.9194537257
 20
4.5002760031
 11
7.8314614316
 21
4.6426278213
 70
163
 42
50.0
  1
<>
  3
DIMSTYLE_2
100
AcDbDiametricDimension
 15
5.3340116346
 25
3.3334936215
  0
DIMENSION
  5
456
100
AcDbEntity
  8
SCHEME_DIMS
100
AcDbDimension
 62
2
  6
CONTINUOUS
  2
*D4
 10
7.6109846487
 20
9.6422743979
 11
7.6109846487
 21
9.0377468388
 70
160
 42
26.9
  1
4X <>
  3
DIMSTYLE_1
100
AcDbAlignedDimension
 13
7.1734846487
 23
8.5832192797
 14
7.1734846487
 24
9.6422743979
 50
90.0
100
AcDbRotatedDimension
  0
LINE
  5
457
100
AcDbEntity
  8
0
100
AcDbLine
 62
2
  6
CONTINUOUS
 10
21.05
 20
0.75
 11
16.7
 21
0.75
  0
LINE
  5
458
100
AcDbEntity
  8
0
100
AcDbLine
 62
2
  6
CONTINUOUS
 10
21.05
 20
0.75
 11
21.05
 21
2.67
  0
LINE
  5
459
100
AcDbEntity
  8
0
100
AcDbLine
 62
2
  6
CONTINUOUS
 10
21.05
 20
2.67
 11
16.7
 21
2.67
  0
LINE
  5
45A
100
AcDbEntity
  8
0
100
AcDbLine
 62
2
  6
CONTINUOUS
 10
16.7
 20
0.75
 11
16.7
 21
2.67
  0
TEXT
  5
45B
100
AcDbEntity
  8
0
100
AcDbText
 62
7
  6
CONTINUOUS
 10
20.775
 20
1.13
  7
STANDARD
 40
0.1
  1
A
 41
1.0
 72
1
 11
20.825
 21
1.13
100
AcDbText
  0
MTEXT
  5
45C
100
AcDbEntity
  8
0
100
AcDbMText
 62
7
  6
CONTINUOUS
  7
STANDARD
 71
2
 72
1
 10
18.875
 20
1.83
 30
0.0
 11
1.0
 21
0.0
 31
0.0
  1
TL50 4-STACK CABLE\PWEB CAD DRAWINGS 2D/3D
 40
0.1
 41
2.2
  0
TEXT
  5
45D
100
AcDbEntity
  8
NOTES
100
AcDbText
 62
2
  6
CONTINUOUS
 10
3.4271241347
 20
6.6652500849
  7
STANDARD
 40
0.1
  1
M30 X 1.5-6g
 41
1.0
 72
0
100
AcDbText
  0
LINE
  5
45E
100
AcDbEntity
  8
NOTES
100
AcDbLine
 62
2
  6
CONTINUOUS
 10
5.5849415201
 20
6.987753936
 11
4.8771241347
 21
6.7152500849
  0
LINE
  5
45F
100
AcDbEntity
  8
NOTES
100
AcDbLine
 62
2
  6
CONTINUOUS
 10
4.8771241347
 20
6.7152500849
 11
4.6271241347
 21
6.7152500849
  0
SOLID
  5
460
100
AcDbEntity
  8
NOTES
100
AcDbTrace
 62
2
  6
CONTINUOUS
 10
5.4211889506
 20
6.8912246219
 11
5.5849415201
 21
6.987753936
 12
5.3987336363
 22
6.9495513641
 13
5.3987336363
 23
6.9495513641
  0
MTEXT
  5
461
100
AcDbEntity
  8
NOTES
100
AcDbMText
 62
2
  6
CONTINUOUS
  7
STANDARD
 71
2
 72
1
 10
17.3262752762
 20
3.3439991671
 30
0.0
 11
1.0
 21
0.0
 31
0.0
  1
ISOMETRIC VIEW\P\H0.1;SCALE  1:1
 40
0.125
 41
1.75
  0
TEXT
  5
462
100
AcDbEntity
  8
NOTES
100
AcDbText
 62
2
  6
CONTINUOUS
 10
3.4102131097
 20
4.5926753724
  7
STANDARD
 40
0.1
  1
1/2-14 NPSM
 41
1.0
 72
0
100
AcDbText
  0
LINE
  5
463
100
AcDbEntity
  8
NOTES
100
AcDbLine
 62
2
  6
CONTINUOUS
 10
5.7672895237
 20
4.039932693
 11
4.7602131097
 21
4.6426753724
  0
LINE
  5
464
100
AcDbEntity
  8
NOTES
100
AcDbLine
 62
2
  6
CONTINUOUS
 10
4.7602131097
 20
4.6426753724
 11
4.5102131097
 21
4.6426753724
  0
SOLID
  5
465
100
AcDbEntity
  8
NOTES
100
AcDbTrace
 62
2
  6
CONTINUOUS
 10
5.5903551995
 20
4.109409721
 11
5.7672895237
 21
4.039932693
 12
5.6224523072
 22
4.1630383111
 13
5.6224523072
 23
4.1630383111
  0
LINE
  5
466
100
AcDbEntity
  8
0
100
AcDbLine
 62
2
  6
CONTINUOUS
 10
0.814
 20
8.336603
 11
0.814
 21
8.163397
  0
LINE
  5
467
100
AcDbEntity
  8
0
100
AcDbLine
 62
2
  6
CONTINUOUS
 10
0.964
 20
15.75
 11
0.964
 21
0.75
  0
LINE
  5
468
100
AcDbEntity
  8
0
100
AcDbLine
 62
7
  6
CONTINUOUS
 10
15.8276527477
 20
1.2966912523
 11
16.4340437477
 21
1.3660842523
  0
LINE
  5
469
100
AcDbEntity
  8
0
100
AcDbLine
 62
2
  6
CONTINUOUS
 10
10.920397
 20
0.6
 11
11.093603
 21
0.6
  0
LINE
  5
46A
100
AcDbEntity
  8
0
100
AcDbLine
 62
2
  6
CONTINUOUS
 10
0.964
 20
0.75
 11
21.05
 21
0.75
  0
LINE
  5
46B
100
AcDbEntity
  8
0
100
AcDbLine
 62
2
  6
CONTINUOUS
 10
3.507
 20
0.75
 11
3.507
 21
0.5
  0
LINE
  5
46C
100
AcDbEntity
  8
0
100
AcDbLine
 62
2
  6
CONTINUOUS
 10
3.507
 20
15.75
 11
3.507
 21
16.0
  0
LINE
  5
46D
100
AcDbEntity
  8
0
100
AcDbLine
 62
2
  6
CONTINUOUS
 10
16.7
 20
1.0
 11
21.05
 21
1.0
  0
LINE
  5
46E
100
AcDbEntity
  8
0
100
AcDbLine
 62
7
  6
CONTINUOUS
 10
14.9008917477
 20
1.1139932523
 11
15.1229827477
 21
1.1139932523
  0
LINE
  5
46F
100
AcDbEntity
  8
0
100
AcDbLine
 62
7
  6
CONTINUOUS
 10
15.1729827477
 20
1.1139932523
 11
15.2729827477
 21
1.1139932523
  0
LINE
  5
470
100
AcDbEntity
  8
0
100
AcDbLine
 62
7
  6
CONTINUOUS
 10
15.3229827477
 20
1.1139932523
 11
15.5450737477
 21
1.1139932523
  0
LINE
  5
471
100
AcDbEntity
  8
0
100
AcDbLine
 62
7
  6
CONTINUOUS
 10
15.7276527477
 20
1.1139932523
 11
16.0058047477
 21
1.1139932523
  0
LINE
  5
472
100
AcDbEntity
  8
0
100
AcDbLine
 62
7
  6
CONTINUOUS
 10
16.0558047477
 20
1.1139932523
 11
16.2058907477
 21
1.1139932523
  0
LINE
  5
473
100
AcDbEntity
  8
0
100
AcDbLine
 62
7
  6
CONTINUOUS
 10
16.2558907477
 20
1.1139932523
 11
16.5340437477
 21
1.1139932523
  0
LINE
  5
474
100
AcDbEntity
  8
0
100
AcDbLine
 62
2
  6
CONTINUOUS
 10
16.7
 20
1.37
 11
21.05
 21
1.37
  0
LINE
  5
475
100
AcDbEntity
  8
0
100
AcDbLine
 62
7
  6
CONTINUOUS
 10
16.4340437477
 20
0.8619022523
 11
15.8276527477
 21
0.9312952523
  0
LINE
  5
476
100
AcDbEntity
  8
0
100
AcDbLine
 62
2
  6
CONTINUOUS
 10
14.7
 20
1.77
 11
16.7
 21
1.77
  0
LINE
  5
477
100
AcDbEntity
  8
0
100
AcDbLine
 62
2
  6
CONTINUOUS
 10
16.7
 20
2.13
 11
21.05
 21
2.13
  0
LINE
  5
478
100
AcDbEntity
  8
0
100
AcDbLine
 62
2
  6
CONTINUOUS
 10
21.05
 20
2.67
 11
14.7
 21
2.67
  0
LINE
  5
479
100
AcDbEntity
  8
0
100
AcDbLine
 62
2
  6
CONTINUOUS
 10
6.007
 20
0.75
 11
6.007
 21
0.5
  0
LINE
  5
47A
100
AcDbEntity
  8
0
100
AcDbLine
 62
2
  6
CONTINUOUS
 10
6.007
 20
15.75
 11
6.007
 21
16.0
  0
LINE
  5
47B
100
AcDbEntity
  8
0
100
AcDbLine
 62
2
  6
CONTINUOUS
 10
0.814
 20
8.163397
 11
0.964
 21
8.25
  0
LINE
  5
47C
100
AcDbEntity
  8
0
100
AcDbLine
 62
2
  6
CONTINUOUS
 10
0.964
 20
8.25
 11
0.814
 21
8.336603
  0
LINE
  5
47D
100
AcDbEntity
  8
0
100
AcDbLine
 62
2
  6
CONTINUOUS
 10
0.964
 20
4.4
 11
0.714
 21
4.4
  0
LINE
  5
47E
100
AcDbEntity
  8
0
100
AcDbLine
 62
2
  6
CONTINUOUS
 10
21.05
 20
4.4
 11
21.3
 21
4.4
  0
LINE
  5
47F
100
AcDbEntity
  8
0
100
AcDbLine
 62
2
  6
CONTINUOUS
 10
11.093603
 20
0.6
 11
11.007
 21
0.75
  0
LINE
  5
480
100
AcDbEntity
  8
0
100
AcDbLine
 62
2
  6
CONTINUOUS
 10
11.007
 20
15.75
 11
11.093603
 21
15.9
  0
LINE
  5
481
100
AcDbEntity
  8
0
100
AcDbLine
 62
2
  6
CONTINUOUS
 10
8.507
 20
0.75
 11
8.507
 21
0.5
  0
LINE
  5
482
100
AcDbEntity
  8
0
100
AcDbLine
 62
2
  6
CONTINUOUS
 10
8.507
 20
15.75
 11
8.507
 21
16.0
  0
LINE
  5
483
100
AcDbEntity
  8
0
100
AcDbLine
 62
2
  6
CONTINUOUS
 10
11.007
 20
0.75
 11
11.007
 21
0.5
  0
LINE
  5
484
100
AcDbEntity
  8
0
100
AcDbLine
 62
2
  6
CONTINUOUS
 10
11.007
 20
15.75
 11
11.007
 21
16.0
  0
LINE
  5
485
100
AcDbEntity
  8
0
100
AcDbLine
 62
2
  6
CONTINUOUS
 10
0.964
 20
8.25
 11
0.714
 21
8.25
  0
LINE
  5
486
100
AcDbEntity
  8
0
100
AcDbLine
 62
2
  6
CONTINUOUS
 10
21.05
 20
8.25
 11
21.3
 21
8.25
  0
LINE
  5
487
100
AcDbEntity
  8
0
100
AcDbLine
 62
2
  6
CONTINUOUS
 10
13.507
 20
0.75
 11
13.507
 21
0.5
  0
LINE
  5
488
100
AcDbEntity
  8
0
100
AcDbLine
 62
2
  6
CONTINUOUS
 10
13.507
 20
15.75
 11
13.507
 21
16.0
  0
LINE
  5
489
100
AcDbEntity
  8
0
100
AcDbLine
 62
2
  6
CONTINUOUS
 10
14.7
 20
2.67
 11
14.7
 21
0.75
  0
LINE
  5
48A
100
AcDbEntity
  8
0
100
AcDbLine
 62
2
  6
CONTINUOUS
 10
11.007
 20
0.75
 11
10.920397
 21
0.6
  0
LINE
  5
48B
100
AcDbEntity
  8
0
100
AcDbLine
 62
2
  6
CONTINUOUS
 10
0.964
 20
12.1
 11
0.714
 21
12.1
  0
LINE
  5
48C
100
AcDbEntity
  8
0
100
AcDbLine
 62
2
  6
CONTINUOUS
 10
21.05
 20
12.1
 11
21.3
 21
12.1
  0
LINE
  5
48D
100
AcDbEntity
  8
0
100
AcDbLine
 62
2
  6
CONTINUOUS
 10
10.920397
 20
15.9
 11
11.007
 21
15.75
  0
LINE
  5
48E
100
AcDbEntity
  8
0
100
AcDbLine
 62
7
  6
CONTINUOUS
 10
15.2229827477
 20
1.0139932523
 11
15.2229827477
 21
0.7919022523
  0
LINE
  5
48F
100
AcDbEntity
  8
0
100
AcDbLine
 62
7
  6
CONTINUOUS
 10
15.2229827477
 20
1.0639932523
 11
15.2229827477
 21
1.1639932523
  0
LINE
  5
490
100
AcDbEntity
  8
0
100
AcDbLine
 62
7
  6
CONTINUOUS
 10
15.2229827477
 20
1.2139932523
 11
15.2229827477
 21
1.4360842523
  0
LINE
  5
491
100
AcDbEntity
  8
0
100
AcDbLine
 62
7
  6
CONTINUOUS
 10
15.8276527477
 20
0.9312952523
 11
15.8276527477
 21
1.2966912523
  0
LINE
  5
492
100
AcDbEntity
  8
0
100
AcDbLine
 62
2
  6
CONTINUOUS
 10
16.007
 20
0.75
 11
16.007
 21
0.5
  0
LINE
  5
493
100
AcDbEntity
  8
0
100
AcDbLine
 62
2
  6
CONTINUOUS
 10
16.007
 20
15.75
 11
16.007
 21
16.0
  0
LINE
  5
494
100
AcDbEntity
  8
0
100
AcDbLine
 62
7
  6
CONTINUOUS
 10
16.4340437477
 20
1.3660842523
 11
16.4340437477
 21
0.8619022523
  0
LINE
  5
495
100
AcDbEntity
  8
0
100
AcDbLine
 62
2
  6
CONTINUOUS
 10
21.2
 20
8.336603
 11
21.05
 21
8.25
  0
LINE
  5
496
100
AcDbEntity
  8
0
100
AcDbLine
 62
2
  6
CONTINUOUS
 10
21.05
 20
8.25
 11
21.2
 21
8.163397
  0
LINE
  5
497
100
AcDbEntity
  8
0
100
AcDbLine
 62
7
  6
CONTINUOUS
 10
16.7
 20
2.67
 11
16.7
 21
0.75
  0
LINE
  5
498
100
AcDbEntity
  8
0
100
AcDbLine
 62
2
  6
CONTINUOUS
 10
17.5
 20
1.37
 11
17.5
 21
1.0
  0
LINE
  5
499
100
AcDbEntity
  8
0
100
AcDbLine
 62
2
  6
CONTINUOUS
 10
18.507
 20
0.75
 11
18.507
 21
0.5
  0
LINE
  5
49A
100
AcDbEntity
  8
0
100
AcDbLine
 62
2
  6
CONTINUOUS
 10
18.507
 20
15.75
 11
18.507
 21
16.0
  0
LINE
  5
49B
100
AcDbEntity
  8
0
100
AcDbLine
 62
2
  6
CONTINUOUS
 10
21.05
 20
15.75
 11
0.964
 21
15.75
  0
LINE
  5
49C
100
AcDbEntity
  8
0
100
AcDbLine
 62
2
  6
CONTINUOUS
 10
11.093603
 20
15.9
 11
10.920397
 21
15.9
  0
LINE
  5
49D
100
AcDbEntity
  8
0
100
AcDbLine
 62
2
  6
CONTINUOUS
 10
18.875
 20
1.0
 11
18.875
 21
0.75
  0
LINE
  5
49E
100
AcDbEntity
  8
0
100
AcDbLine
 62
2
  6
CONTINUOUS
 10
20.25
 20
1.37
 11
20.25
 21
1.0
  0
LINE
  5
49F
100
AcDbEntity
  8
0
100
AcDbLine
 62
2
  6
CONTINUOUS
 10
21.05
 20
0.75
 11
21.05
 21
15.75
  0
LINE
  5
4A0
100
AcDbEntity
  8
0
100
AcDbLine
 62
2
  6
CONTINUOUS
 10
21.2
 20
8.163397
 11
21.2
 21
8.336603
  0
LINE
  5
4A1
100
AcDbEntity
  8
02___PRT_ALL_AXES
100
AcDbLine
 62
7
  6
CONTINUOUS
 10
6.0192326802
 20
5.7800696734
 11
6.2342326802
 21
5.7800696734
  0
LWPOLYLINE
  5
4A2
100
AcDbEntity
  8
02___PRT_ALL_AXES
100
AcDbPolyline
 62
7
  6
CONTINUOUS
 90
9
 70
0
 10
6.3527165892
 20
6.943481466
 10
6.4344344167
 20
6.9449543819
 10
6.5086110264
 20
6.9464272977
 10
6.5734284825
 20
6.9479002136
 10
6.6272982255
 20
6.9493731294
 10
6.6689000045
 20
6.9508460452
 10
6.6972142345
 20
6.9523189611
 10
6.7115469845
 20
6.9537918769
 10
6.7131210954
 20
6.9542675683
  0
LWPOLYLINE
  5
4A3
100
AcDbEntity
  8
02___PRT_ALL_AXES
100
AcDbPolyline
 62
7
  6
CONTINUOUS
 90
10
 70
0
 10
6.2304300596
 20
6.921086144
 10
6.3162048002
 20
6.9226054759
 10
6.3973682677
 20
6.9241312463
 10
6.4709650492
 20
6.9256471786
 10
6.5361929849
 20
6.9271775307
 10
6.5910270319
 20
6.9287217067
 10
6.6331818064
 20
6.9302583087
 10
6.6615323386
 20
6.931773819
 10
6.6760893505
 20
6.9333060986
 10
6.6776735299
 20
6.9337935212
  0
LINE
  5
4A4
100
AcDbEntity
  8
0
100
AcDbLine
 62
7
  6
CONTINUOUS
 10
6.6385437038
 20
6.8351877837
 11
5.6149216565
 21
6.8351877837
  0
LINE
  5
4A5
100
AcDbEntity
  8
0
100
AcDbLine
 62
9
  6
CONTINUOUS
 10
5.5755515778
 20
6.8745578624
 11
6.6779137825
 21
6.8745578624
  0
LWPOLYLINE
  5
4A6
100
AcDbEntity
  8
02___PRT_ALL_AXES
100
AcDbPolyline
 62
7
  6
CONTINUOUS
 90
4
 70
0
 10
6.0230353007
 20
6.9175283807
 10
5.9825058502
 20
6.9220798344
 10
5.9417220699
 20
6.9282784322
 10
5.9007487711
 20
6.9360476446
  0
LWPOLYLINE
  5
4A7
100
AcDbEntity
  8
02___PRT_ALL_AXES
100
AcDbPolyline
 62
7
  6
CONTINUOUS
 90
5
 70
0
 10
6.3527165892
 20
7.1797019385
 10
6.3233900591
 20
7.1731047685
 10
6.2927099762
 20
7.1670020041
 10
6.2614711474
 20
7.1616735524
 10
6.2304300596
 20
7.1573066164
  0
LWPOLYLINE
  5
4A8
100
AcDbEntity
  8
02___PRT_ALL_AXES
100
AcDbPolyline
 62
7
  6
CONTINUOUS
 90
5
 70
0
 10
6.3527165892
 20
6.943481466
 10
6.3230685295
 20
6.9368160246
 10
6.292010616
 20
6.9306522952
 10
6.2607881014
 20
6.9253468877
 10
6.2304300596
 20
6.921086144
  0
LWPOLYLINE
  5
4A9
100
AcDbEntity
  8
02___PRT_ALL_AXES
100
AcDbPolyline
 62
7
  6
CONTINUOUS
 90
4
 70
0
 10
6.3527165892
 20
7.0025365841
 10
6.3117408885
 20
6.9935235617
 10
6.2709603061
 20
6.9860296238
 10
6.2304300596
 20
6.9801412621
  0
LWPOLYLINE
  5
4AA
100
AcDbEntity
  8
02___PRT_ALL_AXES
100
AcDbPolyline
 62
7
  6
CONTINUOUS
 90
4
 70
0
 10
5.9007487711
 20
6.9434295344
 10
5.9417178181
 20
6.9524412111
 10
5.9824978248
 20
6.9599353029
 10
6.0230353007
 20
6.9658248564
  0
LWPOLYLINE
  5
4AB
100
AcDbEntity
  8
02___PRT_ALL_AXES
100
AcDbPolyline
 62
7
  6
CONTINUOUS
 90
4
 70
0
 10
6.3527165892
 20
7.0615917022
 10
6.3117408885
 20
7.0525786798
 10
6.2709603061
 20
7.0450847419
 10
6.2304300596
 20
7.0391963802
  0
LWPOLYLINE
  5
4AC
100
AcDbEntity
  8
02___PRT_ALL_AXES
100
AcDbPolyline
 62
7
  6
CONTINUOUS
 90
4
 70
0
 10
5.9007487711
 20
7.0024846525
 10
5.9417178181
 20
7.0114963292
 10
5.9824978248
 20
7.018990421
 10
6.0230353007
 20
7.0248799746
  0
LWPOLYLINE
  5
4AD
100
AcDbEntity
  8
02___PRT_ALL_AXES
100
AcDbPolyline
 62
7
  6
CONTINUOUS
 90
4
 70
0
 10
6.3527165892
 20
7.1206468204
 10
6.3117408885
 20
7.1116337979
 10
6.2709603061
 20
7.10413986
 10
6.2304300596
 20
7.0982514983
  0
LWPOLYLINE
  5
4AE
100
AcDbEntity
  8
02___PRT_ALL_AXES
100
AcDbPolyline
 62
7
  6
CONTINUOUS
 90
4
 70
0
 10
5.9007487711
 20
7.0615397706
 10
5.9417262041
 20
7.0705531435
 10
5.9825053631
 20
7.0780467819
 10
6.0230353007
 20
7.0839350927
  0
LWPOLYLINE
  5
4AF
100
AcDbEntity
  8
02___PRT_ALL_AXES
100
AcDbPolyline
 62
7
  6
CONTINUOUS
 90
4
 70
0
 10
5.9007487711
 20
7.1205948887
 10
5.9417178181
 20
7.1296065654
 10
5.9824978248
 20
7.1371006573
 10
6.0230353007
 20
7.1429902108
  0
LWPOLYLINE
  5
4B0
100
AcDbEntity
  8
02___PRT_ALL_AXES
100
AcDbPolyline
 62
7
  6
CONTINUOUS
 90
5
 70
0
 10
5.6493958434
 20
7.1349265727
 10
5.6121134444
 20
7.1334479412
 10
5.5874854027
 20
7.1319647082
 10
5.5761944213
 20
7.1304592967
 10
5.5757918304
 20
7.1302828336
  0
LWPOLYLINE
  5
4B1
100
AcDbEntity
  8
02___PRT_ALL_AXES
100
AcDbPolyline
 62
7
  6
CONTINUOUS
 90
7
 70
0
 10
5.6493958434
 20
7.086630097
 10
5.6932031044
 20
7.0879647526
 10
5.7460158171
 20
7.0893059735
 10
5.8061680671
 20
7.090638814
 10
5.8731770191
 20
7.0919797437
 10
5.9461477933
 20
7.0933352896
 10
6.0230353007
 20
7.094693735
  0
LWPOLYLINE
  5
4B2
100
AcDbEntity
  8
02___PRT_ALL_AXES
100
AcDbPolyline
 62
7
  6
CONTINUOUS
 90
5
 70
0
 10
5.6187099039
 20
7.10708739
 10
5.6730168753
 20
7.1086187922
 10
5.7393422321
 20
7.1101501945
 10
5.8159290953
 20
7.1116815967
 10
5.9007487711
 20
7.113212999
  0
LWPOLYLINE
  5
4B3
100
AcDbEntity
  8
02___PRT_ALL_AXES
100
AcDbPolyline
 62
7
  6
CONTINUOUS
 90
5
 70
0
 10
5.6187099039
 20
7.1144692797
 10
5.6730168753
 20
7.116000682
 10
5.7393422321
 20
7.1175320842
 10
5.8159290953
 20
7.1190634865
 10
5.9007487711
 20
7.1205948887
  0
LWPOLYLINE
  5
4B4
100
AcDbEntity
  8
02___PRT_ALL_AXES
100
AcDbPolyline
 62
7
  6
CONTINUOUS
 90
7
 70
0
 10
6.4723689443
 20
7.1028432258
 10
6.537267728
 20
7.1043703064
 10
6.5915717581
 20
7.1059043221
 10
6.6332106367
 20
7.107424909
 10
6.6615036898
 20
7.1089371553
 10
6.6760965032
 20
7.1104729547
 10
6.6776735299
 20
7.1109588755
  0
LWPOLYLINE
  5
4B5
100
AcDbEntity
  8
02___PRT_ALL_AXES
100
AcDbPolyline
 62
7
  6
CONTINUOUS
 90
5
 70
0
 10
6.5367629214
 20
7.034543655
 10
6.4714093866
 20
7.0330084782
 10
6.3979869523
 20
7.0314949549
 10
6.3170373643
 20
7.0299721927
 10
6.2304300596
 20
7.0284377379
  0
LWPOLYLINE
  5
4B6
100
AcDbEntity
  8
02___PRT_ALL_AXES
100
AcDbPolyline
 62
7
  6
CONTINUOUS
 90
5
 70
0
 10
5.7175378346
 20
7.2067193439
 10
5.7829716682
 20
7.2082532237
 10
5.8566053374
 20
7.2097688146
 10
5.9371165156
 20
7.2112820235
 10
6.0230353007
 20
7.2128039712
  0
LWPOLYLINE
  5
4B7
100
AcDbEntity
  8
02___PRT_ALL_AXES
100
AcDbPolyline
 62
7
  6
CONTINUOUS
 90
3
 70
0
 10
5.7448543339
 20
6.9995388208
 10
5.8190309436
 20
7.0010117367
 10
5.9007487711
 20
7.0024846525
  0
LWPOLYLINE
  5
4B8
100
AcDbEntity
  8
02___PRT_ALL_AXES
100
AcDbPolyline
 62
7
  6
CONTINUOUS
 90
9
 70
0
 10
6.3527165892
 20
6.9508633558
 10
6.4344344167
 20
6.9523362716
 10
6.5086110264
 20
6.9538091875
 10
6.5734284825
 20
6.9552821033
 10
6.6272982255
 20
6.9567550192
 10
6.6689000045
 20
6.958227935
 10
6.6972142345
 20
6.9597008509
 10
6.7115469845
 20
6.9611737667
 10
6.7133468534
 20
6.9619102246
  0
LWPOLYLINE
  5
4B9
100
AcDbEntity
  8
02___PRT_ALL_AXES
100
AcDbPolyline
 62
7
  6
CONTINUOUS
 90
9
 70
0
 10
6.3527165892
 20
7.0025365841
 10
6.4344344167
 20
7.0040095
 10
6.5086110264
 20
7.0054824158
 10
6.5734284825
 20
7.0069553317
 10
6.6272982255
 20
7.0084282475
 10
6.6689000045
 20
7.0099011634
 10
6.6972142345
 20
7.0113740792
 10
6.7115469845
 20
7.012846995
 10
6.7131210954
 20
7.0133226864
  0
LWPOLYLINE
  5
4BA
100
AcDbEntity
  8
02___PRT_ALL_AXES
100
AcDbPolyline
 62
7
  6
CONTINUOUS
 90
9
 70
0
 10
6.3527165892
 20
7.0099184739
 10
6.4344344167
 20
7.0113913897
 10
6.5086110264
 20
7.0128643056
 10
6.5734284825
 20
7.0143372214
 10
6.6272982255
 20
7.0158101373
 10
6.6689000045
 20
7.0172830531
 10
6.6972142345
 20
7.018755969
 10
6.7115469845
 20
7.0202288848
 10
6.7133468534
 20
7.0209653427
  0
LWPOLYLINE
  5
4BB
100
AcDbEntity
  8
02___PRT_ALL_AXES
100
AcDbPolyline
 62
7
  6
CONTINUOUS
 90
9
 70
0
 10
6.3527165892
 20
7.0615917022
 10
6.4344344167
 20
7.0630646181
 10
6.5086110264
 20
7.0645375339
 10
6.5734284825
 20
7.0660104498
 10
6.6272982255
 20
7.0674833656
 10
6.6689000045
 20
7.0689562815
 10
6.6972142345
 20
7.0704291973
 10
6.7115469845
 20
7.0719021132
 10
6.7131210954
 20
7.0723778045
  0
LWPOLYLINE
  5
4BC
100
AcDbEntity
  8
02___PRT_ALL_AXES
100
AcDbPolyline
 62
7
  6
CONTINUOUS
 90
9
 70
0
 10
6.3527165892
 20
7.068973592
 10
6.4344344167
 20
7.0704465079
 10
6.5086110264
 20
7.0719194237
 10
6.5734284825
 20
7.0733923395
 10
6.6272982255
 20
7.0748652554
 10
6.6689000045
 20
7.0763381712
 10
6.6972142345
 20
7.0778110871
 10
6.7115469845
 20
7.0792840029
 10
6.7133468534
 20
7.0800204608
  0
LWPOLYLINE
  5
4BD
100
AcDbEntity
  8
02___PRT_ALL_AXES
100
AcDbPolyline
 62
7
  6
CONTINUOUS
 90
9
 70
0
 10
6.3527165892
 20
7.1206468204
 10
6.4344344167
 20
7.1221197362
 10
6.5086110264
 20
7.123592652
 10
6.5734284825
 20
7.1250655679
 10
6.6272982255
 20
7.1265384837
 10
6.6689000045
 20
7.1280113996
 10
6.6972142345
 20
7.1294843154
 10
6.7115469845
 20
7.1309572313
 10
6.7131210954
 20
7.1314329226
  0
LWPOLYLINE
  5
4BE
100
AcDbEntity
  8
02___PRT_ALL_AXES
100
AcDbPolyline
 62
7
  6
CONTINUOUS
 90
9
 70
0
 10
6.3527165892
 20
7.1280287101
 10
6.4344344167
 20
7.129501626
 10
6.5086110264
 20
7.1309745418
 10
6.5734284825
 20
7.1324474577
 10
6.6272982255
 20
7.1339203735
 10
6.6689000045
 20
7.1353932893
 10
6.6972142345
 20
7.1368662052
 10
6.7115469845
 20
7.138339121
 10
6.7133468534
 20
7.139075579
  0
LWPOLYLINE
  5
4BF
100
AcDbEntity
  8
02___PRT_ALL_AXES
100
AcDbPolyline
 62
7
  6
CONTINUOUS
 90
9
 70
0
 10
6.3527165892
 20
7.1797019385
 10
6.4344344167
 20
7.1811748543
 10
6.5086110264
 20
7.1826477702
 10
6.5734284825
 20
7.184120686
 10
6.6272982255
 20
7.1855936018
 10
6.6689000045
 20
7.1870665177
 10
6.6972142345
 20
7.1885394335
 10
6.7115469845
 20
7.1900123494
 10
6.7131210954
 20
7.1904880407
  0
LWPOLYLINE
  5
4C0
100
AcDbEntity
  8
02___PRT_ALL_AXES
100
AcDbPolyline
 62
7
  6
CONTINUOUS
 90
9
 70
0
 10
6.3527165892
 20
7.1870838282
 10
6.4344344167
 20
7.1885567441
 10
6.5086110264
 20
7.1900296599
 10
6.5734284825
 20
7.1915025758
 10
6.6272982255
 20
7.1929754916
 10
6.6689000045
 20
7.1944484075
 10
6.6972142345
 20
7.1959213233
 10
6.7115469845
 20
7.1973942391
 10
6.7133468534
 20
7.1981306971
  0
LWPOLYLINE
  5
4C1
100
AcDbEntity
  8
02___PRT_ALL_AXES
100
AcDbPolyline
 62
7
  6
CONTINUOUS
 90
9
 70
0
 10
6.3527165892
 20
7.2387570566
 10
6.4344344167
 20
7.2402299724
 10
6.5086110264
 20
7.2417028883
 10
6.5734284825
 20
7.2431758041
 10
6.6272982255
 20
7.24464872
 10
6.6689000045
 20
7.2461216358
 10
6.6972142345
 20
7.2475945516
 10
6.7115469845
 20
7.2490674675
 10
6.7131210954
 20
7.2495431588
  0
LWPOLYLINE
  5
4C2
100
AcDbEntity
  8
02___PRT_ALL_AXES
100
AcDbPolyline
 62
7
  6
CONTINUOUS
 90
9
 70
0
 10
6.3527165892
 20
7.2461389463
 10
6.4344344167
 20
7.2476118622
 10
6.5086110264
 20
7.249084778
 10
6.5734284825
 20
7.2505576939
 10
6.6272982255
 20
7.2520306097
 10
6.6689000045
 20
7.2535035256
 10
6.6972142345
 20
7.2549764414
 10
6.7115469845
 20
7.2564493573
 10
6.7133468534
 20
7.2571858152
  0
LWPOLYLINE
  5
4C3
100
AcDbEntity
  8
02___PRT_ALL_AXES
100
AcDbPolyline
 62
7
  6
CONTINUOUS
 90
10
 70
0
 10
6.0230353007
 20
6.9658248564
 10
5.9358015628
 20
6.9642790169
 10
5.8540232911
 20
6.9627391111
 10
5.7805250258
 20
6.9612206138
 10
5.7161113551
 20
6.9597038432
 10
5.6624678763
 20
6.9581902286
 10
5.6207584415
 20
6.9566731606
 10
5.5922316019
 20
6.9551581282
 10
5.5774596712
 20
6.9536222538
 10
5.5757918304
 20
6.9531174793
  0
LWPOLYLINE
  5
4C4
100
AcDbEntity
  8
02___PRT_ALL_AXES
100
AcDbPolyline
 62
7
  6
CONTINUOUS
 90
10
 70
0
 10
6.2304300596
 20
6.9801412621
 10
6.3170373643
 20
6.981675717
 10
6.3979869523
 20
6.9831984792
 10
6.4714093866
 20
6.9847120024
 10
6.5367629214
 20
6.9862471793
 10
6.5916188643
 20
6.9877955809
 10
6.6337055682
 20
6.9893361233
 10
6.6618939293
 20
6.9908545576
 10
6.6761594679
 20
6.992376068
 10
6.6776735299
 20
6.9928486393
  0
LWPOLYLINE
  5
4C5
100
AcDbEntity
  8
02___PRT_ALL_AXES
100
AcDbPolyline
 62
7
  6
CONTINUOUS
 90
10
 70
0
 10
6.0230353007
 20
7.0248799746
 10
5.935916703
 20
7.023336228
 10
5.8542849119
 20
7.021799362
 10
5.7808109447
 20
7.0202819961
 10
5.7157251459
 20
7.018749083
 10
5.6611358386
 20
7.0172030559
 10
5.6193032383
 20
7.0156652239
 10
5.5913188148
 20
7.0141486105
 10
5.5772037445
 20
7.0126229922
 10
5.5757918304
 20
7.0121725974
  0
LWPOLYLINE
  5
4C6
100
AcDbEntity
  8
02___PRT_ALL_AXES
100
AcDbPolyline
 62
7
  6
CONTINUOUS
 90
10
 70
0
 10
6.2304300596
 20
7.0391963802
 10
6.3176054834
 20
7.0407411597
 10
6.3993403032
 20
7.0422801288
 10
6.4727792779
 20
7.0437970939
 10
6.5369999436
 20
7.0453083476
 10
6.5908215692
 20
7.0468254451
 10
6.6327270215
 20
7.0483489404
 10
6.6612460694
 20
7.0498639685
 10
6.6760046459
 20
7.0513987689
 10
6.6776735299
 20
7.0519037574
  0
LWPOLYLINE
  5
4C7
100
AcDbEntity
  8
02___PRT_ALL_AXES
100
AcDbPolyline
 62
7
  6
CONTINUOUS
 90
10
 70
0
 10
6.0230353007
 20
7.0839350927
 10
5.9376048562
 20
7.082422012
 10
5.8567785201
 20
7.0809033236
 10
5.7831251274
 20
7.0793876924
 10
5.7177544792
 20
7.0778559777
 10
5.6627830695
 20
7.0763104284
 10
5.6205045374
 20
7.0747724658
 10
5.5920798201
 20
7.0732577395
 10
5.5775089179
 20
7.0717425269
 10
5.5757918304
 20
7.0712277155
  0
LWPOLYLINE
  5
4C8
100
AcDbEntity
  8
02___PRT_ALL_AXES
100
AcDbPolyline
 62
7
  6
CONTINUOUS
 90
4
 70
0
 10
6.2304300596
 20
7.0982514983
 10
6.3172095944
 20
7.0997890828
 10
6.3987987817
 20
7.1013246256
 10
6.4723689443
 20
7.1028432258
  0
LWPOLYLINE
  5
4C9
100
AcDbEntity
  8
02___PRT_ALL_AXES
100
AcDbPolyline
 62
7
  6
CONTINUOUS
 90
7
 70
0
 10
6.0230353007
 20
7.1429902108
 10
5.9461477933
 20
7.1416317654
 10
5.8731770191
 20
7.1402762194
 10
5.8061680671
 20
7.1389352898
 10
5.7460158171
 20
7.1376024493
 10
5.6932031044
 20
7.1362612284
 10
5.6493958434
 20
7.1349265727
  0
LWPOLYLINE
  5
4CA
100
AcDbEntity
  8
02___PRT_ALL_AXES
100
AcDbPolyline
 62
7
  6
CONTINUOUS
 90
10
 70
0
 10
6.2304300596
 20
7.1573066164
 10
6.3163796282
 20
7.1588291233
 10
6.3968942479
 20
7.1603424426
 10
6.4705222583
 20
7.1618579871
 10
6.5359539955
 20
7.1633919175
 10
6.5909429584
 20
7.1649395194
 10
6.6331990606
 20
7.1664795268
 10
6.6615665359
 20
7.1679967024
 10
6.6760145571
 20
7.1695110401
 10
6.6776735299
 20
7.1700139936
  0
LWPOLYLINE
  5
4CB
100
AcDbEntity
  8
02___PRT_ALL_AXES
100
AcDbPolyline
 62
7
  6
CONTINUOUS
 90
10
 70
0
 10
6.0230353007
 20
7.2020453289
 10
5.9358507702
 20
7.2005003838
 10
5.8541148646
 20
7.1989613803
 10
5.780672895
 20
7.1974443263
 10
5.7162977806
 20
7.1959290798
 10
5.6620044556
 20
7.1943960218
 10
5.6200905108
 20
7.1928648138
 10
5.5918087262
 20
7.1913488787
 10
5.5773383982
 20
7.1898174441
 10
5.5757918304
 20
7.1893379517
  0
LWPOLYLINE
  5
4CC
100
AcDbEntity
  8
02___PRT_ALL_AXES
100
AcDbPolyline
 62
7
  6
CONTINUOUS
 90
10
 70
0
 10
6.2304300596
 20
7.2163617345
 10
6.3176096004
 20
7.2179065889
 10
6.39934638
 20
7.2194456023
 10
6.472786811
 20
7.2209626133
 10
6.5371367908
 20
7.2224771971
 10
6.5914126794
 20
7.2240095124
 10
6.6333319257
 20
7.2255403914
 10
6.6616291462
 20
7.2270562413
 10
6.6761184794
 20
7.2285878236
 10
6.6776735299
 20
7.2290691117
  0
LWPOLYLINE
  5
4CD
100
AcDbEntity
  8
02___PRT_ALL_AXES
100
AcDbPolyline
 62
7
  6
CONTINUOUS
 90
5
 70
0
 10
6.0230353007
 20
7.2128039712
 10
5.9920254772
 20
7.216139245
 10
5.9607994118
 20
7.2204579103
 10
5.9301094496
 20
7.2256034621
 10
5.9007487711
 20
7.2313232352
  0
LWPOLYLINE
  5
4CE
100
AcDbEntity
  8
02___PRT_ALL_AXES
100
AcDbPolyline
 62
7
  6
CONTINUOUS
 90
5
 70
0
 10
6.2304300596
 20
7.2056030922
 10
6.2615009035
 20
7.202260307
 10
6.2927540354
 20
7.197935643
 10
6.3234309021
 20
7.1927899679
 10
6.3527165892
 20
7.1870838282
  0
LWPOLYLINE
  5
4CF
100
AcDbEntity
  8
02___PRT_ALL_AXES
100
AcDbPolyline
 62
7
  6
CONTINUOUS
 90
4
 70
0
 10
6.0230353007
 20
6.9765834988
 10
5.9825058502
 20
6.9811349525
 10
5.9417220699
 20
6.9873335503
 10
5.9007487711
 20
6.9951027628
  0
LWPOLYLINE
  5
4D0
100
AcDbEntity
  8
02___PRT_ALL_AXES
100
AcDbPolyline
 62
7
  6
CONTINUOUS
 90
4
 70
0
 10
6.0230353007
 20
7.0356386169
 10
5.9825158756
 20
7.0401887431
 10
5.9417330789
 20
7.0463867841
 10
5.9007487711
 20
7.0541578809
  0
LWPOLYLINE
  5
4D1
100
AcDbEntity
  8
02___PRT_ALL_AXES
100
AcDbPolyline
 62
7
  6
CONTINUOUS
 90
4
 70
0
 10
6.2304300596
 20
7.0284377379
 10
6.2709670733
 20
7.0238852825
 10
6.3117502091
 20
7.0176865021
 10
6.3527165892
 20
7.0099184739
  0
LWPOLYLINE
  5
4D2
100
AcDbEntity
  8
02___PRT_ALL_AXES
100
AcDbPolyline
 62
7
  6
CONTINUOUS
 90
4
 70
0
 10
6.0230353007
 20
7.094693735
 10
5.9825058502
 20
7.0992451887
 10
5.9417220699
 20
7.1054437865
 10
5.9007487711
 20
7.113212999
  0
LWPOLYLINE
  5
4D3
100
AcDbEntity
  8
02___PRT_ALL_AXES
100
AcDbPolyline
 62
7
  6
CONTINUOUS
 90
4
 70
0
 10
6.2304300596
 20
7.087492856
 10
6.2709670733
 20
7.0829404007
 10
6.3117502091
 20
7.0767416202
 10
6.3527165892
 20
7.068973592
  0
LWPOLYLINE
  5
4D4
100
AcDbEntity
  8
02___PRT_ALL_AXES
100
AcDbPolyline
 62
7
  6
CONTINUOUS
 90
4
 70
0
 10
6.0230353007
 20
7.1537488531
 10
5.9825058502
 20
7.1583003069
 10
5.9417220699
 20
7.1644989046
 10
5.9007487711
 20
7.1722681171
  0
LWPOLYLINE
  5
4D5
100
AcDbEntity
  8
02___PRT_ALL_AXES
100
AcDbPolyline
 62
7
  6
CONTINUOUS
 90
4
 70
0
 10
6.2304300596
 20
7.1465479741
 10
6.2709670733
 20
7.1419955188
 10
6.3117502091
 20
7.1357967383
 10
6.3527165892
 20
7.1280287101
  0
LWPOLYLINE
  5
4D6
100
AcDbEntity
  8
02___PRT_ALL_AXES
100
AcDbPolyline
 62
7
  6
CONTINUOUS
 90
4
 70
0
 10
6.2304300596
 20
6.9693826198
 10
6.2712364042
 20
6.9647944609
 10
6.3127800329
 20
6.958454616
 10
6.3527165892
 20
6.9508633558
  0
LINE
  5
4D7
100
AcDbEntity
  8
0
100
AcDbLine
 62
7
  6
CONTINUOUS
 10
5.5403442649
 20
6.9247400092
 11
5.5757918304
 21
6.9042659621
  0
LINE
  5
4D8
100
AcDbEntity
  8
0
100
AcDbLine
 62
7
  6
CONTINUOUS
 10
5.5403442649
 20
6.9837951273
 11
5.5757918304
 21
6.9633210802
  0
LINE
  5
4D9
100
AcDbEntity
  8
0
100
AcDbLine
 62
7
  6
CONTINUOUS
 10
5.5403442649
 20
7.0428502455
 11
5.5757918304
 21
7.0223761983
  0
LINE
  5
4DA
100
AcDbEntity
  8
0
100
AcDbLine
 62
7
  6
CONTINUOUS
 10
5.5403442649
 20
7.1019053636
 11
5.5757918304
 21
7.0814313164
  0
LWPOLYLINE
  5
4DB
100
AcDbEntity
  8
02___PRT_ALL_AXES
100
AcDbPolyline
 62
7
  6
CONTINUOUS
 90
5
 70
0
 10
5.9007487711
 20
7.238705125
 10
5.9300052734
 20
7.2452874138
 10
5.9606676456
 20
7.2513888142
 10
5.9919289268
 20
7.2567233376
 10
6.0230353007
 20
7.261100447
  0
LWPOLYLINE
  5
4DC
100
AcDbEntity
  8
02___PRT_ALL_AXES
100
AcDbPolyline
 62
7
  6
CONTINUOUS
 90
4
 70
0
 10
6.3527165892
 20
7.2387570566
 10
6.3117408885
 20
7.2297440341
 10
6.2709603061
 20
7.2222500963
 10
6.2304300596
 20
7.2163617345
  0
LWPOLYLINE
  5
4DD
100
AcDbEntity
  8
02___PRT_ALL_AXES
100
AcDbPolyline
 62
7
  6
CONTINUOUS
 90
4
 70
0
 10
5.9007487711
 20
7.1796500068
 10
5.9417178181
 20
7.1886616835
 10
5.9824978248
 20
7.1961557754
 10
6.0230353007
 20
7.2020453289
  0
LWPOLYLINE
  5
4DE
100
AcDbEntity
  8
02___PRT_ALL_AXES
100
AcDbPolyline
 62
7
  6
CONTINUOUS
 90
4
 70
0
 10
6.3527165892
 20
7.2978121747
 10
6.3117408885
 20
7.2887991522
 10
6.2709603061
 20
7.2813052144
 10
6.2304300596
 20
7.2754168526
  0
LWPOLYLINE
  5
4DF
100
AcDbEntity
  8
02___PRT_ALL_AXES
100
AcDbPolyline
 62
7
  6
CONTINUOUS
 90
4
 70
0
 10
6.3527165892
 20
7.3568672928
 10
6.3117302863
 20
7.347852126
 10
6.2709507308
 20
7.3403587541
 10
6.2304300596
 20
7.3344719708
  0
LWPOLYLINE
  5
4E0
100
AcDbEntity
  8
02___PRT_ALL_AXES
100
AcDbPolyline
 62
7
  6
CONTINUOUS
 90
4
 70
0
 10
5.9007487711
 20
7.2977602431
 10
5.9417178181
 20
7.3067719198
 10
5.9824978248
 20
7.3142660116
 10
6.0230353007
 20
7.3201555651
  0
LWPOLYLINE
  5
4E1
100
AcDbEntity
  8
02___PRT_ALL_AXES
100
AcDbPolyline
 62
7
  6
CONTINUOUS
 90
4
 70
0
 10
6.3527165892
 20
7.4159224109
 10
6.3117408885
 20
7.4069093884
 10
6.2709603061
 20
7.3994154506
 10
6.2304300596
 20
7.3935270889
  0
LWPOLYLINE
  5
4E2
100
AcDbEntity
  8
02___PRT_ALL_AXES
100
AcDbPolyline
 62
7
  6
CONTINUOUS
 90
4
 70
0
 10
5.9007487711
 20
7.3568153612
 10
5.9417178181
 20
7.3658270379
 10
5.9824978248
 20
7.3733211297
 10
6.0230353007
 20
7.3792106832
  0
LWPOLYLINE
  5
4E3
100
AcDbEntity
  8
02___PRT_ALL_AXES
100
AcDbPolyline
 62
7
  6
CONTINUOUS
 90
4
 70
0
 10
6.3527165892
 20
7.474977529
 10
6.3117408885
 20
7.4659645065
 10
6.2709603061
 20
7.4584705687
 10
6.2304300596
 20
7.452582207
  0
LWPOLYLINE
  5
4E4
100
AcDbEntity
  8
02___PRT_ALL_AXES
100
AcDbPolyline
 62
7
  6
CONTINUOUS
 90
4
 70
0
 10
5.9007487711
 20
7.4158704793
 10
5.9417178181
 20
7.424882156
 10
5.9824978248
 20
7.4323762478
 10
6.0230353007
 20
7.4382658013
  0
LWPOLYLINE
  5
4E5
100
AcDbEntity
  8
02___PRT_ALL_AXES
100
AcDbPolyline
 62
7
  6
CONTINUOUS
 90
5
 70
0
 10
6.6040695169
 20
7.2834804907
 10
6.6413484351
 20
7.2849589565
 10
6.6659781245
 20
7.2864422042
 10
6.6772706289
 20
7.2879476572
 10
6.6776735299
 20
7.2881242298
  0
LWPOLYLINE
  5
4E6
100
AcDbEntity
  8
02___PRT_ALL_AXES
100
AcDbPolyline
 62
7
  6
CONTINUOUS
 90
5
 70
0
 10
6.6347554564
 20
7.3039377837
 10
6.6738291664
 20
7.3053894317
 10
6.6998781753
 20
7.3068410798
 10
6.7122823355
 20
7.3082927279
 10
6.7131210954
 20
7.3085982769
  0
LWPOLYLINE
  5
4E7
100
AcDbEntity
  8
02___PRT_ALL_AXES
100
AcDbPolyline
 62
7
  6
CONTINUOUS
 90
5
 70
0
 10
6.6347554564
 20
7.3113196734
 10
6.6738291664
 20
7.3127713215
 10
6.6998781753
 20
7.3142229696
 10
6.7122823355
 20
7.3156746176
 10
6.7133468534
 20
7.3162409333
  0
LWPOLYLINE
  5
4E8
100
AcDbEntity
  8
02___PRT_ALL_AXES
100
AcDbPolyline
 62
7
  6
CONTINUOUS
 90
7
 70
0
 10
6.6040695169
 20
7.3317769664
 10
6.5602530274
 20
7.330442056
 10
6.5074331371
 20
7.329100703
 10
6.4472711058
 20
7.3277677005
 10
6.3802723563
 20
7.3264270128
 10
6.3073079769
 20
7.3250716007
 10
6.2304300596
 20
7.3237133284
  0
LWPOLYLINE
  5
4E9
100
AcDbEntity
  8
02___PRT_ALL_AXES
100
AcDbPolyline
 62
7
  6
CONTINUOUS
 90
4
 70
0
 10
5.6800368778
 20
7.404069842
 10
5.7448543339
 20
7.4055427578
 10
5.8190309436
 20
7.4070156737
 10
5.9007487711
 20
7.4084885895
  0
LWPOLYLINE
  5
4EA
100
AcDbEntity
  8
02___PRT_ALL_AXES
100
AcDbPolyline
 62
7
  6
CONTINUOUS
 90
8
 70
0
 10
6.4344344167
 20
7.4838323346
 10
6.5086110264
 20
7.4853052505
 10
6.5734284825
 20
7.4867781663
 10
6.6272982255
 20
7.4882510822
 10
6.6689000045
 20
7.489723998
 10
6.6972142345
 20
7.4911969138
 10
6.7115469845
 20
7.4926698297
 10
6.7133468534
 20
7.4934062876
  0
LWPOLYLINE
  5
4EB
100
AcDbEntity
  8
02___PRT_ALL_AXES
100
AcDbPolyline
 62
7
  6
CONTINUOUS
 90
3
 70
0
 10
5.8555403886
 20
7.3869133226
 10
5.9364555965
 20
7.3884353722
 10
6.0230353007
 20
7.3899693256
  0
LWPOLYLINE
  5
4EC
100
AcDbEntity
  8
02___PRT_ALL_AXES
100
AcDbPolyline
 62
7
  6
CONTINUOUS
 90
3
 70
0
 10
6.3992311025
 20
7.4449051708
 10
6.3175663378
 20
7.4433676326
 10
6.2304300596
 20
7.4418235646
  0
LWPOLYLINE
  5
4ED
100
AcDbEntity
  8
02___PRT_ALL_AXES
100
AcDbPolyline
 62
7
  6
CONTINUOUS
 90
9
 70
0
 10
6.31586143
 20
7.3359850682
 10
6.3966670545
 20
7.3375033528
 10
6.4703172512
 20
7.3390188698
 10
6.5356882057
 20
7.340550509
 10
6.5906636089
 20
7.3420960449
 10
6.6329491251
 20
7.3436340934
 10
6.6613793652
 20
7.3451488907
 10
6.6759515328
 20
7.3466635428
 10
6.6776735299
 20
7.3471793479
  0
LWPOLYLINE
  5
4EE
100
AcDbEntity
  8
02___PRT_ALL_AXES
100
AcDbPolyline
 62
7
  6
CONTINUOUS
 90
5
 70
0
 10
6.3527165892
 20
7.2978121747
 10
6.437536265
 20
7.2993435769
 10
6.5141231282
 20
7.3008749792
 10
6.580448485
 20
7.3024063814
 10
6.6347554564
 20
7.3039377837
  0
LWPOLYLINE
  5
4EF
100
AcDbEntity
  8
02___PRT_ALL_AXES
100
AcDbPolyline
 62
7
  6
CONTINUOUS
 90
5
 70
0
 10
6.3527165892
 20
7.3051940644
 10
6.437536265
 20
7.3067254667
 10
6.5141231282
 20
7.3082568689
 10
6.580448485
 20
7.3097882712
 10
6.6347554564
 20
7.3113196734
  0
LWPOLYLINE
  5
4F0
100
AcDbEntity
  8
02___PRT_ALL_AXES
100
AcDbPolyline
 62
7
  6
CONTINUOUS
 90
9
 70
0
 10
6.3527165892
 20
7.3568672928
 10
6.4344344167
 20
7.3583402086
 10
6.5086110264
 20
7.3598131245
 10
6.5734284825
 20
7.3612860403
 10
6.6272982255
 20
7.3627589562
 10
6.6689000045
 20
7.364231872
 10
6.6972142345
 20
7.3657047879
 10
6.7115469845
 20
7.3671777037
 10
6.7131210954
 20
7.3676533951
  0
LINE
  5
4F1
100
AcDbEntity
  8
02___PRT_ALL_AXES
100
AcDbLine
 62
7
  6
CONTINUOUS
 10
5.8190309436
 20
7.3479605556
 11
5.9007487711
 21
7.3494334714
  0
LWPOLYLINE
  5
4F2
100
AcDbEntity
  8
02___PRT_ALL_AXES
100
AcDbPolyline
 62
7
  6
CONTINUOUS
 90
9
 70
0
 10
6.3527165892
 20
7.3642491826
 10
6.4344344167
 20
7.3657220984
 10
6.5086110264
 20
7.3671950142
 10
6.5734284825
 20
7.3686679301
 10
6.6272982255
 20
7.3701408459
 10
6.6689000045
 20
7.3716137618
 10
6.6972142345
 20
7.3730866776
 10
6.7115469845
 20
7.3745595935
 10
6.7133468534
 20
7.3752960514
  0
LWPOLYLINE
  5
4F3
100
AcDbEntity
  8
02___PRT_ALL_AXES
100
AcDbPolyline
 62
7
  6
CONTINUOUS
 90
9
 70
0
 10
6.3527165892
 20
7.4159224109
 10
6.4344344167
 20
7.4173953268
 10
6.5086110264
 20
7.4188682426
 10
6.5734284825
 20
7.4203411584
 10
6.6272982255
 20
7.4218140743
 10
6.6689000045
 20
7.4232869901
 10
6.6972142345
 20
7.424759906
 10
6.7115469845
 20
7.4262328218
 10
6.7131210954
 20
7.4267085132
  0
LWPOLYLINE
  5
4F4
100
AcDbEntity
  8
02___PRT_ALL_AXES
100
AcDbPolyline
 62
7
  6
CONTINUOUS
 90
9
 70
0
 10
6.3527165892
 20
7.4233043007
 10
6.4344344167
 20
7.4247772165
 10
6.5086110264
 20
7.4262501324
 10
6.5734284825
 20
7.4277230482
 10
6.6272982255
 20
7.429195964
 10
6.6689000045
 20
7.4306688799
 10
6.6972142345
 20
7.4321417957
 10
6.7115469845
 20
7.4336147116
 10
6.7133468534
 20
7.4343511695
  0
LWPOLYLINE
  5
4F5
100
AcDbEntity
  8
02___PRT_ALL_AXES
100
AcDbPolyline
 62
7
  6
CONTINUOUS
 90
9
 70
0
 10
6.3527165892
 20
7.474977529
 10
6.4344344167
 20
7.4764504449
 10
6.5086110264
 20
7.4779233607
 10
6.5734284825
 20
7.4793962765
 10
6.6272982255
 20
7.4808691924
 10
6.6689000045
 20
7.4823421082
 10
6.6972142345
 20
7.4838150241
 10
6.7115469845
 20
7.4852879399
 10
6.7131210954
 20
7.4857636313
  0
LINE
  5
4F6
100
AcDbEntity
  8
02___PRT_ALL_AXES
100
AcDbLine
 62
7
  6
CONTINUOUS
 10
5.8190309436
 20
7.4660707918
 11
5.9007487711
 21
7.4675437076
  0
LINE
  5
4F7
100
AcDbEntity
  8
02___PRT_ALL_AXES
100
AcDbLine
 62
7
  6
CONTINUOUS
 10
6.3527165892
 20
7.4823594188
 11
6.4344344167
 21
7.4838323346
  0
LWPOLYLINE
  5
4F8
100
AcDbEntity
  8
02___PRT_ALL_AXES
100
AcDbPolyline
 62
7
  6
CONTINUOUS
 90
10
 70
0
 10
6.0230353007
 20
7.261100447
 10
5.9371165156
 20
7.2595784992
 10
5.8566053374
 20
7.2580652903
 10
5.7829716682
 20
7.2565496995
 10
5.7175378346
 20
7.2550158196
 10
5.6625468941
 20
7.2534683186
 10
5.6202883627
 20
7.2519284901
 10
5.5919150405
 20
7.2504115046
 10
5.5774581586
 20
7.2488975341
 10
5.5757918304
 20
7.2483930698
  0
LWPOLYLINE
  5
4F9
100
AcDbEntity
  8
02___PRT_ALL_AXES
100
AcDbPolyline
 62
7
  6
CONTINUOUS
 90
7
 70
0
 10
6.2304300596
 20
7.2754168526
 10
6.3073079769
 20
7.2767751249
 10
6.3802723563
 20
7.278130537
 10
6.4472711058
 20
7.2794712247
 10
6.5074331371
 20
7.2808042272
 10
6.5602530274
 20
7.2821455802
 10
6.6040695169
 20
7.2834804907
  0
LWPOLYLINE
  5
4FA
100
AcDbEntity
  8
02___PRT_ALL_AXES
100
AcDbPolyline
 62
7
  6
CONTINUOUS
 90
10
 70
0
 10
6.0230353007
 20
7.3201555651
 10
5.9362140573
 20
7.3186172227
 10
5.8546108589
 20
7.3170813452
 10
5.7810436123
 20
7.3155626816
 10
5.7161584704
 20
7.3140357562
 10
5.6618787407
 20
7.3125022697
 10
5.6202618555
 20
7.3109824627
 10
5.5919637334
 20
7.3094700533
 10
5.5773689636
 20
7.3079341311
 10
5.5757918304
 20
7.3074481879
  0
LINE
  5
4FB
100
AcDbEntity
  8
02___PRT_ALL_AXES
100
AcDbLine
 62
7
  6
CONTINUOUS
 10
6.2304300596
 20
7.3344719708
 11
6.31586143
 21
7.3359850682
  0
LWPOLYLINE
  5
4FC
100
AcDbEntity
  8
02___PRT_ALL_AXES
100
AcDbPolyline
 62
7
  6
CONTINUOUS
 90
10
 70
0
 10
6.0230353007
 20
7.3792106832
 10
5.935863525
 20
7.37766597
 10
5.8541365999
 20
7.3761271611
 10
5.7807043797
 20
7.3746103704
 10
5.716491276
 20
7.3730993761
 10
5.6626476997
 20
7.3715817418
 10
5.6207360104
 20
7.3700580229
 10
5.5922179576
 20
7.3685430018
 10
5.5774603308
 20
7.3670082159
 10
5.5757918304
 20
7.366503306
  0
LWPOLYLINE
  5
4FD
100
AcDbEntity
  8
02___PRT_ALL_AXES
100
AcDbPolyline
 62
7
  6
CONTINUOUS
 90
10
 70
0
 10
6.2304300596
 20
7.3935270889
 10
6.3175663378
 20
7.3950711568
 10
6.3992311025
 20
7.3966086951
 10
6.4727212607
 20
7.3981265316
 10
6.5377868647
 20
7.3996591744
 10
6.5923608839
 20
7.4012050068
 10
6.6341822078
 20
7.4027427168
 10
6.6621569631
 20
7.4042592011
 10
6.6762654309
 20
7.4057849125
 10
6.6776735299
 20
7.406234466
  0
LWPOLYLINE
  5
4FE
100
AcDbEntity
  8
02___PRT_ALL_AXES
100
AcDbPolyline
 62
7
  6
CONTINUOUS
 90
10
 70
0
 10
6.0230353007
 20
7.4382658013
 10
5.9364555965
 20
7.4367318479
 10
5.8555403886
 20
7.4352097983
 10
5.7821035277
 20
7.4336961001
 10
5.7167392284
 20
7.4321608228
 10
5.6618745925
 20
7.4306123743
 10
5.6197809665
 20
7.4290718602
 10
5.5915847819
 20
7.4275534568
 10
5.5773115324
 20
7.4260322008
 10
5.5757918304
 20
7.4255584241
  0
LWPOLYLINE
  5
4FF
100
AcDbEntity
  8
02___PRT_ALL_AXES
100
AcDbPolyline
 62
7
  6
CONTINUOUS
 90
10
 70
0
 10
6.2304300596
 20
7.452582207
 10
6.3176653094
 20
7.454128074
 10
6.3994496193
 20
7.4556681005
 10
6.4729520562
 20
7.4571867065
 10
6.5373759199
 20
7.4587037804
 10
6.5910221997
 20
7.4602176168
 10
6.632718352
 20
7.4617343944
 10
6.6612399474
 20
7.4632493675
 10
6.6760077791
 20
7.4647852384
 10
6.6776735299
 20
7.4652895842
  0
LWPOLYLINE
  5
500
100
AcDbEntity
  8
02___PRT_ALL_AXES
100
AcDbPolyline
 62
7
  6
CONTINUOUS
 90
10
 70
0
 10
6.0230353007
 20
7.4973209194
 10
5.9372263347
 20
7.495800966
 10
5.8560554087
 20
7.4942750012
 10
5.7824648935
 20
7.4927591115
 10
5.7172443499
 20
7.4912288188
 10
5.6624196829
 20
7.4896847667
 10
5.6202745024
 20
7.4881483636
 10
5.5919235788
 20
7.4866325789
 10
5.5773688145
 20
7.4850994541
 10
5.5757918304
 20
7.4846135423
  0
LINE
  5
501
100
AcDbEntity
  8
0
100
AcDbLine
 62
9
  6
CONTINUOUS
 10
6.6779137825
 20
7.543849201
 11
5.5755515778
 21
7.543849201
  0
LWPOLYLINE
  5
502
100
AcDbEntity
  8
02___PRT_ALL_AXES
100
AcDbPolyline
 62
7
  6
CONTINUOUS
 90
5
 70
0
 10
6.0230353007
 20
7.4490244437
 10
5.9927040589
 20
7.4522764343
 10
5.9614882248
 20
7.456572992
 10
5.930419207
 20
7.4617676747
 10
5.9007487711
 20
7.4675437076
  0
LWPOLYLINE
  5
503
100
AcDbEntity
  8
02___PRT_ALL_AXES
100
AcDbPolyline
 62
7
  6
CONTINUOUS
 90
4
 70
0
 10
6.0230353007
 20
7.2718590893
 10
5.9825058502
 20
7.2764105431
 10
5.9417220699
 20
7.2826091409
 10
5.9007487711
 20
7.2903783533
  0
LWPOLYLINE
  5
504
100
AcDbEntity
  8
02___PRT_ALL_AXES
100
AcDbPolyline
 62
7
  6
CONTINUOUS
 90
4
 70
0
 10
6.2304300596
 20
7.2646582103
 10
6.2709670733
 20
7.260105755
 10
6.311750209
 20
7.2539069745
 10
6.3527165892
 20
7.2461389463
  0
LWPOLYLINE
  5
505
100
AcDbEntity
  8
02___PRT_ALL_AXES
100
AcDbPolyline
 62
7
  6
CONTINUOUS
 90
4
 70
0
 10
6.0230353007
 20
7.3309142074
 10
5.9825058502
 20
7.3354656612
 10
5.9417220699
 20
7.341664259
 10
5.9007487711
 20
7.3494334714
  0
LWPOLYLINE
  5
506
100
AcDbEntity
  8
02___PRT_ALL_AXES
100
AcDbPolyline
 62
7
  6
CONTINUOUS
 90
4
 70
0
 10
6.2304300596
 20
7.3237133284
 10
6.2709670733
 20
7.3191608731
 10
6.311750209
 20
7.3129620926
 10
6.3527165892
 20
7.3051940644
  0
LWPOLYLINE
  5
507
100
AcDbEntity
  8
02___PRT_ALL_AXES
100
AcDbPolyline
 62
7
  6
CONTINUOUS
 90
4
 70
0
 10
6.0230353007
 20
7.3899693256
 10
5.9825058502
 20
7.3945207793
 10
5.9417220699
 20
7.4007193771
 10
5.9007487711
 20
7.4084885895
  0
LWPOLYLINE
  5
508
100
AcDbEntity
  8
02___PRT_ALL_AXES
100
AcDbPolyline
 62
7
  6
CONTINUOUS
 90
4
 70
0
 10
6.2304300596
 20
7.3827684465
 10
6.2709596424
 20
7.3782169753
 10
6.3117419907
 20
7.3720186175
 10
6.3527165892
 20
7.3642491826
  0
LWPOLYLINE
  5
509
100
AcDbEntity
  8
02___PRT_ALL_AXES
100
AcDbPolyline
 62
7
  6
CONTINUOUS
 90
4
 70
0
 10
6.2304300596
 20
7.4418235646
 10
6.2709670733
 20
7.4372711093
 10
6.3117502091
 20
7.4310723288
 10
6.3527165892
 20
7.4233043007
  0
LWPOLYLINE
  5
50A
100
AcDbEntity
  8
02___PRT_ALL_AXES
100
AcDbPolyline
 62
7
  6
CONTINUOUS
 90
4
 70
0
 10
6.2304300596
 20
7.5008786827
 10
6.2709670733
 20
7.4963262274
 10
6.3117502091
 20
7.490127447
 10
6.3527165892
 20
7.4823594188
  0
LINE
  5
50B
100
AcDbEntity
  8
0
100
AcDbLine
 62
7
  6
CONTINUOUS
 10
5.5403442649
 20
7.1609604817
 11
5.5757918304
 21
7.1404864345
  0
LINE
  5
50C
100
AcDbEntity
  8
0
100
AcDbLine
 62
7
  6
CONTINUOUS
 10
5.5403442649
 20
7.2200155998
 11
5.5757918304
 21
7.1995415527
  0
LINE
  5
50D
100
AcDbEntity
  8
0
100
AcDbLine
 62
7
  6
CONTINUOUS
 10
5.5403442649
 20
7.2790707179
 11
5.5757918304
 21
7.2585966708
  0
LINE
  5
50E
100
AcDbEntity
  8
0
100
AcDbLine
 62
7
  6
CONTINUOUS
 10
5.5403442649
 20
7.338125836
 11
5.5757918304
 21
7.3176517889
  0
LINE
  5
50F
100
AcDbEntity
  8
0
100
AcDbLine
 62
7
  6
CONTINUOUS
 10
5.5403442649
 20
7.3971809541
 11
5.5757918304
 21
7.376706907
  0
LINE
  5
510
100
AcDbEntity
  8
0
100
AcDbLine
 62
7
  6
CONTINUOUS
 10
5.5403442649
 20
7.4562360722
 11
5.5757918304
 21
7.4357620251
  0
LWPOLYLINE
  5
511
100
AcDbEntity
  8
02___PRT_ALL_AXES
100
AcDbPolyline
 62
7
  6
CONTINUOUS
 90
4
 70
0
 10
5.9007487711
 20
7.4749255974
 10
5.9406420591
 20
7.4837191733
 10
5.9821892033
 20
7.4913804428
 10
6.0230353007
 20
7.4973209194
  0
LINE
  5
512
100
AcDbEntity
  8
02___PRT_ALL_AXES
100
AcDbLine
 62
7
  6
CONTINUOUS
 10
6.8550791368
 20
7.5832192797
 11
5.3983862235
 21
7.5832192797
  0
LINE
  5
513
100
AcDbEntity
  8
02___PRT_ALL_AXES
100
AcDbLine
 62
9
  6
CONTINUOUS
 10
5.2409059085
 20
7.7406995947
 11
7.0125594518
 21
7.7406995947
  0
LINE
  5
514
100
AcDbEntity
  8
0
100
AcDbLine
 62
7
  6
CONTINUOUS
 10
6.7131210954
 20
6.9621709912
 11
6.6776735299
 21
6.9826450383
  0
LINE
  5
515
100
AcDbEntity
  8
0
100
AcDbLine
 62
7
  6
CONTINUOUS
 10
6.7131210954
 20
7.0212261093
 11
6.6776735299
 21
7.0417001564
  0
LINE
  5
516
100
AcDbEntity
  8
0
100
AcDbLine
 62
7
  6
CONTINUOUS
 10
6.7131210954
 20
7.0802812274
 11
6.6776735299
 21
7.1007552745
  0
LINE
  5
517
100
AcDbEntity
  8
0
100
AcDbLine
 62
7
  6
CONTINUOUS
 10
6.7131210954
 20
7.1393363455
 11
6.6776735299
 21
7.1598103927
  0
LINE
  5
518
100
AcDbEntity
  8
02___PRT_ALL_AXES
100
AcDbLine
 62
7
  6
CONTINUOUS
 10
5.5403442649
 20
6.9247400092
 11
5.5401185069
 21
6.9250007758
  0
LINE
  5
519
100
AcDbEntity
  8
02___PRT_ALL_AXES
100
AcDbLine
 62
7
  6
CONTINUOUS
 10
5.5403442649
 20
6.9837951273
 11
5.5401185069
 21
6.9840558939
  0
LINE
  5
51A
100
AcDbEntity
  8
02___PRT_ALL_AXES
100
AcDbLine
 62
7
  6
CONTINUOUS
 10
5.5403442649
 20
7.0428502455
 11
5.5401185069
 21
7.043111012
  0
LINE
  5
51B
100
AcDbEntity
  8
02___PRT_ALL_AXES
100
AcDbLine
 62
7
  6
CONTINUOUS
 10
5.5403442649
 20
7.1019053636
 11
5.5401185069
 21
7.1021661301
  0
LINE
  5
51C
100
AcDbEntity
  8
02___PRT_ALL_AXES
100
AcDbLine
 62
7
  6
CONTINUOUS
 10
5.5403442649
 20
7.1609604817
 11
5.5401185069
 21
7.1612212482
  0
LINE
  5
51D
100
AcDbEntity
  8
02___PRT_ALL_AXES
100
AcDbLine
 62
7
  6
CONTINUOUS
 10
5.5403442649
 20
7.2200155998
 11
5.5401185069
 21
7.2202763664
  0
LINE
  5
51E
100
AcDbEntity
  8
02___PRT_ALL_AXES
100
AcDbLine
 62
9
  6
CONTINUOUS
 10
5.2409059085
 20
8.1737704608
 11
7.0125594518
 21
8.1737704608
  0
LINE
  5
51F
100
AcDbEntity
  8
0
100
AcDbLine
 62
7
  6
CONTINUOUS
 10
6.7131210954
 20
7.1983914636
 11
6.6776735299
 21
7.2188655108
  0
LINE
  5
520
100
AcDbEntity
  8
0
100
AcDbLine
 62
7
  6
CONTINUOUS
 10
6.7131210954
 20
7.2574465817
 11
6.6776735299
 21
7.2779206289
  0
LINE
  5
521
100
AcDbEntity
  8
0
100
AcDbLine
 62
7
  6
CONTINUOUS
 10
6.7131210954
 20
7.3165016999
 11
6.6776735299
 21
7.336975747
  0
LINE
  5
522
100
AcDbEntity
  8
0
100
AcDbLine
 62
7
  6
CONTINUOUS
 10
6.7131210954
 20
7.375556818
 11
6.6776735299
 21
7.3960308651
  0
LINE
  5
523
100
AcDbEntity
  8
0
100
AcDbLine
 62
7
  6
CONTINUOUS
 10
6.7131210954
 20
7.4346119361
 11
6.6776735299
 21
7.4550859832
  0
LINE
  5
524
100
AcDbEntity
  8
0
100
AcDbLine
 62
7
  6
CONTINUOUS
 10
6.7131210954
 20
7.4936670542
 11
6.6776735299
 21
7.5141411013
  0
LINE
  5
525
100
AcDbEntity
  8
02___PRT_ALL_AXES
100
AcDbLine
 62
7
  6
CONTINUOUS
 10
5.5403442649
 20
7.2790707179
 11
5.5401185069
 21
7.2793314845
  0
LINE
  5
526
100
AcDbEntity
  8
02___PRT_ALL_AXES
100
AcDbLine
 62
7
  6
CONTINUOUS
 10
5.5403442649
 20
7.338125836
 11
5.5401185069
 21
7.3383866026
  0
LINE
  5
527
100
AcDbEntity
  8
02___PRT_ALL_AXES
100
AcDbLine
 62
7
  6
CONTINUOUS
 10
5.5403442649
 20
7.3971809541
 11
5.5401185069
 21
7.3974417207
  0
LINE
  5
528
100
AcDbEntity
  8
02___PRT_ALL_AXES
100
AcDbLine
 62
7
  6
CONTINUOUS
 10
5.5403442649
 20
7.4562360722
 11
5.5401185069
 21
7.4564968388
  0
LINE
  5
529
100
AcDbEntity
  8
02___PRT_ALL_AXES
100
AcDbLine
 62
7
  6
CONTINUOUS
 10
7.0716145699
 20
8.232825579
 11
5.1818507904
 21
8.232825579
  0
LINE
  5
52A
100
AcDbEntity
  8
02___PRT_ALL_AXES
100
AcDbLine
 62
9
  6
CONTINUOUS
 10
7.1109846487
 20
8.2721956577
 11
5.1424807116
 21
8.2721956577
  0
LINE
  5
52B
100
AcDbEntity
  8
02___PRT_ALL_AXES
100
AcDbLine
 62
7
  6
CONTINUOUS
 10
5.1424807116
 20
8.5832192797
 11
7.1109846487
 21
8.5832192797
  0
LINE
  5
52C
100
AcDbEntity
  8
AXIS
100
AcDbLine
 62
7
  6
CONTINUOUS
 10
5.1424807116
 20
8.5832192797
 11
7.1109846487
 21
8.5832192797
  0
LINE
  5
52D
100
AcDbEntity
  8
02___PRT_ALL_AXES
100
AcDbLine
 62
7
  6
CONTINUOUS
 10
6.7133468534
 20
6.9619102246
 11
6.7131210954
 21
6.9621709912
  0
LINE
  5
52E
100
AcDbEntity
  8
02___PRT_ALL_AXES
100
AcDbLine
 62
7
  6
CONTINUOUS
 10
6.7133468534
 20
7.0209653427
 11
6.7131210954
 21
7.0212261093
  0
LINE
  5
52F
100
AcDbEntity
  8
02___PRT_ALL_AXES
100
AcDbLine
 62
7
  6
CONTINUOUS
 10
6.7133468534
 20
7.0800204608
 11
6.7131210954
 21
7.0802812274
  0
LINE
  5
530
100
AcDbEntity
  8
02___PRT_ALL_AXES
100
AcDbLine
 62
7
  6
CONTINUOUS
 10
6.7133468534
 20
7.139075579
 11
6.7131210954
 21
7.1393363455
  0
LINE
  5
531
100
AcDbEntity
  8
02___PRT_ALL_AXES
100
AcDbLine
 62
7
  6
CONTINUOUS
 10
6.7133468534
 20
7.1981306971
 11
6.7131210954
 21
7.1983914636
  0
LINE
  5
532
100
AcDbEntity
  8
02___PRT_ALL_AXES
100
AcDbLine
 62
7
  6
CONTINUOUS
 10
6.7133468534
 20
7.2571858152
 11
6.7131210954
 21
7.2574465817
  0
LINE
  5
533
100
AcDbEntity
  8
02___PRT_ALL_AXES
100
AcDbLine
 62
7
  6
CONTINUOUS
 10
6.7133468534
 20
7.3162409333
 11
6.7131210954
 21
7.3165016999
  0
LINE
  5
534
100
AcDbEntity
  8
02___PRT_ALL_AXES
100
AcDbLine
 62
7
  6
CONTINUOUS
 10
6.7133468534
 20
7.3752960514
 11
6.7131210954
 21
7.375556818
  0
LINE
  5
535
100
AcDbEntity
  8
02___PRT_ALL_AXES
100
AcDbLine
 62
7
  6
CONTINUOUS
 10
6.7133468534
 20
7.4343511695
 11
6.7131210954
 21
7.4346119361
  0
LINE
  5
536
100
AcDbEntity
  8
02___PRT_ALL_AXES
100
AcDbLine
 62
7
  6
CONTINUOUS
 10
6.7133468534
 20
7.4934062876
 11
6.7131210954
 21
7.4936670542
  0
LINE
  5
537
100
AcDbEntity
  8
0
100
AcDbLine
 62
7
  6
CONTINUOUS
 10
5.1424807116
 20
10.1855814845
 11
5.1472220808
 21
9.6422743979
  0
LINE
  5
538
100
AcDbEntity
  8
0
100
AcDbLine
 62
7
  6
CONTINUOUS
 10
5.1424807116
 20
11.7879436892
 11
5.1472220808
 21
11.2446366026
  0
LINE
  5
539
100
AcDbEntity
  8
0
100
AcDbLine
 62
7
  6
CONTINUOUS
 10
5.1424807116
 20
13.3903058939
 11
5.1472220808
 21
12.8469988073
  0
LINE
  5
53A
100
AcDbEntity
  8
02___PRT_ALL_AXES
100
AcDbLine
 62
7
  6
CONTINUOUS
 10
5.1424807116
 20
8.5832192797
 11
5.1424807116
 21
8.2721956577
  0
LINE
  5
53B
100
AcDbEntity
  8
AXIS
100
AcDbLine
 62
7
  6
CONTINUOUS
 10
5.1424807116
 20
8.5832192797
 11
5.1424807116
 21
9.6422743979
  0
LINE
  5
53C
100
AcDbEntity
  8
AXIS
100
AcDbLine
 62
7
  6
CONTINUOUS
 10
5.1424807116
 20
10.1855814845
 11
5.1424807116
 21
11.2446366026
  0
LINE
  5
53D
100
AcDbEntity
  8
AXIS
100
AcDbLine
 62
7
  6
CONTINUOUS
 10
5.1424807116
 20
11.7879436892
 11
5.1424807116
 21
12.8469988073
  0
LINE
  5
53E
100
AcDbEntity
  8
AXIS
100
AcDbLine
 62
7
  6
CONTINUOUS
 10
5.1424807116
 20
13.3903058939
 11
5.1424807116
 21
14.449361012
  0
LINE
  5
53F
100
AcDbEntity
  8
02___PRT_ALL_AXES
100
AcDbLine
 62
7
  6
CONTINUOUS
 10
5.2409059085
 20
8.1737704608
 11
5.2409059085
 21
7.7406995947
  0
LINE
  5
540
100
AcDbEntity
  8
0
100
AcDbLine
 62
7
  6
CONTINUOUS
 10
5.1424807116
 20
14.449361012
 11
5.147177708
 21
14.7184517527
  0
LINE
  5
541
100
AcDbEntity
  8
0
100
AcDbLine
 62
7
  6
CONTINUOUS
 10
5.5401185069
 20
7.4638787286
 11
5.5401185069
 21
7.4564968388
  0
LINE
  5
542
100
AcDbEntity
  8
0
100
AcDbLine
 62
7
  6
CONTINUOUS
 10
5.5401185069
 20
7.4048236105
 11
5.5401185069
 21
7.3974417207
  0
LINE
  5
543
100
AcDbEntity
  8
0
100
AcDbLine
 62
7
  6
CONTINUOUS
 10
5.5401185069
 20
7.3457684923
 11
5.5401185069
 21
7.3383866026
  0
LINE
  5
544
100
AcDbEntity
  8
0
100
AcDbLine
 62
7
  6
CONTINUOUS
 10
5.5401185069
 20
7.2867133742
 11
5.5401185069
 21
7.2793314845
  0
LINE
  5
545
100
AcDbEntity
  8
0
100
AcDbLine
 62
7
  6
CONTINUOUS
 10
5.5401185069
 20
7.2276582561
 11
5.5401185069
 21
7.2202763664
  0
LINE
  5
546
100
AcDbEntity
  8
0
100
AcDbLine
 62
7
  6
CONTINUOUS
 10
5.5401185069
 20
7.168603138
 11
5.5401185069
 21
7.1612212482
  0
LINE
  5
547
100
AcDbEntity
  8
0
100
AcDbLine
 62
7
  6
CONTINUOUS
 10
5.5401185069
 20
7.1095480199
 11
5.5401185069
 21
7.1021661301
  0
LINE
  5
548
100
AcDbEntity
  8
0
100
AcDbLine
 62
7
  6
CONTINUOUS
 10
5.5401185069
 20
7.0504929018
 11
5.5401185069
 21
7.043111012
  0
LINE
  5
549
100
AcDbEntity
  8
0
100
AcDbLine
 62
7
  6
CONTINUOUS
 10
5.5401185069
 20
6.9914377837
 11
5.5401185069
 21
6.9840558939
  0
LINE
  5
54A
100
AcDbEntity
  8
0
100
AcDbLine
 62
7
  6
CONTINUOUS
 10
5.5401185069
 20
6.9323826656
 11
5.5401185069
 21
6.9250007758
  0
LINE
  5
54B
100
AcDbEntity
  8
AXIS
100
AcDbLine
 62
7
  6
CONTINUOUS
 10
5.1424807116
 20
9.6422743979
 11
7.1109846487
 21
9.6422743979
  0
LINE
  5
54C
100
AcDbEntity
  8
02___PRT_ALL_AXES
100
AcDbLine
 62
7
  6
CONTINUOUS
 10
5.5755515778
 20
7.543849201
 11
5.5755515778
 21
7.4843360216
  0
LINE
  5
54D
100
AcDbEntity
  8
02___PRT_ALL_AXES
100
AcDbLine
 62
7
  6
CONTINUOUS
 10
5.5755515778
 20
7.4360395458
 11
5.5755515778
 21
7.4252809035
  0
LINE
  5
54E
100
AcDbEntity
  8
02___PRT_ALL_AXES
100
AcDbLine
 62
7
  6
CONTINUOUS
 10
5.5755515778
 20
7.3769844277
 11
5.5755515778
 21
7.3662257853
  0
LINE
  5
54F
100
AcDbEntity
  8
02___PRT_ALL_AXES
100
AcDbLine
 62
7
  6
CONTINUOUS
 10
5.5755515778
 20
7.3179293096
 11
5.5755515778
 21
7.3071706672
  0
LINE
  5
550
100
AcDbEntity
  8
02___PRT_ALL_AXES
100
AcDbLine
 62
7
  6
CONTINUOUS
 10
5.5755515778
 20
7.2588741915
 11
5.5755515778
 21
7.2481155491
  0
LINE
  5
551
100
AcDbEntity
  8
02___PRT_ALL_AXES
100
AcDbLine
 62
7
  6
CONTINUOUS
 10
5.5755515778
 20
7.1998190734
 11
5.5755515778
 21
7.189060431
  0
LINE
  5
552
100
AcDbEntity
  8
02___PRT_ALL_AXES
100
AcDbLine
 62
7
  6
CONTINUOUS
 10
5.5755515778
 20
7.1407639552
 11
5.5755515778
 21
7.1300053129
  0
LINE
  5
553
100
AcDbEntity
  8
02___PRT_ALL_AXES
100
AcDbLine
 62
7
  6
CONTINUOUS
 10
5.5755515778
 20
7.0817088371
 11
5.5755515778
 21
7.0709501948
  0
LINE
  5
554
100
AcDbEntity
  8
02___PRT_ALL_AXES
100
AcDbLine
 62
7
  6
CONTINUOUS
 10
5.5755515778
 20
7.022653719
 11
5.5755515778
 21
7.0118950767
  0
LINE
  5
555
100
AcDbEntity
  8
02___PRT_ALL_AXES
100
AcDbLine
 62
7
  6
CONTINUOUS
 10
5.5755515778
 20
6.9635986009
 11
5.5755515778
 21
6.9528399586
  0
LINE
  5
556
100
AcDbEntity
  8
02___PRT_ALL_AXES
100
AcDbLine
 62
7
  6
CONTINUOUS
 10
5.5755515778
 20
6.9045434828
 11
5.5755515778
 21
6.8745578624
  0
LWPOLYLINE
  5
557
100
AcDbEntity
  8
0
100
AcDbPolyline
 62
7
  6
CONTINUOUS
 90
6
 70
0
 10
6.0230353007
 20
6.8745578624
 10
6.0232193179
 20
6.8623607594
 10
6.0237542774
 20
6.851376005
 10
6.0245912878
 20
6.8426767456
 10
6.0256535059
 20
6.8371042407
 10
6.0268420151
 20
6.8351877837
  0
LWPOLYLINE
  5
558
100
AcDbEntity
  8
0
100
AcDbPolyline
 62
7
  6
CONTINUOUS
 90
6
 70
0
 10
6.0230353007
 20
7.543849201
 10
6.0228517202
 20
7.5560427153
 10
6.0223216538
 20
7.5670255376
 10
6.0215029273
 20
7.5757256021
 10
6.0204821191
 20
7.5813009819
 10
6.0193634664
 20
7.5832192797
  0
LINE
  5
559
100
AcDbEntity
  8
02___PRT_ALL_AXES
100
AcDbLine
 62
7
  6
CONTINUOUS
 10
5.9007487711
 20
6.9360476446
 11
5.9007487711
 21
6.9434295344
  0
LINE
  5
55A
100
AcDbEntity
  8
02___PRT_ALL_AXES
100
AcDbLine
 62
7
  6
CONTINUOUS
 10
5.9007487711
 20
6.9951027628
 11
5.9007487711
 21
7.0024846525
  0
LINE
  5
55B
100
AcDbEntity
  8
02___PRT_ALL_AXES
100
AcDbLine
 62
7
  6
CONTINUOUS
 10
5.9007487711
 20
7.0541578809
 11
5.9007487711
 21
7.0615397706
  0
LINE
  5
55C
100
AcDbEntity
  8
02___PRT_ALL_AXES
100
AcDbLine
 62
7
  6
CONTINUOUS
 10
5.9007487711
 20
7.113212999
 11
5.9007487711
 21
7.1205948887
  0
LINE
  5
55D
100
AcDbEntity
  8
02___PRT_ALL_AXES
100
AcDbLine
 62
7
  6
CONTINUOUS
 10
5.9007487711
 20
7.1722681171
 11
5.9007487711
 21
7.1796500068
  0
LINE
  5
55E
100
AcDbEntity
  8
02___PRT_ALL_AXES
100
AcDbLine
 62
7
  6
CONTINUOUS
 10
5.9007487711
 20
7.2313232352
 11
5.9007487711
 21
7.238705125
  0
LINE
  5
55F
100
AcDbEntity
  8
02___PRT_ALL_AXES
100
AcDbLine
 62
7
  6
CONTINUOUS
 10
5.9007487711
 20
7.2903783533
 11
5.9007487711
 21
7.2977602431
  0
LINE
  5
560
100
AcDbEntity
  8
02___PRT_ALL_AXES
100
AcDbLine
 62
7
  6
CONTINUOUS
 10
5.9007487711
 20
7.3494334714
 11
5.9007487711
 21
7.3568153612
  0
LINE
  5
561
100
AcDbEntity
  8
02___PRT_ALL_AXES
100
AcDbLine
 62
7
  6
CONTINUOUS
 10
5.9007487711
 20
7.4084885895
 11
5.9007487711
 21
7.4158704793
  0
LINE
  5
562
100
AcDbEntity
  8
02___PRT_ALL_AXES
100
AcDbLine
 62
7
  6
CONTINUOUS
 10
5.9007487711
 20
7.4675437076
 11
5.9007487711
 21
7.4749255974
  0
LINE
  5
563
100
AcDbEntity
  8
02___PRT_ALL_AXES
100
AcDbLine
 62
7
  6
CONTINUOUS
 10
6.0192326802
 20
5.7800696734
 11
6.0192326802
 21
6.8351877837
  0
LINE
  5
564
100
AcDbEntity
  8
0
100
AcDbLine
 62
7
  6
CONTINUOUS
 10
6.0230353007
 20
7.543849201
 11
6.0230353007
 21
7.4973209194
  0
LINE
  5
565
100
AcDbEntity
  8
02___PRT_ALL_AXES
100
AcDbLine
 62
7
  6
CONTINUOUS
 10
6.0230353007
 20
7.4490244437
 11
6.0230353007
 21
7.4382658013
  0
LINE
  5
566
100
AcDbEntity
  8
02___PRT_ALL_AXES
100
AcDbLine
 62
7
  6
CONTINUOUS
 10
6.0230353007
 20
7.3899693256
 11
6.0230353007
 21
7.3792106832
  0
LINE
  5
567
100
AcDbEntity
  8
02___PRT_ALL_AXES
100
AcDbLine
 62
7
  6
CONTINUOUS
 10
6.0230353007
 20
7.3309142074
 11
6.0230353007
 21
7.3201555651
  0
LINE
  5
568
100
AcDbEntity
  8
02___PRT_ALL_AXES
100
AcDbLine
 62
7
  6
CONTINUOUS
 10
6.0230353007
 20
7.2718590893
 11
6.0230353007
 21
7.261100447
  0
LINE
  5
569
100
AcDbEntity
  8
02___PRT_ALL_AXES
100
AcDbLine
 62
7
  6
CONTINUOUS
 10
6.0230353007
 20
7.2128039712
 11
6.0230353007
 21
7.2020453289
  0
LINE
  5
56A
100
AcDbEntity
  8
02___PRT_ALL_AXES
100
AcDbLine
 62
7
  6
CONTINUOUS
 10
6.0230353007
 20
7.1537488531
 11
6.0230353007
 21
7.1429902108
  0
LINE
  5
56B
100
AcDbEntity
  8
02___PRT_ALL_AXES
100
AcDbLine
 62
7
  6
CONTINUOUS
 10
6.0230353007
 20
7.094693735
 11
6.0230353007
 21
7.0839350927
  0
LINE
  5
56C
100
AcDbEntity
  8
02___PRT_ALL_AXES
100
AcDbLine
 62
7
  6
CONTINUOUS
 10
6.0230353007
 20
7.0356386169
 11
6.0230353007
 21
7.0248799746
  0
LINE
  5
56D
100
AcDbEntity
  8
02___PRT_ALL_AXES
100
AcDbLine
 62
7
  6
CONTINUOUS
 10
6.0230353007
 20
6.9765834988
 11
6.0230353007
 21
6.9658248564
  0
LINE
  5
56E
100
AcDbEntity
  8
0
100
AcDbLine
 62
7
  6
CONTINUOUS
 10
6.0230353007
 20
6.9175283807
 11
6.0230353007
 21
6.8745578624
  0
LINE
  5
56F
100
AcDbEntity
  8
0
100
AcDbLine
 62
7
  6
CONTINUOUS
 10
7.1109846487
 20
10.1855814845
 11
5.1424807116
 21
10.1855814845
  0
LINE
  5
570
100
AcDbEntity
  8
AXIS
100
AcDbLine
 62
7
  6
CONTINUOUS
 10
5.1424807116
 20
10.1855814845
 11
7.1109846487
 21
10.1855814845
  0
LINE
  5
571
100
AcDbEntity
  8
0
100
AcDbLine
 62
7
  6
CONTINUOUS
 10
6.2304300596
 20
7.543849201
 11
6.2304300596
 21
7.5008786827
  0
LINE
  5
572
100
AcDbEntity
  8
02___PRT_ALL_AXES
100
AcDbLine
 62
7
  6
CONTINUOUS
 10
6.2304300596
 20
7.452582207
 11
6.2304300596
 21
7.4418235646
  0
LINE
  5
573
100
AcDbEntity
  8
02___PRT_ALL_AXES
100
AcDbLine
 62
7
  6
CONTINUOUS
 10
6.2304300596
 20
7.3935270889
 11
6.2304300596
 21
7.3827684465
  0
LINE
  5
574
100
AcDbEntity
  8
02___PRT_ALL_AXES
100
AcDbLine
 62
7
  6
CONTINUOUS
 10
6.2304300596
 20
7.3344719708
 11
6.2304300596
 21
7.3237133284
  0
LINE
  5
575
100
AcDbEntity
  8
02___PRT_ALL_AXES
100
AcDbLine
 62
7
  6
CONTINUOUS
 10
6.2304300596
 20
7.2754168526
 11
6.2304300596
 21
7.2646582103
  0
LINE
  5
576
100
AcDbEntity
  8
02___PRT_ALL_AXES
100
AcDbLine
 62
7
  6
CONTINUOUS
 10
6.2304300596
 20
7.2163617345
 11
6.2304300596
 21
7.2056030922
  0
LINE
  5
577
100
AcDbEntity
  8
02___PRT_ALL_AXES
100
AcDbLine
 62
7
  6
CONTINUOUS
 10
6.2304300596
 20
7.1573066164
 11
6.2304300596
 21
7.1465479741
  0
LINE
  5
578
100
AcDbEntity
  8
02___PRT_ALL_AXES
100
AcDbLine
 62
7
  6
CONTINUOUS
 10
6.2304300596
 20
7.0982514983
 11
6.2304300596
 21
7.087492856
  0
LINE
  5
579
100
AcDbEntity
  8
02___PRT_ALL_AXES
100
AcDbLine
 62
7
  6
CONTINUOUS
 10
6.2304300596
 20
7.0391963802
 11
6.2304300596
 21
7.0284377379
  0
LINE
  5
57A
100
AcDbEntity
  8
02___PRT_ALL_AXES
100
AcDbLine
 62
7
  6
CONTINUOUS
 10
6.2304300596
 20
6.9801412621
 11
6.2304300596
 21
6.9693826198
  0
LINE
  5
57B
100
AcDbEntity
  8
0
100
AcDbLine
 62
7
  6
CONTINUOUS
 10
6.2304300596
 20
6.921086144
 11
6.2304300596
 21
6.8745578624
  0
LINE
  5
57C
100
AcDbEntity
  8
02___PRT_ALL_AXES
100
AcDbLine
 62
7
  6
CONTINUOUS
 10
6.2342326802
 20
5.7800696734
 11
6.2342326802
 21
6.8351877837
  0
LINE
  5
57D
100
AcDbEntity
  8
02___PRT_ALL_AXES
100
AcDbLine
 62
7
  6
CONTINUOUS
 10
6.3527165892
 20
7.4823594188
 11
6.3527165892
 21
7.474977529
  0
LINE
  5
57E
100
AcDbEntity
  8
02___PRT_ALL_AXES
100
AcDbLine
 62
7
  6
CONTINUOUS
 10
6.3527165892
 20
7.4233043007
 11
6.3527165892
 21
7.4159224109
  0
LINE
  5
57F
100
AcDbEntity
  8
02___PRT_ALL_AXES
100
AcDbLine
 62
7
  6
CONTINUOUS
 10
6.3527165892
 20
7.3642491826
 11
6.3527165892
 21
7.3568672928
  0
LINE
  5
580
100
AcDbEntity
  8
02___PRT_ALL_AXES
100
AcDbLine
 62
7
  6
CONTINUOUS
 10
6.3527165892
 20
7.3051940644
 11
6.3527165892
 21
7.2978121747
  0
LINE
  5
581
100
AcDbEntity
  8
02___PRT_ALL_AXES
100
AcDbLine
 62
7
  6
CONTINUOUS
 10
6.3527165892
 20
7.2461389463
 11
6.3527165892
 21
7.2387570566
  0
LINE
  5
582
100
AcDbEntity
  8
02___PRT_ALL_AXES
100
AcDbLine
 62
7
  6
CONTINUOUS
 10
6.3527165892
 20
7.1870838282
 11
6.3527165892
 21
7.1797019385
  0
LINE
  5
583
100
AcDbEntity
  8
02___PRT_ALL_AXES
100
AcDbLine
 62
7
  6
CONTINUOUS
 10
6.3527165892
 20
7.1280287101
 11
6.3527165892
 21
7.1206468204
  0
LINE
  5
584
100
AcDbEntity
  8
02___PRT_ALL_AXES
100
AcDbLine
 62
7
  6
CONTINUOUS
 10
6.3527165892
 20
7.068973592
 11
6.3527165892
 21
7.0615917022
  0
LINE
  5
585
100
AcDbEntity
  8
02___PRT_ALL_AXES
100
AcDbLine
 62
7
  6
CONTINUOUS
 10
6.3527165892
 20
7.0099184739
 11
6.3527165892
 21
7.0025365841
  0
LINE
  5
586
100
AcDbEntity
  8
02___PRT_ALL_AXES
100
AcDbLine
 62
7
  6
CONTINUOUS
 10
6.3527165892
 20
6.9508633558
 11
6.3527165892
 21
6.943481466
  0
LWPOLYLINE
  5
587
100
AcDbEntity
  8
0
100
AcDbPolyline
 62
7
  6
CONTINUOUS
 90
6
 70
0
 10
6.2304300596
 20
7.543849201
 10
6.2306136401
 20
7.5560427153
 10
6.2311437065
 20
7.5670255376
 10
6.231962433
 20
7.5757256021
 10
6.2329832412
 20
7.5813009819
 10
6.2341018939
 20
7.5832192797
  0
LWPOLYLINE
  5
588
100
AcDbEntity
  8
0
100
AcDbPolyline
 62
7
  6
CONTINUOUS
 90
6
 70
0
 10
6.2304300596
 20
6.8745578624
 10
6.2302460424
 20
6.8623607594
 10
6.2297110829
 20
6.851376005
 10
6.2288740725
 20
6.8426767456
 10
6.2278118544
 20
6.8371042407
 10
6.2266233452
 20
6.8351877837
  0
LINE
  5
589
100
AcDbEntity
  8
02___PRT_ALL_AXES
100
AcDbLine
 62
7
  6
CONTINUOUS
 10
6.6779137825
 20
7.543849201
 11
6.6779137825
 21
7.5138635806
  0
LINE
  5
58A
100
AcDbEntity
  8
02___PRT_ALL_AXES
100
AcDbLine
 62
7
  6
CONTINUOUS
 10
6.6779137825
 20
7.4655671048
 11
6.6779137825
 21
7.4548084625
  0
LINE
  5
58B
100
AcDbEntity
  8
02___PRT_ALL_AXES
100
AcDbLine
 62
7
  6
CONTINUOUS
 10
6.6779137825
 20
7.4065119867
 11
6.6779137825
 21
7.3957533444
  0
LINE
  5
58C
100
AcDbEntity
  8
02___PRT_ALL_AXES
100
AcDbLine
 62
7
  6
CONTINUOUS
 10
6.6779137825
 20
7.3474568686
 11
6.6779137825
 21
7.3366982263
  0
LINE
  5
58D
100
AcDbEntity
  8
02___PRT_ALL_AXES
100
AcDbLine
 62
7
  6
CONTINUOUS
 10
6.6779137825
 20
7.2884017505
 11
6.6779137825
 21
7.2776431082
  0
LINE
  5
58E
100
AcDbEntity
  8
02___PRT_ALL_AXES
100
AcDbLine
 62
7
  6
CONTINUOUS
 10
6.6779137825
 20
7.2293466324
 11
6.6779137825
 21
7.2185879901
  0
LINE
  5
58F
100
AcDbEntity
  8
02___PRT_ALL_AXES
100
AcDbLine
 62
7
  6
CONTINUOUS
 10
6.6779137825
 20
7.1702915143
 11
6.6779137825
 21
7.159532872
  0
LINE
  5
590
100
AcDbEntity
  8
02___PRT_ALL_AXES
100
AcDbLine
 62
7
  6
CONTINUOUS
 10
6.6779137825
 20
7.1112363962
 11
6.6779137825
 21
7.1004777538
  0
LINE
  5
591
100
AcDbEntity
  8
02___PRT_ALL_AXES
100
AcDbLine
 62
7
  6
CONTINUOUS
 10
6.6779137825
 20
7.0521812781
 11
6.6779137825
 21
7.0414226357
  0
LINE
  5
592
100
AcDbEntity
  8
02___PRT_ALL_AXES
100
AcDbLine
 62
7
  6
CONTINUOUS
 10
6.6779137825
 20
6.99312616
 11
6.6779137825
 21
6.9823675176
  0
LINE
  5
593
100
AcDbEntity
  8
02___PRT_ALL_AXES
100
AcDbLine
 62
7
  6
CONTINUOUS
 10
6.6779137825
 20
6.9340710419
 11
6.6779137825
 21
6.8745578624
  0
LINE
  5
594
100
AcDbEntity
  8
0
100
AcDbLine
 62
7
  6
CONTINUOUS
 10
6.7133468534
 20
6.9545283349
 11
6.7133468534
 21
6.9619102246
  0
LINE
  5
595
100
AcDbEntity
  8
0
100
AcDbLine
 62
7
  6
CONTINUOUS
 10
6.7133468534
 20
7.013583453
 11
6.7133468534
 21
7.0209653427
  0
LINE
  5
596
100
AcDbEntity
  8
0
100
AcDbLine
 62
7
  6
CONTINUOUS
 10
6.7133468534
 20
7.0726385711
 11
6.7133468534
 21
7.0800204608
  0
LINE
  5
597
100
AcDbEntity
  8
0
100
AcDbLine
 62
7
  6
CONTINUOUS
 10
6.7133468534
 20
7.1316936892
 11
6.7133468534
 21
7.139075579
  0
LINE
  5
598
100
AcDbEntity
  8
0
100
AcDbLine
 62
7
  6
CONTINUOUS
 10
6.7133468534
 20
7.1907488073
 11
6.7133468534
 21
7.1981306971
  0
LINE
  5
599
100
AcDbEntity
  8
0
100
AcDbLine
 62
7
  6
CONTINUOUS
 10
6.7133468534
 20
7.2498039254
 11
6.7133468534
 21
7.2571858152
  0
LINE
  5
59A
100
AcDbEntity
  8
0
100
AcDbLine
 62
7
  6
CONTINUOUS
 10
6.7133468534
 20
7.3088590435
 11
6.7133468534
 21
7.3162409333
  0
LINE
  5
59B
100
AcDbEntity
  8
0
100
AcDbLine
 62
7
  6
CONTINUOUS
 10
6.7133468534
 20
7.3679141616
 11
6.7133468534
 21
7.3752960514
  0
LINE
  5
59C
100
AcDbEntity
  8
0
100
AcDbLine
 62
7
  6
CONTINUOUS
 10
6.7133468534
 20
7.4269692797
 11
6.7133468534
 21
7.4343511695
  0
LINE
  5
59D
100
AcDbEntity
  8
0
100
AcDbLine
 62
7
  6
CONTINUOUS
 10
6.7133468534
 20
7.4860243979
 11
6.7133468534
 21
7.4934062876
  0
LINE
  5
59E
100
AcDbEntity
  8
02___PRT_ALL_AXES
100
AcDbLine
 62
7
  6
CONTINUOUS
 10
7.0125594518
 20
8.1737704608
 11
7.0125594518
 21
7.7406995947
  0
LINE
  5
59F
100
AcDbEntity
  8
0
100
AcDbLine
 62
7
  6
CONTINUOUS
 10
7.1109846487
 20
13.3903058939
 11
7.1062432795
 21
12.8469988073
  0
LINE
  5
5A0
100
AcDbEntity
  8
AXIS
100
AcDbLine
 62
7
  6
CONTINUOUS
 10
5.1424807116
 20
11.2446366026
 11
7.1109846487
 21
11.2446366026
  0
LINE
  5
5A1
100
AcDbEntity
  8
0
100
AcDbLine
 62
7
  6
CONTINUOUS
 10
7.1109846487
 20
14.449361012
 11
7.1062876523
 21
14.7184517527
  0
LINE
  5
5A2
100
AcDbEntity
  8
02___PRT_ALL_AXES
100
AcDbLine
 62
7
  6
CONTINUOUS
 10
7.1109846487
 20
8.5832192797
 11
7.1109846487
 21
8.2721956577
  0
LINE
  5
5A3
100
AcDbEntity
  8
AXIS
100
AcDbLine
 62
7
  6
CONTINUOUS
 10
7.1109846487
 20
8.5832192797
 11
7.1109846487
 21
9.6422743979
  0
LINE
  5
5A4
100
AcDbEntity
  8
AXIS
100
AcDbLine
 62
7
  6
CONTINUOUS
 10
7.1109846487
 20
10.1855814845
 11
7.1109846487
 21
11.2446366026
  0
LINE
  5
5A5
100
AcDbEntity
  8
AXIS
100
AcDbLine
 62
7
  6
CONTINUOUS
 10
7.1109846487
 20
11.7879436892
 11
7.1109846487
 21
12.8469988073
  0
LINE
  5
5A6
100
AcDbEntity
  8
AXIS
100
AcDbLine
 62
7
  6
CONTINUOUS
 10
7.1109846487
 20
13.3903058939
 11
7.1109846487
 21
14.449361012
  0
LINE
  5
5A7
100
AcDbEntity
  8
0
100
AcDbLine
 62
7
  6
CONTINUOUS
 10
7.1109846487
 20
11.7879436892
 11
7.1062432795
 21
11.2446366026
  0
LINE
  5
5A8
100
AcDbEntity
  8
0
100
AcDbLine
 62
7
  6
CONTINUOUS
 10
7.1109846487
 20
10.1855814845
 11
7.1062432795
 21
9.6422743979
  0
LINE
  5
5A9
100
AcDbEntity
  8
02___PRT_ALL_AXES
100
AcDbLine
 62
7
  6
CONTINUOUS
 10
5.5401185069
 20
7.4638787286
 11
5.5403442649
 21
7.4641394951
  0
LINE
  5
5AA
100
AcDbEntity
  8
02___PRT_ALL_AXES
100
AcDbLine
 62
7
  6
CONTINUOUS
 10
5.5401185069
 20
7.4048236105
 11
5.5403442649
 21
7.405084377
  0
LINE
  5
5AB
100
AcDbEntity
  8
02___PRT_ALL_AXES
100
AcDbLine
 62
7
  6
CONTINUOUS
 10
5.5401185069
 20
7.3457684923
 11
5.5403442649
 21
7.3460292589
  0
LINE
  5
5AC
100
AcDbEntity
  8
02___PRT_ALL_AXES
100
AcDbLine
 62
7
  6
CONTINUOUS
 10
5.5401185069
 20
7.2867133742
 11
5.5403442649
 21
7.2869741408
  0
LINE
  5
5AD
100
AcDbEntity
  8
02___PRT_ALL_AXES
100
AcDbLine
 62
7
  6
CONTINUOUS
 10
5.5401185069
 20
7.2276582561
 11
5.5403442649
 21
7.2279190227
  0
LINE
  5
5AE
100
AcDbEntity
  8
0
100
AcDbLine
 62
7
  6
CONTINUOUS
 10
7.1109846487
 20
11.7879436892
 11
5.1424807116
 21
11.7879436892
  0
LINE
  5
5AF
100
AcDbEntity
  8
AXIS
100
AcDbLine
 62
7
  6
CONTINUOUS
 10
5.1424807116
 20
11.7879436892
 11
7.1109846487
 21
11.7879436892
  0
LINE
  5
5B0
100
AcDbEntity
  8
02___PRT_ALL_AXES
100
AcDbLine
 62
7
  6
CONTINUOUS
 10
5.5401185069
 20
7.168603138
 11
5.5403442649
 21
7.1688639046
  0
LINE
  5
5B1
100
AcDbEntity
  8
02___PRT_ALL_AXES
100
AcDbLine
 62
7
  6
CONTINUOUS
 10
5.5401185069
 20
7.1095480199
 11
5.5403442649
 21
7.1098087865
  0
LINE
  5
5B2
100
AcDbEntity
  8
02___PRT_ALL_AXES
100
AcDbLine
 62
7
  6
CONTINUOUS
 10
5.5401185069
 20
7.0504929018
 11
5.5403442649
 21
7.0507536684
  0
LINE
  5
5B3
100
AcDbEntity
  8
02___PRT_ALL_AXES
100
AcDbLine
 62
7
  6
CONTINUOUS
 10
5.5401185069
 20
6.9914377837
 11
5.5403442649
 21
6.9916985503
  0
LINE
  5
5B4
100
AcDbEntity
  8
02___PRT_ALL_AXES
100
AcDbLine
 62
7
  6
CONTINUOUS
 10
5.5401185069
 20
6.9323826656
 11
5.5403442649
 21
6.9326434321
  0
LINE
  5
5B5
100
AcDbEntity
  8
0
100
AcDbLine
 62
7
  6
CONTINUOUS
 10
5.5757918304
 20
7.4846135423
 11
5.5403442649
 21
7.4641394951
  0
LINE
  5
5B6
100
AcDbEntity
  8
02___PRT_ALL_AXES
100
AcDbLine
 62
7
  6
CONTINUOUS
 10
6.7131210954
 20
7.4857636313
 11
6.7133468534
 21
7.4860243979
  0
LINE
  5
5B7
100
AcDbEntity
  8
02___PRT_ALL_AXES
100
AcDbLine
 62
7
  6
CONTINUOUS
 10
6.7131210954
 20
7.4267085132
 11
6.7133468534
 21
7.4269692797
  0
LINE
  5
5B8
100
AcDbEntity
  8
02___PRT_ALL_AXES
100
AcDbLine
 62
7
  6
CONTINUOUS
 10
6.7131210954
 20
7.3676533951
 11
6.7133468534
 21
7.3679141616
  0
LINE
  5
5B9
100
AcDbEntity
  8
02___PRT_ALL_AXES
100
AcDbLine
 62
7
  6
CONTINUOUS
 10
6.7131210954
 20
7.3085982769
 11
6.7133468534
 21
7.3088590435
  0
LINE
  5
5BA
100
AcDbEntity
  8
02___PRT_ALL_AXES
100
AcDbLine
 62
7
  6
CONTINUOUS
 10
6.7131210954
 20
7.2495431588
 11
6.7133468534
 21
7.2498039254
  0
LINE
  5
5BB
100
AcDbEntity
  8
02___PRT_ALL_AXES
100
AcDbLine
 62
7
  6
CONTINUOUS
 10
6.7131210954
 20
7.1904880407
 11
6.7133468534
 21
7.1907488073
  0
LWPOLYLINE
  5
5BC
100
AcDbEntity
  8
02___PRT_ALL_AXES
100
AcDbPolyline
 62
7
  6
CONTINUOUS
 90
5
 70
0
 10
5.5755515778
 20
7.0817088274
 10
5.5761944213
 20
7.0821628209
 10
5.5874854027
 20
7.0836682324
 10
5.6121134444
 20
7.0851514654
 10
5.6493958434
 20
7.086630097
  0
LINE
  5
5BD
100
AcDbEntity
  8
0
100
AcDbLine
 62
7
  6
CONTINUOUS
 10
5.5757918304
 20
7.4255584241
 11
5.5403442649
 21
7.405084377
  0
LINE
  5
5BE
100
AcDbEntity
  8
0
100
AcDbLine
 62
7
  6
CONTINUOUS
 10
5.5757918304
 20
7.366503306
 11
5.5403442649
 21
7.3460292589
  0
LINE
  5
5BF
100
AcDbEntity
  8
0
100
AcDbLine
 62
7
  6
CONTINUOUS
 10
5.5757918304
 20
7.3074481879
 11
5.5403442649
 21
7.2869741408
  0
LINE
  5
5C0
100
AcDbEntity
  8
0
100
AcDbLine
 62
7
  6
CONTINUOUS
 10
5.5757918304
 20
7.2483930698
 11
5.5403442649
 21
7.2279190227
  0
LINE
  5
5C1
100
AcDbEntity
  8
0
100
AcDbLine
 62
7
  6
CONTINUOUS
 10
5.5757918304
 20
7.1893379517
 11
5.5403442649
 21
7.1688639046
  0
LINE
  5
5C2
100
AcDbEntity
  8
0
100
AcDbLine
 62
7
  6
CONTINUOUS
 10
5.5757918304
 20
7.1302828336
 11
5.5403442649
 21
7.1098087865
  0
LWPOLYLINE
  5
5C3
100
AcDbEntity
  8
02___PRT_ALL_AXES
100
AcDbPolyline
 62
7
  6
CONTINUOUS
 90
8
 70
0
 10
5.5755515779
 20
7.3769842375
 10
5.5773115324
 20
7.3777357251
 10
5.5915847819
 20
7.3792569811
 10
5.6197809665
 20
7.3807753844
 10
5.6618745925
 20
7.3823158985
 10
5.7167392284
 20
7.3838643471
 10
5.7821035277
 20
7.3853996243
 10
5.8555403886
 20
7.3869133226
  0
LWPOLYLINE
  5
5C4
100
AcDbEntity
  8
02___PRT_ALL_AXES
100
AcDbPolyline
 62
7
  6
CONTINUOUS
 90
10
 70
0
 10
5.5755515778
 20
7.4360395836
 10
5.5773688145
 20
7.4368029783
 10
5.5919235788
 20
7.4383361032
 10
5.6202745024
 20
7.4398518878
 10
5.6624196829
 20
7.441388291
 10
5.7172443499
 20
7.442932343
 10
5.7824648935
 20
7.4444626357
 10
5.8560554087
 20
7.4459785254
 10
5.9372263347
 20
7.4475044902
 10
6.0230353007
 20
7.4490244437
  0
LWPOLYLINE
  5
5C5
100
AcDbEntity
  8
02___PRT_ALL_AXES
100
AcDbPolyline
 62
7
  6
CONTINUOUS
 90
8
 70
0
 10
5.5401185069
 20
7.4564968388
 10
5.5419183758
 20
7.4572332967
 10
5.5562511258
 20
7.4587062126
 10
5.5845653558
 20
7.4601791284
 10
5.6261671348
 20
7.4616520443
 10
5.6800368778
 20
7.4631249601
 10
5.7448543339
 20
7.4645978759
 10
5.8190309436
 20
7.4660707918
  0
LWPOLYLINE
  5
5C6
100
AcDbEntity
  8
02___PRT_ALL_AXES
100
AcDbPolyline
 62
7
  6
CONTINUOUS
 90
6
 70
0
 10
5.5401185069
 20
7.3974417207
 10
5.5419183758
 20
7.3981781786
 10
5.5562511258
 20
7.3996510945
 10
5.5845653558
 20
7.4011240103
 10
5.6261671348
 20
7.4025969261
 10
5.6800368778
 20
7.404069842
  0
LINE
  5
5C7
100
AcDbEntity
  8
02___PRT_ALL_AXES
100
AcDbLine
 62
7
  6
CONTINUOUS
 10
6.7131210954
 20
7.1314329226
 11
6.7133468534
 21
7.1316936892
  0
LINE
  5
5C8
100
AcDbEntity
  8
02___PRT_ALL_AXES
100
AcDbLine
 62
7
  6
CONTINUOUS
 10
6.7131210954
 20
7.0723778045
 11
6.7133468534
 21
7.0726385711
  0
LINE
  5
5C9
100
AcDbEntity
  8
02___PRT_ALL_AXES
100
AcDbLine
 62
7
  6
CONTINUOUS
 10
6.7131210954
 20
7.0133226864
 11
6.7133468534
 21
7.013583453
  0
LINE
  5
5CA
100
AcDbEntity
  8
02___PRT_ALL_AXES
100
AcDbLine
 62
7
  6
CONTINUOUS
 10
6.7131210954
 20
6.9542675683
 11
6.7133468534
 21
6.9545283349
  0
LWPOLYLINE
  5
5CB
100
AcDbEntity
  8
02___PRT_ALL_AXES
100
AcDbPolyline
 62
7
  6
CONTINUOUS
 90
5
 70
0
 10
6.6779137825
 20
7.3366982352
 10
6.6772706289
 20
7.336244133
 10
6.6659781245
 20
7.33473868
 10
6.6413484351
 20
7.3332554323
 10
6.6040695169
 20
7.3317769664
  0
LINE
  5
5CC
100
AcDbEntity
  8
0
100
AcDbLine
 62
7
  6
CONTINUOUS
 10
5.5757918304
 20
7.0712277155
 11
5.5403442649
 21
7.0507536684
  0
LINE
  5
5CD
100
AcDbEntity
  8
0
100
AcDbLine
 62
7
  6
CONTINUOUS
 10
5.5757918304
 20
7.0121725974
 11
5.5403442649
 21
6.9916985503
  0
LINE
  5
5CE
100
AcDbEntity
  8
0
100
AcDbLine
 62
7
  6
CONTINUOUS
 10
5.5757918304
 20
6.9531174793
 11
5.5403442649
 21
6.9326434321
  0
LINE
  5
5CF
100
AcDbEntity
  8
0
100
AcDbLine
 62
7
  6
CONTINUOUS
 10
6.6776735299
 20
7.4652895842
 11
6.7131210954
 21
7.4857636313
  0
LINE
  5
5D0
100
AcDbEntity
  8
0
100
AcDbLine
 62
7
  6
CONTINUOUS
 10
6.6776735299
 20
7.406234466
 11
6.7131210954
 21
7.4267085132
  0
LWPOLYLINE
  5
5D1
100
AcDbEntity
  8
02___PRT_ALL_AXES
100
AcDbPolyline
 62
7
  6
CONTINUOUS
 90
5
 70
0
 10
5.5401185069
 20
7.1021661301
 10
5.5411830248
 20
7.1027324458
 10
5.553587185
 20
7.1041840939
 10
5.5796361939
 20
7.1056357419
 10
5.6187099039
 20
7.10708739
  0
LWPOLYLINE
  5
5D2
100
AcDbEntity
  8
02___PRT_ALL_AXES
100
AcDbPolyline
 62
7
  6
CONTINUOUS
 90
10
 70
0
 10
5.5755515787
 20
7.1407634251
 10
5.5773383982
 20
7.1415209683
 10
5.5918087262
 20
7.1430524029
 10
5.6200905108
 20
7.1445683381
 10
5.6620044556
 20
7.146099546
 10
5.7162977806
 20
7.147632604
 10
5.780672895
 20
7.1491478505
 10
5.8541148646
 20
7.1506649046
 10
5.9358507702
 20
7.1522039081
 10
6.0230353007
 20
7.1537488531
  0
LWPOLYLINE
  5
5D3
100
AcDbEntity
  8
02___PRT_ALL_AXES
100
AcDbPolyline
 62
7
  6
CONTINUOUS
 90
10
 70
0
 10
5.5755515778
 20
7.2588741857
 10
5.5773689636
 20
7.2596376553
 10
5.5919637334
 20
7.2611735775
 10
5.6202618555
 20
7.2626859869
 10
5.6618787407
 20
7.2642057939
 10
5.7161584704
 20
7.2657392804
 10
5.7810436123
 20
7.2672662059
 10
5.8546108589
 20
7.2687848695
 10
5.9362140573
 20
7.270320747
 10
6.0230353007
 20
7.2718590893
  0
LWPOLYLINE
  5
5D4
100
AcDbEntity
  8
02___PRT_ALL_AXES
100
AcDbPolyline
 62
7
  6
CONTINUOUS
 90
10
 70
0
 10
6.6779137825
 20
7.513863574
 10
6.6760077791
 20
7.5130817142
 10
6.6612399474
 20
7.5115458433
 10
6.632718352
 20
7.5100308702
 10
6.5910221997
 20
7.5085140925
 10
6.5373759199
 20
7.5070002562
 10
6.4729520562
 20
7.5054831823
 10
6.3994496193
 20
7.5039645763
 10
6.3176653094
 20
7.5024245497
 10
6.2304300596
 20
7.5008786827
  0
LWPOLYLINE
  5
5D5
100
AcDbEntity
  8
02___PRT_ALL_AXES
100
AcDbPolyline
 62
7
  6
CONTINUOUS
 90
10
 70
0
 10
5.5755515778
 20
7.3179293034
 10
5.5774603308
 20
7.3187117401
 10
5.5922179576
 20
7.320246526
 10
5.6207360104
 20
7.3217615471
 10
5.6626476997
 20
7.3232852661
 10
5.716491276
 20
7.3248029003
 10
5.7807043797
 20
7.3263138946
 10
5.8541365999
 20
7.3278306853
 10
5.935863525
 20
7.3293694942
 10
6.0230353007
 20
7.3309142074
  0
LWPOLYLINE
  5
5D6
100
AcDbEntity
  8
02___PRT_ALL_AXES
100
AcDbPolyline
 62
7
  6
CONTINUOUS
 90
6
 70
0
 10
5.575551579
 20
7.1998196971
 10
5.5774581586
 20
7.2006010583
 10
5.5919150405
 20
7.2021150288
 10
5.6202883627
 20
7.2036320143
 10
5.6625468941
 20
7.2051718428
 10
5.7175378346
 20
7.2067193439
  0
LWPOLYLINE
  5
5D7
100
AcDbEntity
  8
02___PRT_ALL_AXES
100
AcDbPolyline
 62
7
  6
CONTINUOUS
 90
8
 70
0
 10
5.5401185069
 20
7.3383866026
 10
5.5419183758
 20
7.3391230605
 10
5.5562511258
 20
7.3405959763
 10
5.5845653558
 20
7.3420688922
 10
5.6261671348
 20
7.343541808
 10
5.6800368778
 20
7.3450147239
 10
5.7448543339
 20
7.3464876397
 10
5.8190309436
 20
7.3479605556
  0
LWPOLYLINE
  5
5D8
100
AcDbEntity
  8
02___PRT_ALL_AXES
100
AcDbPolyline
 62
7
  6
CONTINUOUS
 90
9
 70
0
 10
5.5401185069
 20
7.2793314845
 10
5.5419183758
 20
7.2800679424
 10
5.5562511258
 20
7.2815408582
 10
5.5845653558
 20
7.2830137741
 10
5.6261671348
 20
7.2844866899
 10
5.6800368778
 20
7.2859596058
 10
5.7448543339
 20
7.2874325216
 10
5.8190309436
 20
7.2889054375
 10
5.9007487711
 20
7.2903783533
  0
LWPOLYLINE
  5
5D9
100
AcDbEntity
  8
02___PRT_ALL_AXES
100
AcDbPolyline
 62
7
  6
CONTINUOUS
 90
9
 70
0
 10
5.5401185069
 20
7.2202763664
 10
5.5419183758
 20
7.2210128243
 10
5.5562511258
 20
7.2224857401
 10
5.5845653558
 20
7.223958656
 10
5.6261671348
 20
7.2254315718
 10
5.6800368778
 20
7.2269044877
 10
5.7448543339
 20
7.2283774035
 10
5.8190309436
 20
7.2298503193
 10
5.9007487711
 20
7.2313232352
  0
LWPOLYLINE
  5
5DA
100
AcDbEntity
  8
02___PRT_ALL_AXES
100
AcDbPolyline
 62
7
  6
CONTINUOUS
 90
9
 70
0
 10
5.5401185069
 20
7.1612212482
 10
5.5419183758
 20
7.1619577062
 10
5.5562511258
 20
7.163430622
 10
5.5845653558
 20
7.1649035379
 10
5.6261671348
 20
7.1663764537
 10
5.6800368778
 20
7.1678493695
 10
5.7448543339
 20
7.1693222854
 10
5.8190309436
 20
7.1707952012
 10
5.9007487711
 20
7.1722681171
  0
LWPOLYLINE
  5
5DB
100
AcDbEntity
  8
02___PRT_ALL_AXES
100
AcDbPolyline
 62
7
  6
CONTINUOUS
 90
9
 70
0
 10
5.5401185069
 20
7.043111012
 10
5.5419183758
 20
7.0438474699
 10
5.5562511258
 20
7.0453203858
 10
5.5845653558
 20
7.0467933016
 10
5.6261671348
 20
7.0482662175
 10
5.6800368778
 20
7.0497391333
 10
5.7448543339
 20
7.0512120492
 10
5.8190309436
 20
7.052684965
 10
5.9007487711
 20
7.0541578809
  0
LWPOLYLINE
  5
5DC
100
AcDbEntity
  8
02___PRT_ALL_AXES
100
AcDbPolyline
 62
7
  6
CONTINUOUS
 90
5
 70
0
 10
5.5403442649
 20
7.1098087865
 10
5.5411830248
 20
7.1101143356
 10
5.553587185
 20
7.1115659836
 10
5.5796361939
 20
7.1130176317
 10
5.6187099039
 20
7.1144692797
  0
LWPOLYLINE
  5
5DD
100
AcDbEntity
  8
02___PRT_ALL_AXES
100
AcDbPolyline
 62
7
  6
CONTINUOUS
 90
9
 70
0
 10
5.5403442649
 20
7.4641394951
 10
5.5419183758
 20
7.4646151865
 10
5.5562511258
 20
7.4660881023
 10
5.5845653558
 20
7.4675610182
 10
5.6261671348
 20
7.469033934
 10
5.6800368778
 20
7.4705068499
 10
5.7448543339
 20
7.4719797657
 10
5.8190309436
 20
7.4734526816
 10
5.9007487711
 20
7.4749255974
  0
LWPOLYLINE
  5
5DE
100
AcDbEntity
  8
02___PRT_ALL_AXES
100
AcDbPolyline
 62
7
  6
CONTINUOUS
 90
9
 70
0
 10
5.5403442649
 20
7.405084377
 10
5.5419183758
 20
7.4055600684
 10
5.5562511258
 20
7.4070329842
 10
5.5845653558
 20
7.4085059001
 10
5.6261671348
 20
7.4099788159
 10
5.6800368778
 20
7.4114517318
 10
5.7448543339
 20
7.4129246476
 10
5.8190309436
 20
7.4143975634
 10
5.9007487711
 20
7.4158704793
  0
LWPOLYLINE
  5
5DF
100
AcDbEntity
  8
02___PRT_ALL_AXES
100
AcDbPolyline
 62
7
  6
CONTINUOUS
 90
9
 70
0
 10
5.5403442649
 20
7.3460292589
 10
5.5419183758
 20
7.3465049503
 10
5.5562511258
 20
7.3479778661
 10
5.5845653558
 20
7.349450782
 10
5.6261671348
 20
7.3509236978
 10
5.6800368778
 20
7.3523966136
 10
5.7448543339
 20
7.3538695295
 10
5.8190309436
 20
7.3553424453
 10
5.9007487711
 20
7.3568153612
  0
LWPOLYLINE
  5
5E0
100
AcDbEntity
  8
02___PRT_ALL_AXES
100
AcDbPolyline
 62
7
  6
CONTINUOUS
 90
9
 70
0
 10
5.5403442649
 20
7.2869741408
 10
5.5419183758
 20
7.2874498322
 10
5.5562511258
 20
7.288922748
 10
5.5845653558
 20
7.2903956638
 10
5.6261671348
 20
7.2918685797
 10
5.6800368778
 20
7.2933414955
 10
5.7448543339
 20
7.2948144114
 10
5.8190309436
 20
7.2962873272
 10
5.9007487711
 20
7.2977602431
  0
LWPOLYLINE
  5
5E1
100
AcDbEntity
  8
02___PRT_ALL_AXES
100
AcDbPolyline
 62
7
  6
CONTINUOUS
 90
9
 70
0
 10
5.5403442649
 20
7.2279190227
 10
5.5419183758
 20
7.228394714
 10
5.5562511258
 20
7.2298676299
 10
5.5845653558
 20
7.2313405457
 10
5.6261671348
 20
7.2328134616
 10
5.6800368778
 20
7.2342863774
 10
5.7448543339
 20
7.2357592933
 10
5.8190309436
 20
7.2372322091
 10
5.9007487711
 20
7.238705125
  0
LINE
  5
5E2
100
AcDbEntity
  8
AXIS
100
AcDbLine
 62
7
  6
CONTINUOUS
 10
5.1424807116
 20
12.8469988073
 11
7.1109846487
 21
12.8469988073
  0
LINE
  5
5E3
100
AcDbEntity
  8
0
100
AcDbLine
 62
7
  6
CONTINUOUS
 10
6.6776735299
 20
7.3471793479
 11
6.7131210954
 21
7.3676533951
  0
LINE
  5
5E4
100
AcDbEntity
  8
0
100
AcDbLine
 62
7
  6
CONTINUOUS
 10
6.6776735299
 20
7.2881242298
 11
6.7131210954
 21
7.3085982769
  0
LINE
  5
5E5
100
AcDbEntity
  8
0
100
AcDbLine
 62
7
  6
CONTINUOUS
 10
6.6776735299
 20
7.2290691117
 11
6.7131210954
 21
7.2495431588
  0
LINE
  5
5E6
100
AcDbEntity
  8
0
100
AcDbLine
 62
7
  6
CONTINUOUS
 10
6.6776735299
 20
7.1700139936
 11
6.7131210954
 21
7.1904880407
  0
LINE
  5
5E7
100
AcDbEntity
  8
0
100
AcDbLine
 62
7
  6
CONTINUOUS
 10
6.6776735299
 20
7.1109588755
 11
6.7131210954
 21
7.1314329226
  0
LINE
  5
5E8
100
AcDbEntity
  8
0
100
AcDbLine
 62
7
  6
CONTINUOUS
 10
6.6776735299
 20
7.0519037574
 11
6.7131210954
 21
7.0723778045
  0
LWPOLYLINE
  5
5E9
100
AcDbEntity
  8
02___PRT_ALL_AXES
100
AcDbPolyline
 62
7
  6
CONTINUOUS
 90
8
 70
0
 10
6.6779137803
 20
7.4548093116
 10
6.6762654309
 20
7.4540813883
 10
6.6621569631
 20
7.4525556769
 10
6.6341822078
 20
7.4510391925
 10
6.5923608839
 20
7.4495014826
 10
6.5377868647
 20
7.4479556502
 10
6.4727212607
 20
7.4464230073
 10
6.3992311025
 20
7.4449051708
  0
LWPOLYLINE
  5
5EA
100
AcDbEntity
  8
02___PRT_ALL_AXES
100
AcDbPolyline
 62
7
  6
CONTINUOUS
 90
10
 70
0
 10
5.57555158
 20
6.9635977573
 10
5.5772037445
 20
6.9643265164
 10
5.5913188148
 20
6.9658521347
 10
5.6193032383
 20
6.9673687482
 10
5.6611358386
 20
6.9689065801
 10
5.7157251459
 20
6.9704526072
 10
5.7808109447
 20
6.9719855203
 10
5.8542849119
 20
6.9735028863
 10
5.935916703
 20
6.9750397522
 10
6.0230353007
 20
6.9765834988
  0
LWPOLYLINE
  5
5EB
100
AcDbEntity
  8
02___PRT_ALL_AXES
100
AcDbPolyline
 62
7
  6
CONTINUOUS
 90
10
 70
0
 10
6.6779137818
 20
7.2776435933
 10
6.6761184794
 20
7.2768842994
 10
6.6616291462
 20
7.2753527171
 10
6.6333319257
 20
7.2738368671
 10
6.5914126794
 20
7.2723059881
 10
6.5371367908
 20
7.2707736728
 10
6.472786811
 20
7.269259089
 10
6.39934638
 20
7.2677420781
 10
6.3176096004
 20
7.2662030646
 10
6.2304300596
 20
7.2646582103
  0
LWPOLYLINE
  5
5EC
100
AcDbEntity
  8
02___PRT_ALL_AXES
100
AcDbPolyline
 62
7
  6
CONTINUOUS
 90
10
 70
0
 10
6.6779137825
 20
7.1595328681
 10
6.6760965032
 20
7.1587694305
 10
6.6615036898
 20
7.1572336311
 10
6.6332106367
 20
7.1557213848
 10
6.5915717581
 20
7.1542007979
 10
6.537267728
 20
7.1526667822
 10
6.4723689443
 20
7.1511397016
 10
6.3987987817
 20
7.1496211014
 10
6.3172095944
 20
7.1480855585
 10
6.2304300596
 20
7.1465479741
  0
LWPOLYLINE
  5
5ED
100
AcDbEntity
  8
02___PRT_ALL_AXES
100
AcDbPolyline
 62
7
  6
CONTINUOUS
 90
10
 70
0
 10
6.6779137814
 20
7.2185873982
 10
6.6760145571
 20
7.2178075159
 10
6.6615665359
 20
7.2162931782
 10
6.6331990606
 20
7.2147760025
 10
6.5909429584
 20
7.2132359952
 10
6.5359539955
 20
7.2116883933
 10
6.4705222583
 20
7.2101544629
 10
6.3968942479
 20
7.2086389184
 10
6.3163796282
 20
7.207125599
 10
6.2304300596
 20
7.2056030922
  0
LWPOLYLINE
  5
5EE
100
AcDbEntity
  8
02___PRT_ALL_AXES
100
AcDbPolyline
 62
7
  6
CONTINUOUS
 90
10
 70
0
 10
5.5755515778
 20
6.9045434821
 10
5.5774596712
 20
6.9053257781
 10
5.5922316019
 20
6.9068616524
 10
5.6207584415
 20
6.9083766848
 10
5.6624678763
 20
6.9098937529
 10
5.7161113551
 20
6.9114073674
 10
5.7805250258
 20
6.912924138
 10
5.8540232911
 20
6.9144426353
 10
5.9358015628
 20
6.9159825412
 10
6.0230353007
 20
6.9175283807
  0
LWPOLYLINE
  5
5EF
100
AcDbEntity
  8
02___PRT_ALL_AXES
100
AcDbPolyline
 62
7
  6
CONTINUOUS
 90
9
 70
0
 10
5.5401185069
 20
6.9840558939
 10
5.5419183758
 20
6.9847923518
 10
5.5562511258
 20
6.9862652677
 10
5.5845653558
 20
6.9877381835
 10
5.6261671348
 20
6.9892110994
 10
5.6800368778
 20
6.9906840152
 10
5.7448543339
 20
6.9921569311
 10
5.8190309436
 20
6.9936298469
 10
5.9007487711
 20
6.9951027628
  0
LWPOLYLINE
  5
5F0
100
AcDbEntity
  8
02___PRT_ALL_AXES
100
AcDbPolyline
 62
7
  6
CONTINUOUS
 90
9
 70
0
 10
5.5401185069
 20
6.9250007758
 10
5.5419183758
 20
6.9257372337
 10
5.5562511258
 20
6.9272101496
 10
5.5845653558
 20
6.9286830654
 10
5.6261671348
 20
6.9301559813
 10
5.6800368778
 20
6.9316288971
 10
5.7448543339
 20
6.933101813
 10
5.8190309436
 20
6.9345747288
 10
5.9007487711
 20
6.9360476446
  0
LWPOLYLINE
  5
5F1
100
AcDbEntity
  8
02___PRT_ALL_AXES
100
AcDbPolyline
 62
7
  6
CONTINUOUS
 90
10
 70
0
 10
5.5755515798
 20
7.0226545248
 10
5.5775089179
 20
7.0234460512
 10
5.5920798201
 20
7.0249612637
 10
5.6205045374
 20
7.02647599
 10
5.6627830695
 20
7.0280139527
 10
5.7177544792
 20
7.0295595019
 10
5.7831251274
 20
7.0310912166
 10
5.8567785201
 20
7.0326068478
 10
5.9376048562
 20
7.0341255362
 10
6.0230353007
 20
7.0356386169
  0
LWPOLYLINE
  5
5F2
100
AcDbEntity
  8
02___PRT_ALL_AXES
100
AcDbPolyline
 62
7
  6
CONTINUOUS
 90
10
 70
0
 10
6.6779137804
 20
7.3957525198
 10
6.6759515328
 20
7.3949600186
 10
6.6613793652
 20
7.3934453665
 10
6.6329491251
 20
7.3919305691
 10
6.5906636089
 20
7.3903925207
 10
6.5356882057
 20
7.3888469847
 10
6.4703172512
 20
7.3873153456
 10
6.3966670545
 20
7.3857998286
 10
6.31586143
 20
7.384281544
 10
6.2304300596
 20
7.3827684465
  0
LWPOLYLINE
  5
5F3
100
AcDbEntity
  8
02___PRT_ALL_AXES
100
AcDbPolyline
 62
7
  6
CONTINUOUS
 90
9
 70
0
 10
5.5403442649
 20
7.1688639046
 10
5.5419183758
 20
7.1693395959
 10
5.5562511258
 20
7.1708125118
 10
5.5845653558
 20
7.1722854276
 10
5.6261671348
 20
7.1737583435
 10
5.6800368778
 20
7.1752312593
 10
5.7448543339
 20
7.1767041752
 10
5.8190309436
 20
7.178177091
 10
5.9007487711
 20
7.1796500068
  0
LWPOLYLINE
  5
5F4
100
AcDbEntity
  8
02___PRT_ALL_AXES
100
AcDbPolyline
 62
7
  6
CONTINUOUS
 90
9
 70
0
 10
5.5403442649
 20
7.0507536684
 10
5.5419183758
 20
7.0512293597
 10
5.5562511258
 20
7.0527022756
 10
5.5845653558
 20
7.0541751914
 10
5.6261671348
 20
7.0556481072
 10
5.6800368778
 20
7.0571210231
 10
5.7448543339
 20
7.0585939389
 10
5.8190309436
 20
7.0600668548
 10
5.9007487711
 20
7.0615397706
  0
LWPOLYLINE
  5
5F5
100
AcDbEntity
  8
02___PRT_ALL_AXES
100
AcDbPolyline
 62
7
  6
CONTINUOUS
 90
7
 70
0
 10
5.5403442649
 20
6.9916985503
 10
5.5419183758
 20
6.9921742416
 10
5.5562511258
 20
6.9936471574
 10
5.5845653558
 20
6.9951200733
 10
5.6261671348
 20
6.9965929891
 10
5.6800368778
 20
6.998065905
 10
5.7448543339
 20
6.9995388208
  0
LWPOLYLINE
  5
5F6
100
AcDbEntity
  8
02___PRT_ALL_AXES
100
AcDbPolyline
 62
7
  6
CONTINUOUS
 90
9
 70
0
 10
5.5403442649
 20
6.9326434321
 10
5.5419183758
 20
6.9331191235
 10
5.5562511258
 20
6.9345920393
 10
5.5845653558
 20
6.9360649552
 10
5.6261671348
 20
6.937537871
 10
5.6800368778
 20
6.9390107869
 10
5.7448543339
 20
6.9404837027
 10
5.8190309436
 20
6.9419566186
 10
5.9007487711
 20
6.9434295344
  0
LINE
  5
5F7
100
AcDbEntity
  8
0
100
AcDbLine
 62
7
  6
CONTINUOUS
 10
7.1109846487
 20
13.3903058939
 11
5.1424807116
 21
13.3903058939
  0
LINE
  5
5F8
100
AcDbEntity
  8
AXIS
100
AcDbLine
 62
7
  6
CONTINUOUS
 10
5.1424807116
 20
13.3903058939
 11
7.1109846487
 21
13.3903058939
  0
LINE
  5
5F9
100
AcDbEntity
  8
0
100
AcDbLine
 62
7
  6
CONTINUOUS
 10
6.6776735299
 20
6.9928486393
 11
6.7131210954
 21
7.0133226864
  0
LINE
  5
5FA
100
AcDbEntity
  8
0
100
AcDbLine
 62
7
  6
CONTINUOUS
 10
6.6776735299
 20
6.9337935212
 11
6.7131210954
 21
6.9542675683
  0
LWPOLYLINE
  5
5FB
100
AcDbEntity
  8
02___PRT_ALL_AXES
100
AcDbPolyline
 62
7
  6
CONTINUOUS
 90
6
 70
0
 10
6.6779137824
 20
7.0414228623
 10
6.6761594679
 20
7.0406725438
 10
6.6618939293
 20
7.0391510334
 10
6.6337055682
 20
7.037632599
 10
6.5916188643
 20
7.0360920567
 10
6.5367629214
 20
7.034543655
  0
LWPOLYLINE
  5
5FC
100
AcDbEntity
  8
02___PRT_ALL_AXES
100
AcDbPolyline
 62
7
  6
CONTINUOUS
 90
10
 70
0
 10
6.6779137825
 20
6.9823674334
 10
6.6760893505
 20
6.9816025744
 10
6.6615323386
 20
6.9800702947
 10
6.6331818064
 20
6.9785547844
 10
6.5910270319
 20
6.9770181824
 10
6.5361929849
 20
6.9754740065
 10
6.4709650492
 20
6.9739436544
 10
6.3973682677
 20
6.972427722
 10
6.3162048002
 20
6.9709019517
 10
6.2304300596
 20
6.9693826198
  0
LWPOLYLINE
  5
5FD
100
AcDbEntity
  8
02___PRT_ALL_AXES
100
AcDbPolyline
 62
7
  6
CONTINUOUS
 90
10
 70
0
 10
6.6779137825
 20
7.1004777503
 10
6.6760046459
 20
7.0996952447
 10
6.6612460694
 20
7.0981604442
 10
6.6327270215
 20
7.0966454162
 10
6.5908215692
 20
7.0951219209
 10
6.5369999436
 20
7.0936048234
 10
6.4727792779
 20
7.0920935697
 10
6.3993403032
 20
7.0905766046
 10
6.3176054834
 20
7.0890376355
 10
6.2304300596
 20
7.087492856
  0
LINE
  5
5FE
100
AcDbEntity
  8
AXIS
100
AcDbLine
 62
7
  6
CONTINUOUS
 10
5.1424807116
 20
14.449361012
 11
7.1109846487
 21
14.449361012
  0
LINE
  5
5FF
100
AcDbEntity
  8
0
100
AcDbLine
 62
7
  6
CONTINUOUS
 10
5.1424807116
 20
14.449361012
 11
7.1109846487
 21
14.449361012
  0
LINE
  5
600
100
AcDbEntity
  8
0
100
AcDbLine
 62
9
  6
CONTINUOUS
 10
5.147177708
 20
14.7184517527
 11
7.1062876523
 21
14.7184517527
  0
LINE
  5
601
100
AcDbEntity
  8
0
100
AcDbLine
 62
7
  6
CONTINUOUS
 10
5.2259058733
 20
14.7958177049
 11
7.0275594873
 21
14.7958177049
  0
LWPOLYLINE
  5
602
100
AcDbEntity
  8
02___PRT_ALL_AXES
100
AcDbPolyline
 62
7
  6
CONTINUOUS
 90
18
 70
0
 10
17.2128258367
 20
3.8195727793
 10
17.2244175084
 20
3.813773866
 10
17.237320626
 20
3.8089863992
 10
17.2512725193
 20
3.805307838
 10
17.2659891679
 20
3.8028130673
 10
17.2811709834
 20
3.8015528734
 10
17.2965089078
 20
3.8015529103
 10
17.3116907052
 20
3.8028131771
 10
17.3264073179
 20
3.8053080186
 10
17.3403591581
 20
3.8089866469
 10
17.3532622067
 20
3.8137741757
 10
17.3648537947
 20
3.8195731448
 10
17.3748979508
 20
3.8262655038
 10
17.3831902051
 20
3.8337150158
 10
17.3895617511
 20
3.84177003
 10
17.3938828824
 20
3.8502665696
 10
17.3960656335
 20
3.8590316695
 10
17.3963384533
 20
3.8634590254
  0
LWPOLYLINE
  5
603
100
AcDbEntity
  8
02___PRT_ALL_AXES
100
AcDbPolyline
 62
7
  6
CONTINUOUS
 90
14
 70
0
 10
17.06585233
 20
4.5001334135
 10
17.1532656234
 20
4.4850821893
 10
17.2440015894
 20
4.4781066159
 10
17.3358364521
 20
4.4794071264
 10
17.4265195039
 20
4.4889813223
 10
17.5138282655
 20
4.5066240316
 10
17.595622956
 20
4.5319323379
 10
17.669898934
 20
4.5643154544
 10
17.7348358285
 20
4.6030092034
 10
17.7888421526
 20
4.6470947452
 10
17.8305943083
 20
4.6955210967
 10
17.8590690249
 20
4.7471308894
 10
17.8735684384
 20
4.8006887343
 10
17.8754536724
 20
4.8284346606
  0
LWPOLYLINE
  5
604
100
AcDbEntity
  8
02___PRT_ALL_AXES
100
AcDbPolyline
 62
7
  6
CONTINUOUS
 90
13
 70
0
 10
17.06585233
 20
4.5061607443
 10
17.1532656234
 20
4.4911095202
 10
17.2440015894
 20
4.4841339467
 10
17.3358364521
 20
4.4854344572
 10
17.4265195039
 20
4.4950086531
 10
17.5138282655
 20
4.5126513625
 10
17.595622956
 20
4.5379596687
 10
17.669898934
 20
4.5703427852
 10
17.7348358285
 20
4.6090365343
 10
17.7888421526
 20
4.6531220761
 10
17.8305943083
 20
4.7015484276
 10
17.8590690249
 20
4.7531582202
 10
17.8735684384
 20
4.8067160652
  0
LWPOLYLINE
  5
605
100
AcDbEntity
  8
02___PRT_ALL_AXES
100
AcDbPolyline
 62
7
  6
CONTINUOUS
 90
5
 70
0
 10
17.4935071473
 20
4.7876554058
 10
17.4078096393
 20
4.7711548299
 10
17.3188788003
 20
4.7628753819
 10
17.2301851293
 20
4.7629727174
 10
17.1428740194
 20
4.7712885357
  0
LINE
  5
606
100
AcDbEntity
  8
02___PRT_ALL_AXES
100
AcDbLine
 62
7
  6
CONTINUOUS
 10
17.3467433595
 20
4.7754549186
 11
17.4406687785
 21
4.7865918472
  0
LWPOLYLINE
  5
607
100
AcDbEntity
  8
02___PRT_ALL_AXES
100
AcDbPolyline
 62
7
  6
CONTINUOUS
 90
5
 70
0
 10
17.06585233
 20
4.7894452936
 10
17.1568197109
 20
4.7739611419
 10
17.2512841371
 20
4.7672179936
 10
17.3467433595
 20
4.7694275877
 10
17.4406687785
 20
4.7805645164
  0
LWPOLYLINE
  5
608
100
AcDbEntity
  8
02___PRT_ALL_AXES
100
AcDbPolyline
 62
7
  6
CONTINUOUS
 90
4
 70
0
 10
17.06585233
 20
4.7954726244
 10
17.1568197109
 20
4.7799884728
 10
17.2512841371
 20
4.7732453244
 10
17.3467433595
 20
4.7754549186
  0
LWPOLYLINE
  5
609
100
AcDbEntity
  8
02___PRT_ALL_AXES
100
AcDbPolyline
 62
7
  6
CONTINUOUS
 90
11
 70
0
 10
17.06585233
 20
4.5483520601
 10
17.1532656234
 20
4.533300836
 10
17.2440015894
 20
4.5263252625
 10
17.3358364521
 20
4.5276257731
 10
17.4265195039
 20
4.5371999689
 10
17.5138282655
 20
4.5548426783
 10
17.595622956
 20
4.5801509846
 10
17.669898934
 20
4.612534101
 10
17.7348358285
 20
4.6512278501
 10
17.7888421526
 20
4.6953133919
 10
17.8305943083
 20
4.7437397434
  0
LWPOLYLINE
  5
60A
100
AcDbEntity
  8
02___PRT_ALL_AXES
100
AcDbPolyline
 62
7
  6
CONTINUOUS
 90
11
 70
0
 10
17.06585233
 20
4.554379391
 10
17.1532656234
 20
4.5393281668
 10
17.2440015894
 20
4.5323525934
 10
17.3358364521
 20
4.5336531039
 10
17.4265195039
 20
4.5432272998
 10
17.5138282655
 20
4.5608700092
 10
17.595622956
 20
4.5861783154
 10
17.669898934
 20
4.6185614319
 10
17.7348358285
 20
4.6572551809
 10
17.7888421526
 20
4.7013407228
 10
17.8305943083
 20
4.7497670743
  0
LWPOLYLINE
  5
60B
100
AcDbEntity
  8
02___PRT_ALL_AXES
100
AcDbPolyline
 62
7
  6
CONTINUOUS
 90
12
 70
0
 10
17.06585233
 20
4.5965707068
 10
17.1532656234
 20
4.5815194827
 10
17.2440015894
 20
4.5745439092
 10
17.3358364521
 20
4.5758444197
 10
17.4265195039
 20
4.5854186156
 10
17.5138282655
 20
4.603061325
 10
17.595622956
 20
4.6283696313
 10
17.669898934
 20
4.6607527477
 10
17.7348358285
 20
4.6994464968
 10
17.7888421526
 20
4.7435320386
 10
17.8305943083
 20
4.7919583901
 10
17.8590690249
 20
4.8435681828
  0
LWPOLYLINE
  5
60C
100
AcDbEntity
  8
02___PRT_ALL_AXES
100
AcDbPolyline
 62
7
  6
CONTINUOUS
 90
12
 70
0
 10
17.06585233
 20
4.6025980377
 10
17.1532656234
 20
4.5875468135
 10
17.2440015894
 20
4.58057124
 10
17.3358364521
 20
4.5818717506
 10
17.4265195039
 20
4.5914459464
 10
17.5138282655
 20
4.6090886558
 10
17.595622956
 20
4.6343969621
 10
17.669898934
 20
4.6667800786
 10
17.7348358285
 20
4.7054738276
 10
17.7888421526
 20
4.7495593694
 10
17.8305943083
 20
4.7979857209
 10
17.8590690249
 20
4.8495955136
  0
LWPOLYLINE
  5
60D
100
AcDbEntity
  8
02___PRT_ALL_AXES
100
AcDbPolyline
 62
7
  6
CONTINUOUS
 90
11
 70
0
 10
17.06585233
 20
4.6447893535
 10
17.1532656234
 20
4.6297381294
 10
17.2440015894
 20
4.6227625559
 10
17.3358364521
 20
4.6240630664
 10
17.4265195039
 20
4.6336372623
 10
17.5138282655
 20
4.6512799717
 10
17.595622956
 20
4.6765882779
 10
17.669898934
 20
4.7089713944
 10
17.7348358285
 20
4.7476651435
 10
17.7888421526
 20
4.7917506853
 10
17.8305943083
 20
4.8401770368
  0
LWPOLYLINE
  5
60E
100
AcDbEntity
  8
02___PRT_ALL_AXES
100
AcDbPolyline
 62
7
  6
CONTINUOUS
 90
12
 70
0
 10
17.06585233
 20
4.6508166843
 10
17.1532656234
 20
4.6357654602
 10
17.2440015894
 20
4.6287898867
 10
17.3358364521
 20
4.6300903973
 10
17.4265195039
 20
4.6396645931
 10
17.5138282655
 20
4.6573073025
 10
17.595622956
 20
4.6826156088
 10
17.669898934
 20
4.7149987252
 10
17.7348358285
 20
4.7536924743
 10
17.7888421526
 20
4.7977780161
 10
17.8305943083
 20
4.8462043676
 10
17.8590690249
 20
4.8978141603
  0
LWPOLYLINE
  5
60F
100
AcDbEntity
  8
02___PRT_ALL_AXES
100
AcDbPolyline
 62
7
  6
CONTINUOUS
 90
11
 70
0
 10
17.06585233
 20
4.6930080002
 10
17.1532656234
 20
4.6779567761
 10
17.2440015894
 20
4.6709812026
 10
17.3358364521
 20
4.6722817131
 10
17.4265195039
 20
4.681855909
 10
17.5138282655
 20
4.6994986184
 10
17.595622956
 20
4.7248069246
 10
17.669898934
 20
4.7571900411
 10
17.7348358285
 20
4.7958837902
 10
17.7888421526
 20
4.839969332
 10
17.8305943083
 20
4.8883956835
  0
LWPOLYLINE
  5
610
100
AcDbEntity
  8
02___PRT_ALL_AXES
100
AcDbPolyline
 62
7
  6
CONTINUOUS
 90
12
 70
0
 10
17.06585233
 20
4.699035331
 10
17.1532656234
 20
4.6839841069
 10
17.2440015894
 20
4.6770085334
 10
17.3358364521
 20
4.6783090439
 10
17.4265195039
 20
4.6878832398
 10
17.5138282655
 20
4.7055259492
 10
17.595622956
 20
4.7308342555
 10
17.669898934
 20
4.7632173719
 10
17.7348358285
 20
4.801911121
 10
17.7888421526
 20
4.8459966628
 10
17.8305943083
 20
4.8944230143
 10
17.8590690249
 20
4.946032807
  0
LWPOLYLINE
  5
611
100
AcDbEntity
  8
02___PRT_ALL_AXES
100
AcDbPolyline
 62
7
  6
CONTINUOUS
 90
11
 70
0
 10
17.06585233
 20
4.7412266469
 10
17.1532656234
 20
4.7261754227
 10
17.2440015894
 20
4.7191998493
 10
17.3358364521
 20
4.7205003598
 10
17.4265195039
 20
4.7300745557
 10
17.5138282655
 20
4.747717265
 10
17.595622956
 20
4.7730255713
 10
17.669898934
 20
4.8054086878
 10
17.7348358285
 20
4.8441024368
 10
17.7888421526
 20
4.8881879786
 10
17.8305943083
 20
4.9366143301
  0
LWPOLYLINE
  5
612
100
AcDbEntity
  8
02___PRT_ALL_AXES
100
AcDbPolyline
 62
7
  6
CONTINUOUS
 90
12
 70
0
 10
17.06585233
 20
4.7472539777
 10
17.1532656234
 20
4.7322027536
 10
17.2440015894
 20
4.7252271801
 10
17.3358364521
 20
4.7265276906
 10
17.4265195039
 20
4.7361018865
 10
17.5138282655
 20
4.7537445959
 10
17.595622956
 20
4.7790529021
 10
17.669898934
 20
4.8114360186
 10
17.7348358285
 20
4.8501297677
 10
17.7888421526
 20
4.8942153095
 10
17.8305943083
 20
4.942641661
 10
17.8590690249
 20
4.9942514536
  0
LINE
  5
613
100
AcDbEntity
  8
02___PRT_ALL_AXES
100
AcDbLine
 62
7
  6
CONTINUOUS
 10
17.1428672773
 20
4.6266335674
 11
17.058180687
 21
4.6432189863
  0
LINE
  5
614
100
AcDbEntity
  8
02___PRT_ALL_AXES
100
AcDbLine
 62
7
  6
CONTINUOUS
 10
17.1428740194
 20
4.7712885357
 11
17.0581846728
 21
4.7878739271
  0
LINE
  5
615
100
AcDbEntity
  8
02___PRT_ALL_AXES
100
AcDbLine
 62
7
  6
CONTINUOUS
 10
17.1422667475
 20
4.6749389738
 11
17.0577975371
 21
4.6915337866
  0
LINE
  5
616
100
AcDbEntity
  8
02___PRT_ALL_AXES
100
AcDbLine
 62
7
  6
CONTINUOUS
 10
17.1413675262
 20
4.5786323763
 11
17.0576309251
 21
4.5951383689
  0
LWPOLYLINE
  5
617
100
AcDbEntity
  8
02___PRT_ALL_AXES
100
AcDbPolyline
 62
7
  6
CONTINUOUS
 90
3
 70
0
 10
17.1406831021
 20
4.5305138366
 10
17.0568261678
 20
4.5471225291
 10
16.9793823357
 20
4.5712041132
  0
LWPOLYLINE
  5
618
100
AcDbEntity
  8
02___PRT_ALL_AXES
100
AcDbPolyline
 62
7
  6
CONTINUOUS
 90
3
 70
0
 10
17.140159217
 20
4.7234654176
 10
17.0569950676
 20
4.7399544768
 10
16.9793823357
 20
4.7640786999
  0
LINE
  5
619
100
AcDbEntity
  8
02___PRT_ALL_AXES
100
AcDbLine
 62
7
  6
CONTINUOUS
 10
17.058180687
 20
4.6432189863
 11
16.9793823357
 21
4.6676414066
  0
LINE
  5
61A
100
AcDbEntity
  8
02___PRT_ALL_AXES
100
AcDbLine
 62
7
  6
CONTINUOUS
 10
17.0576309251
 20
4.5951383689
 11
16.9793823357
 21
4.6194227599
  0
LINE
  5
61B
100
AcDbEntity
  8
02___PRT_ALL_AXES
100
AcDbLine
 62
7
  6
CONTINUOUS
 10
17.0577975371
 20
4.6915337866
 11
16.9793823357
 21
4.7158600532
  0
LWPOLYLINE
  5
61C
100
AcDbEntity
  8
02___PRT_ALL_AXES
100
AcDbPolyline
 62
7
  6
CONTINUOUS
 90
4
 70
0
 10
17.06585233
 20
4.6930080002
 10
17.0451152554
 20
4.6995936797
 10
17.0234210704
 20
4.7071356181
 10
17.0013317907
 20
4.7155378874
  0
LWPOLYLINE
  5
61D
100
AcDbEntity
  8
02___PRT_ALL_AXES
100
AcDbPolyline
 62
7
  6
CONTINUOUS
 90
5
 70
0
 10
17.06585233
 20
4.5001334135
 10
17.0448878986
 20
4.5067946107
 10
17.022926546
 20
4.5144410167
 10
17.0008488023
 20
4.5228554417
 10
16.9793823357
 20
4.531769924
  0
LWPOLYLINE
  5
61E
100
AcDbEntity
  8
02___PRT_ALL_AXES
100
AcDbPolyline
 62
7
  6
CONTINUOUS
 90
3
 70
0
 10
17.06585233
 20
4.5483520601
 10
17.0368780136
 20
4.5577208565
 10
17.0080416671
 20
4.5682503338
  0
LWPOLYLINE
  5
61F
100
AcDbEntity
  8
02___PRT_ALL_AXES
100
AcDbPolyline
 62
7
  6
CONTINUOUS
 90
4
 70
0
 10
16.7462614904
 20
4.6846026942
 10
16.7752311019
 20
4.6752355154
 10
16.8040670412
 20
4.6647063988
 10
16.8327314847
 20
4.6529661837
  0
LWPOLYLINE
  5
620
100
AcDbEntity
  8
02___PRT_ALL_AXES
100
AcDbPolyline
 62
7
  6
CONTINUOUS
 90
3
 70
0
 10
17.06585233
 20
4.5965707068
 10
17.0368780136
 20
4.6059395031
 10
17.0080416671
 20
4.6164689805
  0
LWPOLYLINE
  5
621
100
AcDbEntity
  8
02___PRT_ALL_AXES
100
AcDbPolyline
 62
7
  6
CONTINUOUS
 90
4
 70
0
 10
16.7462614904
 20
4.7328213409
 10
16.7752311019
 20
4.7234541621
 10
16.8040670412
 20
4.7129250455
 10
16.8327314847
 20
4.7011848304
  0
LWPOLYLINE
  5
622
100
AcDbEntity
  8
02___PRT_ALL_AXES
100
AcDbPolyline
 62
7
  6
CONTINUOUS
 90
3
 70
0
 10
17.06585233
 20
4.6447893535
 10
17.0368780135
 20
4.6541581498
 10
17.0080416671
 20
4.6646876272
  0
LWPOLYLINE
  5
623
100
AcDbEntity
  8
02___PRT_ALL_AXES
100
AcDbPolyline
 62
7
  6
CONTINUOUS
 90
4
 70
0
 10
16.7462614904
 20
4.7810399876
 10
16.7752370317
 20
4.7716707702
 10
16.8040723717
 20
4.7611416294
 10
16.8327314847
 20
4.7494034771
  0
LWPOLYLINE
  5
624
100
AcDbEntity
  8
02___PRT_ALL_AXES
100
AcDbPolyline
 62
7
  6
CONTINUOUS
 90
4
 70
0
 10
16.7462614904
 20
4.8292586343
 10
16.7752311019
 20
4.8198914554
 10
16.8040670412
 20
4.8093623388
 10
16.8327314847
 20
4.7976221238
  0
LWPOLYLINE
  5
625
100
AcDbEntity
  8
0
100
AcDbPolyline
 62
9
  6
CONTINUOUS
 90
14
 70
0
 10
16.9793823357
 20
4.4937794696
 10
17.052786942
 20
4.4695510203
 10
17.1316989621
 20
4.4520979014
 10
17.2143120632
 20
4.4418136714
 10
17.2986948538
 20
4.4389421423
 10
17.3828459742
 20
4.4435537568
 10
17.4647825033
 20
4.4555393593
 10
17.542579063
 20
4.4746164423
 10
17.6144102982
 20
4.5003373129
 10
17.6785855367
 20
4.5320969886
 10
17.7335949927
 20
4.5691484019
 10
17.7781446597
 20
4.6106198367
 10
17.8111868278
 20
4.6555353769
 10
17.8268051406
 20
4.6911262203
  0
LINE
  5
626
100
AcDbEntity
  8
02___PRT_ALL_AXES
100
AcDbLine
 62
7
  6
CONTINUOUS
 10
17.0080416671
 20
4.5682503338
 11
16.9793823357
 21
4.5799885707
  0
LINE
  5
627
100
AcDbEntity
  8
02___PRT_ALL_AXES
100
AcDbLine
 62
7
  6
CONTINUOUS
 10
17.0080416671
 20
4.6164689805
 11
16.9793823357
 21
4.6282072173
  0
LINE
  5
628
100
AcDbEntity
  8
02___PRT_ALL_AXES
100
AcDbLine
 62
7
  6
CONTINUOUS
 10
17.0080416671
 20
4.6646876272
 11
16.9793823357
 21
4.676425864
  0
LINE
  5
629
100
AcDbEntity
  8
0
100
AcDbLine
 62
7
  6
CONTINUOUS
 10
16.9867588643
 20
4.4762052726
 11
16.9882186287
 21
4.4755045969
  0
LINE
  5
62A
100
AcDbEntity
  8
0
100
AcDbLine
 62
7
  6
CONTINUOUS
 10
16.9867344441
 20
4.4762193712
 11
16.841687433
 21
4.5599604076
  0
LINE
  5
62B
100
AcDbEntity
  8
0
100
AcDbLine
 62
9
  6
CONTINUOUS
 10
16.9793823357
 20
4.4937794696
 11
16.8327314847
 21
4.5784464625
  0
LWPOLYLINE
  5
62C
100
AcDbEntity
  8
02___PRT_ALL_AXES
100
AcDbPolyline
 62
7
  6
CONTINUOUS
 90
7
 70
0
 10
17.4406687785
 20
4.7805645164
 10
17.5260283619
 20
4.7991286475
 10
17.6057412009
 20
4.8250671648
 10
17.6779095756
 20
4.857790769
 10
17.7408153767
 20
4.8965486284
 10
17.7929610086
 20
4.9404462543
 10
17.8331050428
 20
4.9884667957
  0
LWPOLYLINE
  5
62D
100
AcDbEntity
  8
02___PRT_ALL_AXES
100
AcDbPolyline
 62
7
  6
CONTINUOUS
 90
8
 70
0
 10
17.4406687785
 20
4.7865918472
 10
17.5260283619
 20
4.8051559783
 10
17.6057412009
 20
4.8310944956
 10
17.6779095756
 20
4.8638180998
 10
17.7408153767
 20
4.9025759593
 10
17.7929610086
 20
4.9464735852
 10
17.8331050428
 20
4.9944941265
 10
17.8411554151
 20
5.0096043675
  0
LINE
  5
62E
100
AcDbEntity
  8
02___PRT_ALL_AXES
100
AcDbLine
 62
7
  6
CONTINUOUS
 10
17.4265195039
 20
4.826511849
 11
17.5138282655
 21
4.8441545584
  0
LWPOLYLINE
  5
62F
100
AcDbEntity
  8
02___PRT_ALL_AXES
100
AcDbPolyline
 62
7
  6
CONTINUOUS
 90
5
 70
0
 10
17.4314978824
 20
4.8230551995
 10
17.3546996929
 20
4.8134017026
 10
17.2761974921
 20
4.8101103112
 10
17.1984353657
 20
4.81324779
 10
17.122059004
 20
4.8227611611
  0
LWPOLYLINE
  5
630
100
AcDbEntity
  8
02___PRT_ALL_AXES
100
AcDbPolyline
 62
7
  6
CONTINUOUS
 90
5
 70
0
 10
17.06585233
 20
4.8376639402
 10
17.1532656234
 20
4.8226127161
 10
17.2440015894
 20
4.8156371426
 10
17.3358364521
 20
4.8169376531
 10
17.4265195039
 20
4.826511849
  0
LWPOLYLINE
  5
631
100
AcDbEntity
  8
02___PRT_ALL_AXES
100
AcDbPolyline
 62
7
  6
CONTINUOUS
 90
6
 70
0
 10
17.06585233
 20
4.8436912711
 10
17.1532656234
 20
4.8286400469
 10
17.2440015894
 20
4.8216644735
 10
17.3358364521
 20
4.822964984
 10
17.4265195039
 20
4.8325391799
 10
17.5138282655
 20
4.8501818892
  0
LWPOLYLINE
  5
632
100
AcDbEntity
  8
02___PRT_ALL_AXES
100
AcDbPolyline
 62
7
  6
CONTINUOUS
 90
8
 70
0
 10
17.06585233
 20
4.8858825869
 10
17.1532656234
 20
4.8708313628
 10
17.2440015894
 20
4.8638557893
 10
17.3358364521
 20
4.8651562998
 10
17.4265195039
 20
4.8747304957
 10
17.5138282655
 20
4.8923732051
 10
17.595622956
 20
4.9176815113
 10
17.6167581656
 20
4.9268961184
  0
LWPOLYLINE
  5
633
100
AcDbEntity
  8
02___PRT_ALL_AXES
100
AcDbPolyline
 62
7
  6
CONTINUOUS
 90
7
 70
0
 10
17.06585233
 20
4.8919099177
 10
17.1532656234
 20
4.8768586936
 10
17.2440015894
 20
4.8698831201
 10
17.3358364521
 20
4.8711836307
 10
17.4265195039
 20
4.8807578265
 10
17.5138282655
 20
4.8984005359
 10
17.5774606266
 20
4.918089189
  0
LWPOLYLINE
  5
634
100
AcDbEntity
  8
02___PRT_ALL_AXES
100
AcDbPolyline
 62
7
  6
CONTINUOUS
 90
3
 70
0
 10
17.1399082781
 20
4.8681583509
 10
17.0564945788
 20
4.8847368812
 10
16.9793823357
 20
4.90873464
  0
LWPOLYLINE
  5
635
100
AcDbEntity
  8
02___PRT_ALL_AXES
100
AcDbPolyline
 62
7
  6
CONTINUOUS
 90
3
 70
0
 10
17.122059004
 20
4.8227611611
 10
17.0482931651
 20
4.8386405537
 10
16.9793823357
 20
4.8605159933
  0
LWPOLYLINE
  5
636
100
AcDbEntity
  8
02___PRT_ALL_AXES
100
AcDbPolyline
 62
7
  6
CONTINUOUS
 90
3
 70
0
 10
17.0272022558
 20
4.911049249
 10
16.9088791605
 20
4.9400060193
 10
16.7974401537
 20
4.9798994218
  0
LINE
  5
637
100
AcDbEntity
  8
02___PRT_ALL_AXES
100
AcDbLine
 62
7
  6
CONTINUOUS
 10
17.0581846728
 20
4.7878739271
 11
16.9793823357
 21
4.8122973466
  0
LWPOLYLINE
  5
638
100
AcDbEntity
  8
02___PRT_ALL_AXES
100
AcDbPolyline
 62
7
  6
CONTINUOUS
 90
5
 70
0
 10
16.7462614904
 20
4.9256959276
 10
16.7669490477
 20
4.9191266858
 10
16.7886307092
 20
4.9115908641
 10
16.8107358652
 20
4.9031843863
 10
16.8327314847
 20
4.8940594171
  0
LWPOLYLINE
  5
639
100
AcDbEntity
  8
02___PRT_ALL_AXES
100
AcDbPolyline
 62
7
  6
CONTINUOUS
 90
3
 70
0
 10
17.06585233
 20
4.7412266469
 10
17.0368780135
 20
4.7505954432
 10
17.0080416671
 20
4.7611249206
  0
LWPOLYLINE
  5
63A
100
AcDbEntity
  8
02___PRT_ALL_AXES
100
AcDbPolyline
 62
7
  6
CONTINUOUS
 90
4
 70
0
 10
16.7462614904
 20
4.877477281
 10
16.7752311019
 20
4.8681101021
 10
16.8040670412
 20
4.8575809855
 10
16.8327314847
 20
4.8458407704
  0
LWPOLYLINE
  5
63B
100
AcDbEntity
  8
02___PRT_ALL_AXES
100
AcDbPolyline
 62
7
  6
CONTINUOUS
 90
3
 70
0
 10
17.06585233
 20
4.7894452936
 10
17.0368780135
 20
4.7988140899
 10
17.0080416671
 20
4.8093435673
  0
LWPOLYLINE
  5
63C
100
AcDbEntity
  8
02___PRT_ALL_AXES
100
AcDbPolyline
 62
7
  6
CONTINUOUS
 90
3
 70
0
 10
17.06585233
 20
4.8376639402
 10
17.0368705166
 20
4.8470353139
 10
17.0080348963
 20
4.8575648342
  0
LWPOLYLINE
  5
63D
100
AcDbEntity
  8
02___PRT_ALL_AXES
100
AcDbPolyline
 62
7
  6
CONTINUOUS
 90
4
 70
0
 10
16.7462614904
 20
4.9739145743
 10
16.7752311019
 20
4.9645473955
 10
16.8040670412
 20
4.9540182789
 10
16.8327314847
 20
4.9422780638
  0
LWPOLYLINE
  5
63E
100
AcDbEntity
  8
02___PRT_ALL_AXES
100
AcDbPolyline
 62
7
  6
CONTINUOUS
 90
3
 70
0
 10
17.06585233
 20
4.8858825869
 10
17.0368780136
 20
4.8952513832
 10
17.0080416671
 20
4.9057808606
  0
LINE
  5
63F
100
AcDbEntity
  8
02___PRT_ALL_AXES
100
AcDbLine
 62
7
  6
CONTINUOUS
 10
17.0080416671
 20
4.7611249206
 11
16.9793823357
 21
4.7728631574
  0
LINE
  5
640
100
AcDbEntity
  8
02___PRT_ALL_AXES
100
AcDbLine
 62
7
  6
CONTINUOUS
 10
17.0080416671
 20
4.8093435673
 11
16.9793823357
 21
4.8210818041
  0
LINE
  5
641
100
AcDbEntity
  8
02___PRT_ALL_AXES
100
AcDbLine
 62
7
  6
CONTINUOUS
 10
17.0080348963
 20
4.8575648342
 11
16.9793823357
 21
4.8693004508
  0
LINE
  5
642
100
AcDbEntity
  8
02___PRT_ALL_AXES
100
AcDbLine
 62
7
  6
CONTINUOUS
 10
17.0080416671
 20
4.9057808606
 11
16.9793823357
 21
4.9175190974
  0
LINE
  5
643
100
AcDbEntity
  8
02___PRT_ALL_AXES
100
AcDbLine
 62
7
  6
CONTINUOUS
 10
17.0013317907
 20
4.7155378874
 11
16.9793823357
 21
4.7246445107
  0
LINE
  5
644
100
AcDbEntity
  8
02___PRT_ALL_AXES
100
AcDbLine
 62
7
  6
CONTINUOUS
 10
16.7974401537
 20
4.9798994218
 11
16.6950841034
 21
5.0305921881
  0
LINE
  5
645
100
AcDbEntity
  8
0
100
AcDbLine
 62
7
  6
CONTINUOUS
 10
16.8393229773
 20
4.5616277892
 11
16.8416651974
 21
4.5599732451
  0
LWPOLYLINE
  5
646
100
AcDbEntity
  8
02___PRT_ALL_AXES
100
AcDbPolyline
 62
7
  6
CONTINUOUS
 90
4
 70
0
 10
16.8327314847
 20
4.6135319945
 10
16.8040727161
 20
4.6337940409
 10
16.7752341084
 20
4.6555048123
 10
16.7462614904
 20
4.6785753634
  0
LWPOLYLINE
  5
647
100
AcDbEntity
  8
02___PRT_ALL_AXES
100
AcDbPolyline
 62
7
  6
CONTINUOUS
 90
4
 70
0
 10
16.8327314847
 20
4.6617506412
 10
16.8040727161
 20
4.6820126876
 10
16.7752341084
 20
4.7037234589
 10
16.7462614904
 20
4.7267940101
  0
LWPOLYLINE
  5
648
100
AcDbEntity
  8
02___PRT_ALL_AXES
100
AcDbPolyline
 62
7
  6
CONTINUOUS
 90
4
 70
0
 10
16.8327314847
 20
4.7099692879
 10
16.8040798052
 20
4.7302261576
 10
16.775241893
 20
4.7519360727
 10
16.7462614904
 20
4.7750126568
  0
LWPOLYLINE
  5
649
100
AcDbEntity
  8
02___PRT_ALL_AXES
100
AcDbPolyline
 62
7
  6
CONTINUOUS
 90
4
 70
0
 10
16.9793823357
 20
4.6194227599
 10
17.0080464523
 20
4.599156808
 10
17.0368846042
 20
4.5774461507
 10
17.06585233
 20
4.554379391
  0
LWPOLYLINE
  5
64A
100
AcDbEntity
  8
02___PRT_ALL_AXES
100
AcDbPolyline
 62
7
  6
CONTINUOUS
 90
4
 70
0
 10
16.8327314847
 20
4.7581879346
 10
16.8040727161
 20
4.778449981
 10
16.7752341084
 20
4.8001607523
 10
16.7462614904
 20
4.8232313034
  0
LWPOLYLINE
  5
64B
100
AcDbEntity
  8
02___PRT_ALL_AXES
100
AcDbPolyline
 62
7
  6
CONTINUOUS
 90
4
 70
0
 10
16.9793823357
 20
4.6676414066
 10
17.0080464523
 20
4.6473754547
 10
17.0368846042
 20
4.6256647974
 10
17.06585233
 20
4.6025980377
  0
LWPOLYLINE
  5
64C
100
AcDbEntity
  8
02___PRT_ALL_AXES
100
AcDbPolyline
 62
7
  6
CONTINUOUS
 90
4
 70
0
 10
16.9793823357
 20
4.5712041132
 10
17.0082368988
 20
4.5507990575
 10
17.0376128027
 20
4.5286627564
 10
17.06585233
 20
4.5061607443
  0
LWPOLYLINE
  5
64D
100
AcDbEntity
  8
02___PRT_ALL_AXES
100
AcDbPolyline
 62
7
  6
CONTINUOUS
 90
3
 70
0
 10
16.9425293274
 20
5.3503793447
 10
16.8193247589
 20
5.3834833943
 10
16.704786513
 20
5.4263834548
  0
LINE
  5
64E
100
AcDbEntity
  8
02___PRT_ALL_AXES
100
AcDbLine
 62
9
  6
CONTINUOUS
 10
16.7628206487
 20
5.0528254007
 11
16.6624679899
 21
5.1026844948
  0
LWPOLYLINE
  5
64F
100
AcDbEntity
  8
02___PRT_ALL_AXES
100
AcDbPolyline
 62
7
  6
CONTINUOUS
 90
7
 70
0
 10
16.6950841034
 20
5.0305921881
 10
16.6058213748
 20
5.0905469435
 10
16.5315392927
 20
5.1584563025
 10
16.474206103
 20
5.2318053384
 10
16.4342234607
 20
5.3080741167
 10
16.4107502008
 20
5.3858426505
 10
16.4030127276
 20
5.4643180957
  0
LWPOLYLINE
  5
650
100
AcDbEntity
  8
02___PRT_ALL_AXES
100
AcDbPolyline
 62
7
  6
CONTINUOUS
 90
5
 70
0
 10
16.8327314847
 20
4.8546252279
 10
16.8108041369
 20
4.8700079608
 10
16.7887238824
 20
4.8862819139
 10
16.7670227117
 20
4.9030121627
 10
16.7462614904
 20
4.9196685968
  0
LWPOLYLINE
  5
651
100
AcDbEntity
  8
02___PRT_ALL_AXES
100
AcDbPolyline
 62
7
  6
CONTINUOUS
 90
5
 70
0
 10
16.9793823357
 20
4.7640786999
 10
17.0013528315
 20
4.7486649229
 10
17.0234522251
 20
4.7323750222
 10
17.0451441359
 20
4.7156500189
 10
17.06585233
 20
4.699035331
  0
LWPOLYLINE
  5
652
100
AcDbEntity
  8
02___PRT_ALL_AXES
100
AcDbPolyline
 62
7
  6
CONTINUOUS
 90
4
 70
0
 10
16.8327314847
 20
4.8064065812
 10
16.8040727161
 20
4.8266686277
 10
16.7752341084
 20
4.848379399
 10
16.7462614904
 20
4.8714499501
  0
LWPOLYLINE
  5
653
100
AcDbEntity
  8
02___PRT_ALL_AXES
100
AcDbPolyline
 62
7
  6
CONTINUOUS
 90
4
 70
0
 10
16.9793823357
 20
4.7158600532
 10
17.0080464523
 20
4.6955941014
 10
17.0368846042
 20
4.6738834441
 10
17.06585233
 20
4.6508166843
  0
LWPOLYLINE
  5
654
100
AcDbEntity
  8
02___PRT_ALL_AXES
100
AcDbPolyline
 62
7
  6
CONTINUOUS
 90
4
 70
0
 10
16.8327314847
 20
4.9028438746
 10
16.8040727161
 20
4.923105921
 10
16.7752341084
 20
4.9448166923
 10
16.7462614904
 20
4.9678872435
  0
LWPOLYLINE
  5
655
100
AcDbEntity
  8
02___PRT_ALL_AXES
100
AcDbPolyline
 62
7
  6
CONTINUOUS
 90
4
 70
0
 10
16.9793823357
 20
4.8122973466
 10
17.0080464523
 20
4.7920313948
 10
17.0368846042
 20
4.7703207374
 10
17.06585233
 20
4.7472539777
  0
LWPOLYLINE
  5
656
100
AcDbEntity
  8
02___PRT_ALL_AXES
100
AcDbPolyline
 62
7
  6
CONTINUOUS
 90
3
 70
0
 10
16.8327314847
 20
4.9510625213
 10
16.8040727161
 20
4.9713245677
 10
16.7835351736
 20
4.9867859899
  0
LWPOLYLINE
  5
657
100
AcDbEntity
  8
02___PRT_ALL_AXES
100
AcDbPolyline
 62
7
  6
CONTINUOUS
 90
4
 70
0
 10
16.9793823357
 20
4.8605159933
 10
17.0080464523
 20
4.8402500415
 10
17.0368846042
 20
4.8185393841
 10
17.06585233
 20
4.7954726244
  0
LWPOLYLINE
  5
658
100
AcDbEntity
  8
02___PRT_ALL_AXES
100
AcDbPolyline
 62
7
  6
CONTINUOUS
 90
4
 70
0
 10
16.9793823357
 20
4.90873464
 10
17.0080411978
 20
4.8884725252
 10
17.0368787929
 20
4.8667625344
 10
17.06585233
 20
4.8436912711
  0
LINE
  5
659
100
AcDbEntity
  8
0
100
AcDbLine
 62
7
  6
CONTINUOUS
 10
16.8385775455
 20
4.5623065884
 11
16.8393229773
 21
4.5616277892
  0
LINE
  5
65A
100
AcDbEntity
  8
02___PRT_ALL_AXES
100
AcDbLine
 62
7
  6
CONTINUOUS
 10
16.8327314847
 20
4.7976221238
 11
16.7985639171
 21
4.8308158554
  0
LINE
  5
65B
100
AcDbEntity
  8
02___PRT_ALL_AXES
100
AcDbLine
 62
7
  6
CONTINUOUS
 10
16.8327314847
 20
4.7494034771
 11
16.8012749208
 21
4.7805562648
  0
LINE
  5
65C
100
AcDbEntity
  8
02___PRT_ALL_AXES
100
AcDbLine
 62
7
  6
CONTINUOUS
 10
16.8327314847
 20
4.7011848304
 11
16.8017699818
 21
4.7319650514
  0
LINE
  5
65D
100
AcDbEntity
  8
02___PRT_ALL_AXES
100
AcDbLine
 62
7
  6
CONTINUOUS
 10
16.8327314847
 20
4.6529661837
 11
16.8018038935
 21
4.6837207412
  0
LWPOLYLINE
  5
65E
100
AcDbEntity
  8
0
100
AcDbPolyline
 62
7
  6
CONTINUOUS
 90
4
 70
0
 10
16.8393235258
 20
4.5616274789
 10
16.7950686885
 20
4.6066120503
 10
16.7629743661
 20
4.6554144396
 10
16.7576716558
 20
4.6694895844
  0
LWPOLYLINE
  5
65F
100
AcDbEntity
  8
0
100
AcDbPolyline
 62
9
  6
CONTINUOUS
 90
14
 70
0
 10
17.8664192177
 20
10.704901344
 10
17.9259361784
 20
10.7320884324
 10
17.9816293501
 20
10.7618544522
 10
18.033163448
 20
10.7940202149
 10
18.080230137
 20
10.8283932999
 10
18.1225474593
 20
10.8647681452
 10
18.1598603066
 20
10.9029258685
 10
18.1919439179
 20
10.9426366963
 10
18.2186052235
 20
10.9836612437
 10
18.2396854919
 20
11.025755095
 10
18.2550592121
 20
11.068670194
 10
18.2646322678
 20
11.1121512319
 10
18.2683441339
 20
11.1559363271
 10
18.2683198592
 20
11.1686496585
  0
LINE
  5
660
100
AcDbEntity
  8
02___PRT_ALL_AXES
100
AcDbLine
 62
9
  6
CONTINUOUS
 10
16.8749236994
 20
5.3657617825
 11
16.8453441433
 21
5.3764922007
  0
LINE
  5
661
100
AcDbEntity
  8
02___PRT_ALL_AXES
100
AcDbLine
 62
7
  6
CONTINUOUS
 10
16.704786513
 20
5.4263834548
 11
16.6010251839
 21
5.478447727
  0
LWPOLYLINE
  5
662
100
AcDbEntity
  8
02___PRT_ALL_AXES
100
AcDbPolyline
 62
7
  6
CONTINUOUS
 90
7
 70
0
 10
16.6010251839
 20
5.478447727
 10
16.513083069
 20
5.536593992
 10
16.4390034659
 20
5.6014242911
 10
16.3803311763
 20
5.6716047294
 10
16.3381735745
 20
5.7454940508
 10
16.3129553982
 20
5.821465484
 10
16.3045875307
 20
5.8982859158
  0
LWPOLYLINE
  5
663
100
AcDbEntity
  8
02___PRT_ALL_AXES
100
AcDbPolyline
 62
9
  6
CONTINUOUS
 90
5
 70
0
 10
16.5928711555
 20
5.4964708037
 10
16.5009076627
 20
5.5577444787
 10
16.4249841899
 20
5.6259505954
 10
16.36664632
 20
5.6997006738
 10
16.3270816439
 20
5.777493375
  0
LINE
  5
664
100
AcDbEntity
  8
02___PRT_ALL_AXES
100
AcDbLine
 62
7
  6
CONTINUOUS
 10
17.045084362
 20
4.9084472783
 11
17.06585233
 21
4.8919099177
  0
LINE
  5
665
100
AcDbEntity
  8
02___PRT_ALL_AXES
100
AcDbLine
 62
7
  6
CONTINUOUS
 10
16.8327314847
 20
4.8940594171
 11
16.8014195578
 21
4.9251033168
  0
LINE
  5
666
100
AcDbEntity
  8
02___PRT_ALL_AXES
100
AcDbLine
 62
7
  6
CONTINUOUS
 10
16.8327314847
 20
4.9422780638
 11
16.8016841258
 21
4.9731227869
  0
LINE
  5
667
100
AcDbEntity
  8
02___PRT_ALL_AXES
100
AcDbLine
 62
7
  6
CONTINUOUS
 10
16.8327314847
 20
4.8458407704
 11
16.8016111637
 21
4.8767835175
  0
LWPOLYLINE
  5
668
100
AcDbEntity
  8
AXIS
100
AcDbPolyline
 62
7
  6
CONTINUOUS
 90
7
 70
0
 10
17.9848136381
 20
10.5401445924
 10
18.0767762472
 20
10.6014187095
 10
18.1526987363
 20
10.6696251911
 10
18.2110355425
 20
10.7433755499
 10
18.2505990966
 20
10.8211684414
 10
18.2705839988
 20
10.9014202265
 10
18.2730818916
 20
10.9419563546
  0
LWPOLYLINE
  5
669
100
AcDbEntity
  8
02___PRT_ALL_AXES
100
AcDbPolyline
 62
7
  6
CONTINUOUS
 90
3
 70
0
 10
16.4364543397
 20
5.8681103985
 10
16.5079824069
 20
5.8063068867
 10
16.5928711555
 20
5.7504223429
  0
LINE
  5
66A
100
AcDbEntity
  8
02___PRT_ALL_AXES
100
AcDbLine
 62
7
  6
CONTINUOUS
 10
16.3795108189
 20
5.934775403
 11
16.4364543397
 21
5.8681103985
  0
LINE
  5
66B
100
AcDbEntity
  8
02___PRT_ALL_AXES
100
AcDbLine
 62
7
  6
CONTINUOUS
 10
16.7181078427
 20
4.7278399557
 11
16.7462614904
 21
4.6785753634
  0
LINE
  5
66C
100
AcDbEntity
  8
02___PRT_ALL_AXES
100
AcDbLine
 62
7
  6
CONTINUOUS
 10
16.7181078427
 20
4.7760586024
 11
16.7462614904
 21
4.7267940101
  0
LINE
  5
66D
100
AcDbEntity
  8
02___PRT_ALL_AXES
100
AcDbLine
 62
7
  6
CONTINUOUS
 10
16.7181078427
 20
4.7820859332
 11
16.7462614904
 21
4.7328213409
  0
LINE
  5
66E
100
AcDbEntity
  8
02___PRT_ALL_AXES
100
AcDbLine
 62
7
  6
CONTINUOUS
 10
16.7181078427
 20
4.8242772491
 11
16.7462614904
 21
4.7750126568
  0
LINE
  5
66F
100
AcDbEntity
  8
02___PRT_ALL_AXES
100
AcDbLine
 62
7
  6
CONTINUOUS
 10
16.7181078427
 20
4.9207145424
 11
16.7462614904
 21
4.8714499501
  0
LINE
  5
670
100
AcDbEntity
  8
02___PRT_ALL_AXES
100
AcDbLine
 62
7
  6
CONTINUOUS
 10
16.7181078427
 20
4.9689331891
 11
16.7462614904
 21
4.9196685968
  0
LINE
  5
671
100
AcDbEntity
  8
02___PRT_ALL_AXES
100
AcDbLine
 62
7
  6
CONTINUOUS
 10
16.7172752359
 20
4.8745000615
 11
16.7462614904
 21
4.8232313034
  0
LINE
  5
672
100
AcDbEntity
  8
02___PRT_ALL_AXES
100
AcDbLine
 62
7
  6
CONTINUOUS
 10
16.3381261639
 20
6.0051612434
 11
16.3795108189
 21
5.934775403
  0
LINE
  5
673
100
AcDbEntity
  8
02___PRT_ALL_AXES
100
AcDbLine
 62
7
  6
CONTINUOUS
 10
16.7181078427
 20
5.0171518358
 11
16.7462614904
 21
4.9678872435
  0
LINE
  5
674
100
AcDbEntity
  8
02___PRT_ALL_AXES
100
AcDbLine
 62
7
  6
CONTINUOUS
 10
16.7212879254
 20
5.0176145065
 11
16.7462614904
 21
4.9739145743
  0
LWPOLYLINE
  5
675
100
AcDbEntity
  8
AXIS
100
AcDbPolyline
 62
7
  6
CONTINUOUS
 90
3
 70
0
 10
16.308803652
 20
9.6810211774
 10
16.3070949996
 20
9.6741598775
 10
16.3045971068
 20
9.6336237494
  0
LWPOLYLINE
  5
676
100
AcDbEntity
  8
0
100
AcDbPolyline
 62
7
  6
CONTINUOUS
 90
8
 70
0
 10
17.9848136381
 20
9.6754235286
 10
17.8786830026
 20
9.6223291403
 10
17.7605448544
 20
9.5784953295
 10
17.6328041454
 20
9.5448144261
 10
17.4980613081
 20
9.5219720763
 10
17.3590593181
 20
9.5104332843
 10
17.2186278551
 20
9.5104329467
 10
17.0796256987
 20
9.5219710705
  0
LWPOLYLINE
  5
677
100
AcDbEntity
  8
AXIS
100
AcDbPolyline
 62
7
  6
CONTINUOUS
 90
12
 70
0
 10
16.5928711555
 20
6.6151434067
 10
16.6990025568
 20
6.5620495287
 10
16.8171413372
 20
6.5182162858
 10
16.944882532
 20
6.4845359965
 10
17.0796256987
 20
6.4616942945
 10
17.2186278551
 20
6.4501561707
 10
17.3590593181
 20
6.4501565083
 10
17.4980613081
 20
6.4616953002
 10
17.6328041454
 20
6.4845376501
 10
17.7605448544
 20
6.5182185535
 10
17.8786830026
 20
6.5620523643
 10
17.9848136381
 20
6.6151467525
  0
LWPOLYLINE
  5
678
100
AcDbEntity
  8
0
100
AcDbPolyline
 62
7
  6
CONTINUOUS
 90
7
 70
0
 10
16.5962237958
 20
6.617079043
 10
16.5047033124
 20
6.6780575485
 10
16.4291455805
 20
6.7459351005
 10
16.3710887376
 20
6.8193299077
 10
16.3317146537
 20
6.8967478636
 10
16.3118248715
 20
6.9766129617
 10
16.3093569997
 20
7.0134630528
  0
LWPOLYLINE
  5
679
100
AcDbEntity
  8
0
100
AcDbPolyline
 62
9
  6
CONTINUOUS
 90
4
 70
0
 10
16.7600963158
 20
4.6675588564
 10
16.760535265
 20
4.6663835942
 10
16.7907669887
 20
4.6208238503
 10
16.8327314847
 20
4.5784464625
  0
LINE
  5
67A
100
AcDbEntity
  8
02___PRT_ALL_AXES
100
AcDbLine
 62
7
  6
CONTINUOUS
 10
16.3130084776
 20
6.0780635987
 11
16.3381261639
 21
6.0051612434
  0
LINE
  5
67B
100
AcDbEntity
  8
02___PRT_ALL_AXES
100
AcDbLine
 62
7
  6
CONTINUOUS
 10
16.7039418045
 20
4.8272415804
 11
16.7181078427
 21
4.7760586024
  0
LINE
  5
67C
100
AcDbEntity
  8
02___PRT_ALL_AXES
100
AcDbLine
 62
7
  6
CONTINUOUS
 10
16.7039418045
 20
4.8332689112
 11
16.7181078427
 21
4.7820859332
  0
LINE
  5
67D
100
AcDbEntity
  8
02___PRT_ALL_AXES
100
AcDbLine
 62
7
  6
CONTINUOUS
 10
16.7039418045
 20
4.8754602271
 11
16.7181078427
 21
4.8242772491
  0
LWPOLYLINE
  5
67E
100
AcDbEntity
  8
02___PRT_ALL_AXES
100
AcDbPolyline
 62
7
  6
CONTINUOUS
 90
3
 70
0
 10
16.7039418045
 20
4.8814875579
 10
16.7181078427
 20
4.8303045799
 10
16.7462614904
 20
4.7810399876
  0
LWPOLYLINE
  5
67F
100
AcDbEntity
  8
02___PRT_ALL_AXES
100
AcDbPolyline
 62
9
  6
CONTINUOUS
 90
3
 70
0
 10
16.3270816439
 20
5.777493375
 10
16.3070955843
 20
5.8577450641
 10
16.3045875307
 20
5.8982859158
  0
LWPOLYLINE
  5
680
100
AcDbEntity
  8
AXIS
100
AcDbPolyline
 62
7
  6
CONTINUOUS
 90
18
 70
0
 10
16.3045971068
 20
6.152237459
 10
16.3070955843
 20
6.1116966032
 10
16.3270816439
 20
6.0314449142
 10
16.36664632
 20
5.9536522129
 10
16.4249841899
 20
5.8799021345
 10
16.5009076627
 20
5.8116960179
 10
16.5928711555
 20
5.7504223429
 10
16.6990025568
 20
5.6973284649
 10
16.8171413372
 20
5.653495222
 10
16.944882532
 20
5.6198149327
 10
17.0796256987
 20
5.5969732306
 10
17.2186278551
 20
5.5854351069
 10
17.3590593181
 20
5.5854354445
 10
17.4980613081
 20
5.5969742364
 10
17.6328041454
 20
5.6198165863
 10
17.7605448544
 20
5.6534974897
 10
17.8786830026
 20
5.6973313005
 10
17.9848136381
 20
5.7504256887
  0
LWPOLYLINE
  5
681
100
AcDbEntity
  8
AXIS
100
AcDbPolyline
 62
7
  6
CONTINUOUS
 90
3
 70
0
 10
16.308803652
 20
8.3726885641
 10
16.3070949996
 20
8.3658272642
 10
16.3045971068
 20
8.3252911361
  0
LINE
  5
682
100
AcDbEntity
  8
0
100
AcDbLine
 62
7
  6
CONTINUOUS
 10
18.0767762472
 20
9.7366976457
 11
17.9848136381
 21
9.6754235286
  0
LWPOLYLINE
  5
683
100
AcDbEntity
  8
AXIS
100
AcDbPolyline
 62
7
  6
CONTINUOUS
 90
6
 70
0
 10
17.9848136381
 20
9.6754235286
 10
18.0767762472
 20
9.7366976457
 10
18.1526987363
 20
9.8049041273
 10
18.2110355425
 20
9.8786544861
 10
18.2505990966
 20
9.9564473776
 10
18.2705839988
 20
10.0366991627
  0
LINE
  5
684
100
AcDbEntity
  8
0
100
AcDbLine
 62
7
  6
CONTINUOUS
 10
16.36664632
 20
7.2619848262
 11
16.3270816439
 21
7.3397775275
  0
LINE
  5
685
100
AcDbEntity
  8
02___PRT_ALL_AXES
100
AcDbLine
 62
7
  6
CONTINUOUS
 10
16.7039418045
 20
4.9718975205
 11
16.7181078427
 21
4.9207145424
  0
LWPOLYLINE
  5
686
100
AcDbEntity
  8
02___PRT_ALL_AXES
100
AcDbPolyline
 62
7
  6
CONTINUOUS
 90
3
 70
0
 10
16.7039418045
 20
4.9779248513
 10
16.7181078427
 20
4.9267418733
 10
16.7462614904
 20
4.877477281
  0
LINE
  5
687
100
AcDbEntity
  8
02___PRT_ALL_AXES
100
AcDbLine
 62
7
  6
CONTINUOUS
 10
16.7039418045
 20
5.0201161671
 11
16.7181078427
 21
4.9689331891
  0
LWPOLYLINE
  5
688
100
AcDbEntity
  8
02___PRT_ALL_AXES
100
AcDbPolyline
 62
7
  6
CONTINUOUS
 90
3
 70
0
 10
16.7039418045
 20
5.026143498
 10
16.7181078427
 20
4.9749605199
 10
16.7462614904
 20
4.9256959276
  0
LINE
  5
689
100
AcDbEntity
  8
02___PRT_ALL_AXES
100
AcDbLine
 62
7
  6
CONTINUOUS
 10
16.7174542971
 20
5.0195131459
 11
16.7181078427
 21
5.0171518358
  0
LINE
  5
68A
100
AcDbEntity
  8
02___PRT_ALL_AXES
100
AcDbLine
 62
7
  6
CONTINUOUS
 10
16.7034290305
 20
4.9277878835
 11
16.7172752359
 21
4.8745000615
  0
LWPOLYLINE
  5
68B
100
AcDbEntity
  8
02___PRT_ALL_AXES
100
AcDbPolyline
 62
7
  6
CONTINUOUS
 90
3
 70
0
 10
16.7034290305
 20
4.9338152143
 10
16.7172752359
 20
4.8805273923
 10
16.7462614904
 20
4.8292586343
  0
LINE
  5
68C
100
AcDbEntity
  8
02___PRT_ALL_AXES
100
AcDbLine
 62
7
  6
CONTINUOUS
 10
16.3045875307
 20
6.1522374482
 11
16.3130084776
 21
6.0780635987
  0
LWPOLYLINE
  5
68D
100
AcDbEntity
  8
02___PRT_ALL_AXES
100
AcDbPolyline
 62
7
  6
CONTINUOUS
 90
3
 70
0
 10
16.702225326
 20
4.8043253373
 10
16.7039418045
 20
4.7790229337
 10
16.7181078427
 20
4.7278399557
  0
LWPOLYLINE
  5
68E
100
AcDbEntity
  8
02___PRT_ALL_AXES
100
AcDbPolyline
 62
7
  6
CONTINUOUS
 90
4
 70
0
 10
16.702225326
 20
4.8103526681
 10
16.7039418045
 20
4.7850502646
 10
16.7181078427
 20
4.7338672865
 10
16.7462614904
 20
4.6846026942
  0
LINE
  5
68F
100
AcDbEntity
  8
02___PRT_ALL_AXES
100
AcDbLine
 62
7
  6
CONTINUOUS
 10
16.702225326
 20
4.852543984
 11
16.7039418045
 21
4.8272415804
  0
LINE
  5
690
100
AcDbEntity
  8
0
100
AcDbLine
 62
7
  6
CONTINUOUS
 10
16.3070955843
 20
7.4200292165
 11
16.3046157666
 21
7.4570576823
  0
LINE
  5
691
100
AcDbEntity
  8
0
100
AcDbLine
 62
7
  6
CONTINUOUS
 10
16.3070955843
 20
8.7283618298
 11
16.3046157666
 21
8.7653902956
  0
LINE
  5
692
100
AcDbEntity
  8
0
100
AcDbLine
 62
7
  6
CONTINUOUS
 10
16.3070955843
 20
10.0366944431
 11
16.3046157666
 21
10.0737229089
  0
LWPOLYLINE
  5
693
100
AcDbEntity
  8
AXIS
100
AcDbPolyline
 62
7
  6
CONTINUOUS
 90
7
 70
0
 10
16.3045971068
 20
7.0169585228
 10
16.3070955843
 20
6.976417667
 10
16.3270816439
 20
6.896165978
 10
16.36664632
 20
6.8183732768
 10
16.4249841899
 20
6.7446231984
 10
16.5009076627
 20
6.6764170817
 10
16.5928711555
 20
6.6151434067
  0
LWPOLYLINE
  5
694
100
AcDbEntity
  8
AXIS
100
AcDbPolyline
 62
7
  6
CONTINUOUS
 90
18
 70
0
 10
16.3045971068
 20
7.4605700723
 10
16.3070955843
 20
7.4200292165
 10
16.3270816439
 20
7.3397775275
 10
16.36664632
 20
7.2619848262
 10
16.4249841899
 20
7.1882347478
 10
16.5009076627
 20
7.1200286312
 10
16.5928711555
 20
7.0587549562
 10
16.6990025568
 20
7.0056610781
 10
16.8171413372
 20
6.9618278353
 10
16.944882532
 20
6.928147546
 10
17.0796256987
 20
6.9053058439
 10
17.2186278551
 20
6.8937677202
 10
17.3590593181
 20
6.8937680577
 10
17.4980613081
 20
6.9053068497
 10
17.6328041454
 20
6.9281491996
 10
17.7605448544
 20
6.9618301029
 10
17.8786830026
 20
7.0056639137
 10
17.9848136381
 20
7.058758302
  0
LWPOLYLINE
  5
695
100
AcDbEntity
  8
AXIS
100
AcDbPolyline
 62
7
  6
CONTINUOUS
 90
7
 70
0
 10
16.3045971068
 20
8.3252911361
 10
16.3070955843
 20
8.2847502803
 10
16.3270816439
 20
8.2044985913
 10
16.36664632
 20
8.12670589
 10
16.4249841899
 20
8.0529558116
 10
16.5009076627
 20
7.984749695
 10
16.5928711555
 20
7.92347602
  0
LWPOLYLINE
  5
696
100
AcDbEntity
  8
AXIS
100
AcDbPolyline
 62
7
  6
CONTINUOUS
 90
18
 70
0
 10
16.3045971068
 20
8.7689026856
 10
16.3070955843
 20
8.7283618298
 10
16.3270816439
 20
8.6481101407
 10
16.36664632
 20
8.5703174395
 10
16.4249841899
 20
8.4965673611
 10
16.5009076627
 20
8.4283612445
 10
16.5928711555
 20
8.3670875695
 10
16.6990025568
 20
8.3139936914
 10
16.8171413372
 20
8.2701604485
 10
16.944882532
 20
8.2364801593
 10
17.0796256987
 20
8.2136384572
 10
17.2186278551
 20
8.2021003335
 10
17.3590593181
 20
8.202100671
 10
17.4980613081
 20
8.213639463
 10
17.6328041454
 20
8.2364818128
 10
17.7605448544
 20
8.2701627162
 10
17.8786830026
 20
8.313996527
 10
17.9848136381
 20
8.3670909153
  0
LWPOLYLINE
  5
697
100
AcDbEntity
  8
AXIS
100
AcDbPolyline
 62
7
  6
CONTINUOUS
 90
7
 70
0
 10
16.3045971068
 20
9.6336237494
 10
16.3070955843
 20
9.5930828936
 10
16.3270816439
 20
9.5128312046
 10
16.36664632
 20
9.4350385033
 10
16.4249841899
 20
9.3612884249
 10
16.5009076627
 20
9.2930823083
 10
16.5928711555
 20
9.2318086333
  0
LWPOLYLINE
  5
698
100
AcDbEntity
  8
AXIS
100
AcDbPolyline
 62
7
  6
CONTINUOUS
 90
18
 70
0
 10
16.3045971068
 20
10.0772352989
 10
16.3070955843
 20
10.0366944431
 10
16.3270816439
 20
9.956442754
 10
16.36664632
 20
9.8786500528
 10
16.4249841899
 20
9.8048999744
 10
16.5009076627
 20
9.7366938577
 10
16.5928711555
 20
9.6754201827
 10
16.6990025568
 20
9.6223263047
 10
16.8171413372
 20
9.5784930618
 10
16.944882532
 20
9.5448127726
 10
17.0796256987
 20
9.5219710705
 10
17.2186278551
 20
9.5104329467
 10
17.3590593181
 20
9.5104332843
 10
17.4980613081
 20
9.5219720763
 10
17.6328041454
 20
9.5448144261
 10
17.7605448544
 20
9.5784953295
 10
17.8786830026
 20
9.6223291403
 10
17.9848136381
 20
9.6754235286
  0
LWPOLYLINE
  5
699
100
AcDbEntity
  8
AXIS
100
AcDbPolyline
 62
7
  6
CONTINUOUS
 90
7
 70
0
 10
16.3045971068
 20
10.9419563627
 10
16.3070955843
 20
10.9014155069
 10
16.3270816439
 20
10.8211638178
 10
16.36664632
 20
10.7433711166
 10
16.4249841899
 20
10.6696210382
 10
16.5009076627
 20
10.6014149216
 10
16.5928711555
 20
10.5401412466
  0
LWPOLYLINE
  5
69A
100
AcDbEntity
  8
0
100
AcDbPolyline
 62
7
  6
CONTINUOUS
 90
7
 70
0
 10
16.3046717594
 20
10.9489814113
 10
16.3070955843
 20
10.9014155069
 10
16.3270816439
 20
10.8211638178
 10
16.36664632
 20
10.7433711166
 10
16.4249841899
 20
10.6696210382
 10
16.5009076627
 20
10.6014149216
 10
16.5928711555
 20
10.5401412466
  0
LWPOLYLINE
  5
69B
100
AcDbEntity
  8
0
100
AcDbPolyline
 62
9
  6
CONTINUOUS
 90
11
 70
0
 10
16.3093591392
 20
11.1686496584
 10
16.3115083829
 20
11.1235832574
 10
16.3195534986
 20
11.0799954081
 10
16.3334331558
 20
11.0368693232
 10
16.3530758145
 20
10.9944652611
 10
16.378281995
 20
10.9531755972
 10
16.4089113702
 20
10.9131747066
 10
16.4452712439
 20
10.8742016565
 10
16.487978153
 20
10.8360215523
 10
16.5379043206
 20
10.7985291344
 10
16.5961924196
 20
10.761772008
  0
LWPOLYLINE
  5
69C
100
AcDbEntity
  8
02___PRT_ALL_AXES
100
AcDbPolyline
 62
9
  6
CONTINUOUS
 90
7
 70
0
 10
16.4030127276
 20
5.4643180957
 10
16.4036323199
 20
5.4451931759
 10
16.418456498
 20
5.3692361573
 10
16.452723594
 20
5.2954031121
 10
16.5056681377
 20
5.2253433486
 10
16.5761074355
 20
5.1606218859
 10
16.6624679899
 20
5.1026844948
  0
LINE
  5
69D
100
AcDbEntity
  8
0
100
AcDbLine
 62
7
  6
CONTINUOUS
 10
16.3046062698
 20
7.4570635707
 11
16.3093475486
 21
7.0134689129
  0
LINE
  5
69E
100
AcDbEntity
  8
0
100
AcDbLine
 62
7
  6
CONTINUOUS
 10
16.3046062698
 20
8.765396184
 11
16.3093475486
 21
8.3218015261
  0
LINE
  5
69F
100
AcDbEntity
  8
0
100
AcDbLine
 62
7
  6
CONTINUOUS
 10
16.3046062698
 20
10.0737287973
 11
16.3093475486
 21
9.6301341394
  0
LINE
  5
6A0
100
AcDbEntity
  8
02___PRT_ALL_AXES
100
AcDbLine
 62
7
  6
CONTINUOUS
 10
16.3045875307
 20
6.152237455
 11
16.3045875307
 21
5.8982859158
  0
LINE
  5
6A1
100
AcDbEntity
  8
AXIS
100
AcDbLine
 62
7
  6
CONTINUOUS
 10
16.3045875307
 20
6.152237455
 11
16.3045875307
 21
7.0169585188
  0
LINE
  5
6A2
100
AcDbEntity
  8
AXIS
100
AcDbLine
 62
7
  6
CONTINUOUS
 10
16.3045875307
 20
7.4605700683
 11
16.3045875307
 21
8.3252911321
  0
LINE
  5
6A3
100
AcDbEntity
  8
AXIS
100
AcDbLine
 62
7
  6
CONTINUOUS
 10
16.3045875307
 20
8.7689026815
 11
16.3045875307
 21
9.6336237454
  0
LINE
  5
6A4
100
AcDbEntity
  8
AXIS
100
AcDbLine
 62
7
  6
CONTINUOUS
 10
16.3045875307
 20
10.0772352948
 11
16.3045875307
 21
10.9419563586
  0
LINE
  5
6A5
100
AcDbEntity
  8
02___PRT_ALL_AXES
100
AcDbLine
 62
7
  6
CONTINUOUS
 10
16.4030127276
 20
5.6444743546
 11
16.4030127276
 21
5.4643180957
  0
LINE
  5
6A6
100
AcDbEntity
  8
0
100
AcDbLine
 62
7
  6
CONTINUOUS
 10
16.3046625006
 20
10.9489698879
 11
16.3093591392
 21
11.1686496585
  0
LINE
  5
6A7
100
AcDbEntity
  8
0
100
AcDbLine
 62
7
  6
CONTINUOUS
 10
18.1526987363
 20
9.8049041273
 11
18.0767762472
 21
9.7366976457
  0
LWPOLYLINE
  5
6A8
100
AcDbEntity
  8
AXIS
100
AcDbPolyline
 62
7
  6
CONTINUOUS
 90
6
 70
0
 10
17.9848136381
 20
9.2318119791
 10
18.0767762472
 20
9.2930860962
 10
18.1526987363
 20
9.3612925778
 10
18.2110355425
 20
9.4350429367
 10
18.2505990966
 20
9.5128358281
 10
18.2705839988
 20
9.5930876132
  0
LINE
  5
6A9
100
AcDbEntity
  8
0
100
AcDbLine
 62
7
  6
CONTINUOUS
 10
16.6990025568
 20
7.0056610781
 11
16.5928711555
 21
7.0587549562
  0
LINE
  5
6AA
100
AcDbEntity
  8
0
100
AcDbLine
 62
7
  6
CONTINUOUS
 10
16.5928711555
 20
7.0587549562
 11
16.5009076627
 21
7.1200286312
  0
LINE
  5
6AB
100
AcDbEntity
  8
0
100
AcDbLine
 62
7
  6
CONTINUOUS
 10
16.5009076627
 20
7.1200286312
 11
16.4249841899
 21
7.1882347478
  0
LINE
  5
6AC
100
AcDbEntity
  8
0
100
AcDbLine
 62
7
  6
CONTINUOUS
 10
16.4249841899
 20
7.1882347478
 11
16.36664632
 21
7.2619848262
  0
LINE
  5
6AD
100
AcDbEntity
  8
0
100
AcDbLine
 62
7
  6
CONTINUOUS
 10
16.3270816439
 20
7.3397775275
 11
16.3070955843
 21
7.4200292165
  0
LWPOLYLINE
  5
6AE
100
AcDbEntity
  8
0
100
AcDbPolyline
 62
7
  6
CONTINUOUS
 90
3
 70
0
 10
16.8327314847
 20
4.5784464625
 10
16.8342312804
 20
4.5692031527
 10
16.8385775455
 20
4.5623065884
  0
LINE
  5
6AF
100
AcDbEntity
  8
02___PRT_ALL_AXES
100
AcDbLine
 62
7
  6
CONTINUOUS
 10
16.702225326
 20
4.8585713148
 11
16.7039418045
 21
4.8332689112
  0
LINE
  5
6B0
100
AcDbEntity
  8
02___PRT_ALL_AXES
100
AcDbLine
 62
7
  6
CONTINUOUS
 10
16.702225326
 20
4.9007626307
 11
16.7039418045
 21
4.8754602271
  0
LINE
  5
6B1
100
AcDbEntity
  8
02___PRT_ALL_AXES
100
AcDbLine
 62
7
  6
CONTINUOUS
 10
16.702225326
 20
4.9067899615
 11
16.7039418045
 21
4.8814875579
  0
LINE
  5
6B2
100
AcDbEntity
  8
02___PRT_ALL_AXES
100
AcDbLine
 62
7
  6
CONTINUOUS
 10
16.702225326
 20
4.997199924
 11
16.7039418045
 21
4.9718975205
  0
LINE
  5
6B3
100
AcDbEntity
  8
02___PRT_ALL_AXES
100
AcDbLine
 62
7
  6
CONTINUOUS
 10
16.702225326
 20
5.0032272548
 11
16.7039418045
 21
4.9779248513
  0
LINE
  5
6B4
100
AcDbEntity
  8
02___PRT_ALL_AXES
100
AcDbLine
 62
7
  6
CONTINUOUS
 10
16.7035143634
 20
5.026417025
 11
16.7039418045
 21
5.0201161671
  0
LINE
  5
6B5
100
AcDbEntity
  8
02___PRT_ALL_AXES
100
AcDbLine
 62
7
  6
CONTINUOUS
 10
16.703937464
 20
5.0262074806
 11
16.7039418045
 21
5.026143498
  0
LINE
  5
6B6
100
AcDbEntity
  8
02___PRT_ALL_AXES
100
AcDbLine
 62
7
  6
CONTINUOUS
 10
16.702225326
 20
4.9489812773
 11
16.7034290305
 21
4.9277878835
  0
LINE
  5
6B7
100
AcDbEntity
  8
02___PRT_ALL_AXES
100
AcDbLine
 62
7
  6
CONTINUOUS
 10
16.702225326
 20
4.9550086082
 11
16.7034290305
 21
4.9338152143
  0
LINE
  5
6B8
100
AcDbEntity
  8
02___PRT_ALL_AXES
100
AcDbLine
 62
7
  6
CONTINUOUS
 10
16.7462614904
 20
4.6785753634
 11
16.7462614904
 21
4.6846026942
  0
LINE
  5
6B9
100
AcDbEntity
  8
02___PRT_ALL_AXES
100
AcDbLine
 62
7
  6
CONTINUOUS
 10
16.7462614904
 20
4.7267940101
 11
16.7462614904
 21
4.7328213409
  0
LINE
  5
6BA
100
AcDbEntity
  8
02___PRT_ALL_AXES
100
AcDbLine
 62
7
  6
CONTINUOUS
 10
16.7462614904
 20
4.7750126568
 11
16.7462614904
 21
4.7810399876
  0
LINE
  5
6BB
100
AcDbEntity
  8
02___PRT_ALL_AXES
100
AcDbLine
 62
7
  6
CONTINUOUS
 10
16.7462614904
 20
4.8232313034
 11
16.7462614904
 21
4.8292586343
  0
LINE
  5
6BC
100
AcDbEntity
  8
02___PRT_ALL_AXES
100
AcDbLine
 62
7
  6
CONTINUOUS
 10
16.7462614904
 20
4.8714499501
 11
16.7462614904
 21
4.877477281
  0
LINE
  5
6BD
100
AcDbEntity
  8
02___PRT_ALL_AXES
100
AcDbLine
 62
7
  6
CONTINUOUS
 10
16.7462614904
 20
4.9196685968
 11
16.7462614904
 21
4.9256959276
  0
LINE
  5
6BE
100
AcDbEntity
  8
02___PRT_ALL_AXES
100
AcDbLine
 62
7
  6
CONTINUOUS
 10
16.7462614904
 20
4.9678872435
 11
16.7462614904
 21
4.9739145743
  0
LWPOLYLINE
  5
6BF
100
AcDbEntity
  8
AXIS
100
AcDbPolyline
 62
7
  6
CONTINUOUS
 90
3
 70
0
 10
16.308803652
 20
7.0643559508
 10
16.3070949996
 20
7.0574946509
 10
16.3045971068
 20
7.0169585228
  0
LINE
  5
6C0
100
AcDbEntity
  8
0
100
AcDbLine
 62
9
  6
CONTINUOUS
 10
18.1438806852
 20
11.0611409839
 11
18.1632663904
 21
11.0998521456
  0
LINE
  5
6C1
100
AcDbEntity
  8
0
100
AcDbLine
 62
7
  6
CONTINUOUS
 10
16.3270816439
 20
8.6481101407
 11
16.3070955843
 21
8.7283618298
  0
LWPOLYLINE
  5
6C2
100
AcDbEntity
  8
0
100
AcDbPolyline
 62
7
  6
CONTINUOUS
 90
4
 70
0
 10
16.9793823357
 20
4.4937794696
 10
16.9806218906
 20
4.4846864065
 10
16.9842116056
 20
4.4782266268
 10
16.9867588643
 20
4.4762052726
  0
LWPOLYLINE
  5
6C3
100
AcDbEntity
  8
02___PRT_ALL_AXES
100
AcDbPolyline
 62
7
  6
CONTINUOUS
 90
7
 70
0
 10
17.1813405451
 20
3.8634590263
 10
17.1816134288
 20
3.8590311541
 10
17.1837963063
 20
3.8502660646
 10
17.1881175602
 20
3.8417695457
 10
17.1944892223
 20
3.8337145622
 10
17.202781584
 20
3.8262650901
 10
17.2128258367
 20
3.8195727793
  0
LINE
  5
6C4
100
AcDbEntity
  8
02___PRT_ALL_AXES
100
AcDbLine
 62
7
  6
CONTINUOUS
 10
16.8327314847
 20
4.9510625213
 11
16.8327314847
 21
4.9422780638
  0
LINE
  5
6C5
100
AcDbEntity
  8
02___PRT_ALL_AXES
100
AcDbLine
 62
7
  6
CONTINUOUS
 10
16.8327314847
 20
4.9028438746
 11
16.8327314847
 21
4.8940594171
  0
LINE
  5
6C6
100
AcDbEntity
  8
02___PRT_ALL_AXES
100
AcDbLine
 62
7
  6
CONTINUOUS
 10
16.8327314847
 20
4.8546252279
 11
16.8327314847
 21
4.8458407704
  0
LINE
  5
6C7
100
AcDbEntity
  8
02___PRT_ALL_AXES
100
AcDbLine
 62
7
  6
CONTINUOUS
 10
16.8327314847
 20
4.8064065812
 11
16.8327314847
 21
4.7976221238
  0
LINE
  5
6C8
100
AcDbEntity
  8
02___PRT_ALL_AXES
100
AcDbLine
 62
7
  6
CONTINUOUS
 10
16.8327314847
 20
4.7581879346
 11
16.8327314847
 21
4.7494034771
  0
LINE
  5
6C9
100
AcDbEntity
  8
02___PRT_ALL_AXES
100
AcDbLine
 62
7
  6
CONTINUOUS
 10
16.8327314847
 20
4.7099692879
 11
16.8327314847
 21
4.7011848304
  0
LINE
  5
6CA
100
AcDbEntity
  8
02___PRT_ALL_AXES
100
AcDbLine
 62
7
  6
CONTINUOUS
 10
16.8327314847
 20
4.6617506412
 11
16.8327314847
 21
4.6529661837
  0
LINE
  5
6CB
100
AcDbEntity
  8
0
100
AcDbLine
 62
7
  6
CONTINUOUS
 10
16.8327314847
 20
4.6135319945
 11
16.8327314847
 21
4.5784464625
  0
LINE
  5
6CC
100
AcDbEntity
  8
02___PRT_ALL_AXES
100
AcDbLine
 62
7
  6
CONTINUOUS
 10
16.9793823357
 20
4.9175190974
 11
16.9793823357
 21
4.90873464
  0
LINE
  5
6CD
100
AcDbEntity
  8
02___PRT_ALL_AXES
100
AcDbLine
 62
7
  6
CONTINUOUS
 10
16.9793823357
 20
4.8693004508
 11
16.9793823357
 21
4.8605159933
  0
LINE
  5
6CE
100
AcDbEntity
  8
02___PRT_ALL_AXES
100
AcDbLine
 62
7
  6
CONTINUOUS
 10
16.9793823357
 20
4.8210818041
 11
16.9793823357
 21
4.8122973466
  0
LINE
  5
6CF
100
AcDbEntity
  8
02___PRT_ALL_AXES
100
AcDbLine
 62
7
  6
CONTINUOUS
 10
16.9793823357
 20
4.7728631574
 11
16.9793823357
 21
4.7640786999
  0
LINE
  5
6D0
100
AcDbEntity
  8
02___PRT_ALL_AXES
100
AcDbLine
 62
7
  6
CONTINUOUS
 10
16.9793823357
 20
4.7246445107
 11
16.9793823357
 21
4.7158600532
  0
LINE
  5
6D1
100
AcDbEntity
  8
02___PRT_ALL_AXES
100
AcDbLine
 62
7
  6
CONTINUOUS
 10
16.9793823357
 20
4.676425864
 11
16.9793823357
 21
4.6676414066
  0
LINE
  5
6D2
100
AcDbEntity
  8
02___PRT_ALL_AXES
100
AcDbLine
 62
7
  6
CONTINUOUS
 10
16.9793823357
 20
4.6282072173
 11
16.9793823357
 21
4.6194227599
  0
LINE
  5
6D3
100
AcDbEntity
  8
02___PRT_ALL_AXES
100
AcDbLine
 62
7
  6
CONTINUOUS
 10
16.9793823357
 20
4.5799885707
 11
16.9793823357
 21
4.5712041132
  0
LINE
  5
6D4
100
AcDbEntity
  8
0
100
AcDbLine
 62
7
  6
CONTINUOUS
 10
16.9793823357
 20
4.531769924
 11
16.9793823357
 21
4.4937794696
  0
LINE
  5
6D5
100
AcDbEntity
  8
02___PRT_ALL_AXES
100
AcDbLine
 62
7
  6
CONTINUOUS
 10
16.703690023
 20
5.0238276477
 11
16.702225326
 21
5.0032272548
  0
LINE
  5
6D6
100
AcDbEntity
  8
02___PRT_ALL_AXES
100
AcDbLine
 62
7
  6
CONTINUOUS
 10
16.7036561421
 20
4.926913833
 11
16.702225326
 21
4.9067899615
  0
LINE
  5
6D7
100
AcDbEntity
  8
02___PRT_ALL_AXES
100
AcDbLine
 62
7
  6
CONTINUOUS
 10
16.703690023
 20
4.8791717076
 11
16.702225326
 21
4.8585713148
  0
LINE
  5
6D8
100
AcDbEntity
  8
02___PRT_ALL_AXES
100
AcDbLine
 62
7
  6
CONTINUOUS
 10
16.703690023
 20
4.8309530609
 11
16.702225326
 21
4.8103526681
  0
LINE
  5
6D9
100
AcDbEntity
  8
02___PRT_ALL_AXES
100
AcDbLine
 62
7
  6
CONTINUOUS
 10
16.7038389869
 20
4.9734131426
 11
16.702225326
 21
4.9550086082
  0
LWPOLYLINE
  5
6DA
100
AcDbEntity
  8
0
100
AcDbPolyline
 62
9
  6
CONTINUOUS
 90
14
 70
0
 10
18.1632663904
 20
11.0998521456
 10
18.1774040798
 20
11.1393185389
 10
18.1862072031
 20
11.1793053671
 10
18.189620103
 20
11.2195717882
 10
18.1876205338
 20
11.259869919
 10
18.1802211797
 20
11.2999548768
 10
18.1674561229
 20
11.3396151409
 10
18.1493911708
 20
11.3786113423
 10
18.1262097861
 20
11.4165826452
 10
18.0980409439
 20
11.4533687825
 10
18.0646019194
 20
11.4892097913
 10
18.0253255827
 20
11.5243216677
 10
17.9794097554
 20
11.5588012347
 10
17.9258175912
 20
11.5925963635
  0
LWPOLYLINE
  5
6DB
100
AcDbEntity
  8
0
100
AcDbPolyline
 62
7
  6
CONTINUOUS
 90
10
 70
0
 10
17.8786830026
 20
8.313996527
 10
17.7605448544
 20
8.2701627162
 10
17.6328041454
 20
8.2364818128
 10
17.4980613081
 20
8.213639463
 10
17.3590593181
 20
8.202100671
 10
17.2186278551
 20
8.2021003335
 10
17.0796256987
 20
8.2136384572
 10
16.944882532
 20
8.2364801593
 10
16.8171413372
 20
8.2701604485
 10
16.6990025568
 20
8.3139936914
  0
LWPOLYLINE
  5
6DC
100
AcDbEntity
  8
0
100
AcDbPolyline
 62
7
  6
CONTINUOUS
 90
7
 70
0
 10
16.5962237958
 20
7.9254116562
 10
16.5047033124
 20
7.9863901618
 10
16.4291455805
 20
8.0542677138
 10
16.3710887376
 20
8.127662521
 10
16.3317146537
 20
8.2050804769
 10
16.3118248715
 20
8.284945575
 10
16.3093569997
 20
8.3217956661
  0
LINE
  5
6DD
100
AcDbEntity
  8
0
100
AcDbLine
 62
7
  6
CONTINUOUS
 10
16.3270816439
 20
9.956442754
 11
16.3070955843
 21
10.0366944431
  0
LINE
  5
6DE
100
AcDbEntity
  8
02___PRT_ALL_AXES
100
AcDbLine
 62
7
  6
CONTINUOUS
 10
17.06585233
 20
4.8919099177
 11
17.06585233
 21
4.8858825869
  0
LINE
  5
6DF
100
AcDbEntity
  8
02___PRT_ALL_AXES
100
AcDbLine
 62
7
  6
CONTINUOUS
 10
17.06585233
 20
4.8436912711
 11
17.06585233
 21
4.8376639402
  0
LINE
  5
6E0
100
AcDbEntity
  8
02___PRT_ALL_AXES
100
AcDbLine
 62
7
  6
CONTINUOUS
 10
17.06585233
 20
4.7954726244
 11
17.06585233
 21
4.7894452936
  0
LINE
  5
6E1
100
AcDbEntity
  8
02___PRT_ALL_AXES
100
AcDbLine
 62
7
  6
CONTINUOUS
 10
17.06585233
 20
4.7472539777
 11
17.06585233
 21
4.7412266469
  0
LINE
  5
6E2
100
AcDbEntity
  8
02___PRT_ALL_AXES
100
AcDbLine
 62
7
  6
CONTINUOUS
 10
17.06585233
 20
4.699035331
 11
17.06585233
 21
4.6930080002
  0
LINE
  5
6E3
100
AcDbEntity
  8
02___PRT_ALL_AXES
100
AcDbLine
 62
7
  6
CONTINUOUS
 10
17.06585233
 20
4.6508166843
 11
17.06585233
 21
4.6447893535
  0
LINE
  5
6E4
100
AcDbEntity
  8
02___PRT_ALL_AXES
100
AcDbLine
 62
7
  6
CONTINUOUS
 10
17.06585233
 20
4.6025980377
 11
17.06585233
 21
4.5965707068
  0
LINE
  5
6E5
100
AcDbEntity
  8
02___PRT_ALL_AXES
100
AcDbLine
 62
7
  6
CONTINUOUS
 10
17.06585233
 20
4.554379391
 11
17.06585233
 21
4.5483520601
  0
LINE
  5
6E6
100
AcDbEntity
  8
02___PRT_ALL_AXES
100
AcDbLine
 62
7
  6
CONTINUOUS
 10
17.06585233
 20
4.5061607443
 11
17.06585233
 21
4.5001334135
  0
LINE
  5
6E7
100
AcDbEntity
  8
02___PRT_ALL_AXES
100
AcDbLine
 62
7
  6
CONTINUOUS
 10
17.1813394992
 20
3.8634590259
 11
17.1813394992
 21
4.4295338573
  0
LWPOLYLINE
  5
6E8
100
AcDbEntity
  8
0
100
AcDbPolyline
 62
7
  6
CONTINUOUS
 90
3
 70
0
 10
18.2505990966
 20
9.9564473776
 10
18.2110355425
 20
9.8786544861
 10
18.1526987363
 20
9.8049041273
  0
LINE
  5
6E9
100
AcDbEntity
  8
0
100
AcDbLine
 62
7
  6
CONTINUOUS
 10
18.0767762472
 20
8.4283650324
 11
17.9848136381
 21
8.3670909153
  0
LWPOLYLINE
  5
6EA
100
AcDbEntity
  8
AXIS
100
AcDbPolyline
 62
7
  6
CONTINUOUS
 90
6
 70
0
 10
17.9848136381
 20
8.3670909153
 10
18.0767762472
 20
8.4283650324
 10
18.1526987363
 20
8.496571514
 10
18.2110355425
 20
8.5703218729
 10
18.2505990966
 20
8.6481147643
 10
18.2705839988
 20
8.7283665494
  0
LINE
  5
6EB
100
AcDbEntity
  8
0
100
AcDbLine
 62
7
  6
CONTINUOUS
 10
17.9848136381
 20
8.3670909153
 11
17.8786830026
 21
8.313996527
  0
LWPOLYLINE
  5
6EC
100
AcDbEntity
  8
AXIS
100
AcDbPolyline
 62
7
  6
CONTINUOUS
 90
12
 70
0
 10
16.5928711555
 20
7.92347602
 10
16.6990025568
 20
7.8703821419
 10
16.8171413372
 20
7.8265488991
 10
16.944882532
 20
7.7928686098
 10
17.0796256987
 20
7.7700269077
 10
17.2186278551
 20
7.758488784
 10
17.3590593181
 20
7.7584891216
 10
17.4980613081
 20
7.7700279135
 10
17.6328041454
 20
7.7928702634
 10
17.7605448544
 20
7.8265511667
 10
17.8786830026
 20
7.8703849775
 10
17.9848136381
 20
7.9234793658
  0
LINE
  5
6ED
100
AcDbEntity
  8
02___PRT_ALL_AXES
100
AcDbLine
 62
7
  6
CONTINUOUS
 10
17.3963394992
 20
3.8634590259
 11
17.3963394992
 21
4.4294932548
  0
LINE
  5
6EE
100
AcDbEntity
  8
0
100
AcDbLine
 62
7
  6
CONTINUOUS
 10
18.1526987363
 20
8.496571514
 11
18.0767762472
 21
8.4283650324
  0
LWPOLYLINE
  5
6EF
100
AcDbEntity
  8
AXIS
100
AcDbPolyline
 62
7
  6
CONTINUOUS
 90
6
 70
0
 10
17.9848136381
 20
7.9234793658
 10
18.0767762472
 20
7.9847534829
 10
18.1526987363
 20
8.0529599645
 10
18.2110355425
 20
8.1267103234
 10
18.2505990966
 20
8.2045032148
 10
18.2705839988
 20
8.284755
  0
LINE
  5
6F0
100
AcDbEntity
  8
0
100
AcDbLine
 62
7
  6
CONTINUOUS
 10
16.6990025568
 20
8.3139936914
 11
16.5928711555
 21
8.3670875695
  0
LWPOLYLINE
  5
6F1
100
AcDbEntity
  8
0
100
AcDbPolyline
 62
7
  6
CONTINUOUS
 90
5
 70
0
 10
16.5928711555
 20
8.3670875695
 10
16.5009076627
 20
8.4283612445
 10
16.4249841899
 20
8.4965673611
 10
16.36664632
 20
8.5703174395
 10
16.3270816439
 20
8.6481101407
  0
LINE
  5
6F2
100
AcDbEntity
  8
02___PRT_ALL_AXES
100
AcDbLine
 62
7
  6
CONTINUOUS
 10
17.8754536724
 20
4.8344619915
 11
17.8740539481
 21
4.8560528686
  0
LINE
  5
6F3
100
AcDbEntity
  8
02___PRT_ALL_AXES
100
AcDbLine
 62
7
  6
CONTINUOUS
 10
17.8754536724
 20
4.8826806381
 11
17.8740539481
 21
4.9042715152
  0
LINE
  5
6F4
100
AcDbEntity
  8
02___PRT_ALL_AXES
100
AcDbLine
 62
7
  6
CONTINUOUS
 10
17.8754536724
 20
4.9308992848
 11
17.8740539481
 21
4.9524901619
  0
LINE
  5
6F5
100
AcDbEntity
  8
02___PRT_ALL_AXES
100
AcDbLine
 62
7
  6
CONTINUOUS
 10
17.8754536724
 20
4.9791179315
 11
17.8740539481
 21
5.0007088086
  0
LINE
  5
6F6
100
AcDbEntity
  8
0
100
AcDbLine
 62
7
  6
CONTINUOUS
 10
18.2705839988
 20
10.0366991627
 11
18.2505990966
 21
9.9564473776
  0
LWPOLYLINE
  5
6F7
100
AcDbEntity
  8
0
100
AcDbPolyline
 62
7
  6
CONTINUOUS
 90
3
 70
0
 10
18.2505990966
 20
8.6481147643
 10
18.2110355425
 20
8.5703218729
 10
18.1526987363
 20
8.496571514
  0
LINE
  5
6F8
100
AcDbEntity
  8
0
100
AcDbLine
 62
7
  6
CONTINUOUS
 10
18.2705839988
 20
10.9014202265
 11
18.2730072384
 21
10.9489814039
  0
LINE
  5
6F9
100
AcDbEntity
  8
AXIS
100
AcDbLine
 62
7
  6
CONTINUOUS
 10
18.2705839988
 20
10.0366991627
 11
18.2730818916
 21
10.0772352908
  0
LINE
  5
6FA
100
AcDbEntity
  8
0
100
AcDbLine
 62
7
  6
CONTINUOUS
 10
18.2730632321
 20
10.073722901
 11
18.2705839988
 21
10.0366991627
  0
LWPOLYLINE
  5
6FB
100
AcDbEntity
  8
0
100
AcDbPolyline
 62
7
  6
CONTINUOUS
 90
18
 70
0
 10
18.268321999
 20
9.6301282715
 10
18.2658547088
 20
9.5932828852
 10
18.2459660784
 20
9.5134176914
 10
18.2065931111
 20
9.4359995463
 10
18.1485373268
 20
9.36260446
 10
18.0729805739
 20
9.2947265447
 10
17.9814609699
 20
9.2337475992
 10
17.8758415902
 20
9.1809089789
 10
17.7582725407
 20
9.1372863256
 10
17.6311471882
 20
9.103767671
 10
17.4970534383
 20
9.081035358
 10
17.358721053
 20
9.0695521511
 10
17.2189660808
 20
9.0695518151
 10
17.0806335299
 20
9.081034357
 10
16.9465394522
 20
9.1037660254
 10
16.8194136162
 20
9.1372840689
 10
16.7018439376
 20
9.1809061569
 10
16.5962237958
 20
9.2337442695
  0
LINE
  5
6FC
100
AcDbEntity
  8
02___PRT_ALL_AXES
100
AcDbLine
 62
7
  6
CONTINUOUS
 10
17.8735684384
 20
4.9995906519
 11
17.8754536724
 21
5.0273365782
  0
LINE
  5
6FD
100
AcDbEntity
  8
02___PRT_ALL_AXES
100
AcDbLine
 62
7
  6
CONTINUOUS
 10
17.8735684384
 20
4.9513720052
 11
17.8754536724
 21
4.9791179315
  0
LINE
  5
6FE
100
AcDbEntity
  8
02___PRT_ALL_AXES
100
AcDbLine
 62
7
  6
CONTINUOUS
 10
17.8735684384
 20
4.9031533585
 11
17.8754536724
 21
4.9308992848
  0
LINE
  5
6FF
100
AcDbEntity
  8
02___PRT_ALL_AXES
100
AcDbLine
 62
7
  6
CONTINUOUS
 10
17.8735684384
 20
4.8549347118
 11
17.8754536724
 21
4.8826806381
  0
LINE
  5
700
100
AcDbEntity
  8
02___PRT_ALL_AXES
100
AcDbLine
 62
7
  6
CONTINUOUS
 10
17.8735684384
 20
4.8067160652
 11
17.8754536724
 21
4.8344619915
  0
LINE
  5
701
100
AcDbEntity
  8
0
100
AcDbLine
 62
7
  6
CONTINUOUS
 10
18.2705839988
 20
8.7283665494
 11
18.2505990966
 21
8.6481147643
  0
LWPOLYLINE
  5
702
100
AcDbEntity
  8
0
100
AcDbPolyline
 62
7
  6
CONTINUOUS
 90
7
 70
0
 10
16.5962237958
 20
9.2337442695
 10
16.5047033124
 20
9.2947227751
 10
16.4291455805
 20
9.3626003271
 10
16.3710887376
 20
9.4359951343
 10
16.3317146537
 20
9.5134130901
 10
16.3118248715
 20
9.5932781882
 10
16.3093569997
 20
9.6301282794
  0
LWPOLYLINE
  5
703
100
AcDbEntity
  8
0
100
AcDbPolyline
 62
9
  6
CONTINUOUS
 90
8
 70
0
 10
16.4102228755
 20
11.1100630308
 10
16.4282878276
 20
11.0710668293
 10
16.4514692123
 20
11.0330955264
 10
16.4796380546
 20
10.9963093891
 10
16.513077079
 20
10.9604683804
 10
16.5523534158
 20
10.9253565039
 10
16.598269243
 20
10.890876937
 10
16.6518614072
 20
10.8570818081
  0
LWPOLYLINE
  5
704
100
AcDbEntity
  8
AXIS
100
AcDbPolyline
 62
7
  6
CONTINUOUS
 90
3
 70
0
 10
18.2730818916
 20
7.0169585148
 10
18.2705834142
 20
7.0574993706
 10
18.2688753666
 20
7.0643578363
  0
LWPOLYLINE
  5
705
100
AcDbEntity
  8
AXIS
100
AcDbPolyline
 62
7
  6
CONTINUOUS
 90
3
 70
0
 10
18.2730818916
 20
8.3252911281
 10
18.2705834142
 20
8.3658319838
 10
18.2688753666
 20
8.3726904496
  0
LWPOLYLINE
  5
706
100
AcDbEntity
  8
AXIS
100
AcDbPolyline
 62
7
  6
CONTINUOUS
 90
3
 70
0
 10
18.2730818916
 20
9.6336237413
 10
18.2705834142
 20
9.6741645971
 10
18.2688753666
 20
9.6810230629
  0
LINE
  5
707
100
AcDbEntity
  8
0
100
AcDbLine
 62
7
  6
CONTINUOUS
 10
18.2730164978
 20
10.9489698879
 11
18.2683198592
 21
11.1686496585
  0
LINE
  5
708
100
AcDbEntity
  8
02___PRT_ALL_AXES
100
AcDbLine
 62
7
  6
CONTINUOUS
 10
18.1746662709
 20
5.6441313069
 11
18.1746662709
 21
5.4643180957
  0
LINE
  5
709
100
AcDbEntity
  8
02___PRT_ALL_AXES
100
AcDbLine
 62
7
  6
CONTINUOUS
 10
18.2730914677
 20
6.152237455
 11
18.2730914677
 21
5.8982859158
  0
LINE
  5
70A
100
AcDbEntity
  8
AXIS
100
AcDbLine
 62
7
  6
CONTINUOUS
 10
18.2730914677
 20
6.152237455
 11
18.2730914677
 21
7.0169585188
  0
LINE
  5
70B
100
AcDbEntity
  8
AXIS
100
AcDbLine
 62
7
  6
CONTINUOUS
 10
18.2730914677
 20
7.4605700683
 11
18.2730914677
 21
8.3252911321
  0
LINE
  5
70C
100
AcDbEntity
  8
AXIS
100
AcDbLine
 62
7
  6
CONTINUOUS
 10
18.2730914677
 20
8.7689026815
 11
18.2730914677
 21
9.6336237454
  0
LINE
  5
70D
100
AcDbEntity
  8
AXIS
100
AcDbLine
 62
7
  6
CONTINUOUS
 10
18.2730914677
 20
10.0772352948
 11
18.2730914677
 21
10.9419563586
  0
LINE
  5
70E
100
AcDbEntity
  8
0
100
AcDbLine
 62
7
  6
CONTINUOUS
 10
18.2730727286
 20
10.0737287973
 11
18.2683314498
 21
9.6301341394
  0
LINE
  5
70F
100
AcDbEntity
  8
0
100
AcDbLine
 62
7
  6
CONTINUOUS
 10
18.2730727286
 20
8.765396184
 11
18.2683314498
 21
8.3218015261
  0
LINE
  5
710
100
AcDbEntity
  8
0
100
AcDbLine
 62
7
  6
CONTINUOUS
 10
18.2730727286
 20
7.4570635707
 11
18.2683314498
 21
7.0134689129
  0
LINE
  5
711
100
AcDbEntity
  8
AXIS
100
AcDbLine
 62
7
  6
CONTINUOUS
 10
18.2705839988
 20
9.5930876132
 11
18.2730818916
 21
9.6336237413
  0
LINE
  5
712
100
AcDbEntity
  8
AXIS
100
AcDbLine
 62
7
  6
CONTINUOUS
 10
18.2705839988
 20
8.7283665494
 11
18.2730818916
 21
8.7689026775
  0
LINE
  5
713
100
AcDbEntity
  8
AXIS
100
AcDbLine
 62
7
  6
CONTINUOUS
 10
18.2705839988
 20
8.284755
 11
18.2730818916
 21
8.3252911281
  0
LINE
  5
714
100
AcDbEntity
  8
AXIS
100
AcDbLine
 62
7
  6
CONTINUOUS
 10
18.2705839988
 20
7.4200339362
 11
18.2730818916
 21
7.4605700642
  0
LINE
  5
715
100
AcDbEntity
  8
AXIS
100
AcDbLine
 62
7
  6
CONTINUOUS
 10
18.2705839988
 20
6.9764223867
 11
18.2730818916
 21
7.0169585148
  0
LINE
  5
716
100
AcDbEntity
  8
02___PRT_ALL_AXES
100
AcDbLine
 62
9
  6
CONTINUOUS
 10
18.2730914677
 20
5.8982859158
 11
18.2705839988
 21
5.8577497837
  0
LINE
  5
717
100
AcDbEntity
  8
0
100
AcDbLine
 62
7
  6
CONTINUOUS
 10
18.2730632321
 20
8.7653902877
 11
18.2705839988
 21
8.7283665494
  0
LWPOLYLINE
  5
718
100
AcDbEntity
  8
0
100
AcDbPolyline
 62
7
  6
CONTINUOUS
 90
18
 70
0
 10
18.268321999
 20
8.3217956583
 10
18.2658547088
 20
8.2849502719
 10
18.2459660784
 20
8.2050850781
 10
18.2065931111
 20
8.127666933
 10
18.1485373268
 20
8.0542718467
 10
18.0729805739
 20
7.9863939315
 10
17.9814609699
 20
7.9254149859
 10
17.8758415902
 20
7.8725763656
 10
17.7582725407
 20
7.8289537124
 10
17.6311471882
 20
7.7954350577
 10
17.4970534383
 20
7.7727027447
 10
17.358721053
 20
7.7612195378
 10
17.2189660808
 20
7.7612192019
 10
17.0806335299
 20
7.7727017438
 10
16.9465394522
 20
7.7954334121
 10
16.8194136162
 20
7.8289514556
 10
16.7018439376
 20
7.8725735436
 10
16.5962237958
 20
7.9254116562
  0
LINE
  5
719
100
AcDbEntity
  8
0
100
AcDbLine
 62
7
  6
CONTINUOUS
 10
18.2730632321
 20
7.4570576744
 11
18.2705839988
 21
7.4200339362
  0
LWPOLYLINE
  5
71A
100
AcDbEntity
  8
0
100
AcDbPolyline
 62
7
  6
CONTINUOUS
 90
18
 70
0
 10
18.268321999
 20
7.013463045
 10
18.2658547088
 20
6.9766176586
 10
18.2459660784
 20
6.8967524649
 10
18.2065931111
 20
6.8193343197
 10
18.1485373268
 20
6.7459392334
 10
18.0729805739
 20
6.6780613182
 10
17.9814609699
 20
6.6170823727
 10
17.8758415902
 20
6.5642437523
 10
17.7582725407
 20
6.5206210991
 10
17.6311471882
 20
6.4871024444
 10
17.4970534383
 20
6.4643701315
 10
17.358721053
 20
6.4528869245
 10
17.2189660808
 20
6.4528865886
 10
17.0806335299
 20
6.4643691305
 10
16.9465394522
 20
6.4871007988
 10
16.8194136162
 20
6.5206188424
 10
16.7018439376
 20
6.5642409304
 10
16.5962237958
 20
6.617079043
  0
LWPOLYLINE
  5
71B
100
AcDbEntity
  8
02___PRT_ALL_AXES
100
AcDbPolyline
 62
9
  6
CONTINUOUS
 90
16
 70
0
 10
18.1746662709
 20
5.4643180957
 10
18.169096791
 20
5.4070587778
 10
18.1444834101
 20
5.3319536187
 10
18.1007563582
 20
5.2598052633
 10
18.0388924253
 20
5.1922253866
 10
17.9602735494
 20
5.1307236114
 10
17.8666559464
 20
5.0766737857
 10
17.7601308787
 20
5.0312832933
 10
17.6430779405
 20
4.9955660829
 10
17.5181119008
 20
4.9703200178
 10
17.3880242945
 20
4.9561090535
 10
17.2557210638
 20
4.9532506394
 10
17.1241576442
 20
4.9618086278
 10
16.9962729451
 20
4.9815918473
 10
16.8749236994
 20
5.0121583735
 10
16.7628206487
 20
5.0528254007
  0
LWPOLYLINE
  5
71C
100
AcDbEntity
  8
02___PRT_ALL_AXES
100
AcDbPolyline
 62
7
  6
CONTINUOUS
 90
6
 70
0
 10
18.1746662709
 20
5.4643180957
 10
18.1665453117
 20
5.3839329172
 10
18.1416131902
 20
5.3036384769
 10
18.0989376677
 20
5.2249152976
 10
18.0380140868
 20
5.1498820495
 10
17.9596894486
 20
5.0812408789
  0
LINE
  5
71D
100
AcDbEntity
  8
0
100
AcDbLine
 62
7
  6
CONTINUOUS
 10
18.2705839988
 20
7.4200339362
 11
18.2505990966
 21
7.339782151
  0
LINE
  5
71E
100
AcDbEntity
  8
0
100
AcDbLine
 62
7
  6
CONTINUOUS
 10
18.2505990966
 20
7.339782151
 11
18.2110355425
 21
7.2619892596
  0
LINE
  5
71F
100
AcDbEntity
  8
0
100
AcDbLine
 62
7
  6
CONTINUOUS
 10
18.2110355425
 20
7.2619892596
 11
18.1526987363
 21
7.1882389007
  0
LINE
  5
720
100
AcDbEntity
  8
0
100
AcDbLine
 62
7
  6
CONTINUOUS
 10
18.1526987363
 20
7.1882389007
 11
18.0767762472
 21
7.1200324191
  0
LINE
  5
721
100
AcDbEntity
  8
0
100
AcDbLine
 62
7
  6
CONTINUOUS
 10
18.0767762472
 20
7.1200324191
 11
17.9848136381
 21
7.058758302
  0
LWPOLYLINE
  5
722
100
AcDbEntity
  8
AXIS
100
AcDbPolyline
 62
7
  6
CONTINUOUS
 90
6
 70
0
 10
17.9848136381
 20
7.058758302
 10
18.0767762472
 20
7.1200324191
 10
18.1526987363
 20
7.1882389007
 10
18.2110355425
 20
7.2619892596
 10
18.2505990966
 20
7.339782151
 10
18.2705839988
 20
7.4200339362
  0
LWPOLYLINE
  5
723
100
AcDbEntity
  8
0
100
AcDbPolyline
 62
7
  6
CONTINUOUS
 90
11
 70
0
 10
17.9848136381
 20
7.058758302
 10
17.8786830026
 20
7.0056639137
 10
17.7605448544
 20
6.9618301029
 10
17.6328041454
 20
6.9281491996
 10
17.4980613081
 20
6.9053068497
 10
17.3590593181
 20
6.8937680577
 10
17.2186278551
 20
6.8937677202
 10
17.0796256987
 20
6.9053058439
 10
16.944882532
 20
6.928147546
 10
16.8171413372
 20
6.9618278353
 10
16.6990025568
 20
7.0056610781
  0
LWPOLYLINE
  5
724
100
AcDbEntity
  8
AXIS
100
AcDbPolyline
 62
7
  6
CONTINUOUS
 90
12
 70
0
 10
16.5928711555
 20
9.2318086333
 10
16.6990025568
 20
9.1787147552
 10
16.8171413372
 20
9.1348815123
 10
16.944882532
 20
9.1012012231
 10
17.0796256987
 20
9.078359521
 10
17.2186278551
 20
9.0668213973
 10
17.3590593181
 20
9.0668217348
 10
17.4980613081
 20
9.0783605268
 10
17.6328041454
 20
9.1012028766
 10
17.7605448544
 20
9.13488378
 10
17.8786830026
 20
9.1787175908
 10
17.9848136381
 20
9.2318119791
  0
LWPOLYLINE
  5
725
100
AcDbEntity
  8
02___PRT_ALL_AXES
100
AcDbPolyline
 62
7
  6
CONTINUOUS
 90
15
 70
0
 10
18.2730914677
 20
5.8982859158
 10
18.2640589236
 20
5.8184880218
 10
18.2367538351
 20
5.7394841439
 10
18.1913017884
 20
5.6631429631
 10
18.1281516334
 20
5.5909727385
 10
18.0486354384
 20
5.5248050644
 10
17.9545281876
 20
5.4660668719
 10
17.8478974599
 20
5.4158707985
 10
17.7309565116
 20
5.3750557873
 10
17.6058709188
 20
5.3442174381
 10
17.4750289893
 20
5.323833979
 10
17.3408300567
 20
5.3142027969
 10
17.2057036459
 20
5.3154615344
 10
17.0721403597
 20
5.3275823828
 10
16.9425293274
 20
5.3503793447
  0
LINE
  5
726
100
AcDbEntity
  8
02___PRT_ALL_AXES
100
AcDbLine
 62
7
  6
CONTINUOUS
 10
18.2730914677
 20
6.1522374617
 11
18.2646715906
 21
6.0780682899
  0
LINE
  5
727
100
AcDbEntity
  8
02___PRT_ALL_AXES
100
AcDbLine
 62
7
  6
CONTINUOUS
 10
17.8590690249
 20
4.9942514536
 11
17.8670128695
 21
5.0235943783
  0
LINE
  5
728
100
AcDbEntity
  8
02___PRT_ALL_AXES
100
AcDbLine
 62
7
  6
CONTINUOUS
 10
17.8590690249
 20
4.9882241228
 11
17.8685331881
 21
5.0231827911
  0
LINE
  5
729
100
AcDbEntity
  8
02___PRT_ALL_AXES
100
AcDbLine
 62
7
  6
CONTINUOUS
 10
17.8590690249
 20
4.946032807
 11
17.8735684384
 21
4.9995906519
  0
LWPOLYLINE
  5
72A
100
AcDbEntity
  8
02___PRT_ALL_AXES
100
AcDbPolyline
 62
7
  6
CONTINUOUS
 90
3
 70
0
 10
17.8590690249
 20
4.9400054761
 10
17.8735684384
 20
4.993563321
 10
17.8754536724
 20
5.0213092474
  0
LINE
  5
72B
100
AcDbEntity
  8
02___PRT_ALL_AXES
100
AcDbLine
 62
7
  6
CONTINUOUS
 10
17.8590690249
 20
4.8978141603
 11
17.8735684384
 21
4.9513720052
  0
LWPOLYLINE
  5
72C
100
AcDbEntity
  8
02___PRT_ALL_AXES
100
AcDbPolyline
 62
7
  6
CONTINUOUS
 90
3
 70
0
 10
17.8590690249
 20
4.8917868295
 10
17.8735684384
 20
4.9453446744
 10
17.8754536724
 20
4.9730906007
  0
LINE
  5
72D
100
AcDbEntity
  8
02___PRT_ALL_AXES
100
AcDbLine
 62
7
  6
CONTINUOUS
 10
17.8590690249
 20
4.8495955136
 11
17.8735684384
 21
4.9031533585
  0
LWPOLYLINE
  5
72E
100
AcDbEntity
  8
02___PRT_ALL_AXES
100
AcDbPolyline
 62
7
  6
CONTINUOUS
 90
3
 70
0
 10
17.8590690249
 20
4.8435681828
 10
17.8735684384
 20
4.8971260277
 10
17.8754536724
 20
4.924871954
  0
LINE
  5
72F
100
AcDbEntity
  8
02___PRT_ALL_AXES
100
AcDbLine
 62
7
  6
CONTINUOUS
 10
17.8590690249
 20
4.8013768669
 11
17.8735684384
 21
4.8549347118
  0
LWPOLYLINE
  5
730
100
AcDbEntity
  8
02___PRT_ALL_AXES
100
AcDbPolyline
 62
7
  6
CONTINUOUS
 90
3
 70
0
 10
17.8590690249
 20
4.7953495361
 10
17.8735684384
 20
4.848907381
 10
17.8754536724
 20
4.8766533073
  0
LWPOLYLINE
  5
731
100
AcDbEntity
  8
AXIS
100
AcDbPolyline
 62
7
  6
CONTINUOUS
 90
6
 70
0
 10
17.9848136381
 20
6.6151467525
 10
18.0767762472
 20
6.6764208697
 10
18.1526987363
 20
6.7446273513
 10
18.2110355425
 20
6.8183777101
 10
18.2505990966
 20
6.8961706016
 10
18.2705839988
 20
6.9764223867
  0
LINE
  5
732
100
AcDbEntity
  8
0
100
AcDbLine
 62
7
  6
CONTINUOUS
 10
16.6990025568
 20
9.6223263047
 11
16.5928711555
 21
9.6754201827
  0
LWPOLYLINE
  5
733
100
AcDbEntity
  8
0
100
AcDbPolyline
 62
7
  6
CONTINUOUS
 90
5
 70
0
 10
16.5928711555
 20
9.6754201827
 10
16.5009076627
 20
9.7366938577
 10
16.4249841899
 20
9.8048999744
 10
16.36664632
 20
9.8786500528
 10
16.3270816439
 20
9.956442754
  0
LWPOLYLINE
  5
734
100
AcDbEntity
  8
0
100
AcDbPolyline
 62
7
  6
CONTINUOUS
 90
7
 70
0
 10
18.2683198592
 20
11.1686496584
 10
18.2586194222
 20
11.2464178167
 10
18.2325366207
 20
11.3236156473
 10
18.1895879247
 20
11.3990810469
 10
18.1298570737
 20
11.4710052023
 10
18.0544396772
 20
11.537360621
 10
17.965187002
 20
11.5964961969
  0
LWPOLYLINE
  5
735
100
AcDbEntity
  8
02___PRT_ALL_AXES
100
AcDbPolyline
 62
9
  6
CONTINUOUS
 90
17
 70
0
 10
18.2705839988
 20
5.8577497837
 10
18.2505990966
 20
5.7774979986
 10
18.2110355425
 20
5.6997051071
 10
18.1526987363
 20
5.6259547483
 10
18.0767762472
 20
5.5577482667
 10
17.9848136381
 20
5.4964741496
 10
17.8786830026
 20
5.4433797613
 10
17.7605448544
 20
5.3995459505
 10
17.6328041454
 20
5.3658650471
 10
17.4980613081
 20
5.3430226973
 10
17.3590593181
 20
5.3314839053
 10
17.2186278551
 20
5.3314835677
 10
17.0796256987
 20
5.3430216915
 10
16.944882532
 20
5.3658633935
 10
16.8171413372
 20
5.3995436828
 10
16.6990025568
 20
5.4433769257
 10
16.5928711555
 20
5.4964708037
  0
LINE
  5
736
100
AcDbEntity
  8
02___PRT_ALL_AXES
100
AcDbLine
 62
7
  6
CONTINUOUS
 10
18.2646715906
 20
6.0780682899
 11
18.2395549558
 21
6.0051658139
  0
LWPOLYLINE
  5
737
100
AcDbEntity
  8
0
100
AcDbPolyline
 62
7
  6
CONTINUOUS
 90
13
 70
0
 10
17.829534339
 20
4.6942916885
 10
17.8112216209
 20
4.6488489527
 10
17.7748729334
 20
4.5974646809
 10
17.7244859653
 20
4.5503113459
 10
17.6618491933
 20
4.5092253452
 10
17.5891462186
 20
4.475382057
 10
17.508601346
 20
4.4494991074
 10
17.4224722266
 20
4.432045917
 10
17.3329976336
 20
4.4233059792
 10
17.2424526784
 20
4.4234153383
 10
17.1531226225
 20
4.4323588698
 10
17.0672763775
 20
4.4499689545
 10
16.98821984
 20
4.4755039084
  0
LINE
  5
738
100
AcDbEntity
  8
02___PRT_ALL_AXES
100
AcDbLine
 62
7
  6
CONTINUOUS
 10
17.8331050428
 20
4.9884667957
 11
17.8454346856
 21
5.0116090639
  0
LINE
  5
739
100
AcDbEntity
  8
02___PRT_ALL_AXES
100
AcDbLine
 62
7
  6
CONTINUOUS
 10
17.8305943083
 20
4.9366143301
 11
17.8590690249
 21
4.9882241228
  0
LINE
  5
73A
100
AcDbEntity
  8
02___PRT_ALL_AXES
100
AcDbLine
 62
7
  6
CONTINUOUS
 10
17.8305943083
 20
4.8883956835
 11
17.8590690249
 21
4.9400054761
  0
LINE
  5
73B
100
AcDbEntity
  8
02___PRT_ALL_AXES
100
AcDbLine
 62
7
  6
CONTINUOUS
 10
17.8305943083
 20
4.8401770368
 11
17.8590690249
 21
4.8917868295
  0
LINE
  5
73C
100
AcDbEntity
  8
02___PRT_ALL_AXES
100
AcDbLine
 62
7
  6
CONTINUOUS
 10
17.8305943083
 20
4.7497670743
 11
17.8590690249
 21
4.8013768669
  0
LINE
  5
73D
100
AcDbEntity
  8
02___PRT_ALL_AXES
100
AcDbLine
 62
7
  6
CONTINUOUS
 10
17.8305943083
 20
4.7437397434
 11
17.8590690249
 21
4.7953495361
  0
LINE
  5
73E
100
AcDbEntity
  8
02___PRT_ALL_AXES
100
AcDbLine
 62
7
  6
CONTINUOUS
 10
18.2395549558
 20
6.0051658139
 11
18.1981713159
 21
5.9347797745
  0
LINE
  5
73F
100
AcDbEntity
  8
02___PRT_ALL_AXES
100
AcDbLine
 62
7
  6
CONTINUOUS
 10
18.1981713159
 20
5.9347797745
 11
18.1412287566
 21
5.8681144963
  0
LWPOLYLINE
  5
740
100
AcDbEntity
  8
0
100
AcDbPolyline
 62
7
  6
CONTINUOUS
 90
4
 70
0
 10
17.0796256987
 20
9.5219710705
 10
16.944882532
 20
9.5448127726
 10
16.8171413372
 20
9.5784930618
 10
16.6990025568
 20
9.6223263047
  0
LWPOLYLINE
  5
741
100
AcDbEntity
  8
02___PRT_ALL_AXES
100
AcDbPolyline
 62
7
  6
CONTINUOUS
 90
3
 70
0
 10
18.1412287566
 20
5.8681144963
 10
18.0697015807
 20
5.8063106407
 10
17.9848136381
 20
5.7504256887
  0
LWPOLYLINE
  5
742
100
AcDbEntity
  8
AXIS
100
AcDbPolyline
 62
7
  6
CONTINUOUS
 90
7
 70
0
 10
17.9848136381
 20
5.7504256887
 10
18.0767762472
 20
5.8116998058
 10
18.1526987363
 20
5.8799062875
 10
18.2110355425
 20
5.9536566463
 10
18.2505990966
 20
6.0314495378
 10
18.2705839988
 20
6.1117013229
 10
18.2730818916
 20
6.152237451
  0
LWPOLYLINE
  5
743
100
AcDbEntity
  8
02___PRT_ALL_AXES
100
AcDbPolyline
 62
7
  6
CONTINUOUS
 90
13
 70
0
 10
17.9848136381
 20
5.7504256887
 10
17.8880173851
 20
5.7014158475
 10
17.7809690323
 20
5.660119689
 10
17.6655002067
 20
5.627243802
 10
17.543586612
 20
5.6033507018
 10
17.4173142236
 20
5.5888492062
 10
17.288843597
 20
5.5839874398
 10
17.1603729004
 20
5.5888485886
 10
17.0341003028
 20
5.6033494772
 10
16.9121863635
 20
5.6272419912
 10
16.7967170638
 20
5.6601173232
 10
16.6896681154
 20
5.7014129671
 10
16.5928711555
 20
5.7504223429
  0
LWPOLYLINE
  5
744
100
AcDbEntity
  8
0
100
AcDbPolyline
 62
7
  6
CONTINUOUS
 90
17
 70
0
 10
16.5928711555
 20
10.5401412466
 10
16.6990025568
 20
10.4870473685
 10
16.8171413372
 20
10.4432141256
 10
16.944882532
 20
10.4095338364
 10
17.0796256987
 20
10.3866921343
 10
17.2186278551
 20
10.3751540105
 10
17.3590593181
 20
10.3751543481
 10
17.4980613081
 20
10.3866931401
 10
17.6328041454
 20
10.4095354899
 10
17.7605448544
 20
10.4432163933
 10
17.8786830026
 20
10.4870502041
 10
17.9848136381
 20
10.5401445924
 10
18.0767762472
 20
10.6014187095
 10
18.1526987363
 20
10.6696251911
 10
18.2110355425
 20
10.7433755499
 10
18.2505990966
 20
10.8211684414
 10
18.2705839988
 20
10.9014202265
  0
LWPOLYLINE
  5
745
100
AcDbEntity
  8
AXIS
100
AcDbPolyline
 62
7
  6
CONTINUOUS
 90
12
 70
0
 10
16.5928711555
 20
10.5401412466
 10
16.6990025568
 20
10.4870473685
 10
16.8171413372
 20
10.4432141256
 10
16.944882532
 20
10.4095338364
 10
17.0796256987
 20
10.3866921343
 10
17.2186278551
 20
10.3751540105
 10
17.3590593181
 20
10.3751543481
 10
17.4980613081
 20
10.3866931401
 10
17.6328041454
 20
10.4095354899
 10
17.7605448544
 20
10.4432163933
 10
17.8786830026
 20
10.4870502041
 10
17.9848136381
 20
10.5401445924
  0
LWPOLYLINE
  5
746
100
AcDbEntity
  8
02___PRT_ALL_AXES
100
AcDbPolyline
 62
9
  6
CONTINUOUS
 90
8
 70
0
 10
17.7521192248
 20
5.3824420484
 10
17.6430779405
 20
5.3491694919
 10
17.5181119008
 20
5.3239234268
 10
17.3880242945
 20
5.3097124625
 10
17.2557210638
 20
5.3068540484
 10
17.1241576442
 20
5.3154120368
 10
16.9962729451
 20
5.3351952563
 10
16.8749236994
 20
5.3657617825
  0
LWPOLYLINE
  5
747
100
AcDbEntity
  8
0
100
AcDbPolyline
 62
9
  6
CONTINUOUS
 90
19
 70
0
 10
16.5961924196
 20
10.761772008
 10
16.6599338797
 20
10.7280839515
 10
16.7249520154
 20
10.6992338356
 10
16.7911508084
 20
10.6745646963
 10
16.8587072441
 20
10.6535711694
 10
16.9280238873
 20
10.6358951461
 10
16.9995612852
 20
10.6213545622
 10
17.0730272074
 20
10.6100275363
 10
17.1477397377
 20
10.6020292573
 10
17.2232473032
 20
10.597400663
 10
17.2991545697
 20
10.5961627137
 10
17.3749998492
 20
10.5983233123
 10
17.4503156553
 20
10.6038683482
 10
17.5246502864
 20
10.6127629973
 10
17.5975593517
 20
10.6249526384
 10
17.668606013
 20
10.6403628984
 10
17.7373677266
 20
10.6589010337
 10
17.8034369463
 20
10.6804567049
 10
17.8664192177
 20
10.704901344
  0
LWPOLYLINE
  5
748
100
AcDbEntity
  8
0
100
AcDbPolyline
 62
9
  6
CONTINUOUS
 90
27
 70
0
 10
16.6518614072
 20
10.8570818081
 10
16.7104701214
 20
10.8261060057
 10
16.7702634208
 20
10.799573581
 10
16.8311423505
 20
10.7768863177
 10
16.8932697082
 20
10.7575794352
 10
16.9570156943
 20
10.7413235423
 10
17.0228039353
 20
10.7279511595
 10
17.0903657895
 20
10.7175341002
 10
17.1590741456
 20
10.710178302
 10
17.2285136893
 20
10.7059214193
 10
17.2983208499
 20
10.7047827298
 10
17.3680710378
 20
10.7067695034
 10
17.4373343264
 20
10.7118687647
 10
17.5056953047
 20
10.7200484894
 10
17.5727452857
 20
10.7312584461
 10
17.6380825275
 20
10.7454302383
 10
17.7013184349
 20
10.7624785746
 10
17.7620782039
 20
10.7823019814
 10
17.8199990654
 20
10.804782218
 10
17.8747330557
 20
10.8297845369
 10
17.9259504991
 20
10.8571585569
 10
17.9733430502
 20
10.8867394855
 10
18.0166271488
 20
10.918350361
 10
18.0555434924
 20
10.9518021362
 10
18.089857472
 20
10.9868935138
 10
18.1193623877
 20
11.0234131804
 10
18.1438806852
 20
11.0611409839
  0
LWPOLYLINE
  5
749
100
AcDbEntity
  8
02___PRT_ALL_AXES
100
AcDbPolyline
 62
7
  6
CONTINUOUS
 90
9
 70
0
 10
17.9596894486
 20
5.0812408789
 10
17.8658306226
 20
5.0211638842
 10
17.7602677717
 20
4.9717111885
 10
17.6461424903
 20
4.933481408
 10
17.5258761075
 20
4.9065286375
 10
17.401615907
 20
4.8908340019
 10
17.2757436887
 20
4.8863932017
 10
17.150230866
 20
4.8931477316
 10
17.0272022558
 20
4.911049249
  0
LWPOLYLINE
  5
74A
100
AcDbEntity
  8
02___PRT_ALL_AXES
100
AcDbPolyline
 62
7
  6
CONTINUOUS
 90
7
 70
0
 10
17.6163199864
 20
4.9267979186
 10
17.5721479733
 20
4.9078186593
 10
17.4926065393
 20
4.883871788
 10
17.406451975
 20
4.8674005333
 10
17.3167164369
 20
4.8592168455
 10
17.2270385553
 20
4.8595656385
 10
17.1399082781
 20
4.8681583509
  0
LWPOLYLINE
  5
74B
100
AcDbEntity
  8
02___PRT_ALL_AXES
100
AcDbPolyline
 62
7
  6
CONTINUOUS
 90
4
 70
0
 10
17.6135705241
 20
4.877287712
 10
17.5894765851
 20
4.8661342936
 10
17.5131389968
 20
4.8409598077
 10
17.4314978824
 20
4.8230551995
  0
LWPOLYLINE
  5
74C
100
AcDbEntity
  8
02___PRT_ALL_AXES
100
AcDbPolyline
 62
7
  6
CONTINUOUS
 90
5
 70
0
 10
17.595622956
 20
4.8694628647
 10
17.669898934
 20
4.9018459811
 10
17.7348358285
 20
4.9405397302
 10
17.7888421526
 20
4.984625272
 10
17.7895249356
 20
4.9854171997
  0
LWPOLYLINE
  5
74D
100
AcDbEntity
  8
02___PRT_ALL_AXES
100
AcDbPolyline
 62
7
  6
CONTINUOUS
 90
7
 70
0
 10
17.5941361489
 20
4.6279095944
 10
17.5739756596
 20
4.6191715532
 10
17.4943891735
 20
4.5949982102
 10
17.4081841522
 20
4.5783334602
 10
17.3183198481
 20
4.569975552
 10
17.228428061
 20
4.5701837357
 10
17.1413675262
 20
4.5786323763
  0
LWPOLYLINE
  5
74E
100
AcDbEntity
  8
02___PRT_ALL_AXES
100
AcDbPolyline
 62
7
  6
CONTINUOUS
 90
3
 70
0
 10
17.5985314963
 20
4.8227211306
 10
17.5730321517
 20
4.8117022599
 10
17.4935071473
 20
4.7876554058
  0
LWPOLYLINE
  5
74F
100
AcDbEntity
  8
02___PRT_ALL_AXES
100
AcDbPolyline
 62
7
  6
CONTINUOUS
 90
7
 70
0
 10
17.5936895787
 20
4.7242087134
 10
17.572587355
 20
4.7151033725
 10
17.4932214621
 20
4.6911479205
 10
17.4080985578
 20
4.6747585769
 10
17.3190747
 20
4.6664470135
 10
17.2296515471
 20
4.6665610733
 10
17.1422667475
 20
4.6749389738
  0
LWPOLYLINE
  5
750
100
AcDbEntity
  8
02___PRT_ALL_AXES
100
AcDbPolyline
 62
7
  6
CONTINUOUS
 90
7
 70
0
 10
17.6363230561
 20
4.790770152
 10
17.5728099926
 20
4.7634028614
 10
17.4931942116
 20
4.7393598775
 10
17.4069577487
 20
4.7228157233
 10
17.3171125198
 20
4.7145780904
 10
17.2272991378
 20
4.7148964101
 10
17.140159217
 20
4.7234654176
  0
LWPOLYLINE
  5
751
100
AcDbEntity
  8
02___PRT_ALL_AXES
100
AcDbPolyline
 62
7
  6
CONTINUOUS
 90
7
 70
0
 10
17.636788404
 20
4.6945357427
 10
17.5716784189
 20
4.6665555452
 10
17.4920853945
 20
4.6426512106
 10
17.4067378902
 20
4.6263474744
 10
17.3186741376
 20
4.6182101608
 10
17.2301755059
 20
4.6183172373
 10
17.1428672773
 20
4.6266335674
  0
LWPOLYLINE
  5
752
100
AcDbEntity
  8
02___PRT_ALL_AXES
100
AcDbPolyline
 62
7
  6
CONTINUOUS
 90
5
 70
0
 10
17.5138282655
 20
4.8501818892
 10
17.595622956
 20
4.8754901955
 10
17.669898934
 20
4.907873312
 10
17.7348358285
 20
4.946567061
 10
17.7728712448
 20
4.9776154977
  0
LINE
  5
753
100
AcDbEntity
  8
02___PRT_ALL_AXES
100
AcDbLine
 62
7
  6
CONTINUOUS
 10
17.5138282655
 20
4.8441545584
 11
17.595622956
 21
4.8694628647
  0
LWPOLYLINE
  5
754
100
AcDbEntity
  8
02___PRT_ALL_AXES
100
AcDbPolyline
 62
7
  6
CONTINUOUS
 90
7
 70
0
 10
17.5937422995
 20
4.5795690858
 10
17.5726888014
 20
4.5704842584
 10
17.4931536002
 20
4.5464753229
 10
17.4071100921
 20
4.5299626181
 10
17.3174689218
 20
4.5217191081
 10
17.2278623504
 20
4.5219933495
 10
17.1406831021
 20
4.5305138366
  0
LWPOLYLINE
  5
755
100
AcDbEntity
  8
0
100
AcDbPolyline
 62
7
  6
CONTINUOUS
 90
18
 70
0
 10
17.965187002
 20
11.5964961969
 10
17.8611342347
 20
11.6486514172
 10
17.7467329222
 20
11.6913217158
 10
17.6242043844
 20
11.7239534786
 10
17.4958542713
 20
11.7461447079
 10
17.3640986718
 20
11.7576424032
 10
17.2310829767
 20
11.7583543473
 10
17.0991497777
 20
11.7482874588
 10
16.9705365161
 20
11.7275706899
 10
16.8474146697
 20
11.6964301351
 10
16.73218309
 20
11.6552918028
 10
16.6268355777
 20
11.6046098992
 10
16.5335955425
 20
11.5451115634
 10
16.4548938784
 20
11.4781309868
 10
16.3923973362
 20
11.4051846051
 10
16.3472600938
 20
11.3282503066
 10
16.3196177163
 20
11.2488170878
 10
16.3093591392
 20
11.1686496584
  0
LWPOLYLINE
  5
756
100
AcDbEntity
  8
0
100
AcDbPolyline
 62
9
  6
CONTINUOUS
 90
34
 70
0
 10
17.9258175912
 20
11.5925963635
 10
17.867208877
 20
11.6235721659
 10
17.8074155776
 20
11.6501045907
 10
17.7465366479
 20
11.672791854
 10
17.6844092902
 20
11.6920987365
 10
17.6206633041
 20
11.7083546293
 10
17.5548750631
 20
11.7217270121
 10
17.4873132089
 20
11.7321440715
 10
17.4186048528
 20
11.7394998697
 10
17.3491653091
 20
11.7437567524
 10
17.2793581486
 20
11.7448954418
 10
17.2096079606
 20
11.7429086683
 10
17.140344672
 20
11.7378094069
 10
17.0719836937
 20
11.7296296822
 10
17.0049337128
 20
11.7184197255
 10
16.9395964709
 20
11.7042479334
 10
16.8763605635
 20
11.687199597
 10
16.8156007945
 20
11.6673761903
 10
16.757679933
 20
11.6448959536
 10
16.7029459428
 20
11.6198936347
 10
16.6517284994
 20
11.5925196147
 10
16.6043359482
 20
11.5629386862
 10
16.5610518497
 20
11.5313278107
 10
16.522135506
 20
11.4978760355
 10
16.4878215264
 20
11.4627846579
 10
16.4583166107
 20
11.4262649913
 10
16.4337983132
 20
11.3885371878
 10
16.4144126081
 20
11.3498260261
 10
16.4002749186
 20
11.3103596327
 10
16.3914717953
 20
11.2703728046
 10
16.3880588954
 20
11.2301063835
 10
16.3900584647
 20
11.1898082527
 10
16.3974578187
 20
11.1497232948
 10
16.4102228755
 20
11.1100630308
  0
LINE
  5
757
100
AcDbEntity
  8
02___PRT_ALL_AXES
100
AcDbLine
 62
7
  6
CONTINUOUS
 10
5.5419183758
 20
3.8709673027
 11
5.5419183758
 21
3.9628023219
  0
LINE
  5
758
100
AcDbEntity
  8
02___PRT_ALL_AXES
100
AcDbLine
 62
7
  6
CONTINUOUS
 10
5.5419183758
 20
3.9628023219
 11
5.5562511258
 21
4.0535119853
  0
LINE
  5
759
100
AcDbEntity
  8
02___PRT_ALL_AXES
100
AcDbLine
 62
7
  6
CONTINUOUS
 10
5.5562511258
 20
4.0535119853
 11
5.5845653558
 21
4.1408731617
  0
LINE
  5
75A
100
AcDbEntity
  8
02___PRT_ALL_AXES
100
AcDbLine
 62
7
  6
CONTINUOUS
 10
5.5845653558
 20
4.1408731617
 11
5.6261671348
 21
4.2227447852
  0
LINE
  5
75B
100
AcDbEntity
  8
02___PRT_ALL_AXES
100
AcDbLine
 62
7
  6
CONTINUOUS
 10
5.6261671348
 20
4.2227447852
 11
5.6800368778
 21
4.2971203293
  0
LINE
  5
75C
100
AcDbEntity
  8
02___PRT_ALL_AXES
100
AcDbLine
 62
7
  6
CONTINUOUS
 10
5.6800368778
 20
4.2971203293
 11
5.7448543339
 21
4.3621769826
  0
LINE
  5
75D
100
AcDbEntity
  8
02___PRT_ALL_AXES
100
AcDbLine
 62
7
  6
CONTINUOUS
 10
5.7448543339
 20
4.3621769826
 11
5.8190309436
 21
4.4163203232
  0
LINE
  5
75E
100
AcDbEntity
  8
02___PRT_ALL_AXES
100
AcDbLine
 62
7
  6
CONTINUOUS
 10
5.8190309436
 20
4.4163203232
 11
5.9007487711
 21
4.458223395
  0
LINE
  5
75F
100
AcDbEntity
  8
0
100
AcDbLine
 62
9
  6
CONTINUOUS
 10
6.0193634664
 20
3.3361761509
 11
6.2341018939
 21
3.3361761509
  0
LINE
  5
760
100
AcDbEntity
  8
02___PRT_ALL_AXES
100
AcDbLine
 62
7
  6
CONTINUOUS
 10
5.9007487711
 20
3.3755462296
 11
5.8190309436
 21
3.4174493014
  0
LINE
  5
761
100
AcDbEntity
  8
02___PRT_ALL_AXES
100
AcDbLine
 62
7
  6
CONTINUOUS
 10
5.8190309436
 20
3.4174493014
 11
5.7448543339
 21
3.471592642
  0
LINE
  5
762
100
AcDbEntity
  8
02___PRT_ALL_AXES
100
AcDbLine
 62
7
  6
CONTINUOUS
 10
5.7448543339
 20
3.471592642
 11
5.6800368778
 21
3.5366492953
  0
LINE
  5
763
100
AcDbEntity
  8
02___PRT_ALL_AXES
100
AcDbLine
 62
7
  6
CONTINUOUS
 10
5.6800368778
 20
3.5366492953
 11
5.6261671348
 21
3.6110248393
  0
LINE
  5
764
100
AcDbEntity
  8
02___PRT_ALL_AXES
100
AcDbLine
 62
7
  6
CONTINUOUS
 10
5.6261671348
 20
3.6110248393
 11
5.5845653558
 21
3.6928964629
  0
LINE
  5
765
100
AcDbEntity
  8
02___PRT_ALL_AXES
100
AcDbLine
 62
7
  6
CONTINUOUS
 10
5.5845653558
 20
3.6928964629
 11
5.5562511258
 21
3.7802576392
  0
LINE
  5
766
100
AcDbEntity
  8
02___PRT_ALL_AXES
100
AcDbLine
 62
7
  6
CONTINUOUS
 10
5.5562511258
 20
3.7802576392
 11
5.5419183758
 21
3.8709673027
  0
LINE
  5
767
100
AcDbEntity
  8
02___PRT_ALL_AXES
100
AcDbLine
 62
7
  6
CONTINUOUS
 10
5.9007487711
 20
3.3755462296
 11
6.0230353007
 21
3.3755462296
  0
LINE
  5
768
100
AcDbEntity
  8
0
100
AcDbLine
 62
7
  6
CONTINUOUS
 10
6.0230353007
 20
3.3755462296
 11
6.2304300596
 21
3.3755462296
  0
LINE
  5
769
100
AcDbEntity
  8
02___PRT_ALL_AXES
100
AcDbLine
 62
7
  6
CONTINUOUS
 10
6.2304300596
 20
3.3755462296
 11
6.3527165892
 21
3.3755462296
  0
LINE
  5
76A
100
AcDbEntity
  8
0
100
AcDbLine
 62
9
  6
CONTINUOUS
 10
6.0268420151
 20
3.4149163083
 11
6.2266233452
 21
3.4149163083
  0
LWPOLYLINE
  5
76B
100
AcDbEntity
  8
0
100
AcDbPolyline
 62
7
  6
CONTINUOUS
 90
22
 70
0
 10
6.1267326802
 20
3.5369635524
 10
6.0811634413
 20
3.5373365339
 10
6.0357792998
 20
3.5431715499
 10
5.9914032927
 20
3.5543643574
 10
5.9489286714
 20
3.5706040699
 10
5.908250783
 20
3.5919268313
 10
5.8685644364
 20
3.6192646055
 10
5.8297414973
 20
3.6540599998
 10
5.7923898316
 20
3.6983095732
 10
5.7591249103
 20
3.7527592568
 10
5.7339155997
 20
3.8148697777
 10
5.7191514122
 20
3.8812684868
 10
5.715623449
 20
3.9497714906
 10
5.7235719243
 20
4.018211797
 10
5.7429150982
 20
4.0848842644
 10
5.7733465544
 20
4.1480077738
 10
5.8135323856
 20
4.2048918207
 10
5.8620674576
 20
4.2541040945
 10
5.9180997053
 20
4.2949967651
 10
5.9799225728
 20
4.3263641619
 10
6.0464666706
 20
4.347622656
 10
6.1158175471
 20
4.3580429407
  0
LWPOLYLINE
  5
76C
100
AcDbEntity
  8
0
100
AcDbPolyline
 62
7
  6
CONTINUOUS
 90
4
 70
0
 10
6.0237542774
 20
4.4506747648
 10
6.0245912878
 20
4.4419530455
 10
6.0256535059
 20
4.4309871251
 10
6.0268420151
 20
4.4188533162
  0
LWPOLYLINE
  5
76D
100
AcDbEntity
  8
0
100
AcDbPolyline
 62
7
  6
CONTINUOUS
 90
6
 70
0
 10
6.0237542774
 20
4.4506747648
 10
6.0228517202
 20
4.4601592473
 10
6.0223216538
 20
4.465768004
 10
6.0215029273
 20
4.4744872375
 10
6.0204821191
 20
4.4854539842
 10
6.0193634664
 20
4.4975934737
  0
LWPOLYLINE
  5
76E
100
AcDbEntity
  8
0
100
AcDbPolyline
 62
7
  6
CONTINUOUS
 90
4
 70
0
 10
6.0223216538
 20
3.3680016206
 10
6.0215029273
 20
3.3592823871
 10
6.0204821191
 20
3.3483156403
 10
6.0193634664
 20
3.3361761509
  0
LWPOLYLINE
  5
76F
100
AcDbEntity
  8
0
100
AcDbPolyline
 62
7
  6
CONTINUOUS
 90
6
 70
0
 10
6.0223216538
 20
3.3680016206
 10
6.0232193179
 20
3.3774832511
 10
6.0237542774
 20
3.3830948598
 10
6.0245912878
 20
3.3918165791
 10
6.0256535059
 20
3.4027824994
 10
6.0268420151
 20
3.4149163083
  0
LINE
  5
770
100
AcDbEntity
  8
AXIS_COSMETIC_THREADS
100
AcDbLine
 62
7
  6
CONTINUOUS
 10
6.1590929486
 20
4.0319895596
 11
6.1583409361
 21
4.0306870357
  0
LINE
  5
771
100
AcDbEntity
  8
AXIS_COSMETIC_THREADS
100
AcDbLine
 62
7
  6
CONTINUOUS
 10
6.0439811917
 20
3.8326101479
 11
6.0431223024
 21
3.8311225081
  0
LINE
  5
772
100
AcDbEntity
  8
AXIS_COSMETIC_THREADS
100
AcDbLine
 62
7
  6
CONTINUOUS
 10
6.0106147205
 20
3.8873572532
 11
6.0123729357
 21
3.8873572532
  0
LINE
  5
773
100
AcDbEntity
  8
AXIS_COSMETIC_THREADS
100
AcDbLine
 62
7
  6
CONTINUOUS
 10
6.2410924246
 20
3.8873572532
 11
6.2428506398
 21
3.8873572532
  0
LINE
  5
774
100
AcDbEntity
  8
AXIS_COSMETIC_THREADS
100
AcDbLine
 62
7
  6
CONTINUOUS
 10
6.0431223024
 20
4.0026471164
 11
6.0439811917
 21
4.0011594766
  0
LINE
  5
775
100
AcDbEntity
  8
AXIS_COSMETIC_THREADS
100
AcDbLine
 62
7
  6
CONTINUOUS
 10
6.1583409361
 20
3.8030825889
 11
6.1590929486
 21
3.801780065
  0
LWPOLYLINE
  5
776
100
AcDbEntity
  8
0
100
AcDbPolyline
 62
7
  6
CONTINUOUS
 90
4
 70
0
 10
6.2297110829
 20
3.3830948598
 10
6.2288740725
 20
3.3918165791
 10
6.2278118544
 20
3.4027824994
 10
6.2266233452
 20
3.4149163083
  0
LWPOLYLINE
  5
777
100
AcDbEntity
  8
0
100
AcDbPolyline
 62
7
  6
CONTINUOUS
 90
6
 70
0
 10
6.2341018939
 20
3.3361761509
 10
6.2329832412
 20
3.3483156403
 10
6.231962433
 20
3.3592823871
 10
6.2311437065
 20
3.3680016206
 10
6.2306136401
 20
3.3736103773
 10
6.2297110829
 20
3.3830948598
  0
LWPOLYLINE
  5
778
100
AcDbEntity
  8
0
100
AcDbPolyline
 62
7
  6
CONTINUOUS
 90
4
 70
0
 10
6.2311437065
 20
4.465768004
 10
6.231962433
 20
4.4744872375
 10
6.2329832412
 20
4.4854539842
 10
6.2341018939
 20
4.4975934737
  0
LWPOLYLINE
  5
779
100
AcDbEntity
  8
0
100
AcDbPolyline
 62
7
  6
CONTINUOUS
 90
6
 70
0
 10
6.2311437065
 20
4.465768004
 10
6.2302460424
 20
4.4562863735
 10
6.2297110829
 20
4.4506747648
 10
6.2288740725
 20
4.4419530455
 10
6.2278118544
 20
4.4309871251
 10
6.2266233452
 20
4.4188533162
  0
LINE
  5
77A
100
AcDbEntity
  8
AXIS_COSMETIC_THREADS
100
AcDbLine
 62
7
  6
CONTINUOUS
 10
6.0943724117
 20
3.801780065
 11
6.0951244242
 21
3.8030825889
  0
LINE
  5
77B
100
AcDbEntity
  8
AXIS_COSMETIC_THREADS
100
AcDbLine
 62
7
  6
CONTINUOUS
 10
6.2094841686
 20
4.0011594766
 11
6.2103430579
 21
4.0026471164
  0
LINE
  5
77C
100
AcDbEntity
  8
AXIS_COSMETIC_THREADS
100
AcDbLine
 62
7
  6
CONTINUOUS
 10
6.2428506398
 20
3.9464123713
 11
6.2410924246
 21
3.9464123713
  0
LINE
  5
77D
100
AcDbEntity
  8
AXIS_COSMETIC_THREADS
100
AcDbLine
 62
7
  6
CONTINUOUS
 10
6.0123729357
 20
3.9464123713
 11
6.0106147205
 21
3.9464123713
  0
LINE
  5
77E
100
AcDbEntity
  8
AXIS_COSMETIC_THREADS
100
AcDbLine
 62
7
  6
CONTINUOUS
 10
6.2103430579
 20
3.8311225081
 11
6.2094841686
 21
3.8326101479
  0
LINE
  5
77F
100
AcDbEntity
  8
AXIS_COSMETIC_THREADS
100
AcDbLine
 62
7
  6
CONTINUOUS
 10
6.0951244242
 20
4.0306870357
 11
6.0943724117
 21
4.0319895596
  0
LWPOLYLINE
  5
780
100
AcDbEntity
  8
0
100
AcDbPolyline
 62
7
  6
CONTINUOUS
 90
19
 70
0
 10
6.1158175471
 20
4.3580429407
 10
6.1901210633
 20
4.3502191428
 10
6.2614746176
 20
4.3300687086
 10
6.3281809188
 20
4.2981755627
 10
6.3879554967
 20
4.2557651985
 10
6.4396368819
 20
4.2037289586
 10
6.4812359238
 20
4.144160835
 10
6.5117786125
 20
4.0788296282
 10
6.530603881
 20
4.0092787654
 10
6.5370770931
 20
3.9383938273
 10
6.5312388317
 20
3.8676486688
 10
6.5133321037
 20
3.7993680405
 10
6.4842017576
 20
3.7359518359
 10
6.4444726941
 20
3.678531618
 10
6.3958393894
 20
3.6294290532
 10
6.339858843
 20
3.5898873011
 10
6.2779431299
 20
3.5608066478
 10
6.2127258225
 20
3.5432516142
 10
6.1455211997
 20
3.5374284179
  0
LINE
  5
781
100
AcDbEntity
  8
0
100
AcDbLine
 62
9
  6
CONTINUOUS
 10
6.2266233452
 20
4.4188533162
 11
6.0268420151
 21
4.4188533162
  0
LINE
  5
782
100
AcDbEntity
  8
02___PRT_ALL_AXES
100
AcDbLine
 62
7
  6
CONTINUOUS
 10
6.3527165892
 20
4.458223395
 11
6.2304300596
 21
4.458223395
  0
LINE
  5
783
100
AcDbEntity
  8
0
100
AcDbLine
 62
7
  6
CONTINUOUS
 10
6.2304300596
 20
4.458223395
 11
6.0230353007
 21
4.458223395
  0
LINE
  5
784
100
AcDbEntity
  8
02___PRT_ALL_AXES
100
AcDbLine
 62
7
  6
CONTINUOUS
 10
6.0230353007
 20
4.458223395
 11
5.9007487711
 21
4.458223395
  0
LINE
  5
785
100
AcDbEntity
  8
02___PRT_ALL_AXES
100
AcDbLine
 62
7
  6
CONTINUOUS
 10
6.7115469845
 20
3.9628023219
 11
6.7115469845
 21
3.8709673027
  0
LINE
  5
786
100
AcDbEntity
  8
02___PRT_ALL_AXES
100
AcDbLine
 62
7
  6
CONTINUOUS
 10
6.7115469845
 20
3.8709673027
 11
6.6972142345
 21
3.7802576392
  0
LINE
  5
787
100
AcDbEntity
  8
02___PRT_ALL_AXES
100
AcDbLine
 62
7
  6
CONTINUOUS
 10
6.6972142345
 20
3.7802576392
 11
6.6689000045
 21
3.6928964629
  0
LINE
  5
788
100
AcDbEntity
  8
02___PRT_ALL_AXES
100
AcDbLine
 62
7
  6
CONTINUOUS
 10
6.6689000045
 20
3.6928964629
 11
6.6272982255
 21
3.6110248393
  0
LINE
  5
789
100
AcDbEntity
  8
02___PRT_ALL_AXES
100
AcDbLine
 62
7
  6
CONTINUOUS
 10
6.6272982255
 20
3.6110248393
 11
6.5734284825
 21
3.5366492953
  0
LINE
  5
78A
100
AcDbEntity
  8
02___PRT_ALL_AXES
100
AcDbLine
 62
7
  6
CONTINUOUS
 10
6.5734284825
 20
3.5366492953
 11
6.5086110264
 21
3.471592642
  0
LINE
  5
78B
100
AcDbEntity
  8
02___PRT_ALL_AXES
100
AcDbLine
 62
7
  6
CONTINUOUS
 10
6.5086110264
 20
3.471592642
 11
6.4344344167
 21
3.4174493014
  0
LINE
  5
78C
100
AcDbEntity
  8
02___PRT_ALL_AXES
100
AcDbLine
 62
7
  6
CONTINUOUS
 10
6.4344344167
 20
3.4174493014
 11
6.3527165892
 21
3.3755462296
  0
LINE
  5
78D
100
AcDbEntity
  8
0
100
AcDbLine
 62
9
  6
CONTINUOUS
 10
6.2341018939
 20
4.4975934737
 11
6.0193634664
 21
4.4975934737
  0
LINE
  5
78E
100
AcDbEntity
  8
02___PRT_ALL_AXES
100
AcDbLine
 62
7
  6
CONTINUOUS
 10
6.3527165892
 20
4.458223395
 11
6.4344344167
 21
4.4163203232
  0
LINE
  5
78F
100
AcDbEntity
  8
02___PRT_ALL_AXES
100
AcDbLine
 62
7
  6
CONTINUOUS
 10
6.4344344167
 20
4.4163203232
 11
6.5086110264
 21
4.3621769826
  0
LINE
  5
790
100
AcDbEntity
  8
02___PRT_ALL_AXES
100
AcDbLine
 62
7
  6
CONTINUOUS
 10
6.5086110264
 20
4.3621769826
 11
6.5734284825
 21
4.2971203293
  0
LINE
  5
791
100
AcDbEntity
  8
02___PRT_ALL_AXES
100
AcDbLine
 62
7
  6
CONTINUOUS
 10
6.5734284825
 20
4.2971203293
 11
6.6272982255
 21
4.2227447852
  0
LINE
  5
792
100
AcDbEntity
  8
02___PRT_ALL_AXES
100
AcDbLine
 62
7
  6
CONTINUOUS
 10
6.6272982255
 20
4.2227447852
 11
6.6689000045
 21
4.1408731617
  0
LINE
  5
793
100
AcDbEntity
  8
02___PRT_ALL_AXES
100
AcDbLine
 62
7
  6
CONTINUOUS
 10
6.6689000045
 20
4.1408731617
 11
6.6972142345
 21
4.0535119853
  0
LINE
  5
794
100
AcDbEntity
  8
02___PRT_ALL_AXES
100
AcDbLine
 62
7
  6
CONTINUOUS
 10
6.6972142345
 20
4.0535119853
 11
6.7115469845
 21
3.9628023219
  0
CIRCLE
  5
795
100
AcDbEntity
  8
0
100
AcDbCircle
 62
7
  6
CONTINUOUS
 10
15.2229827477
 20
1.1139932523
 40
0.252091
  0
CIRCLE
  5
796
100
AcDbEntity
  8
0
100
AcDbCircle
 62
7
  6
CONTINUOUS
 10
15.2229827477
 20
1.1139932523
 40
0.182698
  0
ARC
  5
797
100
AcDbEntity
  8
02___PRT_ALL_AXES
100
AcDbCircle
 62
7
  6
CONTINUOUS
 10
5.3983862235
 20
7.7406995947
 40
0.157480315
100
AcDbArc
 50
180.0
 51
270.0
  0
ARC
  5
798
100
AcDbEntity
  8
02___PRT_ALL_AXES
100
AcDbCircle
 62
7
  6
CONTINUOUS
 10
6.8550791368
 20
7.7406995947
 40
0.157480315
100
AcDbArc
 50
270.0
 51
360.0
  0
ARC
  5
799
100
AcDbEntity
  8
0
100
AcDbCircle
 62
7
  6
CONTINUOUS
 10
7.0275594873
 20
14.7170775475
 40
0.0787401575
100
AcDbArc
 50
1.0000000028
 51
90.0
  0
ARC
  5
79A
100
AcDbEntity
  8
0
100
AcDbCircle
 62
7
  6
CONTINUOUS
 10
5.225905873
 20
14.7170775475
 40
0.0787401575
100
AcDbArc
 50
90.0
 51
178.9999999972
  0
ARC
  5
79B
100
AcDbEntity
  8
02___PRT_ALL_AXES
100
AcDbCircle
 62
7
  6
CONTINUOUS
 10
5.1818507904
 20
8.1737704608
 40
0.0590551181
100
AcDbArc
 50
0.0
 51
90.0
  0
ARC
  5
79C
100
AcDbEntity
  8
02___PRT_ALL_AXES
100
AcDbCircle
 62
7
  6
CONTINUOUS
 10
7.0716145699
 20
8.1737704608
 40
0.0590551181
100
AcDbArc
 50
90.0
 51
180.0
  0
ARC
  5
79D
100
AcDbEntity
  8
02___PRT_ALL_AXES
100
AcDbCircle
 62
7
  6
CONTINUOUS
 10
5.1818507904
 20
8.2721956577
 40
0.0393700787
100
AcDbArc
 50
180.0
 51
270.0
  0
ARC
  5
79E
100
AcDbEntity
  8
02___PRT_ALL_AXES
100
AcDbCircle
 62
7
  6
CONTINUOUS
 10
7.0716145699
 20
8.2721956577
 40
0.0393700787
100
AcDbArc
 50
270.0
 51
360.0
  0
ARC
  5
79F
100
AcDbEntity
  8
0
100
AcDbCircle
 62
7
  6
CONTINUOUS
 10
6.6385437038
 20
6.8745578624
 40
0.0393700787
100
AcDbArc
 50
270.0
 51
360.0
  0
ARC
  5
7A0
100
AcDbEntity
  8
0
100
AcDbCircle
 62
7
  6
CONTINUOUS
 10
5.6149216565
 20
6.8745578624
 40
0.0393700787
100
AcDbArc
 50
180.0
 51
270.0
  0
ARC
  5
7A1
100
AcDbEntity
  8
0
100
AcDbCircle
 62
7
  6
CONTINUOUS
 10
5.536181499
 20
7.543849201
 40
0.0393700787
100
AcDbArc
 50
0.0
 51
90.0
  0
ARC
  5
7A2
100
AcDbEntity
  8
0
100
AcDbCircle
 62
7
  6
CONTINUOUS
 10
6.7172838613
 20
7.543849201
 40
0.0393700787
100
AcDbArc
 50
90.0
 51
180.0
  0
CIRCLE
  5
7A3
100
AcDbEntity
  8
AXIS_COSMETIC_THREADS
100
AcDbCircle
 62
7
  6
CONTINUOUS
 10
5.9298822864
 20
3.9168848123
 40
0.0255905512
  0
CIRCLE
  5
7A4
100
AcDbEntity
  8
AXIS_COSMETIC_THREADS
100
AcDbCircle
 62
7
  6
CONTINUOUS
 10
6.1267326802
 20
3.7200344186
 40
0.0255905512
  0
ARC
  5
7A5
100
AcDbEntity
  8
AXIS
100
AcDbCircle
 62
7
  6
CONTINUOUS
 10
6.1267326802
 20
3.9168848123
 40
0.9842519685
100
AcDbArc
 50
270.0
 51
90.0
  0
CIRCLE
  5
7A6
100
AcDbEntity
  8
02___PRT_ALL_AXES
100
AcDbCircle
 62
7
  6
CONTINUOUS
 10
6.1267326802
 20
3.9168848123
 40
0.9842519685
  0
CIRCLE
  5
7A7
100
AcDbEntity
  8
02___PRT_ALL_AXES
100
AcDbCircle
 62
9
  6
CONTINUOUS
 10
6.1267326802
 20
3.9168848123
 40
0.9448818898
  0
CIRCLE
  5
7A8
100
AcDbEntity
  8
02___PRT_ALL_AXES
100
AcDbCircle
 62
7
  6
CONTINUOUS
 10
6.1267326802
 20
3.9168848123
 40
0.8858267717
  0
CIRCLE
  5
7A9
100
AcDbEntity
  8
02___PRT_ALL_AXES
100
AcDbCircle
 62
9
  6
CONTINUOUS
 10
6.1267326802
 20
3.9168848123
 40
0.7283464567
  0
ARC
  5
7AA
100
AcDbEntity
  8
0
100
AcDbCircle
 62
9
  6
CONTINUOUS
 10
6.1267326802
 20
3.9168848123
 40
0.5905511811
100
AcDbArc
 50
100.4753138432
 51
259.5246861568
  0
ARC
  5
7AB
100
AcDbEntity
  8
0
100
AcDbCircle
 62
9
  6
CONTINUOUS
 10
6.1267326802
 20
3.9168848123
 40
0.5905511811
100
AcDbArc
 50
280.4753138432
 51
79.5246861568
  0
ARC
  5
7AC
100
AcDbEntity
  8
0
100
AcDbCircle
 62
7
  6
CONTINUOUS
 10
6.1267326802
 20
3.9168848123
 40
0.5511811024
100
AcDbArc
 50
280.8440625637
 51
79.1559374363
  0
ARC
  5
7AD
100
AcDbEntity
  8
0
100
AcDbCircle
 62
7
  6
CONTINUOUS
 10
6.1267326802
 20
3.9168848123
 40
0.5511811024
100
AcDbArc
 50
100.8440625637
 51
259.1559374363
  0
ARC
  5
7AE
100
AcDbEntity
  8
0
100
AcDbCircle
 62
9
  6
CONTINUOUS
 10
6.1267326802
 20
3.9168848123
 40
0.5118110236
100
AcDbArc
 50
101.2547126182
 51
258.7452873818
  0
ARC
  5
7AF
100
AcDbEntity
  8
0
100
AcDbCircle
 62
9
  6
CONTINUOUS
 10
6.1267326802
 20
3.9168848123
 40
0.5118110236
100
AcDbArc
 50
281.2547126182
 51
78.7452873818
  0
CIRCLE
  5
7B0
100
AcDbEntity
  8
0
100
AcDbCircle
 62
7
  6
CONTINUOUS
 10
6.1267326802
 20
3.9168848123
 40
0.3799212598
  0
CIRCLE
  5
7B1
100
AcDbEntity
  8
0
100
AcDbCircle
 62
7
  6
CONTINUOUS
 10
6.1267326802
 20
3.9168848123
 40
0.3208224134
  0
CIRCLE
  5
7B2
100
AcDbEntity
  8
0
100
AcDbCircle
 62
7
  6
CONTINUOUS
 10
6.1267326802
 20
3.9168848123
 40
0.3090551181
  0
CIRCLE
  5
7B3
100
AcDbEntity
  8
0
100
AcDbCircle
 62
7
  6
CONTINUOUS
 10
6.1267326802
 20
3.9168848123
 40
0.2952755906
  0
CIRCLE
  5
7B4
100
AcDbEntity
  8
0
100
AcDbCircle
 62
7
  6
CONTINUOUS
 10
6.1267326802
 20
3.9168848123
 40
0.292807021
  0
CIRCLE
  5
7B5
100
AcDbEntity
  8
0
100
AcDbCircle
 62
9
  6
CONTINUOUS
 10
6.1267326802
 20
3.9168848123
 40
0.277559055
  0
CIRCLE
  5
7B6
100
AcDbEntity
  8
0
100
AcDbCircle
 62
7
  6
CONTINUOUS
 10
6.1267326802
 20
3.9168848123
 40
0.1358267717
  0
CIRCLE
  5
7B7
100
AcDbEntity
  8
0
100
AcDbCircle
 62
7
  6
CONTINUOUS
 10
6.1267326802
 20
3.9168848123
 40
0.1200787402
  0
ARC
  5
7B8
100
AcDbEntity
  8
AXIS_COSMETIC_THREADS
100
AcDbCircle
 62
7
  6
CONTINUOUS
 10
6.1267326802
 20
3.9168848123
 40
0.1181102362
100
AcDbArc
 50
14.4775121859
 51
45.5224878141
  0
ARC
  5
7B9
100
AcDbEntity
  8
AXIS_COSMETIC_THREADS
100
AcDbCircle
 62
7
  6
CONTINUOUS
 10
6.1267326802
 20
3.9168848123
 40
0.1181102362
100
AcDbArc
 50
314.4775121859
 51
345.5224878141
  0
ARC
  5
7BA
100
AcDbEntity
  8
AXIS_COSMETIC_THREADS
100
AcDbCircle
 62
7
  6
CONTINUOUS
 10
6.1267326802
 20
3.9168848123
 40
0.1181102362
100
AcDbArc
 50
194.4775121859
 51
225.5224878141
  0
ARC
  5
7BB
100
AcDbEntity
  8
AXIS_COSMETIC_THREADS
100
AcDbCircle
 62
7
  6
CONTINUOUS
 10
6.1267326802
 20
3.9168848123
 40
0.1181102362
100
AcDbArc
 50
134.4775121859
 51
165.5224878141
  0
ARC
  5
7BC
100
AcDbEntity
  8
AXIS_COSMETIC_THREADS
100
AcDbCircle
 62
7
  6
CONTINUOUS
 10
6.1267326802
 20
3.9168848123
 40
0.1181102362
100
AcDbArc
 50
74.4775121859
 51
105.5224878141
  0
ARC
  5
7BD
100
AcDbEntity
  8
AXIS_COSMETIC_THREADS
100
AcDbCircle
 62
7
  6
CONTINUOUS
 10
6.1267326802
 20
3.9168848123
 40
0.1181102362
100
AcDbArc
 50
254.4775121859
 51
285.5224878141
  0
CIRCLE
  5
7BE
100
AcDbEntity
  8
02___PRT_ALL_AXES
100
AcDbCircle
 62
7
  6
CONTINUOUS
 10
6.1267326802
 20
3.9168848123
 40
0.1075
  0
CIRCLE
  5
7BF
100
AcDbEntity
  8
AXIS_COSMETIC_THREADS
100
AcDbCircle
 62
7
  6
CONTINUOUS
 10
6.1267326802
 20
4.113735206
 40
0.0255905512
  0
CIRCLE
  5
7C0
100
AcDbEntity
  8
AXIS_COSMETIC_THREADS
100
AcDbCircle
 62
7
  6
CONTINUOUS
 10
6.3235830739
 20
3.9168848123
 40
0.0255905512
  0
ENDSEC
  0
SECTION
  2
OBJECTS
  0
DICTIONARY
  5
C
100
AcDbDictionary
280
0
281
1
  3
ACAD_GROUP
350
D
  3
ACAD_MLINESTYLE
350
17
  3
ACAD_LAYOUT
350
1A
  3
ACAD_PLOTSETTINGS
350
19
  3
ACAD_PLOTSTYLENAME
350
E
  0
DICTIONARY
  5
D
102
{ACAD_REACTORS
330
C
102
}
100
AcDbDictionary
280
0
281
1
  0
ACDBDICTIONARYWDFLT
  5
E
102
{ACAD_REACTORS
330
C
102
}
100
AcDbDictionary
281
1
  3
Normal
350
F
100
AcDbDictionaryWithDefault
340
F
  0
DICTIONARY
  5
17
102
{ACAD_REACTORS
330
C
102
}
100
AcDbDictionary
280
0
281
1
  3
Standard
350
18
  0
DICTIONARY
  5
19
102
{ACAD_REACTORS
330
C
102
}
100
AcDbDictionary
281
1
  0
DICTIONARY
  5
1A
102
{ACAD_REACTORS
330
C
102
}
100
AcDbDictionary
281
1
  3
Layout1
350
1E
  3
Model
350
22
  0
ACDBPLACEHOLDER
  5
F
102
{ACAD_REACTORS
330
E
102
}
  0
MLINESTYLE
  5
18
102
{ACAD_REACTORS
330
17
102
}
100
AcDbMlineStyle
  2
STANDARD
 70
0
  3

 62
256
 51
90.0
 52
90.0
 71
2
 49
0.5
 62
256
  6
BYLAYER
 49
-0.5
 62
256
  6
BYLAYER
  0
LAYOUT
  5
1E
102
{ACAD_REACTORS
330
1A
102
}
100
AcDbPlotSettings
  1

  2

  4

  6

 40
0.0
 41
0.0
 42
0.0
 43
0.0
 44
0.0
 45
0.0
 46
0.0
 47
0.0
 48
0.0
 49
0.0
140
0.0
141
0.0
142
1.0
143
1.0
 70
0
 72
0
 73
0
 74
0
  7

 75
0
147
1.0
148
0.0
149
0.0
100
AcDbLayout
  1
Layout1
 70
0
 71
0
 10
0.0
 20
0.0
 11
0.0
 21
0.0
 12
0.0
 22
0.0
 32
0.0
 14
0.0
 24
0.0
 34
0.0
 15
0.0
 25
0.0
 35
0.0
146
0.0
 13
0.0
 23
0.0
 33
0.0
 16
0.0
 26
0.0
 36
0.0
 17
0.0
 27
0.0
 37
0.0
 76
0
330
1B
331
0
345
0
346
0
  0
LAYOUT
  5
22
102
{ACAD_REACTORS
330
1A
102
}
100
AcDbPlotSettings
  1

  2

  4

  6

 40
0.0
 41
0.0
 42
0.0
 43
0.0
 44
0.0
 45
0.0
 46
0.0
 47
0.0
 48
0.0
 49
0.0
140
0.0
141
0.0
142
1.0
143
1.0
 70
0
 72
0
 73
0
 74
0
  7

 75
0
147
1.0
148
0.0
149
0.0
100
AcDbLayout
  1
Model
 70
0
 71
0
 10
0.0
 20
0.0
 11
0.0
 21
0.0
 12
0.0
 22
0.0
 32
0.0
 14
0.0
 24
0.0
 34
0.0
 15
0.0
 25
0.0
 35
0.0
146
0.0
 13
0.0
 23
0.0
 33
0.0
 16
0.0
 26
0.0
 36
0.0
 17
0.0
 27
0.0
 37
0.0
 76
0
330
1F
331
0
345
0
346
0
  0
ENDSEC
  0
EOF
