999
DXF file: 145183_1.dxf
999
Pro/ENGINEER 2019292 by Parametric Technology Corporation
  0
SECTION
  2
HEADER
  9
$ACADVER
  1
AC1027
  9
$DWGCODEPAGE
  3
ANSI_1252
  9
$EXTMAX
 10
22.0
 20
17.0
 30
0.0
  9
$EXTMIN
 10
0.0
 20
0.0
 30
0.0
  9
$LIMMIN
 10
0.0
 20
0.0
  9
$LIMMAX
 10
22.0
 20
17.0
  9
$VIEWCTR
 10
11.0
 20
8.5
  9
$VIEWSIZE
 40
17.0
  9
$CLAYER
  8
0
  9
$LTSCALE
 40
1.21
  9
$CELTYPE
  6
BYLAYER
  9
$DIMSCALE
 40
1.0
  9
$DIMASZ
 40
0.1875
  9
$DIMEXO
 40
0.0625
  9
$DIMDLI
 40
0.836
  9
$DIMEXE
 40
0.125
  9
$DIMCEN
 40
0.198
  9
$DIMLFAC
 40
1.0
  9
$DIMBLK
  1
_FILLED
  9
$DIMALT
 70
1
  9
$DIMALTD
 70
2
  9
$DIMALTTD
 70
2
  9
$DIMALTF
 40
25.4
  9
$DIMTXT
 40
0.1
  9
$DIMTOL
 70
1
  9
$DIMLIM
 70
0
  9
$DIMTFAC
 40
1.0
  9
$DIMTP
 40
0.005
  9
$DIMTM
 40
0.005
  9
$DIMGAP
 40
0.09
  9
$DIMDSEP
 70
46
  9
$AUNITS
 70
0
  9
$PDMODE
 70
3
  9
$PDSIZE
 40
0.3125
  9
$HANDSEED
  5
6BF
  9
$TILEMODE
 70
1
  9
$MEASUREMENT
 70
0
  9
$INSUNITS
 70
1
  0
ENDSEC
  0
SECTION
  2
CLASSES
  0
CLASS
  1
ACDBDICTIONARYWDFLT
  2
AcDbDictionaryWithDefault
  3
AutoCAD 2000
 90
0
 91
1
280
0
281
0
  0
CLASS
  1
ACDBPLACEHOLDER
  2
AcDbPlaceHolder
  3
AutoCAD 2000
 90
0
 91
1
280
0
281
0
  0
CLASS
  1
LAYOUT
  2
AcDbLayout
  3
AutoCAD 2000
 90
0
 91
0
280
0
281
0
  0
CLASS
  1
TABLESTYLE
  2
AcDbTableStyle
  3
ObjectDBX Classes
 90
2047
 91
1
280
0
281
0
  0
CLASS
  1
ACAD_TABLE
  2
AcDbTable
  3
ObjectDBX Classes
 90
1025
 91
1
280
0
281
1
  0
ENDSEC
  0
SECTION
  2
TABLES
  0
TABLE
  2
VPORT
  5
8
100
AcDbSymbolTable
 70
2
  0
VPORT
  5
1F4
100
AcDbSymbolTableRecord
100
AcDbViewportTableRecord
  2
*ACTIVE
 70
0
 10
0.0
 20
0.0
 11
1.0
 21
1.0
 12
11.0
 22
8.5
 13
0.0
 23
0.0
 14
1.0
 24
1.0
 15
0.0
 25
0.0
 16
0.0
 26
0.0
 36
1.0
 17
0.0
 27
0.0
 37
0.0
 40
17.0
 41
1.2941176471
 42
50.0
 43
0.0
 44
0.0
 50
0.0
 51
0.0
 71
0
 72
100
 73
1
 74
1
 75
0
 76
0
 77
0
 78
0
  0
ENDTAB
  0
TABLE
  2
LTYPE
  5
5
100
AcDbSymbolTable
 70
6
  0
LTYPE
  5
14
100
AcDbSymbolTableRecord
100
AcDbLinetypeTableRecord
  2
BYBLOCK
 70
0
  3

 72
65
 73
0
 40
0.0
  0
LTYPE
  5
15
100
AcDbSymbolTableRecord
100
AcDbLinetypeTableRecord
  2
BYLAYER
 70
0
  3

 72
65
 73
0
 40
0.0
  0
LTYPE
  5
16
100
AcDbSymbolTableRecord
100
AcDbLinetypeTableRecord
  2
CONTINUOUS
 70
64
  3
Solid line
 72
65
 73
0
 40
0.0
  0
LTYPE
  5
1F5
100
AcDbSymbolTableRecord
100
AcDbLinetypeTableRecord
  2
CENTER
 70
64
  3
____ _ ____ _ ____ _ ____ _ ____ _ ____ _ ____
 72
65
 73
4
 40
0.6
 49
0.375
 74
0
 49
-0.075
 74
0
 49
0.075
 74
0
 49
-0.075
 74
0
  0
LTYPE
  5
1F6
100
AcDbSymbolTableRecord
100
AcDbLinetypeTableRecord
  2
HIDDEN
 70
64
  3
- - - - - - - - - - - - - - - - - - - -
 72
65
 73
2
 40
0.2
 49
0.1
 74
0
 49
-0.1
 74
0
  0
LTYPE
  5
1F7
100
AcDbSymbolTableRecord
100
AcDbLinetypeTableRecord
  2
PHANTOM
 70
64
  3
_____ _ _ _____ _ _ _____ _ _ _____
 72
65
 73
6
 40
0.8
 49
0.45
 74
0
 49
-0.05
 74
0
 49
0.1
 74
0
 49
-0.05
 74
0
 49
0.1
 74
0
 49
-0.05
 74
0
  0
LTYPE
  5
1F8
100
AcDbSymbolTableRecord
100
AcDbLinetypeTableRecord
  2
DOT
 70
64
  3
. . . . . . . . . . . . . . . . . . . .
 72
65
 73
2
 40
0.2
 49
0.1
 74
0
 49
-0.1
 74
0
  0
LTYPE
  5
1F9
100
AcDbSymbolTableRecord
100
AcDbLinetypeTableRecord
  2
DASHED
 70
64
  3
- - - - - - - - - - - - - - - - - - - -
 72
65
 73
2
 40
0.2
 49
0.1
 74
0
 49
-0.1
 74
0
  0
ENDTAB
  0
TABLE
  2
LAYER
  5
2
100
AcDbSymbolTable
 70
36
  0
LAYER
  5
10
100
AcDbSymbolTableRecord
100
AcDbLayerTableRecord
  2
0
 70
0
 62
7
  6
CONTINUOUS
370
-3
390
F
  0
LAYER
  5
1FA
100
AcDbSymbolTableRecord
100
AcDbLayerTableRecord
  2
DEFAULT_1
 70
0
 62
7
  6
CENTER
370
-3
390
F
  0
LAYER
  5
1FB
100
AcDbSymbolTableRecord
100
AcDbLayerTableRecord
  2
DEFAULT_2
 70
0
 62
7
  6
HIDDEN
370
-3
390
F
  0
LAYER
  5
1FC
100
AcDbSymbolTableRecord
100
AcDbLayerTableRecord
  2
DEFAULT_3
 70
0
 62
7
  6
PHANTOM
370
-3
390
F
  0
LAYER
  5
1FD
100
AcDbSymbolTableRecord
100
AcDbLayerTableRecord
  2
01___PRT_ALL_DTM_PLN
 70
0
 62
7
  6
CONTINUOUS
370
-3
390
F
  0
LAYER
  5
1FE
100
AcDbSymbolTableRecord
100
AcDbLayerTableRecord
  2
01___PRT_DEF_DTM_PLN
 70
0
 62
7
  6
CONTINUOUS
370
-3
390
F
  0
LAYER
  5
1FF
100
AcDbSymbolTableRecord
100
AcDbLayerTableRecord
  2
02___PRT_ALL_AXES
 70
0
 62
7
  6
CONTINUOUS
370
-3
390
F
  0
LAYER
  5
200
100
AcDbSymbolTableRecord
100
AcDbLayerTableRecord
  2
03___PRT_ALL_CURVES
 70
0
 62
7
  6
CONTINUOUS
370
-3
390
F
  0
LAYER
  5
201
100
AcDbSymbolTableRecord
100
AcDbLayerTableRecord
  2
04___PRT_ALL_DTM_PNT
 70
0
 62
7
  6
CONTINUOUS
370
-3
390
F
  0
LAYER
  5
202
100
AcDbSymbolTableRecord
100
AcDbLayerTableRecord
  2
05___PRT_ALL_DTM_CSYS
 70
0
 62
7
  6
CONTINUOUS
370
-3
390
F
  0
LAYER
  5
203
100
AcDbSymbolTableRecord
100
AcDbLayerTableRecord
  2
05___PRT_DEF_DTM_CSYS
 70
0
 62
7
  6
CONTINUOUS
370
-3
390
F
  0
LAYER
  5
204
100
AcDbSymbolTableRecord
100
AcDbLayerTableRecord
  2
06___PRT_ALL_SURFS
 70
0
 62
7
  6
CONTINUOUS
370
-3
390
F
  0
LAYER
  5
205
100
AcDbSymbolTableRecord
100
AcDbLayerTableRecord
  2
AXIS
 70
0
 62
7
  6
CONTINUOUS
370
-3
390
F
  0
LAYER
  5
206
100
AcDbSymbolTableRecord
100
AcDbLayerTableRecord
  2
AXIS_COSMETIC_THREADS
 70
0
 62
7
  6
CONTINUOUS
370
-3
390
F
  0
LAYER
  5
207
100
AcDbSymbolTableRecord
100
AcDbLayerTableRecord
  2
DATUM_CURVES
 70
0
 62
7
  6
CONTINUOUS
370
-3
390
F
  0
LAYER
  5
208
100
AcDbSymbolTableRecord
100
AcDbLayerTableRecord
  2
DATUM_PLANES
 70
0
 62
7
  6
CONTINUOUS
370
-3
390
F
  0
LAYER
  5
209
100
AcDbSymbolTableRecord
100
AcDbLayerTableRecord
  2
HIDE
 70
0
 62
7
  6
CONTINUOUS
370
-3
390
F
  0
LAYER
  5
20A
100
AcDbSymbolTableRecord
100
AcDbLayerTableRecord
  2
NOTES
 70
0
 62
7
  6
CONTINUOUS
370
-3
390
F
  0
LAYER
  5
20B
100
AcDbSymbolTableRecord
100
AcDbLayerTableRecord
  2
QUILTS
 70
0
 62
7
  6
CONTINUOUS
370
-3
390
F
  0
LAYER
  5
20C
100
AcDbSymbolTableRecord
100
AcDbLayerTableRecord
  2
SCHEME_DIMS
 70
0
 62
7
  6
CONTINUOUS
370
-3
390
F
  0
LAYER
  5
20D
100
AcDbSymbolTableRecord
100
AcDbLayerTableRecord
  2
SYMBOLS
 70
0
 62
7
  6
CONTINUOUS
370
-3
390
F
  0
ENDTAB
  0
TABLE
  2
STYLE
  5
3
100
AcDbSymbolTable
 70
1
  0
STYLE
  5
11
100
AcDbSymbolTableRecord
100
AcDbTextStyleTableRecord
  2
STANDARD
 70
0
 40
0.0
 41
1.0
 50
0.0
 71
0
 42
0.2
  3
txt
  4

  0
STYLE
  5
20E
100
AcDbSymbolTableRecord
100
AcDbTextStyleTableRecord
  2
TEXTSTYLE_1
 70
0
 40
0.0
 41
0.8
 50
0.0
 71
0
 42
0.2
  3
gdt
  4

  0
STYLE
  5
20F
100
AcDbSymbolTableRecord
100
AcDbTextStyleTableRecord
  2
TEXTSTYLE_2
 70
0
 40
0.0
 41
0.8
 50
0.0
 71
0
 42
0.2
  3
txt
  4

  0
STYLE
  5
210
100
AcDbSymbolTableRecord
100
AcDbTextStyleTableRecord
  2
TEXTSTYLE_3
 70
0
 40
0.0
 41
0.9
 50
0.0
 71
0
 42
0.2
  3
txt
  4

  0
STYLE
  5
211
100
AcDbSymbolTableRecord
100
AcDbTextStyleTableRecord
  2
TEXTSTYLE_4
 70
0
 40
0.0
 41
0.85
 50
0.0
 71
0
 42
0.2
  3
txt
  4

  0
STYLE
  5
212
100
AcDbSymbolTableRecord
100
AcDbTextStyleTableRecord
  2
TEXTSTYLE_5
 70
0
 40
0.0
 41
0.75
 50
0.0
 71
0
 42
0.2
  3
txt
  4

  0
STYLE
  5
213
100
AcDbSymbolTableRecord
100
AcDbTextStyleTableRecord
  2
TEXTSTYLE_6
 70
0
 40
0.0
 41
1.0
 50
0.0
 71
0
 42
0.2
  3
gdt
  4

  0
ENDTAB
  0
TABLE
  2
VIEW
  5
6
100
AcDbSymbolTable
 70
0
  0
ENDTAB
  0
TABLE
  2
UCS
  5
7
100
AcDbSymbolTable
 70
0
  0
ENDTAB
  0
TABLE
  2
APPID
  5
9
100
AcDbSymbolTable
 70
1
  0
APPID
  5
214
100
AcDbSymbolTableRecord
100
AcDbRegAppTableRecord
  2
ACAD
 70
0
  0
ENDTAB
  0
TABLE
  2
BLOCK_RECORD
  5
1
100
AcDbSymbolTable
 70
0
  0
BLOCK_RECORD
  5
215
100
AcDbSymbolTableRecord
100
AcDbBlockTableRecord
  2
*Model_Space
  0
BLOCK_RECORD
  5
216
100
AcDbSymbolTableRecord
100
AcDbBlockTableRecord
  2
*Paper_Space
  0
BLOCK_RECORD
  5
217
100
AcDbSymbolTableRecord
100
AcDbBlockTableRecord
  2
_FILLED
  0
BLOCK_RECORD
  5
218
100
AcDbSymbolTableRecord
100
AcDbBlockTableRecord
  2
*D0
  0
BLOCK_RECORD
  5
219
100
AcDbSymbolTableRecord
100
AcDbBlockTableRecord
  2
*D1
  0
BLOCK_RECORD
  5
21A
100
AcDbSymbolTableRecord
100
AcDbBlockTableRecord
  2
*D2
  0
BLOCK_RECORD
  5
21B
100
AcDbSymbolTableRecord
100
AcDbBlockTableRecord
  2
*D3
  0
BLOCK_RECORD
  5
21C
100
AcDbSymbolTableRecord
100
AcDbBlockTableRecord
  2
*D4
  0
BLOCK_RECORD
  5
21D
100
AcDbSymbolTableRecord
100
AcDbBlockTableRecord
  2
*T1
  0
ENDTAB
  0
TABLE
  2
DIMSTYLE
  5
A
100
AcDbSymbolTable
 70
1
100
AcDbDimStyleTable
 71
0
  0
DIMSTYLE
105
21E
100
AcDbSymbolTableRecord
100
AcDbDimStyleTableRecord
  2
STANDARD
 70
0
  3

  4

 40
1.0
 41
0.1875
 42
0.0625
 43
0.38
 44
0.125
 45
0.0
 46
0.0
 47
0.005
 48
0.005
140
0.1
141
0.09
142
0.0
143
1.0
144
1.0
145
0.0
146
1.0
147
0.09
 71
1.0
 72
0.0
 73
1
 74
1
 75
0
 76
0
 77
0
 78
4
 79
1
170
1
171
2
172
0
173
0
174
0
175
0
176
0
177
0
178
0
270
2
179
3
271
3
272
3
273
2
274
2
275
0
280
0
281
0
282
0
283
1
284
4
285
0
286
0
287
3
288
0
340
11
278
46
341
217
342
217
343
217
344
217
  0
DIMSTYLE
105
21F
100
AcDbSymbolTableRecord
100
AcDbDimStyleTableRecord
  2
DIMSTYLE_1
 70
0
  3

  4

 40
1.0
 41
0.1875
 42
0.0625
 43
0.38
 44
0.125
 45
0.0
 46
0.0
 47
0.1
 48
0.1
140
0.1
141
0.09
142
0.0
143
1.0
144
1.0
145
0.0
146
1.0
147
0.1
 71
0.0
 72
0.0
 73
1
 74
1
 75
0
 76
0
 77
0
 78
4
 79
1
170
1
171
2
172
0
173
0
174
0
175
0
176
0
177
0
178
0
270
2
179
3
271
1
272
3
273
2
274
-14
275
0
280
0
281
0
282
0
283
1
284
4
285
0
286
0
287
3
288
0
340
11
278
46
341
217
342
217
343
217
344
217
  0
DIMSTYLE
105
220
100
AcDbSymbolTableRecord
100
AcDbDimStyleTableRecord
  2
DIMSTYLE_2
 70
0
  3
<>
  4

 40
1.0
 41
0.1875
 42
0.0625
 43
0.38
 44
0.125
 45
0.0
 46
0.0
 47
0.1
 48
0.1
140
0.1
141
0.09
142
0.0
143
1.0
144
1.0
145
0.0
146
1.0
147
0.09
 71
0.0
 72
0.0
 73
1
 74
1
 75
0
 76
0
 77
0
 78
4
 79
1
170
1
171
2
172
1
173
0
174
0
175
0
176
0
177
0
178
0
270
2
179
3
271
1
272
3
273
2
274
-14
275
0
280
0
281
0
282
0
283
1
284
4
285
0
286
0
287
3
288
1
340
11
278
46
289
2
341
217
342
217
343
217
344
217
  0
ENDTAB
  0
ENDSEC
  0
SECTION
  2
BLOCKS
  0
BLOCK
  5
20
100
AcDbEntity
  8
0
100
AcDbBlockBegin
  2
*Model_Space
 70
0
 10
0.0
 20
0.0
 30
0.0
  3
*Model_Space
  1

  0
ENDBLK
  5
21
100
AcDbEntity
  8
0
100
AcDbBlockEnd
  0
BLOCK
  5
1C
100
AcDbEntity
  8
0
100
AcDbBlockBegin
  2
*Paper_Space
 70
0
 10
0.0
 20
0.0
 30
0.0
  3
*Paper_Space
  1

  0
ENDBLK
  5
1D
100
AcDbEntity
  8
0
100
AcDbBlockEnd
  0
BLOCK
  5
221
100
AcDbEntity
  8
0
100
AcDbBlockBegin
  2
_FILLED
 70
64
 10
0.0
 20
0.0
  3
_FILLED
  1

  0
SOLID
  5
222
100
AcDbEntity
  8
0
  6
BYBLOCK
 62
0
100
AcDbTrace
 10
0.0
 20
0.0
 11
-1.0
 21
0.1666666667
 12
-1.0
 22
-0.1666666667
 13
-1.0
 23
-0.1666666667
  0
ENDBLK
  5
223
100
AcDbEntity
  8
0
  6
BYBLOCK
 62
0
100
AcDbBlockEnd
  0
BLOCK
  5
224
100
AcDbEntity
  8
SCHEME_DIMS
100
AcDbBlockBegin
 62
7
  6
CONTINUOUS
  2
*D0
 70
65
 10
0.0
 20
0.0
  3
*D0
  1

  0
MTEXT
  5
225
100
AcDbEntity
  8
SCHEME_DIMS
100
AcDbMText
 62
7
  6
CONTINUOUS
  7
STANDARD
 71
2
 72
1
 10
7.4609846487
 20
8.1353846341
 30
0.0
 11
1.0
 21
0.0
 31
0.0
 73
2
 44
0.9
  1
19\P[.75]
 40
0.1
 41
0.5
  0
LINE
  5
226
100
AcDbEntity
  8
SCHEME_DIMS
100
AcDbLine
 62
7
  6
CONTINUOUS
 10
6.7010437038
 20
7.636368886
 11
7.7359846487
 21
7.636368886
  0
LINE
  5
227
100
AcDbEntity
  8
SCHEME_DIMS
100
AcDbLine
 62
7
  6
CONTINUOUS
 10
6.9642967565
 20
8.3844003821
 11
6.9895621123
 21
8.3844003821
  0
LINE
  5
228
100
AcDbEntity
  8
SCHEME_DIMS
100
AcDbLine
 62
7
  6
CONTINUOUS
 10
7.0321591493
 20
8.3844003821
 11
7.7359846487
 21
8.3844003821
  0
LINE
  5
229
100
AcDbEntity
  8
SCHEME_DIMS
100
AcDbLine
 62
7
  6
CONTINUOUS
 10
7.6109846487
 20
7.636368886
 11
7.6109846487
 21
7.236368886
  0
LINE
  5
22A
100
AcDbEntity
  8
SCHEME_DIMS
100
AcDbLine
 62
7
  6
CONTINUOUS
 10
7.6109846487
 20
8.3844003821
 11
7.6109846487
 21
8.7844003821
  0
INSERT
  5
22B
100
AcDbEntity
  8
SCHEME_DIMS
100
AcDbBlockReference
 62
7
  6
CONTINUOUS
  2
_FILLED
 10
7.6109846487
 20
7.636368886
 41
0.1875
 42
0.1875
 43
0.1875
 50
90.0
  0
INSERT
  5
22C
100
AcDbEntity
  8
SCHEME_DIMS
100
AcDbBlockReference
 62
7
  6
CONTINUOUS
  2
_FILLED
 10
7.6109846487
 20
8.3844003821
 41
0.1875
 42
0.1875
 43
0.1875
 50
270.0
  0
ENDBLK
  5
22D
100
AcDbEntity
  8
0
  6
BYBLOCK
 62
0
100
AcDbBlockEnd
  0
BLOCK
  5
22E
100
AcDbEntity
  8
SCHEME_DIMS
100
AcDbBlockBegin
 62
7
  6
CONTINUOUS
  2
*D1
 70
65
 10
0.0
 20
0.0
  3
*D1
  1

  0
MTEXT
  5
22F
100
AcDbEntity
  8
SCHEME_DIMS
100
AcDbMText
 62
7
  6
CONTINUOUS
  7
STANDARD
 71
2
 72
1
 10
8.3109846487
 20
11.0167199728
 30
0.0
 11
1.0
 21
0.0
 31
0.0
 73
2
 44
0.9
  1
161,5\P[6.36]
 40
0.1
 41
0.6
  0
LINE
  5
230
100
AcDbEntity
  8
SCHEME_DIMS
100
AcDbLine
 62
7
  6
CONTINUOUS
 10
6.7010437038
 20
7.636368886
 11
8.4859846487
 21
7.636368886
  0
LINE
  5
231
100
AcDbEntity
  8
SCHEME_DIMS
100
AcDbLine
 62
7
  6
CONTINUOUS
 10
7.1347090293
 20
13.9946366026
 11
8.4859846487
 21
13.9946366026
  0
LINE
  5
232
100
AcDbEntity
  8
SCHEME_DIMS
100
AcDbLine
 62
7
  6
CONTINUOUS
 10
8.3609846487
 20
7.636368886
 11
8.3609846487
 21
10.6667199728
  0
LINE
  5
233
100
AcDbEntity
  8
SCHEME_DIMS
100
AcDbLine
 62
7
  6
CONTINUOUS
 10
8.3609846487
 20
13.9946366026
 11
8.3609846487
 21
11.1167199728
  0
INSERT
  5
234
100
AcDbEntity
  8
SCHEME_DIMS
100
AcDbBlockReference
 62
7
  6
CONTINUOUS
  2
_FILLED
 10
8.3609846487
 20
7.636368886
 41
0.1875
 42
0.1875
 43
0.1875
 50
270.0
  0
INSERT
  5
235
100
AcDbEntity
  8
SCHEME_DIMS
100
AcDbBlockReference
 62
7
  6
CONTINUOUS
  2
_FILLED
 10
8.3609846487
 20
13.9946366026
 41
0.1875
 42
0.1875
 43
0.1875
 50
90.0
  0
ENDBLK
  5
236
100
AcDbEntity
  8
0
  6
BYBLOCK
 62
0
100
AcDbBlockEnd
  0
BLOCK
  5
237
100
AcDbEntity
  8
SCHEME_DIMS
100
AcDbBlockBegin
 62
7
  6
CONTINUOUS
  2
*D2
 70
65
 10
0.0
 20
0.0
  3
*D2
  1

  0
MTEXT
  5
238
100
AcDbEntity
  8
SCHEME_DIMS
100
AcDbMText
 62
7
  6
CONTINUOUS
  7
STANDARD
 71
2
 72
1
 10
5.9267326802
 20
6.3740748087
 30
0.0
 11
1.0
 21
0.0
 31
0.0
 73
2
 44
0.9
  1
45\P[1.77]
 40
0.1
 41
0.6
  0
LINE
  5
239
100
AcDbEntity
  8
SCHEME_DIMS
100
AcDbLine
 62
7
  6
CONTINUOUS
 10
5.2409059085
 20
8.4157505773
 11
5.2409059085
 21
7.6765615034
  0
LINE
  5
23A
100
AcDbEntity
  8
SCHEME_DIMS
100
AcDbLine
 62
7
  6
CONTINUOUS
 10
5.2409059085
 20
7.6200787729
 11
5.2409059085
 21
6.1990748087
  0
LINE
  5
23B
100
AcDbEntity
  8
SCHEME_DIMS
100
AcDbLine
 62
7
  6
CONTINUOUS
 10
7.0125594518
 20
8.4088031323
 11
7.0125594518
 21
7.6758001208
  0
LINE
  5
23C
100
AcDbEntity
  8
SCHEME_DIMS
100
AcDbLine
 62
7
  6
CONTINUOUS
 10
7.0125594518
 20
7.5993375765
 11
7.0125594518
 21
6.1990748087
  0
LINE
  5
23D
100
AcDbEntity
  8
SCHEME_DIMS
100
AcDbLine
 62
7
  6
CONTINUOUS
 10
5.2409059085
 20
6.3240748087
 11
5.7267326802
 21
6.3240748087
  0
LINE
  5
23E
100
AcDbEntity
  8
SCHEME_DIMS
100
AcDbLine
 62
7
  6
CONTINUOUS
 10
7.0125594518
 20
6.3240748087
 11
6.5267326802
 21
6.3240748087
  0
INSERT
  5
23F
100
AcDbEntity
  8
SCHEME_DIMS
100
AcDbBlockReference
 62
7
  6
CONTINUOUS
  2
_FILLED
 10
5.2409059085
 20
6.3240748087
 41
0.1875
 42
0.1875
 43
0.1875
 50
180.0
  0
INSERT
  5
240
100
AcDbEntity
  8
SCHEME_DIMS
100
AcDbBlockReference
 62
7
  6
CONTINUOUS
  2
_FILLED
 10
7.0125594518
 20
6.3240748087
 41
0.1875
 42
0.1875
 43
0.1875
  0
ENDBLK
  5
241
100
AcDbEntity
  8
0
  6
BYBLOCK
 62
0
100
AcDbBlockEnd
  0
BLOCK
  5
242
100
AcDbEntity
  8
SCHEME_DIMS
100
AcDbBlockBegin
 62
7
  6
CONTINUOUS
  2
*D3
 70
65
 10
0.0
 20
0.0
  3
*D3
  1

  0
MTEXT
  5
243
100
AcDbEntity
  8
SCHEME_DIMS
100
AcDbMText
 62
7
  6
CONTINUOUS
  7
TEXTSTYLE_6
 71
1
 72
1
 10
7.4647947649
 20
4.9770220021
 30
0.0
 11
1.0
 21
0.0
 31
0.0
 73
2
 44
0.9
  1
{\fgdt;n}\ftxt;50\P[1.97]
 40
0.1
 41
0.6
  0
LINE
  5
244
100
AcDbEntity
  8
SCHEME_DIMS
100
AcDbLine
 62
7
  6
CONTINUOUS
 10
6.9194537257
 20
4.7096701838
 11
6.1267326802
 21
4.126278993
  0
LINE
  5
245
100
AcDbEntity
  8
SCHEME_DIMS
100
AcDbLine
 62
7
  6
CONTINUOUS
 10
6.1267326802
 20
4.126278993
 11
7.2147947649
 21
4.9270220021
  0
LINE
  5
246
100
AcDbEntity
  8
SCHEME_DIMS
100
AcDbLine
 62
7
  6
CONTINUOUS
 10
7.2147947649
 20
4.9270220021
 11
7.3647947649
 21
4.9270220021
  0
LINE
  5
247
100
AcDbEntity
  8
SCHEME_DIMS
100
AcDbLine
 62
7
  6
CONTINUOUS
 10
5.3340116346
 20
3.5428878022
 11
6.1267326802
 21
4.126278993
  0
INSERT
  5
248
100
AcDbEntity
  8
SCHEME_DIMS
100
AcDbBlockReference
 62
7
  6
CONTINUOUS
  2
_FILLED
 10
6.9194537257
 20
4.7096701838
 41
0.1875
 42
0.1875
 43
0.1875
 50
36.3506538711
  0
INSERT
  5
249
100
AcDbEntity
  8
SCHEME_DIMS
100
AcDbBlockReference
 62
7
  6
CONTINUOUS
  2
_FILLED
 10
5.3340116346
 20
3.5428878022
 41
0.1875
 42
0.1875
 43
0.1875
 50
216.3506538711
  0
ENDBLK
  5
24A
100
AcDbEntity
  8
0
  6
BYBLOCK
 62
0
100
AcDbBlockEnd
  0
BLOCK
  5
24B
100
AcDbEntity
  8
SCHEME_DIMS
100
AcDbBlockBegin
 62
7
  6
CONTINUOUS
  2
*D4
 70
65
 10
0.0
 20
0.0
  3
*D4
  1

  0
MTEXT
  5
24C
100
AcDbEntity
  8
SCHEME_DIMS
100
AcDbMText
 62
7
  6
CONTINUOUS
  7
STANDARD
 71
2
 72
1
 10
7.5109846487
 20
9.9639279412
 30
0.0
 11
1.0
 21
0.0
 31
0.0
 73
2
 44
0.9
  1
3X 26,9\P[1.06]
 40
0.1
 41
0.7
  0
LINE
  5
24D
100
AcDbEntity
  8
SCHEME_DIMS
100
AcDbLine
 62
7
  6
CONTINUOUS
 10
7.1734846487
 20
9.3844003821
 11
7.7359846487
 21
9.3844003821
  0
LINE
  5
24E
100
AcDbEntity
  8
SCHEME_DIMS
100
AcDbLine
 62
7
  6
CONTINUOUS
 10
7.1734846487
 20
10.4434555002
 11
7.7359846487
 21
10.4434555002
  0
LINE
  5
24F
100
AcDbEntity
  8
SCHEME_DIMS
100
AcDbLine
 62
7
  6
CONTINUOUS
 10
7.6109846487
 20
9.3844003821
 11
7.6109846487
 21
9.6139279412
  0
LINE
  5
250
100
AcDbEntity
  8
SCHEME_DIMS
100
AcDbLine
 62
7
  6
CONTINUOUS
 10
7.6109846487
 20
10.4434555002
 11
7.6109846487
 21
10.0639279412
  0
INSERT
  5
251
100
AcDbEntity
  8
SCHEME_DIMS
100
AcDbBlockReference
 62
7
  6
CONTINUOUS
  2
_FILLED
 10
7.6109846487
 20
9.3844003821
 41
0.1875
 42
0.1875
 43
0.1875
 50
270.0
  0
INSERT
  5
252
100
AcDbEntity
  8
SCHEME_DIMS
100
AcDbBlockReference
 62
7
  6
CONTINUOUS
  2
_FILLED
 10
7.6109846487
 20
10.4434555002
 41
0.1875
 42
0.1875
 43
0.1875
 50
90.0
  0
ENDBLK
  5
253
100
AcDbEntity
  8
0
  6
BYBLOCK
 62
0
100
AcDbBlockEnd
  0
BLOCK
  5
254
100
AcDbEntity
  8
0
100
AcDbBlockBegin
  2
*T1
 70
1
 10
0.0
 20
0.0
  3
*T1
  1

  0
LINE
  5
255
100
AcDbEntity
  8
0
100
AcDbLine
 62
7
  6
CONTINUOUS
 10
4.35
 20
0.0
 11
0.0
 21
0.0
  0
LINE
  5
256
100
AcDbEntity
  8
0
100
AcDbLine
 62
7
  6
CONTINUOUS
 10
4.35
 20
0.0
 11
4.35
 21
1.92
  0
LINE
  5
257
100
AcDbEntity
  8
0
100
AcDbLine
 62
7
  6
CONTINUOUS
 10
4.35
 20
1.92
 11
0.0
 21
1.92
  0
LINE
  5
258
100
AcDbEntity
  8
0
100
AcDbLine
 62
7
  6
CONTINUOUS
 10
0.0
 20
0.0
 11
0.0
 21
1.92
  0
MTEXT
  5
259
100
AcDbEntity
  8
NOTES
100
AcDbMText
 62
7
  6
CONTINUOUS
  7
STANDARD
 71
2
 72
1
 10
2.175
 20
1.08
 30
0.0
 11
1.0
 21
0.0
 31
0.0
 73
2
 44
0.9
  1
TL50 3-STACK CABLE\PWEB CAD DRAWINGS 2D/3D
 40
0.1
 41
4.4
  0
ENDBLK
  5
25A
100
AcDbEntity
  8
0
  6
BYBLOCK
 62
0
100
AcDbBlockEnd
  0
ENDSEC
  0
SECTION
  2
ENTITIES
  0
MTEXT
  5
25B
100
AcDbEntity
  8
0
100
AcDbMText
 62
7
  6
CONTINUOUS
  7
TEXTSTYLE_2
 71
2
 72
1
 10
15.7174677477
 20
1.6655662523
 30
0.0
 11
1.0
 21
0.0
 31
0.0
 73
2
 44
0.9
  1
\LTHIRD ANGLE PROJECTION\l
 40
0.1
 41
1.76
  0
MTEXT
  5
25C
100
AcDbEntity
  8
0
100
AcDbMText
 62
7
  6
CONTINUOUS
  7
STANDARD
 71
1
 72
1
 10
17.55
 20
1.32
 30
0.0
 11
1.0
 21
0.0
 31
0.0
 73
2
 44
0.9
  1
DRAWING NO.
 40
0.08
 41
0.88
  0
MTEXT
  5
25D
100
AcDbEntity
  8
0
100
AcDbMText
 62
7
  6
CONTINUOUS
  7
TEXTSTYLE_2
 71
1
 72
1
 10
16.75
 20
2.08
 30
0.0
 11
1.0
 21
0.0
 31
0.0
 73
2
 44
0.9
  1
TITLE
 40
0.1
 41
0.4
  0
MTEXT
  5
25E
100
AcDbEntity
  8
0
100
AcDbMText
 62
7
  6
CONTINUOUS
  7
STANDARD
 71
1
 72
1
 10
16.75
 20
1.32
 30
0.0
 11
1.0
 21
0.0
 31
0.0
 73
2
 44
0.9
  1
SIZE
 40
0.08
 41
0.32
  0
MTEXT
  5
25F
100
AcDbEntity
  8
0
100
AcDbMText
 62
7
  6
CONTINUOUS
  7
STANDARD
 71
1
 72
1
 10
16.75
 20
0.95
 30
0.0
 11
1.0
 21
0.0
 31
0.0
 73
2
 44
0.9
  1
SCALE
 40
0.08
 41
0.4
  0
MTEXT
  5
260
100
AcDbEntity
  8
0
100
AcDbMText
 62
7
  6
CONTINUOUS
  7
TEXTSTYLE_2
 71
2
 72
1
 10
17.17
 20
1.2
 30
0.0
 11
1.0
 21
0.0
 31
0.0
 73
2
 44
0.9
  1
C
 40
0.1
 41
0.08
  0
MTEXT
  5
261
100
AcDbEntity
  8
0
100
AcDbMText
 62
7
  6
CONTINUOUS
  7
STANDARD
 71
1
 72
1
 10
18.925
 20
0.95
 30
0.0
 11
1.0
 21
0.0
 31
0.0
 73
2
 44
0.9
  1
SHEET
 40
0.08
 41
0.4
  0
MTEXT
  5
262
100
AcDbEntity
  8
0
100
AcDbMText
 62
7
  6
CONTINUOUS
  7
STANDARD
 71
1
 72
1
 10
20.3
 20
1.32
 30
0.0
 11
1.0
 21
0.0
 31
0.0
 73
2
 44
0.9
  1
REV.
 40
0.08
 41
0.32
  0
MTEXT
  5
263
100
AcDbEntity
  8
0
100
AcDbMText
 62
7
  6
CONTINUOUS
  7
STANDARD
 71
3
 72
1
 10
21.05
 20
0.698443
 30
0.0
 11
1.0
 21
0.0
 31
0.0
 73
2
 44
0.9
  1
CREO
 40
0.07
 41
0.28
  0
MTEXT
  5
264
100
AcDbEntity
  8
0
100
AcDbMText
 62
7
  6
CONTINUOUS
  7
TEXTSTYLE_2
 71
2
 72
1
 10
12.257
 20
15.95
 30
0.0
 11
1.0
 21
0.0
 31
0.0
 73
2
 44
0.9
  1
4
 40
0.1
 41
0.08
  0
MTEXT
  5
265
100
AcDbEntity
  8
0
100
AcDbMText
 62
7
  6
CONTINUOUS
  7
TEXTSTYLE_2
 71
2
 72
1
 10
12.257
 20
0.65
 30
0.0
 11
1.0
 21
0.0
 31
0.0
 73
2
 44
0.9
  1
4
 40
0.1
 41
0.08
  0
MTEXT
  5
266
100
AcDbEntity
  8
0
100
AcDbMText
 62
7
  6
CONTINUOUS
  7
TEXTSTYLE_2
 71
3
 72
1
 10
0.864
 20
6.375
 30
0.0
 11
1.0
 21
0.0
 31
0.0
 73
2
 44
0.9
  1
B
 40
0.1
 41
0.08
  0
MTEXT
  5
267
100
AcDbEntity
  8
0
100
AcDbMText
 62
7
  6
CONTINUOUS
  7
TEXTSTYLE_2
 71
1
 72
1
 10
21.15
 20
6.375
 30
0.0
 11
1.0
 21
0.0
 31
0.0
 73
2
 44
0.9
  1
B
 40
0.1
 41
0.08
  0
MTEXT
  5
268
100
AcDbEntity
  8
0
100
AcDbMText
 62
7
  6
CONTINUOUS
  7
TEXTSTYLE_2
 71
3
 72
1
 10
0.864
 20
2.525
 30
0.0
 11
1.0
 21
0.0
 31
0.0
 73
2
 44
0.9
  1
A
 40
0.1
 41
0.08
  0
MTEXT
  5
269
100
AcDbEntity
  8
0
100
AcDbMText
 62
7
  6
CONTINUOUS
  7
TEXTSTYLE_2
 71
1
 72
1
 10
21.15
 20
2.525
 30
0.0
 11
1.0
 21
0.0
 31
0.0
 73
2
 44
0.9
  1
A
 40
0.1
 41
0.08
  0
MTEXT
  5
26A
100
AcDbEntity
  8
0
100
AcDbMText
 62
7
  6
CONTINUOUS
  7
TEXTSTYLE_2
 71
3
 72
1
 10
0.864
 20
14.075
 30
0.0
 11
1.0
 21
0.0
 31
0.0
 73
2
 44
0.9
  1
D
 40
0.1
 41
0.08
  0
MTEXT
  5
26B
100
AcDbEntity
  8
0
100
AcDbMText
 62
7
  6
CONTINUOUS
  7
TEXTSTYLE_2
 71
1
 72
1
 10
21.15
 20
14.075
 30
0.0
 11
1.0
 21
0.0
 31
0.0
 73
2
 44
0.9
  1
D
 40
0.1
 41
0.08
  0
MTEXT
  5
26C
100
AcDbEntity
  8
0
100
AcDbMText
 62
7
  6
CONTINUOUS
  7
TEXTSTYLE_2
 71
3
 72
1
 10
0.864
 20
10.225
 30
0.0
 11
1.0
 21
0.0
 31
0.0
 73
2
 44
0.9
  1
C
 40
0.1
 41
0.08
  0
MTEXT
  5
26D
100
AcDbEntity
  8
0
100
AcDbMText
 62
7
  6
CONTINUOUS
  7
TEXTSTYLE_2
 71
1
 72
1
 10
21.15
 20
10.225
 30
0.0
 11
1.0
 21
0.0
 31
0.0
 73
2
 44
0.9
  1
C
 40
0.1
 41
0.08
  0
MTEXT
  5
26E
100
AcDbEntity
  8
0
100
AcDbMText
 62
7
  6
CONTINUOUS
  7
TEXTSTYLE_2
 71
2
 72
1
 10
14.757
 20
0.65
 30
0.0
 11
1.0
 21
0.0
 31
0.0
 73
2
 44
0.9
  1
3
 40
0.1
 41
0.08
  0
MTEXT
  5
26F
100
AcDbEntity
  8
0
100
AcDbMText
 62
7
  6
CONTINUOUS
  7
TEXTSTYLE_2
 71
2
 72
1
 10
14.757
 20
15.95
 30
0.0
 11
1.0
 21
0.0
 31
0.0
 73
2
 44
0.9
  1
3
 40
0.1
 41
0.08
  0
MTEXT
  5
270
100
AcDbEntity
  8
0
100
AcDbMText
 62
7
  6
CONTINUOUS
  7
TEXTSTYLE_2
 71
2
 72
1
 10
17.257
 20
15.95
 30
0.0
 11
1.0
 21
0.0
 31
0.0
 73
2
 44
0.9
  1
2
 40
0.1
 41
0.08
  0
MTEXT
  5
271
100
AcDbEntity
  8
0
100
AcDbMText
 62
7
  6
CONTINUOUS
  7
TEXTSTYLE_2
 71
2
 72
1
 10
17.257
 20
0.65
 30
0.0
 11
1.0
 21
0.0
 31
0.0
 73
2
 44
0.9
  1
2
 40
0.1
 41
0.08
  0
MTEXT
  5
272
100
AcDbEntity
  8
0
100
AcDbMText
 62
7
  6
CONTINUOUS
  7
TEXTSTYLE_2
 71
2
 72
1
 10
19.757
 20
0.65
 30
0.0
 11
1.0
 21
0.0
 31
0.0
 73
2
 44
0.9
  1
1
 40
0.1
 41
0.08
  0
MTEXT
  5
273
100
AcDbEntity
  8
0
100
AcDbMText
 62
7
  6
CONTINUOUS
  7
TEXTSTYLE_2
 71
2
 72
1
 10
19.757
 20
15.95
 30
0.0
 11
1.0
 21
0.0
 31
0.0
 73
2
 44
0.9
  1
1
 40
0.1
 41
0.08
  0
MTEXT
  5
274
100
AcDbEntity
  8
0
100
AcDbMText
 62
7
  6
CONTINUOUS
  7
TEXTSTYLE_2
 71
2
 72
1
 10
2.257
 20
0.65
 30
0.0
 11
1.0
 21
0.0
 31
0.0
 73
2
 44
0.9
  1
8
 40
0.1
 41
0.08
  0
MTEXT
  5
275
100
AcDbEntity
  8
0
100
AcDbMText
 62
7
  6
CONTINUOUS
  7
TEXTSTYLE_2
 71
2
 72
1
 10
4.757
 20
0.65
 30
0.0
 11
1.0
 21
0.0
 31
0.0
 73
2
 44
0.9
  1
7
 40
0.1
 41
0.08
  0
MTEXT
  5
276
100
AcDbEntity
  8
0
100
AcDbMText
 62
7
  6
CONTINUOUS
  7
TEXTSTYLE_2
 71
2
 72
1
 10
7.257
 20
0.65
 30
0.0
 11
1.0
 21
0.0
 31
0.0
 73
2
 44
0.9
  1
6
 40
0.1
 41
0.08
  0
MTEXT
  5
277
100
AcDbEntity
  8
0
100
AcDbMText
 62
7
  6
CONTINUOUS
  7
TEXTSTYLE_2
 71
2
 72
1
 10
9.757
 20
0.65
 30
0.0
 11
1.0
 21
0.0
 31
0.0
 73
2
 44
0.9
  1
5
 40
0.1
 41
0.08
  0
MTEXT
  5
278
100
AcDbEntity
  8
0
100
AcDbMText
 62
7
  6
CONTINUOUS
  7
TEXTSTYLE_2
 71
2
 72
1
 10
9.757
 20
15.95
 30
0.0
 11
1.0
 21
0.0
 31
0.0
 73
2
 44
0.9
  1
5
 40
0.1
 41
0.08
  0
MTEXT
  5
279
100
AcDbEntity
  8
0
100
AcDbMText
 62
7
  6
CONTINUOUS
  7
TEXTSTYLE_2
 71
2
 72
1
 10
7.257
 20
15.95
 30
0.0
 11
1.0
 21
0.0
 31
0.0
 73
2
 44
0.9
  1
6
 40
0.1
 41
0.08
  0
MTEXT
  5
27A
100
AcDbEntity
  8
0
100
AcDbMText
 62
7
  6
CONTINUOUS
  7
TEXTSTYLE_2
 71
2
 72
1
 10
4.757
 20
15.95
 30
0.0
 11
1.0
 21
0.0
 31
0.0
 73
2
 44
0.9
  1
7
 40
0.1
 41
0.08
  0
MTEXT
  5
27B
100
AcDbEntity
  8
0
100
AcDbMText
 62
7
  6
CONTINUOUS
  7
TEXTSTYLE_2
 71
2
 72
1
 10
2.257
 20
15.95
 30
0.0
 11
1.0
 21
0.0
 31
0.0
 73
2
 44
0.9
  1
8
 40
0.1
 41
0.08
  0
MTEXT
  5
27C
100
AcDbEntity
  8
0
100
AcDbMText
 62
7
  6
CONTINUOUS
  7
STANDARD
 71
1
 72
1
 10
17.2749123633
 20
0.9184107931
 30
0.0
 11
1.0
 21
0.0
 31
0.0
 73
2
 44
0.9
  1
1:1
 40
0.1
 41
0.3
  0
MTEXT
  5
27D
100
AcDbEntity
  8
0
100
AcDbMText
 62
7
  6
CONTINUOUS
  7
STANDARD
 71
1
 72
1
 10
19.4499123633
 20
0.9184107931
 30
0.0
 11
1.0
 21
0.0
 31
0.0
 73
2
 44
0.9
  1
1 OF 1
 40
0.1
 41
0.6
  0
MTEXT
  5
27E
100
AcDbEntity
  8
0
100
AcDbMText
 62
7
  6
CONTINUOUS
  7
STANDARD
 71
1
 72
1
 10
18.5204017884
 20
1.2400373234
 30
0.0
 11
1.0
 21
0.0
 31
0.0
 73
2
 44
0.9
  1
145183
 40
0.12
 41
0.72
  0
MTEXT
  5
27F
100
AcDbEntity
  8
0
100
AcDbMText
 62
7
  6
CONTINUOUS
  7
STANDARD
 71
1
 72
1
 10
1.2857894151
 20
1.4458068967
 30
0.0
 11
1.0
 21
0.0
 31
0.0
 73
2
 44
0.9
  1
NOTES:\P1. ALL DIMENSIONS ARE MILLIMETERS [INCHES] UNLESS OTHERWISE NOTED.\P2. REFER TO "www.bannerengineering.com" FOR ADDITIONAL DATA AND SPECIFICATIONS.
 40
0.1
 41
7.9
  0
MTEXT
  5
280
100
AcDbEntity
  8
0
100
AcDbMText
 62
7
  6
CONTINUOUS
  7
TEXTSTYLE_3
 71
2
 72
1
 10
19.7555637832
 20
2.555409194
 30
0.0
 11
1.0
 21
0.0
 31
0.0
 73
2
 44
0.9
  1
BANNER ENGINEERING CORP.
 40
0.12
 41
2.592
  0
MTEXT
  5
281
100
AcDbEntity
  8
0
100
AcDbMText
 62
7
  6
CONTINUOUS
  7
TEXTSTYLE_2
 71
2
 72
1
 10
19.6690932526
 20
2.3442032634
 30
0.0
 11
1.0
 21
0.0
 31
0.0
 73
2
 44
0.9
  1
www.bannerengineering.com
 40
0.1
 41
2.0
  0
MTEXT
  5
282
100
AcDbEntity
  8
0
100
AcDbMText
 62
7
  6
CONTINUOUS
  7
TEXTSTYLE_4
 71
2
 72
1
 10
15.7104628329
 20
2.6377571551
 30
0.0
 11
1.0
 21
0.0
 31
0.0
 73
2
 44
0.9
  1
This drawing is the property\Pof BANNER ENGINEERING CORP.\PAny use or reproduction,\Pin any form, without prior\Pwritten permission of\PBanner is prohibited.
 40
0.08
 41
1.904
  0
MTEXT
  5
283
100
AcDbEntity
  8
0
100
AcDbMText
 62
7
  6
CONTINUOUS
  7
TEXTSTYLE_5
 71
2
 72
1
 10
15.7283993136
 20
1.9032170366
 30
0.0
 11
1.0
 21
0.0
 31
0.0
 73
2
 44
0.9
  1
C  2015 Banner Engineering Corp.
 40
0.08
 41
1.92
  0
DIMENSION
  5
284
100
AcDbEntity
  8
SCHEME_DIMS
100
AcDbDimension
 62
7
  6
CONTINUOUS
  2
*D0
 10
7.6109846487
 20
8.3844003821
 11
7.6109846487
 21
8.0103846341
 70
160
 71
2
 72
2
 41
0.9
 42
19.0
  1
<>\P[]
  3
DIMSTYLE_1
100
AcDbAlignedDimension
 13
6.6385437038
 23
7.636368886
 14
6.9017967565
 24
8.3844003821
 50
90.0
100
AcDbRotatedDimension
  0
DIMENSION
  5
285
100
AcDbEntity
  8
SCHEME_DIMS
100
AcDbDimension
 62
7
  6
CONTINUOUS
  2
*D1
 10
8.3609846487
 20
13.9946366026
 11
8.3609846487
 21
10.8917199728
 70
160
 71
2
 72
2
 41
0.9
 42
161.5
  1
<>\P[]
  3
DIMSTYLE_1
100
AcDbAlignedDimension
 13
6.6385437038
 23
7.636368886
 14
7.0722090293
 24
13.9946366026
 50
90.0
100
AcDbRotatedDimension
  0
DIMENSION
  5
286
100
AcDbEntity
  8
SCHEME_DIMS
100
AcDbDimension
 62
7
  6
CONTINUOUS
  2
*D2
 10
7.0125594518
 20
6.3240748087
 11
6.1267326802
 21
6.2490748087
 70
160
 71
2
 72
2
 41
0.9
 42
45.0
  1
<>\P[]
  3
DIMSTYLE_1
100
AcDbAlignedDimension
 13
5.2409059085
 23
8.4782505773
 14
7.0125594518
 24
8.4713031323
100
AcDbRotatedDimension
  0
DIMENSION
  5
287
100
AcDbEntity
  8
SCHEME_DIMS
100
AcDbDimension
 62
7
  6
CONTINUOUS
  2
*D3
 10
6.9194537257
 20
4.7096701838
 11
7.8314614316
 21
4.8520220021
 70
163
 71
1
 72
2
 41
0.9
 42
50.0
  1
%%c<>\P[]
  3
DIMSTYLE_2
100
AcDbDiametricDimension
 15
5.3340116346
 25
3.5428878022
  0
DIMENSION
  5
288
100
AcDbEntity
  8
SCHEME_DIMS
100
AcDbDimension
 62
7
  6
CONTINUOUS
  2
*D4
 10
7.6109846487
 20
10.4434555002
 11
7.6109846487
 21
9.8389279412
 70
160
 71
2
 72
2
 41
0.9
 42
26.9
  1
3X <>\P[]
  3
DIMSTYLE_1
100
AcDbAlignedDimension
 13
7.1109846487
 23
9.3844003821
 14
7.1109846487
 24
10.4434555002
 50
90.0
100
AcDbRotatedDimension
  0
ACAD_TABLE
  5
289
100
AcDbEntity
  8
0
 62
7
  6
CONTINUOUS
100
AcDbBlockReference
  2
*T1
 10
16.7
 20
0.75
 30
0.0
100
AcDbTable
342
       6BE
343
21D
 11
1.0
 21
0.0
 31
0.0
 90
6
 91
3
 92
5
 93
4
 94
0
 95
0
 96
0
 70
1
141
0.33
141
0.45
141
1.14
142
0.65
142
1.15
142
1.025
142
1.075
142
0.45
171
1
172
0
173
0
174
0
175
1
176
1
 91
33
178
0
145
0.0
301
CELL_VALUE
 90
4
  1
 
304
ACVALUE_END
170
1
140
0.1
171
1
172
0
173
0
174
0
175
1
176
1
 91
33
178
0
145
0.0
301
CELL_VALUE
 90
4
  1
 
304
ACVALUE_END
170
1
140
0.1
171
1
172
0
173
0
174
0
175
1
176
1
 91
33
178
0
145
0.0
301
CELL_VALUE
 90
4
  1
 
304
ACVALUE_END
170
1
140
0.1
171
1
172
0
173
0
174
0
175
1
176
1
 91
33
178
0
145
0.0
301
CELL_VALUE
 90
4
  1
 
304
ACVALUE_END
170
1
140
0.1
171
1
172
0
173
0
174
0
175
1
176
1
 91
33
178
0
145
0.0
301
CELL_VALUE
 90
4
  1
 
304
ACVALUE_END
170
1
140
0.1
171
1
172
0
173
0
174
0
175
1
176
1
 91
33
178
0
145
0.0
301
CELL_VALUE
 90
4
  1
 
304
ACVALUE_END
170
1
140
0.1
171
1
172
0
173
0
174
0
175
1
176
1
 91
33
178
0
145
0.0
301
CELL_VALUE
 90
4
  1
 
304
ACVALUE_END
170
1
140
0.1
171
1
172
0
173
0
174
0
175
1
176
1
 91
33
178
0
145
0.0
301
CELL_VALUE
 90
4
  1
 
304
ACVALUE_END
170
1
140
0.1
171
1
172
0
173
0
174
0
175
1
176
1
 91
33
178
0
145
0.0
301
CELL_VALUE
 90
4
  1
 
304
ACVALUE_END
170
1
140
0.1
171
1
172
0
173
0
174
0
175
1
176
1
 91
33
178
0
145
0.0
301
CELL_VALUE
 90
4
  1
 
304
ACVALUE_END
170
8
140
0.1
171
1
172
0
173
0
174
0
175
5
176
1
 91
33
178
0
145
0.0
301
CELL_VALUE
 90
4
  1
TL50 3-STACK CABLE\PWEB CAD DRAWINGS 2D/3D
304
ACVALUE_END
170
8
140
0.1
171
1
172
0
173
1
174
0
175
1
176
1
 91
1
178
0
145
0.0
170
1
171
1
172
0
173
1
174
0
175
1
176
1
 91
1
178
0
145
0.0
170
1
171
1
172
0
173
1
174
0
175
1
176
1
 91
1
178
0
145
0.0
170
1
171
1
172
0
173
1
174
0
175
1
176
1
 91
1
178
0
145
0.0
170
8
  0
LEADER
  5
28A
100
AcDbEntity
  8
NOTES
100
AcDbLeader
 62
7
  6
CONTINUOUS
  3
STANDARD
 71
1
 72
0
 73
0
 75
0
 40
0.1
 41
1.2
 76
3
 10
5.5849415201
 20
7.7889350384
 30
0.0
 10
4.9669510913
 20
7.5507050508
 30
0.0
 10
4.7169510913
 20
7.5507050508
 30
0.0
340
28B
1001
ACAD
1000
DSTYLE
1002
{
1070
77
1070
0
1002
}
  0
MTEXT
  5
28B
102
{ACAD_REACTORS
330
28A
102
}
100
AcDbEntity
  8
NOTES
100
AcDbMText
 62
7
  6
CONTINUOUS
  7
STANDARD
 71
3
 72
1
 10
4.7169510913
 20
7.6007050508
 30
0.0
 11
1.0
 21
0.0
 31
0.0
 73
2
 44
0.9
  1
M30 X 1.5-6g
 40
0.1
 41
1.2
  0
MTEXT
  5
28C
100
AcDbEntity
  8
NOTES
100
AcDbMText
 62
7
  6
CONTINUOUS
  7
STANDARD
 71
2
 72
1
 10
17.3262752762
 20
3.9981654737
 30
0.0
 11
1.0
 21
0.0
 31
0.0
 73
2
 44
0.9
  1
\LISOMETRIC VIEW\P\H0.1;\lSCALE  1:1
 40
0.125
 41
1.75
  0
LEADER
  5
28D
100
AcDbEntity
  8
NOTES
100
AcDbLeader
 62
7
  6
CONTINUOUS
  3
STANDARD
 71
1
 72
0
 73
0
 75
0
 40
0.1
 41
1.1
 76
3
 10
5.7672895237
 20
4.2493268737
 30
0.0
 10
4.7602131097
 20
4.8520695531
 30
0.0
 10
4.5102131097
 20
4.8520695531
 30
0.0
340
28E
1001
ACAD
1000
DSTYLE
1002
{
1070
77
1070
0
1002
}
  0
MTEXT
  5
28E
102
{ACAD_REACTORS
330
28D
102
}
100
AcDbEntity
  8
NOTES
100
AcDbMText
 62
7
  6
CONTINUOUS
  7
STANDARD
 71
3
 72
1
 10
4.5102131097
 20
4.9020695531
 30
0.0
 11
1.0
 21
0.0
 31
0.0
 73
2
 44
0.9
  1
1/2-14 NPSM
 40
0.1
 41
1.1
  0
LINE
  5
28F
100
AcDbEntity
  8
0
100
AcDbLine
 62
7
  6
CONTINUOUS
 10
0.814
 20
8.336603
 11
0.814
 21
8.163397
  0
LINE
  5
290
100
AcDbEntity
  8
0
100
AcDbLine
 62
7
  6
CONTINUOUS
 10
0.964
 20
15.75
 11
0.964
 21
0.75
  0
LINE
  5
291
100
AcDbEntity
  8
0
100
AcDbLine
 62
7
  6
CONTINUOUS
 10
15.8276527477
 20
1.2966912523
 11
16.4340437477
 21
1.3660842523
  0
LINE
  5
292
100
AcDbEntity
  8
0
100
AcDbLine
 62
7
  6
CONTINUOUS
 10
10.920397
 20
0.6
 11
11.093603
 21
0.6
  0
LINE
  5
293
100
AcDbEntity
  8
0
100
AcDbLine
 62
7
  6
CONTINUOUS
 10
0.964
 20
0.75
 11
21.05
 21
0.75
  0
LINE
  5
294
100
AcDbEntity
  8
0
100
AcDbLine
 62
7
  6
CONTINUOUS
 10
3.507
 20
0.75
 11
3.507
 21
0.5
  0
LINE
  5
295
100
AcDbEntity
  8
0
100
AcDbLine
 62
7
  6
CONTINUOUS
 10
3.507
 20
15.75
 11
3.507
 21
16.0
  0
LINE
  5
296
100
AcDbEntity
  8
0
100
AcDbLine
 62
7
  6
CONTINUOUS
 10
16.7
 20
1.0
 11
21.05
 21
1.0
  0
LINE
  5
297
100
AcDbEntity
  8
0
100
AcDbLine
 62
7
  6
CONTINUOUS
 10
14.9008917477
 20
1.1139932523
 11
15.1229827477
 21
1.1139932523
  0
LINE
  5
298
100
AcDbEntity
  8
0
100
AcDbLine
 62
7
  6
CONTINUOUS
 10
15.1729827477
 20
1.1139932523
 11
15.2729827477
 21
1.1139932523
  0
LINE
  5
299
100
AcDbEntity
  8
0
100
AcDbLine
 62
7
  6
CONTINUOUS
 10
15.3229827477
 20
1.1139932523
 11
15.5450737477
 21
1.1139932523
  0
LINE
  5
29A
100
AcDbEntity
  8
0
100
AcDbLine
 62
7
  6
CONTINUOUS
 10
15.7276527477
 20
1.1139932523
 11
16.0058047477
 21
1.1139932523
  0
LINE
  5
29B
100
AcDbEntity
  8
0
100
AcDbLine
 62
7
  6
CONTINUOUS
 10
16.0558047477
 20
1.1139932523
 11
16.2058907477
 21
1.1139932523
  0
LINE
  5
29C
100
AcDbEntity
  8
0
100
AcDbLine
 62
7
  6
CONTINUOUS
 10
16.2558907477
 20
1.1139932523
 11
16.5340437477
 21
1.1139932523
  0
LINE
  5
29D
100
AcDbEntity
  8
0
100
AcDbLine
 62
7
  6
CONTINUOUS
 10
16.7
 20
1.37
 11
21.05
 21
1.37
  0
LINE
  5
29E
100
AcDbEntity
  8
0
100
AcDbLine
 62
7
  6
CONTINUOUS
 10
16.4340437477
 20
0.8619022523
 11
15.8276527477
 21
0.9312952523
  0
LINE
  5
29F
100
AcDbEntity
  8
0
100
AcDbLine
 62
7
  6
CONTINUOUS
 10
14.7
 20
1.77
 11
16.7
 21
1.77
  0
LINE
  5
2A0
100
AcDbEntity
  8
0
100
AcDbLine
 62
7
  6
CONTINUOUS
 10
16.7
 20
2.13
 11
21.05
 21
2.13
  0
LINE
  5
2A1
100
AcDbEntity
  8
0
100
AcDbLine
 62
7
  6
CONTINUOUS
 10
18.273144232
 20
2.3543254011
 11
18.2257802057
 21
2.3543254011
  0
LINE
  5
2A2
100
AcDbEntity
  8
0
100
AcDbLine
 62
7
  6
CONTINUOUS
 10
18.1818891814
 20
2.3543254011
 11
18.0683181184
 21
2.3543254011
  0
LINE
  5
2A3
100
AcDbEntity
  8
0
100
AcDbLine
 62
7
  6
CONTINUOUS
 10
18.0394141024
 20
2.3543254011
 11
17.8362019897
 21
2.3543254011
  0
LINE
  5
2A4
100
AcDbEntity
  8
0
100
AcDbLine
 62
7
  6
CONTINUOUS
 10
17.7857289617
 20
2.3543254011
 11
17.7115229205
 21
2.3543254011
  0
LINE
  5
2A5
100
AcDbEntity
  8
0
100
AcDbLine
 62
7
  6
CONTINUOUS
 10
17.6651428948
 20
2.3543254011
 11
17.5894788529
 21
2.3543254011
  0
LINE
  5
2A6
100
AcDbEntity
  8
0
100
AcDbLine
 62
7
  6
CONTINUOUS
 10
17.537475824
 20
2.3543254011
 11
17.4632707829
 21
2.3543254011
  0
LINE
  5
2A7
100
AcDbEntity
  8
0
100
AcDbLine
 62
7
  6
CONTINUOUS
 10
17.4168897572
 20
2.3543254011
 11
17.3412257152
 21
2.3543254011
  0
LINE
  5
2A8
100
AcDbEntity
  8
0
100
AcDbLine
 62
7
  6
CONTINUOUS
 10
16.8743904563
 20
2.3543254011
 11
17.0508365542
 21
2.3543254011
  0
LINE
  5
2A9
100
AcDbEntity
  8
0
100
AcDbLine
 62
7
  6
CONTINUOUS
 10
17.1083735861
 20
2.3543254011
 11
17.185749629
 21
2.3543254011
  0
LINE
  5
2AA
100
AcDbEntity
  8
0
100
AcDbLine
 62
7
  6
CONTINUOUS
 10
17.2060356402
 20
2.3543254011
 11
17.3113166986
 21
2.3543254011
  0
LINE
  5
2AB
100
AcDbEntity
  8
0
100
AcDbLine
 62
7
  6
CONTINUOUS
 10
18.1572301677
 20
2.3790534148
 11
18.1818891814
 21
2.3790534148
  0
LINE
  5
2AC
100
AcDbEntity
  8
0
100
AcDbLine
 62
7
  6
CONTINUOUS
 10
17.3113166986
 20
2.3790754148
 11
17.2913006875
 21
2.3790754148
  0
LINE
  5
2AD
100
AcDbEntity
  8
0
100
AcDbLine
 62
7
  6
CONTINUOUS
 10
17.2204866482
 20
2.3790754148
 11
17.2060356402
 21
2.3790754148
  0
LINE
  5
2AE
100
AcDbEntity
  8
0
100
AcDbLine
 62
7
  6
CONTINUOUS
 10
17.185749629
 20
2.3790754148
 11
17.1744666227
 21
2.3790754148
  0
LINE
  5
2AF
100
AcDbEntity
  8
0
100
AcDbLine
 62
7
  6
CONTINUOUS
 10
17.1312345987
 20
2.3790754148
 11
17.1083735861
 21
2.3790754148
  0
LINE
  5
2B0
100
AcDbEntity
  8
0
100
AcDbLine
 62
7
  6
CONTINUOUS
 10
17.0051585288
 20
2.3790754148
 11
16.9637955059
 21
2.3790754148
  0
LINE
  5
2B1
100
AcDbEntity
  8
0
100
AcDbLine
 62
7
  6
CONTINUOUS
 10
16.8983324696
 20
2.3790754148
 11
16.8743904563
 21
2.3790754148
  0
LINE
  5
2B2
100
AcDbEntity
  8
0
100
AcDbLine
 62
7
  6
CONTINUOUS
 10
17.3412257152
 20
2.3790754148
 11
17.3598727255
 21
2.3790754148
  0
LINE
  5
2B3
100
AcDbEntity
  8
0
100
AcDbLine
 62
7
  6
CONTINUOUS
 10
17.3965727459
 20
2.3790754148
 11
17.4168897572
 21
2.3790754148
  0
LINE
  5
2B4
100
AcDbEntity
  8
0
100
AcDbLine
 62
7
  6
CONTINUOUS
 10
17.5894788529
 20
2.3790754148
 11
17.6081248632
 21
2.3790754148
  0
LINE
  5
2B5
100
AcDbEntity
  8
0
100
AcDbLine
 62
7
  6
CONTINUOUS
 10
17.6448258836
 20
2.3790754148
 11
17.6651428948
 21
2.3790754148
  0
LINE
  5
2B6
100
AcDbEntity
  8
0
100
AcDbLine
 62
7
  6
CONTINUOUS
 10
17.8362019897
 20
2.3790754148
 11
17.860125003
 21
2.3790754148
  0
LINE
  5
2B7
100
AcDbEntity
  8
0
100
AcDbLine
 62
7
  6
CONTINUOUS
 10
17.9271410401
 20
2.3790754148
 11
17.9921450762
 21
2.3790754148
  0
LINE
  5
2B8
100
AcDbEntity
  8
0
100
AcDbLine
 62
7
  6
CONTINUOUS
 10
18.0683181184
 20
2.3790754148
 11
18.091064131
 21
2.3790754148
  0
LINE
  5
2B9
100
AcDbEntity
  8
0
100
AcDbLine
 62
7
  6
CONTINUOUS
 10
18.2741672326
 20
2.379462415
 11
18.2752762332
 21
2.379462415
  0
LINE
  5
2BA
100
AcDbEntity
  8
0
100
AcDbLine
 62
7
  6
CONTINUOUS
 10
17.9970950789
 20
2.3922754221
 11
18.0394141024
 21
2.3922754221
  0
LINE
  5
2BB
100
AcDbEntity
  8
0
100
AcDbLine
 62
7
  6
CONTINUOUS
 10
17.1799826258
 20
2.3927194224
 11
17.2148606451
 21
2.3927194224
  0
LINE
  5
2BC
100
AcDbEntity
  8
0
100
AcDbLine
 62
7
  6
CONTINUOUS
 10
18.2860312391
 20
2.3932124227
 11
18.2981412459
 21
2.3932124227
  0
LINE
  5
2BD
100
AcDbEntity
  8
0
100
AcDbLine
 62
7
  6
CONTINUOUS
 10
18.184837183
 20
2.3937024229
 11
18.1572301677
 21
2.3937024229
  0
LINE
  5
2BE
100
AcDbEntity
  8
0
100
AcDbLine
 62
7
  6
CONTINUOUS
 10
17.9623080596
 20
2.395575424
 11
17.9271410401
 21
2.395575424
  0
LINE
  5
2BF
100
AcDbEntity
  8
0
100
AcDbLine
 62
7
  6
CONTINUOUS
 10
16.9637955059
 20
2.3964004244
 11
17.0051585288
 21
2.3964004244
  0
LINE
  5
2C0
100
AcDbEntity
  8
0
100
AcDbLine
 62
7
  6
CONTINUOUS
 10
18.1911671865
 20
2.4127054335
 11
18.1572301677
 21
2.4127054335
  0
LINE
  5
2C1
100
AcDbEntity
  8
0
100
AcDbLine
 62
7
  6
CONTINUOUS
 10
16.9637955059
 20
2.4130554337
 11
17.0051585288
 21
2.4130554337
  0
LINE
  5
2C2
100
AcDbEntity
  8
0
100
AcDbLine
 62
7
  6
CONTINUOUS
 10
17.1884986305
 20
2.413669434
 11
17.2090556419
 21
2.413669434
  0
LINE
  5
2C3
100
AcDbEntity
  8
0
100
AcDbLine
 62
7
  6
CONTINUOUS
 10
17.9271410401
 20
2.4138804341
 11
17.9623080596
 21
2.4138804341
  0
LINE
  5
2C4
100
AcDbEntity
  8
0
100
AcDbLine
 62
7
  6
CONTINUOUS
 10
18.0379951016
 20
2.4171804359
 11
17.9961310784
 21
2.4171804359
  0
LINE
  5
2C5
100
AcDbEntity
  8
0
100
AcDbLine
 62
7
  6
CONTINUOUS
 10
17.2017966379
 20
2.429836443
 11
17.1956156344
 21
2.429836443
  0
LINE
  5
2C6
100
AcDbEntity
  8
0
100
AcDbLine
 62
7
  6
CONTINUOUS
 10
18.091064131
 20
2.4303804433
 11
18.0683181184
 21
2.4303804433
  0
LINE
  5
2C7
100
AcDbEntity
  8
0
100
AcDbLine
 62
7
  6
CONTINUOUS
 10
17.9911810756
 20
2.4303804433
 11
17.9271410401
 21
2.4303804433
  0
LINE
  5
2C8
100
AcDbEntity
  8
0
100
AcDbLine
 62
7
  6
CONTINUOUS
 10
17.860125003
 20
2.4303804433
 11
17.8362019897
 21
2.4303804433
  0
LINE
  5
2C9
100
AcDbEntity
  8
0
100
AcDbLine
 62
7
  6
CONTINUOUS
 10
17.8086119744
 20
2.4303804433
 11
17.7906789644
 21
2.4303804433
  0
LINE
  5
2CA
100
AcDbEntity
  8
0
100
AcDbLine
 62
7
  6
CONTINUOUS
 10
17.7533869438
 20
2.4303804433
 11
17.7346109333
 21
2.4303804433
  0
LINE
  5
2CB
100
AcDbEntity
  8
0
100
AcDbLine
 62
7
  6
CONTINUOUS
 10
17.6081248632
 20
2.4303804433
 11
17.5894788529
 21
2.4303804433
  0
LINE
  5
2CC
100
AcDbEntity
  8
0
100
AcDbLine
 62
7
  6
CONTINUOUS
 10
17.5603588367
 20
2.4303804433
 11
17.5424258268
 21
2.4303804433
  0
LINE
  5
2CD
100
AcDbEntity
  8
0
100
AcDbLine
 62
7
  6
CONTINUOUS
 10
17.5051338061
 20
2.4303804433
 11
17.4863577957
 21
2.4303804433
  0
LINE
  5
2CE
100
AcDbEntity
  8
0
100
AcDbLine
 62
7
  6
CONTINUOUS
 10
17.3598727255
 20
2.4303804433
 11
17.3412257152
 21
2.4303804433
  0
LINE
  5
2CF
100
AcDbEntity
  8
0
100
AcDbLine
 62
7
  6
CONTINUOUS
 10
17.0051585288
 20
2.4303804433
 11
16.9637955059
 21
2.4303804433
  0
LINE
  5
2D0
100
AcDbEntity
  8
0
100
AcDbLine
 62
7
  6
CONTINUOUS
 10
16.8743904563
 20
2.4303804433
 11
16.8983324696
 21
2.4303804433
  0
LINE
  5
2D1
100
AcDbEntity
  8
0
100
AcDbLine
 62
7
  6
CONTINUOUS
 10
18.1572301677
 20
2.4303804433
 11
18.1940311881
 21
2.4303804433
  0
LINE
  5
2D2
100
AcDbEntity
  8
0
100
AcDbLine
 62
7
  6
CONTINUOUS
 10
17.2393896587
 20
2.455130457
 11
17.182214627
 21
2.455130457
  0
LINE
  5
2D3
100
AcDbEntity
  8
0
100
AcDbLine
 62
7
  6
CONTINUOUS
 10
17.0404535484
 20
2.455130457
 11
16.8743904563
 21
2.455130457
  0
LINE
  5
2D4
100
AcDbEntity
  8
0
100
AcDbLine
 62
7
  6
CONTINUOUS
 10
17.3412257152
 20
2.455130457
 11
17.4416837709
 21
2.455130457
  0
LINE
  5
2D5
100
AcDbEntity
  8
0
100
AcDbLine
 62
7
  6
CONTINUOUS
 10
17.4863577957
 20
2.455130457
 11
17.5603588367
 21
2.455130457
  0
LINE
  5
2D6
100
AcDbEntity
  8
0
100
AcDbLine
 62
7
  6
CONTINUOUS
 10
17.5894788529
 20
2.455130457
 11
17.6899369086
 21
2.455130457
  0
LINE
  5
2D7
100
AcDbEntity
  8
0
100
AcDbLine
 62
7
  6
CONTINUOUS
 10
17.7346109333
 20
2.455130457
 11
17.8086119744
 21
2.455130457
  0
LINE
  5
2D8
100
AcDbEntity
  8
0
100
AcDbLine
 62
7
  6
CONTINUOUS
 10
17.8362019897
 20
2.455130457
 11
18.0379951016
 21
2.455130457
  0
LINE
  5
2D9
100
AcDbEntity
  8
0
100
AcDbLine
 62
7
  6
CONTINUOUS
 10
18.0683181184
 20
2.455130457
 11
18.2178992014
 21
2.455130457
  0
LINE
  5
2DA
100
AcDbEntity
  8
0
100
AcDbLine
 62
7
  6
CONTINUOUS
 10
17.0697205646
 20
2.4006414268
 11
17.059669559
 21
2.4041904287
  0
LINE
  5
2DB
100
AcDbEntity
  8
0
100
AcDbLine
 62
7
  6
CONTINUOUS
 10
17.4615617819
 20
2.3550094015
 11
17.3982817468
 21
2.415387435
  0
LINE
  5
2DC
100
AcDbEntity
  8
0
100
AcDbLine
 62
7
  6
CONTINUOUS
 10
17.4433917718
 20
2.4544464566
 11
17.5034248051
 21
2.3971664249
  0
LINE
  5
2DD
100
AcDbEntity
  8
0
100
AcDbLine
 62
7
  6
CONTINUOUS
 10
17.7098149196
 20
2.3550094015
 11
17.6465348845
 21
2.415387435
  0
LINE
  5
2DE
100
AcDbEntity
  8
0
100
AcDbLine
 62
7
  6
CONTINUOUS
 10
17.6916449095
 20
2.4544464566
 11
17.7516779428
 21
2.3971664249
  0
LINE
  5
2DF
100
AcDbEntity
  8
0
100
AcDbLine
 62
7
  6
CONTINUOUS
 10
17.2169386463
 20
2.3915884218
 11
17.2225646494
 21
2.3828954169
  0
LINE
  5
2E0
100
AcDbEntity
  8
0
100
AcDbLine
 62
7
  6
CONTINUOUS
 10
17.211133643
 20
2.4174894361
 11
17.203874639
 21
2.4287054423
  0
LINE
  5
2E1
100
AcDbEntity
  8
0
100
AcDbLine
 62
7
  6
CONTINUOUS
 10
17.2892236864
 20
2.3802054154
 11
17.2414676599
 21
2.4540004564
  0
LINE
  5
2E2
100
AcDbEntity
  8
0
100
AcDbLine
 62
7
  6
CONTINUOUS
 10
18.206476195
 20
2.3723714111
 11
18.204672194
 21
2.3784404145
  0
LINE
  5
2E3
100
AcDbEntity
  8
0
100
AcDbLine
 62
7
  6
CONTINUOUS
 10
16.8719154549
 20
2.4526554556
 11
16.8719154549
 21
2.4328554446
  0
LINE
  5
2E4
100
AcDbEntity
  8
0
100
AcDbLine
 62
7
  6
CONTINUOUS
 10
16.8719154549
 20
2.3766004134
 11
16.8719154549
 21
2.3568004025
  0
LINE
  5
2E5
100
AcDbEntity
  8
0
100
AcDbLine
 62
7
  6
CONTINUOUS
 10
16.9008074709
 20
2.4279054419
 11
16.9008074709
 21
2.3815504162
  0
LINE
  5
2E6
100
AcDbEntity
  8
0
100
AcDbLine
 62
7
  6
CONTINUOUS
 10
16.9613205045
 20
2.4279054419
 11
16.9613205045
 21
2.415530435
  0
LINE
  5
2E7
100
AcDbEntity
  8
0
100
AcDbLine
 62
7
  6
CONTINUOUS
 10
16.9613205045
 20
2.3815504162
 11
16.9613205045
 21
2.3939254231
  0
LINE
  5
2E8
100
AcDbEntity
  8
0
100
AcDbLine
 62
7
  6
CONTINUOUS
 10
17.1058985847
 20
2.3766004134
 11
17.1058985847
 21
2.3568004025
  0
LINE
  5
2E9
100
AcDbEntity
  8
0
100
AcDbLine
 62
7
  6
CONTINUOUS
 10
17.1882246303
 20
2.3568004025
 11
17.1882246303
 21
2.3766004134
  0
LINE
  5
2EA
100
AcDbEntity
  8
0
100
AcDbLine
 62
7
  6
CONTINUOUS
 10
17.2035606388
 20
2.3766004134
 11
17.2035606388
 21
2.3568004025
  0
LINE
  5
2EB
100
AcDbEntity
  8
0
100
AcDbLine
 62
7
  6
CONTINUOUS
 10
17.3137917
 20
2.3568004025
 11
17.3137917
 21
2.3766004134
  0
LINE
  5
2EC
100
AcDbEntity
  8
0
100
AcDbLine
 62
7
  6
CONTINUOUS
 10
17.3387507138
 20
2.3568004025
 11
17.3387507138
 21
2.3766004134
  0
LINE
  5
2ED
100
AcDbEntity
  8
0
100
AcDbLine
 62
7
  6
CONTINUOUS
 10
17.3387507138
 20
2.4328554446
 11
17.3387507138
 21
2.4526554556
  0
LINE
  5
2EE
100
AcDbEntity
  8
0
100
AcDbLine
 62
7
  6
CONTINUOUS
 10
17.3623477269
 20
2.3815504162
 11
17.3623477269
 21
2.4279054419
  0
LINE
  5
2EF
100
AcDbEntity
  8
0
100
AcDbLine
 62
7
  6
CONTINUOUS
 10
17.3940977445
 20
2.413596434
 11
17.3940977445
 21
2.3815504162
  0
LINE
  5
2F0
100
AcDbEntity
  8
0
100
AcDbLine
 62
7
  6
CONTINUOUS
 10
17.4193647585
 20
2.3766004134
 11
17.4193647585
 21
2.3568004025
  0
LINE
  5
2F1
100
AcDbEntity
  8
0
100
AcDbLine
 62
7
  6
CONTINUOUS
 10
17.4838827943
 20
2.4328554446
 11
17.4838827943
 21
2.4526554556
  0
LINE
  5
2F2
100
AcDbEntity
  8
0
100
AcDbLine
 62
7
  6
CONTINUOUS
 10
17.5076088075
 20
2.3989574258
 11
17.5076088075
 21
2.4279054419
  0
LINE
  5
2F3
100
AcDbEntity
  8
0
100
AcDbLine
 62
7
  6
CONTINUOUS
 10
17.5399508254
 20
2.4279054419
 11
17.5399508254
 21
2.3568004025
  0
LINE
  5
2F4
100
AcDbEntity
  8
0
100
AcDbLine
 62
7
  6
CONTINUOUS
 10
17.5628338381
 20
2.4526554556
 11
17.5628338381
 21
2.4328554446
  0
LINE
  5
2F5
100
AcDbEntity
  8
0
100
AcDbLine
 62
7
  6
CONTINUOUS
 10
17.5870038515
 20
2.3568004025
 11
17.5870038515
 21
2.3766004134
  0
LINE
  5
2F6
100
AcDbEntity
  8
0
100
AcDbLine
 62
7
  6
CONTINUOUS
 10
17.5870038515
 20
2.4328554446
 11
17.5870038515
 21
2.4526554556
  0
LINE
  5
2F7
100
AcDbEntity
  8
0
100
AcDbLine
 62
7
  6
CONTINUOUS
 10
17.6105998646
 20
2.3815504162
 11
17.6105998646
 21
2.4279054419
  0
LINE
  5
2F8
100
AcDbEntity
  8
0
100
AcDbLine
 62
7
  6
CONTINUOUS
 10
17.6423508822
 20
2.413596434
 11
17.6423508822
 21
2.3815504162
  0
LINE
  5
2F9
100
AcDbEntity
  8
0
100
AcDbLine
 62
7
  6
CONTINUOUS
 10
17.6676178962
 20
2.3766004134
 11
17.6676178962
 21
2.3568004025
  0
LINE
  5
2FA
100
AcDbEntity
  8
0
100
AcDbLine
 62
7
  6
CONTINUOUS
 10
17.732135932
 20
2.4328554446
 11
17.732135932
 21
2.4526554556
  0
LINE
  5
2FB
100
AcDbEntity
  8
0
100
AcDbLine
 62
7
  6
CONTINUOUS
 10
17.7558619451
 20
2.3989574258
 11
17.7558619451
 21
2.4279054419
  0
LINE
  5
2FC
100
AcDbEntity
  8
0
100
AcDbLine
 62
7
  6
CONTINUOUS
 10
17.7882039631
 20
2.4279054419
 11
17.7882039631
 21
2.3568004025
  0
LINE
  5
2FD
100
AcDbEntity
  8
0
100
AcDbLine
 62
7
  6
CONTINUOUS
 10
17.8110869758
 20
2.4526554556
 11
17.8110869758
 21
2.4328554446
  0
LINE
  5
2FE
100
AcDbEntity
  8
0
100
AcDbLine
 62
7
  6
CONTINUOUS
 10
17.8337269883
 20
2.3568004025
 11
17.8337269883
 21
2.3766004134
  0
LINE
  5
2FF
100
AcDbEntity
  8
0
100
AcDbLine
 62
7
  6
CONTINUOUS
 10
17.8337269883
 20
2.4328554446
 11
17.8337269883
 21
2.4526554556
  0
LINE
  5
300
100
AcDbEntity
  8
0
100
AcDbLine
 62
7
  6
CONTINUOUS
 10
17.8626000043
 20
2.3815504162
 11
17.8626000043
 21
2.4279054419
  0
LINE
  5
301
100
AcDbEntity
  8
0
100
AcDbLine
 62
7
  6
CONTINUOUS
 10
17.9246660387
 20
2.4279054419
 11
17.9246660387
 21
2.4163554355
  0
LINE
  5
302
100
AcDbEntity
  8
0
100
AcDbLine
 62
7
  6
CONTINUOUS
 10
17.9246660387
 20
2.3931004226
 11
17.9246660387
 21
2.3815504162
  0
LINE
  5
303
100
AcDbEntity
  8
0
100
AcDbLine
 62
7
  6
CONTINUOUS
 10
17.964783061
 20
2.4114054327
 11
17.964783061
 21
2.3980504253
  0
LINE
  5
304
100
AcDbEntity
  8
0
100
AcDbLine
 62
7
  6
CONTINUOUS
 10
17.993656077
 20
2.4196554373
 11
17.993656077
 21
2.4279054419
  0
LINE
  5
305
100
AcDbEntity
  8
0
100
AcDbLine
 62
7
  6
CONTINUOUS
 10
17.9946200775
 20
2.3815504162
 11
17.9946200775
 21
2.3898004208
  0
LINE
  5
306
100
AcDbEntity
  8
0
100
AcDbLine
 62
7
  6
CONTINUOUS
 10
18.040470103
 20
2.4526554556
 11
18.040470103
 21
2.4196554373
  0
LINE
  5
307
100
AcDbEntity
  8
0
100
AcDbLine
 62
7
  6
CONTINUOUS
 10
18.0418891038
 20
2.3898004208
 11
18.0418891038
 21
2.3568004025
  0
LINE
  5
308
100
AcDbEntity
  8
0
100
AcDbLine
 62
7
  6
CONTINUOUS
 10
18.065843117
 20
2.3568004025
 11
18.065843117
 21
2.3766004134
  0
LINE
  5
309
100
AcDbEntity
  8
0
100
AcDbLine
 62
7
  6
CONTINUOUS
 10
18.065843117
 20
2.4328554446
 11
18.065843117
 21
2.4526554556
  0
LINE
  5
30A
100
AcDbEntity
  8
0
100
AcDbLine
 62
7
  6
CONTINUOUS
 10
18.0935391324
 20
2.3815504162
 11
18.0935391324
 21
2.4279054419
  0
LINE
  5
30B
100
AcDbEntity
  8
0
100
AcDbLine
 62
7
  6
CONTINUOUS
 10
18.1547551663
 20
2.3912274216
 11
18.1547551663
 21
2.3815284162
  0
LINE
  5
30C
100
AcDbEntity
  8
0
100
AcDbLine
 62
7
  6
CONTINUOUS
 10
18.1547551663
 20
2.4151804348
 11
18.1547551663
 21
2.4279054419
  0
LINE
  5
30D
100
AcDbEntity
  8
0
100
AcDbLine
 62
7
  6
CONTINUOUS
 10
18.1843641828
 20
2.3765784134
 11
18.1843641828
 21
2.3568004025
  0
LINE
  5
30E
100
AcDbEntity
  8
0
100
AcDbLine
 62
7
  6
CONTINUOUS
 10
18.2835562378
 20
2.3881114198
 11
18.2835562378
 21
2.3907374213
  0
LINE
  5
30F
100
AcDbEntity
  8
0
100
AcDbLine
 62
7
  6
CONTINUOUS
 10
18.3006162472
 20
2.3907374213
 11
18.3006162472
 21
2.3791854149
  0
LINE
  5
310
100
AcDbEntity
  8
0
100
AcDbLine
 62
7
  6
CONTINUOUS
 10
18.3975725422
 20
2.3981678251
 11
18.3975725422
 21
2.4087850316
  0
LINE
  5
311
100
AcDbEntity
  8
0
100
AcDbLine
 62
7
  6
CONTINUOUS
 10
17.1801246258
 20
2.4539814564
 11
17.1333245999
 21
2.3802244155
  0
LINE
  5
312
100
AcDbEntity
  8
0
100
AcDbLine
 62
7
  6
CONTINUOUS
 10
17.1935256333
 20
2.4286874423
 11
17.1864086293
 21
2.4174704361
  0
LINE
  5
313
100
AcDbEntity
  8
0
100
AcDbLine
 62
7
  6
CONTINUOUS
 10
17.1723766216
 20
2.3828764169
 11
17.1778926246
 21
2.3915704217
  0
LINE
  5
314
100
AcDbEntity
  8
0
100
AcDbLine
 62
7
  6
CONTINUOUS
 10
17.059669559
 20
2.4041904287
 11
17.0679095636
 21
2.4089664314
  0
ARC
  5
315
100
AcDbEntity
  8
0
100
AcDbCircle
 62
7
  6
CONTINUOUS
 10
17.4632701481
 20
2.3568008172
 40
0.0024754162
100
AcDbArc
 50
226.3593695814
 51
270.0146919953
  0
ARC
  5
316
100
AcDbEntity
  8
0
100
AcDbCircle
 62
7
  6
CONTINUOUS
 10
16.8743904545
 20
2.3568004006
 40
0.0024749995
100
AcDbArc
 50
179.9999571957
 51
270.0000428043
  0
ARC
  5
317
100
AcDbEntity
  8
0
100
AcDbCircle
 62
7
  6
CONTINUOUS
 10
17.5374758259
 20
2.3568004006
 40
0.0024749995
100
AcDbArc
 50
269.9999571957
 51
0.0000428043
  0
ARC
  5
318
100
AcDbEntity
  8
0
100
AcDbCircle
 62
7
  6
CONTINUOUS
 10
17.416889759
 20
2.3568004006
 40
0.0024749995
100
AcDbArc
 50
269.9999571957
 51
0.0000428043
  0
ARC
  5
319
100
AcDbEntity
  8
0
100
AcDbCircle
 62
7
  6
CONTINUOUS
 10
17.3412257133
 20
2.3568004006
 40
0.0024749995
100
AcDbArc
 50
179.9999571957
 51
270.0000428043
  0
ARC
  5
31A
100
AcDbEntity
  8
0
100
AcDbCircle
 62
7
  6
CONTINUOUS
 10
17.2060356384
 20
2.3568004006
 40
0.0024749995
100
AcDbArc
 50
179.9999571957
 51
270.0000428043
  0
ARC
  5
31B
100
AcDbEntity
  8
0
100
AcDbCircle
 62
7
  6
CONTINUOUS
 10
17.3113167005
 20
2.3568004006
 40
0.0024749995
100
AcDbArc
 50
269.9999571957
 51
0.0000428043
  0
ARC
  5
31C
100
AcDbEntity
  8
0
100
AcDbCircle
 62
7
  6
CONTINUOUS
 10
17.1083735842
 20
2.3568004006
 40
0.0024749995
100
AcDbArc
 50
179.9999571957
 51
270.0000428043
  0
ARC
  5
31D
100
AcDbEntity
  8
0
100
AcDbCircle
 62
7
  6
CONTINUOUS
 10
17.1857496308
 20
2.3568004006
 40
0.0024749995
100
AcDbArc
 50
269.9999571958
 51
0.0000428044
  0
ARC
  5
31E
100
AcDbEntity
  8
0
100
AcDbCircle
 62
7
  6
CONTINUOUS
 10
17.0404590422
 20
2.3933827403
 40
0.061747717
100
AcDbArc
 50
59.5385584989
 51
90.0050977555
  0
ARC
  5
31F
100
AcDbEntity
  8
0
100
AcDbCircle
 62
7
  6
CONTINUOUS
 10
17.0481152095
 20
2.4027328529
 40
0.048483885
100
AcDbArc
 50
273.21763719
 51
303.0749121182
  0
ARC
  5
320
100
AcDbEntity
  8
0
100
AcDbCircle
 62
7
  6
CONTINUOUS
 10
17.0620614151
 20
2.3797859164
 40
0.0222174455
100
AcDbArc
 50
4.0793399388
 51
69.834329283
  0
ARC
  5
321
100
AcDbEntity
  8
0
100
AcDbCircle
 62
7
  6
CONTINUOUS
 10
17.0629546036
 20
2.379965244
 40
0.0213072145
100
AcDbArc
 50
303.0488228549
 51
355.7263138674
  0
ARC
  5
322
100
AcDbEntity
  8
0
100
AcDbCircle
 62
7
  6
CONTINUOUS
 10
17.0688911042
 20
2.3799744343
 40
0.0153945295
100
AcDbArc
 50
354.0454548824
 51
5.1878013979
  0
ARC
  5
323
100
AcDbEntity
  8
0
100
AcDbCircle
 62
7
  6
CONTINUOUS
 10
17.0051585288
 20
2.3877379196
 40
0.0086625048
100
AcDbArc
 50
270.0
 51
90.0
  0
ARC
  5
324
100
AcDbEntity
  8
0
100
AcDbCircle
 62
7
  6
CONTINUOUS
 10
17.2148601055
 20
2.3902439622
 40
0.0024754602
100
AcDbArc
 50
32.8959418573
 51
89.9875097202
  0
ARC
  5
325
100
AcDbEntity
  8
0
100
AcDbCircle
 62
7
  6
CONTINUOUS
 10
17.131234669
 20
2.3815506151
 40
0.0024752003
100
AcDbArc
 50
269.9983726451
 51
327.602165307
  0
ARC
  5
326
100
AcDbEntity
  8
0
100
AcDbCircle
 62
7
  6
CONTINUOUS
 10
17.1799825555
 20
2.3902442221
 40
0.0024752003
100
AcDbArc
 50
89.998372645
 51
147.602165307
  0
ARC
  5
327
100
AcDbEntity
  8
0
100
AcDbCircle
 62
7
  6
CONTINUOUS
 10
17.1744665134
 20
2.3815504549
 40
0.0024750401
100
AcDbArc
 50
147.6063258011
 51
270.0025305754
  0
ARC
  5
328
100
AcDbEntity
  8
0
100
AcDbCircle
 62
7
  6
CONTINUOUS
 10
16.8983324714
 20
2.3815504143
 40
0.0024749995
100
AcDbArc
 50
269.9999571957
 51
0.0000428043
  0
ARC
  5
329
100
AcDbEntity
  8
0
100
AcDbCircle
 62
7
  6
CONTINUOUS
 10
16.8743904545
 20
2.3766004153
 40
0.0024749995
100
AcDbArc
 50
89.9999571957
 51
180.0000428043
  0
ARC
  5
32A
100
AcDbEntity
  8
0
100
AcDbCircle
 62
7
  6
CONTINUOUS
 10
16.963795504
 20
2.3939254249
 40
0.0024749995
100
AcDbArc
 50
89.9999571957
 51
180.0000428043
  0
ARC
  5
32B
100
AcDbEntity
  8
0
100
AcDbCircle
 62
7
  6
CONTINUOUS
 10
16.963795504
 20
2.3815504143
 40
0.0024749995
100
AcDbArc
 50
179.9999571957
 51
270.0000428043
  0
ARC
  5
32C
100
AcDbEntity
  8
0
100
AcDbCircle
 62
7
  6
CONTINUOUS
 10
17.2060356384
 20
2.3766004153
 40
0.0024749995
100
AcDbArc
 50
89.9999571957
 51
180.0000428043
  0
ARC
  5
32D
100
AcDbEntity
  8
0
100
AcDbCircle
 62
7
  6
CONTINUOUS
 10
17.1083735842
 20
2.3766004153
 40
0.0024749995
100
AcDbArc
 50
89.9999571957
 51
180.0000428043
  0
ARC
  5
32E
100
AcDbEntity
  8
0
100
AcDbCircle
 62
7
  6
CONTINUOUS
 10
17.1857496308
 20
2.3766004153
 40
0.0024749995
100
AcDbArc
 50
359.9999571957
 51
90.0000428043
  0
ARC
  5
32F
100
AcDbEntity
  8
0
100
AcDbCircle
 62
7
  6
CONTINUOUS
 10
17.0460441811
 20
2.445793323
 40
0.0428289026
100
AcDbArc
 50
300.6990502959
 51
319.0591802498
  0
ARC
  5
330
100
AcDbEntity
  8
0
100
AcDbCircle
 62
7
  6
CONTINUOUS
 10
17.0611211659
 20
2.4263113051
 40
0.0229166529
100
AcDbArc
 50
20.6563876465
 51
62.3316896973
  0
ARC
  5
331
100
AcDbEntity
  8
0
100
AcDbCircle
 62
7
  6
CONTINUOUS
 10
17.0660727781
 20
2.4296649696
 40
0.0171568255
100
AcDbArc
 50
315.9145124245
 51
16.0049121283
  0
ARC
  5
332
100
AcDbEntity
  8
0
100
AcDbCircle
 62
7
  6
CONTINUOUS
 10
17.0051585288
 20
2.4217179385
 40
0.0086625048
100
AcDbArc
 50
270.0
 51
90.0
  0
ARC
  5
333
100
AcDbEntity
  8
0
100
AcDbCircle
 62
7
  6
CONTINUOUS
 10
17.2017960982
 20
2.4273609828
 40
0.0024754602
100
AcDbArc
 50
32.8959418573
 51
89.9875097202
  0
ARC
  5
334
100
AcDbEntity
  8
0
100
AcDbCircle
 62
7
  6
CONTINUOUS
 10
17.2090556207
 20
2.4161446411
 40
0.0024752071
100
AcDbArc
 50
270.0004896793
 51
32.9089806818
  0
ARC
  5
335
100
AcDbEntity
  8
0
100
AcDbCircle
 62
7
  6
CONTINUOUS
 10
17.1956155641
 20
2.4273612427
 40
0.0024752003
100
AcDbArc
 50
89.998372645
 51
147.602165307
  0
ARC
  5
336
100
AcDbEntity
  8
0
100
AcDbCircle
 62
7
  6
CONTINUOUS
 10
17.1822145567
 20
2.4526552567
 40
0.0024752003
100
AcDbArc
 50
89.998372645
 51
147.602165307
  0
ARC
  5
337
100
AcDbEntity
  8
0
100
AcDbCircle
 62
7
  6
CONTINUOUS
 10
17.1884985212
 20
2.4161444741
 40
0.0024750401
100
AcDbArc
 50
147.6063258012
 51
270.0025305754
  0
ARC
  5
338
100
AcDbEntity
  8
0
100
AcDbCircle
 62
7
  6
CONTINUOUS
 10
16.8743904545
 20
2.4526554575
 40
0.0024749995
100
AcDbArc
 50
89.9999571957
 51
180.0000428043
  0
ARC
  5
339
100
AcDbEntity
  8
0
100
AcDbCircle
 62
7
  6
CONTINUOUS
 10
16.8743904545
 20
2.4328554428
 40
0.0024749995
100
AcDbArc
 50
179.9999571957
 51
270.0000428043
  0
ARC
  5
33A
100
AcDbEntity
  8
0
100
AcDbCircle
 62
7
  6
CONTINUOUS
 10
16.8983324714
 20
2.4279054437
 40
0.0024749995
100
AcDbArc
 50
359.9999571957
 51
90.0000428043
  0
ARC
  5
33B
100
AcDbEntity
  8
0
100
AcDbCircle
 62
7
  6
CONTINUOUS
 10
16.963795504
 20
2.4279054437
 40
0.0024749995
100
AcDbArc
 50
89.9999571957
 51
180.0000428043
  0
ARC
  5
33C
100
AcDbEntity
  8
0
100
AcDbCircle
 62
7
  6
CONTINUOUS
 10
16.963795504
 20
2.4155304332
 40
0.0024749995
100
AcDbArc
 50
179.9999571957
 51
270.0000428043
  0
ARC
  5
33D
100
AcDbEntity
  8
0
100
AcDbCircle
 62
7
  6
CONTINUOUS
 10
17.5051335061
 20
2.3989573626
 40
0.0024753014
100
AcDbArc
 50
226.3461263059
 51
0.0014637321
  0
ARC
  5
33E
100
AcDbEntity
  8
0
100
AcDbCircle
 62
7
  6
CONTINUOUS
 10
17.3965730459
 20
2.4135964972
 40
0.0024753014
100
AcDbArc
 50
46.3461263059
 51
180.0014637321
  0
ARC
  5
33F
100
AcDbEntity
  8
0
100
AcDbCircle
 62
7
  6
CONTINUOUS
 10
17.2204866271
 20
2.3815506219
 40
0.0024752071
100
AcDbArc
 50
270.0004896793
 51
32.9089806818
  0
ARC
  5
340
100
AcDbEntity
  8
0
100
AcDbCircle
 62
7
  6
CONTINUOUS
 10
17.396572744
 20
2.3815504143
 40
0.0024749995
100
AcDbArc
 50
179.9999571957
 51
270.0000428043
  0
ARC
  5
341
100
AcDbEntity
  8
0
100
AcDbCircle
 62
7
  6
CONTINUOUS
 10
17.416889759
 20
2.3766004153
 40
0.0024749995
100
AcDbArc
 50
359.9999571957
 51
90.0000428043
  0
ARC
  5
342
100
AcDbEntity
  8
0
100
AcDbCircle
 62
7
  6
CONTINUOUS
 10
17.3412257133
 20
2.3766004153
 40
0.0024749995
100
AcDbArc
 50
89.9999571957
 51
180.0000428043
  0
ARC
  5
343
100
AcDbEntity
  8
0
100
AcDbCircle
 62
7
  6
CONTINUOUS
 10
17.3598727274
 20
2.3815504143
 40
0.0024749995
100
AcDbArc
 50
269.9999571957
 51
0.0000428043
  0
ARC
  5
344
100
AcDbEntity
  8
0
100
AcDbCircle
 62
7
  6
CONTINUOUS
 10
17.3113167005
 20
2.3766004153
 40
0.0024749995
100
AcDbArc
 50
359.9999571957
 51
90.0000428043
  0
ARC
  5
345
100
AcDbEntity
  8
0
100
AcDbCircle
 62
7
  6
CONTINUOUS
 10
17.291300808
 20
2.3815494558
 40
0.002474041
100
AcDbArc
 50
212.9056413127
 51
269.9972091755
  0
ARC
  5
346
100
AcDbEntity
  8
0
100
AcDbCircle
 62
7
  6
CONTINUOUS
 10
17.5051338079
 20
2.4279054437
 40
0.0024749995
100
AcDbArc
 50
359.9999571957
 51
90.0000428043
  0
ARC
  5
347
100
AcDbEntity
  8
0
100
AcDbCircle
 62
7
  6
CONTINUOUS
 10
17.4863577938
 20
2.4328554428
 40
0.0024749995
100
AcDbArc
 50
179.9999571957
 51
270.0000428043
  0
ARC
  5
348
100
AcDbEntity
  8
0
100
AcDbCircle
 62
7
  6
CONTINUOUS
 10
17.4863577938
 20
2.4526554575
 40
0.0024749995
100
AcDbArc
 50
89.9999571957
 51
180.0000428043
  0
ARC
  5
349
100
AcDbEntity
  8
0
100
AcDbCircle
 62
7
  6
CONTINUOUS
 10
17.5603588386
 20
2.4526554575
 40
0.0024749995
100
AcDbArc
 50
359.9999571957
 51
90.0000428043
  0
ARC
  5
34A
100
AcDbEntity
  8
0
100
AcDbCircle
 62
7
  6
CONTINUOUS
 10
17.5603588386
 20
2.4328554428
 40
0.0024749995
100
AcDbArc
 50
269.9999571957
 51
0.0000428043
  0
ARC
  5
34B
100
AcDbEntity
  8
0
100
AcDbCircle
 62
7
  6
CONTINUOUS
 10
17.5424258249
 20
2.4279054437
 40
0.0024749995
100
AcDbArc
 50
89.9999571957
 51
180.0000428043
  0
ARC
  5
34C
100
AcDbEntity
  8
0
100
AcDbCircle
 62
7
  6
CONTINUOUS
 10
17.3598727274
 20
2.4279054437
 40
0.0024749995
100
AcDbArc
 50
359.9999571957
 51
90.0000428043
  0
ARC
  5
34D
100
AcDbEntity
  8
0
100
AcDbCircle
 62
7
  6
CONTINUOUS
 10
17.3412257133
 20
2.4328554428
 40
0.0024749995
100
AcDbArc
 50
179.9999571957
 51
270.0000428043
  0
ARC
  5
34E
100
AcDbEntity
  8
0
100
AcDbCircle
 62
7
  6
CONTINUOUS
 10
17.3412257133
 20
2.4526554575
 40
0.0024749995
100
AcDbArc
 50
89.9999571957
 51
180.0000428043
  0
ARC
  5
34F
100
AcDbEntity
  8
0
100
AcDbCircle
 62
7
  6
CONTINUOUS
 10
17.2393900382
 20
2.4526554968
 40
0.0024749602
100
AcDbArc
 50
32.9172174468
 51
90.0087853097
  0
ARC
  5
350
100
AcDbEntity
  8
0
100
AcDbCircle
 62
7
  6
CONTINUOUS
 10
17.4416839057
 20
2.4526562892
 40
0.0024741678
100
AcDbArc
 50
46.3477981899
 51
90.0031206038
  0
ARC
  5
351
100
AcDbEntity
  8
0
100
AcDbCircle
 62
7
  6
CONTINUOUS
 10
18.2152358981
 20
2.2725915465
 40
0.1825583387
100
AcDbArc
 50
79.8618509324
 51
89.1640948679
  0
ARC
  5
352
100
AcDbEntity
  8
0
100
AcDbCircle
 62
7
  6
CONTINUOUS
 10
18.197141171
 20
2.3016991173
 40
0.117346916
100
AcDbArc
 50
58.614769177
 51
62.3737227606
  0
ARC
  5
353
100
AcDbEntity
  8
0
100
AcDbCircle
 62
7
  6
CONTINUOUS
 10
18.2260032264
 20
2.3725718859
 40
0.0459185159
100
AcDbArc
 50
15.6740290068
 51
20.9917271228
  0
ARC
  5
354
100
AcDbEntity
  8
0
100
AcDbCircle
 62
7
  6
CONTINUOUS
 10
18.1662929967
 20
2.368643334
 40
0.0396099176
100
AcDbArc
 50
14.3201081283
 51
22.4984722084
  0
ARC
  5
355
100
AcDbEntity
  8
0
100
AcDbCircle
 62
7
  6
CONTINUOUS
 10
18.1850046504
 20
2.3693353402
 40
0.0243676582
100
AcDbArc
 50
63.3666028271
 51
90.3937697637
  0
ARC
  5
356
100
AcDbEntity
  8
0
100
AcDbCircle
 62
7
  6
CONTINUOUS
 10
18.2724993219
 20
2.3741987064
 40
0.0198837666
100
AcDbArc
 50
271.8586572978
 51
289.4131338543
  0
ARC
  5
357
100
AcDbEntity
  8
0
100
AcDbCircle
 62
7
  6
CONTINUOUS
 10
18.2265855264
 20
2.3716475527
 40
0.0173408616
100
AcDbArc
 50
232.4713476722
 51
267.338189944
  0
ARC
  5
358
100
AcDbEntity
  8
0
100
AcDbCircle
 62
7
  6
CONTINUOUS
 10
18.1818891832
 20
2.3568004006
 40
0.0024749995
100
AcDbArc
 50
269.9999571957
 51
0.0000428043
  0
ARC
  5
359
100
AcDbEntity
  8
0
100
AcDbCircle
 62
7
  6
CONTINUOUS
 10
18.0683181166
 20
2.3568004006
 40
0.0024749995
100
AcDbArc
 50
179.9999571957
 51
270.0000428043
  0
ARC
  5
35A
100
AcDbEntity
  8
0
100
AcDbCircle
 62
7
  6
CONTINUOUS
 10
17.7857289635
 20
2.3568004006
 40
0.0024749995
100
AcDbArc
 50
269.9999571957
 51
0.0000428043
  0
ARC
  5
35B
100
AcDbEntity
  8
0
100
AcDbCircle
 62
7
  6
CONTINUOUS
 10
17.6651428967
 20
2.3568004006
 40
0.0024749995
100
AcDbArc
 50
269.9999571957
 51
0.0000428043
  0
ARC
  5
35C
100
AcDbEntity
  8
0
100
AcDbCircle
 62
7
  6
CONTINUOUS
 10
17.589478851
 20
2.3568004006
 40
0.0024749995
100
AcDbArc
 50
179.9999571957
 51
270.0000428043
  0
ARC
  5
35D
100
AcDbEntity
  8
0
100
AcDbCircle
 62
7
  6
CONTINUOUS
 10
18.0394141042
 20
2.3568004006
 40
0.0024749995
100
AcDbArc
 50
269.9999571957
 51
0.0000428043
  0
ARC
  5
35E
100
AcDbEntity
  8
0
100
AcDbCircle
 62
7
  6
CONTINUOUS
 10
17.8362019878
 20
2.3568004006
 40
0.0024749995
100
AcDbArc
 50
179.9999571957
 51
270.0000428043
  0
ARC
  5
35F
100
AcDbEntity
  8
0
100
AcDbCircle
 62
7
  6
CONTINUOUS
 10
17.7115227858
 20
2.3567995689
 40
0.0024741678
100
AcDbArc
 50
226.3477981898
 51
270.0031206038
  0
ARC
  5
360
100
AcDbEntity
  8
0
100
AcDbCircle
 62
7
  6
CONTINUOUS
 10
17.7533866437
 20
2.3989573626
 40
0.0024753014
100
AcDbArc
 50
226.3461263059
 51
0.0014637321
  0
ARC
  5
361
100
AcDbEntity
  8
0
100
AcDbCircle
 62
7
  6
CONTINUOUS
 10
17.6448261836
 20
2.4135964972
 40
0.0024753014
100
AcDbArc
 50
46.3461263058
 51
180.0014637321
  0
ARC
  5
362
100
AcDbEntity
  8
0
100
AcDbCircle
 62
7
  6
CONTINUOUS
 10
17.6448258817
 20
2.3815504143
 40
0.0024749995
100
AcDbArc
 50
179.9999571957
 51
270.0000428043
  0
ARC
  5
363
100
AcDbEntity
  8
0
100
AcDbCircle
 62
7
  6
CONTINUOUS
 10
17.6651428967
 20
2.3766004153
 40
0.0024749995
100
AcDbArc
 50
359.9999571957
 51
90.0000428043
  0
ARC
  5
364
100
AcDbEntity
  8
0
100
AcDbCircle
 62
7
  6
CONTINUOUS
 10
17.589478851
 20
2.3766004153
 40
0.0024749995
100
AcDbArc
 50
89.9999571957
 51
180.0000428043
  0
ARC
  5
365
100
AcDbEntity
  8
0
100
AcDbCircle
 62
7
  6
CONTINUOUS
 10
17.6081248651
 20
2.3815504143
 40
0.0024749995
100
AcDbArc
 50
269.9999571957
 51
0.0000428043
  0
ARC
  5
366
100
AcDbEntity
  8
0
100
AcDbCircle
 62
7
  6
CONTINUOUS
 10
17.9271410383
 20
2.3931004244
 40
0.0024749995
100
AcDbArc
 50
89.9999571957
 51
180.0000428043
  0
ARC
  5
367
100
AcDbEntity
  8
0
100
AcDbCircle
 62
7
  6
CONTINUOUS
 10
17.9271410383
 20
2.3815504143
 40
0.0024749995
100
AcDbArc
 50
179.9999571957
 51
270.0000428043
  0
ARC
  5
368
100
AcDbEntity
  8
0
100
AcDbCircle
 62
7
  6
CONTINUOUS
 10
17.8362019878
 20
2.3766004153
 40
0.0024749995
100
AcDbArc
 50
89.9999571957
 51
180.0000428043
  0
ARC
  5
369
100
AcDbEntity
  8
0
100
AcDbCircle
 62
7
  6
CONTINUOUS
 10
17.8601250048
 20
2.3815504143
 40
0.0024749995
100
AcDbArc
 50
269.9999571956
 51
0.0000428042
  0
ARC
  5
36A
100
AcDbEntity
  8
0
100
AcDbCircle
 62
7
  6
CONTINUOUS
 10
17.9271410383
 20
2.4163554336
 40
0.0024749995
100
AcDbArc
 50
179.9999571957
 51
270.0000428043
  0
ARC
  5
36B
100
AcDbEntity
  8
0
100
AcDbCircle
 62
7
  6
CONTINUOUS
 10
17.7533869456
 20
2.4279054437
 40
0.0024749995
100
AcDbArc
 50
359.9999571957
 51
90.0000428043
  0
ARC
  5
36C
100
AcDbEntity
  8
0
100
AcDbCircle
 62
7
  6
CONTINUOUS
 10
17.7346109315
 20
2.4328554428
 40
0.0024749995
100
AcDbArc
 50
179.9999571957
 51
270.0000428043
  0
ARC
  5
36D
100
AcDbEntity
  8
0
100
AcDbCircle
 62
7
  6
CONTINUOUS
 10
17.7346109315
 20
2.4526554575
 40
0.0024749995
100
AcDbArc
 50
89.9999571957
 51
180.0000428043
  0
ARC
  5
36E
100
AcDbEntity
  8
0
100
AcDbCircle
 62
7
  6
CONTINUOUS
 10
17.8086119762
 20
2.4526554575
 40
0.0024749995
100
AcDbArc
 50
359.9999571957
 51
90.0000428043
  0
ARC
  5
36F
100
AcDbEntity
  8
0
100
AcDbCircle
 62
7
  6
CONTINUOUS
 10
17.8086119762
 20
2.4328554428
 40
0.0024749995
100
AcDbArc
 50
269.9999571956
 51
0.0000428042
  0
ARC
  5
370
100
AcDbEntity
  8
0
100
AcDbCircle
 62
7
  6
CONTINUOUS
 10
17.7906789626
 20
2.4279054437
 40
0.0024749995
100
AcDbArc
 50
89.9999571957
 51
180.0000428043
  0
ARC
  5
371
100
AcDbEntity
  8
0
100
AcDbCircle
 62
7
  6
CONTINUOUS
 10
17.6081248651
 20
2.4279054437
 40
0.0024749995
100
AcDbArc
 50
359.9999571957
 51
90.0000428043
  0
ARC
  5
372
100
AcDbEntity
  8
0
100
AcDbCircle
 62
7
  6
CONTINUOUS
 10
17.589478851
 20
2.4328554428
 40
0.0024749995
100
AcDbArc
 50
179.9999571957
 51
270.0000428043
  0
ARC
  5
373
100
AcDbEntity
  8
0
100
AcDbCircle
 62
7
  6
CONTINUOUS
 10
17.589478851
 20
2.4526554575
 40
0.0024749995
100
AcDbArc
 50
89.9999571957
 51
180.0000428043
  0
ARC
  5
374
100
AcDbEntity
  8
0
100
AcDbCircle
 62
7
  6
CONTINUOUS
 10
17.8601250048
 20
2.4279054437
 40
0.0024749995
100
AcDbArc
 50
359.9999571957
 51
90.0000428043
  0
ARC
  5
375
100
AcDbEntity
  8
0
100
AcDbCircle
 62
7
  6
CONTINUOUS
 10
17.8362019878
 20
2.4328554428
 40
0.0024749995
100
AcDbArc
 50
179.9999571957
 51
270.0000428043
  0
ARC
  5
376
100
AcDbEntity
  8
0
100
AcDbCircle
 62
7
  6
CONTINUOUS
 10
17.8362019878
 20
2.4526554575
 40
0.0024749995
100
AcDbArc
 50
89.9999571957
 51
180.0000428043
  0
ARC
  5
377
100
AcDbEntity
  8
0
100
AcDbCircle
 62
7
  6
CONTINUOUS
 10
17.9271410383
 20
2.4279054437
 40
0.0024749995
100
AcDbArc
 50
89.9999571957
 51
180.0000428043
  0
ARC
  5
378
100
AcDbEntity
  8
0
100
AcDbCircle
 62
7
  6
CONTINUOUS
 10
17.6899370433
 20
2.4526562892
 40
0.0024741678
100
AcDbArc
 50
46.3477981899
 51
90.0031206038
  0
ARC
  5
379
100
AcDbEntity
  8
0
100
AcDbCircle
 62
7
  6
CONTINUOUS
 10
18.2495655574
 20
2.384346736
 40
0.044722495
100
AcDbArc
 50
195.531588407
 51
204.7624440448
  0
ARC
  5
37A
100
AcDbEntity
  8
0
100
AcDbCircle
 62
7
  6
CONTINUOUS
 10
18.2415401884
 20
2.4134150625
 40
0.039319019
100
AcDbArc
 50
59.1202086415
 51
81.4730239328
  0
ARC
  5
37B
100
AcDbEntity
  8
0
100
AcDbCircle
 62
7
  6
CONTINUOUS
 10
18.2667613545
 20
2.3917854558
 40
0.0383802683
100
AcDbArc
 50
288.7656836787
 51
309.6104317088
  0
ARC
  5
37C
100
AcDbEntity
  8
0
100
AcDbCircle
 62
7
  6
CONTINUOUS
 10
18.2471995846
 20
2.4197497317
 40
0.0310192946
100
AcDbArc
 50
34.7540871
 51
62.0879016178
  0
ARC
  5
37D
100
AcDbEntity
  8
0
100
AcDbCircle
 62
7
  6
CONTINUOUS
 10
18.1924863006
 20
2.4019259643
 40
0.0284963867
100
AcDbArc
 50
70.3834917948
 51
86.8922743861
  0
ARC
  5
37E
100
AcDbEntity
  8
0
100
AcDbCircle
 62
7
  6
CONTINUOUS
 10
18.2737535399
 20
2.384184238
 40
0.0280715479
100
AcDbArc
 50
308.5071794988
 51
332.2400656899
  0
ARC
  5
37F
100
AcDbEntity
  8
0
100
AcDbCircle
 62
7
  6
CONTINUOUS
 10
18.2439037681
 20
2.3797532943
 40
0.0266349791
100
AcDbArc
 50
20.3630922153
 51
37.9727053099
  0
ARC
  5
380
100
AcDbEntity
  8
0
100
AcDbCircle
 62
7
  6
CONTINUOUS
 10
18.2450241237
 20
2.3798263774
 40
0.0257145923
100
AcDbArc
 50
39.3804255939
 51
59.0361096173
  0
ARC
  5
381
100
AcDbEntity
  8
0
100
AcDbCircle
 62
7
  6
CONTINUOUS
 10
18.2296840914
 20
2.3774978567
 40
0.0238935861
100
AcDbArc
 50
209.8247607259
 51
235.1255079367
  0
ARC
  5
382
100
AcDbEntity
  8
0
100
AcDbCircle
 62
7
  6
CONTINUOUS
 10
18.2830605507
 20
2.3792897325
 40
0.0175560065
100
AcDbArc
 50
332.2279060967
 51
359.6595469939
  0
ARC
  5
383
100
AcDbEntity
  8
0
100
AcDbCircle
 62
7
  6
CONTINUOUS
 10
18.1890593051
 20
2.3776149607
 40
0.0151491919
100
AcDbArc
 50
24.098260853
 51
63.0369451818
  0
ARC
  5
384
100
AcDbEntity
  8
0
100
AcDbCircle
 62
7
  6
CONTINUOUS
 10
18.2845735615
 20
2.3882148688
 40
0.0147197649
100
AcDbArc
 50
192.7054516565
 51
206.0594861022
  0
ARC
  5
385
100
AcDbEntity
  8
0
100
AcDbCircle
 62
7
  6
CONTINUOUS
 10
18.1973459106
 20
2.4149676972
 40
0.0145814632
100
AcDbArc
 50
54.6746025112
 51
71.1660573124
  0
ARC
  5
386
100
AcDbEntity
  8
0
100
AcDbCircle
 62
7
  6
CONTINUOUS
 10
18.2752146786
 20
2.3927110743
 40
0.0132488022
100
AcDbArc
 50
270.266200055
 51
281.2404888597
  0
ARC
  5
387
100
AcDbEntity
  8
0
100
AcDbCircle
 62
7
  6
CONTINUOUS
 10
18.2716089246
 20
2.3878675959
 40
0.0119498009
100
AcDbArc
 50
340.7883861657
 51
1.1691452593
  0
ARC
  5
388
100
AcDbEntity
  8
0
100
AcDbCircle
 62
7
  6
CONTINUOUS
 10
18.198398534
 20
2.4260095887
 40
0.0110815393
100
AcDbArc
 50
306.758405961
 51
320.4502234234
  0
ARC
  5
389
100
AcDbEntity
  8
0
100
AcDbCircle
 62
7
  6
CONTINUOUS
 10
18.2764089196
 20
2.3869743807
 40
0.0073895522
100
AcDbArc
 50
280.8288201977
 51
305.0837508495
  0
ARC
  5
38A
100
AcDbEntity
  8
0
100
AcDbCircle
 62
7
  6
CONTINUOUS
 10
18.2768101012
 20
2.3861235343
 40
0.0064647042
100
AcDbArc
 50
306.5086174083
 51
340.2162360092
  0
ARC
  5
38B
100
AcDbEntity
  8
0
100
AcDbCircle
 62
7
  6
CONTINUOUS
 10
18.2024754016
 20
2.4218216224
 40
0.0060275915
100
AcDbArc
 50
20.9055592135
 51
56.7851676243
  0
ARC
  5
38C
100
AcDbEntity
  8
0
100
AcDbCircle
 62
7
  6
CONTINUOUS
 10
18.2025691502
 20
2.4227756809
 40
0.0058087709
100
AcDbArc
 50
318.8515287446
 51
353.6422345323
  0
ARC
  5
38D
100
AcDbEntity
  8
0
100
AcDbCircle
 62
7
  6
CONTINUOUS
 10
18.2760792244
 20
2.3840063824
 40
0.0052403997
100
AcDbArc
 50
205.5232099488
 51
227.5054868079
  0
ARC
  5
38E
100
AcDbEntity
  8
0
100
AcDbCircle
 62
7
  6
CONTINUOUS
 10
18.2037759605
 20
2.4224819047
 40
0.0045795888
100
AcDbArc
 50
355.6235353944
 51
18.9942678268
  0
ARC
  5
38F
100
AcDbEntity
  8
0
100
AcDbCircle
 62
7
  6
CONTINUOUS
 10
18.2743509251
 20
2.3821910097
 40
0.0027347709
100
AcDbArc
 50
228.5117626738
 51
266.1485845754
  0
ARC
  5
390
100
AcDbEntity
  8
0
100
AcDbCircle
 62
7
  6
CONTINUOUS
 10
18.1572301659
 20
2.3912274234
 40
0.0024749995
100
AcDbArc
 50
89.9999571957
 51
180.0000428043
  0
ARC
  5
391
100
AcDbEntity
  8
0
100
AcDbCircle
 62
7
  6
CONTINUOUS
 10
18.1572301659
 20
2.3815284143
 40
0.0024749995
100
AcDbArc
 50
179.9999571957
 51
270.0000428043
  0
ARC
  5
392
100
AcDbEntity
  8
0
100
AcDbCircle
 62
7
  6
CONTINUOUS
 10
18.1818891832
 20
2.3765784153
 40
0.0024749995
100
AcDbArc
 50
359.9999571957
 51
90.0000428043
  0
ARC
  5
393
100
AcDbEntity
  8
0
100
AcDbCircle
 62
7
  6
CONTINUOUS
 10
18.0683181166
 20
2.3766004153
 40
0.0024749995
100
AcDbArc
 50
89.9999571957
 51
180.0000428043
  0
ARC
  5
394
100
AcDbEntity
  8
0
100
AcDbCircle
 62
7
  6
CONTINUOUS
 10
18.0910641329
 20
2.3815504143
 40
0.0024749995
100
AcDbArc
 50
269.9999571957
 51
0.0000428043
  0
ARC
  5
395
100
AcDbEntity
  8
0
100
AcDbCircle
 62
7
  6
CONTINUOUS
 10
18.2860312373
 20
2.3907374231
 40
0.0024749995
100
AcDbArc
 50
89.9999571957
 51
180.0000428043
  0
ARC
  5
396
100
AcDbEntity
  8
0
100
AcDbCircle
 62
7
  6
CONTINUOUS
 10
18.2981412477
 20
2.3907374231
 40
0.0024749995
100
AcDbArc
 50
359.9999571957
 51
90.0000428043
  0
ARC
  5
397
100
AcDbEntity
  8
0
100
AcDbCircle
 62
7
  6
CONTINUOUS
 10
18.1572301659
 20
2.415180433
 40
0.0024749995
100
AcDbArc
 50
179.9999571957
 51
270.0000428043
  0
ARC
  5
398
100
AcDbEntity
  8
0
100
AcDbCircle
 62
7
  6
CONTINUOUS
 10
17.992145078
 20
2.3815504143
 40
0.0024749995
100
AcDbArc
 50
269.9999571957
 51
0.0000428043
  0
ARC
  5
399
100
AcDbEntity
  8
0
100
AcDbCircle
 62
7
  6
CONTINUOUS
 10
17.9970950771
 20
2.3898004226
 40
0.0024749995
100
AcDbArc
 50
89.9999571957
 51
180.0000428043
  0
ARC
  5
39A
100
AcDbEntity
  8
0
100
AcDbCircle
 62
7
  6
CONTINUOUS
 10
18.0394141042
 20
2.3898004226
 40
0.0024749995
100
AcDbArc
 50
359.9999571957
 51
90.0000428043
  0
ARC
  5
39B
100
AcDbEntity
  8
0
100
AcDbCircle
 62
7
  6
CONTINUOUS
 10
18.0379951034
 20
2.4196554355
 40
0.0024749995
100
AcDbArc
 50
269.9999571956
 51
0.0000428042
  0
ARC
  5
39C
100
AcDbEntity
  8
0
100
AcDbCircle
 62
7
  6
CONTINUOUS
 10
17.9961310765
 20
2.4196554355
 40
0.0024749995
100
AcDbArc
 50
179.9999571957
 51
270.0000428043
  0
ARC
  5
39D
100
AcDbEntity
  8
0
100
AcDbCircle
 62
7
  6
CONTINUOUS
 10
17.9623080615
 20
2.4114054346
 40
0.0024749995
100
AcDbArc
 50
359.9999571957
 51
90.0000428043
  0
ARC
  5
39E
100
AcDbEntity
  8
0
100
AcDbCircle
 62
7
  6
CONTINUOUS
 10
17.9623080615
 20
2.3980504235
 40
0.0024749995
100
AcDbArc
 50
269.9999571956
 51
0.0000428042
  0
ARC
  5
39F
100
AcDbEntity
  8
0
100
AcDbCircle
 62
7
  6
CONTINUOUS
 10
18.220842337
 20
2.4783532224
 40
0.0789082104
100
AcDbArc
 50
292.906155071
 51
305.2574666259
  0
ARC
  5
3A0
100
AcDbEntity
  8
0
100
AcDbCircle
 62
7
  6
CONTINUOUS
 10
18.2511742746
 20
2.4351463727
 40
0.0261183659
100
AcDbArc
 50
305.6373831893
 51
329.9727629745
  0
ARC
  5
3A1
100
AcDbEntity
  8
0
100
AcDbCircle
 62
7
  6
CONTINUOUS
 10
18.1908418374
 20
2.4381440645
 40
0.0254407115
100
AcDbArc
 50
270.7327484175
 51
290.441894219
  0
ARC
  5
3A2
100
AcDbEntity
  8
0
100
AcDbCircle
 62
7
  6
CONTINUOUS
 10
18.1927693431
 20
2.4337504172
 40
0.0206523367
100
AcDbArc
 50
289.6883413472
 51
306.4184925496
  0
ARC
  5
3A3
100
AcDbEntity
  8
0
100
AcDbCircle
 62
7
  6
CONTINUOUS
 10
18.2588883357
 20
2.4282993328
 40
0.0165459396
100
AcDbArc
 50
1.548452892
 51
33.5033152417
  0
ARC
  5
3A4
100
AcDbEntity
  8
0
100
AcDbCircle
 62
7
  6
CONTINUOUS
 10
18.2621849309
 20
2.428467785
 40
0.0132462337
100
AcDbArc
 50
331.1510006998
 51
1.205404301
  0
ARC
  5
3A5
100
AcDbEntity
  8
0
100
AcDbCircle
 62
7
  6
CONTINUOUS
 10
18.0910641329
 20
2.4279054437
 40
0.0024749995
100
AcDbArc
 50
359.9999571957
 51
90.0000428043
  0
ARC
  5
3A6
100
AcDbEntity
  8
0
100
AcDbCircle
 62
7
  6
CONTINUOUS
 10
18.0683181166
 20
2.4328554428
 40
0.0024749995
100
AcDbArc
 50
179.9999571957
 51
270.0000428043
  0
ARC
  5
3A7
100
AcDbEntity
  8
0
100
AcDbCircle
 62
7
  6
CONTINUOUS
 10
18.0683181166
 20
2.4526554575
 40
0.0024749995
100
AcDbArc
 50
89.9999571957
 51
180.0000428043
  0
ARC
  5
3A8
100
AcDbEntity
  8
0
100
AcDbCircle
 62
7
  6
CONTINUOUS
 10
18.1572301659
 20
2.4279054437
 40
0.0024749995
100
AcDbArc
 50
89.9999571957
 51
180.0000428043
  0
ARC
  5
3A9
100
AcDbEntity
  8
0
100
AcDbCircle
 62
7
  6
CONTINUOUS
 10
18.0379951034
 20
2.4526554575
 40
0.0024749995
100
AcDbArc
 50
359.9999571957
 51
90.0000428043
  0
ARC
  5
3AA
100
AcDbEntity
  8
0
100
AcDbCircle
 62
7
  6
CONTINUOUS
 10
17.9911810775
 20
2.4279054437
 40
0.0024749995
100
AcDbArc
 50
359.9999571957
 51
90.0000428043
  0
ELLIPSE
  5
3AB
100
AcDbEntity
  8
0
100
AcDbEllipse
 62
7
  6
CONTINUOUS
 10
17.573550844
 20
2.4034764283
 30
0.0
 11
-0.8250004575
 21
0.0
 31
0.0
 40
0.218572
 41
0.0
 42
6.2831853072
  0
HATCH
  5
3AC
100
AcDbEntity
  8
0
100
AcDbHatch
 62
7
  6
CONTINUOUS
 10
0.0
 20
0.0
 30
0.0
210
0.0
220
0.0
230
1.0
  2
XSEC0002
 70
1
 71
1
 91
11
 92
1
 93
57
 72
2
 10
18.2265855264
 20
2.3716475527
 40
0.0173408616
 50
232.4713476722
 51
267.338189944
 73
1
 72
2
 10
18.2296840914
 20
2.3774978567
 40
0.0238935861
 50
209.8247607259
 51
235.1255079367
 73
1
 72
2
 10
18.2495655574
 20
2.384346736
 40
0.044722495
 50
195.531588407
 51
204.7624440448
 73
1
 72
1
 10
18.206476195
 20
2.3723714111
 11
18.204672194
 21
2.3784404145
 72
2
 10
18.1662929967
 20
2.368643334
 40
0.0396099176
 50
14.3201081283
 51
22.4984722084
 73
1
 72
2
 10
18.1890593051
 20
2.3776149607
 40
0.0151491919
 50
24.098260853
 51
63.0369451818
 73
1
 72
2
 10
18.1850046504
 20
2.3693353402
 40
0.0243676582
 50
63.3666028271
 51
90.3937697637
 73
1
 72
1
 10
18.184837183
 20
2.3937024229
 11
18.1572301677
 21
2.3937024229
 72
2
 10
18.1572301659
 20
2.3912274234
 40
0.0024749995
 50
89.9999571957
 51
180.0000428043
 73
1
 72
1
 10
18.1547551663
 20
2.3912274216
 11
18.1547551663
 21
2.3815284162
 72
2
 10
18.1572301659
 20
2.3815284143
 40
0.0024749995
 50
179.9999571957
 51
270.0000428043
 73
1
 72
1
 10
18.1572301677
 20
2.3790534148
 11
18.1818891814
 21
2.3790534148
 72
2
 10
18.1818891832
 20
2.3765784153
 40
0.0024749995
 50
359.9999571957
 51
90.0000428042
 73
1
 72
1
 10
18.1843641828
 20
2.3765784134
 11
18.1843641828
 21
2.3568004025
 72
2
 10
18.1818891832
 20
2.3568004006
 40
0.0024749995
 50
269.9999571958
 51
0.0000428043
 73
1
 72
1
 10
18.1818891814
 20
2.3543254011
 11
18.0683181184
 21
2.3543254011
 72
2
 10
18.0683181166
 20
2.3568004006
 40
0.0024749995
 50
179.9999571957
 51
270.0000428042
 73
1
 72
1
 10
18.065843117
 20
2.3568004025
 11
18.065843117
 21
2.3766004134
 72
2
 10
18.0683181166
 20
2.3766004153
 40
0.0024749995
 50
89.9999571958
 51
180.0000428043
 73
1
 72
1
 10
18.0683181184
 20
2.3790754148
 11
18.091064131
 21
2.3790754148
 72
2
 10
18.0910641329
 20
2.3815504143
 40
0.0024749995
 50
269.9999571957
 51
0.0000428043
 73
1
 72
1
 10
18.0935391324
 20
2.3815504162
 11
18.0935391324
 21
2.4279054419
 72
2
 10
18.0910641329
 20
2.4279054437
 40
0.0024749995
 50
359.9999571957
 51
90.0000428043
 73
1
 72
1
 10
18.091064131
 20
2.4303804433
 11
18.0683181184
 21
2.4303804433
 72
2
 10
18.0683181166
 20
2.4328554428
 40
0.0024749995
 50
179.9999571957
 51
270.0000428043
 73
1
 72
1
 10
18.065843117
 20
2.4328554446
 11
18.065843117
 21
2.4526554556
 72
2
 10
18.0683181166
 20
2.4526554575
 40
0.0024749995
 50
89.9999571958
 51
180.0000428043
 73
1
 72
1
 10
18.0683181184
 20
2.455130457
 11
18.2178992014
 21
2.455130457
 72
2
 10
18.2152358981
 20
2.2725915465
 40
0.1825583387
 50
79.8618509324
 51
89.1640948679
 73
1
 72
2
 10
18.2415401884
 20
2.4134150625
 40
0.039319019
 50
59.1202086415
 51
81.4730239328
 73
1
 72
2
 10
18.2471995846
 20
2.4197497317
 40
0.0310192946
 50
34.7540871
 51
62.0879016178
 73
1
 72
2
 10
18.2588883357
 20
2.4282993328
 40
0.0165459396
 50
1.548452892
 51
33.5033152417
 73
1
 72
2
 10
18.2621849309
 20
2.428467785
 40
0.0132462337
 50
331.1510006998
 51
1.205404301
 73
1
 72
2
 10
18.2511742746
 20
2.4351463727
 40
0.0261183659
 50
305.6373831893
 51
329.9727629745
 73
1
 72
2
 10
18.220842337
 20
2.4783532224
 40
0.0789082104
 50
292.906155071
 51
305.2574666259
 73
1
 72
2
 10
18.197141171
 20
2.3016991173
 40
0.117346916
 50
58.614769177
 51
62.3737227606
 73
1
 72
2
 10
18.2450241237
 20
2.3798263774
 40
0.0257145923
 50
39.3804255939
 51
59.0361096173
 73
1
 72
2
 10
18.2439037681
 20
2.3797532943
 40
0.0266349791
 50
20.3630922153
 51
37.9727053099
 73
1
 72
2
 10
18.2260032264
 20
2.3725718859
 40
0.0459185159
 50
15.6740290068
 51
20.9917271228
 73
1
 72
2
 10
18.2845735615
 20
2.3882148688
 40
0.0147197649
 50
192.7054516565
 51
206.0594861022
 73
1
 72
2
 10
18.2760792244
 20
2.3840063824
 40
0.0052403997
 50
205.5232099488
 51
227.5054868079
 73
1
 72
2
 10
18.2743509251
 20
2.3821910097
 40
0.0027347709
 50
228.5117626738
 51
266.1485845755
 73
1
 72
1
 10
18.2741672326
 20
2.379462415
 11
18.2752762332
 21
2.379462415
 72
2
 10
18.2752146786
 20
2.3927110743
 40
0.0132488022
 50
270.266200055
 51
281.2404888597
 73
1
 72
2
 10
18.2764089196
 20
2.3869743807
 40
0.0073895522
 50
280.8288201977
 51
305.0837508495
 73
1
 72
2
 10
18.2768101012
 20
2.3861235343
 40
0.0064647042
 50
306.5086174083
 51
340.2162360092
 73
1
 72
2
 10
18.2716089246
 20
2.3878675959
 40
0.0119498009
 50
340.7883861657
 51
1.1691452593
 73
1
 72
1
 10
18.2835562378
 20
2.3881114198
 11
18.2835562378
 21
2.3907374213
 72
2
 10
18.2860312373
 20
2.3907374231
 40
0.0024749995
 50
89.9999571957
 51
180.0000428043
 73
1
 72
1
 10
18.2860312391
 20
2.3932124227
 11
18.2981412459
 21
2.3932124227
 72
2
 10
18.2981412477
 20
2.3907374231
 40
0.0024749995
 50
359.9999571957
 51
90.0000428043
 73
1
 72
1
 10
18.3006162472
 20
2.3907374213
 11
18.3006162472
 21
2.3791854149
 72
2
 10
18.2830605507
 20
2.3792897325
 40
0.0175560065
 50
332.2279060967
 51
359.6595469939
 73
1
 72
2
 10
18.2737535399
 20
2.384184238
 40
0.0280715479
 50
308.5071794988
 51
332.2400656899
 73
1
 72
2
 10
18.2667613545
 20
2.3917854558
 40
0.0383802683
 50
288.7656836787
 51
309.6104317088
 73
1
 72
2
 10
18.2724993219
 20
2.3741987064
 40
0.0198837666
 50
271.8586572978
 51
289.4131338543
 73
1
 72
1
 10
18.273144232
 20
2.3543254011
 11
18.2257802057
 21
2.3543254011
 97
267
330
2A1
330
2A2
330
2A3
330
2A4
330
2A5
330
2A6
330
2A7
330
2A8
330
2A9
330
2AA
330
2AB
330
2AC
330
2AD
330
2AE
330
2AF
330
2B0
330
2B1
330
2B2
330
2B3
330
2B4
330
2B5
330
2B6
330
2B7
330
2B8
330
2B9
330
2BA
330
2BB
330
2BC
330
2BD
330
2BE
330
2BF
330
2C0
330
2C1
330
2C2
330
2C3
330
2C4
330
2C5
330
2C6
330
2C7
330
2C8
330
2C9
330
2CA
330
2CB
330
2CC
330
2CD
330
2CE
330
2CF
330
2D0
330
2D1
330
2D2
330
2D3
330
2D4
330
2D5
330
2D6
330
2D7
330
2D8
330
2D9
330
2DA
330
2DB
330
2DC
330
2DD
330
2DE
330
2DF
330
2E0
330
2E1
330
2E2
330
2E3
330
2E4
330
2E5
330
2E6
330
2E7
330
2E8
330
2E9
330
2EA
330
2EB
330
2EC
330
2ED
330
2EE
330
2EF
330
2F0
330
2F1
330
2F2
330
2F3
330
2F4
330
2F5
330
2F6
330
2F7
330
2F8
330
2F9
330
2FA
330
2FB
330
2FC
330
2FD
330
2FE
330
2FF
330
300
330
301
330
302
330
303
330
304
330
305
330
306
330
307
330
308
330
309
330
30A
330
30B
330
30C
330
30D
330
30E
330
30F
330
310
330
311
330
312
330
313
330
314
330
315
330
316
330
317
330
318
330
319
330
31A
330
31B
330
31C
330
31D
330
31E
330
31F
330
320
330
321
330
322
330
323
330
324
330
325
330
326
330
327
330
328
330
329
330
32A
330
32B
330
32C
330
32D
330
32E
330
32F
330
330
330
331
330
332
330
333
330
334
330
335
330
336
330
337
330
338
330
339
330
33A
330
33B
330
33C
330
33D
330
33E
330
33F
330
340
330
341
330
342
330
343
330
344
330
345
330
346
330
347
330
348
330
349
330
34A
330
34B
330
34C
330
34D
330
34E
330
34F
330
350
330
351
330
352
330
353
330
354
330
355
330
356
330
357
330
358
330
359
330
35A
330
35B
330
35C
330
35D
330
35E
330
35F
330
360
330
361
330
362
330
363
330
364
330
365
330
366
330
367
330
368
330
369
330
36A
330
36B
330
36C
330
36D
330
36E
330
36F
330
370
330
371
330
372
330
373
330
374
330
375
330
376
330
377
330
378
330
379
330
37A
330
37B
330
37C
330
37D
330
37E
330
37F
330
380
330
381
330
382
330
383
330
384
330
385
330
386
330
387
330
388
330
389
330
38A
330
38B
330
38C
330
38D
330
38E
330
38F
330
390
330
391
330
392
330
393
330
394
330
395
330
396
330
397
330
398
330
399
330
39A
330
39B
330
39C
330
39D
330
39E
330
39F
330
3A0
330
3A1
330
3A2
330
3A3
330
3A4
330
3A5
330
3A6
330
3A7
330
3A8
330
3A9
330
3AA
330
3AB
 92
1
 93
40
 72
2
 10
17.8362019878
 20
2.3568004006
 40
0.0024749995
 50
179.9999571957
 51
270.0000428042
 73
1
 72
1
 10
17.8337269883
 20
2.3568004025
 11
17.8337269883
 21
2.3766004134
 72
2
 10
17.8362019878
 20
2.3766004153
 40
0.0024749995
 50
89.9999571958
 51
180.0000428043
 73
1
 72
1
 10
17.8362019897
 20
2.3790754148
 11
17.860125003
 21
2.3790754148
 72
2
 10
17.8601250048
 20
2.3815504143
 40
0.0024749995
 50
269.9999571956
 51
0.0000428042
 73
1
 72
1
 10
17.8626000043
 20
2.3815504162
 11
17.8626000043
 21
2.4279054419
 72
2
 10
17.8601250048
 20
2.4279054437
 40
0.0024749995
 50
359.9999571957
 51
90.0000428043
 73
1
 72
1
 10
17.860125003
 20
2.4303804433
 11
17.8362019897
 21
2.4303804433
 72
2
 10
17.8362019878
 20
2.4328554428
 40
0.0024749995
 50
179.9999571957
 51
270.0000428043
 73
1
 72
1
 10
17.8337269883
 20
2.4328554446
 11
17.8337269883
 21
2.4526554556
 72
2
 10
17.8362019878
 20
2.4526554575
 40
0.0024749995
 50
89.9999571958
 51
180.0000428043
 73
1
 72
1
 10
17.8362019897
 20
2.455130457
 11
18.0379951016
 21
2.455130457
 72
2
 10
18.0379951034
 20
2.4526554575
 40
0.0024749995
 50
359.9999571957
 51
90.0000428042
 73
1
 72
1
 10
18.040470103
 20
2.4526554556
 11
18.040470103
 21
2.4196554373
 72
2
 10
18.0379951034
 20
2.4196554355
 40
0.0024749995
 50
269.9999571956
 51
0.0000428042
 73
1
 72
1
 10
18.0379951016
 20
2.4171804359
 11
17.9961310784
 21
2.4171804359
 72
2
 10
17.9961310765
 20
2.4196554355
 40
0.0024749995
 50
179.9999571957
 51
270.0000428043
 73
1
 72
1
 10
17.993656077
 20
2.4196554373
 11
17.993656077
 21
2.4279054419
 72
2
 10
17.9911810775
 20
2.4279054437
 40
0.0024749995
 50
359.9999571957
 51
90.0000428043
 73
1
 72
1
 10
17.9911810756
 20
2.4303804433
 11
17.9271410401
 21
2.4303804433
 72
2
 10
17.9271410383
 20
2.4279054437
 40
0.0024749995
 50
89.9999571958
 51
180.0000428043
 73
1
 72
1
 10
17.9246660387
 20
2.4279054419
 11
17.9246660387
 21
2.4163554355
 72
2
 10
17.9271410383
 20
2.4163554336
 40
0.0024749995
 50
179.9999571957
 51
270.0000428042
 73
1
 72
1
 10
17.9271410401
 20
2.4138804341
 11
17.9623080596
 21
2.4138804341
 72
2
 10
17.9623080615
 20
2.4114054346
 40
0.0024749995
 50
359.9999571957
 51
90.0000428042
 73
1
 72
1
 10
17.964783061
 20
2.4114054327
 11
17.964783061
 21
2.3980504253
 72
2
 10
17.9623080615
 20
2.3980504235
 40
0.0024749995
 50
269.9999571956
 51
0.0000428042
 73
1
 72
1
 10
17.9623080596
 20
2.395575424
 11
17.9271410401
 21
2.395575424
 72
2
 10
17.9271410383
 20
2.3931004244
 40
0.0024749995
 50
89.9999571958
 51
180.0000428043
 73
1
 72
1
 10
17.9246660387
 20
2.3931004226
 11
17.9246660387
 21
2.3815504162
 72
2
 10
17.9271410383
 20
2.3815504143
 40
0.0024749995
 50
179.9999571957
 51
270.0000428043
 73
1
 72
1
 10
17.9271410401
 20
2.3790754148
 11
17.9921450762
 21
2.3790754148
 72
2
 10
17.992145078
 20
2.3815504143
 40
0.0024749995
 50
269.9999571958
 51
0.0000428043
 73
1
 72
1
 10
17.9946200775
 20
2.3815504162
 11
17.9946200775
 21
2.3898004208
 72
2
 10
17.9970950771
 20
2.3898004226
 40
0.0024749995
 50
89.9999571958
 51
180.0000428043
 73
1
 72
1
 10
17.9970950789
 20
2.3922754221
 11
18.0394141024
 21
2.3922754221
 72
2
 10
18.0394141042
 20
2.3898004226
 40
0.0024749995
 50
359.9999571957
 51
90.0000428043
 73
1
 72
1
 10
18.0418891038
 20
2.3898004208
 11
18.0418891038
 21
2.3568004025
 72
2
 10
18.0394141042
 20
2.3568004006
 40
0.0024749995
 50
269.9999571958
 51
0.0000428043
 73
1
 72
1
 10
18.0394141024
 20
2.3543254011
 11
17.8362019897
 21
2.3543254011
 97
267
330
2A1
330
2A2
330
2A3
330
2A4
330
2A5
330
2A6
330
2A7
330
2A8
330
2A9
330
2AA
330
2AB
330
2AC
330
2AD
330
2AE
330
2AF
330
2B0
330
2B1
330
2B2
330
2B3
330
2B4
330
2B5
330
2B6
330
2B7
330
2B8
330
2B9
330
2BA
330
2BB
330
2BC
330
2BD
330
2BE
330
2BF
330
2C0
330
2C1
330
2C2
330
2C3
330
2C4
330
2C5
330
2C6
330
2C7
330
2C8
330
2C9
330
2CA
330
2CB
330
2CC
330
2CD
330
2CE
330
2CF
330
2D0
330
2D1
330
2D2
330
2D3
330
2D4
330
2D5
330
2D6
330
2D7
330
2D8
330
2D9
330
2DA
330
2DB
330
2DC
330
2DD
330
2DE
330
2DF
330
2E0
330
2E1
330
2E2
330
2E3
330
2E4
330
2E5
330
2E6
330
2E7
330
2E8
330
2E9
330
2EA
330
2EB
330
2EC
330
2ED
330
2EE
330
2EF
330
2F0
330
2F1
330
2F2
330
2F3
330
2F4
330
2F5
330
2F6
330
2F7
330
2F8
330
2F9
330
2FA
330
2FB
330
2FC
330
2FD
330
2FE
330
2FF
330
300
330
301
330
302
330
303
330
304
330
305
330
306
330
307
330
308
330
309
330
30A
330
30B
330
30C
330
30D
330
30E
330
30F
330
310
330
311
330
312
330
313
330
314
330
315
330
316
330
317
330
318
330
319
330
31A
330
31B
330
31C
330
31D
330
31E
330
31F
330
320
330
321
330
322
330
323
330
324
330
325
330
326
330
327
330
328
330
329
330
32A
330
32B
330
32C
330
32D
330
32E
330
32F
330
330
330
331
330
332
330
333
330
334
330
335
330
336
330
337
330
338
330
339
330
33A
330
33B
330
33C
330
33D
330
33E
330
33F
330
340
330
341
330
342
330
343
330
344
330
345
330
346
330
347
330
348
330
349
330
34A
330
34B
330
34C
330
34D
330
34E
330
34F
330
350
330
351
330
352
330
353
330
354
330
355
330
356
330
357
330
358
330
359
330
35A
330
35B
330
35C
330
35D
330
35E
330
35F
330
360
330
361
330
362
330
363
330
364
330
365
330
366
330
367
330
368
330
369
330
36A
330
36B
330
36C
330
36D
330
36E
330
36F
330
370
330
371
330
372
330
373
330
374
330
375
330
376
330
377
330
378
330
379
330
37A
330
37B
330
37C
330
37D
330
37E
330
37F
330
380
330
381
330
382
330
383
330
384
330
385
330
386
330
387
330
388
330
389
330
38A
330
38B
330
38C
330
38D
330
38E
330
38F
330
390
330
391
330
392
330
393
330
394
330
395
330
396
330
397
330
398
330
399
330
39A
330
39B
330
39C
330
39D
330
39E
330
39F
330
3A0
330
3A1
330
3A2
330
3A3
330
3A4
330
3A5
330
3A6
330
3A7
330
3A8
330
3A9
330
3AA
330
3AB
 92
1
 93
40
 72
2
 10
17.7115227858
 20
2.3567995689
 40
0.0024741678
 50
226.3477981898
 51
270.0031206038
 73
1
 72
1
 10
17.7098149196
 20
2.3550094015
 11
17.6465348845
 21
2.415387435
 72
2
 10
17.6448261836
 20
2.4135964972
 40
0.0024753014
 50
46.3461263058
 51
180.0014637321
 73
1
 72
1
 10
17.6423508822
 20
2.413596434
 11
17.6423508822
 21
2.3815504162
 72
2
 10
17.6448258817
 20
2.3815504143
 40
0.0024749995
 50
179.9999571957
 51
270.0000428043
 73
1
 72
1
 10
17.6448258836
 20
2.3790754148
 11
17.6651428948
 21
2.3790754148
 72
2
 10
17.6651428967
 20
2.3766004153
 40
0.0024749995
 50
359.9999571957
 51
90.0000428043
 73
1
 72
1
 10
17.6676178962
 20
2.3766004134
 11
17.6676178962
 21
2.3568004025
 72
2
 10
17.6651428967
 20
2.3568004006
 40
0.0024749995
 50
269.9999571958
 51
0.0000428043
 73
1
 72
1
 10
17.6651428948
 20
2.3543254011
 11
17.5894788529
 21
2.3543254011
 72
2
 10
17.589478851
 20
2.3568004006
 40
0.0024749995
 50
179.9999571957
 51
270.0000428042
 73
1
 72
1
 10
17.5870038515
 20
2.3568004025
 11
17.5870038515
 21
2.3766004134
 72
2
 10
17.589478851
 20
2.3766004153
 40
0.0024749995
 50
89.9999571957
 51
180.0000428043
 73
1
 72
1
 10
17.5894788529
 20
2.3790754148
 11
17.6081248632
 21
2.3790754148
 72
2
 10
17.6081248651
 20
2.3815504143
 40
0.0024749995
 50
269.9999571957
 51
0.0000428043
 73
1
 72
1
 10
17.6105998646
 20
2.3815504162
 11
17.6105998646
 21
2.4279054419
 72
2
 10
17.6081248651
 20
2.4279054437
 40
0.0024749995
 50
359.9999571957
 51
90.0000428043
 73
1
 72
1
 10
17.6081248632
 20
2.4303804433
 11
17.5894788529
 21
2.4303804433
 72
2
 10
17.589478851
 20
2.4328554428
 40
0.0024749995
 50
179.9999571957
 51
270.0000428043
 73
1
 72
1
 10
17.5870038515
 20
2.4328554446
 11
17.5870038515
 21
2.4526554556
 72
2
 10
17.589478851
 20
2.4526554575
 40
0.0024749995
 50
89.9999571957
 51
180.0000428043
 73
1
 72
1
 10
17.5894788529
 20
2.455130457
 11
17.6899369086
 21
2.455130457
 72
2
 10
17.6899370433
 20
2.4526562892
 40
0.0024741678
 50
46.3477981899
 51
90.0031206038
 73
1
 72
1
 10
17.6916449095
 20
2.4544464566
 11
17.7516779428
 21
2.3971664249
 72
2
 10
17.7533866437
 20
2.3989573626
 40
0.0024753014
 50
226.3461263059
 51
0.0014637321
 73
1
 72
1
 10
17.7558619451
 20
2.3989574258
 11
17.7558619451
 21
2.4279054419
 72
2
 10
17.7533869456
 20
2.4279054437
 40
0.0024749995
 50
359.9999571957
 51
90.0000428043
 73
1
 72
1
 10
17.7533869438
 20
2.4303804433
 11
17.7346109333
 21
2.4303804433
 72
2
 10
17.7346109315
 20
2.4328554428
 40
0.0024749995
 50
179.9999571957
 51
270.0000428043
 73
1
 72
1
 10
17.732135932
 20
2.4328554446
 11
17.732135932
 21
2.4526554556
 72
2
 10
17.7346109315
 20
2.4526554575
 40
0.0024749995
 50
89.9999571958
 51
180.0000428043
 73
1
 72
1
 10
17.7346109333
 20
2.455130457
 11
17.8086119744
 21
2.455130457
 72
2
 10
17.8086119762
 20
2.4526554575
 40
0.0024749995
 50
359.9999571957
 51
90.0000428043
 73
1
 72
1
 10
17.8110869758
 20
2.4526554556
 11
17.8110869758
 21
2.4328554446
 72
2
 10
17.8086119762
 20
2.4328554428
 40
0.0024749995
 50
269.9999571956
 51
0.0000428042
 73
1
 72
1
 10
17.8086119744
 20
2.4303804433
 11
17.7906789644
 21
2.4303804433
 72
2
 10
17.7906789626
 20
2.4279054437
 40
0.0024749995
 50
89.9999571957
 51
180.0000428043
 73
1
 72
1
 10
17.7882039631
 20
2.4279054419
 11
17.7882039631
 21
2.3568004025
 72
2
 10
17.7857289635
 20
2.3568004006
 40
0.0024749995
 50
269.9999571957
 51
0.0000428043
 73
1
 72
1
 10
17.7857289617
 20
2.3543254011
 11
17.7115229205
 21
2.3543254011
 97
267
330
2A1
330
2A2
330
2A3
330
2A4
330
2A5
330
2A6
330
2A7
330
2A8
330
2A9
330
2AA
330
2AB
330
2AC
330
2AD
330
2AE
330
2AF
330
2B0
330
2B1
330
2B2
330
2B3
330
2B4
330
2B5
330
2B6
330
2B7
330
2B8
330
2B9
330
2BA
330
2BB
330
2BC
330
2BD
330
2BE
330
2BF
330
2C0
330
2C1
330
2C2
330
2C3
330
2C4
330
2C5
330
2C6
330
2C7
330
2C8
330
2C9
330
2CA
330
2CB
330
2CC
330
2CD
330
2CE
330
2CF
330
2D0
330
2D1
330
2D2
330
2D3
330
2D4
330
2D5
330
2D6
330
2D7
330
2D8
330
2D9
330
2DA
330
2DB
330
2DC
330
2DD
330
2DE
330
2DF
330
2E0
330
2E1
330
2E2
330
2E3
330
2E4
330
2E5
330
2E6
330
2E7
330
2E8
330
2E9
330
2EA
330
2EB
330
2EC
330
2ED
330
2EE
330
2EF
330
2F0
330
2F1
330
2F2
330
2F3
330
2F4
330
2F5
330
2F6
330
2F7
330
2F8
330
2F9
330
2FA
330
2FB
330
2FC
330
2FD
330
2FE
330
2FF
330
300
330
301
330
302
330
303
330
304
330
305
330
306
330
307
330
308
330
309
330
30A
330
30B
330
30C
330
30D
330
30E
330
30F
330
310
330
311
330
312
330
313
330
314
330
315
330
316
330
317
330
318
330
319
330
31A
330
31B
330
31C
330
31D
330
31E
330
31F
330
320
330
321
330
322
330
323
330
324
330
325
330
326
330
327
330
328
330
329
330
32A
330
32B
330
32C
330
32D
330
32E
330
32F
330
330
330
331
330
332
330
333
330
334
330
335
330
336
330
337
330
338
330
339
330
33A
330
33B
330
33C
330
33D
330
33E
330
33F
330
340
330
341
330
342
330
343
330
344
330
345
330
346
330
347
330
348
330
349
330
34A
330
34B
330
34C
330
34D
330
34E
330
34F
330
350
330
351
330
352
330
353
330
354
330
355
330
356
330
357
330
358
330
359
330
35A
330
35B
330
35C
330
35D
330
35E
330
35F
330
360
330
361
330
362
330
363
330
364
330
365
330
366
330
367
330
368
330
369
330
36A
330
36B
330
36C
330
36D
330
36E
330
36F
330
370
330
371
330
372
330
373
330
374
330
375
330
376
330
377
330
378
330
379
330
37A
330
37B
330
37C
330
37D
330
37E
330
37F
330
380
330
381
330
382
330
383
330
384
330
385
330
386
330
387
330
388
330
389
330
38A
330
38B
330
38C
330
38D
330
38E
330
38F
330
390
330
391
330
392
330
393
330
394
330
395
330
396
330
397
330
398
330
399
330
39A
330
39B
330
39C
330
39D
330
39E
330
39F
330
3A0
330
3A1
330
3A2
330
3A3
330
3A4
330
3A5
330
3A6
330
3A7
330
3A8
330
3A9
330
3AA
330
3AB
 92
1
 93
40
 72
2
 10
17.4632701481
 20
2.3568008172
 40
0.0024754162
 50
226.3593695814
 51
270.0146919954
 73
1
 72
1
 10
17.4615617819
 20
2.3550094015
 11
17.3982817468
 21
2.415387435
 72
2
 10
17.3965730459
 20
2.4135964972
 40
0.0024753014
 50
46.3461263058
 51
180.0014637321
 73
1
 72
1
 10
17.3940977445
 20
2.413596434
 11
17.3940977445
 21
2.3815504162
 72
2
 10
17.396572744
 20
2.3815504143
 40
0.0024749995
 50
179.9999571957
 51
270.0000428043
 73
1
 72
1
 10
17.3965727459
 20
2.3790754148
 11
17.4168897572
 21
2.3790754148
 72
2
 10
17.416889759
 20
2.3766004153
 40
0.0024749995
 50
359.9999571957
 51
90.0000428043
 73
1
 72
1
 10
17.4193647585
 20
2.3766004134
 11
17.4193647585
 21
2.3568004025
 72
2
 10
17.416889759
 20
2.3568004006
 40
0.0024749995
 50
269.9999571957
 51
0.0000428043
 73
1
 72
1
 10
17.4168897572
 20
2.3543254011
 11
17.3412257152
 21
2.3543254011
 72
2
 10
17.3412257133
 20
2.3568004006
 40
0.0024749995
 50
179.9999571957
 51
270.0000428043
 73
1
 72
1
 10
17.3387507138
 20
2.3568004025
 11
17.3387507138
 21
2.3766004134
 72
2
 10
17.3412257133
 20
2.3766004153
 40
0.0024749995
 50
89.9999571957
 51
180.0000428043
 73
1
 72
1
 10
17.3412257152
 20
2.3790754148
 11
17.3598727255
 21
2.3790754148
 72
2
 10
17.3598727274
 20
2.3815504143
 40
0.0024749995
 50
269.9999571957
 51
0.0000428043
 73
1
 72
1
 10
17.3623477269
 20
2.3815504162
 11
17.3623477269
 21
2.4279054419
 72
2
 10
17.3598727274
 20
2.4279054437
 40
0.0024749995
 50
359.9999571957
 51
90.0000428044
 73
1
 72
1
 10
17.3598727255
 20
2.4303804433
 11
17.3412257152
 21
2.4303804433
 72
2
 10
17.3412257133
 20
2.4328554428
 40
0.0024749995
 50
179.9999571957
 51
270.0000428043
 73
1
 72
1
 10
17.3387507138
 20
2.4328554446
 11
17.3387507138
 21
2.4526554556
 72
2
 10
17.3412257133
 20
2.4526554575
 40
0.0024749995
 50
89.9999571957
 51
180.0000428043
 73
1
 72
1
 10
17.3412257152
 20
2.455130457
 11
17.4416837709
 21
2.455130457
 72
2
 10
17.4416839057
 20
2.4526562892
 40
0.0024741678
 50
46.3477981899
 51
90.0031206038
 73
1
 72
1
 10
17.4433917718
 20
2.4544464566
 11
17.5034248051
 21
2.3971664249
 72
2
 10
17.5051335061
 20
2.3989573626
 40
0.0024753014
 50
226.3461263059
 51
0.0014637321
 73
1
 72
1
 10
17.5076088075
 20
2.3989574258
 11
17.5076088075
 21
2.4279054419
 72
2
 10
17.5051338079
 20
2.4279054437
 40
0.0024749995
 50
359.9999571957
 51
90.0000428043
 73
1
 72
1
 10
17.5051338061
 20
2.4303804433
 11
17.4863577957
 21
2.4303804433
 72
2
 10
17.4863577938
 20
2.4328554428
 40
0.0024749995
 50
179.9999571957
 51
270.0000428043
 73
1
 72
1
 10
17.4838827943
 20
2.4328554446
 11
17.4838827943
 21
2.4526554556
 72
2
 10
17.4863577938
 20
2.4526554575
 40
0.0024749995
 50
89.9999571957
 51
180.0000428043
 73
1
 72
1
 10
17.4863577957
 20
2.455130457
 11
17.5603588367
 21
2.455130457
 72
2
 10
17.5603588386
 20
2.4526554575
 40
0.0024749995
 50
359.9999571957
 51
90.0000428042
 73
1
 72
1
 10
17.5628338381
 20
2.4526554556
 11
17.5628338381
 21
2.4328554446
 72
2
 10
17.5603588386
 20
2.4328554428
 40
0.0024749995
 50
269.9999571958
 51
0.0000428043
 73
1
 72
1
 10
17.5603588367
 20
2.4303804433
 11
17.5424258268
 21
2.4303804433
 72
2
 10
17.5424258249
 20
2.4279054437
 40
0.0024749995
 50
89.9999571958
 51
180.0000428043
 73
1
 72
1
 10
17.5399508254
 20
2.4279054419
 11
17.5399508254
 21
2.3568004025
 72
2
 10
17.5374758259
 20
2.3568004006
 40
0.0024749995
 50
269.9999571958
 51
0.0000428043
 73
1
 72
1
 10
17.537475824
 20
2.3543254011
 11
17.4632707829
 21
2.3543254011
 97
267
330
2A1
330
2A2
330
2A3
330
2A4
330
2A5
330
2A6
330
2A7
330
2A8
330
2A9
330
2AA
330
2AB
330
2AC
330
2AD
330
2AE
330
2AF
330
2B0
330
2B1
330
2B2
330
2B3
330
2B4
330
2B5
330
2B6
330
2B7
330
2B8
330
2B9
330
2BA
330
2BB
330
2BC
330
2BD
330
2BE
330
2BF
330
2C0
330
2C1
330
2C2
330
2C3
330
2C4
330
2C5
330
2C6
330
2C7
330
2C8
330
2C9
330
2CA
330
2CB
330
2CC
330
2CD
330
2CE
330
2CF
330
2D0
330
2D1
330
2D2
330
2D3
330
2D4
330
2D5
330
2D6
330
2D7
330
2D8
330
2D9
330
2DA
330
2DB
330
2DC
330
2DD
330
2DE
330
2DF
330
2E0
330
2E1
330
2E2
330
2E3
330
2E4
330
2E5
330
2E6
330
2E7
330
2E8
330
2E9
330
2EA
330
2EB
330
2EC
330
2ED
330
2EE
330
2EF
330
2F0
330
2F1
330
2F2
330
2F3
330
2F4
330
2F5
330
2F6
330
2F7
330
2F8
330
2F9
330
2FA
330
2FB
330
2FC
330
2FD
330
2FE
330
2FF
330
300
330
301
330
302
330
303
330
304
330
305
330
306
330
307
330
308
330
309
330
30A
330
30B
330
30C
330
30D
330
30E
330
30F
330
310
330
311
330
312
330
313
330
314
330
315
330
316
330
317
330
318
330
319
330
31A
330
31B
330
31C
330
31D
330
31E
330
31F
330
320
330
321
330
322
330
323
330
324
330
325
330
326
330
327
330
328
330
329
330
32A
330
32B
330
32C
330
32D
330
32E
330
32F
330
330
330
331
330
332
330
333
330
334
330
335
330
336
330
337
330
338
330
339
330
33A
330
33B
330
33C
330
33D
330
33E
330
33F
330
340
330
341
330
342
330
343
330
344
330
345
330
346
330
347
330
348
330
349
330
34A
330
34B
330
34C
330
34D
330
34E
330
34F
330
350
330
351
330
352
330
353
330
354
330
355
330
356
330
357
330
358
330
359
330
35A
330
35B
330
35C
330
35D
330
35E
330
35F
330
360
330
361
330
362
330
363
330
364
330
365
330
366
330
367
330
368
330
369
330
36A
330
36B
330
36C
330
36D
330
36E
330
36F
330
370
330
371
330
372
330
373
330
374
330
375
330
376
330
377
330
378
330
379
330
37A
330
37B
330
37C
330
37D
330
37E
330
37F
330
380
330
381
330
382
330
383
330
384
330
385
330
386
330
387
330
388
330
389
330
38A
330
38B
330
38C
330
38D
330
38E
330
38F
330
390
330
391
330
392
330
393
330
394
330
395
330
396
330
397
330
398
330
399
330
39A
330
39B
330
39C
330
39D
330
39E
330
39F
330
3A0
330
3A1
330
3A2
330
3A3
330
3A4
330
3A5
330
3A6
330
3A7
330
3A8
330
3A9
330
3AA
330
3AB
 92
1
 93
23
 72
2
 10
17.0481152095
 20
2.4027328529
 40
0.048483885
 50
273.21763719
 51
303.0749121182
 73
1
 72
2
 10
17.0629546036
 20
2.379965244
 40
0.0213072145
 50
303.0488228549
 51
355.7263138674
 73
1
 72
2
 10
17.0688911042
 20
2.3799744343
 40
0.0153945295
 50
354.0454548824
 51
5.1878013979
 73
1
 72
2
 10
17.0620614151
 20
2.3797859164
 40
0.0222174455
 50
4.0793399388
 51
69.834329283
 73
1
 72
1
 10
17.0697205646
 20
2.4006414268
 11
17.059669559
 21
2.4041904287
 72
1
 10
17.059669559
 20
2.4041904287
 11
17.0679095636
 21
2.4089664314
 72
2
 10
17.0460441811
 20
2.445793323
 40
0.0428289026
 50
300.6990502959
 51
319.0591802498
 73
1
 72
2
 10
17.0660727781
 20
2.4296649696
 40
0.0171568255
 50
315.9145124245
 51
16.0049121283
 73
1
 72
2
 10
17.0611211659
 20
2.4263113051
 40
0.0229166529
 50
20.6563876465
 51
62.3316896973
 73
1
 72
2
 10
17.0404590422
 20
2.3933827403
 40
0.061747717
 50
59.5385584989
 51
90.0050977555
 73
1
 72
1
 10
17.0404535484
 20
2.455130457
 11
16.8743904563
 21
2.455130457
 72
2
 10
16.8743904545
 20
2.4526554575
 40
0.0024749995
 50
89.9999571958
 51
180.0000428043
 73
1
 72
1
 10
16.8719154549
 20
2.4526554556
 11
16.8719154549
 21
2.4328554446
 72
2
 10
16.8743904545
 20
2.4328554428
 40
0.0024749995
 50
179.9999571957
 51
270.0000428043
 73
1
 72
1
 10
16.8743904563
 20
2.4303804433
 11
16.8983324696
 21
2.4303804433
 72
2
 10
16.8983324714
 20
2.4279054437
 40
0.0024749995
 50
359.9999571957
 51
90.0000428043
 73
1
 72
1
 10
16.9008074709
 20
2.4279054419
 11
16.9008074709
 21
2.3815504162
 72
2
 10
16.8983324714
 20
2.3815504143
 40
0.0024749995
 50
269.9999571958
 51
0.0000428043
 73
1
 72
1
 10
16.8983324696
 20
2.3790754148
 11
16.8743904563
 21
2.3790754148
 72
2
 10
16.8743904545
 20
2.3766004153
 40
0.0024749995
 50
89.9999571958
 51
180.0000428043
 73
1
 72
1
 10
16.8719154549
 20
2.3766004134
 11
16.8719154549
 21
2.3568004025
 72
2
 10
16.8743904545
 20
2.3568004006
 40
0.0024749995
 50
179.9999571957
 51
270.0000428042
 73
1
 72
1
 10
16.8743904563
 20
2.3543254011
 11
17.0508365542
 21
2.3543254011
 97
267
330
2A1
330
2A2
330
2A3
330
2A4
330
2A5
330
2A6
330
2A7
330
2A8
330
2A9
330
2AA
330
2AB
330
2AC
330
2AD
330
2AE
330
2AF
330
2B0
330
2B1
330
2B2
330
2B3
330
2B4
330
2B5
330
2B6
330
2B7
330
2B8
330
2B9
330
2BA
330
2BB
330
2BC
330
2BD
330
2BE
330
2BF
330
2C0
330
2C1
330
2C2
330
2C3
330
2C4
330
2C5
330
2C6
330
2C7
330
2C8
330
2C9
330
2CA
330
2CB
330
2CC
330
2CD
330
2CE
330
2CF
330
2D0
330
2D1
330
2D2
330
2D3
330
2D4
330
2D5
330
2D6
330
2D7
330
2D8
330
2D9
330
2DA
330
2DB
330
2DC
330
2DD
330
2DE
330
2DF
330
2E0
330
2E1
330
2E2
330
2E3
330
2E4
330
2E5
330
2E6
330
2E7
330
2E8
330
2E9
330
2EA
330
2EB
330
2EC
330
2ED
330
2EE
330
2EF
330
2F0
330
2F1
330
2F2
330
2F3
330
2F4
330
2F5
330
2F6
330
2F7
330
2F8
330
2F9
330
2FA
330
2FB
330
2FC
330
2FD
330
2FE
330
2FF
330
300
330
301
330
302
330
303
330
304
330
305
330
306
330
307
330
308
330
309
330
30A
330
30B
330
30C
330
30D
330
30E
330
30F
330
310
330
311
330
312
330
313
330
314
330
315
330
316
330
317
330
318
330
319
330
31A
330
31B
330
31C
330
31D
330
31E
330
31F
330
320
330
321
330
322
330
323
330
324
330
325
330
326
330
327
330
328
330
329
330
32A
330
32B
330
32C
330
32D
330
32E
330
32F
330
330
330
331
330
332
330
333
330
334
330
335
330
336
330
337
330
338
330
339
330
33A
330
33B
330
33C
330
33D
330
33E
330
33F
330
340
330
341
330
342
330
343
330
344
330
345
330
346
330
347
330
348
330
349
330
34A
330
34B
330
34C
330
34D
330
34E
330
34F
330
350
330
351
330
352
330
353
330
354
330
355
330
356
330
357
330
358
330
359
330
35A
330
35B
330
35C
330
35D
330
35E
330
35F
330
360
330
361
330
362
330
363
330
364
330
365
330
366
330
367
330
368
330
369
330
36A
330
36B
330
36C
330
36D
330
36E
330
36F
330
370
330
371
330
372
330
373
330
374
330
375
330
376
330
377
330
378
330
379
330
37A
330
37B
330
37C
330
37D
330
37E
330
37F
330
380
330
381
330
382
330
383
330
384
330
385
330
386
330
387
330
388
330
389
330
38A
330
38B
330
38C
330
38D
330
38E
330
38F
330
390
330
391
330
392
330
393
330
394
330
395
330
396
330
397
330
398
330
399
330
39A
330
39B
330
39C
330
39D
330
39E
330
39F
330
3A0
330
3A1
330
3A2
330
3A3
330
3A4
330
3A5
330
3A6
330
3A7
330
3A8
330
3A9
330
3AA
330
3AB
 92
1
 93
32
 72
2
 10
17.1857496308
 20
2.3568004006
 40
0.0024749995
 50
269.9999571958
 51
0.0000428044
 73
1
 72
1
 10
17.1882246303
 20
2.3568004025
 11
17.1882246303
 21
2.3766004134
 72
2
 10
17.1857496308
 20
2.3766004153
 40
0.0024749995
 50
359.9999571957
 51
90.0000428043
 73
1
 72
1
 10
17.185749629
 20
2.3790754148
 11
17.1744666227
 21
2.3790754148
 72
2
 10
17.1744665134
 20
2.3815504549
 40
0.0024750401
 50
147.6063258011
 51
270.0025305754
 73
1
 72
1
 10
17.1723766216
 20
2.3828764169
 11
17.1778926246
 21
2.3915704217
 72
2
 10
17.1799825555
 20
2.3902442221
 40
0.0024752003
 50
89.998372645
 51
147.602165307
 73
1
 72
1
 10
17.1799826258
 20
2.3927194224
 11
17.2148606451
 21
2.3927194224
 72
2
 10
17.2148601055
 20
2.3902439622
 40
0.0024754602
 50
32.8959418574
 51
89.9875097202
 73
1
 72
1
 10
17.2169386463
 20
2.3915884218
 11
17.2225646494
 21
2.3828954169
 72
2
 10
17.2204866271
 20
2.3815506219
 40
0.0024752071
 50
270.0004896793
 51
32.9089806818
 73
1
 72
1
 10
17.2204866482
 20
2.3790754148
 11
17.2060356402
 21
2.3790754148
 72
2
 10
17.2060356384
 20
2.3766004153
 40
0.0024749995
 50
89.9999571958
 51
180.0000428043
 73
1
 72
1
 10
17.2035606388
 20
2.3766004134
 11
17.2035606388
 21
2.3568004025
 72
2
 10
17.2060356384
 20
2.3568004006
 40
0.0024749995
 50
179.9999571957
 51
270.0000428042
 73
1
 72
1
 10
17.2060356402
 20
2.3543254011
 11
17.3113166986
 21
2.3543254011
 72
2
 10
17.3113167005
 20
2.3568004006
 40
0.0024749995
 50
269.9999571957
 51
0.0000428043
 73
1
 72
1
 10
17.3137917
 20
2.3568004025
 11
17.3137917
 21
2.3766004134
 72
2
 10
17.3113167005
 20
2.3766004153
 40
0.0024749995
 50
359.9999571957
 51
90.0000428043
 73
1
 72
1
 10
17.3113166986
 20
2.3790754148
 11
17.2913006875
 21
2.3790754148
 72
2
 10
17.291300808
 20
2.3815494558
 40
0.002474041
 50
212.9056413127
 51
269.9972091756
 73
1
 72
1
 10
17.2892236864
 20
2.3802054154
 11
17.2414676599
 21
2.4540004564
 72
2
 10
17.2393900382
 20
2.4526554968
 40
0.0024749602
 50
32.9172174468
 51
90.0087853096
 73
1
 72
1
 10
17.2393896587
 20
2.455130457
 11
17.182214627
 21
2.455130457
 72
2
 10
17.1822145567
 20
2.4526552567
 40
0.0024752003
 50
89.998372645
 51
147.602165307
 73
1
 72
1
 10
17.1801246258
 20
2.4539814564
 11
17.1333245999
 21
2.3802244155
 72
2
 10
17.131234669
 20
2.3815506151
 40
0.0024752003
 50
269.998372645
 51
327.602165307
 73
1
 72
1
 10
17.1312345987
 20
2.3790754148
 11
17.1083735861
 21
2.3790754148
 72
2
 10
17.1083735842
 20
2.3766004153
 40
0.0024749995
 50
89.9999571957
 51
180.0000428043
 73
1
 72
1
 10
17.1058985847
 20
2.3766004134
 11
17.1058985847
 21
2.3568004025
 72
2
 10
17.1083735842
 20
2.3568004006
 40
0.0024749995
 50
179.9999571957
 51
270.0000428043
 73
1
 72
1
 10
17.1083735861
 20
2.3543254011
 11
17.185749629
 21
2.3543254011
 97
267
330
2A1
330
2A2
330
2A3
330
2A4
330
2A5
330
2A6
330
2A7
330
2A8
330
2A9
330
2AA
330
2AB
330
2AC
330
2AD
330
2AE
330
2AF
330
2B0
330
2B1
330
2B2
330
2B3
330
2B4
330
2B5
330
2B6
330
2B7
330
2B8
330
2B9
330
2BA
330
2BB
330
2BC
330
2BD
330
2BE
330
2BF
330
2C0
330
2C1
330
2C2
330
2C3
330
2C4
330
2C5
330
2C6
330
2C7
330
2C8
330
2C9
330
2CA
330
2CB
330
2CC
330
2CD
330
2CE
330
2CF
330
2D0
330
2D1
330
2D2
330
2D3
330
2D4
330
2D5
330
2D6
330
2D7
330
2D8
330
2D9
330
2DA
330
2DB
330
2DC
330
2DD
330
2DE
330
2DF
330
2E0
330
2E1
330
2E2
330
2E3
330
2E4
330
2E5
330
2E6
330
2E7
330
2E8
330
2E9
330
2EA
330
2EB
330
2EC
330
2ED
330
2EE
330
2EF
330
2F0
330
2F1
330
2F2
330
2F3
330
2F4
330
2F5
330
2F6
330
2F7
330
2F8
330
2F9
330
2FA
330
2FB
330
2FC
330
2FD
330
2FE
330
2FF
330
300
330
301
330
302
330
303
330
304
330
305
330
306
330
307
330
308
330
309
330
30A
330
30B
330
30C
330
30D
330
30E
330
30F
330
310
330
311
330
312
330
313
330
314
330
315
330
316
330
317
330
318
330
319
330
31A
330
31B
330
31C
330
31D
330
31E
330
31F
330
320
330
321
330
322
330
323
330
324
330
325
330
326
330
327
330
328
330
329
330
32A
330
32B
330
32C
330
32D
330
32E
330
32F
330
330
330
331
330
332
330
333
330
334
330
335
330
336
330
337
330
338
330
339
330
33A
330
33B
330
33C
330
33D
330
33E
330
33F
330
340
330
341
330
342
330
343
330
344
330
345
330
346
330
347
330
348
330
349
330
34A
330
34B
330
34C
330
34D
330
34E
330
34F
330
350
330
351
330
352
330
353
330
354
330
355
330
356
330
357
330
358
330
359
330
35A
330
35B
330
35C
330
35D
330
35E
330
35F
330
360
330
361
330
362
330
363
330
364
330
365
330
366
330
367
330
368
330
369
330
36A
330
36B
330
36C
330
36D
330
36E
330
36F
330
370
330
371
330
372
330
373
330
374
330
375
330
376
330
377
330
378
330
379
330
37A
330
37B
330
37C
330
37D
330
37E
330
37F
330
380
330
381
330
382
330
383
330
384
330
385
330
386
330
387
330
388
330
389
330
38A
330
38B
330
38C
330
38D
330
38E
330
38F
330
390
330
391
330
392
330
393
330
394
330
395
330
396
330
397
330
398
330
399
330
39A
330
39B
330
39C
330
39D
330
39E
330
39F
330
3A0
330
3A1
330
3A2
330
3A3
330
3A4
330
3A5
330
3A6
330
3A7
330
3A8
330
3A9
330
3AA
330
3AB
 92
1
 93
6
 72
2
 10
16.963795504
 20
2.3815504143
 40
0.0024749995
 50
179.9999571957
 51
270.0000428043
 73
1
 72
1
 10
16.9613205045
 20
2.3815504162
 11
16.9613205045
 21
2.3939254231
 72
2
 10
16.963795504
 20
2.3939254249
 40
0.0024749995
 50
89.9999571957
 51
180.0000428043
 73
1
 72
1
 10
16.9637955059
 20
2.3964004244
 11
17.0051585288
 21
2.3964004244
 72
2
 10
17.0051585288
 20
2.3877379196
 40
0.0086625048
 50
270.0
 51
90.0
 73
1
 72
1
 10
17.0051585288
 20
2.3790754148
 11
16.9637955059
 21
2.3790754148
 97
267
330
2A1
330
2A2
330
2A3
330
2A4
330
2A5
330
2A6
330
2A7
330
2A8
330
2A9
330
2AA
330
2AB
330
2AC
330
2AD
330
2AE
330
2AF
330
2B0
330
2B1
330
2B2
330
2B3
330
2B4
330
2B5
330
2B6
330
2B7
330
2B8
330
2B9
330
2BA
330
2BB
330
2BC
330
2BD
330
2BE
330
2BF
330
2C0
330
2C1
330
2C2
330
2C3
330
2C4
330
2C5
330
2C6
330
2C7
330
2C8
330
2C9
330
2CA
330
2CB
330
2CC
330
2CD
330
2CE
330
2CF
330
2D0
330
2D1
330
2D2
330
2D3
330
2D4
330
2D5
330
2D6
330
2D7
330
2D8
330
2D9
330
2DA
330
2DB
330
2DC
330
2DD
330
2DE
330
2DF
330
2E0
330
2E1
330
2E2
330
2E3
330
2E4
330
2E5
330
2E6
330
2E7
330
2E8
330
2E9
330
2EA
330
2EB
330
2EC
330
2ED
330
2EE
330
2EF
330
2F0
330
2F1
330
2F2
330
2F3
330
2F4
330
2F5
330
2F6
330
2F7
330
2F8
330
2F9
330
2FA
330
2FB
330
2FC
330
2FD
330
2FE
330
2FF
330
300
330
301
330
302
330
303
330
304
330
305
330
306
330
307
330
308
330
309
330
30A
330
30B
330
30C
330
30D
330
30E
330
30F
330
310
330
311
330
312
330
313
330
314
330
315
330
316
330
317
330
318
330
319
330
31A
330
31B
330
31C
330
31D
330
31E
330
31F
330
320
330
321
330
322
330
323
330
324
330
325
330
326
330
327
330
328
330
329
330
32A
330
32B
330
32C
330
32D
330
32E
330
32F
330
330
330
331
330
332
330
333
330
334
330
335
330
336
330
337
330
338
330
339
330
33A
330
33B
330
33C
330
33D
330
33E
330
33F
330
340
330
341
330
342
330
343
330
344
330
345
330
346
330
347
330
348
330
349
330
34A
330
34B
330
34C
330
34D
330
34E
330
34F
330
350
330
351
330
352
330
353
330
354
330
355
330
356
330
357
330
358
330
359
330
35A
330
35B
330
35C
330
35D
330
35E
330
35F
330
360
330
361
330
362
330
363
330
364
330
365
330
366
330
367
330
368
330
369
330
36A
330
36B
330
36C
330
36D
330
36E
330
36F
330
370
330
371
330
372
330
373
330
374
330
375
330
376
330
377
330
378
330
379
330
37A
330
37B
330
37C
330
37D
330
37E
330
37F
330
380
330
381
330
382
330
383
330
384
330
385
330
386
330
387
330
388
330
389
330
38A
330
38B
330
38C
330
38D
330
38E
330
38F
330
390
330
391
330
392
330
393
330
394
330
395
330
396
330
397
330
398
330
399
330
39A
330
39B
330
39C
330
39D
330
39E
330
39F
330
3A0
330
3A1
330
3A2
330
3A3
330
3A4
330
3A5
330
3A6
330
3A7
330
3A8
330
3A9
330
3AA
330
3AB
 92
1
 93
13
 72
2
 10
18.1572301659
 20
2.415180433
 40
0.0024749995
 50
179.9999571957
 51
270.0000428043
 73
1
 72
1
 10
18.1547551663
 20
2.4151804348
 11
18.1547551663
 21
2.4279054419
 72
2
 10
18.1572301659
 20
2.4279054437
 40
0.0024749995
 50
89.9999571957
 51
180.0000428043
 73
1
 72
1
 10
18.1572301677
 20
2.4303804433
 11
18.1940311881
 21
2.4303804433
 72
2
 10
18.1924863006
 20
2.4019259643
 40
0.0284963867
 50
70.3834917948
 51
86.8922743861
 73
1
 72
2
 10
18.1973459106
 20
2.4149676972
 40
0.0145814632
 50
54.6746025112
 51
71.1660573124
 73
1
 72
2
 10
18.2024754016
 20
2.4218216224
 40
0.0060275915
 50
20.9055592135
 51
56.7851676243
 73
1
 72
2
 10
18.2037759605
 20
2.4224819047
 40
0.0045795888
 50
355.6235353944
 51
18.9942678268
 73
1
 72
2
 10
18.2025691502
 20
2.4227756809
 40
0.0058087709
 50
318.8515287446
 51
353.6422345323
 73
1
 72
2
 10
18.198398534
 20
2.4260095887
 40
0.0110815393
 50
306.758405961
 51
320.4502234234
 73
1
 72
2
 10
18.1927693431
 20
2.4337504172
 40
0.0206523367
 50
289.6883413472
 51
306.4184925496
 73
1
 72
2
 10
18.1908418374
 20
2.4381440645
 40
0.0254407115
 50
270.7327484175
 51
290.441894219
 73
1
 72
1
 10
18.1911671865
 20
2.4127054335
 11
18.1572301677
 21
2.4127054335
 97
267
330
2A1
330
2A2
330
2A3
330
2A4
330
2A5
330
2A6
330
2A7
330
2A8
330
2A9
330
2AA
330
2AB
330
2AC
330
2AD
330
2AE
330
2AF
330
2B0
330
2B1
330
2B2
330
2B3
330
2B4
330
2B5
330
2B6
330
2B7
330
2B8
330
2B9
330
2BA
330
2BB
330
2BC
330
2BD
330
2BE
330
2BF
330
2C0
330
2C1
330
2C2
330
2C3
330
2C4
330
2C5
330
2C6
330
2C7
330
2C8
330
2C9
330
2CA
330
2CB
330
2CC
330
2CD
330
2CE
330
2CF
330
2D0
330
2D1
330
2D2
330
2D3
330
2D4
330
2D5
330
2D6
330
2D7
330
2D8
330
2D9
330
2DA
330
2DB
330
2DC
330
2DD
330
2DE
330
2DF
330
2E0
330
2E1
330
2E2
330
2E3
330
2E4
330
2E5
330
2E6
330
2E7
330
2E8
330
2E9
330
2EA
330
2EB
330
2EC
330
2ED
330
2EE
330
2EF
330
2F0
330
2F1
330
2F2
330
2F3
330
2F4
330
2F5
330
2F6
330
2F7
330
2F8
330
2F9
330
2FA
330
2FB
330
2FC
330
2FD
330
2FE
330
2FF
330
300
330
301
330
302
330
303
330
304
330
305
330
306
330
307
330
308
330
309
330
30A
330
30B
330
30C
330
30D
330
30E
330
30F
330
310
330
311
330
312
330
313
330
314
330
315
330
316
330
317
330
318
330
319
330
31A
330
31B
330
31C
330
31D
330
31E
330
31F
330
320
330
321
330
322
330
323
330
324
330
325
330
326
330
327
330
328
330
329
330
32A
330
32B
330
32C
330
32D
330
32E
330
32F
330
330
330
331
330
332
330
333
330
334
330
335
330
336
330
337
330
338
330
339
330
33A
330
33B
330
33C
330
33D
330
33E
330
33F
330
340
330
341
330
342
330
343
330
344
330
345
330
346
330
347
330
348
330
349
330
34A
330
34B
330
34C
330
34D
330
34E
330
34F
330
350
330
351
330
352
330
353
330
354
330
355
330
356
330
357
330
358
330
359
330
35A
330
35B
330
35C
330
35D
330
35E
330
35F
330
360
330
361
330
362
330
363
330
364
330
365
330
366
330
367
330
368
330
369
330
36A
330
36B
330
36C
330
36D
330
36E
330
36F
330
370
330
371
330
372
330
373
330
374
330
375
330
376
330
377
330
378
330
379
330
37A
330
37B
330
37C
330
37D
330
37E
330
37F
330
380
330
381
330
382
330
383
330
384
330
385
330
386
330
387
330
388
330
389
330
38A
330
38B
330
38C
330
38D
330
38E
330
38F
330
390
330
391
330
392
330
393
330
394
330
395
330
396
330
397
330
398
330
399
330
39A
330
39B
330
39C
330
39D
330
39E
330
39F
330
3A0
330
3A1
330
3A2
330
3A3
330
3A4
330
3A5
330
3A6
330
3A7
330
3A8
330
3A9
330
3AA
330
3AB
 92
1
 93
6
 72
2
 10
17.0051585288
 20
2.4217179385
 40
0.0086625048
 50
270.0
 51
90.0
 73
1
 72
1
 10
17.0051585288
 20
2.4303804433
 11
16.9637955059
 21
2.4303804433
 72
2
 10
16.963795504
 20
2.4279054437
 40
0.0024749995
 50
89.9999571957
 51
180.0000428043
 73
1
 72
1
 10
16.9613205045
 20
2.4279054419
 11
16.9613205045
 21
2.415530435
 72
2
 10
16.963795504
 20
2.4155304332
 40
0.0024749995
 50
179.9999571957
 51
270.0000428043
 73
1
 72
1
 10
16.9637955059
 20
2.4130554337
 11
17.0051585288
 21
2.4130554337
 97
267
330
2A1
330
2A2
330
2A3
330
2A4
330
2A5
330
2A6
330
2A7
330
2A8
330
2A9
330
2AA
330
2AB
330
2AC
330
2AD
330
2AE
330
2AF
330
2B0
330
2B1
330
2B2
330
2B3
330
2B4
330
2B5
330
2B6
330
2B7
330
2B8
330
2B9
330
2BA
330
2BB
330
2BC
330
2BD
330
2BE
330
2BF
330
2C0
330
2C1
330
2C2
330
2C3
330
2C4
330
2C5
330
2C6
330
2C7
330
2C8
330
2C9
330
2CA
330
2CB
330
2CC
330
2CD
330
2CE
330
2CF
330
2D0
330
2D1
330
2D2
330
2D3
330
2D4
330
2D5
330
2D6
330
2D7
330
2D8
330
2D9
330
2DA
330
2DB
330
2DC
330
2DD
330
2DE
330
2DF
330
2E0
330
2E1
330
2E2
330
2E3
330
2E4
330
2E5
330
2E6
330
2E7
330
2E8
330
2E9
330
2EA
330
2EB
330
2EC
330
2ED
330
2EE
330
2EF
330
2F0
330
2F1
330
2F2
330
2F3
330
2F4
330
2F5
330
2F6
330
2F7
330
2F8
330
2F9
330
2FA
330
2FB
330
2FC
330
2FD
330
2FE
330
2FF
330
300
330
301
330
302
330
303
330
304
330
305
330
306
330
307
330
308
330
309
330
30A
330
30B
330
30C
330
30D
330
30E
330
30F
330
310
330
311
330
312
330
313
330
314
330
315
330
316
330
317
330
318
330
319
330
31A
330
31B
330
31C
330
31D
330
31E
330
31F
330
320
330
321
330
322
330
323
330
324
330
325
330
326
330
327
330
328
330
329
330
32A
330
32B
330
32C
330
32D
330
32E
330
32F
330
330
330
331
330
332
330
333
330
334
330
335
330
336
330
337
330
338
330
339
330
33A
330
33B
330
33C
330
33D
330
33E
330
33F
330
340
330
341
330
342
330
343
330
344
330
345
330
346
330
347
330
348
330
349
330
34A
330
34B
330
34C
330
34D
330
34E
330
34F
330
350
330
351
330
352
330
353
330
354
330
355
330
356
330
357
330
358
330
359
330
35A
330
35B
330
35C
330
35D
330
35E
330
35F
330
360
330
361
330
362
330
363
330
364
330
365
330
366
330
367
330
368
330
369
330
36A
330
36B
330
36C
330
36D
330
36E
330
36F
330
370
330
371
330
372
330
373
330
374
330
375
330
376
330
377
330
378
330
379
330
37A
330
37B
330
37C
330
37D
330
37E
330
37F
330
380
330
381
330
382
330
383
330
384
330
385
330
386
330
387
330
388
330
389
330
38A
330
38B
330
38C
330
38D
330
38E
330
38F
330
390
330
391
330
392
330
393
330
394
330
395
330
396
330
397
330
398
330
399
330
39A
330
39B
330
39C
330
39D
330
39E
330
39F
330
3A0
330
3A1
330
3A2
330
3A3
330
3A4
330
3A5
330
3A6
330
3A7
330
3A8
330
3A9
330
3AA
330
3AB
 92
1
 93
8
 72
2
 10
17.2090556207
 20
2.4161446411
 40
0.0024752071
 50
270.0004896793
 51
32.9089806818
 73
1
 72
1
 10
17.211133643
 20
2.4174894361
 11
17.203874639
 21
2.4287054423
 72
2
 10
17.2017960982
 20
2.4273609828
 40
0.0024754602
 50
32.8959418573
 51
89.9875097202
 73
1
 72
1
 10
17.2017966379
 20
2.429836443
 11
17.1956156344
 21
2.429836443
 72
2
 10
17.1956155641
 20
2.4273612427
 40
0.0024752003
 50
89.998372645
 51
147.6021653069
 73
1
 72
1
 10
17.1935256333
 20
2.4286874423
 11
17.1864086293
 21
2.4174704361
 72
2
 10
17.1884985212
 20
2.4161444741
 40
0.0024750401
 50
147.6063258012
 51
270.0025305753
 73
1
 72
1
 10
17.1884986305
 20
2.413669434
 11
17.2090556419
 21
2.413669434
 97
267
330
2A1
330
2A2
330
2A3
330
2A4
330
2A5
330
2A6
330
2A7
330
2A8
330
2A9
330
2AA
330
2AB
330
2AC
330
2AD
330
2AE
330
2AF
330
2B0
330
2B1
330
2B2
330
2B3
330
2B4
330
2B5
330
2B6
330
2B7
330
2B8
330
2B9
330
2BA
330
2BB
330
2BC
330
2BD
330
2BE
330
2BF
330
2C0
330
2C1
330
2C2
330
2C3
330
2C4
330
2C5
330
2C6
330
2C7
330
2C8
330
2C9
330
2CA
330
2CB
330
2CC
330
2CD
330
2CE
330
2CF
330
2D0
330
2D1
330
2D2
330
2D3
330
2D4
330
2D5
330
2D6
330
2D7
330
2D8
330
2D9
330
2DA
330
2DB
330
2DC
330
2DD
330
2DE
330
2DF
330
2E0
330
2E1
330
2E2
330
2E3
330
2E4
330
2E5
330
2E6
330
2E7
330
2E8
330
2E9
330
2EA
330
2EB
330
2EC
330
2ED
330
2EE
330
2EF
330
2F0
330
2F1
330
2F2
330
2F3
330
2F4
330
2F5
330
2F6
330
2F7
330
2F8
330
2F9
330
2FA
330
2FB
330
2FC
330
2FD
330
2FE
330
2FF
330
300
330
301
330
302
330
303
330
304
330
305
330
306
330
307
330
308
330
309
330
30A
330
30B
330
30C
330
30D
330
30E
330
30F
330
310
330
311
330
312
330
313
330
314
330
315
330
316
330
317
330
318
330
319
330
31A
330
31B
330
31C
330
31D
330
31E
330
31F
330
320
330
321
330
322
330
323
330
324
330
325
330
326
330
327
330
328
330
329
330
32A
330
32B
330
32C
330
32D
330
32E
330
32F
330
330
330
331
330
332
330
333
330
334
330
335
330
336
330
337
330
338
330
339
330
33A
330
33B
330
33C
330
33D
330
33E
330
33F
330
340
330
341
330
342
330
343
330
344
330
345
330
346
330
347
330
348
330
349
330
34A
330
34B
330
34C
330
34D
330
34E
330
34F
330
350
330
351
330
352
330
353
330
354
330
355
330
356
330
357
330
358
330
359
330
35A
330
35B
330
35C
330
35D
330
35E
330
35F
330
360
330
361
330
362
330
363
330
364
330
365
330
366
330
367
330
368
330
369
330
36A
330
36B
330
36C
330
36D
330
36E
330
36F
330
370
330
371
330
372
330
373
330
374
330
375
330
376
330
377
330
378
330
379
330
37A
330
37B
330
37C
330
37D
330
37E
330
37F
330
380
330
381
330
382
330
383
330
384
330
385
330
386
330
387
330
388
330
389
330
38A
330
38B
330
38C
330
38D
330
38E
330
38F
330
390
330
391
330
392
330
393
330
394
330
395
330
396
330
397
330
398
330
399
330
39A
330
39B
330
39C
330
39D
330
39E
330
39F
330
3A0
330
3A1
330
3A2
330
3A3
330
3A4
330
3A5
330
3A6
330
3A7
330
3A8
330
3A9
330
3AA
330
3AB
 92
1
 93
1
 72
3
 10
17.573550844
 20
2.4034764283
 11
-0.8250004575
 21
0.0
 40
0.218572
 50
0.0
 51
-0.0
 73
1
 97
267
330
2A1
330
2A2
330
2A3
330
2A4
330
2A5
330
2A6
330
2A7
330
2A8
330
2A9
330
2AA
330
2AB
330
2AC
330
2AD
330
2AE
330
2AF
330
2B0
330
2B1
330
2B2
330
2B3
330
2B4
330
2B5
330
2B6
330
2B7
330
2B8
330
2B9
330
2BA
330
2BB
330
2BC
330
2BD
330
2BE
330
2BF
330
2C0
330
2C1
330
2C2
330
2C3
330
2C4
330
2C5
330
2C6
330
2C7
330
2C8
330
2C9
330
2CA
330
2CB
330
2CC
330
2CD
330
2CE
330
2CF
330
2D0
330
2D1
330
2D2
330
2D3
330
2D4
330
2D5
330
2D6
330
2D7
330
2D8
330
2D9
330
2DA
330
2DB
330
2DC
330
2DD
330
2DE
330
2DF
330
2E0
330
2E1
330
2E2
330
2E3
330
2E4
330
2E5
330
2E6
330
2E7
330
2E8
330
2E9
330
2EA
330
2EB
330
2EC
330
2ED
330
2EE
330
2EF
330
2F0
330
2F1
330
2F2
330
2F3
330
2F4
330
2F5
330
2F6
330
2F7
330
2F8
330
2F9
330
2FA
330
2FB
330
2FC
330
2FD
330
2FE
330
2FF
330
300
330
301
330
302
330
303
330
304
330
305
330
306
330
307
330
308
330
309
330
30A
330
30B
330
30C
330
30D
330
30E
330
30F
330
310
330
311
330
312
330
313
330
314
330
315
330
316
330
317
330
318
330
319
330
31A
330
31B
330
31C
330
31D
330
31E
330
31F
330
320
330
321
330
322
330
323
330
324
330
325
330
326
330
327
330
328
330
329
330
32A
330
32B
330
32C
330
32D
330
32E
330
32F
330
330
330
331
330
332
330
333
330
334
330
335
330
336
330
337
330
338
330
339
330
33A
330
33B
330
33C
330
33D
330
33E
330
33F
330
340
330
341
330
342
330
343
330
344
330
345
330
346
330
347
330
348
330
349
330
34A
330
34B
330
34C
330
34D
330
34E
330
34F
330
350
330
351
330
352
330
353
330
354
330
355
330
356
330
357
330
358
330
359
330
35A
330
35B
330
35C
330
35D
330
35E
330
35F
330
360
330
361
330
362
330
363
330
364
330
365
330
366
330
367
330
368
330
369
330
36A
330
36B
330
36C
330
36D
330
36E
330
36F
330
370
330
371
330
372
330
373
330
374
330
375
330
376
330
377
330
378
330
379
330
37A
330
37B
330
37C
330
37D
330
37E
330
37F
330
380
330
381
330
382
330
383
330
384
330
385
330
386
330
387
330
388
330
389
330
38A
330
38B
330
38C
330
38D
330
38E
330
38F
330
390
330
391
330
392
330
393
330
394
330
395
330
396
330
397
330
398
330
399
330
39A
330
39B
330
39C
330
39D
330
39E
330
39F
330
3A0
330
3A1
330
3A2
330
3A3
330
3A4
330
3A5
330
3A6
330
3A7
330
3A8
330
3A9
330
3AA
330
3AB
 75
0
 76
1
 98
1
 10
0.0
 20
0.0
  0
LINE
  5
3AD
100
AcDbEntity
  8
0
100
AcDbLine
 62
7
  6
CONTINUOUS
 10
21.05
 20
2.67
 11
14.7
 21
2.67
  0
LINE
  5
3AE
100
AcDbEntity
  8
0
100
AcDbLine
 62
7
  6
CONTINUOUS
 10
6.007
 20
0.75
 11
6.007
 21
0.5
  0
LINE
  5
3AF
100
AcDbEntity
  8
0
100
AcDbLine
 62
7
  6
CONTINUOUS
 10
6.007
 20
15.75
 11
6.007
 21
16.0
  0
LINE
  5
3B0
100
AcDbEntity
  8
0
100
AcDbLine
 62
7
  6
CONTINUOUS
 10
0.814
 20
8.163397
 11
0.964
 21
8.25
  0
LINE
  5
3B1
100
AcDbEntity
  8
0
100
AcDbLine
 62
7
  6
CONTINUOUS
 10
0.964
 20
8.25
 11
0.814
 21
8.336603
  0
LINE
  5
3B2
100
AcDbEntity
  8
0
100
AcDbLine
 62
7
  6
CONTINUOUS
 10
0.964
 20
4.4
 11
0.714
 21
4.4
  0
LINE
  5
3B3
100
AcDbEntity
  8
0
100
AcDbLine
 62
7
  6
CONTINUOUS
 10
21.05
 20
4.4
 11
21.3
 21
4.4
  0
LINE
  5
3B4
100
AcDbEntity
  8
0
100
AcDbLine
 62
7
  6
CONTINUOUS
 10
11.093603
 20
0.6
 11
11.007
 21
0.75
  0
LINE
  5
3B5
100
AcDbEntity
  8
0
100
AcDbLine
 62
7
  6
CONTINUOUS
 10
11.007
 20
15.75
 11
11.093603
 21
15.9
  0
LINE
  5
3B6
100
AcDbEntity
  8
0
100
AcDbLine
 62
7
  6
CONTINUOUS
 10
8.507
 20
0.75
 11
8.507
 21
0.5
  0
LINE
  5
3B7
100
AcDbEntity
  8
0
100
AcDbLine
 62
7
  6
CONTINUOUS
 10
8.507
 20
15.75
 11
8.507
 21
16.0
  0
LINE
  5
3B8
100
AcDbEntity
  8
0
100
AcDbLine
 62
7
  6
CONTINUOUS
 10
11.007
 20
0.75
 11
11.007
 21
0.5
  0
LINE
  5
3B9
100
AcDbEntity
  8
0
100
AcDbLine
 62
7
  6
CONTINUOUS
 10
11.007
 20
15.75
 11
11.007
 21
16.0
  0
LINE
  5
3BA
100
AcDbEntity
  8
0
100
AcDbLine
 62
7
  6
CONTINUOUS
 10
0.964
 20
8.25
 11
0.714
 21
8.25
  0
LINE
  5
3BB
100
AcDbEntity
  8
0
100
AcDbLine
 62
7
  6
CONTINUOUS
 10
21.05
 20
8.25
 11
21.3
 21
8.25
  0
LINE
  5
3BC
100
AcDbEntity
  8
0
100
AcDbLine
 62
7
  6
CONTINUOUS
 10
13.507
 20
0.75
 11
13.507
 21
0.5
  0
LINE
  5
3BD
100
AcDbEntity
  8
0
100
AcDbLine
 62
7
  6
CONTINUOUS
 10
13.507
 20
15.75
 11
13.507
 21
16.0
  0
LINE
  5
3BE
100
AcDbEntity
  8
0
100
AcDbLine
 62
7
  6
CONTINUOUS
 10
14.7
 20
2.67
 11
14.7
 21
0.75
  0
LINE
  5
3BF
100
AcDbEntity
  8
0
100
AcDbLine
 62
7
  6
CONTINUOUS
 10
11.007
 20
0.75
 11
10.920397
 21
0.6
  0
LINE
  5
3C0
100
AcDbEntity
  8
0
100
AcDbLine
 62
7
  6
CONTINUOUS
 10
0.964
 20
12.1
 11
0.714
 21
12.1
  0
LINE
  5
3C1
100
AcDbEntity
  8
0
100
AcDbLine
 62
7
  6
CONTINUOUS
 10
21.05
 20
12.1
 11
21.3
 21
12.1
  0
LINE
  5
3C2
100
AcDbEntity
  8
0
100
AcDbLine
 62
7
  6
CONTINUOUS
 10
10.920397
 20
15.9
 11
11.007
 21
15.75
  0
LINE
  5
3C3
100
AcDbEntity
  8
0
100
AcDbLine
 62
7
  6
CONTINUOUS
 10
15.2229827477
 20
1.0139932523
 11
15.2229827477
 21
0.7919022523
  0
LINE
  5
3C4
100
AcDbEntity
  8
0
100
AcDbLine
 62
7
  6
CONTINUOUS
 10
15.2229827477
 20
1.0639932523
 11
15.2229827477
 21
1.1639932523
  0
LINE
  5
3C5
100
AcDbEntity
  8
0
100
AcDbLine
 62
7
  6
CONTINUOUS
 10
15.2229827477
 20
1.2139932523
 11
15.2229827477
 21
1.4360842523
  0
LINE
  5
3C6
100
AcDbEntity
  8
0
100
AcDbLine
 62
7
  6
CONTINUOUS
 10
15.8276527477
 20
0.9312952523
 11
15.8276527477
 21
1.2966912523
  0
LINE
  5
3C7
100
AcDbEntity
  8
0
100
AcDbLine
 62
7
  6
CONTINUOUS
 10
16.007
 20
0.75
 11
16.007
 21
0.5
  0
LINE
  5
3C8
100
AcDbEntity
  8
0
100
AcDbLine
 62
7
  6
CONTINUOUS
 10
16.007
 20
15.75
 11
16.007
 21
16.0
  0
LINE
  5
3C9
100
AcDbEntity
  8
0
100
AcDbLine
 62
7
  6
CONTINUOUS
 10
16.4340437477
 20
1.3660842523
 11
16.4340437477
 21
0.8619022523
  0
LINE
  5
3CA
100
AcDbEntity
  8
0
100
AcDbLine
 62
7
  6
CONTINUOUS
 10
21.2
 20
8.336603
 11
21.05
 21
8.25
  0
LINE
  5
3CB
100
AcDbEntity
  8
0
100
AcDbLine
 62
7
  6
CONTINUOUS
 10
21.05
 20
8.25
 11
21.2
 21
8.163397
  0
LINE
  5
3CC
100
AcDbEntity
  8
0
100
AcDbLine
 62
7
  6
CONTINUOUS
 10
16.7
 20
2.67
 11
16.7
 21
0.75
  0
LINE
  5
3CD
100
AcDbEntity
  8
0
100
AcDbLine
 62
7
  6
CONTINUOUS
 10
17.5
 20
1.37
 11
17.5
 21
1.0
  0
LINE
  5
3CE
100
AcDbEntity
  8
0
100
AcDbLine
 62
7
  6
CONTINUOUS
 10
18.507
 20
0.75
 11
18.507
 21
0.5
  0
LINE
  5
3CF
100
AcDbEntity
  8
0
100
AcDbLine
 62
7
  6
CONTINUOUS
 10
18.507
 20
15.75
 11
18.507
 21
16.0
  0
LINE
  5
3D0
100
AcDbEntity
  8
0
100
AcDbLine
 62
7
  6
CONTINUOUS
 10
21.05
 20
15.75
 11
0.964
 21
15.75
  0
LINE
  5
3D1
100
AcDbEntity
  8
0
100
AcDbLine
 62
7
  6
CONTINUOUS
 10
11.093603
 20
15.9
 11
10.920397
 21
15.9
  0
LINE
  5
3D2
100
AcDbEntity
  8
0
100
AcDbLine
 62
7
  6
CONTINUOUS
 10
18.875
 20
1.0
 11
18.875
 21
0.75
  0
LINE
  5
3D3
100
AcDbEntity
  8
0
100
AcDbLine
 62
7
  6
CONTINUOUS
 10
20.25
 20
1.37
 11
20.25
 21
1.0
  0
LINE
  5
3D4
100
AcDbEntity
  8
0
100
AcDbLine
 62
7
  6
CONTINUOUS
 10
21.05
 20
0.75
 11
21.05
 21
15.75
  0
LINE
  5
3D5
100
AcDbEntity
  8
0
100
AcDbLine
 62
7
  6
CONTINUOUS
 10
21.2
 20
8.163397
 11
21.2
 21
8.336603
  0
LINE
  5
3D6
100
AcDbEntity
  8
02___PRT_ALL_AXES
100
AcDbLine
 62
7
  6
CONTINUOUS
 10
6.0192326802
 20
6.5812507758
 11
6.2342326802
 21
6.5812507758
  0
LWPOLYLINE
  5
3D7
100
AcDbEntity
  8
02___PRT_ALL_AXES
100
AcDbPolyline
 62
7
  6
CONTINUOUS
 90
5
 70
0
 10
6.3527165892
 20
7.7446625684
 10
6.3230685295
 20
7.737997127
 10
6.292010616
 20
7.7318333975
 10
6.2607881014
 20
7.7265279901
 10
6.2304300596
 20
7.7222672463
  0
LWPOLYLINE
  5
3D8
100
AcDbEntity
  8
02___PRT_ALL_AXES
100
AcDbPolyline
 62
7
  6
CONTINUOUS
 90
9
 70
0
 10
6.3527165892
 20
7.7446625684
 10
6.4344344167
 20
7.7461354842
 10
6.5086110264
 20
7.7476084001
 10
6.5734284825
 20
7.7490813159
 10
6.6272982255
 20
7.7505542318
 10
6.6689000045
 20
7.7520271476
 10
6.6972142345
 20
7.7535000635
 10
6.7115469845
 20
7.7549729793
 10
6.7131210954
 20
7.7554486706
  0
LWPOLYLINE
  5
3D9
100
AcDbEntity
  8
02___PRT_ALL_AXES
100
AcDbPolyline
 62
7
  6
CONTINUOUS
 90
9
 70
0
 10
6.3527165892
 20
7.7520444581
 10
6.4344344167
 20
7.753517374
 10
6.5086110264
 20
7.7549902898
 10
6.5734284825
 20
7.7564632057
 10
6.6272982255
 20
7.7579361215
 10
6.6689000045
 20
7.7594090374
 10
6.6972142345
 20
7.7608819532
 10
6.7115469845
 20
7.7623548691
 10
6.7133468534
 20
7.763091327
  0
LWPOLYLINE
  5
3DA
100
AcDbEntity
  8
02___PRT_ALL_AXES
100
AcDbPolyline
 62
7
  6
CONTINUOUS
 90
10
 70
0
 10
6.2304300596
 20
7.7222672463
 10
6.3162048002
 20
7.7237865783
 10
6.3973682677
 20
7.7253123486
 10
6.4709650492
 20
7.726828281
 10
6.5361929849
 20
7.7283586331
 10
6.5910270319
 20
7.729902809
 10
6.6331818064
 20
7.731439411
 10
6.6615323386
 20
7.7329549213
 10
6.6760893505
 20
7.734487201
 10
6.6776735299
 20
7.7349746235
  0
LINE
  5
3DB
100
AcDbEntity
  8
0
100
AcDbLine
 62
7
  6
CONTINUOUS
 10
6.6385437038
 20
7.636368886
 11
5.6149216565
 21
7.636368886
  0
LINE
  5
3DC
100
AcDbEntity
  8
0
100
AcDbLine
 62
7
  6
CONTINUOUS
 10
5.5755515778
 20
7.6757389648
 11
6.6779137825
 21
7.6757389648
  0
LWPOLYLINE
  5
3DD
100
AcDbEntity
  8
02___PRT_ALL_AXES
100
AcDbPolyline
 62
7
  6
CONTINUOUS
 90
4
 70
0
 10
6.0230353007
 20
7.718709483
 10
5.9825058502
 20
7.7232609368
 10
5.9417220699
 20
7.7294595346
 10
5.9007487711
 20
7.737228747
  0
LWPOLYLINE
  5
3DE
100
AcDbEntity
  8
02___PRT_ALL_AXES
100
AcDbPolyline
 62
7
  6
CONTINUOUS
 90
5
 70
0
 10
6.3527165892
 20
7.9808830408
 10
6.3233900591
 20
7.9742858709
 10
6.2927099762
 20
7.9681831065
 10
6.2614711474
 20
7.9628546547
 10
6.2304300596
 20
7.9584877188
  0
LWPOLYLINE
  5
3DF
100
AcDbEntity
  8
02___PRT_ALL_AXES
100
AcDbPolyline
 62
7
  6
CONTINUOUS
 90
4
 70
0
 10
6.3527165892
 20
7.8037176865
 10
6.3117408885
 20
7.794704664
 10
6.2709603061
 20
7.7872107262
 10
6.2304300596
 20
7.7813223645
  0
LWPOLYLINE
  5
3E0
100
AcDbEntity
  8
02___PRT_ALL_AXES
100
AcDbPolyline
 62
7
  6
CONTINUOUS
 90
4
 70
0
 10
5.9007487711
 20
7.7446106368
 10
5.9417178181
 20
7.7536223135
 10
5.9824978248
 20
7.7611164053
 10
6.0230353007
 20
7.7670059588
  0
LWPOLYLINE
  5
3E1
100
AcDbEntity
  8
02___PRT_ALL_AXES
100
AcDbPolyline
 62
7
  6
CONTINUOUS
 90
4
 70
0
 10
6.3527165892
 20
7.8627728046
 10
6.3117408885
 20
7.8537597821
 10
6.2709603061
 20
7.8462658443
 10
6.2304300596
 20
7.8403774826
  0
LWPOLYLINE
  5
3E2
100
AcDbEntity
  8
02___PRT_ALL_AXES
100
AcDbPolyline
 62
7
  6
CONTINUOUS
 90
4
 70
0
 10
5.9007487711
 20
7.8036657549
 10
5.9417178181
 20
7.8126774316
 10
5.9824978248
 20
7.8201715234
 10
6.0230353007
 20
7.8260610769
  0
LWPOLYLINE
  5
3E3
100
AcDbEntity
  8
02___PRT_ALL_AXES
100
AcDbPolyline
 62
7
  6
CONTINUOUS
 90
4
 70
0
 10
6.3527165892
 20
7.9218279227
 10
6.3117408885
 20
7.9128149002
 10
6.2709603061
 20
7.9053209624
 10
6.2304300596
 20
7.8994326007
  0
LWPOLYLINE
  5
3E4
100
AcDbEntity
  8
02___PRT_ALL_AXES
100
AcDbPolyline
 62
7
  6
CONTINUOUS
 90
4
 70
0
 10
5.9007487711
 20
7.862720873
 10
5.9417262041
 20
7.8717342458
 10
5.9825053631
 20
7.8792278842
 10
6.0230353007
 20
7.885116195
  0
LWPOLYLINE
  5
3E5
100
AcDbEntity
  8
02___PRT_ALL_AXES
100
AcDbPolyline
 62
7
  6
CONTINUOUS
 90
5
 70
0
 10
5.6493958434
 20
7.9361076751
 10
5.6121134444
 20
7.9346290435
 10
5.5874854027
 20
7.9331458106
 10
5.5761944213
 20
7.9316403991
 10
5.5757918304
 20
7.931463936
  0
LWPOLYLINE
  5
3E6
100
AcDbEntity
  8
02___PRT_ALL_AXES
100
AcDbPolyline
 62
7
  6
CONTINUOUS
 90
7
 70
0
 10
5.6493958434
 20
7.8878111993
 10
5.6932031044
 20
7.889145855
 10
5.7460158171
 20
7.8904870759
 10
5.8061680671
 20
7.8918199164
 10
5.8731770191
 20
7.893160846
 10
5.9461477933
 20
7.894516392
 10
6.0230353007
 20
7.8958748374
  0
LWPOLYLINE
  5
3E7
100
AcDbEntity
  8
02___PRT_ALL_AXES
100
AcDbPolyline
 62
7
  6
CONTINUOUS
 90
5
 70
0
 10
5.6187099039
 20
7.9082684923
 10
5.6730168753
 20
7.9097998946
 10
5.7393422321
 20
7.9113312968
 10
5.8159290953
 20
7.9128626991
 10
5.9007487711
 20
7.9143941013
  0
LWPOLYLINE
  5
3E8
100
AcDbEntity
  8
02___PRT_ALL_AXES
100
AcDbPolyline
 62
7
  6
CONTINUOUS
 90
5
 70
0
 10
5.6187099039
 20
7.9156503821
 10
5.6730168753
 20
7.9171817844
 10
5.7393422321
 20
7.9187131866
 10
5.8159290953
 20
7.9202445888
 10
5.9007487711
 20
7.9217759911
  0
LWPOLYLINE
  5
3E9
100
AcDbEntity
  8
02___PRT_ALL_AXES
100
AcDbPolyline
 62
7
  6
CONTINUOUS
 90
7
 70
0
 10
6.4723689443
 20
7.9040243282
 10
6.537267728
 20
7.9055514088
 10
6.5915717581
 20
7.9070854245
 10
6.6332106367
 20
7.9086060114
 10
6.6615036898
 20
7.9101182577
 10
6.6760965032
 20
7.9116540571
 10
6.6776735299
 20
7.9121399779
  0
LWPOLYLINE
  5
3EA
100
AcDbEntity
  8
02___PRT_ALL_AXES
100
AcDbPolyline
 62
7
  6
CONTINUOUS
 90
5
 70
0
 10
6.5367629214
 20
7.8357247574
 10
6.4714093866
 20
7.8341895805
 10
6.3979869523
 20
7.8326760573
 10
6.3170373643
 20
7.8311532951
 10
6.2304300596
 20
7.8296188402
  0
LWPOLYLINE
  5
3EB
100
AcDbEntity
  8
02___PRT_ALL_AXES
100
AcDbPolyline
 62
7
  6
CONTINUOUS
 90
5
 70
0
 10
5.7175378346
 20
8.0079004462
 10
5.7829716682
 20
8.0094343261
 10
5.8566053374
 20
8.0109499169
 10
5.9371165156
 20
8.0124631258
 10
6.0230353007
 20
8.0139850736
  0
LWPOLYLINE
  5
3EC
100
AcDbEntity
  8
02___PRT_ALL_AXES
100
AcDbPolyline
 62
7
  6
CONTINUOUS
 90
3
 70
0
 10
5.7448543339
 20
7.8007199232
 10
5.8190309436
 20
7.802192839
 10
5.9007487711
 20
7.8036657549
  0
LWPOLYLINE
  5
3ED
100
AcDbEntity
  8
02___PRT_ALL_AXES
100
AcDbPolyline
 62
7
  6
CONTINUOUS
 90
9
 70
0
 10
6.3527165892
 20
7.8037176865
 10
6.4344344167
 20
7.8051906023
 10
6.5086110264
 20
7.8066635182
 10
6.5734284825
 20
7.808136434
 10
6.6272982255
 20
7.8096093499
 10
6.6689000045
 20
7.8110822657
 10
6.6972142345
 20
7.8125551816
 10
6.7115469845
 20
7.8140280974
 10
6.7131210954
 20
7.8145037888
  0
LWPOLYLINE
  5
3EE
100
AcDbEntity
  8
02___PRT_ALL_AXES
100
AcDbPolyline
 62
7
  6
CONTINUOUS
 90
9
 70
0
 10
6.3527165892
 20
7.8110995763
 10
6.4344344167
 20
7.8125724921
 10
6.5086110264
 20
7.8140454079
 10
6.5734284825
 20
7.8155183238
 10
6.6272982255
 20
7.8169912396
 10
6.6689000045
 20
7.8184641555
 10
6.6972142345
 20
7.8199370713
 10
6.7115469845
 20
7.8214099872
 10
6.7133468534
 20
7.8221464451
  0
LWPOLYLINE
  5
3EF
100
AcDbEntity
  8
02___PRT_ALL_AXES
100
AcDbPolyline
 62
7
  6
CONTINUOUS
 90
9
 70
0
 10
6.3527165892
 20
7.8627728046
 10
6.4344344167
 20
7.8642457205
 10
6.5086110264
 20
7.8657186363
 10
6.5734284825
 20
7.8671915521
 10
6.6272982255
 20
7.868664468
 10
6.6689000045
 20
7.8701373838
 10
6.6972142345
 20
7.8716102997
 10
6.7115469845
 20
7.8730832155
 10
6.7131210954
 20
7.8735589069
  0
LWPOLYLINE
  5
3F0
100
AcDbEntity
  8
02___PRT_ALL_AXES
100
AcDbPolyline
 62
7
  6
CONTINUOUS
 90
9
 70
0
 10
6.3527165892
 20
7.8701546944
 10
6.4344344167
 20
7.8716276102
 10
6.5086110264
 20
7.8731005261
 10
6.5734284825
 20
7.8745734419
 10
6.6272982255
 20
7.8760463577
 10
6.6689000045
 20
7.8775192736
 10
6.6972142345
 20
7.8789921894
 10
6.7115469845
 20
7.8804651053
 10
6.7133468534
 20
7.8812015632
  0
LWPOLYLINE
  5
3F1
100
AcDbEntity
  8
02___PRT_ALL_AXES
100
AcDbPolyline
 62
7
  6
CONTINUOUS
 90
9
 70
0
 10
6.3527165892
 20
7.9218279227
 10
6.4344344167
 20
7.9233008386
 10
6.5086110264
 20
7.9247737544
 10
6.5734284825
 20
7.9262466703
 10
6.6272982255
 20
7.9277195861
 10
6.6689000045
 20
7.9291925019
 10
6.6972142345
 20
7.9306654178
 10
6.7115469845
 20
7.9321383336
 10
6.7131210954
 20
7.932614025
  0
LWPOLYLINE
  5
3F2
100
AcDbEntity
  8
02___PRT_ALL_AXES
100
AcDbPolyline
 62
7
  6
CONTINUOUS
 90
9
 70
0
 10
6.3527165892
 20
7.9292098125
 10
6.4344344167
 20
7.9306827283
 10
6.5086110264
 20
7.9321556442
 10
6.5734284825
 20
7.93362856
 10
6.6272982255
 20
7.9351014759
 10
6.6689000045
 20
7.9365743917
 10
6.6972142345
 20
7.9380473075
 10
6.7115469845
 20
7.9395202234
 10
6.7133468534
 20
7.9402566813
  0
LWPOLYLINE
  5
3F3
100
AcDbEntity
  8
02___PRT_ALL_AXES
100
AcDbPolyline
 62
7
  6
CONTINUOUS
 90
9
 70
0
 10
6.3527165892
 20
7.9808830408
 10
6.4344344167
 20
7.9823559567
 10
6.5086110264
 20
7.9838288725
 10
6.5734284825
 20
7.9853017884
 10
6.6272982255
 20
7.9867747042
 10
6.6689000045
 20
7.9882476201
 10
6.6972142345
 20
7.9897205359
 10
6.7115469845
 20
7.9911934517
 10
6.7131210954
 20
7.9916691431
  0
LWPOLYLINE
  5
3F4
100
AcDbEntity
  8
02___PRT_ALL_AXES
100
AcDbPolyline
 62
7
  6
CONTINUOUS
 90
9
 70
0
 10
6.3527165892
 20
7.9882649306
 10
6.4344344167
 20
7.9897378464
 10
6.5086110264
 20
7.9912107623
 10
6.5734284825
 20
7.9926836781
 10
6.6272982255
 20
7.994156594
 10
6.6689000045
 20
7.9956295098
 10
6.6972142345
 20
7.9971024257
 10
6.7115469845
 20
7.9985753415
 10
6.7133468534
 20
7.9993117994
  0
LWPOLYLINE
  5
3F5
100
AcDbEntity
  8
02___PRT_ALL_AXES
100
AcDbPolyline
 62
7
  6
CONTINUOUS
 90
10
 70
0
 10
6.0230353007
 20
7.7670059588
 10
5.9358015628
 20
7.7654601193
 10
5.8540232911
 20
7.7639202135
 10
5.7805250258
 20
7.7624017161
 10
5.7161113551
 20
7.7608849455
 10
5.6624678763
 20
7.759371331
 10
5.6207584415
 20
7.757854263
 10
5.5922316019
 20
7.7563392305
 10
5.5774596712
 20
7.7548033562
 10
5.5757918304
 20
7.7542985816
  0
LWPOLYLINE
  5
3F6
100
AcDbEntity
  8
02___PRT_ALL_AXES
100
AcDbPolyline
 62
7
  6
CONTINUOUS
 90
10
 70
0
 10
6.2304300596
 20
7.7813223645
 10
6.3170373643
 20
7.7828568193
 10
6.3979869523
 20
7.7843795815
 10
6.4714093866
 20
7.7858931048
 10
6.5367629214
 20
7.7874282816
 10
6.5916188643
 20
7.7889766833
 10
6.6337055682
 20
7.7905172256
 10
6.6618939293
 20
7.79203566
 10
6.6761594679
 20
7.7935571704
 10
6.6776735299
 20
7.7940297416
  0
LWPOLYLINE
  5
3F7
100
AcDbEntity
  8
02___PRT_ALL_AXES
100
AcDbPolyline
 62
7
  6
CONTINUOUS
 90
10
 70
0
 10
6.0230353007
 20
7.8260610769
 10
5.935916703
 20
7.8245173303
 10
5.8542849119
 20
7.8229804644
 10
5.7808109447
 20
7.8214630984
 10
5.7157251459
 20
7.8199301854
 10
5.6611358386
 20
7.8183841583
 10
5.6193032383
 20
7.8168463263
 10
5.5913188148
 20
7.8153297129
 10
5.5772037445
 20
7.8138040946
 10
5.5757918304
 20
7.8133536997
  0
LWPOLYLINE
  5
3F8
100
AcDbEntity
  8
02___PRT_ALL_AXES
100
AcDbPolyline
 62
7
  6
CONTINUOUS
 90
10
 70
0
 10
6.2304300596
 20
7.8403774826
 10
6.3176054834
 20
7.8419222621
 10
6.3993403032
 20
7.8434612311
 10
6.4727792779
 20
7.8449781963
 10
6.5369999436
 20
7.84648945
 10
6.5908215692
 20
7.8480065475
 10
6.6327270215
 20
7.8495300428
 10
6.6612460694
 20
7.8510450708
 10
6.6760046459
 20
7.8525798713
 10
6.6776735299
 20
7.8530848597
  0
LWPOLYLINE
  5
3F9
100
AcDbEntity
  8
02___PRT_ALL_AXES
100
AcDbPolyline
 62
7
  6
CONTINUOUS
 90
10
 70
0
 10
6.0230353007
 20
7.885116195
 10
5.9376048562
 20
7.8836031144
 10
5.8567785201
 20
7.882084426
 10
5.7831251274
 20
7.8805687948
 10
5.7177544792
 20
7.8790370801
 10
5.6627830695
 20
7.8774915308
 10
5.6205045374
 20
7.8759535682
 10
5.5920798201
 20
7.8744388419
 10
5.5775089179
 20
7.8729236293
 10
5.5757918304
 20
7.8724088178
  0
LWPOLYLINE
  5
3FA
100
AcDbEntity
  8
02___PRT_ALL_AXES
100
AcDbPolyline
 62
7
  6
CONTINUOUS
 90
4
 70
0
 10
6.2304300596
 20
7.8994326007
 10
6.3172095944
 20
7.9009701851
 10
6.3987987817
 20
7.902505728
 10
6.4723689443
 20
7.9040243282
  0
LWPOLYLINE
  5
3FB
100
AcDbEntity
  8
02___PRT_ALL_AXES
100
AcDbPolyline
 62
7
  6
CONTINUOUS
 90
7
 70
0
 10
6.0230353007
 20
7.9441713131
 10
5.9461477933
 20
7.9428128678
 10
5.8731770191
 20
7.9414573218
 10
5.8061680671
 20
7.9401163921
 10
5.7460158171
 20
7.9387835517
 10
5.6932031044
 20
7.9374423308
 10
5.6493958434
 20
7.9361076751
  0
LWPOLYLINE
  5
3FC
100
AcDbEntity
  8
02___PRT_ALL_AXES
100
AcDbPolyline
 62
7
  6
CONTINUOUS
 90
10
 70
0
 10
6.2304300596
 20
7.9584877188
 10
6.3163796282
 20
7.9600102256
 10
6.3968942479
 20
7.961523545
 10
6.4705222583
 20
7.9630390895
 10
6.5359539955
 20
7.9645730199
 10
6.5909429584
 20
7.9661206218
 10
6.6331990606
 20
7.9676606291
 10
6.6615665359
 20
7.9691778048
 10
6.6760145571
 20
7.9706921425
 10
6.6776735299
 20
7.971195096
  0
LWPOLYLINE
  5
3FD
100
AcDbEntity
  8
02___PRT_ALL_AXES
100
AcDbPolyline
 62
7
  6
CONTINUOUS
 90
10
 70
0
 10
6.0230353007
 20
8.0032264312
 10
5.9358507702
 20
8.0016814862
 10
5.8541148646
 20
8.0001424827
 10
5.780672895
 20
7.9986254286
 10
5.7162977806
 20
7.9971101822
 10
5.6620044556
 20
7.9955771242
 10
5.6200905108
 20
7.9940459162
 10
5.5918087262
 20
7.992529981
 10
5.5773383982
 20
7.9909985464
 10
5.5757918304
 20
7.9905190541
  0
LWPOLYLINE
  5
3FE
100
AcDbEntity
  8
02___PRT_ALL_AXES
100
AcDbPolyline
 62
7
  6
CONTINUOUS
 90
10
 70
0
 10
6.2304300596
 20
8.0175428369
 10
6.3176096004
 20
8.0190876912
 10
6.39934638
 20
8.0206267047
 10
6.472786811
 20
8.0221437156
 10
6.5371367908
 20
8.0236582994
 10
6.5914126794
 20
8.0251906147
 10
6.6333319257
 20
8.0267214937
 10
6.6616291462
 20
8.0282373436
 10
6.6761184794
 20
8.029768926
 10
6.6776735299
 20
8.0302502141
  0
LWPOLYLINE
  5
3FF
100
AcDbEntity
  8
02___PRT_ALL_AXES
100
AcDbPolyline
 62
7
  6
CONTINUOUS
 90
5
 70
0
 10
6.0230353007
 20
8.0139850736
 10
5.9920254772
 20
8.0173203474
 10
5.9607994118
 20
8.0216390127
 10
5.9301094496
 20
8.0267845644
 10
5.9007487711
 20
8.0325043376
  0
LWPOLYLINE
  5
400
100
AcDbEntity
  8
02___PRT_ALL_AXES
100
AcDbPolyline
 62
7
  6
CONTINUOUS
 90
4
 70
0
 10
6.0230353007
 20
7.7777646011
 10
5.9825058502
 20
7.7823160549
 10
5.9417220699
 20
7.7885146527
 10
5.9007487711
 20
7.7962838651
  0
LWPOLYLINE
  5
401
100
AcDbEntity
  8
02___PRT_ALL_AXES
100
AcDbPolyline
 62
7
  6
CONTINUOUS
 90
4
 70
0
 10
6.0230353007
 20
7.8368197193
 10
5.9825158756
 20
7.8413698454
 10
5.9417330789
 20
7.8475678864
 10
5.9007487711
 20
7.8553389832
  0
LWPOLYLINE
  5
402
100
AcDbEntity
  8
02___PRT_ALL_AXES
100
AcDbPolyline
 62
7
  6
CONTINUOUS
 90
4
 70
0
 10
6.2304300596
 20
7.8296188402
 10
6.2709670733
 20
7.8250663849
 10
6.3117502091
 20
7.8188676044
 10
6.3527165892
 20
7.8110995763
  0
LWPOLYLINE
  5
403
100
AcDbEntity
  8
02___PRT_ALL_AXES
100
AcDbPolyline
 62
7
  6
CONTINUOUS
 90
4
 70
0
 10
6.0230353007
 20
7.8958748374
 10
5.9825058502
 20
7.9004262911
 10
5.9417220699
 20
7.9066248889
 10
5.9007487711
 20
7.9143941013
  0
LWPOLYLINE
  5
404
100
AcDbEntity
  8
02___PRT_ALL_AXES
100
AcDbPolyline
 62
7
  6
CONTINUOUS
 90
4
 70
0
 10
6.2304300596
 20
7.8886739583
 10
6.2709670733
 20
7.884121503
 10
6.3117502091
 20
7.8779227225
 10
6.3527165892
 20
7.8701546944
  0
LWPOLYLINE
  5
405
100
AcDbEntity
  8
02___PRT_ALL_AXES
100
AcDbPolyline
 62
7
  6
CONTINUOUS
 90
4
 70
0
 10
6.0230353007
 20
7.9549299555
 10
5.9825058502
 20
7.9594814092
 10
5.9417220699
 20
7.965680007
 10
5.9007487711
 20
7.9734492194
  0
LWPOLYLINE
  5
406
100
AcDbEntity
  8
02___PRT_ALL_AXES
100
AcDbPolyline
 62
7
  6
CONTINUOUS
 90
4
 70
0
 10
6.2304300596
 20
7.9477290764
 10
6.2709670733
 20
7.9431766211
 10
6.3117502091
 20
7.9369778407
 10
6.3527165892
 20
7.9292098125
  0
LWPOLYLINE
  5
407
100
AcDbEntity
  8
02___PRT_ALL_AXES
100
AcDbPolyline
 62
7
  6
CONTINUOUS
 90
4
 70
0
 10
6.2304300596
 20
7.7705637221
 10
6.2712364042
 20
7.7659755633
 10
6.3127800329
 20
7.7596357183
 10
6.3527165892
 20
7.7520444581
  0
LINE
  5
408
100
AcDbEntity
  8
0
100
AcDbLine
 62
7
  6
CONTINUOUS
 10
5.5403442649
 20
7.7259211116
 11
5.5757918304
 21
7.7054470645
  0
LINE
  5
409
100
AcDbEntity
  8
0
100
AcDbLine
 62
7
  6
CONTINUOUS
 10
5.5403442649
 20
7.7849762297
 11
5.5757918304
 21
7.7645021826
  0
LINE
  5
40A
100
AcDbEntity
  8
0
100
AcDbLine
 62
7
  6
CONTINUOUS
 10
5.5403442649
 20
7.8440313478
 11
5.5757918304
 21
7.8235573007
  0
LINE
  5
40B
100
AcDbEntity
  8
0
100
AcDbLine
 62
7
  6
CONTINUOUS
 10
5.5403442649
 20
7.9030864659
 11
5.5757918304
 21
7.8826124188
  0
LINE
  5
40C
100
AcDbEntity
  8
0
100
AcDbLine
 62
7
  6
CONTINUOUS
 10
5.5403442649
 20
7.962141584
 11
5.5757918304
 21
7.9416675369
  0
LWPOLYLINE
  5
40D
100
AcDbEntity
  8
02___PRT_ALL_AXES
100
AcDbPolyline
 62
7
  6
CONTINUOUS
 90
5
 70
0
 10
5.9007487711
 20
8.0398862273
 10
5.9300052734
 20
8.0464685162
 10
5.9606676456
 20
8.0525699166
 10
5.9919289268
 20
8.05790444
 10
6.0230353007
 20
8.0622815494
  0
LWPOLYLINE
  5
40E
100
AcDbEntity
  8
02___PRT_ALL_AXES
100
AcDbPolyline
 62
7
  6
CONTINUOUS
 90
4
 70
0
 10
5.9007487711
 20
7.9217759911
 10
5.9417178181
 20
7.9307876678
 10
5.9824978248
 20
7.9382817596
 10
6.0230353007
 20
7.9441713131
  0
LWPOLYLINE
  5
40F
100
AcDbEntity
  8
02___PRT_ALL_AXES
100
AcDbPolyline
 62
7
  6
CONTINUOUS
 90
4
 70
0
 10
6.3527165892
 20
8.0399381589
 10
6.3117408885
 20
8.0309251365
 10
6.2709603061
 20
8.0234311986
 10
6.2304300596
 20
8.0175428369
  0
LWPOLYLINE
  5
410
100
AcDbEntity
  8
02___PRT_ALL_AXES
100
AcDbPolyline
 62
7
  6
CONTINUOUS
 90
4
 70
0
 10
5.9007487711
 20
7.9808311092
 10
5.9417178181
 20
7.9898427859
 10
5.9824978248
 20
7.9973368777
 10
6.0230353007
 20
8.0032264312
  0
LWPOLYLINE
  5
411
100
AcDbEntity
  8
02___PRT_ALL_AXES
100
AcDbPolyline
 62
7
  6
CONTINUOUS
 90
4
 70
0
 10
6.3527165892
 20
8.098993277
 10
6.3117408885
 20
8.0899802546
 10
6.2709603061
 20
8.0824863167
 10
6.2304300596
 20
8.076597955
  0
LWPOLYLINE
  5
412
100
AcDbEntity
  8
02___PRT_ALL_AXES
100
AcDbPolyline
 62
7
  6
CONTINUOUS
 90
4
 70
0
 10
6.3527165892
 20
8.1580483952
 10
6.3117302863
 20
8.1490332283
 10
6.2709507308
 20
8.1415398564
 10
6.2304300596
 20
8.1356530731
  0
LWPOLYLINE
  5
413
100
AcDbEntity
  8
02___PRT_ALL_AXES
100
AcDbPolyline
 62
7
  6
CONTINUOUS
 90
4
 70
0
 10
5.9007487711
 20
8.0989413454
 10
5.9417178181
 20
8.1079530221
 10
5.9824978248
 20
8.115447114
 10
6.0230353007
 20
8.1213366675
  0
LWPOLYLINE
  5
414
100
AcDbEntity
  8
02___PRT_ALL_AXES
100
AcDbPolyline
 62
7
  6
CONTINUOUS
 90
4
 70
0
 10
6.3527165892
 20
8.2171035133
 10
6.3117408885
 20
8.2080904908
 10
6.2709603061
 20
8.200596553
 10
6.2304300596
 20
8.1947081912
  0
LWPOLYLINE
  5
415
100
AcDbEntity
  8
02___PRT_ALL_AXES
100
AcDbPolyline
 62
7
  6
CONTINUOUS
 90
4
 70
0
 10
5.9007487711
 20
8.1579964635
 10
5.9417178181
 20
8.1670081402
 10
5.9824978248
 20
8.1745022321
 10
6.0230353007
 20
8.1803917856
  0
LWPOLYLINE
  5
416
100
AcDbEntity
  8
02___PRT_ALL_AXES
100
AcDbPolyline
 62
7
  6
CONTINUOUS
 90
4
 70
0
 10
6.3527165892
 20
8.2761586314
 10
6.3117408885
 20
8.2671456089
 10
6.2709603061
 20
8.2596516711
 10
6.2304300596
 20
8.2537633093
  0
LWPOLYLINE
  5
417
100
AcDbEntity
  8
02___PRT_ALL_AXES
100
AcDbPolyline
 62
7
  6
CONTINUOUS
 90
5
 70
0
 10
6.6040695169
 20
8.084661593
 10
6.6413484351
 20
8.0861400589
 10
6.6659781245
 20
8.0876233066
 10
6.6772706289
 20
8.0891287596
 10
6.6776735299
 20
8.0893053322
  0
LWPOLYLINE
  5
418
100
AcDbEntity
  8
02___PRT_ALL_AXES
100
AcDbPolyline
 62
7
  6
CONTINUOUS
 90
5
 70
0
 10
6.6347554564
 20
8.105118886
 10
6.6738291664
 20
8.1065705341
 10
6.6998781753
 20
8.1080221822
 10
6.7122823355
 20
8.1094738302
 10
6.7131210954
 20
8.1097793793
  0
LWPOLYLINE
  5
419
100
AcDbEntity
  8
02___PRT_ALL_AXES
100
AcDbPolyline
 62
7
  6
CONTINUOUS
 90
5
 70
0
 10
6.6347554564
 20
8.1125007758
 10
6.6738291664
 20
8.1139524239
 10
6.6998781753
 20
8.1154040719
 10
6.7122823355
 20
8.11685572
 10
6.7133468534
 20
8.1174220356
  0
LWPOLYLINE
  5
41A
100
AcDbEntity
  8
02___PRT_ALL_AXES
100
AcDbPolyline
 62
7
  6
CONTINUOUS
 90
7
 70
0
 10
6.6040695169
 20
8.1329580688
 10
6.5602530274
 20
8.1316231583
 10
6.5074331371
 20
8.1302818054
 10
6.4472711058
 20
8.1289488028
 10
6.3802723563
 20
8.1276081151
 10
6.3073079769
 20
8.1262527031
 10
6.2304300596
 20
8.1248944308
  0
LWPOLYLINE
  5
41B
100
AcDbEntity
  8
02___PRT_ALL_AXES
100
AcDbPolyline
 62
7
  6
CONTINUOUS
 90
4
 70
0
 10
5.6800368778
 20
8.2052509444
 10
5.7448543339
 20
8.2067238602
 10
5.8190309436
 20
8.208196776
 10
5.9007487711
 20
8.2096696919
  0
LWPOLYLINE
  5
41C
100
AcDbEntity
  8
02___PRT_ALL_AXES
100
AcDbPolyline
 62
7
  6
CONTINUOUS
 90
3
 70
0
 10
5.8555403886
 20
8.1880944249
 10
5.9364555965
 20
8.1896164745
 10
6.0230353007
 20
8.1911504279
  0
LWPOLYLINE
  5
41D
100
AcDbEntity
  8
02___PRT_ALL_AXES
100
AcDbPolyline
 62
7
  6
CONTINUOUS
 90
3
 70
0
 10
6.3992311025
 20
8.2460862732
 10
6.3175663378
 20
8.244548735
 10
6.2304300596
 20
8.243004667
  0
LWPOLYLINE
  5
41E
100
AcDbEntity
  8
02___PRT_ALL_AXES
100
AcDbPolyline
 62
7
  6
CONTINUOUS
 90
9
 70
0
 10
6.31586143
 20
8.1371661706
 10
6.3966670545
 20
8.1386844552
 10
6.4703172512
 20
8.1401999722
 10
6.5356882057
 20
8.1417316113
 10
6.5906636089
 20
8.1432771473
 10
6.6329491251
 20
8.1448151957
 10
6.6613793652
 20
8.1463299931
 10
6.6759515328
 20
8.1478446452
 10
6.6776735299
 20
8.1483604503
  0
LWPOLYLINE
  5
41F
100
AcDbEntity
  8
02___PRT_ALL_AXES
100
AcDbPolyline
 62
7
  6
CONTINUOUS
 90
9
 70
0
 10
6.3527165892
 20
8.0399381589
 10
6.4344344167
 20
8.0414110748
 10
6.5086110264
 20
8.0428839906
 10
6.5734284825
 20
8.0443569065
 10
6.6272982255
 20
8.0458298223
 10
6.6689000045
 20
8.0473027382
 10
6.6972142345
 20
8.048775654
 10
6.7115469845
 20
8.0502485699
 10
6.7131210954
 20
8.0507242612
  0
LWPOLYLINE
  5
420
100
AcDbEntity
  8
02___PRT_ALL_AXES
100
AcDbPolyline
 62
7
  6
CONTINUOUS
 90
9
 70
0
 10
6.3527165892
 20
8.0473200487
 10
6.4344344167
 20
8.0487929645
 10
6.5086110264
 20
8.0502658804
 10
6.5734284825
 20
8.0517387962
 10
6.6272982255
 20
8.0532117121
 10
6.6689000045
 20
8.0546846279
 10
6.6972142345
 20
8.0561575438
 10
6.7115469845
 20
8.0576304596
 10
6.7133468534
 20
8.0583669175
  0
LWPOLYLINE
  5
421
100
AcDbEntity
  8
02___PRT_ALL_AXES
100
AcDbPolyline
 62
7
  6
CONTINUOUS
 90
5
 70
0
 10
6.3527165892
 20
8.098993277
 10
6.437536265
 20
8.1005246793
 10
6.5141231282
 20
8.1020560815
 10
6.580448485
 20
8.1035874838
 10
6.6347554564
 20
8.105118886
  0
LWPOLYLINE
  5
422
100
AcDbEntity
  8
02___PRT_ALL_AXES
100
AcDbPolyline
 62
7
  6
CONTINUOUS
 90
5
 70
0
 10
6.3527165892
 20
8.1063751668
 10
6.437536265
 20
8.1079065691
 10
6.5141231282
 20
8.1094379713
 10
6.580448485
 20
8.1109693736
 10
6.6347554564
 20
8.1125007758
  0
LWPOLYLINE
  5
423
100
AcDbEntity
  8
02___PRT_ALL_AXES
100
AcDbPolyline
 62
7
  6
CONTINUOUS
 90
9
 70
0
 10
6.3527165892
 20
8.1580483952
 10
6.4344344167
 20
8.159521311
 10
6.5086110264
 20
8.1609942268
 10
6.5734284825
 20
8.1624671427
 10
6.6272982255
 20
8.1639400585
 10
6.6689000045
 20
8.1654129744
 10
6.6972142345
 20
8.1668858902
 10
6.7115469845
 20
8.1683588061
 10
6.7131210954
 20
8.1688344974
  0
LINE
  5
424
100
AcDbEntity
  8
02___PRT_ALL_AXES
100
AcDbLine
 62
7
  6
CONTINUOUS
 10
5.8190309436
 20
8.1491416579
 11
5.9007487711
 21
8.1506145738
  0
LWPOLYLINE
  5
425
100
AcDbEntity
  8
02___PRT_ALL_AXES
100
AcDbPolyline
 62
7
  6
CONTINUOUS
 90
9
 70
0
 10
6.3527165892
 20
8.1654302849
 10
6.4344344167
 20
8.1669032008
 10
6.5086110264
 20
8.1683761166
 10
6.5734284825
 20
8.1698490325
 10
6.6272982255
 20
8.1713219483
 10
6.6689000045
 20
8.1727948641
 10
6.6972142345
 20
8.17426778
 10
6.7115469845
 20
8.1757406958
 10
6.7133468534
 20
8.1764771538
  0
LWPOLYLINE
  5
426
100
AcDbEntity
  8
02___PRT_ALL_AXES
100
AcDbPolyline
 62
7
  6
CONTINUOUS
 90
9
 70
0
 10
6.3527165892
 20
8.2171035133
 10
6.4344344167
 20
8.2185764291
 10
6.5086110264
 20
8.220049345
 10
6.5734284825
 20
8.2215222608
 10
6.6272982255
 20
8.2229951766
 10
6.6689000045
 20
8.2244680925
 10
6.6972142345
 20
8.2259410083
 10
6.7115469845
 20
8.2274139242
 10
6.7131210954
 20
8.2278896155
  0
LWPOLYLINE
  5
427
100
AcDbEntity
  8
02___PRT_ALL_AXES
100
AcDbPolyline
 62
7
  6
CONTINUOUS
 90
9
 70
0
 10
6.3527165892
 20
8.224485403
 10
6.4344344167
 20
8.2259583189
 10
6.5086110264
 20
8.2274312347
 10
6.5734284825
 20
8.2289041506
 10
6.6272982255
 20
8.2303770664
 10
6.6689000045
 20
8.2318499823
 10
6.6972142345
 20
8.2333228981
 10
6.7115469845
 20
8.2347958139
 10
6.7133468534
 20
8.2355322719
  0
LWPOLYLINE
  5
428
100
AcDbEntity
  8
02___PRT_ALL_AXES
100
AcDbPolyline
 62
7
  6
CONTINUOUS
 90
9
 70
0
 10
6.3527165892
 20
8.2761586314
 10
6.4344344167
 20
8.2776315472
 10
6.5086110264
 20
8.2791044631
 10
6.5734284825
 20
8.2805773789
 10
6.6272982255
 20
8.2820502948
 10
6.6689000045
 20
8.2835232106
 10
6.6972142345
 20
8.2849961264
 10
6.7115469845
 20
8.2864690423
 10
6.7131210954
 20
8.2869447336
  0
LINE
  5
429
100
AcDbEntity
  8
02___PRT_ALL_AXES
100
AcDbLine
 62
7
  6
CONTINUOUS
 10
5.8190309436
 20
8.2672518942
 11
5.9007487711
 21
8.26872481
  0
LWPOLYLINE
  5
42A
100
AcDbEntity
  8
02___PRT_ALL_AXES
100
AcDbPolyline
 62
7
  6
CONTINUOUS
 90
10
 70
0
 10
6.0230353007
 20
8.0622815494
 10
5.9371165156
 20
8.0607596016
 10
5.8566053374
 20
8.0592463927
 10
5.7829716682
 20
8.0577308019
 10
5.7175378346
 20
8.056196922
 10
5.6625468941
 20
8.0546494209
 10
5.6202883627
 20
8.0531095925
 10
5.5919150405
 20
8.0515926069
 10
5.5774581586
 20
8.0500786364
 10
5.5757918304
 20
8.0495741722
  0
LWPOLYLINE
  5
42B
100
AcDbEntity
  8
02___PRT_ALL_AXES
100
AcDbPolyline
 62
7
  6
CONTINUOUS
 90
7
 70
0
 10
6.2304300596
 20
8.076597955
 10
6.3073079769
 20
8.0779562273
 10
6.3802723563
 20
8.0793116394
 10
6.4472711058
 20
8.0806523271
 10
6.5074331371
 20
8.0819853296
 10
6.5602530274
 20
8.0833266826
 10
6.6040695169
 20
8.084661593
  0
LWPOLYLINE
  5
42C
100
AcDbEntity
  8
02___PRT_ALL_AXES
100
AcDbPolyline
 62
7
  6
CONTINUOUS
 90
10
 70
0
 10
6.0230353007
 20
8.1213366675
 10
5.9362140573
 20
8.1197983251
 10
5.8546108589
 20
8.1182624476
 10
5.7810436123
 20
8.116743784
 10
5.7161584704
 20
8.1152168585
 10
5.6618787407
 20
8.113683372
 10
5.6202618555
 20
8.112163565
 10
5.5919637334
 20
8.1106511557
 10
5.5773689636
 20
8.1091152334
 10
5.5757918304
 20
8.1086292903
  0
LINE
  5
42D
100
AcDbEntity
  8
02___PRT_ALL_AXES
100
AcDbLine
 62
7
  6
CONTINUOUS
 10
6.2304300596
 20
8.1356530731
 11
6.31586143
 21
8.1371661706
  0
LWPOLYLINE
  5
42E
100
AcDbEntity
  8
02___PRT_ALL_AXES
100
AcDbPolyline
 62
7
  6
CONTINUOUS
 90
10
 70
0
 10
6.0230353007
 20
8.1803917856
 10
5.935863525
 20
8.1788470724
 10
5.8541365999
 20
8.1773082635
 10
5.7807043797
 20
8.1757914727
 10
5.716491276
 20
8.1742804785
 10
5.6626476997
 20
8.1727628442
 10
5.6207360104
 20
8.1712391252
 10
5.5922179576
 20
8.1697241042
 10
5.5774603308
 20
8.1681893182
 10
5.5757918304
 20
8.1676844084
  0
LWPOLYLINE
  5
42F
100
AcDbEntity
  8
02___PRT_ALL_AXES
100
AcDbPolyline
 62
7
  6
CONTINUOUS
 90
10
 70
0
 10
6.2304300596
 20
8.1947081912
 10
6.3175663378
 20
8.1962522592
 10
6.3992311025
 20
8.1977897974
 10
6.4727212607
 20
8.1993076339
 10
6.5377868647
 20
8.2008402768
 10
6.5923608839
 20
8.2023861092
 10
6.6341822078
 20
8.2039238191
 10
6.6621569631
 20
8.2054403035
 10
6.6762654309
 20
8.2069660149
 10
6.6776735299
 20
8.2074155684
  0
LWPOLYLINE
  5
430
100
AcDbEntity
  8
02___PRT_ALL_AXES
100
AcDbPolyline
 62
7
  6
CONTINUOUS
 90
10
 70
0
 10
6.0230353007
 20
8.2394469037
 10
5.9364555965
 20
8.2379129503
 10
5.8555403886
 20
8.2363909007
 10
5.7821035277
 20
8.2348772025
 10
5.7167392284
 20
8.2333419252
 10
5.6618745925
 20
8.2317934766
 10
5.6197809665
 20
8.2302529626
 10
5.5915847819
 20
8.2287345592
 10
5.5773115324
 20
8.2272133032
 10
5.5757918304
 20
8.2267395265
  0
LWPOLYLINE
  5
431
100
AcDbEntity
  8
02___PRT_ALL_AXES
100
AcDbPolyline
 62
7
  6
CONTINUOUS
 90
10
 70
0
 10
6.2304300596
 20
8.2537633093
 10
6.3176653094
 20
8.2553091763
 10
6.3994496193
 20
8.2568492028
 10
6.4729520562
 20
8.2583678089
 10
6.5373759199
 20
8.2598848828
 10
6.5910221997
 20
8.2613987191
 10
6.632718352
 20
8.2629154968
 10
6.6612399474
 20
8.2644304699
 10
6.6760077791
 20
8.2659663408
 10
6.6776735299
 20
8.2664706865
  0
LWPOLYLINE
  5
432
100
AcDbEntity
  8
02___PRT_ALL_AXES
100
AcDbPolyline
 62
7
  6
CONTINUOUS
 90
5
 70
0
 10
6.0230353007
 20
8.250205546
 10
5.9927040589
 20
8.2534575367
 10
5.9614882248
 20
8.2577540944
 10
5.930419207
 20
8.262948777
 10
5.9007487711
 20
8.26872481
  0
LWPOLYLINE
  5
433
100
AcDbEntity
  8
02___PRT_ALL_AXES
100
AcDbPolyline
 62
7
  6
CONTINUOUS
 90
5
 70
0
 10
6.2304300596
 20
8.0067841946
 10
6.2615009035
 20
8.0034414093
 10
6.2927540354
 20
7.9991167454
 10
6.3234309021
 20
7.9939710703
 10
6.3527165892
 20
7.9882649306
  0
LWPOLYLINE
  5
434
100
AcDbEntity
  8
02___PRT_ALL_AXES
100
AcDbPolyline
 62
7
  6
CONTINUOUS
 90
4
 70
0
 10
6.0230353007
 20
8.0730401917
 10
5.9825058502
 20
8.0775916454
 10
5.9417220699
 20
8.0837902432
 10
5.9007487711
 20
8.0915594557
  0
LWPOLYLINE
  5
435
100
AcDbEntity
  8
02___PRT_ALL_AXES
100
AcDbPolyline
 62
7
  6
CONTINUOUS
 90
4
 70
0
 10
6.2304300596
 20
8.0658393127
 10
6.2709670733
 20
8.0612868573
 10
6.311750209
 20
8.0550880769
 10
6.3527165892
 20
8.0473200487
  0
LWPOLYLINE
  5
436
100
AcDbEntity
  8
02___PRT_ALL_AXES
100
AcDbPolyline
 62
7
  6
CONTINUOUS
 90
4
 70
0
 10
6.0230353007
 20
8.1320953098
 10
5.9825058502
 20
8.1366467635
 10
5.9417220699
 20
8.1428453613
 10
5.9007487711
 20
8.1506145738
  0
LWPOLYLINE
  5
437
100
AcDbEntity
  8
02___PRT_ALL_AXES
100
AcDbPolyline
 62
7
  6
CONTINUOUS
 90
4
 70
0
 10
6.2304300596
 20
8.1248944308
 10
6.2709670733
 20
8.1203419755
 10
6.311750209
 20
8.114143195
 10
6.3527165892
 20
8.1063751668
  0
LWPOLYLINE
  5
438
100
AcDbEntity
  8
02___PRT_ALL_AXES
100
AcDbPolyline
 62
7
  6
CONTINUOUS
 90
4
 70
0
 10
6.0230353007
 20
8.1911504279
 10
5.9825058502
 20
8.1957018817
 10
5.9417220699
 20
8.2019004794
 10
5.9007487711
 20
8.2096696919
  0
LWPOLYLINE
  5
439
100
AcDbEntity
  8
02___PRT_ALL_AXES
100
AcDbPolyline
 62
7
  6
CONTINUOUS
 90
4
 70
0
 10
6.2304300596
 20
8.1839495489
 10
6.2709596424
 20
8.1793980776
 10
6.3117419907
 20
8.1731997198
 10
6.3527165892
 20
8.1654302849
  0
LWPOLYLINE
  5
43A
100
AcDbEntity
  8
02___PRT_ALL_AXES
100
AcDbPolyline
 62
7
  6
CONTINUOUS
 90
4
 70
0
 10
6.2304300596
 20
8.243004667
 10
6.2709670733
 20
8.2384522117
 10
6.3117502091
 20
8.2322534312
 10
6.3527165892
 20
8.224485403
  0
LINE
  5
43B
100
AcDbEntity
  8
0
100
AcDbLine
 62
7
  6
CONTINUOUS
 10
5.5403442649
 20
8.0211967021
 11
5.5757918304
 21
8.000722655
  0
LINE
  5
43C
100
AcDbEntity
  8
0
100
AcDbLine
 62
7
  6
CONTINUOUS
 10
5.5403442649
 20
8.0802518203
 11
5.5757918304
 21
8.0597777731
  0
LINE
  5
43D
100
AcDbEntity
  8
0
100
AcDbLine
 62
7
  6
CONTINUOUS
 10
5.5403442649
 20
8.1393069384
 11
5.5757918304
 21
8.1188328912
  0
LINE
  5
43E
100
AcDbEntity
  8
0
100
AcDbLine
 62
7
  6
CONTINUOUS
 10
5.5403442649
 20
8.1983620565
 11
5.5757918304
 21
8.1778880094
  0
LINE
  5
43F
100
AcDbEntity
  8
0
100
AcDbLine
 62
7
  6
CONTINUOUS
 10
5.5403442649
 20
8.2574171746
 11
5.5757918304
 21
8.2369431275
  0
LINE
  5
440
100
AcDbEntity
  8
02___PRT_ALL_AXES
100
AcDbLine
 62
7
  6
CONTINUOUS
 10
5.5403442649
 20
7.7259211116
 11
5.5401185069
 21
7.7261818782
  0
LINE
  5
441
100
AcDbEntity
  8
02___PRT_ALL_AXES
100
AcDbLine
 62
7
  6
CONTINUOUS
 10
5.5403442649
 20
7.7849762297
 11
5.5401185069
 21
7.7852369963
  0
LINE
  5
442
100
AcDbEntity
  8
02___PRT_ALL_AXES
100
AcDbLine
 62
7
  6
CONTINUOUS
 10
5.5403442649
 20
7.8440313478
 11
5.5401185069
 21
7.8442921144
  0
LWPOLYLINE
  5
443
100
AcDbEntity
  8
02___PRT_ALL_AXES
100
AcDbPolyline
 62
7
  6
CONTINUOUS
 90
4
 70
0
 10
5.9007487711
 20
8.2761066998
 10
5.9406420591
 20
8.2849002757
 10
5.9821892033
 20
8.2925615452
 10
6.0230353007
 20
8.2985020218
  0
LWPOLYLINE
  5
444
100
AcDbEntity
  8
02___PRT_ALL_AXES
100
AcDbPolyline
 62
7
  6
CONTINUOUS
 90
4
 70
0
 10
5.9007487711
 20
8.2170515816
 10
5.9417178181
 20
8.2260632583
 10
5.9824978248
 20
8.2335573502
 10
6.0230353007
 20
8.2394469037
  0
LWPOLYLINE
  5
445
100
AcDbEntity
  8
02___PRT_ALL_AXES
100
AcDbPolyline
 62
7
  6
CONTINUOUS
 90
8
 70
0
 10
6.4344344167
 20
8.285013437
 10
6.5086110264
 20
8.2864863528
 10
6.5734284825
 20
8.2879592687
 10
6.6272982255
 20
8.2894321845
 10
6.6689000045
 20
8.2909051004
 10
6.6972142345
 20
8.2923780162
 10
6.7115469845
 20
8.2938509321
 10
6.7133468534
 20
8.29458739
  0
LINE
  5
446
100
AcDbEntity
  8
02___PRT_ALL_AXES
100
AcDbLine
 62
7
  6
CONTINUOUS
 10
6.3527165892
 20
8.2835405211
 11
6.4344344167
 21
8.285013437
  0
LWPOLYLINE
  5
447
100
AcDbEntity
  8
02___PRT_ALL_AXES
100
AcDbPolyline
 62
7
  6
CONTINUOUS
 90
10
 70
0
 10
6.0230353007
 20
8.2985020218
 10
5.9372263347
 20
8.2969820684
 10
5.8560554087
 20
8.2954561036
 10
5.7824648935
 20
8.2939402138
 10
5.7172443499
 20
8.2924099212
 10
5.6624196829
 20
8.2908658691
 10
5.6202745024
 20
8.289329466
 10
5.5919235788
 20
8.2878136813
 10
5.5773688145
 20
8.2862805565
 10
5.5757918304
 20
8.2857946446
  0
LINE
  5
448
100
AcDbEntity
  8
0
100
AcDbLine
 62
7
  6
CONTINUOUS
 10
6.6779137825
 20
8.3450303034
 11
5.5755515778
 21
8.3450303034
  0
LINE
  5
449
100
AcDbEntity
  8
02___PRT_ALL_AXES
100
AcDbLine
 62
7
  6
CONTINUOUS
 10
6.8550791368
 20
8.3844003821
 11
5.3983862235
 21
8.3844003821
  0
LWPOLYLINE
  5
44A
100
AcDbEntity
  8
02___PRT_ALL_AXES
100
AcDbPolyline
 62
7
  6
CONTINUOUS
 90
4
 70
0
 10
6.2304300596
 20
8.3020597851
 10
6.2709670733
 20
8.2975073298
 10
6.3117502091
 20
8.2913085493
 10
6.3527165892
 20
8.2835405211
  0
LINE
  5
44B
100
AcDbEntity
  8
0
100
AcDbLine
 62
7
  6
CONTINUOUS
 10
6.7131210954
 20
7.7633520936
 11
6.6776735299
 21
7.7838261407
  0
LINE
  5
44C
100
AcDbEntity
  8
0
100
AcDbLine
 62
7
  6
CONTINUOUS
 10
6.7131210954
 20
7.8224072117
 11
6.6776735299
 21
7.8428812588
  0
LINE
  5
44D
100
AcDbEntity
  8
0
100
AcDbLine
 62
7
  6
CONTINUOUS
 10
6.7131210954
 20
7.8814623298
 11
6.6776735299
 21
7.9019363769
  0
LINE
  5
44E
100
AcDbEntity
  8
02___PRT_ALL_AXES
100
AcDbLine
 62
7
  6
CONTINUOUS
 10
5.5403442649
 20
7.9030864659
 11
5.5401185069
 21
7.9033472325
  0
LINE
  5
44F
100
AcDbEntity
  8
02___PRT_ALL_AXES
100
AcDbLine
 62
7
  6
CONTINUOUS
 10
5.5403442649
 20
7.962141584
 11
5.5401185069
 21
7.9624023506
  0
LINE
  5
450
100
AcDbEntity
  8
02___PRT_ALL_AXES
100
AcDbLine
 62
7
  6
CONTINUOUS
 10
5.5403442649
 20
8.0211967021
 11
5.5401185069
 21
8.0214574687
  0
LINE
  5
451
100
AcDbEntity
  8
02___PRT_ALL_AXES
100
AcDbLine
 62
7
  6
CONTINUOUS
 10
5.5403442649
 20
8.0802518203
 11
5.5401185069
 21
8.0805125868
  0
LINE
  5
452
100
AcDbEntity
  8
02___PRT_ALL_AXES
100
AcDbLine
 62
7
  6
CONTINUOUS
 10
5.5403442649
 20
8.1393069384
 11
5.5401185069
 21
8.1395677049
  0
LINE
  5
453
100
AcDbEntity
  8
02___PRT_ALL_AXES
100
AcDbLine
 62
7
  6
CONTINUOUS
 10
5.5403442649
 20
8.1983620565
 11
5.5401185069
 21
8.198622823
  0
LINE
  5
454
100
AcDbEntity
  8
02___PRT_ALL_AXES
100
AcDbLine
 62
7
  6
CONTINUOUS
 10
5.5403442649
 20
8.2574171746
 11
5.5401185069
 21
8.2576779412
  0
LINE
  5
455
100
AcDbEntity
  8
02___PRT_ALL_AXES
100
AcDbLine
 62
7
  6
CONTINUOUS
 10
5.2409059085
 20
8.5418806971
 11
7.0125594518
 21
8.5418806971
  0
LINE
  5
456
100
AcDbEntity
  8
0
100
AcDbLine
 62
7
  6
CONTINUOUS
 10
6.7131210954
 20
7.9405174479
 11
6.6776735299
 21
7.960991495
  0
LINE
  5
457
100
AcDbEntity
  8
0
100
AcDbLine
 62
7
  6
CONTINUOUS
 10
6.7131210954
 20
7.999572566
 11
6.6776735299
 21
8.0200466131
  0
LINE
  5
458
100
AcDbEntity
  8
0
100
AcDbLine
 62
7
  6
CONTINUOUS
 10
6.7131210954
 20
8.0586276841
 11
6.6776735299
 21
8.0791017312
  0
LINE
  5
459
100
AcDbEntity
  8
0
100
AcDbLine
 62
7
  6
CONTINUOUS
 10
6.7131210954
 20
8.1176828022
 11
6.6776735299
 21
8.1381568493
  0
LINE
  5
45A
100
AcDbEntity
  8
0
100
AcDbLine
 62
7
  6
CONTINUOUS
 10
6.7131210954
 20
8.1767379203
 11
6.6776735299
 21
8.1972119675
  0
LINE
  5
45B
100
AcDbEntity
  8
02___PRT_ALL_AXES
100
AcDbLine
 62
7
  6
CONTINUOUS
 10
5.2409059085
 20
8.9749515632
 11
7.0125594518
 21
8.9749515632
  0
LINE
  5
45C
100
AcDbEntity
  8
02___PRT_ALL_AXES
100
AcDbLine
 62
7
  6
CONTINUOUS
 10
7.0716145699
 20
9.0340066813
 11
5.1818507904
 21
9.0340066813
  0
LINE
  5
45D
100
AcDbEntity
  8
0
100
AcDbLine
 62
7
  6
CONTINUOUS
 10
6.7131210954
 20
8.2357930384
 11
6.6776735299
 21
8.2562670856
  0
LINE
  5
45E
100
AcDbEntity
  8
0
100
AcDbLine
 62
7
  6
CONTINUOUS
 10
6.7131210954
 20
8.2948481566
 11
6.6776735299
 21
8.3153222037
  0
LINE
  5
45F
100
AcDbEntity
  8
0
100
AcDbLine
 62
7
  6
CONTINUOUS
 10
5.1424807116
 20
13.6481799097
 11
5.147177708
 21
13.9172706503
  0
LINE
  5
460
100
AcDbEntity
  8
02___PRT_ALL_AXES
100
AcDbLine
 62
7
  6
CONTINUOUS
 10
7.1109846487
 20
9.0733767601
 11
5.1424807116
 21
9.0733767601
  0
LINE
  5
461
100
AcDbEntity
  8
02___PRT_ALL_AXES
100
AcDbLine
 62
7
  6
CONTINUOUS
 10
6.7133468534
 20
7.763091327
 11
6.7131210954
 21
7.7633520936
  0
LINE
  5
462
100
AcDbEntity
  8
02___PRT_ALL_AXES
100
AcDbLine
 62
7
  6
CONTINUOUS
 10
6.7133468534
 20
7.8221464451
 11
6.7131210954
 21
7.8224072117
  0
LINE
  5
463
100
AcDbEntity
  8
02___PRT_ALL_AXES
100
AcDbLine
 62
7
  6
CONTINUOUS
 10
6.7133468534
 20
7.8812015632
 11
6.7131210954
 21
7.8814623298
  0
LINE
  5
464
100
AcDbEntity
  8
02___PRT_ALL_AXES
100
AcDbLine
 62
7
  6
CONTINUOUS
 10
6.7133468534
 20
7.9402566813
 11
6.7131210954
 21
7.9405174479
  0
LINE
  5
465
100
AcDbEntity
  8
02___PRT_ALL_AXES
100
AcDbLine
 62
7
  6
CONTINUOUS
 10
6.7133468534
 20
7.9993117994
 11
6.7131210954
 21
7.999572566
  0
LINE
  5
466
100
AcDbEntity
  8
02___PRT_ALL_AXES
100
AcDbLine
 62
7
  6
CONTINUOUS
 10
6.7133468534
 20
8.0583669175
 11
6.7131210954
 21
8.0586276841
  0
LINE
  5
467
100
AcDbEntity
  8
0
100
AcDbLine
 62
7
  6
CONTINUOUS
 10
5.1424807116
 20
10.9867625868
 11
5.1519641721
 21
10.4434555002
  0
LINE
  5
468
100
AcDbEntity
  8
0
100
AcDbLine
 62
7
  6
CONTINUOUS
 10
5.1424807116
 20
12.5891247916
 11
5.1519641721
 21
12.0458177049
  0
LINE
  5
469
100
AcDbEntity
  8
02___PRT_ALL_AXES
100
AcDbLine
 62
7
  6
CONTINUOUS
 10
5.1424807116
 20
9.3844003821
 11
5.1424807116
 21
9.0733767601
  0
LINE
  5
46A
100
AcDbEntity
  8
AXIS
100
AcDbLine
 62
7
  6
CONTINUOUS
 10
5.1424807116
 20
9.3844003821
 11
5.1424807116
 21
10.4434555002
  0
LINE
  5
46B
100
AcDbEntity
  8
AXIS
100
AcDbLine
 62
7
  6
CONTINUOUS
 10
5.1424807116
 20
10.9867625868
 11
5.1424807116
 21
12.0458177049
  0
LINE
  5
46C
100
AcDbEntity
  8
AXIS
100
AcDbLine
 62
7
  6
CONTINUOUS
 10
5.1424807116
 20
12.5891247916
 11
5.1424807116
 21
13.6481799097
  0
LINE
  5
46D
100
AcDbEntity
  8
02___PRT_ALL_AXES
100
AcDbLine
 62
7
  6
CONTINUOUS
 10
5.2409059085
 20
8.9749515632
 11
5.2409059085
 21
8.5418806971
  0
LINE
  5
46E
100
AcDbEntity
  8
02___PRT_ALL_AXES
100
AcDbLine
 62
7
  6
CONTINUOUS
 10
5.1424807116
 20
9.3844003821
 11
7.1109846487
 21
9.3844003821
  0
LINE
  5
46F
100
AcDbEntity
  8
AXIS
100
AcDbLine
 62
7
  6
CONTINUOUS
 10
5.1424807116
 20
9.3844003821
 11
7.1109846487
 21
9.3844003821
  0
LINE
  5
470
100
AcDbEntity
  8
02___PRT_ALL_AXES
100
AcDbLine
 62
7
  6
CONTINUOUS
 10
6.7133468534
 20
8.1174220356
 11
6.7131210954
 21
8.1176828022
  0
LINE
  5
471
100
AcDbEntity
  8
02___PRT_ALL_AXES
100
AcDbLine
 62
7
  6
CONTINUOUS
 10
6.7133468534
 20
8.1764771538
 11
6.7131210954
 21
8.1767379203
  0
LINE
  5
472
100
AcDbEntity
  8
02___PRT_ALL_AXES
100
AcDbLine
 62
7
  6
CONTINUOUS
 10
6.7133468534
 20
8.2355322719
 11
6.7131210954
 21
8.2357930384
  0
LINE
  5
473
100
AcDbEntity
  8
02___PRT_ALL_AXES
100
AcDbLine
 62
7
  6
CONTINUOUS
 10
6.7133468534
 20
8.29458739
 11
6.7131210954
 21
8.2948481566
  0
LINE
  5
474
100
AcDbEntity
  8
0
100
AcDbLine
 62
7
  6
CONTINUOUS
 10
5.5401185069
 20
8.2650598309
 11
5.5401185069
 21
8.2576779412
  0
LINE
  5
475
100
AcDbEntity
  8
0
100
AcDbLine
 62
7
  6
CONTINUOUS
 10
5.5401185069
 20
8.2060047128
 11
5.5401185069
 21
8.198622823
  0
LINE
  5
476
100
AcDbEntity
  8
0
100
AcDbLine
 62
7
  6
CONTINUOUS
 10
5.5401185069
 20
8.1469495947
 11
5.5401185069
 21
8.1395677049
  0
LINE
  5
477
100
AcDbEntity
  8
0
100
AcDbLine
 62
7
  6
CONTINUOUS
 10
5.5401185069
 20
8.0878944766
 11
5.5401185069
 21
8.0805125868
  0
LINE
  5
478
100
AcDbEntity
  8
0
100
AcDbLine
 62
7
  6
CONTINUOUS
 10
5.5401185069
 20
8.0288393585
 11
5.5401185069
 21
8.0214574687
  0
LINE
  5
479
100
AcDbEntity
  8
0
100
AcDbLine
 62
7
  6
CONTINUOUS
 10
5.5401185069
 20
7.9697842404
 11
5.5401185069
 21
7.9624023506
  0
LINE
  5
47A
100
AcDbEntity
  8
0
100
AcDbLine
 62
7
  6
CONTINUOUS
 10
5.5401185069
 20
7.9107291223
 11
5.5401185069
 21
7.9033472325
  0
LINE
  5
47B
100
AcDbEntity
  8
0
100
AcDbLine
 62
7
  6
CONTINUOUS
 10
5.5401185069
 20
7.8516740042
 11
5.5401185069
 21
7.8442921144
  0
LINE
  5
47C
100
AcDbEntity
  8
0
100
AcDbLine
 62
7
  6
CONTINUOUS
 10
5.5401185069
 20
7.792618886
 11
5.5401185069
 21
7.7852369963
  0
LINE
  5
47D
100
AcDbEntity
  8
0
100
AcDbLine
 62
7
  6
CONTINUOUS
 10
5.5401185069
 20
7.7335637679
 11
5.5401185069
 21
7.7261818782
  0
LINE
  5
47E
100
AcDbEntity
  8
02___PRT_ALL_AXES
100
AcDbLine
 62
7
  6
CONTINUOUS
 10
5.5755515778
 20
8.3450303034
 11
5.5755515778
 21
8.2855171239
  0
LINE
  5
47F
100
AcDbEntity
  8
02___PRT_ALL_AXES
100
AcDbLine
 62
7
  6
CONTINUOUS
 10
5.5755515778
 20
8.2372206482
 11
5.5755515778
 21
8.2264620058
  0
LINE
  5
480
100
AcDbEntity
  8
02___PRT_ALL_AXES
100
AcDbLine
 62
7
  6
CONTINUOUS
 10
5.5755515778
 20
8.17816553
 11
5.5755515778
 21
8.1674068877
  0
LINE
  5
481
100
AcDbEntity
  8
02___PRT_ALL_AXES
100
AcDbLine
 62
7
  6
CONTINUOUS
 10
5.5755515778
 20
8.1191104119
 11
5.5755515778
 21
8.1083517696
  0
LINE
  5
482
100
AcDbEntity
  8
02___PRT_ALL_AXES
100
AcDbLine
 62
7
  6
CONTINUOUS
 10
5.5755515778
 20
8.0600552938
 11
5.5755515778
 21
8.0492966515
  0
LINE
  5
483
100
AcDbEntity
  8
02___PRT_ALL_AXES
100
AcDbLine
 62
7
  6
CONTINUOUS
 10
5.5755515778
 20
8.0010001757
 11
5.5755515778
 21
7.9902415334
  0
LINE
  5
484
100
AcDbEntity
  8
02___PRT_ALL_AXES
100
AcDbLine
 62
7
  6
CONTINUOUS
 10
5.5755515778
 20
7.9419450576
 11
5.5755515778
 21
7.9311864153
  0
LINE
  5
485
100
AcDbEntity
  8
02___PRT_ALL_AXES
100
AcDbLine
 62
7
  6
CONTINUOUS
 10
5.5755515778
 20
7.8828899395
 11
5.5755515778
 21
7.8721312972
  0
LINE
  5
486
100
AcDbEntity
  8
02___PRT_ALL_AXES
100
AcDbLine
 62
7
  6
CONTINUOUS
 10
5.5755515778
 20
7.8238348214
 11
5.5755515778
 21
7.813076179
  0
LINE
  5
487
100
AcDbEntity
  8
02___PRT_ALL_AXES
100
AcDbLine
 62
7
  6
CONTINUOUS
 10
5.5755515778
 20
7.7647797033
 11
5.5755515778
 21
7.7540210609
  0
LINE
  5
488
100
AcDbEntity
  8
02___PRT_ALL_AXES
100
AcDbLine
 62
7
  6
CONTINUOUS
 10
5.5755515778
 20
7.7057245852
 11
5.5755515778
 21
7.6757389648
  0
LINE
  5
489
100
AcDbEntity
  8
02___PRT_ALL_AXES
100
AcDbLine
 62
7
  6
CONTINUOUS
 10
5.9007487711
 20
7.737228747
 11
5.9007487711
 21
7.7446106368
  0
LINE
  5
48A
100
AcDbEntity
  8
02___PRT_ALL_AXES
100
AcDbLine
 62
7
  6
CONTINUOUS
 10
5.9007487711
 20
7.7962838651
 11
5.9007487711
 21
7.8036657549
  0
LINE
  5
48B
100
AcDbEntity
  8
02___PRT_ALL_AXES
100
AcDbLine
 62
7
  6
CONTINUOUS
 10
5.9007487711
 20
7.8553389832
 11
5.9007487711
 21
7.862720873
  0
LINE
  5
48C
100
AcDbEntity
  8
02___PRT_ALL_AXES
100
AcDbLine
 62
7
  6
CONTINUOUS
 10
5.9007487711
 20
7.9143941013
 11
5.9007487711
 21
7.9217759911
  0
LINE
  5
48D
100
AcDbEntity
  8
02___PRT_ALL_AXES
100
AcDbLine
 62
7
  6
CONTINUOUS
 10
5.9007487711
 20
7.9734492194
 11
5.9007487711
 21
7.9808311092
  0
LINE
  5
48E
100
AcDbEntity
  8
02___PRT_ALL_AXES
100
AcDbLine
 62
7
  6
CONTINUOUS
 10
5.9007487711
 20
8.0325043376
 11
5.9007487711
 21
8.0398862273
  0
LINE
  5
48F
100
AcDbEntity
  8
02___PRT_ALL_AXES
100
AcDbLine
 62
7
  6
CONTINUOUS
 10
5.9007487711
 20
8.0915594557
 11
5.9007487711
 21
8.0989413454
  0
LINE
  5
490
100
AcDbEntity
  8
02___PRT_ALL_AXES
100
AcDbLine
 62
7
  6
CONTINUOUS
 10
5.9007487711
 20
8.1506145738
 11
5.9007487711
 21
8.1579964635
  0
LINE
  5
491
100
AcDbEntity
  8
02___PRT_ALL_AXES
100
AcDbLine
 62
7
  6
CONTINUOUS
 10
5.9007487711
 20
8.2096696919
 11
5.9007487711
 21
8.2170515816
  0
LINE
  5
492
100
AcDbEntity
  8
02___PRT_ALL_AXES
100
AcDbLine
 62
7
  6
CONTINUOUS
 10
5.9007487711
 20
8.26872481
 11
5.9007487711
 21
8.2761066998
  0
LWPOLYLINE
  5
493
100
AcDbEntity
  8
0
100
AcDbPolyline
 62
7
  6
CONTINUOUS
 90
6
 70
0
 10
6.0230353007
 20
7.6757389648
 10
6.0232193179
 20
7.6635418617
 10
6.0237542774
 20
7.6525571074
 10
6.0245912878
 20
7.643857848
 10
6.0256535059
 20
7.638285343
 10
6.0268420151
 20
7.636368886
  0
LWPOLYLINE
  5
494
100
AcDbEntity
  8
0
100
AcDbPolyline
 62
7
  6
CONTINUOUS
 90
6
 70
0
 10
6.0230353007
 20
8.3450303034
 10
6.0228517202
 20
8.3572238177
 10
6.0223216538
 20
8.3682066399
 10
6.0215029273
 20
8.3769067045
 10
6.0204821191
 20
8.3824820843
 10
6.0193634664
 20
8.3844003821
  0
LINE
  5
495
100
AcDbEntity
  8
02___PRT_ALL_AXES
100
AcDbLine
 62
7
  6
CONTINUOUS
 10
6.0192326802
 20
6.5812507758
 11
6.0192326802
 21
7.636368886
  0
LINE
  5
496
100
AcDbEntity
  8
0
100
AcDbLine
 62
7
  6
CONTINUOUS
 10
6.0230353007
 20
8.3450303034
 11
6.0230353007
 21
8.2985020218
  0
LINE
  5
497
100
AcDbEntity
  8
02___PRT_ALL_AXES
100
AcDbLine
 62
7
  6
CONTINUOUS
 10
6.0230353007
 20
8.250205546
 11
6.0230353007
 21
8.2394469037
  0
LINE
  5
498
100
AcDbEntity
  8
02___PRT_ALL_AXES
100
AcDbLine
 62
7
  6
CONTINUOUS
 10
6.0230353007
 20
8.1911504279
 11
6.0230353007
 21
8.1803917856
  0
LINE
  5
499
100
AcDbEntity
  8
02___PRT_ALL_AXES
100
AcDbLine
 62
7
  6
CONTINUOUS
 10
6.0230353007
 20
8.1320953098
 11
6.0230353007
 21
8.1213366675
  0
LINE
  5
49A
100
AcDbEntity
  8
02___PRT_ALL_AXES
100
AcDbLine
 62
7
  6
CONTINUOUS
 10
6.0230353007
 20
8.0730401917
 11
6.0230353007
 21
8.0622815494
  0
LINE
  5
49B
100
AcDbEntity
  8
02___PRT_ALL_AXES
100
AcDbLine
 62
7
  6
CONTINUOUS
 10
6.0230353007
 20
8.0139850736
 11
6.0230353007
 21
8.0032264312
  0
LINE
  5
49C
100
AcDbEntity
  8
02___PRT_ALL_AXES
100
AcDbLine
 62
7
  6
CONTINUOUS
 10
6.0230353007
 20
7.9549299555
 11
6.0230353007
 21
7.9441713131
  0
LINE
  5
49D
100
AcDbEntity
  8
02___PRT_ALL_AXES
100
AcDbLine
 62
7
  6
CONTINUOUS
 10
6.0230353007
 20
7.8958748374
 11
6.0230353007
 21
7.885116195
  0
LINE
  5
49E
100
AcDbEntity
  8
02___PRT_ALL_AXES
100
AcDbLine
 62
7
  6
CONTINUOUS
 10
6.0230353007
 20
7.8368197193
 11
6.0230353007
 21
7.8260610769
  0
LINE
  5
49F
100
AcDbEntity
  8
02___PRT_ALL_AXES
100
AcDbLine
 62
7
  6
CONTINUOUS
 10
6.0230353007
 20
7.7777646011
 11
6.0230353007
 21
7.7670059588
  0
LINE
  5
4A0
100
AcDbEntity
  8
0
100
AcDbLine
 62
7
  6
CONTINUOUS
 10
6.0230353007
 20
7.718709483
 11
6.0230353007
 21
7.6757389648
  0
LINE
  5
4A1
100
AcDbEntity
  8
0
100
AcDbLine
 62
7
  6
CONTINUOUS
 10
6.2304300596
 20
8.3450303034
 11
6.2304300596
 21
8.3020597851
  0
LINE
  5
4A2
100
AcDbEntity
  8
02___PRT_ALL_AXES
100
AcDbLine
 62
7
  6
CONTINUOUS
 10
6.2304300596
 20
8.2537633093
 11
6.2304300596
 21
8.243004667
  0
LINE
  5
4A3
100
AcDbEntity
  8
02___PRT_ALL_AXES
100
AcDbLine
 62
7
  6
CONTINUOUS
 10
6.2304300596
 20
8.1947081912
 11
6.2304300596
 21
8.1839495489
  0
LINE
  5
4A4
100
AcDbEntity
  8
02___PRT_ALL_AXES
100
AcDbLine
 62
7
  6
CONTINUOUS
 10
6.2304300596
 20
8.1356530731
 11
6.2304300596
 21
8.1248944308
  0
LINE
  5
4A5
100
AcDbEntity
  8
02___PRT_ALL_AXES
100
AcDbLine
 62
7
  6
CONTINUOUS
 10
6.2304300596
 20
8.076597955
 11
6.2304300596
 21
8.0658393127
  0
LINE
  5
4A6
100
AcDbEntity
  8
02___PRT_ALL_AXES
100
AcDbLine
 62
7
  6
CONTINUOUS
 10
6.2304300596
 20
8.0175428369
 11
6.2304300596
 21
8.0067841946
  0
LINE
  5
4A7
100
AcDbEntity
  8
02___PRT_ALL_AXES
100
AcDbLine
 62
7
  6
CONTINUOUS
 10
6.2304300596
 20
7.9584877188
 11
6.2304300596
 21
7.9477290764
  0
LINE
  5
4A8
100
AcDbEntity
  8
02___PRT_ALL_AXES
100
AcDbLine
 62
7
  6
CONTINUOUS
 10
6.2304300596
 20
7.8994326007
 11
6.2304300596
 21
7.8886739583
  0
LINE
  5
4A9
100
AcDbEntity
  8
02___PRT_ALL_AXES
100
AcDbLine
 62
7
  6
CONTINUOUS
 10
6.2304300596
 20
7.8403774826
 11
6.2304300596
 21
7.8296188402
  0
LINE
  5
4AA
100
AcDbEntity
  8
02___PRT_ALL_AXES
100
AcDbLine
 62
7
  6
CONTINUOUS
 10
6.2304300596
 20
7.7813223645
 11
6.2304300596
 21
7.7705637221
  0
LINE
  5
4AB
100
AcDbEntity
  8
0
100
AcDbLine
 62
7
  6
CONTINUOUS
 10
6.2304300596
 20
7.7222672463
 11
6.2304300596
 21
7.6757389648
  0
LINE
  5
4AC
100
AcDbEntity
  8
02___PRT_ALL_AXES
100
AcDbLine
 62
7
  6
CONTINUOUS
 10
6.2342326802
 20
6.5812507758
 11
6.2342326802
 21
7.636368886
  0
LINE
  5
4AD
100
AcDbEntity
  8
02___PRT_ALL_AXES
100
AcDbLine
 62
7
  6
CONTINUOUS
 10
6.3527165892
 20
8.2835405211
 11
6.3527165892
 21
8.2761586314
  0
LINE
  5
4AE
100
AcDbEntity
  8
02___PRT_ALL_AXES
100
AcDbLine
 62
7
  6
CONTINUOUS
 10
6.3527165892
 20
8.224485403
 11
6.3527165892
 21
8.2171035133
  0
LINE
  5
4AF
100
AcDbEntity
  8
02___PRT_ALL_AXES
100
AcDbLine
 62
7
  6
CONTINUOUS
 10
6.3527165892
 20
8.1654302849
 11
6.3527165892
 21
8.1580483952
  0
LINE
  5
4B0
100
AcDbEntity
  8
02___PRT_ALL_AXES
100
AcDbLine
 62
7
  6
CONTINUOUS
 10
6.3527165892
 20
8.1063751668
 11
6.3527165892
 21
8.098993277
  0
LINE
  5
4B1
100
AcDbEntity
  8
02___PRT_ALL_AXES
100
AcDbLine
 62
7
  6
CONTINUOUS
 10
6.3527165892
 20
8.0473200487
 11
6.3527165892
 21
8.0399381589
  0
LINE
  5
4B2
100
AcDbEntity
  8
02___PRT_ALL_AXES
100
AcDbLine
 62
7
  6
CONTINUOUS
 10
6.3527165892
 20
7.9882649306
 11
6.3527165892
 21
7.9808830408
  0
LINE
  5
4B3
100
AcDbEntity
  8
02___PRT_ALL_AXES
100
AcDbLine
 62
7
  6
CONTINUOUS
 10
6.3527165892
 20
7.9292098125
 11
6.3527165892
 21
7.9218279227
  0
LINE
  5
4B4
100
AcDbEntity
  8
02___PRT_ALL_AXES
100
AcDbLine
 62
7
  6
CONTINUOUS
 10
6.3527165892
 20
7.8701546944
 11
6.3527165892
 21
7.8627728046
  0
LINE
  5
4B5
100
AcDbEntity
  8
02___PRT_ALL_AXES
100
AcDbLine
 62
7
  6
CONTINUOUS
 10
6.3527165892
 20
7.8110995763
 11
6.3527165892
 21
7.8037176865
  0
LINE
  5
4B6
100
AcDbEntity
  8
02___PRT_ALL_AXES
100
AcDbLine
 62
7
  6
CONTINUOUS
 10
6.3527165892
 20
7.7520444581
 11
6.3527165892
 21
7.7446625684
  0
LWPOLYLINE
  5
4B7
100
AcDbEntity
  8
0
100
AcDbPolyline
 62
7
  6
CONTINUOUS
 90
6
 70
0
 10
6.2304300596
 20
8.3450303034
 10
6.2306136401
 20
8.3572238177
 10
6.2311437065
 20
8.3682066399
 10
6.231962433
 20
8.3769067045
 10
6.2329832412
 20
8.3824820843
 10
6.2341018939
 20
8.3844003821
  0
LWPOLYLINE
  5
4B8
100
AcDbEntity
  8
0
100
AcDbPolyline
 62
7
  6
CONTINUOUS
 90
6
 70
0
 10
6.2304300596
 20
7.6757389648
 10
6.2302460424
 20
7.6635418617
 10
6.2297110829
 20
7.6525571074
 10
6.2288740725
 20
7.643857848
 10
6.2278118544
 20
7.638285343
 10
6.2266233452
 20
7.636368886
  0
LINE
  5
4B9
100
AcDbEntity
  8
AXIS
100
AcDbLine
 62
7
  6
CONTINUOUS
 10
5.1424807116
 20
10.4434555002
 11
7.1109846487
 21
10.4434555002
  0
LINE
  5
4BA
100
AcDbEntity
  8
02___PRT_ALL_AXES
100
AcDbLine
 62
7
  6
CONTINUOUS
 10
6.6779137825
 20
8.3450303034
 11
6.6779137825
 21
8.315044683
  0
LINE
  5
4BB
100
AcDbEntity
  8
02___PRT_ALL_AXES
100
AcDbLine
 62
7
  6
CONTINUOUS
 10
6.6779137825
 20
8.2667482072
 11
6.6779137825
 21
8.2559895649
  0
LINE
  5
4BC
100
AcDbEntity
  8
02___PRT_ALL_AXES
100
AcDbLine
 62
7
  6
CONTINUOUS
 10
6.6779137825
 20
8.2076930891
 11
6.6779137825
 21
8.1969344468
  0
LINE
  5
4BD
100
AcDbEntity
  8
02___PRT_ALL_AXES
100
AcDbLine
 62
7
  6
CONTINUOUS
 10
6.6779137825
 20
8.148637971
 11
6.6779137825
 21
8.1378793286
  0
LINE
  5
4BE
100
AcDbEntity
  8
02___PRT_ALL_AXES
100
AcDbLine
 62
7
  6
CONTINUOUS
 10
6.6779137825
 20
8.0895828529
 11
6.6779137825
 21
8.0788242105
  0
LINE
  5
4BF
100
AcDbEntity
  8
02___PRT_ALL_AXES
100
AcDbLine
 62
7
  6
CONTINUOUS
 10
6.6779137825
 20
8.0305277348
 11
6.6779137825
 21
8.0197690924
  0
LINE
  5
4C0
100
AcDbEntity
  8
02___PRT_ALL_AXES
100
AcDbLine
 62
7
  6
CONTINUOUS
 10
6.6779137825
 20
7.9714726167
 11
6.6779137825
 21
7.9607139743
  0
LINE
  5
4C1
100
AcDbEntity
  8
02___PRT_ALL_AXES
100
AcDbLine
 62
7
  6
CONTINUOUS
 10
6.6779137825
 20
7.9124174985
 11
6.6779137825
 21
7.9016588562
  0
LINE
  5
4C2
100
AcDbEntity
  8
02___PRT_ALL_AXES
100
AcDbLine
 62
7
  6
CONTINUOUS
 10
6.6779137825
 20
7.8533623804
 11
6.6779137825
 21
7.8426037381
  0
LINE
  5
4C3
100
AcDbEntity
  8
02___PRT_ALL_AXES
100
AcDbLine
 62
7
  6
CONTINUOUS
 10
6.6779137825
 20
7.7943072623
 11
6.6779137825
 21
7.78354862
  0
LINE
  5
4C4
100
AcDbEntity
  8
02___PRT_ALL_AXES
100
AcDbLine
 62
7
  6
CONTINUOUS
 10
6.6779137825
 20
7.7352521442
 11
6.6779137825
 21
7.6757389648
  0
LINE
  5
4C5
100
AcDbEntity
  8
0
100
AcDbLine
 62
7
  6
CONTINUOUS
 10
6.7133468534
 20
7.7557094372
 11
6.7133468534
 21
7.763091327
  0
LINE
  5
4C6
100
AcDbEntity
  8
0
100
AcDbLine
 62
7
  6
CONTINUOUS
 10
6.7133468534
 20
7.8147645553
 11
6.7133468534
 21
7.8221464451
  0
LINE
  5
4C7
100
AcDbEntity
  8
0
100
AcDbLine
 62
7
  6
CONTINUOUS
 10
6.7133468534
 20
7.8738196734
 11
6.7133468534
 21
7.8812015632
  0
LINE
  5
4C8
100
AcDbEntity
  8
0
100
AcDbLine
 62
7
  6
CONTINUOUS
 10
6.7133468534
 20
7.9328747916
 11
6.7133468534
 21
7.9402566813
  0
LINE
  5
4C9
100
AcDbEntity
  8
0
100
AcDbLine
 62
7
  6
CONTINUOUS
 10
6.7133468534
 20
7.9919299097
 11
6.7133468534
 21
7.9993117994
  0
LINE
  5
4CA
100
AcDbEntity
  8
0
100
AcDbLine
 62
7
  6
CONTINUOUS
 10
6.7133468534
 20
8.0509850278
 11
6.7133468534
 21
8.0583669175
  0
LINE
  5
4CB
100
AcDbEntity
  8
0
100
AcDbLine
 62
7
  6
CONTINUOUS
 10
6.7133468534
 20
8.1100401459
 11
6.7133468534
 21
8.1174220356
  0
LINE
  5
4CC
100
AcDbEntity
  8
0
100
AcDbLine
 62
7
  6
CONTINUOUS
 10
6.7133468534
 20
8.169095264
 11
6.7133468534
 21
8.1764771538
  0
LINE
  5
4CD
100
AcDbEntity
  8
0
100
AcDbLine
 62
7
  6
CONTINUOUS
 10
6.7133468534
 20
8.2281503821
 11
6.7133468534
 21
8.2355322719
  0
LINE
  5
4CE
100
AcDbEntity
  8
0
100
AcDbLine
 62
7
  6
CONTINUOUS
 10
6.7133468534
 20
8.2872055002
 11
6.7133468534
 21
8.29458739
  0
LINE
  5
4CF
100
AcDbEntity
  8
0
100
AcDbLine
 62
7
  6
CONTINUOUS
 10
7.1109846487
 20
10.9867625868
 11
5.1424807116
 21
10.9867625868
  0
LINE
  5
4D0
100
AcDbEntity
  8
AXIS
100
AcDbLine
 62
7
  6
CONTINUOUS
 10
5.1424807116
 20
10.9867625868
 11
7.1109846487
 21
10.9867625868
  0
LINE
  5
4D1
100
AcDbEntity
  8
0
100
AcDbLine
 62
7
  6
CONTINUOUS
 10
7.1109846487
 20
13.6481799097
 11
7.1062876523
 21
13.9172706503
  0
LINE
  5
4D2
100
AcDbEntity
  8
02___PRT_ALL_AXES
100
AcDbLine
 62
7
  6
CONTINUOUS
 10
7.0125594518
 20
8.9749515632
 11
7.0125594518
 21
8.5418806971
  0
LINE
  5
4D3
100
AcDbEntity
  8
02___PRT_ALL_AXES
100
AcDbLine
 62
7
  6
CONTINUOUS
 10
7.1109846487
 20
9.3844003821
 11
7.1109846487
 21
9.0733767601
  0
LINE
  5
4D4
100
AcDbEntity
  8
AXIS
100
AcDbLine
 62
7
  6
CONTINUOUS
 10
7.1109846487
 20
9.3844003821
 11
7.1109846487
 21
10.4434555002
  0
LINE
  5
4D5
100
AcDbEntity
  8
AXIS
100
AcDbLine
 62
7
  6
CONTINUOUS
 10
7.1109846487
 20
10.9867625868
 11
7.1109846487
 21
12.0458177049
  0
LINE
  5
4D6
100
AcDbEntity
  8
AXIS
100
AcDbLine
 62
7
  6
CONTINUOUS
 10
7.1109846487
 20
12.5891247916
 11
7.1109846487
 21
13.6481799097
  0
LINE
  5
4D7
100
AcDbEntity
  8
0
100
AcDbLine
 62
7
  6
CONTINUOUS
 10
7.1109846487
 20
12.5891247916
 11
7.1015011882
 21
12.0458177049
  0
LINE
  5
4D8
100
AcDbEntity
  8
0
100
AcDbLine
 62
7
  6
CONTINUOUS
 10
7.1109846487
 20
10.9867625868
 11
7.1015011882
 21
10.4434555002
  0
LINE
  5
4D9
100
AcDbEntity
  8
02___PRT_ALL_AXES
100
AcDbLine
 62
7
  6
CONTINUOUS
 10
5.5401185069
 20
8.2650598309
 11
5.5403442649
 21
8.2653205975
  0
LINE
  5
4DA
100
AcDbEntity
  8
02___PRT_ALL_AXES
100
AcDbLine
 62
7
  6
CONTINUOUS
 10
5.5401185069
 20
8.2060047128
 11
5.5403442649
 21
8.2062654794
  0
LINE
  5
4DB
100
AcDbEntity
  8
02___PRT_ALL_AXES
100
AcDbLine
 62
7
  6
CONTINUOUS
 10
5.5401185069
 20
8.1469495947
 11
5.5403442649
 21
8.1472103613
  0
LINE
  5
4DC
100
AcDbEntity
  8
02___PRT_ALL_AXES
100
AcDbLine
 62
7
  6
CONTINUOUS
 10
5.5401185069
 20
8.0878944766
 11
5.5403442649
 21
8.0881552432
  0
LINE
  5
4DD
100
AcDbEntity
  8
02___PRT_ALL_AXES
100
AcDbLine
 62
7
  6
CONTINUOUS
 10
5.5401185069
 20
8.0288393585
 11
5.5403442649
 21
8.0291001251
  0
LINE
  5
4DE
100
AcDbEntity
  8
02___PRT_ALL_AXES
100
AcDbLine
 62
7
  6
CONTINUOUS
 10
5.5401185069
 20
7.9697842404
 11
5.5403442649
 21
7.9700450069
  0
LINE
  5
4DF
100
AcDbEntity
  8
02___PRT_ALL_AXES
100
AcDbLine
 62
7
  6
CONTINUOUS
 10
5.5401185069
 20
7.9107291223
 11
5.5403442649
 21
7.9109898888
  0
LINE
  5
4E0
100
AcDbEntity
  8
02___PRT_ALL_AXES
100
AcDbLine
 62
7
  6
CONTINUOUS
 10
5.5401185069
 20
7.8516740042
 11
5.5403442649
 21
7.8519347707
  0
LINE
  5
4E1
100
AcDbEntity
  8
02___PRT_ALL_AXES
100
AcDbLine
 62
7
  6
CONTINUOUS
 10
5.5401185069
 20
7.792618886
 11
5.5403442649
 21
7.7928796526
  0
LINE
  5
4E2
100
AcDbEntity
  8
02___PRT_ALL_AXES
100
AcDbLine
 62
7
  6
CONTINUOUS
 10
5.5401185069
 20
7.7335637679
 11
5.5403442649
 21
7.7338245345
  0
LINE
  5
4E3
100
AcDbEntity
  8
0
100
AcDbLine
 62
7
  6
CONTINUOUS
 10
5.5757918304
 20
8.2857946446
 11
5.5403442649
 21
8.2653205975
  0
LINE
  5
4E4
100
AcDbEntity
  8
0
100
AcDbLine
 62
7
  6
CONTINUOUS
 10
5.5757918304
 20
8.2267395265
 11
5.5403442649
 21
8.2062654794
  0
LINE
  5
4E5
100
AcDbEntity
  8
0
100
AcDbLine
 62
7
  6
CONTINUOUS
 10
5.5757918304
 20
8.1676844084
 11
5.5403442649
 21
8.1472103613
  0
LINE
  5
4E6
100
AcDbEntity
  8
02___PRT_ALL_AXES
100
AcDbLine
 62
7
  6
CONTINUOUS
 10
6.7131210954
 20
8.2869447336
 11
6.7133468534
 21
8.2872055002
  0
LINE
  5
4E7
100
AcDbEntity
  8
02___PRT_ALL_AXES
100
AcDbLine
 62
7
  6
CONTINUOUS
 10
6.7131210954
 20
8.2278896155
 11
6.7133468534
 21
8.2281503821
  0
LWPOLYLINE
  5
4E8
100
AcDbEntity
  8
02___PRT_ALL_AXES
100
AcDbPolyline
 62
7
  6
CONTINUOUS
 90
5
 70
0
 10
5.5755515778
 20
7.8828899298
 10
5.5761944213
 20
7.8833439233
 10
5.5874854027
 20
7.8848493348
 10
5.6121134444
 20
7.8863325678
 10
5.6493958434
 20
7.8878111993
  0
LINE
  5
4E9
100
AcDbEntity
  8
0
100
AcDbLine
 62
7
  6
CONTINUOUS
 10
5.5757918304
 20
8.1086292903
 11
5.5403442649
 21
8.0881552432
  0
LINE
  5
4EA
100
AcDbEntity
  8
0
100
AcDbLine
 62
7
  6
CONTINUOUS
 10
5.5757918304
 20
8.0495741722
 11
5.5403442649
 21
8.0291001251
  0
LINE
  5
4EB
100
AcDbEntity
  8
0
100
AcDbLine
 62
7
  6
CONTINUOUS
 10
5.5757918304
 20
7.9905190541
 11
5.5403442649
 21
7.9700450069
  0
LINE
  5
4EC
100
AcDbEntity
  8
0
100
AcDbLine
 62
7
  6
CONTINUOUS
 10
5.5757918304
 20
7.931463936
 11
5.5403442649
 21
7.9109898888
  0
LINE
  5
4ED
100
AcDbEntity
  8
0
100
AcDbLine
 62
7
  6
CONTINUOUS
 10
5.5757918304
 20
7.8724088178
 11
5.5403442649
 21
7.8519347707
  0
LWPOLYLINE
  5
4EE
100
AcDbEntity
  8
02___PRT_ALL_AXES
100
AcDbPolyline
 62
7
  6
CONTINUOUS
 90
8
 70
0
 10
5.5755515779
 20
8.1781653399
 10
5.5773115324
 20
8.1789168274
 10
5.5915847819
 20
8.1804380834
 10
5.6197809665
 20
8.1819564868
 10
5.6618745925
 20
8.1834970009
 10
5.7167392284
 20
8.1850454494
 10
5.7821035277
 20
8.1865807267
 10
5.8555403886
 20
8.1880944249
  0
LWPOLYLINE
  5
4EF
100
AcDbEntity
  8
02___PRT_ALL_AXES
100
AcDbPolyline
 62
7
  6
CONTINUOUS
 90
10
 70
0
 10
5.5755515778
 20
8.2372206859
 10
5.5773688145
 20
8.2379840807
 10
5.5919235788
 20
8.2395172055
 10
5.6202745024
 20
8.2410329902
 10
5.6624196829
 20
8.2425693933
 10
5.7172443499
 20
8.2441134454
 10
5.7824648935
 20
8.2456437381
 10
5.8560554087
 20
8.2471596278
 10
5.9372263347
 20
8.2486855926
 10
6.0230353007
 20
8.250205546
  0
LWPOLYLINE
  5
4F0
100
AcDbEntity
  8
02___PRT_ALL_AXES
100
AcDbPolyline
 62
7
  6
CONTINUOUS
 90
10
 70
0
 10
5.5755515778
 20
8.1191104058
 10
5.5774603308
 20
8.1198928425
 10
5.5922179576
 20
8.1214276284
 10
5.6207360104
 20
8.1229426494
 10
5.6626476997
 20
8.1244663684
 10
5.716491276
 20
8.1259840027
 10
5.7807043797
 20
8.127494997
 10
5.8541365999
 20
8.1290117877
 10
5.935863525
 20
8.1305505966
 10
6.0230353007
 20
8.1320953098
  0
LWPOLYLINE
  5
4F1
100
AcDbEntity
  8
02___PRT_ALL_AXES
100
AcDbPolyline
 62
7
  6
CONTINUOUS
 90
8
 70
0
 10
5.5401185069
 20
8.2576779412
 10
5.5419183758
 20
8.2584143991
 10
5.5562511258
 20
8.2598873149
 10
5.5845653558
 20
8.2613602308
 10
5.6261671348
 20
8.2628331466
 10
5.6800368778
 20
8.2643060625
 10
5.7448543339
 20
8.2657789783
 10
5.8190309436
 20
8.2672518942
  0
LWPOLYLINE
  5
4F2
100
AcDbEntity
  8
02___PRT_ALL_AXES
100
AcDbPolyline
 62
7
  6
CONTINUOUS
 90
6
 70
0
 10
5.5401185069
 20
8.198622823
 10
5.5419183758
 20
8.199359281
 10
5.5562511258
 20
8.2008321968
 10
5.5845653558
 20
8.2023051127
 10
5.6261671348
 20
8.2037780285
 10
5.6800368778
 20
8.2052509444
  0
LWPOLYLINE
  5
4F3
100
AcDbEntity
  8
02___PRT_ALL_AXES
100
AcDbPolyline
 62
7
  6
CONTINUOUS
 90
8
 70
0
 10
5.5401185069
 20
8.1395677049
 10
5.5419183758
 20
8.1403041629
 10
5.5562511258
 20
8.1417770787
 10
5.5845653558
 20
8.1432499946
 10
5.6261671348
 20
8.1447229104
 10
5.6800368778
 20
8.1461958262
 10
5.7448543339
 20
8.1476687421
 10
5.8190309436
 20
8.1491416579
  0
LWPOLYLINE
  5
4F4
100
AcDbEntity
  8
02___PRT_ALL_AXES
100
AcDbPolyline
 62
7
  6
CONTINUOUS
 90
9
 70
0
 10
5.5401185069
 20
8.0805125868
 10
5.5419183758
 20
8.0812490448
 10
5.5562511258
 20
8.0827219606
 10
5.5845653558
 20
8.0841948764
 10
5.6261671348
 20
8.0856677923
 10
5.6800368778
 20
8.0871407081
 10
5.7448543339
 20
8.088613624
 10
5.8190309436
 20
8.0900865398
 10
5.9007487711
 20
8.0915594557
  0
LWPOLYLINE
  5
4F5
100
AcDbEntity
  8
02___PRT_ALL_AXES
100
AcDbPolyline
 62
7
  6
CONTINUOUS
 90
9
 70
0
 10
5.5403442649
 20
8.2653205975
 10
5.5419183758
 20
8.2657962888
 10
5.5562511258
 20
8.2672692047
 10
5.5845653558
 20
8.2687421205
 10
5.6261671348
 20
8.2702150364
 10
5.6800368778
 20
8.2716879522
 10
5.7448543339
 20
8.2731608681
 10
5.8190309436
 20
8.2746337839
 10
5.9007487711
 20
8.2761066998
  0
LWPOLYLINE
  5
4F6
100
AcDbEntity
  8
02___PRT_ALL_AXES
100
AcDbPolyline
 62
7
  6
CONTINUOUS
 90
9
 70
0
 10
5.5403442649
 20
8.2062654794
 10
5.5419183758
 20
8.2067411707
 10
5.5562511258
 20
8.2082140866
 10
5.5845653558
 20
8.2096870024
 10
5.6261671348
 20
8.2111599183
 10
5.6800368778
 20
8.2126328341
 10
5.7448543339
 20
8.21410575
 10
5.8190309436
 20
8.2155786658
 10
5.9007487711
 20
8.2170515816
  0
LINE
  5
4F7
100
AcDbEntity
  8
AXIS
100
AcDbLine
 62
7
  6
CONTINUOUS
 10
5.1424807116
 20
12.0458177049
 11
7.1109846487
 21
12.0458177049
  0
LINE
  5
4F8
100
AcDbEntity
  8
02___PRT_ALL_AXES
100
AcDbLine
 62
7
  6
CONTINUOUS
 10
6.7131210954
 20
8.1688344974
 11
6.7133468534
 21
8.169095264
  0
LINE
  5
4F9
100
AcDbEntity
  8
02___PRT_ALL_AXES
100
AcDbLine
 62
7
  6
CONTINUOUS
 10
6.7131210954
 20
8.1097793793
 11
6.7133468534
 21
8.1100401459
  0
LINE
  5
4FA
100
AcDbEntity
  8
02___PRT_ALL_AXES
100
AcDbLine
 62
7
  6
CONTINUOUS
 10
6.7131210954
 20
8.0507242612
 11
6.7133468534
 21
8.0509850278
  0
LINE
  5
4FB
100
AcDbEntity
  8
02___PRT_ALL_AXES
100
AcDbLine
 62
7
  6
CONTINUOUS
 10
6.7131210954
 20
7.9916691431
 11
6.7133468534
 21
7.9919299097
  0
LINE
  5
4FC
100
AcDbEntity
  8
02___PRT_ALL_AXES
100
AcDbLine
 62
7
  6
CONTINUOUS
 10
6.7131210954
 20
7.932614025
 11
6.7133468534
 21
7.9328747916
  0
LINE
  5
4FD
100
AcDbEntity
  8
02___PRT_ALL_AXES
100
AcDbLine
 62
7
  6
CONTINUOUS
 10
6.7131210954
 20
7.8735589069
 11
6.7133468534
 21
7.8738196734
  0
LINE
  5
4FE
100
AcDbEntity
  8
02___PRT_ALL_AXES
100
AcDbLine
 62
7
  6
CONTINUOUS
 10
6.7131210954
 20
7.8145037888
 11
6.7133468534
 21
7.8147645553
  0
LWPOLYLINE
  5
4FF
100
AcDbEntity
  8
02___PRT_ALL_AXES
100
AcDbPolyline
 62
7
  6
CONTINUOUS
 90
5
 70
0
 10
6.6779137825
 20
8.1378793376
 10
6.6772706289
 20
8.1374252353
 10
6.6659781245
 20
8.1359197823
 10
6.6413484351
 20
8.1344365347
 10
6.6040695169
 20
8.1329580688
  0
LINE
  5
500
100
AcDbEntity
  8
0
100
AcDbLine
 62
7
  6
CONTINUOUS
 10
5.5757918304
 20
7.8133536997
 11
5.5403442649
 21
7.7928796526
  0
LINE
  5
501
100
AcDbEntity
  8
0
100
AcDbLine
 62
7
  6
CONTINUOUS
 10
5.5757918304
 20
7.7542985816
 11
5.5403442649
 21
7.7338245345
  0
LINE
  5
502
100
AcDbEntity
  8
0
100
AcDbLine
 62
7
  6
CONTINUOUS
 10
6.6776735299
 20
8.2664706865
 11
6.7131210954
 21
8.2869447336
  0
LINE
  5
503
100
AcDbEntity
  8
0
100
AcDbLine
 62
7
  6
CONTINUOUS
 10
6.6776735299
 20
8.2074155684
 11
6.7131210954
 21
8.2278896155
  0
LWPOLYLINE
  5
504
100
AcDbEntity
  8
02___PRT_ALL_AXES
100
AcDbPolyline
 62
7
  6
CONTINUOUS
 90
5
 70
0
 10
5.5401185069
 20
7.9033472325
 10
5.5411830248
 20
7.9039135482
 10
5.553587185
 20
7.9053651962
 10
5.5796361939
 20
7.9068168443
 10
5.6187099039
 20
7.9082684923
  0
LWPOLYLINE
  5
505
100
AcDbEntity
  8
02___PRT_ALL_AXES
100
AcDbPolyline
 62
7
  6
CONTINUOUS
 90
10
 70
0
 10
5.5755515787
 20
7.9419445275
 10
5.5773383982
 20
7.9427020706
 10
5.5918087262
 20
7.9442335053
 10
5.6200905108
 20
7.9457494404
 10
5.6620044556
 20
7.9472806484
 10
5.7162977806
 20
7.9488137064
 10
5.780672895
 20
7.9503289529
 10
5.8541148646
 20
7.9518460069
 10
5.9358507702
 20
7.9533850104
 10
6.0230353007
 20
7.9549299555
  0
LWPOLYLINE
  5
506
100
AcDbEntity
  8
02___PRT_ALL_AXES
100
AcDbPolyline
 62
7
  6
CONTINUOUS
 90
10
 70
0
 10
5.5755515778
 20
8.0600552881
 10
5.5773689636
 20
8.0608187577
 10
5.5919637334
 20
8.0623546799
 10
5.6202618555
 20
8.0638670893
 10
5.6618787407
 20
8.0653868963
 10
5.7161584704
 20
8.0669203827
 10
5.7810436123
 20
8.0684473082
 10
5.8546108589
 20
8.0699659718
 10
5.9362140573
 20
8.0715018493
 10
6.0230353007
 20
8.0730401917
  0
LWPOLYLINE
  5
507
100
AcDbEntity
  8
02___PRT_ALL_AXES
100
AcDbPolyline
 62
7
  6
CONTINUOUS
 90
10
 70
0
 10
6.6779137825
 20
8.3150446763
 10
6.6760077791
 20
8.3142628165
 10
6.6612399474
 20
8.3127269457
 10
6.632718352
 20
8.3112119725
 10
6.5910221997
 20
8.3096951949
 10
6.5373759199
 20
8.3081813586
 10
6.4729520562
 20
8.3066642847
 10
6.3994496193
 20
8.3051456786
 10
6.3176653094
 20
8.3036056521
 10
6.2304300596
 20
8.3020597851
  0
LWPOLYLINE
  5
508
100
AcDbEntity
  8
02___PRT_ALL_AXES
100
AcDbPolyline
 62
7
  6
CONTINUOUS
 90
6
 70
0
 10
5.575551579
 20
8.0010007994
 10
5.5774581586
 20
8.0017821607
 10
5.5919150405
 20
8.0032961312
 10
5.6202883627
 20
8.0048131167
 10
5.6625468941
 20
8.0063529452
 10
5.7175378346
 20
8.0079004462
  0
LWPOLYLINE
  5
509
100
AcDbEntity
  8
02___PRT_ALL_AXES
100
AcDbPolyline
 62
7
  6
CONTINUOUS
 90
9
 70
0
 10
5.5401185069
 20
8.0214574687
 10
5.5419183758
 20
8.0221939266
 10
5.5562511258
 20
8.0236668425
 10
5.5845653558
 20
8.0251397583
 10
5.6261671348
 20
8.0266126742
 10
5.6800368778
 20
8.02808559
 10
5.7448543339
 20
8.0295585059
 10
5.8190309436
 20
8.0310314217
 10
5.9007487711
 20
8.0325043376
  0
LWPOLYLINE
  5
50A
100
AcDbEntity
  8
02___PRT_ALL_AXES
100
AcDbPolyline
 62
7
  6
CONTINUOUS
 90
9
 70
0
 10
5.5401185069
 20
7.9624023506
 10
5.5419183758
 20
7.9631388085
 10
5.5562511258
 20
7.9646117244
 10
5.5845653558
 20
7.9660846402
 10
5.6261671348
 20
7.9675575561
 10
5.6800368778
 20
7.9690304719
 10
5.7448543339
 20
7.9705033878
 10
5.8190309436
 20
7.9719763036
 10
5.9007487711
 20
7.9734492194
  0
LWPOLYLINE
  5
50B
100
AcDbEntity
  8
02___PRT_ALL_AXES
100
AcDbPolyline
 62
7
  6
CONTINUOUS
 90
9
 70
0
 10
5.5401185069
 20
7.8442921144
 10
5.5419183758
 20
7.8450285723
 10
5.5562511258
 20
7.8465014882
 10
5.5845653558
 20
7.847974404
 10
5.6261671348
 20
7.8494473198
 10
5.6800368778
 20
7.8509202357
 10
5.7448543339
 20
7.8523931515
 10
5.8190309436
 20
7.8538660674
 10
5.9007487711
 20
7.8553389832
  0
LWPOLYLINE
  5
50C
100
AcDbEntity
  8
02___PRT_ALL_AXES
100
AcDbPolyline
 62
7
  6
CONTINUOUS
 90
10
 70
0
 10
5.5755515798
 20
7.8238356271
 10
5.5775089179
 20
7.8246271535
 10
5.5920798201
 20
7.8261423661
 10
5.6205045374
 20
7.8276570924
 10
5.6627830695
 20
7.829195055
 10
5.7177544792
 20
7.8307406043
 10
5.7831251274
 20
7.832272319
 10
5.8567785201
 20
7.8337879502
 10
5.9376048562
 20
7.8353066386
 10
6.0230353007
 20
7.8368197193
  0
LWPOLYLINE
  5
50D
100
AcDbEntity
  8
02___PRT_ALL_AXES
100
AcDbPolyline
 62
7
  6
CONTINUOUS
 90
5
 70
0
 10
5.5403442649
 20
7.9109898888
 10
5.5411830248
 20
7.9112954379
 10
5.553587185
 20
7.912747086
 10
5.5796361939
 20
7.914198734
 10
5.6187099039
 20
7.9156503821
  0
LWPOLYLINE
  5
50E
100
AcDbEntity
  8
02___PRT_ALL_AXES
100
AcDbPolyline
 62
7
  6
CONTINUOUS
 90
9
 70
0
 10
5.5403442649
 20
8.1472103613
 10
5.5419183758
 20
8.1476860526
 10
5.5562511258
 20
8.1491589685
 10
5.5845653558
 20
8.1506318843
 10
5.6261671348
 20
8.1521048002
 10
5.6800368778
 20
8.153577716
 10
5.7448543339
 20
8.1550506318
 10
5.8190309436
 20
8.1565235477
 10
5.9007487711
 20
8.1579964635
  0
LWPOLYLINE
  5
50F
100
AcDbEntity
  8
02___PRT_ALL_AXES
100
AcDbPolyline
 62
7
  6
CONTINUOUS
 90
9
 70
0
 10
5.5403442649
 20
8.0881552432
 10
5.5419183758
 20
8.0886309345
 10
5.5562511258
 20
8.0901038504
 10
5.5845653558
 20
8.0915767662
 10
5.6261671348
 20
8.093049682
 10
5.6800368778
 20
8.0945225979
 10
5.7448543339
 20
8.0959955137
 10
5.8190309436
 20
8.0974684296
 10
5.9007487711
 20
8.0989413454
  0
LWPOLYLINE
  5
510
100
AcDbEntity
  8
02___PRT_ALL_AXES
100
AcDbPolyline
 62
7
  6
CONTINUOUS
 90
9
 70
0
 10
5.5403442649
 20
8.0291001251
 10
5.5419183758
 20
8.0295758164
 10
5.5562511258
 20
8.0310487322
 10
5.5845653558
 20
8.0325216481
 10
5.6261671348
 20
8.0339945639
 10
5.6800368778
 20
8.0354674798
 10
5.7448543339
 20
8.0369403956
 10
5.8190309436
 20
8.0384133115
 10
5.9007487711
 20
8.0398862273
  0
LWPOLYLINE
  5
511
100
AcDbEntity
  8
02___PRT_ALL_AXES
100
AcDbPolyline
 62
7
  6
CONTINUOUS
 90
9
 70
0
 10
5.5403442649
 20
7.9700450069
 10
5.5419183758
 20
7.9705206983
 10
5.5562511258
 20
7.9719936141
 10
5.5845653558
 20
7.97346653
 10
5.6261671348
 20
7.9749394458
 10
5.6800368778
 20
7.9764123617
 10
5.7448543339
 20
7.9778852775
 10
5.8190309436
 20
7.9793581934
 10
5.9007487711
 20
7.9808311092
  0
LINE
  5
512
100
AcDbEntity
  8
02___PRT_ALL_AXES
100
AcDbLine
 62
7
  6
CONTINUOUS
 10
6.7131210954
 20
7.7554486706
 11
6.7133468534
 21
7.7557094372
  0
LINE
  5
513
100
AcDbEntity
  8
0
100
AcDbLine
 62
7
  6
CONTINUOUS
 10
6.6776735299
 20
8.1483604503
 11
6.7131210954
 21
8.1688344974
  0
LINE
  5
514
100
AcDbEntity
  8
0
100
AcDbLine
 62
7
  6
CONTINUOUS
 10
6.6776735299
 20
8.0893053322
 11
6.7131210954
 21
8.1097793793
  0
LINE
  5
515
100
AcDbEntity
  8
0
100
AcDbLine
 62
7
  6
CONTINUOUS
 10
6.6776735299
 20
8.0302502141
 11
6.7131210954
 21
8.0507242612
  0
LINE
  5
516
100
AcDbEntity
  8
0
100
AcDbLine
 62
7
  6
CONTINUOUS
 10
6.6776735299
 20
7.971195096
 11
6.7131210954
 21
7.9916691431
  0
LINE
  5
517
100
AcDbEntity
  8
0
100
AcDbLine
 62
7
  6
CONTINUOUS
 10
6.6776735299
 20
7.9121399779
 11
6.7131210954
 21
7.932614025
  0
LWPOLYLINE
  5
518
100
AcDbEntity
  8
02___PRT_ALL_AXES
100
AcDbPolyline
 62
7
  6
CONTINUOUS
 90
8
 70
0
 10
6.6779137803
 20
8.255990414
 10
6.6762654309
 20
8.2552624907
 10
6.6621569631
 20
8.2537367792
 10
6.6341822078
 20
8.2522202949
 10
6.5923608839
 20
8.250682585
 10
6.5377868647
 20
8.2491367525
 10
6.4727212607
 20
8.2476041097
 10
6.3992311025
 20
8.2460862732
  0
LWPOLYLINE
  5
519
100
AcDbEntity
  8
02___PRT_ALL_AXES
100
AcDbPolyline
 62
7
  6
CONTINUOUS
 90
10
 70
0
 10
5.57555158
 20
7.7647788597
 10
5.5772037445
 20
7.7655076188
 10
5.5913188148
 20
7.7670332371
 10
5.6193032383
 20
7.7685498505
 10
5.6611358386
 20
7.7700876825
 10
5.7157251459
 20
7.7716337096
 10
5.7808109447
 20
7.7731666226
 10
5.8542849119
 20
7.7746839886
 10
5.935916703
 20
7.7762208545
 10
6.0230353007
 20
7.7777646011
  0
LWPOLYLINE
  5
51A
100
AcDbEntity
  8
02___PRT_ALL_AXES
100
AcDbPolyline
 62
7
  6
CONTINUOUS
 90
10
 70
0
 10
6.6779137818
 20
8.0788246957
 10
6.6761184794
 20
8.0780654017
 10
6.6616291462
 20
8.0765338194
 10
6.6333319257
 20
8.0750179695
 10
6.5914126794
 20
8.0734870905
 10
6.5371367908
 20
8.0719547752
 10
6.472786811
 20
8.0704401914
 10
6.39934638
 20
8.0689231805
 10
6.3176096004
 20
8.067384167
 10
6.2304300596
 20
8.0658393127
  0
LWPOLYLINE
  5
51B
100
AcDbEntity
  8
02___PRT_ALL_AXES
100
AcDbPolyline
 62
7
  6
CONTINUOUS
 90
10
 70
0
 10
6.6779137814
 20
8.0197685006
 10
6.6760145571
 20
8.0189886182
 10
6.6615665359
 20
8.0174742806
 10
6.6331990606
 20
8.0159571049
 10
6.5909429584
 20
8.0144170976
 10
6.5359539955
 20
8.0128694957
 10
6.4705222583
 20
8.0113355652
 10
6.3968942479
 20
8.0098200208
 10
6.3163796282
 20
8.0083067014
 10
6.2304300596
 20
8.0067841946
  0
LWPOLYLINE
  5
51C
100
AcDbEntity
  8
02___PRT_ALL_AXES
100
AcDbPolyline
 62
7
  6
CONTINUOUS
 90
10
 70
0
 10
5.5755515778
 20
7.7057245845
 10
5.5774596712
 20
7.7065068804
 10
5.5922316019
 20
7.7080427548
 10
5.6207584415
 20
7.7095577872
 10
5.6624678763
 20
7.7110748552
 10
5.7161113551
 20
7.7125884698
 10
5.7805250258
 20
7.7141052403
 10
5.8540232911
 20
7.7156237377
 10
5.9358015628
 20
7.7171636435
 10
6.0230353007
 20
7.718709483
  0
LWPOLYLINE
  5
51D
100
AcDbEntity
  8
02___PRT_ALL_AXES
100
AcDbPolyline
 62
7
  6
CONTINUOUS
 90
9
 70
0
 10
5.5401185069
 20
7.7852369963
 10
5.5419183758
 20
7.7859734542
 10
5.5562511258
 20
7.78744637
 10
5.5845653558
 20
7.7889192859
 10
5.6261671348
 20
7.7903922017
 10
5.6800368778
 20
7.7918651176
 10
5.7448543339
 20
7.7933380334
 10
5.8190309436
 20
7.7948109493
 10
5.9007487711
 20
7.7962838651
  0
LWPOLYLINE
  5
51E
100
AcDbEntity
  8
02___PRT_ALL_AXES
100
AcDbPolyline
 62
7
  6
CONTINUOUS
 90
9
 70
0
 10
5.5401185069
 20
7.7261818782
 10
5.5419183758
 20
7.7269183361
 10
5.5562511258
 20
7.7283912519
 10
5.5845653558
 20
7.7298641678
 10
5.6261671348
 20
7.7313370836
 10
5.6800368778
 20
7.7328099995
 10
5.7448543339
 20
7.7342829153
 10
5.8190309436
 20
7.7357558312
 10
5.9007487711
 20
7.737228747
  0
LWPOLYLINE
  5
51F
100
AcDbEntity
  8
02___PRT_ALL_AXES
100
AcDbPolyline
 62
7
  6
CONTINUOUS
 90
10
 70
0
 10
6.6779137804
 20
8.1969336221
 10
6.6759515328
 20
8.196141121
 10
6.6613793652
 20
8.1946264688
 10
6.6329491251
 20
8.1931116715
 10
6.5906636089
 20
8.1915736231
 10
6.5356882057
 20
8.1900280871
 10
6.4703172512
 20
8.1884964479
 10
6.3966670545
 20
8.186980931
 10
6.31586143
 20
8.1854626463
 10
6.2304300596
 20
8.1839495489
  0
LWPOLYLINE
  5
520
100
AcDbEntity
  8
02___PRT_ALL_AXES
100
AcDbPolyline
 62
7
  6
CONTINUOUS
 90
9
 70
0
 10
5.5403442649
 20
7.8519347707
 10
5.5419183758
 20
7.8524104621
 10
5.5562511258
 20
7.8538833779
 10
5.5845653558
 20
7.8553562938
 10
5.6261671348
 20
7.8568292096
 10
5.6800368778
 20
7.8583021255
 10
5.7448543339
 20
7.8597750413
 10
5.8190309436
 20
7.8612479571
 10
5.9007487711
 20
7.862720873
  0
LWPOLYLINE
  5
521
100
AcDbEntity
  8
02___PRT_ALL_AXES
100
AcDbPolyline
 62
7
  6
CONTINUOUS
 90
7
 70
0
 10
5.5403442649
 20
7.7928796526
 10
5.5419183758
 20
7.793355344
 10
5.5562511258
 20
7.7948282598
 10
5.5845653558
 20
7.7963011757
 10
5.6261671348
 20
7.7977740915
 10
5.6800368778
 20
7.7992470073
 10
5.7448543339
 20
7.8007199232
  0
LWPOLYLINE
  5
522
100
AcDbEntity
  8
02___PRT_ALL_AXES
100
AcDbPolyline
 62
7
  6
CONTINUOUS
 90
9
 70
0
 10
5.5403442649
 20
7.7338245345
 10
5.5419183758
 20
7.7343002259
 10
5.5562511258
 20
7.7357731417
 10
5.5845653558
 20
7.7372460575
 10
5.6261671348
 20
7.7387189734
 10
5.6800368778
 20
7.7401918892
 10
5.7448543339
 20
7.7416648051
 10
5.8190309436
 20
7.7431377209
 10
5.9007487711
 20
7.7446106368
  0
LINE
  5
523
100
AcDbEntity
  8
0
100
AcDbLine
 62
7
  6
CONTINUOUS
 10
7.1109846487
 20
12.5891247916
 11
5.1424807116
 21
12.5891247916
  0
LINE
  5
524
100
AcDbEntity
  8
AXIS
100
AcDbLine
 62
7
  6
CONTINUOUS
 10
5.1424807116
 20
12.5891247916
 11
7.1109846487
 21
12.5891247916
  0
LINE
  5
525
100
AcDbEntity
  8
0
100
AcDbLine
 62
7
  6
CONTINUOUS
 10
6.6776735299
 20
7.8530848597
 11
6.7131210954
 21
7.8735589069
  0
LINE
  5
526
100
AcDbEntity
  8
0
100
AcDbLine
 62
7
  6
CONTINUOUS
 10
6.6776735299
 20
7.7940297416
 11
6.7131210954
 21
7.8145037888
  0
LINE
  5
527
100
AcDbEntity
  8
0
100
AcDbLine
 62
7
  6
CONTINUOUS
 10
6.6776735299
 20
7.7349746235
 11
6.7131210954
 21
7.7554486706
  0
LWPOLYLINE
  5
528
100
AcDbEntity
  8
02___PRT_ALL_AXES
100
AcDbPolyline
 62
7
  6
CONTINUOUS
 90
6
 70
0
 10
6.6779137824
 20
7.8426039647
 10
6.6761594679
 20
7.8418536461
 10
6.6618939293
 20
7.8403321357
 10
6.6337055682
 20
7.8388137014
 10
6.5916188643
 20
7.837273159
 10
6.5367629214
 20
7.8357247574
  0
LWPOLYLINE
  5
529
100
AcDbEntity
  8
02___PRT_ALL_AXES
100
AcDbPolyline
 62
7
  6
CONTINUOUS
 90
10
 70
0
 10
6.6779137825
 20
7.9607139705
 10
6.6760965032
 20
7.9599505328
 10
6.6615036898
 20
7.9584147335
 10
6.6332106367
 20
7.9569024871
 10
6.5915717581
 20
7.9553819002
 10
6.537267728
 20
7.9538478845
 10
6.4723689443
 20
7.9523208039
 10
6.3987987817
 20
7.9508022038
 10
6.3172095944
 20
7.9492666609
 10
6.2304300596
 20
7.9477290764
  0
LWPOLYLINE
  5
52A
100
AcDbEntity
  8
02___PRT_ALL_AXES
100
AcDbPolyline
 62
7
  6
CONTINUOUS
 90
10
 70
0
 10
6.6779137825
 20
7.7835485358
 10
6.6760893505
 20
7.7827836767
 10
6.6615323386
 20
7.7812513971
 10
6.6331818064
 20
7.7797358868
 10
6.5910270319
 20
7.7781992848
 10
6.5361929849
 20
7.7766551088
 10
6.4709650492
 20
7.7751247567
 10
6.3973682677
 20
7.7736088244
 10
6.3162048002
 20
7.7720830541
 10
6.2304300596
 20
7.7705637221
  0
LWPOLYLINE
  5
52B
100
AcDbEntity
  8
02___PRT_ALL_AXES
100
AcDbPolyline
 62
7
  6
CONTINUOUS
 90
10
 70
0
 10
6.6779137825
 20
7.9016588527
 10
6.6760046459
 20
7.900876347
 10
6.6612460694
 20
7.8993415466
 10
6.6327270215
 20
7.8978265186
 10
6.5908215692
 20
7.8963030233
 10
6.5369999436
 20
7.8947859257
 10
6.4727792779
 20
7.893274672
 10
6.3993403032
 20
7.8917577069
 10
6.3176054834
 20
7.8902187378
 10
6.2304300596
 20
7.8886739583
  0
LINE
  5
52C
100
AcDbEntity
  8
AXIS
100
AcDbLine
 62
7
  6
CONTINUOUS
 10
5.1424807116
 20
13.6481799097
 11
7.1109846487
 21
13.6481799097
  0
LINE
  5
52D
100
AcDbEntity
  8
0
100
AcDbLine
 62
7
  6
CONTINUOUS
 10
5.1424807116
 20
13.6481799097
 11
7.1109846487
 21
13.6481799097
  0
LINE
  5
52E
100
AcDbEntity
  8
0
100
AcDbLine
 62
7
  6
CONTINUOUS
 10
5.147177708
 20
13.9172706503
 11
7.1062876523
 21
13.9172706503
  0
LINE
  5
52F
100
AcDbEntity
  8
0
100
AcDbLine
 62
7
  6
CONTINUOUS
 10
5.2259058733
 20
13.9946366026
 11
7.0275594873
 21
13.9946366026
  0
LWPOLYLINE
  5
530
100
AcDbEntity
  8
02___PRT_ALL_AXES
100
AcDbPolyline
 62
7
  6
CONTINUOUS
 90
18
 70
0
 10
17.2128258367
 20
4.473739086
 10
17.2244175084
 20
4.4679401726
 10
17.237320626
 20
4.4631527058
 10
17.2512725193
 20
4.4594741446
 10
17.2659891679
 20
4.4569793739
 10
17.2811709834
 20
4.4557191801
 10
17.2965089078
 20
4.4557192169
 10
17.3116907052
 20
4.4569794838
 10
17.3264073179
 20
4.4594743252
 10
17.3403591581
 20
4.4631529535
 10
17.3532622067
 20
4.4679404823
 10
17.3648537947
 20
4.4737394514
 10
17.3748979508
 20
4.4804318105
 10
17.3831902051
 20
4.4878813224
 10
17.3895617511
 20
4.4959363366
 10
17.3938828824
 20
4.5044328762
 10
17.3960656335
 20
4.5131979762
 10
17.3963384533
 20
4.5176253321
  0
LWPOLYLINE
  5
531
100
AcDbEntity
  8
02___PRT_ALL_AXES
100
AcDbPolyline
 62
7
  6
CONTINUOUS
 90
14
 70
0
 10
17.06585233
 20
5.1542997201
 10
17.1532656234
 20
5.139248496
 10
17.2440015894
 20
5.1322729225
 10
17.3358364521
 20
5.133573433
 10
17.4265195039
 20
5.1431476289
 10
17.5138282655
 20
5.1607903383
 10
17.595622956
 20
5.1860986445
 10
17.669898934
 20
5.218481761
 10
17.7348358285
 20
5.2571755101
 10
17.7888421526
 20
5.3012610519
 10
17.8305943083
 20
5.3496874034
 10
17.8590690249
 20
5.401297196
 10
17.8735684384
 20
5.454855041
 10
17.8754536724
 20
5.4826009673
  0
LWPOLYLINE
  5
532
100
AcDbEntity
  8
02___PRT_ALL_AXES
100
AcDbPolyline
 62
7
  6
CONTINUOUS
 90
13
 70
0
 10
17.06585233
 20
5.1603270509
 10
17.1532656234
 20
5.1452758268
 10
17.2440015894
 20
5.1383002533
 10
17.3358364521
 20
5.1396007638
 10
17.4265195039
 20
5.1491749597
 10
17.5138282655
 20
5.1668176691
 10
17.595622956
 20
5.1921259754
 10
17.669898934
 20
5.2245090918
 10
17.7348358285
 20
5.2632028409
 10
17.7888421526
 20
5.3072883827
 10
17.8305943083
 20
5.3557147342
 10
17.8590690249
 20
5.4073245269
 10
17.8735684384
 20
5.4608823718
  0
LWPOLYLINE
  5
533
100
AcDbEntity
  8
02___PRT_ALL_AXES
100
AcDbPolyline
 62
7
  6
CONTINUOUS
 90
11
 70
0
 10
17.06585233
 20
5.2025183668
 10
17.1532656234
 20
5.1874671426
 10
17.2440015894
 20
5.1804915692
 10
17.3358364521
 20
5.1817920797
 10
17.4265195039
 20
5.1913662756
 10
17.5138282655
 20
5.209008985
 10
17.595622956
 20
5.2343172912
 10
17.669898934
 20
5.2667004077
 10
17.7348358285
 20
5.3053941567
 10
17.7888421526
 20
5.3494796986
 10
17.8305943083
 20
5.3979060501
  0
LWPOLYLINE
  5
534
100
AcDbEntity
  8
02___PRT_ALL_AXES
100
AcDbPolyline
 62
7
  6
CONTINUOUS
 90
11
 70
0
 10
17.06585233
 20
5.2085456976
 10
17.1532656234
 20
5.1934944735
 10
17.2440015894
 20
5.1865189
 10
17.3358364521
 20
5.1878194105
 10
17.4265195039
 20
5.1973936064
 10
17.5138282655
 20
5.2150363158
 10
17.595622956
 20
5.2403446221
 10
17.669898934
 20
5.2727277385
 10
17.7348358285
 20
5.3114214876
 10
17.7888421526
 20
5.3555070294
 10
17.8305943083
 20
5.4039333809
  0
LWPOLYLINE
  5
535
100
AcDbEntity
  8
02___PRT_ALL_AXES
100
AcDbPolyline
 62
7
  6
CONTINUOUS
 90
12
 70
0
 10
17.06585233
 20
5.2507370135
 10
17.1532656234
 20
5.2356857893
 10
17.2440015894
 20
5.2287102159
 10
17.3358364521
 20
5.2300107264
 10
17.4265195039
 20
5.2395849223
 10
17.5138282655
 20
5.2572276316
 10
17.595622956
 20
5.2825359379
 10
17.669898934
 20
5.3149190544
 10
17.7348358285
 20
5.3536128034
 10
17.7888421526
 20
5.3976983452
 10
17.8305943083
 20
5.4461246967
 10
17.8590690249
 20
5.4977344894
  0
LWPOLYLINE
  5
536
100
AcDbEntity
  8
02___PRT_ALL_AXES
100
AcDbPolyline
 62
7
  6
CONTINUOUS
 90
12
 70
0
 10
17.06585233
 20
5.2567643443
 10
17.1532656234
 20
5.2417131202
 10
17.2440015894
 20
5.2347375467
 10
17.3358364521
 20
5.2360380572
 10
17.4265195039
 20
5.2456122531
 10
17.5138282655
 20
5.2632549625
 10
17.595622956
 20
5.2885632687
 10
17.669898934
 20
5.3209463852
 10
17.7348358285
 20
5.3596401343
 10
17.7888421526
 20
5.4037256761
 10
17.8305943083
 20
5.4521520276
 10
17.8590690249
 20
5.5037618202
  0
LINE
  5
537
100
AcDbEntity
  8
02___PRT_ALL_AXES
100
AcDbLine
 62
7
  6
CONTINUOUS
 10
17.1413675262
 20
5.232798683
 11
17.0576309251
 21
5.2493046755
  0
LWPOLYLINE
  5
538
100
AcDbEntity
  8
02___PRT_ALL_AXES
100
AcDbPolyline
 62
7
  6
CONTINUOUS
 90
3
 70
0
 10
17.1406831021
 20
5.1846801432
 10
17.0568261678
 20
5.2012888357
 10
16.9793823357
 20
5.2253704198
  0
LWPOLYLINE
  5
539
100
AcDbEntity
  8
02___PRT_ALL_AXES
100
AcDbPolyline
 62
7
  6
CONTINUOUS
 90
5
 70
0
 10
17.06585233
 20
5.1542997201
 10
17.0448878986
 20
5.1609609174
 10
17.022926546
 20
5.1686073234
 10
17.0008488023
 20
5.1770217483
 10
16.9793823357
 20
5.1859362306
  0
LWPOLYLINE
  5
53A
100
AcDbEntity
  8
02___PRT_ALL_AXES
100
AcDbPolyline
 62
7
  6
CONTINUOUS
 90
3
 70
0
 10
17.06585233
 20
5.2025183668
 10
17.0368780136
 20
5.2118871631
 10
17.0080416671
 20
5.2224166405
  0
LWPOLYLINE
  5
53B
100
AcDbEntity
  8
0
100
AcDbPolyline
 62
7
  6
CONTINUOUS
 90
14
 70
0
 10
16.9793823357
 20
5.1479457763
 10
17.052786942
 20
5.123717327
 10
17.1316989621
 20
5.1062642081
 10
17.2143120632
 20
5.0959799781
 10
17.2986948538
 20
5.0931084489
 10
17.3828459742
 20
5.0977200634
 10
17.4647825033
 20
5.1097056659
 10
17.542579063
 20
5.1287827489
 10
17.6144102982
 20
5.1545036196
 10
17.6785855367
 20
5.1862632953
 10
17.7335949927
 20
5.2233147085
 10
17.7781446597
 20
5.2647861434
 10
17.8111868278
 20
5.3097016835
 10
17.8268051406
 20
5.3452925269
  0
LINE
  5
53C
100
AcDbEntity
  8
0
100
AcDbLine
 62
7
  6
CONTINUOUS
 10
16.9867588643
 20
5.1303715792
 11
16.9882186287
 21
5.1296709036
  0
LWPOLYLINE
  5
53D
100
AcDbEntity
  8
02___PRT_ALL_AXES
100
AcDbPolyline
 62
7
  6
CONTINUOUS
 90
7
 70
0
 10
17.4406687785
 20
5.434730823
 10
17.5260283619
 20
5.4532949541
 10
17.6057412009
 20
5.4792334714
 10
17.6779095756
 20
5.5119570756
 10
17.7408153767
 20
5.5507149351
 10
17.7929610086
 20
5.594612561
 10
17.8331050428
 20
5.6426331023
  0
LWPOLYLINE
  5
53E
100
AcDbEntity
  8
02___PRT_ALL_AXES
100
AcDbPolyline
 62
7
  6
CONTINUOUS
 90
8
 70
0
 10
17.4406687785
 20
5.4407581539
 10
17.5260283619
 20
5.459322285
 10
17.6057412009
 20
5.4852608023
 10
17.6779095756
 20
5.5179844064
 10
17.7408153767
 20
5.5567422659
 10
17.7929610086
 20
5.6006398918
 10
17.8331050428
 20
5.6486604332
 10
17.8411554151
 20
5.6637706742
  0
LINE
  5
53F
100
AcDbEntity
  8
02___PRT_ALL_AXES
100
AcDbLine
 62
7
  6
CONTINUOUS
 10
17.4265195039
 20
5.4806781557
 11
17.5138282655
 21
5.498320865
  0
LWPOLYLINE
  5
540
100
AcDbEntity
  8
02___PRT_ALL_AXES
100
AcDbPolyline
 62
7
  6
CONTINUOUS
 90
5
 70
0
 10
17.4935071473
 20
5.4418217124
 10
17.4078096393
 20
5.4253211366
 10
17.3188788003
 20
5.4170416885
 10
17.2301851293
 20
5.4171390241
 10
17.1428740194
 20
5.4254548424
  0
LWPOLYLINE
  5
541
100
AcDbEntity
  8
02___PRT_ALL_AXES
100
AcDbPolyline
 62
7
  6
CONTINUOUS
 90
5
 70
0
 10
17.4314978824
 20
5.4772215062
 10
17.3546996929
 20
5.4675680092
 10
17.2761974921
 20
5.4642766178
 10
17.1984353657
 20
5.4674140966
 10
17.122059004
 20
5.4769274677
  0
LINE
  5
542
100
AcDbEntity
  8
02___PRT_ALL_AXES
100
AcDbLine
 62
7
  6
CONTINUOUS
 10
17.3467433595
 20
5.4296212252
 11
17.4406687785
 21
5.4407581539
  0
LWPOLYLINE
  5
543
100
AcDbEntity
  8
02___PRT_ALL_AXES
100
AcDbPolyline
 62
7
  6
CONTINUOUS
 90
5
 70
0
 10
17.06585233
 20
5.4436116002
 10
17.1568197109
 20
5.4281274486
 10
17.2512841371
 20
5.4213843002
 10
17.3467433595
 20
5.4235938944
 10
17.4406687785
 20
5.434730823
  0
LWPOLYLINE
  5
544
100
AcDbEntity
  8
02___PRT_ALL_AXES
100
AcDbPolyline
 62
7
  6
CONTINUOUS
 90
4
 70
0
 10
17.06585233
 20
5.449638931
 10
17.1568197109
 20
5.4341547794
 10
17.2512841371
 20
5.4274116311
 10
17.3467433595
 20
5.4296212252
  0
LWPOLYLINE
  5
545
100
AcDbEntity
  8
02___PRT_ALL_AXES
100
AcDbPolyline
 62
7
  6
CONTINUOUS
 90
11
 70
0
 10
17.06585233
 20
5.2989556601
 10
17.1532656234
 20
5.283904436
 10
17.2440015894
 20
5.2769288625
 10
17.3358364521
 20
5.2782293731
 10
17.4265195039
 20
5.2878035689
 10
17.5138282655
 20
5.3054462783
 10
17.595622956
 20
5.3307545846
 10
17.669898934
 20
5.363137701
 10
17.7348358285
 20
5.4018314501
 10
17.7888421526
 20
5.4459169919
 10
17.8305943083
 20
5.4943433434
  0
LWPOLYLINE
  5
546
100
AcDbEntity
  8
02___PRT_ALL_AXES
100
AcDbPolyline
 62
7
  6
CONTINUOUS
 90
12
 70
0
 10
17.06585233
 20
5.304982991
 10
17.1532656234
 20
5.2899317668
 10
17.2440015894
 20
5.2829561934
 10
17.3358364521
 20
5.2842567039
 10
17.4265195039
 20
5.2938308998
 10
17.5138282655
 20
5.3114736092
 10
17.595622956
 20
5.3367819154
 10
17.669898934
 20
5.3691650319
 10
17.7348358285
 20
5.4078587809
 10
17.7888421526
 20
5.4519443228
 10
17.8305943083
 20
5.5003706742
 10
17.8590690249
 20
5.5519804669
  0
LWPOLYLINE
  5
547
100
AcDbEntity
  8
02___PRT_ALL_AXES
100
AcDbPolyline
 62
7
  6
CONTINUOUS
 90
11
 70
0
 10
17.06585233
 20
5.3471743068
 10
17.1532656234
 20
5.3321230827
 10
17.2440015894
 20
5.3251475092
 10
17.3358364521
 20
5.3264480197
 10
17.4265195039
 20
5.3360222156
 10
17.5138282655
 20
5.353664925
 10
17.595622956
 20
5.3789732313
 10
17.669898934
 20
5.4113563477
 10
17.7348358285
 20
5.4500500968
 10
17.7888421526
 20
5.4941356386
 10
17.8305943083
 20
5.5425619901
  0
LWPOLYLINE
  5
548
100
AcDbEntity
  8
02___PRT_ALL_AXES
100
AcDbPolyline
 62
7
  6
CONTINUOUS
 90
12
 70
0
 10
17.06585233
 20
5.3532016377
 10
17.1532656234
 20
5.3381504135
 10
17.2440015894
 20
5.33117484
 10
17.3358364521
 20
5.3324753506
 10
17.4265195039
 20
5.3420495464
 10
17.5138282655
 20
5.3596922558
 10
17.595622956
 20
5.3850005621
 10
17.669898934
 20
5.4173836786
 10
17.7348358285
 20
5.4560774276
 10
17.7888421526
 20
5.5001629694
 10
17.8305943083
 20
5.5485893209
 10
17.8590690249
 20
5.6001991136
  0
LWPOLYLINE
  5
549
100
AcDbEntity
  8
02___PRT_ALL_AXES
100
AcDbPolyline
 62
7
  6
CONTINUOUS
 90
11
 70
0
 10
17.06585233
 20
5.3953929535
 10
17.1532656234
 20
5.3803417294
 10
17.2440015894
 20
5.3733661559
 10
17.3358364521
 20
5.3746666664
 10
17.4265195039
 20
5.3842408623
 10
17.5138282655
 20
5.4018835717
 10
17.595622956
 20
5.4271918779
 10
17.669898934
 20
5.4595749944
 10
17.7348358285
 20
5.4982687435
 10
17.7888421526
 20
5.5423542853
 10
17.8305943083
 20
5.5907806368
  0
LWPOLYLINE
  5
54A
100
AcDbEntity
  8
02___PRT_ALL_AXES
100
AcDbPolyline
 62
7
  6
CONTINUOUS
 90
12
 70
0
 10
17.06585233
 20
5.4014202843
 10
17.1532656234
 20
5.3863690602
 10
17.2440015894
 20
5.3793934867
 10
17.3358364521
 20
5.3806939973
 10
17.4265195039
 20
5.3902681931
 10
17.5138282655
 20
5.4079109025
 10
17.595622956
 20
5.4332192088
 10
17.669898934
 20
5.4656023252
 10
17.7348358285
 20
5.5042960743
 10
17.7888421526
 20
5.5483816161
 10
17.8305943083
 20
5.5968079676
 10
17.8590690249
 20
5.6484177603
  0
LWPOLYLINE
  5
54B
100
AcDbEntity
  8
02___PRT_ALL_AXES
100
AcDbPolyline
 62
7
  6
CONTINUOUS
 90
5
 70
0
 10
17.06585233
 20
5.4918302469
 10
17.1532656234
 20
5.4767790227
 10
17.2440015894
 20
5.4698034493
 10
17.3358364521
 20
5.4711039598
 10
17.4265195039
 20
5.4806781557
  0
LWPOLYLINE
  5
54C
100
AcDbEntity
  8
02___PRT_ALL_AXES
100
AcDbPolyline
 62
7
  6
CONTINUOUS
 90
6
 70
0
 10
17.06585233
 20
5.4978575777
 10
17.1532656234
 20
5.4828063536
 10
17.2440015894
 20
5.4758307801
 10
17.3358364521
 20
5.4771312906
 10
17.4265195039
 20
5.4867054865
 10
17.5138282655
 20
5.5043481959
  0
LINE
  5
54D
100
AcDbEntity
  8
02___PRT_ALL_AXES
100
AcDbLine
 62
7
  6
CONTINUOUS
 10
17.1428672773
 20
5.280799874
 11
17.058180687
 21
5.2973852929
  0
LINE
  5
54E
100
AcDbEntity
  8
02___PRT_ALL_AXES
100
AcDbLine
 62
7
  6
CONTINUOUS
 10
17.1428740194
 20
5.4254548424
 11
17.0581846728
 21
5.4420402338
  0
LINE
  5
54F
100
AcDbEntity
  8
02___PRT_ALL_AXES
100
AcDbLine
 62
7
  6
CONTINUOUS
 10
17.1422667475
 20
5.3291052805
 11
17.0577975371
 21
5.3457000932
  0
LWPOLYLINE
  5
550
100
AcDbEntity
  8
02___PRT_ALL_AXES
100
AcDbPolyline
 62
7
  6
CONTINUOUS
 90
3
 70
0
 10
17.140159217
 20
5.3776317242
 10
17.0569950676
 20
5.3941207835
 10
16.9793823357
 20
5.4182450066
  0
LWPOLYLINE
  5
551
100
AcDbEntity
  8
02___PRT_ALL_AXES
100
AcDbPolyline
 62
7
  6
CONTINUOUS
 90
3
 70
0
 10
17.122059004
 20
5.4769274677
 10
17.0482931651
 20
5.4928068604
 10
16.9793823357
 20
5.5146822999
  0
LINE
  5
552
100
AcDbEntity
  8
02___PRT_ALL_AXES
100
AcDbLine
 62
7
  6
CONTINUOUS
 10
17.058180687
 20
5.2973852929
 11
16.9793823357
 21
5.3218077132
  0
LINE
  5
553
100
AcDbEntity
  8
02___PRT_ALL_AXES
100
AcDbLine
 62
7
  6
CONTINUOUS
 10
17.0581846728
 20
5.4420402338
 11
16.9793823357
 21
5.4664636532
  0
LINE
  5
554
100
AcDbEntity
  8
02___PRT_ALL_AXES
100
AcDbLine
 62
7
  6
CONTINUOUS
 10
17.0576309251
 20
5.2493046755
 11
16.9793823357
 21
5.2735890665
  0
LINE
  5
555
100
AcDbEntity
  8
02___PRT_ALL_AXES
100
AcDbLine
 62
7
  6
CONTINUOUS
 10
17.0577975371
 20
5.3457000932
 11
16.9793823357
 21
5.3700263599
  0
LWPOLYLINE
  5
556
100
AcDbEntity
  8
02___PRT_ALL_AXES
100
AcDbPolyline
 62
7
  6
CONTINUOUS
 90
4
 70
0
 10
17.06585233
 20
5.3471743068
 10
17.0451152554
 20
5.3537599864
 10
17.0234210704
 20
5.3613019247
 10
17.0013317907
 20
5.369704194
  0
LWPOLYLINE
  5
557
100
AcDbEntity
  8
02___PRT_ALL_AXES
100
AcDbPolyline
 62
7
  6
CONTINUOUS
 90
4
 70
0
 10
16.7462614904
 20
5.3387690009
 10
16.7752311019
 20
5.329401822
 10
16.8040670412
 20
5.3188727054
 10
16.8327314847
 20
5.3071324904
  0
LWPOLYLINE
  5
558
100
AcDbEntity
  8
02___PRT_ALL_AXES
100
AcDbPolyline
 62
7
  6
CONTINUOUS
 90
3
 70
0
 10
17.06585233
 20
5.2507370135
 10
17.0368780136
 20
5.2601058098
 10
17.0080416671
 20
5.2706352872
  0
LWPOLYLINE
  5
559
100
AcDbEntity
  8
02___PRT_ALL_AXES
100
AcDbPolyline
 62
7
  6
CONTINUOUS
 90
4
 70
0
 10
16.7462614904
 20
5.3869876476
 10
16.7752311019
 20
5.3776204687
 10
16.8040670412
 20
5.3670913521
 10
16.8327314847
 20
5.355351137
  0
LWPOLYLINE
  5
55A
100
AcDbEntity
  8
02___PRT_ALL_AXES
100
AcDbPolyline
 62
7
  6
CONTINUOUS
 90
3
 70
0
 10
17.06585233
 20
5.2989556601
 10
17.0368780135
 20
5.3083244565
 10
17.0080416671
 20
5.3188539338
  0
LWPOLYLINE
  5
55B
100
AcDbEntity
  8
02___PRT_ALL_AXES
100
AcDbPolyline
 62
7
  6
CONTINUOUS
 90
4
 70
0
 10
16.7462614904
 20
5.4352062942
 10
16.7752370317
 20
5.4258370768
 10
16.8040723717
 20
5.415307936
 10
16.8327314847
 20
5.4035697837
  0
LWPOLYLINE
  5
55C
100
AcDbEntity
  8
02___PRT_ALL_AXES
100
AcDbPolyline
 62
7
  6
CONTINUOUS
 90
4
 70
0
 10
16.7462614904
 20
5.4834249409
 10
16.7752311019
 20
5.4740577621
 10
16.8040670412
 20
5.4635286455
 10
16.8327314847
 20
5.4517884304
  0
LWPOLYLINE
  5
55D
100
AcDbEntity
  8
02___PRT_ALL_AXES
100
AcDbPolyline
 62
7
  6
CONTINUOUS
 90
3
 70
0
 10
17.06585233
 20
5.3953929535
 10
17.0368780135
 20
5.4047617498
 10
17.0080416671
 20
5.4152912272
  0
LWPOLYLINE
  5
55E
100
AcDbEntity
  8
02___PRT_ALL_AXES
100
AcDbPolyline
 62
7
  6
CONTINUOUS
 90
4
 70
0
 10
16.7462614904
 20
5.5316435876
 10
16.7752311019
 20
5.5222764087
 10
16.8040670412
 20
5.5117472921
 10
16.8327314847
 20
5.5000070771
  0
LWPOLYLINE
  5
55F
100
AcDbEntity
  8
02___PRT_ALL_AXES
100
AcDbPolyline
 62
7
  6
CONTINUOUS
 90
3
 70
0
 10
17.06585233
 20
5.4436116002
 10
17.0368780135
 20
5.4529803965
 10
17.0080416671
 20
5.4635098739
  0
LINE
  5
560
100
AcDbEntity
  8
02___PRT_ALL_AXES
100
AcDbLine
 62
7
  6
CONTINUOUS
 10
17.0080416671
 20
5.2224166405
 11
16.9793823357
 21
5.2341548773
  0
LINE
  5
561
100
AcDbEntity
  8
02___PRT_ALL_AXES
100
AcDbLine
 62
7
  6
CONTINUOUS
 10
17.0080416671
 20
5.2706352872
 11
16.9793823357
 21
5.282373524
  0
LINE
  5
562
100
AcDbEntity
  8
02___PRT_ALL_AXES
100
AcDbLine
 62
7
  6
CONTINUOUS
 10
17.0080416671
 20
5.3188539338
 11
16.9793823357
 21
5.3305921707
  0
LINE
  5
563
100
AcDbEntity
  8
02___PRT_ALL_AXES
100
AcDbLine
 62
7
  6
CONTINUOUS
 10
17.0080416671
 20
5.4152912272
 11
16.9793823357
 21
5.427029464
  0
LINE
  5
564
100
AcDbEntity
  8
02___PRT_ALL_AXES
100
AcDbLine
 62
7
  6
CONTINUOUS
 10
17.0013317907
 20
5.369704194
 11
16.9793823357
 21
5.3788108173
  0
LINE
  5
565
100
AcDbEntity
  8
0
100
AcDbLine
 62
7
  6
CONTINUOUS
 10
16.9867344441
 20
5.1303856778
 11
16.841687433
 21
5.2141267142
  0
LINE
  5
566
100
AcDbEntity
  8
0
100
AcDbLine
 62
7
  6
CONTINUOUS
 10
16.9793823357
 20
5.1479457763
 11
16.8327314847
 21
5.2326127691
  0
LINE
  5
567
100
AcDbEntity
  8
0
100
AcDbLine
 62
7
  6
CONTINUOUS
 10
16.8393229773
 20
5.2157940959
 11
16.8416651974
 21
5.2141395518
  0
LWPOLYLINE
  5
568
100
AcDbEntity
  8
02___PRT_ALL_AXES
100
AcDbPolyline
 62
7
  6
CONTINUOUS
 90
4
 70
0
 10
16.8327314847
 20
5.2676983011
 10
16.8040727161
 20
5.2879603476
 10
16.7752341084
 20
5.3096711189
 10
16.7462614904
 20
5.33274167
  0
LWPOLYLINE
  5
569
100
AcDbEntity
  8
02___PRT_ALL_AXES
100
AcDbPolyline
 62
7
  6
CONTINUOUS
 90
8
 70
0
 10
17.06585233
 20
5.5400488936
 10
17.1532656234
 20
5.5249976694
 10
17.2440015894
 20
5.5180220959
 10
17.3358364521
 20
5.5193226065
 10
17.4265195039
 20
5.5288968023
 10
17.5138282655
 20
5.5465395117
 10
17.595622956
 20
5.571847818
 10
17.6167581656
 20
5.5810624251
  0
LWPOLYLINE
  5
56A
100
AcDbEntity
  8
02___PRT_ALL_AXES
100
AcDbPolyline
 62
7
  6
CONTINUOUS
 90
7
 70
0
 10
17.06585233
 20
5.5460762244
 10
17.1532656234
 20
5.5310250002
 10
17.2440015894
 20
5.5240494268
 10
17.3358364521
 20
5.5253499373
 10
17.4265195039
 20
5.5349241332
 10
17.5138282655
 20
5.5525668426
 10
17.5774606266
 20
5.5722554956
  0
LWPOLYLINE
  5
56B
100
AcDbEntity
  8
02___PRT_ALL_AXES
100
AcDbPolyline
 62
7
  6
CONTINUOUS
 90
3
 70
0
 10
17.1399082781
 20
5.5223246576
 10
17.0564945788
 20
5.5389031878
 10
16.9793823357
 20
5.5629009466
  0
LWPOLYLINE
  5
56C
100
AcDbEntity
  8
02___PRT_ALL_AXES
100
AcDbPolyline
 62
7
  6
CONTINUOUS
 90
3
 70
0
 10
17.0272022558
 20
5.5652155556
 10
16.9088791605
 20
5.5941723259
 10
16.7974401537
 20
5.6340657285
  0
LWPOLYLINE
  5
56D
100
AcDbEntity
  8
02___PRT_ALL_AXES
100
AcDbPolyline
 62
7
  6
CONTINUOUS
 90
5
 70
0
 10
16.7462614904
 20
5.5798622343
 10
16.7669490477
 20
5.5732929925
 10
16.7886307092
 20
5.5657571707
 10
16.8107358652
 20
5.5573506929
 10
16.8327314847
 20
5.5482257238
  0
LWPOLYLINE
  5
56E
100
AcDbEntity
  8
02___PRT_ALL_AXES
100
AcDbPolyline
 62
7
  6
CONTINUOUS
 90
3
 70
0
 10
17.06585233
 20
5.4918302469
 10
17.0368705166
 20
5.5012016206
 10
17.0080348963
 20
5.5117311408
  0
LWPOLYLINE
  5
56F
100
AcDbEntity
  8
02___PRT_ALL_AXES
100
AcDbPolyline
 62
7
  6
CONTINUOUS
 90
4
 70
0
 10
16.7462614904
 20
5.628080881
 10
16.7752311019
 20
5.6187137021
 10
16.8040670412
 20
5.6081845855
 10
16.8327314847
 20
5.5964443704
  0
LWPOLYLINE
  5
570
100
AcDbEntity
  8
02___PRT_ALL_AXES
100
AcDbPolyline
 62
7
  6
CONTINUOUS
 90
3
 70
0
 10
17.06585233
 20
5.5400488936
 10
17.0368780136
 20
5.5494176899
 10
17.0080416671
 20
5.5599471673
  0
LINE
  5
571
100
AcDbEntity
  8
02___PRT_ALL_AXES
100
AcDbLine
 62
7
  6
CONTINUOUS
 10
17.0080416671
 20
5.4635098739
 11
16.9793823357
 21
5.4752481107
  0
LINE
  5
572
100
AcDbEntity
  8
02___PRT_ALL_AXES
100
AcDbLine
 62
7
  6
CONTINUOUS
 10
17.0080348963
 20
5.5117311408
 11
16.9793823357
 21
5.5234667574
  0
LINE
  5
573
100
AcDbEntity
  8
02___PRT_ALL_AXES
100
AcDbLine
 62
7
  6
CONTINUOUS
 10
17.0080416671
 20
5.5599471673
 11
16.9793823357
 21
5.5716854041
  0
LINE
  5
574
100
AcDbEntity
  8
02___PRT_ALL_AXES
100
AcDbLine
 62
7
  6
CONTINUOUS
 10
16.7974401537
 20
5.6340657285
 11
16.6950841034
 21
5.6847584947
  0
LINE
  5
575
100
AcDbEntity
  8
02___PRT_ALL_AXES
100
AcDbLine
 62
7
  6
CONTINUOUS
 10
16.7628206487
 20
5.7069917074
 11
16.6624679899
 21
5.7568508015
  0
LWPOLYLINE
  5
576
100
AcDbEntity
  8
02___PRT_ALL_AXES
100
AcDbPolyline
 62
7
  6
CONTINUOUS
 90
7
 70
0
 10
16.6950841034
 20
5.6847584947
 10
16.6058213748
 20
5.7447132501
 10
16.5315392927
 20
5.8126226091
 10
16.474206103
 20
5.885971645
 10
16.4342234607
 20
5.9622404233
 10
16.4107502008
 20
6.0400089572
 10
16.4030127276
 20
6.1184844023
  0
LWPOLYLINE
  5
577
100
AcDbEntity
  8
02___PRT_ALL_AXES
100
AcDbPolyline
 62
7
  6
CONTINUOUS
 90
5
 70
0
 10
16.8327314847
 20
5.5087915346
 10
16.8108041369
 20
5.5241742674
 10
16.7887238824
 20
5.5404482206
 10
16.7670227117
 20
5.5571784693
 10
16.7462614904
 20
5.5738349034
  0
LWPOLYLINE
  5
578
100
AcDbEntity
  8
02___PRT_ALL_AXES
100
AcDbPolyline
 62
7
  6
CONTINUOUS
 90
5
 70
0
 10
16.9793823357
 20
5.4182450066
 10
17.0013528315
 20
5.4028312296
 10
17.0234522251
 20
5.3865413289
 10
17.0451441359
 20
5.3698163255
 10
17.06585233
 20
5.3532016377
  0
LWPOLYLINE
  5
579
100
AcDbEntity
  8
02___PRT_ALL_AXES
100
AcDbPolyline
 62
7
  6
CONTINUOUS
 90
4
 70
0
 10
16.8327314847
 20
5.3159169478
 10
16.8040727161
 20
5.3361789943
 10
16.7752341084
 20
5.3578897656
 10
16.7462614904
 20
5.3809603167
  0
LWPOLYLINE
  5
57A
100
AcDbEntity
  8
02___PRT_ALL_AXES
100
AcDbPolyline
 62
7
  6
CONTINUOUS
 90
4
 70
0
 10
16.8327314847
 20
5.3641355945
 10
16.8040798052
 20
5.3843924642
 10
16.775241893
 20
5.4061023793
 10
16.7462614904
 20
5.4291789634
  0
LWPOLYLINE
  5
57B
100
AcDbEntity
  8
02___PRT_ALL_AXES
100
AcDbPolyline
 62
7
  6
CONTINUOUS
 90
4
 70
0
 10
16.9793823357
 20
5.2735890665
 10
17.0080464523
 20
5.2533231147
 10
17.0368846042
 20
5.2316124573
 10
17.06585233
 20
5.2085456976
  0
LWPOLYLINE
  5
57C
100
AcDbEntity
  8
02___PRT_ALL_AXES
100
AcDbPolyline
 62
7
  6
CONTINUOUS
 90
4
 70
0
 10
16.8327314847
 20
5.4123542412
 10
16.8040727161
 20
5.4326162876
 10
16.7752341084
 20
5.4543270589
 10
16.7462614904
 20
5.4773976101
  0
LWPOLYLINE
  5
57D
100
AcDbEntity
  8
02___PRT_ALL_AXES
100
AcDbPolyline
 62
7
  6
CONTINUOUS
 90
4
 70
0
 10
16.9793823357
 20
5.3218077132
 10
17.0080464523
 20
5.3015417614
 10
17.0368846042
 20
5.279831104
 10
17.06585233
 20
5.2567643443
  0
LWPOLYLINE
  5
57E
100
AcDbEntity
  8
02___PRT_ALL_AXES
100
AcDbPolyline
 62
7
  6
CONTINUOUS
 90
4
 70
0
 10
16.8327314847
 20
5.4605728879
 10
16.8040727161
 20
5.4808349343
 10
16.7752341084
 20
5.5025457056
 10
16.7462614904
 20
5.5256162568
  0
LWPOLYLINE
  5
57F
100
AcDbEntity
  8
02___PRT_ALL_AXES
100
AcDbPolyline
 62
7
  6
CONTINUOUS
 90
4
 70
0
 10
16.9793823357
 20
5.3700263599
 10
17.0080464523
 20
5.3497604081
 10
17.0368846042
 20
5.3280497507
 10
17.06585233
 20
5.304982991
  0
LWPOLYLINE
  5
580
100
AcDbEntity
  8
02___PRT_ALL_AXES
100
AcDbPolyline
 62
7
  6
CONTINUOUS
 90
4
 70
0
 10
16.8327314847
 20
5.5570101812
 10
16.8040727161
 20
5.5772722277
 10
16.7752341084
 20
5.598982999
 10
16.7462614904
 20
5.6220535501
  0
LWPOLYLINE
  5
581
100
AcDbEntity
  8
02___PRT_ALL_AXES
100
AcDbPolyline
 62
7
  6
CONTINUOUS
 90
4
 70
0
 10
16.9793823357
 20
5.4664636532
 10
17.0080464523
 20
5.4461977014
 10
17.0368846042
 20
5.4244870441
 10
17.06585233
 20
5.4014202843
  0
LWPOLYLINE
  5
582
100
AcDbEntity
  8
02___PRT_ALL_AXES
100
AcDbPolyline
 62
7
  6
CONTINUOUS
 90
4
 70
0
 10
16.9793823357
 20
5.2253704198
 10
17.0082368988
 20
5.2049653641
 10
17.0376128027
 20
5.1828290631
 10
17.06585233
 20
5.1603270509
  0
LINE
  5
583
100
AcDbEntity
  8
0
100
AcDbLine
 62
7
  6
CONTINUOUS
 10
16.8385775455
 20
5.2164728951
 11
16.8393229773
 21
5.2157940959
  0
LINE
  5
584
100
AcDbEntity
  8
02___PRT_ALL_AXES
100
AcDbLine
 62
7
  6
CONTINUOUS
 10
16.8327314847
 20
5.3071324904
 11
16.8018038935
 21
5.3378870478
  0
LWPOLYLINE
  5
585
100
AcDbEntity
  8
0
100
AcDbPolyline
 62
7
  6
CONTINUOUS
 90
4
 70
0
 10
16.8393235258
 20
5.2157937855
 10
16.7950686885
 20
5.2607783569
 10
16.7629743661
 20
5.3095807462
 10
16.7576716558
 20
5.323655891
  0
LWPOLYLINE
  5
586
100
AcDbEntity
  8
0
100
AcDbPolyline
 62
7
  6
CONTINUOUS
 90
14
 70
0
 10
17.8664192177
 20
10.0507350373
 10
17.9259361784
 20
10.0779221258
 10
17.9816293501
 20
10.1076881456
 10
18.033163448
 20
10.1398539082
 10
18.080230137
 20
10.1742269932
 10
18.1225474593
 20
10.2106018385
 10
18.1598603066
 20
10.2487595618
 10
18.1919439179
 20
10.2884703896
 10
18.2186052235
 20
10.3294949371
 10
18.2396854919
 20
10.3715887883
 10
18.2550592121
 20
10.4145038873
 10
18.2646322678
 20
10.4579849252
 10
18.2683441339
 20
10.5017700204
 10
18.2683198592
 20
10.5144833518
  0
LWPOLYLINE
  5
587
100
AcDbEntity
  8
02___PRT_ALL_AXES
100
AcDbPolyline
 62
7
  6
CONTINUOUS
 90
3
 70
0
 10
16.8327314847
 20
5.6052288279
 10
16.8040727161
 20
5.6254908743
 10
16.7835351736
 20
5.6409522965
  0
LWPOLYLINE
  5
588
100
AcDbEntity
  8
02___PRT_ALL_AXES
100
AcDbPolyline
 62
7
  6
CONTINUOUS
 90
4
 70
0
 10
16.9793823357
 20
5.5146822999
 10
17.0080464523
 20
5.4944163481
 10
17.0368846042
 20
5.4727056907
 10
17.06585233
 20
5.449638931
  0
LWPOLYLINE
  5
589
100
AcDbEntity
  8
02___PRT_ALL_AXES
100
AcDbPolyline
 62
7
  6
CONTINUOUS
 90
4
 70
0
 10
16.9793823357
 20
5.5629009466
 10
17.0080411978
 20
5.5426388319
 10
17.0368787929
 20
5.5209288411
 10
17.06585233
 20
5.4978575777
  0
LINE
  5
58A
100
AcDbEntity
  8
02___PRT_ALL_AXES
100
AcDbLine
 62
7
  6
CONTINUOUS
 10
17.045084362
 20
5.562613585
 11
17.06585233
 21
5.5460762244
  0
LINE
  5
58B
100
AcDbEntity
  8
02___PRT_ALL_AXES
100
AcDbLine
 62
7
  6
CONTINUOUS
 10
16.8327314847
 20
5.4517884304
 11
16.7985639171
 21
5.4849821621
  0
LINE
  5
58C
100
AcDbEntity
  8
02___PRT_ALL_AXES
100
AcDbLine
 62
7
  6
CONTINUOUS
 10
16.8327314847
 20
5.4035697837
 11
16.8012749208
 21
5.4347225714
  0
LINE
  5
58D
100
AcDbEntity
  8
02___PRT_ALL_AXES
100
AcDbLine
 62
7
  6
CONTINUOUS
 10
16.8327314847
 20
5.5482257238
 11
16.8014195578
 21
5.5792696234
  0
LINE
  5
58E
100
AcDbEntity
  8
02___PRT_ALL_AXES
100
AcDbLine
 62
7
  6
CONTINUOUS
 10
16.8327314847
 20
5.5964443704
 11
16.8016841258
 21
5.6272890935
  0
LINE
  5
58F
100
AcDbEntity
  8
02___PRT_ALL_AXES
100
AcDbLine
 62
7
  6
CONTINUOUS
 10
16.8327314847
 20
5.355351137
 11
16.8017699818
 21
5.386131358
  0
LINE
  5
590
100
AcDbEntity
  8
02___PRT_ALL_AXES
100
AcDbLine
 62
7
  6
CONTINUOUS
 10
16.8327314847
 20
5.5000070771
 11
16.8016111637
 21
5.5309498241
  0
LWPOLYLINE
  5
591
100
AcDbEntity
  8
02___PRT_ALL_AXES
100
AcDbPolyline
 62
7
  6
CONTINUOUS
 90
3
 70
0
 10
16.9425293274
 20
6.0045456513
 10
16.8193247589
 20
6.0376497009
 10
16.704786513
 20
6.0805497614
  0
LINE
  5
592
100
AcDbEntity
  8
02___PRT_ALL_AXES
100
AcDbLine
 62
7
  6
CONTINUOUS
 10
16.8749236994
 20
6.0199280891
 11
16.8453441433
 21
6.0306585073
  0
LINE
  5
593
100
AcDbEntity
  8
02___PRT_ALL_AXES
100
AcDbLine
 62
7
  6
CONTINUOUS
 10
16.704786513
 20
6.0805497614
 11
16.6010251839
 21
6.1326140337
  0
LWPOLYLINE
  5
594
100
AcDbEntity
  8
02___PRT_ALL_AXES
100
AcDbPolyline
 62
7
  6
CONTINUOUS
 90
7
 70
0
 10
16.6010251839
 20
6.1326140337
 10
16.513083069
 20
6.1907602986
 10
16.4390034659
 20
6.2555905977
 10
16.3803311763
 20
6.3257710361
 10
16.3381735745
 20
6.3996603575
 10
16.3129553982
 20
6.4756317906
 10
16.3045875307
 20
6.5524522225
  0
LWPOLYLINE
  5
595
100
AcDbEntity
  8
02___PRT_ALL_AXES
100
AcDbPolyline
 62
7
  6
CONTINUOUS
 90
7
 70
0
 10
16.5928711555
 20
6.1506371104
 10
16.5009076627
 20
6.2119107854
 10
16.4249841899
 20
6.280116902
 10
16.36664632
 20
6.3538669804
 10
16.3270816439
 20
6.4316596816
 10
16.3070955843
 20
6.5119113707
 10
16.3045875307
 20
6.5524522225
  0
LINE
  5
596
100
AcDbEntity
  8
02___PRT_ALL_AXES
100
AcDbLine
 62
7
  6
CONTINUOUS
 10
16.7181078427
 20
5.3820062623
 11
16.7462614904
 21
5.33274167
  0
LINE
  5
597
100
AcDbEntity
  8
02___PRT_ALL_AXES
100
AcDbLine
 62
7
  6
CONTINUOUS
 10
16.7181078427
 20
5.430224909
 11
16.7462614904
 21
5.3809603167
  0
LINE
  5
598
100
AcDbEntity
  8
02___PRT_ALL_AXES
100
AcDbLine
 62
7
  6
CONTINUOUS
 10
16.7181078427
 20
5.4362522398
 11
16.7462614904
 21
5.3869876476
  0
LINE
  5
599
100
AcDbEntity
  8
02___PRT_ALL_AXES
100
AcDbLine
 62
7
  6
CONTINUOUS
 10
16.7181078427
 20
5.4784435557
 11
16.7462614904
 21
5.4291789634
  0
LINE
  5
59A
100
AcDbEntity
  8
02___PRT_ALL_AXES
100
AcDbLine
 62
7
  6
CONTINUOUS
 10
16.7181078427
 20
5.5748808491
 11
16.7462614904
 21
5.5256162568
  0
LINE
  5
59B
100
AcDbEntity
  8
02___PRT_ALL_AXES
100
AcDbLine
 62
7
  6
CONTINUOUS
 10
16.7172752359
 20
5.5286663681
 11
16.7462614904
 21
5.4773976101
  0
LWPOLYLINE
  5
59C
100
AcDbEntity
  8
AXIS
100
AcDbPolyline
 62
7
  6
CONTINUOUS
 90
7
 70
0
 10
17.9848136381
 20
9.8859782857
 10
18.0767762472
 20
9.9472524028
 10
18.1526987363
 20
10.0154588845
 10
18.2110355425
 20
10.0892092433
 10
18.2505990966
 20
10.1670021348
 10
18.2705839988
 20
10.2472539199
 10
18.2730818916
 20
10.287790048
  0
LWPOLYLINE
  5
59D
100
AcDbEntity
  8
02___PRT_ALL_AXES
100
AcDbPolyline
 62
7
  6
CONTINUOUS
 90
3
 70
0
 10
16.4364543397
 20
6.5222767051
 10
16.5079824069
 20
6.4604731934
 10
16.5928711555
 20
6.4045886496
  0
LINE
  5
59E
100
AcDbEntity
  8
02___PRT_ALL_AXES
100
AcDbLine
 62
7
  6
CONTINUOUS
 10
16.3795108189
 20
6.5889417096
 11
16.4364543397
 21
6.5222767051
  0
LINE
  5
59F
100
AcDbEntity
  8
02___PRT_ALL_AXES
100
AcDbLine
 62
7
  6
CONTINUOUS
 10
16.3381261639
 20
6.6593275501
 11
16.3795108189
 21
6.5889417096
  0
LINE
  5
5A0
100
AcDbEntity
  8
02___PRT_ALL_AXES
100
AcDbLine
 62
7
  6
CONTINUOUS
 10
16.7181078427
 20
5.6230994957
 11
16.7462614904
 21
5.5738349034
  0
LINE
  5
5A1
100
AcDbEntity
  8
02___PRT_ALL_AXES
100
AcDbLine
 62
7
  6
CONTINUOUS
 10
16.7181078427
 20
5.6713181424
 11
16.7462614904
 21
5.6220535501
  0
LINE
  5
5A2
100
AcDbEntity
  8
02___PRT_ALL_AXES
100
AcDbLine
 62
7
  6
CONTINUOUS
 10
16.7212879254
 20
5.6717808132
 11
16.7462614904
 21
5.628080881
  0
LWPOLYLINE
  5
5A3
100
AcDbEntity
  8
AXIS
100
AcDbPolyline
 62
7
  6
CONTINUOUS
 90
3
 70
0
 10
16.3126529373
 20
9.04231214
 10
16.3070949996
 20
9.0199935708
 10
16.3045971068
 20
8.9794574427
  0
LWPOLYLINE
  5
5A4
100
AcDbEntity
  8
0
100
AcDbPolyline
 62
7
  6
CONTINUOUS
 90
4
 70
0
 10
16.7600963158
 20
5.3217251631
 10
16.760535265
 20
5.3205499008
 10
16.7907669887
 20
5.274990157
 10
16.8327314847
 20
5.2326127691
  0
LINE
  5
5A5
100
AcDbEntity
  8
02___PRT_ALL_AXES
100
AcDbLine
 62
7
  6
CONTINUOUS
 10
16.3130084776
 20
6.7322299053
 11
16.3381261639
 21
6.6593275501
  0
LINE
  5
5A6
100
AcDbEntity
  8
02___PRT_ALL_AXES
100
AcDbLine
 62
7
  6
CONTINUOUS
 10
16.7039418045
 20
5.481407887
 11
16.7181078427
 21
5.430224909
  0
LINE
  5
5A7
100
AcDbEntity
  8
02___PRT_ALL_AXES
100
AcDbLine
 62
7
  6
CONTINUOUS
 10
16.7039418045
 20
5.4874352179
 11
16.7181078427
 21
5.4362522398
  0
LINE
  5
5A8
100
AcDbEntity
  8
02___PRT_ALL_AXES
100
AcDbLine
 62
7
  6
CONTINUOUS
 10
16.7039418045
 20
5.5296265337
 11
16.7181078427
 21
5.4784435557
  0
LWPOLYLINE
  5
5A9
100
AcDbEntity
  8
02___PRT_ALL_AXES
100
AcDbPolyline
 62
7
  6
CONTINUOUS
 90
3
 70
0
 10
16.7039418045
 20
5.5356538646
 10
16.7181078427
 20
5.4844708865
 10
16.7462614904
 20
5.4352062942
  0
LINE
  5
5AA
100
AcDbEntity
  8
02___PRT_ALL_AXES
100
AcDbLine
 62
7
  6
CONTINUOUS
 10
16.7039418045
 20
5.6260638271
 11
16.7181078427
 21
5.5748808491
  0
LWPOLYLINE
  5
5AB
100
AcDbEntity
  8
02___PRT_ALL_AXES
100
AcDbPolyline
 62
7
  6
CONTINUOUS
 90
3
 70
0
 10
16.7039418045
 20
5.6320911579
 10
16.7181078427
 20
5.5809081799
 10
16.7462614904
 20
5.5316435876
  0
LINE
  5
5AC
100
AcDbEntity
  8
02___PRT_ALL_AXES
100
AcDbLine
 62
7
  6
CONTINUOUS
 10
16.7039418045
 20
5.6742824738
 11
16.7181078427
 21
5.6230994957
  0
LINE
  5
5AD
100
AcDbEntity
  8
0
100
AcDbLine
 62
7
  6
CONTINUOUS
 10
16.3070955843
 20
8.0741955231
 11
16.30467176
 21
8.1077113296
  0
LWPOLYLINE
  5
5AE
100
AcDbEntity
  8
AXIS
100
AcDbPolyline
 62
7
  6
CONTINUOUS
 90
18
 70
0
 10
16.3045971068
 20
6.8064037657
 10
16.3070955843
 20
6.7658629099
 10
16.3270816439
 20
6.6856112208
 10
16.36664632
 20
6.6078185196
 10
16.4249841899
 20
6.5340684412
 10
16.5009076627
 20
6.4658623246
 10
16.5928711555
 20
6.4045886496
 10
16.6990025568
 20
6.3514947715
 10
16.8171413372
 20
6.3076615286
 10
16.944882532
 20
6.2739812394
 10
17.0796256987
 20
6.2511395373
 10
17.2186278551
 20
6.2396014136
 10
17.3590593181
 20
6.2396017511
 10
17.4980613081
 20
6.2511405431
 10
17.6328041454
 20
6.2739828929
 10
17.7605448544
 20
6.3076637963
 10
17.8786830026
 20
6.3514976071
 10
17.9848136381
 20
6.4045919954
  0
LWPOLYLINE
  5
5AF
100
AcDbEntity
  8
AXIS
100
AcDbPolyline
 62
7
  6
CONTINUOUS
 90
7
 70
0
 10
16.3045971068
 20
7.6711248295
 10
16.3070955843
 20
7.6305839737
 10
16.3270816439
 20
7.5503322846
 10
16.36664632
 20
7.4725395834
 10
16.4249841899
 20
7.398789505
 10
16.5009076627
 20
7.3305833884
 10
16.5928711555
 20
7.2693097134
  0
LWPOLYLINE
  5
5B0
100
AcDbEntity
  8
AXIS
100
AcDbPolyline
 62
7
  6
CONTINUOUS
 90
18
 70
0
 10
16.3045971068
 20
8.1147363789
 10
16.3070955843
 20
8.0741955231
 10
16.3270816439
 20
7.9939438341
 10
16.36664632
 20
7.9161511329
 10
16.4249841899
 20
7.8424010545
 10
16.5009076627
 20
7.7741949378
 10
16.5928711555
 20
7.7129212628
 10
16.6990025568
 20
7.6598273848
 10
16.8171413372
 20
7.6159941419
 10
16.944882532
 20
7.5823138526
 10
17.0796256987
 20
7.5594721506
 10
17.2186278551
 20
7.5479340268
 10
17.3590593181
 20
7.5479343644
 10
17.4980613081
 20
7.5594731564
 10
17.6328041454
 20
7.5823155062
 10
17.7605448544
 20
7.6159964096
 10
17.8786830026
 20
7.6598302204
 10
17.9848136381
 20
7.7129246087
  0
LWPOLYLINE
  5
5B1
100
AcDbEntity
  8
AXIS
100
AcDbPolyline
 62
7
  6
CONTINUOUS
 90
7
 70
0
 10
16.3045971068
 20
8.9794574427
 10
16.3070955843
 20
8.938916587
 10
16.3270816439
 20
8.8586648979
 10
16.36664632
 20
8.7808721967
 10
16.4249841899
 20
8.7071221183
 10
16.5009076627
 20
8.6389160016
 10
16.5928711555
 20
8.5776423266
  0
LWPOLYLINE
  5
5B2
100
AcDbEntity
  8
02___PRT_ALL_AXES
100
AcDbPolyline
 62
7
  6
CONTINUOUS
 90
7
 70
0
 10
16.4030127276
 20
6.1184844023
 10
16.4036323199
 20
6.0993594825
 10
16.418456498
 20
6.0234024639
 10
16.452723594
 20
5.9495694188
 10
16.5056681377
 20
5.8795096552
 10
16.5761074355
 20
5.8147881926
 10
16.6624679899
 20
5.7568508015
  0
LINE
  5
5B3
100
AcDbEntity
  8
0
100
AcDbLine
 62
7
  6
CONTINUOUS
 10
16.3046625006
 20
8.1077228456
 11
16.3141452388
 21
7.6641788729
  0
LINE
  5
5B4
100
AcDbEntity
  8
0
100
AcDbLine
 62
7
  6
CONTINUOUS
 10
16.3046625006
 20
9.4160554589
 11
16.3141452388
 21
8.9725114862
  0
LINE
  5
5B5
100
AcDbEntity
  8
02___PRT_ALL_AXES
100
AcDbLine
 62
7
  6
CONTINUOUS
 10
16.3045875307
 20
6.8064037616
 11
16.3045875307
 21
6.5524522225
  0
LINE
  5
5B6
100
AcDbEntity
  8
AXIS
100
AcDbLine
 62
7
  6
CONTINUOUS
 10
16.3045875307
 20
6.8064037616
 11
16.3045875307
 21
7.6711248254
  0
LINE
  5
5B7
100
AcDbEntity
  8
AXIS
100
AcDbLine
 62
7
  6
CONTINUOUS
 10
16.3045875307
 20
8.1147363749
 11
16.3045875307
 21
8.9794574387
  0
LINE
  5
5B8
100
AcDbEntity
  8
AXIS
100
AcDbLine
 62
7
  6
CONTINUOUS
 10
16.3045875307
 20
9.4230689882
 11
16.3045875307
 21
10.287790052
  0
LINE
  5
5B9
100
AcDbEntity
  8
0
100
AcDbLine
 62
7
  6
CONTINUOUS
 10
16.3046625006
 20
10.2948035813
 11
16.3093591392
 21
10.5144833519
  0
LWPOLYLINE
  5
5BA
100
AcDbEntity
  8
AXIS
100
AcDbPolyline
 62
7
  6
CONTINUOUS
 90
3
 70
0
 10
16.3126529373
 20
7.7339795267
 10
16.3070949996
 20
7.7116609576
 10
16.3045971068
 20
7.6711248295
  0
LWPOLYLINE
  5
5BB
100
AcDbEntity
  8
02___PRT_ALL_AXES
100
AcDbPolyline
 62
7
  6
CONTINUOUS
 90
3
 70
0
 10
16.7039418045
 20
5.6803098046
 10
16.7181078427
 20
5.6291268266
 10
16.7462614904
 20
5.5798622343
  0
LINE
  5
5BC
100
AcDbEntity
  8
02___PRT_ALL_AXES
100
AcDbLine
 62
7
  6
CONTINUOUS
 10
16.7174542971
 20
5.6736794525
 11
16.7181078427
 21
5.6713181424
  0
LINE
  5
5BD
100
AcDbEntity
  8
02___PRT_ALL_AXES
100
AcDbLine
 62
7
  6
CONTINUOUS
 10
16.7034290305
 20
5.5819541901
 11
16.7172752359
 21
5.5286663681
  0
LWPOLYLINE
  5
5BE
100
AcDbEntity
  8
02___PRT_ALL_AXES
100
AcDbPolyline
 62
7
  6
CONTINUOUS
 90
3
 70
0
 10
16.7034290305
 20
5.587981521
 10
16.7172752359
 20
5.534693699
 10
16.7462614904
 20
5.4834249409
  0
LINE
  5
5BF
100
AcDbEntity
  8
02___PRT_ALL_AXES
100
AcDbLine
 62
7
  6
CONTINUOUS
 10
16.3045875307
 20
6.8064037549
 11
16.3130084776
 21
6.7322299053
  0
LINE
  5
5C0
100
AcDbEntity
  8
0
100
AcDbLine
 62
7
  6
CONTINUOUS
 10
16.3070955843
 20
9.3825281364
 11
16.30467176
 21
9.4160439429
  0
LWPOLYLINE
  5
5C1
100
AcDbEntity
  8
02___PRT_ALL_AXES
100
AcDbPolyline
 62
7
  6
CONTINUOUS
 90
3
 70
0
 10
16.702225326
 20
5.4584916439
 10
16.7039418045
 20
5.4331892404
 10
16.7181078427
 20
5.3820062623
  0
LWPOLYLINE
  5
5C2
100
AcDbEntity
  8
02___PRT_ALL_AXES
100
AcDbPolyline
 62
7
  6
CONTINUOUS
 90
4
 70
0
 10
16.702225326
 20
5.4645189748
 10
16.7039418045
 20
5.4392165712
 10
16.7181078427
 20
5.3880335932
 10
16.7462614904
 20
5.3387690009
  0
LINE
  5
5C3
100
AcDbEntity
  8
02___PRT_ALL_AXES
100
AcDbLine
 62
7
  6
CONTINUOUS
 10
16.702225326
 20
5.5067102906
 11
16.7039418045
 21
5.481407887
  0
LINE
  5
5C4
100
AcDbEntity
  8
02___PRT_ALL_AXES
100
AcDbLine
 62
7
  6
CONTINUOUS
 10
16.702225326
 20
5.5127376214
 11
16.7039418045
 21
5.4874352179
  0
LINE
  5
5C5
100
AcDbEntity
  8
02___PRT_ALL_AXES
100
AcDbLine
 62
7
  6
CONTINUOUS
 10
16.702225326
 20
5.5549289373
 11
16.7039418045
 21
5.5296265337
  0
LINE
  5
5C6
100
AcDbEntity
  8
02___PRT_ALL_AXES
100
AcDbLine
 62
7
  6
CONTINUOUS
 10
16.702225326
 20
5.5609562681
 11
16.7039418045
 21
5.5356538646
  0
LINE
  5
5C7
100
AcDbEntity
  8
02___PRT_ALL_AXES
100
AcDbLine
 62
7
  6
CONTINUOUS
 10
16.702225326
 20
5.6513662307
 11
16.7039418045
 21
5.6260638271
  0
LINE
  5
5C8
100
AcDbEntity
  8
02___PRT_ALL_AXES
100
AcDbLine
 62
7
  6
CONTINUOUS
 10
16.702225326
 20
5.6573935615
 11
16.7039418045
 21
5.6320911579
  0
LINE
  5
5C9
100
AcDbEntity
  8
02___PRT_ALL_AXES
100
AcDbLine
 62
7
  6
CONTINUOUS
 10
16.7035143634
 20
5.6805833316
 11
16.7039418045
 21
5.6742824738
  0
LINE
  5
5CA
100
AcDbEntity
  8
02___PRT_ALL_AXES
100
AcDbLine
 62
7
  6
CONTINUOUS
 10
16.703937464
 20
5.6803737872
 11
16.7039418045
 21
5.6803098046
  0
LWPOLYLINE
  5
5CB
100
AcDbEntity
  8
AXIS
100
AcDbPolyline
 62
7
  6
CONTINUOUS
 90
18
 70
0
 10
16.3045971068
 20
9.4230689922
 10
16.3070955843
 20
9.3825281364
 10
16.3270816439
 20
9.3022764474
 10
16.36664632
 20
9.2244837461
 10
16.4249841899
 20
9.1507336677
 10
16.5009076627
 20
9.0825275511
 10
16.5928711555
 20
9.0212538761
 10
16.6990025568
 20
8.968159998
 10
16.8171413372
 20
8.9243267552
 10
16.944882532
 20
8.8906464659
 10
17.0796256987
 20
8.8678047638
 10
17.2186278551
 20
8.8562666401
 10
17.3590593181
 20
8.8562669777
 10
17.4980613081
 20
8.8678057696
 10
17.6328041454
 20
8.8906481195
 10
17.7605448544
 20
8.9243290228
 10
17.8786830026
 20
8.9681628336
 10
17.9848136381
 20
9.0212572219
  0
LWPOLYLINE
  5
5CC
100
AcDbEntity
  8
AXIS
100
AcDbPolyline
 62
7
  6
CONTINUOUS
 90
7
 70
0
 10
16.3045971068
 20
10.287790056
 10
16.3070955843
 20
10.2472492002
 10
16.3270816439
 20
10.1669975112
 10
16.36664632
 20
10.0892048099
 10
16.4249841899
 20
10.0154547315
 10
16.5009076627
 20
9.9472486149
 10
16.5928711555
 20
9.8859749399
  0
LINE
  5
5CD
100
AcDbEntity
  8
02___PRT_ALL_AXES
100
AcDbLine
 62
7
  6
CONTINUOUS
 10
16.702225326
 20
5.603147584
 11
16.7034290305
 21
5.5819541901
  0
LINE
  5
5CE
100
AcDbEntity
  8
02___PRT_ALL_AXES
100
AcDbLine
 62
7
  6
CONTINUOUS
 10
16.702225326
 20
5.6091749148
 11
16.7034290305
 21
5.587981521
  0
LWPOLYLINE
  5
5CF
100
AcDbEntity
  8
0
100
AcDbPolyline
 62
7
  6
CONTINUOUS
 90
7
 70
0
 10
16.3046717594
 20
10.2948151046
 10
16.3070955843
 20
10.2472492002
 10
16.3270816439
 20
10.1669975112
 10
16.36664632
 20
10.0892048099
 10
16.4249841899
 20
10.0154547315
 10
16.5009076627
 20
9.9472486149
 10
16.5928711555
 20
9.8859749399
  0
LWPOLYLINE
  5
5D0
100
AcDbEntity
  8
0
100
AcDbPolyline
 62
7
  6
CONTINUOUS
 90
11
 70
0
 10
16.3093591392
 20
10.5144833518
 10
16.3115083829
 20
10.4694169508
 10
16.3195534986
 20
10.4258291015
 10
16.3334331558
 20
10.3827030166
 10
16.3530758145
 20
10.3402989545
 10
16.378281995
 20
10.2990092905
 10
16.4089113702
 20
10.2590083999
 10
16.4452712439
 20
10.2200353498
 10
16.487978153
 20
10.1818552457
 10
16.5379043206
 20
10.1443628278
 10
16.5961924196
 20
10.1076057014
  0
LINE
  5
5D1
100
AcDbEntity
  8
02___PRT_ALL_AXES
100
AcDbLine
 62
7
  6
CONTINUOUS
 10
16.4030127276
 20
6.2986406613
 11
16.4030127276
 21
6.1184844023
  0
LWPOLYLINE
  5
5D2
100
AcDbEntity
  8
0
100
AcDbPolyline
 62
7
  6
CONTINUOUS
 90
11
 70
0
 10
17.9848136381
 20
9.0212572219
 10
17.8786830026
 20
8.9681628336
 10
17.7605448544
 20
8.9243290228
 10
17.6328041454
 20
8.8906481195
 10
17.4980613081
 20
8.8678057696
 10
17.3590593181
 20
8.8562669777
 10
17.2186278551
 20
8.8562666401
 10
17.0796256987
 20
8.8678047638
 10
16.944882532
 20
8.8906464659
 10
16.8171413372
 20
8.9243267552
 10
16.6990025568
 20
8.968159998
  0
LWPOLYLINE
  5
5D3
100
AcDbEntity
  8
AXIS
100
AcDbPolyline
 62
7
  6
CONTINUOUS
 90
12
 70
0
 10
16.5928711555
 20
7.2693097134
 10
16.6990025568
 20
7.2162158353
 10
16.8171413372
 20
7.1723825924
 10
16.944882532
 20
7.1387023032
 10
17.0796256987
 20
7.1158606011
 10
17.2186278551
 20
7.1043224774
 10
17.3590593181
 20
7.1043228149
 10
17.4980613081
 20
7.1158616069
 10
17.6328041454
 20
7.1387039567
 10
17.7605448544
 20
7.1723848601
 10
17.8786830026
 20
7.2162186709
 10
17.9848136381
 20
7.2693130592
  0
LWPOLYLINE
  5
5D4
100
AcDbEntity
  8
0
100
AcDbPolyline
 62
7
  6
CONTINUOUS
 90
7
 70
0
 10
16.5995769468
 20
7.2731812807
 10
16.5084995403
 20
7.3338645718
 10
16.433307605
 20
7.4014135091
 10
16.3755318319
 20
7.4744529911
 10
16.3363483692
 20
7.5514961444
 10
16.3165548792
 20
7.6309745927
 10
16.3141544089
 20
7.6641674679
  0
LINE
  5
5D5
100
AcDbEntity
  8
0
100
AcDbLine
 62
7
  6
CONTINUOUS
 10
16.36664632
 20
7.9161511329
 11
16.3270816439
 21
7.9939438341
  0
LINE
  5
5D6
100
AcDbEntity
  8
0
100
AcDbLine
 62
7
  6
CONTINUOUS
 10
16.3270816439
 20
7.9939438341
 11
16.3070955843
 21
8.0741955231
  0
LWPOLYLINE
  5
5D7
100
AcDbEntity
  8
0
100
AcDbPolyline
 62
7
  6
CONTINUOUS
 90
3
 70
0
 10
16.8327314847
 20
5.2326127691
 10
16.8342312804
 20
5.2233694594
 10
16.8385775455
 20
5.2164728951
  0
LINE
  5
5D8
100
AcDbEntity
  8
02___PRT_ALL_AXES
100
AcDbLine
 62
7
  6
CONTINUOUS
 10
16.7462614904
 20
5.33274167
 11
16.7462614904
 21
5.3387690009
  0
LINE
  5
5D9
100
AcDbEntity
  8
02___PRT_ALL_AXES
100
AcDbLine
 62
7
  6
CONTINUOUS
 10
16.7462614904
 20
5.3809603167
 11
16.7462614904
 21
5.3869876476
  0
LINE
  5
5DA
100
AcDbEntity
  8
02___PRT_ALL_AXES
100
AcDbLine
 62
7
  6
CONTINUOUS
 10
16.7462614904
 20
5.4291789634
 11
16.7462614904
 21
5.4352062942
  0
LINE
  5
5DB
100
AcDbEntity
  8
02___PRT_ALL_AXES
100
AcDbLine
 62
7
  6
CONTINUOUS
 10
16.7462614904
 20
5.4773976101
 11
16.7462614904
 21
5.4834249409
  0
LINE
  5
5DC
100
AcDbEntity
  8
02___PRT_ALL_AXES
100
AcDbLine
 62
7
  6
CONTINUOUS
 10
16.7462614904
 20
5.5256162568
 11
16.7462614904
 21
5.5316435876
  0
LINE
  5
5DD
100
AcDbEntity
  8
02___PRT_ALL_AXES
100
AcDbLine
 62
7
  6
CONTINUOUS
 10
16.7462614904
 20
5.5738349034
 11
16.7462614904
 21
5.5798622343
  0
LINE
  5
5DE
100
AcDbEntity
  8
02___PRT_ALL_AXES
100
AcDbLine
 62
7
  6
CONTINUOUS
 10
16.7462614904
 20
5.6220535501
 11
16.7462614904
 21
5.628080881
  0
LINE
  5
5DF
100
AcDbEntity
  8
02___PRT_ALL_AXES
100
AcDbLine
 62
7
  6
CONTINUOUS
 10
16.8327314847
 20
5.6052288279
 11
16.8327314847
 21
5.5964443704
  0
LINE
  5
5E0
100
AcDbEntity
  8
02___PRT_ALL_AXES
100
AcDbLine
 62
7
  6
CONTINUOUS
 10
16.8327314847
 20
5.5570101812
 11
16.8327314847
 21
5.5482257238
  0
LINE
  5
5E1
100
AcDbEntity
  8
02___PRT_ALL_AXES
100
AcDbLine
 62
7
  6
CONTINUOUS
 10
16.8327314847
 20
5.5087915346
 11
16.8327314847
 21
5.5000070771
  0
LINE
  5
5E2
100
AcDbEntity
  8
02___PRT_ALL_AXES
100
AcDbLine
 62
7
  6
CONTINUOUS
 10
16.8327314847
 20
5.4605728879
 11
16.8327314847
 21
5.4517884304
  0
LINE
  5
5E3
100
AcDbEntity
  8
02___PRT_ALL_AXES
100
AcDbLine
 62
7
  6
CONTINUOUS
 10
16.8327314847
 20
5.4123542412
 11
16.8327314847
 21
5.4035697837
  0
LINE
  5
5E4
100
AcDbEntity
  8
02___PRT_ALL_AXES
100
AcDbLine
 62
7
  6
CONTINUOUS
 10
16.8327314847
 20
5.3641355945
 11
16.8327314847
 21
5.355351137
  0
LINE
  5
5E5
100
AcDbEntity
  8
02___PRT_ALL_AXES
100
AcDbLine
 62
7
  6
CONTINUOUS
 10
16.8327314847
 20
5.3159169478
 11
16.8327314847
 21
5.3071324904
  0
LINE
  5
5E6
100
AcDbEntity
  8
0
100
AcDbLine
 62
7
  6
CONTINUOUS
 10
16.8327314847
 20
5.2676983011
 11
16.8327314847
 21
5.2326127691
  0
LINE
  5
5E7
100
AcDbEntity
  8
02___PRT_ALL_AXES
100
AcDbLine
 62
7
  6
CONTINUOUS
 10
16.703690023
 20
5.6779939543
 11
16.702225326
 21
5.6573935615
  0
LINE
  5
5E8
100
AcDbEntity
  8
0
100
AcDbLine
 62
7
  6
CONTINUOUS
 10
18.1526987363
 20
9.1507378206
 11
18.0767762472
 21
9.082531339
  0
LINE
  5
5E9
100
AcDbEntity
  8
0
100
AcDbLine
 62
7
  6
CONTINUOUS
 10
18.0767762472
 20
9.082531339
 11
17.9848136381
 21
9.0212572219
  0
LWPOLYLINE
  5
5EA
100
AcDbEntity
  8
AXIS
100
AcDbPolyline
 62
7
  6
CONTINUOUS
 90
6
 70
0
 10
17.9848136381
 20
9.0212572219
 10
18.0767762472
 20
9.082531339
 10
18.1526987363
 20
9.1507378206
 10
18.2110355425
 20
9.2244881795
 10
18.2505990966
 20
9.3022810709
 10
18.2705839988
 20
9.3825328561
  0
LINE
  5
5EB
100
AcDbEntity
  8
0
100
AcDbLine
 62
7
  6
CONTINUOUS
 10
16.5928711555
 20
7.7129212628
 11
16.5009076627
 21
7.7741949378
  0
LINE
  5
5EC
100
AcDbEntity
  8
0
100
AcDbLine
 62
7
  6
CONTINUOUS
 10
16.5009076627
 20
7.7741949378
 11
16.4249841899
 21
7.8424010545
  0
LINE
  5
5ED
100
AcDbEntity
  8
0
100
AcDbLine
 62
7
  6
CONTINUOUS
 10
16.4249841899
 20
7.8424010545
 11
16.36664632
 21
7.9161511329
  0
LINE
  5
5EE
100
AcDbEntity
  8
0
100
AcDbLine
 62
7
  6
CONTINUOUS
 10
16.3270816439
 20
9.3022764474
 11
16.3070955843
 21
9.3825281364
  0
LWPOLYLINE
  5
5EF
100
AcDbEntity
  8
0
100
AcDbPolyline
 62
7
  6
CONTINUOUS
 90
4
 70
0
 10
16.9793823357
 20
5.1479457763
 10
16.9806218906
 20
5.1388527132
 10
16.9842116056
 20
5.1323929334
 10
16.9867588643
 20
5.1303715792
  0
LWPOLYLINE
  5
5F0
100
AcDbEntity
  8
02___PRT_ALL_AXES
100
AcDbPolyline
 62
7
  6
CONTINUOUS
 90
7
 70
0
 10
17.1813405451
 20
4.517625333
 10
17.1816134288
 20
4.5131974607
 10
17.1837963063
 20
4.5044323712
 10
17.1881175602
 20
4.4959358524
 10
17.1944892223
 20
4.4878808688
 10
17.202781584
 20
4.4804313968
 10
17.2128258367
 20
4.473739086
  0
LINE
  5
5F1
100
AcDbEntity
  8
02___PRT_ALL_AXES
100
AcDbLine
 62
7
  6
CONTINUOUS
 10
16.9793823357
 20
5.5716854041
 11
16.9793823357
 21
5.5629009466
  0
LINE
  5
5F2
100
AcDbEntity
  8
02___PRT_ALL_AXES
100
AcDbLine
 62
7
  6
CONTINUOUS
 10
16.9793823357
 20
5.5234667574
 11
16.9793823357
 21
5.5146822999
  0
LINE
  5
5F3
100
AcDbEntity
  8
02___PRT_ALL_AXES
100
AcDbLine
 62
7
  6
CONTINUOUS
 10
16.9793823357
 20
5.4752481107
 11
16.9793823357
 21
5.4664636532
  0
LINE
  5
5F4
100
AcDbEntity
  8
02___PRT_ALL_AXES
100
AcDbLine
 62
7
  6
CONTINUOUS
 10
16.9793823357
 20
5.427029464
 11
16.9793823357
 21
5.4182450066
  0
LINE
  5
5F5
100
AcDbEntity
  8
02___PRT_ALL_AXES
100
AcDbLine
 62
7
  6
CONTINUOUS
 10
16.9793823357
 20
5.3788108173
 11
16.9793823357
 21
5.3700263599
  0
LINE
  5
5F6
100
AcDbEntity
  8
02___PRT_ALL_AXES
100
AcDbLine
 62
7
  6
CONTINUOUS
 10
16.9793823357
 20
5.3305921707
 11
16.9793823357
 21
5.3218077132
  0
LINE
  5
5F7
100
AcDbEntity
  8
02___PRT_ALL_AXES
100
AcDbLine
 62
7
  6
CONTINUOUS
 10
16.9793823357
 20
5.282373524
 11
16.9793823357
 21
5.2735890665
  0
LINE
  5
5F8
100
AcDbEntity
  8
02___PRT_ALL_AXES
100
AcDbLine
 62
7
  6
CONTINUOUS
 10
16.9793823357
 20
5.2341548773
 11
16.9793823357
 21
5.2253704198
  0
LINE
  5
5F9
100
AcDbEntity
  8
0
100
AcDbLine
 62
7
  6
CONTINUOUS
 10
16.9793823357
 20
5.1859362306
 11
16.9793823357
 21
5.1479457763
  0
LINE
  5
5FA
100
AcDbEntity
  8
02___PRT_ALL_AXES
100
AcDbLine
 62
7
  6
CONTINUOUS
 10
17.06585233
 20
5.5460762244
 11
17.06585233
 21
5.5400488936
  0
LINE
  5
5FB
100
AcDbEntity
  8
02___PRT_ALL_AXES
100
AcDbLine
 62
7
  6
CONTINUOUS
 10
17.06585233
 20
5.4978575777
 11
17.06585233
 21
5.4918302469
  0
LINE
  5
5FC
100
AcDbEntity
  8
02___PRT_ALL_AXES
100
AcDbLine
 62
7
  6
CONTINUOUS
 10
17.06585233
 20
5.449638931
 11
17.06585233
 21
5.4436116002
  0
LINE
  5
5FD
100
AcDbEntity
  8
02___PRT_ALL_AXES
100
AcDbLine
 62
7
  6
CONTINUOUS
 10
17.06585233
 20
5.4014202843
 11
17.06585233
 21
5.3953929535
  0
LINE
  5
5FE
100
AcDbEntity
  8
02___PRT_ALL_AXES
100
AcDbLine
 62
7
  6
CONTINUOUS
 10
17.06585233
 20
5.3532016377
 11
17.06585233
 21
5.3471743068
  0
LINE
  5
5FF
100
AcDbEntity
  8
02___PRT_ALL_AXES
100
AcDbLine
 62
7
  6
CONTINUOUS
 10
17.06585233
 20
5.304982991
 11
17.06585233
 21
5.2989556601
  0
LINE
  5
600
100
AcDbEntity
  8
02___PRT_ALL_AXES
100
AcDbLine
 62
7
  6
CONTINUOUS
 10
17.06585233
 20
5.2567643443
 11
17.06585233
 21
5.2507370135
  0
LINE
  5
601
100
AcDbEntity
  8
02___PRT_ALL_AXES
100
AcDbLine
 62
7
  6
CONTINUOUS
 10
17.06585233
 20
5.2085456976
 11
17.06585233
 21
5.2025183668
  0
LINE
  5
602
100
AcDbEntity
  8
02___PRT_ALL_AXES
100
AcDbLine
 62
7
  6
CONTINUOUS
 10
17.06585233
 20
5.1603270509
 11
17.06585233
 21
5.1542997201
  0
LINE
  5
603
100
AcDbEntity
  8
02___PRT_ALL_AXES
100
AcDbLine
 62
7
  6
CONTINUOUS
 10
16.7036561421
 20
5.5810801396
 11
16.702225326
 21
5.5609562681
  0
LINE
  5
604
100
AcDbEntity
  8
02___PRT_ALL_AXES
100
AcDbLine
 62
7
  6
CONTINUOUS
 10
16.703690023
 20
5.5333380143
 11
16.702225326
 21
5.5127376214
  0
LINE
  5
605
100
AcDbEntity
  8
02___PRT_ALL_AXES
100
AcDbLine
 62
7
  6
CONTINUOUS
 10
16.703690023
 20
5.4851193676
 11
16.702225326
 21
5.4645189748
  0
LINE
  5
606
100
AcDbEntity
  8
02___PRT_ALL_AXES
100
AcDbLine
 62
7
  6
CONTINUOUS
 10
16.7038389869
 20
5.6275794493
 11
16.702225326
 21
5.6091749148
  0
LWPOLYLINE
  5
607
100
AcDbEntity
  8
AXIS
100
AcDbPolyline
 62
7
  6
CONTINUOUS
 90
7
 70
0
 10
17.9848136381
 20
8.5776456725
 10
18.0767762472
 20
8.6389197896
 10
18.1526987363
 20
8.7071262712
 10
18.2110355425
 20
8.78087663
 10
18.2505990966
 20
8.8586695215
 10
18.2705839988
 20
8.9389213066
 10
18.2730818916
 20
8.9794574347
  0
LINE
  5
608
100
AcDbEntity
  8
0
100
AcDbLine
 62
7
  6
CONTINUOUS
 10
16.6990025568
 20
7.6598273848
 11
16.5928711555
 21
7.7129212628
  0
LINE
  5
609
100
AcDbEntity
  8
02___PRT_ALL_AXES
100
AcDbLine
 62
7
  6
CONTINUOUS
 10
17.1813394992
 20
4.5176253325
 11
17.1813394992
 21
5.0837001639
  0
LWPOLYLINE
  5
60A
100
AcDbEntity
  8
0
100
AcDbPolyline
 62
7
  6
CONTINUOUS
 90
14
 70
0
 10
18.1632663904
 20
10.4456858389
 10
18.1774040798
 20
10.4851522323
 10
18.1862072031
 20
10.5251390604
 10
18.189620103
 20
10.5654054815
 10
18.1876205338
 20
10.6057036124
 10
18.1802211797
 20
10.6457885702
 10
18.1674561229
 20
10.6854488342
 10
18.1493911708
 20
10.7244450357
 10
18.1262097861
 20
10.7624163386
 10
18.0980409439
 20
10.7992024759
 10
18.0646019194
 20
10.8350434846
 10
18.0253255827
 20
10.8701553611
 10
17.9794097554
 20
10.904634928
 10
17.9258175912
 20
10.9384300569
  0
LINE
  5
60B
100
AcDbEntity
  8
0
100
AcDbLine
 62
7
  6
CONTINUOUS
 10
18.2110355425
 20
9.2244881795
 11
18.1526987363
 21
9.1507378206
  0
LINE
  5
60C
100
AcDbEntity
  8
0
100
AcDbLine
 62
7
  6
CONTINUOUS
 10
16.36664632
 20
9.2244837461
 11
16.3270816439
 21
9.3022764474
  0
LINE
  5
60D
100
AcDbEntity
  8
02___PRT_ALL_AXES
100
AcDbLine
 62
7
  6
CONTINUOUS
 10
17.3963394992
 20
4.5176253325
 11
17.3963394992
 21
5.0836595614
  0
LINE
  5
60E
100
AcDbEntity
  8
0
100
AcDbLine
 62
7
  6
CONTINUOUS
 10
18.2505990966
 20
9.3022810709
 11
18.2110355425
 21
9.2244881795
  0
LINE
  5
60F
100
AcDbEntity
  8
0
100
AcDbLine
 62
7
  6
CONTINUOUS
 10
16.4249841899
 20
9.1507336677
 11
16.36664632
 21
9.2244837461
  0
LINE
  5
610
100
AcDbEntity
  8
02___PRT_ALL_AXES
100
AcDbLine
 62
7
  6
CONTINUOUS
 10
17.8754536724
 20
5.4886282981
 11
17.8740539481
 21
5.5102191752
  0
LINE
  5
611
100
AcDbEntity
  8
02___PRT_ALL_AXES
100
AcDbLine
 62
7
  6
CONTINUOUS
 10
17.8754536724
 20
5.5368469448
 11
17.8740539481
 21
5.5584378219
  0
LINE
  5
612
100
AcDbEntity
  8
02___PRT_ALL_AXES
100
AcDbLine
 62
7
  6
CONTINUOUS
 10
17.8754536724
 20
5.5850655915
 11
17.8740539481
 21
5.6066564685
  0
LINE
  5
613
100
AcDbEntity
  8
02___PRT_ALL_AXES
100
AcDbLine
 62
7
  6
CONTINUOUS
 10
17.8754536724
 20
5.6332842381
 11
17.8740539481
 21
5.6548751152
  0
LINE
  5
614
100
AcDbEntity
  8
0
100
AcDbLine
 62
7
  6
CONTINUOUS
 10
18.0767762472
 20
7.7741987258
 11
17.9848136381
 21
7.7129246087
  0
LWPOLYLINE
  5
615
100
AcDbEntity
  8
AXIS
100
AcDbPolyline
 62
7
  6
CONTINUOUS
 90
6
 70
0
 10
17.9848136381
 20
7.7129246087
 10
18.0767762472
 20
7.7741987258
 10
18.1526987363
 20
7.8424052074
 10
18.2110355425
 20
7.9161555662
 10
18.2505990966
 20
7.9939484577
 10
18.2705839988
 20
8.0742002428
  0
LWPOLYLINE
  5
616
100
AcDbEntity
  8
0
100
AcDbPolyline
 62
7
  6
CONTINUOUS
 90
11
 70
0
 10
17.9848136381
 20
7.7129246087
 10
17.8786830026
 20
7.6598302204
 10
17.7605448544
 20
7.6159964096
 10
17.6328041454
 20
7.5823155062
 10
17.4980613081
 20
7.5594731564
 10
17.3590593181
 20
7.5479343644
 10
17.2186278551
 20
7.5479340268
 10
17.0796256987
 20
7.5594721506
 10
16.944882532
 20
7.5823138526
 10
16.8171413372
 20
7.6159941419
 10
16.6990025568
 20
7.6598273848
  0
LWPOLYLINE
  5
617
100
AcDbEntity
  8
AXIS
100
AcDbPolyline
 62
7
  6
CONTINUOUS
 90
12
 70
0
 10
16.5928711555
 20
8.5776423266
 10
16.6990025568
 20
8.5245484486
 10
16.8171413372
 20
8.4807152057
 10
16.944882532
 20
8.4470349165
 10
17.0796256987
 20
8.4241932144
 10
17.2186278551
 20
8.4126550906
 10
17.3590593181
 20
8.4126554282
 10
17.4980613081
 20
8.4241942202
 10
17.6328041454
 20
8.44703657
 10
17.7605448544
 20
8.4807174734
 10
17.8786830026
 20
8.5245512842
 10
17.9848136381
 20
8.5776456725
  0
LWPOLYLINE
  5
618
100
AcDbEntity
  8
0
100
AcDbPolyline
 62
7
  6
CONTINUOUS
 90
7
 70
0
 10
16.5995769468
 20
8.5815138939
 10
16.5084995403
 20
8.6421971851
 10
16.433307605
 20
8.7097461224
 10
16.3755318319
 20
8.7827856044
 10
16.3363483692
 20
8.8598287577
 10
16.3165548792
 20
8.939307206
 10
16.3141544089
 20
8.9725000811
  0
LINE
  5
619
100
AcDbEntity
  8
0
100
AcDbLine
 62
7
  6
CONTINUOUS
 10
16.5009076627
 20
9.0825275511
 11
16.4249841899
 21
9.1507336677
  0
LINE
  5
61A
100
AcDbEntity
  8
0
100
AcDbLine
 62
7
  6
CONTINUOUS
 10
18.2705839988
 20
9.3825328561
 11
18.2505990966
 21
9.3022810709
  0
LINE
  5
61B
100
AcDbEntity
  8
0
100
AcDbLine
 62
7
  6
CONTINUOUS
 10
18.2110355425
 20
7.9161555662
 11
18.1526987363
 21
7.8424052074
  0
LINE
  5
61C
100
AcDbEntity
  8
0
100
AcDbLine
 62
7
  6
CONTINUOUS
 10
18.1526987363
 20
7.8424052074
 11
18.0767762472
 21
7.7741987258
  0
LINE
  5
61D
100
AcDbEntity
  8
0
100
AcDbLine
 62
7
  6
CONTINUOUS
 10
16.5928711555
 20
9.0212538761
 11
16.5009076627
 21
9.0825275511
  0
LINE
  5
61E
100
AcDbEntity
  8
02___PRT_ALL_AXES
100
AcDbLine
 62
7
  6
CONTINUOUS
 10
18.1746662709
 20
6.2982976135
 11
18.1746662709
 21
6.1184844023
  0
LINE
  5
61F
100
AcDbEntity
  8
0
100
AcDbLine
 62
7
  6
CONTINUOUS
 10
18.2730164978
 20
9.4160554589
 11
18.2635337597
 21
8.9725114862
  0
LINE
  5
620
100
AcDbEntity
  8
0
100
AcDbLine
 62
7
  6
CONTINUOUS
 10
18.2705839988
 20
10.2472539199
 11
18.2730072384
 21
10.2948150973
  0
LINE
  5
621
100
AcDbEntity
  8
AXIS
100
AcDbLine
 62
7
  6
CONTINUOUS
 10
18.2705839988
 20
9.3825328561
 11
18.2730818916
 21
9.4230689842
  0
LINE
  5
622
100
AcDbEntity
  8
02___PRT_ALL_AXES
100
AcDbLine
 62
7
  6
CONTINUOUS
 10
17.8735684384
 20
5.6537569585
 11
17.8754536724
 21
5.6815028848
  0
LINE
  5
623
100
AcDbEntity
  8
02___PRT_ALL_AXES
100
AcDbLine
 62
7
  6
CONTINUOUS
 10
17.8735684384
 20
5.6055383118
 11
17.8754536724
 21
5.6332842381
  0
LINE
  5
624
100
AcDbEntity
  8
02___PRT_ALL_AXES
100
AcDbLine
 62
7
  6
CONTINUOUS
 10
17.8735684384
 20
5.5573196652
 11
17.8754536724
 21
5.5850655915
  0
LINE
  5
625
100
AcDbEntity
  8
02___PRT_ALL_AXES
100
AcDbLine
 62
7
  6
CONTINUOUS
 10
17.8735684384
 20
5.5091010185
 11
17.8754536724
 21
5.5368469448
  0
LINE
  5
626
100
AcDbEntity
  8
02___PRT_ALL_AXES
100
AcDbLine
 62
7
  6
CONTINUOUS
 10
17.8735684384
 20
5.4608823718
 11
17.8754536724
 21
5.4886282981
  0
LINE
  5
627
100
AcDbEntity
  8
0
100
AcDbLine
 62
7
  6
CONTINUOUS
 10
18.273007239
 20
9.4160439356
 11
18.2705839988
 21
9.3825328561
  0
LWPOLYLINE
  5
628
100
AcDbEntity
  8
0
100
AcDbPolyline
 62
7
  6
CONTINUOUS
 90
18
 70
0
 10
18.2635245901
 20
8.9725000739
 10
18.2611246983
 20
8.9393118802
 10
18.2413323545
 20
8.8598333367
 10
18.202150003
 20
8.782789995
 10
18.1443752834
 20
8.7097502353
 10
18.0691843223
 20
8.6422009365
 10
17.978107791
 20
8.5815172075
 10
17.872999745
 20
8.5289343941
 10
17.7559998809
 20
8.4855229306
 10
17.6294899786
 20
8.4521665494
 10
17.496045415
 20
8.42954429
 10
17.3583827364
 20
8.4181166766
 10
17.2193043581
 20
8.4181163423
 10
17.0816415147
 20
8.4295432939
 10
16.9481966247
 20
8.4521649117
 10
16.8216862414
 20
8.4855206848
 10
16.7046857512
 20
8.5289315858
 10
16.5995769468
 20
8.5815138939
  0
LINE
  5
629
100
AcDbEntity
  8
0
100
AcDbLine
 62
7
  6
CONTINUOUS
 10
18.2705839988
 20
8.0742002428
 11
18.2505990966
 21
7.9939484577
  0
LINE
  5
62A
100
AcDbEntity
  8
0
100
AcDbLine
 62
7
  6
CONTINUOUS
 10
18.2505990966
 20
7.9939484577
 11
18.2110355425
 21
7.9161555662
  0
LWPOLYLINE
  5
62B
100
AcDbEntity
  8
AXIS
100
AcDbPolyline
 62
7
  6
CONTINUOUS
 90
7
 70
0
 10
17.9848136381
 20
7.2693130592
 10
18.0767762472
 20
7.3305871763
 10
18.1526987363
 20
7.3987936579
 10
18.2110355425
 20
7.4725440168
 10
18.2505990966
 20
7.5503369082
 10
18.2705839988
 20
7.6305886933
 10
18.2730818916
 20
7.6711248214
  0
LINE
  5
62C
100
AcDbEntity
  8
0
100
AcDbLine
 62
7
  6
CONTINUOUS
 10
16.6990025568
 20
8.968159998
 11
16.5928711555
 21
9.0212538761
  0
LWPOLYLINE
  5
62D
100
AcDbEntity
  8
AXIS
100
AcDbPolyline
 62
7
  6
CONTINUOUS
 90
3
 70
0
 10
18.2730818916
 20
7.6711248214
 10
18.2705834142
 20
7.7116656772
 10
18.2650260819
 20
7.7339804962
  0
LWPOLYLINE
  5
62E
100
AcDbEntity
  8
AXIS
100
AcDbPolyline
 62
7
  6
CONTINUOUS
 90
3
 70
0
 10
18.2730818916
 20
8.9794574347
 10
18.2705834142
 20
9.0199982905
 10
18.2650260819
 20
9.0423131095
  0
LINE
  5
62F
100
AcDbEntity
  8
0
100
AcDbLine
 62
7
  6
CONTINUOUS
 10
18.2730164978
 20
10.2948035813
 11
18.2683198592
 21
10.5144833519
  0
LINE
  5
630
100
AcDbEntity
  8
02___PRT_ALL_AXES
100
AcDbLine
 62
7
  6
CONTINUOUS
 10
18.2730914677
 20
6.8064037616
 11
18.2730914677
 21
6.5524522225
  0
LINE
  5
631
100
AcDbEntity
  8
AXIS
100
AcDbLine
 62
7
  6
CONTINUOUS
 10
18.2730914677
 20
6.8064037616
 11
18.2730914677
 21
7.6711248254
  0
LINE
  5
632
100
AcDbEntity
  8
AXIS
100
AcDbLine
 62
7
  6
CONTINUOUS
 10
18.2730914677
 20
8.1147363749
 11
18.2730914677
 21
8.9794574387
  0
LINE
  5
633
100
AcDbEntity
  8
AXIS
100
AcDbLine
 62
7
  6
CONTINUOUS
 10
18.2730914677
 20
9.4230689882
 11
18.2730914677
 21
10.287790052
  0
LINE
  5
634
100
AcDbEntity
  8
0
100
AcDbLine
 62
7
  6
CONTINUOUS
 10
18.2730164978
 20
8.1077228456
 11
18.2635337597
 21
7.6641788729
  0
LINE
  5
635
100
AcDbEntity
  8
AXIS
100
AcDbLine
 62
7
  6
CONTINUOUS
 10
18.2705839988
 20
8.0742002428
 11
18.2730818916
 21
8.1147363709
  0
LINE
  5
636
100
AcDbEntity
  8
02___PRT_ALL_AXES
100
AcDbLine
 62
7
  6
CONTINUOUS
 10
18.2730914677
 20
6.5524522225
 11
18.2705839988
 21
6.5119160903
  0
LINE
  5
637
100
AcDbEntity
  8
0
100
AcDbLine
 62
7
  6
CONTINUOUS
 10
18.273007239
 20
8.1077113223
 11
18.2705839988
 21
8.0742002428
  0
LWPOLYLINE
  5
638
100
AcDbEntity
  8
0
100
AcDbPolyline
 62
7
  6
CONTINUOUS
 90
18
 70
0
 10
18.2635245901
 20
7.6641674606
 10
18.2611246983
 20
7.6309792669
 10
18.2413323545
 20
7.5515007234
 10
18.202150003
 20
7.4744573817
 10
18.1443752834
 20
7.401417622
 10
18.0691843223
 20
7.3338683232
 10
17.978107791
 20
7.2731845942
 10
17.872999745
 20
7.2206017808
 10
17.7559998809
 20
7.1771903173
 10
17.6294899786
 20
7.1438339361
 10
17.496045415
 20
7.1212116767
 10
17.3583827364
 20
7.1097840633
 10
17.2193043581
 20
7.109783729
 10
17.0816415147
 20
7.1212106806
 10
16.9481966247
 20
7.1438322984
 10
16.8216862414
 20
7.1771880715
 10
16.7046857512
 20
7.2205989725
 10
16.5995769468
 20
7.2731812807
  0
LWPOLYLINE
  5
639
100
AcDbEntity
  8
02___PRT_ALL_AXES
100
AcDbPolyline
 62
7
  6
CONTINUOUS
 90
16
 70
0
 10
18.1746662709
 20
6.1184844023
 10
18.169096791
 20
6.0612250845
 10
18.1444834101
 20
5.9861199253
 10
18.1007563582
 20
5.9139715699
 10
18.0388924253
 20
5.8463916932
 10
17.9602735494
 20
5.784889918
 10
17.8666559464
 20
5.7308400923
 10
17.7601308787
 20
5.6854496
 10
17.6430779405
 20
5.6497323895
 10
17.5181119008
 20
5.6244863245
 10
17.3880242945
 20
5.6102753602
 10
17.2557210638
 20
5.6074169461
 10
17.1241576442
 20
5.6159749344
 10
16.9962729451
 20
5.6357581539
 10
16.8749236994
 20
5.6663246802
 10
16.7628206487
 20
5.7069917074
  0
LWPOLYLINE
  5
63A
100
AcDbEntity
  8
02___PRT_ALL_AXES
100
AcDbPolyline
 62
7
  6
CONTINUOUS
 90
6
 70
0
 10
18.1746662709
 20
6.1184844023
 10
18.1665453117
 20
6.0380992238
 10
18.1416131902
 20
5.9578047835
 10
18.0989376677
 20
5.8790816043
 10
18.0380140868
 20
5.8040483561
 10
17.9596894486
 20
5.7354071855
  0
LWPOLYLINE
  5
63B
100
AcDbEntity
  8
02___PRT_ALL_AXES
100
AcDbPolyline
 62
7
  6
CONTINUOUS
 90
15
 70
0
 10
18.2730914677
 20
6.5524522225
 10
18.2640589236
 20
6.4726543285
 10
18.2367538351
 20
6.3936504506
 10
18.1913017884
 20
6.3173092697
 10
18.1281516334
 20
6.2451390452
 10
18.0486354384
 20
6.1789713711
 10
17.9545281876
 20
6.1202331785
 10
17.8478974599
 20
6.0700371051
 10
17.7309565116
 20
6.0292220939
 10
17.6058709188
 20
5.9983837447
 10
17.4750289893
 20
5.9780002857
 10
17.3408300567
 20
5.9683691036
 10
17.2057036459
 20
5.969627841
 10
17.0721403597
 20
5.9817486895
 10
16.9425293274
 20
6.0045456513
  0
LINE
  5
63C
100
AcDbEntity
  8
02___PRT_ALL_AXES
100
AcDbLine
 62
7
  6
CONTINUOUS
 10
18.2730914677
 20
6.8064037684
 11
18.2646715906
 21
6.7322345965
  0
LINE
  5
63D
100
AcDbEntity
  8
02___PRT_ALL_AXES
100
AcDbLine
 62
7
  6
CONTINUOUS
 10
17.8590690249
 20
5.6484177603
 11
17.8670128695
 21
5.677760685
  0
LINE
  5
63E
100
AcDbEntity
  8
02___PRT_ALL_AXES
100
AcDbLine
 62
7
  6
CONTINUOUS
 10
17.8590690249
 20
5.6423904295
 11
17.8685331881
 21
5.6773490977
  0
LINE
  5
63F
100
AcDbEntity
  8
02___PRT_ALL_AXES
100
AcDbLine
 62
7
  6
CONTINUOUS
 10
17.8590690249
 20
5.6001991136
 11
17.8735684384
 21
5.6537569585
  0
LWPOLYLINE
  5
640
100
AcDbEntity
  8
02___PRT_ALL_AXES
100
AcDbPolyline
 62
7
  6
CONTINUOUS
 90
3
 70
0
 10
17.8590690249
 20
5.5941717828
 10
17.8735684384
 20
5.6477296277
 10
17.8754536724
 20
5.675475554
  0
LINE
  5
641
100
AcDbEntity
  8
02___PRT_ALL_AXES
100
AcDbLine
 62
7
  6
CONTINUOUS
 10
17.8590690249
 20
5.5519804669
 11
17.8735684384
 21
5.6055383118
  0
LWPOLYLINE
  5
642
100
AcDbEntity
  8
02___PRT_ALL_AXES
100
AcDbPolyline
 62
7
  6
CONTINUOUS
 90
3
 70
0
 10
17.8590690249
 20
5.5459531361
 10
17.8735684384
 20
5.599510981
 10
17.8754536724
 20
5.6272569073
  0
LINE
  5
643
100
AcDbEntity
  8
02___PRT_ALL_AXES
100
AcDbLine
 62
7
  6
CONTINUOUS
 10
17.8590690249
 20
5.5037618202
 11
17.8735684384
 21
5.5573196652
  0
LWPOLYLINE
  5
644
100
AcDbEntity
  8
02___PRT_ALL_AXES
100
AcDbPolyline
 62
7
  6
CONTINUOUS
 90
3
 70
0
 10
17.8590690249
 20
5.4977344894
 10
17.8735684384
 20
5.5512923343
 10
17.8754536724
 20
5.5790382606
  0
LINE
  5
645
100
AcDbEntity
  8
02___PRT_ALL_AXES
100
AcDbLine
 62
7
  6
CONTINUOUS
 10
17.8590690249
 20
5.4555431736
 11
17.8735684384
 21
5.5091010185
  0
LWPOLYLINE
  5
646
100
AcDbEntity
  8
02___PRT_ALL_AXES
100
AcDbPolyline
 62
7
  6
CONTINUOUS
 90
3
 70
0
 10
17.8590690249
 20
5.4495158427
 10
17.8735684384
 20
5.5030736876
 10
17.8754536724
 20
5.5308196139
  0
LWPOLYLINE
  5
647
100
AcDbEntity
  8
02___PRT_ALL_AXES
100
AcDbPolyline
 62
7
  6
CONTINUOUS
 90
17
 70
0
 10
18.2705839988
 20
6.5119160903
 10
18.2505990966
 20
6.4316643052
 10
18.2110355425
 20
6.3538714138
 10
18.1526987363
 20
6.2801210549
 10
18.0767762472
 20
6.2119145733
 10
17.9848136381
 20
6.1506404562
 10
17.8786830026
 20
6.0975460679
 10
17.7605448544
 20
6.0537122571
 10
17.6328041454
 20
6.0200313537
 10
17.4980613081
 20
5.9971890039
 10
17.3590593181
 20
5.9856502119
 10
17.2186278551
 20
5.9856498744
 10
17.0796256987
 20
5.9971879981
 10
16.944882532
 20
6.0200297002
 10
16.8171413372
 20
6.0537099894
 10
16.6990025568
 20
6.0975432323
 10
16.5928711555
 20
6.1506371104
  0
LINE
  5
648
100
AcDbEntity
  8
02___PRT_ALL_AXES
100
AcDbLine
 62
7
  6
CONTINUOUS
 10
18.2646715906
 20
6.7322345965
 11
18.2395549558
 21
6.6593321206
  0
LWPOLYLINE
  5
649
100
AcDbEntity
  8
0
100
AcDbPolyline
 62
7
  6
CONTINUOUS
 90
13
 70
0
 10
17.829534339
 20
5.3484579952
 10
17.8112216209
 20
5.3030152593
 10
17.7748729334
 20
5.2516309875
 10
17.7244859653
 20
5.2044776525
 10
17.6618491933
 20
5.1633916518
 10
17.5891462186
 20
5.1295483636
 10
17.508601346
 20
5.103665414
 10
17.4224722266
 20
5.0862122236
 10
17.3329976336
 20
5.0774722858
 10
17.2424526784
 20
5.0775816449
 10
17.1531226225
 20
5.0865251765
 10
17.0672763775
 20
5.1041352612
 10
16.98821984
 20
5.1296702151
  0
LINE
  5
64A
100
AcDbEntity
  8
02___PRT_ALL_AXES
100
AcDbLine
 62
7
  6
CONTINUOUS
 10
18.2395549558
 20
6.6593321206
 11
18.1981713159
 21
6.5889460811
  0
LWPOLYLINE
  5
64B
100
AcDbEntity
  8
0
100
AcDbPolyline
 62
7
  6
CONTINUOUS
 90
7
 70
0
 10
18.2683198592
 20
10.5144833518
 10
18.2586194222
 20
10.5922515101
 10
18.2325366207
 20
10.6694493407
 10
18.1895879247
 20
10.7449147403
 10
18.1298570737
 20
10.8168388957
 10
18.0544396772
 20
10.8831943144
 10
17.965187002
 20
10.9423298903
  0
LINE
  5
64C
100
AcDbEntity
  8
02___PRT_ALL_AXES
100
AcDbLine
 62
7
  6
CONTINUOUS
 10
17.8331050428
 20
5.6426331023
 11
17.8454346856
 21
5.6657753705
  0
LINE
  5
64D
100
AcDbEntity
  8
02___PRT_ALL_AXES
100
AcDbLine
 62
7
  6
CONTINUOUS
 10
17.8305943083
 20
5.5907806368
 11
17.8590690249
 21
5.6423904295
  0
LINE
  5
64E
100
AcDbEntity
  8
02___PRT_ALL_AXES
100
AcDbLine
 62
7
  6
CONTINUOUS
 10
17.8305943083
 20
5.5425619901
 11
17.8590690249
 21
5.5941717828
  0
LINE
  5
64F
100
AcDbEntity
  8
02___PRT_ALL_AXES
100
AcDbLine
 62
7
  6
CONTINUOUS
 10
17.8305943083
 20
5.4943433434
 11
17.8590690249
 21
5.5459531361
  0
LINE
  5
650
100
AcDbEntity
  8
02___PRT_ALL_AXES
100
AcDbLine
 62
7
  6
CONTINUOUS
 10
17.8305943083
 20
5.4039333809
 11
17.8590690249
 21
5.4555431736
  0
LINE
  5
651
100
AcDbEntity
  8
02___PRT_ALL_AXES
100
AcDbLine
 62
7
  6
CONTINUOUS
 10
17.8305943083
 20
5.3979060501
 11
17.8590690249
 21
5.4495158427
  0
LINE
  5
652
100
AcDbEntity
  8
02___PRT_ALL_AXES
100
AcDbLine
 62
7
  6
CONTINUOUS
 10
18.1981713159
 20
6.5889460811
 11
18.1412287566
 21
6.5222808029
  0
LWPOLYLINE
  5
653
100
AcDbEntity
  8
02___PRT_ALL_AXES
100
AcDbPolyline
 62
7
  6
CONTINUOUS
 90
3
 70
0
 10
18.1412287566
 20
6.5222808029
 10
18.0697015807
 20
6.4604769473
 10
17.9848136381
 20
6.4045919954
  0
LWPOLYLINE
  5
654
100
AcDbEntity
  8
AXIS
100
AcDbPolyline
 62
7
  6
CONTINUOUS
 90
7
 70
0
 10
17.9848136381
 20
6.4045919954
 10
18.0767762472
 20
6.4658661125
 10
18.1526987363
 20
6.5340725941
 10
18.2110355425
 20
6.6078229529
 10
18.2505990966
 20
6.6856158444
 10
18.2705839988
 20
6.7658676295
 10
18.2730818916
 20
6.8064037576
  0
LWPOLYLINE
  5
655
100
AcDbEntity
  8
02___PRT_ALL_AXES
100
AcDbPolyline
 62
7
  6
CONTINUOUS
 90
13
 70
0
 10
17.9848136381
 20
6.4045919954
 10
17.8880173851
 20
6.3555821542
 10
17.7809690323
 20
6.3142859957
 10
17.6655002067
 20
6.2814101086
 10
17.543586612
 20
6.2575170085
 10
17.4173142236
 20
6.2430155129
 10
17.288843597
 20
6.2381537464
 10
17.1603729004
 20
6.2430148953
 10
17.0341003028
 20
6.2575157838
 10
16.9121863635
 20
6.2814082979
 10
16.7967170638
 20
6.3142836298
 10
16.6896681154
 20
6.3555792737
 10
16.5928711555
 20
6.4045886496
  0
LWPOLYLINE
  5
656
100
AcDbEntity
  8
0
100
AcDbPolyline
 62
7
  6
CONTINUOUS
 90
17
 70
0
 10
16.5928711555
 20
9.8859749399
 10
16.6990025568
 20
9.8328810619
 10
16.8171413372
 20
9.789047819
 10
16.944882532
 20
9.7553675297
 10
17.0796256987
 20
9.7325258276
 10
17.2186278551
 20
9.7209877039
 10
17.3590593181
 20
9.7209880415
 10
17.4980613081
 20
9.7325268334
 10
17.6328041454
 20
9.7553691833
 10
17.7605448544
 20
9.7890500867
 10
17.8786830026
 20
9.8328838975
 10
17.9848136381
 20
9.8859782857
 10
18.0767762472
 20
9.9472524028
 10
18.1526987363
 20
10.0154588845
 10
18.2110355425
 20
10.0892092433
 10
18.2505990966
 20
10.1670021348
 10
18.2705839988
 20
10.2472539199
  0
LWPOLYLINE
  5
657
100
AcDbEntity
  8
AXIS
100
AcDbPolyline
 62
7
  6
CONTINUOUS
 90
12
 70
0
 10
16.5928711555
 20
9.8859749399
 10
16.6990025568
 20
9.8328810619
 10
16.8171413372
 20
9.789047819
 10
16.944882532
 20
9.7553675297
 10
17.0796256987
 20
9.7325258276
 10
17.2186278551
 20
9.7209877039
 10
17.3590593181
 20
9.7209880415
 10
17.4980613081
 20
9.7325268334
 10
17.6328041454
 20
9.7553691833
 10
17.7605448544
 20
9.7890500867
 10
17.8786830026
 20
9.8328838975
 10
17.9848136381
 20
9.8859782857
  0
LWPOLYLINE
  5
658
100
AcDbEntity
  8
02___PRT_ALL_AXES
100
AcDbPolyline
 62
7
  6
CONTINUOUS
 90
8
 70
0
 10
17.7521192248
 20
6.036608355
 10
17.6430779405
 20
6.0033357985
 10
17.5181119008
 20
5.9780897335
 10
17.3880242945
 20
5.9638787692
 10
17.2557210638
 20
5.9610203551
 10
17.1241576442
 20
5.9695783434
 10
16.9962729451
 20
5.9893615629
 10
16.8749236994
 20
6.0199280891
  0
LWPOLYLINE
  5
659
100
AcDbEntity
  8
0
100
AcDbPolyline
 62
7
  6
CONTINUOUS
 90
19
 70
0
 10
16.5961924196
 20
10.1076057014
 10
16.6599338797
 20
10.0739176449
 10
16.7249520154
 20
10.045067529
 10
16.7911508084
 20
10.0203983897
 10
16.8587072441
 20
9.9994048628
 10
16.9280238873
 20
9.9817288394
 10
16.9995612852
 20
9.9671882555
 10
17.0730272074
 20
9.9558612297
 10
17.1477397377
 20
9.9478629507
 10
17.2232473032
 20
9.9432343563
 10
17.2991545697
 20
9.941996407
 10
17.3749998492
 20
9.9441570057
 10
17.4503156553
 20
9.9497020415
 10
17.5246502864
 20
9.9585966906
 10
17.5975593517
 20
9.9707863318
 10
17.668606013
 20
9.9861965918
 10
17.7373677266
 20
10.004734727
 10
17.8034369463
 20
10.0262903982
 10
17.8664192177
 20
10.0507350373
  0
LWPOLYLINE
  5
65A
100
AcDbEntity
  8
0
100
AcDbPolyline
 62
7
  6
CONTINUOUS
 90
28
 70
0
 10
16.6518614072
 20
10.2029155015
 10
16.7104701214
 20
10.1719396991
 10
16.7702634208
 20
10.1454072744
 10
16.8311423505
 20
10.122720011
 10
16.8932697082
 20
10.1034131285
 10
16.9570156943
 20
10.0871572357
 10
17.0228039353
 20
10.0737848529
 10
17.0903657895
 20
10.0633677935
 10
17.1590741456
 20
10.0560119953
 10
17.2285136893
 20
10.0517551126
 10
17.2983208499
 20
10.0506164232
 10
17.3680710378
 20
10.0526031967
 10
17.4373343264
 20
10.0577024581
 10
17.5056953047
 20
10.0658821828
 10
17.5727452857
 20
10.0770921395
 10
17.6380825275
 20
10.0912639317
 10
17.7013184349
 20
10.108312268
 10
17.7620782039
 20
10.1281356747
 10
17.8199990654
 20
10.1506159114
 10
17.8747330557
 20
10.1756182303
 10
17.9259504991
 20
10.2029922503
 10
17.9733430502
 20
10.2325731788
 10
18.0166271488
 20
10.2641840543
 10
18.0555434924
 20
10.2976358295
 10
18.089857472
 20
10.3327272071
 10
18.1193623877
 20
10.3692468737
 10
18.1438806852
 20
10.4069746772
 10
18.1632663904
 20
10.4456858389
  0
LWPOLYLINE
  5
65B
100
AcDbEntity
  8
02___PRT_ALL_AXES
100
AcDbPolyline
 62
7
  6
CONTINUOUS
 90
9
 70
0
 10
17.9596894486
 20
5.7354071855
 10
17.8658306226
 20
5.6753301908
 10
17.7602677717
 20
5.6258774951
 10
17.6461424903
 20
5.5876477147
 10
17.5258761075
 20
5.5606949442
 10
17.401615907
 20
5.5450003085
 10
17.2757436887
 20
5.5405595083
 10
17.150230866
 20
5.5473140383
 10
17.0272022558
 20
5.5652155556
  0
LWPOLYLINE
  5
65C
100
AcDbEntity
  8
02___PRT_ALL_AXES
100
AcDbPolyline
 62
7
  6
CONTINUOUS
 90
4
 70
0
 10
17.6135705241
 20
5.5314540186
 10
17.5894765851
 20
5.5203006002
 10
17.5131389968
 20
5.4951261143
 10
17.4314978824
 20
5.4772215062
  0
LWPOLYLINE
  5
65D
100
AcDbEntity
  8
02___PRT_ALL_AXES
100
AcDbPolyline
 62
7
  6
CONTINUOUS
 90
5
 70
0
 10
17.595622956
 20
5.5236291713
 10
17.669898934
 20
5.5560122878
 10
17.7348358285
 20
5.5947060368
 10
17.7888421526
 20
5.6387915786
 10
17.7895249356
 20
5.6395835063
  0
LWPOLYLINE
  5
65E
100
AcDbEntity
  8
02___PRT_ALL_AXES
100
AcDbPolyline
 62
7
  6
CONTINUOUS
 90
3
 70
0
 10
17.5985314963
 20
5.4768874372
 10
17.5730321517
 20
5.4658685665
 10
17.4935071473
 20
5.4418217124
  0
LWPOLYLINE
  5
65F
100
AcDbEntity
  8
02___PRT_ALL_AXES
100
AcDbPolyline
 62
7
  6
CONTINUOUS
 90
7
 70
0
 10
17.5936895787
 20
5.37837502
 10
17.572587355
 20
5.3692696791
 10
17.4932214621
 20
5.3453142272
 10
17.4080985578
 20
5.3289248835
 10
17.3190747
 20
5.3206133201
 10
17.2296515471
 20
5.32072738
 10
17.1422667475
 20
5.3291052805
  0
LWPOLYLINE
  5
660
100
AcDbEntity
  8
02___PRT_ALL_AXES
100
AcDbPolyline
 62
7
  6
CONTINUOUS
 90
7
 70
0
 10
17.6363230561
 20
5.4449364586
 10
17.5728099926
 20
5.4175691681
 10
17.4931942116
 20
5.3935261841
 10
17.4069577487
 20
5.3769820299
 10
17.3171125198
 20
5.368744397
 10
17.2272991378
 20
5.3690627167
 10
17.140159217
 20
5.3776317242
  0
LWPOLYLINE
  5
661
100
AcDbEntity
  8
02___PRT_ALL_AXES
100
AcDbPolyline
 62
7
  6
CONTINUOUS
 90
7
 70
0
 10
17.6163199864
 20
5.5809642252
 10
17.5721479733
 20
5.5619849659
 10
17.4926065393
 20
5.5380380946
 10
17.406451975
 20
5.5215668399
 10
17.3167164369
 20
5.5133831522
 10
17.2270385553
 20
5.5137319451
 10
17.1399082781
 20
5.5223246576
  0
LWPOLYLINE
  5
662
100
AcDbEntity
  8
02___PRT_ALL_AXES
100
AcDbPolyline
 62
7
  6
CONTINUOUS
 90
5
 70
0
 10
17.5138282655
 20
5.5043481959
 10
17.595622956
 20
5.5296565021
 10
17.669898934
 20
5.5620396186
 10
17.7348358285
 20
5.6007333677
 10
17.7728712448
 20
5.6317818043
  0
LINE
  5
663
100
AcDbEntity
  8
02___PRT_ALL_AXES
100
AcDbLine
 62
7
  6
CONTINUOUS
 10
17.5138282655
 20
5.498320865
 11
17.595622956
 21
5.5236291713
  0
LWPOLYLINE
  5
664
100
AcDbEntity
  8
02___PRT_ALL_AXES
100
AcDbPolyline
 62
7
  6
CONTINUOUS
 90
7
 70
0
 10
17.5941361489
 20
5.2820759011
 10
17.5739756596
 20
5.2733378599
 10
17.4943891735
 20
5.2491645169
 10
17.4081841522
 20
5.2324997668
 10
17.3183198481
 20
5.2241418587
 10
17.228428061
 20
5.2243500424
 10
17.1413675262
 20
5.232798683
  0
LWPOLYLINE
  5
665
100
AcDbEntity
  8
02___PRT_ALL_AXES
100
AcDbPolyline
 62
7
  6
CONTINUOUS
 90
7
 70
0
 10
17.5937422995
 20
5.2337353924
 10
17.5726888014
 20
5.2246505651
 10
17.4931536002
 20
5.2006416295
 10
17.4071100921
 20
5.1841289248
 10
17.3174689218
 20
5.1758854147
 10
17.2278623504
 20
5.1761596561
 10
17.1406831021
 20
5.1846801432
  0
LWPOLYLINE
  5
666
100
AcDbEntity
  8
02___PRT_ALL_AXES
100
AcDbPolyline
 62
7
  6
CONTINUOUS
 90
7
 70
0
 10
17.636788404
 20
5.3487020494
 10
17.5716784189
 20
5.3207218519
 10
17.4920853945
 20
5.2968175172
 10
17.4067378902
 20
5.280513781
 10
17.3186741376
 20
5.2723764674
 10
17.2301755059
 20
5.2724835439
 10
17.1428672773
 20
5.280799874
  0
LWPOLYLINE
  5
667
100
AcDbEntity
  8
0
100
AcDbPolyline
 62
7
  6
CONTINUOUS
 90
18
 70
0
 10
17.965187002
 20
10.9423298903
 10
17.8611342347
 20
10.9944851106
 10
17.7467329222
 20
11.0371554091
 10
17.6242043844
 20
11.069787172
 10
17.4958542713
 20
11.0919784013
 10
17.3640986718
 20
11.1034760965
 10
17.2310829767
 20
11.1041880407
 10
17.0991497777
 20
11.0941211522
 10
16.9705365161
 20
11.0734043833
 10
16.8474146697
 20
11.0422638284
 10
16.73218309
 20
11.0011254961
 10
16.6268355777
 20
10.9504435926
 10
16.5335955425
 20
10.8909452568
 10
16.4548938784
 20
10.8239646802
 10
16.3923973362
 20
10.7510182985
 10
16.3472600938
 20
10.6740839999
 10
16.3196177163
 20
10.5946507811
 10
16.3093591392
 20
10.5144833518
  0
LWPOLYLINE
  5
668
100
AcDbEntity
  8
0
100
AcDbPolyline
 62
7
  6
CONTINUOUS
 90
41
 70
0
 10
17.9258175912
 20
10.9384300569
 10
17.867208877
 20
10.9694058593
 10
17.8074155776
 20
10.995938284
 10
17.7465366479
 20
11.0186255473
 10
17.6844092902
 20
11.0379324298
 10
17.6206633041
 20
11.0541883227
 10
17.5548750631
 20
11.0675607055
 10
17.4873132089
 20
11.0779777648
 10
17.4186048528
 20
11.0853335631
 10
17.3491653091
 20
11.0895904458
 10
17.2793581486
 20
11.0907291352
 10
17.2096079606
 20
11.0887423616
 10
17.140344672
 20
11.0836431003
 10
17.0719836937
 20
11.0754633756
 10
17.0049337128
 20
11.0642534189
 10
16.9395964709
 20
11.0500816267
 10
16.8763605635
 20
11.0330332904
 10
16.8156007945
 20
11.0132098836
 10
16.757679933
 20
10.990729647
 10
16.7029459428
 20
10.9657273281
 10
16.6517284994
 20
10.9383533081
 10
16.6043359482
 20
10.9087723796
 10
16.5610518497
 20
10.8771615041
 10
16.522135506
 20
10.8437097288
 10
16.4878215264
 20
10.8086183512
 10
16.4583166107
 20
10.7720986846
 10
16.4337983132
 20
10.7343708812
 10
16.4144126081
 20
10.6956597195
 10
16.4002749186
 20
10.6561933261
 10
16.3914717953
 20
10.616206498
 10
16.3880588954
 20
10.5759400769
 10
16.3900584647
 20
10.535641946
 10
16.3974578187
 20
10.4955569882
 10
16.4102228755
 20
10.4558967242
 10
16.4282878276
 20
10.4169005227
 10
16.4514692123
 20
10.3789292198
 10
16.4796380546
 20
10.3421430825
 10
16.513077079
 20
10.3063020737
 10
16.5523534158
 20
10.2711901973
 10
16.598269243
 20
10.2367106303
 10
16.6518614072
 20
10.2029155015
  0
LINE
  5
669
100
AcDbEntity
  8
02___PRT_ALL_AXES
100
AcDbLine
 62
7
  6
CONTINUOUS
 10
5.5845653558
 20
4.3502673424
 11
5.6261671348
 21
4.432138966
  0
LINE
  5
66A
100
AcDbEntity
  8
02___PRT_ALL_AXES
100
AcDbLine
 62
7
  6
CONTINUOUS
 10
5.6261671348
 20
4.432138966
 11
5.6800368778
 21
4.50651451
  0
LINE
  5
66B
100
AcDbEntity
  8
02___PRT_ALL_AXES
100
AcDbLine
 62
7
  6
CONTINUOUS
 10
5.6800368778
 20
4.50651451
 11
5.7448543339
 21
4.5715711633
  0
LWPOLYLINE
  5
66C
100
AcDbEntity
  8
02___PRT_ALL_AXES
100
AcDbPolyline
 62
7
  6
CONTINUOUS
 90
3
 70
0
 10
5.7448543339
 20
4.5715711633
 10
5.8190309436
 20
4.6257145039
 10
5.9007487711
 20
4.6676175757
  0
LINE
  5
66D
100
AcDbEntity
  8
0
100
AcDbLine
 62
7
  6
CONTINUOUS
 10
6.0193634664
 20
3.5455703316
 11
6.2341018939
 21
3.5455703316
  0
LWPOLYLINE
  5
66E
100
AcDbEntity
  8
02___PRT_ALL_AXES
100
AcDbPolyline
 62
7
  6
CONTINUOUS
 90
11
 70
0
 10
5.9007487711
 20
3.5849404103
 10
5.8190309436
 20
3.6268434821
 10
5.7448543339
 20
3.6809868227
 10
5.6800368778
 20
3.746043476
 10
5.6261671348
 20
3.8204190201
 10
5.5845653558
 20
3.9022906436
 10
5.5562511258
 20
3.98965182
 10
5.5419183758
 20
4.0803614834
 10
5.5419183758
 20
4.1721965026
 10
5.5562511258
 20
4.262906166
 10
5.5845653558
 20
4.3502673424
  0
LINE
  5
66F
100
AcDbEntity
  8
02___PRT_ALL_AXES
100
AcDbLine
 62
7
  6
CONTINUOUS
 10
5.9007487711
 20
3.5849404103
 11
6.0230353007
 21
3.5849404103
  0
LINE
  5
670
100
AcDbEntity
  8
0
100
AcDbLine
 62
7
  6
CONTINUOUS
 10
6.0230353007
 20
3.5849404103
 11
6.2304300596
 21
3.5849404103
  0
LINE
  5
671
100
AcDbEntity
  8
02___PRT_ALL_AXES
100
AcDbLine
 62
7
  6
CONTINUOUS
 10
6.2304300596
 20
3.5849404103
 11
6.3527165892
 21
3.5849404103
  0
LINE
  5
672
100
AcDbEntity
  8
0
100
AcDbLine
 62
7
  6
CONTINUOUS
 10
6.0268420151
 20
3.6243104891
 11
6.2266233452
 21
3.6243104891
  0
LWPOLYLINE
  5
673
100
AcDbEntity
  8
0
100
AcDbPolyline
 62
7
  6
CONTINUOUS
 90
22
 70
0
 10
6.1267326802
 20
3.7463577332
 10
6.0811634413
 20
3.7467307147
 10
6.0357792998
 20
3.7525657307
 10
5.9914032927
 20
3.7637585381
 10
5.9489286714
 20
3.7799982507
 10
5.908250783
 20
3.801321012
 10
5.8685644364
 20
3.8286587863
 10
5.8297414973
 20
3.8634541806
 10
5.7923898316
 20
3.9077037539
 10
5.7591249103
 20
3.9621534375
 10
5.7339155997
 20
4.0242639584
 10
5.7191514122
 20
4.0906626675
 10
5.715623449
 20
4.1591656713
 10
5.7235719243
 20
4.2276059777
 10
5.7429150982
 20
4.2942784452
 10
5.7733465544
 20
4.3574019545
 10
5.8135323856
 20
4.4142860014
 10
5.8620674576
 20
4.4634982752
 10
5.9180997053
 20
4.5043909459
 10
5.9799225728
 20
4.5357583426
 10
6.0464666706
 20
4.5570168367
 10
6.1158175471
 20
4.5674371214
  0
LWPOLYLINE
  5
674
100
AcDbEntity
  8
0
100
AcDbPolyline
 62
7
  6
CONTINUOUS
 90
4
 70
0
 10
6.0237542774
 20
4.6600689455
 10
6.0245912878
 20
4.6513472262
 10
6.0256535059
 20
4.6403813059
 10
6.0268420151
 20
4.6282474969
  0
LWPOLYLINE
  5
675
100
AcDbEntity
  8
0
100
AcDbPolyline
 62
7
  6
CONTINUOUS
 90
6
 70
0
 10
6.0237542774
 20
4.6600689455
 10
6.0228517202
 20
4.669553428
 10
6.0223216538
 20
4.6751621847
 10
6.0215029273
 20
4.6838814182
 10
6.0204821191
 20
4.694848165
 10
6.0193634664
 20
4.7069876544
  0
LWPOLYLINE
  5
676
100
AcDbEntity
  8
0
100
AcDbPolyline
 62
7
  6
CONTINUOUS
 90
4
 70
0
 10
6.0223216538
 20
3.5773958013
 10
6.0215029273
 20
3.5686765678
 10
6.0204821191
 20
3.5577098211
 10
6.0193634664
 20
3.5455703316
  0
LWPOLYLINE
  5
677
100
AcDbEntity
  8
0
100
AcDbPolyline
 62
7
  6
CONTINUOUS
 90
6
 70
0
 10
6.0223216538
 20
3.5773958013
 10
6.0232193179
 20
3.5868774318
 10
6.0237542774
 20
3.5924890405
 10
6.0245912878
 20
3.6012107598
 10
6.0256535059
 20
3.6121766802
 10
6.0268420151
 20
3.6243104891
  0
LINE
  5
678
100
AcDbEntity
  8
AXIS_COSMETIC_THREADS
100
AcDbLine
 62
7
  6
CONTINUOUS
 10
6.1590929486
 20
4.2413837403
 11
6.1583409361
 21
4.2400812164
  0
LINE
  5
679
100
AcDbEntity
  8
AXIS_COSMETIC_THREADS
100
AcDbLine
 62
7
  6
CONTINUOUS
 10
6.0439811917
 20
4.0420043287
 11
6.0431223024
 21
4.0405166888
  0
LINE
  5
67A
100
AcDbEntity
  8
AXIS_COSMETIC_THREADS
100
AcDbLine
 62
7
  6
CONTINUOUS
 10
6.0106147205
 20
4.096751434
 11
6.0123729357
 21
4.096751434
  0
LINE
  5
67B
100
AcDbEntity
  8
AXIS_COSMETIC_THREADS
100
AcDbLine
 62
7
  6
CONTINUOUS
 10
6.2410924246
 20
4.096751434
 11
6.2428506398
 21
4.096751434
  0
LINE
  5
67C
100
AcDbEntity
  8
AXIS_COSMETIC_THREADS
100
AcDbLine
 62
7
  6
CONTINUOUS
 10
6.0431223024
 20
4.2120412972
 11
6.0439811917
 21
4.2105536574
  0
LINE
  5
67D
100
AcDbEntity
  8
AXIS_COSMETIC_THREADS
100
AcDbLine
 62
7
  6
CONTINUOUS
 10
6.1583409361
 20
4.0124767696
 11
6.1590929486
 21
4.0111742457
  0
LWPOLYLINE
  5
67E
100
AcDbEntity
  8
0
100
AcDbPolyline
 62
7
  6
CONTINUOUS
 90
4
 70
0
 10
6.2297110829
 20
3.5924890405
 10
6.2288740725
 20
3.6012107598
 10
6.2278118544
 20
3.6121766802
 10
6.2266233452
 20
3.6243104891
  0
LWPOLYLINE
  5
67F
100
AcDbEntity
  8
0
100
AcDbPolyline
 62
7
  6
CONTINUOUS
 90
6
 70
0
 10
6.2341018939
 20
3.5455703316
 10
6.2329832412
 20
3.5577098211
 10
6.231962433
 20
3.5686765678
 10
6.2311437065
 20
3.5773958013
 10
6.2306136401
 20
3.583004558
 10
6.2297110829
 20
3.5924890405
  0
LWPOLYLINE
  5
680
100
AcDbEntity
  8
0
100
AcDbPolyline
 62
7
  6
CONTINUOUS
 90
4
 70
0
 10
6.2311437065
 20
4.6751621847
 10
6.231962433
 20
4.6838814182
 10
6.2329832412
 20
4.694848165
 10
6.2341018939
 20
4.7069876544
  0
LWPOLYLINE
  5
681
100
AcDbEntity
  8
0
100
AcDbPolyline
 62
7
  6
CONTINUOUS
 90
6
 70
0
 10
6.2311437065
 20
4.6751621847
 10
6.2302460424
 20
4.6656805542
 10
6.2297110829
 20
4.6600689455
 10
6.2288740725
 20
4.6513472262
 10
6.2278118544
 20
4.6403813059
 10
6.2266233452
 20
4.6282474969
  0
LINE
  5
682
100
AcDbEntity
  8
AXIS_COSMETIC_THREADS
100
AcDbLine
 62
7
  6
CONTINUOUS
 10
6.0943724117
 20
4.0111742457
 11
6.0951244242
 21
4.0124767696
  0
LINE
  5
683
100
AcDbEntity
  8
AXIS_COSMETIC_THREADS
100
AcDbLine
 62
7
  6
CONTINUOUS
 10
6.2094841686
 20
4.2105536574
 11
6.2103430579
 21
4.2120412972
  0
LINE
  5
684
100
AcDbEntity
  8
AXIS_COSMETIC_THREADS
100
AcDbLine
 62
7
  6
CONTINUOUS
 10
6.2428506398
 20
4.1558065521
 11
6.2410924246
 21
4.1558065521
  0
LINE
  5
685
100
AcDbEntity
  8
AXIS_COSMETIC_THREADS
100
AcDbLine
 62
7
  6
CONTINUOUS
 10
6.0123729357
 20
4.1558065521
 11
6.0106147205
 21
4.1558065521
  0
LINE
  5
686
100
AcDbEntity
  8
AXIS_COSMETIC_THREADS
100
AcDbLine
 62
7
  6
CONTINUOUS
 10
6.2103430579
 20
4.0405166888
 11
6.2094841686
 21
4.0420043287
  0
LINE
  5
687
100
AcDbEntity
  8
AXIS_COSMETIC_THREADS
100
AcDbLine
 62
7
  6
CONTINUOUS
 10
6.0951244242
 20
4.2400812164
 11
6.0943724117
 21
4.2413837403
  0
LWPOLYLINE
  5
688
100
AcDbEntity
  8
0
100
AcDbPolyline
 62
7
  6
CONTINUOUS
 90
19
 70
0
 10
6.1158175471
 20
4.5674371214
 10
6.1901210633
 20
4.5596133235
 10
6.2614746176
 20
4.5394628893
 10
6.3281809188
 20
4.5075697434
 10
6.3879554967
 20
4.4651593792
 10
6.4396368819
 20
4.4131231393
 10
6.4812359238
 20
4.3535550158
 10
6.5117786125
 20
4.288223809
 10
6.530603881
 20
4.2186729461
 10
6.5370770931
 20
4.1477880081
 10
6.5312388317
 20
4.0770428496
 10
6.5133321037
 20
4.0087622212
 10
6.4842017576
 20
3.9453460167
 10
6.4444726941
 20
3.8879257987
 10
6.3958393894
 20
3.8388232339
 10
6.339858843
 20
3.7992814819
 10
6.2779431299
 20
3.7702008286
 10
6.2127258225
 20
3.7526457949
 10
6.1455211997
 20
3.7468225987
  0
LINE
  5
689
100
AcDbEntity
  8
0
100
AcDbLine
 62
7
  6
CONTINUOUS
 10
6.2266233452
 20
4.6282474969
 11
6.0268420151
 21
4.6282474969
  0
LINE
  5
68A
100
AcDbEntity
  8
02___PRT_ALL_AXES
100
AcDbLine
 62
7
  6
CONTINUOUS
 10
6.3527165892
 20
4.6676175757
 11
6.2304300596
 21
4.6676175757
  0
LINE
  5
68B
100
AcDbEntity
  8
0
100
AcDbLine
 62
7
  6
CONTINUOUS
 10
6.2304300596
 20
4.6676175757
 11
6.0230353007
 21
4.6676175757
  0
LINE
  5
68C
100
AcDbEntity
  8
02___PRT_ALL_AXES
100
AcDbLine
 62
7
  6
CONTINUOUS
 10
6.0230353007
 20
4.6676175757
 11
5.9007487711
 21
4.6676175757
  0
LINE
  5
68D
100
AcDbEntity
  8
0
100
AcDbLine
 62
7
  6
CONTINUOUS
 10
6.2341018939
 20
4.7069876544
 11
6.0193634664
 21
4.7069876544
  0
LWPOLYLINE
  5
68E
100
AcDbEntity
  8
02___PRT_ALL_AXES
100
AcDbPolyline
 62
7
  6
CONTINUOUS
 90
16
 70
0
 10
6.3527165892
 20
4.6676175757
 10
6.4344344167
 20
4.6257145039
 10
6.5086110264
 20
4.5715711633
 10
6.5734284825
 20
4.50651451
 10
6.6272982255
 20
4.432138966
 10
6.6689000045
 20
4.3502673424
 10
6.6972142345
 20
4.262906166
 10
6.7115469845
 20
4.1721965026
 10
6.7115469845
 20
4.0803614834
 10
6.6972142345
 20
3.98965182
 10
6.6689000045
 20
3.9022906436
 10
6.6272982255
 20
3.8204190201
 10
6.5734284825
 20
3.746043476
 10
6.5086110264
 20
3.6809868227
 10
6.4344344167
 20
3.6268434821
 10
6.3527165892
 20
3.5849404103
  0
CIRCLE
  5
68F
100
AcDbEntity
  8
0
100
AcDbCircle
 62
7
  6
CONTINUOUS
 10
15.2229827477
 20
1.1139932523
 40
0.252091
  0
CIRCLE
  5
690
100
AcDbEntity
  8
0
100
AcDbCircle
 62
7
  6
CONTINUOUS
 10
15.2229827477
 20
1.1139932523
 40
0.182698
  0
CIRCLE
  5
691
100
AcDbEntity
  8
0
100
AcDbCircle
 62
7
  6
CONTINUOUS
 10
14.8013422688
 20
1.8652439144
 40
0.0638444824
  0
ARC
  5
692
100
AcDbEntity
  8
02___PRT_ALL_AXES
100
AcDbCircle
 62
7
  6
CONTINUOUS
 10
5.3983862235
 20
8.5418806971
 40
0.157480315
100
AcDbArc
 50
180.0
 51
270.0
  0
ARC
  5
693
100
AcDbEntity
  8
02___PRT_ALL_AXES
100
AcDbCircle
 62
7
  6
CONTINUOUS
 10
6.8550791368
 20
8.5418806971
 40
0.157480315
100
AcDbArc
 50
270.0
 51
360.0
  0
ARC
  5
694
100
AcDbEntity
  8
0
100
AcDbCircle
 62
7
  6
CONTINUOUS
 10
7.0275594873
 20
13.9158964451
 40
0.0787401575
100
AcDbArc
 50
1.0000000028
 51
90.000000135
  0
ARC
  5
695
100
AcDbEntity
  8
0
100
AcDbCircle
 62
7
  6
CONTINUOUS
 10
5.225905873
 20
13.9158964451
 40
0.0787401575
100
AcDbArc
 50
89.999999865
 51
178.9999999972
  0
ARC
  5
696
100
AcDbEntity
  8
02___PRT_ALL_AXES
100
AcDbCircle
 62
7
  6
CONTINUOUS
 10
5.1818507904
 20
8.9749515632
 40
0.0590551181
100
AcDbArc
 50
0.0
 51
90.0
  0
ARC
  5
697
100
AcDbEntity
  8
02___PRT_ALL_AXES
100
AcDbCircle
 62
7
  6
CONTINUOUS
 10
7.0716145699
 20
8.9749515632
 40
0.0590551181
100
AcDbArc
 50
90.0
 51
180.0
  0
ARC
  5
698
100
AcDbEntity
  8
02___PRT_ALL_AXES
100
AcDbCircle
 62
7
  6
CONTINUOUS
 10
5.1818507904
 20
9.0733767601
 40
0.0393700787
100
AcDbArc
 50
180.0
 51
270.0
  0
ARC
  5
699
100
AcDbEntity
  8
02___PRT_ALL_AXES
100
AcDbCircle
 62
7
  6
CONTINUOUS
 10
7.0716145699
 20
9.0733767601
 40
0.0393700787
100
AcDbArc
 50
270.0
 51
360.0
  0
ARC
  5
69A
100
AcDbEntity
  8
0
100
AcDbCircle
 62
7
  6
CONTINUOUS
 10
6.6385437038
 20
7.6757389648
 40
0.0393700787
100
AcDbArc
 50
270.0
 51
360.0
  0
ARC
  5
69B
100
AcDbEntity
  8
0
100
AcDbCircle
 62
7
  6
CONTINUOUS
 10
5.6149216565
 20
7.6757389648
 40
0.0393700787
100
AcDbArc
 50
180.0
 51
270.0
  0
ARC
  5
69C
100
AcDbEntity
  8
0
100
AcDbCircle
 62
7
  6
CONTINUOUS
 10
5.536181499
 20
8.3450303034
 40
0.0393700787
100
AcDbArc
 50
0.0
 51
90.0
  0
ARC
  5
69D
100
AcDbEntity
  8
0
100
AcDbCircle
 62
7
  6
CONTINUOUS
 10
6.7172838613
 20
8.3450303034
 40
0.0393700787
100
AcDbArc
 50
90.0
 51
180.0
  0
CIRCLE
  5
69E
100
AcDbEntity
  8
AXIS_COSMETIC_THREADS
100
AcDbCircle
 62
7
  6
CONTINUOUS
 10
5.9298822864
 20
4.126278993
 40
0.0255905512
  0
CIRCLE
  5
69F
100
AcDbEntity
  8
AXIS_COSMETIC_THREADS
100
AcDbCircle
 62
7
  6
CONTINUOUS
 10
6.1267326802
 20
3.9294285993
 40
0.0255905512
  0
ARC
  5
6A0
100
AcDbEntity
  8
AXIS
100
AcDbCircle
 62
7
  6
CONTINUOUS
 10
6.1267326802
 20
4.126278993
 40
0.9842519685
100
AcDbArc
 50
270.0
 51
90.0
  0
CIRCLE
  5
6A1
100
AcDbEntity
  8
02___PRT_ALL_AXES
100
AcDbCircle
 62
7
  6
CONTINUOUS
 10
6.1267326802
 20
4.126278993
 40
0.9842519685
  0
CIRCLE
  5
6A2
100
AcDbEntity
  8
02___PRT_ALL_AXES
100
AcDbCircle
 62
7
  6
CONTINUOUS
 10
6.1267326802
 20
4.126278993
 40
0.9448818898
  0
CIRCLE
  5
6A3
100
AcDbEntity
  8
02___PRT_ALL_AXES
100
AcDbCircle
 62
7
  6
CONTINUOUS
 10
6.1267326802
 20
4.126278993
 40
0.8858267717
  0
CIRCLE
  5
6A4
100
AcDbEntity
  8
02___PRT_ALL_AXES
100
AcDbCircle
 62
7
  6
CONTINUOUS
 10
6.1267326802
 20
4.126278993
 40
0.7283464567
  0
ARC
  5
6A5
100
AcDbEntity
  8
0
100
AcDbCircle
 62
7
  6
CONTINUOUS
 10
6.1267326802
 20
4.126278993
 40
0.5905511811
100
AcDbArc
 50
100.4753138432
 51
259.5246861568
  0
ARC
  5
6A6
100
AcDbEntity
  8
0
100
AcDbCircle
 62
7
  6
CONTINUOUS
 10
6.1267326802
 20
4.126278993
 40
0.5905511811
100
AcDbArc
 50
280.4753138432
 51
79.5246861568
  0
ARC
  5
6A7
100
AcDbEntity
  8
0
100
AcDbCircle
 62
7
  6
CONTINUOUS
 10
6.1267326802
 20
4.126278993
 40
0.5511811024
100
AcDbArc
 50
280.8440625637
 51
79.1559374363
  0
ARC
  5
6A8
100
AcDbEntity
  8
0
100
AcDbCircle
 62
7
  6
CONTINUOUS
 10
6.1267326802
 20
4.126278993
 40
0.5511811024
100
AcDbArc
 50
100.8440625637
 51
259.1559374363
  0
ARC
  5
6A9
100
AcDbEntity
  8
0
100
AcDbCircle
 62
7
  6
CONTINUOUS
 10
6.1267326802
 20
4.126278993
 40
0.5118110236
100
AcDbArc
 50
101.2547126182
 51
258.7452873818
  0
ARC
  5
6AA
100
AcDbEntity
  8
0
100
AcDbCircle
 62
7
  6
CONTINUOUS
 10
6.1267326802
 20
4.126278993
 40
0.5118110236
100
AcDbArc
 50
281.2547126182
 51
78.7452873818
  0
CIRCLE
  5
6AB
100
AcDbEntity
  8
0
100
AcDbCircle
 62
7
  6
CONTINUOUS
 10
6.1267326802
 20
4.126278993
 40
0.3799212598
  0
CIRCLE
  5
6AC
100
AcDbEntity
  8
0
100
AcDbCircle
 62
7
  6
CONTINUOUS
 10
6.1267326802
 20
4.126278993
 40
0.3208224134
  0
CIRCLE
  5
6AD
100
AcDbEntity
  8
0
100
AcDbCircle
 62
7
  6
CONTINUOUS
 10
6.1267326802
 20
4.126278993
 40
0.3090551181
  0
CIRCLE
  5
6AE
100
AcDbEntity
  8
0
100
AcDbCircle
 62
7
  6
CONTINUOUS
 10
6.1267326802
 20
4.126278993
 40
0.277559055
  0
CIRCLE
  5
6AF
100
AcDbEntity
  8
0
100
AcDbCircle
 62
7
  6
CONTINUOUS
 10
6.1267326802
 20
4.126278993
 40
0.1358267717
  0
CIRCLE
  5
6B0
100
AcDbEntity
  8
0
100
AcDbCircle
 62
7
  6
CONTINUOUS
 10
6.1267326802
 20
4.126278993
 40
0.1200787402
  0
ARC
  5
6B1
100
AcDbEntity
  8
AXIS_COSMETIC_THREADS
100
AcDbCircle
 62
7
  6
CONTINUOUS
 10
6.1267326802
 20
4.126278993
 40
0.1181102362
100
AcDbArc
 50
314.4775121859
 51
345.5224878141
  0
ARC
  5
6B2
100
AcDbEntity
  8
AXIS_COSMETIC_THREADS
100
AcDbCircle
 62
7
  6
CONTINUOUS
 10
6.1267326802
 20
4.126278993
 40
0.1181102362
100
AcDbArc
 50
14.4775121859
 51
45.5224878141
  0
ARC
  5
6B3
100
AcDbEntity
  8
AXIS_COSMETIC_THREADS
100
AcDbCircle
 62
7
  6
CONTINUOUS
 10
6.1267326802
 20
4.126278993
 40
0.1181102362
100
AcDbArc
 50
194.4775121859
 51
225.5224878141
  0
ARC
  5
6B4
100
AcDbEntity
  8
AXIS_COSMETIC_THREADS
100
AcDbCircle
 62
7
  6
CONTINUOUS
 10
6.1267326802
 20
4.126278993
 40
0.1181102362
100
AcDbArc
 50
134.4775121859
 51
165.5224878141
  0
ARC
  5
6B5
100
AcDbEntity
  8
AXIS_COSMETIC_THREADS
100
AcDbCircle
 62
7
  6
CONTINUOUS
 10
6.1267326802
 20
4.126278993
 40
0.1181102362
100
AcDbArc
 50
74.4775121859
 51
105.5224878141
  0
ARC
  5
6B6
100
AcDbEntity
  8
AXIS_COSMETIC_THREADS
100
AcDbCircle
 62
7
  6
CONTINUOUS
 10
6.1267326802
 20
4.126278993
 40
0.1181102362
100
AcDbArc
 50
254.4775121859
 51
285.5224878141
  0
CIRCLE
  5
6B7
100
AcDbEntity
  8
02___PRT_ALL_AXES
100
AcDbCircle
 62
7
  6
CONTINUOUS
 10
6.1267326802
 20
4.126278993
 40
0.1075
  0
CIRCLE
  5
6B8
100
AcDbEntity
  8
AXIS_COSMETIC_THREADS
100
AcDbCircle
 62
7
  6
CONTINUOUS
 10
6.1267326802
 20
4.3231293867
 40
0.0255905512
  0
CIRCLE
  5
6B9
100
AcDbEntity
  8
AXIS_COSMETIC_THREADS
100
AcDbCircle
 62
7
  6
CONTINUOUS
 10
6.3235830739
 20
4.126278993
 40
0.0255905512
  0
ENDSEC
  0
SECTION
  2
OBJECTS
  0
DICTIONARY
  5
C
100
AcDbDictionary
280
0
281
1
  3
ACAD_GROUP
350
D
  3
ACAD_MLINESTYLE
350
17
  3
ACAD_LAYOUT
350
1A
  3
ACAD_PLOTSETTINGS
350
19
  3
ACAD_PLOTSTYLENAME
350
E
  3
ACAD_TABLESTYLE
350
       6BA
  0
DICTIONARY
  5
D
102
{ACAD_REACTORS
330
C
102
}
100
AcDbDictionary
280
0
281
1
  0
ACDBDICTIONARYWDFLT
  5
E
102
{ACAD_REACTORS
330
C
102
}
100
AcDbDictionary
281
1
  3
Normal
350
F
100
AcDbDictionaryWithDefault
340
F
  0
DICTIONARY
  5
17
102
{ACAD_REACTORS
330
C
102
}
100
AcDbDictionary
280
0
281
1
  3
Standard
350
18
  0
DICTIONARY
  5
6BA
330
C
100
AcDbDictionary
281
1
  3
Standard
350
       6BD
  3
Standard1
350
       6BE
  0
DICTIONARY
  5
19
102
{ACAD_REACTORS
330
C
102
}
100
AcDbDictionary
281
1
  0
DICTIONARY
  5
1A
102
{ACAD_REACTORS
330
C
102
}
100
AcDbDictionary
281
1
  3
Model
350
6BB
  3
Layout1
350
6BC
  0
ACDBPLACEHOLDER
  5
F
102
{ACAD_REACTORS
330
E
102
}
  0
MLINESTYLE
  5
18
102
{ACAD_REACTORS
330
17
102
}
100
AcDbMlineStyle
  2
STANDARD
 70
0
  3

 62
256
 51
90.0
 52
90.0
 71
2
 49
0.5
 62
256
  6
BYLAYER
 49
-0.5
 62
256
  6
BYLAYER
  0
LAYOUT
  5
6BB
102
{ACAD_REACTORS
330
1A
102
}
100
AcDbPlotSettings
  1

  2
none_device
  4
ANSI_C_(22.00_x_17.00_Inches)
  6

 40
0.0
 41
0.0
 42
0.0
 43
0.0
 44
558.8
 45
431.8
 46
0.0
 47
0.0
 48
0.0
 49
0.0
140
0.0
141
0.0
142
1.0
143
1.0
 70
1024
 72
0
 73
0
 74
0
  7

 75
0
147
1.0
148
0.0
149
0.0
100
AcDbLayout
  1
Model
 70
0
 71
0
 10
0.0
 20
0.0
 11
22.0
 21
17.0
 12
0.0
 22
0.0
 32
0.0
 14
0.0
 24
0.0
 34
0.0
 15
0.0
 25
0.0
 35
0.0
146
0.0
 13
0.0
 23
0.0
 33
0.0
 16
1.0
 26
0.0
 36
0.0
 17
0.0
 27
1.0
 37
0.0
 76
0
330
215
345
0
346
0
  0
LAYOUT
  5
6BC
102
{ACAD_REACTORS
330
1A
102
}
100
AcDbPlotSettings
  1

  2
none_device
  4
ANSI_C_(22.00_x_17.00_Inches)
  6

 40
0.0
 41
0.0
 42
0.0
 43
0.0
 44
558.8
 45
431.8
 46
0.0
 47
0.0
 48
0.0
 49
0.0
140
0.0
141
0.0
142
1.0
143
1.0
 70
0
 72
0
 73
0
 74
0
  7

 75
0
147
1.0
148
0.0
149
0.0
100
AcDbLayout
  1
Layout1
 70
0
 71
1
 10
0.0
 20
0.0
 11
22.0
 21
17.0
 12
0.0
 22
0.0
 32
0.0
 14
0.0
 24
0.0
 34
0.0
 15
0.0
 25
0.0
 35
0.0
146
0.0
 13
0.0
 23
0.0
 33
0.0
 16
1.0
 26
0.0
 36
0.0
 17
0.0
 27
1.0
 37
0.0
 76
0
330
216
345
0
346
0
  0
TABLESTYLE
  5
6BD
102
{ACAD_REACTORS
330
6BA
102
}
330
6BA
100
AcDbTableStyle
  3
Standard
 70
0
 71
0
 40
0.06
 41
0.06
280
1
281
1
  7
Standard
140
0.18
170
1
 62
0
 63
7
283
0
  7
Standard
140
0.18
170
1
 62
0
 63
7
283
0
  7
Standard
140
0.18
170
1
 62
0
 63
7
283
0
  0
TABLESTYLE
  5
6BE
102
{ACAD_REACTORS
330
6BA
330
289
102
}
330
6BA
100
AcDbTableStyle
  3
Standard1
 70
1
 71
0
 40
0.06
 41
0.06
280
1
281
1
  7
Standard
140
0.18
170
1
 62
0
 63
7
283
0
  7
Standard
140
0.18
170
1
 62
0
 63
7
283
0
  7
Standard
140
0.18
170
1
 62
0
 63
7
283
0
  0
ENDSEC
  0
EOF
