999
DXF file: 145179_1.dxf
999
Pro/ENGINEER 2006170 by Parametric Technology Corporation
  0
SECTION
  2
HEADER
  9
$ACADVER
  1
AC1015
  9
$DWGCODEPAGE
  3
ANSI_1252
  9
$EXTMAX
 10
17.0
 20
11.0
 30
0.0
  9
$EXTMIN
 10
0.0
 20
0.0
 30
0.0
  9
$LIMMIN
 10
0.0
 20
0.0
  9
$LIMMAX
 10
17.0
 20
11.0
  9
$VIEWCTR
 10
8.5
 20
5.5
  9
$VIEWSIZE
 40
11.0
  9
$CLAYER
  8
0
  9
$LTSCALE
 40
0.935
  9
$CELTYPE
  6
BYLAYER
  9
$DIMSCALE
 40
1.0
  9
$DIMASZ
 40
0.1875
  9
$DIMEXO
 40
0.10625
  9
$DIMDLI
 40
0.646
  9
$DIMEXE
 40
0.306
  9
$DIMCEN
 40
0.153
  9
$DIMLFAC
 40
1.0
  9
$DIMBLK
  1
_FILLED
  9
$DIMTXT
 40
0.1
  9
$DIMTOL
 70
1
  9
$DIMLIM
 70
0
  9
$DIMTFAC
 40
1.0
  9
$DIMTP
 40
0.005
  9
$DIMTM
 40
0.005
  9
$PDMODE
 70
3
  9
$PDSIZE
 40
0.3125
  9
$HANDSEED
  5
759
  9
$MEASUREMENT
 70
0
  9
$INSUNITS
 70
1
  0
ENDSEC
  0
SECTION
  2
CLASSES
  0
CLASS
  1
ACDBDICTIONARYWDFLT
  2
AcDbDictionaryWithDefault
  3
AutoCAD 2000
 90
0
280
0
281
0
  0
CLASS
  1
ACDBPLACEHOLDER
  2
AcDbPlaceHolder
  3
AutoCAD 2000
 90
0
280
0
281
0
  0
CLASS
  1
LAYOUT
  2
AcDbLayout
  3
AutoCAD 2000
 90
0
280
0
281
0
  0
ENDSEC
  0
SECTION
  2
TABLES
  0
TABLE
  2
VPORT
  5
8
100
AcDbSymbolTable
 70
2
  0
VPORT
  5
1F4
100
AcDbSymbolTableRecord
100
AcDbViewportTableRecord
  2
*ACTIVE
 70
0
 10
0.0
 20
0.0
 11
1.0
 21
1.0
 12
8.5
 22
5.5
 13
0.0
 23
0.0
 14
1.0
 24
1.0
 15
0.0
 25
0.0
 16
0.0
 26
0.0
 36
1.0
 17
0.0
 27
0.0
 37
0.0
 40
11.0
 41
1.5454545455
 42
50.0
 43
0.0
 44
0.0
 50
0.0
 51
0.0
 71
0
 72
100
 73
1
 74
1
 75
0
 76
0
 77
0
 78
0
  0
ENDTAB
  0
TABLE
  2
LTYPE
  5
5
100
AcDbSymbolTable
 70
6
  0
LTYPE
  5
14
100
AcDbSymbolTableRecord
100
AcDbLinetypeTableRecord
  2
BYBLOCK
 70
0
  3

 72
65
 73
0
 40
0.0
  0
LTYPE
  5
15
100
AcDbSymbolTableRecord
100
AcDbLinetypeTableRecord
  2
BYLAYER
 70
0
  3

 72
65
 73
0
 40
0.0
  0
LTYPE
  5
16
100
AcDbSymbolTableRecord
100
AcDbLinetypeTableRecord
  2
CONTINUOUS
 70
64
  3
Solid line
 72
65
 73
0
 40
0.0
  0
LTYPE
  5
1F5
100
AcDbSymbolTableRecord
100
AcDbLinetypeTableRecord
  2
CENTER
 70
64
  3
____ _ ____ _ ____ _ ____ _ ____ _ ____ _ ____
 72
65
 73
4
 40
0.6
 49
0.375
 74
0
 49
-0.075
 74
0
 49
0.075
 74
0
 49
-0.075
 74
0
  0
LTYPE
  5
1F6
100
AcDbSymbolTableRecord
100
AcDbLinetypeTableRecord
  2
HIDDEN
 70
64
  3
- - - - - - - - - - - - - - - - - - - -
 72
65
 73
2
 40
0.2
 49
0.1
 74
0
 49
-0.1
 74
0
  0
LTYPE
  5
1F7
100
AcDbSymbolTableRecord
100
AcDbLinetypeTableRecord
  2
PHANTOM
 70
64
  3
_____ _ _ _____ _ _ _____ _ _ _____
 72
65
 73
6
 40
0.8
 49
0.45
 74
0
 49
-0.05
 74
0
 49
0.1
 74
0
 49
-0.05
 74
0
 49
0.1
 74
0
 49
-0.05
 74
0
  0
LTYPE
  5
1F8
100
AcDbSymbolTableRecord
100
AcDbLinetypeTableRecord
  2
DOT
 70
64
  3
. . . . . . . . . . . . . . . . . . . .
 72
65
 73
2
 40
0.2
 49
0.1
 74
0
 49
-0.1
 74
0
  0
LTYPE
  5
1F9
100
AcDbSymbolTableRecord
100
AcDbLinetypeTableRecord
  2
DASHED
 70
64
  3
- - - - - - - - - - - - - - - - - - - -
 72
65
 73
2
 40
0.2
 49
0.1
 74
0
 49
-0.1
 74
0
  0
ENDTAB
  0
TABLE
  2
LAYER
  5
2
100
AcDbSymbolTable
 70
36
  0
LAYER
  5
10
100
AcDbSymbolTableRecord
100
AcDbLayerTableRecord
  2
0
 70
0
 62
7
  6
CONTINUOUS
370
-3
390
F
  0
LAYER
  5
1FA
100
AcDbSymbolTableRecord
100
AcDbLayerTableRecord
  2
DEFAULT_1
 70
0
 62
7
  6
CENTER
370
-3
390
F
  0
LAYER
  5
1FB
100
AcDbSymbolTableRecord
100
AcDbLayerTableRecord
  2
DEFAULT_2
 70
0
 62
8
  6
HIDDEN
370
-3
390
F
  0
LAYER
  5
1FC
100
AcDbSymbolTableRecord
100
AcDbLayerTableRecord
  2
DEFAULT_3
 70
0
 62
7
  6
PHANTOM
370
-3
390
F
  0
LAYER
  5
1FD
100
AcDbSymbolTableRecord
100
AcDbLayerTableRecord
  2
_2D_DELETED_OBJS
 70
0
 62
7
  6
CONTINUOUS
370
-3
390
F
  0
LAYER
  5
1FE
100
AcDbSymbolTableRecord
100
AcDbLayerTableRecord
  2
_BLACK_HOLE
 70
0
 62
7
  6
CONTINUOUS
370
-3
390
F
  0
LAYER
  5
1FF
100
AcDbSymbolTableRecord
100
AcDbLayerTableRecord
  2
01___PRT_ALL_DTM_PLN
 70
0
 62
7
  6
CONTINUOUS
370
-3
390
F
  0
LAYER
  5
200
100
AcDbSymbolTableRecord
100
AcDbLayerTableRecord
  2
01___PRT_DEF_DTM_PLN
 70
0
 62
7
  6
CONTINUOUS
370
-3
390
F
  0
LAYER
  5
201
100
AcDbSymbolTableRecord
100
AcDbLayerTableRecord
  2
02___PRT_ALL_AXES
 70
0
 62
7
  6
CONTINUOUS
370
-3
390
F
  0
LAYER
  5
202
100
AcDbSymbolTableRecord
100
AcDbLayerTableRecord
  2
03___PRT_ALL_CURVES
 70
0
 62
7
  6
CONTINUOUS
370
-3
390
F
  0
LAYER
  5
203
100
AcDbSymbolTableRecord
100
AcDbLayerTableRecord
  2
04___PRT_ALL_DTM_PNT
 70
0
 62
7
  6
CONTINUOUS
370
-3
390
F
  0
LAYER
  5
204
100
AcDbSymbolTableRecord
100
AcDbLayerTableRecord
  2
05___PRT_ALL_DTM_CSYS
 70
0
 62
7
  6
CONTINUOUS
370
-3
390
F
  0
LAYER
  5
205
100
AcDbSymbolTableRecord
100
AcDbLayerTableRecord
  2
05___PRT_DEF_DTM_CSYS
 70
0
 62
7
  6
CONTINUOUS
370
-3
390
F
  0
LAYER
  5
206
100
AcDbSymbolTableRecord
100
AcDbLayerTableRecord
  2
06___PRT_ALL_SURFS
 70
0
 62
7
  6
CONTINUOUS
370
-3
390
F
  0
LAYER
  5
207
100
AcDbSymbolTableRecord
100
AcDbLayerTableRecord
  2
AXIS
 70
0
 62
7
  6
CONTINUOUS
370
-3
390
F
  0
LAYER
  5
208
100
AcDbSymbolTableRecord
100
AcDbLayerTableRecord
  2
AXIS_COSMETIC_THREADS
 70
0
 62
7
  6
CONTINUOUS
370
-3
390
F
  0
LAYER
  5
209
100
AcDbSymbolTableRecord
100
AcDbLayerTableRecord
  2
DATUM_CURVES
 70
0
 62
7
  6
CONTINUOUS
370
-3
390
F
  0
LAYER
  5
20A
100
AcDbSymbolTableRecord
100
AcDbLayerTableRecord
  2
DATUM_PLANES
 70
0
 62
7
  6
CONTINUOUS
370
-3
390
F
  0
LAYER
  5
20B
100
AcDbSymbolTableRecord
100
AcDbLayerTableRecord
  2
HIDE
 70
0
 62
7
  6
CONTINUOUS
370
-3
390
F
  0
LAYER
  5
20C
100
AcDbSymbolTableRecord
100
AcDbLayerTableRecord
  2
NOTES
 70
0
 62
7
  6
CONTINUOUS
370
-3
390
F
  0
LAYER
  5
20D
100
AcDbSymbolTableRecord
100
AcDbLayerTableRecord
  2
QUILTS
 70
0
 62
7
  6
CONTINUOUS
370
-3
390
F
  0
LAYER
  5
20E
100
AcDbSymbolTableRecord
100
AcDbLayerTableRecord
  2
SCHEME_DIMS
 70
0
 62
7
  6
CONTINUOUS
370
-3
390
F
  0
LAYER
  5
20F
100
AcDbSymbolTableRecord
100
AcDbLayerTableRecord
  2
SYMBOLS
 70
0
 62
7
  6
CONTINUOUS
370
-3
390
F
  0
ENDTAB
  0
TABLE
  2
STYLE
  5
3
100
AcDbSymbolTable
 70
1
  0
STYLE
  5
11
100
AcDbSymbolTableRecord
100
AcDbTextStyleTableRecord
  2
STANDARD
 70
0
 40
0.0
 41
1.0
 50
0.0
 71
0
 42
0.2
  3
txt
  4

  0
ENDTAB
  0
TABLE
  2
VIEW
  5
6
100
AcDbSymbolTable
 70
0
  0
ENDTAB
  0
TABLE
  2
UCS
  5
7
100
AcDbSymbolTable
 70
0
  0
ENDTAB
  0
TABLE
  2
APPID
  5
9
100
AcDbSymbolTable
 70
1
  0
APPID
  5
210
100
AcDbSymbolTableRecord
100
AcDbRegAppTableRecord
  2
ACAD
 70
0
  0
ENDTAB
  0
TABLE
  2
BLOCK_RECORD
  5
1
100
AcDbSymbolTable
 70
0
  0
BLOCK_RECORD
  5
1F
100
AcDbSymbolTableRecord
100
AcDbBlockTableRecord
  2
*MODEL_SPACE
  0
BLOCK_RECORD
  5
1B
100
AcDbSymbolTableRecord
100
AcDbBlockTableRecord
  2
*PAPER_SPACE
  0
BLOCK_RECORD
  5
211
100
AcDbSymbolTableRecord
100
AcDbBlockTableRecord
  2
_FILLED
  0
BLOCK_RECORD
  5
212
100
AcDbSymbolTableRecord
100
AcDbBlockTableRecord
  2
BANNER_LOGO_TITLEBLOCK_BL0
  0
BLOCK_RECORD
  5
213
100
AcDbSymbolTableRecord
100
AcDbBlockTableRecord
  2
*D0
  0
BLOCK_RECORD
  5
214
100
AcDbSymbolTableRecord
100
AcDbBlockTableRecord
  2
*D1
  0
BLOCK_RECORD
  5
215
100
AcDbSymbolTableRecord
100
AcDbBlockTableRecord
  2
*D2
  0
BLOCK_RECORD
  5
216
100
AcDbSymbolTableRecord
100
AcDbBlockTableRecord
  2
*D3
  0
BLOCK_RECORD
  5
217
100
AcDbSymbolTableRecord
100
AcDbBlockTableRecord
  2
*D4
  0
ENDTAB
  0
TABLE
  2
DIMSTYLE
  5
A
100
AcDbSymbolTable
 70
1
100
AcDbDimStyleTable
 71
0
  0
DIMSTYLE
105
218
100
AcDbSymbolTableRecord
100
AcDbDimStyleTableRecord
  2
STANDARD
 70
0
  3

  4

 40
1.0
 41
0.1875
 42
0.0625
 43
0.38
 44
0.18
 45
0.0
 46
0.0
 47
0.005
 48
0.005
140
0.1
141
0.09
142
0.0
143
25.4
144
1.0
145
0.0
146
1.0
147
0.09
 71
1.0
 72
0.0
 73
1
 74
1
 75
0
 76
0
 77
0
 78
4
170
0
171
2
172
0
173
0
174
0
175
0
176
0
177
0
178
0
270
2
271
3
272
3
273
2
274
2
275
0
280
0
281
0
282
0
283
1
284
4
285
0
286
0
287
3
288
0
340
11
341
211
342
211
343
211
344
211
  0
DIMSTYLE
105
219
100
AcDbSymbolTableRecord
100
AcDbDimStyleTableRecord
  2
DIMSTYLE_1
 70
0
  3

  4

 40
1.0
 41
0.1875
 42
0.0625
 43
0.38
 44
0.18
 45
0.0
 46
0.0
 47
0.1
 48
0.1
140
0.1
141
0.09
142
0.0
143
25.4
144
1.0
145
0.0
146
1.0
147
0.09
 71
0.0
 72
0.0
 73
1
 74
1
 75
0
 76
0
 77
0
 78
4
170
0
171
2
172
0
173
0
174
0
175
0
176
0
177
0
178
0
270
2
271
1
272
1
273
2
274
2
275
0
280
0
281
0
282
0
283
1
284
4
285
0
286
0
287
3
288
0
340
11
341
211
342
211
343
211
344
211
  0
DIMSTYLE
105
21A
100
AcDbSymbolTableRecord
100
AcDbDimStyleTableRecord
  2
DIMSTYLE_2
 70
0
  3

  4

 40
1.0
 41
0.1875
 42
0.0625
 43
0.38
 44
0.18
 45
0.0
 46
0.0
 47
0.1
 48
0.1
140
0.1
141
0.09
142
0.0
143
25.4
144
1.0
145
0.0
146
1.0
147
0.09
 71
0.0
 72
0.0
 73
1
 74
1
 75
0
 76
0
 77
0
 78
4
170
0
171
2
172
0
173
0
174
0
175
0
176
0
177
0
178
0
270
2
271
1
272
1
273
2
274
2
275
0
280
0
281
0
282
0
283
1
284
4
285
0
286
0
287
3
288
0
340
11
341
211
342
211
343
211
344
211
  0
ENDTAB
  0
ENDSEC
  0
SECTION
  2
BLOCKS
  0
BLOCK
  5
20
100
AcDbEntity
  8
0
100
AcDbBlockBegin
  2
*MODEL_SPACE
 70
0
 10
0.0
 20
0.0
 30
0.0
  3
*MODEL_SPACE
  1

  0
ENDBLK
  5
21
100
AcDbEntity
  8
0
100
AcDbBlockEnd
  0
BLOCK
  5
1C
100
AcDbEntity
  8
0
100
AcDbBlockBegin
  2
*PAPER_SPACE
 70
0
 10
0.0
 20
0.0
 30
0.0
  3
*PAPER_SPACE
  1

  0
ENDBLK
  5
1D
100
AcDbEntity
  8
0
100
AcDbBlockEnd
  0
BLOCK
  5
21B
100
AcDbEntity
  8
0
100
AcDbBlockBegin
 62
2
  6
CONTINUOUS
  2
BANNER_LOGO_TITLEBLOCK_BL0
 70
64
 10
12.9046655056
 20
2.5403783448
  3
BANNER_LOGO_TITLEBLOCK_BL0
  1

  0
LWPOLYLINE
  5
21C
100
AcDbEntity
  8
0
100
AcDbPolyline
 62
2
  6
CONTINUOUS
 90
29
 70
0
 10
12.0796650004
 20
2.5403783448
 10
12.1000078385
 20
2.5005819703
 10
12.1615890075
 20
2.4620382478
 10
12.2590135686
 20
2.4281250935
 10
12.3910903821
 20
2.3992568791
 10
12.5462480343
 20
2.3779627503
 10
12.7225901426
 20
2.3645025835
 10
12.9046652672
 20
2.3600565514
 10
13.0867408686
 20
2.3645025835
 10
13.2630829769
 20
2.3779627503
 10
13.4182401522
 20
2.3992568791
 10
13.5503174426
 20
2.4281250935
 10
13.6477415269
 20
2.4620382478
 10
13.7093231727
 20
2.5005819703
 10
13.7296660108
 20
2.5403783448
 10
13.7093231727
 20
2.5801747193
 10
13.6477415269
 20
2.6187184418
 10
13.5503174426
 20
2.6526315961
 10
13.4182401522
 20
2.6814998105
 10
13.2630829769
 20
2.7027939393
 10
13.0867408686
 20
2.7162541061
 10
12.9046652672
 20
2.7207001382
 10
12.7225901426
 20
2.7162541061
 10
12.5462480343
 20
2.7027939393
 10
12.3910903821
 20
2.6814998105
 10
12.2590135686
 20
2.6526315961
 10
12.1615890075
 20
2.6187184418
 10
12.1000078385
 20
2.5801747193
 10
12.0796650004
 20
2.5403783448
  0
ARC
  5
21D
100
AcDbEntity
  8
0
100
AcDbCircle
 62
2
  6
CONTINUOUS
 10
12.400005721
 20
2.5168763464
 40
0.0153945295
100
AcDbArc
 50
354.0454548824
 51
5.1878013979
  0
ARC
  5
21E
100
AcDbEntity
  8
0
100
AcDbCircle
 62
2
  6
CONTINUOUS
 10
12.3931760319
 20
2.5166878286
 40
0.0222174455
100
AcDbArc
 50
4.0793399388
 51
69.834329283
  0
LINE
  5
21F
100
AcDbEntity
  8
0
100
AcDbLine
 62
2
  6
CONTINUOUS
 10
12.4008351814
 20
2.5375433389
 11
12.3907841758
 21
2.5410923409
  0
LINE
  5
220
100
AcDbEntity
  8
0
100
AcDbLine
 62
2
  6
CONTINUOUS
 10
12.3907841758
 20
2.5410923409
 11
12.3990241804
 21
2.5458683435
  0
ARC
  5
221
100
AcDbEntity
  8
0
100
AcDbCircle
 62
2
  6
CONTINUOUS
 10
12.3771587979
 20
2.5826952352
 40
0.0428289026
100
AcDbArc
 50
300.6990502959
 51
319.0591802498
  0
ARC
  5
222
100
AcDbEntity
  8
0
100
AcDbCircle
 62
2
  6
CONTINUOUS
 10
12.3971873948
 20
2.5665668817
 40
0.0171568255
100
AcDbArc
 50
315.9145124245
 51
16.0049121282
  0
ARC
  5
223
100
AcDbEntity
  8
0
100
AcDbCircle
 62
2
  6
CONTINUOUS
 10
12.3922357827
 20
2.5632132173
 40
0.0229166529
100
AcDbArc
 50
20.6563876465
 51
62.3316896973
  0
ARC
  5
224
100
AcDbEntity
  8
0
100
AcDbCircle
 62
2
  6
CONTINUOUS
 10
12.371573659
 20
2.5302846524
 40
0.061747717
100
AcDbArc
 50
59.5385584989
 51
90.0050977555
  0
LINE
  5
225
100
AcDbEntity
  8
0
100
AcDbLine
 62
2
  6
CONTINUOUS
 10
12.3715681652
 20
2.5920323691
 11
12.2055050731
 21
2.5920323691
  0
ARC
  5
226
100
AcDbEntity
  8
0
100
AcDbCircle
 62
2
  6
CONTINUOUS
 10
12.2055050712
 20
2.5895573696
 40
0.0024749995
100
AcDbArc
 50
89.9999571957
 51
180.0000428043
  0
LINE
  5
227
100
AcDbEntity
  8
0
100
AcDbLine
 62
2
  6
CONTINUOUS
 10
12.2030300717
 20
2.5895573678
 11
12.2030300717
 21
2.5697573568
  0
ARC
  5
228
100
AcDbEntity
  8
0
100
AcDbCircle
 62
2
  6
CONTINUOUS
 10
12.2055050712
 20
2.5697573549
 40
0.0024749995
100
AcDbArc
 50
179.9999571957
 51
270.0000428043
  0
LINE
  5
229
100
AcDbEntity
  8
0
100
AcDbLine
 62
2
  6
CONTINUOUS
 10
12.2055050731
 20
2.5672823554
 11
12.2294470864
 21
2.5672823554
  0
ARC
  5
22A
100
AcDbEntity
  8
0
100
AcDbCircle
 62
2
  6
CONTINUOUS
 10
12.2294470882
 20
2.5648073559
 40
0.0024749995
100
AcDbArc
 50
359.9999571957
 51
90.0000428043
  0
LINE
  5
22B
100
AcDbEntity
  8
0
100
AcDbLine
 62
2
  6
CONTINUOUS
 10
12.2319220877
 20
2.564807354
 11
12.2319220877
 21
2.5184523283
  0
ARC
  5
22C
100
AcDbEntity
  8
0
100
AcDbCircle
 62
2
  6
CONTINUOUS
 10
12.2294470882
 20
2.5184523265
 40
0.0024749995
100
AcDbArc
 50
269.9999571957
 51
0.0000428043
  0
LINE
  5
22D
100
AcDbEntity
  8
0
100
AcDbLine
 62
2
  6
CONTINUOUS
 10
12.2294470864
 20
2.515977327
 11
12.2055050731
 21
2.515977327
  0
ARC
  5
22E
100
AcDbEntity
  8
0
100
AcDbCircle
 62
2
  6
CONTINUOUS
 10
12.2055050712
 20
2.5135023274
 40
0.0024749995
100
AcDbArc
 50
89.9999571957
 51
180.0000428043
  0
LINE
  5
22F
100
AcDbEntity
  8
0
100
AcDbLine
 62
2
  6
CONTINUOUS
 10
12.2030300717
 20
2.5135023256
 11
12.2030300717
 21
2.4937023146
  0
ARC
  5
230
100
AcDbEntity
  8
0
100
AcDbCircle
 62
2
  6
CONTINUOUS
 10
12.2055050712
 20
2.4937023128
 40
0.0024749995
100
AcDbArc
 50
179.9999571957
 51
270.0000428043
  0
LINE
  5
231
100
AcDbEntity
  8
0
100
AcDbLine
 62
2
  6
CONTINUOUS
 10
12.2055050731
 20
2.4912273132
 11
12.3819511709
 21
2.4912273132
  0
ARC
  5
232
100
AcDbEntity
  8
0
100
AcDbCircle
 62
2
  6
CONTINUOUS
 10
12.3792298263
 20
2.539634765
 40
0.048483885
100
AcDbArc
 50
273.21763719
 51
303.0749121182
  0
ARC
  5
233
100
AcDbEntity
  8
0
100
AcDbCircle
 62
2
  6
CONTINUOUS
 10
12.3940692204
 20
2.5168671561
 40
0.0213072145
100
AcDbArc
 50
303.0488228549
 51
355.7263138674
  0
LINE
  5
234
100
AcDbEntity
  8
0
100
AcDbLine
 62
2
  6
CONTINUOUS
 10
12.2949101227
 20
2.5499573458
 11
12.3362731456
 21
2.5499573458
  0
ARC
  5
235
100
AcDbEntity
  8
0
100
AcDbCircle
 62
2
  6
CONTINUOUS
 10
12.3362731456
 20
2.5586198506
 40
0.0086625048
100
AcDbArc
 50
270.0
 51
90.0
  0
LINE
  5
236
100
AcDbEntity
  8
0
100
AcDbLine
 62
2
  6
CONTINUOUS
 10
12.3362731456
 20
2.5672823554
 11
12.2949101227
 21
2.5672823554
  0
ARC
  5
237
100
AcDbEntity
  8
0
100
AcDbCircle
 62
2
  6
CONTINUOUS
 10
12.2949101208
 20
2.5648073559
 40
0.0024749995
100
AcDbArc
 50
89.9999571957
 51
180.0000428043
  0
LINE
  5
238
100
AcDbEntity
  8
0
100
AcDbLine
 62
2
  6
CONTINUOUS
 10
12.2924351213
 20
2.564807354
 11
12.2924351213
 21
2.5524323472
  0
ARC
  5
239
100
AcDbEntity
  8
0
100
AcDbCircle
 62
2
  6
CONTINUOUS
 10
12.2949101208
 20
2.5524323453
 40
0.0024749995
100
AcDbArc
 50
179.9999571957
 51
270.0000428043
  0
LINE
  5
23A
100
AcDbEntity
  8
0
100
AcDbLine
 62
2
  6
CONTINUOUS
 10
12.2924351213
 20
2.5184523283
 11
12.2924351213
 21
2.5308273352
  0
ARC
  5
23B
100
AcDbEntity
  8
0
100
AcDbCircle
 62
2
  6
CONTINUOUS
 10
12.2949101208
 20
2.530827337
 40
0.0024749995
100
AcDbArc
 50
89.9999571957
 51
180.0000428043
  0
LINE
  5
23C
100
AcDbEntity
  8
0
100
AcDbLine
 62
2
  6
CONTINUOUS
 10
12.2949101227
 20
2.5333023366
 11
12.3362731456
 21
2.5333023366
  0
ARC
  5
23D
100
AcDbEntity
  8
0
100
AcDbCircle
 62
2
  6
CONTINUOUS
 10
12.3362731456
 20
2.5246398318
 40
0.0086625048
100
AcDbArc
 50
270.0
 51
90.0
  0
LINE
  5
23E
100
AcDbEntity
  8
0
100
AcDbLine
 62
2
  6
CONTINUOUS
 10
12.3362731456
 20
2.515977327
 11
12.2949101227
 21
2.515977327
  0
ARC
  5
23F
100
AcDbEntity
  8
0
100
AcDbCircle
 62
2
  6
CONTINUOUS
 10
12.2949101208
 20
2.5184523265
 40
0.0024749995
100
AcDbArc
 50
179.9999571957
 51
270.0000428043
  0
ARC
  5
240
100
AcDbEntity
  8
0
100
AcDbCircle
 62
2
  6
CONTINUOUS
 10
13.5806801742
 20
2.5212486481
 40
0.044722495
100
AcDbArc
 50
195.531588407
 51
204.7624440448
  0
LINE
  5
241
100
AcDbEntity
  8
0
100
AcDbLine
 62
2
  6
CONTINUOUS
 10
13.5375908118
 20
2.5092733232
 11
13.5357868108
 21
2.5153423266
  0
ARC
  5
242
100
AcDbEntity
  8
0
100
AcDbCircle
 62
2
  6
CONTINUOUS
 10
13.4974076135
 20
2.5055452462
 40
0.0396099176
100
AcDbArc
 50
14.3201081283
 51
22.4984722084
  0
ARC
  5
243
100
AcDbEntity
  8
0
100
AcDbCircle
 62
2
  6
CONTINUOUS
 10
13.5201739219
 20
2.5145168728
 40
0.0151491919
100
AcDbArc
 50
24.098260853
 51
63.0369451818
  0
ARC
  5
244
100
AcDbEntity
  8
0
100
AcDbCircle
 62
2
  6
CONTINUOUS
 10
13.5161192671
 20
2.5062372524
 40
0.0243676582
100
AcDbArc
 50
63.3666028271
 51
90.3937697637
  0
LINE
  5
245
100
AcDbEntity
  8
0
100
AcDbLine
 62
2
  6
CONTINUOUS
 10
13.5159517998
 20
2.5306043351
 11
13.4883447845
 21
2.5306043351
  0
ARC
  5
246
100
AcDbEntity
  8
0
100
AcDbCircle
 62
2
  6
CONTINUOUS
 10
13.4883447827
 20
2.5281293355
 40
0.0024749995
100
AcDbArc
 50
89.9999571957
 51
180.0000428043
  0
LINE
  5
247
100
AcDbEntity
  8
0
100
AcDbLine
 62
2
  6
CONTINUOUS
 10
13.4858697831
 20
2.5281293337
 11
13.4858697831
 21
2.5184303283
  0
ARC
  5
248
100
AcDbEntity
  8
0
100
AcDbCircle
 62
2
  6
CONTINUOUS
 10
13.4883447827
 20
2.5184303265
 40
0.0024749995
100
AcDbArc
 50
179.9999571957
 51
270.0000428043
  0
LINE
  5
249
100
AcDbEntity
  8
0
100
AcDbLine
 62
2
  6
CONTINUOUS
 10
13.4883447845
 20
2.5159553269
 11
13.5130037982
 21
2.5159553269
  0
ARC
  5
24A
100
AcDbEntity
  8
0
100
AcDbCircle
 62
2
  6
CONTINUOUS
 10
13.5130038
 20
2.5134803274
 40
0.0024749995
100
AcDbArc
 50
359.9999571957
 51
90.0000428043
  0
LINE
  5
24B
100
AcDbEntity
  8
0
100
AcDbLine
 62
2
  6
CONTINUOUS
 10
13.5154787995
 20
2.5134803256
 11
13.5154787995
 21
2.4937023146
  0
ARC
  5
24C
100
AcDbEntity
  8
0
100
AcDbCircle
 62
2
  6
CONTINUOUS
 10
13.5130038
 20
2.4937023128
 40
0.0024749995
100
AcDbArc
 50
269.9999571957
 51
0.0000428043
  0
LINE
  5
24D
100
AcDbEntity
  8
0
100
AcDbLine
 62
2
  6
CONTINUOUS
 10
13.5130037982
 20
2.4912273132
 11
13.3994327352
 21
2.4912273132
  0
ARC
  5
24E
100
AcDbEntity
  8
0
100
AcDbCircle
 62
2
  6
CONTINUOUS
 10
13.3994327333
 20
2.4937023128
 40
0.0024749995
100
AcDbArc
 50
179.9999571957
 51
270.0000428043
  0
LINE
  5
24F
100
AcDbEntity
  8
0
100
AcDbLine
 62
2
  6
CONTINUOUS
 10
13.3969577338
 20
2.4937023146
 11
13.3969577338
 21
2.5135023256
  0
ARC
  5
250
100
AcDbEntity
  8
0
100
AcDbCircle
 62
2
  6
CONTINUOUS
 10
13.3994327333
 20
2.5135023274
 40
0.0024749995
100
AcDbArc
 50
89.9999571957
 51
180.0000428043
  0
LINE
  5
251
100
AcDbEntity
  8
0
100
AcDbLine
 62
2
  6
CONTINUOUS
 10
13.3994327352
 20
2.515977327
 11
13.4221787478
 21
2.515977327
  0
ARC
  5
252
100
AcDbEntity
  8
0
100
AcDbCircle
 62
2
  6
CONTINUOUS
 10
13.4221787497
 20
2.5184523265
 40
0.0024749995
100
AcDbArc
 50
269.9999571957
 51
0.0000428042
  0
LINE
  5
253
100
AcDbEntity
  8
0
100
AcDbLine
 62
2
  6
CONTINUOUS
 10
13.4246537492
 20
2.5184523283
 11
13.4246537492
 21
2.564807354
  0
ARC
  5
254
100
AcDbEntity
  8
0
100
AcDbCircle
 62
2
  6
CONTINUOUS
 10
13.4221787497
 20
2.5648073559
 40
0.0024749995
100
AcDbArc
 50
359.9999571957
 51
90.0000428043
  0
LINE
  5
255
100
AcDbEntity
  8
0
100
AcDbLine
 62
2
  6
CONTINUOUS
 10
13.4221787478
 20
2.5672823554
 11
13.3994327352
 21
2.5672823554
  0
ARC
  5
256
100
AcDbEntity
  8
0
100
AcDbCircle
 62
2
  6
CONTINUOUS
 10
13.3994327333
 20
2.5697573549
 40
0.0024749995
100
AcDbArc
 50
179.9999571957
 51
270.0000428043
  0
LINE
  5
257
100
AcDbEntity
  8
0
100
AcDbLine
 62
2
  6
CONTINUOUS
 10
13.3969577338
 20
2.5697573568
 11
13.3969577338
 21
2.5895573678
  0
ARC
  5
258
100
AcDbEntity
  8
0
100
AcDbCircle
 62
2
  6
CONTINUOUS
 10
13.3994327333
 20
2.5895573696
 40
0.0024749995
100
AcDbArc
 50
89.9999571957
 51
180.0000428043
  0
LINE
  5
259
100
AcDbEntity
  8
0
100
AcDbLine
 62
2
  6
CONTINUOUS
 10
13.3994327352
 20
2.5920323691
 11
13.5490138181
 21
2.5920323691
  0
ARC
  5
25A
100
AcDbEntity
  8
0
100
AcDbCircle
 62
2
  6
CONTINUOUS
 10
13.5463505148
 20
2.4094934586
 40
0.1825583387
100
AcDbArc
 50
79.8618509324
 51
89.1640948679
  0
ARC
  5
25B
100
AcDbEntity
  8
0
100
AcDbCircle
 62
2
  6
CONTINUOUS
 10
13.5726548052
 20
2.5503169747
 40
0.039319019
100
AcDbArc
 50
59.1202086415
 51
81.4730239328
  0
ARC
  5
25C
100
AcDbEntity
  8
0
100
AcDbCircle
 62
2
  6
CONTINUOUS
 10
13.5783142014
 20
2.5566516438
 40
0.0310192946
100
AcDbArc
 50
34.7540871
 51
62.0879016178
  0
ARC
  5
25D
100
AcDbEntity
  8
0
100
AcDbCircle
 62
2
  6
CONTINUOUS
 10
13.5900029525
 20
2.565201245
 40
0.0165459396
100
AcDbArc
 50
1.548452892
 51
33.5033152417
  0
ARC
  5
25E
100
AcDbEntity
  8
0
100
AcDbCircle
 62
2
  6
CONTINUOUS
 10
13.5932995477
 20
2.5653696972
 40
0.0132462337
100
AcDbArc
 50
331.1510006998
 51
1.205404301
  0
ARC
  5
25F
100
AcDbEntity
  8
0
100
AcDbCircle
 62
2
  6
CONTINUOUS
 10
13.5822888914
 20
2.5720482849
 40
0.0261183659
100
AcDbArc
 50
305.6373831893
 51
329.9727629745
  0
ARC
  5
260
100
AcDbEntity
  8
0
100
AcDbCircle
 62
2
  6
CONTINUOUS
 10
13.5519569538
 20
2.6152551345
 40
0.0789082104
100
AcDbArc
 50
292.906155071
 51
305.2574666259
  0
ARC
  5
261
100
AcDbEntity
  8
0
100
AcDbCircle
 62
2
  6
CONTINUOUS
 10
13.5282557878
 20
2.4386010294
 40
0.117346916
100
AcDbArc
 50
58.614769177
 51
62.3737227606
  0
ARC
  5
262
100
AcDbEntity
  8
0
100
AcDbCircle
 62
2
  6
CONTINUOUS
 10
13.5761387404
 20
2.5167282896
 40
0.0257145923
100
AcDbArc
 50
39.3804255939
 51
59.0361096173
  0
ARC
  5
263
100
AcDbEntity
  8
0
100
AcDbCircle
 62
2
  6
CONTINUOUS
 10
13.5750183849
 20
2.5166552064
 40
0.0266349791
100
AcDbArc
 50
20.3630922153
 51
37.9727053099
  0
ARC
  5
264
100
AcDbEntity
  8
0
100
AcDbCircle
 62
2
  6
CONTINUOUS
 10
13.5571178432
 20
2.509473798
 40
0.0459185159
100
AcDbArc
 50
15.6740290068
 51
20.9917271228
  0
ARC
  5
265
100
AcDbEntity
  8
0
100
AcDbCircle
 62
2
  6
CONTINUOUS
 10
13.6156881783
 20
2.525116781
 40
0.0147197649
100
AcDbArc
 50
192.7054516565
 51
206.0594861022
  0
ARC
  5
266
100
AcDbEntity
  8
0
100
AcDbCircle
 62
2
  6
CONTINUOUS
 10
13.6071938412
 20
2.5209082945
 40
0.0052403997
100
AcDbArc
 50
205.5232099488
 51
227.5054868079
  0
ARC
  5
267
100
AcDbEntity
  8
0
100
AcDbCircle
 62
2
  6
CONTINUOUS
 10
13.6054655419
 20
2.5190929218
 40
0.0027347709
100
AcDbArc
 50
228.5117626737
 51
266.1485845754
  0
LINE
  5
268
100
AcDbEntity
  8
0
100
AcDbLine
 62
2
  6
CONTINUOUS
 10
13.6052818493
 20
2.5163643272
 11
13.60639085
 21
2.5163643272
  0
ARC
  5
269
100
AcDbEntity
  8
0
100
AcDbCircle
 62
2
  6
CONTINUOUS
 10
13.6063292954
 20
2.5296129864
 40
0.0132488022
100
AcDbArc
 50
270.266200055
 51
281.2404888597
  0
ARC
  5
26A
100
AcDbEntity
  8
0
100
AcDbCircle
 62
2
  6
CONTINUOUS
 10
13.6075235364
 20
2.5238762928
 40
0.0073895522
100
AcDbArc
 50
280.8288201977
 51
305.0837508495
  0
ARC
  5
26B
100
AcDbEntity
  8
0
100
AcDbCircle
 62
2
  6
CONTINUOUS
 10
13.607924718
 20
2.5230254464
 40
0.0064647042
100
AcDbArc
 50
306.5086174083
 51
340.2162360092
  0
ARC
  5
26C
100
AcDbEntity
  8
0
100
AcDbCircle
 62
2
  6
CONTINUOUS
 10
13.6027235414
 20
2.524769508
 40
0.0119498009
100
AcDbArc
 50
340.7883861657
 51
1.1691452593
  0
LINE
  5
26D
100
AcDbEntity
  8
0
100
AcDbLine
 62
2
  6
CONTINUOUS
 10
13.6146708546
 20
2.525013332
 11
13.6146708546
 21
2.5276393334
  0
ARC
  5
26E
100
AcDbEntity
  8
0
100
AcDbCircle
 62
2
  6
CONTINUOUS
 10
13.6171458541
 20
2.5276393353
 40
0.0024749995
100
AcDbArc
 50
89.9999571957
 51
180.0000428043
  0
LINE
  5
26F
100
AcDbEntity
  8
0
100
AcDbLine
 62
2
  6
CONTINUOUS
 10
13.6171458559
 20
2.5301143348
 11
13.6292558626
 21
2.5301143348
  0
ARC
  5
270
100
AcDbEntity
  8
0
100
AcDbCircle
 62
2
  6
CONTINUOUS
 10
13.6292558645
 20
2.5276393353
 40
0.0024749995
100
AcDbArc
 50
359.9999571957
 51
90.0000428043
  0
LINE
  5
271
100
AcDbEntity
  8
0
100
AcDbLine
 62
2
  6
CONTINUOUS
 10
13.631730864
 20
2.5276393334
 11
13.631730864
 21
2.516087327
  0
ARC
  5
272
100
AcDbEntity
  8
0
100
AcDbCircle
 62
2
  6
CONTINUOUS
 10
13.6141751675
 20
2.5161916447
 40
0.0175560065
100
AcDbArc
 50
332.2279060967
 51
359.6595469939
  0
ARC
  5
273
100
AcDbEntity
  8
0
100
AcDbCircle
 62
2
  6
CONTINUOUS
 10
13.6048681567
 20
2.5210861501
 40
0.0280715479
100
AcDbArc
 50
308.5071794988
 51
332.2400656899
  0
ARC
  5
274
100
AcDbEntity
  8
0
100
AcDbCircle
 62
2
  6
CONTINUOUS
 10
13.5978759713
 20
2.5286873679
 40
0.0383802683
100
AcDbArc
 50
288.7656836787
 51
309.6104317088
  0
ARC
  5
275
100
AcDbEntity
  8
0
100
AcDbCircle
 62
2
  6
CONTINUOUS
 10
13.6036139387
 20
2.5111006186
 40
0.0198837666
100
AcDbArc
 50
271.8586572978
 51
289.4131338543
  0
LINE
  5
276
100
AcDbEntity
  8
0
100
AcDbLine
 62
2
  6
CONTINUOUS
 10
13.6042588488
 20
2.4912273132
 11
13.5568948225
 21
2.4912273132
  0
ARC
  5
277
100
AcDbEntity
  8
0
100
AcDbCircle
 62
2
  6
CONTINUOUS
 10
13.5577001432
 20
2.5085494649
 40
0.0173408616
100
AcDbArc
 50
232.4713476722
 51
267.338189944
  0
ARC
  5
278
100
AcDbEntity
  8
0
100
AcDbCircle
 62
2
  6
CONTINUOUS
 10
13.5607987082
 20
2.5143997688
 40
0.0238935861
100
AcDbArc
 50
209.8247607259
 51
235.1255079367
  0
ARC
  5
279
100
AcDbEntity
  8
0
100
AcDbCircle
 62
2
  6
CONTINUOUS
 10
13.5295131508
 20
2.5629115009
 40
0.0110815393
100
AcDbArc
 50
306.758405961
 51
320.4502234234
  0
ARC
  5
27A
100
AcDbEntity
  8
0
100
AcDbCircle
 62
2
  6
CONTINUOUS
 10
13.5238839599
 20
2.5706523294
 40
0.0206523367
100
AcDbArc
 50
289.6883413472
 51
306.4184925496
  0
ARC
  5
27B
100
AcDbEntity
  8
0
100
AcDbCircle
 62
2
  6
CONTINUOUS
 10
13.5219564542
 20
2.5750459767
 40
0.0254407115
100
AcDbArc
 50
270.7327484175
 51
290.441894219
  0
LINE
  5
27C
100
AcDbEntity
  8
0
100
AcDbLine
 62
2
  6
CONTINUOUS
 10
13.5222818033
 20
2.5496073456
 11
13.4883447845
 21
2.5496073456
  0
ARC
  5
27D
100
AcDbEntity
  8
0
100
AcDbCircle
 62
2
  6
CONTINUOUS
 10
13.4883447827
 20
2.5520823451
 40
0.0024749995
100
AcDbArc
 50
179.9999571957
 51
270.0000428043
  0
LINE
  5
27E
100
AcDbEntity
  8
0
100
AcDbLine
 62
2
  6
CONTINUOUS
 10
13.4858697831
 20
2.552082347
 11
13.4858697831
 21
2.564807354
  0
ARC
  5
27F
100
AcDbEntity
  8
0
100
AcDbCircle
 62
2
  6
CONTINUOUS
 10
13.4883447827
 20
2.5648073559
 40
0.0024749995
100
AcDbArc
 50
89.9999571957
 51
180.0000428043
  0
LINE
  5
280
100
AcDbEntity
  8
0
100
AcDbLine
 62
2
  6
CONTINUOUS
 10
13.4883447845
 20
2.5672823554
 11
13.5251458049
 21
2.5672823554
  0
ARC
  5
281
100
AcDbEntity
  8
0
100
AcDbCircle
 62
2
  6
CONTINUOUS
 10
13.5236009174
 20
2.5388278764
 40
0.0284963867
100
AcDbArc
 50
70.3834917948
 51
86.8922743861
  0
ARC
  5
282
100
AcDbEntity
  8
0
100
AcDbCircle
 62
2
  6
CONTINUOUS
 10
13.5284605274
 20
2.5518696094
 40
0.0145814632
100
AcDbArc
 50
54.6746025112
 51
71.1660573124
  0
ARC
  5
283
100
AcDbEntity
  8
0
100
AcDbCircle
 62
2
  6
CONTINUOUS
 10
13.5335900184
 20
2.5587235346
 40
0.0060275915
100
AcDbArc
 50
20.9055592135
 51
56.7851676243
  0
ARC
  5
284
100
AcDbEntity
  8
0
100
AcDbCircle
 62
2
  6
CONTINUOUS
 10
13.5348905773
 20
2.5593838168
 40
0.0045795888
100
AcDbArc
 50
355.6235353944
 51
18.9942678268
  0
ARC
  5
285
100
AcDbEntity
  8
0
100
AcDbCircle
 62
2
  6
CONTINUOUS
 10
13.533683767
 20
2.559677593
 40
0.0058087709
100
AcDbArc
 50
318.8515287446
 51
353.6422345323
  0
LINE
  5
286
100
AcDbEntity
  8
0
100
AcDbLine
 62
2
  6
CONTINUOUS
 10
12.672340332
 20
2.5920323691
 11
12.7727983877
 21
2.5920323691
  0
ARC
  5
287
100
AcDbEntity
  8
0
100
AcDbCircle
 62
2
  6
CONTINUOUS
 10
12.7727985224
 20
2.5895582013
 40
0.0024741678
100
AcDbArc
 50
46.3477981899
 51
90.0031206038
  0
LINE
  5
288
100
AcDbEntity
  8
0
100
AcDbLine
 62
2
  6
CONTINUOUS
 10
12.7745063886
 20
2.5913483688
 11
12.8345394219
 21
2.534068337
  0
ARC
  5
289
100
AcDbEntity
  8
0
100
AcDbCircle
 62
2
  6
CONTINUOUS
 10
12.8362481229
 20
2.5358592748
 40
0.0024753014
100
AcDbArc
 50
226.3461263059
 51
0.0014637321
  0
LINE
  5
28A
100
AcDbEntity
  8
0
100
AcDbLine
 62
2
  6
CONTINUOUS
 10
12.8387234242
 20
2.535859338
 11
12.8387234242
 21
2.564807354
  0
ARC
  5
28B
100
AcDbEntity
  8
0
100
AcDbCircle
 62
2
  6
CONTINUOUS
 10
12.8362484247
 20
2.5648073559
 40
0.0024749995
100
AcDbArc
 50
359.9999571957
 51
90.0000428043
  0
LINE
  5
28C
100
AcDbEntity
  8
0
100
AcDbLine
 62
2
  6
CONTINUOUS
 10
12.8362484229
 20
2.5672823554
 11
12.8174724125
 21
2.5672823554
  0
ARC
  5
28D
100
AcDbEntity
  8
0
100
AcDbCircle
 62
2
  6
CONTINUOUS
 10
12.8174724106
 20
2.5697573549
 40
0.0024749995
100
AcDbArc
 50
179.9999571957
 51
270.0000428043
  0
LINE
  5
28E
100
AcDbEntity
  8
0
100
AcDbLine
 62
2
  6
CONTINUOUS
 10
12.8149974111
 20
2.5697573568
 11
12.8149974111
 21
2.5895573678
  0
ARC
  5
28F
100
AcDbEntity
  8
0
100
AcDbCircle
 62
2
  6
CONTINUOUS
 10
12.8174724106
 20
2.5895573696
 40
0.0024749995
100
AcDbArc
 50
89.9999571957
 51
180.0000428043
  0
LINE
  5
290
100
AcDbEntity
  8
0
100
AcDbLine
 62
2
  6
CONTINUOUS
 10
12.8174724125
 20
2.5920323691
 11
12.8914734535
 21
2.5920323691
  0
ARC
  5
291
100
AcDbEntity
  8
0
100
AcDbCircle
 62
2
  6
CONTINUOUS
 10
12.8914734553
 20
2.5895573696
 40
0.0024749995
100
AcDbArc
 50
359.9999571957
 51
90.0000428043
  0
LINE
  5
292
100
AcDbEntity
  8
0
100
AcDbLine
 62
2
  6
CONTINUOUS
 10
12.8939484549
 20
2.5895573678
 11
12.8939484549
 21
2.5697573568
  0
ARC
  5
293
100
AcDbEntity
  8
0
100
AcDbCircle
 62
2
  6
CONTINUOUS
 10
12.8914734553
 20
2.5697573549
 40
0.0024749995
100
AcDbArc
 50
269.9999571957
 51
0.0000428043
  0
LINE
  5
294
100
AcDbEntity
  8
0
100
AcDbLine
 62
2
  6
CONTINUOUS
 10
12.8914734535
 20
2.5672823554
 11
12.8735404436
 21
2.5672823554
  0
ARC
  5
295
100
AcDbEntity
  8
0
100
AcDbCircle
 62
2
  6
CONTINUOUS
 10
12.8735404417
 20
2.5648073559
 40
0.0024749995
100
AcDbArc
 50
89.9999571957
 51
180.0000428043
  0
LINE
  5
296
100
AcDbEntity
  8
0
100
AcDbLine
 62
2
  6
CONTINUOUS
 10
12.8710654422
 20
2.564807354
 11
12.8710654422
 21
2.4937023146
  0
ARC
  5
297
100
AcDbEntity
  8
0
100
AcDbCircle
 62
2
  6
CONTINUOUS
 10
12.8685904427
 20
2.4937023128
 40
0.0024749995
100
AcDbArc
 50
269.9999571957
 51
0.0000428043
  0
LINE
  5
298
100
AcDbEntity
  8
0
100
AcDbLine
 62
2
  6
CONTINUOUS
 10
12.8685904408
 20
2.4912273132
 11
12.7943853997
 21
2.4912273132
  0
ARC
  5
299
100
AcDbEntity
  8
0
100
AcDbCircle
 62
2
  6
CONTINUOUS
 10
12.7943847649
 20
2.4937027294
 40
0.0024754162
100
AcDbArc
 50
226.3593695813
 51
270.0146919953
  0
LINE
  5
29A
100
AcDbEntity
  8
0
100
AcDbLine
 62
2
  6
CONTINUOUS
 10
12.7926763987
 20
2.4919113136
 11
12.7293963636
 21
2.5522893471
  0
ARC
  5
29B
100
AcDbEntity
  8
0
100
AcDbCircle
 62
2
  6
CONTINUOUS
 10
12.7276876627
 20
2.5504984093
 40
0.0024753014
100
AcDbArc
 50
46.3461263059
 51
180.0014637321
  0
LINE
  5
29C
100
AcDbEntity
  8
0
100
AcDbLine
 62
2
  6
CONTINUOUS
 10
12.7252123613
 20
2.5504983461
 11
12.7252123613
 21
2.5184523283
  0
ARC
  5
29D
100
AcDbEntity
  8
0
100
AcDbCircle
 62
2
  6
CONTINUOUS
 10
12.7276873608
 20
2.5184523265
 40
0.0024749995
100
AcDbArc
 50
179.9999571957
 51
270.0000428043
  0
LINE
  5
29E
100
AcDbEntity
  8
0
100
AcDbLine
 62
2
  6
CONTINUOUS
 10
12.7276873627
 20
2.515977327
 11
12.7480043739
 21
2.515977327
  0
ARC
  5
29F
100
AcDbEntity
  8
0
100
AcDbCircle
 62
2
  6
CONTINUOUS
 10
12.7480043758
 20
2.5135023274
 40
0.0024749995
100
AcDbArc
 50
359.9999571957
 51
90.0000428043
  0
LINE
  5
2A0
100
AcDbEntity
  8
0
100
AcDbLine
 62
2
  6
CONTINUOUS
 10
12.7504793753
 20
2.5135023256
 11
12.7504793753
 21
2.4937023146
  0
ARC
  5
2A1
100
AcDbEntity
  8
0
100
AcDbCircle
 62
2
  6
CONTINUOUS
 10
12.7480043758
 20
2.4937023128
 40
0.0024749995
100
AcDbArc
 50
269.9999571957
 51
0.0000428043
  0
LINE
  5
2A2
100
AcDbEntity
  8
0
100
AcDbLine
 62
2
  6
CONTINUOUS
 10
12.7480043739
 20
2.4912273132
 11
12.672340332
 21
2.4912273132
  0
ARC
  5
2A3
100
AcDbEntity
  8
0
100
AcDbCircle
 62
2
  6
CONTINUOUS
 10
12.6723403301
 20
2.4937023128
 40
0.0024749995
100
AcDbArc
 50
179.9999571957
 51
270.0000428043
  0
LINE
  5
2A4
100
AcDbEntity
  8
0
100
AcDbLine
 62
2
  6
CONTINUOUS
 10
12.6698653306
 20
2.4937023146
 11
12.6698653306
 21
2.5135023256
  0
ARC
  5
2A5
100
AcDbEntity
  8
0
100
AcDbCircle
 62
2
  6
CONTINUOUS
 10
12.6723403301
 20
2.5135023274
 40
0.0024749995
100
AcDbArc
 50
89.9999571957
 51
180.0000428043
  0
LINE
  5
2A6
100
AcDbEntity
  8
0
100
AcDbLine
 62
2
  6
CONTINUOUS
 10
12.672340332
 20
2.515977327
 11
12.6909873423
 21
2.515977327
  0
ARC
  5
2A7
100
AcDbEntity
  8
0
100
AcDbCircle
 62
2
  6
CONTINUOUS
 10
12.6909873442
 20
2.5184523265
 40
0.0024749995
100
AcDbArc
 50
269.9999571957
 51
0.0000428043
  0
LINE
  5
2A8
100
AcDbEntity
  8
0
100
AcDbLine
 62
2
  6
CONTINUOUS
 10
12.6934623437
 20
2.5184523283
 11
12.6934623437
 21
2.564807354
  0
ARC
  5
2A9
100
AcDbEntity
  8
0
100
AcDbCircle
 62
2
  6
CONTINUOUS
 10
12.6909873442
 20
2.5648073559
 40
0.0024749995
100
AcDbArc
 50
359.9999571957
 51
90.0000428043
  0
LINE
  5
2AA
100
AcDbEntity
  8
0
100
AcDbLine
 62
2
  6
CONTINUOUS
 10
12.6909873423
 20
2.5672823554
 11
12.672340332
 21
2.5672823554
  0
ARC
  5
2AB
100
AcDbEntity
  8
0
100
AcDbCircle
 62
2
  6
CONTINUOUS
 10
12.6723403301
 20
2.5697573549
 40
0.0024749995
100
AcDbArc
 50
179.9999571957
 51
270.0000428043
  0
LINE
  5
2AC
100
AcDbEntity
  8
0
100
AcDbLine
 62
2
  6
CONTINUOUS
 10
12.6698653306
 20
2.5697573568
 11
12.6698653306
 21
2.5895573678
  0
ARC
  5
2AD
100
AcDbEntity
  8
0
100
AcDbCircle
 62
2
  6
CONTINUOUS
 10
12.6723403301
 20
2.5895573696
 40
0.0024749995
100
AcDbArc
 50
89.9999571957
 51
180.0000428043
  0
LINE
  5
2AE
100
AcDbEntity
  8
0
100
AcDbLine
 62
2
  6
CONTINUOUS
 10
12.5246402501
 20
2.5655893545
 11
12.5175232461
 21
2.5543723483
  0
ARC
  5
2AF
100
AcDbEntity
  8
0
100
AcDbCircle
 62
2
  6
CONTINUOUS
 10
12.519613138
 20
2.5530463862
 40
0.0024750401
100
AcDbArc
 50
147.6063258012
 51
270.0025305754
  0
LINE
  5
2B0
100
AcDbEntity
  8
0
100
AcDbLine
 62
2
  6
CONTINUOUS
 10
12.5196132473
 20
2.5505713461
 11
12.5401702587
 21
2.5505713461
  0
ARC
  5
2B1
100
AcDbEntity
  8
0
100
AcDbCircle
 62
2
  6
CONTINUOUS
 10
12.5401702375
 20
2.5530465533
 40
0.0024752071
100
AcDbArc
 50
270.0004896793
 51
32.9089806818
  0
LINE
  5
2B2
100
AcDbEntity
  8
0
100
AcDbLine
 62
2
  6
CONTINUOUS
 10
12.5422482598
 20
2.5543913483
 11
12.5349892558
 21
2.5656073545
  0
ARC
  5
2B3
100
AcDbEntity
  8
0
100
AcDbCircle
 62
2
  6
CONTINUOUS
 10
12.532910715
 20
2.564262895
 40
0.0024754602
100
AcDbArc
 50
32.8959418573
 51
89.9875097202
  0
LINE
  5
2B4
100
AcDbEntity
  8
0
100
AcDbLine
 62
2
  6
CONTINUOUS
 10
12.5329112547
 20
2.5667383551
 11
12.5267302512
 21
2.5667383551
  0
ARC
  5
2B5
100
AcDbEntity
  8
0
100
AcDbCircle
 62
2
  6
CONTINUOUS
 10
12.5267301809
 20
2.5642631548
 40
0.0024752003
100
AcDbArc
 50
89.998372645
 51
147.602165307
  0
LINE
  5
2B6
100
AcDbEntity
  8
0
100
AcDbLine
 62
2
  6
CONTINUOUS
 10
12.548053263
 20
2.5284903339
 11
12.5536792662
 21
2.5197973291
  0
ARC
  5
2B7
100
AcDbEntity
  8
0
100
AcDbCircle
 62
2
  6
CONTINUOUS
 10
12.5516012439
 20
2.5184525341
 40
0.0024752071
100
AcDbArc
 50
270.0004896794
 51
32.9089806818
  0
LINE
  5
2B8
100
AcDbEntity
  8
0
100
AcDbLine
 62
2
  6
CONTINUOUS
 10
12.551601265
 20
2.515977327
 11
12.537150257
 21
2.515977327
  0
ARC
  5
2B9
100
AcDbEntity
  8
0
100
AcDbCircle
 62
2
  6
CONTINUOUS
 10
12.5371502552
 20
2.5135023274
 40
0.0024749995
100
AcDbArc
 50
89.9999571957
 51
180.0000428043
  0
LINE
  5
2BA
100
AcDbEntity
  8
0
100
AcDbLine
 62
2
  6
CONTINUOUS
 10
12.5346752556
 20
2.5135023256
 11
12.5346752556
 21
2.4937023146
  0
ARC
  5
2BB
100
AcDbEntity
  8
0
100
AcDbCircle
 62
2
  6
CONTINUOUS
 10
12.5371502552
 20
2.4937023128
 40
0.0024749995
100
AcDbArc
 50
179.9999571957
 51
270.0000428043
  0
LINE
  5
2BC
100
AcDbEntity
  8
0
100
AcDbLine
 62
2
  6
CONTINUOUS
 10
12.537150257
 20
2.4912273132
 11
12.6424313154
 21
2.4912273132
  0
ARC
  5
2BD
100
AcDbEntity
  8
0
100
AcDbCircle
 62
2
  6
CONTINUOUS
 10
12.6424313172
 20
2.4937023128
 40
0.0024749995
100
AcDbArc
 50
269.9999571957
 51
0.0000428043
  0
LINE
  5
2BE
100
AcDbEntity
  8
0
100
AcDbLine
 62
2
  6
CONTINUOUS
 10
12.6449063168
 20
2.4937023146
 11
12.6449063168
 21
2.5135023256
  0
ARC
  5
2BF
100
AcDbEntity
  8
0
100
AcDbCircle
 62
2
  6
CONTINUOUS
 10
12.6424313172
 20
2.5135023274
 40
0.0024749995
100
AcDbArc
 50
359.9999571957
 51
90.0000428043
  0
LINE
  5
2C0
100
AcDbEntity
  8
0
100
AcDbLine
 62
2
  6
CONTINUOUS
 10
12.6424313154
 20
2.515977327
 11
12.6224153043
 21
2.515977327
  0
ARC
  5
2C1
100
AcDbEntity
  8
0
100
AcDbCircle
 62
2
  6
CONTINUOUS
 10
12.6224154248
 20
2.518451368
 40
0.002474041
100
AcDbArc
 50
212.9056413127
 51
269.9972091756
  0
LINE
  5
2C2
100
AcDbEntity
  8
0
100
AcDbLine
 62
2
  6
CONTINUOUS
 10
12.6203383031
 20
2.5171073276
 11
12.5725822767
 21
2.5909023685
  0
ARC
  5
2C3
100
AcDbEntity
  8
0
100
AcDbCircle
 62
2
  6
CONTINUOUS
 10
12.570504655
 20
2.589557409
 40
0.0024749602
100
AcDbArc
 50
32.9172174468
 51
90.0087853097
  0
LINE
  5
2C4
100
AcDbEntity
  8
0
100
AcDbLine
 62
2
  6
CONTINUOUS
 10
12.5705042755
 20
2.5920323691
 11
12.5133292438
 21
2.5920323691
  0
ARC
  5
2C5
100
AcDbEntity
  8
0
100
AcDbCircle
 62
2
  6
CONTINUOUS
 10
12.5133291735
 20
2.5895571688
 40
0.0024752003
100
AcDbArc
 50
89.9983726451
 51
147.602165307
  0
LINE
  5
2C6
100
AcDbEntity
  8
0
100
AcDbLine
 62
2
  6
CONTINUOUS
 10
12.5112392426
 20
2.5908833685
 11
12.4644392167
 21
2.5171263276
  0
ARC
  5
2C7
100
AcDbEntity
  8
0
100
AcDbCircle
 62
2
  6
CONTINUOUS
 10
12.4623492858
 20
2.5184525273
 40
0.0024752003
100
AcDbArc
 50
269.9983726451
 51
327.602165307
  0
LINE
  5
2C8
100
AcDbEntity
  8
0
100
AcDbLine
 62
2
  6
CONTINUOUS
 10
12.4623492155
 20
2.515977327
 11
12.4394882028
 21
2.515977327
  0
ARC
  5
2C9
100
AcDbEntity
  8
0
100
AcDbCircle
 62
2
  6
CONTINUOUS
 10
12.439488201
 20
2.5135023274
 40
0.0024749995
100
AcDbArc
 50
89.9999571957
 51
180.0000428043
  0
LINE
  5
2CA
100
AcDbEntity
  8
0
100
AcDbLine
 62
2
  6
CONTINUOUS
 10
12.4370132015
 20
2.5135023256
 11
12.4370132015
 21
2.4937023146
  0
ARC
  5
2CB
100
AcDbEntity
  8
0
100
AcDbCircle
 62
2
  6
CONTINUOUS
 10
12.439488201
 20
2.4937023128
 40
0.0024749995
100
AcDbArc
 50
179.9999571957
 51
270.0000428043
  0
LINE
  5
2CC
100
AcDbEntity
  8
0
100
AcDbLine
 62
2
  6
CONTINUOUS
 10
12.4394882028
 20
2.4912273132
 11
12.5168642458
 21
2.4912273132
  0
ARC
  5
2CD
100
AcDbEntity
  8
0
100
AcDbCircle
 62
2
  6
CONTINUOUS
 10
12.5168642476
 20
2.4937023128
 40
0.0024749995
100
AcDbArc
 50
269.9999571957
 51
0.0000428043
  0
LINE
  5
2CE
100
AcDbEntity
  8
0
100
AcDbLine
 62
2
  6
CONTINUOUS
 10
12.5193392471
 20
2.4937023146
 11
12.5193392471
 21
2.5135023256
  0
ARC
  5
2CF
100
AcDbEntity
  8
0
100
AcDbCircle
 62
2
  6
CONTINUOUS
 10
12.5168642476
 20
2.5135023274
 40
0.0024749995
100
AcDbArc
 50
359.9999571957
 51
90.0000428043
  0
LINE
  5
2D0
100
AcDbEntity
  8
0
100
AcDbLine
 62
2
  6
CONTINUOUS
 10
12.5168642458
 20
2.515977327
 11
12.5055812395
 21
2.515977327
  0
ARC
  5
2D1
100
AcDbEntity
  8
0
100
AcDbCircle
 62
2
  6
CONTINUOUS
 10
12.5055811302
 20
2.518452367
 40
0.0024750401
100
AcDbArc
 50
147.6063258011
 51
270.0025305754
  0
LINE
  5
2D2
100
AcDbEntity
  8
0
100
AcDbLine
 62
2
  6
CONTINUOUS
 10
12.5034912383
 20
2.5197783291
 11
12.5090072414
 21
2.5284723339
  0
ARC
  5
2D3
100
AcDbEntity
  8
0
100
AcDbCircle
 62
2
  6
CONTINUOUS
 10
12.5110971723
 20
2.5271461342
 40
0.0024752003
100
AcDbArc
 50
89.998372645
 51
147.602165307
  0
LINE
  5
2D4
100
AcDbEntity
  8
0
100
AcDbLine
 62
2
  6
CONTINUOUS
 10
12.5110972426
 20
2.5296213345
 11
12.5459752619
 21
2.5296213345
  0
ARC
  5
2D5
100
AcDbEntity
  8
0
100
AcDbCircle
 62
2
  6
CONTINUOUS
 10
12.5459747223
 20
2.5271458744
 40
0.0024754602
100
AcDbArc
 50
32.8959418573
 51
89.9875097202
  0
LINE
  5
2D6
100
AcDbEntity
  8
0
100
AcDbLine
 62
2
  6
CONTINUOUS
 10
12.9205934696
 20
2.5920323691
 11
13.0210515254
 21
2.5920323691
  0
ARC
  5
2D7
100
AcDbEntity
  8
0
100
AcDbCircle
 62
2
  6
CONTINUOUS
 10
13.0210516601
 20
2.5895582013
 40
0.0024741678
100
AcDbArc
 50
46.3477981899
 51
90.0031206038
  0
LINE
  5
2D8
100
AcDbEntity
  8
0
100
AcDbLine
 62
2
  6
CONTINUOUS
 10
13.0227595263
 20
2.5913483688
 11
13.0827925596
 21
2.534068337
  0
ARC
  5
2D9
100
AcDbEntity
  8
0
100
AcDbCircle
 62
2
  6
CONTINUOUS
 10
13.0845012605
 20
2.5358592748
 40
0.0024753014
100
AcDbArc
 50
226.3461263059
 51
0.0014637321
  0
LINE
  5
2DA
100
AcDbEntity
  8
0
100
AcDbLine
 62
2
  6
CONTINUOUS
 10
13.0869765619
 20
2.535859338
 11
13.0869765619
 21
2.564807354
  0
ARC
  5
2DB
100
AcDbEntity
  8
0
100
AcDbCircle
 62
2
  6
CONTINUOUS
 10
13.0845015624
 20
2.5648073559
 40
0.0024749995
100
AcDbArc
 50
359.9999571957
 51
90.0000428043
  0
LINE
  5
2DC
100
AcDbEntity
  8
0
100
AcDbLine
 62
2
  6
CONTINUOUS
 10
13.0845015605
 20
2.5672823554
 11
13.0657255501
 21
2.5672823554
  0
ARC
  5
2DD
100
AcDbEntity
  8
0
100
AcDbCircle
 62
2
  6
CONTINUOUS
 10
13.0657255483
 20
2.5697573549
 40
0.0024749995
100
AcDbArc
 50
179.9999571957
 51
270.0000428043
  0
LINE
  5
2DE
100
AcDbEntity
  8
0
100
AcDbLine
 62
2
  6
CONTINUOUS
 10
13.0632505488
 20
2.5697573568
 11
13.0632505488
 21
2.5895573678
  0
ARC
  5
2DF
100
AcDbEntity
  8
0
100
AcDbCircle
 62
2
  6
CONTINUOUS
 10
13.0657255483
 20
2.5895573696
 40
0.0024749995
100
AcDbArc
 50
89.9999571957
 51
180.0000428043
  0
LINE
  5
2E0
100
AcDbEntity
  8
0
100
AcDbLine
 62
2
  6
CONTINUOUS
 10
13.0657255501
 20
2.5920323691
 11
13.1397265912
 21
2.5920323691
  0
ARC
  5
2E1
100
AcDbEntity
  8
0
100
AcDbCircle
 62
2
  6
CONTINUOUS
 10
13.139726593
 20
2.5895573696
 40
0.0024749995
100
AcDbArc
 50
359.9999571957
 51
90.0000428043
  0
LINE
  5
2E2
100
AcDbEntity
  8
0
100
AcDbLine
 62
2
  6
CONTINUOUS
 10
13.1422015925
 20
2.5895573678
 11
13.1422015925
 21
2.5697573568
  0
ARC
  5
2E3
100
AcDbEntity
  8
0
100
AcDbCircle
 62
2
  6
CONTINUOUS
 10
13.139726593
 20
2.5697573549
 40
0.0024749995
100
AcDbArc
 50
269.9999571957
 51
0.0000428042
  0
LINE
  5
2E4
100
AcDbEntity
  8
0
100
AcDbLine
 62
2
  6
CONTINUOUS
 10
13.1397265912
 20
2.5672823554
 11
13.1217935812
 21
2.5672823554
  0
ARC
  5
2E5
100
AcDbEntity
  8
0
100
AcDbCircle
 62
2
  6
CONTINUOUS
 10
13.1217935794
 20
2.5648073559
 40
0.0024749995
100
AcDbArc
 50
89.9999571957
 51
180.0000428042
  0
LINE
  5
2E6
100
AcDbEntity
  8
0
100
AcDbLine
 62
2
  6
CONTINUOUS
 10
13.1193185799
 20
2.564807354
 11
13.1193185799
 21
2.4937023146
  0
ARC
  5
2E7
100
AcDbEntity
  8
0
100
AcDbCircle
 62
2
  6
CONTINUOUS
 10
13.1168435803
 20
2.4937023128
 40
0.0024749995
100
AcDbArc
 50
269.9999571957
 51
0.0000428043
  0
LINE
  5
2E8
100
AcDbEntity
  8
0
100
AcDbLine
 62
2
  6
CONTINUOUS
 10
13.1168435785
 20
2.4912273132
 11
13.0426375373
 21
2.4912273132
  0
ARC
  5
2E9
100
AcDbEntity
  8
0
100
AcDbCircle
 62
2
  6
CONTINUOUS
 10
13.0426374026
 20
2.493701481
 40
0.0024741678
100
AcDbArc
 50
226.3477981898
 51
270.0031206038
  0
LINE
  5
2EA
100
AcDbEntity
  8
0
100
AcDbLine
 62
2
  6
CONTINUOUS
 10
13.0409295364
 20
2.4919113136
 11
12.9776495013
 21
2.5522893471
  0
ARC
  5
2EB
100
AcDbEntity
  8
0
100
AcDbCircle
 62
2
  6
CONTINUOUS
 10
12.9759408003
 20
2.5504984093
 40
0.0024753014
100
AcDbArc
 50
46.3461263059
 51
180.0014637321
  0
LINE
  5
2EC
100
AcDbEntity
  8
0
100
AcDbLine
 62
2
  6
CONTINUOUS
 10
12.973465499
 20
2.5504983461
 11
12.973465499
 21
2.5184523283
  0
ARC
  5
2ED
100
AcDbEntity
  8
0
100
AcDbCircle
 62
2
  6
CONTINUOUS
 10
12.9759404985
 20
2.5184523265
 40
0.0024749995
100
AcDbArc
 50
179.9999571957
 51
270.0000428043
  0
LINE
  5
2EE
100
AcDbEntity
  8
0
100
AcDbLine
 62
2
  6
CONTINUOUS
 10
12.9759405003
 20
2.515977327
 11
12.9962575116
 21
2.515977327
  0
ARC
  5
2EF
100
AcDbEntity
  8
0
100
AcDbCircle
 62
2
  6
CONTINUOUS
 10
12.9962575135
 20
2.5135023274
 40
0.0024749995
100
AcDbArc
 50
359.9999571957
 51
90.0000428043
  0
LINE
  5
2F0
100
AcDbEntity
  8
0
100
AcDbLine
 62
2
  6
CONTINUOUS
 10
12.998732513
 20
2.5135023256
 11
12.998732513
 21
2.4937023146
  0
ARC
  5
2F1
100
AcDbEntity
  8
0
100
AcDbCircle
 62
2
  6
CONTINUOUS
 10
12.9962575135
 20
2.4937023128
 40
0.0024749995
100
AcDbArc
 50
269.9999571957
 51
0.0000428043
  0
LINE
  5
2F2
100
AcDbEntity
  8
0
100
AcDbLine
 62
2
  6
CONTINUOUS
 10
12.9962575116
 20
2.4912273132
 11
12.9205934696
 21
2.4912273132
  0
ARC
  5
2F3
100
AcDbEntity
  8
0
100
AcDbCircle
 62
2
  6
CONTINUOUS
 10
12.9205934678
 20
2.4937023128
 40
0.0024749995
100
AcDbArc
 50
179.9999571957
 51
270.0000428043
  0
LINE
  5
2F4
100
AcDbEntity
  8
0
100
AcDbLine
 62
2
  6
CONTINUOUS
 10
12.9181184683
 20
2.4937023146
 11
12.9181184683
 21
2.5135023256
  0
ARC
  5
2F5
100
AcDbEntity
  8
0
100
AcDbCircle
 62
2
  6
CONTINUOUS
 10
12.9205934678
 20
2.5135023274
 40
0.0024749995
100
AcDbArc
 50
89.9999571957
 51
180.0000428042
  0
LINE
  5
2F6
100
AcDbEntity
  8
0
100
AcDbLine
 62
2
  6
CONTINUOUS
 10
12.9205934696
 20
2.515977327
 11
12.93923948
 21
2.515977327
  0
ARC
  5
2F7
100
AcDbEntity
  8
0
100
AcDbCircle
 62
2
  6
CONTINUOUS
 10
12.9392394818
 20
2.5184523265
 40
0.0024749995
100
AcDbArc
 50
269.9999571957
 51
0.0000428043
  0
LINE
  5
2F8
100
AcDbEntity
  8
0
100
AcDbLine
 62
2
  6
CONTINUOUS
 10
12.9417144814
 20
2.5184523283
 11
12.9417144814
 21
2.564807354
  0
ARC
  5
2F9
100
AcDbEntity
  8
0
100
AcDbCircle
 62
2
  6
CONTINUOUS
 10
12.9392394818
 20
2.5648073559
 40
0.0024749995
100
AcDbArc
 50
359.9999571957
 51
90.0000428043
  0
LINE
  5
2FA
100
AcDbEntity
  8
0
100
AcDbLine
 62
2
  6
CONTINUOUS
 10
12.93923948
 20
2.5672823554
 11
12.9205934696
 21
2.5672823554
  0
ARC
  5
2FB
100
AcDbEntity
  8
0
100
AcDbCircle
 62
2
  6
CONTINUOUS
 10
12.9205934678
 20
2.5697573549
 40
0.0024749995
100
AcDbArc
 50
179.9999571957
 51
270.0000428043
  0
LINE
  5
2FC
100
AcDbEntity
  8
0
100
AcDbLine
 62
2
  6
CONTINUOUS
 10
12.9181184683
 20
2.5697573568
 11
12.9181184683
 21
2.5895573678
  0
ARC
  5
2FD
100
AcDbEntity
  8
0
100
AcDbCircle
 62
2
  6
CONTINUOUS
 10
12.9205934678
 20
2.5895573696
 40
0.0024749995
100
AcDbArc
 50
89.9999571957
 51
180.0000428042
  0
LINE
  5
2FE
100
AcDbEntity
  8
0
100
AcDbLine
 62
2
  6
CONTINUOUS
 10
13.2934226764
 20
2.5324773361
 11
13.2582556569
 21
2.5324773361
  0
ARC
  5
2FF
100
AcDbEntity
  8
0
100
AcDbCircle
 62
2
  6
CONTINUOUS
 10
13.2582556551
 20
2.5300023366
 40
0.0024749995
100
AcDbArc
 50
89.9999571957
 51
180.0000428043
  0
LINE
  5
300
100
AcDbEntity
  8
0
100
AcDbLine
 62
2
  6
CONTINUOUS
 10
13.2557806555
 20
2.5300023347
 11
13.2557806555
 21
2.5184523283
  0
ARC
  5
301
100
AcDbEntity
  8
0
100
AcDbCircle
 62
2
  6
CONTINUOUS
 10
13.2582556551
 20
2.5184523265
 40
0.0024749995
100
AcDbArc
 50
179.9999571957
 51
270.0000428043
  0
LINE
  5
302
100
AcDbEntity
  8
0
100
AcDbLine
 62
2
  6
CONTINUOUS
 10
13.2582556569
 20
2.515977327
 11
13.3232596929
 21
2.515977327
  0
ARC
  5
303
100
AcDbEntity
  8
0
100
AcDbCircle
 62
2
  6
CONTINUOUS
 10
13.3232596948
 20
2.5184523265
 40
0.0024749995
100
AcDbArc
 50
269.9999571957
 51
0.0000428043
  0
LINE
  5
304
100
AcDbEntity
  8
0
100
AcDbLine
 62
2
  6
CONTINUOUS
 10
13.3257346943
 20
2.5184523283
 11
13.3257346943
 21
2.5267023329
  0
ARC
  5
305
100
AcDbEntity
  8
0
100
AcDbCircle
 62
2
  6
CONTINUOUS
 10
13.3282096938
 20
2.5267023348
 40
0.0024749995
100
AcDbArc
 50
89.9999571957
 51
180.0000428043
  0
LINE
  5
306
100
AcDbEntity
  8
0
100
AcDbLine
 62
2
  6
CONTINUOUS
 10
13.3282096957
 20
2.5291773343
 11
13.3705287192
 21
2.5291773343
  0
ARC
  5
307
100
AcDbEntity
  8
0
100
AcDbCircle
 62
2
  6
CONTINUOUS
 10
13.370528721
 20
2.5267023348
 40
0.0024749995
100
AcDbArc
 50
359.9999571957
 51
90.0000428043
  0
LINE
  5
308
100
AcDbEntity
  8
0
100
AcDbLine
 62
2
  6
CONTINUOUS
 10
13.3730037205
 20
2.5267023329
 11
13.3730037205
 21
2.4937023146
  0
ARC
  5
309
100
AcDbEntity
  8
0
100
AcDbCircle
 62
2
  6
CONTINUOUS
 10
13.370528721
 20
2.4937023128
 40
0.0024749995
100
AcDbArc
 50
269.9999571957
 51
0.0000428043
  0
LINE
  5
30A
100
AcDbEntity
  8
0
100
AcDbLine
 62
2
  6
CONTINUOUS
 10
13.3705287192
 20
2.4912273132
 11
13.1673166065
 21
2.4912273132
  0
ARC
  5
30B
100
AcDbEntity
  8
0
100
AcDbCircle
 62
2
  6
CONTINUOUS
 10
13.1673166046
 20
2.4937023128
 40
0.0024749995
100
AcDbArc
 50
179.9999571957
 51
270.0000428043
  0
LINE
  5
30C
100
AcDbEntity
  8
0
100
AcDbLine
 62
2
  6
CONTINUOUS
 10
13.1648416051
 20
2.4937023146
 11
13.1648416051
 21
2.5135023256
  0
ARC
  5
30D
100
AcDbEntity
  8
0
100
AcDbCircle
 62
2
  6
CONTINUOUS
 10
13.1673166046
 20
2.5135023274
 40
0.0024749995
100
AcDbArc
 50
89.9999571957
 51
180.0000428043
  0
LINE
  5
30E
100
AcDbEntity
  8
0
100
AcDbLine
 62
2
  6
CONTINUOUS
 10
13.1673166065
 20
2.515977327
 11
13.1912396197
 21
2.515977327
  0
ARC
  5
30F
100
AcDbEntity
  8
0
100
AcDbCircle
 62
2
  6
CONTINUOUS
 10
13.1912396216
 20
2.5184523265
 40
0.0024749995
100
AcDbArc
 50
269.9999571957
 51
0.0000428042
  0
LINE
  5
310
100
AcDbEntity
  8
0
100
AcDbLine
 62
2
  6
CONTINUOUS
 10
13.1937146211
 20
2.5184523283
 11
13.1937146211
 21
2.564807354
  0
ARC
  5
311
100
AcDbEntity
  8
0
100
AcDbCircle
 62
2
  6
CONTINUOUS
 10
13.1912396216
 20
2.5648073559
 40
0.0024749995
100
AcDbArc
 50
359.9999571957
 51
90.0000428043
  0
LINE
  5
312
100
AcDbEntity
  8
0
100
AcDbLine
 62
2
  6
CONTINUOUS
 10
13.1912396197
 20
2.5672823554
 11
13.1673166065
 21
2.5672823554
  0
ARC
  5
313
100
AcDbEntity
  8
0
100
AcDbCircle
 62
2
  6
CONTINUOUS
 10
13.1673166046
 20
2.5697573549
 40
0.0024749995
100
AcDbArc
 50
179.9999571957
 51
270.0000428043
  0
LINE
  5
314
100
AcDbEntity
  8
0
100
AcDbLine
 62
2
  6
CONTINUOUS
 10
13.1648416051
 20
2.5697573568
 11
13.1648416051
 21
2.5895573678
  0
ARC
  5
315
100
AcDbEntity
  8
0
100
AcDbCircle
 62
2
  6
CONTINUOUS
 10
13.1673166046
 20
2.5895573696
 40
0.0024749995
100
AcDbArc
 50
89.9999571957
 51
180.0000428043
  0
LINE
  5
316
100
AcDbEntity
  8
0
100
AcDbLine
 62
2
  6
CONTINUOUS
 10
13.1673166065
 20
2.5920323691
 11
13.3691097184
 21
2.5920323691
  0
ARC
  5
317
100
AcDbEntity
  8
0
100
AcDbCircle
 62
2
  6
CONTINUOUS
 10
13.3691097202
 20
2.5895573696
 40
0.0024749995
100
AcDbArc
 50
359.9999571957
 51
90.0000428043
  0
LINE
  5
318
100
AcDbEntity
  8
0
100
AcDbLine
 62
2
  6
CONTINUOUS
 10
13.3715847197
 20
2.5895573678
 11
13.3715847197
 21
2.5565573495
  0
ARC
  5
319
100
AcDbEntity
  8
0
100
AcDbCircle
 62
2
  6
CONTINUOUS
 10
13.3691097202
 20
2.5565573476
 40
0.0024749995
100
AcDbArc
 50
269.9999571957
 51
0.0000428042
  0
LINE
  5
31A
100
AcDbEntity
  8
0
100
AcDbLine
 62
2
  6
CONTINUOUS
 10
13.3691097184
 20
2.5540823481
 11
13.3272456952
 21
2.5540823481
  0
ARC
  5
31B
100
AcDbEntity
  8
0
100
AcDbCircle
 62
2
  6
CONTINUOUS
 10
13.3272456933
 20
2.5565573476
 40
0.0024749995
100
AcDbArc
 50
179.9999571957
 51
270.0000428043
  0
LINE
  5
31C
100
AcDbEntity
  8
0
100
AcDbLine
 62
2
  6
CONTINUOUS
 10
13.3247706938
 20
2.5565573495
 11
13.3247706938
 21
2.564807354
  0
ARC
  5
31D
100
AcDbEntity
  8
0
100
AcDbCircle
 62
2
  6
CONTINUOUS
 10
13.3222956943
 20
2.5648073559
 40
0.0024749995
100
AcDbArc
 50
359.9999571957
 51
90.0000428043
  0
LINE
  5
31E
100
AcDbEntity
  8
0
100
AcDbLine
 62
2
  6
CONTINUOUS
 10
13.3222956924
 20
2.5672823554
 11
13.2582556569
 21
2.5672823554
  0
ARC
  5
31F
100
AcDbEntity
  8
0
100
AcDbCircle
 62
2
  6
CONTINUOUS
 10
13.2582556551
 20
2.5648073559
 40
0.0024749995
100
AcDbArc
 50
89.9999571957
 51
180.0000428043
  0
LINE
  5
320
100
AcDbEntity
  8
0
100
AcDbLine
 62
2
  6
CONTINUOUS
 10
13.2557806555
 20
2.564807354
 11
13.2557806555
 21
2.5532573476
  0
ARC
  5
321
100
AcDbEntity
  8
0
100
AcDbCircle
 62
2
  6
CONTINUOUS
 10
13.2582556551
 20
2.5532573458
 40
0.0024749995
100
AcDbArc
 50
179.9999571957
 51
270.0000428043
  0
LINE
  5
322
100
AcDbEntity
  8
0
100
AcDbLine
 62
2
  6
CONTINUOUS
 10
13.2582556569
 20
2.5507823463
 11
13.2934226764
 21
2.5507823463
  0
ARC
  5
323
100
AcDbEntity
  8
0
100
AcDbCircle
 62
2
  6
CONTINUOUS
 10
13.2934226783
 20
2.5483073467
 40
0.0024749995
100
AcDbArc
 50
359.9999571957
 51
90.0000428043
  0
LINE
  5
324
100
AcDbEntity
  8
0
100
AcDbLine
 62
2
  6
CONTINUOUS
 10
13.2958976778
 20
2.5483073449
 11
13.2958976778
 21
2.5349523375
  0
ARC
  5
325
100
AcDbEntity
  8
0
100
AcDbCircle
 62
2
  6
CONTINUOUS
 10
13.2934226783
 20
2.5349523356
 40
0.0024749995
100
AcDbArc
 50
269.9999571957
 51
0.0000428042
  0
LINE
  5
326
100
AcDbEntity
  8
0
100
AcDbLine
 62
2
  6
CONTINUOUS
 10
13.7286871589
 20
2.5350697372
 11
13.7286871589
 21
2.5456869438
  0
LINE
  5
327
100
AcDbEntity
  8
0
100
AcDbLine
 62
2
  6
CONTINUOUS
 10
13.7086871478
 20
2.5004302075
 11
13.7086871478
 21
2.5803264735
  0
LINE
  5
328
100
AcDbEntity
  8
0
100
AcDbLine
 62
2
  6
CONTINUOUS
 10
13.6886871368
 20
2.4843919416
 11
13.6886871368
 21
2.5963647394
  0
LINE
  5
329
100
AcDbEntity
  8
0
100
AcDbLine
 62
2
  6
CONTINUOUS
 10
13.6686871257
 20
2.4726017898
 11
13.6686871257
 21
2.6081548911
  0
LINE
  5
32A
100
AcDbEntity
  8
0
100
AcDbLine
 62
2
  6
CONTINUOUS
 10
13.6486871146
 20
2.4628062688
 11
13.6486871146
 21
2.6179504122
  0
LINE
  5
32B
100
AcDbEntity
  8
0
100
AcDbLine
 62
2
  6
CONTINUOUS
 10
13.6286871035
 20
2.4541253507
 11
13.6286871035
 21
2.5062483056
  0
LINE
  5
32C
100
AcDbEntity
  8
0
100
AcDbLine
 62
2
  6
CONTINUOUS
 10
13.6286871035
 20
2.5301143348
 11
13.6286871035
 21
2.6266313303
  0
LINE
  5
32D
100
AcDbEntity
  8
0
100
AcDbLine
 62
2
  6
CONTINUOUS
 10
13.6086870924
 20
2.4465537903
 11
13.6086870924
 21
2.4918774918
  0
LINE
  5
32E
100
AcDbEntity
  8
0
100
AcDbLine
 62
2
  6
CONTINUOUS
 10
13.6086870924
 20
2.5165781173
 11
13.6086870924
 21
2.6342028907
  0
LINE
  5
32F
100
AcDbEntity
  8
0
100
AcDbLine
 62
2
  6
CONTINUOUS
 10
13.5886870813
 20
2.4398033466
 11
13.5886870813
 21
2.4912273132
  0
LINE
  5
330
100
AcDbEntity
  8
0
100
AcDbLine
 62
2
  6
CONTINUOUS
 10
13.5886870813
 20
2.5391840845
 11
13.5886870813
 21
2.5454298327
  0
LINE
  5
331
100
AcDbEntity
  8
0
100
AcDbLine
 62
2
  6
CONTINUOUS
 10
13.5886870813
 20
2.5862063472
 11
13.5886870813
 21
2.6409533343
  0
LINE
  5
332
100
AcDbEntity
  8
0
100
AcDbLine
 62
2
  6
CONTINUOUS
 10
13.5686870702
 20
2.4334702189
 11
13.5686870702
 21
2.4912273132
  0
LINE
  5
333
100
AcDbEntity
  8
0
100
AcDbLine
 62
2
  6
CONTINUOUS
 10
13.5686870702
 20
2.5906587765
 11
13.5686870702
 21
2.647286462
  0
LINE
  5
334
100
AcDbEntity
  8
0
100
AcDbLine
 62
2
  6
CONTINUOUS
 10
13.5486870591
 20
2.4278968124
 11
13.5486870591
 21
2.4937461006
  0
LINE
  5
335
100
AcDbEntity
  8
0
100
AcDbLine
 62
2
  6
CONTINUOUS
 10
13.5486870591
 20
2.5920323691
 11
13.5486870591
 21
2.6528598686
  0
LINE
  5
336
100
AcDbEntity
  8
0
100
AcDbLine
 62
2
  6
CONTINUOUS
 10
13.528687048
 20
2.4225427674
 11
13.528687048
 21
2.5270426993
  0
LINE
  5
337
100
AcDbEntity
  8
0
100
AcDbLine
 62
2
  6
CONTINUOUS
 10
13.528687048
 20
2.5505166259
 11
13.528687048
 21
2.5668657091
  0
LINE
  5
338
100
AcDbEntity
  8
0
100
AcDbLine
 62
2
  6
CONTINUOUS
 10
13.528687048
 20
2.5920323691
 11
13.528687048
 21
2.6582139136
  0
LINE
  5
339
100
AcDbEntity
  8
0
100
AcDbLine
 62
2
  6
CONTINUOUS
 10
13.5086870369
 20
2.4177306791
 11
13.5086870369
 21
2.4912273132
  0
LINE
  5
33A
100
AcDbEntity
  8
0
100
AcDbLine
 62
2
  6
CONTINUOUS
 10
13.5086870369
 20
2.5159553269
 11
13.5086870369
 21
2.5306043351
  0
LINE
  5
33B
100
AcDbEntity
  8
0
100
AcDbLine
 62
2
  6
CONTINUOUS
 10
13.5086870369
 20
2.5496073456
 11
13.5086870369
 21
2.5672823554
  0
LINE
  5
33C
100
AcDbEntity
  8
0
100
AcDbLine
 62
2
  6
CONTINUOUS
 10
13.5086870369
 20
2.5920323691
 11
13.5086870369
 21
2.6630260019
  0
LINE
  5
33D
100
AcDbEntity
  8
0
100
AcDbLine
 62
2
  6
CONTINUOUS
 10
13.4886870258
 20
2.4131795254
 11
13.4886870258
 21
2.4912273132
  0
LINE
  5
33E
100
AcDbEntity
  8
0
100
AcDbLine
 62
2
  6
CONTINUOUS
 10
13.4886870258
 20
2.5159553269
 11
13.4886870258
 21
2.5306043351
  0
LINE
  5
33F
100
AcDbEntity
  8
0
100
AcDbLine
 62
2
  6
CONTINUOUS
 10
13.4886870258
 20
2.5496073456
 11
13.4886870258
 21
2.5672823554
  0
LINE
  5
340
100
AcDbEntity
  8
0
100
AcDbLine
 62
2
  6
CONTINUOUS
 10
13.4886870258
 20
2.5920323691
 11
13.4886870258
 21
2.6675771555
  0
LINE
  5
341
100
AcDbEntity
  8
0
100
AcDbLine
 62
2
  6
CONTINUOUS
 10
13.4686870147
 20
2.4088819672
 11
13.4686870147
 21
2.4912273132
  0
LINE
  5
342
100
AcDbEntity
  8
0
100
AcDbLine
 62
2
  6
CONTINUOUS
 10
13.4686870147
 20
2.5920323691
 11
13.4686870147
 21
2.6718747138
  0
LINE
  5
343
100
AcDbEntity
  8
0
100
AcDbLine
 62
2
  6
CONTINUOUS
 10
13.4486870037
 20
2.4050092072
 11
13.4486870037
 21
2.4912273132
  0
LINE
  5
344
100
AcDbEntity
  8
0
100
AcDbLine
 62
2
  6
CONTINUOUS
 10
13.4486870037
 20
2.5920323691
 11
13.4486870037
 21
2.6757474738
  0
LINE
  5
345
100
AcDbEntity
  8
0
100
AcDbLine
 62
2
  6
CONTINUOUS
 10
13.4286869926
 20
2.4011364471
 11
13.4286869926
 21
2.4912273132
  0
LINE
  5
346
100
AcDbEntity
  8
0
100
AcDbLine
 62
2
  6
CONTINUOUS
 10
13.4286869926
 20
2.5920323691
 11
13.4286869926
 21
2.6796202339
  0
LINE
  5
347
100
AcDbEntity
  8
0
100
AcDbLine
 62
2
  6
CONTINUOUS
 10
13.4086869815
 20
2.3980226662
 11
13.4086869815
 21
2.4912273132
  0
LINE
  5
348
100
AcDbEntity
  8
0
100
AcDbLine
 62
2
  6
CONTINUOUS
 10
13.4086869815
 20
2.515977327
 11
13.4086869815
 21
2.5672823554
  0
LINE
  5
349
100
AcDbEntity
  8
0
100
AcDbLine
 62
2
  6
CONTINUOUS
 10
13.4086869815
 20
2.5920323691
 11
13.4086869815
 21
2.6827340148
  0
LINE
  5
34A
100
AcDbEntity
  8
0
100
AcDbLine
 62
2
  6
CONTINUOUS
 10
13.3886869704
 20
2.3950052774
 11
13.3886869704
 21
2.6857514036
  0
LINE
  5
34B
100
AcDbEntity
  8
0
100
AcDbLine
 62
2
  6
CONTINUOUS
 10
13.3686869593
 20
2.3919878885
 11
13.3686869593
 21
2.4912273132
  0
LINE
  5
34C
100
AcDbEntity
  8
0
100
AcDbLine
 62
2
  6
CONTINUOUS
 10
13.3686869593
 20
2.5291773343
 11
13.3686869593
 21
2.5540823481
  0
LINE
  5
34D
100
AcDbEntity
  8
0
100
AcDbLine
 62
2
  6
CONTINUOUS
 10
13.3686869593
 20
2.5920323691
 11
13.3686869593
 21
2.6887687924
  0
LINE
  5
34E
100
AcDbEntity
  8
0
100
AcDbLine
 62
2
  6
CONTINUOUS
 10
13.3486869482
 20
2.3889704997
 11
13.3486869482
 21
2.4912273132
  0
LINE
  5
34F
100
AcDbEntity
  8
0
100
AcDbLine
 62
2
  6
CONTINUOUS
 10
13.3486869482
 20
2.5291773343
 11
13.3486869482
 21
2.5540823481
  0
LINE
  5
350
100
AcDbEntity
  8
0
100
AcDbLine
 62
2
  6
CONTINUOUS
 10
13.3486869482
 20
2.5920323691
 11
13.3486869482
 21
2.6917861813
  0
LINE
  5
351
100
AcDbEntity
  8
0
100
AcDbLine
 62
2
  6
CONTINUOUS
 10
13.3286869371
 20
2.3859531109
 11
13.3286869371
 21
2.4912273132
  0
LINE
  5
352
100
AcDbEntity
  8
0
100
AcDbLine
 62
2
  6
CONTINUOUS
 10
13.3286869371
 20
2.5291773343
 11
13.3286869371
 21
2.5540823481
  0
LINE
  5
353
100
AcDbEntity
  8
0
100
AcDbLine
 62
2
  6
CONTINUOUS
 10
13.3286869371
 20
2.5920323691
 11
13.3286869371
 21
2.6948035701
  0
LINE
  5
354
100
AcDbEntity
  8
0
100
AcDbLine
 62
2
  6
CONTINUOUS
 10
13.308686926
 20
2.3833355437
 11
13.308686926
 21
2.4912273132
  0
LINE
  5
355
100
AcDbEntity
  8
0
100
AcDbLine
 62
2
  6
CONTINUOUS
 10
13.308686926
 20
2.515977327
 11
13.308686926
 21
2.5672823554
  0
LINE
  5
356
100
AcDbEntity
  8
0
100
AcDbLine
 62
2
  6
CONTINUOUS
 10
13.308686926
 20
2.5920323691
 11
13.308686926
 21
2.6974211373
  0
LINE
  5
357
100
AcDbEntity
  8
0
100
AcDbLine
 62
2
  6
CONTINUOUS
 10
13.2886869149
 20
2.3812612684
 11
13.2886869149
 21
2.4912273132
  0
LINE
  5
358
100
AcDbEntity
  8
0
100
AcDbLine
 62
2
  6
CONTINUOUS
 10
13.2886869149
 20
2.515977327
 11
13.2886869149
 21
2.5324773361
  0
LINE
  5
359
100
AcDbEntity
  8
0
100
AcDbLine
 62
2
  6
CONTINUOUS
 10
13.2886869149
 20
2.5507823463
 11
13.2886869149
 21
2.5672823554
  0
LINE
  5
35A
100
AcDbEntity
  8
0
100
AcDbLine
 62
2
  6
CONTINUOUS
 10
13.2886869149
 20
2.5920323691
 11
13.2886869149
 21
2.6994954125
  0
LINE
  5
35B
100
AcDbEntity
  8
0
100
AcDbLine
 62
2
  6
CONTINUOUS
 10
13.2686869038
 20
2.3791869932
 11
13.2686869038
 21
2.4912273132
  0
LINE
  5
35C
100
AcDbEntity
  8
0
100
AcDbLine
 62
2
  6
CONTINUOUS
 10
13.2686869038
 20
2.515977327
 11
13.2686869038
 21
2.5324773361
  0
LINE
  5
35D
100
AcDbEntity
  8
0
100
AcDbLine
 62
2
  6
CONTINUOUS
 10
13.2686869038
 20
2.5507823463
 11
13.2686869038
 21
2.5672823554
  0
LINE
  5
35E
100
AcDbEntity
  8
0
100
AcDbLine
 62
2
  6
CONTINUOUS
 10
13.2686869038
 20
2.5920323691
 11
13.2686869038
 21
2.7015696878
  0
LINE
  5
35F
100
AcDbEntity
  8
0
100
AcDbLine
 62
2
  6
CONTINUOUS
 10
13.2486868927
 20
2.377112718
 11
13.2486868927
 21
2.4912273132
  0
LINE
  5
360
100
AcDbEntity
  8
0
100
AcDbLine
 62
2
  6
CONTINUOUS
 10
13.2486868927
 20
2.5920323691
 11
13.2486868927
 21
2.703643963
  0
LINE
  5
361
100
AcDbEntity
  8
0
100
AcDbLine
 62
2
  6
CONTINUOUS
 10
13.2286868817
 20
2.3750384428
 11
13.2286868817
 21
2.4912273132
  0
LINE
  5
362
100
AcDbEntity
  8
0
100
AcDbLine
 62
2
  6
CONTINUOUS
 10
13.2286868817
 20
2.5920323691
 11
13.2286868817
 21
2.7057182382
  0
LINE
  5
363
100
AcDbEntity
  8
0
100
AcDbLine
 62
2
  6
CONTINUOUS
 10
13.2086868706
 20
2.3729641676
 11
13.2086868706
 21
2.4912273132
  0
LINE
  5
364
100
AcDbEntity
  8
0
100
AcDbLine
 62
2
  6
CONTINUOUS
 10
13.2086868706
 20
2.5920323691
 11
13.2086868706
 21
2.7077925134
  0
LINE
  5
365
100
AcDbEntity
  8
0
100
AcDbLine
 62
2
  6
CONTINUOUS
 10
13.1886868595
 20
2.3712344456
 11
13.1886868595
 21
2.4912273132
  0
LINE
  5
366
100
AcDbEntity
  8
0
100
AcDbLine
 62
2
  6
CONTINUOUS
 10
13.1886868595
 20
2.515977327
 11
13.1886868595
 21
2.5672823554
  0
LINE
  5
367
100
AcDbEntity
  8
0
100
AcDbLine
 62
2
  6
CONTINUOUS
 10
13.1886868595
 20
2.5920323691
 11
13.1886868595
 21
2.7095222354
  0
LINE
  5
368
100
AcDbEntity
  8
0
100
AcDbLine
 62
2
  6
CONTINUOUS
 10
13.1686868484
 20
2.3699682418
 11
13.1686868484
 21
2.4912273132
  0
LINE
  5
369
100
AcDbEntity
  8
0
100
AcDbLine
 62
2
  6
CONTINUOUS
 10
13.1686868484
 20
2.515977327
 11
13.1686868484
 21
2.5672823554
  0
LINE
  5
36A
100
AcDbEntity
  8
0
100
AcDbLine
 62
2
  6
CONTINUOUS
 10
13.1686868484
 20
2.5920323691
 11
13.1686868484
 21
2.7107884392
  0
LINE
  5
36B
100
AcDbEntity
  8
0
100
AcDbLine
 62
2
  6
CONTINUOUS
 10
13.1486868373
 20
2.3687020381
 11
13.1486868373
 21
2.7120546429
  0
LINE
  5
36C
100
AcDbEntity
  8
0
100
AcDbLine
 62
2
  6
CONTINUOUS
 10
13.1286868262
 20
2.3674358343
 11
13.1286868262
 21
2.5672823554
  0
LINE
  5
36D
100
AcDbEntity
  8
0
100
AcDbLine
 62
2
  6
CONTINUOUS
 10
13.1286868262
 20
2.5920323691
 11
13.1286868262
 21
2.7133208466
  0
LINE
  5
36E
100
AcDbEntity
  8
0
100
AcDbLine
 62
2
  6
CONTINUOUS
 10
13.1086868151
 20
2.3661696306
 11
13.1086868151
 21
2.4912273132
  0
LINE
  5
36F
100
AcDbEntity
  8
0
100
AcDbLine
 62
2
  6
CONTINUOUS
 10
13.1086868151
 20
2.5920323691
 11
13.1086868151
 21
2.7145870504
  0
LINE
  5
370
100
AcDbEntity
  8
0
100
AcDbLine
 62
2
  6
CONTINUOUS
 10
13.088686804
 20
2.3649034269
 11
13.088686804
 21
2.4912273132
  0
LINE
  5
371
100
AcDbEntity
  8
0
100
AcDbLine
 62
2
  6
CONTINUOUS
 10
13.088686804
 20
2.5920323691
 11
13.088686804
 21
2.7158532541
  0
LINE
  5
372
100
AcDbEntity
  8
0
100
AcDbLine
 62
2
  6
CONTINUOUS
 10
13.0686867929
 20
2.3636739922
 11
13.0686867929
 21
2.4912273132
  0
LINE
  5
373
100
AcDbEntity
  8
0
100
AcDbLine
 62
2
  6
CONTINUOUS
 10
13.0686867929
 20
2.5475272398
 11
13.0686867929
 21
2.5672823554
  0
LINE
  5
374
100
AcDbEntity
  8
0
100
AcDbLine
 62
2
  6
CONTINUOUS
 10
13.0686867929
 20
2.5920323691
 11
13.0686867929
 21
2.7170826887
  0
LINE
  5
375
100
AcDbEntity
  8
0
100
AcDbLine
 62
2
  6
CONTINUOUS
 10
13.0486867818
 20
2.363143203
 11
13.0486867818
 21
2.4912273132
  0
LINE
  5
376
100
AcDbEntity
  8
0
100
AcDbLine
 62
2
  6
CONTINUOUS
 10
13.0486867818
 20
2.5666100882
 11
13.0486867818
 21
2.717613478
  0
LINE
  5
377
100
AcDbEntity
  8
0
100
AcDbLine
 62
2
  6
CONTINUOUS
 10
13.0286867707
 20
2.3626124138
 11
13.0286867707
 21
2.50359263
  0
LINE
  5
378
100
AcDbEntity
  8
0
100
AcDbLine
 62
2
  6
CONTINUOUS
 10
13.0286867707
 20
2.5856929366
 11
13.0286867707
 21
2.7181442672
  0
LINE
  5
379
100
AcDbEntity
  8
0
100
AcDbLine
 62
2
  6
CONTINUOUS
 10
13.0086867596
 20
2.3620816246
 11
13.0086867596
 21
2.5226754472
  0
LINE
  5
37A
100
AcDbEntity
  8
0
100
AcDbLine
 62
2
  6
CONTINUOUS
 10
13.0086867596
 20
2.5920323691
 11
13.0086867596
 21
2.7186750564
  0
LINE
  5
37B
100
AcDbEntity
  8
0
100
AcDbLine
 62
2
  6
CONTINUOUS
 10
12.9886867486
 20
2.3615508354
 11
12.9886867486
 21
2.4912273132
  0
LINE
  5
37C
100
AcDbEntity
  8
0
100
AcDbLine
 62
2
  6
CONTINUOUS
 10
12.9886867486
 20
2.515977327
 11
12.9886867486
 21
2.5417582644
  0
LINE
  5
37D
100
AcDbEntity
  8
0
100
AcDbLine
 62
2
  6
CONTINUOUS
 10
12.9886867486
 20
2.5920323691
 11
12.9886867486
 21
2.7192058456
  0
LINE
  5
37E
100
AcDbEntity
  8
0
100
AcDbLine
 62
2
  6
CONTINUOUS
 10
12.9686867375
 20
2.3610200462
 11
12.9686867375
 21
2.4912273132
  0
LINE
  5
37F
100
AcDbEntity
  8
0
100
AcDbLine
 62
2
  6
CONTINUOUS
 10
12.9686867375
 20
2.5920323691
 11
12.9686867375
 21
2.7197366348
  0
LINE
  5
380
100
AcDbEntity
  8
0
100
AcDbLine
 62
2
  6
CONTINUOUS
 10
12.9486867264
 20
2.360489257
 11
12.9486867264
 21
2.4912273132
  0
LINE
  5
381
100
AcDbEntity
  8
0
100
AcDbLine
 62
2
  6
CONTINUOUS
 10
12.9486867264
 20
2.5920323691
 11
12.9486867264
 21
2.720267424
  0
LINE
  5
382
100
AcDbEntity
  8
0
100
AcDbLine
 62
2
  6
CONTINUOUS
 10
12.9286867153
 20
2.3602836008
 11
12.9286867153
 21
2.4912273132
  0
LINE
  5
383
100
AcDbEntity
  8
0
100
AcDbLine
 62
2
  6
CONTINUOUS
 10
12.9286867153
 20
2.515977327
 11
12.9286867153
 21
2.5672823554
  0
LINE
  5
384
100
AcDbEntity
  8
0
100
AcDbLine
 62
2
  6
CONTINUOUS
 10
12.9286867153
 20
2.5920323691
 11
12.9286867153
 21
2.7204730802
  0
LINE
  5
385
100
AcDbEntity
  8
0
100
AcDbLine
 62
2
  6
CONTINUOUS
 10
12.9086867042
 20
2.3604597639
 11
12.9086867042
 21
2.7202969171
  0
LINE
  5
386
100
AcDbEntity
  8
0
100
AcDbLine
 62
2
  6
CONTINUOUS
 10
12.8886866931
 20
2.360635927
 11
12.8886866931
 21
2.5672823554
  0
LINE
  5
387
100
AcDbEntity
  8
0
100
AcDbLine
 62
2
  6
CONTINUOUS
 10
12.8886866931
 20
2.5920323691
 11
12.8886866931
 21
2.720120754
  0
LINE
  5
388
100
AcDbEntity
  8
0
100
AcDbLine
 62
2
  6
CONTINUOUS
 10
12.868686682
 20
2.3608120901
 11
12.868686682
 21
2.491232357
  0
LINE
  5
389
100
AcDbEntity
  8
0
100
AcDbLine
 62
2
  6
CONTINUOUS
 10
12.868686682
 20
2.5920323691
 11
12.868686682
 21
2.7199445909
  0
LINE
  5
38A
100
AcDbEntity
  8
0
100
AcDbLine
 62
2
  6
CONTINUOUS
 10
12.8486866709
 20
2.3609882532
 11
12.8486866709
 21
2.4912273132
  0
LINE
  5
38B
100
AcDbEntity
  8
0
100
AcDbLine
 62
2
  6
CONTINUOUS
 10
12.8486866709
 20
2.5920323691
 11
12.8486866709
 21
2.7197684278
  0
LINE
  5
38C
100
AcDbEntity
  8
0
100
AcDbLine
 62
2
  6
CONTINUOUS
 10
12.8286866598
 20
2.3611644163
 11
12.8286866598
 21
2.4912273132
  0
LINE
  5
38D
100
AcDbEntity
  8
0
100
AcDbLine
 62
2
  6
CONTINUOUS
 10
12.8286866598
 20
2.5396527025
 11
12.8286866598
 21
2.5672823554
  0
LINE
  5
38E
100
AcDbEntity
  8
0
100
AcDbLine
 62
2
  6
CONTINUOUS
 10
12.8286866598
 20
2.5920323691
 11
12.8286866598
 21
2.7195922647
  0
LINE
  5
38F
100
AcDbEntity
  8
0
100
AcDbLine
 62
2
  6
CONTINUOUS
 10
12.8086866487
 20
2.3613405794
 11
12.8086866487
 21
2.4912273132
  0
LINE
  5
390
100
AcDbEntity
  8
0
100
AcDbLine
 62
2
  6
CONTINUOUS
 10
12.8086866487
 20
2.5587355508
 11
12.8086866487
 21
2.7194161016
  0
LINE
  5
391
100
AcDbEntity
  8
0
100
AcDbLine
 62
2
  6
CONTINUOUS
 10
12.7886866376
 20
2.3621089572
 11
12.7886866376
 21
2.4957181055
  0
LINE
  5
392
100
AcDbEntity
  8
0
100
AcDbLine
 62
2
  6
CONTINUOUS
 10
12.7886866376
 20
2.5778183992
 11
12.7886866376
 21
2.7186477238
  0
LINE
  5
393
100
AcDbEntity
  8
0
100
AcDbLine
 62
2
  6
CONTINUOUS
 10
12.7686866266
 20
2.3630013935
 11
12.7686866266
 21
2.5148009227
  0
LINE
  5
394
100
AcDbEntity
  8
0
100
AcDbLine
 62
2
  6
CONTINUOUS
 10
12.7686866266
 20
2.5920323691
 11
12.7686866266
 21
2.7177552874
  0
LINE
  5
395
100
AcDbEntity
  8
0
100
AcDbLine
 62
2
  6
CONTINUOUS
 10
12.7486866155
 20
2.3638938299
 11
12.7486866155
 21
2.4913263218
  0
LINE
  5
396
100
AcDbEntity
  8
0
100
AcDbLine
 62
2
  6
CONTINUOUS
 10
12.7486866155
 20
2.5158783184
 11
12.7486866155
 21
2.5338837399
  0
LINE
  5
397
100
AcDbEntity
  8
0
100
AcDbLine
 62
2
  6
CONTINUOUS
 10
12.7486866155
 20
2.5920323691
 11
12.7486866155
 21
2.7168628511
  0
LINE
  5
398
100
AcDbEntity
  8
0
100
AcDbLine
 62
2
  6
CONTINUOUS
 10
12.7286866044
 20
2.3647862663
 11
12.7286866044
 21
2.4912273132
  0
LINE
  5
399
100
AcDbEntity
  8
0
100
AcDbLine
 62
2
  6
CONTINUOUS
 10
12.7286866044
 20
2.515977327
 11
12.7286866044
 21
2.5527601554
  0
LINE
  5
39A
100
AcDbEntity
  8
0
100
AcDbLine
 62
2
  6
CONTINUOUS
 10
12.7286866044
 20
2.5920323691
 11
12.7286866044
 21
2.7159704147
  0
LINE
  5
39B
100
AcDbEntity
  8
0
100
AcDbLine
 62
2
  6
CONTINUOUS
 10
12.7086865933
 20
2.3656787026
 11
12.7086865933
 21
2.4912273132
  0
LINE
  5
39C
100
AcDbEntity
  8
0
100
AcDbLine
 62
2
  6
CONTINUOUS
 10
12.7086865933
 20
2.5920323691
 11
12.7086865933
 21
2.7150779784
  0
LINE
  5
39D
100
AcDbEntity
  8
0
100
AcDbLine
 62
2
  6
CONTINUOUS
 10
12.6886865822
 20
2.366571139
 11
12.6886865822
 21
2.4912273132
  0
LINE
  5
39E
100
AcDbEntity
  8
0
100
AcDbLine
 62
2
  6
CONTINUOUS
 10
12.6886865822
 20
2.515977327
 11
12.6886865822
 21
2.5672823554
  0
LINE
  5
39F
100
AcDbEntity
  8
0
100
AcDbLine
 62
2
  6
CONTINUOUS
 10
12.6886865822
 20
2.5920323691
 11
12.6886865822
 21
2.714185542
  0
LINE
  5
3A0
100
AcDbEntity
  8
0
100
AcDbLine
 62
2
  6
CONTINUOUS
 10
12.6686865711
 20
2.3677104027
 11
12.6686865711
 21
2.7130462783
  0
LINE
  5
3A1
100
AcDbEntity
  8
0
100
AcDbLine
 62
2
  6
CONTINUOUS
 10
12.64868656
 20
2.3693682721
 11
12.64868656
 21
2.7113884089
  0
LINE
  5
3A2
100
AcDbEntity
  8
0
100
AcDbLine
 62
2
  6
CONTINUOUS
 10
12.6286865489
 20
2.3710261415
 11
12.6286865489
 21
2.4912273132
  0
LINE
  5
3A3
100
AcDbEntity
  8
0
100
AcDbLine
 62
2
  6
CONTINUOUS
 10
12.6286865489
 20
2.515977327
 11
12.6286865489
 21
2.7097305395
  0
LINE
  5
3A4
100
AcDbEntity
  8
0
100
AcDbLine
 62
2
  6
CONTINUOUS
 10
12.6086865378
 20
2.372684011
 11
12.6086865378
 21
2.4912273132
  0
LINE
  5
3A5
100
AcDbEntity
  8
0
100
AcDbLine
 62
2
  6
CONTINUOUS
 10
12.6086865378
 20
2.5351122279
 11
12.6086865378
 21
2.70807267
  0
LINE
  5
3A6
100
AcDbEntity
  8
0
100
AcDbLine
 62
2
  6
CONTINUOUS
 10
12.5886865267
 20
2.3743418804
 11
12.5886865267
 21
2.4912273132
  0
LINE
  5
3A7
100
AcDbEntity
  8
0
100
AcDbLine
 62
2
  6
CONTINUOUS
 10
12.5886865267
 20
2.5660172622
 11
12.5886865267
 21
2.7064148006
  0
LINE
  5
3A8
100
AcDbEntity
  8
0
100
AcDbLine
 62
2
  6
CONTINUOUS
 10
12.5686865156
 20
2.3759997498
 11
12.5686865156
 21
2.4912273132
  0
LINE
  5
3A9
100
AcDbEntity
  8
0
100
AcDbLine
 62
2
  6
CONTINUOUS
 10
12.5686865156
 20
2.5920323691
 11
12.5686865156
 21
2.7047569312
  0
LINE
  5
3AA
100
AcDbEntity
  8
0
100
AcDbLine
 62
2
  6
CONTINUOUS
 10
12.5486865045
 20
2.3777575277
 11
12.5486865045
 21
2.4912273132
  0
LINE
  5
3AB
100
AcDbEntity
  8
0
100
AcDbLine
 62
2
  6
CONTINUOUS
 10
12.5486865045
 20
2.515977327
 11
12.5486865045
 21
2.5275118824
  0
LINE
  5
3AC
100
AcDbEntity
  8
0
100
AcDbLine
 62
2
  6
CONTINUOUS
 10
12.5486865045
 20
2.5920323691
 11
12.5486865045
 21
2.7029991533
  0
LINE
  5
3AD
100
AcDbEntity
  8
0
100
AcDbLine
 62
2
  6
CONTINUOUS
 10
12.5286864935
 20
2.3802813811
 11
12.5286864935
 21
2.5296213345
  0
LINE
  5
3AE
100
AcDbEntity
  8
0
100
AcDbLine
 62
2
  6
CONTINUOUS
 10
12.5286864935
 20
2.5505713461
 11
12.5286864935
 21
2.5667383551
  0
LINE
  5
3AF
100
AcDbEntity
  8
0
100
AcDbLine
 62
2
  6
CONTINUOUS
 10
12.5286864935
 20
2.5920323691
 11
12.5286864935
 21
2.7004752999
  0
LINE
  5
3B0
100
AcDbEntity
  8
0
100
AcDbLine
 62
2
  6
CONTINUOUS
 10
12.5086864824
 20
2.3828052346
 11
12.5086864824
 21
2.4912273132
  0
LINE
  5
3B1
100
AcDbEntity
  8
0
100
AcDbLine
 62
2
  6
CONTINUOUS
 10
12.5086864824
 20
2.515977327
 11
12.5086864824
 21
2.5279667721
  0
LINE
  5
3B2
100
AcDbEntity
  8
0
100
AcDbLine
 62
2
  6
CONTINUOUS
 10
12.5086864824
 20
2.5868602074
 11
12.5086864824
 21
2.6979514464
  0
LINE
  5
3B3
100
AcDbEntity
  8
0
100
AcDbLine
 62
2
  6
CONTINUOUS
 10
12.4886864713
 20
2.385329088
 11
12.4886864713
 21
2.4912273132
  0
LINE
  5
3B4
100
AcDbEntity
  8
0
100
AcDbLine
 62
2
  6
CONTINUOUS
 10
12.4886864713
 20
2.5553401045
 11
12.4886864713
 21
2.695427593
  0
LINE
  5
3B5
100
AcDbEntity
  8
0
100
AcDbLine
 62
2
  6
CONTINUOUS
 10
12.4686864602
 20
2.3878529415
 11
12.4686864602
 21
2.4912273132
  0
LINE
  5
3B6
100
AcDbEntity
  8
0
100
AcDbLine
 62
2
  6
CONTINUOUS
 10
12.4686864602
 20
2.5238200015
 11
12.4686864602
 21
2.6929037395
  0
LINE
  5
3B7
100
AcDbEntity
  8
0
100
AcDbLine
 62
2
  6
CONTINUOUS
 10
12.4486864491
 20
2.390376795
 11
12.4486864491
 21
2.4912273132
  0
LINE
  5
3B8
100
AcDbEntity
  8
0
100
AcDbLine
 62
2
  6
CONTINUOUS
 10
12.4486864491
 20
2.515977327
 11
12.4486864491
 21
2.690379886
  0
LINE
  5
3B9
100
AcDbEntity
  8
0
100
AcDbLine
 62
2
  6
CONTINUOUS
 10
12.428686438
 20
2.3931794042
 11
12.428686438
 21
2.6875772768
  0
LINE
  5
3BA
100
AcDbEntity
  8
0
100
AcDbLine
 62
2
  6
CONTINUOUS
 10
12.4086864269
 20
2.3964643301
 11
12.4086864269
 21
2.5013773986
  0
LINE
  5
3BB
100
AcDbEntity
  8
0
100
AcDbLine
 62
2
  6
CONTINUOUS
 10
12.4086864269
 20
2.5325739971
 11
12.4086864269
 21
2.5537224311
  0
LINE
  5
3BC
100
AcDbEntity
  8
0
100
AcDbLine
 62
2
  6
CONTINUOUS
 10
12.4086864269
 20
2.5791473398
 11
12.4086864269
 21
2.6842923509
  0
LINE
  5
3BD
100
AcDbEntity
  8
0
100
AcDbLine
 62
2
  6
CONTINUOUS
 10
12.3886864158
 20
2.399749256
 11
12.3886864158
 21
2.4921022658
  0
LINE
  5
3BE
100
AcDbEntity
  8
0
100
AcDbLine
 62
2
  6
CONTINUOUS
 10
12.3886864158
 20
2.5895929958
 11
12.3886864158
 21
2.681007425
  0
LINE
  5
3BF
100
AcDbEntity
  8
0
100
AcDbLine
 62
2
  6
CONTINUOUS
 10
12.3686864047
 20
2.403451877
 11
12.3686864047
 21
2.4912273132
  0
LINE
  5
3C0
100
AcDbEntity
  8
0
100
AcDbLine
 62
2
  6
CONTINUOUS
 10
12.3686864047
 20
2.5920323691
 11
12.3686864047
 21
2.677304804
  0
LINE
  5
3C1
100
AcDbEntity
  8
0
100
AcDbLine
 62
2
  6
CONTINUOUS
 10
12.3486863936
 20
2.407324637
 11
12.3486863936
 21
2.4912273132
  0
LINE
  5
3C2
100
AcDbEntity
  8
0
100
AcDbLine
 62
2
  6
CONTINUOUS
 10
12.3486863936
 20
2.5920323691
 11
12.3486863936
 21
2.673432044
  0
LINE
  5
3C3
100
AcDbEntity
  8
0
100
AcDbLine
 62
2
  6
CONTINUOUS
 10
12.3286863825
 20
2.4113493968
 11
12.3286863825
 21
2.4912273132
  0
LINE
  5
3C4
100
AcDbEntity
  8
0
100
AcDbLine
 62
2
  6
CONTINUOUS
 10
12.3286863825
 20
2.515977327
 11
12.3286863825
 21
2.5333023366
  0
LINE
  5
3C5
100
AcDbEntity
  8
0
100
AcDbLine
 62
2
  6
CONTINUOUS
 10
12.3286863825
 20
2.5499573458
 11
12.3286863825
 21
2.5672823554
  0
LINE
  5
3C6
100
AcDbEntity
  8
0
100
AcDbLine
 62
2
  6
CONTINUOUS
 10
12.3286863825
 20
2.5920323691
 11
12.3286863825
 21
2.6694072842
  0
LINE
  5
3C7
100
AcDbEntity
  8
0
100
AcDbLine
 62
2
  6
CONTINUOUS
 10
12.3086863715
 20
2.4159005505
 11
12.3086863715
 21
2.4912273132
  0
LINE
  5
3C8
100
AcDbEntity
  8
0
100
AcDbLine
 62
2
  6
CONTINUOUS
 10
12.3086863715
 20
2.515977327
 11
12.3086863715
 21
2.5333023366
  0
LINE
  5
3C9
100
AcDbEntity
  8
0
100
AcDbLine
 62
2
  6
CONTINUOUS
 10
12.3086863715
 20
2.5499573458
 11
12.3086863715
 21
2.5672823554
  0
LINE
  5
3CA
100
AcDbEntity
  8
0
100
AcDbLine
 62
2
  6
CONTINUOUS
 10
12.3086863715
 20
2.5920323691
 11
12.3086863715
 21
2.6648561305
  0
LINE
  5
3CB
100
AcDbEntity
  8
0
100
AcDbLine
 62
2
  6
CONTINUOUS
 10
12.2886863604
 20
2.4204517041
 11
12.2886863604
 21
2.4912273132
  0
LINE
  5
3CC
100
AcDbEntity
  8
0
100
AcDbLine
 62
2
  6
CONTINUOUS
 10
12.2886863604
 20
2.5920323691
 11
12.2886863604
 21
2.6603049769
  0
LINE
  5
3CD
100
AcDbEntity
  8
0
100
AcDbLine
 62
2
  6
CONTINUOUS
 10
12.2686863493
 20
2.4257438218
 11
12.2686863493
 21
2.4912273132
  0
LINE
  5
3CE
100
AcDbEntity
  8
0
100
AcDbLine
 62
2
  6
CONTINUOUS
 10
12.2686863493
 20
2.5920323691
 11
12.2686863493
 21
2.6550128592
  0
LINE
  5
3CF
100
AcDbEntity
  8
0
100
AcDbLine
 62
2
  6
CONTINUOUS
 10
12.2486863382
 20
2.4310978667
 11
12.2486863382
 21
2.4912273132
  0
LINE
  5
3D0
100
AcDbEntity
  8
0
100
AcDbLine
 62
2
  6
CONTINUOUS
 10
12.2486863382
 20
2.5920323691
 11
12.2486863382
 21
2.6496588142
  0
LINE
  5
3D1
100
AcDbEntity
  8
0
100
AcDbLine
 62
2
  6
CONTINUOUS
 10
12.2286863271
 20
2.4372566433
 11
12.2286863271
 21
2.4912273132
  0
LINE
  5
3D2
100
AcDbEntity
  8
0
100
AcDbLine
 62
2
  6
CONTINUOUS
 10
12.2286863271
 20
2.515977327
 11
12.2286863271
 21
2.5672823554
  0
LINE
  5
3D3
100
AcDbEntity
  8
0
100
AcDbLine
 62
2
  6
CONTINUOUS
 10
12.2286863271
 20
2.5920323691
 11
12.2286863271
 21
2.6435000377
  0
LINE
  5
3D4
100
AcDbEntity
  8
0
100
AcDbLine
 62
2
  6
CONTINUOUS
 10
12.208686316
 20
2.443589771
 11
12.208686316
 21
2.4912273132
  0
LINE
  5
3D5
100
AcDbEntity
  8
0
100
AcDbLine
 62
2
  6
CONTINUOUS
 10
12.208686316
 20
2.515977327
 11
12.208686316
 21
2.5672823554
  0
LINE
  5
3D6
100
AcDbEntity
  8
0
100
AcDbLine
 62
2
  6
CONTINUOUS
 10
12.208686316
 20
2.5920323691
 11
12.208686316
 21
2.63716691
  0
LINE
  5
3D7
100
AcDbEntity
  8
0
100
AcDbLine
 62
2
  6
CONTINUOUS
 10
12.1886863049
 20
2.4510806436
 11
12.1886863049
 21
2.6296760373
  0
LINE
  5
3D8
100
AcDbEntity
  8
0
100
AcDbLine
 62
2
  6
CONTINUOUS
 10
12.1686862938
 20
2.4591016523
 11
12.1686862938
 21
2.6216550287
  0
LINE
  5
3D9
100
AcDbEntity
  8
0
100
AcDbLine
 62
2
  6
CONTINUOUS
 10
12.1486862827
 20
2.468314272
 11
12.1486862827
 21
2.612442409
  0
LINE
  5
3DA
100
AcDbEntity
  8
0
100
AcDbLine
 62
2
  6
CONTINUOUS
 10
12.1286862716
 20
2.4794932339
 11
12.1286862716
 21
2.601263447
  0
LINE
  5
3DB
100
AcDbEntity
  8
0
100
AcDbLine
 62
2
  6
CONTINUOUS
 10
12.1086862605
 20
2.4934150665
 11
12.1086862605
 21
2.5873416144
  0
LINE
  5
3DC
100
AcDbEntity
  8
0
100
AcDbLine
 62
2
  6
CONTINUOUS
 10
12.0886862494
 20
2.5144449553
 11
12.0886862494
 21
2.5663117257
  0
ENDBLK
  5
3DD
100
AcDbEntity
  8
0
  6
BYBLOCK
 62
0
100
AcDbBlockEnd
  0
BLOCK
  5
3DE
100
AcDbEntity
  8
SCHEME_DIMS
100
AcDbBlockBegin
 62
2
  6
CONTINUOUS
  2
*D0
 70
65
 10
0.0
 20
0.0
  3
*D0
  1

  0
TEXT
  5
3DF
100
AcDbEntity
  8
SCHEME_DIMS
100
AcDbText
 62
2
  6
CONTINUOUS
 10
5.2950905718
 20
6.9431023907
  7
STANDARD
 40
0.1
  1
19
 41
1.0
 72
0
100
AcDbText
  0
TEXT
  5
3E0
100
AcDbEntity
  8
SCHEME_DIMS
100
AcDbText
 62
2
  6
CONTINUOUS
 10
5.3950905718
 20
6.7931023907
  7
STANDARD
 40
0.1
  1
.75
 41
1.0
 72
0
100
AcDbText
  0
TEXT
  5
3E1
100
AcDbEntity
  8
SCHEME_DIMS
100
AcDbText
 62
2
  6
CONTINUOUS
 10
5.2950905718
 20
6.7931023907
  7
STANDARD
 40
0.1
  1
[
 41
1.0
 72
0
100
AcDbText
  0
TEXT
  5
3E2
100
AcDbEntity
  8
SCHEME_DIMS
100
AcDbText
 62
2
  6
CONTINUOUS
 10
5.6950905718
 20
6.7931023907
  7
STANDARD
 40
0.1
  1
]
 41
1.0
 72
0
100
AcDbText
  0
LINE
  5
3E3
100
AcDbEntity
  8
SCHEME_DIMS
100
AcDbLine
 62
2
  6
CONTINUOUS
 10
4.6351496269
 20
6.5440866427
 11
5.6700905718
 21
6.5440866427
  0
LINE
  5
3E4
100
AcDbEntity
  8
SCHEME_DIMS
100
AcDbLine
 62
2
  6
CONTINUOUS
 10
4.8984026796
 20
7.2921181387
 11
4.9236680354
 21
7.2921181387
  0
LINE
  5
3E5
100
AcDbEntity
  8
SCHEME_DIMS
100
AcDbLine
 62
2
  6
CONTINUOUS
 10
4.9662650724
 20
7.2921181387
 11
5.6700905718
 21
7.2921181387
  0
LINE
  5
3E6
100
AcDbEntity
  8
SCHEME_DIMS
100
AcDbLine
 62
2
  6
CONTINUOUS
 10
5.5450905718
 20
6.5440866427
 11
5.5450905718
 21
6.1440866427
  0
LINE
  5
3E7
100
AcDbEntity
  8
SCHEME_DIMS
100
AcDbLine
 62
2
  6
CONTINUOUS
 10
5.5450905718
 20
7.2921181387
 11
5.5450905718
 21
7.6921181387
  0
INSERT
  5
3E8
100
AcDbEntity
  8
SCHEME_DIMS
100
AcDbBlockReference
 62
2
  6
CONTINUOUS
  2
_FILLED
 10
5.5450905718
 20
6.5440866427
 41
0.1875
 42
0.1875
 43
0.1875
 50
90.0
  0
INSERT
  5
3E9
100
AcDbEntity
  8
SCHEME_DIMS
100
AcDbBlockReference
 62
2
  6
CONTINUOUS
  2
_FILLED
 10
5.5450905718
 20
7.2921181387
 41
0.1875
 42
0.1875
 43
0.1875
 50
270.0
  0
ENDBLK
  5
3EA
100
AcDbEntity
  8
0
  6
BYBLOCK
 62
0
100
AcDbBlockEnd
  0
BLOCK
  5
3EB
100
AcDbEntity
  8
SCHEME_DIMS
100
AcDbBlockBegin
 62
2
  6
CONTINUOUS
  2
*D1
 70
65
 10
0.0
 20
0.0
  3
*D1
  1

  0
TEXT
  5
3EC
100
AcDbEntity
  8
SCHEME_DIMS
100
AcDbText
 62
2
  6
CONTINUOUS
 10
5.9950905718
 20
8.1458582962
  7
STANDARD
 40
0.1
  1
80,1
 41
1.0
 72
0
100
AcDbText
  0
TEXT
  5
3ED
100
AcDbEntity
  8
SCHEME_DIMS
100
AcDbText
 62
2
  6
CONTINUOUS
 10
6.0950905718
 20
7.9958582962
  7
STANDARD
 40
0.1
  1
3.15
 41
1.0
 72
0
100
AcDbText
  0
TEXT
  5
3EE
100
AcDbEntity
  8
SCHEME_DIMS
100
AcDbText
 62
2
  6
CONTINUOUS
 10
5.9950905718
 20
7.9958582962
  7
STANDARD
 40
0.1
  1
[
 41
1.0
 72
0
100
AcDbText
  0
TEXT
  5
3EF
100
AcDbEntity
  8
SCHEME_DIMS
100
AcDbText
 62
2
  6
CONTINUOUS
 10
6.4950905718
 20
7.9958582962
  7
STANDARD
 40
0.1
  1
]
 41
1.0
 72
0
100
AcDbText
  0
LINE
  5
3F0
100
AcDbEntity
  8
SCHEME_DIMS
100
AcDbLine
 62
2
  6
CONTINUOUS
 10
4.6351496269
 20
6.5440866427
 11
6.4200905718
 21
6.5440866427
  0
LINE
  5
3F1
100
AcDbEntity
  8
SCHEME_DIMS
100
AcDbLine
 62
2
  6
CONTINUOUS
 10
5.0688149524
 20
9.6976299497
 11
6.4200905718
 21
9.6976299497
  0
LINE
  5
3F2
100
AcDbEntity
  8
SCHEME_DIMS
100
AcDbLine
 62
2
  6
CONTINUOUS
 10
6.2950905718
 20
6.5440866427
 11
6.2950905718
 21
7.8958582962
  0
LINE
  5
3F3
100
AcDbEntity
  8
SCHEME_DIMS
100
AcDbLine
 62
2
  6
CONTINUOUS
 10
6.2950905718
 20
9.6976299497
 11
6.2950905718
 21
8.3458582962
  0
INSERT
  5
3F4
100
AcDbEntity
  8
SCHEME_DIMS
100
AcDbBlockReference
 62
2
  6
CONTINUOUS
  2
_FILLED
 10
6.2950905718
 20
6.5440866427
 41
0.1875
 42
0.1875
 43
0.1875
 50
270.0
  0
INSERT
  5
3F5
100
AcDbEntity
  8
SCHEME_DIMS
100
AcDbBlockReference
 62
2
  6
CONTINUOUS
  2
_FILLED
 10
6.2950905718
 20
9.6976299497
 41
0.1875
 42
0.1875
 43
0.1875
 50
90.0
  0
ENDBLK
  5
3F6
100
AcDbEntity
  8
0
  6
BYBLOCK
 62
0
100
AcDbBlockEnd
  0
BLOCK
  5
3F7
100
AcDbEntity
  8
SCHEME_DIMS
100
AcDbBlockBegin
 62
2
  6
CONTINUOUS
  2
*D2
 70
65
 10
0.0
 20
0.0
  3
*D2
  1

  0
TEXT
  5
3F8
100
AcDbEntity
  8
SCHEME_DIMS
100
AcDbText
 62
2
  6
CONTINUOUS
 10
3.7608386033
 20
5.1817925653
  7
STANDARD
 40
0.1
  1
45
 41
1.0
 72
0
100
AcDbText
  0
TEXT
  5
3F9
100
AcDbEntity
  8
SCHEME_DIMS
100
AcDbText
 62
2
  6
CONTINUOUS
 10
3.8608386033
 20
5.0317925653
  7
STANDARD
 40
0.1
  1
1.77
 41
1.0
 72
0
100
AcDbText
  0
TEXT
  5
3FA
100
AcDbEntity
  8
SCHEME_DIMS
100
AcDbText
 62
2
  6
CONTINUOUS
 10
3.7608386033
 20
5.0317925653
  7
STANDARD
 40
0.1
  1
[
 41
1.0
 72
0
100
AcDbText
  0
TEXT
  5
3FB
100
AcDbEntity
  8
SCHEME_DIMS
100
AcDbText
 62
2
  6
CONTINUOUS
 10
4.2608386033
 20
5.0317925653
  7
STANDARD
 40
0.1
  1
]
 41
1.0
 72
0
100
AcDbText
  0
LINE
  5
3FC
100
AcDbEntity
  8
SCHEME_DIMS
100
AcDbLine
 62
2
  6
CONTINUOUS
 10
3.1750118316
 20
7.3234683339
 11
3.1750118316
 21
6.58427926
  0
LINE
  5
3FD
100
AcDbEntity
  8
SCHEME_DIMS
100
AcDbLine
 62
2
  6
CONTINUOUS
 10
3.1750118316
 20
6.5277965295
 11
3.1750118316
 21
5.1067925653
  0
LINE
  5
3FE
100
AcDbEntity
  8
SCHEME_DIMS
100
AcDbLine
 62
2
  6
CONTINUOUS
 10
4.9466653749
 20
7.3165208889
 11
4.9466653749
 21
6.5835178774
  0
LINE
  5
3FF
100
AcDbEntity
  8
SCHEME_DIMS
100
AcDbLine
 62
2
  6
CONTINUOUS
 10
4.9466653749
 20
6.5070553332
 11
4.9466653749
 21
5.1067925653
  0
LINE
  5
400
100
AcDbEntity
  8
SCHEME_DIMS
100
AcDbLine
 62
2
  6
CONTINUOUS
 10
3.1750118316
 20
5.2317925653
 11
3.6608386033
 21
5.2317925653
  0
LINE
  5
401
100
AcDbEntity
  8
SCHEME_DIMS
100
AcDbLine
 62
2
  6
CONTINUOUS
 10
4.9466653749
 20
5.2317925653
 11
4.4608386033
 21
5.2317925653
  0
INSERT
  5
402
100
AcDbEntity
  8
SCHEME_DIMS
100
AcDbBlockReference
 62
2
  6
CONTINUOUS
  2
_FILLED
 10
3.1750118316
 20
5.2317925653
 41
0.1875
 42
0.1875
 43
0.1875
 50
180.0
  0
INSERT
  5
403
100
AcDbEntity
  8
SCHEME_DIMS
100
AcDbBlockReference
 62
2
  6
CONTINUOUS
  2
_FILLED
 10
4.9466653749
 20
5.2317925653
 41
0.1875
 42
0.1875
 43
0.1875
  0
ENDBLK
  5
404
100
AcDbEntity
  8
0
  6
BYBLOCK
 62
0
100
AcDbBlockEnd
  0
BLOCK
  5
405
100
AcDbEntity
  8
SCHEME_DIMS
100
AcDbBlockBegin
 62
2
  6
CONTINUOUS
  2
*D3
 70
65
 10
0.0
 20
0.0
  3
*D3
  1

  0
TEXT
  5
406
100
AcDbEntity
  8
SCHEME_DIMS
100
AcDbText
 62
2
  6
CONTINUOUS
 10
5.398900688
 20
4.1135394084
  7
STANDARD
 40
0.1
  1
%%c
 41
1.3333333333
 72
0
100
AcDbText
  0
TEXT
  5
407
100
AcDbEntity
  8
SCHEME_DIMS
100
AcDbText
 62
2
  6
CONTINUOUS
 10
5.5322340213
 20
4.1135394084
  7
STANDARD
 40
0.1
  1
50
 41
1.0
 72
0
100
AcDbText
  0
TEXT
  5
408
100
AcDbEntity
  8
SCHEME_DIMS
100
AcDbText
 62
2
  6
CONTINUOUS
 10
5.6322340213
 20
3.9635394084
  7
STANDARD
 40
0.1
  1
1.97
 41
1.0
 72
0
100
AcDbText
  0
TEXT
  5
409
100
AcDbEntity
  8
SCHEME_DIMS
100
AcDbText
 62
2
  6
CONTINUOUS
 10
5.5322340213
 20
3.9635394084
  7
STANDARD
 40
0.1
  1
[
 41
1.0
 72
0
100
AcDbText
  0
TEXT
  5
40A
100
AcDbEntity
  8
SCHEME_DIMS
100
AcDbText
 62
2
  6
CONTINUOUS
 10
6.0322340213
 20
3.9635394084
  7
STANDARD
 40
0.1
  1
]
 41
1.0
 72
0
100
AcDbText
  0
LINE
  5
40B
100
AcDbEntity
  8
SCHEME_DIMS
100
AcDbLine
 62
2
  6
CONTINUOUS
 10
4.8535596488
 20
3.9461875902
 11
4.0608386033
 21
3.3627963994
  0
LINE
  5
40C
100
AcDbEntity
  8
SCHEME_DIMS
100
AcDbLine
 62
2
  6
CONTINUOUS
 10
4.0608386033
 20
3.3627963994
 11
5.148900688
 21
4.1635394084
  0
LINE
  5
40D
100
AcDbEntity
  8
SCHEME_DIMS
100
AcDbLine
 62
2
  6
CONTINUOUS
 10
5.148900688
 20
4.1635394084
 11
5.298900688
 21
4.1635394084
  0
LINE
  5
40E
100
AcDbEntity
  8
SCHEME_DIMS
100
AcDbLine
 62
2
  6
CONTINUOUS
 10
3.2681175578
 20
2.7794052086
 11
4.0608386033
 21
3.3627963994
  0
INSERT
  5
40F
100
AcDbEntity
  8
SCHEME_DIMS
100
AcDbBlockReference
 62
2
  6
CONTINUOUS
  2
_FILLED
 10
4.8535596488
 20
3.9461875902
 41
0.1875
 42
0.1875
 43
0.1875
 50
36.3506538711
  0
INSERT
  5
410
100
AcDbEntity
  8
SCHEME_DIMS
100
AcDbBlockReference
 62
2
  6
CONTINUOUS
  2
_FILLED
 10
3.2681175578
 20
2.7794052086
 41
0.1875
 42
0.1875
 43
0.1875
 50
216.3506538711
  0
ENDBLK
  5
411
100
AcDbEntity
  8
0
  6
BYBLOCK
 62
0
100
AcDbBlockEnd
  0
BLOCK
  5
412
100
AcDbEntity
  8
SCHEME_DIMS
100
AcDbBlockBegin
 62
2
  6
CONTINUOUS
  2
*D4
 70
65
 10
0.0
 20
0.0
  3
*D4
  1

  0
TEXT
  5
413
100
AcDbEntity
  8
SCHEME_DIMS
100
AcDbText
 62
2
  6
CONTINUOUS
 10
5.2450905718
 20
8.8466457147
  7
STANDARD
 40
0.1
  1
26,9
 41
1.0
 72
0
100
AcDbText
  0
TEXT
  5
414
100
AcDbEntity
  8
SCHEME_DIMS
100
AcDbText
 62
2
  6
CONTINUOUS
 10
5.3450905718
 20
8.6966457147
  7
STANDARD
 40
0.1
  1
1.06
 41
1.0
 72
0
100
AcDbText
  0
TEXT
  5
415
100
AcDbEntity
  8
SCHEME_DIMS
100
AcDbText
 62
2
  6
CONTINUOUS
 10
5.2450905718
 20
8.6966457147
  7
STANDARD
 40
0.1
  1
[
 41
1.0
 72
0
100
AcDbText
  0
TEXT
  5
416
100
AcDbEntity
  8
SCHEME_DIMS
100
AcDbText
 62
2
  6
CONTINUOUS
 10
5.7450905718
 20
8.6966457147
  7
STANDARD
 40
0.1
  1
]
 41
1.0
 72
0
100
AcDbText
  0
LINE
  5
417
100
AcDbEntity
  8
SCHEME_DIMS
100
AcDbLine
 62
2
  6
CONTINUOUS
 10
5.1075905718
 20
8.2921181387
 11
5.6700905718
 21
8.2921181387
  0
LINE
  5
418
100
AcDbEntity
  8
SCHEME_DIMS
100
AcDbLine
 62
2
  6
CONTINUOUS
 10
5.0863306663
 20
9.3511732906
 11
5.6700905718
 21
9.3511732906
  0
LINE
  5
419
100
AcDbEntity
  8
SCHEME_DIMS
100
AcDbLine
 62
2
  6
CONTINUOUS
 10
5.5450905718
 20
8.2921181387
 11
5.5450905718
 21
8.5966457147
  0
LINE
  5
41A
100
AcDbEntity
  8
SCHEME_DIMS
100
AcDbLine
 62
2
  6
CONTINUOUS
 10
5.5450905718
 20
9.3511732906
 11
5.5450905718
 21
9.0466457147
  0
INSERT
  5
41B
100
AcDbEntity
  8
SCHEME_DIMS
100
AcDbBlockReference
 62
2
  6
CONTINUOUS
  2
_FILLED
 10
5.5450905718
 20
8.2921181387
 41
0.1875
 42
0.1875
 43
0.1875
 50
270.0
  0
INSERT
  5
41C
100
AcDbEntity
  8
SCHEME_DIMS
100
AcDbBlockReference
 62
2
  6
CONTINUOUS
  2
_FILLED
 10
5.5450905718
 20
9.3511732906
 41
0.1875
 42
0.1875
 43
0.1875
 50
90.0
  0
ENDBLK
  5
41D
100
AcDbEntity
  8
0
  6
BYBLOCK
 62
0
100
AcDbBlockEnd
  0
BLOCK
  5
41E
100
AcDbEntity
  8
0
100
AcDbBlockBegin
  2
_FILLED
 70
64
 10
0.0
 20
0.0
  3
_FILLED
  1

  0
SOLID
  5
41F
100
AcDbEntity
  8
0
  6
BYBLOCK
 62
0
100
AcDbTrace
 10
0.0
 20
0.0
 11
-1.0
 21
0.1666666667
 12
-1.0
 22
-0.1666666667
 13
-1.0
 23
-0.1666666667
  0
ENDBLK
  5
420
100
AcDbEntity
  8
0
  6
BYBLOCK
 62
0
100
AcDbBlockEnd
  0
ENDSEC
  0
SECTION
  2
ENTITIES
  0
TEXT
  5
421
100
AcDbEntity
  8
0
100
AcDbText
 62
2
  6
CONTINUOUS
 10
10.1487658475
 20
1.694867839
  7
STANDARD
 40
0.1
  1
%%uTHIRD ANGLE PROJECTION
 41
0.8
 72
1
 11
11.0287658475
 21
1.694867839
100
AcDbText
  0
TEXT
  5
422
100
AcDbEntity
  8
0
100
AcDbText
 62
2
  6
CONTINUOUS
 10
12.88
 20
1.377
  7
STANDARD
 40
0.08
  1
DRAWING NO.
 41
1.0
 72
0
100
AcDbText
  0
TEXT
  5
423
100
AcDbEntity
  8
0
100
AcDbText
 62
2
  6
CONTINUOUS
 10
10.044
 20
2.436432
  7
STANDARD
 40
0.08
  1
and is proprietary in general
 41
0.85
 72
1
 11
11.03
 21
2.436432
100
AcDbText
  0
TEXT
  5
424
100
AcDbEntity
  8
0
100
AcDbText
 62
2
  6
CONTINUOUS
 10
10.078
 20
2.316432
  7
STANDARD
 40
0.08
  1
and in detail.  Its contents
 41
0.85
 72
1
 11
11.03
 21
2.316432
100
AcDbText
  0
TEXT
  5
425
100
AcDbEntity
  8
0
100
AcDbText
 62
2
  6
CONTINUOUS
 10
10.214
 20
2.196432
  7
STANDARD
 40
0.08
  1
shall not be revealed to
 41
0.85
 72
1
 11
11.03
 21
2.196432
100
AcDbText
  0
TEXT
  5
426
100
AcDbEntity
  8
0
100
AcDbText
 62
2
  6
CONTINUOUS
 10
10.248
 20
2.076432
  7
STANDARD
 40
0.08
  1
outside parties without
 41
0.85
 72
1
 11
11.03
 21
2.076432
100
AcDbText
  0
TEXT
  5
427
100
AcDbEntity
  8
0
100
AcDbText
 62
2
  6
CONTINUOUS
 10
10.146
 20
1.956432
  7
STANDARD
 40
0.08
  1
written consent of BANNER.
 41
0.85
 72
1
 11
11.03
 21
1.956432
100
AcDbText
  0
TEXT
  5
428
100
AcDbEntity
  8
0
100
AcDbText
 62
2
  6
CONTINUOUS
 10
12.08
 20
2.117
  7
STANDARD
 40
0.1
  1
TITLE
 41
0.8
 72
0
100
AcDbText
  0
TEXT
  5
429
100
AcDbEntity
  8
0
100
AcDbText
 62
2
  6
CONTINUOUS
 10
12.08
 20
1.377
  7
STANDARD
 40
0.08
  1
SIZE
 41
1.0
 72
0
100
AcDbText
  0
TEXT
  5
42A
100
AcDbEntity
  8
0
100
AcDbText
 62
2
  6
CONTINUOUS
 10
12.08
 20
1.007
  7
STANDARD
 40
0.08
  1
SCALE
 41
1.0
 72
0
100
AcDbText
  0
TEXT
  5
42B
100
AcDbEntity
  8
0
100
AcDbText
 62
2
  6
CONTINUOUS
 10
12.46
 20
1.237
  7
STANDARD
 40
0.1
  1
B
 41
0.8
 72
1
 11
12.5
 21
1.237
100
AcDbText
  0
TEXT
  5
42C
100
AcDbEntity
  8
0
100
AcDbText
 62
2
  6
CONTINUOUS
 10
10.112
 20
2.556432
  7
STANDARD
 40
0.08
  1
of BANNER ENGINEERING CORP.
 41
0.85
 72
1
 11
11.03
 21
2.556432
100
AcDbText
  0
TEXT
  5
42D
100
AcDbEntity
  8
0
100
AcDbText
 62
2
  6
CONTINUOUS
 10
10.078
 20
2.676432
  7
STANDARD
 40
0.08
  1
This drawing is the property
 41
0.85
 72
1
 11
11.03
 21
2.676432
100
AcDbText
  0
TEXT
  5
42E
100
AcDbEntity
  8
0
100
AcDbText
 62
2
  6
CONTINUOUS
 10
14.19
 20
2.3134
  7
STANDARD
 40
0.1
  1
MINNEAPOLIS, MN 55440
 41
0.8
 72
1
 11
15.03
 21
2.3134
100
AcDbText
  0
TEXT
  5
42F
100
AcDbEntity
  8
0
100
AcDbText
 62
2
  6
CONTINUOUS
 10
14.255
 20
1.007
  7
STANDARD
 40
0.08
  1
SHEET
 41
1.0
 72
0
100
AcDbText
  0
TEXT
  5
430
100
AcDbEntity
  8
0
100
AcDbText
 62
2
  6
CONTINUOUS
 10
15.63
 20
1.377
  7
STANDARD
 40
0.08
  1
REV.
 41
1.0
 72
0
100
AcDbText
  0
TEXT
  5
431
100
AcDbEntity
  8
0
100
AcDbText
 62
2
  6
CONTINUOUS
 10
16.03
 20
0.765443
  7
STANDARD
 40
0.07
  1
PRO/E
 41
1.0
 72
2
 11
16.38
 21
0.765443
100
AcDbText
  0
TEXT
  5
432
100
AcDbEntity
  8
0
100
AcDbText
 62
2
  6
CONTINUOUS
 10
13.7052
 20
2.631049
  7
STANDARD
 40
0.12
  1
BANNER ENGINEERING CORP.
 41
0.92
 72
1
 11
15.03
 21
2.631049
100
AcDbText
  0
TEXT
  5
433
100
AcDbEntity
  8
0
100
AcDbText
 62
2
  6
CONTINUOUS
 10
14.51
 20
2.4724
  7
STANDARD
 40
0.1
  1
P.O. BOX 9414
 41
0.8
 72
1
 11
15.03
 21
2.4724
100
AcDbText
  0
TEXT
  5
434
100
AcDbEntity
  8
0
100
AcDbText
 62
2
  6
CONTINUOUS
 10
9.445
 20
10.212
  7
STANDARD
 40
0.1
  1
4
 41
0.8
 72
1
 11
9.485
 21
10.212
100
AcDbText
  0
TEXT
  5
435
100
AcDbEntity
  8
0
100
AcDbText
 62
2
  6
CONTINUOUS
 10
11.415
 20
10.212
  7
STANDARD
 40
0.1
  1
3
 41
0.8
 72
1
 11
11.455
 21
10.212
100
AcDbText
  0
TEXT
  5
436
100
AcDbEntity
  8
0
100
AcDbText
 62
2
  6
CONTINUOUS
 10
13.385
 20
10.212
  7
STANDARD
 40
0.1
  1
2
 41
0.8
 72
1
 11
13.425
 21
10.212
100
AcDbText
  0
TEXT
  5
437
100
AcDbEntity
  8
0
100
AcDbText
 62
2
  6
CONTINUOUS
 10
15.355
 20
10.212
  7
STANDARD
 40
0.1
  1
1
 41
0.8
 72
1
 11
15.395
 21
10.212
100
AcDbText
  0
TEXT
  5
438
100
AcDbEntity
  8
0
100
AcDbText
 62
2
  6
CONTINUOUS
 10
3.535
 20
10.212
  7
STANDARD
 40
0.1
  1
7
 41
0.8
 72
1
 11
3.575
 21
10.212
100
AcDbText
  0
TEXT
  5
439
100
AcDbEntity
  8
0
100
AcDbText
 62
2
  6
CONTINUOUS
 10
5.505
 20
10.212
  7
STANDARD
 40
0.1
  1
6
 41
0.8
 72
1
 11
5.545
 21
10.212
100
AcDbText
  0
TEXT
  5
43A
100
AcDbEntity
  8
0
100
AcDbText
 62
2
  6
CONTINUOUS
 10
7.475
 20
10.212
  7
STANDARD
 40
0.1
  1
5
 41
0.8
 72
1
 11
7.515
 21
10.212
100
AcDbText
  0
TEXT
  5
43B
100
AcDbEntity
  8
0
100
AcDbText
 62
2
  6
CONTINUOUS
 10
1.565
 20
10.212
  7
STANDARD
 40
0.1
  1
8
 41
0.8
 72
1
 11
1.605
 21
10.212
100
AcDbText
  0
TEXT
  5
43C
100
AcDbEntity
  8
0
100
AcDbText
 62
2
  6
CONTINUOUS
 10
1.565
 20
0.687
  7
STANDARD
 40
0.1
  1
8
 41
0.8
 72
1
 11
1.605
 21
0.687
100
AcDbText
  0
TEXT
  5
43D
100
AcDbEntity
  8
0
100
AcDbText
 62
2
  6
CONTINUOUS
 10
3.535
 20
0.687
  7
STANDARD
 40
0.1
  1
7
 41
0.8
 72
1
 11
3.575
 21
0.687
100
AcDbText
  0
TEXT
  5
43E
100
AcDbEntity
  8
0
100
AcDbText
 62
2
  6
CONTINUOUS
 10
5.505
 20
0.687
  7
STANDARD
 40
0.1
  1
6
 41
0.8
 72
1
 11
5.545
 21
0.687
100
AcDbText
  0
TEXT
  5
43F
100
AcDbEntity
  8
0
100
AcDbText
 62
2
  6
CONTINUOUS
 10
7.475
 20
0.687
  7
STANDARD
 40
0.1
  1
5
 41
0.8
 72
1
 11
7.515
 21
0.687
100
AcDbText
  0
TEXT
  5
440
100
AcDbEntity
  8
0
100
AcDbText
 62
2
  6
CONTINUOUS
 10
9.445
 20
0.687
  7
STANDARD
 40
0.1
  1
4
 41
0.8
 72
1
 11
9.485
 21
0.687
100
AcDbText
  0
TEXT
  5
441
100
AcDbEntity
  8
0
100
AcDbText
 62
2
  6
CONTINUOUS
 10
11.415
 20
0.687
  7
STANDARD
 40
0.1
  1
3
 41
0.8
 72
1
 11
11.455
 21
0.687
100
AcDbText
  0
TEXT
  5
442
100
AcDbEntity
  8
0
100
AcDbText
 62
2
  6
CONTINUOUS
 10
13.385
 20
0.687
  7
STANDARD
 40
0.1
  1
2
 41
0.8
 72
1
 11
13.425
 21
0.687
100
AcDbText
  0
TEXT
  5
443
100
AcDbEntity
  8
0
100
AcDbText
 62
2
  6
CONTINUOUS
 10
15.355
 20
0.687
  7
STANDARD
 40
0.1
  1
1
 41
0.8
 72
1
 11
15.395
 21
0.687
100
AcDbText
  0
TEXT
  5
444
100
AcDbEntity
  8
0
100
AcDbText
 62
2
  6
CONTINUOUS
 10
0.44
 20
4.2995
  7
STANDARD
 40
0.1
  1
B
 41
0.8
 72
2
 11
0.52
 21
4.2995
100
AcDbText
  0
TEXT
  5
445
100
AcDbEntity
  8
0
100
AcDbText
 62
2
  6
CONTINUOUS
 10
0.44
 20
1.9995
  7
STANDARD
 40
0.1
  1
A
 41
0.8
 72
2
 11
0.52
 21
1.9995
100
AcDbText
  0
TEXT
  5
446
100
AcDbEntity
  8
0
100
AcDbText
 62
2
  6
CONTINUOUS
 10
0.44
 20
8.8995
  7
STANDARD
 40
0.1
  1
D
 41
0.8
 72
2
 11
0.52
 21
8.8995
100
AcDbText
  0
TEXT
  5
447
100
AcDbEntity
  8
0
100
AcDbText
 62
2
  6
CONTINUOUS
 10
0.44
 20
6.5995
  7
STANDARD
 40
0.1
  1
C
 41
0.8
 72
2
 11
0.52
 21
6.5995
100
AcDbText
  0
TEXT
  5
448
100
AcDbEntity
  8
0
100
AcDbText
 62
2
  6
CONTINUOUS
 10
16.48
 20
8.8995
  7
STANDARD
 40
0.1
  1
D
 41
0.8
 72
0
100
AcDbText
  0
TEXT
  5
449
100
AcDbEntity
  8
0
100
AcDbText
 62
2
  6
CONTINUOUS
 10
16.48
 20
6.5995
  7
STANDARD
 40
0.1
  1
C
 41
0.8
 72
0
100
AcDbText
  0
TEXT
  5
44A
100
AcDbEntity
  8
0
100
AcDbText
 62
2
  6
CONTINUOUS
 10
16.48
 20
4.2995
  7
STANDARD
 40
0.1
  1
B
 41
0.8
 72
0
100
AcDbText
  0
TEXT
  5
44B
100
AcDbEntity
  8
0
100
AcDbText
 62
2
  6
CONTINUOUS
 10
16.48
 20
1.9995
  7
STANDARD
 40
0.1
  1
A
 41
0.8
 72
0
100
AcDbText
  0
MTEXT
  5
44C
100
AcDbEntity
  8
0
100
AcDbMText
 62
2
  6
CONTINUOUS
  7
STANDARD
 71
1
 72
1
 10
14.819264911
 20
1.0627941725
 30
0.0
 11
1.0
 21
0.0
 31
0.0
  1
1 OF 1
 40
0.1
 41
0.6
  0
TEXT
  5
44D
100
AcDbEntity
  8
0
100
AcDbText
 62
7
  6
CONTINUOUS
 10
13.8911999818
 20
1.2547321586
  7
STANDARD
 40
0.12
  1
145179
 41
1.0
 72
0
100
AcDbText
  0
TEXT
  5
44E
100
AcDbEntity
  8
0
100
AcDbText
 62
2
  6
CONTINUOUS
 10
12.644264911
 20
0.9627941725
  7
STANDARD
 40
0.1
  1
1:1
 41
1.0
 72
0
100
AcDbText
  0
MTEXT
  5
44F
100
AcDbEntity
  8
0
100
AcDbMText
 62
2
  6
CONTINUOUS
  7
STANDARD
 71
1
 72
1
 10
1.0597007627
 20
1.6202922458
 30
0.0
 11
1.0
 21
0.0
 31
0.0
  1
NOTES:\P1. ALL DIMENSIONS ARE MILLIMETERS [INCHES] UNLESS OTHERWISE NOTED.
 40
0.1
 41
6.6
  0
INSERT
  5
450
100
AcDbEntity
  8
0
100
AcDbBlockReference
 62
2
  6
CONTINUOUS
  2
BANNER_LOGO_TITLEBLOCK_BL0
 10
12.9046655056
 20
2.5403783448
  0
DIMENSION
  5
451
100
AcDbEntity
  8
SCHEME_DIMS
100
AcDbDimension
 62
2
  6
CONTINUOUS
  2
*D0
 10
5.5450905718
 20
7.2921181387
 11
5.5450905718
 21
6.9181023907
 70
160
 42
19.0
  3
DIMSTYLE_1
100
AcDbAlignedDimension
 13
4.6351496269
 23
6.5440866427
 14
4.8984026796
 24
7.2921181387
 50
90.0
100
AcDbRotatedDimension
  0
DIMENSION
  5
452
100
AcDbEntity
  8
SCHEME_DIMS
100
AcDbDimension
 62
2
  6
CONTINUOUS
  2
*D1
 10
6.2950905718
 20
9.6976299497
 11
6.2950905718
 21
8.1208582962
 70
160
 42
80.1
  3
DIMSTYLE_1
100
AcDbAlignedDimension
 13
4.6351496269
 23
6.5440866427
 14
5.0688149524
 24
9.6976299497
 50
90.0
100
AcDbRotatedDimension
  0
DIMENSION
  5
453
100
AcDbEntity
  8
SCHEME_DIMS
100
AcDbDimension
 62
2
  6
CONTINUOUS
  2
*D2
 10
4.9466653749
 20
5.2317925653
 11
4.0608386033
 21
5.1567925653
 70
160
 42
45.0
  3
DIMSTYLE_1
100
AcDbAlignedDimension
 13
3.1750118316
 23
7.3234683339
 14
4.9466653749
 24
7.3165208889
100
AcDbRotatedDimension
  0
DIMENSION
  5
454
100
AcDbEntity
  8
SCHEME_DIMS
100
AcDbDimension
 62
2
  6
CONTINUOUS
  2
*D3
 10
4.8535596488
 20
3.9461875902
 11
5.7655673547
 21
4.0885394084
 70
163
 42
50.0
  1
<>
  3
DIMSTYLE_2
100
AcDbDiametricDimension
 15
3.2681175578
 25
2.7794052086
  0
DIMENSION
  5
455
100
AcDbEntity
  8
SCHEME_DIMS
100
AcDbDimension
 62
2
  6
CONTINUOUS
  2
*D4
 10
5.5450905718
 20
9.3511732906
 11
5.5450905718
 21
8.8216457147
 70
160
 42
26.9000008589
  3
DIMSTYLE_1
100
AcDbAlignedDimension
 13
5.1075905718
 23
8.2921181387
 14
5.0863306663
 24
9.3511732906
 50
90.0
100
AcDbRotatedDimension
  0
LINE
  5
456
100
AcDbEntity
  8
0
100
AcDbLine
 62
2
  6
CONTINUOUS
 10
16.38
 20
0.887
 11
12.03
 21
0.887
  0
LINE
  5
457
100
AcDbEntity
  8
0
100
AcDbLine
 62
2
  6
CONTINUOUS
 10
16.38
 20
0.887
 11
16.38
 21
2.807
  0
LINE
  5
458
100
AcDbEntity
  8
0
100
AcDbLine
 62
2
  6
CONTINUOUS
 10
16.38
 20
2.807
 11
12.03
 21
2.807
  0
LINE
  5
459
100
AcDbEntity
  8
0
100
AcDbLine
 62
2
  6
CONTINUOUS
 10
12.03
 20
0.887
 11
12.03
 21
2.807
  0
TEXT
  5
45A
100
AcDbEntity
  8
0
100
AcDbText
 62
7
  6
CONTINUOUS
 10
16.105
 20
1.267
  7
STANDARD
 40
0.1
  1
A
 41
1.0
 72
1
 11
16.155
 21
1.267
100
AcDbText
  0
MTEXT
  5
45B
100
AcDbEntity
  8
0
100
AcDbMText
 62
7
  6
CONTINUOUS
  7
STANDARD
 71
2
 72
1
 10
14.205
 20
1.967
 30
0.0
 11
1.0
 21
0.0
 31
0.0
  1
TL50 1-STACK CABLE\PWEB CAD DRAWINGS 2D/3D
 40
0.1
 41
2.2
  0
TEXT
  5
45C
100
AcDbEntity
  8
NOTES
100
AcDbText
 62
2
  6
CONTINUOUS
 10
1.4393200733
 20
6.3978789869
  7
STANDARD
 40
0.1
  1
M30 X 1.5-6g
 41
1.0
 72
0
100
AcDbText
  0
LINE
  5
45D
100
AcDbEntity
  8
NOTES
100
AcDbLine
 62
2
  6
CONTINUOUS
 10
3.5190474432
 20
6.696652795
 11
2.8893200733
 21
6.4478789869
  0
LINE
  5
45E
100
AcDbEntity
  8
NOTES
100
AcDbLine
 62
2
  6
CONTINUOUS
 10
2.8893200733
 20
6.4478789869
 11
2.6393200733
 21
6.4478789869
  0
SOLID
  5
45F
100
AcDbEntity
  8
NOTES
100
AcDbTrace
 62
2
  6
CONTINUOUS
 10
3.3561438261
 20
6.5986975806
 11
3.5190474432
 21
6.696652795
 12
3.3331801683
 22
6.6568260626
 13
3.3331801683
 23
6.6568260626
  0
MTEXT
  5
460
100
AcDbEntity
  8
NOTES
100
AcDbMText
 62
2
  6
CONTINUOUS
  7
STANDARD
 71
2
 72
1
 10
12.9699334184
 20
3.8468990109
 30
0.0
 11
1.0
 21
0.0
 31
0.0
  1
ISOMETRIC VIEW\P\H0.1;SCALE  1:1
 40
0.125
 41
1.75
  0
TEXT
  5
461
100
AcDbEntity
  8
NOTES
100
AcDbText
 62
2
  6
CONTINUOUS
 10
1.3443190328
 20
4.0385869595
  7
STANDARD
 40
0.1
  1
1/2-14 NPSM
 41
1.0
 72
0
100
AcDbText
  0
LINE
  5
462
100
AcDbEntity
  8
NOTES
100
AcDbLine
 62
2
  6
CONTINUOUS
 10
3.7013954468
 20
3.4858442801
 11
2.6943190328
 21
4.0885869595
  0
LINE
  5
463
100
AcDbEntity
  8
NOTES
100
AcDbLine
 62
2
  6
CONTINUOUS
 10
2.6943190328
 20
4.0885869595
 11
2.4443190328
 21
4.0885869595
  0
SOLID
  5
464
100
AcDbEntity
  8
NOTES
100
AcDbTrace
 62
2
  6
CONTINUOUS
 10
3.5244611226
 20
3.5553213081
 11
3.7013954468
 21
3.4858442801
 12
3.5565582303
 22
3.6089498982
 13
3.5565582303
 23
3.6089498982
  0
LINE
  5
465
100
AcDbEntity
  8
0
100
AcDbLine
 62
2
  6
CONTINUOUS
 10
0.47
 20
5.586103
 11
0.47
 21
5.412897
  0
LINE
  5
466
100
AcDbEntity
  8
0
100
AcDbLine
 62
2
  6
CONTINUOUS
 10
0.62
 20
10.112
 11
0.62
 21
0.887
  0
LINE
  5
467
100
AcDbEntity
  8
0
100
AcDbLine
 62
2
  6
CONTINUOUS
 10
2.59
 20
0.887
 11
2.59
 21
0.637
  0
LINE
  5
468
100
AcDbEntity
  8
0
100
AcDbLine
 62
2
  6
CONTINUOUS
 10
2.59
 20
10.112
 11
2.59
 21
10.362
  0
LINE
  5
469
100
AcDbEntity
  8
0
100
AcDbLine
 62
2
  6
CONTINUOUS
 10
8.413397
 20
0.737
 11
8.586603
 21
0.737
  0
LINE
  5
46A
100
AcDbEntity
  8
0
100
AcDbLine
 62
7
  6
CONTINUOUS
 10
11.1389508475
 20
1.425992839
 11
11.7453418475
 21
1.495385839
  0
LINE
  5
46B
100
AcDbEntity
  8
0
100
AcDbLine
 62
2
  6
CONTINUOUS
 10
0.62
 20
0.887
 11
16.38
 21
0.887
  0
LINE
  5
46C
100
AcDbEntity
  8
0
100
AcDbLine
 62
2
  6
CONTINUOUS
 10
12.03
 20
1.137
 11
16.38
 21
1.137
  0
LINE
  5
46D
100
AcDbEntity
  8
0
100
AcDbLine
 62
7
  6
CONTINUOUS
 10
10.2121898475
 20
1.243294839
 11
10.4342808475
 21
1.243294839
  0
LINE
  5
46E
100
AcDbEntity
  8
0
100
AcDbLine
 62
7
  6
CONTINUOUS
 10
10.4842808475
 20
1.243294839
 11
10.5842808475
 21
1.243294839
  0
LINE
  5
46F
100
AcDbEntity
  8
0
100
AcDbLine
 62
7
  6
CONTINUOUS
 10
10.6342808475
 20
1.243294839
 11
10.8563718475
 21
1.243294839
  0
LINE
  5
470
100
AcDbEntity
  8
0
100
AcDbLine
 62
7
  6
CONTINUOUS
 10
11.0389508475
 20
1.243294839
 11
11.3171028475
 21
1.243294839
  0
LINE
  5
471
100
AcDbEntity
  8
0
100
AcDbLine
 62
7
  6
CONTINUOUS
 10
11.3671028475
 20
1.243294839
 11
11.5171888475
 21
1.243294839
  0
LINE
  5
472
100
AcDbEntity
  8
0
100
AcDbLine
 62
7
  6
CONTINUOUS
 10
11.5671888475
 20
1.243294839
 11
11.8453418475
 21
1.243294839
  0
LINE
  5
473
100
AcDbEntity
  8
0
100
AcDbLine
 62
7
  6
CONTINUOUS
 10
11.7453418475
 20
0.991203839
 11
11.1389508475
 21
1.060596839
  0
LINE
  5
474
100
AcDbEntity
  8
0
100
AcDbLine
 62
2
  6
CONTINUOUS
 10
4.56
 20
0.887
 11
4.56
 21
0.637
  0
LINE
  5
475
100
AcDbEntity
  8
0
100
AcDbLine
 62
2
  6
CONTINUOUS
 10
4.56
 20
10.112
 11
4.56
 21
10.362
  0
LINE
  5
476
100
AcDbEntity
  8
0
100
AcDbLine
 62
2
  6
CONTINUOUS
 10
0.47
 20
5.412897
 11
0.62
 21
5.4995
  0
LINE
  5
477
100
AcDbEntity
  8
0
100
AcDbLine
 62
2
  6
CONTINUOUS
 10
12.03
 20
1.507
 11
16.38
 21
1.507
  0
LINE
  5
478
100
AcDbEntity
  8
0
100
AcDbLine
 62
2
  6
CONTINUOUS
 10
10.03
 20
1.907
 11
12.03
 21
1.907
  0
LINE
  5
479
100
AcDbEntity
  8
0
100
AcDbLine
 62
2
  6
CONTINUOUS
 10
0.62
 20
5.4995
 11
0.47
 21
5.586103
  0
LINE
  5
47A
100
AcDbEntity
  8
0
100
AcDbLine
 62
2
  6
CONTINUOUS
 10
12.03
 20
2.267
 11
16.38
 21
2.267
  0
LINE
  5
47B
100
AcDbEntity
  8
0
100
AcDbLine
 62
2
  6
CONTINUOUS
 10
8.5
 20
10.112
 11
8.586603
 21
10.262
  0
LINE
  5
47C
100
AcDbEntity
  8
0
100
AcDbLine
 62
2
  6
CONTINUOUS
 10
16.38
 20
2.807
 11
10.03
 21
2.807
  0
LINE
  5
47D
100
AcDbEntity
  8
0
100
AcDbLine
 62
2
  6
CONTINUOUS
 10
0.62
 20
3.1995
 11
0.37
 21
3.1995
  0
LINE
  5
47E
100
AcDbEntity
  8
0
100
AcDbLine
 62
2
  6
CONTINUOUS
 10
16.38
 20
3.1995
 11
16.63
 21
3.1995
  0
LINE
  5
47F
100
AcDbEntity
  8
0
100
AcDbLine
 62
2
  6
CONTINUOUS
 10
8.586603
 20
0.737
 11
8.5
 21
0.887
  0
LINE
  5
480
100
AcDbEntity
  8
0
100
AcDbLine
 62
2
  6
CONTINUOUS
 10
6.53
 20
0.887
 11
6.53
 21
0.637
  0
LINE
  5
481
100
AcDbEntity
  8
0
100
AcDbLine
 62
2
  6
CONTINUOUS
 10
6.53
 20
10.112
 11
6.53
 21
10.362
  0
LINE
  5
482
100
AcDbEntity
  8
0
100
AcDbLine
 62
2
  6
CONTINUOUS
 10
8.5
 20
0.887
 11
8.5
 21
0.637
  0
LINE
  5
483
100
AcDbEntity
  8
0
100
AcDbLine
 62
2
  6
CONTINUOUS
 10
8.5
 20
10.112
 11
8.5
 21
10.362
  0
LINE
  5
484
100
AcDbEntity
  8
0
100
AcDbLine
 62
2
  6
CONTINUOUS
 10
0.62
 20
5.4995
 11
0.37
 21
5.4995
  0
LINE
  5
485
100
AcDbEntity
  8
0
100
AcDbLine
 62
2
  6
CONTINUOUS
 10
16.38
 20
5.4995
 11
16.63
 21
5.4995
  0
LINE
  5
486
100
AcDbEntity
  8
0
100
AcDbLine
 62
2
  6
CONTINUOUS
 10
10.03
 20
2.807
 11
10.03
 21
0.887
  0
LINE
  5
487
100
AcDbEntity
  8
0
100
AcDbLine
 62
2
  6
CONTINUOUS
 10
10.47
 20
0.887
 11
10.47
 21
0.637
  0
LINE
  5
488
100
AcDbEntity
  8
0
100
AcDbLine
 62
2
  6
CONTINUOUS
 10
10.47
 20
10.112
 11
10.47
 21
10.362
  0
LINE
  5
489
100
AcDbEntity
  8
0
100
AcDbLine
 62
7
  6
CONTINUOUS
 10
10.5342808475
 20
1.143294839
 11
10.5342808475
 21
0.921203839
  0
LINE
  5
48A
100
AcDbEntity
  8
0
100
AcDbLine
 62
7
  6
CONTINUOUS
 10
10.5342808475
 20
1.193294839
 11
10.5342808475
 21
1.293294839
  0
LINE
  5
48B
100
AcDbEntity
  8
0
100
AcDbLine
 62
7
  6
CONTINUOUS
 10
10.5342808475
 20
1.343294839
 11
10.5342808475
 21
1.565385839
  0
LINE
  5
48C
100
AcDbEntity
  8
0
100
AcDbLine
 62
2
  6
CONTINUOUS
 10
8.5
 20
0.887
 11
8.413397
 21
0.737
  0
LINE
  5
48D
100
AcDbEntity
  8
0
100
AcDbLine
 62
2
  6
CONTINUOUS
 10
0.62
 20
7.7995
 11
0.37
 21
7.7995
  0
LINE
  5
48E
100
AcDbEntity
  8
0
100
AcDbLine
 62
2
  6
CONTINUOUS
 10
16.38
 20
7.7995
 11
16.63
 21
7.7995
  0
LINE
  5
48F
100
AcDbEntity
  8
0
100
AcDbLine
 62
2
  6
CONTINUOUS
 10
8.413397
 20
10.262
 11
8.5
 21
10.112
  0
LINE
  5
490
100
AcDbEntity
  8
0
100
AcDbLine
 62
7
  6
CONTINUOUS
 10
11.1389508475
 20
1.060596839
 11
11.1389508475
 21
1.425992839
  0
LINE
  5
491
100
AcDbEntity
  8
0
100
AcDbLine
 62
7
  6
CONTINUOUS
 10
11.7453418475
 20
1.495385839
 11
11.7453418475
 21
0.991203839
  0
LINE
  5
492
100
AcDbEntity
  8
0
100
AcDbLine
 62
1
  6
CONTINUOUS
 10
12.03
 20
2.807
 11
12.03
 21
0.887
  0
LINE
  5
493
100
AcDbEntity
  8
0
100
AcDbLine
 62
2
  6
CONTINUOUS
 10
12.44
 20
0.887
 11
12.44
 21
0.637
  0
LINE
  5
494
100
AcDbEntity
  8
0
100
AcDbLine
 62
2
  6
CONTINUOUS
 10
12.44
 20
10.112
 11
12.44
 21
10.362
  0
LINE
  5
495
100
AcDbEntity
  8
0
100
AcDbLine
 62
2
  6
CONTINUOUS
 10
16.53
 20
5.586103
 11
16.38
 21
5.4995
  0
LINE
  5
496
100
AcDbEntity
  8
0
100
AcDbLine
 62
2
  6
CONTINUOUS
 10
16.38
 20
5.4995
 11
16.53
 21
5.412897
  0
LINE
  5
497
100
AcDbEntity
  8
0
100
AcDbLine
 62
2
  6
CONTINUOUS
 10
12.83
 20
1.507
 11
12.83
 21
1.137
  0
LINE
  5
498
100
AcDbEntity
  8
0
100
AcDbLine
 62
2
  6
CONTINUOUS
 10
16.38
 20
10.112
 11
0.62
 21
10.112
  0
LINE
  5
499
100
AcDbEntity
  8
0
100
AcDbLine
 62
2
  6
CONTINUOUS
 10
8.586603
 20
10.262
 11
8.413397
 21
10.262
  0
LINE
  5
49A
100
AcDbEntity
  8
0
100
AcDbLine
 62
2
  6
CONTINUOUS
 10
14.205
 20
1.137
 11
14.205
 21
0.887
  0
LINE
  5
49B
100
AcDbEntity
  8
0
100
AcDbLine
 62
2
  6
CONTINUOUS
 10
14.41
 20
0.887
 11
14.41
 21
0.637
  0
LINE
  5
49C
100
AcDbEntity
  8
0
100
AcDbLine
 62
2
  6
CONTINUOUS
 10
14.41
 20
10.112
 11
14.41
 21
10.362
  0
LINE
  5
49D
100
AcDbEntity
  8
0
100
AcDbLine
 62
2
  6
CONTINUOUS
 10
15.58
 20
1.507
 11
15.58
 21
1.137
  0
LINE
  5
49E
100
AcDbEntity
  8
0
100
AcDbLine
 62
2
  6
CONTINUOUS
 10
16.38
 20
0.887
 11
16.38
 21
10.112
  0
LINE
  5
49F
100
AcDbEntity
  8
0
100
AcDbLine
 62
2
  6
CONTINUOUS
 10
16.53
 20
5.412897
 11
16.53
 21
5.586103
  0
LINE
  5
4A0
100
AcDbEntity
  8
02___PRT_ALL_AXES
100
AcDbLine
 62
7
  6
CONTINUOUS
 10
3.9533386033
 20
5.4889685324
 11
4.1683386033
 21
5.4889685324
  0
LINE
  5
4A1
100
AcDbEntity
  8
0
100
AcDbLine
 62
7
  6
CONTINUOUS
 10
3.4744501881
 20
6.6336388682
 11
3.5098977535
 21
6.6131648211
  0
LINE
  5
4A2
100
AcDbEntity
  8
0
100
AcDbLine
 62
7
  6
CONTINUOUS
 10
3.4744501881
 20
6.6926939863
 11
3.5098977535
 21
6.6722199392
  0
LINE
  5
4A3
100
AcDbEntity
  8
02___PRT_ALL_AXES
100
AcDbLine
 62
7
  6
CONTINUOUS
 10
3.4744501881
 20
6.6336388682
 11
3.47422443
 21
6.6338996348
  0
LINE
  5
4A4
100
AcDbEntity
  8
02___PRT_ALL_AXES
100
AcDbLine
 62
7
  6
CONTINUOUS
 10
3.0765866348
 20
8.2921181387
 11
3.0765866348
 21
7.9810945167
  0
LINE
  5
4A5
100
AcDbEntity
  8
AXIS
100
AcDbLine
 62
7
  6
CONTINUOUS
 10
3.0765866348
 20
8.2921181387
 11
3.0765866348
 21
9.3511732568
  0
LINE
  5
4A6
100
AcDbEntity
  8
0
100
AcDbLine
 62
7
  6
CONTINUOUS
 10
3.0765866348
 20
9.3511732568
 11
3.0812836311
 21
9.6202639975
  0
LWPOLYLINE
  5
4A7
100
AcDbEntity
  8
02___PRT_ALL_AXES
100
AcDbPolyline
 62
7
  6
CONTINUOUS
 90
5
 70
0
 10
4.2868225123
 20
6.652380325
 10
4.2571744526
 20
6.6457148836
 10
4.2261165391
 20
6.6395511542
 10
4.1948940245
 20
6.6342457467
 10
4.1645359827
 20
6.629985003
  0
LWPOLYLINE
  5
4A8
100
AcDbEntity
  8
02___PRT_ALL_AXES
100
AcDbPolyline
 62
7
  6
CONTINUOUS
 90
4
 70
0
 10
4.2868225123
 20
6.7114354431
 10
4.2458468116
 20
6.7024224206
 10
4.2050662292
 20
6.6949284828
 10
4.1645359827
 20
6.6890401211
  0
LWPOLYLINE
  5
4A9
100
AcDbEntity
  8
02___PRT_ALL_AXES
100
AcDbPolyline
 62
7
  6
CONTINUOUS
 90
9
 70
0
 10
4.2868225123
 20
6.652380325
 10
4.3685403398
 20
6.6538532408
 10
4.4427169495
 20
6.6553261567
 10
4.5075344056
 20
6.6567990725
 10
4.5614041486
 20
6.6582719884
 10
4.6030059276
 20
6.6597449042
 10
4.6313201576
 20
6.6612178201
 10
4.6456529076
 20
6.6626907359
 10
4.6472270185
 20
6.6631664273
  0
LWPOLYLINE
  5
4AA
100
AcDbEntity
  8
02___PRT_ALL_AXES
100
AcDbPolyline
 62
7
  6
CONTINUOUS
 90
9
 70
0
 10
4.2868225123
 20
6.6597622148
 10
4.3685403398
 20
6.6612351306
 10
4.4427169495
 20
6.6627080465
 10
4.5075344056
 20
6.6641809623
 10
4.5614041486
 20
6.6656538781
 10
4.6030059276
 20
6.667126794
 10
4.6313201576
 20
6.6685997098
 10
4.6456529076
 20
6.6700726257
 10
4.6474527765
 20
6.6708090836
  0
LWPOLYLINE
  5
4AB
100
AcDbEntity
  8
02___PRT_ALL_AXES
100
AcDbPolyline
 62
7
  6
CONTINUOUS
 90
10
 70
0
 10
4.1645359827
 20
6.629985003
 10
4.2503107233
 20
6.6315043349
 10
4.3314741908
 20
6.6330301052
 10
4.4050709723
 20
6.6345460376
 10
4.470298908
 20
6.6360763897
 10
4.525132955
 20
6.6376205657
 10
4.5672877296
 20
6.6391571676
 10
4.5956382617
 20
6.6406726779
 10
4.6101952736
 20
6.6422049576
 10
4.611779453
 20
6.6426923801
  0
LWPOLYLINE
  5
4AC
100
AcDbEntity
  8
02___PRT_ALL_AXES
100
AcDbPolyline
 62
7
  6
CONTINUOUS
 90
10
 70
0
 10
3.9571412238
 20
6.6747237154
 10
3.8699074859
 20
6.6731778759
 10
3.7881292142
 20
6.6716379701
 10
3.7146309489
 20
6.6701194727
 10
3.6502172782
 20
6.6686027022
 10
3.5965737994
 20
6.6670890876
 10
3.5548643646
 20
6.6655720196
 10
3.526337525
 20
6.6640569872
 10
3.5115655943
 20
6.6625211128
 10
3.5098977535
 20
6.6620163382
  0
LINE
  5
4AD
100
AcDbEntity
  8
0
100
AcDbLine
 62
7
  6
CONTINUOUS
 10
4.5726496269
 20
6.5440866427
 11
3.5490275796
 21
6.5440866427
  0
LINE
  5
4AE
100
AcDbEntity
  8
0
100
AcDbLine
 62
9
  6
CONTINUOUS
 10
3.5096575009
 20
6.5834567214
 11
4.6120197056
 21
6.5834567214
  0
LWPOLYLINE
  5
4AF
100
AcDbEntity
  8
02___PRT_ALL_AXES
100
AcDbPolyline
 62
7
  6
CONTINUOUS
 90
4
 70
0
 10
3.9571412238
 20
6.6264272396
 10
3.9166117733
 20
6.6309786934
 10
3.875827993
 20
6.6371772912
 10
3.8348546942
 20
6.6449465036
  0
LWPOLYLINE
  5
4B0
100
AcDbEntity
  8
02___PRT_ALL_AXES
100
AcDbPolyline
 62
7
  6
CONTINUOUS
 90
4
 70
0
 10
3.9571412238
 20
6.6854823578
 10
3.9166117733
 20
6.6900338115
 10
3.875827993
 20
6.6962324093
 10
3.8348546942
 20
6.7040016217
  0
LINE
  5
4B1
100
AcDbEntity
  8
0
100
AcDbLine
 62
7
  6
CONTINUOUS
 10
3.4744501881
 20
6.7517491044
 11
3.5098977535
 21
6.7312750573
  0
LINE
  5
4B2
100
AcDbEntity
  8
0
100
AcDbLine
 62
7
  6
CONTINUOUS
 10
3.4744501881
 20
6.8108042225
 11
3.5098977535
 21
6.7903301754
  0
LINE
  5
4B3
100
AcDbEntity
  8
0
100
AcDbLine
 62
7
  6
CONTINUOUS
 10
3.4744501881
 20
6.8698593406
 11
3.5098977535
 21
6.8493852935
  0
LINE
  5
4B4
100
AcDbEntity
  8
02___PRT_ALL_AXES
100
AcDbLine
 62
7
  6
CONTINUOUS
 10
3.4744501881
 20
6.6926939863
 11
3.47422443
 21
6.6929547529
  0
LINE
  5
4B5
100
AcDbEntity
  8
02___PRT_ALL_AXES
100
AcDbLine
 62
7
  6
CONTINUOUS
 10
3.4744501881
 20
6.7517491044
 11
3.47422443
 21
6.752009871
  0
LINE
  5
4B6
100
AcDbEntity
  8
02___PRT_ALL_AXES
100
AcDbLine
 62
7
  6
CONTINUOUS
 10
3.4744501881
 20
6.8108042225
 11
3.47422443
 21
6.8110649891
  0
LINE
  5
4B7
100
AcDbEntity
  8
02___PRT_ALL_AXES
100
AcDbLine
 62
7
  6
CONTINUOUS
 10
3.4744501881
 20
6.8698593406
 11
3.47422443
 21
6.8701201072
  0
LINE
  5
4B8
100
AcDbEntity
  8
02___PRT_ALL_AXES
100
AcDbLine
 62
7
  6
CONTINUOUS
 10
3.1750118316
 20
7.8826693198
 11
3.1750118316
 21
7.4495984537
  0
LWPOLYLINE
  5
4B9
100
AcDbEntity
  8
02___PRT_ALL_AXES
100
AcDbPolyline
 62
7
  6
CONTINUOUS
 90
4
 70
0
 10
3.8348546942
 20
6.6523283934
 10
3.8758237412
 20
6.6613400701
 10
3.9166037479
 20
6.6688341619
 10
3.9571412238
 20
6.6747237154
  0
LWPOLYLINE
  5
4BA
100
AcDbEntity
  8
02___PRT_ALL_AXES
100
AcDbPolyline
 62
7
  6
CONTINUOUS
 90
4
 70
0
 10
4.2868225123
 20
6.7704905612
 10
4.2458468117
 20
6.7614775387
 10
4.2050662292
 20
6.7539836009
 10
4.1645359827
 20
6.7480952392
  0
LWPOLYLINE
  5
4BB
100
AcDbEntity
  8
02___PRT_ALL_AXES
100
AcDbPolyline
 62
7
  6
CONTINUOUS
 90
4
 70
0
 10
3.8348546942
 20
6.7113835115
 10
3.8758237412
 20
6.7203951882
 10
3.9166037479
 20
6.72788928
 10
3.9571412238
 20
6.7337788335
  0
LWPOLYLINE
  5
4BC
100
AcDbEntity
  8
02___PRT_ALL_AXES
100
AcDbPolyline
 62
7
  6
CONTINUOUS
 90
4
 70
0
 10
4.2868225123
 20
6.8295456793
 10
4.2458468116
 20
6.8205326569
 10
4.2050662292
 20
6.813038719
 10
4.1645359827
 20
6.8071503573
  0
LWPOLYLINE
  5
4BD
100
AcDbEntity
  8
02___PRT_ALL_AXES
100
AcDbPolyline
 62
7
  6
CONTINUOUS
 90
4
 70
0
 10
3.8348546942
 20
6.7704386296
 10
3.8758321272
 20
6.7794520025
 10
3.9166112862
 20
6.7869456408
 10
3.9571412238
 20
6.7928339516
  0
LWPOLYLINE
  5
4BE
100
AcDbEntity
  8
02___PRT_ALL_AXES
100
AcDbPolyline
 62
7
  6
CONTINUOUS
 90
7
 70
0
 10
3.5835017665
 20
6.7955289559
 10
3.6273090275
 20
6.7968636116
 10
3.6801217402
 20
6.7982048325
 10
3.7402739902
 20
6.799537673
 10
3.8072829422
 20
6.8008786026
 10
3.8802537164
 20
6.8022341486
 10
3.9571412238
 20
6.803592594
  0
LWPOLYLINE
  5
4BF
100
AcDbEntity
  8
02___PRT_ALL_AXES
100
AcDbPolyline
 62
7
  6
CONTINUOUS
 90
5
 70
0
 10
3.552815827
 20
6.815986249
 10
3.6071227985
 20
6.8175176512
 10
3.6734481552
 20
6.8190490534
 10
3.7500350184
 20
6.8205804557
 10
3.8348546942
 20
6.8221118579
  0
LWPOLYLINE
  5
4C0
100
AcDbEntity
  8
02___PRT_ALL_AXES
100
AcDbPolyline
 62
7
  6
CONTINUOUS
 90
5
 70
0
 10
3.552815827
 20
6.8233681387
 10
3.6071227985
 20
6.824899541
 10
3.6734481552
 20
6.8264309432
 10
3.7500350184
 20
6.8279623455
 10
3.8348546942
 20
6.8294937477
  0
LWPOLYLINE
  5
4C1
100
AcDbEntity
  8
02___PRT_ALL_AXES
100
AcDbPolyline
 62
7
  6
CONTINUOUS
 90
7
 70
0
 10
4.4064748675
 20
6.8117420848
 10
4.4713736511
 20
6.8132691654
 10
4.5256776812
 20
6.8148031811
 10
4.5673165599
 20
6.816323768
 10
4.5956096129
 20
6.8178360143
 10
4.6102024263
 20
6.8193718137
 10
4.611779453
 20
6.8198577345
  0
LWPOLYLINE
  5
4C2
100
AcDbEntity
  8
02___PRT_ALL_AXES
100
AcDbPolyline
 62
7
  6
CONTINUOUS
 90
5
 70
0
 10
4.4708688445
 20
6.743442514
 10
4.4055153097
 20
6.7419073372
 10
4.3320928754
 20
6.7403938139
 10
4.2511432875
 20
6.7388710517
 10
4.1645359827
 20
6.7373365968
  0
LWPOLYLINE
  5
4C3
100
AcDbEntity
  8
02___PRT_ALL_AXES
100
AcDbPolyline
 62
7
  6
CONTINUOUS
 90
3
 70
0
 10
3.678960257
 20
6.7084376798
 10
3.7531368667
 20
6.7099105956
 10
3.8348546942
 20
6.7113835115
  0
LWPOLYLINE
  5
4C4
100
AcDbEntity
  8
02___PRT_ALL_AXES
100
AcDbPolyline
 62
7
  6
CONTINUOUS
 90
9
 70
0
 10
4.2868225123
 20
6.7114354431
 10
4.3685403398
 20
6.712908359
 10
4.4427169495
 20
6.7143812748
 10
4.5075344056
 20
6.7158541906
 10
4.5614041486
 20
6.7173271065
 10
4.6030059276
 20
6.7188000223
 10
4.6313201576
 20
6.7202729382
 10
4.6456529076
 20
6.721745854
 10
4.6472270185
 20
6.7222215454
  0
LWPOLYLINE
  5
4C5
100
AcDbEntity
  8
02___PRT_ALL_AXES
100
AcDbPolyline
 62
7
  6
CONTINUOUS
 90
9
 70
0
 10
4.2868225123
 20
6.7188173329
 10
4.3685403398
 20
6.7202902487
 10
4.4427169495
 20
6.7217631646
 10
4.5075344056
 20
6.7232360804
 10
4.5614041486
 20
6.7247089963
 10
4.6030059276
 20
6.7261819121
 10
4.6313201576
 20
6.7276548279
 10
4.6456529076
 20
6.7291277438
 10
4.6474527765
 20
6.7298642017
  0
LWPOLYLINE
  5
4C6
100
AcDbEntity
  8
02___PRT_ALL_AXES
100
AcDbPolyline
 62
7
  6
CONTINUOUS
 90
9
 70
0
 10
4.2868225123
 20
6.7704905612
 10
4.3685403398
 20
6.7719634771
 10
4.4427169495
 20
6.7734363929
 10
4.5075344056
 20
6.7749093088
 10
4.5614041486
 20
6.7763822246
 10
4.6030059276
 20
6.7778551404
 10
4.6313201576
 20
6.7793280563
 10
4.6456529076
 20
6.7808009721
 10
4.6472270185
 20
6.7812766635
  0
LWPOLYLINE
  5
4C7
100
AcDbEntity
  8
02___PRT_ALL_AXES
100
AcDbPolyline
 62
7
  6
CONTINUOUS
 90
9
 70
0
 10
4.2868225123
 20
6.777872451
 10
4.3685403398
 20
6.7793453668
 10
4.4427169495
 20
6.7808182827
 10
4.5075344056
 20
6.7822911985
 10
4.5614041486
 20
6.7837641144
 10
4.6030059276
 20
6.7852370302
 10
4.6313201576
 20
6.7867099461
 10
4.6456529076
 20
6.7881828619
 10
4.6474527765
 20
6.7889193198
  0
LWPOLYLINE
  5
4C8
100
AcDbEntity
  8
02___PRT_ALL_AXES
100
AcDbPolyline
 62
7
  6
CONTINUOUS
 90
9
 70
0
 10
4.2868225123
 20
6.8295456793
 10
4.3685403398
 20
6.8310185952
 10
4.4427169495
 20
6.832491511
 10
4.5075344056
 20
6.8339644269
 10
4.5614041486
 20
6.8354373427
 10
4.6030059276
 20
6.8369102586
 10
4.6313201576
 20
6.8383831744
 10
4.6456529076
 20
6.8398560902
 10
4.6472270185
 20
6.8403317816
  0
LWPOLYLINE
  5
4C9
100
AcDbEntity
  8
02___PRT_ALL_AXES
100
AcDbPolyline
 62
7
  6
CONTINUOUS
 90
9
 70
0
 10
4.2868225123
 20
6.8369275691
 10
4.3685403398
 20
6.8384004849
 10
4.4427169495
 20
6.8398734008
 10
4.5075344056
 20
6.8413463166
 10
4.5614041486
 20
6.8428192325
 10
4.6030059276
 20
6.8442921483
 10
4.6313201576
 20
6.8457650642
 10
4.6456529076
 20
6.84723798
 10
4.6474527765
 20
6.8479744379
  0
LWPOLYLINE
  5
4CA
100
AcDbEntity
  8
02___PRT_ALL_AXES
100
AcDbPolyline
 62
7
  6
CONTINUOUS
 90
10
 70
0
 10
4.1645359827
 20
6.6890401211
 10
4.2511432875
 20
6.690574576
 10
4.3320928754
 20
6.6920973381
 10
4.4055153097
 20
6.6936108614
 10
4.4708688445
 20
6.6951460382
 10
4.5257247874
 20
6.6966944399
 10
4.5678114913
 20
6.6982349822
 10
4.5959998524
 20
6.6997534166
 10
4.610265391
 20
6.701274927
 10
4.611779453
 20
6.7017474982
  0
LWPOLYLINE
  5
4CB
100
AcDbEntity
  8
02___PRT_ALL_AXES
100
AcDbPolyline
 62
7
  6
CONTINUOUS
 90
10
 70
0
 10
3.9571412238
 20
6.7337788335
 10
3.8700226261
 20
6.7322350869
 10
3.7883908351
 20
6.730698221
 10
3.7149168678
 20
6.729180855
 10
3.649831069
 20
6.727647942
 10
3.5952417618
 20
6.7261019149
 10
3.5534091615
 20
6.7245640829
 10
3.5254247379
 20
6.7230474695
 10
3.5113096676
 20
6.7215218512
 10
3.5098977535
 20
6.7210714563
  0
LWPOLYLINE
  5
4CC
100
AcDbEntity
  8
02___PRT_ALL_AXES
100
AcDbPolyline
 62
7
  6
CONTINUOUS
 90
10
 70
0
 10
4.1645359827
 20
6.7480952392
 10
4.2517114065
 20
6.7496400187
 10
4.3334462263
 20
6.7511789878
 10
4.406885201
 20
6.7526959529
 10
4.4711058667
 20
6.7542072066
 10
4.5249274923
 20
6.7557243041
 10
4.5668329446
 20
6.7572477994
 10
4.5953519925
 20
6.7587628274
 10
4.6101105691
 20
6.7602976279
 10
4.611779453
 20
6.7608026164
  0
LWPOLYLINE
  5
4CD
100
AcDbEntity
  8
02___PRT_ALL_AXES
100
AcDbPolyline
 62
7
  6
CONTINUOUS
 90
10
 70
0
 10
3.9571412238
 20
6.7928339516
 10
3.8717107793
 20
6.791320871
 10
3.7908844432
 20
6.7898021826
 10
3.7172310505
 20
6.7882865514
 10
3.6518604023
 20
6.7867548367
 10
3.5968889926
 20
6.7852092874
 10
3.5546104605
 20
6.7836713248
 10
3.5261857432
 20
6.7821565985
 10
3.5116148411
 20
6.7806413859
 10
3.5098977535
 20
6.7801265745
  0
LWPOLYLINE
  5
4CE
100
AcDbEntity
  8
02___PRT_ALL_AXES
100
AcDbPolyline
 62
7
  6
CONTINUOUS
 90
4
 70
0
 10
4.1645359827
 20
6.8071503573
 10
4.2513155175
 20
6.8086879417
 10
4.3329047048
 20
6.8102234846
 10
4.4064748675
 20
6.8117420848
  0
LWPOLYLINE
  5
4CF
100
AcDbEntity
  8
02___PRT_ALL_AXES
100
AcDbPolyline
 62
7
  6
CONTINUOUS
 90
4
 70
0
 10
3.9571412238
 20
6.7445374759
 10
3.9166217987
 20
6.749087602
 10
3.875839002
 20
6.755285643
 10
3.8348546942
 20
6.7630567398
  0
LWPOLYLINE
  5
4D0
100
AcDbEntity
  8
02___PRT_ALL_AXES
100
AcDbPolyline
 62
7
  6
CONTINUOUS
 90
4
 70
0
 10
4.1645359827
 20
6.7373365968
 10
4.2050729964
 20
6.7327841415
 10
4.2458561322
 20
6.726585361
 10
4.2868225123
 20
6.7188173329
  0
LWPOLYLINE
  5
4D1
100
AcDbEntity
  8
02___PRT_ALL_AXES
100
AcDbPolyline
 62
7
  6
CONTINUOUS
 90
4
 70
0
 10
3.9571412238
 20
6.803592594
 10
3.9166117733
 20
6.8081440477
 10
3.875827993
 20
6.8143426455
 10
3.8348546942
 20
6.8221118579
  0
LWPOLYLINE
  5
4D2
100
AcDbEntity
  8
02___PRT_ALL_AXES
100
AcDbPolyline
 62
7
  6
CONTINUOUS
 90
4
 70
0
 10
4.1645359827
 20
6.7963917149
 10
4.2050729964
 20
6.7918392596
 10
4.2458561322
 20
6.7856404792
 10
4.2868225123
 20
6.777872451
  0
LWPOLYLINE
  5
4D3
100
AcDbEntity
  8
02___PRT_ALL_AXES
100
AcDbPolyline
 62
7
  6
CONTINUOUS
 90
4
 70
0
 10
4.1645359827
 20
6.6782814787
 10
4.2053423273
 20
6.6736933199
 10
4.2468859561
 20
6.6673534749
 10
4.2868225123
 20
6.6597622148
  0
LINE
  5
4D4
100
AcDbEntity
  8
0
100
AcDbLine
 62
7
  6
CONTINUOUS
 10
3.4744501881
 20
6.9289144588
 11
3.5098977535
 21
6.9084404116
  0
LINE
  5
4D5
100
AcDbEntity
  8
0
100
AcDbLine
 62
7
  6
CONTINUOUS
 10
3.4744501881
 20
6.9879695769
 11
3.5098977535
 21
6.9674955297
  0
LINE
  5
4D6
100
AcDbEntity
  8
0
100
AcDbLine
 62
7
  6
CONTINUOUS
 10
3.4744501881
 20
7.047024695
 11
3.5098977535
 21
7.0265506479
  0
LINE
  5
4D7
100
AcDbEntity
  8
02___PRT_ALL_AXES
100
AcDbLine
 62
7
  6
CONTINUOUS
 10
3.4744501881
 20
6.9289144588
 11
3.47422443
 21
6.9291752253
  0
LINE
  5
4D8
100
AcDbEntity
  8
02___PRT_ALL_AXES
100
AcDbLine
 62
7
  6
CONTINUOUS
 10
3.4744501881
 20
6.9879695769
 11
3.47422443
 21
6.9882303434
  0
LINE
  5
4D9
100
AcDbEntity
  8
02___PRT_ALL_AXES
100
AcDbLine
 62
7
  6
CONTINUOUS
 10
3.4744501881
 20
7.047024695
 11
3.47422443
 21
7.0472854615
  0
LINE
  5
4DA
100
AcDbEntity
  8
02___PRT_ALL_AXES
100
AcDbLine
 62
7
  6
CONTINUOUS
 10
3.4744501881
 20
7.1060798131
 11
3.47422443
 21
7.1063405797
  0
LWPOLYLINE
  5
4DB
100
AcDbEntity
  8
02___PRT_ALL_AXES
100
AcDbPolyline
 62
7
  6
CONTINUOUS
 90
5
 70
0
 10
4.2868225123
 20
6.8886007974
 10
4.2574959823
 20
6.8820036275
 10
4.2268158993
 20
6.8759008631
 10
4.1955770705
 20
6.8705724113
 10
4.1645359827
 20
6.8662054754
  0
LWPOLYLINE
  5
4DC
100
AcDbEntity
  8
02___PRT_ALL_AXES
100
AcDbPolyline
 62
7
  6
CONTINUOUS
 90
4
 70
0
 10
3.8348546942
 20
6.8294937477
 10
3.8758237412
 20
6.8385054244
 10
3.9166037479
 20
6.8459995162
 10
3.9571412238
 20
6.8518890697
  0
LWPOLYLINE
  5
4DD
100
AcDbEntity
  8
02___PRT_ALL_AXES
100
AcDbPolyline
 62
7
  6
CONTINUOUS
 90
4
 70
0
 10
4.2868225123
 20
6.9476559155
 10
4.2458468116
 20
6.9386428931
 10
4.2050662292
 20
6.9311489552
 10
4.1645359827
 20
6.9252605935
  0
LWPOLYLINE
  5
4DE
100
AcDbEntity
  8
02___PRT_ALL_AXES
100
AcDbPolyline
 62
7
  6
CONTINUOUS
 90
4
 70
0
 10
3.8348546942
 20
6.8885488658
 10
3.8758237412
 20
6.8975605425
 10
3.9166037479
 20
6.9050546343
 10
3.9571412238
 20
6.9109441879
  0
LWPOLYLINE
  5
4DF
100
AcDbEntity
  8
02___PRT_ALL_AXES
100
AcDbPolyline
 62
7
  6
CONTINUOUS
 90
4
 70
0
 10
4.2868225123
 20
7.0067110337
 10
4.2458468116
 20
6.9976980112
 10
4.2050662292
 20
6.9902040734
 10
4.1645359827
 20
6.9843157116
  0
LWPOLYLINE
  5
4E0
100
AcDbEntity
  8
02___PRT_ALL_AXES
100
AcDbPolyline
 62
7
  6
CONTINUOUS
 90
5
 70
0
 10
3.5835017665
 20
6.8438254317
 10
3.5462193675
 20
6.8423468001
 10
3.5215913258
 20
6.8408635672
 10
3.5103003444
 20
6.8393581557
 10
3.5098977535
 20
6.8391816926
  0
LWPOLYLINE
  5
4E1
100
AcDbEntity
  8
02___PRT_ALL_AXES
100
AcDbPolyline
 62
7
  6
CONTINUOUS
 90
5
 70
0
 10
4.53817544
 20
6.9923793496
 10
4.5754543582
 20
6.9938578155
 10
4.6000840476
 20
6.9953410632
 10
4.611376552
 20
6.9968465162
 10
4.611779453
 20
6.9970230888
  0
LWPOLYLINE
  5
4E2
100
AcDbEntity
  8
02___PRT_ALL_AXES
100
AcDbPolyline
 62
7
  6
CONTINUOUS
 90
5
 70
0
 10
4.5688613795
 20
7.0128366427
 10
4.6079350895
 20
7.0142882907
 10
4.6339840984
 20
7.0157399388
 10
4.6463882586
 20
7.0171915868
 10
4.6472270185
 20
7.0174971359
  0
LWPOLYLINE
  5
4E3
100
AcDbEntity
  8
02___PRT_ALL_AXES
100
AcDbPolyline
 62
7
  6
CONTINUOUS
 90
5
 70
0
 10
3.6516437577
 20
6.9156182028
 10
3.7170775913
 20
6.9171520827
 10
3.7907112605
 20
6.9186676736
 10
3.8712224387
 20
6.9201808824
 10
3.9571412238
 20
6.9217028302
  0
LWPOLYLINE
  5
4E4
100
AcDbEntity
  8
02___PRT_ALL_AXES
100
AcDbPolyline
 62
7
  6
CONTINUOUS
 90
9
 70
0
 10
4.2868225123
 20
6.8886007974
 10
4.3685403398
 20
6.8900737133
 10
4.4427169495
 20
6.8915466291
 10
4.5075344056
 20
6.893019545
 10
4.5614041486
 20
6.8944924608
 10
4.6030059276
 20
6.8959653767
 10
4.6313201576
 20
6.8974382925
 10
4.6456529076
 20
6.8989112084
 10
4.6472270185
 20
6.8993868997
  0
LWPOLYLINE
  5
4E5
100
AcDbEntity
  8
02___PRT_ALL_AXES
100
AcDbPolyline
 62
7
  6
CONTINUOUS
 90
9
 70
0
 10
4.2868225123
 20
6.8959826872
 10
4.3685403398
 20
6.897455603
 10
4.4427169495
 20
6.8989285189
 10
4.5075344056
 20
6.9004014347
 10
4.5614041486
 20
6.9018743506
 10
4.6030059276
 20
6.9033472664
 10
4.6313201576
 20
6.9048201823
 10
4.6456529076
 20
6.9062930981
 10
4.6474527765
 20
6.907029556
  0
LWPOLYLINE
  5
4E6
100
AcDbEntity
  8
02___PRT_ALL_AXES
100
AcDbPolyline
 62
7
  6
CONTINUOUS
 90
9
 70
0
 10
4.2868225123
 20
6.9476559155
 10
4.3685403398
 20
6.9491288314
 10
4.4427169495
 20
6.9506017472
 10
4.5075344056
 20
6.9520746631
 10
4.5614041486
 20
6.9535475789
 10
4.6030059276
 20
6.9550204948
 10
4.6313201576
 20
6.9564934106
 10
4.6456529076
 20
6.9579663265
 10
4.6472270185
 20
6.9584420178
  0
LWPOLYLINE
  5
4E7
100
AcDbEntity
  8
02___PRT_ALL_AXES
100
AcDbPolyline
 62
7
  6
CONTINUOUS
 90
9
 70
0
 10
4.2868225123
 20
6.9550378053
 10
4.3685403398
 20
6.9565107212
 10
4.4427169495
 20
6.957983637
 10
4.5075344056
 20
6.9594565528
 10
4.5614041486
 20
6.9609294687
 10
4.6030059276
 20
6.9624023845
 10
4.6313201576
 20
6.9638753004
 10
4.6456529076
 20
6.9653482162
 10
4.6474527765
 20
6.9660846741
  0
LWPOLYLINE
  5
4E8
100
AcDbEntity
  8
02___PRT_ALL_AXES
100
AcDbPolyline
 62
7
  6
CONTINUOUS
 90
7
 70
0
 10
3.9571412238
 20
6.8518890697
 10
3.8802537164
 20
6.8505306244
 10
3.8072829422
 20
6.8491750784
 10
3.7402739902
 20
6.8478341487
 10
3.6801217402
 20
6.8465013083
 10
3.6273090275
 20
6.8451600874
 10
3.5835017665
 20
6.8438254317
  0
LWPOLYLINE
  5
4E9
100
AcDbEntity
  8
02___PRT_ALL_AXES
100
AcDbPolyline
 62
7
  6
CONTINUOUS
 90
10
 70
0
 10
4.1645359827
 20
6.8662054754
 10
4.2504855513
 20
6.8677279822
 10
4.331000171
 20
6.8692413016
 10
4.4046281814
 20
6.8707568461
 10
4.4700599186
 20
6.8722907765
 10
4.5250488815
 20
6.8738383784
 10
4.5673049837
 20
6.8753783857
 10
4.595672459
 20
6.8768955614
 10
4.6101204802
 20
6.8784098991
 10
4.611779453
 20
6.8789128526
  0
LWPOLYLINE
  5
4EA
100
AcDbEntity
  8
02___PRT_ALL_AXES
100
AcDbPolyline
 62
7
  6
CONTINUOUS
 90
10
 70
0
 10
3.9571412238
 20
6.9109441879
 10
3.8699566933
 20
6.9093992428
 10
3.7882207877
 20
6.9078602393
 10
3.7147788181
 20
6.9063431853
 10
3.6504037037
 20
6.9048279388
 10
3.5961103787
 20
6.9032948808
 10
3.5541964339
 20
6.9017636728
 10
3.5259146494
 20
6.9002477376
 10
3.5114443213
 20
6.898716303
 10
3.5098977535
 20
6.8982368107
  0
LWPOLYLINE
  5
4EB
100
AcDbEntity
  8
02___PRT_ALL_AXES
100
AcDbPolyline
 62
7
  6
CONTINUOUS
 90
10
 70
0
 10
4.1645359827
 20
6.9252605935
 10
4.2517155235
 20
6.9268054479
 10
4.3334523031
 20
6.9283444613
 10
4.4068927341
 20
6.9298614722
 10
4.4712427139
 20
6.931376056
 10
4.5255186025
 20
6.9329083713
 10
4.5674378488
 20
6.9344392503
 10
4.5957350693
 20
6.9359551003
 10
4.6102244025
 20
6.9374866826
 10
4.611779453
 20
6.9379679707
  0
LWPOLYLINE
  5
4EC
100
AcDbEntity
  8
02___PRT_ALL_AXES
100
AcDbPolyline
 62
7
  6
CONTINUOUS
 90
10
 70
0
 10
3.9571412238
 20
6.969999306
 10
3.8712224387
 20
6.9684773582
 10
3.7907112605
 20
6.9669641493
 10
3.7170775913
 20
6.9654485585
 10
3.6516437577
 20
6.9639146786
 10
3.5966528172
 20
6.9623671775
 10
3.5543942858
 20
6.9608273491
 10
3.5260209636
 20
6.9593103636
 10
3.5115640817
 20
6.957796393
 10
3.5098977535
 20
6.9572919288
  0
LWPOLYLINE
  5
4ED
100
AcDbEntity
  8
02___PRT_ALL_AXES
100
AcDbPolyline
 62
7
  6
CONTINUOUS
 90
7
 70
0
 10
4.1645359827
 20
6.9843157116
 10
4.2414139
 20
6.9856739839
 10
4.3143782794
 20
6.987029396
 10
4.3813770289
 20
6.9883700837
 10
4.4415390602
 20
6.9897030862
 10
4.4943589505
 20
6.9910444392
 10
4.53817544
 20
6.9923793496
  0
LWPOLYLINE
  5
4EE
100
AcDbEntity
  8
02___PRT_ALL_AXES
100
AcDbPolyline
 62
7
  6
CONTINUOUS
 90
5
 70
0
 10
3.9571412238
 20
6.9217028302
 10
3.9261314003
 20
6.925038104
 10
3.8949053349
 20
6.9293567693
 10
3.8642153727
 20
6.934502321
 10
3.8348546942
 20
6.9402220942
  0
LWPOLYLINE
  5
4EF
100
AcDbEntity
  8
02___PRT_ALL_AXES
100
AcDbPolyline
 62
7
  6
CONTINUOUS
 90
5
 70
0
 10
4.1645359827
 20
6.9145019512
 10
4.1956068266
 20
6.9111591659
 10
4.2268599585
 20
6.906834502
 10
4.2575368253
 20
6.9016888269
 10
4.2868225123
 20
6.8959826872
  0
LWPOLYLINE
  5
4F0
100
AcDbEntity
  8
02___PRT_ALL_AXES
100
AcDbPolyline
 62
7
  6
CONTINUOUS
 90
4
 70
0
 10
3.9571412238
 20
6.8626477121
 10
3.9166117733
 20
6.8671991658
 10
3.875827993
 20
6.8733977636
 10
3.8348546942
 20
6.8811669761
  0
LWPOLYLINE
  5
4F1
100
AcDbEntity
  8
02___PRT_ALL_AXES
100
AcDbPolyline
 62
7
  6
CONTINUOUS
 90
4
 70
0
 10
4.1645359827
 20
6.8554468331
 10
4.2050729964
 20
6.8508943777
 10
4.2458561322
 20
6.8446955973
 10
4.2868225123
 20
6.8369275691
  0
LWPOLYLINE
  5
4F2
100
AcDbEntity
  8
02___PRT_ALL_AXES
100
AcDbPolyline
 62
7
  6
CONTINUOUS
 90
4
 70
0
 10
3.9571412238
 20
6.9807579483
 10
3.9166117733
 20
6.985309402
 10
3.875827993
 20
6.9915079998
 10
3.8348546942
 20
6.9992772123
  0
LWPOLYLINE
  5
4F3
100
AcDbEntity
  8
02___PRT_ALL_AXES
100
AcDbPolyline
 62
7
  6
CONTINUOUS
 90
4
 70
0
 10
4.1645359827
 20
6.9735570693
 10
4.2050729964
 20
6.969004614
 10
4.2458561322
 20
6.9628058335
 10
4.2868225123
 20
6.9550378053
  0
LINE
  5
4F4
100
AcDbEntity
  8
0
100
AcDbLine
 62
7
  6
CONTINUOUS
 10
3.4744501881
 20
7.1060798131
 11
3.5098977535
 21
7.085605766
  0
LINE
  5
4F5
100
AcDbEntity
  8
0
100
AcDbLine
 62
7
  6
CONTINUOUS
 10
3.4744501881
 20
7.1651349312
 11
3.5098977535
 21
7.1446608841
  0
LINE
  5
4F6
100
AcDbEntity
  8
02___PRT_ALL_AXES
100
AcDbLine
 62
7
  6
CONTINUOUS
 10
3.4744501881
 20
7.1651349312
 11
3.47422443
 21
7.1653956978
  0
LINE
  5
4F7
100
AcDbEntity
  8
0
100
AcDbLine
 62
7
  6
CONTINUOUS
 10
3.47422443
 20
7.1727775875
 11
3.47422443
 21
7.1653956978
  0
LINE
  5
4F8
100
AcDbEntity
  8
0
100
AcDbLine
 62
7
  6
CONTINUOUS
 10
3.47422443
 20
7.1137224694
 11
3.47422443
 21
7.1063405797
  0
LINE
  5
4F9
100
AcDbEntity
  8
0
100
AcDbLine
 62
7
  6
CONTINUOUS
 10
3.47422443
 20
7.0546673513
 11
3.47422443
 21
7.0472854615
  0
LINE
  5
4FA
100
AcDbEntity
  8
0
100
AcDbLine
 62
7
  6
CONTINUOUS
 10
3.47422443
 20
6.9956122332
 11
3.47422443
 21
6.9882303434
  0
LINE
  5
4FB
100
AcDbEntity
  8
0
100
AcDbLine
 62
7
  6
CONTINUOUS
 10
3.47422443
 20
6.9365571151
 11
3.47422443
 21
6.9291752253
  0
LINE
  5
4FC
100
AcDbEntity
  8
0
100
AcDbLine
 62
7
  6
CONTINUOUS
 10
3.47422443
 20
6.877501997
 11
3.47422443
 21
6.8701201072
  0
LINE
  5
4FD
100
AcDbEntity
  8
0
100
AcDbLine
 62
7
  6
CONTINUOUS
 10
3.47422443
 20
6.8184468789
 11
3.47422443
 21
6.8110649891
  0
LINE
  5
4FE
100
AcDbEntity
  8
0
100
AcDbLine
 62
7
  6
CONTINUOUS
 10
3.47422443
 20
6.7593917608
 11
3.47422443
 21
6.752009871
  0
LINE
  5
4FF
100
AcDbEntity
  8
0
100
AcDbLine
 62
7
  6
CONTINUOUS
 10
3.47422443
 20
6.7003366427
 11
3.47422443
 21
6.6929547529
  0
LINE
  5
500
100
AcDbEntity
  8
0
100
AcDbLine
 62
7
  6
CONTINUOUS
 10
3.47422443
 20
6.6412815245
 11
3.47422443
 21
6.6338996348
  0
LINE
  5
501
100
AcDbEntity
  8
02___PRT_ALL_AXES
100
AcDbLine
 62
7
  6
CONTINUOUS
 10
3.5096575009
 20
7.25274806
 11
3.5096575009
 21
7.1932348805
  0
LINE
  5
502
100
AcDbEntity
  8
02___PRT_ALL_AXES
100
AcDbLine
 62
7
  6
CONTINUOUS
 10
3.5096575009
 20
7.1449384048
 11
3.5096575009
 21
7.1341797624
  0
LINE
  5
503
100
AcDbEntity
  8
02___PRT_ALL_AXES
100
AcDbLine
 62
7
  6
CONTINUOUS
 10
3.5096575009
 20
7.0858832867
 11
3.5096575009
 21
7.0751246443
  0
LINE
  5
504
100
AcDbEntity
  8
02___PRT_ALL_AXES
100
AcDbLine
 62
7
  6
CONTINUOUS
 10
3.5096575009
 20
7.0268281685
 11
3.5096575009
 21
7.0160695262
  0
LINE
  5
505
100
AcDbEntity
  8
02___PRT_ALL_AXES
100
AcDbLine
 62
7
  6
CONTINUOUS
 10
3.5096575009
 20
6.9677730504
 11
3.5096575009
 21
6.9570144081
  0
LINE
  5
506
100
AcDbEntity
  8
02___PRT_ALL_AXES
100
AcDbLine
 62
7
  6
CONTINUOUS
 10
3.5096575009
 20
6.9087179323
 11
3.5096575009
 21
6.89795929
  0
LINE
  5
507
100
AcDbEntity
  8
02___PRT_ALL_AXES
100
AcDbLine
 62
7
  6
CONTINUOUS
 10
3.5096575009
 20
6.8496628142
 11
3.5096575009
 21
6.8389041719
  0
LINE
  5
508
100
AcDbEntity
  8
02___PRT_ALL_AXES
100
AcDbLine
 62
7
  6
CONTINUOUS
 10
3.5096575009
 20
6.7906076961
 11
3.5096575009
 21
6.7798490538
  0
LINE
  5
509
100
AcDbEntity
  8
02___PRT_ALL_AXES
100
AcDbLine
 62
7
  6
CONTINUOUS
 10
3.5096575009
 20
6.731552578
 11
3.5096575009
 21
6.7207939357
  0
LINE
  5
50A
100
AcDbEntity
  8
02___PRT_ALL_AXES
100
AcDbLine
 62
7
  6
CONTINUOUS
 10
3.5096575009
 20
6.6724974599
 11
3.5096575009
 21
6.6617388175
  0
LINE
  5
50B
100
AcDbEntity
  8
02___PRT_ALL_AXES
100
AcDbLine
 62
7
  6
CONTINUOUS
 10
3.5096575009
 20
6.6134423418
 11
3.5096575009
 21
6.5834567214
  0
LWPOLYLINE
  5
50C
100
AcDbEntity
  8
02___PRT_ALL_AXES
100
AcDbPolyline
 62
7
  6
CONTINUOUS
 90
5
 70
0
 10
3.8348546942
 20
6.9476039839
 10
3.8641111965
 20
6.9541862728
 10
3.8947735687
 20
6.9602876732
 10
3.92603485
 20
6.9656221966
 10
3.9571412238
 20
6.969999306
  0
LWPOLYLINE
  5
50D
100
AcDbEntity
  8
02___PRT_ALL_AXES
100
AcDbPolyline
 62
7
  6
CONTINUOUS
 90
4
 70
0
 10
4.2868225123
 20
7.0657661518
 10
4.2458362095
 20
7.056750985
 10
4.2050566539
 20
7.049257613
 10
4.1645359827
 20
7.0433708297
  0
LWPOLYLINE
  5
50E
100
AcDbEntity
  8
02___PRT_ALL_AXES
100
AcDbPolyline
 62
7
  6
CONTINUOUS
 90
4
 70
0
 10
3.8348546942
 20
7.006659102
 10
3.8758237412
 20
7.0156707787
 10
3.9166037479
 20
7.0231648706
 10
3.9571412238
 20
7.0290544241
  0
LWPOLYLINE
  5
50F
100
AcDbEntity
  8
02___PRT_ALL_AXES
100
AcDbPolyline
 62
7
  6
CONTINUOUS
 90
4
 70
0
 10
4.2868225123
 20
7.1248212699
 10
4.2458468116
 20
7.1158082474
 10
4.2050662292
 20
7.1083143096
 10
4.1645359827
 20
7.1024259478
  0
LWPOLYLINE
  5
510
100
AcDbEntity
  8
02___PRT_ALL_AXES
100
AcDbPolyline
 62
7
  6
CONTINUOUS
 90
4
 70
0
 10
3.8348546942
 20
7.0657142201
 10
3.8758237412
 20
7.0747258968
 10
3.9166037479
 20
7.0822199887
 10
3.9571412238
 20
7.0881095422
  0
LWPOLYLINE
  5
511
100
AcDbEntity
  8
02___PRT_ALL_AXES
100
AcDbPolyline
 62
7
  6
CONTINUOUS
 90
4
 70
0
 10
4.2868225123
 20
7.183876388
 10
4.2458468116
 20
7.1748633655
 10
4.2050662292
 20
7.1673694277
 10
4.1645359827
 20
7.1614810659
  0
LWPOLYLINE
  5
512
100
AcDbEntity
  8
02___PRT_ALL_AXES
100
AcDbPolyline
 62
7
  6
CONTINUOUS
 90
5
 70
0
 10
4.5688613795
 20
7.0202185324
 10
4.6079350895
 20
7.0216701805
 10
4.6339840984
 20
7.0231218285
 10
4.6463882586
 20
7.0245734766
 10
4.6474527765
 20
7.0251397923
  0
LWPOLYLINE
  5
513
100
AcDbEntity
  8
02___PRT_ALL_AXES
100
AcDbPolyline
 62
7
  6
CONTINUOUS
 90
7
 70
0
 10
4.53817544
 20
7.0406758254
 10
4.4943589505
 20
7.0393409149
 10
4.4415390602
 20
7.037999562
 10
4.3813770289
 20
7.0366665595
 10
4.3143782794
 20
7.0353258717
 10
4.2414139
 20
7.0339704597
 10
4.1645359827
 20
7.0326121874
  0
LWPOLYLINE
  5
514
100
AcDbEntity
  8
02___PRT_ALL_AXES
100
AcDbPolyline
 62
7
  6
CONTINUOUS
 90
4
 70
0
 10
3.6141428009
 20
7.112968701
 10
3.678960257
 20
7.1144416168
 10
3.7531368667
 20
7.1159145327
 10
3.8348546942
 20
7.1173874485
  0
LWPOLYLINE
  5
515
100
AcDbEntity
  8
02___PRT_ALL_AXES
100
AcDbPolyline
 62
7
  6
CONTINUOUS
 90
3
 70
0
 10
3.7896463117
 20
7.0958121815
 10
3.8705615196
 20
7.0973342311
 10
3.9571412238
 20
7.0988681845
  0
LWPOLYLINE
  5
516
100
AcDbEntity
  8
02___PRT_ALL_AXES
100
AcDbPolyline
 62
7
  6
CONTINUOUS
 90
3
 70
0
 10
4.3333370256
 20
7.1538040298
 10
4.2516722609
 20
7.1522664916
 10
4.1645359827
 20
7.1507224236
  0
LWPOLYLINE
  5
517
100
AcDbEntity
  8
02___PRT_ALL_AXES
100
AcDbPolyline
 62
7
  6
CONTINUOUS
 90
9
 70
0
 10
4.2499673532
 20
7.0448839272
 10
4.3307729777
 20
7.0464022118
 10
4.4044231744
 20
7.0479177288
 10
4.4697941288
 20
7.0494493679
 10
4.5247695321
 20
7.0509949039
 10
4.5670550482
 20
7.0525329523
 10
4.5954852883
 20
7.0540477497
 10
4.6100574559
 20
7.0555624018
 10
4.611779453
 20
7.0560782069
  0
LWPOLYLINE
  5
518
100
AcDbEntity
  8
02___PRT_ALL_AXES
100
AcDbPolyline
 62
7
  6
CONTINUOUS
 90
5
 70
0
 10
4.2868225123
 20
7.0067110337
 10
4.3716421882
 20
7.0082424359
 10
4.4482290513
 20
7.0097738382
 10
4.5145544081
 20
7.0113052404
 10
4.5688613795
 20
7.0128366427
  0
LWPOLYLINE
  5
519
100
AcDbEntity
  8
02___PRT_ALL_AXES
100
AcDbPolyline
 62
7
  6
CONTINUOUS
 90
5
 70
0
 10
4.2868225123
 20
7.0140929234
 10
4.3716421882
 20
7.0156243257
 10
4.4482290513
 20
7.0171557279
 10
4.5145544081
 20
7.0186871302
 10
4.5688613795
 20
7.0202185324
  0
LWPOLYLINE
  5
51A
100
AcDbEntity
  8
02___PRT_ALL_AXES
100
AcDbPolyline
 62
7
  6
CONTINUOUS
 90
9
 70
0
 10
4.2868225123
 20
7.0657661518
 10
4.3685403398
 20
7.0672390676
 10
4.4427169495
 20
7.0687119835
 10
4.5075344056
 20
7.0701848993
 10
4.5614041486
 20
7.0716578151
 10
4.6030059276
 20
7.073130731
 10
4.6313201576
 20
7.0746036468
 10
4.6456529076
 20
7.0760765627
 10
4.6472270185
 20
7.076552254
  0
LINE
  5
51B
100
AcDbEntity
  8
02___PRT_ALL_AXES
100
AcDbLine
 62
7
  6
CONTINUOUS
 10
3.7531368667
 20
7.0568594145
 11
3.8348546942
 21
7.0583323304
  0
LWPOLYLINE
  5
51C
100
AcDbEntity
  8
02___PRT_ALL_AXES
100
AcDbPolyline
 62
7
  6
CONTINUOUS
 90
9
 70
0
 10
4.2868225123
 20
7.0731480415
 10
4.3685403398
 20
7.0746209574
 10
4.4427169495
 20
7.0760938732
 10
4.5075344056
 20
7.0775667891
 10
4.5614041486
 20
7.0790397049
 10
4.6030059276
 20
7.0805126208
 10
4.6313201576
 20
7.0819855366
 10
4.6456529076
 20
7.0834584524
 10
4.6474527765
 20
7.0841949104
  0
LWPOLYLINE
  5
51D
100
AcDbEntity
  8
02___PRT_ALL_AXES
100
AcDbPolyline
 62
7
  6
CONTINUOUS
 90
9
 70
0
 10
4.2868225123
 20
7.1248212699
 10
4.3685403398
 20
7.1262941857
 10
4.4427169495
 20
7.1277671016
 10
4.5075344056
 20
7.1292400174
 10
4.5614041486
 20
7.1307129333
 10
4.6030059276
 20
7.1321858491
 10
4.6313201576
 20
7.1336587649
 10
4.6456529076
 20
7.1351316808
 10
4.6472270185
 20
7.1356073721
  0
LWPOLYLINE
  5
51E
100
AcDbEntity
  8
02___PRT_ALL_AXES
100
AcDbPolyline
 62
7
  6
CONTINUOUS
 90
9
 70
0
 10
4.2868225123
 20
7.1322031596
 10
4.3685403398
 20
7.1336760755
 10
4.4427169495
 20
7.1351489913
 10
4.5075344056
 20
7.1366219072
 10
4.5614041486
 20
7.138094823
 10
4.6030059276
 20
7.1395677389
 10
4.6313201576
 20
7.1410406547
 10
4.6456529076
 20
7.1425135706
 10
4.6474527765
 20
7.1432500285
  0
LWPOLYLINE
  5
51F
100
AcDbEntity
  8
02___PRT_ALL_AXES
100
AcDbPolyline
 62
7
  6
CONTINUOUS
 90
10
 70
0
 10
3.9571412238
 20
7.0290544241
 10
3.8703199804
 20
7.0275160817
 10
3.788716782
 20
7.0259802042
 10
3.7151495355
 20
7.0244615406
 10
3.6502643936
 20
7.0229346151
 10
3.5959846638
 20
7.0214011287
 10
3.5543677786
 20
7.0198813217
 10
3.5260696565
 20
7.0183689123
 10
3.5114748867
 20
7.0168329901
 10
3.5098977535
 20
7.0163470469
  0
LINE
  5
520
100
AcDbEntity
  8
02___PRT_ALL_AXES
100
AcDbLine
 62
7
  6
CONTINUOUS
 10
4.1645359827
 20
7.0433708297
 11
4.2499673532
 21
7.0448839272
  0
LWPOLYLINE
  5
521
100
AcDbEntity
  8
02___PRT_ALL_AXES
100
AcDbPolyline
 62
7
  6
CONTINUOUS
 90
10
 70
0
 10
3.9571412238
 20
7.0881095422
 10
3.8699694482
 20
7.086564829
 10
3.788242523
 20
7.0850260201
 10
3.7148103028
 20
7.0835092294
 10
3.6505971991
 20
7.0819982351
 10
3.5967536228
 20
7.0804806008
 10
3.5548419335
 20
7.0789568818
 10
3.5263238808
 20
7.0774418608
 10
3.5115662539
 20
7.0759070748
 10
3.5098977535
 20
7.075402165
  0
LWPOLYLINE
  5
522
100
AcDbEntity
  8
02___PRT_ALL_AXES
100
AcDbPolyline
 62
7
  6
CONTINUOUS
 90
10
 70
0
 10
4.1645359827
 20
7.1024259478
 10
4.2516722609
 20
7.1039700158
 10
4.3333370256
 20
7.105507554
 10
4.4068271838
 20
7.1070253905
 10
4.4718927878
 20
7.1085580334
 10
4.526466807
 20
7.1101038658
 10
4.568288131
 20
7.1116415758
 10
4.5962628862
 20
7.1131580601
 10
4.610371354
 20
7.1146837715
 10
4.611779453
 20
7.115133325
  0
LWPOLYLINE
  5
523
100
AcDbEntity
  8
02___PRT_ALL_AXES
100
AcDbPolyline
 62
7
  6
CONTINUOUS
 90
10
 70
0
 10
3.9571412238
 20
7.1471646603
 10
3.8705615196
 20
7.1456307069
 10
3.7896463117
 20
7.1441086573
 10
3.7162094508
 20
7.1425949591
 10
3.6508451515
 20
7.1410596818
 10
3.5959805156
 20
7.1395112332
 10
3.5538868896
 20
7.1379707192
 10
3.525690705
 20
7.1364523158
 10
3.5114174555
 20
7.1349310598
 10
3.5098977535
 20
7.1344572831
  0
LWPOLYLINE
  5
524
100
AcDbEntity
  8
02___PRT_ALL_AXES
100
AcDbPolyline
 62
7
  6
CONTINUOUS
 90
5
 70
0
 10
3.9571412238
 20
7.1579233026
 10
3.926809982
 20
7.1611752933
 10
3.8955941479
 20
7.165471851
 10
3.8645251301
 20
7.1706665336
 10
3.8348546942
 20
7.1764425666
  0
LWPOLYLINE
  5
525
100
AcDbEntity
  8
02___PRT_ALL_AXES
100
AcDbPolyline
 62
7
  6
CONTINUOUS
 90
4
 70
0
 10
3.9571412238
 20
7.0398130664
 10
3.9166117733
 20
7.0443645202
 10
3.875827993
 20
7.0505631179
 10
3.8348546942
 20
7.0583323304
  0
LWPOLYLINE
  5
526
100
AcDbEntity
  8
02___PRT_ALL_AXES
100
AcDbPolyline
 62
7
  6
CONTINUOUS
 90
4
 70
0
 10
4.1645359827
 20
7.0326121874
 10
4.2050729964
 20
7.0280597321
 10
4.2458561322
 20
7.0218609516
 10
4.2868225123
 20
7.0140929234
  0
LWPOLYLINE
  5
527
100
AcDbEntity
  8
02___PRT_ALL_AXES
100
AcDbPolyline
 62
7
  6
CONTINUOUS
 90
4
 70
0
 10
3.9571412238
 20
7.0988681845
 10
3.9166117733
 20
7.1034196383
 10
3.875827993
 20
7.1096182361
 10
3.8348546942
 20
7.1173874485
  0
LWPOLYLINE
  5
528
100
AcDbEntity
  8
02___PRT_ALL_AXES
100
AcDbPolyline
 62
7
  6
CONTINUOUS
 90
4
 70
0
 10
4.1645359827
 20
7.0916673055
 10
4.2050655655
 20
7.0871158342
 10
4.2458479139
 20
7.0809174764
 10
4.2868225123
 20
7.0731480415
  0
LINE
  5
529
100
AcDbEntity
  8
0
100
AcDbLine
 62
7
  6
CONTINUOUS
 10
4.6472270185
 20
6.6710698502
 11
4.611779453
 21
6.6915438973
  0
LINE
  5
52A
100
AcDbEntity
  8
0
100
AcDbLine
 62
7
  6
CONTINUOUS
 10
4.6472270185
 20
6.7301249683
 11
4.611779453
 21
6.7505990154
  0
LWPOLYLINE
  5
52B
100
AcDbEntity
  8
02___PRT_ALL_AXES
100
AcDbPolyline
 62
7
  6
CONTINUOUS
 90
4
 70
0
 10
3.8348546942
 20
7.1838244564
 10
3.8747479822
 20
7.1926180323
 10
3.9162951264
 20
7.2002793018
 10
3.9571412238
 20
7.2062197784
  0
LWPOLYLINE
  5
52C
100
AcDbEntity
  8
02___PRT_ALL_AXES
100
AcDbPolyline
 62
7
  6
CONTINUOUS
 90
4
 70
0
 10
3.8348546942
 20
7.1247693383
 10
3.8758237412
 20
7.133781015
 10
3.9166037479
 20
7.1412751068
 10
3.9571412238
 20
7.1471646603
  0
LWPOLYLINE
  5
52D
100
AcDbEntity
  8
02___PRT_ALL_AXES
100
AcDbPolyline
 62
7
  6
CONTINUOUS
 90
8
 70
0
 10
4.3685403398
 20
7.1927311936
 10
4.4427169495
 20
7.1942041094
 10
4.5075344056
 20
7.1956770253
 10
4.5614041486
 20
7.1971499411
 10
4.6030059276
 20
7.198622857
 10
4.6313201576
 20
7.2000957728
 10
4.6456529076
 20
7.2015686887
 10
4.6474527765
 20
7.2023051466
  0
LWPOLYLINE
  5
52E
100
AcDbEntity
  8
02___PRT_ALL_AXES
100
AcDbPolyline
 62
7
  6
CONTINUOUS
 90
9
 70
0
 10
4.2868225123
 20
7.183876388
 10
4.3685403398
 20
7.1853493038
 10
4.4427169495
 20
7.1868222197
 10
4.5075344056
 20
7.1882951355
 10
4.5614041486
 20
7.1897680514
 10
4.6030059276
 20
7.1912409672
 10
4.6313201576
 20
7.1927138831
 10
4.6456529076
 20
7.1941867989
 10
4.6472270185
 20
7.1946624903
  0
LINE
  5
52F
100
AcDbEntity
  8
02___PRT_ALL_AXES
100
AcDbLine
 62
7
  6
CONTINUOUS
 10
3.7531368667
 20
7.1749696508
 11
3.8348546942
 21
7.1764425666
  0
LINE
  5
530
100
AcDbEntity
  8
02___PRT_ALL_AXES
100
AcDbLine
 62
7
  6
CONTINUOUS
 10
4.2868225123
 20
7.1912582778
 11
4.3685403398
 21
7.1927311936
  0
LWPOLYLINE
  5
531
100
AcDbEntity
  8
02___PRT_ALL_AXES
100
AcDbPolyline
 62
7
  6
CONTINUOUS
 90
10
 70
0
 10
4.1645359827
 20
7.1614810659
 10
4.2517712325
 20
7.1630269329
 10
4.3335555424
 20
7.1645669595
 10
4.4070579793
 20
7.1660855655
 10
4.471481843
 20
7.1676026394
 10
4.5251281228
 20
7.1691164757
 10
4.5668242752
 20
7.1706332534
 10
4.5953458705
 20
7.1721482265
 10
4.6101137022
 20
7.1736840974
 10
4.611779453
 20
7.1741884431
  0
LWPOLYLINE
  5
532
100
AcDbEntity
  8
02___PRT_ALL_AXES
100
AcDbPolyline
 62
7
  6
CONTINUOUS
 90
10
 70
0
 10
3.9571412238
 20
7.2062197784
 10
3.8713322579
 20
7.204699825
 10
3.7901613319
 20
7.2031738602
 10
3.7165708166
 20
7.2016579705
 10
3.6513502731
 20
7.2001276778
 10
3.596525606
 20
7.1985836257
 10
3.5543804256
 20
7.1970472226
 10
3.5260295019
 20
7.1955314379
 10
3.5114747377
 20
7.1939983131
 10
3.5098977535
 20
7.1935124012
  0
LINE
  5
533
100
AcDbEntity
  8
0
100
AcDbLine
 62
9
  6
CONTINUOUS
 10
4.6120197056
 20
7.25274806
 11
3.5096575009
 21
7.25274806
  0
LINE
  5
534
100
AcDbEntity
  8
02___PRT_ALL_AXES
100
AcDbLine
 62
7
  6
CONTINUOUS
 10
4.78918506
 20
7.2921181387
 11
3.3324921466
 21
7.2921181387
  0
LWPOLYLINE
  5
535
100
AcDbEntity
  8
02___PRT_ALL_AXES
100
AcDbPolyline
 62
7
  6
CONTINUOUS
 90
4
 70
0
 10
4.1645359827
 20
7.1507224236
 10
4.2050729964
 20
7.1461699683
 10
4.2458561322
 20
7.1399711878
 10
4.2868225123
 20
7.1322031596
  0
LWPOLYLINE
  5
536
100
AcDbEntity
  8
02___PRT_ALL_AXES
100
AcDbPolyline
 62
7
  6
CONTINUOUS
 90
4
 70
0
 10
4.1645359827
 20
7.2097775417
 10
4.2050729964
 20
7.2052250864
 10
4.2458561322
 20
7.1990263059
 10
4.2868225123
 20
7.1912582778
  0
LINE
  5
537
100
AcDbEntity
  8
0
100
AcDbLine
 62
7
  6
CONTINUOUS
 10
4.6472270185
 20
6.7891800864
 11
4.611779453
 21
6.8096541335
  0
LINE
  5
538
100
AcDbEntity
  8
0
100
AcDbLine
 62
7
  6
CONTINUOUS
 10
4.6472270185
 20
6.8482352045
 11
4.611779453
 21
6.8687092516
  0
LINE
  5
539
100
AcDbEntity
  8
0
100
AcDbLine
 62
7
  6
CONTINUOUS
 10
4.6472270185
 20
6.9072903226
 11
4.611779453
 21
6.9277643697
  0
LINE
  5
53A
100
AcDbEntity
  8
02___PRT_ALL_AXES
100
AcDbLine
 62
7
  6
CONTINUOUS
 10
3.8348546942
 20
6.6449465036
 11
3.8348546942
 21
6.6523283934
  0
LINE
  5
53B
100
AcDbEntity
  8
02___PRT_ALL_AXES
100
AcDbLine
 62
7
  6
CONTINUOUS
 10
3.8348546942
 20
6.7040016217
 11
3.8348546942
 21
6.7113835115
  0
LINE
  5
53C
100
AcDbEntity
  8
02___PRT_ALL_AXES
100
AcDbLine
 62
7
  6
CONTINUOUS
 10
3.8348546942
 20
6.7630567398
 11
3.8348546942
 21
6.7704386296
  0
LINE
  5
53D
100
AcDbEntity
  8
02___PRT_ALL_AXES
100
AcDbLine
 62
7
  6
CONTINUOUS
 10
3.8348546942
 20
6.8221118579
 11
3.8348546942
 21
6.8294937477
  0
LINE
  5
53E
100
AcDbEntity
  8
02___PRT_ALL_AXES
100
AcDbLine
 62
7
  6
CONTINUOUS
 10
3.8348546942
 20
6.8811669761
 11
3.8348546942
 21
6.8885488658
  0
LINE
  5
53F
100
AcDbEntity
  8
02___PRT_ALL_AXES
100
AcDbLine
 62
7
  6
CONTINUOUS
 10
3.8348546942
 20
6.9402220942
 11
3.8348546942
 21
6.9476039839
  0
LINE
  5
540
100
AcDbEntity
  8
02___PRT_ALL_AXES
100
AcDbLine
 62
7
  6
CONTINUOUS
 10
3.8348546942
 20
6.9992772123
 11
3.8348546942
 21
7.006659102
  0
LINE
  5
541
100
AcDbEntity
  8
02___PRT_ALL_AXES
100
AcDbLine
 62
7
  6
CONTINUOUS
 10
3.8348546942
 20
7.0583323304
 11
3.8348546942
 21
7.0657142201
  0
LINE
  5
542
100
AcDbEntity
  8
02___PRT_ALL_AXES
100
AcDbLine
 62
7
  6
CONTINUOUS
 10
3.8348546942
 20
7.1173874485
 11
3.8348546942
 21
7.1247693383
  0
LINE
  5
543
100
AcDbEntity
  8
02___PRT_ALL_AXES
100
AcDbLine
 62
7
  6
CONTINUOUS
 10
3.8348546942
 20
7.1764425666
 11
3.8348546942
 21
7.1838244564
  0
LINE
  5
544
100
AcDbEntity
  8
02___PRT_ALL_AXES
100
AcDbLine
 62
7
  6
CONTINUOUS
 10
3.47422443
 20
7.1727775875
 11
3.4744501881
 21
7.1730383541
  0
LINE
  5
545
100
AcDbEntity
  8
02___PRT_ALL_AXES
100
AcDbLine
 62
9
  6
CONTINUOUS
 10
3.1750118316
 20
7.4495984537
 11
4.9466653749
 21
7.4495984537
  0
LINE
  5
546
100
AcDbEntity
  8
0
100
AcDbLine
 62
7
  6
CONTINUOUS
 10
4.6472270185
 20
6.9663454407
 11
4.611779453
 21
6.9868194878
  0
LINE
  5
547
100
AcDbEntity
  8
0
100
AcDbLine
 62
7
  6
CONTINUOUS
 10
4.6472270185
 20
7.0254005588
 11
4.611779453
 21
7.045874606
  0
LINE
  5
548
100
AcDbEntity
  8
0
100
AcDbLine
 62
7
  6
CONTINUOUS
 10
4.6472270185
 20
7.0844556769
 11
4.611779453
 21
7.1049297241
  0
LINE
  5
549
100
AcDbEntity
  8
02___PRT_ALL_AXES
100
AcDbLine
 62
7
  6
CONTINUOUS
 10
4.6474527765
 20
6.6708090836
 11
4.6472270185
 21
6.6710698502
  0
LWPOLYLINE
  5
54A
100
AcDbEntity
  8
0
100
AcDbPolyline
 62
7
  6
CONTINUOUS
 90
6
 70
0
 10
3.9571412238
 20
6.5834567214
 10
3.957325241
 20
6.5712596183
 10
3.9578602006
 20
6.560274864
 10
3.9586972109
 20
6.5515756046
 10
3.959759429
 20
6.5460030997
 10
3.9609479383
 20
6.5440866427
  0
LWPOLYLINE
  5
54B
100
AcDbEntity
  8
0
100
AcDbPolyline
 62
7
  6
CONTINUOUS
 90
6
 70
0
 10
3.9571412238
 20
7.25274806
 10
3.9569576433
 20
7.2649415743
 10
3.9564275769
 20
7.2759243966
 10
3.9556088504
 20
7.2846244611
 10
3.9545880422
 20
7.2901998409
 10
3.9534693895
 20
7.2921181387
  0
LINE
  5
54C
100
AcDbEntity
  8
02___PRT_ALL_AXES
100
AcDbLine
 62
7
  6
CONTINUOUS
 10
3.9533386033
 20
5.4889685324
 11
3.9533386033
 21
6.5440866427
  0
LINE
  5
54D
100
AcDbEntity
  8
0
100
AcDbLine
 62
7
  6
CONTINUOUS
 10
3.9571412238
 20
7.25274806
 11
3.9571412238
 21
7.2062197784
  0
LINE
  5
54E
100
AcDbEntity
  8
02___PRT_ALL_AXES
100
AcDbLine
 62
7
  6
CONTINUOUS
 10
3.9571412238
 20
7.1579233026
 11
3.9571412238
 21
7.1471646603
  0
LINE
  5
54F
100
AcDbEntity
  8
02___PRT_ALL_AXES
100
AcDbLine
 62
7
  6
CONTINUOUS
 10
3.9571412238
 20
7.0988681845
 11
3.9571412238
 21
7.0881095422
  0
LINE
  5
550
100
AcDbEntity
  8
02___PRT_ALL_AXES
100
AcDbLine
 62
7
  6
CONTINUOUS
 10
3.9571412238
 20
7.0398130664
 11
3.9571412238
 21
7.0290544241
  0
LINE
  5
551
100
AcDbEntity
  8
02___PRT_ALL_AXES
100
AcDbLine
 62
7
  6
CONTINUOUS
 10
3.9571412238
 20
6.9807579483
 11
3.9571412238
 21
6.969999306
  0
LINE
  5
552
100
AcDbEntity
  8
02___PRT_ALL_AXES
100
AcDbLine
 62
7
  6
CONTINUOUS
 10
3.9571412238
 20
6.9217028302
 11
3.9571412238
 21
6.9109441879
  0
LINE
  5
553
100
AcDbEntity
  8
02___PRT_ALL_AXES
100
AcDbLine
 62
7
  6
CONTINUOUS
 10
3.9571412238
 20
6.8626477121
 11
3.9571412238
 21
6.8518890697
  0
LINE
  5
554
100
AcDbEntity
  8
02___PRT_ALL_AXES
100
AcDbLine
 62
7
  6
CONTINUOUS
 10
3.9571412238
 20
6.803592594
 11
3.9571412238
 21
6.7928339516
  0
LINE
  5
555
100
AcDbEntity
  8
02___PRT_ALL_AXES
100
AcDbLine
 62
7
  6
CONTINUOUS
 10
3.9571412238
 20
6.7445374759
 11
3.9571412238
 21
6.7337788335
  0
LINE
  5
556
100
AcDbEntity
  8
02___PRT_ALL_AXES
100
AcDbLine
 62
7
  6
CONTINUOUS
 10
3.9571412238
 20
6.6854823578
 11
3.9571412238
 21
6.6747237154
  0
LINE
  5
557
100
AcDbEntity
  8
0
100
AcDbLine
 62
7
  6
CONTINUOUS
 10
3.9571412238
 20
6.6264272396
 11
3.9571412238
 21
6.5834567214
  0
LINE
  5
558
100
AcDbEntity
  8
02___PRT_ALL_AXES
100
AcDbLine
 62
7
  6
CONTINUOUS
 10
3.47422443
 20
7.1137224694
 11
3.4744501881
 21
7.113983236
  0
LINE
  5
559
100
AcDbEntity
  8
02___PRT_ALL_AXES
100
AcDbLine
 62
7
  6
CONTINUOUS
 10
3.47422443
 20
7.0546673513
 11
3.4744501881
 21
7.0549281179
  0
LINE
  5
55A
100
AcDbEntity
  8
02___PRT_ALL_AXES
100
AcDbLine
 62
7
  6
CONTINUOUS
 10
3.47422443
 20
6.9956122332
 11
3.4744501881
 21
6.9958729998
  0
LINE
  5
55B
100
AcDbEntity
  8
02___PRT_ALL_AXES
100
AcDbLine
 62
7
  6
CONTINUOUS
 10
3.47422443
 20
6.9365571151
 11
3.4744501881
 21
6.9368178817
  0
LINE
  5
55C
100
AcDbEntity
  8
0
100
AcDbLine
 62
7
  6
CONTINUOUS
 10
4.6472270185
 20
7.1435107951
 11
4.611779453
 21
7.1639848422
  0
LINE
  5
55D
100
AcDbEntity
  8
0
100
AcDbLine
 62
7
  6
CONTINUOUS
 10
4.6472270185
 20
7.2025659132
 11
4.611779453
 21
7.2230399603
  0
LINE
  5
55E
100
AcDbEntity
  8
02___PRT_ALL_AXES
100
AcDbLine
 62
7
  6
CONTINUOUS
 10
4.6474527765
 20
6.7298642017
 11
4.6472270185
 21
6.7301249683
  0
LINE
  5
55F
100
AcDbEntity
  8
02___PRT_ALL_AXES
100
AcDbLine
 62
7
  6
CONTINUOUS
 10
4.6474527765
 20
6.7889193198
 11
4.6472270185
 21
6.7891800864
  0
LINE
  5
560
100
AcDbEntity
  8
02___PRT_ALL_AXES
100
AcDbLine
 62
7
  6
CONTINUOUS
 10
4.6474527765
 20
6.8479744379
 11
4.6472270185
 21
6.8482352045
  0
LINE
  5
561
100
AcDbEntity
  8
02___PRT_ALL_AXES
100
AcDbLine
 62
7
  6
CONTINUOUS
 10
4.6474527765
 20
6.907029556
 11
4.6472270185
 21
6.9072903226
  0
LINE
  5
562
100
AcDbEntity
  8
0
100
AcDbLine
 62
7
  6
CONTINUOUS
 10
4.1645359827
 20
7.25274806
 11
4.1645359827
 21
7.2097775417
  0
LINE
  5
563
100
AcDbEntity
  8
02___PRT_ALL_AXES
100
AcDbLine
 62
7
  6
CONTINUOUS
 10
4.1645359827
 20
7.1614810659
 11
4.1645359827
 21
7.1507224236
  0
LINE
  5
564
100
AcDbEntity
  8
02___PRT_ALL_AXES
100
AcDbLine
 62
7
  6
CONTINUOUS
 10
4.1645359827
 20
7.1024259478
 11
4.1645359827
 21
7.0916673055
  0
LINE
  5
565
100
AcDbEntity
  8
02___PRT_ALL_AXES
100
AcDbLine
 62
7
  6
CONTINUOUS
 10
4.1645359827
 20
7.0433708297
 11
4.1645359827
 21
7.0326121874
  0
LINE
  5
566
100
AcDbEntity
  8
02___PRT_ALL_AXES
100
AcDbLine
 62
7
  6
CONTINUOUS
 10
4.1645359827
 20
6.9843157116
 11
4.1645359827
 21
6.9735570693
  0
LINE
  5
567
100
AcDbEntity
  8
02___PRT_ALL_AXES
100
AcDbLine
 62
7
  6
CONTINUOUS
 10
4.1645359827
 20
6.9252605935
 11
4.1645359827
 21
6.9145019512
  0
LINE
  5
568
100
AcDbEntity
  8
02___PRT_ALL_AXES
100
AcDbLine
 62
7
  6
CONTINUOUS
 10
4.1645359827
 20
6.8662054754
 11
4.1645359827
 21
6.8554468331
  0
LINE
  5
569
100
AcDbEntity
  8
02___PRT_ALL_AXES
100
AcDbLine
 62
7
  6
CONTINUOUS
 10
4.1645359827
 20
6.8071503573
 11
4.1645359827
 21
6.7963917149
  0
LINE
  5
56A
100
AcDbEntity
  8
02___PRT_ALL_AXES
100
AcDbLine
 62
7
  6
CONTINUOUS
 10
4.1645359827
 20
6.7480952392
 11
4.1645359827
 21
6.7373365968
  0
LINE
  5
56B
100
AcDbEntity
  8
02___PRT_ALL_AXES
100
AcDbLine
 62
7
  6
CONTINUOUS
 10
4.1645359827
 20
6.6890401211
 11
4.1645359827
 21
6.6782814787
  0
LINE
  5
56C
100
AcDbEntity
  8
0
100
AcDbLine
 62
7
  6
CONTINUOUS
 10
4.1645359827
 20
6.629985003
 11
4.1645359827
 21
6.5834567214
  0
LINE
  5
56D
100
AcDbEntity
  8
02___PRT_ALL_AXES
100
AcDbLine
 62
7
  6
CONTINUOUS
 10
4.1683386033
 20
5.4889685324
 11
4.1683386033
 21
6.5440866427
  0
LWPOLYLINE
  5
56E
100
AcDbEntity
  8
0
100
AcDbPolyline
 62
7
  6
CONTINUOUS
 90
6
 70
0
 10
4.1645359827
 20
7.25274806
 10
4.1647195632
 20
7.2649415743
 10
4.1652496297
 20
7.2759243966
 10
4.1660683561
 20
7.2846244611
 10
4.1670891643
 20
7.2901998409
 10
4.168207817
 20
7.2921181387
  0
LWPOLYLINE
  5
56F
100
AcDbEntity
  8
0
100
AcDbPolyline
 62
7
  6
CONTINUOUS
 90
6
 70
0
 10
4.1645359827
 20
6.5834567214
 10
4.1643519655
 20
6.5712596183
 10
4.163817006
 20
6.560274864
 10
4.1629799956
 20
6.5515756046
 10
4.1619177775
 20
6.5460030997
 10
4.1607292683
 20
6.5440866427
  0
LINE
  5
570
100
AcDbEntity
  8
02___PRT_ALL_AXES
100
AcDbLine
 62
7
  6
CONTINUOUS
 10
3.47422443
 20
6.877501997
 11
3.4744501881
 21
6.8777627636
  0
LINE
  5
571
100
AcDbEntity
  8
02___PRT_ALL_AXES
100
AcDbLine
 62
7
  6
CONTINUOUS
 10
3.47422443
 20
6.8184468789
 11
3.4744501881
 21
6.8187076454
  0
LINE
  5
572
100
AcDbEntity
  8
02___PRT_ALL_AXES
100
AcDbLine
 62
7
  6
CONTINUOUS
 10
3.47422443
 20
6.7593917608
 11
3.4744501881
 21
6.7596525273
  0
LINE
  5
573
100
AcDbEntity
  8
02___PRT_ALL_AXES
100
AcDbLine
 62
7
  6
CONTINUOUS
 10
3.47422443
 20
6.7003366427
 11
3.4744501881
 21
6.7005974092
  0
LINE
  5
574
100
AcDbEntity
  8
0
100
AcDbLine
 62
7
  6
CONTINUOUS
 10
3.5098977535
 20
7.1935124012
 11
3.4744501881
 21
7.1730383541
  0
LINE
  5
575
100
AcDbEntity
  8
0
100
AcDbLine
 62
7
  6
CONTINUOUS
 10
3.5098977535
 20
7.1344572831
 11
3.4744501881
 21
7.113983236
  0
LINE
  5
576
100
AcDbEntity
  8
0
100
AcDbLine
 62
7
  6
CONTINUOUS
 10
3.5098977535
 20
7.075402165
 11
3.4744501881
 21
7.0549281179
  0
LWPOLYLINE
  5
577
100
AcDbEntity
  8
02___PRT_ALL_AXES
100
AcDbPolyline
 62
7
  6
CONTINUOUS
 90
8
 70
0
 10
3.47422443
 20
7.1653956978
 10
3.4760242989
 20
7.1661321557
 10
3.4903570489
 20
7.1676050715
 10
3.5186712789
 20
7.1690779874
 10
3.5602730579
 20
7.1705509032
 10
3.6141428009
 20
7.1720238191
 10
3.678960257
 20
7.1734967349
 10
3.7531368667
 20
7.1749696508
  0
LINE
  5
578
100
AcDbEntity
  8
02___PRT_ALL_AXES
100
AcDbLine
 62
7
  6
CONTINUOUS
 10
4.6474527765
 20
6.9660846741
 11
4.6472270185
 21
6.9663454407
  0
LINE
  5
579
100
AcDbEntity
  8
02___PRT_ALL_AXES
100
AcDbLine
 62
7
  6
CONTINUOUS
 10
4.6474527765
 20
7.0251397923
 11
4.6472270185
 21
7.0254005588
  0
LINE
  5
57A
100
AcDbEntity
  8
02___PRT_ALL_AXES
100
AcDbLine
 62
7
  6
CONTINUOUS
 10
4.6474527765
 20
7.0841949104
 11
4.6472270185
 21
7.0844556769
  0
LINE
  5
57B
100
AcDbEntity
  8
02___PRT_ALL_AXES
100
AcDbLine
 62
7
  6
CONTINUOUS
 10
4.6474527765
 20
7.1432500285
 11
4.6472270185
 21
7.1435107951
  0
LINE
  5
57C
100
AcDbEntity
  8
02___PRT_ALL_AXES
100
AcDbLine
 62
7
  6
CONTINUOUS
 10
4.2868225123
 20
7.1912582778
 11
4.2868225123
 21
7.183876388
  0
LINE
  5
57D
100
AcDbEntity
  8
02___PRT_ALL_AXES
100
AcDbLine
 62
7
  6
CONTINUOUS
 10
4.2868225123
 20
7.1322031596
 11
4.2868225123
 21
7.1248212699
  0
LINE
  5
57E
100
AcDbEntity
  8
02___PRT_ALL_AXES
100
AcDbLine
 62
7
  6
CONTINUOUS
 10
4.2868225123
 20
7.0731480415
 11
4.2868225123
 21
7.0657661518
  0
LINE
  5
57F
100
AcDbEntity
  8
02___PRT_ALL_AXES
100
AcDbLine
 62
7
  6
CONTINUOUS
 10
4.2868225123
 20
7.0140929234
 11
4.2868225123
 21
7.0067110337
  0
LINE
  5
580
100
AcDbEntity
  8
02___PRT_ALL_AXES
100
AcDbLine
 62
7
  6
CONTINUOUS
 10
4.2868225123
 20
6.9550378053
 11
4.2868225123
 21
6.9476559155
  0
LINE
  5
581
100
AcDbEntity
  8
02___PRT_ALL_AXES
100
AcDbLine
 62
7
  6
CONTINUOUS
 10
4.2868225123
 20
6.8959826872
 11
4.2868225123
 21
6.8886007974
  0
LINE
  5
582
100
AcDbEntity
  8
02___PRT_ALL_AXES
100
AcDbLine
 62
7
  6
CONTINUOUS
 10
4.2868225123
 20
6.8369275691
 11
4.2868225123
 21
6.8295456793
  0
LINE
  5
583
100
AcDbEntity
  8
02___PRT_ALL_AXES
100
AcDbLine
 62
7
  6
CONTINUOUS
 10
4.2868225123
 20
6.777872451
 11
4.2868225123
 21
6.7704905612
  0
LINE
  5
584
100
AcDbEntity
  8
02___PRT_ALL_AXES
100
AcDbLine
 62
7
  6
CONTINUOUS
 10
4.2868225123
 20
6.7188173329
 11
4.2868225123
 21
6.7114354431
  0
LINE
  5
585
100
AcDbEntity
  8
02___PRT_ALL_AXES
100
AcDbLine
 62
7
  6
CONTINUOUS
 10
4.2868225123
 20
6.6597622148
 11
4.2868225123
 21
6.652380325
  0
LINE
  5
586
100
AcDbEntity
  8
02___PRT_ALL_AXES
100
AcDbLine
 62
7
  6
CONTINUOUS
 10
3.47422443
 20
6.6412815245
 11
3.4744501881
 21
6.6415422911
  0
LINE
  5
587
100
AcDbEntity
  8
0
100
AcDbLine
 62
7
  6
CONTINUOUS
 10
3.5098977535
 20
7.0163470469
 11
3.4744501881
 21
6.9958729998
  0
LINE
  5
588
100
AcDbEntity
  8
0
100
AcDbLine
 62
7
  6
CONTINUOUS
 10
3.5098977535
 20
6.9572919288
 11
3.4744501881
 21
6.9368178817
  0
LINE
  5
589
100
AcDbEntity
  8
0
100
AcDbLine
 62
7
  6
CONTINUOUS
 10
3.5098977535
 20
6.8982368107
 11
3.4744501881
 21
6.8777627636
  0
LWPOLYLINE
  5
58A
100
AcDbEntity
  8
02___PRT_ALL_AXES
100
AcDbPolyline
 62
7
  6
CONTINUOUS
 90
8
 70
0
 10
3.509657501
 20
7.0858830965
 10
3.5114174555
 20
7.086634584
 10
3.525690705
 20
7.08815584
 10
3.5538868896
 20
7.0896742434
 10
3.5959805156
 20
7.0912147575
 10
3.6508451515
 20
7.0927632061
 10
3.7162094508
 20
7.0942984833
 10
3.7896463117
 20
7.0958121815
  0
LWPOLYLINE
  5
58B
100
AcDbEntity
  8
02___PRT_ALL_AXES
100
AcDbPolyline
 62
7
  6
CONTINUOUS
 90
10
 70
0
 10
3.5096575009
 20
7.1449384425
 10
3.5114747377
 20
7.1457018373
 10
3.5260295019
 20
7.1472349622
 10
3.5543804256
 20
7.1487507468
 10
3.596525606
 20
7.1502871499
 10
3.6513502731
 20
7.151831202
 10
3.7165708166
 20
7.1533614947
 10
3.7901613319
 20
7.1548773844
 10
3.8713322579
 20
7.1564033492
 10
3.9571412238
 20
7.1579233026
  0
LWPOLYLINE
  5
58C
100
AcDbEntity
  8
02___PRT_ALL_AXES
100
AcDbPolyline
 62
7
  6
CONTINUOUS
 90
10
 70
0
 10
3.5096575009
 20
7.0268281624
 10
3.5115662539
 20
7.0276105991
 10
3.5263238808
 20
7.029145385
 10
3.5548419335
 20
7.0306604061
 10
3.5967536228
 20
7.032184125
 10
3.6505971991
 20
7.0337017593
 10
3.7148103028
 20
7.0352127536
 10
3.788242523
 20
7.0367295443
 10
3.8699694482
 20
7.0382683532
 10
3.9571412238
 20
7.0398130664
  0
LWPOLYLINE
  5
58D
100
AcDbEntity
  8
02___PRT_ALL_AXES
100
AcDbPolyline
 62
7
  6
CONTINUOUS
 90
6
 70
0
 10
3.47422443
 20
7.1063405797
 10
3.4760242989
 20
7.1070770376
 10
3.4903570489
 20
7.1085499534
 10
3.5186712789
 20
7.1100228693
 10
3.5602730579
 20
7.1114957851
 10
3.6141428009
 20
7.112968701
  0
LWPOLYLINE
  5
58E
100
AcDbEntity
  8
02___PRT_ALL_AXES
100
AcDbPolyline
 62
7
  6
CONTINUOUS
 90
8
 70
0
 10
3.47422443
 20
7.0472854615
 10
3.4760242989
 20
7.0480219195
 10
3.4903570489
 20
7.0494948353
 10
3.5186712789
 20
7.0509677512
 10
3.5602730579
 20
7.052440667
 10
3.6141428009
 20
7.0539135829
 10
3.678960257
 20
7.0553864987
 10
3.7531368667
 20
7.0568594145
  0
LWPOLYLINE
  5
58F
100
AcDbEntity
  8
02___PRT_ALL_AXES
100
AcDbPolyline
 62
7
  6
CONTINUOUS
 90
9
 70
0
 10
3.4744501881
 20
7.1730383541
 10
3.4760242989
 20
7.1735140455
 10
3.4903570489
 20
7.1749869613
 10
3.5186712789
 20
7.1764598771
 10
3.5602730579
 20
7.177932793
 10
3.6141428009
 20
7.1794057088
 10
3.678960257
 20
7.1808786247
 10
3.7531368667
 20
7.1823515405
 10
3.8348546942
 20
7.1838244564
  0
LWPOLYLINE
  5
590
100
AcDbEntity
  8
02___PRT_ALL_AXES
100
AcDbPolyline
 62
7
  6
CONTINUOUS
 90
9
 70
0
 10
3.4744501881
 20
7.113983236
 10
3.4760242989
 20
7.1144589273
 10
3.4903570489
 20
7.1159318432
 10
3.5186712789
 20
7.117404759
 10
3.5602730579
 20
7.1188776749
 10
3.6141428009
 20
7.1203505907
 10
3.678960257
 20
7.1218235066
 10
3.7531368667
 20
7.1232964224
 10
3.8348546942
 20
7.1247693383
  0
LINE
  5
591
100
AcDbEntity
  8
02___PRT_ALL_AXES
100
AcDbLine
 62
9
  6
CONTINUOUS
 10
3.1750118316
 20
7.8826693198
 11
4.9466653749
 21
7.8826693198
  0
LINE
  5
592
100
AcDbEntity
  8
02___PRT_ALL_AXES
100
AcDbLine
 62
7
  6
CONTINUOUS
 10
4.6474527765
 20
7.2023051466
 11
4.6472270185
 21
7.2025659132
  0
LWPOLYLINE
  5
593
100
AcDbEntity
  8
02___PRT_ALL_AXES
100
AcDbPolyline
 62
7
  6
CONTINUOUS
 90
5
 70
0
 10
3.5096575009
 20
6.7906076864
 10
3.5103003444
 20
6.7910616799
 10
3.5215913258
 20
6.7925670914
 10
3.5462193675
 20
6.7940503244
 10
3.5835017665
 20
6.7955289559
  0
LINE
  5
594
100
AcDbEntity
  8
0
100
AcDbLine
 62
7
  6
CONTINUOUS
 10
3.5098977535
 20
6.8391816926
 11
3.4744501881
 21
6.8187076454
  0
LINE
  5
595
100
AcDbEntity
  8
0
100
AcDbLine
 62
7
  6
CONTINUOUS
 10
3.5098977535
 20
6.7801265745
 11
3.4744501881
 21
6.7596525273
  0
LINE
  5
596
100
AcDbEntity
  8
0
100
AcDbLine
 62
7
  6
CONTINUOUS
 10
3.5098977535
 20
6.7210714563
 11
3.4744501881
 21
6.7005974092
  0
LWPOLYLINE
  5
597
100
AcDbEntity
  8
02___PRT_ALL_AXES
100
AcDbPolyline
 62
7
  6
CONTINUOUS
 90
5
 70
0
 10
3.47422443
 20
6.8110649891
 10
3.4752889479
 20
6.8116313048
 10
3.4876931081
 20
6.8130829528
 10
3.513742117
 20
6.8145346009
 10
3.552815827
 20
6.815986249
  0
LWPOLYLINE
  5
598
100
AcDbEntity
  8
02___PRT_ALL_AXES
100
AcDbPolyline
 62
7
  6
CONTINUOUS
 90
10
 70
0
 10
3.5096575018
 20
6.8496622841
 10
3.5114443213
 20
6.8504198273
 10
3.5259146494
 20
6.8519512619
 10
3.5541964339
 20
6.853467197
 10
3.5961103787
 20
6.854998405
 10
3.6504037037
 20
6.856531463
 10
3.7147788181
 20
6.8580467095
 10
3.7882207877
 20
6.8595637635
 10
3.8699566933
 20
6.861102767
 10
3.9571412238
 20
6.8626477121
  0
LWPOLYLINE
  5
599
100
AcDbEntity
  8
02___PRT_ALL_AXES
100
AcDbPolyline
 62
7
  6
CONTINUOUS
 90
10
 70
0
 10
3.5096575009
 20
6.9677730447
 10
3.5114748867
 20
6.9685365143
 10
3.5260696565
 20
6.9700724365
 10
3.5543677786
 20
6.9715848459
 10
3.5959846638
 20
6.9731046529
 10
3.6502643936
 20
6.9746381394
 10
3.7151495355
 20
6.9761650648
 10
3.788716782
 20
6.9776837284
 10
3.8703199804
 20
6.9792196059
 10
3.9571412238
 20
6.9807579483
  0
LWPOLYLINE
  5
59A
100
AcDbEntity
  8
02___PRT_ALL_AXES
100
AcDbPolyline
 62
7
  6
CONTINUOUS
 90
6
 70
0
 10
3.5096575021
 20
6.908718556
 10
3.5115640817
 20
6.9094999173
 10
3.5260209636
 20
6.9110138878
 10
3.5543942858
 20
6.9125308733
 10
3.5966528172
 20
6.9140707018
 10
3.6516437577
 20
6.9156182028
  0
LWPOLYLINE
  5
59B
100
AcDbEntity
  8
02___PRT_ALL_AXES
100
AcDbPolyline
 62
7
  6
CONTINUOUS
 90
9
 70
0
 10
3.47422443
 20
6.9882303434
 10
3.4760242989
 20
6.9889668014
 10
3.4903570489
 20
6.9904397172
 10
3.5186712789
 20
6.9919126331
 10
3.5602730579
 20
6.9933855489
 10
3.6141428009
 20
6.9948584647
 10
3.678960257
 20
6.9963313806
 10
3.7531368667
 20
6.9978042964
 10
3.8348546942
 20
6.9992772123
  0
LWPOLYLINE
  5
59C
100
AcDbEntity
  8
02___PRT_ALL_AXES
100
AcDbPolyline
 62
7
  6
CONTINUOUS
 90
9
 70
0
 10
3.47422443
 20
6.9291752253
 10
3.4760242989
 20
6.9299116833
 10
3.4903570489
 20
6.9313845991
 10
3.5186712789
 20
6.9328575149
 10
3.5602730579
 20
6.9343304308
 10
3.6141428009
 20
6.9358033466
 10
3.678960257
 20
6.9372762625
 10
3.7531368667
 20
6.9387491783
 10
3.8348546942
 20
6.9402220942
  0
LWPOLYLINE
  5
59D
100
AcDbEntity
  8
02___PRT_ALL_AXES
100
AcDbPolyline
 62
7
  6
CONTINUOUS
 90
9
 70
0
 10
3.47422443
 20
6.8701201072
 10
3.4760242989
 20
6.8708565651
 10
3.4903570489
 20
6.872329481
 10
3.5186712789
 20
6.8738023968
 10
3.5602730579
 20
6.8752753127
 10
3.6141428009
 20
6.8767482285
 10
3.678960257
 20
6.8782211444
 10
3.7531368667
 20
6.8796940602
 10
3.8348546942
 20
6.8811669761
  0
LWPOLYLINE
  5
59E
100
AcDbEntity
  8
02___PRT_ALL_AXES
100
AcDbPolyline
 62
7
  6
CONTINUOUS
 90
9
 70
0
 10
3.4744501881
 20
7.0549281179
 10
3.4760242989
 20
7.0554038092
 10
3.4903570489
 20
7.0568767251
 10
3.5186712789
 20
7.0583496409
 10
3.5602730579
 20
7.0598225568
 10
3.6141428009
 20
7.0612954726
 10
3.678960257
 20
7.0627683885
 10
3.7531368667
 20
7.0642413043
 10
3.8348546942
 20
7.0657142201
  0
LWPOLYLINE
  5
59F
100
AcDbEntity
  8
02___PRT_ALL_AXES
100
AcDbPolyline
 62
7
  6
CONTINUOUS
 90
9
 70
0
 10
3.4744501881
 20
6.9958729998
 10
3.4760242989
 20
6.9963486911
 10
3.4903570489
 20
6.997821607
 10
3.5186712789
 20
6.9992945228
 10
3.5602730579
 20
7.0007674387
 10
3.6141428009
 20
7.0022403545
 10
3.678960257
 20
7.0037132703
 10
3.7531368667
 20
7.0051861862
 10
3.8348546942
 20
7.006659102
  0
LWPOLYLINE
  5
5A0
100
AcDbEntity
  8
02___PRT_ALL_AXES
100
AcDbPolyline
 62
7
  6
CONTINUOUS
 90
9
 70
0
 10
3.4744501881
 20
6.9368178817
 10
3.4760242989
 20
6.937293573
 10
3.4903570489
 20
6.9387664889
 10
3.5186712789
 20
6.9402394047
 10
3.5602730579
 20
6.9417123205
 10
3.6141428009
 20
6.9431852364
 10
3.678960257
 20
6.9446581522
 10
3.7531368667
 20
6.9461310681
 10
3.8348546942
 20
6.9476039839
  0
LINE
  5
5A1
100
AcDbEntity
  8
02___PRT_ALL_AXES
100
AcDbLine
 62
7
  6
CONTINUOUS
 10
5.005720493
 20
7.9417244379
 11
3.1159567135
 21
7.9417244379
  0
LINE
  5
5A2
100
AcDbEntity
  8
02___PRT_ALL_AXES
100
AcDbLine
 62
9
  6
CONTINUOUS
 10
5.0450905718
 20
7.9810945167
 11
3.0765866348
 21
7.9810945167
  0
LINE
  5
5A3
100
AcDbEntity
  8
02___PRT_ALL_AXES
100
AcDbLine
 62
7
  6
CONTINUOUS
 10
4.6120197056
 20
7.25274806
 11
4.6120197056
 21
7.2227624396
  0
LINE
  5
5A4
100
AcDbEntity
  8
02___PRT_ALL_AXES
100
AcDbLine
 62
7
  6
CONTINUOUS
 10
4.6120197056
 20
7.1744659638
 11
4.6120197056
 21
7.1637073215
  0
LINE
  5
5A5
100
AcDbEntity
  8
02___PRT_ALL_AXES
100
AcDbLine
 62
7
  6
CONTINUOUS
 10
4.6120197056
 20
7.1154108457
 11
4.6120197056
 21
7.1046522034
  0
LINE
  5
5A6
100
AcDbEntity
  8
02___PRT_ALL_AXES
100
AcDbLine
 62
7
  6
CONTINUOUS
 10
4.6120197056
 20
7.0563557276
 11
4.6120197056
 21
7.0455970853
  0
LINE
  5
5A7
100
AcDbEntity
  8
02___PRT_ALL_AXES
100
AcDbLine
 62
7
  6
CONTINUOUS
 10
4.6120197056
 20
6.9973006095
 11
4.6120197056
 21
6.9865419672
  0
LINE
  5
5A8
100
AcDbEntity
  8
02___PRT_ALL_AXES
100
AcDbLine
 62
7
  6
CONTINUOUS
 10
4.6120197056
 20
6.9382454914
 11
4.6120197056
 21
6.927486849
  0
LINE
  5
5A9
100
AcDbEntity
  8
02___PRT_ALL_AXES
100
AcDbLine
 62
7
  6
CONTINUOUS
 10
4.6120197056
 20
6.8791903733
 11
4.6120197056
 21
6.8684317309
  0
LINE
  5
5AA
100
AcDbEntity
  8
02___PRT_ALL_AXES
100
AcDbLine
 62
7
  6
CONTINUOUS
 10
4.6120197056
 20
6.8201352552
 11
4.6120197056
 21
6.8093766128
  0
LINE
  5
5AB
100
AcDbEntity
  8
02___PRT_ALL_AXES
100
AcDbLine
 62
7
  6
CONTINUOUS
 10
4.6120197056
 20
6.7610801371
 11
4.6120197056
 21
6.7503214947
  0
LINE
  5
5AC
100
AcDbEntity
  8
02___PRT_ALL_AXES
100
AcDbLine
 62
7
  6
CONTINUOUS
 10
4.6120197056
 20
6.7020250189
 11
4.6120197056
 21
6.6912663766
  0
LINE
  5
5AD
100
AcDbEntity
  8
02___PRT_ALL_AXES
100
AcDbLine
 62
7
  6
CONTINUOUS
 10
4.6120197056
 20
6.6429699008
 11
4.6120197056
 21
6.5834567214
  0
LINE
  5
5AE
100
AcDbEntity
  8
0
100
AcDbLine
 62
7
  6
CONTINUOUS
 10
4.6474527765
 20
6.6634271938
 11
4.6474527765
 21
6.6708090836
  0
LINE
  5
5AF
100
AcDbEntity
  8
0
100
AcDbLine
 62
7
  6
CONTINUOUS
 10
4.6474527765
 20
6.7224823119
 11
4.6474527765
 21
6.7298642017
  0
LINE
  5
5B0
100
AcDbEntity
  8
0
100
AcDbLine
 62
7
  6
CONTINUOUS
 10
4.6474527765
 20
6.7815374301
 11
4.6474527765
 21
6.7889193198
  0
LINE
  5
5B1
100
AcDbEntity
  8
0
100
AcDbLine
 62
7
  6
CONTINUOUS
 10
4.6474527765
 20
6.8405925482
 11
4.6474527765
 21
6.8479744379
  0
LINE
  5
5B2
100
AcDbEntity
  8
0
100
AcDbLine
 62
7
  6
CONTINUOUS
 10
4.6474527765
 20
6.8996476663
 11
4.6474527765
 21
6.907029556
  0
LINE
  5
5B3
100
AcDbEntity
  8
0
100
AcDbLine
 62
7
  6
CONTINUOUS
 10
4.6474527765
 20
6.9587027844
 11
4.6474527765
 21
6.9660846741
  0
LINE
  5
5B4
100
AcDbEntity
  8
0
100
AcDbLine
 62
7
  6
CONTINUOUS
 10
4.6474527765
 20
7.0177579025
 11
4.6474527765
 21
7.0251397923
  0
LINE
  5
5B5
100
AcDbEntity
  8
0
100
AcDbLine
 62
7
  6
CONTINUOUS
 10
4.6474527765
 20
7.0768130206
 11
4.6474527765
 21
7.0841949104
  0
LINE
  5
5B6
100
AcDbEntity
  8
0
100
AcDbLine
 62
7
  6
CONTINUOUS
 10
4.6474527765
 20
7.1358681387
 11
4.6474527765
 21
7.1432500285
  0
LINE
  5
5B7
100
AcDbEntity
  8
0
100
AcDbLine
 62
7
  6
CONTINUOUS
 10
4.6474527765
 20
7.1949232568
 11
4.6474527765
 21
7.2023051466
  0
LINE
  5
5B8
100
AcDbEntity
  8
0
100
AcDbLine
 62
7
  6
CONTINUOUS
 10
3.5098977535
 20
6.6620163382
 11
3.4744501881
 21
6.6415422911
  0
LINE
  5
5B9
100
AcDbEntity
  8
0
100
AcDbLine
 62
7
  6
CONTINUOUS
 10
4.611779453
 20
7.1741884431
 11
4.6472270185
 21
7.1946624903
  0
LWPOLYLINE
  5
5BA
100
AcDbEntity
  8
02___PRT_ALL_AXES
100
AcDbPolyline
 62
7
  6
CONTINUOUS
 90
8
 70
0
 10
4.6120197034
 20
7.1637081706
 10
4.610371354
 20
7.1629802473
 10
4.5962628862
 20
7.1614545358
 10
4.568288131
 20
7.1599380515
 10
4.526466807
 20
7.1584003416
 10
4.4718927878
 20
7.1568545091
 10
4.4068271838
 20
7.1553218663
 10
4.3333370256
 20
7.1538040298
  0
LWPOLYLINE
  5
5BB
100
AcDbEntity
  8
02___PRT_ALL_AXES
100
AcDbPolyline
 62
7
  6
CONTINUOUS
 90
10
 70
0
 10
3.5096575031
 20
6.6724966163
 10
3.5113096676
 20
6.6732253754
 10
3.5254247379
 20
6.6747509937
 10
3.5534091615
 20
6.6762676072
 10
3.5952417618
 20
6.6778054391
 10
3.649831069
 20
6.6793514662
 10
3.7149168678
 20
6.6808843793
 10
3.7883908351
 20
6.6824017452
 10
3.8700226261
 20
6.6839386112
 10
3.9571412238
 20
6.6854823578
  0
LWPOLYLINE
  5
5BC
100
AcDbEntity
  8
02___PRT_ALL_AXES
100
AcDbPolyline
 62
7
  6
CONTINUOUS
 90
10
 70
0
 10
4.6120197056
 20
7.222762433
 10
4.6101137022
 20
7.2219805731
 10
4.5953458705
 20
7.2204447023
 10
4.5668242752
 20
7.2189297292
 10
4.5251281228
 20
7.2174129515
 10
4.471481843
 20
7.2158991152
 10
4.4070579793
 20
7.2143820413
 10
4.3335555424
 20
7.2128634352
 10
4.2517712325
 20
7.2113234087
 10
4.1645359827
 20
7.2097775417
  0
LWPOLYLINE
  5
5BD
100
AcDbEntity
  8
02___PRT_ALL_AXES
100
AcDbPolyline
 62
7
  6
CONTINUOUS
 90
9
 70
0
 10
3.47422443
 20
6.752009871
 10
3.4760242989
 20
6.7527463289
 10
3.4903570489
 20
6.7542192448
 10
3.5186712789
 20
6.7556921606
 10
3.5602730579
 20
6.7571650765
 10
3.6141428009
 20
6.7586379923
 10
3.678960257
 20
6.7601109081
 10
3.7531368667
 20
6.761583824
 10
3.8348546942
 20
6.7630567398
  0
LWPOLYLINE
  5
5BE
100
AcDbEntity
  8
02___PRT_ALL_AXES
100
AcDbPolyline
 62
7
  6
CONTINUOUS
 90
9
 70
0
 10
3.47422443
 20
6.6929547529
 10
3.4760242989
 20
6.6936912108
 10
3.4903570489
 20
6.6951641267
 10
3.5186712789
 20
6.6966370425
 10
3.5602730579
 20
6.6981099583
 10
3.6141428009
 20
6.6995828742
 10
3.678960257
 20
6.70105579
 10
3.7531368667
 20
6.7025287059
 10
3.8348546942
 20
6.7040016217
  0
LWPOLYLINE
  5
5BF
100
AcDbEntity
  8
02___PRT_ALL_AXES
100
AcDbPolyline
 62
7
  6
CONTINUOUS
 90
10
 70
0
 10
3.5096575029
 20
6.7315533837
 10
3.5116148411
 20
6.7323449101
 10
3.5261857432
 20
6.7338601227
 10
3.5546104605
 20
6.735374849
 10
3.5968889926
 20
6.7369128117
 10
3.6518604023
 20
6.7384583609
 10
3.7172310505
 20
6.7399900756
 10
3.7908844432
 20
6.7415057068
 10
3.8717107793
 20
6.7430243952
 10
3.9571412238
 20
6.7445374759
  0
LWPOLYLINE
  5
5C0
100
AcDbEntity
  8
02___PRT_ALL_AXES
100
AcDbPolyline
 62
7
  6
CONTINUOUS
 90
5
 70
0
 10
3.4744501881
 20
6.8187076454
 10
3.4752889479
 20
6.8190131945
 10
3.4876931081
 20
6.8204648426
 10
3.513742117
 20
6.8219164907
 10
3.552815827
 20
6.8233681387
  0
LWPOLYLINE
  5
5C1
100
AcDbEntity
  8
02___PRT_ALL_AXES
100
AcDbPolyline
 62
7
  6
CONTINUOUS
 90
9
 70
0
 10
3.4744501881
 20
6.8777627636
 10
3.4760242989
 20
6.8782384549
 10
3.4903570489
 20
6.8797113707
 10
3.5186712789
 20
6.8811842866
 10
3.5602730579
 20
6.8826572024
 10
3.6141428009
 20
6.8841301183
 10
3.678960257
 20
6.8856030341
 10
3.7531368667
 20
6.88707595
 10
3.8348546942
 20
6.8885488658
  0
LWPOLYLINE
  5
5C2
100
AcDbEntity
  8
02___PRT_ALL_AXES
100
AcDbPolyline
 62
7
  6
CONTINUOUS
 90
9
 70
0
 10
3.4744501881
 20
6.7596525273
 10
3.4760242989
 20
6.7601282187
 10
3.4903570489
 20
6.7616011345
 10
3.5186712789
 20
6.7630740504
 10
3.5602730579
 20
6.7645469662
 10
3.6141428009
 20
6.7660198821
 10
3.678960257
 20
6.7674927979
 10
3.7531368667
 20
6.7689657138
 10
3.8348546942
 20
6.7704386296
  0
LINE
  5
5C3
100
AcDbEntity
  8
02___PRT_ALL_AXES
100
AcDbLine
 62
7
  6
CONTINUOUS
 10
4.6472270185
 20
7.1946624903
 11
4.6474527765
 21
7.1949232568
  0
LINE
  5
5C4
100
AcDbEntity
  8
02___PRT_ALL_AXES
100
AcDbLine
 62
7
  6
CONTINUOUS
 10
4.6472270185
 20
7.1356073721
 11
4.6474527765
 21
7.1358681387
  0
LINE
  5
5C5
100
AcDbEntity
  8
02___PRT_ALL_AXES
100
AcDbLine
 62
7
  6
CONTINUOUS
 10
4.6472270185
 20
7.076552254
 11
4.6474527765
 21
7.0768130206
  0
LWPOLYLINE
  5
5C6
100
AcDbEntity
  8
02___PRT_ALL_AXES
100
AcDbPolyline
 62
7
  6
CONTINUOUS
 90
5
 70
0
 10
4.6120197056
 20
7.0455970942
 10
4.611376552
 20
7.0451429919
 10
4.6000840476
 20
7.0436375389
 10
4.5754543582
 20
7.0421542913
 10
4.53817544
 20
7.0406758254
  0
LINE
  5
5C7
100
AcDbEntity
  8
0
100
AcDbLine
 62
7
  6
CONTINUOUS
 10
4.611779453
 20
7.115133325
 11
4.6472270185
 21
7.1356073721
  0
LINE
  5
5C8
100
AcDbEntity
  8
0
100
AcDbLine
 62
7
  6
CONTINUOUS
 10
4.611779453
 20
7.0560782069
 11
4.6472270185
 21
7.076552254
  0
LINE
  5
5C9
100
AcDbEntity
  8
0
100
AcDbLine
 62
7
  6
CONTINUOUS
 10
4.611779453
 20
6.9970230888
 11
4.6472270185
 21
7.0174971359
  0
LWPOLYLINE
  5
5CA
100
AcDbEntity
  8
02___PRT_ALL_AXES
100
AcDbPolyline
 62
7
  6
CONTINUOUS
 90
10
 70
0
 10
4.6120197049
 20
6.9865424523
 10
4.6102244025
 20
6.9857831583
 10
4.5957350693
 20
6.984251576
 10
4.5674378488
 20
6.9827357261
 10
4.5255186025
 20
6.9812048471
 10
4.4712427139
 20
6.9796725318
 10
4.4068927341
 20
6.978157948
 10
4.3334523031
 20
6.9766409371
 10
4.2517155235
 20
6.9751019236
 10
4.1645359827
 20
6.9735570693
  0
LWPOLYLINE
  5
5CB
100
AcDbEntity
  8
02___PRT_ALL_AXES
100
AcDbPolyline
 62
7
  6
CONTINUOUS
 90
10
 70
0
 10
3.5096575009
 20
6.6134423411
 10
3.5115655943
 20
6.614224637
 10
3.526337525
 20
6.6157605114
 10
3.5548643646
 20
6.6172755438
 10
3.5965737994
 20
6.6187926118
 10
3.6502172782
 20
6.6203062264
 10
3.7146309489
 20
6.621822997
 10
3.7881292142
 20
6.6233414943
 10
3.8699074859
 20
6.6248814001
 10
3.9571412238
 20
6.6264272396
  0
LWPOLYLINE
  5
5CC
100
AcDbEntity
  8
02___PRT_ALL_AXES
100
AcDbPolyline
 62
7
  6
CONTINUOUS
 90
9
 70
0
 10
3.47422443
 20
6.6338996348
 10
3.4760242989
 20
6.6346360927
 10
3.4903570489
 20
6.6361090085
 10
3.5186712789
 20
6.6375819244
 10
3.5602730579
 20
6.6390548402
 10
3.6141428009
 20
6.6405277561
 10
3.678960257
 20
6.6420006719
 10
3.7531368667
 20
6.6434735878
 10
3.8348546942
 20
6.6449465036
  0
LWPOLYLINE
  5
5CD
100
AcDbEntity
  8
02___PRT_ALL_AXES
100
AcDbPolyline
 62
7
  6
CONTINUOUS
 90
10
 70
0
 10
4.6120197035
 20
7.1046513787
 10
4.6100574559
 20
7.1038588776
 10
4.5954852883
 20
7.1023442254
 10
4.5670550482
 20
7.1008294281
 10
4.5247695321
 20
7.0992913797
 10
4.4697941288
 20
7.0977458437
 10
4.4044231744
 20
7.0962142046
 10
4.3307729777
 20
7.0946986876
 10
4.2499673532
 20
7.093180403
 10
4.1645359827
 20
7.0916673055
  0
LWPOLYLINE
  5
5CE
100
AcDbEntity
  8
02___PRT_ALL_AXES
100
AcDbPolyline
 62
7
  6
CONTINUOUS
 90
7
 70
0
 10
3.4744501881
 20
6.7005974092
 10
3.4760242989
 20
6.7010731006
 10
3.4903570489
 20
6.7025460164
 10
3.5186712789
 20
6.7040189323
 10
3.5602730579
 20
6.7054918481
 10
3.6141428009
 20
6.706964764
 10
3.678960257
 20
6.7084376798
  0
LWPOLYLINE
  5
5CF
100
AcDbEntity
  8
02___PRT_ALL_AXES
100
AcDbPolyline
 62
7
  6
CONTINUOUS
 90
9
 70
0
 10
3.4744501881
 20
6.6415422911
 10
3.4760242989
 20
6.6420179825
 10
3.4903570489
 20
6.6434908983
 10
3.5186712789
 20
6.6449638142
 10
3.5602730579
 20
6.64643673
 10
3.6141428009
 20
6.6479096458
 10
3.678960257
 20
6.6493825617
 10
3.7531368667
 20
6.6508554775
 10
3.8348546942
 20
6.6523283934
  0
LINE
  5
5D0
100
AcDbEntity
  8
02___PRT_ALL_AXES
100
AcDbLine
 62
7
  6
CONTINUOUS
 10
3.0765866348
 20
8.2921181387
 11
5.0450905718
 21
8.2921181387
  0
LINE
  5
5D1
100
AcDbEntity
  8
AXIS
100
AcDbLine
 62
7
  6
CONTINUOUS
 10
3.0765866348
 20
8.2921181387
 11
5.0450905718
 21
8.2921181387
  0
LINE
  5
5D2
100
AcDbEntity
  8
02___PRT_ALL_AXES
100
AcDbLine
 62
7
  6
CONTINUOUS
 10
4.9466653749
 20
7.8826693198
 11
4.9466653749
 21
7.4495984537
  0
LINE
  5
5D3
100
AcDbEntity
  8
02___PRT_ALL_AXES
100
AcDbLine
 62
7
  6
CONTINUOUS
 10
4.6472270185
 20
7.0174971359
 11
4.6474527765
 21
7.0177579025
  0
LINE
  5
5D4
100
AcDbEntity
  8
02___PRT_ALL_AXES
100
AcDbLine
 62
7
  6
CONTINUOUS
 10
4.6472270185
 20
6.9584420178
 11
4.6474527765
 21
6.9587027844
  0
LINE
  5
5D5
100
AcDbEntity
  8
02___PRT_ALL_AXES
100
AcDbLine
 62
7
  6
CONTINUOUS
 10
4.6472270185
 20
6.8993868997
 11
4.6474527765
 21
6.8996476663
  0
LINE
  5
5D6
100
AcDbEntity
  8
02___PRT_ALL_AXES
100
AcDbLine
 62
7
  6
CONTINUOUS
 10
4.6472270185
 20
6.8403317816
 11
4.6474527765
 21
6.8405925482
  0
LINE
  5
5D7
100
AcDbEntity
  8
0
100
AcDbLine
 62
7
  6
CONTINUOUS
 10
4.611779453
 20
6.9379679707
 11
4.6472270185
 21
6.9584420178
  0
LINE
  5
5D8
100
AcDbEntity
  8
0
100
AcDbLine
 62
7
  6
CONTINUOUS
 10
4.611779453
 20
6.8789128526
 11
4.6472270185
 21
6.8993868997
  0
LINE
  5
5D9
100
AcDbEntity
  8
0
100
AcDbLine
 62
7
  6
CONTINUOUS
 10
4.611779453
 20
6.8198577345
 11
4.6472270185
 21
6.8403317816
  0
LWPOLYLINE
  5
5DA
100
AcDbEntity
  8
02___PRT_ALL_AXES
100
AcDbPolyline
 62
7
  6
CONTINUOUS
 90
10
 70
0
 10
4.6120197056
 20
6.8684317271
 10
4.6102024263
 20
6.8676682894
 10
4.5956096129
 20
6.8661324901
 10
4.5673165599
 20
6.8646202437
 10
4.5256776812
 20
6.8630996569
 10
4.4713736511
 20
6.8615656411
 10
4.4064748675
 20
6.8600385605
 10
4.3329047048
 20
6.8585199604
 10
4.2513155175
 20
6.8569844175
 10
4.1645359827
 20
6.8554468331
  0
LWPOLYLINE
  5
5DB
100
AcDbEntity
  8
02___PRT_ALL_AXES
100
AcDbPolyline
 62
7
  6
CONTINUOUS
 90
10
 70
0
 10
4.6120197045
 20
6.9274862572
 10
4.6101204802
 20
6.9267063748
 10
4.595672459
 20
6.9251920372
 10
4.5673049837
 20
6.9236748615
 10
4.5250488815
 20
6.9221348542
 10
4.4700599186
 20
6.9205872523
 10
4.4046281814
 20
6.9190533218
 10
4.331000171
 20
6.9175377774
 10
4.2504855513
 20
6.916024458
 10
4.1645359827
 20
6.9145019512
  0
LWPOLYLINE
  5
5DC
100
AcDbEntity
  8
02___PRT_ALL_AXES
100
AcDbPolyline
 62
7
  6
CONTINUOUS
 90
10
 70
0
 10
4.6120197056
 20
6.8093766093
 10
4.6101105691
 20
6.8085941036
 10
4.5953519925
 20
6.8070593032
 10
4.5668329446
 20
6.8055442752
 10
4.5249274923
 20
6.8040207799
 10
4.4711058667
 20
6.8025036823
 10
4.406885201
 20
6.8009924286
 10
4.3334462263
 20
6.7994754635
 10
4.2517114065
 20
6.7979364945
 10
4.1645359827
 20
6.7963917149
  0
LINE
  5
5DD
100
AcDbEntity
  8
0
100
AcDbLine
 62
7
  6
CONTINUOUS
 10
5.0450905718
 20
9.3511732568
 11
5.0403935754
 21
9.6202639975
  0
LINE
  5
5DE
100
AcDbEntity
  8
02___PRT_ALL_AXES
100
AcDbLine
 62
7
  6
CONTINUOUS
 10
5.0450905718
 20
8.2921181387
 11
5.0450905718
 21
7.9810945167
  0
LINE
  5
5DF
100
AcDbEntity
  8
AXIS
100
AcDbLine
 62
7
  6
CONTINUOUS
 10
5.0450905718
 20
8.2921181387
 11
5.0450905718
 21
9.3511732568
  0
LINE
  5
5E0
100
AcDbEntity
  8
02___PRT_ALL_AXES
100
AcDbLine
 62
7
  6
CONTINUOUS
 10
4.6472270185
 20
6.7812766635
 11
4.6474527765
 21
6.7815374301
  0
LINE
  5
5E1
100
AcDbEntity
  8
02___PRT_ALL_AXES
100
AcDbLine
 62
7
  6
CONTINUOUS
 10
4.6472270185
 20
6.7222215454
 11
4.6474527765
 21
6.7224823119
  0
LINE
  5
5E2
100
AcDbEntity
  8
02___PRT_ALL_AXES
100
AcDbLine
 62
7
  6
CONTINUOUS
 10
4.6472270185
 20
6.6631664273
 11
4.6474527765
 21
6.6634271938
  0
LINE
  5
5E3
100
AcDbEntity
  8
0
100
AcDbLine
 62
7
  6
CONTINUOUS
 10
4.611779453
 20
6.7608026164
 11
4.6472270185
 21
6.7812766635
  0
LINE
  5
5E4
100
AcDbEntity
  8
0
100
AcDbLine
 62
7
  6
CONTINUOUS
 10
4.611779453
 20
6.7017474982
 11
4.6472270185
 21
6.7222215454
  0
LINE
  5
5E5
100
AcDbEntity
  8
0
100
AcDbLine
 62
7
  6
CONTINUOUS
 10
4.611779453
 20
6.6426923801
 11
4.6472270185
 21
6.6631664273
  0
LWPOLYLINE
  5
5E6
100
AcDbEntity
  8
02___PRT_ALL_AXES
100
AcDbPolyline
 62
7
  6
CONTINUOUS
 90
6
 70
0
 10
4.6120197055
 20
6.7503217213
 10
4.610265391
 20
6.7495714028
 10
4.5959998524
 20
6.7480498923
 10
4.5678114913
 20
6.746531458
 10
4.5257247874
 20
6.7449909157
 10
4.4708688445
 20
6.743442514
  0
LWPOLYLINE
  5
5E7
100
AcDbEntity
  8
02___PRT_ALL_AXES
100
AcDbPolyline
 62
7
  6
CONTINUOUS
 90
10
 70
0
 10
4.6120197056
 20
6.6912662924
 10
4.6101952736
 20
6.6905014333
 10
4.5956382617
 20
6.6889691537
 10
4.5672877296
 20
6.6874536434
 10
4.525132955
 20
6.6859170414
 10
4.470298908
 20
6.6843728654
 10
4.4050709723
 20
6.6828425133
 10
4.3314741908
 20
6.681326581
 10
4.2503107233
 20
6.6798008107
 10
4.1645359827
 20
6.6782814787
  0
LINE
  5
5E8
100
AcDbEntity
  8
AXIS
100
AcDbLine
 62
7
  6
CONTINUOUS
 10
3.0765866348
 20
9.3511732568
 11
5.0450905718
 21
9.3511732568
  0
LINE
  5
5E9
100
AcDbEntity
  8
0
100
AcDbLine
 62
7
  6
CONTINUOUS
 10
3.0765866348
 20
9.3511732568
 11
5.0450905718
 21
9.3511732568
  0
LINE
  5
5EA
100
AcDbEntity
  8
0
100
AcDbLine
 62
9
  6
CONTINUOUS
 10
3.0812836311
 20
9.6202639975
 11
5.0403935754
 21
9.6202639975
  0
LINE
  5
5EB
100
AcDbEntity
  8
0
100
AcDbLine
 62
7
  6
CONTINUOUS
 10
3.1600117964
 20
9.6976299497
 11
4.9616654104
 21
9.6976299497
  0
LWPOLYLINE
  5
5EC
100
AcDbEntity
  8
02___PRT_ALL_AXES
100
AcDbPolyline
 62
7
  6
CONTINUOUS
 90
18
 70
0
 10
12.8564839789
 20
4.3224726232
 10
12.8680756506
 20
4.3166737098
 10
12.8809787682
 20
4.311886243
 10
12.8949306615
 20
4.3082076818
 10
12.9096473101
 20
4.3057129111
 10
12.9248291257
 20
4.3044527173
 10
12.9401670501
 20
4.3044527541
 10
12.9553488474
 20
4.305713021
 10
12.9700654601
 20
4.3082078625
 10
12.9840173003
 20
4.3118864907
 10
12.9969203489
 20
4.3166740195
 10
13.0085119369
 20
4.3224729886
 10
13.018556093
 20
4.3291653477
 10
13.0268483473
 20
4.3366148596
 10
13.0332198933
 20
4.3446698738
 10
13.0375410247
 20
4.3531664134
 10
13.0397237757
 20
4.3619315134
 10
13.0399965955
 20
4.3663588693
  0
LWPOLYLINE
  5
5ED
100
AcDbEntity
  8
02___PRT_ALL_AXES
100
AcDbPolyline
 62
7
  6
CONTINUOUS
 90
14
 70
0
 10
12.7095104722
 20
5.0030332573
 10
12.7969237656
 20
4.9879820332
 10
12.8876597316
 20
4.9810064597
 10
12.9794945944
 20
4.9823069702
 10
13.0701776461
 20
4.9918811661
 10
13.1574864078
 20
5.0095238755
 10
13.2392810982
 20
5.0348321818
 10
13.3135570762
 20
5.0672152982
 10
13.3784939707
 20
5.1059090473
 10
13.4325002948
 20
5.1499945891
 10
13.4742524505
 20
5.1984209406
 10
13.5027271671
 20
5.2500307333
 10
13.5172265806
 20
5.3035885782
 10
13.5191118147
 20
5.3313345045
  0
LWPOLYLINE
  5
5EE
100
AcDbEntity
  8
02___PRT_ALL_AXES
100
AcDbPolyline
 62
7
  6
CONTINUOUS
 90
13
 70
0
 10
12.7095104722
 20
5.0090605882
 10
12.7969237656
 20
4.994009364
 10
12.8876597316
 20
4.9870337905
 10
12.9794945944
 20
4.9883343011
 10
13.0701776461
 20
4.9979084969
 10
13.1574864078
 20
5.0155512063
 10
13.2392810982
 20
5.0408595126
 10
13.3135570762
 20
5.073242629
 10
13.3784939707
 20
5.1119363781
 10
13.4325002948
 20
5.1560219199
 10
13.4742524505
 20
5.2044482714
 10
13.5027271671
 20
5.2560580641
 10
13.5172265806
 20
5.309615909
  0
LWPOLYLINE
  5
5EF
100
AcDbEntity
  8
0
100
AcDbPolyline
 62
9
  6
CONTINUOUS
 90
14
 70
0
 10
12.6230404779
 20
4.9966793135
 10
12.6964450842
 20
4.9724508642
 10
12.7753571043
 20
4.9549977453
 10
12.8579702055
 20
4.9447135153
 10
12.942352996
 20
4.9418419861
 10
13.0265041164
 20
4.9464536006
 10
13.1084406455
 20
4.9584392032
 10
13.1862372052
 20
4.9775162861
 10
13.2580684404
 20
5.0032371568
 10
13.3222436789
 20
5.0349968325
 10
13.377253135
 20
5.0720482457
 10
13.4218028019
 20
5.1135196806
 10
13.45484497
 20
5.1584352207
 10
13.4704632828
 20
5.1940260641
  0
LINE
  5
5F0
100
AcDbEntity
  8
0
100
AcDbLine
 62
7
  6
CONTINUOUS
 10
12.6304170065
 20
4.9791051164
 11
12.6318767709
 21
4.9784044408
  0
LWPOLYLINE
  5
5F1
100
AcDbEntity
  8
02___PRT_ALL_AXES
100
AcDbPolyline
 62
7
  6
CONTINUOUS
 90
11
 70
0
 10
12.7095104722
 20
5.051251904
 10
12.7969237656
 20
5.0362006799
 10
12.8876597316
 20
5.0292251064
 10
12.9794945944
 20
5.0305256169
 10
13.0701776461
 20
5.0400998128
 10
13.1574864078
 20
5.0577425222
 10
13.2392810982
 20
5.0830508284
 10
13.3135570762
 20
5.1154339449
 10
13.3784939707
 20
5.154127694
 10
13.4325002948
 20
5.1982132358
 10
13.4742524505
 20
5.2466395873
  0
LWPOLYLINE
  5
5F2
100
AcDbEntity
  8
02___PRT_ALL_AXES
100
AcDbPolyline
 62
7
  6
CONTINUOUS
 90
11
 70
0
 10
12.7095104722
 20
5.0572792348
 10
12.7969237656
 20
5.0422280107
 10
12.8876597316
 20
5.0352524372
 10
12.9794945944
 20
5.0365529477
 10
13.0701776461
 20
5.0461271436
 10
13.1574864078
 20
5.063769853
 10
13.2392810982
 20
5.0890781593
 10
13.3135570762
 20
5.1214612757
 10
13.3784939707
 20
5.1601550248
 10
13.4325002948
 20
5.2042405666
 10
13.4742524505
 20
5.2526669181
  0
LWPOLYLINE
  5
5F3
100
AcDbEntity
  8
02___PRT_ALL_AXES
100
AcDbPolyline
 62
7
  6
CONTINUOUS
 90
12
 70
0
 10
12.7095104722
 20
5.0994705507
 10
12.7969237656
 20
5.0844193265
 10
12.8876597316
 20
5.0774437531
 10
12.9794945944
 20
5.0787442636
 10
13.0701776461
 20
5.0883184595
 10
13.1574864078
 20
5.1059611689
 10
13.2392810982
 20
5.1312694751
 10
13.3135570762
 20
5.1636525916
 10
13.3784939707
 20
5.2023463406
 10
13.4325002948
 20
5.2464318825
 10
13.4742524505
 20
5.2948582339
 10
13.5027271671
 20
5.3464680266
  0
LWPOLYLINE
  5
5F4
100
AcDbEntity
  8
02___PRT_ALL_AXES
100
AcDbPolyline
 62
7
  6
CONTINUOUS
 90
12
 70
0
 10
12.7095104722
 20
5.1054978815
 10
12.7969237656
 20
5.0904466574
 10
12.8876597316
 20
5.0834710839
 10
12.9794945944
 20
5.0847715944
 10
13.0701776461
 20
5.0943457903
 10
13.1574864078
 20
5.1119884997
 10
13.2392810982
 20
5.1372968059
 10
13.3135570762
 20
5.1696799224
 10
13.3784939707
 20
5.2083736715
 10
13.4325002948
 20
5.2524592133
 10
13.4742524505
 20
5.3008855648
 10
13.5027271671
 20
5.3524953575
  0
LWPOLYLINE
  5
5F5
100
AcDbEntity
  8
02___PRT_ALL_AXES
100
AcDbPolyline
 62
7
  6
CONTINUOUS
 90
11
 70
0
 10
12.7095104722
 20
5.1476891974
 10
12.7969237656
 20
5.1326379732
 10
12.8876597316
 20
5.1256623997
 10
12.9794945944
 20
5.1269629103
 10
13.0701776461
 20
5.1365371061
 10
13.1574864078
 20
5.1541798155
 10
13.2392810982
 20
5.1794881218
 10
13.3135570762
 20
5.2118712383
 10
13.3784939707
 20
5.2505649873
 10
13.4325002948
 20
5.2946505291
 10
13.4742524505
 20
5.3430768806
  0
LWPOLYLINE
  5
5F6
100
AcDbEntity
  8
02___PRT_ALL_AXES
100
AcDbPolyline
 62
7
  6
CONTINUOUS
 90
12
 70
0
 10
12.7095104722
 20
5.1537165282
 10
12.7969237656
 20
5.1386653041
 10
12.8876597316
 20
5.1316897306
 10
12.9794945944
 20
5.1329902411
 10
13.0701776461
 20
5.142564437
 10
13.1574864078
 20
5.1602071464
 10
13.2392810982
 20
5.1855154526
 10
13.3135570762
 20
5.2178985691
 10
13.3784939707
 20
5.2565923182
 10
13.4325002948
 20
5.30067786
 10
13.4742524505
 20
5.3491042115
 10
13.5027271671
 20
5.4007140041
  0
LINE
  5
5F7
100
AcDbEntity
  8
02___PRT_ALL_AXES
100
AcDbLine
 62
7
  6
CONTINUOUS
 10
12.7865254195
 20
5.1295334112
 11
12.7018388292
 21
5.1461188301
  0
LINE
  5
5F8
100
AcDbEntity
  8
02___PRT_ALL_AXES
100
AcDbLine
 62
7
  6
CONTINUOUS
 10
12.7850256684
 20
5.0815322202
 11
12.7012890674
 21
5.0980382127
  0
LWPOLYLINE
  5
5F9
100
AcDbEntity
  8
02___PRT_ALL_AXES
100
AcDbPolyline
 62
7
  6
CONTINUOUS
 90
3
 70
0
 10
12.7843412443
 20
5.0334136804
 10
12.70048431
 20
5.0500223729
 10
12.6230404779
 20
5.074103957
  0
LINE
  5
5FA
100
AcDbEntity
  8
02___PRT_ALL_AXES
100
AcDbLine
 62
7
  6
CONTINUOUS
 10
12.7018388292
 20
5.1461188301
 11
12.6230404779
 21
5.1705412504
  0
LINE
  5
5FB
100
AcDbEntity
  8
02___PRT_ALL_AXES
100
AcDbLine
 62
7
  6
CONTINUOUS
 10
12.7012890674
 20
5.0980382127
 11
12.6230404779
 21
5.1223226037
  0
LWPOLYLINE
  5
5FC
100
AcDbEntity
  8
02___PRT_ALL_AXES
100
AcDbPolyline
 62
7
  6
CONTINUOUS
 90
5
 70
0
 10
12.7095104722
 20
5.0030332573
 10
12.6885460408
 20
5.0096944546
 10
12.6665846882
 20
5.0173408606
 10
12.6445069445
 20
5.0257552855
 10
12.6230404779
 20
5.0346697678
  0
LWPOLYLINE
  5
5FD
100
AcDbEntity
  8
02___PRT_ALL_AXES
100
AcDbPolyline
 62
7
  6
CONTINUOUS
 90
3
 70
0
 10
12.7095104722
 20
5.051251904
 10
12.6805361558
 20
5.0606207003
 10
12.6516998093
 20
5.0711501777
  0
LWPOLYLINE
  5
5FE
100
AcDbEntity
  8
02___PRT_ALL_AXES
100
AcDbPolyline
 62
7
  6
CONTINUOUS
 90
4
 70
0
 10
12.3899196326
 20
5.1875025381
 10
12.4188892441
 20
5.1781353592
 10
12.4477251835
 20
5.1676062426
 10
12.4763896269
 20
5.1558660276
  0
LWPOLYLINE
  5
5FF
100
AcDbEntity
  8
02___PRT_ALL_AXES
100
AcDbPolyline
 62
7
  6
CONTINUOUS
 90
3
 70
0
 10
12.7095104722
 20
5.0994705507
 10
12.6805361558
 20
5.108839347
 10
12.6516998093
 20
5.1193688244
  0
LWPOLYLINE
  5
600
100
AcDbEntity
  8
02___PRT_ALL_AXES
100
AcDbPolyline
 62
7
  6
CONTINUOUS
 90
4
 70
0
 10
12.3899196326
 20
5.2357211848
 10
12.4188892441
 20
5.2263540059
 10
12.4477251835
 20
5.2158248893
 10
12.4763896269
 20
5.2040846742
  0
LWPOLYLINE
  5
601
100
AcDbEntity
  8
02___PRT_ALL_AXES
100
AcDbPolyline
 62
7
  6
CONTINUOUS
 90
3
 70
0
 10
12.7095104722
 20
5.1476891974
 10
12.6805361558
 20
5.1570579937
 10
12.6516998093
 20
5.1675874711
  0
LINE
  5
602
100
AcDbEntity
  8
02___PRT_ALL_AXES
100
AcDbLine
 62
7
  6
CONTINUOUS
 10
12.6516998093
 20
5.0711501777
 11
12.6230404779
 21
5.0828884145
  0
LINE
  5
603
100
AcDbEntity
  8
02___PRT_ALL_AXES
100
AcDbLine
 62
7
  6
CONTINUOUS
 10
12.6516998093
 20
5.1193688244
 11
12.6230404779
 21
5.1311070612
  0
LINE
  5
604
100
AcDbEntity
  8
0
100
AcDbLine
 62
7
  6
CONTINUOUS
 10
12.6303925863
 20
4.979119215
 11
12.4853455752
 21
5.0628602514
  0
LINE
  5
605
100
AcDbEntity
  8
0
100
AcDbLine
 62
9
  6
CONTINUOUS
 10
12.6230404779
 20
4.9966793135
 11
12.4763896269
 21
5.0813463063
  0
LINE
  5
606
100
AcDbEntity
  8
0
100
AcDbLine
 62
7
  6
CONTINUOUS
 10
12.4829811195
 20
5.0645276331
 11
12.4853233396
 21
5.062873089
  0
LWPOLYLINE
  5
607
100
AcDbEntity
  8
02___PRT_ALL_AXES
100
AcDbPolyline
 62
7
  6
CONTINUOUS
 90
4
 70
0
 10
12.4763896269
 20
5.1164318384
 10
12.4477308583
 20
5.1366938848
 10
12.4188922506
 20
5.1584046561
 10
12.3899196326
 20
5.1814752072
  0
LWPOLYLINE
  5
608
100
AcDbEntity
  8
02___PRT_ALL_AXES
100
AcDbPolyline
 62
7
  6
CONTINUOUS
 90
4
 70
0
 10
12.4763896269
 20
5.164650485
 10
12.4477308583
 20
5.1849125315
 10
12.4188922506
 20
5.2066233028
 10
12.3899196326
 20
5.2296938539
  0
LWPOLYLINE
  5
609
100
AcDbEntity
  8
02___PRT_ALL_AXES
100
AcDbPolyline
 62
7
  6
CONTINUOUS
 90
4
 70
0
 10
12.6230404779
 20
5.074103957
 10
12.651895041
 20
5.0536989014
 10
12.6812709449
 20
5.0315626003
 10
12.7095104722
 20
5.0090605882
  0
LINE
  5
60A
100
AcDbEntity
  8
0
100
AcDbLine
 62
7
  6
CONTINUOUS
 10
12.4822356877
 20
5.0652064323
 11
12.4829811195
 21
5.0645276331
  0
LWPOLYLINE
  5
60B
100
AcDbEntity
  8
0
100
AcDbPolyline
 62
7
  6
CONTINUOUS
 90
4
 70
0
 10
12.4829816681
 20
5.0645273227
 10
12.4387268307
 20
5.1095118941
 10
12.4066325083
 20
5.1583142835
 10
12.401329798
 20
5.1723894283
  0
LWPOLYLINE
  5
60C
100
AcDbEntity
  8
02___PRT_ALL_AXES
100
AcDbPolyline
 62
7
  6
CONTINUOUS
 90
7
 70
0
 10
13.0843269207
 20
5.2834643602
 10
13.1696865041
 20
5.3020284913
 10
13.2493993431
 20
5.3279670086
 10
13.3215677178
 20
5.3606906128
 10
13.3844735189
 20
5.3994484723
 10
13.4366191509
 20
5.4433460982
 10
13.4767631851
 20
5.4913666395
  0
LWPOLYLINE
  5
60D
100
AcDbEntity
  8
02___PRT_ALL_AXES
100
AcDbPolyline
 62
7
  6
CONTINUOUS
 90
8
 70
0
 10
13.0843269207
 20
5.2894916911
 10
13.1696865041
 20
5.3080558222
 10
13.2493993431
 20
5.3339943395
 10
13.3215677178
 20
5.3667179437
 10
13.3844735189
 20
5.4054758031
 10
13.4366191509
 20
5.449373429
 10
13.4767631851
 20
5.4973939704
 10
13.4848135573
 20
5.5125042114
  0
LWPOLYLINE
  5
60E
100
AcDbEntity
  8
02___PRT_ALL_AXES
100
AcDbPolyline
 62
7
  6
CONTINUOUS
 90
5
 70
0
 10
13.1371652895
 20
5.2905552497
 10
13.0514677815
 20
5.2740546738
 10
12.9625369425
 20
5.2657752257
 10
12.8738432715
 20
5.2658725613
 10
12.7865321617
 20
5.2741883796
  0
LINE
  5
60F
100
AcDbEntity
  8
02___PRT_ALL_AXES
100
AcDbLine
 62
7
  6
CONTINUOUS
 10
12.9904015017
 20
5.2783547624
 11
13.0843269207
 21
5.2894916911
  0
LWPOLYLINE
  5
610
100
AcDbEntity
  8
02___PRT_ALL_AXES
100
AcDbPolyline
 62
7
  6
CONTINUOUS
 90
5
 70
0
 10
12.7095104722
 20
5.2923451374
 10
12.8004778531
 20
5.2768609858
 10
12.8949422793
 20
5.2701178374
 10
12.9904015017
 20
5.2723274316
 10
13.0843269207
 20
5.2834643602
  0
LWPOLYLINE
  5
611
100
AcDbEntity
  8
02___PRT_ALL_AXES
100
AcDbPolyline
 62
7
  6
CONTINUOUS
 90
4
 70
0
 10
12.7095104722
 20
5.2983724682
 10
12.8004778531
 20
5.2828883166
 10
12.8949422793
 20
5.2761451683
 10
12.9904015017
 20
5.2783547624
  0
LWPOLYLINE
  5
612
100
AcDbEntity
  8
02___PRT_ALL_AXES
100
AcDbPolyline
 62
7
  6
CONTINUOUS
 90
11
 70
0
 10
12.7095104722
 20
5.195907844
 10
12.7969237656
 20
5.1808566199
 10
12.8876597316
 20
5.1738810464
 10
12.9794945944
 20
5.175181557
 10
13.0701776461
 20
5.1847557528
 10
13.1574864078
 20
5.2023984622
 10
13.2392810982
 20
5.2277067685
 10
13.3135570762
 20
5.2600898849
 10
13.3784939707
 20
5.298783634
 10
13.4325002948
 20
5.3428691758
 10
13.4742524505
 20
5.3912955273
  0
LWPOLYLINE
  5
613
100
AcDbEntity
  8
02___PRT_ALL_AXES
100
AcDbPolyline
 62
7
  6
CONTINUOUS
 90
12
 70
0
 10
12.7095104722
 20
5.2019351749
 10
12.7969237656
 20
5.1868839507
 10
12.8876597316
 20
5.1799083773
 10
12.9794945944
 20
5.1812088878
 10
13.0701776461
 20
5.1907830837
 10
13.1574864078
 20
5.208425793
 10
13.2392810982
 20
5.2337340993
 10
13.3135570762
 20
5.2661172158
 10
13.3784939707
 20
5.3048109648
 10
13.4325002948
 20
5.3488965066
 10
13.4742524505
 20
5.3973228581
 10
13.5027271671
 20
5.4489326508
  0
LWPOLYLINE
  5
614
100
AcDbEntity
  8
02___PRT_ALL_AXES
100
AcDbPolyline
 62
7
  6
CONTINUOUS
 90
11
 70
0
 10
12.7095104722
 20
5.2441264907
 10
12.7969237656
 20
5.2290752666
 10
12.8876597316
 20
5.2220996931
 10
12.9794945944
 20
5.2234002036
 10
13.0701776461
 20
5.2329743995
 10
13.1574864078
 20
5.2506171089
 10
13.2392810982
 20
5.2759254152
 10
13.3135570762
 20
5.3083085316
 10
13.3784939707
 20
5.3470022807
 10
13.4325002948
 20
5.3910878225
 10
13.4742524505
 20
5.439514174
  0
LWPOLYLINE
  5
615
100
AcDbEntity
  8
02___PRT_ALL_AXES
100
AcDbPolyline
 62
7
  6
CONTINUOUS
 90
12
 70
0
 10
12.7095104722
 20
5.2501538216
 10
12.7969237656
 20
5.2351025974
 10
12.8876597316
 20
5.2281270239
 10
12.9794945944
 20
5.2294275345
 10
13.0701776461
 20
5.2390017303
 10
13.1574864078
 20
5.2566444397
 10
13.2392810982
 20
5.281952746
 10
13.3135570762
 20
5.3143358624
 10
13.3784939707
 20
5.3530296115
 10
13.4325002948
 20
5.3971151533
 10
13.4742524505
 20
5.4455415048
 10
13.5027271671
 20
5.4971512975
  0
LINE
  5
616
100
AcDbEntity
  8
02___PRT_ALL_AXES
100
AcDbLine
 62
7
  6
CONTINUOUS
 10
12.7865321617
 20
5.2741883796
 11
12.701842815
 21
5.290773771
  0
LINE
  5
617
100
AcDbEntity
  8
02___PRT_ALL_AXES
100
AcDbLine
 62
7
  6
CONTINUOUS
 10
12.7859248898
 20
5.1778388177
 11
12.7014556793
 21
5.1944336304
  0
LWPOLYLINE
  5
618
100
AcDbEntity
  8
02___PRT_ALL_AXES
100
AcDbPolyline
 62
7
  6
CONTINUOUS
 90
3
 70
0
 10
12.7838173593
 20
5.2263652615
 10
12.7006532098
 20
5.2428543207
 10
12.6230404779
 20
5.2669785438
  0
LINE
  5
619
100
AcDbEntity
  8
02___PRT_ALL_AXES
100
AcDbLine
 62
7
  6
CONTINUOUS
 10
12.701842815
 20
5.290773771
 11
12.6230404779
 21
5.3151971904
  0
LINE
  5
61A
100
AcDbEntity
  8
02___PRT_ALL_AXES
100
AcDbLine
 62
7
  6
CONTINUOUS
 10
12.7014556793
 20
5.1944336304
 11
12.6230404779
 21
5.2187598971
  0
LWPOLYLINE
  5
61B
100
AcDbEntity
  8
02___PRT_ALL_AXES
100
AcDbPolyline
 62
7
  6
CONTINUOUS
 90
4
 70
0
 10
12.7095104722
 20
5.195907844
 10
12.6887733976
 20
5.2024935236
 10
12.6670792126
 20
5.2100354619
 10
12.6449899329
 20
5.2184377312
  0
LWPOLYLINE
  5
61C
100
AcDbEntity
  8
02___PRT_ALL_AXES
100
AcDbPolyline
 62
7
  6
CONTINUOUS
 90
4
 70
0
 10
12.3899196326
 20
5.2839398314
 10
12.418895174
 20
5.274570614
 10
12.4477305139
 20
5.2640414732
 10
12.4763896269
 20
5.2523033209
  0
LWPOLYLINE
  5
61D
100
AcDbEntity
  8
02___PRT_ALL_AXES
100
AcDbPolyline
 62
7
  6
CONTINUOUS
 90
4
 70
0
 10
12.3899196326
 20
5.3321584781
 10
12.4188892441
 20
5.3227912993
 10
12.4477251835
 20
5.3122621827
 10
12.4763896269
 20
5.3005219676
  0
LWPOLYLINE
  5
61E
100
AcDbEntity
  8
02___PRT_ALL_AXES
100
AcDbPolyline
 62
7
  6
CONTINUOUS
 90
3
 70
0
 10
12.7095104722
 20
5.2441264907
 10
12.6805361558
 20
5.253495287
 10
12.6516998093
 20
5.2640247644
  0
LWPOLYLINE
  5
61F
100
AcDbEntity
  8
02___PRT_ALL_AXES
100
AcDbPolyline
 62
7
  6
CONTINUOUS
 90
4
 70
0
 10
12.3899196326
 20
5.3803771248
 10
12.4188892441
 20
5.371009946
 10
12.4477251835
 20
5.3604808294
 10
12.4763896269
 20
5.3487406143
  0
LWPOLYLINE
  5
620
100
AcDbEntity
  8
02___PRT_ALL_AXES
100
AcDbPolyline
 62
7
  6
CONTINUOUS
 90
3
 70
0
 10
12.7095104722
 20
5.2923451374
 10
12.6805361558
 20
5.3017139337
 10
12.6516998093
 20
5.3122434111
  0
LINE
  5
621
100
AcDbEntity
  8
02___PRT_ALL_AXES
100
AcDbLine
 62
7
  6
CONTINUOUS
 10
12.6516998093
 20
5.1675874711
 11
12.6230404779
 21
5.1793257079
  0
LINE
  5
622
100
AcDbEntity
  8
02___PRT_ALL_AXES
100
AcDbLine
 62
7
  6
CONTINUOUS
 10
12.6516998093
 20
5.2640247644
 11
12.6230404779
 21
5.2757630012
  0
LINE
  5
623
100
AcDbEntity
  8
02___PRT_ALL_AXES
100
AcDbLine
 62
7
  6
CONTINUOUS
 10
12.6516998093
 20
5.3122434111
 11
12.6230404779
 21
5.3239816479
  0
LINE
  5
624
100
AcDbEntity
  8
02___PRT_ALL_AXES
100
AcDbLine
 62
7
  6
CONTINUOUS
 10
12.6449899329
 20
5.2184377312
 11
12.6230404779
 21
5.2275443546
  0
LWPOLYLINE
  5
625
100
AcDbEntity
  8
02___PRT_ALL_AXES
100
AcDbPolyline
 62
7
  6
CONTINUOUS
 90
5
 70
0
 10
12.4763896269
 20
5.3575250718
 10
12.4544622792
 20
5.3729078046
 10
12.4323820246
 20
5.3891817578
 10
12.4106808539
 20
5.4059120065
 10
12.3899196326
 20
5.4225684407
  0
LWPOLYLINE
  5
626
100
AcDbEntity
  8
02___PRT_ALL_AXES
100
AcDbPolyline
 62
7
  6
CONTINUOUS
 90
5
 70
0
 10
12.6230404779
 20
5.2669785438
 10
12.6450109737
 20
5.2515647668
 10
12.6671103673
 20
5.2352748661
 10
12.6888022781
 20
5.2185498627
 10
12.7095104722
 20
5.2019351749
  0
LWPOLYLINE
  5
627
100
AcDbEntity
  8
02___PRT_ALL_AXES
100
AcDbPolyline
 62
7
  6
CONTINUOUS
 90
4
 70
0
 10
12.4763896269
 20
5.2128691317
 10
12.4477379474
 20
5.2331260014
 10
12.4189000352
 20
5.2548359166
 10
12.3899196326
 20
5.2779125006
  0
LWPOLYLINE
  5
628
100
AcDbEntity
  8
02___PRT_ALL_AXES
100
AcDbPolyline
 62
7
  6
CONTINUOUS
 90
4
 70
0
 10
12.6230404779
 20
5.1223226037
 10
12.6517045945
 20
5.1020566519
 10
12.6805427464
 20
5.0803459945
 10
12.7095104722
 20
5.0572792348
  0
LWPOLYLINE
  5
629
100
AcDbEntity
  8
02___PRT_ALL_AXES
100
AcDbPolyline
 62
7
  6
CONTINUOUS
 90
4
 70
0
 10
12.4763896269
 20
5.2610877784
 10
12.4477308583
 20
5.2813498248
 10
12.4188922506
 20
5.3030605962
 10
12.3899196326
 20
5.3261311473
  0
LWPOLYLINE
  5
62A
100
AcDbEntity
  8
02___PRT_ALL_AXES
100
AcDbPolyline
 62
7
  6
CONTINUOUS
 90
4
 70
0
 10
12.6230404779
 20
5.1705412504
 10
12.6517045945
 20
5.1502752986
 10
12.6805427464
 20
5.1285646412
 10
12.7095104722
 20
5.1054978815
  0
LWPOLYLINE
  5
62B
100
AcDbEntity
  8
02___PRT_ALL_AXES
100
AcDbPolyline
 62
7
  6
CONTINUOUS
 90
4
 70
0
 10
12.4763896269
 20
5.3093064251
 10
12.4477308583
 20
5.3295684715
 10
12.4188922506
 20
5.3512792428
 10
12.3899196326
 20
5.374349794
  0
LWPOLYLINE
  5
62C
100
AcDbEntity
  8
02___PRT_ALL_AXES
100
AcDbPolyline
 62
7
  6
CONTINUOUS
 90
4
 70
0
 10
12.6230404779
 20
5.2187598971
 10
12.6517045945
 20
5.1984939453
 10
12.6805427464
 20
5.1767832879
 10
12.7095104722
 20
5.1537165282
  0
LINE
  5
62D
100
AcDbEntity
  8
02___PRT_ALL_AXES
100
AcDbLine
 62
7
  6
CONTINUOUS
 10
12.4763896269
 20
5.3005219676
 11
12.4422220593
 21
5.3337156993
  0
LINE
  5
62E
100
AcDbEntity
  8
02___PRT_ALL_AXES
100
AcDbLine
 62
7
  6
CONTINUOUS
 10
12.4763896269
 20
5.2523033209
 11
12.4449330631
 21
5.2834561087
  0
LINE
  5
62F
100
AcDbEntity
  8
02___PRT_ALL_AXES
100
AcDbLine
 62
7
  6
CONTINUOUS
 10
12.4763896269
 20
5.2040846742
 11
12.4454281241
 21
5.2348648953
  0
LINE
  5
630
100
AcDbEntity
  8
02___PRT_ALL_AXES
100
AcDbLine
 62
7
  6
CONTINUOUS
 10
12.4763896269
 20
5.1558660276
 11
12.4454620358
 21
5.1866205851
  0
LINE
  5
631
100
AcDbEntity
  8
02___PRT_ALL_AXES
100
AcDbLine
 62
7
  6
CONTINUOUS
 10
12.3617659849
 20
5.2307397995
 11
12.3899196326
 21
5.1814752072
  0
LWPOLYLINE
  5
632
100
AcDbEntity
  8
AXIS
100
AcDbPolyline
 62
7
  6
CONTINUOUS
 90
18
 70
0
 10
11.948255249
 20
6.6551373029
 10
11.9507537265
 20
6.6145964471
 10
11.9707397861
 20
6.534344758
 10
12.0103044623
 20
6.4565520568
 10
12.0686423321
 20
6.3828019784
 10
12.1445658049
 20
6.3145958618
 10
12.2365292977
 20
6.2533221868
 10
12.342660699
 20
6.2002283087
 10
12.4607994794
 20
6.1563950658
 10
12.5885406742
 20
6.1227147766
 10
12.7232838409
 20
6.0998730745
 10
12.8622859973
 20
6.0883349508
 10
13.0027174603
 20
6.0883352883
 10
13.1417194503
 20
6.0998740803
 10
13.2764622876
 20
6.1227164301
 10
13.4042029966
 20
6.1563973335
 10
13.5223411449
 20
6.2002311443
 10
13.6284717804
 20
6.2533255326
  0
LWPOLYLINE
  5
633
100
AcDbEntity
  8
AXIS
100
AcDbPolyline
 62
7
  6
CONTINUOUS
 90
7
 70
0
 10
11.948255249
 20
7.5198583667
 10
11.9507537265
 20
7.4793175109
 10
11.9707397861
 20
7.3990658219
 10
12.0103044623
 20
7.3212731206
 10
12.0686423321
 20
7.2475230422
 10
12.1445658049
 20
7.1793169256
 10
12.2365292977
 20
7.1180432506
  0
LWPOLYLINE
  5
634
100
AcDbEntity
  8
0
100
AcDbPolyline
 62
7
  6
CONTINUOUS
 90
7
 70
0
 10
11.9483299016
 20
7.5268834153
 10
11.9507537265
 20
7.4793175109
 10
11.9707397861
 20
7.3990658219
 10
12.0103044623
 20
7.3212731206
 10
12.0686423321
 20
7.2475230422
 10
12.1445658049
 20
7.1793169256
 10
12.2365292977
 20
7.1180432506
  0
LWPOLYLINE
  5
635
100
AcDbEntity
  8
0
100
AcDbPolyline
 62
9
  6
CONTINUOUS
 90
11
 70
0
 10
11.9530172814
 20
7.7465516625
 10
11.9551665252
 20
7.7014852615
 10
11.9632116408
 20
7.6578974121
 10
11.977091298
 20
7.6147713273
 10
11.9967339567
 20
7.5723672651
 10
12.0219401372
 20
7.5310776012
 10
12.0525695125
 20
7.4910767106
 10
12.0889293861
 20
7.4521036605
 10
12.1316362953
 20
7.4139235563
 10
12.1815624628
 20
7.3764311384
 10
12.2398505619
 20
7.3396740121
  0
LWPOLYLINE
  5
636
100
AcDbEntity
  8
02___PRT_ALL_AXES
100
AcDbPolyline
 62
9
  6
CONTINUOUS
 90
7
 70
0
 10
12.0466708698
 20
5.9672179395
 10
12.0472904621
 20
5.9480930197
 10
12.0621146402
 20
5.8721360012
 10
12.0963817362
 20
5.798302956
 10
12.14932628
 20
5.7282431924
 10
12.2197655777
 20
5.6635217298
 10
12.3061261321
 20
5.6055843387
  0
LINE
  5
637
100
AcDbEntity
  8
02___PRT_ALL_AXES
100
AcDbLine
 62
7
  6
CONTINUOUS
 10
11.9482456729
 20
6.6551372988
 11
11.9482456729
 21
6.4011857597
  0
LINE
  5
638
100
AcDbEntity
  8
AXIS
100
AcDbLine
 62
7
  6
CONTINUOUS
 10
11.9482456729
 20
6.6551372988
 11
11.9482456729
 21
7.5198583627
  0
LINE
  5
639
100
AcDbEntity
  8
02___PRT_ALL_AXES
100
AcDbLine
 62
7
  6
CONTINUOUS
 10
12.0466708698
 20
6.1473741985
 11
12.0466708698
 21
5.9672179395
  0
LINE
  5
63A
100
AcDbEntity
  8
0
100
AcDbLine
 62
7
  6
CONTINUOUS
 10
11.9483206429
 20
7.5268718919
 11
11.9530172814
 21
7.7465516626
  0
LINE
  5
63B
100
AcDbEntity
  8
02___PRT_ALL_AXES
100
AcDbLine
 62
7
  6
CONTINUOUS
 10
13.0701776461
 20
5.3294116929
 11
13.1574864078
 21
5.3470544023
  0
LWPOLYLINE
  5
63C
100
AcDbEntity
  8
02___PRT_ALL_AXES
100
AcDbPolyline
 62
7
  6
CONTINUOUS
 90
5
 70
0
 10
13.0751560246
 20
5.3259550434
 10
12.9983578352
 20
5.3163015464
 10
12.9198556343
 20
5.313010155
 10
12.8420935079
 20
5.3161476338
 10
12.7657171462
 20
5.3256610049
  0
LWPOLYLINE
  5
63D
100
AcDbEntity
  8
02___PRT_ALL_AXES
100
AcDbPolyline
 62
7
  6
CONTINUOUS
 90
5
 70
0
 10
12.7095104722
 20
5.3405637841
 10
12.7969237656
 20
5.3255125599
 10
12.8876597316
 20
5.3185369865
 10
12.9794945944
 20
5.319837497
 10
13.0701776461
 20
5.3294116929
  0
LWPOLYLINE
  5
63E
100
AcDbEntity
  8
02___PRT_ALL_AXES
100
AcDbPolyline
 62
7
  6
CONTINUOUS
 90
6
 70
0
 10
12.7095104722
 20
5.3465911149
 10
12.7969237656
 20
5.3315398908
 10
12.8876597316
 20
5.3245643173
 10
12.9794945944
 20
5.3258648278
 10
13.0701776461
 20
5.3354390237
 10
13.1574864078
 20
5.3530817331
  0
LWPOLYLINE
  5
63F
100
AcDbEntity
  8
02___PRT_ALL_AXES
100
AcDbPolyline
 62
7
  6
CONTINUOUS
 90
8
 70
0
 10
12.7095104722
 20
5.3887824308
 10
12.7969237656
 20
5.3737312066
 10
12.8876597316
 20
5.3667556332
 10
12.9794945944
 20
5.3680561437
 10
13.0701776461
 20
5.3776303396
 10
13.1574864078
 20
5.3952730489
 10
13.2392810982
 20
5.4205813552
 10
13.2604163078
 20
5.4297959623
  0
LWPOLYLINE
  5
640
100
AcDbEntity
  8
02___PRT_ALL_AXES
100
AcDbPolyline
 62
7
  6
CONTINUOUS
 90
7
 70
0
 10
12.7095104722
 20
5.3948097616
 10
12.7969237656
 20
5.3797585375
 10
12.8876597316
 20
5.372782964
 10
12.9794945944
 20
5.3740834745
 10
13.0701776461
 20
5.3836576704
 10
13.1574864078
 20
5.4013003798
 10
13.2211187688
 20
5.4209890328
  0
LWPOLYLINE
  5
641
100
AcDbEntity
  8
02___PRT_ALL_AXES
100
AcDbPolyline
 62
7
  6
CONTINUOUS
 90
3
 70
0
 10
12.7835664203
 20
5.3710581948
 10
12.700152721
 20
5.387636725
 10
12.6230404779
 20
5.4116344838
  0
LWPOLYLINE
  5
642
100
AcDbEntity
  8
02___PRT_ALL_AXES
100
AcDbPolyline
 62
7
  6
CONTINUOUS
 90
3
 70
0
 10
12.7657171462
 20
5.3256610049
 10
12.6919513073
 20
5.3415403976
 10
12.6230404779
 20
5.3634158371
  0
LWPOLYLINE
  5
643
100
AcDbEntity
  8
02___PRT_ALL_AXES
100
AcDbPolyline
 62
7
  6
CONTINUOUS
 90
3
 70
0
 10
12.670860398
 20
5.4139490928
 10
12.5525373027
 20
5.4429058631
 10
12.4410982959
 20
5.4827992657
  0
LWPOLYLINE
  5
644
100
AcDbEntity
  8
02___PRT_ALL_AXES
100
AcDbPolyline
 62
7
  6
CONTINUOUS
 90
5
 70
0
 10
12.3899196326
 20
5.4285957715
 10
12.4106071899
 20
5.4220265297
 10
12.4322888514
 20
5.4144907079
 10
12.4543940074
 20
5.4060842301
 10
12.4763896269
 20
5.396959261
  0
LWPOLYLINE
  5
645
100
AcDbEntity
  8
02___PRT_ALL_AXES
100
AcDbPolyline
 62
7
  6
CONTINUOUS
 90
3
 70
0
 10
12.7095104722
 20
5.3405637841
 10
12.6805286589
 20
5.3499351578
 10
12.6516930385
 20
5.360464678
  0
LWPOLYLINE
  5
646
100
AcDbEntity
  8
02___PRT_ALL_AXES
100
AcDbPolyline
 62
7
  6
CONTINUOUS
 90
4
 70
0
 10
12.3899196326
 20
5.4768144182
 10
12.4188892441
 20
5.4674472393
 10
12.4477251835
 20
5.4569181227
 10
12.4763896269
 20
5.4451779076
  0
LWPOLYLINE
  5
647
100
AcDbEntity
  8
02___PRT_ALL_AXES
100
AcDbPolyline
 62
7
  6
CONTINUOUS
 90
3
 70
0
 10
12.7095104722
 20
5.3887824308
 10
12.6805361558
 20
5.3981512271
 10
12.6516998093
 20
5.4086807045
  0
LINE
  5
648
100
AcDbEntity
  8
02___PRT_ALL_AXES
100
AcDbLine
 62
7
  6
CONTINUOUS
 10
12.6516930385
 20
5.360464678
 11
12.6230404779
 21
5.3722002946
  0
LINE
  5
649
100
AcDbEntity
  8
02___PRT_ALL_AXES
100
AcDbLine
 62
7
  6
CONTINUOUS
 10
12.6516998093
 20
5.4086807045
 11
12.6230404779
 21
5.4204189413
  0
LINE
  5
64A
100
AcDbEntity
  8
02___PRT_ALL_AXES
100
AcDbLine
 62
7
  6
CONTINUOUS
 10
12.4410982959
 20
5.4827992657
 11
12.3387422456
 21
5.5334920319
  0
LINE
  5
64B
100
AcDbEntity
  8
02___PRT_ALL_AXES
100
AcDbLine
 62
9
  6
CONTINUOUS
 10
12.4064787909
 20
5.5557252446
 11
12.3061261321
 21
5.6055843387
  0
LWPOLYLINE
  5
64C
100
AcDbEntity
  8
02___PRT_ALL_AXES
100
AcDbPolyline
 62
7
  6
CONTINUOUS
 90
7
 70
0
 10
12.3387422456
 20
5.5334920319
 10
12.2494795171
 20
5.5934467873
 10
12.175197435
 20
5.6613561463
 10
12.1178642452
 20
5.7347051822
 10
12.0778816029
 20
5.8109739605
 10
12.054408343
 20
5.8887424944
 10
12.0466708698
 20
5.9672179395
  0
LWPOLYLINE
  5
64D
100
AcDbEntity
  8
02___PRT_ALL_AXES
100
AcDbPolyline
 62
7
  6
CONTINUOUS
 90
4
 70
0
 10
12.4763896269
 20
5.4057437184
 10
12.4477308583
 20
5.4260057649
 10
12.4188922506
 20
5.4477165362
 10
12.3899196326
 20
5.4707870873
  0
LWPOLYLINE
  5
64E
100
AcDbEntity
  8
02___PRT_ALL_AXES
100
AcDbPolyline
 62
7
  6
CONTINUOUS
 90
4
 70
0
 10
12.6230404779
 20
5.3151971904
 10
12.6517045945
 20
5.2949312386
 10
12.6805427464
 20
5.2732205813
 10
12.7095104722
 20
5.2501538216
  0
LWPOLYLINE
  5
64F
100
AcDbEntity
  8
02___PRT_ALL_AXES
100
AcDbPolyline
 62
7
  6
CONTINUOUS
 90
3
 70
0
 10
12.4763896269
 20
5.4539623651
 10
12.4477308583
 20
5.4742244116
 10
12.4271933159
 20
5.4896858337
  0
LWPOLYLINE
  5
650
100
AcDbEntity
  8
02___PRT_ALL_AXES
100
AcDbPolyline
 62
7
  6
CONTINUOUS
 90
4
 70
0
 10
12.6230404779
 20
5.3634158371
 10
12.6517045945
 20
5.3431498853
 10
12.6805427464
 20
5.321439228
 10
12.7095104722
 20
5.2983724682
  0
LWPOLYLINE
  5
651
100
AcDbEntity
  8
02___PRT_ALL_AXES
100
AcDbPolyline
 62
7
  6
CONTINUOUS
 90
4
 70
0
 10
12.6230404779
 20
5.4116344838
 10
12.65169934
 20
5.3913723691
 10
12.6805369351
 20
5.3696623783
 10
12.7095104722
 20
5.3465911149
  0
LINE
  5
652
100
AcDbEntity
  8
02___PRT_ALL_AXES
100
AcDbLine
 62
7
  6
CONTINUOUS
 10
12.4763896269
 20
5.396959261
 11
12.4450777
 21
5.4280031607
  0
LINE
  5
653
100
AcDbEntity
  8
02___PRT_ALL_AXES
100
AcDbLine
 62
7
  6
CONTINUOUS
 10
12.4763896269
 20
5.4451779076
 11
12.445342268
 21
5.4760226307
  0
LINE
  5
654
100
AcDbEntity
  8
02___PRT_ALL_AXES
100
AcDbLine
 62
7
  6
CONTINUOUS
 10
12.4763896269
 20
5.3487406143
 11
12.4452693059
 21
5.3796833613
  0
LINE
  5
655
100
AcDbEntity
  8
02___PRT_ALL_AXES
100
AcDbLine
 62
7
  6
CONTINUOUS
 10
12.3617659849
 20
5.2789584462
 11
12.3899196326
 21
5.2296938539
  0
LINE
  5
656
100
AcDbEntity
  8
02___PRT_ALL_AXES
100
AcDbLine
 62
7
  6
CONTINUOUS
 10
12.3617659849
 20
5.2849857771
 11
12.3899196326
 21
5.2357211848
  0
LINE
  5
657
100
AcDbEntity
  8
02___PRT_ALL_AXES
100
AcDbLine
 62
7
  6
CONTINUOUS
 10
12.3617659849
 20
5.3271770929
 11
12.3899196326
 21
5.2779125006
  0
LINE
  5
658
100
AcDbEntity
  8
02___PRT_ALL_AXES
100
AcDbLine
 62
7
  6
CONTINUOUS
 10
12.3617659849
 20
5.4236143863
 11
12.3899196326
 21
5.374349794
  0
LINE
  5
659
100
AcDbEntity
  8
02___PRT_ALL_AXES
100
AcDbLine
 62
7
  6
CONTINUOUS
 10
12.3617659849
 20
5.4718330329
 11
12.3899196326
 21
5.4225684407
  0
LINE
  5
65A
100
AcDbEntity
  8
02___PRT_ALL_AXES
100
AcDbLine
 62
7
  6
CONTINUOUS
 10
12.3617659849
 20
5.5200516796
 11
12.3899196326
 21
5.4707870873
  0
LINE
  5
65B
100
AcDbEntity
  8
02___PRT_ALL_AXES
100
AcDbLine
 62
7
  6
CONTINUOUS
 10
12.3649460676
 20
5.5205143504
 11
12.3899196326
 21
5.4768144182
  0
LINE
  5
65C
100
AcDbEntity
  8
02___PRT_ALL_AXES
100
AcDbLine
 62
7
  6
CONTINUOUS
 10
12.3609333781
 20
5.3773999054
 11
12.3899196326
 21
5.3261311473
  0
LWPOLYLINE
  5
65D
100
AcDbEntity
  8
0
100
AcDbPolyline
 62
9
  6
CONTINUOUS
 90
4
 70
0
 10
12.4037544581
 20
5.1704587003
 10
12.4041934072
 20
5.1692834381
 10
12.4344251309
 20
5.1237236942
 10
12.4763896269
 20
5.0813463063
  0
LWPOLYLINE
  5
65E
100
AcDbEntity
  8
02___PRT_ALL_AXES
100
AcDbPolyline
 62
9
  6
CONTINUOUS
 90
3
 70
0
 10
11.9707397861
 20
6.2803932189
 10
11.9507537265
 20
6.3606449079
 10
11.9482456729
 20
6.4011857597
  0
LINE
  5
65F
100
AcDbEntity
  8
02___PRT_ALL_AXES
100
AcDbLine
 62
7
  6
CONTINUOUS
 10
11.9482456729
 20
6.6551372921
 11
11.9566666198
 21
6.5809634425
  0
LINE
  5
660
100
AcDbEntity
  8
02___PRT_ALL_AXES
100
AcDbLine
 62
7
  6
CONTINUOUS
 10
12.6887425042
 20
5.4113471222
 11
12.7095104722
 21
5.3948097616
  0
LINE
  5
661
100
AcDbEntity
  8
02___PRT_ALL_AXES
100
AcDbLine
 62
7
  6
CONTINUOUS
 10
11.9566666198
 20
6.5809634425
 11
11.9817843061
 21
6.5080610873
  0
LINE
  5
662
100
AcDbEntity
  8
02___PRT_ALL_AXES
100
AcDbLine
 62
7
  6
CONTINUOUS
 10
12.3475999467
 20
5.3301414243
 11
12.3617659849
 21
5.2789584462
  0
LINE
  5
663
100
AcDbEntity
  8
02___PRT_ALL_AXES
100
AcDbLine
 62
7
  6
CONTINUOUS
 10
12.3475999467
 20
5.3361687551
 11
12.3617659849
 21
5.2849857771
  0
LINE
  5
664
100
AcDbEntity
  8
02___PRT_ALL_AXES
100
AcDbLine
 62
7
  6
CONTINUOUS
 10
12.3475999467
 20
5.3783600709
 11
12.3617659849
 21
5.3271770929
  0
LWPOLYLINE
  5
665
100
AcDbEntity
  8
02___PRT_ALL_AXES
100
AcDbPolyline
 62
7
  6
CONTINUOUS
 90
3
 70
0
 10
12.3475999467
 20
5.3843874018
 10
12.3617659849
 20
5.3332044237
 10
12.3899196326
 20
5.2839398314
  0
LINE
  5
666
100
AcDbEntity
  8
02___PRT_ALL_AXES
100
AcDbLine
 62
7
  6
CONTINUOUS
 10
12.3475999467
 20
5.4747973643
 11
12.3617659849
 21
5.4236143863
  0
LWPOLYLINE
  5
667
100
AcDbEntity
  8
02___PRT_ALL_AXES
100
AcDbPolyline
 62
7
  6
CONTINUOUS
 90
3
 70
0
 10
12.3475999467
 20
5.4808246951
 10
12.3617659849
 20
5.4296417171
 10
12.3899196326
 20
5.3803771248
  0
LINE
  5
668
100
AcDbEntity
  8
02___PRT_ALL_AXES
100
AcDbLine
 62
7
  6
CONTINUOUS
 10
12.3475999467
 20
5.523016011
 11
12.3617659849
 21
5.4718330329
  0
LWPOLYLINE
  5
669
100
AcDbEntity
  8
02___PRT_ALL_AXES
100
AcDbPolyline
 62
7
  6
CONTINUOUS
 90
3
 70
0
 10
12.3475999467
 20
5.5290433418
 10
12.3617659849
 20
5.4778603638
 10
12.3899196326
 20
5.4285957715
  0
LINE
  5
66A
100
AcDbEntity
  8
02___PRT_ALL_AXES
100
AcDbLine
 62
7
  6
CONTINUOUS
 10
12.3611124393
 20
5.5224129897
 11
12.3617659849
 21
5.5200516796
  0
LINE
  5
66B
100
AcDbEntity
  8
02___PRT_ALL_AXES
100
AcDbLine
 62
7
  6
CONTINUOUS
 10
12.3470871727
 20
5.4306877273
 11
12.3609333781
 21
5.3773999054
  0
LWPOLYLINE
  5
66C
100
AcDbEntity
  8
02___PRT_ALL_AXES
100
AcDbPolyline
 62
7
  6
CONTINUOUS
 90
3
 70
0
 10
12.3470871727
 20
5.4367150582
 10
12.3609333781
 20
5.3834272362
 10
12.3899196326
 20
5.3321584781
  0
LWPOLYLINE
  5
66D
100
AcDbEntity
  8
02___PRT_ALL_AXES
100
AcDbPolyline
 62
7
  6
CONTINUOUS
 90
3
 70
0
 10
12.3458834682
 20
5.3072251811
 10
12.3475999467
 20
5.2819227776
 10
12.3617659849
 20
5.2307397995
  0
LWPOLYLINE
  5
66E
100
AcDbEntity
  8
02___PRT_ALL_AXES
100
AcDbPolyline
 62
7
  6
CONTINUOUS
 90
4
 70
0
 10
12.3458834682
 20
5.313252512
 10
12.3475999467
 20
5.2879501084
 10
12.3617659849
 20
5.2367671304
 10
12.3899196326
 20
5.1875025381
  0
LINE
  5
66F
100
AcDbEntity
  8
02___PRT_ALL_AXES
100
AcDbLine
 62
7
  6
CONTINUOUS
 10
12.3458834682
 20
5.3554438278
 11
12.3475999467
 21
5.3301414243
  0
LINE
  5
670
100
AcDbEntity
  8
02___PRT_ALL_AXES
100
AcDbLine
 62
7
  6
CONTINUOUS
 10
12.3458834682
 20
5.3614711587
 11
12.3475999467
 21
5.3361687551
  0
LINE
  5
671
100
AcDbEntity
  8
02___PRT_ALL_AXES
100
AcDbLine
 62
7
  6
CONTINUOUS
 10
12.3458834682
 20
5.4036624745
 11
12.3475999467
 21
5.3783600709
  0
LINE
  5
672
100
AcDbEntity
  8
02___PRT_ALL_AXES
100
AcDbLine
 62
7
  6
CONTINUOUS
 10
12.3458834682
 20
5.4096898053
 11
12.3475999467
 21
5.3843874018
  0
LINE
  5
673
100
AcDbEntity
  8
02___PRT_ALL_AXES
100
AcDbLine
 62
7
  6
CONTINUOUS
 10
12.3458834682
 20
5.5000997679
 11
12.3475999467
 21
5.4747973643
  0
LINE
  5
674
100
AcDbEntity
  8
02___PRT_ALL_AXES
100
AcDbLine
 62
7
  6
CONTINUOUS
 10
12.3458834682
 20
5.5061270987
 11
12.3475999467
 21
5.4808246951
  0
LINE
  5
675
100
AcDbEntity
  8
02___PRT_ALL_AXES
100
AcDbLine
 62
7
  6
CONTINUOUS
 10
12.3471725056
 20
5.5293168689
 11
12.3475999467
 21
5.523016011
  0
LINE
  5
676
100
AcDbEntity
  8
02___PRT_ALL_AXES
100
AcDbLine
 62
7
  6
CONTINUOUS
 10
12.3475956062
 20
5.5291073244
 11
12.3475999467
 21
5.5290433418
  0
LINE
  5
677
100
AcDbEntity
  8
02___PRT_ALL_AXES
100
AcDbLine
 62
7
  6
CONTINUOUS
 10
12.3458834682
 20
5.4518811212
 11
12.3470871727
 21
5.4306877273
  0
LINE
  5
678
100
AcDbEntity
  8
02___PRT_ALL_AXES
100
AcDbLine
 62
7
  6
CONTINUOUS
 10
12.3458834682
 20
5.457908452
 11
12.3470871727
 21
5.4367150582
  0
LWPOLYLINE
  5
679
100
AcDbEntity
  8
0
100
AcDbPolyline
 62
9
  6
CONTINUOUS
 90
14
 70
0
 10
13.51007736
 20
7.282803348
 10
13.5695943206
 20
7.3099904364
 10
13.6252874923
 20
7.3397564563
 10
13.6768215903
 20
7.3719222189
 10
13.7238882793
 20
7.4062953039
 10
13.7662056015
 20
7.4426701492
 10
13.8035184488
 20
7.4808278725
 10
13.8356020601
 20
7.5205387003
 10
13.8622633657
 20
7.5615632477
 10
13.8833436341
 20
7.603657099
 10
13.8987173544
 20
7.646572198
 10
13.90829041
 20
7.6900532359
 10
13.9120022761
 20
7.7338383311
 10
13.9119780014
 20
7.7465516625
  0
LINE
  5
67A
100
AcDbEntity
  8
02___PRT_ALL_AXES
100
AcDbLine
 62
7
  6
CONTINUOUS
 10
12.3484446552
 20
5.9292832987
 11
12.2446833261
 21
5.9813475709
  0
LWPOLYLINE
  5
67B
100
AcDbEntity
  8
02___PRT_ALL_AXES
100
AcDbPolyline
 62
7
  6
CONTINUOUS
 90
7
 70
0
 10
12.2446833261
 20
5.9813475709
 10
12.1567412113
 20
6.0394938358
 10
12.0826616081
 20
6.1043241349
 10
12.0239893186
 20
6.1745045733
 10
11.9818317167
 20
6.2483938947
 10
11.9566135404
 20
6.3243653278
 10
11.9482456729
 20
6.4011857597
  0
LWPOLYLINE
  5
67C
100
AcDbEntity
  8
02___PRT_ALL_AXES
100
AcDbPolyline
 62
9
  6
CONTINUOUS
 90
5
 70
0
 10
12.2365292977
 20
5.9993706476
 10
12.1445658049
 20
6.0606443226
 10
12.0686423321
 20
6.1288504392
 10
12.0103044623
 20
6.2026005176
 10
11.9707397861
 20
6.2803932189
  0
LINE
  5
67D
100
AcDbEntity
  8
02___PRT_ALL_AXES
100
AcDbLine
 62
7
  6
CONTINUOUS
 10
12.0231689611
 20
6.4376752468
 11
12.0801124819
 21
6.3710102424
  0
LINE
  5
67E
100
AcDbEntity
  8
02___PRT_ALL_AXES
100
AcDbLine
 62
7
  6
CONTINUOUS
 10
11.9817843061
 20
6.5080610873
 11
12.0231689611
 21
6.4376752468
  0
LWPOLYLINE
  5
67F
100
AcDbEntity
  8
0
100
AcDbPolyline
 62
7
  6
CONTINUOUS
 90
3
 70
0
 10
12.4763896269
 20
5.0813463063
 10
12.4778894226
 20
5.0721029966
 10
12.4822356877
 20
5.0652064323
  0
LINE
  5
680
100
AcDbEntity
  8
02___PRT_ALL_AXES
100
AcDbLine
 62
7
  6
CONTINUOUS
 10
12.3899196326
 20
5.1814752072
 11
12.3899196326
 21
5.1875025381
  0
LINE
  5
681
100
AcDbEntity
  8
02___PRT_ALL_AXES
100
AcDbLine
 62
7
  6
CONTINUOUS
 10
12.3899196326
 20
5.2296938539
 11
12.3899196326
 21
5.2357211848
  0
LINE
  5
682
100
AcDbEntity
  8
02___PRT_ALL_AXES
100
AcDbLine
 62
7
  6
CONTINUOUS
 10
12.3899196326
 20
5.2779125006
 11
12.3899196326
 21
5.2839398314
  0
LINE
  5
683
100
AcDbEntity
  8
02___PRT_ALL_AXES
100
AcDbLine
 62
7
  6
CONTINUOUS
 10
12.3899196326
 20
5.3261311473
 11
12.3899196326
 21
5.3321584781
  0
LINE
  5
684
100
AcDbEntity
  8
02___PRT_ALL_AXES
100
AcDbLine
 62
7
  6
CONTINUOUS
 10
12.3899196326
 20
5.374349794
 11
12.3899196326
 21
5.3803771248
  0
LINE
  5
685
100
AcDbEntity
  8
02___PRT_ALL_AXES
100
AcDbLine
 62
7
  6
CONTINUOUS
 10
12.3899196326
 20
5.4225684407
 11
12.3899196326
 21
5.4285957715
  0
LINE
  5
686
100
AcDbEntity
  8
02___PRT_ALL_AXES
100
AcDbLine
 62
7
  6
CONTINUOUS
 10
12.3899196326
 20
5.4707870873
 11
12.3899196326
 21
5.4768144182
  0
LINE
  5
687
100
AcDbEntity
  8
02___PRT_ALL_AXES
100
AcDbLine
 62
7
  6
CONTINUOUS
 10
12.4763896269
 20
5.4539623651
 11
12.4763896269
 21
5.4451779076
  0
LINE
  5
688
100
AcDbEntity
  8
02___PRT_ALL_AXES
100
AcDbLine
 62
7
  6
CONTINUOUS
 10
12.4763896269
 20
5.4057437184
 11
12.4763896269
 21
5.396959261
  0
LINE
  5
689
100
AcDbEntity
  8
02___PRT_ALL_AXES
100
AcDbLine
 62
7
  6
CONTINUOUS
 10
12.4763896269
 20
5.3575250718
 11
12.4763896269
 21
5.3487406143
  0
LINE
  5
68A
100
AcDbEntity
  8
02___PRT_ALL_AXES
100
AcDbLine
 62
7
  6
CONTINUOUS
 10
12.4763896269
 20
5.3093064251
 11
12.4763896269
 21
5.3005219676
  0
LINE
  5
68B
100
AcDbEntity
  8
02___PRT_ALL_AXES
100
AcDbLine
 62
7
  6
CONTINUOUS
 10
12.4763896269
 20
5.2610877784
 11
12.4763896269
 21
5.2523033209
  0
LINE
  5
68C
100
AcDbEntity
  8
02___PRT_ALL_AXES
100
AcDbLine
 62
7
  6
CONTINUOUS
 10
12.4763896269
 20
5.2128691317
 11
12.4763896269
 21
5.2040846742
  0
LINE
  5
68D
100
AcDbEntity
  8
02___PRT_ALL_AXES
100
AcDbLine
 62
7
  6
CONTINUOUS
 10
12.4763896269
 20
5.164650485
 11
12.4763896269
 21
5.1558660276
  0
LINE
  5
68E
100
AcDbEntity
  8
0
100
AcDbLine
 62
7
  6
CONTINUOUS
 10
12.4763896269
 20
5.1164318384
 11
12.4763896269
 21
5.0813463063
  0
LINE
  5
68F
100
AcDbEntity
  8
02___PRT_ALL_AXES
100
AcDbLine
 62
7
  6
CONTINUOUS
 10
12.3473481652
 20
5.5267274915
 11
12.3458834682
 21
5.5061270987
  0
LINE
  5
690
100
AcDbEntity
  8
02___PRT_ALL_AXES
100
AcDbLine
 62
7
  6
CONTINUOUS
 10
12.3473142844
 20
5.4298136768
 11
12.3458834682
 21
5.4096898053
  0
LINE
  5
691
100
AcDbEntity
  8
02___PRT_ALL_AXES
100
AcDbLine
 62
7
  6
CONTINUOUS
 10
12.3473481652
 20
5.3820715515
 11
12.3458834682
 21
5.3614711587
  0
LINE
  5
692
100
AcDbEntity
  8
02___PRT_ALL_AXES
100
AcDbLine
 62
7
  6
CONTINUOUS
 10
12.3473481652
 20
5.3338529048
 11
12.3458834682
 21
5.313252512
  0
LINE
  5
693
100
AcDbEntity
  8
02___PRT_ALL_AXES
100
AcDbLine
 62
7
  6
CONTINUOUS
 10
12.3474971291
 20
5.4763129865
 11
12.3458834682
 21
5.457908452
  0
LWPOLYLINE
  5
694
100
AcDbEntity
  8
02___PRT_ALL_AXES
100
AcDbPolyline
 62
7
  6
CONTINUOUS
 90
3
 70
0
 10
12.5861874696
 20
5.8532791885
 10
12.4629829011
 20
5.8863832382
 10
12.3484446552
 20
5.9292832987
  0
LINE
  5
695
100
AcDbEntity
  8
02___PRT_ALL_AXES
100
AcDbLine
 62
9
  6
CONTINUOUS
 10
12.5185818416
 20
5.8686616264
 11
12.4890022856
 21
5.8793920445
  0
LWPOLYLINE
  5
696
100
AcDbEntity
  8
02___PRT_ALL_AXES
100
AcDbPolyline
 62
7
  6
CONTINUOUS
 90
3
 70
0
 10
12.0801124819
 20
6.3710102424
 10
12.1516405491
 20
6.3092067306
 10
12.2365292977
 20
6.2533221868
  0
LWPOLYLINE
  5
697
100
AcDbEntity
  8
0
100
AcDbPolyline
 62
7
  6
CONTINUOUS
 90
4
 70
0
 10
12.6230404779
 20
4.9966793135
 10
12.6242800328
 20
4.9875862504
 10
12.6278697478
 20
4.9811264706
 10
12.6304170065
 20
4.9791051164
  0
LINE
  5
698
100
AcDbEntity
  8
02___PRT_ALL_AXES
100
AcDbLine
 62
7
  6
CONTINUOUS
 10
12.6230404779
 20
5.4204189413
 11
12.6230404779
 21
5.4116344838
  0
LINE
  5
699
100
AcDbEntity
  8
02___PRT_ALL_AXES
100
AcDbLine
 62
7
  6
CONTINUOUS
 10
12.6230404779
 20
5.3722002946
 11
12.6230404779
 21
5.3634158371
  0
LINE
  5
69A
100
AcDbEntity
  8
02___PRT_ALL_AXES
100
AcDbLine
 62
7
  6
CONTINUOUS
 10
12.6230404779
 20
5.3239816479
 11
12.6230404779
 21
5.3151971904
  0
LINE
  5
69B
100
AcDbEntity
  8
02___PRT_ALL_AXES
100
AcDbLine
 62
7
  6
CONTINUOUS
 10
12.6230404779
 20
5.2757630012
 11
12.6230404779
 21
5.2669785438
  0
LINE
  5
69C
100
AcDbEntity
  8
02___PRT_ALL_AXES
100
AcDbLine
 62
7
  6
CONTINUOUS
 10
12.6230404779
 20
5.2275443546
 11
12.6230404779
 21
5.2187598971
  0
LINE
  5
69D
100
AcDbEntity
  8
02___PRT_ALL_AXES
100
AcDbLine
 62
7
  6
CONTINUOUS
 10
12.6230404779
 20
5.1793257079
 11
12.6230404779
 21
5.1705412504
  0
LINE
  5
69E
100
AcDbEntity
  8
02___PRT_ALL_AXES
100
AcDbLine
 62
7
  6
CONTINUOUS
 10
12.6230404779
 20
5.1311070612
 11
12.6230404779
 21
5.1223226037
  0
LINE
  5
69F
100
AcDbEntity
  8
02___PRT_ALL_AXES
100
AcDbLine
 62
7
  6
CONTINUOUS
 10
12.6230404779
 20
5.0828884145
 11
12.6230404779
 21
5.074103957
  0
LINE
  5
6A0
100
AcDbEntity
  8
0
100
AcDbLine
 62
7
  6
CONTINUOUS
 10
12.6230404779
 20
5.0346697678
 11
12.6230404779
 21
4.9966793135
  0
LWPOLYLINE
  5
6A1
100
AcDbEntity
  8
02___PRT_ALL_AXES
100
AcDbPolyline
 62
7
  6
CONTINUOUS
 90
7
 70
0
 10
12.8249986873
 20
4.3663588702
 10
12.825271571
 20
4.3619309979
 10
12.8274544485
 20
4.3531659084
 10
12.8317757024
 20
4.3446693896
 10
12.8381473645
 20
4.336614406
 10
12.8464397262
 20
4.329164934
 10
12.8564839789
 20
4.3224726232
  0
LINE
  5
6A2
100
AcDbEntity
  8
02___PRT_ALL_AXES
100
AcDbLine
 62
7
  6
CONTINUOUS
 10
12.7095104722
 20
5.3948097616
 11
12.7095104722
 21
5.3887824308
  0
LINE
  5
6A3
100
AcDbEntity
  8
02___PRT_ALL_AXES
100
AcDbLine
 62
7
  6
CONTINUOUS
 10
12.7095104722
 20
5.3465911149
 11
12.7095104722
 21
5.3405637841
  0
LINE
  5
6A4
100
AcDbEntity
  8
02___PRT_ALL_AXES
100
AcDbLine
 62
7
  6
CONTINUOUS
 10
12.7095104722
 20
5.2983724682
 11
12.7095104722
 21
5.2923451374
  0
LINE
  5
6A5
100
AcDbEntity
  8
02___PRT_ALL_AXES
100
AcDbLine
 62
7
  6
CONTINUOUS
 10
12.7095104722
 20
5.2501538216
 11
12.7095104722
 21
5.2441264907
  0
LINE
  5
6A6
100
AcDbEntity
  8
02___PRT_ALL_AXES
100
AcDbLine
 62
7
  6
CONTINUOUS
 10
12.7095104722
 20
5.2019351749
 11
12.7095104722
 21
5.195907844
  0
LINE
  5
6A7
100
AcDbEntity
  8
02___PRT_ALL_AXES
100
AcDbLine
 62
7
  6
CONTINUOUS
 10
12.7095104722
 20
5.1537165282
 11
12.7095104722
 21
5.1476891974
  0
LINE
  5
6A8
100
AcDbEntity
  8
02___PRT_ALL_AXES
100
AcDbLine
 62
7
  6
CONTINUOUS
 10
12.7095104722
 20
5.1054978815
 11
12.7095104722
 21
5.0994705507
  0
LINE
  5
6A9
100
AcDbEntity
  8
02___PRT_ALL_AXES
100
AcDbLine
 62
7
  6
CONTINUOUS
 10
12.7095104722
 20
5.0572792348
 11
12.7095104722
 21
5.051251904
  0
LINE
  5
6AA
100
AcDbEntity
  8
02___PRT_ALL_AXES
100
AcDbLine
 62
7
  6
CONTINUOUS
 10
12.7095104722
 20
5.0090605882
 11
12.7095104722
 21
5.0030332573
  0
LWPOLYLINE
  5
6AB
100
AcDbEntity
  8
AXIS
100
AcDbPolyline
 62
7
  6
CONTINUOUS
 90
7
 70
0
 10
13.6284717804
 20
7.1180465964
 10
13.7204343894
 20
7.1793207135
 10
13.7963568785
 20
7.2475271951
 10
13.8546936847
 20
7.321277554
 10
13.8942572388
 20
7.3990704454
 10
13.9142421411
 20
7.4793222305
 10
13.9167400338
 20
7.5198583586
  0
LWPOLYLINE
  5
6AC
100
AcDbEntity
  8
0
100
AcDbPolyline
 62
9
  6
CONTINUOUS
 90
8
 70
0
 10
12.0538810177
 20
7.6879650348
 10
12.0719459699
 20
7.6489688334
 10
12.0951273545
 20
7.6109975305
 10
12.1232961968
 20
7.5742113932
 10
12.1567352212
 20
7.5383703844
 10
12.196011558
 20
7.5032585079
 10
12.2419273852
 20
7.468778941
 10
12.2955195494
 20
7.4349838122
  0
LINE
  5
6AD
100
AcDbEntity
  8
02___PRT_ALL_AXES
100
AcDbLine
 62
7
  6
CONTINUOUS
 10
12.8249976414
 20
4.3663588697
 11
12.8249976414
 21
4.9324337012
  0
LINE
  5
6AE
100
AcDbEntity
  8
02___PRT_ALL_AXES
100
AcDbLine
 62
7
  6
CONTINUOUS
 10
13.0399976414
 20
4.3663588697
 11
13.0399976414
 21
4.9323930986
  0
LINE
  5
6AF
100
AcDbEntity
  8
0
100
AcDbLine
 62
9
  6
CONTINUOUS
 10
13.7875388275
 20
7.6390429879
 11
13.8069245326
 21
7.6777541496
  0
LWPOLYLINE
  5
6B0
100
AcDbEntity
  8
0
100
AcDbPolyline
 62
9
  6
CONTINUOUS
 90
14
 70
0
 10
13.8069245326
 20
7.6777541496
 10
13.821062222
 20
7.7172205429
 10
13.8298653453
 20
7.7572073711
 10
13.8332782452
 20
7.7974737922
 10
13.831278676
 20
7.837771923
 10
13.8238793219
 20
7.8778568808
 10
13.8111142651
 20
7.9175171449
 10
13.793049313
 20
7.9565133463
 10
13.7698679284
 20
7.9944846492
 10
13.7416990861
 20
8.0312707865
 10
13.7082600616
 20
8.0671117953
 10
13.6689837249
 20
8.1022236718
 10
13.6230678976
 20
8.1367032387
 10
13.5694757335
 20
8.1704983675
  0
LWPOLYLINE
  5
6B1
100
AcDbEntity
  8
AXIS
100
AcDbPolyline
 62
7
  6
CONTINUOUS
 90
7
 70
0
 10
13.6284717804
 20
6.2533255326
 10
13.7204343894
 20
6.3145996497
 10
13.7963568785
 20
6.3828061313
 10
13.8546936847
 20
6.4565564902
 10
13.8942572388
 20
6.5343493816
 10
13.9142421411
 20
6.6146011667
 10
13.9167400338
 20
6.6551372948
  0
LWPOLYLINE
  5
6B2
100
AcDbEntity
  8
02___PRT_ALL_AXES
100
AcDbPolyline
 62
7
  6
CONTINUOUS
 90
13
 70
0
 10
13.6284717804
 20
6.2533255326
 10
13.5316755273
 20
6.2043156914
 10
13.4246271745
 20
6.1630195329
 10
13.309158349
 20
6.1301436458
 10
13.1872447543
 20
6.1062505457
 10
13.0609723658
 20
6.0917490501
 10
12.9325017393
 20
6.0868872836
 10
12.8040310426
 20
6.0917484325
 10
12.677758445
 20
6.106249321
 10
12.5558445057
 20
6.1301418351
 10
12.440375206
 20
6.163017167
 10
12.3333262576
 20
6.2043128109
 10
12.2365292977
 20
6.2533221868
  0
LWPOLYLINE
  5
6B3
100
AcDbEntity
  8
0
100
AcDbPolyline
 62
7
  6
CONTINUOUS
 90
17
 70
0
 10
12.2365292977
 20
7.1180432506
 10
12.342660699
 20
7.0649493725
 10
12.4607994794
 20
7.0211161297
 10
12.5885406742
 20
6.9874358404
 10
12.7232838409
 20
6.9645941383
 10
12.8622859973
 20
6.9530560146
 10
13.0027174603
 20
6.9530563521
 10
13.1417194503
 20
6.9645951441
 10
13.2764622876
 20
6.987437494
 10
13.4042029966
 20
7.0211183973
 10
13.5223411449
 20
7.0649522081
 10
13.6284717804
 20
7.1180465964
 10
13.7204343894
 20
7.1793207135
 10
13.7963568785
 20
7.2475271951
 10
13.8546936847
 20
7.321277554
 10
13.8942572388
 20
7.3990704454
 10
13.9142421411
 20
7.4793222305
  0
LWPOLYLINE
  5
6B4
100
AcDbEntity
  8
AXIS
100
AcDbPolyline
 62
7
  6
CONTINUOUS
 90
12
 70
0
 10
12.2365292977
 20
7.1180432506
 10
12.342660699
 20
7.0649493725
 10
12.4607994794
 20
7.0211161297
 10
12.5885406742
 20
6.9874358404
 10
12.7232838409
 20
6.9645941383
 10
12.8622859973
 20
6.9530560146
 10
13.0027174603
 20
6.9530563521
 10
13.1417194503
 20
6.9645951441
 10
13.2764622876
 20
6.987437494
 10
13.4042029966
 20
7.0211183973
 10
13.5223411449
 20
7.0649522081
 10
13.6284717804
 20
7.1180465964
  0
LINE
  5
6B5
100
AcDbEntity
  8
02___PRT_ALL_AXES
100
AcDbLine
 62
7
  6
CONTINUOUS
 10
13.5191118147
 20
5.3373618353
 11
13.5177120903
 21
5.3589527124
  0
LINE
  5
6B6
100
AcDbEntity
  8
02___PRT_ALL_AXES
100
AcDbLine
 62
7
  6
CONTINUOUS
 10
13.5191118147
 20
5.385580482
 11
13.5177120903
 21
5.4071713591
  0
LINE
  5
6B7
100
AcDbEntity
  8
02___PRT_ALL_AXES
100
AcDbLine
 62
7
  6
CONTINUOUS
 10
13.5191118147
 20
5.4337991287
 11
13.5177120903
 21
5.4553900058
  0
LINE
  5
6B8
100
AcDbEntity
  8
02___PRT_ALL_AXES
100
AcDbLine
 62
7
  6
CONTINUOUS
 10
13.5191118147
 20
5.4820177754
 11
13.5177120903
 21
5.5036086524
  0
LINE
  5
6B9
100
AcDbEntity
  8
02___PRT_ALL_AXES
100
AcDbLine
 62
7
  6
CONTINUOUS
 10
13.8418294581
 20
6.4376796183
 11
13.7848868988
 21
6.3710143401
  0
LWPOLYLINE
  5
6BA
100
AcDbEntity
  8
02___PRT_ALL_AXES
100
AcDbPolyline
 62
7
  6
CONTINUOUS
 90
3
 70
0
 10
13.7848868988
 20
6.3710143401
 10
13.7133597229
 20
6.3092104845
 10
13.6284717804
 20
6.2533255326
  0
LWPOLYLINE
  5
6BB
100
AcDbEntity
  8
02___PRT_ALL_AXES
100
AcDbPolyline
 62
9
  6
CONTINUOUS
 90
8
 70
0
 10
13.395777367
 20
5.8853418922
 10
13.2867360827
 20
5.8520693357
 10
13.161770043
 20
5.8268232707
 10
13.0316824367
 20
5.8126123064
 10
12.899379206
 20
5.8097538923
 10
12.7678157864
 20
5.8183118806
 10
12.6399310873
 20
5.8380951001
 10
12.5185818416
 20
5.8686616264
  0
LWPOLYLINE
  5
6BC
100
AcDbEntity
  8
0
100
AcDbPolyline
 62
9
  6
CONTINUOUS
 90
19
 70
0
 10
12.2398505619
 20
7.3396740121
 10
12.303592022
 20
7.3059859556
 10
12.3686101576
 20
7.2771358396
 10
12.4348089506
 20
7.2524667003
 10
12.5023653863
 20
7.2314731734
 10
12.5716820295
 20
7.2137971501
 10
12.6432194274
 20
7.1992565662
 10
12.7166853496
 20
7.1879295403
 10
12.7913978799
 20
7.1799312613
 10
12.8669054454
 20
7.175302667
 10
12.9428127119
 20
7.1740647177
 10
13.0186579914
 20
7.1762253164
 10
13.0939737975
 20
7.1817703522
 10
13.1683084286
 20
7.1906650013
 10
13.241217494
 20
7.2028546424
 10
13.3122641552
 20
7.2182649024
 10
13.3810258688
 20
7.2368030377
 10
13.4470950886
 20
7.2583587089
 10
13.51007736
 20
7.282803348
  0
LINE
  5
6BD
100
AcDbEntity
  8
02___PRT_ALL_AXES
100
AcDbLine
 62
7
  6
CONTINUOUS
 10
13.5172265806
 20
5.5024904957
 11
13.5191118147
 21
5.530236422
  0
LINE
  5
6BE
100
AcDbEntity
  8
02___PRT_ALL_AXES
100
AcDbLine
 62
7
  6
CONTINUOUS
 10
13.5172265806
 20
5.454271849
 11
13.5191118147
 21
5.4820177754
  0
LINE
  5
6BF
100
AcDbEntity
  8
02___PRT_ALL_AXES
100
AcDbLine
 62
7
  6
CONTINUOUS
 10
13.5172265806
 20
5.4060532024
 11
13.5191118147
 21
5.4337991287
  0
LINE
  5
6C0
100
AcDbEntity
  8
02___PRT_ALL_AXES
100
AcDbLine
 62
7
  6
CONTINUOUS
 10
13.5172265806
 20
5.3578345557
 11
13.5191118147
 21
5.385580482
  0
LINE
  5
6C1
100
AcDbEntity
  8
02___PRT_ALL_AXES
100
AcDbLine
 62
7
  6
CONTINUOUS
 10
13.5172265806
 20
5.309615909
 11
13.5191118147
 21
5.3373618353
  0
LINE
  5
6C2
100
AcDbEntity
  8
02___PRT_ALL_AXES
100
AcDbLine
 62
7
  6
CONTINUOUS
 10
13.5027271671
 20
5.4971512975
 11
13.5106710117
 21
5.5264942222
  0
LINE
  5
6C3
100
AcDbEntity
  8
02___PRT_ALL_AXES
100
AcDbLine
 62
7
  6
CONTINUOUS
 10
13.5027271671
 20
5.4911239667
 11
13.5121913303
 21
5.5260826349
  0
LINE
  5
6C4
100
AcDbEntity
  8
02___PRT_ALL_AXES
100
AcDbLine
 62
7
  6
CONTINUOUS
 10
13.883213098
 20
6.5080656578
 11
13.8418294581
 21
6.4376796183
  0
LWPOLYLINE
  5
6C5
100
AcDbEntity
  8
0
100
AcDbPolyline
 62
9
  6
CONTINUOUS
 90
27
 70
0
 10
12.2955195494
 20
7.4349838122
 10
12.3541282636
 20
7.4040080098
 10
12.413921563
 20
7.377475585
 10
12.4748004927
 20
7.3547883217
 10
12.5369278504
 20
7.3354814392
 10
12.6006738366
 20
7.3192255463
 10
12.6664620775
 20
7.3058531636
 10
12.7340239318
 20
7.2954361042
 10
12.8027322878
 20
7.288080306
 10
12.8721718316
 20
7.2838234233
 10
12.9419789921
 20
7.2826847339
 10
13.01172918
 20
7.2846715074
 10
13.0809924687
 20
7.2897707687
 10
13.1493534469
 20
7.2979504934
 10
13.2164034279
 20
7.3091604502
 10
13.2817406698
 20
7.3233322423
 10
13.3449765772
 20
7.3403805787
 10
13.4057363461
 20
7.3602039854
 10
13.4636572076
 20
7.3826842221
 10
13.5183911979
 20
7.407686541
 10
13.5696086413
 20
7.435060561
 10
13.6170011925
 20
7.4646414895
 10
13.660285291
 20
7.496252365
 10
13.6992016346
 20
7.5297041402
 10
13.7335156142
 20
7.5647955178
 10
13.7630205299
 20
7.6013151844
 10
13.7875388275
 20
7.6390429879
  0
LINE
  5
6C6
100
AcDbEntity
  8
02___PRT_ALL_AXES
100
AcDbLine
 62
7
  6
CONTINUOUS
 10
13.8183244131
 20
6.1470311508
 11
13.8183244131
 21
5.9672179395
  0
LWPOLYLINE
  5
6C7
100
AcDbEntity
  8
02___PRT_ALL_AXES
100
AcDbPolyline
 62
9
  6
CONTINUOUS
 90
16
 70
0
 10
13.8183244131
 20
5.9672179395
 10
13.8127549332
 20
5.9099586217
 10
13.7881415523
 20
5.8348534626
 10
13.7444145004
 20
5.7627051071
 10
13.6825505675
 20
5.6951252304
 10
13.6039316916
 20
5.6336234552
 10
13.5103140886
 20
5.5795736295
 10
13.4037890209
 20
5.5341831372
 10
13.2867360827
 20
5.4984659268
 10
13.161770043
 20
5.4732198617
 10
13.0316824367
 20
5.4590088974
 10
12.899379206
 20
5.4561504833
 10
12.7678157864
 20
5.4647084717
 10
12.6399310873
 20
5.4844916912
 10
12.5185818416
 20
5.5150582174
 10
12.4064787909
 20
5.5557252446
  0
LWPOLYLINE
  5
6C8
100
AcDbEntity
  8
02___PRT_ALL_AXES
100
AcDbPolyline
 62
7
  6
CONTINUOUS
 90
6
 70
0
 10
13.8183244131
 20
5.9672179395
 10
13.810203454
 20
5.8868327611
 10
13.7852713324
 20
5.8065383208
 10
13.7425958099
 20
5.7278151415
 10
13.681672229
 20
5.6527818933
 10
13.6033475908
 20
5.5841407228
  0
LINE
  5
6C9
100
AcDbEntity
  8
02___PRT_ALL_AXES
100
AcDbLine
 62
7
  6
CONTINUOUS
 10
13.5027271671
 20
5.4489326508
 11
13.5172265806
 21
5.5024904957
  0
LWPOLYLINE
  5
6CA
100
AcDbEntity
  8
02___PRT_ALL_AXES
100
AcDbPolyline
 62
7
  6
CONTINUOUS
 90
3
 70
0
 10
13.5027271671
 20
5.44290532
 10
13.5172265806
 20
5.4964631649
 10
13.5191118147
 20
5.5242090912
  0
LINE
  5
6CB
100
AcDbEntity
  8
02___PRT_ALL_AXES
100
AcDbLine
 62
7
  6
CONTINUOUS
 10
13.5027271671
 20
5.4007140041
 11
13.5172265806
 21
5.454271849
  0
LWPOLYLINE
  5
6CC
100
AcDbEntity
  8
02___PRT_ALL_AXES
100
AcDbPolyline
 62
7
  6
CONTINUOUS
 90
3
 70
0
 10
13.5027271671
 20
5.3946866733
 10
13.5172265806
 20
5.4482445182
 10
13.5191118147
 20
5.4759904445
  0
LINE
  5
6CD
100
AcDbEntity
  8
02___PRT_ALL_AXES
100
AcDbLine
 62
7
  6
CONTINUOUS
 10
13.5027271671
 20
5.3524953575
 11
13.5172265806
 21
5.4060532024
  0
LWPOLYLINE
  5
6CE
100
AcDbEntity
  8
02___PRT_ALL_AXES
100
AcDbPolyline
 62
7
  6
CONTINUOUS
 90
3
 70
0
 10
13.5027271671
 20
5.3464680266
 10
13.5172265806
 20
5.4000258715
 10
13.5191118147
 20
5.4277717978
  0
LINE
  5
6CF
100
AcDbEntity
  8
02___PRT_ALL_AXES
100
AcDbLine
 62
7
  6
CONTINUOUS
 10
13.5027271671
 20
5.3042767108
 11
13.5172265806
 21
5.3578345557
  0
LWPOLYLINE
  5
6D0
100
AcDbEntity
  8
02___PRT_ALL_AXES
100
AcDbPolyline
 62
7
  6
CONTINUOUS
 90
3
 70
0
 10
13.5027271671
 20
5.2982493799
 10
13.5172265806
 20
5.3518072248
 10
13.5191118147
 20
5.3795531512
  0
LINE
  5
6D1
100
AcDbEntity
  8
02___PRT_ALL_AXES
100
AcDbLine
 62
7
  6
CONTINUOUS
 10
13.9083297328
 20
6.5809681337
 11
13.883213098
 21
6.5080656578
  0
LINE
  5
6D2
100
AcDbEntity
  8
02___PRT_ALL_AXES
100
AcDbLine
 62
7
  6
CONTINUOUS
 10
13.4767631851
 20
5.4913666395
 11
13.4890928278
 21
5.5145089077
  0
LINE
  5
6D3
100
AcDbEntity
  8
02___PRT_ALL_AXES
100
AcDbLine
 62
7
  6
CONTINUOUS
 10
13.4742524505
 20
5.439514174
 11
13.5027271671
 21
5.4911239667
  0
LINE
  5
6D4
100
AcDbEntity
  8
0
100
AcDbLine
 62
7
  6
CONTINUOUS
 10
13.91667464
 20
7.5268718919
 11
13.9119780014
 21
7.7465516626
  0
LINE
  5
6D5
100
AcDbEntity
  8
02___PRT_ALL_AXES
100
AcDbLine
 62
7
  6
CONTINUOUS
 10
13.9167496099
 20
6.6551372988
 11
13.9167496099
 21
6.4011857597
  0
LINE
  5
6D6
100
AcDbEntity
  8
AXIS
100
AcDbLine
 62
7
  6
CONTINUOUS
 10
13.9167496099
 20
6.6551372988
 11
13.9167496099
 21
7.5198583627
  0
LINE
  5
6D7
100
AcDbEntity
  8
0
100
AcDbLine
 62
7
  6
CONTINUOUS
 10
13.9142421411
 20
7.4793222305
 11
13.9166653807
 21
7.5268834079
  0
LINE
  5
6D8
100
AcDbEntity
  8
02___PRT_ALL_AXES
100
AcDbLine
 62
9
  6
CONTINUOUS
 10
13.9167496099
 20
6.4011857597
 11
13.9142421411
 21
6.3606496275
  0
LWPOLYLINE
  5
6D9
100
AcDbEntity
  8
02___PRT_ALL_AXES
100
AcDbPolyline
 62
7
  6
CONTINUOUS
 90
15
 70
0
 10
13.9167496099
 20
6.4011857597
 10
13.9077170658
 20
6.3213878657
 10
13.8804119774
 20
6.2423839878
 10
13.8349599306
 20
6.1660428069
 10
13.7718097756
 20
6.0938725824
 10
13.6922935806
 20
6.0277049083
 10
13.5981863298
 20
5.9689667158
 10
13.4915556021
 20
5.9187706423
 10
13.3746146538
 20
5.8779556311
 10
13.249529061
 20
5.8471172819
 10
13.1186871316
 20
5.8267338229
 10
12.9844881989
 20
5.8171026408
 10
12.8493617881
 20
5.8183613782
 10
12.7157985019
 20
5.8304822267
 10
12.5861874696
 20
5.8532791885
  0
LINE
  5
6DA
100
AcDbEntity
  8
02___PRT_ALL_AXES
100
AcDbLine
 62
7
  6
CONTINUOUS
 10
13.9167496099
 20
6.6551373056
 11
13.9083297328
 21
6.5809681337
  0
LWPOLYLINE
  5
6DB
100
AcDbEntity
  8
02___PRT_ALL_AXES
100
AcDbPolyline
 62
9
  6
CONTINUOUS
 90
17
 70
0
 10
13.9142421411
 20
6.3606496275
 10
13.8942572388
 20
6.2803978424
 10
13.8546936847
 20
6.202604951
 10
13.7963568785
 20
6.1288545921
 10
13.7204343894
 20
6.0606481105
 10
13.6284717804
 20
5.9993739934
 10
13.5223411449
 20
5.9462796051
 10
13.4042029966
 20
5.9024457943
 10
13.2764622876
 20
5.868764891
 10
13.1417194503
 20
5.8459225411
 10
13.0027174603
 20
5.8343837491
 10
12.8622859973
 20
5.8343834116
 10
12.7232838409
 20
5.8459215353
 10
12.5885406742
 20
5.8687632374
 10
12.4607994794
 20
5.9024435267
 10
12.342660699
 20
5.9462767695
 10
12.2365292977
 20
5.9993706476
  0
LWPOLYLINE
  5
6DC
100
AcDbEntity
  8
0
100
AcDbPolyline
 62
7
  6
CONTINUOUS
 90
13
 70
0
 10
13.4731924813
 20
5.1971915324
 10
13.4548797631
 20
5.1517487965
 10
13.4185310756
 20
5.1003645247
 10
13.3681441075
 20
5.0532111897
 10
13.3055073355
 20
5.012125189
 10
13.2328043609
 20
4.9782819008
 10
13.1522594882
 20
4.9523989512
 10
13.0661303688
 20
4.9349457609
 10
12.9766557758
 20
4.9262058231
 10
12.8861108207
 20
4.9263151821
 10
12.7967807648
 20
4.9352587137
 10
12.7109345197
 20
4.9528687984
 10
12.6318779823
 20
4.9784037523
  0
LINE
  5
6DD
100
AcDbEntity
  8
02___PRT_ALL_AXES
100
AcDbLine
 62
7
  6
CONTINUOUS
 10
13.4742524505
 20
5.3912955273
 11
13.5027271671
 21
5.44290532
  0
LINE
  5
6DE
100
AcDbEntity
  8
02___PRT_ALL_AXES
100
AcDbLine
 62
7
  6
CONTINUOUS
 10
13.4742524505
 20
5.3430768806
 11
13.5027271671
 21
5.3946866733
  0
LINE
  5
6DF
100
AcDbEntity
  8
02___PRT_ALL_AXES
100
AcDbLine
 62
7
  6
CONTINUOUS
 10
13.4742524505
 20
5.2526669181
 11
13.5027271671
 21
5.3042767108
  0
LINE
  5
6E0
100
AcDbEntity
  8
02___PRT_ALL_AXES
100
AcDbLine
 62
7
  6
CONTINUOUS
 10
13.4742524505
 20
5.2466395873
 11
13.5027271671
 21
5.2982493799
  0
LWPOLYLINE
  5
6E1
100
AcDbEntity
  8
02___PRT_ALL_AXES
100
AcDbPolyline
 62
7
  6
CONTINUOUS
 90
9
 70
0
 10
13.6033475908
 20
5.5841407228
 10
13.5094887649
 20
5.524063728
 10
13.4039259139
 20
5.4746110323
 10
13.2898006325
 20
5.4363812519
 10
13.1695342497
 20
5.4094284814
 10
13.0452740492
 20
5.3937338457
 10
12.9194018309
 20
5.3892930455
 10
12.7938890083
 20
5.3960475755
 10
12.670860398
 20
5.4139490928
  0
LWPOLYLINE
  5
6E2
100
AcDbEntity
  8
02___PRT_ALL_AXES
100
AcDbPolyline
 62
7
  6
CONTINUOUS
 90
4
 70
0
 10
13.2572286663
 20
5.3801875558
 10
13.2331347273
 20
5.3690341374
 10
13.156797139
 20
5.3438596515
 10
13.0751560246
 20
5.3259550434
  0
LWPOLYLINE
  5
6E3
100
AcDbEntity
  8
02___PRT_ALL_AXES
100
AcDbPolyline
 62
7
  6
CONTINUOUS
 90
5
 70
0
 10
13.2392810982
 20
5.3723627085
 10
13.3135570762
 20
5.404745825
 10
13.3784939707
 20
5.443439574
 10
13.4325002948
 20
5.4875251159
 10
13.4331830778
 20
5.4883170436
  0
LWPOLYLINE
  5
6E4
100
AcDbEntity
  8
02___PRT_ALL_AXES
100
AcDbPolyline
 62
7
  6
CONTINUOUS
 90
3
 70
0
 10
13.2421896385
 20
5.3256209744
 10
13.2166902939
 20
5.3146021037
 10
13.1371652895
 20
5.2905552497
  0
LWPOLYLINE
  5
6E5
100
AcDbEntity
  8
02___PRT_ALL_AXES
100
AcDbPolyline
 62
7
  6
CONTINUOUS
 90
7
 70
0
 10
13.2599781286
 20
5.4296977624
 10
13.2158061155
 20
5.4107185031
 10
13.1362646815
 20
5.3867716318
 10
13.0501101172
 20
5.3703003771
 10
12.9603745791
 20
5.3621166894
 10
12.8706966975
 20
5.3624654823
 10
12.7835664203
 20
5.3710581948
  0
LWPOLYLINE
  5
6E6
100
AcDbEntity
  8
02___PRT_ALL_AXES
100
AcDbPolyline
 62
7
  6
CONTINUOUS
 90
5
 70
0
 10
13.1574864078
 20
5.3530817331
 10
13.2392810982
 20
5.3783900394
 10
13.3135570762
 20
5.4107731558
 10
13.3784939707
 20
5.4494669049
 10
13.416529387
 20
5.4805153416
  0
LINE
  5
6E7
100
AcDbEntity
  8
02___PRT_ALL_AXES
100
AcDbLine
 62
7
  6
CONTINUOUS
 10
13.1574864078
 20
5.3470544023
 11
13.2392810982
 21
5.3723627085
  0
LWPOLYLINE
  5
6E8
100
AcDbEntity
  8
02___PRT_ALL_AXES
100
AcDbPolyline
 62
7
  6
CONTINUOUS
 90
7
 70
0
 10
13.2377942911
 20
5.1308094383
 10
13.2176338018
 20
5.1220713971
 10
13.1380473157
 20
5.0978980541
 10
13.0518422944
 20
5.081233304
 10
12.9619779903
 20
5.0728753959
 10
12.8720862032
 20
5.0730835796
 10
12.7850256684
 20
5.0815322202
  0
LWPOLYLINE
  5
6E9
100
AcDbEntity
  8
02___PRT_ALL_AXES
100
AcDbPolyline
 62
7
  6
CONTINUOUS
 90
7
 70
0
 10
13.237347721
 20
5.2271085572
 10
13.2162454973
 20
5.2180032163
 10
13.1368796043
 20
5.1940477644
 10
13.0517567
 20
5.1776584208
 10
12.9627328422
 20
5.1693468574
 10
12.8733096893
 20
5.1694609172
 10
12.7859248898
 20
5.1778388177
  0
LWPOLYLINE
  5
6EA
100
AcDbEntity
  8
02___PRT_ALL_AXES
100
AcDbPolyline
 62
7
  6
CONTINUOUS
 90
7
 70
0
 10
13.2799811983
 20
5.2936699958
 10
13.2164681348
 20
5.2663027053
 10
13.1368523539
 20
5.2422597213
 10
13.0506158909
 20
5.2257155671
 10
12.960770662
 20
5.2174779342
 10
12.87095728
 20
5.217796254
 10
12.7838173593
 20
5.2263652615
  0
LWPOLYLINE
  5
6EB
100
AcDbEntity
  8
02___PRT_ALL_AXES
100
AcDbPolyline
 62
7
  6
CONTINUOUS
 90
7
 70
0
 10
13.2804465463
 20
5.1974355866
 10
13.2153365611
 20
5.1694553891
 10
13.1357435368
 20
5.1455510545
 10
13.0503960324
 20
5.1292473182
 10
12.9623322798
 20
5.1211100046
 10
12.8738336481
 20
5.1212170811
 10
12.7865254195
 20
5.1295334112
  0
LWPOLYLINE
  5
6EC
100
AcDbEntity
  8
0
100
AcDbPolyline
 62
7
  6
CONTINUOUS
 90
7
 70
0
 10
13.9119780014
 20
7.7465516624
 10
13.9022775645
 20
7.8243198207
 10
13.8761947629
 20
7.9015176514
 10
13.833246067
 20
7.976983051
 10
13.7735152159
 20
8.0489072063
 10
13.6980978195
 20
8.1152626251
 10
13.6088451442
 20
8.174398201
  0
LWPOLYLINE
  5
6ED
100
AcDbEntity
  8
02___PRT_ALL_AXES
100
AcDbPolyline
 62
7
  6
CONTINUOUS
 90
7
 70
0
 10
13.2374004417
 20
5.0824689297
 10
13.2163469436
 20
5.0733841023
 10
13.1368117424
 20
5.0493751667
 10
13.0507682343
 20
5.032862462
 10
12.961127064
 20
5.0246189519
 10
12.8715204927
 20
5.0248931933
 10
12.7843412443
 20
5.0334136804
  0
LWPOLYLINE
  5
6EE
100
AcDbEntity
  8
0
100
AcDbPolyline
 62
7
  6
CONTINUOUS
 90
18
 70
0
 10
13.6088451442
 20
8.174398201
 10
13.504792377
 20
8.2265534212
 10
13.3903910644
 20
8.2692237198
 10
13.2678625266
 20
8.3018554826
 10
13.1395124135
 20
8.324046712
 10
13.0077568141
 20
8.3355444072
 10
12.8747411189
 20
8.3362563513
 10
12.7428079199
 20
8.3261894629
 10
12.6141946583
 20
8.3054726939
 10
12.4910728119
 20
8.2743321391
 10
12.3758412323
 20
8.2331938068
 10
12.27049372
 20
8.1825119033
 10
12.1772536847
 20
8.1230135675
 10
12.0985520206
 20
8.0560329909
 10
12.0360554785
 20
7.9830866091
 10
11.990918236
 20
7.9061523106
 10
11.9632758586
 20
7.8267190918
 10
11.9530172814
 20
7.7465516624
  0
LWPOLYLINE
  5
6EF
100
AcDbEntity
  8
0
100
AcDbPolyline
 62
9
  6
CONTINUOUS
 90
34
 70
0
 10
13.5694757335
 20
8.1704983675
 10
13.5108670192
 20
8.20147417
 10
13.4510737198
 20
8.2280065947
 10
13.3901947901
 20
8.250693858
 10
13.3280674324
 20
8.2700007405
 10
13.2643214463
 20
8.2862566334
 10
13.1985332053
 20
8.2996290161
 10
13.1309713511
 20
8.3100460755
 10
13.062262995
 20
8.3174018737
 10
12.9928234513
 20
8.3216587564
 10
12.9230162908
 20
8.3227974458
 10
12.8532661028
 20
8.3208106723
 10
12.7840028142
 20
8.315711411
 10
12.7156418359
 20
8.3075316863
 10
12.648591855
 20
8.2963217295
 10
12.5832546131
 20
8.2821499374
 10
12.5200187057
 20
8.265101601
 10
12.4592589368
 20
8.2452781943
 10
12.4013380752
 20
8.2227979577
 10
12.346604085
 20
8.1977956388
 10
12.2953866416
 20
8.1704216187
 10
12.2479940904
 20
8.1408406902
 10
12.2047099919
 20
8.1092298147
 10
12.1657936482
 20
8.0757780395
 10
12.1314796687
 20
8.0406866619
 10
12.101974753
 20
8.0041669953
 10
12.0774564554
 20
7.9664391918
 10
12.0580707503
 20
7.9277280301
 10
12.0439330608
 20
7.8882616368
 10
12.0351299375
 20
7.8482748086
 10
12.0317170376
 20
7.8080083875
 10
12.0337166069
 20
7.7677102567
 10
12.041115961
 20
7.7276252989
 10
12.0538810177
 20
7.6879650348
  0
LINE
  5
6F0
100
AcDbEntity
  8
02___PRT_ALL_AXES
100
AcDbLine
 62
7
  6
CONTINUOUS
 10
3.4760242989
 20
3.3168788898
 11
3.4760242989
 21
3.408713909
  0
LINE
  5
6F1
100
AcDbEntity
  8
02___PRT_ALL_AXES
100
AcDbLine
 62
7
  6
CONTINUOUS
 10
3.4760242989
 20
3.408713909
 11
3.4903570489
 21
3.4994235724
  0
LINE
  5
6F2
100
AcDbEntity
  8
02___PRT_ALL_AXES
100
AcDbLine
 62
7
  6
CONTINUOUS
 10
3.4903570489
 20
3.4994235724
 11
3.5186712789
 21
3.5867847488
  0
LINE
  5
6F3
100
AcDbEntity
  8
02___PRT_ALL_AXES
100
AcDbLine
 62
7
  6
CONTINUOUS
 10
3.5186712789
 20
3.5867847488
 11
3.5602730579
 21
3.6686563723
  0
LINE
  5
6F4
100
AcDbEntity
  8
02___PRT_ALL_AXES
100
AcDbLine
 62
7
  6
CONTINUOUS
 10
3.5602730579
 20
3.6686563723
 11
3.6141428009
 21
3.7430319164
  0
LINE
  5
6F5
100
AcDbEntity
  8
02___PRT_ALL_AXES
100
AcDbLine
 62
7
  6
CONTINUOUS
 10
3.6141428009
 20
3.7430319164
 11
3.678960257
 21
3.8080885697
  0
LINE
  5
6F6
100
AcDbEntity
  8
02___PRT_ALL_AXES
100
AcDbLine
 62
7
  6
CONTINUOUS
 10
3.678960257
 20
3.8080885697
 11
3.7531368667
 21
3.8622319103
  0
LINE
  5
6F7
100
AcDbEntity
  8
02___PRT_ALL_AXES
100
AcDbLine
 62
7
  6
CONTINUOUS
 10
3.7531368667
 20
3.8622319103
 11
3.8348546942
 21
3.9041349821
  0
LINE
  5
6F8
100
AcDbEntity
  8
0
100
AcDbLine
 62
9
  6
CONTINUOUS
 10
3.9534693895
 20
2.782087738
 11
4.168207817
 21
2.782087738
  0
LINE
  5
6F9
100
AcDbEntity
  8
02___PRT_ALL_AXES
100
AcDbLine
 62
7
  6
CONTINUOUS
 10
3.8348546942
 20
2.8214578167
 11
3.7531368667
 21
2.8633608885
  0
LINE
  5
6FA
100
AcDbEntity
  8
02___PRT_ALL_AXES
100
AcDbLine
 62
7
  6
CONTINUOUS
 10
3.7531368667
 20
2.8633608885
 11
3.678960257
 21
2.9175042291
  0
LINE
  5
6FB
100
AcDbEntity
  8
02___PRT_ALL_AXES
100
AcDbLine
 62
7
  6
CONTINUOUS
 10
3.678960257
 20
2.9175042291
 11
3.6141428009
 21
2.9825608824
  0
LWPOLYLINE
  5
6FC
100
AcDbEntity
  8
02___PRT_ALL_AXES
100
AcDbPolyline
 62
7
  6
CONTINUOUS
 90
3
 70
0
 10
3.6141428009
 20
2.9825608824
 10
3.5602730579
 20
3.0569364264
 10
3.5186712789
 20
3.13880805
  0
LINE
  5
6FD
100
AcDbEntity
  8
02___PRT_ALL_AXES
100
AcDbLine
 62
7
  6
CONTINUOUS
 10
3.5186712789
 20
3.13880805
 11
3.4903570489
 21
3.2261692264
  0
LINE
  5
6FE
100
AcDbEntity
  8
02___PRT_ALL_AXES
100
AcDbLine
 62
7
  6
CONTINUOUS
 10
3.4903570489
 20
3.2261692264
 11
3.4760242989
 21
3.3168788898
  0
LINE
  5
6FF
100
AcDbEntity
  8
02___PRT_ALL_AXES
100
AcDbLine
 62
7
  6
CONTINUOUS
 10
3.8348546942
 20
2.8214578167
 11
3.9571412238
 21
2.8214578167
  0
LINE
  5
700
100
AcDbEntity
  8
0
100
AcDbLine
 62
7
  6
CONTINUOUS
 10
3.9571412238
 20
2.8214578167
 11
4.1645359827
 21
2.8214578167
  0
LINE
  5
701
100
AcDbEntity
  8
02___PRT_ALL_AXES
100
AcDbLine
 62
7
  6
CONTINUOUS
 10
4.1645359827
 20
2.8214578167
 11
4.2868225123
 21
2.8214578167
  0
LINE
  5
702
100
AcDbEntity
  8
0
100
AcDbLine
 62
9
  6
CONTINUOUS
 10
3.9609479383
 20
2.8608278954
 11
4.1607292683
 21
2.8608278954
  0
LWPOLYLINE
  5
703
100
AcDbEntity
  8
0
100
AcDbPolyline
 62
7
  6
CONTINUOUS
 90
22
 70
0
 10
4.0608386033
 20
2.9828751395
 10
4.0152693644
 20
2.983248121
 10
3.9698852229
 20
2.989083137
 10
3.9255092159
 20
3.0002759445
 10
3.8830345945
 20
3.016515657
 10
3.8423567061
 20
3.0378384184
 10
3.8026703595
 20
3.0651761926
 10
3.7638474204
 20
3.099971587
 10
3.7264957547
 20
3.1442211603
 10
3.6932308334
 20
3.1986708439
 10
3.6680215228
 20
3.2607813648
 10
3.6532573353
 20
3.3271800739
 10
3.6497293721
 20
3.3956830777
 10
3.6576778475
 20
3.4641233841
 10
3.6770210213
 20
3.5307958515
 10
3.7074524775
 20
3.5939193609
 10
3.7476383087
 20
3.6508034078
 10
3.7961733807
 20
3.7000156816
 10
3.8522056284
 20
3.7409083522
 10
3.9140284959
 20
3.772275749
 10
3.9805725938
 20
3.7935342431
 10
4.0499234702
 20
3.8039545278
  0
LWPOLYLINE
  5
704
100
AcDbEntity
  8
0
100
AcDbPolyline
 62
7
  6
CONTINUOUS
 90
4
 70
0
 10
3.9578602006
 20
3.8965863519
 10
3.9586972109
 20
3.8878646326
 10
3.959759429
 20
3.8768987122
 10
3.9609479383
 20
3.8647649033
  0
LWPOLYLINE
  5
705
100
AcDbEntity
  8
0
100
AcDbPolyline
 62
7
  6
CONTINUOUS
 90
6
 70
0
 10
3.9578602006
 20
3.8965863519
 10
3.9569576433
 20
3.9060708344
 10
3.9564275769
 20
3.9116795911
 10
3.9556088504
 20
3.9203988246
 10
3.9545880422
 20
3.9313655713
 10
3.9534693895
 20
3.9435050608
  0
LWPOLYLINE
  5
706
100
AcDbEntity
  8
0
100
AcDbPolyline
 62
7
  6
CONTINUOUS
 90
4
 70
0
 10
3.9564275769
 20
2.8139132077
 10
3.9556088504
 20
2.8051939742
 10
3.9545880422
 20
2.7942272274
 10
3.9534693895
 20
2.782087738
  0
LWPOLYLINE
  5
707
100
AcDbEntity
  8
0
100
AcDbPolyline
 62
7
  6
CONTINUOUS
 90
6
 70
0
 10
3.9564275769
 20
2.8139132077
 10
3.957325241
 20
2.8233948382
 10
3.9578602006
 20
2.8290064469
 10
3.9586972109
 20
2.8377281662
 10
3.959759429
 20
2.8486940865
 10
3.9609479383
 20
2.8608278954
  0
LINE
  5
708
100
AcDbEntity
  8
AXIS_COSMETIC_THREADS
100
AcDbLine
 62
7
  6
CONTINUOUS
 10
4.0931988718
 20
3.4779011467
 11
4.0924468592
 21
3.4765986228
  0
LINE
  5
709
100
AcDbEntity
  8
AXIS_COSMETIC_THREADS
100
AcDbLine
 62
7
  6
CONTINUOUS
 10
3.9780871148
 20
3.278521735
 11
3.9772282255
 21
3.2770340952
  0
LINE
  5
70A
100
AcDbEntity
  8
AXIS_COSMETIC_THREADS
100
AcDbLine
 62
7
  6
CONTINUOUS
 10
3.9447206437
 20
3.3332688403
 11
3.9464788588
 21
3.3332688403
  0
LINE
  5
70B
100
AcDbEntity
  8
AXIS_COSMETIC_THREADS
100
AcDbLine
 62
7
  6
CONTINUOUS
 10
4.1751983477
 20
3.3332688403
 11
4.1769565629
 21
3.3332688403
  0
LINE
  5
70C
100
AcDbEntity
  8
AXIS_COSMETIC_THREADS
100
AcDbLine
 62
7
  6
CONTINUOUS
 10
3.9772282255
 20
3.4485587035
 11
3.9780871148
 21
3.4470710637
  0
LINE
  5
70D
100
AcDbEntity
  8
AXIS_COSMETIC_THREADS
100
AcDbLine
 62
7
  6
CONTINUOUS
 10
4.0924468592
 20
3.248994176
 11
4.0931988718
 21
3.2476916521
  0
LWPOLYLINE
  5
70E
100
AcDbEntity
  8
0
100
AcDbPolyline
 62
7
  6
CONTINUOUS
 90
4
 70
0
 10
4.163817006
 20
2.8290064469
 10
4.1629799956
 20
2.8377281662
 10
4.1619177775
 20
2.8486940865
 10
4.1607292683
 20
2.8608278954
  0
LWPOLYLINE
  5
70F
100
AcDbEntity
  8
0
100
AcDbPolyline
 62
7
  6
CONTINUOUS
 90
6
 70
0
 10
4.168207817
 20
2.782087738
 10
4.1670891643
 20
2.7942272274
 10
4.1660683561
 20
2.8051939742
 10
4.1652496297
 20
2.8139132077
 10
4.1647195632
 20
2.8195219644
 10
4.163817006
 20
2.8290064469
  0
LWPOLYLINE
  5
710
100
AcDbEntity
  8
0
100
AcDbPolyline
 62
7
  6
CONTINUOUS
 90
4
 70
0
 10
4.1652496297
 20
3.9116795911
 10
4.1660683561
 20
3.9203988246
 10
4.1670891643
 20
3.9313655713
 10
4.168207817
 20
3.9435050608
  0
LWPOLYLINE
  5
711
100
AcDbEntity
  8
0
100
AcDbPolyline
 62
7
  6
CONTINUOUS
 90
6
 70
0
 10
4.1652496297
 20
3.9116795911
 10
4.1643519655
 20
3.9021979606
 10
4.163817006
 20
3.8965863519
 10
4.1629799956
 20
3.8878646326
 10
4.1619177775
 20
3.8768987122
 10
4.1607292683
 20
3.8647649033
  0
LINE
  5
712
100
AcDbEntity
  8
AXIS_COSMETIC_THREADS
100
AcDbLine
 62
7
  6
CONTINUOUS
 10
4.0284783348
 20
3.2476916521
 11
4.0292303473
 21
3.248994176
  0
LINE
  5
713
100
AcDbEntity
  8
AXIS_COSMETIC_THREADS
100
AcDbLine
 62
7
  6
CONTINUOUS
 10
4.1435900918
 20
3.4470710637
 11
4.144448981
 21
3.4485587035
  0
LINE
  5
714
100
AcDbEntity
  8
AXIS_COSMETIC_THREADS
100
AcDbLine
 62
7
  6
CONTINUOUS
 10
4.1769565629
 20
3.3923239584
 11
4.1751983477
 21
3.3923239584
  0
LINE
  5
715
100
AcDbEntity
  8
AXIS_COSMETIC_THREADS
100
AcDbLine
 62
7
  6
CONTINUOUS
 10
3.9464788588
 20
3.3923239584
 11
3.9447206437
 21
3.3923239584
  0
LINE
  5
716
100
AcDbEntity
  8
AXIS_COSMETIC_THREADS
100
AcDbLine
 62
7
  6
CONTINUOUS
 10
4.144448981
 20
3.2770340952
 11
4.1435900918
 21
3.278521735
  0
LINE
  5
717
100
AcDbEntity
  8
AXIS_COSMETIC_THREADS
100
AcDbLine
 62
7
  6
CONTINUOUS
 10
4.0292303473
 20
3.4765986228
 11
4.0284783348
 21
3.4779011467
  0
LWPOLYLINE
  5
718
100
AcDbEntity
  8
0
100
AcDbPolyline
 62
7
  6
CONTINUOUS
 90
19
 70
0
 10
4.0499234702
 20
3.8039545278
 10
4.1242269864
 20
3.7961307299
 10
4.1955805407
 20
3.7759802957
 10
4.262286842
 20
3.7440871498
 10
4.3220614198
 20
3.7016767856
 10
4.373742805
 20
3.6496405457
 10
4.4153418469
 20
3.5900724221
 10
4.4458845356
 20
3.5247412153
 10
4.4647098041
 20
3.4551903525
 10
4.4711830162
 20
3.3843054144
 10
4.4653447548
 20
3.3135602559
 10
4.4474380268
 20
3.2452796276
 10
4.4183076807
 20
3.181863423
 10
4.3785786172
 20
3.1244432051
 10
4.3299453125
 20
3.0753406403
 10
4.2739647662
 20
3.0357988882
 10
4.212049053
 20
3.0067182349
 10
4.1468317456
 20
2.9891632013
 10
4.0796271228
 20
2.983340005
  0
LINE
  5
719
100
AcDbEntity
  8
0
100
AcDbLine
 62
9
  6
CONTINUOUS
 10
4.1607292683
 20
3.8647649033
 11
3.9609479383
 21
3.8647649033
  0
LINE
  5
71A
100
AcDbEntity
  8
02___PRT_ALL_AXES
100
AcDbLine
 62
7
  6
CONTINUOUS
 10
4.2868225123
 20
3.9041349821
 11
4.1645359827
 21
3.9041349821
  0
LINE
  5
71B
100
AcDbEntity
  8
0
100
AcDbLine
 62
7
  6
CONTINUOUS
 10
4.1645359827
 20
3.9041349821
 11
3.9571412238
 21
3.9041349821
  0
LINE
  5
71C
100
AcDbEntity
  8
02___PRT_ALL_AXES
100
AcDbLine
 62
7
  6
CONTINUOUS
 10
3.9571412238
 20
3.9041349821
 11
3.8348546942
 21
3.9041349821
  0
LINE
  5
71D
100
AcDbEntity
  8
02___PRT_ALL_AXES
100
AcDbLine
 62
7
  6
CONTINUOUS
 10
4.6456529076
 20
3.408713909
 11
4.6456529076
 21
3.3168788898
  0
LINE
  5
71E
100
AcDbEntity
  8
02___PRT_ALL_AXES
100
AcDbLine
 62
7
  6
CONTINUOUS
 10
4.6456529076
 20
3.3168788898
 11
4.6313201576
 21
3.2261692264
  0
LINE
  5
71F
100
AcDbEntity
  8
02___PRT_ALL_AXES
100
AcDbLine
 62
7
  6
CONTINUOUS
 10
4.6313201576
 20
3.2261692264
 11
4.6030059276
 21
3.13880805
  0
LINE
  5
720
100
AcDbEntity
  8
02___PRT_ALL_AXES
100
AcDbLine
 62
7
  6
CONTINUOUS
 10
4.6030059276
 20
3.13880805
 11
4.5614041486
 21
3.0569364264
  0
LINE
  5
721
100
AcDbEntity
  8
02___PRT_ALL_AXES
100
AcDbLine
 62
7
  6
CONTINUOUS
 10
4.5614041486
 20
3.0569364264
 11
4.5075344056
 21
2.9825608824
  0
LINE
  5
722
100
AcDbEntity
  8
02___PRT_ALL_AXES
100
AcDbLine
 62
7
  6
CONTINUOUS
 10
4.5075344056
 20
2.9825608824
 11
4.4427169495
 21
2.9175042291
  0
LINE
  5
723
100
AcDbEntity
  8
02___PRT_ALL_AXES
100
AcDbLine
 62
7
  6
CONTINUOUS
 10
4.4427169495
 20
2.9175042291
 11
4.3685403398
 21
2.8633608885
  0
LINE
  5
724
100
AcDbEntity
  8
02___PRT_ALL_AXES
100
AcDbLine
 62
7
  6
CONTINUOUS
 10
4.3685403398
 20
2.8633608885
 11
4.2868225123
 21
2.8214578167
  0
LINE
  5
725
100
AcDbEntity
  8
0
100
AcDbLine
 62
9
  6
CONTINUOUS
 10
4.168207817
 20
3.9435050608
 11
3.9534693895
 21
3.9435050608
  0
LINE
  5
726
100
AcDbEntity
  8
02___PRT_ALL_AXES
100
AcDbLine
 62
7
  6
CONTINUOUS
 10
4.2868225123
 20
3.9041349821
 11
4.3685403398
 21
3.8622319103
  0
LINE
  5
727
100
AcDbEntity
  8
02___PRT_ALL_AXES
100
AcDbLine
 62
7
  6
CONTINUOUS
 10
4.3685403398
 20
3.8622319103
 11
4.4427169495
 21
3.8080885697
  0
LINE
  5
728
100
AcDbEntity
  8
02___PRT_ALL_AXES
100
AcDbLine
 62
7
  6
CONTINUOUS
 10
4.4427169495
 20
3.8080885697
 11
4.5075344056
 21
3.7430319164
  0
LINE
  5
729
100
AcDbEntity
  8
02___PRT_ALL_AXES
100
AcDbLine
 62
7
  6
CONTINUOUS
 10
4.5075344056
 20
3.7430319164
 11
4.5614041486
 21
3.6686563723
  0
LINE
  5
72A
100
AcDbEntity
  8
02___PRT_ALL_AXES
100
AcDbLine
 62
7
  6
CONTINUOUS
 10
4.5614041486
 20
3.6686563723
 11
4.6030059276
 21
3.5867847488
  0
LINE
  5
72B
100
AcDbEntity
  8
02___PRT_ALL_AXES
100
AcDbLine
 62
7
  6
CONTINUOUS
 10
4.6030059276
 20
3.5867847488
 11
4.6313201576
 21
3.4994235724
  0
LINE
  5
72C
100
AcDbEntity
  8
02___PRT_ALL_AXES
100
AcDbLine
 62
7
  6
CONTINUOUS
 10
4.6313201576
 20
3.4994235724
 11
4.6456529076
 21
3.408713909
  0
CIRCLE
  5
72D
100
AcDbEntity
  8
0
100
AcDbCircle
 62
7
  6
CONTINUOUS
 10
10.5342808475
 20
1.243294839
 40
0.252091
  0
CIRCLE
  5
72E
100
AcDbEntity
  8
0
100
AcDbCircle
 62
7
  6
CONTINUOUS
 10
10.5342808475
 20
1.243294839
 40
0.182698
  0
ARC
  5
72F
100
AcDbEntity
  8
02___PRT_ALL_AXES
100
AcDbCircle
 62
7
  6
CONTINUOUS
 10
3.3324921466
 20
7.4495984537
 40
0.157480315
100
AcDbArc
 50
180.0
 51
270.0
  0
ARC
  5
730
100
AcDbEntity
  8
02___PRT_ALL_AXES
100
AcDbCircle
 62
7
  6
CONTINUOUS
 10
4.78918506
 20
7.4495984537
 40
0.157480315
100
AcDbArc
 50
270.0
 51
360.0
  0
ARC
  5
731
100
AcDbEntity
  8
0
100
AcDbCircle
 62
7
  6
CONTINUOUS
 10
4.9616654104
 20
9.6188897923
 40
0.0787401575
100
AcDbArc
 50
1.0000000028
 51
90.0
  0
ARC
  5
732
100
AcDbEntity
  8
0
100
AcDbCircle
 62
7
  6
CONTINUOUS
 10
3.1600117961
 20
9.6188897923
 40
0.0787401575
100
AcDbArc
 50
90.0
 51
178.9999999972
  0
ARC
  5
733
100
AcDbEntity
  8
02___PRT_ALL_AXES
100
AcDbCircle
 62
7
  6
CONTINUOUS
 10
3.1159567135
 20
7.8826693198
 40
0.0590551181
100
AcDbArc
 50
0.0
 51
90.0
  0
ARC
  5
734
100
AcDbEntity
  8
02___PRT_ALL_AXES
100
AcDbCircle
 62
7
  6
CONTINUOUS
 10
5.005720493
 20
7.8826693198
 40
0.0590551181
100
AcDbArc
 50
90.0
 51
180.0
  0
ARC
  5
735
100
AcDbEntity
  8
02___PRT_ALL_AXES
100
AcDbCircle
 62
7
  6
CONTINUOUS
 10
3.1159567135
 20
7.9810945167
 40
0.0393700787
100
AcDbArc
 50
180.0
 51
270.0
  0
ARC
  5
736
100
AcDbEntity
  8
02___PRT_ALL_AXES
100
AcDbCircle
 62
7
  6
CONTINUOUS
 10
5.005720493
 20
7.9810945167
 40
0.0393700787
100
AcDbArc
 50
270.0
 51
360.0
  0
ARC
  5
737
100
AcDbEntity
  8
0
100
AcDbCircle
 62
7
  6
CONTINUOUS
 10
4.5726496269
 20
6.5834567214
 40
0.0393700787
100
AcDbArc
 50
270.0
 51
360.0
  0
ARC
  5
738
100
AcDbEntity
  8
0
100
AcDbCircle
 62
7
  6
CONTINUOUS
 10
3.5490275796
 20
6.5834567214
 40
0.0393700787
100
AcDbArc
 50
180.0
 51
270.0
  0
ARC
  5
739
100
AcDbEntity
  8
0
100
AcDbCircle
 62
7
  6
CONTINUOUS
 10
3.4702874222
 20
7.25274806
 40
0.0393700787
100
AcDbArc
 50
0.0
 51
90.0
  0
ARC
  5
73A
100
AcDbEntity
  8
0
100
AcDbCircle
 62
7
  6
CONTINUOUS
 10
4.6513897844
 20
7.25274806
 40
0.0393700787
100
AcDbArc
 50
90.0
 51
180.0
  0
CIRCLE
  5
73B
100
AcDbEntity
  8
AXIS_COSMETIC_THREADS
100
AcDbCircle
 62
7
  6
CONTINUOUS
 10
3.8639882096
 20
3.3627963994
 40
0.0255905512
  0
CIRCLE
  5
73C
100
AcDbEntity
  8
AXIS_COSMETIC_THREADS
100
AcDbCircle
 62
7
  6
CONTINUOUS
 10
4.0608386033
 20
3.1659460057
 40
0.0255905512
  0
ARC
  5
73D
100
AcDbEntity
  8
AXIS
100
AcDbCircle
 62
7
  6
CONTINUOUS
 10
4.0608386033
 20
3.3627963994
 40
0.9842519685
100
AcDbArc
 50
90.0
 51
180.0
  0
CIRCLE
  5
73E
100
AcDbEntity
  8
02___PRT_ALL_AXES
100
AcDbCircle
 62
7
  6
CONTINUOUS
 10
4.0608386033
 20
3.3627963994
 40
0.9842519685
  0
CIRCLE
  5
73F
100
AcDbEntity
  8
02___PRT_ALL_AXES
100
AcDbCircle
 62
9
  6
CONTINUOUS
 10
4.0608386033
 20
3.3627963994
 40
0.9448818898
  0
CIRCLE
  5
740
100
AcDbEntity
  8
02___PRT_ALL_AXES
100
AcDbCircle
 62
7
  6
CONTINUOUS
 10
4.0608386033
 20
3.3627963994
 40
0.8858267717
  0
CIRCLE
  5
741
100
AcDbEntity
  8
02___PRT_ALL_AXES
100
AcDbCircle
 62
9
  6
CONTINUOUS
 10
4.0608386033
 20
3.3627963994
 40
0.7283464567
  0
ARC
  5
742
100
AcDbEntity
  8
0
100
AcDbCircle
 62
9
  6
CONTINUOUS
 10
4.0608386033
 20
3.3627963994
 40
0.5905511811
100
AcDbArc
 50
100.4753138432
 51
259.5246861568
  0
ARC
  5
743
100
AcDbEntity
  8
0
100
AcDbCircle
 62
9
  6
CONTINUOUS
 10
4.0608386033
 20
3.3627963994
 40
0.5905511811
100
AcDbArc
 50
280.4753138432
 51
79.5246861568
  0
ARC
  5
744
100
AcDbEntity
  8
0
100
AcDbCircle
 62
7
  6
CONTINUOUS
 10
4.0608386033
 20
3.3627963994
 40
0.5511811024
100
AcDbArc
 50
280.8440625637
 51
79.1559374363
  0
ARC
  5
745
100
AcDbEntity
  8
0
100
AcDbCircle
 62
7
  6
CONTINUOUS
 10
4.0608386033
 20
3.3627963994
 40
0.5511811024
100
AcDbArc
 50
100.8440625637
 51
259.1559374363
  0
ARC
  5
746
100
AcDbEntity
  8
0
100
AcDbCircle
 62
9
  6
CONTINUOUS
 10
4.0608386033
 20
3.3627963994
 40
0.5118110236
100
AcDbArc
 50
101.2547126182
 51
258.7452873818
  0
ARC
  5
747
100
AcDbEntity
  8
0
100
AcDbCircle
 62
9
  6
CONTINUOUS
 10
4.0608386033
 20
3.3627963994
 40
0.5118110236
100
AcDbArc
 50
281.2547126182
 51
78.7452873818
  0
CIRCLE
  5
748
100
AcDbEntity
  8
0
100
AcDbCircle
 62
7
  6
CONTINUOUS
 10
4.0608386033
 20
3.3627963994
 40
0.3799212598
  0
CIRCLE
  5
749
100
AcDbEntity
  8
0
100
AcDbCircle
 62
7
  6
CONTINUOUS
 10
4.0608386033
 20
3.3627963994
 40
0.3208224134
  0
CIRCLE
  5
74A
100
AcDbEntity
  8
0
100
AcDbCircle
 62
7
  6
CONTINUOUS
 10
4.0608386033
 20
3.3627963994
 40
0.3090551181
  0
CIRCLE
  5
74B
100
AcDbEntity
  8
0
100
AcDbCircle
 62
7
  6
CONTINUOUS
 10
4.0608386033
 20
3.3627963994
 40
0.2952755906
  0
CIRCLE
  5
74C
100
AcDbEntity
  8
0
100
AcDbCircle
 62
7
  6
CONTINUOUS
 10
4.0608386033
 20
3.3627963994
 40
0.292807021
  0
CIRCLE
  5
74D
100
AcDbEntity
  8
0
100
AcDbCircle
 62
9
  6
CONTINUOUS
 10
4.0608386033
 20
3.3627963994
 40
0.277559055
  0
CIRCLE
  5
74E
100
AcDbEntity
  8
0
100
AcDbCircle
 62
7
  6
CONTINUOUS
 10
4.0608386033
 20
3.3627963994
 40
0.1358267717
  0
CIRCLE
  5
74F
100
AcDbEntity
  8
0
100
AcDbCircle
 62
7
  6
CONTINUOUS
 10
4.0608386033
 20
3.3627963994
 40
0.1200787402
  0
ARC
  5
750
100
AcDbEntity
  8
AXIS_COSMETIC_THREADS
100
AcDbCircle
 62
7
  6
CONTINUOUS
 10
4.0608386033
 20
3.3627963994
 40
0.1181102362
100
AcDbArc
 50
14.4775121859
 51
45.5224878141
  0
ARC
  5
751
100
AcDbEntity
  8
AXIS_COSMETIC_THREADS
100
AcDbCircle
 62
7
  6
CONTINUOUS
 10
4.0608386033
 20
3.3627963994
 40
0.1181102362
100
AcDbArc
 50
314.4775121859
 51
345.5224878141
  0
ARC
  5
752
100
AcDbEntity
  8
AXIS_COSMETIC_THREADS
100
AcDbCircle
 62
7
  6
CONTINUOUS
 10
4.0608386033
 20
3.3627963994
 40
0.1181102362
100
AcDbArc
 50
194.4775121859
 51
225.5224878141
  0
ARC
  5
753
100
AcDbEntity
  8
AXIS_COSMETIC_THREADS
100
AcDbCircle
 62
7
  6
CONTINUOUS
 10
4.0608386033
 20
3.3627963994
 40
0.1181102362
100
AcDbArc
 50
134.4775121859
 51
165.5224878141
  0
ARC
  5
754
100
AcDbEntity
  8
AXIS_COSMETIC_THREADS
100
AcDbCircle
 62
7
  6
CONTINUOUS
 10
4.0608386033
 20
3.3627963994
 40
0.1181102362
100
AcDbArc
 50
74.4775121859
 51
105.5224878141
  0
ARC
  5
755
100
AcDbEntity
  8
AXIS_COSMETIC_THREADS
100
AcDbCircle
 62
7
  6
CONTINUOUS
 10
4.0608386033
 20
3.3627963994
 40
0.1181102362
100
AcDbArc
 50
254.4775121859
 51
285.5224878141
  0
CIRCLE
  5
756
100
AcDbEntity
  8
02___PRT_ALL_AXES
100
AcDbCircle
 62
7
  6
CONTINUOUS
 10
4.0608386033
 20
3.3627963994
 40
0.1075
  0
CIRCLE
  5
757
100
AcDbEntity
  8
AXIS_COSMETIC_THREADS
100
AcDbCircle
 62
7
  6
CONTINUOUS
 10
4.0608386033
 20
3.5596467931
 40
0.0255905512
  0
CIRCLE
  5
758
100
AcDbEntity
  8
AXIS_COSMETIC_THREADS
100
AcDbCircle
 62
7
  6
CONTINUOUS
 10
4.257688997
 20
3.3627963994
 40
0.0255905512
  0
ENDSEC
  0
SECTION
  2
OBJECTS
  0
DICTIONARY
  5
C
100
AcDbDictionary
280
0
281
1
  3
ACAD_GROUP
350
D
  3
ACAD_MLINESTYLE
350
17
  3
ACAD_LAYOUT
350
1A
  3
ACAD_PLOTSETTINGS
350
19
  3
ACAD_PLOTSTYLENAME
350
E
  0
DICTIONARY
  5
D
102
{ACAD_REACTORS
330
C
102
}
100
AcDbDictionary
280
0
281
1
  0
ACDBDICTIONARYWDFLT
  5
E
102
{ACAD_REACTORS
330
C
102
}
100
AcDbDictionary
281
1
  3
Normal
350
F
100
AcDbDictionaryWithDefault
340
F
  0
DICTIONARY
  5
17
102
{ACAD_REACTORS
330
C
102
}
100
AcDbDictionary
280
0
281
1
  3
Standard
350
18
  0
DICTIONARY
  5
19
102
{ACAD_REACTORS
330
C
102
}
100
AcDbDictionary
281
1
  0
DICTIONARY
  5
1A
102
{ACAD_REACTORS
330
C
102
}
100
AcDbDictionary
281
1
  3
Layout1
350
1E
  3
Model
350
22
  0
ACDBPLACEHOLDER
  5
F
102
{ACAD_REACTORS
330
E
102
}
  0
MLINESTYLE
  5
18
102
{ACAD_REACTORS
330
17
102
}
100
AcDbMlineStyle
  2
STANDARD
 70
0
  3

 62
256
 51
90.0
 52
90.0
 71
2
 49
0.5
 62
256
  6
BYLAYER
 49
-0.5
 62
256
  6
BYLAYER
  0
LAYOUT
  5
1E
102
{ACAD_REACTORS
330
1A
102
}
100
AcDbPlotSettings
  1

  2

  4

  6

 40
0.0
 41
0.0
 42
0.0
 43
0.0
 44
0.0
 45
0.0
 46
0.0
 47
0.0
 48
0.0
 49
0.0
140
0.0
141
0.0
142
1.0
143
1.0
 70
0
 72
0
 73
0
 74
0
  7

 75
0
147
1.0
148
0.0
149
0.0
100
AcDbLayout
  1
Layout1
 70
0
 71
0
 10
0.0
 20
0.0
 11
0.0
 21
0.0
 12
0.0
 22
0.0
 32
0.0
 14
0.0
 24
0.0
 34
0.0
 15
0.0
 25
0.0
 35
0.0
146
0.0
 13
0.0
 23
0.0
 33
0.0
 16
0.0
 26
0.0
 36
0.0
 17
0.0
 27
0.0
 37
0.0
 76
0
330
1B
331
0
345
0
346
0
  0
LAYOUT
  5
22
102
{ACAD_REACTORS
330
1A
102
}
100
AcDbPlotSettings
  1

  2

  4

  6

 40
0.0
 41
0.0
 42
0.0
 43
0.0
 44
0.0
 45
0.0
 46
0.0
 47
0.0
 48
0.0
 49
0.0
140
0.0
141
0.0
142
1.0
143
1.0
 70
0
 72
0
 73
0
 74
0
  7

 75
0
147
1.0
148
0.0
149
0.0
100
AcDbLayout
  1
Model
 70
0
 71
0
 10
0.0
 20
0.0
 11
0.0
 21
0.0
 12
0.0
 22
0.0
 32
0.0
 14
0.0
 24
0.0
 34
0.0
 15
0.0
 25
0.0
 35
0.0
146
0.0
 13
0.0
 23
0.0
 33
0.0
 16
0.0
 26
0.0
 36
0.0
 17
0.0
 27
0.0
 37
0.0
 76
0
330
1F
331
0
345
0
346
0
  0
ENDSEC
  0
EOF
