999
DXF file: 145178_1.dxf
999
Pro/ENGINEER 2006170 by Parametric Technology Corporation
  0
SECTION
  2
HEADER
  9
$ACADVER
  1
AC1015
  9
$DWGCODEPAGE
  3
ANSI_1252
  9
$EXTMAX
 10
22.0
 20
17.0
 30
0.0
  9
$EXTMIN
 10
0.0
 20
0.0
 30
0.0
  9
$LIMMIN
 10
0.0
 20
0.0
  9
$LIMMAX
 10
22.0
 20
17.0
  9
$VIEWCTR
 10
11.0
 20
8.5
  9
$VIEWSIZE
 40
17.0
  9
$CLAYER
  8
0
  9
$LTSCALE
 40
1.21
  9
$CELTYPE
  6
BYLAYER
  9
$DIMSCALE
 40
1.0
  9
$DIMASZ
 40
0.1875
  9
$DIMEXO
 40
0.1375
  9
$DIMDLI
 40
0.836
  9
$DIMEXE
 40
0.396
  9
$DIMCEN
 40
0.198
  9
$DIMLFAC
 40
1.0
  9
$DIMBLK
  1
_FILLED
  9
$DIMTXT
 40
0.1
  9
$DIMTOL
 70
1
  9
$DIMLIM
 70
0
  9
$DIMTFAC
 40
1.0
  9
$DIMTP
 40
0.005
  9
$DIMTM
 40
0.005
  9
$PDMODE
 70
3
  9
$PDSIZE
 40
0.3125
  9
$HANDSEED
  5
899
  9
$MEASUREMENT
 70
0
  9
$INSUNITS
 70
1
  0
ENDSEC
  0
SECTION
  2
CLASSES
  0
CLASS
  1
ACDBDICTIONARYWDFLT
  2
AcDbDictionaryWithDefault
  3
AutoCAD 2000
 90
0
280
0
281
0
  0
CLASS
  1
ACDBPLACEHOLDER
  2
AcDbPlaceHolder
  3
AutoCAD 2000
 90
0
280
0
281
0
  0
CLASS
  1
LAYOUT
  2
AcDbLayout
  3
AutoCAD 2000
 90
0
280
0
281
0
  0
ENDSEC
  0
SECTION
  2
TABLES
  0
TABLE
  2
VPORT
  5
8
100
AcDbSymbolTable
 70
2
  0
VPORT
  5
1F4
100
AcDbSymbolTableRecord
100
AcDbViewportTableRecord
  2
*ACTIVE
 70
0
 10
0.0
 20
0.0
 11
1.0
 21
1.0
 12
11.0
 22
8.5
 13
0.0
 23
0.0
 14
1.0
 24
1.0
 15
0.0
 25
0.0
 16
0.0
 26
0.0
 36
1.0
 17
0.0
 27
0.0
 37
0.0
 40
17.0
 41
1.2941176471
 42
50.0
 43
0.0
 44
0.0
 50
0.0
 51
0.0
 71
0
 72
100
 73
1
 74
1
 75
0
 76
0
 77
0
 78
0
  0
ENDTAB
  0
TABLE
  2
LTYPE
  5
5
100
AcDbSymbolTable
 70
6
  0
LTYPE
  5
14
100
AcDbSymbolTableRecord
100
AcDbLinetypeTableRecord
  2
BYBLOCK
 70
0
  3

 72
65
 73
0
 40
0.0
  0
LTYPE
  5
15
100
AcDbSymbolTableRecord
100
AcDbLinetypeTableRecord
  2
BYLAYER
 70
0
  3

 72
65
 73
0
 40
0.0
  0
LTYPE
  5
16
100
AcDbSymbolTableRecord
100
AcDbLinetypeTableRecord
  2
CONTINUOUS
 70
64
  3
Solid line
 72
65
 73
0
 40
0.0
  0
LTYPE
  5
1F5
100
AcDbSymbolTableRecord
100
AcDbLinetypeTableRecord
  2
CENTER
 70
64
  3
____ _ ____ _ ____ _ ____ _ ____ _ ____ _ ____
 72
65
 73
4
 40
0.6
 49
0.375
 74
0
 49
-0.075
 74
0
 49
0.075
 74
0
 49
-0.075
 74
0
  0
LTYPE
  5
1F6
100
AcDbSymbolTableRecord
100
AcDbLinetypeTableRecord
  2
HIDDEN
 70
64
  3
- - - - - - - - - - - - - - - - - - - -
 72
65
 73
2
 40
0.2
 49
0.1
 74
0
 49
-0.1
 74
0
  0
LTYPE
  5
1F7
100
AcDbSymbolTableRecord
100
AcDbLinetypeTableRecord
  2
PHANTOM
 70
64
  3
_____ _ _ _____ _ _ _____ _ _ _____
 72
65
 73
6
 40
0.8
 49
0.45
 74
0
 49
-0.05
 74
0
 49
0.1
 74
0
 49
-0.05
 74
0
 49
0.1
 74
0
 49
-0.05
 74
0
  0
LTYPE
  5
1F8
100
AcDbSymbolTableRecord
100
AcDbLinetypeTableRecord
  2
DOT
 70
64
  3
. . . . . . . . . . . . . . . . . . . .
 72
65
 73
2
 40
0.2
 49
0.1
 74
0
 49
-0.1
 74
0
  0
LTYPE
  5
1F9
100
AcDbSymbolTableRecord
100
AcDbLinetypeTableRecord
  2
DASHED
 70
64
  3
- - - - - - - - - - - - - - - - - - - -
 72
65
 73
2
 40
0.2
 49
0.1
 74
0
 49
-0.1
 74
0
  0
ENDTAB
  0
TABLE
  2
LAYER
  5
2
100
AcDbSymbolTable
 70
36
  0
LAYER
  5
10
100
AcDbSymbolTableRecord
100
AcDbLayerTableRecord
  2
0
 70
0
 62
7
  6
CONTINUOUS
370
-3
390
F
  0
LAYER
  5
1FA
100
AcDbSymbolTableRecord
100
AcDbLayerTableRecord
  2
DEFAULT_1
 70
0
 62
7
  6
CENTER
370
-3
390
F
  0
LAYER
  5
1FB
100
AcDbSymbolTableRecord
100
AcDbLayerTableRecord
  2
DEFAULT_2
 70
0
 62
8
  6
HIDDEN
370
-3
390
F
  0
LAYER
  5
1FC
100
AcDbSymbolTableRecord
100
AcDbLayerTableRecord
  2
DEFAULT_3
 70
0
 62
7
  6
PHANTOM
370
-3
390
F
  0
LAYER
  5
1FD
100
AcDbSymbolTableRecord
100
AcDbLayerTableRecord
  2
_2D_DELETED_OBJS
 70
0
 62
7
  6
CONTINUOUS
370
-3
390
F
  0
LAYER
  5
1FE
100
AcDbSymbolTableRecord
100
AcDbLayerTableRecord
  2
_BLACK_HOLE
 70
0
 62
7
  6
CONTINUOUS
370
-3
390
F
  0
LAYER
  5
1FF
100
AcDbSymbolTableRecord
100
AcDbLayerTableRecord
  2
01___PRT_ALL_DTM_PLN
 70
0
 62
7
  6
CONTINUOUS
370
-3
390
F
  0
LAYER
  5
200
100
AcDbSymbolTableRecord
100
AcDbLayerTableRecord
  2
01___PRT_DEF_DTM_PLN
 70
0
 62
7
  6
CONTINUOUS
370
-3
390
F
  0
LAYER
  5
201
100
AcDbSymbolTableRecord
100
AcDbLayerTableRecord
  2
02___PRT_ALL_AXES
 70
0
 62
7
  6
CONTINUOUS
370
-3
390
F
  0
LAYER
  5
202
100
AcDbSymbolTableRecord
100
AcDbLayerTableRecord
  2
03___PRT_ALL_CURVES
 70
0
 62
7
  6
CONTINUOUS
370
-3
390
F
  0
LAYER
  5
203
100
AcDbSymbolTableRecord
100
AcDbLayerTableRecord
  2
04___PRT_ALL_DTM_PNT
 70
0
 62
7
  6
CONTINUOUS
370
-3
390
F
  0
LAYER
  5
204
100
AcDbSymbolTableRecord
100
AcDbLayerTableRecord
  2
05___PRT_ALL_DTM_CSYS
 70
0
 62
7
  6
CONTINUOUS
370
-3
390
F
  0
LAYER
  5
205
100
AcDbSymbolTableRecord
100
AcDbLayerTableRecord
  2
05___PRT_DEF_DTM_CSYS
 70
0
 62
7
  6
CONTINUOUS
370
-3
390
F
  0
LAYER
  5
206
100
AcDbSymbolTableRecord
100
AcDbLayerTableRecord
  2
06___PRT_ALL_SURFS
 70
0
 62
7
  6
CONTINUOUS
370
-3
390
F
  0
LAYER
  5
207
100
AcDbSymbolTableRecord
100
AcDbLayerTableRecord
  2
AXIS
 70
0
 62
7
  6
CONTINUOUS
370
-3
390
F
  0
LAYER
  5
208
100
AcDbSymbolTableRecord
100
AcDbLayerTableRecord
  2
AXIS_COSMETIC_THREADS
 70
0
 62
7
  6
CONTINUOUS
370
-3
390
F
  0
LAYER
  5
209
100
AcDbSymbolTableRecord
100
AcDbLayerTableRecord
  2
DATUM_CURVES
 70
0
 62
7
  6
CONTINUOUS
370
-3
390
F
  0
LAYER
  5
20A
100
AcDbSymbolTableRecord
100
AcDbLayerTableRecord
  2
DATUM_PLANES
 70
0
 62
7
  6
CONTINUOUS
370
-3
390
F
  0
LAYER
  5
20B
100
AcDbSymbolTableRecord
100
AcDbLayerTableRecord
  2
HIDE
 70
0
 62
7
  6
CONTINUOUS
370
-3
390
F
  0
LAYER
  5
20C
100
AcDbSymbolTableRecord
100
AcDbLayerTableRecord
  2
NOTES
 70
0
 62
7
  6
CONTINUOUS
370
-3
390
F
  0
LAYER
  5
20D
100
AcDbSymbolTableRecord
100
AcDbLayerTableRecord
  2
QUILTS
 70
0
 62
7
  6
CONTINUOUS
370
-3
390
F
  0
LAYER
  5
20E
100
AcDbSymbolTableRecord
100
AcDbLayerTableRecord
  2
SCHEME_DIMS
 70
0
 62
7
  6
CONTINUOUS
370
-3
390
F
  0
LAYER
  5
20F
100
AcDbSymbolTableRecord
100
AcDbLayerTableRecord
  2
SYMBOLS
 70
0
 62
7
  6
CONTINUOUS
370
-3
390
F
  0
ENDTAB
  0
TABLE
  2
STYLE
  5
3
100
AcDbSymbolTable
 70
1
  0
STYLE
  5
11
100
AcDbSymbolTableRecord
100
AcDbTextStyleTableRecord
  2
STANDARD
 70
0
 40
0.0
 41
1.0
 50
0.0
 71
0
 42
0.2
  3
txt
  4

  0
ENDTAB
  0
TABLE
  2
VIEW
  5
6
100
AcDbSymbolTable
 70
0
  0
ENDTAB
  0
TABLE
  2
UCS
  5
7
100
AcDbSymbolTable
 70
0
  0
ENDTAB
  0
TABLE
  2
APPID
  5
9
100
AcDbSymbolTable
 70
1
  0
APPID
  5
210
100
AcDbSymbolTableRecord
100
AcDbRegAppTableRecord
  2
ACAD
 70
0
  0
ENDTAB
  0
TABLE
  2
BLOCK_RECORD
  5
1
100
AcDbSymbolTable
 70
0
  0
BLOCK_RECORD
  5
1F
100
AcDbSymbolTableRecord
100
AcDbBlockTableRecord
  2
*MODEL_SPACE
  0
BLOCK_RECORD
  5
1B
100
AcDbSymbolTableRecord
100
AcDbBlockTableRecord
  2
*PAPER_SPACE
  0
BLOCK_RECORD
  5
211
100
AcDbSymbolTableRecord
100
AcDbBlockTableRecord
  2
_FILLED
  0
BLOCK_RECORD
  5
212
100
AcDbSymbolTableRecord
100
AcDbBlockTableRecord
  2
BANNER_LOGO_TITLEBLOCK_BL0
  0
BLOCK_RECORD
  5
213
100
AcDbSymbolTableRecord
100
AcDbBlockTableRecord
  2
*D0
  0
BLOCK_RECORD
  5
214
100
AcDbSymbolTableRecord
100
AcDbBlockTableRecord
  2
*D1
  0
BLOCK_RECORD
  5
215
100
AcDbSymbolTableRecord
100
AcDbBlockTableRecord
  2
*D2
  0
BLOCK_RECORD
  5
216
100
AcDbSymbolTableRecord
100
AcDbBlockTableRecord
  2
*D3
  0
BLOCK_RECORD
  5
217
100
AcDbSymbolTableRecord
100
AcDbBlockTableRecord
  2
*D4
  0
BLOCK_RECORD
  5
218
100
AcDbSymbolTableRecord
100
AcDbBlockTableRecord
  2
*D5
  0
ENDTAB
  0
TABLE
  2
DIMSTYLE
  5
A
100
AcDbSymbolTable
 70
1
100
AcDbDimStyleTable
 71
0
  0
DIMSTYLE
105
219
100
AcDbSymbolTableRecord
100
AcDbDimStyleTableRecord
  2
STANDARD
 70
0
  3

  4

 40
1.0
 41
0.1875
 42
0.0625
 43
0.38
 44
0.18
 45
0.0
 46
0.0
 47
0.005
 48
0.005
140
0.1
141
0.09
142
0.0
143
25.4
144
1.0
145
0.0
146
1.0
147
0.09
 71
1.0
 72
0.0
 73
1
 74
1
 75
0
 76
0
 77
0
 78
4
170
0
171
2
172
0
173
0
174
0
175
0
176
0
177
0
178
0
270
2
271
3
272
3
273
2
274
2
275
0
280
0
281
0
282
0
283
1
284
4
285
0
286
0
287
3
288
0
340
11
341
211
342
211
343
211
344
211
  0
DIMSTYLE
105
21A
100
AcDbSymbolTableRecord
100
AcDbDimStyleTableRecord
  2
DIMSTYLE_1
 70
0
  3

  4

 40
1.0
 41
0.1875
 42
0.0625
 43
0.38
 44
0.18
 45
0.0
 46
0.0
 47
0.1
 48
0.1
140
0.1
141
0.09
142
0.0
143
25.4
144
1.0
145
0.0
146
1.0
147
0.09
 71
0.0
 72
0.0
 73
1
 74
1
 75
0
 76
0
 77
0
 78
4
170
0
171
2
172
0
173
0
174
0
175
0
176
0
177
0
178
0
270
2
271
1
272
1
273
2
274
2
275
0
280
0
281
0
282
0
283
1
284
4
285
0
286
0
287
3
288
0
340
11
341
211
342
211
343
211
344
211
  0
DIMSTYLE
105
21B
100
AcDbSymbolTableRecord
100
AcDbDimStyleTableRecord
  2
DIMSTYLE_2
 70
0
  3

  4

 40
1.0
 41
0.1875
 42
0.0625
 43
0.38
 44
0.18
 45
0.0
 46
0.0
 47
0.1
 48
0.1
140
0.1
141
0.09
142
0.0
143
25.4
144
1.0
145
0.0
146
1.0
147
0.09
 71
0.0
 72
0.0
 73
1
 74
1
 75
0
 76
0
 77
0
 78
4
170
0
171
2
172
0
173
0
174
0
175
0
176
0
177
0
178
0
270
2
271
1
272
1
273
2
274
2
275
0
280
0
281
0
282
0
283
1
284
4
285
0
286
0
287
3
288
0
340
11
341
211
342
211
343
211
344
211
  0
ENDTAB
  0
ENDSEC
  0
SECTION
  2
BLOCKS
  0
BLOCK
  5
20
100
AcDbEntity
  8
0
100
AcDbBlockBegin
  2
*MODEL_SPACE
 70
0
 10
0.0
 20
0.0
 30
0.0
  3
*MODEL_SPACE
  1

  0
ENDBLK
  5
21
100
AcDbEntity
  8
0
100
AcDbBlockEnd
  0
BLOCK
  5
1C
100
AcDbEntity
  8
0
100
AcDbBlockBegin
  2
*PAPER_SPACE
 70
0
 10
0.0
 20
0.0
 30
0.0
  3
*PAPER_SPACE
  1

  0
ENDBLK
  5
1D
100
AcDbEntity
  8
0
100
AcDbBlockEnd
  0
BLOCK
  5
21C
100
AcDbEntity
  8
0
100
AcDbBlockBegin
 62
2
  6
CONTINUOUS
  2
BANNER_LOGO_TITLEBLOCK_BL0
 70
64
 10
17.5737928667
 20
2.4016160592
  3
BANNER_LOGO_TITLEBLOCK_BL0
  1

  0
LWPOLYLINE
  5
21D
100
AcDbEntity
  8
0
100
AcDbPolyline
 62
2
  6
CONTINUOUS
 90
29
 70
0
 10
16.7487923615
 20
2.4016160592
 10
16.7691351996
 20
2.3618196847
 10
16.8307163685
 20
2.3232759622
 10
16.9281409297
 20
2.2893628079
 10
17.0602177432
 20
2.2604945935
 10
17.2153753953
 20
2.2392004647
 10
17.3917175036
 20
2.2257402979
 10
17.5737926282
 20
2.2212942658
 10
17.7558682297
 20
2.2257402979
 10
17.932210338
 20
2.2392004647
 10
18.0873675133
 20
2.2604945935
 10
18.2194448036
 20
2.2893628079
 10
18.316868888
 20
2.3232759622
 10
18.3784505337
 20
2.3618196847
 10
18.3987933719
 20
2.4016160592
 10
18.3784505337
 20
2.4414124337
 10
18.316868888
 20
2.4799561562
 10
18.2194448036
 20
2.5138693105
 10
18.0873675133
 20
2.5427375249
 10
17.932210338
 20
2.5640316537
 10
17.7558682297
 20
2.5774918205
 10
17.5737926282
 20
2.5819378526
 10
17.3917175036
 20
2.5774918205
 10
17.2153753953
 20
2.5640316537
 10
17.0602177432
 20
2.5427375249
 10
16.9281409297
 20
2.5138693105
 10
16.8307163685
 20
2.4799561562
 10
16.7691351996
 20
2.4414124337
 10
16.7487923615
 20
2.4016160592
  0
ARC
  5
21E
100
AcDbEntity
  8
0
100
AcDbCircle
 62
2
  6
CONTINUOUS
 10
17.0691330821
 20
2.3781140608
 40
0.0153945295
100
AcDbArc
 50
354.0454548824
 51
5.1878013979
  0
ARC
  5
21F
100
AcDbEntity
  8
0
100
AcDbCircle
 62
2
  6
CONTINUOUS
 10
17.062303393
 20
2.377925543
 40
0.0222174455
100
AcDbArc
 50
4.0793399388
 51
69.834329283
  0
LINE
  5
220
100
AcDbEntity
  8
0
100
AcDbLine
 62
2
  6
CONTINUOUS
 10
17.0699625425
 20
2.3987810533
 11
17.0599115369
 21
2.4023300553
  0
LINE
  5
221
100
AcDbEntity
  8
0
100
AcDbLine
 62
2
  6
CONTINUOUS
 10
17.0599115369
 20
2.4023300553
 11
17.0681515415
 21
2.4071060579
  0
ARC
  5
222
100
AcDbEntity
  8
0
100
AcDbCircle
 62
2
  6
CONTINUOUS
 10
17.046286159
 20
2.4439329496
 40
0.0428289026
100
AcDbArc
 50
300.6990502959
 51
319.0591802498
  0
ARC
  5
223
100
AcDbEntity
  8
0
100
AcDbCircle
 62
2
  6
CONTINUOUS
 10
17.0663147559
 20
2.4278045961
 40
0.0171568255
100
AcDbArc
 50
315.9145124245
 51
16.0049121282
  0
ARC
  5
224
100
AcDbEntity
  8
0
100
AcDbCircle
 62
2
  6
CONTINUOUS
 10
17.0613631438
 20
2.4244509317
 40
0.0229166529
100
AcDbArc
 50
20.6563876465
 51
62.3316896973
  0
ARC
  5
225
100
AcDbEntity
  8
0
100
AcDbCircle
 62
2
  6
CONTINUOUS
 10
17.0407010201
 20
2.3915223668
 40
0.061747717
100
AcDbArc
 50
59.5385584989
 51
90.0050977555
  0
LINE
  5
226
100
AcDbEntity
  8
0
100
AcDbLine
 62
2
  6
CONTINUOUS
 10
17.0406955262
 20
2.4532700835
 11
16.8746324342
 21
2.4532700835
  0
ARC
  5
227
100
AcDbEntity
  8
0
100
AcDbCircle
 62
2
  6
CONTINUOUS
 10
16.8746324323
 20
2.450795084
 40
0.0024749995
100
AcDbArc
 50
89.9999571957
 51
180.0000428043
  0
LINE
  5
228
100
AcDbEntity
  8
0
100
AcDbLine
 62
2
  6
CONTINUOUS
 10
16.8721574328
 20
2.4507950822
 11
16.8721574328
 21
2.4309950712
  0
ARC
  5
229
100
AcDbEntity
  8
0
100
AcDbCircle
 62
2
  6
CONTINUOUS
 10
16.8746324323
 20
2.4309950693
 40
0.0024749995
100
AcDbArc
 50
179.9999571957
 51
270.0000428043
  0
LINE
  5
22A
100
AcDbEntity
  8
0
100
AcDbLine
 62
2
  6
CONTINUOUS
 10
16.8746324342
 20
2.4285200698
 11
16.8985744474
 21
2.4285200698
  0
ARC
  5
22B
100
AcDbEntity
  8
0
100
AcDbCircle
 62
2
  6
CONTINUOUS
 10
16.8985744493
 20
2.4260450703
 40
0.0024749995
100
AcDbArc
 50
359.9999571957
 51
90.0000428043
  0
LINE
  5
22C
100
AcDbEntity
  8
0
100
AcDbLine
 62
2
  6
CONTINUOUS
 10
16.9010494488
 20
2.4260450684
 11
16.9010494488
 21
2.3796900427
  0
ARC
  5
22D
100
AcDbEntity
  8
0
100
AcDbCircle
 62
2
  6
CONTINUOUS
 10
16.8985744493
 20
2.3796900409
 40
0.0024749995
100
AcDbArc
 50
269.9999571957
 51
0.0000428043
  0
LINE
  5
22E
100
AcDbEntity
  8
0
100
AcDbLine
 62
2
  6
CONTINUOUS
 10
16.8985744474
 20
2.3772150414
 11
16.8746324342
 21
2.3772150414
  0
ARC
  5
22F
100
AcDbEntity
  8
0
100
AcDbCircle
 62
2
  6
CONTINUOUS
 10
16.8746324323
 20
2.3747400418
 40
0.0024749995
100
AcDbArc
 50
89.9999571957
 51
180.0000428043
  0
LINE
  5
230
100
AcDbEntity
  8
0
100
AcDbLine
 62
2
  6
CONTINUOUS
 10
16.8721574328
 20
2.37474004
 11
16.8721574328
 21
2.354940029
  0
ARC
  5
231
100
AcDbEntity
  8
0
100
AcDbCircle
 62
2
  6
CONTINUOUS
 10
16.8746324323
 20
2.3549400272
 40
0.0024749995
100
AcDbArc
 50
179.9999571957
 51
270.0000428043
  0
LINE
  5
232
100
AcDbEntity
  8
0
100
AcDbLine
 62
2
  6
CONTINUOUS
 10
16.8746324342
 20
2.3524650276
 11
17.051078532
 21
2.3524650276
  0
ARC
  5
233
100
AcDbEntity
  8
0
100
AcDbCircle
 62
2
  6
CONTINUOUS
 10
17.0483571873
 20
2.4008724794
 40
0.048483885
100
AcDbArc
 50
273.21763719
 51
303.0749121182
  0
ARC
  5
234
100
AcDbEntity
  8
0
100
AcDbCircle
 62
2
  6
CONTINUOUS
 10
17.0631965815
 20
2.3781048705
 40
0.0213072145
100
AcDbArc
 50
303.0488228549
 51
355.7263138674
  0
LINE
  5
235
100
AcDbEntity
  8
0
100
AcDbLine
 62
2
  6
CONTINUOUS
 10
16.9640374837
 20
2.4111950602
 11
17.0054005067
 21
2.4111950602
  0
ARC
  5
236
100
AcDbEntity
  8
0
100
AcDbCircle
 62
2
  6
CONTINUOUS
 10
17.0054005067
 20
2.419857565
 40
0.0086625048
100
AcDbArc
 50
270.0
 51
90.0
  0
LINE
  5
237
100
AcDbEntity
  8
0
100
AcDbLine
 62
2
  6
CONTINUOUS
 10
17.0054005067
 20
2.4285200698
 11
16.9640374837
 21
2.4285200698
  0
ARC
  5
238
100
AcDbEntity
  8
0
100
AcDbCircle
 62
2
  6
CONTINUOUS
 10
16.9640374819
 20
2.4260450703
 40
0.0024749995
100
AcDbArc
 50
89.9999571957
 51
180.0000428043
  0
LINE
  5
239
100
AcDbEntity
  8
0
100
AcDbLine
 62
2
  6
CONTINUOUS
 10
16.9615624824
 20
2.4260450684
 11
16.9615624824
 21
2.4136700616
  0
ARC
  5
23A
100
AcDbEntity
  8
0
100
AcDbCircle
 62
2
  6
CONTINUOUS
 10
16.9640374819
 20
2.4136700597
 40
0.0024749995
100
AcDbArc
 50
179.9999571957
 51
270.0000428043
  0
LINE
  5
23B
100
AcDbEntity
  8
0
100
AcDbLine
 62
2
  6
CONTINUOUS
 10
16.9615624824
 20
2.3796900427
 11
16.9615624824
 21
2.3920650496
  0
ARC
  5
23C
100
AcDbEntity
  8
0
100
AcDbCircle
 62
2
  6
CONTINUOUS
 10
16.9640374819
 20
2.3920650514
 40
0.0024749995
100
AcDbArc
 50
89.9999571957
 51
180.0000428043
  0
LINE
  5
23D
100
AcDbEntity
  8
0
100
AcDbLine
 62
2
  6
CONTINUOUS
 10
16.9640374837
 20
2.394540051
 11
17.0054005067
 21
2.394540051
  0
ARC
  5
23E
100
AcDbEntity
  8
0
100
AcDbCircle
 62
2
  6
CONTINUOUS
 10
17.0054005067
 20
2.3858775462
 40
0.0086625048
100
AcDbArc
 50
270.0
 51
90.0
  0
LINE
  5
23F
100
AcDbEntity
  8
0
100
AcDbLine
 62
2
  6
CONTINUOUS
 10
17.0054005067
 20
2.3772150414
 11
16.9640374837
 21
2.3772150414
  0
ARC
  5
240
100
AcDbEntity
  8
0
100
AcDbCircle
 62
2
  6
CONTINUOUS
 10
16.9640374819
 20
2.3796900409
 40
0.0024749995
100
AcDbArc
 50
179.9999571957
 51
270.0000428043
  0
ARC
  5
241
100
AcDbEntity
  8
0
100
AcDbCircle
 62
2
  6
CONTINUOUS
 10
18.2498075353
 20
2.3824863625
 40
0.044722495
100
AcDbArc
 50
195.531588407
 51
204.7624440448
  0
LINE
  5
242
100
AcDbEntity
  8
0
100
AcDbLine
 62
2
  6
CONTINUOUS
 10
18.2067181729
 20
2.3705110376
 11
18.2049141719
 21
2.376580041
  0
ARC
  5
243
100
AcDbEntity
  8
0
100
AcDbCircle
 62
2
  6
CONTINUOUS
 10
18.1665349746
 20
2.3667829606
 40
0.0396099176
100
AcDbArc
 50
14.3201081283
 51
22.4984722084
  0
ARC
  5
244
100
AcDbEntity
  8
0
100
AcDbCircle
 62
2
  6
CONTINUOUS
 10
18.189301283
 20
2.3757545872
 40
0.0151491919
100
AcDbArc
 50
24.098260853
 51
63.0369451818
  0
ARC
  5
245
100
AcDbEntity
  8
0
100
AcDbCircle
 62
2
  6
CONTINUOUS
 10
18.1852466282
 20
2.3674749668
 40
0.0243676582
100
AcDbArc
 50
63.3666028271
 51
90.3937697637
  0
LINE
  5
246
100
AcDbEntity
  8
0
100
AcDbLine
 62
2
  6
CONTINUOUS
 10
18.1850791609
 20
2.3918420495
 11
18.1574721456
 21
2.3918420495
  0
ARC
  5
247
100
AcDbEntity
  8
0
100
AcDbCircle
 62
2
  6
CONTINUOUS
 10
18.1574721437
 20
2.3893670499
 40
0.0024749995
100
AcDbArc
 50
89.9999571957
 51
180.0000428043
  0
LINE
  5
248
100
AcDbEntity
  8
0
100
AcDbLine
 62
2
  6
CONTINUOUS
 10
18.1549971442
 20
2.3893670481
 11
18.1549971442
 21
2.3796680427
  0
ARC
  5
249
100
AcDbEntity
  8
0
100
AcDbCircle
 62
2
  6
CONTINUOUS
 10
18.1574721437
 20
2.3796680409
 40
0.0024749995
100
AcDbArc
 50
179.9999571957
 51
270.0000428043
  0
LINE
  5
24A
100
AcDbEntity
  8
0
100
AcDbLine
 62
2
  6
CONTINUOUS
 10
18.1574721456
 20
2.3771930413
 11
18.1821311592
 21
2.3771930413
  0
ARC
  5
24B
100
AcDbEntity
  8
0
100
AcDbCircle
 62
2
  6
CONTINUOUS
 10
18.1821311611
 20
2.3747180418
 40
0.0024749995
100
AcDbArc
 50
359.9999571957
 51
90.0000428043
  0
LINE
  5
24C
100
AcDbEntity
  8
0
100
AcDbLine
 62
2
  6
CONTINUOUS
 10
18.1846061606
 20
2.37471804
 11
18.1846061606
 21
2.354940029
  0
ARC
  5
24D
100
AcDbEntity
  8
0
100
AcDbCircle
 62
2
  6
CONTINUOUS
 10
18.1821311611
 20
2.3549400272
 40
0.0024749995
100
AcDbArc
 50
269.9999571957
 51
0.0000428043
  0
LINE
  5
24E
100
AcDbEntity
  8
0
100
AcDbLine
 62
2
  6
CONTINUOUS
 10
18.1821311592
 20
2.3524650276
 11
18.0685600963
 21
2.3524650276
  0
ARC
  5
24F
100
AcDbEntity
  8
0
100
AcDbCircle
 62
2
  6
CONTINUOUS
 10
18.0685600944
 20
2.3549400272
 40
0.0024749995
100
AcDbArc
 50
179.9999571957
 51
270.0000428043
  0
LINE
  5
250
100
AcDbEntity
  8
0
100
AcDbLine
 62
2
  6
CONTINUOUS
 10
18.0660850949
 20
2.354940029
 11
18.0660850949
 21
2.37474004
  0
ARC
  5
251
100
AcDbEntity
  8
0
100
AcDbCircle
 62
2
  6
CONTINUOUS
 10
18.0685600944
 20
2.3747400418
 40
0.0024749995
100
AcDbArc
 50
89.9999571957
 51
180.0000428043
  0
LINE
  5
252
100
AcDbEntity
  8
0
100
AcDbLine
 62
2
  6
CONTINUOUS
 10
18.0685600963
 20
2.3772150414
 11
18.0913061089
 21
2.3772150414
  0
ARC
  5
253
100
AcDbEntity
  8
0
100
AcDbCircle
 62
2
  6
CONTINUOUS
 10
18.0913061107
 20
2.3796900409
 40
0.0024749995
100
AcDbArc
 50
269.9999571957
 51
0.0000428043
  0
LINE
  5
254
100
AcDbEntity
  8
0
100
AcDbLine
 62
2
  6
CONTINUOUS
 10
18.0937811102
 20
2.3796900427
 11
18.0937811102
 21
2.4260450684
  0
ARC
  5
255
100
AcDbEntity
  8
0
100
AcDbCircle
 62
2
  6
CONTINUOUS
 10
18.0913061107
 20
2.4260450703
 40
0.0024749995
100
AcDbArc
 50
359.9999571957
 51
90.0000428043
  0
LINE
  5
256
100
AcDbEntity
  8
0
100
AcDbLine
 62
2
  6
CONTINUOUS
 10
18.0913061089
 20
2.4285200698
 11
18.0685600963
 21
2.4285200698
  0
ARC
  5
257
100
AcDbEntity
  8
0
100
AcDbCircle
 62
2
  6
CONTINUOUS
 10
18.0685600944
 20
2.4309950693
 40
0.0024749995
100
AcDbArc
 50
179.9999571957
 51
270.0000428043
  0
LINE
  5
258
100
AcDbEntity
  8
0
100
AcDbLine
 62
2
  6
CONTINUOUS
 10
18.0660850949
 20
2.4309950712
 11
18.0660850949
 21
2.4507950822
  0
ARC
  5
259
100
AcDbEntity
  8
0
100
AcDbCircle
 62
2
  6
CONTINUOUS
 10
18.0685600944
 20
2.450795084
 40
0.0024749995
100
AcDbArc
 50
89.9999571957
 51
180.0000428043
  0
LINE
  5
25A
100
AcDbEntity
  8
0
100
AcDbLine
 62
2
  6
CONTINUOUS
 10
18.0685600963
 20
2.4532700835
 11
18.2181411792
 21
2.4532700835
  0
ARC
  5
25B
100
AcDbEntity
  8
0
100
AcDbCircle
 62
2
  6
CONTINUOUS
 10
18.2154778759
 20
2.270731173
 40
0.1825583387
100
AcDbArc
 50
79.8618509324
 51
89.1640948679
  0
ARC
  5
25C
100
AcDbEntity
  8
0
100
AcDbCircle
 62
2
  6
CONTINUOUS
 10
18.2417821663
 20
2.4115546891
 40
0.039319019
100
AcDbArc
 50
59.1202086415
 51
81.4730239328
  0
ARC
  5
25D
100
AcDbEntity
  8
0
100
AcDbCircle
 62
2
  6
CONTINUOUS
 10
18.2474415625
 20
2.4178893582
 40
0.0310192946
100
AcDbArc
 50
34.7540871
 51
62.0879016178
  0
ARC
  5
25E
100
AcDbEntity
  8
0
100
AcDbCircle
 62
2
  6
CONTINUOUS
 10
18.2591303136
 20
2.4264389594
 40
0.0165459396
100
AcDbArc
 50
1.548452892
 51
33.5033152417
  0
ARC
  5
25F
100
AcDbEntity
  8
0
100
AcDbCircle
 62
2
  6
CONTINUOUS
 10
18.2624269088
 20
2.4266074116
 40
0.0132462337
100
AcDbArc
 50
331.1510006998
 51
1.205404301
  0
ARC
  5
260
100
AcDbEntity
  8
0
100
AcDbCircle
 62
2
  6
CONTINUOUS
 10
18.2514162524
 20
2.4332859993
 40
0.0261183659
100
AcDbArc
 50
305.6373831893
 51
329.9727629745
  0
ARC
  5
261
100
AcDbEntity
  8
0
100
AcDbCircle
 62
2
  6
CONTINUOUS
 10
18.2210843148
 20
2.4764928489
 40
0.0789082104
100
AcDbArc
 50
292.906155071
 51
305.2574666259
  0
ARC
  5
262
100
AcDbEntity
  8
0
100
AcDbCircle
 62
2
  6
CONTINUOUS
 10
18.1973831488
 20
2.2998387438
 40
0.117346916
100
AcDbArc
 50
58.614769177
 51
62.3737227606
  0
ARC
  5
263
100
AcDbEntity
  8
0
100
AcDbCircle
 62
2
  6
CONTINUOUS
 10
18.2452661015
 20
2.377966004
 40
0.0257145923
100
AcDbArc
 50
39.3804255939
 51
59.0361096173
  0
ARC
  5
264
100
AcDbEntity
  8
0
100
AcDbCircle
 62
2
  6
CONTINUOUS
 10
18.244145746
 20
2.3778929208
 40
0.0266349791
100
AcDbArc
 50
20.3630922153
 51
37.9727053099
  0
ARC
  5
265
100
AcDbEntity
  8
0
100
AcDbCircle
 62
2
  6
CONTINUOUS
 10
18.2262452042
 20
2.3707115124
 40
0.0459185159
100
AcDbArc
 50
15.6740290068
 51
20.9917271228
  0
ARC
  5
266
100
AcDbEntity
  8
0
100
AcDbCircle
 62
2
  6
CONTINUOUS
 10
18.2848155393
 20
2.3863544954
 40
0.0147197649
100
AcDbArc
 50
192.7054516566
 51
206.0594861022
  0
ARC
  5
267
100
AcDbEntity
  8
0
100
AcDbCircle
 62
2
  6
CONTINUOUS
 10
18.2763212023
 20
2.3821460089
 40
0.0052403997
100
AcDbArc
 50
205.5232099488
 51
227.5054868079
  0
ARC
  5
268
100
AcDbEntity
  8
0
100
AcDbCircle
 62
2
  6
CONTINUOUS
 10
18.274592903
 20
2.3803306362
 40
0.0027347709
100
AcDbArc
 50
228.5117626737
 51
266.1485845754
  0
LINE
  5
269
100
AcDbEntity
  8
0
100
AcDbLine
 62
2
  6
CONTINUOUS
 10
18.2744092104
 20
2.3776020416
 11
18.275518211
 21
2.3776020416
  0
ARC
  5
26A
100
AcDbEntity
  8
0
100
AcDbCircle
 62
2
  6
CONTINUOUS
 10
18.2754566564
 20
2.3908507008
 40
0.0132488022
100
AcDbArc
 50
270.266200055
 51
281.2404888597
  0
ARC
  5
26B
100
AcDbEntity
  8
0
100
AcDbCircle
 62
2
  6
CONTINUOUS
 10
18.2766508974
 20
2.3851140072
 40
0.0073895522
100
AcDbArc
 50
280.8288201977
 51
305.0837508495
  0
ARC
  5
26C
100
AcDbEntity
  8
0
100
AcDbCircle
 62
2
  6
CONTINUOUS
 10
18.2770520791
 20
2.3842631608
 40
0.0064647042
100
AcDbArc
 50
306.5086174083
 51
340.2162360092
  0
ARC
  5
26D
100
AcDbEntity
  8
0
100
AcDbCircle
 62
2
  6
CONTINUOUS
 10
18.2718509025
 20
2.3860072224
 40
0.0119498009
100
AcDbArc
 50
340.7883861657
 51
1.1691452593
  0
LINE
  5
26E
100
AcDbEntity
  8
0
100
AcDbLine
 62
2
  6
CONTINUOUS
 10
18.2837982156
 20
2.3862510464
 11
18.2837982156
 21
2.3888770478
  0
ARC
  5
26F
100
AcDbEntity
  8
0
100
AcDbCircle
 62
2
  6
CONTINUOUS
 10
18.2862732151
 20
2.3888770497
 40
0.0024749995
100
AcDbArc
 50
89.9999571957
 51
180.0000428043
  0
LINE
  5
270
100
AcDbEntity
  8
0
100
AcDbLine
 62
2
  6
CONTINUOUS
 10
18.286273217
 20
2.3913520492
 11
18.2983832237
 21
2.3913520492
  0
ARC
  5
271
100
AcDbEntity
  8
0
100
AcDbCircle
 62
2
  6
CONTINUOUS
 10
18.2983832256
 20
2.3888770497
 40
0.0024749995
100
AcDbArc
 50
359.9999571957
 51
90.0000428043
  0
LINE
  5
272
100
AcDbEntity
  8
0
100
AcDbLine
 62
2
  6
CONTINUOUS
 10
18.3008582251
 20
2.3888770478
 11
18.3008582251
 21
2.3773250414
  0
ARC
  5
273
100
AcDbEntity
  8
0
100
AcDbCircle
 62
2
  6
CONTINUOUS
 10
18.2833025285
 20
2.3774293591
 40
0.0175560065
100
AcDbArc
 50
332.2279060967
 51
359.6595469939
  0
ARC
  5
274
100
AcDbEntity
  8
0
100
AcDbCircle
 62
2
  6
CONTINUOUS
 10
18.2739955177
 20
2.3823238645
 40
0.0280715479
100
AcDbArc
 50
308.5071794988
 51
332.2400656899
  0
ARC
  5
275
100
AcDbEntity
  8
0
100
AcDbCircle
 62
2
  6
CONTINUOUS
 10
18.2670033323
 20
2.3899250823
 40
0.0383802683
100
AcDbArc
 50
288.7656836787
 51
309.6104317088
  0
ARC
  5
276
100
AcDbEntity
  8
0
100
AcDbCircle
 62
2
  6
CONTINUOUS
 10
18.2727412998
 20
2.372338333
 40
0.0198837666
100
AcDbArc
 50
271.8586572978
 51
289.4131338543
  0
LINE
  5
277
100
AcDbEntity
  8
0
100
AcDbLine
 62
2
  6
CONTINUOUS
 10
18.2733862098
 20
2.3524650276
 11
18.2260221836
 21
2.3524650276
  0
ARC
  5
278
100
AcDbEntity
  8
0
100
AcDbCircle
 62
2
  6
CONTINUOUS
 10
18.2268275043
 20
2.3697871793
 40
0.0173408616
100
AcDbArc
 50
232.4713476722
 51
267.338189944
  0
ARC
  5
279
100
AcDbEntity
  8
0
100
AcDbCircle
 62
2
  6
CONTINUOUS
 10
18.2299260692
 20
2.3756374832
 40
0.0238935861
100
AcDbArc
 50
209.8247607259
 51
235.1255079367
  0
ARC
  5
27A
100
AcDbEntity
  8
0
100
AcDbCircle
 62
2
  6
CONTINUOUS
 10
18.1986405119
 20
2.4241492153
 40
0.0110815393
100
AcDbArc
 50
306.758405961
 51
320.4502234234
  0
ARC
  5
27B
100
AcDbEntity
  8
0
100
AcDbCircle
 62
2
  6
CONTINUOUS
 10
18.1930113209
 20
2.4318900438
 40
0.0206523367
100
AcDbArc
 50
289.6883413472
 51
306.4184925496
  0
ARC
  5
27C
100
AcDbEntity
  8
0
100
AcDbCircle
 62
2
  6
CONTINUOUS
 10
18.1910838152
 20
2.4362836911
 40
0.0254407115
100
AcDbArc
 50
270.7327484175
 51
290.441894219
  0
LINE
  5
27D
100
AcDbEntity
  8
0
100
AcDbLine
 62
2
  6
CONTINUOUS
 10
18.1914091644
 20
2.41084506
 11
18.1574721456
 21
2.41084506
  0
ARC
  5
27E
100
AcDbEntity
  8
0
100
AcDbCircle
 62
2
  6
CONTINUOUS
 10
18.1574721437
 20
2.4133200595
 40
0.0024749995
100
AcDbArc
 50
179.9999571957
 51
270.0000428043
  0
LINE
  5
27F
100
AcDbEntity
  8
0
100
AcDbLine
 62
2
  6
CONTINUOUS
 10
18.1549971442
 20
2.4133200614
 11
18.1549971442
 21
2.4260450684
  0
ARC
  5
280
100
AcDbEntity
  8
0
100
AcDbCircle
 62
2
  6
CONTINUOUS
 10
18.1574721437
 20
2.4260450703
 40
0.0024749995
100
AcDbArc
 50
89.9999571957
 51
180.0000428043
  0
LINE
  5
281
100
AcDbEntity
  8
0
100
AcDbLine
 62
2
  6
CONTINUOUS
 10
18.1574721456
 20
2.4285200698
 11
18.194273166
 21
2.4285200698
  0
ARC
  5
282
100
AcDbEntity
  8
0
100
AcDbCircle
 62
2
  6
CONTINUOUS
 10
18.1927282785
 20
2.4000655908
 40
0.0284963867
100
AcDbArc
 50
70.3834917948
 51
86.8922743861
  0
ARC
  5
283
100
AcDbEntity
  8
0
100
AcDbCircle
 62
2
  6
CONTINUOUS
 10
18.1975878885
 20
2.4131073238
 40
0.0145814632
100
AcDbArc
 50
54.6746025112
 51
71.1660573124
  0
ARC
  5
284
100
AcDbEntity
  8
0
100
AcDbCircle
 62
2
  6
CONTINUOUS
 10
18.2027173795
 20
2.419961249
 40
0.0060275915
100
AcDbArc
 50
20.9055592135
 51
56.7851676243
  0
ARC
  5
285
100
AcDbEntity
  8
0
100
AcDbCircle
 62
2
  6
CONTINUOUS
 10
18.2040179384
 20
2.4206215312
 40
0.0045795888
100
AcDbArc
 50
355.6235353944
 51
18.9942678268
  0
ARC
  5
286
100
AcDbEntity
  8
0
100
AcDbCircle
 62
2
  6
CONTINUOUS
 10
18.202811128
 20
2.4209153074
 40
0.0058087709
100
AcDbArc
 50
318.8515287446
 51
353.6422345323
  0
LINE
  5
287
100
AcDbEntity
  8
0
100
AcDbLine
 62
2
  6
CONTINUOUS
 10
17.341467693
 20
2.4532700835
 11
17.4419257488
 21
2.4532700835
  0
ARC
  5
288
100
AcDbEntity
  8
0
100
AcDbCircle
 62
2
  6
CONTINUOUS
 10
17.4419258835
 20
2.4507959157
 40
0.0024741678
100
AcDbArc
 50
46.3477981898
 51
90.0031206038
  0
LINE
  5
289
100
AcDbEntity
  8
0
100
AcDbLine
 62
2
  6
CONTINUOUS
 10
17.4436337497
 20
2.4525860832
 11
17.503666783
 21
2.3953060514
  0
ARC
  5
28A
100
AcDbEntity
  8
0
100
AcDbCircle
 62
2
  6
CONTINUOUS
 10
17.5053754839
 20
2.3970969891
 40
0.0024753014
100
AcDbArc
 50
226.3461263059
 51
0.0014637322
  0
LINE
  5
28B
100
AcDbEntity
  8
0
100
AcDbLine
 62
2
  6
CONTINUOUS
 10
17.5078507853
 20
2.3970970524
 11
17.5078507853
 21
2.4260450684
  0
ARC
  5
28C
100
AcDbEntity
  8
0
100
AcDbCircle
 62
2
  6
CONTINUOUS
 10
17.5053757858
 20
2.4260450703
 40
0.0024749995
100
AcDbArc
 50
359.9999571957
 51
90.0000428043
  0
LINE
  5
28D
100
AcDbEntity
  8
0
100
AcDbLine
 62
2
  6
CONTINUOUS
 10
17.5053757839
 20
2.4285200698
 11
17.4865997735
 21
2.4285200698
  0
ARC
  5
28E
100
AcDbEntity
  8
0
100
AcDbCircle
 62
2
  6
CONTINUOUS
 10
17.4865997717
 20
2.4309950693
 40
0.0024749995
100
AcDbArc
 50
179.9999571957
 51
270.0000428043
  0
LINE
  5
28F
100
AcDbEntity
  8
0
100
AcDbLine
 62
2
  6
CONTINUOUS
 10
17.4841247722
 20
2.4309950712
 11
17.4841247722
 21
2.4507950822
  0
ARC
  5
290
100
AcDbEntity
  8
0
100
AcDbCircle
 62
2
  6
CONTINUOUS
 10
17.4865997717
 20
2.450795084
 40
0.0024749995
100
AcDbArc
 50
89.9999571957
 51
180.0000428043
  0
LINE
  5
291
100
AcDbEntity
  8
0
100
AcDbLine
 62
2
  6
CONTINUOUS
 10
17.4865997735
 20
2.4532700835
 11
17.5606008146
 21
2.4532700835
  0
ARC
  5
292
100
AcDbEntity
  8
0
100
AcDbCircle
 62
2
  6
CONTINUOUS
 10
17.5606008164
 20
2.450795084
 40
0.0024749995
100
AcDbArc
 50
359.9999571957
 51
90.0000428043
  0
LINE
  5
293
100
AcDbEntity
  8
0
100
AcDbLine
 62
2
  6
CONTINUOUS
 10
17.5630758159
 20
2.4507950822
 11
17.5630758159
 21
2.4309950712
  0
ARC
  5
294
100
AcDbEntity
  8
0
100
AcDbCircle
 62
2
  6
CONTINUOUS
 10
17.5606008164
 20
2.4309950693
 40
0.0024749995
100
AcDbArc
 50
269.9999571957
 51
0.0000428043
  0
LINE
  5
295
100
AcDbEntity
  8
0
100
AcDbLine
 62
2
  6
CONTINUOUS
 10
17.5606008146
 20
2.4285200698
 11
17.5426678046
 21
2.4285200698
  0
ARC
  5
296
100
AcDbEntity
  8
0
100
AcDbCircle
 62
2
  6
CONTINUOUS
 10
17.5426678028
 20
2.4260450703
 40
0.0024749995
100
AcDbArc
 50
89.9999571957
 51
180.0000428043
  0
LINE
  5
297
100
AcDbEntity
  8
0
100
AcDbLine
 62
2
  6
CONTINUOUS
 10
17.5401928032
 20
2.4260450684
 11
17.5401928032
 21
2.354940029
  0
ARC
  5
298
100
AcDbEntity
  8
0
100
AcDbCircle
 62
2
  6
CONTINUOUS
 10
17.5377178037
 20
2.3549400272
 40
0.0024749995
100
AcDbArc
 50
269.9999571957
 51
0.0000428043
  0
LINE
  5
299
100
AcDbEntity
  8
0
100
AcDbLine
 62
2
  6
CONTINUOUS
 10
17.5377178019
 20
2.3524650276
 11
17.4635127607
 21
2.3524650276
  0
ARC
  5
29A
100
AcDbEntity
  8
0
100
AcDbCircle
 62
2
  6
CONTINUOUS
 10
17.463512126
 20
2.3549404438
 40
0.0024754162
100
AcDbArc
 50
226.3593695813
 51
270.0146919953
  0
LINE
  5
29B
100
AcDbEntity
  8
0
100
AcDbLine
 62
2
  6
CONTINUOUS
 10
17.4618037598
 20
2.353149028
 11
17.3985237247
 21
2.4135270615
  0
ARC
  5
29C
100
AcDbEntity
  8
0
100
AcDbCircle
 62
2
  6
CONTINUOUS
 10
17.3968150237
 20
2.4117361237
 40
0.0024753014
100
AcDbArc
 50
46.3461263059
 51
180.0014637321
  0
LINE
  5
29D
100
AcDbEntity
  8
0
100
AcDbLine
 62
2
  6
CONTINUOUS
 10
17.3943397224
 20
2.4117360605
 11
17.3943397224
 21
2.3796900427
  0
ARC
  5
29E
100
AcDbEntity
  8
0
100
AcDbCircle
 62
2
  6
CONTINUOUS
 10
17.3968147219
 20
2.3796900409
 40
0.0024749995
100
AcDbArc
 50
179.9999571957
 51
270.0000428043
  0
LINE
  5
29F
100
AcDbEntity
  8
0
100
AcDbLine
 62
2
  6
CONTINUOUS
 10
17.3968147237
 20
2.3772150414
 11
17.417131735
 21
2.3772150414
  0
ARC
  5
2A0
100
AcDbEntity
  8
0
100
AcDbCircle
 62
2
  6
CONTINUOUS
 10
17.4171317369
 20
2.3747400418
 40
0.0024749995
100
AcDbArc
 50
359.9999571957
 51
90.0000428043
  0
LINE
  5
2A1
100
AcDbEntity
  8
0
100
AcDbLine
 62
2
  6
CONTINUOUS
 10
17.4196067364
 20
2.37474004
 11
17.4196067364
 21
2.354940029
  0
ARC
  5
2A2
100
AcDbEntity
  8
0
100
AcDbCircle
 62
2
  6
CONTINUOUS
 10
17.4171317369
 20
2.3549400272
 40
0.0024749995
100
AcDbArc
 50
269.9999571957
 51
0.0000428043
  0
LINE
  5
2A3
100
AcDbEntity
  8
0
100
AcDbLine
 62
2
  6
CONTINUOUS
 10
17.417131735
 20
2.3524650276
 11
17.341467693
 21
2.3524650276
  0
ARC
  5
2A4
100
AcDbEntity
  8
0
100
AcDbCircle
 62
2
  6
CONTINUOUS
 10
17.3414676912
 20
2.3549400272
 40
0.0024749995
100
AcDbArc
 50
179.9999571957
 51
270.0000428043
  0
LINE
  5
2A5
100
AcDbEntity
  8
0
100
AcDbLine
 62
2
  6
CONTINUOUS
 10
17.3389926917
 20
2.354940029
 11
17.3389926917
 21
2.37474004
  0
ARC
  5
2A6
100
AcDbEntity
  8
0
100
AcDbCircle
 62
2
  6
CONTINUOUS
 10
17.3414676912
 20
2.3747400418
 40
0.0024749995
100
AcDbArc
 50
89.9999571957
 51
180.0000428043
  0
LINE
  5
2A7
100
AcDbEntity
  8
0
100
AcDbLine
 62
2
  6
CONTINUOUS
 10
17.341467693
 20
2.3772150414
 11
17.3601147034
 21
2.3772150414
  0
ARC
  5
2A8
100
AcDbEntity
  8
0
100
AcDbCircle
 62
2
  6
CONTINUOUS
 10
17.3601147052
 20
2.3796900409
 40
0.0024749995
100
AcDbArc
 50
269.9999571957
 51
0.0000428043
  0
LINE
  5
2A9
100
AcDbEntity
  8
0
100
AcDbLine
 62
2
  6
CONTINUOUS
 10
17.3625897048
 20
2.3796900427
 11
17.3625897048
 21
2.4260450684
  0
ARC
  5
2AA
100
AcDbEntity
  8
0
100
AcDbCircle
 62
2
  6
CONTINUOUS
 10
17.3601147052
 20
2.4260450703
 40
0.0024749995
100
AcDbArc
 50
359.9999571957
 51
90.0000428043
  0
LINE
  5
2AB
100
AcDbEntity
  8
0
100
AcDbLine
 62
2
  6
CONTINUOUS
 10
17.3601147034
 20
2.4285200698
 11
17.341467693
 21
2.4285200698
  0
ARC
  5
2AC
100
AcDbEntity
  8
0
100
AcDbCircle
 62
2
  6
CONTINUOUS
 10
17.3414676912
 20
2.4309950693
 40
0.0024749995
100
AcDbArc
 50
179.9999571957
 51
270.0000428043
  0
LINE
  5
2AD
100
AcDbEntity
  8
0
100
AcDbLine
 62
2
  6
CONTINUOUS
 10
17.3389926917
 20
2.4309950712
 11
17.3389926917
 21
2.4507950822
  0
ARC
  5
2AE
100
AcDbEntity
  8
0
100
AcDbCircle
 62
2
  6
CONTINUOUS
 10
17.3414676912
 20
2.450795084
 40
0.0024749995
100
AcDbArc
 50
89.9999571957
 51
180.0000428043
  0
LINE
  5
2AF
100
AcDbEntity
  8
0
100
AcDbLine
 62
2
  6
CONTINUOUS
 10
17.1937676111
 20
2.4268270689
 11
17.1866506072
 21
2.4156100627
  0
ARC
  5
2B0
100
AcDbEntity
  8
0
100
AcDbCircle
 62
2
  6
CONTINUOUS
 10
17.188740499
 20
2.4142841006
 40
0.0024750401
100
AcDbArc
 50
147.6063258012
 51
270.0025305754
  0
LINE
  5
2B1
100
AcDbEntity
  8
0
100
AcDbLine
 62
2
  6
CONTINUOUS
 10
17.1887406083
 20
2.4118090605
 11
17.2092976197
 21
2.4118090605
  0
ARC
  5
2B2
100
AcDbEntity
  8
0
100
AcDbCircle
 62
2
  6
CONTINUOUS
 10
17.2092975986
 20
2.4142842677
 40
0.0024752071
100
AcDbArc
 50
270.0004896793
 51
32.9089806818
  0
LINE
  5
2B3
100
AcDbEntity
  8
0
100
AcDbLine
 62
2
  6
CONTINUOUS
 10
17.2113756209
 20
2.4156290627
 11
17.2041166169
 21
2.4268450689
  0
ARC
  5
2B4
100
AcDbEntity
  8
0
100
AcDbCircle
 62
2
  6
CONTINUOUS
 10
17.2020380761
 20
2.4255006094
 40
0.0024754602
100
AcDbArc
 50
32.8959418573
 51
89.9875097202
  0
LINE
  5
2B5
100
AcDbEntity
  8
0
100
AcDbLine
 62
2
  6
CONTINUOUS
 10
17.2020386157
 20
2.4279760695
 11
17.1958576123
 21
2.4279760695
  0
ARC
  5
2B6
100
AcDbEntity
  8
0
100
AcDbCircle
 62
2
  6
CONTINUOUS
 10
17.195857542
 20
2.4255008692
 40
0.0024752003
100
AcDbArc
 50
89.998372645
 51
147.602165307
  0
LINE
  5
2B7
100
AcDbEntity
  8
0
100
AcDbLine
 62
2
  6
CONTINUOUS
 10
17.2171806241
 20
2.3897280483
 11
17.2228066272
 21
2.3810350435
  0
ARC
  5
2B8
100
AcDbEntity
  8
0
100
AcDbCircle
 62
2
  6
CONTINUOUS
 10
17.2207286049
 20
2.3796902485
 40
0.0024752071
100
AcDbArc
 50
270.0004896793
 51
32.9089806818
  0
LINE
  5
2B9
100
AcDbEntity
  8
0
100
AcDbLine
 62
2
  6
CONTINUOUS
 10
17.2207286261
 20
2.3772150414
 11
17.2062776181
 21
2.3772150414
  0
ARC
  5
2BA
100
AcDbEntity
  8
0
100
AcDbCircle
 62
2
  6
CONTINUOUS
 10
17.2062776162
 20
2.3747400418
 40
0.0024749995
100
AcDbArc
 50
89.9999571957
 51
180.0000428043
  0
LINE
  5
2BB
100
AcDbEntity
  8
0
100
AcDbLine
 62
2
  6
CONTINUOUS
 10
17.2038026167
 20
2.37474004
 11
17.2038026167
 21
2.354940029
  0
ARC
  5
2BC
100
AcDbEntity
  8
0
100
AcDbCircle
 62
2
  6
CONTINUOUS
 10
17.2062776162
 20
2.3549400272
 40
0.0024749995
100
AcDbArc
 50
179.9999571957
 51
270.0000428043
  0
LINE
  5
2BD
100
AcDbEntity
  8
0
100
AcDbLine
 62
2
  6
CONTINUOUS
 10
17.2062776181
 20
2.3524650276
 11
17.3115586765
 21
2.3524650276
  0
ARC
  5
2BE
100
AcDbEntity
  8
0
100
AcDbCircle
 62
2
  6
CONTINUOUS
 10
17.3115586783
 20
2.3549400272
 40
0.0024749995
100
AcDbArc
 50
269.9999571957
 51
0.0000428043
  0
LINE
  5
2BF
100
AcDbEntity
  8
0
100
AcDbLine
 62
2
  6
CONTINUOUS
 10
17.3140336778
 20
2.354940029
 11
17.3140336778
 21
2.37474004
  0
ARC
  5
2C0
100
AcDbEntity
  8
0
100
AcDbCircle
 62
2
  6
CONTINUOUS
 10
17.3115586783
 20
2.3747400418
 40
0.0024749995
100
AcDbArc
 50
359.9999571957
 51
90.0000428043
  0
LINE
  5
2C1
100
AcDbEntity
  8
0
100
AcDbLine
 62
2
  6
CONTINUOUS
 10
17.3115586765
 20
2.3772150414
 11
17.2915426654
 21
2.3772150414
  0
ARC
  5
2C2
100
AcDbEntity
  8
0
100
AcDbCircle
 62
2
  6
CONTINUOUS
 10
17.2915427859
 20
2.3796890824
 40
0.002474041
100
AcDbArc
 50
212.9056413127
 51
269.9972091756
  0
LINE
  5
2C3
100
AcDbEntity
  8
0
100
AcDbLine
 62
2
  6
CONTINUOUS
 10
17.2894656642
 20
2.378345042
 11
17.2417096377
 21
2.4521400829
  0
ARC
  5
2C4
100
AcDbEntity
  8
0
100
AcDbCircle
 62
2
  6
CONTINUOUS
 10
17.2396320161
 20
2.4507951234
 40
0.0024749602
100
AcDbArc
 50
32.9172174468
 51
90.0087853097
  0
LINE
  5
2C5
100
AcDbEntity
  8
0
100
AcDbLine
 62
2
  6
CONTINUOUS
 10
17.2396316366
 20
2.4532700835
 11
17.1824566049
 21
2.4532700835
  0
ARC
  5
2C6
100
AcDbEntity
  8
0
100
AcDbCircle
 62
2
  6
CONTINUOUS
 10
17.1824565346
 20
2.4507948832
 40
0.0024752003
100
AcDbArc
 50
89.998372645
 51
147.602165307
  0
LINE
  5
2C7
100
AcDbEntity
  8
0
100
AcDbLine
 62
2
  6
CONTINUOUS
 10
17.1803666037
 20
2.4521210829
 11
17.1335665777
 21
2.378364042
  0
ARC
  5
2C8
100
AcDbEntity
  8
0
100
AcDbCircle
 62
2
  6
CONTINUOUS
 10
17.1314766469
 20
2.3796902417
 40
0.0024752003
100
AcDbArc
 50
269.998372645
 51
327.602165307
  0
LINE
  5
2C9
100
AcDbEntity
  8
0
100
AcDbLine
 62
2
  6
CONTINUOUS
 10
17.1314765766
 20
2.3772150414
 11
17.1086155639
 21
2.3772150414
  0
ARC
  5
2CA
100
AcDbEntity
  8
0
100
AcDbCircle
 62
2
  6
CONTINUOUS
 10
17.1086155621
 20
2.3747400418
 40
0.0024749995
100
AcDbArc
 50
89.9999571957
 51
180.0000428043
  0
LINE
  5
2CB
100
AcDbEntity
  8
0
100
AcDbLine
 62
2
  6
CONTINUOUS
 10
17.1061405625
 20
2.37474004
 11
17.1061405625
 21
2.354940029
  0
ARC
  5
2CC
100
AcDbEntity
  8
0
100
AcDbCircle
 62
2
  6
CONTINUOUS
 10
17.1086155621
 20
2.3549400272
 40
0.0024749995
100
AcDbArc
 50
179.9999571957
 51
270.0000428043
  0
LINE
  5
2CD
100
AcDbEntity
  8
0
100
AcDbLine
 62
2
  6
CONTINUOUS
 10
17.1086155639
 20
2.3524650276
 11
17.1859916068
 21
2.3524650276
  0
ARC
  5
2CE
100
AcDbEntity
  8
0
100
AcDbCircle
 62
2
  6
CONTINUOUS
 10
17.1859916087
 20
2.3549400272
 40
0.0024749995
100
AcDbArc
 50
269.9999571957
 51
0.0000428043
  0
LINE
  5
2CF
100
AcDbEntity
  8
0
100
AcDbLine
 62
2
  6
CONTINUOUS
 10
17.1884666082
 20
2.354940029
 11
17.1884666082
 21
2.37474004
  0
ARC
  5
2D0
100
AcDbEntity
  8
0
100
AcDbCircle
 62
2
  6
CONTINUOUS
 10
17.1859916087
 20
2.3747400418
 40
0.0024749995
100
AcDbArc
 50
359.9999571957
 51
90.0000428043
  0
LINE
  5
2D1
100
AcDbEntity
  8
0
100
AcDbLine
 62
2
  6
CONTINUOUS
 10
17.1859916068
 20
2.3772150414
 11
17.1747086006
 21
2.3772150414
  0
ARC
  5
2D2
100
AcDbEntity
  8
0
100
AcDbCircle
 62
2
  6
CONTINUOUS
 10
17.1747084912
 20
2.3796900814
 40
0.0024750401
100
AcDbArc
 50
147.6063258011
 51
270.0025305754
  0
LINE
  5
2D3
100
AcDbEntity
  8
0
100
AcDbLine
 62
2
  6
CONTINUOUS
 10
17.1726185994
 20
2.3810160435
 11
17.1781346025
 21
2.3897100483
  0
ARC
  5
2D4
100
AcDbEntity
  8
0
100
AcDbCircle
 62
2
  6
CONTINUOUS
 10
17.1802245333
 20
2.3883838486
 40
0.0024752003
100
AcDbArc
 50
89.998372645
 51
147.602165307
  0
LINE
  5
2D5
100
AcDbEntity
  8
0
100
AcDbLine
 62
2
  6
CONTINUOUS
 10
17.1802246036
 20
2.3908590489
 11
17.215102623
 21
2.3908590489
  0
ARC
  5
2D6
100
AcDbEntity
  8
0
100
AcDbCircle
 62
2
  6
CONTINUOUS
 10
17.2151020833
 20
2.3883835888
 40
0.0024754602
100
AcDbArc
 50
32.8959418573
 51
89.9875097202
  0
LINE
  5
2D7
100
AcDbEntity
  8
0
100
AcDbLine
 62
2
  6
CONTINUOUS
 10
17.5897208307
 20
2.4532700835
 11
17.6901788864
 21
2.4532700835
  0
ARC
  5
2D8
100
AcDbEntity
  8
0
100
AcDbCircle
 62
2
  6
CONTINUOUS
 10
17.6901790212
 20
2.4507959157
 40
0.0024741678
100
AcDbArc
 50
46.3477981899
 51
90.0031206038
  0
LINE
  5
2D9
100
AcDbEntity
  8
0
100
AcDbLine
 62
2
  6
CONTINUOUS
 10
17.6918868874
 20
2.4525860832
 11
17.7519199207
 21
2.3953060514
  0
ARC
  5
2DA
100
AcDbEntity
  8
0
100
AcDbCircle
 62
2
  6
CONTINUOUS
 10
17.7536286216
 20
2.3970969891
 40
0.0024753014
100
AcDbArc
 50
226.3461263059
 51
0.0014637321
  0
LINE
  5
2DB
100
AcDbEntity
  8
0
100
AcDbLine
 62
2
  6
CONTINUOUS
 10
17.756103923
 20
2.3970970524
 11
17.756103923
 21
2.4260450684
  0
ARC
  5
2DC
100
AcDbEntity
  8
0
100
AcDbCircle
 62
2
  6
CONTINUOUS
 10
17.7536289235
 20
2.4260450703
 40
0.0024749995
100
AcDbArc
 50
359.9999571957
 51
90.0000428043
  0
LINE
  5
2DD
100
AcDbEntity
  8
0
100
AcDbLine
 62
2
  6
CONTINUOUS
 10
17.7536289216
 20
2.4285200698
 11
17.7348529112
 21
2.4285200698
  0
ARC
  5
2DE
100
AcDbEntity
  8
0
100
AcDbCircle
 62
2
  6
CONTINUOUS
 10
17.7348529093
 20
2.4309950693
 40
0.0024749995
100
AcDbArc
 50
179.9999571957
 51
270.0000428043
  0
LINE
  5
2DF
100
AcDbEntity
  8
0
100
AcDbLine
 62
2
  6
CONTINUOUS
 10
17.7323779098
 20
2.4309950712
 11
17.7323779098
 21
2.4507950822
  0
ARC
  5
2E0
100
AcDbEntity
  8
0
100
AcDbCircle
 62
2
  6
CONTINUOUS
 10
17.7348529093
 20
2.450795084
 40
0.0024749995
100
AcDbArc
 50
89.9999571957
 51
180.0000428043
  0
LINE
  5
2E1
100
AcDbEntity
  8
0
100
AcDbLine
 62
2
  6
CONTINUOUS
 10
17.7348529112
 20
2.4532700835
 11
17.8088539522
 21
2.4532700835
  0
ARC
  5
2E2
100
AcDbEntity
  8
0
100
AcDbCircle
 62
2
  6
CONTINUOUS
 10
17.8088539541
 20
2.450795084
 40
0.0024749995
100
AcDbArc
 50
359.9999571957
 51
90.0000428043
  0
LINE
  5
2E3
100
AcDbEntity
  8
0
100
AcDbLine
 62
2
  6
CONTINUOUS
 10
17.8113289536
 20
2.4507950822
 11
17.8113289536
 21
2.4309950712
  0
ARC
  5
2E4
100
AcDbEntity
  8
0
100
AcDbCircle
 62
2
  6
CONTINUOUS
 10
17.8088539541
 20
2.4309950693
 40
0.0024749995
100
AcDbArc
 50
269.9999571957
 51
0.0000428043
  0
LINE
  5
2E5
100
AcDbEntity
  8
0
100
AcDbLine
 62
2
  6
CONTINUOUS
 10
17.8088539522
 20
2.4285200698
 11
17.7909209423
 21
2.4285200698
  0
ARC
  5
2E6
100
AcDbEntity
  8
0
100
AcDbCircle
 62
2
  6
CONTINUOUS
 10
17.7909209404
 20
2.4260450703
 40
0.0024749995
100
AcDbArc
 50
89.9999571957
 51
180.0000428043
  0
LINE
  5
2E7
100
AcDbEntity
  8
0
100
AcDbLine
 62
2
  6
CONTINUOUS
 10
17.7884459409
 20
2.4260450684
 11
17.7884459409
 21
2.354940029
  0
ARC
  5
2E8
100
AcDbEntity
  8
0
100
AcDbCircle
 62
2
  6
CONTINUOUS
 10
17.7859709414
 20
2.3549400272
 40
0.0024749995
100
AcDbArc
 50
269.9999571957
 51
0.0000428043
  0
LINE
  5
2E9
100
AcDbEntity
  8
0
100
AcDbLine
 62
2
  6
CONTINUOUS
 10
17.7859709395
 20
2.3524650276
 11
17.7117648984
 21
2.3524650276
  0
ARC
  5
2EA
100
AcDbEntity
  8
0
100
AcDbCircle
 62
2
  6
CONTINUOUS
 10
17.7117647636
 20
2.3549391954
 40
0.0024741678
100
AcDbArc
 50
226.3477981898
 51
270.0031206038
  0
LINE
  5
2EB
100
AcDbEntity
  8
0
100
AcDbLine
 62
2
  6
CONTINUOUS
 10
17.7100568974
 20
2.353149028
 11
17.6467768624
 21
2.4135270615
  0
ARC
  5
2EC
100
AcDbEntity
  8
0
100
AcDbCircle
 62
2
  6
CONTINUOUS
 10
17.6450681614
 20
2.4117361237
 40
0.0024753014
100
AcDbArc
 50
46.3461263059
 51
180.0014637321
  0
LINE
  5
2ED
100
AcDbEntity
  8
0
100
AcDbLine
 62
2
  6
CONTINUOUS
 10
17.64259286
 20
2.4117360605
 11
17.64259286
 21
2.3796900427
  0
ARC
  5
2EE
100
AcDbEntity
  8
0
100
AcDbCircle
 62
2
  6
CONTINUOUS
 10
17.6450678596
 20
2.3796900409
 40
0.0024749995
100
AcDbArc
 50
179.9999571957
 51
270.0000428043
  0
LINE
  5
2EF
100
AcDbEntity
  8
0
100
AcDbLine
 62
2
  6
CONTINUOUS
 10
17.6450678614
 20
2.3772150414
 11
17.6653848727
 21
2.3772150414
  0
ARC
  5
2F0
100
AcDbEntity
  8
0
100
AcDbCircle
 62
2
  6
CONTINUOUS
 10
17.6653848745
 20
2.3747400418
 40
0.0024749995
100
AcDbArc
 50
359.9999571957
 51
90.0000428043
  0
LINE
  5
2F1
100
AcDbEntity
  8
0
100
AcDbLine
 62
2
  6
CONTINUOUS
 10
17.667859874
 20
2.37474004
 11
17.667859874
 21
2.354940029
  0
ARC
  5
2F2
100
AcDbEntity
  8
0
100
AcDbCircle
 62
2
  6
CONTINUOUS
 10
17.6653848745
 20
2.3549400272
 40
0.0024749995
100
AcDbArc
 50
269.9999571957
 51
0.0000428043
  0
LINE
  5
2F3
100
AcDbEntity
  8
0
100
AcDbLine
 62
2
  6
CONTINUOUS
 10
17.6653848727
 20
2.3524650276
 11
17.5897208307
 21
2.3524650276
  0
ARC
  5
2F4
100
AcDbEntity
  8
0
100
AcDbCircle
 62
2
  6
CONTINUOUS
 10
17.5897208289
 20
2.3549400272
 40
0.0024749995
100
AcDbArc
 50
179.9999571957
 51
270.0000428043
  0
LINE
  5
2F5
100
AcDbEntity
  8
0
100
AcDbLine
 62
2
  6
CONTINUOUS
 10
17.5872458293
 20
2.354940029
 11
17.5872458293
 21
2.37474004
  0
ARC
  5
2F6
100
AcDbEntity
  8
0
100
AcDbCircle
 62
2
  6
CONTINUOUS
 10
17.5897208289
 20
2.3747400418
 40
0.0024749995
100
AcDbArc
 50
89.9999571957
 51
180.0000428043
  0
LINE
  5
2F7
100
AcDbEntity
  8
0
100
AcDbLine
 62
2
  6
CONTINUOUS
 10
17.5897208307
 20
2.3772150414
 11
17.6083668411
 21
2.3772150414
  0
ARC
  5
2F8
100
AcDbEntity
  8
0
100
AcDbCircle
 62
2
  6
CONTINUOUS
 10
17.6083668429
 20
2.3796900409
 40
0.0024749995
100
AcDbArc
 50
269.9999571957
 51
0.0000428043
  0
LINE
  5
2F9
100
AcDbEntity
  8
0
100
AcDbLine
 62
2
  6
CONTINUOUS
 10
17.6108418424
 20
2.3796900427
 11
17.6108418424
 21
2.4260450684
  0
ARC
  5
2FA
100
AcDbEntity
  8
0
100
AcDbCircle
 62
2
  6
CONTINUOUS
 10
17.6083668429
 20
2.4260450703
 40
0.0024749995
100
AcDbArc
 50
359.9999571957
 51
90.0000428043
  0
LINE
  5
2FB
100
AcDbEntity
  8
0
100
AcDbLine
 62
2
  6
CONTINUOUS
 10
17.6083668411
 20
2.4285200698
 11
17.5897208307
 21
2.4285200698
  0
ARC
  5
2FC
100
AcDbEntity
  8
0
100
AcDbCircle
 62
2
  6
CONTINUOUS
 10
17.5897208289
 20
2.4309950693
 40
0.0024749995
100
AcDbArc
 50
179.9999571957
 51
270.0000428043
  0
LINE
  5
2FD
100
AcDbEntity
  8
0
100
AcDbLine
 62
2
  6
CONTINUOUS
 10
17.5872458293
 20
2.4309950712
 11
17.5872458293
 21
2.4507950822
  0
ARC
  5
2FE
100
AcDbEntity
  8
0
100
AcDbCircle
 62
2
  6
CONTINUOUS
 10
17.5897208289
 20
2.450795084
 40
0.0024749995
100
AcDbArc
 50
89.9999571957
 51
180.0000428043
  0
LINE
  5
2FF
100
AcDbEntity
  8
0
100
AcDbLine
 62
2
  6
CONTINUOUS
 10
17.9625500375
 20
2.3937150505
 11
17.927383018
 21
2.3937150505
  0
ARC
  5
300
100
AcDbEntity
  8
0
100
AcDbCircle
 62
2
  6
CONTINUOUS
 10
17.9273830161
 20
2.391240051
 40
0.0024749995
100
AcDbArc
 50
89.9999571957
 51
180.0000428043
  0
LINE
  5
301
100
AcDbEntity
  8
0
100
AcDbLine
 62
2
  6
CONTINUOUS
 10
17.9249080166
 20
2.3912400491
 11
17.9249080166
 21
2.3796900427
  0
ARC
  5
302
100
AcDbEntity
  8
0
100
AcDbCircle
 62
2
  6
CONTINUOUS
 10
17.9273830161
 20
2.3796900409
 40
0.0024749995
100
AcDbArc
 50
179.9999571957
 51
270.0000428043
  0
LINE
  5
303
100
AcDbEntity
  8
0
100
AcDbLine
 62
2
  6
CONTINUOUS
 10
17.927383018
 20
2.3772150414
 11
17.992387054
 21
2.3772150414
  0
ARC
  5
304
100
AcDbEntity
  8
0
100
AcDbCircle
 62
2
  6
CONTINUOUS
 10
17.9923870559
 20
2.3796900409
 40
0.0024749995
100
AcDbArc
 50
269.9999571957
 51
0.0000428043
  0
LINE
  5
305
100
AcDbEntity
  8
0
100
AcDbLine
 62
2
  6
CONTINUOUS
 10
17.9948620554
 20
2.3796900427
 11
17.9948620554
 21
2.3879400473
  0
ARC
  5
306
100
AcDbEntity
  8
0
100
AcDbCircle
 62
2
  6
CONTINUOUS
 10
17.9973370549
 20
2.3879400492
 40
0.0024749995
100
AcDbArc
 50
89.9999571957
 51
180.0000428043
  0
LINE
  5
307
100
AcDbEntity
  8
0
100
AcDbLine
 62
2
  6
CONTINUOUS
 10
17.9973370568
 20
2.3904150487
 11
18.0396560802
 21
2.3904150487
  0
ARC
  5
308
100
AcDbEntity
  8
0
100
AcDbCircle
 62
2
  6
CONTINUOUS
 10
18.0396560821
 20
2.3879400492
 40
0.0024749995
100
AcDbArc
 50
359.9999571957
 51
90.0000428043
  0
LINE
  5
309
100
AcDbEntity
  8
0
100
AcDbLine
 62
2
  6
CONTINUOUS
 10
18.0421310816
 20
2.3879400473
 11
18.0421310816
 21
2.354940029
  0
ARC
  5
30A
100
AcDbEntity
  8
0
100
AcDbCircle
 62
2
  6
CONTINUOUS
 10
18.0396560821
 20
2.3549400272
 40
0.0024749995
100
AcDbArc
 50
269.9999571957
 51
0.0000428043
  0
LINE
  5
30B
100
AcDbEntity
  8
0
100
AcDbLine
 62
2
  6
CONTINUOUS
 10
18.0396560802
 20
2.3524650276
 11
17.8364439675
 21
2.3524650276
  0
ARC
  5
30C
100
AcDbEntity
  8
0
100
AcDbCircle
 62
2
  6
CONTINUOUS
 10
17.8364439657
 20
2.3549400272
 40
0.0024749995
100
AcDbArc
 50
179.9999571957
 51
270.0000428043
  0
LINE
  5
30D
100
AcDbEntity
  8
0
100
AcDbLine
 62
2
  6
CONTINUOUS
 10
17.8339689662
 20
2.354940029
 11
17.8339689662
 21
2.37474004
  0
ARC
  5
30E
100
AcDbEntity
  8
0
100
AcDbCircle
 62
2
  6
CONTINUOUS
 10
17.8364439657
 20
2.3747400418
 40
0.0024749995
100
AcDbArc
 50
89.9999571957
 51
180.0000428043
  0
LINE
  5
30F
100
AcDbEntity
  8
0
100
AcDbLine
 62
2
  6
CONTINUOUS
 10
17.8364439675
 20
2.3772150414
 11
17.8603669808
 21
2.3772150414
  0
ARC
  5
310
100
AcDbEntity
  8
0
100
AcDbCircle
 62
2
  6
CONTINUOUS
 10
17.8603669827
 20
2.3796900409
 40
0.0024749995
100
AcDbArc
 50
269.9999571956
 51
0.0000428042
  0
LINE
  5
311
100
AcDbEntity
  8
0
100
AcDbLine
 62
2
  6
CONTINUOUS
 10
17.8628419822
 20
2.3796900427
 11
17.8628419822
 21
2.4260450684
  0
ARC
  5
312
100
AcDbEntity
  8
0
100
AcDbCircle
 62
2
  6
CONTINUOUS
 10
17.8603669827
 20
2.4260450703
 40
0.0024749995
100
AcDbArc
 50
359.9999571957
 51
90.0000428043
  0
LINE
  5
313
100
AcDbEntity
  8
0
100
AcDbLine
 62
2
  6
CONTINUOUS
 10
17.8603669808
 20
2.4285200698
 11
17.8364439675
 21
2.4285200698
  0
ARC
  5
314
100
AcDbEntity
  8
0
100
AcDbCircle
 62
2
  6
CONTINUOUS
 10
17.8364439657
 20
2.4309950693
 40
0.0024749995
100
AcDbArc
 50
179.9999571957
 51
270.0000428043
  0
LINE
  5
315
100
AcDbEntity
  8
0
100
AcDbLine
 62
2
  6
CONTINUOUS
 10
17.8339689662
 20
2.4309950712
 11
17.8339689662
 21
2.4507950822
  0
ARC
  5
316
100
AcDbEntity
  8
0
100
AcDbCircle
 62
2
  6
CONTINUOUS
 10
17.8364439657
 20
2.450795084
 40
0.0024749995
100
AcDbArc
 50
89.9999571957
 51
180.0000428043
  0
LINE
  5
317
100
AcDbEntity
  8
0
100
AcDbLine
 62
2
  6
CONTINUOUS
 10
17.8364439675
 20
2.4532700835
 11
18.0382370794
 21
2.4532700835
  0
ARC
  5
318
100
AcDbEntity
  8
0
100
AcDbCircle
 62
2
  6
CONTINUOUS
 10
18.0382370813
 20
2.450795084
 40
0.0024749995
100
AcDbArc
 50
359.9999571957
 51
90.0000428043
  0
LINE
  5
319
100
AcDbEntity
  8
0
100
AcDbLine
 62
2
  6
CONTINUOUS
 10
18.0407120808
 20
2.4507950822
 11
18.0407120808
 21
2.4177950639
  0
ARC
  5
31A
100
AcDbEntity
  8
0
100
AcDbCircle
 62
2
  6
CONTINUOUS
 10
18.0382370813
 20
2.417795062
 40
0.0024749995
100
AcDbArc
 50
269.9999571957
 51
0.0000428043
  0
LINE
  5
31B
100
AcDbEntity
  8
0
100
AcDbLine
 62
2
  6
CONTINUOUS
 10
18.0382370794
 20
2.4153200625
 11
17.9963730562
 21
2.4153200625
  0
ARC
  5
31C
100
AcDbEntity
  8
0
100
AcDbCircle
 62
2
  6
CONTINUOUS
 10
17.9963730544
 20
2.417795062
 40
0.0024749995
100
AcDbArc
 50
179.9999571957
 51
270.0000428043
  0
LINE
  5
31D
100
AcDbEntity
  8
0
100
AcDbLine
 62
2
  6
CONTINUOUS
 10
17.9938980549
 20
2.4177950639
 11
17.9938980549
 21
2.4260450684
  0
ARC
  5
31E
100
AcDbEntity
  8
0
100
AcDbCircle
 62
2
  6
CONTINUOUS
 10
17.9914230553
 20
2.4260450703
 40
0.0024749995
100
AcDbArc
 50
359.9999571957
 51
90.0000428043
  0
LINE
  5
31F
100
AcDbEntity
  8
0
100
AcDbLine
 62
2
  6
CONTINUOUS
 10
17.9914230535
 20
2.4285200698
 11
17.927383018
 21
2.4285200698
  0
ARC
  5
320
100
AcDbEntity
  8
0
100
AcDbCircle
 62
2
  6
CONTINUOUS
 10
17.9273830161
 20
2.4260450703
 40
0.0024749995
100
AcDbArc
 50
89.9999571957
 51
180.0000428043
  0
LINE
  5
321
100
AcDbEntity
  8
0
100
AcDbLine
 62
2
  6
CONTINUOUS
 10
17.9249080166
 20
2.4260450684
 11
17.9249080166
 21
2.414495062
  0
ARC
  5
322
100
AcDbEntity
  8
0
100
AcDbCircle
 62
2
  6
CONTINUOUS
 10
17.9273830161
 20
2.4144950602
 40
0.0024749995
100
AcDbArc
 50
179.9999571957
 51
270.0000428043
  0
LINE
  5
323
100
AcDbEntity
  8
0
100
AcDbLine
 62
2
  6
CONTINUOUS
 10
17.927383018
 20
2.4120200607
 11
17.9625500375
 21
2.4120200607
  0
ARC
  5
324
100
AcDbEntity
  8
0
100
AcDbCircle
 62
2
  6
CONTINUOUS
 10
17.9625500393
 20
2.4095450611
 40
0.0024749995
100
AcDbArc
 50
359.9999571957
 51
90.0000428043
  0
LINE
  5
325
100
AcDbEntity
  8
0
100
AcDbLine
 62
2
  6
CONTINUOUS
 10
17.9650250388
 20
2.4095450593
 11
17.9650250388
 21
2.3961900519
  0
ARC
  5
326
100
AcDbEntity
  8
0
100
AcDbCircle
 62
2
  6
CONTINUOUS
 10
17.9625500393
 20
2.39619005
 40
0.0024749995
100
AcDbArc
 50
269.9999571956
 51
0.0000428042
  0
LINE
  5
327
100
AcDbEntity
  8
0
100
AcDbLine
 62
2
  6
CONTINUOUS
 10
18.39781452
 20
2.3963074516
 11
18.39781452
 21
2.4069246582
  0
LINE
  5
328
100
AcDbEntity
  8
0
100
AcDbLine
 62
2
  6
CONTINUOUS
 10
18.3778145089
 20
2.3616679219
 11
18.3778145089
 21
2.4415641879
  0
LINE
  5
329
100
AcDbEntity
  8
0
100
AcDbLine
 62
2
  6
CONTINUOUS
 10
18.3578144978
 20
2.345629656
 11
18.3578144978
 21
2.4576024538
  0
LINE
  5
32A
100
AcDbEntity
  8
0
100
AcDbLine
 62
2
  6
CONTINUOUS
 10
18.3378144867
 20
2.3338395042
 11
18.3378144867
 21
2.4693926055
  0
LINE
  5
32B
100
AcDbEntity
  8
0
100
AcDbLine
 62
2
  6
CONTINUOUS
 10
18.3178144756
 20
2.3240439832
 11
18.3178144756
 21
2.4791881266
  0
LINE
  5
32C
100
AcDbEntity
  8
0
100
AcDbLine
 62
2
  6
CONTINUOUS
 10
18.2978144645
 20
2.3153630651
 11
18.2978144645
 21
2.36748602
  0
LINE
  5
32D
100
AcDbEntity
  8
0
100
AcDbLine
 62
2
  6
CONTINUOUS
 10
18.2978144645
 20
2.3913520492
 11
18.2978144645
 21
2.4878690447
  0
LINE
  5
32E
100
AcDbEntity
  8
0
100
AcDbLine
 62
2
  6
CONTINUOUS
 10
18.2778144535
 20
2.3077915047
 11
18.2778144535
 21
2.3531152062
  0
LINE
  5
32F
100
AcDbEntity
  8
0
100
AcDbLine
 62
2
  6
CONTINUOUS
 10
18.2778144535
 20
2.3778158317
 11
18.2778144535
 21
2.4954406051
  0
LINE
  5
330
100
AcDbEntity
  8
0
100
AcDbLine
 62
2
  6
CONTINUOUS
 10
18.2578144424
 20
2.301041061
 11
18.2578144424
 21
2.3524650276
  0
LINE
  5
331
100
AcDbEntity
  8
0
100
AcDbLine
 62
2
  6
CONTINUOUS
 10
18.2578144424
 20
2.4004217989
 11
18.2578144424
 21
2.4066675471
  0
LINE
  5
332
100
AcDbEntity
  8
0
100
AcDbLine
 62
2
  6
CONTINUOUS
 10
18.2578144424
 20
2.4474440616
 11
18.2578144424
 21
2.5021910487
  0
LINE
  5
333
100
AcDbEntity
  8
0
100
AcDbLine
 62
2
  6
CONTINUOUS
 10
18.2378144313
 20
2.2947079333
 11
18.2378144313
 21
2.3524650276
  0
LINE
  5
334
100
AcDbEntity
  8
0
100
AcDbLine
 62
2
  6
CONTINUOUS
 10
18.2378144313
 20
2.4518964909
 11
18.2378144313
 21
2.5085241764
  0
LINE
  5
335
100
AcDbEntity
  8
0
100
AcDbLine
 62
2
  6
CONTINUOUS
 10
18.2178144202
 20
2.2891345268
 11
18.2178144202
 21
2.354983815
  0
LINE
  5
336
100
AcDbEntity
  8
0
100
AcDbLine
 62
2
  6
CONTINUOUS
 10
18.2178144202
 20
2.4532700835
 11
18.2178144202
 21
2.514097583
  0
LINE
  5
337
100
AcDbEntity
  8
0
100
AcDbLine
 62
2
  6
CONTINUOUS
 10
18.1978144091
 20
2.2837804818
 11
18.1978144091
 21
2.3882804137
  0
LINE
  5
338
100
AcDbEntity
  8
0
100
AcDbLine
 62
2
  6
CONTINUOUS
 10
18.1978144091
 20
2.4117543403
 11
18.1978144091
 21
2.4281034235
  0
LINE
  5
339
100
AcDbEntity
  8
0
100
AcDbLine
 62
2
  6
CONTINUOUS
 10
18.1978144091
 20
2.4532700835
 11
18.1978144091
 21
2.519451628
  0
LINE
  5
33A
100
AcDbEntity
  8
0
100
AcDbLine
 62
2
  6
CONTINUOUS
 10
18.177814398
 20
2.2789683935
 11
18.177814398
 21
2.3524650276
  0
LINE
  5
33B
100
AcDbEntity
  8
0
100
AcDbLine
 62
2
  6
CONTINUOUS
 10
18.177814398
 20
2.3771930413
 11
18.177814398
 21
2.3918420495
  0
LINE
  5
33C
100
AcDbEntity
  8
0
100
AcDbLine
 62
2
  6
CONTINUOUS
 10
18.177814398
 20
2.41084506
 11
18.177814398
 21
2.4285200698
  0
LINE
  5
33D
100
AcDbEntity
  8
0
100
AcDbLine
 62
2
  6
CONTINUOUS
 10
18.177814398
 20
2.4532700835
 11
18.177814398
 21
2.5242637163
  0
LINE
  5
33E
100
AcDbEntity
  8
0
100
AcDbLine
 62
2
  6
CONTINUOUS
 10
18.1578143869
 20
2.2744172398
 11
18.1578143869
 21
2.3524650276
  0
LINE
  5
33F
100
AcDbEntity
  8
0
100
AcDbLine
 62
2
  6
CONTINUOUS
 10
18.1578143869
 20
2.3771930413
 11
18.1578143869
 21
2.3918420495
  0
LINE
  5
340
100
AcDbEntity
  8
0
100
AcDbLine
 62
2
  6
CONTINUOUS
 10
18.1578143869
 20
2.41084506
 11
18.1578143869
 21
2.4285200698
  0
LINE
  5
341
100
AcDbEntity
  8
0
100
AcDbLine
 62
2
  6
CONTINUOUS
 10
18.1578143869
 20
2.4532700835
 11
18.1578143869
 21
2.5288148699
  0
LINE
  5
342
100
AcDbEntity
  8
0
100
AcDbLine
 62
2
  6
CONTINUOUS
 10
18.1378143758
 20
2.2701196816
 11
18.1378143758
 21
2.3524650276
  0
LINE
  5
343
100
AcDbEntity
  8
0
100
AcDbLine
 62
2
  6
CONTINUOUS
 10
18.1378143758
 20
2.4532700835
 11
18.1378143758
 21
2.5331124282
  0
LINE
  5
344
100
AcDbEntity
  8
0
100
AcDbLine
 62
2
  6
CONTINUOUS
 10
18.1178143647
 20
2.2662469216
 11
18.1178143647
 21
2.3524650276
  0
LINE
  5
345
100
AcDbEntity
  8
0
100
AcDbLine
 62
2
  6
CONTINUOUS
 10
18.1178143647
 20
2.4532700835
 11
18.1178143647
 21
2.5369851882
  0
LINE
  5
346
100
AcDbEntity
  8
0
100
AcDbLine
 62
2
  6
CONTINUOUS
 10
18.0978143536
 20
2.2623741615
 11
18.0978143536
 21
2.3524650276
  0
LINE
  5
347
100
AcDbEntity
  8
0
100
AcDbLine
 62
2
  6
CONTINUOUS
 10
18.0978143536
 20
2.4532700835
 11
18.0978143536
 21
2.5408579483
  0
LINE
  5
348
100
AcDbEntity
  8
0
100
AcDbLine
 62
2
  6
CONTINUOUS
 10
18.0778143425
 20
2.2592603806
 11
18.0778143425
 21
2.3524650276
  0
LINE
  5
349
100
AcDbEntity
  8
0
100
AcDbLine
 62
2
  6
CONTINUOUS
 10
18.0778143425
 20
2.3772150414
 11
18.0778143425
 21
2.4285200698
  0
LINE
  5
34A
100
AcDbEntity
  8
0
100
AcDbLine
 62
2
  6
CONTINUOUS
 10
18.0778143425
 20
2.4532700835
 11
18.0778143425
 21
2.5439717292
  0
LINE
  5
34B
100
AcDbEntity
  8
0
100
AcDbLine
 62
2
  6
CONTINUOUS
 10
18.0578143315
 20
2.2562429918
 11
18.0578143315
 21
2.546989118
  0
LINE
  5
34C
100
AcDbEntity
  8
0
100
AcDbLine
 62
2
  6
CONTINUOUS
 10
18.0378143204
 20
2.2532256029
 11
18.0378143204
 21
2.3524650276
  0
LINE
  5
34D
100
AcDbEntity
  8
0
100
AcDbLine
 62
2
  6
CONTINUOUS
 10
18.0378143204
 20
2.3904150487
 11
18.0378143204
 21
2.4153200625
  0
LINE
  5
34E
100
AcDbEntity
  8
0
100
AcDbLine
 62
2
  6
CONTINUOUS
 10
18.0378143204
 20
2.4532700835
 11
18.0378143204
 21
2.5500065068
  0
LINE
  5
34F
100
AcDbEntity
  8
0
100
AcDbLine
 62
2
  6
CONTINUOUS
 10
18.0178143093
 20
2.2502082141
 11
18.0178143093
 21
2.3524650276
  0
LINE
  5
350
100
AcDbEntity
  8
0
100
AcDbLine
 62
2
  6
CONTINUOUS
 10
18.0178143093
 20
2.3904150487
 11
18.0178143093
 21
2.4153200625
  0
LINE
  5
351
100
AcDbEntity
  8
0
100
AcDbLine
 62
2
  6
CONTINUOUS
 10
18.0178143093
 20
2.4532700835
 11
18.0178143093
 21
2.5530238957
  0
LINE
  5
352
100
AcDbEntity
  8
0
100
AcDbLine
 62
2
  6
CONTINUOUS
 10
17.9978142982
 20
2.2471908253
 11
17.9978142982
 21
2.3524650276
  0
LINE
  5
353
100
AcDbEntity
  8
0
100
AcDbLine
 62
2
  6
CONTINUOUS
 10
17.9978142982
 20
2.3904150487
 11
17.9978142982
 21
2.4153200625
  0
LINE
  5
354
100
AcDbEntity
  8
0
100
AcDbLine
 62
2
  6
CONTINUOUS
 10
17.9978142982
 20
2.4532700835
 11
17.9978142982
 21
2.5560412845
  0
LINE
  5
355
100
AcDbEntity
  8
0
100
AcDbLine
 62
2
  6
CONTINUOUS
 10
17.9778142871
 20
2.2445732581
 11
17.9778142871
 21
2.3524650276
  0
LINE
  5
356
100
AcDbEntity
  8
0
100
AcDbLine
 62
2
  6
CONTINUOUS
 10
17.9778142871
 20
2.3772150414
 11
17.9778142871
 21
2.4285200698
  0
LINE
  5
357
100
AcDbEntity
  8
0
100
AcDbLine
 62
2
  6
CONTINUOUS
 10
17.9778142871
 20
2.4532700835
 11
17.9778142871
 21
2.5586588517
  0
LINE
  5
358
100
AcDbEntity
  8
0
100
AcDbLine
 62
2
  6
CONTINUOUS
 10
17.957814276
 20
2.2424989828
 11
17.957814276
 21
2.3524650276
  0
LINE
  5
359
100
AcDbEntity
  8
0
100
AcDbLine
 62
2
  6
CONTINUOUS
 10
17.957814276
 20
2.3772150414
 11
17.957814276
 21
2.3937150505
  0
LINE
  5
35A
100
AcDbEntity
  8
0
100
AcDbLine
 62
2
  6
CONTINUOUS
 10
17.957814276
 20
2.4120200607
 11
17.957814276
 21
2.4285200698
  0
LINE
  5
35B
100
AcDbEntity
  8
0
100
AcDbLine
 62
2
  6
CONTINUOUS
 10
17.957814276
 20
2.4532700835
 11
17.957814276
 21
2.5607331269
  0
LINE
  5
35C
100
AcDbEntity
  8
0
100
AcDbLine
 62
2
  6
CONTINUOUS
 10
17.9378142649
 20
2.2404247076
 11
17.9378142649
 21
2.3524650276
  0
LINE
  5
35D
100
AcDbEntity
  8
0
100
AcDbLine
 62
2
  6
CONTINUOUS
 10
17.9378142649
 20
2.3772150414
 11
17.9378142649
 21
2.3937150505
  0
LINE
  5
35E
100
AcDbEntity
  8
0
100
AcDbLine
 62
2
  6
CONTINUOUS
 10
17.9378142649
 20
2.4120200607
 11
17.9378142649
 21
2.4285200698
  0
LINE
  5
35F
100
AcDbEntity
  8
0
100
AcDbLine
 62
2
  6
CONTINUOUS
 10
17.9378142649
 20
2.4532700835
 11
17.9378142649
 21
2.5628074022
  0
LINE
  5
360
100
AcDbEntity
  8
0
100
AcDbLine
 62
2
  6
CONTINUOUS
 10
17.9178142538
 20
2.2383504324
 11
17.9178142538
 21
2.3524650276
  0
LINE
  5
361
100
AcDbEntity
  8
0
100
AcDbLine
 62
2
  6
CONTINUOUS
 10
17.9178142538
 20
2.4532700835
 11
17.9178142538
 21
2.5648816774
  0
LINE
  5
362
100
AcDbEntity
  8
0
100
AcDbLine
 62
2
  6
CONTINUOUS
 10
17.8978142427
 20
2.2362761572
 11
17.8978142427
 21
2.3524650276
  0
LINE
  5
363
100
AcDbEntity
  8
0
100
AcDbLine
 62
2
  6
CONTINUOUS
 10
17.8978142427
 20
2.4532700835
 11
17.8978142427
 21
2.5669559526
  0
LINE
  5
364
100
AcDbEntity
  8
0
100
AcDbLine
 62
2
  6
CONTINUOUS
 10
17.8778142316
 20
2.234201882
 11
17.8778142316
 21
2.3524650276
  0
LINE
  5
365
100
AcDbEntity
  8
0
100
AcDbLine
 62
2
  6
CONTINUOUS
 10
17.8778142316
 20
2.4532700835
 11
17.8778142316
 21
2.5690302278
  0
LINE
  5
366
100
AcDbEntity
  8
0
100
AcDbLine
 62
2
  6
CONTINUOUS
 10
17.8578142205
 20
2.23247216
 11
17.8578142205
 21
2.3524650276
  0
LINE
  5
367
100
AcDbEntity
  8
0
100
AcDbLine
 62
2
  6
CONTINUOUS
 10
17.8578142205
 20
2.3772150414
 11
17.8578142205
 21
2.4285200698
  0
LINE
  5
368
100
AcDbEntity
  8
0
100
AcDbLine
 62
2
  6
CONTINUOUS
 10
17.8578142205
 20
2.4532700835
 11
17.8578142205
 21
2.5707599498
  0
LINE
  5
369
100
AcDbEntity
  8
0
100
AcDbLine
 62
2
  6
CONTINUOUS
 10
17.8378142094
 20
2.2312059562
 11
17.8378142094
 21
2.3524650276
  0
LINE
  5
36A
100
AcDbEntity
  8
0
100
AcDbLine
 62
2
  6
CONTINUOUS
 10
17.8378142094
 20
2.3772150414
 11
17.8378142094
 21
2.4285200698
  0
LINE
  5
36B
100
AcDbEntity
  8
0
100
AcDbLine
 62
2
  6
CONTINUOUS
 10
17.8378142094
 20
2.4532700835
 11
17.8378142094
 21
2.5720261536
  0
LINE
  5
36C
100
AcDbEntity
  8
0
100
AcDbLine
 62
2
  6
CONTINUOUS
 10
17.8178141984
 20
2.2299397525
 11
17.8178141984
 21
2.5732923573
  0
LINE
  5
36D
100
AcDbEntity
  8
0
100
AcDbLine
 62
2
  6
CONTINUOUS
 10
17.7978141873
 20
2.2286735487
 11
17.7978141873
 21
2.4285200698
  0
LINE
  5
36E
100
AcDbEntity
  8
0
100
AcDbLine
 62
2
  6
CONTINUOUS
 10
17.7978141873
 20
2.4532700835
 11
17.7978141873
 21
2.574558561
  0
LINE
  5
36F
100
AcDbEntity
  8
0
100
AcDbLine
 62
2
  6
CONTINUOUS
 10
17.7778141762
 20
2.227407345
 11
17.7778141762
 21
2.3524650276
  0
LINE
  5
370
100
AcDbEntity
  8
0
100
AcDbLine
 62
2
  6
CONTINUOUS
 10
17.7778141762
 20
2.4532700835
 11
17.7778141762
 21
2.5758247648
  0
LINE
  5
371
100
AcDbEntity
  8
0
100
AcDbLine
 62
2
  6
CONTINUOUS
 10
17.7578141651
 20
2.2261411413
 11
17.7578141651
 21
2.3524650276
  0
LINE
  5
372
100
AcDbEntity
  8
0
100
AcDbLine
 62
2
  6
CONTINUOUS
 10
17.7578141651
 20
2.4532700835
 11
17.7578141651
 21
2.5770909685
  0
LINE
  5
373
100
AcDbEntity
  8
0
100
AcDbLine
 62
2
  6
CONTINUOUS
 10
17.737814154
 20
2.2249117066
 11
17.737814154
 21
2.3524650276
  0
LINE
  5
374
100
AcDbEntity
  8
0
100
AcDbLine
 62
2
  6
CONTINUOUS
 10
17.737814154
 20
2.4087649542
 11
17.737814154
 21
2.4285200698
  0
LINE
  5
375
100
AcDbEntity
  8
0
100
AcDbLine
 62
2
  6
CONTINUOUS
 10
17.737814154
 20
2.4532700835
 11
17.737814154
 21
2.5783204031
  0
LINE
  5
376
100
AcDbEntity
  8
0
100
AcDbLine
 62
2
  6
CONTINUOUS
 10
17.7178141429
 20
2.2243809174
 11
17.7178141429
 21
2.3524650276
  0
LINE
  5
377
100
AcDbEntity
  8
0
100
AcDbLine
 62
2
  6
CONTINUOUS
 10
17.7178141429
 20
2.4278478026
 11
17.7178141429
 21
2.5788511924
  0
LINE
  5
378
100
AcDbEntity
  8
0
100
AcDbLine
 62
2
  6
CONTINUOUS
 10
17.6978141318
 20
2.2238501282
 11
17.6978141318
 21
2.3648303444
  0
LINE
  5
379
100
AcDbEntity
  8
0
100
AcDbLine
 62
2
  6
CONTINUOUS
 10
17.6978141318
 20
2.446930651
 11
17.6978141318
 21
2.5793819816
  0
LINE
  5
37A
100
AcDbEntity
  8
0
100
AcDbLine
 62
2
  6
CONTINUOUS
 10
17.6778141207
 20
2.223319339
 11
17.6778141207
 21
2.3839131616
  0
LINE
  5
37B
100
AcDbEntity
  8
0
100
AcDbLine
 62
2
  6
CONTINUOUS
 10
17.6778141207
 20
2.4532700835
 11
17.6778141207
 21
2.5799127708
  0
LINE
  5
37C
100
AcDbEntity
  8
0
100
AcDbLine
 62
2
  6
CONTINUOUS
 10
17.6578141096
 20
2.2227885498
 11
17.6578141096
 21
2.3524650276
  0
LINE
  5
37D
100
AcDbEntity
  8
0
100
AcDbLine
 62
2
  6
CONTINUOUS
 10
17.6578141096
 20
2.3772150414
 11
17.6578141096
 21
2.4029959788
  0
LINE
  5
37E
100
AcDbEntity
  8
0
100
AcDbLine
 62
2
  6
CONTINUOUS
 10
17.6578141096
 20
2.4532700835
 11
17.6578141096
 21
2.58044356
  0
LINE
  5
37F
100
AcDbEntity
  8
0
100
AcDbLine
 62
2
  6
CONTINUOUS
 10
17.6378140985
 20
2.2222577606
 11
17.6378140985
 21
2.3524650276
  0
LINE
  5
380
100
AcDbEntity
  8
0
100
AcDbLine
 62
2
  6
CONTINUOUS
 10
17.6378140985
 20
2.4532700835
 11
17.6378140985
 21
2.5809743492
  0
LINE
  5
381
100
AcDbEntity
  8
0
100
AcDbLine
 62
2
  6
CONTINUOUS
 10
17.6178140874
 20
2.2217269714
 11
17.6178140874
 21
2.3524650276
  0
LINE
  5
382
100
AcDbEntity
  8
0
100
AcDbLine
 62
2
  6
CONTINUOUS
 10
17.6178140874
 20
2.4532700835
 11
17.6178140874
 21
2.5815051384
  0
LINE
  5
383
100
AcDbEntity
  8
0
100
AcDbLine
 62
2
  6
CONTINUOUS
 10
17.5978140764
 20
2.2215213152
 11
17.5978140764
 21
2.3524650276
  0
LINE
  5
384
100
AcDbEntity
  8
0
100
AcDbLine
 62
2
  6
CONTINUOUS
 10
17.5978140764
 20
2.3772150414
 11
17.5978140764
 21
2.4285200698
  0
LINE
  5
385
100
AcDbEntity
  8
0
100
AcDbLine
 62
2
  6
CONTINUOUS
 10
17.5978140764
 20
2.4532700835
 11
17.5978140764
 21
2.5817107946
  0
LINE
  5
386
100
AcDbEntity
  8
0
100
AcDbLine
 62
2
  6
CONTINUOUS
 10
17.5778140653
 20
2.2216974783
 11
17.5778140653
 21
2.5815346315
  0
LINE
  5
387
100
AcDbEntity
  8
0
100
AcDbLine
 62
2
  6
CONTINUOUS
 10
17.5578140542
 20
2.2218736414
 11
17.5578140542
 21
2.4285200698
  0
LINE
  5
388
100
AcDbEntity
  8
0
100
AcDbLine
 62
2
  6
CONTINUOUS
 10
17.5578140542
 20
2.4532700835
 11
17.5578140542
 21
2.5813584684
  0
LINE
  5
389
100
AcDbEntity
  8
0
100
AcDbLine
 62
2
  6
CONTINUOUS
 10
17.5378140431
 20
2.2220498045
 11
17.5378140431
 21
2.3524700714
  0
LINE
  5
38A
100
AcDbEntity
  8
0
100
AcDbLine
 62
2
  6
CONTINUOUS
 10
17.5378140431
 20
2.4532700835
 11
17.5378140431
 21
2.5811823053
  0
LINE
  5
38B
100
AcDbEntity
  8
0
100
AcDbLine
 62
2
  6
CONTINUOUS
 10
17.517814032
 20
2.2222259676
 11
17.517814032
 21
2.3524650276
  0
LINE
  5
38C
100
AcDbEntity
  8
0
100
AcDbLine
 62
2
  6
CONTINUOUS
 10
17.517814032
 20
2.4532700835
 11
17.517814032
 21
2.5810061422
  0
LINE
  5
38D
100
AcDbEntity
  8
0
100
AcDbLine
 62
2
  6
CONTINUOUS
 10
17.4978140209
 20
2.2224021307
 11
17.4978140209
 21
2.3524650276
  0
LINE
  5
38E
100
AcDbEntity
  8
0
100
AcDbLine
 62
2
  6
CONTINUOUS
 10
17.4978140209
 20
2.4008904169
 11
17.4978140209
 21
2.4285200698
  0
LINE
  5
38F
100
AcDbEntity
  8
0
100
AcDbLine
 62
2
  6
CONTINUOUS
 10
17.4978140209
 20
2.4532700835
 11
17.4978140209
 21
2.5808299791
  0
LINE
  5
390
100
AcDbEntity
  8
0
100
AcDbLine
 62
2
  6
CONTINUOUS
 10
17.4778140098
 20
2.2225782938
 11
17.4778140098
 21
2.3524650276
  0
LINE
  5
391
100
AcDbEntity
  8
0
100
AcDbLine
 62
2
  6
CONTINUOUS
 10
17.4778140098
 20
2.4199732652
 11
17.4778140098
 21
2.580653816
  0
LINE
  5
392
100
AcDbEntity
  8
0
100
AcDbLine
 62
2
  6
CONTINUOUS
 10
17.4578139987
 20
2.2233466716
 11
17.4578139987
 21
2.3569558199
  0
LINE
  5
393
100
AcDbEntity
  8
0
100
AcDbLine
 62
2
  6
CONTINUOUS
 10
17.4578139987
 20
2.4390561136
 11
17.4578139987
 21
2.5798854382
  0
LINE
  5
394
100
AcDbEntity
  8
0
100
AcDbLine
 62
2
  6
CONTINUOUS
 10
17.4378139876
 20
2.2242391079
 11
17.4378139876
 21
2.3760386371
  0
LINE
  5
395
100
AcDbEntity
  8
0
100
AcDbLine
 62
2
  6
CONTINUOUS
 10
17.4378139876
 20
2.4532700835
 11
17.4378139876
 21
2.5789930018
  0
LINE
  5
396
100
AcDbEntity
  8
0
100
AcDbLine
 62
2
  6
CONTINUOUS
 10
17.4178139765
 20
2.2251315443
 11
17.4178139765
 21
2.3525640362
  0
LINE
  5
397
100
AcDbEntity
  8
0
100
AcDbLine
 62
2
  6
CONTINUOUS
 10
17.4178139765
 20
2.3771160328
 11
17.4178139765
 21
2.3951214543
  0
LINE
  5
398
100
AcDbEntity
  8
0
100
AcDbLine
 62
2
  6
CONTINUOUS
 10
17.4178139765
 20
2.4532700835
 11
17.4178139765
 21
2.5781005655
  0
LINE
  5
399
100
AcDbEntity
  8
0
100
AcDbLine
 62
2
  6
CONTINUOUS
 10
17.3978139654
 20
2.2260239807
 11
17.3978139654
 21
2.3524650276
  0
LINE
  5
39A
100
AcDbEntity
  8
0
100
AcDbLine
 62
2
  6
CONTINUOUS
 10
17.3978139654
 20
2.3772150414
 11
17.3978139654
 21
2.4139978698
  0
LINE
  5
39B
100
AcDbEntity
  8
0
100
AcDbLine
 62
2
  6
CONTINUOUS
 10
17.3978139654
 20
2.4532700835
 11
17.3978139654
 21
2.5772081291
  0
LINE
  5
39C
100
AcDbEntity
  8
0
100
AcDbLine
 62
2
  6
CONTINUOUS
 10
17.3778139543
 20
2.226916417
 11
17.3778139543
 21
2.3524650276
  0
LINE
  5
39D
100
AcDbEntity
  8
0
100
AcDbLine
 62
2
  6
CONTINUOUS
 10
17.3778139543
 20
2.4532700835
 11
17.3778139543
 21
2.5763156928
  0
LINE
  5
39E
100
AcDbEntity
  8
0
100
AcDbLine
 62
2
  6
CONTINUOUS
 10
17.3578139433
 20
2.2278088534
 11
17.3578139433
 21
2.3524650276
  0
LINE
  5
39F
100
AcDbEntity
  8
0
100
AcDbLine
 62
2
  6
CONTINUOUS
 10
17.3578139433
 20
2.3772150414
 11
17.3578139433
 21
2.4285200698
  0
LINE
  5
3A0
100
AcDbEntity
  8
0
100
AcDbLine
 62
2
  6
CONTINUOUS
 10
17.3578139433
 20
2.4532700835
 11
17.3578139433
 21
2.5754232564
  0
LINE
  5
3A1
100
AcDbEntity
  8
0
100
AcDbLine
 62
2
  6
CONTINUOUS
 10
17.3378139322
 20
2.2289481171
 11
17.3378139322
 21
2.5742839927
  0
LINE
  5
3A2
100
AcDbEntity
  8
0
100
AcDbLine
 62
2
  6
CONTINUOUS
 10
17.3178139211
 20
2.2306059865
 11
17.3178139211
 21
2.5726261233
  0
LINE
  5
3A3
100
AcDbEntity
  8
0
100
AcDbLine
 62
2
  6
CONTINUOUS
 10
17.29781391
 20
2.2322638559
 11
17.29781391
 21
2.3524650276
  0
LINE
  5
3A4
100
AcDbEntity
  8
0
100
AcDbLine
 62
2
  6
CONTINUOUS
 10
17.29781391
 20
2.3772150414
 11
17.29781391
 21
2.5709682538
  0
LINE
  5
3A5
100
AcDbEntity
  8
0
100
AcDbLine
 62
2
  6
CONTINUOUS
 10
17.2778138989
 20
2.2339217254
 11
17.2778138989
 21
2.3524650276
  0
LINE
  5
3A6
100
AcDbEntity
  8
0
100
AcDbLine
 62
2
  6
CONTINUOUS
 10
17.2778138989
 20
2.3963499423
 11
17.2778138989
 21
2.5693103844
  0
LINE
  5
3A7
100
AcDbEntity
  8
0
100
AcDbLine
 62
2
  6
CONTINUOUS
 10
17.2578138878
 20
2.2355795948
 11
17.2578138878
 21
2.3524650276
  0
LINE
  5
3A8
100
AcDbEntity
  8
0
100
AcDbLine
 62
2
  6
CONTINUOUS
 10
17.2578138878
 20
2.4272549766
 11
17.2578138878
 21
2.567652515
  0
LINE
  5
3A9
100
AcDbEntity
  8
0
100
AcDbLine
 62
2
  6
CONTINUOUS
 10
17.2378138767
 20
2.2372374642
 11
17.2378138767
 21
2.3524650276
  0
LINE
  5
3AA
100
AcDbEntity
  8
0
100
AcDbLine
 62
2
  6
CONTINUOUS
 10
17.2378138767
 20
2.4532700835
 11
17.2378138767
 21
2.5659946456
  0
LINE
  5
3AB
100
AcDbEntity
  8
0
100
AcDbLine
 62
2
  6
CONTINUOUS
 10
17.2178138656
 20
2.2389952421
 11
17.2178138656
 21
2.3524650276
  0
LINE
  5
3AC
100
AcDbEntity
  8
0
100
AcDbLine
 62
2
  6
CONTINUOUS
 10
17.2178138656
 20
2.3772150414
 11
17.2178138656
 21
2.3887495968
  0
LINE
  5
3AD
100
AcDbEntity
  8
0
100
AcDbLine
 62
2
  6
CONTINUOUS
 10
17.2178138656
 20
2.4532700835
 11
17.2178138656
 21
2.5642368677
  0
LINE
  5
3AE
100
AcDbEntity
  8
0
100
AcDbLine
 62
2
  6
CONTINUOUS
 10
17.1978138545
 20
2.2415190955
 11
17.1978138545
 21
2.3908590489
  0
LINE
  5
3AF
100
AcDbEntity
  8
0
100
AcDbLine
 62
2
  6
CONTINUOUS
 10
17.1978138545
 20
2.4118090605
 11
17.1978138545
 21
2.4279760695
  0
LINE
  5
3B0
100
AcDbEntity
  8
0
100
AcDbLine
 62
2
  6
CONTINUOUS
 10
17.1978138545
 20
2.4532700835
 11
17.1978138545
 21
2.5617130143
  0
LINE
  5
3B1
100
AcDbEntity
  8
0
100
AcDbLine
 62
2
  6
CONTINUOUS
 10
17.1778138434
 20
2.244042949
 11
17.1778138434
 21
2.3524650276
  0
LINE
  5
3B2
100
AcDbEntity
  8
0
100
AcDbLine
 62
2
  6
CONTINUOUS
 10
17.1778138434
 20
2.3772150414
 11
17.1778138434
 21
2.3892044865
  0
LINE
  5
3B3
100
AcDbEntity
  8
0
100
AcDbLine
 62
2
  6
CONTINUOUS
 10
17.1778138434
 20
2.4480979218
 11
17.1778138434
 21
2.5591891608
  0
LINE
  5
3B4
100
AcDbEntity
  8
0
100
AcDbLine
 62
2
  6
CONTINUOUS
 10
17.1578138323
 20
2.2465668024
 11
17.1578138323
 21
2.3524650276
  0
LINE
  5
3B5
100
AcDbEntity
  8
0
100
AcDbLine
 62
2
  6
CONTINUOUS
 10
17.1578138323
 20
2.4165778189
 11
17.1578138323
 21
2.5566653073
  0
LINE
  5
3B6
100
AcDbEntity
  8
0
100
AcDbLine
 62
2
  6
CONTINUOUS
 10
17.1378138213
 20
2.2490906559
 11
17.1378138213
 21
2.3524650276
  0
LINE
  5
3B7
100
AcDbEntity
  8
0
100
AcDbLine
 62
2
  6
CONTINUOUS
 10
17.1378138213
 20
2.3850577159
 11
17.1378138213
 21
2.5541414539
  0
LINE
  5
3B8
100
AcDbEntity
  8
0
100
AcDbLine
 62
2
  6
CONTINUOUS
 10
17.1178138102
 20
2.2516145094
 11
17.1178138102
 21
2.3524650276
  0
LINE
  5
3B9
100
AcDbEntity
  8
0
100
AcDbLine
 62
2
  6
CONTINUOUS
 10
17.1178138102
 20
2.3772150414
 11
17.1178138102
 21
2.5516176004
  0
LINE
  5
3BA
100
AcDbEntity
  8
0
100
AcDbLine
 62
2
  6
CONTINUOUS
 10
17.0978137991
 20
2.2544171186
 11
17.0978137991
 21
2.5488149912
  0
LINE
  5
3BB
100
AcDbEntity
  8
0
100
AcDbLine
 62
2
  6
CONTINUOUS
 10
17.077813788
 20
2.2577020445
 11
17.077813788
 21
2.362615113
  0
LINE
  5
3BC
100
AcDbEntity
  8
0
100
AcDbLine
 62
2
  6
CONTINUOUS
 10
17.077813788
 20
2.3938117115
 11
17.077813788
 21
2.4149601455
  0
LINE
  5
3BD
100
AcDbEntity
  8
0
100
AcDbLine
 62
2
  6
CONTINUOUS
 10
17.077813788
 20
2.4403850542
 11
17.077813788
 21
2.5455300653
  0
LINE
  5
3BE
100
AcDbEntity
  8
0
100
AcDbLine
 62
2
  6
CONTINUOUS
 10
17.0578137769
 20
2.2609869704
 11
17.0578137769
 21
2.3533399802
  0
LINE
  5
3BF
100
AcDbEntity
  8
0
100
AcDbLine
 62
2
  6
CONTINUOUS
 10
17.0578137769
 20
2.4508307102
 11
17.0578137769
 21
2.5422451394
  0
LINE
  5
3C0
100
AcDbEntity
  8
0
100
AcDbLine
 62
2
  6
CONTINUOUS
 10
17.0378137658
 20
2.2646895914
 11
17.0378137658
 21
2.3524650276
  0
LINE
  5
3C1
100
AcDbEntity
  8
0
100
AcDbLine
 62
2
  6
CONTINUOUS
 10
17.0378137658
 20
2.4532700835
 11
17.0378137658
 21
2.5385425184
  0
LINE
  5
3C2
100
AcDbEntity
  8
0
100
AcDbLine
 62
2
  6
CONTINUOUS
 10
17.0178137547
 20
2.2685623514
 11
17.0178137547
 21
2.3524650276
  0
LINE
  5
3C3
100
AcDbEntity
  8
0
100
AcDbLine
 62
2
  6
CONTINUOUS
 10
17.0178137547
 20
2.4532700835
 11
17.0178137547
 21
2.5346697584
  0
LINE
  5
3C4
100
AcDbEntity
  8
0
100
AcDbLine
 62
2
  6
CONTINUOUS
 10
16.9978137436
 20
2.2725871112
 11
16.9978137436
 21
2.3524650276
  0
LINE
  5
3C5
100
AcDbEntity
  8
0
100
AcDbLine
 62
2
  6
CONTINUOUS
 10
16.9978137436
 20
2.3772150414
 11
16.9978137436
 21
2.394540051
  0
LINE
  5
3C6
100
AcDbEntity
  8
0
100
AcDbLine
 62
2
  6
CONTINUOUS
 10
16.9978137436
 20
2.4111950602
 11
16.9978137436
 21
2.4285200698
  0
LINE
  5
3C7
100
AcDbEntity
  8
0
100
AcDbLine
 62
2
  6
CONTINUOUS
 10
16.9978137436
 20
2.4532700835
 11
16.9978137436
 21
2.5306449986
  0
LINE
  5
3C8
100
AcDbEntity
  8
0
100
AcDbLine
 62
2
  6
CONTINUOUS
 10
16.9778137325
 20
2.2771382649
 11
16.9778137325
 21
2.3524650276
  0
LINE
  5
3C9
100
AcDbEntity
  8
0
100
AcDbLine
 62
2
  6
CONTINUOUS
 10
16.9778137325
 20
2.3772150414
 11
16.9778137325
 21
2.394540051
  0
LINE
  5
3CA
100
AcDbEntity
  8
0
100
AcDbLine
 62
2
  6
CONTINUOUS
 10
16.9778137325
 20
2.4111950602
 11
16.9778137325
 21
2.4285200698
  0
LINE
  5
3CB
100
AcDbEntity
  8
0
100
AcDbLine
 62
2
  6
CONTINUOUS
 10
16.9778137325
 20
2.4532700835
 11
16.9778137325
 21
2.5260938449
  0
LINE
  5
3CC
100
AcDbEntity
  8
0
100
AcDbLine
 62
2
  6
CONTINUOUS
 10
16.9578137214
 20
2.2816894185
 11
16.9578137214
 21
2.3524650276
  0
LINE
  5
3CD
100
AcDbEntity
  8
0
100
AcDbLine
 62
2
  6
CONTINUOUS
 10
16.9578137214
 20
2.4532700835
 11
16.9578137214
 21
2.5215426913
  0
LINE
  5
3CE
100
AcDbEntity
  8
0
100
AcDbLine
 62
2
  6
CONTINUOUS
 10
16.9378137103
 20
2.2869815362
 11
16.9378137103
 21
2.3524650276
  0
LINE
  5
3CF
100
AcDbEntity
  8
0
100
AcDbLine
 62
2
  6
CONTINUOUS
 10
16.9378137103
 20
2.4532700835
 11
16.9378137103
 21
2.5162505736
  0
LINE
  5
3D0
100
AcDbEntity
  8
0
100
AcDbLine
 62
2
  6
CONTINUOUS
 10
16.9178136992
 20
2.2923355811
 11
16.9178136992
 21
2.3524650276
  0
LINE
  5
3D1
100
AcDbEntity
  8
0
100
AcDbLine
 62
2
  6
CONTINUOUS
 10
16.9178136992
 20
2.4532700835
 11
16.9178136992
 21
2.5108965286
  0
LINE
  5
3D2
100
AcDbEntity
  8
0
100
AcDbLine
 62
2
  6
CONTINUOUS
 10
16.8978136882
 20
2.2984943577
 11
16.8978136882
 21
2.3524650276
  0
LINE
  5
3D3
100
AcDbEntity
  8
0
100
AcDbLine
 62
2
  6
CONTINUOUS
 10
16.8978136882
 20
2.3772150414
 11
16.8978136882
 21
2.4285200698
  0
LINE
  5
3D4
100
AcDbEntity
  8
0
100
AcDbLine
 62
2
  6
CONTINUOUS
 10
16.8978136882
 20
2.4532700835
 11
16.8978136882
 21
2.5047377521
  0
LINE
  5
3D5
100
AcDbEntity
  8
0
100
AcDbLine
 62
2
  6
CONTINUOUS
 10
16.8778136771
 20
2.3048274854
 11
16.8778136771
 21
2.3524650276
  0
LINE
  5
3D6
100
AcDbEntity
  8
0
100
AcDbLine
 62
2
  6
CONTINUOUS
 10
16.8778136771
 20
2.3772150414
 11
16.8778136771
 21
2.4285200698
  0
LINE
  5
3D7
100
AcDbEntity
  8
0
100
AcDbLine
 62
2
  6
CONTINUOUS
 10
16.8778136771
 20
2.4532700835
 11
16.8778136771
 21
2.4984046244
  0
LINE
  5
3D8
100
AcDbEntity
  8
0
100
AcDbLine
 62
2
  6
CONTINUOUS
 10
16.857813666
 20
2.312318358
 11
16.857813666
 21
2.4909137517
  0
LINE
  5
3D9
100
AcDbEntity
  8
0
100
AcDbLine
 62
2
  6
CONTINUOUS
 10
16.8378136549
 20
2.3203393667
 11
16.8378136549
 21
2.4828927431
  0
LINE
  5
3DA
100
AcDbEntity
  8
0
100
AcDbLine
 62
2
  6
CONTINUOUS
 10
16.8178136438
 20
2.3295519864
 11
16.8178136438
 21
2.4736801234
  0
LINE
  5
3DB
100
AcDbEntity
  8
0
100
AcDbLine
 62
2
  6
CONTINUOUS
 10
16.7978136327
 20
2.3407309483
 11
16.7978136327
 21
2.4625011614
  0
LINE
  5
3DC
100
AcDbEntity
  8
0
100
AcDbLine
 62
2
  6
CONTINUOUS
 10
16.7778136216
 20
2.3546527809
 11
16.7778136216
 21
2.4485793288
  0
LINE
  5
3DD
100
AcDbEntity
  8
0
100
AcDbLine
 62
2
  6
CONTINUOUS
 10
16.7578136105
 20
2.3756826696
 11
16.7578136105
 21
2.4275494401
  0
ENDBLK
  5
3DE
100
AcDbEntity
  8
0
  6
BYBLOCK
 62
0
100
AcDbBlockEnd
  0
BLOCK
  5
3DF
100
AcDbEntity
  8
SCHEME_DIMS
100
AcDbBlockBegin
 62
2
  6
CONTINUOUS
  2
*D0
 70
65
 10
0.0
 20
0.0
  3
*D0
  1

  0
TEXT
  5
3E0
100
AcDbEntity
  8
SCHEME_DIMS
100
AcDbText
 62
2
  6
CONTINUOUS
 10
7.5996546238
 20
5.2721094658
  7
STANDARD
 40
0.1
  1
8,4
 41
1.0
 72
0
100
AcDbText
  0
TEXT
  5
3E1
100
AcDbEntity
  8
SCHEME_DIMS
100
AcDbText
 62
2
  6
CONTINUOUS
 10
7.6996546238
 20
5.1221094658
  7
STANDARD
 40
0.1
  1
.33
 41
1.0
 72
0
100
AcDbText
  0
TEXT
  5
3E2
100
AcDbEntity
  8
SCHEME_DIMS
100
AcDbText
 62
2
  6
CONTINUOUS
 10
7.5996546238
 20
5.1221094658
  7
STANDARD
 40
0.1
  1
[
 41
1.0
 72
0
100
AcDbText
  0
TEXT
  5
3E3
100
AcDbEntity
  8
SCHEME_DIMS
100
AcDbText
 62
2
  6
CONTINUOUS
 10
7.9996546238
 20
5.1221094658
  7
STANDARD
 40
0.1
  1
]
 41
1.0
 72
0
100
AcDbText
  0
LINE
  5
3E4
100
AcDbEntity
  8
SCHEME_DIMS
100
AcDbLine
 62
2
  6
CONTINUOUS
 10
6.1316428128
 20
5.7255145721
 11
7.4746546238
 21
5.7255145721
  0
LINE
  5
3E5
100
AcDbEntity
  8
SCHEME_DIMS
100
AcDbLine
 62
2
  6
CONTINUOUS
 10
6.4397136789
 20
6.0542547296
 11
7.4746546238
 21
6.0542547296
  0
LINE
  5
3E6
100
AcDbEntity
  8
SCHEME_DIMS
100
AcDbLine
 62
2
  6
CONTINUOUS
 10
7.3496546238
 20
5.7255145721
 11
7.3496546238
 21
5.3221094658
  0
LINE
  5
3E7
100
AcDbEntity
  8
SCHEME_DIMS
100
AcDbLine
 62
2
  6
CONTINUOUS
 10
7.3496546238
 20
5.3221094658
 11
7.4996546238
 21
5.3221094658
  0
LINE
  5
3E8
100
AcDbEntity
  8
SCHEME_DIMS
100
AcDbLine
 62
2
  6
CONTINUOUS
 10
7.3496546238
 20
6.0542547296
 11
7.3496546238
 21
6.4542547296
  0
INSERT
  5
3E9
100
AcDbEntity
  8
SCHEME_DIMS
100
AcDbBlockReference
 62
2
  6
CONTINUOUS
  2
_FILLED
 10
7.3496546238
 20
5.7255145721
 41
0.1875
 42
0.1875
 43
0.1875
 50
90.0
  0
INSERT
  5
3EA
100
AcDbEntity
  8
SCHEME_DIMS
100
AcDbBlockReference
 62
2
  6
CONTINUOUS
  2
_FILLED
 10
7.3496546238
 20
6.0542547296
 41
0.1875
 42
0.1875
 43
0.1875
 50
270.0
  0
ENDBLK
  5
3EB
100
AcDbEntity
  8
0
  6
BYBLOCK
 62
0
100
AcDbBlockEnd
  0
BLOCK
  5
3EC
100
AcDbEntity
  8
SCHEME_DIMS
100
AcDbBlockBegin
 62
2
  6
CONTINUOUS
  2
*D1
 70
65
 10
0.0
 20
0.0
  3
*D1
  1

  0
TEXT
  5
3ED
100
AcDbEntity
  8
SCHEME_DIMS
100
AcDbText
 62
2
  6
CONTINUOUS
 10
7.6216851078
 20
6.2890377616
  7
STANDARD
 40
0.1
  1
27,4
 41
1.0
 72
0
100
AcDbText
  0
TEXT
  5
3EE
100
AcDbEntity
  8
SCHEME_DIMS
100
AcDbText
 62
2
  6
CONTINUOUS
 10
7.7216851078
 20
6.1390377616
  7
STANDARD
 40
0.1
  1
1.08
 41
1.0
 72
0
100
AcDbText
  0
TEXT
  5
3EF
100
AcDbEntity
  8
SCHEME_DIMS
100
AcDbText
 62
2
  6
CONTINUOUS
 10
7.6216851078
 20
6.1390377616
  7
STANDARD
 40
0.1
  1
[
 41
1.0
 72
0
100
AcDbText
  0
TEXT
  5
3F0
100
AcDbEntity
  8
SCHEME_DIMS
100
AcDbText
 62
2
  6
CONTINUOUS
 10
8.1216851078
 20
6.1390377616
  7
STANDARD
 40
0.1
  1
]
 41
1.0
 72
0
100
AcDbText
  0
LINE
  5
3F1
100
AcDbEntity
  8
SCHEME_DIMS
100
AcDbLine
 62
2
  6
CONTINUOUS
 10
6.1316428128
 20
5.7255145721
 11
8.0466851078
 21
5.7255145721
  0
LINE
  5
3F2
100
AcDbEntity
  8
SCHEME_DIMS
100
AcDbLine
 62
2
  6
CONTINUOUS
 10
6.7029667316
 20
6.8022862257
 11
6.7282320875
 21
6.8022862257
  0
LINE
  5
3F3
100
AcDbEntity
  8
SCHEME_DIMS
100
AcDbLine
 62
2
  6
CONTINUOUS
 10
6.7708291245
 20
6.8022862257
 11
8.0466851078
 21
6.8022862257
  0
LINE
  5
3F4
100
AcDbEntity
  8
SCHEME_DIMS
100
AcDbLine
 62
2
  6
CONTINUOUS
 10
7.9216851078
 20
5.7255145721
 11
7.9216851078
 21
6.0390377616
  0
LINE
  5
3F5
100
AcDbEntity
  8
SCHEME_DIMS
100
AcDbLine
 62
2
  6
CONTINUOUS
 10
7.9216851078
 20
6.8022862257
 11
7.9216851078
 21
6.4890377616
  0
INSERT
  5
3F6
100
AcDbEntity
  8
SCHEME_DIMS
100
AcDbBlockReference
 62
2
  6
CONTINUOUS
  2
_FILLED
 10
7.9216851078
 20
5.7255145721
 41
0.1875
 42
0.1875
 43
0.1875
 50
270.0
  0
INSERT
  5
3F7
100
AcDbEntity
  8
SCHEME_DIMS
100
AcDbBlockReference
 62
2
  6
CONTINUOUS
  2
_FILLED
 10
7.9216851078
 20
6.8022862257
 41
0.1875
 42
0.1875
 43
0.1875
 50
90.0
  0
ENDBLK
  5
3F8
100
AcDbEntity
  8
0
  6
BYBLOCK
 62
0
100
AcDbBlockEnd
  0
BLOCK
  5
3F9
100
AcDbEntity
  8
SCHEME_DIMS
100
AcDbBlockBegin
 62
2
  6
CONTINUOUS
  2
*D2
 70
65
 10
0.0
 20
0.0
  3
*D2
  1

  0
TEXT
  5
3FA
100
AcDbEntity
  8
SCHEME_DIMS
100
AcDbText
 62
2
  6
CONTINUOUS
 10
8.1127350983
 20
10.8345453066
  7
STANDARD
 40
0.1
  1
251,3
 41
1.0
 72
0
100
AcDbText
  0
TEXT
  5
3FB
100
AcDbEntity
  8
SCHEME_DIMS
100
AcDbText
 62
2
  6
CONTINUOUS
 10
8.2127350983
 20
10.6845453066
  7
STANDARD
 40
0.1
  1
9.89
 41
1.0
 72
0
100
AcDbText
  0
TEXT
  5
3FC
100
AcDbEntity
  8
SCHEME_DIMS
100
AcDbText
 62
2
  6
CONTINUOUS
 10
8.1127350983
 20
10.6845453066
  7
STANDARD
 40
0.1
  1
[
 41
1.0
 72
0
100
AcDbText
  0
TEXT
  5
3FD
100
AcDbEntity
  8
SCHEME_DIMS
100
AcDbText
 62
2
  6
CONTINUOUS
 10
8.6127350983
 20
10.6845453066
  7
STANDARD
 40
0.1
  1
]
 41
1.0
 72
0
100
AcDbText
  0
LINE
  5
3FE
100
AcDbEntity
  8
SCHEME_DIMS
100
AcDbLine
 62
2
  6
CONTINUOUS
 10
6.1316428128
 20
5.7255145721
 11
8.5377350983
 21
5.7255145721
  0
LINE
  5
3FF
100
AcDbEntity
  8
SCHEME_DIMS
100
AcDbLine
 62
2
  6
CONTINUOUS
 10
6.8733790044
 20
15.6172468556
 11
8.5377350983
 21
15.6172468556
  0
LINE
  5
400
100
AcDbEntity
  8
SCHEME_DIMS
100
AcDbLine
 62
2
  6
CONTINUOUS
 10
8.4127350983
 20
5.7255145721
 11
8.4127350983
 21
10.5845453066
  0
LINE
  5
401
100
AcDbEntity
  8
SCHEME_DIMS
100
AcDbLine
 62
2
  6
CONTINUOUS
 10
8.4127350983
 20
15.6172468556
 11
8.4127350983
 21
11.0345453066
  0
INSERT
  5
402
100
AcDbEntity
  8
SCHEME_DIMS
100
AcDbBlockReference
 62
2
  6
CONTINUOUS
  2
_FILLED
 10
8.4127350983
 20
5.7255145721
 41
0.1875
 42
0.1875
 43
0.1875
 50
270.0
  0
INSERT
  5
403
100
AcDbEntity
  8
SCHEME_DIMS
100
AcDbBlockReference
 62
2
  6
CONTINUOUS
  2
_FILLED
 10
8.4127350983
 20
15.6172468556
 41
0.1875
 42
0.1875
 43
0.1875
 50
90.0
  0
ENDBLK
  5
404
100
AcDbEntity
  8
0
  6
BYBLOCK
 62
0
100
AcDbBlockEnd
  0
BLOCK
  5
405
100
AcDbEntity
  8
SCHEME_DIMS
100
AcDbBlockBegin
 62
2
  6
CONTINUOUS
  2
*D3
 70
65
 10
0.0
 20
0.0
  3
*D3
  1

  0
TEXT
  5
406
100
AcDbEntity
  8
SCHEME_DIMS
100
AcDbText
 62
2
  6
CONTINUOUS
 10
5.5654026553
 20
5.1755145721
  7
STANDARD
 40
0.1
  1
45
 41
1.0
 72
0
100
AcDbText
  0
TEXT
  5
407
100
AcDbEntity
  8
SCHEME_DIMS
100
AcDbText
 62
2
  6
CONTINUOUS
 10
5.6654026553
 20
5.0255145721
  7
STANDARD
 40
0.1
  1
1.77
 41
1.0
 72
0
100
AcDbText
  0
TEXT
  5
408
100
AcDbEntity
  8
SCHEME_DIMS
100
AcDbText
 62
2
  6
CONTINUOUS
 10
5.5654026553
 20
5.0255145721
  7
STANDARD
 40
0.1
  1
[
 41
1.0
 72
0
100
AcDbText
  0
TEXT
  5
409
100
AcDbEntity
  8
SCHEME_DIMS
100
AcDbText
 62
2
  6
CONTINUOUS
 10
6.0654026553
 20
5.0255145721
  7
STANDARD
 40
0.1
  1
]
 41
1.0
 72
0
100
AcDbText
  0
LINE
  5
40A
100
AcDbEntity
  8
SCHEME_DIMS
100
AcDbLine
 62
2
  6
CONTINUOUS
 10
4.9795758837
 20
6.8336364209
 11
4.9795758837
 21
6.1644941619
  0
LINE
  5
40B
100
AcDbEntity
  8
SCHEME_DIMS
100
AcDbLine
 62
2
  6
CONTINUOUS
 10
4.9795758837
 20
6.0586720235
 11
4.9795758837
 21
5.5525427681
  0
LINE
  5
40C
100
AcDbEntity
  8
SCHEME_DIMS
100
AcDbLine
 62
2
  6
CONTINUOUS
 10
4.9795758837
 20
5.4831193935
 11
4.9795758837
 21
5.1005145721
  0
LINE
  5
40D
100
AcDbEntity
  8
SCHEME_DIMS
100
AcDbLine
 62
2
  6
CONTINUOUS
 10
6.751229427
 20
6.8266889759
 11
6.751229427
 21
6.0936859644
  0
LINE
  5
40E
100
AcDbEntity
  8
SCHEME_DIMS
100
AcDbLine
 62
2
  6
CONTINUOUS
 10
6.751229427
 20
6.0172234201
 11
6.751229427
 21
5.7578105986
  0
LINE
  5
40F
100
AcDbEntity
  8
SCHEME_DIMS
100
AcDbLine
 62
2
  6
CONTINUOUS
 10
6.751229427
 20
5.6960105709
 11
6.751229427
 21
5.1005145721
  0
LINE
  5
410
100
AcDbEntity
  8
SCHEME_DIMS
100
AcDbLine
 62
2
  6
CONTINUOUS
 10
4.9795758837
 20
5.2255145721
 11
5.4654026553
 21
5.2255145721
  0
LINE
  5
411
100
AcDbEntity
  8
SCHEME_DIMS
100
AcDbLine
 62
2
  6
CONTINUOUS
 10
6.751229427
 20
5.2255145721
 11
6.2654026553
 21
5.2255145721
  0
INSERT
  5
412
100
AcDbEntity
  8
SCHEME_DIMS
100
AcDbBlockReference
 62
2
  6
CONTINUOUS
  2
_FILLED
 10
4.9795758837
 20
5.2255145721
 41
0.1875
 42
0.1875
 43
0.1875
 50
180.0
  0
INSERT
  5
413
100
AcDbEntity
  8
SCHEME_DIMS
100
AcDbBlockReference
 62
2
  6
CONTINUOUS
  2
_FILLED
 10
6.751229427
 20
5.2255145721
 41
0.1875
 42
0.1875
 43
0.1875
  0
ENDBLK
  5
414
100
AcDbEntity
  8
0
  6
BYBLOCK
 62
0
100
AcDbBlockEnd
  0
BLOCK
  5
415
100
AcDbEntity
  8
SCHEME_DIMS
100
AcDbBlockBegin
 62
2
  6
CONTINUOUS
  2
*D4
 70
65
 10
0.0
 20
0.0
  3
*D4
  1

  0
TEXT
  5
416
100
AcDbEntity
  8
SCHEME_DIMS
100
AcDbText
 62
2
  6
CONTINUOUS
 10
7.2034647401
 20
4.069580529
  7
STANDARD
 40
0.1
  1
%%c
 41
1.3333333333
 72
0
100
AcDbText
  0
TEXT
  5
417
100
AcDbEntity
  8
SCHEME_DIMS
100
AcDbText
 62
2
  6
CONTINUOUS
 10
7.3367980734
 20
4.069580529
  7
STANDARD
 40
0.1
  1
50
 41
1.0
 72
0
100
AcDbText
  0
TEXT
  5
418
100
AcDbEntity
  8
SCHEME_DIMS
100
AcDbText
 62
2
  6
CONTINUOUS
 10
7.4367980734
 20
3.919580529
  7
STANDARD
 40
0.1
  1
1.97
 41
1.0
 72
0
100
AcDbText
  0
TEXT
  5
419
100
AcDbEntity
  8
SCHEME_DIMS
100
AcDbText
 62
2
  6
CONTINUOUS
 10
7.3367980734
 20
3.919580529
  7
STANDARD
 40
0.1
  1
[
 41
1.0
 72
0
100
AcDbText
  0
TEXT
  5
41A
100
AcDbEntity
  8
SCHEME_DIMS
100
AcDbText
 62
2
  6
CONTINUOUS
 10
7.8367980734
 20
3.919580529
  7
STANDARD
 40
0.1
  1
]
 41
1.0
 72
0
100
AcDbText
  0
LINE
  5
41B
100
AcDbEntity
  8
SCHEME_DIMS
100
AcDbLine
 62
2
  6
CONTINUOUS
 10
6.6581237008
 20
3.9022287108
 11
5.8654026553
 21
3.3188375199
  0
LINE
  5
41C
100
AcDbEntity
  8
SCHEME_DIMS
100
AcDbLine
 62
2
  6
CONTINUOUS
 10
5.8654026553
 20
3.3188375199
 11
6.9534647401
 21
4.119580529
  0
LINE
  5
41D
100
AcDbEntity
  8
SCHEME_DIMS
100
AcDbLine
 62
2
  6
CONTINUOUS
 10
6.9534647401
 20
4.119580529
 11
7.1034647401
 21
4.119580529
  0
LINE
  5
41E
100
AcDbEntity
  8
SCHEME_DIMS
100
AcDbLine
 62
2
  6
CONTINUOUS
 10
5.0726816098
 20
2.7354463291
 11
5.8654026553
 21
3.3188375199
  0
INSERT
  5
41F
100
AcDbEntity
  8
SCHEME_DIMS
100
AcDbBlockReference
 62
2
  6
CONTINUOUS
  2
_FILLED
 10
6.6581237008
 20
3.9022287108
 41
0.1875
 42
0.1875
 43
0.1875
 50
36.3506538711
  0
INSERT
  5
420
100
AcDbEntity
  8
SCHEME_DIMS
100
AcDbBlockReference
 62
2
  6
CONTINUOUS
  2
_FILLED
 10
5.0726816098
 20
2.7354463291
 41
0.1875
 42
0.1875
 43
0.1875
 50
216.3506538711
  0
ENDBLK
  5
421
100
AcDbEntity
  8
0
  6
BYBLOCK
 62
0
100
AcDbBlockEnd
  0
BLOCK
  5
422
100
AcDbEntity
  8
SCHEME_DIMS
100
AcDbBlockBegin
 62
2
  6
CONTINUOUS
  2
*D5
 70
65
 10
0.0
 20
0.0
  3
*D5
  1

  0
TEXT
  5
423
100
AcDbEntity
  8
SCHEME_DIMS
100
AcDbText
 62
2
  6
CONTINUOUS
 10
6.8996546238
 20
8.2818137847
  7
STANDARD
 40
0.1
  1
5X 
 41
1.0
 72
0
100
AcDbText
  0
TEXT
  5
424
100
AcDbEntity
  8
SCHEME_DIMS
100
AcDbText
 62
2
  6
CONTINUOUS
 10
7.1996546238
 20
8.2818137847
  7
STANDARD
 40
0.1
  1
26,9
 41
1.0
 72
0
100
AcDbText
  0
TEXT
  5
425
100
AcDbEntity
  8
SCHEME_DIMS
100
AcDbText
 62
2
  6
CONTINUOUS
 10
7.2996546238
 20
8.1318137847
  7
STANDARD
 40
0.1
  1
1.06
 41
1.0
 72
0
100
AcDbText
  0
TEXT
  5
426
100
AcDbEntity
  8
SCHEME_DIMS
100
AcDbText
 62
2
  6
CONTINUOUS
 10
7.1996546238
 20
8.1318137847
  7
STANDARD
 40
0.1
  1
[
 41
1.0
 72
0
100
AcDbText
  0
TEXT
  5
427
100
AcDbEntity
  8
SCHEME_DIMS
100
AcDbText
 62
2
  6
CONTINUOUS
 10
7.6996546238
 20
8.1318137847
  7
STANDARD
 40
0.1
  1
]
 41
1.0
 72
0
100
AcDbText
  0
LINE
  5
428
100
AcDbEntity
  8
SCHEME_DIMS
100
AcDbLine
 62
2
  6
CONTINUOUS
 10
6.9121546238
 20
7.8022862257
 11
7.4746546238
 21
7.8022862257
  0
LINE
  5
429
100
AcDbEntity
  8
SCHEME_DIMS
100
AcDbLine
 62
2
  6
CONTINUOUS
 10
6.9121546238
 20
8.8613413438
 11
7.4746546238
 21
8.8613413438
  0
LINE
  5
42A
100
AcDbEntity
  8
SCHEME_DIMS
100
AcDbLine
 62
2
  6
CONTINUOUS
 10
7.3496546238
 20
7.8022862257
 11
7.3496546238
 21
8.0318137847
  0
LINE
  5
42B
100
AcDbEntity
  8
SCHEME_DIMS
100
AcDbLine
 62
2
  6
CONTINUOUS
 10
7.3496546238
 20
8.8613413438
 11
7.3496546238
 21
8.4818137847
  0
INSERT
  5
42C
100
AcDbEntity
  8
SCHEME_DIMS
100
AcDbBlockReference
 62
2
  6
CONTINUOUS
  2
_FILLED
 10
7.3496546238
 20
7.8022862257
 41
0.1875
 42
0.1875
 43
0.1875
 50
270.0
  0
INSERT
  5
42D
100
AcDbEntity
  8
SCHEME_DIMS
100
AcDbBlockReference
 62
2
  6
CONTINUOUS
  2
_FILLED
 10
7.3496546238
 20
8.8613413438
 41
0.1875
 42
0.1875
 43
0.1875
 50
90.0
  0
ENDBLK
  5
42E
100
AcDbEntity
  8
0
  6
BYBLOCK
 62
0
100
AcDbBlockEnd
  0
BLOCK
  5
42F
100
AcDbEntity
  8
0
100
AcDbBlockBegin
  2
_FILLED
 70
64
 10
0.0
 20
0.0
  3
_FILLED
  1

  0
SOLID
  5
430
100
AcDbEntity
  8
0
  6
BYBLOCK
 62
0
100
AcDbTrace
 10
0.0
 20
0.0
 11
-1.0
 21
0.1666666667
 12
-1.0
 22
-0.1666666667
 13
-1.0
 23
-0.1666666667
  0
ENDBLK
  5
431
100
AcDbEntity
  8
0
  6
BYBLOCK
 62
0
100
AcDbBlockEnd
  0
ENDSEC
  0
SECTION
  2
ENTITIES
  0
TEXT
  5
432
100
AcDbEntity
  8
0
100
AcDbText
 62
2
  6
CONTINUOUS
 10
14.8374677477
 20
1.5655662523
  7
STANDARD
 40
0.1
  1
%%uTHIRD ANGLE PROJECTION
 41
0.8
 72
1
 11
15.7174677477
 21
1.5655662523
100
AcDbText
  0
TEXT
  5
433
100
AcDbEntity
  8
0
100
AcDbText
 62
2
  6
CONTINUOUS
 10
17.55
 20
1.24
  7
STANDARD
 40
0.08
  1
DRAWING NO.
 41
1.0
 72
0
100
AcDbText
  0
TEXT
  5
434
100
AcDbEntity
  8
0
100
AcDbText
 62
2
  6
CONTINUOUS
 10
14.714
 20
2.299432
  7
STANDARD
 40
0.08
  1
and is proprietary in general
 41
0.85
 72
1
 11
15.7
 21
2.299432
100
AcDbText
  0
TEXT
  5
435
100
AcDbEntity
  8
0
100
AcDbText
 62
2
  6
CONTINUOUS
 10
14.748
 20
2.179432
  7
STANDARD
 40
0.08
  1
and in detail.  Its contents
 41
0.85
 72
1
 11
15.7
 21
2.179432
100
AcDbText
  0
TEXT
  5
436
100
AcDbEntity
  8
0
100
AcDbText
 62
2
  6
CONTINUOUS
 10
14.884
 20
2.059432
  7
STANDARD
 40
0.08
  1
shall not be revealed to
 41
0.85
 72
1
 11
15.7
 21
2.059432
100
AcDbText
  0
TEXT
  5
437
100
AcDbEntity
  8
0
100
AcDbText
 62
2
  6
CONTINUOUS
 10
14.918
 20
1.939432
  7
STANDARD
 40
0.08
  1
outside parties without
 41
0.85
 72
1
 11
15.7
 21
1.939432
100
AcDbText
  0
TEXT
  5
438
100
AcDbEntity
  8
0
100
AcDbText
 62
2
  6
CONTINUOUS
 10
14.816
 20
1.819432
  7
STANDARD
 40
0.08
  1
written consent of BANNER.
 41
0.85
 72
1
 11
15.7
 21
1.819432
100
AcDbText
  0
TEXT
  5
439
100
AcDbEntity
  8
0
100
AcDbText
 62
2
  6
CONTINUOUS
 10
16.75
 20
1.98
  7
STANDARD
 40
0.1
  1
TITLE
 41
0.8
 72
0
100
AcDbText
  0
TEXT
  5
43A
100
AcDbEntity
  8
0
100
AcDbText
 62
2
  6
CONTINUOUS
 10
16.75
 20
1.24
  7
STANDARD
 40
0.08
  1
SIZE
 41
1.0
 72
0
100
AcDbText
  0
TEXT
  5
43B
100
AcDbEntity
  8
0
100
AcDbText
 62
2
  6
CONTINUOUS
 10
16.75
 20
0.87
  7
STANDARD
 40
0.08
  1
SCALE
 41
1.0
 72
0
100
AcDbText
  0
TEXT
  5
43C
100
AcDbEntity
  8
0
100
AcDbText
 62
2
  6
CONTINUOUS
 10
17.13
 20
1.1
  7
STANDARD
 40
0.1
  1
C
 41
0.8
 72
1
 11
17.17
 21
1.1
100
AcDbText
  0
TEXT
  5
43D
100
AcDbEntity
  8
0
100
AcDbText
 62
2
  6
CONTINUOUS
 10
14.782
 20
2.419432
  7
STANDARD
 40
0.08
  1
of BANNER ENGINEERING CORP.
 41
0.85
 72
1
 11
15.7
 21
2.419432
100
AcDbText
  0
TEXT
  5
43E
100
AcDbEntity
  8
0
100
AcDbText
 62
2
  6
CONTINUOUS
 10
14.748
 20
2.539432
  7
STANDARD
 40
0.08
  1
This drawing is the property
 41
0.85
 72
1
 11
15.7
 21
2.539432
100
AcDbText
  0
TEXT
  5
43F
100
AcDbEntity
  8
0
100
AcDbText
 62
2
  6
CONTINUOUS
 10
18.86
 20
2.1764
  7
STANDARD
 40
0.1
  1
MINNEAPOLIS, MN 55440
 41
0.8
 72
1
 11
19.7
 21
2.1764
100
AcDbText
  0
TEXT
  5
440
100
AcDbEntity
  8
0
100
AcDbText
 62
2
  6
CONTINUOUS
 10
18.925
 20
0.87
  7
STANDARD
 40
0.08
  1
SHEET
 41
1.0
 72
0
100
AcDbText
  0
TEXT
  5
441
100
AcDbEntity
  8
0
100
AcDbText
 62
2
  6
CONTINUOUS
 10
20.3
 20
1.24
  7
STANDARD
 40
0.08
  1
REV.
 41
1.0
 72
0
100
AcDbText
  0
TEXT
  5
442
100
AcDbEntity
  8
0
100
AcDbText
 62
2
  6
CONTINUOUS
 10
20.7
 20
0.628443
  7
STANDARD
 40
0.07
  1
PRO/E
 41
1.0
 72
2
 11
21.05
 21
0.628443
100
AcDbText
  0
TEXT
  5
443
100
AcDbEntity
  8
0
100
AcDbText
 62
2
  6
CONTINUOUS
 10
18.3752
 20
2.494049
  7
STANDARD
 40
0.12
  1
BANNER ENGINEERING CORP.
 41
0.92
 72
1
 11
19.7
 21
2.494049
100
AcDbText
  0
TEXT
  5
444
100
AcDbEntity
  8
0
100
AcDbText
 62
2
  6
CONTINUOUS
 10
19.18
 20
2.3354
  7
STANDARD
 40
0.1
  1
P.O. BOX 9414
 41
0.8
 72
1
 11
19.7
 21
2.3354
100
AcDbText
  0
TEXT
  5
445
100
AcDbEntity
  8
0
100
AcDbText
 62
2
  6
CONTINUOUS
 10
12.217
 20
15.85
  7
STANDARD
 40
0.1
  1
4
 41
0.8
 72
1
 11
12.257
 21
15.85
100
AcDbText
  0
TEXT
  5
446
100
AcDbEntity
  8
0
100
AcDbText
 62
2
  6
CONTINUOUS
 10
12.217
 20
0.55
  7
STANDARD
 40
0.1
  1
4
 41
0.8
 72
1
 11
12.257
 21
0.55
100
AcDbText
  0
TEXT
  5
447
100
AcDbEntity
  8
0
100
AcDbText
 62
2
  6
CONTINUOUS
 10
0.784
 20
6.275
  7
STANDARD
 40
0.1
  1
B
 41
0.8
 72
2
 11
0.864
 21
6.275
100
AcDbText
  0
TEXT
  5
448
100
AcDbEntity
  8
0
100
AcDbText
 62
2
  6
CONTINUOUS
 10
21.15
 20
6.275
  7
STANDARD
 40
0.1
  1
B
 41
0.8
 72
0
100
AcDbText
  0
TEXT
  5
449
100
AcDbEntity
  8
0
100
AcDbText
 62
2
  6
CONTINUOUS
 10
0.784
 20
2.425
  7
STANDARD
 40
0.1
  1
A
 41
0.8
 72
2
 11
0.864
 21
2.425
100
AcDbText
  0
TEXT
  5
44A
100
AcDbEntity
  8
0
100
AcDbText
 62
2
  6
CONTINUOUS
 10
21.15
 20
2.425
  7
STANDARD
 40
0.1
  1
A
 41
0.8
 72
0
100
AcDbText
  0
TEXT
  5
44B
100
AcDbEntity
  8
0
100
AcDbText
 62
2
  6
CONTINUOUS
 10
0.784
 20
13.975
  7
STANDARD
 40
0.1
  1
D
 41
0.8
 72
2
 11
0.864
 21
13.975
100
AcDbText
  0
TEXT
  5
44C
100
AcDbEntity
  8
0
100
AcDbText
 62
2
  6
CONTINUOUS
 10
21.15
 20
13.975
  7
STANDARD
 40
0.1
  1
D
 41
0.8
 72
0
100
AcDbText
  0
TEXT
  5
44D
100
AcDbEntity
  8
0
100
AcDbText
 62
2
  6
CONTINUOUS
 10
0.784
 20
10.125
  7
STANDARD
 40
0.1
  1
C
 41
0.8
 72
2
 11
0.864
 21
10.125
100
AcDbText
  0
TEXT
  5
44E
100
AcDbEntity
  8
0
100
AcDbText
 62
2
  6
CONTINUOUS
 10
21.15
 20
10.125
  7
STANDARD
 40
0.1
  1
C
 41
0.8
 72
0
100
AcDbText
  0
TEXT
  5
44F
100
AcDbEntity
  8
0
100
AcDbText
 62
2
  6
CONTINUOUS
 10
14.717
 20
0.55
  7
STANDARD
 40
0.1
  1
3
 41
0.8
 72
1
 11
14.757
 21
0.55
100
AcDbText
  0
TEXT
  5
450
100
AcDbEntity
  8
0
100
AcDbText
 62
2
  6
CONTINUOUS
 10
14.717
 20
15.85
  7
STANDARD
 40
0.1
  1
3
 41
0.8
 72
1
 11
14.757
 21
15.85
100
AcDbText
  0
TEXT
  5
451
100
AcDbEntity
  8
0
100
AcDbText
 62
2
  6
CONTINUOUS
 10
17.217
 20
15.85
  7
STANDARD
 40
0.1
  1
2
 41
0.8
 72
1
 11
17.257
 21
15.85
100
AcDbText
  0
TEXT
  5
452
100
AcDbEntity
  8
0
100
AcDbText
 62
2
  6
CONTINUOUS
 10
17.217
 20
0.55
  7
STANDARD
 40
0.1
  1
2
 41
0.8
 72
1
 11
17.257
 21
0.55
100
AcDbText
  0
TEXT
  5
453
100
AcDbEntity
  8
0
100
AcDbText
 62
2
  6
CONTINUOUS
 10
19.717
 20
0.55
  7
STANDARD
 40
0.1
  1
1
 41
0.8
 72
1
 11
19.757
 21
0.55
100
AcDbText
  0
TEXT
  5
454
100
AcDbEntity
  8
0
100
AcDbText
 62
2
  6
CONTINUOUS
 10
19.717
 20
15.85
  7
STANDARD
 40
0.1
  1
1
 41
0.8
 72
1
 11
19.757
 21
15.85
100
AcDbText
  0
TEXT
  5
455
100
AcDbEntity
  8
0
100
AcDbText
 62
2
  6
CONTINUOUS
 10
2.217
 20
0.55
  7
STANDARD
 40
0.1
  1
8
 41
0.8
 72
1
 11
2.257
 21
0.55
100
AcDbText
  0
TEXT
  5
456
100
AcDbEntity
  8
0
100
AcDbText
 62
2
  6
CONTINUOUS
 10
4.717
 20
0.55
  7
STANDARD
 40
0.1
  1
7
 41
0.8
 72
1
 11
4.757
 21
0.55
100
AcDbText
  0
TEXT
  5
457
100
AcDbEntity
  8
0
100
AcDbText
 62
2
  6
CONTINUOUS
 10
7.217
 20
0.55
  7
STANDARD
 40
0.1
  1
6
 41
0.8
 72
1
 11
7.257
 21
0.55
100
AcDbText
  0
TEXT
  5
458
100
AcDbEntity
  8
0
100
AcDbText
 62
2
  6
CONTINUOUS
 10
9.717
 20
0.55
  7
STANDARD
 40
0.1
  1
5
 41
0.8
 72
1
 11
9.757
 21
0.55
100
AcDbText
  0
TEXT
  5
459
100
AcDbEntity
  8
0
100
AcDbText
 62
2
  6
CONTINUOUS
 10
9.717
 20
15.85
  7
STANDARD
 40
0.1
  1
5
 41
0.8
 72
1
 11
9.757
 21
15.85
100
AcDbText
  0
TEXT
  5
45A
100
AcDbEntity
  8
0
100
AcDbText
 62
2
  6
CONTINUOUS
 10
7.217
 20
15.85
  7
STANDARD
 40
0.1
  1
6
 41
0.8
 72
1
 11
7.257
 21
15.85
100
AcDbText
  0
TEXT
  5
45B
100
AcDbEntity
  8
0
100
AcDbText
 62
2
  6
CONTINUOUS
 10
4.717
 20
15.85
  7
STANDARD
 40
0.1
  1
7
 41
0.8
 72
1
 11
4.757
 21
15.85
100
AcDbText
  0
TEXT
  5
45C
100
AcDbEntity
  8
0
100
AcDbText
 62
2
  6
CONTINUOUS
 10
2.217
 20
15.85
  7
STANDARD
 40
0.1
  1
8
 41
0.8
 72
1
 11
2.257
 21
15.85
100
AcDbText
  0
TEXT
  5
45D
100
AcDbEntity
  8
0
100
AcDbText
 62
2
  6
CONTINUOUS
 10
17.2749123633
 20
0.8184107931
  7
STANDARD
 40
0.1
  1
1:1
 41
1.0
 72
0
100
AcDbText
  0
MTEXT
  5
45E
100
AcDbEntity
  8
0
100
AcDbMText
 62
2
  6
CONTINUOUS
  7
STANDARD
 71
1
 72
1
 10
19.4499123633
 20
0.9184107931
 30
0.0
 11
1.0
 21
0.0
 31
0.0
  1
1 OF 1
 40
0.1
 41
0.6
  0
TEXT
  5
45F
100
AcDbEntity
  8
0
100
AcDbText
 62
7
  6
CONTINUOUS
 10
18.5204017884
 20
1.1200373234
  7
STANDARD
 40
0.12
  1
145178
 41
1.0
 72
0
100
AcDbText
  0
MTEXT
  5
460
100
AcDbEntity
  8
0
100
AcDbMText
 62
2
  6
CONTINUOUS
  7
STANDARD
 71
1
 72
1
 10
1.7464424763
 20
1.7731130192
 30
0.0
 11
1.0
 21
0.0
 31
0.0
  1
NOTES:\P1. ALL DIMENSIONS ARE MILLIMETERS [INCHES] UNLESS OTHERWISE NOTED.
 40
0.1
 41
6.6
  0
INSERT
  5
461
100
AcDbEntity
  8
0
100
AcDbBlockReference
 62
2
  6
CONTINUOUS
  2
BANNER_LOGO_TITLEBLOCK_BL0
 10
17.5737928667
 20
2.4016160592
  0
DIMENSION
  5
462
100
AcDbEntity
  8
SCHEME_DIMS
100
AcDbDimension
 62
2
  6
CONTINUOUS
  2
*D0
 10
7.3496546238
 20
6.0542547296
 11
7.8496546238
 21
5.2471094658
 70
160
 42
8.35
  3
DIMSTYLE_1
100
AcDbAlignedDimension
 13
6.1316428128
 23
5.7255145721
 14
6.4397136789
 24
6.0542547296
 50
90.0
100
AcDbRotatedDimension
  0
DIMENSION
  5
463
100
AcDbEntity
  8
SCHEME_DIMS
100
AcDbDimension
 62
2
  6
CONTINUOUS
  2
*D1
 10
7.9216851078
 20
6.8022862257
 11
7.9216851078
 21
6.2640377616
 70
160
 42
27.35
  3
DIMSTYLE_1
100
AcDbAlignedDimension
 13
6.1316428128
 23
5.7255145721
 14
6.7029667316
 24
6.8022862257
 50
90.0
100
AcDbRotatedDimension
  0
DIMENSION
  5
464
100
AcDbEntity
  8
SCHEME_DIMS
100
AcDbDimension
 62
2
  6
CONTINUOUS
  2
*D2
 10
8.4127350983
 20
15.6172468556
 11
8.4127350983
 21
10.8095453066
 70
160
 42
251.25
  3
DIMSTYLE_1
100
AcDbAlignedDimension
 13
6.1316428128
 23
5.7255145721
 14
6.8733790044
 24
15.6172468556
 50
90.0
100
AcDbRotatedDimension
  0
DIMENSION
  5
465
100
AcDbEntity
  8
SCHEME_DIMS
100
AcDbDimension
 62
2
  6
CONTINUOUS
  2
*D3
 10
6.751229427
 20
5.2255145721
 11
5.8654026553
 21
5.1505145721
 70
160
 42
45.0
  3
DIMSTYLE_1
100
AcDbAlignedDimension
 13
4.9795758837
 23
6.8336364209
 14
6.751229427
 24
6.8266889759
100
AcDbRotatedDimension
  0
DIMENSION
  5
466
100
AcDbEntity
  8
SCHEME_DIMS
100
AcDbDimension
 62
2
  6
CONTINUOUS
  2
*D4
 10
6.6581237008
 20
3.9022287108
 11
7.5701314067
 21
4.044580529
 70
163
 42
50.0
  1
<>
  3
DIMSTYLE_2
100
AcDbDiametricDimension
 15
5.0726816098
 25
2.7354463291
  0
DIMENSION
  5
467
100
AcDbEntity
  8
SCHEME_DIMS
100
AcDbDimension
 62
2
  6
CONTINUOUS
  2
*D5
 10
7.3496546238
 20
8.8613413438
 11
7.3496546238
 21
8.2568137847
 70
160
 42
26.9
  1
5X <>
  3
DIMSTYLE_1
100
AcDbAlignedDimension
 13
6.9121546238
 23
7.8022862257
 14
6.9121546238
 24
8.8613413438
 50
90.0
100
AcDbRotatedDimension
  0
LINE
  5
468
100
AcDbEntity
  8
0
100
AcDbLine
 62
2
  6
CONTINUOUS
 10
21.05
 20
0.75
 11
16.7
 21
0.75
  0
LINE
  5
469
100
AcDbEntity
  8
0
100
AcDbLine
 62
2
  6
CONTINUOUS
 10
21.05
 20
0.75
 11
21.05
 21
2.67
  0
LINE
  5
46A
100
AcDbEntity
  8
0
100
AcDbLine
 62
2
  6
CONTINUOUS
 10
21.05
 20
2.67
 11
16.7
 21
2.67
  0
LINE
  5
46B
100
AcDbEntity
  8
0
100
AcDbLine
 62
2
  6
CONTINUOUS
 10
16.7
 20
0.75
 11
16.7
 21
2.67
  0
TEXT
  5
46C
100
AcDbEntity
  8
0
100
AcDbText
 62
7
  6
CONTINUOUS
 10
20.775
 20
1.13
  7
STANDARD
 40
0.1
  1
A
 41
1.0
 72
1
 11
20.825
 21
1.13
100
AcDbText
  0
MTEXT
  5
46D
100
AcDbEntity
  8
0
100
AcDbMText
 62
7
  6
CONTINUOUS
  7
STANDARD
 71
2
 72
1
 10
18.875
 20
1.83
 30
0.0
 11
1.0
 21
0.0
 31
0.0
  1
TL50 5-STACK QD\PWEB CAD DRAWINGS 2D/3D
 40
0.1
 41
2.2
  0
TEXT
  5
46E
100
AcDbEntity
  8
NOTES
100
AcDbText
 62
2
  6
CONTINUOUS
 10
3.1810848832
 20
5.968042474
  7
STANDARD
 40
0.1
  1
M30 X 1.5-6g
 41
1.0
 72
0
100
AcDbText
  0
LINE
  5
46F
100
AcDbEntity
  8
NOTES
100
AcDbLine
 62
2
  6
CONTINUOUS
 10
5.3236114953
 20
6.206820882
 11
4.6310848832
 21
6.018042474
  0
LINE
  5
470
100
AcDbEntity
  8
NOTES
100
AcDbLine
 62
2
  6
CONTINUOUS
 10
4.6310848832
 20
6.018042474
 11
4.3810848832
 21
6.018042474
  0
SOLID
  5
471
100
AcDbEntity
  8
NOTES
100
AcDbTrace
 62
2
  6
CONTINUOUS
 10
5.1509308187
 20
6.1273589639
 11
5.3236114953
 21
6.206820882
 12
5.1344934764
 22
6.1876587465
 13
5.1344934764
 23
6.1876587465
  0
TEXT
  5
472
100
AcDbEntity
  8
NOTES
100
AcDbText
 62
2
  6
CONTINUOUS
 10
3.3524110131
 20
5.2997900703
  7
STANDARD
 40
0.1
  1
M12 X 1-6g
 41
1.0
 72
0
100
AcDbText
  0
LINE
  5
473
100
AcDbEntity
  8
NOTES
100
AcDbLine
 62
2
  6
CONTINUOUS
 10
5.6980511246
 20
5.8190065523
 11
4.6024110131
 21
5.3497900703
  0
LINE
  5
474
100
AcDbEntity
  8
NOTES
100
AcDbLine
 62
2
  6
CONTINUOUS
 10
4.6024110131
 20
5.3497900703
 11
4.3524110131
 21
5.3497900703
  0
SOLID
  5
475
100
AcDbEntity
  8
NOTES
100
AcDbTrace
 62
2
  6
CONTINUOUS
 10
5.5379942361
 20
5.7164658047
 11
5.6980511246
 21
5.8190065523
 12
5.5133895011
 22
5.77391889
 13
5.5133895011
 23
5.77391889
  0
MTEXT
  5
476
100
AcDbEntity
  8
NOTES
100
AcDbMText
 62
2
  6
CONTINUOUS
  7
STANDARD
 71
2
 72
1
 10
17.0248210432
 20
4.4887381361
 30
0.0
 11
1.0
 21
0.0
 31
0.0
  1
ISOMETRIC VIEW\P\H0.1;SCALE  1:1
 40
0.125
 41
1.75
  0
TEXT
  5
477
100
AcDbEntity
  8
NOTES
100
AcDbText
 62
2
  6
CONTINUOUS
 10
3.1488830848
 20
3.9946280801
  7
STANDARD
 40
0.1
  1
1/2-14 NPSM
 41
1.0
 72
0
100
AcDbText
  0
LINE
  5
478
100
AcDbEntity
  8
NOTES
100
AcDbLine
 62
2
  6
CONTINUOUS
 10
5.5059594988
 20
3.4418854007
 11
4.4988830848
 21
4.0446280801
  0
LINE
  5
479
100
AcDbEntity
  8
NOTES
100
AcDbLine
 62
2
  6
CONTINUOUS
 10
4.4988830848
 20
4.0446280801
 11
4.2488830848
 21
4.0446280801
  0
SOLID
  5
47A
100
AcDbEntity
  8
NOTES
100
AcDbTrace
 62
2
  6
CONTINUOUS
 10
5.3290251746
 20
3.5113624286
 11
5.5059594988
 21
3.4418854007
 12
5.3611222823
 22
3.5649910188
 13
5.3611222823
 23
3.5649910188
  0
LINE
  5
47B
100
AcDbEntity
  8
0
100
AcDbLine
 62
2
  6
CONTINUOUS
 10
0.814
 20
8.336603
 11
0.814
 21
8.163397
  0
LINE
  5
47C
100
AcDbEntity
  8
0
100
AcDbLine
 62
2
  6
CONTINUOUS
 10
0.964
 20
15.75
 11
0.964
 21
0.75
  0
LINE
  5
47D
100
AcDbEntity
  8
0
100
AcDbLine
 62
7
  6
CONTINUOUS
 10
15.8276527477
 20
1.2966912523
 11
16.4340437477
 21
1.3660842523
  0
LINE
  5
47E
100
AcDbEntity
  8
0
100
AcDbLine
 62
2
  6
CONTINUOUS
 10
10.920397
 20
0.6
 11
11.093603
 21
0.6
  0
LINE
  5
47F
100
AcDbEntity
  8
0
100
AcDbLine
 62
2
  6
CONTINUOUS
 10
0.964
 20
0.75
 11
21.05
 21
0.75
  0
LINE
  5
480
100
AcDbEntity
  8
0
100
AcDbLine
 62
2
  6
CONTINUOUS
 10
3.507
 20
0.75
 11
3.507
 21
0.5
  0
LINE
  5
481
100
AcDbEntity
  8
0
100
AcDbLine
 62
2
  6
CONTINUOUS
 10
3.507
 20
15.75
 11
3.507
 21
16.0
  0
LINE
  5
482
100
AcDbEntity
  8
0
100
AcDbLine
 62
2
  6
CONTINUOUS
 10
16.7
 20
1.0
 11
21.05
 21
1.0
  0
LINE
  5
483
100
AcDbEntity
  8
0
100
AcDbLine
 62
7
  6
CONTINUOUS
 10
14.9008917477
 20
1.1139932523
 11
15.1229827477
 21
1.1139932523
  0
LINE
  5
484
100
AcDbEntity
  8
0
100
AcDbLine
 62
7
  6
CONTINUOUS
 10
15.1729827477
 20
1.1139932523
 11
15.2729827477
 21
1.1139932523
  0
LINE
  5
485
100
AcDbEntity
  8
0
100
AcDbLine
 62
7
  6
CONTINUOUS
 10
15.3229827477
 20
1.1139932523
 11
15.5450737477
 21
1.1139932523
  0
LINE
  5
486
100
AcDbEntity
  8
0
100
AcDbLine
 62
7
  6
CONTINUOUS
 10
15.7276527477
 20
1.1139932523
 11
16.0058047477
 21
1.1139932523
  0
LINE
  5
487
100
AcDbEntity
  8
0
100
AcDbLine
 62
7
  6
CONTINUOUS
 10
16.0558047477
 20
1.1139932523
 11
16.2058907477
 21
1.1139932523
  0
LINE
  5
488
100
AcDbEntity
  8
0
100
AcDbLine
 62
7
  6
CONTINUOUS
 10
16.2558907477
 20
1.1139932523
 11
16.5340437477
 21
1.1139932523
  0
LINE
  5
489
100
AcDbEntity
  8
0
100
AcDbLine
 62
2
  6
CONTINUOUS
 10
16.7
 20
1.37
 11
21.05
 21
1.37
  0
LINE
  5
48A
100
AcDbEntity
  8
0
100
AcDbLine
 62
7
  6
CONTINUOUS
 10
16.4340437477
 20
0.8619022523
 11
15.8276527477
 21
0.9312952523
  0
LINE
  5
48B
100
AcDbEntity
  8
0
100
AcDbLine
 62
2
  6
CONTINUOUS
 10
14.7
 20
1.77
 11
16.7
 21
1.77
  0
LINE
  5
48C
100
AcDbEntity
  8
0
100
AcDbLine
 62
2
  6
CONTINUOUS
 10
16.7
 20
2.13
 11
21.05
 21
2.13
  0
LINE
  5
48D
100
AcDbEntity
  8
0
100
AcDbLine
 62
2
  6
CONTINUOUS
 10
21.05
 20
2.67
 11
14.7
 21
2.67
  0
LINE
  5
48E
100
AcDbEntity
  8
0
100
AcDbLine
 62
2
  6
CONTINUOUS
 10
6.007
 20
0.75
 11
6.007
 21
0.5
  0
LINE
  5
48F
100
AcDbEntity
  8
0
100
AcDbLine
 62
2
  6
CONTINUOUS
 10
6.007
 20
15.75
 11
6.007
 21
16.0
  0
LINE
  5
490
100
AcDbEntity
  8
0
100
AcDbLine
 62
2
  6
CONTINUOUS
 10
0.814
 20
8.163397
 11
0.964
 21
8.25
  0
LINE
  5
491
100
AcDbEntity
  8
0
100
AcDbLine
 62
2
  6
CONTINUOUS
 10
0.964
 20
8.25
 11
0.814
 21
8.336603
  0
LINE
  5
492
100
AcDbEntity
  8
0
100
AcDbLine
 62
2
  6
CONTINUOUS
 10
0.964
 20
4.4
 11
0.714
 21
4.4
  0
LINE
  5
493
100
AcDbEntity
  8
0
100
AcDbLine
 62
2
  6
CONTINUOUS
 10
21.05
 20
4.4
 11
21.3
 21
4.4
  0
LINE
  5
494
100
AcDbEntity
  8
0
100
AcDbLine
 62
2
  6
CONTINUOUS
 10
11.093603
 20
0.6
 11
11.007
 21
0.75
  0
LINE
  5
495
100
AcDbEntity
  8
0
100
AcDbLine
 62
2
  6
CONTINUOUS
 10
11.007
 20
15.75
 11
11.093603
 21
15.9
  0
LINE
  5
496
100
AcDbEntity
  8
0
100
AcDbLine
 62
2
  6
CONTINUOUS
 10
8.507
 20
0.75
 11
8.507
 21
0.5
  0
LINE
  5
497
100
AcDbEntity
  8
0
100
AcDbLine
 62
2
  6
CONTINUOUS
 10
8.507
 20
15.75
 11
8.507
 21
16.0
  0
LINE
  5
498
100
AcDbEntity
  8
0
100
AcDbLine
 62
2
  6
CONTINUOUS
 10
11.007
 20
0.75
 11
11.007
 21
0.5
  0
LINE
  5
499
100
AcDbEntity
  8
0
100
AcDbLine
 62
2
  6
CONTINUOUS
 10
11.007
 20
15.75
 11
11.007
 21
16.0
  0
LINE
  5
49A
100
AcDbEntity
  8
0
100
AcDbLine
 62
2
  6
CONTINUOUS
 10
0.964
 20
8.25
 11
0.714
 21
8.25
  0
LINE
  5
49B
100
AcDbEntity
  8
0
100
AcDbLine
 62
2
  6
CONTINUOUS
 10
21.05
 20
8.25
 11
21.3
 21
8.25
  0
LINE
  5
49C
100
AcDbEntity
  8
0
100
AcDbLine
 62
2
  6
CONTINUOUS
 10
13.507
 20
0.75
 11
13.507
 21
0.5
  0
LINE
  5
49D
100
AcDbEntity
  8
0
100
AcDbLine
 62
2
  6
CONTINUOUS
 10
13.507
 20
15.75
 11
13.507
 21
16.0
  0
LINE
  5
49E
100
AcDbEntity
  8
0
100
AcDbLine
 62
2
  6
CONTINUOUS
 10
14.7
 20
2.67
 11
14.7
 21
0.75
  0
LINE
  5
49F
100
AcDbEntity
  8
0
100
AcDbLine
 62
2
  6
CONTINUOUS
 10
11.007
 20
0.75
 11
10.920397
 21
0.6
  0
LINE
  5
4A0
100
AcDbEntity
  8
0
100
AcDbLine
 62
2
  6
CONTINUOUS
 10
0.964
 20
12.1
 11
0.714
 21
12.1
  0
LINE
  5
4A1
100
AcDbEntity
  8
0
100
AcDbLine
 62
2
  6
CONTINUOUS
 10
21.05
 20
12.1
 11
21.3
 21
12.1
  0
LINE
  5
4A2
100
AcDbEntity
  8
0
100
AcDbLine
 62
2
  6
CONTINUOUS
 10
10.920397
 20
15.9
 11
11.007
 21
15.75
  0
LINE
  5
4A3
100
AcDbEntity
  8
0
100
AcDbLine
 62
7
  6
CONTINUOUS
 10
15.2229827477
 20
1.0139932523
 11
15.2229827477
 21
0.7919022523
  0
LINE
  5
4A4
100
AcDbEntity
  8
0
100
AcDbLine
 62
7
  6
CONTINUOUS
 10
15.2229827477
 20
1.0639932523
 11
15.2229827477
 21
1.1639932523
  0
LINE
  5
4A5
100
AcDbEntity
  8
0
100
AcDbLine
 62
7
  6
CONTINUOUS
 10
15.2229827477
 20
1.2139932523
 11
15.2229827477
 21
1.4360842523
  0
LINE
  5
4A6
100
AcDbEntity
  8
0
100
AcDbLine
 62
7
  6
CONTINUOUS
 10
15.8276527477
 20
0.9312952523
 11
15.8276527477
 21
1.2966912523
  0
LINE
  5
4A7
100
AcDbEntity
  8
0
100
AcDbLine
 62
2
  6
CONTINUOUS
 10
16.007
 20
0.75
 11
16.007
 21
0.5
  0
LINE
  5
4A8
100
AcDbEntity
  8
0
100
AcDbLine
 62
2
  6
CONTINUOUS
 10
16.007
 20
15.75
 11
16.007
 21
16.0
  0
LINE
  5
4A9
100
AcDbEntity
  8
0
100
AcDbLine
 62
7
  6
CONTINUOUS
 10
16.4340437477
 20
1.3660842523
 11
16.4340437477
 21
0.8619022523
  0
LINE
  5
4AA
100
AcDbEntity
  8
0
100
AcDbLine
 62
2
  6
CONTINUOUS
 10
21.2
 20
8.336603
 11
21.05
 21
8.25
  0
LINE
  5
4AB
100
AcDbEntity
  8
0
100
AcDbLine
 62
2
  6
CONTINUOUS
 10
21.05
 20
8.25
 11
21.2
 21
8.163397
  0
LINE
  5
4AC
100
AcDbEntity
  8
0
100
AcDbLine
 62
7
  6
CONTINUOUS
 10
16.7
 20
2.67
 11
16.7
 21
0.75
  0
LINE
  5
4AD
100
AcDbEntity
  8
0
100
AcDbLine
 62
2
  6
CONTINUOUS
 10
17.5
 20
1.37
 11
17.5
 21
1.0
  0
LINE
  5
4AE
100
AcDbEntity
  8
0
100
AcDbLine
 62
2
  6
CONTINUOUS
 10
18.507
 20
0.75
 11
18.507
 21
0.5
  0
LINE
  5
4AF
100
AcDbEntity
  8
0
100
AcDbLine
 62
2
  6
CONTINUOUS
 10
18.507
 20
15.75
 11
18.507
 21
16.0
  0
LINE
  5
4B0
100
AcDbEntity
  8
0
100
AcDbLine
 62
2
  6
CONTINUOUS
 10
21.05
 20
15.75
 11
0.964
 21
15.75
  0
LINE
  5
4B1
100
AcDbEntity
  8
0
100
AcDbLine
 62
2
  6
CONTINUOUS
 10
11.093603
 20
15.9
 11
10.920397
 21
15.9
  0
LINE
  5
4B2
100
AcDbEntity
  8
0
100
AcDbLine
 62
2
  6
CONTINUOUS
 10
18.875
 20
1.0
 11
18.875
 21
0.75
  0
LINE
  5
4B3
100
AcDbEntity
  8
0
100
AcDbLine
 62
2
  6
CONTINUOUS
 10
20.25
 20
1.37
 11
20.25
 21
1.0
  0
LINE
  5
4B4
100
AcDbEntity
  8
0
100
AcDbLine
 62
2
  6
CONTINUOUS
 10
21.05
 20
0.75
 11
21.05
 21
15.75
  0
LINE
  5
4B5
100
AcDbEntity
  8
0
100
AcDbLine
 62
2
  6
CONTINUOUS
 10
21.2
 20
8.163397
 11
21.2
 21
8.336603
  0
LWPOLYLINE
  5
4B6
100
AcDbEntity
  8
0
100
AcDbPolyline
 62
7
  6
CONTINUOUS
 90
4
 70
0
 10
6.1014224566
 20
5.8748625765
 10
6.0967343693
 20
5.8738438628
 10
6.0861482729
 20
5.8728402361
 10
6.0699755853
 20
5.8718400315
  0
LWPOLYLINE
  5
4B7
100
AcDbEntity
  8
0
100
AcDbPolyline
 62
7
  6
CONTINUOUS
 90
8
 70
0
 10
6.0987816497
 20
5.9528881671
 10
6.0902473667
 20
5.9519085275
 10
6.0762178351
 20
5.9509282712
 10
6.0567649447
 20
5.9499355846
 10
6.0325090029
 20
5.9489425174
 10
6.0044339105
 20
5.9479615634
 10
5.9730388311
 20
5.94698301
 10
5.9385701954
 20
5.9459917942
  0
LWPOLYLINE
  5
4B8
100
AcDbEntity
  8
0
100
AcDbPolyline
 62
7
  6
CONTINUOUS
 90
8
 70
0
 10
5.6320485161
 20
5.9331846015
 10
5.6406090374
 20
5.9341644027
 10
5.6547435294
 20
5.9351494054
 10
5.6743490692
 20
5.9361468751
 10
5.6987931582
 20
5.9371446159
 10
5.7270747659
 20
5.9381299981
 10
5.7585125638
 20
5.9391077169
 10
5.7925415885
 20
5.9400852682
  0
LWPOLYLINE
  5
4B9
100
AcDbEntity
  8
0
100
AcDbPolyline
 62
7
  6
CONTINUOUS
 90
8
 70
0
 10
6.0987584695
 20
5.9922542777
 10
6.0901985898
 20
5.9912743905
 10
6.0760650029
 20
5.9902893766
 10
6.0564603448
 20
5.9892919031
 10
6.0320185238
 20
5.9882942156
 10
6.0037399714
 20
5.9873089035
 10
5.9723081547
 20
5.9863313345
 10
5.938276166
 20
5.9853536719
  0
LWPOLYLINE
  5
4BA
100
AcDbEntity
  8
0
100
AcDbPolyline
 62
7
  6
CONTINUOUS
 90
8
 70
0
 10
6.098705243
 20
5.7953948322
 10
6.0901254325
 20
5.7944176902
 10
6.0759620665
 20
5.7934329533
 10
6.0563343022
 20
5.7924358275
 10
6.0318778025
 20
5.7914385583
 10
6.0035945711
 20
5.7904537529
 10
5.9720823145
 20
5.7894742247
 10
5.937934377
 20
5.7884937494
  0
LWPOLYLINE
  5
4BB
100
AcDbEntity
  8
0
100
AcDbPolyline
 62
7
  6
CONTINUOUS
 90
8
 70
0
 10
5.632117266
 20
5.8544561169
 10
5.6407627181
 20
5.8554374693
 10
5.6547540724
 20
5.856409866
 10
5.6740476012
 20
5.8573930996
 10
5.698157791
 20
5.8583806388
 10
5.7261688318
 20
5.8593601445
 10
5.7576176939
 20
5.8603409124
 10
5.7921455474
 20
5.8613340638
  0
LWPOLYLINE
  5
4BC
100
AcDbEntity
  8
0
100
AcDbPolyline
 62
7
  6
CONTINUOUS
 90
8
 70
0
 10
6.0986402442
 20
5.8347539677
 10
6.0899983719
 20
5.833776862
 10
6.0758597258
 20
5.8327970488
 10
6.0563157812
 20
5.831805072
 10
6.0319934598
 20
5.8308129628
 10
6.0038809368
 20
5.8298332028
 10
5.9724337597
 20
5.8288547564
 10
5.9380471069
 20
5.8278669704
  0
LWPOLYLINE
  5
4BD
100
AcDbEntity
  8
0
100
AcDbPolyline
 62
7
  6
CONTINUOUS
 90
8
 70
0
 10
5.6321792666
 20
5.8938366066
 10
5.6407883364
 20
5.8948097442
 10
5.6549591394
 20
5.8957919423
 10
5.6745623451
 20
5.896786406
 10
5.6989665155
 20
5.8977810206
 10
5.7271748132
 20
5.8987631926
 10
5.7586746281
 20
5.8997424579
 10
5.7929834066
 20
5.9007275059
  0
LWPOLYLINE
  5
4BE
100
AcDbEntity
  8
0
100
AcDbPolyline
 62
7
  6
CONTINUOUS
 90
8
 70
0
 10
5.6321594949
 20
5.8150931408
 10
5.6408638885
 20
5.8160760496
 10
5.6549795156
 20
5.8170529745
 10
5.6741995346
 20
5.8180298892
 10
5.6980511246
 20
5.8190065523
 10
5.7259635794
 20
5.8199833234
 10
5.7574429314
 20
5.8209656229
 10
5.7920202964
 20
5.8219604901
  0
LWPOLYLINE
  5
4BF
100
AcDbEntity
  8
0
100
AcDbPolyline
 62
7
  6
CONTINUOUS
 90
8
 70
0
 10
6.0986342298
 20
5.9134931187
 10
6.0899306063
 20
5.9125112262
 10
6.0757884333
 20
5.9115330447
 10
6.0564324441
 20
5.9105504872
 10
6.0325695223
 20
5.9095747104
 10
6.0047273397
 20
5.9086011177
 10
5.9732656874
 20
5.9076196932
 10
5.9387137398
 20
5.9066257204
  0
LWPOLYLINE
  5
4C0
100
AcDbEntity
  8
0
100
AcDbPolyline
 62
7
  6
CONTINUOUS
 90
3
 70
0
 10
6.0755766296
 20
5.7668531548
 10
6.0819735811
 20
5.7675163471
 10
6.0829035135
 20
5.7678185099
  0
LWPOLYLINE
  5
4C1
100
AcDbEntity
  8
0
100
AcDbPolyline
 62
7
  6
CONTINUOUS
 90
4
 70
0
 10
6.0419244042
 20
5.8905408189
 10
6.0565795895
 20
5.8916022671
 10
6.0657618248
 20
5.8926637153
 10
6.068944095
 20
5.8934883434
  0
LWPOLYLINE
  5
4C2
100
AcDbEntity
  8
0
100
AcDbPolyline
 62
7
  6
CONTINUOUS
 90
9
 70
0
 10
5.9383960653
 20
5.786538118
 10
5.8704072291
 20
5.7822007568
 10
5.8367063885
 20
5.7800238387
 10
5.8041804254
 20
5.7778417695
 10
5.7735254206
 20
5.7756545536
 10
5.7453909601
 20
5.7734621746
 10
5.72036543
 20
5.7712645603
 10
5.6989633886
 20
5.7690615814
 10
5.6816154526
 20
5.7668531548
  0
LWPOLYLINE
  5
4C3
100
AcDbEntity
  8
0
100
AcDbPolyline
 62
7
  6
CONTINUOUS
 90
4
 70
0
 10
6.0699755853
 20
5.9092416063
 10
6.0861482729
 20
5.9102418109
 10
6.0967343693
 20
5.9112454376
 10
6.1013742086
 20
5.912234766
  0
LWPOLYLINE
  5
4C4
100
AcDbEntity
  8
0
100
AcDbPolyline
 62
7
  6
CONTINUOUS
 90
6
 70
0
 10
6.0699755853
 20
5.8718400315
 10
6.0502291051
 20
5.8709086871
 10
6.0262888311
 20
5.8699730665
 10
5.9989463288
 20
5.8690431755
 10
5.968439842
 20
5.8681065546
 10
5.9352669929
 20
5.8671597009
  0
LWPOLYLINE
  5
4C5
100
AcDbEntity
  8
0
100
AcDbPolyline
 62
7
  6
CONTINUOUS
 90
9
 70
0
 10
5.9227246901
 20
5.8070252166
 10
5.9547557403
 20
5.8080823762
 10
5.9842493998
 20
5.8091395357
 10
6.0103681268
 20
5.8101966952
 10
6.0323702187
 20
5.8112538547
 10
6.0496308744
 20
5.8123110143
 10
6.061659937
 20
5.8133681738
 10
6.0681158131
 20
5.8144253333
 10
6.068944095
 20
5.8147481859
  0
LWPOLYLINE
  5
4C6
100
AcDbEntity
  8
0
100
AcDbPolyline
 62
7
  6
CONTINUOUS
 90
9
 70
0
 10
5.9147135369
 20
5.846140119
 10
5.9472229774
 20
5.8471972785
 10
5.9774089376
 20
5.848254438
 10
6.0044142164
 20
5.8493115975
 10
6.0274719353
 20
5.850368757
 10
6.0459273162
 20
5.8514259166
 10
6.0592562754
 20
5.8524830761
 10
6.0670803056
 20
5.8535402356
 10
6.068944095
 20
5.8541182646
  0
LWPOLYLINE
  5
4C7
100
AcDbEntity
  8
0
100
AcDbPolyline
 62
7
  6
CONTINUOUS
 90
6
 70
0
 10
5.9066206142
 20
5.8852550213
 10
5.9395545364
 20
5.8863121808
 10
5.9703827417
 20
5.8873693403
 10
5.9982297909
 20
5.8884264998
 10
6.0223049015
 20
5.8894836593
 10
6.0419244042
 20
5.8905408189
  0
LWPOLYLINE
  5
4C8
100
AcDbEntity
  8
0
100
AcDbPolyline
 62
7
  6
CONTINUOUS
 90
9
 70
0
 10
5.9028562752
 20
5.9245071613
 10
5.9360988383
 20
5.9255686095
 10
5.9673175346
 20
5.9266300577
 10
5.9956186454
 20
5.9276915059
 10
6.0201919761
 20
5.9287529541
 10
6.0403340494
 20
5.9298144023
 10
6.0554682447
 20
5.9308758505
 10
6.0651613052
 20
5.9319372987
 10
6.068944095
 20
5.9328584221
  0
LWPOLYLINE
  5
4C9
100
AcDbEntity
  8
0
100
AcDbPolyline
 62
7
  6
CONTINUOUS
 90
9
 70
0
 10
5.8972886545
 20
5.7668531548
 10
5.9306407893
 20
5.7679103143
 10
5.9621403341
 20
5.7689674739
 10
5.9908927852
 20
5.7700246334
 10
6.0160816492
 20
5.7710817929
 10
6.0369916293
 20
5.7721389524
 10
6.0530289373
 20
5.773196112
 10
6.0637381563
 20
5.7742532715
 10
6.068944095
 20
5.7753781072
  0
LWPOLYLINE
  5
4CA
100
AcDbEntity
  8
0
100
AcDbPolyline
 62
7
  6
CONTINUOUS
 90
10
 70
0
 10
5.8310388786
 20
5.9616578484
 10
5.899766432
 20
5.9637807448
 10
5.9331464538
 20
5.964842193
 10
5.9645871287
 20
5.9659036412
 10
5.9931883833
 20
5.9669650894
 10
6.0181314304
 20
5.9680265376
 10
6.0387022088
 20
5.9690879858
 10
6.054311825
 20
5.970149434
 10
6.064513412
 20
5.9712108822
 10
6.068944095
 20
5.9722285009
  0
LINE
  5
4CB
100
AcDbEntity
  8
0
100
AcDbLine
 62
7
  6
CONTINUOUS
 10
5.8207071463
 20
5.8038537381
 11
5.9227246901
 21
5.8070252166
  0
LINE
  5
4CC
100
AcDbEntity
  8
0
100
AcDbLine
 62
7
  6
CONTINUOUS
 10
5.8126476318
 20
5.8429686404
 11
5.9147135369
 21
5.846140119
  0
LINE
  5
4CD
100
AcDbEntity
  8
0
100
AcDbLine
 62
7
  6
CONTINUOUS
 10
5.8046755981
 20
5.8820835427
 11
5.9066206142
 21
5.8852550213
  0
LWPOLYLINE
  5
4CE
100
AcDbEntity
  8
0
100
AcDbPolyline
 62
7
  6
CONTINUOUS
 90
10
 70
0
 10
5.8279490355
 20
6.0009314318
 10
5.8966684393
 20
6.0030543282
 10
5.9301780036
 20
6.0041157764
 10
5.9618332008
 20
6.0051772246
 10
5.9907278162
 20
6.0062386728
 10
6.0160346644
 20
6.007300121
 10
6.0370292695
 20
6.0083615692
 10
6.0531106047
 20
6.0094230174
 10
6.0638182989
 20
6.0104844656
 10
6.068944095
 20
6.0115985796
  0
LWPOLYLINE
  5
4CF
100
AcDbEntity
  8
0
100
AcDbPolyline
 62
7
  6
CONTINUOUS
 90
9
 70
0
 10
5.7921455474
 20
5.823932489
 10
5.7576176939
 20
5.8229393376
 10
5.7261688318
 20
5.8219585697
 10
5.698157791
 20
5.820979064
 10
5.6740476012
 20
5.8199915248
 10
5.6547540724
 20
5.8190082912
 10
5.6407627181
 20
5.8180358945
 10
5.632117266
 20
5.8170545421
 10
5.629431102
 20
5.8163534334
  0
LWPOLYLINE
  5
4D0
100
AcDbEntity
  8
0
100
AcDbPolyline
 62
7
  6
CONTINUOUS
 90
9
 70
0
 10
5.9387137398
 20
5.9440272952
 10
5.9732656874
 20
5.945021268
 10
6.0047273397
 20
5.9460026925
 10
6.0325695223
 20
5.9469762852
 10
6.0564324441
 20
5.9479520621
 10
6.0757884333
 20
5.9489346195
 10
6.0899306063
 20
5.949912801
 10
6.0986342298
 20
5.9508946935
 10
6.1013742086
 20
5.9516048447
  0
LWPOLYLINE
  5
4D1
100
AcDbEntity
  8
0
100
AcDbPolyline
 62
7
  6
CONTINUOUS
 90
9
 70
0
 10
5.7920936934
 20
5.9814113571
 10
5.7575452045
 20
5.9804174915
 10
5.7260866504
 20
5.9794361857
 10
5.6982481551
 20
5.9784627722
 10
5.6743776719
 20
5.9774867478
 10
5.6550167248
 20
5.9765039647
 10
5.6408742975
 20
5.9755257574
 10
5.6321710743
 20
5.9745438986
 10
5.629431102
 20
5.9738337484
  0
LWPOLYLINE
  5
4D2
100
AcDbEntity
  8
0
100
AcDbPolyline
 62
7
  6
CONTINUOUS
 90
9
 70
0
 10
5.9383960653
 20
5.786538118
 10
5.9726099496
 20
5.7875214175
 10
6.0039288673
 20
5.7884961896
 10
6.0321573672
 20
5.7894805156
 10
6.0565508465
 20
5.7904770895
 10
6.0761147979
 20
5.7914733998
 10
6.0902187991
 20
5.7924572384
 10
6.0987736242
 20
5.7934379726
 10
6.1013742086
 20
5.7941245298
  0
LWPOLYLINE
  5
4D3
100
AcDbEntity
  8
0
100
AcDbPolyline
 62
7
  6
CONTINUOUS
 90
9
 70
0
 10
5.937934377
 20
5.8258953242
 10
5.9720823145
 20
5.8268757995
 10
6.0035945711
 20
5.8278553277
 10
6.0318778025
 20
5.8288401331
 10
6.0563343022
 20
5.8298374023
 10
6.0759620665
 20
5.8308345281
 10
6.0901254325
 20
5.831819265
 10
6.098705243
 20
5.832796407
 10
6.1013742086
 20
5.8334946085
  0
LWPOLYLINE
  5
4D4
100
AcDbEntity
  8
0
100
AcDbPolyline
 62
7
  6
CONTINUOUS
 90
9
 70
0
 10
5.9380471069
 20
5.8652685452
 10
5.9724337597
 20
5.8662563312
 10
6.0038809368
 20
5.8672347776
 10
6.0319934598
 20
5.8682145376
 10
6.0563157812
 20
5.8692066468
 10
6.0758597258
 20
5.8701986236
 10
6.0899983719
 20
5.8711784368
 10
6.0986402442
 20
5.8721555426
 10
6.1013742086
 20
5.8728646872
  0
LWPOLYLINE
  5
4D5
100
AcDbEntity
  8
0
100
AcDbPolyline
 62
7
  6
CONTINUOUS
 90
9
 70
0
 10
5.7929834066
 20
5.8633259311
 10
5.7586746281
 20
5.8623408831
 10
5.7271748132
 20
5.8613616178
 10
5.6989665155
 20
5.8603794458
 10
5.6745623451
 20
5.8593848312
 10
5.6549591394
 20
5.8583903675
 10
5.6407883364
 20
5.8574081694
 10
5.6321792666
 20
5.8564350318
 10
5.629431102
 20
5.8557235121
  0
LWPOLYLINE
  5
4D6
100
AcDbEntity
  8
0
100
AcDbPolyline
 62
7
  6
CONTINUOUS
 90
9
 70
0
 10
5.7925415885
 20
5.9026836934
 10
5.7585125638
 20
5.9017061421
 10
5.7270747659
 20
5.9007284233
 10
5.6987931582
 20
5.8997430411
 10
5.6743490692
 20
5.8987453003
 10
5.6547435294
 20
5.8977478306
 10
5.6406090374
 20
5.8967628279
 10
5.6320485161
 20
5.8957830267
 10
5.629431102
 20
5.8950935909
  0
LWPOLYLINE
  5
4D7
100
AcDbEntity
  8
0
100
AcDbPolyline
 62
7
  6
CONTINUOUS
 90
9
 70
0
 10
5.7922335204
 20
5.9420451796
 10
5.7577767096
 20
5.9410543132
 10
5.7263935956
 20
5.9400761831
 10
5.6983096478
 20
5.9390950015
 10
5.6740466107
 20
5.9381017162
 10
5.6545895219
 20
5.9371088675
 10
5.6405574626
 20
5.9361284492
 10
5.6320227842
 20
5.9351487008
 10
5.629431102
 20
5.9344636696
  0
LWPOLYLINE
  5
4D8
100
AcDbEntity
  8
0
100
AcDbPolyline
 62
7
  6
CONTINUOUS
 90
9
 70
0
 10
5.9385701954
 20
5.983393369
 10
5.9730388311
 20
5.9843845848
 10
6.0044339105
 20
5.9853631382
 10
6.0325090029
 20
5.9863440922
 10
6.0567649447
 20
5.9873371594
 10
6.0762178351
 20
5.988329846
 10
6.0902473667
 20
5.9893101023
 10
6.0987816497
 20
5.9902897419
 10
6.1013742086
 20
5.9909749235
  0
LWPOLYLINE
  5
4D9
100
AcDbEntity
  8
0
100
AcDbPolyline
 62
7
  6
CONTINUOUS
 90
6
 70
0
 10
5.9352669929
 20
5.9045612757
 10
5.968439842
 20
5.9055081294
 10
5.9989463288
 20
5.9064447504
 10
6.0262888311
 20
5.9073746413
 10
6.0502291051
 20
5.9083102619
 10
6.0699755853
 20
5.9092416063
  0
LINE
  5
4DA
100
AcDbEntity
  8
0
100
AcDbLine
 62
7
  6
CONTINUOUS
 10
5.937934377
 20
5.7884937494
 11
5.8654026553
 21
5.7865381942
  0
LINE
  5
4DB
100
AcDbEntity
  8
0
100
AcDbLine
 62
7
  6
CONTINUOUS
 10
5.7920202964
 20
5.8219604901
 11
5.937934377
 21
5.8258953242
  0
LINE
  5
4DC
100
AcDbEntity
  8
0
100
AcDbLine
 62
7
  6
CONTINUOUS
 10
5.9380471069
 20
5.8278669704
 11
5.7921455474
 21
5.823932489
  0
LINE
  5
4DD
100
AcDbEntity
  8
0
100
AcDbLine
 62
7
  6
CONTINUOUS
 10
5.7921455474
 20
5.8613340638
 11
5.9380471069
 21
5.8652685452
  0
LINE
  5
4DE
100
AcDbEntity
  8
0
100
AcDbLine
 62
7
  6
CONTINUOUS
 10
5.9352669929
 20
5.8671597009
 11
5.7929834066
 21
5.8633259311
  0
LINE
  5
4DF
100
AcDbEntity
  8
0
100
AcDbLine
 62
7
  6
CONTINUOUS
 10
5.7929834066
 20
5.9007275059
 11
5.9352669929
 21
5.9045612757
  0
LINE
  5
4E0
100
AcDbEntity
  8
0
100
AcDbLine
 62
7
  6
CONTINUOUS
 10
5.9387137398
 20
5.9066257204
 11
5.7925415885
 21
5.9026836934
  0
LINE
  5
4E1
100
AcDbEntity
  8
0
100
AcDbLine
 62
7
  6
CONTINUOUS
 10
5.7925415885
 20
5.9400852682
 11
5.9387137398
 21
5.9440272952
  0
LINE
  5
4E2
100
AcDbEntity
  8
0
100
AcDbLine
 62
7
  6
CONTINUOUS
 10
5.9385701954
 20
5.9459917942
 11
5.7922335204
 21
5.9420451796
  0
LINE
  5
4E3
100
AcDbEntity
  8
0
100
AcDbLine
 62
7
  6
CONTINUOUS
 10
5.7922335204
 20
5.9794467544
 11
5.9385701954
 21
5.983393369
  0
LINE
  5
4E4
100
AcDbEntity
  8
0
100
AcDbLine
 62
7
  6
CONTINUOUS
 10
5.938276166
 20
5.9853536719
 11
5.7920936934
 21
5.9814113571
  0
LINE
  5
4E5
100
AcDbEntity
  8
0
100
AcDbLine
 62
7
  6
CONTINUOUS
 10
5.7899253147
 20
5.7852388214
 11
5.8654020487
 21
5.7865381561
  0
LINE
  5
4E6
100
AcDbEntity
  8
0
100
AcDbLine
 62
7
  6
CONTINUOUS
 10
5.6616624978
 20
5.7255145721
 11
6.0691428128
 21
5.7255145721
  0
LINE
  5
4E7
100
AcDbEntity
  8
0
100
AcDbLine
 62
7
  6
CONTINUOUS
 10
5.6616624978
 20
5.7648846509
 11
6.0691428128
 21
5.7648846509
  0
LINE
  5
4E8
100
AcDbEntity
  8
0
100
AcDbLine
 62
7
  6
CONTINUOUS
 10
6.0819344822
 20
5.7668531548
 11
5.6488705084
 21
5.7668531548
  0
LINE
  5
4E9
100
AcDbEntity
  8
0
100
AcDbLine
 62
7
  6
CONTINUOUS
 10
5.8654026553
 20
5.7865381942
 11
5.9383960653
 21
5.786538118
  0
LWPOLYLINE
  5
4EA
100
AcDbEntity
  8
0
100
AcDbPolyline
 62
7
  6
CONTINUOUS
 90
9
 70
0
 10
5.6618612157
 20
5.7957297773
 10
5.6644670092
 20
5.7964536214
 10
5.6730671613
 20
5.797510781
 10
5.6871291316
 20
5.7985679405
 10
5.7062535974
 20
5.7996251
 10
5.7298974746
 20
5.8006822595
 10
5.7573893396
 20
5.801739419
 10
5.7879484966
 20
5.8027965786
 10
5.8207071463
 20
5.8038537381
  0
LWPOLYLINE
  5
4EB
100
AcDbEntity
  8
0
100
AcDbPolyline
 62
7
  6
CONTINUOUS
 90
4
 70
0
 10
5.6618612157
 20
6.0319502498
 10
5.6650434858
 20
6.0327748778
 10
5.6742257211
 20
6.033836326
 10
5.6888809064
 20
6.0348977742
  0
LWPOLYLINE
  5
4EC
100
AcDbEntity
  8
0
100
AcDbPolyline
 62
7
  6
CONTINUOUS
 90
9
 70
0
 10
5.6618612157
 20
5.992580171
 10
5.6656440054
 20
5.9935012944
 10
5.675337066
 20
5.9945627426
 10
5.6904712613
 20
5.9956241908
 10
5.7106133345
 20
5.996685639
 10
5.7351866652
 20
5.9977470872
 10
5.763487776
 20
5.9988085354
 10
5.7947064723
 20
5.9998699836
 10
5.8279490355
 20
6.0009314318
  0
LWPOLYLINE
  5
4ED
100
AcDbEntity
  8
0
100
AcDbPolyline
 62
7
  6
CONTINUOUS
 90
9
 70
0
 10
5.6618612157
 20
5.9532100923
 10
5.6662918986
 20
5.9542277109
 10
5.6764934857
 20
5.9552891591
 10
5.6921031018
 20
5.9563506073
 10
5.7126738802
 20
5.9574120555
 10
5.7376169273
 20
5.9584735038
 10
5.7662181819
 20
5.959534952
 10
5.7976588568
 20
5.9605964002
 10
5.8310388786
 20
5.9616578484
  0
LWPOLYLINE
  5
4EE
100
AcDbEntity
  8
02___PRT_ALL_AXES
100
AcDbPolyline
 62
7
  6
CONTINUOUS
 90
5
 70
0
 10
6.0913865643
 20
6.162548412
 10
6.0617385046
 20
6.1558829706
 10
6.0306805912
 20
6.1497192411
 10
5.9994580766
 20
6.1444138337
 10
5.9691000348
 20
6.1401530899
  0
LWPOLYLINE
  5
4EF
100
AcDbEntity
  8
02___PRT_ALL_AXES
100
AcDbPolyline
 62
7
  6
CONTINUOUS
 90
4
 70
0
 10
6.0913865643
 20
6.2216035301
 10
6.0504108637
 20
6.2125905076
 10
6.0096302813
 20
6.2050965698
 10
5.9691000348
 20
6.199208208
  0
LWPOLYLINE
  5
4F0
100
AcDbEntity
  8
02___PRT_ALL_AXES
100
AcDbPolyline
 62
7
  6
CONTINUOUS
 90
4
 70
0
 10
5.6394187463
 20
6.1624964804
 10
5.6803877933
 20
6.171508157
 10
5.7211678
 20
6.1790022489
 10
5.7617052759
 20
6.1848918024
  0
LWPOLYLINE
  5
4F1
100
AcDbEntity
  8
02___PRT_ALL_AXES
100
AcDbPolyline
 62
7
  6
CONTINUOUS
 90
4
 70
0
 10
6.0913865643
 20
6.2806586482
 10
6.0504108637
 20
6.2716456257
 10
6.0096302813
 20
6.2641516879
 10
5.9691000348
 20
6.2582633262
  0
LWPOLYLINE
  5
4F2
100
AcDbEntity
  8
0
100
AcDbPolyline
 62
7
  6
CONTINUOUS
 90
10
 70
0
 10
5.6618612157
 20
5.9138400135
 10
5.6669870118
 20
5.9149541275
 10
5.677694706
 20
5.9160155757
 10
5.6937760411
 20
5.9170770239
 10
5.7147706462
 20
5.9181384721
 10
5.7400774944
 20
5.9191999203
 10
5.7689721099
 20
5.9202613685
 10
5.800627307
 20
5.9213228167
 10
5.8341368713
 20
5.9223842649
 10
5.9028562752
 20
5.9245071613
  0
LWPOLYLINE
  5
4F3
100
AcDbEntity
  8
0
100
AcDbPolyline
 62
7
  6
CONTINUOUS
 90
4
 70
0
 10
5.6293825074
 20
6.0505757935
 10
5.6340693768
 20
6.0515945252
 10
5.6446548212
 20
6.0525981918
 10
5.6608297253
 20
6.0535985616
  0
LWPOLYLINE
  5
4F4
100
AcDbEntity
  8
0
100
AcDbPolyline
 62
7
  6
CONTINUOUS
 90
8
 70
0
 10
5.6320227842
 20
5.9725502756
 10
5.6405574626
 20
5.973530024
 10
5.6545895219
 20
5.9745104423
 10
5.6740466107
 20
5.975503291
 10
5.6983096478
 20
5.9764965763
 10
5.7263935956
 20
5.9774777579
 10
5.7577767096
 20
5.978455888
 10
5.7922335204
 20
5.9794467544
  0
LWPOLYLINE
  5
4F5
100
AcDbEntity
  8
0
100
AcDbPolyline
 62
7
  6
CONTINUOUS
 90
8
 70
0
 10
6.0986287694
 20
6.0316024419
 10
6.0900218479
 20
6.0306292665
 10
6.0758499028
 20
6.0296468687
 10
6.0562436445
 20
6.0286522176
 10
6.0318361618
 20
6.0276574741
 10
6.0036239916
 20
6.0266751877
 10
5.9721213547
 20
6.0256958578
 10
5.9378167029
 20
6.0247109423
  0
LWPOLYLINE
  5
4F6
100
AcDbEntity
  8
0
100
AcDbPolyline
 62
7
  6
CONTINUOUS
 90
3
 70
0
 10
5.6407568416
 20
6.0542547296
 10
5.6321571128
 20
6.0532817179
 10
5.629431102
 20
6.0525739058
  0
LWPOLYLINE
  5
4F7
100
AcDbEntity
  8
0
100
AcDbPolyline
 62
7
  6
CONTINUOUS
 90
8
 70
0
 10
5.6321710743
 20
6.0119454734
 10
5.6408742975
 20
6.0129273322
 10
5.6550167248
 20
6.0139055395
 10
5.6743776719
 20
6.0148883226
 10
5.6982481551
 20
6.015864347
 10
5.7260866504
 20
6.0168377605
 10
5.7575452045
 20
6.0178190663
 10
5.7920936934
 20
6.0188129319
  0
LWPOLYLINE
  5
4F8
100
AcDbEntity
  8
0
100
AcDbPolyline
 62
7
  6
CONTINUOUS
 90
4
 70
0
 10
5.6608297253
 20
6.0161969868
 10
5.6446548212
 20
6.015196617
 10
5.6340693768
 20
6.0141929504
 10
5.629431102
 20
6.0132038271
  0
LWPOLYLINE
  5
4F9
100
AcDbEntity
  8
0
100
AcDbPolyline
 62
7
  6
CONTINUOUS
 90
6
 70
0
 10
5.6888809064
 20
6.0348977742
 10
5.7085894978
 20
6.0359592224
 10
5.7327872843
 20
6.0370206706
 10
5.7607815397
 20
6.0380821189
 10
5.7917708537
 20
6.0391435671
 10
5.8248680746
 20
6.0402050153
  0
LINE
  5
4FA
100
AcDbEntity
  8
0
100
AcDbLine
 62
7
  6
CONTINUOUS
 10
5.6608297253
 20
6.0535985616
 11
5.6747415336
 21
6.0542547296
  0
LWPOLYLINE
  5
4FB
100
AcDbEntity
  8
0
100
AcDbPolyline
 62
7
  6
CONTINUOUS
 90
9
 70
0
 10
5.9271941917
 20
6.0433893599
 10
5.9590564039
 20
6.0444508081
 10
5.9882375277
 20
6.0455122563
 10
6.0139021755
 20
6.0465737045
 10
6.0353156282
 20
6.0476351527
 10
6.0518648686
 20
6.0486966009
 10
6.0630761306
 20
6.0497580491
 10
6.0686284618
 20
6.0508194973
 10
6.068944095
 20
6.0509686583
  0
LINE
  5
4FC
100
AcDbEntity
  8
0
100
AcDbLine
 62
7
  6
CONTINUOUS
 10
5.8248680746
 20
6.0402050153
 11
5.9271941917
 21
6.0433893599
  0
LWPOLYLINE
  5
4FD
100
AcDbEntity
  8
02___PRT_ALL_AXES
100
AcDbPolyline
 62
7
  6
CONTINUOUS
 90
7
 70
0
 10
5.3880658186
 20
6.3056970429
 10
5.4318730795
 20
6.3070316986
 10
5.4846857923
 20
6.3083729195
 10
5.5448380423
 20
6.3097057599
 10
5.6118469943
 20
6.3110466896
 10
5.6848177684
 20
6.3124022356
 10
5.7617052759
 20
6.313760681
  0
LWPOLYLINE
  5
4FE
100
AcDbEntity
  8
0
100
AcDbPolyline
 62
7
  6
CONTINUOUS
 90
9
 70
0
 10
5.938276166
 20
6.0227552467
 10
5.9723081547
 20
6.0237329093
 10
6.0037399714
 20
6.0247104783
 10
6.0320185238
 20
6.0256957904
 10
6.0564603448
 20
6.0266934779
 10
6.0760650029
 20
6.0276909514
 10
6.0901985898
 20
6.0286759653
 10
6.0987584695
 20
6.0296558525
 10
6.1013742086
 20
6.0303450022
  0
LWPOLYLINE
  5
4FF
100
AcDbEntity
  8
0
100
AcDbPolyline
 62
7
  6
CONTINUOUS
 90
6
 70
0
 10
5.79552916
 20
6.0208770631
 10
5.7623550695
 20
6.0199301571
 10
5.7318440578
 20
6.0189933628
 10
5.7045070164
 20
6.018063609
 10
5.6805711196
 20
6.0171281146
 10
5.6608297253
 20
6.0161969868
  0
LWPOLYLINE
  5
500
100
AcDbEntity
  8
02___PRT_ALL_AXES
100
AcDbPolyline
 62
7
  6
CONTINUOUS
 90
5
 70
0
 10
5.3573798791
 20
6.3261543359
 10
5.4116868505
 20
6.3276857382
 10
5.4780122072
 20
6.3292171404
 10
5.5545990704
 20
6.3307485427
 10
5.6394187463
 20
6.3322799449
  0
LINE
  5
501
100
AcDbEntity
  8
0
100
AcDbLine
 62
7
  6
CONTINUOUS
 10
5.7920936934
 20
6.0188129319
 11
5.938276166
 21
6.0227552467
  0
LINE
  5
502
100
AcDbEntity
  8
0
100
AcDbLine
 62
7
  6
CONTINUOUS
 10
5.9378167029
 20
6.0247109423
 11
5.79552916
 21
6.0208770631
  0
LWPOLYLINE
  5
503
100
AcDbEntity
  8
02___PRT_ALL_AXES
100
AcDbPolyline
 62
7
  6
CONTINUOUS
 90
7
 70
0
 10
6.2110389195
 20
6.3219101717
 10
6.2759377032
 20
6.3234372523
 10
6.3302417332
 20
6.3249712681
 10
6.3718806119
 20
6.326491855
 10
6.4001736649
 20
6.3280041013
 10
6.4147664783
 20
6.3295399007
 10
6.416343505
 20
6.3300258214
  0
LWPOLYLINE
  5
504
100
AcDbEntity
  8
02___PRT_ALL_AXES
100
AcDbPolyline
 62
7
  6
CONTINUOUS
 90
5
 70
0
 10
6.2754328966
 20
6.253610601
 10
6.2100793618
 20
6.2520754241
 10
6.1366569275
 20
6.2505619009
 10
6.0557073395
 20
6.2490391387
 10
5.9691000348
 20
6.2475046838
  0
LINE
  5
505
100
AcDbEntity
  8
02___PRT_ALL_AXES
100
AcDbLine
 62
7
  6
CONTINUOUS
 10
5.4187068529
 20
6.2171328509
 11
5.4859291427
 21
6.2186535193
  0
LWPOLYLINE
  5
506
100
AcDbEntity
  8
02___PRT_ALL_AXES
100
AcDbPolyline
 62
7
  6
CONTINUOUS
 90
3
 70
0
 10
5.4859291427
 20
6.2186535193
 10
5.5577009188
 20
6.2200786826
 10
5.6394187463
 20
6.2215515985
  0
LWPOLYLINE
  5
507
100
AcDbEntity
  8
02___PRT_ALL_AXES
100
AcDbPolyline
 62
7
  6
CONTINUOUS
 90
9
 70
0
 10
6.0913865643
 20
6.162548412
 10
6.1731043919
 20
6.1640213278
 10
6.2472810015
 20
6.1654942437
 10
6.3120984577
 20
6.1669671595
 10
6.3659682006
 20
6.1684400754
 10
6.4075699796
 20
6.1699129912
 10
6.4358842096
 20
6.171385907
 10
6.4502169596
 20
6.1728588229
 10
6.4517910705
 20
6.1733345142
  0
LWPOLYLINE
  5
508
100
AcDbEntity
  8
02___PRT_ALL_AXES
100
AcDbPolyline
 62
7
  6
CONTINUOUS
 90
9
 70
0
 10
6.0913865643
 20
6.1699303017
 10
6.1731043919
 20
6.1714032176
 10
6.2472810015
 20
6.1728761334
 10
6.3120984577
 20
6.1743490493
 10
6.3659682006
 20
6.1758219651
 10
6.4075699796
 20
6.177294881
 10
6.4358842096
 20
6.1787677968
 10
6.4502169596
 20
6.1802407126
 10
6.4520168285
 20
6.1809771706
  0
LWPOLYLINE
  5
509
100
AcDbEntity
  8
02___PRT_ALL_AXES
100
AcDbPolyline
 62
7
  6
CONTINUOUS
 90
9
 70
0
 10
6.0913865643
 20
6.2216035301
 10
6.1731043919
 20
6.2230764459
 10
6.2472810015
 20
6.2245493618
 10
6.3120984577
 20
6.2260222776
 10
6.3659682006
 20
6.2274951935
 10
6.4075699796
 20
6.2289681093
 10
6.4358842096
 20
6.2304410252
 10
6.4502169596
 20
6.231913941
 10
6.4517910705
 20
6.2323896323
  0
LWPOLYLINE
  5
50A
100
AcDbEntity
  8
02___PRT_ALL_AXES
100
AcDbPolyline
 62
7
  6
CONTINUOUS
 90
9
 70
0
 10
6.0913865643
 20
6.2289854198
 10
6.1731043919
 20
6.2304583357
 10
6.2472810015
 20
6.2319312515
 10
6.3120984577
 20
6.2334041674
 10
6.3659682006
 20
6.2348770832
 10
6.4075699796
 20
6.2363499991
 10
6.4358842096
 20
6.2378229149
 10
6.4502169596
 20
6.2392958308
 10
6.4520168285
 20
6.2400322887
  0
LWPOLYLINE
  5
50B
100
AcDbEntity
  8
02___PRT_ALL_AXES
100
AcDbPolyline
 62
7
  6
CONTINUOUS
 90
9
 70
0
 10
6.0913865643
 20
6.2806586482
 10
6.1731043919
 20
6.282131564
 10
6.2472810015
 20
6.2836044799
 10
6.3120984577
 20
6.2850773957
 10
6.3659682006
 20
6.2865503116
 10
6.4075699796
 20
6.2880232274
 10
6.4358842096
 20
6.2894961433
 10
6.4502169596
 20
6.2909690591
 10
6.4517910705
 20
6.2914447505
  0
LWPOLYLINE
  5
50C
100
AcDbEntity
  8
02___PRT_ALL_AXES
100
AcDbPolyline
 62
7
  6
CONTINUOUS
 90
9
 70
0
 10
6.0913865643
 20
6.288040538
 10
6.1731043919
 20
6.2895134538
 10
6.2472810015
 20
6.2909863696
 10
6.3120984577
 20
6.2924592855
 10
6.3659682006
 20
6.2939322013
 10
6.4075699796
 20
6.2954051172
 10
6.4358842096
 20
6.296878033
 10
6.4502169596
 20
6.2983509489
 10
6.4520168285
 20
6.2990874068
  0
LWPOLYLINE
  5
50D
100
AcDbEntity
  8
02___PRT_ALL_AXES
100
AcDbPolyline
 62
7
  6
CONTINUOUS
 90
9
 70
0
 10
6.0913865643
 20
6.3397137663
 10
6.1731043919
 20
6.3411866821
 10
6.2472810015
 20
6.342659598
 10
6.3120984577
 20
6.3441325138
 10
6.3659682006
 20
6.3456054297
 10
6.4075699796
 20
6.3470783455
 10
6.4358842096
 20
6.3485512614
 10
6.4502169596
 20
6.3500241772
 10
6.4517910705
 20
6.3504998686
  0
LWPOLYLINE
  5
50E
100
AcDbEntity
  8
02___PRT_ALL_AXES
100
AcDbPolyline
 62
7
  6
CONTINUOUS
 90
9
 70
0
 10
6.0913865643
 20
6.3470956561
 10
6.1731043919
 20
6.3485685719
 10
6.2472810015
 20
6.3500414878
 10
6.3120984577
 20
6.3515144036
 10
6.3659682006
 20
6.3529873194
 10
6.4075699796
 20
6.3544602353
 10
6.4358842096
 20
6.3559331511
 10
6.4502169596
 20
6.357406067
 10
6.4520168285
 20
6.3581425249
  0
LWPOLYLINE
  5
50F
100
AcDbEntity
  8
02___PRT_ALL_AXES
100
AcDbPolyline
 62
7
  6
CONTINUOUS
 90
10
 70
0
 10
5.9691000348
 20
6.1401530899
 10
6.0548747753
 20
6.1416724219
 10
6.1360382429
 20
6.1431981922
 10
6.2096350244
 20
6.1447141246
 10
6.2748629601
 20
6.1462444766
 10
6.329697007
 20
6.1477886526
 10
6.3718517816
 20
6.1493252546
 10
6.4002023137
 20
6.1508407649
 10
6.4147593256
 20
6.1523730445
 10
6.416343505
 20
6.1528604671
  0
LWPOLYLINE
  5
510
100
AcDbEntity
  8
02___PRT_ALL_AXES
100
AcDbPolyline
 62
7
  6
CONTINUOUS
 90
10
 70
0
 10
5.7617052759
 20
6.1848918024
 10
5.674471538
 20
6.1833459629
 10
5.5926932663
 20
6.181806057
 10
5.5191950009
 20
6.1802875597
 10
5.4547813302
 20
6.1787707891
 10
5.4011378514
 20
6.1772571746
 10
5.3594284166
 20
6.1757401065
 10
5.3309015771
 20
6.1742250741
 10
5.3161296464
 20
6.1726891998
 10
5.3144618056
 20
6.1721844252
  0
LWPOLYLINE
  5
511
100
AcDbEntity
  8
02___PRT_ALL_AXES
100
AcDbPolyline
 62
7
  6
CONTINUOUS
 90
10
 70
0
 10
5.9691000348
 20
6.199208208
 10
6.0557073395
 20
6.2007426629
 10
6.1366569275
 20
6.2022654251
 10
6.2100793618
 20
6.2037789484
 10
6.2754328966
 20
6.2053141252
 10
6.3302888395
 20
6.2068625269
 10
6.3723755434
 20
6.2084030692
 10
6.4005639044
 20
6.2099215036
 10
6.4148294431
 20
6.211443014
 10
6.416343505
 20
6.2119155852
  0
LWPOLYLINE
  5
512
100
AcDbEntity
  8
02___PRT_ALL_AXES
100
AcDbPolyline
 62
7
  6
CONTINUOUS
 90
10
 70
0
 10
5.7617052759
 20
6.2439469205
 10
5.6745866781
 20
6.2424031739
 10
5.5929548871
 20
6.240866308
 10
5.5194809198
 20
6.239348942
 10
5.4543951211
 20
6.237816029
 10
5.3998058138
 20
6.2362700019
 10
5.3579732135
 20
6.2347321699
 10
5.32998879
 20
6.2332155564
 10
5.3158737197
 20
6.2316899382
 10
5.3144618056
 20
6.2312395433
  0
LWPOLYLINE
  5
513
100
AcDbEntity
  8
02___PRT_ALL_AXES
100
AcDbPolyline
 62
7
  6
CONTINUOUS
 90
10
 70
0
 10
5.9691000348
 20
6.2582633262
 10
6.0562754585
 20
6.2598081057
 10
6.1380102784
 20
6.2613470747
 10
6.2114492531
 20
6.2628640398
 10
6.2756699188
 20
6.2643752936
 10
6.3294915444
 20
6.2658923911
 10
6.3713969967
 20
6.2674158864
 10
6.3999160445
 20
6.2689309144
 10
6.4146746211
 20
6.2704657148
 10
6.416343505
 20
6.2709707033
  0
LWPOLYLINE
  5
514
100
AcDbEntity
  8
02___PRT_ALL_AXES
100
AcDbPolyline
 62
7
  6
CONTINUOUS
 90
10
 70
0
 10
5.7617052759
 20
6.3030020386
 10
5.6762748314
 20
6.301488958
 10
5.5954484953
 20
6.2999702696
 10
5.5217951026
 20
6.2984546384
 10
5.4564244544
 20
6.2969229236
 10
5.4014530447
 20
6.2953773744
 10
5.3591745126
 20
6.2938394117
 10
5.3307497952
 20
6.2923246855
 10
5.3161788931
 20
6.2908094729
 10
5.3144618056
 20
6.2902946614
  0
LWPOLYLINE
  5
515
100
AcDbEntity
  8
02___PRT_ALL_AXES
100
AcDbPolyline
 62
7
  6
CONTINUOUS
 90
4
 70
0
 10
5.9691000348
 20
6.3173184443
 10
6.0558795695
 20
6.3188560287
 10
6.1374687569
 20
6.3203915716
 10
6.2110389195
 20
6.3219101717
  0
LINE
  5
516
100
AcDbEntity
  8
0
100
AcDbLine
 62
7
  6
CONTINUOUS
 10
6.3772136789
 20
6.0542547296
 11
5.3535916317
 21
6.0542547296
  0
LINE
  5
517
100
AcDbEntity
  8
0
100
AcDbLine
 62
9
  6
CONTINUOUS
 10
5.3142215529
 20
6.0936248084
 11
6.4165837577
 21
6.0936248084
  0
LWPOLYLINE
  5
518
100
AcDbEntity
  8
02___PRT_ALL_AXES
100
AcDbPolyline
 62
7
  6
CONTINUOUS
 90
4
 70
0
 10
5.7617052759
 20
6.1365953266
 10
5.7211758254
 20
6.1411467804
 10
5.680392045
 20
6.1473453781
 10
5.6394187463
 20
6.1551145906
  0
LWPOLYLINE
  5
519
100
AcDbEntity
  8
02___PRT_ALL_AXES
100
AcDbPolyline
 62
7
  6
CONTINUOUS
 90
4
 70
0
 10
5.7617052759
 20
6.1956504447
 10
5.7211758254
 20
6.2002018985
 10
5.680392045
 20
6.2064004963
 10
5.6394187463
 20
6.2141697087
  0
LWPOLYLINE
  5
51A
100
AcDbEntity
  8
02___PRT_ALL_AXES
100
AcDbPolyline
 62
7
  6
CONTINUOUS
 90
4
 70
0
 10
5.7617052759
 20
6.2547055628
 10
5.7211858508
 20
6.259255689
 10
5.6804030541
 20
6.26545373
 10
5.6394187463
 20
6.2732248268
  0
LWPOLYLINE
  5
51B
100
AcDbEntity
  8
02___PRT_ALL_AXES
100
AcDbPolyline
 62
7
  6
CONTINUOUS
 90
4
 70
0
 10
5.9691000348
 20
6.2475046838
 10
6.0096370484
 20
6.2429522285
 10
6.0504201842
 20
6.236753448
 10
6.0913865643
 20
6.2289854198
  0
LWPOLYLINE
  5
51C
100
AcDbEntity
  8
02___PRT_ALL_AXES
100
AcDbPolyline
 62
7
  6
CONTINUOUS
 90
4
 70
0
 10
5.7617052759
 20
6.313760681
 10
5.7211758254
 20
6.3183121347
 10
5.680392045
 20
6.3245107325
 10
5.6394187463
 20
6.3322799449
  0
LWPOLYLINE
  5
51D
100
AcDbEntity
  8
02___PRT_ALL_AXES
100
AcDbPolyline
 62
7
  6
CONTINUOUS
 90
4
 70
0
 10
5.9691000348
 20
6.3065598019
 10
6.0096370484
 20
6.3020073466
 10
6.0504201842
 20
6.2958085661
 10
6.0913865643
 20
6.288040538
  0
LWPOLYLINE
  5
51E
100
AcDbEntity
  8
02___PRT_ALL_AXES
100
AcDbPolyline
 62
7
  6
CONTINUOUS
 90
4
 70
0
 10
5.9691000348
 20
6.1884495657
 10
6.0099063794
 20
6.1838614069
 10
6.0514500081
 20
6.1775215619
 10
6.0913865643
 20
6.1699303017
  0
LWPOLYLINE
  5
51F
100
AcDbEntity
  8
02___PRT_ALL_AXES
100
AcDbPolyline
 62
7
  6
CONTINUOUS
 90
5
 70
0
 10
6.0913865643
 20
6.3987688844
 10
6.0620600343
 20
6.3921717145
 10
6.0313799513
 20
6.3860689501
 10
6.0001411225
 20
6.3807404983
 10
5.9691000348
 20
6.3763735624
  0
LWPOLYLINE
  5
520
100
AcDbEntity
  8
02___PRT_ALL_AXES
100
AcDbPolyline
 62
7
  6
CONTINUOUS
 90
5
 70
0
 10
5.6394187463
 20
6.4577720709
 10
5.6686752486
 20
6.4643543597
 10
5.6993376207
 20
6.4704557602
 10
5.730598902
 20
6.4757902836
 10
5.7617052759
 20
6.4801673929
  0
LWPOLYLINE
  5
521
100
AcDbEntity
  8
02___PRT_ALL_AXES
100
AcDbPolyline
 62
7
  6
CONTINUOUS
 90
4
 70
0
 10
5.6394187463
 20
6.2215515985
 10
5.6803877933
 20
6.2305632752
 10
5.7211678
 20
6.238057367
 10
5.7617052759
 20
6.2439469205
  0
LWPOLYLINE
  5
522
100
AcDbEntity
  8
02___PRT_ALL_AXES
100
AcDbPolyline
 62
7
  6
CONTINUOUS
 90
4
 70
0
 10
6.0913865643
 20
6.3397137663
 10
6.0504108637
 20
6.3307007438
 10
6.0096302813
 20
6.323206806
 10
5.9691000348
 20
6.3173184443
  0
LWPOLYLINE
  5
523
100
AcDbEntity
  8
02___PRT_ALL_AXES
100
AcDbPolyline
 62
7
  6
CONTINUOUS
 90
4
 70
0
 10
5.6394187463
 20
6.2806067166
 10
5.6803961793
 20
6.2896200894
 10
5.7211753383
 20
6.2971137278
 10
5.7617052759
 20
6.3030020386
  0
LWPOLYLINE
  5
524
100
AcDbEntity
  8
02___PRT_ALL_AXES
100
AcDbPolyline
 62
7
  6
CONTINUOUS
 90
4
 70
0
 10
5.6394187463
 20
6.3396618347
 10
5.6803877933
 20
6.3486735114
 10
5.7211678
 20
6.3561676032
 10
5.7617052759
 20
6.3620571567
  0
LWPOLYLINE
  5
525
100
AcDbEntity
  8
02___PRT_ALL_AXES
100
AcDbPolyline
 62
7
  6
CONTINUOUS
 90
4
 70
0
 10
6.0913865643
 20
6.4578240025
 10
6.0504108637
 20
6.44881098
 10
6.0096302812
 20
6.4413170422
 10
5.9691000348
 20
6.4354286805
  0
LWPOLYLINE
  5
526
100
AcDbEntity
  8
02___PRT_ALL_AXES
100
AcDbPolyline
 62
7
  6
CONTINUOUS
 90
4
 70
0
 10
5.6394187463
 20
6.3987169528
 10
5.6803877933
 20
6.4077286295
 10
5.7211677999
 20
6.4152227213
 10
5.7617052759
 20
6.4211122748
  0
LWPOLYLINE
  5
527
100
AcDbEntity
  8
02___PRT_ALL_AXES
100
AcDbPolyline
 62
7
  6
CONTINUOUS
 90
4
 70
0
 10
6.0913865643
 20
6.5168791206
 10
6.0504108637
 20
6.5078660982
 10
6.0096302813
 20
6.5003721603
 10
5.9691000348
 20
6.4944837986
  0
LWPOLYLINE
  5
528
100
AcDbEntity
  8
02___PRT_ALL_AXES
100
AcDbPolyline
 62
7
  6
CONTINUOUS
 90
4
 70
0
 10
6.0913865643
 20
6.5759342387
 10
6.0504002615
 20
6.5669190719
 10
6.009620706
 20
6.5594257
 10
5.9691000348
 20
6.5535389167
  0
LWPOLYLINE
  5
529
100
AcDbEntity
  8
02___PRT_ALL_AXES
100
AcDbPolyline
 62
7
  6
CONTINUOUS
 90
4
 70
0
 10
5.6394187463
 20
6.516827189
 10
5.6803877933
 20
6.5258388657
 10
5.7211678
 20
6.5333329575
 10
5.7617052759
 20
6.5392225111
  0
LWPOLYLINE
  5
52A
100
AcDbEntity
  8
02___PRT_ALL_AXES
100
AcDbPolyline
 62
7
  6
CONTINUOUS
 90
4
 70
0
 10
6.0913865643
 20
6.6349893569
 10
6.0504108637
 20
6.6259763344
 10
6.0096302813
 20
6.6184823965
 10
5.9691000348
 20
6.6125940348
  0
LWPOLYLINE
  5
52B
100
AcDbEntity
  8
02___PRT_ALL_AXES
100
AcDbPolyline
 62
7
  6
CONTINUOUS
 90
5
 70
0
 10
5.3880658186
 20
6.3539935187
 10
5.3507834196
 20
6.3525148871
 10
5.3261553778
 20
6.3510316541
 10
5.3148643964
 20
6.3495262427
 10
5.3144618056
 20
6.3493497795
  0
LWPOLYLINE
  5
52C
100
AcDbEntity
  8
02___PRT_ALL_AXES
100
AcDbPolyline
 62
7
  6
CONTINUOUS
 90
5
 70
0
 10
6.342739492
 20
6.5025474366
 10
6.3800184103
 20
6.5040259025
 10
6.4046480997
 20
6.5055091501
 10
6.415940604
 20
6.5070146031
 10
6.416343505
 20
6.5071911758
  0
LWPOLYLINE
  5
52D
100
AcDbEntity
  8
02___PRT_ALL_AXES
100
AcDbPolyline
 62
7
  6
CONTINUOUS
 90
5
 70
0
 10
6.3734254315
 20
6.5230047296
 10
6.4124991415
 20
6.5244563777
 10
6.4385481504
 20
6.5259080258
 10
6.4509523107
 20
6.5273596738
 10
6.4517910705
 20
6.5276652229
  0
LWPOLYLINE
  5
52E
100
AcDbEntity
  8
02___PRT_ALL_AXES
100
AcDbPolyline
 62
7
  6
CONTINUOUS
 90
5
 70
0
 10
6.3734254315
 20
6.5303866194
 10
6.4124991415
 20
6.5318382675
 10
6.4385481504
 20
6.5332899155
 10
6.4509523107
 20
6.5347415636
 10
6.4520168285
 20
6.5353078792
  0
LWPOLYLINE
  5
52F
100
AcDbEntity
  8
02___PRT_ALL_AXES
100
AcDbPolyline
 62
7
  6
CONTINUOUS
 90
7
 70
0
 10
6.342739492
 20
6.5508439124
 10
6.2989230026
 20
6.5495090019
 10
6.2461031123
 20
6.5481676489
 10
6.185941081
 20
6.5468346464
 10
6.1189423314
 20
6.5454939587
 10
6.0459779521
 20
6.5441385467
 10
5.9691000348
 20
6.5427802744
  0
LWPOLYLINE
  5
530
100
AcDbEntity
  8
02___PRT_ALL_AXES
100
AcDbPolyline
 62
7
  6
CONTINUOUS
 90
5
 70
0
 10
5.3573798791
 20
6.3335362257
 10
5.4116868505
 20
6.3350676279
 10
5.4780122072
 20
6.3365990302
 10
5.5545990704
 20
6.3381304324
 10
5.6394187463
 20
6.3396618347
  0
LWPOLYLINE
  5
531
100
AcDbEntity
  8
02___PRT_ALL_AXES
100
AcDbPolyline
 62
7
  6
CONTINUOUS
 90
5
 70
0
 10
5.4562078097
 20
6.4257862898
 10
5.5216416434
 20
6.4273201697
 10
5.5952753125
 20
6.4288357605
 10
5.6757864907
 20
6.4303489694
 10
5.7617052759
 20
6.4318709172
  0
LWPOLYLINE
  5
532
100
AcDbEntity
  8
02___PRT_ALL_AXES
100
AcDbPolyline
 62
7
  6
CONTINUOUS
 90
7
 70
0
 10
6.2089872264
 20
6.5580858158
 10
6.2743581809
 20
6.5596174549
 10
6.3293335841
 20
6.5611629909
 10
6.3716191003
 20
6.5627010393
 10
6.4000493404
 20
6.5642158367
 10
6.414621508
 20
6.5657304888
 10
6.416343505
 20
6.5662462939
  0
LWPOLYLINE
  5
533
100
AcDbEntity
  8
02___PRT_ALL_AXES
100
AcDbPolyline
 62
7
  6
CONTINUOUS
 90
4
 70
0
 10
5.4187068529
 20
6.6231367879
 10
5.4835243091
 20
6.6246097038
 10
5.5577009188
 20
6.6260826196
 10
5.6394187463
 20
6.6275555355
  0
LWPOLYLINE
  5
534
100
AcDbEntity
  8
02___PRT_ALL_AXES
100
AcDbPolyline
 62
7
  6
CONTINUOUS
 90
3
 70
0
 10
5.5942103638
 20
6.6059802685
 10
5.6751255716
 20
6.6075023181
 10
5.7617052759
 20
6.6090362715
  0
LWPOLYLINE
  5
535
100
AcDbEntity
  8
02___PRT_ALL_AXES
100
AcDbPolyline
 62
7
  6
CONTINUOUS
 90
3
 70
0
 10
6.1379010776
 20
6.6639721168
 10
6.0562363129
 20
6.6624345786
 10
5.9691000348
 20
6.6608905106
  0
LINE
  5
536
100
AcDbEntity
  8
02___PRT_ALL_AXES
100
AcDbLine
 62
7
  6
CONTINUOUS
 10
6.1280969679
 20
6.5564342628
 11
6.2089872264
 21
6.5580858158
  0
LWPOLYLINE
  5
537
100
AcDbEntity
  8
02___PRT_ALL_AXES
100
AcDbPolyline
 62
7
  6
CONTINUOUS
 90
9
 70
0
 10
6.0913865643
 20
6.3987688844
 10
6.1731043919
 20
6.4002418003
 10
6.2472810015
 20
6.4017147161
 10
6.3120984577
 20
6.4031876319
 10
6.3659682006
 20
6.4046605478
 10
6.4075699796
 20
6.4061334636
 10
6.4358842096
 20
6.4076063795
 10
6.4502169596
 20
6.4090792953
 10
6.4517910705
 20
6.4095549867
  0
LWPOLYLINE
  5
538
100
AcDbEntity
  8
02___PRT_ALL_AXES
100
AcDbPolyline
 62
7
  6
CONTINUOUS
 90
9
 70
0
 10
6.0913865643
 20
6.4061507742
 10
6.1731043919
 20
6.40762369
 10
6.2472810015
 20
6.4090966059
 10
6.3120984577
 20
6.4105695217
 10
6.3659682006
 20
6.4120424376
 10
6.4075699796
 20
6.4135153534
 10
6.4358842096
 20
6.4149882692
 10
6.4502169596
 20
6.4164611851
 10
6.4520168285
 20
6.417197643
  0
LWPOLYLINE
  5
539
100
AcDbEntity
  8
02___PRT_ALL_AXES
100
AcDbPolyline
 62
7
  6
CONTINUOUS
 90
9
 70
0
 10
6.0913865643
 20
6.4578240025
 10
6.1731043919
 20
6.4592969184
 10
6.2472810015
 20
6.4607698342
 10
6.3120984577
 20
6.4622427501
 10
6.3659682006
 20
6.4637156659
 10
6.4075699796
 20
6.4651885817
 10
6.4358842096
 20
6.4666614976
 10
6.4502169596
 20
6.4681344134
 10
6.4517910705
 20
6.4686101048
  0
LWPOLYLINE
  5
53A
100
AcDbEntity
  8
02___PRT_ALL_AXES
100
AcDbPolyline
 62
7
  6
CONTINUOUS
 90
9
 70
0
 10
6.0913865643
 20
6.4652058923
 10
6.1731043919
 20
6.4666788081
 10
6.2472810015
 20
6.468151724
 10
6.3120984577
 20
6.4696246398
 10
6.3659682006
 20
6.4710975557
 10
6.4075699796
 20
6.4725704715
 10
6.4358842096
 20
6.4740433874
 10
6.4502169596
 20
6.4755163032
 10
6.4520168285
 20
6.4762527611
  0
LWPOLYLINE
  5
53B
100
AcDbEntity
  8
02___PRT_ALL_AXES
100
AcDbPolyline
 62
7
  6
CONTINUOUS
 90
5
 70
0
 10
6.0913865643
 20
6.5168791206
 10
6.1762062402
 20
6.5184105229
 10
6.2527931034
 20
6.5199419251
 10
6.3191184601
 20
6.5214733274
 10
6.3734254315
 20
6.5230047296
  0
LWPOLYLINE
  5
53C
100
AcDbEntity
  8
02___PRT_ALL_AXES
100
AcDbPolyline
 62
7
  6
CONTINUOUS
 90
5
 70
0
 10
6.0913865643
 20
6.5242610104
 10
6.1762062402
 20
6.5257924126
 10
6.2527931034
 20
6.5273238149
 10
6.3191184601
 20
6.5288552171
 10
6.3734254315
 20
6.5303866194
  0
LWPOLYLINE
  5
53D
100
AcDbEntity
  8
02___PRT_ALL_AXES
100
AcDbPolyline
 62
7
  6
CONTINUOUS
 90
9
 70
0
 10
6.0913865643
 20
6.5759342387
 10
6.1731043919
 20
6.5774071546
 10
6.2472810015
 20
6.5788800704
 10
6.3120984577
 20
6.5803529863
 10
6.3659682006
 20
6.5818259021
 10
6.4075699796
 20
6.583298818
 10
6.4358842096
 20
6.5847717338
 10
6.4502169596
 20
6.5862446497
 10
6.4517910705
 20
6.586720341
  0
LINE
  5
53E
100
AcDbEntity
  8
02___PRT_ALL_AXES
100
AcDbLine
 62
7
  6
CONTINUOUS
 10
5.5577009188
 20
6.5670275015
 11
5.6394187463
 21
6.5685004174
  0
LWPOLYLINE
  5
53F
100
AcDbEntity
  8
02___PRT_ALL_AXES
100
AcDbPolyline
 62
7
  6
CONTINUOUS
 90
9
 70
0
 10
6.0913865643
 20
6.5833161285
 10
6.1731043919
 20
6.5847890444
 10
6.2472810015
 20
6.5862619602
 10
6.3120984577
 20
6.587734876
 10
6.3659682006
 20
6.5892077919
 10
6.4075699796
 20
6.5906807077
 10
6.4358842096
 20
6.5921536236
 10
6.4502169596
 20
6.5936265394
 10
6.4520168285
 20
6.5943629973
  0
LWPOLYLINE
  5
540
100
AcDbEntity
  8
02___PRT_ALL_AXES
100
AcDbPolyline
 62
7
  6
CONTINUOUS
 90
9
 70
0
 10
6.0913865643
 20
6.6349893569
 10
6.1731043919
 20
6.6364622727
 10
6.2472810015
 20
6.6379351885
 10
6.3120984577
 20
6.6394081044
 10
6.3659682006
 20
6.6408810202
 10
6.4075699796
 20
6.6423539361
 10
6.4358842096
 20
6.6438268519
 10
6.4502169596
 20
6.6452997678
 10
6.4517910705
 20
6.6457754591
  0
LWPOLYLINE
  5
541
100
AcDbEntity
  8
02___PRT_ALL_AXES
100
AcDbPolyline
 62
7
  6
CONTINUOUS
 90
9
 70
0
 10
6.0913865643
 20
6.6423712466
 10
6.1731043919
 20
6.6438441625
 10
6.2472810015
 20
6.6453170783
 10
6.3120984577
 20
6.6467899942
 10
6.3659682006
 20
6.64826291
 10
6.4075699796
 20
6.6497358258
 10
6.4358842096
 20
6.6512087417
 10
6.4502169596
 20
6.6526816575
 10
6.4520168285
 20
6.6534181155
  0
LWPOLYLINE
  5
542
100
AcDbEntity
  8
02___PRT_ALL_AXES
100
AcDbPolyline
 62
7
  6
CONTINUOUS
 90
7
 70
0
 10
5.7617052759
 20
6.3620571567
 10
5.6848177684
 20
6.3606987113
 10
5.6118469943
 20
6.3593431654
 10
5.5448380423
 20
6.3580022357
 10
5.4846857923
 20
6.3566693953
 10
5.4318730795
 20
6.3553281743
 10
5.3880658186
 20
6.3539935187
  0
LWPOLYLINE
  5
543
100
AcDbEntity
  8
02___PRT_ALL_AXES
100
AcDbPolyline
 62
7
  6
CONTINUOUS
 90
10
 70
0
 10
5.9691000348
 20
6.3763735624
 10
6.0550496033
 20
6.3778960692
 10
6.1355642231
 20
6.3794093886
 10
6.2091922334
 20
6.380924933
 10
6.2746239706
 20
6.3824588635
 10
6.3296129336
 20
6.3840064654
 10
6.3718690358
 20
6.3855464727
 10
6.400236511
 20
6.3870636484
 10
6.4146845322
 20
6.388577986
 10
6.416343505
 20
6.3890809396
  0
LWPOLYLINE
  5
544
100
AcDbEntity
  8
02___PRT_ALL_AXES
100
AcDbPolyline
 62
7
  6
CONTINUOUS
 90
10
 70
0
 10
5.7617052759
 20
6.4211122748
 10
5.6745207453
 20
6.4195673298
 10
5.5927848397
 20
6.4180283263
 10
5.5193428702
 20
6.4165112722
 10
5.4549677557
 20
6.4149960257
 10
5.4006744308
 20
6.4134629677
 10
5.358760486
 20
6.4119317598
 10
5.3304787014
 20
6.4104158246
 10
5.3160083734
 20
6.40888439
 10
5.3144618056
 20
6.4084048977
  0
LWPOLYLINE
  5
545
100
AcDbEntity
  8
02___PRT_ALL_AXES
100
AcDbPolyline
 62
7
  6
CONTINUOUS
 90
10
 70
0
 10
5.9691000348
 20
6.4354286805
 10
6.0562795756
 20
6.4369735348
 10
6.1380163551
 20
6.4385125483
 10
6.2114567862
 20
6.4400295592
 10
6.2758067659
 20
6.441544143
 10
6.3300826545
 20
6.4430764583
 10
6.3720019009
 20
6.4446073373
 10
6.4002991214
 20
6.4461231872
 10
6.4147884545
 20
6.4476547696
 10
6.416343505
 20
6.4481360577
  0
LWPOLYLINE
  5
546
100
AcDbEntity
  8
02___PRT_ALL_AXES
100
AcDbPolyline
 62
7
  6
CONTINUOUS
 90
10
 70
0
 10
5.7617052759
 20
6.4801673929
 10
5.6757864907
 20
6.4786454452
 10
5.5952753125
 20
6.4771322363
 10
5.5216416434
 20
6.4756166455
 10
5.4562078097
 20
6.4740827656
 10
5.4012168692
 20
6.4725352645
 10
5.3589583378
 20
6.470995436
 10
5.3305850157
 20
6.4694784505
 10
5.3161281338
 20
6.46796448
 10
5.3144618056
 20
6.4674600158
  0
LWPOLYLINE
  5
547
100
AcDbEntity
  8
02___PRT_ALL_AXES
100
AcDbPolyline
 62
7
  6
CONTINUOUS
 90
7
 70
0
 10
5.9691000348
 20
6.4944837986
 10
6.0459779521
 20
6.4958420709
 10
6.1189423314
 20
6.497197483
 10
6.185941081
 20
6.4985381707
 10
6.2461031123
 20
6.4998711732
 10
6.2989230026
 20
6.5012125261
 10
6.342739492
 20
6.5025474366
  0
LWPOLYLINE
  5
548
100
AcDbEntity
  8
02___PRT_ALL_AXES
100
AcDbPolyline
 62
7
  6
CONTINUOUS
 90
10
 70
0
 10
5.7617052759
 20
6.5392225111
 10
5.6748840325
 20
6.5376841687
 10
5.5932808341
 20
6.5361482912
 10
5.5197135875
 20
6.5346296276
 10
5.4548284456
 20
6.5331027021
 10
5.4005487158
 20
6.5315692156
 10
5.3589318306
 20
6.5300494086
 10
5.3306337086
 20
6.5285369993
 10
5.3160389387
 20
6.527001077
 10
5.3144618056
 20
6.5265151339
  0
LINE
  5
549
100
AcDbEntity
  8
02___PRT_ALL_AXES
100
AcDbLine
 62
7
  6
CONTINUOUS
 10
5.9691000348
 20
6.5535389167
 11
6.0449966478
 21
6.5548831416
  0
LINE
  5
54A
100
AcDbEntity
  8
02___PRT_ALL_AXES
100
AcDbLine
 62
7
  6
CONTINUOUS
 10
6.0449966478
 20
6.5548831416
 11
6.1280969679
 21
6.5564342628
  0
LWPOLYLINE
  5
54B
100
AcDbEntity
  8
02___PRT_ALL_AXES
100
AcDbPolyline
 62
7
  6
CONTINUOUS
 90
10
 70
0
 10
5.7617052759
 20
6.5982776292
 10
5.6745335002
 20
6.596732916
 10
5.5928065751
 20
6.5951941071
 10
5.5193743549
 20
6.5936773163
 10
5.4551612512
 20
6.5921663221
 10
5.4013176749
 20
6.5906486878
 10
5.3594059856
 20
6.5891249688
 10
5.3308879328
 20
6.5876099477
 10
5.316130306
 20
6.5860751618
 10
5.3144618056
 20
6.585570252
  0
LWPOLYLINE
  5
54C
100
AcDbEntity
  8
02___PRT_ALL_AXES
100
AcDbPolyline
 62
7
  6
CONTINUOUS
 90
10
 70
0
 10
5.9691000348
 20
6.6125940348
 10
6.0562363129
 20
6.6141381028
 10
6.1379010776
 20
6.615675641
 10
6.2113912359
 20
6.6171934775
 10
6.2764568399
 20
6.6187261203
 10
6.3310308591
 20
6.6202719528
 10
6.372852183
 20
6.6218096627
 10
6.4008269383
 20
6.6233261471
 10
6.4149354061
 20
6.6248518585
 10
6.416343505
 20
6.625301412
  0
LWPOLYLINE
  5
54D
100
AcDbEntity
  8
02___PRT_ALL_AXES
100
AcDbPolyline
 62
7
  6
CONTINUOUS
 90
10
 70
0
 10
5.7617052759
 20
6.6573327473
 10
5.6751255716
 20
6.6557987939
 10
5.5942103638
 20
6.6542767443
 10
5.5207735029
 20
6.6527630461
 10
5.4554092036
 20
6.6512277688
 10
5.4005445677
 20
6.6496793202
 10
5.3584509416
 20
6.6481388062
 10
5.330254757
 20
6.6466204028
 10
5.3159815075
 20
6.6450991468
 10
5.3144618056
 20
6.6446253701
  0
LWPOLYLINE
  5
54E
100
AcDbEntity
  8
02___PRT_ALL_AXES
100
AcDbPolyline
 62
7
  6
CONTINUOUS
 90
10
 70
0
 10
5.9691000348
 20
6.6716491529
 10
6.0563352845
 20
6.6731950199
 10
6.1381195945
 20
6.6747350464
 10
6.2116220313
 20
6.6762536525
 10
6.276045895
 20
6.6777707264
 10
6.3296921749
 20
6.6792845627
 10
6.3713883272
 20
6.6808013404
 10
6.3999099226
 20
6.6823163135
 10
6.4146777542
 20
6.6838521843
 10
6.416343505
 20
6.6843565301
  0
LWPOLYLINE
  5
54F
100
AcDbEntity
  8
02___PRT_ALL_AXES
100
AcDbPolyline
 62
7
  6
CONTINUOUS
 90
5
 70
0
 10
5.7617052759
 20
6.6680913896
 10
5.7313740341
 20
6.6713433803
 10
5.7001582
 20
6.675639938
 10
5.6690891822
 20
6.6808346206
 10
5.6394187463
 20
6.6866106536
  0
LWPOLYLINE
  5
550
100
AcDbEntity
  8
02___PRT_ALL_AXES
100
AcDbPolyline
 62
7
  6
CONTINUOUS
 90
5
 70
0
 10
5.7617052759
 20
6.4318709172
 10
5.7306954524
 20
6.435206191
 10
5.6994693869
 20
6.4395248563
 10
5.6687794248
 20
6.444670408
 10
5.6394187463
 20
6.4503901811
  0
LWPOLYLINE
  5
551
100
AcDbEntity
  8
02___PRT_ALL_AXES
100
AcDbPolyline
 62
7
  6
CONTINUOUS
 90
5
 70
0
 10
5.9691000348
 20
6.4246700381
 10
6.0001708786
 20
6.4213272529
 10
6.0314240106
 20
6.417002589
 10
6.0621008773
 20
6.4118569139
 10
6.0913865643
 20
6.4061507742
  0
LWPOLYLINE
  5
552
100
AcDbEntity
  8
02___PRT_ALL_AXES
100
AcDbPolyline
 62
7
  6
CONTINUOUS
 90
4
 70
0
 10
5.7617052759
 20
6.3728157991
 10
5.7211758254
 20
6.3773672528
 10
5.680392045
 20
6.3835658506
 10
5.6394187463
 20
6.391335063
  0
LWPOLYLINE
  5
553
100
AcDbEntity
  8
02___PRT_ALL_AXES
100
AcDbPolyline
 62
7
  6
CONTINUOUS
 90
4
 70
0
 10
5.9691000348
 20
6.36561492
 10
6.0096370484
 20
6.3610624647
 10
6.0504201842
 20
6.3548636842
 10
6.0913865643
 20
6.3470956561
  0
LWPOLYLINE
  5
554
100
AcDbEntity
  8
02___PRT_ALL_AXES
100
AcDbPolyline
 62
7
  6
CONTINUOUS
 90
4
 70
0
 10
5.7617052759
 20
6.4909260353
 10
5.7211758254
 20
6.495477489
 10
5.680392045
 20
6.5016760868
 10
5.6394187463
 20
6.5094452993
  0
LWPOLYLINE
  5
555
100
AcDbEntity
  8
02___PRT_ALL_AXES
100
AcDbPolyline
 62
7
  6
CONTINUOUS
 90
4
 70
0
 10
5.9691000348
 20
6.4837251563
 10
6.0096370484
 20
6.4791727009
 10
6.0504201842
 20
6.4729739205
 10
6.0913865643
 20
6.4652058923
  0
LWPOLYLINE
  5
556
100
AcDbEntity
  8
02___PRT_ALL_AXES
100
AcDbPolyline
 62
7
  6
CONTINUOUS
 90
4
 70
0
 10
5.7617052759
 20
6.5499811534
 10
5.7211758254
 20
6.5545326071
 10
5.680392045
 20
6.5607312049
 10
5.6394187463
 20
6.5685004174
  0
LWPOLYLINE
  5
557
100
AcDbEntity
  8
02___PRT_ALL_AXES
100
AcDbPolyline
 62
7
  6
CONTINUOUS
 90
4
 70
0
 10
5.9691000348
 20
6.5427802744
 10
6.0096370484
 20
6.538227819
 10
6.0504201842
 20
6.5320290386
 10
6.0913865643
 20
6.5242610104
  0
LWPOLYLINE
  5
558
100
AcDbEntity
  8
02___PRT_ALL_AXES
100
AcDbPolyline
 62
7
  6
CONTINUOUS
 90
4
 70
0
 10
5.7617052759
 20
6.6090362715
 10
5.7211758254
 20
6.6135877252
 10
5.680392045
 20
6.619786323
 10
5.6394187463
 20
6.6275555355
  0
LWPOLYLINE
  5
559
100
AcDbEntity
  8
02___PRT_ALL_AXES
100
AcDbPolyline
 62
7
  6
CONTINUOUS
 90
4
 70
0
 10
5.9691000348
 20
6.6018353925
 10
6.0096296175
 20
6.5972839212
 10
6.0504119659
 20
6.5910855634
 10
6.0913865643
 20
6.5833161285
  0
LINE
  5
55A
100
AcDbEntity
  8
0
100
AcDbLine
 62
7
  6
CONTINUOUS
 10
5.2790142401
 20
6.1438069552
 11
5.3144618056
 21
6.1233329081
  0
LINE
  5
55B
100
AcDbEntity
  8
0
100
AcDbLine
 62
7
  6
CONTINUOUS
 10
5.2790142401
 20
6.2028620733
 11
5.3144618056
 21
6.1823880262
  0
LINE
  5
55C
100
AcDbEntity
  8
0
100
AcDbLine
 62
7
  6
CONTINUOUS
 10
5.2790142401
 20
6.2619171914
 11
5.3144618056
 21
6.2414431443
  0
LINE
  5
55D
100
AcDbEntity
  8
0
100
AcDbLine
 62
7
  6
CONTINUOUS
 10
5.2790142401
 20
6.3209723095
 11
5.3144618056
 21
6.3004982624
  0
LINE
  5
55E
100
AcDbEntity
  8
0
100
AcDbLine
 62
7
  6
CONTINUOUS
 10
5.2790142401
 20
6.3800274276
 11
5.3144618056
 21
6.3595533805
  0
LINE
  5
55F
100
AcDbEntity
  8
0
100
AcDbLine
 62
7
  6
CONTINUOUS
 10
5.629431102
 20
5.8138095691
 11
5.6612846767
 21
5.7953964621
  0
LINE
  5
560
100
AcDbEntity
  8
0
100
AcDbLine
 62
7
  6
CONTINUOUS
 10
5.629431102
 20
5.8531796479
 11
5.6612846767
 21
5.8347665408
  0
LINE
  5
561
100
AcDbEntity
  8
0
100
AcDbLine
 62
7
  6
CONTINUOUS
 10
5.629431102
 20
5.8925497266
 11
5.6612846767
 21
5.8741366196
  0
LINE
  5
562
100
AcDbEntity
  8
0
100
AcDbLine
 62
7
  6
CONTINUOUS
 10
5.629431102
 20
5.9319198053
 11
5.6612846767
 21
5.9135066983
  0
LINE
  5
563
100
AcDbEntity
  8
0
100
AcDbLine
 62
7
  6
CONTINUOUS
 10
5.629431102
 20
5.9712898841
 11
5.6612846767
 21
5.952876777
  0
LINE
  5
564
100
AcDbEntity
  8
0
100
AcDbLine
 62
7
  6
CONTINUOUS
 10
5.629431102
 20
6.0106599628
 11
5.6612846767
 21
5.9922468558
  0
LINE
  5
565
100
AcDbEntity
  8
0
100
AcDbLine
 62
7
  6
CONTINUOUS
 10
5.629431102
 20
6.0500300416
 11
5.6612846767
 21
6.0316169345
  0
LINE
  5
566
100
AcDbEntity
  8
0
100
AcDbLine
 62
7
  6
CONTINUOUS
 10
6.1013742086
 20
5.796668394
 11
6.0695206339
 21
5.8150815014
  0
LINE
  5
567
100
AcDbEntity
  8
0
100
AcDbLine
 62
7
  6
CONTINUOUS
 10
6.1013742086
 20
5.8360384728
 11
6.0695206339
 21
5.8544515802
  0
LINE
  5
568
100
AcDbEntity
  8
0
100
AcDbLine
 62
7
  6
CONTINUOUS
 10
6.1013742086
 20
5.8754085515
 11
6.0695206339
 21
5.8938216589
  0
LINE
  5
569
100
AcDbEntity
  8
0
100
AcDbLine
 62
7
  6
CONTINUOUS
 10
6.1013742086
 20
5.9147786303
 11
6.0695206339
 21
5.9331917377
  0
LINE
  5
56A
100
AcDbEntity
  8
0
100
AcDbLine
 62
7
  6
CONTINUOUS
 10
6.0828313018
 20
5.768016321
 11
6.0695206339
 21
5.7757114227
  0
LWPOLYLINE
  5
56B
100
AcDbEntity
  8
02___PRT_ALL_AXES
100
AcDbPolyline
 62
7
  6
CONTINUOUS
 90
4
 70
0
 10
5.6394187463
 20
6.6939925433
 10
5.6793120342
 20
6.7027861192
 10
5.7208591785
 20
6.7104473888
 10
5.7617052759
 20
6.7163878654
  0
LWPOLYLINE
  5
56C
100
AcDbEntity
  8
02___PRT_ALL_AXES
100
AcDbPolyline
 62
7
  6
CONTINUOUS
 90
4
 70
0
 10
5.6394187463
 20
6.5758823071
 10
5.6803877933
 20
6.5848939838
 10
5.7211678
 20
6.5923880756
 10
5.7617052759
 20
6.5982776292
  0
LWPOLYLINE
  5
56D
100
AcDbEntity
  8
02___PRT_ALL_AXES
100
AcDbPolyline
 62
7
  6
CONTINUOUS
 90
4
 70
0
 10
6.0913865643
 20
6.694044475
 10
6.0504108637
 20
6.6850314525
 10
6.0096302813
 20
6.6775375147
 10
5.9691000348
 20
6.6716491529
  0
LWPOLYLINE
  5
56E
100
AcDbEntity
  8
02___PRT_ALL_AXES
100
AcDbPolyline
 62
7
  6
CONTINUOUS
 90
4
 70
0
 10
5.6394187463
 20
6.6349374252
 10
5.6803877933
 20
6.6439491019
 10
5.7211678
 20
6.6514431938
 10
5.7617052759
 20
6.6573327473
  0
LWPOLYLINE
  5
56F
100
AcDbEntity
  8
02___PRT_ALL_AXES
100
AcDbPolyline
 62
7
  6
CONTINUOUS
 90
8
 70
0
 10
6.1731043919
 20
6.7028992806
 10
6.2472810015
 20
6.7043721964
 10
6.3120984577
 20
6.7058451123
 10
6.3659682006
 20
6.7073180281
 10
6.4075699796
 20
6.708790944
 10
6.4358842096
 20
6.7102638598
 10
6.4502169596
 20
6.7117367756
 10
6.4520168285
 20
6.7124732336
  0
LWPOLYLINE
  5
570
100
AcDbEntity
  8
02___PRT_ALL_AXES
100
AcDbPolyline
 62
7
  6
CONTINUOUS
 90
9
 70
0
 10
6.0913865643
 20
6.694044475
 10
6.1731043919
 20
6.6955173908
 10
6.2472810015
 20
6.6969903067
 10
6.3120984577
 20
6.6984632225
 10
6.3659682006
 20
6.6999361383
 10
6.4075699796
 20
6.7014090542
 10
6.4358842096
 20
6.70288197
 10
6.4502169596
 20
6.7043548859
 10
6.4517910705
 20
6.7048305772
  0
LINE
  5
571
100
AcDbEntity
  8
02___PRT_ALL_AXES
100
AcDbLine
 62
7
  6
CONTINUOUS
 10
5.5577009188
 20
6.6851377377
 11
5.6394187463
 21
6.6866106536
  0
LINE
  5
572
100
AcDbEntity
  8
02___PRT_ALL_AXES
100
AcDbLine
 62
7
  6
CONTINUOUS
 10
6.0913865643
 20
6.7014263647
 11
6.1731043919
 21
6.7028992806
  0
LWPOLYLINE
  5
573
100
AcDbEntity
  8
02___PRT_ALL_AXES
100
AcDbPolyline
 62
7
  6
CONTINUOUS
 90
10
 70
0
 10
5.7617052759
 20
6.7163878654
 10
5.6758963099
 20
6.7148679119
 10
5.5947253839
 20
6.7133419472
 10
5.5211348687
 20
6.7118260574
 10
5.4559143251
 20
6.7102957648
 10
5.4010896581
 20
6.7087517127
 10
5.3589444776
 20
6.7072153095
 10
5.330593554
 20
6.7056995249
 10
5.3160387897
 20
6.7041664
 10
5.3144618056
 20
6.7036804882
  0
LINE
  5
574
100
AcDbEntity
  8
0
100
AcDbLine
 62
9
  6
CONTINUOUS
 10
6.4165837577
 20
6.7629161469
 11
5.3142215529
 21
6.7629161469
  0
LINE
  5
575
100
AcDbEntity
  8
02___PRT_ALL_AXES
100
AcDbLine
 62
7
  6
CONTINUOUS
 10
6.5937405778
 20
6.8022862257
 11
5.1370647328
 21
6.8022862257
  0
LINE
  5
576
100
AcDbEntity
  8
02___PRT_ALL_AXES
100
AcDbLine
 62
9
  6
CONTINUOUS
 10
4.9795758837
 20
6.9597665407
 11
6.751229427
 21
6.9597665407
  0
LWPOLYLINE
  5
577
100
AcDbEntity
  8
02___PRT_ALL_AXES
100
AcDbPolyline
 62
7
  6
CONTINUOUS
 90
4
 70
0
 10
5.9691000348
 20
6.6608905106
 10
6.0096370484
 20
6.6563380553
 10
6.0504201842
 20
6.6501392748
 10
6.0913865643
 20
6.6423712466
  0
LWPOLYLINE
  5
578
100
AcDbEntity
  8
02___PRT_ALL_AXES
100
AcDbPolyline
 62
7
  6
CONTINUOUS
 90
4
 70
0
 10
5.9691000348
 20
6.7199456287
 10
6.0096370484
 20
6.7153931734
 10
6.0504201842
 20
6.7091943929
 10
6.0913865643
 20
6.7014263647
  0
LINE
  5
579
100
AcDbEntity
  8
0
100
AcDbLine
 62
7
  6
CONTINUOUS
 10
5.2790142401
 20
6.4390825457
 11
5.3144618056
 21
6.4186084986
  0
LINE
  5
57A
100
AcDbEntity
  8
0
100
AcDbLine
 62
7
  6
CONTINUOUS
 10
5.2790142401
 20
6.4981376638
 11
5.3144618056
 21
6.4776636167
  0
LINE
  5
57B
100
AcDbEntity
  8
0
100
AcDbLine
 62
7
  6
CONTINUOUS
 10
5.2790142401
 20
6.557192782
 11
5.3144618056
 21
6.5367187348
  0
LINE
  5
57C
100
AcDbEntity
  8
0
100
AcDbLine
 62
7
  6
CONTINUOUS
 10
5.2790142401
 20
6.6162479001
 11
5.3144618056
 21
6.5957738529
  0
LINE
  5
57D
100
AcDbEntity
  8
0
100
AcDbLine
 62
7
  6
CONTINUOUS
 10
5.2790142401
 20
6.6753030182
 11
5.3144618056
 21
6.654828971
  0
LINE
  5
57E
100
AcDbEntity
  8
0
100
AcDbLine
 62
7
  6
CONTINUOUS
 10
6.1013742086
 20
5.954148709
 11
6.0695206339
 21
5.9725618164
  0
LINE
  5
57F
100
AcDbEntity
  8
0
100
AcDbLine
 62
7
  6
CONTINUOUS
 10
6.1013742086
 20
5.9935187877
 11
6.0695206339
 21
6.0119318951
  0
LINE
  5
580
100
AcDbEntity
  8
0
100
AcDbLine
 62
7
  6
CONTINUOUS
 10
6.1013742086
 20
6.0328888665
 11
6.0695206339
 21
6.0513019739
  0
LINE
  5
581
100
AcDbEntity
  8
0
100
AcDbLine
 62
7
  6
CONTINUOUS
 10
6.4517910705
 20
6.1812379371
 11
6.416343505
 21
6.2017119843
  0
LINE
  5
582
100
AcDbEntity
  8
0
100
AcDbLine
 62
7
  6
CONTINUOUS
 10
6.4517910705
 20
6.2402930553
 11
6.416343505
 21
6.2607671024
  0
LINE
  5
583
100
AcDbEntity
  8
0
100
AcDbLine
 62
7
  6
CONTINUOUS
 10
6.4517910705
 20
6.2993481734
 11
6.416343505
 21
6.3198222205
  0
LINE
  5
584
100
AcDbEntity
  8
0
100
AcDbLine
 62
7
  6
CONTINUOUS
 10
6.4517910705
 20
6.3584032915
 11
6.416343505
 21
6.3788773386
  0
LINE
  5
585
100
AcDbEntity
  8
0
100
AcDbLine
 62
7
  6
CONTINUOUS
 10
6.4517910705
 20
6.4174584096
 11
6.416343505
 21
6.4379324567
  0
LINE
  5
586
100
AcDbEntity
  8
0
100
AcDbLine
 62
7
  6
CONTINUOUS
 10
6.4517910705
 20
6.4765135277
 11
6.416343505
 21
6.4969875748
  0
LINE
  5
587
100
AcDbEntity
  8
0
100
AcDbLine
 62
7
  6
CONTINUOUS
 10
5.6488671524
 20
5.7668531548
 11
5.6354220433
 21
5.7802982596
  0
LINE
  5
588
100
AcDbEntity
  8
02___PRT_ALL_AXES
100
AcDbLine
 62
7
  6
CONTINUOUS
 10
5.2790142401
 20
6.1438069552
 11
5.2787884821
 21
6.1440677218
  0
LINE
  5
589
100
AcDbEntity
  8
02___PRT_ALL_AXES
100
AcDbLine
 62
7
  6
CONTINUOUS
 10
5.2790142401
 20
6.2028620733
 11
5.2787884821
 21
6.2031228399
  0
LINE
  5
58A
100
AcDbEntity
  8
02___PRT_ALL_AXES
100
AcDbLine
 62
7
  6
CONTINUOUS
 10
5.2790142401
 20
6.2619171914
 11
5.2787884821
 21
6.262177958
  0
LINE
  5
58B
100
AcDbEntity
  8
0
100
AcDbLine
 62
7
  6
CONTINUOUS
 10
5.629431102
 20
5.8138095691
 11
5.6291821829
 21
5.8140972493
  0
LINE
  5
58C
100
AcDbEntity
  8
0
100
AcDbLine
 62
7
  6
CONTINUOUS
 10
5.629431102
 20
5.8531796479
 11
5.6291821829
 21
5.853467328
  0
LINE
  5
58D
100
AcDbEntity
  8
02___PRT_ALL_AXES
100
AcDbLine
 62
9
  6
CONTINUOUS
 10
4.9795758837
 20
7.3928374068
 11
6.751229427
 21
7.3928374068
  0
LINE
  5
58E
100
AcDbEntity
  8
02___PRT_ALL_AXES
100
AcDbLine
 62
7
  6
CONTINUOUS
 10
6.8102845451
 20
7.4518925249
 11
4.9205207655
 21
7.4518925249
  0
LINE
  5
58F
100
AcDbEntity
  8
02___PRT_ALL_AXES
100
AcDbLine
 62
9
  6
CONTINUOUS
 10
6.8496546238
 20
7.4912626036
 11
4.8811506868
 21
7.4912626036
  0
LINE
  5
590
100
AcDbEntity
  8
0
100
AcDbLine
 62
7
  6
CONTINUOUS
 10
6.4517910705
 20
6.5355686458
 11
6.416343505
 21
6.5560426929
  0
LINE
  5
591
100
AcDbEntity
  8
0
100
AcDbLine
 62
7
  6
CONTINUOUS
 10
6.4517910705
 20
6.5946237639
 11
6.416343505
 21
6.615097811
  0
LINE
  5
592
100
AcDbEntity
  8
0
100
AcDbLine
 62
7
  6
CONTINUOUS
 10
6.4517910705
 20
6.653678882
 11
6.416343505
 21
6.6741529292
  0
LINE
  5
593
100
AcDbEntity
  8
0
100
AcDbLine
 62
7
  6
CONTINUOUS
 10
6.4517910705
 20
6.7127340001
 11
6.416343505
 21
6.7332080473
  0
LINE
  5
594
100
AcDbEntity
  8
02___PRT_ALL_AXES
100
AcDbLine
 62
7
  6
CONTINUOUS
 10
5.2790142401
 20
6.3209723095
 11
5.2787884821
 21
6.3212330761
  0
LINE
  5
595
100
AcDbEntity
  8
02___PRT_ALL_AXES
100
AcDbLine
 62
7
  6
CONTINUOUS
 10
5.2790142401
 20
6.3800274276
 11
5.2787884821
 21
6.3802881942
  0
LINE
  5
596
100
AcDbEntity
  8
02___PRT_ALL_AXES
100
AcDbLine
 62
7
  6
CONTINUOUS
 10
5.2790142401
 20
6.4390825457
 11
5.2787884821
 21
6.4393433123
  0
LINE
  5
597
100
AcDbEntity
  8
02___PRT_ALL_AXES
100
AcDbLine
 62
7
  6
CONTINUOUS
 10
5.2790142401
 20
6.4981376638
 11
5.2787884821
 21
6.4983984304
  0
LINE
  5
598
100
AcDbEntity
  8
02___PRT_ALL_AXES
100
AcDbLine
 62
7
  6
CONTINUOUS
 10
5.2790142401
 20
6.557192782
 11
5.2787884821
 21
6.5574535485
  0
LINE
  5
599
100
AcDbEntity
  8
02___PRT_ALL_AXES
100
AcDbLine
 62
7
  6
CONTINUOUS
 10
5.2790142401
 20
6.6162479001
 11
5.2787884821
 21
6.6165086666
  0
LINE
  5
59A
100
AcDbEntity
  8
02___PRT_ALL_AXES
100
AcDbLine
 62
7
  6
CONTINUOUS
 10
5.2790142401
 20
6.6753030182
 11
5.2787884821
 21
6.6755637847
  0
LINE
  5
59B
100
AcDbEntity
  8
0
100
AcDbLine
 62
7
  6
CONTINUOUS
 10
5.629431102
 20
5.9319198053
 11
5.6291821829
 21
5.9322074792
  0
LINE
  5
59C
100
AcDbEntity
  8
0
100
AcDbLine
 62
7
  6
CONTINUOUS
 10
5.629431102
 20
5.9712898841
 11
5.6291821829
 21
5.9715775427
  0
LINE
  5
59D
100
AcDbEntity
  8
0
100
AcDbLine
 62
7
  6
CONTINUOUS
 10
5.629431102
 20
6.0106599628
 11
5.6291821829
 21
6.010947643
  0
LINE
  5
59E
100
AcDbEntity
  8
0
100
AcDbLine
 62
7
  6
CONTINUOUS
 10
5.629431102
 20
6.0500300416
 11
5.6291821829
 21
6.0503177279
  0
LINE
  5
59F
100
AcDbEntity
  8
0
100
AcDbLine
 62
7
  6
CONTINUOUS
 10
6.1013742086
 20
5.8360384728
 11
6.1016231277
 21
5.8357507898
  0
LINE
  5
5A0
100
AcDbEntity
  8
0
100
AcDbLine
 62
7
  6
CONTINUOUS
 10
5.629431102
 20
5.8925497266
 11
5.6291821829
 21
5.89283744
  0
LINE
  5
5A1
100
AcDbEntity
  8
0
100
AcDbLine
 62
7
  6
CONTINUOUS
 10
6.1013742086
 20
5.796668394
 11
6.1016231277
 21
5.7963806872
  0
LINE
  5
5A2
100
AcDbEntity
  8
02___PRT_ALL_AXES
100
AcDbLine
 62
7
  6
CONTINUOUS
 10
4.8811506868
 20
7.8022862257
 11
6.8496546238
 21
7.8022862257
  0
LINE
  5
5A3
100
AcDbEntity
  8
AXIS
100
AcDbLine
 62
7
  6
CONTINUOUS
 10
4.8811506868
 20
7.8022862257
 11
6.8496546238
 21
7.8022862257
  0
LINE
  5
5A4
100
AcDbEntity
  8
0
100
AcDbLine
 62
7
  6
CONTINUOUS
 10
6.1013742086
 20
5.8754085515
 11
6.1016231277
 21
5.8751208651
  0
LINE
  5
5A5
100
AcDbEntity
  8
0
100
AcDbLine
 62
7
  6
CONTINUOUS
 10
6.1013742086
 20
5.9147786303
 11
6.1016231277
 21
5.91449095
  0
LINE
  5
5A6
100
AcDbEntity
  8
0
100
AcDbLine
 62
7
  6
CONTINUOUS
 10
6.1013742086
 20
5.954148709
 11
6.1016231277
 21
5.9538610484
  0
LINE
  5
5A7
100
AcDbEntity
  8
0
100
AcDbLine
 62
7
  6
CONTINUOUS
 10
6.1013742086
 20
5.9935187877
 11
6.1016231277
 21
5.9932311158
  0
LINE
  5
5A8
100
AcDbEntity
  8
0
100
AcDbLine
 62
7
  6
CONTINUOUS
 10
6.1013742086
 20
6.0328888665
 11
6.1016231277
 21
6.0326011514
  0
LINE
  5
5A9
100
AcDbEntity
  8
02___PRT_ALL_AXES
100
AcDbLine
 62
7
  6
CONTINUOUS
 10
6.4520168285
 20
6.1809771706
 11
6.4517910705
 21
6.1812379371
  0
LINE
  5
5AA
100
AcDbEntity
  8
02___PRT_ALL_AXES
100
AcDbLine
 62
7
  6
CONTINUOUS
 10
6.4520168285
 20
6.2400322887
 11
6.4517910705
 21
6.2402930553
  0
LINE
  5
5AB
100
AcDbEntity
  8
02___PRT_ALL_AXES
100
AcDbLine
 62
7
  6
CONTINUOUS
 10
6.4520168285
 20
6.2990874068
 11
6.4517910705
 21
6.2993481734
  0
LINE
  5
5AC
100
AcDbEntity
  8
02___PRT_ALL_AXES
100
AcDbLine
 62
7
  6
CONTINUOUS
 10
6.4520168285
 20
6.3581425249
 11
6.4517910705
 21
6.3584032915
  0
LINE
  5
5AD
100
AcDbEntity
  8
02___PRT_ALL_AXES
100
AcDbLine
 62
7
  6
CONTINUOUS
 10
6.4520168285
 20
6.417197643
 11
6.4517910705
 21
6.4174584096
  0
LINE
  5
5AE
100
AcDbEntity
  8
02___PRT_ALL_AXES
100
AcDbLine
 62
7
  6
CONTINUOUS
 10
6.4520168285
 20
6.4762527611
 11
6.4517910705
 21
6.4765135277
  0
LINE
  5
5AF
100
AcDbEntity
  8
02___PRT_ALL_AXES
100
AcDbLine
 62
7
  6
CONTINUOUS
 10
6.4520168285
 20
6.5353078792
 11
6.4517910705
 21
6.5355686458
  0
LINE
  5
5B0
100
AcDbEntity
  8
02___PRT_ALL_AXES
100
AcDbLine
 62
7
  6
CONTINUOUS
 10
6.4520168285
 20
6.5943629973
 11
6.4517910705
 21
6.5946237639
  0
LINE
  5
5B1
100
AcDbEntity
  8
02___PRT_ALL_AXES
100
AcDbLine
 62
7
  6
CONTINUOUS
 10
6.4520168285
 20
6.6534181155
 11
6.4517910705
 21
6.653678882
  0
LINE
  5
5B2
100
AcDbEntity
  8
02___PRT_ALL_AXES
100
AcDbLine
 62
7
  6
CONTINUOUS
 10
6.4520168285
 20
6.7124732336
 11
6.4517910705
 21
6.7127340001
  0
LINE
  5
5B3
100
AcDbEntity
  8
AXIS
100
AcDbLine
 62
7
  6
CONTINUOUS
 10
4.8811506868
 20
8.8613413438
 11
6.8496546238
 21
8.8613413438
  0
LINE
  5
5B4
100
AcDbEntity
  8
0
100
AcDbLine
 62
7
  6
CONTINUOUS
 10
6.0829035135
 20
5.7678185099
 11
6.0828313018
 21
5.768016321
  0
LINE
  5
5B5
100
AcDbEntity
  8
0
100
AcDbLine
 62
7
  6
CONTINUOUS
 10
4.8811506868
 20
9.4046484304
 11
4.8858920559
 21
8.8613413438
  0
LINE
  5
5B6
100
AcDbEntity
  8
0
100
AcDbLine
 62
7
  6
CONTINUOUS
 10
4.8811506868
 20
11.0070106351
 11
4.8858920559
 21
10.4637035485
  0
LINE
  5
5B7
100
AcDbEntity
  8
0
100
AcDbLine
 62
7
  6
CONTINUOUS
 10
4.8811506868
 20
12.6093728399
 11
4.8858920559
 21
12.0660657532
  0
LINE
  5
5B8
100
AcDbEntity
  8
02___PRT_ALL_AXES
100
AcDbLine
 62
7
  6
CONTINUOUS
 10
4.8811506868
 20
7.8022862257
 11
4.8811506868
 21
7.4912626036
  0
LINE
  5
5B9
100
AcDbEntity
  8
AXIS
100
AcDbLine
 62
7
  6
CONTINUOUS
 10
4.8811506868
 20
7.8022862257
 11
4.8811506868
 21
8.8613413438
  0
LINE
  5
5BA
100
AcDbEntity
  8
AXIS
100
AcDbLine
 62
7
  6
CONTINUOUS
 10
4.8811506868
 20
9.4046484304
 11
4.8811506868
 21
10.4637035485
  0
LINE
  5
5BB
100
AcDbEntity
  8
AXIS
100
AcDbLine
 62
7
  6
CONTINUOUS
 10
4.8811506868
 20
11.0070106351
 11
4.8811506868
 21
12.0660657532
  0
LINE
  5
5BC
100
AcDbEntity
  8
AXIS
100
AcDbLine
 62
7
  6
CONTINUOUS
 10
4.8811506868
 20
12.6093728399
 11
4.8811506868
 21
13.668427958
  0
LINE
  5
5BD
100
AcDbEntity
  8
AXIS
100
AcDbLine
 62
7
  6
CONTINUOUS
 10
4.8811506868
 20
14.2117350446
 11
4.8811506868
 21
15.2707901627
  0
LINE
  5
5BE
100
AcDbEntity
  8
0
100
AcDbLine
 62
7
  6
CONTINUOUS
 10
4.8811506868
 20
15.2707901627
 11
4.8858476832
 21
15.5398809034
  0
LINE
  5
5BF
100
AcDbEntity
  8
0
100
AcDbLine
 62
7
  6
CONTINUOUS
 10
6.8496546238
 20
9.4046484304
 11
4.8811506868
 21
9.4046484304
  0
LINE
  5
5C0
100
AcDbEntity
  8
AXIS
100
AcDbLine
 62
7
  6
CONTINUOUS
 10
4.8811506868
 20
9.4046484304
 11
6.8496546238
 21
9.4046484304
  0
LINE
  5
5C1
100
AcDbEntity
  8
0
100
AcDbLine
 62
7
  6
CONTINUOUS
 10
4.8811506868
 20
14.2117350446
 11
4.8858920559
 21
13.668427958
  0
LINE
  5
5C2
100
AcDbEntity
  8
02___PRT_ALL_AXES
100
AcDbLine
 62
7
  6
CONTINUOUS
 10
4.9795758837
 20
7.3928374068
 11
4.9795758837
 21
6.9597665407
  0
LINE
  5
5C3
100
AcDbEntity
  8
0
100
AcDbLine
 62
7
  6
CONTINUOUS
 10
5.2787884821
 20
6.6829456745
 11
5.2787884821
 21
6.6755637847
  0
LINE
  5
5C4
100
AcDbEntity
  8
0
100
AcDbLine
 62
7
  6
CONTINUOUS
 10
5.2787884821
 20
6.6238905564
 11
5.2787884821
 21
6.6165086666
  0
LINE
  5
5C5
100
AcDbEntity
  8
0
100
AcDbLine
 62
7
  6
CONTINUOUS
 10
5.2787884821
 20
6.5648354383
 11
5.2787884821
 21
6.5574535485
  0
LINE
  5
5C6
100
AcDbEntity
  8
0
100
AcDbLine
 62
7
  6
CONTINUOUS
 10
5.2787884821
 20
6.5057803202
 11
5.2787884821
 21
6.4983984304
  0
LINE
  5
5C7
100
AcDbEntity
  8
0
100
AcDbLine
 62
7
  6
CONTINUOUS
 10
5.2787884821
 20
6.4467252021
 11
5.2787884821
 21
6.4393433123
  0
LINE
  5
5C8
100
AcDbEntity
  8
0
100
AcDbLine
 62
7
  6
CONTINUOUS
 10
5.2787884821
 20
6.387670084
 11
5.2787884821
 21
6.3802881942
  0
LINE
  5
5C9
100
AcDbEntity
  8
0
100
AcDbLine
 62
7
  6
CONTINUOUS
 10
5.2787884821
 20
6.3286149658
 11
5.2787884821
 21
6.3212330761
  0
LINE
  5
5CA
100
AcDbEntity
  8
0
100
AcDbLine
 62
7
  6
CONTINUOUS
 10
5.2787884821
 20
6.2695598477
 11
5.2787884821
 21
6.262177958
  0
LINE
  5
5CB
100
AcDbEntity
  8
0
100
AcDbLine
 62
7
  6
CONTINUOUS
 10
5.2787884821
 20
6.2105047296
 11
5.2787884821
 21
6.2031228399
  0
LINE
  5
5CC
100
AcDbEntity
  8
0
100
AcDbLine
 62
7
  6
CONTINUOUS
 10
5.2787884821
 20
6.1514496115
 11
5.2787884821
 21
6.1440677218
  0
LINE
  5
5CD
100
AcDbEntity
  8
02___PRT_ALL_AXES
100
AcDbLine
 62
7
  6
CONTINUOUS
 10
5.3142215529
 20
6.7629161469
 11
5.3142215529
 21
6.7034029675
  0
LINE
  5
5CE
100
AcDbEntity
  8
02___PRT_ALL_AXES
100
AcDbLine
 62
7
  6
CONTINUOUS
 10
5.3142215529
 20
6.6551064917
 11
5.3142215529
 21
6.6443478494
  0
LINE
  5
5CF
100
AcDbEntity
  8
02___PRT_ALL_AXES
100
AcDbLine
 62
7
  6
CONTINUOUS
 10
5.3142215529
 20
6.5960513736
 11
5.3142215529
 21
6.5852927313
  0
LINE
  5
5D0
100
AcDbEntity
  8
02___PRT_ALL_AXES
100
AcDbLine
 62
7
  6
CONTINUOUS
 10
5.3142215529
 20
6.5369962555
 11
5.3142215529
 21
6.5262376132
  0
LINE
  5
5D1
100
AcDbEntity
  8
02___PRT_ALL_AXES
100
AcDbLine
 62
7
  6
CONTINUOUS
 10
5.3142215529
 20
6.4779411374
 11
5.3142215529
 21
6.4671824951
  0
LINE
  5
5D2
100
AcDbEntity
  8
02___PRT_ALL_AXES
100
AcDbLine
 62
7
  6
CONTINUOUS
 10
5.3142215529
 20
6.4188860193
 11
5.3142215529
 21
6.408127377
  0
LINE
  5
5D3
100
AcDbEntity
  8
02___PRT_ALL_AXES
100
AcDbLine
 62
7
  6
CONTINUOUS
 10
5.3142215529
 20
6.3598309012
 11
5.3142215529
 21
6.3490722589
  0
LINE
  5
5D4
100
AcDbEntity
  8
02___PRT_ALL_AXES
100
AcDbLine
 62
7
  6
CONTINUOUS
 10
5.3142215529
 20
6.3007757831
 11
5.3142215529
 21
6.2900171407
  0
LINE
  5
5D5
100
AcDbEntity
  8
02___PRT_ALL_AXES
100
AcDbLine
 62
7
  6
CONTINUOUS
 10
5.3142215529
 20
6.241720665
 11
5.3142215529
 21
6.2309620226
  0
LINE
  5
5D6
100
AcDbEntity
  8
02___PRT_ALL_AXES
100
AcDbLine
 62
7
  6
CONTINUOUS
 10
5.3142215529
 20
6.1826655469
 11
5.3142215529
 21
6.1719069045
  0
LINE
  5
5D7
100
AcDbEntity
  8
02___PRT_ALL_AXES
100
AcDbLine
 62
7
  6
CONTINUOUS
 10
5.3142215529
 20
6.1236104288
 11
5.3142215529
 21
6.0936248084
  0
LWPOLYLINE
  5
5D8
100
AcDbEntity
  8
0
100
AcDbPolyline
 62
7
  6
CONTINUOUS
 90
6
 70
0
 10
5.7617052759
 20
6.0936248084
 10
5.7618892931
 20
6.0814277053
 10
5.7624242526
 20
6.070442951
 10
5.7632612629
 20
6.0617436916
 10
5.7643234811
 20
6.0561711866
 10
5.7655119903
 20
6.0542547296
  0
LWPOLYLINE
  5
5D9
100
AcDbEntity
  8
0
100
AcDbPolyline
 62
7
  6
CONTINUOUS
 90
6
 70
0
 10
5.7617052759
 20
6.7629161469
 10
5.7615216954
 20
6.7751096613
 10
5.7609916289
 20
6.7860924835
 10
5.7601729024
 20
6.7947925481
 10
5.7591520942
 20
6.8003679279
 10
5.7580334416
 20
6.8022862257
  0
LINE
  5
5DA
100
AcDbEntity
  8
AXIS
100
AcDbLine
 62
7
  6
CONTINUOUS
 10
5.6291821829
 20
6.0522862257
 11
5.6291821829
 21
6.0503177218
  0
LINE
  5
5DB
100
AcDbEntity
  8
AXIS
100
AcDbLine
 62
7
  6
CONTINUOUS
 10
5.6291821829
 20
6.0129161469
 11
5.6291821829
 21
6.010947643
  0
LINE
  5
5DC
100
AcDbEntity
  8
AXIS
100
AcDbLine
 62
7
  6
CONTINUOUS
 10
5.6291821829
 20
5.9735460682
 11
5.6291821829
 21
5.9715775643
  0
LINE
  5
5DD
100
AcDbEntity
  8
AXIS
100
AcDbLine
 62
7
  6
CONTINUOUS
 10
5.6291821829
 20
5.9341759895
 11
5.6291821829
 21
5.9322074855
  0
LINE
  5
5DE
100
AcDbEntity
  8
AXIS
100
AcDbLine
 62
7
  6
CONTINUOUS
 10
5.6291821829
 20
5.8948059107
 11
5.6291821829
 21
5.8928374068
  0
LINE
  5
5DF
100
AcDbEntity
  8
AXIS
100
AcDbLine
 62
7
  6
CONTINUOUS
 10
5.6291821829
 20
5.855435832
 11
5.6291821829
 21
5.8534673281
  0
LINE
  5
5E0
100
AcDbEntity
  8
AXIS
100
AcDbLine
 62
7
  6
CONTINUOUS
 10
5.6291821829
 20
5.8160657532
 11
5.6291821829
 21
5.8140972493
  0
LINE
  5
5E1
100
AcDbEntity
  8
02___PRT_ALL_AXES
100
AcDbLine
 62
7
  6
CONTINUOUS
 10
5.6394187463
 20
6.1551145906
 11
5.6394187463
 21
6.1624964804
  0
LINE
  5
5E2
100
AcDbEntity
  8
02___PRT_ALL_AXES
100
AcDbLine
 62
7
  6
CONTINUOUS
 10
5.6394187463
 20
6.2141697087
 11
5.6394187463
 21
6.2215515985
  0
LINE
  5
5E3
100
AcDbEntity
  8
02___PRT_ALL_AXES
100
AcDbLine
 62
7
  6
CONTINUOUS
 10
5.6394187463
 20
6.2732248268
 11
5.6394187463
 21
6.2806067166
  0
LINE
  5
5E4
100
AcDbEntity
  8
02___PRT_ALL_AXES
100
AcDbLine
 62
7
  6
CONTINUOUS
 10
5.6394187463
 20
6.3322799449
 11
5.6394187463
 21
6.3396618347
  0
LINE
  5
5E5
100
AcDbEntity
  8
02___PRT_ALL_AXES
100
AcDbLine
 62
7
  6
CONTINUOUS
 10
5.6394187463
 20
6.391335063
 11
5.6394187463
 21
6.3987169528
  0
LINE
  5
5E6
100
AcDbEntity
  8
02___PRT_ALL_AXES
100
AcDbLine
 62
7
  6
CONTINUOUS
 10
5.6394187463
 20
6.4503901811
 11
5.6394187463
 21
6.4577720709
  0
LINE
  5
5E7
100
AcDbEntity
  8
02___PRT_ALL_AXES
100
AcDbLine
 62
7
  6
CONTINUOUS
 10
5.6394187463
 20
6.5094452993
 11
5.6394187463
 21
6.516827189
  0
LINE
  5
5E8
100
AcDbEntity
  8
02___PRT_ALL_AXES
100
AcDbLine
 62
7
  6
CONTINUOUS
 10
5.6394187463
 20
6.5685004174
 11
5.6394187463
 21
6.5758823071
  0
LINE
  5
5E9
100
AcDbEntity
  8
02___PRT_ALL_AXES
100
AcDbLine
 62
7
  6
CONTINUOUS
 10
5.6394187463
 20
6.6275555355
 11
5.6394187463
 21
6.6349374252
  0
LINE
  5
5EA
100
AcDbEntity
  8
02___PRT_ALL_AXES
100
AcDbLine
 62
7
  6
CONTINUOUS
 10
5.6394187463
 20
6.6866106536
 11
5.6394187463
 21
6.6939925433
  0
LINE
  5
5EB
100
AcDbEntity
  8
0
100
AcDbLine
 62
7
  6
CONTINUOUS
 10
5.6616624978
 20
5.7648846509
 11
5.6616624978
 21
5.7255145721
  0
LINE
  5
5EC
100
AcDbEntity
  8
0
100
AcDbLine
 62
7
  6
CONTINUOUS
 10
5.6803632852
 20
5.7668531548
 11
5.6803632852
 21
5.7648846509
  0
LINE
  5
5ED
100
AcDbEntity
  8
0
100
AcDbLine
 62
7
  6
CONTINUOUS
 10
5.7617052759
 20
6.7629161469
 11
5.7617052759
 21
6.7163878654
  0
LINE
  5
5EE
100
AcDbEntity
  8
02___PRT_ALL_AXES
100
AcDbLine
 62
7
  6
CONTINUOUS
 10
5.7617052759
 20
6.6680913896
 11
5.7617052759
 21
6.6573327473
  0
LINE
  5
5EF
100
AcDbEntity
  8
02___PRT_ALL_AXES
100
AcDbLine
 62
7
  6
CONTINUOUS
 10
5.7617052759
 20
6.6090362715
 11
5.7617052759
 21
6.5982776292
  0
LINE
  5
5F0
100
AcDbEntity
  8
02___PRT_ALL_AXES
100
AcDbLine
 62
7
  6
CONTINUOUS
 10
5.7617052759
 20
6.5499811534
 11
5.7617052759
 21
6.5392225111
  0
LINE
  5
5F1
100
AcDbEntity
  8
02___PRT_ALL_AXES
100
AcDbLine
 62
7
  6
CONTINUOUS
 10
5.7617052759
 20
6.4909260353
 11
5.7617052759
 21
6.4801673929
  0
LINE
  5
5F2
100
AcDbEntity
  8
02___PRT_ALL_AXES
100
AcDbLine
 62
7
  6
CONTINUOUS
 10
5.7617052759
 20
6.4318709172
 11
5.7617052759
 21
6.4211122748
  0
LINE
  5
5F3
100
AcDbEntity
  8
02___PRT_ALL_AXES
100
AcDbLine
 62
7
  6
CONTINUOUS
 10
5.7617052759
 20
6.3728157991
 11
5.7617052759
 21
6.3620571567
  0
LINE
  5
5F4
100
AcDbEntity
  8
02___PRT_ALL_AXES
100
AcDbLine
 62
7
  6
CONTINUOUS
 10
5.7617052759
 20
6.313760681
 11
5.7617052759
 21
6.3030020386
  0
LINE
  5
5F5
100
AcDbEntity
  8
02___PRT_ALL_AXES
100
AcDbLine
 62
7
  6
CONTINUOUS
 10
5.7617052759
 20
6.2547055628
 11
5.7617052759
 21
6.2439469205
  0
LINE
  5
5F6
100
AcDbEntity
  8
02___PRT_ALL_AXES
100
AcDbLine
 62
7
  6
CONTINUOUS
 10
5.7617052759
 20
6.1956504447
 11
5.7617052759
 21
6.1848918024
  0
LINE
  5
5F7
100
AcDbEntity
  8
0
100
AcDbLine
 62
7
  6
CONTINUOUS
 10
5.7617052759
 20
6.1365953266
 11
5.7617052759
 21
6.0936248084
  0
LINE
  5
5F8
100
AcDbEntity
  8
AXIS
100
AcDbLine
 62
7
  6
CONTINUOUS
 10
4.8811506868
 20
10.4637035485
 11
6.8496546238
 21
10.4637035485
  0
LINE
  5
5F9
100
AcDbEntity
  8
0
100
AcDbLine
 62
7
  6
CONTINUOUS
 10
5.9691000348
 20
6.7629161469
 11
5.9691000348
 21
6.7199456287
  0
LINE
  5
5FA
100
AcDbEntity
  8
02___PRT_ALL_AXES
100
AcDbLine
 62
7
  6
CONTINUOUS
 10
5.9691000348
 20
6.6716491529
 11
5.9691000348
 21
6.6608905106
  0
LINE
  5
5FB
100
AcDbEntity
  8
02___PRT_ALL_AXES
100
AcDbLine
 62
7
  6
CONTINUOUS
 10
5.9691000348
 20
6.6125940348
 11
5.9691000348
 21
6.6018353925
  0
LINE
  5
5FC
100
AcDbEntity
  8
02___PRT_ALL_AXES
100
AcDbLine
 62
7
  6
CONTINUOUS
 10
5.9691000348
 20
6.5535389167
 11
5.9691000348
 21
6.5427802744
  0
LINE
  5
5FD
100
AcDbEntity
  8
02___PRT_ALL_AXES
100
AcDbLine
 62
7
  6
CONTINUOUS
 10
5.9691000348
 20
6.4944837986
 11
5.9691000348
 21
6.4837251563
  0
LINE
  5
5FE
100
AcDbEntity
  8
02___PRT_ALL_AXES
100
AcDbLine
 62
7
  6
CONTINUOUS
 10
5.9691000348
 20
6.4354286805
 11
5.9691000348
 21
6.4246700381
  0
LINE
  5
5FF
100
AcDbEntity
  8
02___PRT_ALL_AXES
100
AcDbLine
 62
7
  6
CONTINUOUS
 10
5.9691000348
 20
6.3763735624
 11
5.9691000348
 21
6.36561492
  0
LINE
  5
600
100
AcDbEntity
  8
02___PRT_ALL_AXES
100
AcDbLine
 62
7
  6
CONTINUOUS
 10
5.9691000348
 20
6.3173184443
 11
5.9691000348
 21
6.3065598019
  0
LINE
  5
601
100
AcDbEntity
  8
02___PRT_ALL_AXES
100
AcDbLine
 62
7
  6
CONTINUOUS
 10
5.9691000348
 20
6.2582633262
 11
5.9691000348
 21
6.2475046838
  0
LINE
  5
602
100
AcDbEntity
  8
02___PRT_ALL_AXES
100
AcDbLine
 62
7
  6
CONTINUOUS
 10
5.9691000348
 20
6.199208208
 11
5.9691000348
 21
6.1884495657
  0
LINE
  5
603
100
AcDbEntity
  8
0
100
AcDbLine
 62
7
  6
CONTINUOUS
 10
5.9691000348
 20
6.1401530899
 11
5.9691000348
 21
6.0936248084
  0
LINE
  5
604
100
AcDbEntity
  8
0
100
AcDbLine
 62
7
  6
CONTINUOUS
 10
6.0504420254
 20
5.7668531548
 11
6.0504420254
 21
5.7648846509
  0
LINE
  5
605
100
AcDbEntity
  8
0
100
AcDbLine
 62
7
  6
CONTINUOUS
 10
6.0691428128
 20
5.7648846509
 11
6.0691428128
 21
5.7255145721
  0
LINE
  5
606
100
AcDbEntity
  8
02___PRT_ALL_AXES
100
AcDbLine
 62
7
  6
CONTINUOUS
 10
6.0913865643
 20
6.7014263647
 11
6.0913865643
 21
6.694044475
  0
LINE
  5
607
100
AcDbEntity
  8
02___PRT_ALL_AXES
100
AcDbLine
 62
7
  6
CONTINUOUS
 10
6.0913865643
 20
6.6423712466
 11
6.0913865643
 21
6.6349893569
  0
LINE
  5
608
100
AcDbEntity
  8
02___PRT_ALL_AXES
100
AcDbLine
 62
7
  6
CONTINUOUS
 10
6.0913865643
 20
6.5833161285
 11
6.0913865643
 21
6.5759342387
  0
LINE
  5
609
100
AcDbEntity
  8
02___PRT_ALL_AXES
100
AcDbLine
 62
7
  6
CONTINUOUS
 10
6.0913865643
 20
6.5242610104
 11
6.0913865643
 21
6.5168791206
  0
LINE
  5
60A
100
AcDbEntity
  8
02___PRT_ALL_AXES
100
AcDbLine
 62
7
  6
CONTINUOUS
 10
6.0913865643
 20
6.4652058923
 11
6.0913865643
 21
6.4578240025
  0
LINE
  5
60B
100
AcDbEntity
  8
02___PRT_ALL_AXES
100
AcDbLine
 62
7
  6
CONTINUOUS
 10
6.0913865643
 20
6.4061507742
 11
6.0913865643
 21
6.3987688844
  0
LINE
  5
60C
100
AcDbEntity
  8
02___PRT_ALL_AXES
100
AcDbLine
 62
7
  6
CONTINUOUS
 10
6.0913865643
 20
6.3470956561
 11
6.0913865643
 21
6.3397137663
  0
LINE
  5
60D
100
AcDbEntity
  8
02___PRT_ALL_AXES
100
AcDbLine
 62
7
  6
CONTINUOUS
 10
6.0913865643
 20
6.288040538
 11
6.0913865643
 21
6.2806586482
  0
LINE
  5
60E
100
AcDbEntity
  8
02___PRT_ALL_AXES
100
AcDbLine
 62
7
  6
CONTINUOUS
 10
6.0913865643
 20
6.2289854198
 11
6.0913865643
 21
6.2216035301
  0
LINE
  5
60F
100
AcDbEntity
  8
02___PRT_ALL_AXES
100
AcDbLine
 62
7
  6
CONTINUOUS
 10
6.0913865643
 20
6.1699303017
 11
6.0913865643
 21
6.162548412
  0
LINE
  5
610
100
AcDbEntity
  8
AXIS
100
AcDbLine
 62
7
  6
CONTINUOUS
 10
6.1016231277
 20
6.0326011863
 11
6.1016231277
 21
6.0306326824
  0
LINE
  5
611
100
AcDbEntity
  8
AXIS
100
AcDbLine
 62
7
  6
CONTINUOUS
 10
6.1016231277
 20
5.9932311076
 11
6.1016231277
 21
5.9912626036
  0
LINE
  5
612
100
AcDbEntity
  8
AXIS
100
AcDbLine
 62
7
  6
CONTINUOUS
 10
6.1016231277
 20
5.9538610288
 11
6.1016231277
 21
5.9518925249
  0
LINE
  5
613
100
AcDbEntity
  8
AXIS
100
AcDbLine
 62
7
  6
CONTINUOUS
 10
6.1016231277
 20
5.9144909501
 11
6.1016231277
 21
5.9125224462
  0
LINE
  5
614
100
AcDbEntity
  8
AXIS
100
AcDbLine
 62
7
  6
CONTINUOUS
 10
6.1016231277
 20
5.8751208714
 11
6.1016231277
 21
5.8731523674
  0
LINE
  5
615
100
AcDbEntity
  8
AXIS
100
AcDbLine
 62
7
  6
CONTINUOUS
 10
6.1016231277
 20
5.8357507926
 11
6.1016231277
 21
5.8337822887
  0
LINE
  5
616
100
AcDbEntity
  8
AXIS
100
AcDbLine
 62
7
  6
CONTINUOUS
 10
6.1016231277
 20
5.7963807139
 11
6.1016231277
 21
5.7944122099
  0
LWPOLYLINE
  5
617
100
AcDbEntity
  8
0
100
AcDbPolyline
 62
7
  6
CONTINUOUS
 90
6
 70
0
 10
5.9691000348
 20
6.7629161469
 10
5.9692836152
 20
6.7751096613
 10
5.9698136817
 20
6.7860924835
 10
5.9706324082
 20
6.7947925481
 10
5.9716532164
 20
6.8003679279
 10
5.972771869
 20
6.8022862257
  0
LWPOLYLINE
  5
618
100
AcDbEntity
  8
0
100
AcDbPolyline
 62
7
  6
CONTINUOUS
 90
6
 70
0
 10
5.9691000348
 20
6.0936248084
 10
5.9689160176
 20
6.0814277053
 10
5.968381058
 20
6.070442951
 10
5.9675440477
 20
6.0617436916
 10
5.9664818295
 20
6.0561711866
 10
5.9652933203
 20
6.0542547296
  0
LINE
  5
619
100
AcDbEntity
  8
0
100
AcDbLine
 62
7
  6
CONTINUOUS
 10
6.8496546238
 20
11.0070106351
 11
4.8811506868
 21
11.0070106351
  0
LINE
  5
61A
100
AcDbEntity
  8
AXIS
100
AcDbLine
 62
7
  6
CONTINUOUS
 10
4.8811506868
 20
11.0070106351
 11
6.8496546238
 21
11.0070106351
  0
LINE
  5
61B
100
AcDbEntity
  8
02___PRT_ALL_AXES
100
AcDbLine
 62
7
  6
CONTINUOUS
 10
6.4165837577
 20
6.7629161469
 11
6.4165837577
 21
6.7329305266
  0
LINE
  5
61C
100
AcDbEntity
  8
02___PRT_ALL_AXES
100
AcDbLine
 62
7
  6
CONTINUOUS
 10
6.4165837577
 20
6.6846340508
 11
6.4165837577
 21
6.6738754085
  0
LINE
  5
61D
100
AcDbEntity
  8
02___PRT_ALL_AXES
100
AcDbLine
 62
7
  6
CONTINUOUS
 10
6.4165837577
 20
6.6255789327
 11
6.4165837577
 21
6.6148202903
  0
LINE
  5
61E
100
AcDbEntity
  8
02___PRT_ALL_AXES
100
AcDbLine
 62
7
  6
CONTINUOUS
 10
6.4165837577
 20
6.5665238146
 11
6.4165837577
 21
6.5557651722
  0
LINE
  5
61F
100
AcDbEntity
  8
02___PRT_ALL_AXES
100
AcDbLine
 62
7
  6
CONTINUOUS
 10
6.4165837577
 20
6.5074686965
 11
6.4165837577
 21
6.4967100541
  0
LINE
  5
620
100
AcDbEntity
  8
02___PRT_ALL_AXES
100
AcDbLine
 62
7
  6
CONTINUOUS
 10
6.4165837577
 20
6.4484135784
 11
6.4165837577
 21
6.437654936
  0
LINE
  5
621
100
AcDbEntity
  8
02___PRT_ALL_AXES
100
AcDbLine
 62
7
  6
CONTINUOUS
 10
6.4165837577
 20
6.3893584602
 11
6.4165837577
 21
6.3785998179
  0
LINE
  5
622
100
AcDbEntity
  8
02___PRT_ALL_AXES
100
AcDbLine
 62
7
  6
CONTINUOUS
 10
6.4165837577
 20
6.3303033421
 11
6.4165837577
 21
6.3195446998
  0
LINE
  5
623
100
AcDbEntity
  8
02___PRT_ALL_AXES
100
AcDbLine
 62
7
  6
CONTINUOUS
 10
6.4165837577
 20
6.271248224
 11
6.4165837577
 21
6.2604895817
  0
LINE
  5
624
100
AcDbEntity
  8
02___PRT_ALL_AXES
100
AcDbLine
 62
7
  6
CONTINUOUS
 10
6.4165837577
 20
6.2121931059
 11
6.4165837577
 21
6.2014344636
  0
LINE
  5
625
100
AcDbEntity
  8
02___PRT_ALL_AXES
100
AcDbLine
 62
7
  6
CONTINUOUS
 10
6.4165837577
 20
6.1531379878
 11
6.4165837577
 21
6.0936248084
  0
LINE
  5
626
100
AcDbEntity
  8
0
100
AcDbLine
 62
7
  6
CONTINUOUS
 10
6.4520168285
 20
6.1735952808
 11
6.4520168285
 21
6.1809771706
  0
LINE
  5
627
100
AcDbEntity
  8
0
100
AcDbLine
 62
7
  6
CONTINUOUS
 10
6.4520168285
 20
6.2326503989
 11
6.4520168285
 21
6.2400322887
  0
LINE
  5
628
100
AcDbEntity
  8
0
100
AcDbLine
 62
7
  6
CONTINUOUS
 10
6.4520168285
 20
6.291705517
 11
6.4520168285
 21
6.2990874068
  0
LINE
  5
629
100
AcDbEntity
  8
0
100
AcDbLine
 62
7
  6
CONTINUOUS
 10
6.4520168285
 20
6.3507606351
 11
6.4520168285
 21
6.3581425249
  0
LINE
  5
62A
100
AcDbEntity
  8
0
100
AcDbLine
 62
7
  6
CONTINUOUS
 10
6.4520168285
 20
6.4098157532
 11
6.4520168285
 21
6.417197643
  0
LINE
  5
62B
100
AcDbEntity
  8
0
100
AcDbLine
 62
7
  6
CONTINUOUS
 10
6.4520168285
 20
6.4688708714
 11
6.4520168285
 21
6.4762527611
  0
LINE
  5
62C
100
AcDbEntity
  8
0
100
AcDbLine
 62
7
  6
CONTINUOUS
 10
6.4520168285
 20
6.5279259895
 11
6.4520168285
 21
6.5353078792
  0
LINE
  5
62D
100
AcDbEntity
  8
0
100
AcDbLine
 62
7
  6
CONTINUOUS
 10
6.4520168285
 20
6.5869811076
 11
6.4520168285
 21
6.5943629973
  0
LINE
  5
62E
100
AcDbEntity
  8
0
100
AcDbLine
 62
7
  6
CONTINUOUS
 10
6.4520168285
 20
6.6460362257
 11
6.4520168285
 21
6.6534181155
  0
LINE
  5
62F
100
AcDbEntity
  8
0
100
AcDbLine
 62
7
  6
CONTINUOUS
 10
6.4520168285
 20
6.7050913438
 11
6.4520168285
 21
6.7124732336
  0
LINE
  5
630
100
AcDbEntity
  8
02___PRT_ALL_AXES
100
AcDbLine
 62
7
  6
CONTINUOUS
 10
6.751229427
 20
7.3928374068
 11
6.751229427
 21
6.9597665407
  0
LINE
  5
631
100
AcDbEntity
  8
02___PRT_ALL_AXES
100
AcDbLine
 62
7
  6
CONTINUOUS
 10
6.8496546238
 20
7.8022862257
 11
6.8496546238
 21
7.4912626036
  0
LINE
  5
632
100
AcDbEntity
  8
AXIS
100
AcDbLine
 62
7
  6
CONTINUOUS
 10
6.8496546238
 20
7.8022862257
 11
6.8496546238
 21
8.8613413438
  0
LINE
  5
633
100
AcDbEntity
  8
AXIS
100
AcDbLine
 62
7
  6
CONTINUOUS
 10
6.8496546238
 20
9.4046484304
 11
6.8496546238
 21
10.4637035485
  0
LINE
  5
634
100
AcDbEntity
  8
AXIS
100
AcDbLine
 62
7
  6
CONTINUOUS
 10
6.8496546238
 20
11.0070106351
 11
6.8496546238
 21
12.0660657532
  0
LINE
  5
635
100
AcDbEntity
  8
AXIS
100
AcDbLine
 62
7
  6
CONTINUOUS
 10
6.8496546238
 20
12.6093728399
 11
6.8496546238
 21
13.668427958
  0
LINE
  5
636
100
AcDbEntity
  8
AXIS
100
AcDbLine
 62
7
  6
CONTINUOUS
 10
6.8496546238
 20
14.2117350446
 11
6.8496546238
 21
15.2707901627
  0
LINE
  5
637
100
AcDbEntity
  8
0
100
AcDbLine
 62
7
  6
CONTINUOUS
 10
6.8496546238
 20
14.2117350446
 11
6.8449132547
 21
13.668427958
  0
LINE
  5
638
100
AcDbEntity
  8
0
100
AcDbLine
 62
7
  6
CONTINUOUS
 10
6.8496546238
 20
12.6093728399
 11
6.8449132547
 21
12.0660657532
  0
LINE
  5
639
100
AcDbEntity
  8
0
100
AcDbLine
 62
7
  6
CONTINUOUS
 10
6.8496546238
 20
11.0070106351
 11
6.8449132547
 21
10.4637035485
  0
LINE
  5
63A
100
AcDbEntity
  8
0
100
AcDbLine
 62
7
  6
CONTINUOUS
 10
6.8496546238
 20
9.4046484304
 11
6.8449132547
 21
8.8613413438
  0
LINE
  5
63B
100
AcDbEntity
  8
0
100
AcDbLine
 62
7
  6
CONTINUOUS
 10
6.8496546238
 20
15.2707901627
 11
6.8449576275
 21
15.5398809034
  0
LINE
  5
63C
100
AcDbEntity
  8
0
100
AcDbLine
 62
7
  6
CONTINUOUS
 10
5.635421987
 20
5.780298316
 11
5.6354903156
 21
5.7804854305
  0
LINE
  5
63D
100
AcDbEntity
  8
AXIS
100
AcDbLine
 62
7
  6
CONTINUOUS
 10
4.8811506868
 20
12.0660657532
 11
6.8496546238
 21
12.0660657532
  0
LINE
  5
63E
100
AcDbEntity
  8
0
100
AcDbLine
 62
7
  6
CONTINUOUS
 10
6.8496546238
 20
12.6093728399
 11
4.8811506868
 21
12.6093728399
  0
LINE
  5
63F
100
AcDbEntity
  8
AXIS
100
AcDbLine
 62
7
  6
CONTINUOUS
 10
4.8811506868
 20
12.6093728399
 11
6.8496546238
 21
12.6093728399
  0
LINE
  5
640
100
AcDbEntity
  8
02___PRT_ALL_AXES
100
AcDbLine
 62
7
  6
CONTINUOUS
 10
5.2787884821
 20
6.6829456745
 11
5.2790142401
 21
6.6832064411
  0
LINE
  5
641
100
AcDbEntity
  8
02___PRT_ALL_AXES
100
AcDbLine
 62
7
  6
CONTINUOUS
 10
5.2787884821
 20
6.6238905564
 11
5.2790142401
 21
6.624151323
  0
LINE
  5
642
100
AcDbEntity
  8
02___PRT_ALL_AXES
100
AcDbLine
 62
7
  6
CONTINUOUS
 10
5.2787884821
 20
6.5648354383
 11
5.2790142401
 21
6.5650962049
  0
LINE
  5
643
100
AcDbEntity
  8
02___PRT_ALL_AXES
100
AcDbLine
 62
7
  6
CONTINUOUS
 10
5.2787884821
 20
6.5057803202
 11
5.2790142401
 21
6.5060410868
  0
LINE
  5
644
100
AcDbEntity
  8
02___PRT_ALL_AXES
100
AcDbLine
 62
7
  6
CONTINUOUS
 10
5.2787884821
 20
6.4467252021
 11
5.2790142401
 21
6.4469859686
  0
LINE
  5
645
100
AcDbEntity
  8
02___PRT_ALL_AXES
100
AcDbLine
 62
7
  6
CONTINUOUS
 10
5.2787884821
 20
6.387670084
 11
5.2790142401
 21
6.3879308505
  0
LINE
  5
646
100
AcDbEntity
  8
0
100
AcDbLine
 62
7
  6
CONTINUOUS
 10
5.6291821829
 20
6.0503177279
 11
5.6293825074
 21
6.0505757935
  0
LINE
  5
647
100
AcDbEntity
  8
02___PRT_ALL_AXES
100
AcDbLine
 62
7
  6
CONTINUOUS
 10
5.2787884821
 20
6.3286149658
 11
5.2790142401
 21
6.3288757324
  0
LINE
  5
648
100
AcDbEntity
  8
02___PRT_ALL_AXES
100
AcDbLine
 62
7
  6
CONTINUOUS
 10
5.2787884821
 20
6.2695598477
 11
5.2790142401
 21
6.2698206143
  0
LINE
  5
649
100
AcDbEntity
  8
02___PRT_ALL_AXES
100
AcDbLine
 62
7
  6
CONTINUOUS
 10
5.2787884821
 20
6.2105047296
 11
5.2790142401
 21
6.2107654962
  0
LINE
  5
64A
100
AcDbEntity
  8
02___PRT_ALL_AXES
100
AcDbLine
 62
7
  6
CONTINUOUS
 10
5.2787884821
 20
6.1514496115
 11
5.2790142401
 21
6.1517103781
  0
LINE
  5
64B
100
AcDbEntity
  8
0
100
AcDbLine
 62
7
  6
CONTINUOUS
 10
5.629431102
 20
6.0525739058
 11
5.6291821829
 21
6.0522862271
  0
LINE
  5
64C
100
AcDbEntity
  8
0
100
AcDbLine
 62
7
  6
CONTINUOUS
 10
5.629431102
 20
6.0132038271
 11
5.6291821829
 21
6.0129161531
  0
LINE
  5
64D
100
AcDbEntity
  8
0
100
AcDbLine
 62
7
  6
CONTINUOUS
 10
5.629431102
 20
5.9738337484
 11
5.6291821829
 21
5.9735460682
  0
LINE
  5
64E
100
AcDbEntity
  8
0
100
AcDbLine
 62
7
  6
CONTINUOUS
 10
5.629431102
 20
5.9344636696
 11
5.6291821829
 21
5.9341759679
  0
LINE
  5
64F
100
AcDbEntity
  8
0
100
AcDbLine
 62
7
  6
CONTINUOUS
 10
5.629431102
 20
5.8950935909
 11
5.6291821829
 21
5.8948059044
  0
LINE
  5
650
100
AcDbEntity
  8
0
100
AcDbLine
 62
7
  6
CONTINUOUS
 10
5.629431102
 20
5.8557235121
 11
5.6291821829
 21
5.8554358652
  0
LINE
  5
651
100
AcDbEntity
  8
0
100
AcDbLine
 62
7
  6
CONTINUOUS
 10
5.629431102
 20
5.8163534334
 11
5.6291821829
 21
5.8160657532
  0
LINE
  5
652
100
AcDbEntity
  8
02___PRT_ALL_AXES
100
AcDbLine
 62
7
  6
CONTINUOUS
 10
6.4517910705
 20
6.7048305772
 11
6.4520168285
 21
6.7050913438
  0
LINE
  5
653
100
AcDbEntity
  8
AXIS
100
AcDbLine
 62
7
  6
CONTINUOUS
 10
4.8811506868
 20
13.668427958
 11
6.8496546238
 21
13.668427958
  0
LINE
  5
654
100
AcDbEntity
  8
0
100
AcDbLine
 62
7
  6
CONTINUOUS
 10
6.1016231277
 20
5.8751208651
 11
6.1014224566
 21
5.8748625765
  0
LINE
  5
655
100
AcDbEntity
  8
0
100
AcDbLine
 62
7
  6
CONTINUOUS
 10
6.1013742086
 20
6.0303450022
 11
6.1016231277
 21
6.0306326906
  0
LINE
  5
656
100
AcDbEntity
  8
0
100
AcDbLine
 62
7
  6
CONTINUOUS
 10
6.1013742086
 20
5.9909749235
 11
6.1016231277
 21
5.9912626232
  0
LINE
  5
657
100
AcDbEntity
  8
0
100
AcDbLine
 62
7
  6
CONTINUOUS
 10
6.1013742086
 20
5.9516048447
 11
6.1016231277
 21
5.9518925249
  0
LINE
  5
658
100
AcDbEntity
  8
0
100
AcDbLine
 62
7
  6
CONTINUOUS
 10
6.1013742086
 20
5.912234766
 11
6.1016231277
 21
5.9125224399
  0
LINE
  5
659
100
AcDbEntity
  8
0
100
AcDbLine
 62
7
  6
CONTINUOUS
 10
6.1013742086
 20
5.8728646872
 11
6.1016231277
 21
5.8731523646
  0
LINE
  5
65A
100
AcDbEntity
  8
0
100
AcDbLine
 62
7
  6
CONTINUOUS
 10
6.1013742086
 20
5.8334946085
 11
6.1016231277
 21
5.833782262
  0
LINE
  5
65B
100
AcDbEntity
  8
0
100
AcDbLine
 62
7
  6
CONTINUOUS
 10
6.1013742086
 20
5.7941245298
 11
6.1016231277
 21
5.7944122486
  0
LINE
  5
65C
100
AcDbEntity
  8
02___PRT_ALL_AXES
100
AcDbLine
 62
7
  6
CONTINUOUS
 10
6.4517910705
 20
6.6457754591
 11
6.4520168285
 21
6.6460362257
  0
LINE
  5
65D
100
AcDbEntity
  8
02___PRT_ALL_AXES
100
AcDbLine
 62
7
  6
CONTINUOUS
 10
6.4517910705
 20
6.586720341
 11
6.4520168285
 21
6.5869811076
  0
LINE
  5
65E
100
AcDbEntity
  8
02___PRT_ALL_AXES
100
AcDbLine
 62
7
  6
CONTINUOUS
 10
6.4517910705
 20
6.5276652229
 11
6.4520168285
 21
6.5279259895
  0
LINE
  5
65F
100
AcDbEntity
  8
02___PRT_ALL_AXES
100
AcDbLine
 62
7
  6
CONTINUOUS
 10
6.4517910705
 20
6.4686101048
 11
6.4520168285
 21
6.4688708714
  0
LINE
  5
660
100
AcDbEntity
  8
02___PRT_ALL_AXES
100
AcDbLine
 62
7
  6
CONTINUOUS
 10
6.4517910705
 20
6.4095549867
 11
6.4520168285
 21
6.4098157532
  0
LINE
  5
661
100
AcDbEntity
  8
02___PRT_ALL_AXES
100
AcDbLine
 62
7
  6
CONTINUOUS
 10
6.4517910705
 20
6.3504998686
 11
6.4520168285
 21
6.3507606351
  0
LINE
  5
662
100
AcDbEntity
  8
02___PRT_ALL_AXES
100
AcDbLine
 62
7
  6
CONTINUOUS
 10
6.4517910705
 20
6.2914447505
 11
6.4520168285
 21
6.291705517
  0
LINE
  5
663
100
AcDbEntity
  8
02___PRT_ALL_AXES
100
AcDbLine
 62
7
  6
CONTINUOUS
 10
6.4517910705
 20
6.2323896323
 11
6.4520168285
 21
6.2326503989
  0
LINE
  5
664
100
AcDbEntity
  8
02___PRT_ALL_AXES
100
AcDbLine
 62
7
  6
CONTINUOUS
 10
6.4517910705
 20
6.1733345142
 11
6.4520168285
 21
6.1735952808
  0
LWPOLYLINE
  5
665
100
AcDbEntity
  8
02___PRT_ALL_AXES
100
AcDbPolyline
 62
7
  6
CONTINUOUS
 90
5
 70
0
 10
5.3142215529
 20
6.3007757734
 10
5.3148643964
 20
6.3012297669
 10
5.3261553778
 20
6.3027351784
 10
5.3507834196
 20
6.3042184113
 10
5.3880658186
 20
6.3056970429
  0
LINE
  5
666
100
AcDbEntity
  8
0
100
AcDbLine
 62
7
  6
CONTINUOUS
 10
5.3144618056
 20
6.7036804882
 11
5.2790142401
 21
6.6832064411
  0
LINE
  5
667
100
AcDbEntity
  8
0
100
AcDbLine
 62
7
  6
CONTINUOUS
 10
5.3144618056
 20
6.6446253701
 11
5.2790142401
 21
6.624151323
  0
LINE
  5
668
100
AcDbEntity
  8
0
100
AcDbLine
 62
7
  6
CONTINUOUS
 10
5.3144618056
 20
6.585570252
 11
5.2790142401
 21
6.5650962049
  0
LINE
  5
669
100
AcDbEntity
  8
0
100
AcDbLine
 62
7
  6
CONTINUOUS
 10
5.3144618056
 20
6.5265151339
 11
5.2790142401
 21
6.5060410868
  0
LINE
  5
66A
100
AcDbEntity
  8
0
100
AcDbLine
 62
7
  6
CONTINUOUS
 10
5.3144618056
 20
6.4674600158
 11
5.2790142401
 21
6.4469859686
  0
LINE
  5
66B
100
AcDbEntity
  8
0
100
AcDbLine
 62
7
  6
CONTINUOUS
 10
6.0819381582
 20
5.7668531548
 11
6.0829034499
 21
5.7678184462
  0
LWPOLYLINE
  5
66C
100
AcDbEntity
  8
02___PRT_ALL_AXES
100
AcDbPolyline
 62
7
  6
CONTINUOUS
 90
5
 70
0
 10
6.4165837577
 20
6.5557651812
 10
6.415940604
 20
6.5553110789
 10
6.4046480997
 20
6.5538056259
 10
6.3800184103
 20
6.5523223783
 10
6.342739492
 20
6.5508439124
  0
LINE
  5
66D
100
AcDbEntity
  8
0
100
AcDbLine
 62
7
  6
CONTINUOUS
 10
5.3144618056
 20
6.4084048977
 11
5.2790142401
 21
6.3879308505
  0
LINE
  5
66E
100
AcDbEntity
  8
0
100
AcDbLine
 62
7
  6
CONTINUOUS
 10
5.3144618056
 20
6.3493497795
 11
5.2790142401
 21
6.3288757324
  0
LINE
  5
66F
100
AcDbEntity
  8
0
100
AcDbLine
 62
7
  6
CONTINUOUS
 10
5.3144618056
 20
6.2902946614
 11
5.2790142401
 21
6.2698206143
  0
LINE
  5
670
100
AcDbEntity
  8
0
100
AcDbLine
 62
7
  6
CONTINUOUS
 10
5.3144618056
 20
6.2312395433
 11
5.2790142401
 21
6.2107654962
  0
LINE
  5
671
100
AcDbEntity
  8
0
100
AcDbLine
 62
7
  6
CONTINUOUS
 10
5.3144618056
 20
6.1721844252
 11
5.2790142401
 21
6.1517103781
  0
LINE
  5
672
100
AcDbEntity
  8
0
100
AcDbLine
 62
7
  6
CONTINUOUS
 10
6.416343505
 20
6.6843565301
 11
6.4517910705
 21
6.7048305772
  0
LWPOLYLINE
  5
673
100
AcDbEntity
  8
02___PRT_ALL_AXES
100
AcDbPolyline
 62
7
  6
CONTINUOUS
 90
5
 70
0
 10
5.2787884821
 20
6.3212330761
 10
5.2798529999
 20
6.3217993917
 10
5.2922571602
 20
6.3232510398
 10
5.3183061691
 20
6.3247026879
 10
5.3573798791
 20
6.3261543359
  0
LWPOLYLINE
  5
674
100
AcDbEntity
  8
02___PRT_ALL_AXES
100
AcDbPolyline
 62
7
  6
CONTINUOUS
 90
8
 70
0
 10
5.3142215531
 20
6.5960511834
 10
5.3159815075
 20
6.596802671
 10
5.330254757
 20
6.598323927
 10
5.3584509416
 20
6.5998423304
 10
5.4005445677
 20
6.6013828444
 10
5.4554092036
 20
6.602931293
 10
5.5207735029
 20
6.6044665703
 10
5.5942103638
 20
6.6059802685
  0
LWPOLYLINE
  5
675
100
AcDbEntity
  8
02___PRT_ALL_AXES
100
AcDbPolyline
 62
7
  6
CONTINUOUS
 90
10
 70
0
 10
5.314221553
 20
6.6551065295
 10
5.3160387897
 20
6.6558699243
 10
5.330593554
 20
6.6574030491
 10
5.3589444776
 20
6.6589188338
 10
5.4010896581
 20
6.6604552369
 10
5.4559143251
 20
6.661999289
 10
5.5211348687
 20
6.6635295817
 10
5.5947253839
 20
6.6650454714
 10
5.6758963099
 20
6.6665714362
 10
5.7617052759
 20
6.6680913896
  0
LWPOLYLINE
  5
676
100
AcDbEntity
  8
02___PRT_ALL_AXES
100
AcDbPolyline
 62
7
  6
CONTINUOUS
 90
10
 70
0
 10
5.3142215529
 20
6.4779411317
 10
5.3160389387
 20
6.4787046013
 10
5.3306337086
 20
6.4802405235
 10
5.3589318306
 20
6.4817529329
 10
5.4005487158
 20
6.4832727399
 10
5.4548284456
 20
6.4848062263
 10
5.5197135875
 20
6.4863331518
 10
5.5932808341
 20
6.4878518154
 10
5.6748840325
 20
6.4893876929
 10
5.7617052759
 20
6.4909260353
  0
LWPOLYLINE
  5
677
100
AcDbEntity
  8
02___PRT_ALL_AXES
100
AcDbPolyline
 62
7
  6
CONTINUOUS
 90
10
 70
0
 10
5.3142215529
 20
6.5369962494
 10
5.316130306
 20
6.5377786861
 10
5.3308879328
 20
6.539313472
 10
5.3594059856
 20
6.540828493
 10
5.4013176749
 20
6.542352212
 10
5.4551612512
 20
6.5438698463
 10
5.5193743549
 20
6.5453808406
 10
5.5928065751
 20
6.5468976313
 10
5.6745335002
 20
6.5484364402
 10
5.7617052759
 20
6.5499811534
  0
LWPOLYLINE
  5
678
100
AcDbEntity
  8
02___PRT_ALL_AXES
100
AcDbPolyline
 62
7
  6
CONTINUOUS
 90
6
 70
0
 10
5.3142215542
 20
6.418886643
 10
5.3161281338
 20
6.4196680042
 10
5.3305850157
 20
6.4211819748
 10
5.3589583378
 20
6.4226989603
 10
5.4012168692
 20
6.4242387887
 10
5.4562078097
 20
6.4257862898
  0
LWPOLYLINE
  5
679
100
AcDbEntity
  8
02___PRT_ALL_AXES
100
AcDbPolyline
 62
7
  6
CONTINUOUS
 90
8
 70
0
 10
5.2787884821
 20
6.6755637847
 10
5.280588351
 20
6.6763002427
 10
5.294921101
 20
6.6777731585
 10
5.323235331
 20
6.6792460744
 10
5.36483711
 20
6.6807189902
 10
5.4187068529
 20
6.682191906
 10
5.4835243091
 20
6.6836648219
 10
5.5577009188
 20
6.6851377377
  0
LWPOLYLINE
  5
67A
100
AcDbEntity
  8
02___PRT_ALL_AXES
100
AcDbPolyline
 62
7
  6
CONTINUOUS
 90
6
 70
0
 10
5.2787884821
 20
6.6165086666
 10
5.280588351
 20
6.6172451246
 10
5.294921101
 20
6.6187180404
 10
5.323235331
 20
6.6201909562
 10
5.36483711
 20
6.6216638721
 10
5.4187068529
 20
6.6231367879
  0
LWPOLYLINE
  5
67B
100
AcDbEntity
  8
02___PRT_ALL_AXES
100
AcDbPolyline
 62
7
  6
CONTINUOUS
 90
8
 70
0
 10
5.2787884821
 20
6.5574535485
 10
5.280588351
 20
6.5581900064
 10
5.294921101
 20
6.5596629223
 10
5.323235331
 20
6.5611358381
 10
5.36483711
 20
6.562608754
 10
5.4187068529
 20
6.5640816698
 10
5.4835243091
 20
6.5655545857
 10
5.5577009188
 20
6.5670275015
  0
LWPOLYLINE
  5
67C
100
AcDbEntity
  8
02___PRT_ALL_AXES
100
AcDbPolyline
 62
7
  6
CONTINUOUS
 90
9
 70
0
 10
5.2787884821
 20
6.4983984304
 10
5.280588351
 20
6.4991348883
 10
5.294921101
 20
6.5006078042
 10
5.323235331
 20
6.50208072
 10
5.36483711
 20
6.5035536359
 10
5.4187068529
 20
6.5050265517
 10
5.4835243091
 20
6.5064994676
 10
5.5577009188
 20
6.5079723834
 10
5.6394187463
 20
6.5094452993
  0
LWPOLYLINE
  5
67D
100
AcDbEntity
  8
02___PRT_ALL_AXES
100
AcDbPolyline
 62
7
  6
CONTINUOUS
 90
9
 70
0
 10
5.2787884821
 20
6.4393433123
 10
5.280588351
 20
6.4400797702
 10
5.294921101
 20
6.4415526861
 10
5.323235331
 20
6.4430256019
 10
5.36483711
 20
6.4444985178
 10
5.4187068529
 20
6.4459714336
 10
5.4835243091
 20
6.4474443495
 10
5.5577009188
 20
6.4489172653
 10
5.6394187463
 20
6.4503901811
  0
LWPOLYLINE
  5
67E
100
AcDbEntity
  8
02___PRT_ALL_AXES
100
AcDbPolyline
 62
7
  6
CONTINUOUS
 90
9
 70
0
 10
5.2790142401
 20
6.6832064411
 10
5.280588351
 20
6.6836821324
 10
5.294921101
 20
6.6851550483
 10
5.323235331
 20
6.6866279641
 10
5.36483711
 20
6.68810088
 10
5.4187068529
 20
6.6895737958
 10
5.4835243091
 20
6.6910467117
 10
5.5577009188
 20
6.6925196275
 10
5.6394187463
 20
6.6939925433
  0
LWPOLYLINE
  5
67F
100
AcDbEntity
  8
02___PRT_ALL_AXES
100
AcDbPolyline
 62
7
  6
CONTINUOUS
 90
9
 70
0
 10
5.2790142401
 20
6.624151323
 10
5.280588351
 20
6.6246270143
 10
5.294921101
 20
6.6260999302
 10
5.323235331
 20
6.627572846
 10
5.36483711
 20
6.6290457619
 10
5.4187068529
 20
6.6305186777
 10
5.4835243091
 20
6.6319915935
 10
5.5577009188
 20
6.6334645094
 10
5.6394187463
 20
6.6349374252
  0
LINE
  5
680
100
AcDbEntity
  8
0
100
AcDbLine
 62
7
  6
CONTINUOUS
 10
6.8496546238
 20
14.2117350446
 11
4.8811506868
 21
14.2117350446
  0
LINE
  5
681
100
AcDbEntity
  8
AXIS
100
AcDbLine
 62
7
  6
CONTINUOUS
 10
4.8811506868
 20
14.2117350446
 11
6.8496546238
 21
14.2117350446
  0
LINE
  5
682
100
AcDbEntity
  8
0
100
AcDbLine
 62
7
  6
CONTINUOUS
 10
5.6323391602
 20
6.0542547296
 11
5.629431102
 21
6.0525739058
  0
LINE
  5
683
100
AcDbEntity
  8
0
100
AcDbLine
 62
7
  6
CONTINUOUS
 10
5.6618612157
 20
6.0319502498
 11
5.629431102
 21
6.0132038271
  0
LINE
  5
684
100
AcDbEntity
  8
0
100
AcDbLine
 62
7
  6
CONTINUOUS
 10
5.6618612157
 20
5.992580171
 11
5.629431102
 21
5.9738337484
  0
LINE
  5
685
100
AcDbEntity
  8
0
100
AcDbLine
 62
7
  6
CONTINUOUS
 10
5.6618612157
 20
5.9532100923
 11
5.629431102
 21
5.9344636696
  0
LINE
  5
686
100
AcDbEntity
  8
0
100
AcDbLine
 62
7
  6
CONTINUOUS
 10
5.6618612157
 20
5.9138400135
 11
5.629431102
 21
5.8950935909
  0
LINE
  5
687
100
AcDbEntity
  8
0
100
AcDbLine
 62
7
  6
CONTINUOUS
 10
5.6618612157
 20
5.8744699348
 11
5.629431102
 21
5.8557235121
  0
LINE
  5
688
100
AcDbEntity
  8
0
100
AcDbLine
 62
7
  6
CONTINUOUS
 10
6.416343505
 20
6.625301412
 11
6.4517910705
 21
6.6457754591
  0
LINE
  5
689
100
AcDbEntity
  8
0
100
AcDbLine
 62
7
  6
CONTINUOUS
 10
6.416343505
 20
6.5662462939
 11
6.4517910705
 21
6.586720341
  0
LINE
  5
68A
100
AcDbEntity
  8
0
100
AcDbLine
 62
7
  6
CONTINUOUS
 10
6.416343505
 20
6.5071911758
 11
6.4517910705
 21
6.5276652229
  0
LINE
  5
68B
100
AcDbEntity
  8
0
100
AcDbLine
 62
7
  6
CONTINUOUS
 10
6.416343505
 20
6.4481360577
 11
6.4517910705
 21
6.4686101048
  0
LINE
  5
68C
100
AcDbEntity
  8
0
100
AcDbLine
 62
7
  6
CONTINUOUS
 10
6.416343505
 20
6.3890809396
 11
6.4517910705
 21
6.4095549867
  0
LINE
  5
68D
100
AcDbEntity
  8
0
100
AcDbLine
 62
7
  6
CONTINUOUS
 10
6.416343505
 20
6.3300258214
 11
6.4517910705
 21
6.3504998686
  0
LWPOLYLINE
  5
68E
100
AcDbEntity
  8
02___PRT_ALL_AXES
100
AcDbPolyline
 62
7
  6
CONTINUOUS
 90
8
 70
0
 10
6.4165837554
 20
6.6738762576
 10
6.4149354061
 20
6.6731483343
 10
6.4008269383
 20
6.6716226228
 10
6.372852183
 20
6.6701061385
 10
6.3310308591
 20
6.6685684286
 10
6.2764568399
 20
6.6670225961
 10
6.2113912359
 20
6.6654899533
 10
6.1379010776
 20
6.6639721168
  0
LWPOLYLINE
  5
68F
100
AcDbEntity
  8
02___PRT_ALL_AXES
100
AcDbPolyline
 62
7
  6
CONTINUOUS
 90
10
 70
0
 10
5.3142215552
 20
6.1826647033
 10
5.3158737197
 20
6.1833934624
 10
5.32998879
 20
6.1849190807
 10
5.3579732135
 20
6.1864356941
 10
5.3998058138
 20
6.1879735261
 10
5.4543951211
 20
6.1895195532
 10
5.5194809198
 20
6.1910524662
 10
5.5929548871
 20
6.1925698322
 10
5.6745866781
 20
6.1941066981
 10
5.7617052759
 20
6.1956504447
  0
LWPOLYLINE
  5
690
100
AcDbEntity
  8
02___PRT_ALL_AXES
100
AcDbPolyline
 62
7
  6
CONTINUOUS
 90
10
 70
0
 10
5.3142215538
 20
6.3598303711
 10
5.3160083734
 20
6.3605879142
 10
5.3304787014
 20
6.3621193488
 10
5.358760486
 20
6.363635284
 10
5.4006744308
 20
6.365166492
 10
5.4549677557
 20
6.36669955
 10
5.5193428702
 20
6.3682147965
 10
5.5927848397
 20
6.3697318505
 10
5.6745207453
 20
6.371270854
 10
5.7617052759
 20
6.3728157991
  0
LWPOLYLINE
  5
691
100
AcDbEntity
  8
02___PRT_ALL_AXES
100
AcDbPolyline
 62
7
  6
CONTINUOUS
 90
10
 70
0
 10
6.4165837569
 20
6.4967105393
 10
6.4147884545
 20
6.4959512453
 10
6.4002991214
 20
6.494419663
 10
6.3720019009
 20
6.4929038131
 10
6.3300826545
 20
6.4913729341
 10
6.2758067659
 20
6.4898406188
 10
6.2114567862
 20
6.488326035
 10
6.1380163551
 20
6.4868090241
 10
6.0562795756
 20
6.4852700106
 10
5.9691000348
 20
6.4837251563
  0
LWPOLYLINE
  5
692
100
AcDbEntity
  8
02___PRT_ALL_AXES
100
AcDbPolyline
 62
7
  6
CONTINUOUS
 90
10
 70
0
 10
6.4165837577
 20
6.7329305199
 10
6.4146777542
 20
6.7321486601
 10
6.3999099226
 20
6.7306127893
 10
6.3713883272
 20
6.7290978161
 10
6.3296921749
 20
6.7275810385
 10
6.276045895
 20
6.7260672022
 10
6.2116220313
 20
6.7245501283
 10
6.1381195945
 20
6.7230315222
 10
6.0563352845
 20
6.7214914957
 10
5.9691000348
 20
6.7199456287
  0
LWPOLYLINE
  5
693
100
AcDbEntity
  8
02___PRT_ALL_AXES
100
AcDbPolyline
 62
7
  6
CONTINUOUS
 90
10
 70
0
 10
5.3142215529
 20
6.1236104281
 10
5.3161296464
 20
6.124392724
 10
5.3309015771
 20
6.1259285984
 10
5.3594284166
 20
6.1274436308
 10
5.4011378514
 20
6.1289606988
 10
5.4547813302
 20
6.1304743134
 10
5.5191950009
 20
6.1319910839
 10
5.5926932663
 20
6.1335095813
 10
5.674471538
 20
6.1350494871
 10
5.7617052759
 20
6.1365953266
  0
LWPOLYLINE
  5
694
100
AcDbEntity
  8
02___PRT_ALL_AXES
100
AcDbPolyline
 62
7
  6
CONTINUOUS
 90
9
 70
0
 10
5.2787884821
 20
6.3802881942
 10
5.280588351
 20
6.3810246521
 10
5.294921101
 20
6.382497568
 10
5.323235331
 20
6.3839704838
 10
5.36483711
 20
6.3854433997
 10
5.4187068529
 20
6.3869163155
 10
5.4835243091
 20
6.3883892313
 10
5.5577009188
 20
6.3898621472
 10
5.6394187463
 20
6.391335063
  0
LWPOLYLINE
  5
695
100
AcDbEntity
  8
02___PRT_ALL_AXES
100
AcDbPolyline
 62
7
  6
CONTINUOUS
 90
9
 70
0
 10
5.2787884821
 20
6.262177958
 10
5.280588351
 20
6.2629144159
 10
5.294921101
 20
6.2643873317
 10
5.323235331
 20
6.2658602476
 10
5.36483711
 20
6.2673331634
 10
5.4187068529
 20
6.2688060793
 10
5.4835243091
 20
6.2702789951
 10
5.5577009188
 20
6.271751911
 10
5.6394187463
 20
6.2732248268
  0
LWPOLYLINE
  5
696
100
AcDbEntity
  8
02___PRT_ALL_AXES
100
AcDbPolyline
 62
7
  6
CONTINUOUS
 90
9
 70
0
 10
5.2787884821
 20
6.2031228399
 10
5.280588351
 20
6.2038592978
 10
5.294921101
 20
6.2053322136
 10
5.323235331
 20
6.2068051295
 10
5.36483711
 20
6.2082780453
 10
5.4187068529
 20
6.2097509612
 10
5.4835243091
 20
6.211223877
 10
5.5577009188
 20
6.2126967929
 10
5.6394187463
 20
6.2141697087
  0
LWPOLYLINE
  5
697
100
AcDbEntity
  8
02___PRT_ALL_AXES
100
AcDbPolyline
 62
7
  6
CONTINUOUS
 90
9
 70
0
 10
5.2787884821
 20
6.1440677218
 10
5.280588351
 20
6.1448041797
 10
5.294921101
 20
6.1462770955
 10
5.323235331
 20
6.1477500114
 10
5.36483711
 20
6.1492229272
 10
5.4187068529
 20
6.1506958431
 10
5.4835243091
 20
6.1521687589
 10
5.5577009188
 20
6.1536416747
 10
5.6394187463
 20
6.1551145906
  0
LWPOLYLINE
  5
698
100
AcDbEntity
  8
02___PRT_ALL_AXES
100
AcDbPolyline
 62
7
  6
CONTINUOUS
 90
10
 70
0
 10
5.314221555
 20
6.2417214707
 10
5.3161788931
 20
6.2425129971
 10
5.3307497952
 20
6.2440282097
 10
5.3591745126
 20
6.245542936
 10
5.4014530447
 20
6.2470808986
 10
5.4564244544
 20
6.2486264479
 10
5.5217951026
 20
6.2501581626
 10
5.5954484953
 20
6.2516737938
 10
5.6762748314
 20
6.2531924822
 10
5.7617052759
 20
6.2547055628
  0
LWPOLYLINE
  5
699
100
AcDbEntity
  8
02___PRT_ALL_AXES
100
AcDbPolyline
 62
7
  6
CONTINUOUS
 90
10
 70
0
 10
6.4165837555
 20
6.6148194657
 10
6.414621508
 20
6.6140269646
 10
6.4000493404
 20
6.6125123124
 10
6.3716191003
 20
6.6109975151
 10
6.3293335841
 20
6.6094594667
 10
6.2743581809
 20
6.6079139307
 10
6.2089872264
 20
6.6063822915
 10
6.1353370297
 20
6.6048667746
 10
6.0545314052
 20
6.6033484899
 10
5.9691000348
 20
6.6018353925
  0
LWPOLYLINE
  5
69A
100
AcDbEntity
  8
02___PRT_ALL_AXES
100
AcDbPolyline
 62
7
  6
CONTINUOUS
 90
5
 70
0
 10
5.2790142401
 20
6.3288757324
 10
5.2798529999
 20
6.3291812815
 10
5.2922571602
 20
6.3306329296
 10
5.3183061691
 20
6.3320845776
 10
5.3573798791
 20
6.3335362257
  0
LWPOLYLINE
  5
69B
100
AcDbEntity
  8
02___PRT_ALL_AXES
100
AcDbPolyline
 62
7
  6
CONTINUOUS
 90
9
 70
0
 10
5.2790142401
 20
6.5650962049
 10
5.280588351
 20
6.5655718962
 10
5.294921101
 20
6.5670448121
 10
5.323235331
 20
6.5685177279
 10
5.36483711
 20
6.5699906437
 10
5.4187068529
 20
6.5714635596
 10
5.4835243091
 20
6.5729364754
 10
5.5577009188
 20
6.5744093913
 10
5.6394187463
 20
6.5758823071
  0
LWPOLYLINE
  5
69C
100
AcDbEntity
  8
02___PRT_ALL_AXES
100
AcDbPolyline
 62
7
  6
CONTINUOUS
 90
9
 70
0
 10
5.2790142401
 20
6.5060410868
 10
5.280588351
 20
6.5065167781
 10
5.294921101
 20
6.5079896939
 10
5.323235331
 20
6.5094626098
 10
5.36483711
 20
6.5109355256
 10
5.4187068529
 20
6.5124084415
 10
5.4835243091
 20
6.5138813573
 10
5.5577009188
 20
6.5153542732
 10
5.6394187463
 20
6.516827189
  0
LWPOLYLINE
  5
69D
100
AcDbEntity
  8
02___PRT_ALL_AXES
100
AcDbPolyline
 62
7
  6
CONTINUOUS
 90
9
 70
0
 10
5.2790142401
 20
6.4469859686
 10
5.280588351
 20
6.44746166
 10
5.294921101
 20
6.4489345758
 10
5.323235331
 20
6.4504074917
 10
5.36483711
 20
6.4518804075
 10
5.4187068529
 20
6.4533533234
 10
5.4835243091
 20
6.4548262392
 10
5.5577009188
 20
6.4562991551
 10
5.6394187463
 20
6.4577720709
  0
LWPOLYLINE
  5
69E
100
AcDbEntity
  8
02___PRT_ALL_AXES
100
AcDbPolyline
 62
7
  6
CONTINUOUS
 90
9
 70
0
 10
5.2790142401
 20
6.3879308505
 10
5.280588351
 20
6.3884065419
 10
5.294921101
 20
6.3898794577
 10
5.323235331
 20
6.3913523736
 10
5.36483711
 20
6.3928252894
 10
5.4187068529
 20
6.3942982053
 10
5.4835243091
 20
6.3957711211
 10
5.5577009188
 20
6.3972440369
 10
5.6394187463
 20
6.3987169528
  0
LWPOLYLINE
  5
69F
100
AcDbEntity
  8
02___PRT_ALL_AXES
100
AcDbPolyline
 62
7
  6
CONTINUOUS
 90
9
 70
0
 10
5.2790142401
 20
6.2698206143
 10
5.280588351
 20
6.2702963057
 10
5.294921101
 20
6.2717692215
 10
5.323235331
 20
6.2732421373
 10
5.36483711
 20
6.2747150532
 10
5.4187068529
 20
6.276187969
 10
5.4835243091
 20
6.2776608849
 10
5.5577009188
 20
6.2791338007
 10
5.6394187463
 20
6.2806067166
  0
LINE
  5
6A0
100
AcDbEntity
  8
0
100
AcDbLine
 62
7
  6
CONTINUOUS
 10
5.6618612157
 20
5.8350998561
 11
5.629431102
 21
5.8163534334
  0
LINE
  5
6A1
100
AcDbEntity
  8
0
100
AcDbLine
 62
7
  6
CONTINUOUS
 10
6.068944095
 20
6.0509686583
 11
6.0746280429
 21
6.0542547296
  0
LINE
  5
6A2
100
AcDbEntity
  8
0
100
AcDbLine
 62
7
  6
CONTINUOUS
 10
5.6618612157
 20
5.7957297773
 11
5.6354903156
 21
5.7804854305
  0
LINE
  5
6A3
100
AcDbEntity
  8
0
100
AcDbLine
 62
7
  6
CONTINUOUS
 10
6.068944095
 20
6.0115985796
 11
6.1013742086
 21
6.0303450022
  0
LINE
  5
6A4
100
AcDbEntity
  8
0
100
AcDbLine
 62
7
  6
CONTINUOUS
 10
6.068944095
 20
5.9722285009
 11
6.1013742086
 21
5.9909749235
  0
LINE
  5
6A5
100
AcDbEntity
  8
0
100
AcDbLine
 62
7
  6
CONTINUOUS
 10
6.068944095
 20
5.9328584221
 11
6.1013742086
 21
5.9516048447
  0
LINE
  5
6A6
100
AcDbEntity
  8
0
100
AcDbLine
 62
7
  6
CONTINUOUS
 10
6.068944095
 20
5.8934883434
 11
6.1013742086
 21
5.912234766
  0
LINE
  5
6A7
100
AcDbEntity
  8
0
100
AcDbLine
 62
7
  6
CONTINUOUS
 10
6.068944095
 20
5.8541182646
 11
6.1013742086
 21
5.8728646872
  0
LINE
  5
6A8
100
AcDbEntity
  8
0
100
AcDbLine
 62
7
  6
CONTINUOUS
 10
6.068944095
 20
5.8147481859
 11
6.1013742086
 21
5.8334946085
  0
LINE
  5
6A9
100
AcDbEntity
  8
0
100
AcDbLine
 62
7
  6
CONTINUOUS
 10
6.068944095
 20
5.7753781072
 11
6.1013742086
 21
5.7941245298
  0
LINE
  5
6AA
100
AcDbEntity
  8
0
100
AcDbLine
 62
7
  6
CONTINUOUS
 10
6.416343505
 20
6.2709707033
 11
6.4517910705
 21
6.2914447505
  0
LINE
  5
6AB
100
AcDbEntity
  8
0
100
AcDbLine
 62
7
  6
CONTINUOUS
 10
6.416343505
 20
6.2119155852
 11
6.4517910705
 21
6.2323896323
  0
LINE
  5
6AC
100
AcDbEntity
  8
0
100
AcDbLine
 62
7
  6
CONTINUOUS
 10
6.416343505
 20
6.1528604671
 11
6.4517910705
 21
6.1733345142
  0
LWPOLYLINE
  5
6AD
100
AcDbEntity
  8
0
100
AcDbPolyline
 62
7
  6
CONTINUOUS
 90
9
 70
0
 10
5.6618612157
 20
5.8744699348
 10
5.6623485306
 20
5.874683426
 10
5.6682146447
 20
5.8757405856
 10
5.6796803757
 20
5.8767977451
 10
5.6964201271
 20
5.8778549046
 10
5.7179585343
 20
5.8789120641
 10
5.7436839638
 20
5.8799692236
 10
5.7728658814
 20
5.8810263832
 10
5.8046755981
 20
5.8820835427
  0
LWPOLYLINE
  5
6AE
100
AcDbEntity
  8
02___PRT_ALL_AXES
100
AcDbPolyline
 62
7
  6
CONTINUOUS
 90
6
 70
0
 10
6.4165837575
 20
6.2604898082
 10
6.4148294431
 20
6.2597394897
 10
6.4005639044
 20
6.2582179793
 10
6.3723755434
 20
6.256699545
 10
6.3302888395
 20
6.2551590026
 10
6.2754328966
 20
6.253610601
  0
LWPOLYLINE
  5
6AF
100
AcDbEntity
  8
02___PRT_ALL_AXES
100
AcDbPolyline
 62
7
  6
CONTINUOUS
 90
10
 70
0
 10
6.4165837577
 20
6.3785998141
 10
6.4147664783
 20
6.3778363764
 10
6.4001736649
 20
6.3763005771
 10
6.3718806119
 20
6.3747883307
 10
6.3302417332
 20
6.3732677438
 10
6.2759377032
 20
6.3717337281
 10
6.2110389195
 20
6.3702066475
 10
6.1374687569
 20
6.3686880474
 10
6.0558795695
 20
6.3671525045
 10
5.9691000348
 20
6.36561492
  0
LWPOLYLINE
  5
6B0
100
AcDbEntity
  8
02___PRT_ALL_AXES
100
AcDbPolyline
 62
7
  6
CONTINUOUS
 90
10
 70
0
 10
6.4165837576
 20
6.2014343794
 10
6.4147593256
 20
6.2006695203
 10
6.4002023137
 20
6.1991372407
 10
6.3718517816
 20
6.1976217304
 10
6.329697007
 20
6.1960851284
 10
6.2748629601
 20
6.1945409524
 10
6.2096350244
 20
6.1930106003
 10
6.1360382429
 20
6.191494668
 10
6.0548747753
 20
6.1899688976
 10
5.9691000348
 20
6.1884495657
  0
LWPOLYLINE
  5
6B1
100
AcDbEntity
  8
02___PRT_ALL_AXES
100
AcDbPolyline
 62
7
  6
CONTINUOUS
 90
10
 70
0
 10
6.4165837566
 20
6.4376543442
 10
6.4146845322
 20
6.4368744618
 10
6.400236511
 20
6.4353601242
 10
6.3718690358
 20
6.4338429485
 10
6.3296129336
 20
6.4323029412
 10
6.2746239706
 20
6.4307553393
 10
6.2091922334
 20
6.4292214088
 10
6.1355642231
 20
6.4277058643
 10
6.0550496033
 20
6.426192545
 10
5.9691000348
 20
6.4246700381
  0
LWPOLYLINE
  5
6B2
100
AcDbEntity
  8
02___PRT_ALL_AXES
100
AcDbPolyline
 62
7
  6
CONTINUOUS
 90
10
 70
0
 10
6.4165837577
 20
6.3195446963
 10
6.4146746211
 20
6.3187621906
 10
6.3999160445
 20
6.3172273902
 10
6.3713969967
 20
6.3157123622
 10
6.3294915444
 20
6.3141888668
 10
6.2756699188
 20
6.3126717693
 10
6.2114492531
 20
6.3111605156
 10
6.1380102784
 20
6.3096435505
 10
6.0562754585
 20
6.3081045814
 10
5.9691000348
 20
6.3065598019
  0
LINE
  5
6B3
100
AcDbEntity
  8
0
100
AcDbLine
 62
7
  6
CONTINUOUS
 10
5.6291821829
 20
5.9715775427
 11
5.6320227842
 21
5.9725502756
  0
LINE
  5
6B4
100
AcDbEntity
  8
0
100
AcDbLine
 62
7
  6
CONTINUOUS
 10
5.6291821829
 20
5.9322074792
 11
5.6320485161
 21
5.9331846015
  0
LINE
  5
6B5
100
AcDbEntity
  8
0
100
AcDbLine
 62
7
  6
CONTINUOUS
 10
5.6291821829
 20
6.010947643
 11
5.6321710743
 21
6.0119454734
  0
LWPOLYLINE
  5
6B6
100
AcDbEntity
  8
02___PRT_ALL_AXES
100
AcDbPolyline
 62
7
  6
CONTINUOUS
 90
6
 70
0
 10
5.2790142401
 20
6.2107654962
 10
5.280588351
 20
6.2112411875
 10
5.294921101
 20
6.2127141034
 10
5.323235331
 20
6.2141870192
 10
5.36483711
 20
6.2156599351
 10
5.4187068529
 20
6.2171328509
  0
LWPOLYLINE
  5
6B7
100
AcDbEntity
  8
02___PRT_ALL_AXES
100
AcDbPolyline
 62
7
  6
CONTINUOUS
 90
9
 70
0
 10
5.2790142401
 20
6.1517103781
 10
5.280588351
 20
6.1521860694
 10
5.294921101
 20
6.1536589853
 10
5.323235331
 20
6.1551319011
 10
5.36483711
 20
6.156604817
 10
5.4187068529
 20
6.1580777328
 10
5.4835243091
 20
6.1595506487
 10
5.5577009188
 20
6.1610235645
 10
5.6394187463
 20
6.1624964804
  0
LINE
  5
6B8
100
AcDbEntity
  8
0
100
AcDbLine
 62
7
  6
CONTINUOUS
 10
6.1016231277
 20
5.9538610484
 11
6.0987816497
 21
5.9528881671
  0
LINE
  5
6B9
100
AcDbEntity
  8
0
100
AcDbLine
 62
7
  6
CONTINUOUS
 10
6.1016231277
 20
5.9932311158
 11
6.0987584695
 21
5.9922542777
  0
LWPOLYLINE
  5
6BA
100
AcDbEntity
  8
0
100
AcDbPolyline
 62
7
  6
CONTINUOUS
 90
9
 70
0
 10
5.6618612157
 20
5.8350998561
 10
5.6632401526
 20
5.8355685237
 10
5.6704792878
 20
5.8366256833
 10
5.68325373
 20
5.8376828428
 10
5.7012007189
 20
5.8387400023
 10
5.7238106074
 20
5.8397971618
 10
5.7504413348
 20
5.8408543213
 10
5.7803366589
 20
5.8419114809
 10
5.8126476318
 20
5.8429686404
  0
LINE
  5
6BB
100
AcDbEntity
  8
0
100
AcDbLine
 62
7
  6
CONTINUOUS
 10
6.1016231277
 20
5.7963806872
 11
6.098705243
 21
5.7953948322
  0
LINE
  5
6BC
100
AcDbEntity
  8
0
100
AcDbLine
 62
7
  6
CONTINUOUS
 10
5.6291821829
 20
5.853467328
 11
5.632117266
 21
5.8544561169
  0
LINE
  5
6BD
100
AcDbEntity
  8
0
100
AcDbLine
 62
7
  6
CONTINUOUS
 10
5.6291821829
 20
5.8140972493
 11
5.6321594949
 21
5.8150931408
  0
LINE
  5
6BE
100
AcDbEntity
  8
0
100
AcDbLine
 62
7
  6
CONTINUOUS
 10
6.1016231277
 20
5.8357507898
 11
6.0986402442
 21
5.8347539677
  0
LINE
  5
6BF
100
AcDbEntity
  8
0
100
AcDbLine
 62
7
  6
CONTINUOUS
 10
6.1016231277
 20
5.91449095
 11
6.0986342298
 21
5.9134931187
  0
LINE
  5
6C0
100
AcDbEntity
  8
0
100
AcDbLine
 62
7
  6
CONTINUOUS
 10
5.6291821829
 20
5.89283744
 11
5.6321792666
 21
5.8938366066
  0
LINE
  5
6C1
100
AcDbEntity
  8
0
100
AcDbLine
 62
7
  6
CONTINUOUS
 10
6.1016231277
 20
6.0326011514
 11
6.0986287694
 21
6.0316024419
  0
LWPOLYLINE
  5
6C2
100
AcDbEntity
  8
0
100
AcDbPolyline
 62
7
  6
CONTINUOUS
 90
9
 70
0
 10
5.6354903156
 20
5.7804854305
 10
5.6360901166
 20
5.7806771362
 10
5.6421410111
 20
5.7813301973
 10
5.654255934
 20
5.781982769
 10
5.6721294866
 20
5.7826348848
 10
5.6952998074
 20
5.7832865377
 10
5.7231620141
 20
5.7839377392
 10
5.754983528
 20
5.7845884913
 10
5.7899253147
 20
5.7852388214
  0
LINE
  5
6C3
100
AcDbEntity
  8
AXIS
100
AcDbLine
 62
7
  6
CONTINUOUS
 10
4.8811506868
 20
15.2707901627
 11
6.8496546238
 21
15.2707901627
  0
LINE
  5
6C4
100
AcDbEntity
  8
0
100
AcDbLine
 62
7
  6
CONTINUOUS
 10
4.8811506868
 20
15.2707901627
 11
6.8496546238
 21
15.2707901627
  0
LINE
  5
6C5
100
AcDbEntity
  8
0
100
AcDbLine
 62
9
  6
CONTINUOUS
 10
4.8858476832
 20
15.5398809034
 11
6.8449576275
 21
15.5398809034
  0
LINE
  5
6C6
100
AcDbEntity
  8
0
100
AcDbLine
 62
7
  6
CONTINUOUS
 10
4.9645758485
 20
15.6172468556
 11
6.7662294625
 21
15.6172468556
  0
LWPOLYLINE
  5
6C7
100
AcDbEntity
  8
0
100
AcDbPolyline
 62
7
  6
CONTINUOUS
 90
8
 70
0
 10
17.0991604403
 20
4.9903014302
 10
17.0714731294
 20
4.9831257765
 10
17.0425057542
 20
4.9782994038
 10
17.0134396653
 20
4.9759124212
 10
16.9858269782
 20
4.9758062712
 10
16.9597937513
 20
4.9776403734
 10
16.9350753921
 20
4.9812120967
 10
16.9264122406
 20
4.9831410264
  0
LWPOLYLINE
  5
6C8
100
AcDbEntity
  8
02___PRT_ALL_AXES
100
AcDbPolyline
 62
7
  6
CONTINUOUS
 90
14
 70
0
 10
16.764398097
 20
5.1072049619
 10
16.8518113903
 20
5.0921537378
 10
16.9425473563
 20
5.0851781643
 10
17.0343822191
 20
5.0864786748
 10
17.1250652709
 20
5.0960528707
 10
17.2123740325
 20
5.1136955801
 10
17.294168723
 20
5.1390038864
 10
17.3684447009
 20
5.1713870028
 10
17.4333815954
 20
5.2100807519
 10
17.4873879196
 20
5.2541662937
 10
17.5291400752
 20
5.3025926452
 10
17.5576147919
 20
5.3542024379
 10
17.5721142053
 20
5.4077602828
 10
17.5739994394
 20
5.4355062091
  0
LWPOLYLINE
  5
6C9
100
AcDbEntity
  8
02___PRT_ALL_AXES
100
AcDbPolyline
 62
7
  6
CONTINUOUS
 90
13
 70
0
 10
16.764398097
 20
5.1132322928
 10
16.8518113903
 20
5.0981810686
 10
16.9425473563
 20
5.0912054951
 10
17.0343822191
 20
5.0925060057
 10
17.1250652709
 20
5.1020802015
 10
17.2123740325
 20
5.1197229109
 10
17.294168723
 20
5.1450312172
 10
17.3684447009
 20
5.1774143337
 10
17.4333815954
 20
5.2161080827
 10
17.4873879196
 20
5.2601936245
 10
17.5291400752
 20
5.308619976
 10
17.5576147919
 20
5.3602297687
 10
17.5721142053
 20
5.4137876136
  0
LWPOLYLINE
  5
6CA
100
AcDbEntity
  8
0
100
AcDbPolyline
 62
7
  6
CONTINUOUS
 90
3
 70
0
 10
16.8516683895
 20
5.0394304183
 10
16.7658221445
 20
5.057040503
 10
16.686765607
 20
5.0825754569
  0
LWPOLYLINE
  5
6CB
100
AcDbEntity
  8
0
100
AcDbPolyline
 62
7
  6
CONTINUOUS
 90
11
 70
0
 10
16.8801417341
 20
4.9919308229
 10
16.9143531787
 20
4.9845503216
 10
16.9500419803
 20
4.9803795115
 10
16.9869928799
 20
4.9794684605
 10
17.0244095369
 20
4.9819675629
 10
17.0608821707
 20
4.9878646743
 10
17.0950822977
 20
4.9968975635
 10
17.1265382306
 20
5.0088744036
 10
17.1547261487
 20
5.0236272307
 10
17.178630032
 20
5.0406316725
 10
17.1916290779
 20
5.0534260838
  0
LINE
  5
6CC
100
AcDbEntity
  8
0
100
AcDbLine
 62
7
  6
CONTINUOUS
 10
16.9137906477
 20
4.9862508259
 11
16.8797095711
 21
4.9936550558
  0
LWPOLYLINE
  5
6CD
100
AcDbEntity
  8
02___PRT_ALL_AXES
100
AcDbPolyline
 62
7
  6
CONTINUOUS
 90
7
 70
0
 10
17.1392145454
 20
5.3876360649
 10
17.2245741289
 20
5.406200196
 10
17.3042869679
 20
5.4321387133
 10
17.3764553426
 20
5.4648623174
 10
17.4393611436
 20
5.5036201769
 10
17.4915067756
 20
5.5475178028
 10
17.5316508098
 20
5.5955383442
  0
LWPOLYLINE
  5
6CE
100
AcDbEntity
  8
02___PRT_ALL_AXES
100
AcDbPolyline
 62
7
  6
CONTINUOUS
 90
8
 70
0
 10
17.1392145454
 20
5.3936633957
 10
17.2245741289
 20
5.4122275268
 10
17.3042869679
 20
5.4381660441
 10
17.3764553426
 20
5.4708896483
 10
17.4393611436
 20
5.5096475077
 10
17.4915067756
 20
5.5535451336
 10
17.5316508098
 20
5.601565675
 10
17.539701182
 20
5.616675916
  0
LWPOLYLINE
  5
6CF
100
AcDbEntity
  8
02___PRT_ALL_AXES
100
AcDbPolyline
 62
7
  6
CONTINUOUS
 90
5
 70
0
 10
17.1920529143
 20
5.3947269543
 10
17.1063554063
 20
5.3782263784
 10
17.0174245672
 20
5.3699469303
 10
16.9287308963
 20
5.3700442659
 10
16.8414197864
 20
5.3783600842
  0
LWPOLYLINE
  5
6D0
100
AcDbEntity
  8
02___PRT_ALL_AXES
100
AcDbPolyline
 62
7
  6
CONTINUOUS
 90
5
 70
0
 10
17.1300436494
 20
5.430126748
 10
17.0532454599
 20
5.420473251
 10
16.974743259
 20
5.4171818596
 10
16.8969811327
 20
5.4203193384
 10
16.820604771
 20
5.4298327095
  0
LINE
  5
6D1
100
AcDbEntity
  8
02___PRT_ALL_AXES
100
AcDbLine
 62
7
  6
CONTINUOUS
 10
17.0452891265
 20
5.382526467
 11
17.1392145454
 21
5.3936633957
  0
LWPOLYLINE
  5
6D2
100
AcDbEntity
  8
02___PRT_ALL_AXES
100
AcDbPolyline
 62
7
  6
CONTINUOUS
 90
5
 70
0
 10
16.764398097
 20
5.396516842
 10
16.8553654779
 20
5.3810326904
 10
16.949829904
 20
5.374289542
 10
17.0452891265
 20
5.3764991362
 10
17.1392145454
 20
5.3876360649
  0
LWPOLYLINE
  5
6D3
100
AcDbEntity
  8
02___PRT_ALL_AXES
100
AcDbPolyline
 62
7
  6
CONTINUOUS
 90
4
 70
0
 10
16.764398097
 20
5.4025441728
 10
16.8553654779
 20
5.3870600212
 10
16.949829904
 20
5.3803168729
 10
17.0452891265
 20
5.382526467
  0
LWPOLYLINE
  5
6D4
100
AcDbEntity
  8
02___PRT_ALL_AXES
100
AcDbPolyline
 62
7
  6
CONTINUOUS
 90
11
 70
0
 10
16.764398097
 20
5.1554236086
 10
16.8518113903
 20
5.1403723845
 10
16.9425473563
 20
5.133396811
 10
17.0343822191
 20
5.1346973215
 10
17.1250652709
 20
5.1442715174
 10
17.2123740325
 20
5.1619142268
 10
17.294168723
 20
5.187222533
 10
17.3684447009
 20
5.2196056495
 10
17.4333815954
 20
5.2582993986
 10
17.4873879196
 20
5.3023849404
 10
17.5291400752
 20
5.3508112919
  0
LWPOLYLINE
  5
6D5
100
AcDbEntity
  8
02___PRT_ALL_AXES
100
AcDbPolyline
 62
7
  6
CONTINUOUS
 90
11
 70
0
 10
16.764398097
 20
5.1614509394
 10
16.8518113903
 20
5.1463997153
 10
16.9425473563
 20
5.1394241418
 10
17.0343822191
 20
5.1407246524
 10
17.1250652709
 20
5.1502988482
 10
17.2123740325
 20
5.1679415576
 10
17.294168723
 20
5.1932498639
 10
17.3684447009
 20
5.2256329803
 10
17.4333815954
 20
5.2643267294
 10
17.4873879196
 20
5.3084122712
 10
17.5291400752
 20
5.3568386227
  0
LWPOLYLINE
  5
6D6
100
AcDbEntity
  8
02___PRT_ALL_AXES
100
AcDbPolyline
 62
7
  6
CONTINUOUS
 90
12
 70
0
 10
16.764398097
 20
5.2036422553
 10
16.8518113903
 20
5.1885910311
 10
16.9425473563
 20
5.1816154577
 10
17.0343822191
 20
5.1829159682
 10
17.1250652709
 20
5.1924901641
 10
17.2123740325
 20
5.2101328735
 10
17.294168723
 20
5.2354411797
 10
17.3684447009
 20
5.2678242962
 10
17.4333815954
 20
5.3065180453
 10
17.4873879196
 20
5.3506035871
 10
17.5291400752
 20
5.3990299386
 10
17.5576147919
 20
5.4506397312
  0
LWPOLYLINE
  5
6D7
100
AcDbEntity
  8
02___PRT_ALL_AXES
100
AcDbPolyline
 62
7
  6
CONTINUOUS
 90
12
 70
0
 10
16.764398097
 20
5.2096695861
 10
16.8518113903
 20
5.194618362
 10
16.9425473563
 20
5.1876427885
 10
17.0343822191
 20
5.188943299
 10
17.1250652709
 20
5.1985174949
 10
17.2123740325
 20
5.2161602043
 10
17.294168723
 20
5.2414685106
 10
17.3684447009
 20
5.273851627
 10
17.4333815954
 20
5.3125453761
 10
17.4873879196
 20
5.3566309179
 10
17.5291400752
 20
5.4050572694
 10
17.5576147919
 20
5.4566670621
  0
LWPOLYLINE
  5
6D8
100
AcDbEntity
  8
02___PRT_ALL_AXES
100
AcDbPolyline
 62
7
  6
CONTINUOUS
 90
11
 70
0
 10
16.764398097
 20
5.251860902
 10
16.8518113903
 20
5.2368096778
 10
16.9425473563
 20
5.2298341044
 10
17.0343822191
 20
5.2311346149
 10
17.1250652709
 20
5.2407088108
 10
17.2123740325
 20
5.2583515201
 10
17.294168723
 20
5.2836598264
 10
17.3684447009
 20
5.3160429429
 10
17.4333815954
 20
5.3547366919
 10
17.4873879196
 20
5.3988222337
 10
17.5291400752
 20
5.4472485852
  0
LWPOLYLINE
  5
6D9
100
AcDbEntity
  8
02___PRT_ALL_AXES
100
AcDbPolyline
 62
7
  6
CONTINUOUS
 90
12
 70
0
 10
16.764398097
 20
5.2578882328
 10
16.8518113903
 20
5.2428370087
 10
16.9425473563
 20
5.2358614352
 10
17.0343822191
 20
5.2371619457
 10
17.1250652709
 20
5.2467361416
 10
17.2123740325
 20
5.264378851
 10
17.294168723
 20
5.2896871572
 10
17.3684447009
 20
5.3220702737
 10
17.4333815954
 20
5.3607640228
 10
17.4873879196
 20
5.4048495646
 10
17.5291400752
 20
5.4532759161
 10
17.5576147919
 20
5.5048857087
  0
LWPOLYLINE
  5
6DA
100
AcDbEntity
  8
02___PRT_ALL_AXES
100
AcDbPolyline
 62
7
  6
CONTINUOUS
 90
11
 70
0
 10
16.764398097
 20
5.3000795487
 10
16.8518113903
 20
5.2850283245
 10
16.9425473563
 20
5.278052751
 10
17.0343822191
 20
5.2793532616
 10
17.1250652709
 20
5.2889274574
 10
17.2123740325
 20
5.3065701668
 10
17.294168723
 20
5.3318784731
 10
17.3684447009
 20
5.3642615895
 10
17.4333815954
 20
5.4029553386
 10
17.4873879196
 20
5.4470408804
 10
17.5291400752
 20
5.4954672319
  0
LWPOLYLINE
  5
6DB
100
AcDbEntity
  8
02___PRT_ALL_AXES
100
AcDbPolyline
 62
7
  6
CONTINUOUS
 90
12
 70
0
 10
16.764398097
 20
5.3061068795
 10
16.8518113903
 20
5.2910556553
 10
16.9425473563
 20
5.2840800819
 10
17.0343822191
 20
5.2853805924
 10
17.1250652709
 20
5.2949547883
 10
17.2123740325
 20
5.3125974977
 10
17.294168723
 20
5.3379058039
 10
17.3684447009
 20
5.3702889204
 10
17.4333815954
 20
5.4089826694
 10
17.4873879196
 20
5.4530682113
 10
17.5291400752
 20
5.5014945628
 10
17.5576147919
 20
5.5531043554
  0
LWPOLYLINE
  5
6DC
100
AcDbEntity
  8
02___PRT_ALL_AXES
100
AcDbPolyline
 62
7
  6
CONTINUOUS
 90
11
 70
0
 10
16.764398097
 20
5.3482981953
 10
16.8518113903
 20
5.3332469712
 10
16.9425473563
 20
5.3262713977
 10
17.0343822191
 20
5.3275719082
 10
17.1250652709
 20
5.3371461041
 10
17.2123740325
 20
5.3547888135
 10
17.294168723
 20
5.3800971198
 10
17.3684447009
 20
5.4124802362
 10
17.4333815954
 20
5.4511739853
 10
17.4873879196
 20
5.4952595271
 10
17.5291400752
 20
5.5436858786
  0
LWPOLYLINE
  5
6DD
100
AcDbEntity
  8
02___PRT_ALL_AXES
100
AcDbPolyline
 62
7
  6
CONTINUOUS
 90
12
 70
0
 10
16.764398097
 20
5.3543255262
 10
16.8518113903
 20
5.339274302
 10
16.9425473563
 20
5.3322987286
 10
17.0343822191
 20
5.3335992391
 10
17.1250652709
 20
5.343173435
 10
17.2123740325
 20
5.3608161443
 10
17.294168723
 20
5.3861244506
 10
17.3684447009
 20
5.4185075671
 10
17.4333815954
 20
5.4572013161
 10
17.4873879196
 20
5.5012868579
 10
17.5291400752
 20
5.5497132094
 10
17.5576147919
 20
5.6013230021
  0
LWPOLYLINE
  5
6DE
100
AcDbEntity
  8
02___PRT_ALL_AXES
100
AcDbPolyline
 62
7
  6
CONTINUOUS
 90
5
 70
0
 10
16.764398097
 20
5.4447354887
 10
16.8518113903
 20
5.4296842646
 10
16.9425473563
 20
5.4227086911
 10
17.0343822191
 20
5.4240092016
 10
17.1250652709
 20
5.4335833975
  0
LWPOLYLINE
  5
6DF
100
AcDbEntity
  8
02___PRT_ALL_AXES
100
AcDbPolyline
 62
7
  6
CONTINUOUS
 90
6
 70
0
 10
16.764398097
 20
5.4507628195
 10
16.8518113903
 20
5.4357115954
 10
16.9425473563
 20
5.4287360219
 10
17.0343822191
 20
5.4300365324
 10
17.1250652709
 20
5.4396107283
 10
17.2123740325
 20
5.4572534377
  0
LINE
  5
6E0
100
AcDbEntity
  8
02___PRT_ALL_AXES
100
AcDbLine
 62
7
  6
CONTINUOUS
 10
16.8414130443
 20
5.2337051158
 11
16.7567264539
 21
5.2502905347
  0
LINE
  5
6E1
100
AcDbEntity
  8
02___PRT_ALL_AXES
100
AcDbLine
 62
7
  6
CONTINUOUS
 10
16.8414197864
 20
5.3783600842
 11
16.7567304397
 21
5.3949454756
  0
LINE
  5
6E2
100
AcDbEntity
  8
02___PRT_ALL_AXES
100
AcDbLine
 62
7
  6
CONTINUOUS
 10
16.8408125145
 20
5.2820105223
 11
16.7563433041
 21
5.298605335
  0
LINE
  5
6E3
100
AcDbEntity
  8
02___PRT_ALL_AXES
100
AcDbLine
 62
7
  6
CONTINUOUS
 10
16.8399132932
 20
5.1857039248
 11
16.7561766921
 21
5.2022099173
  0
LWPOLYLINE
  5
6E4
100
AcDbEntity
  8
02___PRT_ALL_AXES
100
AcDbPolyline
 62
7
  6
CONTINUOUS
 90
3
 70
0
 10
16.8392288691
 20
5.137585385
 10
16.7553719348
 20
5.1541940775
 10
16.6779281026
 20
5.1782756617
  0
LWPOLYLINE
  5
6E5
100
AcDbEntity
  8
02___PRT_ALL_AXES
100
AcDbPolyline
 62
7
  6
CONTINUOUS
 90
3
 70
0
 10
16.838704984
 20
5.3305369661
 10
16.7555408346
 20
5.3470260253
 10
16.6779281026
 20
5.3711502484
  0
LINE
  5
6E6
100
AcDbEntity
  8
02___PRT_ALL_AXES
100
AcDbLine
 62
7
  6
CONTINUOUS
 10
16.7567264539
 20
5.2502905347
 11
16.6779281026
 21
5.274712955
  0
LINE
  5
6E7
100
AcDbEntity
  8
02___PRT_ALL_AXES
100
AcDbLine
 62
7
  6
CONTINUOUS
 10
16.7561766921
 20
5.2022099173
 11
16.6779281026
 21
5.2264943083
  0
LINE
  5
6E8
100
AcDbEntity
  8
02___PRT_ALL_AXES
100
AcDbLine
 62
7
  6
CONTINUOUS
 10
16.7563433041
 20
5.298605335
 11
16.6779281026
 21
5.3229316017
  0
LWPOLYLINE
  5
6E9
100
AcDbEntity
  8
02___PRT_ALL_AXES
100
AcDbPolyline
 62
7
  6
CONTINUOUS
 90
4
 70
0
 10
16.764398097
 20
5.3000795487
 10
16.7436610224
 20
5.3066652282
 10
16.7219668373
 20
5.3142071665
 10
16.6998775577
 20
5.3226094358
  0
LWPOLYLINE
  5
6EA
100
AcDbEntity
  8
02___PRT_ALL_AXES
100
AcDbPolyline
 62
7
  6
CONTINUOUS
 90
5
 70
0
 10
16.764398097
 20
5.1072049619
 10
16.7434336656
 20
5.1138661592
 10
16.721472313
 20
5.1215125652
 10
16.6993945693
 20
5.1299269901
 10
16.6779281026
 20
5.1388414724
  0
LWPOLYLINE
  5
6EB
100
AcDbEntity
  8
02___PRT_ALL_AXES
100
AcDbPolyline
 62
7
  6
CONTINUOUS
 90
3
 70
0
 10
16.764398097
 20
5.1554236086
 10
16.7354237805
 20
5.1647924049
 10
16.7065874341
 20
5.1753218823
  0
LWPOLYLINE
  5
6EC
100
AcDbEntity
  8
02___PRT_ALL_AXES
100
AcDbPolyline
 62
7
  6
CONTINUOUS
 90
4
 70
0
 10
16.4448072574
 20
5.2916742427
 10
16.4737768689
 20
5.2823070638
 10
16.5026128082
 20
5.2717779472
 10
16.5312772517
 20
5.2600377322
  0
LWPOLYLINE
  5
6ED
100
AcDbEntity
  8
02___PRT_ALL_AXES
100
AcDbPolyline
 62
7
  6
CONTINUOUS
 90
3
 70
0
 10
16.764398097
 20
5.2036422553
 10
16.7354237805
 20
5.2130110516
 10
16.7065874341
 20
5.223540529
  0
LWPOLYLINE
  5
6EE
100
AcDbEntity
  8
02___PRT_ALL_AXES
100
AcDbPolyline
 62
7
  6
CONTINUOUS
 90
4
 70
0
 10
16.4448072574
 20
5.3398928894
 10
16.4737768689
 20
5.3305257105
 10
16.5026128082
 20
5.3199965939
 10
16.5312772517
 20
5.3082563789
  0
LWPOLYLINE
  5
6EF
100
AcDbEntity
  8
02___PRT_ALL_AXES
100
AcDbPolyline
 62
7
  6
CONTINUOUS
 90
3
 70
0
 10
16.764398097
 20
5.251860902
 10
16.7354237805
 20
5.2612296983
 10
16.7065874341
 20
5.2717591757
  0
LWPOLYLINE
  5
6F0
100
AcDbEntity
  8
02___PRT_ALL_AXES
100
AcDbPolyline
 62
7
  6
CONTINUOUS
 90
4
 70
0
 10
16.4448072574
 20
5.3881115361
 10
16.4737827987
 20
5.3787423186
 10
16.5026181386
 20
5.3682131778
 10
16.5312772517
 20
5.3564750255
  0
LWPOLYLINE
  5
6F1
100
AcDbEntity
  8
02___PRT_ALL_AXES
100
AcDbPolyline
 62
7
  6
CONTINUOUS
 90
4
 70
0
 10
16.4448072574
 20
5.4363301827
 10
16.4737768689
 20
5.4269630039
 10
16.5026128082
 20
5.4164338873
 10
16.5312772517
 20
5.4046936722
  0
LWPOLYLINE
  5
6F2
100
AcDbEntity
  8
02___PRT_ALL_AXES
100
AcDbPolyline
 62
7
  6
CONTINUOUS
 90
3
 70
0
 10
16.764398097
 20
5.3482981953
 10
16.7354237805
 20
5.3576669916
 10
16.7065874341
 20
5.368196469
  0
LINE
  5
6F3
100
AcDbEntity
  8
0
100
AcDbLine
 62
7
  6
CONTINUOUS
 10
16.8797095711
 20
4.9936550558
 11
16.848350891
 21
5.0039894411
  0
LWPOLYLINE
  5
6F4
100
AcDbEntity
  8
0
100
AcDbPolyline
 62
9
  6
CONTINUOUS
 90
14
 70
0
 10
16.6779281026
 20
5.1008510181
 10
16.751332709
 20
5.0766225688
 10
16.8302447291
 20
5.0591694499
 10
16.9128578302
 20
5.0488852199
 10
16.9972406208
 20
5.0460136907
 10
17.0813917412
 20
5.0506253052
 10
17.1633282702
 20
5.0626109078
 10
17.24112483
 20
5.0816879908
 10
17.3129560652
 20
5.1074088614
 10
17.3771313037
 20
5.1391685371
 10
17.4321407597
 20
5.1762199503
 10
17.4766904266
 20
5.2176913852
 10
17.5097325948
 20
5.2626069254
 10
17.5253509076
 20
5.2981977687
  0
LWPOLYLINE
  5
6F5
100
AcDbEntity
  8
0
100
AcDbPolyline
 62
7
  6
CONTINUOUS
 90
4
 70
0
 10
16.8801417341
 20
4.9919308229
 10
16.8518953089
 20
5.0014911472
 10
16.8269968039
 20
5.0132183902
 10
16.823645869
 20
5.0151089037
  0
LINE
  5
6F6
100
AcDbEntity
  8
02___PRT_ALL_AXES
100
AcDbLine
 62
7
  6
CONTINUOUS
 10
16.7065874341
 20
5.1753218823
 11
16.6779281026
 21
5.1870601191
  0
LINE
  5
6F7
100
AcDbEntity
  8
02___PRT_ALL_AXES
100
AcDbLine
 62
7
  6
CONTINUOUS
 10
16.7065874341
 20
5.223540529
 11
16.6779281026
 21
5.2352787658
  0
LINE
  5
6F8
100
AcDbEntity
  8
02___PRT_ALL_AXES
100
AcDbLine
 62
7
  6
CONTINUOUS
 10
16.7065874341
 20
5.2717591757
 11
16.6779281026
 21
5.2834974125
  0
LINE
  5
6F9
100
AcDbEntity
  8
0
100
AcDbLine
 62
7
  6
CONTINUOUS
 10
16.848350891
 20
5.0039894411
 11
16.8203528637
 21
5.0170102365
  0
LWPOLYLINE
  5
6FA
100
AcDbEntity
  8
0
100
AcDbPolyline
 62
7
  6
CONTINUOUS
 90
10
 70
0
 10
16.8268715596
 20
5.0445171204
 10
16.848350891
 20
5.0345279173
 10
16.8797095711
 20
5.024193532
 10
16.9137906477
 20
5.0167893021
 10
16.9496347739
 20
5.0125541925
 10
16.9865985016
 20
5.0116062516
 10
17.0240458776
 20
5.0140722017
 10
17.0605614225
 20
5.0199426512
 10
17.0948120352
 20
5.0289569509
 10
17.1222394883
 20
5.039364989
  0
LINE
  5
6FB
100
AcDbEntity
  8
0
100
AcDbLine
 62
7
  6
CONTINUOUS
 10
16.6853046312
 20
5.083276821
 11
16.6867643957
 21
5.0825761454
  0
LWPOLYLINE
  5
6FC
100
AcDbEntity
  8
0
100
AcDbPolyline
 62
7
  6
CONTINUOUS
 90
4
 70
0
 10
16.8203528637
 20
5.0170102365
 10
16.8385924824
 20
5.0075215253
 10
16.8585895023
 20
4.9991207651
 10
16.8801417341
 20
4.9919308229
  0
LINE
  5
6FD
100
AcDbEntity
  8
02___PRT_ALL_AXES
100
AcDbLine
 62
7
  6
CONTINUOUS
 10
17.1250652709
 20
5.4335833975
 11
17.2123740325
 21
5.4512261069
  0
LWPOLYLINE
  5
6FE
100
AcDbEntity
  8
02___PRT_ALL_AXES
100
AcDbPolyline
 62
7
  6
CONTINUOUS
 90
8
 70
0
 10
16.764398097
 20
5.4929541354
 10
16.8518113903
 20
5.4779029112
 10
16.9425473563
 20
5.4709273378
 10
17.0343822191
 20
5.4722278483
 10
17.1250652709
 20
5.4818020442
 10
17.2123740325
 20
5.4994447535
 10
17.294168723
 20
5.5247530598
 10
17.3153039325
 20
5.5339676669
  0
LWPOLYLINE
  5
6FF
100
AcDbEntity
  8
02___PRT_ALL_AXES
100
AcDbPolyline
 62
7
  6
CONTINUOUS
 90
7
 70
0
 10
16.764398097
 20
5.4989814662
 10
16.8518113903
 20
5.4839302421
 10
16.9425473563
 20
5.4769546686
 10
17.0343822191
 20
5.4782551791
 10
17.1250652709
 20
5.487829375
 10
17.2123740325
 20
5.5054720844
 10
17.2760063936
 20
5.5251607374
  0
LWPOLYLINE
  5
700
100
AcDbEntity
  8
02___PRT_ALL_AXES
100
AcDbPolyline
 62
7
  6
CONTINUOUS
 90
3
 70
0
 10
16.8384540451
 20
5.4752298994
 10
16.7550403458
 20
5.4918084296
 10
16.6779281026
 20
5.5158061884
  0
LWPOLYLINE
  5
701
100
AcDbEntity
  8
02___PRT_ALL_AXES
100
AcDbPolyline
 62
7
  6
CONTINUOUS
 90
3
 70
0
 10
16.820604771
 20
5.4298327095
 10
16.7468389321
 20
5.4457121022
 10
16.6779281026
 20
5.4675875417
  0
LWPOLYLINE
  5
702
100
AcDbEntity
  8
02___PRT_ALL_AXES
100
AcDbPolyline
 62
7
  6
CONTINUOUS
 90
3
 70
0
 10
16.7257480228
 20
5.5181207975
 10
16.6074249275
 20
5.5470775677
 10
16.4959859206
 20
5.5869709703
  0
LINE
  5
703
100
AcDbEntity
  8
02___PRT_ALL_AXES
100
AcDbLine
 62
7
  6
CONTINUOUS
 10
16.7567304397
 20
5.3949454756
 11
16.6779281026
 21
5.4193688951
  0
LWPOLYLINE
  5
704
100
AcDbEntity
  8
02___PRT_ALL_AXES
100
AcDbPolyline
 62
7
  6
CONTINUOUS
 90
5
 70
0
 10
16.4448072574
 20
5.5327674761
 10
16.4654948147
 20
5.5261982343
 10
16.4871764762
 20
5.5186624125
 10
16.5092816322
 20
5.5102559347
 10
16.5312772517
 20
5.5011309656
  0
LWPOLYLINE
  5
705
100
AcDbEntity
  8
02___PRT_ALL_AXES
100
AcDbPolyline
 62
7
  6
CONTINUOUS
 90
4
 70
0
 10
16.4448072574
 20
5.4845488294
 10
16.4737768689
 20
5.4751816506
 10
16.5026128082
 20
5.464652534
 10
16.5312772517
 20
5.4529123189
  0
LWPOLYLINE
  5
706
100
AcDbEntity
  8
02___PRT_ALL_AXES
100
AcDbPolyline
 62
7
  6
CONTINUOUS
 90
3
 70
0
 10
16.764398097
 20
5.396516842
 10
16.7354237805
 20
5.4058856383
 10
16.7065874341
 20
5.4164151157
  0
LWPOLYLINE
  5
707
100
AcDbEntity
  8
02___PRT_ALL_AXES
100
AcDbPolyline
 62
7
  6
CONTINUOUS
 90
3
 70
0
 10
16.764398097
 20
5.4447354887
 10
16.7354162836
 20
5.4541068624
 10
16.7065806633
 20
5.4646363826
  0
LWPOLYLINE
  5
708
100
AcDbEntity
  8
02___PRT_ALL_AXES
100
AcDbPolyline
 62
7
  6
CONTINUOUS
 90
4
 70
0
 10
16.4448072574
 20
5.5809861228
 10
16.4737768689
 20
5.5716189439
 10
16.5026128082
 20
5.5610898273
 10
16.5312772517
 20
5.5493496123
  0
LWPOLYLINE
  5
709
100
AcDbEntity
  8
02___PRT_ALL_AXES
100
AcDbPolyline
 62
7
  6
CONTINUOUS
 90
3
 70
0
 10
16.764398097
 20
5.4929541354
 10
16.7354237805
 20
5.5023229317
 10
16.7065874341
 20
5.5128524091
  0
LINE
  5
70A
100
AcDbEntity
  8
02___PRT_ALL_AXES
100
AcDbLine
 62
7
  6
CONTINUOUS
 10
16.7065874341
 20
5.368196469
 11
16.6779281026
 21
5.3799347059
  0
LINE
  5
70B
100
AcDbEntity
  8
02___PRT_ALL_AXES
100
AcDbLine
 62
7
  6
CONTINUOUS
 10
16.7065874341
 20
5.4164151157
 11
16.6779281026
 21
5.4281533525
  0
LINE
  5
70C
100
AcDbEntity
  8
02___PRT_ALL_AXES
100
AcDbLine
 62
7
  6
CONTINUOUS
 10
16.7065806633
 20
5.4646363826
 11
16.6779281026
 21
5.4763719992
  0
LINE
  5
70D
100
AcDbEntity
  8
02___PRT_ALL_AXES
100
AcDbLine
 62
7
  6
CONTINUOUS
 10
16.7065874341
 20
5.5128524091
 11
16.6779281026
 21
5.5245906459
  0
LINE
  5
70E
100
AcDbEntity
  8
02___PRT_ALL_AXES
100
AcDbLine
 62
7
  6
CONTINUOUS
 10
16.6998775577
 20
5.3226094358
 11
16.6779281026
 21
5.3317160592
  0
LINE
  5
70F
100
AcDbEntity
  8
02___PRT_ALL_AXES
100
AcDbLine
 62
7
  6
CONTINUOUS
 10
16.4959859206
 20
5.5869709703
 11
16.3936298704
 21
5.6376637365
  0
LINE
  5
710
100
AcDbEntity
  8
0
100
AcDbLine
 62
7
  6
CONTINUOUS
 10
16.6852802111
 20
5.0832909196
 11
16.5402332
 21
5.167031956
  0
LINE
  5
711
100
AcDbEntity
  8
0
100
AcDbLine
 62
7
  6
CONTINUOUS
 10
16.8203486786
 20
5.0170125906
 11
16.8203524078
 21
5.0170104375
  0
LINE
  5
712
100
AcDbEntity
  8
0
100
AcDbLine
 62
9
  6
CONTINUOUS
 10
16.6779281026
 20
5.1008510181
 11
16.5312772517
 21
5.1855180109
  0
LINE
  5
713
100
AcDbEntity
  8
0
100
AcDbLine
 62
7
  6
CONTINUOUS
 10
16.5378687443
 20
5.1686993377
 11
16.5402109643
 21
5.1670447936
  0
LWPOLYLINE
  5
714
100
AcDbEntity
  8
02___PRT_ALL_AXES
100
AcDbPolyline
 62
7
  6
CONTINUOUS
 90
4
 70
0
 10
16.5312772517
 20
5.220603543
 10
16.5026184831
 20
5.2408655894
 10
16.4737798754
 20
5.2625763607
 10
16.4448072574
 20
5.2856469119
  0
LWPOLYLINE
  5
715
100
AcDbEntity
  8
02___PRT_ALL_AXES
100
AcDbPolyline
 62
7
  6
CONTINUOUS
 90
4
 70
0
 10
16.5312772517
 20
5.2688221897
 10
16.5026184831
 20
5.2890842361
 10
16.4737798754
 20
5.3107950074
 10
16.4448072574
 20
5.3338655585
  0
LWPOLYLINE
  5
716
100
AcDbEntity
  8
02___PRT_ALL_AXES
100
AcDbPolyline
 62
7
  6
CONTINUOUS
 90
4
 70
0
 10
16.6779281026
 20
5.1782756617
 10
16.7067826657
 20
5.157870606
 10
16.7361585697
 20
5.1357343049
 10
16.764398097
 20
5.1132322928
  0
LWPOLYLINE
  5
717
100
AcDbEntity
  8
02___PRT_ALL_AXES
100
AcDbPolyline
 62
7
  6
CONTINUOUS
 90
3
 70
0
 10
16.6410750943
 20
5.9574508931
 10
16.5178705259
 20
5.9905549428
 10
16.4033322799
 20
6.0334550033
  0
LINE
  5
718
100
AcDbEntity
  8
02___PRT_ALL_AXES
100
AcDbLine
 62
9
  6
CONTINUOUS
 10
16.5734694664
 20
5.972833331
 11
16.5438899103
 21
5.9835637491
  0
LINE
  5
719
100
AcDbEntity
  8
02___PRT_ALL_AXES
100
AcDbLine
 62
9
  6
CONTINUOUS
 10
16.4613664157
 20
5.6598969492
 11
16.3610137569
 21
5.7097560433
  0
LWPOLYLINE
  5
71A
100
AcDbEntity
  8
02___PRT_ALL_AXES
100
AcDbPolyline
 62
7
  6
CONTINUOUS
 90
7
 70
0
 10
16.3936298704
 20
5.6376637365
 10
16.3043671418
 20
5.697618492
 10
16.2300850597
 20
5.7655278509
 10
16.17275187
 20
5.8388768868
 10
16.1327692277
 20
5.9151456651
 10
16.1092959678
 20
5.992914199
 10
16.1015584945
 20
6.0713896441
  0
LWPOLYLINE
  5
71B
100
AcDbEntity
  8
02___PRT_ALL_AXES
100
AcDbPolyline
 62
7
  6
CONTINUOUS
 90
5
 70
0
 10
16.5312772517
 20
5.4616967764
 10
16.5093499039
 20
5.4770795092
 10
16.4872696494
 20
5.4933534624
 10
16.4655684787
 20
5.5100837111
 10
16.4448072574
 20
5.5267401453
  0
LWPOLYLINE
  5
71C
100
AcDbEntity
  8
02___PRT_ALL_AXES
100
AcDbPolyline
 62
7
  6
CONTINUOUS
 90
5
 70
0
 10
16.6779281026
 20
5.3711502484
 10
16.6998985985
 20
5.3557364714
 10
16.721997992
 20
5.3394465707
 10
16.7436899028
 20
5.3227215673
 10
16.764398097
 20
5.3061068795
  0
LWPOLYLINE
  5
71D
100
AcDbEntity
  8
02___PRT_ALL_AXES
100
AcDbPolyline
 62
7
  6
CONTINUOUS
 90
4
 70
0
 10
16.5312772517
 20
5.3170408363
 10
16.5026255721
 20
5.337297706
 10
16.47378766
 20
5.3590076212
 10
16.4448072574
 20
5.3820842052
  0
LWPOLYLINE
  5
71E
100
AcDbEntity
  8
02___PRT_ALL_AXES
100
AcDbPolyline
 62
7
  6
CONTINUOUS
 90
4
 70
0
 10
16.6779281026
 20
5.2264943083
 10
16.7065922192
 20
5.2062283565
 10
16.7354303712
 20
5.1845176992
 10
16.764398097
 20
5.1614509394
  0
LWPOLYLINE
  5
71F
100
AcDbEntity
  8
02___PRT_ALL_AXES
100
AcDbPolyline
 62
7
  6
CONTINUOUS
 90
4
 70
0
 10
16.5312772517
 20
5.365259483
 10
16.5026184831
 20
5.3855215294
 10
16.4737798754
 20
5.4072323008
 10
16.4448072574
 20
5.4303028519
  0
LWPOLYLINE
  5
720
100
AcDbEntity
  8
02___PRT_ALL_AXES
100
AcDbPolyline
 62
7
  6
CONTINUOUS
 90
4
 70
0
 10
16.6779281026
 20
5.274712955
 10
16.7065922192
 20
5.2544470032
 10
16.7354303712
 20
5.2327363458
 10
16.764398097
 20
5.2096695861
  0
LWPOLYLINE
  5
721
100
AcDbEntity
  8
02___PRT_ALL_AXES
100
AcDbPolyline
 62
7
  6
CONTINUOUS
 90
4
 70
0
 10
16.5312772517
 20
5.4134781297
 10
16.5026184831
 20
5.4337401761
 10
16.4737798754
 20
5.4554509474
 10
16.4448072574
 20
5.4785214986
  0
LWPOLYLINE
  5
722
100
AcDbEntity
  8
02___PRT_ALL_AXES
100
AcDbPolyline
 62
7
  6
CONTINUOUS
 90
4
 70
0
 10
16.6779281026
 20
5.3229316017
 10
16.7065922192
 20
5.3026656499
 10
16.7354303712
 20
5.2809549925
 10
16.764398097
 20
5.2578882328
  0
LWPOLYLINE
  5
723
100
AcDbEntity
  8
02___PRT_ALL_AXES
100
AcDbPolyline
 62
7
  6
CONTINUOUS
 90
4
 70
0
 10
16.5312772517
 20
5.5099154231
 10
16.5026184831
 20
5.5301774695
 10
16.4737798754
 20
5.5518882408
 10
16.4448072574
 20
5.5749587919
  0
LWPOLYLINE
  5
724
100
AcDbEntity
  8
02___PRT_ALL_AXES
100
AcDbPolyline
 62
7
  6
CONTINUOUS
 90
4
 70
0
 10
16.6779281026
 20
5.4193688951
 10
16.7065922192
 20
5.3991029432
 10
16.7354303712
 20
5.3773922859
 10
16.764398097
 20
5.3543255262
  0
LWPOLYLINE
  5
725
100
AcDbEntity
  8
02___PRT_ALL_AXES
100
AcDbPolyline
 62
7
  6
CONTINUOUS
 90
3
 70
0
 10
16.5312772517
 20
5.5581340697
 10
16.5026184831
 20
5.5783961162
 10
16.4820809406
 20
5.5938575383
  0
LWPOLYLINE
  5
726
100
AcDbEntity
  8
02___PRT_ALL_AXES
100
AcDbPolyline
 62
7
  6
CONTINUOUS
 90
4
 70
0
 10
16.6779281026
 20
5.4675875417
 10
16.7065922192
 20
5.4473215899
 10
16.7354303712
 20
5.4256109326
 10
16.764398097
 20
5.4025441728
  0
LWPOLYLINE
  5
727
100
AcDbEntity
  8
02___PRT_ALL_AXES
100
AcDbPolyline
 62
7
  6
CONTINUOUS
 90
4
 70
0
 10
16.6779281026
 20
5.5158061884
 10
16.7065869648
 20
5.4955440737
 10
16.7354245599
 20
5.4738340829
 10
16.764398097
 20
5.4507628195
  0
LINE
  5
728
100
AcDbEntity
  8
0
100
AcDbLine
 62
7
  6
CONTINUOUS
 10
16.5371233125
 20
5.1693781369
 11
16.5378687443
 21
5.1686993377
  0
LINE
  5
729
100
AcDbEntity
  8
02___PRT_ALL_AXES
100
AcDbLine
 62
7
  6
CONTINUOUS
 10
16.4033322799
 20
6.0334550033
 11
16.2995709509
 21
6.0855192755
  0
LWPOLYLINE
  5
72A
100
AcDbEntity
  8
02___PRT_ALL_AXES
100
AcDbPolyline
 62
7
  6
CONTINUOUS
 90
7
 70
0
 10
16.2995709509
 20
6.0855192755
 10
16.211628836
 20
6.1436655404
 10
16.1375492329
 20
6.2084958396
 10
16.0788769433
 20
6.2786762779
 10
16.0367193415
 20
6.3525655993
 10
16.0115011652
 20
6.4285370324
 10
16.0031332977
 20
6.5053574643
  0
LWPOLYLINE
  5
72B
100
AcDbEntity
  8
02___PRT_ALL_AXES
100
AcDbPolyline
 62
9
  6
CONTINUOUS
 90
5
 70
0
 10
16.2914169225
 20
6.1035423522
 10
16.1994534297
 20
6.1648160272
 10
16.1235299569
 20
6.2330221438
 10
16.065192087
 20
6.3067722222
 10
16.0256274109
 20
6.3845649235
  0
LINE
  5
72C
100
AcDbEntity
  8
02___PRT_ALL_AXES
100
AcDbLine
 62
7
  6
CONTINUOUS
 10
16.743630129
 20
5.5155188268
 11
16.764398097
 21
5.4989814662
  0
LINE
  5
72D
100
AcDbEntity
  8
02___PRT_ALL_AXES
100
AcDbLine
 62
7
  6
CONTINUOUS
 10
16.5312772517
 20
5.4046936722
 11
16.4971096841
 21
5.4378874039
  0
LINE
  5
72E
100
AcDbEntity
  8
02___PRT_ALL_AXES
100
AcDbLine
 62
7
  6
CONTINUOUS
 10
16.5312772517
 20
5.3564750255
 11
16.4998206878
 21
5.3876278133
  0
LINE
  5
72F
100
AcDbEntity
  8
02___PRT_ALL_AXES
100
AcDbLine
 62
7
  6
CONTINUOUS
 10
16.5312772517
 20
5.5011309656
 11
16.4999653248
 21
5.5321748653
  0
LINE
  5
730
100
AcDbEntity
  8
02___PRT_ALL_AXES
100
AcDbLine
 62
7
  6
CONTINUOUS
 10
16.5312772517
 20
5.5493496123
 11
16.5002298928
 21
5.5801943353
  0
LINE
  5
731
100
AcDbEntity
  8
02___PRT_ALL_AXES
100
AcDbLine
 62
7
  6
CONTINUOUS
 10
16.5312772517
 20
5.3082563789
 11
16.5003157488
 21
5.3390365999
  0
LINE
  5
732
100
AcDbEntity
  8
02___PRT_ALL_AXES
100
AcDbLine
 62
7
  6
CONTINUOUS
 10
16.5312772517
 20
5.2600377322
 11
16.5003496605
 21
5.2907922897
  0
LINE
  5
733
100
AcDbEntity
  8
02___PRT_ALL_AXES
100
AcDbLine
 62
7
  6
CONTINUOUS
 10
16.5312772517
 20
5.4529123189
 11
16.5001569306
 21
5.4838550659
  0
LWPOLYLINE
  5
734
100
AcDbEntity
  8
0
100
AcDbPolyline
 62
7
  6
CONTINUOUS
 90
4
 70
0
 10
16.5378692928
 20
5.1686990273
 10
16.4936144555
 20
5.2136835987
 10
16.4615201331
 20
5.2624859881
 10
16.4562174228
 20
5.2765611329
  0
LWPOLYLINE
  5
735
100
AcDbEntity
  8
0
100
AcDbPolyline
 62
9
  6
CONTINUOUS
 90
14
 70
0
 10
17.5649649847
 20
12.6203055057
 10
17.6244819454
 20
12.6474925941
 10
17.6801751171
 20
12.677258614
 10
17.731709215
 20
12.7094243766
 10
17.778775904
 20
12.7437974616
 10
17.8210932263
 20
12.7801723069
 10
17.8584060736
 20
12.8183300302
 10
17.8904896849
 20
12.858040858
 10
17.9171509904
 20
12.8990654055
 10
17.9382312589
 20
12.9411592567
 10
17.9536049791
 20
12.9840743557
 10
17.9631780347
 20
13.0275553936
 10
17.9668899009
 20
13.0713404888
 10
17.9668656262
 20
13.0840538202
  0
LWPOLYLINE
  5
736
100
AcDbEntity
  8
02___PRT_ALL_AXES
100
AcDbPolyline
 62
7
  6
CONTINUOUS
 90
3
 70
0
 10
16.1350001067
 20
6.475181947
 10
16.2065281739
 20
6.4133784352
 10
16.2914169225
 20
6.3574938914
  0
LINE
  5
737
100
AcDbEntity
  8
02___PRT_ALL_AXES
100
AcDbLine
 62
7
  6
CONTINUOUS
 10
16.0780565858
 20
6.5418469514
 11
16.1350001067
 21
6.475181947
  0
LWPOLYLINE
  5
738
100
AcDbEntity
  8
0
100
AcDbPolyline
 62
7
  6
CONTINUOUS
 90
4
 70
0
 10
16.7748262173
 20
5.0551934509
 10
16.7767079288
 20
5.0523773971
 10
16.7959210168
 20
5.0336804044
 10
16.8203486786
 20
5.0170125906
  0
LINE
  5
739
100
AcDbEntity
  8
02___PRT_ALL_AXES
100
AcDbLine
 62
7
  6
CONTINUOUS
 10
16.4166536096
 20
5.3349115042
 11
16.4448072574
 21
5.2856469119
  0
LINE
  5
73A
100
AcDbEntity
  8
02___PRT_ALL_AXES
100
AcDbLine
 62
7
  6
CONTINUOUS
 10
16.4166536096
 20
5.3831301508
 11
16.4448072574
 21
5.3338655585
  0
LINE
  5
73B
100
AcDbEntity
  8
02___PRT_ALL_AXES
100
AcDbLine
 62
7
  6
CONTINUOUS
 10
16.4166536096
 20
5.3891574817
 11
16.4448072574
 21
5.3398928894
  0
LINE
  5
73C
100
AcDbEntity
  8
02___PRT_ALL_AXES
100
AcDbLine
 62
7
  6
CONTINUOUS
 10
16.4166536096
 20
5.4313487975
 11
16.4448072574
 21
5.3820842052
  0
LINE
  5
73D
100
AcDbEntity
  8
02___PRT_ALL_AXES
100
AcDbLine
 62
7
  6
CONTINUOUS
 10
16.4166536096
 20
5.5277860909
 11
16.4448072574
 21
5.4785214986
  0
LINE
  5
73E
100
AcDbEntity
  8
02___PRT_ALL_AXES
100
AcDbLine
 62
7
  6
CONTINUOUS
 10
16.4166536096
 20
5.5760047376
 11
16.4448072574
 21
5.5267401453
  0
LINE
  5
73F
100
AcDbEntity
  8
02___PRT_ALL_AXES
100
AcDbLine
 62
7
  6
CONTINUOUS
 10
16.4158210029
 20
5.48157161
 11
16.4448072574
 21
5.4303028519
  0
LWPOLYLINE
  5
740
100
AcDbEntity
  8
AXIS
100
AcDbPolyline
 62
7
  6
CONTINUOUS
 90
7
 70
0
 10
17.6833594051
 20
12.4555487541
 10
17.7753220142
 20
12.5168228712
 10
17.8512445033
 20
12.5850293528
 10
17.9095813095
 20
12.6587797117
 10
17.9491448636
 20
12.7365726031
 10
17.9691297658
 20
12.8168243883
 10
17.9716276586
 20
12.8573605163
  0
LWPOLYLINE
  5
741
100
AcDbEntity
  8
AXIS
100
AcDbPolyline
 62
7
  6
CONTINUOUS
 90
12
 70
0
 10
16.2914169225
 20
7.2222149552
 10
16.3975483237
 20
7.1691210771
 10
16.5156871042
 20
7.1252878343
 10
16.643428299
 20
7.091607545
 10
16.7781714657
 20
7.0687658429
 10
16.9171736221
 20
7.0572277192
 10
17.0576050851
 20
7.0572280567
 10
17.1966070751
 20
7.0687668487
 10
17.3313499123
 20
7.0916091986
 10
17.4590906214
 20
7.1252901019
 10
17.5772287696
 20
7.1691239127
 10
17.6833594051
 20
7.222218301
  0
LWPOLYLINE
  5
742
100
AcDbEntity
  8
0
100
AcDbPolyline
 62
7
  6
CONTINUOUS
 90
7
 70
0
 10
16.2947695628
 20
7.2241505914
 10
16.2032490794
 20
7.285129097
 10
16.1276913475
 20
7.353006649
 10
16.0696345046
 20
7.4264014562
 10
16.0302604207
 20
7.503819412
 10
16.0103706385
 20
7.5836845102
 10
16.0079027667
 20
7.6205346013
  0
LINE
  5
743
100
AcDbEntity
  8
02___PRT_ALL_AXES
100
AcDbLine
 62
7
  6
CONTINUOUS
 10
16.0366719308
 20
6.6122327919
 11
16.0780565858
 21
6.5418469514
  0
LINE
  5
744
100
AcDbEntity
  8
02___PRT_ALL_AXES
100
AcDbLine
 62
7
  6
CONTINUOUS
 10
16.4166536096
 20
5.6242233842
 11
16.4448072574
 21
5.5749587919
  0
LINE
  5
745
100
AcDbEntity
  8
02___PRT_ALL_AXES
100
AcDbLine
 62
7
  6
CONTINUOUS
 10
16.4198336924
 20
5.624686055
 11
16.4448072574
 21
5.5809861228
  0
LINE
  5
746
100
AcDbEntity
  8
0
100
AcDbLine
 62
7
  6
CONTINUOUS
 10
16.3975483237
 20
7.6127326266
 11
16.2914169225
 21
7.6658265047
  0
LWPOLYLINE
  5
747
100
AcDbEntity
  8
0
100
AcDbPolyline
 62
7
  6
CONTINUOUS
 90
3
 70
0
 10
16.2914169225
 20
7.6658265047
 10
16.1994534297
 20
7.7271001797
 10
16.1235299569
 20
7.7953062963
  0
LWPOLYLINE
  5
748
100
AcDbEntity
  8
0
100
AcDbPolyline
 62
9
  6
CONTINUOUS
 90
4
 70
0
 10
16.4586420828
 20
5.2746304049
 10
16.459081032
 20
5.2734551427
 10
16.4893127556
 20
5.2278953988
 10
16.5312772517
 20
5.1855180109
  0
LINE
  5
749
100
AcDbEntity
  8
02___PRT_ALL_AXES
100
AcDbLine
 62
7
  6
CONTINUOUS
 10
16.0115542446
 20
6.6851351471
 11
16.0366719308
 21
6.6122327919
  0
LWPOLYLINE
  5
74A
100
AcDbEntity
  8
AXIS
100
AcDbPolyline
 62
7
  6
CONTINUOUS
 90
3
 70
0
 10
16.007349419
 20
11.5964253391
 10
16.0056407666
 20
11.5895640392
 10
16.0031428738
 20
11.5490279111
  0
LINE
  5
74B
100
AcDbEntity
  8
0
100
AcDbLine
 62
7
  6
CONTINUOUS
 10
17.7753220142
 20
11.6521018074
 11
17.6833594051
 21
11.5908276903
  0
LWPOLYLINE
  5
74C
100
AcDbEntity
  8
AXIS
100
AcDbPolyline
 62
7
  6
CONTINUOUS
 90
6
 70
0
 10
17.6833594051
 20
11.5908276903
 10
17.7753220142
 20
11.6521018074
 10
17.8512445033
 20
11.720308289
 10
17.9095813095
 20
11.7940586479
 10
17.9491448636
 20
11.8718515393
 10
17.9691297658
 20
11.9521033244
  0
LWPOLYLINE
  5
74D
100
AcDbEntity
  8
0
100
AcDbPolyline
 62
7
  6
CONTINUOUS
 90
11
 70
0
 10
17.6833594051
 20
11.5908276903
 10
17.5772287696
 20
11.537733302
 10
17.4590906214
 20
11.4938994912
 10
17.3313499123
 20
11.4602185878
 10
17.1966070751
 20
11.437376238
 10
17.0576050851
 20
11.425837446
 10
16.9171736221
 20
11.4258371085
 10
16.7781714657
 20
11.4373752322
 10
16.643428299
 20
11.4602169343
 10
16.5156871042
 20
11.4938972235
 10
16.3975483237
 20
11.5377304664
  0
LINE
  5
74E
100
AcDbEntity
  8
0
100
AcDbLine
 62
7
  6
CONTINUOUS
 10
16.1235299569
 20
7.7953062963
 11
16.065192087
 21
7.8690563747
  0
LINE
  5
74F
100
AcDbEntity
  8
0
100
AcDbLine
 62
7
  6
CONTINUOUS
 10
16.065192087
 20
7.8690563747
 11
16.0256274109
 21
7.9468490759
  0
LINE
  5
750
100
AcDbEntity
  8
02___PRT_ALL_AXES
100
AcDbLine
 62
7
  6
CONTINUOUS
 10
16.4024875715
 20
5.4343131289
 11
16.4166536096
 21
5.3831301508
  0
LINE
  5
751
100
AcDbEntity
  8
02___PRT_ALL_AXES
100
AcDbLine
 62
7
  6
CONTINUOUS
 10
16.4024875715
 20
5.4403404597
 11
16.4166536096
 21
5.3891574817
  0
LINE
  5
752
100
AcDbEntity
  8
02___PRT_ALL_AXES
100
AcDbLine
 62
7
  6
CONTINUOUS
 10
16.4024875715
 20
5.4825317756
 11
16.4166536096
 21
5.4313487975
  0
LWPOLYLINE
  5
753
100
AcDbEntity
  8
02___PRT_ALL_AXES
100
AcDbPolyline
 62
7
  6
CONTINUOUS
 90
3
 70
0
 10
16.4024875715
 20
5.4885591064
 10
16.4166536096
 20
5.4373761284
 10
16.4448072574
 20
5.3881115361
  0
LINE
  5
754
100
AcDbEntity
  8
02___PRT_ALL_AXES
100
AcDbLine
 62
7
  6
CONTINUOUS
 10
16.4024875715
 20
5.5789690689
 11
16.4166536096
 21
5.5277860909
  0
LWPOLYLINE
  5
755
100
AcDbEntity
  8
02___PRT_ALL_AXES
100
AcDbPolyline
 62
7
  6
CONTINUOUS
 90
3
 70
0
 10
16.4024875715
 20
5.5849963998
 10
16.4166536096
 20
5.5338134217
 10
16.4448072574
 20
5.4845488294
  0
LINE
  5
756
100
AcDbEntity
  8
02___PRT_ALL_AXES
100
AcDbLine
 62
7
  6
CONTINUOUS
 10
16.4024875715
 20
5.6271877156
 11
16.4166536096
 21
5.5760047376
  0
LWPOLYLINE
  5
757
100
AcDbEntity
  8
02___PRT_ALL_AXES
100
AcDbPolyline
 62
7
  6
CONTINUOUS
 90
3
 70
0
 10
16.4024875715
 20
5.6332150464
 10
16.4166536096
 20
5.5820320684
 10
16.4448072574
 20
5.5327674761
  0
LINE
  5
758
100
AcDbEntity
  8
02___PRT_ALL_AXES
100
AcDbLine
 62
7
  6
CONTINUOUS
 10
16.4160000641
 20
5.6265846943
 11
16.4166536096
 21
5.6242233842
  0
LINE
  5
759
100
AcDbEntity
  8
02___PRT_ALL_AXES
100
AcDbLine
 62
7
  6
CONTINUOUS
 10
16.4019747975
 20
5.534859432
 11
16.4158210029
 21
5.48157161
  0
LWPOLYLINE
  5
75A
100
AcDbEntity
  8
02___PRT_ALL_AXES
100
AcDbPolyline
 62
7
  6
CONTINUOUS
 90
3
 70
0
 10
16.4019747975
 20
5.5408867628
 10
16.4158210029
 20
5.4875989408
 10
16.4448072574
 20
5.4363301827
  0
LWPOLYLINE
  5
75B
100
AcDbEntity
  8
02___PRT_ALL_AXES
100
AcDbPolyline
 62
9
  6
CONTINUOUS
 90
3
 70
0
 10
16.0256274109
 20
6.3845649235
 10
16.0056413512
 20
6.4648166125
 10
16.0031332977
 20
6.5053574643
  0
LWPOLYLINE
  5
75C
100
AcDbEntity
  8
AXIS
100
AcDbPolyline
 62
7
  6
CONTINUOUS
 90
3
 70
0
 10
16.007349419
 20
10.2880927258
 10
16.0056407666
 20
10.2812314259
 10
16.0031428738
 20
10.2406952978
  0
LINE
  5
75D
100
AcDbEntity
  8
0
100
AcDbLine
 62
7
  6
CONTINUOUS
 10
17.8512445033
 20
11.720308289
 11
17.7753220142
 21
11.6521018074
  0
LINE
  5
75E
100
AcDbEntity
  8
0
100
AcDbLine
 62
7
  6
CONTINUOUS
 10
16.0256274109
 20
7.9468490759
 11
16.0056413512
 21
8.027100765
  0
LWPOLYLINE
  5
75F
100
AcDbEntity
  8
0
100
AcDbPolyline
 62
7
  6
CONTINUOUS
 90
6
 70
0
 10
16.7874863727
 20
5.04188848
 10
16.7883013902
 20
5.0386158726
 10
16.7964912781
 20
5.0225127834
 10
16.8085672172
 20
5.0072465172
 10
16.824283376
 20
4.993127851
 10
16.843319819
 20
4.9804442003
  0
LINE
  5
760
100
AcDbEntity
  8
02___PRT_ALL_AXES
100
AcDbLine
 62
7
  6
CONTINUOUS
 10
16.0031332977
 20
6.7593089967
 11
16.0115542446
 21
6.6851351471
  0
LINE
  5
761
100
AcDbEntity
  8
0
100
AcDbLine
 62
7
  6
CONTINUOUS
 10
16.0056413512
 20
8.027100765
 11
16.0031615336
 21
8.0641292308
  0
LINE
  5
762
100
AcDbEntity
  8
0
100
AcDbLine
 62
7
  6
CONTINUOUS
 10
16.0056413512
 20
9.3354333782
 11
16.0031615336
 21
9.372461844
  0
LINE
  5
763
100
AcDbEntity
  8
0
100
AcDbLine
 62
7
  6
CONTINUOUS
 10
16.0056413512
 20
10.6437659915
 11
16.0031615336
 21
10.6807944573
  0
LWPOLYLINE
  5
764
100
AcDbEntity
  8
AXIS
100
AcDbPolyline
 62
7
  6
CONTINUOUS
 90
18
 70
0
 10
16.0031428738
 20
6.7593090075
 10
16.0056413512
 20
6.7187681517
 10
16.0256274109
 20
6.6385164627
 10
16.065192087
 20
6.5607237614
 10
16.1235299569
 20
6.486973683
 10
16.1994534297
 20
6.4187675664
 10
16.2914169225
 20
6.3574938914
 10
16.3975483237
 20
6.3044000133
 10
16.5156871042
 20
6.2605667705
 10
16.643428299
 20
6.2268864812
 10
16.7781714657
 20
6.2040447791
 10
16.9171736221
 20
6.1925066554
 10
17.0576050851
 20
6.1925069929
 10
17.1966070751
 20
6.2040457849
 10
17.3313499123
 20
6.2268881348
 10
17.4590906214
 20
6.2605690381
 10
17.5772287696
 20
6.3044028489
 10
17.6833594051
 20
6.3574972372
  0
LWPOLYLINE
  5
765
100
AcDbEntity
  8
AXIS
100
AcDbPolyline
 62
7
  6
CONTINUOUS
 90
7
 70
0
 10
16.0031428738
 20
7.6240300713
 10
16.0056413512
 20
7.5834892155
 10
16.0256274109
 20
7.5032375265
 10
16.065192087
 20
7.4254448252
 10
16.1235299569
 20
7.3516947468
 10
16.1994534297
 20
7.2834886302
 10
16.2914169225
 20
7.2222149552
  0
LWPOLYLINE
  5
766
100
AcDbEntity
  8
AXIS
100
AcDbPolyline
 62
7
  6
CONTINUOUS
 90
18
 70
0
 10
16.0031428738
 20
8.0676416208
 10
16.0056413512
 20
8.027100765
 10
16.0256274109
 20
7.9468490759
 10
16.065192087
 20
7.8690563747
 10
16.1235299569
 20
7.7953062963
 10
16.1994534297
 20
7.7271001797
 10
16.2914169225
 20
7.6658265047
 10
16.3975483237
 20
7.6127326266
 10
16.5156871042
 20
7.5688993837
 10
16.643428299
 20
7.5352190945
 10
16.7781714657
 20
7.5123773924
 10
16.9171736221
 20
7.5008392687
 10
17.0576050851
 20
7.5008396062
 10
17.1966070751
 20
7.5123783982
 10
17.3313499123
 20
7.535220748
 10
17.4590906214
 20
7.5689016514
 10
17.5772287696
 20
7.6127354622
 10
17.6833594051
 20
7.6658298505
  0
LWPOLYLINE
  5
767
100
AcDbEntity
  8
AXIS
100
AcDbPolyline
 62
7
  6
CONTINUOUS
 90
7
 70
0
 10
16.0031428738
 20
8.9323626846
 10
16.0056413512
 20
8.8918218288
 10
16.0256274109
 20
8.8115701397
 10
16.065192087
 20
8.7337774385
 10
16.1235299569
 20
8.6600273601
 10
16.1994534297
 20
8.5918212435
 10
16.2914169225
 20
8.5305475685
  0
LWPOLYLINE
  5
768
100
AcDbEntity
  8
AXIS
100
AcDbPolyline
 62
7
  6
CONTINUOUS
 90
18
 70
0
 10
16.0031428738
 20
9.375974234
 10
16.0056413512
 20
9.3354333782
 10
16.0256274109
 20
9.2551816892
 10
16.065192087
 20
9.177388988
 10
16.1235299569
 20
9.1036389096
 10
16.1994534297
 20
9.0354327929
 10
16.2914169225
 20
8.9741591179
 10
16.3975483237
 20
8.9210652399
 10
16.5156871042
 20
8.877231997
 10
16.643428299
 20
8.8435517077
 10
16.7781714657
 20
8.8207100057
 10
16.9171736221
 20
8.8091718819
 10
17.0576050851
 20
8.8091722195
 10
17.1966070751
 20
8.8207110114
 10
17.3313499123
 20
8.8435533613
 10
17.4590906214
 20
8.8772342647
 10
17.5772287696
 20
8.9210680755
 10
17.6833594051
 20
8.9741624637
  0
LWPOLYLINE
  5
769
100
AcDbEntity
  8
AXIS
100
AcDbPolyline
 62
7
  6
CONTINUOUS
 90
7
 70
0
 10
16.0031428738
 20
10.2406952978
 10
16.0056413512
 20
10.2001544421
 10
16.0256274109
 20
10.119902753
 10
16.065192087
 20
10.0421100518
 10
16.1235299569
 20
9.9683599734
 10
16.1994534297
 20
9.9001538567
 10
16.2914169225
 20
9.8388801817
  0
LWPOLYLINE
  5
76A
100
AcDbEntity
  8
AXIS
100
AcDbPolyline
 62
7
  6
CONTINUOUS
 90
18
 70
0
 10
16.0031428738
 20
10.6843068473
 10
16.0056413512
 20
10.6437659915
 10
16.0256274109
 20
10.5635143025
 10
16.065192087
 20
10.4857216012
 10
16.1235299569
 20
10.4119715228
 10
16.1994534297
 20
10.3437654062
 10
16.2914169225
 20
10.2824917312
 10
16.3975483237
 20
10.2293978531
 10
16.5156871042
 20
10.1855646103
 10
16.643428299
 20
10.151884321
 10
16.7781714657
 20
10.1290426189
 10
16.9171736221
 20
10.1175044952
 10
17.0576050851
 20
10.1175048328
 10
17.1966070751
 20
10.1290436247
 10
17.3313499123
 20
10.1518859746
 10
17.4590906214
 20
10.1855668779
 10
17.5772287696
 20
10.2294006887
 10
17.6833594051
 20
10.282495077
  0
LWPOLYLINE
  5
76B
100
AcDbEntity
  8
02___PRT_ALL_AXES
100
AcDbPolyline
 62
9
  6
CONTINUOUS
 90
7
 70
0
 10
16.1015584945
 20
6.0713896441
 10
16.1021780869
 20
6.0522647243
 10
16.1170022649
 20
5.9763077058
 10
16.151269361
 20
5.9024746606
 10
16.2042139047
 20
5.832414897
 10
16.2746532025
 20
5.7676934344
 10
16.3610137569
 20
5.7097560433
  0
LINE
  5
76C
100
AcDbEntity
  8
0
100
AcDbLine
 62
7
  6
CONTINUOUS
 10
16.0031520368
 20
8.0641351192
 11
16.0078933156
 21
7.6205404613
  0
LINE
  5
76D
100
AcDbEntity
  8
0
100
AcDbLine
 62
7
  6
CONTINUOUS
 10
16.0031520368
 20
9.3724677324
 11
16.0078933156
 21
8.9288730746
  0
LINE
  5
76E
100
AcDbEntity
  8
0
100
AcDbLine
 62
7
  6
CONTINUOUS
 10
16.0031520368
 20
10.6808003457
 11
16.0078933156
 21
10.2372056879
  0
LINE
  5
76F
100
AcDbEntity
  8
0
100
AcDbLine
 62
7
  6
CONTINUOUS
 10
16.0031520368
 20
11.989132959
 11
16.0078933156
 21
11.5455383011
  0
LINE
  5
770
100
AcDbEntity
  8
02___PRT_ALL_AXES
100
AcDbLine
 62
7
  6
CONTINUOUS
 10
16.0031332977
 20
6.7593090035
 11
16.0031332977
 21
6.5053574643
  0
LINE
  5
771
100
AcDbEntity
  8
AXIS
100
AcDbLine
 62
7
  6
CONTINUOUS
 10
16.0031332977
 20
6.7593090035
 11
16.0031332977
 21
7.6240300673
  0
LINE
  5
772
100
AcDbEntity
  8
AXIS
100
AcDbLine
 62
7
  6
CONTINUOUS
 10
16.0031332977
 20
8.0676416167
 11
16.0031332977
 21
8.9323626805
  0
LINE
  5
773
100
AcDbEntity
  8
AXIS
100
AcDbLine
 62
7
  6
CONTINUOUS
 10
16.0031332977
 20
9.37597423
 11
16.0031332977
 21
10.2406952938
  0
LINE
  5
774
100
AcDbEntity
  8
AXIS
100
AcDbLine
 62
7
  6
CONTINUOUS
 10
16.0031332977
 20
10.6843068433
 11
16.0031332977
 21
11.5490279071
  0
LINE
  5
775
100
AcDbEntity
  8
AXIS
100
AcDbLine
 62
7
  6
CONTINUOUS
 10
16.0031332977
 20
11.9926394566
 11
16.0031332977
 21
12.8573605204
  0
LINE
  5
776
100
AcDbEntity
  8
02___PRT_ALL_AXES
100
AcDbLine
 62
7
  6
CONTINUOUS
 10
16.1015584945
 20
6.2515459031
 11
16.1015584945
 21
6.0713896441
  0
LINE
  5
777
100
AcDbEntity
  8
0
100
AcDbLine
 62
7
  6
CONTINUOUS
 10
16.0032082676
 20
12.8643740496
 11
16.0079049062
 21
13.0840538203
  0
LWPOLYLINE
  5
778
100
AcDbEntity
  8
AXIS
100
AcDbPolyline
 62
7
  6
CONTINUOUS
 90
3
 70
0
 10
16.007349419
 20
8.9797601126
 10
16.0056407666
 20
8.9728988127
 10
16.0031428738
 20
8.9323626846
  0
LINE
  5
779
100
AcDbEntity
  8
0
100
AcDbLine
 62
9
  6
CONTINUOUS
 10
17.8424264522
 20
12.9765451456
 11
17.8618121573
 21
13.0152563073
  0
LWPOLYLINE
  5
77A
100
AcDbEntity
  8
AXIS
100
AcDbPolyline
 62
7
  6
CONTINUOUS
 90
6
 70
0
 10
17.6833594051
 20
11.1472161408
 10
17.7753220142
 20
11.2084902579
 10
17.8512445033
 20
11.2766967396
 10
17.9095813095
 20
11.3504470984
 10
17.9491448636
 20
11.4282399899
 10
17.9691297658
 20
11.508491775
  0
LWPOLYLINE
  5
77B
100
AcDbEntity
  8
AXIS
100
AcDbPolyline
 62
7
  6
CONTINUOUS
 90
12
 70
0
 10
16.2914169225
 20
8.5305475685
 10
16.3975483237
 20
8.4774536904
 10
16.5156871042
 20
8.4336204475
 10
16.643428299
 20
8.3999401583
 10
16.7781714657
 20
8.3770984562
 10
16.9171736221
 20
8.3655603325
 10
17.0576050851
 20
8.36556067
 10
17.1966070751
 20
8.377099462
 10
17.3313499123
 20
8.3999418118
 10
17.4590906214
 20
8.4336227152
 10
17.5772287696
 20
8.477456526
 10
17.6833594051
 20
8.5305509143
  0
LWPOLYLINE
  5
77C
100
AcDbEntity
  8
0
100
AcDbPolyline
 62
7
  6
CONTINUOUS
 90
7
 70
0
 10
16.2947695628
 20
8.5324832047
 10
16.2032490794
 20
8.5934617102
 10
16.1276913475
 20
8.6613392622
 10
16.0696345046
 20
8.7347340695
 10
16.0302604207
 20
8.8121520253
 10
16.0103706385
 20
8.8920171234
 10
16.0079027667
 20
8.9288672146
  0
LINE
  5
77D
100
AcDbEntity
  8
0
100
AcDbLine
 62
7
  6
CONTINUOUS
 10
16.0256274109
 20
9.2551816892
 11
16.0056413512
 21
9.3354333782
  0
LWPOLYLINE
  5
77E
100
AcDbEntity
  8
0
100
AcDbPolyline
 62
7
  6
CONTINUOUS
 90
3
 70
0
 10
16.5312772517
 20
5.1855180109
 10
16.5327770473
 20
5.1762747012
 10
16.5371233125
 20
5.1693781369
  0
LWPOLYLINE
  5
77F
100
AcDbEntity
  8
0
100
AcDbPolyline
 62
7
  6
CONTINUOUS
 90
4
 70
0
 10
16.6779281026
 20
5.1008510181
 10
16.6791676576
 20
5.091757955
 10
16.6827573726
 20
5.0852981752
 10
16.6853046312
 20
5.083276821
  0
LWPOLYLINE
  5
780
100
AcDbEntity
  8
02___PRT_ALL_AXES
100
AcDbPolyline
 62
7
  6
CONTINUOUS
 90
3
 70
0
 10
16.400771093
 20
5.4113968858
 10
16.4024875715
 20
5.3860944822
 10
16.4166536096
 20
5.3349115042
  0
LWPOLYLINE
  5
781
100
AcDbEntity
  8
02___PRT_ALL_AXES
100
AcDbPolyline
 62
7
  6
CONTINUOUS
 90
4
 70
0
 10
16.400771093
 20
5.4174242166
 10
16.4024875715
 20
5.392121813
 10
16.4166536096
 20
5.340938835
 10
16.4448072574
 20
5.2916742427
  0
LINE
  5
782
100
AcDbEntity
  8
02___PRT_ALL_AXES
100
AcDbLine
 62
7
  6
CONTINUOUS
 10
16.400771093
 20
5.4596155324
 11
16.4024875715
 21
5.4343131289
  0
LINE
  5
783
100
AcDbEntity
  8
02___PRT_ALL_AXES
100
AcDbLine
 62
7
  6
CONTINUOUS
 10
16.400771093
 20
5.4656428633
 11
16.4024875715
 21
5.4403404597
  0
LINE
  5
784
100
AcDbEntity
  8
02___PRT_ALL_AXES
100
AcDbLine
 62
7
  6
CONTINUOUS
 10
16.400771093
 20
5.5078341791
 11
16.4024875715
 21
5.4825317756
  0
LINE
  5
785
100
AcDbEntity
  8
02___PRT_ALL_AXES
100
AcDbLine
 62
7
  6
CONTINUOUS
 10
16.400771093
 20
5.5138615099
 11
16.4024875715
 21
5.4885591064
  0
LINE
  5
786
100
AcDbEntity
  8
02___PRT_ALL_AXES
100
AcDbLine
 62
7
  6
CONTINUOUS
 10
16.400771093
 20
5.6042714725
 11
16.4024875715
 21
5.5789690689
  0
LINE
  5
787
100
AcDbEntity
  8
02___PRT_ALL_AXES
100
AcDbLine
 62
7
  6
CONTINUOUS
 10
16.400771093
 20
5.6102988033
 11
16.4024875715
 21
5.5849963998
  0
LINE
  5
788
100
AcDbEntity
  8
02___PRT_ALL_AXES
100
AcDbLine
 62
7
  6
CONTINUOUS
 10
16.4020601304
 20
5.6334885735
 11
16.4024875715
 21
5.6271877156
  0
LINE
  5
789
100
AcDbEntity
  8
02___PRT_ALL_AXES
100
AcDbLine
 62
7
  6
CONTINUOUS
 10
16.402483231
 20
5.633279029
 11
16.4024875715
 21
5.6332150464
  0
LINE
  5
78A
100
AcDbEntity
  8
0
100
AcDbLine
 62
7
  6
CONTINUOUS
 10
16.0056413512
 20
11.9520986048
 11
16.0031615336
 21
11.9891270706
  0
LWPOLYLINE
  5
78B
100
AcDbEntity
  8
AXIS
100
AcDbPolyline
 62
7
  6
CONTINUOUS
 90
7
 70
0
 10
16.0031428738
 20
11.5490279111
 10
16.0056413512
 20
11.5084870553
 10
16.0256274109
 20
11.4282353663
 10
16.065192087
 20
11.350442665
 10
16.1235299569
 20
11.2766925866
 10
16.1994534297
 20
11.20848647
 10
16.2914169225
 20
11.147212795
  0
LWPOLYLINE
  5
78C
100
AcDbEntity
  8
AXIS
100
AcDbPolyline
 62
7
  6
CONTINUOUS
 90
18
 70
0
 10
16.0031428738
 20
11.9926394606
 10
16.0056413512
 20
11.9520986048
 10
16.0256274109
 20
11.8718469158
 10
16.065192087
 20
11.7940542145
 10
16.1235299569
 20
11.7203041361
 10
16.1994534297
 20
11.6520980195
 10
16.2914169225
 20
11.5908243445
 10
16.3975483237
 20
11.5377304664
 10
16.5156871042
 20
11.4938972235
 10
16.643428299
 20
11.4602169343
 10
16.7781714657
 20
11.4373752322
 10
16.9171736221
 20
11.4258371085
 10
17.0576050851
 20
11.425837446
 10
17.1966070751
 20
11.437376238
 10
17.3313499123
 20
11.4602185878
 10
17.4590906214
 20
11.4938994912
 10
17.5772287696
 20
11.537733302
 10
17.6833594051
 20
11.5908276903
  0
LWPOLYLINE
  5
78D
100
AcDbEntity
  8
AXIS
100
AcDbPolyline
 62
7
  6
CONTINUOUS
 90
7
 70
0
 10
16.0031428738
 20
12.8573605244
 10
16.0056413512
 20
12.8168196686
 10
16.0256274109
 20
12.7365679796
 10
16.065192087
 20
12.6587752783
 10
16.1235299569
 20
12.5850251999
 10
16.1994534297
 20
12.5168190833
 10
16.2914169225
 20
12.4555454083
  0
LINE
  5
78E
100
AcDbEntity
  8
02___PRT_ALL_AXES
100
AcDbLine
 62
7
  6
CONTINUOUS
 10
16.400771093
 20
5.5560528258
 11
16.4019747975
 21
5.534859432
  0
LINE
  5
78F
100
AcDbEntity
  8
02___PRT_ALL_AXES
100
AcDbLine
 62
7
  6
CONTINUOUS
 10
16.400771093
 20
5.5620801566
 11
16.4019747975
 21
5.5408867628
  0
LWPOLYLINE
  5
790
100
AcDbEntity
  8
0
100
AcDbPolyline
 62
7
  6
CONTINUOUS
 90
7
 70
0
 10
16.0032175264
 20
12.864385573
 10
16.0056413512
 20
12.8168196686
 10
16.0256274109
 20
12.7365679796
 10
16.065192087
 20
12.6587752783
 10
16.1235299569
 20
12.5850251999
 10
16.1994534297
 20
12.5168190833
 10
16.2914169225
 20
12.4555454083
  0
LWPOLYLINE
  5
791
100
AcDbEntity
  8
0
100
AcDbPolyline
 62
9
  6
CONTINUOUS
 90
11
 70
0
 10
16.0079049062
 20
13.0840538202
 10
16.0100541499
 20
13.0389874192
 10
16.0180992656
 20
12.9953995698
 10
16.0319789228
 20
12.952273485
 10
16.0516215815
 20
12.9098694228
 10
16.076827762
 20
12.8685797589
 10
16.1074571372
 20
12.8285788683
 10
16.1438170109
 20
12.7896058182
 10
16.18652392
 20
12.7514257141
 10
16.2364500876
 20
12.7139332961
 10
16.2947381866
 20
12.6771761698
  0
LINE
  5
792
100
AcDbEntity
  8
0
100
AcDbLine
 62
7
  6
CONTINUOUS
 10
17.9095813095
 20
11.7940586479
 11
17.8512445033
 21
11.720308289
  0
LWPOLYLINE
  5
793
100
AcDbEntity
  8
0
100
AcDbPolyline
 62
7
  6
CONTINUOUS
 90
8
 70
0
 10
17.6833594051
 20
10.282495077
 10
17.5772287696
 20
10.2294006887
 10
17.4590906214
 20
10.1855668779
 10
17.3313499123
 20
10.1518859746
 10
17.1966070751
 20
10.1290436247
 10
17.0576050851
 20
10.1175048328
 10
16.9171736221
 20
10.1175044952
 10
16.7781714657
 20
10.1290426189
  0
LINE
  5
794
100
AcDbEntity
  8
0
100
AcDbLine
 62
7
  6
CONTINUOUS
 10
16.3975483237
 20
8.9210652399
 11
16.2914169225
 21
8.9741591179
  0
LWPOLYLINE
  5
795
100
AcDbEntity
  8
0
100
AcDbPolyline
 62
7
  6
CONTINUOUS
 90
5
 70
0
 10
16.2914169225
 20
8.9741591179
 10
16.1994534297
 20
9.0354327929
 10
16.1235299569
 20
9.1036389096
 10
16.065192087
 20
9.177388988
 10
16.0256274109
 20
9.2551816892
  0
LINE
  5
796
100
AcDbEntity
  8
02___PRT_ALL_AXES
100
AcDbLine
 62
7
  6
CONTINUOUS
 10
16.4448072574
 20
5.2856469119
 11
16.4448072574
 21
5.2916742427
  0
LINE
  5
797
100
AcDbEntity
  8
02___PRT_ALL_AXES
100
AcDbLine
 62
7
  6
CONTINUOUS
 10
16.4448072574
 20
5.3338655585
 11
16.4448072574
 21
5.3398928894
  0
LINE
  5
798
100
AcDbEntity
  8
02___PRT_ALL_AXES
100
AcDbLine
 62
7
  6
CONTINUOUS
 10
16.4448072574
 20
5.3820842052
 11
16.4448072574
 21
5.3881115361
  0
LINE
  5
799
100
AcDbEntity
  8
02___PRT_ALL_AXES
100
AcDbLine
 62
7
  6
CONTINUOUS
 10
16.4448072574
 20
5.4303028519
 11
16.4448072574
 21
5.4363301827
  0
LINE
  5
79A
100
AcDbEntity
  8
02___PRT_ALL_AXES
100
AcDbLine
 62
7
  6
CONTINUOUS
 10
16.4448072574
 20
5.4785214986
 11
16.4448072574
 21
5.4845488294
  0
LINE
  5
79B
100
AcDbEntity
  8
02___PRT_ALL_AXES
100
AcDbLine
 62
7
  6
CONTINUOUS
 10
16.4448072574
 20
5.5267401453
 11
16.4448072574
 21
5.5327674761
  0
LINE
  5
79C
100
AcDbEntity
  8
02___PRT_ALL_AXES
100
AcDbLine
 62
7
  6
CONTINUOUS
 10
16.4448072574
 20
5.5749587919
 11
16.4448072574
 21
5.5809861228
  0
LINE
  5
79D
100
AcDbEntity
  8
02___PRT_ALL_AXES
100
AcDbLine
 62
7
  6
CONTINUOUS
 10
16.5312772517
 20
5.5581340697
 11
16.5312772517
 21
5.5493496123
  0
LINE
  5
79E
100
AcDbEntity
  8
02___PRT_ALL_AXES
100
AcDbLine
 62
7
  6
CONTINUOUS
 10
16.5312772517
 20
5.5099154231
 11
16.5312772517
 21
5.5011309656
  0
LINE
  5
79F
100
AcDbEntity
  8
02___PRT_ALL_AXES
100
AcDbLine
 62
7
  6
CONTINUOUS
 10
16.5312772517
 20
5.4616967764
 11
16.5312772517
 21
5.4529123189
  0
LINE
  5
7A0
100
AcDbEntity
  8
02___PRT_ALL_AXES
100
AcDbLine
 62
7
  6
CONTINUOUS
 10
16.5312772517
 20
5.4134781297
 11
16.5312772517
 21
5.4046936722
  0
LINE
  5
7A1
100
AcDbEntity
  8
02___PRT_ALL_AXES
100
AcDbLine
 62
7
  6
CONTINUOUS
 10
16.5312772517
 20
5.365259483
 11
16.5312772517
 21
5.3564750255
  0
LINE
  5
7A2
100
AcDbEntity
  8
02___PRT_ALL_AXES
100
AcDbLine
 62
7
  6
CONTINUOUS
 10
16.5312772517
 20
5.3170408363
 11
16.5312772517
 21
5.3082563789
  0
LINE
  5
7A3
100
AcDbEntity
  8
02___PRT_ALL_AXES
100
AcDbLine
 62
7
  6
CONTINUOUS
 10
16.5312772517
 20
5.2688221897
 11
16.5312772517
 21
5.2600377322
  0
LINE
  5
7A4
100
AcDbEntity
  8
0
100
AcDbLine
 62
7
  6
CONTINUOUS
 10
16.5312772517
 20
5.220603543
 11
16.5312772517
 21
5.1855180109
  0
LINE
  5
7A5
100
AcDbEntity
  8
02___PRT_ALL_AXES
100
AcDbLine
 62
7
  6
CONTINUOUS
 10
16.6779281026
 20
5.5245906459
 11
16.6779281026
 21
5.5158061884
  0
LINE
  5
7A6
100
AcDbEntity
  8
02___PRT_ALL_AXES
100
AcDbLine
 62
7
  6
CONTINUOUS
 10
16.6779281026
 20
5.4763719992
 11
16.6779281026
 21
5.4675875417
  0
LINE
  5
7A7
100
AcDbEntity
  8
02___PRT_ALL_AXES
100
AcDbLine
 62
7
  6
CONTINUOUS
 10
16.6779281026
 20
5.4281533525
 11
16.6779281026
 21
5.4193688951
  0
LINE
  5
7A8
100
AcDbEntity
  8
02___PRT_ALL_AXES
100
AcDbLine
 62
7
  6
CONTINUOUS
 10
16.6779281026
 20
5.3799347059
 11
16.6779281026
 21
5.3711502484
  0
LINE
  5
7A9
100
AcDbEntity
  8
02___PRT_ALL_AXES
100
AcDbLine
 62
7
  6
CONTINUOUS
 10
16.6779281026
 20
5.3317160592
 11
16.6779281026
 21
5.3229316017
  0
LINE
  5
7AA
100
AcDbEntity
  8
02___PRT_ALL_AXES
100
AcDbLine
 62
7
  6
CONTINUOUS
 10
16.6779281026
 20
5.2834974125
 11
16.6779281026
 21
5.274712955
  0
LINE
  5
7AB
100
AcDbEntity
  8
02___PRT_ALL_AXES
100
AcDbLine
 62
7
  6
CONTINUOUS
 10
16.6779281026
 20
5.2352787658
 11
16.6779281026
 21
5.2264943083
  0
LINE
  5
7AC
100
AcDbEntity
  8
02___PRT_ALL_AXES
100
AcDbLine
 62
7
  6
CONTINUOUS
 10
16.6779281026
 20
5.1870601191
 11
16.6779281026
 21
5.1782756617
  0
LINE
  5
7AD
100
AcDbEntity
  8
0
100
AcDbLine
 62
7
  6
CONTINUOUS
 10
16.6779281026
 20
5.1388414724
 11
16.6779281026
 21
5.1008510181
  0
LINE
  5
7AE
100
AcDbEntity
  8
02___PRT_ALL_AXES
100
AcDbLine
 62
7
  6
CONTINUOUS
 10
16.40223579
 20
5.6308991961
 11
16.400771093
 21
5.6102988033
  0
LINE
  5
7AF
100
AcDbEntity
  8
02___PRT_ALL_AXES
100
AcDbLine
 62
7
  6
CONTINUOUS
 10
16.4022019091
 20
5.5339853814
 11
16.400771093
 21
5.5138615099
  0
LINE
  5
7B0
100
AcDbEntity
  8
02___PRT_ALL_AXES
100
AcDbLine
 62
7
  6
CONTINUOUS
 10
16.40223579
 20
5.4862432561
 11
16.400771093
 21
5.4656428633
  0
LINE
  5
7B1
100
AcDbEntity
  8
02___PRT_ALL_AXES
100
AcDbLine
 62
7
  6
CONTINUOUS
 10
16.40223579
 20
5.4380246094
 11
16.400771093
 21
5.4174242166
  0
LWPOLYLINE
  5
7B2
100
AcDbEntity
  8
AXIS
100
AcDbPolyline
 62
7
  6
CONTINUOUS
 90
3
 70
0
 10
16.007349419
 20
7.6714274993
 10
16.0056407666
 20
7.6645661994
 10
16.0031428738
 20
7.6240300713
  0
LWPOLYLINE
  5
7B3
100
AcDbEntity
  8
0
100
AcDbPolyline
 62
9
  6
CONTINUOUS
 90
14
 70
0
 10
17.8618121573
 20
13.0152563073
 10
17.8759498468
 20
13.0547227007
 10
17.8847529701
 20
13.0947095288
 10
17.88816587
 20
13.1349759499
 10
17.8861663007
 20
13.1752740807
 10
17.8787669467
 20
13.2153590385
 10
17.8660018899
 20
13.2550193026
 10
17.8479369378
 20
13.2940155041
 10
17.8247555531
 20
13.331986807
 10
17.7965867109
 20
13.3687729442
 10
17.7631476864
 20
13.404613953
 10
17.7238713496
 20
13.4397258295
 10
17.6779555224
 20
13.4742053964
 10
17.6243633582
 20
13.5080005252
  0
LINE
  5
7B4
100
AcDbEntity
  8
0
100
AcDbLine
 62
7
  6
CONTINUOUS
 10
17.9491448636
 20
11.8718515393
 11
17.9095813095
 21
11.7940586479
  0
LINE
  5
7B5
100
AcDbEntity
  8
0
100
AcDbLine
 62
7
  6
CONTINUOUS
 10
17.7753220142
 20
10.3437691941
 11
17.6833594051
 21
10.282495077
  0
LWPOLYLINE
  5
7B6
100
AcDbEntity
  8
AXIS
100
AcDbPolyline
 62
7
  6
CONTINUOUS
 90
6
 70
0
 10
17.6833594051
 20
10.282495077
 10
17.7753220142
 20
10.3437691941
 10
17.8512445033
 20
10.4119756757
 10
17.9095813095
 20
10.4857260346
 10
17.9491448636
 20
10.563518926
 10
17.9691297658
 20
10.6437707112
  0
LWPOLYLINE
  5
7B7
100
AcDbEntity
  8
0
100
AcDbPolyline
 62
7
  6
CONTINUOUS
 90
3
 70
0
 10
16.065192087
 20
10.4857216012
 10
16.0256274109
 20
10.5635143025
 10
16.0056413512
 20
10.6437659915
  0
LINE
  5
7B8
100
AcDbEntity
  8
0
100
AcDbLine
 62
7
  6
CONTINUOUS
 10
16.0256274109
 20
11.8718469158
 11
16.0056413512
 21
11.9520986048
  0
LINE
  5
7B9
100
AcDbEntity
  8
02___PRT_ALL_AXES
100
AcDbLine
 62
7
  6
CONTINUOUS
 10
16.764398097
 20
5.4989814662
 11
16.764398097
 21
5.4929541354
  0
LINE
  5
7BA
100
AcDbEntity
  8
02___PRT_ALL_AXES
100
AcDbLine
 62
7
  6
CONTINUOUS
 10
16.764398097
 20
5.4507628195
 11
16.764398097
 21
5.4447354887
  0
LINE
  5
7BB
100
AcDbEntity
  8
02___PRT_ALL_AXES
100
AcDbLine
 62
7
  6
CONTINUOUS
 10
16.764398097
 20
5.4025441728
 11
16.764398097
 21
5.396516842
  0
LINE
  5
7BC
100
AcDbEntity
  8
02___PRT_ALL_AXES
100
AcDbLine
 62
7
  6
CONTINUOUS
 10
16.764398097
 20
5.3543255262
 11
16.764398097
 21
5.3482981953
  0
LINE
  5
7BD
100
AcDbEntity
  8
02___PRT_ALL_AXES
100
AcDbLine
 62
7
  6
CONTINUOUS
 10
16.764398097
 20
5.3061068795
 11
16.764398097
 21
5.3000795487
  0
LINE
  5
7BE
100
AcDbEntity
  8
02___PRT_ALL_AXES
100
AcDbLine
 62
7
  6
CONTINUOUS
 10
16.764398097
 20
5.2578882328
 11
16.764398097
 21
5.251860902
  0
LINE
  5
7BF
100
AcDbEntity
  8
02___PRT_ALL_AXES
100
AcDbLine
 62
7
  6
CONTINUOUS
 10
16.764398097
 20
5.2096695861
 11
16.764398097
 21
5.2036422553
  0
LINE
  5
7C0
100
AcDbEntity
  8
02___PRT_ALL_AXES
100
AcDbLine
 62
7
  6
CONTINUOUS
 10
16.764398097
 20
5.1614509394
 11
16.764398097
 21
5.1554236086
  0
LINE
  5
7C1
100
AcDbEntity
  8
02___PRT_ALL_AXES
100
AcDbLine
 62
7
  6
CONTINUOUS
 10
16.764398097
 20
5.1132322928
 11
16.764398097
 21
5.1072049619
  0
LINE
  5
7C2
100
AcDbEntity
  8
02___PRT_ALL_AXES
100
AcDbLine
 62
7
  6
CONTINUOUS
 10
16.4023847539
 20
5.5804846911
 11
16.400771093
 21
5.5620801566
  0
LINE
  5
7C3
100
AcDbEntity
  8
0
100
AcDbLine
 62
7
  6
CONTINUOUS
 10
17.9095813095
 20
10.4857260346
 11
17.8512445033
 21
10.4119756757
  0
LINE
  5
7C4
100
AcDbEntity
  8
0
100
AcDbLine
 62
7
  6
CONTINUOUS
 10
17.8512445033
 20
10.4119756757
 11
17.7753220142
 21
10.3437691941
  0
LWPOLYLINE
  5
7C5
100
AcDbEntity
  8
AXIS
100
AcDbPolyline
 62
7
  6
CONTINUOUS
 90
6
 70
0
 10
17.6833594051
 20
9.8388835276
 10
17.7753220142
 20
9.9001576447
 10
17.8512445033
 20
9.9683641263
 10
17.9095813095
 20
10.0421144851
 10
17.9491448636
 20
10.1199073766
 10
17.9691297658
 20
10.2001591617
  0
LINE
  5
7C6
100
AcDbEntity
  8
02___PRT_ALL_AXES
100
AcDbLine
 62
7
  6
CONTINUOUS
 10
17.5739994394
 20
5.4415335399
 11
17.5725997151
 21
5.463124417
  0
LINE
  5
7C7
100
AcDbEntity
  8
02___PRT_ALL_AXES
100
AcDbLine
 62
7
  6
CONTINUOUS
 10
17.5739994394
 20
5.4897521866
 11
17.5725997151
 21
5.5113430637
  0
LINE
  5
7C8
100
AcDbEntity
  8
0
100
AcDbLine
 62
7
  6
CONTINUOUS
 10
17.9691297658
 20
11.9521033244
 11
17.9491448636
 21
11.8718515393
  0
LWPOLYLINE
  5
7C9
100
AcDbEntity
  8
AXIS
100
AcDbPolyline
 62
7
  6
CONTINUOUS
 90
12
 70
0
 10
16.2914169225
 20
9.8388801817
 10
16.3975483237
 20
9.7857863037
 10
16.5156871042
 20
9.7419530608
 10
16.643428299
 20
9.7082727716
 10
16.7781714657
 20
9.6854310695
 10
16.9171736221
 20
9.6738929457
 10
17.0576050851
 20
9.6738932833
 10
17.1966070751
 20
9.6854320753
 10
17.3313499123
 20
9.7082744251
 10
17.4590906214
 20
9.7419553285
 10
17.5772287696
 20
9.7857891393
 10
17.6833594051
 20
9.8388835276
  0
LWPOLYLINE
  5
7CA
100
AcDbEntity
  8
0
100
AcDbPolyline
 62
7
  6
CONTINUOUS
 90
7
 70
0
 10
16.2947695628
 20
9.840815818
 10
16.2032490794
 20
9.9017943235
 10
16.1276913475
 20
9.9696718755
 10
16.0696345046
 20
10.0430666827
 10
16.0302604207
 20
10.1204846386
 10
16.0103706385
 20
10.2003497367
 10
16.0079027667
 20
10.2371998278
  0
LINE
  5
7CB
100
AcDbEntity
  8
0
100
AcDbLine
 62
7
  6
CONTINUOUS
 10
16.065192087
 20
11.7940542145
 11
16.0256274109
 21
11.8718469158
  0
LINE
  5
7CC
100
AcDbEntity
  8
02___PRT_ALL_AXES
100
AcDbLine
 62
7
  6
CONTINUOUS
 10
17.5739994394
 20
5.5379708333
 11
17.5725997151
 21
5.5595617104
  0
LINE
  5
7CD
100
AcDbEntity
  8
02___PRT_ALL_AXES
100
AcDbLine
 62
7
  6
CONTINUOUS
 10
17.5739994394
 20
5.58618948
 11
17.5725997151
 21
5.6077803571
  0
LWPOLYLINE
  5
7CE
100
AcDbEntity
  8
0
100
AcDbPolyline
 62
7
  6
CONTINUOUS
 90
3
 70
0
 10
17.9691297658
 20
10.6437707112
 10
17.9491448636
 20
10.563518926
 10
17.9095813095
 20
10.4857260346
  0
LINE
  5
7CF
100
AcDbEntity
  8
0
100
AcDbLine
 62
7
  6
CONTINUOUS
 10
17.6833594051
 20
8.9741624637
 11
17.5772287696
 21
8.9210680755
  0
LWPOLYLINE
  5
7D0
100
AcDbEntity
  8
0
100
AcDbPolyline
 62
7
  6
CONTINUOUS
 90
10
 70
0
 10
17.5772287696
 20
8.9210680755
 10
17.4590906214
 20
8.8772342647
 10
17.3313499123
 20
8.8435533613
 10
17.1966070751
 20
8.8207110114
 10
17.0576050851
 20
8.8091722195
 10
16.9171736221
 20
8.8091718819
 10
16.7781714657
 20
8.8207100057
 10
16.643428299
 20
8.8435517077
 10
16.5156871042
 20
8.877231997
 10
16.3975483237
 20
8.9210652399
  0
LINE
  5
7D1
100
AcDbEntity
  8
0
100
AcDbLine
 62
7
  6
CONTINUOUS
 10
16.3975483237
 20
10.2293978531
 11
16.2914169225
 21
10.2824917312
  0
LWPOLYLINE
  5
7D2
100
AcDbEntity
  8
0
100
AcDbPolyline
 62
7
  6
CONTINUOUS
 90
4
 70
0
 10
16.2914169225
 20
10.2824917312
 10
16.1994534297
 20
10.3437654062
 10
16.1235299569
 20
10.4119715228
 10
16.065192087
 20
10.4857216012
  0
LWPOLYLINE
  5
7D3
100
AcDbEntity
  8
AXIS
100
AcDbPolyline
 62
7
  6
CONTINUOUS
 90
3
 70
0
 10
17.9716276586
 20
7.6240300632
 10
17.9691291811
 20
7.664570919
 10
17.9674211335
 20
7.6714293848
  0
LINE
  5
7D4
100
AcDbEntity
  8
02___PRT_ALL_AXES
100
AcDbLine
 62
7
  6
CONTINUOUS
 10
17.8732120379
 20
6.2512028554
 11
17.8732120379
 21
6.0713896441
  0
LINE
  5
7D5
100
AcDbEntity
  8
0
100
AcDbLine
 62
7
  6
CONTINUOUS
 10
17.9691297658
 20
12.8168243883
 11
17.9715530054
 21
12.8643855656
  0
LINE
  5
7D6
100
AcDbEntity
  8
AXIS
100
AcDbLine
 62
7
  6
CONTINUOUS
 10
17.9691297658
 20
11.9521033244
 11
17.9716276586
 21
11.9926394525
  0
LINE
  5
7D7
100
AcDbEntity
  8
AXIS
100
AcDbLine
 62
7
  6
CONTINUOUS
 10
17.9691297658
 20
11.508491775
 11
17.9716276586
 21
11.5490279031
  0
LINE
  5
7D8
100
AcDbEntity
  8
AXIS
100
AcDbLine
 62
7
  6
CONTINUOUS
 10
17.9691297658
 20
10.6437707112
 11
17.9716276586
 21
10.6843068393
  0
LINE
  5
7D9
100
AcDbEntity
  8
AXIS
100
AcDbLine
 62
7
  6
CONTINUOUS
 10
17.9691297658
 20
10.2001591617
 11
17.9716276586
 21
10.2406952898
  0
LINE
  5
7DA
100
AcDbEntity
  8
0
100
AcDbLine
 62
7
  6
CONTINUOUS
 10
17.9716089991
 20
11.9891270627
 11
17.9691297658
 21
11.9521033244
  0
LWPOLYLINE
  5
7DB
100
AcDbEntity
  8
0
100
AcDbPolyline
 62
7
  6
CONTINUOUS
 90
18
 70
0
 10
17.966867766
 20
11.5455324333
 10
17.9644004758
 20
11.5086870469
 10
17.9445118454
 20
11.4288218532
 10
17.9051388781
 20
11.351403708
 10
17.8470830938
 20
11.2780086217
 10
17.7715263408
 20
11.2101307065
 10
17.6800067369
 20
11.1491517609
 10
17.5743873572
 20
11.0963131406
 10
17.4568183077
 20
11.0526904874
 10
17.3296929552
 20
11.0191718327
 10
17.1955992053
 20
10.9964395197
 10
17.05726682
 20
10.9849563128
 10
16.9175118478
 20
10.9849559769
 10
16.7791792969
 20
10.9964385188
 10
16.6450852191
 20
11.0191701871
 10
16.5179593832
 20
11.0526882306
 10
16.4003897046
 20
11.0963103187
 10
16.2947695628
 20
11.1491484312
  0
LINE
  5
7DC
100
AcDbEntity
  8
0
100
AcDbLine
 62
7
  6
CONTINUOUS
 10
17.9716089991
 20
10.6807944494
 11
17.9691297658
 21
10.6437707112
  0
LWPOLYLINE
  5
7DD
100
AcDbEntity
  8
0
100
AcDbPolyline
 62
7
  6
CONTINUOUS
 90
18
 70
0
 10
17.966867766
 20
10.23719982
 10
17.9644004758
 20
10.2003544336
 10
17.9445118454
 20
10.1204892399
 10
17.9051388781
 20
10.0430710948
 10
17.8470830938
 20
9.9696760084
 10
17.7715263408
 20
9.9017980932
 10
17.6800067369
 20
9.8408191477
 10
17.5743873572
 20
9.7879805273
 10
17.4568183077
 20
9.7443578741
 10
17.3296929552
 20
9.7108392194
 10
17.1955992053
 20
9.6881069065
 10
17.05726682
 20
9.6766236995
 10
16.9175118478
 20
9.6766233636
 10
16.7791792969
 20
9.6881059055
 10
16.6450852191
 20
9.7108375738
 10
16.5179593832
 20
9.7443556174
 10
16.4003897046
 20
9.7879777054
 10
16.2947695628
 20
9.840815818
  0
LINE
  5
7DE
100
AcDbEntity
  8
02___PRT_ALL_AXES
100
AcDbLine
 62
7
  6
CONTINUOUS
 10
17.5721142053
 20
5.6066622003
 11
17.5739994394
 21
5.6344081266
  0
LINE
  5
7DF
100
AcDbEntity
  8
02___PRT_ALL_AXES
100
AcDbLine
 62
7
  6
CONTINUOUS
 10
17.5721142053
 20
5.5584435537
 11
17.5739994394
 21
5.58618948
  0
LINE
  5
7E0
100
AcDbEntity
  8
02___PRT_ALL_AXES
100
AcDbLine
 62
7
  6
CONTINUOUS
 10
17.5721142053
 20
5.510224907
 11
17.5739994394
 21
5.5379708333
  0
LINE
  5
7E1
100
AcDbEntity
  8
02___PRT_ALL_AXES
100
AcDbLine
 62
7
  6
CONTINUOUS
 10
17.5721142053
 20
5.4620062603
 11
17.5739994394
 21
5.4897521866
  0
LINE
  5
7E2
100
AcDbEntity
  8
02___PRT_ALL_AXES
100
AcDbLine
 62
7
  6
CONTINUOUS
 10
17.5721142053
 20
5.4137876136
 11
17.5739994394
 21
5.4415335399
  0
LWPOLYLINE
  5
7E3
100
AcDbEntity
  8
0
100
AcDbPolyline
 62
7
  6
CONTINUOUS
 90
3
 70
0
 10
17.9491448636
 20
9.2551863128
 10
17.9095813095
 20
9.1773934213
 10
17.8512445033
 20
9.1036430625
  0
LINE
  5
7E4
100
AcDbEntity
  8
0
100
AcDbLine
 62
7
  6
CONTINUOUS
 10
17.8512445033
 20
9.1036430625
 11
17.7753220142
 21
9.0354365809
  0
LINE
  5
7E5
100
AcDbEntity
  8
0
100
AcDbLine
 62
7
  6
CONTINUOUS
 10
17.7753220142
 20
9.0354365809
 11
17.6833594051
 21
8.9741624637
  0
LWPOLYLINE
  5
7E6
100
AcDbEntity
  8
AXIS
100
AcDbPolyline
 62
7
  6
CONTINUOUS
 90
6
 70
0
 10
17.6833594051
 20
8.9741624637
 10
17.7753220142
 20
9.0354365809
 10
17.8512445033
 20
9.1036430625
 10
17.9095813095
 20
9.1773934213
 10
17.9491448636
 20
9.2551863128
 10
17.9691297658
 20
9.3354380979
  0
LWPOLYLINE
  5
7E7
100
AcDbEntity
  8
0
100
AcDbPolyline
 62
7
  6
CONTINUOUS
 90
4
 70
0
 10
16.7781714657
 20
10.1290426189
 10
16.643428299
 20
10.151884321
 10
16.5156871042
 20
10.1855646103
 10
16.3975483237
 20
10.2293978531
  0
LINE
  5
7E8
100
AcDbEntity
  8
0
100
AcDbLine
 62
7
  6
CONTINUOUS
 10
16.1235299569
 20
11.7203041361
 11
16.065192087
 21
11.7940542145
  0
LWPOLYLINE
  5
7E9
100
AcDbEntity
  8
0
100
AcDbPolyline
 62
9
  6
CONTINUOUS
 90
8
 70
0
 10
16.1087686425
 20
13.0254671925
 10
16.1268335946
 20
12.9864709911
 10
16.1500149793
 20
12.9484996882
 10
16.1781838215
 20
12.9117135509
 10
16.211622846
 20
12.8758725421
 10
16.2508991828
 20
12.8407606656
 10
16.29681501
 20
12.8062810987
 10
16.3504071742
 20
12.7724859699
  0
LWPOLYLINE
  5
7EA
100
AcDbEntity
  8
AXIS
100
AcDbPolyline
 62
7
  6
CONTINUOUS
 90
3
 70
0
 10
17.9716276586
 20
8.9323626765
 10
17.9691291811
 20
8.9729035323
 10
17.9674211335
 20
8.979761998
  0
LWPOLYLINE
  5
7EB
100
AcDbEntity
  8
AXIS
100
AcDbPolyline
 62
7
  6
CONTINUOUS
 90
3
 70
0
 10
17.9716276586
 20
10.2406952898
 10
17.9691291811
 20
10.2812361456
 10
17.9674211335
 20
10.2880946113
  0
LWPOLYLINE
  5
7EC
100
AcDbEntity
  8
AXIS
100
AcDbPolyline
 62
7
  6
CONTINUOUS
 90
3
 70
0
 10
17.9716276586
 20
11.5490279031
 10
17.9691291811
 20
11.5895687589
 10
17.9674211335
 20
11.5964272246
  0
LINE
  5
7ED
100
AcDbEntity
  8
0
100
AcDbLine
 62
7
  6
CONTINUOUS
 10
17.9715622648
 20
12.8643740496
 11
17.9668656262
 21
13.0840538203
  0
LINE
  5
7EE
100
AcDbEntity
  8
02___PRT_ALL_AXES
100
AcDbLine
 62
7
  6
CONTINUOUS
 10
17.9716372347
 20
6.7593090035
 11
17.9716372347
 21
6.5053574643
  0
LINE
  5
7EF
100
AcDbEntity
  8
AXIS
100
AcDbLine
 62
7
  6
CONTINUOUS
 10
17.9716372347
 20
6.7593090035
 11
17.9716372347
 21
7.6240300673
  0
LINE
  5
7F0
100
AcDbEntity
  8
AXIS
100
AcDbLine
 62
7
  6
CONTINUOUS
 10
17.9716372347
 20
8.0676416167
 11
17.9716372347
 21
8.9323626805
  0
LINE
  5
7F1
100
AcDbEntity
  8
AXIS
100
AcDbLine
 62
7
  6
CONTINUOUS
 10
17.9716372347
 20
9.37597423
 11
17.9716372347
 21
10.2406952938
  0
LINE
  5
7F2
100
AcDbEntity
  8
AXIS
100
AcDbLine
 62
7
  6
CONTINUOUS
 10
17.9716372347
 20
10.6843068433
 11
17.9716372347
 21
11.5490279071
  0
LINE
  5
7F3
100
AcDbEntity
  8
AXIS
100
AcDbLine
 62
7
  6
CONTINUOUS
 10
17.9716372347
 20
11.9926394566
 11
17.9716372347
 21
12.8573605204
  0
LINE
  5
7F4
100
AcDbEntity
  8
0
100
AcDbLine
 62
7
  6
CONTINUOUS
 10
17.9716184956
 20
11.989132959
 11
17.9668772168
 21
11.5455383011
  0
LINE
  5
7F5
100
AcDbEntity
  8
0
100
AcDbLine
 62
7
  6
CONTINUOUS
 10
17.9716184956
 20
10.6808003457
 11
17.9668772168
 21
10.2372056879
  0
LINE
  5
7F6
100
AcDbEntity
  8
0
100
AcDbLine
 62
7
  6
CONTINUOUS
 10
17.9716184956
 20
9.3724677324
 11
17.9668772168
 21
8.9288730746
  0
LINE
  5
7F7
100
AcDbEntity
  8
0
100
AcDbLine
 62
7
  6
CONTINUOUS
 10
17.9716184956
 20
8.0641351192
 11
17.9668772168
 21
7.6205404613
  0
LINE
  5
7F8
100
AcDbEntity
  8
AXIS
100
AcDbLine
 62
7
  6
CONTINUOUS
 10
17.9691297658
 20
9.3354380979
 11
17.9716276586
 21
9.375974226
  0
LINE
  5
7F9
100
AcDbEntity
  8
AXIS
100
AcDbLine
 62
7
  6
CONTINUOUS
 10
17.9691297658
 20
8.8918265484
 11
17.9716276586
 21
8.9323626765
  0
LINE
  5
7FA
100
AcDbEntity
  8
AXIS
100
AcDbLine
 62
7
  6
CONTINUOUS
 10
17.9691297658
 20
8.0271054846
 11
17.9716276586
 21
8.0676416127
  0
LINE
  5
7FB
100
AcDbEntity
  8
AXIS
100
AcDbLine
 62
7
  6
CONTINUOUS
 10
17.9691297658
 20
7.5834939352
 11
17.9716276586
 21
7.6240300632
  0
LINE
  5
7FC
100
AcDbEntity
  8
02___PRT_ALL_AXES
100
AcDbLine
 62
9
  6
CONTINUOUS
 10
17.9716372347
 20
6.5053574643
 11
17.9691297658
 21
6.4648213322
  0
LINE
  5
7FD
100
AcDbEntity
  8
0
100
AcDbLine
 62
7
  6
CONTINUOUS
 10
17.9716089991
 20
9.3724618362
 11
17.9691297658
 21
9.3354380979
  0
LWPOLYLINE
  5
7FE
100
AcDbEntity
  8
0
100
AcDbPolyline
 62
7
  6
CONTINUOUS
 90
18
 70
0
 10
17.966867766
 20
8.9288672067
 10
17.9644004758
 20
8.8920218203
 10
17.9445118454
 20
8.8121566266
 10
17.9051388781
 20
8.7347384815
 10
17.8470830938
 20
8.6613433952
 10
17.7715263408
 20
8.5934654799
 10
17.6800067369
 20
8.5324865344
 10
17.5743873572
 20
8.479647914
 10
17.4568183077
 20
8.4360252608
 10
17.3296929552
 20
8.4025066062
 10
17.1955992053
 20
8.3797742932
 10
17.05726682
 20
8.3682910862
 10
16.9175118478
 20
8.3682907503
 10
16.7791792969
 20
8.3797732922
 10
16.6450852191
 20
8.4025049606
 10
16.5179593832
 20
8.4360230041
 10
16.4003897046
 20
8.4796450921
 10
16.2947695628
 20
8.5324832047
  0
LINE
  5
7FF
100
AcDbEntity
  8
0
100
AcDbLine
 62
7
  6
CONTINUOUS
 10
17.9716089991
 20
8.0641292229
 11
17.9691297658
 21
8.0271054846
  0
LWPOLYLINE
  5
800
100
AcDbEntity
  8
0
100
AcDbPolyline
 62
7
  6
CONTINUOUS
 90
18
 70
0
 10
17.966867766
 20
7.6205345934
 10
17.9644004758
 20
7.5836892071
 10
17.9445118454
 20
7.5038240133
 10
17.9051388781
 20
7.4264058682
 10
17.8470830938
 20
7.3530107819
 10
17.7715263408
 20
7.2851328666
 10
17.6800067369
 20
7.2241539211
 10
17.5743873572
 20
7.1713153008
 10
17.4568183077
 20
7.1276926476
 10
17.3296929552
 20
7.0941739929
 10
17.1955992053
 20
7.0714416799
 10
17.05726682
 20
7.059958473
 10
16.9175118478
 20
7.059958137
 10
16.7791792969
 20
7.071440679
 10
16.6450852191
 20
7.0941723473
 10
16.5179593832
 20
7.1276903908
 10
16.4003897046
 20
7.1713124788
 10
16.2947695628
 20
7.2241505914
  0
LWPOLYLINE
  5
801
100
AcDbEntity
  8
02___PRT_ALL_AXES
100
AcDbPolyline
 62
9
  6
CONTINUOUS
 90
16
 70
0
 10
17.8732120379
 20
6.0713896441
 10
17.867642558
 20
6.0141303263
 10
17.8430291771
 20
5.9390251672
 10
17.7993021251
 20
5.8668768117
 10
17.7374381922
 20
5.799296935
 10
17.6588193164
 20
5.7377951598
 10
17.5652017134
 20
5.6837453341
 10
17.4586766457
 20
5.6383548418
 10
17.3416237074
 20
5.6026376314
 10
17.2166576677
 20
5.5773915663
 10
17.0865700615
 20
5.563180602
 10
16.9542668308
 20
5.5603221879
 10
16.8227034112
 20
5.5688801763
 10
16.6948187121
 20
5.5886633958
 10
16.5734694664
 20
5.619229922
 10
16.4613664157
 20
5.6598969492
  0
LWPOLYLINE
  5
802
100
AcDbEntity
  8
02___PRT_ALL_AXES
100
AcDbPolyline
 62
7
  6
CONTINUOUS
 90
6
 70
0
 10
17.8732120379
 20
6.0713896441
 10
17.8650910787
 20
5.9910044657
 10
17.8401589571
 20
5.9107100254
 10
17.7974834347
 20
5.8319868461
 10
17.7365598537
 20
5.756953598
 10
17.6582352156
 20
5.6883124274
  0
LINE
  5
803
100
AcDbEntity
  8
0
100
AcDbLine
 62
7
  6
CONTINUOUS
 10
17.9691297658
 20
9.3354380979
 11
17.9491448636
 21
9.2551863128
  0
LWPOLYLINE
  5
804
100
AcDbEntity
  8
0
100
AcDbPolyline
 62
7
  6
CONTINUOUS
 90
17
 70
0
 10
17.189679578
 20
5.0515072734
 10
17.1864695029
 20
5.0386168296
 10
17.1782798472
 20
5.0225137011
 10
17.1662041283
 20
5.0072473768
 10
17.150488173
 20
4.9931286351
 10
17.131451913
 20
4.9804448929
 10
17.1094828714
 20
4.9694543545
 10
17.0850282747
 20
4.9603807557
 10
17.058585948
 20
4.9534088087
 10
17.0306941806
 20
4.9486804423
 10
17.0019207687
 20
4.9462919123
 10
16.9728514559
 20
4.9462918425
 10
16.9440780095
 20
4.9486802341
 10
16.916186174
 20
4.9534084664
 10
16.8897437467
 20
4.9603802863
 10
16.8652890191
 20
4.9694537676
 10
16.843319819
 20
4.9804442003
  0
LWPOLYLINE
  5
805
100
AcDbEntity
  8
AXIS
100
AcDbPolyline
 62
7
  6
CONTINUOUS
 90
6
 70
0
 10
17.6833594051
 20
8.5305509143
 10
17.7753220142
 20
8.5918250314
 10
17.8512445033
 20
8.660031513
 10
17.9095813095
 20
8.7337818719
 10
17.9491448636
 20
8.8115747633
 10
17.9691297658
 20
8.8918265484
  0
LWPOLYLINE
  5
806
100
AcDbEntity
  8
0
100
AcDbPolyline
 62
7
  6
CONTINUOUS
 90
7
 70
0
 10
16.2947695628
 20
11.1491484312
 10
16.2032490794
 20
11.2101269368
 10
16.1276913475
 20
11.2780044888
 10
16.0696345046
 20
11.351399296
 10
16.0302604207
 20
11.4288172519
 10
16.0103706385
 20
11.50868235
 10
16.0079027667
 20
11.5455324411
  0
LINE
  5
807
100
AcDbEntity
  8
0
100
AcDbLine
 62
7
  6
CONTINUOUS
 10
16.1994534297
 20
11.6520980195
 11
16.1235299569
 21
11.7203041361
  0
LWPOLYLINE
  5
808
100
AcDbEntity
  8
02___PRT_ALL_AXES
100
AcDbPolyline
 62
7
  6
CONTINUOUS
 90
15
 70
0
 10
17.9716372347
 20
6.5053574643
 10
17.9626046906
 20
6.4255595703
 10
17.9352996021
 20
6.3465556924
 10
17.8898475553
 20
6.2702145115
 10
17.8266974004
 20
6.198044287
 10
17.7471812054
 20
6.1318766129
 10
17.6530739545
 20
6.0731384204
 10
17.5464432269
 20
6.0229423469
 10
17.4295022786
 20
5.9821273357
 10
17.3044166858
 20
5.9512889865
 10
17.1735747563
 20
5.9309055275
 10
17.0393758237
 20
5.9212743454
 10
16.9042494129
 20
5.9225330828
 10
16.7706861267
 20
5.9346539313
 10
16.6410750943
 20
5.9574508931
  0
LINE
  5
809
100
AcDbEntity
  8
02___PRT_ALL_AXES
100
AcDbLine
 62
7
  6
CONTINUOUS
 10
17.9716372347
 20
6.7593090102
 11
17.9632173575
 21
6.6851398384
  0
LINE
  5
80A
100
AcDbEntity
  8
0
100
AcDbLine
 62
7
  6
CONTINUOUS
 10
17.9691297658
 20
8.0271054846
 11
17.9491448636
 21
7.9468536995
  0
LINE
  5
80B
100
AcDbEntity
  8
02___PRT_ALL_AXES
100
AcDbLine
 62
7
  6
CONTINUOUS
 10
17.5576147919
 20
5.6013230021
 11
17.5655586365
 21
5.6306659268
  0
LINE
  5
80C
100
AcDbEntity
  8
02___PRT_ALL_AXES
100
AcDbLine
 62
7
  6
CONTINUOUS
 10
17.5576147919
 20
5.5952956713
 11
17.5670789551
 21
5.6302543395
  0
LINE
  5
80D
100
AcDbEntity
  8
0
100
AcDbLine
 62
7
  6
CONTINUOUS
 10
17.9491448636
 20
7.9468536995
 11
17.9095813095
 21
7.869060808
  0
LWPOLYLINE
  5
80E
100
AcDbEntity
  8
AXIS
100
AcDbPolyline
 62
7
  6
CONTINUOUS
 90
12
 70
0
 10
16.2914169225
 20
11.147212795
 10
16.3975483237
 20
11.094118917
 10
16.5156871042
 20
11.0502856741
 10
16.643428299
 20
11.0166053848
 10
16.7781714657
 20
10.9937636827
 10
16.9171736221
 20
10.982225559
 10
17.0576050851
 20
10.9822258966
 10
17.1966070751
 20
10.9937646885
 10
17.3313499123
 20
11.0166070384
 10
17.4590906214
 20
11.0502879417
 10
17.5772287696
 20
11.0941217526
 10
17.6833594051
 20
11.1472161408
  0
LINE
  5
80F
100
AcDbEntity
  8
0
100
AcDbLine
 62
7
  6
CONTINUOUS
 10
16.2914169225
 20
11.5908243445
 11
16.1994534297
 21
11.6520980195
  0
LWPOLYLINE
  5
810
100
AcDbEntity
  8
0
100
AcDbPolyline
 62
7
  6
CONTINUOUS
 90
7
 70
0
 10
17.9668656262
 20
13.0840538201
 10
17.9571651892
 20
13.1618219784
 10
17.9310823877
 20
13.2390198091
 10
17.8881336917
 20
13.3144852087
 10
17.8284028407
 20
13.386409364
 10
17.7529854442
 20
13.4527647828
 10
17.663732769
 20
13.5119003587
  0
LWPOLYLINE
  5
811
100
AcDbEntity
  8
02___PRT_ALL_AXES
100
AcDbPolyline
 62
9
  6
CONTINUOUS
 90
17
 70
0
 10
17.9691297658
 20
6.4648213322
 10
17.9491448636
 20
6.384569547
 10
17.9095813095
 20
6.3067766556
 10
17.8512445033
 20
6.2330262967
 10
17.7753220142
 20
6.1648198151
 10
17.6833594051
 20
6.103545698
 10
17.5772287696
 20
6.0504513097
 10
17.4590906214
 20
6.0066174989
 10
17.3313499123
 20
5.9729365956
 10
17.1966070751
 20
5.9500942457
 10
17.0576050851
 20
5.9385554537
 10
16.9171736221
 20
5.9385551162
 10
16.7781714657
 20
5.9500932399
 10
16.643428299
 20
5.972934942
 10
16.5156871042
 20
6.0066152313
 10
16.3975483237
 20
6.0504484741
 10
16.2914169225
 20
6.1035423522
  0
LINE
  5
812
100
AcDbEntity
  8
02___PRT_ALL_AXES
100
AcDbLine
 62
7
  6
CONTINUOUS
 10
17.5576147919
 20
5.5531043554
 11
17.5721142053
 21
5.6066622003
  0
LWPOLYLINE
  5
813
100
AcDbEntity
  8
02___PRT_ALL_AXES
100
AcDbPolyline
 62
7
  6
CONTINUOUS
 90
3
 70
0
 10
17.5576147919
 20
5.5470770246
 10
17.5721142053
 20
5.6006348695
 10
17.5739994394
 20
5.6283807958
  0
LINE
  5
814
100
AcDbEntity
  8
02___PRT_ALL_AXES
100
AcDbLine
 62
7
  6
CONTINUOUS
 10
17.5576147919
 20
5.5048857087
 11
17.5721142053
 21
5.5584435537
  0
LWPOLYLINE
  5
815
100
AcDbEntity
  8
02___PRT_ALL_AXES
100
AcDbPolyline
 62
7
  6
CONTINUOUS
 90
3
 70
0
 10
17.5576147919
 20
5.4988583779
 10
17.5721142053
 20
5.5524162228
 10
17.5739994394
 20
5.5801621491
  0
LINE
  5
816
100
AcDbEntity
  8
02___PRT_ALL_AXES
100
AcDbLine
 62
7
  6
CONTINUOUS
 10
17.5576147919
 20
5.4566670621
 11
17.5721142053
 21
5.510224907
  0
LWPOLYLINE
  5
817
100
AcDbEntity
  8
02___PRT_ALL_AXES
100
AcDbPolyline
 62
7
  6
CONTINUOUS
 90
3
 70
0
 10
17.5576147919
 20
5.4506397312
 10
17.5721142053
 20
5.5041975761
 10
17.5739994394
 20
5.5319435025
  0
LINE
  5
818
100
AcDbEntity
  8
02___PRT_ALL_AXES
100
AcDbLine
 62
7
  6
CONTINUOUS
 10
17.5576147919
 20
5.4084484154
 11
17.5721142053
 21
5.4620062603
  0
LWPOLYLINE
  5
819
100
AcDbEntity
  8
02___PRT_ALL_AXES
100
AcDbPolyline
 62
7
  6
CONTINUOUS
 90
3
 70
0
 10
17.5576147919
 20
5.4024210846
 10
17.5721142053
 20
5.4559789295
 10
17.5739994394
 20
5.4837248558
  0
LINE
  5
81A
100
AcDbEntity
  8
02___PRT_ALL_AXES
100
AcDbLine
 62
7
  6
CONTINUOUS
 10
17.9632173575
 20
6.6851398384
 11
17.9381007227
 21
6.6122373624
  0
LINE
  5
81B
100
AcDbEntity
  8
0
100
AcDbLine
 62
7
  6
CONTINUOUS
 10
17.9095813095
 20
7.869060808
 11
17.8512445033
 21
7.7953104492
  0
LINE
  5
81C
100
AcDbEntity
  8
0
100
AcDbLine
 62
7
  6
CONTINUOUS
 10
17.8512445033
 20
7.7953104492
 11
17.7753220142
 21
7.7271039676
  0
LINE
  5
81D
100
AcDbEntity
  8
0
100
AcDbLine
 62
7
  6
CONTINUOUS
 10
17.7753220142
 20
7.7271039676
 11
17.6833594051
 21
7.6658298505
  0
LWPOLYLINE
  5
81E
100
AcDbEntity
  8
AXIS
100
AcDbPolyline
 62
7
  6
CONTINUOUS
 90
6
 70
0
 10
17.6833594051
 20
7.6658298505
 10
17.7753220142
 20
7.7271039676
 10
17.8512445033
 20
7.7953104492
 10
17.9095813095
 20
7.869060808
 10
17.9491448636
 20
7.9468536995
 10
17.9691297658
 20
8.0271054846
  0
LWPOLYLINE
  5
81F
100
AcDbEntity
  8
0
100
AcDbPolyline
 62
7
  6
CONTINUOUS
 90
11
 70
0
 10
17.6833594051
 20
7.6658298505
 10
17.5772287696
 20
7.6127354622
 10
17.4590906214
 20
7.5689016514
 10
17.3313499123
 20
7.535220748
 10
17.1966070751
 20
7.5123783982
 10
17.0576050851
 20
7.5008396062
 10
16.9171736221
 20
7.5008392687
 10
16.7781714657
 20
7.5123773924
 10
16.643428299
 20
7.5352190945
 10
16.5156871042
 20
7.5688993837
 10
16.3975483237
 20
7.6127326266
  0
LINE
  5
820
100
AcDbEntity
  8
0
100
AcDbLine
 62
7
  6
CONTINUOUS
 10
16.3975483237
 20
11.5377304664
 11
16.2914169225
 21
11.5908243445
  0
LWPOLYLINE
  5
821
100
AcDbEntity
  8
0
100
AcDbPolyline
 62
7
  6
CONTINUOUS
 90
11
 70
0
 10
17.528080106
 20
5.301363237
 10
17.5097673879
 20
5.2559205011
 10
17.4734187004
 20
5.2045362293
 10
17.4230317323
 20
5.1573828944
 10
17.3603949603
 20
5.1162968936
 10
17.2876919856
 20
5.0824536054
 10
17.207147113
 20
5.0565706558
 10
17.1210179936
 20
5.0391174655
 10
17.0315434006
 20
5.0303775277
 10
16.9409984454
 20
5.0304868868
 10
16.8516683895
 20
5.0394304183
  0
LWPOLYLINE
  5
822
100
AcDbEntity
  8
AXIS
100
AcDbPolyline
 62
7
  6
CONTINUOUS
 90
6
 70
0
 10
17.6833594051
 20
7.222218301
 10
17.7753220142
 20
7.2834924181
 10
17.8512445033
 20
7.3516988997
 10
17.9095813095
 20
7.4254492586
 10
17.9491448636
 20
7.50324215
 10
17.9691297658
 20
7.5834939352
  0
LINE
  5
823
100
AcDbEntity
  8
02___PRT_ALL_AXES
100
AcDbLine
 62
7
  6
CONTINUOUS
 10
17.5316508098
 20
5.5955383442
 11
17.5439804525
 21
5.6186806123
  0
LINE
  5
824
100
AcDbEntity
  8
02___PRT_ALL_AXES
100
AcDbLine
 62
7
  6
CONTINUOUS
 10
17.5291400752
 20
5.5436858786
 11
17.5576147919
 21
5.5952956713
  0
LINE
  5
825
100
AcDbEntity
  8
02___PRT_ALL_AXES
100
AcDbLine
 62
7
  6
CONTINUOUS
 10
17.5291400752
 20
5.4954672319
 11
17.5576147919
 21
5.5470770246
  0
LINE
  5
826
100
AcDbEntity
  8
02___PRT_ALL_AXES
100
AcDbLine
 62
7
  6
CONTINUOUS
 10
17.5291400752
 20
5.4472485852
 11
17.5576147919
 21
5.4988583779
  0
LINE
  5
827
100
AcDbEntity
  8
02___PRT_ALL_AXES
100
AcDbLine
 62
7
  6
CONTINUOUS
 10
17.5291400752
 20
5.3568386227
 11
17.5576147919
 21
5.4084484154
  0
LINE
  5
828
100
AcDbEntity
  8
02___PRT_ALL_AXES
100
AcDbLine
 62
7
  6
CONTINUOUS
 10
17.5291400752
 20
5.3508112919
 11
17.5576147919
 21
5.4024210846
  0
LINE
  5
829
100
AcDbEntity
  8
02___PRT_ALL_AXES
100
AcDbLine
 62
7
  6
CONTINUOUS
 10
17.9381007227
 20
6.6122373624
 11
17.8967170829
 21
6.541851323
  0
LINE
  5
82A
100
AcDbEntity
  8
02___PRT_ALL_AXES
100
AcDbLine
 62
7
  6
CONTINUOUS
 10
17.8967170829
 20
6.541851323
 11
17.8397745236
 21
6.4751860447
  0
LWPOLYLINE
  5
82B
100
AcDbEntity
  8
02___PRT_ALL_AXES
100
AcDbPolyline
 62
7
  6
CONTINUOUS
 90
3
 70
0
 10
17.8397745236
 20
6.4751860447
 10
17.7682473477
 20
6.4133821891
 10
17.6833594051
 20
6.3574972372
  0
LWPOLYLINE
  5
82C
100
AcDbEntity
  8
0
100
AcDbPolyline
 62
7
  6
CONTINUOUS
 90
17
 70
0
 10
16.2914169225
 20
12.4555454083
 10
16.3975483237
 20
12.4024515302
 10
16.5156871042
 20
12.3586182874
 10
16.643428299
 20
12.3249379981
 10
16.7781714657
 20
12.302096296
 10
16.9171736221
 20
12.2905581723
 10
17.0576050851
 20
12.2905585098
 10
17.1966070751
 20
12.3020973018
 10
17.3313499123
 20
12.3249396517
 10
17.4590906214
 20
12.358620555
 10
17.5772287696
 20
12.4024543658
 10
17.6833594051
 20
12.4555487541
 10
17.7753220142
 20
12.5168228712
 10
17.8512445033
 20
12.5850293528
 10
17.9095813095
 20
12.6587797117
 10
17.9491448636
 20
12.7365726031
 10
17.9691297658
 20
12.8168243883
  0
LWPOLYLINE
  5
82D
100
AcDbEntity
  8
AXIS
100
AcDbPolyline
 62
7
  6
CONTINUOUS
 90
12
 70
0
 10
16.2914169225
 20
12.4555454083
 10
16.3975483237
 20
12.4024515302
 10
16.5156871042
 20
12.3586182874
 10
16.643428299
 20
12.3249379981
 10
16.7781714657
 20
12.302096296
 10
16.9171736221
 20
12.2905581723
 10
17.0576050851
 20
12.2905585098
 10
17.1966070751
 20
12.3020973018
 10
17.3313499123
 20
12.3249396517
 10
17.4590906214
 20
12.358620555
 10
17.5772287696
 20
12.4024543658
 10
17.6833594051
 20
12.4555487541
  0
LWPOLYLINE
  5
82E
100
AcDbEntity
  8
0
100
AcDbPolyline
 62
9
  6
CONTINUOUS
 90
19
 70
0
 10
16.2947381866
 20
12.6771761698
 10
16.3584796467
 20
12.6434881133
 10
16.4234977824
 20
12.6146379974
 10
16.4896965754
 20
12.589968858
 10
16.5572530111
 20
12.5689753312
 10
16.6265696543
 20
12.5512993078
 10
16.6981070522
 20
12.5367587239
 10
16.7715729744
 20
12.525431698
 10
16.8462855047
 20
12.517433419
 10
16.9217930702
 20
12.5128048247
 10
16.9977003367
 20
12.5115668754
 10
17.0735456161
 20
12.5137274741
 10
17.1488614223
 20
12.5192725099
 10
17.2231960533
 20
12.528167159
 10
17.2961051187
 20
12.5403568001
 10
17.36715178
 20
12.5557670601
 10
17.4359134936
 20
12.5743051954
 10
17.5019827133
 20
12.5958608666
 10
17.5649649847
 20
12.6203055057
  0
LWPOLYLINE
  5
82F
100
AcDbEntity
  8
AXIS
100
AcDbPolyline
 62
7
  6
CONTINUOUS
 90
7
 70
0
 10
17.6833594051
 20
6.3574972372
 10
17.7753220142
 20
6.4187713543
 10
17.8512445033
 20
6.4869778359
 10
17.9095813095
 20
6.5607281948
 10
17.9491448636
 20
6.6385210862
 10
17.9691297658
 20
6.7187728713
 10
17.9716276586
 20
6.7593089994
  0
LWPOLYLINE
  5
830
100
AcDbEntity
  8
02___PRT_ALL_AXES
100
AcDbPolyline
 62
7
  6
CONTINUOUS
 90
13
 70
0
 10
17.6833594051
 20
6.3574972372
 10
17.5865631521
 20
6.308487396
 10
17.4795147993
 20
6.2671912375
 10
17.3640459737
 20
6.2343153504
 10
17.242132379
 20
6.2104222503
 10
17.1158599906
 20
6.1959207547
 10
16.987389364
 20
6.1910589882
 10
16.8589186673
 20
6.1959201371
 10
16.7326460698
 20
6.2104210256
 10
16.6107321305
 20
6.2343135397
 10
16.4952628308
 20
6.2671888717
 10
16.3882138824
 20
6.3084845155
 10
16.2914169225
 20
6.3574938914
  0
LWPOLYLINE
  5
831
100
AcDbEntity
  8
0
100
AcDbPolyline
 62
9
  6
CONTINUOUS
 90
27
 70
0
 10
16.3504071742
 20
12.7724859699
 10
16.4090158884
 20
12.7415101675
 10
16.4688091878
 20
12.7149777427
 10
16.5296881175
 20
12.6922904794
 10
16.5918154752
 20
12.6729835969
 10
16.6555614613
 20
12.6567277041
 10
16.7213497023
 20
12.6433553213
 10
16.7889115565
 20
12.6329382619
 10
16.8576199126
 20
12.6255824637
 10
16.9270594563
 20
12.621325581
 10
16.9968666168
 20
12.6201868916
 10
17.0666168048
 20
12.6221736651
 10
17.1358800934
 20
12.6272729265
 10
17.2042410717
 20
12.6354526512
 10
17.2712910526
 20
12.6466626079
 10
17.3366282945
 20
12.6608344
 10
17.3998642019
 20
12.6778827364
 10
17.4606239709
 20
12.6977061431
 10
17.5185448324
 20
12.7201863798
 10
17.5732788226
 20
12.7451886987
 10
17.624496266
 20
12.7725627187
 10
17.6718888172
 20
12.8021436472
 10
17.7151729157
 20
12.8337545227
 10
17.7540892594
 20
12.8672062979
 10
17.788403239
 20
12.9022976755
 10
17.8179081547
 20
12.9388173421
 10
17.8424264522
 20
12.9765451456
  0
LWPOLYLINE
  5
832
100
AcDbEntity
  8
0
100
AcDbPolyline
 62
7
  6
CONTINUOUS
 90
10
 70
0
 10
17.1895707088
 20
5.0530089762
 10
17.1782804562
 20
5.0419484488
 10
17.1541874937
 20
5.024906884
 10
17.1261832636
 20
5.0103230776
 10
17.0948120352
 20
4.9984184747
 10
17.0605614225
 20
4.989404175
 10
17.0240458776
 20
4.9835337255
 10
16.9865985016
 20
4.9810677754
 10
16.9496347739
 20
4.9820157163
 10
16.9137906477
 20
4.9862508259
  0
LWPOLYLINE
  5
833
100
AcDbEntity
  8
02___PRT_ALL_AXES
100
AcDbPolyline
 62
9
  6
CONTINUOUS
 90
8
 70
0
 10
17.4506649918
 20
5.9895135968
 10
17.3416237074
 20
5.9562410404
 10
17.2166576677
 20
5.9309949753
 10
17.0865700615
 20
5.916784011
 10
16.9542668308
 20
5.9139255969
 10
16.8227034112
 20
5.9224835853
 10
16.6948187121
 20
5.9422668048
 10
16.5734694664
 20
5.972833331
  0
LWPOLYLINE
  5
834
100
AcDbEntity
  8
02___PRT_ALL_AXES
100
AcDbPolyline
 62
7
  6
CONTINUOUS
 90
9
 70
0
 10
17.6582352156
 20
5.6883124274
 10
17.5643763896
 20
5.6282354326
 10
17.4588135387
 20
5.5787827369
 10
17.3446882572
 20
5.5405529565
 10
17.2244218745
 20
5.513600186
 10
17.100161674
 20
5.4979055503
 10
16.9742894556
 20
5.4934647501
 10
16.848776633
 20
5.5002192801
 10
16.7257480228
 20
5.5181207975
  0
LWPOLYLINE
  5
835
100
AcDbEntity
  8
02___PRT_ALL_AXES
100
AcDbPolyline
 62
7
  6
CONTINUOUS
 90
4
 70
0
 10
17.3121162911
 20
5.4843592605
 10
17.2880223521
 20
5.473205842
 10
17.2116847638
 20
5.4480313561
 10
17.1300436494
 20
5.430126748
  0
LWPOLYLINE
  5
836
100
AcDbEntity
  8
02___PRT_ALL_AXES
100
AcDbPolyline
 62
7
  6
CONTINUOUS
 90
7
 70
0
 10
17.3148657534
 20
5.533869467
 10
17.2706937403
 20
5.5148902077
 10
17.1911523063
 20
5.4909433365
 10
17.104997742
 20
5.4744720817
 10
17.0152622039
 20
5.466288394
 10
16.9255843223
 20
5.4666371869
 10
16.8384540451
 20
5.4752298994
  0
LWPOLYLINE
  5
837
100
AcDbEntity
  8
0
100
AcDbPolyline
 62
7
  6
CONTINUOUS
 90
4
 70
0
 10
17.1411873584
 20
5.0093714376
 10
17.1547672043
 20
5.0179440486
 10
17.1761568797
 20
5.0354418586
 10
17.1895185324
 20
5.0513487631
  0
LWPOLYLINE
  5
838
100
AcDbEntity
  8
0
100
AcDbPolyline
 62
7
  6
CONTINUOUS
 90
3
 70
0
 10
17.1411873584
 20
5.0093714376
 10
17.1279771332
 20
5.0022927072
 10
17.0991604403
 20
4.9903014302
  0
LWPOLYLINE
  5
839
100
AcDbEntity
  8
02___PRT_ALL_AXES
100
AcDbPolyline
 62
7
  6
CONTINUOUS
 90
5
 70
0
 10
17.294168723
 20
5.4765344131
 10
17.3684447009
 20
5.5089175296
 10
17.4333815954
 20
5.5476112787
 10
17.4873879196
 20
5.5916968205
 10
17.4880707026
 20
5.5924887482
  0
LWPOLYLINE
  5
83A
100
AcDbEntity
  8
02___PRT_ALL_AXES
100
AcDbPolyline
 62
7
  6
CONTINUOUS
 90
7
 70
0
 10
17.2926819158
 20
5.2349811429
 10
17.2725214265
 20
5.2262431017
 10
17.1929349404
 20
5.2020697587
 10
17.1067299192
 20
5.1854050087
 10
17.0168656151
 20
5.1770471005
 10
16.9269738279
 20
5.1772552842
 10
16.8399132932
 20
5.1857039248
  0
LWPOLYLINE
  5
83B
100
AcDbEntity
  8
02___PRT_ALL_AXES
100
AcDbPolyline
 62
7
  6
CONTINUOUS
 90
3
 70
0
 10
17.2970772632
 20
5.429792679
 10
17.2715779187
 20
5.4187738083
 10
17.1920529143
 20
5.3947269543
  0
LWPOLYLINE
  5
83C
100
AcDbEntity
  8
02___PRT_ALL_AXES
100
AcDbPolyline
 62
7
  6
CONTINUOUS
 90
7
 70
0
 10
17.2922353457
 20
5.3312802618
 10
17.271133122
 20
5.3221749209
 10
17.1917672291
 20
5.298219469
 10
17.1066443248
 20
5.2818301254
 10
17.017620467
 20
5.273518562
 10
16.9281973141
 20
5.2736326218
 10
16.8408125145
 20
5.2820105223
  0
LWPOLYLINE
  5
83D
100
AcDbEntity
  8
02___PRT_ALL_AXES
100
AcDbPolyline
 62
7
  6
CONTINUOUS
 90
7
 70
0
 10
17.2922880665
 20
5.1866406343
 10
17.2712345684
 20
5.1775558069
 10
17.1916993672
 20
5.1535468713
 10
17.1056558591
 20
5.1370341666
 10
17.0160146888
 20
5.1287906566
 10
16.9264081174
 20
5.1290648979
 10
16.8392288691
 20
5.137585385
  0
LWPOLYLINE
  5
83E
100
AcDbEntity
  8
02___PRT_ALL_AXES
100
AcDbPolyline
 62
7
  6
CONTINUOUS
 90
7
 70
0
 10
17.3348688231
 20
5.3978417004
 10
17.2713557596
 20
5.3704744099
 10
17.1917399786
 20
5.346431426
 10
17.1055035156
 20
5.3298872717
 10
17.0156582867
 20
5.3216496388
 10
16.9258449048
 20
5.3219679586
 10
16.838704984
 20
5.3305369661
  0
LWPOLYLINE
  5
83F
100
AcDbEntity
  8
02___PRT_ALL_AXES
100
AcDbPolyline
 62
7
  6
CONTINUOUS
 90
7
 70
0
 10
17.335334171
 20
5.3016072912
 10
17.2702241859
 20
5.2736270937
 10
17.1906311615
 20
5.2497227591
 10
17.1052836572
 20
5.2334190228
 10
17.0172199045
 20
5.2252817092
 10
16.9287212728
 20
5.2253887858
 10
16.8414130443
 20
5.2337051158
  0
LWPOLYLINE
  5
840
100
AcDbEntity
  8
02___PRT_ALL_AXES
100
AcDbPolyline
 62
7
  6
CONTINUOUS
 90
5
 70
0
 10
17.2123740325
 20
5.4572534377
 10
17.294168723
 20
5.482561744
 10
17.3684447009
 20
5.5149448604
 10
17.4333815954
 20
5.5536386095
 10
17.4714170117
 20
5.5846870462
  0
LINE
  5
841
100
AcDbEntity
  8
02___PRT_ALL_AXES
100
AcDbLine
 62
7
  6
CONTINUOUS
 10
17.2123740325
 20
5.4512261069
 11
17.294168723
 21
5.4765344131
  0
LINE
  5
842
100
AcDbEntity
  8
0
100
AcDbLine
 62
7
  6
CONTINUOUS
 10
17.0991604403
 20
4.9903014302
 11
17.1288562317
 21
5.002764663
  0
LWPOLYLINE
  5
843
100
AcDbEntity
  8
0
100
AcDbPolyline
 62
7
  6
CONTINUOUS
 90
10
 70
0
 10
17.1161099314
 20
5.0386380427
 10
17.0944456706
 20
5.0304475577
 10
17.0603469188
 20
5.0215047709
 10
17.0240148057
 20
5.0156759917
 10
16.9867615783
 20
5.0132167907
 10
16.9499835575
 20
5.0141366872
 10
16.9141652054
 20
5.018334424
 10
16.8798150234
 20
5.0257722259
 10
16.8482038214
 20
5.0361931322
 10
16.8330368531
 20
5.0432524018
  0
LWPOLYLINE
  5
844
100
AcDbEntity
  8
0
100
AcDbPolyline
 62
7
  6
CONTINUOUS
 90
18
 70
0
 10
17.663732769
 20
13.5119003587
 10
17.5596800017
 20
13.564055579
 10
17.4452786892
 20
13.6067258775
 10
17.3227501514
 20
13.6393576403
 10
17.1944000383
 20
13.6615488697
 10
17.0626444388
 20
13.6730465649
 10
16.9296287437
 20
13.673758509
 10
16.7976955447
 20
13.6636916206
 10
16.6690822831
 20
13.6429748517
 10
16.5459604366
 20
13.6118342968
 10
16.430728857
 20
13.5706959645
 10
16.3253813447
 20
13.520014061
 10
16.2321413095
 20
13.4605157252
 10
16.1534396454
 20
13.3935351486
 10
16.0909431032
 20
13.3205887668
 10
16.0458058608
 20
13.2436544683
 10
16.0181634833
 20
13.1642212495
 10
16.0079049062
 20
13.0840538201
  0
LWPOLYLINE
  5
845
100
AcDbEntity
  8
0
100
AcDbPolyline
 62
9
  6
CONTINUOUS
 90
34
 70
0
 10
17.6243633582
 20
13.5080005252
 10
17.565754644
 20
13.5389763277
 10
17.5059613446
 20
13.5655087524
 10
17.4450824149
 20
13.5881960157
 10
17.3829550572
 20
13.6075028982
 10
17.3192090711
 20
13.6237587911
 10
17.2534208301
 20
13.6371311739
 10
17.1858589759
 20
13.6475482332
 10
17.1171506198
 20
13.6549040314
 10
17.0477110761
 20
13.6591609141
 10
16.9779039156
 20
13.6602996036
 10
16.9081537276
 20
13.65831283
 10
16.838890439
 20
13.6532135687
 10
16.7705294607
 20
13.645033844
 10
16.7034794798
 20
13.6338238872
 10
16.6381422379
 20
13.6196520951
 10
16.5749063305
 20
13.6026037588
 10
16.5141465615
 20
13.582780352
 10
16.4562257
 20
13.5603001154
 10
16.4014917098
 20
13.5352977965
 10
16.3502742663
 20
13.5079237764
 10
16.3028817152
 20
13.4783428479
 10
16.2595976167
 20
13.4467319724
 10
16.220681273
 20
13.4132801972
 10
16.1863672934
 20
13.3781888196
 10
16.1568623777
 20
13.341669153
 10
16.1323440802
 20
13.3039413495
 10
16.1129583751
 20
13.2652301878
 10
16.0988206856
 20
13.2257637945
 10
16.0900175623
 20
13.1857769663
 10
16.0866046624
 20
13.1455105452
 10
16.0886042316
 20
13.1052124144
 10
16.0960035857
 20
13.0651274566
 10
16.1087686425
 20
13.0254671925
  0
LINE
  5
846
100
AcDbEntity
  8
02___PRT_ALL_AXES
100
AcDbLine
 62
7
  6
CONTINUOUS
 10
5.5577009188
 20
3.8182730308
 11
5.6394187463
 21
3.8601761026
  0
LINE
  5
847
100
AcDbEntity
  8
0
100
AcDbLine
 62
9
  6
CONTINUOUS
 10
5.7580334416
 20
2.7381288585
 11
5.972771869
 21
2.7381288585
  0
LINE
  5
848
100
AcDbEntity
  8
02___PRT_ALL_AXES
100
AcDbLine
 62
7
  6
CONTINUOUS
 10
5.6394187463
 20
2.7774989373
 11
5.5577009188
 21
2.819402009
  0
LWPOLYLINE
  5
849
100
AcDbEntity
  8
02___PRT_ALL_AXES
100
AcDbPolyline
 62
7
  6
CONTINUOUS
 90
14
 70
0
 10
5.5577009188
 20
2.819402009
 10
5.4835243091
 20
2.8735453497
 10
5.4187068529
 20
2.9386020029
 10
5.36483711
 20
3.012977547
 10
5.323235331
 20
3.0948491705
 10
5.294921101
 20
3.1822103469
 10
5.280588351
 20
3.2729200103
 10
5.280588351
 20
3.3647550296
 10
5.294921101
 20
3.455464693
 10
5.323235331
 20
3.5428258693
 10
5.36483711
 20
3.6246974929
 10
5.4187068529
 20
3.6990730369
 10
5.4835243091
 20
3.7641296902
 10
5.5577009188
 20
3.8182730308
  0
LINE
  5
84A
100
AcDbEntity
  8
02___PRT_ALL_AXES
100
AcDbLine
 62
7
  6
CONTINUOUS
 10
5.6394187463
 20
2.7774989373
 11
5.7617052759
 21
2.7774989373
  0
LINE
  5
84B
100
AcDbEntity
  8
0
100
AcDbLine
 62
7
  6
CONTINUOUS
 10
5.7617052759
 20
2.7774989373
 11
5.9691000348
 21
2.7774989373
  0
LINE
  5
84C
100
AcDbEntity
  8
02___PRT_ALL_AXES
100
AcDbLine
 62
7
  6
CONTINUOUS
 10
5.9691000348
 20
2.7774989373
 11
6.0913865643
 21
2.7774989373
  0
LINE
  5
84D
100
AcDbEntity
  8
0
100
AcDbLine
 62
9
  6
CONTINUOUS
 10
5.7655119903
 20
2.816869016
 11
5.9652933203
 21
2.816869016
  0
LWPOLYLINE
  5
84E
100
AcDbEntity
  8
0
100
AcDbPolyline
 62
7
  6
CONTINUOUS
 90
22
 70
0
 10
5.8654026553
 20
2.9389162601
 10
5.8198334165
 20
2.9392892416
 10
5.7744492749
 20
2.9451242576
 10
5.7300732679
 20
2.9563170651
 10
5.6875986466
 20
2.9725567776
 10
5.6469207582
 20
2.993879539
 10
5.6072344115
 20
3.0212173132
 10
5.5684114725
 20
3.0560127075
 10
5.5310598067
 20
3.1002622809
 10
5.4977948855
 20
3.1547119644
 10
5.4725855748
 20
3.2168224853
 10
5.4578213873
 20
3.2832211944
 10
5.4542934241
 20
3.3517241982
 10
5.4622418995
 20
3.4201645047
 10
5.4815850734
 20
3.4868369721
 10
5.5120165295
 20
3.5499604814
 10
5.5522023607
 20
3.6068445283
 10
5.6007374328
 20
3.6560568021
 10
5.6567696804
 20
3.6969494728
 10
5.718592548
 20
3.7283168696
 10
5.7851366458
 20
3.7495753637
 10
5.8544875223
 20
3.7599956484
  0
LWPOLYLINE
  5
84F
100
AcDbEntity
  8
0
100
AcDbPolyline
 62
7
  6
CONTINUOUS
 90
12
 70
0
 10
5.6425811002
 20
3.2657776088
 10
5.6362455544
 20
3.3029678572
 10
5.6360901166
 20
3.340775014
 10
5.6421410111
 20
3.3781758424
 10
5.654255934
 20
3.4141569345
 10
5.6721294866
 20
3.4477436149
 10
5.6952998074
 20
3.4780214554
 10
5.7231620141
 20
3.5041641175
 10
5.754983528
 20
3.5254541823
 10
5.7899253147
 20
3.5413035391
 10
5.8270602507
 20
3.5512672615
 10
5.8654020487
 20
3.5550580305
  0
LINE
  5
850
100
AcDbEntity
  8
AXIS_COSMETIC_THREADS
100
AcDbLine
 62
7
  6
CONTINUOUS
 10
5.766574739
 20
3.3842588166
 11
5.7999813586
 21
3.4176654362
  0
LINE
  5
851
100
AcDbEntity
  8
0
100
AcDbLine
 62
7
  6
CONTINUOUS
 10
5.7655119903
 20
3.8208060239
 11
5.7615216954
 21
3.8621119549
  0
LWPOLYLINE
  5
852
100
AcDbEntity
  8
0
100
AcDbPolyline
 62
7
  6
CONTINUOUS
 90
3
 70
0
 10
5.7615216954
 20
3.8621119549
 10
5.7591520942
 20
3.8874066919
 10
5.7580334416
 20
3.8995461814
  0
LINE
  5
853
100
AcDbEntity
  8
0
100
AcDbLine
 62
7
  6
CONTINUOUS
 10
5.7580334416
 20
2.7381288585
 11
5.7618892931
 21
2.7794359587
  0
LWPOLYLINE
  5
854
100
AcDbEntity
  8
0
100
AcDbPolyline
 62
7
  6
CONTINUOUS
 90
3
 70
0
 10
5.7618892931
 20
2.7794359587
 10
5.7643234811
 20
2.8047352071
 10
5.7655119903
 20
2.816869016
  0
LINE
  5
855
100
AcDbEntity
  8
AXIS_COSMETIC_THREADS
100
AcDbLine
 62
7
  6
CONTINUOUS
 10
5.7343819643
 20
3.4164515913
 11
5.766574739
 21
3.3842588166
  0
LINE
  5
856
100
AcDbEntity
  8
0
100
AcDbLine
 62
7
  6
CONTINUOUS
 10
5.9698136817
 20
2.7699543282
 11
5.9652933203
 21
2.816869016
  0
LINE
  5
857
100
AcDbEntity
  8
0
100
AcDbLine
 62
7
  6
CONTINUOUS
 10
5.972771869
 20
2.7381288585
 11
5.9698136817
 21
2.7699543282
  0
LINE
  5
858
100
AcDbEntity
  8
0
100
AcDbLine
 62
7
  6
CONTINUOUS
 10
5.972771869
 20
3.8995461814
 11
5.9689160176
 21
3.8582390812
  0
LWPOLYLINE
  5
859
100
AcDbEntity
  8
0
100
AcDbPolyline
 62
7
  6
CONTINUOUS
 90
3
 70
0
 10
5.9689160176
 20
3.8582390812
 10
5.9664818295
 20
3.8329398328
 10
5.9652933203
 20
3.8208060239
  0
LINE
  5
85A
100
AcDbEntity
  8
AXIS_COSMETIC_THREADS
100
AcDbLine
 62
7
  6
CONTINUOUS
 10
5.7999813586
 20
3.4176654362
 11
5.767889318
 21
3.4497574768
  0
LWPOLYLINE
  5
85B
100
AcDbEntity
  8
0
100
AcDbPolyline
 62
7
  6
CONTINUOUS
 90
16
 70
0
 10
6.0651768123
 20
3.2286574491
 10
6.0480241103
 20
3.1964371441
 10
6.0257198933
 20
3.1674381181
 10
5.9988632666
 20
3.1424763733
 10
5.9681797925
 20
3.122256528
 10
5.9345006164
 20
3.1073532599
 10
5.8987436681
 20
3.0981974564
 10
5.8618844553
 20
3.0950620218
 10
5.8249293691
 20
3.098055679
 10
5.788892748
 20
3.107119646
 10
5.754766723
 20
3.1220277736
 10
5.7234929074
 20
3.1423926154
 10
5.6959342883
 20
3.1676783518
 10
5.672856058
 20
3.1972130442
 10
5.6549028291
 20
3.2302076493
 10
5.6425811002
 20
3.2657776088
  0
LWPOLYLINE
  5
85C
100
AcDbEntity
  8
0
100
AcDbPolyline
 62
7
  6
CONTINUOUS
 90
8
 70
0
 10
5.8674647722
 20
3.5242527561
 10
5.8371149762
 20
3.5239179281
 10
5.8069342099
 20
3.5190941529
 10
5.7777074299
 20
3.5098760706
 10
5.7499144899
 20
3.4963736425
 10
5.7242934831
 20
3.4788929835
 10
5.7013592927
 20
3.457748126
 10
5.6816154526
 20
3.4333359396
  0
LINE
  5
85D
100
AcDbEntity
  8
0
100
AcDbLine
 62
7
  6
CONTINUOUS
 10
5.8972851183
 20
3.520135722
 11
5.8674647722
 21
3.5242527561
  0
LWPOLYLINE
  5
85E
100
AcDbEntity
  8
0
100
AcDbPolyline
 62
7
  6
CONTINUOUS
 90
10
 70
0
 10
5.9383960653
 20
3.5434974267
 10
5.9045474817
 20
3.5495952053
 10
5.8704072291
 20
3.5506666183
 10
5.8367063885
 20
3.546744208
 10
5.8041804254
 20
3.5379700466
 10
5.7735254206
 20
3.5245929434
 10
5.7453909601
 20
3.5069616065
 10
5.72036543
 20
3.4855160735
 10
5.6989633886
 20
3.4607772166
 10
5.6816154526
 20
3.4333359396
  0
LWPOLYLINE
  5
85F
100
AcDbEntity
  8
0
100
AcDbPolyline
 62
7
  6
CONTINUOUS
 90
10
 70
0
 10
6.0755766296
 20
3.3709386191
 10
6.064787097
 20
3.3993049301
 10
6.0502151194
 20
3.4256990567
 10
6.0325856795
 20
3.4491752983
 10
6.0131904879
 20
3.4688303444
 10
5.99253581
 20
3.4849921903
 10
5.9706827237
 20
3.4980961064
 10
5.9473772911
 20
3.5084285236
 10
5.9227526503
 20
3.5158595274
 10
5.8972851183
 20
3.520135722
  0
LWPOLYLINE
  5
860
100
AcDbEntity
  8
0
100
AcDbPolyline
 62
7
  6
CONTINUOUS
 90
5
 70
0
 10
6.0755766296
 20
3.3709386191
 10
6.0819735811
 20
3.3353392581
 10
6.0823671157
 20
3.2990889944
 10
6.076723569
 20
3.2631957057
 10
6.0651768123
 20
3.2286574491
  0
LWPOLYLINE
  5
861
100
AcDbEntity
  8
0
100
AcDbPolyline
 62
7
  6
CONTINUOUS
 90
19
 70
0
 10
5.8544875223
 20
3.7599956484
 10
5.9287910384
 20
3.7521718505
 10
6.0001445928
 20
3.7320214162
 10
6.066850894
 20
3.7001282703
 10
6.1266254718
 20
3.6577179061
 10
6.178306857
 20
3.6056816662
 10
6.2199058989
 20
3.5461135427
 10
6.2504485876
 20
3.4807823359
 10
6.2692738561
 20
3.411231473
 10
6.2757470682
 20
3.340346535
 10
6.2699088069
 20
3.2696013765
 10
6.2520020789
 20
3.2013207482
 10
6.2228717328
 20
3.1379045436
 10
6.1831426692
 20
3.0804843256
 10
6.1345093645
 20
3.0313817608
 10
6.0785288182
 20
2.9918400088
 10
6.0166131051
 20
2.9627593555
 10
5.9513957977
 20
2.9452043219
 10
5.8841911749
 20
2.9393811256
  0
LINE
  5
862
100
AcDbEntity
  8
0
100
AcDbLine
 62
9
  6
CONTINUOUS
 10
5.9652933203
 20
3.8208060239
 11
5.7655119903
 21
3.8208060239
  0
LINE
  5
863
100
AcDbEntity
  8
02___PRT_ALL_AXES
100
AcDbLine
 62
7
  6
CONTINUOUS
 10
6.0913865643
 20
3.8601761026
 11
5.9691000348
 21
3.8601761026
  0
LINE
  5
864
100
AcDbEntity
  8
0
100
AcDbLine
 62
7
  6
CONTINUOUS
 10
5.9691000348
 20
3.8601761026
 11
5.7617052759
 21
3.8601761026
  0
LINE
  5
865
100
AcDbEntity
  8
02___PRT_ALL_AXES
100
AcDbLine
 62
7
  6
CONTINUOUS
 10
5.7617052759
 20
3.8601761026
 11
5.6394187463
 21
3.8601761026
  0
LWPOLYLINE
  5
866
100
AcDbEntity
  8
02___PRT_ALL_AXES
100
AcDbPolyline
 62
7
  6
CONTINUOUS
 90
3
 70
0
 10
6.4502169596
 20
3.3647550296
 10
6.4502169596
 20
3.2729200103
 10
6.4358842096
 20
3.1822103469
  0
LINE
  5
867
100
AcDbEntity
  8
02___PRT_ALL_AXES
100
AcDbLine
 62
7
  6
CONTINUOUS
 10
6.4358842096
 20
3.1822103469
 11
6.4075699796
 21
3.0948491705
  0
LWPOLYLINE
  5
868
100
AcDbEntity
  8
02___PRT_ALL_AXES
100
AcDbPolyline
 62
7
  6
CONTINUOUS
 90
6
 70
0
 10
6.4075699796
 20
3.0948491705
 10
6.3659682006
 20
3.012977547
 10
6.3120984577
 20
2.9386020029
 10
6.2472810015
 20
2.8735453497
 10
6.1731043919
 20
2.819402009
 10
6.0913865643
 20
2.7774989373
  0
LINE
  5
869
100
AcDbEntity
  8
0
100
AcDbLine
 62
9
  6
CONTINUOUS
 10
5.972771869
 20
3.8995461814
 11
5.7580334416
 21
3.8995461814
  0
LINE
  5
86A
100
AcDbEntity
  8
02___PRT_ALL_AXES
100
AcDbLine
 62
7
  6
CONTINUOUS
 10
6.0913865643
 20
3.8601761026
 11
6.1731043919
 21
3.8182730308
  0
LINE
  5
86B
100
AcDbEntity
  8
02___PRT_ALL_AXES
100
AcDbLine
 62
7
  6
CONTINUOUS
 10
6.1731043919
 20
3.8182730308
 11
6.2472810015
 21
3.7641296902
  0
LWPOLYLINE
  5
86C
100
AcDbEntity
  8
02___PRT_ALL_AXES
100
AcDbPolyline
 62
7
  6
CONTINUOUS
 90
3
 70
0
 10
6.2472810015
 20
3.7641296902
 10
6.3120984577
 20
3.6990730369
 10
6.3659682006
 20
3.6246974929
  0
LINE
  5
86D
100
AcDbEntity
  8
02___PRT_ALL_AXES
100
AcDbLine
 62
7
  6
CONTINUOUS
 10
6.3659682006
 20
3.6246974929
 11
6.4075699796
 21
3.5428258693
  0
LWPOLYLINE
  5
86E
100
AcDbEntity
  8
02___PRT_ALL_AXES
100
AcDbPolyline
 62
7
  6
CONTINUOUS
 90
3
 70
0
 10
6.4075699796
 20
3.5428258693
 10
6.4358842096
 20
3.455464693
 10
6.4502169596
 20
3.3647550296
  0
CIRCLE
  5
86F
100
AcDbEntity
  8
0
100
AcDbCircle
 62
7
  6
CONTINUOUS
 10
15.2229827477
 20
1.1139932523
 40
0.252091
  0
CIRCLE
  5
870
100
AcDbEntity
  8
0
100
AcDbCircle
 62
7
  6
CONTINUOUS
 10
15.2229827477
 20
1.1139932523
 40
0.182698
  0
ARC
  5
871
100
AcDbEntity
  8
02___PRT_ALL_AXES
100
AcDbCircle
 62
7
  6
CONTINUOUS
 10
5.1370561986
 20
6.9597665407
 40
0.157480315
100
AcDbArc
 50
180.0
 51
270.0
  0
ARC
  5
872
100
AcDbEntity
  8
02___PRT_ALL_AXES
100
AcDbCircle
 62
7
  6
CONTINUOUS
 10
6.593749112
 20
6.9597665407
 40
0.157480315
100
AcDbArc
 50
270.0
 51
360.0
  0
ARC
  5
873
100
AcDbEntity
  8
0
100
AcDbCircle
 62
7
  6
CONTINUOUS
 10
6.7662294625
 20
15.5385066981
 40
0.0787401575
100
AcDbArc
 50
1.0000000028
 51
90.0
  0
ARC
  5
874
100
AcDbEntity
  8
0
100
AcDbCircle
 62
7
  6
CONTINUOUS
 10
4.9645758481
 20
15.5385066981
 40
0.0787401575
100
AcDbArc
 50
90.0
 51
178.9999999972
  0
ARC
  5
875
100
AcDbEntity
  8
02___PRT_ALL_AXES
100
AcDbCircle
 62
7
  6
CONTINUOUS
 10
4.9205207655
 20
7.3928374068
 40
0.0590551181
100
AcDbArc
 50
0.0
 51
90.0
  0
ARC
  5
876
100
AcDbEntity
  8
02___PRT_ALL_AXES
100
AcDbCircle
 62
7
  6
CONTINUOUS
 10
6.8102845451
 20
7.3928374068
 40
0.0590551181
100
AcDbArc
 50
90.0
 51
180.0
  0
ARC
  5
877
100
AcDbEntity
  8
02___PRT_ALL_AXES
100
AcDbCircle
 62
7
  6
CONTINUOUS
 10
4.9205207655
 20
7.4912626036
 40
0.0393700787
100
AcDbArc
 50
180.0
 51
270.0
  0
ARC
  5
878
100
AcDbEntity
  8
02___PRT_ALL_AXES
100
AcDbCircle
 62
7
  6
CONTINUOUS
 10
6.8102845451
 20
7.4912626036
 40
0.0393700787
100
AcDbArc
 50
270.0
 51
360.0
  0
ARC
  5
879
100
AcDbEntity
  8
0
100
AcDbCircle
 62
7
  6
CONTINUOUS
 10
6.3772136789
 20
6.0936248084
 40
0.0393700787
100
AcDbArc
 50
270.0
 51
360.0
  0
ARC
  5
87A
100
AcDbEntity
  8
0
100
AcDbCircle
 62
7
  6
CONTINUOUS
 10
5.3535916317
 20
6.0936248084
 40
0.0393700787
100
AcDbArc
 50
180.0
 51
270.0
  0
ARC
  5
87B
100
AcDbEntity
  8
0
100
AcDbCircle
 62
7
  6
CONTINUOUS
 10
5.2748514742
 20
6.7629161469
 40
0.0393700787
100
AcDbArc
 50
0.0
 51
90.0
  0
ARC
  5
87C
100
AcDbEntity
  8
0
100
AcDbCircle
 62
7
  6
CONTINUOUS
 10
6.4559538364
 20
6.7629161469
 40
0.0393700787
100
AcDbArc
 50
90.0
 51
180.0
  0
CIRCLE
  5
87D
100
AcDbEntity
  8
0
100
AcDbCircle
 62
7
  6
CONTINUOUS
 10
5.7669774585
 20
3.3188375199
 40
0.0196850394
  0
CIRCLE
  5
87E
100
AcDbEntity
  8
0
100
AcDbCircle
 62
9
  6
CONTINUOUS
 10
5.7669774585
 20
3.3188375199
 40
0.00468503
  0
CIRCLE
  5
87F
100
AcDbEntity
  8
0
100
AcDbCircle
 62
7
  6
CONTINUOUS
 10
5.8654026553
 20
3.2204123231
 40
0.0196850394
  0
CIRCLE
  5
880
100
AcDbEntity
  8
0
100
AcDbCircle
 62
9
  6
CONTINUOUS
 10
5.8654026553
 20
3.2204123231
 40
0.00468503
  0
ARC
  5
881
100
AcDbEntity
  8
AXIS
100
AcDbCircle
 62
7
  6
CONTINUOUS
 10
5.8654026553
 20
3.3188375199
 40
0.9842519685
100
AcDbArc
 50
90.0
 51
270.0
  0
CIRCLE
  5
882
100
AcDbEntity
  8
02___PRT_ALL_AXES
100
AcDbCircle
 62
7
  6
CONTINUOUS
 10
5.8654026553
 20
3.3188375199
 40
0.9842519685
  0
CIRCLE
  5
883
100
AcDbEntity
  8
02___PRT_ALL_AXES
100
AcDbCircle
 62
9
  6
CONTINUOUS
 10
5.8654026553
 20
3.3188375199
 40
0.9448818898
  0
CIRCLE
  5
884
100
AcDbEntity
  8
02___PRT_ALL_AXES
100
AcDbCircle
 62
7
  6
CONTINUOUS
 10
5.8654026553
 20
3.3188375199
 40
0.8858267717
  0
CIRCLE
  5
885
100
AcDbEntity
  8
02___PRT_ALL_AXES
100
AcDbCircle
 62
9
  6
CONTINUOUS
 10
5.8654026553
 20
3.3188375199
 40
0.7283464567
  0
ARC
  5
886
100
AcDbEntity
  8
0
100
AcDbCircle
 62
9
  6
CONTINUOUS
 10
5.8654026553
 20
3.3188375199
 40
0.5905511811
100
AcDbArc
 50
100.4753138432
 51
259.5246861568
  0
ARC
  5
887
100
AcDbEntity
  8
0
100
AcDbCircle
 62
9
  6
CONTINUOUS
 10
5.8654026553
 20
3.3188375199
 40
0.5905511811
100
AcDbArc
 50
280.4753138432
 51
79.5246861568
  0
ARC
  5
888
100
AcDbEntity
  8
0
100
AcDbCircle
 62
7
  6
CONTINUOUS
 10
5.8654026553
 20
3.3188375199
 40
0.5511811024
100
AcDbArc
 50
280.8440625637
 51
79.1559374363
  0
ARC
  5
889
100
AcDbEntity
  8
0
100
AcDbCircle
 62
7
  6
CONTINUOUS
 10
5.8654026553
 20
3.3188375199
 40
0.5511811024
100
AcDbArc
 50
100.8440625637
 51
259.1559374363
  0
ARC
  5
88A
100
AcDbEntity
  8
0
100
AcDbCircle
 62
9
  6
CONTINUOUS
 10
5.8654026553
 20
3.3188375199
 40
0.5118110236
100
AcDbArc
 50
101.2547126182
 51
258.7452873818
  0
ARC
  5
88B
100
AcDbEntity
  8
0
100
AcDbCircle
 62
9
  6
CONTINUOUS
 10
5.8654026553
 20
3.3188375199
 40
0.5118110236
100
AcDbArc
 50
281.2547126182
 51
78.7452873818
  0
CIRCLE
  5
88C
100
AcDbEntity
  8
0
100
AcDbCircle
 62
7
  6
CONTINUOUS
 10
5.8654026553
 20
3.3188375199
 40
0.3799212598
  0
CIRCLE
  5
88D
100
AcDbEntity
  8
0
100
AcDbCircle
 62
7
  6
CONTINUOUS
 10
5.8654026553
 20
3.3188375199
 40
0.3208224134
  0
CIRCLE
  5
88E
100
AcDbEntity
  8
AXIS
100
AcDbCircle
 62
7
  6
CONTINUOUS
 10
5.8654026553
 20
3.3188375199
 40
0.3051181102
  0
CIRCLE
  5
88F
100
AcDbEntity
  8
AXIS
100
AcDbCircle
 62
9
  6
CONTINUOUS
 10
5.8654026553
 20
3.3188375199
 40
0.2944051522
  0
CIRCLE
  5
890
100
AcDbEntity
  8
AXIS
100
AcDbCircle
 62
9
  6
CONTINUOUS
 10
5.8654026553
 20
3.3188375199
 40
0.2469334304
  0
CIRCLE
  5
891
100
AcDbEntity
  8
0
100
AcDbCircle
 62
7
  6
CONTINUOUS
 10
5.8654026553
 20
3.3188375199
 40
0.2362204724
  0
ARC
  5
892
100
AcDbEntity
  8
0
100
AcDbCircle
 62
7
  6
CONTINUOUS
 10
5.8654026553
 20
3.3188375199
 40
0.2165355029
100
AcDbArc
 50
148.0773200832
 51
13.9226799136
  0
CIRCLE
  5
893
100
AcDbEntity
  8
0
100
AcDbCircle
 62
7
  6
CONTINUOUS
 10
5.8654026553
 20
3.3188375199
 40
0.2037401575
  0
CIRCLE
  5
894
100
AcDbEntity
  8
0
100
AcDbCircle
 62
7
  6
CONTINUOUS
 10
5.8654026553
 20
3.3188375199
 40
0.1633858268
  0
CIRCLE
  5
895
100
AcDbEntity
  8
0
100
AcDbCircle
 62
7
  6
CONTINUOUS
 10
5.8654026553
 20
3.4172627168
 40
0.0196850394
  0
CIRCLE
  5
896
100
AcDbEntity
  8
0
100
AcDbCircle
 62
9
  6
CONTINUOUS
 10
5.8654026553
 20
3.4172627168
 40
0.00468503
  0
CIRCLE
  5
897
100
AcDbEntity
  8
0
100
AcDbCircle
 62
7
  6
CONTINUOUS
 10
5.9638278522
 20
3.3188375199
 40
0.0196850394
  0
CIRCLE
  5
898
100
AcDbEntity
  8
0
100
AcDbCircle
 62
9
  6
CONTINUOUS
 10
5.9638278522
 20
3.3188375199
 40
0.00468503
  0
ENDSEC
  0
SECTION
  2
OBJECTS
  0
DICTIONARY
  5
C
100
AcDbDictionary
280
0
281
1
  3
ACAD_GROUP
350
D
  3
ACAD_MLINESTYLE
350
17
  3
ACAD_LAYOUT
350
1A
  3
ACAD_PLOTSETTINGS
350
19
  3
ACAD_PLOTSTYLENAME
350
E
  0
DICTIONARY
  5
D
102
{ACAD_REACTORS
330
C
102
}
100
AcDbDictionary
280
0
281
1
  0
ACDBDICTIONARYWDFLT
  5
E
102
{ACAD_REACTORS
330
C
102
}
100
AcDbDictionary
281
1
  3
Normal
350
F
100
AcDbDictionaryWithDefault
340
F
  0
DICTIONARY
  5
17
102
{ACAD_REACTORS
330
C
102
}
100
AcDbDictionary
280
0
281
1
  3
Standard
350
18
  0
DICTIONARY
  5
19
102
{ACAD_REACTORS
330
C
102
}
100
AcDbDictionary
281
1
  0
DICTIONARY
  5
1A
102
{ACAD_REACTORS
330
C
102
}
100
AcDbDictionary
281
1
  3
Layout1
350
1E
  3
Model
350
22
  0
ACDBPLACEHOLDER
  5
F
102
{ACAD_REACTORS
330
E
102
}
  0
MLINESTYLE
  5
18
102
{ACAD_REACTORS
330
17
102
}
100
AcDbMlineStyle
  2
STANDARD
 70
0
  3

 62
256
 51
90.0
 52
90.0
 71
2
 49
0.5
 62
256
  6
BYLAYER
 49
-0.5
 62
256
  6
BYLAYER
  0
LAYOUT
  5
1E
102
{ACAD_REACTORS
330
1A
102
}
100
AcDbPlotSettings
  1

  2

  4

  6

 40
0.0
 41
0.0
 42
0.0
 43
0.0
 44
0.0
 45
0.0
 46
0.0
 47
0.0
 48
0.0
 49
0.0
140
0.0
141
0.0
142
1.0
143
1.0
 70
0
 72
0
 73
0
 74
0
  7

 75
0
147
1.0
148
0.0
149
0.0
100
AcDbLayout
  1
Layout1
 70
0
 71
0
 10
0.0
 20
0.0
 11
0.0
 21
0.0
 12
0.0
 22
0.0
 32
0.0
 14
0.0
 24
0.0
 34
0.0
 15
0.0
 25
0.0
 35
0.0
146
0.0
 13
0.0
 23
0.0
 33
0.0
 16
0.0
 26
0.0
 36
0.0
 17
0.0
 27
0.0
 37
0.0
 76
0
330
1B
331
0
345
0
346
0
  0
LAYOUT
  5
22
102
{ACAD_REACTORS
330
1A
102
}
100
AcDbPlotSettings
  1

  2

  4

  6

 40
0.0
 41
0.0
 42
0.0
 43
0.0
 44
0.0
 45
0.0
 46
0.0
 47
0.0
 48
0.0
 49
0.0
140
0.0
141
0.0
142
1.0
143
1.0
 70
0
 72
0
 73
0
 74
0
  7

 75
0
147
1.0
148
0.0
149
0.0
100
AcDbLayout
  1
Model
 70
0
 71
0
 10
0.0
 20
0.0
 11
0.0
 21
0.0
 12
0.0
 22
0.0
 32
0.0
 14
0.0
 24
0.0
 34
0.0
 15
0.0
 25
0.0
 35
0.0
146
0.0
 13
0.0
 23
0.0
 33
0.0
 16
0.0
 26
0.0
 36
0.0
 17
0.0
 27
0.0
 37
0.0
 76
0
330
1F
331
0
345
0
346
0
  0
ENDSEC
  0
EOF
