999
DXF file: 145172_1.dxf
999
Pro/ENGINEER 2006170 by Parametric Technology Corporation
  0
SECTION
  2
HEADER
  9
$ACADVER
  1
AC1015
  9
$DWGCODEPAGE
  3
ANSI_1252
  9
$EXTMAX
 10
17.0
 20
11.0
 30
0.0
  9
$EXTMIN
 10
0.0
 20
0.0
 30
0.0
  9
$LIMMIN
 10
0.0
 20
0.0
  9
$LIMMAX
 10
17.0
 20
11.0
  9
$VIEWCTR
 10
8.5
 20
5.5
  9
$VIEWSIZE
 40
11.0
  9
$CLAYER
  8
0
  9
$LTSCALE
 40
0.935
  9
$CELTYPE
  6
BYLAYER
  9
$DIMSCALE
 40
1.0
  9
$DIMASZ
 40
0.1875
  9
$DIMEXO
 40
0.10625
  9
$DIMDLI
 40
0.646
  9
$DIMEXE
 40
0.306
  9
$DIMCEN
 40
0.153
  9
$DIMLFAC
 40
1.0
  9
$DIMBLK
  1
_FILLED
  9
$DIMTXT
 40
0.1
  9
$DIMTOL
 70
1
  9
$DIMLIM
 70
0
  9
$DIMTFAC
 40
1.0
  9
$DIMTP
 40
0.005
  9
$DIMTM
 40
0.005
  9
$PDMODE
 70
3
  9
$PDSIZE
 40
0.3125
  9
$HANDSEED
  5
82D
  9
$MEASUREMENT
 70
0
  9
$INSUNITS
 70
1
  0
ENDSEC
  0
SECTION
  2
CLASSES
  0
CLASS
  1
ACDBDICTIONARYWDFLT
  2
AcDbDictionaryWithDefault
  3
AutoCAD 2000
 90
0
280
0
281
0
  0
CLASS
  1
ACDBPLACEHOLDER
  2
AcDbPlaceHolder
  3
AutoCAD 2000
 90
0
280
0
281
0
  0
CLASS
  1
LAYOUT
  2
AcDbLayout
  3
AutoCAD 2000
 90
0
280
0
281
0
  0
ENDSEC
  0
SECTION
  2
TABLES
  0
TABLE
  2
VPORT
  5
8
100
AcDbSymbolTable
 70
2
  0
VPORT
  5
1F4
100
AcDbSymbolTableRecord
100
AcDbViewportTableRecord
  2
*ACTIVE
 70
0
 10
0.0
 20
0.0
 11
1.0
 21
1.0
 12
8.5
 22
5.5
 13
0.0
 23
0.0
 14
1.0
 24
1.0
 15
0.0
 25
0.0
 16
0.0
 26
0.0
 36
1.0
 17
0.0
 27
0.0
 37
0.0
 40
11.0
 41
1.5454545455
 42
50.0
 43
0.0
 44
0.0
 50
0.0
 51
0.0
 71
0
 72
100
 73
1
 74
1
 75
0
 76
0
 77
0
 78
0
  0
ENDTAB
  0
TABLE
  2
LTYPE
  5
5
100
AcDbSymbolTable
 70
6
  0
LTYPE
  5
14
100
AcDbSymbolTableRecord
100
AcDbLinetypeTableRecord
  2
BYBLOCK
 70
0
  3

 72
65
 73
0
 40
0.0
  0
LTYPE
  5
15
100
AcDbSymbolTableRecord
100
AcDbLinetypeTableRecord
  2
BYLAYER
 70
0
  3

 72
65
 73
0
 40
0.0
  0
LTYPE
  5
16
100
AcDbSymbolTableRecord
100
AcDbLinetypeTableRecord
  2
CONTINUOUS
 70
64
  3
Solid line
 72
65
 73
0
 40
0.0
  0
LTYPE
  5
1F5
100
AcDbSymbolTableRecord
100
AcDbLinetypeTableRecord
  2
CENTER
 70
64
  3
____ _ ____ _ ____ _ ____ _ ____ _ ____ _ ____
 72
65
 73
4
 40
0.6
 49
0.375
 74
0
 49
-0.075
 74
0
 49
0.075
 74
0
 49
-0.075
 74
0
  0
LTYPE
  5
1F6
100
AcDbSymbolTableRecord
100
AcDbLinetypeTableRecord
  2
HIDDEN
 70
64
  3
- - - - - - - - - - - - - - - - - - - -
 72
65
 73
2
 40
0.2
 49
0.1
 74
0
 49
-0.1
 74
0
  0
LTYPE
  5
1F7
100
AcDbSymbolTableRecord
100
AcDbLinetypeTableRecord
  2
PHANTOM
 70
64
  3
_____ _ _ _____ _ _ _____ _ _ _____
 72
65
 73
6
 40
0.8
 49
0.45
 74
0
 49
-0.05
 74
0
 49
0.1
 74
0
 49
-0.05
 74
0
 49
0.1
 74
0
 49
-0.05
 74
0
  0
LTYPE
  5
1F8
100
AcDbSymbolTableRecord
100
AcDbLinetypeTableRecord
  2
DOT
 70
64
  3
. . . . . . . . . . . . . . . . . . . .
 72
65
 73
2
 40
0.2
 49
0.1
 74
0
 49
-0.1
 74
0
  0
LTYPE
  5
1F9
100
AcDbSymbolTableRecord
100
AcDbLinetypeTableRecord
  2
DASHED
 70
64
  3
- - - - - - - - - - - - - - - - - - - -
 72
65
 73
2
 40
0.2
 49
0.1
 74
0
 49
-0.1
 74
0
  0
ENDTAB
  0
TABLE
  2
LAYER
  5
2
100
AcDbSymbolTable
 70
36
  0
LAYER
  5
10
100
AcDbSymbolTableRecord
100
AcDbLayerTableRecord
  2
0
 70
0
 62
7
  6
CONTINUOUS
370
-3
390
F
  0
LAYER
  5
1FA
100
AcDbSymbolTableRecord
100
AcDbLayerTableRecord
  2
DEFAULT_1
 70
0
 62
7
  6
CENTER
370
-3
390
F
  0
LAYER
  5
1FB
100
AcDbSymbolTableRecord
100
AcDbLayerTableRecord
  2
DEFAULT_2
 70
0
 62
8
  6
HIDDEN
370
-3
390
F
  0
LAYER
  5
1FC
100
AcDbSymbolTableRecord
100
AcDbLayerTableRecord
  2
DEFAULT_3
 70
0
 62
7
  6
PHANTOM
370
-3
390
F
  0
LAYER
  5
1FD
100
AcDbSymbolTableRecord
100
AcDbLayerTableRecord
  2
_2D_DELETED_OBJS
 70
0
 62
7
  6
CONTINUOUS
370
-3
390
F
  0
LAYER
  5
1FE
100
AcDbSymbolTableRecord
100
AcDbLayerTableRecord
  2
_BLACK_HOLE
 70
0
 62
7
  6
CONTINUOUS
370
-3
390
F
  0
LAYER
  5
1FF
100
AcDbSymbolTableRecord
100
AcDbLayerTableRecord
  2
01___PRT_ALL_DTM_PLN
 70
0
 62
7
  6
CONTINUOUS
370
-3
390
F
  0
LAYER
  5
200
100
AcDbSymbolTableRecord
100
AcDbLayerTableRecord
  2
01___PRT_DEF_DTM_PLN
 70
0
 62
7
  6
CONTINUOUS
370
-3
390
F
  0
LAYER
  5
201
100
AcDbSymbolTableRecord
100
AcDbLayerTableRecord
  2
02___PRT_ALL_AXES
 70
0
 62
7
  6
CONTINUOUS
370
-3
390
F
  0
LAYER
  5
202
100
AcDbSymbolTableRecord
100
AcDbLayerTableRecord
  2
03___PRT_ALL_CURVES
 70
0
 62
7
  6
CONTINUOUS
370
-3
390
F
  0
LAYER
  5
203
100
AcDbSymbolTableRecord
100
AcDbLayerTableRecord
  2
04___PRT_ALL_DTM_PNT
 70
0
 62
7
  6
CONTINUOUS
370
-3
390
F
  0
LAYER
  5
204
100
AcDbSymbolTableRecord
100
AcDbLayerTableRecord
  2
05___PRT_ALL_DTM_CSYS
 70
0
 62
7
  6
CONTINUOUS
370
-3
390
F
  0
LAYER
  5
205
100
AcDbSymbolTableRecord
100
AcDbLayerTableRecord
  2
05___PRT_DEF_DTM_CSYS
 70
0
 62
7
  6
CONTINUOUS
370
-3
390
F
  0
LAYER
  5
206
100
AcDbSymbolTableRecord
100
AcDbLayerTableRecord
  2
06___PRT_ALL_SURFS
 70
0
 62
7
  6
CONTINUOUS
370
-3
390
F
  0
LAYER
  5
207
100
AcDbSymbolTableRecord
100
AcDbLayerTableRecord
  2
AXIS
 70
0
 62
7
  6
CONTINUOUS
370
-3
390
F
  0
LAYER
  5
208
100
AcDbSymbolTableRecord
100
AcDbLayerTableRecord
  2
AXIS_COSMETIC_THREADS
 70
0
 62
7
  6
CONTINUOUS
370
-3
390
F
  0
LAYER
  5
209
100
AcDbSymbolTableRecord
100
AcDbLayerTableRecord
  2
DATUM_CURVES
 70
0
 62
7
  6
CONTINUOUS
370
-3
390
F
  0
LAYER
  5
20A
100
AcDbSymbolTableRecord
100
AcDbLayerTableRecord
  2
DATUM_PLANES
 70
0
 62
7
  6
CONTINUOUS
370
-3
390
F
  0
LAYER
  5
20B
100
AcDbSymbolTableRecord
100
AcDbLayerTableRecord
  2
HIDE
 70
0
 62
7
  6
CONTINUOUS
370
-3
390
F
  0
LAYER
  5
20C
100
AcDbSymbolTableRecord
100
AcDbLayerTableRecord
  2
NOTES
 70
0
 62
7
  6
CONTINUOUS
370
-3
390
F
  0
LAYER
  5
20D
100
AcDbSymbolTableRecord
100
AcDbLayerTableRecord
  2
QUILTS
 70
0
 62
7
  6
CONTINUOUS
370
-3
390
F
  0
LAYER
  5
20E
100
AcDbSymbolTableRecord
100
AcDbLayerTableRecord
  2
SCHEME_DIMS
 70
0
 62
7
  6
CONTINUOUS
370
-3
390
F
  0
LAYER
  5
20F
100
AcDbSymbolTableRecord
100
AcDbLayerTableRecord
  2
SYMBOLS
 70
0
 62
7
  6
CONTINUOUS
370
-3
390
F
  0
ENDTAB
  0
TABLE
  2
STYLE
  5
3
100
AcDbSymbolTable
 70
1
  0
STYLE
  5
11
100
AcDbSymbolTableRecord
100
AcDbTextStyleTableRecord
  2
STANDARD
 70
0
 40
0.0
 41
1.0
 50
0.0
 71
0
 42
0.2
  3
txt
  4

  0
ENDTAB
  0
TABLE
  2
VIEW
  5
6
100
AcDbSymbolTable
 70
0
  0
ENDTAB
  0
TABLE
  2
UCS
  5
7
100
AcDbSymbolTable
 70
0
  0
ENDTAB
  0
TABLE
  2
APPID
  5
9
100
AcDbSymbolTable
 70
1
  0
APPID
  5
210
100
AcDbSymbolTableRecord
100
AcDbRegAppTableRecord
  2
ACAD
 70
0
  0
ENDTAB
  0
TABLE
  2
BLOCK_RECORD
  5
1
100
AcDbSymbolTable
 70
0
  0
BLOCK_RECORD
  5
1F
100
AcDbSymbolTableRecord
100
AcDbBlockTableRecord
  2
*MODEL_SPACE
  0
BLOCK_RECORD
  5
1B
100
AcDbSymbolTableRecord
100
AcDbBlockTableRecord
  2
*PAPER_SPACE
  0
BLOCK_RECORD
  5
211
100
AcDbSymbolTableRecord
100
AcDbBlockTableRecord
  2
_FILLED
  0
BLOCK_RECORD
  5
212
100
AcDbSymbolTableRecord
100
AcDbBlockTableRecord
  2
BANNER_LOGO_TITLEBLOCK_BL0
  0
BLOCK_RECORD
  5
213
100
AcDbSymbolTableRecord
100
AcDbBlockTableRecord
  2
*D0
  0
BLOCK_RECORD
  5
214
100
AcDbSymbolTableRecord
100
AcDbBlockTableRecord
  2
*D1
  0
BLOCK_RECORD
  5
215
100
AcDbSymbolTableRecord
100
AcDbBlockTableRecord
  2
*D2
  0
BLOCK_RECORD
  5
216
100
AcDbSymbolTableRecord
100
AcDbBlockTableRecord
  2
*D3
  0
BLOCK_RECORD
  5
217
100
AcDbSymbolTableRecord
100
AcDbBlockTableRecord
  2
*D4
  0
BLOCK_RECORD
  5
218
100
AcDbSymbolTableRecord
100
AcDbBlockTableRecord
  2
*D5
  0
ENDTAB
  0
TABLE
  2
DIMSTYLE
  5
A
100
AcDbSymbolTable
 70
1
100
AcDbDimStyleTable
 71
0
  0
DIMSTYLE
105
219
100
AcDbSymbolTableRecord
100
AcDbDimStyleTableRecord
  2
STANDARD
 70
0
  3

  4

 40
1.0
 41
0.1875
 42
0.0625
 43
0.38
 44
0.18
 45
0.0
 46
0.0
 47
0.005
 48
0.005
140
0.1
141
0.09
142
0.0
143
25.4
144
1.0
145
0.0
146
1.0
147
0.09
 71
1.0
 72
0.0
 73
1
 74
1
 75
0
 76
0
 77
0
 78
4
170
0
171
2
172
0
173
0
174
0
175
0
176
0
177
0
178
0
270
2
271
3
272
3
273
2
274
2
275
0
280
0
281
0
282
0
283
1
284
4
285
0
286
0
287
3
288
0
340
11
341
211
342
211
343
211
344
211
  0
DIMSTYLE
105
21A
100
AcDbSymbolTableRecord
100
AcDbDimStyleTableRecord
  2
DIMSTYLE_1
 70
0
  3

  4

 40
1.0
 41
0.1875
 42
0.0625
 43
0.38
 44
0.18
 45
0.0
 46
0.0
 47
0.1
 48
0.1
140
0.1
141
0.09
142
0.0
143
25.4
144
1.0
145
0.0
146
1.0
147
0.09
 71
0.0
 72
0.0
 73
1
 74
1
 75
0
 76
0
 77
0
 78
4
170
0
171
2
172
0
173
0
174
0
175
0
176
0
177
0
178
0
270
2
271
1
272
1
273
2
274
2
275
0
280
0
281
0
282
0
283
1
284
4
285
0
286
0
287
3
288
0
340
11
341
211
342
211
343
211
344
211
  0
DIMSTYLE
105
21B
100
AcDbSymbolTableRecord
100
AcDbDimStyleTableRecord
  2
DIMSTYLE_2
 70
0
  3

  4

 40
1.0
 41
0.1875
 42
0.0625
 43
0.38
 44
0.18
 45
0.0
 46
0.0
 47
0.1
 48
0.1
140
0.1
141
0.09
142
0.0
143
25.4
144
1.0
145
0.0
146
1.0
147
0.09
 71
0.0
 72
0.0
 73
1
 74
1
 75
0
 76
0
 77
0
 78
4
170
0
171
2
172
0
173
0
174
0
175
0
176
0
177
0
178
0
270
2
271
1
272
1
273
2
274
2
275
0
280
0
281
0
282
0
283
1
284
4
285
0
286
0
287
3
288
0
340
11
341
211
342
211
343
211
344
211
  0
ENDTAB
  0
ENDSEC
  0
SECTION
  2
BLOCKS
  0
BLOCK
  5
20
100
AcDbEntity
  8
0
100
AcDbBlockBegin
  2
*MODEL_SPACE
 70
0
 10
0.0
 20
0.0
 30
0.0
  3
*MODEL_SPACE
  1

  0
ENDBLK
  5
21
100
AcDbEntity
  8
0
100
AcDbBlockEnd
  0
BLOCK
  5
1C
100
AcDbEntity
  8
0
100
AcDbBlockBegin
  2
*PAPER_SPACE
 70
0
 10
0.0
 20
0.0
 30
0.0
  3
*PAPER_SPACE
  1

  0
ENDBLK
  5
1D
100
AcDbEntity
  8
0
100
AcDbBlockEnd
  0
BLOCK
  5
21C
100
AcDbEntity
  8
0
100
AcDbBlockBegin
 62
2
  6
CONTINUOUS
  2
BANNER_LOGO_TITLEBLOCK_BL0
 70
64
 10
12.9046655056
 20
2.5403783448
  3
BANNER_LOGO_TITLEBLOCK_BL0
  1

  0
LWPOLYLINE
  5
21D
100
AcDbEntity
  8
0
100
AcDbPolyline
 62
2
  6
CONTINUOUS
 90
29
 70
0
 10
12.0796650004
 20
2.5403783448
 10
12.1000078385
 20
2.5005819703
 10
12.1615890075
 20
2.4620382478
 10
12.2590135686
 20
2.4281250935
 10
12.3910903821
 20
2.3992568791
 10
12.5462480343
 20
2.3779627503
 10
12.7225901426
 20
2.3645025835
 10
12.9046652672
 20
2.3600565514
 10
13.0867408686
 20
2.3645025835
 10
13.2630829769
 20
2.3779627503
 10
13.4182401522
 20
2.3992568791
 10
13.5503174426
 20
2.4281250935
 10
13.6477415269
 20
2.4620382478
 10
13.7093231727
 20
2.5005819703
 10
13.7296660108
 20
2.5403783448
 10
13.7093231727
 20
2.5801747193
 10
13.6477415269
 20
2.6187184418
 10
13.5503174426
 20
2.6526315961
 10
13.4182401522
 20
2.6814998105
 10
13.2630829769
 20
2.7027939393
 10
13.0867408686
 20
2.7162541061
 10
12.9046652672
 20
2.7207001382
 10
12.7225901426
 20
2.7162541061
 10
12.5462480343
 20
2.7027939393
 10
12.3910903821
 20
2.6814998105
 10
12.2590135686
 20
2.6526315961
 10
12.1615890075
 20
2.6187184418
 10
12.1000078385
 20
2.5801747193
 10
12.0796650004
 20
2.5403783448
  0
ARC
  5
21E
100
AcDbEntity
  8
0
100
AcDbCircle
 62
2
  6
CONTINUOUS
 10
12.400005721
 20
2.5168763464
 40
0.0153945295
100
AcDbArc
 50
354.0454548824
 51
5.1878013979
  0
ARC
  5
21F
100
AcDbEntity
  8
0
100
AcDbCircle
 62
2
  6
CONTINUOUS
 10
12.3931760319
 20
2.5166878286
 40
0.0222174455
100
AcDbArc
 50
4.0793399388
 51
69.834329283
  0
LINE
  5
220
100
AcDbEntity
  8
0
100
AcDbLine
 62
2
  6
CONTINUOUS
 10
12.4008351814
 20
2.5375433389
 11
12.3907841758
 21
2.5410923409
  0
LINE
  5
221
100
AcDbEntity
  8
0
100
AcDbLine
 62
2
  6
CONTINUOUS
 10
12.3907841758
 20
2.5410923409
 11
12.3990241804
 21
2.5458683435
  0
ARC
  5
222
100
AcDbEntity
  8
0
100
AcDbCircle
 62
2
  6
CONTINUOUS
 10
12.3771587979
 20
2.5826952352
 40
0.0428289026
100
AcDbArc
 50
300.6990502959
 51
319.0591802498
  0
ARC
  5
223
100
AcDbEntity
  8
0
100
AcDbCircle
 62
2
  6
CONTINUOUS
 10
12.3971873948
 20
2.5665668817
 40
0.0171568255
100
AcDbArc
 50
315.9145124245
 51
16.0049121282
  0
ARC
  5
224
100
AcDbEntity
  8
0
100
AcDbCircle
 62
2
  6
CONTINUOUS
 10
12.3922357827
 20
2.5632132173
 40
0.0229166529
100
AcDbArc
 50
20.6563876465
 51
62.3316896973
  0
ARC
  5
225
100
AcDbEntity
  8
0
100
AcDbCircle
 62
2
  6
CONTINUOUS
 10
12.371573659
 20
2.5302846524
 40
0.061747717
100
AcDbArc
 50
59.5385584989
 51
90.0050977555
  0
LINE
  5
226
100
AcDbEntity
  8
0
100
AcDbLine
 62
2
  6
CONTINUOUS
 10
12.3715681652
 20
2.5920323691
 11
12.2055050731
 21
2.5920323691
  0
ARC
  5
227
100
AcDbEntity
  8
0
100
AcDbCircle
 62
2
  6
CONTINUOUS
 10
12.2055050712
 20
2.5895573696
 40
0.0024749995
100
AcDbArc
 50
89.9999571957
 51
180.0000428043
  0
LINE
  5
228
100
AcDbEntity
  8
0
100
AcDbLine
 62
2
  6
CONTINUOUS
 10
12.2030300717
 20
2.5895573678
 11
12.2030300717
 21
2.5697573568
  0
ARC
  5
229
100
AcDbEntity
  8
0
100
AcDbCircle
 62
2
  6
CONTINUOUS
 10
12.2055050712
 20
2.5697573549
 40
0.0024749995
100
AcDbArc
 50
179.9999571957
 51
270.0000428043
  0
LINE
  5
22A
100
AcDbEntity
  8
0
100
AcDbLine
 62
2
  6
CONTINUOUS
 10
12.2055050731
 20
2.5672823554
 11
12.2294470864
 21
2.5672823554
  0
ARC
  5
22B
100
AcDbEntity
  8
0
100
AcDbCircle
 62
2
  6
CONTINUOUS
 10
12.2294470882
 20
2.5648073559
 40
0.0024749995
100
AcDbArc
 50
359.9999571957
 51
90.0000428043
  0
LINE
  5
22C
100
AcDbEntity
  8
0
100
AcDbLine
 62
2
  6
CONTINUOUS
 10
12.2319220877
 20
2.564807354
 11
12.2319220877
 21
2.5184523283
  0
ARC
  5
22D
100
AcDbEntity
  8
0
100
AcDbCircle
 62
2
  6
CONTINUOUS
 10
12.2294470882
 20
2.5184523265
 40
0.0024749995
100
AcDbArc
 50
269.9999571957
 51
0.0000428043
  0
LINE
  5
22E
100
AcDbEntity
  8
0
100
AcDbLine
 62
2
  6
CONTINUOUS
 10
12.2294470864
 20
2.515977327
 11
12.2055050731
 21
2.515977327
  0
ARC
  5
22F
100
AcDbEntity
  8
0
100
AcDbCircle
 62
2
  6
CONTINUOUS
 10
12.2055050712
 20
2.5135023274
 40
0.0024749995
100
AcDbArc
 50
89.9999571957
 51
180.0000428043
  0
LINE
  5
230
100
AcDbEntity
  8
0
100
AcDbLine
 62
2
  6
CONTINUOUS
 10
12.2030300717
 20
2.5135023256
 11
12.2030300717
 21
2.4937023146
  0
ARC
  5
231
100
AcDbEntity
  8
0
100
AcDbCircle
 62
2
  6
CONTINUOUS
 10
12.2055050712
 20
2.4937023128
 40
0.0024749995
100
AcDbArc
 50
179.9999571957
 51
270.0000428043
  0
LINE
  5
232
100
AcDbEntity
  8
0
100
AcDbLine
 62
2
  6
CONTINUOUS
 10
12.2055050731
 20
2.4912273132
 11
12.3819511709
 21
2.4912273132
  0
ARC
  5
233
100
AcDbEntity
  8
0
100
AcDbCircle
 62
2
  6
CONTINUOUS
 10
12.3792298263
 20
2.539634765
 40
0.048483885
100
AcDbArc
 50
273.21763719
 51
303.0749121182
  0
ARC
  5
234
100
AcDbEntity
  8
0
100
AcDbCircle
 62
2
  6
CONTINUOUS
 10
12.3940692204
 20
2.5168671561
 40
0.0213072145
100
AcDbArc
 50
303.0488228549
 51
355.7263138674
  0
LINE
  5
235
100
AcDbEntity
  8
0
100
AcDbLine
 62
2
  6
CONTINUOUS
 10
12.2949101227
 20
2.5499573458
 11
12.3362731456
 21
2.5499573458
  0
ARC
  5
236
100
AcDbEntity
  8
0
100
AcDbCircle
 62
2
  6
CONTINUOUS
 10
12.3362731456
 20
2.5586198506
 40
0.0086625048
100
AcDbArc
 50
270.0
 51
90.0
  0
LINE
  5
237
100
AcDbEntity
  8
0
100
AcDbLine
 62
2
  6
CONTINUOUS
 10
12.3362731456
 20
2.5672823554
 11
12.2949101227
 21
2.5672823554
  0
ARC
  5
238
100
AcDbEntity
  8
0
100
AcDbCircle
 62
2
  6
CONTINUOUS
 10
12.2949101208
 20
2.5648073559
 40
0.0024749995
100
AcDbArc
 50
89.9999571957
 51
180.0000428043
  0
LINE
  5
239
100
AcDbEntity
  8
0
100
AcDbLine
 62
2
  6
CONTINUOUS
 10
12.2924351213
 20
2.564807354
 11
12.2924351213
 21
2.5524323472
  0
ARC
  5
23A
100
AcDbEntity
  8
0
100
AcDbCircle
 62
2
  6
CONTINUOUS
 10
12.2949101208
 20
2.5524323453
 40
0.0024749995
100
AcDbArc
 50
179.9999571957
 51
270.0000428043
  0
LINE
  5
23B
100
AcDbEntity
  8
0
100
AcDbLine
 62
2
  6
CONTINUOUS
 10
12.2924351213
 20
2.5184523283
 11
12.2924351213
 21
2.5308273352
  0
ARC
  5
23C
100
AcDbEntity
  8
0
100
AcDbCircle
 62
2
  6
CONTINUOUS
 10
12.2949101208
 20
2.530827337
 40
0.0024749995
100
AcDbArc
 50
89.9999571957
 51
180.0000428043
  0
LINE
  5
23D
100
AcDbEntity
  8
0
100
AcDbLine
 62
2
  6
CONTINUOUS
 10
12.2949101227
 20
2.5333023366
 11
12.3362731456
 21
2.5333023366
  0
ARC
  5
23E
100
AcDbEntity
  8
0
100
AcDbCircle
 62
2
  6
CONTINUOUS
 10
12.3362731456
 20
2.5246398318
 40
0.0086625048
100
AcDbArc
 50
270.0
 51
90.0
  0
LINE
  5
23F
100
AcDbEntity
  8
0
100
AcDbLine
 62
2
  6
CONTINUOUS
 10
12.3362731456
 20
2.515977327
 11
12.2949101227
 21
2.515977327
  0
ARC
  5
240
100
AcDbEntity
  8
0
100
AcDbCircle
 62
2
  6
CONTINUOUS
 10
12.2949101208
 20
2.5184523265
 40
0.0024749995
100
AcDbArc
 50
179.9999571957
 51
270.0000428043
  0
ARC
  5
241
100
AcDbEntity
  8
0
100
AcDbCircle
 62
2
  6
CONTINUOUS
 10
13.5806801742
 20
2.5212486481
 40
0.044722495
100
AcDbArc
 50
195.531588407
 51
204.7624440448
  0
LINE
  5
242
100
AcDbEntity
  8
0
100
AcDbLine
 62
2
  6
CONTINUOUS
 10
13.5375908118
 20
2.5092733232
 11
13.5357868108
 21
2.5153423266
  0
ARC
  5
243
100
AcDbEntity
  8
0
100
AcDbCircle
 62
2
  6
CONTINUOUS
 10
13.4974076135
 20
2.5055452462
 40
0.0396099176
100
AcDbArc
 50
14.3201081283
 51
22.4984722084
  0
ARC
  5
244
100
AcDbEntity
  8
0
100
AcDbCircle
 62
2
  6
CONTINUOUS
 10
13.5201739219
 20
2.5145168728
 40
0.0151491919
100
AcDbArc
 50
24.098260853
 51
63.0369451818
  0
ARC
  5
245
100
AcDbEntity
  8
0
100
AcDbCircle
 62
2
  6
CONTINUOUS
 10
13.5161192671
 20
2.5062372524
 40
0.0243676582
100
AcDbArc
 50
63.3666028271
 51
90.3937697637
  0
LINE
  5
246
100
AcDbEntity
  8
0
100
AcDbLine
 62
2
  6
CONTINUOUS
 10
13.5159517998
 20
2.5306043351
 11
13.4883447845
 21
2.5306043351
  0
ARC
  5
247
100
AcDbEntity
  8
0
100
AcDbCircle
 62
2
  6
CONTINUOUS
 10
13.4883447827
 20
2.5281293355
 40
0.0024749995
100
AcDbArc
 50
89.9999571957
 51
180.0000428043
  0
LINE
  5
248
100
AcDbEntity
  8
0
100
AcDbLine
 62
2
  6
CONTINUOUS
 10
13.4858697831
 20
2.5281293337
 11
13.4858697831
 21
2.5184303283
  0
ARC
  5
249
100
AcDbEntity
  8
0
100
AcDbCircle
 62
2
  6
CONTINUOUS
 10
13.4883447827
 20
2.5184303265
 40
0.0024749995
100
AcDbArc
 50
179.9999571957
 51
270.0000428043
  0
LINE
  5
24A
100
AcDbEntity
  8
0
100
AcDbLine
 62
2
  6
CONTINUOUS
 10
13.4883447845
 20
2.5159553269
 11
13.5130037982
 21
2.5159553269
  0
ARC
  5
24B
100
AcDbEntity
  8
0
100
AcDbCircle
 62
2
  6
CONTINUOUS
 10
13.5130038
 20
2.5134803274
 40
0.0024749995
100
AcDbArc
 50
359.9999571957
 51
90.0000428043
  0
LINE
  5
24C
100
AcDbEntity
  8
0
100
AcDbLine
 62
2
  6
CONTINUOUS
 10
13.5154787995
 20
2.5134803256
 11
13.5154787995
 21
2.4937023146
  0
ARC
  5
24D
100
AcDbEntity
  8
0
100
AcDbCircle
 62
2
  6
CONTINUOUS
 10
13.5130038
 20
2.4937023128
 40
0.0024749995
100
AcDbArc
 50
269.9999571957
 51
0.0000428043
  0
LINE
  5
24E
100
AcDbEntity
  8
0
100
AcDbLine
 62
2
  6
CONTINUOUS
 10
13.5130037982
 20
2.4912273132
 11
13.3994327352
 21
2.4912273132
  0
ARC
  5
24F
100
AcDbEntity
  8
0
100
AcDbCircle
 62
2
  6
CONTINUOUS
 10
13.3994327333
 20
2.4937023128
 40
0.0024749995
100
AcDbArc
 50
179.9999571957
 51
270.0000428043
  0
LINE
  5
250
100
AcDbEntity
  8
0
100
AcDbLine
 62
2
  6
CONTINUOUS
 10
13.3969577338
 20
2.4937023146
 11
13.3969577338
 21
2.5135023256
  0
ARC
  5
251
100
AcDbEntity
  8
0
100
AcDbCircle
 62
2
  6
CONTINUOUS
 10
13.3994327333
 20
2.5135023274
 40
0.0024749995
100
AcDbArc
 50
89.9999571957
 51
180.0000428043
  0
LINE
  5
252
100
AcDbEntity
  8
0
100
AcDbLine
 62
2
  6
CONTINUOUS
 10
13.3994327352
 20
2.515977327
 11
13.4221787478
 21
2.515977327
  0
ARC
  5
253
100
AcDbEntity
  8
0
100
AcDbCircle
 62
2
  6
CONTINUOUS
 10
13.4221787497
 20
2.5184523265
 40
0.0024749995
100
AcDbArc
 50
269.9999571957
 51
0.0000428042
  0
LINE
  5
254
100
AcDbEntity
  8
0
100
AcDbLine
 62
2
  6
CONTINUOUS
 10
13.4246537492
 20
2.5184523283
 11
13.4246537492
 21
2.564807354
  0
ARC
  5
255
100
AcDbEntity
  8
0
100
AcDbCircle
 62
2
  6
CONTINUOUS
 10
13.4221787497
 20
2.5648073559
 40
0.0024749995
100
AcDbArc
 50
359.9999571957
 51
90.0000428043
  0
LINE
  5
256
100
AcDbEntity
  8
0
100
AcDbLine
 62
2
  6
CONTINUOUS
 10
13.4221787478
 20
2.5672823554
 11
13.3994327352
 21
2.5672823554
  0
ARC
  5
257
100
AcDbEntity
  8
0
100
AcDbCircle
 62
2
  6
CONTINUOUS
 10
13.3994327333
 20
2.5697573549
 40
0.0024749995
100
AcDbArc
 50
179.9999571957
 51
270.0000428043
  0
LINE
  5
258
100
AcDbEntity
  8
0
100
AcDbLine
 62
2
  6
CONTINUOUS
 10
13.3969577338
 20
2.5697573568
 11
13.3969577338
 21
2.5895573678
  0
ARC
  5
259
100
AcDbEntity
  8
0
100
AcDbCircle
 62
2
  6
CONTINUOUS
 10
13.3994327333
 20
2.5895573696
 40
0.0024749995
100
AcDbArc
 50
89.9999571957
 51
180.0000428043
  0
LINE
  5
25A
100
AcDbEntity
  8
0
100
AcDbLine
 62
2
  6
CONTINUOUS
 10
13.3994327352
 20
2.5920323691
 11
13.5490138181
 21
2.5920323691
  0
ARC
  5
25B
100
AcDbEntity
  8
0
100
AcDbCircle
 62
2
  6
CONTINUOUS
 10
13.5463505148
 20
2.4094934586
 40
0.1825583387
100
AcDbArc
 50
79.8618509324
 51
89.1640948679
  0
ARC
  5
25C
100
AcDbEntity
  8
0
100
AcDbCircle
 62
2
  6
CONTINUOUS
 10
13.5726548052
 20
2.5503169747
 40
0.039319019
100
AcDbArc
 50
59.1202086415
 51
81.4730239328
  0
ARC
  5
25D
100
AcDbEntity
  8
0
100
AcDbCircle
 62
2
  6
CONTINUOUS
 10
13.5783142014
 20
2.5566516438
 40
0.0310192946
100
AcDbArc
 50
34.7540871
 51
62.0879016178
  0
ARC
  5
25E
100
AcDbEntity
  8
0
100
AcDbCircle
 62
2
  6
CONTINUOUS
 10
13.5900029525
 20
2.565201245
 40
0.0165459396
100
AcDbArc
 50
1.548452892
 51
33.5033152417
  0
ARC
  5
25F
100
AcDbEntity
  8
0
100
AcDbCircle
 62
2
  6
CONTINUOUS
 10
13.5932995477
 20
2.5653696972
 40
0.0132462337
100
AcDbArc
 50
331.1510006998
 51
1.205404301
  0
ARC
  5
260
100
AcDbEntity
  8
0
100
AcDbCircle
 62
2
  6
CONTINUOUS
 10
13.5822888914
 20
2.5720482849
 40
0.0261183659
100
AcDbArc
 50
305.6373831893
 51
329.9727629745
  0
ARC
  5
261
100
AcDbEntity
  8
0
100
AcDbCircle
 62
2
  6
CONTINUOUS
 10
13.5519569538
 20
2.6152551345
 40
0.0789082104
100
AcDbArc
 50
292.906155071
 51
305.2574666259
  0
ARC
  5
262
100
AcDbEntity
  8
0
100
AcDbCircle
 62
2
  6
CONTINUOUS
 10
13.5282557878
 20
2.4386010294
 40
0.117346916
100
AcDbArc
 50
58.614769177
 51
62.3737227606
  0
ARC
  5
263
100
AcDbEntity
  8
0
100
AcDbCircle
 62
2
  6
CONTINUOUS
 10
13.5761387404
 20
2.5167282896
 40
0.0257145923
100
AcDbArc
 50
39.3804255939
 51
59.0361096173
  0
ARC
  5
264
100
AcDbEntity
  8
0
100
AcDbCircle
 62
2
  6
CONTINUOUS
 10
13.5750183849
 20
2.5166552064
 40
0.0266349791
100
AcDbArc
 50
20.3630922153
 51
37.9727053099
  0
ARC
  5
265
100
AcDbEntity
  8
0
100
AcDbCircle
 62
2
  6
CONTINUOUS
 10
13.5571178432
 20
2.509473798
 40
0.0459185159
100
AcDbArc
 50
15.6740290068
 51
20.9917271228
  0
ARC
  5
266
100
AcDbEntity
  8
0
100
AcDbCircle
 62
2
  6
CONTINUOUS
 10
13.6156881783
 20
2.525116781
 40
0.0147197649
100
AcDbArc
 50
192.7054516565
 51
206.0594861022
  0
ARC
  5
267
100
AcDbEntity
  8
0
100
AcDbCircle
 62
2
  6
CONTINUOUS
 10
13.6071938412
 20
2.5209082945
 40
0.0052403997
100
AcDbArc
 50
205.5232099488
 51
227.5054868079
  0
ARC
  5
268
100
AcDbEntity
  8
0
100
AcDbCircle
 62
2
  6
CONTINUOUS
 10
13.6054655419
 20
2.5190929218
 40
0.0027347709
100
AcDbArc
 50
228.5117626737
 51
266.1485845754
  0
LINE
  5
269
100
AcDbEntity
  8
0
100
AcDbLine
 62
2
  6
CONTINUOUS
 10
13.6052818493
 20
2.5163643272
 11
13.60639085
 21
2.5163643272
  0
ARC
  5
26A
100
AcDbEntity
  8
0
100
AcDbCircle
 62
2
  6
CONTINUOUS
 10
13.6063292954
 20
2.5296129864
 40
0.0132488022
100
AcDbArc
 50
270.266200055
 51
281.2404888597
  0
ARC
  5
26B
100
AcDbEntity
  8
0
100
AcDbCircle
 62
2
  6
CONTINUOUS
 10
13.6075235364
 20
2.5238762928
 40
0.0073895522
100
AcDbArc
 50
280.8288201977
 51
305.0837508495
  0
ARC
  5
26C
100
AcDbEntity
  8
0
100
AcDbCircle
 62
2
  6
CONTINUOUS
 10
13.607924718
 20
2.5230254464
 40
0.0064647042
100
AcDbArc
 50
306.5086174083
 51
340.2162360092
  0
ARC
  5
26D
100
AcDbEntity
  8
0
100
AcDbCircle
 62
2
  6
CONTINUOUS
 10
13.6027235414
 20
2.524769508
 40
0.0119498009
100
AcDbArc
 50
340.7883861657
 51
1.1691452593
  0
LINE
  5
26E
100
AcDbEntity
  8
0
100
AcDbLine
 62
2
  6
CONTINUOUS
 10
13.6146708546
 20
2.525013332
 11
13.6146708546
 21
2.5276393334
  0
ARC
  5
26F
100
AcDbEntity
  8
0
100
AcDbCircle
 62
2
  6
CONTINUOUS
 10
13.6171458541
 20
2.5276393353
 40
0.0024749995
100
AcDbArc
 50
89.9999571957
 51
180.0000428043
  0
LINE
  5
270
100
AcDbEntity
  8
0
100
AcDbLine
 62
2
  6
CONTINUOUS
 10
13.6171458559
 20
2.5301143348
 11
13.6292558626
 21
2.5301143348
  0
ARC
  5
271
100
AcDbEntity
  8
0
100
AcDbCircle
 62
2
  6
CONTINUOUS
 10
13.6292558645
 20
2.5276393353
 40
0.0024749995
100
AcDbArc
 50
359.9999571957
 51
90.0000428043
  0
LINE
  5
272
100
AcDbEntity
  8
0
100
AcDbLine
 62
2
  6
CONTINUOUS
 10
13.631730864
 20
2.5276393334
 11
13.631730864
 21
2.516087327
  0
ARC
  5
273
100
AcDbEntity
  8
0
100
AcDbCircle
 62
2
  6
CONTINUOUS
 10
13.6141751675
 20
2.5161916447
 40
0.0175560065
100
AcDbArc
 50
332.2279060967
 51
359.6595469939
  0
ARC
  5
274
100
AcDbEntity
  8
0
100
AcDbCircle
 62
2
  6
CONTINUOUS
 10
13.6048681567
 20
2.5210861501
 40
0.0280715479
100
AcDbArc
 50
308.5071794988
 51
332.2400656899
  0
ARC
  5
275
100
AcDbEntity
  8
0
100
AcDbCircle
 62
2
  6
CONTINUOUS
 10
13.5978759713
 20
2.5286873679
 40
0.0383802683
100
AcDbArc
 50
288.7656836787
 51
309.6104317088
  0
ARC
  5
276
100
AcDbEntity
  8
0
100
AcDbCircle
 62
2
  6
CONTINUOUS
 10
13.6036139387
 20
2.5111006186
 40
0.0198837666
100
AcDbArc
 50
271.8586572978
 51
289.4131338543
  0
LINE
  5
277
100
AcDbEntity
  8
0
100
AcDbLine
 62
2
  6
CONTINUOUS
 10
13.6042588488
 20
2.4912273132
 11
13.5568948225
 21
2.4912273132
  0
ARC
  5
278
100
AcDbEntity
  8
0
100
AcDbCircle
 62
2
  6
CONTINUOUS
 10
13.5577001432
 20
2.5085494649
 40
0.0173408616
100
AcDbArc
 50
232.4713476722
 51
267.338189944
  0
ARC
  5
279
100
AcDbEntity
  8
0
100
AcDbCircle
 62
2
  6
CONTINUOUS
 10
13.5607987082
 20
2.5143997688
 40
0.0238935861
100
AcDbArc
 50
209.8247607259
 51
235.1255079367
  0
ARC
  5
27A
100
AcDbEntity
  8
0
100
AcDbCircle
 62
2
  6
CONTINUOUS
 10
13.5295131508
 20
2.5629115009
 40
0.0110815393
100
AcDbArc
 50
306.758405961
 51
320.4502234234
  0
ARC
  5
27B
100
AcDbEntity
  8
0
100
AcDbCircle
 62
2
  6
CONTINUOUS
 10
13.5238839599
 20
2.5706523294
 40
0.0206523367
100
AcDbArc
 50
289.6883413472
 51
306.4184925496
  0
ARC
  5
27C
100
AcDbEntity
  8
0
100
AcDbCircle
 62
2
  6
CONTINUOUS
 10
13.5219564542
 20
2.5750459767
 40
0.0254407115
100
AcDbArc
 50
270.7327484175
 51
290.441894219
  0
LINE
  5
27D
100
AcDbEntity
  8
0
100
AcDbLine
 62
2
  6
CONTINUOUS
 10
13.5222818033
 20
2.5496073456
 11
13.4883447845
 21
2.5496073456
  0
ARC
  5
27E
100
AcDbEntity
  8
0
100
AcDbCircle
 62
2
  6
CONTINUOUS
 10
13.4883447827
 20
2.5520823451
 40
0.0024749995
100
AcDbArc
 50
179.9999571957
 51
270.0000428043
  0
LINE
  5
27F
100
AcDbEntity
  8
0
100
AcDbLine
 62
2
  6
CONTINUOUS
 10
13.4858697831
 20
2.552082347
 11
13.4858697831
 21
2.564807354
  0
ARC
  5
280
100
AcDbEntity
  8
0
100
AcDbCircle
 62
2
  6
CONTINUOUS
 10
13.4883447827
 20
2.5648073559
 40
0.0024749995
100
AcDbArc
 50
89.9999571957
 51
180.0000428043
  0
LINE
  5
281
100
AcDbEntity
  8
0
100
AcDbLine
 62
2
  6
CONTINUOUS
 10
13.4883447845
 20
2.5672823554
 11
13.5251458049
 21
2.5672823554
  0
ARC
  5
282
100
AcDbEntity
  8
0
100
AcDbCircle
 62
2
  6
CONTINUOUS
 10
13.5236009174
 20
2.5388278764
 40
0.0284963867
100
AcDbArc
 50
70.3834917948
 51
86.8922743861
  0
ARC
  5
283
100
AcDbEntity
  8
0
100
AcDbCircle
 62
2
  6
CONTINUOUS
 10
13.5284605274
 20
2.5518696094
 40
0.0145814632
100
AcDbArc
 50
54.6746025112
 51
71.1660573124
  0
ARC
  5
284
100
AcDbEntity
  8
0
100
AcDbCircle
 62
2
  6
CONTINUOUS
 10
13.5335900184
 20
2.5587235346
 40
0.0060275915
100
AcDbArc
 50
20.9055592135
 51
56.7851676243
  0
ARC
  5
285
100
AcDbEntity
  8
0
100
AcDbCircle
 62
2
  6
CONTINUOUS
 10
13.5348905773
 20
2.5593838168
 40
0.0045795888
100
AcDbArc
 50
355.6235353944
 51
18.9942678268
  0
ARC
  5
286
100
AcDbEntity
  8
0
100
AcDbCircle
 62
2
  6
CONTINUOUS
 10
13.533683767
 20
2.559677593
 40
0.0058087709
100
AcDbArc
 50
318.8515287446
 51
353.6422345323
  0
LINE
  5
287
100
AcDbEntity
  8
0
100
AcDbLine
 62
2
  6
CONTINUOUS
 10
12.672340332
 20
2.5920323691
 11
12.7727983877
 21
2.5920323691
  0
ARC
  5
288
100
AcDbEntity
  8
0
100
AcDbCircle
 62
2
  6
CONTINUOUS
 10
12.7727985224
 20
2.5895582013
 40
0.0024741678
100
AcDbArc
 50
46.3477981899
 51
90.0031206038
  0
LINE
  5
289
100
AcDbEntity
  8
0
100
AcDbLine
 62
2
  6
CONTINUOUS
 10
12.7745063886
 20
2.5913483688
 11
12.8345394219
 21
2.534068337
  0
ARC
  5
28A
100
AcDbEntity
  8
0
100
AcDbCircle
 62
2
  6
CONTINUOUS
 10
12.8362481229
 20
2.5358592748
 40
0.0024753014
100
AcDbArc
 50
226.3461263059
 51
0.0014637321
  0
LINE
  5
28B
100
AcDbEntity
  8
0
100
AcDbLine
 62
2
  6
CONTINUOUS
 10
12.8387234242
 20
2.535859338
 11
12.8387234242
 21
2.564807354
  0
ARC
  5
28C
100
AcDbEntity
  8
0
100
AcDbCircle
 62
2
  6
CONTINUOUS
 10
12.8362484247
 20
2.5648073559
 40
0.0024749995
100
AcDbArc
 50
359.9999571957
 51
90.0000428043
  0
LINE
  5
28D
100
AcDbEntity
  8
0
100
AcDbLine
 62
2
  6
CONTINUOUS
 10
12.8362484229
 20
2.5672823554
 11
12.8174724125
 21
2.5672823554
  0
ARC
  5
28E
100
AcDbEntity
  8
0
100
AcDbCircle
 62
2
  6
CONTINUOUS
 10
12.8174724106
 20
2.5697573549
 40
0.0024749995
100
AcDbArc
 50
179.9999571957
 51
270.0000428043
  0
LINE
  5
28F
100
AcDbEntity
  8
0
100
AcDbLine
 62
2
  6
CONTINUOUS
 10
12.8149974111
 20
2.5697573568
 11
12.8149974111
 21
2.5895573678
  0
ARC
  5
290
100
AcDbEntity
  8
0
100
AcDbCircle
 62
2
  6
CONTINUOUS
 10
12.8174724106
 20
2.5895573696
 40
0.0024749995
100
AcDbArc
 50
89.9999571957
 51
180.0000428043
  0
LINE
  5
291
100
AcDbEntity
  8
0
100
AcDbLine
 62
2
  6
CONTINUOUS
 10
12.8174724125
 20
2.5920323691
 11
12.8914734535
 21
2.5920323691
  0
ARC
  5
292
100
AcDbEntity
  8
0
100
AcDbCircle
 62
2
  6
CONTINUOUS
 10
12.8914734553
 20
2.5895573696
 40
0.0024749995
100
AcDbArc
 50
359.9999571957
 51
90.0000428043
  0
LINE
  5
293
100
AcDbEntity
  8
0
100
AcDbLine
 62
2
  6
CONTINUOUS
 10
12.8939484549
 20
2.5895573678
 11
12.8939484549
 21
2.5697573568
  0
ARC
  5
294
100
AcDbEntity
  8
0
100
AcDbCircle
 62
2
  6
CONTINUOUS
 10
12.8914734553
 20
2.5697573549
 40
0.0024749995
100
AcDbArc
 50
269.9999571957
 51
0.0000428043
  0
LINE
  5
295
100
AcDbEntity
  8
0
100
AcDbLine
 62
2
  6
CONTINUOUS
 10
12.8914734535
 20
2.5672823554
 11
12.8735404436
 21
2.5672823554
  0
ARC
  5
296
100
AcDbEntity
  8
0
100
AcDbCircle
 62
2
  6
CONTINUOUS
 10
12.8735404417
 20
2.5648073559
 40
0.0024749995
100
AcDbArc
 50
89.9999571957
 51
180.0000428043
  0
LINE
  5
297
100
AcDbEntity
  8
0
100
AcDbLine
 62
2
  6
CONTINUOUS
 10
12.8710654422
 20
2.564807354
 11
12.8710654422
 21
2.4937023146
  0
ARC
  5
298
100
AcDbEntity
  8
0
100
AcDbCircle
 62
2
  6
CONTINUOUS
 10
12.8685904427
 20
2.4937023128
 40
0.0024749995
100
AcDbArc
 50
269.9999571957
 51
0.0000428043
  0
LINE
  5
299
100
AcDbEntity
  8
0
100
AcDbLine
 62
2
  6
CONTINUOUS
 10
12.8685904408
 20
2.4912273132
 11
12.7943853997
 21
2.4912273132
  0
ARC
  5
29A
100
AcDbEntity
  8
0
100
AcDbCircle
 62
2
  6
CONTINUOUS
 10
12.7943847649
 20
2.4937027294
 40
0.0024754162
100
AcDbArc
 50
226.3593695813
 51
270.0146919953
  0
LINE
  5
29B
100
AcDbEntity
  8
0
100
AcDbLine
 62
2
  6
CONTINUOUS
 10
12.7926763987
 20
2.4919113136
 11
12.7293963636
 21
2.5522893471
  0
ARC
  5
29C
100
AcDbEntity
  8
0
100
AcDbCircle
 62
2
  6
CONTINUOUS
 10
12.7276876627
 20
2.5504984093
 40
0.0024753014
100
AcDbArc
 50
46.3461263059
 51
180.0014637321
  0
LINE
  5
29D
100
AcDbEntity
  8
0
100
AcDbLine
 62
2
  6
CONTINUOUS
 10
12.7252123613
 20
2.5504983461
 11
12.7252123613
 21
2.5184523283
  0
ARC
  5
29E
100
AcDbEntity
  8
0
100
AcDbCircle
 62
2
  6
CONTINUOUS
 10
12.7276873608
 20
2.5184523265
 40
0.0024749995
100
AcDbArc
 50
179.9999571957
 51
270.0000428043
  0
LINE
  5
29F
100
AcDbEntity
  8
0
100
AcDbLine
 62
2
  6
CONTINUOUS
 10
12.7276873627
 20
2.515977327
 11
12.7480043739
 21
2.515977327
  0
ARC
  5
2A0
100
AcDbEntity
  8
0
100
AcDbCircle
 62
2
  6
CONTINUOUS
 10
12.7480043758
 20
2.5135023274
 40
0.0024749995
100
AcDbArc
 50
359.9999571957
 51
90.0000428043
  0
LINE
  5
2A1
100
AcDbEntity
  8
0
100
AcDbLine
 62
2
  6
CONTINUOUS
 10
12.7504793753
 20
2.5135023256
 11
12.7504793753
 21
2.4937023146
  0
ARC
  5
2A2
100
AcDbEntity
  8
0
100
AcDbCircle
 62
2
  6
CONTINUOUS
 10
12.7480043758
 20
2.4937023128
 40
0.0024749995
100
AcDbArc
 50
269.9999571957
 51
0.0000428043
  0
LINE
  5
2A3
100
AcDbEntity
  8
0
100
AcDbLine
 62
2
  6
CONTINUOUS
 10
12.7480043739
 20
2.4912273132
 11
12.672340332
 21
2.4912273132
  0
ARC
  5
2A4
100
AcDbEntity
  8
0
100
AcDbCircle
 62
2
  6
CONTINUOUS
 10
12.6723403301
 20
2.4937023128
 40
0.0024749995
100
AcDbArc
 50
179.9999571957
 51
270.0000428043
  0
LINE
  5
2A5
100
AcDbEntity
  8
0
100
AcDbLine
 62
2
  6
CONTINUOUS
 10
12.6698653306
 20
2.4937023146
 11
12.6698653306
 21
2.5135023256
  0
ARC
  5
2A6
100
AcDbEntity
  8
0
100
AcDbCircle
 62
2
  6
CONTINUOUS
 10
12.6723403301
 20
2.5135023274
 40
0.0024749995
100
AcDbArc
 50
89.9999571957
 51
180.0000428043
  0
LINE
  5
2A7
100
AcDbEntity
  8
0
100
AcDbLine
 62
2
  6
CONTINUOUS
 10
12.672340332
 20
2.515977327
 11
12.6909873423
 21
2.515977327
  0
ARC
  5
2A8
100
AcDbEntity
  8
0
100
AcDbCircle
 62
2
  6
CONTINUOUS
 10
12.6909873442
 20
2.5184523265
 40
0.0024749995
100
AcDbArc
 50
269.9999571957
 51
0.0000428043
  0
LINE
  5
2A9
100
AcDbEntity
  8
0
100
AcDbLine
 62
2
  6
CONTINUOUS
 10
12.6934623437
 20
2.5184523283
 11
12.6934623437
 21
2.564807354
  0
ARC
  5
2AA
100
AcDbEntity
  8
0
100
AcDbCircle
 62
2
  6
CONTINUOUS
 10
12.6909873442
 20
2.5648073559
 40
0.0024749995
100
AcDbArc
 50
359.9999571957
 51
90.0000428043
  0
LINE
  5
2AB
100
AcDbEntity
  8
0
100
AcDbLine
 62
2
  6
CONTINUOUS
 10
12.6909873423
 20
2.5672823554
 11
12.672340332
 21
2.5672823554
  0
ARC
  5
2AC
100
AcDbEntity
  8
0
100
AcDbCircle
 62
2
  6
CONTINUOUS
 10
12.6723403301
 20
2.5697573549
 40
0.0024749995
100
AcDbArc
 50
179.9999571957
 51
270.0000428043
  0
LINE
  5
2AD
100
AcDbEntity
  8
0
100
AcDbLine
 62
2
  6
CONTINUOUS
 10
12.6698653306
 20
2.5697573568
 11
12.6698653306
 21
2.5895573678
  0
ARC
  5
2AE
100
AcDbEntity
  8
0
100
AcDbCircle
 62
2
  6
CONTINUOUS
 10
12.6723403301
 20
2.5895573696
 40
0.0024749995
100
AcDbArc
 50
89.9999571957
 51
180.0000428043
  0
LINE
  5
2AF
100
AcDbEntity
  8
0
100
AcDbLine
 62
2
  6
CONTINUOUS
 10
12.5246402501
 20
2.5655893545
 11
12.5175232461
 21
2.5543723483
  0
ARC
  5
2B0
100
AcDbEntity
  8
0
100
AcDbCircle
 62
2
  6
CONTINUOUS
 10
12.519613138
 20
2.5530463862
 40
0.0024750401
100
AcDbArc
 50
147.6063258012
 51
270.0025305754
  0
LINE
  5
2B1
100
AcDbEntity
  8
0
100
AcDbLine
 62
2
  6
CONTINUOUS
 10
12.5196132473
 20
2.5505713461
 11
12.5401702587
 21
2.5505713461
  0
ARC
  5
2B2
100
AcDbEntity
  8
0
100
AcDbCircle
 62
2
  6
CONTINUOUS
 10
12.5401702375
 20
2.5530465533
 40
0.0024752071
100
AcDbArc
 50
270.0004896793
 51
32.9089806818
  0
LINE
  5
2B3
100
AcDbEntity
  8
0
100
AcDbLine
 62
2
  6
CONTINUOUS
 10
12.5422482598
 20
2.5543913483
 11
12.5349892558
 21
2.5656073545
  0
ARC
  5
2B4
100
AcDbEntity
  8
0
100
AcDbCircle
 62
2
  6
CONTINUOUS
 10
12.532910715
 20
2.564262895
 40
0.0024754602
100
AcDbArc
 50
32.8959418573
 51
89.9875097202
  0
LINE
  5
2B5
100
AcDbEntity
  8
0
100
AcDbLine
 62
2
  6
CONTINUOUS
 10
12.5329112547
 20
2.5667383551
 11
12.5267302512
 21
2.5667383551
  0
ARC
  5
2B6
100
AcDbEntity
  8
0
100
AcDbCircle
 62
2
  6
CONTINUOUS
 10
12.5267301809
 20
2.5642631548
 40
0.0024752003
100
AcDbArc
 50
89.998372645
 51
147.602165307
  0
LINE
  5
2B7
100
AcDbEntity
  8
0
100
AcDbLine
 62
2
  6
CONTINUOUS
 10
12.548053263
 20
2.5284903339
 11
12.5536792662
 21
2.5197973291
  0
ARC
  5
2B8
100
AcDbEntity
  8
0
100
AcDbCircle
 62
2
  6
CONTINUOUS
 10
12.5516012439
 20
2.5184525341
 40
0.0024752071
100
AcDbArc
 50
270.0004896794
 51
32.9089806818
  0
LINE
  5
2B9
100
AcDbEntity
  8
0
100
AcDbLine
 62
2
  6
CONTINUOUS
 10
12.551601265
 20
2.515977327
 11
12.537150257
 21
2.515977327
  0
ARC
  5
2BA
100
AcDbEntity
  8
0
100
AcDbCircle
 62
2
  6
CONTINUOUS
 10
12.5371502552
 20
2.5135023274
 40
0.0024749995
100
AcDbArc
 50
89.9999571957
 51
180.0000428043
  0
LINE
  5
2BB
100
AcDbEntity
  8
0
100
AcDbLine
 62
2
  6
CONTINUOUS
 10
12.5346752556
 20
2.5135023256
 11
12.5346752556
 21
2.4937023146
  0
ARC
  5
2BC
100
AcDbEntity
  8
0
100
AcDbCircle
 62
2
  6
CONTINUOUS
 10
12.5371502552
 20
2.4937023128
 40
0.0024749995
100
AcDbArc
 50
179.9999571957
 51
270.0000428043
  0
LINE
  5
2BD
100
AcDbEntity
  8
0
100
AcDbLine
 62
2
  6
CONTINUOUS
 10
12.537150257
 20
2.4912273132
 11
12.6424313154
 21
2.4912273132
  0
ARC
  5
2BE
100
AcDbEntity
  8
0
100
AcDbCircle
 62
2
  6
CONTINUOUS
 10
12.6424313172
 20
2.4937023128
 40
0.0024749995
100
AcDbArc
 50
269.9999571957
 51
0.0000428043
  0
LINE
  5
2BF
100
AcDbEntity
  8
0
100
AcDbLine
 62
2
  6
CONTINUOUS
 10
12.6449063168
 20
2.4937023146
 11
12.6449063168
 21
2.5135023256
  0
ARC
  5
2C0
100
AcDbEntity
  8
0
100
AcDbCircle
 62
2
  6
CONTINUOUS
 10
12.6424313172
 20
2.5135023274
 40
0.0024749995
100
AcDbArc
 50
359.9999571957
 51
90.0000428043
  0
LINE
  5
2C1
100
AcDbEntity
  8
0
100
AcDbLine
 62
2
  6
CONTINUOUS
 10
12.6424313154
 20
2.515977327
 11
12.6224153043
 21
2.515977327
  0
ARC
  5
2C2
100
AcDbEntity
  8
0
100
AcDbCircle
 62
2
  6
CONTINUOUS
 10
12.6224154248
 20
2.518451368
 40
0.002474041
100
AcDbArc
 50
212.9056413127
 51
269.9972091756
  0
LINE
  5
2C3
100
AcDbEntity
  8
0
100
AcDbLine
 62
2
  6
CONTINUOUS
 10
12.6203383031
 20
2.5171073276
 11
12.5725822767
 21
2.5909023685
  0
ARC
  5
2C4
100
AcDbEntity
  8
0
100
AcDbCircle
 62
2
  6
CONTINUOUS
 10
12.570504655
 20
2.589557409
 40
0.0024749602
100
AcDbArc
 50
32.9172174468
 51
90.0087853097
  0
LINE
  5
2C5
100
AcDbEntity
  8
0
100
AcDbLine
 62
2
  6
CONTINUOUS
 10
12.5705042755
 20
2.5920323691
 11
12.5133292438
 21
2.5920323691
  0
ARC
  5
2C6
100
AcDbEntity
  8
0
100
AcDbCircle
 62
2
  6
CONTINUOUS
 10
12.5133291735
 20
2.5895571688
 40
0.0024752003
100
AcDbArc
 50
89.9983726451
 51
147.602165307
  0
LINE
  5
2C7
100
AcDbEntity
  8
0
100
AcDbLine
 62
2
  6
CONTINUOUS
 10
12.5112392426
 20
2.5908833685
 11
12.4644392167
 21
2.5171263276
  0
ARC
  5
2C8
100
AcDbEntity
  8
0
100
AcDbCircle
 62
2
  6
CONTINUOUS
 10
12.4623492858
 20
2.5184525273
 40
0.0024752003
100
AcDbArc
 50
269.9983726451
 51
327.602165307
  0
LINE
  5
2C9
100
AcDbEntity
  8
0
100
AcDbLine
 62
2
  6
CONTINUOUS
 10
12.4623492155
 20
2.515977327
 11
12.4394882028
 21
2.515977327
  0
ARC
  5
2CA
100
AcDbEntity
  8
0
100
AcDbCircle
 62
2
  6
CONTINUOUS
 10
12.439488201
 20
2.5135023274
 40
0.0024749995
100
AcDbArc
 50
89.9999571957
 51
180.0000428043
  0
LINE
  5
2CB
100
AcDbEntity
  8
0
100
AcDbLine
 62
2
  6
CONTINUOUS
 10
12.4370132015
 20
2.5135023256
 11
12.4370132015
 21
2.4937023146
  0
ARC
  5
2CC
100
AcDbEntity
  8
0
100
AcDbCircle
 62
2
  6
CONTINUOUS
 10
12.439488201
 20
2.4937023128
 40
0.0024749995
100
AcDbArc
 50
179.9999571957
 51
270.0000428043
  0
LINE
  5
2CD
100
AcDbEntity
  8
0
100
AcDbLine
 62
2
  6
CONTINUOUS
 10
12.4394882028
 20
2.4912273132
 11
12.5168642458
 21
2.4912273132
  0
ARC
  5
2CE
100
AcDbEntity
  8
0
100
AcDbCircle
 62
2
  6
CONTINUOUS
 10
12.5168642476
 20
2.4937023128
 40
0.0024749995
100
AcDbArc
 50
269.9999571957
 51
0.0000428043
  0
LINE
  5
2CF
100
AcDbEntity
  8
0
100
AcDbLine
 62
2
  6
CONTINUOUS
 10
12.5193392471
 20
2.4937023146
 11
12.5193392471
 21
2.5135023256
  0
ARC
  5
2D0
100
AcDbEntity
  8
0
100
AcDbCircle
 62
2
  6
CONTINUOUS
 10
12.5168642476
 20
2.5135023274
 40
0.0024749995
100
AcDbArc
 50
359.9999571957
 51
90.0000428043
  0
LINE
  5
2D1
100
AcDbEntity
  8
0
100
AcDbLine
 62
2
  6
CONTINUOUS
 10
12.5168642458
 20
2.515977327
 11
12.5055812395
 21
2.515977327
  0
ARC
  5
2D2
100
AcDbEntity
  8
0
100
AcDbCircle
 62
2
  6
CONTINUOUS
 10
12.5055811302
 20
2.518452367
 40
0.0024750401
100
AcDbArc
 50
147.6063258011
 51
270.0025305754
  0
LINE
  5
2D3
100
AcDbEntity
  8
0
100
AcDbLine
 62
2
  6
CONTINUOUS
 10
12.5034912383
 20
2.5197783291
 11
12.5090072414
 21
2.5284723339
  0
ARC
  5
2D4
100
AcDbEntity
  8
0
100
AcDbCircle
 62
2
  6
CONTINUOUS
 10
12.5110971723
 20
2.5271461342
 40
0.0024752003
100
AcDbArc
 50
89.998372645
 51
147.602165307
  0
LINE
  5
2D5
100
AcDbEntity
  8
0
100
AcDbLine
 62
2
  6
CONTINUOUS
 10
12.5110972426
 20
2.5296213345
 11
12.5459752619
 21
2.5296213345
  0
ARC
  5
2D6
100
AcDbEntity
  8
0
100
AcDbCircle
 62
2
  6
CONTINUOUS
 10
12.5459747223
 20
2.5271458744
 40
0.0024754602
100
AcDbArc
 50
32.8959418573
 51
89.9875097202
  0
LINE
  5
2D7
100
AcDbEntity
  8
0
100
AcDbLine
 62
2
  6
CONTINUOUS
 10
12.9205934696
 20
2.5920323691
 11
13.0210515254
 21
2.5920323691
  0
ARC
  5
2D8
100
AcDbEntity
  8
0
100
AcDbCircle
 62
2
  6
CONTINUOUS
 10
13.0210516601
 20
2.5895582013
 40
0.0024741678
100
AcDbArc
 50
46.3477981899
 51
90.0031206038
  0
LINE
  5
2D9
100
AcDbEntity
  8
0
100
AcDbLine
 62
2
  6
CONTINUOUS
 10
13.0227595263
 20
2.5913483688
 11
13.0827925596
 21
2.534068337
  0
ARC
  5
2DA
100
AcDbEntity
  8
0
100
AcDbCircle
 62
2
  6
CONTINUOUS
 10
13.0845012605
 20
2.5358592748
 40
0.0024753014
100
AcDbArc
 50
226.3461263059
 51
0.0014637321
  0
LINE
  5
2DB
100
AcDbEntity
  8
0
100
AcDbLine
 62
2
  6
CONTINUOUS
 10
13.0869765619
 20
2.535859338
 11
13.0869765619
 21
2.564807354
  0
ARC
  5
2DC
100
AcDbEntity
  8
0
100
AcDbCircle
 62
2
  6
CONTINUOUS
 10
13.0845015624
 20
2.5648073559
 40
0.0024749995
100
AcDbArc
 50
359.9999571957
 51
90.0000428043
  0
LINE
  5
2DD
100
AcDbEntity
  8
0
100
AcDbLine
 62
2
  6
CONTINUOUS
 10
13.0845015605
 20
2.5672823554
 11
13.0657255501
 21
2.5672823554
  0
ARC
  5
2DE
100
AcDbEntity
  8
0
100
AcDbCircle
 62
2
  6
CONTINUOUS
 10
13.0657255483
 20
2.5697573549
 40
0.0024749995
100
AcDbArc
 50
179.9999571957
 51
270.0000428043
  0
LINE
  5
2DF
100
AcDbEntity
  8
0
100
AcDbLine
 62
2
  6
CONTINUOUS
 10
13.0632505488
 20
2.5697573568
 11
13.0632505488
 21
2.5895573678
  0
ARC
  5
2E0
100
AcDbEntity
  8
0
100
AcDbCircle
 62
2
  6
CONTINUOUS
 10
13.0657255483
 20
2.5895573696
 40
0.0024749995
100
AcDbArc
 50
89.9999571957
 51
180.0000428043
  0
LINE
  5
2E1
100
AcDbEntity
  8
0
100
AcDbLine
 62
2
  6
CONTINUOUS
 10
13.0657255501
 20
2.5920323691
 11
13.1397265912
 21
2.5920323691
  0
ARC
  5
2E2
100
AcDbEntity
  8
0
100
AcDbCircle
 62
2
  6
CONTINUOUS
 10
13.139726593
 20
2.5895573696
 40
0.0024749995
100
AcDbArc
 50
359.9999571957
 51
90.0000428043
  0
LINE
  5
2E3
100
AcDbEntity
  8
0
100
AcDbLine
 62
2
  6
CONTINUOUS
 10
13.1422015925
 20
2.5895573678
 11
13.1422015925
 21
2.5697573568
  0
ARC
  5
2E4
100
AcDbEntity
  8
0
100
AcDbCircle
 62
2
  6
CONTINUOUS
 10
13.139726593
 20
2.5697573549
 40
0.0024749995
100
AcDbArc
 50
269.9999571957
 51
0.0000428042
  0
LINE
  5
2E5
100
AcDbEntity
  8
0
100
AcDbLine
 62
2
  6
CONTINUOUS
 10
13.1397265912
 20
2.5672823554
 11
13.1217935812
 21
2.5672823554
  0
ARC
  5
2E6
100
AcDbEntity
  8
0
100
AcDbCircle
 62
2
  6
CONTINUOUS
 10
13.1217935794
 20
2.5648073559
 40
0.0024749995
100
AcDbArc
 50
89.9999571957
 51
180.0000428042
  0
LINE
  5
2E7
100
AcDbEntity
  8
0
100
AcDbLine
 62
2
  6
CONTINUOUS
 10
13.1193185799
 20
2.564807354
 11
13.1193185799
 21
2.4937023146
  0
ARC
  5
2E8
100
AcDbEntity
  8
0
100
AcDbCircle
 62
2
  6
CONTINUOUS
 10
13.1168435803
 20
2.4937023128
 40
0.0024749995
100
AcDbArc
 50
269.9999571957
 51
0.0000428043
  0
LINE
  5
2E9
100
AcDbEntity
  8
0
100
AcDbLine
 62
2
  6
CONTINUOUS
 10
13.1168435785
 20
2.4912273132
 11
13.0426375373
 21
2.4912273132
  0
ARC
  5
2EA
100
AcDbEntity
  8
0
100
AcDbCircle
 62
2
  6
CONTINUOUS
 10
13.0426374026
 20
2.493701481
 40
0.0024741678
100
AcDbArc
 50
226.3477981898
 51
270.0031206038
  0
LINE
  5
2EB
100
AcDbEntity
  8
0
100
AcDbLine
 62
2
  6
CONTINUOUS
 10
13.0409295364
 20
2.4919113136
 11
12.9776495013
 21
2.5522893471
  0
ARC
  5
2EC
100
AcDbEntity
  8
0
100
AcDbCircle
 62
2
  6
CONTINUOUS
 10
12.9759408003
 20
2.5504984093
 40
0.0024753014
100
AcDbArc
 50
46.3461263059
 51
180.0014637321
  0
LINE
  5
2ED
100
AcDbEntity
  8
0
100
AcDbLine
 62
2
  6
CONTINUOUS
 10
12.973465499
 20
2.5504983461
 11
12.973465499
 21
2.5184523283
  0
ARC
  5
2EE
100
AcDbEntity
  8
0
100
AcDbCircle
 62
2
  6
CONTINUOUS
 10
12.9759404985
 20
2.5184523265
 40
0.0024749995
100
AcDbArc
 50
179.9999571957
 51
270.0000428043
  0
LINE
  5
2EF
100
AcDbEntity
  8
0
100
AcDbLine
 62
2
  6
CONTINUOUS
 10
12.9759405003
 20
2.515977327
 11
12.9962575116
 21
2.515977327
  0
ARC
  5
2F0
100
AcDbEntity
  8
0
100
AcDbCircle
 62
2
  6
CONTINUOUS
 10
12.9962575135
 20
2.5135023274
 40
0.0024749995
100
AcDbArc
 50
359.9999571957
 51
90.0000428043
  0
LINE
  5
2F1
100
AcDbEntity
  8
0
100
AcDbLine
 62
2
  6
CONTINUOUS
 10
12.998732513
 20
2.5135023256
 11
12.998732513
 21
2.4937023146
  0
ARC
  5
2F2
100
AcDbEntity
  8
0
100
AcDbCircle
 62
2
  6
CONTINUOUS
 10
12.9962575135
 20
2.4937023128
 40
0.0024749995
100
AcDbArc
 50
269.9999571957
 51
0.0000428043
  0
LINE
  5
2F3
100
AcDbEntity
  8
0
100
AcDbLine
 62
2
  6
CONTINUOUS
 10
12.9962575116
 20
2.4912273132
 11
12.9205934696
 21
2.4912273132
  0
ARC
  5
2F4
100
AcDbEntity
  8
0
100
AcDbCircle
 62
2
  6
CONTINUOUS
 10
12.9205934678
 20
2.4937023128
 40
0.0024749995
100
AcDbArc
 50
179.9999571957
 51
270.0000428043
  0
LINE
  5
2F5
100
AcDbEntity
  8
0
100
AcDbLine
 62
2
  6
CONTINUOUS
 10
12.9181184683
 20
2.4937023146
 11
12.9181184683
 21
2.5135023256
  0
ARC
  5
2F6
100
AcDbEntity
  8
0
100
AcDbCircle
 62
2
  6
CONTINUOUS
 10
12.9205934678
 20
2.5135023274
 40
0.0024749995
100
AcDbArc
 50
89.9999571957
 51
180.0000428042
  0
LINE
  5
2F7
100
AcDbEntity
  8
0
100
AcDbLine
 62
2
  6
CONTINUOUS
 10
12.9205934696
 20
2.515977327
 11
12.93923948
 21
2.515977327
  0
ARC
  5
2F8
100
AcDbEntity
  8
0
100
AcDbCircle
 62
2
  6
CONTINUOUS
 10
12.9392394818
 20
2.5184523265
 40
0.0024749995
100
AcDbArc
 50
269.9999571957
 51
0.0000428043
  0
LINE
  5
2F9
100
AcDbEntity
  8
0
100
AcDbLine
 62
2
  6
CONTINUOUS
 10
12.9417144814
 20
2.5184523283
 11
12.9417144814
 21
2.564807354
  0
ARC
  5
2FA
100
AcDbEntity
  8
0
100
AcDbCircle
 62
2
  6
CONTINUOUS
 10
12.9392394818
 20
2.5648073559
 40
0.0024749995
100
AcDbArc
 50
359.9999571957
 51
90.0000428043
  0
LINE
  5
2FB
100
AcDbEntity
  8
0
100
AcDbLine
 62
2
  6
CONTINUOUS
 10
12.93923948
 20
2.5672823554
 11
12.9205934696
 21
2.5672823554
  0
ARC
  5
2FC
100
AcDbEntity
  8
0
100
AcDbCircle
 62
2
  6
CONTINUOUS
 10
12.9205934678
 20
2.5697573549
 40
0.0024749995
100
AcDbArc
 50
179.9999571957
 51
270.0000428043
  0
LINE
  5
2FD
100
AcDbEntity
  8
0
100
AcDbLine
 62
2
  6
CONTINUOUS
 10
12.9181184683
 20
2.5697573568
 11
12.9181184683
 21
2.5895573678
  0
ARC
  5
2FE
100
AcDbEntity
  8
0
100
AcDbCircle
 62
2
  6
CONTINUOUS
 10
12.9205934678
 20
2.5895573696
 40
0.0024749995
100
AcDbArc
 50
89.9999571957
 51
180.0000428042
  0
LINE
  5
2FF
100
AcDbEntity
  8
0
100
AcDbLine
 62
2
  6
CONTINUOUS
 10
13.2934226764
 20
2.5324773361
 11
13.2582556569
 21
2.5324773361
  0
ARC
  5
300
100
AcDbEntity
  8
0
100
AcDbCircle
 62
2
  6
CONTINUOUS
 10
13.2582556551
 20
2.5300023366
 40
0.0024749995
100
AcDbArc
 50
89.9999571957
 51
180.0000428043
  0
LINE
  5
301
100
AcDbEntity
  8
0
100
AcDbLine
 62
2
  6
CONTINUOUS
 10
13.2557806555
 20
2.5300023347
 11
13.2557806555
 21
2.5184523283
  0
ARC
  5
302
100
AcDbEntity
  8
0
100
AcDbCircle
 62
2
  6
CONTINUOUS
 10
13.2582556551
 20
2.5184523265
 40
0.0024749995
100
AcDbArc
 50
179.9999571957
 51
270.0000428043
  0
LINE
  5
303
100
AcDbEntity
  8
0
100
AcDbLine
 62
2
  6
CONTINUOUS
 10
13.2582556569
 20
2.515977327
 11
13.3232596929
 21
2.515977327
  0
ARC
  5
304
100
AcDbEntity
  8
0
100
AcDbCircle
 62
2
  6
CONTINUOUS
 10
13.3232596948
 20
2.5184523265
 40
0.0024749995
100
AcDbArc
 50
269.9999571957
 51
0.0000428043
  0
LINE
  5
305
100
AcDbEntity
  8
0
100
AcDbLine
 62
2
  6
CONTINUOUS
 10
13.3257346943
 20
2.5184523283
 11
13.3257346943
 21
2.5267023329
  0
ARC
  5
306
100
AcDbEntity
  8
0
100
AcDbCircle
 62
2
  6
CONTINUOUS
 10
13.3282096938
 20
2.5267023348
 40
0.0024749995
100
AcDbArc
 50
89.9999571957
 51
180.0000428043
  0
LINE
  5
307
100
AcDbEntity
  8
0
100
AcDbLine
 62
2
  6
CONTINUOUS
 10
13.3282096957
 20
2.5291773343
 11
13.3705287192
 21
2.5291773343
  0
ARC
  5
308
100
AcDbEntity
  8
0
100
AcDbCircle
 62
2
  6
CONTINUOUS
 10
13.370528721
 20
2.5267023348
 40
0.0024749995
100
AcDbArc
 50
359.9999571957
 51
90.0000428043
  0
LINE
  5
309
100
AcDbEntity
  8
0
100
AcDbLine
 62
2
  6
CONTINUOUS
 10
13.3730037205
 20
2.5267023329
 11
13.3730037205
 21
2.4937023146
  0
ARC
  5
30A
100
AcDbEntity
  8
0
100
AcDbCircle
 62
2
  6
CONTINUOUS
 10
13.370528721
 20
2.4937023128
 40
0.0024749995
100
AcDbArc
 50
269.9999571957
 51
0.0000428043
  0
LINE
  5
30B
100
AcDbEntity
  8
0
100
AcDbLine
 62
2
  6
CONTINUOUS
 10
13.3705287192
 20
2.4912273132
 11
13.1673166065
 21
2.4912273132
  0
ARC
  5
30C
100
AcDbEntity
  8
0
100
AcDbCircle
 62
2
  6
CONTINUOUS
 10
13.1673166046
 20
2.4937023128
 40
0.0024749995
100
AcDbArc
 50
179.9999571957
 51
270.0000428043
  0
LINE
  5
30D
100
AcDbEntity
  8
0
100
AcDbLine
 62
2
  6
CONTINUOUS
 10
13.1648416051
 20
2.4937023146
 11
13.1648416051
 21
2.5135023256
  0
ARC
  5
30E
100
AcDbEntity
  8
0
100
AcDbCircle
 62
2
  6
CONTINUOUS
 10
13.1673166046
 20
2.5135023274
 40
0.0024749995
100
AcDbArc
 50
89.9999571957
 51
180.0000428043
  0
LINE
  5
30F
100
AcDbEntity
  8
0
100
AcDbLine
 62
2
  6
CONTINUOUS
 10
13.1673166065
 20
2.515977327
 11
13.1912396197
 21
2.515977327
  0
ARC
  5
310
100
AcDbEntity
  8
0
100
AcDbCircle
 62
2
  6
CONTINUOUS
 10
13.1912396216
 20
2.5184523265
 40
0.0024749995
100
AcDbArc
 50
269.9999571957
 51
0.0000428042
  0
LINE
  5
311
100
AcDbEntity
  8
0
100
AcDbLine
 62
2
  6
CONTINUOUS
 10
13.1937146211
 20
2.5184523283
 11
13.1937146211
 21
2.564807354
  0
ARC
  5
312
100
AcDbEntity
  8
0
100
AcDbCircle
 62
2
  6
CONTINUOUS
 10
13.1912396216
 20
2.5648073559
 40
0.0024749995
100
AcDbArc
 50
359.9999571957
 51
90.0000428043
  0
LINE
  5
313
100
AcDbEntity
  8
0
100
AcDbLine
 62
2
  6
CONTINUOUS
 10
13.1912396197
 20
2.5672823554
 11
13.1673166065
 21
2.5672823554
  0
ARC
  5
314
100
AcDbEntity
  8
0
100
AcDbCircle
 62
2
  6
CONTINUOUS
 10
13.1673166046
 20
2.5697573549
 40
0.0024749995
100
AcDbArc
 50
179.9999571957
 51
270.0000428043
  0
LINE
  5
315
100
AcDbEntity
  8
0
100
AcDbLine
 62
2
  6
CONTINUOUS
 10
13.1648416051
 20
2.5697573568
 11
13.1648416051
 21
2.5895573678
  0
ARC
  5
316
100
AcDbEntity
  8
0
100
AcDbCircle
 62
2
  6
CONTINUOUS
 10
13.1673166046
 20
2.5895573696
 40
0.0024749995
100
AcDbArc
 50
89.9999571957
 51
180.0000428043
  0
LINE
  5
317
100
AcDbEntity
  8
0
100
AcDbLine
 62
2
  6
CONTINUOUS
 10
13.1673166065
 20
2.5920323691
 11
13.3691097184
 21
2.5920323691
  0
ARC
  5
318
100
AcDbEntity
  8
0
100
AcDbCircle
 62
2
  6
CONTINUOUS
 10
13.3691097202
 20
2.5895573696
 40
0.0024749995
100
AcDbArc
 50
359.9999571957
 51
90.0000428043
  0
LINE
  5
319
100
AcDbEntity
  8
0
100
AcDbLine
 62
2
  6
CONTINUOUS
 10
13.3715847197
 20
2.5895573678
 11
13.3715847197
 21
2.5565573495
  0
ARC
  5
31A
100
AcDbEntity
  8
0
100
AcDbCircle
 62
2
  6
CONTINUOUS
 10
13.3691097202
 20
2.5565573476
 40
0.0024749995
100
AcDbArc
 50
269.9999571957
 51
0.0000428042
  0
LINE
  5
31B
100
AcDbEntity
  8
0
100
AcDbLine
 62
2
  6
CONTINUOUS
 10
13.3691097184
 20
2.5540823481
 11
13.3272456952
 21
2.5540823481
  0
ARC
  5
31C
100
AcDbEntity
  8
0
100
AcDbCircle
 62
2
  6
CONTINUOUS
 10
13.3272456933
 20
2.5565573476
 40
0.0024749995
100
AcDbArc
 50
179.9999571957
 51
270.0000428043
  0
LINE
  5
31D
100
AcDbEntity
  8
0
100
AcDbLine
 62
2
  6
CONTINUOUS
 10
13.3247706938
 20
2.5565573495
 11
13.3247706938
 21
2.564807354
  0
ARC
  5
31E
100
AcDbEntity
  8
0
100
AcDbCircle
 62
2
  6
CONTINUOUS
 10
13.3222956943
 20
2.5648073559
 40
0.0024749995
100
AcDbArc
 50
359.9999571957
 51
90.0000428043
  0
LINE
  5
31F
100
AcDbEntity
  8
0
100
AcDbLine
 62
2
  6
CONTINUOUS
 10
13.3222956924
 20
2.5672823554
 11
13.2582556569
 21
2.5672823554
  0
ARC
  5
320
100
AcDbEntity
  8
0
100
AcDbCircle
 62
2
  6
CONTINUOUS
 10
13.2582556551
 20
2.5648073559
 40
0.0024749995
100
AcDbArc
 50
89.9999571957
 51
180.0000428043
  0
LINE
  5
321
100
AcDbEntity
  8
0
100
AcDbLine
 62
2
  6
CONTINUOUS
 10
13.2557806555
 20
2.564807354
 11
13.2557806555
 21
2.5532573476
  0
ARC
  5
322
100
AcDbEntity
  8
0
100
AcDbCircle
 62
2
  6
CONTINUOUS
 10
13.2582556551
 20
2.5532573458
 40
0.0024749995
100
AcDbArc
 50
179.9999571957
 51
270.0000428043
  0
LINE
  5
323
100
AcDbEntity
  8
0
100
AcDbLine
 62
2
  6
CONTINUOUS
 10
13.2582556569
 20
2.5507823463
 11
13.2934226764
 21
2.5507823463
  0
ARC
  5
324
100
AcDbEntity
  8
0
100
AcDbCircle
 62
2
  6
CONTINUOUS
 10
13.2934226783
 20
2.5483073467
 40
0.0024749995
100
AcDbArc
 50
359.9999571957
 51
90.0000428043
  0
LINE
  5
325
100
AcDbEntity
  8
0
100
AcDbLine
 62
2
  6
CONTINUOUS
 10
13.2958976778
 20
2.5483073449
 11
13.2958976778
 21
2.5349523375
  0
ARC
  5
326
100
AcDbEntity
  8
0
100
AcDbCircle
 62
2
  6
CONTINUOUS
 10
13.2934226783
 20
2.5349523356
 40
0.0024749995
100
AcDbArc
 50
269.9999571957
 51
0.0000428042
  0
LINE
  5
327
100
AcDbEntity
  8
0
100
AcDbLine
 62
2
  6
CONTINUOUS
 10
13.7286871589
 20
2.5350697372
 11
13.7286871589
 21
2.5456869438
  0
LINE
  5
328
100
AcDbEntity
  8
0
100
AcDbLine
 62
2
  6
CONTINUOUS
 10
13.7086871478
 20
2.5004302075
 11
13.7086871478
 21
2.5803264735
  0
LINE
  5
329
100
AcDbEntity
  8
0
100
AcDbLine
 62
2
  6
CONTINUOUS
 10
13.6886871368
 20
2.4843919416
 11
13.6886871368
 21
2.5963647394
  0
LINE
  5
32A
100
AcDbEntity
  8
0
100
AcDbLine
 62
2
  6
CONTINUOUS
 10
13.6686871257
 20
2.4726017898
 11
13.6686871257
 21
2.6081548911
  0
LINE
  5
32B
100
AcDbEntity
  8
0
100
AcDbLine
 62
2
  6
CONTINUOUS
 10
13.6486871146
 20
2.4628062688
 11
13.6486871146
 21
2.6179504122
  0
LINE
  5
32C
100
AcDbEntity
  8
0
100
AcDbLine
 62
2
  6
CONTINUOUS
 10
13.6286871035
 20
2.4541253507
 11
13.6286871035
 21
2.5062483056
  0
LINE
  5
32D
100
AcDbEntity
  8
0
100
AcDbLine
 62
2
  6
CONTINUOUS
 10
13.6286871035
 20
2.5301143348
 11
13.6286871035
 21
2.6266313303
  0
LINE
  5
32E
100
AcDbEntity
  8
0
100
AcDbLine
 62
2
  6
CONTINUOUS
 10
13.6086870924
 20
2.4465537903
 11
13.6086870924
 21
2.4918774918
  0
LINE
  5
32F
100
AcDbEntity
  8
0
100
AcDbLine
 62
2
  6
CONTINUOUS
 10
13.6086870924
 20
2.5165781173
 11
13.6086870924
 21
2.6342028907
  0
LINE
  5
330
100
AcDbEntity
  8
0
100
AcDbLine
 62
2
  6
CONTINUOUS
 10
13.5886870813
 20
2.4398033466
 11
13.5886870813
 21
2.4912273132
  0
LINE
  5
331
100
AcDbEntity
  8
0
100
AcDbLine
 62
2
  6
CONTINUOUS
 10
13.5886870813
 20
2.5391840845
 11
13.5886870813
 21
2.5454298327
  0
LINE
  5
332
100
AcDbEntity
  8
0
100
AcDbLine
 62
2
  6
CONTINUOUS
 10
13.5886870813
 20
2.5862063472
 11
13.5886870813
 21
2.6409533343
  0
LINE
  5
333
100
AcDbEntity
  8
0
100
AcDbLine
 62
2
  6
CONTINUOUS
 10
13.5686870702
 20
2.4334702189
 11
13.5686870702
 21
2.4912273132
  0
LINE
  5
334
100
AcDbEntity
  8
0
100
AcDbLine
 62
2
  6
CONTINUOUS
 10
13.5686870702
 20
2.5906587765
 11
13.5686870702
 21
2.647286462
  0
LINE
  5
335
100
AcDbEntity
  8
0
100
AcDbLine
 62
2
  6
CONTINUOUS
 10
13.5486870591
 20
2.4278968124
 11
13.5486870591
 21
2.4937461006
  0
LINE
  5
336
100
AcDbEntity
  8
0
100
AcDbLine
 62
2
  6
CONTINUOUS
 10
13.5486870591
 20
2.5920323691
 11
13.5486870591
 21
2.6528598686
  0
LINE
  5
337
100
AcDbEntity
  8
0
100
AcDbLine
 62
2
  6
CONTINUOUS
 10
13.528687048
 20
2.4225427674
 11
13.528687048
 21
2.5270426993
  0
LINE
  5
338
100
AcDbEntity
  8
0
100
AcDbLine
 62
2
  6
CONTINUOUS
 10
13.528687048
 20
2.5505166259
 11
13.528687048
 21
2.5668657091
  0
LINE
  5
339
100
AcDbEntity
  8
0
100
AcDbLine
 62
2
  6
CONTINUOUS
 10
13.528687048
 20
2.5920323691
 11
13.528687048
 21
2.6582139136
  0
LINE
  5
33A
100
AcDbEntity
  8
0
100
AcDbLine
 62
2
  6
CONTINUOUS
 10
13.5086870369
 20
2.4177306791
 11
13.5086870369
 21
2.4912273132
  0
LINE
  5
33B
100
AcDbEntity
  8
0
100
AcDbLine
 62
2
  6
CONTINUOUS
 10
13.5086870369
 20
2.5159553269
 11
13.5086870369
 21
2.5306043351
  0
LINE
  5
33C
100
AcDbEntity
  8
0
100
AcDbLine
 62
2
  6
CONTINUOUS
 10
13.5086870369
 20
2.5496073456
 11
13.5086870369
 21
2.5672823554
  0
LINE
  5
33D
100
AcDbEntity
  8
0
100
AcDbLine
 62
2
  6
CONTINUOUS
 10
13.5086870369
 20
2.5920323691
 11
13.5086870369
 21
2.6630260019
  0
LINE
  5
33E
100
AcDbEntity
  8
0
100
AcDbLine
 62
2
  6
CONTINUOUS
 10
13.4886870258
 20
2.4131795254
 11
13.4886870258
 21
2.4912273132
  0
LINE
  5
33F
100
AcDbEntity
  8
0
100
AcDbLine
 62
2
  6
CONTINUOUS
 10
13.4886870258
 20
2.5159553269
 11
13.4886870258
 21
2.5306043351
  0
LINE
  5
340
100
AcDbEntity
  8
0
100
AcDbLine
 62
2
  6
CONTINUOUS
 10
13.4886870258
 20
2.5496073456
 11
13.4886870258
 21
2.5672823554
  0
LINE
  5
341
100
AcDbEntity
  8
0
100
AcDbLine
 62
2
  6
CONTINUOUS
 10
13.4886870258
 20
2.5920323691
 11
13.4886870258
 21
2.6675771555
  0
LINE
  5
342
100
AcDbEntity
  8
0
100
AcDbLine
 62
2
  6
CONTINUOUS
 10
13.4686870147
 20
2.4088819672
 11
13.4686870147
 21
2.4912273132
  0
LINE
  5
343
100
AcDbEntity
  8
0
100
AcDbLine
 62
2
  6
CONTINUOUS
 10
13.4686870147
 20
2.5920323691
 11
13.4686870147
 21
2.6718747138
  0
LINE
  5
344
100
AcDbEntity
  8
0
100
AcDbLine
 62
2
  6
CONTINUOUS
 10
13.4486870037
 20
2.4050092072
 11
13.4486870037
 21
2.4912273132
  0
LINE
  5
345
100
AcDbEntity
  8
0
100
AcDbLine
 62
2
  6
CONTINUOUS
 10
13.4486870037
 20
2.5920323691
 11
13.4486870037
 21
2.6757474738
  0
LINE
  5
346
100
AcDbEntity
  8
0
100
AcDbLine
 62
2
  6
CONTINUOUS
 10
13.4286869926
 20
2.4011364471
 11
13.4286869926
 21
2.4912273132
  0
LINE
  5
347
100
AcDbEntity
  8
0
100
AcDbLine
 62
2
  6
CONTINUOUS
 10
13.4286869926
 20
2.5920323691
 11
13.4286869926
 21
2.6796202339
  0
LINE
  5
348
100
AcDbEntity
  8
0
100
AcDbLine
 62
2
  6
CONTINUOUS
 10
13.4086869815
 20
2.3980226662
 11
13.4086869815
 21
2.4912273132
  0
LINE
  5
349
100
AcDbEntity
  8
0
100
AcDbLine
 62
2
  6
CONTINUOUS
 10
13.4086869815
 20
2.515977327
 11
13.4086869815
 21
2.5672823554
  0
LINE
  5
34A
100
AcDbEntity
  8
0
100
AcDbLine
 62
2
  6
CONTINUOUS
 10
13.4086869815
 20
2.5920323691
 11
13.4086869815
 21
2.6827340148
  0
LINE
  5
34B
100
AcDbEntity
  8
0
100
AcDbLine
 62
2
  6
CONTINUOUS
 10
13.3886869704
 20
2.3950052774
 11
13.3886869704
 21
2.6857514036
  0
LINE
  5
34C
100
AcDbEntity
  8
0
100
AcDbLine
 62
2
  6
CONTINUOUS
 10
13.3686869593
 20
2.3919878885
 11
13.3686869593
 21
2.4912273132
  0
LINE
  5
34D
100
AcDbEntity
  8
0
100
AcDbLine
 62
2
  6
CONTINUOUS
 10
13.3686869593
 20
2.5291773343
 11
13.3686869593
 21
2.5540823481
  0
LINE
  5
34E
100
AcDbEntity
  8
0
100
AcDbLine
 62
2
  6
CONTINUOUS
 10
13.3686869593
 20
2.5920323691
 11
13.3686869593
 21
2.6887687924
  0
LINE
  5
34F
100
AcDbEntity
  8
0
100
AcDbLine
 62
2
  6
CONTINUOUS
 10
13.3486869482
 20
2.3889704997
 11
13.3486869482
 21
2.4912273132
  0
LINE
  5
350
100
AcDbEntity
  8
0
100
AcDbLine
 62
2
  6
CONTINUOUS
 10
13.3486869482
 20
2.5291773343
 11
13.3486869482
 21
2.5540823481
  0
LINE
  5
351
100
AcDbEntity
  8
0
100
AcDbLine
 62
2
  6
CONTINUOUS
 10
13.3486869482
 20
2.5920323691
 11
13.3486869482
 21
2.6917861813
  0
LINE
  5
352
100
AcDbEntity
  8
0
100
AcDbLine
 62
2
  6
CONTINUOUS
 10
13.3286869371
 20
2.3859531109
 11
13.3286869371
 21
2.4912273132
  0
LINE
  5
353
100
AcDbEntity
  8
0
100
AcDbLine
 62
2
  6
CONTINUOUS
 10
13.3286869371
 20
2.5291773343
 11
13.3286869371
 21
2.5540823481
  0
LINE
  5
354
100
AcDbEntity
  8
0
100
AcDbLine
 62
2
  6
CONTINUOUS
 10
13.3286869371
 20
2.5920323691
 11
13.3286869371
 21
2.6948035701
  0
LINE
  5
355
100
AcDbEntity
  8
0
100
AcDbLine
 62
2
  6
CONTINUOUS
 10
13.308686926
 20
2.3833355437
 11
13.308686926
 21
2.4912273132
  0
LINE
  5
356
100
AcDbEntity
  8
0
100
AcDbLine
 62
2
  6
CONTINUOUS
 10
13.308686926
 20
2.515977327
 11
13.308686926
 21
2.5672823554
  0
LINE
  5
357
100
AcDbEntity
  8
0
100
AcDbLine
 62
2
  6
CONTINUOUS
 10
13.308686926
 20
2.5920323691
 11
13.308686926
 21
2.6974211373
  0
LINE
  5
358
100
AcDbEntity
  8
0
100
AcDbLine
 62
2
  6
CONTINUOUS
 10
13.2886869149
 20
2.3812612684
 11
13.2886869149
 21
2.4912273132
  0
LINE
  5
359
100
AcDbEntity
  8
0
100
AcDbLine
 62
2
  6
CONTINUOUS
 10
13.2886869149
 20
2.515977327
 11
13.2886869149
 21
2.5324773361
  0
LINE
  5
35A
100
AcDbEntity
  8
0
100
AcDbLine
 62
2
  6
CONTINUOUS
 10
13.2886869149
 20
2.5507823463
 11
13.2886869149
 21
2.5672823554
  0
LINE
  5
35B
100
AcDbEntity
  8
0
100
AcDbLine
 62
2
  6
CONTINUOUS
 10
13.2886869149
 20
2.5920323691
 11
13.2886869149
 21
2.6994954125
  0
LINE
  5
35C
100
AcDbEntity
  8
0
100
AcDbLine
 62
2
  6
CONTINUOUS
 10
13.2686869038
 20
2.3791869932
 11
13.2686869038
 21
2.4912273132
  0
LINE
  5
35D
100
AcDbEntity
  8
0
100
AcDbLine
 62
2
  6
CONTINUOUS
 10
13.2686869038
 20
2.515977327
 11
13.2686869038
 21
2.5324773361
  0
LINE
  5
35E
100
AcDbEntity
  8
0
100
AcDbLine
 62
2
  6
CONTINUOUS
 10
13.2686869038
 20
2.5507823463
 11
13.2686869038
 21
2.5672823554
  0
LINE
  5
35F
100
AcDbEntity
  8
0
100
AcDbLine
 62
2
  6
CONTINUOUS
 10
13.2686869038
 20
2.5920323691
 11
13.2686869038
 21
2.7015696878
  0
LINE
  5
360
100
AcDbEntity
  8
0
100
AcDbLine
 62
2
  6
CONTINUOUS
 10
13.2486868927
 20
2.377112718
 11
13.2486868927
 21
2.4912273132
  0
LINE
  5
361
100
AcDbEntity
  8
0
100
AcDbLine
 62
2
  6
CONTINUOUS
 10
13.2486868927
 20
2.5920323691
 11
13.2486868927
 21
2.703643963
  0
LINE
  5
362
100
AcDbEntity
  8
0
100
AcDbLine
 62
2
  6
CONTINUOUS
 10
13.2286868817
 20
2.3750384428
 11
13.2286868817
 21
2.4912273132
  0
LINE
  5
363
100
AcDbEntity
  8
0
100
AcDbLine
 62
2
  6
CONTINUOUS
 10
13.2286868817
 20
2.5920323691
 11
13.2286868817
 21
2.7057182382
  0
LINE
  5
364
100
AcDbEntity
  8
0
100
AcDbLine
 62
2
  6
CONTINUOUS
 10
13.2086868706
 20
2.3729641676
 11
13.2086868706
 21
2.4912273132
  0
LINE
  5
365
100
AcDbEntity
  8
0
100
AcDbLine
 62
2
  6
CONTINUOUS
 10
13.2086868706
 20
2.5920323691
 11
13.2086868706
 21
2.7077925134
  0
LINE
  5
366
100
AcDbEntity
  8
0
100
AcDbLine
 62
2
  6
CONTINUOUS
 10
13.1886868595
 20
2.3712344456
 11
13.1886868595
 21
2.4912273132
  0
LINE
  5
367
100
AcDbEntity
  8
0
100
AcDbLine
 62
2
  6
CONTINUOUS
 10
13.1886868595
 20
2.515977327
 11
13.1886868595
 21
2.5672823554
  0
LINE
  5
368
100
AcDbEntity
  8
0
100
AcDbLine
 62
2
  6
CONTINUOUS
 10
13.1886868595
 20
2.5920323691
 11
13.1886868595
 21
2.7095222354
  0
LINE
  5
369
100
AcDbEntity
  8
0
100
AcDbLine
 62
2
  6
CONTINUOUS
 10
13.1686868484
 20
2.3699682418
 11
13.1686868484
 21
2.4912273132
  0
LINE
  5
36A
100
AcDbEntity
  8
0
100
AcDbLine
 62
2
  6
CONTINUOUS
 10
13.1686868484
 20
2.515977327
 11
13.1686868484
 21
2.5672823554
  0
LINE
  5
36B
100
AcDbEntity
  8
0
100
AcDbLine
 62
2
  6
CONTINUOUS
 10
13.1686868484
 20
2.5920323691
 11
13.1686868484
 21
2.7107884392
  0
LINE
  5
36C
100
AcDbEntity
  8
0
100
AcDbLine
 62
2
  6
CONTINUOUS
 10
13.1486868373
 20
2.3687020381
 11
13.1486868373
 21
2.7120546429
  0
LINE
  5
36D
100
AcDbEntity
  8
0
100
AcDbLine
 62
2
  6
CONTINUOUS
 10
13.1286868262
 20
2.3674358343
 11
13.1286868262
 21
2.5672823554
  0
LINE
  5
36E
100
AcDbEntity
  8
0
100
AcDbLine
 62
2
  6
CONTINUOUS
 10
13.1286868262
 20
2.5920323691
 11
13.1286868262
 21
2.7133208466
  0
LINE
  5
36F
100
AcDbEntity
  8
0
100
AcDbLine
 62
2
  6
CONTINUOUS
 10
13.1086868151
 20
2.3661696306
 11
13.1086868151
 21
2.4912273132
  0
LINE
  5
370
100
AcDbEntity
  8
0
100
AcDbLine
 62
2
  6
CONTINUOUS
 10
13.1086868151
 20
2.5920323691
 11
13.1086868151
 21
2.7145870504
  0
LINE
  5
371
100
AcDbEntity
  8
0
100
AcDbLine
 62
2
  6
CONTINUOUS
 10
13.088686804
 20
2.3649034269
 11
13.088686804
 21
2.4912273132
  0
LINE
  5
372
100
AcDbEntity
  8
0
100
AcDbLine
 62
2
  6
CONTINUOUS
 10
13.088686804
 20
2.5920323691
 11
13.088686804
 21
2.7158532541
  0
LINE
  5
373
100
AcDbEntity
  8
0
100
AcDbLine
 62
2
  6
CONTINUOUS
 10
13.0686867929
 20
2.3636739922
 11
13.0686867929
 21
2.4912273132
  0
LINE
  5
374
100
AcDbEntity
  8
0
100
AcDbLine
 62
2
  6
CONTINUOUS
 10
13.0686867929
 20
2.5475272398
 11
13.0686867929
 21
2.5672823554
  0
LINE
  5
375
100
AcDbEntity
  8
0
100
AcDbLine
 62
2
  6
CONTINUOUS
 10
13.0686867929
 20
2.5920323691
 11
13.0686867929
 21
2.7170826887
  0
LINE
  5
376
100
AcDbEntity
  8
0
100
AcDbLine
 62
2
  6
CONTINUOUS
 10
13.0486867818
 20
2.363143203
 11
13.0486867818
 21
2.4912273132
  0
LINE
  5
377
100
AcDbEntity
  8
0
100
AcDbLine
 62
2
  6
CONTINUOUS
 10
13.0486867818
 20
2.5666100882
 11
13.0486867818
 21
2.717613478
  0
LINE
  5
378
100
AcDbEntity
  8
0
100
AcDbLine
 62
2
  6
CONTINUOUS
 10
13.0286867707
 20
2.3626124138
 11
13.0286867707
 21
2.50359263
  0
LINE
  5
379
100
AcDbEntity
  8
0
100
AcDbLine
 62
2
  6
CONTINUOUS
 10
13.0286867707
 20
2.5856929366
 11
13.0286867707
 21
2.7181442672
  0
LINE
  5
37A
100
AcDbEntity
  8
0
100
AcDbLine
 62
2
  6
CONTINUOUS
 10
13.0086867596
 20
2.3620816246
 11
13.0086867596
 21
2.5226754472
  0
LINE
  5
37B
100
AcDbEntity
  8
0
100
AcDbLine
 62
2
  6
CONTINUOUS
 10
13.0086867596
 20
2.5920323691
 11
13.0086867596
 21
2.7186750564
  0
LINE
  5
37C
100
AcDbEntity
  8
0
100
AcDbLine
 62
2
  6
CONTINUOUS
 10
12.9886867486
 20
2.3615508354
 11
12.9886867486
 21
2.4912273132
  0
LINE
  5
37D
100
AcDbEntity
  8
0
100
AcDbLine
 62
2
  6
CONTINUOUS
 10
12.9886867486
 20
2.515977327
 11
12.9886867486
 21
2.5417582644
  0
LINE
  5
37E
100
AcDbEntity
  8
0
100
AcDbLine
 62
2
  6
CONTINUOUS
 10
12.9886867486
 20
2.5920323691
 11
12.9886867486
 21
2.7192058456
  0
LINE
  5
37F
100
AcDbEntity
  8
0
100
AcDbLine
 62
2
  6
CONTINUOUS
 10
12.9686867375
 20
2.3610200462
 11
12.9686867375
 21
2.4912273132
  0
LINE
  5
380
100
AcDbEntity
  8
0
100
AcDbLine
 62
2
  6
CONTINUOUS
 10
12.9686867375
 20
2.5920323691
 11
12.9686867375
 21
2.7197366348
  0
LINE
  5
381
100
AcDbEntity
  8
0
100
AcDbLine
 62
2
  6
CONTINUOUS
 10
12.9486867264
 20
2.360489257
 11
12.9486867264
 21
2.4912273132
  0
LINE
  5
382
100
AcDbEntity
  8
0
100
AcDbLine
 62
2
  6
CONTINUOUS
 10
12.9486867264
 20
2.5920323691
 11
12.9486867264
 21
2.720267424
  0
LINE
  5
383
100
AcDbEntity
  8
0
100
AcDbLine
 62
2
  6
CONTINUOUS
 10
12.9286867153
 20
2.3602836008
 11
12.9286867153
 21
2.4912273132
  0
LINE
  5
384
100
AcDbEntity
  8
0
100
AcDbLine
 62
2
  6
CONTINUOUS
 10
12.9286867153
 20
2.515977327
 11
12.9286867153
 21
2.5672823554
  0
LINE
  5
385
100
AcDbEntity
  8
0
100
AcDbLine
 62
2
  6
CONTINUOUS
 10
12.9286867153
 20
2.5920323691
 11
12.9286867153
 21
2.7204730802
  0
LINE
  5
386
100
AcDbEntity
  8
0
100
AcDbLine
 62
2
  6
CONTINUOUS
 10
12.9086867042
 20
2.3604597639
 11
12.9086867042
 21
2.7202969171
  0
LINE
  5
387
100
AcDbEntity
  8
0
100
AcDbLine
 62
2
  6
CONTINUOUS
 10
12.8886866931
 20
2.360635927
 11
12.8886866931
 21
2.5672823554
  0
LINE
  5
388
100
AcDbEntity
  8
0
100
AcDbLine
 62
2
  6
CONTINUOUS
 10
12.8886866931
 20
2.5920323691
 11
12.8886866931
 21
2.720120754
  0
LINE
  5
389
100
AcDbEntity
  8
0
100
AcDbLine
 62
2
  6
CONTINUOUS
 10
12.868686682
 20
2.3608120901
 11
12.868686682
 21
2.491232357
  0
LINE
  5
38A
100
AcDbEntity
  8
0
100
AcDbLine
 62
2
  6
CONTINUOUS
 10
12.868686682
 20
2.5920323691
 11
12.868686682
 21
2.7199445909
  0
LINE
  5
38B
100
AcDbEntity
  8
0
100
AcDbLine
 62
2
  6
CONTINUOUS
 10
12.8486866709
 20
2.3609882532
 11
12.8486866709
 21
2.4912273132
  0
LINE
  5
38C
100
AcDbEntity
  8
0
100
AcDbLine
 62
2
  6
CONTINUOUS
 10
12.8486866709
 20
2.5920323691
 11
12.8486866709
 21
2.7197684278
  0
LINE
  5
38D
100
AcDbEntity
  8
0
100
AcDbLine
 62
2
  6
CONTINUOUS
 10
12.8286866598
 20
2.3611644163
 11
12.8286866598
 21
2.4912273132
  0
LINE
  5
38E
100
AcDbEntity
  8
0
100
AcDbLine
 62
2
  6
CONTINUOUS
 10
12.8286866598
 20
2.5396527025
 11
12.8286866598
 21
2.5672823554
  0
LINE
  5
38F
100
AcDbEntity
  8
0
100
AcDbLine
 62
2
  6
CONTINUOUS
 10
12.8286866598
 20
2.5920323691
 11
12.8286866598
 21
2.7195922647
  0
LINE
  5
390
100
AcDbEntity
  8
0
100
AcDbLine
 62
2
  6
CONTINUOUS
 10
12.8086866487
 20
2.3613405794
 11
12.8086866487
 21
2.4912273132
  0
LINE
  5
391
100
AcDbEntity
  8
0
100
AcDbLine
 62
2
  6
CONTINUOUS
 10
12.8086866487
 20
2.5587355508
 11
12.8086866487
 21
2.7194161016
  0
LINE
  5
392
100
AcDbEntity
  8
0
100
AcDbLine
 62
2
  6
CONTINUOUS
 10
12.7886866376
 20
2.3621089572
 11
12.7886866376
 21
2.4957181055
  0
LINE
  5
393
100
AcDbEntity
  8
0
100
AcDbLine
 62
2
  6
CONTINUOUS
 10
12.7886866376
 20
2.5778183992
 11
12.7886866376
 21
2.7186477238
  0
LINE
  5
394
100
AcDbEntity
  8
0
100
AcDbLine
 62
2
  6
CONTINUOUS
 10
12.7686866266
 20
2.3630013935
 11
12.7686866266
 21
2.5148009227
  0
LINE
  5
395
100
AcDbEntity
  8
0
100
AcDbLine
 62
2
  6
CONTINUOUS
 10
12.7686866266
 20
2.5920323691
 11
12.7686866266
 21
2.7177552874
  0
LINE
  5
396
100
AcDbEntity
  8
0
100
AcDbLine
 62
2
  6
CONTINUOUS
 10
12.7486866155
 20
2.3638938299
 11
12.7486866155
 21
2.4913263218
  0
LINE
  5
397
100
AcDbEntity
  8
0
100
AcDbLine
 62
2
  6
CONTINUOUS
 10
12.7486866155
 20
2.5158783184
 11
12.7486866155
 21
2.5338837399
  0
LINE
  5
398
100
AcDbEntity
  8
0
100
AcDbLine
 62
2
  6
CONTINUOUS
 10
12.7486866155
 20
2.5920323691
 11
12.7486866155
 21
2.7168628511
  0
LINE
  5
399
100
AcDbEntity
  8
0
100
AcDbLine
 62
2
  6
CONTINUOUS
 10
12.7286866044
 20
2.3647862663
 11
12.7286866044
 21
2.4912273132
  0
LINE
  5
39A
100
AcDbEntity
  8
0
100
AcDbLine
 62
2
  6
CONTINUOUS
 10
12.7286866044
 20
2.515977327
 11
12.7286866044
 21
2.5527601554
  0
LINE
  5
39B
100
AcDbEntity
  8
0
100
AcDbLine
 62
2
  6
CONTINUOUS
 10
12.7286866044
 20
2.5920323691
 11
12.7286866044
 21
2.7159704147
  0
LINE
  5
39C
100
AcDbEntity
  8
0
100
AcDbLine
 62
2
  6
CONTINUOUS
 10
12.7086865933
 20
2.3656787026
 11
12.7086865933
 21
2.4912273132
  0
LINE
  5
39D
100
AcDbEntity
  8
0
100
AcDbLine
 62
2
  6
CONTINUOUS
 10
12.7086865933
 20
2.5920323691
 11
12.7086865933
 21
2.7150779784
  0
LINE
  5
39E
100
AcDbEntity
  8
0
100
AcDbLine
 62
2
  6
CONTINUOUS
 10
12.6886865822
 20
2.366571139
 11
12.6886865822
 21
2.4912273132
  0
LINE
  5
39F
100
AcDbEntity
  8
0
100
AcDbLine
 62
2
  6
CONTINUOUS
 10
12.6886865822
 20
2.515977327
 11
12.6886865822
 21
2.5672823554
  0
LINE
  5
3A0
100
AcDbEntity
  8
0
100
AcDbLine
 62
2
  6
CONTINUOUS
 10
12.6886865822
 20
2.5920323691
 11
12.6886865822
 21
2.714185542
  0
LINE
  5
3A1
100
AcDbEntity
  8
0
100
AcDbLine
 62
2
  6
CONTINUOUS
 10
12.6686865711
 20
2.3677104027
 11
12.6686865711
 21
2.7130462783
  0
LINE
  5
3A2
100
AcDbEntity
  8
0
100
AcDbLine
 62
2
  6
CONTINUOUS
 10
12.64868656
 20
2.3693682721
 11
12.64868656
 21
2.7113884089
  0
LINE
  5
3A3
100
AcDbEntity
  8
0
100
AcDbLine
 62
2
  6
CONTINUOUS
 10
12.6286865489
 20
2.3710261415
 11
12.6286865489
 21
2.4912273132
  0
LINE
  5
3A4
100
AcDbEntity
  8
0
100
AcDbLine
 62
2
  6
CONTINUOUS
 10
12.6286865489
 20
2.515977327
 11
12.6286865489
 21
2.7097305395
  0
LINE
  5
3A5
100
AcDbEntity
  8
0
100
AcDbLine
 62
2
  6
CONTINUOUS
 10
12.6086865378
 20
2.372684011
 11
12.6086865378
 21
2.4912273132
  0
LINE
  5
3A6
100
AcDbEntity
  8
0
100
AcDbLine
 62
2
  6
CONTINUOUS
 10
12.6086865378
 20
2.5351122279
 11
12.6086865378
 21
2.70807267
  0
LINE
  5
3A7
100
AcDbEntity
  8
0
100
AcDbLine
 62
2
  6
CONTINUOUS
 10
12.5886865267
 20
2.3743418804
 11
12.5886865267
 21
2.4912273132
  0
LINE
  5
3A8
100
AcDbEntity
  8
0
100
AcDbLine
 62
2
  6
CONTINUOUS
 10
12.5886865267
 20
2.5660172622
 11
12.5886865267
 21
2.7064148006
  0
LINE
  5
3A9
100
AcDbEntity
  8
0
100
AcDbLine
 62
2
  6
CONTINUOUS
 10
12.5686865156
 20
2.3759997498
 11
12.5686865156
 21
2.4912273132
  0
LINE
  5
3AA
100
AcDbEntity
  8
0
100
AcDbLine
 62
2
  6
CONTINUOUS
 10
12.5686865156
 20
2.5920323691
 11
12.5686865156
 21
2.7047569312
  0
LINE
  5
3AB
100
AcDbEntity
  8
0
100
AcDbLine
 62
2
  6
CONTINUOUS
 10
12.5486865045
 20
2.3777575277
 11
12.5486865045
 21
2.4912273132
  0
LINE
  5
3AC
100
AcDbEntity
  8
0
100
AcDbLine
 62
2
  6
CONTINUOUS
 10
12.5486865045
 20
2.515977327
 11
12.5486865045
 21
2.5275118824
  0
LINE
  5
3AD
100
AcDbEntity
  8
0
100
AcDbLine
 62
2
  6
CONTINUOUS
 10
12.5486865045
 20
2.5920323691
 11
12.5486865045
 21
2.7029991533
  0
LINE
  5
3AE
100
AcDbEntity
  8
0
100
AcDbLine
 62
2
  6
CONTINUOUS
 10
12.5286864935
 20
2.3802813811
 11
12.5286864935
 21
2.5296213345
  0
LINE
  5
3AF
100
AcDbEntity
  8
0
100
AcDbLine
 62
2
  6
CONTINUOUS
 10
12.5286864935
 20
2.5505713461
 11
12.5286864935
 21
2.5667383551
  0
LINE
  5
3B0
100
AcDbEntity
  8
0
100
AcDbLine
 62
2
  6
CONTINUOUS
 10
12.5286864935
 20
2.5920323691
 11
12.5286864935
 21
2.7004752999
  0
LINE
  5
3B1
100
AcDbEntity
  8
0
100
AcDbLine
 62
2
  6
CONTINUOUS
 10
12.5086864824
 20
2.3828052346
 11
12.5086864824
 21
2.4912273132
  0
LINE
  5
3B2
100
AcDbEntity
  8
0
100
AcDbLine
 62
2
  6
CONTINUOUS
 10
12.5086864824
 20
2.515977327
 11
12.5086864824
 21
2.5279667721
  0
LINE
  5
3B3
100
AcDbEntity
  8
0
100
AcDbLine
 62
2
  6
CONTINUOUS
 10
12.5086864824
 20
2.5868602074
 11
12.5086864824
 21
2.6979514464
  0
LINE
  5
3B4
100
AcDbEntity
  8
0
100
AcDbLine
 62
2
  6
CONTINUOUS
 10
12.4886864713
 20
2.385329088
 11
12.4886864713
 21
2.4912273132
  0
LINE
  5
3B5
100
AcDbEntity
  8
0
100
AcDbLine
 62
2
  6
CONTINUOUS
 10
12.4886864713
 20
2.5553401045
 11
12.4886864713
 21
2.695427593
  0
LINE
  5
3B6
100
AcDbEntity
  8
0
100
AcDbLine
 62
2
  6
CONTINUOUS
 10
12.4686864602
 20
2.3878529415
 11
12.4686864602
 21
2.4912273132
  0
LINE
  5
3B7
100
AcDbEntity
  8
0
100
AcDbLine
 62
2
  6
CONTINUOUS
 10
12.4686864602
 20
2.5238200015
 11
12.4686864602
 21
2.6929037395
  0
LINE
  5
3B8
100
AcDbEntity
  8
0
100
AcDbLine
 62
2
  6
CONTINUOUS
 10
12.4486864491
 20
2.390376795
 11
12.4486864491
 21
2.4912273132
  0
LINE
  5
3B9
100
AcDbEntity
  8
0
100
AcDbLine
 62
2
  6
CONTINUOUS
 10
12.4486864491
 20
2.515977327
 11
12.4486864491
 21
2.690379886
  0
LINE
  5
3BA
100
AcDbEntity
  8
0
100
AcDbLine
 62
2
  6
CONTINUOUS
 10
12.428686438
 20
2.3931794042
 11
12.428686438
 21
2.6875772768
  0
LINE
  5
3BB
100
AcDbEntity
  8
0
100
AcDbLine
 62
2
  6
CONTINUOUS
 10
12.4086864269
 20
2.3964643301
 11
12.4086864269
 21
2.5013773986
  0
LINE
  5
3BC
100
AcDbEntity
  8
0
100
AcDbLine
 62
2
  6
CONTINUOUS
 10
12.4086864269
 20
2.5325739971
 11
12.4086864269
 21
2.5537224311
  0
LINE
  5
3BD
100
AcDbEntity
  8
0
100
AcDbLine
 62
2
  6
CONTINUOUS
 10
12.4086864269
 20
2.5791473398
 11
12.4086864269
 21
2.6842923509
  0
LINE
  5
3BE
100
AcDbEntity
  8
0
100
AcDbLine
 62
2
  6
CONTINUOUS
 10
12.3886864158
 20
2.399749256
 11
12.3886864158
 21
2.4921022658
  0
LINE
  5
3BF
100
AcDbEntity
  8
0
100
AcDbLine
 62
2
  6
CONTINUOUS
 10
12.3886864158
 20
2.5895929958
 11
12.3886864158
 21
2.681007425
  0
LINE
  5
3C0
100
AcDbEntity
  8
0
100
AcDbLine
 62
2
  6
CONTINUOUS
 10
12.3686864047
 20
2.403451877
 11
12.3686864047
 21
2.4912273132
  0
LINE
  5
3C1
100
AcDbEntity
  8
0
100
AcDbLine
 62
2
  6
CONTINUOUS
 10
12.3686864047
 20
2.5920323691
 11
12.3686864047
 21
2.677304804
  0
LINE
  5
3C2
100
AcDbEntity
  8
0
100
AcDbLine
 62
2
  6
CONTINUOUS
 10
12.3486863936
 20
2.407324637
 11
12.3486863936
 21
2.4912273132
  0
LINE
  5
3C3
100
AcDbEntity
  8
0
100
AcDbLine
 62
2
  6
CONTINUOUS
 10
12.3486863936
 20
2.5920323691
 11
12.3486863936
 21
2.673432044
  0
LINE
  5
3C4
100
AcDbEntity
  8
0
100
AcDbLine
 62
2
  6
CONTINUOUS
 10
12.3286863825
 20
2.4113493968
 11
12.3286863825
 21
2.4912273132
  0
LINE
  5
3C5
100
AcDbEntity
  8
0
100
AcDbLine
 62
2
  6
CONTINUOUS
 10
12.3286863825
 20
2.515977327
 11
12.3286863825
 21
2.5333023366
  0
LINE
  5
3C6
100
AcDbEntity
  8
0
100
AcDbLine
 62
2
  6
CONTINUOUS
 10
12.3286863825
 20
2.5499573458
 11
12.3286863825
 21
2.5672823554
  0
LINE
  5
3C7
100
AcDbEntity
  8
0
100
AcDbLine
 62
2
  6
CONTINUOUS
 10
12.3286863825
 20
2.5920323691
 11
12.3286863825
 21
2.6694072842
  0
LINE
  5
3C8
100
AcDbEntity
  8
0
100
AcDbLine
 62
2
  6
CONTINUOUS
 10
12.3086863715
 20
2.4159005505
 11
12.3086863715
 21
2.4912273132
  0
LINE
  5
3C9
100
AcDbEntity
  8
0
100
AcDbLine
 62
2
  6
CONTINUOUS
 10
12.3086863715
 20
2.515977327
 11
12.3086863715
 21
2.5333023366
  0
LINE
  5
3CA
100
AcDbEntity
  8
0
100
AcDbLine
 62
2
  6
CONTINUOUS
 10
12.3086863715
 20
2.5499573458
 11
12.3086863715
 21
2.5672823554
  0
LINE
  5
3CB
100
AcDbEntity
  8
0
100
AcDbLine
 62
2
  6
CONTINUOUS
 10
12.3086863715
 20
2.5920323691
 11
12.3086863715
 21
2.6648561305
  0
LINE
  5
3CC
100
AcDbEntity
  8
0
100
AcDbLine
 62
2
  6
CONTINUOUS
 10
12.2886863604
 20
2.4204517041
 11
12.2886863604
 21
2.4912273132
  0
LINE
  5
3CD
100
AcDbEntity
  8
0
100
AcDbLine
 62
2
  6
CONTINUOUS
 10
12.2886863604
 20
2.5920323691
 11
12.2886863604
 21
2.6603049769
  0
LINE
  5
3CE
100
AcDbEntity
  8
0
100
AcDbLine
 62
2
  6
CONTINUOUS
 10
12.2686863493
 20
2.4257438218
 11
12.2686863493
 21
2.4912273132
  0
LINE
  5
3CF
100
AcDbEntity
  8
0
100
AcDbLine
 62
2
  6
CONTINUOUS
 10
12.2686863493
 20
2.5920323691
 11
12.2686863493
 21
2.6550128592
  0
LINE
  5
3D0
100
AcDbEntity
  8
0
100
AcDbLine
 62
2
  6
CONTINUOUS
 10
12.2486863382
 20
2.4310978667
 11
12.2486863382
 21
2.4912273132
  0
LINE
  5
3D1
100
AcDbEntity
  8
0
100
AcDbLine
 62
2
  6
CONTINUOUS
 10
12.2486863382
 20
2.5920323691
 11
12.2486863382
 21
2.6496588142
  0
LINE
  5
3D2
100
AcDbEntity
  8
0
100
AcDbLine
 62
2
  6
CONTINUOUS
 10
12.2286863271
 20
2.4372566433
 11
12.2286863271
 21
2.4912273132
  0
LINE
  5
3D3
100
AcDbEntity
  8
0
100
AcDbLine
 62
2
  6
CONTINUOUS
 10
12.2286863271
 20
2.515977327
 11
12.2286863271
 21
2.5672823554
  0
LINE
  5
3D4
100
AcDbEntity
  8
0
100
AcDbLine
 62
2
  6
CONTINUOUS
 10
12.2286863271
 20
2.5920323691
 11
12.2286863271
 21
2.6435000377
  0
LINE
  5
3D5
100
AcDbEntity
  8
0
100
AcDbLine
 62
2
  6
CONTINUOUS
 10
12.208686316
 20
2.443589771
 11
12.208686316
 21
2.4912273132
  0
LINE
  5
3D6
100
AcDbEntity
  8
0
100
AcDbLine
 62
2
  6
CONTINUOUS
 10
12.208686316
 20
2.515977327
 11
12.208686316
 21
2.5672823554
  0
LINE
  5
3D7
100
AcDbEntity
  8
0
100
AcDbLine
 62
2
  6
CONTINUOUS
 10
12.208686316
 20
2.5920323691
 11
12.208686316
 21
2.63716691
  0
LINE
  5
3D8
100
AcDbEntity
  8
0
100
AcDbLine
 62
2
  6
CONTINUOUS
 10
12.1886863049
 20
2.4510806436
 11
12.1886863049
 21
2.6296760373
  0
LINE
  5
3D9
100
AcDbEntity
  8
0
100
AcDbLine
 62
2
  6
CONTINUOUS
 10
12.1686862938
 20
2.4591016523
 11
12.1686862938
 21
2.6216550287
  0
LINE
  5
3DA
100
AcDbEntity
  8
0
100
AcDbLine
 62
2
  6
CONTINUOUS
 10
12.1486862827
 20
2.468314272
 11
12.1486862827
 21
2.612442409
  0
LINE
  5
3DB
100
AcDbEntity
  8
0
100
AcDbLine
 62
2
  6
CONTINUOUS
 10
12.1286862716
 20
2.4794932339
 11
12.1286862716
 21
2.601263447
  0
LINE
  5
3DC
100
AcDbEntity
  8
0
100
AcDbLine
 62
2
  6
CONTINUOUS
 10
12.1086862605
 20
2.4934150665
 11
12.1086862605
 21
2.5873416144
  0
LINE
  5
3DD
100
AcDbEntity
  8
0
100
AcDbLine
 62
2
  6
CONTINUOUS
 10
12.0886862494
 20
2.5144449553
 11
12.0886862494
 21
2.5663117257
  0
ENDBLK
  5
3DE
100
AcDbEntity
  8
0
  6
BYBLOCK
 62
0
100
AcDbBlockEnd
  0
BLOCK
  5
3DF
100
AcDbEntity
  8
SCHEME_DIMS
100
AcDbBlockBegin
 62
2
  6
CONTINUOUS
  2
*D0
 70
65
 10
0.0
 20
0.0
  3
*D0
  1

  0
TEXT
  5
3E0
100
AcDbEntity
  8
SCHEME_DIMS
100
AcDbText
 62
2
  6
CONTINUOUS
 10
5.7363281223
 20
4.343722638
  7
STANDARD
 40
0.1
  1
8,4
 41
1.0
 72
0
100
AcDbText
  0
TEXT
  5
3E1
100
AcDbEntity
  8
SCHEME_DIMS
100
AcDbText
 62
2
  6
CONTINUOUS
 10
5.8363281223
 20
4.193722638
  7
STANDARD
 40
0.1
  1
.33
 41
1.0
 72
0
100
AcDbText
  0
TEXT
  5
3E2
100
AcDbEntity
  8
SCHEME_DIMS
100
AcDbText
 62
2
  6
CONTINUOUS
 10
5.7363281223
 20
4.193722638
  7
STANDARD
 40
0.1
  1
[
 41
1.0
 72
0
100
AcDbText
  0
TEXT
  5
3E3
100
AcDbEntity
  8
SCHEME_DIMS
100
AcDbText
 62
2
  6
CONTINUOUS
 10
6.1363281223
 20
4.193722638
  7
STANDARD
 40
0.1
  1
]
 41
1.0
 72
0
100
AcDbText
  0
LINE
  5
3E4
100
AcDbEntity
  8
SCHEME_DIMS
100
AcDbLine
 62
2
  6
CONTINUOUS
 10
4.2683163113
 20
4.7971277444
 11
5.6113281223
 21
4.7971277444
  0
LINE
  5
3E5
100
AcDbEntity
  8
SCHEME_DIMS
100
AcDbLine
 62
2
  6
CONTINUOUS
 10
4.5763871774
 20
5.1258679019
 11
5.6113281223
 21
5.1258679019
  0
LINE
  5
3E6
100
AcDbEntity
  8
SCHEME_DIMS
100
AcDbLine
 62
2
  6
CONTINUOUS
 10
5.4863281223
 20
4.7971277444
 11
5.4863281223
 21
4.393722638
  0
LINE
  5
3E7
100
AcDbEntity
  8
SCHEME_DIMS
100
AcDbLine
 62
2
  6
CONTINUOUS
 10
5.4863281223
 20
4.393722638
 11
5.6363281223
 21
4.393722638
  0
LINE
  5
3E8
100
AcDbEntity
  8
SCHEME_DIMS
100
AcDbLine
 62
2
  6
CONTINUOUS
 10
5.4863281223
 20
5.1258679019
 11
5.4863281223
 21
5.5258679019
  0
INSERT
  5
3E9
100
AcDbEntity
  8
SCHEME_DIMS
100
AcDbBlockReference
 62
2
  6
CONTINUOUS
  2
_FILLED
 10
5.4863281223
 20
4.7971277444
 41
0.1875
 42
0.1875
 43
0.1875
 50
90.0
  0
INSERT
  5
3EA
100
AcDbEntity
  8
SCHEME_DIMS
100
AcDbBlockReference
 62
2
  6
CONTINUOUS
  2
_FILLED
 10
5.4863281223
 20
5.1258679019
 41
0.1875
 42
0.1875
 43
0.1875
 50
270.0
  0
ENDBLK
  5
3EB
100
AcDbEntity
  8
0
  6
BYBLOCK
 62
0
100
AcDbBlockEnd
  0
BLOCK
  5
3EC
100
AcDbEntity
  8
SCHEME_DIMS
100
AcDbBlockBegin
 62
2
  6
CONTINUOUS
  2
*D1
 70
65
 10
0.0
 20
0.0
  3
*D1
  1

  0
TEXT
  5
3ED
100
AcDbEntity
  8
SCHEME_DIMS
100
AcDbText
 62
2
  6
CONTINUOUS
 10
5.7583586063
 20
5.3606509338
  7
STANDARD
 40
0.1
  1
27,4
 41
1.0
 72
0
100
AcDbText
  0
TEXT
  5
3EE
100
AcDbEntity
  8
SCHEME_DIMS
100
AcDbText
 62
2
  6
CONTINUOUS
 10
5.8583586063
 20
5.2106509338
  7
STANDARD
 40
0.1
  1
1.08
 41
1.0
 72
0
100
AcDbText
  0
TEXT
  5
3EF
100
AcDbEntity
  8
SCHEME_DIMS
100
AcDbText
 62
2
  6
CONTINUOUS
 10
5.7583586063
 20
5.2106509338
  7
STANDARD
 40
0.1
  1
[
 41
1.0
 72
0
100
AcDbText
  0
TEXT
  5
3F0
100
AcDbEntity
  8
SCHEME_DIMS
100
AcDbText
 62
2
  6
CONTINUOUS
 10
6.2583586063
 20
5.2106509338
  7
STANDARD
 40
0.1
  1
]
 41
1.0
 72
0
100
AcDbText
  0
LINE
  5
3F1
100
AcDbEntity
  8
SCHEME_DIMS
100
AcDbLine
 62
2
  6
CONTINUOUS
 10
4.2683163113
 20
4.7971277444
 11
6.1833586063
 21
4.7971277444
  0
LINE
  5
3F2
100
AcDbEntity
  8
SCHEME_DIMS
100
AcDbLine
 62
2
  6
CONTINUOUS
 10
4.8396402301
 20
5.8738993979
 11
4.8649055859
 21
5.8738993979
  0
LINE
  5
3F3
100
AcDbEntity
  8
SCHEME_DIMS
100
AcDbLine
 62
2
  6
CONTINUOUS
 10
4.907502623
 20
5.8738993979
 11
6.1833586063
 21
5.8738993979
  0
LINE
  5
3F4
100
AcDbEntity
  8
SCHEME_DIMS
100
AcDbLine
 62
2
  6
CONTINUOUS
 10
6.0583586063
 20
4.7971277444
 11
6.0583586063
 21
5.1106509338
  0
LINE
  5
3F5
100
AcDbEntity
  8
SCHEME_DIMS
100
AcDbLine
 62
2
  6
CONTINUOUS
 10
6.0583586063
 20
5.8738993979
 11
6.0583586063
 21
5.5606509338
  0
INSERT
  5
3F6
100
AcDbEntity
  8
SCHEME_DIMS
100
AcDbBlockReference
 62
2
  6
CONTINUOUS
  2
_FILLED
 10
6.0583586063
 20
4.7971277444
 41
0.1875
 42
0.1875
 43
0.1875
 50
270.0
  0
INSERT
  5
3F7
100
AcDbEntity
  8
SCHEME_DIMS
100
AcDbBlockReference
 62
2
  6
CONTINUOUS
  2
_FILLED
 10
6.0583586063
 20
5.8738993979
 41
0.1875
 42
0.1875
 43
0.1875
 50
90.0
  0
ENDBLK
  5
3F8
100
AcDbEntity
  8
0
  6
BYBLOCK
 62
0
100
AcDbBlockEnd
  0
BLOCK
  5
3F9
100
AcDbEntity
  8
SCHEME_DIMS
100
AcDbBlockBegin
 62
2
  6
CONTINUOUS
  2
*D2
 70
65
 10
0.0
 20
0.0
  3
*D2
  1

  0
TEXT
  5
3FA
100
AcDbEntity
  8
SCHEME_DIMS
100
AcDbText
 62
2
  6
CONTINUOUS
 10
6.2494085968
 20
7.3990235428
  7
STANDARD
 40
0.1
  1
129,2
 41
1.0
 72
0
100
AcDbText
  0
TEXT
  5
3FB
100
AcDbEntity
  8
SCHEME_DIMS
100
AcDbText
 62
2
  6
CONTINUOUS
 10
6.3494085968
 20
7.2490235428
  7
STANDARD
 40
0.1
  1
5.08
 41
1.0
 72
0
100
AcDbText
  0
TEXT
  5
3FC
100
AcDbEntity
  8
SCHEME_DIMS
100
AcDbText
 62
2
  6
CONTINUOUS
 10
6.2494085968
 20
7.2490235428
  7
STANDARD
 40
0.1
  1
[
 41
1.0
 72
0
100
AcDbText
  0
TEXT
  5
3FD
100
AcDbEntity
  8
SCHEME_DIMS
100
AcDbText
 62
2
  6
CONTINUOUS
 10
6.7494085968
 20
7.2490235428
  7
STANDARD
 40
0.1
  1
]
 41
1.0
 72
0
100
AcDbText
  0
LINE
  5
3FE
100
AcDbEntity
  8
SCHEME_DIMS
100
AcDbLine
 62
2
  6
CONTINUOUS
 10
4.2683163113
 20
4.7971277444
 11
6.6744085968
 21
4.7971277444
  0
LINE
  5
3FF
100
AcDbEntity
  8
SCHEME_DIMS
100
AcDbLine
 62
2
  6
CONTINUOUS
 10
5.0100525029
 20
9.8817734137
 11
6.6744085968
 21
9.8817734137
  0
LINE
  5
400
100
AcDbEntity
  8
SCHEME_DIMS
100
AcDbLine
 62
2
  6
CONTINUOUS
 10
6.5494085968
 20
4.7971277444
 11
6.5494085968
 21
7.1490235428
  0
LINE
  5
401
100
AcDbEntity
  8
SCHEME_DIMS
100
AcDbLine
 62
2
  6
CONTINUOUS
 10
6.5494085968
 20
9.8817734137
 11
6.5494085968
 21
7.5990235428
  0
INSERT
  5
402
100
AcDbEntity
  8
SCHEME_DIMS
100
AcDbBlockReference
 62
2
  6
CONTINUOUS
  2
_FILLED
 10
6.5494085968
 20
4.7971277444
 41
0.1875
 42
0.1875
 43
0.1875
 50
270.0
  0
INSERT
  5
403
100
AcDbEntity
  8
SCHEME_DIMS
100
AcDbBlockReference
 62
2
  6
CONTINUOUS
  2
_FILLED
 10
6.5494085968
 20
9.8817734137
 41
0.1875
 42
0.1875
 43
0.1875
 50
90.0
  0
ENDBLK
  5
404
100
AcDbEntity
  8
0
  6
BYBLOCK
 62
0
100
AcDbBlockEnd
  0
BLOCK
  5
405
100
AcDbEntity
  8
SCHEME_DIMS
100
AcDbBlockBegin
 62
2
  6
CONTINUOUS
  2
*D3
 70
65
 10
0.0
 20
0.0
  3
*D3
  1

  0
TEXT
  5
406
100
AcDbEntity
  8
SCHEME_DIMS
100
AcDbText
 62
2
  6
CONTINUOUS
 10
3.7020761538
 20
4.2471277444
  7
STANDARD
 40
0.1
  1
45
 41
1.0
 72
0
100
AcDbText
  0
TEXT
  5
407
100
AcDbEntity
  8
SCHEME_DIMS
100
AcDbText
 62
2
  6
CONTINUOUS
 10
3.8020761538
 20
4.0971277444
  7
STANDARD
 40
0.1
  1
1.77
 41
1.0
 72
0
100
AcDbText
  0
TEXT
  5
408
100
AcDbEntity
  8
SCHEME_DIMS
100
AcDbText
 62
2
  6
CONTINUOUS
 10
3.7020761538
 20
4.0971277444
  7
STANDARD
 40
0.1
  1
[
 41
1.0
 72
0
100
AcDbText
  0
TEXT
  5
409
100
AcDbEntity
  8
SCHEME_DIMS
100
AcDbText
 62
2
  6
CONTINUOUS
 10
4.2020761538
 20
4.0971277444
  7
STANDARD
 40
0.1
  1
]
 41
1.0
 72
0
100
AcDbText
  0
LINE
  5
40A
100
AcDbEntity
  8
SCHEME_DIMS
100
AcDbLine
 62
2
  6
CONTINUOUS
 10
3.1162493821
 20
5.9052495931
 11
3.1162493821
 21
5.1660605192
  0
LINE
  5
40B
100
AcDbEntity
  8
SCHEME_DIMS
100
AcDbLine
 62
2
  6
CONTINUOUS
 10
3.1162493821
 20
5.1095777887
 11
3.1162493821
 21
4.6241559404
  0
LINE
  5
40C
100
AcDbEntity
  8
SCHEME_DIMS
100
AcDbLine
 62
2
  6
CONTINUOUS
 10
3.1162493821
 20
4.5547325657
 11
3.1162493821
 21
4.1721277444
  0
LINE
  5
40D
100
AcDbEntity
  8
SCHEME_DIMS
100
AcDbLine
 62
2
  6
CONTINUOUS
 10
4.8879029254
 20
5.8983021481
 11
4.8879029254
 21
5.1652991367
  0
LINE
  5
40E
100
AcDbEntity
  8
SCHEME_DIMS
100
AcDbLine
 62
2
  6
CONTINUOUS
 10
4.8879029254
 20
5.0888365924
 11
4.8879029254
 21
4.8294237708
  0
LINE
  5
40F
100
AcDbEntity
  8
SCHEME_DIMS
100
AcDbLine
 62
2
  6
CONTINUOUS
 10
4.8879029254
 20
4.7676237431
 11
4.8879029254
 21
4.1721277444
  0
LINE
  5
410
100
AcDbEntity
  8
SCHEME_DIMS
100
AcDbLine
 62
2
  6
CONTINUOUS
 10
3.1162493821
 20
4.2971277444
 11
3.6020761538
 21
4.2971277444
  0
LINE
  5
411
100
AcDbEntity
  8
SCHEME_DIMS
100
AcDbLine
 62
2
  6
CONTINUOUS
 10
4.8879029254
 20
4.2971277444
 11
4.4020761538
 21
4.2971277444
  0
INSERT
  5
412
100
AcDbEntity
  8
SCHEME_DIMS
100
AcDbBlockReference
 62
2
  6
CONTINUOUS
  2
_FILLED
 10
3.1162493821
 20
4.2971277444
 41
0.1875
 42
0.1875
 43
0.1875
 50
180.0
  0
INSERT
  5
413
100
AcDbEntity
  8
SCHEME_DIMS
100
AcDbBlockReference
 62
2
  6
CONTINUOUS
  2
_FILLED
 10
4.8879029254
 20
4.2971277444
 41
0.1875
 42
0.1875
 43
0.1875
  0
ENDBLK
  5
414
100
AcDbEntity
  8
0
  6
BYBLOCK
 62
0
100
AcDbBlockEnd
  0
BLOCK
  5
415
100
AcDbEntity
  8
SCHEME_DIMS
100
AcDbBlockBegin
 62
2
  6
CONTINUOUS
  2
*D4
 70
65
 10
0.0
 20
0.0
  3
*D4
  1

  0
TEXT
  5
416
100
AcDbEntity
  8
SCHEME_DIMS
100
AcDbText
 62
2
  6
CONTINUOUS
 10
5.3401382385
 20
3.5383704614
  7
STANDARD
 40
0.1
  1
%%c
 41
1.3333333333
 72
0
100
AcDbText
  0
TEXT
  5
417
100
AcDbEntity
  8
SCHEME_DIMS
100
AcDbText
 62
2
  6
CONTINUOUS
 10
5.4734715719
 20
3.5383704614
  7
STANDARD
 40
0.1
  1
50
 41
1.0
 72
0
100
AcDbText
  0
TEXT
  5
418
100
AcDbEntity
  8
SCHEME_DIMS
100
AcDbText
 62
2
  6
CONTINUOUS
 10
5.5734715719
 20
3.3883704614
  7
STANDARD
 40
0.1
  1
1.97
 41
1.0
 72
0
100
AcDbText
  0
TEXT
  5
419
100
AcDbEntity
  8
SCHEME_DIMS
100
AcDbText
 62
2
  6
CONTINUOUS
 10
5.4734715719
 20
3.3883704614
  7
STANDARD
 40
0.1
  1
[
 41
1.0
 72
0
100
AcDbText
  0
TEXT
  5
41A
100
AcDbEntity
  8
SCHEME_DIMS
100
AcDbText
 62
2
  6
CONTINUOUS
 10
5.9734715719
 20
3.3883704614
  7
STANDARD
 40
0.1
  1
]
 41
1.0
 72
0
100
AcDbText
  0
LINE
  5
41B
100
AcDbEntity
  8
SCHEME_DIMS
100
AcDbLine
 62
2
  6
CONTINUOUS
 10
4.7947971993
 20
3.3710186431
 11
4.0020761538
 21
2.7876274523
  0
LINE
  5
41C
100
AcDbEntity
  8
SCHEME_DIMS
100
AcDbLine
 62
2
  6
CONTINUOUS
 10
4.0020761538
 20
2.7876274523
 11
5.0901382385
 21
3.5883704614
  0
LINE
  5
41D
100
AcDbEntity
  8
SCHEME_DIMS
100
AcDbLine
 62
2
  6
CONTINUOUS
 10
5.0901382385
 20
3.5883704614
 11
5.2401382385
 21
3.5883704614
  0
LINE
  5
41E
100
AcDbEntity
  8
SCHEME_DIMS
100
AcDbLine
 62
2
  6
CONTINUOUS
 10
3.2093551083
 20
2.2042362615
 11
4.0020761538
 21
2.7876274523
  0
INSERT
  5
41F
100
AcDbEntity
  8
SCHEME_DIMS
100
AcDbBlockReference
 62
2
  6
CONTINUOUS
  2
_FILLED
 10
4.7947971993
 20
3.3710186431
 41
0.1875
 42
0.1875
 43
0.1875
 50
36.3506538711
  0
INSERT
  5
420
100
AcDbEntity
  8
SCHEME_DIMS
100
AcDbBlockReference
 62
2
  6
CONTINUOUS
  2
_FILLED
 10
3.2093551083
 20
2.2042362615
 41
0.1875
 42
0.1875
 43
0.1875
 50
216.3506538711
  0
ENDBLK
  5
421
100
AcDbEntity
  8
0
  6
BYBLOCK
 62
0
100
AcDbBlockEnd
  0
BLOCK
  5
422
100
AcDbEntity
  8
SCHEME_DIMS
100
AcDbBlockBegin
 62
2
  6
CONTINUOUS
  2
*D5
 70
65
 10
0.0
 20
0.0
  3
*D5
  1

  0
TEXT
  5
423
100
AcDbEntity
  8
SCHEME_DIMS
100
AcDbText
 62
2
  6
CONTINUOUS
 10
5.0363281223
 20
7.353426957
  7
STANDARD
 40
0.1
  1
2X 
 41
1.0
 72
0
100
AcDbText
  0
TEXT
  5
424
100
AcDbEntity
  8
SCHEME_DIMS
100
AcDbText
 62
2
  6
CONTINUOUS
 10
5.3363281223
 20
7.353426957
  7
STANDARD
 40
0.1
  1
26,9
 41
1.0
 72
0
100
AcDbText
  0
TEXT
  5
425
100
AcDbEntity
  8
SCHEME_DIMS
100
AcDbText
 62
2
  6
CONTINUOUS
 10
5.4363281223
 20
7.203426957
  7
STANDARD
 40
0.1
  1
1.06
 41
1.0
 72
0
100
AcDbText
  0
TEXT
  5
426
100
AcDbEntity
  8
SCHEME_DIMS
100
AcDbText
 62
2
  6
CONTINUOUS
 10
5.3363281223
 20
7.203426957
  7
STANDARD
 40
0.1
  1
[
 41
1.0
 72
0
100
AcDbText
  0
TEXT
  5
427
100
AcDbEntity
  8
SCHEME_DIMS
100
AcDbText
 62
2
  6
CONTINUOUS
 10
5.8363281223
 20
7.203426957
  7
STANDARD
 40
0.1
  1
]
 41
1.0
 72
0
100
AcDbText
  0
LINE
  5
428
100
AcDbEntity
  8
SCHEME_DIMS
100
AcDbLine
 62
2
  6
CONTINUOUS
 10
5.0488281223
 20
6.8738993979
 11
5.6113281223
 21
6.8738993979
  0
LINE
  5
429
100
AcDbEntity
  8
SCHEME_DIMS
100
AcDbLine
 62
2
  6
CONTINUOUS
 10
5.0488281223
 20
7.932954516
 11
5.6113281223
 21
7.932954516
  0
LINE
  5
42A
100
AcDbEntity
  8
SCHEME_DIMS
100
AcDbLine
 62
2
  6
CONTINUOUS
 10
5.4863281223
 20
6.8738993979
 11
5.4863281223
 21
7.103426957
  0
LINE
  5
42B
100
AcDbEntity
  8
SCHEME_DIMS
100
AcDbLine
 62
2
  6
CONTINUOUS
 10
5.4863281223
 20
7.932954516
 11
5.4863281223
 21
7.553426957
  0
INSERT
  5
42C
100
AcDbEntity
  8
SCHEME_DIMS
100
AcDbBlockReference
 62
2
  6
CONTINUOUS
  2
_FILLED
 10
5.4863281223
 20
6.8738993979
 41
0.1875
 42
0.1875
 43
0.1875
 50
270.0
  0
INSERT
  5
42D
100
AcDbEntity
  8
SCHEME_DIMS
100
AcDbBlockReference
 62
2
  6
CONTINUOUS
  2
_FILLED
 10
5.4863281223
 20
7.932954516
 41
0.1875
 42
0.1875
 43
0.1875
 50
90.0
  0
ENDBLK
  5
42E
100
AcDbEntity
  8
0
  6
BYBLOCK
 62
0
100
AcDbBlockEnd
  0
BLOCK
  5
42F
100
AcDbEntity
  8
0
100
AcDbBlockBegin
  2
_FILLED
 70
64
 10
0.0
 20
0.0
  3
_FILLED
  1

  0
SOLID
  5
430
100
AcDbEntity
  8
0
  6
BYBLOCK
 62
0
100
AcDbTrace
 10
0.0
 20
0.0
 11
-1.0
 21
0.1666666667
 12
-1.0
 22
-0.1666666667
 13
-1.0
 23
-0.1666666667
  0
ENDBLK
  5
431
100
AcDbEntity
  8
0
  6
BYBLOCK
 62
0
100
AcDbBlockEnd
  0
ENDSEC
  0
SECTION
  2
ENTITIES
  0
TEXT
  5
432
100
AcDbEntity
  8
0
100
AcDbText
 62
2
  6
CONTINUOUS
 10
10.1487658475
 20
1.694867839
  7
STANDARD
 40
0.1
  1
%%uTHIRD ANGLE PROJECTION
 41
0.8
 72
1
 11
11.0287658475
 21
1.694867839
100
AcDbText
  0
TEXT
  5
433
100
AcDbEntity
  8
0
100
AcDbText
 62
2
  6
CONTINUOUS
 10
12.88
 20
1.377
  7
STANDARD
 40
0.08
  1
DRAWING NO.
 41
1.0
 72
0
100
AcDbText
  0
TEXT
  5
434
100
AcDbEntity
  8
0
100
AcDbText
 62
2
  6
CONTINUOUS
 10
10.044
 20
2.436432
  7
STANDARD
 40
0.08
  1
and is proprietary in general
 41
0.85
 72
1
 11
11.03
 21
2.436432
100
AcDbText
  0
TEXT
  5
435
100
AcDbEntity
  8
0
100
AcDbText
 62
2
  6
CONTINUOUS
 10
10.078
 20
2.316432
  7
STANDARD
 40
0.08
  1
and in detail.  Its contents
 41
0.85
 72
1
 11
11.03
 21
2.316432
100
AcDbText
  0
TEXT
  5
436
100
AcDbEntity
  8
0
100
AcDbText
 62
2
  6
CONTINUOUS
 10
10.214
 20
2.196432
  7
STANDARD
 40
0.08
  1
shall not be revealed to
 41
0.85
 72
1
 11
11.03
 21
2.196432
100
AcDbText
  0
TEXT
  5
437
100
AcDbEntity
  8
0
100
AcDbText
 62
2
  6
CONTINUOUS
 10
10.248
 20
2.076432
  7
STANDARD
 40
0.08
  1
outside parties without
 41
0.85
 72
1
 11
11.03
 21
2.076432
100
AcDbText
  0
TEXT
  5
438
100
AcDbEntity
  8
0
100
AcDbText
 62
2
  6
CONTINUOUS
 10
10.146
 20
1.956432
  7
STANDARD
 40
0.08
  1
written consent of BANNER.
 41
0.85
 72
1
 11
11.03
 21
1.956432
100
AcDbText
  0
TEXT
  5
439
100
AcDbEntity
  8
0
100
AcDbText
 62
2
  6
CONTINUOUS
 10
12.08
 20
2.117
  7
STANDARD
 40
0.1
  1
TITLE
 41
0.8
 72
0
100
AcDbText
  0
TEXT
  5
43A
100
AcDbEntity
  8
0
100
AcDbText
 62
2
  6
CONTINUOUS
 10
12.08
 20
1.377
  7
STANDARD
 40
0.08
  1
SIZE
 41
1.0
 72
0
100
AcDbText
  0
TEXT
  5
43B
100
AcDbEntity
  8
0
100
AcDbText
 62
2
  6
CONTINUOUS
 10
12.08
 20
1.007
  7
STANDARD
 40
0.08
  1
SCALE
 41
1.0
 72
0
100
AcDbText
  0
TEXT
  5
43C
100
AcDbEntity
  8
0
100
AcDbText
 62
2
  6
CONTINUOUS
 10
12.46
 20
1.237
  7
STANDARD
 40
0.1
  1
B
 41
0.8
 72
1
 11
12.5
 21
1.237
100
AcDbText
  0
TEXT
  5
43D
100
AcDbEntity
  8
0
100
AcDbText
 62
2
  6
CONTINUOUS
 10
10.112
 20
2.556432
  7
STANDARD
 40
0.08
  1
of BANNER ENGINEERING CORP.
 41
0.85
 72
1
 11
11.03
 21
2.556432
100
AcDbText
  0
TEXT
  5
43E
100
AcDbEntity
  8
0
100
AcDbText
 62
2
  6
CONTINUOUS
 10
10.078
 20
2.676432
  7
STANDARD
 40
0.08
  1
This drawing is the property
 41
0.85
 72
1
 11
11.03
 21
2.676432
100
AcDbText
  0
TEXT
  5
43F
100
AcDbEntity
  8
0
100
AcDbText
 62
2
  6
CONTINUOUS
 10
14.19
 20
2.3134
  7
STANDARD
 40
0.1
  1
MINNEAPOLIS, MN 55440
 41
0.8
 72
1
 11
15.03
 21
2.3134
100
AcDbText
  0
TEXT
  5
440
100
AcDbEntity
  8
0
100
AcDbText
 62
2
  6
CONTINUOUS
 10
14.255
 20
1.007
  7
STANDARD
 40
0.08
  1
SHEET
 41
1.0
 72
0
100
AcDbText
  0
TEXT
  5
441
100
AcDbEntity
  8
0
100
AcDbText
 62
2
  6
CONTINUOUS
 10
15.63
 20
1.377
  7
STANDARD
 40
0.08
  1
REV.
 41
1.0
 72
0
100
AcDbText
  0
TEXT
  5
442
100
AcDbEntity
  8
0
100
AcDbText
 62
2
  6
CONTINUOUS
 10
16.03
 20
0.765443
  7
STANDARD
 40
0.07
  1
PRO/E
 41
1.0
 72
2
 11
16.38
 21
0.765443
100
AcDbText
  0
TEXT
  5
443
100
AcDbEntity
  8
0
100
AcDbText
 62
2
  6
CONTINUOUS
 10
13.7052
 20
2.631049
  7
STANDARD
 40
0.12
  1
BANNER ENGINEERING CORP.
 41
0.92
 72
1
 11
15.03
 21
2.631049
100
AcDbText
  0
TEXT
  5
444
100
AcDbEntity
  8
0
100
AcDbText
 62
2
  6
CONTINUOUS
 10
14.51
 20
2.4724
  7
STANDARD
 40
0.1
  1
P.O. BOX 9414
 41
0.8
 72
1
 11
15.03
 21
2.4724
100
AcDbText
  0
TEXT
  5
445
100
AcDbEntity
  8
0
100
AcDbText
 62
2
  6
CONTINUOUS
 10
9.445
 20
10.212
  7
STANDARD
 40
0.1
  1
4
 41
0.8
 72
1
 11
9.485
 21
10.212
100
AcDbText
  0
TEXT
  5
446
100
AcDbEntity
  8
0
100
AcDbText
 62
2
  6
CONTINUOUS
 10
11.415
 20
10.212
  7
STANDARD
 40
0.1
  1
3
 41
0.8
 72
1
 11
11.455
 21
10.212
100
AcDbText
  0
TEXT
  5
447
100
AcDbEntity
  8
0
100
AcDbText
 62
2
  6
CONTINUOUS
 10
13.385
 20
10.212
  7
STANDARD
 40
0.1
  1
2
 41
0.8
 72
1
 11
13.425
 21
10.212
100
AcDbText
  0
TEXT
  5
448
100
AcDbEntity
  8
0
100
AcDbText
 62
2
  6
CONTINUOUS
 10
15.355
 20
10.212
  7
STANDARD
 40
0.1
  1
1
 41
0.8
 72
1
 11
15.395
 21
10.212
100
AcDbText
  0
TEXT
  5
449
100
AcDbEntity
  8
0
100
AcDbText
 62
2
  6
CONTINUOUS
 10
3.535
 20
10.212
  7
STANDARD
 40
0.1
  1
7
 41
0.8
 72
1
 11
3.575
 21
10.212
100
AcDbText
  0
TEXT
  5
44A
100
AcDbEntity
  8
0
100
AcDbText
 62
2
  6
CONTINUOUS
 10
5.505
 20
10.212
  7
STANDARD
 40
0.1
  1
6
 41
0.8
 72
1
 11
5.545
 21
10.212
100
AcDbText
  0
TEXT
  5
44B
100
AcDbEntity
  8
0
100
AcDbText
 62
2
  6
CONTINUOUS
 10
7.475
 20
10.212
  7
STANDARD
 40
0.1
  1
5
 41
0.8
 72
1
 11
7.515
 21
10.212
100
AcDbText
  0
TEXT
  5
44C
100
AcDbEntity
  8
0
100
AcDbText
 62
2
  6
CONTINUOUS
 10
1.565
 20
10.212
  7
STANDARD
 40
0.1
  1
8
 41
0.8
 72
1
 11
1.605
 21
10.212
100
AcDbText
  0
TEXT
  5
44D
100
AcDbEntity
  8
0
100
AcDbText
 62
2
  6
CONTINUOUS
 10
1.565
 20
0.687
  7
STANDARD
 40
0.1
  1
8
 41
0.8
 72
1
 11
1.605
 21
0.687
100
AcDbText
  0
TEXT
  5
44E
100
AcDbEntity
  8
0
100
AcDbText
 62
2
  6
CONTINUOUS
 10
3.535
 20
0.687
  7
STANDARD
 40
0.1
  1
7
 41
0.8
 72
1
 11
3.575
 21
0.687
100
AcDbText
  0
TEXT
  5
44F
100
AcDbEntity
  8
0
100
AcDbText
 62
2
  6
CONTINUOUS
 10
5.505
 20
0.687
  7
STANDARD
 40
0.1
  1
6
 41
0.8
 72
1
 11
5.545
 21
0.687
100
AcDbText
  0
TEXT
  5
450
100
AcDbEntity
  8
0
100
AcDbText
 62
2
  6
CONTINUOUS
 10
7.475
 20
0.687
  7
STANDARD
 40
0.1
  1
5
 41
0.8
 72
1
 11
7.515
 21
0.687
100
AcDbText
  0
TEXT
  5
451
100
AcDbEntity
  8
0
100
AcDbText
 62
2
  6
CONTINUOUS
 10
9.445
 20
0.687
  7
STANDARD
 40
0.1
  1
4
 41
0.8
 72
1
 11
9.485
 21
0.687
100
AcDbText
  0
TEXT
  5
452
100
AcDbEntity
  8
0
100
AcDbText
 62
2
  6
CONTINUOUS
 10
11.415
 20
0.687
  7
STANDARD
 40
0.1
  1
3
 41
0.8
 72
1
 11
11.455
 21
0.687
100
AcDbText
  0
TEXT
  5
453
100
AcDbEntity
  8
0
100
AcDbText
 62
2
  6
CONTINUOUS
 10
13.385
 20
0.687
  7
STANDARD
 40
0.1
  1
2
 41
0.8
 72
1
 11
13.425
 21
0.687
100
AcDbText
  0
TEXT
  5
454
100
AcDbEntity
  8
0
100
AcDbText
 62
2
  6
CONTINUOUS
 10
15.355
 20
0.687
  7
STANDARD
 40
0.1
  1
1
 41
0.8
 72
1
 11
15.395
 21
0.687
100
AcDbText
  0
TEXT
  5
455
100
AcDbEntity
  8
0
100
AcDbText
 62
2
  6
CONTINUOUS
 10
0.44
 20
4.2995
  7
STANDARD
 40
0.1
  1
B
 41
0.8
 72
2
 11
0.52
 21
4.2995
100
AcDbText
  0
TEXT
  5
456
100
AcDbEntity
  8
0
100
AcDbText
 62
2
  6
CONTINUOUS
 10
0.44
 20
1.9995
  7
STANDARD
 40
0.1
  1
A
 41
0.8
 72
2
 11
0.52
 21
1.9995
100
AcDbText
  0
TEXT
  5
457
100
AcDbEntity
  8
0
100
AcDbText
 62
2
  6
CONTINUOUS
 10
0.44
 20
8.8995
  7
STANDARD
 40
0.1
  1
D
 41
0.8
 72
2
 11
0.52
 21
8.8995
100
AcDbText
  0
TEXT
  5
458
100
AcDbEntity
  8
0
100
AcDbText
 62
2
  6
CONTINUOUS
 10
0.44
 20
6.5995
  7
STANDARD
 40
0.1
  1
C
 41
0.8
 72
2
 11
0.52
 21
6.5995
100
AcDbText
  0
TEXT
  5
459
100
AcDbEntity
  8
0
100
AcDbText
 62
2
  6
CONTINUOUS
 10
16.48
 20
8.8995
  7
STANDARD
 40
0.1
  1
D
 41
0.8
 72
0
100
AcDbText
  0
TEXT
  5
45A
100
AcDbEntity
  8
0
100
AcDbText
 62
2
  6
CONTINUOUS
 10
16.48
 20
6.5995
  7
STANDARD
 40
0.1
  1
C
 41
0.8
 72
0
100
AcDbText
  0
TEXT
  5
45B
100
AcDbEntity
  8
0
100
AcDbText
 62
2
  6
CONTINUOUS
 10
16.48
 20
4.2995
  7
STANDARD
 40
0.1
  1
B
 41
0.8
 72
0
100
AcDbText
  0
TEXT
  5
45C
100
AcDbEntity
  8
0
100
AcDbText
 62
2
  6
CONTINUOUS
 10
16.48
 20
1.9995
  7
STANDARD
 40
0.1
  1
A
 41
0.8
 72
0
100
AcDbText
  0
MTEXT
  5
45D
100
AcDbEntity
  8
0
100
AcDbMText
 62
2
  6
CONTINUOUS
  7
STANDARD
 71
1
 72
1
 10
14.819264911
 20
1.0627941725
 30
0.0
 11
1.0
 21
0.0
 31
0.0
  1
1 OF 1
 40
0.1
 41
0.6
  0
TEXT
  5
45E
100
AcDbEntity
  8
0
100
AcDbText
 62
7
  6
CONTINUOUS
 10
13.8911999818
 20
1.2547321586
  7
STANDARD
 40
0.12
  1
145172
 41
1.0
 72
0
100
AcDbText
  0
TEXT
  5
45F
100
AcDbEntity
  8
0
100
AcDbText
 62
2
  6
CONTINUOUS
 10
12.644264911
 20
0.9627941725
  7
STANDARD
 40
0.1
  1
1:1
 41
1.0
 72
0
100
AcDbText
  0
MTEXT
  5
460
100
AcDbEntity
  8
0
100
AcDbMText
 62
2
  6
CONTINUOUS
  7
STANDARD
 71
1
 72
1
 10
1.0597007627
 20
1.6202922458
 30
0.0
 11
1.0
 21
0.0
 31
0.0
  1
NOTES:\P1. ALL DIMENSIONS ARE MILLIMETERS [INCHES] UNLESS OTHERWISE NOTED.
 40
0.1
 41
6.6
  0
INSERT
  5
461
100
AcDbEntity
  8
0
100
AcDbBlockReference
 62
2
  6
CONTINUOUS
  2
BANNER_LOGO_TITLEBLOCK_BL0
 10
12.9046655056
 20
2.5403783448
  0
DIMENSION
  5
462
100
AcDbEntity
  8
SCHEME_DIMS
100
AcDbDimension
 62
2
  6
CONTINUOUS
  2
*D0
 10
5.4863281223
 20
5.1258679019
 11
5.9863281223
 21
4.318722638
 70
160
 42
8.35
  3
DIMSTYLE_1
100
AcDbAlignedDimension
 13
4.2683163113
 23
4.7971277444
 14
4.5763871774
 24
5.1258679019
 50
90.0
100
AcDbRotatedDimension
  0
DIMENSION
  5
463
100
AcDbEntity
  8
SCHEME_DIMS
100
AcDbDimension
 62
2
  6
CONTINUOUS
  2
*D1
 10
6.0583586063
 20
5.8738993979
 11
6.0583586063
 21
5.3356509338
 70
160
 42
27.35
  3
DIMSTYLE_1
100
AcDbAlignedDimension
 13
4.2683163113
 23
4.7971277444
 14
4.8396402301
 24
5.8738993979
 50
90.0
100
AcDbRotatedDimension
  0
DIMENSION
  5
464
100
AcDbEntity
  8
SCHEME_DIMS
100
AcDbDimension
 62
2
  6
CONTINUOUS
  2
*D2
 10
6.5494085968
 20
9.8817734137
 11
6.5494085968
 21
7.3740235428
 70
160
 42
129.15
  3
DIMSTYLE_1
100
AcDbAlignedDimension
 13
4.2683163113
 23
4.7971277444
 14
5.0100525029
 24
9.8817734137
 50
90.0
100
AcDbRotatedDimension
  0
DIMENSION
  5
465
100
AcDbEntity
  8
SCHEME_DIMS
100
AcDbDimension
 62
2
  6
CONTINUOUS
  2
*D3
 10
4.8879029254
 20
4.2971277444
 11
4.0020761538
 21
4.2221277444
 70
160
 42
45.0
  3
DIMSTYLE_1
100
AcDbAlignedDimension
 13
3.1162493821
 23
5.9052495931
 14
4.8879029254
 24
5.8983021481
100
AcDbRotatedDimension
  0
DIMENSION
  5
466
100
AcDbEntity
  8
SCHEME_DIMS
100
AcDbDimension
 62
2
  6
CONTINUOUS
  2
*D4
 10
4.7947971993
 20
3.3710186431
 11
5.7068049052
 21
3.5133704614
 70
163
 42
50.0
  1
<>
  3
DIMSTYLE_2
100
AcDbDiametricDimension
 15
3.2093551083
 25
2.2042362615
  0
DIMENSION
  5
467
100
AcDbEntity
  8
SCHEME_DIMS
100
AcDbDimension
 62
2
  6
CONTINUOUS
  2
*D5
 10
5.4863281223
 20
7.932954516
 11
5.4863281223
 21
7.328426957
 70
160
 42
26.9
  1
2X <>
  3
DIMSTYLE_1
100
AcDbAlignedDimension
 13
5.0488281223
 23
6.8738993979
 14
5.0488281223
 24
7.932954516
 50
90.0
100
AcDbRotatedDimension
  0
LINE
  5
468
100
AcDbEntity
  8
0
100
AcDbLine
 62
2
  6
CONTINUOUS
 10
16.38
 20
0.887
 11
12.03
 21
0.887
  0
LINE
  5
469
100
AcDbEntity
  8
0
100
AcDbLine
 62
2
  6
CONTINUOUS
 10
16.38
 20
0.887
 11
16.38
 21
2.807
  0
LINE
  5
46A
100
AcDbEntity
  8
0
100
AcDbLine
 62
2
  6
CONTINUOUS
 10
16.38
 20
2.807
 11
12.03
 21
2.807
  0
LINE
  5
46B
100
AcDbEntity
  8
0
100
AcDbLine
 62
2
  6
CONTINUOUS
 10
12.03
 20
0.887
 11
12.03
 21
2.807
  0
TEXT
  5
46C
100
AcDbEntity
  8
0
100
AcDbText
 62
7
  6
CONTINUOUS
 10
16.105
 20
1.267
  7
STANDARD
 40
0.1
  1
A
 41
1.0
 72
1
 11
16.155
 21
1.267
100
AcDbText
  0
MTEXT
  5
46D
100
AcDbEntity
  8
0
100
AcDbMText
 62
7
  6
CONTINUOUS
  7
STANDARD
 71
2
 72
1
 10
14.205
 20
1.967
 30
0.0
 11
1.0
 21
0.0
 31
0.0
  1
TL50 2-STACK QD\PWEB CAD DRAWINGS 2D/3D
 40
0.1
 41
2.2
  0
TEXT
  5
46E
100
AcDbEntity
  8
NOTES
100
AcDbText
 62
2
  6
CONTINUOUS
 10
1.3177583816
 20
4.9582151229
  7
STANDARD
 40
0.1
  1
M30 X 1.5-6g
 41
1.0
 72
0
100
AcDbText
  0
LINE
  5
46F
100
AcDbEntity
  8
NOTES
100
AcDbLine
 62
2
  6
CONTINUOUS
 10
3.4602849938
 20
5.2784340542
 11
2.7677583816
 21
5.0082151229
  0
LINE
  5
470
100
AcDbEntity
  8
NOTES
100
AcDbLine
 62
2
  6
CONTINUOUS
 10
2.7677583816
 20
5.0082151229
 11
2.5177583816
 21
5.0082151229
  0
SOLID
  5
471
100
AcDbEntity
  8
NOTES
100
AcDbTrace
 62
2
  6
CONTINUOUS
 10
3.2969705829
 20
5.1811652735
 11
3.4602849938
 21
5.2784340542
 12
3.2742517573
 22
5.2393898814
 13
3.2742517573
 23
5.2393898814
  0
TEXT
  5
472
100
AcDbEntity
  8
NOTES
100
AcDbText
 62
2
  6
CONTINUOUS
 10
1.4890845115
 20
4.3714032426
  7
STANDARD
 40
0.1
  1
M12 X 1-6g
 41
1.0
 72
0
100
AcDbText
  0
LINE
  5
473
100
AcDbEntity
  8
NOTES
100
AcDbLine
 62
2
  6
CONTINUOUS
 10
3.8347246231
 20
4.8906197246
 11
2.7390845115
 21
4.4214032426
  0
LINE
  5
474
100
AcDbEntity
  8
NOTES
100
AcDbLine
 62
2
  6
CONTINUOUS
 10
2.7390845115
 20
4.4214032426
 11
2.4890845115
 21
4.4214032426
  0
SOLID
  5
475
100
AcDbEntity
  8
NOTES
100
AcDbTrace
 62
2
  6
CONTINUOUS
 10
3.6746677346
 20
4.7880789769
 11
3.8347246231
 21
4.8906197246
 12
3.6500629996
 22
4.8455320623
 13
3.6500629996
 23
4.8455320623
  0
MTEXT
  5
476
100
AcDbEntity
  8
NOTES
100
AcDbMText
 62
2
  6
CONTINUOUS
  7
STANDARD
 71
2
 72
1
 10
12.8254155377
 20
3.6849122302
 30
0.0
 11
1.0
 21
0.0
 31
0.0
  1
ISOMETRIC VIEW\P\H0.1;SCALE  1:1
 40
0.125
 41
1.75
  0
TEXT
  5
477
100
AcDbEntity
  8
NOTES
100
AcDbText
 62
2
  6
CONTINUOUS
 10
1.2855565833
 20
3.4634180124
  7
STANDARD
 40
0.1
  1
1/2-14 NPSM
 41
1.0
 72
0
100
AcDbText
  0
LINE
  5
478
100
AcDbEntity
  8
NOTES
100
AcDbLine
 62
2
  6
CONTINUOUS
 10
3.6426329973
 20
2.9106753331
 11
2.6355565833
 21
3.5134180124
  0
LINE
  5
479
100
AcDbEntity
  8
NOTES
100
AcDbLine
 62
2
  6
CONTINUOUS
 10
2.6355565833
 20
3.5134180124
 11
2.3855565833
 21
3.5134180124
  0
SOLID
  5
47A
100
AcDbEntity
  8
NOTES
100
AcDbTrace
 62
2
  6
CONTINUOUS
 10
3.4656986731
 20
2.980152361
 11
3.6426329973
 21
2.9106753331
 12
3.4977957808
 22
3.0337809512
 13
3.4977957808
 23
3.0337809512
  0
LINE
  5
47B
100
AcDbEntity
  8
0
100
AcDbLine
 62
2
  6
CONTINUOUS
 10
0.47
 20
5.586103
 11
0.47
 21
5.412897
  0
LINE
  5
47C
100
AcDbEntity
  8
0
100
AcDbLine
 62
2
  6
CONTINUOUS
 10
0.62
 20
10.112
 11
0.62
 21
0.887
  0
LINE
  5
47D
100
AcDbEntity
  8
0
100
AcDbLine
 62
2
  6
CONTINUOUS
 10
2.59
 20
0.887
 11
2.59
 21
0.637
  0
LINE
  5
47E
100
AcDbEntity
  8
0
100
AcDbLine
 62
2
  6
CONTINUOUS
 10
2.59
 20
10.112
 11
2.59
 21
10.362
  0
LINE
  5
47F
100
AcDbEntity
  8
0
100
AcDbLine
 62
2
  6
CONTINUOUS
 10
8.413397
 20
0.737
 11
8.586603
 21
0.737
  0
LINE
  5
480
100
AcDbEntity
  8
0
100
AcDbLine
 62
7
  6
CONTINUOUS
 10
11.1389508475
 20
1.425992839
 11
11.7453418475
 21
1.495385839
  0
LINE
  5
481
100
AcDbEntity
  8
0
100
AcDbLine
 62
2
  6
CONTINUOUS
 10
0.62
 20
0.887
 11
16.38
 21
0.887
  0
LINE
  5
482
100
AcDbEntity
  8
0
100
AcDbLine
 62
2
  6
CONTINUOUS
 10
12.03
 20
1.137
 11
16.38
 21
1.137
  0
LINE
  5
483
100
AcDbEntity
  8
0
100
AcDbLine
 62
7
  6
CONTINUOUS
 10
10.2121898475
 20
1.243294839
 11
10.4342808475
 21
1.243294839
  0
LINE
  5
484
100
AcDbEntity
  8
0
100
AcDbLine
 62
7
  6
CONTINUOUS
 10
10.4842808475
 20
1.243294839
 11
10.5842808475
 21
1.243294839
  0
LINE
  5
485
100
AcDbEntity
  8
0
100
AcDbLine
 62
7
  6
CONTINUOUS
 10
10.6342808475
 20
1.243294839
 11
10.8563718475
 21
1.243294839
  0
LINE
  5
486
100
AcDbEntity
  8
0
100
AcDbLine
 62
7
  6
CONTINUOUS
 10
11.0389508475
 20
1.243294839
 11
11.3171028475
 21
1.243294839
  0
LINE
  5
487
100
AcDbEntity
  8
0
100
AcDbLine
 62
7
  6
CONTINUOUS
 10
11.3671028475
 20
1.243294839
 11
11.5171888475
 21
1.243294839
  0
LINE
  5
488
100
AcDbEntity
  8
0
100
AcDbLine
 62
7
  6
CONTINUOUS
 10
11.5671888475
 20
1.243294839
 11
11.8453418475
 21
1.243294839
  0
LINE
  5
489
100
AcDbEntity
  8
0
100
AcDbLine
 62
7
  6
CONTINUOUS
 10
11.7453418475
 20
0.991203839
 11
11.1389508475
 21
1.060596839
  0
LINE
  5
48A
100
AcDbEntity
  8
0
100
AcDbLine
 62
2
  6
CONTINUOUS
 10
4.56
 20
0.887
 11
4.56
 21
0.637
  0
LINE
  5
48B
100
AcDbEntity
  8
0
100
AcDbLine
 62
2
  6
CONTINUOUS
 10
4.56
 20
10.112
 11
4.56
 21
10.362
  0
LINE
  5
48C
100
AcDbEntity
  8
0
100
AcDbLine
 62
2
  6
CONTINUOUS
 10
0.47
 20
5.412897
 11
0.62
 21
5.4995
  0
LINE
  5
48D
100
AcDbEntity
  8
0
100
AcDbLine
 62
2
  6
CONTINUOUS
 10
12.03
 20
1.507
 11
16.38
 21
1.507
  0
LINE
  5
48E
100
AcDbEntity
  8
0
100
AcDbLine
 62
2
  6
CONTINUOUS
 10
10.03
 20
1.907
 11
12.03
 21
1.907
  0
LINE
  5
48F
100
AcDbEntity
  8
0
100
AcDbLine
 62
2
  6
CONTINUOUS
 10
0.62
 20
5.4995
 11
0.47
 21
5.586103
  0
LINE
  5
490
100
AcDbEntity
  8
0
100
AcDbLine
 62
2
  6
CONTINUOUS
 10
12.03
 20
2.267
 11
16.38
 21
2.267
  0
LINE
  5
491
100
AcDbEntity
  8
0
100
AcDbLine
 62
2
  6
CONTINUOUS
 10
8.5
 20
10.112
 11
8.586603
 21
10.262
  0
LINE
  5
492
100
AcDbEntity
  8
0
100
AcDbLine
 62
2
  6
CONTINUOUS
 10
16.38
 20
2.807
 11
10.03
 21
2.807
  0
LINE
  5
493
100
AcDbEntity
  8
0
100
AcDbLine
 62
2
  6
CONTINUOUS
 10
0.62
 20
3.1995
 11
0.37
 21
3.1995
  0
LINE
  5
494
100
AcDbEntity
  8
0
100
AcDbLine
 62
2
  6
CONTINUOUS
 10
16.38
 20
3.1995
 11
16.63
 21
3.1995
  0
LINE
  5
495
100
AcDbEntity
  8
0
100
AcDbLine
 62
2
  6
CONTINUOUS
 10
8.586603
 20
0.737
 11
8.5
 21
0.887
  0
LINE
  5
496
100
AcDbEntity
  8
0
100
AcDbLine
 62
2
  6
CONTINUOUS
 10
6.53
 20
0.887
 11
6.53
 21
0.637
  0
LINE
  5
497
100
AcDbEntity
  8
0
100
AcDbLine
 62
2
  6
CONTINUOUS
 10
6.53
 20
10.112
 11
6.53
 21
10.362
  0
LINE
  5
498
100
AcDbEntity
  8
0
100
AcDbLine
 62
2
  6
CONTINUOUS
 10
8.5
 20
0.887
 11
8.5
 21
0.637
  0
LINE
  5
499
100
AcDbEntity
  8
0
100
AcDbLine
 62
2
  6
CONTINUOUS
 10
8.5
 20
10.112
 11
8.5
 21
10.362
  0
LINE
  5
49A
100
AcDbEntity
  8
0
100
AcDbLine
 62
2
  6
CONTINUOUS
 10
0.62
 20
5.4995
 11
0.37
 21
5.4995
  0
LINE
  5
49B
100
AcDbEntity
  8
0
100
AcDbLine
 62
2
  6
CONTINUOUS
 10
16.38
 20
5.4995
 11
16.63
 21
5.4995
  0
LINE
  5
49C
100
AcDbEntity
  8
0
100
AcDbLine
 62
2
  6
CONTINUOUS
 10
10.03
 20
2.807
 11
10.03
 21
0.887
  0
LINE
  5
49D
100
AcDbEntity
  8
0
100
AcDbLine
 62
2
  6
CONTINUOUS
 10
10.47
 20
0.887
 11
10.47
 21
0.637
  0
LINE
  5
49E
100
AcDbEntity
  8
0
100
AcDbLine
 62
2
  6
CONTINUOUS
 10
10.47
 20
10.112
 11
10.47
 21
10.362
  0
LINE
  5
49F
100
AcDbEntity
  8
0
100
AcDbLine
 62
7
  6
CONTINUOUS
 10
10.5342808475
 20
1.143294839
 11
10.5342808475
 21
0.921203839
  0
LINE
  5
4A0
100
AcDbEntity
  8
0
100
AcDbLine
 62
7
  6
CONTINUOUS
 10
10.5342808475
 20
1.193294839
 11
10.5342808475
 21
1.293294839
  0
LINE
  5
4A1
100
AcDbEntity
  8
0
100
AcDbLine
 62
7
  6
CONTINUOUS
 10
10.5342808475
 20
1.343294839
 11
10.5342808475
 21
1.565385839
  0
LINE
  5
4A2
100
AcDbEntity
  8
0
100
AcDbLine
 62
2
  6
CONTINUOUS
 10
8.5
 20
0.887
 11
8.413397
 21
0.737
  0
LINE
  5
4A3
100
AcDbEntity
  8
0
100
AcDbLine
 62
2
  6
CONTINUOUS
 10
0.62
 20
7.7995
 11
0.37
 21
7.7995
  0
LINE
  5
4A4
100
AcDbEntity
  8
0
100
AcDbLine
 62
2
  6
CONTINUOUS
 10
16.38
 20
7.7995
 11
16.63
 21
7.7995
  0
LINE
  5
4A5
100
AcDbEntity
  8
0
100
AcDbLine
 62
2
  6
CONTINUOUS
 10
8.413397
 20
10.262
 11
8.5
 21
10.112
  0
LINE
  5
4A6
100
AcDbEntity
  8
0
100
AcDbLine
 62
7
  6
CONTINUOUS
 10
11.1389508475
 20
1.060596839
 11
11.1389508475
 21
1.425992839
  0
LINE
  5
4A7
100
AcDbEntity
  8
0
100
AcDbLine
 62
7
  6
CONTINUOUS
 10
11.7453418475
 20
1.495385839
 11
11.7453418475
 21
0.991203839
  0
LINE
  5
4A8
100
AcDbEntity
  8
0
100
AcDbLine
 62
1
  6
CONTINUOUS
 10
12.03
 20
2.807
 11
12.03
 21
0.887
  0
LINE
  5
4A9
100
AcDbEntity
  8
0
100
AcDbLine
 62
2
  6
CONTINUOUS
 10
12.44
 20
0.887
 11
12.44
 21
0.637
  0
LINE
  5
4AA
100
AcDbEntity
  8
0
100
AcDbLine
 62
2
  6
CONTINUOUS
 10
12.44
 20
10.112
 11
12.44
 21
10.362
  0
LINE
  5
4AB
100
AcDbEntity
  8
0
100
AcDbLine
 62
2
  6
CONTINUOUS
 10
16.53
 20
5.586103
 11
16.38
 21
5.4995
  0
LINE
  5
4AC
100
AcDbEntity
  8
0
100
AcDbLine
 62
2
  6
CONTINUOUS
 10
16.38
 20
5.4995
 11
16.53
 21
5.412897
  0
LINE
  5
4AD
100
AcDbEntity
  8
0
100
AcDbLine
 62
2
  6
CONTINUOUS
 10
12.83
 20
1.507
 11
12.83
 21
1.137
  0
LINE
  5
4AE
100
AcDbEntity
  8
0
100
AcDbLine
 62
2
  6
CONTINUOUS
 10
16.38
 20
10.112
 11
0.62
 21
10.112
  0
LINE
  5
4AF
100
AcDbEntity
  8
0
100
AcDbLine
 62
2
  6
CONTINUOUS
 10
8.586603
 20
10.262
 11
8.413397
 21
10.262
  0
LINE
  5
4B0
100
AcDbEntity
  8
0
100
AcDbLine
 62
2
  6
CONTINUOUS
 10
14.205
 20
1.137
 11
14.205
 21
0.887
  0
LINE
  5
4B1
100
AcDbEntity
  8
0
100
AcDbLine
 62
2
  6
CONTINUOUS
 10
14.41
 20
0.887
 11
14.41
 21
0.637
  0
LINE
  5
4B2
100
AcDbEntity
  8
0
100
AcDbLine
 62
2
  6
CONTINUOUS
 10
14.41
 20
10.112
 11
14.41
 21
10.362
  0
LINE
  5
4B3
100
AcDbEntity
  8
0
100
AcDbLine
 62
2
  6
CONTINUOUS
 10
15.58
 20
1.507
 11
15.58
 21
1.137
  0
LINE
  5
4B4
100
AcDbEntity
  8
0
100
AcDbLine
 62
2
  6
CONTINUOUS
 10
16.38
 20
0.887
 11
16.38
 21
10.112
  0
LINE
  5
4B5
100
AcDbEntity
  8
0
100
AcDbLine
 62
2
  6
CONTINUOUS
 10
16.53
 20
5.412897
 11
16.53
 21
5.586103
  0
LINE
  5
4B6
100
AcDbEntity
  8
0
100
AcDbLine
 62
7
  6
CONTINUOUS
 10
3.7983359963
 20
4.7971277444
 11
4.2058163113
 21
4.7971277444
  0
LWPOLYLINE
  5
4B7
100
AcDbEntity
  8
0
100
AcDbPolyline
 62
7
  6
CONTINUOUS
 90
4
 70
0
 10
4.2380959551
 20
4.9464757487
 10
4.2334078677
 20
4.9454570351
 10
4.2228217714
 20
4.9444534084
 10
4.2066490838
 20
4.9434532037
  0
LWPOLYLINE
  5
4B8
100
AcDbEntity
  8
0
100
AcDbPolyline
 62
7
  6
CONTINUOUS
 90
8
 70
0
 10
4.2353787414
 20
4.8670080045
 10
4.226798931
 20
4.8660308625
 10
4.212635565
 20
4.8650461256
 10
4.1930078007
 20
4.8640489998
 10
4.1685513009
 20
4.8630517306
 10
4.1402680696
 20
4.8620669252
 10
4.1087558129
 20
4.8610873969
 10
4.0746078755
 20
4.8601069217
  0
LWPOLYLINE
  5
4B9
100
AcDbEntity
  8
0
100
AcDbPolyline
 62
7
  6
CONTINUOUS
 90
8
 70
0
 10
3.7687907645
 20
4.9260692891
 10
3.7774362165
 20
4.9270506416
 10
3.7914275708
 20
4.9280230382
 10
3.8107210997
 20
4.9290062719
 10
3.8348312895
 20
4.9299938111
 10
3.8628423303
 20
4.9309733167
 10
3.8942911924
 20
4.9319540847
 10
3.9288190458
 20
4.932947236
  0
LWPOLYLINE
  5
4BA
100
AcDbEntity
  8
0
100
AcDbPolyline
 62
7
  6
CONTINUOUS
 90
8
 70
0
 10
4.2353137427
 20
4.90636714
 10
4.2266718704
 20
4.9053900343
 10
4.2125332243
 20
4.904410221
 10
4.1929892796
 20
4.9034182442
 10
4.1686669583
 20
4.9024261351
 10
4.1405544353
 20
4.901446375
 10
4.1091072581
 20
4.9004679286
 10
4.0747206053
 20
4.8994801427
  0
LWPOLYLINE
  5
4BB
100
AcDbEntity
  8
0
100
AcDbPolyline
 62
7
  6
CONTINUOUS
 90
8
 70
0
 10
3.7688329933
 20
4.8867063131
 10
3.777537387
 20
4.8876892219
 10
3.7916530141
 20
4.8886661467
 10
3.8108730331
 20
4.8896430614
 10
3.8347246231
 20
4.8906197246
 10
3.8626370779
 20
4.8915964957
 10
3.8941164299
 20
4.8925787951
 10
3.9286937948
 20
4.8935736623
  0
LWPOLYLINE
  5
4BC
100
AcDbEntity
  8
0
100
AcDbPolyline
 62
7
  6
CONTINUOUS
 90
8
 70
0
 10
4.2353077283
 20
4.9851062909
 10
4.2266041048
 20
4.9841243985
 10
4.2124619318
 20
4.983146217
 10
4.1931059426
 20
4.9821636595
 10
4.1692430207
 20
4.9811878826
 10
4.1414008381
 20
4.9802142899
 10
4.1099391859
 20
4.9792328655
 10
4.0753872383
 20
4.9782388927
  0
LWPOLYLINE
  5
4BD
100
AcDbEntity
  8
0
100
AcDbPolyline
 62
7
  6
CONTINUOUS
 90
3
 70
0
 10
4.2122501281
 20
4.8384663271
 10
4.2186470796
 20
4.8391295194
 10
4.219577012
 20
4.8394316821
  0
LWPOLYLINE
  5
4BE
100
AcDbEntity
  8
0
100
AcDbPolyline
 62
7
  6
CONTINUOUS
 90
4
 70
0
 10
4.1785979027
 20
4.9621539911
 10
4.193253088
 20
4.9632154393
 10
4.2024353233
 20
4.9642768875
 10
4.2056175934
 20
4.9651015156
  0
LWPOLYLINE
  5
4BF
100
AcDbEntity
  8
0
100
AcDbPolyline
 62
7
  6
CONTINUOUS
 90
9
 70
0
 10
4.0750695637
 20
4.8581512903
 10
4.0070807276
 20
4.8538139291
 10
3.973379887
 20
4.8516370109
 10
3.9408539238
 20
4.8494549418
 10
3.9101989191
 20
4.8472677258
 10
3.8820644586
 20
4.8450753468
 10
3.8570389285
 20
4.8428777325
 10
3.8356368871
 20
4.8406747537
 10
3.818288951
 20
4.8384663271
  0
LWPOLYLINE
  5
4C0
100
AcDbEntity
  8
0
100
AcDbPolyline
 62
7
  6
CONTINUOUS
 90
4
 70
0
 10
4.2066490838
 20
4.9808547785
 10
4.2228217714
 20
4.9818549832
 10
4.2334078677
 20
4.9828586099
 10
4.2380477071
 20
4.9838479382
  0
LWPOLYLINE
  5
4C1
100
AcDbEntity
  8
0
100
AcDbPolyline
 62
7
  6
CONTINUOUS
 90
6
 70
0
 10
4.2066490838
 20
4.9434532037
 10
4.1869026035
 20
4.9425218593
 10
4.1629623295
 20
4.9415862387
 10
4.1356198273
 20
4.9406563478
 10
4.1051133405
 20
4.9397197269
 10
4.0719404914
 20
4.9387728732
  0
LWPOLYLINE
  5
4C2
100
AcDbEntity
  8
0
100
AcDbPolyline
 62
7
  6
CONTINUOUS
 90
9
 70
0
 10
4.0593981885
 20
4.8786383889
 10
4.0914292388
 20
4.8796955484
 10
4.1209228983
 20
4.8807527079
 10
4.1470416253
 20
4.8818098675
 10
4.1690437172
 20
4.882867027
 10
4.1863043729
 20
4.8839241865
 10
4.1983334355
 20
4.884981346
 10
4.2047893116
 20
4.8860385055
 10
4.2056175934
 20
4.8863613581
  0
LWPOLYLINE
  5
4C3
100
AcDbEntity
  8
0
100
AcDbPolyline
 62
7
  6
CONTINUOUS
 90
9
 70
0
 10
4.0513870353
 20
4.9177532912
 10
4.0838964758
 20
4.9188104507
 10
4.1140824361
 20
4.9198676102
 10
4.1410877148
 20
4.9209247698
 10
4.1641454337
 20
4.9219819293
 10
4.1826008147
 20
4.9230390888
 10
4.1959297738
 20
4.9240962483
 10
4.203753804
 20
4.9251534078
 10
4.2056175934
 20
4.9257314369
  0
LWPOLYLINE
  5
4C4
100
AcDbEntity
  8
0
100
AcDbPolyline
 62
7
  6
CONTINUOUS
 90
6
 70
0
 10
4.0432941127
 20
4.9568681935
 10
4.0762280349
 20
4.957925353
 10
4.1070562402
 20
4.9589825125
 10
4.1349032894
 20
4.9600396721
 10
4.1589784
 20
4.9610968316
 10
4.1785979027
 20
4.9621539911
  0
LWPOLYLINE
  5
4C5
100
AcDbEntity
  8
0
100
AcDbPolyline
 62
7
  6
CONTINUOUS
 90
9
 70
0
 10
4.0395297736
 20
4.9961203336
 10
4.0727723368
 20
4.9971817818
 10
4.103991033
 20
4.99824323
 10
4.1322921439
 20
4.9993046782
 10
4.1568654746
 20
5.0003661264
 10
4.1770075478
 20
5.0014275746
 10
4.1921417431
 20
5.0024890228
 10
4.2018348037
 20
5.003550471
 10
4.2056175934
 20
5.0044715944
  0
LWPOLYLINE
  5
4C6
100
AcDbEntity
  8
0
100
AcDbPolyline
 62
7
  6
CONTINUOUS
 90
9
 70
0
 10
4.033962153
 20
4.8384663271
 10
4.0673142878
 20
4.8395234866
 10
4.0988138325
 20
4.8405806461
 10
4.1275662836
 20
4.8416378056
 10
4.1527551477
 20
4.8426949652
 10
4.1736651277
 20
4.8437521247
 10
4.1897024358
 20
4.8448092842
 10
4.2004116548
 20
4.8458664437
 10
4.2056175934
 20
4.8469912794
  0
LINE
  5
4C7
100
AcDbEntity
  8
0
100
AcDbLine
 62
7
  6
CONTINUOUS
 10
3.9573806448
 20
4.8754669103
 11
4.0593981885
 21
4.8786383889
  0
LINE
  5
4C8
100
AcDbEntity
  8
0
100
AcDbLine
 62
7
  6
CONTINUOUS
 10
3.9493211303
 20
4.9145818126
 11
4.0513870353
 21
4.9177532912
  0
LINE
  5
4C9
100
AcDbEntity
  8
0
100
AcDbLine
 62
7
  6
CONTINUOUS
 10
3.9413490965
 20
4.9536967149
 11
4.0432941127
 21
4.9568681935
  0
LWPOLYLINE
  5
4CA
100
AcDbEntity
  8
0
100
AcDbPolyline
 62
7
  6
CONTINUOUS
 90
9
 70
0
 10
3.9288190458
 20
4.8955456612
 10
3.8942911924
 20
4.8945525099
 10
3.8628423303
 20
4.8935717419
 10
3.8348312895
 20
4.8925922363
 10
3.8107210997
 20
4.8916046971
 10
3.7914275708
 20
4.8906214634
 10
3.7774362165
 20
4.8896490668
 10
3.7687907645
 20
4.8886677143
 10
3.7661046004
 20
4.8879666056
  0
LWPOLYLINE
  5
4CB
100
AcDbEntity
  8
0
100
AcDbPolyline
 62
7
  6
CONTINUOUS
 90
9
 70
0
 10
4.0750695637
 20
4.8581512903
 10
4.1092834481
 20
4.8591345897
 10
4.1406023658
 20
4.8601093618
 10
4.1688308657
 20
4.8610936879
 10
4.1932243449
 20
4.8620902617
 10
4.2127882964
 20
4.863086572
 10
4.2268922976
 20
4.8640704107
 10
4.2354471226
 20
4.8650511448
 10
4.2380477071
 20
4.865737702
  0
LWPOLYLINE
  5
4CC
100
AcDbEntity
  8
0
100
AcDbPolyline
 62
7
  6
CONTINUOUS
 90
9
 70
0
 10
4.0746078755
 20
4.8975084965
 10
4.1087558129
 20
4.8984889717
 10
4.1402680696
 20
4.8994685
 10
4.1685513009
 20
4.9004533054
 10
4.1930078007
 20
4.9014505746
 10
4.212635565
 20
4.9024477004
 10
4.226798931
 20
4.9034324373
 10
4.2353787414
 20
4.9044095793
 10
4.2380477071
 20
4.9051077807
  0
LWPOLYLINE
  5
4CD
100
AcDbEntity
  8
0
100
AcDbPolyline
 62
7
  6
CONTINUOUS
 90
9
 70
0
 10
4.0747206053
 20
4.9368817175
 10
4.1091072581
 20
4.9378695034
 10
4.1405544353
 20
4.9388479498
 10
4.1686669583
 20
4.9398277099
 10
4.1929892796
 20
4.940819819
 10
4.2125332243
 20
4.9418117958
 10
4.2266718704
 20
4.9427916091
 10
4.2353137427
 20
4.9437687148
 10
4.2380477071
 20
4.9444778595
  0
LWPOLYLINE
  5
4CE
100
AcDbEntity
  8
0
100
AcDbPolyline
 62
7
  6
CONTINUOUS
 90
9
 70
0
 10
3.9296569051
 20
4.9349391033
 10
3.8953481266
 20
4.9339540554
 10
3.8638483116
 20
4.9329747901
 10
3.835640014
 20
4.931992618
 10
3.8112358436
 20
4.9309980035
 10
3.7916326379
 20
4.9300035397
 10
3.7774618349
 20
4.9290213416
 10
3.768852765
 20
4.928048204
 10
3.7661046004
 20
4.9273366844
  0
LWPOLYLINE
  5
4CF
100
AcDbEntity
  8
0
100
AcDbPolyline
 62
7
  6
CONTINUOUS
 90
9
 70
0
 10
3.929215087
 20
4.9742968657
 10
3.8951860623
 20
4.9733193144
 10
3.8637482644
 20
4.9723415956
 10
3.8354666567
 20
4.9713562133
 10
3.8110225677
 20
4.9703584726
 10
3.7914170279
 20
4.9693610029
 10
3.7772825359
 20
4.9683760001
 10
3.7687220146
 20
4.967396199
 10
3.7661046004
 20
4.9667067631
  0
LWPOLYLINE
  5
4D0
100
AcDbEntity
  8
0
100
AcDbPolyline
 62
7
  6
CONTINUOUS
 90
6
 70
0
 10
4.0719404914
 20
4.976174448
 10
4.1051133405
 20
4.9771213017
 10
4.1356198273
 20
4.9780579226
 10
4.1629623295
 20
4.9789878135
 10
4.1869026035
 20
4.9799234341
 10
4.2066490838
 20
4.9808547785
  0
LINE
  5
4D1
100
AcDbEntity
  8
0
100
AcDbLine
 62
7
  6
CONTINUOUS
 10
4.0746078755
 20
4.8601069217
 11
4.0020761538
 21
4.8581513664
  0
LINE
  5
4D2
100
AcDbEntity
  8
0
100
AcDbLine
 62
7
  6
CONTINUOUS
 10
3.9286937948
 20
4.8935736623
 11
4.0746078755
 21
4.8975084965
  0
LINE
  5
4D3
100
AcDbEntity
  8
0
100
AcDbLine
 62
7
  6
CONTINUOUS
 10
4.0747206053
 20
4.8994801427
 11
3.9288190458
 21
4.8955456612
  0
LINE
  5
4D4
100
AcDbEntity
  8
0
100
AcDbLine
 62
7
  6
CONTINUOUS
 10
3.9288190458
 20
4.932947236
 11
4.0747206053
 21
4.9368817175
  0
LINE
  5
4D5
100
AcDbEntity
  8
0
100
AcDbLine
 62
7
  6
CONTINUOUS
 10
4.0719404914
 20
4.9387728732
 11
3.9296569051
 21
4.9349391033
  0
LINE
  5
4D6
100
AcDbEntity
  8
0
100
AcDbLine
 62
7
  6
CONTINUOUS
 10
3.9296569051
 20
4.9723406781
 11
4.0719404914
 21
4.976174448
  0
LINE
  5
4D7
100
AcDbEntity
  8
0
100
AcDbLine
 62
7
  6
CONTINUOUS
 10
4.0753872383
 20
4.9782388927
 11
3.929215087
 21
4.9742968657
  0
LINE
  5
4D8
100
AcDbEntity
  8
0
100
AcDbLine
 62
7
  6
CONTINUOUS
 10
3.9265988132
 20
4.8568519936
 11
4.0020755471
 21
4.8581513284
  0
LINE
  5
4D9
100
AcDbEntity
  8
0
100
AcDbLine
 62
7
  6
CONTINUOUS
 10
3.7983359963
 20
4.8364978231
 11
4.2058163113
 21
4.8364978231
  0
LINE
  5
4DA
100
AcDbEntity
  8
0
100
AcDbLine
 62
7
  6
CONTINUOUS
 10
4.2186079807
 20
4.8384663271
 11
3.7855440069
 21
4.8384663271
  0
LINE
  5
4DB
100
AcDbEntity
  8
0
100
AcDbLine
 62
7
  6
CONTINUOUS
 10
4.0020761538
 20
4.8581513664
 11
4.0750695637
 21
4.8581512903
  0
LWPOLYLINE
  5
4DC
100
AcDbEntity
  8
0
100
AcDbPolyline
 62
7
  6
CONTINUOUS
 90
9
 70
0
 10
3.7985347142
 20
4.8673429496
 10
3.8011405077
 20
4.8680667937
 10
3.8097406598
 20
4.8691239532
 10
3.8238026301
 20
4.8701811127
 10
3.8429270959
 20
4.8712382722
 10
3.866570973
 20
4.8722954318
 10
3.8940628381
 20
4.8733525913
 10
3.9246219951
 20
4.8744097508
 10
3.9573806448
 20
4.8754669103
  0
LWPOLYLINE
  5
4DD
100
AcDbEntity
  8
0
100
AcDbPolyline
 62
7
  6
CONTINUOUS
 90
9
 70
0
 10
3.7985347142
 20
5.0641933433
 10
3.8023175039
 20
5.0651144666
 10
3.8120105644
 20
5.0661759148
 10
3.8271447597
 20
5.067237363
 10
3.847286833
 20
5.0682988112
 10
3.8718601637
 20
5.0693602594
 10
3.9001612745
 20
5.0704217076
 10
3.9313799708
 20
5.0714831558
 10
3.9646225339
 20
5.072544604
  0
LWPOLYLINE
  5
4DE
100
AcDbEntity
  8
0
100
AcDbPolyline
 62
7
  6
CONTINUOUS
 90
9
 70
0
 10
3.7985347142
 20
5.0248232645
 10
3.8029653971
 20
5.0258408832
 10
3.8131669841
 20
5.0269023314
 10
3.8287766003
 20
5.0279637796
 10
3.8493473787
 20
5.0290252278
 10
3.8742904258
 20
5.030086676
 10
3.9028916804
 20
5.0311481242
 10
3.9343323553
 20
5.0322095724
 10
3.9677123771
 20
5.0332710206
  0
LWPOLYLINE
  5
4DF
100
AcDbEntity
  8
0
100
AcDbPolyline
 62
7
  6
CONTINUOUS
 90
10
 70
0
 10
3.7985347142
 20
4.9854531858
 10
3.8036605102
 20
4.9865672997
 10
3.8143682044
 20
4.9876287479
 10
3.8304495396
 20
4.9886901961
 10
3.8514441446
 20
4.9897516443
 10
3.8767509929
 20
4.9908130925
 10
3.9056456083
 20
4.9918745407
 10
3.9373008055
 20
4.9929359889
 10
3.9708103698
 20
4.9939974371
 10
4.0395297736
 20
4.9961203336
  0
LWPOLYLINE
  5
4E0
100
AcDbEntity
  8
0
100
AcDbPolyline
 62
7
  6
CONTINUOUS
 90
8
 70
0
 10
4.2354551482
 20
5.0245013394
 10
4.2269208651
 20
5.0235216997
 10
4.2128913336
 20
5.0225414434
 10
4.1934384431
 20
5.0215487568
 10
4.1691825014
 20
5.0205556897
 10
4.1411074089
 20
5.0195747356
 10
4.1097123296
 20
5.0185961822
 10
4.0752436939
 20
5.0176049664
  0
LWPOLYLINE
  5
4E1
100
AcDbEntity
  8
0
100
AcDbPolyline
 62
7
  6
CONTINUOUS
 90
8
 70
0
 10
3.7686962826
 20
5.0441634478
 10
3.7772309611
 20
5.0451431962
 10
3.7912630204
 20
5.0461236145
 10
3.8107201092
 20
5.0471164633
 10
3.8349831463
 20
5.0481097486
 10
3.863067094
 20
5.0490909302
 10
3.8944502081
 20
5.0500690602
 10
3.9289070189
 20
5.0510599267
  0
LWPOLYLINE
  5
4E2
100
AcDbEntity
  8
0
100
AcDbPolyline
 62
7
  6
CONTINUOUS
 90
8
 70
0
 10
3.7687220146
 20
5.0047977738
 10
3.7772825359
 20
5.0057775749
 10
3.7914170279
 20
5.0067625777
 10
3.8110225677
 20
5.0077600474
 10
3.8354666567
 20
5.0087577882
 10
3.8637482644
 20
5.0097431704
 10
3.8951860623
 20
5.0107208892
 10
3.929215087
 20
5.0116984405
  0
LWPOLYLINE
  5
4E3
100
AcDbEntity
  8
0
100
AcDbPolyline
 62
7
  6
CONTINUOUS
 90
8
 70
0
 10
4.235431968
 20
5.06386745
 10
4.2268720883
 20
5.0628875627
 10
4.2127385014
 20
5.0619025488
 10
4.1931338433
 20
5.0609050753
 10
4.1686920223
 20
5.0599073879
 10
4.1404134698
 20
5.0589220757
 10
4.1089816531
 20
5.0579445067
 10
4.0749496645
 20
5.0569668441
  0
LWPOLYLINE
  5
4E4
100
AcDbEntity
  8
0
100
AcDbPolyline
 62
7
  6
CONTINUOUS
 90
8
 70
0
 10
3.768852765
 20
4.9654497788
 10
3.7774618349
 20
4.9664229164
 10
3.7916326379
 20
4.9674051145
 10
3.8112358436
 20
4.9683995783
 10
3.835640014
 20
4.9693941928
 10
3.8638483116
 20
4.9703763649
 10
3.8953481266
 20
4.9713556302
 10
3.9296569051
 20
4.9723406781
  0
LWPOLYLINE
  5
4E5
100
AcDbEntity
  8
0
100
AcDbPolyline
 62
7
  6
CONTINUOUS
 90
8
 70
0
 10
4.2353022678
 20
5.1032156141
 10
4.2266953464
 20
5.1022424388
 10
4.2125234013
 20
5.101260041
 10
4.192917143
 20
5.1002653899
 10
4.1685096603
 20
5.0992706463
 10
4.1402974901
 20
5.0982883599
 10
4.1087948532
 20
5.0973090301
 10
4.0744902014
 20
5.0963241145
  0
LWPOLYLINE
  5
4E6
100
AcDbEntity
  8
0
100
AcDbPolyline
 62
7
  6
CONTINUOUS
 90
3
 70
0
 10
3.7774303401
 20
5.1258679019
 10
3.7688306113
 20
5.1248948901
 10
3.7661046004
 20
5.1241870781
  0
LWPOLYLINE
  5
4E7
100
AcDbEntity
  8
0
100
AcDbPolyline
 62
7
  6
CONTINUOUS
 90
8
 70
0
 10
3.7688445728
 20
5.0835586456
 10
3.7775477959
 20
5.0845405044
 10
3.7916902233
 20
5.0855187117
 10
3.8110511704
 20
5.0865014948
 10
3.8349216536
 20
5.0874775193
 10
3.8627601489
 20
5.0884509328
 10
3.894218703
 20
5.0894322385
 10
3.9287671919
 20
5.0904261042
  0
LWPOLYLINE
  5
4E8
100
AcDbEntity
  8
0
100
AcDbPolyline
 62
7
  6
CONTINUOUS
 90
4
 70
0
 10
3.7975032238
 20
5.0878101591
 10
3.7813283197
 20
5.0868097893
 10
3.7707428753
 20
5.0858061227
 10
3.7661046004
 20
5.0848169993
  0
LWPOLYLINE
  5
4E9
100
AcDbEntity
  8
0
100
AcDbPolyline
 62
7
  6
CONTINUOUS
 90
6
 70
0
 10
3.8255544049
 20
5.1065109465
 10
3.8452629963
 20
5.1075723947
 10
3.8694607828
 20
5.1086338429
 10
3.8974550382
 20
5.1096952911
 10
3.9284443522
 20
5.1107567393
 10
3.961541573
 20
5.1118181875
  0
LINE
  5
4EA
100
AcDbEntity
  8
0
100
AcDbLine
 62
7
  6
CONTINUOUS
 10
3.7975032238
 20
5.1252117339
 11
3.8114150321
 21
5.1258679019
  0
LWPOLYLINE
  5
4EB
100
AcDbEntity
  8
0
100
AcDbPolyline
 62
7
  6
CONTINUOUS
 90
9
 70
0
 10
4.0638676901
 20
5.1150025321
 10
4.0957299024
 20
5.1160639803
 10
4.1249110262
 20
5.1171254285
 10
4.150575674
 20
5.1181868767
 10
4.1719891267
 20
5.1192483249
 10
4.1885383671
 20
5.1203097731
 10
4.1997496291
 20
5.1213712213
 10
4.2053019603
 20
5.1224326695
 10
4.2056175934
 20
5.1225818306
  0
LWPOLYLINE
  5
4EC
100
AcDbEntity
  8
0
100
AcDbPolyline
 62
7
  6
CONTINUOUS
 90
10
 70
0
 10
3.9677123771
 20
5.0332710206
 10
4.0364399304
 20
5.035393917
 10
4.0698199523
 20
5.0364553652
 10
4.1012606271
 20
5.0375168134
 10
4.1298618817
 20
5.0385782616
 10
4.1548049289
 20
5.0396397098
 10
4.1753757072
 20
5.040701158
 10
4.1909853234
 20
5.0417626062
 10
4.2011869105
 20
5.0428240544
 10
4.2056175934
 20
5.0438416731
  0
LWPOLYLINE
  5
4ED
100
AcDbEntity
  8
0
100
AcDbPolyline
 62
7
  6
CONTINUOUS
 90
10
 70
0
 10
3.9646225339
 20
5.072544604
 10
4.0333419378
 20
5.0746675004
 10
4.0668515021
 20
5.0757289486
 10
4.0985066992
 20
5.0767903969
 10
4.1274013147
 20
5.0778518451
 10
4.1527081629
 20
5.0789132933
 10
4.1737027679
 20
5.0799747415
 10
4.1897841031
 20
5.0810361897
 10
4.2004917973
 20
5.0820976379
 10
4.2056175934
 20
5.0832117518
  0
LINE
  5
4EE
100
AcDbEntity
  8
0
100
AcDbLine
 62
7
  6
CONTINUOUS
 10
3.961541573
 20
5.1118181875
 11
4.0638676901
 21
5.1150025321
  0
LWPOLYLINE
  5
4EF
100
AcDbEntity
  8
0
100
AcDbPolyline
 62
7
  6
CONTINUOUS
 90
9
 70
0
 10
4.0753872383
 20
5.0156404675
 10
4.1099391859
 20
5.0166344403
 10
4.1414008381
 20
5.0176158647
 10
4.1692430207
 20
5.0185894574
 10
4.1931059426
 20
5.0195652343
 10
4.2124619318
 20
5.0205477918
 10
4.2266041048
 20
5.0215259733
 10
4.2353077283
 20
5.0225078657
 10
4.2380477071
 20
5.023218017
  0
LWPOLYLINE
  5
4F0
100
AcDbEntity
  8
0
100
AcDbPolyline
 62
7
  6
CONTINUOUS
 90
9
 70
0
 10
3.9287671919
 20
5.0530245293
 10
3.894218703
 20
5.0520306637
 10
3.8627601489
 20
5.051049358
 10
3.8349216536
 20
5.0500759445
 10
3.8110511704
 20
5.04909992
 10
3.7916902233
 20
5.0481171369
 10
3.7775477959
 20
5.0471389296
 10
3.7688445728
 20
5.0461570708
 10
3.7661046004
 20
5.0454469206
  0
LWPOLYLINE
  5
4F1
100
AcDbEntity
  8
0
100
AcDbPolyline
 62
7
  6
CONTINUOUS
 90
9
 70
0
 10
3.9289070189
 20
5.0136583519
 10
3.8944502081
 20
5.0126674854
 10
3.863067094
 20
5.0116893554
 10
3.8349831463
 20
5.0107081738
 10
3.8107201092
 20
5.0097148885
 10
3.7912630204
 20
5.0087220397
 10
3.7772309611
 20
5.0077416214
 10
3.7686962826
 20
5.006761873
 10
3.7661046004
 20
5.0060768419
  0
LWPOLYLINE
  5
4F2
100
AcDbEntity
  8
0
100
AcDbPolyline
 62
7
  6
CONTINUOUS
 90
9
 70
0
 10
4.0752436939
 20
5.0550065412
 10
4.1097123296
 20
5.055997757
 10
4.1411074089
 20
5.0569763105
 10
4.1691825014
 20
5.0579572645
 10
4.1934384431
 20
5.0589503316
 10
4.2128913336
 20
5.0599430182
 10
4.2269208651
 20
5.0609232745
 10
4.2354551482
 20
5.0619029142
 10
4.2380477071
 20
5.0625880957
  0
LWPOLYLINE
  5
4F3
100
AcDbEntity
  8
0
100
AcDbPolyline
 62
7
  6
CONTINUOUS
 90
9
 70
0
 10
4.0749496645
 20
5.0943684189
 10
4.1089816531
 20
5.0953460815
 10
4.1404134698
 20
5.0963236505
 10
4.1686920223
 20
5.0973089627
 10
4.1931338433
 20
5.0983066501
 10
4.2127385014
 20
5.0993041236
 10
4.2268720883
 20
5.1002891375
 10
4.235431968
 20
5.1012690248
 10
4.2380477071
 20
5.1019581744
  0
LWPOLYLINE
  5
4F4
100
AcDbEntity
  8
0
100
AcDbPolyline
 62
7
  6
CONTINUOUS
 90
6
 70
0
 10
3.9322026585
 20
5.0924902353
 10
3.8990285679
 20
5.0915433294
 10
3.8685175563
 20
5.0906065351
 10
3.8411805149
 20
5.0896767812
 10
3.8172446181
 20
5.0887412868
 10
3.7975032238
 20
5.0878101591
  0
LINE
  5
4F5
100
AcDbEntity
  8
0
100
AcDbLine
 62
7
  6
CONTINUOUS
 10
3.929215087
 20
5.0116984405
 11
4.0753872383
 21
5.0156404675
  0
LINE
  5
4F6
100
AcDbEntity
  8
0
100
AcDbLine
 62
7
  6
CONTINUOUS
 10
4.0752436939
 20
5.0176049664
 11
3.9289070189
 21
5.0136583519
  0
LINE
  5
4F7
100
AcDbEntity
  8
0
100
AcDbLine
 62
7
  6
CONTINUOUS
 10
3.9289070189
 20
5.0510599267
 11
4.0752436939
 21
5.0550065412
  0
LINE
  5
4F8
100
AcDbEntity
  8
0
100
AcDbLine
 62
7
  6
CONTINUOUS
 10
4.0749496645
 20
5.0569668441
 11
3.9287671919
 21
5.0530245293
  0
LINE
  5
4F9
100
AcDbEntity
  8
0
100
AcDbLine
 62
7
  6
CONTINUOUS
 10
3.9287671919
 20
5.0904261042
 11
4.0749496645
 21
5.0943684189
  0
LINE
  5
4FA
100
AcDbEntity
  8
0
100
AcDbLine
 62
7
  6
CONTINUOUS
 10
4.0744902014
 20
5.0963241145
 11
3.9322026585
 21
5.0924902353
  0
LINE
  5
4FB
100
AcDbEntity
  8
0
100
AcDbLine
 62
7
  6
CONTINUOUS
 10
4.5138871774
 20
5.1258679019
 11
3.4902651302
 21
5.1258679019
  0
LINE
  5
4FC
100
AcDbEntity
  8
0
100
AcDbLine
 62
9
  6
CONTINUOUS
 10
3.4508950514
 20
5.1652379806
 11
4.5532572561
 21
5.1652379806
  0
LINE
  5
4FD
100
AcDbEntity
  8
0
100
AcDbLine
 62
7
  6
CONTINUOUS
 10
3.7661046005
 20
4.8854227414
 11
3.7979581751
 21
4.8670096343
  0
LINE
  5
4FE
100
AcDbEntity
  8
0
100
AcDbLine
 62
7
  6
CONTINUOUS
 10
3.7661046005
 20
4.9247928201
 11
3.7979581751
 21
4.9063797131
  0
LINE
  5
4FF
100
AcDbEntity
  8
0
100
AcDbLine
 62
7
  6
CONTINUOUS
 10
3.7661046005
 20
4.9641628988
 11
3.7979581751
 21
4.9457497918
  0
LWPOLYLINE
  5
500
100
AcDbEntity
  8
0
100
AcDbPolyline
 62
7
  6
CONTINUOUS
 90
4
 70
0
 10
3.7985347142
 20
5.103563422
 10
3.8017169842
 20
5.1043880501
 10
3.8108992196
 20
5.1054494983
 10
3.8255544049
 20
5.1065109465
  0
LWPOLYLINE
  5
501
100
AcDbEntity
  8
02___PRT_ALL_AXES
100
AcDbPolyline
 62
7
  6
CONTINUOUS
 90
5
 70
0
 10
4.2280600628
 20
5.2341615842
 10
4.1984120031
 20
5.2274961428
 10
4.1673540897
 20
5.2213324134
 10
4.1361315751
 20
5.2160270059
 10
4.1057735332
 20
5.2117662622
  0
LWPOLYLINE
  5
502
100
AcDbEntity
  8
02___PRT_ALL_AXES
100
AcDbPolyline
 62
7
  6
CONTINUOUS
 90
4
 70
0
 10
4.2280600628
 20
5.2932167023
 10
4.1870843622
 20
5.2842036798
 10
4.1463037797
 20
5.276709742
 10
4.1057735332
 20
5.2708213803
  0
LWPOLYLINE
  5
503
100
AcDbEntity
  8
02___PRT_ALL_AXES
100
AcDbPolyline
 62
7
  6
CONTINUOUS
 90
4
 70
0
 10
3.7760922448
 20
5.2341096526
 10
3.8170612917
 20
5.2431213293
 10
3.8578412984
 20
5.2506154211
 10
3.8983787743
 20
5.2565049746
  0
LWPOLYLINE
  5
504
100
AcDbEntity
  8
02___PRT_ALL_AXES
100
AcDbPolyline
 62
7
  6
CONTINUOUS
 90
4
 70
0
 10
4.2280600628
 20
5.3522718204
 10
4.1870843622
 20
5.343258798
 10
4.1463037797
 20
5.3357648601
 10
4.1057735332
 20
5.3298764984
  0
LWPOLYLINE
  5
505
100
AcDbEntity
  8
0
100
AcDbPolyline
 62
7
  6
CONTINUOUS
 90
4
 70
0
 10
3.7660560059
 20
5.1221889657
 10
3.7707428753
 20
5.1232076975
 10
3.7813283197
 20
5.1242113641
 10
3.7975032238
 20
5.1252117339
  0
LWPOLYLINE
  5
506
100
AcDbEntity
  8
02___PRT_ALL_AXES
100
AcDbPolyline
 62
7
  6
CONTINUOUS
 90
5
 70
0
 10
4.412106395
 20
5.3252237732
 10
4.3467528602
 20
5.3236885964
 10
4.2733304259
 20
5.3221750731
 10
4.192380838
 20
5.3206523109
 10
4.1057735332
 20
5.3191178561
  0
LINE
  5
507
100
AcDbEntity
  8
02___PRT_ALL_AXES
100
AcDbLine
 62
7
  6
CONTINUOUS
 10
3.5553803514
 20
5.2887460232
 11
3.6226026411
 21
5.2902666915
  0
LWPOLYLINE
  5
508
100
AcDbEntity
  8
02___PRT_ALL_AXES
100
AcDbPolyline
 62
7
  6
CONTINUOUS
 90
3
 70
0
 10
3.6226026411
 20
5.2902666915
 10
3.6943744172
 20
5.2916918549
 10
3.7760922448
 20
5.2931647707
  0
LWPOLYLINE
  5
509
100
AcDbEntity
  8
02___PRT_ALL_AXES
100
AcDbPolyline
 62
7
  6
CONTINUOUS
 90
9
 70
0
 10
4.2280600628
 20
5.2341615842
 10
4.3097778903
 20
5.2356345001
 10
4.3839545
 20
5.2371074159
 10
4.4487719561
 20
5.2385803317
 10
4.5026416991
 20
5.2400532476
 10
4.5442434781
 20
5.2415261634
 10
4.5725577081
 20
5.2429990793
 10
4.5868904581
 20
5.2444719951
 10
4.588464569
 20
5.2449476865
  0
LWPOLYLINE
  5
50A
100
AcDbEntity
  8
02___PRT_ALL_AXES
100
AcDbPolyline
 62
7
  6
CONTINUOUS
 90
9
 70
0
 10
4.2280600628
 20
5.241543474
 10
4.3097778903
 20
5.2430163898
 10
4.3839545
 20
5.2444893057
 10
4.4487719561
 20
5.2459622215
 10
4.5026416991
 20
5.2474351374
 10
4.5442434781
 20
5.2489080532
 10
4.5725577081
 20
5.250380969
 10
4.5868904581
 20
5.2518538849
 10
4.588690327
 20
5.2525903428
  0
LWPOLYLINE
  5
50B
100
AcDbEntity
  8
02___PRT_ALL_AXES
100
AcDbPolyline
 62
7
  6
CONTINUOUS
 90
9
 70
0
 10
4.2280600628
 20
5.2932167023
 10
4.3097778903
 20
5.2946896182
 10
4.3839545
 20
5.296162534
 10
4.4487719561
 20
5.2976354499
 10
4.5026416991
 20
5.2991083657
 10
4.5442434781
 20
5.3005812815
 10
4.5725577081
 20
5.3020541974
 10
4.5868904581
 20
5.3035271132
 10
4.588464569
 20
5.3040028046
  0
LWPOLYLINE
  5
50C
100
AcDbEntity
  8
02___PRT_ALL_AXES
100
AcDbPolyline
 62
7
  6
CONTINUOUS
 90
9
 70
0
 10
4.2280600628
 20
5.3005985921
 10
4.3097778903
 20
5.3020715079
 10
4.3839545
 20
5.3035444238
 10
4.4487719561
 20
5.3050173396
 10
4.5026416991
 20
5.3064902555
 10
4.5442434781
 20
5.3079631713
 10
4.5725577081
 20
5.3094360872
 10
4.5868904581
 20
5.310909003
 10
4.588690327
 20
5.3116454609
  0
LWPOLYLINE
  5
50D
100
AcDbEntity
  8
02___PRT_ALL_AXES
100
AcDbPolyline
 62
7
  6
CONTINUOUS
 90
9
 70
0
 10
4.2280600628
 20
5.3522718204
 10
4.3097778903
 20
5.3537447363
 10
4.3839545
 20
5.3552176521
 10
4.4487719561
 20
5.356690568
 10
4.5026416991
 20
5.3581634838
 10
4.5442434781
 20
5.3596363997
 10
4.5725577081
 20
5.3611093155
 10
4.5868904581
 20
5.3625822313
 10
4.588464569
 20
5.3630579227
  0
LWPOLYLINE
  5
50E
100
AcDbEntity
  8
02___PRT_ALL_AXES
100
AcDbPolyline
 62
7
  6
CONTINUOUS
 90
9
 70
0
 10
4.2280600628
 20
5.3596537102
 10
4.3097778903
 20
5.361126626
 10
4.3839545
 20
5.3625995419
 10
4.4487719561
 20
5.3640724577
 10
4.5026416991
 20
5.3655453736
 10
4.5442434781
 20
5.3670182894
 10
4.5725577081
 20
5.3684912053
 10
4.5868904581
 20
5.3699641211
 10
4.588690327
 20
5.370700579
  0
LWPOLYLINE
  5
50F
100
AcDbEntity
  8
02___PRT_ALL_AXES
100
AcDbPolyline
 62
7
  6
CONTINUOUS
 90
10
 70
0
 10
4.1057735332
 20
5.2117662622
 10
4.1915482738
 20
5.2132855941
 10
4.2727117413
 20
5.2148113644
 10
4.3463085228
 20
5.2163272968
 10
4.4115364585
 20
5.2178576489
 10
4.4663705055
 20
5.2194018249
 10
4.5085252801
 20
5.2209384269
 10
4.5368758122
 20
5.2224539371
 10
4.5514328241
 20
5.2239862168
 10
4.5530170035
 20
5.2244736394
  0
LWPOLYLINE
  5
510
100
AcDbEntity
  8
02___PRT_ALL_AXES
100
AcDbPolyline
 62
7
  6
CONTINUOUS
 90
10
 70
0
 10
3.8983787743
 20
5.2565049746
 10
3.8111450365
 20
5.2549591351
 10
3.7293667648
 20
5.2534192293
 10
3.6558684994
 20
5.2519007319
 10
3.5914548287
 20
5.2503839614
 10
3.5378113499
 20
5.2488703468
 10
3.4961019151
 20
5.2473532788
 10
3.4675750755
 20
5.2458382464
 10
3.4528031449
 20
5.244302372
 10
3.4511353041
 20
5.2437975975
  0
LWPOLYLINE
  5
511
100
AcDbEntity
  8
02___PRT_ALL_AXES
100
AcDbPolyline
 62
7
  6
CONTINUOUS
 90
10
 70
0
 10
4.1057735332
 20
5.2708213803
 10
4.192380838
 20
5.2723558352
 10
4.2733304259
 20
5.2738785973
 10
4.3467528602
 20
5.2753921206
 10
4.412106395
 20
5.2769272975
 10
4.4669623379
 20
5.2784756991
 10
4.5090490419
 20
5.2800162415
 10
4.5372374029
 20
5.2815346758
 10
4.5515029416
 20
5.2830561862
 10
4.5530170035
 20
5.2835287575
  0
LWPOLYLINE
  5
512
100
AcDbEntity
  8
02___PRT_ALL_AXES
100
AcDbPolyline
 62
7
  6
CONTINUOUS
 90
10
 70
0
 10
3.8983787743
 20
5.3155600927
 10
3.8112601766
 20
5.3140163461
 10
3.7296283856
 20
5.3124794802
 10
3.6561544183
 20
5.3109621142
 10
3.5910686195
 20
5.3094292012
 10
3.5364793123
 20
5.3078831741
 10
3.494646712
 20
5.3063453421
 10
3.4666622885
 20
5.3048287287
 10
3.4525472181
 20
5.3033031104
 10
3.4511353041
 20
5.3028527156
  0
LWPOLYLINE
  5
513
100
AcDbEntity
  8
02___PRT_ALL_AXES
100
AcDbPolyline
 62
7
  6
CONTINUOUS
 90
10
 70
0
 10
4.1057735332
 20
5.3298764984
 10
4.192948957
 20
5.3314212779
 10
4.2746837768
 20
5.332960247
 10
4.3481227515
 20
5.3344772121
 10
4.4123434173
 20
5.3359884658
 10
4.4661650428
 20
5.3375055633
 10
4.5080704951
 20
5.3390290586
 10
4.536589543
 20
5.3405440867
 10
4.5513481196
 20
5.3420788871
 10
4.5530170035
 20
5.3425838756
  0
LWPOLYLINE
  5
514
100
AcDbEntity
  8
02___PRT_ALL_AXES
100
AcDbPolyline
 62
7
  6
CONTINUOUS
 90
4
 70
0
 10
3.8983787743
 20
5.2082084989
 10
3.8578493238
 20
5.2127599526
 10
3.8170655435
 20
5.2189585504
 10
3.7760922448
 20
5.2267277628
  0
LWPOLYLINE
  5
515
100
AcDbEntity
  8
02___PRT_ALL_AXES
100
AcDbPolyline
 62
7
  6
CONTINUOUS
 90
4
 70
0
 10
3.8983787743
 20
5.267263617
 10
3.8578493238
 20
5.2718150707
 10
3.8170655435
 20
5.2780136685
 10
3.7760922448
 20
5.2857828809
  0
LWPOLYLINE
  5
516
100
AcDbEntity
  8
02___PRT_ALL_AXES
100
AcDbPolyline
 62
7
  6
CONTINUOUS
 90
4
 70
0
 10
3.8983787743
 20
5.3263187351
 10
3.8578593493
 20
5.3308688613
 10
3.8170765526
 20
5.3370669023
 10
3.7760922448
 20
5.3448379991
  0
LWPOLYLINE
  5
517
100
AcDbEntity
  8
02___PRT_ALL_AXES
100
AcDbPolyline
 62
7
  6
CONTINUOUS
 90
4
 70
0
 10
4.1057735332
 20
5.3191178561
 10
4.1463105469
 20
5.3145654007
 10
4.1870936827
 20
5.3083666203
 10
4.2280600628
 20
5.3005985921
  0
LWPOLYLINE
  5
518
100
AcDbEntity
  8
02___PRT_ALL_AXES
100
AcDbPolyline
 62
7
  6
CONTINUOUS
 90
4
 70
0
 10
4.1057735332
 20
5.2600627379
 10
4.1465798778
 20
5.2554745791
 10
4.1881235066
 20
5.2491347342
 10
4.2280600628
 20
5.241543474
  0
LINE
  5
519
100
AcDbEntity
  8
0
100
AcDbLine
 62
7
  6
CONTINUOUS
 10
3.4156877386
 20
5.2154201274
 11
3.4511353041
 21
5.1949460803
  0
LINE
  5
51A
100
AcDbEntity
  8
0
100
AcDbLine
 62
7
  6
CONTINUOUS
 10
3.4156877386
 20
5.2744752455
 11
3.4511353041
 21
5.2540011984
  0
LINE
  5
51B
100
AcDbEntity
  8
0
100
AcDbLine
 62
7
  6
CONTINUOUS
 10
3.4156877386
 20
5.3335303636
 11
3.4511353041
 21
5.3130563165
  0
LINE
  5
51C
100
AcDbEntity
  8
0
100
AcDbLine
 62
7
  6
CONTINUOUS
 10
3.4156877386
 20
5.3925854818
 11
3.4511353041
 21
5.3721114346
  0
LINE
  5
51D
100
AcDbEntity
  8
0
100
AcDbLine
 62
7
  6
CONTINUOUS
 10
3.7661046005
 20
5.0035329776
 11
3.7979581751
 21
4.9851198705
  0
LINE
  5
51E
100
AcDbEntity
  8
0
100
AcDbLine
 62
7
  6
CONTINUOUS
 10
3.7661046005
 20
5.0429030563
 11
3.7979581751
 21
5.0244899493
  0
LINE
  5
51F
100
AcDbEntity
  8
0
100
AcDbLine
 62
7
  6
CONTINUOUS
 10
3.7661046005
 20
5.0822731351
 11
3.7979581751
 21
5.063860028
  0
LINE
  5
520
100
AcDbEntity
  8
0
100
AcDbLine
 62
7
  6
CONTINUOUS
 10
3.7661046005
 20
5.1216432138
 11
3.7979581751
 21
5.1032301068
  0
LINE
  5
521
100
AcDbEntity
  8
0
100
AcDbLine
 62
7
  6
CONTINUOUS
 10
4.2380477071
 20
4.8682815663
 11
4.2061941324
 21
4.8866946737
  0
LINE
  5
522
100
AcDbEntity
  8
0
100
AcDbLine
 62
7
  6
CONTINUOUS
 10
4.2380477071
 20
4.907651645
 11
4.2061941324
 21
4.9260647524
  0
LINE
  5
523
100
AcDbEntity
  8
0
100
AcDbLine
 62
7
  6
CONTINUOUS
 10
4.2195048003
 20
4.8396294933
 11
4.2061941324
 21
4.8473245949
  0
LWPOLYLINE
  5
524
100
AcDbEntity
  8
02___PRT_ALL_AXES
100
AcDbPolyline
 62
7
  6
CONTINUOUS
 90
5
 70
0
 10
4.2280600628
 20
5.4703820567
 10
4.1987335328
 20
5.4637848867
 10
4.1680534498
 20
5.4576821223
 10
4.136814621
 20
5.4523536706
 10
4.1057735332
 20
5.4479867346
  0
LWPOLYLINE
  5
525
100
AcDbEntity
  8
02___PRT_ALL_AXES
100
AcDbPolyline
 62
7
  6
CONTINUOUS
 90
4
 70
0
 10
3.7760922448
 20
5.2931647707
 10
3.8170612917
 20
5.3021764474
 10
3.8578412984
 20
5.3096705392
 10
3.8983787743
 20
5.3155600927
  0
LWPOLYLINE
  5
526
100
AcDbEntity
  8
02___PRT_ALL_AXES
100
AcDbPolyline
 62
7
  6
CONTINUOUS
 90
4
 70
0
 10
4.2280600628
 20
5.4113269385
 10
4.1870843622
 20
5.4023139161
 10
4.1463037797
 20
5.3948199782
 10
4.1057735332
 20
5.3889316165
  0
LWPOLYLINE
  5
527
100
AcDbEntity
  8
02___PRT_ALL_AXES
100
AcDbPolyline
 62
7
  6
CONTINUOUS
 90
4
 70
0
 10
3.7760922448
 20
5.3522198888
 10
3.8170696777
 20
5.3612332617
 10
3.8578488367
 20
5.3687269
 10
3.8983787743
 20
5.3746152109
  0
LWPOLYLINE
  5
528
100
AcDbEntity
  8
02___PRT_ALL_AXES
100
AcDbPolyline
 62
7
  6
CONTINUOUS
 90
4
 70
0
 10
3.7760922448
 20
5.4112750069
 10
3.8170612917
 20
5.4202866836
 10
3.8578412984
 20
5.4277807754
 10
3.8983787743
 20
5.433670329
  0
LWPOLYLINE
  5
529
100
AcDbEntity
  8
02___PRT_ALL_AXES
100
AcDbPolyline
 62
7
  6
CONTINUOUS
 90
4
 70
0
 10
4.2280600628
 20
5.5294371748
 10
4.1870843622
 20
5.5204241523
 10
4.1463037797
 20
5.5129302145
 10
4.1057735332
 20
5.5070418527
  0
LWPOLYLINE
  5
52A
100
AcDbEntity
  8
02___PRT_ALL_AXES
100
AcDbPolyline
 62
7
  6
CONTINUOUS
 90
5
 70
0
 10
3.5247393171
 20
5.4256066909
 10
3.4874569181
 20
5.4241280593
 10
3.4628288763
 20
5.4226448264
 10
3.4515378949
 20
5.4211394149
 10
3.4511353041
 20
5.4209629518
  0
LWPOLYLINE
  5
52B
100
AcDbEntity
  8
02___PRT_ALL_AXES
100
AcDbPolyline
 62
7
  6
CONTINUOUS
 90
7
 70
0
 10
3.5247393171
 20
5.3773102152
 10
3.568546578
 20
5.3786448708
 10
3.6213592908
 20
5.3799860917
 10
3.6815115408
 20
5.3813189322
 10
3.7485204927
 20
5.3826598618
 10
3.8214912669
 20
5.3840154078
 10
3.8983787743
 20
5.3853738532
  0
LWPOLYLINE
  5
52C
100
AcDbEntity
  8
02___PRT_ALL_AXES
100
AcDbPolyline
 62
7
  6
CONTINUOUS
 90
5
 70
0
 10
3.4940533775
 20
5.3977675082
 10
3.548360349
 20
5.3992989104
 10
3.6146857057
 20
5.4008303127
 10
3.6912725689
 20
5.4023617149
 10
3.7760922448
 20
5.4038931172
  0
LWPOLYLINE
  5
52D
100
AcDbEntity
  8
02___PRT_ALL_AXES
100
AcDbPolyline
 62
7
  6
CONTINUOUS
 90
5
 70
0
 10
3.4940533775
 20
5.4051493979
 10
3.548360349
 20
5.4066808002
 10
3.6146857057
 20
5.4082122024
 10
3.6912725689
 20
5.4097436047
 10
3.7760922448
 20
5.4112750069
  0
LWPOLYLINE
  5
52E
100
AcDbEntity
  8
02___PRT_ALL_AXES
100
AcDbPolyline
 62
7
  6
CONTINUOUS
 90
7
 70
0
 10
4.347712418
 20
5.393523344
 10
4.4126112016
 20
5.3950504246
 10
4.4669152317
 20
5.3965844403
 10
4.5085541104
 20
5.3981050272
 10
4.5368471634
 20
5.3996172735
 10
4.5514399768
 20
5.4011530729
 10
4.5530170035
 20
5.4016389937
  0
LWPOLYLINE
  5
52F
100
AcDbEntity
  8
02___PRT_ALL_AXES
100
AcDbPolyline
 62
7
  6
CONTINUOUS
 90
5
 70
0
 10
3.5928813082
 20
5.4973994621
 10
3.6583151418
 20
5.4989333419
 10
3.731948811
 20
5.5004489328
 10
3.8124599892
 20
5.5019621416
 10
3.8983787743
 20
5.5034840894
  0
LWPOLYLINE
  5
530
100
AcDbEntity
  8
02___PRT_ALL_AXES
100
AcDbPolyline
 62
7
  6
CONTINUOUS
 90
9
 70
0
 10
4.2280600628
 20
5.4113269385
 10
4.3097778903
 20
5.4127998544
 10
4.3839545
 20
5.4142727702
 10
4.4487719561
 20
5.4157456861
 10
4.5026416991
 20
5.4172186019
 10
4.5442434781
 20
5.4186915178
 10
4.5725577081
 20
5.4201644336
 10
4.5868904581
 20
5.4216373495
 10
4.588464569
 20
5.4221130408
  0
LWPOLYLINE
  5
531
100
AcDbEntity
  8
02___PRT_ALL_AXES
100
AcDbPolyline
 62
7
  6
CONTINUOUS
 90
9
 70
0
 10
4.2280600628
 20
5.4187088283
 10
4.3097778903
 20
5.4201817442
 10
4.3839545
 20
5.42165466
 10
4.4487719561
 20
5.4231275758
 10
4.5026416991
 20
5.4246004917
 10
4.5442434781
 20
5.4260734075
 10
4.5725577081
 20
5.4275463234
 10
4.5868904581
 20
5.4290192392
 10
4.588690327
 20
5.4297556971
  0
LWPOLYLINE
  5
532
100
AcDbEntity
  8
02___PRT_ALL_AXES
100
AcDbPolyline
 62
7
  6
CONTINUOUS
 90
9
 70
0
 10
4.2280600628
 20
5.4703820567
 10
4.3097778903
 20
5.4718549725
 10
4.3839545
 20
5.4733278883
 10
4.4487719561
 20
5.4748008042
 10
4.5026416991
 20
5.47627372
 10
4.5442434781
 20
5.4777466359
 10
4.5725577081
 20
5.4792195517
 10
4.5868904581
 20
5.4806924676
 10
4.588464569
 20
5.4811681589
  0
LWPOLYLINE
  5
533
100
AcDbEntity
  8
02___PRT_ALL_AXES
100
AcDbPolyline
 62
7
  6
CONTINUOUS
 90
9
 70
0
 10
4.2280600628
 20
5.4777639464
 10
4.3097778903
 20
5.4792368623
 10
4.3839545
 20
5.4807097781
 10
4.4487719561
 20
5.482182694
 10
4.5026416991
 20
5.4836556098
 10
4.5442434781
 20
5.4851285256
 10
4.5725577081
 20
5.4866014415
 10
4.5868904581
 20
5.4880743573
 10
4.588690327
 20
5.4888108153
  0
LWPOLYLINE
  5
534
100
AcDbEntity
  8
02___PRT_ALL_AXES
100
AcDbPolyline
 62
7
  6
CONTINUOUS
 90
9
 70
0
 10
4.2280600628
 20
5.5294371748
 10
4.3097778903
 20
5.5309100906
 10
4.3839545
 20
5.5323830065
 10
4.4487719561
 20
5.5338559223
 10
4.5026416991
 20
5.5353288381
 10
4.5442434781
 20
5.536801754
 10
4.5725577081
 20
5.5382746698
 10
4.5868904581
 20
5.5397475857
 10
4.588464569
 20
5.540223277
  0
LWPOLYLINE
  5
535
100
AcDbEntity
  8
02___PRT_ALL_AXES
100
AcDbPolyline
 62
7
  6
CONTINUOUS
 90
9
 70
0
 10
4.2280600628
 20
5.5368190645
 10
4.3097778903
 20
5.5382919804
 10
4.3839545
 20
5.5397648962
 10
4.4487719561
 20
5.5412378121
 10
4.5026416991
 20
5.5427107279
 10
4.5442434781
 20
5.5441836438
 10
4.5725577081
 20
5.5456565596
 10
4.5868904581
 20
5.5471294754
 10
4.588690327
 20
5.5478659334
  0
LWPOLYLINE
  5
536
100
AcDbEntity
  8
02___PRT_ALL_AXES
100
AcDbPolyline
 62
7
  6
CONTINUOUS
 90
10
 70
0
 10
3.8983787743
 20
5.3746152109
 10
3.8129483298
 20
5.3731021302
 10
3.7321219937
 20
5.3715834418
 10
3.658468601
 20
5.3700678106
 10
3.5930979528
 20
5.3685360959
 10
3.5381265431
 20
5.3669905466
 10
3.495848011
 20
5.365452584
 10
3.4674232937
 20
5.3639378577
 10
3.4528523916
 20
5.3624226451
 10
3.4511353041
 20
5.3619078337
  0
LWPOLYLINE
  5
537
100
AcDbEntity
  8
02___PRT_ALL_AXES
100
AcDbPolyline
 62
7
  6
CONTINUOUS
 90
4
 70
0
 10
4.1057735332
 20
5.3889316165
 10
4.192553068
 20
5.3904692009
 10
4.2741422553
 20
5.3920047438
 10
4.347712418
 20
5.393523344
  0
LWPOLYLINE
  5
538
100
AcDbEntity
  8
02___PRT_ALL_AXES
100
AcDbPolyline
 62
7
  6
CONTINUOUS
 90
7
 70
0
 10
3.8983787743
 20
5.433670329
 10
3.8214912669
 20
5.4323118836
 10
3.7485204927
 20
5.4309563376
 10
3.6815115408
 20
5.429615408
 10
3.6213592908
 20
5.4282825675
 10
3.568546578
 20
5.4269413466
 10
3.5247393171
 20
5.4256066909
  0
LWPOLYLINE
  5
539
100
AcDbEntity
  8
02___PRT_ALL_AXES
100
AcDbPolyline
 62
7
  6
CONTINUOUS
 90
10
 70
0
 10
4.1057735332
 20
5.4479867346
 10
4.1917231018
 20
5.4495092414
 10
4.2722377215
 20
5.4510225608
 10
4.3458657319
 20
5.4525381053
 10
4.4112974691
 20
5.4540720357
 10
4.466286432
 20
5.4556196376
 10
4.5085425342
 20
5.457159645
 10
4.5369100095
 20
5.4586768206
 10
4.5513580307
 20
5.4601911583
 10
4.5530170035
 20
5.4606941118
  0
LWPOLYLINE
  5
53A
100
AcDbEntity
  8
02___PRT_ALL_AXES
100
AcDbPolyline
 62
7
  6
CONTINUOUS
 90
10
 70
0
 10
3.8983787743
 20
5.4927254471
 10
3.8111942438
 20
5.491180502
 10
3.7294583382
 20
5.4896414985
 10
3.6560163686
 20
5.4881244445
 10
3.5916412542
 20
5.486609198
 10
3.5373479293
 20
5.48507614
 10
3.4954339845
 20
5.483544932
 10
3.4671521999
 20
5.4820289968
 10
3.4526818719
 20
5.4804975622
 10
3.4511353041
 20
5.4800180699
  0
LWPOLYLINE
  5
53B
100
AcDbEntity
  8
02___PRT_ALL_AXES
100
AcDbPolyline
 62
7
  6
CONTINUOUS
 90
10
 70
0
 10
4.1057735332
 20
5.5070418527
 10
4.192953074
 20
5.5085867071
 10
4.2746898536
 20
5.5101257205
 10
4.3481302847
 20
5.5116427315
 10
4.4124802644
 20
5.5131573153
 10
4.466756153
 20
5.5146896306
 10
4.5086753993
 20
5.5162205095
 10
4.5369726198
 20
5.5177363595
 10
4.551461953
 20
5.5192679418
 10
4.5530170035
 20
5.5197492299
  0
LWPOLYLINE
  5
53C
100
AcDbEntity
  8
02___PRT_ALL_AXES
100
AcDbPolyline
 62
7
  6
CONTINUOUS
 90
5
 70
0
 10
3.8983787743
 20
5.5034840894
 10
3.8673689509
 20
5.5068193632
 10
3.8361428854
 20
5.5111380285
 10
3.8054529233
 20
5.5162835803
 10
3.7760922448
 20
5.5220033534
  0
LWPOLYLINE
  5
53D
100
AcDbEntity
  8
02___PRT_ALL_AXES
100
AcDbPolyline
 62
7
  6
CONTINUOUS
 90
5
 70
0
 10
4.1057735332
 20
5.4962832104
 10
4.1368443771
 20
5.4929404251
 10
4.1680975091
 20
5.4886157612
 10
4.1987743758
 20
5.4834700861
 10
4.2280600628
 20
5.4777639464
  0
LWPOLYLINE
  5
53E
100
AcDbEntity
  8
02___PRT_ALL_AXES
100
AcDbPolyline
 62
7
  6
CONTINUOUS
 90
4
 70
0
 10
3.8983787743
 20
5.3853738532
 10
3.8578493238
 20
5.3899253069
 10
3.8170655435
 20
5.3961239047
 10
3.7760922448
 20
5.4038931172
  0
LWPOLYLINE
  5
53F
100
AcDbEntity
  8
02___PRT_ALL_AXES
100
AcDbPolyline
 62
7
  6
CONTINUOUS
 90
4
 70
0
 10
4.1057735332
 20
5.3781729742
 10
4.1463105469
 20
5.3736205188
 10
4.1870936827
 20
5.3674217384
 10
4.2280600628
 20
5.3596537102
  0
LWPOLYLINE
  5
540
100
AcDbEntity
  8
02___PRT_ALL_AXES
100
AcDbPolyline
 62
7
  6
CONTINUOUS
 90
4
 70
0
 10
3.8983787743
 20
5.4444289713
 10
3.8578493238
 20
5.448980425
 10
3.8170655435
 20
5.4551790228
 10
3.7760922448
 20
5.4629482353
  0
LWPOLYLINE
  5
541
100
AcDbEntity
  8
02___PRT_ALL_AXES
100
AcDbPolyline
 62
7
  6
CONTINUOUS
 90
4
 70
0
 10
4.1057735332
 20
5.4372280923
 10
4.1463105469
 20
5.432675637
 10
4.1870936827
 20
5.4264768565
 10
4.2280600628
 20
5.4187088283
  0
LINE
  5
542
100
AcDbEntity
  8
0
100
AcDbLine
 62
7
  6
CONTINUOUS
 10
3.4156877386
 20
5.4516405999
 11
3.4511353041
 21
5.4311665527
  0
LINE
  5
543
100
AcDbEntity
  8
0
100
AcDbLine
 62
7
  6
CONTINUOUS
 10
3.4156877386
 20
5.510695718
 11
3.4511353041
 21
5.4902216708
  0
LINE
  5
544
100
AcDbEntity
  8
0
100
AcDbLine
 62
7
  6
CONTINUOUS
 10
3.4156877386
 20
5.5697508361
 11
3.4511353041
 21
5.549276789
  0
LINE
  5
545
100
AcDbEntity
  8
0
100
AcDbLine
 62
7
  6
CONTINUOUS
 10
4.2380477071
 20
4.9470217238
 11
4.2061941324
 21
4.9654348312
  0
LINE
  5
546
100
AcDbEntity
  8
0
100
AcDbLine
 62
7
  6
CONTINUOUS
 10
4.2380477071
 20
4.9863918025
 11
4.2061941324
 21
5.0048049099
  0
LINE
  5
547
100
AcDbEntity
  8
0
100
AcDbLine
 62
7
  6
CONTINUOUS
 10
4.2380477071
 20
5.0257618812
 11
4.2061941324
 21
5.0441749886
  0
LINE
  5
548
100
AcDbEntity
  8
0
100
AcDbLine
 62
7
  6
CONTINUOUS
 10
4.2380477071
 20
5.06513196
 11
4.2061941324
 21
5.0835450674
  0
LINE
  5
549
100
AcDbEntity
  8
0
100
AcDbLine
 62
7
  6
CONTINUOUS
 10
4.2380477071
 20
5.1045020387
 11
4.2061941324
 21
5.1229151461
  0
LINE
  5
54A
100
AcDbEntity
  8
0
100
AcDbLine
 62
7
  6
CONTINUOUS
 10
3.7855406509
 20
4.8384663271
 11
3.7720955418
 21
4.8519114319
  0
LINE
  5
54B
100
AcDbEntity
  8
02___PRT_ALL_AXES
100
AcDbLine
 62
7
  6
CONTINUOUS
 10
3.4156877386
 20
5.2154201274
 11
3.4154619806
 21
5.215680894
  0
LINE
  5
54C
100
AcDbEntity
  8
02___PRT_ALL_AXES
100
AcDbLine
 62
7
  6
CONTINUOUS
 10
3.4156877386
 20
5.2744752455
 11
3.4154619806
 21
5.2747360121
  0
LWPOLYLINE
  5
54D
100
AcDbEntity
  8
02___PRT_ALL_AXES
100
AcDbPolyline
 62
7
  6
CONTINUOUS
 90
5
 70
0
 10
3.7760922448
 20
5.5293852431
 10
3.8053487471
 20
5.535967532
 10
3.8360111192
 20
5.5420689324
 10
3.8672724005
 20
5.5474034558
 10
3.8983787743
 20
5.5517805652
  0
LWPOLYLINE
  5
54E
100
AcDbEntity
  8
02___PRT_ALL_AXES
100
AcDbPolyline
 62
7
  6
CONTINUOUS
 90
4
 70
0
 10
3.7760922448
 20
5.470330125
 10
3.8170612917
 20
5.4793418017
 10
3.8578412984
 20
5.4868358936
 10
3.8983787743
 20
5.4927254471
  0
LWPOLYLINE
  5
54F
100
AcDbEntity
  8
02___PRT_ALL_AXES
100
AcDbPolyline
 62
7
  6
CONTINUOUS
 90
4
 70
0
 10
4.2280600628
 20
5.5884922929
 10
4.1870843622
 20
5.5794792704
 10
4.1463037797
 20
5.5719853326
 10
4.1057735332
 20
5.5660969708
  0
LWPOLYLINE
  5
550
100
AcDbEntity
  8
02___PRT_ALL_AXES
100
AcDbPolyline
 62
7
  6
CONTINUOUS
 90
4
 70
0
 10
4.2280600628
 20
5.647547411
 10
4.18707376
 20
5.6385322442
 10
4.1462942044
 20
5.6310388722
 10
4.1057735332
 20
5.6251520889
  0
LWPOLYLINE
  5
551
100
AcDbEntity
  8
02___PRT_ALL_AXES
100
AcDbPolyline
 62
7
  6
CONTINUOUS
 90
4
 70
0
 10
3.7760922448
 20
5.5884403613
 10
3.8170612917
 20
5.5974520379
 10
3.8578412984
 20
5.6049461298
 10
3.8983787743
 20
5.6108356833
  0
LWPOLYLINE
  5
552
100
AcDbEntity
  8
02___PRT_ALL_AXES
100
AcDbPolyline
 62
7
  6
CONTINUOUS
 90
4
 70
0
 10
4.2280600628
 20
5.7066025291
 10
4.1870843622
 20
5.6975895066
 10
4.1463037797
 20
5.6900955688
 10
4.1057735332
 20
5.6842072071
  0
LWPOLYLINE
  5
553
100
AcDbEntity
  8
02___PRT_ALL_AXES
100
AcDbPolyline
 62
7
  6
CONTINUOUS
 90
5
 70
0
 10
4.4794129905
 20
5.5741606089
 10
4.5166919087
 20
5.5756390747
 10
4.5413215982
 20
5.5771223224
 10
4.5526141025
 20
5.5786277754
 10
4.5530170035
 20
5.578804348
  0
LWPOLYLINE
  5
554
100
AcDbEntity
  8
02___PRT_ALL_AXES
100
AcDbPolyline
 62
7
  6
CONTINUOUS
 90
5
 70
0
 10
4.51009893
 20
5.5946179019
 10
4.54917264
 20
5.5960695499
 10
4.5752216489
 20
5.597521198
 10
4.5876258092
 20
5.5989728461
 10
4.588464569
 20
5.5992783951
  0
LWPOLYLINE
  5
555
100
AcDbEntity
  8
02___PRT_ALL_AXES
100
AcDbPolyline
 62
7
  6
CONTINUOUS
 90
5
 70
0
 10
4.51009893
 20
5.6019997916
 10
4.54917264
 20
5.6034514397
 10
4.5752216489
 20
5.6049030878
 10
4.5876258092
 20
5.6063547358
 10
4.588690327
 20
5.6069210515
  0
LWPOLYLINE
  5
556
100
AcDbEntity
  8
02___PRT_ALL_AXES
100
AcDbPolyline
 62
7
  6
CONTINUOUS
 90
7
 70
0
 10
4.4794129905
 20
5.6224570846
 10
4.435596501
 20
5.6211221742
 10
4.3827766107
 20
5.6197808212
 10
4.3226145794
 20
5.6184478187
 10
4.2556158299
 20
5.617107131
 10
4.1826514505
 20
5.6157517189
 10
4.1057735332
 20
5.6143934466
  0
LWPOLYLINE
  5
557
100
AcDbEntity
  8
02___PRT_ALL_AXES
100
AcDbPolyline
 62
7
  6
CONTINUOUS
 90
7
 70
0
 10
4.3456607249
 20
5.629698988
 10
4.4110316793
 20
5.6312306272
 10
4.4660070826
 20
5.6327761631
 10
4.5082925987
 20
5.6343142116
 10
4.5367228388
 20
5.6358290089
 10
4.5512950064
 20
5.637343661
 10
4.5530170035
 20
5.6378594661
  0
LWPOLYLINE
  5
558
100
AcDbEntity
  8
02___PRT_ALL_AXES
100
AcDbPolyline
 62
7
  6
CONTINUOUS
 90
4
 70
0
 10
3.5553803514
 20
5.6947499602
 10
3.6201978076
 20
5.696222876
 10
3.6943744172
 20
5.6976957919
 10
3.7760922448
 20
5.6991687077
  0
LWPOLYLINE
  5
559
100
AcDbEntity
  8
02___PRT_ALL_AXES
100
AcDbPolyline
 62
7
  6
CONTINUOUS
 90
3
 70
0
 10
3.7308838622
 20
5.6775934408
 10
3.8117990701
 20
5.6791154903
 10
3.8983787743
 20
5.6806494437
  0
LINE
  5
55A
100
AcDbEntity
  8
02___PRT_ALL_AXES
100
AcDbLine
 62
7
  6
CONTINUOUS
 10
4.2647704664
 20
5.628047435
 11
4.3456607249
 21
5.629698988
  0
LWPOLYLINE
  5
55B
100
AcDbEntity
  8
02___PRT_ALL_AXES
100
AcDbPolyline
 62
7
  6
CONTINUOUS
 90
5
 70
0
 10
4.2280600628
 20
5.5884922929
 10
4.3128797387
 20
5.5900236951
 10
4.3894666019
 20
5.5915550974
 10
4.4557919586
 20
5.5930864996
 10
4.51009893
 20
5.5946179019
  0
LWPOLYLINE
  5
55C
100
AcDbEntity
  8
02___PRT_ALL_AXES
100
AcDbPolyline
 62
7
  6
CONTINUOUS
 90
5
 70
0
 10
4.2280600628
 20
5.5958741826
 10
4.3128797387
 20
5.5974055849
 10
4.3894666019
 20
5.5989369871
 10
4.4557919586
 20
5.6004683894
 10
4.51009893
 20
5.6019997916
  0
LWPOLYLINE
  5
55D
100
AcDbEntity
  8
02___PRT_ALL_AXES
100
AcDbPolyline
 62
7
  6
CONTINUOUS
 90
9
 70
0
 10
4.2280600628
 20
5.647547411
 10
4.3097778903
 20
5.6490203268
 10
4.3839545
 20
5.6504932427
 10
4.4487719561
 20
5.6519661585
 10
4.5026416991
 20
5.6534390744
 10
4.5442434781
 20
5.6549119902
 10
4.5725577081
 20
5.6563849061
 10
4.5868904581
 20
5.6578578219
 10
4.588464569
 20
5.6583335132
  0
LINE
  5
55E
100
AcDbEntity
  8
02___PRT_ALL_AXES
100
AcDbLine
 62
7
  6
CONTINUOUS
 10
3.6943744172
 20
5.6386406738
 11
3.7760922448
 21
5.6401135896
  0
LWPOLYLINE
  5
55F
100
AcDbEntity
  8
02___PRT_ALL_AXES
100
AcDbPolyline
 62
7
  6
CONTINUOUS
 90
9
 70
0
 10
4.2280600628
 20
5.6549293007
 10
4.3097778903
 20
5.6564022166
 10
4.3839545
 20
5.6578751324
 10
4.4487719561
 20
5.6593480483
 10
4.5026416991
 20
5.6608209641
 10
4.5442434781
 20
5.66229388
 10
4.5725577081
 20
5.6637667958
 10
4.5868904581
 20
5.6652397117
 10
4.588690327
 20
5.6659761696
  0
LWPOLYLINE
  5
560
100
AcDbEntity
  8
02___PRT_ALL_AXES
100
AcDbPolyline
 62
7
  6
CONTINUOUS
 90
9
 70
0
 10
4.2280600628
 20
5.7066025291
 10
4.3097778903
 20
5.7080754449
 10
4.3839545
 20
5.7095483608
 10
4.4487719561
 20
5.7110212766
 10
4.5026416991
 20
5.7124941925
 10
4.5442434781
 20
5.7139671083
 10
4.5725577081
 20
5.7154400242
 10
4.5868904581
 20
5.71691294
 10
4.588464569
 20
5.7173886314
  0
LWPOLYLINE
  5
561
100
AcDbEntity
  8
02___PRT_ALL_AXES
100
AcDbPolyline
 62
7
  6
CONTINUOUS
 90
9
 70
0
 10
4.2280600628
 20
5.7139844189
 10
4.3097778903
 20
5.7154573347
 10
4.3839545
 20
5.7169302505
 10
4.4487719561
 20
5.7184031664
 10
4.5026416991
 20
5.7198760822
 10
4.5442434781
 20
5.7213489981
 10
4.5725577081
 20
5.7228219139
 10
4.5868904581
 20
5.7242948298
 10
4.588690327
 20
5.7250312877
  0
LWPOLYLINE
  5
562
100
AcDbEntity
  8
02___PRT_ALL_AXES
100
AcDbPolyline
 62
7
  6
CONTINUOUS
 90
10
 70
0
 10
3.8983787743
 20
5.5517805652
 10
3.8124599892
 20
5.5502586174
 10
3.731948811
 20
5.5487454085
 10
3.6583151418
 20
5.5472298177
 10
3.5928813082
 20
5.5456959378
 10
3.5378903677
 20
5.5441484368
 10
3.4956318363
 20
5.5426086083
 10
3.4672585141
 20
5.5410916228
 10
3.4528016322
 20
5.5395776523
 10
3.4511353041
 20
5.539073188
  0
LWPOLYLINE
  5
563
100
AcDbEntity
  8
02___PRT_ALL_AXES
100
AcDbPolyline
 62
7
  6
CONTINUOUS
 90
7
 70
0
 10
4.1057735332
 20
5.5660969708
 10
4.1826514505
 20
5.5674552431
 10
4.2556158299
 20
5.5688106552
 10
4.3226145794
 20
5.5701513429
 10
4.3827766107
 20
5.5714843454
 10
4.435596501
 20
5.5728256984
 10
4.4794129905
 20
5.5741606089
  0
LWPOLYLINE
  5
564
100
AcDbEntity
  8
02___PRT_ALL_AXES
100
AcDbPolyline
 62
7
  6
CONTINUOUS
 90
10
 70
0
 10
3.8983787743
 20
5.6108356833
 10
3.811557531
 20
5.6092973409
 10
3.7299543326
 20
5.6077614634
 10
3.656387086
 20
5.6062427998
 10
3.5915019441
 20
5.6047158743
 10
3.5372222143
 20
5.6031823879
 10
3.4956053291
 20
5.6016625809
 10
3.4673072071
 20
5.6001501715
 10
3.4527124372
 20
5.5986142493
 10
3.4511353041
 20
5.5981283061
  0
LINE
  5
565
100
AcDbEntity
  8
02___PRT_ALL_AXES
100
AcDbLine
 62
7
  6
CONTINUOUS
 10
4.1057735332
 20
5.6251520889
 11
4.1816701462
 21
5.6264963138
  0
LINE
  5
566
100
AcDbEntity
  8
02___PRT_ALL_AXES
100
AcDbLine
 62
7
  6
CONTINUOUS
 10
4.1816701462
 20
5.6264963138
 11
4.2647704664
 21
5.628047435
  0
LWPOLYLINE
  5
567
100
AcDbEntity
  8
02___PRT_ALL_AXES
100
AcDbPolyline
 62
7
  6
CONTINUOUS
 90
10
 70
0
 10
3.8983787743
 20
5.6698908014
 10
3.8112069987
 20
5.6683460882
 10
3.7294800735
 20
5.6668072793
 10
3.6560478533
 20
5.6652904886
 10
3.5918347497
 20
5.6637794943
 10
3.5379911734
 20
5.66226186
 10
3.496079484
 20
5.660738141
 10
3.4675614313
 20
5.65922312
 10
3.4528038044
 20
5.6576883341
 10
3.4511353041
 20
5.6571834242
  0
LWPOLYLINE
  5
568
100
AcDbEntity
  8
02___PRT_ALL_AXES
100
AcDbPolyline
 62
7
  6
CONTINUOUS
 90
10
 70
0
 10
4.1057735332
 20
5.6842072071
 10
4.1929098114
 20
5.685751275
 10
4.2745745761
 20
5.6872888133
 10
4.3480647343
 20
5.6888066498
 10
4.4131303383
 20
5.6903392926
 10
4.4677043575
 20
5.691885125
 10
4.5095256815
 20
5.693422835
 10
4.5375004367
 20
5.6949393193
 10
4.5516089045
 20
5.6964650307
 10
4.5530170035
 20
5.6969145842
  0
LWPOLYLINE
  5
569
100
AcDbEntity
  8
02___PRT_ALL_AXES
100
AcDbPolyline
 62
7
  6
CONTINUOUS
 90
4
 70
0
 10
3.8983787743
 20
5.5625392075
 10
3.8578493238
 20
5.5670906613
 10
3.8170655435
 20
5.573289259
 10
3.7760922448
 20
5.5810584715
  0
LWPOLYLINE
  5
56A
100
AcDbEntity
  8
02___PRT_ALL_AXES
100
AcDbPolyline
 62
7
  6
CONTINUOUS
 90
4
 70
0
 10
4.1057735332
 20
5.5553383285
 10
4.1463105469
 20
5.5507858732
 10
4.1870936827
 20
5.5445870927
 10
4.2280600628
 20
5.5368190645
  0
LWPOLYLINE
  5
56B
100
AcDbEntity
  8
02___PRT_ALL_AXES
100
AcDbPolyline
 62
7
  6
CONTINUOUS
 90
4
 70
0
 10
3.8983787743
 20
5.6215943256
 10
3.8578493238
 20
5.6261457794
 10
3.8170655435
 20
5.6323443772
 10
3.7760922448
 20
5.6401135896
  0
LWPOLYLINE
  5
56C
100
AcDbEntity
  8
02___PRT_ALL_AXES
100
AcDbPolyline
 62
7
  6
CONTINUOUS
 90
4
 70
0
 10
4.1057735332
 20
5.6143934466
 10
4.1463105469
 20
5.6098409913
 10
4.1870936827
 20
5.6036422108
 10
4.2280600628
 20
5.5958741826
  0
LWPOLYLINE
  5
56D
100
AcDbEntity
  8
02___PRT_ALL_AXES
100
AcDbPolyline
 62
7
  6
CONTINUOUS
 90
4
 70
0
 10
3.8983787743
 20
5.6806494437
 10
3.8578493238
 20
5.6852008975
 10
3.8170655435
 20
5.6913994953
 10
3.7760922448
 20
5.6991687077
  0
LWPOLYLINE
  5
56E
100
AcDbEntity
  8
02___PRT_ALL_AXES
100
AcDbPolyline
 62
7
  6
CONTINUOUS
 90
4
 70
0
 10
4.1057735332
 20
5.6734485647
 10
4.146303116
 20
5.6688970935
 10
4.1870854644
 20
5.6626987357
 10
4.2280600628
 20
5.6549293007
  0
LINE
  5
56F
100
AcDbEntity
  8
0
100
AcDbLine
 62
7
  6
CONTINUOUS
 10
3.4156877386
 20
5.6288059542
 11
3.4511353041
 21
5.6083319071
  0
LINE
  5
570
100
AcDbEntity
  8
0
100
AcDbLine
 62
7
  6
CONTINUOUS
 10
3.4156877386
 20
5.6878610723
 11
3.4511353041
 21
5.6673870252
  0
LINE
  5
571
100
AcDbEntity
  8
0
100
AcDbLine
 62
7
  6
CONTINUOUS
 10
3.4156877386
 20
5.7469161904
 11
3.4511353041
 21
5.7264421433
  0
LINE
  5
572
100
AcDbEntity
  8
02___PRT_ALL_AXES
100
AcDbLine
 62
7
  6
CONTINUOUS
 10
3.4156877386
 20
5.3335303636
 11
3.4154619806
 21
5.3337911302
  0
LINE
  5
573
100
AcDbEntity
  8
02___PRT_ALL_AXES
100
AcDbLine
 62
7
  6
CONTINUOUS
 10
3.4156877386
 20
5.3925854818
 11
3.4154619806
 21
5.3928462483
  0
LINE
  5
574
100
AcDbEntity
  8
02___PRT_ALL_AXES
100
AcDbLine
 62
7
  6
CONTINUOUS
 10
3.4156877386
 20
5.4516405999
 11
3.4154619806
 21
5.4519013664
  0
LINE
  5
575
100
AcDbEntity
  8
02___PRT_ALL_AXES
100
AcDbLine
 62
7
  6
CONTINUOUS
 10
3.4156877386
 20
5.510695718
 11
3.4154619806
 21
5.5109564845
  0
LINE
  5
576
100
AcDbEntity
  8
0
100
AcDbLine
 62
7
  6
CONTINUOUS
 10
3.7661046005
 20
4.8854227414
 11
3.7658556813
 21
4.8857104215
  0
LINE
  5
577
100
AcDbEntity
  8
0
100
AcDbLine
 62
7
  6
CONTINUOUS
 10
3.7661046005
 20
4.9247928201
 11
3.7658556813
 21
4.9250805002
  0
LINE
  5
578
100
AcDbEntity
  8
0
100
AcDbLine
 62
7
  6
CONTINUOUS
 10
3.7661046005
 20
5.0035329776
 11
3.7658556813
 21
5.0038206514
  0
LINE
  5
579
100
AcDbEntity
  8
0
100
AcDbLine
 62
7
  6
CONTINUOUS
 10
3.7661046005
 20
5.0429030563
 11
3.7658556813
 21
5.0431907149
  0
LINE
  5
57A
100
AcDbEntity
  8
0
100
AcDbLine
 62
7
  6
CONTINUOUS
 10
3.7661046005
 20
5.0822731351
 11
3.7658556813
 21
5.0825608152
  0
LINE
  5
57B
100
AcDbEntity
  8
0
100
AcDbLine
 62
7
  6
CONTINUOUS
 10
3.7661046005
 20
5.1216432138
 11
3.7658556813
 21
5.1219309002
  0
LINE
  5
57C
100
AcDbEntity
  8
0
100
AcDbLine
 62
7
  6
CONTINUOUS
 10
3.7661046005
 20
4.9641628988
 11
3.7658556813
 21
4.9644506123
  0
LWPOLYLINE
  5
57D
100
AcDbEntity
  8
02___PRT_ALL_AXES
100
AcDbPolyline
 62
7
  6
CONTINUOUS
 90
4
 70
0
 10
3.7760922448
 20
5.7656057156
 10
3.8159855327
 20
5.7743992915
 10
3.857532677
 20
5.782060561
 10
3.8983787743
 20
5.7880010376
  0
LWPOLYLINE
  5
57E
100
AcDbEntity
  8
02___PRT_ALL_AXES
100
AcDbPolyline
 62
7
  6
CONTINUOUS
 90
4
 70
0
 10
3.7760922448
 20
5.6474954794
 10
3.8170612917
 20
5.6565071561
 10
3.8578412984
 20
5.6640012479
 10
3.8983787743
 20
5.6698908014
  0
LWPOLYLINE
  5
57F
100
AcDbEntity
  8
02___PRT_ALL_AXES
100
AcDbPolyline
 62
7
  6
CONTINUOUS
 90
4
 70
0
 10
4.2280600628
 20
5.7656576472
 10
4.1870843622
 20
5.7566446247
 10
4.1463037797
 20
5.7491506869
 10
4.1057735332
 20
5.7432623252
  0
LWPOLYLINE
  5
580
100
AcDbEntity
  8
02___PRT_ALL_AXES
100
AcDbPolyline
 62
7
  6
CONTINUOUS
 90
4
 70
0
 10
3.7760922448
 20
5.7065505975
 10
3.8170612917
 20
5.7155622742
 10
3.8578412984
 20
5.723056366
 10
3.8983787743
 20
5.7289459195
  0
LWPOLYLINE
  5
581
100
AcDbEntity
  8
02___PRT_ALL_AXES
100
AcDbPolyline
 62
7
  6
CONTINUOUS
 90
8
 70
0
 10
4.3097778903
 20
5.7745124528
 10
4.3839545
 20
5.7759853687
 10
4.4487719561
 20
5.7774582845
 10
4.5026416991
 20
5.7789312003
 10
4.5442434781
 20
5.7804041162
 10
4.5725577081
 20
5.781877032
 10
4.5868904581
 20
5.7833499479
 10
4.588690327
 20
5.7840864058
  0
LWPOLYLINE
  5
582
100
AcDbEntity
  8
02___PRT_ALL_AXES
100
AcDbPolyline
 62
7
  6
CONTINUOUS
 90
3
 70
0
 10
4.2745745761
 20
5.735585289
 10
4.1929098114
 20
5.7340477508
 10
4.1057735332
 20
5.7325036828
  0
LWPOLYLINE
  5
583
100
AcDbEntity
  8
02___PRT_ALL_AXES
100
AcDbPolyline
 62
7
  6
CONTINUOUS
 90
9
 70
0
 10
4.2280600628
 20
5.7656576472
 10
4.3097778903
 20
5.7671305631
 10
4.3839545
 20
5.7686034789
 10
4.4487719561
 20
5.7700763947
 10
4.5026416991
 20
5.7715493106
 10
4.5442434781
 20
5.7730222264
 10
4.5725577081
 20
5.7744951423
 10
4.5868904581
 20
5.7759680581
 10
4.588464569
 20
5.7764437495
  0
LINE
  5
584
100
AcDbEntity
  8
02___PRT_ALL_AXES
100
AcDbLine
 62
7
  6
CONTINUOUS
 10
3.6943744172
 20
5.75675091
 11
3.7760922448
 21
5.7582238258
  0
LINE
  5
585
100
AcDbEntity
  8
02___PRT_ALL_AXES
100
AcDbLine
 62
7
  6
CONTINUOUS
 10
4.2280600628
 20
5.773039537
 11
4.3097778903
 21
5.7745124528
  0
LWPOLYLINE
  5
586
100
AcDbEntity
  8
02___PRT_ALL_AXES
100
AcDbPolyline
 62
7
  6
CONTINUOUS
 90
10
 70
0
 10
3.8983787743
 20
5.7289459195
 10
3.8117990701
 20
5.7274119661
 10
3.7308838622
 20
5.7258899165
 10
3.6574470014
 20
5.7243762183
 10
3.5920827021
 20
5.722840941
 10
3.5372180662
 20
5.7212924924
 10
3.4951244401
 20
5.7197519784
 10
3.4669282555
 20
5.718233575
 10
3.452655006
 20
5.716712319
 10
3.4511353041
 20
5.7162385423
  0
LWPOLYLINE
  5
587
100
AcDbEntity
  8
02___PRT_ALL_AXES
100
AcDbPolyline
 62
7
  6
CONTINUOUS
 90
10
 70
0
 10
4.1057735332
 20
5.7432623252
 10
4.193008783
 20
5.7448081922
 10
4.2747930929
 20
5.7463482187
 10
4.3482955298
 20
5.7478668247
 10
4.4127193935
 20
5.7493838986
 10
4.4663656734
 20
5.750897735
 10
4.5080618257
 20
5.7524145126
 10
4.536583421
 20
5.7539294857
 10
4.5513512527
 20
5.7554653566
 10
4.5530170035
 20
5.7559697023
  0
LWPOLYLINE
  5
588
100
AcDbEntity
  8
02___PRT_ALL_AXES
100
AcDbPolyline
 62
7
  6
CONTINUOUS
 90
10
 70
0
 10
3.8983787743
 20
5.7880010376
 10
3.8125698084
 20
5.7864810842
 10
3.7313988824
 20
5.7849551194
 10
3.6578083672
 20
5.7834392297
 10
3.5925878236
 20
5.781908937
 10
3.5377631566
 20
5.7803648849
 10
3.4956179761
 20
5.7788284818
 10
3.4672670525
 20
5.7773126971
 10
3.4527122882
 20
5.7757795723
 10
3.4511353041
 20
5.7752936604
  0
LINE
  5
589
100
AcDbEntity
  8
0
100
AcDbLine
 62
9
  6
CONTINUOUS
 10
4.5532572561
 20
5.8345293192
 11
3.4508950514
 21
5.8345293192
  0
LINE
  5
58A
100
AcDbEntity
  8
02___PRT_ALL_AXES
100
AcDbLine
 62
7
  6
CONTINUOUS
 10
4.7304140763
 20
5.8738993979
 11
3.2737382313
 21
5.8738993979
  0
LWPOLYLINE
  5
58B
100
AcDbEntity
  8
02___PRT_ALL_AXES
100
AcDbPolyline
 62
7
  6
CONTINUOUS
 90
5
 70
0
 10
3.8983787743
 20
5.7397045619
 10
3.8680475326
 20
5.7429565525
 10
3.8368316984
 20
5.7472531102
 10
3.8057626806
 20
5.7524477928
 10
3.7760922448
 20
5.7582238258
  0
LWPOLYLINE
  5
58C
100
AcDbEntity
  8
02___PRT_ALL_AXES
100
AcDbPolyline
 62
7
  6
CONTINUOUS
 90
4
 70
0
 10
4.1057735332
 20
5.7325036828
 10
4.1463105469
 20
5.7279512275
 10
4.1870936827
 20
5.721752447
 10
4.2280600628
 20
5.7139844189
  0
LWPOLYLINE
  5
58D
100
AcDbEntity
  8
02___PRT_ALL_AXES
100
AcDbPolyline
 62
7
  6
CONTINUOUS
 90
4
 70
0
 10
4.1057735332
 20
5.7915588009
 10
4.1463105469
 20
5.7870063456
 10
4.1870936827
 20
5.7808075651
 10
4.2280600628
 20
5.773039537
  0
LINE
  5
58E
100
AcDbEntity
  8
0
100
AcDbLine
 62
7
  6
CONTINUOUS
 10
4.588464569
 20
5.2528511094
 11
4.5530170035
 21
5.2733251565
  0
LINE
  5
58F
100
AcDbEntity
  8
0
100
AcDbLine
 62
7
  6
CONTINUOUS
 10
4.588464569
 20
5.3119062275
 11
4.5530170035
 21
5.3323802746
  0
LINE
  5
590
100
AcDbEntity
  8
02___PRT_ALL_AXES
100
AcDbLine
 62
7
  6
CONTINUOUS
 10
3.4156877386
 20
5.5697508361
 11
3.4154619806
 21
5.5700116027
  0
LINE
  5
591
100
AcDbEntity
  8
02___PRT_ALL_AXES
100
AcDbLine
 62
7
  6
CONTINUOUS
 10
3.4156877386
 20
5.6288059542
 11
3.4154619806
 21
5.6290667208
  0
LINE
  5
592
100
AcDbEntity
  8
02___PRT_ALL_AXES
100
AcDbLine
 62
7
  6
CONTINUOUS
 10
3.4156877386
 20
5.6878610723
 11
3.4154619806
 21
5.6881218389
  0
LINE
  5
593
100
AcDbEntity
  8
02___PRT_ALL_AXES
100
AcDbLine
 62
7
  6
CONTINUOUS
 10
3.4156877386
 20
5.7469161904
 11
3.4154619806
 21
5.747176957
  0
LINE
  5
594
100
AcDbEntity
  8
0
100
AcDbLine
 62
7
  6
CONTINUOUS
 10
4.2380477071
 20
4.8682815663
 11
4.2382966262
 21
4.8679938594
  0
LINE
  5
595
100
AcDbEntity
  8
02___PRT_ALL_AXES
100
AcDbLine
 62
9
  6
CONTINUOUS
 10
3.1162493821
 20
6.0313797129
 11
4.8879029254
 21
6.0313797129
  0
LINE
  5
596
100
AcDbEntity
  8
0
100
AcDbLine
 62
7
  6
CONTINUOUS
 10
4.588464569
 20
5.3709613456
 11
4.5530170035
 21
5.3914353927
  0
LINE
  5
597
100
AcDbEntity
  8
0
100
AcDbLine
 62
7
  6
CONTINUOUS
 10
4.588464569
 20
5.4300164637
 11
4.5530170035
 21
5.4504905108
  0
LINE
  5
598
100
AcDbEntity
  8
0
100
AcDbLine
 62
7
  6
CONTINUOUS
 10
4.588464569
 20
5.4890715818
 11
4.5530170035
 21
5.509545629
  0
LINE
  5
599
100
AcDbEntity
  8
0
100
AcDbLine
 62
7
  6
CONTINUOUS
 10
4.588464569
 20
5.5481266999
 11
4.5530170035
 21
5.5686007471
  0
LINE
  5
59A
100
AcDbEntity
  8
0
100
AcDbLine
 62
7
  6
CONTINUOUS
 10
4.2380477071
 20
4.907651645
 11
4.2382966262
 21
4.9073639621
  0
LINE
  5
59B
100
AcDbEntity
  8
0
100
AcDbLine
 62
7
  6
CONTINUOUS
 10
4.2380477071
 20
4.9470217238
 11
4.2382966262
 21
4.9467340373
  0
LINE
  5
59C
100
AcDbEntity
  8
0
100
AcDbLine
 62
7
  6
CONTINUOUS
 10
4.2380477071
 20
4.9863918025
 11
4.2382966262
 21
4.9861041223
  0
LINE
  5
59D
100
AcDbEntity
  8
0
100
AcDbLine
 62
7
  6
CONTINUOUS
 10
4.2380477071
 20
5.0257618812
 11
4.2382966262
 21
5.0254742206
  0
LINE
  5
59E
100
AcDbEntity
  8
0
100
AcDbLine
 62
7
  6
CONTINUOUS
 10
4.2380477071
 20
5.06513196
 11
4.2382966262
 21
5.064844288
  0
LINE
  5
59F
100
AcDbEntity
  8
0
100
AcDbLine
 62
7
  6
CONTINUOUS
 10
4.2380477071
 20
5.1045020387
 11
4.2382966262
 21
5.1042143236
  0
LINE
  5
5A0
100
AcDbEntity
  8
0
100
AcDbLine
 62
7
  6
CONTINUOUS
 10
4.588464569
 20
5.607181818
 11
4.5530170035
 21
5.6276558652
  0
LINE
  5
5A1
100
AcDbEntity
  8
0
100
AcDbLine
 62
7
  6
CONTINUOUS
 10
4.588464569
 20
5.6662369362
 11
4.5530170035
 21
5.6867109833
  0
LINE
  5
5A2
100
AcDbEntity
  8
0
100
AcDbLine
 62
7
  6
CONTINUOUS
 10
4.588464569
 20
5.7252920543
 11
4.5530170035
 21
5.7457661014
  0
LINE
  5
5A3
100
AcDbEntity
  8
0
100
AcDbLine
 62
7
  6
CONTINUOUS
 10
3.0178241853
 20
8.4762616027
 11
3.0225655544
 21
7.932954516
  0
LINE
  5
5A4
100
AcDbEntity
  8
02___PRT_ALL_AXES
100
AcDbLine
 62
7
  6
CONTINUOUS
 10
3.0178241853
 20
6.8738993979
 11
3.0178241853
 21
6.5628757759
  0
LINE
  5
5A5
100
AcDbEntity
  8
AXIS
100
AcDbLine
 62
7
  6
CONTINUOUS
 10
3.0178241853
 20
6.8738993979
 11
3.0178241853
 21
7.932954516
  0
LINE
  5
5A6
100
AcDbEntity
  8
AXIS
100
AcDbLine
 62
7
  6
CONTINUOUS
 10
3.0178241853
 20
8.4762616027
 11
3.0178241853
 21
9.5353167208
  0
LINE
  5
5A7
100
AcDbEntity
  8
02___PRT_ALL_AXES
100
AcDbLine
 62
7
  6
CONTINUOUS
 10
3.1162493821
 20
6.464450579
 11
3.1162493821
 21
6.0313797129
  0
LINE
  5
5A8
100
AcDbEntity
  8
0
100
AcDbLine
 62
7
  6
CONTINUOUS
 10
3.0178241853
 20
9.5353167208
 11
3.0225211816
 21
9.8044074614
  0
LINE
  5
5A9
100
AcDbEntity
  8
0
100
AcDbLine
 62
7
  6
CONTINUOUS
 10
4.588464569
 20
5.7843471724
 11
4.5530170035
 21
5.8048212195
  0
LINE
  5
5AA
100
AcDbEntity
  8
02___PRT_ALL_AXES
100
AcDbLine
 62
7
  6
CONTINUOUS
 10
4.588690327
 20
5.2525903428
 11
4.588464569
 21
5.2528511094
  0
LINE
  5
5AB
100
AcDbEntity
  8
02___PRT_ALL_AXES
100
AcDbLine
 62
9
  6
CONTINUOUS
 10
3.1162493821
 20
6.464450579
 11
4.8879029254
 21
6.464450579
  0
LINE
  5
5AC
100
AcDbEntity
  8
02___PRT_ALL_AXES
100
AcDbLine
 62
7
  6
CONTINUOUS
 10
4.9469580435
 20
6.5235056971
 11
3.057194264
 21
6.5235056971
  0
LINE
  5
5AD
100
AcDbEntity
  8
02___PRT_ALL_AXES
100
AcDbLine
 62
9
  6
CONTINUOUS
 10
4.9863281223
 20
6.5628757759
 11
3.0178241853
 21
6.5628757759
  0
LINE
  5
5AE
100
AcDbEntity
  8
02___PRT_ALL_AXES
100
AcDbLine
 62
7
  6
CONTINUOUS
 10
4.588690327
 20
5.3116454609
 11
4.588464569
 21
5.3119062275
  0
LINE
  5
5AF
100
AcDbEntity
  8
02___PRT_ALL_AXES
100
AcDbLine
 62
7
  6
CONTINUOUS
 10
4.588690327
 20
5.370700579
 11
4.588464569
 21
5.3709613456
  0
LINE
  5
5B0
100
AcDbEntity
  8
02___PRT_ALL_AXES
100
AcDbLine
 62
7
  6
CONTINUOUS
 10
4.588690327
 20
5.4297556971
 11
4.588464569
 21
5.4300164637
  0
LINE
  5
5B1
100
AcDbEntity
  8
02___PRT_ALL_AXES
100
AcDbLine
 62
7
  6
CONTINUOUS
 10
4.588690327
 20
5.4888108153
 11
4.588464569
 21
5.4890715818
  0
LINE
  5
5B2
100
AcDbEntity
  8
02___PRT_ALL_AXES
100
AcDbLine
 62
7
  6
CONTINUOUS
 10
4.588690327
 20
5.5478659334
 11
4.588464569
 21
5.5481266999
  0
LINE
  5
5B3
100
AcDbEntity
  8
0
100
AcDbLine
 62
7
  6
CONTINUOUS
 10
3.4154619806
 20
5.7545588468
 11
3.4154619806
 21
5.747176957
  0
LINE
  5
5B4
100
AcDbEntity
  8
0
100
AcDbLine
 62
7
  6
CONTINUOUS
 10
3.4154619806
 20
5.6955037286
 11
3.4154619806
 21
5.6881218389
  0
LINE
  5
5B5
100
AcDbEntity
  8
0
100
AcDbLine
 62
7
  6
CONTINUOUS
 10
3.4154619806
 20
5.6364486105
 11
3.4154619806
 21
5.6290667208
  0
LINE
  5
5B6
100
AcDbEntity
  8
0
100
AcDbLine
 62
7
  6
CONTINUOUS
 10
3.4154619806
 20
5.5773934924
 11
3.4154619806
 21
5.5700116027
  0
LINE
  5
5B7
100
AcDbEntity
  8
0
100
AcDbLine
 62
7
  6
CONTINUOUS
 10
3.4154619806
 20
5.5183383743
 11
3.4154619806
 21
5.5109564845
  0
LINE
  5
5B8
100
AcDbEntity
  8
0
100
AcDbLine
 62
7
  6
CONTINUOUS
 10
3.4154619806
 20
5.4592832562
 11
3.4154619806
 21
5.4519013664
  0
LINE
  5
5B9
100
AcDbEntity
  8
0
100
AcDbLine
 62
7
  6
CONTINUOUS
 10
3.4154619806
 20
5.4002281381
 11
3.4154619806
 21
5.3928462483
  0
LINE
  5
5BA
100
AcDbEntity
  8
0
100
AcDbLine
 62
7
  6
CONTINUOUS
 10
3.4154619806
 20
5.34117302
 11
3.4154619806
 21
5.3337911302
  0
LINE
  5
5BB
100
AcDbEntity
  8
0
100
AcDbLine
 62
7
  6
CONTINUOUS
 10
3.4154619806
 20
5.2821179019
 11
3.4154619806
 21
5.2747360121
  0
LINE
  5
5BC
100
AcDbEntity
  8
0
100
AcDbLine
 62
7
  6
CONTINUOUS
 10
3.4154619806
 20
5.2230627838
 11
3.4154619806
 21
5.215680894
  0
LINE
  5
5BD
100
AcDbEntity
  8
02___PRT_ALL_AXES
100
AcDbLine
 62
7
  6
CONTINUOUS
 10
3.4508950514
 20
5.8345293192
 11
3.4508950514
 21
5.7750161398
  0
LINE
  5
5BE
100
AcDbEntity
  8
02___PRT_ALL_AXES
100
AcDbLine
 62
7
  6
CONTINUOUS
 10
3.4508950514
 20
5.726719664
 11
3.4508950514
 21
5.7159610216
  0
LINE
  5
5BF
100
AcDbEntity
  8
02___PRT_ALL_AXES
100
AcDbLine
 62
7
  6
CONTINUOUS
 10
3.4508950514
 20
5.6676645459
 11
3.4508950514
 21
5.6569059035
  0
LINE
  5
5C0
100
AcDbEntity
  8
02___PRT_ALL_AXES
100
AcDbLine
 62
7
  6
CONTINUOUS
 10
3.4508950514
 20
5.6086094278
 11
3.4508950514
 21
5.5978507854
  0
LINE
  5
5C1
100
AcDbEntity
  8
02___PRT_ALL_AXES
100
AcDbLine
 62
7
  6
CONTINUOUS
 10
3.4508950514
 20
5.5495543097
 11
3.4508950514
 21
5.5387956673
  0
LINE
  5
5C2
100
AcDbEntity
  8
02___PRT_ALL_AXES
100
AcDbLine
 62
7
  6
CONTINUOUS
 10
3.4508950514
 20
5.4904991915
 11
3.4508950514
 21
5.4797405492
  0
LINE
  5
5C3
100
AcDbEntity
  8
02___PRT_ALL_AXES
100
AcDbLine
 62
7
  6
CONTINUOUS
 10
3.4508950514
 20
5.4314440734
 11
3.4508950514
 21
5.4206854311
  0
LINE
  5
5C4
100
AcDbEntity
  8
02___PRT_ALL_AXES
100
AcDbLine
 62
7
  6
CONTINUOUS
 10
3.4508950514
 20
5.3723889553
 11
3.4508950514
 21
5.361630313
  0
LINE
  5
5C5
100
AcDbEntity
  8
02___PRT_ALL_AXES
100
AcDbLine
 62
7
  6
CONTINUOUS
 10
3.4508950514
 20
5.3133338372
 11
3.4508950514
 21
5.3025751949
  0
LINE
  5
5C6
100
AcDbEntity
  8
02___PRT_ALL_AXES
100
AcDbLine
 62
7
  6
CONTINUOUS
 10
3.4508950514
 20
5.2542787191
 11
3.4508950514
 21
5.2435200768
  0
LINE
  5
5C7
100
AcDbEntity
  8
02___PRT_ALL_AXES
100
AcDbLine
 62
7
  6
CONTINUOUS
 10
3.4508950514
 20
5.195223601
 11
3.4508950514
 21
5.1652379806
  0
LINE
  5
5C8
100
AcDbEntity
  8
02___PRT_ALL_AXES
100
AcDbLine
 62
7
  6
CONTINUOUS
 10
4.588690327
 20
5.6069210515
 11
4.588464569
 21
5.607181818
  0
LINE
  5
5C9
100
AcDbEntity
  8
02___PRT_ALL_AXES
100
AcDbLine
 62
7
  6
CONTINUOUS
 10
4.588690327
 20
5.6659761696
 11
4.588464569
 21
5.6662369362
  0
LINE
  5
5CA
100
AcDbEntity
  8
02___PRT_ALL_AXES
100
AcDbLine
 62
7
  6
CONTINUOUS
 10
4.588690327
 20
5.7250312877
 11
4.588464569
 21
5.7252920543
  0
LINE
  5
5CB
100
AcDbEntity
  8
02___PRT_ALL_AXES
100
AcDbLine
 62
7
  6
CONTINUOUS
 10
4.588690327
 20
5.7840864058
 11
4.588464569
 21
5.7843471724
  0
LINE
  5
5CC
100
AcDbEntity
  8
0
100
AcDbLine
 62
7
  6
CONTINUOUS
 10
4.219577012
 20
4.8394316821
 11
4.2195048003
 21
4.8396294933
  0
LINE
  5
5CD
100
AcDbEntity
  8
02___PRT_ALL_AXES
100
AcDbLine
 62
7
  6
CONTINUOUS
 10
3.0178241853
 20
6.8738993979
 11
4.9863281223
 21
6.8738993979
  0
LINE
  5
5CE
100
AcDbEntity
  8
AXIS
100
AcDbLine
 62
7
  6
CONTINUOUS
 10
3.0178241853
 20
6.8738993979
 11
4.9863281223
 21
6.8738993979
  0
LINE
  5
5CF
100
AcDbEntity
  8
AXIS
100
AcDbLine
 62
7
  6
CONTINUOUS
 10
3.7658556813
 20
5.1238993979
 11
3.7658556813
 21
5.121930894
  0
LINE
  5
5D0
100
AcDbEntity
  8
AXIS
100
AcDbLine
 62
7
  6
CONTINUOUS
 10
3.7658556813
 20
5.0845293192
 11
3.7658556813
 21
5.0825608153
  0
LINE
  5
5D1
100
AcDbEntity
  8
AXIS
100
AcDbLine
 62
7
  6
CONTINUOUS
 10
3.7658556813
 20
5.0451592405
 11
3.7658556813
 21
5.0431907365
  0
LINE
  5
5D2
100
AcDbEntity
  8
AXIS
100
AcDbLine
 62
7
  6
CONTINUOUS
 10
3.7658556813
 20
5.0057891617
 11
3.7658556813
 21
5.0038206578
  0
LINE
  5
5D3
100
AcDbEntity
  8
AXIS
100
AcDbLine
 62
7
  6
CONTINUOUS
 10
3.7658556813
 20
4.966419083
 11
3.7658556813
 21
4.964450579
  0
LINE
  5
5D4
100
AcDbEntity
  8
AXIS
100
AcDbLine
 62
7
  6
CONTINUOUS
 10
3.7658556813
 20
4.9270490042
 11
3.7658556813
 21
4.9250805003
  0
LINE
  5
5D5
100
AcDbEntity
  8
AXIS
100
AcDbLine
 62
7
  6
CONTINUOUS
 10
3.7658556813
 20
4.8876789255
 11
3.7658556813
 21
4.8857104216
  0
LINE
  5
5D6
100
AcDbEntity
  8
02___PRT_ALL_AXES
100
AcDbLine
 62
7
  6
CONTINUOUS
 10
3.7760922448
 20
5.2267277628
 11
3.7760922448
 21
5.2341096526
  0
LINE
  5
5D7
100
AcDbEntity
  8
02___PRT_ALL_AXES
100
AcDbLine
 62
7
  6
CONTINUOUS
 10
3.7760922448
 20
5.2857828809
 11
3.7760922448
 21
5.2931647707
  0
LINE
  5
5D8
100
AcDbEntity
  8
02___PRT_ALL_AXES
100
AcDbLine
 62
7
  6
CONTINUOUS
 10
3.7760922448
 20
5.3448379991
 11
3.7760922448
 21
5.3522198888
  0
LINE
  5
5D9
100
AcDbEntity
  8
02___PRT_ALL_AXES
100
AcDbLine
 62
7
  6
CONTINUOUS
 10
3.7760922448
 20
5.4038931172
 11
3.7760922448
 21
5.4112750069
  0
LINE
  5
5DA
100
AcDbEntity
  8
02___PRT_ALL_AXES
100
AcDbLine
 62
7
  6
CONTINUOUS
 10
3.7760922448
 20
5.4629482353
 11
3.7760922448
 21
5.470330125
  0
LINE
  5
5DB
100
AcDbEntity
  8
02___PRT_ALL_AXES
100
AcDbLine
 62
7
  6
CONTINUOUS
 10
3.7760922448
 20
5.5220033534
 11
3.7760922448
 21
5.5293852431
  0
LINE
  5
5DC
100
AcDbEntity
  8
02___PRT_ALL_AXES
100
AcDbLine
 62
7
  6
CONTINUOUS
 10
3.7760922448
 20
5.5810584715
 11
3.7760922448
 21
5.5884403613
  0
LINE
  5
5DD
100
AcDbEntity
  8
02___PRT_ALL_AXES
100
AcDbLine
 62
7
  6
CONTINUOUS
 10
3.7760922448
 20
5.6401135896
 11
3.7760922448
 21
5.6474954794
  0
LINE
  5
5DE
100
AcDbEntity
  8
02___PRT_ALL_AXES
100
AcDbLine
 62
7
  6
CONTINUOUS
 10
3.7760922448
 20
5.6991687077
 11
3.7760922448
 21
5.7065505975
  0
LINE
  5
5DF
100
AcDbEntity
  8
02___PRT_ALL_AXES
100
AcDbLine
 62
7
  6
CONTINUOUS
 10
3.7760922448
 20
5.7582238258
 11
3.7760922448
 21
5.7656057156
  0
LINE
  5
5E0
100
AcDbEntity
  8
0
100
AcDbLine
 62
7
  6
CONTINUOUS
 10
3.7983359963
 20
4.8364978231
 11
3.7983359963
 21
4.7971277444
  0
LINE
  5
5E1
100
AcDbEntity
  8
0
100
AcDbLine
 62
7
  6
CONTINUOUS
 10
3.8170367837
 20
4.8384663271
 11
3.8170367837
 21
4.8364978231
  0
LWPOLYLINE
  5
5E2
100
AcDbEntity
  8
0
100
AcDbPolyline
 62
7
  6
CONTINUOUS
 90
6
 70
0
 10
3.8983787743
 20
5.1652379806
 10
3.8985627915
 20
5.1530408776
 10
3.8990977511
 20
5.1420561232
 10
3.8999347614
 20
5.1333568638
 10
3.9009969796
 20
5.1277843589
 10
3.9021854888
 20
5.1258679019
  0
LWPOLYLINE
  5
5E3
100
AcDbEntity
  8
0
100
AcDbPolyline
 62
7
  6
CONTINUOUS
 90
6
 70
0
 10
3.8983787743
 20
5.8345293192
 10
3.8981951939
 20
5.8467228335
 10
3.8976651274
 20
5.8577056558
 10
3.8968464009
 20
5.8664057203
 10
3.8958255927
 20
5.8719811001
 10
3.8947069401
 20
5.8738993979
  0
LINE
  5
5E4
100
AcDbEntity
  8
0
100
AcDbLine
 62
7
  6
CONTINUOUS
 10
3.8983787743
 20
5.8345293192
 11
3.8983787743
 21
5.7880010376
  0
LINE
  5
5E5
100
AcDbEntity
  8
02___PRT_ALL_AXES
100
AcDbLine
 62
7
  6
CONTINUOUS
 10
3.8983787743
 20
5.7397045619
 11
3.8983787743
 21
5.7289459195
  0
LINE
  5
5E6
100
AcDbEntity
  8
02___PRT_ALL_AXES
100
AcDbLine
 62
7
  6
CONTINUOUS
 10
3.8983787743
 20
5.6806494437
 11
3.8983787743
 21
5.6698908014
  0
LINE
  5
5E7
100
AcDbEntity
  8
02___PRT_ALL_AXES
100
AcDbLine
 62
7
  6
CONTINUOUS
 10
3.8983787743
 20
5.6215943256
 11
3.8983787743
 21
5.6108356833
  0
LINE
  5
5E8
100
AcDbEntity
  8
02___PRT_ALL_AXES
100
AcDbLine
 62
7
  6
CONTINUOUS
 10
3.8983787743
 20
5.5625392075
 11
3.8983787743
 21
5.5517805652
  0
LINE
  5
5E9
100
AcDbEntity
  8
02___PRT_ALL_AXES
100
AcDbLine
 62
7
  6
CONTINUOUS
 10
3.8983787743
 20
5.5034840894
 11
3.8983787743
 21
5.4927254471
  0
LINE
  5
5EA
100
AcDbEntity
  8
02___PRT_ALL_AXES
100
AcDbLine
 62
7
  6
CONTINUOUS
 10
3.8983787743
 20
5.4444289713
 11
3.8983787743
 21
5.433670329
  0
LINE
  5
5EB
100
AcDbEntity
  8
02___PRT_ALL_AXES
100
AcDbLine
 62
7
  6
CONTINUOUS
 10
3.8983787743
 20
5.3853738532
 11
3.8983787743
 21
5.3746152109
  0
LINE
  5
5EC
100
AcDbEntity
  8
02___PRT_ALL_AXES
100
AcDbLine
 62
7
  6
CONTINUOUS
 10
3.8983787743
 20
5.3263187351
 11
3.8983787743
 21
5.3155600927
  0
LINE
  5
5ED
100
AcDbEntity
  8
02___PRT_ALL_AXES
100
AcDbLine
 62
7
  6
CONTINUOUS
 10
3.8983787743
 20
5.267263617
 11
3.8983787743
 21
5.2565049746
  0
LINE
  5
5EE
100
AcDbEntity
  8
0
100
AcDbLine
 62
7
  6
CONTINUOUS
 10
3.8983787743
 20
5.2082084989
 11
3.8983787743
 21
5.1652379806
  0
LINE
  5
5EF
100
AcDbEntity
  8
0
100
AcDbLine
 62
7
  6
CONTINUOUS
 10
4.1057735332
 20
5.8345293192
 11
4.1057735332
 21
5.7915588009
  0
LINE
  5
5F0
100
AcDbEntity
  8
02___PRT_ALL_AXES
100
AcDbLine
 62
7
  6
CONTINUOUS
 10
4.1057735332
 20
5.7432623252
 11
4.1057735332
 21
5.7325036828
  0
LINE
  5
5F1
100
AcDbEntity
  8
02___PRT_ALL_AXES
100
AcDbLine
 62
7
  6
CONTINUOUS
 10
4.1057735332
 20
5.6842072071
 11
4.1057735332
 21
5.6734485647
  0
LINE
  5
5F2
100
AcDbEntity
  8
02___PRT_ALL_AXES
100
AcDbLine
 62
7
  6
CONTINUOUS
 10
4.1057735332
 20
5.6251520889
 11
4.1057735332
 21
5.6143934466
  0
LINE
  5
5F3
100
AcDbEntity
  8
02___PRT_ALL_AXES
100
AcDbLine
 62
7
  6
CONTINUOUS
 10
4.1057735332
 20
5.5660969708
 11
4.1057735332
 21
5.5553383285
  0
LINE
  5
5F4
100
AcDbEntity
  8
02___PRT_ALL_AXES
100
AcDbLine
 62
7
  6
CONTINUOUS
 10
4.1057735332
 20
5.5070418527
 11
4.1057735332
 21
5.4962832104
  0
LINE
  5
5F5
100
AcDbEntity
  8
02___PRT_ALL_AXES
100
AcDbLine
 62
7
  6
CONTINUOUS
 10
4.1057735332
 20
5.4479867346
 11
4.1057735332
 21
5.4372280923
  0
LINE
  5
5F6
100
AcDbEntity
  8
02___PRT_ALL_AXES
100
AcDbLine
 62
7
  6
CONTINUOUS
 10
4.1057735332
 20
5.3889316165
 11
4.1057735332
 21
5.3781729742
  0
LINE
  5
5F7
100
AcDbEntity
  8
02___PRT_ALL_AXES
100
AcDbLine
 62
7
  6
CONTINUOUS
 10
4.1057735332
 20
5.3298764984
 11
4.1057735332
 21
5.3191178561
  0
LINE
  5
5F8
100
AcDbEntity
  8
02___PRT_ALL_AXES
100
AcDbLine
 62
7
  6
CONTINUOUS
 10
4.1057735332
 20
5.2708213803
 11
4.1057735332
 21
5.2600627379
  0
LINE
  5
5F9
100
AcDbEntity
  8
0
100
AcDbLine
 62
7
  6
CONTINUOUS
 10
4.1057735332
 20
5.2117662622
 11
4.1057735332
 21
5.1652379806
  0
LINE
  5
5FA
100
AcDbEntity
  8
0
100
AcDbLine
 62
7
  6
CONTINUOUS
 10
4.1871155239
 20
4.8384663271
 11
4.1871155239
 21
4.8364978231
  0
LINE
  5
5FB
100
AcDbEntity
  8
0
100
AcDbLine
 62
7
  6
CONTINUOUS
 10
4.2058163113
 20
4.8364978231
 11
4.2058163113
 21
4.7971277444
  0
LWPOLYLINE
  5
5FC
100
AcDbEntity
  8
0
100
AcDbPolyline
 62
7
  6
CONTINUOUS
 90
6
 70
0
 10
4.1057735332
 20
5.8345293192
 10
4.1059571137
 20
5.8467228335
 10
4.1064871802
 20
5.8577056558
 10
4.1073059066
 20
5.8664057203
 10
4.1083267149
 20
5.8719811001
 10
4.1094453675
 20
5.8738993979
  0
LWPOLYLINE
  5
5FD
100
AcDbEntity
  8
0
100
AcDbPolyline
 62
7
  6
CONTINUOUS
 90
6
 70
0
 10
4.1057735332
 20
5.1652379806
 10
4.105589516
 20
5.1530408776
 10
4.1050545565
 20
5.1420561232
 10
4.1042175462
 20
5.1333568638
 10
4.103155328
 20
5.1277843589
 10
4.1019668188
 20
5.1258679019
  0
LINE
  5
5FE
100
AcDbEntity
  8
02___PRT_ALL_AXES
100
AcDbLine
 62
7
  6
CONTINUOUS
 10
4.2280600628
 20
5.773039537
 11
4.2280600628
 21
5.7656576472
  0
LINE
  5
5FF
100
AcDbEntity
  8
02___PRT_ALL_AXES
100
AcDbLine
 62
7
  6
CONTINUOUS
 10
4.2280600628
 20
5.7139844189
 11
4.2280600628
 21
5.7066025291
  0
LINE
  5
600
100
AcDbEntity
  8
02___PRT_ALL_AXES
100
AcDbLine
 62
7
  6
CONTINUOUS
 10
4.2280600628
 20
5.6549293007
 11
4.2280600628
 21
5.647547411
  0
LINE
  5
601
100
AcDbEntity
  8
02___PRT_ALL_AXES
100
AcDbLine
 62
7
  6
CONTINUOUS
 10
4.2280600628
 20
5.5958741826
 11
4.2280600628
 21
5.5884922929
  0
LINE
  5
602
100
AcDbEntity
  8
02___PRT_ALL_AXES
100
AcDbLine
 62
7
  6
CONTINUOUS
 10
4.2280600628
 20
5.5368190645
 11
4.2280600628
 21
5.5294371748
  0
LINE
  5
603
100
AcDbEntity
  8
02___PRT_ALL_AXES
100
AcDbLine
 62
7
  6
CONTINUOUS
 10
4.2280600628
 20
5.4777639464
 11
4.2280600628
 21
5.4703820567
  0
LINE
  5
604
100
AcDbEntity
  8
02___PRT_ALL_AXES
100
AcDbLine
 62
7
  6
CONTINUOUS
 10
4.2280600628
 20
5.4187088283
 11
4.2280600628
 21
5.4113269385
  0
LINE
  5
605
100
AcDbEntity
  8
02___PRT_ALL_AXES
100
AcDbLine
 62
7
  6
CONTINUOUS
 10
4.2280600628
 20
5.3596537102
 11
4.2280600628
 21
5.3522718204
  0
LINE
  5
606
100
AcDbEntity
  8
02___PRT_ALL_AXES
100
AcDbLine
 62
7
  6
CONTINUOUS
 10
4.2280600628
 20
5.3005985921
 11
4.2280600628
 21
5.2932167023
  0
LINE
  5
607
100
AcDbEntity
  8
02___PRT_ALL_AXES
100
AcDbLine
 62
7
  6
CONTINUOUS
 10
4.2280600628
 20
5.241543474
 11
4.2280600628
 21
5.2341615842
  0
LINE
  5
608
100
AcDbEntity
  8
AXIS
100
AcDbLine
 62
7
  6
CONTINUOUS
 10
4.2382966262
 20
5.1042143586
 11
4.2382966262
 21
5.1022458546
  0
LINE
  5
609
100
AcDbEntity
  8
AXIS
100
AcDbLine
 62
7
  6
CONTINUOUS
 10
4.2382966262
 20
5.0648442798
 11
4.2382966262
 21
5.0628757759
  0
LINE
  5
60A
100
AcDbEntity
  8
AXIS
100
AcDbLine
 62
7
  6
CONTINUOUS
 10
4.2382966262
 20
5.0254742011
 11
4.2382966262
 21
5.0235056971
  0
LINE
  5
60B
100
AcDbEntity
  8
AXIS
100
AcDbLine
 62
7
  6
CONTINUOUS
 10
4.2382966262
 20
4.9861041223
 11
4.2382966262
 21
4.9841356184
  0
LINE
  5
60C
100
AcDbEntity
  8
AXIS
100
AcDbLine
 62
7
  6
CONTINUOUS
 10
4.2382966262
 20
4.9467340436
 11
4.2382966262
 21
4.9447655397
  0
LINE
  5
60D
100
AcDbEntity
  8
AXIS
100
AcDbLine
 62
7
  6
CONTINUOUS
 10
4.2382966262
 20
4.9073639649
 11
4.2382966262
 21
4.9053954609
  0
LINE
  5
60E
100
AcDbEntity
  8
AXIS
100
AcDbLine
 62
7
  6
CONTINUOUS
 10
4.2382966262
 20
4.8679938861
 11
4.2382966262
 21
4.8660253822
  0
LINE
  5
60F
100
AcDbEntity
  8
02___PRT_ALL_AXES
100
AcDbLine
 62
7
  6
CONTINUOUS
 10
4.5532572561
 20
5.8345293192
 11
4.5532572561
 21
5.8045436988
  0
LINE
  5
610
100
AcDbEntity
  8
02___PRT_ALL_AXES
100
AcDbLine
 62
7
  6
CONTINUOUS
 10
4.5532572561
 20
5.756247223
 11
4.5532572561
 21
5.7454885807
  0
LINE
  5
611
100
AcDbEntity
  8
02___PRT_ALL_AXES
100
AcDbLine
 62
7
  6
CONTINUOUS
 10
4.5532572561
 20
5.6971921049
 11
4.5532572561
 21
5.6864334626
  0
LINE
  5
612
100
AcDbEntity
  8
02___PRT_ALL_AXES
100
AcDbLine
 62
7
  6
CONTINUOUS
 10
4.5532572561
 20
5.6381369868
 11
4.5532572561
 21
5.6273783445
  0
LINE
  5
613
100
AcDbEntity
  8
02___PRT_ALL_AXES
100
AcDbLine
 62
7
  6
CONTINUOUS
 10
4.5532572561
 20
5.5790818687
 11
4.5532572561
 21
5.5683232264
  0
LINE
  5
614
100
AcDbEntity
  8
02___PRT_ALL_AXES
100
AcDbLine
 62
7
  6
CONTINUOUS
 10
4.5532572561
 20
5.5200267506
 11
4.5532572561
 21
5.5092681083
  0
LINE
  5
615
100
AcDbEntity
  8
02___PRT_ALL_AXES
100
AcDbLine
 62
7
  6
CONTINUOUS
 10
4.5532572561
 20
5.4609716325
 11
4.5532572561
 21
5.4502129901
  0
LINE
  5
616
100
AcDbEntity
  8
02___PRT_ALL_AXES
100
AcDbLine
 62
7
  6
CONTINUOUS
 10
4.5532572561
 20
5.4019165144
 11
4.5532572561
 21
5.391157872
  0
LINE
  5
617
100
AcDbEntity
  8
02___PRT_ALL_AXES
100
AcDbLine
 62
7
  6
CONTINUOUS
 10
4.5532572561
 20
5.3428613963
 11
4.5532572561
 21
5.3321027539
  0
LINE
  5
618
100
AcDbEntity
  8
02___PRT_ALL_AXES
100
AcDbLine
 62
7
  6
CONTINUOUS
 10
4.5532572561
 20
5.2838062782
 11
4.5532572561
 21
5.2730476358
  0
LINE
  5
619
100
AcDbEntity
  8
02___PRT_ALL_AXES
100
AcDbLine
 62
7
  6
CONTINUOUS
 10
4.5532572561
 20
5.22475116
 11
4.5532572561
 21
5.1652379806
  0
LINE
  5
61A
100
AcDbEntity
  8
0
100
AcDbLine
 62
7
  6
CONTINUOUS
 10
4.588690327
 20
5.245208453
 11
4.588690327
 21
5.2525903428
  0
LINE
  5
61B
100
AcDbEntity
  8
0
100
AcDbLine
 62
7
  6
CONTINUOUS
 10
4.588690327
 20
5.3042635712
 11
4.588690327
 21
5.3116454609
  0
LINE
  5
61C
100
AcDbEntity
  8
0
100
AcDbLine
 62
7
  6
CONTINUOUS
 10
4.588690327
 20
5.3633186893
 11
4.588690327
 21
5.370700579
  0
LINE
  5
61D
100
AcDbEntity
  8
0
100
AcDbLine
 62
7
  6
CONTINUOUS
 10
4.588690327
 20
5.4223738074
 11
4.588690327
 21
5.4297556971
  0
LINE
  5
61E
100
AcDbEntity
  8
0
100
AcDbLine
 62
7
  6
CONTINUOUS
 10
4.588690327
 20
5.4814289255
 11
4.588690327
 21
5.4888108153
  0
LINE
  5
61F
100
AcDbEntity
  8
0
100
AcDbLine
 62
7
  6
CONTINUOUS
 10
4.588690327
 20
5.5404840436
 11
4.588690327
 21
5.5478659334
  0
LINE
  5
620
100
AcDbEntity
  8
0
100
AcDbLine
 62
7
  6
CONTINUOUS
 10
4.588690327
 20
5.5995391617
 11
4.588690327
 21
5.6069210515
  0
LINE
  5
621
100
AcDbEntity
  8
0
100
AcDbLine
 62
7
  6
CONTINUOUS
 10
4.588690327
 20
5.6585942798
 11
4.588690327
 21
5.6659761696
  0
LINE
  5
622
100
AcDbEntity
  8
0
100
AcDbLine
 62
7
  6
CONTINUOUS
 10
4.588690327
 20
5.7176493979
 11
4.588690327
 21
5.7250312877
  0
LINE
  5
623
100
AcDbEntity
  8
0
100
AcDbLine
 62
7
  6
CONTINUOUS
 10
4.588690327
 20
5.776704516
 11
4.588690327
 21
5.7840864058
  0
LINE
  5
624
100
AcDbEntity
  8
0
100
AcDbLine
 62
7
  6
CONTINUOUS
 10
3.7720954854
 20
4.8519114882
 11
3.7721638141
 21
4.8520986028
  0
LINE
  5
625
100
AcDbEntity
  8
02___PRT_ALL_AXES
100
AcDbLine
 62
7
  6
CONTINUOUS
 10
3.4154619806
 20
5.7545588468
 11
3.4156877386
 21
5.7548196133
  0
LINE
  5
626
100
AcDbEntity
  8
02___PRT_ALL_AXES
100
AcDbLine
 62
7
  6
CONTINUOUS
 10
3.4154619806
 20
5.6955037286
 11
3.4156877386
 21
5.6957644952
  0
LINE
  5
627
100
AcDbEntity
  8
02___PRT_ALL_AXES
100
AcDbLine
 62
7
  6
CONTINUOUS
 10
3.4154619806
 20
5.6364486105
 11
3.4156877386
 21
5.6367093771
  0
LINE
  5
628
100
AcDbEntity
  8
02___PRT_ALL_AXES
100
AcDbLine
 62
7
  6
CONTINUOUS
 10
3.4154619806
 20
5.5773934924
 11
3.4156877386
 21
5.577654259
  0
LINE
  5
629
100
AcDbEntity
  8
02___PRT_ALL_AXES
100
AcDbLine
 62
7
  6
CONTINUOUS
 10
3.4154619806
 20
5.5183383743
 11
3.4156877386
 21
5.5185991409
  0
LINE
  5
62A
100
AcDbEntity
  8
AXIS
100
AcDbLine
 62
7
  6
CONTINUOUS
 10
3.0178241853
 20
7.932954516
 11
4.9863281223
 21
7.932954516
  0
LINE
  5
62B
100
AcDbEntity
  8
02___PRT_ALL_AXES
100
AcDbLine
 62
7
  6
CONTINUOUS
 10
4.8879029254
 20
6.464450579
 11
4.8879029254
 21
6.0313797129
  0
LINE
  5
62C
100
AcDbEntity
  8
02___PRT_ALL_AXES
100
AcDbLine
 62
7
  6
CONTINUOUS
 10
3.4154619806
 20
5.4592832562
 11
3.4156877386
 21
5.4595440228
  0
LINE
  5
62D
100
AcDbEntity
  8
02___PRT_ALL_AXES
100
AcDbLine
 62
7
  6
CONTINUOUS
 10
3.4154619806
 20
5.4002281381
 11
3.4156877386
 21
5.4004889047
  0
LINE
  5
62E
100
AcDbEntity
  8
02___PRT_ALL_AXES
100
AcDbLine
 62
7
  6
CONTINUOUS
 10
3.4154619806
 20
5.34117302
 11
3.4156877386
 21
5.3414337866
  0
LINE
  5
62F
100
AcDbEntity
  8
02___PRT_ALL_AXES
100
AcDbLine
 62
7
  6
CONTINUOUS
 10
3.4154619806
 20
5.2821179019
 11
3.4156877386
 21
5.2823786684
  0
LINE
  5
630
100
AcDbEntity
  8
0
100
AcDbLine
 62
7
  6
CONTINUOUS
 10
4.9863281223
 20
9.5353167208
 11
4.9816311259
 21
9.8044074614
  0
LINE
  5
631
100
AcDbEntity
  8
02___PRT_ALL_AXES
100
AcDbLine
 62
7
  6
CONTINUOUS
 10
4.9863281223
 20
6.8738993979
 11
4.9863281223
 21
6.5628757759
  0
LINE
  5
632
100
AcDbEntity
  8
AXIS
100
AcDbLine
 62
7
  6
CONTINUOUS
 10
4.9863281223
 20
6.8738993979
 11
4.9863281223
 21
7.932954516
  0
LINE
  5
633
100
AcDbEntity
  8
AXIS
100
AcDbLine
 62
7
  6
CONTINUOUS
 10
4.9863281223
 20
8.4762616027
 11
4.9863281223
 21
9.5353167208
  0
LINE
  5
634
100
AcDbEntity
  8
0
100
AcDbLine
 62
7
  6
CONTINUOUS
 10
4.9863281223
 20
8.4762616027
 11
4.9815867532
 21
7.932954516
  0
LINE
  5
635
100
AcDbEntity
  8
02___PRT_ALL_AXES
100
AcDbLine
 62
7
  6
CONTINUOUS
 10
3.4154619806
 20
5.2230627838
 11
3.4156877386
 21
5.2233235503
  0
LINE
  5
636
100
AcDbEntity
  8
0
100
AcDbLine
 62
7
  6
CONTINUOUS
 10
3.4511353041
 20
5.7752936604
 11
3.4156877386
 21
5.7548196133
  0
LINE
  5
637
100
AcDbEntity
  8
0
100
AcDbLine
 62
7
  6
CONTINUOUS
 10
3.7658556813
 20
5.1219309002
 11
3.7660560059
 21
5.1221889657
  0
LINE
  5
638
100
AcDbEntity
  8
0
100
AcDbLine
 62
7
  6
CONTINUOUS
 10
3.7661046004
 20
5.1241870781
 11
3.7658556813
 21
5.1238993993
  0
LWPOLYLINE
  5
639
100
AcDbEntity
  8
02___PRT_ALL_AXES
100
AcDbPolyline
 62
7
  6
CONTINUOUS
 90
5
 70
0
 10
3.4508950514
 20
5.3723889456
 10
3.4515378949
 20
5.3728429391
 10
3.4628288763
 20
5.3743483506
 10
3.4874569181
 20
5.3758315836
 10
3.5247393171
 20
5.3773102152
  0
LINE
  5
63A
100
AcDbEntity
  8
0
100
AcDbLine
 62
7
  6
CONTINUOUS
 10
3.4511353041
 20
5.7162385423
 11
3.4156877386
 21
5.6957644952
  0
LINE
  5
63B
100
AcDbEntity
  8
0
100
AcDbLine
 62
7
  6
CONTINUOUS
 10
3.4511353041
 20
5.6571834242
 11
3.4156877386
 21
5.6367093771
  0
LINE
  5
63C
100
AcDbEntity
  8
0
100
AcDbLine
 62
7
  6
CONTINUOUS
 10
3.4511353041
 20
5.5981283061
 11
3.4156877386
 21
5.577654259
  0
LINE
  5
63D
100
AcDbEntity
  8
0
100
AcDbLine
 62
7
  6
CONTINUOUS
 10
3.4511353041
 20
5.539073188
 11
3.4156877386
 21
5.5185991409
  0
LWPOLYLINE
  5
63E
100
AcDbEntity
  8
02___PRT_ALL_AXES
100
AcDbPolyline
 62
7
  6
CONTINUOUS
 90
10
 70
0
 10
3.4508950514
 20
5.7267197017
 10
3.4527122882
 20
5.7274830965
 10
3.4672670525
 20
5.7290162214
 10
3.4956179761
 20
5.730532006
 10
3.5377631566
 20
5.7320684091
 10
3.5925878236
 20
5.7336124612
 10
3.6578083672
 20
5.7351427539
 10
3.7313988824
 20
5.7366586436
 10
3.8125698084
 20
5.7381846084
 10
3.8983787743
 20
5.7397045619
  0
LWPOLYLINE
  5
63F
100
AcDbEntity
  8
02___PRT_ALL_AXES
100
AcDbPolyline
 62
7
  6
CONTINUOUS
 90
8
 70
0
 10
3.4154619806
 20
5.747176957
 10
3.4172618495
 20
5.7479134149
 10
3.4315945995
 20
5.7493863308
 10
3.4599088295
 20
5.7508592466
 10
3.5015106084
 20
5.7523321624
 10
3.5553803514
 20
5.7538050783
 10
3.6201978076
 20
5.7552779941
 10
3.6943744172
 20
5.75675091
  0
LINE
  5
640
100
AcDbEntity
  8
0
100
AcDbLine
 62
7
  6
CONTINUOUS
 10
4.9863281223
 20
8.4762616027
 11
3.0178241853
 21
8.4762616027
  0
LINE
  5
641
100
AcDbEntity
  8
AXIS
100
AcDbLine
 62
7
  6
CONTINUOUS
 10
3.0178241853
 20
8.4762616027
 11
4.9863281223
 21
8.4762616027
  0
LINE
  5
642
100
AcDbEntity
  8
0
100
AcDbLine
 62
7
  6
CONTINUOUS
 10
3.7661046004
 20
5.0848169993
 11
3.7658556813
 21
5.0845293254
  0
LINE
  5
643
100
AcDbEntity
  8
0
100
AcDbLine
 62
7
  6
CONTINUOUS
 10
3.7661046004
 20
5.0454469206
 11
3.7658556813
 21
5.0451592404
  0
LINE
  5
644
100
AcDbEntity
  8
0
100
AcDbLine
 62
7
  6
CONTINUOUS
 10
3.7661046004
 20
5.0060768419
 11
3.7658556813
 21
5.0057891401
  0
LINE
  5
645
100
AcDbEntity
  8
0
100
AcDbLine
 62
7
  6
CONTINUOUS
 10
3.7661046004
 20
4.9667067631
 11
3.7658556813
 21
4.9664190766
  0
LINE
  5
646
100
AcDbEntity
  8
0
100
AcDbLine
 62
7
  6
CONTINUOUS
 10
3.7661046004
 20
4.9273366844
 11
3.7658556813
 21
4.9270490375
  0
LINE
  5
647
100
AcDbEntity
  8
0
100
AcDbLine
 62
7
  6
CONTINUOUS
 10
3.7661046004
 20
4.8879666056
 11
3.7658556813
 21
4.8876789254
  0
LINE
  5
648
100
AcDbEntity
  8
02___PRT_ALL_AXES
100
AcDbLine
 62
7
  6
CONTINUOUS
 10
4.588464569
 20
5.7764437495
 11
4.588690327
 21
5.776704516
  0
LINE
  5
649
100
AcDbEntity
  8
0
100
AcDbLine
 62
7
  6
CONTINUOUS
 10
3.4511353041
 20
5.4800180699
 11
3.4156877386
 21
5.4595440228
  0
LINE
  5
64A
100
AcDbEntity
  8
0
100
AcDbLine
 62
7
  6
CONTINUOUS
 10
3.4511353041
 20
5.4209629518
 11
3.4156877386
 21
5.4004889047
  0
LINE
  5
64B
100
AcDbEntity
  8
0
100
AcDbLine
 62
7
  6
CONTINUOUS
 10
3.4511353041
 20
5.3619078337
 11
3.4156877386
 21
5.3414337866
  0
LWPOLYLINE
  5
64C
100
AcDbEntity
  8
02___PRT_ALL_AXES
100
AcDbPolyline
 62
7
  6
CONTINUOUS
 90
5
 70
0
 10
3.4154619806
 20
5.3928462483
 10
3.4165264984
 20
5.393412564
 10
3.4289306586
 20
5.394864212
 10
3.4549796675
 20
5.3963158601
 10
3.4940533775
 20
5.3977675082
  0
LWPOLYLINE
  5
64D
100
AcDbEntity
  8
02___PRT_ALL_AXES
100
AcDbPolyline
 62
7
  6
CONTINUOUS
 90
8
 70
0
 10
3.4508950515
 20
5.6676643557
 10
3.452655006
 20
5.6684158432
 10
3.4669282555
 20
5.6699370992
 10
3.4951244401
 20
5.6714555026
 10
3.5372180662
 20
5.6729960167
 10
3.5920827021
 20
5.6745444653
 10
3.6574470014
 20
5.6760797425
 10
3.7308838622
 20
5.6775934408
  0
LWPOLYLINE
  5
64E
100
AcDbEntity
  8
02___PRT_ALL_AXES
100
AcDbPolyline
 62
7
  6
CONTINUOUS
 90
10
 70
0
 10
3.4508950514
 20
5.5495543039
 10
3.4527124372
 20
5.5503177735
 10
3.4673072071
 20
5.5518536957
 10
3.4956053291
 20
5.5533661051
 10
3.5372222143
 20
5.5548859121
 10
3.5915019441
 20
5.5564193986
 10
3.656387086
 20
5.557946324
 10
3.7299543326
 20
5.5594649876
 10
3.811557531
 20
5.5610008651
 10
3.8983787743
 20
5.5625392075
  0
LWPOLYLINE
  5
64F
100
AcDbEntity
  8
02___PRT_ALL_AXES
100
AcDbPolyline
 62
7
  6
CONTINUOUS
 90
10
 70
0
 10
3.4508950514
 20
5.6086094216
 10
3.4528038044
 20
5.6093918583
 10
3.4675614313
 20
5.6109266442
 10
3.496079484
 20
5.6124416653
 10
3.5379911734
 20
5.6139653843
 10
3.5918347497
 20
5.6154830185
 10
3.6560478533
 20
5.6169940128
 10
3.7294800735
 20
5.6185108035
 10
3.8112069987
 20
5.6200496124
 10
3.8983787743
 20
5.6215943256
  0
LWPOLYLINE
  5
650
100
AcDbEntity
  8
02___PRT_ALL_AXES
100
AcDbPolyline
 62
7
  6
CONTINUOUS
 90
6
 70
0
 10
3.4154619806
 20
5.6881218389
 10
3.4172618495
 20
5.6888582968
 10
3.4315945995
 20
5.6903312126
 10
3.4599088295
 20
5.6918041285
 10
3.5015106084
 20
5.6932770443
 10
3.5553803514
 20
5.6947499602
  0
LWPOLYLINE
  5
651
100
AcDbEntity
  8
02___PRT_ALL_AXES
100
AcDbPolyline
 62
7
  6
CONTINUOUS
 90
8
 70
0
 10
3.4154619806
 20
5.6290667208
 10
3.4172618495
 20
5.6298031787
 10
3.4315945995
 20
5.6312760945
 10
3.4599088295
 20
5.6327490104
 10
3.5015106084
 20
5.6342219262
 10
3.5553803514
 20
5.6356948421
 10
3.6201978076
 20
5.6371677579
 10
3.6943744172
 20
5.6386406738
  0
LWPOLYLINE
  5
652
100
AcDbEntity
  8
02___PRT_ALL_AXES
100
AcDbPolyline
 62
7
  6
CONTINUOUS
 90
9
 70
0
 10
3.4154619806
 20
5.5700116027
 10
3.4172618495
 20
5.5707480606
 10
3.4315945995
 20
5.5722209764
 10
3.4599088295
 20
5.5736938923
 10
3.5015106084
 20
5.5751668081
 10
3.5553803514
 20
5.576639724
 10
3.6201978076
 20
5.5781126398
 10
3.6943744172
 20
5.5795855556
 10
3.7760922448
 20
5.5810584715
  0
LWPOLYLINE
  5
653
100
AcDbEntity
  8
02___PRT_ALL_AXES
100
AcDbPolyline
 62
7
  6
CONTINUOUS
 90
9
 70
0
 10
3.4154619806
 20
5.5109564845
 10
3.4172618495
 20
5.5116929425
 10
3.4315945995
 20
5.5131658583
 10
3.4599088295
 20
5.5146387742
 10
3.5015106084
 20
5.51611169
 10
3.5553803514
 20
5.5175846058
 10
3.6201978076
 20
5.5190575217
 10
3.6943744172
 20
5.5205304375
 10
3.7760922448
 20
5.5220033534
  0
LWPOLYLINE
  5
654
100
AcDbEntity
  8
02___PRT_ALL_AXES
100
AcDbPolyline
 62
7
  6
CONTINUOUS
 90
9
 70
0
 10
3.4156877386
 20
5.7548196133
 10
3.4172618495
 20
5.7552953047
 10
3.4315945995
 20
5.7567682205
 10
3.4599088295
 20
5.7582411364
 10
3.5015106084
 20
5.7597140522
 10
3.5553803514
 20
5.7611869681
 10
3.6201978076
 20
5.7626598839
 10
3.6943744172
 20
5.7641327997
 10
3.7760922448
 20
5.7656057156
  0
LWPOLYLINE
  5
655
100
AcDbEntity
  8
02___PRT_ALL_AXES
100
AcDbPolyline
 62
7
  6
CONTINUOUS
 90
9
 70
0
 10
3.4156877386
 20
5.6957644952
 10
3.4172618495
 20
5.6962401866
 10
3.4315945995
 20
5.6977131024
 10
3.4599088295
 20
5.6991860183
 10
3.5015106084
 20
5.7006589341
 10
3.5553803514
 20
5.7021318499
 10
3.6201978076
 20
5.7036047658
 10
3.6943744172
 20
5.7050776816
 10
3.7760922448
 20
5.7065505975
  0
LWPOLYLINE
  5
656
100
AcDbEntity
  8
02___PRT_ALL_AXES
100
AcDbPolyline
 62
7
  6
CONTINUOUS
 90
9
 70
0
 10
3.4156877386
 20
5.6367093771
 10
3.4172618495
 20
5.6371850685
 10
3.4315945995
 20
5.6386579843
 10
3.4599088295
 20
5.6401309001
 10
3.5015106084
 20
5.641603816
 10
3.5553803514
 20
5.6430767318
 10
3.6201978076
 20
5.6445496477
 10
3.6943744172
 20
5.6460225635
 10
3.7760922448
 20
5.6474954794
  0
LINE
  5
657
100
AcDbEntity
  8
0
100
AcDbLine
 62
7
  6
CONTINUOUS
 10
4.2382966262
 20
4.9467340373
 11
4.2380959551
 21
4.9464757487
  0
LINE
  5
658
100
AcDbEntity
  8
0
100
AcDbLine
 62
7
  6
CONTINUOUS
 10
4.2380477071
 20
5.1019581744
 11
4.2382966262
 21
5.1022458628
  0
LINE
  5
659
100
AcDbEntity
  8
02___PRT_ALL_AXES
100
AcDbLine
 62
7
  6
CONTINUOUS
 10
4.588464569
 20
5.7173886314
 11
4.588690327
 21
5.7176493979
  0
LINE
  5
65A
100
AcDbEntity
  8
02___PRT_ALL_AXES
100
AcDbLine
 62
7
  6
CONTINUOUS
 10
4.588464569
 20
5.6583335132
 11
4.588690327
 21
5.6585942798
  0
LINE
  5
65B
100
AcDbEntity
  8
02___PRT_ALL_AXES
100
AcDbLine
 62
7
  6
CONTINUOUS
 10
4.588464569
 20
5.5992783951
 11
4.588690327
 21
5.5995391617
  0
LINE
  5
65C
100
AcDbEntity
  8
02___PRT_ALL_AXES
100
AcDbLine
 62
7
  6
CONTINUOUS
 10
4.588464569
 20
5.540223277
 11
4.588690327
 21
5.5404840436
  0
LINE
  5
65D
100
AcDbEntity
  8
02___PRT_ALL_AXES
100
AcDbLine
 62
7
  6
CONTINUOUS
 10
4.588464569
 20
5.4811681589
 11
4.588690327
 21
5.4814289255
  0
LINE
  5
65E
100
AcDbEntity
  8
0
100
AcDbLine
 62
7
  6
CONTINUOUS
 10
3.4511353041
 20
5.3028527156
 11
3.4156877386
 21
5.2823786684
  0
LINE
  5
65F
100
AcDbEntity
  8
0
100
AcDbLine
 62
7
  6
CONTINUOUS
 10
3.4511353041
 20
5.2437975975
 11
3.4156877386
 21
5.2233235503
  0
LINE
  5
660
100
AcDbEntity
  8
0
100
AcDbLine
 62
7
  6
CONTINUOUS
 10
4.5530170035
 20
5.7559697023
 11
4.588464569
 21
5.7764437495
  0
LWPOLYLINE
  5
661
100
AcDbEntity
  8
02___PRT_ALL_AXES
100
AcDbPolyline
 62
7
  6
CONTINUOUS
 90
10
 70
0
 10
3.4508950523
 20
5.4314435433
 10
3.4526818719
 20
5.4322010865
 10
3.4671521999
 20
5.4337325211
 10
3.4954339845
 20
5.4352484563
 10
3.5373479293
 20
5.4367796642
 10
3.5916412542
 20
5.4383127222
 10
3.6560163686
 20
5.4398279687
 10
3.7294583382
 20
5.4413450227
 10
3.8111942438
 20
5.4428840263
 10
3.8983787743
 20
5.4444289713
  0
LWPOLYLINE
  5
662
100
AcDbEntity
  8
02___PRT_ALL_AXES
100
AcDbPolyline
 62
7
  6
CONTINUOUS
 90
10
 70
0
 10
4.5532572561
 20
5.8045436922
 10
4.5513512527
 20
5.8037618324
 10
4.536583421
 20
5.8022259615
 10
4.5080618257
 20
5.8007109884
 10
4.4663656734
 20
5.7991942107
 10
4.4127193935
 20
5.7976803744
 10
4.3482955298
 20
5.7961633005
 10
4.2747930929
 20
5.7946446944
 10
4.193008783
 20
5.7931046679
 10
4.1057735332
 20
5.7915588009
  0
LWPOLYLINE
  5
663
100
AcDbEntity
  8
02___PRT_ALL_AXES
100
AcDbPolyline
 62
7
  6
CONTINUOUS
 90
6
 70
0
 10
3.4508950526
 20
5.4904998153
 10
3.4528016322
 20
5.4912811765
 10
3.4672585141
 20
5.492795147
 10
3.4956318363
 20
5.4943121325
 10
3.5378903677
 20
5.495851961
 10
3.5928813082
 20
5.4973994621
  0
LWPOLYLINE
  5
664
100
AcDbEntity
  8
02___PRT_ALL_AXES
100
AcDbPolyline
 62
7
  6
CONTINUOUS
 90
9
 70
0
 10
3.4154619806
 20
5.4519013664
 10
3.4172618495
 20
5.4526378244
 10
3.4315945995
 20
5.4541107402
 10
3.4599088295
 20
5.455583656
 10
3.5015106084
 20
5.4570565719
 10
3.5553803514
 20
5.4585294877
 10
3.6201978076
 20
5.4600024036
 10
3.6943744172
 20
5.4614753194
 10
3.7760922448
 20
5.4629482353
  0
LWPOLYLINE
  5
665
100
AcDbEntity
  8
02___PRT_ALL_AXES
100
AcDbPolyline
 62
7
  6
CONTINUOUS
 90
9
 70
0
 10
3.4154619806
 20
5.3337911302
 10
3.4172618495
 20
5.3345275881
 10
3.4315945995
 20
5.336000504
 10
3.4599088295
 20
5.3374734198
 10
3.5015106084
 20
5.3389463357
 10
3.5553803514
 20
5.3404192515
 10
3.6201978076
 20
5.3418921674
 10
3.6943744172
 20
5.3433650832
 10
3.7760922448
 20
5.3448379991
  0
LWPOLYLINE
  5
666
100
AcDbEntity
  8
02___PRT_ALL_AXES
100
AcDbPolyline
 62
7
  6
CONTINUOUS
 90
5
 70
0
 10
3.4156877386
 20
5.4004889047
 10
3.4165264984
 20
5.4007944537
 10
3.4289306586
 20
5.4022461018
 10
3.4549796675
 20
5.4036977499
 10
3.4940533775
 20
5.4051493979
  0
LWPOLYLINE
  5
667
100
AcDbEntity
  8
02___PRT_ALL_AXES
100
AcDbPolyline
 62
7
  6
CONTINUOUS
 90
9
 70
0
 10
3.4156877386
 20
5.577654259
 10
3.4172618495
 20
5.5781299503
 10
3.4315945995
 20
5.5796028662
 10
3.4599088295
 20
5.581075782
 10
3.5015106084
 20
5.5825486979
 10
3.5553803514
 20
5.5840216137
 10
3.6201978076
 20
5.5854945296
 10
3.6943744172
 20
5.5869674454
 10
3.7760922448
 20
5.5884403613
  0
LWPOLYLINE
  5
668
100
AcDbEntity
  8
02___PRT_ALL_AXES
100
AcDbPolyline
 62
7
  6
CONTINUOUS
 90
9
 70
0
 10
3.4156877386
 20
5.5185991409
 10
3.4172618495
 20
5.5190748322
 10
3.4315945995
 20
5.5205477481
 10
3.4599088295
 20
5.5220206639
 10
3.5015106084
 20
5.5234935798
 10
3.5553803514
 20
5.5249664956
 10
3.6201978076
 20
5.5264394115
 10
3.6943744172
 20
5.5279123273
 10
3.7760922448
 20
5.5293852431
  0
LWPOLYLINE
  5
669
100
AcDbEntity
  8
02___PRT_ALL_AXES
100
AcDbPolyline
 62
7
  6
CONTINUOUS
 90
9
 70
0
 10
3.4156877386
 20
5.4595440228
 10
3.4172618495
 20
5.4600197141
 10
3.4315945995
 20
5.46149263
 10
3.4599088295
 20
5.4629655458
 10
3.5015106084
 20
5.4644384617
 10
3.5553803514
 20
5.4659113775
 10
3.6201978076
 20
5.4673842933
 10
3.6943744172
 20
5.4688572092
 10
3.7760922448
 20
5.470330125
  0
LINE
  5
66A
100
AcDbEntity
  8
0
100
AcDbLine
 62
7
  6
CONTINUOUS
 10
4.2380477071
 20
5.0625880957
 11
4.2382966262
 21
5.0628757954
  0
LINE
  5
66B
100
AcDbEntity
  8
0
100
AcDbLine
 62
7
  6
CONTINUOUS
 10
4.2380477071
 20
5.023218017
 11
4.2382966262
 21
5.0235056971
  0
LINE
  5
66C
100
AcDbEntity
  8
0
100
AcDbLine
 62
7
  6
CONTINUOUS
 10
4.2380477071
 20
4.9838479382
 11
4.2382966262
 21
4.9841356121
  0
LINE
  5
66D
100
AcDbEntity
  8
0
100
AcDbLine
 62
7
  6
CONTINUOUS
 10
4.2380477071
 20
4.9444778595
 11
4.2382966262
 21
4.9447655369
  0
LINE
  5
66E
100
AcDbEntity
  8
0
100
AcDbLine
 62
7
  6
CONTINUOUS
 10
4.2380477071
 20
4.9051077807
 11
4.2382966262
 21
4.9053954342
  0
LINE
  5
66F
100
AcDbEntity
  8
0
100
AcDbLine
 62
7
  6
CONTINUOUS
 10
4.2380477071
 20
4.865737702
 11
4.2382966262
 21
4.8660254208
  0
LINE
  5
670
100
AcDbEntity
  8
02___PRT_ALL_AXES
100
AcDbLine
 62
7
  6
CONTINUOUS
 10
4.588464569
 20
5.4221130408
 11
4.588690327
 21
5.4223738074
  0
LINE
  5
671
100
AcDbEntity
  8
02___PRT_ALL_AXES
100
AcDbLine
 62
7
  6
CONTINUOUS
 10
4.588464569
 20
5.3630579227
 11
4.588690327
 21
5.3633186893
  0
LINE
  5
672
100
AcDbEntity
  8
02___PRT_ALL_AXES
100
AcDbLine
 62
7
  6
CONTINUOUS
 10
4.588464569
 20
5.3040028046
 11
4.588690327
 21
5.3042635712
  0
LINE
  5
673
100
AcDbEntity
  8
02___PRT_ALL_AXES
100
AcDbLine
 62
7
  6
CONTINUOUS
 10
4.588464569
 20
5.2449476865
 11
4.588690327
 21
5.245208453
  0
LWPOLYLINE
  5
674
100
AcDbEntity
  8
02___PRT_ALL_AXES
100
AcDbPolyline
 62
7
  6
CONTINUOUS
 90
5
 70
0
 10
4.5532572561
 20
5.6273783534
 10
4.5526141025
 20
5.6269242512
 10
4.5413215982
 20
5.6254187982
 10
4.5166919087
 20
5.6239355505
 10
4.4794129905
 20
5.6224570846
  0
LINE
  5
675
100
AcDbEntity
  8
0
100
AcDbLine
 62
7
  6
CONTINUOUS
 10
3.7690126586
 20
5.1258679019
 11
3.7661046004
 21
5.1241870781
  0
LINE
  5
676
100
AcDbEntity
  8
0
100
AcDbLine
 62
7
  6
CONTINUOUS
 10
3.7985347142
 20
5.103563422
 11
3.7661046004
 21
5.0848169993
  0
LINE
  5
677
100
AcDbEntity
  8
0
100
AcDbLine
 62
7
  6
CONTINUOUS
 10
4.5530170035
 20
5.6969145842
 11
4.588464569
 21
5.7173886314
  0
LINE
  5
678
100
AcDbEntity
  8
0
100
AcDbLine
 62
7
  6
CONTINUOUS
 10
4.5530170035
 20
5.6378594661
 11
4.588464569
 21
5.6583335132
  0
LINE
  5
679
100
AcDbEntity
  8
0
100
AcDbLine
 62
7
  6
CONTINUOUS
 10
4.5530170035
 20
5.578804348
 11
4.588464569
 21
5.5992783951
  0
LWPOLYLINE
  5
67A
100
AcDbEntity
  8
02___PRT_ALL_AXES
100
AcDbPolyline
 62
7
  6
CONTINUOUS
 90
8
 70
0
 10
4.5532572539
 20
5.7454894298
 10
4.5516089045
 20
5.7447615065
 10
4.5375004367
 20
5.7432357951
 10
4.5095256815
 20
5.7417193107
 10
4.4677043575
 20
5.7401816008
 10
4.4131303383
 20
5.7386357684
 10
4.3480647343
 20
5.7371031255
 10
4.2745745761
 20
5.735585289
  0
LWPOLYLINE
  5
67B
100
AcDbEntity
  8
02___PRT_ALL_AXES
100
AcDbPolyline
 62
7
  6
CONTINUOUS
 90
10
 70
0
 10
3.4508950536
 20
5.2542778755
 10
3.4525472181
 20
5.2550066346
 10
3.4666622885
 20
5.2565322529
 10
3.494646712
 20
5.2580488664
 10
3.5364793123
 20
5.2595866983
 10
3.5910686195
 20
5.2611327254
 10
3.6561544183
 20
5.2626656385
 10
3.7296283856
 20
5.2641830045
 10
3.8112601766
 20
5.2657198704
 10
3.8983787743
 20
5.267263617
  0
LWPOLYLINE
  5
67C
100
AcDbEntity
  8
02___PRT_ALL_AXES
100
AcDbPolyline
 62
7
  6
CONTINUOUS
 90
10
 70
0
 10
3.4508950514
 20
5.1952236003
 10
3.4528031449
 20
5.1960058962
 10
3.4675750755
 20
5.1975417706
 10
3.4961019151
 20
5.199056803
 10
3.5378113499
 20
5.2005738711
 10
3.5914548287
 20
5.2020874856
 10
3.6558684994
 20
5.2036042562
 10
3.7293667648
 20
5.2051227535
 10
3.8111450365
 20
5.2066626594
 10
3.8983787743
 20
5.2082084989
  0
LWPOLYLINE
  5
67D
100
AcDbEntity
  8
02___PRT_ALL_AXES
100
AcDbPolyline
 62
7
  6
CONTINUOUS
 90
9
 70
0
 10
3.4154619806
 20
5.2747360121
 10
3.4172618495
 20
5.27547247
 10
3.4315945995
 20
5.2769453859
 10
3.4599088295
 20
5.2784183017
 10
3.5015106084
 20
5.2798912176
 10
3.5553803514
 20
5.2813641334
 10
3.6201978076
 20
5.2828370493
 10
3.6943744172
 20
5.2843099651
 10
3.7760922448
 20
5.2857828809
  0
LWPOLYLINE
  5
67E
100
AcDbEntity
  8
02___PRT_ALL_AXES
100
AcDbPolyline
 62
7
  6
CONTINUOUS
 90
9
 70
0
 10
3.4154619806
 20
5.215680894
 10
3.4172618495
 20
5.2164173519
 10
3.4315945995
 20
5.2178902678
 10
3.4599088295
 20
5.2193631836
 10
3.5015106084
 20
5.2208360995
 10
3.5553803514
 20
5.2223090153
 10
3.6201978076
 20
5.2237819311
 10
3.6943744172
 20
5.225254847
 10
3.7760922448
 20
5.2267277628
  0
LWPOLYLINE
  5
67F
100
AcDbEntity
  8
02___PRT_ALL_AXES
100
AcDbPolyline
 62
7
  6
CONTINUOUS
 90
10
 70
0
 10
3.4508950534
 20
5.313334643
 10
3.4528523916
 20
5.3141261693
 10
3.4674232937
 20
5.3156413819
 10
3.495848011
 20
5.3171561082
 10
3.5381265431
 20
5.3186940709
 10
3.5930979528
 20
5.3202396201
 10
3.658468601
 20
5.3217713348
 10
3.7321219937
 20
5.323286966
 10
3.8129483298
 20
5.3248056544
 10
3.8983787743
 20
5.3263187351
  0
LWPOLYLINE
  5
680
100
AcDbEntity
  8
02___PRT_ALL_AXES
100
AcDbPolyline
 62
7
  6
CONTINUOUS
 90
10
 70
0
 10
4.553257254
 20
5.686432638
 10
4.5512950064
 20
5.6856401368
 10
4.5367228388
 20
5.6841254847
 10
4.5082925987
 20
5.6826106873
 10
4.4660070826
 20
5.6810726389
 10
4.4110316793
 20
5.6795271029
 10
4.3456607249
 20
5.6779954638
 10
4.2720105282
 20
5.6764799468
 10
4.1912049037
 20
5.6749616622
 10
4.1057735332
 20
5.6734485647
  0
LWPOLYLINE
  5
681
100
AcDbEntity
  8
02___PRT_ALL_AXES
100
AcDbPolyline
 62
7
  6
CONTINUOUS
 90
9
 70
0
 10
3.4156877386
 20
5.3414337866
 10
3.4172618495
 20
5.3419094779
 10
3.4315945995
 20
5.3433823937
 10
3.4599088295
 20
5.3448553096
 10
3.5015106084
 20
5.3463282254
 10
3.5553803514
 20
5.3478011413
 10
3.6201978076
 20
5.3492740571
 10
3.6943744172
 20
5.350746973
 10
3.7760922448
 20
5.3522198888
  0
LWPOLYLINE
  5
682
100
AcDbEntity
  8
02___PRT_ALL_AXES
100
AcDbPolyline
 62
7
  6
CONTINUOUS
 90
6
 70
0
 10
3.4156877386
 20
5.2823786684
 10
3.4172618495
 20
5.2828543598
 10
3.4315945995
 20
5.2843272756
 10
3.4599088295
 20
5.2858001915
 10
3.5015106084
 20
5.2872731073
 10
3.5553803514
 20
5.2887460232
  0
LINE
  5
683
100
AcDbEntity
  8
0
100
AcDbLine
 62
7
  6
CONTINUOUS
 10
4.2186116567
 20
4.8384663271
 11
4.2195769483
 21
4.8394316184
  0
LINE
  5
684
100
AcDbEntity
  8
0
100
AcDbLine
 62
7
  6
CONTINUOUS
 10
3.7985347142
 20
5.0641933433
 11
3.7661046004
 21
5.0454469206
  0
LINE
  5
685
100
AcDbEntity
  8
0
100
AcDbLine
 62
7
  6
CONTINUOUS
 10
3.7985347142
 20
5.0248232645
 11
3.7661046004
 21
5.0060768419
  0
LINE
  5
686
100
AcDbEntity
  8
0
100
AcDbLine
 62
7
  6
CONTINUOUS
 10
3.7985347142
 20
4.9854531858
 11
3.7661046004
 21
4.9667067631
  0
LINE
  5
687
100
AcDbEntity
  8
0
100
AcDbLine
 62
7
  6
CONTINUOUS
 10
3.7985347142
 20
4.946083107
 11
3.7661046004
 21
4.9273366844
  0
LINE
  5
688
100
AcDbEntity
  8
0
100
AcDbLine
 62
7
  6
CONTINUOUS
 10
3.7985347142
 20
4.9067130283
 11
3.7661046004
 21
4.8879666056
  0
LINE
  5
689
100
AcDbEntity
  8
0
100
AcDbLine
 62
7
  6
CONTINUOUS
 10
4.2056175934
 20
5.1225818306
 11
4.2113015414
 21
5.1258679019
  0
LINE
  5
68A
100
AcDbEntity
  8
0
100
AcDbLine
 62
7
  6
CONTINUOUS
 10
4.5530170035
 20
5.5197492299
 11
4.588464569
 21
5.540223277
  0
LINE
  5
68B
100
AcDbEntity
  8
0
100
AcDbLine
 62
7
  6
CONTINUOUS
 10
4.5530170035
 20
5.4606941118
 11
4.588464569
 21
5.4811681589
  0
LINE
  5
68C
100
AcDbEntity
  8
0
100
AcDbLine
 62
7
  6
CONTINUOUS
 10
4.5530170035
 20
5.4016389937
 11
4.588464569
 21
5.4221130408
  0
LINE
  5
68D
100
AcDbEntity
  8
0
100
AcDbLine
 62
7
  6
CONTINUOUS
 10
4.5530170035
 20
5.3425838756
 11
4.588464569
 21
5.3630579227
  0
LWPOLYLINE
  5
68E
100
AcDbEntity
  8
02___PRT_ALL_AXES
100
AcDbPolyline
 62
7
  6
CONTINUOUS
 90
10
 70
0
 10
4.5532572554
 20
5.5683237115
 10
4.551461953
 20
5.5675644176
 10
4.5369726198
 20
5.5660328352
 10
4.5086753993
 20
5.5645169853
 10
4.466756153
 20
5.5629861063
 10
4.4124802644
 20
5.561453791
 10
4.3481302847
 20
5.5599392072
 10
4.2746898536
 20
5.5584221963
 10
4.192953074
 20
5.5568831828
 10
4.1057735332
 20
5.5553383285
  0
LWPOLYLINE
  5
68F
100
AcDbEntity
  8
02___PRT_ALL_AXES
100
AcDbPolyline
 62
7
  6
CONTINUOUS
 90
10
 70
0
 10
4.5532572561
 20
5.4502129863
 10
4.5514399768
 20
5.4494495487
 10
4.5368471634
 20
5.4479137493
 10
4.5085541104
 20
5.446401503
 10
4.4669152317
 20
5.4448809161
 10
4.4126112016
 20
5.4433469004
 10
4.347712418
 20
5.4418198198
 10
4.2741422553
 20
5.4403012196
 10
4.192553068
 20
5.4387656767
 10
4.1057735332
 20
5.4372280923
  0
LWPOLYLINE
  5
690
100
AcDbEntity
  8
02___PRT_ALL_AXES
100
AcDbPolyline
 62
7
  6
CONTINUOUS
 90
10
 70
0
 10
4.5532572551
 20
5.5092675164
 10
4.5513580307
 20
5.5084876341
 10
4.5369100095
 20
5.5069732964
 10
4.5085425342
 20
5.5054561207
 10
4.466286432
 20
5.5039161134
 10
4.4112974691
 20
5.5023685115
 10
4.3458657319
 20
5.5008345811
 10
4.2722377215
 20
5.4993190366
 10
4.1917231018
 20
5.4978057172
 10
4.1057735332
 20
5.4962832104
  0
LWPOLYLINE
  5
691
100
AcDbEntity
  8
02___PRT_ALL_AXES
100
AcDbPolyline
 62
7
  6
CONTINUOUS
 90
10
 70
0
 10
4.5532572561
 20
5.3911578685
 10
4.5513481196
 20
5.3903753628
 10
4.536589543
 20
5.3888405624
 10
4.5080704951
 20
5.3873255344
 10
4.4661650428
 20
5.3858020391
 10
4.4123434173
 20
5.3842849416
 10
4.3481227515
 20
5.3827736879
 10
4.2746837768
 20
5.3812567227
 10
4.192948957
 20
5.3797177537
 10
4.1057735332
 20
5.3781729742
  0
LWPOLYLINE
  5
692
100
AcDbEntity
  8
02___PRT_ALL_AXES
100
AcDbPolyline
 62
7
  6
CONTINUOUS
 90
9
 70
0
 10
3.4156877386
 20
5.2233235503
 10
3.4172618495
 20
5.2237992417
 10
3.4315945995
 20
5.2252721575
 10
3.4599088295
 20
5.2267450734
 10
3.5015106084
 20
5.2282179892
 10
3.5553803514
 20
5.2296909051
 10
3.6201978076
 20
5.2311638209
 10
3.6943744172
 20
5.2326367367
 10
3.7760922448
 20
5.2341096526
  0
LINE
  5
693
100
AcDbEntity
  8
0
100
AcDbLine
 62
7
  6
CONTINUOUS
 10
3.7985347142
 20
4.8673429496
 11
3.7721638141
 21
4.8520986028
  0
LINE
  5
694
100
AcDbEntity
  8
0
100
AcDbLine
 62
7
  6
CONTINUOUS
 10
4.2056175934
 20
5.0832117518
 11
4.2380477071
 21
5.1019581744
  0
LINE
  5
695
100
AcDbEntity
  8
0
100
AcDbLine
 62
7
  6
CONTINUOUS
 10
4.2056175934
 20
5.0438416731
 11
4.2380477071
 21
5.0625880957
  0
LINE
  5
696
100
AcDbEntity
  8
0
100
AcDbLine
 62
7
  6
CONTINUOUS
 10
4.2056175934
 20
5.0044715944
 11
4.2380477071
 21
5.023218017
  0
LINE
  5
697
100
AcDbEntity
  8
0
100
AcDbLine
 62
7
  6
CONTINUOUS
 10
4.2056175934
 20
4.9651015156
 11
4.2380477071
 21
4.9838479382
  0
LINE
  5
698
100
AcDbEntity
  8
0
100
AcDbLine
 62
7
  6
CONTINUOUS
 10
4.2056175934
 20
4.9257314369
 11
4.2380477071
 21
4.9444778595
  0
LINE
  5
699
100
AcDbEntity
  8
0
100
AcDbLine
 62
7
  6
CONTINUOUS
 10
4.5530170035
 20
5.2835287575
 11
4.588464569
 21
5.3040028046
  0
LINE
  5
69A
100
AcDbEntity
  8
0
100
AcDbLine
 62
7
  6
CONTINUOUS
 10
4.5530170035
 20
5.2244736394
 11
4.588464569
 21
5.2449476865
  0
LWPOLYLINE
  5
69B
100
AcDbEntity
  8
0
100
AcDbPolyline
 62
7
  6
CONTINUOUS
 90
9
 70
0
 10
3.7985347142
 20
4.946083107
 10
3.799022029
 20
4.9462965983
 10
3.8048881432
 20
4.9473537578
 10
3.8163538742
 20
4.9484109173
 10
3.8330936256
 20
4.9494680768
 10
3.8546320328
 20
4.9505252364
 10
3.8803574622
 20
4.9515823959
 10
3.9095393799
 20
4.9526395554
 10
3.9413490965
 20
4.9536967149
  0
LWPOLYLINE
  5
69C
100
AcDbEntity
  8
02___PRT_ALL_AXES
100
AcDbPolyline
 62
7
  6
CONTINUOUS
 90
6
 70
0
 10
4.553257256
 20
5.3321029805
 10
4.5515029416
 20
5.331352662
 10
4.5372374029
 20
5.3298311516
 10
4.5090490419
 20
5.3283127172
 10
4.4669623379
 20
5.3267721749
 10
4.412106395
 20
5.3252237732
  0
LWPOLYLINE
  5
69D
100
AcDbEntity
  8
02___PRT_ALL_AXES
100
AcDbPolyline
 62
7
  6
CONTINUOUS
 90
10
 70
0
 10
4.5532572561
 20
5.2730475516
 10
4.5514328241
 20
5.2722826926
 10
4.5368758122
 20
5.2707504129
 10
4.5085252801
 20
5.2692349026
 10
4.4663705055
 20
5.2676983006
 10
4.4115364585
 20
5.2661541247
 10
4.3463085228
 20
5.2646237726
 10
4.2727117413
 20
5.2631078402
 10
4.1915482738
 20
5.2615820699
 10
4.1057735332
 20
5.2600627379
  0
LINE
  5
69E
100
AcDbEntity
  8
0
100
AcDbLine
 62
7
  6
CONTINUOUS
 10
3.7658556813
 20
5.0431907149
 11
3.7686962826
 21
5.0441634478
  0
LINE
  5
69F
100
AcDbEntity
  8
0
100
AcDbLine
 62
7
  6
CONTINUOUS
 10
3.7658556813
 20
5.0038206514
 11
3.7687220146
 21
5.0047977738
  0
LINE
  5
6A0
100
AcDbEntity
  8
0
100
AcDbLine
 62
7
  6
CONTINUOUS
 10
3.7658556813
 20
5.0825608152
 11
3.7688445728
 21
5.0835586456
  0
LINE
  5
6A1
100
AcDbEntity
  8
0
100
AcDbLine
 62
7
  6
CONTINUOUS
 10
3.7658556813
 20
4.9644506123
 11
3.768852765
 21
4.9654497788
  0
LINE
  5
6A2
100
AcDbEntity
  8
0
100
AcDbLine
 62
7
  6
CONTINUOUS
 10
4.2382966262
 20
5.1042143236
 11
4.2353022678
 21
5.1032156141
  0
LINE
  5
6A3
100
AcDbEntity
  8
AXIS
100
AcDbLine
 62
7
  6
CONTINUOUS
 10
3.0178241853
 20
9.5353167208
 11
4.9863281223
 21
9.5353167208
  0
LINE
  5
6A4
100
AcDbEntity
  8
0
100
AcDbLine
 62
7
  6
CONTINUOUS
 10
3.0178241853
 20
9.5353167208
 11
4.9863281223
 21
9.5353167208
  0
LINE
  5
6A5
100
AcDbEntity
  8
0
100
AcDbLine
 62
7
  6
CONTINUOUS
 10
4.2056175934
 20
4.8863613581
 11
4.2380477071
 21
4.9051077807
  0
LINE
  5
6A6
100
AcDbEntity
  8
0
100
AcDbLine
 62
7
  6
CONTINUOUS
 10
4.2056175934
 20
4.8469912794
 11
4.2380477071
 21
4.865737702
  0
LINE
  5
6A7
100
AcDbEntity
  8
0
100
AcDbLine
 62
7
  6
CONTINUOUS
 10
4.2382966262
 20
5.0254742206
 11
4.2354551482
 21
5.0245013394
  0
LINE
  5
6A8
100
AcDbEntity
  8
0
100
AcDbLine
 62
7
  6
CONTINUOUS
 10
4.2382966262
 20
5.064844288
 11
4.235431968
 21
5.06386745
  0
LWPOLYLINE
  5
6A9
100
AcDbEntity
  8
0
100
AcDbPolyline
 62
7
  6
CONTINUOUS
 90
9
 70
0
 10
3.7985347142
 20
4.9067130283
 10
3.799913651
 20
4.907181696
 10
3.8071527863
 20
4.9082388555
 10
3.8199272285
 20
4.909296015
 10
3.8378742173
 20
4.9103531745
 10
3.8604841059
 20
4.9114103341
 10
3.8871148333
 20
4.9124674936
 10
3.9170101574
 20
4.9135246531
 10
3.9493211303
 20
4.9145818126
  0
LINE
  5
6AA
100
AcDbEntity
  8
0
100
AcDbLine
 62
7
  6
CONTINUOUS
 10
3.7658556813
 20
4.9250805002
 11
3.7687907645
 21
4.9260692891
  0
LINE
  5
6AB
100
AcDbEntity
  8
0
100
AcDbLine
 62
7
  6
CONTINUOUS
 10
3.7658556813
 20
4.8857104215
 11
3.7688329933
 21
4.8867063131
  0
LINE
  5
6AC
100
AcDbEntity
  8
0
100
AcDbLine
 62
7
  6
CONTINUOUS
 10
4.2382966262
 20
4.9073639621
 11
4.2353137427
 21
4.90636714
  0
LINE
  5
6AD
100
AcDbEntity
  8
0
100
AcDbLine
 62
7
  6
CONTINUOUS
 10
4.2382966262
 20
4.9861041223
 11
4.2353077283
 21
4.9851062909
  0
LWPOLYLINE
  5
6AE
100
AcDbEntity
  8
0
100
AcDbPolyline
 62
7
  6
CONTINUOUS
 90
9
 70
0
 10
3.7721638141
 20
4.8520986028
 10
3.7727636151
 20
4.8522903084
 10
3.7788145096
 20
4.8529433696
 10
3.7909294325
 20
4.8535959412
 10
3.8088029851
 20
4.8542480571
 10
3.8319733058
 20
4.8548997099
 10
3.8598355126
 20
4.8555509115
 10
3.8916570265
 20
4.8562016635
 10
3.9265988132
 20
4.8568519936
  0
LINE
  5
6AF
100
AcDbEntity
  8
0
100
AcDbLine
 62
7
  6
CONTINUOUS
 10
4.2382966262
 20
4.8679938594
 11
4.2353787414
 21
4.8670080045
  0
LINE
  5
6B0
100
AcDbEntity
  8
0
100
AcDbLine
 62
9
  6
CONTINUOUS
 10
3.0225211816
 20
9.8044074614
 11
4.9816311259
 21
9.8044074614
  0
LINE
  5
6B1
100
AcDbEntity
  8
0
100
AcDbLine
 62
7
  6
CONTINUOUS
 10
3.1012493469
 20
9.8817734137
 11
4.902902961
 21
9.8817734137
  0
LWPOLYLINE
  5
6B2
100
AcDbEntity
  8
0
100
AcDbPolyline
 62
7
  6
CONTINUOUS
 90
8
 70
0
 10
12.8997549348
 20
4.1864755243
 10
12.872067624
 20
4.1792998706
 10
12.8431002487
 20
4.1744734978
 10
12.8140341598
 20
4.1720865153
 10
12.7864214727
 20
4.1719803653
 10
12.7603882458
 20
4.1738144675
 10
12.7356698866
 20
4.1773861908
 10
12.7270067351
 20
4.1793151204
  0
LWPOLYLINE
  5
6B3
100
AcDbEntity
  8
02___PRT_ALL_AXES
100
AcDbPolyline
 62
7
  6
CONTINUOUS
 90
14
 70
0
 10
12.5649925915
 20
4.303379056
 10
12.6524058849
 20
4.2883278319
 10
12.7431418509
 20
4.2813522584
 10
12.8349767137
 20
4.2826527689
 10
12.9256597654
 20
4.2922269648
 10
13.0129685271
 20
4.3098696742
 10
13.0947632175
 20
4.3351779804
 10
13.1690391955
 20
4.3675610969
 10
13.23397609
 20
4.406254846
 10
13.2879824141
 20
4.4503403878
 10
13.3297345698
 20
4.4987667393
 10
13.3582092864
 20
4.5503765319
 10
13.3727086999
 20
4.6039343769
 10
13.374593934
 20
4.6316803032
  0
LWPOLYLINE
  5
6B4
100
AcDbEntity
  8
02___PRT_ALL_AXES
100
AcDbPolyline
 62
7
  6
CONTINUOUS
 90
13
 70
0
 10
12.5649925915
 20
4.3094063868
 10
12.6524058849
 20
4.2943551627
 10
12.7431418509
 20
4.2873795892
 10
12.8349767137
 20
4.2886800997
 10
12.9256597654
 20
4.2982542956
 10
13.0129685271
 20
4.315897005
 10
13.0947632175
 20
4.3412053113
 10
13.1690391955
 20
4.3735884277
 10
13.23397609
 20
4.4122821768
 10
13.2879824141
 20
4.4563677186
 10
13.3297345698
 20
4.5047940701
 10
13.3582092864
 20
4.5564038628
 10
13.3727086999
 20
4.6099617077
  0
LWPOLYLINE
  5
6B5
100
AcDbEntity
  8
0
100
AcDbPolyline
 62
7
  6
CONTINUOUS
 90
3
 70
0
 10
12.6522628841
 20
4.2356045124
 10
12.566416639
 20
4.2532145971
 10
12.4873601016
 20
4.278749551
  0
LWPOLYLINE
  5
6B6
100
AcDbEntity
  8
0
100
AcDbPolyline
 62
7
  6
CONTINUOUS
 90
11
 70
0
 10
12.6807362287
 20
4.188104917
 10
12.7149476732
 20
4.1807244156
 10
12.7506364748
 20
4.1765536056
 10
12.7875873745
 20
4.1756425546
 10
12.8250040315
 20
4.178141657
 10
12.8614766652
 20
4.1840387683
 10
12.8956767922
 20
4.1930716576
 10
12.9271327251
 20
4.2050484976
 10
12.9553206433
 20
4.2198013247
 10
12.9792245266
 20
4.2368057666
 10
12.9922235724
 20
4.2496001779
  0
LINE
  5
6B7
100
AcDbEntity
  8
0
100
AcDbLine
 62
7
  6
CONTINUOUS
 10
12.7143851423
 20
4.1824249199
 11
12.6803040656
 21
4.1898291499
  0
LINE
  5
6B8
100
AcDbEntity
  8
0
100
AcDbLine
 62
7
  6
CONTINUOUS
 10
12.6803040656
 20
4.1898291499
 11
12.6489453856
 21
4.2001635351
  0
LWPOLYLINE
  5
6B9
100
AcDbEntity
  8
0
100
AcDbPolyline
 62
9
  6
CONTINUOUS
 90
14
 70
0
 10
12.4785225972
 20
4.2970251122
 10
12.5519272035
 20
4.2727966629
 10
12.6308392236
 20
4.255343544
 10
12.7134523248
 20
4.245059314
 10
12.7978351153
 20
4.2421877848
 10
12.8819862358
 20
4.2467993993
 10
12.9639227648
 20
4.2587850018
 10
13.0417193245
 20
4.2778620848
 10
13.1135505597
 20
4.3035829555
 10
13.1777257982
 20
4.3353426312
 10
13.2327352543
 20
4.3723940444
 10
13.2772849212
 20
4.4138654793
 10
13.3103270894
 20
4.4587810194
 10
13.3259454021
 20
4.4943718628
  0
LWPOLYLINE
  5
6BA
100
AcDbEntity
  8
0
100
AcDbPolyline
 62
7
  6
CONTINUOUS
 90
4
 70
0
 10
12.6807362287
 20
4.188104917
 10
12.6524898034
 20
4.1976652413
 10
12.6275912985
 20
4.2093924843
 10
12.6242403635
 20
4.2112829978
  0
LWPOLYLINE
  5
6BB
100
AcDbEntity
  8
02___PRT_ALL_AXES
100
AcDbPolyline
 62
7
  6
CONTINUOUS
 90
11
 70
0
 10
12.5649925915
 20
4.3515977027
 10
12.6524058849
 20
4.3365464785
 10
12.7431418509
 20
4.3295709051
 10
12.8349767137
 20
4.3308714156
 10
12.9256597654
 20
4.3404456115
 10
13.0129685271
 20
4.3580883209
 10
13.0947632175
 20
4.3833966271
 10
13.1690391955
 20
4.4157797436
 10
13.23397609
 20
4.4544734926
 10
13.2879824141
 20
4.4985590345
 10
13.3297345698
 20
4.546985386
  0
LWPOLYLINE
  5
6BC
100
AcDbEntity
  8
02___PRT_ALL_AXES
100
AcDbPolyline
 62
7
  6
CONTINUOUS
 90
11
 70
0
 10
12.5649925915
 20
4.3576250335
 10
12.6524058849
 20
4.3425738094
 10
12.7431418509
 20
4.3355982359
 10
12.8349767137
 20
4.3368987464
 10
12.9256597654
 20
4.3464729423
 10
13.0129685271
 20
4.3641156517
 10
13.0947632175
 20
4.389423958
 10
13.1690391955
 20
4.4218070744
 10
13.23397609
 20
4.4605008235
 10
13.2879824141
 20
4.5045863653
 10
13.3297345698
 20
4.5530127168
  0
LWPOLYLINE
  5
6BD
100
AcDbEntity
  8
02___PRT_ALL_AXES
100
AcDbPolyline
 62
7
  6
CONTINUOUS
 90
12
 70
0
 10
12.5649925915
 20
4.3998163494
 10
12.6524058849
 20
4.3847651252
 10
12.7431418509
 20
4.3777895517
 10
12.8349767137
 20
4.3790900623
 10
12.9256597654
 20
4.3886642581
 10
13.0129685271
 20
4.4063069675
 10
13.0947632175
 20
4.4316152738
 10
13.1690391955
 20
4.4639983903
 10
13.23397609
 20
4.5026921393
 10
13.2879824141
 20
4.5467776811
 10
13.3297345698
 20
4.5952040326
 10
13.3582092864
 20
4.6468138253
  0
LWPOLYLINE
  5
6BE
100
AcDbEntity
  8
02___PRT_ALL_AXES
100
AcDbPolyline
 62
7
  6
CONTINUOUS
 90
12
 70
0
 10
12.5649925915
 20
4.4058436802
 10
12.6524058849
 20
4.3907924561
 10
12.7431418509
 20
4.3838168826
 10
12.8349767137
 20
4.3851173931
 10
12.9256597654
 20
4.394691589
 10
13.0129685271
 20
4.4123342984
 10
13.0947632175
 20
4.4376426046
 10
13.1690391955
 20
4.4700257211
 10
13.23397609
 20
4.5087194702
 10
13.2879824141
 20
4.552805012
 10
13.3297345698
 20
4.6012313635
 10
13.3582092864
 20
4.6528411561
  0
LWPOLYLINE
  5
6BF
100
AcDbEntity
  8
02___PRT_ALL_AXES
100
AcDbPolyline
 62
7
  6
CONTINUOUS
 90
11
 70
0
 10
12.5649925915
 20
4.448034996
 10
12.6524058849
 20
4.4329837719
 10
12.7431418509
 20
4.4260081984
 10
12.8349767137
 20
4.427308709
 10
12.9256597654
 20
4.4368829048
 10
13.0129685271
 20
4.4545256142
 10
13.0947632175
 20
4.4798339205
 10
13.1690391955
 20
4.5122170369
 10
13.23397609
 20
4.550910786
 10
13.2879824141
 20
4.5949963278
 10
13.3297345698
 20
4.6434226793
  0
LWPOLYLINE
  5
6C0
100
AcDbEntity
  8
02___PRT_ALL_AXES
100
AcDbPolyline
 62
7
  6
CONTINUOUS
 90
12
 70
0
 10
12.5649925915
 20
4.4540623269
 10
12.6524058849
 20
4.4390111027
 10
12.7431418509
 20
4.4320355293
 10
12.8349767137
 20
4.4333360398
 10
12.9256597654
 20
4.4429102357
 10
13.0129685271
 20
4.4605529451
 10
13.0947632175
 20
4.4858612513
 10
13.1690391955
 20
4.5182443678
 10
13.23397609
 20
4.5569381168
 10
13.2879824141
 20
4.6010236587
 10
13.3297345698
 20
4.6494500101
 10
13.3582092864
 20
4.7010598028
  0
LWPOLYLINE
  5
6C1
100
AcDbEntity
  8
02___PRT_ALL_AXES
100
AcDbPolyline
 62
7
  6
CONTINUOUS
 90
11
 70
0
 10
12.5649925915
 20
4.4962536427
 10
12.6524058849
 20
4.4812024186
 10
12.7431418509
 20
4.4742268451
 10
12.8349767137
 20
4.4755273556
 10
12.9256597654
 20
4.4851015515
 10
13.0129685271
 20
4.5027442609
 10
13.0947632175
 20
4.5280525672
 10
13.1690391955
 20
4.5604356836
 10
13.23397609
 20
4.5991294327
 10
13.2879824141
 20
4.6432149745
 10
13.3297345698
 20
4.691641326
  0
LINE
  5
6C2
100
AcDbEntity
  8
02___PRT_ALL_AXES
100
AcDbLine
 62
7
  6
CONTINUOUS
 10
12.6420075388
 20
4.4298792099
 11
12.5573209485
 21
4.4464646288
  0
LINE
  5
6C3
100
AcDbEntity
  8
02___PRT_ALL_AXES
100
AcDbLine
 62
7
  6
CONTINUOUS
 10
12.6414070091
 20
4.4781846164
 11
12.5569377986
 21
4.4947794291
  0
LINE
  5
6C4
100
AcDbEntity
  8
02___PRT_ALL_AXES
100
AcDbLine
 62
7
  6
CONTINUOUS
 10
12.6405077877
 20
4.3818780189
 11
12.5567711867
 21
4.3983840114
  0
LWPOLYLINE
  5
6C5
100
AcDbEntity
  8
02___PRT_ALL_AXES
100
AcDbPolyline
 62
7
  6
CONTINUOUS
 90
3
 70
0
 10
12.6398233636
 20
4.3337594791
 10
12.5559664293
 20
4.3503681716
 10
12.4785225972
 20
4.3744497557
  0
LINE
  5
6C6
100
AcDbEntity
  8
02___PRT_ALL_AXES
100
AcDbLine
 62
7
  6
CONTINUOUS
 10
12.5573209485
 20
4.4464646288
 11
12.4785225972
 21
4.4708870491
  0
LINE
  5
6C7
100
AcDbEntity
  8
02___PRT_ALL_AXES
100
AcDbLine
 62
7
  6
CONTINUOUS
 10
12.5567711867
 20
4.3983840114
 11
12.4785225972
 21
4.4226684024
  0
LWPOLYLINE
  5
6C8
100
AcDbEntity
  8
02___PRT_ALL_AXES
100
AcDbPolyline
 62
7
  6
CONTINUOUS
 90
5
 70
0
 10
12.5649925915
 20
4.303379056
 10
12.5440281602
 20
4.3100402533
 10
12.5220668075
 20
4.3176866593
 10
12.4999890638
 20
4.3261010842
 10
12.4785225972
 20
4.3350155665
  0
LWPOLYLINE
  5
6C9
100
AcDbEntity
  8
02___PRT_ALL_AXES
100
AcDbPolyline
 62
7
  6
CONTINUOUS
 90
3
 70
0
 10
12.5649925915
 20
4.3515977027
 10
12.5360182751
 20
4.360966499
 10
12.5071819286
 20
4.3714959764
  0
LWPOLYLINE
  5
6CA
100
AcDbEntity
  8
02___PRT_ALL_AXES
100
AcDbPolyline
 62
7
  6
CONTINUOUS
 90
4
 70
0
 10
12.2454017519
 20
4.4878483368
 10
12.2743713634
 20
4.4784811579
 10
12.3032073028
 20
4.4679520413
 10
12.3318717462
 20
4.4562118262
  0
LWPOLYLINE
  5
6CB
100
AcDbEntity
  8
02___PRT_ALL_AXES
100
AcDbPolyline
 62
7
  6
CONTINUOUS
 90
3
 70
0
 10
12.5649925915
 20
4.3998163494
 10
12.5360182751
 20
4.4091851457
 10
12.5071819286
 20
4.4197146231
  0
LWPOLYLINE
  5
6CC
100
AcDbEntity
  8
02___PRT_ALL_AXES
100
AcDbPolyline
 62
7
  6
CONTINUOUS
 90
4
 70
0
 10
12.2454017519
 20
4.5360669834
 10
12.2743713634
 20
4.5266998046
 10
12.3032073028
 20
4.516170688
 10
12.3318717462
 20
4.5044304729
  0
LWPOLYLINE
  5
6CD
100
AcDbEntity
  8
02___PRT_ALL_AXES
100
AcDbPolyline
 62
7
  6
CONTINUOUS
 90
3
 70
0
 10
12.5649925915
 20
4.448034996
 10
12.5360182751
 20
4.4574037924
 10
12.5071819286
 20
4.4679332697
  0
LINE
  5
6CE
100
AcDbEntity
  8
02___PRT_ALL_AXES
100
AcDbLine
 62
7
  6
CONTINUOUS
 10
12.5071819286
 20
4.3714959764
 11
12.4785225972
 21
4.3832342132
  0
LINE
  5
6CF
100
AcDbEntity
  8
02___PRT_ALL_AXES
100
AcDbLine
 62
7
  6
CONTINUOUS
 10
12.5071819286
 20
4.4197146231
 11
12.4785225972
 21
4.4314528599
  0
LINE
  5
6D0
100
AcDbEntity
  8
0
100
AcDbLine
 62
7
  6
CONTINUOUS
 10
12.6489453856
 20
4.2001635351
 11
12.6209473583
 21
4.2131843306
  0
LWPOLYLINE
  5
6D1
100
AcDbEntity
  8
0
100
AcDbPolyline
 62
7
  6
CONTINUOUS
 90
10
 70
0
 10
12.6274660542
 20
4.2406912145
 10
12.6489453856
 20
4.2307020114
 10
12.6803040656
 20
4.2203676261
 10
12.7143851423
 20
4.2129633962
 10
12.7502292684
 20
4.2087282866
 10
12.7871929962
 20
4.2077803457
 10
12.8246403721
 20
4.2102462958
 10
12.861155917
 20
4.2161167453
 10
12.8954065297
 20
4.225131045
 10
12.9228339828
 20
4.235539083
  0
LINE
  5
6D2
100
AcDbEntity
  8
0
100
AcDbLine
 62
7
  6
CONTINUOUS
 10
12.4858991258
 20
4.2794509151
 11
12.4873588903
 21
4.2787502395
  0
LWPOLYLINE
  5
6D3
100
AcDbEntity
  8
0
100
AcDbPolyline
 62
7
  6
CONTINUOUS
 90
4
 70
0
 10
12.6209473583
 20
4.2131843306
 10
12.639186977
 20
4.2036956194
 10
12.6591839968
 20
4.1952948592
 10
12.6807362287
 20
4.188104917
  0
LINE
  5
6D4
100
AcDbEntity
  8
0
100
AcDbLine
 62
7
  6
CONTINUOUS
 10
12.4858747056
 20
4.2794650137
 11
12.3408276945
 21
4.3632060501
  0
LINE
  5
6D5
100
AcDbEntity
  8
0
100
AcDbLine
 62
7
  6
CONTINUOUS
 10
12.6209431731
 20
4.2131866847
 11
12.6209469024
 21
4.2131845316
  0
LINE
  5
6D6
100
AcDbEntity
  8
0
100
AcDbLine
 62
9
  6
CONTINUOUS
 10
12.4785225972
 20
4.2970251122
 11
12.3318717462
 21
4.381692105
  0
LWPOLYLINE
  5
6D7
100
AcDbEntity
  8
02___PRT_ALL_AXES
100
AcDbPolyline
 62
7
  6
CONTINUOUS
 90
7
 70
0
 10
12.93980904
 20
4.5838101589
 10
13.0251686234
 20
4.60237429
 10
13.1048814625
 20
4.6283128073
 10
13.1770498371
 20
4.6610364115
 10
13.2399556382
 20
4.699794271
 10
13.2921012702
 20
4.7436918969
 10
13.3322453044
 20
4.7917124382
  0
LWPOLYLINE
  5
6D8
100
AcDbEntity
  8
02___PRT_ALL_AXES
100
AcDbPolyline
 62
7
  6
CONTINUOUS
 90
8
 70
0
 10
12.93980904
 20
4.5898374898
 10
13.0251686234
 20
4.6084016209
 10
13.1048814625
 20
4.6343401382
 10
13.1770498371
 20
4.6670637423
 10
13.2399556382
 20
4.7058216018
 10
13.2921012702
 20
4.7497192277
 10
13.3322453044
 20
4.7977397691
 10
13.3402956766
 20
4.8128500101
  0
LINE
  5
6D9
100
AcDbEntity
  8
02___PRT_ALL_AXES
100
AcDbLine
 62
7
  6
CONTINUOUS
 10
12.9256597654
 20
4.6297574916
 11
13.0129685271
 21
4.6474002009
  0
LWPOLYLINE
  5
6DA
100
AcDbEntity
  8
02___PRT_ALL_AXES
100
AcDbPolyline
 62
7
  6
CONTINUOUS
 90
5
 70
0
 10
12.9926474088
 20
4.5909010483
 10
12.9069499009
 20
4.5744004725
 10
12.8180190618
 20
4.5661210244
 10
12.7293253908
 20
4.56621836
 10
12.642014281
 20
4.5745341783
  0
LWPOLYLINE
  5
6DB
100
AcDbEntity
  8
02___PRT_ALL_AXES
100
AcDbPolyline
 62
7
  6
CONTINUOUS
 90
5
 70
0
 10
12.9306381439
 20
4.6263008421
 10
12.8538399545
 20
4.6166473451
 10
12.7753377536
 20
4.6133559537
 10
12.6975756272
 20
4.6164934325
 10
12.6211992655
 20
4.6260068036
  0
LINE
  5
6DC
100
AcDbEntity
  8
02___PRT_ALL_AXES
100
AcDbLine
 62
7
  6
CONTINUOUS
 10
12.8458836211
 20
4.5787005611
 11
12.93980904
 21
4.5898374898
  0
LWPOLYLINE
  5
6DD
100
AcDbEntity
  8
02___PRT_ALL_AXES
100
AcDbPolyline
 62
7
  6
CONTINUOUS
 90
5
 70
0
 10
12.5649925915
 20
4.5926909361
 10
12.6559599724
 20
4.5772067845
 10
12.7504243986
 20
4.5704636361
 10
12.8458836211
 20
4.5726732303
 10
12.93980904
 20
4.5838101589
  0
LWPOLYLINE
  5
6DE
100
AcDbEntity
  8
02___PRT_ALL_AXES
100
AcDbPolyline
 62
7
  6
CONTINUOUS
 90
4
 70
0
 10
12.5649925915
 20
4.5987182669
 10
12.6559599724
 20
4.5832341153
 10
12.7504243986
 20
4.5764909669
 10
12.8458836211
 20
4.5787005611
  0
LWPOLYLINE
  5
6DF
100
AcDbEntity
  8
02___PRT_ALL_AXES
100
AcDbPolyline
 62
7
  6
CONTINUOUS
 90
12
 70
0
 10
12.5649925915
 20
4.5022809736
 10
12.6524058849
 20
4.4872297494
 10
12.7431418509
 20
4.4802541759
 10
12.8349767137
 20
4.4815546865
 10
12.9256597654
 20
4.4911288823
 10
13.0129685271
 20
4.5087715917
 10
13.0947632175
 20
4.534079898
 10
13.1690391955
 20
4.5664630145
 10
13.23397609
 20
4.6051567635
 10
13.2879824141
 20
4.6492423053
 10
13.3297345698
 20
4.6976686568
 10
13.3582092864
 20
4.7492784495
  0
LWPOLYLINE
  5
6E0
100
AcDbEntity
  8
02___PRT_ALL_AXES
100
AcDbPolyline
 62
7
  6
CONTINUOUS
 90
11
 70
0
 10
12.5649925915
 20
4.5444722894
 10
12.6524058849
 20
4.5294210653
 10
12.7431418509
 20
4.5224454918
 10
12.8349767137
 20
4.5237460023
 10
12.9256597654
 20
4.5333201982
 10
13.0129685271
 20
4.5509629076
 10
13.0947632175
 20
4.5762712138
 10
13.1690391955
 20
4.6086543303
 10
13.23397609
 20
4.6473480794
 10
13.2879824141
 20
4.6914336212
 10
13.3297345698
 20
4.7398599727
  0
LWPOLYLINE
  5
6E1
100
AcDbEntity
  8
02___PRT_ALL_AXES
100
AcDbPolyline
 62
7
  6
CONTINUOUS
 90
12
 70
0
 10
12.5649925915
 20
4.5504996202
 10
12.6524058849
 20
4.5354483961
 10
12.7431418509
 20
4.5284728226
 10
12.8349767137
 20
4.5297733332
 10
12.9256597654
 20
4.539347529
 10
13.0129685271
 20
4.5569902384
 10
13.0947632175
 20
4.5822985447
 10
13.1690391955
 20
4.6146816611
 10
13.23397609
 20
4.6533754102
 10
13.2879824141
 20
4.697460952
 10
13.3297345698
 20
4.7458873035
 10
13.3582092864
 20
4.7974970962
  0
LWPOLYLINE
  5
6E2
100
AcDbEntity
  8
02___PRT_ALL_AXES
100
AcDbPolyline
 62
7
  6
CONTINUOUS
 90
5
 70
0
 10
12.5649925915
 20
4.6409095828
 10
12.6524058849
 20
4.6258583586
 10
12.7431418509
 20
4.6188827852
 10
12.8349767137
 20
4.6201832957
 10
12.9256597654
 20
4.6297574916
  0
LWPOLYLINE
  5
6E3
100
AcDbEntity
  8
02___PRT_ALL_AXES
100
AcDbPolyline
 62
7
  6
CONTINUOUS
 90
6
 70
0
 10
12.5649925915
 20
4.6469369136
 10
12.6524058849
 20
4.6318856895
 10
12.7431418509
 20
4.624910116
 10
12.8349767137
 20
4.6262106265
 10
12.9256597654
 20
4.6357848224
 10
13.0129685271
 20
4.6534275318
  0
LINE
  5
6E4
100
AcDbEntity
  8
02___PRT_ALL_AXES
100
AcDbLine
 62
7
  6
CONTINUOUS
 10
12.642014281
 20
4.5745341783
 11
12.5573249343
 21
4.5911195697
  0
LWPOLYLINE
  5
6E5
100
AcDbEntity
  8
02___PRT_ALL_AXES
100
AcDbPolyline
 62
7
  6
CONTINUOUS
 90
3
 70
0
 10
12.6392994786
 20
4.5267110601
 10
12.5561353291
 20
4.5432001194
 10
12.4785225972
 20
4.5673243424
  0
LWPOLYLINE
  5
6E6
100
AcDbEntity
  8
02___PRT_ALL_AXES
100
AcDbPolyline
 62
7
  6
CONTINUOUS
 90
3
 70
0
 10
12.6211992655
 20
4.6260068036
 10
12.5474334266
 20
4.6418861963
 10
12.4785225972
 20
4.6637616358
  0
LINE
  5
6E7
100
AcDbEntity
  8
02___PRT_ALL_AXES
100
AcDbLine
 62
7
  6
CONTINUOUS
 10
12.5573249343
 20
4.5911195697
 11
12.4785225972
 21
4.6155429891
  0
LINE
  5
6E8
100
AcDbEntity
  8
02___PRT_ALL_AXES
100
AcDbLine
 62
7
  6
CONTINUOUS
 10
12.5569377986
 20
4.4947794291
 11
12.4785225972
 21
4.5191056958
  0
LWPOLYLINE
  5
6E9
100
AcDbEntity
  8
02___PRT_ALL_AXES
100
AcDbPolyline
 62
7
  6
CONTINUOUS
 90
4
 70
0
 10
12.5649925915
 20
4.4962536427
 10
12.5442555169
 20
4.5028393223
 10
12.5225613319
 20
4.5103812606
 10
12.5004720522
 20
4.5187835299
  0
LWPOLYLINE
  5
6EA
100
AcDbEntity
  8
02___PRT_ALL_AXES
100
AcDbPolyline
 62
7
  6
CONTINUOUS
 90
5
 70
0
 10
12.2454017519
 20
4.7289415702
 10
12.2660893092
 20
4.7223723283
 10
12.2877709707
 20
4.7148365066
 10
12.3098761268
 20
4.7064300288
 10
12.3318717462
 20
4.6973050597
  0
LWPOLYLINE
  5
6EB
100
AcDbEntity
  8
02___PRT_ALL_AXES
100
AcDbPolyline
 62
7
  6
CONTINUOUS
 90
4
 70
0
 10
12.2454017519
 20
4.5842856301
 10
12.2743772933
 20
4.5749164127
 10
12.3032126332
 20
4.5643872719
 10
12.3318717462
 20
4.5526491196
  0
LWPOLYLINE
  5
6EC
100
AcDbEntity
  8
02___PRT_ALL_AXES
100
AcDbPolyline
 62
7
  6
CONTINUOUS
 90
4
 70
0
 10
12.2454017519
 20
4.6325042768
 10
12.2743713634
 20
4.623137098
 10
12.3032073028
 20
4.6126079814
 10
12.3318717462
 20
4.6008677663
  0
LWPOLYLINE
  5
6ED
100
AcDbEntity
  8
02___PRT_ALL_AXES
100
AcDbPolyline
 62
7
  6
CONTINUOUS
 90
3
 70
0
 10
12.5649925915
 20
4.5444722894
 10
12.5360182751
 20
4.5538410857
 10
12.5071819286
 20
4.5643705631
  0
LWPOLYLINE
  5
6EE
100
AcDbEntity
  8
02___PRT_ALL_AXES
100
AcDbPolyline
 62
7
  6
CONTINUOUS
 90
4
 70
0
 10
12.2454017519
 20
4.6807229235
 10
12.2743713634
 20
4.6713557446
 10
12.3032073028
 20
4.660826628
 10
12.3318717462
 20
4.649086413
  0
LWPOLYLINE
  5
6EF
100
AcDbEntity
  8
02___PRT_ALL_AXES
100
AcDbPolyline
 62
7
  6
CONTINUOUS
 90
3
 70
0
 10
12.5649925915
 20
4.5926909361
 10
12.5360182751
 20
4.6020597324
 10
12.5071819286
 20
4.6125892098
  0
LINE
  5
6F0
100
AcDbEntity
  8
02___PRT_ALL_AXES
100
AcDbLine
 62
7
  6
CONTINUOUS
 10
12.5071819286
 20
4.4679332697
 11
12.4785225972
 21
4.4796715066
  0
LINE
  5
6F1
100
AcDbEntity
  8
02___PRT_ALL_AXES
100
AcDbLine
 62
7
  6
CONTINUOUS
 10
12.5071819286
 20
4.5643705631
 11
12.4785225972
 21
4.5761087999
  0
LINE
  5
6F2
100
AcDbEntity
  8
02___PRT_ALL_AXES
100
AcDbLine
 62
7
  6
CONTINUOUS
 10
12.5071819286
 20
4.6125892098
 11
12.4785225972
 21
4.6243274466
  0
LINE
  5
6F3
100
AcDbEntity
  8
02___PRT_ALL_AXES
100
AcDbLine
 62
7
  6
CONTINUOUS
 10
12.5004720522
 20
4.5187835299
 11
12.4785225972
 21
4.5278901532
  0
LINE
  5
6F4
100
AcDbEntity
  8
0
100
AcDbLine
 62
7
  6
CONTINUOUS
 10
12.3384632388
 20
4.3648734318
 11
12.3408054589
 21
4.3632188876
  0
LWPOLYLINE
  5
6F5
100
AcDbEntity
  8
02___PRT_ALL_AXES
100
AcDbPolyline
 62
7
  6
CONTINUOUS
 90
4
 70
0
 10
12.3318717462
 20
4.416777637
 10
12.3032129776
 20
4.4370396835
 10
12.2743743699
 20
4.4587504548
 10
12.2454017519
 20
4.4818210059
  0
LWPOLYLINE
  5
6F6
100
AcDbEntity
  8
02___PRT_ALL_AXES
100
AcDbPolyline
 62
7
  6
CONTINUOUS
 90
4
 70
0
 10
12.3318717462
 20
4.4649962837
 10
12.3032129776
 20
4.4852583301
 10
12.2743743699
 20
4.5069691015
 10
12.2454017519
 20
4.5300396526
  0
LWPOLYLINE
  5
6F7
100
AcDbEntity
  8
02___PRT_ALL_AXES
100
AcDbPolyline
 62
7
  6
CONTINUOUS
 90
4
 70
0
 10
12.3318717462
 20
4.5132149304
 10
12.3032200667
 20
4.5334718001
 10
12.2743821545
 20
4.5551817152
 10
12.2454017519
 20
4.5782582993
  0
LWPOLYLINE
  5
6F8
100
AcDbEntity
  8
02___PRT_ALL_AXES
100
AcDbPolyline
 62
7
  6
CONTINUOUS
 90
4
 70
0
 10
12.4785225972
 20
4.4226684024
 10
12.5071867138
 20
4.4024024506
 10
12.5360248657
 20
4.3806917932
 10
12.5649925915
 20
4.3576250335
  0
LWPOLYLINE
  5
6F9
100
AcDbEntity
  8
02___PRT_ALL_AXES
100
AcDbPolyline
 62
7
  6
CONTINUOUS
 90
4
 70
0
 10
12.3318717462
 20
4.5614335771
 10
12.3032129776
 20
4.5816956235
 10
12.2743743699
 20
4.6034063948
 10
12.2454017519
 20
4.626476946
  0
LWPOLYLINE
  5
6FA
100
AcDbEntity
  8
02___PRT_ALL_AXES
100
AcDbPolyline
 62
7
  6
CONTINUOUS
 90
4
 70
0
 10
12.4785225972
 20
4.3744497557
 10
12.5073771603
 20
4.3540447
 10
12.5367530642
 20
4.331908399
 10
12.5649925915
 20
4.3094063868
  0
LINE
  5
6FB
100
AcDbEntity
  8
0
100
AcDbLine
 62
7
  6
CONTINUOUS
 10
12.337717807
 20
4.365552231
 11
12.3384632388
 21
4.3648734318
  0
LWPOLYLINE
  5
6FC
100
AcDbEntity
  8
02___PRT_ALL_AXES
100
AcDbPolyline
 62
7
  6
CONTINUOUS
 90
8
 70
0
 10
12.5649925915
 20
4.6891282294
 10
12.6524058849
 20
4.6740770053
 10
12.7431418509
 20
4.6671014318
 10
12.8349767137
 20
4.6684019424
 10
12.9256597654
 20
4.6779761382
 10
13.0129685271
 20
4.6956188476
 10
13.0947632175
 20
4.7209271539
 10
13.1158984271
 20
4.730141761
  0
LWPOLYLINE
  5
6FD
100
AcDbEntity
  8
02___PRT_ALL_AXES
100
AcDbPolyline
 62
7
  6
CONTINUOUS
 90
7
 70
0
 10
12.5649925915
 20
4.6951555603
 10
12.6524058849
 20
4.6801043361
 10
12.7431418509
 20
4.6731287627
 10
12.8349767137
 20
4.6744292732
 10
12.9256597654
 20
4.6840034691
 10
13.0129685271
 20
4.7016461785
 10
13.0766008881
 20
4.7213348315
  0
LWPOLYLINE
  5
6FE
100
AcDbEntity
  8
02___PRT_ALL_AXES
100
AcDbPolyline
 62
7
  6
CONTINUOUS
 90
3
 70
0
 10
12.6390485396
 20
4.6714039935
 10
12.5556348403
 20
4.6879825237
 10
12.4785225972
 20
4.7119802825
  0
LWPOLYLINE
  5
6FF
100
AcDbEntity
  8
02___PRT_ALL_AXES
100
AcDbPolyline
 62
7
  6
CONTINUOUS
 90
3
 70
0
 10
12.5263425173
 20
4.7142948915
 10
12.408019422
 20
4.7432516618
 10
12.2965804152
 20
4.7831450644
  0
LWPOLYLINE
  5
700
100
AcDbEntity
  8
02___PRT_ALL_AXES
100
AcDbPolyline
 62
7
  6
CONTINUOUS
 90
3
 70
0
 10
12.5649925915
 20
4.6409095828
 10
12.5360107782
 20
4.6502809565
 10
12.5071751579
 20
4.6608104767
  0
LWPOLYLINE
  5
701
100
AcDbEntity
  8
02___PRT_ALL_AXES
100
AcDbPolyline
 62
7
  6
CONTINUOUS
 90
4
 70
0
 10
12.2454017519
 20
4.7771602169
 10
12.2743713634
 20
4.767793038
 10
12.3032073028
 20
4.7572639214
 10
12.3318717462
 20
4.7455237063
  0
LWPOLYLINE
  5
702
100
AcDbEntity
  8
02___PRT_ALL_AXES
100
AcDbPolyline
 62
7
  6
CONTINUOUS
 90
3
 70
0
 10
12.5649925915
 20
4.6891282294
 10
12.5360182751
 20
4.6984970258
 10
12.5071819286
 20
4.7090265031
  0
LINE
  5
703
100
AcDbEntity
  8
02___PRT_ALL_AXES
100
AcDbLine
 62
7
  6
CONTINUOUS
 10
12.5071751579
 20
4.6608104767
 11
12.4785225972
 21
4.6725460933
  0
LINE
  5
704
100
AcDbEntity
  8
02___PRT_ALL_AXES
100
AcDbLine
 62
7
  6
CONTINUOUS
 10
12.5071819286
 20
4.7090265031
 11
12.4785225972
 21
4.72076474
  0
LINE
  5
705
100
AcDbEntity
  8
02___PRT_ALL_AXES
100
AcDbLine
 62
7
  6
CONTINUOUS
 10
12.2965804152
 20
4.7831450644
 11
12.1942243649
 21
4.8338378306
  0
LINE
  5
706
100
AcDbEntity
  8
02___PRT_ALL_AXES
100
AcDbLine
 62
9
  6
CONTINUOUS
 10
12.2619609102
 20
4.8560710433
 11
12.1616082514
 21
4.9059301373
  0
LWPOLYLINE
  5
707
100
AcDbEntity
  8
02___PRT_ALL_AXES
100
AcDbPolyline
 62
7
  6
CONTINUOUS
 90
7
 70
0
 10
12.1942243649
 20
4.8338378306
 10
12.1049616364
 20
4.893792586
 10
12.0306795543
 20
4.961701945
 10
11.9733463646
 20
5.0350509809
 10
11.9333637223
 20
5.1113197592
 10
11.9098904623
 20
5.1890882931
 10
11.9021529891
 20
5.2675637382
  0
LWPOLYLINE
  5
708
100
AcDbEntity
  8
02___PRT_ALL_AXES
100
AcDbPolyline
 62
7
  6
CONTINUOUS
 90
5
 70
0
 10
12.3318717462
 20
4.6578708704
 10
12.3099443985
 20
4.6732536033
 10
12.2878641439
 20
4.6895275565
 10
12.2661629732
 20
4.7062578052
 10
12.2454017519
 20
4.7229142393
  0
LWPOLYLINE
  5
709
100
AcDbEntity
  8
02___PRT_ALL_AXES
100
AcDbPolyline
 62
7
  6
CONTINUOUS
 90
5
 70
0
 10
12.4785225972
 20
4.5673243424
 10
12.5004930931
 20
4.5519105655
 10
12.5225924866
 20
4.5356206648
 10
12.5442843974
 20
4.5188956614
 10
12.5649925915
 20
4.5022809736
  0
LWPOLYLINE
  5
70A
100
AcDbEntity
  8
02___PRT_ALL_AXES
100
AcDbPolyline
 62
7
  6
CONTINUOUS
 90
4
 70
0
 10
12.4785225972
 20
4.4708870491
 10
12.5071867138
 20
4.4506210973
 10
12.5360248657
 20
4.4289104399
 10
12.5649925915
 20
4.4058436802
  0
LWPOLYLINE
  5
70B
100
AcDbEntity
  8
02___PRT_ALL_AXES
100
AcDbPolyline
 62
7
  6
CONTINUOUS
 90
4
 70
0
 10
12.3318717462
 20
4.6096522238
 10
12.3032129776
 20
4.6299142702
 10
12.2743743699
 20
4.6516250415
 10
12.2454017519
 20
4.6746955927
  0
LWPOLYLINE
  5
70C
100
AcDbEntity
  8
02___PRT_ALL_AXES
100
AcDbPolyline
 62
7
  6
CONTINUOUS
 90
4
 70
0
 10
12.4785225972
 20
4.5191056958
 10
12.5071867138
 20
4.4988397439
 10
12.5360248657
 20
4.4771290866
 10
12.5649925915
 20
4.4540623269
  0
LWPOLYLINE
  5
70D
100
AcDbEntity
  8
02___PRT_ALL_AXES
100
AcDbPolyline
 62
7
  6
CONTINUOUS
 90
4
 70
0
 10
12.3318717462
 20
4.7060895171
 10
12.3032129776
 20
4.7263515636
 10
12.2743743699
 20
4.7480623349
 10
12.2454017519
 20
4.771132886
  0
LWPOLYLINE
  5
70E
100
AcDbEntity
  8
02___PRT_ALL_AXES
100
AcDbPolyline
 62
7
  6
CONTINUOUS
 90
4
 70
0
 10
12.4785225972
 20
4.6155429891
 10
12.5071867138
 20
4.5952770373
 10
12.5360248657
 20
4.57356638
 10
12.5649925915
 20
4.5504996202
  0
LWPOLYLINE
  5
70F
100
AcDbEntity
  8
02___PRT_ALL_AXES
100
AcDbPolyline
 62
7
  6
CONTINUOUS
 90
3
 70
0
 10
12.3318717462
 20
4.7543081638
 10
12.3032129776
 20
4.7745702102
 10
12.2826754352
 20
4.7900316324
  0
LWPOLYLINE
  5
710
100
AcDbEntity
  8
02___PRT_ALL_AXES
100
AcDbPolyline
 62
7
  6
CONTINUOUS
 90
4
 70
0
 10
12.4785225972
 20
4.6637616358
 10
12.5071867138
 20
4.643495684
 10
12.5360248657
 20
4.6217850266
 10
12.5649925915
 20
4.5987182669
  0
LINE
  5
711
100
AcDbEntity
  8
02___PRT_ALL_AXES
100
AcDbLine
 62
7
  6
CONTINUOUS
 10
12.3318717462
 20
4.6008677663
 11
12.2977041786
 21
4.634061498
  0
LINE
  5
712
100
AcDbEntity
  8
02___PRT_ALL_AXES
100
AcDbLine
 62
7
  6
CONTINUOUS
 10
12.3318717462
 20
4.5526491196
 11
12.3004151824
 21
4.5838019073
  0
LINE
  5
713
100
AcDbEntity
  8
02___PRT_ALL_AXES
100
AcDbLine
 62
7
  6
CONTINUOUS
 10
12.3318717462
 20
4.5044304729
 11
12.3009102434
 21
4.5352106939
  0
LINE
  5
714
100
AcDbEntity
  8
02___PRT_ALL_AXES
100
AcDbLine
 62
7
  6
CONTINUOUS
 10
12.3318717462
 20
4.4562118262
 11
12.3009441551
 21
4.4869663837
  0
LWPOLYLINE
  5
715
100
AcDbEntity
  8
0
100
AcDbPolyline
 62
7
  6
CONTINUOUS
 90
4
 70
0
 10
12.3384637874
 20
4.3648731214
 10
12.2942089501
 20
4.4098576928
 10
12.2621146276
 20
4.4586600821
 10
12.2568119173
 20
4.4727352269
  0
LWPOLYLINE
  5
716
100
AcDbEntity
  8
02___PRT_ALL_AXES
100
AcDbPolyline
 62
7
  6
CONTINUOUS
 90
4
 70
0
 10
12.4785225972
 20
4.7119802825
 10
12.5071814593
 20
4.6917181678
 10
12.5360190545
 20
4.670008177
 10
12.5649925915
 20
4.6469369136
  0
LINE
  5
717
100
AcDbEntity
  8
02___PRT_ALL_AXES
100
AcDbLine
 62
7
  6
CONTINUOUS
 10
12.5442246235
 20
4.7116929209
 11
12.5649925915
 21
4.6951555603
  0
LINE
  5
718
100
AcDbEntity
  8
02___PRT_ALL_AXES
100
AcDbLine
 62
7
  6
CONTINUOUS
 10
12.3318717462
 20
4.6973050597
 11
12.3005598193
 21
4.7283489593
  0
LINE
  5
719
100
AcDbEntity
  8
02___PRT_ALL_AXES
100
AcDbLine
 62
7
  6
CONTINUOUS
 10
12.3318717462
 20
4.7455237063
 11
12.3008243873
 21
4.7763684294
  0
LINE
  5
71A
100
AcDbEntity
  8
02___PRT_ALL_AXES
100
AcDbLine
 62
7
  6
CONTINUOUS
 10
12.3318717462
 20
4.649086413
 11
12.3007514252
 21
4.68002916
  0
LWPOLYLINE
  5
71B
100
AcDbEntity
  8
02___PRT_ALL_AXES
100
AcDbPolyline
 62
7
  6
CONTINUOUS
 90
3
 70
0
 10
12.4416695889
 20
5.1536249872
 10
12.3184650204
 20
5.1867290368
 10
12.2039267745
 20
5.2296290973
  0
LINE
  5
71C
100
AcDbEntity
  8
02___PRT_ALL_AXES
100
AcDbLine
 62
9
  6
CONTINUOUS
 10
12.3740639609
 20
5.169007425
 11
12.3444844049
 21
5.1797378432
  0
LINE
  5
71D
100
AcDbEntity
  8
02___PRT_ALL_AXES
100
AcDbLine
 62
7
  6
CONTINUOUS
 10
12.2039267745
 20
5.2296290973
 11
12.1001654454
 21
5.2816933696
  0
LWPOLYLINE
  5
71E
100
AcDbEntity
  8
02___PRT_ALL_AXES
100
AcDbPolyline
 62
7
  6
CONTINUOUS
 90
7
 70
0
 10
12.1001654454
 20
5.2816933696
 10
12.0122233306
 20
5.3398396345
 10
11.9381437274
 20
5.4046699336
 10
11.8794714379
 20
5.474850372
 10
11.837313836
 20
5.5487396934
 10
11.8120956597
 20
5.6247111265
 10
11.8037277922
 20
5.7015315583
  0
LWPOLYLINE
  5
71F
100
AcDbEntity
  8
02___PRT_ALL_AXES
100
AcDbPolyline
 62
9
  6
CONTINUOUS
 90
5
 70
0
 10
12.092011417
 20
5.2997164463
 10
12.0000479242
 20
5.3609901213
 10
11.9241244514
 20
5.4291962379
 10
11.8657865816
 20
5.5029463163
 10
11.8262219055
 20
5.5807390175
  0
LWPOLYLINE
  5
720
100
AcDbEntity
  8
0
100
AcDbPolyline
 62
7
  6
CONTINUOUS
 90
4
 70
0
 10
12.5754207118
 20
4.251367545
 10
12.5773024233
 20
4.2485514912
 10
12.5965155114
 20
4.2298544985
 10
12.6209431731
 20
4.2131866847
  0
LINE
  5
721
100
AcDbEntity
  8
02___PRT_ALL_AXES
100
AcDbLine
 62
7
  6
CONTINUOUS
 10
12.2172481042
 20
4.5310855982
 11
12.2454017519
 21
4.4818210059
  0
LINE
  5
722
100
AcDbEntity
  8
02___PRT_ALL_AXES
100
AcDbLine
 62
7
  6
CONTINUOUS
 10
12.2172481042
 20
4.5793042449
 11
12.2454017519
 21
4.5300396526
  0
LINE
  5
723
100
AcDbEntity
  8
02___PRT_ALL_AXES
100
AcDbLine
 62
7
  6
CONTINUOUS
 10
12.2172481042
 20
4.5853315757
 11
12.2454017519
 21
4.5360669834
  0
LINE
  5
724
100
AcDbEntity
  8
02___PRT_ALL_AXES
100
AcDbLine
 62
7
  6
CONTINUOUS
 10
12.2172481042
 20
4.6275228916
 11
12.2454017519
 21
4.5782582993
  0
LINE
  5
725
100
AcDbEntity
  8
02___PRT_ALL_AXES
100
AcDbLine
 62
7
  6
CONTINUOUS
 10
12.2172481042
 20
4.723960185
 11
12.2454017519
 21
4.6746955927
  0
LINE
  5
726
100
AcDbEntity
  8
02___PRT_ALL_AXES
100
AcDbLine
 62
7
  6
CONTINUOUS
 10
12.2172481042
 20
4.7721788316
 11
12.2454017519
 21
4.7229142393
  0
LINE
  5
727
100
AcDbEntity
  8
02___PRT_ALL_AXES
100
AcDbLine
 62
7
  6
CONTINUOUS
 10
12.2164154975
 20
4.677745704
 11
12.2454017519
 21
4.626476946
  0
LWPOLYLINE
  5
728
100
AcDbEntity
  8
02___PRT_ALL_AXES
100
AcDbPolyline
 62
7
  6
CONTINUOUS
 90
3
 70
0
 10
11.9355946012
 20
5.671356041
 10
12.0071226685
 20
5.6095525293
 10
12.092011417
 20
5.5536679855
  0
LINE
  5
729
100
AcDbEntity
  8
02___PRT_ALL_AXES
100
AcDbLine
 62
7
  6
CONTINUOUS
 10
11.8786510804
 20
5.7380210455
 11
11.9355946012
 21
5.671356041
  0
LINE
  5
72A
100
AcDbEntity
  8
02___PRT_ALL_AXES
100
AcDbLine
 62
7
  6
CONTINUOUS
 10
11.8372664254
 20
5.808406886
 11
11.8786510804
 21
5.7380210455
  0
LINE
  5
72B
100
AcDbEntity
  8
02___PRT_ALL_AXES
100
AcDbLine
 62
7
  6
CONTINUOUS
 10
12.2172481042
 20
4.8203974783
 11
12.2454017519
 21
4.771132886
  0
LINE
  5
72C
100
AcDbEntity
  8
02___PRT_ALL_AXES
100
AcDbLine
 62
7
  6
CONTINUOUS
 10
12.2204281869
 20
4.8208601491
 11
12.2454017519
 21
4.7771602169
  0
LWPOLYLINE
  5
72D
100
AcDbEntity
  8
0
100
AcDbPolyline
 62
9
  6
CONTINUOUS
 90
4
 70
0
 10
12.2592365774
 20
4.470804499
 10
12.2596755265
 20
4.4696292367
 10
12.2899072502
 20
4.4240694929
 10
12.3318717462
 20
4.381692105
  0
LWPOLYLINE
  5
72E
100
AcDbEntity
  8
AXIS
100
AcDbPolyline
 62
7
  6
CONTINUOUS
 90
18
 70
0
 10
11.8037373683
 20
5.9554831016
 10
11.8062358458
 20
5.9149422458
 10
11.8262219055
 20
5.8346905567
 10
11.8657865816
 20
5.7568978555
 10
11.9241244514
 20
5.6831477771
 10
12.0000479242
 20
5.6149416605
 10
12.092011417
 20
5.5536679855
 10
12.1981428183
 20
5.5005741074
 10
12.3162815987
 20
5.4567408645
 10
12.4440227935
 20
5.4230605753
 10
12.5787659602
 20
5.4002188732
 10
12.7177681166
 20
5.3886807495
 10
12.8581995796
 20
5.388681087
 10
12.9972015696
 20
5.400219879
 10
13.1319444069
 20
5.4230622288
 10
13.2596851159
 20
5.4567431322
 10
13.3778232642
 20
5.500576943
 10
13.4839538997
 20
5.5536713313
  0
LINE
  5
72F
100
AcDbEntity
  8
0
100
AcDbLine
 62
7
  6
CONTINUOUS
 10
11.8038027622
 20
8.1355503039
 11
11.8084994008
 21
8.3552300745
  0
LWPOLYLINE
  5
730
100
AcDbEntity
  8
AXIS
100
AcDbPolyline
 62
7
  6
CONTINUOUS
 90
3
 70
0
 10
11.8079439136
 20
6.8676015934
 10
11.8062352611
 20
6.8607402935
 10
11.8037373683
 20
6.8202041654
  0
LINE
  5
731
100
AcDbEntity
  8
02___PRT_ALL_AXES
100
AcDbLine
 62
7
  6
CONTINUOUS
 10
11.8121487392
 20
5.8813092412
 11
11.8372664254
 21
5.808406886
  0
LINE
  5
732
100
AcDbEntity
  8
02___PRT_ALL_AXES
100
AcDbLine
 62
7
  6
CONTINUOUS
 10
12.203082066
 20
4.6304872229
 11
12.2172481042
 21
4.5793042449
  0
LINE
  5
733
100
AcDbEntity
  8
02___PRT_ALL_AXES
100
AcDbLine
 62
7
  6
CONTINUOUS
 10
12.203082066
 20
4.6365145538
 11
12.2172481042
 21
4.5853315757
  0
LINE
  5
734
100
AcDbEntity
  8
02___PRT_ALL_AXES
100
AcDbLine
 62
7
  6
CONTINUOUS
 10
12.203082066
 20
4.6787058696
 11
12.2172481042
 21
4.6275228916
  0
LWPOLYLINE
  5
735
100
AcDbEntity
  8
02___PRT_ALL_AXES
100
AcDbPolyline
 62
7
  6
CONTINUOUS
 90
3
 70
0
 10
12.203082066
 20
4.6847332005
 10
12.2172481042
 20
4.6335502224
 10
12.2454017519
 20
4.5842856301
  0
LINE
  5
736
100
AcDbEntity
  8
02___PRT_ALL_AXES
100
AcDbLine
 62
7
  6
CONTINUOUS
 10
12.203082066
 20
4.775143163
 11
12.2172481042
 21
4.723960185
  0
LWPOLYLINE
  5
737
100
AcDbEntity
  8
02___PRT_ALL_AXES
100
AcDbPolyline
 62
7
  6
CONTINUOUS
 90
3
 70
0
 10
12.203082066
 20
4.7811704938
 10
12.2172481042
 20
4.7299875158
 10
12.2454017519
 20
4.6807229235
  0
LINE
  5
738
100
AcDbEntity
  8
02___PRT_ALL_AXES
100
AcDbLine
 62
7
  6
CONTINUOUS
 10
12.203082066
 20
4.8233618097
 11
12.2172481042
 21
4.7721788316
  0
LWPOLYLINE
  5
739
100
AcDbEntity
  8
02___PRT_ALL_AXES
100
AcDbPolyline
 62
7
  6
CONTINUOUS
 90
3
 70
0
 10
12.203082066
 20
4.8293891405
 10
12.2172481042
 20
4.7782061625
 10
12.2454017519
 20
4.7289415702
  0
LINE
  5
73A
100
AcDbEntity
  8
02___PRT_ALL_AXES
100
AcDbLine
 62
7
  6
CONTINUOUS
 10
12.2025692921
 20
4.731033526
 11
12.2164154975
 21
4.677745704
  0
LWPOLYLINE
  5
73B
100
AcDbEntity
  8
02___PRT_ALL_AXES
100
AcDbPolyline
 62
7
  6
CONTINUOUS
 90
3
 70
0
 10
12.2025692921
 20
4.7370608569
 10
12.2164154975
 20
4.6837730349
 10
12.2454017519
 20
4.6325042768
  0
LWPOLYLINE
  5
73C
100
AcDbEntity
  8
02___PRT_ALL_AXES
100
AcDbPolyline
 62
9
  6
CONTINUOUS
 90
3
 70
0
 10
11.8262219055
 20
5.5807390175
 10
11.8062358458
 20
5.6609907066
 10
11.8037277922
 20
5.7015315583
  0
LINE
  5
73D
100
AcDbEntity
  8
02___PRT_ALL_AXES
100
AcDbLine
 62
7
  6
CONTINUOUS
 10
11.8037277922
 20
5.9554830908
 11
11.8121487392
 21
5.8813092412
  0
LINE
  5
73E
100
AcDbEntity
  8
0
100
AcDbLine
 62
7
  6
CONTINUOUS
 10
11.8062358458
 20
7.223274859
 11
11.8037560281
 21
7.2603033248
  0
LWPOLYLINE
  5
73F
100
AcDbEntity
  8
AXIS
100
AcDbPolyline
 62
7
  6
CONTINUOUS
 90
7
 70
0
 10
11.8037373683
 20
6.8202041654
 10
11.8062358458
 20
6.7796633096
 10
11.8262219055
 20
6.6994116205
 10
11.8657865816
 20
6.6216189193
 10
11.9241244514
 20
6.5478688409
 10
12.0000479242
 20
6.4796627243
 10
12.092011417
 20
6.4183890493
  0
LWPOLYLINE
  5
740
100
AcDbEntity
  8
AXIS
100
AcDbPolyline
 62
7
  6
CONTINUOUS
 90
18
 70
0
 10
11.8037373683
 20
7.2638157148
 10
11.8062358458
 20
7.223274859
 10
11.8262219055
 20
7.14302317
 10
11.8657865816
 20
7.0652304688
 10
11.9241244514
 20
6.9914803904
 10
12.0000479242
 20
6.9232742737
 10
12.092011417
 20
6.8620005987
 10
12.1981428183
 20
6.8089067207
 10
12.3162815987
 20
6.7650734778
 10
12.4440227935
 20
6.7313931885
 10
12.5787659602
 20
6.7085514865
 10
12.7177681166
 20
6.6970133627
 10
12.8581995796
 20
6.6970137003
 10
12.9972015696
 20
6.7085524922
 10
13.1319444069
 20
6.7313948421
 10
13.2596851159
 20
6.7650757455
 10
13.3778232642
 20
6.8089095563
 10
13.4839538997
 20
6.8620039445
  0
LWPOLYLINE
  5
741
100
AcDbEntity
  8
AXIS
100
AcDbPolyline
 62
7
  6
CONTINUOUS
 90
7
 70
0
 10
11.8037373683
 20
8.1285367786
 10
11.8062358458
 20
8.0879959229
 10
11.8262219055
 20
8.0077442338
 10
11.8657865816
 20
7.9299515326
 10
11.9241244514
 20
7.8562014542
 10
12.0000479242
 20
7.7879953375
 10
12.092011417
 20
7.7267216625
  0
LWPOLYLINE
  5
742
100
AcDbEntity
  8
0
100
AcDbPolyline
 62
7
  6
CONTINUOUS
 90
7
 70
0
 10
11.8038120209
 20
8.1355618272
 10
11.8062358458
 20
8.0879959229
 10
11.8262219055
 20
8.0077442338
 10
11.8657865816
 20
7.9299515326
 10
11.9241244514
 20
7.8562014542
 10
12.0000479242
 20
7.7879953375
 10
12.092011417
 20
7.7267216625
  0
LWPOLYLINE
  5
743
100
AcDbEntity
  8
0
100
AcDbPolyline
 62
9
  6
CONTINUOUS
 90
11
 70
0
 10
11.8084994008
 20
8.3552300744
 10
11.8106486445
 20
8.3101636734
 10
11.8186937601
 20
8.2665758241
 10
11.8325734173
 20
8.2234497392
 10
11.852216076
 20
8.1810456771
 10
11.8774222565
 20
8.1397560131
 10
11.9080516318
 20
8.0997551225
 10
11.9444115054
 20
8.0607820724
 10
11.9871184146
 20
8.0226019683
 10
12.0370445821
 20
7.9851095504
 10
12.0953326812
 20
7.948352424
  0
LWPOLYLINE
  5
744
100
AcDbEntity
  8
02___PRT_ALL_AXES
100
AcDbPolyline
 62
9
  6
CONTINUOUS
 90
7
 70
0
 10
11.9021529891
 20
5.2675637382
 10
11.9027725814
 20
5.2484388184
 10
11.9175967595
 20
5.1724817998
 10
11.9518638555
 20
5.0986487547
 10
12.0048083993
 20
5.0285889911
 10
12.0752476971
 20
4.9638675285
 10
12.1616082514
 20
4.9059301373
  0
LINE
  5
745
100
AcDbEntity
  8
0
100
AcDbLine
 62
7
  6
CONTINUOUS
 10
11.8037465313
 20
7.2603092132
 11
11.8084878102
 21
6.8167145554
  0
LINE
  5
746
100
AcDbEntity
  8
02___PRT_ALL_AXES
100
AcDbLine
 62
7
  6
CONTINUOUS
 10
11.8037277922
 20
5.9554830975
 11
11.8037277922
 21
5.7015315583
  0
LINE
  5
747
100
AcDbEntity
  8
AXIS
100
AcDbLine
 62
7
  6
CONTINUOUS
 10
11.8037277922
 20
5.9554830975
 11
11.8037277922
 21
6.8202041613
  0
LINE
  5
748
100
AcDbEntity
  8
AXIS
100
AcDbLine
 62
7
  6
CONTINUOUS
 10
11.8037277922
 20
7.2638157108
 11
11.8037277922
 21
8.1285367746
  0
LINE
  5
749
100
AcDbEntity
  8
02___PRT_ALL_AXES
100
AcDbLine
 62
7
  6
CONTINUOUS
 10
11.9021529891
 20
5.4477199972
 11
11.9021529891
 21
5.2675637382
  0
LWPOLYLINE
  5
74A
100
AcDbEntity
  8
0
100
AcDbPolyline
 62
9
  6
CONTINUOUS
 90
14
 70
0
 10
13.3655594793
 20
7.8914817599
 10
13.4250764399
 20
7.9186688484
 10
13.4807696116
 20
7.9484348682
 10
13.5323037096
 20
7.9806006309
 10
13.5793703986
 20
8.0149737159
 10
13.6216877208
 20
8.0513485612
 10
13.6590005681
 20
8.0895062845
 10
13.6910841794
 20
8.1292171122
 10
13.717745485
 20
8.1702416597
 10
13.7388257535
 20
8.212335511
 10
13.7541994737
 20
8.2552506099
 10
13.7637725293
 20
8.2987316479
 10
13.7674843955
 20
8.3425167431
 10
13.7674601207
 20
8.3552300744
  0
LINE
  5
74B
100
AcDbEntity
  8
02___PRT_ALL_AXES
100
AcDbLine
 62
7
  6
CONTINUOUS
 10
12.2165945586
 20
4.8227587884
 11
12.2172481042
 21
4.8203974783
  0
LWPOLYLINE
  5
74C
100
AcDbEntity
  8
02___PRT_ALL_AXES
100
AcDbPolyline
 62
7
  6
CONTINUOUS
 90
3
 70
0
 10
12.2013655875
 20
4.6075709798
 10
12.203082066
 20
4.5822685763
 10
12.2172481042
 20
4.5310855982
  0
LWPOLYLINE
  5
74D
100
AcDbEntity
  8
02___PRT_ALL_AXES
100
AcDbPolyline
 62
7
  6
CONTINUOUS
 90
4
 70
0
 10
12.2013655875
 20
4.6135983107
 10
12.203082066
 20
4.5882959071
 10
12.2172481042
 20
4.5371129291
 10
12.2454017519
 20
4.4878483368
  0
LINE
  5
74E
100
AcDbEntity
  8
02___PRT_ALL_AXES
100
AcDbLine
 62
7
  6
CONTINUOUS
 10
12.2013655875
 20
4.6557896265
 11
12.203082066
 21
4.6304872229
  0
LINE
  5
74F
100
AcDbEntity
  8
02___PRT_ALL_AXES
100
AcDbLine
 62
7
  6
CONTINUOUS
 10
12.2013655875
 20
4.6618169573
 11
12.203082066
 21
4.6365145538
  0
LINE
  5
750
100
AcDbEntity
  8
02___PRT_ALL_AXES
100
AcDbLine
 62
7
  6
CONTINUOUS
 10
12.2013655875
 20
4.7040082732
 11
12.203082066
 21
4.6787058696
  0
LINE
  5
751
100
AcDbEntity
  8
02___PRT_ALL_AXES
100
AcDbLine
 62
7
  6
CONTINUOUS
 10
12.2013655875
 20
4.710035604
 11
12.203082066
 21
4.6847332005
  0
LINE
  5
752
100
AcDbEntity
  8
02___PRT_ALL_AXES
100
AcDbLine
 62
7
  6
CONTINUOUS
 10
12.2013655875
 20
4.8004455665
 11
12.203082066
 21
4.775143163
  0
LINE
  5
753
100
AcDbEntity
  8
02___PRT_ALL_AXES
100
AcDbLine
 62
7
  6
CONTINUOUS
 10
12.2013655875
 20
4.8064728974
 11
12.203082066
 21
4.7811704938
  0
LINE
  5
754
100
AcDbEntity
  8
02___PRT_ALL_AXES
100
AcDbLine
 62
7
  6
CONTINUOUS
 10
12.2026546249
 20
4.8296626675
 11
12.203082066
 21
4.8233618097
  0
LINE
  5
755
100
AcDbEntity
  8
02___PRT_ALL_AXES
100
AcDbLine
 62
7
  6
CONTINUOUS
 10
12.2030777255
 20
4.8294531231
 11
12.203082066
 21
4.8293891405
  0
LINE
  5
756
100
AcDbEntity
  8
02___PRT_ALL_AXES
100
AcDbLine
 62
7
  6
CONTINUOUS
 10
12.2013655875
 20
4.7522269199
 11
12.2025692921
 21
4.731033526
  0
LINE
  5
757
100
AcDbEntity
  8
02___PRT_ALL_AXES
100
AcDbLine
 62
7
  6
CONTINUOUS
 10
12.2013655875
 20
4.7582542507
 11
12.2025692921
 21
4.7370608569
  0
LWPOLYLINE
  5
758
100
AcDbEntity
  8
0
100
AcDbPolyline
 62
7
  6
CONTINUOUS
 90
6
 70
0
 10
12.5880808672
 20
4.2380625741
 10
12.5888958847
 20
4.2347899666
 10
12.5970857727
 20
4.2186868775
 10
12.6091617117
 20
4.2034206113
 10
12.6248778706
 20
4.1893019451
 10
12.6439143136
 20
4.1766182944
  0
LWPOLYLINE
  5
759
100
AcDbEntity
  8
0
100
AcDbPolyline
 62
7
  6
CONTINUOUS
 90
3
 70
0
 10
12.3318717462
 20
4.381692105
 10
12.3333715419
 20
4.3724487953
 10
12.337717807
 20
4.365552231
  0
LINE
  5
75A
100
AcDbEntity
  8
02___PRT_ALL_AXES
100
AcDbLine
 62
7
  6
CONTINUOUS
 10
12.2454017519
 20
4.4818210059
 11
12.2454017519
 21
4.4878483368
  0
LINE
  5
75B
100
AcDbEntity
  8
02___PRT_ALL_AXES
100
AcDbLine
 62
7
  6
CONTINUOUS
 10
12.2454017519
 20
4.5300396526
 11
12.2454017519
 21
4.5360669834
  0
LINE
  5
75C
100
AcDbEntity
  8
02___PRT_ALL_AXES
100
AcDbLine
 62
7
  6
CONTINUOUS
 10
12.2454017519
 20
4.5782582993
 11
12.2454017519
 21
4.5842856301
  0
LINE
  5
75D
100
AcDbEntity
  8
02___PRT_ALL_AXES
100
AcDbLine
 62
7
  6
CONTINUOUS
 10
12.2454017519
 20
4.626476946
 11
12.2454017519
 21
4.6325042768
  0
LINE
  5
75E
100
AcDbEntity
  8
02___PRT_ALL_AXES
100
AcDbLine
 62
7
  6
CONTINUOUS
 10
12.2454017519
 20
4.6746955927
 11
12.2454017519
 21
4.6807229235
  0
LINE
  5
75F
100
AcDbEntity
  8
02___PRT_ALL_AXES
100
AcDbLine
 62
7
  6
CONTINUOUS
 10
12.2454017519
 20
4.7229142393
 11
12.2454017519
 21
4.7289415702
  0
LINE
  5
760
100
AcDbEntity
  8
02___PRT_ALL_AXES
100
AcDbLine
 62
7
  6
CONTINUOUS
 10
12.2454017519
 20
4.771132886
 11
12.2454017519
 21
4.7771602169
  0
LWPOLYLINE
  5
761
100
AcDbEntity
  8
AXIS
100
AcDbPolyline
 62
7
  6
CONTINUOUS
 90
7
 70
0
 10
13.4839538997
 20
7.7267250084
 10
13.5759165087
 20
7.7879991255
 10
13.6518389978
 20
7.8562056071
 10
13.710175804
 20
7.9299559659
 10
13.7497393581
 20
8.0077488574
 10
13.7697242604
 20
8.0880006425
 10
13.7722221532
 20
8.1285367706
  0
LWPOLYLINE
  5
762
100
AcDbEntity
  8
0
100
AcDbPolyline
 62
7
  6
CONTINUOUS
 90
4
 70
0
 10
12.4785225972
 20
4.2970251122
 10
12.4797621521
 20
4.2879320491
 10
12.4833518671
 20
4.2814722693
 10
12.4858991258
 20
4.2794509151
  0
LINE
  5
763
100
AcDbEntity
  8
02___PRT_ALL_AXES
100
AcDbLine
 62
7
  6
CONTINUOUS
 10
12.3318717462
 20
4.7543081638
 11
12.3318717462
 21
4.7455237063
  0
LINE
  5
764
100
AcDbEntity
  8
02___PRT_ALL_AXES
100
AcDbLine
 62
7
  6
CONTINUOUS
 10
12.3318717462
 20
4.7060895171
 11
12.3318717462
 21
4.6973050597
  0
LINE
  5
765
100
AcDbEntity
  8
02___PRT_ALL_AXES
100
AcDbLine
 62
7
  6
CONTINUOUS
 10
12.3318717462
 20
4.6578708704
 11
12.3318717462
 21
4.649086413
  0
LINE
  5
766
100
AcDbEntity
  8
02___PRT_ALL_AXES
100
AcDbLine
 62
7
  6
CONTINUOUS
 10
12.3318717462
 20
4.6096522238
 11
12.3318717462
 21
4.6008677663
  0
LINE
  5
767
100
AcDbEntity
  8
02___PRT_ALL_AXES
100
AcDbLine
 62
7
  6
CONTINUOUS
 10
12.3318717462
 20
4.5614335771
 11
12.3318717462
 21
4.5526491196
  0
LINE
  5
768
100
AcDbEntity
  8
02___PRT_ALL_AXES
100
AcDbLine
 62
7
  6
CONTINUOUS
 10
12.3318717462
 20
4.5132149304
 11
12.3318717462
 21
4.5044304729
  0
LINE
  5
769
100
AcDbEntity
  8
02___PRT_ALL_AXES
100
AcDbLine
 62
7
  6
CONTINUOUS
 10
12.3318717462
 20
4.4649962837
 11
12.3318717462
 21
4.4562118262
  0
LINE
  5
76A
100
AcDbEntity
  8
0
100
AcDbLine
 62
7
  6
CONTINUOUS
 10
12.3318717462
 20
4.416777637
 11
12.3318717462
 21
4.381692105
  0
LINE
  5
76B
100
AcDbEntity
  8
02___PRT_ALL_AXES
100
AcDbLine
 62
7
  6
CONTINUOUS
 10
12.2028302845
 20
4.8270732902
 11
12.2013655875
 21
4.8064728974
  0
LINE
  5
76C
100
AcDbEntity
  8
02___PRT_ALL_AXES
100
AcDbLine
 62
7
  6
CONTINUOUS
 10
12.2027964037
 20
4.7301594755
 11
12.2013655875
 21
4.710035604
  0
LINE
  5
76D
100
AcDbEntity
  8
02___PRT_ALL_AXES
100
AcDbLine
 62
7
  6
CONTINUOUS
 10
12.2028302845
 20
4.6824173502
 11
12.2013655875
 21
4.6618169573
  0
LINE
  5
76E
100
AcDbEntity
  8
02___PRT_ALL_AXES
100
AcDbLine
 62
7
  6
CONTINUOUS
 10
12.2028302845
 20
4.6341987035
 11
12.2013655875
 21
4.6135983107
  0
LINE
  5
76F
100
AcDbEntity
  8
02___PRT_ALL_AXES
100
AcDbLine
 62
7
  6
CONTINUOUS
 10
12.2029792484
 20
4.7766587852
 11
12.2013655875
 21
4.7582542507
  0
LWPOLYLINE
  5
770
100
AcDbEntity
  8
AXIS
100
AcDbPolyline
 62
7
  6
CONTINUOUS
 90
12
 70
0
 10
12.092011417
 20
6.4183890493
 10
12.1981428183
 20
6.3652951712
 10
12.3162815987
 20
6.3214619283
 10
12.4440227935
 20
6.2877816391
 10
12.5787659602
 20
6.264939937
 10
12.7177681166
 20
6.2534018133
 10
12.8581995796
 20
6.2534021508
 10
12.9972015696
 20
6.2649409428
 10
13.1319444069
 20
6.2877832926
 10
13.2596851159
 20
6.321464196
 10
13.3778232642
 20
6.3652980068
 10
13.4839538997
 20
6.4183923951
  0
LWPOLYLINE
  5
771
100
AcDbEntity
  8
0
100
AcDbPolyline
 62
7
  6
CONTINUOUS
 90
7
 70
0
 10
12.0953640573
 20
6.4203246855
 10
12.0038435739
 20
6.481303191
 10
11.928285842
 20
6.549180743
 10
11.8702289992
 20
6.6225755503
 10
11.8308549152
 20
6.6999935061
 10
11.810965133
 20
6.7798586042
 10
11.8084972612
 20
6.8167086954
  0
LINE
  5
772
100
AcDbEntity
  8
02___PRT_ALL_AXES
100
AcDbLine
 62
7
  6
CONTINUOUS
 10
12.4785225972
 20
4.72076474
 11
12.4785225972
 21
4.7119802825
  0
LINE
  5
773
100
AcDbEntity
  8
02___PRT_ALL_AXES
100
AcDbLine
 62
7
  6
CONTINUOUS
 10
12.4785225972
 20
4.6725460933
 11
12.4785225972
 21
4.6637616358
  0
LINE
  5
774
100
AcDbEntity
  8
02___PRT_ALL_AXES
100
AcDbLine
 62
7
  6
CONTINUOUS
 10
12.4785225972
 20
4.6243274466
 11
12.4785225972
 21
4.6155429891
  0
LINE
  5
775
100
AcDbEntity
  8
02___PRT_ALL_AXES
100
AcDbLine
 62
7
  6
CONTINUOUS
 10
12.4785225972
 20
4.5761087999
 11
12.4785225972
 21
4.5673243424
  0
LINE
  5
776
100
AcDbEntity
  8
02___PRT_ALL_AXES
100
AcDbLine
 62
7
  6
CONTINUOUS
 10
12.4785225972
 20
4.5278901532
 11
12.4785225972
 21
4.5191056958
  0
LINE
  5
777
100
AcDbEntity
  8
02___PRT_ALL_AXES
100
AcDbLine
 62
7
  6
CONTINUOUS
 10
12.4785225972
 20
4.4796715066
 11
12.4785225972
 21
4.4708870491
  0
LINE
  5
778
100
AcDbEntity
  8
02___PRT_ALL_AXES
100
AcDbLine
 62
7
  6
CONTINUOUS
 10
12.4785225972
 20
4.4314528599
 11
12.4785225972
 21
4.4226684024
  0
LINE
  5
779
100
AcDbEntity
  8
02___PRT_ALL_AXES
100
AcDbLine
 62
7
  6
CONTINUOUS
 10
12.4785225972
 20
4.3832342132
 11
12.4785225972
 21
4.3744497557
  0
LINE
  5
77A
100
AcDbEntity
  8
0
100
AcDbLine
 62
7
  6
CONTINUOUS
 10
12.4785225972
 20
4.3350155665
 11
12.4785225972
 21
4.2970251122
  0
LINE
  5
77B
100
AcDbEntity
  8
02___PRT_ALL_AXES
100
AcDbLine
 62
7
  6
CONTINUOUS
 10
12.5649925915
 20
4.6951555603
 11
12.5649925915
 21
4.6891282294
  0
LINE
  5
77C
100
AcDbEntity
  8
02___PRT_ALL_AXES
100
AcDbLine
 62
7
  6
CONTINUOUS
 10
12.5649925915
 20
4.6469369136
 11
12.5649925915
 21
4.6409095828
  0
LINE
  5
77D
100
AcDbEntity
  8
02___PRT_ALL_AXES
100
AcDbLine
 62
7
  6
CONTINUOUS
 10
12.5649925915
 20
4.5987182669
 11
12.5649925915
 21
4.5926909361
  0
LINE
  5
77E
100
AcDbEntity
  8
02___PRT_ALL_AXES
100
AcDbLine
 62
7
  6
CONTINUOUS
 10
12.5649925915
 20
4.5504996202
 11
12.5649925915
 21
4.5444722894
  0
LINE
  5
77F
100
AcDbEntity
  8
02___PRT_ALL_AXES
100
AcDbLine
 62
7
  6
CONTINUOUS
 10
12.5649925915
 20
4.5022809736
 11
12.5649925915
 21
4.4962536427
  0
LINE
  5
780
100
AcDbEntity
  8
02___PRT_ALL_AXES
100
AcDbLine
 62
7
  6
CONTINUOUS
 10
12.5649925915
 20
4.4540623269
 11
12.5649925915
 21
4.448034996
  0
LINE
  5
781
100
AcDbEntity
  8
02___PRT_ALL_AXES
100
AcDbLine
 62
7
  6
CONTINUOUS
 10
12.5649925915
 20
4.4058436802
 11
12.5649925915
 21
4.3998163494
  0
LINE
  5
782
100
AcDbEntity
  8
02___PRT_ALL_AXES
100
AcDbLine
 62
7
  6
CONTINUOUS
 10
12.5649925915
 20
4.3576250335
 11
12.5649925915
 21
4.3515977027
  0
LINE
  5
783
100
AcDbEntity
  8
02___PRT_ALL_AXES
100
AcDbLine
 62
7
  6
CONTINUOUS
 10
12.5649925915
 20
4.3094063868
 11
12.5649925915
 21
4.303379056
  0
LINE
  5
784
100
AcDbEntity
  8
0
100
AcDbLine
 62
9
  6
CONTINUOUS
 10
13.6430209468
 20
8.2477213998
 11
13.6624066519
 21
8.2864325615
  0
LINE
  5
785
100
AcDbEntity
  8
0
100
AcDbLine
 62
7
  6
CONTINUOUS
 10
12.1981428183
 20
6.8089067207
 11
12.092011417
 21
6.8620005987
  0
LWPOLYLINE
  5
786
100
AcDbEntity
  8
0
100
AcDbPolyline
 62
7
  6
CONTINUOUS
 90
6
 70
0
 10
12.092011417
 20
6.8620005987
 10
12.0000479242
 20
6.9232742737
 10
11.9241244514
 20
6.9914803904
 10
11.8657865816
 20
7.0652304688
 10
11.8262219055
 20
7.14302317
 10
11.8062358458
 20
7.223274859
  0
LWPOLYLINE
  5
787
100
AcDbEntity
  8
0
100
AcDbPolyline
 62
9
  6
CONTINUOUS
 90
8
 70
0
 10
11.909363137
 20
8.2966434468
 10
11.9274280892
 20
8.2576472453
 10
11.9506094738
 20
8.2196759424
 10
11.9787783161
 20
8.1828898051
 10
12.0122173405
 20
8.1470487964
 10
12.0514936773
 20
8.1119369199
 10
12.0974095046
 20
8.077457353
 10
12.1510016687
 20
8.0436622241
  0
LWPOLYLINE
  5
788
100
AcDbEntity
  8
AXIS
100
AcDbPolyline
 62
7
  6
CONTINUOUS
 90
6
 70
0
 10
13.4839538997
 20
6.8620039445
 10
13.5759165087
 20
6.9232780617
 10
13.6518389978
 20
6.9914845433
 10
13.710175804
 20
7.0652349021
 10
13.7497393581
 20
7.1430277936
 10
13.7697242604
 20
7.2232795787
  0
LWPOLYLINE
  5
789
100
AcDbEntity
  8
0
100
AcDbPolyline
 62
7
  6
CONTINUOUS
 90
11
 70
0
 10
13.4839538997
 20
6.8620039445
 10
13.3778232642
 20
6.8089095563
 10
13.2596851159
 20
6.7650757455
 10
13.1319444069
 20
6.7313948421
 10
12.9972015696
 20
6.7085524922
 10
12.8581995796
 20
6.6970137003
 10
12.7177681166
 20
6.6970133627
 10
12.5787659602
 20
6.7085514865
 10
12.4440227935
 20
6.7313931885
 10
12.3162815987
 20
6.7650734778
 10
12.1981428183
 20
6.8089067207
  0
LWPOLYLINE
  5
78A
100
AcDbEntity
  8
0
100
AcDbPolyline
 62
9
  6
CONTINUOUS
 90
14
 70
0
 10
13.6624066519
 20
8.2864325615
 10
13.6765443414
 20
8.3258989549
 10
13.6853474647
 20
8.3658857831
 10
13.6887603645
 20
8.4061522042
 10
13.6867607953
 20
8.446450335
 10
13.6793614412
 20
8.4865352928
 10
13.6665963845
 20
8.5261955568
 10
13.6485314323
 20
8.5651917583
 10
13.6253500477
 20
8.6031630612
 10
13.5971812054
 20
8.6399491985
 10
13.563742181
 20
8.6757902073
 10
13.5244658442
 20
8.7109020837
 10
13.4785500169
 20
8.7453816507
 10
13.4249578528
 20
8.7791767795
  0
LINE
  5
78B
100
AcDbEntity
  8
02___PRT_ALL_AXES
100
AcDbLine
 62
7
  6
CONTINUOUS
 10
13.374593934
 20
4.637707634
 11
13.3731942096
 21
4.6592985111
  0
LINE
  5
78C
100
AcDbEntity
  8
02___PRT_ALL_AXES
100
AcDbLine
 62
7
  6
CONTINUOUS
 10
13.374593934
 20
4.6859262807
 11
13.3731942096
 21
4.7075171578
  0
LINE
  5
78D
100
AcDbEntity
  8
02___PRT_ALL_AXES
100
AcDbLine
 62
7
  6
CONTINUOUS
 10
13.374593934
 20
4.7341449274
 11
13.3731942096
 21
4.7557358044
  0
LINE
  5
78E
100
AcDbEntity
  8
02___PRT_ALL_AXES
100
AcDbLine
 62
7
  6
CONTINUOUS
 10
13.374593934
 20
4.782363574
 11
13.3731942096
 21
4.8039544511
  0
LWPOLYLINE
  5
78F
100
AcDbEntity
  8
AXIS
100
AcDbPolyline
 62
7
  6
CONTINUOUS
 90
6
 70
0
 10
13.4839538997
 20
6.4183923951
 10
13.5759165087
 20
6.4796665122
 10
13.6518389978
 20
6.5478729938
 10
13.710175804
 20
6.6216233527
 10
13.7497393581
 20
6.6994162441
 10
13.7697242604
 20
6.7796680292
  0
LINE
  5
790
100
AcDbEntity
  8
02___PRT_ALL_AXES
100
AcDbLine
 62
7
  6
CONTINUOUS
 10
13.3727086999
 20
4.8028362944
 11
13.374593934
 21
4.8305822207
  0
LINE
  5
791
100
AcDbEntity
  8
02___PRT_ALL_AXES
100
AcDbLine
 62
7
  6
CONTINUOUS
 10
13.3727086999
 20
4.7546176477
 11
13.374593934
 21
4.782363574
  0
LINE
  5
792
100
AcDbEntity
  8
02___PRT_ALL_AXES
100
AcDbLine
 62
7
  6
CONTINUOUS
 10
13.3727086999
 20
4.706399001
 11
13.374593934
 21
4.7341449274
  0
LINE
  5
793
100
AcDbEntity
  8
02___PRT_ALL_AXES
100
AcDbLine
 62
7
  6
CONTINUOUS
 10
13.3727086999
 20
4.6581803544
 11
13.374593934
 21
4.6859262807
  0
LINE
  5
794
100
AcDbEntity
  8
02___PRT_ALL_AXES
100
AcDbLine
 62
7
  6
CONTINUOUS
 10
13.3727086999
 20
4.6099617077
 11
13.374593934
 21
4.637707634
  0
LWPOLYLINE
  5
795
100
AcDbEntity
  8
0
100
AcDbPolyline
 62
7
  6
CONTINUOUS
 90
5
 70
0
 10
13.7497393581
 20
7.1430277936
 10
13.710175804
 20
7.0652349021
 10
13.6518389978
 20
6.9914845433
 10
13.5759165087
 20
6.9232780617
 10
13.4839538997
 20
6.8620039445
  0
LINE
  5
796
100
AcDbEntity
  8
02___PRT_ALL_AXES
100
AcDbLine
 62
7
  6
CONTINUOUS
 10
13.6738065324
 20
5.4473769494
 11
13.6738065324
 21
5.2675637382
  0
LWPOLYLINE
  5
797
100
AcDbEntity
  8
0
100
AcDbPolyline
 62
7
  6
CONTINUOUS
 90
17
 70
0
 10
12.9902740725
 20
4.2476813675
 10
12.9870639974
 20
4.2347909237
 10
12.9788743417
 20
4.2186877952
 10
12.9667986228
 20
4.2034214709
 10
12.9510826676
 20
4.1893027292
 10
12.9320464075
 20
4.176618987
 10
12.910077366
 20
4.1656284486
 10
12.8856227693
 20
4.1565548498
 10
12.8591804425
 20
4.1495829028
 10
12.8312886752
 20
4.1448545363
 10
12.8025152633
 20
4.1424660064
 10
12.7734459504
 20
4.1424659365
 10
12.744672504
 20
4.1448543281
 10
12.7167806685
 20
4.1495825605
 10
12.6903382412
 20
4.1565543804
 10
12.6658835137
 20
4.1656278616
 10
12.6439143136
 20
4.1766182944
  0
LINE
  5
798
100
AcDbEntity
  8
0
100
AcDbLine
 62
7
  6
CONTINUOUS
 10
13.7697242604
 20
7.2232795787
 11
13.7497393581
 21
7.1430277936
  0
LWPOLYLINE
  5
799
100
AcDbEntity
  8
0
100
AcDbPolyline
 62
7
  6
CONTINUOUS
 90
17
 70
0
 10
12.092011417
 20
7.7267216625
 10
12.1981428183
 20
7.6736277845
 10
12.3162815987
 20
7.6297945416
 10
12.4440227935
 20
7.5961142524
 10
12.5787659602
 20
7.5732725503
 10
12.7177681166
 20
7.5617344265
 10
12.8581995796
 20
7.5617347641
 10
12.9972015696
 20
7.5732735561
 10
13.1319444069
 20
7.5961159059
 10
13.2596851159
 20
7.6297968093
 10
13.3778232642
 20
7.6736306201
 10
13.4839538997
 20
7.7267250084
 10
13.5759165087
 20
7.7879991255
 10
13.6518389978
 20
7.8562056071
 10
13.710175804
 20
7.9299559659
 10
13.7497393581
 20
8.0077488574
 10
13.7697242604
 20
8.0880006425
  0
LWPOLYLINE
  5
79A
100
AcDbEntity
  8
AXIS
100
AcDbPolyline
 62
7
  6
CONTINUOUS
 90
12
 70
0
 10
12.092011417
 20
7.7267216625
 10
12.1981428183
 20
7.6736277845
 10
12.3162815987
 20
7.6297945416
 10
12.4440227935
 20
7.5961142524
 10
12.5787659602
 20
7.5732725503
 10
12.7177681166
 20
7.5617344265
 10
12.8581995796
 20
7.5617347641
 10
12.9972015696
 20
7.5732735561
 10
13.1319444069
 20
7.5961159059
 10
13.2596851159
 20
7.6297968093
 10
13.3778232642
 20
7.6736306201
 10
13.4839538997
 20
7.7267250084
  0
LWPOLYLINE
  5
79B
100
AcDbEntity
  8
AXIS
100
AcDbPolyline
 62
7
  6
CONTINUOUS
 90
3
 70
0
 10
13.7722221532
 20
6.8202041573
 10
13.7697236757
 20
6.8607450131
 10
13.7680156281
 20
6.8676034788
  0
LINE
  5
79C
100
AcDbEntity
  8
0
100
AcDbLine
 62
7
  6
CONTINUOUS
 10
13.7721567593
 20
8.1355503039
 11
13.7674601207
 21
8.3552300745
  0
LINE
  5
79D
100
AcDbEntity
  8
02___PRT_ALL_AXES
100
AcDbLine
 62
7
  6
CONTINUOUS
 10
13.7722317292
 20
5.9554830975
 11
13.7722317292
 21
5.7015315583
  0
LINE
  5
79E
100
AcDbEntity
  8
AXIS
100
AcDbLine
 62
7
  6
CONTINUOUS
 10
13.7722317292
 20
5.9554830975
 11
13.7722317292
 21
6.8202041613
  0
LINE
  5
79F
100
AcDbEntity
  8
AXIS
100
AcDbLine
 62
7
  6
CONTINUOUS
 10
13.7722317292
 20
7.2638157108
 11
13.7722317292
 21
8.1285367746
  0
LINE
  5
7A0
100
AcDbEntity
  8
0
100
AcDbLine
 62
7
  6
CONTINUOUS
 10
13.7722129902
 20
7.2603092132
 11
13.7674717113
 21
6.8167145554
  0
LINE
  5
7A1
100
AcDbEntity
  8
0
100
AcDbLine
 62
7
  6
CONTINUOUS
 10
13.7697242604
 20
8.0880006425
 11
13.7721475
 21
8.1355618199
  0
LINE
  5
7A2
100
AcDbEntity
  8
AXIS
100
AcDbLine
 62
7
  6
CONTINUOUS
 10
13.7697242604
 20
7.2232795787
 11
13.7722221532
 21
7.2638157068
  0
LINE
  5
7A3
100
AcDbEntity
  8
AXIS
100
AcDbLine
 62
7
  6
CONTINUOUS
 10
13.7697242604
 20
6.7796680292
 11
13.7722221532
 21
6.8202041573
  0
LINE
  5
7A4
100
AcDbEntity
  8
02___PRT_ALL_AXES
100
AcDbLine
 62
9
  6
CONTINUOUS
 10
13.7722317292
 20
5.7015315583
 11
13.7697242604
 21
5.6609954262
  0
LINE
  5
7A5
100
AcDbEntity
  8
0
100
AcDbLine
 62
7
  6
CONTINUOUS
 10
13.7722034936
 20
7.260303317
 11
13.7697242604
 21
7.2232795787
  0
LWPOLYLINE
  5
7A6
100
AcDbEntity
  8
0
100
AcDbPolyline
 62
7
  6
CONTINUOUS
 90
18
 70
0
 10
13.7674622605
 20
6.8167086875
 10
13.7649949703
 20
6.7798633011
 10
13.74510634
 20
6.6999981074
 10
13.7057333726
 20
6.6225799623
 10
13.6476775883
 20
6.549184876
 10
13.5721208354
 20
6.4813069607
 10
13.4806012315
 20
6.4203280152
 10
13.3749818517
 20
6.3674893948
 10
13.2574128022
 20
6.3238667416
 10
13.1302874497
 20
6.290348087
 10
12.9961936998
 20
6.267615774
 10
12.8578613145
 20
6.256132567
 10
12.7181063423
 20
6.2561322311
 10
12.5797737915
 20
6.267614773
 10
12.4456797137
 20
6.2903464414
 10
12.3185538778
 20
6.3238644849
 10
12.2009841991
 20
6.3674865729
 10
12.0953640573
 20
6.4203246855
  0
LWPOLYLINE
  5
7A7
100
AcDbEntity
  8
02___PRT_ALL_AXES
100
AcDbPolyline
 62
9
  6
CONTINUOUS
 90
16
 70
0
 10
13.6738065324
 20
5.2675637382
 10
13.6682370525
 20
5.2103044204
 10
13.6436236716
 20
5.1351992612
 10
13.5998966197
 20
5.0630509058
 10
13.5380326868
 20
4.9954710291
 10
13.4594138109
 20
4.9339692539
 10
13.3657962079
 20
4.8799194282
 10
13.2592711403
 20
4.8345289359
 10
13.142218202
 20
4.7988117254
 10
13.0172521623
 20
4.7735656604
 10
12.887164556
 20
4.7593546961
 10
12.7548613253
 20
4.756496282
 10
12.6232979057
 20
4.7650542703
 10
12.4954132066
 20
4.7848374898
 10
12.3740639609
 20
4.815404016
 10
12.2619609102
 20
4.8560710433
  0
LWPOLYLINE
  5
7A8
100
AcDbEntity
  8
02___PRT_ALL_AXES
100
AcDbPolyline
 62
7
  6
CONTINUOUS
 90
6
 70
0
 10
13.6738065324
 20
5.2675637382
 10
13.6656855733
 20
5.1871785597
 10
13.6407534517
 20
5.1068841194
 10
13.5980779292
 20
5.0281609402
 10
13.5371543483
 20
4.953127692
 10
13.4588297101
 20
4.8844865214
  0
LINE
  5
7A9
100
AcDbEntity
  8
02___PRT_ALL_AXES
100
AcDbLine
 62
7
  6
CONTINUOUS
 10
13.7722317292
 20
5.9554831043
 11
13.7638118521
 21
5.8813139324
  0
LINE
  5
7AA
100
AcDbEntity
  8
02___PRT_ALL_AXES
100
AcDbLine
 62
7
  6
CONTINUOUS
 10
13.3582092864
 20
4.7974970962
 11
13.366153131
 21
4.8268400209
  0
LINE
  5
7AB
100
AcDbEntity
  8
02___PRT_ALL_AXES
100
AcDbLine
 62
7
  6
CONTINUOUS
 10
13.3582092864
 20
4.7914697653
 11
13.3676734496
 21
4.8264284336
  0
LINE
  5
7AC
100
AcDbEntity
  8
02___PRT_ALL_AXES
100
AcDbLine
 62
7
  6
CONTINUOUS
 10
13.3582092864
 20
4.7492784495
 11
13.3727086999
 21
4.8028362944
  0
LWPOLYLINE
  5
7AD
100
AcDbEntity
  8
02___PRT_ALL_AXES
100
AcDbPolyline
 62
7
  6
CONTINUOUS
 90
3
 70
0
 10
13.3582092864
 20
4.7432511187
 10
13.3727086999
 20
4.7968089636
 10
13.374593934
 20
4.8245548899
  0
LINE
  5
7AE
100
AcDbEntity
  8
02___PRT_ALL_AXES
100
AcDbLine
 62
7
  6
CONTINUOUS
 10
13.3582092864
 20
4.7010598028
 11
13.3727086999
 21
4.7546176477
  0
LWPOLYLINE
  5
7AF
100
AcDbEntity
  8
02___PRT_ALL_AXES
100
AcDbPolyline
 62
7
  6
CONTINUOUS
 90
3
 70
0
 10
13.3582092864
 20
4.695032472
 10
13.3727086999
 20
4.7485903169
 10
13.374593934
 20
4.7763362432
  0
LINE
  5
7B0
100
AcDbEntity
  8
02___PRT_ALL_AXES
100
AcDbLine
 62
7
  6
CONTINUOUS
 10
13.3582092864
 20
4.6528411561
 11
13.3727086999
 21
4.706399001
  0
LWPOLYLINE
  5
7B1
100
AcDbEntity
  8
02___PRT_ALL_AXES
100
AcDbPolyline
 62
7
  6
CONTINUOUS
 90
3
 70
0
 10
13.3582092864
 20
4.6468138253
 10
13.3727086999
 20
4.7003716702
 10
13.374593934
 20
4.7281175965
  0
LINE
  5
7B2
100
AcDbEntity
  8
02___PRT_ALL_AXES
100
AcDbLine
 62
7
  6
CONTINUOUS
 10
13.3582092864
 20
4.6046225095
 11
13.3727086999
 21
4.6581803544
  0
LWPOLYLINE
  5
7B3
100
AcDbEntity
  8
02___PRT_ALL_AXES
100
AcDbPolyline
 62
7
  6
CONTINUOUS
 90
3
 70
0
 10
13.3582092864
 20
4.5985951786
 10
13.3727086999
 20
4.6521530235
 10
13.374593934
 20
4.6798989498
  0
LWPOLYLINE
  5
7B4
100
AcDbEntity
  8
0
100
AcDbPolyline
 62
9
  6
CONTINUOUS
 90
19
 70
0
 10
12.0953326812
 20
7.948352424
 10
12.1590741413
 20
7.9146643675
 10
12.2240922769
 20
7.8858142516
 10
12.2902910699
 20
7.8611451123
 10
12.3578475056
 20
7.8401515854
 10
12.4271641488
 20
7.8224755621
 10
12.4987015467
 20
7.8079349782
 10
12.5721674689
 20
7.7966079523
 10
12.6468799992
 20
7.7886096733
 10
12.7223875647
 20
7.783981079
 10
12.7982948312
 20
7.7827431297
 10
12.8741401107
 20
7.7849037283
 10
12.9494559168
 20
7.7904487642
 10
13.0237905479
 20
7.7993434133
 10
13.0966996133
 20
7.8115330544
 10
13.1677462745
 20
7.8269433144
 10
13.2365079881
 20
7.8454814496
 10
13.3025772079
 20
7.8670371209
 10
13.3655594793
 20
7.8914817599
  0
LWPOLYLINE
  5
7B5
100
AcDbEntity
  8
0
100
AcDbPolyline
 62
9
  6
CONTINUOUS
 90
27
 70
0
 10
12.1510016687
 20
8.0436622241
 10
12.2096103829
 20
8.0126864217
 10
12.2694036824
 20
7.986153997
 10
12.330282612
 20
7.9634667337
 10
12.3924099697
 20
7.9441598512
 10
12.4561559559
 20
7.9279039583
 10
12.5219441968
 20
7.9145315755
 10
12.5895060511
 20
7.9041145162
 10
12.6582144071
 20
7.896758718
 10
12.7276539509
 20
7.8925018353
 10
12.7974611114
 20
7.8913631458
 10
12.8672112993
 20
7.8933499194
 10
12.936474588
 20
7.8984491807
 10
13.0048355662
 20
7.9066289054
 10
13.0718855472
 20
7.9178388621
 10
13.1372227891
 20
7.9320106543
 10
13.2004586965
 20
7.9490589906
 10
13.2612184654
 20
7.9688823974
 10
13.3191393269
 20
7.991362634
 10
13.3738733172
 20
8.0163649529
 10
13.4250907606
 20
8.0437389729
 10
13.4724833118
 20
8.0733199014
 10
13.5157674103
 20
8.104930777
 10
13.5546837539
 20
8.1383825522
 10
13.5889977335
 20
8.1734739298
 10
13.6185026492
 20
8.2099935964
 10
13.6430209468
 20
8.2477213998
  0
LWPOLYLINE
  5
7B6
100
AcDbEntity
  8
02___PRT_ALL_AXES
100
AcDbPolyline
 62
7
  6
CONTINUOUS
 90
15
 70
0
 10
13.7722317292
 20
5.7015315583
 10
13.7631991851
 20
5.6217336644
 10
13.7358940967
 20
5.5427297865
 10
13.6904420499
 20
5.4663886056
 10
13.6272918949
 20
5.3942183811
 10
13.5477756999
 20
5.328050707
 10
13.4536684491
 20
5.2693125144
 10
13.3470377214
 20
5.219116441
 10
13.2300967731
 20
5.1783014298
 10
13.1050111803
 20
5.1474630806
 10
12.9741692509
 20
5.1270796216
 10
12.8399703182
 20
5.1174484395
 10
12.7048439074
 20
5.1187071769
 10
12.5712806212
 20
5.1308280254
 10
12.4416695889
 20
5.1536249872
  0
LWPOLYLINE
  5
7B7
100
AcDbEntity
  8
02___PRT_ALL_AXES
100
AcDbPolyline
 62
9
  6
CONTINUOUS
 90
17
 70
0
 10
13.7697242604
 20
5.6609954262
 10
13.7497393581
 20
5.5807436411
 10
13.710175804
 20
5.5029507497
 10
13.6518389978
 20
5.4292003908
 10
13.5759165087
 20
5.3609939092
 10
13.4839538997
 20
5.2997197921
 10
13.3778232642
 20
5.2466254038
 10
13.2596851159
 20
5.202791593
 10
13.1319444069
 20
5.1691106896
 10
12.9972015696
 20
5.1462683398
 10
12.8581995796
 20
5.1347295478
 10
12.7177681166
 20
5.1347292103
 10
12.5787659602
 20
5.146267334
 10
12.4440227935
 20
5.1691090361
 10
12.3162815987
 20
5.2027893253
 10
12.1981428183
 20
5.2466225682
 10
12.092011417
 20
5.2997164463
  0
LINE
  5
7B8
100
AcDbEntity
  8
02___PRT_ALL_AXES
100
AcDbLine
 62
7
  6
CONTINUOUS
 10
13.7638118521
 20
5.8813139324
 11
13.7386952173
 21
5.8084114565
  0
LINE
  5
7B9
100
AcDbEntity
  8
02___PRT_ALL_AXES
100
AcDbLine
 62
7
  6
CONTINUOUS
 10
13.7386952173
 20
5.8084114565
 11
13.6973115774
 21
5.738025417
  0
LINE
  5
7BA
100
AcDbEntity
  8
02___PRT_ALL_AXES
100
AcDbLine
 62
7
  6
CONTINUOUS
 10
13.6973115774
 20
5.738025417
 11
13.6403690181
 21
5.6713601388
  0
LWPOLYLINE
  5
7BB
100
AcDbEntity
  8
02___PRT_ALL_AXES
100
AcDbPolyline
 62
7
  6
CONTINUOUS
 90
3
 70
0
 10
13.6403690181
 20
5.6713601388
 10
13.5688418422
 20
5.6095562832
 10
13.4839538997
 20
5.5536713313
  0
LWPOLYLINE
  5
7BC
100
AcDbEntity
  8
AXIS
100
AcDbPolyline
 62
7
  6
CONTINUOUS
 90
7
 70
0
 10
13.4839538997
 20
5.5536713313
 10
13.5759165087
 20
5.6149454484
 10
13.6518389978
 20
5.68315193
 10
13.710175804
 20
5.7569022888
 10
13.7497393581
 20
5.8346951803
 10
13.7697242604
 20
5.9149469654
 10
13.7722221532
 20
5.9554830935
  0
LWPOLYLINE
  5
7BD
100
AcDbEntity
  8
02___PRT_ALL_AXES
100
AcDbPolyline
 62
7
  6
CONTINUOUS
 90
13
 70
0
 10
13.4839538997
 20
5.5536713313
 10
13.3871576466
 20
5.5046614901
 10
13.2801092938
 20
5.4633653316
 10
13.1646404683
 20
5.4304894445
 10
13.0427268736
 20
5.4065963444
 10
12.9164544851
 20
5.3920948488
 10
12.7879838586
 20
5.3872330823
 10
12.6595131619
 20
5.3920942312
 10
12.5332405643
 20
5.4065951197
 10
12.411326625
 20
5.4304876338
 10
12.2958573253
 20
5.4633629657
 10
12.1888083769
 20
5.5046586096
 10
12.092011417
 20
5.5536679855
  0
LWPOLYLINE
  5
7BE
100
AcDbEntity
  8
0
100
AcDbPolyline
 62
7
  6
CONTINUOUS
 90
7
 70
0
 10
13.7674601207
 20
8.3552300744
 10
13.7577596838
 20
8.4329982327
 10
13.7316768822
 20
8.5101960633
 10
13.6887281863
 20
8.5856614629
 10
13.6289973352
 20
8.6575856183
 10
13.5535799388
 20
8.723941037
 10
13.4643272635
 20
8.7830766129
  0
LWPOLYLINE
  5
7BF
100
AcDbEntity
  8
0
100
AcDbPolyline
 62
7
  6
CONTINUOUS
 90
11
 70
0
 10
13.3286746006
 20
4.4975373311
 10
13.3103618825
 20
4.4520945952
 10
13.2740131949
 20
4.4007103234
 10
13.2236262268
 20
4.3535569884
 10
13.1609894549
 20
4.3124709877
 10
13.0882864802
 20
4.2786276995
 10
13.0077416076
 20
4.2527447499
 10
12.9216124881
 20
4.2352915595
 10
12.8321378951
 20
4.2265516217
 10
12.74159294
 20
4.2266609808
 10
12.6522628841
 20
4.2356045124
  0
LINE
  5
7C0
100
AcDbEntity
  8
02___PRT_ALL_AXES
100
AcDbLine
 62
7
  6
CONTINUOUS
 10
13.3322453044
 20
4.7917124382
 11
13.3445749471
 21
4.8148547064
  0
LINE
  5
7C1
100
AcDbEntity
  8
02___PRT_ALL_AXES
100
AcDbLine
 62
7
  6
CONTINUOUS
 10
13.3297345698
 20
4.7398599727
 11
13.3582092864
 21
4.7914697653
  0
LINE
  5
7C2
100
AcDbEntity
  8
02___PRT_ALL_AXES
100
AcDbLine
 62
7
  6
CONTINUOUS
 10
13.3297345698
 20
4.691641326
 11
13.3582092864
 21
4.7432511187
  0
LINE
  5
7C3
100
AcDbEntity
  8
02___PRT_ALL_AXES
100
AcDbLine
 62
7
  6
CONTINUOUS
 10
13.3297345698
 20
4.6434226793
 11
13.3582092864
 21
4.695032472
  0
LINE
  5
7C4
100
AcDbEntity
  8
02___PRT_ALL_AXES
100
AcDbLine
 62
7
  6
CONTINUOUS
 10
13.3297345698
 20
4.5530127168
 11
13.3582092864
 21
4.6046225095
  0
LINE
  5
7C5
100
AcDbEntity
  8
02___PRT_ALL_AXES
100
AcDbLine
 62
7
  6
CONTINUOUS
 10
13.3297345698
 20
4.546985386
 11
13.3582092864
 21
4.5985951786
  0
LWPOLYLINE
  5
7C6
100
AcDbEntity
  8
02___PRT_ALL_AXES
100
AcDbPolyline
 62
9
  6
CONTINUOUS
 90
8
 70
0
 10
13.2512594864
 20
5.1856876909
 10
13.142218202
 20
5.1524151344
 10
13.0172521623
 20
5.1271690694
 10
12.887164556
 20
5.1129581051
 10
12.7548613253
 20
5.110099691
 10
12.6232979057
 20
5.1186576793
 10
12.4954132066
 20
5.1384408988
 10
12.3740639609
 20
5.169007425
  0
LWPOLYLINE
  5
7C7
100
AcDbEntity
  8
0
100
AcDbPolyline
 62
7
  6
CONTINUOUS
 90
10
 70
0
 10
12.9901652033
 20
4.2491830703
 10
12.9788749507
 20
4.2381225428
 10
12.9547819882
 20
4.2210809781
 10
12.9267777581
 20
4.2064971717
 10
12.8954065297
 20
4.1945925687
 10
12.861155917
 20
4.185578269
 10
12.8246403721
 20
4.1797078196
 10
12.7871929962
 20
4.1772418694
 10
12.7502292684
 20
4.1781898104
 10
12.7143851423
 20
4.1824249199
  0
LWPOLYLINE
  5
7C8
100
AcDbEntity
  8
02___PRT_ALL_AXES
100
AcDbPolyline
 62
7
  6
CONTINUOUS
 90
9
 70
0
 10
13.4588297101
 20
4.8844865214
 10
13.3649708842
 20
4.8244095267
 10
13.2594080333
 20
4.774956831
 10
13.1452827518
 20
4.7367270506
 10
13.0250163691
 20
4.7097742801
 10
12.9007561686
 20
4.6940796444
 10
12.7748839502
 20
4.6896388442
 10
12.6493711276
 20
4.6963933742
 10
12.5263425173
 20
4.7142948915
  0
LWPOLYLINE
  5
7C9
100
AcDbEntity
  8
02___PRT_ALL_AXES
100
AcDbPolyline
 62
7
  6
CONTINUOUS
 90
4
 70
0
 10
13.1127107856
 20
4.6805333545
 10
13.0886168466
 20
4.6693799361
 10
13.0122792583
 20
4.6442054502
 10
12.9306381439
 20
4.6263008421
  0
LWPOLYLINE
  5
7CA
100
AcDbEntity
  8
02___PRT_ALL_AXES
100
AcDbPolyline
 62
7
  6
CONTINUOUS
 90
5
 70
0
 10
13.0947632175
 20
4.6727085072
 10
13.1690391955
 20
4.7050916237
 10
13.23397609
 20
4.7437853727
 10
13.2879824141
 20
4.7878709145
 10
13.2886651971
 20
4.7886628422
  0
LWPOLYLINE
  5
7CB
100
AcDbEntity
  8
02___PRT_ALL_AXES
100
AcDbPolyline
 62
7
  6
CONTINUOUS
 90
3
 70
0
 10
13.0976717578
 20
4.6259667731
 10
13.0721724132
 20
4.6149479024
 10
12.9926474088
 20
4.5909010483
  0
LWPOLYLINE
  5
7CC
100
AcDbEntity
  8
02___PRT_ALL_AXES
100
AcDbPolyline
 62
7
  6
CONTINUOUS
 90
7
 70
0
 10
13.1154602479
 20
4.7300435611
 10
13.0712882348
 20
4.7110643018
 10
12.9917468008
 20
4.6871174305
 10
12.9055922365
 20
4.6706461758
 10
12.8158566984
 20
4.6624624881
 10
12.7261788169
 20
4.662811281
 10
12.6390485396
 20
4.6714039935
  0
LWPOLYLINE
  5
7CD
100
AcDbEntity
  8
02___PRT_ALL_AXES
100
AcDbPolyline
 62
7
  6
CONTINUOUS
 90
5
 70
0
 10
13.0129685271
 20
4.6534275318
 10
13.0947632175
 20
4.678735838
 10
13.1690391955
 20
4.7111189545
 10
13.23397609
 20
4.7498127036
 10
13.2720115063
 20
4.7808611402
  0
LINE
  5
7CE
100
AcDbEntity
  8
02___PRT_ALL_AXES
100
AcDbLine
 62
7
  6
CONTINUOUS
 10
13.0129685271
 20
4.6474002009
 11
13.0947632175
 21
4.6727085072
  0
LWPOLYLINE
  5
7CF
100
AcDbEntity
  8
0
100
AcDbPolyline
 62
7
  6
CONTINUOUS
 90
4
 70
0
 10
12.9417818529
 20
4.2055455317
 10
12.9553616988
 20
4.2141181427
 10
12.9767513743
 20
4.2316159527
 10
12.990113027
 20
4.2475228572
  0
LWPOLYLINE
  5
7D0
100
AcDbEntity
  8
02___PRT_ALL_AXES
100
AcDbPolyline
 62
7
  6
CONTINUOUS
 90
7
 70
0
 10
13.0932764104
 20
4.431155237
 10
13.0731159211
 20
4.4224171958
 10
12.993529435
 20
4.3982438528
 10
12.9073244137
 20
4.3815791027
 10
12.8174601096
 20
4.3732211946
 10
12.7275683225
 20
4.3734293783
 10
12.6405077877
 20
4.3818780189
  0
LWPOLYLINE
  5
7D1
100
AcDbEntity
  8
02___PRT_ALL_AXES
100
AcDbPolyline
 62
7
  6
CONTINUOUS
 90
7
 70
0
 10
13.0928298403
 20
4.5274543559
 10
13.0717276166
 20
4.518349015
 10
12.9923617236
 20
4.4943935631
 10
12.9072388194
 20
4.4780042194
 10
12.8182149615
 20
4.469692656
 10
12.7287918086
 20
4.4698067159
 10
12.6414070091
 20
4.4781846164
  0
LWPOLYLINE
  5
7D2
100
AcDbEntity
  8
02___PRT_ALL_AXES
100
AcDbPolyline
 62
7
  6
CONTINUOUS
 90
7
 70
0
 10
13.1354633176
 20
4.5940157945
 10
13.0719502541
 20
4.566648504
 10
12.9923344732
 20
4.54260552
 10
12.9060980102
 20
4.5260613658
 10
12.8162527813
 20
4.5178237329
 10
12.7264393993
 20
4.5181420526
 10
12.6392994786
 20
4.5267110601
  0
LWPOLYLINE
  5
7D3
100
AcDbEntity
  8
02___PRT_ALL_AXES
100
AcDbPolyline
 62
7
  6
CONTINUOUS
 90
7
 70
0
 10
13.1359286656
 20
4.4977813853
 10
13.0708186804
 20
4.4698011878
 10
12.9912256561
 20
4.4458968531
 10
12.9058781517
 20
4.4295931169
 10
12.8178143991
 20
4.4214558033
 10
12.7293157674
 20
4.4215628798
 10
12.6420075388
 20
4.4298792099
  0
LWPOLYLINE
  5
7D4
100
AcDbEntity
  8
0
100
AcDbPolyline
 62
7
  6
CONTINUOUS
 90
3
 70
0
 10
12.9417818529
 20
4.2055455317
 10
12.9285716277
 20
4.1984668013
 10
12.8997549348
 20
4.1864755243
  0
LWPOLYLINE
  5
7D5
100
AcDbEntity
  8
02___PRT_ALL_AXES
100
AcDbPolyline
 62
7
  6
CONTINUOUS
 90
7
 70
0
 10
13.092882561
 20
4.3828147283
 10
13.071829063
 20
4.373729901
 10
12.9922938617
 20
4.3497209654
 10
12.9062503536
 20
4.3332082607
 10
12.8166091833
 20
4.3249647506
 10
12.727002612
 20
4.325238992
 10
12.6398233636
 20
4.3337594791
  0
LINE
  5
7D6
100
AcDbEntity
  8
0
100
AcDbLine
 62
7
  6
CONTINUOUS
 10
12.8997549348
 20
4.1864755243
 11
12.9294507262
 21
4.1989387571
  0
LWPOLYLINE
  5
7D7
100
AcDbEntity
  8
0
100
AcDbPolyline
 62
7
  6
CONTINUOUS
 90
10
 70
0
 10
12.916704426
 20
4.2348121368
 10
12.8950401652
 20
4.2266216518
 10
12.8609414133
 20
4.217678865
 10
12.8246093002
 20
4.2118500858
 10
12.7873560729
 20
4.2093908848
 10
12.750578052
 20
4.2103107813
 10
12.7147597
 20
4.2145085181
 10
12.680409518
 20
4.22194632
 10
12.648798316
 20
4.2323672262
 10
12.6336313477
 20
4.2394264959
  0
LWPOLYLINE
  5
7D8
100
AcDbEntity
  8
0
100
AcDbPolyline
 62
7
  6
CONTINUOUS
 90
18
 70
0
 10
13.4643272635
 20
8.7830766129
 10
13.3602744963
 20
8.8352318332
 10
13.2458731837
 20
8.8779021318
 10
13.123344646
 20
8.9105338946
 10
12.9949945329
 20
8.9327251239
 10
12.8632389334
 20
8.9442228191
 10
12.7302232382
 20
8.9449347633
 10
12.5982900392
 20
8.9348678748
 10
12.4696767776
 20
8.9141511059
 10
12.3465549312
 20
8.883010551
 10
12.2313233516
 20
8.8418722187
 10
12.1259758393
 20
8.7911903152
 10
12.032735804
 20
8.7316919794
 10
11.9540341399
 20
8.6647114028
 10
11.8915375978
 20
8.5917650211
 10
11.8464003553
 20
8.5148307226
 10
11.8187579779
 20
8.4353975038
 10
11.8084994008
 20
8.3552300744
  0
LWPOLYLINE
  5
7D9
100
AcDbEntity
  8
0
100
AcDbPolyline
 62
9
  6
CONTINUOUS
 90
34
 70
0
 10
13.4249578528
 20
8.7791767795
 10
13.3663491386
 20
8.8101525819
 10
13.3065558391
 20
8.8366850066
 10
13.2456769095
 20
8.85937227
 10
13.1835495517
 20
8.8786791525
 10
13.1198035656
 20
8.8949350453
 10
13.0540153247
 20
8.9083074281
 10
12.9864534704
 20
8.9187244875
 10
12.9177451143
 20
8.9260802857
 10
12.8483055706
 20
8.9303371684
 10
12.7784984101
 20
8.9314758578
 10
12.7087482222
 20
8.9294890843
 10
12.6394849335
 20
8.9243898229
 10
12.5711239552
 20
8.9162100982
 10
12.5040739743
 20
8.9050001415
 10
12.4387367324
 20
8.8908283493
 10
12.375500825
 20
8.873780013
 10
12.3147410561
 20
8.8539566063
 10
12.2568201946
 20
8.8314763696
 10
12.2020862043
 20
8.8064740507
 10
12.1508687609
 20
8.7791000307
 10
12.1034762097
 20
8.7495191022
 10
12.0601921112
 20
8.7179082267
 10
12.0212757676
 20
8.6844564515
 10
11.986961788
 20
8.6493650739
 10
11.9574568723
 20
8.6128454073
 10
11.9329385747
 20
8.5751176038
 10
11.9135528696
 20
8.5364064421
 10
11.8994151801
 20
8.4969400487
 10
11.8906120568
 20
8.4569532206
 10
11.8871991569
 20
8.4166867995
 10
11.8891987262
 20
8.3763886686
 10
11.8965980803
 20
8.3363037108
 10
11.909363137
 20
8.2966434468
  0
LWPOLYLINE
  5
7DA
100
AcDbEntity
  8
02___PRT_ALL_AXES
100
AcDbPolyline
 62
7
  6
CONTINUOUS
 90
3
 70
0
 10
3.6201978076
 20
3.2329196226
 10
3.6943744172
 20
3.2870629632
 10
3.7760922448
 20
3.328966035
  0
LINE
  5
7DB
100
AcDbEntity
  8
0
100
AcDbLine
 62
9
  6
CONTINUOUS
 10
3.8947069401
 20
2.2069187909
 11
4.1094453675
 21
2.2069187909
  0
LINE
  5
7DC
100
AcDbEntity
  8
02___PRT_ALL_AXES
100
AcDbLine
 62
7
  6
CONTINUOUS
 10
3.7760922448
 20
2.2462888696
 11
3.6943744172
 21
2.2881919414
  0
LINE
  5
7DD
100
AcDbEntity
  8
02___PRT_ALL_AXES
100
AcDbLine
 62
7
  6
CONTINUOUS
 10
3.6943744172
 20
2.2881919414
 11
3.6201978076
 21
2.342335282
  0
LINE
  5
7DE
100
AcDbEntity
  8
02___PRT_ALL_AXES
100
AcDbLine
 62
7
  6
CONTINUOUS
 10
3.6201978076
 20
2.342335282
 11
3.5553803514
 21
2.4073919353
  0
LWPOLYLINE
  5
7DF
100
AcDbEntity
  8
02___PRT_ALL_AXES
100
AcDbPolyline
 62
7
  6
CONTINUOUS
 90
3
 70
0
 10
3.5553803514
 20
2.4073919353
 10
3.5015106084
 20
2.4817674794
 10
3.4599088295
 20
2.5636391029
  0
LINE
  5
7E0
100
AcDbEntity
  8
02___PRT_ALL_AXES
100
AcDbLine
 62
7
  6
CONTINUOUS
 10
3.4599088295
 20
2.5636391029
 11
3.4315945995
 21
2.6510002793
  0
LWPOLYLINE
  5
7E1
100
AcDbEntity
  8
02___PRT_ALL_AXES
100
AcDbPolyline
 62
7
  6
CONTINUOUS
 90
8
 70
0
 10
3.4315945995
 20
2.6510002793
 10
3.4172618495
 20
2.7417099427
 10
3.4172618495
 20
2.8335449619
 10
3.4315945995
 20
2.9242546253
 10
3.4599088295
 20
3.0116158017
 10
3.5015106084
 20
3.0934874253
 10
3.5553803514
 20
3.1678629693
 10
3.6201978076
 20
3.2329196226
  0
LINE
  5
7E2
100
AcDbEntity
  8
02___PRT_ALL_AXES
100
AcDbLine
 62
7
  6
CONTINUOUS
 10
3.7760922448
 20
2.2462888696
 11
3.8983787743
 21
2.2462888696
  0
LINE
  5
7E3
100
AcDbEntity
  8
0
100
AcDbLine
 62
7
  6
CONTINUOUS
 10
3.8983787743
 20
2.2462888696
 11
4.1057735332
 21
2.2462888696
  0
LINE
  5
7E4
100
AcDbEntity
  8
02___PRT_ALL_AXES
100
AcDbLine
 62
7
  6
CONTINUOUS
 10
4.1057735332
 20
2.2462888696
 11
4.2280600628
 21
2.2462888696
  0
LINE
  5
7E5
100
AcDbEntity
  8
0
100
AcDbLine
 62
9
  6
CONTINUOUS
 10
3.9021854888
 20
2.2856589484
 11
4.1019668188
 21
2.2856589484
  0
LWPOLYLINE
  5
7E6
100
AcDbEntity
  8
0
100
AcDbPolyline
 62
7
  6
CONTINUOUS
 90
22
 70
0
 10
4.0020761538
 20
2.4077061925
 10
3.9565069149
 20
2.408079174
 10
3.9111227734
 20
2.41391419
 10
3.8667467664
 20
2.4251069974
 10
3.824272145
 20
2.44134671
 10
3.7835942567
 20
2.4626694713
 10
3.74390791
 20
2.4900072456
 10
3.705084971
 20
2.5248026399
 10
3.6677333052
 20
2.5690522132
 10
3.6344683839
 20
2.6235018968
 10
3.6092590733
 20
2.6856124177
 10
3.5944948858
 20
2.7520111268
 10
3.5909669226
 20
2.8205141306
 10
3.598915398
 20
2.8889544371
 10
3.6182585718
 20
2.9556269045
 10
3.648690028
 20
3.0187504138
 10
3.6888758592
 20
3.0756344607
 10
3.7374109313
 20
3.1248467345
 10
3.7934431789
 20
3.1657394052
 10
3.8552660464
 20
3.197106802
 10
3.9218101443
 20
3.218365296
 10
3.9911610207
 20
3.2287855807
  0
LWPOLYLINE
  5
7E7
100
AcDbEntity
  8
0
100
AcDbPolyline
 62
7
  6
CONTINUOUS
 90
12
 70
0
 10
3.7792545987
 20
2.7345675412
 10
3.7729190529
 20
2.7717577895
 10
3.7727636151
 20
2.8095649463
 10
3.7788145096
 20
2.8469657748
 10
3.7909294325
 20
2.8829468669
 10
3.8088029851
 20
2.9165335473
 10
3.8319733058
 20
2.9468113878
 10
3.8598355126
 20
2.9729540499
 10
3.8916570265
 20
2.9942441147
 10
3.9265988132
 20
3.0100934715
 10
3.9637337492
 20
3.0200571939
 10
4.0020755471
 20
3.0238479628
  0
LINE
  5
7E8
100
AcDbEntity
  8
AXIS_COSMETIC_THREADS
100
AcDbLine
 62
7
  6
CONTINUOUS
 10
3.9032482375
 20
2.853048749
 11
3.9366548571
 21
2.8864553686
  0
LINE
  5
7E9
100
AcDbEntity
  8
0
100
AcDbLine
 62
7
  6
CONTINUOUS
 10
3.9021854888
 20
3.2895959563
 11
3.8981951939
 21
3.3309018873
  0
LWPOLYLINE
  5
7EA
100
AcDbEntity
  8
0
100
AcDbPolyline
 62
7
  6
CONTINUOUS
 90
3
 70
0
 10
3.8981951939
 20
3.3309018873
 10
3.8958255927
 20
3.3561966243
 10
3.8947069401
 20
3.3683361137
  0
LINE
  5
7EB
100
AcDbEntity
  8
0
100
AcDbLine
 62
7
  6
CONTINUOUS
 10
3.8947069401
 20
2.2069187909
 11
3.8985627915
 21
2.2482258911
  0
LWPOLYLINE
  5
7EC
100
AcDbEntity
  8
0
100
AcDbPolyline
 62
7
  6
CONTINUOUS
 90
3
 70
0
 10
3.8985627915
 20
2.2482258911
 10
3.9009969796
 20
2.2735251395
 10
3.9021854888
 20
2.2856589484
  0
LINE
  5
7ED
100
AcDbEntity
  8
AXIS_COSMETIC_THREADS
100
AcDbLine
 62
7
  6
CONTINUOUS
 10
3.8710554628
 20
2.8852415237
 11
3.9032482375
 21
2.853048749
  0
LINE
  5
7EE
100
AcDbEntity
  8
0
100
AcDbLine
 62
7
  6
CONTINUOUS
 10
4.1064871802
 20
2.2387442606
 11
4.1019668188
 21
2.2856589484
  0
LINE
  5
7EF
100
AcDbEntity
  8
0
100
AcDbLine
 62
7
  6
CONTINUOUS
 10
4.1094453675
 20
2.2069187909
 11
4.1064871802
 21
2.2387442606
  0
LINE
  5
7F0
100
AcDbEntity
  8
0
100
AcDbLine
 62
7
  6
CONTINUOUS
 10
4.1094453675
 20
3.3683361137
 11
4.105589516
 21
3.3270290135
  0
LWPOLYLINE
  5
7F1
100
AcDbEntity
  8
0
100
AcDbPolyline
 62
7
  6
CONTINUOUS
 90
3
 70
0
 10
4.105589516
 20
3.3270290135
 10
4.103155328
 20
3.3017297652
 10
4.1019668188
 20
3.2895959563
  0
LINE
  5
7F2
100
AcDbEntity
  8
AXIS_COSMETIC_THREADS
100
AcDbLine
 62
7
  6
CONTINUOUS
 10
3.9366548571
 20
2.8864553686
 11
3.9045628165
 21
2.9185474092
  0
LWPOLYLINE
  5
7F3
100
AcDbEntity
  8
0
100
AcDbPolyline
 62
7
  6
CONTINUOUS
 90
16
 70
0
 10
4.2018503107
 20
2.6974473815
 10
4.1846976087
 20
2.6652270765
 10
4.1623933918
 20
2.6362280505
 10
4.135536765
 20
2.6112663056
 10
4.104853291
 20
2.5910464603
 10
4.0711741149
 20
2.5761431923
 10
4.0354171666
 20
2.5669873888
 10
3.9985579538
 20
2.5638519542
 10
3.9616028676
 20
2.5668456114
 10
3.9255662464
 20
2.5759095784
 10
3.8914402215
 20
2.590817706
 10
3.8601664059
 20
2.6111825478
 10
3.8326077867
 20
2.6364682842
 10
3.8095295565
 20
2.6660029766
 10
3.7915763276
 20
2.6989975817
 10
3.7792545987
 20
2.7345675412
  0
LWPOLYLINE
  5
7F4
100
AcDbEntity
  8
0
100
AcDbPolyline
 62
7
  6
CONTINUOUS
 90
8
 70
0
 10
4.0041382706
 20
2.9930426885
 10
3.9737884747
 20
2.9927078605
 10
3.9436077084
 20
2.9878840853
 10
3.9143809284
 20
2.978666003
 10
3.8865879884
 20
2.9651635749
 10
3.8609669815
 20
2.9476829158
 10
3.8380327912
 20
2.9265380584
 10
3.818288951
 20
2.902125872
  0
LINE
  5
7F5
100
AcDbEntity
  8
0
100
AcDbLine
 62
7
  6
CONTINUOUS
 10
4.0339586167
 20
2.9889256544
 11
4.0041382706
 21
2.9930426885
  0
LWPOLYLINE
  5
7F6
100
AcDbEntity
  8
0
100
AcDbPolyline
 62
7
  6
CONTINUOUS
 90
10
 70
0
 10
4.0750695637
 20
3.0122873591
 10
4.0412209802
 20
3.0183851377
 10
4.0070807276
 20
3.0194565507
 10
3.973379887
 20
3.0155341404
 10
3.9408539238
 20
3.006759979
 10
3.9101989191
 20
2.9933828758
 10
3.8820644586
 20
2.9757515389
 10
3.8570389285
 20
2.9543060059
 10
3.8356368871
 20
2.929567149
 10
3.818288951
 20
2.902125872
  0
LWPOLYLINE
  5
7F7
100
AcDbEntity
  8
0
100
AcDbPolyline
 62
7
  6
CONTINUOUS
 90
10
 70
0
 10
4.2122501281
 20
2.8397285515
 10
4.2014605954
 20
2.8680948625
 10
4.1868886178
 20
2.8944889891
 10
4.169259178
 20
2.9179652307
 10
4.1498639863
 20
2.9376202767
 10
4.1292093085
 20
2.9537821227
 10
4.1073562221
 20
2.9668860388
 10
4.0840507896
 20
2.977218456
 10
4.0594261487
 20
2.9846494597
 10
4.0339586167
 20
2.9889256544
  0
LWPOLYLINE
  5
7F8
100
AcDbEntity
  8
0
100
AcDbPolyline
 62
7
  6
CONTINUOUS
 90
5
 70
0
 10
4.2122501281
 20
2.8397285515
 10
4.2186470796
 20
2.8041291905
 10
4.2190406141
 20
2.7678789268
 10
4.2133970675
 20
2.7319856381
 10
4.2018503107
 20
2.6974473815
  0
LWPOLYLINE
  5
7F9
100
AcDbEntity
  8
0
100
AcDbPolyline
 62
7
  6
CONTINUOUS
 90
19
 70
0
 10
3.9911610207
 20
3.2287855807
 10
4.0654645369
 20
3.2209617828
 10
4.1368180913
 20
3.2008113486
 10
4.2035243925
 20
3.1689182027
 10
4.2632989703
 20
3.1265078385
 10
4.3149803555
 20
3.0744715986
 10
4.3565793974
 20
3.0149034751
 10
4.3871220861
 20
2.9495722683
 10
4.4059473546
 20
2.8800214054
 10
4.4124205667
 20
2.8091364674
 10
4.4065823054
 20
2.7383913089
 10
4.3886755774
 20
2.6701106805
 10
4.3595452313
 20
2.606694476
 10
4.3198161677
 20
2.549274258
 10
4.271182863
 20
2.5001716932
 10
4.2152023167
 20
2.4606299412
 10
4.1532866036
 20
2.4315492879
 10
4.0880692962
 20
2.4139942542
 10
4.0208646734
 20
2.408171058
  0
LINE
  5
7FA
100
AcDbEntity
  8
0
100
AcDbLine
 62
9
  6
CONTINUOUS
 10
4.1019668188
 20
3.2895959563
 11
3.9021854888
 21
3.2895959563
  0
LINE
  5
7FB
100
AcDbEntity
  8
02___PRT_ALL_AXES
100
AcDbLine
 62
7
  6
CONTINUOUS
 10
4.2280600628
 20
3.328966035
 11
4.1057735332
 21
3.328966035
  0
LINE
  5
7FC
100
AcDbEntity
  8
0
100
AcDbLine
 62
7
  6
CONTINUOUS
 10
4.1057735332
 20
3.328966035
 11
3.8983787743
 21
3.328966035
  0
LINE
  5
7FD
100
AcDbEntity
  8
02___PRT_ALL_AXES
100
AcDbLine
 62
7
  6
CONTINUOUS
 10
3.8983787743
 20
3.328966035
 11
3.7760922448
 21
3.328966035
  0
LWPOLYLINE
  5
7FE
100
AcDbEntity
  8
02___PRT_ALL_AXES
100
AcDbPolyline
 62
7
  6
CONTINUOUS
 90
7
 70
0
 10
4.5725577081
 20
2.6510002793
 10
4.5442434781
 20
2.5636391029
 10
4.5026416991
 20
2.4817674794
 10
4.4487719561
 20
2.4073919353
 10
4.3839545
 20
2.342335282
 10
4.3097778903
 20
2.2881919414
 10
4.2280600628
 20
2.2462888696
  0
LINE
  5
7FF
100
AcDbEntity
  8
0
100
AcDbLine
 62
9
  6
CONTINUOUS
 10
4.1094453675
 20
3.3683361137
 11
3.8947069401
 21
3.3683361137
  0
LINE
  5
800
100
AcDbEntity
  8
02___PRT_ALL_AXES
100
AcDbLine
 62
7
  6
CONTINUOUS
 10
4.2280600628
 20
3.328966035
 11
4.3097778903
 21
3.2870629632
  0
LINE
  5
801
100
AcDbEntity
  8
02___PRT_ALL_AXES
100
AcDbLine
 62
7
  6
CONTINUOUS
 10
4.3097778903
 20
3.2870629632
 11
4.3839545
 21
3.2329196226
  0
LWPOLYLINE
  5
802
100
AcDbEntity
  8
02___PRT_ALL_AXES
100
AcDbPolyline
 62
7
  6
CONTINUOUS
 90
4
 70
0
 10
4.3839545
 20
3.2329196226
 10
4.4487719561
 20
3.1678629693
 10
4.5026416991
 20
3.0934874253
 10
4.5442434781
 20
3.0116158017
  0
LWPOLYLINE
  5
803
100
AcDbEntity
  8
02___PRT_ALL_AXES
100
AcDbPolyline
 62
7
  6
CONTINUOUS
 90
5
 70
0
 10
4.5442434781
 20
3.0116158017
 10
4.5725577081
 20
2.9242546253
 10
4.5868904581
 20
2.8335449619
 10
4.5868904581
 20
2.7417099427
 10
4.5725577081
 20
2.6510002793
  0
CIRCLE
  5
804
100
AcDbEntity
  8
0
100
AcDbCircle
 62
7
  6
CONTINUOUS
 10
10.5342808475
 20
1.243294839
 40
0.252091
  0
CIRCLE
  5
805
100
AcDbEntity
  8
0
100
AcDbCircle
 62
7
  6
CONTINUOUS
 10
10.5342808475
 20
1.243294839
 40
0.182698
  0
ARC
  5
806
100
AcDbEntity
  8
02___PRT_ALL_AXES
100
AcDbCircle
 62
7
  6
CONTINUOUS
 10
3.2737296971
 20
6.0313797129
 40
0.157480315
100
AcDbArc
 50
180.0
 51
270.0
  0
ARC
  5
807
100
AcDbEntity
  8
02___PRT_ALL_AXES
100
AcDbCircle
 62
7
  6
CONTINUOUS
 10
4.7304226105
 20
6.0313797129
 40
0.157480315
100
AcDbArc
 50
270.0
 51
360.0
  0
ARC
  5
808
100
AcDbEntity
  8
0
100
AcDbCircle
 62
7
  6
CONTINUOUS
 10
4.902902961
 20
9.8030332562
 40
0.0787401575
100
AcDbArc
 50
1.0000000028
 51
90.0
  0
ARC
  5
809
100
AcDbEntity
  8
0
100
AcDbCircle
 62
7
  6
CONTINUOUS
 10
3.1012493466
 20
9.8030332562
 40
0.0787401575
100
AcDbArc
 50
90.0
 51
178.9999999972
  0
ARC
  5
80A
100
AcDbEntity
  8
02___PRT_ALL_AXES
100
AcDbCircle
 62
7
  6
CONTINUOUS
 10
3.057194264
 20
6.464450579
 40
0.0590551181
100
AcDbArc
 50
0.0
 51
90.0
  0
ARC
  5
80B
100
AcDbEntity
  8
02___PRT_ALL_AXES
100
AcDbCircle
 62
7
  6
CONTINUOUS
 10
4.9469580435
 20
6.464450579
 40
0.0590551181
100
AcDbArc
 50
90.0
 51
180.0
  0
ARC
  5
80C
100
AcDbEntity
  8
02___PRT_ALL_AXES
100
AcDbCircle
 62
7
  6
CONTINUOUS
 10
3.057194264
 20
6.5628757759
 40
0.0393700787
100
AcDbArc
 50
180.0
 51
270.0
  0
ARC
  5
80D
100
AcDbEntity
  8
02___PRT_ALL_AXES
100
AcDbCircle
 62
7
  6
CONTINUOUS
 10
4.9469580435
 20
6.5628757759
 40
0.0393700787
100
AcDbArc
 50
270.0
 51
360.0
  0
ARC
  5
80E
100
AcDbEntity
  8
0
100
AcDbCircle
 62
7
  6
CONTINUOUS
 10
4.5138871774
 20
5.1652379806
 40
0.0393700787
100
AcDbArc
 50
270.0
 51
360.0
  0
ARC
  5
80F
100
AcDbEntity
  8
0
100
AcDbCircle
 62
7
  6
CONTINUOUS
 10
3.4902651302
 20
5.1652379806
 40
0.0393700787
100
AcDbArc
 50
180.0
 51
270.0
  0
ARC
  5
810
100
AcDbEntity
  8
0
100
AcDbCircle
 62
7
  6
CONTINUOUS
 10
3.4115249727
 20
5.8345293192
 40
0.0393700787
100
AcDbArc
 50
0.0
 51
90.0
  0
ARC
  5
811
100
AcDbEntity
  8
0
100
AcDbCircle
 62
7
  6
CONTINUOUS
 10
4.5926273349
 20
5.8345293192
 40
0.0393700787
100
AcDbArc
 50
90.0
 51
180.0
  0
CIRCLE
  5
812
100
AcDbEntity
  8
0
100
AcDbCircle
 62
7
  6
CONTINUOUS
 10
3.9036509569
 20
2.7876274523
 40
0.0196850394
  0
CIRCLE
  5
813
100
AcDbEntity
  8
0
100
AcDbCircle
 62
9
  6
CONTINUOUS
 10
3.9036509569
 20
2.7876274523
 40
0.00468503
  0
CIRCLE
  5
814
100
AcDbEntity
  8
0
100
AcDbCircle
 62
7
  6
CONTINUOUS
 10
4.0020761538
 20
2.6892022555
 40
0.0196850394
  0
CIRCLE
  5
815
100
AcDbEntity
  8
0
100
AcDbCircle
 62
9
  6
CONTINUOUS
 10
4.0020761538
 20
2.6892022555
 40
0.00468503
  0
CIRCLE
  5
816
100
AcDbEntity
  8
02___PRT_ALL_AXES
100
AcDbCircle
 62
7
  6
CONTINUOUS
 10
4.0020761538
 20
2.7876274523
 40
0.9842519685
  0
CIRCLE
  5
817
100
AcDbEntity
  8
02___PRT_ALL_AXES
100
AcDbCircle
 62
9
  6
CONTINUOUS
 10
4.0020761538
 20
2.7876274523
 40
0.9448818898
  0
CIRCLE
  5
818
100
AcDbEntity
  8
02___PRT_ALL_AXES
100
AcDbCircle
 62
7
  6
CONTINUOUS
 10
4.0020761538
 20
2.7876274523
 40
0.8858267717
  0
CIRCLE
  5
819
100
AcDbEntity
  8
02___PRT_ALL_AXES
100
AcDbCircle
 62
9
  6
CONTINUOUS
 10
4.0020761538
 20
2.7876274523
 40
0.7283464567
  0
ARC
  5
81A
100
AcDbEntity
  8
0
100
AcDbCircle
 62
9
  6
CONTINUOUS
 10
4.0020761538
 20
2.7876274523
 40
0.5905511811
100
AcDbArc
 50
100.4753138432
 51
259.5246861568
  0
ARC
  5
81B
100
AcDbEntity
  8
0
100
AcDbCircle
 62
9
  6
CONTINUOUS
 10
4.0020761538
 20
2.7876274523
 40
0.5905511811
100
AcDbArc
 50
280.4753138432
 51
79.5246861568
  0
ARC
  5
81C
100
AcDbEntity
  8
0
100
AcDbCircle
 62
7
  6
CONTINUOUS
 10
4.0020761538
 20
2.7876274523
 40
0.5511811024
100
AcDbArc
 50
280.8440625637
 51
79.1559374363
  0
ARC
  5
81D
100
AcDbEntity
  8
0
100
AcDbCircle
 62
7
  6
CONTINUOUS
 10
4.0020761538
 20
2.7876274523
 40
0.5511811024
100
AcDbArc
 50
100.8440625637
 51
259.1559374363
  0
ARC
  5
81E
100
AcDbEntity
  8
0
100
AcDbCircle
 62
9
  6
CONTINUOUS
 10
4.0020761538
 20
2.7876274523
 40
0.5118110236
100
AcDbArc
 50
101.2547126182
 51
258.7452873818
  0
ARC
  5
81F
100
AcDbEntity
  8
0
100
AcDbCircle
 62
9
  6
CONTINUOUS
 10
4.0020761538
 20
2.7876274523
 40
0.5118110236
100
AcDbArc
 50
281.2547126182
 51
78.7452873818
  0
CIRCLE
  5
820
100
AcDbEntity
  8
0
100
AcDbCircle
 62
7
  6
CONTINUOUS
 10
4.0020761538
 20
2.7876274523
 40
0.3799212598
  0
CIRCLE
  5
821
100
AcDbEntity
  8
0
100
AcDbCircle
 62
7
  6
CONTINUOUS
 10
4.0020761538
 20
2.7876274523
 40
0.3208224134
  0
CIRCLE
  5
822
100
AcDbEntity
  8
AXIS
100
AcDbCircle
 62
7
  6
CONTINUOUS
 10
4.0020761538
 20
2.7876274523
 40
0.3051181102
  0
CIRCLE
  5
823
100
AcDbEntity
  8
AXIS
100
AcDbCircle
 62
9
  6
CONTINUOUS
 10
4.0020761538
 20
2.7876274523
 40
0.2944051522
  0
CIRCLE
  5
824
100
AcDbEntity
  8
AXIS
100
AcDbCircle
 62
9
  6
CONTINUOUS
 10
4.0020761538
 20
2.7876274523
 40
0.2469334304
  0
CIRCLE
  5
825
100
AcDbEntity
  8
0
100
AcDbCircle
 62
7
  6
CONTINUOUS
 10
4.0020761538
 20
2.7876274523
 40
0.2362204724
  0
ARC
  5
826
100
AcDbEntity
  8
0
100
AcDbCircle
 62
7
  6
CONTINUOUS
 10
4.0020761538
 20
2.7876274523
 40
0.2165355029
100
AcDbArc
 50
148.0773200832
 51
13.9226799136
  0
CIRCLE
  5
827
100
AcDbEntity
  8
0
100
AcDbCircle
 62
7
  6
CONTINUOUS
 10
4.0020761538
 20
2.7876274523
 40
0.2037401575
  0
CIRCLE
  5
828
100
AcDbEntity
  8
0
100
AcDbCircle
 62
7
  6
CONTINUOUS
 10
4.0020761538
 20
2.7876274523
 40
0.1633858268
  0
CIRCLE
  5
829
100
AcDbEntity
  8
0
100
AcDbCircle
 62
7
  6
CONTINUOUS
 10
4.0020761538
 20
2.8860526492
 40
0.0196850394
  0
CIRCLE
  5
82A
100
AcDbEntity
  8
0
100
AcDbCircle
 62
9
  6
CONTINUOUS
 10
4.0020761538
 20
2.8860526492
 40
0.00468503
  0
CIRCLE
  5
82B
100
AcDbEntity
  8
0
100
AcDbCircle
 62
7
  6
CONTINUOUS
 10
4.1005013506
 20
2.7876274523
 40
0.0196850394
  0
CIRCLE
  5
82C
100
AcDbEntity
  8
0
100
AcDbCircle
 62
9
  6
CONTINUOUS
 10
4.1005013506
 20
2.7876274523
 40
0.00468503
  0
ENDSEC
  0
SECTION
  2
OBJECTS
  0
DICTIONARY
  5
C
100
AcDbDictionary
280
0
281
1
  3
ACAD_GROUP
350
D
  3
ACAD_MLINESTYLE
350
17
  3
ACAD_LAYOUT
350
1A
  3
ACAD_PLOTSETTINGS
350
19
  3
ACAD_PLOTSTYLENAME
350
E
  0
DICTIONARY
  5
D
102
{ACAD_REACTORS
330
C
102
}
100
AcDbDictionary
280
0
281
1
  0
ACDBDICTIONARYWDFLT
  5
E
102
{ACAD_REACTORS
330
C
102
}
100
AcDbDictionary
281
1
  3
Normal
350
F
100
AcDbDictionaryWithDefault
340
F
  0
DICTIONARY
  5
17
102
{ACAD_REACTORS
330
C
102
}
100
AcDbDictionary
280
0
281
1
  3
Standard
350
18
  0
DICTIONARY
  5
19
102
{ACAD_REACTORS
330
C
102
}
100
AcDbDictionary
281
1
  0
DICTIONARY
  5
1A
102
{ACAD_REACTORS
330
C
102
}
100
AcDbDictionary
281
1
  3
Layout1
350
1E
  3
Model
350
22
  0
ACDBPLACEHOLDER
  5
F
102
{ACAD_REACTORS
330
E
102
}
  0
MLINESTYLE
  5
18
102
{ACAD_REACTORS
330
17
102
}
100
AcDbMlineStyle
  2
STANDARD
 70
0
  3

 62
256
 51
90.0
 52
90.0
 71
2
 49
0.5
 62
256
  6
BYLAYER
 49
-0.5
 62
256
  6
BYLAYER
  0
LAYOUT
  5
1E
102
{ACAD_REACTORS
330
1A
102
}
100
AcDbPlotSettings
  1

  2

  4

  6

 40
0.0
 41
0.0
 42
0.0
 43
0.0
 44
0.0
 45
0.0
 46
0.0
 47
0.0
 48
0.0
 49
0.0
140
0.0
141
0.0
142
1.0
143
1.0
 70
0
 72
0
 73
0
 74
0
  7

 75
0
147
1.0
148
0.0
149
0.0
100
AcDbLayout
  1
Layout1
 70
0
 71
0
 10
0.0
 20
0.0
 11
0.0
 21
0.0
 12
0.0
 22
0.0
 32
0.0
 14
0.0
 24
0.0
 34
0.0
 15
0.0
 25
0.0
 35
0.0
146
0.0
 13
0.0
 23
0.0
 33
0.0
 16
0.0
 26
0.0
 36
0.0
 17
0.0
 27
0.0
 37
0.0
 76
0
330
1B
331
0
345
0
346
0
  0
LAYOUT
  5
22
102
{ACAD_REACTORS
330
1A
102
}
100
AcDbPlotSettings
  1

  2

  4

  6

 40
0.0
 41
0.0
 42
0.0
 43
0.0
 44
0.0
 45
0.0
 46
0.0
 47
0.0
 48
0.0
 49
0.0
140
0.0
141
0.0
142
1.0
143
1.0
 70
0
 72
0
 73
0
 74
0
  7

 75
0
147
1.0
148
0.0
149
0.0
100
AcDbLayout
  1
Model
 70
0
 71
0
 10
0.0
 20
0.0
 11
0.0
 21
0.0
 12
0.0
 22
0.0
 32
0.0
 14
0.0
 24
0.0
 34
0.0
 15
0.0
 25
0.0
 35
0.0
146
0.0
 13
0.0
 23
0.0
 33
0.0
 16
0.0
 26
0.0
 36
0.0
 17
0.0
 27
0.0
 37
0.0
 76
0
330
1F
331
0
345
0
346
0
  0
ENDSEC
  0
EOF
