999
DXF file: 145170_1.dxf
999
Pro/ENGINEER 2006170 by Parametric Technology Corporation
  0
SECTION
  2
HEADER
  9
$ACADVER
  1
AC1015
  9
$DWGCODEPAGE
  3
ANSI_1252
  9
$EXTMAX
 10
17.0
 20
11.0
 30
0.0
  9
$EXTMIN
 10
0.0
 20
0.0
 30
0.0
  9
$LIMMIN
 10
0.0
 20
0.0
  9
$LIMMAX
 10
17.0
 20
11.0
  9
$VIEWCTR
 10
8.5
 20
5.5
  9
$VIEWSIZE
 40
11.0
  9
$CLAYER
  8
0
  9
$LTSCALE
 40
0.935
  9
$CELTYPE
  6
BYLAYER
  9
$DIMSCALE
 40
1.0
  9
$DIMASZ
 40
0.1875
  9
$DIMEXO
 40
0.10625
  9
$DIMDLI
 40
0.646
  9
$DIMEXE
 40
0.306
  9
$DIMCEN
 40
0.153
  9
$DIMLFAC
 40
1.0
  9
$DIMBLK
  1
_FILLED
  9
$DIMTXT
 40
0.1
  9
$DIMTOL
 70
1
  9
$DIMLIM
 70
0
  9
$DIMTFAC
 40
1.0
  9
$DIMTP
 40
0.005
  9
$DIMTM
 40
0.005
  9
$PDMODE
 70
3
  9
$PDSIZE
 40
0.3125
  9
$HANDSEED
  5
811
  9
$MEASUREMENT
 70
0
  9
$INSUNITS
 70
1
  0
ENDSEC
  0
SECTION
  2
CLASSES
  0
CLASS
  1
ACDBDICTIONARYWDFLT
  2
AcDbDictionaryWithDefault
  3
AutoCAD 2000
 90
0
280
0
281
0
  0
CLASS
  1
ACDBPLACEHOLDER
  2
AcDbPlaceHolder
  3
AutoCAD 2000
 90
0
280
0
281
0
  0
CLASS
  1
LAYOUT
  2
AcDbLayout
  3
AutoCAD 2000
 90
0
280
0
281
0
  0
ENDSEC
  0
SECTION
  2
TABLES
  0
TABLE
  2
VPORT
  5
8
100
AcDbSymbolTable
 70
2
  0
VPORT
  5
1F4
100
AcDbSymbolTableRecord
100
AcDbViewportTableRecord
  2
*ACTIVE
 70
0
 10
0.0
 20
0.0
 11
1.0
 21
1.0
 12
8.5
 22
5.5
 13
0.0
 23
0.0
 14
1.0
 24
1.0
 15
0.0
 25
0.0
 16
0.0
 26
0.0
 36
1.0
 17
0.0
 27
0.0
 37
0.0
 40
11.0
 41
1.5454545455
 42
50.0
 43
0.0
 44
0.0
 50
0.0
 51
0.0
 71
0
 72
100
 73
1
 74
1
 75
0
 76
0
 77
0
 78
0
  0
ENDTAB
  0
TABLE
  2
LTYPE
  5
5
100
AcDbSymbolTable
 70
6
  0
LTYPE
  5
14
100
AcDbSymbolTableRecord
100
AcDbLinetypeTableRecord
  2
BYBLOCK
 70
0
  3

 72
65
 73
0
 40
0.0
  0
LTYPE
  5
15
100
AcDbSymbolTableRecord
100
AcDbLinetypeTableRecord
  2
BYLAYER
 70
0
  3

 72
65
 73
0
 40
0.0
  0
LTYPE
  5
16
100
AcDbSymbolTableRecord
100
AcDbLinetypeTableRecord
  2
CONTINUOUS
 70
64
  3
Solid line
 72
65
 73
0
 40
0.0
  0
LTYPE
  5
1F5
100
AcDbSymbolTableRecord
100
AcDbLinetypeTableRecord
  2
CENTER
 70
64
  3
____ _ ____ _ ____ _ ____ _ ____ _ ____ _ ____
 72
65
 73
4
 40
0.6
 49
0.375
 74
0
 49
-0.075
 74
0
 49
0.075
 74
0
 49
-0.075
 74
0
  0
LTYPE
  5
1F6
100
AcDbSymbolTableRecord
100
AcDbLinetypeTableRecord
  2
HIDDEN
 70
64
  3
- - - - - - - - - - - - - - - - - - - -
 72
65
 73
2
 40
0.2
 49
0.1
 74
0
 49
-0.1
 74
0
  0
LTYPE
  5
1F7
100
AcDbSymbolTableRecord
100
AcDbLinetypeTableRecord
  2
PHANTOM
 70
64
  3
_____ _ _ _____ _ _ _____ _ _ _____
 72
65
 73
6
 40
0.8
 49
0.45
 74
0
 49
-0.05
 74
0
 49
0.1
 74
0
 49
-0.05
 74
0
 49
0.1
 74
0
 49
-0.05
 74
0
  0
LTYPE
  5
1F8
100
AcDbSymbolTableRecord
100
AcDbLinetypeTableRecord
  2
DOT
 70
64
  3
. . . . . . . . . . . . . . . . . . . .
 72
65
 73
2
 40
0.2
 49
0.1
 74
0
 49
-0.1
 74
0
  0
LTYPE
  5
1F9
100
AcDbSymbolTableRecord
100
AcDbLinetypeTableRecord
  2
DASHED
 70
64
  3
- - - - - - - - - - - - - - - - - - - -
 72
65
 73
2
 40
0.2
 49
0.1
 74
0
 49
-0.1
 74
0
  0
ENDTAB
  0
TABLE
  2
LAYER
  5
2
100
AcDbSymbolTable
 70
36
  0
LAYER
  5
10
100
AcDbSymbolTableRecord
100
AcDbLayerTableRecord
  2
0
 70
0
 62
7
  6
CONTINUOUS
370
-3
390
F
  0
LAYER
  5
1FA
100
AcDbSymbolTableRecord
100
AcDbLayerTableRecord
  2
DEFAULT_1
 70
0
 62
7
  6
CENTER
370
-3
390
F
  0
LAYER
  5
1FB
100
AcDbSymbolTableRecord
100
AcDbLayerTableRecord
  2
DEFAULT_2
 70
0
 62
8
  6
HIDDEN
370
-3
390
F
  0
LAYER
  5
1FC
100
AcDbSymbolTableRecord
100
AcDbLayerTableRecord
  2
DEFAULT_3
 70
0
 62
7
  6
PHANTOM
370
-3
390
F
  0
LAYER
  5
1FD
100
AcDbSymbolTableRecord
100
AcDbLayerTableRecord
  2
_2D_DELETED_OBJS
 70
0
 62
7
  6
CONTINUOUS
370
-3
390
F
  0
LAYER
  5
1FE
100
AcDbSymbolTableRecord
100
AcDbLayerTableRecord
  2
_BLACK_HOLE
 70
0
 62
7
  6
CONTINUOUS
370
-3
390
F
  0
LAYER
  5
1FF
100
AcDbSymbolTableRecord
100
AcDbLayerTableRecord
  2
01___PRT_ALL_DTM_PLN
 70
0
 62
7
  6
CONTINUOUS
370
-3
390
F
  0
LAYER
  5
200
100
AcDbSymbolTableRecord
100
AcDbLayerTableRecord
  2
01___PRT_DEF_DTM_PLN
 70
0
 62
7
  6
CONTINUOUS
370
-3
390
F
  0
LAYER
  5
201
100
AcDbSymbolTableRecord
100
AcDbLayerTableRecord
  2
02___PRT_ALL_AXES
 70
0
 62
7
  6
CONTINUOUS
370
-3
390
F
  0
LAYER
  5
202
100
AcDbSymbolTableRecord
100
AcDbLayerTableRecord
  2
03___PRT_ALL_CURVES
 70
0
 62
7
  6
CONTINUOUS
370
-3
390
F
  0
LAYER
  5
203
100
AcDbSymbolTableRecord
100
AcDbLayerTableRecord
  2
04___PRT_ALL_DTM_PNT
 70
0
 62
7
  6
CONTINUOUS
370
-3
390
F
  0
LAYER
  5
204
100
AcDbSymbolTableRecord
100
AcDbLayerTableRecord
  2
05___PRT_ALL_DTM_CSYS
 70
0
 62
7
  6
CONTINUOUS
370
-3
390
F
  0
LAYER
  5
205
100
AcDbSymbolTableRecord
100
AcDbLayerTableRecord
  2
05___PRT_DEF_DTM_CSYS
 70
0
 62
7
  6
CONTINUOUS
370
-3
390
F
  0
LAYER
  5
206
100
AcDbSymbolTableRecord
100
AcDbLayerTableRecord
  2
06___PRT_ALL_SURFS
 70
0
 62
7
  6
CONTINUOUS
370
-3
390
F
  0
LAYER
  5
207
100
AcDbSymbolTableRecord
100
AcDbLayerTableRecord
  2
AXIS
 70
0
 62
7
  6
CONTINUOUS
370
-3
390
F
  0
LAYER
  5
208
100
AcDbSymbolTableRecord
100
AcDbLayerTableRecord
  2
AXIS_COSMETIC_THREADS
 70
0
 62
7
  6
CONTINUOUS
370
-3
390
F
  0
LAYER
  5
209
100
AcDbSymbolTableRecord
100
AcDbLayerTableRecord
  2
DATUM_CURVES
 70
0
 62
7
  6
CONTINUOUS
370
-3
390
F
  0
LAYER
  5
20A
100
AcDbSymbolTableRecord
100
AcDbLayerTableRecord
  2
DATUM_PLANES
 70
0
 62
7
  6
CONTINUOUS
370
-3
390
F
  0
LAYER
  5
20B
100
AcDbSymbolTableRecord
100
AcDbLayerTableRecord
  2
HIDE
 70
0
 62
7
  6
CONTINUOUS
370
-3
390
F
  0
LAYER
  5
20C
100
AcDbSymbolTableRecord
100
AcDbLayerTableRecord
  2
NOTES
 70
0
 62
7
  6
CONTINUOUS
370
-3
390
F
  0
LAYER
  5
20D
100
AcDbSymbolTableRecord
100
AcDbLayerTableRecord
  2
QUILTS
 70
0
 62
7
  6
CONTINUOUS
370
-3
390
F
  0
LAYER
  5
20E
100
AcDbSymbolTableRecord
100
AcDbLayerTableRecord
  2
SCHEME_DIMS
 70
0
 62
7
  6
CONTINUOUS
370
-3
390
F
  0
LAYER
  5
20F
100
AcDbSymbolTableRecord
100
AcDbLayerTableRecord
  2
SYMBOLS
 70
0
 62
7
  6
CONTINUOUS
370
-3
390
F
  0
ENDTAB
  0
TABLE
  2
STYLE
  5
3
100
AcDbSymbolTable
 70
1
  0
STYLE
  5
11
100
AcDbSymbolTableRecord
100
AcDbTextStyleTableRecord
  2
STANDARD
 70
0
 40
0.0
 41
1.0
 50
0.0
 71
0
 42
0.2
  3
txt
  4

  0
ENDTAB
  0
TABLE
  2
VIEW
  5
6
100
AcDbSymbolTable
 70
0
  0
ENDTAB
  0
TABLE
  2
UCS
  5
7
100
AcDbSymbolTable
 70
0
  0
ENDTAB
  0
TABLE
  2
APPID
  5
9
100
AcDbSymbolTable
 70
1
  0
APPID
  5
210
100
AcDbSymbolTableRecord
100
AcDbRegAppTableRecord
  2
ACAD
 70
0
  0
ENDTAB
  0
TABLE
  2
BLOCK_RECORD
  5
1
100
AcDbSymbolTable
 70
0
  0
BLOCK_RECORD
  5
1F
100
AcDbSymbolTableRecord
100
AcDbBlockTableRecord
  2
*MODEL_SPACE
  0
BLOCK_RECORD
  5
1B
100
AcDbSymbolTableRecord
100
AcDbBlockTableRecord
  2
*PAPER_SPACE
  0
BLOCK_RECORD
  5
211
100
AcDbSymbolTableRecord
100
AcDbBlockTableRecord
  2
_FILLED
  0
BLOCK_RECORD
  5
212
100
AcDbSymbolTableRecord
100
AcDbBlockTableRecord
  2
BANNER_LOGO_TITLEBLOCK_BL0
  0
BLOCK_RECORD
  5
213
100
AcDbSymbolTableRecord
100
AcDbBlockTableRecord
  2
*D0
  0
BLOCK_RECORD
  5
214
100
AcDbSymbolTableRecord
100
AcDbBlockTableRecord
  2
*D1
  0
BLOCK_RECORD
  5
215
100
AcDbSymbolTableRecord
100
AcDbBlockTableRecord
  2
*D2
  0
BLOCK_RECORD
  5
216
100
AcDbSymbolTableRecord
100
AcDbBlockTableRecord
  2
*D3
  0
BLOCK_RECORD
  5
217
100
AcDbSymbolTableRecord
100
AcDbBlockTableRecord
  2
*D4
  0
BLOCK_RECORD
  5
218
100
AcDbSymbolTableRecord
100
AcDbBlockTableRecord
  2
*D5
  0
ENDTAB
  0
TABLE
  2
DIMSTYLE
  5
A
100
AcDbSymbolTable
 70
1
100
AcDbDimStyleTable
 71
0
  0
DIMSTYLE
105
219
100
AcDbSymbolTableRecord
100
AcDbDimStyleTableRecord
  2
STANDARD
 70
0
  3

  4

 40
1.0
 41
0.1875
 42
0.0625
 43
0.38
 44
0.18
 45
0.0
 46
0.0
 47
0.005
 48
0.005
140
0.1
141
0.09
142
0.0
143
25.4
144
1.0
145
0.0
146
1.0
147
0.09
 71
1.0
 72
0.0
 73
1
 74
1
 75
0
 76
0
 77
0
 78
4
170
0
171
2
172
0
173
0
174
0
175
0
176
0
177
0
178
0
270
2
271
3
272
3
273
2
274
2
275
0
280
0
281
0
282
0
283
1
284
4
285
0
286
0
287
3
288
0
340
11
341
211
342
211
343
211
344
211
  0
DIMSTYLE
105
21A
100
AcDbSymbolTableRecord
100
AcDbDimStyleTableRecord
  2
DIMSTYLE_1
 70
0
  3

  4

 40
1.0
 41
0.1875
 42
0.0625
 43
0.38
 44
0.18
 45
0.0
 46
0.0
 47
0.1
 48
0.1
140
0.1
141
0.09
142
0.0
143
25.4
144
1.0
145
0.0
146
1.0
147
0.09
 71
0.0
 72
0.0
 73
1
 74
1
 75
0
 76
0
 77
0
 78
4
170
0
171
2
172
0
173
0
174
0
175
0
176
0
177
0
178
0
270
2
271
1
272
1
273
2
274
2
275
0
280
0
281
0
282
0
283
1
284
4
285
0
286
0
287
3
288
0
340
11
341
211
342
211
343
211
344
211
  0
DIMSTYLE
105
21B
100
AcDbSymbolTableRecord
100
AcDbDimStyleTableRecord
  2
DIMSTYLE_2
 70
0
  3

  4

 40
1.0
 41
0.1875
 42
0.0625
 43
0.38
 44
0.18
 45
0.0
 46
0.0
 47
0.1
 48
0.1
140
0.1
141
0.09
142
0.0
143
25.4
144
1.0
145
0.0
146
1.0
147
0.09
 71
0.0
 72
0.0
 73
1
 74
1
 75
0
 76
0
 77
0
 78
4
170
0
171
2
172
0
173
0
174
0
175
0
176
0
177
0
178
0
270
2
271
1
272
1
273
2
274
2
275
0
280
0
281
0
282
0
283
1
284
4
285
0
286
0
287
3
288
0
340
11
341
211
342
211
343
211
344
211
  0
ENDTAB
  0
ENDSEC
  0
SECTION
  2
BLOCKS
  0
BLOCK
  5
20
100
AcDbEntity
  8
0
100
AcDbBlockBegin
  2
*MODEL_SPACE
 70
0
 10
0.0
 20
0.0
 30
0.0
  3
*MODEL_SPACE
  1

  0
ENDBLK
  5
21
100
AcDbEntity
  8
0
100
AcDbBlockEnd
  0
BLOCK
  5
1C
100
AcDbEntity
  8
0
100
AcDbBlockBegin
  2
*PAPER_SPACE
 70
0
 10
0.0
 20
0.0
 30
0.0
  3
*PAPER_SPACE
  1

  0
ENDBLK
  5
1D
100
AcDbEntity
  8
0
100
AcDbBlockEnd
  0
BLOCK
  5
21C
100
AcDbEntity
  8
0
100
AcDbBlockBegin
 62
2
  6
CONTINUOUS
  2
BANNER_LOGO_TITLEBLOCK_BL0
 70
64
 10
12.9046655056
 20
2.5403783448
  3
BANNER_LOGO_TITLEBLOCK_BL0
  1

  0
LWPOLYLINE
  5
21D
100
AcDbEntity
  8
0
100
AcDbPolyline
 62
2
  6
CONTINUOUS
 90
29
 70
0
 10
12.0796650004
 20
2.5403783448
 10
12.1000078385
 20
2.5005819703
 10
12.1615890075
 20
2.4620382478
 10
12.2590135686
 20
2.4281250935
 10
12.3910903821
 20
2.3992568791
 10
12.5462480343
 20
2.3779627503
 10
12.7225901426
 20
2.3645025835
 10
12.9046652672
 20
2.3600565514
 10
13.0867408686
 20
2.3645025835
 10
13.2630829769
 20
2.3779627503
 10
13.4182401522
 20
2.3992568791
 10
13.5503174426
 20
2.4281250935
 10
13.6477415269
 20
2.4620382478
 10
13.7093231727
 20
2.5005819703
 10
13.7296660108
 20
2.5403783448
 10
13.7093231727
 20
2.5801747193
 10
13.6477415269
 20
2.6187184418
 10
13.5503174426
 20
2.6526315961
 10
13.4182401522
 20
2.6814998105
 10
13.2630829769
 20
2.7027939393
 10
13.0867408686
 20
2.7162541061
 10
12.9046652672
 20
2.7207001382
 10
12.7225901426
 20
2.7162541061
 10
12.5462480343
 20
2.7027939393
 10
12.3910903821
 20
2.6814998105
 10
12.2590135686
 20
2.6526315961
 10
12.1615890075
 20
2.6187184418
 10
12.1000078385
 20
2.5801747193
 10
12.0796650004
 20
2.5403783448
  0
ARC
  5
21E
100
AcDbEntity
  8
0
100
AcDbCircle
 62
2
  6
CONTINUOUS
 10
12.400005721
 20
2.5168763464
 40
0.0153945295
100
AcDbArc
 50
354.0454548824
 51
5.1878013979
  0
ARC
  5
21F
100
AcDbEntity
  8
0
100
AcDbCircle
 62
2
  6
CONTINUOUS
 10
12.3931760319
 20
2.5166878286
 40
0.0222174455
100
AcDbArc
 50
4.0793399388
 51
69.834329283
  0
LINE
  5
220
100
AcDbEntity
  8
0
100
AcDbLine
 62
2
  6
CONTINUOUS
 10
12.4008351814
 20
2.5375433389
 11
12.3907841758
 21
2.5410923409
  0
LINE
  5
221
100
AcDbEntity
  8
0
100
AcDbLine
 62
2
  6
CONTINUOUS
 10
12.3907841758
 20
2.5410923409
 11
12.3990241804
 21
2.5458683435
  0
ARC
  5
222
100
AcDbEntity
  8
0
100
AcDbCircle
 62
2
  6
CONTINUOUS
 10
12.3771587979
 20
2.5826952352
 40
0.0428289026
100
AcDbArc
 50
300.6990502959
 51
319.0591802498
  0
ARC
  5
223
100
AcDbEntity
  8
0
100
AcDbCircle
 62
2
  6
CONTINUOUS
 10
12.3971873948
 20
2.5665668817
 40
0.0171568255
100
AcDbArc
 50
315.9145124245
 51
16.0049121282
  0
ARC
  5
224
100
AcDbEntity
  8
0
100
AcDbCircle
 62
2
  6
CONTINUOUS
 10
12.3922357827
 20
2.5632132173
 40
0.0229166529
100
AcDbArc
 50
20.6563876465
 51
62.3316896973
  0
ARC
  5
225
100
AcDbEntity
  8
0
100
AcDbCircle
 62
2
  6
CONTINUOUS
 10
12.371573659
 20
2.5302846524
 40
0.061747717
100
AcDbArc
 50
59.5385584989
 51
90.0050977555
  0
LINE
  5
226
100
AcDbEntity
  8
0
100
AcDbLine
 62
2
  6
CONTINUOUS
 10
12.3715681652
 20
2.5920323691
 11
12.2055050731
 21
2.5920323691
  0
ARC
  5
227
100
AcDbEntity
  8
0
100
AcDbCircle
 62
2
  6
CONTINUOUS
 10
12.2055050712
 20
2.5895573696
 40
0.0024749995
100
AcDbArc
 50
89.9999571957
 51
180.0000428043
  0
LINE
  5
228
100
AcDbEntity
  8
0
100
AcDbLine
 62
2
  6
CONTINUOUS
 10
12.2030300717
 20
2.5895573678
 11
12.2030300717
 21
2.5697573568
  0
ARC
  5
229
100
AcDbEntity
  8
0
100
AcDbCircle
 62
2
  6
CONTINUOUS
 10
12.2055050712
 20
2.5697573549
 40
0.0024749995
100
AcDbArc
 50
179.9999571957
 51
270.0000428043
  0
LINE
  5
22A
100
AcDbEntity
  8
0
100
AcDbLine
 62
2
  6
CONTINUOUS
 10
12.2055050731
 20
2.5672823554
 11
12.2294470864
 21
2.5672823554
  0
ARC
  5
22B
100
AcDbEntity
  8
0
100
AcDbCircle
 62
2
  6
CONTINUOUS
 10
12.2294470882
 20
2.5648073559
 40
0.0024749995
100
AcDbArc
 50
359.9999571957
 51
90.0000428043
  0
LINE
  5
22C
100
AcDbEntity
  8
0
100
AcDbLine
 62
2
  6
CONTINUOUS
 10
12.2319220877
 20
2.564807354
 11
12.2319220877
 21
2.5184523283
  0
ARC
  5
22D
100
AcDbEntity
  8
0
100
AcDbCircle
 62
2
  6
CONTINUOUS
 10
12.2294470882
 20
2.5184523265
 40
0.0024749995
100
AcDbArc
 50
269.9999571957
 51
0.0000428043
  0
LINE
  5
22E
100
AcDbEntity
  8
0
100
AcDbLine
 62
2
  6
CONTINUOUS
 10
12.2294470864
 20
2.515977327
 11
12.2055050731
 21
2.515977327
  0
ARC
  5
22F
100
AcDbEntity
  8
0
100
AcDbCircle
 62
2
  6
CONTINUOUS
 10
12.2055050712
 20
2.5135023274
 40
0.0024749995
100
AcDbArc
 50
89.9999571957
 51
180.0000428043
  0
LINE
  5
230
100
AcDbEntity
  8
0
100
AcDbLine
 62
2
  6
CONTINUOUS
 10
12.2030300717
 20
2.5135023256
 11
12.2030300717
 21
2.4937023146
  0
ARC
  5
231
100
AcDbEntity
  8
0
100
AcDbCircle
 62
2
  6
CONTINUOUS
 10
12.2055050712
 20
2.4937023128
 40
0.0024749995
100
AcDbArc
 50
179.9999571957
 51
270.0000428043
  0
LINE
  5
232
100
AcDbEntity
  8
0
100
AcDbLine
 62
2
  6
CONTINUOUS
 10
12.2055050731
 20
2.4912273132
 11
12.3819511709
 21
2.4912273132
  0
ARC
  5
233
100
AcDbEntity
  8
0
100
AcDbCircle
 62
2
  6
CONTINUOUS
 10
12.3792298263
 20
2.539634765
 40
0.048483885
100
AcDbArc
 50
273.21763719
 51
303.0749121182
  0
ARC
  5
234
100
AcDbEntity
  8
0
100
AcDbCircle
 62
2
  6
CONTINUOUS
 10
12.3940692204
 20
2.5168671561
 40
0.0213072145
100
AcDbArc
 50
303.0488228549
 51
355.7263138674
  0
LINE
  5
235
100
AcDbEntity
  8
0
100
AcDbLine
 62
2
  6
CONTINUOUS
 10
12.2949101227
 20
2.5499573458
 11
12.3362731456
 21
2.5499573458
  0
ARC
  5
236
100
AcDbEntity
  8
0
100
AcDbCircle
 62
2
  6
CONTINUOUS
 10
12.3362731456
 20
2.5586198506
 40
0.0086625048
100
AcDbArc
 50
270.0
 51
90.0
  0
LINE
  5
237
100
AcDbEntity
  8
0
100
AcDbLine
 62
2
  6
CONTINUOUS
 10
12.3362731456
 20
2.5672823554
 11
12.2949101227
 21
2.5672823554
  0
ARC
  5
238
100
AcDbEntity
  8
0
100
AcDbCircle
 62
2
  6
CONTINUOUS
 10
12.2949101208
 20
2.5648073559
 40
0.0024749995
100
AcDbArc
 50
89.9999571957
 51
180.0000428043
  0
LINE
  5
239
100
AcDbEntity
  8
0
100
AcDbLine
 62
2
  6
CONTINUOUS
 10
12.2924351213
 20
2.564807354
 11
12.2924351213
 21
2.5524323472
  0
ARC
  5
23A
100
AcDbEntity
  8
0
100
AcDbCircle
 62
2
  6
CONTINUOUS
 10
12.2949101208
 20
2.5524323453
 40
0.0024749995
100
AcDbArc
 50
179.9999571957
 51
270.0000428043
  0
LINE
  5
23B
100
AcDbEntity
  8
0
100
AcDbLine
 62
2
  6
CONTINUOUS
 10
12.2924351213
 20
2.5184523283
 11
12.2924351213
 21
2.5308273352
  0
ARC
  5
23C
100
AcDbEntity
  8
0
100
AcDbCircle
 62
2
  6
CONTINUOUS
 10
12.2949101208
 20
2.530827337
 40
0.0024749995
100
AcDbArc
 50
89.9999571957
 51
180.0000428043
  0
LINE
  5
23D
100
AcDbEntity
  8
0
100
AcDbLine
 62
2
  6
CONTINUOUS
 10
12.2949101227
 20
2.5333023366
 11
12.3362731456
 21
2.5333023366
  0
ARC
  5
23E
100
AcDbEntity
  8
0
100
AcDbCircle
 62
2
  6
CONTINUOUS
 10
12.3362731456
 20
2.5246398318
 40
0.0086625048
100
AcDbArc
 50
270.0
 51
90.0
  0
LINE
  5
23F
100
AcDbEntity
  8
0
100
AcDbLine
 62
2
  6
CONTINUOUS
 10
12.3362731456
 20
2.515977327
 11
12.2949101227
 21
2.515977327
  0
ARC
  5
240
100
AcDbEntity
  8
0
100
AcDbCircle
 62
2
  6
CONTINUOUS
 10
12.2949101208
 20
2.5184523265
 40
0.0024749995
100
AcDbArc
 50
179.9999571957
 51
270.0000428043
  0
ARC
  5
241
100
AcDbEntity
  8
0
100
AcDbCircle
 62
2
  6
CONTINUOUS
 10
13.5806801742
 20
2.5212486481
 40
0.044722495
100
AcDbArc
 50
195.531588407
 51
204.7624440448
  0
LINE
  5
242
100
AcDbEntity
  8
0
100
AcDbLine
 62
2
  6
CONTINUOUS
 10
13.5375908118
 20
2.5092733232
 11
13.5357868108
 21
2.5153423266
  0
ARC
  5
243
100
AcDbEntity
  8
0
100
AcDbCircle
 62
2
  6
CONTINUOUS
 10
13.4974076135
 20
2.5055452462
 40
0.0396099176
100
AcDbArc
 50
14.3201081283
 51
22.4984722084
  0
ARC
  5
244
100
AcDbEntity
  8
0
100
AcDbCircle
 62
2
  6
CONTINUOUS
 10
13.5201739219
 20
2.5145168728
 40
0.0151491919
100
AcDbArc
 50
24.098260853
 51
63.0369451818
  0
ARC
  5
245
100
AcDbEntity
  8
0
100
AcDbCircle
 62
2
  6
CONTINUOUS
 10
13.5161192671
 20
2.5062372524
 40
0.0243676582
100
AcDbArc
 50
63.3666028271
 51
90.3937697637
  0
LINE
  5
246
100
AcDbEntity
  8
0
100
AcDbLine
 62
2
  6
CONTINUOUS
 10
13.5159517998
 20
2.5306043351
 11
13.4883447845
 21
2.5306043351
  0
ARC
  5
247
100
AcDbEntity
  8
0
100
AcDbCircle
 62
2
  6
CONTINUOUS
 10
13.4883447827
 20
2.5281293355
 40
0.0024749995
100
AcDbArc
 50
89.9999571957
 51
180.0000428043
  0
LINE
  5
248
100
AcDbEntity
  8
0
100
AcDbLine
 62
2
  6
CONTINUOUS
 10
13.4858697831
 20
2.5281293337
 11
13.4858697831
 21
2.5184303283
  0
ARC
  5
249
100
AcDbEntity
  8
0
100
AcDbCircle
 62
2
  6
CONTINUOUS
 10
13.4883447827
 20
2.5184303265
 40
0.0024749995
100
AcDbArc
 50
179.9999571957
 51
270.0000428043
  0
LINE
  5
24A
100
AcDbEntity
  8
0
100
AcDbLine
 62
2
  6
CONTINUOUS
 10
13.4883447845
 20
2.5159553269
 11
13.5130037982
 21
2.5159553269
  0
ARC
  5
24B
100
AcDbEntity
  8
0
100
AcDbCircle
 62
2
  6
CONTINUOUS
 10
13.5130038
 20
2.5134803274
 40
0.0024749995
100
AcDbArc
 50
359.9999571957
 51
90.0000428043
  0
LINE
  5
24C
100
AcDbEntity
  8
0
100
AcDbLine
 62
2
  6
CONTINUOUS
 10
13.5154787995
 20
2.5134803256
 11
13.5154787995
 21
2.4937023146
  0
ARC
  5
24D
100
AcDbEntity
  8
0
100
AcDbCircle
 62
2
  6
CONTINUOUS
 10
13.5130038
 20
2.4937023128
 40
0.0024749995
100
AcDbArc
 50
269.9999571957
 51
0.0000428043
  0
LINE
  5
24E
100
AcDbEntity
  8
0
100
AcDbLine
 62
2
  6
CONTINUOUS
 10
13.5130037982
 20
2.4912273132
 11
13.3994327352
 21
2.4912273132
  0
ARC
  5
24F
100
AcDbEntity
  8
0
100
AcDbCircle
 62
2
  6
CONTINUOUS
 10
13.3994327333
 20
2.4937023128
 40
0.0024749995
100
AcDbArc
 50
179.9999571957
 51
270.0000428043
  0
LINE
  5
250
100
AcDbEntity
  8
0
100
AcDbLine
 62
2
  6
CONTINUOUS
 10
13.3969577338
 20
2.4937023146
 11
13.3969577338
 21
2.5135023256
  0
ARC
  5
251
100
AcDbEntity
  8
0
100
AcDbCircle
 62
2
  6
CONTINUOUS
 10
13.3994327333
 20
2.5135023274
 40
0.0024749995
100
AcDbArc
 50
89.9999571957
 51
180.0000428043
  0
LINE
  5
252
100
AcDbEntity
  8
0
100
AcDbLine
 62
2
  6
CONTINUOUS
 10
13.3994327352
 20
2.515977327
 11
13.4221787478
 21
2.515977327
  0
ARC
  5
253
100
AcDbEntity
  8
0
100
AcDbCircle
 62
2
  6
CONTINUOUS
 10
13.4221787497
 20
2.5184523265
 40
0.0024749995
100
AcDbArc
 50
269.9999571957
 51
0.0000428042
  0
LINE
  5
254
100
AcDbEntity
  8
0
100
AcDbLine
 62
2
  6
CONTINUOUS
 10
13.4246537492
 20
2.5184523283
 11
13.4246537492
 21
2.564807354
  0
ARC
  5
255
100
AcDbEntity
  8
0
100
AcDbCircle
 62
2
  6
CONTINUOUS
 10
13.4221787497
 20
2.5648073559
 40
0.0024749995
100
AcDbArc
 50
359.9999571957
 51
90.0000428043
  0
LINE
  5
256
100
AcDbEntity
  8
0
100
AcDbLine
 62
2
  6
CONTINUOUS
 10
13.4221787478
 20
2.5672823554
 11
13.3994327352
 21
2.5672823554
  0
ARC
  5
257
100
AcDbEntity
  8
0
100
AcDbCircle
 62
2
  6
CONTINUOUS
 10
13.3994327333
 20
2.5697573549
 40
0.0024749995
100
AcDbArc
 50
179.9999571957
 51
270.0000428043
  0
LINE
  5
258
100
AcDbEntity
  8
0
100
AcDbLine
 62
2
  6
CONTINUOUS
 10
13.3969577338
 20
2.5697573568
 11
13.3969577338
 21
2.5895573678
  0
ARC
  5
259
100
AcDbEntity
  8
0
100
AcDbCircle
 62
2
  6
CONTINUOUS
 10
13.3994327333
 20
2.5895573696
 40
0.0024749995
100
AcDbArc
 50
89.9999571957
 51
180.0000428043
  0
LINE
  5
25A
100
AcDbEntity
  8
0
100
AcDbLine
 62
2
  6
CONTINUOUS
 10
13.3994327352
 20
2.5920323691
 11
13.5490138181
 21
2.5920323691
  0
ARC
  5
25B
100
AcDbEntity
  8
0
100
AcDbCircle
 62
2
  6
CONTINUOUS
 10
13.5463505148
 20
2.4094934586
 40
0.1825583387
100
AcDbArc
 50
79.8618509324
 51
89.1640948679
  0
ARC
  5
25C
100
AcDbEntity
  8
0
100
AcDbCircle
 62
2
  6
CONTINUOUS
 10
13.5726548052
 20
2.5503169747
 40
0.039319019
100
AcDbArc
 50
59.1202086415
 51
81.4730239328
  0
ARC
  5
25D
100
AcDbEntity
  8
0
100
AcDbCircle
 62
2
  6
CONTINUOUS
 10
13.5783142014
 20
2.5566516438
 40
0.0310192946
100
AcDbArc
 50
34.7540871
 51
62.0879016178
  0
ARC
  5
25E
100
AcDbEntity
  8
0
100
AcDbCircle
 62
2
  6
CONTINUOUS
 10
13.5900029525
 20
2.565201245
 40
0.0165459396
100
AcDbArc
 50
1.548452892
 51
33.5033152417
  0
ARC
  5
25F
100
AcDbEntity
  8
0
100
AcDbCircle
 62
2
  6
CONTINUOUS
 10
13.5932995477
 20
2.5653696972
 40
0.0132462337
100
AcDbArc
 50
331.1510006998
 51
1.205404301
  0
ARC
  5
260
100
AcDbEntity
  8
0
100
AcDbCircle
 62
2
  6
CONTINUOUS
 10
13.5822888914
 20
2.5720482849
 40
0.0261183659
100
AcDbArc
 50
305.6373831893
 51
329.9727629745
  0
ARC
  5
261
100
AcDbEntity
  8
0
100
AcDbCircle
 62
2
  6
CONTINUOUS
 10
13.5519569538
 20
2.6152551345
 40
0.0789082104
100
AcDbArc
 50
292.906155071
 51
305.2574666259
  0
ARC
  5
262
100
AcDbEntity
  8
0
100
AcDbCircle
 62
2
  6
CONTINUOUS
 10
13.5282557878
 20
2.4386010294
 40
0.117346916
100
AcDbArc
 50
58.614769177
 51
62.3737227606
  0
ARC
  5
263
100
AcDbEntity
  8
0
100
AcDbCircle
 62
2
  6
CONTINUOUS
 10
13.5761387404
 20
2.5167282896
 40
0.0257145923
100
AcDbArc
 50
39.3804255939
 51
59.0361096173
  0
ARC
  5
264
100
AcDbEntity
  8
0
100
AcDbCircle
 62
2
  6
CONTINUOUS
 10
13.5750183849
 20
2.5166552064
 40
0.0266349791
100
AcDbArc
 50
20.3630922153
 51
37.9727053099
  0
ARC
  5
265
100
AcDbEntity
  8
0
100
AcDbCircle
 62
2
  6
CONTINUOUS
 10
13.5571178432
 20
2.509473798
 40
0.0459185159
100
AcDbArc
 50
15.6740290068
 51
20.9917271228
  0
ARC
  5
266
100
AcDbEntity
  8
0
100
AcDbCircle
 62
2
  6
CONTINUOUS
 10
13.6156881783
 20
2.525116781
 40
0.0147197649
100
AcDbArc
 50
192.7054516565
 51
206.0594861022
  0
ARC
  5
267
100
AcDbEntity
  8
0
100
AcDbCircle
 62
2
  6
CONTINUOUS
 10
13.6071938412
 20
2.5209082945
 40
0.0052403997
100
AcDbArc
 50
205.5232099488
 51
227.5054868079
  0
ARC
  5
268
100
AcDbEntity
  8
0
100
AcDbCircle
 62
2
  6
CONTINUOUS
 10
13.6054655419
 20
2.5190929218
 40
0.0027347709
100
AcDbArc
 50
228.5117626737
 51
266.1485845754
  0
LINE
  5
269
100
AcDbEntity
  8
0
100
AcDbLine
 62
2
  6
CONTINUOUS
 10
13.6052818493
 20
2.5163643272
 11
13.60639085
 21
2.5163643272
  0
ARC
  5
26A
100
AcDbEntity
  8
0
100
AcDbCircle
 62
2
  6
CONTINUOUS
 10
13.6063292954
 20
2.5296129864
 40
0.0132488022
100
AcDbArc
 50
270.266200055
 51
281.2404888597
  0
ARC
  5
26B
100
AcDbEntity
  8
0
100
AcDbCircle
 62
2
  6
CONTINUOUS
 10
13.6075235364
 20
2.5238762928
 40
0.0073895522
100
AcDbArc
 50
280.8288201977
 51
305.0837508495
  0
ARC
  5
26C
100
AcDbEntity
  8
0
100
AcDbCircle
 62
2
  6
CONTINUOUS
 10
13.607924718
 20
2.5230254464
 40
0.0064647042
100
AcDbArc
 50
306.5086174083
 51
340.2162360092
  0
ARC
  5
26D
100
AcDbEntity
  8
0
100
AcDbCircle
 62
2
  6
CONTINUOUS
 10
13.6027235414
 20
2.524769508
 40
0.0119498009
100
AcDbArc
 50
340.7883861657
 51
1.1691452593
  0
LINE
  5
26E
100
AcDbEntity
  8
0
100
AcDbLine
 62
2
  6
CONTINUOUS
 10
13.6146708546
 20
2.525013332
 11
13.6146708546
 21
2.5276393334
  0
ARC
  5
26F
100
AcDbEntity
  8
0
100
AcDbCircle
 62
2
  6
CONTINUOUS
 10
13.6171458541
 20
2.5276393353
 40
0.0024749995
100
AcDbArc
 50
89.9999571957
 51
180.0000428043
  0
LINE
  5
270
100
AcDbEntity
  8
0
100
AcDbLine
 62
2
  6
CONTINUOUS
 10
13.6171458559
 20
2.5301143348
 11
13.6292558626
 21
2.5301143348
  0
ARC
  5
271
100
AcDbEntity
  8
0
100
AcDbCircle
 62
2
  6
CONTINUOUS
 10
13.6292558645
 20
2.5276393353
 40
0.0024749995
100
AcDbArc
 50
359.9999571957
 51
90.0000428043
  0
LINE
  5
272
100
AcDbEntity
  8
0
100
AcDbLine
 62
2
  6
CONTINUOUS
 10
13.631730864
 20
2.5276393334
 11
13.631730864
 21
2.516087327
  0
ARC
  5
273
100
AcDbEntity
  8
0
100
AcDbCircle
 62
2
  6
CONTINUOUS
 10
13.6141751675
 20
2.5161916447
 40
0.0175560065
100
AcDbArc
 50
332.2279060967
 51
359.6595469939
  0
ARC
  5
274
100
AcDbEntity
  8
0
100
AcDbCircle
 62
2
  6
CONTINUOUS
 10
13.6048681567
 20
2.5210861501
 40
0.0280715479
100
AcDbArc
 50
308.5071794988
 51
332.2400656899
  0
ARC
  5
275
100
AcDbEntity
  8
0
100
AcDbCircle
 62
2
  6
CONTINUOUS
 10
13.5978759713
 20
2.5286873679
 40
0.0383802683
100
AcDbArc
 50
288.7656836787
 51
309.6104317088
  0
ARC
  5
276
100
AcDbEntity
  8
0
100
AcDbCircle
 62
2
  6
CONTINUOUS
 10
13.6036139387
 20
2.5111006186
 40
0.0198837666
100
AcDbArc
 50
271.8586572978
 51
289.4131338543
  0
LINE
  5
277
100
AcDbEntity
  8
0
100
AcDbLine
 62
2
  6
CONTINUOUS
 10
13.6042588488
 20
2.4912273132
 11
13.5568948225
 21
2.4912273132
  0
ARC
  5
278
100
AcDbEntity
  8
0
100
AcDbCircle
 62
2
  6
CONTINUOUS
 10
13.5577001432
 20
2.5085494649
 40
0.0173408616
100
AcDbArc
 50
232.4713476722
 51
267.338189944
  0
ARC
  5
279
100
AcDbEntity
  8
0
100
AcDbCircle
 62
2
  6
CONTINUOUS
 10
13.5607987082
 20
2.5143997688
 40
0.0238935861
100
AcDbArc
 50
209.8247607259
 51
235.1255079367
  0
ARC
  5
27A
100
AcDbEntity
  8
0
100
AcDbCircle
 62
2
  6
CONTINUOUS
 10
13.5295131508
 20
2.5629115009
 40
0.0110815393
100
AcDbArc
 50
306.758405961
 51
320.4502234234
  0
ARC
  5
27B
100
AcDbEntity
  8
0
100
AcDbCircle
 62
2
  6
CONTINUOUS
 10
13.5238839599
 20
2.5706523294
 40
0.0206523367
100
AcDbArc
 50
289.6883413472
 51
306.4184925496
  0
ARC
  5
27C
100
AcDbEntity
  8
0
100
AcDbCircle
 62
2
  6
CONTINUOUS
 10
13.5219564542
 20
2.5750459767
 40
0.0254407115
100
AcDbArc
 50
270.7327484175
 51
290.441894219
  0
LINE
  5
27D
100
AcDbEntity
  8
0
100
AcDbLine
 62
2
  6
CONTINUOUS
 10
13.5222818033
 20
2.5496073456
 11
13.4883447845
 21
2.5496073456
  0
ARC
  5
27E
100
AcDbEntity
  8
0
100
AcDbCircle
 62
2
  6
CONTINUOUS
 10
13.4883447827
 20
2.5520823451
 40
0.0024749995
100
AcDbArc
 50
179.9999571957
 51
270.0000428043
  0
LINE
  5
27F
100
AcDbEntity
  8
0
100
AcDbLine
 62
2
  6
CONTINUOUS
 10
13.4858697831
 20
2.552082347
 11
13.4858697831
 21
2.564807354
  0
ARC
  5
280
100
AcDbEntity
  8
0
100
AcDbCircle
 62
2
  6
CONTINUOUS
 10
13.4883447827
 20
2.5648073559
 40
0.0024749995
100
AcDbArc
 50
89.9999571957
 51
180.0000428043
  0
LINE
  5
281
100
AcDbEntity
  8
0
100
AcDbLine
 62
2
  6
CONTINUOUS
 10
13.4883447845
 20
2.5672823554
 11
13.5251458049
 21
2.5672823554
  0
ARC
  5
282
100
AcDbEntity
  8
0
100
AcDbCircle
 62
2
  6
CONTINUOUS
 10
13.5236009174
 20
2.5388278764
 40
0.0284963867
100
AcDbArc
 50
70.3834917948
 51
86.8922743861
  0
ARC
  5
283
100
AcDbEntity
  8
0
100
AcDbCircle
 62
2
  6
CONTINUOUS
 10
13.5284605274
 20
2.5518696094
 40
0.0145814632
100
AcDbArc
 50
54.6746025112
 51
71.1660573124
  0
ARC
  5
284
100
AcDbEntity
  8
0
100
AcDbCircle
 62
2
  6
CONTINUOUS
 10
13.5335900184
 20
2.5587235346
 40
0.0060275915
100
AcDbArc
 50
20.9055592135
 51
56.7851676243
  0
ARC
  5
285
100
AcDbEntity
  8
0
100
AcDbCircle
 62
2
  6
CONTINUOUS
 10
13.5348905773
 20
2.5593838168
 40
0.0045795888
100
AcDbArc
 50
355.6235353944
 51
18.9942678268
  0
ARC
  5
286
100
AcDbEntity
  8
0
100
AcDbCircle
 62
2
  6
CONTINUOUS
 10
13.533683767
 20
2.559677593
 40
0.0058087709
100
AcDbArc
 50
318.8515287446
 51
353.6422345323
  0
LINE
  5
287
100
AcDbEntity
  8
0
100
AcDbLine
 62
2
  6
CONTINUOUS
 10
12.672340332
 20
2.5920323691
 11
12.7727983877
 21
2.5920323691
  0
ARC
  5
288
100
AcDbEntity
  8
0
100
AcDbCircle
 62
2
  6
CONTINUOUS
 10
12.7727985224
 20
2.5895582013
 40
0.0024741678
100
AcDbArc
 50
46.3477981899
 51
90.0031206038
  0
LINE
  5
289
100
AcDbEntity
  8
0
100
AcDbLine
 62
2
  6
CONTINUOUS
 10
12.7745063886
 20
2.5913483688
 11
12.8345394219
 21
2.534068337
  0
ARC
  5
28A
100
AcDbEntity
  8
0
100
AcDbCircle
 62
2
  6
CONTINUOUS
 10
12.8362481229
 20
2.5358592748
 40
0.0024753014
100
AcDbArc
 50
226.3461263059
 51
0.0014637321
  0
LINE
  5
28B
100
AcDbEntity
  8
0
100
AcDbLine
 62
2
  6
CONTINUOUS
 10
12.8387234242
 20
2.535859338
 11
12.8387234242
 21
2.564807354
  0
ARC
  5
28C
100
AcDbEntity
  8
0
100
AcDbCircle
 62
2
  6
CONTINUOUS
 10
12.8362484247
 20
2.5648073559
 40
0.0024749995
100
AcDbArc
 50
359.9999571957
 51
90.0000428043
  0
LINE
  5
28D
100
AcDbEntity
  8
0
100
AcDbLine
 62
2
  6
CONTINUOUS
 10
12.8362484229
 20
2.5672823554
 11
12.8174724125
 21
2.5672823554
  0
ARC
  5
28E
100
AcDbEntity
  8
0
100
AcDbCircle
 62
2
  6
CONTINUOUS
 10
12.8174724106
 20
2.5697573549
 40
0.0024749995
100
AcDbArc
 50
179.9999571957
 51
270.0000428043
  0
LINE
  5
28F
100
AcDbEntity
  8
0
100
AcDbLine
 62
2
  6
CONTINUOUS
 10
12.8149974111
 20
2.5697573568
 11
12.8149974111
 21
2.5895573678
  0
ARC
  5
290
100
AcDbEntity
  8
0
100
AcDbCircle
 62
2
  6
CONTINUOUS
 10
12.8174724106
 20
2.5895573696
 40
0.0024749995
100
AcDbArc
 50
89.9999571957
 51
180.0000428043
  0
LINE
  5
291
100
AcDbEntity
  8
0
100
AcDbLine
 62
2
  6
CONTINUOUS
 10
12.8174724125
 20
2.5920323691
 11
12.8914734535
 21
2.5920323691
  0
ARC
  5
292
100
AcDbEntity
  8
0
100
AcDbCircle
 62
2
  6
CONTINUOUS
 10
12.8914734553
 20
2.5895573696
 40
0.0024749995
100
AcDbArc
 50
359.9999571957
 51
90.0000428043
  0
LINE
  5
293
100
AcDbEntity
  8
0
100
AcDbLine
 62
2
  6
CONTINUOUS
 10
12.8939484549
 20
2.5895573678
 11
12.8939484549
 21
2.5697573568
  0
ARC
  5
294
100
AcDbEntity
  8
0
100
AcDbCircle
 62
2
  6
CONTINUOUS
 10
12.8914734553
 20
2.5697573549
 40
0.0024749995
100
AcDbArc
 50
269.9999571957
 51
0.0000428043
  0
LINE
  5
295
100
AcDbEntity
  8
0
100
AcDbLine
 62
2
  6
CONTINUOUS
 10
12.8914734535
 20
2.5672823554
 11
12.8735404436
 21
2.5672823554
  0
ARC
  5
296
100
AcDbEntity
  8
0
100
AcDbCircle
 62
2
  6
CONTINUOUS
 10
12.8735404417
 20
2.5648073559
 40
0.0024749995
100
AcDbArc
 50
89.9999571957
 51
180.0000428043
  0
LINE
  5
297
100
AcDbEntity
  8
0
100
AcDbLine
 62
2
  6
CONTINUOUS
 10
12.8710654422
 20
2.564807354
 11
12.8710654422
 21
2.4937023146
  0
ARC
  5
298
100
AcDbEntity
  8
0
100
AcDbCircle
 62
2
  6
CONTINUOUS
 10
12.8685904427
 20
2.4937023128
 40
0.0024749995
100
AcDbArc
 50
269.9999571957
 51
0.0000428043
  0
LINE
  5
299
100
AcDbEntity
  8
0
100
AcDbLine
 62
2
  6
CONTINUOUS
 10
12.8685904408
 20
2.4912273132
 11
12.7943853997
 21
2.4912273132
  0
ARC
  5
29A
100
AcDbEntity
  8
0
100
AcDbCircle
 62
2
  6
CONTINUOUS
 10
12.7943847649
 20
2.4937027294
 40
0.0024754162
100
AcDbArc
 50
226.3593695813
 51
270.0146919953
  0
LINE
  5
29B
100
AcDbEntity
  8
0
100
AcDbLine
 62
2
  6
CONTINUOUS
 10
12.7926763987
 20
2.4919113136
 11
12.7293963636
 21
2.5522893471
  0
ARC
  5
29C
100
AcDbEntity
  8
0
100
AcDbCircle
 62
2
  6
CONTINUOUS
 10
12.7276876627
 20
2.5504984093
 40
0.0024753014
100
AcDbArc
 50
46.3461263059
 51
180.0014637321
  0
LINE
  5
29D
100
AcDbEntity
  8
0
100
AcDbLine
 62
2
  6
CONTINUOUS
 10
12.7252123613
 20
2.5504983461
 11
12.7252123613
 21
2.5184523283
  0
ARC
  5
29E
100
AcDbEntity
  8
0
100
AcDbCircle
 62
2
  6
CONTINUOUS
 10
12.7276873608
 20
2.5184523265
 40
0.0024749995
100
AcDbArc
 50
179.9999571957
 51
270.0000428043
  0
LINE
  5
29F
100
AcDbEntity
  8
0
100
AcDbLine
 62
2
  6
CONTINUOUS
 10
12.7276873627
 20
2.515977327
 11
12.7480043739
 21
2.515977327
  0
ARC
  5
2A0
100
AcDbEntity
  8
0
100
AcDbCircle
 62
2
  6
CONTINUOUS
 10
12.7480043758
 20
2.5135023274
 40
0.0024749995
100
AcDbArc
 50
359.9999571957
 51
90.0000428043
  0
LINE
  5
2A1
100
AcDbEntity
  8
0
100
AcDbLine
 62
2
  6
CONTINUOUS
 10
12.7504793753
 20
2.5135023256
 11
12.7504793753
 21
2.4937023146
  0
ARC
  5
2A2
100
AcDbEntity
  8
0
100
AcDbCircle
 62
2
  6
CONTINUOUS
 10
12.7480043758
 20
2.4937023128
 40
0.0024749995
100
AcDbArc
 50
269.9999571957
 51
0.0000428043
  0
LINE
  5
2A3
100
AcDbEntity
  8
0
100
AcDbLine
 62
2
  6
CONTINUOUS
 10
12.7480043739
 20
2.4912273132
 11
12.672340332
 21
2.4912273132
  0
ARC
  5
2A4
100
AcDbEntity
  8
0
100
AcDbCircle
 62
2
  6
CONTINUOUS
 10
12.6723403301
 20
2.4937023128
 40
0.0024749995
100
AcDbArc
 50
179.9999571957
 51
270.0000428043
  0
LINE
  5
2A5
100
AcDbEntity
  8
0
100
AcDbLine
 62
2
  6
CONTINUOUS
 10
12.6698653306
 20
2.4937023146
 11
12.6698653306
 21
2.5135023256
  0
ARC
  5
2A6
100
AcDbEntity
  8
0
100
AcDbCircle
 62
2
  6
CONTINUOUS
 10
12.6723403301
 20
2.5135023274
 40
0.0024749995
100
AcDbArc
 50
89.9999571957
 51
180.0000428043
  0
LINE
  5
2A7
100
AcDbEntity
  8
0
100
AcDbLine
 62
2
  6
CONTINUOUS
 10
12.672340332
 20
2.515977327
 11
12.6909873423
 21
2.515977327
  0
ARC
  5
2A8
100
AcDbEntity
  8
0
100
AcDbCircle
 62
2
  6
CONTINUOUS
 10
12.6909873442
 20
2.5184523265
 40
0.0024749995
100
AcDbArc
 50
269.9999571957
 51
0.0000428043
  0
LINE
  5
2A9
100
AcDbEntity
  8
0
100
AcDbLine
 62
2
  6
CONTINUOUS
 10
12.6934623437
 20
2.5184523283
 11
12.6934623437
 21
2.564807354
  0
ARC
  5
2AA
100
AcDbEntity
  8
0
100
AcDbCircle
 62
2
  6
CONTINUOUS
 10
12.6909873442
 20
2.5648073559
 40
0.0024749995
100
AcDbArc
 50
359.9999571957
 51
90.0000428043
  0
LINE
  5
2AB
100
AcDbEntity
  8
0
100
AcDbLine
 62
2
  6
CONTINUOUS
 10
12.6909873423
 20
2.5672823554
 11
12.672340332
 21
2.5672823554
  0
ARC
  5
2AC
100
AcDbEntity
  8
0
100
AcDbCircle
 62
2
  6
CONTINUOUS
 10
12.6723403301
 20
2.5697573549
 40
0.0024749995
100
AcDbArc
 50
179.9999571957
 51
270.0000428043
  0
LINE
  5
2AD
100
AcDbEntity
  8
0
100
AcDbLine
 62
2
  6
CONTINUOUS
 10
12.6698653306
 20
2.5697573568
 11
12.6698653306
 21
2.5895573678
  0
ARC
  5
2AE
100
AcDbEntity
  8
0
100
AcDbCircle
 62
2
  6
CONTINUOUS
 10
12.6723403301
 20
2.5895573696
 40
0.0024749995
100
AcDbArc
 50
89.9999571957
 51
180.0000428043
  0
LINE
  5
2AF
100
AcDbEntity
  8
0
100
AcDbLine
 62
2
  6
CONTINUOUS
 10
12.5246402501
 20
2.5655893545
 11
12.5175232461
 21
2.5543723483
  0
ARC
  5
2B0
100
AcDbEntity
  8
0
100
AcDbCircle
 62
2
  6
CONTINUOUS
 10
12.519613138
 20
2.5530463862
 40
0.0024750401
100
AcDbArc
 50
147.6063258012
 51
270.0025305754
  0
LINE
  5
2B1
100
AcDbEntity
  8
0
100
AcDbLine
 62
2
  6
CONTINUOUS
 10
12.5196132473
 20
2.5505713461
 11
12.5401702587
 21
2.5505713461
  0
ARC
  5
2B2
100
AcDbEntity
  8
0
100
AcDbCircle
 62
2
  6
CONTINUOUS
 10
12.5401702375
 20
2.5530465533
 40
0.0024752071
100
AcDbArc
 50
270.0004896793
 51
32.9089806818
  0
LINE
  5
2B3
100
AcDbEntity
  8
0
100
AcDbLine
 62
2
  6
CONTINUOUS
 10
12.5422482598
 20
2.5543913483
 11
12.5349892558
 21
2.5656073545
  0
ARC
  5
2B4
100
AcDbEntity
  8
0
100
AcDbCircle
 62
2
  6
CONTINUOUS
 10
12.532910715
 20
2.564262895
 40
0.0024754602
100
AcDbArc
 50
32.8959418573
 51
89.9875097202
  0
LINE
  5
2B5
100
AcDbEntity
  8
0
100
AcDbLine
 62
2
  6
CONTINUOUS
 10
12.5329112547
 20
2.5667383551
 11
12.5267302512
 21
2.5667383551
  0
ARC
  5
2B6
100
AcDbEntity
  8
0
100
AcDbCircle
 62
2
  6
CONTINUOUS
 10
12.5267301809
 20
2.5642631548
 40
0.0024752003
100
AcDbArc
 50
89.998372645
 51
147.602165307
  0
LINE
  5
2B7
100
AcDbEntity
  8
0
100
AcDbLine
 62
2
  6
CONTINUOUS
 10
12.548053263
 20
2.5284903339
 11
12.5536792662
 21
2.5197973291
  0
ARC
  5
2B8
100
AcDbEntity
  8
0
100
AcDbCircle
 62
2
  6
CONTINUOUS
 10
12.5516012439
 20
2.5184525341
 40
0.0024752071
100
AcDbArc
 50
270.0004896794
 51
32.9089806818
  0
LINE
  5
2B9
100
AcDbEntity
  8
0
100
AcDbLine
 62
2
  6
CONTINUOUS
 10
12.551601265
 20
2.515977327
 11
12.537150257
 21
2.515977327
  0
ARC
  5
2BA
100
AcDbEntity
  8
0
100
AcDbCircle
 62
2
  6
CONTINUOUS
 10
12.5371502552
 20
2.5135023274
 40
0.0024749995
100
AcDbArc
 50
89.9999571957
 51
180.0000428043
  0
LINE
  5
2BB
100
AcDbEntity
  8
0
100
AcDbLine
 62
2
  6
CONTINUOUS
 10
12.5346752556
 20
2.5135023256
 11
12.5346752556
 21
2.4937023146
  0
ARC
  5
2BC
100
AcDbEntity
  8
0
100
AcDbCircle
 62
2
  6
CONTINUOUS
 10
12.5371502552
 20
2.4937023128
 40
0.0024749995
100
AcDbArc
 50
179.9999571957
 51
270.0000428043
  0
LINE
  5
2BD
100
AcDbEntity
  8
0
100
AcDbLine
 62
2
  6
CONTINUOUS
 10
12.537150257
 20
2.4912273132
 11
12.6424313154
 21
2.4912273132
  0
ARC
  5
2BE
100
AcDbEntity
  8
0
100
AcDbCircle
 62
2
  6
CONTINUOUS
 10
12.6424313172
 20
2.4937023128
 40
0.0024749995
100
AcDbArc
 50
269.9999571957
 51
0.0000428043
  0
LINE
  5
2BF
100
AcDbEntity
  8
0
100
AcDbLine
 62
2
  6
CONTINUOUS
 10
12.6449063168
 20
2.4937023146
 11
12.6449063168
 21
2.5135023256
  0
ARC
  5
2C0
100
AcDbEntity
  8
0
100
AcDbCircle
 62
2
  6
CONTINUOUS
 10
12.6424313172
 20
2.5135023274
 40
0.0024749995
100
AcDbArc
 50
359.9999571957
 51
90.0000428043
  0
LINE
  5
2C1
100
AcDbEntity
  8
0
100
AcDbLine
 62
2
  6
CONTINUOUS
 10
12.6424313154
 20
2.515977327
 11
12.6224153043
 21
2.515977327
  0
ARC
  5
2C2
100
AcDbEntity
  8
0
100
AcDbCircle
 62
2
  6
CONTINUOUS
 10
12.6224154248
 20
2.518451368
 40
0.002474041
100
AcDbArc
 50
212.9056413127
 51
269.9972091756
  0
LINE
  5
2C3
100
AcDbEntity
  8
0
100
AcDbLine
 62
2
  6
CONTINUOUS
 10
12.6203383031
 20
2.5171073276
 11
12.5725822767
 21
2.5909023685
  0
ARC
  5
2C4
100
AcDbEntity
  8
0
100
AcDbCircle
 62
2
  6
CONTINUOUS
 10
12.570504655
 20
2.589557409
 40
0.0024749602
100
AcDbArc
 50
32.9172174468
 51
90.0087853097
  0
LINE
  5
2C5
100
AcDbEntity
  8
0
100
AcDbLine
 62
2
  6
CONTINUOUS
 10
12.5705042755
 20
2.5920323691
 11
12.5133292438
 21
2.5920323691
  0
ARC
  5
2C6
100
AcDbEntity
  8
0
100
AcDbCircle
 62
2
  6
CONTINUOUS
 10
12.5133291735
 20
2.5895571688
 40
0.0024752003
100
AcDbArc
 50
89.9983726451
 51
147.602165307
  0
LINE
  5
2C7
100
AcDbEntity
  8
0
100
AcDbLine
 62
2
  6
CONTINUOUS
 10
12.5112392426
 20
2.5908833685
 11
12.4644392167
 21
2.5171263276
  0
ARC
  5
2C8
100
AcDbEntity
  8
0
100
AcDbCircle
 62
2
  6
CONTINUOUS
 10
12.4623492858
 20
2.5184525273
 40
0.0024752003
100
AcDbArc
 50
269.9983726451
 51
327.602165307
  0
LINE
  5
2C9
100
AcDbEntity
  8
0
100
AcDbLine
 62
2
  6
CONTINUOUS
 10
12.4623492155
 20
2.515977327
 11
12.4394882028
 21
2.515977327
  0
ARC
  5
2CA
100
AcDbEntity
  8
0
100
AcDbCircle
 62
2
  6
CONTINUOUS
 10
12.439488201
 20
2.5135023274
 40
0.0024749995
100
AcDbArc
 50
89.9999571957
 51
180.0000428043
  0
LINE
  5
2CB
100
AcDbEntity
  8
0
100
AcDbLine
 62
2
  6
CONTINUOUS
 10
12.4370132015
 20
2.5135023256
 11
12.4370132015
 21
2.4937023146
  0
ARC
  5
2CC
100
AcDbEntity
  8
0
100
AcDbCircle
 62
2
  6
CONTINUOUS
 10
12.439488201
 20
2.4937023128
 40
0.0024749995
100
AcDbArc
 50
179.9999571957
 51
270.0000428043
  0
LINE
  5
2CD
100
AcDbEntity
  8
0
100
AcDbLine
 62
2
  6
CONTINUOUS
 10
12.4394882028
 20
2.4912273132
 11
12.5168642458
 21
2.4912273132
  0
ARC
  5
2CE
100
AcDbEntity
  8
0
100
AcDbCircle
 62
2
  6
CONTINUOUS
 10
12.5168642476
 20
2.4937023128
 40
0.0024749995
100
AcDbArc
 50
269.9999571957
 51
0.0000428043
  0
LINE
  5
2CF
100
AcDbEntity
  8
0
100
AcDbLine
 62
2
  6
CONTINUOUS
 10
12.5193392471
 20
2.4937023146
 11
12.5193392471
 21
2.5135023256
  0
ARC
  5
2D0
100
AcDbEntity
  8
0
100
AcDbCircle
 62
2
  6
CONTINUOUS
 10
12.5168642476
 20
2.5135023274
 40
0.0024749995
100
AcDbArc
 50
359.9999571957
 51
90.0000428043
  0
LINE
  5
2D1
100
AcDbEntity
  8
0
100
AcDbLine
 62
2
  6
CONTINUOUS
 10
12.5168642458
 20
2.515977327
 11
12.5055812395
 21
2.515977327
  0
ARC
  5
2D2
100
AcDbEntity
  8
0
100
AcDbCircle
 62
2
  6
CONTINUOUS
 10
12.5055811302
 20
2.518452367
 40
0.0024750401
100
AcDbArc
 50
147.6063258011
 51
270.0025305754
  0
LINE
  5
2D3
100
AcDbEntity
  8
0
100
AcDbLine
 62
2
  6
CONTINUOUS
 10
12.5034912383
 20
2.5197783291
 11
12.5090072414
 21
2.5284723339
  0
ARC
  5
2D4
100
AcDbEntity
  8
0
100
AcDbCircle
 62
2
  6
CONTINUOUS
 10
12.5110971723
 20
2.5271461342
 40
0.0024752003
100
AcDbArc
 50
89.998372645
 51
147.602165307
  0
LINE
  5
2D5
100
AcDbEntity
  8
0
100
AcDbLine
 62
2
  6
CONTINUOUS
 10
12.5110972426
 20
2.5296213345
 11
12.5459752619
 21
2.5296213345
  0
ARC
  5
2D6
100
AcDbEntity
  8
0
100
AcDbCircle
 62
2
  6
CONTINUOUS
 10
12.5459747223
 20
2.5271458744
 40
0.0024754602
100
AcDbArc
 50
32.8959418573
 51
89.9875097202
  0
LINE
  5
2D7
100
AcDbEntity
  8
0
100
AcDbLine
 62
2
  6
CONTINUOUS
 10
12.9205934696
 20
2.5920323691
 11
13.0210515254
 21
2.5920323691
  0
ARC
  5
2D8
100
AcDbEntity
  8
0
100
AcDbCircle
 62
2
  6
CONTINUOUS
 10
13.0210516601
 20
2.5895582013
 40
0.0024741678
100
AcDbArc
 50
46.3477981899
 51
90.0031206038
  0
LINE
  5
2D9
100
AcDbEntity
  8
0
100
AcDbLine
 62
2
  6
CONTINUOUS
 10
13.0227595263
 20
2.5913483688
 11
13.0827925596
 21
2.534068337
  0
ARC
  5
2DA
100
AcDbEntity
  8
0
100
AcDbCircle
 62
2
  6
CONTINUOUS
 10
13.0845012605
 20
2.5358592748
 40
0.0024753014
100
AcDbArc
 50
226.3461263059
 51
0.0014637321
  0
LINE
  5
2DB
100
AcDbEntity
  8
0
100
AcDbLine
 62
2
  6
CONTINUOUS
 10
13.0869765619
 20
2.535859338
 11
13.0869765619
 21
2.564807354
  0
ARC
  5
2DC
100
AcDbEntity
  8
0
100
AcDbCircle
 62
2
  6
CONTINUOUS
 10
13.0845015624
 20
2.5648073559
 40
0.0024749995
100
AcDbArc
 50
359.9999571957
 51
90.0000428043
  0
LINE
  5
2DD
100
AcDbEntity
  8
0
100
AcDbLine
 62
2
  6
CONTINUOUS
 10
13.0845015605
 20
2.5672823554
 11
13.0657255501
 21
2.5672823554
  0
ARC
  5
2DE
100
AcDbEntity
  8
0
100
AcDbCircle
 62
2
  6
CONTINUOUS
 10
13.0657255483
 20
2.5697573549
 40
0.0024749995
100
AcDbArc
 50
179.9999571957
 51
270.0000428043
  0
LINE
  5
2DF
100
AcDbEntity
  8
0
100
AcDbLine
 62
2
  6
CONTINUOUS
 10
13.0632505488
 20
2.5697573568
 11
13.0632505488
 21
2.5895573678
  0
ARC
  5
2E0
100
AcDbEntity
  8
0
100
AcDbCircle
 62
2
  6
CONTINUOUS
 10
13.0657255483
 20
2.5895573696
 40
0.0024749995
100
AcDbArc
 50
89.9999571957
 51
180.0000428043
  0
LINE
  5
2E1
100
AcDbEntity
  8
0
100
AcDbLine
 62
2
  6
CONTINUOUS
 10
13.0657255501
 20
2.5920323691
 11
13.1397265912
 21
2.5920323691
  0
ARC
  5
2E2
100
AcDbEntity
  8
0
100
AcDbCircle
 62
2
  6
CONTINUOUS
 10
13.139726593
 20
2.5895573696
 40
0.0024749995
100
AcDbArc
 50
359.9999571957
 51
90.0000428043
  0
LINE
  5
2E3
100
AcDbEntity
  8
0
100
AcDbLine
 62
2
  6
CONTINUOUS
 10
13.1422015925
 20
2.5895573678
 11
13.1422015925
 21
2.5697573568
  0
ARC
  5
2E4
100
AcDbEntity
  8
0
100
AcDbCircle
 62
2
  6
CONTINUOUS
 10
13.139726593
 20
2.5697573549
 40
0.0024749995
100
AcDbArc
 50
269.9999571957
 51
0.0000428042
  0
LINE
  5
2E5
100
AcDbEntity
  8
0
100
AcDbLine
 62
2
  6
CONTINUOUS
 10
13.1397265912
 20
2.5672823554
 11
13.1217935812
 21
2.5672823554
  0
ARC
  5
2E6
100
AcDbEntity
  8
0
100
AcDbCircle
 62
2
  6
CONTINUOUS
 10
13.1217935794
 20
2.5648073559
 40
0.0024749995
100
AcDbArc
 50
89.9999571957
 51
180.0000428042
  0
LINE
  5
2E7
100
AcDbEntity
  8
0
100
AcDbLine
 62
2
  6
CONTINUOUS
 10
13.1193185799
 20
2.564807354
 11
13.1193185799
 21
2.4937023146
  0
ARC
  5
2E8
100
AcDbEntity
  8
0
100
AcDbCircle
 62
2
  6
CONTINUOUS
 10
13.1168435803
 20
2.4937023128
 40
0.0024749995
100
AcDbArc
 50
269.9999571957
 51
0.0000428043
  0
LINE
  5
2E9
100
AcDbEntity
  8
0
100
AcDbLine
 62
2
  6
CONTINUOUS
 10
13.1168435785
 20
2.4912273132
 11
13.0426375373
 21
2.4912273132
  0
ARC
  5
2EA
100
AcDbEntity
  8
0
100
AcDbCircle
 62
2
  6
CONTINUOUS
 10
13.0426374026
 20
2.493701481
 40
0.0024741678
100
AcDbArc
 50
226.3477981898
 51
270.0031206038
  0
LINE
  5
2EB
100
AcDbEntity
  8
0
100
AcDbLine
 62
2
  6
CONTINUOUS
 10
13.0409295364
 20
2.4919113136
 11
12.9776495013
 21
2.5522893471
  0
ARC
  5
2EC
100
AcDbEntity
  8
0
100
AcDbCircle
 62
2
  6
CONTINUOUS
 10
12.9759408003
 20
2.5504984093
 40
0.0024753014
100
AcDbArc
 50
46.3461263059
 51
180.0014637321
  0
LINE
  5
2ED
100
AcDbEntity
  8
0
100
AcDbLine
 62
2
  6
CONTINUOUS
 10
12.973465499
 20
2.5504983461
 11
12.973465499
 21
2.5184523283
  0
ARC
  5
2EE
100
AcDbEntity
  8
0
100
AcDbCircle
 62
2
  6
CONTINUOUS
 10
12.9759404985
 20
2.5184523265
 40
0.0024749995
100
AcDbArc
 50
179.9999571957
 51
270.0000428043
  0
LINE
  5
2EF
100
AcDbEntity
  8
0
100
AcDbLine
 62
2
  6
CONTINUOUS
 10
12.9759405003
 20
2.515977327
 11
12.9962575116
 21
2.515977327
  0
ARC
  5
2F0
100
AcDbEntity
  8
0
100
AcDbCircle
 62
2
  6
CONTINUOUS
 10
12.9962575135
 20
2.5135023274
 40
0.0024749995
100
AcDbArc
 50
359.9999571957
 51
90.0000428043
  0
LINE
  5
2F1
100
AcDbEntity
  8
0
100
AcDbLine
 62
2
  6
CONTINUOUS
 10
12.998732513
 20
2.5135023256
 11
12.998732513
 21
2.4937023146
  0
ARC
  5
2F2
100
AcDbEntity
  8
0
100
AcDbCircle
 62
2
  6
CONTINUOUS
 10
12.9962575135
 20
2.4937023128
 40
0.0024749995
100
AcDbArc
 50
269.9999571957
 51
0.0000428043
  0
LINE
  5
2F3
100
AcDbEntity
  8
0
100
AcDbLine
 62
2
  6
CONTINUOUS
 10
12.9962575116
 20
2.4912273132
 11
12.9205934696
 21
2.4912273132
  0
ARC
  5
2F4
100
AcDbEntity
  8
0
100
AcDbCircle
 62
2
  6
CONTINUOUS
 10
12.9205934678
 20
2.4937023128
 40
0.0024749995
100
AcDbArc
 50
179.9999571957
 51
270.0000428043
  0
LINE
  5
2F5
100
AcDbEntity
  8
0
100
AcDbLine
 62
2
  6
CONTINUOUS
 10
12.9181184683
 20
2.4937023146
 11
12.9181184683
 21
2.5135023256
  0
ARC
  5
2F6
100
AcDbEntity
  8
0
100
AcDbCircle
 62
2
  6
CONTINUOUS
 10
12.9205934678
 20
2.5135023274
 40
0.0024749995
100
AcDbArc
 50
89.9999571957
 51
180.0000428042
  0
LINE
  5
2F7
100
AcDbEntity
  8
0
100
AcDbLine
 62
2
  6
CONTINUOUS
 10
12.9205934696
 20
2.515977327
 11
12.93923948
 21
2.515977327
  0
ARC
  5
2F8
100
AcDbEntity
  8
0
100
AcDbCircle
 62
2
  6
CONTINUOUS
 10
12.9392394818
 20
2.5184523265
 40
0.0024749995
100
AcDbArc
 50
269.9999571957
 51
0.0000428043
  0
LINE
  5
2F9
100
AcDbEntity
  8
0
100
AcDbLine
 62
2
  6
CONTINUOUS
 10
12.9417144814
 20
2.5184523283
 11
12.9417144814
 21
2.564807354
  0
ARC
  5
2FA
100
AcDbEntity
  8
0
100
AcDbCircle
 62
2
  6
CONTINUOUS
 10
12.9392394818
 20
2.5648073559
 40
0.0024749995
100
AcDbArc
 50
359.9999571957
 51
90.0000428043
  0
LINE
  5
2FB
100
AcDbEntity
  8
0
100
AcDbLine
 62
2
  6
CONTINUOUS
 10
12.93923948
 20
2.5672823554
 11
12.9205934696
 21
2.5672823554
  0
ARC
  5
2FC
100
AcDbEntity
  8
0
100
AcDbCircle
 62
2
  6
CONTINUOUS
 10
12.9205934678
 20
2.5697573549
 40
0.0024749995
100
AcDbArc
 50
179.9999571957
 51
270.0000428043
  0
LINE
  5
2FD
100
AcDbEntity
  8
0
100
AcDbLine
 62
2
  6
CONTINUOUS
 10
12.9181184683
 20
2.5697573568
 11
12.9181184683
 21
2.5895573678
  0
ARC
  5
2FE
100
AcDbEntity
  8
0
100
AcDbCircle
 62
2
  6
CONTINUOUS
 10
12.9205934678
 20
2.5895573696
 40
0.0024749995
100
AcDbArc
 50
89.9999571957
 51
180.0000428042
  0
LINE
  5
2FF
100
AcDbEntity
  8
0
100
AcDbLine
 62
2
  6
CONTINUOUS
 10
13.2934226764
 20
2.5324773361
 11
13.2582556569
 21
2.5324773361
  0
ARC
  5
300
100
AcDbEntity
  8
0
100
AcDbCircle
 62
2
  6
CONTINUOUS
 10
13.2582556551
 20
2.5300023366
 40
0.0024749995
100
AcDbArc
 50
89.9999571957
 51
180.0000428043
  0
LINE
  5
301
100
AcDbEntity
  8
0
100
AcDbLine
 62
2
  6
CONTINUOUS
 10
13.2557806555
 20
2.5300023347
 11
13.2557806555
 21
2.5184523283
  0
ARC
  5
302
100
AcDbEntity
  8
0
100
AcDbCircle
 62
2
  6
CONTINUOUS
 10
13.2582556551
 20
2.5184523265
 40
0.0024749995
100
AcDbArc
 50
179.9999571957
 51
270.0000428043
  0
LINE
  5
303
100
AcDbEntity
  8
0
100
AcDbLine
 62
2
  6
CONTINUOUS
 10
13.2582556569
 20
2.515977327
 11
13.3232596929
 21
2.515977327
  0
ARC
  5
304
100
AcDbEntity
  8
0
100
AcDbCircle
 62
2
  6
CONTINUOUS
 10
13.3232596948
 20
2.5184523265
 40
0.0024749995
100
AcDbArc
 50
269.9999571957
 51
0.0000428043
  0
LINE
  5
305
100
AcDbEntity
  8
0
100
AcDbLine
 62
2
  6
CONTINUOUS
 10
13.3257346943
 20
2.5184523283
 11
13.3257346943
 21
2.5267023329
  0
ARC
  5
306
100
AcDbEntity
  8
0
100
AcDbCircle
 62
2
  6
CONTINUOUS
 10
13.3282096938
 20
2.5267023348
 40
0.0024749995
100
AcDbArc
 50
89.9999571957
 51
180.0000428043
  0
LINE
  5
307
100
AcDbEntity
  8
0
100
AcDbLine
 62
2
  6
CONTINUOUS
 10
13.3282096957
 20
2.5291773343
 11
13.3705287192
 21
2.5291773343
  0
ARC
  5
308
100
AcDbEntity
  8
0
100
AcDbCircle
 62
2
  6
CONTINUOUS
 10
13.370528721
 20
2.5267023348
 40
0.0024749995
100
AcDbArc
 50
359.9999571957
 51
90.0000428043
  0
LINE
  5
309
100
AcDbEntity
  8
0
100
AcDbLine
 62
2
  6
CONTINUOUS
 10
13.3730037205
 20
2.5267023329
 11
13.3730037205
 21
2.4937023146
  0
ARC
  5
30A
100
AcDbEntity
  8
0
100
AcDbCircle
 62
2
  6
CONTINUOUS
 10
13.370528721
 20
2.4937023128
 40
0.0024749995
100
AcDbArc
 50
269.9999571957
 51
0.0000428043
  0
LINE
  5
30B
100
AcDbEntity
  8
0
100
AcDbLine
 62
2
  6
CONTINUOUS
 10
13.3705287192
 20
2.4912273132
 11
13.1673166065
 21
2.4912273132
  0
ARC
  5
30C
100
AcDbEntity
  8
0
100
AcDbCircle
 62
2
  6
CONTINUOUS
 10
13.1673166046
 20
2.4937023128
 40
0.0024749995
100
AcDbArc
 50
179.9999571957
 51
270.0000428043
  0
LINE
  5
30D
100
AcDbEntity
  8
0
100
AcDbLine
 62
2
  6
CONTINUOUS
 10
13.1648416051
 20
2.4937023146
 11
13.1648416051
 21
2.5135023256
  0
ARC
  5
30E
100
AcDbEntity
  8
0
100
AcDbCircle
 62
2
  6
CONTINUOUS
 10
13.1673166046
 20
2.5135023274
 40
0.0024749995
100
AcDbArc
 50
89.9999571957
 51
180.0000428043
  0
LINE
  5
30F
100
AcDbEntity
  8
0
100
AcDbLine
 62
2
  6
CONTINUOUS
 10
13.1673166065
 20
2.515977327
 11
13.1912396197
 21
2.515977327
  0
ARC
  5
310
100
AcDbEntity
  8
0
100
AcDbCircle
 62
2
  6
CONTINUOUS
 10
13.1912396216
 20
2.5184523265
 40
0.0024749995
100
AcDbArc
 50
269.9999571957
 51
0.0000428042
  0
LINE
  5
311
100
AcDbEntity
  8
0
100
AcDbLine
 62
2
  6
CONTINUOUS
 10
13.1937146211
 20
2.5184523283
 11
13.1937146211
 21
2.564807354
  0
ARC
  5
312
100
AcDbEntity
  8
0
100
AcDbCircle
 62
2
  6
CONTINUOUS
 10
13.1912396216
 20
2.5648073559
 40
0.0024749995
100
AcDbArc
 50
359.9999571957
 51
90.0000428043
  0
LINE
  5
313
100
AcDbEntity
  8
0
100
AcDbLine
 62
2
  6
CONTINUOUS
 10
13.1912396197
 20
2.5672823554
 11
13.1673166065
 21
2.5672823554
  0
ARC
  5
314
100
AcDbEntity
  8
0
100
AcDbCircle
 62
2
  6
CONTINUOUS
 10
13.1673166046
 20
2.5697573549
 40
0.0024749995
100
AcDbArc
 50
179.9999571957
 51
270.0000428043
  0
LINE
  5
315
100
AcDbEntity
  8
0
100
AcDbLine
 62
2
  6
CONTINUOUS
 10
13.1648416051
 20
2.5697573568
 11
13.1648416051
 21
2.5895573678
  0
ARC
  5
316
100
AcDbEntity
  8
0
100
AcDbCircle
 62
2
  6
CONTINUOUS
 10
13.1673166046
 20
2.5895573696
 40
0.0024749995
100
AcDbArc
 50
89.9999571957
 51
180.0000428043
  0
LINE
  5
317
100
AcDbEntity
  8
0
100
AcDbLine
 62
2
  6
CONTINUOUS
 10
13.1673166065
 20
2.5920323691
 11
13.3691097184
 21
2.5920323691
  0
ARC
  5
318
100
AcDbEntity
  8
0
100
AcDbCircle
 62
2
  6
CONTINUOUS
 10
13.3691097202
 20
2.5895573696
 40
0.0024749995
100
AcDbArc
 50
359.9999571957
 51
90.0000428043
  0
LINE
  5
319
100
AcDbEntity
  8
0
100
AcDbLine
 62
2
  6
CONTINUOUS
 10
13.3715847197
 20
2.5895573678
 11
13.3715847197
 21
2.5565573495
  0
ARC
  5
31A
100
AcDbEntity
  8
0
100
AcDbCircle
 62
2
  6
CONTINUOUS
 10
13.3691097202
 20
2.5565573476
 40
0.0024749995
100
AcDbArc
 50
269.9999571957
 51
0.0000428042
  0
LINE
  5
31B
100
AcDbEntity
  8
0
100
AcDbLine
 62
2
  6
CONTINUOUS
 10
13.3691097184
 20
2.5540823481
 11
13.3272456952
 21
2.5540823481
  0
ARC
  5
31C
100
AcDbEntity
  8
0
100
AcDbCircle
 62
2
  6
CONTINUOUS
 10
13.3272456933
 20
2.5565573476
 40
0.0024749995
100
AcDbArc
 50
179.9999571957
 51
270.0000428043
  0
LINE
  5
31D
100
AcDbEntity
  8
0
100
AcDbLine
 62
2
  6
CONTINUOUS
 10
13.3247706938
 20
2.5565573495
 11
13.3247706938
 21
2.564807354
  0
ARC
  5
31E
100
AcDbEntity
  8
0
100
AcDbCircle
 62
2
  6
CONTINUOUS
 10
13.3222956943
 20
2.5648073559
 40
0.0024749995
100
AcDbArc
 50
359.9999571957
 51
90.0000428043
  0
LINE
  5
31F
100
AcDbEntity
  8
0
100
AcDbLine
 62
2
  6
CONTINUOUS
 10
13.3222956924
 20
2.5672823554
 11
13.2582556569
 21
2.5672823554
  0
ARC
  5
320
100
AcDbEntity
  8
0
100
AcDbCircle
 62
2
  6
CONTINUOUS
 10
13.2582556551
 20
2.5648073559
 40
0.0024749995
100
AcDbArc
 50
89.9999571957
 51
180.0000428043
  0
LINE
  5
321
100
AcDbEntity
  8
0
100
AcDbLine
 62
2
  6
CONTINUOUS
 10
13.2557806555
 20
2.564807354
 11
13.2557806555
 21
2.5532573476
  0
ARC
  5
322
100
AcDbEntity
  8
0
100
AcDbCircle
 62
2
  6
CONTINUOUS
 10
13.2582556551
 20
2.5532573458
 40
0.0024749995
100
AcDbArc
 50
179.9999571957
 51
270.0000428043
  0
LINE
  5
323
100
AcDbEntity
  8
0
100
AcDbLine
 62
2
  6
CONTINUOUS
 10
13.2582556569
 20
2.5507823463
 11
13.2934226764
 21
2.5507823463
  0
ARC
  5
324
100
AcDbEntity
  8
0
100
AcDbCircle
 62
2
  6
CONTINUOUS
 10
13.2934226783
 20
2.5483073467
 40
0.0024749995
100
AcDbArc
 50
359.9999571957
 51
90.0000428043
  0
LINE
  5
325
100
AcDbEntity
  8
0
100
AcDbLine
 62
2
  6
CONTINUOUS
 10
13.2958976778
 20
2.5483073449
 11
13.2958976778
 21
2.5349523375
  0
ARC
  5
326
100
AcDbEntity
  8
0
100
AcDbCircle
 62
2
  6
CONTINUOUS
 10
13.2934226783
 20
2.5349523356
 40
0.0024749995
100
AcDbArc
 50
269.9999571957
 51
0.0000428042
  0
LINE
  5
327
100
AcDbEntity
  8
0
100
AcDbLine
 62
2
  6
CONTINUOUS
 10
13.7286871589
 20
2.5350697372
 11
13.7286871589
 21
2.5456869438
  0
LINE
  5
328
100
AcDbEntity
  8
0
100
AcDbLine
 62
2
  6
CONTINUOUS
 10
13.7086871478
 20
2.5004302075
 11
13.7086871478
 21
2.5803264735
  0
LINE
  5
329
100
AcDbEntity
  8
0
100
AcDbLine
 62
2
  6
CONTINUOUS
 10
13.6886871368
 20
2.4843919416
 11
13.6886871368
 21
2.5963647394
  0
LINE
  5
32A
100
AcDbEntity
  8
0
100
AcDbLine
 62
2
  6
CONTINUOUS
 10
13.6686871257
 20
2.4726017898
 11
13.6686871257
 21
2.6081548911
  0
LINE
  5
32B
100
AcDbEntity
  8
0
100
AcDbLine
 62
2
  6
CONTINUOUS
 10
13.6486871146
 20
2.4628062688
 11
13.6486871146
 21
2.6179504122
  0
LINE
  5
32C
100
AcDbEntity
  8
0
100
AcDbLine
 62
2
  6
CONTINUOUS
 10
13.6286871035
 20
2.4541253507
 11
13.6286871035
 21
2.5062483056
  0
LINE
  5
32D
100
AcDbEntity
  8
0
100
AcDbLine
 62
2
  6
CONTINUOUS
 10
13.6286871035
 20
2.5301143348
 11
13.6286871035
 21
2.6266313303
  0
LINE
  5
32E
100
AcDbEntity
  8
0
100
AcDbLine
 62
2
  6
CONTINUOUS
 10
13.6086870924
 20
2.4465537903
 11
13.6086870924
 21
2.4918774918
  0
LINE
  5
32F
100
AcDbEntity
  8
0
100
AcDbLine
 62
2
  6
CONTINUOUS
 10
13.6086870924
 20
2.5165781173
 11
13.6086870924
 21
2.6342028907
  0
LINE
  5
330
100
AcDbEntity
  8
0
100
AcDbLine
 62
2
  6
CONTINUOUS
 10
13.5886870813
 20
2.4398033466
 11
13.5886870813
 21
2.4912273132
  0
LINE
  5
331
100
AcDbEntity
  8
0
100
AcDbLine
 62
2
  6
CONTINUOUS
 10
13.5886870813
 20
2.5391840845
 11
13.5886870813
 21
2.5454298327
  0
LINE
  5
332
100
AcDbEntity
  8
0
100
AcDbLine
 62
2
  6
CONTINUOUS
 10
13.5886870813
 20
2.5862063472
 11
13.5886870813
 21
2.6409533343
  0
LINE
  5
333
100
AcDbEntity
  8
0
100
AcDbLine
 62
2
  6
CONTINUOUS
 10
13.5686870702
 20
2.4334702189
 11
13.5686870702
 21
2.4912273132
  0
LINE
  5
334
100
AcDbEntity
  8
0
100
AcDbLine
 62
2
  6
CONTINUOUS
 10
13.5686870702
 20
2.5906587765
 11
13.5686870702
 21
2.647286462
  0
LINE
  5
335
100
AcDbEntity
  8
0
100
AcDbLine
 62
2
  6
CONTINUOUS
 10
13.5486870591
 20
2.4278968124
 11
13.5486870591
 21
2.4937461006
  0
LINE
  5
336
100
AcDbEntity
  8
0
100
AcDbLine
 62
2
  6
CONTINUOUS
 10
13.5486870591
 20
2.5920323691
 11
13.5486870591
 21
2.6528598686
  0
LINE
  5
337
100
AcDbEntity
  8
0
100
AcDbLine
 62
2
  6
CONTINUOUS
 10
13.528687048
 20
2.4225427674
 11
13.528687048
 21
2.5270426993
  0
LINE
  5
338
100
AcDbEntity
  8
0
100
AcDbLine
 62
2
  6
CONTINUOUS
 10
13.528687048
 20
2.5505166259
 11
13.528687048
 21
2.5668657091
  0
LINE
  5
339
100
AcDbEntity
  8
0
100
AcDbLine
 62
2
  6
CONTINUOUS
 10
13.528687048
 20
2.5920323691
 11
13.528687048
 21
2.6582139136
  0
LINE
  5
33A
100
AcDbEntity
  8
0
100
AcDbLine
 62
2
  6
CONTINUOUS
 10
13.5086870369
 20
2.4177306791
 11
13.5086870369
 21
2.4912273132
  0
LINE
  5
33B
100
AcDbEntity
  8
0
100
AcDbLine
 62
2
  6
CONTINUOUS
 10
13.5086870369
 20
2.5159553269
 11
13.5086870369
 21
2.5306043351
  0
LINE
  5
33C
100
AcDbEntity
  8
0
100
AcDbLine
 62
2
  6
CONTINUOUS
 10
13.5086870369
 20
2.5496073456
 11
13.5086870369
 21
2.5672823554
  0
LINE
  5
33D
100
AcDbEntity
  8
0
100
AcDbLine
 62
2
  6
CONTINUOUS
 10
13.5086870369
 20
2.5920323691
 11
13.5086870369
 21
2.6630260019
  0
LINE
  5
33E
100
AcDbEntity
  8
0
100
AcDbLine
 62
2
  6
CONTINUOUS
 10
13.4886870258
 20
2.4131795254
 11
13.4886870258
 21
2.4912273132
  0
LINE
  5
33F
100
AcDbEntity
  8
0
100
AcDbLine
 62
2
  6
CONTINUOUS
 10
13.4886870258
 20
2.5159553269
 11
13.4886870258
 21
2.5306043351
  0
LINE
  5
340
100
AcDbEntity
  8
0
100
AcDbLine
 62
2
  6
CONTINUOUS
 10
13.4886870258
 20
2.5496073456
 11
13.4886870258
 21
2.5672823554
  0
LINE
  5
341
100
AcDbEntity
  8
0
100
AcDbLine
 62
2
  6
CONTINUOUS
 10
13.4886870258
 20
2.5920323691
 11
13.4886870258
 21
2.6675771555
  0
LINE
  5
342
100
AcDbEntity
  8
0
100
AcDbLine
 62
2
  6
CONTINUOUS
 10
13.4686870147
 20
2.4088819672
 11
13.4686870147
 21
2.4912273132
  0
LINE
  5
343
100
AcDbEntity
  8
0
100
AcDbLine
 62
2
  6
CONTINUOUS
 10
13.4686870147
 20
2.5920323691
 11
13.4686870147
 21
2.6718747138
  0
LINE
  5
344
100
AcDbEntity
  8
0
100
AcDbLine
 62
2
  6
CONTINUOUS
 10
13.4486870037
 20
2.4050092072
 11
13.4486870037
 21
2.4912273132
  0
LINE
  5
345
100
AcDbEntity
  8
0
100
AcDbLine
 62
2
  6
CONTINUOUS
 10
13.4486870037
 20
2.5920323691
 11
13.4486870037
 21
2.6757474738
  0
LINE
  5
346
100
AcDbEntity
  8
0
100
AcDbLine
 62
2
  6
CONTINUOUS
 10
13.4286869926
 20
2.4011364471
 11
13.4286869926
 21
2.4912273132
  0
LINE
  5
347
100
AcDbEntity
  8
0
100
AcDbLine
 62
2
  6
CONTINUOUS
 10
13.4286869926
 20
2.5920323691
 11
13.4286869926
 21
2.6796202339
  0
LINE
  5
348
100
AcDbEntity
  8
0
100
AcDbLine
 62
2
  6
CONTINUOUS
 10
13.4086869815
 20
2.3980226662
 11
13.4086869815
 21
2.4912273132
  0
LINE
  5
349
100
AcDbEntity
  8
0
100
AcDbLine
 62
2
  6
CONTINUOUS
 10
13.4086869815
 20
2.515977327
 11
13.4086869815
 21
2.5672823554
  0
LINE
  5
34A
100
AcDbEntity
  8
0
100
AcDbLine
 62
2
  6
CONTINUOUS
 10
13.4086869815
 20
2.5920323691
 11
13.4086869815
 21
2.6827340148
  0
LINE
  5
34B
100
AcDbEntity
  8
0
100
AcDbLine
 62
2
  6
CONTINUOUS
 10
13.3886869704
 20
2.3950052774
 11
13.3886869704
 21
2.6857514036
  0
LINE
  5
34C
100
AcDbEntity
  8
0
100
AcDbLine
 62
2
  6
CONTINUOUS
 10
13.3686869593
 20
2.3919878885
 11
13.3686869593
 21
2.4912273132
  0
LINE
  5
34D
100
AcDbEntity
  8
0
100
AcDbLine
 62
2
  6
CONTINUOUS
 10
13.3686869593
 20
2.5291773343
 11
13.3686869593
 21
2.5540823481
  0
LINE
  5
34E
100
AcDbEntity
  8
0
100
AcDbLine
 62
2
  6
CONTINUOUS
 10
13.3686869593
 20
2.5920323691
 11
13.3686869593
 21
2.6887687924
  0
LINE
  5
34F
100
AcDbEntity
  8
0
100
AcDbLine
 62
2
  6
CONTINUOUS
 10
13.3486869482
 20
2.3889704997
 11
13.3486869482
 21
2.4912273132
  0
LINE
  5
350
100
AcDbEntity
  8
0
100
AcDbLine
 62
2
  6
CONTINUOUS
 10
13.3486869482
 20
2.5291773343
 11
13.3486869482
 21
2.5540823481
  0
LINE
  5
351
100
AcDbEntity
  8
0
100
AcDbLine
 62
2
  6
CONTINUOUS
 10
13.3486869482
 20
2.5920323691
 11
13.3486869482
 21
2.6917861813
  0
LINE
  5
352
100
AcDbEntity
  8
0
100
AcDbLine
 62
2
  6
CONTINUOUS
 10
13.3286869371
 20
2.3859531109
 11
13.3286869371
 21
2.4912273132
  0
LINE
  5
353
100
AcDbEntity
  8
0
100
AcDbLine
 62
2
  6
CONTINUOUS
 10
13.3286869371
 20
2.5291773343
 11
13.3286869371
 21
2.5540823481
  0
LINE
  5
354
100
AcDbEntity
  8
0
100
AcDbLine
 62
2
  6
CONTINUOUS
 10
13.3286869371
 20
2.5920323691
 11
13.3286869371
 21
2.6948035701
  0
LINE
  5
355
100
AcDbEntity
  8
0
100
AcDbLine
 62
2
  6
CONTINUOUS
 10
13.308686926
 20
2.3833355437
 11
13.308686926
 21
2.4912273132
  0
LINE
  5
356
100
AcDbEntity
  8
0
100
AcDbLine
 62
2
  6
CONTINUOUS
 10
13.308686926
 20
2.515977327
 11
13.308686926
 21
2.5672823554
  0
LINE
  5
357
100
AcDbEntity
  8
0
100
AcDbLine
 62
2
  6
CONTINUOUS
 10
13.308686926
 20
2.5920323691
 11
13.308686926
 21
2.6974211373
  0
LINE
  5
358
100
AcDbEntity
  8
0
100
AcDbLine
 62
2
  6
CONTINUOUS
 10
13.2886869149
 20
2.3812612684
 11
13.2886869149
 21
2.4912273132
  0
LINE
  5
359
100
AcDbEntity
  8
0
100
AcDbLine
 62
2
  6
CONTINUOUS
 10
13.2886869149
 20
2.515977327
 11
13.2886869149
 21
2.5324773361
  0
LINE
  5
35A
100
AcDbEntity
  8
0
100
AcDbLine
 62
2
  6
CONTINUOUS
 10
13.2886869149
 20
2.5507823463
 11
13.2886869149
 21
2.5672823554
  0
LINE
  5
35B
100
AcDbEntity
  8
0
100
AcDbLine
 62
2
  6
CONTINUOUS
 10
13.2886869149
 20
2.5920323691
 11
13.2886869149
 21
2.6994954125
  0
LINE
  5
35C
100
AcDbEntity
  8
0
100
AcDbLine
 62
2
  6
CONTINUOUS
 10
13.2686869038
 20
2.3791869932
 11
13.2686869038
 21
2.4912273132
  0
LINE
  5
35D
100
AcDbEntity
  8
0
100
AcDbLine
 62
2
  6
CONTINUOUS
 10
13.2686869038
 20
2.515977327
 11
13.2686869038
 21
2.5324773361
  0
LINE
  5
35E
100
AcDbEntity
  8
0
100
AcDbLine
 62
2
  6
CONTINUOUS
 10
13.2686869038
 20
2.5507823463
 11
13.2686869038
 21
2.5672823554
  0
LINE
  5
35F
100
AcDbEntity
  8
0
100
AcDbLine
 62
2
  6
CONTINUOUS
 10
13.2686869038
 20
2.5920323691
 11
13.2686869038
 21
2.7015696878
  0
LINE
  5
360
100
AcDbEntity
  8
0
100
AcDbLine
 62
2
  6
CONTINUOUS
 10
13.2486868927
 20
2.377112718
 11
13.2486868927
 21
2.4912273132
  0
LINE
  5
361
100
AcDbEntity
  8
0
100
AcDbLine
 62
2
  6
CONTINUOUS
 10
13.2486868927
 20
2.5920323691
 11
13.2486868927
 21
2.703643963
  0
LINE
  5
362
100
AcDbEntity
  8
0
100
AcDbLine
 62
2
  6
CONTINUOUS
 10
13.2286868817
 20
2.3750384428
 11
13.2286868817
 21
2.4912273132
  0
LINE
  5
363
100
AcDbEntity
  8
0
100
AcDbLine
 62
2
  6
CONTINUOUS
 10
13.2286868817
 20
2.5920323691
 11
13.2286868817
 21
2.7057182382
  0
LINE
  5
364
100
AcDbEntity
  8
0
100
AcDbLine
 62
2
  6
CONTINUOUS
 10
13.2086868706
 20
2.3729641676
 11
13.2086868706
 21
2.4912273132
  0
LINE
  5
365
100
AcDbEntity
  8
0
100
AcDbLine
 62
2
  6
CONTINUOUS
 10
13.2086868706
 20
2.5920323691
 11
13.2086868706
 21
2.7077925134
  0
LINE
  5
366
100
AcDbEntity
  8
0
100
AcDbLine
 62
2
  6
CONTINUOUS
 10
13.1886868595
 20
2.3712344456
 11
13.1886868595
 21
2.4912273132
  0
LINE
  5
367
100
AcDbEntity
  8
0
100
AcDbLine
 62
2
  6
CONTINUOUS
 10
13.1886868595
 20
2.515977327
 11
13.1886868595
 21
2.5672823554
  0
LINE
  5
368
100
AcDbEntity
  8
0
100
AcDbLine
 62
2
  6
CONTINUOUS
 10
13.1886868595
 20
2.5920323691
 11
13.1886868595
 21
2.7095222354
  0
LINE
  5
369
100
AcDbEntity
  8
0
100
AcDbLine
 62
2
  6
CONTINUOUS
 10
13.1686868484
 20
2.3699682418
 11
13.1686868484
 21
2.4912273132
  0
LINE
  5
36A
100
AcDbEntity
  8
0
100
AcDbLine
 62
2
  6
CONTINUOUS
 10
13.1686868484
 20
2.515977327
 11
13.1686868484
 21
2.5672823554
  0
LINE
  5
36B
100
AcDbEntity
  8
0
100
AcDbLine
 62
2
  6
CONTINUOUS
 10
13.1686868484
 20
2.5920323691
 11
13.1686868484
 21
2.7107884392
  0
LINE
  5
36C
100
AcDbEntity
  8
0
100
AcDbLine
 62
2
  6
CONTINUOUS
 10
13.1486868373
 20
2.3687020381
 11
13.1486868373
 21
2.7120546429
  0
LINE
  5
36D
100
AcDbEntity
  8
0
100
AcDbLine
 62
2
  6
CONTINUOUS
 10
13.1286868262
 20
2.3674358343
 11
13.1286868262
 21
2.5672823554
  0
LINE
  5
36E
100
AcDbEntity
  8
0
100
AcDbLine
 62
2
  6
CONTINUOUS
 10
13.1286868262
 20
2.5920323691
 11
13.1286868262
 21
2.7133208466
  0
LINE
  5
36F
100
AcDbEntity
  8
0
100
AcDbLine
 62
2
  6
CONTINUOUS
 10
13.1086868151
 20
2.3661696306
 11
13.1086868151
 21
2.4912273132
  0
LINE
  5
370
100
AcDbEntity
  8
0
100
AcDbLine
 62
2
  6
CONTINUOUS
 10
13.1086868151
 20
2.5920323691
 11
13.1086868151
 21
2.7145870504
  0
LINE
  5
371
100
AcDbEntity
  8
0
100
AcDbLine
 62
2
  6
CONTINUOUS
 10
13.088686804
 20
2.3649034269
 11
13.088686804
 21
2.4912273132
  0
LINE
  5
372
100
AcDbEntity
  8
0
100
AcDbLine
 62
2
  6
CONTINUOUS
 10
13.088686804
 20
2.5920323691
 11
13.088686804
 21
2.7158532541
  0
LINE
  5
373
100
AcDbEntity
  8
0
100
AcDbLine
 62
2
  6
CONTINUOUS
 10
13.0686867929
 20
2.3636739922
 11
13.0686867929
 21
2.4912273132
  0
LINE
  5
374
100
AcDbEntity
  8
0
100
AcDbLine
 62
2
  6
CONTINUOUS
 10
13.0686867929
 20
2.5475272398
 11
13.0686867929
 21
2.5672823554
  0
LINE
  5
375
100
AcDbEntity
  8
0
100
AcDbLine
 62
2
  6
CONTINUOUS
 10
13.0686867929
 20
2.5920323691
 11
13.0686867929
 21
2.7170826887
  0
LINE
  5
376
100
AcDbEntity
  8
0
100
AcDbLine
 62
2
  6
CONTINUOUS
 10
13.0486867818
 20
2.363143203
 11
13.0486867818
 21
2.4912273132
  0
LINE
  5
377
100
AcDbEntity
  8
0
100
AcDbLine
 62
2
  6
CONTINUOUS
 10
13.0486867818
 20
2.5666100882
 11
13.0486867818
 21
2.717613478
  0
LINE
  5
378
100
AcDbEntity
  8
0
100
AcDbLine
 62
2
  6
CONTINUOUS
 10
13.0286867707
 20
2.3626124138
 11
13.0286867707
 21
2.50359263
  0
LINE
  5
379
100
AcDbEntity
  8
0
100
AcDbLine
 62
2
  6
CONTINUOUS
 10
13.0286867707
 20
2.5856929366
 11
13.0286867707
 21
2.7181442672
  0
LINE
  5
37A
100
AcDbEntity
  8
0
100
AcDbLine
 62
2
  6
CONTINUOUS
 10
13.0086867596
 20
2.3620816246
 11
13.0086867596
 21
2.5226754472
  0
LINE
  5
37B
100
AcDbEntity
  8
0
100
AcDbLine
 62
2
  6
CONTINUOUS
 10
13.0086867596
 20
2.5920323691
 11
13.0086867596
 21
2.7186750564
  0
LINE
  5
37C
100
AcDbEntity
  8
0
100
AcDbLine
 62
2
  6
CONTINUOUS
 10
12.9886867486
 20
2.3615508354
 11
12.9886867486
 21
2.4912273132
  0
LINE
  5
37D
100
AcDbEntity
  8
0
100
AcDbLine
 62
2
  6
CONTINUOUS
 10
12.9886867486
 20
2.515977327
 11
12.9886867486
 21
2.5417582644
  0
LINE
  5
37E
100
AcDbEntity
  8
0
100
AcDbLine
 62
2
  6
CONTINUOUS
 10
12.9886867486
 20
2.5920323691
 11
12.9886867486
 21
2.7192058456
  0
LINE
  5
37F
100
AcDbEntity
  8
0
100
AcDbLine
 62
2
  6
CONTINUOUS
 10
12.9686867375
 20
2.3610200462
 11
12.9686867375
 21
2.4912273132
  0
LINE
  5
380
100
AcDbEntity
  8
0
100
AcDbLine
 62
2
  6
CONTINUOUS
 10
12.9686867375
 20
2.5920323691
 11
12.9686867375
 21
2.7197366348
  0
LINE
  5
381
100
AcDbEntity
  8
0
100
AcDbLine
 62
2
  6
CONTINUOUS
 10
12.9486867264
 20
2.360489257
 11
12.9486867264
 21
2.4912273132
  0
LINE
  5
382
100
AcDbEntity
  8
0
100
AcDbLine
 62
2
  6
CONTINUOUS
 10
12.9486867264
 20
2.5920323691
 11
12.9486867264
 21
2.720267424
  0
LINE
  5
383
100
AcDbEntity
  8
0
100
AcDbLine
 62
2
  6
CONTINUOUS
 10
12.9286867153
 20
2.3602836008
 11
12.9286867153
 21
2.4912273132
  0
LINE
  5
384
100
AcDbEntity
  8
0
100
AcDbLine
 62
2
  6
CONTINUOUS
 10
12.9286867153
 20
2.515977327
 11
12.9286867153
 21
2.5672823554
  0
LINE
  5
385
100
AcDbEntity
  8
0
100
AcDbLine
 62
2
  6
CONTINUOUS
 10
12.9286867153
 20
2.5920323691
 11
12.9286867153
 21
2.7204730802
  0
LINE
  5
386
100
AcDbEntity
  8
0
100
AcDbLine
 62
2
  6
CONTINUOUS
 10
12.9086867042
 20
2.3604597639
 11
12.9086867042
 21
2.7202969171
  0
LINE
  5
387
100
AcDbEntity
  8
0
100
AcDbLine
 62
2
  6
CONTINUOUS
 10
12.8886866931
 20
2.360635927
 11
12.8886866931
 21
2.5672823554
  0
LINE
  5
388
100
AcDbEntity
  8
0
100
AcDbLine
 62
2
  6
CONTINUOUS
 10
12.8886866931
 20
2.5920323691
 11
12.8886866931
 21
2.720120754
  0
LINE
  5
389
100
AcDbEntity
  8
0
100
AcDbLine
 62
2
  6
CONTINUOUS
 10
12.868686682
 20
2.3608120901
 11
12.868686682
 21
2.491232357
  0
LINE
  5
38A
100
AcDbEntity
  8
0
100
AcDbLine
 62
2
  6
CONTINUOUS
 10
12.868686682
 20
2.5920323691
 11
12.868686682
 21
2.7199445909
  0
LINE
  5
38B
100
AcDbEntity
  8
0
100
AcDbLine
 62
2
  6
CONTINUOUS
 10
12.8486866709
 20
2.3609882532
 11
12.8486866709
 21
2.4912273132
  0
LINE
  5
38C
100
AcDbEntity
  8
0
100
AcDbLine
 62
2
  6
CONTINUOUS
 10
12.8486866709
 20
2.5920323691
 11
12.8486866709
 21
2.7197684278
  0
LINE
  5
38D
100
AcDbEntity
  8
0
100
AcDbLine
 62
2
  6
CONTINUOUS
 10
12.8286866598
 20
2.3611644163
 11
12.8286866598
 21
2.4912273132
  0
LINE
  5
38E
100
AcDbEntity
  8
0
100
AcDbLine
 62
2
  6
CONTINUOUS
 10
12.8286866598
 20
2.5396527025
 11
12.8286866598
 21
2.5672823554
  0
LINE
  5
38F
100
AcDbEntity
  8
0
100
AcDbLine
 62
2
  6
CONTINUOUS
 10
12.8286866598
 20
2.5920323691
 11
12.8286866598
 21
2.7195922647
  0
LINE
  5
390
100
AcDbEntity
  8
0
100
AcDbLine
 62
2
  6
CONTINUOUS
 10
12.8086866487
 20
2.3613405794
 11
12.8086866487
 21
2.4912273132
  0
LINE
  5
391
100
AcDbEntity
  8
0
100
AcDbLine
 62
2
  6
CONTINUOUS
 10
12.8086866487
 20
2.5587355508
 11
12.8086866487
 21
2.7194161016
  0
LINE
  5
392
100
AcDbEntity
  8
0
100
AcDbLine
 62
2
  6
CONTINUOUS
 10
12.7886866376
 20
2.3621089572
 11
12.7886866376
 21
2.4957181055
  0
LINE
  5
393
100
AcDbEntity
  8
0
100
AcDbLine
 62
2
  6
CONTINUOUS
 10
12.7886866376
 20
2.5778183992
 11
12.7886866376
 21
2.7186477238
  0
LINE
  5
394
100
AcDbEntity
  8
0
100
AcDbLine
 62
2
  6
CONTINUOUS
 10
12.7686866266
 20
2.3630013935
 11
12.7686866266
 21
2.5148009227
  0
LINE
  5
395
100
AcDbEntity
  8
0
100
AcDbLine
 62
2
  6
CONTINUOUS
 10
12.7686866266
 20
2.5920323691
 11
12.7686866266
 21
2.7177552874
  0
LINE
  5
396
100
AcDbEntity
  8
0
100
AcDbLine
 62
2
  6
CONTINUOUS
 10
12.7486866155
 20
2.3638938299
 11
12.7486866155
 21
2.4913263218
  0
LINE
  5
397
100
AcDbEntity
  8
0
100
AcDbLine
 62
2
  6
CONTINUOUS
 10
12.7486866155
 20
2.5158783184
 11
12.7486866155
 21
2.5338837399
  0
LINE
  5
398
100
AcDbEntity
  8
0
100
AcDbLine
 62
2
  6
CONTINUOUS
 10
12.7486866155
 20
2.5920323691
 11
12.7486866155
 21
2.7168628511
  0
LINE
  5
399
100
AcDbEntity
  8
0
100
AcDbLine
 62
2
  6
CONTINUOUS
 10
12.7286866044
 20
2.3647862663
 11
12.7286866044
 21
2.4912273132
  0
LINE
  5
39A
100
AcDbEntity
  8
0
100
AcDbLine
 62
2
  6
CONTINUOUS
 10
12.7286866044
 20
2.515977327
 11
12.7286866044
 21
2.5527601554
  0
LINE
  5
39B
100
AcDbEntity
  8
0
100
AcDbLine
 62
2
  6
CONTINUOUS
 10
12.7286866044
 20
2.5920323691
 11
12.7286866044
 21
2.7159704147
  0
LINE
  5
39C
100
AcDbEntity
  8
0
100
AcDbLine
 62
2
  6
CONTINUOUS
 10
12.7086865933
 20
2.3656787026
 11
12.7086865933
 21
2.4912273132
  0
LINE
  5
39D
100
AcDbEntity
  8
0
100
AcDbLine
 62
2
  6
CONTINUOUS
 10
12.7086865933
 20
2.5920323691
 11
12.7086865933
 21
2.7150779784
  0
LINE
  5
39E
100
AcDbEntity
  8
0
100
AcDbLine
 62
2
  6
CONTINUOUS
 10
12.6886865822
 20
2.366571139
 11
12.6886865822
 21
2.4912273132
  0
LINE
  5
39F
100
AcDbEntity
  8
0
100
AcDbLine
 62
2
  6
CONTINUOUS
 10
12.6886865822
 20
2.515977327
 11
12.6886865822
 21
2.5672823554
  0
LINE
  5
3A0
100
AcDbEntity
  8
0
100
AcDbLine
 62
2
  6
CONTINUOUS
 10
12.6886865822
 20
2.5920323691
 11
12.6886865822
 21
2.714185542
  0
LINE
  5
3A1
100
AcDbEntity
  8
0
100
AcDbLine
 62
2
  6
CONTINUOUS
 10
12.6686865711
 20
2.3677104027
 11
12.6686865711
 21
2.7130462783
  0
LINE
  5
3A2
100
AcDbEntity
  8
0
100
AcDbLine
 62
2
  6
CONTINUOUS
 10
12.64868656
 20
2.3693682721
 11
12.64868656
 21
2.7113884089
  0
LINE
  5
3A3
100
AcDbEntity
  8
0
100
AcDbLine
 62
2
  6
CONTINUOUS
 10
12.6286865489
 20
2.3710261415
 11
12.6286865489
 21
2.4912273132
  0
LINE
  5
3A4
100
AcDbEntity
  8
0
100
AcDbLine
 62
2
  6
CONTINUOUS
 10
12.6286865489
 20
2.515977327
 11
12.6286865489
 21
2.7097305395
  0
LINE
  5
3A5
100
AcDbEntity
  8
0
100
AcDbLine
 62
2
  6
CONTINUOUS
 10
12.6086865378
 20
2.372684011
 11
12.6086865378
 21
2.4912273132
  0
LINE
  5
3A6
100
AcDbEntity
  8
0
100
AcDbLine
 62
2
  6
CONTINUOUS
 10
12.6086865378
 20
2.5351122279
 11
12.6086865378
 21
2.70807267
  0
LINE
  5
3A7
100
AcDbEntity
  8
0
100
AcDbLine
 62
2
  6
CONTINUOUS
 10
12.5886865267
 20
2.3743418804
 11
12.5886865267
 21
2.4912273132
  0
LINE
  5
3A8
100
AcDbEntity
  8
0
100
AcDbLine
 62
2
  6
CONTINUOUS
 10
12.5886865267
 20
2.5660172622
 11
12.5886865267
 21
2.7064148006
  0
LINE
  5
3A9
100
AcDbEntity
  8
0
100
AcDbLine
 62
2
  6
CONTINUOUS
 10
12.5686865156
 20
2.3759997498
 11
12.5686865156
 21
2.4912273132
  0
LINE
  5
3AA
100
AcDbEntity
  8
0
100
AcDbLine
 62
2
  6
CONTINUOUS
 10
12.5686865156
 20
2.5920323691
 11
12.5686865156
 21
2.7047569312
  0
LINE
  5
3AB
100
AcDbEntity
  8
0
100
AcDbLine
 62
2
  6
CONTINUOUS
 10
12.5486865045
 20
2.3777575277
 11
12.5486865045
 21
2.4912273132
  0
LINE
  5
3AC
100
AcDbEntity
  8
0
100
AcDbLine
 62
2
  6
CONTINUOUS
 10
12.5486865045
 20
2.515977327
 11
12.5486865045
 21
2.5275118824
  0
LINE
  5
3AD
100
AcDbEntity
  8
0
100
AcDbLine
 62
2
  6
CONTINUOUS
 10
12.5486865045
 20
2.5920323691
 11
12.5486865045
 21
2.7029991533
  0
LINE
  5
3AE
100
AcDbEntity
  8
0
100
AcDbLine
 62
2
  6
CONTINUOUS
 10
12.5286864935
 20
2.3802813811
 11
12.5286864935
 21
2.5296213345
  0
LINE
  5
3AF
100
AcDbEntity
  8
0
100
AcDbLine
 62
2
  6
CONTINUOUS
 10
12.5286864935
 20
2.5505713461
 11
12.5286864935
 21
2.5667383551
  0
LINE
  5
3B0
100
AcDbEntity
  8
0
100
AcDbLine
 62
2
  6
CONTINUOUS
 10
12.5286864935
 20
2.5920323691
 11
12.5286864935
 21
2.7004752999
  0
LINE
  5
3B1
100
AcDbEntity
  8
0
100
AcDbLine
 62
2
  6
CONTINUOUS
 10
12.5086864824
 20
2.3828052346
 11
12.5086864824
 21
2.4912273132
  0
LINE
  5
3B2
100
AcDbEntity
  8
0
100
AcDbLine
 62
2
  6
CONTINUOUS
 10
12.5086864824
 20
2.515977327
 11
12.5086864824
 21
2.5279667721
  0
LINE
  5
3B3
100
AcDbEntity
  8
0
100
AcDbLine
 62
2
  6
CONTINUOUS
 10
12.5086864824
 20
2.5868602074
 11
12.5086864824
 21
2.6979514464
  0
LINE
  5
3B4
100
AcDbEntity
  8
0
100
AcDbLine
 62
2
  6
CONTINUOUS
 10
12.4886864713
 20
2.385329088
 11
12.4886864713
 21
2.4912273132
  0
LINE
  5
3B5
100
AcDbEntity
  8
0
100
AcDbLine
 62
2
  6
CONTINUOUS
 10
12.4886864713
 20
2.5553401045
 11
12.4886864713
 21
2.695427593
  0
LINE
  5
3B6
100
AcDbEntity
  8
0
100
AcDbLine
 62
2
  6
CONTINUOUS
 10
12.4686864602
 20
2.3878529415
 11
12.4686864602
 21
2.4912273132
  0
LINE
  5
3B7
100
AcDbEntity
  8
0
100
AcDbLine
 62
2
  6
CONTINUOUS
 10
12.4686864602
 20
2.5238200015
 11
12.4686864602
 21
2.6929037395
  0
LINE
  5
3B8
100
AcDbEntity
  8
0
100
AcDbLine
 62
2
  6
CONTINUOUS
 10
12.4486864491
 20
2.390376795
 11
12.4486864491
 21
2.4912273132
  0
LINE
  5
3B9
100
AcDbEntity
  8
0
100
AcDbLine
 62
2
  6
CONTINUOUS
 10
12.4486864491
 20
2.515977327
 11
12.4486864491
 21
2.690379886
  0
LINE
  5
3BA
100
AcDbEntity
  8
0
100
AcDbLine
 62
2
  6
CONTINUOUS
 10
12.428686438
 20
2.3931794042
 11
12.428686438
 21
2.6875772768
  0
LINE
  5
3BB
100
AcDbEntity
  8
0
100
AcDbLine
 62
2
  6
CONTINUOUS
 10
12.4086864269
 20
2.3964643301
 11
12.4086864269
 21
2.5013773986
  0
LINE
  5
3BC
100
AcDbEntity
  8
0
100
AcDbLine
 62
2
  6
CONTINUOUS
 10
12.4086864269
 20
2.5325739971
 11
12.4086864269
 21
2.5537224311
  0
LINE
  5
3BD
100
AcDbEntity
  8
0
100
AcDbLine
 62
2
  6
CONTINUOUS
 10
12.4086864269
 20
2.5791473398
 11
12.4086864269
 21
2.6842923509
  0
LINE
  5
3BE
100
AcDbEntity
  8
0
100
AcDbLine
 62
2
  6
CONTINUOUS
 10
12.3886864158
 20
2.399749256
 11
12.3886864158
 21
2.4921022658
  0
LINE
  5
3BF
100
AcDbEntity
  8
0
100
AcDbLine
 62
2
  6
CONTINUOUS
 10
12.3886864158
 20
2.5895929958
 11
12.3886864158
 21
2.681007425
  0
LINE
  5
3C0
100
AcDbEntity
  8
0
100
AcDbLine
 62
2
  6
CONTINUOUS
 10
12.3686864047
 20
2.403451877
 11
12.3686864047
 21
2.4912273132
  0
LINE
  5
3C1
100
AcDbEntity
  8
0
100
AcDbLine
 62
2
  6
CONTINUOUS
 10
12.3686864047
 20
2.5920323691
 11
12.3686864047
 21
2.677304804
  0
LINE
  5
3C2
100
AcDbEntity
  8
0
100
AcDbLine
 62
2
  6
CONTINUOUS
 10
12.3486863936
 20
2.407324637
 11
12.3486863936
 21
2.4912273132
  0
LINE
  5
3C3
100
AcDbEntity
  8
0
100
AcDbLine
 62
2
  6
CONTINUOUS
 10
12.3486863936
 20
2.5920323691
 11
12.3486863936
 21
2.673432044
  0
LINE
  5
3C4
100
AcDbEntity
  8
0
100
AcDbLine
 62
2
  6
CONTINUOUS
 10
12.3286863825
 20
2.4113493968
 11
12.3286863825
 21
2.4912273132
  0
LINE
  5
3C5
100
AcDbEntity
  8
0
100
AcDbLine
 62
2
  6
CONTINUOUS
 10
12.3286863825
 20
2.515977327
 11
12.3286863825
 21
2.5333023366
  0
LINE
  5
3C6
100
AcDbEntity
  8
0
100
AcDbLine
 62
2
  6
CONTINUOUS
 10
12.3286863825
 20
2.5499573458
 11
12.3286863825
 21
2.5672823554
  0
LINE
  5
3C7
100
AcDbEntity
  8
0
100
AcDbLine
 62
2
  6
CONTINUOUS
 10
12.3286863825
 20
2.5920323691
 11
12.3286863825
 21
2.6694072842
  0
LINE
  5
3C8
100
AcDbEntity
  8
0
100
AcDbLine
 62
2
  6
CONTINUOUS
 10
12.3086863715
 20
2.4159005505
 11
12.3086863715
 21
2.4912273132
  0
LINE
  5
3C9
100
AcDbEntity
  8
0
100
AcDbLine
 62
2
  6
CONTINUOUS
 10
12.3086863715
 20
2.515977327
 11
12.3086863715
 21
2.5333023366
  0
LINE
  5
3CA
100
AcDbEntity
  8
0
100
AcDbLine
 62
2
  6
CONTINUOUS
 10
12.3086863715
 20
2.5499573458
 11
12.3086863715
 21
2.5672823554
  0
LINE
  5
3CB
100
AcDbEntity
  8
0
100
AcDbLine
 62
2
  6
CONTINUOUS
 10
12.3086863715
 20
2.5920323691
 11
12.3086863715
 21
2.6648561305
  0
LINE
  5
3CC
100
AcDbEntity
  8
0
100
AcDbLine
 62
2
  6
CONTINUOUS
 10
12.2886863604
 20
2.4204517041
 11
12.2886863604
 21
2.4912273132
  0
LINE
  5
3CD
100
AcDbEntity
  8
0
100
AcDbLine
 62
2
  6
CONTINUOUS
 10
12.2886863604
 20
2.5920323691
 11
12.2886863604
 21
2.6603049769
  0
LINE
  5
3CE
100
AcDbEntity
  8
0
100
AcDbLine
 62
2
  6
CONTINUOUS
 10
12.2686863493
 20
2.4257438218
 11
12.2686863493
 21
2.4912273132
  0
LINE
  5
3CF
100
AcDbEntity
  8
0
100
AcDbLine
 62
2
  6
CONTINUOUS
 10
12.2686863493
 20
2.5920323691
 11
12.2686863493
 21
2.6550128592
  0
LINE
  5
3D0
100
AcDbEntity
  8
0
100
AcDbLine
 62
2
  6
CONTINUOUS
 10
12.2486863382
 20
2.4310978667
 11
12.2486863382
 21
2.4912273132
  0
LINE
  5
3D1
100
AcDbEntity
  8
0
100
AcDbLine
 62
2
  6
CONTINUOUS
 10
12.2486863382
 20
2.5920323691
 11
12.2486863382
 21
2.6496588142
  0
LINE
  5
3D2
100
AcDbEntity
  8
0
100
AcDbLine
 62
2
  6
CONTINUOUS
 10
12.2286863271
 20
2.4372566433
 11
12.2286863271
 21
2.4912273132
  0
LINE
  5
3D3
100
AcDbEntity
  8
0
100
AcDbLine
 62
2
  6
CONTINUOUS
 10
12.2286863271
 20
2.515977327
 11
12.2286863271
 21
2.5672823554
  0
LINE
  5
3D4
100
AcDbEntity
  8
0
100
AcDbLine
 62
2
  6
CONTINUOUS
 10
12.2286863271
 20
2.5920323691
 11
12.2286863271
 21
2.6435000377
  0
LINE
  5
3D5
100
AcDbEntity
  8
0
100
AcDbLine
 62
2
  6
CONTINUOUS
 10
12.208686316
 20
2.443589771
 11
12.208686316
 21
2.4912273132
  0
LINE
  5
3D6
100
AcDbEntity
  8
0
100
AcDbLine
 62
2
  6
CONTINUOUS
 10
12.208686316
 20
2.515977327
 11
12.208686316
 21
2.5672823554
  0
LINE
  5
3D7
100
AcDbEntity
  8
0
100
AcDbLine
 62
2
  6
CONTINUOUS
 10
12.208686316
 20
2.5920323691
 11
12.208686316
 21
2.63716691
  0
LINE
  5
3D8
100
AcDbEntity
  8
0
100
AcDbLine
 62
2
  6
CONTINUOUS
 10
12.1886863049
 20
2.4510806436
 11
12.1886863049
 21
2.6296760373
  0
LINE
  5
3D9
100
AcDbEntity
  8
0
100
AcDbLine
 62
2
  6
CONTINUOUS
 10
12.1686862938
 20
2.4591016523
 11
12.1686862938
 21
2.6216550287
  0
LINE
  5
3DA
100
AcDbEntity
  8
0
100
AcDbLine
 62
2
  6
CONTINUOUS
 10
12.1486862827
 20
2.468314272
 11
12.1486862827
 21
2.612442409
  0
LINE
  5
3DB
100
AcDbEntity
  8
0
100
AcDbLine
 62
2
  6
CONTINUOUS
 10
12.1286862716
 20
2.4794932339
 11
12.1286862716
 21
2.601263447
  0
LINE
  5
3DC
100
AcDbEntity
  8
0
100
AcDbLine
 62
2
  6
CONTINUOUS
 10
12.1086862605
 20
2.4934150665
 11
12.1086862605
 21
2.5873416144
  0
LINE
  5
3DD
100
AcDbEntity
  8
0
100
AcDbLine
 62
2
  6
CONTINUOUS
 10
12.0886862494
 20
2.5144449553
 11
12.0886862494
 21
2.5663117257
  0
ENDBLK
  5
3DE
100
AcDbEntity
  8
0
  6
BYBLOCK
 62
0
100
AcDbBlockEnd
  0
BLOCK
  5
3DF
100
AcDbEntity
  8
SCHEME_DIMS
100
AcDbBlockBegin
 62
2
  6
CONTINUOUS
  2
*D0
 70
65
 10
0.0
 20
0.0
  3
*D0
  1

  0
TEXT
  5
3E0
100
AcDbEntity
  8
SCHEME_DIMS
100
AcDbText
 62
2
  6
CONTINUOUS
 10
5.7950905718
 20
5.3987524024
  7
STANDARD
 40
0.1
  1
8,4
 41
1.0
 72
0
100
AcDbText
  0
TEXT
  5
3E1
100
AcDbEntity
  8
SCHEME_DIMS
100
AcDbText
 62
2
  6
CONTINUOUS
 10
5.8950905718
 20
5.2487524024
  7
STANDARD
 40
0.1
  1
.33
 41
1.0
 72
0
100
AcDbText
  0
TEXT
  5
3E2
100
AcDbEntity
  8
SCHEME_DIMS
100
AcDbText
 62
2
  6
CONTINUOUS
 10
5.7950905718
 20
5.2487524024
  7
STANDARD
 40
0.1
  1
[
 41
1.0
 72
0
100
AcDbText
  0
TEXT
  5
3E3
100
AcDbEntity
  8
SCHEME_DIMS
100
AcDbText
 62
2
  6
CONTINUOUS
 10
6.1950905718
 20
5.2487524024
  7
STANDARD
 40
0.1
  1
]
 41
1.0
 72
0
100
AcDbText
  0
LINE
  5
3E4
100
AcDbEntity
  8
SCHEME_DIMS
100
AcDbLine
 62
2
  6
CONTINUOUS
 10
4.3270787607
 20
5.8521575088
 11
5.6700905718
 21
5.8521575088
  0
LINE
  5
3E5
100
AcDbEntity
  8
SCHEME_DIMS
100
AcDbLine
 62
2
  6
CONTINUOUS
 10
4.6351496269
 20
6.1808976663
 11
5.6700905718
 21
6.1808976663
  0
LINE
  5
3E6
100
AcDbEntity
  8
SCHEME_DIMS
100
AcDbLine
 62
2
  6
CONTINUOUS
 10
5.5450905718
 20
5.8521575088
 11
5.5450905718
 21
5.4487524024
  0
LINE
  5
3E7
100
AcDbEntity
  8
SCHEME_DIMS
100
AcDbLine
 62
2
  6
CONTINUOUS
 10
5.5450905718
 20
5.4487524024
 11
5.6950905718
 21
5.4487524024
  0
LINE
  5
3E8
100
AcDbEntity
  8
SCHEME_DIMS
100
AcDbLine
 62
2
  6
CONTINUOUS
 10
5.5450905718
 20
6.1808976663
 11
5.5450905718
 21
6.5808976663
  0
INSERT
  5
3E9
100
AcDbEntity
  8
SCHEME_DIMS
100
AcDbBlockReference
 62
2
  6
CONTINUOUS
  2
_FILLED
 10
5.5450905718
 20
5.8521575088
 41
0.1875
 42
0.1875
 43
0.1875
 50
90.0
  0
INSERT
  5
3EA
100
AcDbEntity
  8
SCHEME_DIMS
100
AcDbBlockReference
 62
2
  6
CONTINUOUS
  2
_FILLED
 10
5.5450905718
 20
6.1808976663
 41
0.1875
 42
0.1875
 43
0.1875
 50
270.0
  0
ENDBLK
  5
3EB
100
AcDbEntity
  8
0
  6
BYBLOCK
 62
0
100
AcDbBlockEnd
  0
BLOCK
  5
3EC
100
AcDbEntity
  8
SCHEME_DIMS
100
AcDbBlockBegin
 62
2
  6
CONTINUOUS
  2
*D1
 70
65
 10
0.0
 20
0.0
  3
*D1
  1

  0
TEXT
  5
3ED
100
AcDbEntity
  8
SCHEME_DIMS
100
AcDbText
 62
2
  6
CONTINUOUS
 10
5.8171210558
 20
6.4156806982
  7
STANDARD
 40
0.1
  1
27,4
 41
1.0
 72
0
100
AcDbText
  0
TEXT
  5
3EE
100
AcDbEntity
  8
SCHEME_DIMS
100
AcDbText
 62
2
  6
CONTINUOUS
 10
5.9171210558
 20
6.2656806982
  7
STANDARD
 40
0.1
  1
1.08
 41
1.0
 72
0
100
AcDbText
  0
TEXT
  5
3EF
100
AcDbEntity
  8
SCHEME_DIMS
100
AcDbText
 62
2
  6
CONTINUOUS
 10
5.8171210558
 20
6.2656806982
  7
STANDARD
 40
0.1
  1
[
 41
1.0
 72
0
100
AcDbText
  0
TEXT
  5
3F0
100
AcDbEntity
  8
SCHEME_DIMS
100
AcDbText
 62
2
  6
CONTINUOUS
 10
6.3171210558
 20
6.2656806982
  7
STANDARD
 40
0.1
  1
]
 41
1.0
 72
0
100
AcDbText
  0
LINE
  5
3F1
100
AcDbEntity
  8
SCHEME_DIMS
100
AcDbLine
 62
2
  6
CONTINUOUS
 10
4.3270787607
 20
5.8521575088
 11
6.2421210558
 21
5.8521575088
  0
LINE
  5
3F2
100
AcDbEntity
  8
SCHEME_DIMS
100
AcDbLine
 62
2
  6
CONTINUOUS
 10
4.8984026796
 20
6.9289291623
 11
4.9236680354
 21
6.9289291623
  0
LINE
  5
3F3
100
AcDbEntity
  8
SCHEME_DIMS
100
AcDbLine
 62
2
  6
CONTINUOUS
 10
4.9662650724
 20
6.9289291623
 11
6.2421210558
 21
6.9289291623
  0
LINE
  5
3F4
100
AcDbEntity
  8
SCHEME_DIMS
100
AcDbLine
 62
2
  6
CONTINUOUS
 10
6.1171210558
 20
5.8521575088
 11
6.1171210558
 21
6.1656806982
  0
LINE
  5
3F5
100
AcDbEntity
  8
SCHEME_DIMS
100
AcDbLine
 62
2
  6
CONTINUOUS
 10
6.1171210558
 20
6.9289291623
 11
6.1171210558
 21
6.6156806982
  0
INSERT
  5
3F6
100
AcDbEntity
  8
SCHEME_DIMS
100
AcDbBlockReference
 62
2
  6
CONTINUOUS
  2
_FILLED
 10
6.1171210558
 20
5.8521575088
 41
0.1875
 42
0.1875
 43
0.1875
 50
270.0
  0
INSERT
  5
3F7
100
AcDbEntity
  8
SCHEME_DIMS
100
AcDbBlockReference
 62
2
  6
CONTINUOUS
  2
_FILLED
 10
6.1171210558
 20
6.9289291623
 41
0.1875
 42
0.1875
 43
0.1875
 50
90.0
  0
ENDBLK
  5
3F8
100
AcDbEntity
  8
0
  6
BYBLOCK
 62
0
100
AcDbBlockEnd
  0
BLOCK
  5
3F9
100
AcDbEntity
  8
SCHEME_DIMS
100
AcDbBlockBegin
 62
2
  6
CONTINUOUS
  2
*D2
 70
65
 10
0.0
 20
0.0
  3
*D2
  1

  0
TEXT
  5
3FA
100
AcDbEntity
  8
SCHEME_DIMS
100
AcDbText
 62
2
  6
CONTINUOUS
 10
6.3081710462
 20
7.6183416619
  7
STANDARD
 40
0.1
  1
88,5
 41
1.0
 72
0
100
AcDbText
  0
TEXT
  5
3FB
100
AcDbEntity
  8
SCHEME_DIMS
100
AcDbText
 62
2
  6
CONTINUOUS
 10
6.4081710462
 20
7.4683416619
  7
STANDARD
 40
0.1
  1
3.48
 41
1.0
 72
0
100
AcDbText
  0
TEXT
  5
3FC
100
AcDbEntity
  8
SCHEME_DIMS
100
AcDbText
 62
2
  6
CONTINUOUS
 10
6.3081710462
 20
7.4683416619
  7
STANDARD
 40
0.1
  1
[
 41
1.0
 72
0
100
AcDbText
  0
TEXT
  5
3FD
100
AcDbEntity
  8
SCHEME_DIMS
100
AcDbText
 62
2
  6
CONTINUOUS
 10
6.8081710462
 20
7.4683416619
  7
STANDARD
 40
0.1
  1
]
 41
1.0
 72
0
100
AcDbText
  0
LINE
  5
3FE
100
AcDbEntity
  8
SCHEME_DIMS
100
AcDbLine
 62
2
  6
CONTINUOUS
 10
4.3270787607
 20
5.8521575088
 11
6.7331710462
 21
5.8521575088
  0
LINE
  5
3FF
100
AcDbEntity
  8
SCHEME_DIMS
100
AcDbLine
 62
2
  6
CONTINUOUS
 10
5.0688149524
 20
9.3344409734
 11
6.7331710462
 21
9.3344409734
  0
LINE
  5
400
100
AcDbEntity
  8
SCHEME_DIMS
100
AcDbLine
 62
2
  6
CONTINUOUS
 10
6.6081710462
 20
5.8521575088
 11
6.6081710462
 21
7.3683416619
  0
LINE
  5
401
100
AcDbEntity
  8
SCHEME_DIMS
100
AcDbLine
 62
2
  6
CONTINUOUS
 10
6.6081710462
 20
9.3344409734
 11
6.6081710462
 21
7.8183416619
  0
INSERT
  5
402
100
AcDbEntity
  8
SCHEME_DIMS
100
AcDbBlockReference
 62
2
  6
CONTINUOUS
  2
_FILLED
 10
6.6081710462
 20
5.8521575088
 41
0.1875
 42
0.1875
 43
0.1875
 50
270.0
  0
INSERT
  5
403
100
AcDbEntity
  8
SCHEME_DIMS
100
AcDbBlockReference
 62
2
  6
CONTINUOUS
  2
_FILLED
 10
6.6081710462
 20
9.3344409734
 41
0.1875
 42
0.1875
 43
0.1875
 50
90.0
  0
ENDBLK
  5
404
100
AcDbEntity
  8
0
  6
BYBLOCK
 62
0
100
AcDbBlockEnd
  0
BLOCK
  5
405
100
AcDbEntity
  8
SCHEME_DIMS
100
AcDbBlockBegin
 62
2
  6
CONTINUOUS
  2
*D3
 70
65
 10
0.0
 20
0.0
  3
*D3
  1

  0
TEXT
  5
406
100
AcDbEntity
  8
SCHEME_DIMS
100
AcDbText
 62
2
  6
CONTINUOUS
 10
3.7608386033
 20
5.3021575088
  7
STANDARD
 40
0.1
  1
45
 41
1.0
 72
0
100
AcDbText
  0
TEXT
  5
407
100
AcDbEntity
  8
SCHEME_DIMS
100
AcDbText
 62
2
  6
CONTINUOUS
 10
3.8608386033
 20
5.1521575088
  7
STANDARD
 40
0.1
  1
1.77
 41
1.0
 72
0
100
AcDbText
  0
TEXT
  5
408
100
AcDbEntity
  8
SCHEME_DIMS
100
AcDbText
 62
2
  6
CONTINUOUS
 10
3.7608386033
 20
5.1521575088
  7
STANDARD
 40
0.1
  1
[
 41
1.0
 72
0
100
AcDbText
  0
TEXT
  5
409
100
AcDbEntity
  8
SCHEME_DIMS
100
AcDbText
 62
2
  6
CONTINUOUS
 10
4.2608386033
 20
5.1521575088
  7
STANDARD
 40
0.1
  1
]
 41
1.0
 72
0
100
AcDbText
  0
LINE
  5
40A
100
AcDbEntity
  8
SCHEME_DIMS
100
AcDbLine
 62
2
  6
CONTINUOUS
 10
3.1750118316
 20
6.9602793575
 11
3.1750118316
 21
6.2210902836
  0
LINE
  5
40B
100
AcDbEntity
  8
SCHEME_DIMS
100
AcDbLine
 62
2
  6
CONTINUOUS
 10
3.1750118316
 20
6.1646075531
 11
3.1750118316
 21
5.6791857048
  0
LINE
  5
40C
100
AcDbEntity
  8
SCHEME_DIMS
100
AcDbLine
 62
2
  6
CONTINUOUS
 10
3.1750118316
 20
5.6097623301
 11
3.1750118316
 21
5.2271575088
  0
LINE
  5
40D
100
AcDbEntity
  8
SCHEME_DIMS
100
AcDbLine
 62
2
  6
CONTINUOUS
 10
4.9466653749
 20
6.9533319125
 11
4.9466653749
 21
6.2203289011
  0
LINE
  5
40E
100
AcDbEntity
  8
SCHEME_DIMS
100
AcDbLine
 62
2
  6
CONTINUOUS
 10
4.9466653749
 20
6.1438663568
 11
4.9466653749
 21
5.8844535353
  0
LINE
  5
40F
100
AcDbEntity
  8
SCHEME_DIMS
100
AcDbLine
 62
2
  6
CONTINUOUS
 10
4.9466653749
 20
5.8226535075
 11
4.9466653749
 21
5.2271575088
  0
LINE
  5
410
100
AcDbEntity
  8
SCHEME_DIMS
100
AcDbLine
 62
2
  6
CONTINUOUS
 10
3.1750118316
 20
5.3521575088
 11
3.6608386033
 21
5.3521575088
  0
LINE
  5
411
100
AcDbEntity
  8
SCHEME_DIMS
100
AcDbLine
 62
2
  6
CONTINUOUS
 10
4.9466653749
 20
5.3521575088
 11
4.4608386033
 21
5.3521575088
  0
INSERT
  5
412
100
AcDbEntity
  8
SCHEME_DIMS
100
AcDbBlockReference
 62
2
  6
CONTINUOUS
  2
_FILLED
 10
3.1750118316
 20
5.3521575088
 41
0.1875
 42
0.1875
 43
0.1875
 50
180.0
  0
INSERT
  5
413
100
AcDbEntity
  8
SCHEME_DIMS
100
AcDbBlockReference
 62
2
  6
CONTINUOUS
  2
_FILLED
 10
4.9466653749
 20
5.3521575088
 41
0.1875
 42
0.1875
 43
0.1875
  0
ENDBLK
  5
414
100
AcDbEntity
  8
0
  6
BYBLOCK
 62
0
100
AcDbBlockEnd
  0
BLOCK
  5
415
100
AcDbEntity
  8
SCHEME_DIMS
100
AcDbBlockBegin
 62
2
  6
CONTINUOUS
  2
*D4
 70
65
 10
0.0
 20
0.0
  3
*D4
  1

  0
TEXT
  5
416
100
AcDbEntity
  8
SCHEME_DIMS
100
AcDbText
 62
2
  6
CONTINUOUS
 10
5.398900688
 20
4.1135394084
  7
STANDARD
 40
0.1
  1
%%c
 41
1.3333333333
 72
0
100
AcDbText
  0
TEXT
  5
417
100
AcDbEntity
  8
SCHEME_DIMS
100
AcDbText
 62
2
  6
CONTINUOUS
 10
5.5322340213
 20
4.1135394084
  7
STANDARD
 40
0.1
  1
50
 41
1.0
 72
0
100
AcDbText
  0
TEXT
  5
418
100
AcDbEntity
  8
SCHEME_DIMS
100
AcDbText
 62
2
  6
CONTINUOUS
 10
5.6322340213
 20
3.9635394084
  7
STANDARD
 40
0.1
  1
1.97
 41
1.0
 72
0
100
AcDbText
  0
TEXT
  5
419
100
AcDbEntity
  8
SCHEME_DIMS
100
AcDbText
 62
2
  6
CONTINUOUS
 10
5.5322340213
 20
3.9635394084
  7
STANDARD
 40
0.1
  1
[
 41
1.0
 72
0
100
AcDbText
  0
TEXT
  5
41A
100
AcDbEntity
  8
SCHEME_DIMS
100
AcDbText
 62
2
  6
CONTINUOUS
 10
6.0322340213
 20
3.9635394084
  7
STANDARD
 40
0.1
  1
]
 41
1.0
 72
0
100
AcDbText
  0
LINE
  5
41B
100
AcDbEntity
  8
SCHEME_DIMS
100
AcDbLine
 62
2
  6
CONTINUOUS
 10
4.8535596488
 20
3.9461875902
 11
4.0608386033
 21
3.3627963994
  0
LINE
  5
41C
100
AcDbEntity
  8
SCHEME_DIMS
100
AcDbLine
 62
2
  6
CONTINUOUS
 10
4.0608386033
 20
3.3627963994
 11
5.148900688
 21
4.1635394084
  0
LINE
  5
41D
100
AcDbEntity
  8
SCHEME_DIMS
100
AcDbLine
 62
2
  6
CONTINUOUS
 10
5.148900688
 20
4.1635394084
 11
5.298900688
 21
4.1635394084
  0
LINE
  5
41E
100
AcDbEntity
  8
SCHEME_DIMS
100
AcDbLine
 62
2
  6
CONTINUOUS
 10
3.2681175578
 20
2.7794052086
 11
4.0608386033
 21
3.3627963994
  0
INSERT
  5
41F
100
AcDbEntity
  8
SCHEME_DIMS
100
AcDbBlockReference
 62
2
  6
CONTINUOUS
  2
_FILLED
 10
4.8535596488
 20
3.9461875902
 41
0.1875
 42
0.1875
 43
0.1875
 50
36.3506538711
  0
INSERT
  5
420
100
AcDbEntity
  8
SCHEME_DIMS
100
AcDbBlockReference
 62
2
  6
CONTINUOUS
  2
_FILLED
 10
3.2681175578
 20
2.7794052086
 41
0.1875
 42
0.1875
 43
0.1875
 50
216.3506538711
  0
ENDBLK
  5
421
100
AcDbEntity
  8
0
  6
BYBLOCK
 62
0
100
AcDbBlockEnd
  0
BLOCK
  5
422
100
AcDbEntity
  8
SCHEME_DIMS
100
AcDbBlockBegin
 62
2
  6
CONTINUOUS
  2
*D5
 70
65
 10
0.0
 20
0.0
  3
*D5
  1

  0
TEXT
  5
423
100
AcDbEntity
  8
SCHEME_DIMS
100
AcDbText
 62
2
  6
CONTINUOUS
 10
5.2450905718
 20
8.4084567383
  7
STANDARD
 40
0.1
  1
26,9
 41
1.0
 72
0
100
AcDbText
  0
TEXT
  5
424
100
AcDbEntity
  8
SCHEME_DIMS
100
AcDbText
 62
2
  6
CONTINUOUS
 10
5.3450905718
 20
8.2584567383
  7
STANDARD
 40
0.1
  1
1.06
 41
1.0
 72
0
100
AcDbText
  0
TEXT
  5
425
100
AcDbEntity
  8
SCHEME_DIMS
100
AcDbText
 62
2
  6
CONTINUOUS
 10
5.2450905718
 20
8.2584567383
  7
STANDARD
 40
0.1
  1
[
 41
1.0
 72
0
100
AcDbText
  0
TEXT
  5
426
100
AcDbEntity
  8
SCHEME_DIMS
100
AcDbText
 62
2
  6
CONTINUOUS
 10
5.7450905718
 20
8.2584567383
  7
STANDARD
 40
0.1
  1
]
 41
1.0
 72
0
100
AcDbText
  0
LINE
  5
427
100
AcDbEntity
  8
SCHEME_DIMS
100
AcDbLine
 62
2
  6
CONTINUOUS
 10
5.1075905718
 20
7.9289291623
 11
5.6700905718
 21
7.9289291623
  0
LINE
  5
428
100
AcDbEntity
  8
SCHEME_DIMS
100
AcDbLine
 62
2
  6
CONTINUOUS
 10
5.0863306663
 20
8.9879843143
 11
5.6700905718
 21
8.9879843143
  0
LINE
  5
429
100
AcDbEntity
  8
SCHEME_DIMS
100
AcDbLine
 62
2
  6
CONTINUOUS
 10
5.5450905718
 20
7.9289291623
 11
5.5450905718
 21
8.1584567383
  0
LINE
  5
42A
100
AcDbEntity
  8
SCHEME_DIMS
100
AcDbLine
 62
2
  6
CONTINUOUS
 10
5.5450905718
 20
8.9879843143
 11
5.5450905718
 21
8.6084567383
  0
INSERT
  5
42B
100
AcDbEntity
  8
SCHEME_DIMS
100
AcDbBlockReference
 62
2
  6
CONTINUOUS
  2
_FILLED
 10
5.5450905718
 20
7.9289291623
 41
0.1875
 42
0.1875
 43
0.1875
 50
270.0
  0
INSERT
  5
42C
100
AcDbEntity
  8
SCHEME_DIMS
100
AcDbBlockReference
 62
2
  6
CONTINUOUS
  2
_FILLED
 10
5.5450905718
 20
8.9879843143
 41
0.1875
 42
0.1875
 43
0.1875
 50
90.0
  0
ENDBLK
  5
42D
100
AcDbEntity
  8
0
  6
BYBLOCK
 62
0
100
AcDbBlockEnd
  0
BLOCK
  5
42E
100
AcDbEntity
  8
0
100
AcDbBlockBegin
  2
_FILLED
 70
64
 10
0.0
 20
0.0
  3
_FILLED
  1

  0
SOLID
  5
42F
100
AcDbEntity
  8
0
  6
BYBLOCK
 62
0
100
AcDbTrace
 10
0.0
 20
0.0
 11
-1.0
 21
0.1666666667
 12
-1.0
 22
-0.1666666667
 13
-1.0
 23
-0.1666666667
  0
ENDBLK
  5
430
100
AcDbEntity
  8
0
  6
BYBLOCK
 62
0
100
AcDbBlockEnd
  0
ENDSEC
  0
SECTION
  2
ENTITIES
  0
TEXT
  5
431
100
AcDbEntity
  8
0
100
AcDbText
 62
2
  6
CONTINUOUS
 10
10.1487658475
 20
1.694867839
  7
STANDARD
 40
0.1
  1
%%uTHIRD ANGLE PROJECTION
 41
0.8
 72
1
 11
11.0287658475
 21
1.694867839
100
AcDbText
  0
TEXT
  5
432
100
AcDbEntity
  8
0
100
AcDbText
 62
2
  6
CONTINUOUS
 10
12.88
 20
1.377
  7
STANDARD
 40
0.08
  1
DRAWING NO.
 41
1.0
 72
0
100
AcDbText
  0
TEXT
  5
433
100
AcDbEntity
  8
0
100
AcDbText
 62
2
  6
CONTINUOUS
 10
10.044
 20
2.436432
  7
STANDARD
 40
0.08
  1
and is proprietary in general
 41
0.85
 72
1
 11
11.03
 21
2.436432
100
AcDbText
  0
TEXT
  5
434
100
AcDbEntity
  8
0
100
AcDbText
 62
2
  6
CONTINUOUS
 10
10.078
 20
2.316432
  7
STANDARD
 40
0.08
  1
and in detail.  Its contents
 41
0.85
 72
1
 11
11.03
 21
2.316432
100
AcDbText
  0
TEXT
  5
435
100
AcDbEntity
  8
0
100
AcDbText
 62
2
  6
CONTINUOUS
 10
10.214
 20
2.196432
  7
STANDARD
 40
0.08
  1
shall not be revealed to
 41
0.85
 72
1
 11
11.03
 21
2.196432
100
AcDbText
  0
TEXT
  5
436
100
AcDbEntity
  8
0
100
AcDbText
 62
2
  6
CONTINUOUS
 10
10.248
 20
2.076432
  7
STANDARD
 40
0.08
  1
outside parties without
 41
0.85
 72
1
 11
11.03
 21
2.076432
100
AcDbText
  0
TEXT
  5
437
100
AcDbEntity
  8
0
100
AcDbText
 62
2
  6
CONTINUOUS
 10
10.146
 20
1.956432
  7
STANDARD
 40
0.08
  1
written consent of BANNER.
 41
0.85
 72
1
 11
11.03
 21
1.956432
100
AcDbText
  0
TEXT
  5
438
100
AcDbEntity
  8
0
100
AcDbText
 62
2
  6
CONTINUOUS
 10
12.08
 20
2.117
  7
STANDARD
 40
0.1
  1
TITLE
 41
0.8
 72
0
100
AcDbText
  0
TEXT
  5
439
100
AcDbEntity
  8
0
100
AcDbText
 62
2
  6
CONTINUOUS
 10
12.08
 20
1.377
  7
STANDARD
 40
0.08
  1
SIZE
 41
1.0
 72
0
100
AcDbText
  0
TEXT
  5
43A
100
AcDbEntity
  8
0
100
AcDbText
 62
2
  6
CONTINUOUS
 10
12.08
 20
1.007
  7
STANDARD
 40
0.08
  1
SCALE
 41
1.0
 72
0
100
AcDbText
  0
TEXT
  5
43B
100
AcDbEntity
  8
0
100
AcDbText
 62
2
  6
CONTINUOUS
 10
12.46
 20
1.237
  7
STANDARD
 40
0.1
  1
B
 41
0.8
 72
1
 11
12.5
 21
1.237
100
AcDbText
  0
TEXT
  5
43C
100
AcDbEntity
  8
0
100
AcDbText
 62
2
  6
CONTINUOUS
 10
10.112
 20
2.556432
  7
STANDARD
 40
0.08
  1
of BANNER ENGINEERING CORP.
 41
0.85
 72
1
 11
11.03
 21
2.556432
100
AcDbText
  0
TEXT
  5
43D
100
AcDbEntity
  8
0
100
AcDbText
 62
2
  6
CONTINUOUS
 10
10.078
 20
2.676432
  7
STANDARD
 40
0.08
  1
This drawing is the property
 41
0.85
 72
1
 11
11.03
 21
2.676432
100
AcDbText
  0
TEXT
  5
43E
100
AcDbEntity
  8
0
100
AcDbText
 62
2
  6
CONTINUOUS
 10
14.19
 20
2.3134
  7
STANDARD
 40
0.1
  1
MINNEAPOLIS, MN 55440
 41
0.8
 72
1
 11
15.03
 21
2.3134
100
AcDbText
  0
TEXT
  5
43F
100
AcDbEntity
  8
0
100
AcDbText
 62
2
  6
CONTINUOUS
 10
14.255
 20
1.007
  7
STANDARD
 40
0.08
  1
SHEET
 41
1.0
 72
0
100
AcDbText
  0
TEXT
  5
440
100
AcDbEntity
  8
0
100
AcDbText
 62
2
  6
CONTINUOUS
 10
15.63
 20
1.377
  7
STANDARD
 40
0.08
  1
REV.
 41
1.0
 72
0
100
AcDbText
  0
TEXT
  5
441
100
AcDbEntity
  8
0
100
AcDbText
 62
2
  6
CONTINUOUS
 10
16.03
 20
0.765443
  7
STANDARD
 40
0.07
  1
PRO/E
 41
1.0
 72
2
 11
16.38
 21
0.765443
100
AcDbText
  0
TEXT
  5
442
100
AcDbEntity
  8
0
100
AcDbText
 62
2
  6
CONTINUOUS
 10
13.7052
 20
2.631049
  7
STANDARD
 40
0.12
  1
BANNER ENGINEERING CORP.
 41
0.92
 72
1
 11
15.03
 21
2.631049
100
AcDbText
  0
TEXT
  5
443
100
AcDbEntity
  8
0
100
AcDbText
 62
2
  6
CONTINUOUS
 10
14.51
 20
2.4724
  7
STANDARD
 40
0.1
  1
P.O. BOX 9414
 41
0.8
 72
1
 11
15.03
 21
2.4724
100
AcDbText
  0
TEXT
  5
444
100
AcDbEntity
  8
0
100
AcDbText
 62
2
  6
CONTINUOUS
 10
9.445
 20
10.212
  7
STANDARD
 40
0.1
  1
4
 41
0.8
 72
1
 11
9.485
 21
10.212
100
AcDbText
  0
TEXT
  5
445
100
AcDbEntity
  8
0
100
AcDbText
 62
2
  6
CONTINUOUS
 10
11.415
 20
10.212
  7
STANDARD
 40
0.1
  1
3
 41
0.8
 72
1
 11
11.455
 21
10.212
100
AcDbText
  0
TEXT
  5
446
100
AcDbEntity
  8
0
100
AcDbText
 62
2
  6
CONTINUOUS
 10
13.385
 20
10.212
  7
STANDARD
 40
0.1
  1
2
 41
0.8
 72
1
 11
13.425
 21
10.212
100
AcDbText
  0
TEXT
  5
447
100
AcDbEntity
  8
0
100
AcDbText
 62
2
  6
CONTINUOUS
 10
15.355
 20
10.212
  7
STANDARD
 40
0.1
  1
1
 41
0.8
 72
1
 11
15.395
 21
10.212
100
AcDbText
  0
TEXT
  5
448
100
AcDbEntity
  8
0
100
AcDbText
 62
2
  6
CONTINUOUS
 10
3.535
 20
10.212
  7
STANDARD
 40
0.1
  1
7
 41
0.8
 72
1
 11
3.575
 21
10.212
100
AcDbText
  0
TEXT
  5
449
100
AcDbEntity
  8
0
100
AcDbText
 62
2
  6
CONTINUOUS
 10
5.505
 20
10.212
  7
STANDARD
 40
0.1
  1
6
 41
0.8
 72
1
 11
5.545
 21
10.212
100
AcDbText
  0
TEXT
  5
44A
100
AcDbEntity
  8
0
100
AcDbText
 62
2
  6
CONTINUOUS
 10
7.475
 20
10.212
  7
STANDARD
 40
0.1
  1
5
 41
0.8
 72
1
 11
7.515
 21
10.212
100
AcDbText
  0
TEXT
  5
44B
100
AcDbEntity
  8
0
100
AcDbText
 62
2
  6
CONTINUOUS
 10
1.565
 20
10.212
  7
STANDARD
 40
0.1
  1
8
 41
0.8
 72
1
 11
1.605
 21
10.212
100
AcDbText
  0
TEXT
  5
44C
100
AcDbEntity
  8
0
100
AcDbText
 62
2
  6
CONTINUOUS
 10
1.565
 20
0.687
  7
STANDARD
 40
0.1
  1
8
 41
0.8
 72
1
 11
1.605
 21
0.687
100
AcDbText
  0
TEXT
  5
44D
100
AcDbEntity
  8
0
100
AcDbText
 62
2
  6
CONTINUOUS
 10
3.535
 20
0.687
  7
STANDARD
 40
0.1
  1
7
 41
0.8
 72
1
 11
3.575
 21
0.687
100
AcDbText
  0
TEXT
  5
44E
100
AcDbEntity
  8
0
100
AcDbText
 62
2
  6
CONTINUOUS
 10
5.505
 20
0.687
  7
STANDARD
 40
0.1
  1
6
 41
0.8
 72
1
 11
5.545
 21
0.687
100
AcDbText
  0
TEXT
  5
44F
100
AcDbEntity
  8
0
100
AcDbText
 62
2
  6
CONTINUOUS
 10
7.475
 20
0.687
  7
STANDARD
 40
0.1
  1
5
 41
0.8
 72
1
 11
7.515
 21
0.687
100
AcDbText
  0
TEXT
  5
450
100
AcDbEntity
  8
0
100
AcDbText
 62
2
  6
CONTINUOUS
 10
9.445
 20
0.687
  7
STANDARD
 40
0.1
  1
4
 41
0.8
 72
1
 11
9.485
 21
0.687
100
AcDbText
  0
TEXT
  5
451
100
AcDbEntity
  8
0
100
AcDbText
 62
2
  6
CONTINUOUS
 10
11.415
 20
0.687
  7
STANDARD
 40
0.1
  1
3
 41
0.8
 72
1
 11
11.455
 21
0.687
100
AcDbText
  0
TEXT
  5
452
100
AcDbEntity
  8
0
100
AcDbText
 62
2
  6
CONTINUOUS
 10
13.385
 20
0.687
  7
STANDARD
 40
0.1
  1
2
 41
0.8
 72
1
 11
13.425
 21
0.687
100
AcDbText
  0
TEXT
  5
453
100
AcDbEntity
  8
0
100
AcDbText
 62
2
  6
CONTINUOUS
 10
15.355
 20
0.687
  7
STANDARD
 40
0.1
  1
1
 41
0.8
 72
1
 11
15.395
 21
0.687
100
AcDbText
  0
TEXT
  5
454
100
AcDbEntity
  8
0
100
AcDbText
 62
2
  6
CONTINUOUS
 10
0.44
 20
4.2995
  7
STANDARD
 40
0.1
  1
B
 41
0.8
 72
2
 11
0.52
 21
4.2995
100
AcDbText
  0
TEXT
  5
455
100
AcDbEntity
  8
0
100
AcDbText
 62
2
  6
CONTINUOUS
 10
0.44
 20
1.9995
  7
STANDARD
 40
0.1
  1
A
 41
0.8
 72
2
 11
0.52
 21
1.9995
100
AcDbText
  0
TEXT
  5
456
100
AcDbEntity
  8
0
100
AcDbText
 62
2
  6
CONTINUOUS
 10
0.44
 20
8.8995
  7
STANDARD
 40
0.1
  1
D
 41
0.8
 72
2
 11
0.52
 21
8.8995
100
AcDbText
  0
TEXT
  5
457
100
AcDbEntity
  8
0
100
AcDbText
 62
2
  6
CONTINUOUS
 10
0.44
 20
6.5995
  7
STANDARD
 40
0.1
  1
C
 41
0.8
 72
2
 11
0.52
 21
6.5995
100
AcDbText
  0
TEXT
  5
458
100
AcDbEntity
  8
0
100
AcDbText
 62
2
  6
CONTINUOUS
 10
16.48
 20
8.8995
  7
STANDARD
 40
0.1
  1
D
 41
0.8
 72
0
100
AcDbText
  0
TEXT
  5
459
100
AcDbEntity
  8
0
100
AcDbText
 62
2
  6
CONTINUOUS
 10
16.48
 20
6.5995
  7
STANDARD
 40
0.1
  1
C
 41
0.8
 72
0
100
AcDbText
  0
TEXT
  5
45A
100
AcDbEntity
  8
0
100
AcDbText
 62
2
  6
CONTINUOUS
 10
16.48
 20
4.2995
  7
STANDARD
 40
0.1
  1
B
 41
0.8
 72
0
100
AcDbText
  0
TEXT
  5
45B
100
AcDbEntity
  8
0
100
AcDbText
 62
2
  6
CONTINUOUS
 10
16.48
 20
1.9995
  7
STANDARD
 40
0.1
  1
A
 41
0.8
 72
0
100
AcDbText
  0
MTEXT
  5
45C
100
AcDbEntity
  8
0
100
AcDbMText
 62
2
  6
CONTINUOUS
  7
STANDARD
 71
1
 72
1
 10
14.819264911
 20
1.0627941725
 30
0.0
 11
1.0
 21
0.0
 31
0.0
  1
1 OF 1
 40
0.1
 41
0.6
  0
TEXT
  5
45D
100
AcDbEntity
  8
0
100
AcDbText
 62
7
  6
CONTINUOUS
 10
13.8911999818
 20
1.2547321586
  7
STANDARD
 40
0.12
  1
145170
 41
1.0
 72
0
100
AcDbText
  0
TEXT
  5
45E
100
AcDbEntity
  8
0
100
AcDbText
 62
2
  6
CONTINUOUS
 10
12.644264911
 20
0.9627941725
  7
STANDARD
 40
0.1
  1
1:1
 41
1.0
 72
0
100
AcDbText
  0
MTEXT
  5
45F
100
AcDbEntity
  8
0
100
AcDbMText
 62
2
  6
CONTINUOUS
  7
STANDARD
 71
1
 72
1
 10
1.0597007627
 20
1.6202922458
 30
0.0
 11
1.0
 21
0.0
 31
0.0
  1
NOTES:\P1. ALL DIMENSIONS ARE MILLIMETERS [INCHES] UNLESS OTHERWISE NOTED.
 40
0.1
 41
6.6
  0
INSERT
  5
460
100
AcDbEntity
  8
0
100
AcDbBlockReference
 62
2
  6
CONTINUOUS
  2
BANNER_LOGO_TITLEBLOCK_BL0
 10
12.9046655056
 20
2.5403783448
  0
DIMENSION
  5
461
100
AcDbEntity
  8
SCHEME_DIMS
100
AcDbDimension
 62
2
  6
CONTINUOUS
  2
*D0
 10
5.5450905718
 20
6.1808976663
 11
6.0450905718
 21
5.3737524024
 70
160
 42
8.35
  3
DIMSTYLE_1
100
AcDbAlignedDimension
 13
4.3270787607
 23
5.8521575088
 14
4.6351496269
 24
6.1808976663
 50
90.0
100
AcDbRotatedDimension
  0
DIMENSION
  5
462
100
AcDbEntity
  8
SCHEME_DIMS
100
AcDbDimension
 62
2
  6
CONTINUOUS
  2
*D1
 10
6.1171210558
 20
6.9289291623
 11
6.1171210558
 21
6.3906806982
 70
160
 42
27.35
  3
DIMSTYLE_1
100
AcDbAlignedDimension
 13
4.3270787607
 23
5.8521575088
 14
4.8984026796
 24
6.9289291623
 50
90.0
100
AcDbRotatedDimension
  0
DIMENSION
  5
463
100
AcDbEntity
  8
SCHEME_DIMS
100
AcDbDimension
 62
2
  6
CONTINUOUS
  2
*D2
 10
6.6081710462
 20
9.3344409734
 11
6.6081710462
 21
7.5933416619
 70
160
 42
88.45
  3
DIMSTYLE_1
100
AcDbAlignedDimension
 13
4.3270787607
 23
5.8521575088
 14
5.0688149524
 24
9.3344409734
 50
90.0
100
AcDbRotatedDimension
  0
DIMENSION
  5
464
100
AcDbEntity
  8
SCHEME_DIMS
100
AcDbDimension
 62
2
  6
CONTINUOUS
  2
*D3
 10
4.9466653749
 20
5.3521575088
 11
4.0608386033
 21
5.2771575088
 70
160
 42
45.0
  3
DIMSTYLE_1
100
AcDbAlignedDimension
 13
3.1750118316
 23
6.9602793575
 14
4.9466653749
 24
6.9533319125
100
AcDbRotatedDimension
  0
DIMENSION
  5
465
100
AcDbEntity
  8
SCHEME_DIMS
100
AcDbDimension
 62
2
  6
CONTINUOUS
  2
*D4
 10
4.8535596488
 20
3.9461875902
 11
5.7655673547
 21
4.0885394084
 70
163
 42
50.0
  1
<>
  3
DIMSTYLE_2
100
AcDbDiametricDimension
 15
3.2681175578
 25
2.7794052086
  0
DIMENSION
  5
466
100
AcDbEntity
  8
SCHEME_DIMS
100
AcDbDimension
 62
2
  6
CONTINUOUS
  2
*D5
 10
5.5450905718
 20
8.9879843143
 11
5.5450905718
 21
8.3834567383
 70
160
 42
26.9000008589
  3
DIMSTYLE_1
100
AcDbAlignedDimension
 13
5.1075905718
 23
7.9289291623
 14
5.0863306663
 24
8.9879843143
 50
90.0
100
AcDbRotatedDimension
  0
LINE
  5
467
100
AcDbEntity
  8
0
100
AcDbLine
 62
2
  6
CONTINUOUS
 10
16.38
 20
0.887
 11
12.03
 21
0.887
  0
LINE
  5
468
100
AcDbEntity
  8
0
100
AcDbLine
 62
2
  6
CONTINUOUS
 10
16.38
 20
0.887
 11
16.38
 21
2.807
  0
LINE
  5
469
100
AcDbEntity
  8
0
100
AcDbLine
 62
2
  6
CONTINUOUS
 10
16.38
 20
2.807
 11
12.03
 21
2.807
  0
LINE
  5
46A
100
AcDbEntity
  8
0
100
AcDbLine
 62
2
  6
CONTINUOUS
 10
12.03
 20
0.887
 11
12.03
 21
2.807
  0
TEXT
  5
46B
100
AcDbEntity
  8
0
100
AcDbText
 62
7
  6
CONTINUOUS
 10
16.105
 20
1.267
  7
STANDARD
 40
0.1
  1
A
 41
1.0
 72
1
 11
16.155
 21
1.267
100
AcDbText
  0
MTEXT
  5
46C
100
AcDbEntity
  8
0
100
AcDbMText
 62
7
  6
CONTINUOUS
  7
STANDARD
 71
2
 72
1
 10
14.205
 20
1.967
 30
0.0
 11
1.0
 21
0.0
 31
0.0
  1
TL50 1-STACK QD\PWEB CAD DRAWINGS 2D/3D
 40
0.1
 41
2.2
  0
TEXT
  5
46D
100
AcDbEntity
  8
NOTES
100
AcDbText
 62
2
  6
CONTINUOUS
 10
1.339948473
 20
5.973868153
  7
STANDARD
 40
0.1
  1
M30 X 1.5-6g
 41
1.0
 72
0
100
AcDbText
  0
LINE
  5
46E
100
AcDbEntity
  8
NOTES
100
AcDbLine
 62
2
  6
CONTINUOUS
 10
3.5190474432
 20
6.3334638186
 11
2.789948473
 21
6.023868153
  0
LINE
  5
46F
100
AcDbEntity
  8
NOTES
100
AcDbLine
 62
2
  6
CONTINUOUS
 10
2.789948473
 20
6.023868153
 11
2.539948473
 21
6.023868153
  0
SOLID
  5
470
100
AcDbEntity
  8
NOTES
100
AcDbTrace
 62
2
  6
CONTINUOUS
 10
3.3586763541
 20
6.231415172
 11
3.5190474432
 21
6.3334638186
 12
3.3342482033
 22
6.2889435602
 13
3.3342482033
 23
6.2889435602
  0
TEXT
  5
471
100
AcDbEntity
  8
NOTES
100
AcDbText
 62
2
  6
CONTINUOUS
 10
1.547846961
 20
5.426433007
  7
STANDARD
 40
0.1
  1
M12 X 1-6g
 41
1.0
 72
0
100
AcDbText
  0
LINE
  5
472
100
AcDbEntity
  8
NOTES
100
AcDbLine
 62
2
  6
CONTINUOUS
 10
3.8934870726
 20
5.945649489
 11
2.797846961
 21
5.476433007
  0
LINE
  5
473
100
AcDbEntity
  8
NOTES
100
AcDbLine
 62
2
  6
CONTINUOUS
 10
2.797846961
 20
5.476433007
 11
2.547846961
 21
5.476433007
  0
SOLID
  5
474
100
AcDbEntity
  8
NOTES
100
AcDbTrace
 62
2
  6
CONTINUOUS
 10
3.733430184
 20
5.8431087413
 11
3.8934870726
 21
5.945649489
 12
3.7088254491
 22
5.9005618267
 13
3.7088254491
 23
5.9005618267
  0
MTEXT
  5
475
100
AcDbEntity
  8
NOTES
100
AcDbMText
 62
2
  6
CONTINUOUS
  7
STANDARD
 71
2
 72
1
 10
12.9699334184
 20
4.1157327212
 30
0.0
 11
1.0
 21
0.0
 31
0.0
  1
ISOMETRIC VIEW\P\H0.1;SCALE  1:1
 40
0.125
 41
1.75
  0
TEXT
  5
476
100
AcDbEntity
  8
NOTES
100
AcDbText
 62
2
  6
CONTINUOUS
 10
1.3443190328
 20
4.0385869595
  7
STANDARD
 40
0.1
  1
1/2-14 NPSM
 41
1.0
 72
0
100
AcDbText
  0
LINE
  5
477
100
AcDbEntity
  8
NOTES
100
AcDbLine
 62
2
  6
CONTINUOUS
 10
3.7013954468
 20
3.4858442801
 11
2.6943190328
 21
4.0885869595
  0
LINE
  5
478
100
AcDbEntity
  8
NOTES
100
AcDbLine
 62
2
  6
CONTINUOUS
 10
2.6943190328
 20
4.0885869595
 11
2.4443190328
 21
4.0885869595
  0
SOLID
  5
479
100
AcDbEntity
  8
NOTES
100
AcDbTrace
 62
2
  6
CONTINUOUS
 10
3.5244611226
 20
3.5553213081
 11
3.7013954468
 21
3.4858442801
 12
3.5565582303
 22
3.6089498982
 13
3.5565582303
 23
3.6089498982
  0
LINE
  5
47A
100
AcDbEntity
  8
0
100
AcDbLine
 62
2
  6
CONTINUOUS
 10
0.47
 20
5.586103
 11
0.47
 21
5.412897
  0
LINE
  5
47B
100
AcDbEntity
  8
0
100
AcDbLine
 62
2
  6
CONTINUOUS
 10
0.62
 20
10.112
 11
0.62
 21
0.887
  0
LINE
  5
47C
100
AcDbEntity
  8
0
100
AcDbLine
 62
2
  6
CONTINUOUS
 10
2.59
 20
0.887
 11
2.59
 21
0.637
  0
LINE
  5
47D
100
AcDbEntity
  8
0
100
AcDbLine
 62
2
  6
CONTINUOUS
 10
2.59
 20
10.112
 11
2.59
 21
10.362
  0
LINE
  5
47E
100
AcDbEntity
  8
0
100
AcDbLine
 62
2
  6
CONTINUOUS
 10
8.413397
 20
0.737
 11
8.586603
 21
0.737
  0
LINE
  5
47F
100
AcDbEntity
  8
0
100
AcDbLine
 62
7
  6
CONTINUOUS
 10
11.1389508475
 20
1.425992839
 11
11.7453418475
 21
1.495385839
  0
LINE
  5
480
100
AcDbEntity
  8
0
100
AcDbLine
 62
2
  6
CONTINUOUS
 10
0.62
 20
0.887
 11
16.38
 21
0.887
  0
LINE
  5
481
100
AcDbEntity
  8
0
100
AcDbLine
 62
2
  6
CONTINUOUS
 10
12.03
 20
1.137
 11
16.38
 21
1.137
  0
LINE
  5
482
100
AcDbEntity
  8
0
100
AcDbLine
 62
7
  6
CONTINUOUS
 10
10.2121898475
 20
1.243294839
 11
10.4342808475
 21
1.243294839
  0
LINE
  5
483
100
AcDbEntity
  8
0
100
AcDbLine
 62
7
  6
CONTINUOUS
 10
10.4842808475
 20
1.243294839
 11
10.5842808475
 21
1.243294839
  0
LINE
  5
484
100
AcDbEntity
  8
0
100
AcDbLine
 62
7
  6
CONTINUOUS
 10
10.6342808475
 20
1.243294839
 11
10.8563718475
 21
1.243294839
  0
LINE
  5
485
100
AcDbEntity
  8
0
100
AcDbLine
 62
7
  6
CONTINUOUS
 10
11.0389508475
 20
1.243294839
 11
11.3171028475
 21
1.243294839
  0
LINE
  5
486
100
AcDbEntity
  8
0
100
AcDbLine
 62
7
  6
CONTINUOUS
 10
11.3671028475
 20
1.243294839
 11
11.5171888475
 21
1.243294839
  0
LINE
  5
487
100
AcDbEntity
  8
0
100
AcDbLine
 62
7
  6
CONTINUOUS
 10
11.5671888475
 20
1.243294839
 11
11.8453418475
 21
1.243294839
  0
LINE
  5
488
100
AcDbEntity
  8
0
100
AcDbLine
 62
7
  6
CONTINUOUS
 10
11.7453418475
 20
0.991203839
 11
11.1389508475
 21
1.060596839
  0
LINE
  5
489
100
AcDbEntity
  8
0
100
AcDbLine
 62
2
  6
CONTINUOUS
 10
4.56
 20
0.887
 11
4.56
 21
0.637
  0
LINE
  5
48A
100
AcDbEntity
  8
0
100
AcDbLine
 62
2
  6
CONTINUOUS
 10
4.56
 20
10.112
 11
4.56
 21
10.362
  0
LINE
  5
48B
100
AcDbEntity
  8
0
100
AcDbLine
 62
2
  6
CONTINUOUS
 10
0.47
 20
5.412897
 11
0.62
 21
5.4995
  0
LINE
  5
48C
100
AcDbEntity
  8
0
100
AcDbLine
 62
2
  6
CONTINUOUS
 10
12.03
 20
1.507
 11
16.38
 21
1.507
  0
LINE
  5
48D
100
AcDbEntity
  8
0
100
AcDbLine
 62
2
  6
CONTINUOUS
 10
10.03
 20
1.907
 11
12.03
 21
1.907
  0
LINE
  5
48E
100
AcDbEntity
  8
0
100
AcDbLine
 62
2
  6
CONTINUOUS
 10
0.62
 20
5.4995
 11
0.47
 21
5.586103
  0
LINE
  5
48F
100
AcDbEntity
  8
0
100
AcDbLine
 62
2
  6
CONTINUOUS
 10
12.03
 20
2.267
 11
16.38
 21
2.267
  0
LINE
  5
490
100
AcDbEntity
  8
0
100
AcDbLine
 62
2
  6
CONTINUOUS
 10
8.5
 20
10.112
 11
8.586603
 21
10.262
  0
LINE
  5
491
100
AcDbEntity
  8
0
100
AcDbLine
 62
2
  6
CONTINUOUS
 10
16.38
 20
2.807
 11
10.03
 21
2.807
  0
LINE
  5
492
100
AcDbEntity
  8
0
100
AcDbLine
 62
2
  6
CONTINUOUS
 10
0.62
 20
3.1995
 11
0.37
 21
3.1995
  0
LINE
  5
493
100
AcDbEntity
  8
0
100
AcDbLine
 62
2
  6
CONTINUOUS
 10
16.38
 20
3.1995
 11
16.63
 21
3.1995
  0
LINE
  5
494
100
AcDbEntity
  8
0
100
AcDbLine
 62
2
  6
CONTINUOUS
 10
8.586603
 20
0.737
 11
8.5
 21
0.887
  0
LINE
  5
495
100
AcDbEntity
  8
0
100
AcDbLine
 62
2
  6
CONTINUOUS
 10
6.53
 20
0.887
 11
6.53
 21
0.637
  0
LINE
  5
496
100
AcDbEntity
  8
0
100
AcDbLine
 62
2
  6
CONTINUOUS
 10
6.53
 20
10.112
 11
6.53
 21
10.362
  0
LINE
  5
497
100
AcDbEntity
  8
0
100
AcDbLine
 62
2
  6
CONTINUOUS
 10
8.5
 20
0.887
 11
8.5
 21
0.637
  0
LINE
  5
498
100
AcDbEntity
  8
0
100
AcDbLine
 62
2
  6
CONTINUOUS
 10
8.5
 20
10.112
 11
8.5
 21
10.362
  0
LINE
  5
499
100
AcDbEntity
  8
0
100
AcDbLine
 62
2
  6
CONTINUOUS
 10
0.62
 20
5.4995
 11
0.37
 21
5.4995
  0
LINE
  5
49A
100
AcDbEntity
  8
0
100
AcDbLine
 62
2
  6
CONTINUOUS
 10
16.38
 20
5.4995
 11
16.63
 21
5.4995
  0
LINE
  5
49B
100
AcDbEntity
  8
0
100
AcDbLine
 62
2
  6
CONTINUOUS
 10
10.03
 20
2.807
 11
10.03
 21
0.887
  0
LINE
  5
49C
100
AcDbEntity
  8
0
100
AcDbLine
 62
2
  6
CONTINUOUS
 10
10.47
 20
0.887
 11
10.47
 21
0.637
  0
LINE
  5
49D
100
AcDbEntity
  8
0
100
AcDbLine
 62
2
  6
CONTINUOUS
 10
10.47
 20
10.112
 11
10.47
 21
10.362
  0
LINE
  5
49E
100
AcDbEntity
  8
0
100
AcDbLine
 62
7
  6
CONTINUOUS
 10
10.5342808475
 20
1.143294839
 11
10.5342808475
 21
0.921203839
  0
LINE
  5
49F
100
AcDbEntity
  8
0
100
AcDbLine
 62
7
  6
CONTINUOUS
 10
10.5342808475
 20
1.193294839
 11
10.5342808475
 21
1.293294839
  0
LINE
  5
4A0
100
AcDbEntity
  8
0
100
AcDbLine
 62
7
  6
CONTINUOUS
 10
10.5342808475
 20
1.343294839
 11
10.5342808475
 21
1.565385839
  0
LINE
  5
4A1
100
AcDbEntity
  8
0
100
AcDbLine
 62
2
  6
CONTINUOUS
 10
8.5
 20
0.887
 11
8.413397
 21
0.737
  0
LINE
  5
4A2
100
AcDbEntity
  8
0
100
AcDbLine
 62
2
  6
CONTINUOUS
 10
0.62
 20
7.7995
 11
0.37
 21
7.7995
  0
LINE
  5
4A3
100
AcDbEntity
  8
0
100
AcDbLine
 62
2
  6
CONTINUOUS
 10
16.38
 20
7.7995
 11
16.63
 21
7.7995
  0
LINE
  5
4A4
100
AcDbEntity
  8
0
100
AcDbLine
 62
2
  6
CONTINUOUS
 10
8.413397
 20
10.262
 11
8.5
 21
10.112
  0
LINE
  5
4A5
100
AcDbEntity
  8
0
100
AcDbLine
 62
7
  6
CONTINUOUS
 10
11.1389508475
 20
1.060596839
 11
11.1389508475
 21
1.425992839
  0
LINE
  5
4A6
100
AcDbEntity
  8
0
100
AcDbLine
 62
7
  6
CONTINUOUS
 10
11.7453418475
 20
1.495385839
 11
11.7453418475
 21
0.991203839
  0
LINE
  5
4A7
100
AcDbEntity
  8
0
100
AcDbLine
 62
1
  6
CONTINUOUS
 10
12.03
 20
2.807
 11
12.03
 21
0.887
  0
LINE
  5
4A8
100
AcDbEntity
  8
0
100
AcDbLine
 62
2
  6
CONTINUOUS
 10
12.44
 20
0.887
 11
12.44
 21
0.637
  0
LINE
  5
4A9
100
AcDbEntity
  8
0
100
AcDbLine
 62
2
  6
CONTINUOUS
 10
12.44
 20
10.112
 11
12.44
 21
10.362
  0
LINE
  5
4AA
100
AcDbEntity
  8
0
100
AcDbLine
 62
2
  6
CONTINUOUS
 10
16.53
 20
5.586103
 11
16.38
 21
5.4995
  0
LINE
  5
4AB
100
AcDbEntity
  8
0
100
AcDbLine
 62
2
  6
CONTINUOUS
 10
16.38
 20
5.4995
 11
16.53
 21
5.412897
  0
LINE
  5
4AC
100
AcDbEntity
  8
0
100
AcDbLine
 62
2
  6
CONTINUOUS
 10
12.83
 20
1.507
 11
12.83
 21
1.137
  0
LINE
  5
4AD
100
AcDbEntity
  8
0
100
AcDbLine
 62
2
  6
CONTINUOUS
 10
16.38
 20
10.112
 11
0.62
 21
10.112
  0
LINE
  5
4AE
100
AcDbEntity
  8
0
100
AcDbLine
 62
2
  6
CONTINUOUS
 10
8.586603
 20
10.262
 11
8.413397
 21
10.262
  0
LINE
  5
4AF
100
AcDbEntity
  8
0
100
AcDbLine
 62
2
  6
CONTINUOUS
 10
14.205
 20
1.137
 11
14.205
 21
0.887
  0
LINE
  5
4B0
100
AcDbEntity
  8
0
100
AcDbLine
 62
2
  6
CONTINUOUS
 10
14.41
 20
0.887
 11
14.41
 21
0.637
  0
LINE
  5
4B1
100
AcDbEntity
  8
0
100
AcDbLine
 62
2
  6
CONTINUOUS
 10
14.41
 20
10.112
 11
14.41
 21
10.362
  0
LINE
  5
4B2
100
AcDbEntity
  8
0
100
AcDbLine
 62
2
  6
CONTINUOUS
 10
15.58
 20
1.507
 11
15.58
 21
1.137
  0
LINE
  5
4B3
100
AcDbEntity
  8
0
100
AcDbLine
 62
2
  6
CONTINUOUS
 10
16.38
 20
0.887
 11
16.38
 21
10.112
  0
LINE
  5
4B4
100
AcDbEntity
  8
0
100
AcDbLine
 62
2
  6
CONTINUOUS
 10
16.53
 20
5.412897
 11
16.53
 21
5.586103
  0
LINE
  5
4B5
100
AcDbEntity
  8
0
100
AcDbLine
 62
7
  6
CONTINUOUS
 10
3.8570984458
 20
5.8521575088
 11
4.2645787607
 21
5.8521575088
  0
LWPOLYLINE
  5
4B6
100
AcDbEntity
  8
0
100
AcDbPolyline
 62
7
  6
CONTINUOUS
 90
4
 70
0
 10
4.2968584046
 20
6.0015055131
 10
4.2921703172
 20
6.0004867995
 10
4.2815842209
 20
5.9994831728
 10
4.2654115333
 20
5.9984829681
  0
LWPOLYLINE
  5
4B7
100
AcDbEntity
  8
0
100
AcDbPolyline
 62
7
  6
CONTINUOUS
 90
8
 70
0
 10
4.2941411909
 20
5.9220377689
 10
4.2855613805
 20
5.9210606269
 10
4.2713980144
 20
5.92007589
 10
4.2517702502
 20
5.9190787642
 10
4.2273137504
 20
5.918081495
 10
4.1990305191
 20
5.9170966896
 10
4.1675182624
 20
5.9161171613
 10
4.1333703249
 20
5.9151366861
  0
LWPOLYLINE
  5
4B8
100
AcDbEntity
  8
0
100
AcDbPolyline
 62
7
  6
CONTINUOUS
 90
8
 70
0
 10
4.2940761921
 20
5.9613969044
 10
4.2854343198
 20
5.9604197987
 10
4.2712956738
 20
5.9594399854
 10
4.2517517291
 20
5.9584480086
 10
4.2274294078
 20
5.9574558995
 10
4.1993168847
 20
5.9564761394
 10
4.1678697076
 20
5.955497693
 10
4.1334830548
 20
5.9545099071
  0
LWPOLYLINE
  5
4B9
100
AcDbEntity
  8
0
100
AcDbPolyline
 62
7
  6
CONTINUOUS
 90
8
 70
0
 10
3.8275954428
 20
5.9417360775
 10
3.8362998365
 20
5.9427189863
 10
3.8504154636
 20
5.9436959111
 10
3.8696354826
 20
5.9446728258
 10
3.8934870726
 20
5.945649489
 10
3.9213995273
 20
5.9466262601
 10
3.9528788794
 20
5.9476085595
 10
3.9874562443
 20
5.9486034267
  0
LWPOLYLINE
  5
4BA
100
AcDbEntity
  8
0
100
AcDbPolyline
 62
7
  6
CONTINUOUS
 90
3
 70
0
 10
4.2710125776
 20
5.8934960915
 10
4.2774095291
 20
5.8941592838
 10
4.2783394615
 20
5.8944614465
  0
LWPOLYLINE
  5
4BB
100
AcDbEntity
  8
0
100
AcDbPolyline
 62
7
  6
CONTINUOUS
 90
4
 70
0
 10
4.2373603522
 20
6.0171837555
 10
4.2520155375
 20
6.0182452037
 10
4.2611977728
 20
6.0193066519
 10
4.2643800429
 20
6.02013128
  0
LWPOLYLINE
  5
4BC
100
AcDbEntity
  8
0
100
AcDbPolyline
 62
7
  6
CONTINUOUS
 90
9
 70
0
 10
4.1338320132
 20
5.9131810547
 10
4.065843177
 20
5.9088436935
 10
4.0321423365
 20
5.9066667753
 10
3.9996163733
 20
5.9044847062
 10
3.9689613686
 20
5.9022974903
 10
3.940826908
 20
5.9001051112
 10
3.915801378
 20
5.8979074969
 10
3.8943993365
 20
5.8957045181
 10
3.8770514005
 20
5.8934960915
  0
LWPOLYLINE
  5
4BD
100
AcDbEntity
  8
0
100
AcDbPolyline
 62
7
  6
CONTINUOUS
 90
6
 70
0
 10
4.2654115333
 20
5.9984829681
 10
4.245665053
 20
5.9975516237
 10
4.221724779
 20
5.9966160031
 10
4.1943822767
 20
5.9956861122
 10
4.16387579
 20
5.9947494913
 10
4.1307029409
 20
5.9938026376
  0
LWPOLYLINE
  5
4BE
100
AcDbEntity
  8
0
100
AcDbPolyline
 62
7
  6
CONTINUOUS
 90
9
 70
0
 10
4.118160638
 20
5.9336681533
 10
4.1501916883
 20
5.9347253128
 10
4.1796853478
 20
5.9357824723
 10
4.2058040748
 20
5.9368396319
 10
4.2278061666
 20
5.9378967914
 10
4.2450668223
 20
5.9389539509
 10
4.257095885
 20
5.9400111104
 10
4.263551761
 20
5.9410682699
 10
4.2643800429
 20
5.9413911225
  0
LWPOLYLINE
  5
4BF
100
AcDbEntity
  8
0
100
AcDbPolyline
 62
7
  6
CONTINUOUS
 90
9
 70
0
 10
4.1101494848
 20
5.9727830556
 10
4.1426589253
 20
5.9738402151
 10
4.1728448856
 20
5.9748973746
 10
4.1998501643
 20
5.9759545342
 10
4.2229078832
 20
5.9770116937
 10
4.2413632642
 20
5.9780688532
 10
4.2546922233
 20
5.9791260127
 10
4.2625162535
 20
5.9801831723
 10
4.2643800429
 20
5.9807612013
  0
LWPOLYLINE
  5
4C0
100
AcDbEntity
  8
0
100
AcDbPolyline
 62
7
  6
CONTINUOUS
 90
9
 70
0
 10
4.0927246025
 20
5.8934960915
 10
4.1260767373
 20
5.894553251
 10
4.157576282
 20
5.8956104105
 10
4.1863287331
 20
5.89666757
 10
4.2115175972
 20
5.8977247296
 10
4.2324275772
 20
5.8987818891
 10
4.2484648853
 20
5.8998390486
 10
4.2591741043
 20
5.9008962081
 10
4.2643800429
 20
5.9020210438
  0
LINE
  5
4C1
100
AcDbEntity
  8
0
100
AcDbLine
 62
7
  6
CONTINUOUS
 10
4.0161430943
 20
5.9304966747
 11
4.118160638
 21
5.9336681533
  0
LINE
  5
4C2
100
AcDbEntity
  8
0
100
AcDbLine
 62
7
  6
CONTINUOUS
 10
4.0080835798
 20
5.969611577
 11
4.1101494848
 21
5.9727830556
  0
LWPOLYLINE
  5
4C3
100
AcDbEntity
  8
0
100
AcDbPolyline
 62
7
  6
CONTINUOUS
 90
9
 70
0
 10
3.9875814953
 20
5.9505754256
 10
3.9530536418
 20
5.9495822743
 10
3.9216047798
 20
5.9486015063
 10
3.893593739
 20
5.9476220007
 10
3.8694835492
 20
5.9466344615
 10
3.8501900203
 20
5.9456512278
 10
3.836198666
 20
5.9446788312
 10
3.8275532139
 20
5.9436974787
 10
3.8248670499
 20
5.9429963701
  0
LWPOLYLINE
  5
4C4
100
AcDbEntity
  8
0
100
AcDbPolyline
 62
7
  6
CONTINUOUS
 90
9
 70
0
 10
4.1338320132
 20
5.9131810547
 10
4.1680458976
 20
5.9141643541
 10
4.1993648152
 20
5.9151391262
 10
4.2275933152
 20
5.9161234523
 10
4.2519867944
 20
5.9171200261
 10
4.2715507459
 20
5.9181163364
 10
4.2856547471
 20
5.9191001751
 10
4.2942095721
 20
5.9200809092
 10
4.2968101566
 20
5.9207674664
  0
LWPOLYLINE
  5
4C5
100
AcDbEntity
  8
0
100
AcDbPolyline
 62
7
  6
CONTINUOUS
 90
9
 70
0
 10
4.1333703249
 20
5.9525382609
 10
4.1675182624
 20
5.9535187361
 10
4.1990305191
 20
5.9544982644
 10
4.2273137504
 20
5.9554830698
 10
4.2517702502
 20
5.956480339
 10
4.2713980144
 20
5.9574774648
 10
4.2855613805
 20
5.9584622017
 10
4.2941411909
 20
5.9594393437
 10
4.2968101566
 20
5.9601375451
  0
LWPOLYLINE
  5
4C6
100
AcDbEntity
  8
0
100
AcDbPolyline
 62
7
  6
CONTINUOUS
 90
9
 70
0
 10
4.1334830548
 20
5.9919114819
 10
4.1678697076
 20
5.9928992678
 10
4.1993168847
 20
5.9938777142
 10
4.2274294078
 20
5.9948574743
 10
4.2517517291
 20
5.9958495834
 10
4.2712956738
 20
5.9968415602
 10
4.2854343198
 20
5.9978213735
 10
4.2940761921
 20
5.9987984792
 10
4.2968101566
 20
5.9995076239
  0
LWPOLYLINE
  5
4C7
100
AcDbEntity
  8
0
100
AcDbPolyline
 62
7
  6
CONTINUOUS
 90
9
 70
0
 10
3.9884193545
 20
5.9899688677
 10
3.9541105761
 20
5.9889838198
 10
3.9226107611
 20
5.9880045545
 10
3.8944024635
 20
5.9870223824
 10
3.8699982931
 20
5.9860277679
 10
3.8503950873
 20
5.9850333041
 10
3.8362242844
 20
5.984051106
 10
3.8276152145
 20
5.9830779684
 10
3.8248670499
 20
5.9823664488
  0
LINE
  5
4C8
100
AcDbEntity
  8
0
100
AcDbLine
 62
7
  6
CONTINUOUS
 10
4.1333703249
 20
5.9151366861
 11
4.0608386033
 21
5.9131811308
  0
LINE
  5
4C9
100
AcDbEntity
  8
0
100
AcDbLine
 62
7
  6
CONTINUOUS
 10
3.9874562443
 20
5.9486034267
 11
4.1333703249
 21
5.9525382609
  0
LINE
  5
4CA
100
AcDbEntity
  8
0
100
AcDbLine
 62
7
  6
CONTINUOUS
 10
4.1334830548
 20
5.9545099071
 11
3.9875814953
 21
5.9505754256
  0
LINE
  5
4CB
100
AcDbEntity
  8
0
100
AcDbLine
 62
7
  6
CONTINUOUS
 10
3.9875814953
 20
5.9879770005
 11
4.1334830548
 21
5.9919114819
  0
LINE
  5
4CC
100
AcDbEntity
  8
0
100
AcDbLine
 62
7
  6
CONTINUOUS
 10
4.1307029409
 20
5.9938026376
 11
3.9884193545
 21
5.9899688677
  0
LINE
  5
4CD
100
AcDbEntity
  8
0
100
AcDbLine
 62
7
  6
CONTINUOUS
 10
3.9853612627
 20
5.911881758
 11
4.0608379966
 21
5.9131810928
  0
LINE
  5
4CE
100
AcDbEntity
  8
0
100
AcDbLine
 62
7
  6
CONTINUOUS
 10
3.8570984458
 20
5.8915275875
 11
4.2645787607
 21
5.8915275875
  0
LINE
  5
4CF
100
AcDbEntity
  8
0
100
AcDbLine
 62
7
  6
CONTINUOUS
 10
4.2773704302
 20
5.8934960915
 11
3.8443064564
 21
5.8934960915
  0
LINE
  5
4D0
100
AcDbEntity
  8
0
100
AcDbLine
 62
7
  6
CONTINUOUS
 10
4.0608386033
 20
5.9131811308
 11
4.1338320132
 21
5.9131810547
  0
LWPOLYLINE
  5
4D1
100
AcDbEntity
  8
0
100
AcDbPolyline
 62
7
  6
CONTINUOUS
 90
9
 70
0
 10
3.8572971637
 20
5.922372714
 10
3.8599029572
 20
5.9230965581
 10
3.8685031093
 20
5.9241537176
 10
3.8825650796
 20
5.9252108771
 10
3.9016895454
 20
5.9262680366
 10
3.9253334225
 20
5.9273251962
 10
3.9528252876
 20
5.9283823557
 10
3.9833844445
 20
5.9294395152
 10
4.0161430943
 20
5.9304966747
  0
LWPOLYLINE
  5
4D2
100
AcDbEntity
  8
0
100
AcDbPolyline
 62
7
  6
CONTINUOUS
 90
10
 70
0
 10
3.8572971637
 20
6.0404829502
 10
3.8624229597
 20
6.0415970641
 10
3.8731306539
 20
6.0426585123
 10
3.8892119891
 20
6.0437199605
 10
3.9102065941
 20
6.0447814087
 10
3.9355134424
 20
6.0458428569
 10
3.9644080578
 20
6.0469043052
 10
3.996063255
 20
6.0479657534
 10
4.0295728193
 20
6.0490272016
 10
4.0982922231
 20
6.051150098
  0
LWPOLYLINE
  5
4D3
100
AcDbEntity
  8
0
100
AcDbPolyline
 62
7
  6
CONTINUOUS
 90
8
 70
0
 10
4.2942175976
 20
6.0795311038
 10
4.2856833146
 20
6.0785514641
 10
4.2716537831
 20
6.0775712078
 10
4.2522008926
 20
6.0765785212
 10
4.2279449509
 20
6.0755854541
 10
4.1998698584
 20
6.0746045001
 10
4.1684747791
 20
6.0736259466
 10
4.1340061434
 20
6.0726347308
  0
LWPOLYLINE
  5
4D4
100
AcDbEntity
  8
0
100
AcDbPolyline
 62
7
  6
CONTINUOUS
 90
8
 70
0
 10
3.8274587321
 20
6.0991932122
 10
3.8359934106
 20
6.1001729606
 10
3.8500254699
 20
6.1011533789
 10
3.8694825586
 20
6.1021462277
 10
3.8937455958
 20
6.103139513
 10
3.9218295435
 20
6.1041206946
 10
3.9532126575
 20
6.1050988246
 10
3.9876694684
 20
6.1060896911
  0
LWPOLYLINE
  5
4D5
100
AcDbEntity
  8
0
100
AcDbPolyline
 62
7
  6
CONTINUOUS
 90
8
 70
0
 10
3.8274844641
 20
6.0598275382
 10
3.8360449854
 20
6.0608073393
 10
3.8501794773
 20
6.0617923421
 10
3.8697850172
 20
6.0627898118
 10
3.8942291062
 20
6.0637875526
 10
3.9225107139
 20
6.0647729348
 10
3.9539485117
 20
6.0657506536
 10
3.9879775365
 20
6.0667282049
  0
LWPOLYLINE
  5
4D6
100
AcDbEntity
  8
0
100
AcDbPolyline
 62
7
  6
CONTINUOUS
 90
8
 70
0
 10
4.2941944174
 20
6.1188972144
 10
4.2856345378
 20
6.1179173271
 10
4.2715009509
 20
6.1169323132
 10
4.2518962927
 20
6.1159348397
 10
4.2274544717
 20
6.1149371523
 10
4.1991759193
 20
6.1139518401
 10
4.1677441026
 20
6.1129742711
 10
4.133712114
 20
6.1119966085
  0
LWPOLYLINE
  5
4D7
100
AcDbEntity
  8
0
100
AcDbPolyline
 62
7
  6
CONTINUOUS
 90
8
 70
0
 10
3.8275532139
 20
5.9810990535
 10
3.836198666
 20
5.982080406
 10
3.8501900203
 20
5.9830528026
 10
3.8694835492
 20
5.9840360363
 10
3.893593739
 20
5.9850235755
 10
3.9216047798
 20
5.9860030811
 10
3.9530536418
 20
5.9869838491
 10
3.9875814953
 20
5.9879770005
  0
LWPOLYLINE
  5
4D8
100
AcDbEntity
  8
0
100
AcDbPolyline
 62
7
  6
CONTINUOUS
 90
8
 70
0
 10
3.8276152145
 20
6.0204795432
 10
3.8362242844
 20
6.0214526808
 10
3.8503950873
 20
6.0224348789
 10
3.8699982931
 20
6.0234293427
 10
3.8944024635
 20
6.0244239573
 10
3.9226107611
 20
6.0254061293
 10
3.9541105761
 20
6.0263853946
 10
3.9884193545
 20
6.0273704425
  0
LWPOLYLINE
  5
4D9
100
AcDbEntity
  8
0
100
AcDbPolyline
 62
7
  6
CONTINUOUS
 90
8
 70
0
 10
4.2940647173
 20
6.1582453785
 10
4.2854577959
 20
6.1572722032
 10
4.2712858507
 20
6.1562898054
 10
4.2516795924
 20
6.1552951543
 10
4.2272721098
 20
6.1543004107
 10
4.1990599396
 20
6.1533181243
 10
4.1675573027
 20
6.1523387945
 10
4.1332526509
 20
6.1513538789
  0
LWPOLYLINE
  5
4DA
100
AcDbEntity
  8
0
100
AcDbPolyline
 62
7
  6
CONTINUOUS
 90
8
 70
0
 10
4.2940701777
 20
6.0401360553
 10
4.2853665543
 20
6.0391541629
 10
4.2712243813
 20
6.0381759814
 10
4.2518683921
 20
6.0371934239
 10
4.2280054702
 20
6.036217647
 10
4.2001632876
 20
6.0352440543
 10
4.1687016354
 20
6.0342626299
 10
4.1341496878
 20
6.0332686571
  0
LWPOLYLINE
  5
4DB
100
AcDbEntity
  8
0
100
AcDbPolyline
 62
7
  6
CONTINUOUS
 90
4
 70
0
 10
4.2654115333
 20
6.0358845429
 10
4.2815842209
 20
6.0368847476
 10
4.2921703172
 20
6.0378883743
 10
4.2968101566
 20
6.0388777026
  0
LWPOLYLINE
  5
4DC
100
AcDbEntity
  8
0
100
AcDbPolyline
 62
7
  6
CONTINUOUS
 90
6
 70
0
 10
4.1020565622
 20
6.0118979579
 10
4.1349904844
 20
6.0129551174
 10
4.1658186897
 20
6.0140122769
 10
4.1936657389
 20
6.0150694365
 10
4.2177408495
 20
6.016126596
 10
4.2373603522
 20
6.0171837555
  0
LWPOLYLINE
  5
4DD
100
AcDbEntity
  8
0
100
AcDbPolyline
 62
7
  6
CONTINUOUS
 90
9
 70
0
 10
4.0982922231
 20
6.051150098
 10
4.1315347863
 20
6.0522115462
 10
4.1627534825
 20
6.0532729944
 10
4.1910545934
 20
6.0543344426
 10
4.215627924
 20
6.0553958908
 10
4.2357699973
 20
6.056457339
 10
4.2509041926
 20
6.0575187872
 10
4.2605972532
 20
6.0585802354
 10
4.2643800429
 20
6.0595013588
  0
LWPOLYLINE
  5
4DE
100
AcDbEntity
  8
0
100
AcDbPolyline
 62
7
  6
CONTINUOUS
 90
10
 70
0
 10
4.0264748266
 20
6.088300785
 10
4.0952023799
 20
6.0904236814
 10
4.1285824018
 20
6.0914851296
 10
4.1600230766
 20
6.0925465778
 10
4.1886243312
 20
6.093608026
 10
4.2135673784
 20
6.0946694742
 10
4.2341381567
 20
6.0957309224
 10
4.2497477729
 20
6.0967923706
 10
4.25994936
 20
6.0978538188
 10
4.2643800429
 20
6.0988714375
  0
LINE
  5
4DF
100
AcDbEntity
  8
0
100
AcDbLine
 62
7
  6
CONTINUOUS
 10
4.000111546
 20
6.0087264793
 11
4.1020565622
 21
6.0118979579
  0
LWPOLYLINE
  5
4E0
100
AcDbEntity
  8
0
100
AcDbPolyline
 62
7
  6
CONTINUOUS
 90
10
 70
0
 10
4.0233849834
 20
6.1275743685
 10
4.0921043872
 20
6.1296972649
 10
4.1256139516
 20
6.1307587131
 10
4.1572691487
 20
6.1318201613
 10
4.1861637641
 20
6.1328816095
 10
4.2114706124
 20
6.1339430577
 10
4.2324652174
 20
6.1350045059
 10
4.2485465526
 20
6.1360659541
 10
4.2592542468
 20
6.1371274023
 10
4.2643800429
 20
6.1382415162
  0
LWPOLYLINE
  5
4E1
100
AcDbEntity
  8
0
100
AcDbPolyline
 62
7
  6
CONTINUOUS
 90
9
 70
0
 10
4.1341496878
 20
6.0706702319
 10
4.1687016354
 20
6.0716642047
 10
4.2001632876
 20
6.0726456291
 10
4.2280054702
 20
6.0736192218
 10
4.2518683921
 20
6.0745949987
 10
4.2712243813
 20
6.0755775562
 10
4.2853665543
 20
6.0765557377
 10
4.2940701777
 20
6.0775376301
 10
4.2968101566
 20
6.0782477814
  0
LWPOLYLINE
  5
4E2
100
AcDbEntity
  8
0
100
AcDbPolyline
 62
7
  6
CONTINUOUS
 90
9
 70
0
 10
3.9875296414
 20
6.1080542938
 10
3.9529811524
 20
6.1070604281
 10
3.9215225984
 20
6.1060791224
 10
3.893684103
 20
6.1051057089
 10
3.8698136199
 20
6.1041296844
 10
3.8504526728
 20
6.1031469013
 10
3.8363102454
 20
6.102168694
 10
3.8276070222
 20
6.1011868352
 10
3.8248670499
 20
6.100476685
  0
LWPOLYLINE
  5
4E3
100
AcDbEntity
  8
0
100
AcDbPolyline
 62
7
  6
CONTINUOUS
 90
9
 70
0
 10
3.9879775365
 20
6.0293266301
 10
3.9539485117
 20
6.0283490788
 10
3.9225107139
 20
6.02737136
 10
3.8942291062
 20
6.0263859778
 10
3.8697850172
 20
6.025388237
 10
3.8501794773
 20
6.0243907673
 10
3.8360449854
 20
6.0234057645
 10
3.8274844641
 20
6.0224259634
 10
3.8248670499
 20
6.0217365275
  0
LWPOLYLINE
  5
4E4
100
AcDbEntity
  8
0
100
AcDbPolyline
 62
7
  6
CONTINUOUS
 90
9
 70
0
 10
3.9876694684
 20
6.0686881163
 10
3.9532126575
 20
6.0676972498
 10
3.9218295435
 20
6.0667191198
 10
3.8937455958
 20
6.0657379382
 10
3.8694825586
 20
6.0647446529
 10
3.8500254699
 20
6.0637518041
 10
3.8359934106
 20
6.0627713858
 10
3.8274587321
 20
6.0617916374
 10
3.8248670499
 20
6.0611066063
  0
LWPOLYLINE
  5
4E5
100
AcDbEntity
  8
0
100
AcDbPolyline
 62
7
  6
CONTINUOUS
 90
9
 70
0
 10
4.1340061434
 20
6.1100363056
 10
4.1684747791
 20
6.1110275214
 10
4.1998698584
 20
6.1120060749
 10
4.2279449509
 20
6.1129870289
 10
4.2522008926
 20
6.113980096
 10
4.2716537831
 20
6.1149727826
 10
4.2856833146
 20
6.1159530389
 10
4.2942175976
 20
6.1169326786
 10
4.2968101566
 20
6.1176178601
  0
LWPOLYLINE
  5
4E6
100
AcDbEntity
  8
0
100
AcDbPolyline
 62
7
  6
CONTINUOUS
 90
6
 70
0
 10
4.1307029409
 20
6.0312042124
 10
4.16387579
 20
6.0321510661
 10
4.1943822767
 20
6.033087687
 10
4.221724779
 20
6.0340175779
 10
4.245665053
 20
6.0349531985
 10
4.2654115333
 20
6.0358845429
  0
LINE
  5
4E7
100
AcDbEntity
  8
0
100
AcDbLine
 62
7
  6
CONTINUOUS
 10
3.9884193545
 20
6.0273704425
 11
4.1307029409
 21
6.0312042124
  0
LINE
  5
4E8
100
AcDbEntity
  8
0
100
AcDbLine
 62
7
  6
CONTINUOUS
 10
4.1341496878
 20
6.0332686571
 11
3.9879775365
 21
6.0293266301
  0
LINE
  5
4E9
100
AcDbEntity
  8
0
100
AcDbLine
 62
7
  6
CONTINUOUS
 10
3.9879775365
 20
6.0667282049
 11
4.1341496878
 21
6.0706702319
  0
LINE
  5
4EA
100
AcDbEntity
  8
0
100
AcDbLine
 62
7
  6
CONTINUOUS
 10
4.1340061434
 20
6.0726347308
 11
3.9876694684
 21
6.0686881163
  0
LINE
  5
4EB
100
AcDbEntity
  8
0
100
AcDbLine
 62
7
  6
CONTINUOUS
 10
3.9876694684
 20
6.1060896911
 11
4.1340061434
 21
6.1100363056
  0
LINE
  5
4EC
100
AcDbEntity
  8
0
100
AcDbLine
 62
7
  6
CONTINUOUS
 10
4.133712114
 20
6.1119966085
 11
3.9875296414
 21
6.1080542938
  0
LINE
  5
4ED
100
AcDbEntity
  8
0
100
AcDbLine
 62
7
  6
CONTINUOUS
 10
3.82486705
 20
5.9404525058
 11
3.8567206246
 21
5.9220393987
  0
LINE
  5
4EE
100
AcDbEntity
  8
0
100
AcDbLine
 62
7
  6
CONTINUOUS
 10
3.82486705
 20
5.9798225845
 11
3.8567206246
 21
5.9614094775
  0
LINE
  5
4EF
100
AcDbEntity
  8
0
100
AcDbLine
 62
7
  6
CONTINUOUS
 10
3.82486705
 20
6.0191926633
 11
3.8567206246
 21
6.0007795562
  0
LWPOLYLINE
  5
4F0
100
AcDbEntity
  8
0
100
AcDbPolyline
 62
7
  6
CONTINUOUS
 90
4
 70
0
 10
3.8572971637
 20
6.1585931864
 10
3.8604794337
 20
6.1594178145
 10
3.8696616691
 20
6.1604792627
 10
3.8843168543
 20
6.1615407109
  0
LWPOLYLINE
  5
4F1
100
AcDbEntity
  8
0
100
AcDbPolyline
 62
7
  6
CONTINUOUS
 90
9
 70
0
 10
3.8572971637
 20
6.1192231077
 10
3.8610799533
 20
6.120144231
 10
3.8707730139
 20
6.1212056792
 10
3.8859072092
 20
6.1222671274
 10
3.9060492825
 20
6.1233285756
 10
3.9306226131
 20
6.1243900238
 10
3.958923724
 20
6.125451472
 10
3.9901424203
 20
6.1265129202
 10
4.0233849834
 20
6.1275743685
  0
LWPOLYLINE
  5
4F2
100
AcDbEntity
  8
0
100
AcDbPolyline
 62
7
  6
CONTINUOUS
 90
9
 70
0
 10
3.8572971637
 20
6.0798530289
 10
3.8617278465
 20
6.0808706476
 10
3.8719294336
 20
6.0819320958
 10
3.8875390498
 20
6.082993544
 10
3.9081098282
 20
6.0840549922
 10
3.9330528753
 20
6.0851164404
 10
3.9616541299
 20
6.0861778886
 10
3.9930948047
 20
6.0872393368
 10
4.0264748266
 20
6.088300785
  0
LWPOLYLINE
  5
4F3
100
AcDbEntity
  8
02___PRT_ALL_AXES
100
AcDbPolyline
 62
7
  6
CONTINUOUS
 90
5
 70
0
 10
4.2868225123
 20
6.2891913486
 10
4.2571744526
 20
6.2825259072
 10
4.2261165391
 20
6.2763621778
 10
4.1948940245
 20
6.2710567703
 10
4.1645359827
 20
6.2667960266
  0
LWPOLYLINE
  5
4F4
100
AcDbEntity
  8
0
100
AcDbPolyline
 62
7
  6
CONTINUOUS
 90
4
 70
0
 10
3.8248184554
 20
6.1772187301
 10
3.8295053248
 20
6.1782374619
 10
3.8400907692
 20
6.1792411285
 10
3.8562656732
 20
6.1802414983
  0
LWPOLYLINE
  5
4F5
100
AcDbEntity
  8
0
100
AcDbPolyline
 62
7
  6
CONTINUOUS
 90
3
 70
0
 10
3.8361927895
 20
6.1808976663
 10
3.8275930608
 20
6.1799246545
 10
3.8248670499
 20
6.1792168425
  0
LWPOLYLINE
  5
4F6
100
AcDbEntity
  8
0
100
AcDbPolyline
 62
7
  6
CONTINUOUS
 90
8
 70
0
 10
3.8276070222
 20
6.13858841
 10
3.8363102454
 20
6.1395702688
 10
3.8504526728
 20
6.1405484761
 10
3.8698136199
 20
6.1415312592
 10
3.893684103
 20
6.1425072837
 10
3.9215225984
 20
6.1434806972
 10
3.9529811524
 20
6.1444620029
 10
3.9875296414
 20
6.1454558686
  0
LWPOLYLINE
  5
4F7
100
AcDbEntity
  8
0
100
AcDbPolyline
 62
7
  6
CONTINUOUS
 90
4
 70
0
 10
3.8562656732
 20
6.1428399235
 10
3.8400907692
 20
6.1418395537
 10
3.8295053248
 20
6.1408358871
 10
3.8248670499
 20
6.1398467638
  0
LWPOLYLINE
  5
4F8
100
AcDbEntity
  8
0
100
AcDbPolyline
 62
7
  6
CONTINUOUS
 90
6
 70
0
 10
3.8843168543
 20
6.1615407109
 10
3.9040254457
 20
6.1626021591
 10
3.9282232322
 20
6.1636636073
 10
3.9562174876
 20
6.1647250555
 10
3.9872068017
 20
6.1657865037
 10
4.0203040225
 20
6.1668479519
  0
LINE
  5
4F9
100
AcDbEntity
  8
0
100
AcDbLine
 62
7
  6
CONTINUOUS
 10
3.8562656732
 20
6.1802414983
 11
3.8701774816
 21
6.1808976663
  0
LWPOLYLINE
  5
4FA
100
AcDbEntity
  8
0
100
AcDbPolyline
 62
7
  6
CONTINUOUS
 90
9
 70
0
 10
4.1226301396
 20
6.1700322965
 10
4.1544923519
 20
6.1710937447
 10
4.1836734757
 20
6.1721551929
 10
4.2093381234
 20
6.1732166411
 10
4.2307515761
 20
6.1742780893
 10
4.2473008166
 20
6.1753395375
 10
4.2585120785
 20
6.1764009857
 10
4.2640644098
 20
6.1774624339
 10
4.2643800429
 20
6.177611595
  0
LINE
  5
4FB
100
AcDbEntity
  8
0
100
AcDbLine
 62
7
  6
CONTINUOUS
 10
4.0203040225
 20
6.1668479519
 11
4.1226301396
 21
6.1700322965
  0
LWPOLYLINE
  5
4FC
100
AcDbEntity
  8
0
100
AcDbPolyline
 62
7
  6
CONTINUOUS
 90
9
 70
0
 10
4.133712114
 20
6.1493981833
 10
4.1677441026
 20
6.1503758459
 10
4.1991759193
 20
6.1513534149
 10
4.2274544717
 20
6.1523387271
 10
4.2518962927
 20
6.1533364145
 10
4.2715009509
 20
6.154333888
 10
4.2856345378
 20
6.1553189019
 10
4.2941944174
 20
6.1562987892
 10
4.2968101566
 20
6.1569879388
  0
LWPOLYLINE
  5
4FD
100
AcDbEntity
  8
0
100
AcDbPolyline
 62
7
  6
CONTINUOUS
 90
6
 70
0
 10
3.9909651079
 20
6.1475199997
 10
3.9577910174
 20
6.1465730938
 10
3.9272800058
 20
6.1456362995
 10
3.8999429644
 20
6.1447065456
 10
3.8760070676
 20
6.1437710512
 10
3.8562656732
 20
6.1428399235
  0
LINE
  5
4FE
100
AcDbEntity
  8
0
100
AcDbLine
 62
7
  6
CONTINUOUS
 10
3.9875296414
 20
6.1454558686
 11
4.133712114
 21
6.1493981833
  0
LINE
  5
4FF
100
AcDbEntity
  8
0
100
AcDbLine
 62
7
  6
CONTINUOUS
 10
4.1332526509
 20
6.1513538789
 11
3.9909651079
 21
6.1475199997
  0
LWPOLYLINE
  5
500
100
AcDbEntity
  8
02___PRT_ALL_AXES
100
AcDbPolyline
 62
7
  6
CONTINUOUS
 90
10
 70
0
 10
4.1645359827
 20
6.2667960266
 10
4.2503107233
 20
6.2683153585
 10
4.3314741908
 20
6.2698411289
 10
4.4050709723
 20
6.2713570612
 10
4.470298908
 20
6.2728874133
 10
4.525132955
 20
6.2744315893
 10
4.5672877296
 20
6.2759681913
 10
4.5956382617
 20
6.2774837016
 10
4.6101952736
 20
6.2790159812
 10
4.611779453
 20
6.2795034038
  0
LINE
  5
501
100
AcDbEntity
  8
0
100
AcDbLine
 62
7
  6
CONTINUOUS
 10
4.5726496269
 20
6.1808976663
 11
3.5490275796
 21
6.1808976663
  0
LINE
  5
502
100
AcDbEntity
  8
0
100
AcDbLine
 62
9
  6
CONTINUOUS
 10
3.5096575009
 20
6.220267745
 11
4.6120197056
 21
6.220267745
  0
LWPOLYLINE
  5
503
100
AcDbEntity
  8
02___PRT_ALL_AXES
100
AcDbPolyline
 62
7
  6
CONTINUOUS
 90
4
 70
0
 10
3.9571412238
 20
6.2632382633
 10
3.9166117733
 20
6.267789717
 10
3.875827993
 20
6.2739883148
 10
3.8348546942
 20
6.2817575272
  0
LINE
  5
504
100
AcDbEntity
  8
0
100
AcDbLine
 62
7
  6
CONTINUOUS
 10
3.4744501881
 20
6.2704498918
 11
3.5098977535
 21
6.2499758447
  0
LINE
  5
505
100
AcDbEntity
  8
0
100
AcDbLine
 62
7
  6
CONTINUOUS
 10
3.4744501881
 20
6.3295050099
 11
3.5098977535
 21
6.3090309628
  0
LINE
  5
506
100
AcDbEntity
  8
0
100
AcDbLine
 62
7
  6
CONTINUOUS
 10
3.4744501881
 20
6.388560128
 11
3.5098977535
 21
6.3680860809
  0
LINE
  5
507
100
AcDbEntity
  8
0
100
AcDbLine
 62
7
  6
CONTINUOUS
 10
3.82486705
 20
6.058562742
 11
3.8567206246
 21
6.0401496349
  0
LINE
  5
508
100
AcDbEntity
  8
0
100
AcDbLine
 62
7
  6
CONTINUOUS
 10
3.82486705
 20
6.0979328207
 11
3.8567206246
 21
6.0795197137
  0
LINE
  5
509
100
AcDbEntity
  8
0
100
AcDbLine
 62
7
  6
CONTINUOUS
 10
3.82486705
 20
6.1373028995
 11
3.8567206246
 21
6.1188897924
  0
LINE
  5
50A
100
AcDbEntity
  8
0
100
AcDbLine
 62
7
  6
CONTINUOUS
 10
3.82486705
 20
6.1766729782
 11
3.8567206246
 21
6.1582598712
  0
LINE
  5
50B
100
AcDbEntity
  8
0
100
AcDbLine
 62
7
  6
CONTINUOUS
 10
4.2968101566
 20
5.9233113307
 11
4.2649565819
 21
5.9417244381
  0
LINE
  5
50C
100
AcDbEntity
  8
0
100
AcDbLine
 62
7
  6
CONTINUOUS
 10
4.2782672498
 20
5.8946592577
 11
4.2649565819
 21
5.9023543594
  0
LINE
  5
50D
100
AcDbEntity
  8
0
100
AcDbLine
 62
7
  6
CONTINUOUS
 10
3.8443031004
 20
5.8934960915
 11
3.8308579913
 21
5.9069411963
  0
LWPOLYLINE
  5
50E
100
AcDbEntity
  8
02___PRT_ALL_AXES
100
AcDbPolyline
 62
7
  6
CONTINUOUS
 90
4
 70
0
 10
4.2868225123
 20
6.3482464667
 10
4.2458468116
 20
6.3392334443
 10
4.2050662292
 20
6.3317395064
 10
4.1645359827
 20
6.3258511447
  0
LWPOLYLINE
  5
50F
100
AcDbEntity
  8
02___PRT_ALL_AXES
100
AcDbPolyline
 62
7
  6
CONTINUOUS
 90
4
 70
0
 10
3.8348546942
 20
6.289139417
 10
3.8758237412
 20
6.2981510937
 10
3.9166037479
 20
6.3056451855
 10
3.9571412238
 20
6.311534739
  0
LWPOLYLINE
  5
510
100
AcDbEntity
  8
02___PRT_ALL_AXES
100
AcDbPolyline
 62
7
  6
CONTINUOUS
 90
4
 70
0
 10
4.2868225123
 20
6.4073015848
 10
4.2458468117
 20
6.3982885624
 10
4.2050662292
 20
6.3907946245
 10
4.1645359827
 20
6.3849062628
  0
LWPOLYLINE
  5
511
100
AcDbEntity
  8
02___PRT_ALL_AXES
100
AcDbPolyline
 62
7
  6
CONTINUOUS
 90
5
 70
0
 10
4.4708688445
 20
6.3802535376
 10
4.4055153097
 20
6.3787183608
 10
4.3320928754
 20
6.3772048375
 10
4.2511432875
 20
6.3756820753
 10
4.1645359827
 20
6.3741476205
  0
LINE
  5
512
100
AcDbEntity
  8
02___PRT_ALL_AXES
100
AcDbLine
 62
7
  6
CONTINUOUS
 10
3.6141428009
 20
6.3437757876
 11
3.6813650906
 21
6.3452964559
  0
LWPOLYLINE
  5
513
100
AcDbEntity
  8
02___PRT_ALL_AXES
100
AcDbPolyline
 62
7
  6
CONTINUOUS
 90
3
 70
0
 10
3.6813650906
 20
6.3452964559
 10
3.7531368667
 20
6.3467216193
 10
3.8348546942
 20
6.3481945351
  0
LWPOLYLINE
  5
514
100
AcDbEntity
  8
02___PRT_ALL_AXES
100
AcDbPolyline
 62
7
  6
CONTINUOUS
 90
9
 70
0
 10
4.2868225123
 20
6.2891913486
 10
4.3685403398
 20
6.2906642645
 10
4.4427169495
 20
6.2921371803
 10
4.5075344056
 20
6.2936100962
 10
4.5614041486
 20
6.295083012
 10
4.6030059276
 20
6.2965559278
 10
4.6313201576
 20
6.2980288437
 10
4.6456529076
 20
6.2995017595
 10
4.6472270185
 20
6.2999774509
  0
LWPOLYLINE
  5
515
100
AcDbEntity
  8
02___PRT_ALL_AXES
100
AcDbPolyline
 62
7
  6
CONTINUOUS
 90
9
 70
0
 10
4.2868225123
 20
6.2965732384
 10
4.3685403398
 20
6.2980461542
 10
4.4427169495
 20
6.2995190701
 10
4.5075344056
 20
6.3009919859
 10
4.5614041486
 20
6.3024649018
 10
4.6030059276
 20
6.3039378176
 10
4.6313201576
 20
6.3054107335
 10
4.6456529076
 20
6.3068836493
 10
4.6474527765
 20
6.3076201072
  0
LWPOLYLINE
  5
516
100
AcDbEntity
  8
02___PRT_ALL_AXES
100
AcDbPolyline
 62
7
  6
CONTINUOUS
 90
9
 70
0
 10
4.2868225123
 20
6.3482464667
 10
4.3685403398
 20
6.3497193826
 10
4.4427169495
 20
6.3511922984
 10
4.5075344056
 20
6.3526652143
 10
4.5614041486
 20
6.3541381301
 10
4.6030059276
 20
6.355611046
 10
4.6313201576
 20
6.3570839618
 10
4.6456529076
 20
6.3585568776
 10
4.6472270185
 20
6.359032569
  0
LWPOLYLINE
  5
517
100
AcDbEntity
  8
02___PRT_ALL_AXES
100
AcDbPolyline
 62
7
  6
CONTINUOUS
 90
9
 70
0
 10
4.2868225123
 20
6.3556283565
 10
4.3685403398
 20
6.3571012723
 10
4.4427169495
 20
6.3585741882
 10
4.5075344056
 20
6.360047104
 10
4.5614041486
 20
6.3615200199
 10
4.6030059276
 20
6.3629929357
 10
4.6313201576
 20
6.3644658516
 10
4.6456529076
 20
6.3659387674
 10
4.6474527765
 20
6.3666752253
  0
LWPOLYLINE
  5
518
100
AcDbEntity
  8
02___PRT_ALL_AXES
100
AcDbPolyline
 62
7
  6
CONTINUOUS
 90
9
 70
0
 10
4.2868225123
 20
6.4073015848
 10
4.3685403398
 20
6.4087745007
 10
4.4427169495
 20
6.4102474165
 10
4.5075344056
 20
6.4117203324
 10
4.5614041486
 20
6.4131932482
 10
4.6030059276
 20
6.4146661641
 10
4.6313201576
 20
6.4161390799
 10
4.6456529076
 20
6.4176119958
 10
4.6472270185
 20
6.4180876871
  0
LWPOLYLINE
  5
519
100
AcDbEntity
  8
02___PRT_ALL_AXES
100
AcDbPolyline
 62
7
  6
CONTINUOUS
 90
9
 70
0
 10
4.2868225123
 20
6.4146834746
 10
4.3685403398
 20
6.4161563904
 10
4.4427169495
 20
6.4176293063
 10
4.5075344056
 20
6.4191022221
 10
4.5614041486
 20
6.420575138
 10
4.6030059276
 20
6.4220480538
 10
4.6313201576
 20
6.4235209697
 10
4.6456529076
 20
6.4249938855
 10
4.6474527765
 20
6.4257303434
  0
LWPOLYLINE
  5
51A
100
AcDbEntity
  8
02___PRT_ALL_AXES
100
AcDbPolyline
 62
7
  6
CONTINUOUS
 90
10
 70
0
 10
3.9571412238
 20
6.311534739
 10
3.8699074859
 20
6.3099888995
 10
3.7881292142
 20
6.3084489937
 10
3.7146309489
 20
6.3069304964
 10
3.6502172782
 20
6.3054137258
 10
3.5965737994
 20
6.3039001112
 10
3.5548643646
 20
6.3023830432
 10
3.526337525
 20
6.3008680108
 10
3.5115655943
 20
6.2993321364
 10
3.5098977535
 20
6.2988273619
  0
LWPOLYLINE
  5
51B
100
AcDbEntity
  8
02___PRT_ALL_AXES
100
AcDbPolyline
 62
7
  6
CONTINUOUS
 90
10
 70
0
 10
4.1645359827
 20
6.3258511447
 10
4.2511432875
 20
6.3273855996
 10
4.3320928754
 20
6.3289083617
 10
4.4055153097
 20
6.330421885
 10
4.4708688445
 20
6.3319570619
 10
4.5257247874
 20
6.3335054635
 10
4.5678114913
 20
6.3350460059
 10
4.5959998524
 20
6.3365644402
 10
4.610265391
 20
6.3380859506
 10
4.611779453
 20
6.3385585219
  0
LWPOLYLINE
  5
51C
100
AcDbEntity
  8
02___PRT_ALL_AXES
100
AcDbPolyline
 62
7
  6
CONTINUOUS
 90
10
 70
0
 10
3.9571412238
 20
6.3705898571
 10
3.8700226261
 20
6.3690461105
 10
3.7883908351
 20
6.3675092446
 10
3.7149168678
 20
6.3659918786
 10
3.649831069
 20
6.3644589656
 10
3.5952417618
 20
6.3629129385
 10
3.5534091615
 20
6.3613751065
 10
3.5254247379
 20
6.3598584931
 10
3.5113096676
 20
6.3583328748
 10
3.5098977535
 20
6.35788248
  0
LWPOLYLINE
  5
51D
100
AcDbEntity
  8
02___PRT_ALL_AXES
100
AcDbPolyline
 62
7
  6
CONTINUOUS
 90
10
 70
0
 10
4.1645359827
 20
6.3849062628
 10
4.2517114065
 20
6.3864510423
 10
4.3334462263
 20
6.3879900114
 10
4.406885201
 20
6.3895069765
 10
4.4711058667
 20
6.3910182302
 10
4.5249274923
 20
6.3925353277
 10
4.5668329446
 20
6.394058823
 10
4.5953519925
 20
6.3955738511
 10
4.6101105691
 20
6.3971086515
 10
4.611779453
 20
6.39761364
  0
LWPOLYLINE
  5
51E
100
AcDbEntity
  8
02___PRT_ALL_AXES
100
AcDbPolyline
 62
7
  6
CONTINUOUS
 90
4
 70
0
 10
3.9571412238
 20
6.3222933814
 10
3.9166117733
 20
6.3268448351
 10
3.875827993
 20
6.3330434329
 10
3.8348546942
 20
6.3408126453
  0
LWPOLYLINE
  5
51F
100
AcDbEntity
  8
02___PRT_ALL_AXES
100
AcDbPolyline
 62
7
  6
CONTINUOUS
 90
4
 70
0
 10
3.9571412238
 20
6.3813484995
 10
3.9166217987
 20
6.3858986257
 10
3.875839002
 20
6.3920966667
 10
3.8348546942
 20
6.3998677635
  0
LWPOLYLINE
  5
520
100
AcDbEntity
  8
02___PRT_ALL_AXES
100
AcDbPolyline
 62
7
  6
CONTINUOUS
 90
4
 70
0
 10
4.1645359827
 20
6.3741476205
 10
4.2050729964
 20
6.3695951651
 10
4.2458561322
 20
6.3633963847
 10
4.2868225123
 20
6.3556283565
  0
LWPOLYLINE
  5
521
100
AcDbEntity
  8
02___PRT_ALL_AXES
100
AcDbPolyline
 62
7
  6
CONTINUOUS
 90
4
 70
0
 10
4.1645359827
 20
6.3150925023
 10
4.2053423273
 20
6.3105043435
 10
4.2468859561
 20
6.3041644986
 10
4.2868225123
 20
6.2965732384
  0
LINE
  5
522
100
AcDbEntity
  8
0
100
AcDbLine
 62
7
  6
CONTINUOUS
 10
3.4744501881
 20
6.4476152462
 11
3.5098977535
 21
6.427141199
  0
LINE
  5
523
100
AcDbEntity
  8
0
100
AcDbLine
 62
7
  6
CONTINUOUS
 10
3.4744501881
 20
6.5066703643
 11
3.5098977535
 21
6.4861963171
  0
LINE
  5
524
100
AcDbEntity
  8
0
100
AcDbLine
 62
7
  6
CONTINUOUS
 10
3.4744501881
 20
6.5657254824
 11
3.5098977535
 21
6.5452514353
  0
LINE
  5
525
100
AcDbEntity
  8
0
100
AcDbLine
 62
7
  6
CONTINUOUS
 10
4.2968101566
 20
5.9626814094
 11
4.2649565819
 21
5.9810945168
  0
LINE
  5
526
100
AcDbEntity
  8
0
100
AcDbLine
 62
7
  6
CONTINUOUS
 10
4.2968101566
 20
6.0020514882
 11
4.2649565819
 21
6.0204645956
  0
LINE
  5
527
100
AcDbEntity
  8
0
100
AcDbLine
 62
7
  6
CONTINUOUS
 10
4.2968101566
 20
6.0414215669
 11
4.2649565819
 21
6.0598346743
  0
LINE
  5
528
100
AcDbEntity
  8
0
100
AcDbLine
 62
7
  6
CONTINUOUS
 10
4.2968101566
 20
6.0807916456
 11
4.2649565819
 21
6.0992047531
  0
LINE
  5
529
100
AcDbEntity
  8
02___PRT_ALL_AXES
100
AcDbLine
 62
7
  6
CONTINUOUS
 10
3.4744501881
 20
6.2704498918
 11
3.47422443
 21
6.2707106584
  0
LINE
  5
52A
100
AcDbEntity
  8
02___PRT_ALL_AXES
100
AcDbLine
 62
7
  6
CONTINUOUS
 10
3.4744501881
 20
6.3295050099
 11
3.47422443
 21
6.3297657765
  0
LINE
  5
52B
100
AcDbEntity
  8
02___PRT_ALL_AXES
100
AcDbLine
 62
7
  6
CONTINUOUS
 10
3.4744501881
 20
6.388560128
 11
3.47422443
 21
6.3888208946
  0
LINE
  5
52C
100
AcDbEntity
  8
02___PRT_ALL_AXES
100
AcDbLine
 62
7
  6
CONTINUOUS
 10
3.4744501881
 20
6.4476152462
 11
3.47422443
 21
6.4478760127
  0
LINE
  5
52D
100
AcDbEntity
  8
0
100
AcDbLine
 62
7
  6
CONTINUOUS
 10
3.82486705
 20
5.9404525058
 11
3.8246181308
 21
5.9407401859
  0
LINE
  5
52E
100
AcDbEntity
  8
0
100
AcDbLine
 62
7
  6
CONTINUOUS
 10
3.82486705
 20
5.9798225845
 11
3.8246181308
 21
5.9801102646
  0
LINE
  5
52F
100
AcDbEntity
  8
0
100
AcDbLine
 62
7
  6
CONTINUOUS
 10
3.82486705
 20
6.058562742
 11
3.8246181308
 21
6.0588504158
  0
LINE
  5
530
100
AcDbEntity
  8
0
100
AcDbLine
 62
7
  6
CONTINUOUS
 10
3.82486705
 20
6.0191926633
 11
3.8246181308
 21
6.0194803767
  0
LWPOLYLINE
  5
531
100
AcDbEntity
  8
02___PRT_ALL_AXES
100
AcDbPolyline
 62
7
  6
CONTINUOUS
 90
5
 70
0
 10
4.2868225123
 20
6.5254118211
 10
4.2574959823
 20
6.5188146511
 10
4.2268158993
 20
6.5127118867
 10
4.1955770705
 20
6.507383435
 10
4.1645359827
 20
6.503016499
  0
LWPOLYLINE
  5
532
100
AcDbEntity
  8
02___PRT_ALL_AXES
100
AcDbPolyline
 62
7
  6
CONTINUOUS
 90
4
 70
0
 10
3.8348546942
 20
6.3481945351
 10
3.8758237412
 20
6.3572062118
 10
3.9166037479
 20
6.3647003036
 10
3.9571412238
 20
6.3705898571
  0
LWPOLYLINE
  5
533
100
AcDbEntity
  8
02___PRT_ALL_AXES
100
AcDbPolyline
 62
7
  6
CONTINUOUS
 90
4
 70
0
 10
4.2868225123
 20
6.4663567029
 10
4.2458468116
 20
6.4573436805
 10
4.2050662292
 20
6.4498497426
 10
4.1645359827
 20
6.4439613809
  0
LWPOLYLINE
  5
534
100
AcDbEntity
  8
02___PRT_ALL_AXES
100
AcDbPolyline
 62
7
  6
CONTINUOUS
 90
4
 70
0
 10
3.8348546942
 20
6.4072496532
 10
3.8758321272
 20
6.4162630261
 10
3.9166112862
 20
6.4237566645
 10
3.9571412238
 20
6.4296449753
  0
LWPOLYLINE
  5
535
100
AcDbEntity
  8
02___PRT_ALL_AXES
100
AcDbPolyline
 62
7
  6
CONTINUOUS
 90
4
 70
0
 10
3.8348546942
 20
6.4663047713
 10
3.8758237412
 20
6.475316448
 10
3.9166037479
 20
6.4828105399
 10
3.9571412238
 20
6.4887000934
  0
LWPOLYLINE
  5
536
100
AcDbEntity
  8
02___PRT_ALL_AXES
100
AcDbPolyline
 62
7
  6
CONTINUOUS
 90
5
 70
0
 10
3.5835017665
 20
6.4806364553
 10
3.5462193675
 20
6.4791578238
 10
3.5215913258
 20
6.4776745908
 10
3.5103003444
 20
6.4761691793
 10
3.5098977535
 20
6.4759927162
  0
LWPOLYLINE
  5
537
100
AcDbEntity
  8
02___PRT_ALL_AXES
100
AcDbPolyline
 62
7
  6
CONTINUOUS
 90
7
 70
0
 10
3.5835017665
 20
6.4323399796
 10
3.6273090275
 20
6.4336746352
 10
3.6801217402
 20
6.4350158561
 10
3.7402739902
 20
6.4363486966
 10
3.8072829422
 20
6.4376896263
 10
3.8802537164
 20
6.4390451722
 10
3.9571412238
 20
6.4404036176
  0
LWPOLYLINE
  5
538
100
AcDbEntity
  8
02___PRT_ALL_AXES
100
AcDbPolyline
 62
7
  6
CONTINUOUS
 90
5
 70
0
 10
3.552815827
 20
6.4527972726
 10
3.6071227985
 20
6.4543286748
 10
3.6734481552
 20
6.4558600771
 10
3.7500350184
 20
6.4573914793
 10
3.8348546942
 20
6.4589228816
  0
LWPOLYLINE
  5
539
100
AcDbEntity
  8
02___PRT_ALL_AXES
100
AcDbPolyline
 62
7
  6
CONTINUOUS
 90
5
 70
0
 10
3.552815827
 20
6.4601791623
 10
3.6071227985
 20
6.4617105646
 10
3.6734481552
 20
6.4632419668
 10
3.7500350184
 20
6.4647733691
 10
3.8348546942
 20
6.4663047713
  0
LWPOLYLINE
  5
53A
100
AcDbEntity
  8
02___PRT_ALL_AXES
100
AcDbPolyline
 62
7
  6
CONTINUOUS
 90
7
 70
0
 10
4.4064748675
 20
6.4485531084
 10
4.4713736511
 20
6.450080189
 10
4.5256776812
 20
6.4516142047
 10
4.5673165599
 20
6.4531347916
 10
4.5956096129
 20
6.4546470379
 10
4.6102024263
 20
6.4561828373
 10
4.611779453
 20
6.4566687581
  0
LWPOLYLINE
  5
53B
100
AcDbEntity
  8
02___PRT_ALL_AXES
100
AcDbPolyline
 62
7
  6
CONTINUOUS
 90
9
 70
0
 10
4.2868225123
 20
6.4663567029
 10
4.3685403398
 20
6.4678296188
 10
4.4427169495
 20
6.4693025346
 10
4.5075344056
 20
6.4707754505
 10
4.5614041486
 20
6.4722483663
 10
4.6030059276
 20
6.4737212822
 10
4.6313201576
 20
6.475194198
 10
4.6456529076
 20
6.4766671139
 10
4.6472270185
 20
6.4771428052
  0
LWPOLYLINE
  5
53C
100
AcDbEntity
  8
02___PRT_ALL_AXES
100
AcDbPolyline
 62
7
  6
CONTINUOUS
 90
9
 70
0
 10
4.2868225123
 20
6.4737385927
 10
4.3685403398
 20
6.4752115086
 10
4.4427169495
 20
6.4766844244
 10
4.5075344056
 20
6.4781573402
 10
4.5614041486
 20
6.4796302561
 10
4.6030059276
 20
6.4811031719
 10
4.6313201576
 20
6.4825760878
 10
4.6456529076
 20
6.4840490036
 10
4.6474527765
 20
6.4847854615
  0
LWPOLYLINE
  5
53D
100
AcDbEntity
  8
02___PRT_ALL_AXES
100
AcDbPolyline
 62
7
  6
CONTINUOUS
 90
9
 70
0
 10
4.2868225123
 20
6.5254118211
 10
4.3685403398
 20
6.5268847369
 10
4.4427169495
 20
6.5283576527
 10
4.5075344056
 20
6.5298305686
 10
4.5614041486
 20
6.5313034844
 10
4.6030059276
 20
6.5327764003
 10
4.6313201576
 20
6.5342493161
 10
4.6456529076
 20
6.535722232
 10
4.6472270185
 20
6.5361979233
  0
LWPOLYLINE
  5
53E
100
AcDbEntity
  8
02___PRT_ALL_AXES
100
AcDbPolyline
 62
7
  6
CONTINUOUS
 90
9
 70
0
 10
4.2868225123
 20
6.5327937108
 10
4.3685403398
 20
6.5342666267
 10
4.4427169495
 20
6.5357395425
 10
4.5075344056
 20
6.5372124584
 10
4.5614041486
 20
6.5386853742
 10
4.6030059276
 20
6.54015829
 10
4.6313201576
 20
6.5416312059
 10
4.6456529076
 20
6.5431041217
 10
4.6474527765
 20
6.5438405797
  0
LWPOLYLINE
  5
53F
100
AcDbEntity
  8
02___PRT_ALL_AXES
100
AcDbPolyline
 62
7
  6
CONTINUOUS
 90
10
 70
0
 10
3.9571412238
 20
6.4296449753
 10
3.8717107793
 20
6.4281318946
 10
3.7908844432
 20
6.4266132062
 10
3.7172310505
 20
6.425097575
 10
3.6518604023
 20
6.4235658603
 10
3.5968889926
 20
6.422020311
 10
3.5546104605
 20
6.4204823484
 10
3.5261857432
 20
6.4189676221
 10
3.5116148411
 20
6.4174524095
 10
3.5098977535
 20
6.4169375981
  0
LWPOLYLINE
  5
540
100
AcDbEntity
  8
02___PRT_ALL_AXES
100
AcDbPolyline
 62
7
  6
CONTINUOUS
 90
4
 70
0
 10
4.1645359827
 20
6.4439613809
 10
4.2513155175
 20
6.4454989654
 10
4.3329047048
 20
6.4470345082
 10
4.4064748675
 20
6.4485531084
  0
LWPOLYLINE
  5
541
100
AcDbEntity
  8
02___PRT_ALL_AXES
100
AcDbPolyline
 62
7
  6
CONTINUOUS
 90
7
 70
0
 10
3.9571412238
 20
6.4887000934
 10
3.8802537164
 20
6.487341648
 10
3.8072829422
 20
6.485986102
 10
3.7402739902
 20
6.4846451724
 10
3.6801217402
 20
6.4833123319
 10
3.6273090275
 20
6.481971111
 10
3.5835017665
 20
6.4806364553
  0
LWPOLYLINE
  5
542
100
AcDbEntity
  8
02___PRT_ALL_AXES
100
AcDbPolyline
 62
7
  6
CONTINUOUS
 90
10
 70
0
 10
4.1645359827
 20
6.503016499
 10
4.2504855513
 20
6.5045390058
 10
4.331000171
 20
6.5060523252
 10
4.4046281814
 20
6.5075678697
 10
4.4700599186
 20
6.5091018001
 10
4.5250488815
 20
6.510649402
 10
4.5673049837
 20
6.5121894094
 10
4.595672459
 20
6.513706585
 10
4.6101204802
 20
6.5152209227
 10
4.611779453
 20
6.5157238762
  0
LWPOLYLINE
  5
543
100
AcDbEntity
  8
02___PRT_ALL_AXES
100
AcDbPolyline
 62
7
  6
CONTINUOUS
 90
4
 70
0
 10
3.9571412238
 20
6.4404036176
 10
3.9166117733
 20
6.4449550713
 10
3.875827993
 20
6.4511536691
 10
3.8348546942
 20
6.4589228816
  0
LWPOLYLINE
  5
544
100
AcDbEntity
  8
02___PRT_ALL_AXES
100
AcDbPolyline
 62
7
  6
CONTINUOUS
 90
4
 70
0
 10
4.1645359827
 20
6.4332027386
 10
4.2050729964
 20
6.4286502832
 10
4.2458561322
 20
6.4224515028
 10
4.2868225123
 20
6.4146834746
  0
LWPOLYLINE
  5
545
100
AcDbEntity
  8
02___PRT_ALL_AXES
100
AcDbPolyline
 62
7
  6
CONTINUOUS
 90
4
 70
0
 10
3.9571412238
 20
6.4994587357
 10
3.9166117733
 20
6.5040101894
 10
3.875827993
 20
6.5102087872
 10
3.8348546942
 20
6.5179779997
  0
LWPOLYLINE
  5
546
100
AcDbEntity
  8
02___PRT_ALL_AXES
100
AcDbPolyline
 62
7
  6
CONTINUOUS
 90
4
 70
0
 10
4.1645359827
 20
6.4922578567
 10
4.2050729964
 20
6.4877054014
 10
4.2458561322
 20
6.4815066209
 10
4.2868225123
 20
6.4737385927
  0
LINE
  5
547
100
AcDbEntity
  8
0
100
AcDbLine
 62
7
  6
CONTINUOUS
 10
3.4744501881
 20
6.6247806005
 11
3.5098977535
 21
6.6043065534
  0
LINE
  5
548
100
AcDbEntity
  8
0
100
AcDbLine
 62
7
  6
CONTINUOUS
 10
3.4744501881
 20
6.6838357186
 11
3.5098977535
 21
6.6633616715
  0
LINE
  5
549
100
AcDbEntity
  8
0
100
AcDbLine
 62
7
  6
CONTINUOUS
 10
4.2968101566
 20
6.1201617244
 11
4.2649565819
 21
6.1385748318
  0
LINE
  5
54A
100
AcDbEntity
  8
0
100
AcDbLine
 62
7
  6
CONTINUOUS
 10
4.2968101566
 20
6.1595318031
 11
4.2649565819
 21
6.1779449105
  0
LINE
  5
54B
100
AcDbEntity
  8
02___PRT_ALL_AXES
100
AcDbLine
 62
7
  6
CONTINUOUS
 10
3.4744501881
 20
6.5066703643
 11
3.47422443
 21
6.5069311308
  0
LINE
  5
54C
100
AcDbEntity
  8
02___PRT_ALL_AXES
100
AcDbLine
 62
7
  6
CONTINUOUS
 10
3.4744501881
 20
6.5657254824
 11
3.47422443
 21
6.565986249
  0
LINE
  5
54D
100
AcDbEntity
  8
02___PRT_ALL_AXES
100
AcDbLine
 62
7
  6
CONTINUOUS
 10
3.4744501881
 20
6.6247806005
 11
3.47422443
 21
6.6250413671
  0
LINE
  5
54E
100
AcDbEntity
  8
0
100
AcDbLine
 62
7
  6
CONTINUOUS
 10
3.82486705
 20
6.0979328207
 11
3.8246181308
 21
6.0982204793
  0
LINE
  5
54F
100
AcDbEntity
  8
0
100
AcDbLine
 62
7
  6
CONTINUOUS
 10
3.82486705
 20
6.1373028995
 11
3.8246181308
 21
6.1375905796
  0
LINE
  5
550
100
AcDbEntity
  8
0
100
AcDbLine
 62
7
  6
CONTINUOUS
 10
3.82486705
 20
6.1766729782
 11
3.8246181308
 21
6.1769606646
  0
LINE
  5
551
100
AcDbEntity
  8
02___PRT_ALL_AXES
100
AcDbLine
 62
7
  6
CONTINUOUS
 10
3.0765866348
 20
7.9289291623
 11
3.0765866348
 21
7.6179055403
  0
LINE
  5
552
100
AcDbEntity
  8
AXIS
100
AcDbLine
 62
7
  6
CONTINUOUS
 10
3.0765866348
 20
7.9289291623
 11
3.0765866348
 21
8.9879842804
  0
LINE
  5
553
100
AcDbEntity
  8
0
100
AcDbLine
 62
7
  6
CONTINUOUS
 10
3.0765866348
 20
8.9879842804
 11
3.0812836311
 21
9.2570750211
  0
LWPOLYLINE
  5
554
100
AcDbEntity
  8
02___PRT_ALL_AXES
100
AcDbPolyline
 62
7
  6
CONTINUOUS
 90
5
 70
0
 10
3.8348546942
 20
6.5844150076
 10
3.8641111965
 20
6.5909972964
 10
3.8947735687
 20
6.5970986968
 10
3.92603485
 20
6.6024332202
 10
3.9571412238
 20
6.6068103296
  0
LWPOLYLINE
  5
555
100
AcDbEntity
  8
02___PRT_ALL_AXES
100
AcDbPolyline
 62
7
  6
CONTINUOUS
 90
4
 70
0
 10
4.2868225123
 20
6.5844669392
 10
4.2458468116
 20
6.5754539167
 10
4.2050662292
 20
6.5679599789
 10
4.1645359827
 20
6.5620716171
  0
LWPOLYLINE
  5
556
100
AcDbEntity
  8
02___PRT_ALL_AXES
100
AcDbPolyline
 62
7
  6
CONTINUOUS
 90
4
 70
0
 10
3.8348546942
 20
6.5253598894
 10
3.8758237412
 20
6.5343715661
 10
3.9166037479
 20
6.541865658
 10
3.9571412238
 20
6.5477552115
  0
LWPOLYLINE
  5
557
100
AcDbEntity
  8
02___PRT_ALL_AXES
100
AcDbPolyline
 62
7
  6
CONTINUOUS
 90
4
 70
0
 10
4.2868225123
 20
6.6435220573
 10
4.2458468116
 20
6.6345090348
 10
4.2050662292
 20
6.627015097
 10
4.1645359827
 20
6.6211267352
  0
LWPOLYLINE
  5
558
100
AcDbEntity
  8
02___PRT_ALL_AXES
100
AcDbPolyline
 62
7
  6
CONTINUOUS
 90
4
 70
0
 10
4.2868225123
 20
6.7025771754
 10
4.2458362095
 20
6.6935620086
 10
4.2050566539
 20
6.6860686367
 10
4.1645359827
 20
6.6801818534
  0
LWPOLYLINE
  5
559
100
AcDbEntity
  8
02___PRT_ALL_AXES
100
AcDbPolyline
 62
7
  6
CONTINUOUS
 90
5
 70
0
 10
4.53817544
 20
6.6291903733
 10
4.5754543582
 20
6.6306688391
 10
4.6000840476
 20
6.6321520868
 10
4.611376552
 20
6.6336575398
 10
4.611779453
 20
6.6338341124
  0
LWPOLYLINE
  5
55A
100
AcDbEntity
  8
02___PRT_ALL_AXES
100
AcDbPolyline
 62
7
  6
CONTINUOUS
 90
5
 70
0
 10
4.5688613795
 20
6.6496476663
 10
4.6079350895
 20
6.6510993143
 10
4.6339840984
 20
6.6525509624
 10
4.6463882586
 20
6.6540026105
 10
4.6472270185
 20
6.6543081595
  0
LWPOLYLINE
  5
55B
100
AcDbEntity
  8
02___PRT_ALL_AXES
100
AcDbPolyline
 62
7
  6
CONTINUOUS
 90
5
 70
0
 10
4.5688613795
 20
6.657029556
 10
4.6079350895
 20
6.6584812041
 10
4.6339840984
 20
6.6599328522
 10
4.6463882586
 20
6.6613845002
 10
4.6474527765
 20
6.6619508159
  0
LWPOLYLINE
  5
55C
100
AcDbEntity
  8
02___PRT_ALL_AXES
100
AcDbPolyline
 62
7
  6
CONTINUOUS
 90
7
 70
0
 10
4.53817544
 20
6.677486849
 10
4.4943589505
 20
6.6761519386
 10
4.4415390602
 20
6.6748105856
 10
4.3813770289
 20
6.6734775831
 10
4.3143782794
 20
6.6721368954
 10
4.2414139
 20
6.6707814833
 10
4.1645359827
 20
6.669423211
  0
LWPOLYLINE
  5
55D
100
AcDbEntity
  8
02___PRT_ALL_AXES
100
AcDbPolyline
 62
7
  6
CONTINUOUS
 90
5
 70
0
 10
3.6516437577
 20
6.5524292265
 10
3.7170775913
 20
6.5539631063
 10
3.7907112605
 20
6.5554786972
 10
3.8712224387
 20
6.5569919061
 10
3.9571412238
 20
6.5585138538
  0
LWPOLYLINE
  5
55E
100
AcDbEntity
  8
02___PRT_ALL_AXES
100
AcDbPolyline
 62
7
  6
CONTINUOUS
 90
7
 70
0
 10
4.4044231744
 20
6.6847287524
 10
4.4697941288
 20
6.6862603916
 10
4.5247695321
 20
6.6878059275
 10
4.5670550482
 20
6.689343976
 10
4.5954852883
 20
6.6908587733
 10
4.6100574559
 20
6.6923734254
 10
4.611779453
 20
6.6928892305
  0
LWPOLYLINE
  5
55F
100
AcDbEntity
  8
02___PRT_ALL_AXES
100
AcDbPolyline
 62
7
  6
CONTINUOUS
 90
9
 70
0
 10
4.2868225123
 20
6.5844669392
 10
4.3685403398
 20
6.585939855
 10
4.4427169495
 20
6.5874127709
 10
4.5075344056
 20
6.5888856867
 10
4.5614041486
 20
6.5903586025
 10
4.6030059276
 20
6.5918315184
 10
4.6313201576
 20
6.5933044342
 10
4.6456529076
 20
6.5947773501
 10
4.6472270185
 20
6.5952530414
  0
LWPOLYLINE
  5
560
100
AcDbEntity
  8
02___PRT_ALL_AXES
100
AcDbPolyline
 62
7
  6
CONTINUOUS
 90
9
 70
0
 10
4.2868225123
 20
6.5918488289
 10
4.3685403398
 20
6.5933217448
 10
4.4427169495
 20
6.5947946606
 10
4.5075344056
 20
6.5962675765
 10
4.5614041486
 20
6.5977404923
 10
4.6030059276
 20
6.5992134082
 10
4.6313201576
 20
6.600686324
 10
4.6456529076
 20
6.6021592398
 10
4.6474527765
 20
6.6028956978
  0
LWPOLYLINE
  5
561
100
AcDbEntity
  8
02___PRT_ALL_AXES
100
AcDbPolyline
 62
7
  6
CONTINUOUS
 90
5
 70
0
 10
4.2868225123
 20
6.6435220573
 10
4.3716421882
 20
6.6450534595
 10
4.4482290513
 20
6.6465848618
 10
4.5145544081
 20
6.648116264
 10
4.5688613795
 20
6.6496476663
  0
LWPOLYLINE
  5
562
100
AcDbEntity
  8
02___PRT_ALL_AXES
100
AcDbPolyline
 62
7
  6
CONTINUOUS
 90
5
 70
0
 10
4.2868225123
 20
6.650903947
 10
4.3716421882
 20
6.6524353493
 10
4.4482290513
 20
6.6539667515
 10
4.5145544081
 20
6.6554981538
 10
4.5688613795
 20
6.657029556
  0
LWPOLYLINE
  5
563
100
AcDbEntity
  8
02___PRT_ALL_AXES
100
AcDbPolyline
 62
7
  6
CONTINUOUS
 90
10
 70
0
 10
3.9571412238
 20
6.5477552115
 10
3.8699566933
 20
6.5462102664
 10
3.7882207877
 20
6.5446712629
 10
3.7147788181
 20
6.5431542089
 10
3.6504037037
 20
6.5416389624
 10
3.5961103787
 20
6.5401059044
 10
3.5541964339
 20
6.5385746964
 10
3.5259146494
 20
6.5370587613
 10
3.5114443213
 20
6.5355273267
 10
3.5098977535
 20
6.5350478343
  0
LWPOLYLINE
  5
564
100
AcDbEntity
  8
02___PRT_ALL_AXES
100
AcDbPolyline
 62
7
  6
CONTINUOUS
 90
10
 70
0
 10
4.1645359827
 20
6.5620716171
 10
4.2517155235
 20
6.5636164715
 10
4.3334523031
 20
6.5651554849
 10
4.4068927341
 20
6.5666724959
 10
4.4712427139
 20
6.5681870797
 10
4.5255186025
 20
6.569719395
 10
4.5674378488
 20
6.571250274
 10
4.5957350693
 20
6.5727661239
 10
4.6102244025
 20
6.5742977062
 10
4.611779453
 20
6.5747789943
  0
LWPOLYLINE
  5
565
100
AcDbEntity
  8
02___PRT_ALL_AXES
100
AcDbPolyline
 62
7
  6
CONTINUOUS
 90
10
 70
0
 10
3.9571412238
 20
6.6068103296
 10
3.8712224387
 20
6.6052883818
 10
3.7907112605
 20
6.6037751729
 10
3.7170775913
 20
6.6022595821
 10
3.6516437577
 20
6.6007257022
 10
3.5966528172
 20
6.5991782012
 10
3.5543942858
 20
6.5976383727
 10
3.5260209636
 20
6.5961213872
 10
3.5115640817
 20
6.5946074167
 10
3.5098977535
 20
6.5941029524
  0
LWPOLYLINE
  5
566
100
AcDbEntity
  8
02___PRT_ALL_AXES
100
AcDbPolyline
 62
7
  6
CONTINUOUS
 90
7
 70
0
 10
4.1645359827
 20
6.6211267352
 10
4.2414139
 20
6.6224850075
 10
4.3143782794
 20
6.6238404196
 10
4.3813770289
 20
6.6251811073
 10
4.4415390602
 20
6.6265141098
 10
4.4943589505
 20
6.6278554628
 10
4.53817544
 20
6.6291903733
  0
LWPOLYLINE
  5
567
100
AcDbEntity
  8
02___PRT_ALL_AXES
100
AcDbPolyline
 62
7
  6
CONTINUOUS
 90
10
 70
0
 10
3.9571412238
 20
6.6658654477
 10
3.8703199804
 20
6.6643271053
 10
3.788716782
 20
6.6627912278
 10
3.7151495355
 20
6.6612725642
 10
3.6502643936
 20
6.6597456387
 10
3.5959846638
 20
6.6582121523
 10
3.5543677786
 20
6.6566923453
 10
3.5260696565
 20
6.6551799359
 10
3.5114748867
 20
6.6536440137
 10
3.5098977535
 20
6.6531580705
  0
LWPOLYLINE
  5
568
100
AcDbEntity
  8
02___PRT_ALL_AXES
100
AcDbPolyline
 62
7
  6
CONTINUOUS
 90
5
 70
0
 10
3.9571412238
 20
6.5585138538
 10
3.9261314003
 20
6.5618491276
 10
3.8949053349
 20
6.5661677929
 10
3.8642153727
 20
6.5713133447
 10
3.8348546942
 20
6.5770331178
  0
LWPOLYLINE
  5
569
100
AcDbEntity
  8
02___PRT_ALL_AXES
100
AcDbPolyline
 62
7
  6
CONTINUOUS
 90
5
 70
0
 10
4.1645359827
 20
6.5513129748
 10
4.1956068266
 20
6.5479701895
 10
4.2268599585
 20
6.5436455256
 10
4.2575368253
 20
6.5384998505
 10
4.2868225123
 20
6.5327937108
  0
LWPOLYLINE
  5
56A
100
AcDbEntity
  8
02___PRT_ALL_AXES
100
AcDbPolyline
 62
7
  6
CONTINUOUS
 90
4
 70
0
 10
3.9571412238
 20
6.6175689719
 10
3.9166117733
 20
6.6221204257
 10
3.875827993
 20
6.6283190235
 10
3.8348546942
 20
6.6360882359
  0
LWPOLYLINE
  5
56B
100
AcDbEntity
  8
02___PRT_ALL_AXES
100
AcDbPolyline
 62
7
  6
CONTINUOUS
 90
4
 70
0
 10
4.1645359827
 20
6.6103680929
 10
4.2050729964
 20
6.6058156376
 10
4.2458561322
 20
6.5996168571
 10
4.2868225123
 20
6.5918488289
  0
LWPOLYLINE
  5
56C
100
AcDbEntity
  8
02___PRT_ALL_AXES
100
AcDbPolyline
 62
7
  6
CONTINUOUS
 90
4
 70
0
 10
3.9571412238
 20
6.67662409
 10
3.9166117733
 20
6.6811755438
 10
3.875827993
 20
6.6873741416
 10
3.8348546942
 20
6.695143354
  0
LINE
  5
56D
100
AcDbEntity
  8
0
100
AcDbLine
 62
7
  6
CONTINUOUS
 10
3.4744501881
 20
6.7428908367
 11
3.5098977535
 21
6.7224167896
  0
LINE
  5
56E
100
AcDbEntity
  8
0
100
AcDbLine
 62
7
  6
CONTINUOUS
 10
3.4744501881
 20
6.8019459548
 11
3.5098977535
 21
6.7814719077
  0
LINE
  5
56F
100
AcDbEntity
  8
02___PRT_ALL_AXES
100
AcDbLine
 62
7
  6
CONTINUOUS
 10
3.4744501881
 20
6.6838357186
 11
3.47422443
 21
6.6840964852
  0
LINE
  5
570
100
AcDbEntity
  8
02___PRT_ALL_AXES
100
AcDbLine
 62
7
  6
CONTINUOUS
 10
3.4744501881
 20
6.7428908367
 11
3.47422443
 21
6.7431516033
  0
LINE
  5
571
100
AcDbEntity
  8
02___PRT_ALL_AXES
100
AcDbLine
 62
7
  6
CONTINUOUS
 10
3.4744501881
 20
6.8019459548
 11
3.47422443
 21
6.8022067214
  0
LINE
  5
572
100
AcDbEntity
  8
02___PRT_ALL_AXES
100
AcDbLine
 62
7
  6
CONTINUOUS
 10
3.1750118316
 20
7.5194803434
 11
3.1750118316
 21
7.0864094773
  0
LWPOLYLINE
  5
573
100
AcDbEntity
  8
02___PRT_ALL_AXES
100
AcDbPolyline
 62
7
  6
CONTINUOUS
 90
4
 70
0
 10
3.8348546942
 20
6.6434701257
 10
3.8758237412
 20
6.6524818024
 10
3.9166037479
 20
6.6599758942
 10
3.9571412238
 20
6.6658654477
  0
LWPOLYLINE
  5
574
100
AcDbEntity
  8
02___PRT_ALL_AXES
100
AcDbPolyline
 62
7
  6
CONTINUOUS
 90
4
 70
0
 10
4.2868225123
 20
6.7616322935
 10
4.2458468116
 20
6.752619271
 10
4.2050662292
 20
6.7451253332
 10
4.1645359827
 20
6.7392369715
  0
LWPOLYLINE
  5
575
100
AcDbEntity
  8
02___PRT_ALL_AXES
100
AcDbPolyline
 62
7
  6
CONTINUOUS
 90
4
 70
0
 10
3.8348546942
 20
6.7025252438
 10
3.8758237412
 20
6.7115369205
 10
3.9166037479
 20
6.7190310123
 10
3.9571412238
 20
6.7249205658
  0
LWPOLYLINE
  5
576
100
AcDbEntity
  8
02___PRT_ALL_AXES
100
AcDbPolyline
 62
7
  6
CONTINUOUS
 90
4
 70
0
 10
4.2868225123
 20
6.8206874116
 10
4.2458468116
 20
6.8116743891
 10
4.2050662292
 20
6.8041804513
 10
4.1645359827
 20
6.7982920896
  0
LWPOLYLINE
  5
577
100
AcDbEntity
  8
02___PRT_ALL_AXES
100
AcDbPolyline
 62
7
  6
CONTINUOUS
 90
4
 70
0
 10
3.6141428009
 20
6.7497797246
 10
3.678960257
 20
6.7512526404
 10
3.7531368667
 20
6.7527255563
 10
3.8348546942
 20
6.7541984721
  0
LWPOLYLINE
  5
578
100
AcDbEntity
  8
02___PRT_ALL_AXES
100
AcDbPolyline
 62
7
  6
CONTINUOUS
 90
3
 70
0
 10
3.7896463117
 20
6.7326232052
 10
3.8705615196
 20
6.7341452548
 10
3.9571412238
 20
6.7356792082
  0
LWPOLYLINE
  5
579
100
AcDbEntity
  8
02___PRT_ALL_AXES
100
AcDbPolyline
 62
7
  6
CONTINUOUS
 90
3
 70
0
 10
4.3333370256
 20
6.7906150534
 10
4.2516722609
 20
6.7890775152
 10
4.1645359827
 20
6.7875334472
  0
LINE
  5
57A
100
AcDbEntity
  8
02___PRT_ALL_AXES
100
AcDbLine
 62
7
  6
CONTINUOUS
 10
4.3235329158
 20
6.6830771994
 11
4.4044231744
 21
6.6847287524
  0
LWPOLYLINE
  5
57B
100
AcDbEntity
  8
02___PRT_ALL_AXES
100
AcDbPolyline
 62
7
  6
CONTINUOUS
 90
9
 70
0
 10
4.2868225123
 20
6.7025771754
 10
4.3685403398
 20
6.7040500912
 10
4.4427169495
 20
6.7055230071
 10
4.5075344056
 20
6.7069959229
 10
4.5614041486
 20
6.7084688388
 10
4.6030059276
 20
6.7099417546
 10
4.6313201576
 20
6.7114146705
 10
4.6456529076
 20
6.7128875863
 10
4.6472270185
 20
6.7133632777
  0
LINE
  5
57C
100
AcDbEntity
  8
02___PRT_ALL_AXES
100
AcDbLine
 62
7
  6
CONTINUOUS
 10
3.7531368667
 20
6.6936704382
 11
3.8348546942
 21
6.695143354
  0
LWPOLYLINE
  5
57D
100
AcDbEntity
  8
02___PRT_ALL_AXES
100
AcDbPolyline
 62
7
  6
CONTINUOUS
 90
9
 70
0
 10
4.2868225123
 20
6.7099590652
 10
4.3685403398
 20
6.711431981
 10
4.4427169495
 20
6.7129048968
 10
4.5075344056
 20
6.7143778127
 10
4.5614041486
 20
6.7158507285
 10
4.6030059276
 20
6.7173236444
 10
4.6313201576
 20
6.7187965602
 10
4.6456529076
 20
6.7202694761
 10
4.6474527765
 20
6.721005934
  0
LWPOLYLINE
  5
57E
100
AcDbEntity
  8
02___PRT_ALL_AXES
100
AcDbPolyline
 62
7
  6
CONTINUOUS
 90
9
 70
0
 10
4.2868225123
 20
6.7616322935
 10
4.3685403398
 20
6.7631052093
 10
4.4427169495
 20
6.7645781252
 10
4.5075344056
 20
6.766051041
 10
4.5614041486
 20
6.7675239569
 10
4.6030059276
 20
6.7689968727
 10
4.6313201576
 20
6.7704697886
 10
4.6456529076
 20
6.7719427044
 10
4.6472270185
 20
6.7724183958
  0
LWPOLYLINE
  5
57F
100
AcDbEntity
  8
02___PRT_ALL_AXES
100
AcDbPolyline
 62
7
  6
CONTINUOUS
 90
9
 70
0
 10
4.2868225123
 20
6.7690141833
 10
4.3685403398
 20
6.7704870991
 10
4.4427169495
 20
6.771960015
 10
4.5075344056
 20
6.7734329308
 10
4.5614041486
 20
6.7749058466
 10
4.6030059276
 20
6.7763787625
 10
4.6313201576
 20
6.7778516783
 10
4.6456529076
 20
6.7793245942
 10
4.6474527765
 20
6.7800610521
  0
LINE
  5
580
100
AcDbEntity
  8
02___PRT_ALL_AXES
100
AcDbLine
 62
7
  6
CONTINUOUS
 10
4.1645359827
 20
6.6801818534
 11
4.2404325957
 21
6.6815260782
  0
LINE
  5
581
100
AcDbEntity
  8
02___PRT_ALL_AXES
100
AcDbLine
 62
7
  6
CONTINUOUS
 10
4.2404325957
 20
6.6815260782
 11
4.3235329158
 21
6.6830771994
  0
LWPOLYLINE
  5
582
100
AcDbEntity
  8
02___PRT_ALL_AXES
100
AcDbPolyline
 62
7
  6
CONTINUOUS
 90
10
 70
0
 10
3.9571412238
 20
6.7249205658
 10
3.8699694482
 20
6.7233758526
 10
3.788242523
 20
6.7218370437
 10
3.7148103028
 20
6.720320253
 10
3.6505971991
 20
6.7188092587
 10
3.5967536228
 20
6.7172916244
 10
3.5548419335
 20
6.7157679054
 10
3.5263238808
 20
6.7142528844
 10
3.5115662539
 20
6.7127180985
 10
3.5098977535
 20
6.7122131886
  0
LWPOLYLINE
  5
583
100
AcDbEntity
  8
02___PRT_ALL_AXES
100
AcDbPolyline
 62
7
  6
CONTINUOUS
 90
10
 70
0
 10
4.1645359827
 20
6.7392369715
 10
4.2516722609
 20
6.7407810394
 10
4.3333370256
 20
6.7423185777
 10
4.4068271838
 20
6.7438364142
 10
4.4718927878
 20
6.745369057
 10
4.526466807
 20
6.7469148894
 10
4.568288131
 20
6.7484525994
 10
4.5962628862
 20
6.7499690837
 10
4.610371354
 20
6.7514947951
 10
4.611779453
 20
6.7519443486
  0
LWPOLYLINE
  5
584
100
AcDbEntity
  8
02___PRT_ALL_AXES
100
AcDbPolyline
 62
7
  6
CONTINUOUS
 90
10
 70
0
 10
3.9571412238
 20
6.7839756839
 10
3.8705615196
 20
6.7824417305
 10
3.7896463117
 20
6.7809196809
 10
3.7162094508
 20
6.7794059827
 10
3.6508451515
 20
6.7778707054
 10
3.5959805156
 20
6.7763222569
 10
3.5538868896
 20
6.7747817428
 10
3.525690705
 20
6.7732633394
 10
3.5114174555
 20
6.7717420834
 10
3.5098977535
 20
6.7712683067
  0
LWPOLYLINE
  5
585
100
AcDbEntity
  8
02___PRT_ALL_AXES
100
AcDbPolyline
 62
7
  6
CONTINUOUS
 90
10
 70
0
 10
4.1645359827
 20
6.7982920896
 10
4.2517712325
 20
6.7998379566
 10
4.3335555424
 20
6.8013779831
 10
4.4070579793
 20
6.8028965891
 10
4.471481843
 20
6.804413663
 10
4.5251281228
 20
6.8059274994
 10
4.5668242752
 20
6.807444277
 10
4.5953458705
 20
6.8089592501
 10
4.6101137022
 20
6.810495121
 10
4.611779453
 20
6.8109994667
  0
LWPOLYLINE
  5
586
100
AcDbEntity
  8
02___PRT_ALL_AXES
100
AcDbPolyline
 62
7
  6
CONTINUOUS
 90
5
 70
0
 10
3.9571412238
 20
6.7947343263
 10
3.926809982
 20
6.7979863169
 10
3.8955941479
 20
6.8022828746
 10
3.8645251301
 20
6.8074775573
 10
3.8348546942
 20
6.8132535902
  0
LWPOLYLINE
  5
587
100
AcDbEntity
  8
02___PRT_ALL_AXES
100
AcDbPolyline
 62
7
  6
CONTINUOUS
 90
4
 70
0
 10
4.1645359827
 20
6.669423211
 10
4.2050729964
 20
6.6648707557
 10
4.2458561322
 20
6.6586719752
 10
4.2868225123
 20
6.650903947
  0
LWPOLYLINE
  5
588
100
AcDbEntity
  8
02___PRT_ALL_AXES
100
AcDbPolyline
 62
7
  6
CONTINUOUS
 90
4
 70
0
 10
3.9571412238
 20
6.7356792082
 10
3.9166117733
 20
6.7402306619
 10
3.875827993
 20
6.7464292597
 10
3.8348546942
 20
6.7541984721
  0
LWPOLYLINE
  5
589
100
AcDbEntity
  8
02___PRT_ALL_AXES
100
AcDbPolyline
 62
7
  6
CONTINUOUS
 90
4
 70
0
 10
4.1645359827
 20
6.7284783291
 10
4.2050655655
 20
6.7239268579
 10
4.2458479139
 20
6.7177285001
 10
4.2868225123
 20
6.7099590652
  0
LWPOLYLINE
  5
58A
100
AcDbEntity
  8
02___PRT_ALL_AXES
100
AcDbPolyline
 62
7
  6
CONTINUOUS
 90
4
 70
0
 10
4.1645359827
 20
6.7875334472
 10
4.2050729964
 20
6.7829809919
 10
4.2458561322
 20
6.7767822114
 10
4.2868225123
 20
6.7690141833
  0
LINE
  5
58B
100
AcDbEntity
  8
0
100
AcDbLine
 62
7
  6
CONTINUOUS
 10
4.6472270185
 20
6.3078808738
 11
4.611779453
 21
6.3283549209
  0
LINE
  5
58C
100
AcDbEntity
  8
0
100
AcDbLine
 62
7
  6
CONTINUOUS
 10
4.2968101566
 20
5.9626814094
 11
4.2970590757
 21
5.9623937265
  0
LINE
  5
58D
100
AcDbEntity
  8
0
100
AcDbLine
 62
7
  6
CONTINUOUS
 10
4.2968101566
 20
6.0020514882
 11
4.2970590757
 21
6.0017638017
  0
LINE
  5
58E
100
AcDbEntity
  8
0
100
AcDbLine
 62
7
  6
CONTINUOUS
 10
4.2968101566
 20
6.0414215669
 11
4.2970590757
 21
6.0411338867
  0
LINE
  5
58F
100
AcDbEntity
  8
0
100
AcDbLine
 62
7
  6
CONTINUOUS
 10
4.2968101566
 20
6.0807916456
 11
4.2970590757
 21
6.080503985
  0
LINE
  5
590
100
AcDbEntity
  8
0
100
AcDbLine
 62
7
  6
CONTINUOUS
 10
4.2968101566
 20
6.1201617244
 11
4.2970590757
 21
6.1198740524
  0
LINE
  5
591
100
AcDbEntity
  8
0
100
AcDbLine
 62
7
  6
CONTINUOUS
 10
4.2968101566
 20
5.9233113307
 11
4.2970590757
 21
5.9230236238
  0
LWPOLYLINE
  5
592
100
AcDbEntity
  8
02___PRT_ALL_AXES
100
AcDbPolyline
 62
7
  6
CONTINUOUS
 90
4
 70
0
 10
3.8348546942
 20
6.82063548
 10
3.8747479822
 20
6.8294290559
 10
3.9162951264
 20
6.8370903254
 10
3.9571412238
 20
6.843030802
  0
LWPOLYLINE
  5
593
100
AcDbEntity
  8
02___PRT_ALL_AXES
100
AcDbPolyline
 62
7
  6
CONTINUOUS
 90
4
 70
0
 10
3.8348546942
 20
6.7615803619
 10
3.8758237412
 20
6.7705920386
 10
3.9166037479
 20
6.7780861304
 10
3.9571412238
 20
6.7839756839
  0
LWPOLYLINE
  5
594
100
AcDbEntity
  8
02___PRT_ALL_AXES
100
AcDbPolyline
 62
7
  6
CONTINUOUS
 90
8
 70
0
 10
4.3685403398
 20
6.8295422172
 10
4.4427169495
 20
6.8310151331
 10
4.5075344056
 20
6.8324880489
 10
4.5614041486
 20
6.8339609648
 10
4.6030059276
 20
6.8354338806
 10
4.6313201576
 20
6.8369067964
 10
4.6456529076
 20
6.8383797123
 10
4.6474527765
 20
6.8391161702
  0
LWPOLYLINE
  5
595
100
AcDbEntity
  8
02___PRT_ALL_AXES
100
AcDbPolyline
 62
7
  6
CONTINUOUS
 90
9
 70
0
 10
4.2868225123
 20
6.8206874116
 10
4.3685403398
 20
6.8221603275
 10
4.4427169495
 20
6.8236332433
 10
4.5075344056
 20
6.8251061591
 10
4.5614041486
 20
6.826579075
 10
4.6030059276
 20
6.8280519908
 10
4.6313201576
 20
6.8295249067
 10
4.6456529076
 20
6.8309978225
 10
4.6472270185
 20
6.8314735139
  0
LINE
  5
596
100
AcDbEntity
  8
02___PRT_ALL_AXES
100
AcDbLine
 62
7
  6
CONTINUOUS
 10
3.7531368667
 20
6.8117806744
 11
3.8348546942
 21
6.8132535902
  0
LINE
  5
597
100
AcDbEntity
  8
02___PRT_ALL_AXES
100
AcDbLine
 62
7
  6
CONTINUOUS
 10
4.2868225123
 20
6.8280693014
 11
4.3685403398
 21
6.8295422172
  0
LWPOLYLINE
  5
598
100
AcDbEntity
  8
02___PRT_ALL_AXES
100
AcDbPolyline
 62
7
  6
CONTINUOUS
 90
10
 70
0
 10
3.9571412238
 20
6.843030802
 10
3.8713322579
 20
6.8415108486
 10
3.7901613319
 20
6.8399848838
 10
3.7165708166
 20
6.8384689941
 10
3.6513502731
 20
6.8369387014
 10
3.596525606
 20
6.8353946493
 10
3.5543804256
 20
6.8338582462
 10
3.5260295019
 20
6.8323424615
 10
3.5114747377
 20
6.8308093367
 10
3.5098977535
 20
6.8303234249
  0
LINE
  5
599
100
AcDbEntity
  8
0
100
AcDbLine
 62
9
  6
CONTINUOUS
 10
4.6120197056
 20
6.8895590836
 11
3.5096575009
 21
6.8895590836
  0
LINE
  5
59A
100
AcDbEntity
  8
02___PRT_ALL_AXES
100
AcDbLine
 62
7
  6
CONTINUOUS
 10
4.7891765258
 20
6.9289291623
 11
3.3325006807
 21
6.9289291623
  0
LWPOLYLINE
  5
59B
100
AcDbEntity
  8
02___PRT_ALL_AXES
100
AcDbPolyline
 62
7
  6
CONTINUOUS
 90
4
 70
0
 10
4.1645359827
 20
6.8465885653
 10
4.2050729964
 20
6.84203611
 10
4.2458561322
 20
6.8358373295
 10
4.2868225123
 20
6.8280693014
  0
LINE
  5
59C
100
AcDbEntity
  8
0
100
AcDbLine
 62
7
  6
CONTINUOUS
 10
4.6472270185
 20
6.3669359919
 11
4.611779453
 21
6.387410039
  0
LINE
  5
59D
100
AcDbEntity
  8
0
100
AcDbLine
 62
7
  6
CONTINUOUS
 10
4.6472270185
 20
6.42599111
 11
4.611779453
 21
6.4464651571
  0
LINE
  5
59E
100
AcDbEntity
  8
0
100
AcDbLine
 62
7
  6
CONTINUOUS
 10
4.6472270185
 20
6.4850462281
 11
4.611779453
 21
6.5055202752
  0
LINE
  5
59F
100
AcDbEntity
  8
0
100
AcDbLine
 62
7
  6
CONTINUOUS
 10
4.2968101566
 20
6.1595318031
 11
4.2970590757
 21
6.159244088
  0
LINE
  5
5A0
100
AcDbEntity
  8
0
100
AcDbLine
 62
7
  6
CONTINUOUS
 10
3.47422443
 20
6.8095886112
 11
3.47422443
 21
6.8022067214
  0
LINE
  5
5A1
100
AcDbEntity
  8
0
100
AcDbLine
 62
7
  6
CONTINUOUS
 10
3.47422443
 20
6.750533493
 11
3.47422443
 21
6.7431516033
  0
LINE
  5
5A2
100
AcDbEntity
  8
0
100
AcDbLine
 62
7
  6
CONTINUOUS
 10
3.47422443
 20
6.6914783749
 11
3.47422443
 21
6.6840964852
  0
LINE
  5
5A3
100
AcDbEntity
  8
0
100
AcDbLine
 62
7
  6
CONTINUOUS
 10
3.47422443
 20
6.6324232568
 11
3.47422443
 21
6.6250413671
  0
LINE
  5
5A4
100
AcDbEntity
  8
0
100
AcDbLine
 62
7
  6
CONTINUOUS
 10
3.47422443
 20
6.5733681387
 11
3.47422443
 21
6.565986249
  0
LINE
  5
5A5
100
AcDbEntity
  8
0
100
AcDbLine
 62
7
  6
CONTINUOUS
 10
3.47422443
 20
6.5143130206
 11
3.47422443
 21
6.5069311308
  0
LINE
  5
5A6
100
AcDbEntity
  8
0
100
AcDbLine
 62
7
  6
CONTINUOUS
 10
3.47422443
 20
6.4552579025
 11
3.47422443
 21
6.4478760127
  0
LINE
  5
5A7
100
AcDbEntity
  8
0
100
AcDbLine
 62
7
  6
CONTINUOUS
 10
3.47422443
 20
6.3962027844
 11
3.47422443
 21
6.3888208946
  0
LINE
  5
5A8
100
AcDbEntity
  8
0
100
AcDbLine
 62
7
  6
CONTINUOUS
 10
3.47422443
 20
6.3371476663
 11
3.47422443
 21
6.3297657765
  0
LINE
  5
5A9
100
AcDbEntity
  8
0
100
AcDbLine
 62
7
  6
CONTINUOUS
 10
3.47422443
 20
6.2780925482
 11
3.47422443
 21
6.2707106584
  0
LINE
  5
5AA
100
AcDbEntity
  8
02___PRT_ALL_AXES
100
AcDbLine
 62
7
  6
CONTINUOUS
 10
3.5096575009
 20
6.8895590836
 11
3.5096575009
 21
6.8300459042
  0
LINE
  5
5AB
100
AcDbEntity
  8
02___PRT_ALL_AXES
100
AcDbLine
 62
7
  6
CONTINUOUS
 10
3.5096575009
 20
6.7817494284
 11
3.5096575009
 21
6.770990786
  0
LINE
  5
5AC
100
AcDbEntity
  8
02___PRT_ALL_AXES
100
AcDbLine
 62
7
  6
CONTINUOUS
 10
3.5096575009
 20
6.7226943103
 11
3.5096575009
 21
6.7119356679
  0
LINE
  5
5AD
100
AcDbEntity
  8
02___PRT_ALL_AXES
100
AcDbLine
 62
7
  6
CONTINUOUS
 10
3.5096575009
 20
6.6636391922
 11
3.5096575009
 21
6.6528805498
  0
LINE
  5
5AE
100
AcDbEntity
  8
02___PRT_ALL_AXES
100
AcDbLine
 62
7
  6
CONTINUOUS
 10
3.5096575009
 20
6.6045840741
 11
3.5096575009
 21
6.5938254317
  0
LINE
  5
5AF
100
AcDbEntity
  8
02___PRT_ALL_AXES
100
AcDbLine
 62
7
  6
CONTINUOUS
 10
3.5096575009
 20
6.5455289559
 11
3.5096575009
 21
6.5347703136
  0
LINE
  5
5B0
100
AcDbEntity
  8
02___PRT_ALL_AXES
100
AcDbLine
 62
7
  6
CONTINUOUS
 10
3.5096575009
 20
6.4864738378
 11
3.5096575009
 21
6.4757151955
  0
LINE
  5
5B1
100
AcDbEntity
  8
02___PRT_ALL_AXES
100
AcDbLine
 62
7
  6
CONTINUOUS
 10
3.5096575009
 20
6.4274187197
 11
3.5096575009
 21
6.4166600774
  0
LINE
  5
5B2
100
AcDbEntity
  8
02___PRT_ALL_AXES
100
AcDbLine
 62
7
  6
CONTINUOUS
 10
3.5096575009
 20
6.3683636016
 11
3.5096575009
 21
6.3576049593
  0
LINE
  5
5B3
100
AcDbEntity
  8
02___PRT_ALL_AXES
100
AcDbLine
 62
7
  6
CONTINUOUS
 10
3.5096575009
 20
6.3093084835
 11
3.5096575009
 21
6.2985498412
  0
LINE
  5
5B4
100
AcDbEntity
  8
02___PRT_ALL_AXES
100
AcDbLine
 62
7
  6
CONTINUOUS
 10
3.5096575009
 20
6.2502533654
 11
3.5096575009
 21
6.220267745
  0
LINE
  5
5B5
100
AcDbEntity
  8
0
100
AcDbLine
 62
7
  6
CONTINUOUS
 10
4.6472270185
 20
6.5441013462
 11
4.611779453
 21
6.5645753934
  0
LINE
  5
5B6
100
AcDbEntity
  8
0
100
AcDbLine
 62
7
  6
CONTINUOUS
 10
4.6472270185
 20
6.6031564643
 11
4.611779453
 21
6.6236305115
  0
LINE
  5
5B7
100
AcDbEntity
  8
02___PRT_ALL_AXES
100
AcDbLine
 62
9
  6
CONTINUOUS
 10
3.1750118316
 20
7.0864094773
 11
4.9466653749
 21
7.0864094773
  0
LINE
  5
5B8
100
AcDbEntity
  8
0
100
AcDbLine
 62
7
  6
CONTINUOUS
 10
4.6472270185
 20
6.6622115825
 11
4.611779453
 21
6.6826856296
  0
LINE
  5
5B9
100
AcDbEntity
  8
0
100
AcDbLine
 62
7
  6
CONTINUOUS
 10
4.6472270185
 20
6.7212667006
 11
4.611779453
 21
6.7417407477
  0
LINE
  5
5BA
100
AcDbEntity
  8
0
100
AcDbLine
 62
7
  6
CONTINUOUS
 10
4.6472270185
 20
6.7803218187
 11
4.611779453
 21
6.8007958658
  0
LINE
  5
5BB
100
AcDbEntity
  8
02___PRT_ALL_AXES
100
AcDbLine
 62
7
  6
CONTINUOUS
 10
4.6474527765
 20
6.3076201072
 11
4.6472270185
 21
6.3078808738
  0
LINE
  5
5BC
100
AcDbEntity
  8
0
100
AcDbLine
 62
7
  6
CONTINUOUS
 10
4.6472270185
 20
6.8393769368
 11
4.611779453
 21
6.8598509839
  0
LINE
  5
5BD
100
AcDbEntity
  8
02___PRT_ALL_AXES
100
AcDbLine
 62
7
  6
CONTINUOUS
 10
4.6474527765
 20
6.3666752253
 11
4.6472270185
 21
6.3669359919
  0
LINE
  5
5BE
100
AcDbEntity
  8
02___PRT_ALL_AXES
100
AcDbLine
 62
7
  6
CONTINUOUS
 10
4.6474527765
 20
6.4257303434
 11
4.6472270185
 21
6.42599111
  0
LINE
  5
5BF
100
AcDbEntity
  8
02___PRT_ALL_AXES
100
AcDbLine
 62
7
  6
CONTINUOUS
 10
4.6474527765
 20
6.4847854615
 11
4.6472270185
 21
6.4850462281
  0
LINE
  5
5C0
100
AcDbEntity
  8
0
100
AcDbLine
 62
7
  6
CONTINUOUS
 10
4.2783394615
 20
5.8944614465
 11
4.2782672498
 21
5.8946592577
  0
LWPOLYLINE
  5
5C1
100
AcDbEntity
  8
0
100
AcDbPolyline
 62
7
  6
CONTINUOUS
 90
6
 70
0
 10
3.9571412238
 20
6.220267745
 10
3.957325241
 20
6.208070642
 10
3.9578602006
 20
6.1970858876
 10
3.9586972109
 20
6.1883866282
 10
3.959759429
 20
6.1828141233
 10
3.9609479383
 20
6.1808976663
  0
LINE
  5
5C2
100
AcDbEntity
  8
AXIS
100
AcDbLine
 62
7
  6
CONTINUOUS
 10
3.8246181308
 20
6.1789291623
 11
3.8246181308
 21
6.1769606584
  0
LINE
  5
5C3
100
AcDbEntity
  8
AXIS
100
AcDbLine
 62
7
  6
CONTINUOUS
 10
3.8246181308
 20
6.1395590836
 11
3.8246181308
 21
6.1375905797
  0
LINE
  5
5C4
100
AcDbEntity
  8
AXIS
100
AcDbLine
 62
7
  6
CONTINUOUS
 10
3.8246181308
 20
6.1001890049
 11
3.8246181308
 21
6.0982205009
  0
LINE
  5
5C5
100
AcDbEntity
  8
AXIS
100
AcDbLine
 62
7
  6
CONTINUOUS
 10
3.8246181308
 20
6.0608189261
 11
3.8246181308
 21
6.0588504222
  0
LINE
  5
5C6
100
AcDbEntity
  8
AXIS
100
AcDbLine
 62
7
  6
CONTINUOUS
 10
3.8246181308
 20
6.0214488474
 11
3.8246181308
 21
6.0194803434
  0
LINE
  5
5C7
100
AcDbEntity
  8
AXIS
100
AcDbLine
 62
7
  6
CONTINUOUS
 10
3.8246181308
 20
5.9820787686
 11
3.8246181308
 21
5.9801102647
  0
LINE
  5
5C8
100
AcDbEntity
  8
AXIS
100
AcDbLine
 62
7
  6
CONTINUOUS
 10
3.8246181308
 20
5.9427086899
 11
3.8246181308
 21
5.940740186
  0
LINE
  5
5C9
100
AcDbEntity
  8
02___PRT_ALL_AXES
100
AcDbLine
 62
7
  6
CONTINUOUS
 10
3.8348546942
 20
6.2817575272
 11
3.8348546942
 21
6.289139417
  0
LINE
  5
5CA
100
AcDbEntity
  8
02___PRT_ALL_AXES
100
AcDbLine
 62
7
  6
CONTINUOUS
 10
3.8348546942
 20
6.3408126453
 11
3.8348546942
 21
6.3481945351
  0
LINE
  5
5CB
100
AcDbEntity
  8
02___PRT_ALL_AXES
100
AcDbLine
 62
7
  6
CONTINUOUS
 10
3.8348546942
 20
6.3998677635
 11
3.8348546942
 21
6.4072496532
  0
LINE
  5
5CC
100
AcDbEntity
  8
02___PRT_ALL_AXES
100
AcDbLine
 62
7
  6
CONTINUOUS
 10
3.8348546942
 20
6.4589228816
 11
3.8348546942
 21
6.4663047713
  0
LINE
  5
5CD
100
AcDbEntity
  8
02___PRT_ALL_AXES
100
AcDbLine
 62
7
  6
CONTINUOUS
 10
3.8348546942
 20
6.5179779997
 11
3.8348546942
 21
6.5253598894
  0
LINE
  5
5CE
100
AcDbEntity
  8
02___PRT_ALL_AXES
100
AcDbLine
 62
7
  6
CONTINUOUS
 10
3.8348546942
 20
6.5770331178
 11
3.8348546942
 21
6.5844150076
  0
LINE
  5
5CF
100
AcDbEntity
  8
02___PRT_ALL_AXES
100
AcDbLine
 62
7
  6
CONTINUOUS
 10
3.8348546942
 20
6.6360882359
 11
3.8348546942
 21
6.6434701257
  0
LINE
  5
5D0
100
AcDbEntity
  8
02___PRT_ALL_AXES
100
AcDbLine
 62
7
  6
CONTINUOUS
 10
3.8348546942
 20
6.695143354
 11
3.8348546942
 21
6.7025252438
  0
LINE
  5
5D1
100
AcDbEntity
  8
02___PRT_ALL_AXES
100
AcDbLine
 62
7
  6
CONTINUOUS
 10
3.8348546942
 20
6.7541984721
 11
3.8348546942
 21
6.7615803619
  0
LINE
  5
5D2
100
AcDbEntity
  8
02___PRT_ALL_AXES
100
AcDbLine
 62
7
  6
CONTINUOUS
 10
3.8348546942
 20
6.8132535902
 11
3.8348546942
 21
6.82063548
  0
LINE
  5
5D3
100
AcDbEntity
  8
0
100
AcDbLine
 62
7
  6
CONTINUOUS
 10
3.8570984458
 20
5.8915275875
 11
3.8570984458
 21
5.8521575088
  0
LINE
  5
5D4
100
AcDbEntity
  8
0
100
AcDbLine
 62
7
  6
CONTINUOUS
 10
3.8757992332
 20
5.8934960915
 11
3.8757992332
 21
5.8915275875
  0
LINE
  5
5D5
100
AcDbEntity
  8
02___PRT_ALL_AXES
100
AcDbLine
 62
7
  6
CONTINUOUS
 10
4.6474527765
 20
6.5438405797
 11
4.6472270185
 21
6.5441013462
  0
LINE
  5
5D6
100
AcDbEntity
  8
02___PRT_ALL_AXES
100
AcDbLine
 62
7
  6
CONTINUOUS
 10
4.6474527765
 20
6.6028956978
 11
4.6472270185
 21
6.6031564643
  0
LINE
  5
5D7
100
AcDbEntity
  8
02___PRT_ALL_AXES
100
AcDbLine
 62
7
  6
CONTINUOUS
 10
4.6474527765
 20
6.6619508159
 11
4.6472270185
 21
6.6622115825
  0
LINE
  5
5D8
100
AcDbEntity
  8
02___PRT_ALL_AXES
100
AcDbLine
 62
7
  6
CONTINUOUS
 10
4.6474527765
 20
6.721005934
 11
4.6472270185
 21
6.7212667006
  0
LWPOLYLINE
  5
5D9
100
AcDbEntity
  8
0
100
AcDbPolyline
 62
7
  6
CONTINUOUS
 90
6
 70
0
 10
3.9571412238
 20
6.8895590836
 10
3.9569576433
 20
6.9017525979
 10
3.9564275769
 20
6.9127354202
 10
3.9556088504
 20
6.9214354847
 10
3.9545880422
 20
6.9270108645
 10
3.9534693895
 20
6.9289291623
  0
LINE
  5
5DA
100
AcDbEntity
  8
0
100
AcDbLine
 62
7
  6
CONTINUOUS
 10
3.9571412238
 20
6.8895590836
 11
3.9571412238
 21
6.843030802
  0
LINE
  5
5DB
100
AcDbEntity
  8
02___PRT_ALL_AXES
100
AcDbLine
 62
7
  6
CONTINUOUS
 10
3.9571412238
 20
6.7947343263
 11
3.9571412238
 21
6.7839756839
  0
LINE
  5
5DC
100
AcDbEntity
  8
02___PRT_ALL_AXES
100
AcDbLine
 62
7
  6
CONTINUOUS
 10
3.9571412238
 20
6.7356792082
 11
3.9571412238
 21
6.7249205658
  0
LINE
  5
5DD
100
AcDbEntity
  8
02___PRT_ALL_AXES
100
AcDbLine
 62
7
  6
CONTINUOUS
 10
3.9571412238
 20
6.67662409
 11
3.9571412238
 21
6.6658654477
  0
LINE
  5
5DE
100
AcDbEntity
  8
02___PRT_ALL_AXES
100
AcDbLine
 62
7
  6
CONTINUOUS
 10
3.9571412238
 20
6.6175689719
 11
3.9571412238
 21
6.6068103296
  0
LINE
  5
5DF
100
AcDbEntity
  8
02___PRT_ALL_AXES
100
AcDbLine
 62
7
  6
CONTINUOUS
 10
3.9571412238
 20
6.5585138538
 11
3.9571412238
 21
6.5477552115
  0
LINE
  5
5E0
100
AcDbEntity
  8
02___PRT_ALL_AXES
100
AcDbLine
 62
7
  6
CONTINUOUS
 10
3.9571412238
 20
6.4994587357
 11
3.9571412238
 21
6.4887000934
  0
LINE
  5
5E1
100
AcDbEntity
  8
02___PRT_ALL_AXES
100
AcDbLine
 62
7
  6
CONTINUOUS
 10
3.9571412238
 20
6.4404036176
 11
3.9571412238
 21
6.4296449753
  0
LINE
  5
5E2
100
AcDbEntity
  8
02___PRT_ALL_AXES
100
AcDbLine
 62
7
  6
CONTINUOUS
 10
3.9571412238
 20
6.3813484995
 11
3.9571412238
 21
6.3705898571
  0
LINE
  5
5E3
100
AcDbEntity
  8
02___PRT_ALL_AXES
100
AcDbLine
 62
7
  6
CONTINUOUS
 10
3.9571412238
 20
6.3222933814
 11
3.9571412238
 21
6.311534739
  0
LINE
  5
5E4
100
AcDbEntity
  8
0
100
AcDbLine
 62
7
  6
CONTINUOUS
 10
3.9571412238
 20
6.2632382633
 11
3.9571412238
 21
6.220267745
  0
LINE
  5
5E5
100
AcDbEntity
  8
02___PRT_ALL_AXES
100
AcDbLine
 62
9
  6
CONTINUOUS
 10
3.1750118316
 20
7.5194803434
 11
4.9466653749
 21
7.5194803434
  0
LINE
  5
5E6
100
AcDbEntity
  8
02___PRT_ALL_AXES
100
AcDbLine
 62
7
  6
CONTINUOUS
 10
5.005720493
 20
7.5785354615
 11
3.1159567135
 21
7.5785354615
  0
LINE
  5
5E7
100
AcDbEntity
  8
02___PRT_ALL_AXES
100
AcDbLine
 62
7
  6
CONTINUOUS
 10
4.6474527765
 20
6.7800610521
 11
4.6472270185
 21
6.7803218187
  0
LINE
  5
5E8
100
AcDbEntity
  8
02___PRT_ALL_AXES
100
AcDbLine
 62
7
  6
CONTINUOUS
 10
4.6474527765
 20
6.8391161702
 11
4.6472270185
 21
6.8393769368
  0
LINE
  5
5E9
100
AcDbEntity
  8
0
100
AcDbLine
 62
7
  6
CONTINUOUS
 10
4.1645359827
 20
6.8895590836
 11
4.1645359827
 21
6.8465885653
  0
LINE
  5
5EA
100
AcDbEntity
  8
02___PRT_ALL_AXES
100
AcDbLine
 62
7
  6
CONTINUOUS
 10
4.1645359827
 20
6.7982920896
 11
4.1645359827
 21
6.7875334472
  0
LINE
  5
5EB
100
AcDbEntity
  8
02___PRT_ALL_AXES
100
AcDbLine
 62
7
  6
CONTINUOUS
 10
4.1645359827
 20
6.7392369715
 11
4.1645359827
 21
6.7284783291
  0
LINE
  5
5EC
100
AcDbEntity
  8
02___PRT_ALL_AXES
100
AcDbLine
 62
7
  6
CONTINUOUS
 10
4.1645359827
 20
6.6801818534
 11
4.1645359827
 21
6.669423211
  0
LINE
  5
5ED
100
AcDbEntity
  8
02___PRT_ALL_AXES
100
AcDbLine
 62
7
  6
CONTINUOUS
 10
4.1645359827
 20
6.6211267352
 11
4.1645359827
 21
6.6103680929
  0
LINE
  5
5EE
100
AcDbEntity
  8
02___PRT_ALL_AXES
100
AcDbLine
 62
7
  6
CONTINUOUS
 10
4.1645359827
 20
6.5620716171
 11
4.1645359827
 21
6.5513129748
  0
LINE
  5
5EF
100
AcDbEntity
  8
02___PRT_ALL_AXES
100
AcDbLine
 62
7
  6
CONTINUOUS
 10
4.1645359827
 20
6.503016499
 11
4.1645359827
 21
6.4922578567
  0
LINE
  5
5F0
100
AcDbEntity
  8
02___PRT_ALL_AXES
100
AcDbLine
 62
7
  6
CONTINUOUS
 10
4.1645359827
 20
6.4439613809
 11
4.1645359827
 21
6.4332027386
  0
LINE
  5
5F1
100
AcDbEntity
  8
02___PRT_ALL_AXES
100
AcDbLine
 62
7
  6
CONTINUOUS
 10
4.1645359827
 20
6.3849062628
 11
4.1645359827
 21
6.3741476205
  0
LINE
  5
5F2
100
AcDbEntity
  8
02___PRT_ALL_AXES
100
AcDbLine
 62
7
  6
CONTINUOUS
 10
4.1645359827
 20
6.3258511447
 11
4.1645359827
 21
6.3150925023
  0
LINE
  5
5F3
100
AcDbEntity
  8
0
100
AcDbLine
 62
7
  6
CONTINUOUS
 10
4.1645359827
 20
6.2667960266
 11
4.1645359827
 21
6.220267745
  0
LWPOLYLINE
  5
5F4
100
AcDbEntity
  8
0
100
AcDbPolyline
 62
7
  6
CONTINUOUS
 90
6
 70
0
 10
4.1645359827
 20
6.8895590836
 10
4.1647195632
 20
6.9017525979
 10
4.1652496297
 20
6.9127354202
 10
4.1660683561
 20
6.9214354847
 10
4.1670891643
 20
6.9270108645
 10
4.168207817
 20
6.9289291623
  0
LWPOLYLINE
  5
5F5
100
AcDbEntity
  8
0
100
AcDbPolyline
 62
7
  6
CONTINUOUS
 90
6
 70
0
 10
4.1645359827
 20
6.220267745
 10
4.1643519655
 20
6.208070642
 10
4.163817006
 20
6.1970858876
 10
4.1629799956
 20
6.1883866282
 10
4.1619177775
 20
6.1828141233
 10
4.1607292683
 20
6.1808976663
  0
LINE
  5
5F6
100
AcDbEntity
  8
02___PRT_ALL_AXES
100
AcDbLine
 62
7
  6
CONTINUOUS
 10
3.47422443
 20
6.8095886112
 11
3.4744501881
 21
6.8098493777
  0
LINE
  5
5F7
100
AcDbEntity
  8
02___PRT_ALL_AXES
100
AcDbLine
 62
7
  6
CONTINUOUS
 10
3.47422443
 20
6.750533493
 11
3.4744501881
 21
6.7507942596
  0
LINE
  5
5F8
100
AcDbEntity
  8
02___PRT_ALL_AXES
100
AcDbLine
 62
7
  6
CONTINUOUS
 10
3.47422443
 20
6.6914783749
 11
3.4744501881
 21
6.6917391415
  0
LINE
  5
5F9
100
AcDbEntity
  8
02___PRT_ALL_AXES
100
AcDbLine
 62
9
  6
CONTINUOUS
 10
5.0450905718
 20
7.6179055403
 11
3.0765866348
 21
7.6179055403
  0
LINE
  5
5FA
100
AcDbEntity
  8
0
100
AcDbLine
 62
7
  6
CONTINUOUS
 10
4.2458779733
 20
5.8934960915
 11
4.2458779733
 21
5.8915275875
  0
LINE
  5
5FB
100
AcDbEntity
  8
0
100
AcDbLine
 62
7
  6
CONTINUOUS
 10
4.2645787607
 20
5.8915275875
 11
4.2645787607
 21
5.8521575088
  0
LINE
  5
5FC
100
AcDbEntity
  8
02___PRT_ALL_AXES
100
AcDbLine
 62
7
  6
CONTINUOUS
 10
4.2868225123
 20
6.8280693014
 11
4.2868225123
 21
6.8206874116
  0
LINE
  5
5FD
100
AcDbEntity
  8
02___PRT_ALL_AXES
100
AcDbLine
 62
7
  6
CONTINUOUS
 10
4.2868225123
 20
6.7690141833
 11
4.2868225123
 21
6.7616322935
  0
LINE
  5
5FE
100
AcDbEntity
  8
02___PRT_ALL_AXES
100
AcDbLine
 62
7
  6
CONTINUOUS
 10
4.2868225123
 20
6.7099590652
 11
4.2868225123
 21
6.7025771754
  0
LINE
  5
5FF
100
AcDbEntity
  8
02___PRT_ALL_AXES
100
AcDbLine
 62
7
  6
CONTINUOUS
 10
4.2868225123
 20
6.650903947
 11
4.2868225123
 21
6.6435220573
  0
LINE
  5
600
100
AcDbEntity
  8
02___PRT_ALL_AXES
100
AcDbLine
 62
7
  6
CONTINUOUS
 10
4.2868225123
 20
6.5918488289
 11
4.2868225123
 21
6.5844669392
  0
LINE
  5
601
100
AcDbEntity
  8
02___PRT_ALL_AXES
100
AcDbLine
 62
7
  6
CONTINUOUS
 10
4.2868225123
 20
6.5327937108
 11
4.2868225123
 21
6.5254118211
  0
LINE
  5
602
100
AcDbEntity
  8
02___PRT_ALL_AXES
100
AcDbLine
 62
7
  6
CONTINUOUS
 10
4.2868225123
 20
6.4737385927
 11
4.2868225123
 21
6.4663567029
  0
LINE
  5
603
100
AcDbEntity
  8
02___PRT_ALL_AXES
100
AcDbLine
 62
7
  6
CONTINUOUS
 10
4.2868225123
 20
6.4146834746
 11
4.2868225123
 21
6.4073015848
  0
LINE
  5
604
100
AcDbEntity
  8
02___PRT_ALL_AXES
100
AcDbLine
 62
7
  6
CONTINUOUS
 10
4.2868225123
 20
6.3556283565
 11
4.2868225123
 21
6.3482464667
  0
LINE
  5
605
100
AcDbEntity
  8
02___PRT_ALL_AXES
100
AcDbLine
 62
7
  6
CONTINUOUS
 10
4.2868225123
 20
6.2965732384
 11
4.2868225123
 21
6.2891913486
  0
LINE
  5
606
100
AcDbEntity
  8
AXIS
100
AcDbLine
 62
7
  6
CONTINUOUS
 10
4.2970590757
 20
6.159244123
 11
4.2970590757
 21
6.157275619
  0
LINE
  5
607
100
AcDbEntity
  8
AXIS
100
AcDbLine
 62
7
  6
CONTINUOUS
 10
4.2970590757
 20
6.1198740442
 11
4.2970590757
 21
6.1179055403
  0
LINE
  5
608
100
AcDbEntity
  8
AXIS
100
AcDbLine
 62
7
  6
CONTINUOUS
 10
4.2970590757
 20
6.0805039655
 11
4.2970590757
 21
6.0785354615
  0
LINE
  5
609
100
AcDbEntity
  8
AXIS
100
AcDbLine
 62
7
  6
CONTINUOUS
 10
4.2970590757
 20
6.0411338867
 11
4.2970590757
 21
6.0391653828
  0
LINE
  5
60A
100
AcDbEntity
  8
AXIS
100
AcDbLine
 62
7
  6
CONTINUOUS
 10
4.2970590757
 20
6.001763808
 11
4.2970590757
 21
5.9997953041
  0
LINE
  5
60B
100
AcDbEntity
  8
AXIS
100
AcDbLine
 62
7
  6
CONTINUOUS
 10
4.2970590757
 20
5.9623937293
 11
4.2970590757
 21
5.9604252253
  0
LINE
  5
60C
100
AcDbEntity
  8
AXIS
100
AcDbLine
 62
7
  6
CONTINUOUS
 10
4.2970590757
 20
5.9230236505
 11
4.2970590757
 21
5.9210551466
  0
LINE
  5
60D
100
AcDbEntity
  8
02___PRT_ALL_AXES
100
AcDbLine
 62
7
  6
CONTINUOUS
 10
3.47422443
 20
6.6324232568
 11
3.4744501881
 21
6.6326840234
  0
LINE
  5
60E
100
AcDbEntity
  8
02___PRT_ALL_AXES
100
AcDbLine
 62
7
  6
CONTINUOUS
 10
3.47422443
 20
6.5733681387
 11
3.4744501881
 21
6.5736289053
  0
LINE
  5
60F
100
AcDbEntity
  8
02___PRT_ALL_AXES
100
AcDbLine
 62
7
  6
CONTINUOUS
 10
3.47422443
 20
6.5143130206
 11
3.4744501881
 21
6.5145737872
  0
LINE
  5
610
100
AcDbEntity
  8
0
100
AcDbLine
 62
7
  6
CONTINUOUS
 10
3.8308579349
 20
5.9069412526
 11
3.8309262635
 21
5.9071283672
  0
LINE
  5
611
100
AcDbEntity
  8
02___PRT_ALL_AXES
100
AcDbLine
 62
7
  6
CONTINUOUS
 10
3.47422443
 20
6.4552579025
 11
3.4744501881
 21
6.4555186691
  0
LINE
  5
612
100
AcDbEntity
  8
02___PRT_ALL_AXES
100
AcDbLine
 62
7
  6
CONTINUOUS
 10
3.47422443
 20
6.3962027844
 11
3.4744501881
 21
6.396463551
  0
LINE
  5
613
100
AcDbEntity
  8
02___PRT_ALL_AXES
100
AcDbLine
 62
7
  6
CONTINUOUS
 10
3.47422443
 20
6.3371476663
 11
3.4744501881
 21
6.3374084328
  0
LINE
  5
614
100
AcDbEntity
  8
02___PRT_ALL_AXES
100
AcDbLine
 62
7
  6
CONTINUOUS
 10
3.47422443
 20
6.2780925482
 11
3.4744501881
 21
6.2783533147
  0
LINE
  5
615
100
AcDbEntity
  8
0
100
AcDbLine
 62
7
  6
CONTINUOUS
 10
3.5098977535
 20
6.8303234249
 11
3.4744501881
 21
6.8098493777
  0
LINE
  5
616
100
AcDbEntity
  8
02___PRT_ALL_AXES
100
AcDbLine
 62
7
  6
CONTINUOUS
 10
3.0765866348
 20
7.9289291623
 11
5.0450905718
 21
7.9289291623
  0
LINE
  5
617
100
AcDbEntity
  8
AXIS
100
AcDbLine
 62
7
  6
CONTINUOUS
 10
3.0765866348
 20
7.9289291623
 11
5.0450905718
 21
7.9289291623
  0
LINE
  5
618
100
AcDbEntity
  8
02___PRT_ALL_AXES
100
AcDbLine
 62
7
  6
CONTINUOUS
 10
4.6120197056
 20
6.8895590836
 11
4.6120197056
 21
6.8595734632
  0
LINE
  5
619
100
AcDbEntity
  8
02___PRT_ALL_AXES
100
AcDbLine
 62
7
  6
CONTINUOUS
 10
4.6120197056
 20
6.8112769874
 11
4.6120197056
 21
6.8005183451
  0
LINE
  5
61A
100
AcDbEntity
  8
02___PRT_ALL_AXES
100
AcDbLine
 62
7
  6
CONTINUOUS
 10
4.6120197056
 20
6.7522218693
 11
4.6120197056
 21
6.741463227
  0
LINE
  5
61B
100
AcDbEntity
  8
02___PRT_ALL_AXES
100
AcDbLine
 62
7
  6
CONTINUOUS
 10
4.6120197056
 20
6.6931667512
 11
4.6120197056
 21
6.6824081089
  0
LINE
  5
61C
100
AcDbEntity
  8
02___PRT_ALL_AXES
100
AcDbLine
 62
7
  6
CONTINUOUS
 10
4.6120197056
 20
6.6341116331
 11
4.6120197056
 21
6.6233529908
  0
LINE
  5
61D
100
AcDbEntity
  8
02___PRT_ALL_AXES
100
AcDbLine
 62
7
  6
CONTINUOUS
 10
4.6120197056
 20
6.575056515
 11
4.6120197056
 21
6.5642978727
  0
LINE
  5
61E
100
AcDbEntity
  8
02___PRT_ALL_AXES
100
AcDbLine
 62
7
  6
CONTINUOUS
 10
4.6120197056
 20
6.5160013969
 11
4.6120197056
 21
6.5052427546
  0
LINE
  5
61F
100
AcDbEntity
  8
02___PRT_ALL_AXES
100
AcDbLine
 62
7
  6
CONTINUOUS
 10
4.6120197056
 20
6.4569462788
 11
4.6120197056
 21
6.4461876364
  0
LINE
  5
620
100
AcDbEntity
  8
02___PRT_ALL_AXES
100
AcDbLine
 62
7
  6
CONTINUOUS
 10
4.6120197056
 20
6.3978911607
 11
4.6120197056
 21
6.3871325183
  0
LINE
  5
621
100
AcDbEntity
  8
02___PRT_ALL_AXES
100
AcDbLine
 62
7
  6
CONTINUOUS
 10
4.6120197056
 20
6.3388360426
 11
4.6120197056
 21
6.3280774002
  0
LINE
  5
622
100
AcDbEntity
  8
02___PRT_ALL_AXES
100
AcDbLine
 62
7
  6
CONTINUOUS
 10
4.6120197056
 20
6.2797809245
 11
4.6120197056
 21
6.220267745
  0
LINE
  5
623
100
AcDbEntity
  8
0
100
AcDbLine
 62
7
  6
CONTINUOUS
 10
3.5098977535
 20
6.7712683067
 11
3.4744501881
 21
6.7507942596
  0
LINE
  5
624
100
AcDbEntity
  8
0
100
AcDbLine
 62
7
  6
CONTINUOUS
 10
3.5098977535
 20
6.7122131886
 11
3.4744501881
 21
6.6917391415
  0
LINE
  5
625
100
AcDbEntity
  8
0
100
AcDbLine
 62
7
  6
CONTINUOUS
 10
3.5098977535
 20
6.6531580705
 11
3.4744501881
 21
6.6326840234
  0
LWPOLYLINE
  5
626
100
AcDbEntity
  8
02___PRT_ALL_AXES
100
AcDbPolyline
 62
7
  6
CONTINUOUS
 90
10
 70
0
 10
3.5096575009
 20
6.7817494661
 10
3.5114747377
 20
6.7825128609
 10
3.5260295019
 20
6.7840459858
 10
3.5543804256
 20
6.7855617704
 10
3.596525606
 20
6.7870981736
 10
3.6513502731
 20
6.7886422256
 10
3.7165708166
 20
6.7901725183
 10
3.7901613319
 20
6.791688408
 10
3.8713322579
 20
6.7932143728
 10
3.9571412238
 20
6.7947343263
  0
LWPOLYLINE
  5
627
100
AcDbEntity
  8
02___PRT_ALL_AXES
100
AcDbPolyline
 62
7
  6
CONTINUOUS
 90
8
 70
0
 10
3.47422443
 20
6.8022067214
 10
3.4760242989
 20
6.8029431793
 10
3.4903570489
 20
6.8044160952
 10
3.5186712789
 20
6.805889011
 10
3.5602730579
 20
6.8073619268
 10
3.6141428009
 20
6.8088348427
 10
3.678960257
 20
6.8103077585
 10
3.7531368667
 20
6.8117806744
  0
LINE
  5
628
100
AcDbEntity
  8
0
100
AcDbLine
 62
7
  6
CONTINUOUS
 10
4.6474527765
 20
6.3002382175
 11
4.6474527765
 21
6.3076201072
  0
LINE
  5
629
100
AcDbEntity
  8
0
100
AcDbLine
 62
7
  6
CONTINUOUS
 10
4.6474527765
 20
6.3592933356
 11
4.6474527765
 21
6.3666752253
  0
LINE
  5
62A
100
AcDbEntity
  8
0
100
AcDbLine
 62
7
  6
CONTINUOUS
 10
4.6474527765
 20
6.4183484537
 11
4.6474527765
 21
6.4257303434
  0
LINE
  5
62B
100
AcDbEntity
  8
0
100
AcDbLine
 62
7
  6
CONTINUOUS
 10
4.6474527765
 20
6.4774035718
 11
4.6474527765
 21
6.4847854615
  0
LINE
  5
62C
100
AcDbEntity
  8
0
100
AcDbLine
 62
7
  6
CONTINUOUS
 10
4.6474527765
 20
6.5364586899
 11
4.6474527765
 21
6.5438405797
  0
LINE
  5
62D
100
AcDbEntity
  8
0
100
AcDbLine
 62
7
  6
CONTINUOUS
 10
4.6474527765
 20
6.595513808
 11
4.6474527765
 21
6.6028956978
  0
LINE
  5
62E
100
AcDbEntity
  8
0
100
AcDbLine
 62
7
  6
CONTINUOUS
 10
4.6474527765
 20
6.6545689261
 11
4.6474527765
 21
6.6619508159
  0
LINE
  5
62F
100
AcDbEntity
  8
0
100
AcDbLine
 62
7
  6
CONTINUOUS
 10
4.6474527765
 20
6.7136240442
 11
4.6474527765
 21
6.721005934
  0
LINE
  5
630
100
AcDbEntity
  8
0
100
AcDbLine
 62
7
  6
CONTINUOUS
 10
4.6474527765
 20
6.7726791623
 11
4.6474527765
 21
6.7800610521
  0
LINE
  5
631
100
AcDbEntity
  8
0
100
AcDbLine
 62
7
  6
CONTINUOUS
 10
4.6474527765
 20
6.8317342804
 11
4.6474527765
 21
6.8391161702
  0
LINE
  5
632
100
AcDbEntity
  8
0
100
AcDbLine
 62
7
  6
CONTINUOUS
 10
3.8246181308
 20
6.1769606646
 11
3.8248184554
 21
6.1772187301
  0
LWPOLYLINE
  5
633
100
AcDbEntity
  8
02___PRT_ALL_AXES
100
AcDbPolyline
 62
7
  6
CONTINUOUS
 90
5
 70
0
 10
3.5096575009
 20
6.42741871
 10
3.5103003444
 20
6.4278727035
 10
3.5215913258
 20
6.429378115
 10
3.5462193675
 20
6.430861348
 10
3.5835017665
 20
6.4323399796
  0
LINE
  5
634
100
AcDbEntity
  8
0
100
AcDbLine
 62
7
  6
CONTINUOUS
 10
3.5098977535
 20
6.5941029524
 11
3.4744501881
 21
6.5736289053
  0
LINE
  5
635
100
AcDbEntity
  8
0
100
AcDbLine
 62
7
  6
CONTINUOUS
 10
3.5098977535
 20
6.5350478343
 11
3.4744501881
 21
6.5145737872
  0
LWPOLYLINE
  5
636
100
AcDbEntity
  8
02___PRT_ALL_AXES
100
AcDbPolyline
 62
7
  6
CONTINUOUS
 90
8
 70
0
 10
3.509657501
 20
6.7226941201
 10
3.5114174555
 20
6.7234456077
 10
3.525690705
 20
6.7249668637
 10
3.5538868896
 20
6.726485267
 10
3.5959805156
 20
6.7280257811
 10
3.6508451515
 20
6.7295742297
 10
3.7162094508
 20
6.7311095069
 10
3.7896463117
 20
6.7326232052
  0
LWPOLYLINE
  5
637
100
AcDbEntity
  8
02___PRT_ALL_AXES
100
AcDbPolyline
 62
7
  6
CONTINUOUS
 90
10
 70
0
 10
3.5096575009
 20
6.663639186
 10
3.5115662539
 20
6.6644216227
 10
3.5263238808
 20
6.6659564086
 10
3.5548419335
 20
6.6674714297
 10
3.5967536228
 20
6.6689951487
 10
3.6505971991
 20
6.6705127829
 10
3.7148103028
 20
6.6720237772
 10
3.788242523
 20
6.6735405679
 10
3.8699694482
 20
6.6750793768
 10
3.9571412238
 20
6.67662409
  0
LWPOLYLINE
  5
638
100
AcDbEntity
  8
02___PRT_ALL_AXES
100
AcDbPolyline
 62
7
  6
CONTINUOUS
 90
6
 70
0
 10
3.47422443
 20
6.7431516033
 10
3.4760242989
 20
6.7438880612
 10
3.4903570489
 20
6.745360977
 10
3.5186712789
 20
6.7468338929
 10
3.5602730579
 20
6.7483068087
 10
3.6141428009
 20
6.7497797246
  0
LWPOLYLINE
  5
639
100
AcDbEntity
  8
02___PRT_ALL_AXES
100
AcDbPolyline
 62
7
  6
CONTINUOUS
 90
8
 70
0
 10
3.47422443
 20
6.6840964852
 10
3.4760242989
 20
6.6848329431
 10
3.4903570489
 20
6.6863058589
 10
3.5186712789
 20
6.6877787748
 10
3.5602730579
 20
6.6892516906
 10
3.6141428009
 20
6.6907246065
 10
3.678960257
 20
6.6921975223
 10
3.7531368667
 20
6.6936704382
  0
LWPOLYLINE
  5
63A
100
AcDbEntity
  8
02___PRT_ALL_AXES
100
AcDbPolyline
 62
7
  6
CONTINUOUS
 90
9
 70
0
 10
3.47422443
 20
6.6250413671
 10
3.4760242989
 20
6.625777825
 10
3.4903570489
 20
6.6272507408
 10
3.5186712789
 20
6.6287236567
 10
3.5602730579
 20
6.6301965725
 10
3.6141428009
 20
6.6316694884
 10
3.678960257
 20
6.6331424042
 10
3.7531368667
 20
6.6346153201
 10
3.8348546942
 20
6.6360882359
  0
LWPOLYLINE
  5
63B
100
AcDbEntity
  8
02___PRT_ALL_AXES
100
AcDbPolyline
 62
7
  6
CONTINUOUS
 90
9
 70
0
 10
3.4744501881
 20
6.8098493777
 10
3.4760242989
 20
6.8103250691
 10
3.4903570489
 20
6.8117979849
 10
3.5186712789
 20
6.8132709008
 10
3.5602730579
 20
6.8147438166
 10
3.6141428009
 20
6.8162167325
 10
3.678960257
 20
6.8176896483
 10
3.7531368667
 20
6.8191625641
 10
3.8348546942
 20
6.82063548
  0
LWPOLYLINE
  5
63C
100
AcDbEntity
  8
02___PRT_ALL_AXES
100
AcDbPolyline
 62
7
  6
CONTINUOUS
 90
9
 70
0
 10
3.4744501881
 20
6.7507942596
 10
3.4760242989
 20
6.751269951
 10
3.4903570489
 20
6.7527428668
 10
3.5186712789
 20
6.7542157827
 10
3.5602730579
 20
6.7556886985
 10
3.6141428009
 20
6.7571616143
 10
3.678960257
 20
6.7586345302
 10
3.7531368667
 20
6.760107446
 10
3.8348546942
 20
6.7615803619
  0
LINE
  5
63D
100
AcDbEntity
  8
0
100
AcDbLine
 62
7
  6
CONTINUOUS
 10
3.8248670499
 20
6.1792168425
 11
3.8246181308
 21
6.1789291638
  0
LINE
  5
63E
100
AcDbEntity
  8
0
100
AcDbLine
 62
7
  6
CONTINUOUS
 10
3.8248670499
 20
6.1398467638
 11
3.8246181308
 21
6.1395590898
  0
LINE
  5
63F
100
AcDbEntity
  8
0
100
AcDbLine
 62
7
  6
CONTINUOUS
 10
3.8248670499
 20
6.100476685
 11
3.8246181308
 21
6.1001890048
  0
LINE
  5
640
100
AcDbEntity
  8
0
100
AcDbLine
 62
7
  6
CONTINUOUS
 10
3.5098977535
 20
6.4759927162
 11
3.4744501881
 21
6.4555186691
  0
LINE
  5
641
100
AcDbEntity
  8
0
100
AcDbLine
 62
7
  6
CONTINUOUS
 10
3.5098977535
 20
6.4169375981
 11
3.4744501881
 21
6.396463551
  0
LINE
  5
642
100
AcDbEntity
  8
0
100
AcDbLine
 62
7
  6
CONTINUOUS
 10
3.5098977535
 20
6.35788248
 11
3.4744501881
 21
6.3374084328
  0
LWPOLYLINE
  5
643
100
AcDbEntity
  8
02___PRT_ALL_AXES
100
AcDbPolyline
 62
7
  6
CONTINUOUS
 90
5
 70
0
 10
3.47422443
 20
6.4478760127
 10
3.4752889479
 20
6.4484423284
 10
3.4876931081
 20
6.4498939764
 10
3.513742117
 20
6.4513456245
 10
3.552815827
 20
6.4527972726
  0
LWPOLYLINE
  5
644
100
AcDbEntity
  8
02___PRT_ALL_AXES
100
AcDbPolyline
 62
7
  6
CONTINUOUS
 90
10
 70
0
 10
3.5096575018
 20
6.4864733077
 10
3.5114443213
 20
6.4872308509
 10
3.5259146494
 20
6.4887622855
 10
3.5541964339
 20
6.4902782207
 10
3.5961103787
 20
6.4918094286
 10
3.6504037037
 20
6.4933424866
 10
3.7147788181
 20
6.4948577331
 10
3.7882207877
 20
6.4963747872
 10
3.8699566933
 20
6.4979137907
 10
3.9571412238
 20
6.4994587357
  0
LWPOLYLINE
  5
645
100
AcDbEntity
  8
02___PRT_ALL_AXES
100
AcDbPolyline
 62
7
  6
CONTINUOUS
 90
10
 70
0
 10
3.5096575009
 20
6.6045840683
 10
3.5114748867
 20
6.6053475379
 10
3.5260696565
 20
6.6068834601
 10
3.5543677786
 20
6.6083958695
 10
3.5959846638
 20
6.6099156765
 10
3.6502643936
 20
6.611449163
 10
3.7151495355
 20
6.6129760885
 10
3.788716782
 20
6.6144947521
 10
3.8703199804
 20
6.6160306296
 10
3.9571412238
 20
6.6175689719
  0
LWPOLYLINE
  5
646
100
AcDbEntity
  8
02___PRT_ALL_AXES
100
AcDbPolyline
 62
7
  6
CONTINUOUS
 90
6
 70
0
 10
3.5096575021
 20
6.5455295797
 10
3.5115640817
 20
6.5463109409
 10
3.5260209636
 20
6.5478249114
 10
3.5543942858
 20
6.5493418969
 10
3.5966528172
 20
6.5508817254
 10
3.6516437577
 20
6.5524292265
  0
LWPOLYLINE
  5
647
100
AcDbEntity
  8
02___PRT_ALL_AXES
100
AcDbPolyline
 62
7
  6
CONTINUOUS
 90
9
 70
0
 10
3.47422443
 20
6.565986249
 10
3.4760242989
 20
6.5667227069
 10
3.4903570489
 20
6.5681956227
 10
3.5186712789
 20
6.5696685386
 10
3.5602730579
 20
6.5711414544
 10
3.6141428009
 20
6.5726143703
 10
3.678960257
 20
6.5740872861
 10
3.7531368667
 20
6.5755602019
 10
3.8348546942
 20
6.5770331178
  0
LWPOLYLINE
  5
648
100
AcDbEntity
  8
02___PRT_ALL_AXES
100
AcDbPolyline
 62
7
  6
CONTINUOUS
 90
9
 70
0
 10
3.47422443
 20
6.5069311308
 10
3.4760242989
 20
6.5076675888
 10
3.4903570489
 20
6.5091405046
 10
3.5186712789
 20
6.5106134205
 10
3.5602730579
 20
6.5120863363
 10
3.6141428009
 20
6.5135592521
 10
3.678960257
 20
6.515032168
 10
3.7531368667
 20
6.5165050838
 10
3.8348546942
 20
6.5179779997
  0
LWPOLYLINE
  5
649
100
AcDbEntity
  8
02___PRT_ALL_AXES
100
AcDbPolyline
 62
7
  6
CONTINUOUS
 90
9
 70
0
 10
3.4744501881
 20
6.6917391415
 10
3.4760242989
 20
6.6922148329
 10
3.4903570489
 20
6.6936877487
 10
3.5186712789
 20
6.6951606645
 10
3.5602730579
 20
6.6966335804
 10
3.6141428009
 20
6.6981064962
 10
3.678960257
 20
6.6995794121
 10
3.7531368667
 20
6.7010523279
 10
3.8348546942
 20
6.7025252438
  0
LWPOLYLINE
  5
64A
100
AcDbEntity
  8
02___PRT_ALL_AXES
100
AcDbPolyline
 62
7
  6
CONTINUOUS
 90
9
 70
0
 10
3.4744501881
 20
6.6326840234
 10
3.4760242989
 20
6.6331597147
 10
3.4903570489
 20
6.6346326306
 10
3.5186712789
 20
6.6361055464
 10
3.5602730579
 20
6.6375784623
 10
3.6141428009
 20
6.6390513781
 10
3.678960257
 20
6.640524294
 10
3.7531368667
 20
6.6419972098
 10
3.8348546942
 20
6.6434701257
  0
LWPOLYLINE
  5
64B
100
AcDbEntity
  8
02___PRT_ALL_AXES
100
AcDbPolyline
 62
7
  6
CONTINUOUS
 90
9
 70
0
 10
3.4744501881
 20
6.5736289053
 10
3.4760242989
 20
6.5741045966
 10
3.4903570489
 20
6.5755775125
 10
3.5186712789
 20
6.5770504283
 10
3.5602730579
 20
6.5785233442
 10
3.6141428009
 20
6.57999626
 10
3.678960257
 20
6.5814691759
 10
3.7531368667
 20
6.5829420917
 10
3.8348546942
 20
6.5844150076
  0
LINE
  5
64C
100
AcDbEntity
  8
02___PRT_ALL_AXES
100
AcDbLine
 62
7
  6
CONTINUOUS
 10
4.9466653749
 20
7.5194803434
 11
4.9466653749
 21
7.0864094773
  0
LINE
  5
64D
100
AcDbEntity
  8
0
100
AcDbLine
 62
7
  6
CONTINUOUS
 10
3.8248670499
 20
6.0611066063
 11
3.8246181308
 21
6.0608189045
  0
LINE
  5
64E
100
AcDbEntity
  8
0
100
AcDbLine
 62
7
  6
CONTINUOUS
 10
3.8248670499
 20
6.0217365275
 11
3.8246181308
 21
6.021448841
  0
LINE
  5
64F
100
AcDbEntity
  8
0
100
AcDbLine
 62
7
  6
CONTINUOUS
 10
3.8248670499
 20
5.9823664488
 11
3.8246181308
 21
5.9820788019
  0
LINE
  5
650
100
AcDbEntity
  8
0
100
AcDbLine
 62
7
  6
CONTINUOUS
 10
3.8248670499
 20
5.9429963701
 11
3.8246181308
 21
5.9427086898
  0
LINE
  5
651
100
AcDbEntity
  8
02___PRT_ALL_AXES
100
AcDbLine
 62
7
  6
CONTINUOUS
 10
4.6472270185
 20
6.8314735139
 11
4.6474527765
 21
6.8317342804
  0
LINE
  5
652
100
AcDbEntity
  8
0
100
AcDbLine
 62
7
  6
CONTINUOUS
 10
3.5098977535
 20
6.2988273619
 11
3.4744501881
 21
6.2783533147
  0
LWPOLYLINE
  5
653
100
AcDbEntity
  8
02___PRT_ALL_AXES
100
AcDbPolyline
 62
7
  6
CONTINUOUS
 90
8
 70
0
 10
4.6120197034
 20
6.8005191942
 10
4.610371354
 20
6.7997912709
 10
4.5962628862
 20
6.7982655595
 10
4.568288131
 20
6.7967490751
 10
4.526466807
 20
6.7952113652
 10
4.4718927878
 20
6.7936655328
 10
4.4068271838
 20
6.7921328899
 10
4.3333370256
 20
6.7906150534
  0
LWPOLYLINE
  5
654
100
AcDbEntity
  8
02___PRT_ALL_AXES
100
AcDbPolyline
 62
7
  6
CONTINUOUS
 90
10
 70
0
 10
4.6120197056
 20
6.8595734566
 10
4.6101137022
 20
6.8587915968
 10
4.5953458705
 20
6.8572557259
 10
4.5668242752
 20
6.8557407528
 10
4.5251281228
 20
6.8542239751
 10
4.471481843
 20
6.8527101388
 10
4.4070579793
 20
6.8511930649
 10
4.3335555424
 20
6.8496744588
 10
4.2517712325
 20
6.8481344323
 10
4.1645359827
 20
6.8465885653
  0
LWPOLYLINE
  5
655
100
AcDbEntity
  8
02___PRT_ALL_AXES
100
AcDbPolyline
 62
7
  6
CONTINUOUS
 90
9
 70
0
 10
3.47422443
 20
6.3888208946
 10
3.4760242989
 20
6.3895573525
 10
3.4903570489
 20
6.3910302684
 10
3.5186712789
 20
6.3925031842
 10
3.5602730579
 20
6.3939761001
 10
3.6141428009
 20
6.3954490159
 10
3.678960257
 20
6.3969219318
 10
3.7531368667
 20
6.3983948476
 10
3.8348546942
 20
6.3998677635
  0
LWPOLYLINE
  5
656
100
AcDbEntity
  8
02___PRT_ALL_AXES
100
AcDbPolyline
 62
7
  6
CONTINUOUS
 90
9
 70
0
 10
3.47422443
 20
6.3297657765
 10
3.4760242989
 20
6.3305022344
 10
3.4903570489
 20
6.3319751503
 10
3.5186712789
 20
6.3334480661
 10
3.5602730579
 20
6.334920982
 10
3.6141428009
 20
6.3363938978
 10
3.678960257
 20
6.3378668137
 10
3.7531368667
 20
6.3393397295
 10
3.8348546942
 20
6.3408126453
  0
LWPOLYLINE
  5
657
100
AcDbEntity
  8
02___PRT_ALL_AXES
100
AcDbPolyline
 62
7
  6
CONTINUOUS
 90
10
 70
0
 10
3.5096575029
 20
6.3683644074
 10
3.5116148411
 20
6.3691559338
 10
3.5261857432
 20
6.3706711463
 10
3.5546104605
 20
6.3721858726
 10
3.5968889926
 20
6.3737238353
 10
3.6518604023
 20
6.3752693845
 10
3.7172310505
 20
6.3768010992
 10
3.7908844432
 20
6.3783167304
 10
3.8717107793
 20
6.3798354188
 10
3.9571412238
 20
6.3813484995
  0
LWPOLYLINE
  5
658
100
AcDbEntity
  8
02___PRT_ALL_AXES
100
AcDbPolyline
 62
7
  6
CONTINUOUS
 90
5
 70
0
 10
3.4744501881
 20
6.4555186691
 10
3.4752889479
 20
6.4558242182
 10
3.4876931081
 20
6.4572758662
 10
3.513742117
 20
6.4587275143
 10
3.552815827
 20
6.4601791623
  0
LWPOLYLINE
  5
659
100
AcDbEntity
  8
02___PRT_ALL_AXES
100
AcDbPolyline
 62
7
  6
CONTINUOUS
 90
9
 70
0
 10
3.4744501881
 20
6.5145737872
 10
3.4760242989
 20
6.5150494785
 10
3.4903570489
 20
6.5165223944
 10
3.5186712789
 20
6.5179953102
 10
3.5602730579
 20
6.5194682261
 10
3.6141428009
 20
6.5209411419
 10
3.678960257
 20
6.5224140578
 10
3.7531368667
 20
6.5238869736
 10
3.8348546942
 20
6.5253598894
  0
LINE
  5
65A
100
AcDbEntity
  8
0
100
AcDbLine
 62
7
  6
CONTINUOUS
 10
5.0450905718
 20
8.9879842804
 11
5.0403935754
 21
9.2570750211
  0
LINE
  5
65B
100
AcDbEntity
  8
02___PRT_ALL_AXES
100
AcDbLine
 62
7
  6
CONTINUOUS
 10
5.0450905718
 20
7.9289291623
 11
5.0450905718
 21
7.6179055403
  0
LINE
  5
65C
100
AcDbEntity
  8
AXIS
100
AcDbLine
 62
7
  6
CONTINUOUS
 10
5.0450905718
 20
7.9289291623
 11
5.0450905718
 21
8.9879842804
  0
LINE
  5
65D
100
AcDbEntity
  8
02___PRT_ALL_AXES
100
AcDbLine
 62
7
  6
CONTINUOUS
 10
4.6472270185
 20
6.7724183958
 11
4.6474527765
 21
6.7726791623
  0
LINE
  5
65E
100
AcDbEntity
  8
02___PRT_ALL_AXES
100
AcDbLine
 62
7
  6
CONTINUOUS
 10
4.6472270185
 20
6.7133632777
 11
4.6474527765
 21
6.7136240442
  0
LINE
  5
65F
100
AcDbEntity
  8
02___PRT_ALL_AXES
100
AcDbLine
 62
7
  6
CONTINUOUS
 10
4.6472270185
 20
6.6543081595
 11
4.6474527765
 21
6.6545689261
  0
LWPOLYLINE
  5
660
100
AcDbEntity
  8
02___PRT_ALL_AXES
100
AcDbPolyline
 62
7
  6
CONTINUOUS
 90
5
 70
0
 10
4.6120197056
 20
6.6824081178
 10
4.611376552
 20
6.6819540156
 10
4.6000840476
 20
6.6804485626
 10
4.5754543582
 20
6.6789653149
 10
4.53817544
 20
6.677486849
  0
LINE
  5
661
100
AcDbEntity
  8
0
100
AcDbLine
 62
7
  6
CONTINUOUS
 10
4.611779453
 20
6.8109994667
 11
4.6472270185
 21
6.8314735139
  0
LINE
  5
662
100
AcDbEntity
  8
0
100
AcDbLine
 62
7
  6
CONTINUOUS
 10
4.611779453
 20
6.7519443486
 11
4.6472270185
 21
6.7724183958
  0
LINE
  5
663
100
AcDbEntity
  8
0
100
AcDbLine
 62
7
  6
CONTINUOUS
 10
4.611779453
 20
6.6928892305
 11
4.6472270185
 21
6.7133632777
  0
LWPOLYLINE
  5
664
100
AcDbEntity
  8
02___PRT_ALL_AXES
100
AcDbPolyline
 62
7
  6
CONTINUOUS
 90
10
 70
0
 10
3.5096575031
 20
6.3093076399
 10
3.5113096676
 20
6.310036399
 10
3.5254247379
 20
6.3115620173
 10
3.5534091615
 20
6.3130786308
 10
3.5952417618
 20
6.3146164627
 10
3.649831069
 20
6.3161624898
 10
3.7149168678
 20
6.3176954029
 10
3.7883908351
 20
6.3192127689
 10
3.8700226261
 20
6.3207496348
 10
3.9571412238
 20
6.3222933814
  0
LWPOLYLINE
  5
665
100
AcDbEntity
  8
02___PRT_ALL_AXES
100
AcDbPolyline
 62
7
  6
CONTINUOUS
 90
10
 70
0
 10
3.5096575009
 20
6.2502533647
 10
3.5115655943
 20
6.2510356607
 10
3.526337525
 20
6.252571535
 10
3.5548643646
 20
6.2540865674
 10
3.5965737994
 20
6.2556036355
 10
3.6502172782
 20
6.25711725
 10
3.7146309489
 20
6.2586340206
 10
3.7881292142
 20
6.2601525179
 10
3.8699074859
 20
6.2616924238
 10
3.9571412238
 20
6.2632382633
  0
LWPOLYLINE
  5
666
100
AcDbEntity
  8
02___PRT_ALL_AXES
100
AcDbPolyline
 62
7
  6
CONTINUOUS
 90
9
 70
0
 10
3.47422443
 20
6.2707106584
 10
3.4760242989
 20
6.2714471163
 10
3.4903570489
 20
6.2729200322
 10
3.5186712789
 20
6.274392948
 10
3.5602730579
 20
6.2758658639
 10
3.6141428009
 20
6.2773387797
 10
3.678960257
 20
6.2788116955
 10
3.7531368667
 20
6.2802846114
 10
3.8348546942
 20
6.2817575272
  0
LWPOLYLINE
  5
667
100
AcDbEntity
  8
02___PRT_ALL_AXES
100
AcDbPolyline
 62
7
  6
CONTINUOUS
 90
10
 70
0
 10
4.6120197035
 20
6.7414624024
 10
4.6100574559
 20
6.7406699012
 10
4.5954852883
 20
6.7391552491
 10
4.5670550482
 20
6.7376404517
 10
4.5247695321
 20
6.7361024033
 10
4.4697941288
 20
6.7345568673
 10
4.4044231744
 20
6.7330252282
 10
4.3307729777
 20
6.7315097112
 10
4.2499673532
 20
6.7299914266
 10
4.1645359827
 20
6.7284783291
  0
LWPOLYLINE
  5
668
100
AcDbEntity
  8
02___PRT_ALL_AXES
100
AcDbPolyline
 62
7
  6
CONTINUOUS
 90
9
 70
0
 10
3.4744501881
 20
6.396463551
 10
3.4760242989
 20
6.3969392423
 10
3.4903570489
 20
6.3984121582
 10
3.5186712789
 20
6.399885074
 10
3.5602730579
 20
6.4013579898
 10
3.6141428009
 20
6.4028309057
 10
3.678960257
 20
6.4043038215
 10
3.7531368667
 20
6.4057767374
 10
3.8348546942
 20
6.4072496532
  0
LWPOLYLINE
  5
669
100
AcDbEntity
  8
02___PRT_ALL_AXES
100
AcDbPolyline
 62
7
  6
CONTINUOUS
 90
6
 70
0
 10
3.4744501881
 20
6.3374084328
 10
3.4760242989
 20
6.3378841242
 10
3.4903570489
 20
6.33935704
 10
3.5186712789
 20
6.3408299559
 10
3.5602730579
 20
6.3423028717
 10
3.6141428009
 20
6.3437757876
  0
LINE
  5
66A
100
AcDbEntity
  8
0
100
AcDbLine
 62
7
  6
CONTINUOUS
 10
4.2970590757
 20
6.0017638017
 11
4.2968584046
 21
6.0015055131
  0
LINE
  5
66B
100
AcDbEntity
  8
0
100
AcDbLine
 62
7
  6
CONTINUOUS
 10
4.2968101566
 20
6.1569879388
 11
4.2970590757
 21
6.1572756272
  0
LINE
  5
66C
100
AcDbEntity
  8
0
100
AcDbLine
 62
7
  6
CONTINUOUS
 10
4.2968101566
 20
6.1176178601
 11
4.2970590757
 21
6.1179055598
  0
LINE
  5
66D
100
AcDbEntity
  8
0
100
AcDbLine
 62
7
  6
CONTINUOUS
 10
4.2968101566
 20
6.0782477814
 11
4.2970590757
 21
6.0785354615
  0
LINE
  5
66E
100
AcDbEntity
  8
0
100
AcDbLine
 62
7
  6
CONTINUOUS
 10
4.2968101566
 20
6.0388777026
 11
4.2970590757
 21
6.0391653765
  0
LINE
  5
66F
100
AcDbEntity
  8
02___PRT_ALL_AXES
100
AcDbLine
 62
7
  6
CONTINUOUS
 10
4.6472270185
 20
6.5952530414
 11
4.6474527765
 21
6.595513808
  0
LINE
  5
670
100
AcDbEntity
  8
02___PRT_ALL_AXES
100
AcDbLine
 62
7
  6
CONTINUOUS
 10
4.6472270185
 20
6.5361979233
 11
4.6474527765
 21
6.5364586899
  0
LINE
  5
671
100
AcDbEntity
  8
02___PRT_ALL_AXES
100
AcDbLine
 62
7
  6
CONTINUOUS
 10
4.6472270185
 20
6.4771428052
 11
4.6474527765
 21
6.4774035718
  0
LINE
  5
672
100
AcDbEntity
  8
02___PRT_ALL_AXES
100
AcDbLine
 62
7
  6
CONTINUOUS
 10
4.6472270185
 20
6.4180876871
 11
4.6474527765
 21
6.4183484537
  0
LINE
  5
673
100
AcDbEntity
  8
0
100
AcDbLine
 62
7
  6
CONTINUOUS
 10
3.8277751081
 20
6.1808976663
 11
3.8248670499
 21
6.1792168425
  0
LINE
  5
674
100
AcDbEntity
  8
0
100
AcDbLine
 62
7
  6
CONTINUOUS
 10
3.8572971637
 20
6.1585931864
 11
3.8248670499
 21
6.1398467638
  0
LINE
  5
675
100
AcDbEntity
  8
0
100
AcDbLine
 62
7
  6
CONTINUOUS
 10
3.8572971637
 20
6.1192231077
 11
3.8248670499
 21
6.100476685
  0
LINE
  5
676
100
AcDbEntity
  8
0
100
AcDbLine
 62
7
  6
CONTINUOUS
 10
3.8572971637
 20
6.0798530289
 11
3.8248670499
 21
6.0611066063
  0
LINE
  5
677
100
AcDbEntity
  8
0
100
AcDbLine
 62
7
  6
CONTINUOUS
 10
4.611779453
 20
6.6338341124
 11
4.6472270185
 21
6.6543081595
  0
LINE
  5
678
100
AcDbEntity
  8
0
100
AcDbLine
 62
7
  6
CONTINUOUS
 10
4.611779453
 20
6.5747789943
 11
4.6472270185
 21
6.5952530414
  0
LINE
  5
679
100
AcDbEntity
  8
0
100
AcDbLine
 62
7
  6
CONTINUOUS
 10
4.611779453
 20
6.5157238762
 11
4.6472270185
 21
6.5361979233
  0
LWPOLYLINE
  5
67A
100
AcDbEntity
  8
02___PRT_ALL_AXES
100
AcDbPolyline
 62
7
  6
CONTINUOUS
 90
10
 70
0
 10
4.6120197049
 20
6.6233534759
 10
4.6102244025
 20
6.622594182
 10
4.5957350693
 20
6.6210625996
 10
4.5674378488
 20
6.6195467497
 10
4.5255186025
 20
6.6180158707
 10
4.4712427139
 20
6.6164835554
 10
4.4068927341
 20
6.6149689716
 10
4.3334523031
 20
6.6134519607
 10
4.2517155235
 20
6.6119129472
 10
4.1645359827
 20
6.6103680929
  0
LWPOLYLINE
  5
67B
100
AcDbEntity
  8
02___PRT_ALL_AXES
100
AcDbPolyline
 62
7
  6
CONTINUOUS
 90
10
 70
0
 10
4.6120197056
 20
6.5052427507
 10
4.6102024263
 20
6.5044793131
 10
4.5956096129
 20
6.5029435137
 10
4.5673165599
 20
6.5014312674
 10
4.5256776812
 20
6.4999106805
 10
4.4713736511
 20
6.4983766648
 10
4.4064748675
 20
6.4968495842
 10
4.3329047048
 20
6.495330984
 10
4.2513155175
 20
6.4937954411
 10
4.1645359827
 20
6.4922578567
  0
LWPOLYLINE
  5
67C
100
AcDbEntity
  8
02___PRT_ALL_AXES
100
AcDbPolyline
 62
7
  6
CONTINUOUS
 90
10
 70
0
 10
4.6120197045
 20
6.5642972808
 10
4.6101204802
 20
6.5635173985
 10
4.595672459
 20
6.5620030608
 10
4.5673049837
 20
6.5604858851
 10
4.5250488815
 20
6.5589458778
 10
4.4700599186
 20
6.5573982759
 10
4.4046281814
 20
6.5558643455
 10
4.331000171
 20
6.554348801
 10
4.2504855513
 20
6.5528354816
 10
4.1645359827
 20
6.5513129748
  0
LWPOLYLINE
  5
67D
100
AcDbEntity
  8
02___PRT_ALL_AXES
100
AcDbPolyline
 62
7
  6
CONTINUOUS
 90
9
 70
0
 10
3.4744501881
 20
6.2783533147
 10
3.4760242989
 20
6.2788290061
 10
3.4903570489
 20
6.2803019219
 10
3.5186712789
 20
6.2817748378
 10
3.5602730579
 20
6.2832477536
 10
3.6141428009
 20
6.2847206695
 10
3.678960257
 20
6.2861935853
 10
3.7531368667
 20
6.2876665012
 10
3.8348546942
 20
6.289139417
  0
LINE
  5
67E
100
AcDbEntity
  8
0
100
AcDbLine
 62
7
  6
CONTINUOUS
 10
4.2968101566
 20
5.9995076239
 11
4.2970590757
 21
5.9997953013
  0
LINE
  5
67F
100
AcDbEntity
  8
0
100
AcDbLine
 62
7
  6
CONTINUOUS
 10
4.2968101566
 20
5.9601375451
 11
4.2970590757
 21
5.9604251986
  0
LINE
  5
680
100
AcDbEntity
  8
0
100
AcDbLine
 62
7
  6
CONTINUOUS
 10
4.2968101566
 20
5.9207674664
 11
4.2970590757
 21
5.9210551852
  0
LINE
  5
681
100
AcDbEntity
  8
02___PRT_ALL_AXES
100
AcDbLine
 62
7
  6
CONTINUOUS
 10
4.6472270185
 20
6.359032569
 11
4.6474527765
 21
6.3592933356
  0
LINE
  5
682
100
AcDbEntity
  8
02___PRT_ALL_AXES
100
AcDbLine
 62
7
  6
CONTINUOUS
 10
4.6472270185
 20
6.2999774509
 11
4.6474527765
 21
6.3002382175
  0
LINE
  5
683
100
AcDbEntity
  8
0
100
AcDbLine
 62
7
  6
CONTINUOUS
 10
3.8572971637
 20
6.0404829502
 11
3.8248670499
 21
6.0217365275
  0
LINE
  5
684
100
AcDbEntity
  8
0
100
AcDbLine
 62
7
  6
CONTINUOUS
 10
3.8572971637
 20
6.0011128714
 11
3.8248670499
 21
5.9823664488
  0
LINE
  5
685
100
AcDbEntity
  8
0
100
AcDbLine
 62
7
  6
CONTINUOUS
 10
3.8572971637
 20
5.9617427927
 11
3.8248670499
 21
5.9429963701
  0
LINE
  5
686
100
AcDbEntity
  8
0
100
AcDbLine
 62
7
  6
CONTINUOUS
 10
4.2643800429
 20
6.177611595
 11
4.2700639908
 21
6.1808976663
  0
LINE
  5
687
100
AcDbEntity
  8
0
100
AcDbLine
 62
7
  6
CONTINUOUS
 10
3.8572971637
 20
5.922372714
 11
3.8309262635
 21
5.9071283672
  0
LINE
  5
688
100
AcDbEntity
  8
0
100
AcDbLine
 62
7
  6
CONTINUOUS
 10
4.611779453
 20
6.4566687581
 11
4.6472270185
 21
6.4771428052
  0
LINE
  5
689
100
AcDbEntity
  8
0
100
AcDbLine
 62
7
  6
CONTINUOUS
 10
4.611779453
 20
6.39761364
 11
4.6472270185
 21
6.4180876871
  0
LWPOLYLINE
  5
68A
100
AcDbEntity
  8
02___PRT_ALL_AXES
100
AcDbPolyline
 62
7
  6
CONTINUOUS
 90
6
 70
0
 10
4.6120197055
 20
6.3871327449
 10
4.610265391
 20
6.3863824264
 10
4.5959998524
 20
6.384860916
 10
4.5678114913
 20
6.3833424816
 10
4.5257247874
 20
6.3818019393
 10
4.4708688445
 20
6.3802535376
  0
LWPOLYLINE
  5
68B
100
AcDbEntity
  8
02___PRT_ALL_AXES
100
AcDbPolyline
 62
7
  6
CONTINUOUS
 90
10
 70
0
 10
4.6120197056
 20
6.4461876329
 10
4.6101105691
 20
6.4454051273
 10
4.5953519925
 20
6.4438703268
 10
4.5668329446
 20
6.4423552988
 10
4.5249274923
 20
6.4408318035
 10
4.4711058667
 20
6.439314706
 10
4.406885201
 20
6.4378034523
 10
4.3334462263
 20
6.4362864872
 10
4.2517114065
 20
6.4347475181
 10
4.1645359827
 20
6.4332027386
  0
LINE
  5
68C
100
AcDbEntity
  8
0
100
AcDbLine
 62
7
  6
CONTINUOUS
 10
3.8246181308
 20
6.0982204793
 11
3.8274587321
 21
6.0991932122
  0
LINE
  5
68D
100
AcDbEntity
  8
0
100
AcDbLine
 62
7
  6
CONTINUOUS
 10
3.8246181308
 20
6.1375905796
 11
3.8276070222
 21
6.13858841
  0
LINE
  5
68E
100
AcDbEntity
  8
0
100
AcDbLine
 62
7
  6
CONTINUOUS
 10
4.2773741061
 20
5.8934960915
 11
4.2783393978
 21
5.8944613828
  0
LINE
  5
68F
100
AcDbEntity
  8
0
100
AcDbLine
 62
7
  6
CONTINUOUS
 10
4.2643800429
 20
6.1382415162
 11
4.2968101566
 21
6.1569879388
  0
LINE
  5
690
100
AcDbEntity
  8
0
100
AcDbLine
 62
7
  6
CONTINUOUS
 10
4.2643800429
 20
6.0988714375
 11
4.2968101566
 21
6.1176178601
  0
LINE
  5
691
100
AcDbEntity
  8
0
100
AcDbLine
 62
7
  6
CONTINUOUS
 10
4.2643800429
 20
6.0595013588
 11
4.2968101566
 21
6.0782477814
  0
LINE
  5
692
100
AcDbEntity
  8
0
100
AcDbLine
 62
7
  6
CONTINUOUS
 10
4.2643800429
 20
6.02013128
 11
4.2968101566
 21
6.0388777026
  0
LINE
  5
693
100
AcDbEntity
  8
0
100
AcDbLine
 62
7
  6
CONTINUOUS
 10
4.611779453
 20
6.3385585219
 11
4.6472270185
 21
6.359032569
  0
LINE
  5
694
100
AcDbEntity
  8
0
100
AcDbLine
 62
7
  6
CONTINUOUS
 10
4.611779453
 20
6.2795034038
 11
4.6472270185
 21
6.2999774509
  0
LWPOLYLINE
  5
695
100
AcDbEntity
  8
0
100
AcDbPolyline
 62
7
  6
CONTINUOUS
 90
9
 70
0
 10
3.8572971637
 20
6.0011128714
 10
3.8577844785
 20
6.0013263627
 10
3.8636505927
 20
6.0023835222
 10
3.8751163237
 20
6.0034406817
 10
3.891856075
 20
6.0044978413
 10
3.9133944823
 20
6.0055550008
 10
3.9391199117
 20
6.0066121603
 10
3.9683018293
 20
6.0076693198
 10
4.000111546
 20
6.0087264793
  0
LWPOLYLINE
  5
696
100
AcDbEntity
  8
02___PRT_ALL_AXES
100
AcDbPolyline
 62
7
  6
CONTINUOUS
 90
10
 70
0
 10
4.6120197056
 20
6.328077316
 10
4.6101952736
 20
6.327312457
 10
4.5956382617
 20
6.3257801773
 10
4.5672877296
 20
6.324264667
 10
4.525132955
 20
6.322728065
 10
4.470298908
 20
6.3211838891
 10
4.4050709723
 20
6.319653537
 10
4.3314741908
 20
6.3181376046
 10
4.2503107233
 20
6.3166118343
 10
4.1645359827
 20
6.3150925023
  0
LINE
  5
697
100
AcDbEntity
  8
0
100
AcDbLine
 62
7
  6
CONTINUOUS
 10
4.2970590757
 20
6.1198740524
 11
4.2941944174
 21
6.1188972144
  0
LINE
  5
698
100
AcDbEntity
  8
0
100
AcDbLine
 62
7
  6
CONTINUOUS
 10
3.8246181308
 20
6.0588504158
 11
3.8274844641
 21
6.0598275382
  0
LWPOLYLINE
  5
699
100
AcDbEntity
  8
0
100
AcDbPolyline
 62
7
  6
CONTINUOUS
 90
9
 70
0
 10
3.8572971637
 20
5.9617427927
 10
3.8586761005
 20
5.9622114604
 10
3.8659152358
 20
5.9632686199
 10
3.878689678
 20
5.9643257794
 10
3.8966366668
 20
5.9653829389
 10
3.9192465554
 20
5.9664400985
 10
3.9458772827
 20
5.967497258
 10
3.9757726069
 20
5.9685544175
 10
4.0080835798
 20
5.969611577
  0
LINE
  5
69A
100
AcDbEntity
  8
0
100
AcDbLine
 62
7
  6
CONTINUOUS
 10
3.8246181308
 20
5.9801102646
 11
3.8275532139
 21
5.9810990535
  0
LINE
  5
69B
100
AcDbEntity
  8
0
100
AcDbLine
 62
7
  6
CONTINUOUS
 10
3.8246181308
 20
6.0194803767
 11
3.8276152145
 21
6.0204795432
  0
LINE
  5
69C
100
AcDbEntity
  8
0
100
AcDbLine
 62
7
  6
CONTINUOUS
 10
4.2970590757
 20
6.159244088
 11
4.2940647173
 21
6.1582453785
  0
LINE
  5
69D
100
AcDbEntity
  8
AXIS
100
AcDbLine
 62
7
  6
CONTINUOUS
 10
3.0765866348
 20
8.9879842804
 11
5.0450905718
 21
8.9879842804
  0
LINE
  5
69E
100
AcDbEntity
  8
0
100
AcDbLine
 62
7
  6
CONTINUOUS
 10
3.0765866348
 20
8.9879842804
 11
5.0450905718
 21
8.9879842804
  0
LINE
  5
69F
100
AcDbEntity
  8
0
100
AcDbLine
 62
7
  6
CONTINUOUS
 10
4.2643800429
 20
5.9807612013
 11
4.2968101566
 21
5.9995076239
  0
LINE
  5
6A0
100
AcDbEntity
  8
0
100
AcDbLine
 62
7
  6
CONTINUOUS
 10
4.2643800429
 20
5.9413911225
 11
4.2968101566
 21
5.9601375451
  0
LINE
  5
6A1
100
AcDbEntity
  8
0
100
AcDbLine
 62
7
  6
CONTINUOUS
 10
4.2643800429
 20
5.9020210438
 11
4.2968101566
 21
5.9207674664
  0
LINE
  5
6A2
100
AcDbEntity
  8
0
100
AcDbLine
 62
7
  6
CONTINUOUS
 10
4.2970590757
 20
6.080503985
 11
4.2942175976
 21
6.0795311038
  0
LINE
  5
6A3
100
AcDbEntity
  8
0
100
AcDbLine
 62
7
  6
CONTINUOUS
 10
3.8246181308
 20
5.9407401859
 11
3.8275954428
 21
5.9417360775
  0
LINE
  5
6A4
100
AcDbEntity
  8
0
100
AcDbLine
 62
7
  6
CONTINUOUS
 10
4.2970590757
 20
6.0411338867
 11
4.2940701777
 21
6.0401360553
  0
LWPOLYLINE
  5
6A5
100
AcDbEntity
  8
0
100
AcDbPolyline
 62
7
  6
CONTINUOUS
 90
9
 70
0
 10
3.8309262635
 20
5.9071283672
 10
3.8315260646
 20
5.9073200728
 10
3.8375769591
 20
5.907973134
 10
3.849691882
 20
5.9086257056
 10
3.8675654346
 20
5.9092778215
 10
3.8907357553
 20
5.9099294743
 10
3.9185979621
 20
5.9105806759
 10
3.950419476
 20
5.9112314279
 10
3.9853612627
 20
5.911881758
  0
LINE
  5
6A6
100
AcDbEntity
  8
0
100
AcDbLine
 62
7
  6
CONTINUOUS
 10
4.2970590757
 20
5.9230236238
 11
4.2941411909
 21
5.9220377689
  0
LINE
  5
6A7
100
AcDbEntity
  8
0
100
AcDbLine
 62
7
  6
CONTINUOUS
 10
4.2970590757
 20
5.9623937265
 11
4.2940761921
 21
5.9613969044
  0
LINE
  5
6A8
100
AcDbEntity
  8
0
100
AcDbLine
 62
9
  6
CONTINUOUS
 10
3.0812836311
 20
9.2570750211
 11
5.0403935754
 21
9.2570750211
  0
LINE
  5
6A9
100
AcDbEntity
  8
0
100
AcDbLine
 62
7
  6
CONTINUOUS
 10
3.1600117964
 20
9.3344409734
 11
4.9616654104
 21
9.3344409734
  0
LWPOLYLINE
  5
6AA
100
AcDbEntity
  8
0
100
AcDbPolyline
 62
7
  6
CONTINUOUS
 90
8
 70
0
 10
13.0442728155
 20
4.6172960153
 10
13.0165855046
 20
4.6101203616
 10
12.9876181294
 20
4.6052939889
 10
12.9585520405
 20
4.6029070063
 10
12.9309393534
 20
4.6028008563
 10
12.9049061265
 20
4.6046349585
 10
12.8801877673
 20
4.6082066818
 10
12.8715246158
 20
4.6101356115
  0
LWPOLYLINE
  5
6AB
100
AcDbEntity
  8
02___PRT_ALL_AXES
100
AcDbPolyline
 62
7
  6
CONTINUOUS
 90
14
 70
0
 10
12.7095104722
 20
4.734199547
 10
12.7969237656
 20
4.7191483229
 10
12.8876597316
 20
4.7121727494
 10
12.9794945944
 20
4.7134732599
 10
13.0701776461
 20
4.7230474558
 10
13.1574864078
 20
4.7406901652
 10
13.2392810982
 20
4.7659984715
 10
13.3135570762
 20
4.7983815879
 10
13.3784939707
 20
4.837075337
 10
13.4325002948
 20
4.8811608788
 10
13.4742524505
 20
4.9295872303
 10
13.5027271671
 20
4.981197023
 10
13.5172265806
 20
5.0347548679
 10
13.5191118147
 20
5.0625007942
  0
LWPOLYLINE
  5
6AC
100
AcDbEntity
  8
02___PRT_ALL_AXES
100
AcDbPolyline
 62
7
  6
CONTINUOUS
 90
13
 70
0
 10
12.7095104722
 20
4.7402268779
 10
12.7969237656
 20
4.7251756537
 10
12.8876597316
 20
4.7182000802
 10
12.9794945944
 20
4.7195005908
 10
13.0701776461
 20
4.7290747866
 10
13.1574864078
 20
4.746717496
 10
13.2392810982
 20
4.7720258023
 10
13.3135570762
 20
4.8044089188
 10
13.3784939707
 20
4.8431026678
 10
13.4325002948
 20
4.8871882096
 10
13.4742524505
 20
4.9356145611
 10
13.5027271671
 20
4.9872243538
 10
13.5172265806
 20
5.0407821987
  0
LWPOLYLINE
  5
6AD
100
AcDbEntity
  8
0
100
AcDbPolyline
 62
7
  6
CONTINUOUS
 90
3
 70
0
 10
12.7967807648
 20
4.6664250034
 10
12.7109345197
 20
4.6840350881
 10
12.6318779823
 20
4.709570042
  0
LWPOLYLINE
  5
6AE
100
AcDbEntity
  8
0
100
AcDbPolyline
 62
7
  6
CONTINUOUS
 90
11
 70
0
 10
12.8252541094
 20
4.618925408
 10
12.8594655539
 20
4.6115449067
 10
12.8951543555
 20
4.6073740966
 10
12.9321052552
 20
4.6064630456
 10
12.9695219122
 20
4.608962148
 10
13.0059945459
 20
4.6148592594
 10
13.0401946729
 20
4.6238921486
 10
13.0716506058
 20
4.6358689887
 10
13.099838524
 20
4.6506218158
 10
13.1237424073
 20
4.6676262576
 10
13.1367414531
 20
4.6804206689
  0
LINE
  5
6AF
100
AcDbEntity
  8
0
100
AcDbLine
 62
7
  6
CONTINUOUS
 10
12.858903023
 20
4.613245411
 11
12.8248219463
 21
4.6206496409
  0
LINE
  5
6B0
100
AcDbEntity
  8
0
100
AcDbLine
 62
7
  6
CONTINUOUS
 10
12.8248219463
 20
4.6206496409
 11
12.7934632663
 21
4.6309840262
  0
LWPOLYLINE
  5
6B1
100
AcDbEntity
  8
0
100
AcDbPolyline
 62
9
  6
CONTINUOUS
 90
14
 70
0
 10
12.6230404779
 20
4.7278456032
 10
12.6964450842
 20
4.7036171539
 10
12.7753571043
 20
4.686164035
 10
12.8579702055
 20
4.675879805
 10
12.942352996
 20
4.6730082758
 10
13.0265041164
 20
4.6776198903
 10
13.1084406455
 20
4.6896054929
 10
13.1862372052
 20
4.7086825759
 10
13.2580684404
 20
4.7344034465
 10
13.3222436789
 20
4.7661631222
 10
13.377253135
 20
4.8032145354
 10
13.4218028019
 20
4.8446859703
 10
13.45484497
 20
4.8896015105
 10
13.4704632828
 20
4.9251923538
  0
LWPOLYLINE
  5
6B2
100
AcDbEntity
  8
0
100
AcDbPolyline
 62
7
  6
CONTINUOUS
 90
4
 70
0
 10
12.8252541094
 20
4.618925408
 10
12.7970076841
 20
4.6284857323
 10
12.7721091792
 20
4.6402129753
 10
12.7687582442
 20
4.6421034888
  0
LINE
  5
6B3
100
AcDbEntity
  8
0
100
AcDbLine
 62
7
  6
CONTINUOUS
 10
12.7934632663
 20
4.6309840262
 11
12.7654652389
 21
4.6440048216
  0
LWPOLYLINE
  5
6B4
100
AcDbEntity
  8
02___PRT_ALL_AXES
100
AcDbPolyline
 62
7
  6
CONTINUOUS
 90
11
 70
0
 10
12.7095104722
 20
4.7824181937
 10
12.7969237656
 20
4.7673669696
 10
12.8876597316
 20
4.7603913961
 10
12.9794945944
 20
4.7616919066
 10
13.0701776461
 20
4.7712661025
 10
13.1574864078
 20
4.7889088119
 10
13.2392810982
 20
4.8142171181
 10
13.3135570762
 20
4.8466002346
 10
13.3784939707
 20
4.8852939837
 10
13.4325002948
 20
4.9293795255
 10
13.4742524505
 20
4.977805877
  0
LWPOLYLINE
  5
6B5
100
AcDbEntity
  8
02___PRT_ALL_AXES
100
AcDbPolyline
 62
7
  6
CONTINUOUS
 90
11
 70
0
 10
12.7095104722
 20
4.7884455245
 10
12.7969237656
 20
4.7733943004
 10
12.8876597316
 20
4.7664187269
 10
12.9794945944
 20
4.7677192375
 10
13.0701776461
 20
4.7772934333
 10
13.1574864078
 20
4.7949361427
 10
13.2392810982
 20
4.820244449
 10
13.3135570762
 20
4.8526275654
 10
13.3784939707
 20
4.8913213145
 10
13.4325002948
 20
4.9354068563
 10
13.4742524505
 20
4.9838332078
  0
LWPOLYLINE
  5
6B6
100
AcDbEntity
  8
02___PRT_ALL_AXES
100
AcDbPolyline
 62
7
  6
CONTINUOUS
 90
12
 70
0
 10
12.7095104722
 20
4.8306368404
 10
12.7969237656
 20
4.8155856162
 10
12.8876597316
 20
4.8086100428
 10
12.9794945944
 20
4.8099105533
 10
13.0701776461
 20
4.8194847492
 10
13.1574864078
 20
4.8371274586
 10
13.2392810982
 20
4.8624357648
 10
13.3135570762
 20
4.8948188813
 10
13.3784939707
 20
4.9335126304
 10
13.4325002948
 20
4.9775981722
 10
13.4742524505
 20
5.0260245237
 10
13.5027271671
 20
5.0776343163
  0
LWPOLYLINE
  5
6B7
100
AcDbEntity
  8
02___PRT_ALL_AXES
100
AcDbPolyline
 62
7
  6
CONTINUOUS
 90
12
 70
0
 10
12.7095104722
 20
4.8366641712
 10
12.7969237656
 20
4.8216129471
 10
12.8876597316
 20
4.8146373736
 10
12.9794945944
 20
4.8159378841
 10
13.0701776461
 20
4.82551208
 10
13.1574864078
 20
4.8431547894
 10
13.2392810982
 20
4.8684630957
 10
13.3135570762
 20
4.9008462121
 10
13.3784939707
 20
4.9395399612
 10
13.4325002948
 20
4.983625503
 10
13.4742524505
 20
5.0320518545
 10
13.5027271671
 20
5.0836616472
  0
LWPOLYLINE
  5
6B8
100
AcDbEntity
  8
02___PRT_ALL_AXES
100
AcDbPolyline
 62
7
  6
CONTINUOUS
 90
11
 70
0
 10
12.7095104722
 20
4.8788554871
 10
12.7969237656
 20
4.8638042629
 10
12.8876597316
 20
4.8568286895
 10
12.9794945944
 20
4.8581292
 10
13.0701776461
 20
4.8677033959
 10
13.1574864078
 20
4.8853461052
 10
13.2392810982
 20
4.9106544115
 10
13.3135570762
 20
4.943037528
 10
13.3784939707
 20
4.981731277
 10
13.4325002948
 20
5.0258168188
 10
13.4742524505
 20
5.0742431703
  0
LWPOLYLINE
  5
6B9
100
AcDbEntity
  8
02___PRT_ALL_AXES
100
AcDbPolyline
 62
7
  6
CONTINUOUS
 90
12
 70
0
 10
12.7095104722
 20
4.8848828179
 10
12.7969237656
 20
4.8698315938
 10
12.8876597316
 20
4.8628560203
 10
12.9794945944
 20
4.8641565308
 10
13.0701776461
 20
4.8737307267
 10
13.1574864078
 20
4.8913734361
 10
13.2392810982
 20
4.9166817423
 10
13.3135570762
 20
4.9490648588
 10
13.3784939707
 20
4.9877586079
 10
13.4325002948
 20
5.0318441497
 10
13.4742524505
 20
5.0802705012
 10
13.5027271671
 20
5.1318802938
  0
LINE
  5
6BA
100
AcDbEntity
  8
02___PRT_ALL_AXES
100
AcDbLine
 62
7
  6
CONTINUOUS
 10
12.7865254195
 20
4.8606997009
 11
12.7018388292
 21
4.8772851198
  0
LINE
  5
6BB
100
AcDbEntity
  8
02___PRT_ALL_AXES
100
AcDbLine
 62
7
  6
CONTINUOUS
 10
12.7850256684
 20
4.8126985099
 11
12.7012890674
 21
4.8292045024
  0
LWPOLYLINE
  5
6BC
100
AcDbEntity
  8
02___PRT_ALL_AXES
100
AcDbPolyline
 62
7
  6
CONTINUOUS
 90
3
 70
0
 10
12.7843412443
 20
4.7645799701
 10
12.70048431
 20
4.7811886626
 10
12.6230404779
 20
4.8052702468
  0
LINE
  5
6BD
100
AcDbEntity
  8
02___PRT_ALL_AXES
100
AcDbLine
 62
7
  6
CONTINUOUS
 10
12.7012890674
 20
4.8292045024
 11
12.6230404779
 21
4.8534888934
  0
LWPOLYLINE
  5
6BE
100
AcDbEntity
  8
02___PRT_ALL_AXES
100
AcDbPolyline
 62
7
  6
CONTINUOUS
 90
5
 70
0
 10
12.7095104722
 20
4.734199547
 10
12.6885460408
 20
4.7408607443
 10
12.6665846882
 20
4.7485071503
 10
12.6445069445
 20
4.7569215752
 10
12.6230404779
 20
4.7658360575
  0
LWPOLYLINE
  5
6BF
100
AcDbEntity
  8
02___PRT_ALL_AXES
100
AcDbPolyline
 62
7
  6
CONTINUOUS
 90
3
 70
0
 10
12.7095104722
 20
4.7824181937
 10
12.6805361558
 20
4.79178699
 10
12.6516998093
 20
4.8023164674
  0
LWPOLYLINE
  5
6C0
100
AcDbEntity
  8
02___PRT_ALL_AXES
100
AcDbPolyline
 62
7
  6
CONTINUOUS
 90
4
 70
0
 10
12.3899196326
 20
4.9186688278
 10
12.4188892441
 20
4.9093016489
 10
12.4477251835
 20
4.8987725323
 10
12.4763896269
 20
4.8870323173
  0
LWPOLYLINE
  5
6C1
100
AcDbEntity
  8
02___PRT_ALL_AXES
100
AcDbPolyline
 62
7
  6
CONTINUOUS
 90
3
 70
0
 10
12.7095104722
 20
4.8306368404
 10
12.6805361558
 20
4.8400056367
 10
12.6516998093
 20
4.8505351141
  0
LWPOLYLINE
  5
6C2
100
AcDbEntity
  8
02___PRT_ALL_AXES
100
AcDbPolyline
 62
7
  6
CONTINUOUS
 90
4
 70
0
 10
12.3899196326
 20
4.9668874745
 10
12.4188892441
 20
4.9575202956
 10
12.4477251835
 20
4.946991179
 10
12.4763896269
 20
4.935250964
  0
LINE
  5
6C3
100
AcDbEntity
  8
02___PRT_ALL_AXES
100
AcDbLine
 62
7
  6
CONTINUOUS
 10
12.6516998093
 20
4.8023164674
 11
12.6230404779
 21
4.8140547042
  0
LINE
  5
6C4
100
AcDbEntity
  8
02___PRT_ALL_AXES
100
AcDbLine
 62
7
  6
CONTINUOUS
 10
12.6516998093
 20
4.8505351141
 11
12.6230404779
 21
4.8622733509
  0
LWPOLYLINE
  5
6C5
100
AcDbEntity
  8
0
100
AcDbPolyline
 62
7
  6
CONTINUOUS
 90
10
 70
0
 10
12.7719839348
 20
4.6715117055
 10
12.7934632663
 20
4.6615225024
 10
12.8248219463
 20
4.6511881171
 10
12.858903023
 20
4.6437838872
 10
12.8947471491
 20
4.6395487776
 10
12.9317108769
 20
4.6386008367
 10
12.9691582528
 20
4.6410667868
 10
13.0056737977
 20
4.6469372363
 10
13.0399244104
 20
4.655951536
 10
13.0673518635
 20
4.6663595741
  0
LINE
  5
6C6
100
AcDbEntity
  8
0
100
AcDbLine
 62
7
  6
CONTINUOUS
 10
12.6304170065
 20
4.7102714061
 11
12.6318767709
 21
4.7095707305
  0
LWPOLYLINE
  5
6C7
100
AcDbEntity
  8
0
100
AcDbPolyline
 62
7
  6
CONTINUOUS
 90
4
 70
0
 10
12.7654652389
 20
4.6440048216
 10
12.7837048577
 20
4.6345161104
 10
12.8037018775
 20
4.6261153502
 10
12.8252541094
 20
4.618925408
  0
LINE
  5
6C8
100
AcDbEntity
  8
0
100
AcDbLine
 62
7
  6
CONTINUOUS
 10
12.6303925863
 20
4.7102855047
 11
12.4853455752
 21
4.7940265411
  0
LINE
  5
6C9
100
AcDbEntity
  8
0
100
AcDbLine
 62
7
  6
CONTINUOUS
 10
12.7654610538
 20
4.6440071757
 11
12.7654647831
 21
4.6440050226
  0
LINE
  5
6CA
100
AcDbEntity
  8
0
100
AcDbLine
 62
9
  6
CONTINUOUS
 10
12.6230404779
 20
4.7278456032
 11
12.4763896269
 21
4.812512596
  0
LINE
  5
6CB
100
AcDbEntity
  8
0
100
AcDbLine
 62
7
  6
CONTINUOUS
 10
12.4829811195
 20
4.7956939228
 11
12.4853233396
 21
4.7940393787
  0
LWPOLYLINE
  5
6CC
100
AcDbEntity
  8
02___PRT_ALL_AXES
100
AcDbPolyline
 62
7
  6
CONTINUOUS
 90
4
 70
0
 10
12.4763896269
 20
4.8475981281
 10
12.4477308583
 20
4.8678601745
 10
12.4188922506
 20
4.8895709458
 10
12.3899196326
 20
4.912641497
  0
LWPOLYLINE
  5
6CD
100
AcDbEntity
  8
02___PRT_ALL_AXES
100
AcDbPolyline
 62
7
  6
CONTINUOUS
 90
11
 70
0
 10
12.7095104722
 20
4.9270741338
 10
12.7969237656
 20
4.9120229096
 10
12.8876597316
 20
4.9050473361
 10
12.9794945944
 20
4.9063478467
 10
13.0701776461
 20
4.9159220425
 10
13.1574864078
 20
4.9335647519
 10
13.2392810982
 20
4.9588730582
 10
13.3135570762
 20
4.9912561746
 10
13.3784939707
 20
5.0299499237
 10
13.4325002948
 20
5.0740354655
 10
13.4742524505
 20
5.122461817
  0
LWPOLYLINE
  5
6CE
100
AcDbEntity
  8
02___PRT_ALL_AXES
100
AcDbPolyline
 62
7
  6
CONTINUOUS
 90
12
 70
0
 10
12.7095104722
 20
4.9331014646
 10
12.7969237656
 20
4.9180502404
 10
12.8876597316
 20
4.911074667
 10
12.9794945944
 20
4.9123751775
 10
13.0701776461
 20
4.9219493734
 10
13.1574864078
 20
4.9395920828
 10
13.2392810982
 20
4.964900389
 10
13.3135570762
 20
4.9972835055
 10
13.3784939707
 20
5.0359772545
 10
13.4325002948
 20
5.0800627964
 10
13.4742524505
 20
5.1284891479
 10
13.5027271671
 20
5.1800989405
  0
LWPOLYLINE
  5
6CF
100
AcDbEntity
  8
02___PRT_ALL_AXES
100
AcDbPolyline
 62
7
  6
CONTINUOUS
 90
11
 70
0
 10
12.7095104722
 20
4.9752927804
 10
12.7969237656
 20
4.9602415563
 10
12.8876597316
 20
4.9532659828
 10
12.9794945944
 20
4.9545664933
 10
13.0701776461
 20
4.9641406892
 10
13.1574864078
 20
4.9817833986
 10
13.2392810982
 20
5.0070917049
 10
13.3135570762
 20
5.0394748213
 10
13.3784939707
 20
5.0781685704
 10
13.4325002948
 20
5.1222541122
 10
13.4742524505
 20
5.1706804637
  0
LWPOLYLINE
  5
6D0
100
AcDbEntity
  8
02___PRT_ALL_AXES
100
AcDbPolyline
 62
7
  6
CONTINUOUS
 90
12
 70
0
 10
12.7095104722
 20
4.9813201113
 10
12.7969237656
 20
4.9662688871
 10
12.8876597316
 20
4.9592933137
 10
12.9794945944
 20
4.9605938242
 10
13.0701776461
 20
4.9701680201
 10
13.1574864078
 20
4.9878107294
 10
13.2392810982
 20
5.0131190357
 10
13.3135570762
 20
5.0455021522
 10
13.3784939707
 20
5.0841959012
 10
13.4325002948
 20
5.128281443
 10
13.4742524505
 20
5.1767077945
 10
13.5027271671
 20
5.2283175872
  0
LINE
  5
6D1
100
AcDbEntity
  8
02___PRT_ALL_AXES
100
AcDbLine
 62
7
  6
CONTINUOUS
 10
12.7859248898
 20
4.9090051074
 11
12.7014556793
 21
4.9255999201
  0
LWPOLYLINE
  5
6D2
100
AcDbEntity
  8
02___PRT_ALL_AXES
100
AcDbPolyline
 62
7
  6
CONTINUOUS
 90
3
 70
0
 10
12.7838173593
 20
4.9575315512
 10
12.7006532098
 20
4.9740206104
 10
12.6230404779
 20
4.9981448335
  0
LINE
  5
6D3
100
AcDbEntity
  8
02___PRT_ALL_AXES
100
AcDbLine
 62
7
  6
CONTINUOUS
 10
12.7018388292
 20
4.8772851198
 11
12.6230404779
 21
4.9017075401
  0
LINE
  5
6D4
100
AcDbEntity
  8
02___PRT_ALL_AXES
100
AcDbLine
 62
7
  6
CONTINUOUS
 10
12.7014556793
 20
4.9255999201
 11
12.6230404779
 21
4.9499261868
  0
LWPOLYLINE
  5
6D5
100
AcDbEntity
  8
02___PRT_ALL_AXES
100
AcDbPolyline
 62
7
  6
CONTINUOUS
 90
4
 70
0
 10
12.7095104722
 20
4.9270741338
 10
12.6887733976
 20
4.9336598133
 10
12.6670792126
 20
4.9412017516
 10
12.6449899329
 20
4.9496040209
  0
LWPOLYLINE
  5
6D6
100
AcDbEntity
  8
02___PRT_ALL_AXES
100
AcDbPolyline
 62
7
  6
CONTINUOUS
 90
3
 70
0
 10
12.7095104722
 20
4.8788554871
 10
12.6805361558
 20
4.8882242834
 10
12.6516998093
 20
4.8987537608
  0
LWPOLYLINE
  5
6D7
100
AcDbEntity
  8
02___PRT_ALL_AXES
100
AcDbPolyline
 62
7
  6
CONTINUOUS
 90
4
 70
0
 10
12.3899196326
 20
5.0151061212
 10
12.418895174
 20
5.0057369037
 10
12.4477305139
 20
4.9952077629
 10
12.4763896269
 20
4.9834696106
  0
LWPOLYLINE
  5
6D8
100
AcDbEntity
  8
02___PRT_ALL_AXES
100
AcDbPolyline
 62
7
  6
CONTINUOUS
 90
4
 70
0
 10
12.3899196326
 20
5.0633247678
 10
12.4188892441
 20
5.053957589
 10
12.4477251835
 20
5.0434284724
 10
12.4763896269
 20
5.0316882573
  0
LWPOLYLINE
  5
6D9
100
AcDbEntity
  8
02___PRT_ALL_AXES
100
AcDbPolyline
 62
7
  6
CONTINUOUS
 90
3
 70
0
 10
12.7095104722
 20
4.9752927804
 10
12.6805361558
 20
4.9846615767
 10
12.6516998093
 20
4.9951910541
  0
LINE
  5
6DA
100
AcDbEntity
  8
02___PRT_ALL_AXES
100
AcDbLine
 62
7
  6
CONTINUOUS
 10
12.6516998093
 20
4.8987537608
 11
12.6230404779
 21
4.9104919976
  0
LINE
  5
6DB
100
AcDbEntity
  8
02___PRT_ALL_AXES
100
AcDbLine
 62
7
  6
CONTINUOUS
 10
12.6516998093
 20
4.9951910541
 11
12.6230404779
 21
5.006929291
  0
LINE
  5
6DC
100
AcDbEntity
  8
02___PRT_ALL_AXES
100
AcDbLine
 62
7
  6
CONTINUOUS
 10
12.6449899329
 20
4.9496040209
 11
12.6230404779
 21
4.9587106443
  0
LWPOLYLINE
  5
6DD
100
AcDbEntity
  8
02___PRT_ALL_AXES
100
AcDbPolyline
 62
7
  6
CONTINUOUS
 90
4
 70
0
 10
12.4763896269
 20
4.8958167748
 10
12.4477308583
 20
4.9160788212
 10
12.4188922506
 20
4.9377895925
 10
12.3899196326
 20
4.9608601436
  0
LWPOLYLINE
  5
6DE
100
AcDbEntity
  8
02___PRT_ALL_AXES
100
AcDbPolyline
 62
7
  6
CONTINUOUS
 90
4
 70
0
 10
12.4763896269
 20
4.9440354214
 10
12.4477379474
 20
4.9642922911
 10
12.4189000352
 20
4.9860022063
 10
12.3899196326
 20
5.0090787903
  0
LWPOLYLINE
  5
6DF
100
AcDbEntity
  8
02___PRT_ALL_AXES
100
AcDbPolyline
 62
7
  6
CONTINUOUS
 90
4
 70
0
 10
12.6230404779
 20
4.8534888934
 10
12.6517045945
 20
4.8332229416
 10
12.6805427464
 20
4.8115122843
 10
12.7095104722
 20
4.7884455245
  0
LWPOLYLINE
  5
6E0
100
AcDbEntity
  8
02___PRT_ALL_AXES
100
AcDbPolyline
 62
7
  6
CONTINUOUS
 90
4
 70
0
 10
12.4763896269
 20
4.9922540681
 10
12.4477308583
 20
5.0125161145
 10
12.4188922506
 20
5.0342268859
 10
12.3899196326
 20
5.057297437
  0
LWPOLYLINE
  5
6E1
100
AcDbEntity
  8
02___PRT_ALL_AXES
100
AcDbPolyline
 62
7
  6
CONTINUOUS
 90
4
 70
0
 10
12.6230404779
 20
4.9017075401
 10
12.6517045945
 20
4.8814415883
 10
12.6805427464
 20
4.8597309309
 10
12.7095104722
 20
4.8366641712
  0
LWPOLYLINE
  5
6E2
100
AcDbEntity
  8
02___PRT_ALL_AXES
100
AcDbPolyline
 62
7
  6
CONTINUOUS
 90
4
 70
0
 10
12.6230404779
 20
4.8052702468
 10
12.651895041
 20
4.7848651911
 10
12.6812709449
 20
4.76272889
 10
12.7095104722
 20
4.7402268779
  0
LINE
  5
6E3
100
AcDbEntity
  8
0
100
AcDbLine
 62
7
  6
CONTINUOUS
 10
12.4822356877
 20
4.796372722
 11
12.4829811195
 21
4.7956939228
  0
LINE
  5
6E4
100
AcDbEntity
  8
02___PRT_ALL_AXES
100
AcDbLine
 62
7
  6
CONTINUOUS
 10
12.4763896269
 20
4.8870323173
 11
12.4454620358
 21
4.9177868748
  0
LWPOLYLINE
  5
6E5
100
AcDbEntity
  8
0
100
AcDbPolyline
 62
7
  6
CONTINUOUS
 90
4
 70
0
 10
12.4829816681
 20
4.7956936124
 10
12.4387268307
 20
4.8406781838
 10
12.4066325083
 20
4.8894805732
 10
12.401329798
 20
4.903555718
  0
LWPOLYLINE
  5
6E6
100
AcDbEntity
  8
02___PRT_ALL_AXES
100
AcDbPolyline
 62
7
  6
CONTINUOUS
 90
7
 70
0
 10
13.0843269207
 20
5.01463065
 10
13.1696865041
 20
5.0331947811
 10
13.2493993431
 20
5.0591332984
 10
13.3215677178
 20
5.0918569025
 10
13.3844735189
 20
5.130614762
 10
13.4366191509
 20
5.1745123879
 10
13.4767631851
 20
5.2225329293
  0
LWPOLYLINE
  5
6E7
100
AcDbEntity
  8
02___PRT_ALL_AXES
100
AcDbPolyline
 62
7
  6
CONTINUOUS
 90
8
 70
0
 10
13.0843269207
 20
5.0206579808
 10
13.1696865041
 20
5.0392221119
 10
13.2493993431
 20
5.0651606292
 10
13.3215677178
 20
5.0978842334
 10
13.3844735189
 20
5.1366420928
 10
13.4366191509
 20
5.1805397187
 10
13.4767631851
 20
5.2285602601
 10
13.4848135573
 20
5.2436705011
  0
LINE
  5
6E8
100
AcDbEntity
  8
02___PRT_ALL_AXES
100
AcDbLine
 62
7
  6
CONTINUOUS
 10
13.0701776461
 20
5.0605779826
 11
13.1574864078
 21
5.078220692
  0
LWPOLYLINE
  5
6E9
100
AcDbEntity
  8
02___PRT_ALL_AXES
100
AcDbPolyline
 62
7
  6
CONTINUOUS
 90
5
 70
0
 10
13.1371652895
 20
5.0217215394
 10
13.0514677815
 20
5.0052209635
 10
12.9625369425
 20
4.9969415154
 10
12.8738432715
 20
4.997038851
 10
12.7865321617
 20
5.0053546693
  0
LWPOLYLINE
  5
6EA
100
AcDbEntity
  8
02___PRT_ALL_AXES
100
AcDbPolyline
 62
7
  6
CONTINUOUS
 90
5
 70
0
 10
13.0751560246
 20
5.0571213331
 10
12.9983578352
 20
5.0474678361
 10
12.9198556343
 20
5.0441764447
 10
12.8420935079
 20
5.0473139235
 10
12.7657171462
 20
5.0568272946
  0
LINE
  5
6EB
100
AcDbEntity
  8
02___PRT_ALL_AXES
100
AcDbLine
 62
7
  6
CONTINUOUS
 10
12.9904015017
 20
5.0095210521
 11
13.0843269207
 21
5.0206579808
  0
LWPOLYLINE
  5
6EC
100
AcDbEntity
  8
02___PRT_ALL_AXES
100
AcDbPolyline
 62
7
  6
CONTINUOUS
 90
5
 70
0
 10
12.7095104722
 20
5.0235114271
 10
12.8004778531
 20
5.0080272755
 10
12.8949422793
 20
5.0012841271
 10
12.9904015017
 20
5.0034937213
 10
13.0843269207
 20
5.01463065
  0
LWPOLYLINE
  5
6ED
100
AcDbEntity
  8
02___PRT_ALL_AXES
100
AcDbPolyline
 62
7
  6
CONTINUOUS
 90
4
 70
0
 10
12.7095104722
 20
5.0295387579
 10
12.8004778531
 20
5.0140546063
 10
12.8949422793
 20
5.007311458
 10
12.9904015017
 20
5.0095210521
  0
LWPOLYLINE
  5
6EE
100
AcDbEntity
  8
02___PRT_ALL_AXES
100
AcDbPolyline
 62
7
  6
CONTINUOUS
 90
5
 70
0
 10
12.7095104722
 20
5.0717300738
 10
12.7969237656
 20
5.0566788497
 10
12.8876597316
 20
5.0497032762
 10
12.9794945944
 20
5.0510037867
 10
13.0701776461
 20
5.0605779826
  0
LWPOLYLINE
  5
6EF
100
AcDbEntity
  8
02___PRT_ALL_AXES
100
AcDbPolyline
 62
7
  6
CONTINUOUS
 90
6
 70
0
 10
12.7095104722
 20
5.0777574046
 10
12.7969237656
 20
5.0627061805
 10
12.8876597316
 20
5.055730607
 10
12.9794945944
 20
5.0570311175
 10
13.0701776461
 20
5.0666053134
 10
13.1574864078
 20
5.0842480228
  0
LWPOLYLINE
  5
6F0
100
AcDbEntity
  8
02___PRT_ALL_AXES
100
AcDbPolyline
 62
7
  6
CONTINUOUS
 90
8
 70
0
 10
12.7095104722
 20
5.1199487205
 10
12.7969237656
 20
5.1048974963
 10
12.8876597316
 20
5.0979219229
 10
12.9794945944
 20
5.0992224334
 10
13.0701776461
 20
5.1087966293
 10
13.1574864078
 20
5.1264393386
 10
13.2392810982
 20
5.1517476449
 10
13.2604163078
 20
5.160962252
  0
LWPOLYLINE
  5
6F1
100
AcDbEntity
  8
02___PRT_ALL_AXES
100
AcDbPolyline
 62
7
  6
CONTINUOUS
 90
7
 70
0
 10
12.7095104722
 20
5.1259760513
 10
12.7969237656
 20
5.1109248272
 10
12.8876597316
 20
5.1039492537
 10
12.9794945944
 20
5.1052497642
 10
13.0701776461
 20
5.1148239601
 10
13.1574864078
 20
5.1324666695
 10
13.2211187688
 20
5.1521553225
  0
LINE
  5
6F2
100
AcDbEntity
  8
02___PRT_ALL_AXES
100
AcDbLine
 62
7
  6
CONTINUOUS
 10
12.7865321617
 20
5.0053546693
 11
12.701842815
 21
5.0219400607
  0
LWPOLYLINE
  5
6F3
100
AcDbEntity
  8
02___PRT_ALL_AXES
100
AcDbPolyline
 62
7
  6
CONTINUOUS
 90
3
 70
0
 10
12.7835664203
 20
5.1022244845
 10
12.700152721
 20
5.1188030147
 10
12.6230404779
 20
5.1428007735
  0
LWPOLYLINE
  5
6F4
100
AcDbEntity
  8
02___PRT_ALL_AXES
100
AcDbPolyline
 62
7
  6
CONTINUOUS
 90
3
 70
0
 10
12.7657171462
 20
5.0568272946
 10
12.6919513073
 20
5.0727066873
 10
12.6230404779
 20
5.0945821268
  0
LWPOLYLINE
  5
6F5
100
AcDbEntity
  8
02___PRT_ALL_AXES
100
AcDbPolyline
 62
7
  6
CONTINUOUS
 90
3
 70
0
 10
12.670860398
 20
5.1451153826
 10
12.5525373027
 20
5.1740721528
 10
12.4410982959
 20
5.2139655554
  0
LINE
  5
6F6
100
AcDbEntity
  8
02___PRT_ALL_AXES
100
AcDbLine
 62
7
  6
CONTINUOUS
 10
12.701842815
 20
5.0219400607
 11
12.6230404779
 21
5.0463634802
  0
LWPOLYLINE
  5
6F7
100
AcDbEntity
  8
02___PRT_ALL_AXES
100
AcDbPolyline
 62
7
  6
CONTINUOUS
 90
5
 70
0
 10
12.3899196326
 20
5.1597620612
 10
12.4106071899
 20
5.1531928194
 10
12.4322888514
 20
5.1456569976
 10
12.4543940074
 20
5.1372505198
 10
12.4763896269
 20
5.1281255507
  0
LWPOLYLINE
  5
6F8
100
AcDbEntity
  8
02___PRT_ALL_AXES
100
AcDbPolyline
 62
7
  6
CONTINUOUS
 90
4
 70
0
 10
12.3899196326
 20
5.1115434145
 10
12.4188892441
 20
5.1021762357
 10
12.4477251835
 20
5.0916471191
 10
12.4763896269
 20
5.079906904
  0
LWPOLYLINE
  5
6F9
100
AcDbEntity
  8
02___PRT_ALL_AXES
100
AcDbPolyline
 62
7
  6
CONTINUOUS
 90
3
 70
0
 10
12.7095104722
 20
5.0235114271
 10
12.6805361558
 20
5.0328802234
 10
12.6516998093
 20
5.0434097008
  0
LWPOLYLINE
  5
6FA
100
AcDbEntity
  8
02___PRT_ALL_AXES
100
AcDbPolyline
 62
7
  6
CONTINUOUS
 90
3
 70
0
 10
12.7095104722
 20
5.0717300738
 10
12.6805286589
 20
5.0811014475
 10
12.6516930385
 20
5.0916309677
  0
LWPOLYLINE
  5
6FB
100
AcDbEntity
  8
02___PRT_ALL_AXES
100
AcDbPolyline
 62
7
  6
CONTINUOUS
 90
4
 70
0
 10
12.3899196326
 20
5.2079807079
 10
12.4188892441
 20
5.198613529
 10
12.4477251835
 20
5.1880844124
 10
12.4763896269
 20
5.1763441974
  0
LWPOLYLINE
  5
6FC
100
AcDbEntity
  8
02___PRT_ALL_AXES
100
AcDbPolyline
 62
7
  6
CONTINUOUS
 90
3
 70
0
 10
12.7095104722
 20
5.1199487205
 10
12.6805361558
 20
5.1293175168
 10
12.6516998093
 20
5.1398469942
  0
LINE
  5
6FD
100
AcDbEntity
  8
02___PRT_ALL_AXES
100
AcDbLine
 62
7
  6
CONTINUOUS
 10
12.6516998093
 20
5.0434097008
 11
12.6230404779
 21
5.0551479376
  0
LINE
  5
6FE
100
AcDbEntity
  8
02___PRT_ALL_AXES
100
AcDbLine
 62
7
  6
CONTINUOUS
 10
12.6516930385
 20
5.0916309677
 11
12.6230404779
 21
5.1033665843
  0
LINE
  5
6FF
100
AcDbEntity
  8
02___PRT_ALL_AXES
100
AcDbLine
 62
7
  6
CONTINUOUS
 10
12.6516998093
 20
5.1398469942
 11
12.6230404779
 21
5.151585231
  0
LINE
  5
700
100
AcDbEntity
  8
02___PRT_ALL_AXES
100
AcDbLine
 62
7
  6
CONTINUOUS
 10
12.4410982959
 20
5.2139655554
 11
12.3387422456
 21
5.2646583216
  0
LWPOLYLINE
  5
701
100
AcDbEntity
  8
02___PRT_ALL_AXES
100
AcDbPolyline
 62
7
  6
CONTINUOUS
 90
7
 70
0
 10
12.3387422456
 20
5.2646583216
 10
12.2494795171
 20
5.3246130771
 10
12.175197435
 20
5.392522436
 10
12.1178642452
 20
5.4658714719
 10
12.0778816029
 20
5.5421402502
 10
12.054408343
 20
5.6199087841
 10
12.0466708698
 20
5.6983842292
  0
LWPOLYLINE
  5
702
100
AcDbEntity
  8
02___PRT_ALL_AXES
100
AcDbPolyline
 62
7
  6
CONTINUOUS
 90
5
 70
0
 10
12.4763896269
 20
5.0886913615
 10
12.4544622792
 20
5.1040740943
 10
12.4323820246
 20
5.1203480475
 10
12.4106808539
 20
5.1370782962
 10
12.3899196326
 20
5.1537347304
  0
LWPOLYLINE
  5
703
100
AcDbEntity
  8
02___PRT_ALL_AXES
100
AcDbPolyline
 62
7
  6
CONTINUOUS
 90
5
 70
0
 10
12.6230404779
 20
4.9981448335
 10
12.6450109737
 20
4.9827310565
 10
12.6671103673
 20
4.9664411558
 10
12.6888022781
 20
4.9497161524
 10
12.7095104722
 20
4.9331014646
  0
LWPOLYLINE
  5
704
100
AcDbEntity
  8
02___PRT_ALL_AXES
100
AcDbPolyline
 62
7
  6
CONTINUOUS
 90
4
 70
0
 10
12.4763896269
 20
5.0404727148
 10
12.4477308583
 20
5.0607347612
 10
12.4188922506
 20
5.0824455325
 10
12.3899196326
 20
5.1055160837
  0
LWPOLYLINE
  5
705
100
AcDbEntity
  8
02___PRT_ALL_AXES
100
AcDbPolyline
 62
7
  6
CONTINUOUS
 90
4
 70
0
 10
12.6230404779
 20
4.9499261868
 10
12.6517045945
 20
4.929660235
 10
12.6805427464
 20
4.9079495776
 10
12.7095104722
 20
4.8848828179
  0
LWPOLYLINE
  5
706
100
AcDbEntity
  8
02___PRT_ALL_AXES
100
AcDbPolyline
 62
7
  6
CONTINUOUS
 90
4
 70
0
 10
12.4763896269
 20
5.1369100082
 10
12.4477308583
 20
5.1571720546
 10
12.4188922506
 20
5.1788828259
 10
12.3899196326
 20
5.201953377
  0
LWPOLYLINE
  5
707
100
AcDbEntity
  8
02___PRT_ALL_AXES
100
AcDbPolyline
 62
7
  6
CONTINUOUS
 90
4
 70
0
 10
12.6230404779
 20
5.0463634802
 10
12.6517045945
 20
5.0260975283
 10
12.6805427464
 20
5.004386871
 10
12.7095104722
 20
4.9813201113
  0
LWPOLYLINE
  5
708
100
AcDbEntity
  8
02___PRT_ALL_AXES
100
AcDbPolyline
 62
7
  6
CONTINUOUS
 90
3
 70
0
 10
12.4763896269
 20
5.1851286548
 10
12.4477308583
 20
5.2053907013
 10
12.4271933159
 20
5.2208521234
  0
LINE
  5
709
100
AcDbEntity
  8
02___PRT_ALL_AXES
100
AcDbLine
 62
7
  6
CONTINUOUS
 10
12.4763896269
 20
5.0316882573
 11
12.4422220593
 21
5.064881989
  0
LINE
  5
70A
100
AcDbEntity
  8
02___PRT_ALL_AXES
100
AcDbLine
 62
7
  6
CONTINUOUS
 10
12.4763896269
 20
4.9834696106
 11
12.4449330631
 21
5.0146223984
  0
LINE
  5
70B
100
AcDbEntity
  8
02___PRT_ALL_AXES
100
AcDbLine
 62
7
  6
CONTINUOUS
 10
12.4763896269
 20
4.935250964
 11
12.4454281241
 21
4.966031185
  0
LINE
  5
70C
100
AcDbEntity
  8
02___PRT_ALL_AXES
100
AcDbLine
 62
7
  6
CONTINUOUS
 10
12.4763896269
 20
5.079906904
 11
12.4452693059
 21
5.110849651
  0
LINE
  5
70D
100
AcDbEntity
  8
02___PRT_ALL_AXES
100
AcDbLine
 62
9
  6
CONTINUOUS
 10
12.4064787909
 20
5.2868915343
 11
12.3061261321
 21
5.3367506284
  0
LWPOLYLINE
  5
70E
100
AcDbEntity
  8
02___PRT_ALL_AXES
100
AcDbPolyline
 62
7
  6
CONTINUOUS
 90
4
 70
0
 10
12.6230404779
 20
5.0945821268
 10
12.6517045945
 20
5.074316175
 10
12.6805427464
 20
5.0526055177
 10
12.7095104722
 20
5.0295387579
  0
LWPOLYLINE
  5
70F
100
AcDbEntity
  8
02___PRT_ALL_AXES
100
AcDbPolyline
 62
7
  6
CONTINUOUS
 90
4
 70
0
 10
12.6230404779
 20
5.1428007735
 10
12.65169934
 20
5.1225386588
 10
12.6805369351
 20
5.100828668
 10
12.7095104722
 20
5.0777574046
  0
LINE
  5
710
100
AcDbEntity
  8
02___PRT_ALL_AXES
100
AcDbLine
 62
7
  6
CONTINUOUS
 10
12.6887425042
 20
5.1425134119
 11
12.7095104722
 21
5.1259760513
  0
LINE
  5
711
100
AcDbEntity
  8
02___PRT_ALL_AXES
100
AcDbLine
 62
7
  6
CONTINUOUS
 10
12.4763896269
 20
5.1281255507
 11
12.4450777
 21
5.1591694504
  0
LINE
  5
712
100
AcDbEntity
  8
02___PRT_ALL_AXES
100
AcDbLine
 62
7
  6
CONTINUOUS
 10
12.4763896269
 20
5.1763441974
 11
12.445342268
 21
5.2071889204
  0
LWPOLYLINE
  5
713
100
AcDbEntity
  8
0
100
AcDbPolyline
 62
7
  6
CONTINUOUS
 90
4
 70
0
 10
12.7199385925
 20
4.682188036
 10
12.721820304
 20
4.6793719822
 10
12.7410333921
 20
4.6606749895
 10
12.7654610538
 20
4.6440071757
  0
LINE
  5
714
100
AcDbEntity
  8
02___PRT_ALL_AXES
100
AcDbLine
 62
7
  6
CONTINUOUS
 10
12.3617659849
 20
4.9619060893
 11
12.3899196326
 21
4.912641497
  0
LINE
  5
715
100
AcDbEntity
  8
02___PRT_ALL_AXES
100
AcDbLine
 62
7
  6
CONTINUOUS
 10
12.3617659849
 20
5.0101247359
 11
12.3899196326
 21
4.9608601436
  0
LINE
  5
716
100
AcDbEntity
  8
02___PRT_ALL_AXES
100
AcDbLine
 62
7
  6
CONTINUOUS
 10
12.3617659849
 20
5.0161520668
 11
12.3899196326
 21
4.9668874745
  0
LINE
  5
717
100
AcDbEntity
  8
02___PRT_ALL_AXES
100
AcDbLine
 62
7
  6
CONTINUOUS
 10
12.3617659849
 20
5.0583433826
 11
12.3899196326
 21
5.0090787903
  0
LINE
  5
718
100
AcDbEntity
  8
02___PRT_ALL_AXES
100
AcDbLine
 62
7
  6
CONTINUOUS
 10
12.3617659849
 20
5.154780676
 11
12.3899196326
 21
5.1055160837
  0
LINE
  5
719
100
AcDbEntity
  8
02___PRT_ALL_AXES
100
AcDbLine
 62
7
  6
CONTINUOUS
 10
12.3609333781
 20
5.1085661951
 11
12.3899196326
 21
5.057297437
  0
LWPOLYLINE
  5
71A
100
AcDbEntity
  8
AXIS
100
AcDbPolyline
 62
7
  6
CONTINUOUS
 90
18
 70
0
 10
11.948255249
 20
6.3863035926
 10
11.9507537265
 20
6.3457627368
 10
11.9707397861
 20
6.2655110478
 10
12.0103044623
 20
6.1877183465
 10
12.0686423321
 20
6.1139682681
 10
12.1445658049
 20
6.0457621515
 10
12.2365292977
 20
5.9844884765
 10
12.342660699
 20
5.9313945984
 10
12.4607994794
 20
5.8875613556
 10
12.5885406742
 20
5.8538810663
 10
12.7232838409
 20
5.8310393642
 10
12.8622859973
 20
5.8195012405
 10
13.0027174603
 20
5.819501578
 10
13.1417194503
 20
5.83104037
 10
13.2764622876
 20
5.8538827199
 10
13.4042029966
 20
5.8875636232
 10
13.5223411449
 20
5.931397434
 10
13.6284717804
 20
5.9844918223
  0
LWPOLYLINE
  5
71B
100
AcDbEntity
  8
AXIS
100
AcDbPolyline
 62
7
  6
CONTINUOUS
 90
7
 70
0
 10
11.948255249
 20
7.2510246564
 10
11.9507537265
 20
7.2104838006
 10
11.9707397861
 20
7.1302321116
 10
12.0103044623
 20
7.0524394103
 10
12.0686423321
 20
6.9786893319
 10
12.1445658049
 20
6.9104832153
 10
12.2365292977
 20
6.8492095403
  0
LWPOLYLINE
  5
71C
100
AcDbEntity
  8
0
100
AcDbPolyline
 62
7
  6
CONTINUOUS
 90
7
 70
0
 10
11.9483299016
 20
7.258049705
 10
11.9507537265
 20
7.2104838006
 10
11.9707397861
 20
7.1302321116
 10
12.0103044623
 20
7.0524394103
 10
12.0686423321
 20
6.9786893319
 10
12.1445658049
 20
6.9104832153
 10
12.2365292977
 20
6.8492095403
  0
LWPOLYLINE
  5
71D
100
AcDbEntity
  8
0
100
AcDbPolyline
 62
9
  6
CONTINUOUS
 90
11
 70
0
 10
11.9530172814
 20
7.4777179522
 10
11.9551665252
 20
7.4326515512
 10
11.9632116408
 20
7.3890637018
 10
11.977091298
 20
7.345937617
 10
11.9967339567
 20
7.3035335548
 10
12.0219401372
 20
7.2622438909
 10
12.0525695125
 20
7.2222430003
 10
12.0889293861
 20
7.1832699502
 10
12.1316362953
 20
7.1450898461
 10
12.1815624628
 20
7.1075974281
 10
12.2398505619
 20
7.0708403018
  0
LINE
  5
71E
100
AcDbEntity
  8
02___PRT_ALL_AXES
100
AcDbLine
 62
7
  6
CONTINUOUS
 10
11.9482456729
 20
6.3863035886
 11
11.9482456729
 21
6.1323520494
  0
LINE
  5
71F
100
AcDbEntity
  8
AXIS
100
AcDbLine
 62
7
  6
CONTINUOUS
 10
11.9482456729
 20
6.3863035886
 11
11.9482456729
 21
7.2510246524
  0
LINE
  5
720
100
AcDbEntity
  8
0
100
AcDbLine
 62
7
  6
CONTINUOUS
 10
11.9483206429
 20
7.2580381816
 11
11.9530172814
 21
7.4777179523
  0
LINE
  5
721
100
AcDbEntity
  8
02___PRT_ALL_AXES
100
AcDbLine
 62
7
  6
CONTINUOUS
 10
12.3617659849
 20
5.2029993227
 11
12.3899196326
 21
5.1537347304
  0
LINE
  5
722
100
AcDbEntity
  8
02___PRT_ALL_AXES
100
AcDbLine
 62
7
  6
CONTINUOUS
 10
12.3617659849
 20
5.2512179693
 11
12.3899196326
 21
5.201953377
  0
LINE
  5
723
100
AcDbEntity
  8
02___PRT_ALL_AXES
100
AcDbLine
 62
7
  6
CONTINUOUS
 10
12.3649460676
 20
5.2516806401
 11
12.3899196326
 21
5.2079807079
  0
LWPOLYLINE
  5
724
100
AcDbEntity
  8
0
100
AcDbPolyline
 62
9
  6
CONTINUOUS
 90
4
 70
0
 10
12.4037544581
 20
4.90162499
 10
12.4041934072
 20
4.9004497278
 10
12.4344251309
 20
4.8548899839
 10
12.4763896269
 20
4.812512596
  0
LINE
  5
725
100
AcDbEntity
  8
02___PRT_ALL_AXES
100
AcDbLine
 62
7
  6
CONTINUOUS
 10
11.9566666198
 20
6.3121297322
 11
11.9817843061
 21
6.239227377
  0
LWPOLYLINE
  5
726
100
AcDbEntity
  8
02___PRT_ALL_AXES
100
AcDbPolyline
 62
9
  6
CONTINUOUS
 90
3
 70
0
 10
11.9707397861
 20
6.0115595086
 10
11.9507537265
 20
6.0918111976
 10
11.9482456729
 20
6.1323520494
  0
LINE
  5
727
100
AcDbEntity
  8
02___PRT_ALL_AXES
100
AcDbLine
 62
7
  6
CONTINUOUS
 10
11.9482456729
 20
6.3863035818
 11
11.9566666198
 21
6.3121297322
  0
LWPOLYLINE
  5
728
100
AcDbEntity
  8
02___PRT_ALL_AXES
100
AcDbPolyline
 62
9
  6
CONTINUOUS
 90
7
 70
0
 10
12.0466708698
 20
5.6983842292
 10
12.0472904621
 20
5.6792593094
 10
12.0621146402
 20
5.6033022909
 10
12.0963817362
 20
5.5294692457
 10
12.14932628
 20
5.4594094821
 10
12.2197655777
 20
5.3946880195
 10
12.3061261321
 20
5.3367506284
  0
LINE
  5
729
100
AcDbEntity
  8
02___PRT_ALL_AXES
100
AcDbLine
 62
7
  6
CONTINUOUS
 10
12.0466708698
 20
5.8785404882
 11
12.0466708698
 21
5.6983842292
  0
LWPOLYLINE
  5
72A
100
AcDbEntity
  8
02___PRT_ALL_AXES
100
AcDbPolyline
 62
7
  6
CONTINUOUS
 90
3
 70
0
 10
12.5861874696
 20
5.5844454782
 10
12.4629829011
 20
5.6175495279
 10
12.3484446552
 20
5.6604495884
  0
LINE
  5
72B
100
AcDbEntity
  8
02___PRT_ALL_AXES
100
AcDbLine
 62
9
  6
CONTINUOUS
 10
12.5185818416
 20
5.5998279161
 11
12.4890022856
 21
5.6105583342
  0
LINE
  5
72C
100
AcDbEntity
  8
02___PRT_ALL_AXES
100
AcDbLine
 62
7
  6
CONTINUOUS
 10
12.3484446552
 20
5.6604495884
 11
12.2446833261
 21
5.7125138606
  0
LWPOLYLINE
  5
72D
100
AcDbEntity
  8
02___PRT_ALL_AXES
100
AcDbPolyline
 62
7
  6
CONTINUOUS
 90
7
 70
0
 10
12.2446833261
 20
5.7125138606
 10
12.1567412113
 20
5.7706601255
 10
12.0826616081
 20
5.8354904247
 10
12.0239893186
 20
5.905670863
 10
11.9818317167
 20
5.9795601844
 10
11.9566135404
 20
6.0555316175
 10
11.9482456729
 20
6.1323520494
  0
LWPOLYLINE
  5
72E
100
AcDbEntity
  8
02___PRT_ALL_AXES
100
AcDbPolyline
 62
9
  6
CONTINUOUS
 90
5
 70
0
 10
12.2365292977
 20
5.7305369373
 10
12.1445658049
 20
5.7918106123
 10
12.0686423321
 20
5.8600167289
 10
12.0103044623
 20
5.9337668073
 10
11.9707397861
 20
6.0115595086
  0
LINE
  5
72F
100
AcDbEntity
  8
02___PRT_ALL_AXES
100
AcDbLine
 62
7
  6
CONTINUOUS
 10
12.0231689611
 20
6.1688415365
 11
12.0801124819
 21
6.1021765321
  0
LINE
  5
730
100
AcDbEntity
  8
02___PRT_ALL_AXES
100
AcDbLine
 62
7
  6
CONTINUOUS
 10
11.9817843061
 20
6.239227377
 11
12.0231689611
 21
6.1688415365
  0
LINE
  5
731
100
AcDbEntity
  8
02___PRT_ALL_AXES
100
AcDbLine
 62
7
  6
CONTINUOUS
 10
12.3475999467
 20
5.061307714
 11
12.3617659849
 21
5.0101247359
  0
LINE
  5
732
100
AcDbEntity
  8
02___PRT_ALL_AXES
100
AcDbLine
 62
7
  6
CONTINUOUS
 10
12.3475999467
 20
5.0673350448
 11
12.3617659849
 21
5.0161520668
  0
LINE
  5
733
100
AcDbEntity
  8
02___PRT_ALL_AXES
100
AcDbLine
 62
7
  6
CONTINUOUS
 10
12.3475999467
 20
5.1095263607
 11
12.3617659849
 21
5.0583433826
  0
LWPOLYLINE
  5
734
100
AcDbEntity
  8
02___PRT_ALL_AXES
100
AcDbPolyline
 62
7
  6
CONTINUOUS
 90
3
 70
0
 10
12.3475999467
 20
5.1155536915
 10
12.3617659849
 20
5.0643707135
 10
12.3899196326
 20
5.0151061212
  0
LINE
  5
735
100
AcDbEntity
  8
02___PRT_ALL_AXES
100
AcDbLine
 62
7
  6
CONTINUOUS
 10
12.3475999467
 20
5.205963654
 11
12.3617659849
 21
5.154780676
  0
LWPOLYLINE
  5
736
100
AcDbEntity
  8
02___PRT_ALL_AXES
100
AcDbPolyline
 62
7
  6
CONTINUOUS
 90
3
 70
0
 10
12.3475999467
 20
5.2119909849
 10
12.3617659849
 20
5.1608080068
 10
12.3899196326
 20
5.1115434145
  0
LINE
  5
737
100
AcDbEntity
  8
02___PRT_ALL_AXES
100
AcDbLine
 62
7
  6
CONTINUOUS
 10
12.3475999467
 20
5.2541823007
 11
12.3617659849
 21
5.2029993227
  0
LWPOLYLINE
  5
738
100
AcDbEntity
  8
02___PRT_ALL_AXES
100
AcDbPolyline
 62
7
  6
CONTINUOUS
 90
3
 70
0
 10
12.3475999467
 20
5.2602096315
 10
12.3617659849
 20
5.2090266535
 10
12.3899196326
 20
5.1597620612
  0
LINE
  5
739
100
AcDbEntity
  8
02___PRT_ALL_AXES
100
AcDbLine
 62
7
  6
CONTINUOUS
 10
12.3611124393
 20
5.2535792794
 11
12.3617659849
 21
5.2512179693
  0
LINE
  5
73A
100
AcDbEntity
  8
02___PRT_ALL_AXES
100
AcDbLine
 62
7
  6
CONTINUOUS
 10
12.3470871727
 20
5.1618540171
 11
12.3609333781
 21
5.1085661951
  0
LWPOLYLINE
  5
73B
100
AcDbEntity
  8
02___PRT_ALL_AXES
100
AcDbPolyline
 62
7
  6
CONTINUOUS
 90
3
 70
0
 10
12.3470871727
 20
5.1678813479
 10
12.3609333781
 20
5.1145935259
 10
12.3899196326
 20
5.0633247678
  0
LWPOLYLINE
  5
73C
100
AcDbEntity
  8
02___PRT_ALL_AXES
100
AcDbPolyline
 62
7
  6
CONTINUOUS
 90
3
 70
0
 10
12.3458834682
 20
5.0383914709
 10
12.3475999467
 20
5.0130890673
 10
12.3617659849
 20
4.9619060893
  0
LWPOLYLINE
  5
73D
100
AcDbEntity
  8
02___PRT_ALL_AXES
100
AcDbPolyline
 62
7
  6
CONTINUOUS
 90
4
 70
0
 10
12.3458834682
 20
5.0444188017
 10
12.3475999467
 20
5.0191163981
 10
12.3617659849
 20
4.9679334201
 10
12.3899196326
 20
4.9186688278
  0
LINE
  5
73E
100
AcDbEntity
  8
02___PRT_ALL_AXES
100
AcDbLine
 62
7
  6
CONTINUOUS
 10
12.3458834682
 20
5.0866101175
 11
12.3475999467
 21
5.061307714
  0
LINE
  5
73F
100
AcDbEntity
  8
02___PRT_ALL_AXES
100
AcDbLine
 62
7
  6
CONTINUOUS
 10
12.3458834682
 20
5.0926374484
 11
12.3475999467
 21
5.0673350448
  0
LINE
  5
740
100
AcDbEntity
  8
02___PRT_ALL_AXES
100
AcDbLine
 62
7
  6
CONTINUOUS
 10
12.3458834682
 20
5.1348287642
 11
12.3475999467
 21
5.1095263607
  0
LINE
  5
741
100
AcDbEntity
  8
02___PRT_ALL_AXES
100
AcDbLine
 62
7
  6
CONTINUOUS
 10
12.3458834682
 20
5.140856095
 11
12.3475999467
 21
5.1155536915
  0
LINE
  5
742
100
AcDbEntity
  8
02___PRT_ALL_AXES
100
AcDbLine
 62
7
  6
CONTINUOUS
 10
12.3458834682
 20
5.2312660576
 11
12.3475999467
 21
5.205963654
  0
LINE
  5
743
100
AcDbEntity
  8
02___PRT_ALL_AXES
100
AcDbLine
 62
7
  6
CONTINUOUS
 10
12.3458834682
 20
5.2372933884
 11
12.3475999467
 21
5.2119909849
  0
LINE
  5
744
100
AcDbEntity
  8
02___PRT_ALL_AXES
100
AcDbLine
 62
7
  6
CONTINUOUS
 10
12.3471725056
 20
5.2604831586
 11
12.3475999467
 21
5.2541823007
  0
LINE
  5
745
100
AcDbEntity
  8
02___PRT_ALL_AXES
100
AcDbLine
 62
7
  6
CONTINUOUS
 10
12.3475956062
 20
5.2602736141
 11
12.3475999467
 21
5.2602096315
  0
LWPOLYLINE
  5
746
100
AcDbEntity
  8
02___PRT_ALL_AXES
100
AcDbPolyline
 62
7
  6
CONTINUOUS
 90
3
 70
0
 10
12.0801124819
 20
6.1021765321
 10
12.1516405491
 20
6.0403730203
 10
12.2365292977
 20
5.9844884765
  0
LWPOLYLINE
  5
747
100
AcDbEntity
  8
0
100
AcDbPolyline
 62
7
  6
CONTINUOUS
 90
3
 70
0
 10
12.4763896269
 20
4.812512596
 10
12.4778894226
 20
4.8032692863
 10
12.4822356877
 20
4.796372722
  0
LINE
  5
748
100
AcDbEntity
  8
02___PRT_ALL_AXES
100
AcDbLine
 62
7
  6
CONTINUOUS
 10
12.3458834682
 20
5.1830474109
 11
12.3470871727
 21
5.1618540171
  0
LINE
  5
749
100
AcDbEntity
  8
02___PRT_ALL_AXES
100
AcDbLine
 62
7
  6
CONTINUOUS
 10
12.3458834682
 20
5.1890747417
 11
12.3470871727
 21
5.1678813479
  0
LINE
  5
74A
100
AcDbEntity
  8
02___PRT_ALL_AXES
100
AcDbLine
 62
7
  6
CONTINUOUS
 10
12.3899196326
 20
4.912641497
 11
12.3899196326
 21
4.9186688278
  0
LINE
  5
74B
100
AcDbEntity
  8
02___PRT_ALL_AXES
100
AcDbLine
 62
7
  6
CONTINUOUS
 10
12.3899196326
 20
4.9608601436
 11
12.3899196326
 21
4.9668874745
  0
LINE
  5
74C
100
AcDbEntity
  8
02___PRT_ALL_AXES
100
AcDbLine
 62
7
  6
CONTINUOUS
 10
12.3899196326
 20
5.0090787903
 11
12.3899196326
 21
5.0151061212
  0
LINE
  5
74D
100
AcDbEntity
  8
02___PRT_ALL_AXES
100
AcDbLine
 62
7
  6
CONTINUOUS
 10
12.3899196326
 20
5.057297437
 11
12.3899196326
 21
5.0633247678
  0
LINE
  5
74E
100
AcDbEntity
  8
02___PRT_ALL_AXES
100
AcDbLine
 62
7
  6
CONTINUOUS
 10
12.3899196326
 20
5.1055160837
 11
12.3899196326
 21
5.1115434145
  0
LINE
  5
74F
100
AcDbEntity
  8
02___PRT_ALL_AXES
100
AcDbLine
 62
7
  6
CONTINUOUS
 10
12.3899196326
 20
5.1537347304
 11
12.3899196326
 21
5.1597620612
  0
LINE
  5
750
100
AcDbEntity
  8
02___PRT_ALL_AXES
100
AcDbLine
 62
7
  6
CONTINUOUS
 10
12.3899196326
 20
5.201953377
 11
12.3899196326
 21
5.2079807079
  0
LWPOLYLINE
  5
751
100
AcDbEntity
  8
0
100
AcDbPolyline
 62
7
  6
CONTINUOUS
 90
6
 70
0
 10
12.7325987479
 20
4.6688830651
 10
12.7334137654
 20
4.6656104577
 10
12.7416036533
 20
4.6495073685
 10
12.7536795924
 20
4.6342411023
 10
12.7693957513
 20
4.6201224361
 10
12.7884321943
 20
4.6074387854
  0
LWPOLYLINE
  5
752
100
AcDbEntity
  8
0
100
AcDbPolyline
 62
7
  6
CONTINUOUS
 90
4
 70
0
 10
12.6230404779
 20
4.7278456032
 10
12.6242800328
 20
4.7187525401
 10
12.6278697478
 20
4.7122927603
 10
12.6304170065
 20
4.7102714061
  0
LINE
  5
753
100
AcDbEntity
  8
02___PRT_ALL_AXES
100
AcDbLine
 62
7
  6
CONTINUOUS
 10
12.4763896269
 20
5.1851286548
 11
12.4763896269
 21
5.1763441974
  0
LINE
  5
754
100
AcDbEntity
  8
02___PRT_ALL_AXES
100
AcDbLine
 62
7
  6
CONTINUOUS
 10
12.4763896269
 20
5.1369100082
 11
12.4763896269
 21
5.1281255507
  0
LINE
  5
755
100
AcDbEntity
  8
02___PRT_ALL_AXES
100
AcDbLine
 62
7
  6
CONTINUOUS
 10
12.4763896269
 20
5.0886913615
 11
12.4763896269
 21
5.079906904
  0
LINE
  5
756
100
AcDbEntity
  8
02___PRT_ALL_AXES
100
AcDbLine
 62
7
  6
CONTINUOUS
 10
12.4763896269
 20
5.0404727148
 11
12.4763896269
 21
5.0316882573
  0
LINE
  5
757
100
AcDbEntity
  8
02___PRT_ALL_AXES
100
AcDbLine
 62
7
  6
CONTINUOUS
 10
12.4763896269
 20
4.9922540681
 11
12.4763896269
 21
4.9834696106
  0
LINE
  5
758
100
AcDbEntity
  8
02___PRT_ALL_AXES
100
AcDbLine
 62
7
  6
CONTINUOUS
 10
12.4763896269
 20
4.9440354214
 11
12.4763896269
 21
4.935250964
  0
LINE
  5
759
100
AcDbEntity
  8
02___PRT_ALL_AXES
100
AcDbLine
 62
7
  6
CONTINUOUS
 10
12.4763896269
 20
4.8958167748
 11
12.4763896269
 21
4.8870323173
  0
LINE
  5
75A
100
AcDbEntity
  8
0
100
AcDbLine
 62
7
  6
CONTINUOUS
 10
12.4763896269
 20
4.8475981281
 11
12.4763896269
 21
4.812512596
  0
LINE
  5
75B
100
AcDbEntity
  8
02___PRT_ALL_AXES
100
AcDbLine
 62
7
  6
CONTINUOUS
 10
12.3473481652
 20
5.2578937812
 11
12.3458834682
 21
5.2372933884
  0
LINE
  5
75C
100
AcDbEntity
  8
02___PRT_ALL_AXES
100
AcDbLine
 62
7
  6
CONTINUOUS
 10
12.3473142844
 20
5.1609799665
 11
12.3458834682
 21
5.140856095
  0
LINE
  5
75D
100
AcDbEntity
  8
02___PRT_ALL_AXES
100
AcDbLine
 62
7
  6
CONTINUOUS
 10
12.3473481652
 20
5.1132378412
 11
12.3458834682
 21
5.0926374484
  0
LINE
  5
75E
100
AcDbEntity
  8
02___PRT_ALL_AXES
100
AcDbLine
 62
7
  6
CONTINUOUS
 10
12.3473481652
 20
5.0650191945
 11
12.3458834682
 21
5.0444188017
  0
LINE
  5
75F
100
AcDbEntity
  8
02___PRT_ALL_AXES
100
AcDbLine
 62
7
  6
CONTINUOUS
 10
12.3474971291
 20
5.2074792762
 11
12.3458834682
 21
5.1890747417
  0
LWPOLYLINE
  5
760
100
AcDbEntity
  8
0
100
AcDbPolyline
 62
9
  6
CONTINUOUS
 90
14
 70
0
 10
13.51007736
 20
7.0139696377
 10
13.5695943206
 20
7.0411567262
 10
13.6252874923
 20
7.070922746
 10
13.6768215903
 20
7.1030885086
 10
13.7238882793
 20
7.1374615936
 10
13.7662056015
 20
7.1738364389
 10
13.8035184488
 20
7.2119941622
 10
13.8356020601
 20
7.25170499
 10
13.8622633657
 20
7.2927295375
 10
13.8833436341
 20
7.3348233887
 10
13.8987173544
 20
7.3777384877
 10
13.90829041
 20
7.4212195256
 10
13.9120022761
 20
7.4650046208
 10
13.9119780014
 20
7.4777179522
  0
LINE
  5
761
100
AcDbEntity
  8
02___PRT_ALL_AXES
100
AcDbLine
 62
7
  6
CONTINUOUS
 10
12.6230404779
 20
5.151585231
 11
12.6230404779
 21
5.1428007735
  0
LINE
  5
762
100
AcDbEntity
  8
02___PRT_ALL_AXES
100
AcDbLine
 62
7
  6
CONTINUOUS
 10
12.6230404779
 20
5.1033665843
 11
12.6230404779
 21
5.0945821268
  0
LINE
  5
763
100
AcDbEntity
  8
02___PRT_ALL_AXES
100
AcDbLine
 62
7
  6
CONTINUOUS
 10
12.6230404779
 20
5.0551479376
 11
12.6230404779
 21
5.0463634802
  0
LINE
  5
764
100
AcDbEntity
  8
02___PRT_ALL_AXES
100
AcDbLine
 62
7
  6
CONTINUOUS
 10
12.6230404779
 20
5.006929291
 11
12.6230404779
 21
4.9981448335
  0
LINE
  5
765
100
AcDbEntity
  8
02___PRT_ALL_AXES
100
AcDbLine
 62
7
  6
CONTINUOUS
 10
12.6230404779
 20
4.9587106443
 11
12.6230404779
 21
4.9499261868
  0
LINE
  5
766
100
AcDbEntity
  8
02___PRT_ALL_AXES
100
AcDbLine
 62
7
  6
CONTINUOUS
 10
12.6230404779
 20
4.9104919976
 11
12.6230404779
 21
4.9017075401
  0
LINE
  5
767
100
AcDbEntity
  8
02___PRT_ALL_AXES
100
AcDbLine
 62
7
  6
CONTINUOUS
 10
12.6230404779
 20
4.8622733509
 11
12.6230404779
 21
4.8534888934
  0
LINE
  5
768
100
AcDbEntity
  8
02___PRT_ALL_AXES
100
AcDbLine
 62
7
  6
CONTINUOUS
 10
12.6230404779
 20
4.8140547042
 11
12.6230404779
 21
4.8052702468
  0
LINE
  5
769
100
AcDbEntity
  8
0
100
AcDbLine
 62
7
  6
CONTINUOUS
 10
12.6230404779
 20
4.7658360575
 11
12.6230404779
 21
4.7278456032
  0
LWPOLYLINE
  5
76A
100
AcDbEntity
  8
0
100
AcDbPolyline
 62
9
  6
CONTINUOUS
 90
8
 70
0
 10
12.0538810177
 20
7.4191313245
 10
12.0719459699
 20
7.3801351231
 10
12.0951273545
 20
7.3421638202
 10
12.1232961968
 20
7.3053776829
 10
12.1567352212
 20
7.2695366741
 10
12.196011558
 20
7.2344247977
 10
12.2419273852
 20
7.1999452307
 10
12.2955195494
 20
7.1661501019
  0
LINE
  5
76B
100
AcDbEntity
  8
02___PRT_ALL_AXES
100
AcDbLine
 62
7
  6
CONTINUOUS
 10
12.7095104722
 20
5.1259760513
 11
12.7095104722
 21
5.1199487205
  0
LINE
  5
76C
100
AcDbEntity
  8
02___PRT_ALL_AXES
100
AcDbLine
 62
7
  6
CONTINUOUS
 10
12.7095104722
 20
5.0777574046
 11
12.7095104722
 21
5.0717300738
  0
LINE
  5
76D
100
AcDbEntity
  8
02___PRT_ALL_AXES
100
AcDbLine
 62
7
  6
CONTINUOUS
 10
12.7095104722
 20
5.0295387579
 11
12.7095104722
 21
5.0235114271
  0
LINE
  5
76E
100
AcDbEntity
  8
02___PRT_ALL_AXES
100
AcDbLine
 62
7
  6
CONTINUOUS
 10
12.7095104722
 20
4.9813201113
 11
12.7095104722
 21
4.9752927804
  0
LINE
  5
76F
100
AcDbEntity
  8
02___PRT_ALL_AXES
100
AcDbLine
 62
7
  6
CONTINUOUS
 10
12.7095104722
 20
4.9331014646
 11
12.7095104722
 21
4.9270741338
  0
LINE
  5
770
100
AcDbEntity
  8
02___PRT_ALL_AXES
100
AcDbLine
 62
7
  6
CONTINUOUS
 10
12.7095104722
 20
4.8848828179
 11
12.7095104722
 21
4.8788554871
  0
LINE
  5
771
100
AcDbEntity
  8
02___PRT_ALL_AXES
100
AcDbLine
 62
7
  6
CONTINUOUS
 10
12.7095104722
 20
4.8366641712
 11
12.7095104722
 21
4.8306368404
  0
LINE
  5
772
100
AcDbEntity
  8
02___PRT_ALL_AXES
100
AcDbLine
 62
7
  6
CONTINUOUS
 10
12.7095104722
 20
4.7884455245
 11
12.7095104722
 21
4.7824181937
  0
LINE
  5
773
100
AcDbEntity
  8
02___PRT_ALL_AXES
100
AcDbLine
 62
7
  6
CONTINUOUS
 10
12.7095104722
 20
4.7402268779
 11
12.7095104722
 21
4.734199547
  0
LWPOLYLINE
  5
774
100
AcDbEntity
  8
AXIS
100
AcDbPolyline
 62
7
  6
CONTINUOUS
 90
7
 70
0
 10
13.6284717804
 20
6.8492128861
 10
13.7204343894
 20
6.9104870032
 10
13.7963568785
 20
6.9786934848
 10
13.8546936847
 20
7.0524438437
 10
13.8942572388
 20
7.1302367351
 10
13.9142421411
 20
7.2104885203
 10
13.9167400338
 20
7.2510246483
  0
LWPOLYLINE
  5
775
100
AcDbEntity
  8
0
100
AcDbPolyline
 62
7
  6
CONTINUOUS
 90
17
 70
0
 10
12.2365292977
 20
6.8492095403
 10
12.342660699
 20
6.7961156622
 10
12.4607994794
 20
6.7522824194
 10
12.5885406742
 20
6.7186021301
 10
12.7232838409
 20
6.695760428
 10
12.8622859973
 20
6.6842223043
 10
13.0027174603
 20
6.6842226418
 10
13.1417194503
 20
6.6957614338
 10
13.2764622876
 20
6.7186037837
 10
13.4042029966
 20
6.752284687
 10
13.5223411449
 20
6.7961184978
 10
13.6284717804
 20
6.8492128861
 10
13.7204343894
 20
6.9104870032
 10
13.7963568785
 20
6.9786934848
 10
13.8546936847
 20
7.0524438437
 10
13.8942572388
 20
7.1302367351
 10
13.9142421411
 20
7.2104885203
  0
LWPOLYLINE
  5
776
100
AcDbEntity
  8
AXIS
100
AcDbPolyline
 62
7
  6
CONTINUOUS
 90
12
 70
0
 10
12.2365292977
 20
6.8492095403
 10
12.342660699
 20
6.7961156622
 10
12.4607994794
 20
6.7522824194
 10
12.5885406742
 20
6.7186021301
 10
12.7232838409
 20
6.695760428
 10
12.8622859973
 20
6.6842223043
 10
13.0027174603
 20
6.6842226418
 10
13.1417194503
 20
6.6957614338
 10
13.2764622876
 20
6.7186037837
 10
13.4042029966
 20
6.752284687
 10
13.5223411449
 20
6.7961184978
 10
13.6284717804
 20
6.8492128861
  0
LINE
  5
777
100
AcDbEntity
  8
0
100
AcDbLine
 62
9
  6
CONTINUOUS
 10
13.7875388275
 20
7.3702092776
 11
13.8069245326
 21
7.4089204393
  0
LWPOLYLINE
  5
778
100
AcDbEntity
  8
0
100
AcDbPolyline
 62
9
  6
CONTINUOUS
 90
19
 70
0
 10
12.2398505619
 20
7.0708403018
 10
12.303592022
 20
7.0371522453
 10
12.3686101576
 20
7.0083021294
 10
12.4348089506
 20
6.98363299
 10
12.5023653863
 20
6.9626394632
 10
12.5716820295
 20
6.9449634398
 10
12.6432194274
 20
6.9304228559
 10
12.7166853496
 20
6.91909583
 10
12.7913978799
 20
6.911097551
 10
12.8669054454
 20
6.9064689567
 10
12.9428127119
 20
6.9052310074
 10
13.0186579914
 20
6.9073916061
 10
13.0939737975
 20
6.9129366419
 10
13.1683084286
 20
6.921831291
 10
13.241217494
 20
6.9340209321
 10
13.3122641552
 20
6.9494311921
 10
13.3810258688
 20
6.9679693274
 10
13.4470950886
 20
6.9895249986
 10
13.51007736
 20
7.0139696377
  0
LINE
  5
779
100
AcDbEntity
  8
02___PRT_ALL_AXES
100
AcDbLine
 62
7
  6
CONTINUOUS
 10
13.5191118147
 20
5.068528125
 11
13.5177120903
 21
5.0901190021
  0
LINE
  5
77A
100
AcDbEntity
  8
02___PRT_ALL_AXES
100
AcDbLine
 62
7
  6
CONTINUOUS
 10
13.5191118147
 20
5.1167467717
 11
13.5177120903
 21
5.1383376488
  0
LINE
  5
77B
100
AcDbEntity
  8
02___PRT_ALL_AXES
100
AcDbLine
 62
7
  6
CONTINUOUS
 10
13.5191118147
 20
5.1649654184
 11
13.5177120903
 21
5.1865562955
  0
LINE
  5
77C
100
AcDbEntity
  8
02___PRT_ALL_AXES
100
AcDbLine
 62
7
  6
CONTINUOUS
 10
13.5191118147
 20
5.2131840651
 11
13.5177120903
 21
5.2347749422
  0
LWPOLYLINE
  5
77D
100
AcDbEntity
  8
0
100
AcDbPolyline
 62
9
  6
CONTINUOUS
 90
14
 70
0
 10
13.8069245326
 20
7.4089204393
 10
13.821062222
 20
7.4483868327
 10
13.8298653453
 20
7.4883736608
 10
13.8332782452
 20
7.5286400819
 10
13.831278676
 20
7.5689382127
 10
13.8238793219
 20
7.6090231705
 10
13.8111142651
 20
7.6486834346
 10
13.793049313
 20
7.6876796361
 10
13.7698679284
 20
7.725650939
 10
13.7416990861
 20
7.7624370762
 10
13.7082600616
 20
7.798278085
 10
13.6689837249
 20
7.8333899615
 10
13.6230678976
 20
7.8678695284
 10
13.5694757335
 20
7.9016646572
  0
LWPOLYLINE
  5
77E
100
AcDbEntity
  8
0
100
AcDbPolyline
 62
9
  6
CONTINUOUS
 90
27
 70
0
 10
12.2955195494
 20
7.1661501019
 10
12.3541282636
 20
7.1351742995
 10
12.413921563
 20
7.1086418747
 10
12.4748004927
 20
7.0859546114
 10
12.5369278504
 20
7.0666477289
 10
12.6006738366
 20
7.0503918361
 10
12.6664620775
 20
7.0370194533
 10
12.7340239318
 20
7.0266023939
 10
12.8027322878
 20
7.0192465957
 10
12.8721718316
 20
7.014989713
 10
12.9419789921
 20
7.0138510236
 10
13.01172918
 20
7.0158377971
 10
13.0809924687
 20
7.0209370585
 10
13.1493534469
 20
7.0291167832
 10
13.2164034279
 20
7.0403267399
 10
13.2817406698
 20
7.054498532
 10
13.3449765772
 20
7.0715468684
 10
13.4057363461
 20
7.0913702751
 10
13.4636572076
 20
7.1138505118
 10
13.5183911979
 20
7.1388528307
 10
13.5696086413
 20
7.1662268507
 10
13.6170011925
 20
7.1958077792
 10
13.660285291
 20
7.2274186547
 10
13.6992016346
 20
7.2608704299
 10
13.7335156142
 20
7.2959618075
 10
13.7630205299
 20
7.3324814741
 10
13.7875388275
 20
7.3702092776
  0
LINE
  5
77F
100
AcDbEntity
  8
02___PRT_ALL_AXES
100
AcDbLine
 62
7
  6
CONTINUOUS
 10
13.5172265806
 20
5.2336567854
 11
13.5191118147
 21
5.2614027117
  0
LINE
  5
780
100
AcDbEntity
  8
02___PRT_ALL_AXES
100
AcDbLine
 62
7
  6
CONTINUOUS
 10
13.5172265806
 20
5.1854381388
 11
13.5191118147
 21
5.2131840651
  0
LINE
  5
781
100
AcDbEntity
  8
02___PRT_ALL_AXES
100
AcDbLine
 62
7
  6
CONTINUOUS
 10
13.5172265806
 20
5.1372194921
 11
13.5191118147
 21
5.1649654184
  0
LINE
  5
782
100
AcDbEntity
  8
02___PRT_ALL_AXES
100
AcDbLine
 62
7
  6
CONTINUOUS
 10
13.5172265806
 20
5.0890008454
 11
13.5191118147
 21
5.1167467717
  0
LINE
  5
783
100
AcDbEntity
  8
02___PRT_ALL_AXES
100
AcDbLine
 62
7
  6
CONTINUOUS
 10
13.5172265806
 20
5.0407821987
 11
13.5191118147
 21
5.068528125
  0
LWPOLYLINE
  5
784
100
AcDbEntity
  8
0
100
AcDbPolyline
 62
7
  6
CONTINUOUS
 90
17
 70
0
 10
13.1347919532
 20
4.6785018585
 10
13.1315818781
 20
4.6656114147
 10
13.1233922224
 20
4.6495082862
 10
13.1113165035
 20
4.6342419619
 10
13.0956005483
 20
4.6201232202
 10
13.0765642882
 20
4.607439478
 10
13.0545952466
 20
4.5964489396
 10
13.0301406499
 20
4.5873753408
 10
13.0036983232
 20
4.5804033938
 10
12.9758065559
 20
4.5756750274
 10
12.9470331439
 20
4.5732864974
 10
12.9179638311
 20
4.5732864276
 10
12.8891903847
 20
4.5756748192
 10
12.8612985492
 20
4.5804030515
 10
12.8348561219
 20
4.5873748714
 10
12.8104013943
 20
4.5964483527
 10
12.7884321943
 20
4.6074387854
  0
LWPOLYLINE
  5
785
100
AcDbEntity
  8
AXIS
100
AcDbPolyline
 62
7
  6
CONTINUOUS
 90
7
 70
0
 10
13.6284717804
 20
5.9844918223
 10
13.7204343894
 20
6.0457659394
 10
13.7963568785
 20
6.113972421
 10
13.8546936847
 20
6.1877227799
 10
13.8942572388
 20
6.2655156713
 10
13.9142421411
 20
6.3457674564
 10
13.9167400338
 20
6.3863035845
  0
LWPOLYLINE
  5
786
100
AcDbEntity
  8
02___PRT_ALL_AXES
100
AcDbPolyline
 62
7
  6
CONTINUOUS
 90
13
 70
0
 10
13.6284717804
 20
5.9844918223
 10
13.5316755273
 20
5.9354819811
 10
13.4246271745
 20
5.8941858226
 10
13.309158349
 20
5.8613099355
 10
13.1872447543
 20
5.8374168354
 10
13.0609723658
 20
5.8229153398
 10
12.9325017393
 20
5.8180535733
 10
12.8040310426
 20
5.8229147222
 10
12.677758445
 20
5.8374156107
 10
12.5558445057
 20
5.8613081248
 10
12.440375206
 20
5.8941834568
 10
12.3333262576
 20
5.9354791006
 10
12.2365292977
 20
5.9844884765
  0
LINE
  5
787
100
AcDbEntity
  8
02___PRT_ALL_AXES
100
AcDbLine
 62
7
  6
CONTINUOUS
 10
13.8418294581
 20
6.1688459081
 11
13.7848868988
 21
6.1021806298
  0
LWPOLYLINE
  5
788
100
AcDbEntity
  8
02___PRT_ALL_AXES
100
AcDbPolyline
 62
7
  6
CONTINUOUS
 90
3
 70
0
 10
13.7848868988
 20
6.1021806298
 10
13.7133597229
 20
6.0403767742
 10
13.6284717804
 20
5.9844918223
  0
LWPOLYLINE
  5
789
100
AcDbEntity
  8
02___PRT_ALL_AXES
100
AcDbPolyline
 62
9
  6
CONTINUOUS
 90
8
 70
0
 10
13.395777367
 20
5.6165081819
 10
13.2867360827
 20
5.5832356255
 10
13.161770043
 20
5.5579895604
 10
13.0316824367
 20
5.5437785961
 10
12.899379206
 20
5.540920182
 10
12.7678157864
 20
5.5494781704
 10
12.6399310873
 20
5.5692613899
 10
12.5185818416
 20
5.5998279161
  0
LINE
  5
78A
100
AcDbEntity
  8
02___PRT_ALL_AXES
100
AcDbLine
 62
7
  6
CONTINUOUS
 10
13.8183244131
 20
5.8781974405
 11
13.8183244131
 21
5.6983842292
  0
LINE
  5
78B
100
AcDbEntity
  8
0
100
AcDbLine
 62
7
  6
CONTINUOUS
 10
13.9142421411
 20
7.2104885203
 11
13.9166653807
 21
7.2580496977
  0
LWPOLYLINE
  5
78C
100
AcDbEntity
  8
02___PRT_ALL_AXES
100
AcDbPolyline
 62
9
  6
CONTINUOUS
 90
16
 70
0
 10
13.8183244131
 20
5.6983842292
 10
13.8127549332
 20
5.6411249114
 10
13.7881415523
 20
5.5660197523
 10
13.7444145004
 20
5.4938713968
 10
13.6825505675
 20
5.4262915201
 10
13.6039316916
 20
5.3647897449
 10
13.5103140886
 20
5.3107399192
 10
13.4037890209
 20
5.2653494269
 10
13.2867360827
 20
5.2296322165
 10
13.161770043
 20
5.2043861514
 10
13.0316824367
 20
5.1901751871
 10
12.899379206
 20
5.187316773
 10
12.7678157864
 20
5.1958747614
 10
12.6399310873
 20
5.2156579809
 10
12.5185818416
 20
5.2462245071
 10
12.4064787909
 20
5.2868915343
  0
LWPOLYLINE
  5
78D
100
AcDbEntity
  8
02___PRT_ALL_AXES
100
AcDbPolyline
 62
7
  6
CONTINUOUS
 90
6
 70
0
 10
13.8183244131
 20
5.6983842292
 10
13.810203454
 20
5.6179990508
 10
13.7852713324
 20
5.5377046105
 10
13.7425958099
 20
5.4589814312
 10
13.681672229
 20
5.3839481831
 10
13.6033475908
 20
5.3153070125
  0
LINE
  5
78E
100
AcDbEntity
  8
02___PRT_ALL_AXES
100
AcDbLine
 62
7
  6
CONTINUOUS
 10
13.5027271671
 20
5.2283175872
 11
13.5106710117
 21
5.2576605119
  0
LINE
  5
78F
100
AcDbEntity
  8
02___PRT_ALL_AXES
100
AcDbLine
 62
7
  6
CONTINUOUS
 10
13.5027271671
 20
5.2222902564
 11
13.5121913303
 21
5.2572489246
  0
LINE
  5
790
100
AcDbEntity
  8
02___PRT_ALL_AXES
100
AcDbLine
 62
7
  6
CONTINUOUS
 10
13.5027271671
 20
5.1800989405
 11
13.5172265806
 21
5.2336567854
  0
LWPOLYLINE
  5
791
100
AcDbEntity
  8
02___PRT_ALL_AXES
100
AcDbPolyline
 62
7
  6
CONTINUOUS
 90
3
 70
0
 10
13.5027271671
 20
5.1740716097
 10
13.5172265806
 20
5.2276294546
 10
13.5191118147
 20
5.2553753809
  0
LINE
  5
792
100
AcDbEntity
  8
02___PRT_ALL_AXES
100
AcDbLine
 62
7
  6
CONTINUOUS
 10
13.5027271671
 20
5.1318802938
 11
13.5172265806
 21
5.1854381388
  0
LWPOLYLINE
  5
793
100
AcDbEntity
  8
02___PRT_ALL_AXES
100
AcDbPolyline
 62
7
  6
CONTINUOUS
 90
3
 70
0
 10
13.5027271671
 20
5.125852963
 10
13.5172265806
 20
5.1794108079
 10
13.5191118147
 20
5.2071567342
  0
LINE
  5
794
100
AcDbEntity
  8
02___PRT_ALL_AXES
100
AcDbLine
 62
7
  6
CONTINUOUS
 10
13.5027271671
 20
5.0836616472
 11
13.5172265806
 21
5.1372194921
  0
LWPOLYLINE
  5
795
100
AcDbEntity
  8
02___PRT_ALL_AXES
100
AcDbPolyline
 62
7
  6
CONTINUOUS
 90
3
 70
0
 10
13.5027271671
 20
5.0776343163
 10
13.5172265806
 20
5.1311921612
 10
13.5191118147
 20
5.1589380876
  0
LINE
  5
796
100
AcDbEntity
  8
02___PRT_ALL_AXES
100
AcDbLine
 62
7
  6
CONTINUOUS
 10
13.5027271671
 20
5.0354430005
 11
13.5172265806
 21
5.0890008454
  0
LWPOLYLINE
  5
797
100
AcDbEntity
  8
02___PRT_ALL_AXES
100
AcDbPolyline
 62
7
  6
CONTINUOUS
 90
3
 70
0
 10
13.5027271671
 20
5.0294156697
 10
13.5172265806
 20
5.0829735146
 10
13.5191118147
 20
5.1107194409
  0
LINE
  5
798
100
AcDbEntity
  8
02___PRT_ALL_AXES
100
AcDbLine
 62
7
  6
CONTINUOUS
 10
13.9083297328
 20
6.3121344235
 11
13.883213098
 21
6.2392319475
  0
LINE
  5
799
100
AcDbEntity
  8
02___PRT_ALL_AXES
100
AcDbLine
 62
7
  6
CONTINUOUS
 10
13.883213098
 20
6.2392319475
 11
13.8418294581
 21
6.1688459081
  0
LINE
  5
79A
100
AcDbEntity
  8
0
100
AcDbLine
 62
7
  6
CONTINUOUS
 10
13.91667464
 20
7.2580381816
 11
13.9119780014
 21
7.4777179523
  0
LINE
  5
79B
100
AcDbEntity
  8
02___PRT_ALL_AXES
100
AcDbLine
 62
7
  6
CONTINUOUS
 10
13.9167496099
 20
6.3863035886
 11
13.9167496099
 21
6.1323520494
  0
LINE
  5
79C
100
AcDbEntity
  8
AXIS
100
AcDbLine
 62
7
  6
CONTINUOUS
 10
13.9167496099
 20
6.3863035886
 11
13.9167496099
 21
7.2510246524
  0
LINE
  5
79D
100
AcDbEntity
  8
02___PRT_ALL_AXES
100
AcDbLine
 62
9
  6
CONTINUOUS
 10
13.9167496099
 20
6.1323520494
 11
13.9142421411
 21
6.0918159173
  0
LWPOLYLINE
  5
79E
100
AcDbEntity
  8
02___PRT_ALL_AXES
100
AcDbPolyline
 62
7
  6
CONTINUOUS
 90
15
 70
0
 10
13.9167496099
 20
6.1323520494
 10
13.9077170658
 20
6.0525541554
 10
13.8804119774
 20
5.9735502775
 10
13.8349599306
 20
5.8972090966
 10
13.7718097756
 20
5.8250388721
 10
13.6922935806
 20
5.758871198
 10
13.5981863298
 20
5.7001330055
 10
13.4915556021
 20
5.649936932
 10
13.3746146538
 20
5.6091219208
 10
13.249529061
 20
5.5782835716
 10
13.1186871316
 20
5.5579001126
 10
12.9844881989
 20
5.5482689305
 10
12.8493617881
 20
5.5495276679
 10
12.7157985019
 20
5.5616485164
 10
12.5861874696
 20
5.5844454782
  0
LINE
  5
79F
100
AcDbEntity
  8
02___PRT_ALL_AXES
100
AcDbLine
 62
7
  6
CONTINUOUS
 10
13.9167496099
 20
6.3863035953
 11
13.9083297328
 21
6.3121344235
  0
LWPOLYLINE
  5
7A0
100
AcDbEntity
  8
02___PRT_ALL_AXES
100
AcDbPolyline
 62
9
  6
CONTINUOUS
 90
17
 70
0
 10
13.9142421411
 20
6.0918159173
 10
13.8942572388
 20
6.0115641321
 10
13.8546936847
 20
5.9337712407
 10
13.7963568785
 20
5.8600208818
 10
13.7204343894
 20
5.7918144002
 10
13.6284717804
 20
5.7305402831
 10
13.5223411449
 20
5.6774458948
 10
13.4042029966
 20
5.633612084
 10
13.2764622876
 20
5.5999311807
 10
13.1417194503
 20
5.5770888308
 10
13.0027174603
 20
5.5655500388
 10
12.8622859973
 20
5.5655497013
 10
12.7232838409
 20
5.577087825
 10
12.5885406742
 20
5.5999295271
 10
12.4607994794
 20
5.6336098164
 10
12.342660699
 20
5.6774430592
 10
12.2365292977
 20
5.7305369373
  0
LWPOLYLINE
  5
7A1
100
AcDbEntity
  8
0
100
AcDbPolyline
 62
7
  6
CONTINUOUS
 90
11
 70
0
 10
13.4731924813
 20
4.9283578221
 10
13.4548797631
 20
4.8829150862
 10
13.4185310756
 20
4.8315308144
 10
13.3681441075
 20
4.7843774795
 10
13.3055073355
 20
4.7432914787
 10
13.2328043609
 20
4.7094481905
 10
13.1522594882
 20
4.6835652409
 10
13.0661303688
 20
4.6661120506
 10
12.9766557758
 20
4.6573721128
 10
12.8861108207
 20
4.6574814719
 10
12.7967807648
 20
4.6664250034
  0
LINE
  5
7A2
100
AcDbEntity
  8
02___PRT_ALL_AXES
100
AcDbLine
 62
7
  6
CONTINUOUS
 10
13.4767631851
 20
5.2225329293
 11
13.4890928278
 21
5.2456751974
  0
LINE
  5
7A3
100
AcDbEntity
  8
02___PRT_ALL_AXES
100
AcDbLine
 62
7
  6
CONTINUOUS
 10
13.4742524505
 20
5.1706804637
 11
13.5027271671
 21
5.2222902564
  0
LINE
  5
7A4
100
AcDbEntity
  8
02___PRT_ALL_AXES
100
AcDbLine
 62
7
  6
CONTINUOUS
 10
13.4742524505
 20
5.122461817
 11
13.5027271671
 21
5.1740716097
  0
LINE
  5
7A5
100
AcDbEntity
  8
02___PRT_ALL_AXES
100
AcDbLine
 62
7
  6
CONTINUOUS
 10
13.4742524505
 20
5.0742431703
 11
13.5027271671
 21
5.125852963
  0
LINE
  5
7A6
100
AcDbEntity
  8
02___PRT_ALL_AXES
100
AcDbLine
 62
7
  6
CONTINUOUS
 10
13.4742524505
 20
4.9838332078
 11
13.5027271671
 21
5.0354430005
  0
LINE
  5
7A7
100
AcDbEntity
  8
02___PRT_ALL_AXES
100
AcDbLine
 62
7
  6
CONTINUOUS
 10
13.4742524505
 20
4.977805877
 11
13.5027271671
 21
5.0294156697
  0
LWPOLYLINE
  5
7A8
100
AcDbEntity
  8
02___PRT_ALL_AXES
100
AcDbPolyline
 62
7
  6
CONTINUOUS
 90
9
 70
0
 10
13.6033475908
 20
5.3153070125
 10
13.5094887649
 20
5.2552300177
 10
13.4039259139
 20
5.205777322
 10
13.2898006325
 20
5.1675475416
 10
13.1695342497
 20
5.1405947711
 10
13.0452740492
 20
5.1249001354
 10
12.9194018309
 20
5.1204593352
 10
12.7938890083
 20
5.1272138652
 10
12.670860398
 20
5.1451153826
  0
LWPOLYLINE
  5
7A9
100
AcDbEntity
  8
02___PRT_ALL_AXES
100
AcDbPolyline
 62
7
  6
CONTINUOUS
 90
7
 70
0
 10
13.2599781286
 20
5.1608640521
 10
13.2158061155
 20
5.1418847928
 10
13.1362646815
 20
5.1179379216
 10
13.0501101172
 20
5.1014666668
 10
12.9603745791
 20
5.0932829791
 10
12.8706966975
 20
5.093631772
 10
12.7835664203
 20
5.1022244845
  0
LWPOLYLINE
  5
7AA
100
AcDbEntity
  8
0
100
AcDbPolyline
 62
7
  6
CONTINUOUS
 90
7
 70
0
 10
13.9119780014
 20
7.4777179521
 10
13.9022775645
 20
7.5554861104
 10
13.8761947629
 20
7.6326839411
 10
13.833246067
 20
7.7081493407
 10
13.7735152159
 20
7.780073496
 10
13.6980978195
 20
7.8464289148
 10
13.6088451442
 20
7.9055644907
  0
LWPOLYLINE
  5
7AB
100
AcDbEntity
  8
0
100
AcDbPolyline
 62
7
  6
CONTINUOUS
 90
10
 70
0
 10
13.134683084
 20
4.6800035613
 10
13.1233928314
 20
4.6689430339
 10
13.0992998689
 20
4.6519014691
 10
13.0712956388
 20
4.6373176627
 10
13.0399244104
 20
4.6254130598
 10
13.0056737977
 20
4.6163987601
 10
12.9691582528
 20
4.6105283106
 10
12.9317108769
 20
4.6080623605
 10
12.8947471491
 20
4.6090103014
 10
12.858903023
 20
4.613245411
  0
LWPOLYLINE
  5
7AC
100
AcDbEntity
  8
02___PRT_ALL_AXES
100
AcDbPolyline
 62
7
  6
CONTINUOUS
 90
4
 70
0
 10
13.2572286663
 20
5.1113538456
 10
13.2331347273
 20
5.1002004271
 10
13.156797139
 20
5.0750259412
 10
13.0751560246
 20
5.0571213331
  0
LWPOLYLINE
  5
7AD
100
AcDbEntity
  8
02___PRT_ALL_AXES
100
AcDbPolyline
 62
7
  6
CONTINUOUS
 90
5
 70
0
 10
13.2392810982
 20
5.1035289982
 10
13.3135570762
 20
5.1359121147
 10
13.3784939707
 20
5.1746058638
 10
13.4325002948
 20
5.2186914056
 10
13.4331830778
 20
5.2194833333
  0
LWPOLYLINE
  5
7AE
100
AcDbEntity
  8
02___PRT_ALL_AXES
100
AcDbPolyline
 62
7
  6
CONTINUOUS
 90
3
 70
0
 10
13.2421896385
 20
5.0567872641
 10
13.2166902939
 20
5.0457683934
 10
13.1371652895
 20
5.0217215394
  0
LWPOLYLINE
  5
7AF
100
AcDbEntity
  8
02___PRT_ALL_AXES
100
AcDbPolyline
 62
7
  6
CONTINUOUS
 90
7
 70
0
 10
13.2799811983
 20
5.0248362855
 10
13.2164681348
 20
4.997468995
 10
13.1368523539
 20
4.9734260111
 10
13.0506158909
 20
4.9568818568
 10
12.960770662
 20
4.9486442239
 10
12.87095728
 20
4.9489625437
 10
12.7838173593
 20
4.9575315512
  0
LWPOLYLINE
  5
7B0
100
AcDbEntity
  8
02___PRT_ALL_AXES
100
AcDbPolyline
 62
7
  6
CONTINUOUS
 90
5
 70
0
 10
13.1574864078
 20
5.0842480228
 10
13.2392810982
 20
5.1095563291
 10
13.3135570762
 20
5.1419394455
 10
13.3784939707
 20
5.1806331946
 10
13.416529387
 20
5.2116816313
  0
LINE
  5
7B1
100
AcDbEntity
  8
02___PRT_ALL_AXES
100
AcDbLine
 62
7
  6
CONTINUOUS
 10
13.1574864078
 20
5.078220692
 11
13.2392810982
 21
5.1035289982
  0
LWPOLYLINE
  5
7B2
100
AcDbEntity
  8
02___PRT_ALL_AXES
100
AcDbPolyline
 62
7
  6
CONTINUOUS
 90
7
 70
0
 10
13.2377942911
 20
4.861975728
 10
13.2176338018
 20
4.8532376868
 10
13.1380473157
 20
4.8290643438
 10
13.0518422944
 20
4.8123995938
 10
12.9619779903
 20
4.8040416856
 10
12.8720862032
 20
4.8042498693
 10
12.7850256684
 20
4.8126985099
  0
LWPOLYLINE
  5
7B3
100
AcDbEntity
  8
02___PRT_ALL_AXES
100
AcDbPolyline
 62
7
  6
CONTINUOUS
 90
7
 70
0
 10
13.237347721
 20
4.9582748469
 10
13.2162454973
 20
4.949169506
 10
13.1368796043
 20
4.9252140541
 10
13.0517567
 20
4.9088247105
 10
12.9627328422
 20
4.9005131471
 10
12.8733096893
 20
4.9006272069
 10
12.7859248898
 20
4.9090051074
  0
LWPOLYLINE
  5
7B4
100
AcDbEntity
  8
02___PRT_ALL_AXES
100
AcDbPolyline
 62
7
  6
CONTINUOUS
 90
7
 70
0
 10
13.2804465463
 20
4.9286018763
 10
13.2153365611
 20
4.9006216788
 10
13.1357435368
 20
4.8767173442
 10
13.0503960324
 20
4.8604136079
 10
12.9623322798
 20
4.8522762943
 10
12.8738336481
 20
4.8523833709
 10
12.7865254195
 20
4.8606997009
  0
LWPOLYLINE
  5
7B5
100
AcDbEntity
  8
0
100
AcDbPolyline
 62
7
  6
CONTINUOUS
 90
4
 70
0
 10
13.0862997336
 20
4.6363660227
 10
13.0998795795
 20
4.6449386337
 10
13.121269255
 20
4.6624364437
 10
13.1346309077
 20
4.6783433482
  0
LWPOLYLINE
  5
7B6
100
AcDbEntity
  8
0
100
AcDbPolyline
 62
7
  6
CONTINUOUS
 90
3
 70
0
 10
13.0862997336
 20
4.6363660227
 10
13.0730895084
 20
4.6292872923
 10
13.0442728155
 20
4.6172960153
  0
LWPOLYLINE
  5
7B7
100
AcDbEntity
  8
02___PRT_ALL_AXES
100
AcDbPolyline
 62
7
  6
CONTINUOUS
 90
7
 70
0
 10
13.2374004417
 20
4.8136352194
 10
13.2163469436
 20
4.804550392
 10
13.1368117424
 20
4.7805414564
 10
13.0507682343
 20
4.7640287517
 10
12.961127064
 20
4.7557852417
 10
12.8715204927
 20
4.756059483
 10
12.7843412443
 20
4.7645799701
  0
LINE
  5
7B8
100
AcDbEntity
  8
0
100
AcDbLine
 62
7
  6
CONTINUOUS
 10
13.0442728155
 20
4.6172960153
 11
13.0739686069
 21
4.6297592481
  0
LWPOLYLINE
  5
7B9
100
AcDbEntity
  8
0
100
AcDbPolyline
 62
7
  6
CONTINUOUS
 90
10
 70
0
 10
13.0612223067
 20
4.6656326278
 10
13.0395580459
 20
4.6574421428
 10
13.005459294
 20
4.648499356
 10
12.9691271809
 20
4.6426705768
 10
12.9318739536
 20
4.6402113758
 10
12.8950959327
 20
4.6411312723
 10
12.8592775806
 20
4.6453290091
 10
12.8249273987
 20
4.652766811
 10
12.7933161967
 20
4.6631877173
 10
12.7781492284
 20
4.6702469869
  0
LWPOLYLINE
  5
7BA
100
AcDbEntity
  8
0
100
AcDbPolyline
 62
7
  6
CONTINUOUS
 90
18
 70
0
 10
13.6088451442
 20
7.9055644907
 10
13.504792377
 20
7.957719711
 10
13.3903910644
 20
8.0003900095
 10
13.2678625266
 20
8.0330217723
 10
13.1395124135
 20
8.0552130017
 10
13.0077568141
 20
8.0667106969
 10
12.8747411189
 20
8.067422641
 10
12.7428079199
 20
8.0573557526
 10
12.6141946583
 20
8.0366389837
 10
12.4910728119
 20
8.0054984288
 10
12.3758412323
 20
7.9643600965
 10
12.27049372
 20
7.913678193
 10
12.1772536847
 20
7.8541798572
 10
12.0985520206
 20
7.7871992806
 10
12.0360554785
 20
7.7142528988
 10
11.990918236
 20
7.6373186003
 10
11.9632758586
 20
7.5578853815
 10
11.9530172814
 20
7.4777179521
  0
LWPOLYLINE
  5
7BB
100
AcDbEntity
  8
0
100
AcDbPolyline
 62
9
  6
CONTINUOUS
 90
34
 70
0
 10
13.5694757335
 20
7.9016646572
 10
13.5108670192
 20
7.9326404597
 10
13.4510737198
 20
7.9591728844
 10
13.3901947901
 20
7.9818601477
 10
13.3280674324
 20
8.0011670302
 10
13.2643214463
 20
8.0174229231
 10
13.1985332053
 20
8.0307953059
 10
13.1309713511
 20
8.0412123652
 10
13.062262995
 20
8.0485681634
 10
12.9928234513
 20
8.0528250461
 10
12.9230162908
 20
8.0539637356
 10
12.8532661028
 20
8.051976962
 10
12.7840028142
 20
8.0468777007
 10
12.7156418359
 20
8.038697976
 10
12.648591855
 20
8.0274880193
 10
12.5832546131
 20
8.0133162271
 10
12.5200187057
 20
7.9962678908
 10
12.4592589368
 20
7.976444484
 10
12.4013380752
 20
7.9539642474
 10
12.346604085
 20
7.9289619285
 10
12.2953866416
 20
7.9015879084
 10
12.2479940904
 20
7.8720069799
 10
12.2047099919
 20
7.8403961044
 10
12.1657936482
 20
7.8069443292
 10
12.1314796687
 20
7.7718529516
 10
12.101974753
 20
7.735333285
 10
12.0774564554
 20
7.6976054815
 10
12.0580707503
 20
7.6588943198
 10
12.0439330608
 20
7.6194279265
 10
12.0351299375
 20
7.5794410983
 10
12.0317170376
 20
7.5391746772
 10
12.0337166069
 20
7.4988765464
 10
12.041115961
 20
7.4587915886
 10
12.0538810177
 20
7.4191313245
  0
LINE
  5
7BC
100
AcDbEntity
  8
02___PRT_ALL_AXES
100
AcDbLine
 62
7
  6
CONTINUOUS
 10
3.678960257
 20
3.8080885697
 11
3.7531368667
 21
3.8622319103
  0
LINE
  5
7BD
100
AcDbEntity
  8
02___PRT_ALL_AXES
100
AcDbLine
 62
7
  6
CONTINUOUS
 10
3.7531368667
 20
3.8622319103
 11
3.8348546942
 21
3.9041349821
  0
LINE
  5
7BE
100
AcDbEntity
  8
0
100
AcDbLine
 62
9
  6
CONTINUOUS
 10
3.9534693895
 20
2.782087738
 11
4.168207817
 21
2.782087738
  0
LINE
  5
7BF
100
AcDbEntity
  8
02___PRT_ALL_AXES
100
AcDbLine
 62
7
  6
CONTINUOUS
 10
3.8348546942
 20
2.8214578167
 11
3.7531368667
 21
2.8633608885
  0
LINE
  5
7C0
100
AcDbEntity
  8
02___PRT_ALL_AXES
100
AcDbLine
 62
7
  6
CONTINUOUS
 10
3.7531368667
 20
2.8633608885
 11
3.678960257
 21
2.9175042291
  0
LWPOLYLINE
  5
7C1
100
AcDbEntity
  8
02___PRT_ALL_AXES
100
AcDbPolyline
 62
7
  6
CONTINUOUS
 90
4
 70
0
 10
3.678960257
 20
2.9175042291
 10
3.6141428009
 20
2.9825608824
 10
3.5602730579
 20
3.0569364264
 10
3.5186712789
 20
3.13880805
  0
LINE
  5
7C2
100
AcDbEntity
  8
02___PRT_ALL_AXES
100
AcDbLine
 62
7
  6
CONTINUOUS
 10
3.5186712789
 20
3.13880805
 11
3.4903570489
 21
3.2261692264
  0
LWPOLYLINE
  5
7C3
100
AcDbEntity
  8
02___PRT_ALL_AXES
100
AcDbPolyline
 62
7
  6
CONTINUOUS
 90
8
 70
0
 10
3.4903570489
 20
3.2261692264
 10
3.4760242989
 20
3.3168788898
 10
3.4760242989
 20
3.408713909
 10
3.4903570489
 20
3.4994235724
 10
3.5186712789
 20
3.5867847488
 10
3.5602730579
 20
3.6686563723
 10
3.6141428009
 20
3.7430319164
 10
3.678960257
 20
3.8080885697
  0
LINE
  5
7C4
100
AcDbEntity
  8
02___PRT_ALL_AXES
100
AcDbLine
 62
7
  6
CONTINUOUS
 10
3.8348546942
 20
2.8214578167
 11
3.9571412238
 21
2.8214578167
  0
LINE
  5
7C5
100
AcDbEntity
  8
0
100
AcDbLine
 62
7
  6
CONTINUOUS
 10
3.9571412238
 20
2.8214578167
 11
4.1645359827
 21
2.8214578167
  0
LINE
  5
7C6
100
AcDbEntity
  8
02___PRT_ALL_AXES
100
AcDbLine
 62
7
  6
CONTINUOUS
 10
4.1645359827
 20
2.8214578167
 11
4.2868225123
 21
2.8214578167
  0
LINE
  5
7C7
100
AcDbEntity
  8
0
100
AcDbLine
 62
9
  6
CONTINUOUS
 10
3.9609479383
 20
2.8608278954
 11
4.1607292683
 21
2.8608278954
  0
LWPOLYLINE
  5
7C8
100
AcDbEntity
  8
0
100
AcDbPolyline
 62
7
  6
CONTINUOUS
 90
22
 70
0
 10
4.0608386033
 20
2.9828751395
 10
4.0152693644
 20
2.983248121
 10
3.9698852229
 20
2.989083137
 10
3.9255092159
 20
3.0002759445
 10
3.8830345945
 20
3.016515657
 10
3.8423567061
 20
3.0378384184
 10
3.8026703595
 20
3.0651761926
 10
3.7638474204
 20
3.099971587
 10
3.7264957547
 20
3.1442211603
 10
3.6932308334
 20
3.1986708439
 10
3.6680215228
 20
3.2607813648
 10
3.6532573353
 20
3.3271800739
 10
3.6497293721
 20
3.3956830777
 10
3.6576778475
 20
3.4641233841
 10
3.6770210213
 20
3.5307958515
 10
3.7074524775
 20
3.5939193609
 10
3.7476383087
 20
3.6508034078
 10
3.7961733807
 20
3.7000156816
 10
3.8522056284
 20
3.7409083522
 10
3.9140284959
 20
3.772275749
 10
3.9805725938
 20
3.7935342431
 10
4.0499234702
 20
3.8039545278
  0
LWPOLYLINE
  5
7C9
100
AcDbEntity
  8
0
100
AcDbPolyline
 62
7
  6
CONTINUOUS
 90
12
 70
0
 10
3.8380170482
 20
3.3097364882
 10
3.8316815024
 20
3.3469267366
 10
3.8315260646
 20
3.3847338934
 10
3.8375769591
 20
3.4221347218
 10
3.849691882
 20
3.458115814
 10
3.8675654346
 20
3.4917024944
 10
3.8907357553
 20
3.5219803349
 10
3.9185979621
 20
3.5481229969
 10
3.950419476
 20
3.5694130618
 10
3.9853612627
 20
3.5852624186
 10
4.0224961986
 20
3.595226141
 10
4.0608379966
 20
3.5990169099
  0
LINE
  5
7CA
100
AcDbEntity
  8
AXIS_COSMETIC_THREADS
100
AcDbLine
 62
7
  6
CONTINUOUS
 10
3.962010687
 20
3.4282176961
 11
3.9954173066
 21
3.4616243156
  0
LINE
  5
7CB
100
AcDbEntity
  8
0
100
AcDbLine
 62
7
  6
CONTINUOUS
 10
3.9609479383
 20
3.8647649033
 11
3.9569576433
 21
3.9060708344
  0
LWPOLYLINE
  5
7CC
100
AcDbEntity
  8
0
100
AcDbPolyline
 62
7
  6
CONTINUOUS
 90
3
 70
0
 10
3.9569576433
 20
3.9060708344
 10
3.9545880422
 20
3.9313655713
 10
3.9534693895
 20
3.9435050608
  0
LINE
  5
7CD
100
AcDbEntity
  8
0
100
AcDbLine
 62
7
  6
CONTINUOUS
 10
3.9534693895
 20
2.782087738
 11
3.957325241
 21
2.8233948382
  0
LWPOLYLINE
  5
7CE
100
AcDbEntity
  8
0
100
AcDbPolyline
 62
7
  6
CONTINUOUS
 90
3
 70
0
 10
3.957325241
 20
2.8233948382
 10
3.959759429
 20
2.8486940865
 10
3.9609479383
 20
2.8608278954
  0
LINE
  5
7CF
100
AcDbEntity
  8
AXIS_COSMETIC_THREADS
100
AcDbLine
 62
7
  6
CONTINUOUS
 10
3.9298179123
 20
3.4604104708
 11
3.962010687
 21
3.4282176961
  0
LINE
  5
7D0
100
AcDbEntity
  8
0
100
AcDbLine
 62
7
  6
CONTINUOUS
 10
4.1652496297
 20
2.8139132077
 11
4.1607292683
 21
2.8608278954
  0
LINE
  5
7D1
100
AcDbEntity
  8
0
100
AcDbLine
 62
7
  6
CONTINUOUS
 10
4.168207817
 20
2.782087738
 11
4.1652496297
 21
2.8139132077
  0
LINE
  5
7D2
100
AcDbEntity
  8
0
100
AcDbLine
 62
7
  6
CONTINUOUS
 10
4.168207817
 20
3.9435050608
 11
4.1643519655
 21
3.9021979606
  0
LWPOLYLINE
  5
7D3
100
AcDbEntity
  8
0
100
AcDbPolyline
 62
7
  6
CONTINUOUS
 90
3
 70
0
 10
4.1643519655
 20
3.9021979606
 10
4.1619177775
 20
3.8768987122
 10
4.1607292683
 20
3.8647649033
  0
LINE
  5
7D4
100
AcDbEntity
  8
AXIS_COSMETIC_THREADS
100
AcDbLine
 62
7
  6
CONTINUOUS
 10
3.9954173066
 20
3.4616243156
 11
3.963325266
 21
3.4937163562
  0
LWPOLYLINE
  5
7D5
100
AcDbEntity
  8
0
100
AcDbPolyline
 62
7
  6
CONTINUOUS
 90
16
 70
0
 10
4.2606127602
 20
3.2726163286
 10
4.2434600582
 20
3.2403960236
 10
4.2211558413
 20
3.2113969975
 10
4.1942992145
 20
3.1864352527
 10
4.1636157405
 20
3.1662154074
 10
4.1299365644
 20
3.1513121394
 10
4.0941796161
 20
3.1421563359
 10
4.0573204033
 20
3.1390209012
 10
4.020365317
 20
3.1420145584
 10
3.9843286959
 20
3.1510785255
 10
3.9502026709
 20
3.165986653
 10
3.9189288554
 20
3.1863514949
 10
3.8913702362
 20
3.2116372313
 10
3.868292006
 20
3.2411719237
 10
3.850338777
 20
3.2741665288
 10
3.8380170482
 20
3.3097364882
  0
LWPOLYLINE
  5
7D6
100
AcDbEntity
  8
0
100
AcDbPolyline
 62
7
  6
CONTINUOUS
 90
8
 70
0
 10
4.0629007201
 20
3.5682116356
 10
4.0325509242
 20
3.5678768076
 10
4.0023701579
 20
3.5630530324
 10
3.9731433779
 20
3.5538349501
 10
3.9453504379
 20
3.5403325219
 10
3.919729431
 20
3.5228518629
 10
3.8967952407
 20
3.5017070054
 10
3.8770514005
 20
3.4772948191
  0
LINE
  5
7D7
100
AcDbEntity
  8
0
100
AcDbLine
 62
7
  6
CONTINUOUS
 10
4.0927210662
 20
3.5640946014
 11
4.0629007201
 21
3.5682116356
  0
LWPOLYLINE
  5
7D8
100
AcDbEntity
  8
0
100
AcDbPolyline
 62
7
  6
CONTINUOUS
 90
10
 70
0
 10
4.1338320132
 20
3.5874563061
 10
4.0999834297
 20
3.5935540847
 10
4.065843177
 20
3.5946254978
 10
4.0321423365
 20
3.5907030874
 10
3.9996163733
 20
3.5819289261
 10
3.9689613686
 20
3.5685518228
 10
3.940826908
 20
3.5509204859
 10
3.915801378
 20
3.5294749529
 10
3.8943993365
 20
3.504736096
 10
3.8770514005
 20
3.4772948191
  0
LWPOLYLINE
  5
7D9
100
AcDbEntity
  8
0
100
AcDbPolyline
 62
7
  6
CONTINUOUS
 90
10
 70
0
 10
4.2710125776
 20
3.4148974985
 10
4.2602230449
 20
3.4432638096
 10
4.2456510673
 20
3.4696579362
 10
4.2280216275
 20
3.4931341778
 10
4.2086264358
 20
3.5127892238
 10
4.1879717579
 20
3.5289510697
 10
4.1661186716
 20
3.5420549858
 10
4.1428132391
 20
3.552387403
 10
4.1181885982
 20
3.5598184068
 10
4.0927210662
 20
3.5640946014
  0
LWPOLYLINE
  5
7DA
100
AcDbEntity
  8
0
100
AcDbPolyline
 62
7
  6
CONTINUOUS
 90
5
 70
0
 10
4.2710125776
 20
3.4148974985
 10
4.2774095291
 20
3.3792981375
 10
4.2778030636
 20
3.3430478739
 10
4.272159517
 20
3.3071545852
 10
4.2606127602
 20
3.2726163286
  0
LWPOLYLINE
  5
7DB
100
AcDbEntity
  8
0
100
AcDbPolyline
 62
7
  6
CONTINUOUS
 90
19
 70
0
 10
4.0499234702
 20
3.8039545278
 10
4.1242269864
 20
3.7961307299
 10
4.1955805407
 20
3.7759802957
 10
4.262286842
 20
3.7440871498
 10
4.3220614198
 20
3.7016767856
 10
4.373742805
 20
3.6496405457
 10
4.4153418469
 20
3.5900724221
 10
4.4458845356
 20
3.5247412153
 10
4.4647098041
 20
3.4551903525
 10
4.4711830162
 20
3.3843054144
 10
4.4653447548
 20
3.3135602559
 10
4.4474380268
 20
3.2452796276
 10
4.4183076807
 20
3.181863423
 10
4.3785786172
 20
3.1244432051
 10
4.3299453125
 20
3.0753406403
 10
4.2739647662
 20
3.0357988882
 10
4.212049053
 20
3.0067182349
 10
4.1468317456
 20
2.9891632013
 10
4.0796271228
 20
2.983340005
  0
LINE
  5
7DC
100
AcDbEntity
  8
0
100
AcDbLine
 62
9
  6
CONTINUOUS
 10
4.1607292683
 20
3.8647649033
 11
3.9609479383
 21
3.8647649033
  0
LINE
  5
7DD
100
AcDbEntity
  8
02___PRT_ALL_AXES
100
AcDbLine
 62
7
  6
CONTINUOUS
 10
4.2868225123
 20
3.9041349821
 11
4.1645359827
 21
3.9041349821
  0
LINE
  5
7DE
100
AcDbEntity
  8
0
100
AcDbLine
 62
7
  6
CONTINUOUS
 10
4.1645359827
 20
3.9041349821
 11
3.9571412238
 21
3.9041349821
  0
LINE
  5
7DF
100
AcDbEntity
  8
02___PRT_ALL_AXES
100
AcDbLine
 62
7
  6
CONTINUOUS
 10
3.9571412238
 20
3.9041349821
 11
3.8348546942
 21
3.9041349821
  0
LINE
  5
7E0
100
AcDbEntity
  8
02___PRT_ALL_AXES
100
AcDbLine
 62
7
  6
CONTINUOUS
 10
4.6313201576
 20
3.2261692264
 11
4.6030059276
 21
3.13880805
  0
LWPOLYLINE
  5
7E1
100
AcDbEntity
  8
02___PRT_ALL_AXES
100
AcDbPolyline
 62
7
  6
CONTINUOUS
 90
6
 70
0
 10
4.6030059276
 20
3.13880805
 10
4.5614041486
 20
3.0569364264
 10
4.5075344056
 20
2.9825608824
 10
4.4427169495
 20
2.9175042291
 10
4.3685403398
 20
2.8633608885
 10
4.2868225123
 20
2.8214578167
  0
LINE
  5
7E2
100
AcDbEntity
  8
0
100
AcDbLine
 62
9
  6
CONTINUOUS
 10
4.168207817
 20
3.9435050608
 11
3.9534693895
 21
3.9435050608
  0
LWPOLYLINE
  5
7E3
100
AcDbEntity
  8
02___PRT_ALL_AXES
100
AcDbPolyline
 62
7
  6
CONTINUOUS
 90
3
 70
0
 10
4.2868225123
 20
3.9041349821
 10
4.3685403398
 20
3.8622319103
 10
4.4427169495
 20
3.8080885697
  0
LWPOLYLINE
  5
7E4
100
AcDbEntity
  8
02___PRT_ALL_AXES
100
AcDbPolyline
 62
7
  6
CONTINUOUS
 90
3
 70
0
 10
4.4427169495
 20
3.8080885697
 10
4.5075344056
 20
3.7430319164
 10
4.5614041486
 20
3.6686563723
  0
LINE
  5
7E5
100
AcDbEntity
  8
02___PRT_ALL_AXES
100
AcDbLine
 62
7
  6
CONTINUOUS
 10
4.5614041486
 20
3.6686563723
 11
4.6030059276
 21
3.5867847488
  0
LWPOLYLINE
  5
7E6
100
AcDbEntity
  8
02___PRT_ALL_AXES
100
AcDbPolyline
 62
7
  6
CONTINUOUS
 90
5
 70
0
 10
4.6030059276
 20
3.5867847488
 10
4.6313201576
 20
3.4994235724
 10
4.6456529076
 20
3.408713909
 10
4.6456529076
 20
3.3168788898
 10
4.6313201576
 20
3.2261692264
  0
CIRCLE
  5
7E7
100
AcDbEntity
  8
0
100
AcDbCircle
 62
7
  6
CONTINUOUS
 10
10.5342808475
 20
1.243294839
 40
0.252091
  0
CIRCLE
  5
7E8
100
AcDbEntity
  8
0
100
AcDbCircle
 62
7
  6
CONTINUOUS
 10
10.5342808475
 20
1.243294839
 40
0.182698
  0
ARC
  5
7E9
100
AcDbEntity
  8
02___PRT_ALL_AXES
100
AcDbCircle
 62
7
  6
CONTINUOUS
 10
3.3324921466
 20
7.0864094773
 40
0.157480315
100
AcDbArc
 50
180.0
 51
270.0
  0
ARC
  5
7EA
100
AcDbEntity
  8
02___PRT_ALL_AXES
100
AcDbCircle
 62
7
  6
CONTINUOUS
 10
4.78918506
 20
7.0864094773
 40
0.157480315
100
AcDbArc
 50
270.0
 51
360.0
  0
ARC
  5
7EB
100
AcDbEntity
  8
0
100
AcDbCircle
 62
7
  6
CONTINUOUS
 10
4.9616654104
 20
9.2557008159
 40
0.0787401575
100
AcDbArc
 50
1.0000000028
 51
90.0
  0
ARC
  5
7EC
100
AcDbEntity
  8
0
100
AcDbCircle
 62
7
  6
CONTINUOUS
 10
3.1600117961
 20
9.2557008159
 40
0.0787401575
100
AcDbArc
 50
90.0
 51
178.9999999972
  0
ARC
  5
7ED
100
AcDbEntity
  8
02___PRT_ALL_AXES
100
AcDbCircle
 62
7
  6
CONTINUOUS
 10
3.1159567135
 20
7.5194803434
 40
0.0590551181
100
AcDbArc
 50
0.0
 51
90.0
  0
ARC
  5
7EE
100
AcDbEntity
  8
02___PRT_ALL_AXES
100
AcDbCircle
 62
7
  6
CONTINUOUS
 10
5.005720493
 20
7.5194803434
 40
0.0590551181
100
AcDbArc
 50
90.0
 51
180.0
  0
ARC
  5
7EF
100
AcDbEntity
  8
02___PRT_ALL_AXES
100
AcDbCircle
 62
7
  6
CONTINUOUS
 10
3.1159567135
 20
7.6179055403
 40
0.0393700787
100
AcDbArc
 50
180.0
 51
270.0
  0
ARC
  5
7F0
100
AcDbEntity
  8
02___PRT_ALL_AXES
100
AcDbCircle
 62
7
  6
CONTINUOUS
 10
5.005720493
 20
7.6179055403
 40
0.0393700787
100
AcDbArc
 50
270.0
 51
360.0
  0
ARC
  5
7F1
100
AcDbEntity
  8
0
100
AcDbCircle
 62
7
  6
CONTINUOUS
 10
4.5726496269
 20
6.220267745
 40
0.0393700787
100
AcDbArc
 50
270.0
 51
360.0
  0
ARC
  5
7F2
100
AcDbEntity
  8
0
100
AcDbCircle
 62
7
  6
CONTINUOUS
 10
3.5490275796
 20
6.220267745
 40
0.0393700787
100
AcDbArc
 50
180.0
 51
270.0
  0
ARC
  5
7F3
100
AcDbEntity
  8
0
100
AcDbCircle
 62
7
  6
CONTINUOUS
 10
3.4702874222
 20
6.8895590836
 40
0.0393700787
100
AcDbArc
 50
0.0
 51
90.0
  0
ARC
  5
7F4
100
AcDbEntity
  8
0
100
AcDbCircle
 62
7
  6
CONTINUOUS
 10
4.6513897844
 20
6.8895590836
 40
0.0393700787
100
AcDbArc
 50
90.0
 51
180.0
  0
CIRCLE
  5
7F5
100
AcDbEntity
  8
0
100
AcDbCircle
 62
7
  6
CONTINUOUS
 10
3.9624134064
 20
3.3627963994
 40
0.0196850394
  0
CIRCLE
  5
7F6
100
AcDbEntity
  8
0
100
AcDbCircle
 62
9
  6
CONTINUOUS
 10
3.9624134064
 20
3.3627963994
 40
0.00468503
  0
CIRCLE
  5
7F7
100
AcDbEntity
  8
0
100
AcDbCircle
 62
7
  6
CONTINUOUS
 10
4.0608386033
 20
3.2643712025
 40
0.0196850394
  0
CIRCLE
  5
7F8
100
AcDbEntity
  8
0
100
AcDbCircle
 62
9
  6
CONTINUOUS
 10
4.0608386033
 20
3.2643712025
 40
0.00468503
  0
ARC
  5
7F9
100
AcDbEntity
  8
AXIS
100
AcDbCircle
 62
7
  6
CONTINUOUS
 10
4.0608386033
 20
3.3627963994
 40
0.9842519685
100
AcDbArc
 50
90.0
 51
180.0
  0
CIRCLE
  5
7FA
100
AcDbEntity
  8
02___PRT_ALL_AXES
100
AcDbCircle
 62
7
  6
CONTINUOUS
 10
4.0608386033
 20
3.3627963994
 40
0.9842519685
  0
CIRCLE
  5
7FB
100
AcDbEntity
  8
02___PRT_ALL_AXES
100
AcDbCircle
 62
9
  6
CONTINUOUS
 10
4.0608386033
 20
3.3627963994
 40
0.9448818898
  0
CIRCLE
  5
7FC
100
AcDbEntity
  8
02___PRT_ALL_AXES
100
AcDbCircle
 62
7
  6
CONTINUOUS
 10
4.0608386033
 20
3.3627963994
 40
0.8858267717
  0
CIRCLE
  5
7FD
100
AcDbEntity
  8
02___PRT_ALL_AXES
100
AcDbCircle
 62
9
  6
CONTINUOUS
 10
4.0608386033
 20
3.3627963994
 40
0.7283464567
  0
ARC
  5
7FE
100
AcDbEntity
  8
0
100
AcDbCircle
 62
9
  6
CONTINUOUS
 10
4.0608386033
 20
3.3627963994
 40
0.5905511811
100
AcDbArc
 50
100.4753138432
 51
259.5246861568
  0
ARC
  5
7FF
100
AcDbEntity
  8
0
100
AcDbCircle
 62
9
  6
CONTINUOUS
 10
4.0608386033
 20
3.3627963994
 40
0.5905511811
100
AcDbArc
 50
280.4753138432
 51
79.5246861568
  0
ARC
  5
800
100
AcDbEntity
  8
0
100
AcDbCircle
 62
7
  6
CONTINUOUS
 10
4.0608386033
 20
3.3627963994
 40
0.5511811024
100
AcDbArc
 50
280.8440625637
 51
79.1559374363
  0
ARC
  5
801
100
AcDbEntity
  8
0
100
AcDbCircle
 62
7
  6
CONTINUOUS
 10
4.0608386033
 20
3.3627963994
 40
0.5511811024
100
AcDbArc
 50
100.8440625637
 51
259.1559374363
  0
ARC
  5
802
100
AcDbEntity
  8
0
100
AcDbCircle
 62
9
  6
CONTINUOUS
 10
4.0608386033
 20
3.3627963994
 40
0.5118110236
100
AcDbArc
 50
101.2547126182
 51
258.7452873818
  0
ARC
  5
803
100
AcDbEntity
  8
0
100
AcDbCircle
 62
9
  6
CONTINUOUS
 10
4.0608386033
 20
3.3627963994
 40
0.5118110236
100
AcDbArc
 50
281.2547126182
 51
78.7452873818
  0
CIRCLE
  5
804
100
AcDbEntity
  8
0
100
AcDbCircle
 62
7
  6
CONTINUOUS
 10
4.0608386033
 20
3.3627963994
 40
0.3799212598
  0
CIRCLE
  5
805
100
AcDbEntity
  8
0
100
AcDbCircle
 62
7
  6
CONTINUOUS
 10
4.0608386033
 20
3.3627963994
 40
0.3208224134
  0
CIRCLE
  5
806
100
AcDbEntity
  8
AXIS
100
AcDbCircle
 62
7
  6
CONTINUOUS
 10
4.0608386033
 20
3.3627963994
 40
0.3051181102
  0
CIRCLE
  5
807
100
AcDbEntity
  8
AXIS
100
AcDbCircle
 62
9
  6
CONTINUOUS
 10
4.0608386033
 20
3.3627963994
 40
0.2944051522
  0
CIRCLE
  5
808
100
AcDbEntity
  8
AXIS
100
AcDbCircle
 62
9
  6
CONTINUOUS
 10
4.0608386033
 20
3.3627963994
 40
0.2469334304
  0
CIRCLE
  5
809
100
AcDbEntity
  8
0
100
AcDbCircle
 62
7
  6
CONTINUOUS
 10
4.0608386033
 20
3.3627963994
 40
0.2362204724
  0
ARC
  5
80A
100
AcDbEntity
  8
0
100
AcDbCircle
 62
7
  6
CONTINUOUS
 10
4.0608386033
 20
3.3627963994
 40
0.2165355029
100
AcDbArc
 50
148.0773200832
 51
13.9226799136
  0
CIRCLE
  5
80B
100
AcDbEntity
  8
0
100
AcDbCircle
 62
7
  6
CONTINUOUS
 10
4.0608386033
 20
3.3627963994
 40
0.2037401575
  0
CIRCLE
  5
80C
100
AcDbEntity
  8
0
100
AcDbCircle
 62
7
  6
CONTINUOUS
 10
4.0608386033
 20
3.3627963994
 40
0.1633858268
  0
CIRCLE
  5
80D
100
AcDbEntity
  8
0
100
AcDbCircle
 62
7
  6
CONTINUOUS
 10
4.0608386033
 20
3.4612215962
 40
0.0196850394
  0
CIRCLE
  5
80E
100
AcDbEntity
  8
0
100
AcDbCircle
 62
9
  6
CONTINUOUS
 10
4.0608386033
 20
3.4612215962
 40
0.00468503
  0
CIRCLE
  5
80F
100
AcDbEntity
  8
0
100
AcDbCircle
 62
7
  6
CONTINUOUS
 10
4.1592638001
 20
3.3627963994
 40
0.0196850394
  0
CIRCLE
  5
810
100
AcDbEntity
  8
0
100
AcDbCircle
 62
9
  6
CONTINUOUS
 10
4.1592638001
 20
3.3627963994
 40
0.00468503
  0
ENDSEC
  0
SECTION
  2
OBJECTS
  0
DICTIONARY
  5
C
100
AcDbDictionary
280
0
281
1
  3
ACAD_GROUP
350
D
  3
ACAD_MLINESTYLE
350
17
  3
ACAD_LAYOUT
350
1A
  3
ACAD_PLOTSETTINGS
350
19
  3
ACAD_PLOTSTYLENAME
350
E
  0
DICTIONARY
  5
D
102
{ACAD_REACTORS
330
C
102
}
100
AcDbDictionary
280
0
281
1
  0
ACDBDICTIONARYWDFLT
  5
E
102
{ACAD_REACTORS
330
C
102
}
100
AcDbDictionary
281
1
  3
Normal
350
F
100
AcDbDictionaryWithDefault
340
F
  0
DICTIONARY
  5
17
102
{ACAD_REACTORS
330
C
102
}
100
AcDbDictionary
280
0
281
1
  3
Standard
350
18
  0
DICTIONARY
  5
19
102
{ACAD_REACTORS
330
C
102
}
100
AcDbDictionary
281
1
  0
DICTIONARY
  5
1A
102
{ACAD_REACTORS
330
C
102
}
100
AcDbDictionary
281
1
  3
Layout1
350
1E
  3
Model
350
22
  0
ACDBPLACEHOLDER
  5
F
102
{ACAD_REACTORS
330
E
102
}
  0
MLINESTYLE
  5
18
102
{ACAD_REACTORS
330
17
102
}
100
AcDbMlineStyle
  2
STANDARD
 70
0
  3

 62
256
 51
90.0
 52
90.0
 71
2
 49
0.5
 62
256
  6
BYLAYER
 49
-0.5
 62
256
  6
BYLAYER
  0
LAYOUT
  5
1E
102
{ACAD_REACTORS
330
1A
102
}
100
AcDbPlotSettings
  1

  2

  4

  6

 40
0.0
 41
0.0
 42
0.0
 43
0.0
 44
0.0
 45
0.0
 46
0.0
 47
0.0
 48
0.0
 49
0.0
140
0.0
141
0.0
142
1.0
143
1.0
 70
0
 72
0
 73
0
 74
0
  7

 75
0
147
1.0
148
0.0
149
0.0
100
AcDbLayout
  1
Layout1
 70
0
 71
0
 10
0.0
 20
0.0
 11
0.0
 21
0.0
 12
0.0
 22
0.0
 32
0.0
 14
0.0
 24
0.0
 34
0.0
 15
0.0
 25
0.0
 35
0.0
146
0.0
 13
0.0
 23
0.0
 33
0.0
 16
0.0
 26
0.0
 36
0.0
 17
0.0
 27
0.0
 37
0.0
 76
0
330
1B
331
0
345
0
346
0
  0
LAYOUT
  5
22
102
{ACAD_REACTORS
330
1A
102
}
100
AcDbPlotSettings
  1

  2

  4

  6

 40
0.0
 41
0.0
 42
0.0
 43
0.0
 44
0.0
 45
0.0
 46
0.0
 47
0.0
 48
0.0
 49
0.0
140
0.0
141
0.0
142
1.0
143
1.0
 70
0
 72
0
 73
0
 74
0
  7

 75
0
147
1.0
148
0.0
149
0.0
100
AcDbLayout
  1
Model
 70
0
 71
0
 10
0.0
 20
0.0
 11
0.0
 21
0.0
 12
0.0
 22
0.0
 32
0.0
 14
0.0
 24
0.0
 34
0.0
 15
0.0
 25
0.0
 35
0.0
146
0.0
 13
0.0
 23
0.0
 33
0.0
 16
0.0
 26
0.0
 36
0.0
 17
0.0
 27
0.0
 37
0.0
 76
0
330
1F
331
0
345
0
346
0
  0
ENDSEC
  0
EOF
