999
DXF file: 144929_1.dxf
999
Pro/ENGINEER 2009141 by Parametric Technology Corporation
  0
SECTION
  2
HEADER
  9
$ACADVER
  1
AC1015
  9
$DWGCODEPAGE
  3
ANSI_1252
  9
$EXTMAX
 10
22.0
 20
17.0
 30
0.0
  9
$EXTMIN
 10
0.0
 20
0.0
 30
0.0
  9
$LIMMIN
 10
0.0
 20
0.0
  9
$LIMMAX
 10
22.0
 20
17.0
  9
$VIEWCTR
 10
11.0
 20
8.5
  9
$VIEWSIZE
 40
17.0
  9
$CLAYER
  8
0
  9
$LTSCALE
 40
1.21
  9
$CELTYPE
  6
BYLAYER
  9
$DIMSCALE
 40
1.0
  9
$DIMASZ
 40
0.1875
  9
$DIMEXO
 40
0.1375
  9
$DIMDLI
 40
0.836
  9
$DIMEXE
 40
0.396
  9
$DIMCEN
 40
0.198
  9
$DIMLFAC
 40
1.0
  9
$DIMBLK
  1
_FILLED
  9
$DIMTXT
 40
0.1
  9
$DIMTOL
 70
1
  9
$DIMLIM
 70
0
  9
$DIMTFAC
 40
1.0
  9
$DIMTP
 40
0.005
  9
$DIMTM
 40
0.005
  9
$PDMODE
 70
3
  9
$PDSIZE
 40
0.3125
  9
$HANDSEED
  5
644
  9
$TILEMODE
 70
1
  9
$MEASUREMENT
 70
0
  9
$INSUNITS
 70
1
  0
ENDSEC
  0
SECTION
  2
CLASSES
  0
CLASS
  1
ACDBDICTIONARYWDFLT
  2
AcDbDictionaryWithDefault
  3
AutoCAD 2000
 90
0
280
0
281
0
  0
CLASS
  1
ACDBPLACEHOLDER
  2
AcDbPlaceHolder
  3
AutoCAD 2000
 90
0
280
0
281
0
  0
CLASS
  1
LAYOUT
  2
AcDbLayout
  3
AutoCAD 2000
 90
0
280
0
281
0
  0
ENDSEC
  0
SECTION
  2
TABLES
  0
TABLE
  2
VPORT
  5
8
100
AcDbSymbolTable
 70
2
  0
VPORT
  5
1F4
100
AcDbSymbolTableRecord
100
AcDbViewportTableRecord
  2
*ACTIVE
 70
0
 10
0.0
 20
0.0
 11
1.0
 21
1.0
 12
11.0
 22
8.5
 13
0.0
 23
0.0
 14
1.0
 24
1.0
 15
0.0
 25
0.0
 16
0.0
 26
0.0
 36
1.0
 17
0.0
 27
0.0
 37
0.0
 40
17.0
 41
1.2941176471
 42
50.0
 43
0.0
 44
0.0
 50
0.0
 51
0.0
 71
0
 72
100
 73
1
 74
1
 75
0
 76
0
 77
0
 78
0
  0
ENDTAB
  0
TABLE
  2
LTYPE
  5
5
100
AcDbSymbolTable
 70
6
  0
LTYPE
  5
14
100
AcDbSymbolTableRecord
100
AcDbLinetypeTableRecord
  2
BYBLOCK
 70
0
  3

 72
65
 73
0
 40
0.0
  0
LTYPE
  5
15
100
AcDbSymbolTableRecord
100
AcDbLinetypeTableRecord
  2
BYLAYER
 70
0
  3

 72
65
 73
0
 40
0.0
  0
LTYPE
  5
16
100
AcDbSymbolTableRecord
100
AcDbLinetypeTableRecord
  2
CONTINUOUS
 70
64
  3
Solid line
 72
65
 73
0
 40
0.0
  0
LTYPE
  5
1F5
100
AcDbSymbolTableRecord
100
AcDbLinetypeTableRecord
  2
CENTER
 70
64
  3
____ _ ____ _ ____ _ ____ _ ____ _ ____ _ ____
 72
65
 73
4
 40
0.6
 49
0.375
 74
0
 49
-0.075
 74
0
 49
0.075
 74
0
 49
-0.075
 74
0
  0
LTYPE
  5
1F6
100
AcDbSymbolTableRecord
100
AcDbLinetypeTableRecord
  2
HIDDEN
 70
64
  3
- - - - - - - - - - - - - - - - - - - -
 72
65
 73
2
 40
0.2
 49
0.1
 74
0
 49
-0.1
 74
0
  0
LTYPE
  5
1F7
100
AcDbSymbolTableRecord
100
AcDbLinetypeTableRecord
  2
PHANTOM
 70
64
  3
_____ _ _ _____ _ _ _____ _ _ _____
 72
65
 73
6
 40
0.8
 49
0.45
 74
0
 49
-0.05
 74
0
 49
0.1
 74
0
 49
-0.05
 74
0
 49
0.1
 74
0
 49
-0.05
 74
0
  0
LTYPE
  5
1F8
100
AcDbSymbolTableRecord
100
AcDbLinetypeTableRecord
  2
DOT
 70
64
  3
. . . . . . . . . . . . . . . . . . . .
 72
65
 73
2
 40
0.2
 49
0.1
 74
0
 49
-0.1
 74
0
  0
LTYPE
  5
1F9
100
AcDbSymbolTableRecord
100
AcDbLinetypeTableRecord
  2
DASHED
 70
64
  3
- - - - - - - - - - - - - - - - - - - -
 72
65
 73
2
 40
0.2
 49
0.1
 74
0
 49
-0.1
 74
0
  0
ENDTAB
  0
TABLE
  2
LAYER
  5
2
100
AcDbSymbolTable
 70
36
  0
LAYER
  5
10
100
AcDbSymbolTableRecord
100
AcDbLayerTableRecord
  2
0
 70
0
 62
7
  6
CONTINUOUS
370
-3
390
F
  0
LAYER
  5
1FA
100
AcDbSymbolTableRecord
100
AcDbLayerTableRecord
  2
DEFAULT_1
 70
0
 62
7
  6
CENTER
370
-3
390
F
  0
LAYER
  5
1FB
100
AcDbSymbolTableRecord
100
AcDbLayerTableRecord
  2
DEFAULT_2
 70
0
 62
8
  6
HIDDEN
370
-3
390
F
  0
LAYER
  5
1FC
100
AcDbSymbolTableRecord
100
AcDbLayerTableRecord
  2
DEFAULT_3
 70
0
 62
7
  6
PHANTOM
370
-3
390
F
  0
LAYER
  5
1FD
100
AcDbSymbolTableRecord
100
AcDbLayerTableRecord
  2
01___PRT_ALL_DTM_PLN
 70
0
 62
7
  6
CONTINUOUS
370
-3
390
F
  0
LAYER
  5
1FE
100
AcDbSymbolTableRecord
100
AcDbLayerTableRecord
  2
01___PRT_DEF_DTM_PLN
 70
0
 62
7
  6
CONTINUOUS
370
-3
390
F
  0
LAYER
  5
1FF
100
AcDbSymbolTableRecord
100
AcDbLayerTableRecord
  2
02___PRT_ALL_AXES
 70
0
 62
7
  6
CONTINUOUS
370
-3
390
F
  0
LAYER
  5
200
100
AcDbSymbolTableRecord
100
AcDbLayerTableRecord
  2
03___PRT_ALL_CURVES
 70
0
 62
7
  6
CONTINUOUS
370
-3
390
F
  0
LAYER
  5
201
100
AcDbSymbolTableRecord
100
AcDbLayerTableRecord
  2
04___PRT_ALL_DTM_PNT
 70
0
 62
7
  6
CONTINUOUS
370
-3
390
F
  0
LAYER
  5
202
100
AcDbSymbolTableRecord
100
AcDbLayerTableRecord
  2
05___PRT_ALL_DTM_CSYS
 70
0
 62
7
  6
CONTINUOUS
370
-3
390
F
  0
LAYER
  5
203
100
AcDbSymbolTableRecord
100
AcDbLayerTableRecord
  2
05___PRT_DEF_DTM_CSYS
 70
0
 62
7
  6
CONTINUOUS
370
-3
390
F
  0
LAYER
  5
204
100
AcDbSymbolTableRecord
100
AcDbLayerTableRecord
  2
06___PRT_ALL_SURFS
 70
0
 62
7
  6
CONTINUOUS
370
-3
390
F
  0
LAYER
  5
205
100
AcDbSymbolTableRecord
100
AcDbLayerTableRecord
  2
AXIS
 70
0
 62
7
  6
CONTINUOUS
370
-3
390
F
  0
LAYER
  5
206
100
AcDbSymbolTableRecord
100
AcDbLayerTableRecord
  2
AXIS_COSMETIC_THREADS
 70
0
 62
7
  6
CONTINUOUS
370
-3
390
F
  0
LAYER
  5
207
100
AcDbSymbolTableRecord
100
AcDbLayerTableRecord
  2
COSMETIC_THREADS
 70
0
 62
7
  6
CONTINUOUS
370
-3
390
F
  0
LAYER
  5
208
100
AcDbSymbolTableRecord
100
AcDbLayerTableRecord
  2
CSY
 70
0
 62
7
  6
CONTINUOUS
370
-3
390
F
  0
LAYER
  5
209
100
AcDbSymbolTableRecord
100
AcDbLayerTableRecord
  2
DATUM_CURVES
 70
0
 62
7
  6
CONTINUOUS
370
-3
390
F
  0
LAYER
  5
20A
100
AcDbSymbolTableRecord
100
AcDbLayerTableRecord
  2
DATUM_PLANES
 70
0
 62
7
  6
CONTINUOUS
370
-3
390
F
  0
LAYER
  5
20B
100
AcDbSymbolTableRecord
100
AcDbLayerTableRecord
  2
ECAD_0402C
 70
0
 62
7
  6
CONTINUOUS
370
-3
390
F
  0
LAYER
  5
20C
100
AcDbSymbolTableRecord
100
AcDbLayerTableRecord
  2
ECAD_0603
 70
0
 62
7
  6
CONTINUOUS
370
-3
390
F
  0
LAYER
  5
20D
100
AcDbSymbolTableRecord
100
AcDbLayerTableRecord
  2
ECAD_0603C
 70
0
 62
7
  6
CONTINUOUS
370
-3
390
F
  0
LAYER
  5
20E
100
AcDbSymbolTableRecord
100
AcDbLayerTableRecord
  2
ECAD_0805
 70
0
 62
7
  6
CONTINUOUS
370
-3
390
F
  0
LAYER
  5
20F
100
AcDbSymbolTableRecord
100
AcDbLayerTableRecord
  2
ECAD_0805C
 70
0
 62
7
  6
CONTINUOUS
370
-3
390
F
  0
LAYER
  5
210
100
AcDbSymbolTableRecord
100
AcDbLayerTableRecord
  2
ECAD_1206F
 70
0
 62
7
  6
CONTINUOUS
370
-3
390
F
  0
LAYER
  5
211
100
AcDbSymbolTableRecord
100
AcDbLayerTableRecord
  2
ECAD_1812C
 70
0
 62
7
  6
CONTINUOUS
370
-3
390
F
  0
LAYER
  5
212
100
AcDbSymbolTableRecord
100
AcDbLayerTableRecord
  2
ECAD_FCCAP3
 70
0
 62
7
  6
CONTINUOUS
370
-3
390
F
  0
LAYER
  5
213
100
AcDbSymbolTableRecord
100
AcDbLayerTableRecord
  2
ECAD_HTSSOP8
 70
0
 62
7
  6
CONTINUOUS
370
-3
390
F
  0
LAYER
  5
214
100
AcDbSymbolTableRecord
100
AcDbLayerTableRecord
  2
ECAD_P210150
 70
0
 62
7
  6
CONTINUOUS
370
-3
390
F
  0
LAYER
  5
215
100
AcDbSymbolTableRecord
100
AcDbLayerTableRecord
  2
ECAD_POT3MMRA
 70
0
 62
7
  6
CONTINUOUS
370
-3
390
F
  0
LAYER
  5
216
100
AcDbSymbolTableRecord
100
AcDbLayerTableRecord
  2
ECAD_SMA
 70
0
 62
7
  6
CONTINUOUS
370
-3
390
F
  0
LAYER
  5
217
100
AcDbSymbolTableRecord
100
AcDbLayerTableRecord
  2
ECAD_SMIND4
 70
0
 62
7
  6
CONTINUOUS
370
-3
390
F
  0
LAYER
  5
218
100
AcDbSymbolTableRecord
100
AcDbLayerTableRecord
  2
ECAD_SMLEDS
 70
0
 62
7
  6
CONTINUOUS
370
-3
390
F
  0
LAYER
  5
219
100
AcDbSymbolTableRecord
100
AcDbLayerTableRecord
  2
ECAD_SO8
 70
0
 62
7
  6
CONTINUOUS
370
-3
390
F
  0
LAYER
  5
21A
100
AcDbSymbolTableRecord
100
AcDbLayerTableRecord
  2
ECAD_SOP5
 70
0
 62
7
  6
CONTINUOUS
370
-3
390
F
  0
LAYER
  5
21B
100
AcDbSymbolTableRecord
100
AcDbLayerTableRecord
  2
ECAD_SOT23
 70
0
 62
7
  6
CONTINUOUS
370
-3
390
F
  0
LAYER
  5
21C
100
AcDbSymbolTableRecord
100
AcDbLayerTableRecord
  2
ECAD_TO252
 70
0
 62
7
  6
CONTINUOUS
370
-3
390
F
  0
LAYER
  5
21D
100
AcDbSymbolTableRecord
100
AcDbLayerTableRecord
  2
ECAD_WIRE24
 70
0
 62
7
  6
CONTINUOUS
370
-3
390
F
  0
LAYER
  5
21E
100
AcDbSymbolTableRecord
100
AcDbLayerTableRecord
  2
ECAD_WIRE24_SQ
 70
0
 62
7
  6
CONTINUOUS
370
-3
390
F
  0
LAYER
  5
21F
100
AcDbSymbolTableRecord
100
AcDbLayerTableRecord
  2
HIDDEN
 70
0
 62
7
  6
CONTINUOUS
370
-3
390
F
  0
LAYER
  5
220
100
AcDbSymbolTableRecord
100
AcDbLayerTableRecord
  2
HIDE
 70
0
 62
7
  6
CONTINUOUS
370
-3
390
F
  0
LAYER
  5
221
100
AcDbSymbolTableRecord
100
AcDbLayerTableRecord
  2
NOTES
 70
0
 62
7
  6
CONTINUOUS
370
-3
390
F
  0
LAYER
  5
222
100
AcDbSymbolTableRecord
100
AcDbLayerTableRecord
  2
QUILTS
 70
0
 62
7
  6
CONTINUOUS
370
-3
390
F
  0
LAYER
  5
223
100
AcDbSymbolTableRecord
100
AcDbLayerTableRecord
  2
SCHEME_DIMS
 70
0
 62
7
  6
CONTINUOUS
370
-3
390
F
  0
LAYER
  5
224
100
AcDbSymbolTableRecord
100
AcDbLayerTableRecord
  2
SURFACE_FINISH
 70
0
 62
7
  6
CONTINUOUS
370
-3
390
F
  0
LAYER
  5
225
100
AcDbSymbolTableRecord
100
AcDbLayerTableRecord
  2
SYMBOLS
 70
0
 62
7
  6
CONTINUOUS
370
-3
390
F
  0
LAYER
  5
226
100
AcDbSymbolTableRecord
100
AcDbLayerTableRecord
  2
XSEC_DATUMS
 70
0
 62
7
  6
CONTINUOUS
370
-3
390
F
  0
ENDTAB
  0
TABLE
  2
STYLE
  5
3
100
AcDbSymbolTable
 70
1
  0
STYLE
  5
11
100
AcDbSymbolTableRecord
100
AcDbTextStyleTableRecord
  2
STANDARD
 70
0
 40
0.0
 41
1.0
 50
0.0
 71
0
 42
0.2
  3
txt
  4

  0
STYLE
  5
227
100
AcDbSymbolTableRecord
100
AcDbTextStyleTableRecord
  2
TEXTSTYLE_1
 70
0
 40
0.0
 41
0.8
 50
0.0
 71
0
 42
0.2
  3
gdt
  4

  0
STYLE
  5
228
100
AcDbSymbolTableRecord
100
AcDbTextStyleTableRecord
  2
TEXTSTYLE_2
 70
0
 40
0.0
 41
0.8
 50
0.0
 71
0
 42
0.2
  3
txt
  4

  0
STYLE
  5
229
100
AcDbSymbolTableRecord
100
AcDbTextStyleTableRecord
  2
TEXTSTYLE_3
 70
0
 40
0.0
 41
0.95
 50
0.0
 71
0
 42
0.2
  3
txt
  4

  0
STYLE
  5
22A
100
AcDbSymbolTableRecord
100
AcDbTextStyleTableRecord
  2
TEXTSTYLE_4
 70
0
 40
0.0
 41
0.95
 50
0.0
 71
0
 42
0.2
  3
gdt
  4

  0
STYLE
  5
22B
100
AcDbSymbolTableRecord
100
AcDbTextStyleTableRecord
  2
TEXTSTYLE_5
 70
0
 40
0.0
 41
0.85
 50
0.0
 71
0
 42
0.2
  3
txt
  4

  0
STYLE
  5
22C
100
AcDbSymbolTableRecord
100
AcDbTextStyleTableRecord
  2
TEXTSTYLE_6
 70
0
 40
0.0
 41
0.92
 50
0.0
 71
0
 42
0.2
  3
txt
  4

  0
ENDTAB
  0
TABLE
  2
VIEW
  5
6
100
AcDbSymbolTable
 70
0
  0
ENDTAB
  0
TABLE
  2
UCS
  5
7
100
AcDbSymbolTable
 70
0
  0
ENDTAB
  0
TABLE
  2
APPID
  5
9
100
AcDbSymbolTable
 70
1
  0
APPID
  5
22D
100
AcDbSymbolTableRecord
100
AcDbRegAppTableRecord
  2
ACAD
 70
0
  0
ENDTAB
  0
TABLE
  2
BLOCK_RECORD
  5
1
100
AcDbSymbolTable
 70
0
  0
BLOCK_RECORD
  5
22E
100
AcDbSymbolTableRecord
100
AcDbBlockTableRecord
  2
*Model_Space
  0
BLOCK_RECORD
  5
22F
100
AcDbSymbolTableRecord
100
AcDbBlockTableRecord
  2
*Paper_Space
  0
BLOCK_RECORD
  5
230
100
AcDbSymbolTableRecord
100
AcDbBlockTableRecord
  2
_FILLED
  0
BLOCK_RECORD
  5
231
100
AcDbSymbolTableRecord
100
AcDbBlockTableRecord
  2
*D0
  0
BLOCK_RECORD
  5
232
100
AcDbSymbolTableRecord
100
AcDbBlockTableRecord
  2
*D1
  0
BLOCK_RECORD
  5
233
100
AcDbSymbolTableRecord
100
AcDbBlockTableRecord
  2
*D2
  0
BLOCK_RECORD
  5
234
100
AcDbSymbolTableRecord
100
AcDbBlockTableRecord
  2
*D3
  0
BLOCK_RECORD
  5
235
100
AcDbSymbolTableRecord
100
AcDbBlockTableRecord
  2
*D4
  0
BLOCK_RECORD
  5
236
100
AcDbSymbolTableRecord
100
AcDbBlockTableRecord
  2
*D5
  0
BLOCK_RECORD
  5
237
100
AcDbSymbolTableRecord
100
AcDbBlockTableRecord
  2
*D6
  0
BLOCK_RECORD
  5
238
100
AcDbSymbolTableRecord
100
AcDbBlockTableRecord
  2
*D7
  0
BLOCK_RECORD
  5
239
100
AcDbSymbolTableRecord
100
AcDbBlockTableRecord
  2
BANNER_LOGO_TITLEBLOCK_BL0
  0
ENDTAB
  0
TABLE
  2
DIMSTYLE
  5
A
100
AcDbSymbolTable
 70
1
100
AcDbDimStyleTable
 71
0
  0
DIMSTYLE
105
23A
100
AcDbSymbolTableRecord
100
AcDbDimStyleTableRecord
  2
STANDARD
 70
0
  3

  4

 40
1.0
 41
0.1875
 42
0.0625
 43
0.38
 44
0.18
 45
0.0
 46
0.0
 47
0.005
 48
0.005
140
0.1
141
0.09
142
0.0
143
25.4
144
1.0
145
0.0
146
1.0
147
0.09
 71
1.0
 72
0.0
 73
1
 74
1
 75
0
 76
0
 77
0
 78
4
170
0
171
2
172
0
173
0
174
0
175
0
176
0
177
0
178
0
270
2
271
3
272
3
273
2
274
2
275
0
280
0
281
0
282
0
283
1
284
4
285
0
286
0
287
3
288
0
340
11
341
230
342
230
343
230
344
230
  0
DIMSTYLE
105
23B
100
AcDbSymbolTableRecord
100
AcDbDimStyleTableRecord
  2
DIMSTYLE_1
 70
0
  3

  4

 40
1.0
 41
0.1875
 42
0.0625
 43
0.38
 44
0.18
 45
0.0
 46
0.0
 47
0.1
 48
0.1
140
0.1
141
0.09
142
0.0
143
25.4
144
1.0
145
0.0
146
1.0
147
0.09
 71
0.0
 72
0.0
 73
1
 74
1
 75
0
 76
0
 77
0
 78
4
170
0
171
2
172
0
173
0
174
0
175
0
176
0
177
0
178
0
270
2
271
1
272
1
273
2
274
2
275
0
280
0
281
0
282
0
283
1
284
4
285
0
286
0
287
3
288
0
340
11
341
230
342
230
343
230
344
230
  0
DIMSTYLE
105
23C
100
AcDbSymbolTableRecord
100
AcDbDimStyleTableRecord
  2
DIMSTYLE_2
 70
0
  3

  4

 40
1.0
 41
0.1875
 42
0.0625
 43
0.38
 44
0.18
 45
0.0
 46
0.0
 47
0.1
 48
0.1
140
0.1
141
0.09
142
0.0
143
25.4
144
1.0
145
0.0
146
1.0
147
0.09
 71
0.0
 72
0.0
 73
1
 74
1
 75
0
 76
0
 77
0
 78
4
170
0
171
2
172
0
173
0
174
0
175
0
176
0
177
0
178
0
270
2
271
2
272
2
273
2
274
2
275
0
280
0
281
0
282
0
283
1
284
4
285
0
286
0
287
3
288
0
340
11
341
230
342
230
343
230
344
230
  0
ENDTAB
  0
ENDSEC
  0
SECTION
  2
BLOCKS
  0
BLOCK
  5
20
100
AcDbEntity
  8
0
100
AcDbBlockBegin
  2
*Model_Space
 70
0
 10
0.0
 20
0.0
 30
0.0
  3
*Model_Space
  1

  0
ENDBLK
  5
21
100
AcDbEntity
  8
0
100
AcDbBlockEnd
  0
BLOCK
  5
1C
100
AcDbEntity
  8
0
100
AcDbBlockBegin
  2
*Paper_Space
 70
0
 10
0.0
 20
0.0
 30
0.0
  3
*Paper_Space
  1

  0
ENDBLK
  5
1D
100
AcDbEntity
  8
0
100
AcDbBlockEnd
  0
BLOCK
  5
23D
100
AcDbEntity
  8
0
100
AcDbBlockBegin
 62
2
  6
CONTINUOUS
  2
BANNER_LOGO_TITLEBLOCK_BL0
 70
64
 10
17.5778140653
 20
2.4016160549
  3
BANNER_LOGO_TITLEBLOCK_BL0
  1

  0
ELLIPSE
  5
23E
100
AcDbEntity
  8
0
100
AcDbEllipse
 62
2
  6
CONTINUOUS
 10
17.5737928219
 20
2.4016160549
 30
0.0
 11
-0.8250004575
 21
0.0
 31
0.0
 40
0.218572
 41
0.0
 42
6.2831853072
  0
ARC
  5
23F
100
AcDbEntity
  8
0
100
AcDbCircle
 62
2
  6
CONTINUOUS
 10
17.0691330821
 20
2.3781140608
 40
0.0153945295
100
AcDbArc
 50
354.0454548824
 51
5.1878013979
  0
ARC
  5
240
100
AcDbEntity
  8
0
100
AcDbCircle
 62
2
  6
CONTINUOUS
 10
17.062303393
 20
2.377925543
 40
0.0222174455
100
AcDbArc
 50
4.0793399388
 51
69.834329283
  0
LINE
  5
241
100
AcDbEntity
  8
0
100
AcDbLine
 62
2
  6
CONTINUOUS
 10
17.0699625425
 20
2.3987810533
 11
17.0599115369
 21
2.4023300553
  0
LINE
  5
242
100
AcDbEntity
  8
0
100
AcDbLine
 62
2
  6
CONTINUOUS
 10
17.0599115369
 20
2.4023300553
 11
17.0681515415
 21
2.4071060579
  0
ARC
  5
243
100
AcDbEntity
  8
0
100
AcDbCircle
 62
2
  6
CONTINUOUS
 10
17.046286159
 20
2.4439329496
 40
0.0428289026
100
AcDbArc
 50
300.6990502959
 51
319.0591802498
  0
ARC
  5
244
100
AcDbEntity
  8
0
100
AcDbCircle
 62
2
  6
CONTINUOUS
 10
17.0663147559
 20
2.4278045961
 40
0.0171568255
100
AcDbArc
 50
315.9145124245
 51
16.0049121282
  0
ARC
  5
245
100
AcDbEntity
  8
0
100
AcDbCircle
 62
2
  6
CONTINUOUS
 10
17.0613631438
 20
2.4244509317
 40
0.0229166529
100
AcDbArc
 50
20.6563876465
 51
62.3316896973
  0
ARC
  5
246
100
AcDbEntity
  8
0
100
AcDbCircle
 62
2
  6
CONTINUOUS
 10
17.0407010201
 20
2.3915223668
 40
0.061747717
100
AcDbArc
 50
59.5385584989
 51
90.0050977555
  0
LINE
  5
247
100
AcDbEntity
  8
0
100
AcDbLine
 62
2
  6
CONTINUOUS
 10
17.0406955262
 20
2.4532700835
 11
16.8746324342
 21
2.4532700835
  0
ARC
  5
248
100
AcDbEntity
  8
0
100
AcDbCircle
 62
2
  6
CONTINUOUS
 10
16.8746324323
 20
2.450795084
 40
0.0024749995
100
AcDbArc
 50
89.9999571957
 51
180.0000428043
  0
LINE
  5
249
100
AcDbEntity
  8
0
100
AcDbLine
 62
2
  6
CONTINUOUS
 10
16.8721574328
 20
2.4507950822
 11
16.8721574328
 21
2.4309950712
  0
ARC
  5
24A
100
AcDbEntity
  8
0
100
AcDbCircle
 62
2
  6
CONTINUOUS
 10
16.8746324323
 20
2.4309950693
 40
0.0024749995
100
AcDbArc
 50
179.9999571957
 51
270.0000428043
  0
LINE
  5
24B
100
AcDbEntity
  8
0
100
AcDbLine
 62
2
  6
CONTINUOUS
 10
16.8746324342
 20
2.4285200698
 11
16.8985744474
 21
2.4285200698
  0
ARC
  5
24C
100
AcDbEntity
  8
0
100
AcDbCircle
 62
2
  6
CONTINUOUS
 10
16.8985744493
 20
2.4260450703
 40
0.0024749995
100
AcDbArc
 50
359.9999571957
 51
90.0000428043
  0
LINE
  5
24D
100
AcDbEntity
  8
0
100
AcDbLine
 62
2
  6
CONTINUOUS
 10
16.9010494488
 20
2.4260450684
 11
16.9010494488
 21
2.3796900427
  0
ARC
  5
24E
100
AcDbEntity
  8
0
100
AcDbCircle
 62
2
  6
CONTINUOUS
 10
16.8985744493
 20
2.3796900409
 40
0.0024749995
100
AcDbArc
 50
269.9999571957
 51
0.0000428043
  0
LINE
  5
24F
100
AcDbEntity
  8
0
100
AcDbLine
 62
2
  6
CONTINUOUS
 10
16.8985744474
 20
2.3772150414
 11
16.8746324342
 21
2.3772150414
  0
ARC
  5
250
100
AcDbEntity
  8
0
100
AcDbCircle
 62
2
  6
CONTINUOUS
 10
16.8746324323
 20
2.3747400418
 40
0.0024749995
100
AcDbArc
 50
89.9999571957
 51
180.0000428043
  0
LINE
  5
251
100
AcDbEntity
  8
0
100
AcDbLine
 62
2
  6
CONTINUOUS
 10
16.8721574328
 20
2.37474004
 11
16.8721574328
 21
2.354940029
  0
ARC
  5
252
100
AcDbEntity
  8
0
100
AcDbCircle
 62
2
  6
CONTINUOUS
 10
16.8746324323
 20
2.3549400272
 40
0.0024749995
100
AcDbArc
 50
179.9999571957
 51
270.0000428043
  0
LINE
  5
253
100
AcDbEntity
  8
0
100
AcDbLine
 62
2
  6
CONTINUOUS
 10
16.8746324342
 20
2.3524650276
 11
17.051078532
 21
2.3524650276
  0
ARC
  5
254
100
AcDbEntity
  8
0
100
AcDbCircle
 62
2
  6
CONTINUOUS
 10
17.0483571873
 20
2.4008724794
 40
0.048483885
100
AcDbArc
 50
273.21763719
 51
303.0749121182
  0
ARC
  5
255
100
AcDbEntity
  8
0
100
AcDbCircle
 62
2
  6
CONTINUOUS
 10
17.0631965815
 20
2.3781048705
 40
0.0213072145
100
AcDbArc
 50
303.0488228549
 51
355.7263138674
  0
LINE
  5
256
100
AcDbEntity
  8
0
100
AcDbLine
 62
2
  6
CONTINUOUS
 10
16.9640374837
 20
2.4111950602
 11
17.0054005067
 21
2.4111950602
  0
ARC
  5
257
100
AcDbEntity
  8
0
100
AcDbCircle
 62
2
  6
CONTINUOUS
 10
17.0054005067
 20
2.419857565
 40
0.0086625048
100
AcDbArc
 50
270.0
 51
90.0
  0
LINE
  5
258
100
AcDbEntity
  8
0
100
AcDbLine
 62
2
  6
CONTINUOUS
 10
17.0054005067
 20
2.4285200698
 11
16.9640374837
 21
2.4285200698
  0
ARC
  5
259
100
AcDbEntity
  8
0
100
AcDbCircle
 62
2
  6
CONTINUOUS
 10
16.9640374819
 20
2.4260450703
 40
0.0024749995
100
AcDbArc
 50
89.9999571957
 51
180.0000428043
  0
LINE
  5
25A
100
AcDbEntity
  8
0
100
AcDbLine
 62
2
  6
CONTINUOUS
 10
16.9615624824
 20
2.4260450684
 11
16.9615624824
 21
2.4136700616
  0
ARC
  5
25B
100
AcDbEntity
  8
0
100
AcDbCircle
 62
2
  6
CONTINUOUS
 10
16.9640374819
 20
2.4136700597
 40
0.0024749995
100
AcDbArc
 50
179.9999571957
 51
270.0000428043
  0
LINE
  5
25C
100
AcDbEntity
  8
0
100
AcDbLine
 62
2
  6
CONTINUOUS
 10
16.9615624824
 20
2.3796900427
 11
16.9615624824
 21
2.3920650496
  0
ARC
  5
25D
100
AcDbEntity
  8
0
100
AcDbCircle
 62
2
  6
CONTINUOUS
 10
16.9640374819
 20
2.3920650514
 40
0.0024749995
100
AcDbArc
 50
89.9999571957
 51
180.0000428043
  0
LINE
  5
25E
100
AcDbEntity
  8
0
100
AcDbLine
 62
2
  6
CONTINUOUS
 10
16.9640374837
 20
2.394540051
 11
17.0054005067
 21
2.394540051
  0
ARC
  5
25F
100
AcDbEntity
  8
0
100
AcDbCircle
 62
2
  6
CONTINUOUS
 10
17.0054005067
 20
2.3858775462
 40
0.0086625048
100
AcDbArc
 50
270.0
 51
90.0
  0
LINE
  5
260
100
AcDbEntity
  8
0
100
AcDbLine
 62
2
  6
CONTINUOUS
 10
17.0054005067
 20
2.3772150414
 11
16.9640374837
 21
2.3772150414
  0
ARC
  5
261
100
AcDbEntity
  8
0
100
AcDbCircle
 62
2
  6
CONTINUOUS
 10
16.9640374819
 20
2.3796900409
 40
0.0024749995
100
AcDbArc
 50
179.9999571957
 51
270.0000428043
  0
ARC
  5
262
100
AcDbEntity
  8
0
100
AcDbCircle
 62
2
  6
CONTINUOUS
 10
18.2498075353
 20
2.3824863625
 40
0.044722495
100
AcDbArc
 50
195.531588407
 51
204.7624440448
  0
LINE
  5
263
100
AcDbEntity
  8
0
100
AcDbLine
 62
2
  6
CONTINUOUS
 10
18.2067181729
 20
2.3705110376
 11
18.2049141719
 21
2.376580041
  0
ARC
  5
264
100
AcDbEntity
  8
0
100
AcDbCircle
 62
2
  6
CONTINUOUS
 10
18.1665349746
 20
2.3667829606
 40
0.0396099176
100
AcDbArc
 50
14.3201081283
 51
22.4984722084
  0
ARC
  5
265
100
AcDbEntity
  8
0
100
AcDbCircle
 62
2
  6
CONTINUOUS
 10
18.189301283
 20
2.3757545872
 40
0.0151491919
100
AcDbArc
 50
24.098260853
 51
63.0369451818
  0
ARC
  5
266
100
AcDbEntity
  8
0
100
AcDbCircle
 62
2
  6
CONTINUOUS
 10
18.1852466282
 20
2.3674749668
 40
0.0243676582
100
AcDbArc
 50
63.3666028271
 51
90.3937697637
  0
LINE
  5
267
100
AcDbEntity
  8
0
100
AcDbLine
 62
2
  6
CONTINUOUS
 10
18.1850791609
 20
2.3918420495
 11
18.1574721456
 21
2.3918420495
  0
ARC
  5
268
100
AcDbEntity
  8
0
100
AcDbCircle
 62
2
  6
CONTINUOUS
 10
18.1574721437
 20
2.3893670499
 40
0.0024749995
100
AcDbArc
 50
89.9999571957
 51
180.0000428043
  0
LINE
  5
269
100
AcDbEntity
  8
0
100
AcDbLine
 62
2
  6
CONTINUOUS
 10
18.1549971442
 20
2.3893670481
 11
18.1549971442
 21
2.3796680427
  0
ARC
  5
26A
100
AcDbEntity
  8
0
100
AcDbCircle
 62
2
  6
CONTINUOUS
 10
18.1574721437
 20
2.3796680409
 40
0.0024749995
100
AcDbArc
 50
179.9999571957
 51
270.0000428043
  0
LINE
  5
26B
100
AcDbEntity
  8
0
100
AcDbLine
 62
2
  6
CONTINUOUS
 10
18.1574721456
 20
2.3771930413
 11
18.1821311592
 21
2.3771930413
  0
ARC
  5
26C
100
AcDbEntity
  8
0
100
AcDbCircle
 62
2
  6
CONTINUOUS
 10
18.1821311611
 20
2.3747180418
 40
0.0024749995
100
AcDbArc
 50
359.9999571957
 51
90.0000428043
  0
LINE
  5
26D
100
AcDbEntity
  8
0
100
AcDbLine
 62
2
  6
CONTINUOUS
 10
18.1846061606
 20
2.37471804
 11
18.1846061606
 21
2.354940029
  0
ARC
  5
26E
100
AcDbEntity
  8
0
100
AcDbCircle
 62
2
  6
CONTINUOUS
 10
18.1821311611
 20
2.3549400272
 40
0.0024749995
100
AcDbArc
 50
269.9999571957
 51
0.0000428043
  0
LINE
  5
26F
100
AcDbEntity
  8
0
100
AcDbLine
 62
2
  6
CONTINUOUS
 10
18.1821311592
 20
2.3524650276
 11
18.0685600963
 21
2.3524650276
  0
ARC
  5
270
100
AcDbEntity
  8
0
100
AcDbCircle
 62
2
  6
CONTINUOUS
 10
18.0685600944
 20
2.3549400272
 40
0.0024749995
100
AcDbArc
 50
179.9999571957
 51
270.0000428043
  0
LINE
  5
271
100
AcDbEntity
  8
0
100
AcDbLine
 62
2
  6
CONTINUOUS
 10
18.0660850949
 20
2.354940029
 11
18.0660850949
 21
2.37474004
  0
ARC
  5
272
100
AcDbEntity
  8
0
100
AcDbCircle
 62
2
  6
CONTINUOUS
 10
18.0685600944
 20
2.3747400418
 40
0.0024749995
100
AcDbArc
 50
89.9999571957
 51
180.0000428043
  0
LINE
  5
273
100
AcDbEntity
  8
0
100
AcDbLine
 62
2
  6
CONTINUOUS
 10
18.0685600963
 20
2.3772150414
 11
18.0913061089
 21
2.3772150414
  0
ARC
  5
274
100
AcDbEntity
  8
0
100
AcDbCircle
 62
2
  6
CONTINUOUS
 10
18.0913061107
 20
2.3796900409
 40
0.0024749995
100
AcDbArc
 50
269.9999571957
 51
0.0000428043
  0
LINE
  5
275
100
AcDbEntity
  8
0
100
AcDbLine
 62
2
  6
CONTINUOUS
 10
18.0937811102
 20
2.3796900427
 11
18.0937811102
 21
2.4260450684
  0
ARC
  5
276
100
AcDbEntity
  8
0
100
AcDbCircle
 62
2
  6
CONTINUOUS
 10
18.0913061107
 20
2.4260450703
 40
0.0024749995
100
AcDbArc
 50
359.9999571957
 51
90.0000428043
  0
LINE
  5
277
100
AcDbEntity
  8
0
100
AcDbLine
 62
2
  6
CONTINUOUS
 10
18.0913061089
 20
2.4285200698
 11
18.0685600963
 21
2.4285200698
  0
ARC
  5
278
100
AcDbEntity
  8
0
100
AcDbCircle
 62
2
  6
CONTINUOUS
 10
18.0685600944
 20
2.4309950693
 40
0.0024749995
100
AcDbArc
 50
179.9999571957
 51
270.0000428043
  0
LINE
  5
279
100
AcDbEntity
  8
0
100
AcDbLine
 62
2
  6
CONTINUOUS
 10
18.0660850949
 20
2.4309950712
 11
18.0660850949
 21
2.4507950822
  0
ARC
  5
27A
100
AcDbEntity
  8
0
100
AcDbCircle
 62
2
  6
CONTINUOUS
 10
18.0685600944
 20
2.450795084
 40
0.0024749995
100
AcDbArc
 50
89.9999571957
 51
180.0000428043
  0
LINE
  5
27B
100
AcDbEntity
  8
0
100
AcDbLine
 62
2
  6
CONTINUOUS
 10
18.0685600963
 20
2.4532700835
 11
18.2181411792
 21
2.4532700835
  0
ARC
  5
27C
100
AcDbEntity
  8
0
100
AcDbCircle
 62
2
  6
CONTINUOUS
 10
18.2154778759
 20
2.270731173
 40
0.1825583387
100
AcDbArc
 50
79.8618509324
 51
89.1640948679
  0
ARC
  5
27D
100
AcDbEntity
  8
0
100
AcDbCircle
 62
2
  6
CONTINUOUS
 10
18.2417821663
 20
2.4115546891
 40
0.039319019
100
AcDbArc
 50
59.1202086415
 51
81.4730239328
  0
ARC
  5
27E
100
AcDbEntity
  8
0
100
AcDbCircle
 62
2
  6
CONTINUOUS
 10
18.2474415625
 20
2.4178893582
 40
0.0310192946
100
AcDbArc
 50
34.7540871
 51
62.0879016178
  0
ARC
  5
27F
100
AcDbEntity
  8
0
100
AcDbCircle
 62
2
  6
CONTINUOUS
 10
18.2591303136
 20
2.4264389594
 40
0.0165459396
100
AcDbArc
 50
1.548452892
 51
33.5033152417
  0
ARC
  5
280
100
AcDbEntity
  8
0
100
AcDbCircle
 62
2
  6
CONTINUOUS
 10
18.2624269088
 20
2.4266074116
 40
0.0132462337
100
AcDbArc
 50
331.1510006998
 51
1.205404301
  0
ARC
  5
281
100
AcDbEntity
  8
0
100
AcDbCircle
 62
2
  6
CONTINUOUS
 10
18.2514162524
 20
2.4332859993
 40
0.0261183659
100
AcDbArc
 50
305.6373831893
 51
329.9727629745
  0
ARC
  5
282
100
AcDbEntity
  8
0
100
AcDbCircle
 62
2
  6
CONTINUOUS
 10
18.2210843148
 20
2.4764928489
 40
0.0789082104
100
AcDbArc
 50
292.906155071
 51
305.2574666259
  0
ARC
  5
283
100
AcDbEntity
  8
0
100
AcDbCircle
 62
2
  6
CONTINUOUS
 10
18.1973831488
 20
2.2998387438
 40
0.117346916
100
AcDbArc
 50
58.614769177
 51
62.3737227606
  0
ARC
  5
284
100
AcDbEntity
  8
0
100
AcDbCircle
 62
2
  6
CONTINUOUS
 10
18.2452661015
 20
2.377966004
 40
0.0257145923
100
AcDbArc
 50
39.3804255939
 51
59.0361096173
  0
ARC
  5
285
100
AcDbEntity
  8
0
100
AcDbCircle
 62
2
  6
CONTINUOUS
 10
18.244145746
 20
2.3778929208
 40
0.0266349791
100
AcDbArc
 50
20.3630922153
 51
37.9727053099
  0
ARC
  5
286
100
AcDbEntity
  8
0
100
AcDbCircle
 62
2
  6
CONTINUOUS
 10
18.2262452042
 20
2.3707115124
 40
0.0459185159
100
AcDbArc
 50
15.6740290068
 51
20.9917271228
  0
ARC
  5
287
100
AcDbEntity
  8
0
100
AcDbCircle
 62
2
  6
CONTINUOUS
 10
18.2848155393
 20
2.3863544954
 40
0.0147197649
100
AcDbArc
 50
192.7054516566
 51
206.0594861022
  0
ARC
  5
288
100
AcDbEntity
  8
0
100
AcDbCircle
 62
2
  6
CONTINUOUS
 10
18.2763212023
 20
2.3821460089
 40
0.0052403997
100
AcDbArc
 50
205.5232099488
 51
227.5054868079
  0
ARC
  5
289
100
AcDbEntity
  8
0
100
AcDbCircle
 62
2
  6
CONTINUOUS
 10
18.274592903
 20
2.3803306362
 40
0.0027347709
100
AcDbArc
 50
228.5117626737
 51
266.1485845754
  0
LINE
  5
28A
100
AcDbEntity
  8
0
100
AcDbLine
 62
2
  6
CONTINUOUS
 10
18.2744092104
 20
2.3776020416
 11
18.275518211
 21
2.3776020416
  0
ARC
  5
28B
100
AcDbEntity
  8
0
100
AcDbCircle
 62
2
  6
CONTINUOUS
 10
18.2754566564
 20
2.3908507008
 40
0.0132488022
100
AcDbArc
 50
270.266200055
 51
281.2404888597
  0
ARC
  5
28C
100
AcDbEntity
  8
0
100
AcDbCircle
 62
2
  6
CONTINUOUS
 10
18.2766508974
 20
2.3851140072
 40
0.0073895522
100
AcDbArc
 50
280.8288201977
 51
305.0837508495
  0
ARC
  5
28D
100
AcDbEntity
  8
0
100
AcDbCircle
 62
2
  6
CONTINUOUS
 10
18.2770520791
 20
2.3842631608
 40
0.0064647042
100
AcDbArc
 50
306.5086174083
 51
340.2162360092
  0
ARC
  5
28E
100
AcDbEntity
  8
0
100
AcDbCircle
 62
2
  6
CONTINUOUS
 10
18.2718509025
 20
2.3860072224
 40
0.0119498009
100
AcDbArc
 50
340.7883861657
 51
1.1691452593
  0
LINE
  5
28F
100
AcDbEntity
  8
0
100
AcDbLine
 62
2
  6
CONTINUOUS
 10
18.2837982156
 20
2.3862510464
 11
18.2837982156
 21
2.3888770478
  0
ARC
  5
290
100
AcDbEntity
  8
0
100
AcDbCircle
 62
2
  6
CONTINUOUS
 10
18.2862732151
 20
2.3888770497
 40
0.0024749995
100
AcDbArc
 50
89.9999571957
 51
180.0000428043
  0
LINE
  5
291
100
AcDbEntity
  8
0
100
AcDbLine
 62
2
  6
CONTINUOUS
 10
18.286273217
 20
2.3913520492
 11
18.2983832237
 21
2.3913520492
  0
ARC
  5
292
100
AcDbEntity
  8
0
100
AcDbCircle
 62
2
  6
CONTINUOUS
 10
18.2983832256
 20
2.3888770497
 40
0.0024749995
100
AcDbArc
 50
359.9999571957
 51
90.0000428043
  0
LINE
  5
293
100
AcDbEntity
  8
0
100
AcDbLine
 62
2
  6
CONTINUOUS
 10
18.3008582251
 20
2.3888770478
 11
18.3008582251
 21
2.3773250414
  0
ARC
  5
294
100
AcDbEntity
  8
0
100
AcDbCircle
 62
2
  6
CONTINUOUS
 10
18.2833025285
 20
2.3774293591
 40
0.0175560065
100
AcDbArc
 50
332.2279060967
 51
359.6595469939
  0
ARC
  5
295
100
AcDbEntity
  8
0
100
AcDbCircle
 62
2
  6
CONTINUOUS
 10
18.2739955177
 20
2.3823238645
 40
0.0280715479
100
AcDbArc
 50
308.5071794988
 51
332.2400656899
  0
ARC
  5
296
100
AcDbEntity
  8
0
100
AcDbCircle
 62
2
  6
CONTINUOUS
 10
18.2670033323
 20
2.3899250823
 40
0.0383802683
100
AcDbArc
 50
288.7656836787
 51
309.6104317088
  0
ARC
  5
297
100
AcDbEntity
  8
0
100
AcDbCircle
 62
2
  6
CONTINUOUS
 10
18.2727412998
 20
2.372338333
 40
0.0198837666
100
AcDbArc
 50
271.8586572978
 51
289.4131338543
  0
LINE
  5
298
100
AcDbEntity
  8
0
100
AcDbLine
 62
2
  6
CONTINUOUS
 10
18.2733862098
 20
2.3524650276
 11
18.2260221836
 21
2.3524650276
  0
ARC
  5
299
100
AcDbEntity
  8
0
100
AcDbCircle
 62
2
  6
CONTINUOUS
 10
18.2268275043
 20
2.3697871793
 40
0.0173408616
100
AcDbArc
 50
232.4713476722
 51
267.338189944
  0
ARC
  5
29A
100
AcDbEntity
  8
0
100
AcDbCircle
 62
2
  6
CONTINUOUS
 10
18.2299260692
 20
2.3756374832
 40
0.0238935861
100
AcDbArc
 50
209.8247607259
 51
235.1255079367
  0
ARC
  5
29B
100
AcDbEntity
  8
0
100
AcDbCircle
 62
2
  6
CONTINUOUS
 10
18.1986405119
 20
2.4241492153
 40
0.0110815393
100
AcDbArc
 50
306.758405961
 51
320.4502234234
  0
ARC
  5
29C
100
AcDbEntity
  8
0
100
AcDbCircle
 62
2
  6
CONTINUOUS
 10
18.1930113209
 20
2.4318900438
 40
0.0206523367
100
AcDbArc
 50
289.6883413472
 51
306.4184925496
  0
ARC
  5
29D
100
AcDbEntity
  8
0
100
AcDbCircle
 62
2
  6
CONTINUOUS
 10
18.1910838152
 20
2.4362836911
 40
0.0254407115
100
AcDbArc
 50
270.7327484175
 51
290.441894219
  0
LINE
  5
29E
100
AcDbEntity
  8
0
100
AcDbLine
 62
2
  6
CONTINUOUS
 10
18.1914091644
 20
2.41084506
 11
18.1574721456
 21
2.41084506
  0
ARC
  5
29F
100
AcDbEntity
  8
0
100
AcDbCircle
 62
2
  6
CONTINUOUS
 10
18.1574721437
 20
2.4133200595
 40
0.0024749995
100
AcDbArc
 50
179.9999571957
 51
270.0000428043
  0
LINE
  5
2A0
100
AcDbEntity
  8
0
100
AcDbLine
 62
2
  6
CONTINUOUS
 10
18.1549971442
 20
2.4133200614
 11
18.1549971442
 21
2.4260450684
  0
ARC
  5
2A1
100
AcDbEntity
  8
0
100
AcDbCircle
 62
2
  6
CONTINUOUS
 10
18.1574721437
 20
2.4260450703
 40
0.0024749995
100
AcDbArc
 50
89.9999571957
 51
180.0000428043
  0
LINE
  5
2A2
100
AcDbEntity
  8
0
100
AcDbLine
 62
2
  6
CONTINUOUS
 10
18.1574721456
 20
2.4285200698
 11
18.194273166
 21
2.4285200698
  0
ARC
  5
2A3
100
AcDbEntity
  8
0
100
AcDbCircle
 62
2
  6
CONTINUOUS
 10
18.1927282785
 20
2.4000655908
 40
0.0284963867
100
AcDbArc
 50
70.3834917948
 51
86.8922743861
  0
ARC
  5
2A4
100
AcDbEntity
  8
0
100
AcDbCircle
 62
2
  6
CONTINUOUS
 10
18.1975878885
 20
2.4131073238
 40
0.0145814632
100
AcDbArc
 50
54.6746025112
 51
71.1660573124
  0
ARC
  5
2A5
100
AcDbEntity
  8
0
100
AcDbCircle
 62
2
  6
CONTINUOUS
 10
18.2027173795
 20
2.419961249
 40
0.0060275915
100
AcDbArc
 50
20.9055592135
 51
56.7851676243
  0
ARC
  5
2A6
100
AcDbEntity
  8
0
100
AcDbCircle
 62
2
  6
CONTINUOUS
 10
18.2040179384
 20
2.4206215312
 40
0.0045795888
100
AcDbArc
 50
355.6235353944
 51
18.9942678268
  0
ARC
  5
2A7
100
AcDbEntity
  8
0
100
AcDbCircle
 62
2
  6
CONTINUOUS
 10
18.202811128
 20
2.4209153074
 40
0.0058087709
100
AcDbArc
 50
318.8515287446
 51
353.6422345323
  0
LINE
  5
2A8
100
AcDbEntity
  8
0
100
AcDbLine
 62
2
  6
CONTINUOUS
 10
17.341467693
 20
2.4532700835
 11
17.4419257488
 21
2.4532700835
  0
ARC
  5
2A9
100
AcDbEntity
  8
0
100
AcDbCircle
 62
2
  6
CONTINUOUS
 10
17.4419258835
 20
2.4507959157
 40
0.0024741678
100
AcDbArc
 50
46.3477981898
 51
90.0031206038
  0
LINE
  5
2AA
100
AcDbEntity
  8
0
100
AcDbLine
 62
2
  6
CONTINUOUS
 10
17.4436337497
 20
2.4525860832
 11
17.503666783
 21
2.3953060514
  0
ARC
  5
2AB
100
AcDbEntity
  8
0
100
AcDbCircle
 62
2
  6
CONTINUOUS
 10
17.5053754839
 20
2.3970969891
 40
0.0024753014
100
AcDbArc
 50
226.3461263059
 51
0.0014637322
  0
LINE
  5
2AC
100
AcDbEntity
  8
0
100
AcDbLine
 62
2
  6
CONTINUOUS
 10
17.5078507853
 20
2.3970970524
 11
17.5078507853
 21
2.4260450684
  0
ARC
  5
2AD
100
AcDbEntity
  8
0
100
AcDbCircle
 62
2
  6
CONTINUOUS
 10
17.5053757858
 20
2.4260450703
 40
0.0024749995
100
AcDbArc
 50
359.9999571957
 51
90.0000428043
  0
LINE
  5
2AE
100
AcDbEntity
  8
0
100
AcDbLine
 62
2
  6
CONTINUOUS
 10
17.5053757839
 20
2.4285200698
 11
17.4865997735
 21
2.4285200698
  0
ARC
  5
2AF
100
AcDbEntity
  8
0
100
AcDbCircle
 62
2
  6
CONTINUOUS
 10
17.4865997717
 20
2.4309950693
 40
0.0024749995
100
AcDbArc
 50
179.9999571957
 51
270.0000428043
  0
LINE
  5
2B0
100
AcDbEntity
  8
0
100
AcDbLine
 62
2
  6
CONTINUOUS
 10
17.4841247722
 20
2.4309950712
 11
17.4841247722
 21
2.4507950822
  0
ARC
  5
2B1
100
AcDbEntity
  8
0
100
AcDbCircle
 62
2
  6
CONTINUOUS
 10
17.4865997717
 20
2.450795084
 40
0.0024749995
100
AcDbArc
 50
89.9999571957
 51
180.0000428043
  0
LINE
  5
2B2
100
AcDbEntity
  8
0
100
AcDbLine
 62
2
  6
CONTINUOUS
 10
17.4865997735
 20
2.4532700835
 11
17.5606008146
 21
2.4532700835
  0
ARC
  5
2B3
100
AcDbEntity
  8
0
100
AcDbCircle
 62
2
  6
CONTINUOUS
 10
17.5606008164
 20
2.450795084
 40
0.0024749995
100
AcDbArc
 50
359.9999571957
 51
90.0000428043
  0
LINE
  5
2B4
100
AcDbEntity
  8
0
100
AcDbLine
 62
2
  6
CONTINUOUS
 10
17.5630758159
 20
2.4507950822
 11
17.5630758159
 21
2.4309950712
  0
ARC
  5
2B5
100
AcDbEntity
  8
0
100
AcDbCircle
 62
2
  6
CONTINUOUS
 10
17.5606008164
 20
2.4309950693
 40
0.0024749995
100
AcDbArc
 50
269.9999571957
 51
0.0000428043
  0
LINE
  5
2B6
100
AcDbEntity
  8
0
100
AcDbLine
 62
2
  6
CONTINUOUS
 10
17.5606008146
 20
2.4285200698
 11
17.5426678046
 21
2.4285200698
  0
ARC
  5
2B7
100
AcDbEntity
  8
0
100
AcDbCircle
 62
2
  6
CONTINUOUS
 10
17.5426678028
 20
2.4260450703
 40
0.0024749995
100
AcDbArc
 50
89.9999571957
 51
180.0000428043
  0
LINE
  5
2B8
100
AcDbEntity
  8
0
100
AcDbLine
 62
2
  6
CONTINUOUS
 10
17.5401928032
 20
2.4260450684
 11
17.5401928032
 21
2.354940029
  0
ARC
  5
2B9
100
AcDbEntity
  8
0
100
AcDbCircle
 62
2
  6
CONTINUOUS
 10
17.5377178037
 20
2.3549400272
 40
0.0024749995
100
AcDbArc
 50
269.9999571957
 51
0.0000428043
  0
LINE
  5
2BA
100
AcDbEntity
  8
0
100
AcDbLine
 62
2
  6
CONTINUOUS
 10
17.5377178019
 20
2.3524650276
 11
17.4635127607
 21
2.3524650276
  0
ARC
  5
2BB
100
AcDbEntity
  8
0
100
AcDbCircle
 62
2
  6
CONTINUOUS
 10
17.463512126
 20
2.3549404438
 40
0.0024754162
100
AcDbArc
 50
226.3593695813
 51
270.0146919953
  0
LINE
  5
2BC
100
AcDbEntity
  8
0
100
AcDbLine
 62
2
  6
CONTINUOUS
 10
17.4618037598
 20
2.353149028
 11
17.3985237247
 21
2.4135270615
  0
ARC
  5
2BD
100
AcDbEntity
  8
0
100
AcDbCircle
 62
2
  6
CONTINUOUS
 10
17.3968150237
 20
2.4117361237
 40
0.0024753014
100
AcDbArc
 50
46.3461263059
 51
180.0014637321
  0
LINE
  5
2BE
100
AcDbEntity
  8
0
100
AcDbLine
 62
2
  6
CONTINUOUS
 10
17.3943397224
 20
2.4117360605
 11
17.3943397224
 21
2.3796900427
  0
ARC
  5
2BF
100
AcDbEntity
  8
0
100
AcDbCircle
 62
2
  6
CONTINUOUS
 10
17.3968147219
 20
2.3796900409
 40
0.0024749995
100
AcDbArc
 50
179.9999571957
 51
270.0000428043
  0
LINE
  5
2C0
100
AcDbEntity
  8
0
100
AcDbLine
 62
2
  6
CONTINUOUS
 10
17.3968147237
 20
2.3772150414
 11
17.417131735
 21
2.3772150414
  0
ARC
  5
2C1
100
AcDbEntity
  8
0
100
AcDbCircle
 62
2
  6
CONTINUOUS
 10
17.4171317369
 20
2.3747400418
 40
0.0024749995
100
AcDbArc
 50
359.9999571957
 51
90.0000428043
  0
LINE
  5
2C2
100
AcDbEntity
  8
0
100
AcDbLine
 62
2
  6
CONTINUOUS
 10
17.4196067364
 20
2.37474004
 11
17.4196067364
 21
2.354940029
  0
ARC
  5
2C3
100
AcDbEntity
  8
0
100
AcDbCircle
 62
2
  6
CONTINUOUS
 10
17.4171317369
 20
2.3549400272
 40
0.0024749995
100
AcDbArc
 50
269.9999571957
 51
0.0000428043
  0
LINE
  5
2C4
100
AcDbEntity
  8
0
100
AcDbLine
 62
2
  6
CONTINUOUS
 10
17.417131735
 20
2.3524650276
 11
17.341467693
 21
2.3524650276
  0
ARC
  5
2C5
100
AcDbEntity
  8
0
100
AcDbCircle
 62
2
  6
CONTINUOUS
 10
17.3414676912
 20
2.3549400272
 40
0.0024749995
100
AcDbArc
 50
179.9999571957
 51
270.0000428043
  0
LINE
  5
2C6
100
AcDbEntity
  8
0
100
AcDbLine
 62
2
  6
CONTINUOUS
 10
17.3389926917
 20
2.354940029
 11
17.3389926917
 21
2.37474004
  0
ARC
  5
2C7
100
AcDbEntity
  8
0
100
AcDbCircle
 62
2
  6
CONTINUOUS
 10
17.3414676912
 20
2.3747400418
 40
0.0024749995
100
AcDbArc
 50
89.9999571957
 51
180.0000428043
  0
LINE
  5
2C8
100
AcDbEntity
  8
0
100
AcDbLine
 62
2
  6
CONTINUOUS
 10
17.341467693
 20
2.3772150414
 11
17.3601147034
 21
2.3772150414
  0
ARC
  5
2C9
100
AcDbEntity
  8
0
100
AcDbCircle
 62
2
  6
CONTINUOUS
 10
17.3601147052
 20
2.3796900409
 40
0.0024749995
100
AcDbArc
 50
269.9999571957
 51
0.0000428043
  0
LINE
  5
2CA
100
AcDbEntity
  8
0
100
AcDbLine
 62
2
  6
CONTINUOUS
 10
17.3625897048
 20
2.3796900427
 11
17.3625897048
 21
2.4260450684
  0
ARC
  5
2CB
100
AcDbEntity
  8
0
100
AcDbCircle
 62
2
  6
CONTINUOUS
 10
17.3601147052
 20
2.4260450703
 40
0.0024749995
100
AcDbArc
 50
359.9999571957
 51
90.0000428043
  0
LINE
  5
2CC
100
AcDbEntity
  8
0
100
AcDbLine
 62
2
  6
CONTINUOUS
 10
17.3601147034
 20
2.4285200698
 11
17.341467693
 21
2.4285200698
  0
ARC
  5
2CD
100
AcDbEntity
  8
0
100
AcDbCircle
 62
2
  6
CONTINUOUS
 10
17.3414676912
 20
2.4309950693
 40
0.0024749995
100
AcDbArc
 50
179.9999571957
 51
270.0000428043
  0
LINE
  5
2CE
100
AcDbEntity
  8
0
100
AcDbLine
 62
2
  6
CONTINUOUS
 10
17.3389926917
 20
2.4309950712
 11
17.3389926917
 21
2.4507950822
  0
ARC
  5
2CF
100
AcDbEntity
  8
0
100
AcDbCircle
 62
2
  6
CONTINUOUS
 10
17.3414676912
 20
2.450795084
 40
0.0024749995
100
AcDbArc
 50
89.9999571957
 51
180.0000428043
  0
LINE
  5
2D0
100
AcDbEntity
  8
0
100
AcDbLine
 62
2
  6
CONTINUOUS
 10
17.1937676111
 20
2.4268270689
 11
17.1866506072
 21
2.4156100627
  0
ARC
  5
2D1
100
AcDbEntity
  8
0
100
AcDbCircle
 62
2
  6
CONTINUOUS
 10
17.188740499
 20
2.4142841006
 40
0.0024750401
100
AcDbArc
 50
147.6063258012
 51
270.0025305754
  0
LINE
  5
2D2
100
AcDbEntity
  8
0
100
AcDbLine
 62
2
  6
CONTINUOUS
 10
17.1887406083
 20
2.4118090605
 11
17.2092976197
 21
2.4118090605
  0
ARC
  5
2D3
100
AcDbEntity
  8
0
100
AcDbCircle
 62
2
  6
CONTINUOUS
 10
17.2092975986
 20
2.4142842677
 40
0.0024752071
100
AcDbArc
 50
270.0004896793
 51
32.9089806818
  0
LINE
  5
2D4
100
AcDbEntity
  8
0
100
AcDbLine
 62
2
  6
CONTINUOUS
 10
17.2113756209
 20
2.4156290627
 11
17.2041166169
 21
2.4268450689
  0
ARC
  5
2D5
100
AcDbEntity
  8
0
100
AcDbCircle
 62
2
  6
CONTINUOUS
 10
17.2020380761
 20
2.4255006094
 40
0.0024754602
100
AcDbArc
 50
32.8959418573
 51
89.9875097202
  0
LINE
  5
2D6
100
AcDbEntity
  8
0
100
AcDbLine
 62
2
  6
CONTINUOUS
 10
17.2020386157
 20
2.4279760695
 11
17.1958576123
 21
2.4279760695
  0
ARC
  5
2D7
100
AcDbEntity
  8
0
100
AcDbCircle
 62
2
  6
CONTINUOUS
 10
17.195857542
 20
2.4255008692
 40
0.0024752003
100
AcDbArc
 50
89.998372645
 51
147.602165307
  0
LINE
  5
2D8
100
AcDbEntity
  8
0
100
AcDbLine
 62
2
  6
CONTINUOUS
 10
17.2171806241
 20
2.3897280483
 11
17.2228066272
 21
2.3810350435
  0
ARC
  5
2D9
100
AcDbEntity
  8
0
100
AcDbCircle
 62
2
  6
CONTINUOUS
 10
17.2207286049
 20
2.3796902485
 40
0.0024752071
100
AcDbArc
 50
270.0004896793
 51
32.9089806818
  0
LINE
  5
2DA
100
AcDbEntity
  8
0
100
AcDbLine
 62
2
  6
CONTINUOUS
 10
17.2207286261
 20
2.3772150414
 11
17.2062776181
 21
2.3772150414
  0
ARC
  5
2DB
100
AcDbEntity
  8
0
100
AcDbCircle
 62
2
  6
CONTINUOUS
 10
17.2062776162
 20
2.3747400418
 40
0.0024749995
100
AcDbArc
 50
89.9999571957
 51
180.0000428043
  0
LINE
  5
2DC
100
AcDbEntity
  8
0
100
AcDbLine
 62
2
  6
CONTINUOUS
 10
17.2038026167
 20
2.37474004
 11
17.2038026167
 21
2.354940029
  0
ARC
  5
2DD
100
AcDbEntity
  8
0
100
AcDbCircle
 62
2
  6
CONTINUOUS
 10
17.2062776162
 20
2.3549400272
 40
0.0024749995
100
AcDbArc
 50
179.9999571957
 51
270.0000428043
  0
LINE
  5
2DE
100
AcDbEntity
  8
0
100
AcDbLine
 62
2
  6
CONTINUOUS
 10
17.2062776181
 20
2.3524650276
 11
17.3115586765
 21
2.3524650276
  0
ARC
  5
2DF
100
AcDbEntity
  8
0
100
AcDbCircle
 62
2
  6
CONTINUOUS
 10
17.3115586783
 20
2.3549400272
 40
0.0024749995
100
AcDbArc
 50
269.9999571957
 51
0.0000428043
  0
LINE
  5
2E0
100
AcDbEntity
  8
0
100
AcDbLine
 62
2
  6
CONTINUOUS
 10
17.3140336778
 20
2.354940029
 11
17.3140336778
 21
2.37474004
  0
ARC
  5
2E1
100
AcDbEntity
  8
0
100
AcDbCircle
 62
2
  6
CONTINUOUS
 10
17.3115586783
 20
2.3747400418
 40
0.0024749995
100
AcDbArc
 50
359.9999571957
 51
90.0000428043
  0
LINE
  5
2E2
100
AcDbEntity
  8
0
100
AcDbLine
 62
2
  6
CONTINUOUS
 10
17.3115586765
 20
2.3772150414
 11
17.2915426654
 21
2.3772150414
  0
ARC
  5
2E3
100
AcDbEntity
  8
0
100
AcDbCircle
 62
2
  6
CONTINUOUS
 10
17.2915427859
 20
2.3796890824
 40
0.002474041
100
AcDbArc
 50
212.9056413127
 51
269.9972091756
  0
LINE
  5
2E4
100
AcDbEntity
  8
0
100
AcDbLine
 62
2
  6
CONTINUOUS
 10
17.2894656642
 20
2.378345042
 11
17.2417096377
 21
2.4521400829
  0
ARC
  5
2E5
100
AcDbEntity
  8
0
100
AcDbCircle
 62
2
  6
CONTINUOUS
 10
17.2396320161
 20
2.4507951234
 40
0.0024749602
100
AcDbArc
 50
32.9172174468
 51
90.0087853097
  0
LINE
  5
2E6
100
AcDbEntity
  8
0
100
AcDbLine
 62
2
  6
CONTINUOUS
 10
17.2396316366
 20
2.4532700835
 11
17.1824566049
 21
2.4532700835
  0
ARC
  5
2E7
100
AcDbEntity
  8
0
100
AcDbCircle
 62
2
  6
CONTINUOUS
 10
17.1824565346
 20
2.4507948832
 40
0.0024752003
100
AcDbArc
 50
89.998372645
 51
147.602165307
  0
LINE
  5
2E8
100
AcDbEntity
  8
0
100
AcDbLine
 62
2
  6
CONTINUOUS
 10
17.1803666037
 20
2.4521210829
 11
17.1335665777
 21
2.378364042
  0
ARC
  5
2E9
100
AcDbEntity
  8
0
100
AcDbCircle
 62
2
  6
CONTINUOUS
 10
17.1314766469
 20
2.3796902417
 40
0.0024752003
100
AcDbArc
 50
269.998372645
 51
327.602165307
  0
LINE
  5
2EA
100
AcDbEntity
  8
0
100
AcDbLine
 62
2
  6
CONTINUOUS
 10
17.1314765766
 20
2.3772150414
 11
17.1086155639
 21
2.3772150414
  0
ARC
  5
2EB
100
AcDbEntity
  8
0
100
AcDbCircle
 62
2
  6
CONTINUOUS
 10
17.1086155621
 20
2.3747400418
 40
0.0024749995
100
AcDbArc
 50
89.9999571957
 51
180.0000428043
  0
LINE
  5
2EC
100
AcDbEntity
  8
0
100
AcDbLine
 62
2
  6
CONTINUOUS
 10
17.1061405625
 20
2.37474004
 11
17.1061405625
 21
2.354940029
  0
ARC
  5
2ED
100
AcDbEntity
  8
0
100
AcDbCircle
 62
2
  6
CONTINUOUS
 10
17.1086155621
 20
2.3549400272
 40
0.0024749995
100
AcDbArc
 50
179.9999571957
 51
270.0000428043
  0
LINE
  5
2EE
100
AcDbEntity
  8
0
100
AcDbLine
 62
2
  6
CONTINUOUS
 10
17.1086155639
 20
2.3524650276
 11
17.1859916068
 21
2.3524650276
  0
ARC
  5
2EF
100
AcDbEntity
  8
0
100
AcDbCircle
 62
2
  6
CONTINUOUS
 10
17.1859916087
 20
2.3549400272
 40
0.0024749995
100
AcDbArc
 50
269.9999571957
 51
0.0000428043
  0
LINE
  5
2F0
100
AcDbEntity
  8
0
100
AcDbLine
 62
2
  6
CONTINUOUS
 10
17.1884666082
 20
2.354940029
 11
17.1884666082
 21
2.37474004
  0
ARC
  5
2F1
100
AcDbEntity
  8
0
100
AcDbCircle
 62
2
  6
CONTINUOUS
 10
17.1859916087
 20
2.3747400418
 40
0.0024749995
100
AcDbArc
 50
359.9999571957
 51
90.0000428043
  0
LINE
  5
2F2
100
AcDbEntity
  8
0
100
AcDbLine
 62
2
  6
CONTINUOUS
 10
17.1859916068
 20
2.3772150414
 11
17.1747086006
 21
2.3772150414
  0
ARC
  5
2F3
100
AcDbEntity
  8
0
100
AcDbCircle
 62
2
  6
CONTINUOUS
 10
17.1747084912
 20
2.3796900814
 40
0.0024750401
100
AcDbArc
 50
147.6063258011
 51
270.0025305754
  0
LINE
  5
2F4
100
AcDbEntity
  8
0
100
AcDbLine
 62
2
  6
CONTINUOUS
 10
17.1726185994
 20
2.3810160435
 11
17.1781346025
 21
2.3897100483
  0
ARC
  5
2F5
100
AcDbEntity
  8
0
100
AcDbCircle
 62
2
  6
CONTINUOUS
 10
17.1802245333
 20
2.3883838486
 40
0.0024752003
100
AcDbArc
 50
89.998372645
 51
147.602165307
  0
LINE
  5
2F6
100
AcDbEntity
  8
0
100
AcDbLine
 62
2
  6
CONTINUOUS
 10
17.1802246036
 20
2.3908590489
 11
17.215102623
 21
2.3908590489
  0
ARC
  5
2F7
100
AcDbEntity
  8
0
100
AcDbCircle
 62
2
  6
CONTINUOUS
 10
17.2151020833
 20
2.3883835888
 40
0.0024754602
100
AcDbArc
 50
32.8959418573
 51
89.9875097202
  0
LINE
  5
2F8
100
AcDbEntity
  8
0
100
AcDbLine
 62
2
  6
CONTINUOUS
 10
17.5897208307
 20
2.4532700835
 11
17.6901788864
 21
2.4532700835
  0
ARC
  5
2F9
100
AcDbEntity
  8
0
100
AcDbCircle
 62
2
  6
CONTINUOUS
 10
17.6901790212
 20
2.4507959157
 40
0.0024741678
100
AcDbArc
 50
46.3477981899
 51
90.0031206038
  0
LINE
  5
2FA
100
AcDbEntity
  8
0
100
AcDbLine
 62
2
  6
CONTINUOUS
 10
17.6918868874
 20
2.4525860832
 11
17.7519199207
 21
2.3953060514
  0
ARC
  5
2FB
100
AcDbEntity
  8
0
100
AcDbCircle
 62
2
  6
CONTINUOUS
 10
17.7536286216
 20
2.3970969891
 40
0.0024753014
100
AcDbArc
 50
226.3461263059
 51
0.0014637321
  0
LINE
  5
2FC
100
AcDbEntity
  8
0
100
AcDbLine
 62
2
  6
CONTINUOUS
 10
17.756103923
 20
2.3970970524
 11
17.756103923
 21
2.4260450684
  0
ARC
  5
2FD
100
AcDbEntity
  8
0
100
AcDbCircle
 62
2
  6
CONTINUOUS
 10
17.7536289235
 20
2.4260450703
 40
0.0024749995
100
AcDbArc
 50
359.9999571957
 51
90.0000428043
  0
LINE
  5
2FE
100
AcDbEntity
  8
0
100
AcDbLine
 62
2
  6
CONTINUOUS
 10
17.7536289216
 20
2.4285200698
 11
17.7348529112
 21
2.4285200698
  0
ARC
  5
2FF
100
AcDbEntity
  8
0
100
AcDbCircle
 62
2
  6
CONTINUOUS
 10
17.7348529093
 20
2.4309950693
 40
0.0024749995
100
AcDbArc
 50
179.9999571957
 51
270.0000428043
  0
LINE
  5
300
100
AcDbEntity
  8
0
100
AcDbLine
 62
2
  6
CONTINUOUS
 10
17.7323779098
 20
2.4309950712
 11
17.7323779098
 21
2.4507950822
  0
ARC
  5
301
100
AcDbEntity
  8
0
100
AcDbCircle
 62
2
  6
CONTINUOUS
 10
17.7348529093
 20
2.450795084
 40
0.0024749995
100
AcDbArc
 50
89.9999571957
 51
180.0000428043
  0
LINE
  5
302
100
AcDbEntity
  8
0
100
AcDbLine
 62
2
  6
CONTINUOUS
 10
17.7348529112
 20
2.4532700835
 11
17.8088539522
 21
2.4532700835
  0
ARC
  5
303
100
AcDbEntity
  8
0
100
AcDbCircle
 62
2
  6
CONTINUOUS
 10
17.8088539541
 20
2.450795084
 40
0.0024749995
100
AcDbArc
 50
359.9999571957
 51
90.0000428043
  0
LINE
  5
304
100
AcDbEntity
  8
0
100
AcDbLine
 62
2
  6
CONTINUOUS
 10
17.8113289536
 20
2.4507950822
 11
17.8113289536
 21
2.4309950712
  0
ARC
  5
305
100
AcDbEntity
  8
0
100
AcDbCircle
 62
2
  6
CONTINUOUS
 10
17.8088539541
 20
2.4309950693
 40
0.0024749995
100
AcDbArc
 50
269.9999571957
 51
0.0000428043
  0
LINE
  5
306
100
AcDbEntity
  8
0
100
AcDbLine
 62
2
  6
CONTINUOUS
 10
17.8088539522
 20
2.4285200698
 11
17.7909209423
 21
2.4285200698
  0
ARC
  5
307
100
AcDbEntity
  8
0
100
AcDbCircle
 62
2
  6
CONTINUOUS
 10
17.7909209404
 20
2.4260450703
 40
0.0024749995
100
AcDbArc
 50
89.9999571957
 51
180.0000428043
  0
LINE
  5
308
100
AcDbEntity
  8
0
100
AcDbLine
 62
2
  6
CONTINUOUS
 10
17.7884459409
 20
2.4260450684
 11
17.7884459409
 21
2.354940029
  0
ARC
  5
309
100
AcDbEntity
  8
0
100
AcDbCircle
 62
2
  6
CONTINUOUS
 10
17.7859709414
 20
2.3549400272
 40
0.0024749995
100
AcDbArc
 50
269.9999571957
 51
0.0000428043
  0
LINE
  5
30A
100
AcDbEntity
  8
0
100
AcDbLine
 62
2
  6
CONTINUOUS
 10
17.7859709395
 20
2.3524650276
 11
17.7117648984
 21
2.3524650276
  0
ARC
  5
30B
100
AcDbEntity
  8
0
100
AcDbCircle
 62
2
  6
CONTINUOUS
 10
17.7117647636
 20
2.3549391954
 40
0.0024741678
100
AcDbArc
 50
226.3477981898
 51
270.0031206038
  0
LINE
  5
30C
100
AcDbEntity
  8
0
100
AcDbLine
 62
2
  6
CONTINUOUS
 10
17.7100568974
 20
2.353149028
 11
17.6467768624
 21
2.4135270615
  0
ARC
  5
30D
100
AcDbEntity
  8
0
100
AcDbCircle
 62
2
  6
CONTINUOUS
 10
17.6450681614
 20
2.4117361237
 40
0.0024753014
100
AcDbArc
 50
46.3461263059
 51
180.0014637321
  0
LINE
  5
30E
100
AcDbEntity
  8
0
100
AcDbLine
 62
2
  6
CONTINUOUS
 10
17.64259286
 20
2.4117360605
 11
17.64259286
 21
2.3796900427
  0
ARC
  5
30F
100
AcDbEntity
  8
0
100
AcDbCircle
 62
2
  6
CONTINUOUS
 10
17.6450678596
 20
2.3796900409
 40
0.0024749995
100
AcDbArc
 50
179.9999571957
 51
270.0000428043
  0
LINE
  5
310
100
AcDbEntity
  8
0
100
AcDbLine
 62
2
  6
CONTINUOUS
 10
17.6450678614
 20
2.3772150414
 11
17.6653848727
 21
2.3772150414
  0
ARC
  5
311
100
AcDbEntity
  8
0
100
AcDbCircle
 62
2
  6
CONTINUOUS
 10
17.6653848745
 20
2.3747400418
 40
0.0024749995
100
AcDbArc
 50
359.9999571957
 51
90.0000428043
  0
LINE
  5
312
100
AcDbEntity
  8
0
100
AcDbLine
 62
2
  6
CONTINUOUS
 10
17.667859874
 20
2.37474004
 11
17.667859874
 21
2.354940029
  0
ARC
  5
313
100
AcDbEntity
  8
0
100
AcDbCircle
 62
2
  6
CONTINUOUS
 10
17.6653848745
 20
2.3549400272
 40
0.0024749995
100
AcDbArc
 50
269.9999571957
 51
0.0000428043
  0
LINE
  5
314
100
AcDbEntity
  8
0
100
AcDbLine
 62
2
  6
CONTINUOUS
 10
17.6653848727
 20
2.3524650276
 11
17.5897208307
 21
2.3524650276
  0
ARC
  5
315
100
AcDbEntity
  8
0
100
AcDbCircle
 62
2
  6
CONTINUOUS
 10
17.5897208289
 20
2.3549400272
 40
0.0024749995
100
AcDbArc
 50
179.9999571957
 51
270.0000428043
  0
LINE
  5
316
100
AcDbEntity
  8
0
100
AcDbLine
 62
2
  6
CONTINUOUS
 10
17.5872458293
 20
2.354940029
 11
17.5872458293
 21
2.37474004
  0
ARC
  5
317
100
AcDbEntity
  8
0
100
AcDbCircle
 62
2
  6
CONTINUOUS
 10
17.5897208289
 20
2.3747400418
 40
0.0024749995
100
AcDbArc
 50
89.9999571957
 51
180.0000428043
  0
LINE
  5
318
100
AcDbEntity
  8
0
100
AcDbLine
 62
2
  6
CONTINUOUS
 10
17.5897208307
 20
2.3772150414
 11
17.6083668411
 21
2.3772150414
  0
ARC
  5
319
100
AcDbEntity
  8
0
100
AcDbCircle
 62
2
  6
CONTINUOUS
 10
17.6083668429
 20
2.3796900409
 40
0.0024749995
100
AcDbArc
 50
269.9999571957
 51
0.0000428043
  0
LINE
  5
31A
100
AcDbEntity
  8
0
100
AcDbLine
 62
2
  6
CONTINUOUS
 10
17.6108418424
 20
2.3796900427
 11
17.6108418424
 21
2.4260450684
  0
ARC
  5
31B
100
AcDbEntity
  8
0
100
AcDbCircle
 62
2
  6
CONTINUOUS
 10
17.6083668429
 20
2.4260450703
 40
0.0024749995
100
AcDbArc
 50
359.9999571957
 51
90.0000428043
  0
LINE
  5
31C
100
AcDbEntity
  8
0
100
AcDbLine
 62
2
  6
CONTINUOUS
 10
17.6083668411
 20
2.4285200698
 11
17.5897208307
 21
2.4285200698
  0
ARC
  5
31D
100
AcDbEntity
  8
0
100
AcDbCircle
 62
2
  6
CONTINUOUS
 10
17.5897208289
 20
2.4309950693
 40
0.0024749995
100
AcDbArc
 50
179.9999571957
 51
270.0000428043
  0
LINE
  5
31E
100
AcDbEntity
  8
0
100
AcDbLine
 62
2
  6
CONTINUOUS
 10
17.5872458293
 20
2.4309950712
 11
17.5872458293
 21
2.4507950822
  0
ARC
  5
31F
100
AcDbEntity
  8
0
100
AcDbCircle
 62
2
  6
CONTINUOUS
 10
17.5897208289
 20
2.450795084
 40
0.0024749995
100
AcDbArc
 50
89.9999571957
 51
180.0000428043
  0
LINE
  5
320
100
AcDbEntity
  8
0
100
AcDbLine
 62
2
  6
CONTINUOUS
 10
17.9625500375
 20
2.3937150505
 11
17.927383018
 21
2.3937150505
  0
ARC
  5
321
100
AcDbEntity
  8
0
100
AcDbCircle
 62
2
  6
CONTINUOUS
 10
17.9273830161
 20
2.391240051
 40
0.0024749995
100
AcDbArc
 50
89.9999571957
 51
180.0000428043
  0
LINE
  5
322
100
AcDbEntity
  8
0
100
AcDbLine
 62
2
  6
CONTINUOUS
 10
17.9249080166
 20
2.3912400491
 11
17.9249080166
 21
2.3796900427
  0
ARC
  5
323
100
AcDbEntity
  8
0
100
AcDbCircle
 62
2
  6
CONTINUOUS
 10
17.9273830161
 20
2.3796900409
 40
0.0024749995
100
AcDbArc
 50
179.9999571957
 51
270.0000428043
  0
LINE
  5
324
100
AcDbEntity
  8
0
100
AcDbLine
 62
2
  6
CONTINUOUS
 10
17.927383018
 20
2.3772150414
 11
17.992387054
 21
2.3772150414
  0
ARC
  5
325
100
AcDbEntity
  8
0
100
AcDbCircle
 62
2
  6
CONTINUOUS
 10
17.9923870559
 20
2.3796900409
 40
0.0024749995
100
AcDbArc
 50
269.9999571957
 51
0.0000428043
  0
LINE
  5
326
100
AcDbEntity
  8
0
100
AcDbLine
 62
2
  6
CONTINUOUS
 10
17.9948620554
 20
2.3796900427
 11
17.9948620554
 21
2.3879400473
  0
ARC
  5
327
100
AcDbEntity
  8
0
100
AcDbCircle
 62
2
  6
CONTINUOUS
 10
17.9973370549
 20
2.3879400492
 40
0.0024749995
100
AcDbArc
 50
89.9999571957
 51
180.0000428043
  0
LINE
  5
328
100
AcDbEntity
  8
0
100
AcDbLine
 62
2
  6
CONTINUOUS
 10
17.9973370568
 20
2.3904150487
 11
18.0396560802
 21
2.3904150487
  0
ARC
  5
329
100
AcDbEntity
  8
0
100
AcDbCircle
 62
2
  6
CONTINUOUS
 10
18.0396560821
 20
2.3879400492
 40
0.0024749995
100
AcDbArc
 50
359.9999571957
 51
90.0000428043
  0
LINE
  5
32A
100
AcDbEntity
  8
0
100
AcDbLine
 62
2
  6
CONTINUOUS
 10
18.0421310816
 20
2.3879400473
 11
18.0421310816
 21
2.354940029
  0
ARC
  5
32B
100
AcDbEntity
  8
0
100
AcDbCircle
 62
2
  6
CONTINUOUS
 10
18.0396560821
 20
2.3549400272
 40
0.0024749995
100
AcDbArc
 50
269.9999571957
 51
0.0000428043
  0
LINE
  5
32C
100
AcDbEntity
  8
0
100
AcDbLine
 62
2
  6
CONTINUOUS
 10
18.0396560802
 20
2.3524650276
 11
17.8364439675
 21
2.3524650276
  0
ARC
  5
32D
100
AcDbEntity
  8
0
100
AcDbCircle
 62
2
  6
CONTINUOUS
 10
17.8364439657
 20
2.3549400272
 40
0.0024749995
100
AcDbArc
 50
179.9999571957
 51
270.0000428043
  0
LINE
  5
32E
100
AcDbEntity
  8
0
100
AcDbLine
 62
2
  6
CONTINUOUS
 10
17.8339689662
 20
2.354940029
 11
17.8339689662
 21
2.37474004
  0
ARC
  5
32F
100
AcDbEntity
  8
0
100
AcDbCircle
 62
2
  6
CONTINUOUS
 10
17.8364439657
 20
2.3747400418
 40
0.0024749995
100
AcDbArc
 50
89.9999571957
 51
180.0000428043
  0
LINE
  5
330
100
AcDbEntity
  8
0
100
AcDbLine
 62
2
  6
CONTINUOUS
 10
17.8364439675
 20
2.3772150414
 11
17.8603669808
 21
2.3772150414
  0
ARC
  5
331
100
AcDbEntity
  8
0
100
AcDbCircle
 62
2
  6
CONTINUOUS
 10
17.8603669827
 20
2.3796900409
 40
0.0024749995
100
AcDbArc
 50
269.9999571956
 51
0.0000428042
  0
LINE
  5
332
100
AcDbEntity
  8
0
100
AcDbLine
 62
2
  6
CONTINUOUS
 10
17.8628419822
 20
2.3796900427
 11
17.8628419822
 21
2.4260450684
  0
ARC
  5
333
100
AcDbEntity
  8
0
100
AcDbCircle
 62
2
  6
CONTINUOUS
 10
17.8603669827
 20
2.4260450703
 40
0.0024749995
100
AcDbArc
 50
359.9999571957
 51
90.0000428043
  0
LINE
  5
334
100
AcDbEntity
  8
0
100
AcDbLine
 62
2
  6
CONTINUOUS
 10
17.8603669808
 20
2.4285200698
 11
17.8364439675
 21
2.4285200698
  0
ARC
  5
335
100
AcDbEntity
  8
0
100
AcDbCircle
 62
2
  6
CONTINUOUS
 10
17.8364439657
 20
2.4309950693
 40
0.0024749995
100
AcDbArc
 50
179.9999571957
 51
270.0000428043
  0
LINE
  5
336
100
AcDbEntity
  8
0
100
AcDbLine
 62
2
  6
CONTINUOUS
 10
17.8339689662
 20
2.4309950712
 11
17.8339689662
 21
2.4507950822
  0
ARC
  5
337
100
AcDbEntity
  8
0
100
AcDbCircle
 62
2
  6
CONTINUOUS
 10
17.8364439657
 20
2.450795084
 40
0.0024749995
100
AcDbArc
 50
89.9999571957
 51
180.0000428043
  0
LINE
  5
338
100
AcDbEntity
  8
0
100
AcDbLine
 62
2
  6
CONTINUOUS
 10
17.8364439675
 20
2.4532700835
 11
18.0382370794
 21
2.4532700835
  0
ARC
  5
339
100
AcDbEntity
  8
0
100
AcDbCircle
 62
2
  6
CONTINUOUS
 10
18.0382370813
 20
2.450795084
 40
0.0024749995
100
AcDbArc
 50
359.9999571957
 51
90.0000428043
  0
LINE
  5
33A
100
AcDbEntity
  8
0
100
AcDbLine
 62
2
  6
CONTINUOUS
 10
18.0407120808
 20
2.4507950822
 11
18.0407120808
 21
2.4177950639
  0
ARC
  5
33B
100
AcDbEntity
  8
0
100
AcDbCircle
 62
2
  6
CONTINUOUS
 10
18.0382370813
 20
2.417795062
 40
0.0024749995
100
AcDbArc
 50
269.9999571957
 51
0.0000428043
  0
LINE
  5
33C
100
AcDbEntity
  8
0
100
AcDbLine
 62
2
  6
CONTINUOUS
 10
18.0382370794
 20
2.4153200625
 11
17.9963730562
 21
2.4153200625
  0
ARC
  5
33D
100
AcDbEntity
  8
0
100
AcDbCircle
 62
2
  6
CONTINUOUS
 10
17.9963730544
 20
2.417795062
 40
0.0024749995
100
AcDbArc
 50
179.9999571957
 51
270.0000428043
  0
LINE
  5
33E
100
AcDbEntity
  8
0
100
AcDbLine
 62
2
  6
CONTINUOUS
 10
17.9938980549
 20
2.4177950639
 11
17.9938980549
 21
2.4260450684
  0
ARC
  5
33F
100
AcDbEntity
  8
0
100
AcDbCircle
 62
2
  6
CONTINUOUS
 10
17.9914230553
 20
2.4260450703
 40
0.0024749995
100
AcDbArc
 50
359.9999571957
 51
90.0000428043
  0
LINE
  5
340
100
AcDbEntity
  8
0
100
AcDbLine
 62
2
  6
CONTINUOUS
 10
17.9914230535
 20
2.4285200698
 11
17.927383018
 21
2.4285200698
  0
ARC
  5
341
100
AcDbEntity
  8
0
100
AcDbCircle
 62
2
  6
CONTINUOUS
 10
17.9273830161
 20
2.4260450703
 40
0.0024749995
100
AcDbArc
 50
89.9999571957
 51
180.0000428043
  0
LINE
  5
342
100
AcDbEntity
  8
0
100
AcDbLine
 62
2
  6
CONTINUOUS
 10
17.9249080166
 20
2.4260450684
 11
17.9249080166
 21
2.414495062
  0
ARC
  5
343
100
AcDbEntity
  8
0
100
AcDbCircle
 62
2
  6
CONTINUOUS
 10
17.9273830161
 20
2.4144950602
 40
0.0024749995
100
AcDbArc
 50
179.9999571957
 51
270.0000428043
  0
LINE
  5
344
100
AcDbEntity
  8
0
100
AcDbLine
 62
2
  6
CONTINUOUS
 10
17.927383018
 20
2.4120200607
 11
17.9625500375
 21
2.4120200607
  0
ARC
  5
345
100
AcDbEntity
  8
0
100
AcDbCircle
 62
2
  6
CONTINUOUS
 10
17.9625500393
 20
2.4095450611
 40
0.0024749995
100
AcDbArc
 50
359.9999571957
 51
90.0000428043
  0
LINE
  5
346
100
AcDbEntity
  8
0
100
AcDbLine
 62
2
  6
CONTINUOUS
 10
17.9650250388
 20
2.4095450593
 11
17.9650250388
 21
2.3961900519
  0
ARC
  5
347
100
AcDbEntity
  8
0
100
AcDbCircle
 62
2
  6
CONTINUOUS
 10
17.9625500393
 20
2.39619005
 40
0.0024749995
100
AcDbArc
 50
269.9999571956
 51
0.0000428042
  0
LINE
  5
348
100
AcDbEntity
  8
0
100
AcDbLine
 62
2
  6
CONTINUOUS
 10
18.39781452
 20
2.3963074516
 11
18.39781452
 21
2.4069246582
  0
LINE
  5
349
100
AcDbEntity
  8
0
100
AcDbLine
 62
2
  6
CONTINUOUS
 10
18.3778145089
 20
2.3616679219
 11
18.3778145089
 21
2.4415641879
  0
LINE
  5
34A
100
AcDbEntity
  8
0
100
AcDbLine
 62
2
  6
CONTINUOUS
 10
18.3578144978
 20
2.345629656
 11
18.3578144978
 21
2.4576024538
  0
LINE
  5
34B
100
AcDbEntity
  8
0
100
AcDbLine
 62
2
  6
CONTINUOUS
 10
18.3378144867
 20
2.3338395042
 11
18.3378144867
 21
2.4693926055
  0
LINE
  5
34C
100
AcDbEntity
  8
0
100
AcDbLine
 62
2
  6
CONTINUOUS
 10
18.3178144756
 20
2.3240439832
 11
18.3178144756
 21
2.4791881266
  0
LINE
  5
34D
100
AcDbEntity
  8
0
100
AcDbLine
 62
2
  6
CONTINUOUS
 10
18.2978144645
 20
2.3153630651
 11
18.2978144645
 21
2.36748602
  0
LINE
  5
34E
100
AcDbEntity
  8
0
100
AcDbLine
 62
2
  6
CONTINUOUS
 10
18.2978144645
 20
2.3913520492
 11
18.2978144645
 21
2.4878690447
  0
LINE
  5
34F
100
AcDbEntity
  8
0
100
AcDbLine
 62
2
  6
CONTINUOUS
 10
18.2778144535
 20
2.3077915047
 11
18.2778144535
 21
2.3531152062
  0
LINE
  5
350
100
AcDbEntity
  8
0
100
AcDbLine
 62
2
  6
CONTINUOUS
 10
18.2778144535
 20
2.3778158317
 11
18.2778144535
 21
2.4954406051
  0
LINE
  5
351
100
AcDbEntity
  8
0
100
AcDbLine
 62
2
  6
CONTINUOUS
 10
18.2578144424
 20
2.301041061
 11
18.2578144424
 21
2.3524650276
  0
LINE
  5
352
100
AcDbEntity
  8
0
100
AcDbLine
 62
2
  6
CONTINUOUS
 10
18.2578144424
 20
2.4004217989
 11
18.2578144424
 21
2.4066675471
  0
LINE
  5
353
100
AcDbEntity
  8
0
100
AcDbLine
 62
2
  6
CONTINUOUS
 10
18.2578144424
 20
2.4474440616
 11
18.2578144424
 21
2.5021910487
  0
LINE
  5
354
100
AcDbEntity
  8
0
100
AcDbLine
 62
2
  6
CONTINUOUS
 10
18.2378144313
 20
2.2947079333
 11
18.2378144313
 21
2.3524650276
  0
LINE
  5
355
100
AcDbEntity
  8
0
100
AcDbLine
 62
2
  6
CONTINUOUS
 10
18.2378144313
 20
2.4518964909
 11
18.2378144313
 21
2.5085241764
  0
LINE
  5
356
100
AcDbEntity
  8
0
100
AcDbLine
 62
2
  6
CONTINUOUS
 10
18.2178144202
 20
2.2891345268
 11
18.2178144202
 21
2.354983815
  0
LINE
  5
357
100
AcDbEntity
  8
0
100
AcDbLine
 62
2
  6
CONTINUOUS
 10
18.2178144202
 20
2.4532700835
 11
18.2178144202
 21
2.514097583
  0
LINE
  5
358
100
AcDbEntity
  8
0
100
AcDbLine
 62
2
  6
CONTINUOUS
 10
18.1978144091
 20
2.2837804818
 11
18.1978144091
 21
2.3882804137
  0
LINE
  5
359
100
AcDbEntity
  8
0
100
AcDbLine
 62
2
  6
CONTINUOUS
 10
18.1978144091
 20
2.4117543403
 11
18.1978144091
 21
2.4281034235
  0
LINE
  5
35A
100
AcDbEntity
  8
0
100
AcDbLine
 62
2
  6
CONTINUOUS
 10
18.1978144091
 20
2.4532700835
 11
18.1978144091
 21
2.519451628
  0
LINE
  5
35B
100
AcDbEntity
  8
0
100
AcDbLine
 62
2
  6
CONTINUOUS
 10
18.177814398
 20
2.2789683935
 11
18.177814398
 21
2.3524650276
  0
LINE
  5
35C
100
AcDbEntity
  8
0
100
AcDbLine
 62
2
  6
CONTINUOUS
 10
18.177814398
 20
2.3771930413
 11
18.177814398
 21
2.3918420495
  0
LINE
  5
35D
100
AcDbEntity
  8
0
100
AcDbLine
 62
2
  6
CONTINUOUS
 10
18.177814398
 20
2.41084506
 11
18.177814398
 21
2.4285200698
  0
LINE
  5
35E
100
AcDbEntity
  8
0
100
AcDbLine
 62
2
  6
CONTINUOUS
 10
18.177814398
 20
2.4532700835
 11
18.177814398
 21
2.5242637163
  0
LINE
  5
35F
100
AcDbEntity
  8
0
100
AcDbLine
 62
2
  6
CONTINUOUS
 10
18.1578143869
 20
2.2744172398
 11
18.1578143869
 21
2.3524650276
  0
LINE
  5
360
100
AcDbEntity
  8
0
100
AcDbLine
 62
2
  6
CONTINUOUS
 10
18.1578143869
 20
2.3771930413
 11
18.1578143869
 21
2.3918420495
  0
LINE
  5
361
100
AcDbEntity
  8
0
100
AcDbLine
 62
2
  6
CONTINUOUS
 10
18.1578143869
 20
2.41084506
 11
18.1578143869
 21
2.4285200698
  0
LINE
  5
362
100
AcDbEntity
  8
0
100
AcDbLine
 62
2
  6
CONTINUOUS
 10
18.1578143869
 20
2.4532700835
 11
18.1578143869
 21
2.5288148699
  0
LINE
  5
363
100
AcDbEntity
  8
0
100
AcDbLine
 62
2
  6
CONTINUOUS
 10
18.1378143758
 20
2.2701196816
 11
18.1378143758
 21
2.3524650276
  0
LINE
  5
364
100
AcDbEntity
  8
0
100
AcDbLine
 62
2
  6
CONTINUOUS
 10
18.1378143758
 20
2.4532700835
 11
18.1378143758
 21
2.5331124282
  0
LINE
  5
365
100
AcDbEntity
  8
0
100
AcDbLine
 62
2
  6
CONTINUOUS
 10
18.1178143647
 20
2.2662469216
 11
18.1178143647
 21
2.3524650276
  0
LINE
  5
366
100
AcDbEntity
  8
0
100
AcDbLine
 62
2
  6
CONTINUOUS
 10
18.1178143647
 20
2.4532700835
 11
18.1178143647
 21
2.5369851882
  0
LINE
  5
367
100
AcDbEntity
  8
0
100
AcDbLine
 62
2
  6
CONTINUOUS
 10
18.0978143536
 20
2.2623741615
 11
18.0978143536
 21
2.3524650276
  0
LINE
  5
368
100
AcDbEntity
  8
0
100
AcDbLine
 62
2
  6
CONTINUOUS
 10
18.0978143536
 20
2.4532700835
 11
18.0978143536
 21
2.5408579483
  0
LINE
  5
369
100
AcDbEntity
  8
0
100
AcDbLine
 62
2
  6
CONTINUOUS
 10
18.0778143425
 20
2.2592603806
 11
18.0778143425
 21
2.3524650276
  0
LINE
  5
36A
100
AcDbEntity
  8
0
100
AcDbLine
 62
2
  6
CONTINUOUS
 10
18.0778143425
 20
2.3772150414
 11
18.0778143425
 21
2.4285200698
  0
LINE
  5
36B
100
AcDbEntity
  8
0
100
AcDbLine
 62
2
  6
CONTINUOUS
 10
18.0778143425
 20
2.4532700835
 11
18.0778143425
 21
2.5439717292
  0
LINE
  5
36C
100
AcDbEntity
  8
0
100
AcDbLine
 62
2
  6
CONTINUOUS
 10
18.0578143315
 20
2.2562429918
 11
18.0578143315
 21
2.546989118
  0
LINE
  5
36D
100
AcDbEntity
  8
0
100
AcDbLine
 62
2
  6
CONTINUOUS
 10
18.0378143204
 20
2.2532256029
 11
18.0378143204
 21
2.3524650276
  0
LINE
  5
36E
100
AcDbEntity
  8
0
100
AcDbLine
 62
2
  6
CONTINUOUS
 10
18.0378143204
 20
2.3904150487
 11
18.0378143204
 21
2.4153200625
  0
LINE
  5
36F
100
AcDbEntity
  8
0
100
AcDbLine
 62
2
  6
CONTINUOUS
 10
18.0378143204
 20
2.4532700835
 11
18.0378143204
 21
2.5500065068
  0
LINE
  5
370
100
AcDbEntity
  8
0
100
AcDbLine
 62
2
  6
CONTINUOUS
 10
18.0178143093
 20
2.2502082141
 11
18.0178143093
 21
2.3524650276
  0
LINE
  5
371
100
AcDbEntity
  8
0
100
AcDbLine
 62
2
  6
CONTINUOUS
 10
18.0178143093
 20
2.3904150487
 11
18.0178143093
 21
2.4153200625
  0
LINE
  5
372
100
AcDbEntity
  8
0
100
AcDbLine
 62
2
  6
CONTINUOUS
 10
18.0178143093
 20
2.4532700835
 11
18.0178143093
 21
2.5530238957
  0
LINE
  5
373
100
AcDbEntity
  8
0
100
AcDbLine
 62
2
  6
CONTINUOUS
 10
17.9978142982
 20
2.2471908253
 11
17.9978142982
 21
2.3524650276
  0
LINE
  5
374
100
AcDbEntity
  8
0
100
AcDbLine
 62
2
  6
CONTINUOUS
 10
17.9978142982
 20
2.3904150487
 11
17.9978142982
 21
2.4153200625
  0
LINE
  5
375
100
AcDbEntity
  8
0
100
AcDbLine
 62
2
  6
CONTINUOUS
 10
17.9978142982
 20
2.4532700835
 11
17.9978142982
 21
2.5560412845
  0
LINE
  5
376
100
AcDbEntity
  8
0
100
AcDbLine
 62
2
  6
CONTINUOUS
 10
17.9778142871
 20
2.2445732581
 11
17.9778142871
 21
2.3524650276
  0
LINE
  5
377
100
AcDbEntity
  8
0
100
AcDbLine
 62
2
  6
CONTINUOUS
 10
17.9778142871
 20
2.3772150414
 11
17.9778142871
 21
2.4285200698
  0
LINE
  5
378
100
AcDbEntity
  8
0
100
AcDbLine
 62
2
  6
CONTINUOUS
 10
17.9778142871
 20
2.4532700835
 11
17.9778142871
 21
2.5586588517
  0
LINE
  5
379
100
AcDbEntity
  8
0
100
AcDbLine
 62
2
  6
CONTINUOUS
 10
17.957814276
 20
2.2424989828
 11
17.957814276
 21
2.3524650276
  0
LINE
  5
37A
100
AcDbEntity
  8
0
100
AcDbLine
 62
2
  6
CONTINUOUS
 10
17.957814276
 20
2.3772150414
 11
17.957814276
 21
2.3937150505
  0
LINE
  5
37B
100
AcDbEntity
  8
0
100
AcDbLine
 62
2
  6
CONTINUOUS
 10
17.957814276
 20
2.4120200607
 11
17.957814276
 21
2.4285200698
  0
LINE
  5
37C
100
AcDbEntity
  8
0
100
AcDbLine
 62
2
  6
CONTINUOUS
 10
17.957814276
 20
2.4532700835
 11
17.957814276
 21
2.5607331269
  0
LINE
  5
37D
100
AcDbEntity
  8
0
100
AcDbLine
 62
2
  6
CONTINUOUS
 10
17.9378142649
 20
2.2404247076
 11
17.9378142649
 21
2.3524650276
  0
LINE
  5
37E
100
AcDbEntity
  8
0
100
AcDbLine
 62
2
  6
CONTINUOUS
 10
17.9378142649
 20
2.3772150414
 11
17.9378142649
 21
2.3937150505
  0
LINE
  5
37F
100
AcDbEntity
  8
0
100
AcDbLine
 62
2
  6
CONTINUOUS
 10
17.9378142649
 20
2.4120200607
 11
17.9378142649
 21
2.4285200698
  0
LINE
  5
380
100
AcDbEntity
  8
0
100
AcDbLine
 62
2
  6
CONTINUOUS
 10
17.9378142649
 20
2.4532700835
 11
17.9378142649
 21
2.5628074022
  0
LINE
  5
381
100
AcDbEntity
  8
0
100
AcDbLine
 62
2
  6
CONTINUOUS
 10
17.9178142538
 20
2.2383504324
 11
17.9178142538
 21
2.3524650276
  0
LINE
  5
382
100
AcDbEntity
  8
0
100
AcDbLine
 62
2
  6
CONTINUOUS
 10
17.9178142538
 20
2.4532700835
 11
17.9178142538
 21
2.5648816774
  0
LINE
  5
383
100
AcDbEntity
  8
0
100
AcDbLine
 62
2
  6
CONTINUOUS
 10
17.8978142427
 20
2.2362761572
 11
17.8978142427
 21
2.3524650276
  0
LINE
  5
384
100
AcDbEntity
  8
0
100
AcDbLine
 62
2
  6
CONTINUOUS
 10
17.8978142427
 20
2.4532700835
 11
17.8978142427
 21
2.5669559526
  0
LINE
  5
385
100
AcDbEntity
  8
0
100
AcDbLine
 62
2
  6
CONTINUOUS
 10
17.8778142316
 20
2.234201882
 11
17.8778142316
 21
2.3524650276
  0
LINE
  5
386
100
AcDbEntity
  8
0
100
AcDbLine
 62
2
  6
CONTINUOUS
 10
17.8778142316
 20
2.4532700835
 11
17.8778142316
 21
2.5690302278
  0
LINE
  5
387
100
AcDbEntity
  8
0
100
AcDbLine
 62
2
  6
CONTINUOUS
 10
17.8578142205
 20
2.23247216
 11
17.8578142205
 21
2.3524650276
  0
LINE
  5
388
100
AcDbEntity
  8
0
100
AcDbLine
 62
2
  6
CONTINUOUS
 10
17.8578142205
 20
2.3772150414
 11
17.8578142205
 21
2.4285200698
  0
LINE
  5
389
100
AcDbEntity
  8
0
100
AcDbLine
 62
2
  6
CONTINUOUS
 10
17.8578142205
 20
2.4532700835
 11
17.8578142205
 21
2.5707599498
  0
LINE
  5
38A
100
AcDbEntity
  8
0
100
AcDbLine
 62
2
  6
CONTINUOUS
 10
17.8378142094
 20
2.2312059562
 11
17.8378142094
 21
2.3524650276
  0
LINE
  5
38B
100
AcDbEntity
  8
0
100
AcDbLine
 62
2
  6
CONTINUOUS
 10
17.8378142094
 20
2.3772150414
 11
17.8378142094
 21
2.4285200698
  0
LINE
  5
38C
100
AcDbEntity
  8
0
100
AcDbLine
 62
2
  6
CONTINUOUS
 10
17.8378142094
 20
2.4532700835
 11
17.8378142094
 21
2.5720261536
  0
LINE
  5
38D
100
AcDbEntity
  8
0
100
AcDbLine
 62
2
  6
CONTINUOUS
 10
17.8178141984
 20
2.2299397525
 11
17.8178141984
 21
2.5732923573
  0
LINE
  5
38E
100
AcDbEntity
  8
0
100
AcDbLine
 62
2
  6
CONTINUOUS
 10
17.7978141873
 20
2.2286735487
 11
17.7978141873
 21
2.4285200698
  0
LINE
  5
38F
100
AcDbEntity
  8
0
100
AcDbLine
 62
2
  6
CONTINUOUS
 10
17.7978141873
 20
2.4532700835
 11
17.7978141873
 21
2.574558561
  0
LINE
  5
390
100
AcDbEntity
  8
0
100
AcDbLine
 62
2
  6
CONTINUOUS
 10
17.7778141762
 20
2.227407345
 11
17.7778141762
 21
2.3524650276
  0
LINE
  5
391
100
AcDbEntity
  8
0
100
AcDbLine
 62
2
  6
CONTINUOUS
 10
17.7778141762
 20
2.4532700835
 11
17.7778141762
 21
2.5758247648
  0
LINE
  5
392
100
AcDbEntity
  8
0
100
AcDbLine
 62
2
  6
CONTINUOUS
 10
17.7578141651
 20
2.2261411413
 11
17.7578141651
 21
2.3524650276
  0
LINE
  5
393
100
AcDbEntity
  8
0
100
AcDbLine
 62
2
  6
CONTINUOUS
 10
17.7578141651
 20
2.4532700835
 11
17.7578141651
 21
2.5770909685
  0
LINE
  5
394
100
AcDbEntity
  8
0
100
AcDbLine
 62
2
  6
CONTINUOUS
 10
17.737814154
 20
2.2249117066
 11
17.737814154
 21
2.3524650276
  0
LINE
  5
395
100
AcDbEntity
  8
0
100
AcDbLine
 62
2
  6
CONTINUOUS
 10
17.737814154
 20
2.4087649542
 11
17.737814154
 21
2.4285200698
  0
LINE
  5
396
100
AcDbEntity
  8
0
100
AcDbLine
 62
2
  6
CONTINUOUS
 10
17.737814154
 20
2.4532700835
 11
17.737814154
 21
2.5783204031
  0
LINE
  5
397
100
AcDbEntity
  8
0
100
AcDbLine
 62
2
  6
CONTINUOUS
 10
17.7178141429
 20
2.2243809174
 11
17.7178141429
 21
2.3524650276
  0
LINE
  5
398
100
AcDbEntity
  8
0
100
AcDbLine
 62
2
  6
CONTINUOUS
 10
17.7178141429
 20
2.4278478026
 11
17.7178141429
 21
2.5788511924
  0
LINE
  5
399
100
AcDbEntity
  8
0
100
AcDbLine
 62
2
  6
CONTINUOUS
 10
17.6978141318
 20
2.2238501282
 11
17.6978141318
 21
2.3648303444
  0
LINE
  5
39A
100
AcDbEntity
  8
0
100
AcDbLine
 62
2
  6
CONTINUOUS
 10
17.6978141318
 20
2.446930651
 11
17.6978141318
 21
2.5793819816
  0
LINE
  5
39B
100
AcDbEntity
  8
0
100
AcDbLine
 62
2
  6
CONTINUOUS
 10
17.6778141207
 20
2.223319339
 11
17.6778141207
 21
2.3839131616
  0
LINE
  5
39C
100
AcDbEntity
  8
0
100
AcDbLine
 62
2
  6
CONTINUOUS
 10
17.6778141207
 20
2.4532700835
 11
17.6778141207
 21
2.5799127708
  0
LINE
  5
39D
100
AcDbEntity
  8
0
100
AcDbLine
 62
2
  6
CONTINUOUS
 10
17.6578141096
 20
2.2227885498
 11
17.6578141096
 21
2.3524650276
  0
LINE
  5
39E
100
AcDbEntity
  8
0
100
AcDbLine
 62
2
  6
CONTINUOUS
 10
17.6578141096
 20
2.3772150414
 11
17.6578141096
 21
2.4029959788
  0
LINE
  5
39F
100
AcDbEntity
  8
0
100
AcDbLine
 62
2
  6
CONTINUOUS
 10
17.6578141096
 20
2.4532700835
 11
17.6578141096
 21
2.58044356
  0
LINE
  5
3A0
100
AcDbEntity
  8
0
100
AcDbLine
 62
2
  6
CONTINUOUS
 10
17.6378140985
 20
2.2222577606
 11
17.6378140985
 21
2.3524650276
  0
LINE
  5
3A1
100
AcDbEntity
  8
0
100
AcDbLine
 62
2
  6
CONTINUOUS
 10
17.6378140985
 20
2.4532700835
 11
17.6378140985
 21
2.5809743492
  0
LINE
  5
3A2
100
AcDbEntity
  8
0
100
AcDbLine
 62
2
  6
CONTINUOUS
 10
17.6178140874
 20
2.2217269714
 11
17.6178140874
 21
2.3524650276
  0
LINE
  5
3A3
100
AcDbEntity
  8
0
100
AcDbLine
 62
2
  6
CONTINUOUS
 10
17.6178140874
 20
2.4532700835
 11
17.6178140874
 21
2.5815051384
  0
LINE
  5
3A4
100
AcDbEntity
  8
0
100
AcDbLine
 62
2
  6
CONTINUOUS
 10
17.5978140764
 20
2.2215213152
 11
17.5978140764
 21
2.3524650276
  0
LINE
  5
3A5
100
AcDbEntity
  8
0
100
AcDbLine
 62
2
  6
CONTINUOUS
 10
17.5978140764
 20
2.3772150414
 11
17.5978140764
 21
2.4285200698
  0
LINE
  5
3A6
100
AcDbEntity
  8
0
100
AcDbLine
 62
2
  6
CONTINUOUS
 10
17.5978140764
 20
2.4532700835
 11
17.5978140764
 21
2.5817107946
  0
LINE
  5
3A7
100
AcDbEntity
  8
0
100
AcDbLine
 62
2
  6
CONTINUOUS
 10
17.5778140653
 20
2.2216974783
 11
17.5778140653
 21
2.5815346315
  0
LINE
  5
3A8
100
AcDbEntity
  8
0
100
AcDbLine
 62
2
  6
CONTINUOUS
 10
17.5578140542
 20
2.2218736414
 11
17.5578140542
 21
2.4285200698
  0
LINE
  5
3A9
100
AcDbEntity
  8
0
100
AcDbLine
 62
2
  6
CONTINUOUS
 10
17.5578140542
 20
2.4532700835
 11
17.5578140542
 21
2.5813584684
  0
LINE
  5
3AA
100
AcDbEntity
  8
0
100
AcDbLine
 62
2
  6
CONTINUOUS
 10
17.5378140431
 20
2.2220498045
 11
17.5378140431
 21
2.3524700714
  0
LINE
  5
3AB
100
AcDbEntity
  8
0
100
AcDbLine
 62
2
  6
CONTINUOUS
 10
17.5378140431
 20
2.4532700835
 11
17.5378140431
 21
2.5811823053
  0
LINE
  5
3AC
100
AcDbEntity
  8
0
100
AcDbLine
 62
2
  6
CONTINUOUS
 10
17.517814032
 20
2.2222259676
 11
17.517814032
 21
2.3524650276
  0
LINE
  5
3AD
100
AcDbEntity
  8
0
100
AcDbLine
 62
2
  6
CONTINUOUS
 10
17.517814032
 20
2.4532700835
 11
17.517814032
 21
2.5810061422
  0
LINE
  5
3AE
100
AcDbEntity
  8
0
100
AcDbLine
 62
2
  6
CONTINUOUS
 10
17.4978140209
 20
2.2224021307
 11
17.4978140209
 21
2.3524650276
  0
LINE
  5
3AF
100
AcDbEntity
  8
0
100
AcDbLine
 62
2
  6
CONTINUOUS
 10
17.4978140209
 20
2.4008904169
 11
17.4978140209
 21
2.4285200698
  0
LINE
  5
3B0
100
AcDbEntity
  8
0
100
AcDbLine
 62
2
  6
CONTINUOUS
 10
17.4978140209
 20
2.4532700835
 11
17.4978140209
 21
2.5808299791
  0
LINE
  5
3B1
100
AcDbEntity
  8
0
100
AcDbLine
 62
2
  6
CONTINUOUS
 10
17.4778140098
 20
2.2225782938
 11
17.4778140098
 21
2.3524650276
  0
LINE
  5
3B2
100
AcDbEntity
  8
0
100
AcDbLine
 62
2
  6
CONTINUOUS
 10
17.4778140098
 20
2.4199732652
 11
17.4778140098
 21
2.580653816
  0
LINE
  5
3B3
100
AcDbEntity
  8
0
100
AcDbLine
 62
2
  6
CONTINUOUS
 10
17.4578139987
 20
2.2233466716
 11
17.4578139987
 21
2.3569558199
  0
LINE
  5
3B4
100
AcDbEntity
  8
0
100
AcDbLine
 62
2
  6
CONTINUOUS
 10
17.4578139987
 20
2.4390561136
 11
17.4578139987
 21
2.5798854382
  0
LINE
  5
3B5
100
AcDbEntity
  8
0
100
AcDbLine
 62
2
  6
CONTINUOUS
 10
17.4378139876
 20
2.2242391079
 11
17.4378139876
 21
2.3760386371
  0
LINE
  5
3B6
100
AcDbEntity
  8
0
100
AcDbLine
 62
2
  6
CONTINUOUS
 10
17.4378139876
 20
2.4532700835
 11
17.4378139876
 21
2.5789930018
  0
LINE
  5
3B7
100
AcDbEntity
  8
0
100
AcDbLine
 62
2
  6
CONTINUOUS
 10
17.4178139765
 20
2.2251315443
 11
17.4178139765
 21
2.3525640362
  0
LINE
  5
3B8
100
AcDbEntity
  8
0
100
AcDbLine
 62
2
  6
CONTINUOUS
 10
17.4178139765
 20
2.3771160328
 11
17.4178139765
 21
2.3951214543
  0
LINE
  5
3B9
100
AcDbEntity
  8
0
100
AcDbLine
 62
2
  6
CONTINUOUS
 10
17.4178139765
 20
2.4532700835
 11
17.4178139765
 21
2.5781005655
  0
LINE
  5
3BA
100
AcDbEntity
  8
0
100
AcDbLine
 62
2
  6
CONTINUOUS
 10
17.3978139654
 20
2.2260239807
 11
17.3978139654
 21
2.3524650276
  0
LINE
  5
3BB
100
AcDbEntity
  8
0
100
AcDbLine
 62
2
  6
CONTINUOUS
 10
17.3978139654
 20
2.3772150414
 11
17.3978139654
 21
2.4139978698
  0
LINE
  5
3BC
100
AcDbEntity
  8
0
100
AcDbLine
 62
2
  6
CONTINUOUS
 10
17.3978139654
 20
2.4532700835
 11
17.3978139654
 21
2.5772081291
  0
LINE
  5
3BD
100
AcDbEntity
  8
0
100
AcDbLine
 62
2
  6
CONTINUOUS
 10
17.3778139543
 20
2.226916417
 11
17.3778139543
 21
2.3524650276
  0
LINE
  5
3BE
100
AcDbEntity
  8
0
100
AcDbLine
 62
2
  6
CONTINUOUS
 10
17.3778139543
 20
2.4532700835
 11
17.3778139543
 21
2.5763156928
  0
LINE
  5
3BF
100
AcDbEntity
  8
0
100
AcDbLine
 62
2
  6
CONTINUOUS
 10
17.3578139433
 20
2.2278088534
 11
17.3578139433
 21
2.3524650276
  0
LINE
  5
3C0
100
AcDbEntity
  8
0
100
AcDbLine
 62
2
  6
CONTINUOUS
 10
17.3578139433
 20
2.3772150414
 11
17.3578139433
 21
2.4285200698
  0
LINE
  5
3C1
100
AcDbEntity
  8
0
100
AcDbLine
 62
2
  6
CONTINUOUS
 10
17.3578139433
 20
2.4532700835
 11
17.3578139433
 21
2.5754232564
  0
LINE
  5
3C2
100
AcDbEntity
  8
0
100
AcDbLine
 62
2
  6
CONTINUOUS
 10
17.3378139322
 20
2.2289481171
 11
17.3378139322
 21
2.5742839927
  0
LINE
  5
3C3
100
AcDbEntity
  8
0
100
AcDbLine
 62
2
  6
CONTINUOUS
 10
17.3178139211
 20
2.2306059865
 11
17.3178139211
 21
2.5726261233
  0
LINE
  5
3C4
100
AcDbEntity
  8
0
100
AcDbLine
 62
2
  6
CONTINUOUS
 10
17.29781391
 20
2.2322638559
 11
17.29781391
 21
2.3524650276
  0
LINE
  5
3C5
100
AcDbEntity
  8
0
100
AcDbLine
 62
2
  6
CONTINUOUS
 10
17.29781391
 20
2.3772150414
 11
17.29781391
 21
2.5709682538
  0
LINE
  5
3C6
100
AcDbEntity
  8
0
100
AcDbLine
 62
2
  6
CONTINUOUS
 10
17.2778138989
 20
2.2339217254
 11
17.2778138989
 21
2.3524650276
  0
LINE
  5
3C7
100
AcDbEntity
  8
0
100
AcDbLine
 62
2
  6
CONTINUOUS
 10
17.2778138989
 20
2.3963499423
 11
17.2778138989
 21
2.5693103844
  0
LINE
  5
3C8
100
AcDbEntity
  8
0
100
AcDbLine
 62
2
  6
CONTINUOUS
 10
17.2578138878
 20
2.2355795948
 11
17.2578138878
 21
2.3524650276
  0
LINE
  5
3C9
100
AcDbEntity
  8
0
100
AcDbLine
 62
2
  6
CONTINUOUS
 10
17.2578138878
 20
2.4272549766
 11
17.2578138878
 21
2.567652515
  0
LINE
  5
3CA
100
AcDbEntity
  8
0
100
AcDbLine
 62
2
  6
CONTINUOUS
 10
17.2378138767
 20
2.2372374642
 11
17.2378138767
 21
2.3524650276
  0
LINE
  5
3CB
100
AcDbEntity
  8
0
100
AcDbLine
 62
2
  6
CONTINUOUS
 10
17.2378138767
 20
2.4532700835
 11
17.2378138767
 21
2.5659946456
  0
LINE
  5
3CC
100
AcDbEntity
  8
0
100
AcDbLine
 62
2
  6
CONTINUOUS
 10
17.2178138656
 20
2.2389952421
 11
17.2178138656
 21
2.3524650276
  0
LINE
  5
3CD
100
AcDbEntity
  8
0
100
AcDbLine
 62
2
  6
CONTINUOUS
 10
17.2178138656
 20
2.3772150414
 11
17.2178138656
 21
2.3887495968
  0
LINE
  5
3CE
100
AcDbEntity
  8
0
100
AcDbLine
 62
2
  6
CONTINUOUS
 10
17.2178138656
 20
2.4532700835
 11
17.2178138656
 21
2.5642368677
  0
LINE
  5
3CF
100
AcDbEntity
  8
0
100
AcDbLine
 62
2
  6
CONTINUOUS
 10
17.1978138545
 20
2.2415190955
 11
17.1978138545
 21
2.3908590489
  0
LINE
  5
3D0
100
AcDbEntity
  8
0
100
AcDbLine
 62
2
  6
CONTINUOUS
 10
17.1978138545
 20
2.4118090605
 11
17.1978138545
 21
2.4279760695
  0
LINE
  5
3D1
100
AcDbEntity
  8
0
100
AcDbLine
 62
2
  6
CONTINUOUS
 10
17.1978138545
 20
2.4532700835
 11
17.1978138545
 21
2.5617130143
  0
LINE
  5
3D2
100
AcDbEntity
  8
0
100
AcDbLine
 62
2
  6
CONTINUOUS
 10
17.1778138434
 20
2.244042949
 11
17.1778138434
 21
2.3524650276
  0
LINE
  5
3D3
100
AcDbEntity
  8
0
100
AcDbLine
 62
2
  6
CONTINUOUS
 10
17.1778138434
 20
2.3772150414
 11
17.1778138434
 21
2.3892044865
  0
LINE
  5
3D4
100
AcDbEntity
  8
0
100
AcDbLine
 62
2
  6
CONTINUOUS
 10
17.1778138434
 20
2.4480979218
 11
17.1778138434
 21
2.5591891608
  0
LINE
  5
3D5
100
AcDbEntity
  8
0
100
AcDbLine
 62
2
  6
CONTINUOUS
 10
17.1578138323
 20
2.2465668024
 11
17.1578138323
 21
2.3524650276
  0
LINE
  5
3D6
100
AcDbEntity
  8
0
100
AcDbLine
 62
2
  6
CONTINUOUS
 10
17.1578138323
 20
2.4165778189
 11
17.1578138323
 21
2.5566653073
  0
LINE
  5
3D7
100
AcDbEntity
  8
0
100
AcDbLine
 62
2
  6
CONTINUOUS
 10
17.1378138213
 20
2.2490906559
 11
17.1378138213
 21
2.3524650276
  0
LINE
  5
3D8
100
AcDbEntity
  8
0
100
AcDbLine
 62
2
  6
CONTINUOUS
 10
17.1378138213
 20
2.3850577159
 11
17.1378138213
 21
2.5541414539
  0
LINE
  5
3D9
100
AcDbEntity
  8
0
100
AcDbLine
 62
2
  6
CONTINUOUS
 10
17.1178138102
 20
2.2516145094
 11
17.1178138102
 21
2.3524650276
  0
LINE
  5
3DA
100
AcDbEntity
  8
0
100
AcDbLine
 62
2
  6
CONTINUOUS
 10
17.1178138102
 20
2.3772150414
 11
17.1178138102
 21
2.5516176004
  0
LINE
  5
3DB
100
AcDbEntity
  8
0
100
AcDbLine
 62
2
  6
CONTINUOUS
 10
17.0978137991
 20
2.2544171186
 11
17.0978137991
 21
2.5488149912
  0
LINE
  5
3DC
100
AcDbEntity
  8
0
100
AcDbLine
 62
2
  6
CONTINUOUS
 10
17.077813788
 20
2.2577020445
 11
17.077813788
 21
2.362615113
  0
LINE
  5
3DD
100
AcDbEntity
  8
0
100
AcDbLine
 62
2
  6
CONTINUOUS
 10
17.077813788
 20
2.3938117115
 11
17.077813788
 21
2.4149601455
  0
LINE
  5
3DE
100
AcDbEntity
  8
0
100
AcDbLine
 62
2
  6
CONTINUOUS
 10
17.077813788
 20
2.4403850542
 11
17.077813788
 21
2.5455300653
  0
LINE
  5
3DF
100
AcDbEntity
  8
0
100
AcDbLine
 62
2
  6
CONTINUOUS
 10
17.0578137769
 20
2.2609869704
 11
17.0578137769
 21
2.3533399802
  0
LINE
  5
3E0
100
AcDbEntity
  8
0
100
AcDbLine
 62
2
  6
CONTINUOUS
 10
17.0578137769
 20
2.4508307102
 11
17.0578137769
 21
2.5422451394
  0
LINE
  5
3E1
100
AcDbEntity
  8
0
100
AcDbLine
 62
2
  6
CONTINUOUS
 10
17.0378137658
 20
2.2646895914
 11
17.0378137658
 21
2.3524650276
  0
LINE
  5
3E2
100
AcDbEntity
  8
0
100
AcDbLine
 62
2
  6
CONTINUOUS
 10
17.0378137658
 20
2.4532700835
 11
17.0378137658
 21
2.5385425184
  0
LINE
  5
3E3
100
AcDbEntity
  8
0
100
AcDbLine
 62
2
  6
CONTINUOUS
 10
17.0178137547
 20
2.2685623514
 11
17.0178137547
 21
2.3524650276
  0
LINE
  5
3E4
100
AcDbEntity
  8
0
100
AcDbLine
 62
2
  6
CONTINUOUS
 10
17.0178137547
 20
2.4532700835
 11
17.0178137547
 21
2.5346697584
  0
LINE
  5
3E5
100
AcDbEntity
  8
0
100
AcDbLine
 62
2
  6
CONTINUOUS
 10
16.9978137436
 20
2.2725871112
 11
16.9978137436
 21
2.3524650276
  0
LINE
  5
3E6
100
AcDbEntity
  8
0
100
AcDbLine
 62
2
  6
CONTINUOUS
 10
16.9978137436
 20
2.3772150414
 11
16.9978137436
 21
2.394540051
  0
LINE
  5
3E7
100
AcDbEntity
  8
0
100
AcDbLine
 62
2
  6
CONTINUOUS
 10
16.9978137436
 20
2.4111950602
 11
16.9978137436
 21
2.4285200698
  0
LINE
  5
3E8
100
AcDbEntity
  8
0
100
AcDbLine
 62
2
  6
CONTINUOUS
 10
16.9978137436
 20
2.4532700835
 11
16.9978137436
 21
2.5306449986
  0
LINE
  5
3E9
100
AcDbEntity
  8
0
100
AcDbLine
 62
2
  6
CONTINUOUS
 10
16.9778137325
 20
2.2771382649
 11
16.9778137325
 21
2.3524650276
  0
LINE
  5
3EA
100
AcDbEntity
  8
0
100
AcDbLine
 62
2
  6
CONTINUOUS
 10
16.9778137325
 20
2.3772150414
 11
16.9778137325
 21
2.394540051
  0
LINE
  5
3EB
100
AcDbEntity
  8
0
100
AcDbLine
 62
2
  6
CONTINUOUS
 10
16.9778137325
 20
2.4111950602
 11
16.9778137325
 21
2.4285200698
  0
LINE
  5
3EC
100
AcDbEntity
  8
0
100
AcDbLine
 62
2
  6
CONTINUOUS
 10
16.9778137325
 20
2.4532700835
 11
16.9778137325
 21
2.5260938449
  0
LINE
  5
3ED
100
AcDbEntity
  8
0
100
AcDbLine
 62
2
  6
CONTINUOUS
 10
16.9578137214
 20
2.2816894185
 11
16.9578137214
 21
2.3524650276
  0
LINE
  5
3EE
100
AcDbEntity
  8
0
100
AcDbLine
 62
2
  6
CONTINUOUS
 10
16.9578137214
 20
2.4532700835
 11
16.9578137214
 21
2.5215426913
  0
LINE
  5
3EF
100
AcDbEntity
  8
0
100
AcDbLine
 62
2
  6
CONTINUOUS
 10
16.9378137103
 20
2.2869815362
 11
16.9378137103
 21
2.3524650276
  0
LINE
  5
3F0
100
AcDbEntity
  8
0
100
AcDbLine
 62
2
  6
CONTINUOUS
 10
16.9378137103
 20
2.4532700835
 11
16.9378137103
 21
2.5162505736
  0
LINE
  5
3F1
100
AcDbEntity
  8
0
100
AcDbLine
 62
2
  6
CONTINUOUS
 10
16.9178136992
 20
2.2923355811
 11
16.9178136992
 21
2.3524650276
  0
LINE
  5
3F2
100
AcDbEntity
  8
0
100
AcDbLine
 62
2
  6
CONTINUOUS
 10
16.9178136992
 20
2.4532700835
 11
16.9178136992
 21
2.5108965286
  0
LINE
  5
3F3
100
AcDbEntity
  8
0
100
AcDbLine
 62
2
  6
CONTINUOUS
 10
16.8978136882
 20
2.2984943577
 11
16.8978136882
 21
2.3524650276
  0
LINE
  5
3F4
100
AcDbEntity
  8
0
100
AcDbLine
 62
2
  6
CONTINUOUS
 10
16.8978136882
 20
2.3772150414
 11
16.8978136882
 21
2.4285200698
  0
LINE
  5
3F5
100
AcDbEntity
  8
0
100
AcDbLine
 62
2
  6
CONTINUOUS
 10
16.8978136882
 20
2.4532700835
 11
16.8978136882
 21
2.5047377521
  0
LINE
  5
3F6
100
AcDbEntity
  8
0
100
AcDbLine
 62
2
  6
CONTINUOUS
 10
16.8778136771
 20
2.3048274854
 11
16.8778136771
 21
2.3524650276
  0
LINE
  5
3F7
100
AcDbEntity
  8
0
100
AcDbLine
 62
2
  6
CONTINUOUS
 10
16.8778136771
 20
2.3772150414
 11
16.8778136771
 21
2.4285200698
  0
LINE
  5
3F8
100
AcDbEntity
  8
0
100
AcDbLine
 62
2
  6
CONTINUOUS
 10
16.8778136771
 20
2.4532700835
 11
16.8778136771
 21
2.4984046244
  0
LINE
  5
3F9
100
AcDbEntity
  8
0
100
AcDbLine
 62
2
  6
CONTINUOUS
 10
16.857813666
 20
2.312318358
 11
16.857813666
 21
2.4909137517
  0
LINE
  5
3FA
100
AcDbEntity
  8
0
100
AcDbLine
 62
2
  6
CONTINUOUS
 10
16.8378136549
 20
2.3203393667
 11
16.8378136549
 21
2.4828927431
  0
LINE
  5
3FB
100
AcDbEntity
  8
0
100
AcDbLine
 62
2
  6
CONTINUOUS
 10
16.8178136438
 20
2.3295519864
 11
16.8178136438
 21
2.4736801234
  0
LINE
  5
3FC
100
AcDbEntity
  8
0
100
AcDbLine
 62
2
  6
CONTINUOUS
 10
16.7978136327
 20
2.3407309483
 11
16.7978136327
 21
2.4625011614
  0
LINE
  5
3FD
100
AcDbEntity
  8
0
100
AcDbLine
 62
2
  6
CONTINUOUS
 10
16.7778136216
 20
2.3546527809
 11
16.7778136216
 21
2.4485793288
  0
LINE
  5
3FE
100
AcDbEntity
  8
0
100
AcDbLine
 62
2
  6
CONTINUOUS
 10
16.7578136105
 20
2.3756826696
 11
16.7578136105
 21
2.4275494401
  0
ENDBLK
  5
3FF
100
AcDbEntity
  8
0
  6
BYBLOCK
 62
0
100
AcDbBlockEnd
  0
BLOCK
  5
400
100
AcDbEntity
  8
0
100
AcDbBlockBegin
  2
_FILLED
 70
64
 10
0.0
 20
0.0
  3
_FILLED
  1

  0
SOLID
  5
401
100
AcDbEntity
  8
0
  6
BYBLOCK
 62
0
100
AcDbTrace
 10
0.0
 20
0.0
 11
-1.0
 21
0.1666666667
 12
-1.0
 22
-0.1666666667
 13
-1.0
 23
-0.1666666667
  0
ENDBLK
  5
402
100
AcDbEntity
  8
0
  6
BYBLOCK
 62
0
100
AcDbBlockEnd
  0
BLOCK
  5
403
100
AcDbEntity
  8
SCHEME_DIMS
100
AcDbBlockBegin
 62
2
  6
CONTINUOUS
  2
*D0
 70
65
 10
0.0
 20
0.0
  3
*D0
  1

  0
MTEXT
  5
404
100
AcDbEntity
  8
SCHEME_DIMS
100
AcDbMText
 62
2
  6
CONTINUOUS
  7
STANDARD
 71
2
 72
1
 10
8.4493397058
 20
8.0702403585
 30
0.0
 11
1.0
 21
0.0
 31
0.0
 44
0.9
  1
91\P[3.58]
 40
0.1
 41
0.6
  0
LINE
  5
405
100
AcDbEntity
  8
SCHEME_DIMS
100
AcDbLine
 62
2
  6
CONTINUOUS
 10
10.4406782884
 20
5.7313736499
 11
10.4406782884
 21
8.1452403585
  0
LINE
  5
406
100
AcDbEntity
  8
SCHEME_DIMS
100
AcDbLine
 62
2
  6
CONTINUOUS
 10
6.8580011231
 20
5.7313736499
 11
6.8580011231
 21
8.1452403585
  0
LINE
  5
407
100
AcDbEntity
  8
SCHEME_DIMS
100
AcDbLine
 62
2
  6
CONTINUOUS
 10
10.4406782884
 20
8.0202403585
 11
9.0493397058
 21
8.0202403585
  0
LINE
  5
408
100
AcDbEntity
  8
SCHEME_DIMS
100
AcDbLine
 62
2
  6
CONTINUOUS
 10
6.8580011231
 20
8.0202403585
 11
8.2493397058
 21
8.0202403585
  0
INSERT
  5
409
100
AcDbEntity
  8
SCHEME_DIMS
100
AcDbBlockReference
 62
2
  6
CONTINUOUS
  2
_FILLED
 10
10.4406782884
 20
8.0202403585
 41
0.1875
 42
0.1875
 43
0.1875
  0
INSERT
  5
40A
100
AcDbEntity
  8
SCHEME_DIMS
100
AcDbBlockReference
 62
2
  6
CONTINUOUS
  2
_FILLED
 10
6.8580011231
 20
8.0202403585
 41
0.1875
 42
0.1875
 43
0.1875
 50
180.0
  0
ENDBLK
  5
40B
100
AcDbEntity
  8
0
  6
BYBLOCK
 62
0
100
AcDbBlockEnd
  0
BLOCK
  5
40C
100
AcDbEntity
  8
SCHEME_DIMS
100
AcDbBlockBegin
 62
2
  6
CONTINUOUS
  2
*D1
 70
65
 10
0.0
 20
0.0
  3
*D1
  1

  0
MTEXT
  5
40D
100
AcDbEntity
  8
SCHEME_DIMS
100
AcDbMText
 62
2
  6
CONTINUOUS
  7
STANDARD
 71
2
 72
1
 10
5.7886918877
 20
5.7188736499
 30
0.0
 11
1.0
 21
0.0
 31
0.0
 44
0.9
  1
89\P[3.50]
 40
0.1
 41
0.6
  0
LINE
  5
40E
100
AcDbEntity
  8
SCHEME_DIMS
100
AcDbLine
 62
2
  6
CONTINUOUS
 10
7.1570428903
 20
7.4208421539
 11
5.8636918877
 21
7.4208421539
  0
LINE
  5
40F
100
AcDbEntity
  8
SCHEME_DIMS
100
AcDbLine
 62
2
  6
CONTINUOUS
 10
7.1570428903
 20
3.916905146
 11
5.8636918877
 21
3.916905146
  0
LINE
  5
410
100
AcDbEntity
  8
SCHEME_DIMS
100
AcDbLine
 62
2
  6
CONTINUOUS
 10
5.9886918877
 20
7.4208421539
 11
5.9886918877
 21
5.8188736499
  0
LINE
  5
411
100
AcDbEntity
  8
SCHEME_DIMS
100
AcDbLine
 62
2
  6
CONTINUOUS
 10
5.9886918877
 20
3.916905146
 11
5.9886918877
 21
5.3688736499
  0
INSERT
  5
412
100
AcDbEntity
  8
SCHEME_DIMS
100
AcDbBlockReference
 62
2
  6
CONTINUOUS
  2
_FILLED
 10
5.9886918877
 20
7.4208421539
 41
0.1875
 42
0.1875
 43
0.1875
 50
90.0
  0
INSERT
  5
413
100
AcDbEntity
  8
SCHEME_DIMS
100
AcDbBlockReference
 62
2
  6
CONTINUOUS
  2
_FILLED
 10
5.9886918877
 20
3.916905146
 41
0.1875
 42
0.1875
 43
0.1875
 50
270.0
  0
ENDBLK
  5
414
100
AcDbEntity
  8
0
  6
BYBLOCK
 62
0
100
AcDbBlockEnd
  0
BLOCK
  5
415
100
AcDbEntity
  8
SCHEME_DIMS
100
AcDbBlockBegin
 62
2
  6
CONTINUOUS
  2
*D2
 70
65
 10
0.0
 20
0.0
  3
*D2
  1

  0
MTEXT
  5
416
100
AcDbEntity
  8
SCHEME_DIMS
100
AcDbMText
 62
2
  6
CONTINUOUS
  7
STANDARD
 71
2
 72
1
 10
11.3817117884
 20
13.1310537186
 30
0.0
 11
1.0
 21
0.0
 31
0.0
 44
0.9
  1
78\P[3.071]
 40
0.1
 41
0.7
  0
LINE
  5
417
100
AcDbEntity
  8
SCHEME_DIMS
100
AcDbLine
 62
2
  6
CONTINUOUS
 10
10.1440234194
 20
11.5456206477
 11
11.7567117884
 21
11.5456206477
  0
LINE
  5
418
100
AcDbEntity
  8
SCHEME_DIMS
100
AcDbLine
 62
2
  6
CONTINUOUS
 10
10.1440234194
 20
14.6164867895
 11
11.7567117884
 21
14.6164867895
  0
LINE
  5
419
100
AcDbEntity
  8
SCHEME_DIMS
100
AcDbLine
 62
2
  6
CONTINUOUS
 10
11.6317117884
 20
11.5456206477
 11
11.6317117884
 21
12.7810537186
  0
LINE
  5
41A
100
AcDbEntity
  8
SCHEME_DIMS
100
AcDbLine
 62
2
  6
CONTINUOUS
 10
11.6317117884
 20
14.6164867895
 11
11.6317117884
 21
13.2310537186
  0
INSERT
  5
41B
100
AcDbEntity
  8
SCHEME_DIMS
100
AcDbBlockReference
 62
2
  6
CONTINUOUS
  2
_FILLED
 10
11.6317117884
 20
11.5456206477
 41
0.1875
 42
0.1875
 43
0.1875
 50
270.0
  0
INSERT
  5
41C
100
AcDbEntity
  8
SCHEME_DIMS
100
AcDbBlockReference
 62
2
  6
CONTINUOUS
  2
_FILLED
 10
11.6317117884
 20
14.6164867895
 41
0.1875
 42
0.1875
 43
0.1875
 50
90.0
  0
ENDBLK
  5
41D
100
AcDbEntity
  8
0
  6
BYBLOCK
 62
0
100
AcDbBlockEnd
  0
BLOCK
  5
41E
100
AcDbEntity
  8
SCHEME_DIMS
100
AcDbBlockBegin
 62
2
  6
CONTINUOUS
  2
*D3
 70
65
 10
0.0
 20
0.0
  3
*D3
  1

  0
MTEXT
  5
41F
100
AcDbEntity
  8
SCHEME_DIMS
100
AcDbMText
 62
2
  6
CONTINUOUS
  7
STANDARD
 71
2
 72
1
 10
8.5493397058
 20
10.7228164786
 30
0.0
 11
1.0
 21
0.0
 31
0.0
 44
0.9
  1
72,75\P[2.864]
 40
0.1
 41
0.7
  0
LINE
  5
420
100
AcDbEntity
  8
SCHEME_DIMS
100
AcDbLine
 62
2
  6
CONTINUOUS
 10
10.0815234194
 20
11.4831206477
 11
10.0815234194
 21
10.5478164786
  0
LINE
  5
421
100
AcDbEntity
  8
SCHEME_DIMS
100
AcDbLine
 62
2
  6
CONTINUOUS
 10
7.2171559922
 20
11.4831206477
 11
7.2171559922
 21
10.5478164786
  0
LINE
  5
422
100
AcDbEntity
  8
SCHEME_DIMS
100
AcDbLine
 62
2
  6
CONTINUOUS
 10
10.0815234194
 20
10.6728164786
 11
9.0993397058
 21
10.6728164786
  0
LINE
  5
423
100
AcDbEntity
  8
SCHEME_DIMS
100
AcDbLine
 62
2
  6
CONTINUOUS
 10
7.2171559922
 20
10.6728164786
 11
8.1993397058
 21
10.6728164786
  0
INSERT
  5
424
100
AcDbEntity
  8
SCHEME_DIMS
100
AcDbBlockReference
 62
2
  6
CONTINUOUS
  2
_FILLED
 10
10.0815234194
 20
10.6728164786
 41
0.1875
 42
0.1875
 43
0.1875
  0
INSERT
  5
425
100
AcDbEntity
  8
SCHEME_DIMS
100
AcDbBlockReference
 62
2
  6
CONTINUOUS
  2
_FILLED
 10
7.2171559922
 20
10.6728164786
 41
0.1875
 42
0.1875
 43
0.1875
 50
180.0
  0
ENDBLK
  5
426
100
AcDbEntity
  8
0
  6
BYBLOCK
 62
0
100
AcDbBlockEnd
  0
BLOCK
  5
427
100
AcDbEntity
  8
SCHEME_DIMS
100
AcDbBlockBegin
 62
2
  6
CONTINUOUS
  2
*D4
 70
65
 10
0.0
 20
0.0
  3
*D4
  1

  0
MTEXT
  5
428
100
AcDbEntity
  8
SCHEME_DIMS
100
AcDbMText
 62
2
  6
CONTINUOUS
  7
STANDARD
 71
2
 72
1
 10
5.2780321297
 20
13.3869592304
 30
0.0
 11
1.0
 21
0.0
 31
0.0
 44
0.9
  1
102\P[4.016]
 40
0.1
 41
0.7
  0
LINE
  5
429
100
AcDbEntity
  8
SCHEME_DIMS
100
AcDbLine
 62
2
  6
CONTINUOUS
 10
6.9779824434
 20
11.3290852147
 11
5.3530321297
 21
11.3290852147
  0
LINE
  5
42A
100
AcDbEntity
  8
SCHEME_DIMS
100
AcDbLine
 62
2
  6
CONTINUOUS
 10
8.2924636014
 20
15.3448332462
 11
5.3530321297
 21
15.3448332462
  0
LINE
  5
42B
100
AcDbEntity
  8
SCHEME_DIMS
100
AcDbLine
 62
2
  6
CONTINUOUS
 10
5.4780321297
 20
11.3290852147
 11
5.4780321297
 21
13.0369592304
  0
LINE
  5
42C
100
AcDbEntity
  8
SCHEME_DIMS
100
AcDbLine
 62
2
  6
CONTINUOUS
 10
5.4780321297
 20
15.3448332462
 11
5.4780321297
 21
13.4869592304
  0
INSERT
  5
42D
100
AcDbEntity
  8
SCHEME_DIMS
100
AcDbBlockReference
 62
2
  6
CONTINUOUS
  2
_FILLED
 10
5.4780321297
 20
11.3290852147
 41
0.1875
 42
0.1875
 43
0.1875
 50
270.0
  0
INSERT
  5
42E
100
AcDbEntity
  8
SCHEME_DIMS
100
AcDbBlockReference
 62
2
  6
CONTINUOUS
  2
_FILLED
 10
5.4780321297
 20
15.3448332462
 41
0.1875
 42
0.1875
 43
0.1875
 50
90.0
  0
ENDBLK
  5
42F
100
AcDbEntity
  8
0
  6
BYBLOCK
 62
0
100
AcDbBlockEnd
  0
BLOCK
  5
430
100
AcDbEntity
  8
SCHEME_DIMS
100
AcDbBlockBegin
 62
2
  6
CONTINUOUS
  2
*D5
 70
65
 10
0.0
 20
0.0
  3
*D5
  1

  0
MTEXT
  5
431
100
AcDbEntity
  8
SCHEME_DIMS
100
AcDbMText
 62
2
  6
CONTINUOUS
  7
STANDARD
 71
2
 72
1
 10
5.388525652
 20
9.1241737034
 30
0.0
 11
1.0
 21
0.0
 31
0.0
 44
0.9
  1
28,18\P[1.109]
 40
0.1
 41
0.7
  0
LINE
  5
432
100
AcDbEntity
  8
SCHEME_DIMS
100
AcDbLine
 62
2
  6
CONTINUOUS
 10
6.7872145785
 20
8.5194492939
 11
5.363525652
 21
8.5194492939
  0
LINE
  5
433
100
AcDbEntity
  8
SCHEME_DIMS
100
AcDbLine
 62
2
  6
CONTINUOUS
 10
6.7652029017
 20
9.6288981128
 11
5.363525652
 21
9.6288981128
  0
LINE
  5
434
100
AcDbEntity
  8
SCHEME_DIMS
100
AcDbLine
 62
2
  6
CONTINUOUS
 10
5.488525652
 20
8.5194492939
 11
5.488525652
 21
8.7741737034
  0
LINE
  5
435
100
AcDbEntity
  8
SCHEME_DIMS
100
AcDbLine
 62
2
  6
CONTINUOUS
 10
5.488525652
 20
9.6288981128
 11
5.488525652
 21
9.2241737034
  0
INSERT
  5
436
100
AcDbEntity
  8
SCHEME_DIMS
100
AcDbBlockReference
 62
2
  6
CONTINUOUS
  2
_FILLED
 10
5.488525652
 20
8.5194492939
 41
0.1875
 42
0.1875
 43
0.1875
 50
270.0
  0
INSERT
  5
437
100
AcDbEntity
  8
SCHEME_DIMS
100
AcDbBlockReference
 62
2
  6
CONTINUOUS
  2
_FILLED
 10
5.488525652
 20
9.6288981128
 41
0.1875
 42
0.1875
 43
0.1875
 50
90.0
  0
ENDBLK
  5
438
100
AcDbEntity
  8
0
  6
BYBLOCK
 62
0
100
AcDbBlockEnd
  0
BLOCK
  5
439
100
AcDbEntity
  8
SCHEME_DIMS
100
AcDbBlockBegin
 62
2
  6
CONTINUOUS
  2
*D6
 70
65
 10
0.0
 20
0.0
  3
*D6
  1

  0
MTEXT
  5
43A
100
AcDbEntity
  8
SCHEME_DIMS
100
AcDbMText
 62
2
  6
CONTINUOUS
  7
STANDARD
 71
1
 72
1
 10
11.3348695524
 20
10.0070253128
 30
0.0
 11
1.0
 21
0.0
 31
0.0
 44
0.9
  1
8,1\P[.319]
 40
0.1
 41
0.6
  0
LINE
  5
43B
100
AcDbEntity
  8
SCHEME_DIMS
100
AcDbLine
 62
2
  6
CONTINUOUS
 10
10.4978915065
 20
9.6288981128
 11
11.2098695524
 21
9.6288981128
  0
LINE
  5
43C
100
AcDbEntity
  8
SCHEME_DIMS
100
AcDbLine
 62
2
  6
CONTINUOUS
 10
8.9247903437
 20
9.3101973254
 11
11.2098695524
 21
9.3101973254
  0
LINE
  5
43D
100
AcDbEntity
  8
SCHEME_DIMS
100
AcDbLine
 62
2
  6
CONTINUOUS
 10
11.0848695524
 20
9.6288981128
 11
11.0848695524
 21
9.9570253128
  0
LINE
  5
43E
100
AcDbEntity
  8
SCHEME_DIMS
100
AcDbLine
 62
2
  6
CONTINUOUS
 10
11.0848695524
 20
9.9570253128
 11
11.2348695524
 21
9.9570253128
  0
LINE
  5
43F
100
AcDbEntity
  8
SCHEME_DIMS
100
AcDbLine
 62
2
  6
CONTINUOUS
 10
11.0848695524
 20
9.3101973254
 11
11.0848695524
 21
8.9101973254
  0
INSERT
  5
440
100
AcDbEntity
  8
SCHEME_DIMS
100
AcDbBlockReference
 62
2
  6
CONTINUOUS
  2
_FILLED
 10
11.0848695524
 20
9.6288981128
 41
0.1875
 42
0.1875
 43
0.1875
 50
270.0
  0
INSERT
  5
441
100
AcDbEntity
  8
SCHEME_DIMS
100
AcDbBlockReference
 62
2
  6
CONTINUOUS
  2
_FILLED
 10
11.0848695524
 20
9.3101973254
 41
0.1875
 42
0.1875
 43
0.1875
 50
90.0
  0
ENDBLK
  5
442
100
AcDbEntity
  8
0
  6
BYBLOCK
 62
0
100
AcDbBlockEnd
  0
BLOCK
  5
443
100
AcDbEntity
  8
SCHEME_DIMS
100
AcDbBlockBegin
 62
2
  6
CONTINUOUS
  2
*D7
 70
65
 10
0.0
 20
0.0
  3
*D7
  1

  0
MTEXT
  5
444
100
AcDbEntity
  8
SCHEME_DIMS
100
AcDbMText
 62
2
  6
CONTINUOUS
  7
STANDARD
 71
3
 72
1
 10
5.5508680648
 20
1.883140488
 30
0.0
 11
1.0
 21
0.0
 31
0.0
 44
0.9
  1
11\P[.433]
 40
0.1
 41
0.6
  0
LINE
  5
445
100
AcDbEntity
  8
SCHEME_DIMS
100
AcDbLine
 62
2
  6
CONTINUOUS
 10
7.1570428903
 20
1.1909806275
 11
6.1496521747
 21
1.1909806275
  0
LINE
  5
446
100
AcDbEntity
  8
SCHEME_DIMS
100
AcDbLine
 62
2
  6
CONTINUOUS
 10
8.2627825686
 20
1.6240514936
 11
6.1496521747
 21
1.6240514936
  0
LINE
  5
447
100
AcDbEntity
  8
SCHEME_DIMS
100
AcDbLine
 62
2
  6
CONTINUOUS
 10
6.2746521747
 20
1.1909806275
 11
6.2746521747
 21
1.4075160606
  0
LINE
  5
448
100
AcDbEntity
  8
SCHEME_DIMS
100
AcDbLine
 62
2
  6
CONTINUOUS
 10
6.2746521747
 20
1.6240514936
 11
6.2746521747
 21
1.4075160606
  0
LINE
  5
449
100
AcDbEntity
  8
SCHEME_DIMS
100
AcDbLine
 62
2
  6
CONTINUOUS
 10
6.2746521747
 20
1.4075160606
 11
6.2746521747
 21
1.833140488
  0
LINE
  5
44A
100
AcDbEntity
  8
SCHEME_DIMS
100
AcDbLine
 62
2
  6
CONTINUOUS
 10
6.2746521747
 20
1.833140488
 11
6.0508680648
 21
1.833140488
  0
INSERT
  5
44B
100
AcDbEntity
  8
SCHEME_DIMS
100
AcDbBlockReference
 62
2
  6
CONTINUOUS
  2
_FILLED
 10
6.2746521747
 20
1.1909806275
 41
0.1875
 42
0.1875
 43
0.1875
 50
270.0
  0
INSERT
  5
44C
100
AcDbEntity
  8
SCHEME_DIMS
100
AcDbBlockReference
 62
2
  6
CONTINUOUS
  2
_FILLED
 10
6.2746521747
 20
1.6240514936
 41
0.1875
 42
0.1875
 43
0.1875
 50
90.0
  0
ENDBLK
  5
44D
100
AcDbEntity
  8
0
  6
BYBLOCK
 62
0
100
AcDbBlockEnd
  0
ENDSEC
  0
SECTION
  2
ENTITIES
  0
MTEXT
  5
44E
100
AcDbEntity
  8
0
100
AcDbMText
 62
2
  6
CONTINUOUS
  7
TEXTSTYLE_2
 71
2
 72
1
 10
17.55
 20
15.685
 30
0.0
 11
1.0
 21
0.0
 31
0.0
 44
0.9
  1
REVISION HISTORY
 40
0.12
 41
1.536
  0
MTEXT
  5
44F
100
AcDbEntity
  8
0
100
AcDbMText
 62
2
  6
CONTINUOUS
  7
TEXTSTYLE_2
 71
2
 72
1
 10
14.25
 20
15.425
 30
0.0
 11
1.0
 21
0.0
 31
0.0
 44
0.9
  1
REV
 40
0.1
 41
0.24
  0
MTEXT
  5
450
100
AcDbEntity
  8
0
100
AcDbMText
 62
2
  6
CONTINUOUS
  7
TEXTSTYLE_2
 71
2
 72
1
 10
16.5
 20
15.425
 30
0.0
 11
1.0
 21
0.0
 31
0.0
 44
0.9
  1
DESCRIPTION
 40
0.1
 41
0.88
  0
MTEXT
  5
451
100
AcDbEntity
  8
0
100
AcDbMText
 62
2
  6
CONTINUOUS
  7
TEXTSTYLE_2
 71
2
 72
1
 10
20.4
 20
15.425
 30
0.0
 11
1.0
 21
0.0
 31
0.0
 44
0.9
  1
APPROVED
 40
0.1
 41
0.64
  0
MTEXT
  5
452
100
AcDbEntity
  8
0
100
AcDbMText
 62
2
  6
CONTINUOUS
  7
TEXTSTYLE_2
 71
2
 72
1
 10
19.15
 20
15.425
 30
0.0
 11
1.0
 21
0.0
 31
0.0
 44
0.9
  1
DATE
 40
0.1
 41
0.32
  0
MTEXT
  5
453
100
AcDbEntity
  8
0
100
AcDbMText
 62
2
  6
CONTINUOUS
  7
TEXTSTYLE_3
 71
2
 72
1
 10
13.575
 20
2.518895
 30
0.0
 11
1.0
 21
0.0
 31
0.0
 44
0.9
  1
OTHERWISE SPECIFIED
 40
0.07
 41
1.2635
  0
MTEXT
  5
454
100
AcDbEntity
  8
0
100
AcDbMText
 62
2
  6
CONTINUOUS
  7
TEXTSTYLE_2
 71
2
 72
1
 10
13.575
 20
1.675847
 30
0.0
 11
1.0
 21
0.0
 31
0.0
 44
0.9
  1
THIRD ANGLE PROJECTION
 40
0.1
 41
1.76
  0
MTEXT
  5
455
100
AcDbEntity
  8
0
100
AcDbMText
 62
2
  6
CONTINUOUS
  7
TEXTSTYLE_3
 71
2
 72
1
 10
13.575
 20
2.623895
 30
0.0
 11
1.0
 21
0.0
 31
0.0
 44
0.9
  1
DIMENSIONS ARE IN INCHES UNLESS
 40
0.07
 41
2.0615
  0
MTEXT
  5
456
100
AcDbEntity
  8
0
100
AcDbMText
 62
2
  6
CONTINUOUS
  7
TEXTSTYLE_3
 71
2
 72
1
 10
13.575
 20
2.413895
 30
0.0
 11
1.0
 21
0.0
 31
0.0
 44
0.9
  1
TOLERANCE ON ANGLE: \Fgdt;{\Fgdt;`}\Ftxt;3\Fgdt;{\Fgdt;~}
 40
0.07
 41
1.5248333333
  0
MTEXT
  5
457
100
AcDbEntity
  8
0
100
AcDbMText
 62
2
  6
CONTINUOUS
  7
TEXTSTYLE_3
 71
2
 72
1
 10
13.575
 20
1.993895
 30
0.0
 11
1.0
 21
0.0
 31
0.0
 44
0.9
  1
INTERPRET DIMENSIONS & TOLERANCES
 40
0.07
 41
2.1945
  0
MTEXT
  5
458
100
AcDbEntity
  8
0
100
AcDbMText
 62
2
  6
CONTINUOUS
  7
TEXTSTYLE_3
 71
2
 72
1
 10
13.575
 20
1.888895
 30
0.0
 11
1.0
 21
0.0
 31
0.0
 44
0.9
  1
PER ASME Y14.5M - 1994
 40
0.07
 41
1.463
  0
MTEXT
  5
459
100
AcDbEntity
  8
0
100
AcDbMText
 62
2
  6
CONTINUOUS
  7
STANDARD
 71
1
 72
1
 10
17.55
 20
1.32
 30
0.0
 11
1.0
 21
0.0
 31
0.0
 44
0.9
  1
DRAWING NO.
 40
0.08
 41
0.88
  0
MTEXT
  5
45A
100
AcDbEntity
  8
0
100
AcDbMText
 62
2
  6
CONTINUOUS
  7
TEXTSTYLE_5
 71
2
 72
1
 10
15.7
 20
2.379432
 30
0.0
 11
1.0
 21
0.0
 31
0.0
 44
0.9
  1
and is proprietary in general
 40
0.08
 41
1.972
  0
MTEXT
  5
45B
100
AcDbEntity
  8
0
100
AcDbMText
 62
2
  6
CONTINUOUS
  7
TEXTSTYLE_5
 71
2
 72
1
 10
15.7
 20
2.259432
 30
0.0
 11
1.0
 21
0.0
 31
0.0
 44
0.9
  1
and in detail.  Its contents
 40
0.08
 41
1.904
  0
MTEXT
  5
45C
100
AcDbEntity
  8
0
100
AcDbMText
 62
2
  6
CONTINUOUS
  7
TEXTSTYLE_5
 71
2
 72
1
 10
15.7
 20
2.139432
 30
0.0
 11
1.0
 21
0.0
 31
0.0
 44
0.9
  1
shall not be revealed to
 40
0.08
 41
1.632
  0
MTEXT
  5
45D
100
AcDbEntity
  8
0
100
AcDbMText
 62
2
  6
CONTINUOUS
  7
TEXTSTYLE_5
 71
2
 72
1
 10
15.7
 20
2.019432
 30
0.0
 11
1.0
 21
0.0
 31
0.0
 44
0.9
  1
outside parties without
 40
0.08
 41
1.564
  0
MTEXT
  5
45E
100
AcDbEntity
  8
0
100
AcDbMText
 62
2
  6
CONTINUOUS
  7
TEXTSTYLE_5
 71
2
 72
1
 10
15.7
 20
1.899432
 30
0.0
 11
1.0
 21
0.0
 31
0.0
 44
0.9
  1
written consent of BANNER.
 40
0.08
 41
1.768
  0
MTEXT
  5
45F
100
AcDbEntity
  8
0
100
AcDbMText
 62
2
  6
CONTINUOUS
  7
STANDARD
 71
1
 72
1
 10
14.75
 20
1.38
 30
0.0
 11
1.0
 21
0.0
 31
0.0
 44
0.9
  1
APPROVED BY
 40
0.08
 41
0.88
  0
MTEXT
  5
460
100
AcDbEntity
  8
0
100
AcDbMText
 62
2
  6
CONTINUOUS
  7
STANDARD
 71
1
 72
1
 10
14.75
 20
1.04
 30
0.0
 11
1.0
 21
0.0
 31
0.0
 44
0.9
  1
APPROVED BY
 40
0.08
 41
0.88
  0
MTEXT
  5
461
100
AcDbEntity
  8
0
100
AcDbMText
 62
2
  6
CONTINUOUS
  7
TEXTSTYLE_4
 71
1
 72
1
 10
13.577026
 20
2.308895
 30
0.0
 11
1.0
 21
0.0
 31
0.0
 44
0.9
  1
{\Fgdt;`}\Ftxt;.02
 40
0.07
 41
0.2811666667
  0
MTEXT
  5
462
100
AcDbEntity
  8
0
100
AcDbMText
 62
2
  6
CONTINUOUS
  7
TEXTSTYLE_4
 71
1
 72
1
 10
13.577026
 20
2.098895
 30
0.0
 11
1.0
 21
0.0
 31
0.0
 44
0.9
  1
{\Fgdt;`}\Ftxt;.005
 40
0.07
 41
0.3476666667
  0
MTEXT
  5
463
100
AcDbEntity
  8
0
100
AcDbMText
 62
2
  6
CONTINUOUS
  7
TEXTSTYLE_4
 71
1
 72
1
 10
13.577026
 20
2.203895
 30
0.0
 11
1.0
 21
0.0
 31
0.0
 44
0.9
  1
{\Fgdt;`}\Ftxt;.01
 40
0.07
 41
0.2811666667
  0
MTEXT
  5
464
100
AcDbEntity
  8
0
100
AcDbMText
 62
2
  6
CONTINUOUS
  7
TEXTSTYLE_3
 71
3
 72
1
 10
13.488723
 20
2.098895
 30
0.0
 11
1.0
 21
0.0
 31
0.0
 44
0.9
  1
.XXX
 40
0.07
 41
0.266
  0
MTEXT
  5
465
100
AcDbEntity
  8
0
100
AcDbMText
 62
2
  6
CONTINUOUS
  7
TEXTSTYLE_3
 71
3
 72
1
 10
13.488723
 20
2.203895
 30
0.0
 11
1.0
 21
0.0
 31
0.0
 44
0.9
  1
.XX
 40
0.07
 41
0.1995
  0
MTEXT
  5
466
100
AcDbEntity
  8
0
100
AcDbMText
 62
2
  6
CONTINUOUS
  7
TEXTSTYLE_3
 71
3
 72
1
 10
13.488723
 20
2.308895
 30
0.0
 11
1.0
 21
0.0
 31
0.0
 44
0.9
  1
.X
 40
0.07
 41
0.133
  0
MTEXT
  5
467
100
AcDbEntity
  8
0
100
AcDbMText
 62
2
  6
CONTINUOUS
  7
STANDARD
 71
1
 72
1
 10
14.75
 20
1.72
 30
0.0
 11
1.0
 21
0.0
 31
0.0
 44
0.9
  1
DRAWN BY
 40
0.08
 41
0.64
  0
MTEXT
  5
468
100
AcDbEntity
  8
0
100
AcDbMText
 62
2
  6
CONTINUOUS
  7
TEXTSTYLE_2
 71
1
 72
1
 10
16.75
 20
2.08
 30
0.0
 11
1.0
 21
0.0
 31
0.0
 44
0.9
  1
TITLE
 40
0.1
 41
0.4
  0
MTEXT
  5
469
100
AcDbEntity
  8
0
100
AcDbMText
 62
2
  6
CONTINUOUS
  7
STANDARD
 71
1
 72
1
 10
16.75
 20
1.32
 30
0.0
 11
1.0
 21
0.0
 31
0.0
 44
0.9
  1
SIZE
 40
0.08
 41
0.32
  0
MTEXT
  5
46A
100
AcDbEntity
  8
0
100
AcDbMText
 62
2
  6
CONTINUOUS
  7
STANDARD
 71
1
 72
1
 10
16.75
 20
0.95
 30
0.0
 11
1.0
 21
0.0
 31
0.0
 44
0.9
  1
SCALE
 40
0.08
 41
0.4
  0
MTEXT
  5
46B
100
AcDbEntity
  8
0
100
AcDbMText
 62
2
  6
CONTINUOUS
  7
STANDARD
 71
1
 72
1
 10
16.113
 20
1.38
 30
0.0
 11
1.0
 21
0.0
 31
0.0
 44
0.9
  1
DATE
 40
0.08
 41
0.32
  0
MTEXT
  5
46C
100
AcDbEntity
  8
0
100
AcDbMText
 62
2
  6
CONTINUOUS
  7
STANDARD
 71
1
 72
1
 10
16.113
 20
1.04
 30
0.0
 11
1.0
 21
0.0
 31
0.0
 44
0.9
  1
DATE
 40
0.08
 41
0.32
  0
MTEXT
  5
46D
100
AcDbEntity
  8
0
100
AcDbMText
 62
2
  6
CONTINUOUS
  7
STANDARD
 71
1
 72
1
 10
16.113
 20
1.72
 30
0.0
 11
1.0
 21
0.0
 31
0.0
 44
0.9
  1
DATE
 40
0.08
 41
0.32
  0
MTEXT
  5
46E
100
AcDbEntity
  8
0
100
AcDbMText
 62
2
  6
CONTINUOUS
  7
TEXTSTYLE_2
 71
2
 72
1
 10
17.17
 20
1.2
 30
0.0
 11
1.0
 21
0.0
 31
0.0
 44
0.9
  1
C
 40
0.1
 41
0.08
  0
MTEXT
  5
46F
100
AcDbEntity
  8
0
100
AcDbMText
 62
2
  6
CONTINUOUS
  7
TEXTSTYLE_5
 71
2
 72
1
 10
15.7
 20
2.499432
 30
0.0
 11
1.0
 21
0.0
 31
0.0
 44
0.9
  1
of BANNER ENGINEERING CORP.
 40
0.08
 41
1.836
  0
MTEXT
  5
470
100
AcDbEntity
  8
0
100
AcDbMText
 62
2
  6
CONTINUOUS
  7
TEXTSTYLE_5
 71
2
 72
1
 10
15.7
 20
2.619432
 30
0.0
 11
1.0
 21
0.0
 31
0.0
 44
0.9
  1
This drawing is the property
 40
0.08
 41
1.904
  0
MTEXT
  5
471
100
AcDbEntity
  8
0
100
AcDbMText
 62
2
  6
CONTINUOUS
  7
TEXTSTYLE_2
 71
2
 72
1
 10
19.7
 20
2.2764
 30
0.0
 11
1.0
 21
0.0
 31
0.0
 44
0.9
  1
MINNEAPOLIS, MN 55440
 40
0.1
 41
1.68
  0
MTEXT
  5
472
100
AcDbEntity
  8
0
100
AcDbMText
 62
2
  6
CONTINUOUS
  7
STANDARD
 71
1
 72
1
 10
18.925
 20
0.95
 30
0.0
 11
1.0
 21
0.0
 31
0.0
 44
0.9
  1
SHEET
 40
0.08
 41
0.4
  0
MTEXT
  5
473
100
AcDbEntity
  8
0
100
AcDbMText
 62
2
  6
CONTINUOUS
  7
STANDARD
 71
1
 72
1
 10
20.3
 20
1.32
 30
0.0
 11
1.0
 21
0.0
 31
0.0
 44
0.9
  1
REV.
 40
0.08
 41
0.32
  0
MTEXT
  5
474
100
AcDbEntity
  8
0
100
AcDbMText
 62
2
  6
CONTINUOUS
  7
STANDARD
 71
3
 72
1
 10
21.05
 20
0.698443
 30
0.0
 11
1.0
 21
0.0
 31
0.0
 44
0.9
  1
PRO/E
 40
0.07
 41
0.35
  0
MTEXT
  5
475
100
AcDbEntity
  8
0
100
AcDbMText
 62
2
  6
CONTINUOUS
  7
TEXTSTYLE_6
 71
2
 72
1
 10
19.7
 20
2.614049
 30
0.0
 11
1.0
 21
0.0
 31
0.0
 44
0.9
  1
BANNER ENGINEERING CORP.
 40
0.12
 41
2.6496
  0
MTEXT
  5
476
100
AcDbEntity
  8
0
100
AcDbMText
 62
2
  6
CONTINUOUS
  7
STANDARD
 71
3
 72
1
 10
20.985
 20
2.8
 30
0.0
 11
1.0
 21
0.0
 31
0.0
 44
0.9
  1
ALL SHEETS ARE THE SAME REVISION STATUS
 40
0.08
 41
3.12
  0
MTEXT
  5
477
100
AcDbEntity
  8
0
100
AcDbMText
 62
2
  6
CONTINUOUS
  7
TEXTSTYLE_2
 71
2
 72
1
 10
19.7
 20
2.4354
 30
0.0
 11
1.0
 21
0.0
 31
0.0
 44
0.9
  1
P.O. BOX 9414
 40
0.1
 41
1.04
  0
MTEXT
  5
478
100
AcDbEntity
  8
0
100
AcDbMText
 62
2
  6
CONTINUOUS
  7
TEXTSTYLE_2
 71
2
 72
1
 10
12.257
 20
15.95
 30
0.0
 11
1.0
 21
0.0
 31
0.0
 44
0.9
  1
4
 40
0.1
 41
0.08
  0
MTEXT
  5
479
100
AcDbEntity
  8
0
100
AcDbMText
 62
2
  6
CONTINUOUS
  7
TEXTSTYLE_2
 71
2
 72
1
 10
12.257
 20
0.65
 30
0.0
 11
1.0
 21
0.0
 31
0.0
 44
0.9
  1
4
 40
0.1
 41
0.08
  0
MTEXT
  5
47A
100
AcDbEntity
  8
0
100
AcDbMText
 62
2
  6
CONTINUOUS
  7
TEXTSTYLE_2
 71
3
 72
1
 10
0.864
 20
6.375
 30
0.0
 11
1.0
 21
0.0
 31
0.0
 44
0.9
  1
B
 40
0.1
 41
0.08
  0
MTEXT
  5
47B
100
AcDbEntity
  8
0
100
AcDbMText
 62
2
  6
CONTINUOUS
  7
TEXTSTYLE_2
 71
1
 72
1
 10
21.15
 20
6.375
 30
0.0
 11
1.0
 21
0.0
 31
0.0
 44
0.9
  1
B
 40
0.1
 41
0.08
  0
MTEXT
  5
47C
100
AcDbEntity
  8
0
100
AcDbMText
 62
2
  6
CONTINUOUS
  7
TEXTSTYLE_2
 71
3
 72
1
 10
0.864
 20
2.525
 30
0.0
 11
1.0
 21
0.0
 31
0.0
 44
0.9
  1
A
 40
0.1
 41
0.08
  0
MTEXT
  5
47D
100
AcDbEntity
  8
0
100
AcDbMText
 62
2
  6
CONTINUOUS
  7
TEXTSTYLE_2
 71
1
 72
1
 10
21.15
 20
2.525
 30
0.0
 11
1.0
 21
0.0
 31
0.0
 44
0.9
  1
A
 40
0.1
 41
0.08
  0
MTEXT
  5
47E
100
AcDbEntity
  8
0
100
AcDbMText
 62
2
  6
CONTINUOUS
  7
TEXTSTYLE_2
 71
3
 72
1
 10
0.864
 20
14.075
 30
0.0
 11
1.0
 21
0.0
 31
0.0
 44
0.9
  1
D
 40
0.1
 41
0.08
  0
MTEXT
  5
47F
100
AcDbEntity
  8
0
100
AcDbMText
 62
2
  6
CONTINUOUS
  7
TEXTSTYLE_2
 71
1
 72
1
 10
21.15
 20
14.075
 30
0.0
 11
1.0
 21
0.0
 31
0.0
 44
0.9
  1
D
 40
0.1
 41
0.08
  0
MTEXT
  5
480
100
AcDbEntity
  8
0
100
AcDbMText
 62
2
  6
CONTINUOUS
  7
TEXTSTYLE_2
 71
3
 72
1
 10
0.864
 20
10.225
 30
0.0
 11
1.0
 21
0.0
 31
0.0
 44
0.9
  1
C
 40
0.1
 41
0.08
  0
MTEXT
  5
481
100
AcDbEntity
  8
0
100
AcDbMText
 62
2
  6
CONTINUOUS
  7
TEXTSTYLE_2
 71
1
 72
1
 10
21.15
 20
10.225
 30
0.0
 11
1.0
 21
0.0
 31
0.0
 44
0.9
  1
C
 40
0.1
 41
0.08
  0
MTEXT
  5
482
100
AcDbEntity
  8
0
100
AcDbMText
 62
2
  6
CONTINUOUS
  7
TEXTSTYLE_2
 71
2
 72
1
 10
14.757
 20
0.65
 30
0.0
 11
1.0
 21
0.0
 31
0.0
 44
0.9
  1
3
 40
0.1
 41
0.08
  0
MTEXT
  5
483
100
AcDbEntity
  8
0
100
AcDbMText
 62
2
  6
CONTINUOUS
  7
TEXTSTYLE_2
 71
2
 72
1
 10
14.757
 20
15.95
 30
0.0
 11
1.0
 21
0.0
 31
0.0
 44
0.9
  1
3
 40
0.1
 41
0.08
  0
MTEXT
  5
484
100
AcDbEntity
  8
0
100
AcDbMText
 62
2
  6
CONTINUOUS
  7
TEXTSTYLE_2
 71
2
 72
1
 10
17.257
 20
15.95
 30
0.0
 11
1.0
 21
0.0
 31
0.0
 44
0.9
  1
2
 40
0.1
 41
0.08
  0
MTEXT
  5
485
100
AcDbEntity
  8
0
100
AcDbMText
 62
2
  6
CONTINUOUS
  7
TEXTSTYLE_2
 71
2
 72
1
 10
17.257
 20
0.65
 30
0.0
 11
1.0
 21
0.0
 31
0.0
 44
0.9
  1
2
 40
0.1
 41
0.08
  0
MTEXT
  5
486
100
AcDbEntity
  8
0
100
AcDbMText
 62
2
  6
CONTINUOUS
  7
TEXTSTYLE_2
 71
2
 72
1
 10
19.757
 20
0.65
 30
0.0
 11
1.0
 21
0.0
 31
0.0
 44
0.9
  1
1
 40
0.1
 41
0.08
  0
MTEXT
  5
487
100
AcDbEntity
  8
0
100
AcDbMText
 62
2
  6
CONTINUOUS
  7
TEXTSTYLE_2
 71
2
 72
1
 10
19.757
 20
15.95
 30
0.0
 11
1.0
 21
0.0
 31
0.0
 44
0.9
  1
1
 40
0.1
 41
0.08
  0
MTEXT
  5
488
100
AcDbEntity
  8
0
100
AcDbMText
 62
2
  6
CONTINUOUS
  7
TEXTSTYLE_2
 71
2
 72
1
 10
2.257
 20
0.65
 30
0.0
 11
1.0
 21
0.0
 31
0.0
 44
0.9
  1
8
 40
0.1
 41
0.08
  0
MTEXT
  5
489
100
AcDbEntity
  8
0
100
AcDbMText
 62
2
  6
CONTINUOUS
  7
TEXTSTYLE_2
 71
2
 72
1
 10
4.757
 20
0.65
 30
0.0
 11
1.0
 21
0.0
 31
0.0
 44
0.9
  1
7
 40
0.1
 41
0.08
  0
MTEXT
  5
48A
100
AcDbEntity
  8
0
100
AcDbMText
 62
2
  6
CONTINUOUS
  7
TEXTSTYLE_2
 71
2
 72
1
 10
7.257
 20
0.65
 30
0.0
 11
1.0
 21
0.0
 31
0.0
 44
0.9
  1
6
 40
0.1
 41
0.08
  0
MTEXT
  5
48B
100
AcDbEntity
  8
0
100
AcDbMText
 62
2
  6
CONTINUOUS
  7
TEXTSTYLE_2
 71
2
 72
1
 10
9.757
 20
0.65
 30
0.0
 11
1.0
 21
0.0
 31
0.0
 44
0.9
  1
5
 40
0.1
 41
0.08
  0
MTEXT
  5
48C
100
AcDbEntity
  8
0
100
AcDbMText
 62
2
  6
CONTINUOUS
  7
TEXTSTYLE_2
 71
2
 72
1
 10
9.757
 20
15.95
 30
0.0
 11
1.0
 21
0.0
 31
0.0
 44
0.9
  1
5
 40
0.1
 41
0.08
  0
MTEXT
  5
48D
100
AcDbEntity
  8
0
100
AcDbMText
 62
2
  6
CONTINUOUS
  7
TEXTSTYLE_2
 71
2
 72
1
 10
7.257
 20
15.95
 30
0.0
 11
1.0
 21
0.0
 31
0.0
 44
0.9
  1
6
 40
0.1
 41
0.08
  0
MTEXT
  5
48E
100
AcDbEntity
  8
0
100
AcDbMText
 62
2
  6
CONTINUOUS
  7
TEXTSTYLE_2
 71
2
 72
1
 10
4.757
 20
15.95
 30
0.0
 11
1.0
 21
0.0
 31
0.0
 44
0.9
  1
7
 40
0.1
 41
0.08
  0
MTEXT
  5
48F
100
AcDbEntity
  8
0
100
AcDbMText
 62
2
  6
CONTINUOUS
  7
TEXTSTYLE_2
 71
2
 72
1
 10
2.257
 20
15.95
 30
0.0
 11
1.0
 21
0.0
 31
0.0
 44
0.9
  1
8
 40
0.1
 41
0.08
  0
MTEXT
  5
490
100
AcDbEntity
  8
0
100
AcDbMText
 62
2
  6
CONTINUOUS
  7
STANDARD
 71
1
 72
1
 10
17.2749123633
 20
0.9184107931
 30
0.0
 11
1.0
 21
0.0
 31
0.0
 44
0.9
  1
1:1
 40
0.1
 41
0.3
  0
MTEXT
  5
491
100
AcDbEntity
  8
0
100
AcDbMText
 62
2
  6
CONTINUOUS
  7
STANDARD
 71
1
 72
1
 10
19.4499123633
 20
0.9184107931
 30
0.0
 11
1.0
 21
0.0
 31
0.0
 44
0.9
  1
1 OF 1
 40
0.1
 41
0.6
  0
MTEXT
  5
492
100
AcDbEntity
  8
0
100
AcDbMText
 62
7
  6
CONTINUOUS
  7
STANDARD
 71
1
 72
1
 10
18.5204017884
 20
1.2400373234
 30
0.0
 11
1.0
 21
0.0
 31
0.0
 44
0.9
  1
144929
 40
0.12
 41
0.72
  0
INSERT
  5
493
100
AcDbEntity
  8
0
100
AcDbBlockReference
 62
2
  6
CONTINUOUS
  2
BANNER_LOGO_TITLEBLOCK_BL0
 10
17.5778140653
 20
2.4016160549
  0
DIMENSION
  5
494
100
AcDbEntity
  8
SCHEME_DIMS
100
AcDbDimension
 62
2
  6
CONTINUOUS
  2
*D0
 10
6.8580011231
 20
8.0202403585
 11
8.5743397058
 21
7.9452403585
 70
160
 71
2
 42
91.0
  3
DIMSTYLE_1
100
AcDbAlignedDimension
 13
10.4406782884
 23
5.7313736499
 14
6.8580011231
 24
5.7313736499
 50
180.0
100
AcDbRotatedDimension
  0
DIMENSION
  5
495
100
AcDbEntity
  8
SCHEME_DIMS
100
AcDbDimension
 62
2
  6
CONTINUOUS
  2
*D1
 10
5.9886918877
 20
3.916905146
 11
5.9136918877
 21
5.5938736499
 70
160
 71
2
 42
89.0
  3
DIMSTYLE_1
100
AcDbAlignedDimension
 13
7.1570428903
 23
7.4208421539
 14
7.1570428903
 24
3.916905146
 50
270.0
100
AcDbRotatedDimension
  0
DIMENSION
  5
496
100
AcDbEntity
  8
SCHEME_DIMS
100
AcDbDimension
 62
2
  6
CONTINUOUS
  2
*D2
 10
11.6317117884
 20
14.6164867895
 11
11.5317117884
 21
13.0060537186
 70
160
 71
2
 42
78.0
  3
DIMSTYLE_2
100
AcDbAlignedDimension
 13
10.1440234194
 23
11.5456206477
 14
10.1440234194
 24
14.6164867895
 50
90.0
100
AcDbRotatedDimension
  0
DIMENSION
  5
497
100
AcDbEntity
  8
SCHEME_DIMS
100
AcDbDimension
 62
2
  6
CONTINUOUS
  2
*D3
 10
7.2171559922
 20
10.6728164786
 11
8.4993397058
 21
10.5978164786
 70
160
 71
2
 42
72.7549326514
  3
DIMSTYLE_2
100
AcDbAlignedDimension
 13
10.0815234194
 23
11.4831206477
 14
7.2171559922
 24
11.4831206477
 50
180.0
100
AcDbRotatedDimension
  0
DIMENSION
  5
498
100
AcDbEntity
  8
SCHEME_DIMS
100
AcDbDimension
 62
2
  6
CONTINUOUS
  2
*D4
 10
5.4780321297
 20
15.3448332462
 11
5.3780321297
 21
13.2619592304
 70
160
 71
2
 42
102.0
  3
DIMSTYLE_2
100
AcDbAlignedDimension
 13
6.9779824434
 23
11.3290852147
 14
8.2924636014
 24
15.3448332462
 50
90.0
100
AcDbRotatedDimension
  0
DIMENSION
  5
499
100
AcDbEntity
  8
SCHEME_DIMS
100
AcDbDimension
 62
2
  6
CONTINUOUS
  2
*D5
 10
5.488525652
 20
9.6288981128
 11
5.338525652
 21
8.9991737034
 70
160
 71
2
 42
28.18
  3
DIMSTYLE_2
100
AcDbAlignedDimension
 13
6.7872145785
 23
8.5194492939
 14
6.7652029017
 24
9.6288981128
 50
90.0
100
AcDbRotatedDimension
  0
DIMENSION
  5
49A
100
AcDbEntity
  8
SCHEME_DIMS
100
AcDbDimension
 62
2
  6
CONTINUOUS
  2
*D6
 10
11.0848695524
 20
9.3101973254
 11
11.6348695524
 21
9.8820253128
 70
160
 71
1
 42
8.095
  3
DIMSTYLE_2
100
AcDbAlignedDimension
 13
10.4978915065
 23
9.6288981128
 14
8.9247903437
 24
9.3101973254
 50
270.0
100
AcDbRotatedDimension
  0
DIMENSION
  5
49B
100
AcDbEntity
  8
SCHEME_DIMS
100
AcDbDimension
 62
2
  6
CONTINUOUS
  2
*D7
 10
6.2746521747
 20
1.6240514936
 11
5.4508680648
 21
1.758140488
 70
160
 71
3
 42
11.0
  3
DIMSTYLE_2
100
AcDbAlignedDimension
 13
7.1570428903
 23
1.1909806275
 14
8.2627825686
 24
1.6240514936
 50
90.0
100
AcDbRotatedDimension
  0
LINE
  5
49C
100
AcDbEntity
  8
0
100
AcDbLine
 62
2
  6
CONTINUOUS
 10
16.7
 20
0.75
 11
14.7
 21
0.75
  0
LINE
  5
49D
100
AcDbEntity
  8
0
100
AcDbLine
 62
2
  6
CONTINUOUS
 10
16.7
 20
0.75
 11
16.7
 21
2.67
  0
LINE
  5
49E
100
AcDbEntity
  8
0
100
AcDbLine
 62
2
  6
CONTINUOUS
 10
16.7
 20
2.67
 11
14.7
 21
2.67
  0
LINE
  5
49F
100
AcDbEntity
  8
0
100
AcDbLine
 62
2
  6
CONTINUOUS
 10
14.7
 20
0.75
 11
14.7
 21
2.67
  0
LINE
  5
4A0
100
AcDbEntity
  8
0
100
AcDbLine
 62
2
  6
CONTINUOUS
 10
21.05
 20
0.75
 11
16.7
 21
0.75
  0
LINE
  5
4A1
100
AcDbEntity
  8
0
100
AcDbLine
 62
2
  6
CONTINUOUS
 10
21.05
 20
0.75
 11
21.05
 21
2.67
  0
LINE
  5
4A2
100
AcDbEntity
  8
0
100
AcDbLine
 62
2
  6
CONTINUOUS
 10
21.05
 20
2.67
 11
16.7
 21
2.67
  0
LINE
  5
4A3
100
AcDbEntity
  8
0
100
AcDbLine
 62
2
  6
CONTINUOUS
 10
16.7
 20
0.75
 11
16.7
 21
2.67
  0
MTEXT
  5
4A4
100
AcDbEntity
  8
NOTES
100
AcDbMText
 62
7
  6
CONTINUOUS
  7
STANDARD
 71
2
 72
1
 10
20.825
 20
1.23
 30
0.0
 11
1.0
 21
0.0
 31
0.0
 44
0.9
  1
1
 40
0.1
 41
0.1
  0
MTEXT
  5
4A5
100
AcDbEntity
  8
NOTES
100
AcDbMText
 62
7
  6
CONTINUOUS
  7
STANDARD
 71
2
 72
1
 10
18.875
 20
1.83
 30
0.0
 11
1.0
 21
0.0
 31
0.0
 44
0.9
  1
LED_A70___4-__\PWEB CAD DRAWINGS 2D/3D
 40
0.1
 41
2.2
  0
LEADER
  5
4A6
100
AcDbEntity
  8
NOTES
100
AcDbLeader
 62
2
  6
CONTINUOUS
  3
STANDARD
 71
1
 72
0
 73
0
 75
0
 40
0.1
 41
0.6
 76
3
 10
9.1620835464
 20
5.5373737025
 30
0.0
 10
11.3404206119
 20
6.2087055314
 30
0.0
 10
11.5904206119
 20
6.2087055314
 30
0.0
340
4A7
1001
ACAD
1000
DSTYLE
1002
{
1070
77
1070
0
1002
}
  0
MTEXT
  5
4A7
102
{ACAD_REACTORS
330
4A6
102
}
100
AcDbEntity
  8
NOTES
100
AcDbMText
 62
2
  6
CONTINUOUS
  7
STANDARD
 71
1
 72
1
 10
11.5904206119
 20
6.2587055314
 30
0.0
 11
1.0
 21
0.0
 31
0.0
 44
0.9
  1
WINDOW\P(GLASS OR PLASTIC\POPTIONS AVAILABLE)
 40
0.1
 41
1.8
  0
LEADER
  5
4A8
100
AcDbEntity
  8
NOTES
100
AcDbLeader
 62
2
  6
CONTINUOUS
  3
STANDARD
 71
1
 72
0
 73
0
 75
0
 40
0.1
 41
1.9
 76
3
 10
8.8069103043
 20
9.1857531025
 30
0.0
 10
11.3682033507
 20
8.0364279599
 30
0.0
 10
11.6182033507
 20
8.0364279599
 30
0.0
340
4A9
1001
ACAD
1000
DSTYLE
1002
{
1070
77
1070
0
1002
}
  0
MTEXT
  5
4A9
102
{ACAD_REACTORS
330
4A8
102
}
100
AcDbEntity
  8
NOTES
100
AcDbMText
 62
2
  6
CONTINUOUS
  7
STANDARD
 71
1
 72
1
 10
11.6182033507
 20
8.0864279599
 30
0.0
 11
1.0
 21
0.0
 31
0.0
 44
0.9
  1
POT ADJUSTING COVER\PONLY ON ADJUSTABLE INTENSITY MODELS
 40
0.1
 41
3.5
  0
LEADER
  5
4AA
100
AcDbEntity
  8
NOTES
100
AcDbLeader
 62
2
  6
CONTINUOUS
  3
STANDARD
 71
1
 72
0
 73
0
 75
0
 40
0.1
 41
2.5
 76
3
 10
10.1604399757
 20
14.6786854751
 30
0.0
 10
10.801063329
 20
15.1258611645
 30
0.0
 10
11.051063329
 20
15.1258611645
 30
0.0
340
4AB
1001
ACAD
1000
DSTYLE
1002
{
1070
77
1070
0
1002
}
  0
MTEXT
  5
4AB
102
{ACAD_REACTORS
330
4AA
102
}
100
AcDbEntity
  8
NOTES
100
AcDbMText
 62
2
  6
CONTINUOUS
  7
STANDARD
 71
1
 72
1
 10
11.051063329
 20
15.1758611645
 30
0.0
 11
1.0
 21
0.0
 31
0.0
 44
0.9
  1
4X 1/4-20 X 13 [.50] DEEP
 40
0.1
 41
2.5
  0
LINE
  5
4AC
100
AcDbEntity
  8
0
100
AcDbLine
 62
7
  6
CONTINUOUS
 10
0.814
 20
8.336603
 11
0.814
 21
8.163397
  0
LINE
  5
4AD
100
AcDbEntity
  8
0
100
AcDbLine
 62
7
  6
CONTINUOUS
 10
0.964
 20
15.75
 11
0.964
 21
0.75
  0
LINE
  5
4AE
100
AcDbEntity
  8
0
100
AcDbLine
 62
7
  6
CONTINUOUS
 10
10.920397
 20
0.6
 11
11.093603
 21
0.6
  0
LINE
  5
4AF
100
AcDbEntity
  8
0
100
AcDbLine
 62
7
  6
CONTINUOUS
 10
0.964
 20
0.75
 11
21.05
 21
0.75
  0
LINE
  5
4B0
100
AcDbEntity
  8
0
100
AcDbLine
 62
7
  6
CONTINUOUS
 10
3.507
 20
0.75
 11
3.507
 21
0.5
  0
LINE
  5
4B1
100
AcDbEntity
  8
0
100
AcDbLine
 62
7
  6
CONTINUOUS
 10
3.507
 20
15.75
 11
3.507
 21
16.0
  0
LINE
  5
4B2
100
AcDbEntity
  8
0
100
AcDbLine
 62
7
  6
CONTINUOUS
 10
13.685185
 20
1.306972
 11
14.291576
 21
1.376365
  0
LINE
  5
4B3
100
AcDbEntity
  8
0
100
AcDbLine
 62
7
  6
CONTINUOUS
 10
16.7
 20
1.0
 11
21.05
 21
1.0
  0
LINE
  5
4B4
100
AcDbEntity
  8
0
100
AcDbLine
 62
7
  6
CONTINUOUS
 10
14.7
 20
1.09
 11
16.7
 21
1.09
  0
LINE
  5
4B5
100
AcDbEntity
  8
0
100
AcDbLine
 62
7
  6
CONTINUOUS
 10
12.758424
 20
1.124274
 11
12.980515
 21
1.124274
  0
LINE
  5
4B6
100
AcDbEntity
  8
0
100
AcDbLine
 62
7
  6
CONTINUOUS
 10
13.030515
 20
1.124274
 11
13.130515
 21
1.124274
  0
LINE
  5
4B7
100
AcDbEntity
  8
0
100
AcDbLine
 62
7
  6
CONTINUOUS
 10
13.180515
 20
1.124274
 11
13.402606
 21
1.124274
  0
LINE
  5
4B8
100
AcDbEntity
  8
0
100
AcDbLine
 62
7
  6
CONTINUOUS
 10
13.585185
 20
1.124274
 11
13.863337
 21
1.124274
  0
LINE
  5
4B9
100
AcDbEntity
  8
0
100
AcDbLine
 62
7
  6
CONTINUOUS
 10
13.913337
 20
1.124274
 11
14.063423
 21
1.124274
  0
LINE
  5
4BA
100
AcDbEntity
  8
0
100
AcDbLine
 62
7
  6
CONTINUOUS
 10
14.113423
 20
1.124274
 11
14.391576
 21
1.124274
  0
LINE
  5
4BB
100
AcDbEntity
  8
0
100
AcDbLine
 62
7
  6
CONTINUOUS
 10
16.7
 20
1.37
 11
21.05
 21
1.37
  0
LINE
  5
4BC
100
AcDbEntity
  8
0
100
AcDbLine
 62
7
  6
CONTINUOUS
 10
14.7
 20
1.43
 11
16.7
 21
1.43
  0
LINE
  5
4BD
100
AcDbEntity
  8
0
100
AcDbLine
 62
7
  6
CONTINUOUS
 10
14.291576
 20
0.872183
 11
13.685185
 21
0.941576
  0
LINE
  5
4BE
100
AcDbEntity
  8
0
100
AcDbLine
 62
7
  6
CONTINUOUS
 10
12.45
 20
1.77
 11
16.7
 21
1.77
  0
LINE
  5
4BF
100
AcDbEntity
  8
0
100
AcDbLine
 62
7
  6
CONTINUOUS
 10
16.7
 20
2.13
 11
21.05
 21
2.13
  0
LINE
  5
4C0
100
AcDbEntity
  8
0
100
AcDbLine
 62
7
  6
CONTINUOUS
 10
21.05
 20
2.67
 11
12.45
 21
2.67
  0
LINE
  5
4C1
100
AcDbEntity
  8
0
100
AcDbLine
 62
7
  6
CONTINUOUS
 10
6.007
 20
0.75
 11
6.007
 21
0.5
  0
LINE
  5
4C2
100
AcDbEntity
  8
0
100
AcDbLine
 62
7
  6
CONTINUOUS
 10
6.007
 20
15.75
 11
6.007
 21
16.0
  0
LINE
  5
4C3
100
AcDbEntity
  8
0
100
AcDbLine
 62
7
  6
CONTINUOUS
 10
0.814
 20
8.163397
 11
0.964
 21
8.25
  0
LINE
  5
4C4
100
AcDbEntity
  8
0
100
AcDbLine
 62
7
  6
CONTINUOUS
 10
0.964
 20
8.25
 11
0.814
 21
8.336603
  0
LINE
  5
4C5
100
AcDbEntity
  8
0
100
AcDbLine
 62
7
  6
CONTINUOUS
 10
0.964
 20
4.4
 11
0.714
 21
4.4
  0
LINE
  5
4C6
100
AcDbEntity
  8
0
100
AcDbLine
 62
7
  6
CONTINUOUS
 10
21.05
 20
4.4
 11
21.3
 21
4.4
  0
LINE
  5
4C7
100
AcDbEntity
  8
0
100
AcDbLine
 62
7
  6
CONTINUOUS
 10
11.093603
 20
0.6
 11
11.007
 21
0.75
  0
LINE
  5
4C8
100
AcDbEntity
  8
0
100
AcDbLine
 62
7
  6
CONTINUOUS
 10
11.007
 20
15.75
 11
11.093603
 21
15.9
  0
LINE
  5
4C9
100
AcDbEntity
  8
0
100
AcDbLine
 62
7
  6
CONTINUOUS
 10
8.507
 20
0.75
 11
8.507
 21
0.5
  0
LINE
  5
4CA
100
AcDbEntity
  8
0
100
AcDbLine
 62
7
  6
CONTINUOUS
 10
8.507
 20
15.75
 11
8.507
 21
16.0
  0
LINE
  5
4CB
100
AcDbEntity
  8
0
100
AcDbLine
 62
7
  6
CONTINUOUS
 10
11.007
 20
0.75
 11
11.007
 21
0.5
  0
LINE
  5
4CC
100
AcDbEntity
  8
0
100
AcDbLine
 62
7
  6
CONTINUOUS
 10
11.007
 20
15.75
 11
11.007
 21
16.0
  0
LINE
  5
4CD
100
AcDbEntity
  8
0
100
AcDbLine
 62
7
  6
CONTINUOUS
 10
0.964
 20
8.25
 11
0.714
 21
8.25
  0
LINE
  5
4CE
100
AcDbEntity
  8
0
100
AcDbLine
 62
7
  6
CONTINUOUS
 10
21.05
 20
8.25
 11
21.3
 21
8.25
  0
LINE
  5
4CF
100
AcDbEntity
  8
0
100
AcDbLine
 62
7
  6
CONTINUOUS
 10
12.45
 20
2.67
 11
12.45
 21
0.75
  0
LINE
  5
4D0
100
AcDbEntity
  8
0
100
AcDbLine
 62
7
  6
CONTINUOUS
 10
13.080515
 20
1.024274
 11
13.080515
 21
0.802183
  0
LINE
  5
4D1
100
AcDbEntity
  8
0
100
AcDbLine
 62
7
  6
CONTINUOUS
 10
13.080515
 20
1.074274
 11
13.080515
 21
1.174274
  0
LINE
  5
4D2
100
AcDbEntity
  8
0
100
AcDbLine
 62
7
  6
CONTINUOUS
 10
13.080515
 20
1.224274
 11
13.080515
 21
1.446365
  0
LINE
  5
4D3
100
AcDbEntity
  8
0
100
AcDbLine
 62
7
  6
CONTINUOUS
 10
13.507
 20
0.75
 11
13.507
 21
0.5
  0
LINE
  5
4D4
100
AcDbEntity
  8
0
100
AcDbLine
 62
7
  6
CONTINUOUS
 10
13.507
 20
15.75
 11
13.507
 21
16.0
  0
LINE
  5
4D5
100
AcDbEntity
  8
0
100
AcDbLine
 62
7
  6
CONTINUOUS
 10
13.685185
 20
0.941576
 11
13.685185
 21
1.306972
  0
LINE
  5
4D6
100
AcDbEntity
  8
0
100
AcDbLine
 62
7
  6
CONTINUOUS
 10
14.05
 20
15.75
 11
14.05
 21
15.25
  0
LINE
  5
4D7
100
AcDbEntity
  8
0
100
AcDbLine
 62
7
  6
CONTINUOUS
 10
14.291576
 20
1.376365
 11
14.291576
 21
0.872183
  0
LINE
  5
4D8
100
AcDbEntity
  8
0
100
AcDbLine
 62
7
  6
CONTINUOUS
 10
14.45
 20
15.5
 11
14.45
 21
15.25
  0
LINE
  5
4D9
100
AcDbEntity
  8
0
100
AcDbLine
 62
7
  6
CONTINUOUS
 10
14.7
 20
2.67
 11
14.7
 21
0.75
  0
LINE
  5
4DA
100
AcDbEntity
  8
0
100
AcDbLine
 62
7
  6
CONTINUOUS
 10
11.007
 20
0.75
 11
10.920397
 21
0.6
  0
LINE
  5
4DB
100
AcDbEntity
  8
0
100
AcDbLine
 62
7
  6
CONTINUOUS
 10
0.964
 20
12.1
 11
0.714
 21
12.1
  0
LINE
  5
4DC
100
AcDbEntity
  8
0
100
AcDbLine
 62
7
  6
CONTINUOUS
 10
21.05
 20
12.1
 11
21.3
 21
12.1
  0
LINE
  5
4DD
100
AcDbEntity
  8
0
100
AcDbLine
 62
7
  6
CONTINUOUS
 10
10.920397
 20
15.9
 11
11.007
 21
15.75
  0
LINE
  5
4DE
100
AcDbEntity
  8
0
100
AcDbLine
 62
7
  6
CONTINUOUS
 10
16.007
 20
0.75
 11
16.007
 21
0.5
  0
LINE
  5
4DF
100
AcDbEntity
  8
0
100
AcDbLine
 62
7
  6
CONTINUOUS
 10
16.007
 20
15.75
 11
16.007
 21
16.0
  0
LINE
  5
4E0
100
AcDbEntity
  8
0
100
AcDbLine
 62
7
  6
CONTINUOUS
 10
16.063
 20
1.77
 11
16.063
 21
0.75
  0
LINE
  5
4E1
100
AcDbEntity
  8
0
100
AcDbLine
 62
7
  6
CONTINUOUS
 10
21.2
 20
8.336603
 11
21.05
 21
8.25
  0
LINE
  5
4E2
100
AcDbEntity
  8
0
100
AcDbLine
 62
7
  6
CONTINUOUS
 10
21.05
 20
8.25
 11
21.2
 21
8.163397
  0
LINE
  5
4E3
100
AcDbEntity
  8
0
100
AcDbLine
 62
7
  6
CONTINUOUS
 10
16.7
 20
2.67
 11
16.7
 21
0.75
  0
LINE
  5
4E4
100
AcDbEntity
  8
0
100
AcDbLine
 62
7
  6
CONTINUOUS
 10
17.5
 20
1.37
 11
17.5
 21
1.0
  0
LINE
  5
4E5
100
AcDbEntity
  8
0
100
AcDbLine
 62
7
  6
CONTINUOUS
 10
14.05
 20
15.25
 11
21.05
 21
15.25
  0
LINE
  5
4E6
100
AcDbEntity
  8
0
100
AcDbLine
 62
7
  6
CONTINUOUS
 10
21.05
 20
15.5
 11
14.05
 21
15.5
  0
LINE
  5
4E7
100
AcDbEntity
  8
0
100
AcDbLine
 62
7
  6
CONTINUOUS
 10
18.507
 20
0.75
 11
18.507
 21
0.5
  0
LINE
  5
4E8
100
AcDbEntity
  8
0
100
AcDbLine
 62
7
  6
CONTINUOUS
 10
18.507
 20
15.75
 11
18.507
 21
16.0
  0
LINE
  5
4E9
100
AcDbEntity
  8
0
100
AcDbLine
 62
7
  6
CONTINUOUS
 10
18.55
 20
15.5
 11
18.55
 21
15.25
  0
LINE
  5
4EA
100
AcDbEntity
  8
0
100
AcDbLine
 62
7
  6
CONTINUOUS
 10
21.05
 20
15.75
 11
0.964
 21
15.75
  0
LINE
  5
4EB
100
AcDbEntity
  8
0
100
AcDbLine
 62
7
  6
CONTINUOUS
 10
11.093603
 20
15.9
 11
10.920397
 21
15.9
  0
LINE
  5
4EC
100
AcDbEntity
  8
0
100
AcDbLine
 62
7
  6
CONTINUOUS
 10
18.875
 20
1.0
 11
18.875
 21
0.75
  0
LINE
  5
4ED
100
AcDbEntity
  8
0
100
AcDbLine
 62
7
  6
CONTINUOUS
 10
19.75
 20
15.5
 11
19.75
 21
15.25
  0
LINE
  5
4EE
100
AcDbEntity
  8
0
100
AcDbLine
 62
7
  6
CONTINUOUS
 10
20.25
 20
1.37
 11
20.25
 21
1.0
  0
LINE
  5
4EF
100
AcDbEntity
  8
0
100
AcDbLine
 62
7
  6
CONTINUOUS
 10
21.05
 20
0.75
 11
21.05
 21
15.75
  0
LINE
  5
4F0
100
AcDbEntity
  8
0
100
AcDbLine
 62
7
  6
CONTINUOUS
 10
21.2
 20
8.163397
 11
21.2
 21
8.336603
  0
LINE
  5
4F1
100
AcDbEntity
  8
0
100
AcDbLine
 62
7
  6
CONTINUOUS
 10
7.2406559922
 20
7.2450099148
 11
7.2171559922
 21
7.2314421834
  0
LINE
  5
4F2
100
AcDbEntity
  8
0
100
AcDbLine
 62
7
  6
CONTINUOUS
 10
7.1936559922
 20
7.2178744521
 11
7.1701559922
 21
7.2043067208
  0
LINE
  5
4F3
100
AcDbEntity
  8
0
100
AcDbLine
 62
7
  6
CONTINUOUS
 10
7.1936559922
 20
7.1636035268
 11
7.2171559922
 21
7.1771712581
  0
LINE
  5
4F4
100
AcDbEntity
  8
0
100
AcDbLine
 62
7
  6
CONTINUOUS
 10
7.2406559922
 20
7.1907389895
 11
7.2641559922
 21
7.2043067208
  0
LINE
  5
4F5
100
AcDbEntity
  8
0
100
AcDbLine
 62
7
  6
CONTINUOUS
 10
8.8560290064
 20
3.4050941224
 11
8.4426504051
 21
3.4050941224
  0
LINE
  5
4F6
100
AcDbEntity
  8
0
100
AcDbLine
 62
7
  6
CONTINUOUS
 10
8.8826074223
 20
3.4554878232
 11
8.4160719892
 21
3.4554878232
  0
LINE
  5
4F7
100
AcDbEntity
  8
0
100
AcDbLine
 62
7
  6
CONTINUOUS
 10
6.9523756272
 20
7.0273813456
 11
6.9464283001
 21
6.9852600276
  0
LINE
  5
4F8
100
AcDbEntity
  8
0
100
AcDbLine
 62
7
  6
CONTINUOUS
 10
6.9464283001
 20
6.9852600276
 11
6.9542903574
 21
7.0399741054
  0
LWPOLYLINE
  5
4F9
100
AcDbEntity
  8
0
100
AcDbPolyline
 62
7
  6
CONTINUOUS
 90
3
 70
0
 10
6.9575846881
 20
7.0616401946
 10
6.9517999949
 20
7.0235955383
 10
6.9464304097
 20
6.9852756593
  0
LINE
  5
4FA
100
AcDbEntity
  8
0
100
AcDbLine
 62
7
  6
CONTINUOUS
 10
7.1701559922
 20
4.1334405791
 11
7.1936559922
 21
4.1198728477
  0
LINE
  5
4FB
100
AcDbEntity
  8
0
100
AcDbLine
 62
7
  6
CONTINUOUS
 10
7.2171559922
 20
4.1063051164
 11
7.2406559922
 21
4.0927373851
  0
LINE
  5
4FC
100
AcDbEntity
  8
0
100
AcDbLine
 62
7
  6
CONTINUOUS
 10
7.2641559922
 20
4.1334405791
 11
7.2406559922
 21
4.1470083104
  0
LINE
  5
4FD
100
AcDbEntity
  8
0
100
AcDbLine
 62
7
  6
CONTINUOUS
 10
7.2171559922
 20
4.1605760417
 11
7.1936559922
 21
4.174143773
  0
LWPOLYLINE
  5
4FE
100
AcDbEntity
  8
0
100
AcDbPolyline
 62
7
  6
CONTINUOUS
 90
25
 70
0
 10
6.9520877673
 20
4.3121804119
 10
6.9581950345
 20
4.2722850531
 10
6.9646716587
 20
4.2339194969
 10
6.9713976866
 20
4.1981450214
 10
6.9781901875
 20
4.1659281641
 10
6.9849322421
 20
4.1375074009
 10
6.9917327908
 20
4.1120837667
 10
6.9987688264
 20
4.0888439236
 10
7.0062048502
 20
4.0672751741
 10
7.0140267028
 20
4.0474848433
 10
7.0222461849
 20
4.0294530436
 10
7.0309880691
 20
4.0129334392
 10
7.0402781501
 20
3.9979223105
 10
7.0500354293
 20
3.9845292198
 10
7.0602644948
 20
3.9726703393
 10
7.0708463474
 20
3.9623610985
 10
7.0814475507
 20
3.9536990556
 10
7.0931538673
 20
3.9457479446
 10
7.1058492175
 20
3.9387142955
 10
7.1188124944
 20
3.9329429209
 10
7.1312457658
 20
3.9285201453
 10
7.1437032956
 20
3.9250053566
 10
7.1570278279
 20
3.9221037504
 10
7.171182307
 20
3.9198423978
 10
7.1861763434
 20
3.9182250299
  0
LINE
  5
4FF
100
AcDbEntity
  8
0
100
AcDbLine
 62
7
  6
CONTINUOUS
 10
6.9529182034
 20
4.3067556376
 11
6.9464283001
 21
4.3524872723
  0
LINE
  5
500
100
AcDbEntity
  8
0
100
AcDbLine
 62
7
  6
CONTINUOUS
 10
6.9464298511
 20
4.3524757795
 11
6.9520877673
 21
4.3121804119
  0
LWPOLYLINE
  5
501
100
AcDbEntity
  8
0
100
AcDbPolyline
 62
9
  6
CONTINUOUS
 90
28
 70
0
 10
7.0049528551
 20
4.3603855906
 10
7.0105206785
 20
4.3207297521
 10
7.016504044
 20
4.2816420593
 10
7.0228133542
 20
4.24426533
 10
7.0293165278
 20
4.2096733528
 10
7.0358204893
 20
4.1788218243
 10
7.0421980144
 20
4.1519341802
 10
7.0485348835
 20
4.1282400256
 10
7.0549695555
 20
4.1069817796
 10
7.0616113543
 20
4.087711045
 10
7.0683933981
 20
4.0705449643
 10
7.0752642603
 20
4.0554644033
 10
7.0822563829
 20
4.0422432815
 10
7.0893140928
 20
4.0308310143
 10
7.0963218946
 20
4.0212044184
 10
7.103272154
 20
4.013140695
 10
7.1101323523
 20
4.0064532656
 10
7.1168010849
 20
4.001002707
 10
7.1240968866
 20
3.9960474265
 10
7.1321217581
 20
3.9916034551
 10
7.1405978645
 20
3.9878328905
 10
7.1490862721
 20
3.9848160206
 10
7.1579860017
 20
3.9823073029
 10
7.1679409305
 20
3.9801417696
 10
7.1789740975
 20
3.978381217
 10
7.1911240611
 20
3.9770724908
 10
7.2045822553
 20
3.9762485268
 10
7.2195428903
 20
3.9759602641
  0
LWPOLYLINE
  5
502
100
AcDbEntity
  8
0
100
AcDbPolyline
 62
7
  6
CONTINUOUS
 90
22
 70
0
 10
10.1154581524
 20
3.9184866598
 10
10.1325013346
 20
3.9205538561
 10
10.14811307
 20
3.9234090795
 10
10.1620157192
 20
3.9268876638
 10
10.1762177287
 20
3.9315406177
 10
10.1909132276
 20
3.9377775032
 10
10.2052030069
 20
3.9455500593
 10
10.2180156875
 20
3.9542886949
 10
10.2301113913
 20
3.9644300167
 10
10.2420166685
 20
3.9766156463
 10
10.2533878897
 20
3.9907634217
 10
10.2640929172
 20
4.0068317021
 10
10.2740365357
 20
4.0246695085
 10
10.2832731722
 20
4.0442719973
 10
10.2919242989
 20
4.0657905829
 10
10.3000041873
 20
4.0891342065
 10
10.3075491402
 20
4.1142136307
 10
10.3147157774
 20
4.1413855113
 10
10.321649523
 20
4.171167268
 10
10.3284146625
 20
4.2038923981
 10
10.3349248839
 20
4.2391129472
 10
10.3410947234
 20
4.2761071053
  0
LINE
  5
503
100
AcDbEntity
  8
0
100
AcDbLine
 62
7
  6
CONTINUOUS
 10
8.3048529239
 20
3.7987949098
 11
8.9938264877
 21
3.7987949098
  0
LINE
  5
504
100
AcDbEntity
  8
0
100
AcDbLine
 62
7
  6
CONTINUOUS
 10
8.8809222249
 20
3.8086374849
 11
8.7657979692
 21
3.8086374849
  0
LINE
  5
505
100
AcDbEntity
  8
0
100
AcDbLine
 62
7
  6
CONTINUOUS
 10
8.5328814423
 20
3.8086374849
 11
8.4177571866
 21
3.8086374849
  0
LINE
  5
506
100
AcDbEntity
  8
0
100
AcDbLine
 62
7
  6
CONTINUOUS
 10
8.2950089971
 20
3.8086374849
 11
8.3012989232
 21
3.8086374849
  0
LINE
  5
507
100
AcDbEntity
  8
0
100
AcDbLine
 62
7
  6
CONTINUOUS
 10
8.9973804884
 20
3.8086374849
 11
9.0036704144
 21
3.8086374849
  0
LINE
  5
508
100
AcDbEntity
  8
0
100
AcDbLine
 62
7
  6
CONTINUOUS
 10
7.1936559922
 20
7.2450099148
 11
7.1936559922
 21
7.2178744521
  0
LINE
  5
509
100
AcDbEntity
  8
0
100
AcDbLine
 62
7
  6
CONTINUOUS
 10
7.1936559922
 20
7.1907389895
 11
7.1936559922
 21
7.1636035268
  0
LINE
  5
50A
100
AcDbEntity
  8
0
100
AcDbLine
 62
7
  6
CONTINUOUS
 10
7.1936559922
 20
4.174143773
 11
7.1936559922
 21
4.1470083104
  0
LINE
  5
50B
100
AcDbEntity
  8
0
100
AcDbLine
 62
7
  6
CONTINUOUS
 10
7.1936559922
 20
4.1198728477
 11
7.1936559922
 21
4.0927373851
  0
LINE
  5
50C
100
AcDbEntity
  8
0
100
AcDbLine
 62
9
  6
CONTINUOUS
 10
7.2195428903
 20
3.9759602641
 11
7.2195428903
 21
3.916905146
  0
LINE
  5
50D
100
AcDbEntity
  8
0
100
AcDbLine
 62
9
  6
CONTINUOUS
 10
7.2195428903
 20
7.3617870358
 11
7.2195428903
 21
7.4208421539
  0
LWPOLYLINE
  5
50E
100
AcDbEntity
  8
0
100
AcDbPolyline
 62
7
  6
CONTINUOUS
 90
23
 70
0
 10
7.3249509663
 20
6.4666312672
 10
7.3296313039
 20
6.5174124342
 10
7.3347115598
 20
6.5642685222
 10
7.3402555697
 20
6.6075801933
 10
7.346338585
 20
6.6476807369
 10
7.353043471
 20
6.6848442694
 10
7.3604164564
 20
6.7191022906
 10
7.3684429809
 20
6.7503386957
 10
7.3770861607
 20
6.7785511923
 10
7.3865041819
 20
6.8043882751
 10
7.3970835123
 20
6.8287466848
 10
7.409457244
 20
6.8524848501
 10
7.424261669
 20
6.8758390007
 10
7.4416711956
 20
6.8980906322
 10
7.4616734416
 20
6.9185163721
 10
7.4840949515
 20
6.936545227
 10
7.5085702142
 20
6.9517710476
 10
7.534552095
 20
6.9639986727
 10
7.561662262
 20
6.9733492921
 10
7.5897122234
 20
6.9801007118
 10
7.6185558704
 20
6.9845553528
 10
7.6480512044
 20
6.9870149516
 10
7.6780058975
 20
6.9877712877
  0
LWPOLYLINE
  5
50F
100
AcDbEntity
  8
0
100
AcDbPolyline
 62
7
  6
CONTINUOUS
 90
4
 70
0
 10
8.7310975877
 20
3.7987949098
 10
8.7425638781
 20
3.8016948438
 10
8.7541236031
 20
3.8049738387
 10
8.7657979692
 20
3.8086374849
  0
LINE
  5
510
100
AcDbEntity
  8
0
100
AcDbLine
 62
7
  6
CONTINUOUS
 10
10.1177580157
 20
3.9187656141
 11
10.0791365212
 21
3.916905146
  0
LWPOLYLINE
  5
511
100
AcDbEntity
  8
0
100
AcDbPolyline
 62
7
  6
CONTINUOUS
 90
3
 70
0
 10
10.0791365212
 20
3.916905146
 10
10.1172849214
 20
3.9186618793
 10
10.1179765405
 20
3.9187761409
  0
LWPOLYLINE
  5
512
100
AcDbEntity
  8
0
100
AcDbPolyline
 62
7
  6
CONTINUOUS
 90
6
 70
0
 10
8.6493397058
 20
3.9107982065
 10
8.6587116107
 20
3.9110677783
 10
8.6674237344
 20
3.9118299794
 10
8.6754723238
 20
3.9130513345
 10
8.6828070197
 20
3.9147338279
 10
8.6893094264
 20
3.916905146
  0
LWPOLYLINE
  5
513
100
AcDbEntity
  8
0
100
AcDbPolyline
 62
7
  6
CONTINUOUS
 90
3
 70
0
 10
10.0791365212
 20
3.916905146
 10
10.097465604
 20
3.9172821806
 10
10.1154581524
 20
3.9184866598
  0
LWPOLYLINE
  5
514
100
AcDbEntity
  8
0
100
AcDbPolyline
 62
9
  6
CONTINUOUS
 90
26
 70
0
 10
10.0791365212
 20
3.9759602641
 10
10.0949584688
 20
3.9762840349
 10
10.1099849211
 20
3.9772875803
 10
10.1236575991
 20
3.9789430103
 10
10.1356205016
 20
3.9811277291
 10
10.1457732857
 20
3.9836652143
 10
10.1556315658
 20
3.9868914852
 10
10.1653252127
 20
3.991001227
 10
10.1743787246
 20
3.9959224171
 10
10.1823659949
 20
4.0013695522
 10
10.1900003306
 20
4.0077729652
 10
10.1978131218
 20
4.0157763255
 10
10.2057154742
 20
4.0256181806
 10
10.2136444445
 20
4.0375312421
 10
10.2214654602
 20
4.0515727993
 10
10.2291140107
 20
4.0678152872
 10
10.2365839229
 20
4.086404688
 10
10.2437945751
 20
4.1072443446
 10
10.2507015736
 20
4.1302090081
 10
10.2573921914
 20
4.1555807379
 10
10.2639647195
 20
4.1838148483
 10
10.2704541544
 20
4.215209518
 10
10.2767567744
 20
4.2493095068
 10
10.2827718461
 20
4.2853776166
 10
10.2884412472
 20
4.3226654101
 10
10.2937265564
 20
4.3603855906
  0
LINE
  5
515
100
AcDbEntity
  8
0
100
AcDbLine
 62
7
  6
CONTINUOUS
 10
7.2195428903
 20
3.916905146
 11
10.0791365212
 21
3.916905146
  0
LINE
  5
516
100
AcDbEntity
  8
0
100
AcDbLine
 62
9
  6
CONTINUOUS
 10
7.2195428903
 20
3.9759602641
 11
10.0791365212
 21
3.9759602641
  0
LINE
  5
517
100
AcDbEntity
  8
0
100
AcDbLine
 62
7
  6
CONTINUOUS
 10
7.1744495204
 20
3.919489972
 11
7.2195428903
 21
3.916905146
  0
LWPOLYLINE
  5
518
100
AcDbEntity
  8
0
100
AcDbPolyline
 62
7
  6
CONTINUOUS
 90
3
 70
0
 10
7.1861763434
 20
3.9182250299
 10
7.2022252504
 20
3.9172405121
 10
7.2195423318
 20
3.916905146
  0
LWPOLYLINE
  5
519
100
AcDbEntity
  8
0
100
AcDbPolyline
 62
7
  6
CONTINUOUS
 90
4
 70
0
 10
8.5328814423
 20
3.8086374849
 10
8.5445602194
 20
3.8049725206
 10
8.5561197861
 20
3.8016937026
 10
8.5675818238
 20
3.7987949098
  0
LWPOLYLINE
  5
51A
100
AcDbEntity
  8
0
100
AcDbPolyline
 62
7
  6
CONTINUOUS
 90
6
 70
0
 10
8.6093699852
 20
3.916905146
 10
8.6158780259
 20
3.9147322702
 10
8.6232137017
 20
3.9130500907
 10
8.6312601975
 20
3.9118294435
 10
8.6399700749
 20
3.9110676462
 10
8.6493397058
 20
3.9107982065
  0
LWPOLYLINE
  5
51B
100
AcDbEntity
  8
0
100
AcDbPolyline
 62
7
  6
CONTINUOUS
 90
4
 70
0
 10
8.3012989232
 20
3.8086374849
 10
8.3071383117
 20
3.8049725206
 10
8.3129180951
 20
3.8016937026
 10
8.3186491139
 20
3.7987949098
  0
LWPOLYLINE
  5
51C
100
AcDbEntity
  8
0
100
AcDbPolyline
 62
7
  6
CONTINUOUS
 90
12
 70
0
 10
8.3395431946
 20
3.916905146
 10
8.3430594533
 20
3.9145893021
 10
8.3466758395
 20
3.9129717057
 10
8.3503311224
 20
3.9118670774
 10
8.3540045663
 20
3.9111741924
 10
8.357683002
 20
3.9108396572
 10
8.3613625474
 20
3.9108391833
 10
8.3650407757
 20
3.9111727078
 10
8.3687153371
 20
3.911864745
 10
8.3723735507
 20
3.9129692357
 10
8.3759936318
 20
3.9145876763
 10
8.3795129152
 20
3.916905146
  0
LWPOLYLINE
  5
51D
100
AcDbEntity
  8
0
100
AcDbPolyline
 62
7
  6
CONTINUOUS
 90
3
 70
0
 10
7.4128937482
 20
4.782837128
 10
7.4079518264
 20
4.828460124
 10
7.4034076177
 20
4.8777918286
  0
LINE
  5
51E
100
AcDbEntity
  8
0
100
AcDbLine
 62
7
  6
CONTINUOUS
 10
7.2406559922
 20
4.0927373851
 11
7.2406559922
 21
4.1198728477
  0
LINE
  5
51F
100
AcDbEntity
  8
0
100
AcDbLine
 62
7
  6
CONTINUOUS
 10
7.2406559922
 20
4.1470083104
 11
7.2406559922
 21
4.174143773
  0
LINE
  5
520
100
AcDbEntity
  8
0
100
AcDbLine
 62
7
  6
CONTINUOUS
 10
7.2406559922
 20
7.1636035268
 11
7.2406559922
 21
7.1907389895
  0
LINE
  5
521
100
AcDbEntity
  8
0
100
AcDbLine
 62
7
  6
CONTINUOUS
 10
7.2406559922
 20
7.2178744521
 11
7.2406559922
 21
7.2450099148
  0
LINE
  5
522
100
AcDbEntity
  8
0
100
AcDbLine
 62
7
  6
CONTINUOUS
 10
7.4034076177
 20
6.4599554712
 11
7.40797892
 21
6.5095585265
  0
LWPOLYLINE
  5
523
100
AcDbEntity
  8
0
100
AcDbPolyline
 62
7
  6
CONTINUOUS
 90
21
 70
0
 10
7.40797892
 20
6.5095585265
 10
7.4129087765
 20
6.5550378688
 10
7.4182401056
 20
6.5966972566
 10
7.4240211005
 20
6.6348188055
 10
7.4302966872
 20
6.6696143257
 10
7.4370627732
 20
6.7010654354
 10
7.4442483688
 20
6.7290410988
 10
7.4517600657
 20
6.7535746854
 10
7.459671091
 20
6.7752914685
 10
7.468217881
 20
6.7949840564
 10
7.4777849658
 20
6.8133522903
 10
7.4887044038
 20
6.830593835
 10
7.5009841278
 20
6.8463026425
 10
7.5146091337
 20
6.8602257139
 10
7.5296244218
 20
6.8723028826
 10
7.5461011023
 20
6.8825515194
 10
7.5640561857
 20
6.8909951418
 10
7.5835742885
 20
6.8977193764
 10
7.6047748343
 20
6.9028147383
 10
7.6276728332
 20
6.9063447432
 10
7.6521609853
 20
6.9083820348
  0
LWPOLYLINE
  5
524
100
AcDbEntity
  8
0
100
AcDbPolyline
 62
7
  6
CONTINUOUS
 90
4
 70
0
 10
8.8809222249
 20
3.8086374849
 10
8.8867616135
 20
3.8049725206
 10
8.8925413968
 20
3.8016937026
 10
8.8982724156
 20
3.7987949098
  0
LINE
  5
525
100
AcDbEntity
  8
0
100
AcDbLine
 62
7
  6
CONTINUOUS
 10
8.3048515706
 20
3.7987949098
 11
8.2950089971
 21
3.8086374849
  0
LINE
  5
526
100
AcDbEntity
  8
0
100
AcDbLine
 62
7
  6
CONTINUOUS
 10
9.620673514
 20
4.3499760121
 11
7.6780058975
 21
4.3499760121
  0
LWPOLYLINE
  5
527
100
AcDbEntity
  8
0
100
AcDbPolyline
 62
7
  6
CONTINUOUS
 90
21
 70
0
 10
7.6780058975
 20
4.3499760121
 10
7.6428645304
 20
4.3510294031
 10
7.6082151874
 20
4.3545329256
 10
7.5743486963
 20
4.3610143315
 10
7.5416753262
 20
4.3709862506
 10
7.5105630221
 20
4.3849068078
 10
7.4815405102
 20
4.4030439676
 10
7.4555209332
 20
4.4250177475
 10
7.4333125895
 20
4.449735829
 10
7.4147948407
 20
4.4762875599
 10
7.3994744795
 20
4.5040564915
 10
7.3869279136
 20
4.532294712
 10
7.376653287
 20
4.5604970725
 10
7.3679051387
 20
4.5893358362
 10
7.3601272344
 20
4.6198781625
 10
7.3529912951
 20
4.6531680081
 10
7.3463681713
 20
4.6898874655
 10
7.3402717831
 20
4.7300512302
 10
7.3346934774
 20
4.77363241
 10
7.3296013123
 20
4.8206363791
 10
7.3249509663
 20
4.8711160327
  0
LWPOLYLINE
  5
528
100
AcDbEntity
  8
0
100
AcDbPolyline
 62
7
  6
CONTINUOUS
 90
12
 70
0
 10
8.9191664963
 20
3.916905146
 10
8.922682755
 20
3.9145893021
 10
8.9262991413
 20
3.9129717057
 10
8.9299544241
 20
3.9118670774
 10
8.933627868
 20
3.9111741924
 10
8.9373063038
 20
3.9108396572
 10
8.9409858491
 20
3.9108391833
 10
8.9446640774
 20
3.9111727078
 10
8.9483386388
 20
3.911864745
 10
8.9519968524
 20
3.9129692357
 10
8.9556169335
 20
3.9145876763
 10
8.9591362169
 20
3.916905146
  0
LINE
  5
529
100
AcDbEntity
  8
0
100
AcDbLine
 62
9
  6
CONTINUOUS
 10
7.6780058975
 20
6.9877712877
 11
7.6780058975
 21
6.9090311302
  0
LINE
  5
52A
100
AcDbEntity
  8
0
100
AcDbLine
 62
9
  6
CONTINUOUS
 10
7.6780058975
 20
4.3499760121
 11
7.6780058975
 21
4.4287161696
  0
LINE
  5
52B
100
AcDbEntity
  8
0
100
AcDbLine
 62
7
  6
CONTINUOUS
 10
9.6465184263
 20
4.429365265
 11
9.620673514
 21
4.4287161696
  0
LINE
  5
52C
100
AcDbEntity
  8
0
100
AcDbLine
 62
7
  6
CONTINUOUS
 10
9.620673514
 20
4.4287161696
 11
7.6780058975
 21
4.4287161696
  0
LWPOLYLINE
  5
52D
100
AcDbEntity
  8
0
100
AcDbPolyline
 62
7
  6
CONTINUOUS
 90
19
 70
0
 10
7.6780058975
 20
4.4287161696
 10
7.6477913287
 20
4.429616741
 10
7.6193452894
 20
4.4324817478
 10
7.5930335428
 20
4.4375053882
 10
7.5691038726
 20
4.4447947239
 10
7.5474681698
 20
4.4544623319
 10
7.5279116865
 20
4.4666760986
 10
7.5104476381
 20
4.4814378034
 10
7.4951538434
 20
4.4984774152
 10
7.4817837428
 20
4.5176694342
 10
7.4700990106
 20
4.5388723791
 10
7.4600252524
 20
4.561568042
 10
7.4513976176
 20
4.5852615978
 10
7.4437782137
 20
4.6103903417
 10
7.4368028877
 20
4.6377905727
 10
7.4302504039
 20
4.6683681329
 10
7.4240519195
 20
4.7027421242
 10
7.4182583784
 20
4.7409188379
 10
7.4128937482
 20
4.782837128
  0
LINE
  5
52E
100
AcDbEntity
  8
0
100
AcDbLine
 62
7
  6
CONTINUOUS
 10
10.1050234194
 20
7.2450099148
 11
10.0815234194
 21
7.2314421834
  0
LINE
  5
52F
100
AcDbEntity
  8
0
100
AcDbLine
 62
7
  6
CONTINUOUS
 10
10.0580234194
 20
7.2178744521
 11
10.0345234194
 21
7.2043067208
  0
LINE
  5
530
100
AcDbEntity
  8
0
100
AcDbLine
 62
7
  6
CONTINUOUS
 10
10.0580234194
 20
7.1636035268
 11
10.0815234194
 21
7.1771712581
  0
LINE
  5
531
100
AcDbEntity
  8
0
100
AcDbLine
 62
7
  6
CONTINUOUS
 10
10.1050234194
 20
7.1907389895
 11
10.1285234194
 21
7.2043067208
  0
LINE
  5
532
100
AcDbEntity
  8
0
100
AcDbLine
 62
9
  6
CONTINUOUS
 10
7.0049528551
 20
4.3603855906
 11
6.9464283001
 21
4.3524872723
  0
LINE
  5
533
100
AcDbEntity
  8
0
100
AcDbLine
 62
9
  6
CONTINUOUS
 10
10.2937265564
 20
4.3603855906
 11
10.3522511114
 21
4.3524872723
  0
LINE
  5
534
100
AcDbEntity
  8
AXIS
100
AcDbLine
 62
7
  6
CONTINUOUS
 10
8.2950089971
 20
3.916905146
 11
8.2950089971
 21
3.8086374849
  0
LINE
  5
535
100
AcDbEntity
  8
0
100
AcDbLine
 62
7
  6
CONTINUOUS
 10
8.3012989232
 20
3.916905146
 11
8.3012989232
 21
3.8086374849
  0
LINE
  5
536
100
AcDbEntity
  8
0
100
AcDbLine
 62
9
  6
CONTINUOUS
 10
7.3249530571
 20
4.8711162106
 11
7.403409691
 21
4.877792005
  0
LINE
  5
537
100
AcDbEntity
  8
0
100
AcDbLine
 62
9
  6
CONTINUOUS
 10
9.9737263545
 20
4.8711162106
 11
9.8952697206
 21
4.877792005
  0
LINE
  5
538
100
AcDbEntity
  8
0
100
AcDbLine
 62
7
  6
CONTINUOUS
 10
10.0345234194
 20
4.1334405791
 11
10.0580234194
 21
4.1198728477
  0
LINE
  5
539
100
AcDbEntity
  8
0
100
AcDbLine
 62
7
  6
CONTINUOUS
 10
10.0815234194
 20
4.1063051164
 11
10.1050234194
 21
4.0927373851
  0
LINE
  5
53A
100
AcDbEntity
  8
0
100
AcDbLine
 62
7
  6
CONTINUOUS
 10
10.1285234194
 20
4.1334405791
 11
10.1050234194
 21
4.1470083104
  0
LINE
  5
53B
100
AcDbEntity
  8
0
100
AcDbLine
 62
7
  6
CONTINUOUS
 10
10.0815234194
 20
4.1605760417
 11
10.0580234194
 21
4.174143773
  0
LINE
  5
53C
100
AcDbEntity
  8
AXIS
100
AcDbLine
 62
7
  6
CONTINUOUS
 10
8.4160719892
 20
3.7987949098
 11
8.4160719892
 21
3.4554878232
  0
LINE
  5
53D
100
AcDbEntity
  8
0
100
AcDbLine
 62
7
  6
CONTINUOUS
 10
8.4177571866
 20
3.916905146
 11
8.4177571866
 21
3.8086374849
  0
LINE
  5
53E
100
AcDbEntity
  8
0
100
AcDbLine
 62
7
  6
CONTINUOUS
 10
8.4426467924
 20
3.4554878232
 11
8.4426467924
 21
3.4050941224
  0
LINE
  5
53F
100
AcDbEntity
  8
0
100
AcDbLine
 62
7
  6
CONTINUOUS
 10
8.5328814423
 20
3.916905146
 11
8.5328814423
 21
3.8086374849
  0
LINE
  5
540
100
AcDbEntity
  8
0
100
AcDbLine
 62
7
  6
CONTINUOUS
 10
8.7657979692
 20
3.916905146
 11
8.7657979692
 21
3.8086374849
  0
LINE
  5
541
100
AcDbEntity
  8
0
100
AcDbLine
 62
7
  6
CONTINUOUS
 10
8.8560326191
 20
3.4554878232
 11
8.8560326191
 21
3.4050941224
  0
LINE
  5
542
100
AcDbEntity
  8
0
100
AcDbLine
 62
7
  6
CONTINUOUS
 10
8.8809222249
 20
3.916905146
 11
8.8809222249
 21
3.8086374849
  0
LINE
  5
543
100
AcDbEntity
  8
AXIS
100
AcDbLine
 62
7
  6
CONTINUOUS
 10
8.8826074223
 20
3.7987949098
 11
8.8826074223
 21
3.4554878232
  0
LINE
  5
544
100
AcDbEntity
  8
0
100
AcDbLine
 62
7
  6
CONTINUOUS
 10
8.9973804884
 20
3.916905146
 11
8.9973804884
 21
3.8086374849
  0
LINE
  5
545
100
AcDbEntity
  8
AXIS
100
AcDbLine
 62
7
  6
CONTINUOUS
 10
9.0036704144
 20
3.916905146
 11
9.0036704144
 21
3.8086374849
  0
LINE
  5
546
100
AcDbEntity
  8
0
100
AcDbLine
 62
7
  6
CONTINUOUS
 10
7.2406559922
 20
4.174143773
 11
7.2171559922
 21
4.1605760417
  0
LINE
  5
547
100
AcDbEntity
  8
0
100
AcDbLine
 62
7
  6
CONTINUOUS
 10
7.1936559922
 20
4.1470083104
 11
7.1701559922
 21
4.1334405791
  0
LINE
  5
548
100
AcDbEntity
  8
0
100
AcDbLine
 62
7
  6
CONTINUOUS
 10
7.1936559922
 20
4.0927373851
 11
7.2171559922
 21
4.1063051164
  0
LINE
  5
549
100
AcDbEntity
  8
0
100
AcDbLine
 62
7
  6
CONTINUOUS
 10
7.2406559922
 20
4.1198728477
 11
7.2641559922
 21
4.1334405791
  0
LINE
  5
54A
100
AcDbEntity
  8
0
100
AcDbLine
 62
7
  6
CONTINUOUS
 10
7.1701559922
 20
7.2043067208
 11
7.1936559922
 21
7.1907389895
  0
LINE
  5
54B
100
AcDbEntity
  8
0
100
AcDbLine
 62
7
  6
CONTINUOUS
 10
7.2171559922
 20
7.1771712581
 11
7.2406559922
 21
7.1636035268
  0
LINE
  5
54C
100
AcDbEntity
  8
0
100
AcDbLine
 62
7
  6
CONTINUOUS
 10
7.2641559922
 20
7.2043067208
 11
7.2406559922
 21
7.2178744521
  0
LINE
  5
54D
100
AcDbEntity
  8
0
100
AcDbLine
 62
7
  6
CONTINUOUS
 10
7.2171559922
 20
7.2314421834
 11
7.1936559922
 21
7.2450099148
  0
LINE
  5
54E
100
AcDbEntity
  8
0
100
AcDbLine
 62
9
  6
CONTINUOUS
 10
9.620673514
 20
6.9877712877
 11
9.620673514
 21
6.9090311302
  0
LINE
  5
54F
100
AcDbEntity
  8
0
100
AcDbLine
 62
9
  6
CONTINUOUS
 10
9.620673514
 20
4.3499760121
 11
9.620673514
 21
4.4287161696
  0
LINE
  5
550
100
AcDbEntity
  8
0
100
AcDbLine
 62
9
  6
CONTINUOUS
 10
9.9737263545
 20
6.4666310893
 11
9.8952697206
 21
6.4599552948
  0
LINE
  5
551
100
AcDbEntity
  8
0
100
AcDbLine
 62
9
  6
CONTINUOUS
 10
7.3249530571
 20
6.4666310893
 11
7.403409691
 21
6.4599552948
  0
LWPOLYLINE
  5
552
100
AcDbEntity
  8
0
100
AcDbPolyline
 62
7
  6
CONTINUOUS
 90
3
 70
0
 10
9.8857856633
 20
6.5549101718
 10
9.8907275852
 20
6.5092871758
 10
9.8952717939
 20
6.4599554712
  0
LINE
  5
553
100
AcDbEntity
  8
0
100
AcDbLine
 62
7
  6
CONTINUOUS
 10
10.0580234194
 20
7.2450099148
 11
10.0580234194
 21
7.2178744521
  0
LINE
  5
554
100
AcDbEntity
  8
0
100
AcDbLine
 62
7
  6
CONTINUOUS
 10
10.0580234194
 20
7.1907389895
 11
10.0580234194
 21
7.1636035268
  0
LINE
  5
555
100
AcDbEntity
  8
0
100
AcDbLine
 62
7
  6
CONTINUOUS
 10
10.0580234194
 20
4.174143773
 11
10.0580234194
 21
4.1470083104
  0
LINE
  5
556
100
AcDbEntity
  8
0
100
AcDbLine
 62
7
  6
CONTINUOUS
 10
10.0580234194
 20
4.1198728477
 11
10.0580234194
 21
4.0927373851
  0
LINE
  5
557
100
AcDbEntity
  8
0
100
AcDbLine
 62
9
  6
CONTINUOUS
 10
10.0791365212
 20
3.9759602641
 11
10.0791365212
 21
3.916905146
  0
LINE
  5
558
100
AcDbEntity
  8
0
100
AcDbLine
 62
9
  6
CONTINUOUS
 10
10.0791365212
 20
7.3617870358
 11
10.0791365212
 21
7.4208421539
  0
LINE
  5
559
100
AcDbEntity
  8
0
100
AcDbLine
 62
7
  6
CONTINUOUS
 10
10.1050234194
 20
4.0927373851
 11
10.1050234194
 21
4.1198728477
  0
LINE
  5
55A
100
AcDbEntity
  8
0
100
AcDbLine
 62
7
  6
CONTINUOUS
 10
10.1050234194
 20
4.1470083104
 11
10.1050234194
 21
4.174143773
  0
LINE
  5
55B
100
AcDbEntity
  8
0
100
AcDbLine
 62
7
  6
CONTINUOUS
 10
10.1050234194
 20
7.1636035268
 11
10.1050234194
 21
7.1907389895
  0
LINE
  5
55C
100
AcDbEntity
  8
0
100
AcDbLine
 62
7
  6
CONTINUOUS
 10
10.1050234194
 20
7.2178744521
 11
10.1050234194
 21
7.2450099148
  0
LINE
  5
55D
100
AcDbEntity
  8
0
100
AcDbLine
 62
7
  6
CONTINUOUS
 10
9.8952717939
 20
4.8777918286
 11
9.8907004915
 21
4.8281887733
  0
LWPOLYLINE
  5
55E
100
AcDbEntity
  8
0
100
AcDbPolyline
 62
7
  6
CONTINUOUS
 90
23
 70
0
 10
9.9737284453
 20
4.8711160327
 10
9.9690481077
 20
4.8203348657
 10
9.9639678517
 20
4.7734787777
 10
9.9584238418
 20
4.7301671066
 10
9.9523408266
 20
4.690066563
 10
9.9456359405
 20
4.6529030304
 10
9.9382629552
 20
4.6186450092
 10
9.9302364306
 20
4.5874086041
 10
9.9215932508
 20
4.5591961076
 10
9.9121752296
 20
4.5333590248
 10
9.9015958992
 20
4.5090006151
 10
9.8892221675
 20
4.4852624498
 10
9.8744177425
 20
4.4619082992
 10
9.8570082159
 20
4.4396566677
 10
9.8370059699
 20
4.4192309278
 10
9.81458446
 20
4.4012020728
 10
9.7901091974
 20
4.3859762523
 10
9.7641273165
 20
4.3737486271
 10
9.7370171495
 20
4.3643980078
 10
9.7089671881
 20
4.357646588
 10
9.6801235411
 20
4.3531919471
 10
9.6506282072
 20
4.3507323482
 10
9.620673514
 20
4.3499760121
  0
LWPOLYLINE
  5
55F
100
AcDbEntity
  8
0
100
AcDbPolyline
 62
7
  6
CONTINUOUS
 90
21
 70
0
 10
9.8907004915
 20
4.8281887733
 10
9.8857706351
 20
4.782709431
 10
9.8804393059
 20
4.7410500433
 10
9.874658311
 20
4.7029284944
 10
9.8683827243
 20
4.6681329741
 10
9.8616166383
 20
4.6366818645
 10
9.8544310427
 20
4.6087062011
 10
9.8469193458
 20
4.5841726145
 10
9.8390083205
 20
4.5624558314
 10
9.8304615306
 20
4.5427632435
 10
9.8208944458
 20
4.5243950095
 10
9.8099750077
 20
4.5071534649
 10
9.7976952837
 20
4.4914446574
 10
9.7840702778
 20
4.477521586
 10
9.7690549897
 20
4.4654444172
 10
9.7525783092
 20
4.4551957805
 10
9.7346232258
 20
4.446752158
 10
9.715105123
 20
4.4400279234
 10
9.6939045772
 20
4.4349325615
 10
9.6710065784
 20
4.4314025567
 10
9.6465184263
 20
4.429365265
  0
LINE
  5
560
100
AcDbEntity
  8
0
100
AcDbLine
 62
7
  6
CONTINUOUS
 10
8.9938278409
 20
3.7987949098
 11
9.0036704144
 21
3.8086374849
  0
LWPOLYLINE
  5
561
100
AcDbEntity
  8
0
100
AcDbPolyline
 62
7
  6
CONTINUOUS
 90
4
 70
0
 10
8.4004069959
 20
3.7987949098
 10
8.4061401411
 20
3.8016948438
 10
8.4119200036
 20
3.8049738387
 10
8.4177571866
 20
3.8086374849
  0
LINE
  5
562
100
AcDbEntity
  8
0
100
AcDbLine
 62
9
  6
CONTINUOUS
 10
10.2937265564
 20
6.9773617093
 11
10.3522511114
 21
6.9852600276
  0
LINE
  5
563
100
AcDbEntity
  8
0
100
AcDbLine
 62
9
  6
CONTINUOUS
 10
7.0049528551
 20
6.9773617093
 11
6.9464283001
 21
6.9852600276
  0
LWPOLYLINE
  5
564
100
AcDbEntity
  8
0
100
AcDbPolyline
 62
7
  6
CONTINUOUS
 90
4
 70
0
 10
8.9800302976
 20
3.7987949098
 10
8.9857634428
 20
3.8016948438
 10
8.9915433053
 20
3.8049738387
 10
8.9973804884
 20
3.8086374849
  0
LINE
  5
565
100
AcDbEntity
  8
0
100
AcDbLine
 62
7
  6
CONTINUOUS
 10
7.6521609853
 20
6.9083820348
 11
7.6780058975
 21
6.9090311302
  0
LINE
  5
566
100
AcDbEntity
  8
0
100
AcDbLine
 62
7
  6
CONTINUOUS
 10
7.6780058975
 20
6.9090311302
 11
9.620673514
 21
6.9090311302
  0
LINE
  5
567
100
AcDbEntity
  8
0
100
AcDbLine
 62
7
  6
CONTINUOUS
 10
7.6780058975
 20
6.9877712877
 11
9.620673514
 21
6.9877712877
  0
LWPOLYLINE
  5
568
100
AcDbEntity
  8
0
100
AcDbPolyline
 62
7
  6
CONTINUOUS
 90
19
 70
0
 10
9.620673514
 20
6.9090311302
 10
9.6508880828
 20
6.9081305589
 10
9.6793341221
 20
6.9052655521
 10
9.7056458688
 20
6.9002419117
 10
9.7295755389
 20
6.8929525759
 10
9.7512112418
 20
6.883284968
 10
9.770767725
 20
6.8710712012
 10
9.7882317734
 20
6.8563094965
 10
9.8035255682
 20
6.8392698847
 10
9.8168956687
 20
6.8200778656
 10
9.8285804009
 20
6.7988749208
 10
9.8386541592
 20
6.7761792578
 10
9.8472817939
 20
6.752485702
 10
9.8549011978
 20
6.7273569582
 10
9.8618765238
 20
6.6999567271
 10
9.8684290076
 20
6.669379167
 10
9.874627492
 20
6.6350051757
 10
9.8804210331
 20
6.596828462
 10
9.8857856633
 20
6.5549101718
  0
LWPOLYLINE
  5
569
100
AcDbEntity
  8
0
100
AcDbPolyline
 62
7
  6
CONTINUOUS
 90
21
 70
0
 10
9.620673514
 20
6.9877712877
 10
9.6558148811
 20
6.9867178968
 10
9.6904642241
 20
6.9832143742
 10
9.7243307152
 20
6.9767329684
 10
9.7570040854
 20
6.9667610493
 10
9.7881163894
 20
6.952840492
 10
9.8171389013
 20
6.9347033322
 10
9.8431584783
 20
6.9127295524
 10
9.865366822
 20
6.8880114708
 10
9.8838845708
 20
6.8614597399
 10
9.899204932
 20
6.8336908083
 10
9.911751498
 20
6.8054525879
 10
9.9220261245
 20
6.7772502273
 10
9.9307742729
 20
6.7484114636
 10
9.9385521771
 20
6.7178691374
 10
9.9456881164
 20
6.6845792918
 10
9.9523112402
 20
6.6478598343
 10
9.9584076285
 20
6.6076960696
 10
9.9639859341
 20
6.5641148899
 10
9.9690780992
 20
6.5171109208
 10
9.9737284453
 20
6.4666312672
  0
LINE
  5
56A
100
AcDbEntity
  8
0
100
AcDbLine
 62
7
  6
CONTINUOUS
 10
10.1050234194
 20
4.174143773
 11
10.0815234194
 21
4.1605760417
  0
LINE
  5
56B
100
AcDbEntity
  8
0
100
AcDbLine
 62
7
  6
CONTINUOUS
 10
10.0580234194
 20
4.1470083104
 11
10.0345234194
 21
4.1334405791
  0
LINE
  5
56C
100
AcDbEntity
  8
0
100
AcDbLine
 62
7
  6
CONTINUOUS
 10
10.3463037843
 20
4.3103659543
 11
10.3522511114
 21
4.3524872723
  0
LINE
  5
56D
100
AcDbEntity
  8
0
100
AcDbLine
 62
7
  6
CONTINUOUS
 10
10.3522511114
 20
4.3524872723
 11
10.3443891958
 21
4.2977741261
  0
LWPOLYLINE
  5
56E
100
AcDbEntity
  8
0
100
AcDbPolyline
 62
7
  6
CONTINUOUS
 90
3
 70
0
 10
10.3410947234
 20
4.2761071053
 10
10.3468794166
 20
4.3141517616
 10
10.3522490018
 20
4.3524716405
  0
LINE
  5
56F
100
AcDbEntity
  8
0
100
AcDbLine
 62
7
  6
CONTINUOUS
 10
10.0580234194
 20
4.0927373851
 11
10.0815234194
 21
4.1063051164
  0
LINE
  5
570
100
AcDbEntity
  8
0
100
AcDbLine
 62
7
  6
CONTINUOUS
 10
10.1050234194
 20
4.1198728477
 11
10.1285234194
 21
4.1334405791
  0
LWPOLYLINE
  5
571
100
AcDbEntity
  8
0
100
AcDbPolyline
 62
9
  6
CONTINUOUS
 90
26
 70
0
 10
7.2195428903
 20
7.3617870358
 10
7.2037209427
 20
7.361463265
 10
7.1886944904
 20
7.3604597195
 10
7.1750218124
 20
7.3588042895
 10
7.1630589099
 20
7.3566195708
 10
7.1529061258
 20
7.3540820856
 10
7.1430478457
 20
7.3508558146
 10
7.1333541989
 20
7.3467460728
 10
7.1243006869
 20
7.3418248828
 10
7.1163134166
 20
7.3363777476
 10
7.1086790809
 20
7.3299743346
 10
7.1008662898
 20
7.3219709743
 10
7.0929639373
 20
7.3121291192
 10
7.0850349671
 20
7.3002160578
 10
7.0772139513
 20
7.2861745006
 10
7.0695654008
 20
7.2699320127
 10
7.0620954886
 20
7.2513426119
 10
7.0548848364
 20
7.2305029553
 10
7.0479778379
 20
7.2075382917
 10
7.0412872201
 20
7.182166562
 10
7.034714692
 20
7.1539324516
 10
7.0282252571
 20
7.1225377819
 10
7.0219226371
 20
7.088437793
 10
7.0159075654
 20
7.0523696833
 10
7.0102381644
 20
7.0150818898
 10
7.0049528551
 20
6.9773617093
  0
LINE
  5
572
100
AcDbEntity
  8
0
100
AcDbLine
 62
9
  6
CONTINUOUS
 10
10.0791365212
 20
7.3617870358
 11
7.2195428903
 21
7.3617870358
  0
LWPOLYLINE
  5
573
100
AcDbEntity
  8
0
100
AcDbPolyline
 62
7
  6
CONTINUOUS
 90
25
 70
0
 10
10.3465916442
 20
7.0255668879
 10
10.340484377
 20
7.0654622468
 10
10.3340077528
 20
7.103827803
 10
10.327281725
 20
7.1396022785
 10
10.3204892241
 20
7.1718191357
 10
10.3137471694
 20
7.200239899
 10
10.3069466207
 20
7.2256635332
 10
10.2999105851
 20
7.2489033763
 10
10.2924745613
 20
7.2704721258
 10
10.2846527087
 20
7.2902624565
 10
10.2764332266
 20
7.3082942562
 10
10.2676913424
 20
7.3248138607
 10
10.2584012614
 20
7.3398249894
 10
10.2486439822
 20
7.3532180801
 10
10.2384149167
 20
7.3650769606
 10
10.2278330641
 20
7.3753862014
 10
10.2172318608
 20
7.3840482442
 10
10.2055255443
 20
7.3919993552
 10
10.192830194
 20
7.3990330044
 10
10.1798669171
 20
7.4048043789
 10
10.1674336457
 20
7.4092271545
 10
10.154976116
 20
7.4127419432
 10
10.1416515836
 20
7.4156435495
 10
10.1274971045
 20
7.417904902
 10
10.1125030681
 20
7.4195222699
  0
LINE
  5
574
100
AcDbEntity
  8
0
100
AcDbLine
 62
7
  6
CONTINUOUS
 10
10.3457612295
 20
7.0309915227
 11
10.3522511114
 21
6.9852600276
  0
LWPOLYLINE
  5
575
100
AcDbEntity
  8
0
100
AcDbPolyline
 62
9
  6
CONTINUOUS
 90
28
 70
0
 10
10.2937265564
 20
6.9773617093
 10
10.288158733
 20
7.0170175477
 10
10.2821753675
 20
7.0561052406
 10
10.2758660574
 20
7.0934819698
 10
10.2693628838
 20
7.1280739471
 10
10.2628589222
 20
7.1589254756
 10
10.2564813971
 20
7.1858131197
 10
10.250144528
 20
7.2095072742
 10
10.243709856
 20
7.2307655202
 10
10.2370680572
 20
7.2500362548
 10
10.2302860134
 20
7.2672023356
 10
10.2234151513
 20
7.2822828966
 10
10.2164230286
 20
7.2955040183
 10
10.2093653187
 20
7.3069162856
 10
10.202357517
 20
7.3165428815
 10
10.1954072575
 20
7.3246066048
 10
10.1885470592
 20
7.3312940343
 10
10.1818783266
 20
7.3367445928
 10
10.1745825249
 20
7.3416998734
 10
10.1665576534
 20
7.3461438448
 10
10.158081547
 20
7.3499144093
 10
10.1495931394
 20
7.3529312793
 10
10.1406934098
 20
7.355439997
 10
10.130738481
 20
7.3576055303
 10
10.119705314
 20
7.3593660829
 10
10.1075553504
 20
7.3606748091
 10
10.0940971562
 20
7.361498773
 10
10.0791365212
 20
7.3617870358
  0
LINE
  5
576
100
AcDbEntity
  8
0
100
AcDbLine
 62
7
  6
CONTINUOUS
 10
10.3522495604
 20
6.9852715203
 11
10.3465916442
 21
7.0255668879
  0
LINE
  5
577
100
AcDbEntity
  8
0
100
AcDbLine
 62
7
  6
CONTINUOUS
 10
10.3522495604
 20
6.9852715203
 11
10.3522511114
 21
6.9852600276
  0
LWPOLYLINE
  5
578
100
AcDbEntity
  8
0
100
AcDbPolyline
 62
7
  6
CONTINUOUS
 90
22
 70
0
 10
7.1832212591
 20
7.41926064
 10
7.166178077
 20
7.4171934438
 10
7.1505663415
 20
7.4143382203
 10
7.1366636923
 20
7.410859636
 10
7.1224616828
 20
7.4062066822
 10
7.107766184
 20
7.3999697967
 10
7.0934764046
 20
7.3921972406
 10
7.080663724
 20
7.383458605
 10
7.0685680202
 20
7.3733172832
 10
7.056662743
 20
7.3611316536
 10
7.0452915218
 20
7.3469838781
 10
7.0345864943
 20
7.3309155978
 10
7.0246428758
 20
7.3130777914
 10
7.0154062393
 20
7.2934753026
 10
7.0067551126
 20
7.271956717
 10
6.9986752242
 20
7.2486130934
 10
6.9911302713
 20
7.2235336692
 10
6.9839636342
 20
7.1963617886
 10
6.9770298885
 20
7.1665800319
 10
6.9702647491
 20
7.1338549017
 10
6.9637545276
 20
7.0986343527
 10
6.9575846881
 20
7.0616401946
  0
LINE
  5
579
100
AcDbEntity
  8
0
100
AcDbLine
 62
7
  6
CONTINUOUS
 10
7.1809223892
 20
7.4189818062
 11
7.2195428903
 21
7.4208421539
  0
LWPOLYLINE
  5
57A
100
AcDbEntity
  8
0
100
AcDbPolyline
 62
7
  6
CONTINUOUS
 90
3
 70
0
 10
7.2195428903
 20
7.4208421539
 10
7.1813944902
 20
7.4190854206
 10
7.1807034951
 20
7.4189712621
  0
LWPOLYLINE
  5
57B
100
AcDbEntity
  8
0
100
AcDbPolyline
 62
7
  6
CONTINUOUS
 90
3
 70
0
 10
7.2195428903
 20
7.4208421539
 10
7.2012138075
 20
7.4204651193
 10
7.1832212591
 20
7.41926064
  0
LINE
  5
57C
100
AcDbEntity
  8
0
100
AcDbLine
 62
7
  6
CONTINUOUS
 10
10.0791370797
 20
7.4208421539
 11
7.2195428903
 21
7.4208421539
  0
LINE
  5
57D
100
AcDbEntity
  8
0
100
AcDbLine
 62
7
  6
CONTINUOUS
 10
10.1242305786
 20
7.4182572537
 11
10.0791365212
 21
7.4208421539
  0
LWPOLYLINE
  5
57E
100
AcDbEntity
  8
0
100
AcDbPolyline
 62
7
  6
CONTINUOUS
 90
3
 70
0
 10
10.1125030681
 20
7.4195222699
 10
10.0964541611
 20
7.4205067878
 10
10.0791370797
 20
7.4208421539
  0
LINE
  5
57F
100
AcDbEntity
  8
0
100
AcDbLine
 62
7
  6
CONTINUOUS
 10
10.0345234194
 20
7.2043067208
 11
10.0580234194
 21
7.1907389895
  0
LINE
  5
580
100
AcDbEntity
  8
0
100
AcDbLine
 62
7
  6
CONTINUOUS
 10
10.0815234194
 20
7.1771712581
 11
10.1050234194
 21
7.1636035268
  0
LINE
  5
581
100
AcDbEntity
  8
0
100
AcDbLine
 62
7
  6
CONTINUOUS
 10
10.1285234194
 20
7.2043067208
 11
10.1050234194
 21
7.2178744521
  0
LINE
  5
582
100
AcDbEntity
  8
0
100
AcDbLine
 62
7
  6
CONTINUOUS
 10
10.0815234194
 20
7.2314421834
 11
10.0580234194
 21
7.2450099148
  0
LINE
  5
583
100
AcDbEntity
  8
02___PRT_ALL_AXES
100
AcDbLine
 62
7
  6
CONTINUOUS
 10
6.8580011231
 20
9.5698429947
 11
6.8580011231
 21
8.578504412
  0
LINE
  5
584
100
AcDbEntity
  8
0
100
AcDbLine
 62
9
  6
CONTINUOUS
 10
6.9464304097
 20
8.578504412
 11
6.9464283001
 21
8.6446461443
  0
LINE
  5
585
100
AcDbEntity
  8
0
100
AcDbLine
 62
9
  6
CONTINUOUS
 10
6.9464283001
 20
8.6446461443
 11
6.9464304803
 21
9.5698429947
  0
LINE
  5
586
100
AcDbEntity
  8
0
100
AcDbLine
 62
9
  6
CONTINUOUS
 10
7.2195428903
 20
8.5194492939
 11
7.2195428903
 21
9.6288981128
  0
LWPOLYLINE
  5
587
100
AcDbEntity
  8
0
100
AcDbPolyline
 62
9
  6
CONTINUOUS
 90
6
 70
0
 10
10.2937265564
 20
8.5194492939
 10
10.3118116481
 20
8.5223396601
 10
10.3281264383
 20
8.5307278257
 10
10.3410739239
 20
8.5437926943
 10
10.3493867186
 20
8.5602553837
 10
10.3522511114
 20
8.578504412
  0
LWPOLYLINE
  5
588
100
AcDbEntity
  8
0
100
AcDbPolyline
 62
9
  6
CONTINUOUS
 90
6
 70
0
 10
7.0049528551
 20
8.5194492939
 10
6.9868677743
 20
8.5223396567
 10
6.9705529862
 20
8.5307278168
 10
6.9576054965
 20
8.5437926832
 10
6.949292696
 20
8.560255376
 10
6.9464283001
 20
8.578504412
  0
LINE
  5
589
100
AcDbEntity
  8
0
100
AcDbLine
 62
7
  6
CONTINUOUS
 10
10.3816231703
 20
8.5194492939
 11
6.9170562412
 21
8.5194492939
  0
LINE
  5
58A
100
AcDbEntity
  8
0
100
AcDbLine
 62
9
  6
CONTINUOUS
 10
10.4406782884
 20
8.578504412
 11
6.8580011231
 21
8.578504412
  0
LINE
  5
58B
100
AcDbEntity
  8
0
100
AcDbLine
 62
7
  6
CONTINUOUS
 10
10.4406763975
 20
8.6446461443
 11
6.858003014
 21
8.6446461443
  0
LINE
  5
58C
100
AcDbEntity
  8
0
100
AcDbLine
 62
7
  6
CONTINUOUS
 10
8.609969627
 20
9.3889374829
 11
8.609969627
 21
9.2314571679
  0
LINE
  5
58D
100
AcDbEntity
  8
0
100
AcDbLine
 62
7
  6
CONTINUOUS
 10
8.6887097845
 20
9.2314571679
 11
8.6887097845
 21
9.3889374829
  0
LINE
  5
58E
100
AcDbEntity
  8
0
100
AcDbLine
 62
9
  6
CONTINUOUS
 10
6.8580011231
 20
9.5698429947
 11
10.4406782884
 21
9.5698429947
  0
LINE
  5
58F
100
AcDbEntity
  8
0
100
AcDbLine
 62
7
  6
CONTINUOUS
 10
6.9170587924
 20
9.6288981128
 11
10.3816206191
 21
9.6288981128
  0
LWPOLYLINE
  5
590
100
AcDbEntity
  8
0
100
AcDbPolyline
 62
9
  6
CONTINUOUS
 90
6
 70
0
 10
7.0049528551
 20
9.6288981128
 10
6.9868677689
 20
9.6260077483
 10
6.9705529798
 20
9.6176195855
 10
6.9576054921
 20
9.604554718
 10
6.9492926945
 20
9.5880920269
 10
6.9464283001
 20
9.5698429947
  0
LWPOLYLINE
  5
591
100
AcDbEntity
  8
0
100
AcDbPolyline
 62
9
  6
CONTINUOUS
 90
6
 70
0
 10
10.2937265564
 20
9.6288981128
 10
10.3118116368
 20
9.6260077502
 10
10.3281264247
 20
9.6176195903
 10
10.3410739147
 20
9.604554724
 10
10.3493867154
 20
9.588092031
 10
10.3522511114
 20
9.5698429947
  0
LINE
  5
592
100
AcDbEntity
  8
0
100
AcDbLine
 62
9
  6
CONTINUOUS
 10
10.0791365212
 20
8.5194492939
 11
10.0791365212
 21
9.6288981128
  0
LINE
  5
593
100
AcDbEntity
  8
0
100
AcDbLine
 62
9
  6
CONTINUOUS
 10
10.3522511114
 20
8.6446461443
 11
10.3522495149
 21
9.5698429947
  0
LINE
  5
594
100
AcDbEntity
  8
0
100
AcDbLine
 62
9
  6
CONTINUOUS
 10
10.3522495604
 20
8.578504412
 11
10.3522511114
 21
8.6446461443
  0
LINE
  5
595
100
AcDbEntity
  8
02___PRT_ALL_AXES
100
AcDbLine
 62
7
  6
CONTINUOUS
 10
10.4406782884
 20
9.5698429947
 11
10.4406782884
 21
8.578504412
  0
LINE
  5
596
100
AcDbEntity
  8
0
100
AcDbLine
 62
7
  6
CONTINUOUS
 10
10.1233301074
 20
11.3316184976
 11
10.0791365212
 21
11.3290852147
  0
LWPOLYLINE
  5
597
100
AcDbEntity
  8
0
100
AcDbPolyline
 62
7
  6
CONTINUOUS
 90
27
 70
0
 10
10.0791370251
 20
11.3290852147
 10
10.0966322934
 20
11.3294277316
 10
10.1141939037
 20
11.3305515357
 10
10.1311170483
 20
11.3325278873
 10
10.1468875649
 20
11.3353273512
 10
10.16113674
 20
11.3388183681
 10
10.1744869187
 20
11.3430868374
 10
10.1885247949
 20
11.3488325687
 10
10.2025699527
 20
11.3561539828
 10
10.2156250596
 20
11.3646940935
 10
10.227197665
 20
11.3739779911
 10
10.2383721652
 20
11.3848049922
 10
10.2492557545
 20
11.3974853811
 10
10.2595639847
 20
11.4118522555
 10
10.2692704314
 20
11.4279138639
 10
10.2783205696
 20
11.4455447156
 10
10.2867912425
 20
11.4648040476
 10
10.2947802467
 20
11.4858377064
 10
10.3022907399
 20
11.5085592353
 10
10.3093564989
 20
11.5329221393
 10
10.3161044701
 20
11.5592429619
 10
10.3226445625
 20
11.5879251463
 10
10.3290347372
 20
11.6192649785
 10
10.3352286602
 20
11.6530303547
 10
10.3411767883
 20
11.6888038355
 10
10.34685494
 20
11.7261638323
 10
10.3522495149
 20
11.7646555114
  0
LWPOLYLINE
  5
598
100
AcDbEntity
  8
0
100
AcDbPolyline
 62
9
  6
CONTINUOUS
 90
27
 70
0
 10
10.0791365212
 20
11.3881403328
 10
10.0942447098
 20
11.3884344995
 10
10.1089429259
 20
11.3893726943
 10
10.1225656274
 20
11.3909605694
 10
10.1346997911
 20
11.3931111517
 10
10.1451442593
 20
11.395666849
 10
10.1544525098
 20
11.3986398313
 10
10.1637781603
 20
11.4024526793
 10
10.1727297589
 20
11.40711546
 10
10.180875609
 20
11.4124432711
 10
10.1881418748
 20
11.4182742168
 10
10.1953781573
 20
11.4252898668
 10
10.2027843481
 20
11.4339259565
 10
10.2102265187
 20
11.4443071529
 10
10.2176600423
 20
11.4566170714
 10
10.2249672865
 20
11.4708613939
 10
10.232117051
 20
11.4871253297
 10
10.2391078265
 20
11.5055376397
 10
10.2458708645
 20
11.5260034864
 10
10.2523774766
 20
11.5484428971
 10
10.2587010034
 20
11.5731117556
 10
10.2649145559
 20
11.6003648498
 10
10.2710519915
 20
11.6304676363
 10
10.2770518982
 20
11.6631773866
 10
10.282852
 20
11.6980622063
 10
10.2884171733
 20
11.7346800867
 10
10.2937265564
 20
11.7725656593
  0
LINE
  5
599
100
AcDbEntity
  8
0
100
AcDbLine
 62
7
  6
CONTINUOUS
 10
7.2195428903
 20
11.3290852147
 11
10.0791370251
 21
11.3290852147
  0
LINE
  5
59A
100
AcDbEntity
  8
0
100
AcDbLine
 62
9
  6
CONTINUOUS
 10
7.2195428903
 20
11.3881403328
 11
10.0791365212
 21
11.3881403328
  0
LINE
  5
59B
100
AcDbEntity
  8
0
100
AcDbLine
 62
7
  6
CONTINUOUS
 10
7.2195428903
 20
11.3290852147
 11
7.1831319251
 21
11.3307619391
  0
LINE
  5
59C
100
AcDbEntity
  8
0
100
AcDbLine
 62
7
  6
CONTINUOUS
 10
7.1807034951
 20
11.3309561064
 11
7.2195428903
 21
11.3290852147
  0
LINE
  5
59D
100
AcDbEntity
  8
0
100
AcDbLine
 62
7
  6
CONTINUOUS
 10
6.9528501015
 20
14.4426918455
 11
6.9464283001
 21
14.3974400962
  0
LINE
  5
59E
100
AcDbEntity
  8
0
100
AcDbLine
 62
7
  6
CONTINUOUS
 10
6.9464283001
 20
11.764667341
 11
6.9543075065
 21
11.7098339181
  0
LINE
  5
59F
100
AcDbEntity
  8
0
100
AcDbLine
 62
7
  6
CONTINUOUS
 10
6.9524090552
 20
11.7223092727
 11
6.9464283001
 21
11.764667341
  0
LWPOLYLINE
  5
5A0
100
AcDbEntity
  8
0
100
AcDbPolyline
 62
7
  6
CONTINUOUS
 90
27
 70
0
 10
6.9464304803
 20
11.7646511866
 10
6.9519064933
 20
11.7256013064
 10
6.9580108677
 20
11.6856145814
 10
6.9646402689
 20
11.6462760371
 10
6.9716464019
 20
11.6090780637
 10
6.9787875171
 20
11.5754521398
 10
6.9858695453
 20
11.5459976364
 10
6.9930055488
 20
11.5198396219
 10
7.000410958
 20
11.4960099799
 10
7.008290445
 20
11.4739049337
 10
7.0166347352
 20
11.4536565421
 10
7.0254633034
 20
11.4352578117
 10
7.0349188606
 20
11.4184671319
 10
7.0450124688
 20
11.4033260816
 10
7.0556450743
 20
11.389954298
 10
7.0667798542
 20
11.3782896561
 10
7.0781975931
 20
11.3683747039
 10
7.0898721423
 20
11.3600031578
 10
7.1029181568
 20
11.3523871582
 10
7.1166263159
 20
11.3460074749
 10
7.1301360916
 20
11.3410555154
 10
7.1429570031
 20
11.3373728322
 10
7.1566093117
 20
11.3343628712
 10
7.1718918344
 20
11.3319289345
 10
7.1879900094
 20
11.3302575516
 10
7.2039840016
 20
11.3293542458
 10
7.2195428903
 20
11.3290852147
  0
LWPOLYLINE
  5
5A1
100
AcDbEntity
  8
0
100
AcDbPolyline
 62
9
  6
CONTINUOUS
 90
27
 70
0
 10
7.0049528551
 20
11.7725656593
 10
7.0103426788
 20
11.7341285278
 10
7.0163240653
 20
11.6949457199
 10
7.0227828683
 20
11.6566169919
 10
7.0295558428
 20
11.6206536289
 10
7.036388833
 20
11.5884747166
 10
7.0430774675
 20
11.56065212
 10
7.0497085448
 20
11.536340263
 10
7.0564510148
 20
11.5146382658
 10
7.0634410491
 20
11.4950215908
 10
7.0706028461
 20
11.4776346022
 10
7.0778756902
 20
11.4624689913
 10
7.0852887617
 20
11.4492954026
 10
7.0927635707
 20
11.4380729173
 10
7.100178606
 20
11.4287392679
 10
7.1075287175
 20
11.4210335191
 10
7.1147709044
 20
11.4147417152
 10
7.1220498119
 20
11.4095219016
 10
7.1302494495
 20
11.4047370303
 10
7.1391409566
 20
11.4006023355
 10
7.1483113557
 20
11.3972441849
 10
7.1574411958
 20
11.394624165
 10
7.1676203863
 20
11.3923823742
 10
7.1795375947
 20
11.3904870132
 10
7.1926212563
 20
11.389130789
 10
7.2060807316
 20
11.3883721282
 10
7.2195428903
 20
11.3881403328
  0
LWPOLYLINE
  5
5A2
100
AcDbEntity
  8
0
100
AcDbPolyline
 62
7
  6
CONTINUOUS
 90
4
 70
0
 10
8.3186491139
 20
14.9511324588
 10
8.3129159687
 20
14.9482325247
 10
8.3071361062
 20
14.9449535299
 10
8.3012989232
 20
14.9412898837
  0
LINE
  5
5A3
100
AcDbEntity
  8
0
100
AcDbLine
 62
9
  6
CONTINUOUS
 10
7.2195428903
 20
11.3881403328
 11
7.2195428903
 21
11.3290852147
  0
LINE
  5
5A4
100
AcDbEntity
  8
0
100
AcDbLine
 62
9
  6
CONTINUOUS
 10
7.2195428903
 20
14.7739671044
 11
7.2195428903
 21
14.8330222226
  0
LINE
  5
5A5
100
AcDbEntity
  8
0
100
AcDbLine
 62
7
  6
CONTINUOUS
 10
8.3048515706
 20
14.9511324588
 11
8.2950089971
 21
14.9412898837
  0
LWPOLYLINE
  5
5A6
100
AcDbEntity
  8
0
100
AcDbPolyline
 62
7
  6
CONTINUOUS
 90
4
 70
0
 10
8.8982724156
 20
14.9511324588
 10
8.8925392705
 20
14.9482325247
 10
8.8867594079
 20
14.9449535299
 10
8.8809222249
 20
14.9412898837
  0
LINE
  5
5A7
100
AcDbEntity
  8
0
100
AcDbLine
 62
9
  6
CONTINUOUS
 10
7.0049528551
 20
11.7725656593
 11
6.9464283001
 21
11.764667341
  0
LINE
  5
5A8
100
AcDbEntity
  8
0
100
AcDbLine
 62
9
  6
CONTINUOUS
 10
10.2937265564
 20
11.7725656593
 11
10.3522511114
 21
11.764667341
  0
LINE
  5
5A9
100
AcDbEntity
  8
AXIS
100
AcDbLine
 62
7
  6
CONTINUOUS
 10
8.2950089971
 20
14.8330222226
 11
8.2950089971
 21
14.9412898837
  0
LINE
  5
5AA
100
AcDbEntity
  8
0
100
AcDbLine
 62
7
  6
CONTINUOUS
 10
8.3012989232
 20
14.8330222226
 11
8.3012989232
 21
14.9412898837
  0
LINE
  5
5AB
100
AcDbEntity
  8
AXIS
100
AcDbLine
 62
7
  6
CONTINUOUS
 10
8.4160719892
 20
14.9511324588
 11
8.4160719892
 21
15.2944395454
  0
LINE
  5
5AC
100
AcDbEntity
  8
0
100
AcDbLine
 62
7
  6
CONTINUOUS
 10
8.4177571866
 20
14.8330222226
 11
8.4177571866
 21
14.9412898837
  0
LINE
  5
5AD
100
AcDbEntity
  8
0
100
AcDbLine
 62
7
  6
CONTINUOUS
 10
8.4426467924
 20
15.2944395454
 11
8.4426467924
 21
15.3448332462
  0
LINE
  5
5AE
100
AcDbEntity
  8
0
100
AcDbLine
 62
7
  6
CONTINUOUS
 10
8.5328814423
 20
14.8330222226
 11
8.5328814423
 21
14.9412898837
  0
LINE
  5
5AF
100
AcDbEntity
  8
0
100
AcDbLine
 62
7
  6
CONTINUOUS
 10
8.7657979692
 20
14.8330222226
 11
8.7657979692
 21
14.9412898837
  0
LINE
  5
5B0
100
AcDbEntity
  8
0
100
AcDbLine
 62
7
  6
CONTINUOUS
 10
8.8560326191
 20
15.2944395454
 11
8.8560326191
 21
15.3448332462
  0
LINE
  5
5B1
100
AcDbEntity
  8
0
100
AcDbLine
 62
7
  6
CONTINUOUS
 10
8.8809222249
 20
14.8330222226
 11
8.8809222249
 21
14.9412898837
  0
LINE
  5
5B2
100
AcDbEntity
  8
AXIS
100
AcDbLine
 62
7
  6
CONTINUOUS
 10
8.8826074223
 20
14.9511324588
 11
8.8826074223
 21
15.2944395454
  0
LINE
  5
5B3
100
AcDbEntity
  8
0
100
AcDbLine
 62
7
  6
CONTINUOUS
 10
8.9973804884
 20
14.8330222226
 11
8.9973804884
 21
14.9412898837
  0
LINE
  5
5B4
100
AcDbEntity
  8
AXIS
100
AcDbLine
 62
7
  6
CONTINUOUS
 10
9.0036704144
 20
14.8330222226
 11
9.0036704144
 21
14.9412898837
  0
LINE
  5
5B5
100
AcDbEntity
  8
0
100
AcDbLine
 62
9
  6
CONTINUOUS
 10
10.2937265564
 20
14.389541778
 11
10.3522511114
 21
14.3974400962
  0
LINE
  5
5B6
100
AcDbEntity
  8
0
100
AcDbLine
 62
9
  6
CONTINUOUS
 10
7.0049528551
 20
14.389541778
 11
6.9464283001
 21
14.3974400962
  0
LWPOLYLINE
  5
5B7
100
AcDbEntity
  8
0
100
AcDbPolyline
 62
7
  6
CONTINUOUS
 90
4
 70
0
 10
8.4177571866
 20
14.9412898837
 10
8.4119177981
 20
14.9449548479
 10
8.4061380147
 20
14.9482336659
 10
8.4004069959
 20
14.9511324588
  0
LWPOLYLINE
  5
5B8
100
AcDbEntity
  8
0
100
AcDbPolyline
 62
7
  6
CONTINUOUS
 90
12
 70
0
 10
8.3795129152
 20
14.8330222226
 10
8.3759966565
 20
14.8353380664
 10
8.3723802702
 20
14.8369556628
 10
8.3687249874
 20
14.8380602911
 10
8.3650515435
 20
14.8387531762
 10
8.3613731077
 20
14.8390877114
 10
8.3576935624
 20
14.8390881852
 10
8.3540153341
 20
14.8387546607
 10
8.3503407727
 20
14.8380626235
 10
8.3466825591
 20
14.8369581328
 10
8.343062478
 20
14.8353396922
 10
8.3395431946
 20
14.8330222226
  0
LINE
  5
5B9
100
AcDbEntity
  8
0
100
AcDbLine
 62
9
  6
CONTINUOUS
 10
10.0791365212
 20
11.3881403328
 11
10.0791365212
 21
11.3290852147
  0
LINE
  5
5BA
100
AcDbEntity
  8
0
100
AcDbLine
 62
9
  6
CONTINUOUS
 10
10.0791365212
 20
14.7739671044
 11
10.0791365212
 21
14.8330222226
  0
LINE
  5
5BB
100
AcDbEntity
  8
0
100
AcDbLine
 62
9
  6
CONTINUOUS
 10
10.0791365212
 20
14.7739671044
 11
7.2195428903
 21
14.7739671044
  0
LWPOLYLINE
  5
5BC
100
AcDbEntity
  8
0
100
AcDbPolyline
 62
7
  6
CONTINUOUS
 90
6
 70
0
 10
8.6893094264
 20
14.8330222226
 10
8.6828013856
 20
14.8351950983
 10
8.6754657098
 20
14.8368772778
 10
8.667419214
 20
14.838097925
 10
8.6587093366
 20
14.8388597223
 10
8.6493397058
 20
14.8391291621
  0
LWPOLYLINE
  5
5BD
100
AcDbEntity
  8
0
100
AcDbPolyline
 62
7
  6
CONTINUOUS
 90
12
 70
0
 10
8.9591362169
 20
14.8330222226
 10
8.9556199582
 20
14.8353380664
 10
8.952003572
 20
14.8369556628
 10
8.9483482891
 20
14.8380602911
 10
8.9446748453
 20
14.8387531762
 10
8.9409964095
 20
14.8390877114
 10
8.9373168642
 20
14.8390881852
 10
8.9336386358
 20
14.8387546607
 10
8.9299640744
 20
14.8380626235
 10
8.9263058608
 20
14.8369581328
 10
8.9226857797
 20
14.8353396922
 10
8.9191664963
 20
14.8330222226
  0
LINE
  5
5BE
100
AcDbEntity
  8
0
100
AcDbLine
 62
7
  6
CONTINUOUS
 10
8.9938278409
 20
14.9511324588
 11
9.0036704144
 21
14.9412898837
  0
LWPOLYLINE
  5
5BF
100
AcDbEntity
  8
0
100
AcDbPolyline
 62
7
  6
CONTINUOUS
 90
4
 70
0
 10
8.5675818238
 20
14.9511324588
 10
8.5561155334
 20
14.9482325247
 10
8.5445558084
 20
14.9449535299
 10
8.5328814423
 20
14.9412898837
  0
LINE
  5
5C0
100
AcDbEntity
  8
0
100
AcDbLine
 62
7
  6
CONTINUOUS
 10
7.1753498768
 20
14.8304890065
 11
7.2195428903
 21
14.8330222226
  0
LWPOLYLINE
  5
5C1
100
AcDbEntity
  8
0
100
AcDbPolyline
 62
7
  6
CONTINUOUS
 90
6
 70
0
 10
8.6493397058
 20
14.8391291621
 10
8.6399678008
 20
14.8388595902
 10
8.6312556771
 20
14.8380973892
 10
8.6232070877
 20
14.836876034
 10
8.6158723918
 20
14.8351935406
 10
8.6093699852
 20
14.8330222226
  0
LWPOLYLINE
  5
5C2
100
AcDbEntity
  8
0
100
AcDbPolyline
 62
7
  6
CONTINUOUS
 90
27
 70
0
 10
7.2195423864
 20
14.8330222226
 10
7.2020471181
 20
14.8326797057
 10
7.1844855079
 20
14.8315559015
 10
7.1675623632
 20
14.8295795499
 10
7.1517918466
 20
14.826780086
 10
7.1375426715
 20
14.8232890692
 10
7.1241924928
 20
14.8190205998
 10
7.1101546166
 20
14.8132748686
 10
7.0961094589
 20
14.8059534544
 10
7.083054352
 20
14.7974133437
 10
7.0714817465
 20
14.7881294461
 10
7.0603072463
 20
14.7773024451
 10
7.049423657
 20
14.7646220561
 10
7.0391154268
 20
14.7502551817
 10
7.0294089801
 20
14.7341935733
 10
7.0203588419
 20
14.7165627216
 10
7.011888169
 20
14.6973033896
 10
7.0038991648
 20
14.6762697309
 10
6.9963886717
 20
14.6535482019
 10
6.9893229127
 20
14.6291852979
 10
6.9825749414
 20
14.6028644753
 10
6.976034849
 20
14.5741822909
 10
6.9696446744
 20
14.5428424587
 10
6.9634507513
 20
14.5090770825
 10
6.9575026233
 20
14.4733036017
 10
6.9518244715
 20
14.4359436049
 10
6.9464298966
 20
14.3974519258
  0
LWPOLYLINE
  5
5C3
100
AcDbEntity
  8
0
100
AcDbPolyline
 62
9
  6
CONTINUOUS
 90
27
 70
0
 10
7.2195428903
 20
14.7739671044
 10
7.2044347018
 20
14.7736729377
 10
7.1897364856
 20
14.7727347429
 10
7.1761137842
 20
14.7711468678
 10
7.1639796205
 20
14.7689962856
 10
7.1535351522
 20
14.7664405883
 10
7.1442269018
 20
14.7634676059
 10
7.1349012512
 20
14.7596547579
 10
7.1259496526
 20
14.7549919773
 10
7.1178038026
 20
14.7496641662
 10
7.1105375367
 20
14.7438332204
 10
7.1033012542
 20
14.7368175704
 10
7.0958950634
 20
14.7281814807
 10
7.0884528928
 20
14.7178002843
 10
7.0810193692
 20
14.7054903658
 10
7.0737121251
 20
14.6912460433
 10
7.0665623606
 20
14.6749821075
 10
7.059571585
 20
14.6565697975
 10
7.0528085471
 20
14.6361039508
 10
7.0463019349
 20
14.6136645402
 10
7.0399784081
 20
14.5889956817
 10
7.0337648557
 20
14.5617425875
 10
7.0276274201
 20
14.531639801
 10
7.0216275133
 20
14.4989300507
 10
7.0158274115
 20
14.4640452309
 10
7.0102622383
 20
14.4274273505
 10
7.0049528551
 20
14.389541778
  0
LINE
  5
5C4
100
AcDbEntity
  8
0
100
AcDbLine
 62
7
  6
CONTINUOUS
 10
10.0791365212
 20
14.8330222226
 11
7.2195423864
 21
14.8330222226
  0
LINE
  5
5C5
100
AcDbEntity
  8
0
100
AcDbLine
 62
7
  6
CONTINUOUS
 10
9.0036704144
 20
14.9412898837
 11
8.9973804884
 21
14.9412898837
  0
LINE
  5
5C6
100
AcDbEntity
  8
0
100
AcDbLine
 62
7
  6
CONTINUOUS
 10
8.3012989232
 20
14.9412898837
 11
8.2950089971
 21
14.9412898837
  0
LINE
  5
5C7
100
AcDbEntity
  8
0
100
AcDbLine
 62
7
  6
CONTINUOUS
 10
8.4177571866
 20
14.9412898837
 11
8.5328814423
 21
14.9412898837
  0
LINE
  5
5C8
100
AcDbEntity
  8
0
100
AcDbLine
 62
7
  6
CONTINUOUS
 10
8.7657979692
 20
14.9412898837
 11
8.8809222249
 21
14.9412898837
  0
LINE
  5
5C9
100
AcDbEntity
  8
0
100
AcDbLine
 62
7
  6
CONTINUOUS
 10
8.3048529239
 20
14.9511324588
 11
8.9938264877
 21
14.9511324588
  0
LINE
  5
5CA
100
AcDbEntity
  8
0
100
AcDbLine
 62
7
  6
CONTINUOUS
 10
10.0791365212
 20
14.8330222226
 11
10.1155474864
 21
14.8313454981
  0
LINE
  5
5CB
100
AcDbEntity
  8
0
100
AcDbLine
 62
7
  6
CONTINUOUS
 10
10.1179765405
 20
14.8311512277
 11
10.0791365212
 21
14.8330222226
  0
LWPOLYLINE
  5
5CC
100
AcDbEntity
  8
0
100
AcDbPolyline
 62
7
  6
CONTINUOUS
 90
4
 70
0
 10
8.7657979692
 20
14.9412898837
 10
8.7541191921
 20
14.9449548479
 10
8.7425596254
 20
14.9482336659
 10
8.7310975877
 20
14.9511324588
  0
LWPOLYLINE
  5
5CD
100
AcDbEntity
  8
0
100
AcDbPolyline
 62
7
  6
CONTINUOUS
 90
4
 70
0
 10
8.9973804884
 20
14.9412898837
 10
8.9915410998
 20
14.9449548479
 10
8.9857613165
 20
14.9482336659
 10
8.9800302976
 20
14.9511324588
  0
LWPOLYLINE
  5
5CE
100
AcDbEntity
  8
0
100
AcDbPolyline
 62
9
  6
CONTINUOUS
 90
27
 70
0
 10
10.2937265564
 20
14.389541778
 10
10.2883367327
 20
14.4279789094
 10
10.2823553462
 20
14.4671617173
 10
10.2758965433
 20
14.5054904453
 10
10.2691235687
 20
14.5414538083
 10
10.2622905785
 20
14.5736327207
 10
10.255601944
 20
14.6014553172
 10
10.2489708668
 20
14.6257671742
 10
10.2422283967
 20
14.6474691714
 10
10.2352383624
 20
14.6670858464
 10
10.2280765654
 20
14.684472835
 10
10.2208037213
 20
14.6996384459
 10
10.2133906498
 20
14.7128120346
 10
10.2059158408
 20
14.7240345199
 10
10.1985008055
 20
14.7333681693
 10
10.191150694
 20
14.7410739181
 10
10.1839085071
 20
14.7473657221
 10
10.1766295997
 20
14.7525855356
 10
10.168429962
 20
14.7573704069
 10
10.1595384549
 20
14.7615051017
 10
10.1503680558
 20
14.7648632524
 10
10.1412382158
 20
14.7674832723
 10
10.1310590253
 20
14.769725063
 10
10.1191418169
 20
14.771620424
 10
10.1060581553
 20
14.7729766482
 10
10.0925986799
 20
14.7737353091
 10
10.0791365212
 20
14.7739671044
  0
LINE
  5
5CF
100
AcDbEntity
  8
0
100
AcDbLine
 62
7
  6
CONTINUOUS
 10
10.3522511114
 20
11.764667341
 11
10.3522495149
 21
11.7646555114
  0
LINE
  5
5D0
100
AcDbEntity
  8
0
100
AcDbLine
 62
7
  6
CONTINUOUS
 10
10.3458293332
 20
11.7194157448
 11
10.3522511114
 21
11.764667341
  0
LINE
  5
5D1
100
AcDbEntity
  8
0
100
AcDbLine
 62
7
  6
CONTINUOUS
 10
8.4160719892
 20
15.2944395454
 11
8.8826074223
 21
15.2944395454
  0
LINE
  5
5D2
100
AcDbEntity
  8
0
100
AcDbLine
 62
7
  6
CONTINUOUS
 10
10.3522511114
 20
14.3974400962
 11
10.3443720032
 21
14.45227289
  0
LINE
  5
5D3
100
AcDbEntity
  8
0
100
AcDbLine
 62
7
  6
CONTINUOUS
 10
10.3462703563
 20
14.4397981645
 11
10.3522511114
 21
14.3974400962
  0
LWPOLYLINE
  5
5D4
100
AcDbEntity
  8
0
100
AcDbPolyline
 62
7
  6
CONTINUOUS
 90
27
 70
0
 10
10.3522489312
 20
14.3974562507
 10
10.3467729183
 20
14.4365061308
 10
10.3406685439
 20
14.4764928558
 10
10.3340391426
 20
14.5158314001
 10
10.3270330096
 20
14.5530293736
 10
10.3198918944
 20
14.5866552974
 10
10.3128098663
 20
14.6161098008
 10
10.3056738627
 20
14.6422678153
 10
10.2982684535
 20
14.6660974573
 10
10.2903889665
 20
14.6882025036
 10
10.2820446763
 20
14.7084508951
 10
10.2732161082
 20
14.7268496255
 10
10.2637605509
 20
14.7436403054
 10
10.2536669427
 20
14.7587813557
 10
10.2430343372
 20
14.7721531393
 10
10.2318995573
 20
14.7838177811
 10
10.2204818184
 20
14.7937327333
 10
10.2088072692
 20
14.8021042794
 10
10.1957612548
 20
14.8097202791
 10
10.1820530957
 20
14.8160999624
 10
10.1685433199
 20
14.8210519218
 10
10.1557224085
 20
14.824734605
 10
10.1420700998
 20
14.8277445661
 10
10.1267875771
 20
14.8301785028
 10
10.1106894021
 20
14.8318498856
 10
10.0946954099
 20
14.8327531915
 10
10.0791365212
 20
14.8330222226
  0
LINE
  5
5D5
100
AcDbEntity
  8
0
100
AcDbLine
 62
7
  6
CONTINUOUS
 10
8.4426504051
 20
15.3448332462
 11
8.8560290064
 21
15.3448332462
  0
LINE
  5
5D6
100
AcDbEntity
  8
02___PRT_ALL_AXES
100
AcDbLine
 62
7
  6
CONTINUOUS
 10
6.8580011231
 20
1.2500357456
 11
6.8580011231
 21
2.2413743283
  0
LINE
  5
5D7
100
AcDbEntity
  8
0
100
AcDbLine
 62
9
  6
CONTINUOUS
 10
6.9464298511
 20
2.2413743283
 11
6.9464283001
 21
2.175232596
  0
LINE
  5
5D8
100
AcDbEntity
  8
0
100
AcDbLine
 62
9
  6
CONTINUOUS
 10
6.9464283001
 20
2.175232596
 11
6.9464298966
 21
1.2500357456
  0
LINE
  5
5D9
100
AcDbEntity
  8
0
100
AcDbLine
 62
9
  6
CONTINUOUS
 10
7.2195428903
 20
2.3004294464
 11
7.2195428903
 21
1.1909806275
  0
LWPOLYLINE
  5
5DA
100
AcDbEntity
  8
0
100
AcDbPolyline
 62
9
  6
CONTINUOUS
 90
6
 70
0
 10
10.2937265564
 20
1.1909806275
 10
10.3118116426
 20
1.193870992
 10
10.3281264317
 20
1.2022591548
 10
10.3410739194
 20
1.2153240223
 10
10.349386717
 20
1.2317867134
 10
10.3522511114
 20
1.2500357456
  0
LWPOLYLINE
  5
5DB
100
AcDbEntity
  8
0
100
AcDbPolyline
 62
9
  6
CONTINUOUS
 90
6
 70
0
 10
7.0049528551
 20
1.1909806275
 10
6.9868677747
 20
1.1938709901
 10
6.9705529868
 20
1.20225915
 10
6.9576054968
 20
1.2153240163
 10
6.9492926961
 20
1.2317867093
 10
6.9464283001
 20
1.2500357456
  0
LINE
  5
5DC
100
AcDbEntity
  8
0
100
AcDbLine
 62
7
  6
CONTINUOUS
 10
10.3816206191
 20
1.1909806275
 11
6.9170587924
 21
1.1909806275
  0
LINE
  5
5DD
100
AcDbEntity
  8
0
100
AcDbLine
 62
9
  6
CONTINUOUS
 10
10.4406782884
 20
1.2500357456
 11
6.8580011231
 21
1.2500357456
  0
LINE
  5
5DE
100
AcDbEntity
  8
0
100
AcDbLine
 62
7
  6
CONTINUOUS
 10
8.7657979692
 20
1.2894058243
 11
8.5328814423
 21
1.2894058243
  0
LINE
  5
5DF
100
AcDbEntity
  8
0
100
AcDbLine
 62
7
  6
CONTINUOUS
 10
8.3012989232
 20
1.5575844736
 11
8.4177571866
 21
1.3558728444
  0
LINE
  5
5E0
100
AcDbEntity
  8
0
100
AcDbLine
 62
7
  6
CONTINUOUS
 10
8.3012989232
 20
1.6905185137
 11
8.4177571866
 21
1.8922301429
  0
LINE
  5
5E1
100
AcDbEntity
  8
AXIS
100
AcDbLine
 62
7
  6
CONTINUOUS
 10
8.6257176585
 20
1.4813349582
 11
8.6257176585
 21
1.4574103394
  0
LINE
  5
5E2
100
AcDbEntity
  8
AXIS
100
AcDbLine
 62
7
  6
CONTINUOUS
 10
8.672961753
 20
1.4574103394
 11
8.672961753
 21
1.4813349582
  0
LINE
  5
5E3
100
AcDbEntity
  8
0
100
AcDbLine
 62
7
  6
CONTINUOUS
 10
8.5328814423
 20
1.9586971629
 11
8.7657979692
 21
1.9586971629
  0
LINE
  5
5E4
100
AcDbEntity
  8
0
100
AcDbLine
 62
7
  6
CONTINUOUS
 10
8.8809222249
 20
1.8922301429
 11
8.9973804884
 21
1.6905185137
  0
LINE
  5
5E5
100
AcDbEntity
  8
0
100
AcDbLine
 62
7
  6
CONTINUOUS
 10
8.9973804884
 20
1.5575844736
 11
8.8809222249
 21
1.3558728444
  0
LINE
  5
5E6
100
AcDbEntity
  8
0
100
AcDbLine
 62
7
  6
CONTINUOUS
 10
6.858003014
 20
2.175232596
 11
10.4406763975
 21
2.175232596
  0
LINE
  5
5E7
100
AcDbEntity
  8
0
100
AcDbLine
 62
9
  6
CONTINUOUS
 10
6.8580011231
 20
2.2413743283
 11
10.4406782884
 21
2.2413743283
  0
LINE
  5
5E8
100
AcDbEntity
  8
0
100
AcDbLine
 62
7
  6
CONTINUOUS
 10
6.9170562412
 20
2.3004294464
 11
10.3816231703
 21
2.3004294464
  0
LWPOLYLINE
  5
5E9
100
AcDbEntity
  8
0
100
AcDbPolyline
 62
9
  6
CONTINUOUS
 90
6
 70
0
 10
7.0049528551
 20
2.3004294464
 10
6.9868677635
 20
2.2975390802
 10
6.9705529732
 20
2.2891509146
 10
6.9576054876
 20
2.276086046
 10
6.949292693
 20
2.2596233566
 10
6.9464283001
 20
2.2413743283
  0
LWPOLYLINE
  5
5EA
100
AcDbEntity
  8
0
100
AcDbPolyline
 62
9
  6
CONTINUOUS
 90
6
 70
0
 10
10.2937265564
 20
2.3004294464
 10
10.3118116373
 20
2.2975390836
 10
10.3281264253
 20
2.2891509235
 10
10.3410739151
 20
2.2760860571
 10
10.3493867155
 20
2.2596233643
 10
10.3522511114
 20
2.2413743283
  0
LINE
  5
5EB
100
AcDbEntity
  8
0
100
AcDbLine
 62
9
  6
CONTINUOUS
 10
10.0791365212
 20
1.1909806275
 11
10.0791365212
 21
2.3004294464
  0
LINE
  5
5EC
100
AcDbEntity
  8
0
100
AcDbLine
 62
9
  6
CONTINUOUS
 10
10.3522511114
 20
2.175232596
 11
10.3522489313
 21
1.2500357456
  0
LINE
  5
5ED
100
AcDbEntity
  8
0
100
AcDbLine
 62
9
  6
CONTINUOUS
 10
10.3522490018
 20
2.2413743283
 11
10.3522511114
 21
2.175232596
  0
LINE
  5
5EE
100
AcDbEntity
  8
02___PRT_ALL_AXES
100
AcDbLine
 62
7
  6
CONTINUOUS
 10
10.4406782884
 20
1.2500357456
 11
10.4406782884
 21
2.2413743283
  0
CIRCLE
  5
5EF
100
AcDbEntity
  8
0
100
AcDbCircle
 62
7
  6
CONTINUOUS
 10
13.080515
 20
1.124274
 40
0.252091
  0
CIRCLE
  5
5F0
100
AcDbEntity
  8
0
100
AcDbCircle
 62
7
  6
CONTINUOUS
 10
13.080515
 20
1.124274
 40
0.182698
  0
CIRCLE
  5
5F1
100
AcDbEntity
  8
02___PRT_ALL_AXES
100
AcDbCircle
 62
7
  6
CONTINUOUS
 10
7.2171559922
 20
4.1334405791
 40
0.1328740157
  0
CIRCLE
  5
5F2
100
AcDbEntity
  8
0
100
AcDbCircle
 62
7
  6
CONTINUOUS
 10
7.2171559922
 20
4.1334405791
 40
0.123944514
  0
CIRCLE
  5
5F3
100
AcDbEntity
  8
0
100
AcDbCircle
 62
9
  6
CONTINUOUS
 10
7.2171559922
 20
4.1334405791
 40
0.1179445126
  0
ARC
  5
5F4
100
AcDbEntity
  8
0
100
AcDbCircle
 62
7
  6
CONTINUOUS
 10
0.5981586034
 20
5.6688736499
 40
9.842519685
100
AcDbArc
 50
352.3138609194
 51
7.686114768
  0
ARC
  5
5F5
100
AcDbEntity
  8
0
100
AcDbCircle
 62
9
  6
CONTINUOUS
 10
0.5981586034
 20
5.6688736499
 40
9.7834645705
100
AcDbArc
 50
352.3139527406
 51
7.6860472594
  0
ARC
  5
5F6
100
AcDbEntity
  8
0
100
AcDbCircle
 62
7
  6
CONTINUOUS
 10
0.5981586034
 20
5.6688736499
 40
9.4094467478
100
AcDbArc
 50
355.1364758596
 51
4.8635241404
  0
ARC
  5
5F7
100
AcDbEntity
  8
0
100
AcDbCircle
 62
7
  6
CONTINUOUS
 10
0.5981586034
 20
5.6688736499
 40
9.3307086614
100
AcDbArc
 50
355.1364758596
 51
4.8635241404
  0
CIRCLE
  5
5F8
100
AcDbEntity
  8
02___PRT_ALL_AXES
100
AcDbCircle
 62
7
  6
CONTINUOUS
 10
7.2171559922
 20
7.2043067208
 40
0.1328740157
  0
CIRCLE
  5
5F9
100
AcDbEntity
  8
0
100
AcDbCircle
 62
7
  6
CONTINUOUS
 10
7.2171559922
 20
7.2043067208
 40
0.123944514
  0
CIRCLE
  5
5FA
100
AcDbEntity
  8
0
100
AcDbCircle
 62
9
  6
CONTINUOUS
 10
7.2171559922
 20
7.2043067208
 40
0.1179445126
  0
CIRCLE
  5
5FB
100
AcDbEntity
  8
02___PRT_ALL_AXES
100
AcDbCircle
 62
7
  6
CONTINUOUS
 10
10.0815234194
 20
4.1334405791
 40
0.1328740157
  0
CIRCLE
  5
5FC
100
AcDbEntity
  8
0
100
AcDbCircle
 62
7
  6
CONTINUOUS
 10
10.0815234194
 20
4.1334405791
 40
0.123944514
  0
CIRCLE
  5
5FD
100
AcDbEntity
  8
0
100
AcDbCircle
 62
9
  6
CONTINUOUS
 10
10.0815234194
 20
4.1334405791
 40
0.1179445126
  0
ARC
  5
5FE
100
AcDbEntity
  8
0
100
AcDbCircle
 62
7
  6
CONTINUOUS
 10
16.7005208081
 20
5.6688736499
 40
9.842519685
100
AcDbArc
 50
172.3138609194
 51
187.686114768
  0
ARC
  5
5FF
100
AcDbEntity
  8
0
100
AcDbCircle
 62
9
  6
CONTINUOUS
 10
16.7005208081
 20
5.6688736499
 40
9.7834645705
100
AcDbArc
 50
172.3139527406
 51
187.6860472594
  0
ARC
  5
600
100
AcDbEntity
  8
0
100
AcDbCircle
 62
7
  6
CONTINUOUS
 10
16.7005208081
 20
5.6688736499
 40
9.4094467478
100
AcDbArc
 50
175.1364758596
 51
184.8635241404
  0
ARC
  5
601
100
AcDbEntity
  8
0
100
AcDbCircle
 62
7
  6
CONTINUOUS
 10
16.7005208081
 20
5.6688736499
 40
9.3307086614
100
AcDbArc
 50
175.1364758596
 51
184.8635241404
  0
CIRCLE
  5
602
100
AcDbEntity
  8
02___PRT_ALL_AXES
100
AcDbCircle
 62
7
  6
CONTINUOUS
 10
10.0815234194
 20
7.2043067208
 40
0.1328740157
  0
CIRCLE
  5
603
100
AcDbEntity
  8
0
100
AcDbCircle
 62
7
  6
CONTINUOUS
 10
10.0815234194
 20
7.2043067208
 40
0.123944514
  0
CIRCLE
  5
604
100
AcDbEntity
  8
0
100
AcDbCircle
 62
9
  6
CONTINUOUS
 10
10.0815234194
 20
7.2043067208
 40
0.1179445126
  0
CIRCLE
  5
605
100
AcDbEntity
  8
0
100
AcDbCircle
 62
7
  6
CONTINUOUS
 10
8.6493397058
 20
9.3101973254
 40
0.2007822553
  0
CIRCLE
  5
606
100
AcDbEntity
  8
0
100
AcDbCircle
 62
9
  6
CONTINUOUS
 10
8.6493397058
 20
9.3101973254
 40
0.1924437778
  0
CIRCLE
  5
607
100
AcDbEntity
  8
0
100
AcDbCircle
 62
7
  6
CONTINUOUS
 10
8.6493397058
 20
9.3101973254
 40
0.1909448819
  0
CIRCLE
  5
608
100
AcDbEntity
  8
0
100
AcDbCircle
 62
7
  6
CONTINUOUS
 10
8.6493397058
 20
9.3101973254
 40
0.188976378
  0
CIRCLE
  5
609
100
AcDbEntity
  8
0
100
AcDbCircle
 62
9
  6
CONTINUOUS
 10
8.6493397058
 20
9.3101973254
 40
0.1838582673
  0
ARC
  5
60A
100
AcDbEntity
  8
0
100
AcDbCircle
 62
7
  6
CONTINUOUS
 10
10.3816231703
 20
8.578504412
 40
0.0590551181
100
AcDbArc
 50
269.9999978451
 51
360.0
  0
ARC
  5
60B
100
AcDbEntity
  8
0
100
AcDbCircle
 62
7
  6
CONTINUOUS
 10
6.9170562412
 20
8.578504412
 40
0.0590551181
100
AcDbArc
 50
180.0
 51
270.0000021549
  0
ARC
  5
60C
100
AcDbEntity
  8
0
100
AcDbCircle
 62
7
  6
CONTINUOUS
 10
10.3816231703
 20
9.5698429947
 40
0.0590551181
100
AcDbArc
 50
0.0
 51
90.0000019929
  0
ARC
  5
60D
100
AcDbEntity
  8
0
100
AcDbCircle
 62
7
  6
CONTINUOUS
 10
6.9170562412
 20
9.5698429947
 40
0.0590551181
100
AcDbArc
 50
89.9999980071
 51
180.0
  0
ARC
  5
60E
100
AcDbEntity
  8
0
100
AcDbCircle
 62
7
  6
CONTINUOUS
 10
8.6493397058
 20
9.3889374829
 40
0.0393700787
100
AcDbArc
 50
0.0
 51
180.0
  0
ARC
  5
60F
100
AcDbEntity
  8
0
100
AcDbCircle
 62
7
  6
CONTINUOUS
 10
8.6493397058
 20
9.2314571679
 40
0.0393700787
100
AcDbArc
 50
180.0
 51
360.0
  0
ARC
  5
610
100
AcDbEntity
  8
0
100
AcDbCircle
 62
7
  6
CONTINUOUS
 10
16.7005208081
 20
13.0810537186
 40
9.842519685
100
AcDbArc
 50
172.3138832535
 51
187.6861421508
  0
ARC
  5
611
100
AcDbEntity
  8
0
100
AcDbCircle
 62
7
  6
CONTINUOUS
 10
0.5981586034
 20
13.0810537186
 40
9.842519685
100
AcDbArc
 50
352.3138832535
 51
7.6861421508
  0
ARC
  5
612
100
AcDbEntity
  8
0
100
AcDbCircle
 62
9
  6
CONTINUOUS
 10
0.5981586034
 20
13.0810537186
 40
9.7834645703
100
AcDbArc
 50
352.3139527406
 51
7.6860472594
  0
ARC
  5
613
100
AcDbEntity
  8
0
100
AcDbCircle
 62
9
  6
CONTINUOUS
 10
16.7005208081
 20
13.0810537186
 40
9.7834645703
100
AcDbArc
 50
172.3139527406
 51
187.6860472594
  0
CIRCLE
  5
614
100
AcDbEntity
  8
DEFAULT_2
100
AcDbCircle
 62
8
  6
HIDDEN
 10
10.0815234194
 20
14.6164867895
 40
0.125
  0
CIRCLE
  5
615
100
AcDbEntity
  8
DEFAULT_2
100
AcDbCircle
 62
8
  6
HIDDEN
 10
10.0815234194
 20
11.5456206477
 40
0.125
  0
CIRCLE
  5
616
100
AcDbEntity
  8
DEFAULT_2
100
AcDbCircle
 62
8
  6
HIDDEN
 10
7.2171559922
 20
14.6164867895
 40
0.125
  0
CIRCLE
  5
617
100
AcDbEntity
  8
DEFAULT_2
100
AcDbCircle
 62
8
  6
HIDDEN
 10
7.2171559922
 20
11.5456206477
 40
0.125
  0
CIRCLE
  5
618
100
AcDbEntity
  8
02___PRT_ALL_AXES
100
AcDbCircle
 62
7
  6
CONTINUOUS
 10
7.2171559922
 20
11.5456206477
 40
0.100492126
  0
CIRCLE
  5
619
100
AcDbEntity
  8
02___PRT_ALL_AXES
100
AcDbCircle
 62
7
  6
CONTINUOUS
 10
7.2171559922
 20
14.6164867895
 40
0.100492126
  0
CIRCLE
  5
61A
100
AcDbEntity
  8
02___PRT_ALL_AXES
100
AcDbCircle
 62
7
  6
CONTINUOUS
 10
10.0815234194
 20
11.5456206477
 40
0.100492126
  0
CIRCLE
  5
61B
100
AcDbEntity
  8
02___PRT_ALL_AXES
100
AcDbCircle
 62
7
  6
CONTINUOUS
 10
10.0815234194
 20
14.6164867895
 40
0.100492126
  0
CIRCLE
  5
61C
100
AcDbEntity
  8
02___PRT_ALL_AXES
100
AcDbCircle
 62
7
  6
CONTINUOUS
 10
10.0815234194
 20
11.5456206477
 40
0.0492125984
  0
CIRCLE
  5
61D
100
AcDbEntity
  8
02___PRT_ALL_AXES
100
AcDbCircle
 62
7
  6
CONTINUOUS
 10
10.0815234194
 20
14.6164867895
 40
0.0492125984
  0
CIRCLE
  5
61E
100
AcDbEntity
  8
02___PRT_ALL_AXES
100
AcDbCircle
 62
7
  6
CONTINUOUS
 10
7.2171559922
 20
11.5456206477
 40
0.0492125984
  0
CIRCLE
  5
61F
100
AcDbEntity
  8
02___PRT_ALL_AXES
100
AcDbCircle
 62
7
  6
CONTINUOUS
 10
7.2171559922
 20
14.6164867895
 40
0.0492125984
  0
CIRCLE
  5
620
100
AcDbEntity
  8
02___PRT_ALL_AXES
100
AcDbCircle
 62
7
  6
CONTINUOUS
 10
7.2171559922
 20
14.6164867895
 40
0.0472
  0
CIRCLE
  5
621
100
AcDbEntity
  8
02___PRT_ALL_AXES
100
AcDbCircle
 62
7
  6
CONTINUOUS
 10
10.0815234194
 20
14.6164867895
 40
0.0472
  0
CIRCLE
  5
622
100
AcDbEntity
  8
02___PRT_ALL_AXES
100
AcDbCircle
 62
7
  6
CONTINUOUS
 10
7.2171559922
 20
11.5456206477
 40
0.0472
  0
CIRCLE
  5
623
100
AcDbEntity
  8
02___PRT_ALL_AXES
100
AcDbCircle
 62
7
  6
CONTINUOUS
 10
10.0815234194
 20
11.5456206477
 40
0.0472
  0
ARC
  5
624
100
AcDbEntity
  8
0
100
AcDbCircle
 62
7
  6
CONTINUOUS
 10
6.9170562412
 20
1.2500357456
 40
0.0590551181
100
AcDbArc
 50
180.0
 51
270.0000019929
  0
CIRCLE
  5
625
100
AcDbEntity
  8
0
100
AcDbCircle
 62
7
  6
CONTINUOUS
 10
8.586702294
 20
1.6866889054
 40
0.0167322835
  0
CIRCLE
  5
626
100
AcDbEntity
  8
0
100
AcDbCircle
 62
7
  6
CONTINUOUS
 10
8.586702294
 20
1.5614140819
 40
0.0167322835
  0
CIRCLE
  5
627
100
AcDbEntity
  8
0
100
AcDbCircle
 62
7
  6
CONTINUOUS
 10
8.586702294
 20
1.5614140819
 40
0.0088580289
  0
CIRCLE
  5
628
100
AcDbEntity
  8
0
100
AcDbCircle
 62
7
  6
CONTINUOUS
 10
8.586702294
 20
1.6866889054
 40
0.0088580289
  0
ARC
  5
629
100
AcDbEntity
  8
0
100
AcDbCircle
 62
7
  6
CONTINUOUS
 10
6.9170562412
 20
2.2413743283
 40
0.0590551181
100
AcDbArc
 50
89.9999978451
 51
180.0
  0
ARC
  5
62A
100
AcDbEntity
  8
0
100
AcDbCircle
 62
7
  6
CONTINUOUS
 10
8.6493397058
 20
1.6240514936
 40
0.3543307087
100
AcDbArc
 50
229.1881364537
 51
250.8118635463
  0
ARC
  5
62B
100
AcDbEntity
  8
0
100
AcDbCircle
 62
7
  6
CONTINUOUS
 10
8.6493397058
 20
1.6240514936
 40
0.3543307087
100
AcDbArc
 50
289.1881364537
 51
310.8118635463
  0
ARC
  5
62C
100
AcDbEntity
  8
0
100
AcDbCircle
 62
7
  6
CONTINUOUS
 10
8.6493397058
 20
1.6240514936
 40
0.3543307087
100
AcDbArc
 50
49.1881364537
 51
70.8118635463
  0
ARC
  5
62D
100
AcDbEntity
  8
0
100
AcDbCircle
 62
7
  6
CONTINUOUS
 10
8.6493397058
 20
1.6240514936
 40
0.3543307087
100
AcDbArc
 50
109.1881364537
 51
130.8118635463
  0
ARC
  5
62E
100
AcDbEntity
  8
0
100
AcDbCircle
 62
7
  6
CONTINUOUS
 10
8.6493397058
 20
1.6240514936
 40
0.3543307087
100
AcDbArc
 50
349.1881364537
 51
10.8118635463
  0
ARC
  5
62F
100
AcDbEntity
  8
0
100
AcDbCircle
 62
7
  6
CONTINUOUS
 10
8.6493397058
 20
1.6240514936
 40
0.3543307087
100
AcDbArc
 50
169.1881364537
 51
190.8118635463
  0
ARC
  5
630
100
AcDbEntity
  8
0
100
AcDbCircle
 62
7
  6
CONTINUOUS
 10
8.6493397058
 20
1.6240514936
 40
0.3444881351
100
AcDbArc
 50
43.729096013
 51
76.270903987
  0
ARC
  5
631
100
AcDbEntity
  8
0
100
AcDbCircle
 62
7
  6
CONTINUOUS
 10
8.6493397058
 20
1.6240514936
 40
0.3444881351
100
AcDbArc
 50
283.729096013
 51
316.270903987
  0
ARC
  5
632
100
AcDbEntity
  8
0
100
AcDbCircle
 62
7
  6
CONTINUOUS
 10
8.6493397058
 20
1.6240514936
 40
0.3444881351
100
AcDbArc
 50
223.729096013
 51
256.270903987
  0
ARC
  5
633
100
AcDbEntity
  8
0
100
AcDbCircle
 62
7
  6
CONTINUOUS
 10
8.6493397058
 20
1.6240514936
 40
0.3444881351
100
AcDbArc
 50
343.729096013
 51
16.270903987
  0
ARC
  5
634
100
AcDbEntity
  8
0
100
AcDbCircle
 62
7
  6
CONTINUOUS
 10
8.6493397058
 20
1.6240514936
 40
0.3444881351
100
AcDbArc
 50
103.729096013
 51
136.270903987
  0
ARC
  5
635
100
AcDbEntity
  8
0
100
AcDbCircle
 62
7
  6
CONTINUOUS
 10
8.6493397058
 20
1.6240514936
 40
0.3444881351
100
AcDbArc
 50
163.729096013
 51
196.270903987
  0
CIRCLE
  5
636
100
AcDbEntity
  8
0
100
AcDbCircle
 62
7
  6
CONTINUOUS
 10
8.6493397058
 20
1.6240514936
 40
0.2332677165
  0
CIRCLE
  5
637
100
AcDbEntity
  8
0
100
AcDbCircle
 62
7
  6
CONTINUOUS
 10
8.6493397058
 20
1.6240514936
 40
0.2066929134
  0
ARC
  5
638
100
AcDbEntity
  8
AXIS
100
AcDbCircle
 62
7
  6
CONTINUOUS
 10
8.6493397058
 20
1.6240514936
 40
0.1683070866
100
AcDbArc
 50
278.0681505001
 51
261.9318494999
  0
ARC
  5
639
100
AcDbEntity
  8
0
100
AcDbCircle
 62
7
  6
CONTINUOUS
 10
10.3816231703
 20
1.2500357456
 40
0.0590551181
100
AcDbArc
 50
269.9999980071
 51
360.0
  0
ARC
  5
63A
100
AcDbEntity
  8
AXIS
100
AcDbCircle
 62
7
  6
CONTINUOUS
 10
8.6493397058
 20
1.4813349582
 40
0.0236220472
100
AcDbArc
 50
0.0
 51
180.0
  0
CIRCLE
  5
63B
100
AcDbEntity
  8
0
100
AcDbCircle
 62
7
  6
CONTINUOUS
 10
8.6493397058
 20
1.6240514936
 40
0.0167322835
  0
CIRCLE
  5
63C
100
AcDbEntity
  8
0
100
AcDbCircle
 62
7
  6
CONTINUOUS
 10
8.7119771175
 20
1.6866889054
 40
0.0167322835
  0
CIRCLE
  5
63D
100
AcDbEntity
  8
0
100
AcDbCircle
 62
7
  6
CONTINUOUS
 10
8.7119771175
 20
1.5614140819
 40
0.0167322835
  0
CIRCLE
  5
63E
100
AcDbEntity
  8
0
100
AcDbCircle
 62
7
  6
CONTINUOUS
 10
8.7119771175
 20
1.6866889054
 40
0.0088580289
  0
CIRCLE
  5
63F
100
AcDbEntity
  8
0
100
AcDbCircle
 62
7
  6
CONTINUOUS
 10
8.6493397058
 20
1.6240514936
 40
0.0088580289
  0
CIRCLE
  5
640
100
AcDbEntity
  8
0
100
AcDbCircle
 62
7
  6
CONTINUOUS
 10
8.7119771175
 20
1.5614140819
 40
0.0088580289
  0
ARC
  5
641
100
AcDbEntity
  8
0
100
AcDbCircle
 62
7
  6
CONTINUOUS
 10
10.3816231703
 20
2.2413743283
 40
0.0590551181
100
AcDbArc
 50
0.0
 51
90.0000021549
  0
ENDSEC
  0
SECTION
  2
OBJECTS
  0
DICTIONARY
  5
C
100
AcDbDictionary
280
0
281
1
  3
ACAD_GROUP
350
D
  3
ACAD_MLINESTYLE
350
17
  3
ACAD_LAYOUT
350
1A
  3
ACAD_PLOTSETTINGS
350
19
  3
ACAD_PLOTSTYLENAME
350
E
  0
DICTIONARY
  5
D
102
{ACAD_REACTORS
330
C
102
}
100
AcDbDictionary
280
0
281
1
  0
ACDBDICTIONARYWDFLT
  5
E
102
{ACAD_REACTORS
330
C
102
}
100
AcDbDictionary
281
1
  3
Normal
350
F
100
AcDbDictionaryWithDefault
340
F
  0
DICTIONARY
  5
17
102
{ACAD_REACTORS
330
C
102
}
100
AcDbDictionary
280
0
281
1
  3
Standard
350
18
  0
DICTIONARY
  5
19
102
{ACAD_REACTORS
330
C
102
}
100
AcDbDictionary
281
1
  0
DICTIONARY
  5
1A
102
{ACAD_REACTORS
330
C
102
}
100
AcDbDictionary
281
1
  3
Model
350
642
  3
Layout1
350
643
  0
ACDBPLACEHOLDER
  5
F
102
{ACAD_REACTORS
330
E
102
}
  0
MLINESTYLE
  5
18
102
{ACAD_REACTORS
330
17
102
}
100
AcDbMlineStyle
  2
STANDARD
 70
0
  3

 62
256
 51
90.0
 52
90.0
 71
2
 49
0.5
 62
256
  6
BYLAYER
 49
-0.5
 62
256
  6
BYLAYER
  0
LAYOUT
  5
642
102
{ACAD_REACTORS
330
1A
102
}
100
AcDbPlotSettings
  1

  2
none_device
  4
ANSI_C_(22.00_x_17.00_Inches)
  6

 40
0.0
 41
0.0
 42
0.0
 43
0.0
 44
558.8
 45
431.8
 46
0.0
 47
0.0
 48
0.0
 49
0.0
140
0.0
141
0.0
142
1.0
143
1.0
 70
1024
 72
0
 73
0
 74
0
  7

 75
0
147
1.0
148
0.0
149
0.0
100
AcDbLayout
  1
Model
 70
0
 71
0
 10
0.0
 20
0.0
 11
22.0
 21
17.0
 12
0.0
 22
0.0
 32
0.0
 14
0.0
 24
0.0
 34
0.0
 15
0.0
 25
0.0
 35
0.0
146
0.0
 13
0.0
 23
0.0
 33
0.0
 16
1.0
 26
0.0
 36
0.0
 17
0.0
 27
1.0
 37
0.0
 76
0
330
22E
345
0
346
0
  0
LAYOUT
  5
643
102
{ACAD_REACTORS
330
1A
102
}
100
AcDbPlotSettings
  1

  2
none_device
  4
ANSI_C_(22.00_x_17.00_Inches)
  6

 40
0.0
 41
0.0
 42
0.0
 43
0.0
 44
558.8
 45
431.8
 46
0.0
 47
0.0
 48
0.0
 49
0.0
140
0.0
141
0.0
142
1.0
143
1.0
 70
0
 72
0
 73
0
 74
0
  7

 75
0
147
1.0
148
0.0
149
0.0
100
AcDbLayout
  1
Layout1
 70
0
 71
1
 10
0.0
 20
0.0
 11
22.0
 21
17.0
 12
0.0
 22
0.0
 32
0.0
 14
0.0
 24
0.0
 34
0.0
 15
0.0
 25
0.0
 35
0.0
146
0.0
 13
0.0
 23
0.0
 33
0.0
 16
1.0
 26
0.0
 36
0.0
 17
0.0
 27
1.0
 37
0.0
 76
0
330
22F
345
0
346
0
  0
ENDSEC
  0
EOF
