999
DXF file: 144876_1.dxf
999
Pro/ENGINEER 2006170 by Parametric Technology Corporation
  0
SECTION
  2
HEADER
  9
$ACADVER
  1
AC1015
  9
$DWGCODEPAGE
  3
ANSI_1252
  9
$EXTMAX
 10
17.0
 20
11.0
 30
0.0
  9
$EXTMIN
 10
0.0
 20
0.0
 30
0.0
  9
$LIMMIN
 10
0.0
 20
0.0
  9
$LIMMAX
 10
17.0
 20
11.0
  9
$VIEWCTR
 10
8.5
 20
5.5
  9
$VIEWSIZE
 40
11.0
  9
$CLAYER
  8
0
  9
$LTSCALE
 40
0.935
  9
$CELTYPE
  6
BYLAYER
  9
$DIMSCALE
 40
1.0
  9
$DIMASZ
 40
0.1875
  9
$DIMEXO
 40
0.10625
  9
$DIMDLI
 40
0.646
  9
$DIMEXE
 40
0.306
  9
$DIMCEN
 40
0.153
  9
$DIMLFAC
 40
1.0
  9
$DIMBLK
  1
_FILLED
  9
$DIMTXT
 40
0.1
  9
$DIMTOL
 70
1
  9
$DIMLIM
 70
0
  9
$DIMTFAC
 40
1.0
  9
$DIMTP
 40
0.005
  9
$DIMTM
 40
0.005
  9
$PDMODE
 70
3
  9
$PDSIZE
 40
0.3125
  9
$HANDSEED
  5
720
  9
$MEASUREMENT
 70
0
  9
$INSUNITS
 70
1
  0
ENDSEC
  0
SECTION
  2
CLASSES
  0
CLASS
  1
ACDBDICTIONARYWDFLT
  2
AcDbDictionaryWithDefault
  3
AutoCAD 2000
 90
0
280
0
281
0
  0
CLASS
  1
ACDBPLACEHOLDER
  2
AcDbPlaceHolder
  3
AutoCAD 2000
 90
0
280
0
281
0
  0
CLASS
  1
LAYOUT
  2
AcDbLayout
  3
AutoCAD 2000
 90
0
280
0
281
0
  0
ENDSEC
  0
SECTION
  2
TABLES
  0
TABLE
  2
VPORT
  5
8
100
AcDbSymbolTable
 70
2
  0
VPORT
  5
1F4
100
AcDbSymbolTableRecord
100
AcDbViewportTableRecord
  2
*ACTIVE
 70
0
 10
0.0
 20
0.0
 11
1.0
 21
1.0
 12
8.5
 22
5.5
 13
0.0
 23
0.0
 14
1.0
 24
1.0
 15
0.0
 25
0.0
 16
0.0
 26
0.0
 36
1.0
 17
0.0
 27
0.0
 37
0.0
 40
11.0
 41
1.5454545455
 42
50.0
 43
0.0
 44
0.0
 50
0.0
 51
0.0
 71
0
 72
100
 73
1
 74
1
 75
0
 76
0
 77
0
 78
0
  0
ENDTAB
  0
TABLE
  2
LTYPE
  5
5
100
AcDbSymbolTable
 70
6
  0
LTYPE
  5
14
100
AcDbSymbolTableRecord
100
AcDbLinetypeTableRecord
  2
BYBLOCK
 70
0
  3

 72
65
 73
0
 40
0.0
  0
LTYPE
  5
15
100
AcDbSymbolTableRecord
100
AcDbLinetypeTableRecord
  2
BYLAYER
 70
0
  3

 72
65
 73
0
 40
0.0
  0
LTYPE
  5
16
100
AcDbSymbolTableRecord
100
AcDbLinetypeTableRecord
  2
CONTINUOUS
 70
64
  3
Solid line
 72
65
 73
0
 40
0.0
  0
LTYPE
  5
1F5
100
AcDbSymbolTableRecord
100
AcDbLinetypeTableRecord
  2
CENTER
 70
64
  3
____ _ ____ _ ____ _ ____ _ ____ _ ____ _ ____
 72
65
 73
4
 40
0.6
 49
0.375
 74
0
 49
-0.075
 74
0
 49
0.075
 74
0
 49
-0.075
 74
0
  0
LTYPE
  5
1F6
100
AcDbSymbolTableRecord
100
AcDbLinetypeTableRecord
  2
HIDDEN
 70
64
  3
- - - - - - - - - - - - - - - - - - - -
 72
65
 73
2
 40
0.2
 49
0.1
 74
0
 49
-0.1
 74
0
  0
LTYPE
  5
1F7
100
AcDbSymbolTableRecord
100
AcDbLinetypeTableRecord
  2
PHANTOM
 70
64
  3
_____ _ _ _____ _ _ _____ _ _ _____
 72
65
 73
6
 40
0.8
 49
0.45
 74
0
 49
-0.05
 74
0
 49
0.1
 74
0
 49
-0.05
 74
0
 49
0.1
 74
0
 49
-0.05
 74
0
  0
LTYPE
  5
1F8
100
AcDbSymbolTableRecord
100
AcDbLinetypeTableRecord
  2
DOT
 70
64
  3
. . . . . . . . . . . . . . . . . . . .
 72
65
 73
2
 40
0.2
 49
0.1
 74
0
 49
-0.1
 74
0
  0
LTYPE
  5
1F9
100
AcDbSymbolTableRecord
100
AcDbLinetypeTableRecord
  2
DASHED
 70
64
  3
- - - - - - - - - - - - - - - - - - - -
 72
65
 73
2
 40
0.2
 49
0.1
 74
0
 49
-0.1
 74
0
  0
ENDTAB
  0
TABLE
  2
LAYER
  5
2
100
AcDbSymbolTable
 70
36
  0
LAYER
  5
10
100
AcDbSymbolTableRecord
100
AcDbLayerTableRecord
  2
0
 70
0
 62
7
  6
CONTINUOUS
370
-3
390
F
  0
LAYER
  5
1FA
100
AcDbSymbolTableRecord
100
AcDbLayerTableRecord
  2
DEFAULT_1
 70
0
 62
7
  6
CENTER
370
-3
390
F
  0
LAYER
  5
1FB
100
AcDbSymbolTableRecord
100
AcDbLayerTableRecord
  2
DEFAULT_2
 70
0
 62
8
  6
HIDDEN
370
-3
390
F
  0
LAYER
  5
1FC
100
AcDbSymbolTableRecord
100
AcDbLayerTableRecord
  2
DEFAULT_3
 70
0
 62
7
  6
PHANTOM
370
-3
390
F
  0
LAYER
  5
1FD
100
AcDbSymbolTableRecord
100
AcDbLayerTableRecord
  2
_2D_DELETED_OBJS
 70
0
 62
7
  6
CONTINUOUS
370
-3
390
F
  0
LAYER
  5
1FE
100
AcDbSymbolTableRecord
100
AcDbLayerTableRecord
  2
_BLACK_HOLE
 70
0
 62
7
  6
CONTINUOUS
370
-3
390
F
  0
LAYER
  5
1FF
100
AcDbSymbolTableRecord
100
AcDbLayerTableRecord
  2
01___PRT_ALL_DTM_PLN
 70
0
 62
7
  6
CONTINUOUS
370
-3
390
F
  0
LAYER
  5
200
100
AcDbSymbolTableRecord
100
AcDbLayerTableRecord
  2
01___PRT_DEF_DTM_PLN
 70
0
 62
7
  6
CONTINUOUS
370
-3
390
F
  0
LAYER
  5
201
100
AcDbSymbolTableRecord
100
AcDbLayerTableRecord
  2
02___PRT_ALL_AXES
 70
0
 62
7
  6
CONTINUOUS
370
-3
390
F
  0
LAYER
  5
202
100
AcDbSymbolTableRecord
100
AcDbLayerTableRecord
  2
03___PRT_ALL_CURVES
 70
0
 62
7
  6
CONTINUOUS
370
-3
390
F
  0
LAYER
  5
203
100
AcDbSymbolTableRecord
100
AcDbLayerTableRecord
  2
04___PRT_ALL_DTM_PNT
 70
0
 62
7
  6
CONTINUOUS
370
-3
390
F
  0
LAYER
  5
204
100
AcDbSymbolTableRecord
100
AcDbLayerTableRecord
  2
05___PRT_ALL_DTM_CSYS
 70
0
 62
7
  6
CONTINUOUS
370
-3
390
F
  0
LAYER
  5
205
100
AcDbSymbolTableRecord
100
AcDbLayerTableRecord
  2
05___PRT_DEF_DTM_CSYS
 70
0
 62
7
  6
CONTINUOUS
370
-3
390
F
  0
LAYER
  5
206
100
AcDbSymbolTableRecord
100
AcDbLayerTableRecord
  2
06___PRT_ALL_SURFS
 70
0
 62
7
  6
CONTINUOUS
370
-3
390
F
  0
LAYER
  5
207
100
AcDbSymbolTableRecord
100
AcDbLayerTableRecord
  2
AXIS
 70
0
 62
7
  6
CONTINUOUS
370
-3
390
F
  0
LAYER
  5
208
100
AcDbSymbolTableRecord
100
AcDbLayerTableRecord
  2
AXIS_COSMETIC_THREADS
 70
0
 62
7
  6
CONTINUOUS
370
-3
390
F
  0
LAYER
  5
209
100
AcDbSymbolTableRecord
100
AcDbLayerTableRecord
  2
COSMETIC_THREADS
 70
0
 62
7
  6
CONTINUOUS
370
-3
390
F
  0
LAYER
  5
20A
100
AcDbSymbolTableRecord
100
AcDbLayerTableRecord
  2
DATUM_CURVES
 70
0
 62
7
  6
CONTINUOUS
370
-3
390
F
  0
LAYER
  5
20B
100
AcDbSymbolTableRecord
100
AcDbLayerTableRecord
  2
DATUM_PLANES
 70
0
 62
7
  6
CONTINUOUS
370
-3
390
F
  0
LAYER
  5
20C
100
AcDbSymbolTableRecord
100
AcDbLayerTableRecord
  2
NOTES
 70
0
 62
7
  6
CONTINUOUS
370
-3
390
F
  0
LAYER
  5
20D
100
AcDbSymbolTableRecord
100
AcDbLayerTableRecord
  2
QUILTS
 70
0
 62
7
  6
CONTINUOUS
370
-3
390
F
  0
LAYER
  5
20E
100
AcDbSymbolTableRecord
100
AcDbLayerTableRecord
  2
SCHEME_DIMS
 70
0
 62
7
  6
CONTINUOUS
370
-3
390
F
  0
LAYER
  5
20F
100
AcDbSymbolTableRecord
100
AcDbLayerTableRecord
  2
SYMBOLS
 70
0
 62
7
  6
CONTINUOUS
370
-3
390
F
  0
ENDTAB
  0
TABLE
  2
STYLE
  5
3
100
AcDbSymbolTable
 70
1
  0
STYLE
  5
11
100
AcDbSymbolTableRecord
100
AcDbTextStyleTableRecord
  2
STANDARD
 70
0
 40
0.0
 41
1.0
 50
0.0
 71
0
 42
0.2
  3
txt
  4

  0
ENDTAB
  0
TABLE
  2
VIEW
  5
6
100
AcDbSymbolTable
 70
0
  0
ENDTAB
  0
TABLE
  2
UCS
  5
7
100
AcDbSymbolTable
 70
0
  0
ENDTAB
  0
TABLE
  2
APPID
  5
9
100
AcDbSymbolTable
 70
1
  0
APPID
  5
210
100
AcDbSymbolTableRecord
100
AcDbRegAppTableRecord
  2
ACAD
 70
0
  0
ENDTAB
  0
TABLE
  2
BLOCK_RECORD
  5
1
100
AcDbSymbolTable
 70
0
  0
BLOCK_RECORD
  5
1F
100
AcDbSymbolTableRecord
100
AcDbBlockTableRecord
  2
*MODEL_SPACE
  0
BLOCK_RECORD
  5
1B
100
AcDbSymbolTableRecord
100
AcDbBlockTableRecord
  2
*PAPER_SPACE
  0
BLOCK_RECORD
  5
211
100
AcDbSymbolTableRecord
100
AcDbBlockTableRecord
  2
_FILLED
  0
BLOCK_RECORD
  5
212
100
AcDbSymbolTableRecord
100
AcDbBlockTableRecord
  2
BANNER_LOGO_TITLEBLOCK_BL0
  0
BLOCK_RECORD
  5
213
100
AcDbSymbolTableRecord
100
AcDbBlockTableRecord
  2
*D0
  0
BLOCK_RECORD
  5
214
100
AcDbSymbolTableRecord
100
AcDbBlockTableRecord
  2
*D1
  0
BLOCK_RECORD
  5
215
100
AcDbSymbolTableRecord
100
AcDbBlockTableRecord
  2
*D2
  0
BLOCK_RECORD
  5
216
100
AcDbSymbolTableRecord
100
AcDbBlockTableRecord
  2
*D3
  0
BLOCK_RECORD
  5
217
100
AcDbSymbolTableRecord
100
AcDbBlockTableRecord
  2
*D4
  0
ENDTAB
  0
TABLE
  2
DIMSTYLE
  5
A
100
AcDbSymbolTable
 70
1
100
AcDbDimStyleTable
 71
0
  0
DIMSTYLE
105
218
100
AcDbSymbolTableRecord
100
AcDbDimStyleTableRecord
  2
STANDARD
 70
0
  3

  4

 40
1.0
 41
0.1875
 42
0.0625
 43
0.38
 44
0.18
 45
0.0
 46
0.0
 47
0.005
 48
0.005
140
0.1
141
0.09
142
0.0
143
25.4
144
1.0
145
0.0
146
1.0
147
0.09
 71
1.0
 72
0.0
 73
1
 74
1
 75
0
 76
0
 77
0
 78
4
170
0
171
2
172
0
173
0
174
0
175
0
176
0
177
0
178
0
270
2
271
3
272
3
273
2
274
2
275
0
280
0
281
0
282
0
283
1
284
4
285
0
286
0
287
3
288
0
340
11
341
211
342
211
343
211
344
211
  0
DIMSTYLE
105
219
100
AcDbSymbolTableRecord
100
AcDbDimStyleTableRecord
  2
DIMSTYLE_1
 70
0
  3

  4

 40
1.0
 41
0.1875
 42
0.0625
 43
0.38
 44
0.18
 45
0.0
 46
0.0
 47
0.1
 48
0.1
140
0.1
141
0.09
142
0.0
143
25.4
144
1.0
145
0.0
146
1.0
147
0.09
 71
0.0
 72
0.0
 73
1
 74
1
 75
0
 76
0
 77
0
 78
4
170
0
171
2
172
0
173
0
174
0
175
0
176
0
177
0
178
0
270
2
271
1
272
1
273
2
274
2
275
0
280
0
281
0
282
0
283
1
284
4
285
0
286
0
287
3
288
0
340
11
341
211
342
211
343
211
344
211
  0
DIMSTYLE
105
21A
100
AcDbSymbolTableRecord
100
AcDbDimStyleTableRecord
  2
DIMSTYLE_2
 70
0
  3

  4

 40
1.0
 41
0.1875
 42
0.0625
 43
0.38
 44
0.18
 45
0.0
 46
0.0
 47
0.1
 48
0.1
140
0.1
141
0.09
142
0.0
143
25.4
144
1.0
145
0.0
146
1.0
147
0.09
 71
0.0
 72
0.0
 73
1
 74
1
 75
0
 76
0
 77
0
 78
4
170
0
171
2
172
0
173
0
174
0
175
0
176
0
177
0
178
0
270
2
271
1
272
1
273
2
274
2
275
0
280
0
281
0
282
0
283
1
284
4
285
0
286
0
287
3
288
0
340
11
341
211
342
211
343
211
344
211
  0
ENDTAB
  0
ENDSEC
  0
SECTION
  2
BLOCKS
  0
BLOCK
  5
20
100
AcDbEntity
  8
0
100
AcDbBlockBegin
  2
*MODEL_SPACE
 70
0
 10
0.0
 20
0.0
 30
0.0
  3
*MODEL_SPACE
  1

  0
ENDBLK
  5
21
100
AcDbEntity
  8
0
100
AcDbBlockEnd
  0
BLOCK
  5
1C
100
AcDbEntity
  8
0
100
AcDbBlockBegin
  2
*PAPER_SPACE
 70
0
 10
0.0
 20
0.0
 30
0.0
  3
*PAPER_SPACE
  1

  0
ENDBLK
  5
1D
100
AcDbEntity
  8
0
100
AcDbBlockEnd
  0
BLOCK
  5
21B
100
AcDbEntity
  8
0
100
AcDbBlockBegin
 62
2
  6
CONTINUOUS
  2
BANNER_LOGO_TITLEBLOCK_BL0
 70
64
 10
12.9046655056
 20
2.5403783448
  3
BANNER_LOGO_TITLEBLOCK_BL0
  1

  0
LWPOLYLINE
  5
21C
100
AcDbEntity
  8
0
100
AcDbPolyline
 62
2
  6
CONTINUOUS
 90
29
 70
0
 10
12.0796650004
 20
2.5403783448
 10
12.1000078385
 20
2.5005819703
 10
12.1615890075
 20
2.4620382478
 10
12.2590135686
 20
2.4281250935
 10
12.3910903821
 20
2.3992568791
 10
12.5462480343
 20
2.3779627503
 10
12.7225901426
 20
2.3645025835
 10
12.9046652672
 20
2.3600565514
 10
13.0867408686
 20
2.3645025835
 10
13.2630829769
 20
2.3779627503
 10
13.4182401522
 20
2.3992568791
 10
13.5503174426
 20
2.4281250935
 10
13.6477415269
 20
2.4620382478
 10
13.7093231727
 20
2.5005819703
 10
13.7296660108
 20
2.5403783448
 10
13.7093231727
 20
2.5801747193
 10
13.6477415269
 20
2.6187184418
 10
13.5503174426
 20
2.6526315961
 10
13.4182401522
 20
2.6814998105
 10
13.2630829769
 20
2.7027939393
 10
13.0867408686
 20
2.7162541061
 10
12.9046652672
 20
2.7207001382
 10
12.7225901426
 20
2.7162541061
 10
12.5462480343
 20
2.7027939393
 10
12.3910903821
 20
2.6814998105
 10
12.2590135686
 20
2.6526315961
 10
12.1615890075
 20
2.6187184418
 10
12.1000078385
 20
2.5801747193
 10
12.0796650004
 20
2.5403783448
  0
ARC
  5
21D
100
AcDbEntity
  8
0
100
AcDbCircle
 62
2
  6
CONTINUOUS
 10
12.400005721
 20
2.5168763464
 40
0.0153945295
100
AcDbArc
 50
354.0454548824
 51
5.1878013979
  0
ARC
  5
21E
100
AcDbEntity
  8
0
100
AcDbCircle
 62
2
  6
CONTINUOUS
 10
12.3931760319
 20
2.5166878286
 40
0.0222174455
100
AcDbArc
 50
4.0793399388
 51
69.834329283
  0
LINE
  5
21F
100
AcDbEntity
  8
0
100
AcDbLine
 62
2
  6
CONTINUOUS
 10
12.4008351814
 20
2.5375433389
 11
12.3907841758
 21
2.5410923409
  0
LINE
  5
220
100
AcDbEntity
  8
0
100
AcDbLine
 62
2
  6
CONTINUOUS
 10
12.3907841758
 20
2.5410923409
 11
12.3990241804
 21
2.5458683435
  0
ARC
  5
221
100
AcDbEntity
  8
0
100
AcDbCircle
 62
2
  6
CONTINUOUS
 10
12.3771587979
 20
2.5826952352
 40
0.0428289026
100
AcDbArc
 50
300.6990502959
 51
319.0591802498
  0
ARC
  5
222
100
AcDbEntity
  8
0
100
AcDbCircle
 62
2
  6
CONTINUOUS
 10
12.3971873948
 20
2.5665668817
 40
0.0171568255
100
AcDbArc
 50
315.9145124245
 51
16.0049121282
  0
ARC
  5
223
100
AcDbEntity
  8
0
100
AcDbCircle
 62
2
  6
CONTINUOUS
 10
12.3922357827
 20
2.5632132173
 40
0.0229166529
100
AcDbArc
 50
20.6563876465
 51
62.3316896973
  0
ARC
  5
224
100
AcDbEntity
  8
0
100
AcDbCircle
 62
2
  6
CONTINUOUS
 10
12.371573659
 20
2.5302846524
 40
0.061747717
100
AcDbArc
 50
59.5385584989
 51
90.0050977555
  0
LINE
  5
225
100
AcDbEntity
  8
0
100
AcDbLine
 62
2
  6
CONTINUOUS
 10
12.3715681652
 20
2.5920323691
 11
12.2055050731
 21
2.5920323691
  0
ARC
  5
226
100
AcDbEntity
  8
0
100
AcDbCircle
 62
2
  6
CONTINUOUS
 10
12.2055050712
 20
2.5895573696
 40
0.0024749995
100
AcDbArc
 50
89.9999571957
 51
180.0000428043
  0
LINE
  5
227
100
AcDbEntity
  8
0
100
AcDbLine
 62
2
  6
CONTINUOUS
 10
12.2030300717
 20
2.5895573678
 11
12.2030300717
 21
2.5697573568
  0
ARC
  5
228
100
AcDbEntity
  8
0
100
AcDbCircle
 62
2
  6
CONTINUOUS
 10
12.2055050712
 20
2.5697573549
 40
0.0024749995
100
AcDbArc
 50
179.9999571957
 51
270.0000428043
  0
LINE
  5
229
100
AcDbEntity
  8
0
100
AcDbLine
 62
2
  6
CONTINUOUS
 10
12.2055050731
 20
2.5672823554
 11
12.2294470864
 21
2.5672823554
  0
ARC
  5
22A
100
AcDbEntity
  8
0
100
AcDbCircle
 62
2
  6
CONTINUOUS
 10
12.2294470882
 20
2.5648073559
 40
0.0024749995
100
AcDbArc
 50
359.9999571957
 51
90.0000428043
  0
LINE
  5
22B
100
AcDbEntity
  8
0
100
AcDbLine
 62
2
  6
CONTINUOUS
 10
12.2319220877
 20
2.564807354
 11
12.2319220877
 21
2.5184523283
  0
ARC
  5
22C
100
AcDbEntity
  8
0
100
AcDbCircle
 62
2
  6
CONTINUOUS
 10
12.2294470882
 20
2.5184523265
 40
0.0024749995
100
AcDbArc
 50
269.9999571957
 51
0.0000428043
  0
LINE
  5
22D
100
AcDbEntity
  8
0
100
AcDbLine
 62
2
  6
CONTINUOUS
 10
12.2294470864
 20
2.515977327
 11
12.2055050731
 21
2.515977327
  0
ARC
  5
22E
100
AcDbEntity
  8
0
100
AcDbCircle
 62
2
  6
CONTINUOUS
 10
12.2055050712
 20
2.5135023274
 40
0.0024749995
100
AcDbArc
 50
89.9999571957
 51
180.0000428043
  0
LINE
  5
22F
100
AcDbEntity
  8
0
100
AcDbLine
 62
2
  6
CONTINUOUS
 10
12.2030300717
 20
2.5135023256
 11
12.2030300717
 21
2.4937023146
  0
ARC
  5
230
100
AcDbEntity
  8
0
100
AcDbCircle
 62
2
  6
CONTINUOUS
 10
12.2055050712
 20
2.4937023128
 40
0.0024749995
100
AcDbArc
 50
179.9999571957
 51
270.0000428043
  0
LINE
  5
231
100
AcDbEntity
  8
0
100
AcDbLine
 62
2
  6
CONTINUOUS
 10
12.2055050731
 20
2.4912273132
 11
12.3819511709
 21
2.4912273132
  0
ARC
  5
232
100
AcDbEntity
  8
0
100
AcDbCircle
 62
2
  6
CONTINUOUS
 10
12.3792298263
 20
2.539634765
 40
0.048483885
100
AcDbArc
 50
273.21763719
 51
303.0749121182
  0
ARC
  5
233
100
AcDbEntity
  8
0
100
AcDbCircle
 62
2
  6
CONTINUOUS
 10
12.3940692204
 20
2.5168671561
 40
0.0213072145
100
AcDbArc
 50
303.0488228549
 51
355.7263138674
  0
LINE
  5
234
100
AcDbEntity
  8
0
100
AcDbLine
 62
2
  6
CONTINUOUS
 10
12.2949101227
 20
2.5499573458
 11
12.3362731456
 21
2.5499573458
  0
ARC
  5
235
100
AcDbEntity
  8
0
100
AcDbCircle
 62
2
  6
CONTINUOUS
 10
12.3362731456
 20
2.5586198506
 40
0.0086625048
100
AcDbArc
 50
270.0
 51
90.0
  0
LINE
  5
236
100
AcDbEntity
  8
0
100
AcDbLine
 62
2
  6
CONTINUOUS
 10
12.3362731456
 20
2.5672823554
 11
12.2949101227
 21
2.5672823554
  0
ARC
  5
237
100
AcDbEntity
  8
0
100
AcDbCircle
 62
2
  6
CONTINUOUS
 10
12.2949101208
 20
2.5648073559
 40
0.0024749995
100
AcDbArc
 50
89.9999571957
 51
180.0000428043
  0
LINE
  5
238
100
AcDbEntity
  8
0
100
AcDbLine
 62
2
  6
CONTINUOUS
 10
12.2924351213
 20
2.564807354
 11
12.2924351213
 21
2.5524323472
  0
ARC
  5
239
100
AcDbEntity
  8
0
100
AcDbCircle
 62
2
  6
CONTINUOUS
 10
12.2949101208
 20
2.5524323453
 40
0.0024749995
100
AcDbArc
 50
179.9999571957
 51
270.0000428043
  0
LINE
  5
23A
100
AcDbEntity
  8
0
100
AcDbLine
 62
2
  6
CONTINUOUS
 10
12.2924351213
 20
2.5184523283
 11
12.2924351213
 21
2.5308273352
  0
ARC
  5
23B
100
AcDbEntity
  8
0
100
AcDbCircle
 62
2
  6
CONTINUOUS
 10
12.2949101208
 20
2.530827337
 40
0.0024749995
100
AcDbArc
 50
89.9999571957
 51
180.0000428043
  0
LINE
  5
23C
100
AcDbEntity
  8
0
100
AcDbLine
 62
2
  6
CONTINUOUS
 10
12.2949101227
 20
2.5333023366
 11
12.3362731456
 21
2.5333023366
  0
ARC
  5
23D
100
AcDbEntity
  8
0
100
AcDbCircle
 62
2
  6
CONTINUOUS
 10
12.3362731456
 20
2.5246398318
 40
0.0086625048
100
AcDbArc
 50
270.0
 51
90.0
  0
LINE
  5
23E
100
AcDbEntity
  8
0
100
AcDbLine
 62
2
  6
CONTINUOUS
 10
12.3362731456
 20
2.515977327
 11
12.2949101227
 21
2.515977327
  0
ARC
  5
23F
100
AcDbEntity
  8
0
100
AcDbCircle
 62
2
  6
CONTINUOUS
 10
12.2949101208
 20
2.5184523265
 40
0.0024749995
100
AcDbArc
 50
179.9999571957
 51
270.0000428043
  0
ARC
  5
240
100
AcDbEntity
  8
0
100
AcDbCircle
 62
2
  6
CONTINUOUS
 10
13.5806801742
 20
2.5212486481
 40
0.044722495
100
AcDbArc
 50
195.531588407
 51
204.7624440448
  0
LINE
  5
241
100
AcDbEntity
  8
0
100
AcDbLine
 62
2
  6
CONTINUOUS
 10
13.5375908118
 20
2.5092733232
 11
13.5357868108
 21
2.5153423266
  0
ARC
  5
242
100
AcDbEntity
  8
0
100
AcDbCircle
 62
2
  6
CONTINUOUS
 10
13.4974076135
 20
2.5055452462
 40
0.0396099176
100
AcDbArc
 50
14.3201081283
 51
22.4984722084
  0
ARC
  5
243
100
AcDbEntity
  8
0
100
AcDbCircle
 62
2
  6
CONTINUOUS
 10
13.5201739219
 20
2.5145168728
 40
0.0151491919
100
AcDbArc
 50
24.098260853
 51
63.0369451818
  0
ARC
  5
244
100
AcDbEntity
  8
0
100
AcDbCircle
 62
2
  6
CONTINUOUS
 10
13.5161192671
 20
2.5062372524
 40
0.0243676582
100
AcDbArc
 50
63.3666028271
 51
90.3937697637
  0
LINE
  5
245
100
AcDbEntity
  8
0
100
AcDbLine
 62
2
  6
CONTINUOUS
 10
13.5159517998
 20
2.5306043351
 11
13.4883447845
 21
2.5306043351
  0
ARC
  5
246
100
AcDbEntity
  8
0
100
AcDbCircle
 62
2
  6
CONTINUOUS
 10
13.4883447827
 20
2.5281293355
 40
0.0024749995
100
AcDbArc
 50
89.9999571957
 51
180.0000428043
  0
LINE
  5
247
100
AcDbEntity
  8
0
100
AcDbLine
 62
2
  6
CONTINUOUS
 10
13.4858697831
 20
2.5281293337
 11
13.4858697831
 21
2.5184303283
  0
ARC
  5
248
100
AcDbEntity
  8
0
100
AcDbCircle
 62
2
  6
CONTINUOUS
 10
13.4883447827
 20
2.5184303265
 40
0.0024749995
100
AcDbArc
 50
179.9999571957
 51
270.0000428043
  0
LINE
  5
249
100
AcDbEntity
  8
0
100
AcDbLine
 62
2
  6
CONTINUOUS
 10
13.4883447845
 20
2.5159553269
 11
13.5130037982
 21
2.5159553269
  0
ARC
  5
24A
100
AcDbEntity
  8
0
100
AcDbCircle
 62
2
  6
CONTINUOUS
 10
13.5130038
 20
2.5134803274
 40
0.0024749995
100
AcDbArc
 50
359.9999571957
 51
90.0000428043
  0
LINE
  5
24B
100
AcDbEntity
  8
0
100
AcDbLine
 62
2
  6
CONTINUOUS
 10
13.5154787995
 20
2.5134803256
 11
13.5154787995
 21
2.4937023146
  0
ARC
  5
24C
100
AcDbEntity
  8
0
100
AcDbCircle
 62
2
  6
CONTINUOUS
 10
13.5130038
 20
2.4937023128
 40
0.0024749995
100
AcDbArc
 50
269.9999571957
 51
0.0000428043
  0
LINE
  5
24D
100
AcDbEntity
  8
0
100
AcDbLine
 62
2
  6
CONTINUOUS
 10
13.5130037982
 20
2.4912273132
 11
13.3994327352
 21
2.4912273132
  0
ARC
  5
24E
100
AcDbEntity
  8
0
100
AcDbCircle
 62
2
  6
CONTINUOUS
 10
13.3994327333
 20
2.4937023128
 40
0.0024749995
100
AcDbArc
 50
179.9999571957
 51
270.0000428043
  0
LINE
  5
24F
100
AcDbEntity
  8
0
100
AcDbLine
 62
2
  6
CONTINUOUS
 10
13.3969577338
 20
2.4937023146
 11
13.3969577338
 21
2.5135023256
  0
ARC
  5
250
100
AcDbEntity
  8
0
100
AcDbCircle
 62
2
  6
CONTINUOUS
 10
13.3994327333
 20
2.5135023274
 40
0.0024749995
100
AcDbArc
 50
89.9999571957
 51
180.0000428043
  0
LINE
  5
251
100
AcDbEntity
  8
0
100
AcDbLine
 62
2
  6
CONTINUOUS
 10
13.3994327352
 20
2.515977327
 11
13.4221787478
 21
2.515977327
  0
ARC
  5
252
100
AcDbEntity
  8
0
100
AcDbCircle
 62
2
  6
CONTINUOUS
 10
13.4221787497
 20
2.5184523265
 40
0.0024749995
100
AcDbArc
 50
269.9999571957
 51
0.0000428042
  0
LINE
  5
253
100
AcDbEntity
  8
0
100
AcDbLine
 62
2
  6
CONTINUOUS
 10
13.4246537492
 20
2.5184523283
 11
13.4246537492
 21
2.564807354
  0
ARC
  5
254
100
AcDbEntity
  8
0
100
AcDbCircle
 62
2
  6
CONTINUOUS
 10
13.4221787497
 20
2.5648073559
 40
0.0024749995
100
AcDbArc
 50
359.9999571957
 51
90.0000428043
  0
LINE
  5
255
100
AcDbEntity
  8
0
100
AcDbLine
 62
2
  6
CONTINUOUS
 10
13.4221787478
 20
2.5672823554
 11
13.3994327352
 21
2.5672823554
  0
ARC
  5
256
100
AcDbEntity
  8
0
100
AcDbCircle
 62
2
  6
CONTINUOUS
 10
13.3994327333
 20
2.5697573549
 40
0.0024749995
100
AcDbArc
 50
179.9999571957
 51
270.0000428043
  0
LINE
  5
257
100
AcDbEntity
  8
0
100
AcDbLine
 62
2
  6
CONTINUOUS
 10
13.3969577338
 20
2.5697573568
 11
13.3969577338
 21
2.5895573678
  0
ARC
  5
258
100
AcDbEntity
  8
0
100
AcDbCircle
 62
2
  6
CONTINUOUS
 10
13.3994327333
 20
2.5895573696
 40
0.0024749995
100
AcDbArc
 50
89.9999571957
 51
180.0000428043
  0
LINE
  5
259
100
AcDbEntity
  8
0
100
AcDbLine
 62
2
  6
CONTINUOUS
 10
13.3994327352
 20
2.5920323691
 11
13.5490138181
 21
2.5920323691
  0
ARC
  5
25A
100
AcDbEntity
  8
0
100
AcDbCircle
 62
2
  6
CONTINUOUS
 10
13.5463505148
 20
2.4094934586
 40
0.1825583387
100
AcDbArc
 50
79.8618509324
 51
89.1640948679
  0
ARC
  5
25B
100
AcDbEntity
  8
0
100
AcDbCircle
 62
2
  6
CONTINUOUS
 10
13.5726548052
 20
2.5503169747
 40
0.039319019
100
AcDbArc
 50
59.1202086415
 51
81.4730239328
  0
ARC
  5
25C
100
AcDbEntity
  8
0
100
AcDbCircle
 62
2
  6
CONTINUOUS
 10
13.5783142014
 20
2.5566516438
 40
0.0310192946
100
AcDbArc
 50
34.7540871
 51
62.0879016178
  0
ARC
  5
25D
100
AcDbEntity
  8
0
100
AcDbCircle
 62
2
  6
CONTINUOUS
 10
13.5900029525
 20
2.565201245
 40
0.0165459396
100
AcDbArc
 50
1.548452892
 51
33.5033152417
  0
ARC
  5
25E
100
AcDbEntity
  8
0
100
AcDbCircle
 62
2
  6
CONTINUOUS
 10
13.5932995477
 20
2.5653696972
 40
0.0132462337
100
AcDbArc
 50
331.1510006998
 51
1.205404301
  0
ARC
  5
25F
100
AcDbEntity
  8
0
100
AcDbCircle
 62
2
  6
CONTINUOUS
 10
13.5822888914
 20
2.5720482849
 40
0.0261183659
100
AcDbArc
 50
305.6373831893
 51
329.9727629745
  0
ARC
  5
260
100
AcDbEntity
  8
0
100
AcDbCircle
 62
2
  6
CONTINUOUS
 10
13.5519569538
 20
2.6152551345
 40
0.0789082104
100
AcDbArc
 50
292.906155071
 51
305.2574666259
  0
ARC
  5
261
100
AcDbEntity
  8
0
100
AcDbCircle
 62
2
  6
CONTINUOUS
 10
13.5282557878
 20
2.4386010294
 40
0.117346916
100
AcDbArc
 50
58.614769177
 51
62.3737227606
  0
ARC
  5
262
100
AcDbEntity
  8
0
100
AcDbCircle
 62
2
  6
CONTINUOUS
 10
13.5761387404
 20
2.5167282896
 40
0.0257145923
100
AcDbArc
 50
39.3804255939
 51
59.0361096173
  0
ARC
  5
263
100
AcDbEntity
  8
0
100
AcDbCircle
 62
2
  6
CONTINUOUS
 10
13.5750183849
 20
2.5166552064
 40
0.0266349791
100
AcDbArc
 50
20.3630922153
 51
37.9727053099
  0
ARC
  5
264
100
AcDbEntity
  8
0
100
AcDbCircle
 62
2
  6
CONTINUOUS
 10
13.5571178432
 20
2.509473798
 40
0.0459185159
100
AcDbArc
 50
15.6740290068
 51
20.9917271228
  0
ARC
  5
265
100
AcDbEntity
  8
0
100
AcDbCircle
 62
2
  6
CONTINUOUS
 10
13.6156881783
 20
2.525116781
 40
0.0147197649
100
AcDbArc
 50
192.7054516565
 51
206.0594861022
  0
ARC
  5
266
100
AcDbEntity
  8
0
100
AcDbCircle
 62
2
  6
CONTINUOUS
 10
13.6071938412
 20
2.5209082945
 40
0.0052403997
100
AcDbArc
 50
205.5232099488
 51
227.5054868079
  0
ARC
  5
267
100
AcDbEntity
  8
0
100
AcDbCircle
 62
2
  6
CONTINUOUS
 10
13.6054655419
 20
2.5190929218
 40
0.0027347709
100
AcDbArc
 50
228.5117626737
 51
266.1485845754
  0
LINE
  5
268
100
AcDbEntity
  8
0
100
AcDbLine
 62
2
  6
CONTINUOUS
 10
13.6052818493
 20
2.5163643272
 11
13.60639085
 21
2.5163643272
  0
ARC
  5
269
100
AcDbEntity
  8
0
100
AcDbCircle
 62
2
  6
CONTINUOUS
 10
13.6063292954
 20
2.5296129864
 40
0.0132488022
100
AcDbArc
 50
270.266200055
 51
281.2404888597
  0
ARC
  5
26A
100
AcDbEntity
  8
0
100
AcDbCircle
 62
2
  6
CONTINUOUS
 10
13.6075235364
 20
2.5238762928
 40
0.0073895522
100
AcDbArc
 50
280.8288201977
 51
305.0837508495
  0
ARC
  5
26B
100
AcDbEntity
  8
0
100
AcDbCircle
 62
2
  6
CONTINUOUS
 10
13.607924718
 20
2.5230254464
 40
0.0064647042
100
AcDbArc
 50
306.5086174083
 51
340.2162360092
  0
ARC
  5
26C
100
AcDbEntity
  8
0
100
AcDbCircle
 62
2
  6
CONTINUOUS
 10
13.6027235414
 20
2.524769508
 40
0.0119498009
100
AcDbArc
 50
340.7883861657
 51
1.1691452593
  0
LINE
  5
26D
100
AcDbEntity
  8
0
100
AcDbLine
 62
2
  6
CONTINUOUS
 10
13.6146708546
 20
2.525013332
 11
13.6146708546
 21
2.5276393334
  0
ARC
  5
26E
100
AcDbEntity
  8
0
100
AcDbCircle
 62
2
  6
CONTINUOUS
 10
13.6171458541
 20
2.5276393353
 40
0.0024749995
100
AcDbArc
 50
89.9999571957
 51
180.0000428043
  0
LINE
  5
26F
100
AcDbEntity
  8
0
100
AcDbLine
 62
2
  6
CONTINUOUS
 10
13.6171458559
 20
2.5301143348
 11
13.6292558626
 21
2.5301143348
  0
ARC
  5
270
100
AcDbEntity
  8
0
100
AcDbCircle
 62
2
  6
CONTINUOUS
 10
13.6292558645
 20
2.5276393353
 40
0.0024749995
100
AcDbArc
 50
359.9999571957
 51
90.0000428043
  0
LINE
  5
271
100
AcDbEntity
  8
0
100
AcDbLine
 62
2
  6
CONTINUOUS
 10
13.631730864
 20
2.5276393334
 11
13.631730864
 21
2.516087327
  0
ARC
  5
272
100
AcDbEntity
  8
0
100
AcDbCircle
 62
2
  6
CONTINUOUS
 10
13.6141751675
 20
2.5161916447
 40
0.0175560065
100
AcDbArc
 50
332.2279060967
 51
359.6595469939
  0
ARC
  5
273
100
AcDbEntity
  8
0
100
AcDbCircle
 62
2
  6
CONTINUOUS
 10
13.6048681567
 20
2.5210861501
 40
0.0280715479
100
AcDbArc
 50
308.5071794988
 51
332.2400656899
  0
ARC
  5
274
100
AcDbEntity
  8
0
100
AcDbCircle
 62
2
  6
CONTINUOUS
 10
13.5978759713
 20
2.5286873679
 40
0.0383802683
100
AcDbArc
 50
288.7656836787
 51
309.6104317088
  0
ARC
  5
275
100
AcDbEntity
  8
0
100
AcDbCircle
 62
2
  6
CONTINUOUS
 10
13.6036139387
 20
2.5111006186
 40
0.0198837666
100
AcDbArc
 50
271.8586572978
 51
289.4131338543
  0
LINE
  5
276
100
AcDbEntity
  8
0
100
AcDbLine
 62
2
  6
CONTINUOUS
 10
13.6042588488
 20
2.4912273132
 11
13.5568948225
 21
2.4912273132
  0
ARC
  5
277
100
AcDbEntity
  8
0
100
AcDbCircle
 62
2
  6
CONTINUOUS
 10
13.5577001432
 20
2.5085494649
 40
0.0173408616
100
AcDbArc
 50
232.4713476722
 51
267.338189944
  0
ARC
  5
278
100
AcDbEntity
  8
0
100
AcDbCircle
 62
2
  6
CONTINUOUS
 10
13.5607987082
 20
2.5143997688
 40
0.0238935861
100
AcDbArc
 50
209.8247607259
 51
235.1255079367
  0
ARC
  5
279
100
AcDbEntity
  8
0
100
AcDbCircle
 62
2
  6
CONTINUOUS
 10
13.5295131508
 20
2.5629115009
 40
0.0110815393
100
AcDbArc
 50
306.758405961
 51
320.4502234234
  0
ARC
  5
27A
100
AcDbEntity
  8
0
100
AcDbCircle
 62
2
  6
CONTINUOUS
 10
13.5238839599
 20
2.5706523294
 40
0.0206523367
100
AcDbArc
 50
289.6883413472
 51
306.4184925496
  0
ARC
  5
27B
100
AcDbEntity
  8
0
100
AcDbCircle
 62
2
  6
CONTINUOUS
 10
13.5219564542
 20
2.5750459767
 40
0.0254407115
100
AcDbArc
 50
270.7327484175
 51
290.441894219
  0
LINE
  5
27C
100
AcDbEntity
  8
0
100
AcDbLine
 62
2
  6
CONTINUOUS
 10
13.5222818033
 20
2.5496073456
 11
13.4883447845
 21
2.5496073456
  0
ARC
  5
27D
100
AcDbEntity
  8
0
100
AcDbCircle
 62
2
  6
CONTINUOUS
 10
13.4883447827
 20
2.5520823451
 40
0.0024749995
100
AcDbArc
 50
179.9999571957
 51
270.0000428043
  0
LINE
  5
27E
100
AcDbEntity
  8
0
100
AcDbLine
 62
2
  6
CONTINUOUS
 10
13.4858697831
 20
2.552082347
 11
13.4858697831
 21
2.564807354
  0
ARC
  5
27F
100
AcDbEntity
  8
0
100
AcDbCircle
 62
2
  6
CONTINUOUS
 10
13.4883447827
 20
2.5648073559
 40
0.0024749995
100
AcDbArc
 50
89.9999571957
 51
180.0000428043
  0
LINE
  5
280
100
AcDbEntity
  8
0
100
AcDbLine
 62
2
  6
CONTINUOUS
 10
13.4883447845
 20
2.5672823554
 11
13.5251458049
 21
2.5672823554
  0
ARC
  5
281
100
AcDbEntity
  8
0
100
AcDbCircle
 62
2
  6
CONTINUOUS
 10
13.5236009174
 20
2.5388278764
 40
0.0284963867
100
AcDbArc
 50
70.3834917948
 51
86.8922743861
  0
ARC
  5
282
100
AcDbEntity
  8
0
100
AcDbCircle
 62
2
  6
CONTINUOUS
 10
13.5284605274
 20
2.5518696094
 40
0.0145814632
100
AcDbArc
 50
54.6746025112
 51
71.1660573124
  0
ARC
  5
283
100
AcDbEntity
  8
0
100
AcDbCircle
 62
2
  6
CONTINUOUS
 10
13.5335900184
 20
2.5587235346
 40
0.0060275915
100
AcDbArc
 50
20.9055592135
 51
56.7851676243
  0
ARC
  5
284
100
AcDbEntity
  8
0
100
AcDbCircle
 62
2
  6
CONTINUOUS
 10
13.5348905773
 20
2.5593838168
 40
0.0045795888
100
AcDbArc
 50
355.6235353944
 51
18.9942678268
  0
ARC
  5
285
100
AcDbEntity
  8
0
100
AcDbCircle
 62
2
  6
CONTINUOUS
 10
13.533683767
 20
2.559677593
 40
0.0058087709
100
AcDbArc
 50
318.8515287446
 51
353.6422345323
  0
LINE
  5
286
100
AcDbEntity
  8
0
100
AcDbLine
 62
2
  6
CONTINUOUS
 10
12.672340332
 20
2.5920323691
 11
12.7727983877
 21
2.5920323691
  0
ARC
  5
287
100
AcDbEntity
  8
0
100
AcDbCircle
 62
2
  6
CONTINUOUS
 10
12.7727985224
 20
2.5895582013
 40
0.0024741678
100
AcDbArc
 50
46.3477981899
 51
90.0031206038
  0
LINE
  5
288
100
AcDbEntity
  8
0
100
AcDbLine
 62
2
  6
CONTINUOUS
 10
12.7745063886
 20
2.5913483688
 11
12.8345394219
 21
2.534068337
  0
ARC
  5
289
100
AcDbEntity
  8
0
100
AcDbCircle
 62
2
  6
CONTINUOUS
 10
12.8362481229
 20
2.5358592748
 40
0.0024753014
100
AcDbArc
 50
226.3461263059
 51
0.0014637321
  0
LINE
  5
28A
100
AcDbEntity
  8
0
100
AcDbLine
 62
2
  6
CONTINUOUS
 10
12.8387234242
 20
2.535859338
 11
12.8387234242
 21
2.564807354
  0
ARC
  5
28B
100
AcDbEntity
  8
0
100
AcDbCircle
 62
2
  6
CONTINUOUS
 10
12.8362484247
 20
2.5648073559
 40
0.0024749995
100
AcDbArc
 50
359.9999571957
 51
90.0000428043
  0
LINE
  5
28C
100
AcDbEntity
  8
0
100
AcDbLine
 62
2
  6
CONTINUOUS
 10
12.8362484229
 20
2.5672823554
 11
12.8174724125
 21
2.5672823554
  0
ARC
  5
28D
100
AcDbEntity
  8
0
100
AcDbCircle
 62
2
  6
CONTINUOUS
 10
12.8174724106
 20
2.5697573549
 40
0.0024749995
100
AcDbArc
 50
179.9999571957
 51
270.0000428043
  0
LINE
  5
28E
100
AcDbEntity
  8
0
100
AcDbLine
 62
2
  6
CONTINUOUS
 10
12.8149974111
 20
2.5697573568
 11
12.8149974111
 21
2.5895573678
  0
ARC
  5
28F
100
AcDbEntity
  8
0
100
AcDbCircle
 62
2
  6
CONTINUOUS
 10
12.8174724106
 20
2.5895573696
 40
0.0024749995
100
AcDbArc
 50
89.9999571957
 51
180.0000428043
  0
LINE
  5
290
100
AcDbEntity
  8
0
100
AcDbLine
 62
2
  6
CONTINUOUS
 10
12.8174724125
 20
2.5920323691
 11
12.8914734535
 21
2.5920323691
  0
ARC
  5
291
100
AcDbEntity
  8
0
100
AcDbCircle
 62
2
  6
CONTINUOUS
 10
12.8914734553
 20
2.5895573696
 40
0.0024749995
100
AcDbArc
 50
359.9999571957
 51
90.0000428043
  0
LINE
  5
292
100
AcDbEntity
  8
0
100
AcDbLine
 62
2
  6
CONTINUOUS
 10
12.8939484549
 20
2.5895573678
 11
12.8939484549
 21
2.5697573568
  0
ARC
  5
293
100
AcDbEntity
  8
0
100
AcDbCircle
 62
2
  6
CONTINUOUS
 10
12.8914734553
 20
2.5697573549
 40
0.0024749995
100
AcDbArc
 50
269.9999571957
 51
0.0000428043
  0
LINE
  5
294
100
AcDbEntity
  8
0
100
AcDbLine
 62
2
  6
CONTINUOUS
 10
12.8914734535
 20
2.5672823554
 11
12.8735404436
 21
2.5672823554
  0
ARC
  5
295
100
AcDbEntity
  8
0
100
AcDbCircle
 62
2
  6
CONTINUOUS
 10
12.8735404417
 20
2.5648073559
 40
0.0024749995
100
AcDbArc
 50
89.9999571957
 51
180.0000428043
  0
LINE
  5
296
100
AcDbEntity
  8
0
100
AcDbLine
 62
2
  6
CONTINUOUS
 10
12.8710654422
 20
2.564807354
 11
12.8710654422
 21
2.4937023146
  0
ARC
  5
297
100
AcDbEntity
  8
0
100
AcDbCircle
 62
2
  6
CONTINUOUS
 10
12.8685904427
 20
2.4937023128
 40
0.0024749995
100
AcDbArc
 50
269.9999571957
 51
0.0000428043
  0
LINE
  5
298
100
AcDbEntity
  8
0
100
AcDbLine
 62
2
  6
CONTINUOUS
 10
12.8685904408
 20
2.4912273132
 11
12.7943853997
 21
2.4912273132
  0
ARC
  5
299
100
AcDbEntity
  8
0
100
AcDbCircle
 62
2
  6
CONTINUOUS
 10
12.7943847649
 20
2.4937027294
 40
0.0024754162
100
AcDbArc
 50
226.3593695813
 51
270.0146919953
  0
LINE
  5
29A
100
AcDbEntity
  8
0
100
AcDbLine
 62
2
  6
CONTINUOUS
 10
12.7926763987
 20
2.4919113136
 11
12.7293963636
 21
2.5522893471
  0
ARC
  5
29B
100
AcDbEntity
  8
0
100
AcDbCircle
 62
2
  6
CONTINUOUS
 10
12.7276876627
 20
2.5504984093
 40
0.0024753014
100
AcDbArc
 50
46.3461263059
 51
180.0014637321
  0
LINE
  5
29C
100
AcDbEntity
  8
0
100
AcDbLine
 62
2
  6
CONTINUOUS
 10
12.7252123613
 20
2.5504983461
 11
12.7252123613
 21
2.5184523283
  0
ARC
  5
29D
100
AcDbEntity
  8
0
100
AcDbCircle
 62
2
  6
CONTINUOUS
 10
12.7276873608
 20
2.5184523265
 40
0.0024749995
100
AcDbArc
 50
179.9999571957
 51
270.0000428043
  0
LINE
  5
29E
100
AcDbEntity
  8
0
100
AcDbLine
 62
2
  6
CONTINUOUS
 10
12.7276873627
 20
2.515977327
 11
12.7480043739
 21
2.515977327
  0
ARC
  5
29F
100
AcDbEntity
  8
0
100
AcDbCircle
 62
2
  6
CONTINUOUS
 10
12.7480043758
 20
2.5135023274
 40
0.0024749995
100
AcDbArc
 50
359.9999571957
 51
90.0000428043
  0
LINE
  5
2A0
100
AcDbEntity
  8
0
100
AcDbLine
 62
2
  6
CONTINUOUS
 10
12.7504793753
 20
2.5135023256
 11
12.7504793753
 21
2.4937023146
  0
ARC
  5
2A1
100
AcDbEntity
  8
0
100
AcDbCircle
 62
2
  6
CONTINUOUS
 10
12.7480043758
 20
2.4937023128
 40
0.0024749995
100
AcDbArc
 50
269.9999571957
 51
0.0000428043
  0
LINE
  5
2A2
100
AcDbEntity
  8
0
100
AcDbLine
 62
2
  6
CONTINUOUS
 10
12.7480043739
 20
2.4912273132
 11
12.672340332
 21
2.4912273132
  0
ARC
  5
2A3
100
AcDbEntity
  8
0
100
AcDbCircle
 62
2
  6
CONTINUOUS
 10
12.6723403301
 20
2.4937023128
 40
0.0024749995
100
AcDbArc
 50
179.9999571957
 51
270.0000428043
  0
LINE
  5
2A4
100
AcDbEntity
  8
0
100
AcDbLine
 62
2
  6
CONTINUOUS
 10
12.6698653306
 20
2.4937023146
 11
12.6698653306
 21
2.5135023256
  0
ARC
  5
2A5
100
AcDbEntity
  8
0
100
AcDbCircle
 62
2
  6
CONTINUOUS
 10
12.6723403301
 20
2.5135023274
 40
0.0024749995
100
AcDbArc
 50
89.9999571957
 51
180.0000428043
  0
LINE
  5
2A6
100
AcDbEntity
  8
0
100
AcDbLine
 62
2
  6
CONTINUOUS
 10
12.672340332
 20
2.515977327
 11
12.6909873423
 21
2.515977327
  0
ARC
  5
2A7
100
AcDbEntity
  8
0
100
AcDbCircle
 62
2
  6
CONTINUOUS
 10
12.6909873442
 20
2.5184523265
 40
0.0024749995
100
AcDbArc
 50
269.9999571957
 51
0.0000428043
  0
LINE
  5
2A8
100
AcDbEntity
  8
0
100
AcDbLine
 62
2
  6
CONTINUOUS
 10
12.6934623437
 20
2.5184523283
 11
12.6934623437
 21
2.564807354
  0
ARC
  5
2A9
100
AcDbEntity
  8
0
100
AcDbCircle
 62
2
  6
CONTINUOUS
 10
12.6909873442
 20
2.5648073559
 40
0.0024749995
100
AcDbArc
 50
359.9999571957
 51
90.0000428043
  0
LINE
  5
2AA
100
AcDbEntity
  8
0
100
AcDbLine
 62
2
  6
CONTINUOUS
 10
12.6909873423
 20
2.5672823554
 11
12.672340332
 21
2.5672823554
  0
ARC
  5
2AB
100
AcDbEntity
  8
0
100
AcDbCircle
 62
2
  6
CONTINUOUS
 10
12.6723403301
 20
2.5697573549
 40
0.0024749995
100
AcDbArc
 50
179.9999571957
 51
270.0000428043
  0
LINE
  5
2AC
100
AcDbEntity
  8
0
100
AcDbLine
 62
2
  6
CONTINUOUS
 10
12.6698653306
 20
2.5697573568
 11
12.6698653306
 21
2.5895573678
  0
ARC
  5
2AD
100
AcDbEntity
  8
0
100
AcDbCircle
 62
2
  6
CONTINUOUS
 10
12.6723403301
 20
2.5895573696
 40
0.0024749995
100
AcDbArc
 50
89.9999571957
 51
180.0000428043
  0
LINE
  5
2AE
100
AcDbEntity
  8
0
100
AcDbLine
 62
2
  6
CONTINUOUS
 10
12.5246402501
 20
2.5655893545
 11
12.5175232461
 21
2.5543723483
  0
ARC
  5
2AF
100
AcDbEntity
  8
0
100
AcDbCircle
 62
2
  6
CONTINUOUS
 10
12.519613138
 20
2.5530463862
 40
0.0024750401
100
AcDbArc
 50
147.6063258012
 51
270.0025305754
  0
LINE
  5
2B0
100
AcDbEntity
  8
0
100
AcDbLine
 62
2
  6
CONTINUOUS
 10
12.5196132473
 20
2.5505713461
 11
12.5401702587
 21
2.5505713461
  0
ARC
  5
2B1
100
AcDbEntity
  8
0
100
AcDbCircle
 62
2
  6
CONTINUOUS
 10
12.5401702375
 20
2.5530465533
 40
0.0024752071
100
AcDbArc
 50
270.0004896793
 51
32.9089806818
  0
LINE
  5
2B2
100
AcDbEntity
  8
0
100
AcDbLine
 62
2
  6
CONTINUOUS
 10
12.5422482598
 20
2.5543913483
 11
12.5349892558
 21
2.5656073545
  0
ARC
  5
2B3
100
AcDbEntity
  8
0
100
AcDbCircle
 62
2
  6
CONTINUOUS
 10
12.532910715
 20
2.564262895
 40
0.0024754602
100
AcDbArc
 50
32.8959418573
 51
89.9875097202
  0
LINE
  5
2B4
100
AcDbEntity
  8
0
100
AcDbLine
 62
2
  6
CONTINUOUS
 10
12.5329112547
 20
2.5667383551
 11
12.5267302512
 21
2.5667383551
  0
ARC
  5
2B5
100
AcDbEntity
  8
0
100
AcDbCircle
 62
2
  6
CONTINUOUS
 10
12.5267301809
 20
2.5642631548
 40
0.0024752003
100
AcDbArc
 50
89.998372645
 51
147.602165307
  0
LINE
  5
2B6
100
AcDbEntity
  8
0
100
AcDbLine
 62
2
  6
CONTINUOUS
 10
12.548053263
 20
2.5284903339
 11
12.5536792662
 21
2.5197973291
  0
ARC
  5
2B7
100
AcDbEntity
  8
0
100
AcDbCircle
 62
2
  6
CONTINUOUS
 10
12.5516012439
 20
2.5184525341
 40
0.0024752071
100
AcDbArc
 50
270.0004896794
 51
32.9089806818
  0
LINE
  5
2B8
100
AcDbEntity
  8
0
100
AcDbLine
 62
2
  6
CONTINUOUS
 10
12.551601265
 20
2.515977327
 11
12.537150257
 21
2.515977327
  0
ARC
  5
2B9
100
AcDbEntity
  8
0
100
AcDbCircle
 62
2
  6
CONTINUOUS
 10
12.5371502552
 20
2.5135023274
 40
0.0024749995
100
AcDbArc
 50
89.9999571957
 51
180.0000428043
  0
LINE
  5
2BA
100
AcDbEntity
  8
0
100
AcDbLine
 62
2
  6
CONTINUOUS
 10
12.5346752556
 20
2.5135023256
 11
12.5346752556
 21
2.4937023146
  0
ARC
  5
2BB
100
AcDbEntity
  8
0
100
AcDbCircle
 62
2
  6
CONTINUOUS
 10
12.5371502552
 20
2.4937023128
 40
0.0024749995
100
AcDbArc
 50
179.9999571957
 51
270.0000428043
  0
LINE
  5
2BC
100
AcDbEntity
  8
0
100
AcDbLine
 62
2
  6
CONTINUOUS
 10
12.537150257
 20
2.4912273132
 11
12.6424313154
 21
2.4912273132
  0
ARC
  5
2BD
100
AcDbEntity
  8
0
100
AcDbCircle
 62
2
  6
CONTINUOUS
 10
12.6424313172
 20
2.4937023128
 40
0.0024749995
100
AcDbArc
 50
269.9999571957
 51
0.0000428043
  0
LINE
  5
2BE
100
AcDbEntity
  8
0
100
AcDbLine
 62
2
  6
CONTINUOUS
 10
12.6449063168
 20
2.4937023146
 11
12.6449063168
 21
2.5135023256
  0
ARC
  5
2BF
100
AcDbEntity
  8
0
100
AcDbCircle
 62
2
  6
CONTINUOUS
 10
12.6424313172
 20
2.5135023274
 40
0.0024749995
100
AcDbArc
 50
359.9999571957
 51
90.0000428043
  0
LINE
  5
2C0
100
AcDbEntity
  8
0
100
AcDbLine
 62
2
  6
CONTINUOUS
 10
12.6424313154
 20
2.515977327
 11
12.6224153043
 21
2.515977327
  0
ARC
  5
2C1
100
AcDbEntity
  8
0
100
AcDbCircle
 62
2
  6
CONTINUOUS
 10
12.6224154248
 20
2.518451368
 40
0.002474041
100
AcDbArc
 50
212.9056413127
 51
269.9972091756
  0
LINE
  5
2C2
100
AcDbEntity
  8
0
100
AcDbLine
 62
2
  6
CONTINUOUS
 10
12.6203383031
 20
2.5171073276
 11
12.5725822767
 21
2.5909023685
  0
ARC
  5
2C3
100
AcDbEntity
  8
0
100
AcDbCircle
 62
2
  6
CONTINUOUS
 10
12.570504655
 20
2.589557409
 40
0.0024749602
100
AcDbArc
 50
32.9172174468
 51
90.0087853097
  0
LINE
  5
2C4
100
AcDbEntity
  8
0
100
AcDbLine
 62
2
  6
CONTINUOUS
 10
12.5705042755
 20
2.5920323691
 11
12.5133292438
 21
2.5920323691
  0
ARC
  5
2C5
100
AcDbEntity
  8
0
100
AcDbCircle
 62
2
  6
CONTINUOUS
 10
12.5133291735
 20
2.5895571688
 40
0.0024752003
100
AcDbArc
 50
89.9983726451
 51
147.602165307
  0
LINE
  5
2C6
100
AcDbEntity
  8
0
100
AcDbLine
 62
2
  6
CONTINUOUS
 10
12.5112392426
 20
2.5908833685
 11
12.4644392167
 21
2.5171263276
  0
ARC
  5
2C7
100
AcDbEntity
  8
0
100
AcDbCircle
 62
2
  6
CONTINUOUS
 10
12.4623492858
 20
2.5184525273
 40
0.0024752003
100
AcDbArc
 50
269.9983726451
 51
327.602165307
  0
LINE
  5
2C8
100
AcDbEntity
  8
0
100
AcDbLine
 62
2
  6
CONTINUOUS
 10
12.4623492155
 20
2.515977327
 11
12.4394882028
 21
2.515977327
  0
ARC
  5
2C9
100
AcDbEntity
  8
0
100
AcDbCircle
 62
2
  6
CONTINUOUS
 10
12.439488201
 20
2.5135023274
 40
0.0024749995
100
AcDbArc
 50
89.9999571957
 51
180.0000428043
  0
LINE
  5
2CA
100
AcDbEntity
  8
0
100
AcDbLine
 62
2
  6
CONTINUOUS
 10
12.4370132015
 20
2.5135023256
 11
12.4370132015
 21
2.4937023146
  0
ARC
  5
2CB
100
AcDbEntity
  8
0
100
AcDbCircle
 62
2
  6
CONTINUOUS
 10
12.439488201
 20
2.4937023128
 40
0.0024749995
100
AcDbArc
 50
179.9999571957
 51
270.0000428043
  0
LINE
  5
2CC
100
AcDbEntity
  8
0
100
AcDbLine
 62
2
  6
CONTINUOUS
 10
12.4394882028
 20
2.4912273132
 11
12.5168642458
 21
2.4912273132
  0
ARC
  5
2CD
100
AcDbEntity
  8
0
100
AcDbCircle
 62
2
  6
CONTINUOUS
 10
12.5168642476
 20
2.4937023128
 40
0.0024749995
100
AcDbArc
 50
269.9999571957
 51
0.0000428043
  0
LINE
  5
2CE
100
AcDbEntity
  8
0
100
AcDbLine
 62
2
  6
CONTINUOUS
 10
12.5193392471
 20
2.4937023146
 11
12.5193392471
 21
2.5135023256
  0
ARC
  5
2CF
100
AcDbEntity
  8
0
100
AcDbCircle
 62
2
  6
CONTINUOUS
 10
12.5168642476
 20
2.5135023274
 40
0.0024749995
100
AcDbArc
 50
359.9999571957
 51
90.0000428043
  0
LINE
  5
2D0
100
AcDbEntity
  8
0
100
AcDbLine
 62
2
  6
CONTINUOUS
 10
12.5168642458
 20
2.515977327
 11
12.5055812395
 21
2.515977327
  0
ARC
  5
2D1
100
AcDbEntity
  8
0
100
AcDbCircle
 62
2
  6
CONTINUOUS
 10
12.5055811302
 20
2.518452367
 40
0.0024750401
100
AcDbArc
 50
147.6063258011
 51
270.0025305754
  0
LINE
  5
2D2
100
AcDbEntity
  8
0
100
AcDbLine
 62
2
  6
CONTINUOUS
 10
12.5034912383
 20
2.5197783291
 11
12.5090072414
 21
2.5284723339
  0
ARC
  5
2D3
100
AcDbEntity
  8
0
100
AcDbCircle
 62
2
  6
CONTINUOUS
 10
12.5110971723
 20
2.5271461342
 40
0.0024752003
100
AcDbArc
 50
89.998372645
 51
147.602165307
  0
LINE
  5
2D4
100
AcDbEntity
  8
0
100
AcDbLine
 62
2
  6
CONTINUOUS
 10
12.5110972426
 20
2.5296213345
 11
12.5459752619
 21
2.5296213345
  0
ARC
  5
2D5
100
AcDbEntity
  8
0
100
AcDbCircle
 62
2
  6
CONTINUOUS
 10
12.5459747223
 20
2.5271458744
 40
0.0024754602
100
AcDbArc
 50
32.8959418573
 51
89.9875097202
  0
LINE
  5
2D6
100
AcDbEntity
  8
0
100
AcDbLine
 62
2
  6
CONTINUOUS
 10
12.9205934696
 20
2.5920323691
 11
13.0210515254
 21
2.5920323691
  0
ARC
  5
2D7
100
AcDbEntity
  8
0
100
AcDbCircle
 62
2
  6
CONTINUOUS
 10
13.0210516601
 20
2.5895582013
 40
0.0024741678
100
AcDbArc
 50
46.3477981899
 51
90.0031206038
  0
LINE
  5
2D8
100
AcDbEntity
  8
0
100
AcDbLine
 62
2
  6
CONTINUOUS
 10
13.0227595263
 20
2.5913483688
 11
13.0827925596
 21
2.534068337
  0
ARC
  5
2D9
100
AcDbEntity
  8
0
100
AcDbCircle
 62
2
  6
CONTINUOUS
 10
13.0845012605
 20
2.5358592748
 40
0.0024753014
100
AcDbArc
 50
226.3461263059
 51
0.0014637321
  0
LINE
  5
2DA
100
AcDbEntity
  8
0
100
AcDbLine
 62
2
  6
CONTINUOUS
 10
13.0869765619
 20
2.535859338
 11
13.0869765619
 21
2.564807354
  0
ARC
  5
2DB
100
AcDbEntity
  8
0
100
AcDbCircle
 62
2
  6
CONTINUOUS
 10
13.0845015624
 20
2.5648073559
 40
0.0024749995
100
AcDbArc
 50
359.9999571957
 51
90.0000428043
  0
LINE
  5
2DC
100
AcDbEntity
  8
0
100
AcDbLine
 62
2
  6
CONTINUOUS
 10
13.0845015605
 20
2.5672823554
 11
13.0657255501
 21
2.5672823554
  0
ARC
  5
2DD
100
AcDbEntity
  8
0
100
AcDbCircle
 62
2
  6
CONTINUOUS
 10
13.0657255483
 20
2.5697573549
 40
0.0024749995
100
AcDbArc
 50
179.9999571957
 51
270.0000428043
  0
LINE
  5
2DE
100
AcDbEntity
  8
0
100
AcDbLine
 62
2
  6
CONTINUOUS
 10
13.0632505488
 20
2.5697573568
 11
13.0632505488
 21
2.5895573678
  0
ARC
  5
2DF
100
AcDbEntity
  8
0
100
AcDbCircle
 62
2
  6
CONTINUOUS
 10
13.0657255483
 20
2.5895573696
 40
0.0024749995
100
AcDbArc
 50
89.9999571957
 51
180.0000428043
  0
LINE
  5
2E0
100
AcDbEntity
  8
0
100
AcDbLine
 62
2
  6
CONTINUOUS
 10
13.0657255501
 20
2.5920323691
 11
13.1397265912
 21
2.5920323691
  0
ARC
  5
2E1
100
AcDbEntity
  8
0
100
AcDbCircle
 62
2
  6
CONTINUOUS
 10
13.139726593
 20
2.5895573696
 40
0.0024749995
100
AcDbArc
 50
359.9999571957
 51
90.0000428043
  0
LINE
  5
2E2
100
AcDbEntity
  8
0
100
AcDbLine
 62
2
  6
CONTINUOUS
 10
13.1422015925
 20
2.5895573678
 11
13.1422015925
 21
2.5697573568
  0
ARC
  5
2E3
100
AcDbEntity
  8
0
100
AcDbCircle
 62
2
  6
CONTINUOUS
 10
13.139726593
 20
2.5697573549
 40
0.0024749995
100
AcDbArc
 50
269.9999571957
 51
0.0000428042
  0
LINE
  5
2E4
100
AcDbEntity
  8
0
100
AcDbLine
 62
2
  6
CONTINUOUS
 10
13.1397265912
 20
2.5672823554
 11
13.1217935812
 21
2.5672823554
  0
ARC
  5
2E5
100
AcDbEntity
  8
0
100
AcDbCircle
 62
2
  6
CONTINUOUS
 10
13.1217935794
 20
2.5648073559
 40
0.0024749995
100
AcDbArc
 50
89.9999571957
 51
180.0000428042
  0
LINE
  5
2E6
100
AcDbEntity
  8
0
100
AcDbLine
 62
2
  6
CONTINUOUS
 10
13.1193185799
 20
2.564807354
 11
13.1193185799
 21
2.4937023146
  0
ARC
  5
2E7
100
AcDbEntity
  8
0
100
AcDbCircle
 62
2
  6
CONTINUOUS
 10
13.1168435803
 20
2.4937023128
 40
0.0024749995
100
AcDbArc
 50
269.9999571957
 51
0.0000428043
  0
LINE
  5
2E8
100
AcDbEntity
  8
0
100
AcDbLine
 62
2
  6
CONTINUOUS
 10
13.1168435785
 20
2.4912273132
 11
13.0426375373
 21
2.4912273132
  0
ARC
  5
2E9
100
AcDbEntity
  8
0
100
AcDbCircle
 62
2
  6
CONTINUOUS
 10
13.0426374026
 20
2.493701481
 40
0.0024741678
100
AcDbArc
 50
226.3477981898
 51
270.0031206038
  0
LINE
  5
2EA
100
AcDbEntity
  8
0
100
AcDbLine
 62
2
  6
CONTINUOUS
 10
13.0409295364
 20
2.4919113136
 11
12.9776495013
 21
2.5522893471
  0
ARC
  5
2EB
100
AcDbEntity
  8
0
100
AcDbCircle
 62
2
  6
CONTINUOUS
 10
12.9759408003
 20
2.5504984093
 40
0.0024753014
100
AcDbArc
 50
46.3461263059
 51
180.0014637321
  0
LINE
  5
2EC
100
AcDbEntity
  8
0
100
AcDbLine
 62
2
  6
CONTINUOUS
 10
12.973465499
 20
2.5504983461
 11
12.973465499
 21
2.5184523283
  0
ARC
  5
2ED
100
AcDbEntity
  8
0
100
AcDbCircle
 62
2
  6
CONTINUOUS
 10
12.9759404985
 20
2.5184523265
 40
0.0024749995
100
AcDbArc
 50
179.9999571957
 51
270.0000428043
  0
LINE
  5
2EE
100
AcDbEntity
  8
0
100
AcDbLine
 62
2
  6
CONTINUOUS
 10
12.9759405003
 20
2.515977327
 11
12.9962575116
 21
2.515977327
  0
ARC
  5
2EF
100
AcDbEntity
  8
0
100
AcDbCircle
 62
2
  6
CONTINUOUS
 10
12.9962575135
 20
2.5135023274
 40
0.0024749995
100
AcDbArc
 50
359.9999571957
 51
90.0000428043
  0
LINE
  5
2F0
100
AcDbEntity
  8
0
100
AcDbLine
 62
2
  6
CONTINUOUS
 10
12.998732513
 20
2.5135023256
 11
12.998732513
 21
2.4937023146
  0
ARC
  5
2F1
100
AcDbEntity
  8
0
100
AcDbCircle
 62
2
  6
CONTINUOUS
 10
12.9962575135
 20
2.4937023128
 40
0.0024749995
100
AcDbArc
 50
269.9999571957
 51
0.0000428043
  0
LINE
  5
2F2
100
AcDbEntity
  8
0
100
AcDbLine
 62
2
  6
CONTINUOUS
 10
12.9962575116
 20
2.4912273132
 11
12.9205934696
 21
2.4912273132
  0
ARC
  5
2F3
100
AcDbEntity
  8
0
100
AcDbCircle
 62
2
  6
CONTINUOUS
 10
12.9205934678
 20
2.4937023128
 40
0.0024749995
100
AcDbArc
 50
179.9999571957
 51
270.0000428043
  0
LINE
  5
2F4
100
AcDbEntity
  8
0
100
AcDbLine
 62
2
  6
CONTINUOUS
 10
12.9181184683
 20
2.4937023146
 11
12.9181184683
 21
2.5135023256
  0
ARC
  5
2F5
100
AcDbEntity
  8
0
100
AcDbCircle
 62
2
  6
CONTINUOUS
 10
12.9205934678
 20
2.5135023274
 40
0.0024749995
100
AcDbArc
 50
89.9999571957
 51
180.0000428042
  0
LINE
  5
2F6
100
AcDbEntity
  8
0
100
AcDbLine
 62
2
  6
CONTINUOUS
 10
12.9205934696
 20
2.515977327
 11
12.93923948
 21
2.515977327
  0
ARC
  5
2F7
100
AcDbEntity
  8
0
100
AcDbCircle
 62
2
  6
CONTINUOUS
 10
12.9392394818
 20
2.5184523265
 40
0.0024749995
100
AcDbArc
 50
269.9999571957
 51
0.0000428043
  0
LINE
  5
2F8
100
AcDbEntity
  8
0
100
AcDbLine
 62
2
  6
CONTINUOUS
 10
12.9417144814
 20
2.5184523283
 11
12.9417144814
 21
2.564807354
  0
ARC
  5
2F9
100
AcDbEntity
  8
0
100
AcDbCircle
 62
2
  6
CONTINUOUS
 10
12.9392394818
 20
2.5648073559
 40
0.0024749995
100
AcDbArc
 50
359.9999571957
 51
90.0000428043
  0
LINE
  5
2FA
100
AcDbEntity
  8
0
100
AcDbLine
 62
2
  6
CONTINUOUS
 10
12.93923948
 20
2.5672823554
 11
12.9205934696
 21
2.5672823554
  0
ARC
  5
2FB
100
AcDbEntity
  8
0
100
AcDbCircle
 62
2
  6
CONTINUOUS
 10
12.9205934678
 20
2.5697573549
 40
0.0024749995
100
AcDbArc
 50
179.9999571957
 51
270.0000428043
  0
LINE
  5
2FC
100
AcDbEntity
  8
0
100
AcDbLine
 62
2
  6
CONTINUOUS
 10
12.9181184683
 20
2.5697573568
 11
12.9181184683
 21
2.5895573678
  0
ARC
  5
2FD
100
AcDbEntity
  8
0
100
AcDbCircle
 62
2
  6
CONTINUOUS
 10
12.9205934678
 20
2.5895573696
 40
0.0024749995
100
AcDbArc
 50
89.9999571957
 51
180.0000428042
  0
LINE
  5
2FE
100
AcDbEntity
  8
0
100
AcDbLine
 62
2
  6
CONTINUOUS
 10
13.2934226764
 20
2.5324773361
 11
13.2582556569
 21
2.5324773361
  0
ARC
  5
2FF
100
AcDbEntity
  8
0
100
AcDbCircle
 62
2
  6
CONTINUOUS
 10
13.2582556551
 20
2.5300023366
 40
0.0024749995
100
AcDbArc
 50
89.9999571957
 51
180.0000428043
  0
LINE
  5
300
100
AcDbEntity
  8
0
100
AcDbLine
 62
2
  6
CONTINUOUS
 10
13.2557806555
 20
2.5300023347
 11
13.2557806555
 21
2.5184523283
  0
ARC
  5
301
100
AcDbEntity
  8
0
100
AcDbCircle
 62
2
  6
CONTINUOUS
 10
13.2582556551
 20
2.5184523265
 40
0.0024749995
100
AcDbArc
 50
179.9999571957
 51
270.0000428043
  0
LINE
  5
302
100
AcDbEntity
  8
0
100
AcDbLine
 62
2
  6
CONTINUOUS
 10
13.2582556569
 20
2.515977327
 11
13.3232596929
 21
2.515977327
  0
ARC
  5
303
100
AcDbEntity
  8
0
100
AcDbCircle
 62
2
  6
CONTINUOUS
 10
13.3232596948
 20
2.5184523265
 40
0.0024749995
100
AcDbArc
 50
269.9999571957
 51
0.0000428043
  0
LINE
  5
304
100
AcDbEntity
  8
0
100
AcDbLine
 62
2
  6
CONTINUOUS
 10
13.3257346943
 20
2.5184523283
 11
13.3257346943
 21
2.5267023329
  0
ARC
  5
305
100
AcDbEntity
  8
0
100
AcDbCircle
 62
2
  6
CONTINUOUS
 10
13.3282096938
 20
2.5267023348
 40
0.0024749995
100
AcDbArc
 50
89.9999571957
 51
180.0000428043
  0
LINE
  5
306
100
AcDbEntity
  8
0
100
AcDbLine
 62
2
  6
CONTINUOUS
 10
13.3282096957
 20
2.5291773343
 11
13.3705287192
 21
2.5291773343
  0
ARC
  5
307
100
AcDbEntity
  8
0
100
AcDbCircle
 62
2
  6
CONTINUOUS
 10
13.370528721
 20
2.5267023348
 40
0.0024749995
100
AcDbArc
 50
359.9999571957
 51
90.0000428043
  0
LINE
  5
308
100
AcDbEntity
  8
0
100
AcDbLine
 62
2
  6
CONTINUOUS
 10
13.3730037205
 20
2.5267023329
 11
13.3730037205
 21
2.4937023146
  0
ARC
  5
309
100
AcDbEntity
  8
0
100
AcDbCircle
 62
2
  6
CONTINUOUS
 10
13.370528721
 20
2.4937023128
 40
0.0024749995
100
AcDbArc
 50
269.9999571957
 51
0.0000428043
  0
LINE
  5
30A
100
AcDbEntity
  8
0
100
AcDbLine
 62
2
  6
CONTINUOUS
 10
13.3705287192
 20
2.4912273132
 11
13.1673166065
 21
2.4912273132
  0
ARC
  5
30B
100
AcDbEntity
  8
0
100
AcDbCircle
 62
2
  6
CONTINUOUS
 10
13.1673166046
 20
2.4937023128
 40
0.0024749995
100
AcDbArc
 50
179.9999571957
 51
270.0000428043
  0
LINE
  5
30C
100
AcDbEntity
  8
0
100
AcDbLine
 62
2
  6
CONTINUOUS
 10
13.1648416051
 20
2.4937023146
 11
13.1648416051
 21
2.5135023256
  0
ARC
  5
30D
100
AcDbEntity
  8
0
100
AcDbCircle
 62
2
  6
CONTINUOUS
 10
13.1673166046
 20
2.5135023274
 40
0.0024749995
100
AcDbArc
 50
89.9999571957
 51
180.0000428043
  0
LINE
  5
30E
100
AcDbEntity
  8
0
100
AcDbLine
 62
2
  6
CONTINUOUS
 10
13.1673166065
 20
2.515977327
 11
13.1912396197
 21
2.515977327
  0
ARC
  5
30F
100
AcDbEntity
  8
0
100
AcDbCircle
 62
2
  6
CONTINUOUS
 10
13.1912396216
 20
2.5184523265
 40
0.0024749995
100
AcDbArc
 50
269.9999571957
 51
0.0000428042
  0
LINE
  5
310
100
AcDbEntity
  8
0
100
AcDbLine
 62
2
  6
CONTINUOUS
 10
13.1937146211
 20
2.5184523283
 11
13.1937146211
 21
2.564807354
  0
ARC
  5
311
100
AcDbEntity
  8
0
100
AcDbCircle
 62
2
  6
CONTINUOUS
 10
13.1912396216
 20
2.5648073559
 40
0.0024749995
100
AcDbArc
 50
359.9999571957
 51
90.0000428043
  0
LINE
  5
312
100
AcDbEntity
  8
0
100
AcDbLine
 62
2
  6
CONTINUOUS
 10
13.1912396197
 20
2.5672823554
 11
13.1673166065
 21
2.5672823554
  0
ARC
  5
313
100
AcDbEntity
  8
0
100
AcDbCircle
 62
2
  6
CONTINUOUS
 10
13.1673166046
 20
2.5697573549
 40
0.0024749995
100
AcDbArc
 50
179.9999571957
 51
270.0000428043
  0
LINE
  5
314
100
AcDbEntity
  8
0
100
AcDbLine
 62
2
  6
CONTINUOUS
 10
13.1648416051
 20
2.5697573568
 11
13.1648416051
 21
2.5895573678
  0
ARC
  5
315
100
AcDbEntity
  8
0
100
AcDbCircle
 62
2
  6
CONTINUOUS
 10
13.1673166046
 20
2.5895573696
 40
0.0024749995
100
AcDbArc
 50
89.9999571957
 51
180.0000428043
  0
LINE
  5
316
100
AcDbEntity
  8
0
100
AcDbLine
 62
2
  6
CONTINUOUS
 10
13.1673166065
 20
2.5920323691
 11
13.3691097184
 21
2.5920323691
  0
ARC
  5
317
100
AcDbEntity
  8
0
100
AcDbCircle
 62
2
  6
CONTINUOUS
 10
13.3691097202
 20
2.5895573696
 40
0.0024749995
100
AcDbArc
 50
359.9999571957
 51
90.0000428043
  0
LINE
  5
318
100
AcDbEntity
  8
0
100
AcDbLine
 62
2
  6
CONTINUOUS
 10
13.3715847197
 20
2.5895573678
 11
13.3715847197
 21
2.5565573495
  0
ARC
  5
319
100
AcDbEntity
  8
0
100
AcDbCircle
 62
2
  6
CONTINUOUS
 10
13.3691097202
 20
2.5565573476
 40
0.0024749995
100
AcDbArc
 50
269.9999571957
 51
0.0000428042
  0
LINE
  5
31A
100
AcDbEntity
  8
0
100
AcDbLine
 62
2
  6
CONTINUOUS
 10
13.3691097184
 20
2.5540823481
 11
13.3272456952
 21
2.5540823481
  0
ARC
  5
31B
100
AcDbEntity
  8
0
100
AcDbCircle
 62
2
  6
CONTINUOUS
 10
13.3272456933
 20
2.5565573476
 40
0.0024749995
100
AcDbArc
 50
179.9999571957
 51
270.0000428043
  0
LINE
  5
31C
100
AcDbEntity
  8
0
100
AcDbLine
 62
2
  6
CONTINUOUS
 10
13.3247706938
 20
2.5565573495
 11
13.3247706938
 21
2.564807354
  0
ARC
  5
31D
100
AcDbEntity
  8
0
100
AcDbCircle
 62
2
  6
CONTINUOUS
 10
13.3222956943
 20
2.5648073559
 40
0.0024749995
100
AcDbArc
 50
359.9999571957
 51
90.0000428043
  0
LINE
  5
31E
100
AcDbEntity
  8
0
100
AcDbLine
 62
2
  6
CONTINUOUS
 10
13.3222956924
 20
2.5672823554
 11
13.2582556569
 21
2.5672823554
  0
ARC
  5
31F
100
AcDbEntity
  8
0
100
AcDbCircle
 62
2
  6
CONTINUOUS
 10
13.2582556551
 20
2.5648073559
 40
0.0024749995
100
AcDbArc
 50
89.9999571957
 51
180.0000428043
  0
LINE
  5
320
100
AcDbEntity
  8
0
100
AcDbLine
 62
2
  6
CONTINUOUS
 10
13.2557806555
 20
2.564807354
 11
13.2557806555
 21
2.5532573476
  0
ARC
  5
321
100
AcDbEntity
  8
0
100
AcDbCircle
 62
2
  6
CONTINUOUS
 10
13.2582556551
 20
2.5532573458
 40
0.0024749995
100
AcDbArc
 50
179.9999571957
 51
270.0000428043
  0
LINE
  5
322
100
AcDbEntity
  8
0
100
AcDbLine
 62
2
  6
CONTINUOUS
 10
13.2582556569
 20
2.5507823463
 11
13.2934226764
 21
2.5507823463
  0
ARC
  5
323
100
AcDbEntity
  8
0
100
AcDbCircle
 62
2
  6
CONTINUOUS
 10
13.2934226783
 20
2.5483073467
 40
0.0024749995
100
AcDbArc
 50
359.9999571957
 51
90.0000428043
  0
LINE
  5
324
100
AcDbEntity
  8
0
100
AcDbLine
 62
2
  6
CONTINUOUS
 10
13.2958976778
 20
2.5483073449
 11
13.2958976778
 21
2.5349523375
  0
ARC
  5
325
100
AcDbEntity
  8
0
100
AcDbCircle
 62
2
  6
CONTINUOUS
 10
13.2934226783
 20
2.5349523356
 40
0.0024749995
100
AcDbArc
 50
269.9999571957
 51
0.0000428042
  0
LINE
  5
326
100
AcDbEntity
  8
0
100
AcDbLine
 62
2
  6
CONTINUOUS
 10
13.7286871589
 20
2.5350697372
 11
13.7286871589
 21
2.5456869438
  0
LINE
  5
327
100
AcDbEntity
  8
0
100
AcDbLine
 62
2
  6
CONTINUOUS
 10
13.7086871478
 20
2.5004302075
 11
13.7086871478
 21
2.5803264735
  0
LINE
  5
328
100
AcDbEntity
  8
0
100
AcDbLine
 62
2
  6
CONTINUOUS
 10
13.6886871368
 20
2.4843919416
 11
13.6886871368
 21
2.5963647394
  0
LINE
  5
329
100
AcDbEntity
  8
0
100
AcDbLine
 62
2
  6
CONTINUOUS
 10
13.6686871257
 20
2.4726017898
 11
13.6686871257
 21
2.6081548911
  0
LINE
  5
32A
100
AcDbEntity
  8
0
100
AcDbLine
 62
2
  6
CONTINUOUS
 10
13.6486871146
 20
2.4628062688
 11
13.6486871146
 21
2.6179504122
  0
LINE
  5
32B
100
AcDbEntity
  8
0
100
AcDbLine
 62
2
  6
CONTINUOUS
 10
13.6286871035
 20
2.4541253507
 11
13.6286871035
 21
2.5062483056
  0
LINE
  5
32C
100
AcDbEntity
  8
0
100
AcDbLine
 62
2
  6
CONTINUOUS
 10
13.6286871035
 20
2.5301143348
 11
13.6286871035
 21
2.6266313303
  0
LINE
  5
32D
100
AcDbEntity
  8
0
100
AcDbLine
 62
2
  6
CONTINUOUS
 10
13.6086870924
 20
2.4465537903
 11
13.6086870924
 21
2.4918774918
  0
LINE
  5
32E
100
AcDbEntity
  8
0
100
AcDbLine
 62
2
  6
CONTINUOUS
 10
13.6086870924
 20
2.5165781173
 11
13.6086870924
 21
2.6342028907
  0
LINE
  5
32F
100
AcDbEntity
  8
0
100
AcDbLine
 62
2
  6
CONTINUOUS
 10
13.5886870813
 20
2.4398033466
 11
13.5886870813
 21
2.4912273132
  0
LINE
  5
330
100
AcDbEntity
  8
0
100
AcDbLine
 62
2
  6
CONTINUOUS
 10
13.5886870813
 20
2.5391840845
 11
13.5886870813
 21
2.5454298327
  0
LINE
  5
331
100
AcDbEntity
  8
0
100
AcDbLine
 62
2
  6
CONTINUOUS
 10
13.5886870813
 20
2.5862063472
 11
13.5886870813
 21
2.6409533343
  0
LINE
  5
332
100
AcDbEntity
  8
0
100
AcDbLine
 62
2
  6
CONTINUOUS
 10
13.5686870702
 20
2.4334702189
 11
13.5686870702
 21
2.4912273132
  0
LINE
  5
333
100
AcDbEntity
  8
0
100
AcDbLine
 62
2
  6
CONTINUOUS
 10
13.5686870702
 20
2.5906587765
 11
13.5686870702
 21
2.647286462
  0
LINE
  5
334
100
AcDbEntity
  8
0
100
AcDbLine
 62
2
  6
CONTINUOUS
 10
13.5486870591
 20
2.4278968124
 11
13.5486870591
 21
2.4937461006
  0
LINE
  5
335
100
AcDbEntity
  8
0
100
AcDbLine
 62
2
  6
CONTINUOUS
 10
13.5486870591
 20
2.5920323691
 11
13.5486870591
 21
2.6528598686
  0
LINE
  5
336
100
AcDbEntity
  8
0
100
AcDbLine
 62
2
  6
CONTINUOUS
 10
13.528687048
 20
2.4225427674
 11
13.528687048
 21
2.5270426993
  0
LINE
  5
337
100
AcDbEntity
  8
0
100
AcDbLine
 62
2
  6
CONTINUOUS
 10
13.528687048
 20
2.5505166259
 11
13.528687048
 21
2.5668657091
  0
LINE
  5
338
100
AcDbEntity
  8
0
100
AcDbLine
 62
2
  6
CONTINUOUS
 10
13.528687048
 20
2.5920323691
 11
13.528687048
 21
2.6582139136
  0
LINE
  5
339
100
AcDbEntity
  8
0
100
AcDbLine
 62
2
  6
CONTINUOUS
 10
13.5086870369
 20
2.4177306791
 11
13.5086870369
 21
2.4912273132
  0
LINE
  5
33A
100
AcDbEntity
  8
0
100
AcDbLine
 62
2
  6
CONTINUOUS
 10
13.5086870369
 20
2.5159553269
 11
13.5086870369
 21
2.5306043351
  0
LINE
  5
33B
100
AcDbEntity
  8
0
100
AcDbLine
 62
2
  6
CONTINUOUS
 10
13.5086870369
 20
2.5496073456
 11
13.5086870369
 21
2.5672823554
  0
LINE
  5
33C
100
AcDbEntity
  8
0
100
AcDbLine
 62
2
  6
CONTINUOUS
 10
13.5086870369
 20
2.5920323691
 11
13.5086870369
 21
2.6630260019
  0
LINE
  5
33D
100
AcDbEntity
  8
0
100
AcDbLine
 62
2
  6
CONTINUOUS
 10
13.4886870258
 20
2.4131795254
 11
13.4886870258
 21
2.4912273132
  0
LINE
  5
33E
100
AcDbEntity
  8
0
100
AcDbLine
 62
2
  6
CONTINUOUS
 10
13.4886870258
 20
2.5159553269
 11
13.4886870258
 21
2.5306043351
  0
LINE
  5
33F
100
AcDbEntity
  8
0
100
AcDbLine
 62
2
  6
CONTINUOUS
 10
13.4886870258
 20
2.5496073456
 11
13.4886870258
 21
2.5672823554
  0
LINE
  5
340
100
AcDbEntity
  8
0
100
AcDbLine
 62
2
  6
CONTINUOUS
 10
13.4886870258
 20
2.5920323691
 11
13.4886870258
 21
2.6675771555
  0
LINE
  5
341
100
AcDbEntity
  8
0
100
AcDbLine
 62
2
  6
CONTINUOUS
 10
13.4686870147
 20
2.4088819672
 11
13.4686870147
 21
2.4912273132
  0
LINE
  5
342
100
AcDbEntity
  8
0
100
AcDbLine
 62
2
  6
CONTINUOUS
 10
13.4686870147
 20
2.5920323691
 11
13.4686870147
 21
2.6718747138
  0
LINE
  5
343
100
AcDbEntity
  8
0
100
AcDbLine
 62
2
  6
CONTINUOUS
 10
13.4486870037
 20
2.4050092072
 11
13.4486870037
 21
2.4912273132
  0
LINE
  5
344
100
AcDbEntity
  8
0
100
AcDbLine
 62
2
  6
CONTINUOUS
 10
13.4486870037
 20
2.5920323691
 11
13.4486870037
 21
2.6757474738
  0
LINE
  5
345
100
AcDbEntity
  8
0
100
AcDbLine
 62
2
  6
CONTINUOUS
 10
13.4286869926
 20
2.4011364471
 11
13.4286869926
 21
2.4912273132
  0
LINE
  5
346
100
AcDbEntity
  8
0
100
AcDbLine
 62
2
  6
CONTINUOUS
 10
13.4286869926
 20
2.5920323691
 11
13.4286869926
 21
2.6796202339
  0
LINE
  5
347
100
AcDbEntity
  8
0
100
AcDbLine
 62
2
  6
CONTINUOUS
 10
13.4086869815
 20
2.3980226662
 11
13.4086869815
 21
2.4912273132
  0
LINE
  5
348
100
AcDbEntity
  8
0
100
AcDbLine
 62
2
  6
CONTINUOUS
 10
13.4086869815
 20
2.515977327
 11
13.4086869815
 21
2.5672823554
  0
LINE
  5
349
100
AcDbEntity
  8
0
100
AcDbLine
 62
2
  6
CONTINUOUS
 10
13.4086869815
 20
2.5920323691
 11
13.4086869815
 21
2.6827340148
  0
LINE
  5
34A
100
AcDbEntity
  8
0
100
AcDbLine
 62
2
  6
CONTINUOUS
 10
13.3886869704
 20
2.3950052774
 11
13.3886869704
 21
2.6857514036
  0
LINE
  5
34B
100
AcDbEntity
  8
0
100
AcDbLine
 62
2
  6
CONTINUOUS
 10
13.3686869593
 20
2.3919878885
 11
13.3686869593
 21
2.4912273132
  0
LINE
  5
34C
100
AcDbEntity
  8
0
100
AcDbLine
 62
2
  6
CONTINUOUS
 10
13.3686869593
 20
2.5291773343
 11
13.3686869593
 21
2.5540823481
  0
LINE
  5
34D
100
AcDbEntity
  8
0
100
AcDbLine
 62
2
  6
CONTINUOUS
 10
13.3686869593
 20
2.5920323691
 11
13.3686869593
 21
2.6887687924
  0
LINE
  5
34E
100
AcDbEntity
  8
0
100
AcDbLine
 62
2
  6
CONTINUOUS
 10
13.3486869482
 20
2.3889704997
 11
13.3486869482
 21
2.4912273132
  0
LINE
  5
34F
100
AcDbEntity
  8
0
100
AcDbLine
 62
2
  6
CONTINUOUS
 10
13.3486869482
 20
2.5291773343
 11
13.3486869482
 21
2.5540823481
  0
LINE
  5
350
100
AcDbEntity
  8
0
100
AcDbLine
 62
2
  6
CONTINUOUS
 10
13.3486869482
 20
2.5920323691
 11
13.3486869482
 21
2.6917861813
  0
LINE
  5
351
100
AcDbEntity
  8
0
100
AcDbLine
 62
2
  6
CONTINUOUS
 10
13.3286869371
 20
2.3859531109
 11
13.3286869371
 21
2.4912273132
  0
LINE
  5
352
100
AcDbEntity
  8
0
100
AcDbLine
 62
2
  6
CONTINUOUS
 10
13.3286869371
 20
2.5291773343
 11
13.3286869371
 21
2.5540823481
  0
LINE
  5
353
100
AcDbEntity
  8
0
100
AcDbLine
 62
2
  6
CONTINUOUS
 10
13.3286869371
 20
2.5920323691
 11
13.3286869371
 21
2.6948035701
  0
LINE
  5
354
100
AcDbEntity
  8
0
100
AcDbLine
 62
2
  6
CONTINUOUS
 10
13.308686926
 20
2.3833355437
 11
13.308686926
 21
2.4912273132
  0
LINE
  5
355
100
AcDbEntity
  8
0
100
AcDbLine
 62
2
  6
CONTINUOUS
 10
13.308686926
 20
2.515977327
 11
13.308686926
 21
2.5672823554
  0
LINE
  5
356
100
AcDbEntity
  8
0
100
AcDbLine
 62
2
  6
CONTINUOUS
 10
13.308686926
 20
2.5920323691
 11
13.308686926
 21
2.6974211373
  0
LINE
  5
357
100
AcDbEntity
  8
0
100
AcDbLine
 62
2
  6
CONTINUOUS
 10
13.2886869149
 20
2.3812612684
 11
13.2886869149
 21
2.4912273132
  0
LINE
  5
358
100
AcDbEntity
  8
0
100
AcDbLine
 62
2
  6
CONTINUOUS
 10
13.2886869149
 20
2.515977327
 11
13.2886869149
 21
2.5324773361
  0
LINE
  5
359
100
AcDbEntity
  8
0
100
AcDbLine
 62
2
  6
CONTINUOUS
 10
13.2886869149
 20
2.5507823463
 11
13.2886869149
 21
2.5672823554
  0
LINE
  5
35A
100
AcDbEntity
  8
0
100
AcDbLine
 62
2
  6
CONTINUOUS
 10
13.2886869149
 20
2.5920323691
 11
13.2886869149
 21
2.6994954125
  0
LINE
  5
35B
100
AcDbEntity
  8
0
100
AcDbLine
 62
2
  6
CONTINUOUS
 10
13.2686869038
 20
2.3791869932
 11
13.2686869038
 21
2.4912273132
  0
LINE
  5
35C
100
AcDbEntity
  8
0
100
AcDbLine
 62
2
  6
CONTINUOUS
 10
13.2686869038
 20
2.515977327
 11
13.2686869038
 21
2.5324773361
  0
LINE
  5
35D
100
AcDbEntity
  8
0
100
AcDbLine
 62
2
  6
CONTINUOUS
 10
13.2686869038
 20
2.5507823463
 11
13.2686869038
 21
2.5672823554
  0
LINE
  5
35E
100
AcDbEntity
  8
0
100
AcDbLine
 62
2
  6
CONTINUOUS
 10
13.2686869038
 20
2.5920323691
 11
13.2686869038
 21
2.7015696878
  0
LINE
  5
35F
100
AcDbEntity
  8
0
100
AcDbLine
 62
2
  6
CONTINUOUS
 10
13.2486868927
 20
2.377112718
 11
13.2486868927
 21
2.4912273132
  0
LINE
  5
360
100
AcDbEntity
  8
0
100
AcDbLine
 62
2
  6
CONTINUOUS
 10
13.2486868927
 20
2.5920323691
 11
13.2486868927
 21
2.703643963
  0
LINE
  5
361
100
AcDbEntity
  8
0
100
AcDbLine
 62
2
  6
CONTINUOUS
 10
13.2286868817
 20
2.3750384428
 11
13.2286868817
 21
2.4912273132
  0
LINE
  5
362
100
AcDbEntity
  8
0
100
AcDbLine
 62
2
  6
CONTINUOUS
 10
13.2286868817
 20
2.5920323691
 11
13.2286868817
 21
2.7057182382
  0
LINE
  5
363
100
AcDbEntity
  8
0
100
AcDbLine
 62
2
  6
CONTINUOUS
 10
13.2086868706
 20
2.3729641676
 11
13.2086868706
 21
2.4912273132
  0
LINE
  5
364
100
AcDbEntity
  8
0
100
AcDbLine
 62
2
  6
CONTINUOUS
 10
13.2086868706
 20
2.5920323691
 11
13.2086868706
 21
2.7077925134
  0
LINE
  5
365
100
AcDbEntity
  8
0
100
AcDbLine
 62
2
  6
CONTINUOUS
 10
13.1886868595
 20
2.3712344456
 11
13.1886868595
 21
2.4912273132
  0
LINE
  5
366
100
AcDbEntity
  8
0
100
AcDbLine
 62
2
  6
CONTINUOUS
 10
13.1886868595
 20
2.515977327
 11
13.1886868595
 21
2.5672823554
  0
LINE
  5
367
100
AcDbEntity
  8
0
100
AcDbLine
 62
2
  6
CONTINUOUS
 10
13.1886868595
 20
2.5920323691
 11
13.1886868595
 21
2.7095222354
  0
LINE
  5
368
100
AcDbEntity
  8
0
100
AcDbLine
 62
2
  6
CONTINUOUS
 10
13.1686868484
 20
2.3699682418
 11
13.1686868484
 21
2.4912273132
  0
LINE
  5
369
100
AcDbEntity
  8
0
100
AcDbLine
 62
2
  6
CONTINUOUS
 10
13.1686868484
 20
2.515977327
 11
13.1686868484
 21
2.5672823554
  0
LINE
  5
36A
100
AcDbEntity
  8
0
100
AcDbLine
 62
2
  6
CONTINUOUS
 10
13.1686868484
 20
2.5920323691
 11
13.1686868484
 21
2.7107884392
  0
LINE
  5
36B
100
AcDbEntity
  8
0
100
AcDbLine
 62
2
  6
CONTINUOUS
 10
13.1486868373
 20
2.3687020381
 11
13.1486868373
 21
2.7120546429
  0
LINE
  5
36C
100
AcDbEntity
  8
0
100
AcDbLine
 62
2
  6
CONTINUOUS
 10
13.1286868262
 20
2.3674358343
 11
13.1286868262
 21
2.5672823554
  0
LINE
  5
36D
100
AcDbEntity
  8
0
100
AcDbLine
 62
2
  6
CONTINUOUS
 10
13.1286868262
 20
2.5920323691
 11
13.1286868262
 21
2.7133208466
  0
LINE
  5
36E
100
AcDbEntity
  8
0
100
AcDbLine
 62
2
  6
CONTINUOUS
 10
13.1086868151
 20
2.3661696306
 11
13.1086868151
 21
2.4912273132
  0
LINE
  5
36F
100
AcDbEntity
  8
0
100
AcDbLine
 62
2
  6
CONTINUOUS
 10
13.1086868151
 20
2.5920323691
 11
13.1086868151
 21
2.7145870504
  0
LINE
  5
370
100
AcDbEntity
  8
0
100
AcDbLine
 62
2
  6
CONTINUOUS
 10
13.088686804
 20
2.3649034269
 11
13.088686804
 21
2.4912273132
  0
LINE
  5
371
100
AcDbEntity
  8
0
100
AcDbLine
 62
2
  6
CONTINUOUS
 10
13.088686804
 20
2.5920323691
 11
13.088686804
 21
2.7158532541
  0
LINE
  5
372
100
AcDbEntity
  8
0
100
AcDbLine
 62
2
  6
CONTINUOUS
 10
13.0686867929
 20
2.3636739922
 11
13.0686867929
 21
2.4912273132
  0
LINE
  5
373
100
AcDbEntity
  8
0
100
AcDbLine
 62
2
  6
CONTINUOUS
 10
13.0686867929
 20
2.5475272398
 11
13.0686867929
 21
2.5672823554
  0
LINE
  5
374
100
AcDbEntity
  8
0
100
AcDbLine
 62
2
  6
CONTINUOUS
 10
13.0686867929
 20
2.5920323691
 11
13.0686867929
 21
2.7170826887
  0
LINE
  5
375
100
AcDbEntity
  8
0
100
AcDbLine
 62
2
  6
CONTINUOUS
 10
13.0486867818
 20
2.363143203
 11
13.0486867818
 21
2.4912273132
  0
LINE
  5
376
100
AcDbEntity
  8
0
100
AcDbLine
 62
2
  6
CONTINUOUS
 10
13.0486867818
 20
2.5666100882
 11
13.0486867818
 21
2.717613478
  0
LINE
  5
377
100
AcDbEntity
  8
0
100
AcDbLine
 62
2
  6
CONTINUOUS
 10
13.0286867707
 20
2.3626124138
 11
13.0286867707
 21
2.50359263
  0
LINE
  5
378
100
AcDbEntity
  8
0
100
AcDbLine
 62
2
  6
CONTINUOUS
 10
13.0286867707
 20
2.5856929366
 11
13.0286867707
 21
2.7181442672
  0
LINE
  5
379
100
AcDbEntity
  8
0
100
AcDbLine
 62
2
  6
CONTINUOUS
 10
13.0086867596
 20
2.3620816246
 11
13.0086867596
 21
2.5226754472
  0
LINE
  5
37A
100
AcDbEntity
  8
0
100
AcDbLine
 62
2
  6
CONTINUOUS
 10
13.0086867596
 20
2.5920323691
 11
13.0086867596
 21
2.7186750564
  0
LINE
  5
37B
100
AcDbEntity
  8
0
100
AcDbLine
 62
2
  6
CONTINUOUS
 10
12.9886867486
 20
2.3615508354
 11
12.9886867486
 21
2.4912273132
  0
LINE
  5
37C
100
AcDbEntity
  8
0
100
AcDbLine
 62
2
  6
CONTINUOUS
 10
12.9886867486
 20
2.515977327
 11
12.9886867486
 21
2.5417582644
  0
LINE
  5
37D
100
AcDbEntity
  8
0
100
AcDbLine
 62
2
  6
CONTINUOUS
 10
12.9886867486
 20
2.5920323691
 11
12.9886867486
 21
2.7192058456
  0
LINE
  5
37E
100
AcDbEntity
  8
0
100
AcDbLine
 62
2
  6
CONTINUOUS
 10
12.9686867375
 20
2.3610200462
 11
12.9686867375
 21
2.4912273132
  0
LINE
  5
37F
100
AcDbEntity
  8
0
100
AcDbLine
 62
2
  6
CONTINUOUS
 10
12.9686867375
 20
2.5920323691
 11
12.9686867375
 21
2.7197366348
  0
LINE
  5
380
100
AcDbEntity
  8
0
100
AcDbLine
 62
2
  6
CONTINUOUS
 10
12.9486867264
 20
2.360489257
 11
12.9486867264
 21
2.4912273132
  0
LINE
  5
381
100
AcDbEntity
  8
0
100
AcDbLine
 62
2
  6
CONTINUOUS
 10
12.9486867264
 20
2.5920323691
 11
12.9486867264
 21
2.720267424
  0
LINE
  5
382
100
AcDbEntity
  8
0
100
AcDbLine
 62
2
  6
CONTINUOUS
 10
12.9286867153
 20
2.3602836008
 11
12.9286867153
 21
2.4912273132
  0
LINE
  5
383
100
AcDbEntity
  8
0
100
AcDbLine
 62
2
  6
CONTINUOUS
 10
12.9286867153
 20
2.515977327
 11
12.9286867153
 21
2.5672823554
  0
LINE
  5
384
100
AcDbEntity
  8
0
100
AcDbLine
 62
2
  6
CONTINUOUS
 10
12.9286867153
 20
2.5920323691
 11
12.9286867153
 21
2.7204730802
  0
LINE
  5
385
100
AcDbEntity
  8
0
100
AcDbLine
 62
2
  6
CONTINUOUS
 10
12.9086867042
 20
2.3604597639
 11
12.9086867042
 21
2.7202969171
  0
LINE
  5
386
100
AcDbEntity
  8
0
100
AcDbLine
 62
2
  6
CONTINUOUS
 10
12.8886866931
 20
2.360635927
 11
12.8886866931
 21
2.5672823554
  0
LINE
  5
387
100
AcDbEntity
  8
0
100
AcDbLine
 62
2
  6
CONTINUOUS
 10
12.8886866931
 20
2.5920323691
 11
12.8886866931
 21
2.720120754
  0
LINE
  5
388
100
AcDbEntity
  8
0
100
AcDbLine
 62
2
  6
CONTINUOUS
 10
12.868686682
 20
2.3608120901
 11
12.868686682
 21
2.491232357
  0
LINE
  5
389
100
AcDbEntity
  8
0
100
AcDbLine
 62
2
  6
CONTINUOUS
 10
12.868686682
 20
2.5920323691
 11
12.868686682
 21
2.7199445909
  0
LINE
  5
38A
100
AcDbEntity
  8
0
100
AcDbLine
 62
2
  6
CONTINUOUS
 10
12.8486866709
 20
2.3609882532
 11
12.8486866709
 21
2.4912273132
  0
LINE
  5
38B
100
AcDbEntity
  8
0
100
AcDbLine
 62
2
  6
CONTINUOUS
 10
12.8486866709
 20
2.5920323691
 11
12.8486866709
 21
2.7197684278
  0
LINE
  5
38C
100
AcDbEntity
  8
0
100
AcDbLine
 62
2
  6
CONTINUOUS
 10
12.8286866598
 20
2.3611644163
 11
12.8286866598
 21
2.4912273132
  0
LINE
  5
38D
100
AcDbEntity
  8
0
100
AcDbLine
 62
2
  6
CONTINUOUS
 10
12.8286866598
 20
2.5396527025
 11
12.8286866598
 21
2.5672823554
  0
LINE
  5
38E
100
AcDbEntity
  8
0
100
AcDbLine
 62
2
  6
CONTINUOUS
 10
12.8286866598
 20
2.5920323691
 11
12.8286866598
 21
2.7195922647
  0
LINE
  5
38F
100
AcDbEntity
  8
0
100
AcDbLine
 62
2
  6
CONTINUOUS
 10
12.8086866487
 20
2.3613405794
 11
12.8086866487
 21
2.4912273132
  0
LINE
  5
390
100
AcDbEntity
  8
0
100
AcDbLine
 62
2
  6
CONTINUOUS
 10
12.8086866487
 20
2.5587355508
 11
12.8086866487
 21
2.7194161016
  0
LINE
  5
391
100
AcDbEntity
  8
0
100
AcDbLine
 62
2
  6
CONTINUOUS
 10
12.7886866376
 20
2.3621089572
 11
12.7886866376
 21
2.4957181055
  0
LINE
  5
392
100
AcDbEntity
  8
0
100
AcDbLine
 62
2
  6
CONTINUOUS
 10
12.7886866376
 20
2.5778183992
 11
12.7886866376
 21
2.7186477238
  0
LINE
  5
393
100
AcDbEntity
  8
0
100
AcDbLine
 62
2
  6
CONTINUOUS
 10
12.7686866266
 20
2.3630013935
 11
12.7686866266
 21
2.5148009227
  0
LINE
  5
394
100
AcDbEntity
  8
0
100
AcDbLine
 62
2
  6
CONTINUOUS
 10
12.7686866266
 20
2.5920323691
 11
12.7686866266
 21
2.7177552874
  0
LINE
  5
395
100
AcDbEntity
  8
0
100
AcDbLine
 62
2
  6
CONTINUOUS
 10
12.7486866155
 20
2.3638938299
 11
12.7486866155
 21
2.4913263218
  0
LINE
  5
396
100
AcDbEntity
  8
0
100
AcDbLine
 62
2
  6
CONTINUOUS
 10
12.7486866155
 20
2.5158783184
 11
12.7486866155
 21
2.5338837399
  0
LINE
  5
397
100
AcDbEntity
  8
0
100
AcDbLine
 62
2
  6
CONTINUOUS
 10
12.7486866155
 20
2.5920323691
 11
12.7486866155
 21
2.7168628511
  0
LINE
  5
398
100
AcDbEntity
  8
0
100
AcDbLine
 62
2
  6
CONTINUOUS
 10
12.7286866044
 20
2.3647862663
 11
12.7286866044
 21
2.4912273132
  0
LINE
  5
399
100
AcDbEntity
  8
0
100
AcDbLine
 62
2
  6
CONTINUOUS
 10
12.7286866044
 20
2.515977327
 11
12.7286866044
 21
2.5527601554
  0
LINE
  5
39A
100
AcDbEntity
  8
0
100
AcDbLine
 62
2
  6
CONTINUOUS
 10
12.7286866044
 20
2.5920323691
 11
12.7286866044
 21
2.7159704147
  0
LINE
  5
39B
100
AcDbEntity
  8
0
100
AcDbLine
 62
2
  6
CONTINUOUS
 10
12.7086865933
 20
2.3656787026
 11
12.7086865933
 21
2.4912273132
  0
LINE
  5
39C
100
AcDbEntity
  8
0
100
AcDbLine
 62
2
  6
CONTINUOUS
 10
12.7086865933
 20
2.5920323691
 11
12.7086865933
 21
2.7150779784
  0
LINE
  5
39D
100
AcDbEntity
  8
0
100
AcDbLine
 62
2
  6
CONTINUOUS
 10
12.6886865822
 20
2.366571139
 11
12.6886865822
 21
2.4912273132
  0
LINE
  5
39E
100
AcDbEntity
  8
0
100
AcDbLine
 62
2
  6
CONTINUOUS
 10
12.6886865822
 20
2.515977327
 11
12.6886865822
 21
2.5672823554
  0
LINE
  5
39F
100
AcDbEntity
  8
0
100
AcDbLine
 62
2
  6
CONTINUOUS
 10
12.6886865822
 20
2.5920323691
 11
12.6886865822
 21
2.714185542
  0
LINE
  5
3A0
100
AcDbEntity
  8
0
100
AcDbLine
 62
2
  6
CONTINUOUS
 10
12.6686865711
 20
2.3677104027
 11
12.6686865711
 21
2.7130462783
  0
LINE
  5
3A1
100
AcDbEntity
  8
0
100
AcDbLine
 62
2
  6
CONTINUOUS
 10
12.64868656
 20
2.3693682721
 11
12.64868656
 21
2.7113884089
  0
LINE
  5
3A2
100
AcDbEntity
  8
0
100
AcDbLine
 62
2
  6
CONTINUOUS
 10
12.6286865489
 20
2.3710261415
 11
12.6286865489
 21
2.4912273132
  0
LINE
  5
3A3
100
AcDbEntity
  8
0
100
AcDbLine
 62
2
  6
CONTINUOUS
 10
12.6286865489
 20
2.515977327
 11
12.6286865489
 21
2.7097305395
  0
LINE
  5
3A4
100
AcDbEntity
  8
0
100
AcDbLine
 62
2
  6
CONTINUOUS
 10
12.6086865378
 20
2.372684011
 11
12.6086865378
 21
2.4912273132
  0
LINE
  5
3A5
100
AcDbEntity
  8
0
100
AcDbLine
 62
2
  6
CONTINUOUS
 10
12.6086865378
 20
2.5351122279
 11
12.6086865378
 21
2.70807267
  0
LINE
  5
3A6
100
AcDbEntity
  8
0
100
AcDbLine
 62
2
  6
CONTINUOUS
 10
12.5886865267
 20
2.3743418804
 11
12.5886865267
 21
2.4912273132
  0
LINE
  5
3A7
100
AcDbEntity
  8
0
100
AcDbLine
 62
2
  6
CONTINUOUS
 10
12.5886865267
 20
2.5660172622
 11
12.5886865267
 21
2.7064148006
  0
LINE
  5
3A8
100
AcDbEntity
  8
0
100
AcDbLine
 62
2
  6
CONTINUOUS
 10
12.5686865156
 20
2.3759997498
 11
12.5686865156
 21
2.4912273132
  0
LINE
  5
3A9
100
AcDbEntity
  8
0
100
AcDbLine
 62
2
  6
CONTINUOUS
 10
12.5686865156
 20
2.5920323691
 11
12.5686865156
 21
2.7047569312
  0
LINE
  5
3AA
100
AcDbEntity
  8
0
100
AcDbLine
 62
2
  6
CONTINUOUS
 10
12.5486865045
 20
2.3777575277
 11
12.5486865045
 21
2.4912273132
  0
LINE
  5
3AB
100
AcDbEntity
  8
0
100
AcDbLine
 62
2
  6
CONTINUOUS
 10
12.5486865045
 20
2.515977327
 11
12.5486865045
 21
2.5275118824
  0
LINE
  5
3AC
100
AcDbEntity
  8
0
100
AcDbLine
 62
2
  6
CONTINUOUS
 10
12.5486865045
 20
2.5920323691
 11
12.5486865045
 21
2.7029991533
  0
LINE
  5
3AD
100
AcDbEntity
  8
0
100
AcDbLine
 62
2
  6
CONTINUOUS
 10
12.5286864935
 20
2.3802813811
 11
12.5286864935
 21
2.5296213345
  0
LINE
  5
3AE
100
AcDbEntity
  8
0
100
AcDbLine
 62
2
  6
CONTINUOUS
 10
12.5286864935
 20
2.5505713461
 11
12.5286864935
 21
2.5667383551
  0
LINE
  5
3AF
100
AcDbEntity
  8
0
100
AcDbLine
 62
2
  6
CONTINUOUS
 10
12.5286864935
 20
2.5920323691
 11
12.5286864935
 21
2.7004752999
  0
LINE
  5
3B0
100
AcDbEntity
  8
0
100
AcDbLine
 62
2
  6
CONTINUOUS
 10
12.5086864824
 20
2.3828052346
 11
12.5086864824
 21
2.4912273132
  0
LINE
  5
3B1
100
AcDbEntity
  8
0
100
AcDbLine
 62
2
  6
CONTINUOUS
 10
12.5086864824
 20
2.515977327
 11
12.5086864824
 21
2.5279667721
  0
LINE
  5
3B2
100
AcDbEntity
  8
0
100
AcDbLine
 62
2
  6
CONTINUOUS
 10
12.5086864824
 20
2.5868602074
 11
12.5086864824
 21
2.6979514464
  0
LINE
  5
3B3
100
AcDbEntity
  8
0
100
AcDbLine
 62
2
  6
CONTINUOUS
 10
12.4886864713
 20
2.385329088
 11
12.4886864713
 21
2.4912273132
  0
LINE
  5
3B4
100
AcDbEntity
  8
0
100
AcDbLine
 62
2
  6
CONTINUOUS
 10
12.4886864713
 20
2.5553401045
 11
12.4886864713
 21
2.695427593
  0
LINE
  5
3B5
100
AcDbEntity
  8
0
100
AcDbLine
 62
2
  6
CONTINUOUS
 10
12.4686864602
 20
2.3878529415
 11
12.4686864602
 21
2.4912273132
  0
LINE
  5
3B6
100
AcDbEntity
  8
0
100
AcDbLine
 62
2
  6
CONTINUOUS
 10
12.4686864602
 20
2.5238200015
 11
12.4686864602
 21
2.6929037395
  0
LINE
  5
3B7
100
AcDbEntity
  8
0
100
AcDbLine
 62
2
  6
CONTINUOUS
 10
12.4486864491
 20
2.390376795
 11
12.4486864491
 21
2.4912273132
  0
LINE
  5
3B8
100
AcDbEntity
  8
0
100
AcDbLine
 62
2
  6
CONTINUOUS
 10
12.4486864491
 20
2.515977327
 11
12.4486864491
 21
2.690379886
  0
LINE
  5
3B9
100
AcDbEntity
  8
0
100
AcDbLine
 62
2
  6
CONTINUOUS
 10
12.428686438
 20
2.3931794042
 11
12.428686438
 21
2.6875772768
  0
LINE
  5
3BA
100
AcDbEntity
  8
0
100
AcDbLine
 62
2
  6
CONTINUOUS
 10
12.4086864269
 20
2.3964643301
 11
12.4086864269
 21
2.5013773986
  0
LINE
  5
3BB
100
AcDbEntity
  8
0
100
AcDbLine
 62
2
  6
CONTINUOUS
 10
12.4086864269
 20
2.5325739971
 11
12.4086864269
 21
2.5537224311
  0
LINE
  5
3BC
100
AcDbEntity
  8
0
100
AcDbLine
 62
2
  6
CONTINUOUS
 10
12.4086864269
 20
2.5791473398
 11
12.4086864269
 21
2.6842923509
  0
LINE
  5
3BD
100
AcDbEntity
  8
0
100
AcDbLine
 62
2
  6
CONTINUOUS
 10
12.3886864158
 20
2.399749256
 11
12.3886864158
 21
2.4921022658
  0
LINE
  5
3BE
100
AcDbEntity
  8
0
100
AcDbLine
 62
2
  6
CONTINUOUS
 10
12.3886864158
 20
2.5895929958
 11
12.3886864158
 21
2.681007425
  0
LINE
  5
3BF
100
AcDbEntity
  8
0
100
AcDbLine
 62
2
  6
CONTINUOUS
 10
12.3686864047
 20
2.403451877
 11
12.3686864047
 21
2.4912273132
  0
LINE
  5
3C0
100
AcDbEntity
  8
0
100
AcDbLine
 62
2
  6
CONTINUOUS
 10
12.3686864047
 20
2.5920323691
 11
12.3686864047
 21
2.677304804
  0
LINE
  5
3C1
100
AcDbEntity
  8
0
100
AcDbLine
 62
2
  6
CONTINUOUS
 10
12.3486863936
 20
2.407324637
 11
12.3486863936
 21
2.4912273132
  0
LINE
  5
3C2
100
AcDbEntity
  8
0
100
AcDbLine
 62
2
  6
CONTINUOUS
 10
12.3486863936
 20
2.5920323691
 11
12.3486863936
 21
2.673432044
  0
LINE
  5
3C3
100
AcDbEntity
  8
0
100
AcDbLine
 62
2
  6
CONTINUOUS
 10
12.3286863825
 20
2.4113493968
 11
12.3286863825
 21
2.4912273132
  0
LINE
  5
3C4
100
AcDbEntity
  8
0
100
AcDbLine
 62
2
  6
CONTINUOUS
 10
12.3286863825
 20
2.515977327
 11
12.3286863825
 21
2.5333023366
  0
LINE
  5
3C5
100
AcDbEntity
  8
0
100
AcDbLine
 62
2
  6
CONTINUOUS
 10
12.3286863825
 20
2.5499573458
 11
12.3286863825
 21
2.5672823554
  0
LINE
  5
3C6
100
AcDbEntity
  8
0
100
AcDbLine
 62
2
  6
CONTINUOUS
 10
12.3286863825
 20
2.5920323691
 11
12.3286863825
 21
2.6694072842
  0
LINE
  5
3C7
100
AcDbEntity
  8
0
100
AcDbLine
 62
2
  6
CONTINUOUS
 10
12.3086863715
 20
2.4159005505
 11
12.3086863715
 21
2.4912273132
  0
LINE
  5
3C8
100
AcDbEntity
  8
0
100
AcDbLine
 62
2
  6
CONTINUOUS
 10
12.3086863715
 20
2.515977327
 11
12.3086863715
 21
2.5333023366
  0
LINE
  5
3C9
100
AcDbEntity
  8
0
100
AcDbLine
 62
2
  6
CONTINUOUS
 10
12.3086863715
 20
2.5499573458
 11
12.3086863715
 21
2.5672823554
  0
LINE
  5
3CA
100
AcDbEntity
  8
0
100
AcDbLine
 62
2
  6
CONTINUOUS
 10
12.3086863715
 20
2.5920323691
 11
12.3086863715
 21
2.6648561305
  0
LINE
  5
3CB
100
AcDbEntity
  8
0
100
AcDbLine
 62
2
  6
CONTINUOUS
 10
12.2886863604
 20
2.4204517041
 11
12.2886863604
 21
2.4912273132
  0
LINE
  5
3CC
100
AcDbEntity
  8
0
100
AcDbLine
 62
2
  6
CONTINUOUS
 10
12.2886863604
 20
2.5920323691
 11
12.2886863604
 21
2.6603049769
  0
LINE
  5
3CD
100
AcDbEntity
  8
0
100
AcDbLine
 62
2
  6
CONTINUOUS
 10
12.2686863493
 20
2.4257438218
 11
12.2686863493
 21
2.4912273132
  0
LINE
  5
3CE
100
AcDbEntity
  8
0
100
AcDbLine
 62
2
  6
CONTINUOUS
 10
12.2686863493
 20
2.5920323691
 11
12.2686863493
 21
2.6550128592
  0
LINE
  5
3CF
100
AcDbEntity
  8
0
100
AcDbLine
 62
2
  6
CONTINUOUS
 10
12.2486863382
 20
2.4310978667
 11
12.2486863382
 21
2.4912273132
  0
LINE
  5
3D0
100
AcDbEntity
  8
0
100
AcDbLine
 62
2
  6
CONTINUOUS
 10
12.2486863382
 20
2.5920323691
 11
12.2486863382
 21
2.6496588142
  0
LINE
  5
3D1
100
AcDbEntity
  8
0
100
AcDbLine
 62
2
  6
CONTINUOUS
 10
12.2286863271
 20
2.4372566433
 11
12.2286863271
 21
2.4912273132
  0
LINE
  5
3D2
100
AcDbEntity
  8
0
100
AcDbLine
 62
2
  6
CONTINUOUS
 10
12.2286863271
 20
2.515977327
 11
12.2286863271
 21
2.5672823554
  0
LINE
  5
3D3
100
AcDbEntity
  8
0
100
AcDbLine
 62
2
  6
CONTINUOUS
 10
12.2286863271
 20
2.5920323691
 11
12.2286863271
 21
2.6435000377
  0
LINE
  5
3D4
100
AcDbEntity
  8
0
100
AcDbLine
 62
2
  6
CONTINUOUS
 10
12.208686316
 20
2.443589771
 11
12.208686316
 21
2.4912273132
  0
LINE
  5
3D5
100
AcDbEntity
  8
0
100
AcDbLine
 62
2
  6
CONTINUOUS
 10
12.208686316
 20
2.515977327
 11
12.208686316
 21
2.5672823554
  0
LINE
  5
3D6
100
AcDbEntity
  8
0
100
AcDbLine
 62
2
  6
CONTINUOUS
 10
12.208686316
 20
2.5920323691
 11
12.208686316
 21
2.63716691
  0
LINE
  5
3D7
100
AcDbEntity
  8
0
100
AcDbLine
 62
2
  6
CONTINUOUS
 10
12.1886863049
 20
2.4510806436
 11
12.1886863049
 21
2.6296760373
  0
LINE
  5
3D8
100
AcDbEntity
  8
0
100
AcDbLine
 62
2
  6
CONTINUOUS
 10
12.1686862938
 20
2.4591016523
 11
12.1686862938
 21
2.6216550287
  0
LINE
  5
3D9
100
AcDbEntity
  8
0
100
AcDbLine
 62
2
  6
CONTINUOUS
 10
12.1486862827
 20
2.468314272
 11
12.1486862827
 21
2.612442409
  0
LINE
  5
3DA
100
AcDbEntity
  8
0
100
AcDbLine
 62
2
  6
CONTINUOUS
 10
12.1286862716
 20
2.4794932339
 11
12.1286862716
 21
2.601263447
  0
LINE
  5
3DB
100
AcDbEntity
  8
0
100
AcDbLine
 62
2
  6
CONTINUOUS
 10
12.1086862605
 20
2.4934150665
 11
12.1086862605
 21
2.5873416144
  0
LINE
  5
3DC
100
AcDbEntity
  8
0
100
AcDbLine
 62
2
  6
CONTINUOUS
 10
12.0886862494
 20
2.5144449553
 11
12.0886862494
 21
2.5663117257
  0
ENDBLK
  5
3DD
100
AcDbEntity
  8
0
  6
BYBLOCK
 62
0
100
AcDbBlockEnd
  0
BLOCK
  5
3DE
100
AcDbEntity
  8
SCHEME_DIMS
100
AcDbBlockBegin
 62
2
  6
CONTINUOUS
  2
*D0
 70
65
 10
0.0
 20
0.0
  3
*D0
  1

  0
TEXT
  5
3DF
100
AcDbEntity
  8
SCHEME_DIMS
100
AcDbText
 62
2
  6
CONTINUOUS
 10
4.2045046981
 20
4.5016031608
  7
STANDARD
 40
0.1
  1
%%c
 41
1.3333333333
 72
0
100
AcDbText
  0
TEXT
  5
3E0
100
AcDbEntity
  8
SCHEME_DIMS
100
AcDbText
 62
2
  6
CONTINUOUS
 10
4.3378380314
 20
4.5016031608
  7
STANDARD
 40
0.1
  1
50
 41
1.0
 72
0
100
AcDbText
  0
TEXT
  5
3E1
100
AcDbEntity
  8
SCHEME_DIMS
100
AcDbText
 62
2
  6
CONTINUOUS
 10
4.4378380314
 20
4.3516031608
  7
STANDARD
 40
0.1
  1
1.97
 41
1.0
 72
0
100
AcDbText
  0
TEXT
  5
3E2
100
AcDbEntity
  8
SCHEME_DIMS
100
AcDbText
 62
2
  6
CONTINUOUS
 10
4.3378380314
 20
4.3516031608
  7
STANDARD
 40
0.1
  1
[
 41
1.0
 72
0
100
AcDbText
  0
TEXT
  5
3E3
100
AcDbEntity
  8
SCHEME_DIMS
100
AcDbText
 62
2
  6
CONTINUOUS
 10
4.8378380314
 20
4.3516031608
  7
STANDARD
 40
0.1
  1
]
 41
1.0
 72
0
100
AcDbText
  0
LINE
  5
3E4
100
AcDbEntity
  8
SCHEME_DIMS
100
AcDbLine
 62
2
  6
CONTINUOUS
 10
3.821608602
 20
4.9158153636
 11
3.9545046981
 21
4.5516031608
  0
LINE
  5
3E5
100
AcDbEntity
  8
SCHEME_DIMS
100
AcDbLine
 62
2
  6
CONTINUOUS
 10
3.9545046981
 20
4.5516031608
 11
4.1045046981
 21
4.5516031608
  0
INSERT
  5
3E6
100
AcDbEntity
  8
SCHEME_DIMS
100
AcDbBlockReference
 62
2
  6
CONTINUOUS
  2
_FILLED
 10
3.821608602
 20
4.9158153636
 41
0.1875
 42
0.1875
 43
0.1875
 50
110.0463406347
  0
ENDBLK
  5
3E7
100
AcDbEntity
  8
0
  6
BYBLOCK
 62
0
100
AcDbBlockEnd
  0
BLOCK
  5
3E8
100
AcDbEntity
  8
SCHEME_DIMS
100
AcDbBlockBegin
 62
2
  6
CONTINUOUS
  2
*D1
 70
65
 10
0.0
 20
0.0
  3
*D1
  1

  0
TEXT
  5
3E9
100
AcDbEntity
  8
SCHEME_DIMS
100
AcDbText
 62
2
  6
CONTINUOUS
 10
6.997122231
 20
8.2740021481
  7
STANDARD
 40
0.1
  1
74,7
 41
1.0
 72
0
100
AcDbText
  0
TEXT
  5
3EA
100
AcDbEntity
  8
SCHEME_DIMS
100
AcDbText
 62
2
  6
CONTINUOUS
 10
7.097122231
 20
8.1240021481
  7
STANDARD
 40
0.1
  1
2.94
 41
1.0
 72
0
100
AcDbText
  0
TEXT
  5
3EB
100
AcDbEntity
  8
SCHEME_DIMS
100
AcDbText
 62
2
  6
CONTINUOUS
 10
6.997122231
 20
8.1240021481
  7
STANDARD
 40
0.1
  1
[
 41
1.0
 72
0
100
AcDbText
  0
TEXT
  5
3EC
100
AcDbEntity
  8
SCHEME_DIMS
100
AcDbText
 62
2
  6
CONTINUOUS
 10
7.497122231
 20
8.1240021481
  7
STANDARD
 40
0.1
  1
]
 41
1.0
 72
0
100
AcDbText
  0
LINE
  5
3ED
100
AcDbEntity
  8
SCHEME_DIMS
100
AcDbLine
 62
2
  6
CONTINUOUS
 10
8.7669728986
 20
6.0663229312
 11
8.7669728986
 21
8.4490021481
  0
LINE
  5
3EE
100
AcDbEntity
  8
SCHEME_DIMS
100
AcDbLine
 62
2
  6
CONTINUOUS
 10
5.8272715634
 20
5.9029371044
 11
5.8272715634
 21
8.4490021481
  0
LINE
  5
3EF
100
AcDbEntity
  8
SCHEME_DIMS
100
AcDbLine
 62
2
  6
CONTINUOUS
 10
8.7669728986
 20
8.3240021481
 11
7.697122231
 21
8.3240021481
  0
LINE
  5
3F0
100
AcDbEntity
  8
SCHEME_DIMS
100
AcDbLine
 62
2
  6
CONTINUOUS
 10
5.8272715634
 20
8.3240021481
 11
6.897122231
 21
8.3240021481
  0
INSERT
  5
3F1
100
AcDbEntity
  8
SCHEME_DIMS
100
AcDbBlockReference
 62
2
  6
CONTINUOUS
  2
_FILLED
 10
8.7669728986
 20
8.3240021481
 41
0.1875
 42
0.1875
 43
0.1875
  0
INSERT
  5
3F2
100
AcDbEntity
  8
SCHEME_DIMS
100
AcDbBlockReference
 62
2
  6
CONTINUOUS
  2
_FILLED
 10
5.8272715634
 20
8.3240021481
 41
0.1875
 42
0.1875
 43
0.1875
 50
180.0
  0
ENDBLK
  5
3F3
100
AcDbEntity
  8
0
  6
BYBLOCK
 62
0
100
AcDbBlockEnd
  0
BLOCK
  5
3F4
100
AcDbEntity
  8
SCHEME_DIMS
100
AcDbBlockBegin
 62
2
  6
CONTINUOUS
  2
*D2
 70
65
 10
0.0
 20
0.0
  3
*D2
  1

  0
TEXT
  5
3F5
100
AcDbEntity
  8
SCHEME_DIMS
100
AcDbText
 62
2
  6
CONTINUOUS
 10
6.7805867979
 20
7.8082624013
  7
STANDARD
 40
0.1
  1
63,7
 41
1.0
 72
0
100
AcDbText
  0
TEXT
  5
3F6
100
AcDbEntity
  8
SCHEME_DIMS
100
AcDbText
 62
2
  6
CONTINUOUS
 10
6.8805867979
 20
7.6582624013
  7
STANDARD
 40
0.1
  1
2.51
 41
1.0
 72
0
100
AcDbText
  0
TEXT
  5
3F7
100
AcDbEntity
  8
SCHEME_DIMS
100
AcDbText
 62
2
  6
CONTINUOUS
 10
6.7805867979
 20
7.6582624013
  7
STANDARD
 40
0.1
  1
[
 41
1.0
 72
0
100
AcDbText
  0
TEXT
  5
3F8
100
AcDbEntity
  8
SCHEME_DIMS
100
AcDbText
 62
2
  6
CONTINUOUS
 10
7.2805867979
 20
7.6582624013
  7
STANDARD
 40
0.1
  1
]
 41
1.0
 72
0
100
AcDbText
  0
LINE
  5
3F9
100
AcDbEntity
  8
SCHEME_DIMS
100
AcDbLine
 62
2
  6
CONTINUOUS
 10
8.3339020325
 20
6.4049056084
 11
8.3339020325
 21
7.9832624013
  0
LINE
  5
3FA
100
AcDbEntity
  8
SCHEME_DIMS
100
AcDbLine
 62
2
  6
CONTINUOUS
 10
5.8272715634
 20
5.9029371044
 11
5.8272715634
 21
7.9832624013
  0
LINE
  5
3FB
100
AcDbEntity
  8
SCHEME_DIMS
100
AcDbLine
 62
2
  6
CONTINUOUS
 10
8.3339020325
 20
7.8582624013
 11
7.4805867979
 21
7.8582624013
  0
LINE
  5
3FC
100
AcDbEntity
  8
SCHEME_DIMS
100
AcDbLine
 62
2
  6
CONTINUOUS
 10
5.8272715634
 20
7.8582624013
 11
6.6805867979
 21
7.8582624013
  0
INSERT
  5
3FD
100
AcDbEntity
  8
SCHEME_DIMS
100
AcDbBlockReference
 62
2
  6
CONTINUOUS
  2
_FILLED
 10
8.3339020325
 20
7.8582624013
 41
0.1875
 42
0.1875
 43
0.1875
  0
INSERT
  5
3FE
100
AcDbEntity
  8
SCHEME_DIMS
100
AcDbBlockReference
 62
2
  6
CONTINUOUS
  2
_FILLED
 10
5.8272715634
 20
7.8582624013
 41
0.1875
 42
0.1875
 43
0.1875
 50
180.0
  0
ENDBLK
  5
3FF
100
AcDbEntity
  8
0
  6
BYBLOCK
 62
0
100
AcDbBlockEnd
  0
BLOCK
  5
400
100
AcDbEntity
  8
SCHEME_DIMS
100
AcDbBlockBegin
 62
2
  6
CONTINUOUS
  2
*D3
 70
65
 10
0.0
 20
0.0
  3
*D3
  1

  0
TEXT
  5
401
100
AcDbEntity
  8
SCHEME_DIMS
100
AcDbText
 62
2
  6
CONTINUOUS
 10
6.3868860105
 20
7.3439170848
  7
STANDARD
 40
0.1
  1
43,7
 41
1.0
 72
0
100
AcDbText
  0
TEXT
  5
402
100
AcDbEntity
  8
SCHEME_DIMS
100
AcDbText
 62
2
  6
CONTINUOUS
 10
6.4868860105
 20
7.1939170848
  7
STANDARD
 40
0.1
  1
1.72
 41
1.0
 72
0
100
AcDbText
  0
TEXT
  5
403
100
AcDbEntity
  8
SCHEME_DIMS
100
AcDbText
 62
2
  6
CONTINUOUS
 10
6.3868860105
 20
7.1939170848
  7
STANDARD
 40
0.1
  1
[
 41
1.0
 72
0
100
AcDbText
  0
TEXT
  5
404
100
AcDbEntity
  8
SCHEME_DIMS
100
AcDbText
 62
2
  6
CONTINUOUS
 10
6.8868860105
 20
7.1939170848
  7
STANDARD
 40
0.1
  1
]
 41
1.0
 72
0
100
AcDbText
  0
LINE
  5
405
100
AcDbEntity
  8
SCHEME_DIMS
100
AcDbLine
 62
2
  6
CONTINUOUS
 10
7.5465004577
 20
6.8478189849
 11
7.5465004577
 21
7.5189170848
  0
LINE
  5
406
100
AcDbEntity
  8
SCHEME_DIMS
100
AcDbLine
 62
2
  6
CONTINUOUS
 10
5.8272715634
 20
5.9029371044
 11
5.8272715634
 21
7.5189170848
  0
LINE
  5
407
100
AcDbEntity
  8
SCHEME_DIMS
100
AcDbLine
 62
2
  6
CONTINUOUS
 10
7.5465004577
 20
7.3939170848
 11
7.0868860105
 21
7.3939170848
  0
LINE
  5
408
100
AcDbEntity
  8
SCHEME_DIMS
100
AcDbLine
 62
2
  6
CONTINUOUS
 10
5.8272715634
 20
7.3939170848
 11
6.2868860105
 21
7.3939170848
  0
INSERT
  5
409
100
AcDbEntity
  8
SCHEME_DIMS
100
AcDbBlockReference
 62
2
  6
CONTINUOUS
  2
_FILLED
 10
7.5465004577
 20
7.3939170848
 41
0.1875
 42
0.1875
 43
0.1875
  0
INSERT
  5
40A
100
AcDbEntity
  8
SCHEME_DIMS
100
AcDbBlockReference
 62
2
  6
CONTINUOUS
  2
_FILLED
 10
5.8272715634
 20
7.3939170848
 41
0.1875
 42
0.1875
 43
0.1875
 50
180.0
  0
ENDBLK
  5
40B
100
AcDbEntity
  8
0
  6
BYBLOCK
 62
0
100
AcDbBlockEnd
  0
BLOCK
  5
40C
100
AcDbEntity
  8
SCHEME_DIMS
100
AcDbBlockBegin
 62
2
  6
CONTINUOUS
  2
*D4
 70
65
 10
0.0
 20
0.0
  3
*D4
  1

  0
TEXT
  5
40D
100
AcDbEntity
  8
SCHEME_DIMS
100
AcDbText
 62
2
  6
CONTINUOUS
 10
4.3719885229
 20
6.9194678799
  7
STANDARD
 40
0.1
  1
%%c
 41
1.3333333333
 72
0
100
AcDbText
  0
TEXT
  5
40E
100
AcDbEntity
  8
SCHEME_DIMS
100
AcDbText
 62
2
  6
CONTINUOUS
 10
4.5053218562
 20
6.9194678799
  7
STANDARD
 40
0.1
  1
17,4
 41
1.0
 72
0
100
AcDbText
  0
TEXT
  5
40F
100
AcDbEntity
  8
SCHEME_DIMS
100
AcDbText
 62
2
  6
CONTINUOUS
 10
4.6053218562
 20
6.7694678799
  7
STANDARD
 40
0.1
  1
.69
 41
1.0
 72
0
100
AcDbText
  0
TEXT
  5
410
100
AcDbEntity
  8
SCHEME_DIMS
100
AcDbText
 62
2
  6
CONTINUOUS
 10
4.5053218562
 20
6.7694678799
  7
STANDARD
 40
0.1
  1
[
 41
1.0
 72
0
100
AcDbText
  0
TEXT
  5
411
100
AcDbEntity
  8
SCHEME_DIMS
100
AcDbText
 62
2
  6
CONTINUOUS
 10
4.9053218562
 20
6.7694678799
  7
STANDARD
 40
0.1
  1
]
 41
1.0
 72
0
100
AcDbText
  0
LINE
  5
412
100
AcDbEntity
  8
SCHEME_DIMS
100
AcDbLine
 62
2
  6
CONTINUOUS
 10
3.6557542413
 20
6.1369131135
 11
4.1374326901
 21
6.9694678799
  0
LINE
  5
413
100
AcDbEntity
  8
SCHEME_DIMS
100
AcDbLine
 62
2
  6
CONTINUOUS
 10
4.1374326901
 20
6.9694678799
 11
4.2719885229
 21
6.9694678799
  0
INSERT
  5
414
100
AcDbEntity
  8
SCHEME_DIMS
100
AcDbBlockReference
 62
2
  6
CONTINUOUS
  2
_FILLED
 10
3.6557542413
 20
6.1369131135
 41
0.1875
 42
0.1875
 43
0.1875
 50
239.9482716389
  0
ENDBLK
  5
415
100
AcDbEntity
  8
0
  6
BYBLOCK
 62
0
100
AcDbBlockEnd
  0
BLOCK
  5
416
100
AcDbEntity
  8
0
100
AcDbBlockBegin
  2
_FILLED
 70
64
 10
0.0
 20
0.0
  3
_FILLED
  1

  0
SOLID
  5
417
100
AcDbEntity
  8
0
  6
BYBLOCK
 62
0
100
AcDbTrace
 10
0.0
 20
0.0
 11
-1.0
 21
0.1666666667
 12
-1.0
 22
-0.1666666667
 13
-1.0
 23
-0.1666666667
  0
ENDBLK
  5
418
100
AcDbEntity
  8
0
  6
BYBLOCK
 62
0
100
AcDbBlockEnd
  0
ENDSEC
  0
SECTION
  2
ENTITIES
  0
TEXT
  5
419
100
AcDbEntity
  8
0
100
AcDbText
 62
2
  6
CONTINUOUS
 10
10.1487658475
 20
1.694867839
  7
STANDARD
 40
0.1
  1
%%uTHIRD ANGLE PROJECTION
 41
0.8
 72
1
 11
11.0287658475
 21
1.694867839
100
AcDbText
  0
TEXT
  5
41A
100
AcDbEntity
  8
0
100
AcDbText
 62
2
  6
CONTINUOUS
 10
12.88
 20
1.377
  7
STANDARD
 40
0.08
  1
DRAWING NO.
 41
1.0
 72
0
100
AcDbText
  0
TEXT
  5
41B
100
AcDbEntity
  8
0
100
AcDbText
 62
2
  6
CONTINUOUS
 10
10.044
 20
2.436432
  7
STANDARD
 40
0.08
  1
and is proprietary in general
 41
0.85
 72
1
 11
11.03
 21
2.436432
100
AcDbText
  0
TEXT
  5
41C
100
AcDbEntity
  8
0
100
AcDbText
 62
2
  6
CONTINUOUS
 10
10.078
 20
2.316432
  7
STANDARD
 40
0.08
  1
and in detail.  Its contents
 41
0.85
 72
1
 11
11.03
 21
2.316432
100
AcDbText
  0
TEXT
  5
41D
100
AcDbEntity
  8
0
100
AcDbText
 62
2
  6
CONTINUOUS
 10
10.214
 20
2.196432
  7
STANDARD
 40
0.08
  1
shall not be revealed to
 41
0.85
 72
1
 11
11.03
 21
2.196432
100
AcDbText
  0
TEXT
  5
41E
100
AcDbEntity
  8
0
100
AcDbText
 62
2
  6
CONTINUOUS
 10
10.248
 20
2.076432
  7
STANDARD
 40
0.08
  1
outside parties without
 41
0.85
 72
1
 11
11.03
 21
2.076432
100
AcDbText
  0
TEXT
  5
41F
100
AcDbEntity
  8
0
100
AcDbText
 62
2
  6
CONTINUOUS
 10
10.146
 20
1.956432
  7
STANDARD
 40
0.08
  1
written consent of BANNER.
 41
0.85
 72
1
 11
11.03
 21
1.956432
100
AcDbText
  0
TEXT
  5
420
100
AcDbEntity
  8
0
100
AcDbText
 62
2
  6
CONTINUOUS
 10
12.08
 20
2.117
  7
STANDARD
 40
0.1
  1
TITLE
 41
0.8
 72
0
100
AcDbText
  0
TEXT
  5
421
100
AcDbEntity
  8
0
100
AcDbText
 62
2
  6
CONTINUOUS
 10
12.08
 20
1.377
  7
STANDARD
 40
0.08
  1
SIZE
 41
1.0
 72
0
100
AcDbText
  0
TEXT
  5
422
100
AcDbEntity
  8
0
100
AcDbText
 62
2
  6
CONTINUOUS
 10
12.08
 20
1.007
  7
STANDARD
 40
0.08
  1
SCALE
 41
1.0
 72
0
100
AcDbText
  0
TEXT
  5
423
100
AcDbEntity
  8
0
100
AcDbText
 62
2
  6
CONTINUOUS
 10
12.46
 20
1.237
  7
STANDARD
 40
0.1
  1
B
 41
0.8
 72
1
 11
12.5
 21
1.237
100
AcDbText
  0
TEXT
  5
424
100
AcDbEntity
  8
0
100
AcDbText
 62
2
  6
CONTINUOUS
 10
10.112
 20
2.556432
  7
STANDARD
 40
0.08
  1
of BANNER ENGINEERING CORP.
 41
0.85
 72
1
 11
11.03
 21
2.556432
100
AcDbText
  0
TEXT
  5
425
100
AcDbEntity
  8
0
100
AcDbText
 62
2
  6
CONTINUOUS
 10
10.078
 20
2.676432
  7
STANDARD
 40
0.08
  1
This drawing is the property
 41
0.85
 72
1
 11
11.03
 21
2.676432
100
AcDbText
  0
TEXT
  5
426
100
AcDbEntity
  8
0
100
AcDbText
 62
2
  6
CONTINUOUS
 10
14.19
 20
2.3134
  7
STANDARD
 40
0.1
  1
MINNEAPOLIS, MN 55440
 41
0.8
 72
1
 11
15.03
 21
2.3134
100
AcDbText
  0
TEXT
  5
427
100
AcDbEntity
  8
0
100
AcDbText
 62
2
  6
CONTINUOUS
 10
14.255
 20
1.007
  7
STANDARD
 40
0.08
  1
SHEET
 41
1.0
 72
0
100
AcDbText
  0
TEXT
  5
428
100
AcDbEntity
  8
0
100
AcDbText
 62
2
  6
CONTINUOUS
 10
15.63
 20
1.377
  7
STANDARD
 40
0.08
  1
REV.
 41
1.0
 72
0
100
AcDbText
  0
TEXT
  5
429
100
AcDbEntity
  8
0
100
AcDbText
 62
2
  6
CONTINUOUS
 10
16.03
 20
0.765443
  7
STANDARD
 40
0.07
  1
PRO/E
 41
1.0
 72
2
 11
16.38
 21
0.765443
100
AcDbText
  0
TEXT
  5
42A
100
AcDbEntity
  8
0
100
AcDbText
 62
2
  6
CONTINUOUS
 10
13.7052
 20
2.631049
  7
STANDARD
 40
0.12
  1
BANNER ENGINEERING CORP.
 41
0.92
 72
1
 11
15.03
 21
2.631049
100
AcDbText
  0
TEXT
  5
42B
100
AcDbEntity
  8
0
100
AcDbText
 62
2
  6
CONTINUOUS
 10
14.51
 20
2.4724
  7
STANDARD
 40
0.1
  1
P.O. BOX 9414
 41
0.8
 72
1
 11
15.03
 21
2.4724
100
AcDbText
  0
TEXT
  5
42C
100
AcDbEntity
  8
0
100
AcDbText
 62
2
  6
CONTINUOUS
 10
9.445
 20
10.212
  7
STANDARD
 40
0.1
  1
4
 41
0.8
 72
1
 11
9.485
 21
10.212
100
AcDbText
  0
TEXT
  5
42D
100
AcDbEntity
  8
0
100
AcDbText
 62
2
  6
CONTINUOUS
 10
11.415
 20
10.212
  7
STANDARD
 40
0.1
  1
3
 41
0.8
 72
1
 11
11.455
 21
10.212
100
AcDbText
  0
TEXT
  5
42E
100
AcDbEntity
  8
0
100
AcDbText
 62
2
  6
CONTINUOUS
 10
13.385
 20
10.212
  7
STANDARD
 40
0.1
  1
2
 41
0.8
 72
1
 11
13.425
 21
10.212
100
AcDbText
  0
TEXT
  5
42F
100
AcDbEntity
  8
0
100
AcDbText
 62
2
  6
CONTINUOUS
 10
15.355
 20
10.212
  7
STANDARD
 40
0.1
  1
1
 41
0.8
 72
1
 11
15.395
 21
10.212
100
AcDbText
  0
TEXT
  5
430
100
AcDbEntity
  8
0
100
AcDbText
 62
2
  6
CONTINUOUS
 10
3.535
 20
10.212
  7
STANDARD
 40
0.1
  1
7
 41
0.8
 72
1
 11
3.575
 21
10.212
100
AcDbText
  0
TEXT
  5
431
100
AcDbEntity
  8
0
100
AcDbText
 62
2
  6
CONTINUOUS
 10
5.505
 20
10.212
  7
STANDARD
 40
0.1
  1
6
 41
0.8
 72
1
 11
5.545
 21
10.212
100
AcDbText
  0
TEXT
  5
432
100
AcDbEntity
  8
0
100
AcDbText
 62
2
  6
CONTINUOUS
 10
7.475
 20
10.212
  7
STANDARD
 40
0.1
  1
5
 41
0.8
 72
1
 11
7.515
 21
10.212
100
AcDbText
  0
TEXT
  5
433
100
AcDbEntity
  8
0
100
AcDbText
 62
2
  6
CONTINUOUS
 10
1.565
 20
10.212
  7
STANDARD
 40
0.1
  1
8
 41
0.8
 72
1
 11
1.605
 21
10.212
100
AcDbText
  0
TEXT
  5
434
100
AcDbEntity
  8
0
100
AcDbText
 62
2
  6
CONTINUOUS
 10
1.565
 20
0.687
  7
STANDARD
 40
0.1
  1
8
 41
0.8
 72
1
 11
1.605
 21
0.687
100
AcDbText
  0
TEXT
  5
435
100
AcDbEntity
  8
0
100
AcDbText
 62
2
  6
CONTINUOUS
 10
3.535
 20
0.687
  7
STANDARD
 40
0.1
  1
7
 41
0.8
 72
1
 11
3.575
 21
0.687
100
AcDbText
  0
TEXT
  5
436
100
AcDbEntity
  8
0
100
AcDbText
 62
2
  6
CONTINUOUS
 10
5.505
 20
0.687
  7
STANDARD
 40
0.1
  1
6
 41
0.8
 72
1
 11
5.545
 21
0.687
100
AcDbText
  0
TEXT
  5
437
100
AcDbEntity
  8
0
100
AcDbText
 62
2
  6
CONTINUOUS
 10
7.475
 20
0.687
  7
STANDARD
 40
0.1
  1
5
 41
0.8
 72
1
 11
7.515
 21
0.687
100
AcDbText
  0
TEXT
  5
438
100
AcDbEntity
  8
0
100
AcDbText
 62
2
  6
CONTINUOUS
 10
9.445
 20
0.687
  7
STANDARD
 40
0.1
  1
4
 41
0.8
 72
1
 11
9.485
 21
0.687
100
AcDbText
  0
TEXT
  5
439
100
AcDbEntity
  8
0
100
AcDbText
 62
2
  6
CONTINUOUS
 10
11.415
 20
0.687
  7
STANDARD
 40
0.1
  1
3
 41
0.8
 72
1
 11
11.455
 21
0.687
100
AcDbText
  0
TEXT
  5
43A
100
AcDbEntity
  8
0
100
AcDbText
 62
2
  6
CONTINUOUS
 10
13.385
 20
0.687
  7
STANDARD
 40
0.1
  1
2
 41
0.8
 72
1
 11
13.425
 21
0.687
100
AcDbText
  0
TEXT
  5
43B
100
AcDbEntity
  8
0
100
AcDbText
 62
2
  6
CONTINUOUS
 10
15.355
 20
0.687
  7
STANDARD
 40
0.1
  1
1
 41
0.8
 72
1
 11
15.395
 21
0.687
100
AcDbText
  0
TEXT
  5
43C
100
AcDbEntity
  8
0
100
AcDbText
 62
2
  6
CONTINUOUS
 10
0.44
 20
4.2995
  7
STANDARD
 40
0.1
  1
B
 41
0.8
 72
2
 11
0.52
 21
4.2995
100
AcDbText
  0
TEXT
  5
43D
100
AcDbEntity
  8
0
100
AcDbText
 62
2
  6
CONTINUOUS
 10
0.44
 20
1.9995
  7
STANDARD
 40
0.1
  1
A
 41
0.8
 72
2
 11
0.52
 21
1.9995
100
AcDbText
  0
TEXT
  5
43E
100
AcDbEntity
  8
0
100
AcDbText
 62
2
  6
CONTINUOUS
 10
0.44
 20
8.8995
  7
STANDARD
 40
0.1
  1
D
 41
0.8
 72
2
 11
0.52
 21
8.8995
100
AcDbText
  0
TEXT
  5
43F
100
AcDbEntity
  8
0
100
AcDbText
 62
2
  6
CONTINUOUS
 10
0.44
 20
6.5995
  7
STANDARD
 40
0.1
  1
C
 41
0.8
 72
2
 11
0.52
 21
6.5995
100
AcDbText
  0
TEXT
  5
440
100
AcDbEntity
  8
0
100
AcDbText
 62
2
  6
CONTINUOUS
 10
16.48
 20
8.8995
  7
STANDARD
 40
0.1
  1
D
 41
0.8
 72
0
100
AcDbText
  0
TEXT
  5
441
100
AcDbEntity
  8
0
100
AcDbText
 62
2
  6
CONTINUOUS
 10
16.48
 20
6.5995
  7
STANDARD
 40
0.1
  1
C
 41
0.8
 72
0
100
AcDbText
  0
TEXT
  5
442
100
AcDbEntity
  8
0
100
AcDbText
 62
2
  6
CONTINUOUS
 10
16.48
 20
4.2995
  7
STANDARD
 40
0.1
  1
B
 41
0.8
 72
0
100
AcDbText
  0
TEXT
  5
443
100
AcDbEntity
  8
0
100
AcDbText
 62
2
  6
CONTINUOUS
 10
16.48
 20
1.9995
  7
STANDARD
 40
0.1
  1
A
 41
0.8
 72
0
100
AcDbText
  0
MTEXT
  5
444
100
AcDbEntity
  8
0
100
AcDbMText
 62
2
  6
CONTINUOUS
  7
STANDARD
 71
1
 72
1
 10
14.819264911
 20
1.0627941725
 30
0.0
 11
1.0
 21
0.0
 31
0.0
  1
1 OF 1
 40
0.1
 41
0.6
  0
TEXT
  5
445
100
AcDbEntity
  8
0
100
AcDbText
 62
7
  6
CONTINUOUS
 10
13.8911999818
 20
1.2547321586
  7
STANDARD
 40
0.12
  1
144876
 41
1.0
 72
0
100
AcDbText
  0
TEXT
  5
446
100
AcDbEntity
  8
0
100
AcDbText
 62
2
  6
CONTINUOUS
 10
12.644264911
 20
0.9627941725
  7
STANDARD
 40
0.1
  1
1:1
 41
1.0
 72
0
100
AcDbText
  0
MTEXT
  5
447
100
AcDbEntity
  8
0
100
AcDbMText
 62
2
  6
CONTINUOUS
  7
STANDARD
 71
1
 72
1
 10
1.0597007627
 20
1.6202922458
 30
0.0
 11
1.0
 21
0.0
 31
0.0
  1
NOTES:\P1. ALL DIMENSIONS ARE MILLIMETERS [INCHES] UNLESS OTHERWISE NOTED.
 40
0.1
 41
6.6
  0
INSERT
  5
448
100
AcDbEntity
  8
0
100
AcDbBlockReference
 62
2
  6
CONTINUOUS
  2
BANNER_LOGO_TITLEBLOCK_BL0
 10
12.9046655056
 20
2.5403783448
  0
DIMENSION
  5
449
100
AcDbEntity
  8
SCHEME_DIMS
100
AcDbDimension
 62
2
  6
CONTINUOUS
  2
*D0
 10
3.821608602
 20
4.9158153636
 11
4.5711713648
 21
4.4766031608
 70
163
 42
50.0
  1
<>
  3
DIMSTYLE_1
100
AcDbDiametricDimension
 15
3.1468447208
 25
6.7650588453
  0
DIMENSION
  5
44A
100
AcDbEntity
  8
SCHEME_DIMS
100
AcDbDimension
 62
2
  6
CONTINUOUS
  2
*D1
 10
5.8272715634
 20
8.3240021481
 11
7.297122231
 21
8.2490021481
 70
160
 42
74.6684139143
  3
DIMSTYLE_2
100
AcDbAlignedDimension
 13
8.7669728986
 23
6.0663229312
 14
5.8272715634
 24
5.9029371044
 50
180.0
100
AcDbRotatedDimension
  0
DIMENSION
  5
44B
100
AcDbEntity
  8
SCHEME_DIMS
100
AcDbDimension
 62
2
  6
CONTINUOUS
  2
*D2
 10
5.8272715634
 20
7.8582624013
 11
7.0805867979
 21
7.7832624013
 70
160
 42
63.6684139143
  3
DIMSTYLE_2
100
AcDbAlignedDimension
 13
8.3339020325
 23
6.4049056084
 14
5.8272715634
 24
5.9029371044
 50
180.0
100
AcDbRotatedDimension
  0
DIMENSION
  5
44C
100
AcDbEntity
  8
SCHEME_DIMS
100
AcDbDimension
 62
2
  6
CONTINUOUS
  2
*D3
 10
5.8272715634
 20
7.3939170848
 11
6.6868860105
 21
7.3189170848
 70
160
 42
43.6684139143
  3
DIMSTYLE_2
100
AcDbAlignedDimension
 13
7.5465004577
 23
6.8478189849
 14
5.8272715634
 24
5.9029371044
 50
180.0
100
AcDbRotatedDimension
  0
DIMENSION
  5
44D
100
AcDbEntity
  8
SCHEME_DIMS
100
AcDbDimension
 62
2
  6
CONTINUOUS
  2
*D4
 10
3.6557542413
 20
6.1369131135
 11
4.6886551895
 21
6.8944678799
 70
163
 42
17.4
  1
<>
  3
DIMSTYLE_1
100
AcDbDiametricDimension
 15
3.3126990815
 25
5.5439610953
  0
LINE
  5
44E
100
AcDbEntity
  8
0
100
AcDbLine
 62
2
  6
CONTINUOUS
 10
16.38
 20
0.887
 11
12.03
 21
0.887
  0
LINE
  5
44F
100
AcDbEntity
  8
0
100
AcDbLine
 62
2
  6
CONTINUOUS
 10
16.38
 20
0.887
 11
16.38
 21
2.807
  0
LINE
  5
450
100
AcDbEntity
  8
0
100
AcDbLine
 62
2
  6
CONTINUOUS
 10
16.38
 20
2.807
 11
12.03
 21
2.807
  0
LINE
  5
451
100
AcDbEntity
  8
0
100
AcDbLine
 62
2
  6
CONTINUOUS
 10
12.03
 20
0.887
 11
12.03
 21
2.807
  0
TEXT
  5
452
100
AcDbEntity
  8
0
100
AcDbText
 62
7
  6
CONTINUOUS
 10
16.105
 20
1.267
  7
STANDARD
 40
0.1
  1
-
 41
1.0
 72
1
 11
16.155
 21
1.267
100
AcDbText
  0
MTEXT
  5
453
100
AcDbEntity
  8
0
100
AcDbMText
 62
7
  6
CONTINUOUS
  7
STANDARD
 71
2
 72
1
 10
14.205
 20
1.967
 30
0.0
 11
1.0
 21
0.0
 31
0.0
  1
K50A PUSH BUTTON QD\PWEB CAD DRAWINGS 2D/3D
 40
0.1
 41
2.2
  0
TEXT
  5
454
100
AcDbEntity
  8
NOTES
100
AcDbText
 62
2
  6
CONTINUOUS
 10
9.3702603887
 20
4.741814501
  7
STANDARD
 40
0.1
  1
M12 X 1
 41
1.0
 72
0
100
AcDbText
  0
LINE
  5
455
100
AcDbEntity
  8
NOTES
100
AcDbLine
 62
2
  6
CONTINUOUS
 10
8.5681452983
 20
5.6082260198
 11
9.1202603887
 21
4.791814501
  0
LINE
  5
456
100
AcDbEntity
  8
NOTES
100
AcDbLine
 62
2
  6
CONTINUOUS
 10
9.1202603887
 20
4.791814501
 11
9.3702603887
 21
4.791814501
  0
SOLID
  5
457
100
AcDbEntity
  8
NOTES
100
AcDbTrace
 62
2
  6
CONTINUOUS
 10
8.6990682508
 20
5.4704145798
 11
8.5681452983
 21
5.6082260198
 12
8.6472957322
 22
5.4354023487
 13
8.6472957322
 23
5.4354023487
  0
TEXT
  5
458
100
AcDbEntity
  8
NOTES
100
AcDbText
 62
2
  6
CONTINUOUS
 10
8.7287331704
 20
4.2663962917
  7
STANDARD
 40
0.1
  1
M30 X 1.5
 41
1.0
 72
0
100
AcDbText
  0
LINE
  5
459
100
AcDbEntity
  8
NOTES
100
AcDbLine
 62
2
  6
CONTINUOUS
 10
7.8802909429
 20
5.2990985218
 11
8.4787331704
 21
4.3163962917
  0
LINE
  5
45A
100
AcDbEntity
  8
NOTES
100
AcDbLine
 62
2
  6
CONTINUOUS
 10
8.4787331704
 20
4.3163962917
 11
8.7287331704
 21
4.3163962917
  0
SOLID
  5
45B
100
AcDbEntity
  8
NOTES
100
AcDbTrace
 62
2
  6
CONTINUOUS
 10
8.0045041491
 20
5.1552100514
 11
7.8802909429
 21
5.2990985218
 12
7.9511233908
 22
5.1227024424
 13
7.9511233908
 23
5.1227024424
  0
MTEXT
  5
45C
100
AcDbEntity
  8
NOTES
100
AcDbMText
 62
2
  6
CONTINUOUS
  7
STANDARD
 71
2
 72
1
 10
14.6823378165
 20
6.6442463707
 30
0.0
 11
1.0
 21
0.0
 31
0.0
  1
ISOMETRIC VIEW\P\H0.1;SCALE  1:1
 40
0.12
 41
1.68
  0
LINE
  5
45D
100
AcDbEntity
  8
0
100
AcDbLine
 62
2
  6
CONTINUOUS
 10
0.47
 20
5.586103
 11
0.47
 21
5.412897
  0
LINE
  5
45E
100
AcDbEntity
  8
0
100
AcDbLine
 62
2
  6
CONTINUOUS
 10
0.62
 20
10.112
 11
0.62
 21
0.887
  0
LINE
  5
45F
100
AcDbEntity
  8
0
100
AcDbLine
 62
2
  6
CONTINUOUS
 10
2.59
 20
0.887
 11
2.59
 21
0.637
  0
LINE
  5
460
100
AcDbEntity
  8
0
100
AcDbLine
 62
2
  6
CONTINUOUS
 10
2.59
 20
10.112
 11
2.59
 21
10.362
  0
LINE
  5
461
100
AcDbEntity
  8
0
100
AcDbLine
 62
2
  6
CONTINUOUS
 10
8.413397
 20
0.737
 11
8.586603
 21
0.737
  0
LINE
  5
462
100
AcDbEntity
  8
0
100
AcDbLine
 62
7
  6
CONTINUOUS
 10
11.1389508475
 20
1.425992839
 11
11.7453418475
 21
1.495385839
  0
LINE
  5
463
100
AcDbEntity
  8
0
100
AcDbLine
 62
2
  6
CONTINUOUS
 10
0.62
 20
0.887
 11
16.38
 21
0.887
  0
LINE
  5
464
100
AcDbEntity
  8
0
100
AcDbLine
 62
2
  6
CONTINUOUS
 10
12.03
 20
1.137
 11
16.38
 21
1.137
  0
LINE
  5
465
100
AcDbEntity
  8
0
100
AcDbLine
 62
7
  6
CONTINUOUS
 10
10.2121898475
 20
1.243294839
 11
10.4342808475
 21
1.243294839
  0
LINE
  5
466
100
AcDbEntity
  8
0
100
AcDbLine
 62
7
  6
CONTINUOUS
 10
10.4842808475
 20
1.243294839
 11
10.5842808475
 21
1.243294839
  0
LINE
  5
467
100
AcDbEntity
  8
0
100
AcDbLine
 62
7
  6
CONTINUOUS
 10
10.6342808475
 20
1.243294839
 11
10.8563718475
 21
1.243294839
  0
LINE
  5
468
100
AcDbEntity
  8
0
100
AcDbLine
 62
7
  6
CONTINUOUS
 10
11.0389508475
 20
1.243294839
 11
11.3171028475
 21
1.243294839
  0
LINE
  5
469
100
AcDbEntity
  8
0
100
AcDbLine
 62
7
  6
CONTINUOUS
 10
11.3671028475
 20
1.243294839
 11
11.5171888475
 21
1.243294839
  0
LINE
  5
46A
100
AcDbEntity
  8
0
100
AcDbLine
 62
7
  6
CONTINUOUS
 10
11.5671888475
 20
1.243294839
 11
11.8453418475
 21
1.243294839
  0
LINE
  5
46B
100
AcDbEntity
  8
0
100
AcDbLine
 62
7
  6
CONTINUOUS
 10
11.7453418475
 20
0.991203839
 11
11.1389508475
 21
1.060596839
  0
LINE
  5
46C
100
AcDbEntity
  8
0
100
AcDbLine
 62
2
  6
CONTINUOUS
 10
4.56
 20
0.887
 11
4.56
 21
0.637
  0
LINE
  5
46D
100
AcDbEntity
  8
0
100
AcDbLine
 62
2
  6
CONTINUOUS
 10
4.56
 20
10.112
 11
4.56
 21
10.362
  0
LINE
  5
46E
100
AcDbEntity
  8
0
100
AcDbLine
 62
2
  6
CONTINUOUS
 10
0.47
 20
5.412897
 11
0.62
 21
5.4995
  0
LINE
  5
46F
100
AcDbEntity
  8
0
100
AcDbLine
 62
2
  6
CONTINUOUS
 10
12.03
 20
1.507
 11
16.38
 21
1.507
  0
LINE
  5
470
100
AcDbEntity
  8
0
100
AcDbLine
 62
2
  6
CONTINUOUS
 10
10.03
 20
1.907
 11
12.03
 21
1.907
  0
LINE
  5
471
100
AcDbEntity
  8
0
100
AcDbLine
 62
2
  6
CONTINUOUS
 10
0.62
 20
5.4995
 11
0.47
 21
5.586103
  0
LINE
  5
472
100
AcDbEntity
  8
0
100
AcDbLine
 62
2
  6
CONTINUOUS
 10
12.03
 20
2.267
 11
16.38
 21
2.267
  0
LINE
  5
473
100
AcDbEntity
  8
0
100
AcDbLine
 62
2
  6
CONTINUOUS
 10
8.5
 20
10.112
 11
8.586603
 21
10.262
  0
LINE
  5
474
100
AcDbEntity
  8
0
100
AcDbLine
 62
2
  6
CONTINUOUS
 10
16.38
 20
2.807
 11
10.03
 21
2.807
  0
LINE
  5
475
100
AcDbEntity
  8
0
100
AcDbLine
 62
2
  6
CONTINUOUS
 10
0.62
 20
3.1995
 11
0.37
 21
3.1995
  0
LINE
  5
476
100
AcDbEntity
  8
0
100
AcDbLine
 62
2
  6
CONTINUOUS
 10
16.38
 20
3.1995
 11
16.63
 21
3.1995
  0
LINE
  5
477
100
AcDbEntity
  8
0
100
AcDbLine
 62
2
  6
CONTINUOUS
 10
8.586603
 20
0.737
 11
8.5
 21
0.887
  0
LINE
  5
478
100
AcDbEntity
  8
0
100
AcDbLine
 62
2
  6
CONTINUOUS
 10
6.53
 20
0.887
 11
6.53
 21
0.637
  0
LINE
  5
479
100
AcDbEntity
  8
0
100
AcDbLine
 62
2
  6
CONTINUOUS
 10
6.53
 20
10.112
 11
6.53
 21
10.362
  0
LINE
  5
47A
100
AcDbEntity
  8
0
100
AcDbLine
 62
2
  6
CONTINUOUS
 10
8.5
 20
0.887
 11
8.5
 21
0.637
  0
LINE
  5
47B
100
AcDbEntity
  8
0
100
AcDbLine
 62
2
  6
CONTINUOUS
 10
8.5
 20
10.112
 11
8.5
 21
10.362
  0
LINE
  5
47C
100
AcDbEntity
  8
0
100
AcDbLine
 62
2
  6
CONTINUOUS
 10
0.62
 20
5.4995
 11
0.37
 21
5.4995
  0
LINE
  5
47D
100
AcDbEntity
  8
0
100
AcDbLine
 62
2
  6
CONTINUOUS
 10
16.38
 20
5.4995
 11
16.63
 21
5.4995
  0
LINE
  5
47E
100
AcDbEntity
  8
0
100
AcDbLine
 62
2
  6
CONTINUOUS
 10
10.03
 20
2.807
 11
10.03
 21
0.887
  0
LINE
  5
47F
100
AcDbEntity
  8
0
100
AcDbLine
 62
2
  6
CONTINUOUS
 10
10.47
 20
0.887
 11
10.47
 21
0.637
  0
LINE
  5
480
100
AcDbEntity
  8
0
100
AcDbLine
 62
2
  6
CONTINUOUS
 10
10.47
 20
10.112
 11
10.47
 21
10.362
  0
LINE
  5
481
100
AcDbEntity
  8
0
100
AcDbLine
 62
7
  6
CONTINUOUS
 10
10.5342808475
 20
1.143294839
 11
10.5342808475
 21
0.921203839
  0
LINE
  5
482
100
AcDbEntity
  8
0
100
AcDbLine
 62
7
  6
CONTINUOUS
 10
10.5342808475
 20
1.193294839
 11
10.5342808475
 21
1.293294839
  0
LINE
  5
483
100
AcDbEntity
  8
0
100
AcDbLine
 62
7
  6
CONTINUOUS
 10
10.5342808475
 20
1.343294839
 11
10.5342808475
 21
1.565385839
  0
LINE
  5
484
100
AcDbEntity
  8
0
100
AcDbLine
 62
2
  6
CONTINUOUS
 10
8.5
 20
0.887
 11
8.413397
 21
0.737
  0
LINE
  5
485
100
AcDbEntity
  8
0
100
AcDbLine
 62
2
  6
CONTINUOUS
 10
0.62
 20
7.7995
 11
0.37
 21
7.7995
  0
LINE
  5
486
100
AcDbEntity
  8
0
100
AcDbLine
 62
2
  6
CONTINUOUS
 10
16.38
 20
7.7995
 11
16.63
 21
7.7995
  0
LINE
  5
487
100
AcDbEntity
  8
0
100
AcDbLine
 62
2
  6
CONTINUOUS
 10
8.413397
 20
10.262
 11
8.5
 21
10.112
  0
LINE
  5
488
100
AcDbEntity
  8
0
100
AcDbLine
 62
7
  6
CONTINUOUS
 10
11.1389508475
 20
1.060596839
 11
11.1389508475
 21
1.425992839
  0
LINE
  5
489
100
AcDbEntity
  8
0
100
AcDbLine
 62
7
  6
CONTINUOUS
 10
11.7453418475
 20
1.495385839
 11
11.7453418475
 21
0.991203839
  0
LINE
  5
48A
100
AcDbEntity
  8
0
100
AcDbLine
 62
1
  6
CONTINUOUS
 10
12.03
 20
2.807
 11
12.03
 21
0.887
  0
LINE
  5
48B
100
AcDbEntity
  8
0
100
AcDbLine
 62
2
  6
CONTINUOUS
 10
12.44
 20
0.887
 11
12.44
 21
0.637
  0
LINE
  5
48C
100
AcDbEntity
  8
0
100
AcDbLine
 62
2
  6
CONTINUOUS
 10
12.44
 20
10.112
 11
12.44
 21
10.362
  0
LINE
  5
48D
100
AcDbEntity
  8
0
100
AcDbLine
 62
2
  6
CONTINUOUS
 10
16.53
 20
5.586103
 11
16.38
 21
5.4995
  0
LINE
  5
48E
100
AcDbEntity
  8
0
100
AcDbLine
 62
2
  6
CONTINUOUS
 10
16.38
 20
5.4995
 11
16.53
 21
5.412897
  0
LINE
  5
48F
100
AcDbEntity
  8
0
100
AcDbLine
 62
2
  6
CONTINUOUS
 10
12.83
 20
1.507
 11
12.83
 21
1.137
  0
LINE
  5
490
100
AcDbEntity
  8
0
100
AcDbLine
 62
2
  6
CONTINUOUS
 10
16.38
 20
10.112
 11
0.62
 21
10.112
  0
LINE
  5
491
100
AcDbEntity
  8
0
100
AcDbLine
 62
2
  6
CONTINUOUS
 10
8.586603
 20
10.262
 11
8.413397
 21
10.262
  0
LINE
  5
492
100
AcDbEntity
  8
0
100
AcDbLine
 62
2
  6
CONTINUOUS
 10
14.205
 20
1.137
 11
14.205
 21
0.887
  0
LINE
  5
493
100
AcDbEntity
  8
0
100
AcDbLine
 62
2
  6
CONTINUOUS
 10
14.41
 20
0.887
 11
14.41
 21
0.637
  0
LINE
  5
494
100
AcDbEntity
  8
0
100
AcDbLine
 62
2
  6
CONTINUOUS
 10
14.41
 20
10.112
 11
14.41
 21
10.362
  0
LINE
  5
495
100
AcDbEntity
  8
0
100
AcDbLine
 62
2
  6
CONTINUOUS
 10
15.58
 20
1.507
 11
15.58
 21
1.137
  0
LINE
  5
496
100
AcDbEntity
  8
0
100
AcDbLine
 62
2
  6
CONTINUOUS
 10
16.38
 20
0.887
 11
16.38
 21
10.112
  0
LINE
  5
497
100
AcDbEntity
  8
0
100
AcDbLine
 62
2
  6
CONTINUOUS
 10
16.53
 20
5.412897
 11
16.53
 21
5.586103
  0
LINE
  5
498
100
AcDbEntity
  8
02___PRT_ALL_AXES
100
AcDbLine
 62
7
  6
CONTINUOUS
 10
5.9097125083
 20
6.1313268628
 11
5.9097125083
 21
5.5495473461
  0
LINE
  5
499
100
AcDbEntity
  8
02___PRT_ALL_AXES
100
AcDbLine
 62
7
  6
CONTINUOUS
 10
6.0343581776
 20
6.1829567895
 11
6.0343581776
 21
5.4979174194
  0
LINE
  5
49A
100
AcDbEntity
  8
02___PRT_ALL_AXES
100
AcDbLine
 62
7
  6
CONTINUOUS
 10
6.0989251067
 20
6.1829567895
 11
6.0989251067
 21
5.4979174194
  0
LINE
  5
49B
100
AcDbEntity
  8
02___PRT_ALL_AXES
100
AcDbLine
 62
7
  6
CONTINUOUS
 10
7.034689434
 20
4.8561851359
 11
7.5071303789
 21
4.8561851359
  0
LINE
  5
49C
100
AcDbEntity
  8
02___PRT_ALL_AXES
100
AcDbLine
 62
7
  6
CONTINUOUS
 10
5.9097125083
 20
6.1313268628
 11
6.0343581776
 21
6.1829567895
  0
LINE
  5
49D
100
AcDbEntity
  8
02___PRT_ALL_AXES
100
AcDbLine
 62
7
  6
CONTINUOUS
 10
5.9097125083
 20
5.5495473461
 11
6.0343581776
 21
5.4979174194
  0
LINE
  5
49E
100
AcDbEntity
  8
0
100
AcDbLine
 62
7
  6
CONTINUOUS
 10
7.5858705364
 20
5.2990985218
 11
7.6682111334
 21
5.2990985218
  0
LINE
  5
49F
100
AcDbEntity
  8
02___PRT_ALL_AXES
100
AcDbLine
 62
7
  6
CONTINUOUS
 10
7.6682111334
 20
5.2990985218
 11
8.2480036722
 21
5.2990985218
  0
LINE
  5
4A0
100
AcDbEntity
  8
0
100
AcDbLine
 62
7
  6
CONTINUOUS
 10
8.2480036722
 20
5.2990985218
 11
8.2945319537
 21
5.2990985218
  0
LINE
  5
4A1
100
AcDbEntity
  8
02___PRT_ALL_AXES
100
AcDbLine
 62
7
  6
CONTINUOUS
 10
6.0343581776
 20
5.4979174194
 11
6.0989251067
 21
5.4979174194
  0
LINE
  5
4A2
100
AcDbEntity
  8
02___PRT_ALL_AXES
100
AcDbLine
 62
7
  6
CONTINUOUS
 10
7.034689434
 20
6.8246890729
 11
7.034689434
 21
4.8561851359
  0
LINE
  5
4A3
100
AcDbEntity
  8
02___PRT_ALL_AXES
100
AcDbLine
 62
7
  6
CONTINUOUS
 10
8.3490825752
 20
5.5961654509
 11
8.3732721112
 21
5.5961654509
  0
LINE
  5
4A4
100
AcDbEntity
  8
02___PRT_ALL_AXES
100
AcDbLine
 62
7
  6
CONTINUOUS
 10
8.4087051821
 20
5.5961654509
 11
8.41264219
 21
5.5961654509
  0
LINE
  5
4A5
100
AcDbEntity
  8
02___PRT_ALL_AXES
100
AcDbLine
 62
7
  6
CONTINUOUS
 10
8.4480752608
 20
5.5961654509
 11
8.4520122687
 21
5.5961654509
  0
LINE
  5
4A6
100
AcDbEntity
  8
02___PRT_ALL_AXES
100
AcDbLine
 62
7
  6
CONTINUOUS
 10
8.4874453396
 20
5.5961654509
 11
8.4913823474
 21
5.5961654509
  0
LINE
  5
4A7
100
AcDbEntity
  8
02___PRT_ALL_AXES
100
AcDbLine
 62
7
  6
CONTINUOUS
 10
8.5268154183
 20
5.5961654509
 11
8.5307524262
 21
5.5961654509
  0
LINE
  5
4A8
100
AcDbEntity
  8
02___PRT_ALL_AXES
100
AcDbLine
 62
7
  6
CONTINUOUS
 10
8.566185497
 20
5.5961654509
 11
8.5701225049
 21
5.5961654509
  0
LINE
  5
4A9
100
AcDbEntity
  8
02___PRT_ALL_AXES
100
AcDbLine
 62
7
  6
CONTINUOUS
 10
8.6055555758
 20
5.5961654509
 11
8.6094925837
 21
5.5961654509
  0
LINE
  5
4AA
100
AcDbEntity
  8
02___PRT_ALL_AXES
100
AcDbLine
 62
7
  6
CONTINUOUS
 10
8.6449256545
 20
5.5961654509
 11
8.6488626624
 21
5.5961654509
  0
LINE
  5
4AB
100
AcDbEntity
  8
02___PRT_ALL_AXES
100
AcDbLine
 62
7
  6
CONTINUOUS
 10
8.6842957333
 20
5.5961654509
 11
8.6882327411
 21
5.5961654509
  0
LINE
  5
4AC
100
AcDbEntity
  8
0
100
AcDbLine
 62
7
  6
CONTINUOUS
 10
8.7276028199
 20
5.636696947
 11
8.7669728986
 21
5.636696947
  0
LINE
  5
4AD
100
AcDbEntity
  8
02___PRT_ALL_AXES
100
AcDbLine
 62
7
  6
CENTER
 10
8.8672862804
 20
5.8404371044
 11
5.7158736222
 21
5.8404371044
  0
LINE
  5
4AE
100
AcDbEntity
  8
0
100
AcDbLine
 62
9
  6
CONTINUOUS
 10
7.5071303789
 20
4.8561851359
 11
7.5071303789
 21
6.8246890729
  0
LINE
  5
4AF
100
AcDbEntity
  8
0
100
AcDbLine
 62
7
  6
CONTINUOUS
 10
7.5465004577
 20
4.8955552147
 11
7.5465004577
 21
6.7853189942
  0
LINE
  5
4B0
100
AcDbEntity
  8
0
100
AcDbLine
 62
7
  6
CONTINUOUS
 10
8.7276028199
 20
6.0441772619
 11
8.7669728986
 21
6.0441772619
  0
LINE
  5
4B1
100
AcDbEntity
  8
02___PRT_ALL_AXES
100
AcDbLine
 62
7
  6
CONTINUOUS
 10
8.3490825752
 20
6.084708758
 11
8.3535870718
 21
6.084708758
  0
LINE
  5
4B2
100
AcDbEntity
  8
02___PRT_ALL_AXES
100
AcDbLine
 62
7
  6
CONTINUOUS
 10
8.3890201427
 20
6.084708758
 11
8.3929571506
 21
6.084708758
  0
LINE
  5
4B3
100
AcDbEntity
  8
02___PRT_ALL_AXES
100
AcDbLine
 62
7
  6
CONTINUOUS
 10
8.4283902215
 20
6.084708758
 11
8.4323272293
 21
6.084708758
  0
LINE
  5
4B4
100
AcDbEntity
  8
02___PRT_ALL_AXES
100
AcDbLine
 62
7
  6
CONTINUOUS
 10
8.4677603002
 20
6.084708758
 11
8.4716973081
 21
6.084708758
  0
LINE
  5
4B5
100
AcDbEntity
  8
02___PRT_ALL_AXES
100
AcDbLine
 62
7
  6
CONTINUOUS
 10
8.5071303789
 20
6.084708758
 11
8.5110673868
 21
6.084708758
  0
LINE
  5
4B6
100
AcDbEntity
  8
02___PRT_ALL_AXES
100
AcDbLine
 62
7
  6
CONTINUOUS
 10
8.5465004577
 20
6.084708758
 11
8.5504374655
 21
6.084708758
  0
LINE
  5
4B7
100
AcDbEntity
  8
02___PRT_ALL_AXES
100
AcDbLine
 62
7
  6
CONTINUOUS
 10
8.5858705364
 20
6.084708758
 11
8.5898075443
 21
6.084708758
  0
LINE
  5
4B8
100
AcDbEntity
  8
02___PRT_ALL_AXES
100
AcDbLine
 62
7
  6
CONTINUOUS
 10
8.6252406152
 20
6.084708758
 11
8.629177623
 21
6.084708758
  0
LINE
  5
4B9
100
AcDbEntity
  8
02___PRT_ALL_AXES
100
AcDbLine
 62
7
  6
CONTINUOUS
 10
8.6646106939
 20
6.084708758
 11
8.6685477018
 21
6.084708758
  0
LWPOLYLINE
  5
4BA
100
AcDbEntity
  8
02___PRT_ALL_AXES
100
AcDbPolyline
 62
7
  6
CONTINUOUS
 90
10
 70
0
 10
7.6537774406
 20
5.9250628174
 10
7.6566497071
 20
5.7572791261
 10
7.6580856559
 20
5.6753266793
 10
7.6595265931
 20
5.5969581334
 10
7.6609858152
 20
5.5234232469
 10
7.6624471645
 20
5.4574245807
 10
7.6638919125
 20
5.4012538836
 10
7.6653209898
 20
5.3558771304
 10
7.6667613083
 20
5.3214586231
 10
7.6682111334
 20
5.2990985218
  0
LINE
  5
4BB
100
AcDbEntity
  8
0
100
AcDbLine
 62
9
  6
CONTINUOUS
 10
7.5858705364
 20
6.3817756871
 11
7.5858705364
 21
5.2990985218
  0
LINE
  5
4BC
100
AcDbEntity
  8
0
100
AcDbLine
 62
7
  6
CONTINUOUS
 10
8.6994758484
 20
6.0771545734
 11
8.6996576577
 21
6.0772209033
  0
LINE
  5
4BD
100
AcDbEntity
  8
02___PRT_ALL_AXES
100
AcDbLine
 62
7
  6
CONTINUOUS
 10
6.0343581776
 20
6.1829567895
 11
6.0989251067
 21
6.1829567895
  0
LINE
  5
4BE
100
AcDbEntity
  8
0
100
AcDbLine
 62
7
  6
CONTINUOUS
 10
8.7119455786
 20
5.6162031052
 11
8.7121374716
 21
5.6161331223
  0
LWPOLYLINE
  5
4BF
100
AcDbEntity
  8
02___PRT_ALL_AXES
100
AcDbPolyline
 62
7
  6
CONTINUOUS
 90
9
 70
0
 10
7.6422413377
 20
6.3817756871
 10
7.6436754576
 20
6.3597250572
 10
7.6451073205
 20
6.3256707259
 10
7.6465412925
 20
6.2803020836
 10
7.6479854082
 20
6.2242879032
 10
7.6494467021
 20
6.1584074836
 10
7.6509060194
 20
6.0849603146
 10
7.6523471463
 20
6.0066476388
 10
7.6537774406
 20
5.9250628174
  0
LWPOLYLINE
  5
4C0
100
AcDbEntity
  8
02___PRT_ALL_AXES
100
AcDbPolyline
 62
7
  6
CONTINUOUS
 90
9
 70
0
 10
7.7165076092
 20
5.2990985218
 10
7.7150577841
 20
5.3214586231
 10
7.7136174656
 20
5.3558771304
 10
7.7121883883
 20
5.4012538836
 10
7.7107436403
 20
5.4574245807
 10
7.709282291
 20
5.5234232469
 10
7.7078230688
 20
5.5969581334
 10
7.7063821317
 20
5.6753266793
 10
7.7049461829
 20
5.7572791261
  0
LWPOLYLINE
  5
4C1
100
AcDbEntity
  8
02___PRT_ALL_AXES
100
AcDbPolyline
 62
7
  6
CONTINUOUS
 90
9
 70
0
 10
7.7012964558
 20
6.3817756871
 10
7.7027571294
 20
6.3592009689
 10
7.7042133318
 20
6.3242479966
 10
7.7056515959
 20
6.2783443479
 10
7.7070849395
 20
6.2224145138
 10
7.7085206965
 20
6.1575026508
 10
7.7099498172
 20
6.0855550946
 10
7.7113807054
 20
6.0078526339
 10
7.712822025
 20
5.9256731671
  0
LWPOLYLINE
  5
4C2
100
AcDbEntity
  8
02___PRT_ALL_AXES
100
AcDbPolyline
 62
7
  6
CONTINUOUS
 90
9
 70
0
 10
7.7755627273
 20
5.2990985218
 10
7.774102075
 20
5.3216728154
 10
7.7726458155
 20
5.3566272175
 10
7.7712074858
 20
5.4025334709
 10
7.7697739709
 20
5.4584712208
 10
7.7683378337
 20
5.5234028765
 10
7.7669087741
 20
5.595350201
 10
7.765478044
 20
5.6730458009
 10
7.7640367826
 20
5.7552227943
  0
LWPOLYLINE
  5
4C3
100
AcDbEntity
  8
02___PRT_ALL_AXES
100
AcDbPolyline
 62
7
  6
CONTINUOUS
 90
7
 70
0
 10
7.6867303974
 20
5.2990985218
 10
7.6852574815
 20
5.3410015935
 10
7.6837845657
 20
5.3951449341
 10
7.6823116498
 20
5.4602015874
 10
7.680838734
 20
5.5345771315
 10
7.6793658181
 20
5.616448755
 10
7.6778929023
 20
5.7038099314
  0
LWPOLYLINE
  5
4C4
100
AcDbEntity
  8
02___PRT_ALL_AXES
100
AcDbPolyline
 62
7
  6
CONTINUOUS
 90
7
 70
0
 10
7.6941122871
 20
5.2990985218
 10
7.6926393713
 20
5.3410015935
 10
7.6911664554
 20
5.3951449341
 10
7.6896935396
 20
5.4602015874
 10
7.6882206238
 20
5.5345771315
 10
7.6867477079
 20
5.616448755
 10
7.6852747921
 20
5.7038099314
  0
LWPOLYLINE
  5
4C5
100
AcDbEntity
  8
02___PRT_ALL_AXES
100
AcDbPolyline
 62
7
  6
CONTINUOUS
 90
7
 70
0
 10
7.7457855155
 20
5.2990985218
 10
7.7443125996
 20
5.3410015935
 10
7.7428396838
 20
5.3951449341
 10
7.7413667679
 20
5.4602015874
 10
7.7398938521
 20
5.5345771315
 10
7.7384209363
 20
5.616448755
 10
7.7369480204
 20
5.7038099314
  0
LWPOLYLINE
  5
4C6
100
AcDbEntity
  8
02___PRT_ALL_AXES
100
AcDbPolyline
 62
7
  6
CONTINUOUS
 90
5
 70
0
 10
7.7531674052
 20
5.2990985218
 10
7.7516944894
 20
5.3410015935
 10
7.7502215736
 20
5.3951449341
 10
7.7487486577
 20
5.4602015874
 10
7.7472757419
 20
5.5345771315
  0
LWPOLYLINE
  5
4C7
100
AcDbEntity
  8
02___PRT_ALL_AXES
100
AcDbPolyline
 62
7
  6
CONTINUOUS
 90
3
 70
0
 10
7.7472757419
 20
5.5345771315
 10
7.745802826
 20
5.616448755
 10
7.7443299102
 20
5.7038099314
  0
LWPOLYLINE
  5
4C8
100
AcDbEntity
  8
02___PRT_ALL_AXES
100
AcDbPolyline
 62
7
  6
CONTINUOUS
 90
9
 70
0
 10
7.7747844141
 20
5.7558607969
 10
7.7762149619
 20
5.6742600665
 10
7.7776562539
 20
5.5959367011
 10
7.7791157227
 20
5.5224802569
 10
7.7805770877
 20
5.4565952047
 10
7.782021251
 20
5.400577913
 10
7.7834551857
 20
5.3552090747
 10
7.7848868538
 20
5.3211569351
 10
7.7863213696
 20
5.2990985218
  0
LWPOLYLINE
  5
4C9
100
AcDbEntity
  8
02___PRT_ALL_AXES
100
AcDbPolyline
 62
7
  6
CONTINUOUS
 90
10
 70
0
 10
7.7049461829
 20
5.7572791261
 10
7.7020739164
 20
5.9250628174
 10
7.7006436221
 20
6.0066476388
 10
7.6992024952
 20
6.0849603146
 10
7.6977431779
 20
6.1584074836
 10
7.6962818839
 20
6.2242879032
 10
7.6948377683
 20
6.2803020836
 10
7.6934037963
 20
6.3256707259
 10
7.6919719333
 20
6.3597250572
 10
7.6905378134
 20
6.3817756871
  0
LWPOLYLINE
  5
4CA
100
AcDbEntity
  8
02___PRT_ALL_AXES
100
AcDbPolyline
 62
7
  6
CONTINUOUS
 90
10
 70
0
 10
7.712822025
 20
5.9256731671
 10
7.7157403068
 20
5.7552227943
 10
7.7171815683
 20
5.6730458009
 10
7.7186122983
 20
5.595350201
 10
7.7200413579
 20
5.5234028765
 10
7.7214774952
 20
5.4584712208
 10
7.7229110101
 20
5.4025334709
 10
7.7243493397
 20
5.3566272175
 10
7.7258055993
 20
5.3216728154
 10
7.7272662515
 20
5.2990985218
  0
LWPOLYLINE
  5
4CB
100
AcDbEntity
  8
02___PRT_ALL_AXES
100
AcDbPolyline
 62
7
  6
CONTINUOUS
 90
10
 70
0
 10
7.7640367826
 20
5.7552227943
 10
7.7611185008
 20
5.9256731671
 10
7.7596771812
 20
6.0078526339
 10
7.7582462929
 20
6.0855550946
 10
7.7568171723
 20
6.1575026508
 10
7.7553814153
 20
6.2224145138
 10
7.7539480716
 20
6.2783443479
 10
7.7525098076
 20
6.3242479966
 10
7.7510536052
 20
6.3592009689
 10
7.7495929315
 20
6.3817756871
  0
LWPOLYLINE
  5
4CC
100
AcDbEntity
  8
02___PRT_ALL_AXES
100
AcDbPolyline
 62
7
  6
CONTINUOUS
 90
7
 70
0
 10
7.6734741548
 20
5.9770642775
 10
7.6720012389
 20
6.0644254538
 10
7.6705283231
 20
6.1462970774
 10
7.6690554072
 20
6.2206726214
 10
7.6675824914
 20
6.2857292747
 10
7.6661095755
 20
6.3398726153
 10
7.6646366597
 20
6.3817756871
  0
LWPOLYLINE
  5
4CD
100
AcDbEntity
  8
02___PRT_ALL_AXES
100
AcDbPolyline
 62
7
  6
CONTINUOUS
 90
7
 70
0
 10
7.6808560445
 20
5.9770642775
 10
7.6793831287
 20
6.0644254538
 10
7.6779102128
 20
6.1462970774
 10
7.676437297
 20
6.2206726214
 10
7.6749643812
 20
6.2857292747
 10
7.6734914653
 20
6.3398726153
 10
7.6720185495
 20
6.3817756871
  0
LWPOLYLINE
  5
4CE
100
AcDbEntity
  8
02___PRT_ALL_AXES
100
AcDbPolyline
 62
7
  6
CONTINUOUS
 90
7
 70
0
 10
7.7325292729
 20
5.9770642775
 10
7.731056357
 20
6.0644254538
 10
7.7295834412
 20
6.1462970774
 10
7.7281105253
 20
6.2206726214
 10
7.7266376095
 20
6.2857292747
 10
7.7251646937
 20
6.3398726153
 10
7.7236917778
 20
6.3817756871
  0
LWPOLYLINE
  5
4CF
100
AcDbEntity
  8
02___PRT_ALL_AXES
100
AcDbPolyline
 62
7
  6
CONTINUOUS
 90
7
 70
0
 10
7.7399111626
 20
5.9770642775
 10
7.7384382468
 20
6.0644254538
 10
7.736965331
 20
6.1462970774
 10
7.7354924151
 20
6.2206726214
 10
7.7340194993
 20
6.2857292747
 10
7.7325465834
 20
6.3398726153
 10
7.7310736676
 20
6.3817756871
  0
LINE
  5
4D0
100
AcDbEntity
  8
02___PRT_ALL_AXES
100
AcDbLine
 62
7
  6
CONTINUOUS
 10
7.6778929023
 20
5.7038099314
 11
7.6734741548
 21
5.9770642775
  0
LINE
  5
4D1
100
AcDbEntity
  8
02___PRT_ALL_AXES
100
AcDbLine
 62
7
  6
CONTINUOUS
 10
7.6852747921
 20
5.7038099314
 11
7.6808560445
 21
5.9770642775
  0
LINE
  5
4D2
100
AcDbEntity
  8
02___PRT_ALL_AXES
100
AcDbLine
 62
7
  6
CONTINUOUS
 10
7.7369480204
 20
5.7038099314
 11
7.7325292729
 21
5.9770642775
  0
LINE
  5
4D3
100
AcDbEntity
  8
02___PRT_ALL_AXES
100
AcDbLine
 62
7
  6
CONTINUOUS
 10
7.7443299102
 20
5.7038099314
 11
7.7399111626
 21
5.9770642775
  0
LWPOLYLINE
  5
4D4
100
AcDbEntity
  8
02___PRT_ALL_AXES
100
AcDbPolyline
 62
7
  6
CONTINUOUS
 90
9
 70
0
 10
7.8346178454
 20
5.2990985218
 10
7.8331833296
 20
5.3211569351
 10
7.8317516615
 20
5.3552090747
 10
7.8303177268
 20
5.400577913
 10
7.8288735634
 20
5.4565952047
 10
7.8274121985
 20
5.5224802569
 10
7.8259527297
 20
5.5959367011
 10
7.8245114376
 20
5.6742600665
 10
7.8230808899
 20
5.7558607969
  0
LWPOLYLINE
  5
4D5
100
AcDbEntity
  8
02___PRT_ALL_AXES
100
AcDbPolyline
 62
7
  6
CONTINUOUS
 90
10
 70
0
 10
7.7603515739
 20
6.3817756871
 10
7.7618010358
 20
6.3594227583
 10
7.7632408228
 20
6.325022082
 10
7.7646699723
 20
6.2796494695
 10
7.7661148938
 20
6.2234769977
 10
7.767576377
 20
6.1574756729
 10
7.7690356555
 20
6.083940209
 10
7.7704766463
 20
6.0055701937
 10
7.7719125509
 20
5.9236211263
 10
7.7747844141
 20
5.7558607969
  0
LWPOLYLINE
  5
4D6
100
AcDbEntity
  8
02___PRT_ALL_AXES
100
AcDbPolyline
 62
7
  6
CONTINUOUS
 90
10
 70
0
 10
7.819406692
 20
6.3817756871
 10
7.8208653492
 20
6.3592409129
 10
7.8223195256
 20
6.3243615238
 10
7.8237563847
 20
6.2785382713
 10
7.8251934823
 20
6.2224861004
 10
7.8266413418
 20
6.157003146
 10
7.8280814057
 20
6.0844329357
 10
7.8295069846
 20
6.0069560322
 10
7.8309466796
 20
5.9248377026
 10
7.8338609533
 20
5.7546196988
  0
LWPOLYLINE
  5
4D7
100
AcDbEntity
  8
02___PRT_ALL_AXES
100
AcDbPolyline
 62
7
  6
CONTINUOUS
 90
9
 70
0
 10
7.8936729635
 20
5.2990985218
 10
7.8922143244
 20
5.3216329368
 10
7.8907600024
 20
5.3565162648
 10
7.8893240929
 20
5.4023066853
 10
7.887897663
 20
5.4579027235
 10
7.8864681232
 20
5.5224416187
 10
7.885029375
 20
5.5948059285
 10
7.8835964178
 20
5.6725911921
 10
7.882157429
 20
5.7546196988
  0
LWPOLYLINE
  5
4D8
100
AcDbEntity
  8
02___PRT_ALL_AXES
100
AcDbPolyline
 62
7
  6
CONTINUOUS
 90
7
 70
0
 10
7.8048406336
 20
5.2990985218
 10
7.8033677177
 20
5.3410015935
 10
7.8018948019
 20
5.3951449341
 10
7.8004218861
 20
5.4602015874
 10
7.7989489702
 20
5.5345771315
 10
7.7974760544
 20
5.616448755
 10
7.7960031385
 20
5.7038099314
  0
LWPOLYLINE
  5
4D9
100
AcDbEntity
  8
02___PRT_ALL_AXES
100
AcDbPolyline
 62
7
  6
CONTINUOUS
 90
7
 70
0
 10
7.8122225234
 20
5.2990985218
 10
7.8107496075
 20
5.3410015935
 10
7.8092766917
 20
5.3951449341
 10
7.8078037758
 20
5.4602015874
 10
7.80633086
 20
5.5345771315
 10
7.8048579441
 20
5.616448755
 10
7.8033850283
 20
5.7038099314
  0
LWPOLYLINE
  5
4DA
100
AcDbEntity
  8
02___PRT_ALL_AXES
100
AcDbPolyline
 62
7
  6
CONTINUOUS
 90
7
 70
0
 10
7.8638957517
 20
5.2990985218
 10
7.8624228359
 20
5.3410015935
 10
7.86094992
 20
5.3951449341
 10
7.8594770042
 20
5.4602015874
 10
7.8580040883
 20
5.5345771315
 10
7.8565311725
 20
5.616448755
 10
7.8550582566
 20
5.7038099314
  0
LWPOLYLINE
  5
4DB
100
AcDbEntity
  8
02___PRT_ALL_AXES
100
AcDbPolyline
 62
7
  6
CONTINUOUS
 90
7
 70
0
 10
7.8712776415
 20
5.2990985218
 10
7.8698047256
 20
5.3410015935
 10
7.8683318098
 20
5.3951449341
 10
7.8668588939
 20
5.4602015874
 10
7.8653859781
 20
5.5345771315
 10
7.8639130622
 20
5.616448755
 10
7.8624401464
 20
5.7038099314
  0
LWPOLYLINE
  5
4DC
100
AcDbEntity
  8
02___PRT_ALL_AXES
100
AcDbPolyline
 62
7
  6
CONTINUOUS
 90
9
 70
0
 10
7.8338609533
 20
5.7546196988
 10
7.835299942
 20
5.6725911921
 10
7.8367328992
 20
5.5948059285
 10
7.8381716474
 20
5.5224416187
 10
7.8396011872
 20
5.4579027235
 10
7.8410276171
 20
5.4023066853
 10
7.8424635267
 20
5.3565162648
 10
7.8439178487
 20
5.3216329368
 10
7.8453764877
 20
5.2990985218
  0
LWPOLYLINE
  5
4DD
100
AcDbEntity
  8
02___PRT_ALL_AXES
100
AcDbPolyline
 62
7
  6
CONTINUOUS
 90
9
 70
0
 10
7.8929119978
 20
5.7548556819
 10
7.8943387591
 20
5.6735019836
 10
7.8957756208
 20
5.5954569306
 10
7.8972303886
 20
5.5222681004
 10
7.8986869996
 20
5.4566088531
 10
7.900126168
 20
5.4007659626
 10
7.9015589138
 20
5.3553902265
 10
7.902998877
 20
5.3211218109
 10
7.9044316058
 20
5.2990985218
  0
LWPOLYLINE
  5
4DE
100
AcDbEntity
  8
02___PRT_ALL_AXES
100
AcDbPolyline
 62
7
  6
CONTINUOUS
 90
10
 70
0
 10
7.8230808899
 20
5.7558607969
 10
7.8202090267
 20
5.9236211263
 10
7.8187731221
 20
6.0055701937
 10
7.8173321313
 20
6.083940209
 10
7.8158728528
 20
6.1574756729
 10
7.8144113695
 20
6.2234769977
 10
7.812966448
 20
6.2796494695
 10
7.8115372985
 20
6.325022082
 10
7.8100975116
 20
6.3594227583
 10
7.8086480497
 20
6.3817756871
  0
LWPOLYLINE
  5
4DF
100
AcDbEntity
  8
02___PRT_ALL_AXES
100
AcDbPolyline
 62
7
  6
CONTINUOUS
 90
10
 70
0
 10
7.882157429
 20
5.7546196988
 10
7.8792431554
 20
5.9248377026
 10
7.8778034604
 20
6.0069560322
 10
7.8763778814
 20
6.0844329357
 10
7.8749378175
 20
6.157003146
 10
7.8734899581
 20
6.2224861004
 10
7.8720528604
 20
6.2785382713
 10
7.8706160013
 20
6.3243615238
 10
7.869161825
 20
6.3592409129
 10
7.8677031678
 20
6.3817756871
  0
LWPOLYLINE
  5
4E0
100
AcDbEntity
  8
02___PRT_ALL_AXES
100
AcDbPolyline
 62
7
  6
CONTINUOUS
 90
7
 70
0
 10
7.791584391
 20
5.9770642775
 10
7.7901114751
 20
6.0644254538
 10
7.7886385593
 20
6.1462970774
 10
7.7871656435
 20
6.2206726214
 10
7.7856927276
 20
6.2857292747
 10
7.7842198118
 20
6.3398726153
 10
7.7827468959
 20
6.3817756871
  0
LWPOLYLINE
  5
4E1
100
AcDbEntity
  8
02___PRT_ALL_AXES
100
AcDbPolyline
 62
7
  6
CONTINUOUS
 90
7
 70
0
 10
7.7989662808
 20
5.9770642775
 10
7.7974933649
 20
6.0644254538
 10
7.7960204491
 20
6.1462970774
 10
7.7945475332
 20
6.2206726214
 10
7.7930746174
 20
6.2857292747
 10
7.7916017015
 20
6.3398726153
 10
7.7901287857
 20
6.3817756871
  0
LWPOLYLINE
  5
4E2
100
AcDbEntity
  8
02___PRT_ALL_AXES
100
AcDbPolyline
 62
7
  6
CONTINUOUS
 90
7
 70
0
 10
7.8506395091
 20
5.9770642775
 10
7.8491665933
 20
6.0644254538
 10
7.8476936774
 20
6.1462970774
 10
7.8462207616
 20
6.2206726214
 10
7.8447478457
 20
6.2857292747
 10
7.8432749299
 20
6.3398726153
 10
7.841802014
 20
6.3817756871
  0
LWPOLYLINE
  5
4E3
100
AcDbEntity
  8
02___PRT_ALL_AXES
100
AcDbPolyline
 62
7
  6
CONTINUOUS
 90
7
 70
0
 10
7.8580213989
 20
5.9770642775
 10
7.856548483
 20
6.0644254538
 10
7.8550755672
 20
6.1462970774
 10
7.8536026513
 20
6.2206726214
 10
7.8521297355
 20
6.2857292747
 10
7.8506568196
 20
6.3398726153
 10
7.8491839038
 20
6.3817756871
  0
LINE
  5
4E4
100
AcDbEntity
  8
02___PRT_ALL_AXES
100
AcDbLine
 62
7
  6
CONTINUOUS
 10
7.7960031385
 20
5.7038099314
 11
7.791584391
 21
5.9770642775
  0
LINE
  5
4E5
100
AcDbEntity
  8
02___PRT_ALL_AXES
100
AcDbLine
 62
7
  6
CONTINUOUS
 10
7.8033850283
 20
5.7038099314
 11
7.7989662808
 21
5.9770642775
  0
LINE
  5
4E6
100
AcDbEntity
  8
02___PRT_ALL_AXES
100
AcDbLine
 62
7
  6
CONTINUOUS
 10
7.8550582566
 20
5.7038099314
 11
7.8506395091
 21
5.9770642775
  0
LINE
  5
4E7
100
AcDbEntity
  8
02___PRT_ALL_AXES
100
AcDbLine
 62
7
  6
CONTINUOUS
 10
7.8624401464
 20
5.7038099314
 11
7.8580213989
 21
5.9770642775
  0
LINE
  5
4E8
100
AcDbEntity
  8
0
100
AcDbLine
 62
7
  6
CONTINUOUS
 10
8.4281120104
 20
6.0844680183
 11
8.4283902215
 21
6.084708758
  0
LINE
  5
4E9
100
AcDbEntity
  8
0
100
AcDbLine
 62
7
  6
CONTINUOUS
 10
8.4674820891
 20
6.0844680183
 11
8.4677603002
 21
6.084708758
  0
LINE
  5
4EA
100
AcDbEntity
  8
0
100
AcDbLine
 62
7
  6
CONTINUOUS
 10
7.5858705364
 20
6.3817756871
 11
7.6422413377
 21
6.3817756871
  0
LINE
  5
4EB
100
AcDbEntity
  8
02___PRT_ALL_AXES
100
AcDbLine
 62
7
  6
CONTINUOUS
 10
7.6422413377
 20
6.3817756871
 11
8.2220338764
 21
6.3817756871
  0
LINE
  5
4EC
100
AcDbEntity
  8
0
100
AcDbLine
 62
7
  6
CONTINUOUS
 10
8.2220338764
 20
6.3817756871
 11
8.2945319537
 21
6.3817756871
  0
LINE
  5
4ED
100
AcDbEntity
  8
0
100
AcDbLine
 62
7
  6
CONTINUOUS
 10
8.408426971
 20
5.5964061906
 11
8.4087051821
 21
5.5961654509
  0
LINE
  5
4EE
100
AcDbEntity
  8
0
100
AcDbLine
 62
7
  6
CONTINUOUS
 10
8.4477970497
 20
5.5964061906
 11
8.4480752608
 21
5.5961654509
  0
LINE
  5
4EF
100
AcDbEntity
  8
0
100
AcDbLine
 62
7
  6
CONTINUOUS
 10
8.4871671285
 20
5.5964061906
 11
8.4874453396
 21
5.5961654509
  0
LWPOLYLINE
  5
4F0
100
AcDbEntity
  8
02___PRT_ALL_AXES
100
AcDbPolyline
 62
7
  6
CONTINUOUS
 90
9
 70
0
 10
7.9527280816
 20
5.2990985218
 10
7.9512953528
 20
5.3211218109
 10
7.9498553896
 20
5.3553902265
 10
7.9484226437
 20
5.4007659626
 10
7.9469834754
 20
5.4566088531
 10
7.9455268644
 20
5.5222681004
 10
7.9440720966
 20
5.5954569306
 10
7.9426352349
 20
5.6735019836
 10
7.9412084735
 20
5.7548556819
  0
LWPOLYLINE
  5
4F1
100
AcDbEntity
  8
02___PRT_ALL_AXES
100
AcDbPolyline
 62
7
  6
CONTINUOUS
 90
9
 70
0
 10
7.9375169282
 20
6.3817756871
 10
7.9389501993
 20
6.3597417423
 10
7.9403904461
 20
6.3254609802
 10
7.9418232382
 20
6.2800774026
 10
7.9432624276
 20
6.2242277671
 10
7.9447190299
 20
6.1585637542
 10
7.9461736935
 20
6.0853762873
 10
7.9476104462
 20
6.0073347089
 10
7.9490376386
 20
5.9259546696
  0
LWPOLYLINE
  5
4F2
100
AcDbEntity
  8
02___PRT_ALL_AXES
100
AcDbPolyline
 62
7
  6
CONTINUOUS
 90
10
 70
0
 10
7.8784618101
 20
6.3817756871
 10
7.8799191621
 20
6.359266755
 10
7.8813720817
 20
6.324433428
 10
7.8828073144
 20
6.2786872756
 10
7.8842409927
 20
6.2228075508
 10
7.8856933845
 20
6.1571507664
 10
7.8871453075
 20
6.0839709469
 10
7.8885809525
 20
6.0059019401
 10
7.8900171134
 20
5.923950027
 10
7.8929119978
 20
5.7548556819
  0
LWPOLYLINE
  5
4F3
100
AcDbEntity
  8
02___PRT_ALL_AXES
100
AcDbPolyline
 62
7
  6
CONTINUOUS
 90
9
 70
0
 10
8.0117831997
 20
5.2990985218
 10
8.0103259165
 20
5.3216060932
 10
8.0088729787
 20
5.3564393637
 10
8.0074378266
 20
5.4021822687
 10
8.0060049772
 20
5.4580261075
 10
8.004553301
 20
5.5236430229
 10
8.0031017325
 20
5.5967964643
 10
8.0016661759
 20
5.6748537633
 10
8.0002299851
 20
5.7568031164
  0
LWPOLYLINE
  5
4F4
100
AcDbEntity
  8
02___PRT_ALL_AXES
100
AcDbPolyline
 62
7
  6
CONTINUOUS
 90
7
 70
0
 10
7.9229508698
 20
5.2990985218
 10
7.921477954
 20
5.3410015935
 10
7.9200050381
 20
5.3951449341
 10
7.9185321223
 20
5.4602015874
 10
7.9170592064
 20
5.5345771315
 10
7.9155862906
 20
5.616448755
 10
7.9141133747
 20
5.7038099314
  0
LWPOLYLINE
  5
4F5
100
AcDbEntity
  8
02___PRT_ALL_AXES
100
AcDbPolyline
 62
7
  6
CONTINUOUS
 90
7
 70
0
 10
7.9303327596
 20
5.2990985218
 10
7.9288598437
 20
5.3410015935
 10
7.9273869279
 20
5.3951449341
 10
7.925914012
 20
5.4602015874
 10
7.9244410962
 20
5.5345771315
 10
7.9229681804
 20
5.616448755
 10
7.9214952645
 20
5.7038099314
  0
LWPOLYLINE
  5
4F6
100
AcDbEntity
  8
02___PRT_ALL_AXES
100
AcDbPolyline
 62
7
  6
CONTINUOUS
 90
7
 70
0
 10
7.9820059879
 20
5.2990985218
 10
7.9805330721
 20
5.3410015935
 10
7.9790601562
 20
5.3951449341
 10
7.9775872404
 20
5.4602015874
 10
7.9761143245
 20
5.5345771315
 10
7.9746414087
 20
5.616448755
 10
7.9731684929
 20
5.7038099314
  0
LWPOLYLINE
  5
4F7
100
AcDbEntity
  8
02___PRT_ALL_AXES
100
AcDbPolyline
 62
7
  6
CONTINUOUS
 90
6
 70
0
 10
7.9893878777
 20
5.2990985218
 10
7.9879149618
 20
5.3410015935
 10
7.986442046
 20
5.3951449341
 10
7.9849691302
 20
5.4602015874
 10
7.9834962143
 20
5.5345771315
 10
7.9820232985
 20
5.616448755
  0
LWPOLYLINE
  5
4F8
100
AcDbEntity
  8
02___PRT_ALL_AXES
100
AcDbPolyline
 62
7
  6
CONTINUOUS
 90
6
 70
0
 10
7.9746587192
 20
6.0644254538
 10
7.9731858034
 20
6.1462970774
 10
7.9717128876
 20
6.2206726214
 10
7.9702399717
 20
6.2857292747
 10
7.9687670559
 20
6.3398726153
 10
7.96729414
 20
6.3817756871
  0
LWPOLYLINE
  5
4F9
100
AcDbEntity
  8
02___PRT_ALL_AXES
100
AcDbPolyline
 62
7
  6
CONTINUOUS
 90
10
 70
0
 10
7.9412084735
 20
5.7548556819
 10
7.9383135891
 20
5.923950027
 10
7.9368774283
 20
6.0059019401
 10
7.9354417832
 20
6.0839709469
 10
7.9339898603
 20
6.1571507664
 10
7.9325374685
 20
6.2228075508
 10
7.9311037901
 20
6.2786872756
 10
7.9296685574
 20
6.324433428
 10
7.9282156379
 20
6.359266755
 10
7.9267582859
 20
6.3817756871
  0
LWPOLYLINE
  5
4FA
100
AcDbEntity
  8
02___PRT_ALL_AXES
100
AcDbPolyline
 62
7
  6
CONTINUOUS
 90
10
 70
0
 10
7.9490376386
 20
5.9259546696
 10
7.9519335093
 20
5.7568031164
 10
7.9533697001
 20
5.6748537633
 10
7.9548052568
 20
5.5967964643
 10
7.9562568252
 20
5.5236430229
 10
7.9577085015
 20
5.4580261075
 10
7.9591413509
 20
5.4021822687
 10
7.9605765029
 20
5.3564393637
 10
7.9620294407
 20
5.3216060932
 10
7.963486724
 20
5.2990985218
  0
LWPOLYLINE
  5
4FB
100
AcDbEntity
  8
02___PRT_ALL_AXES
100
AcDbPolyline
 62
7
  6
CONTINUOUS
 90
10
 70
0
 10
8.0002299851
 20
5.7568031164
 10
7.9973341143
 20
5.9259546696
 10
7.995906922
 20
6.0073347089
 10
7.9944701693
 20
6.0853762873
 10
7.9930155057
 20
6.1585637542
 10
7.9915589033
 20
6.2242277671
 10
7.9901197139
 20
6.2800774026
 10
7.9886869218
 20
6.3254609802
 10
7.987246675
 20
6.3597417423
 10
7.985813404
 20
6.3817756871
  0
LWPOLYLINE
  5
4FC
100
AcDbEntity
  8
02___PRT_ALL_AXES
100
AcDbPolyline
 62
7
  6
CONTINUOUS
 90
10
 70
0
 10
8.0080874242
 20
5.9262635796
 10
8.0110014878
 20
5.7560577542
 10
8.0124410502
 20
5.6739460852
 10
8.0138666722
 20
5.596465262
 10
8.0153073033
 20
5.5238657334
 10
8.0167554733
 20
5.4583702908
 10
8.0181926758
 20
5.402317205
 10
8.0196293967
 20
5.3565017876
 10
8.0210834451
 20
5.3216281427
 10
8.0225418421
 20
5.2990985218
  0
LWPOLYLINE
  5
4FD
100
AcDbEntity
  8
02___PRT_ALL_AXES
100
AcDbPolyline
 62
7
  6
CONTINUOUS
 90
7
 70
0
 10
7.9096946272
 20
5.9770642775
 10
7.9082217114
 20
6.0644254538
 10
7.9067487955
 20
6.1462970774
 10
7.9052758797
 20
6.2206726214
 10
7.9038029638
 20
6.2857292747
 10
7.902330048
 20
6.3398726153
 10
7.9008571321
 20
6.3817756871
  0
LWPOLYLINE
  5
4FE
100
AcDbEntity
  8
02___PRT_ALL_AXES
100
AcDbPolyline
 62
7
  6
CONTINUOUS
 90
7
 70
0
 10
7.917076517
 20
5.9770642775
 10
7.9156036011
 20
6.0644254538
 10
7.9141306853
 20
6.1462970774
 10
7.9126577694
 20
6.2206726214
 10
7.9111848536
 20
6.2857292747
 10
7.9097119378
 20
6.3398726153
 10
7.9082390219
 20
6.3817756871
  0
LWPOLYLINE
  5
4FF
100
AcDbEntity
  8
02___PRT_ALL_AXES
100
AcDbPolyline
 62
7
  6
CONTINUOUS
 90
7
 70
0
 10
7.9687497453
 20
5.9770642775
 10
7.9672768295
 20
6.0644254538
 10
7.9658039136
 20
6.1462970774
 10
7.9643309978
 20
6.2206726214
 10
7.9628580819
 20
6.2857292747
 10
7.9613851661
 20
6.3398726153
 10
7.9599122503
 20
6.3817756871
  0
LINE
  5
500
100
AcDbEntity
  8
02___PRT_ALL_AXES
100
AcDbLine
 62
7
  6
CONTINUOUS
 10
7.9820232985
 20
5.616448755
 11
7.9798660406
 21
5.7459551981
  0
LINE
  5
501
100
AcDbEntity
  8
02___PRT_ALL_AXES
100
AcDbLine
 62
7
  6
CONTINUOUS
 10
7.9768166257
 20
5.9348790663
 11
7.9746587192
 21
6.0644254538
  0
LINE
  5
502
100
AcDbEntity
  8
02___PRT_ALL_AXES
100
AcDbLine
 62
7
  6
CONTINUOUS
 10
7.9141133747
 20
5.7038099314
 11
7.9096946272
 21
5.9770642775
  0
LINE
  5
503
100
AcDbEntity
  8
02___PRT_ALL_AXES
100
AcDbLine
 62
7
  6
CONTINUOUS
 10
7.9214952645
 20
5.7038099314
 11
7.917076517
 21
5.9770642775
  0
LINE
  5
504
100
AcDbEntity
  8
02___PRT_ALL_AXES
100
AcDbLine
 62
7
  6
CONTINUOUS
 10
7.9731684929
 20
5.7038099314
 11
7.9687497453
 21
5.9770642775
  0
LINE
  5
505
100
AcDbEntity
  8
02___PRT_ALL_AXES
100
AcDbLine
 62
7
  6
CONTINUOUS
 10
7.9798660406
 20
5.7459551981
 11
7.9768166257
 21
5.9348790663
  0
LINE
  5
506
100
AcDbEntity
  8
0
100
AcDbLine
 62
7
  6
CONTINUOUS
 10
8.5068521678
 20
6.0844680183
 11
8.5071303789
 21
6.084708758
  0
LINE
  5
507
100
AcDbEntity
  8
0
100
AcDbLine
 62
7
  6
CONTINUOUS
 10
8.5462222466
 20
6.0844680183
 11
8.5465004577
 21
6.084708758
  0
LINE
  5
508
100
AcDbEntity
  8
0
100
AcDbLine
 62
7
  6
CONTINUOUS
 10
8.5855923253
 20
6.0844680183
 11
8.5858705364
 21
6.084708758
  0
LINE
  5
509
100
AcDbEntity
  8
0
100
AcDbLine
 62
7
  6
CONTINUOUS
 10
8.6249624041
 20
6.0844680183
 11
8.6252406152
 21
6.084708758
  0
LINE
  5
50A
100
AcDbEntity
  8
0
100
AcDbLine
 62
7
  6
CONTINUOUS
 10
8.6643324828
 20
6.0844680183
 11
8.6646106939
 21
6.084708758
  0
LINE
  5
50B
100
AcDbEntity
  8
0
100
AcDbLine
 62
7
  6
CONTINUOUS
 10
8.5265372072
 20
5.5964061906
 11
8.5268154183
 21
5.5961654509
  0
LINE
  5
50C
100
AcDbEntity
  8
0
100
AcDbLine
 62
7
  6
CONTINUOUS
 10
8.565907286
 20
5.5964061906
 11
8.566185497
 21
5.5961654509
  0
LINE
  5
50D
100
AcDbEntity
  8
0
100
AcDbLine
 62
7
  6
CONTINUOUS
 10
8.6052773647
 20
5.5964061906
 11
8.6055555758
 21
5.5961654509
  0
LINE
  5
50E
100
AcDbEntity
  8
0
100
AcDbLine
 62
7
  6
CONTINUOUS
 10
8.6446474434
 20
5.5964061906
 11
8.6449256545
 21
5.5961654509
  0
LINE
  5
50F
100
AcDbEntity
  8
0
100
AcDbLine
 62
7
  6
CONTINUOUS
 10
8.6842957447
 20
5.5961654509
 11
8.6840175222
 21
5.5964061906
  0
LWPOLYLINE
  5
510
100
AcDbEntity
  8
02___PRT_ALL_AXES
100
AcDbPolyline
 62
7
  6
CONTINUOUS
 90
9
 70
0
 10
8.0556271644
 20
6.3817756871
 10
8.0570612843
 20
6.3597250572
 10
8.0584931473
 20
6.3256707259
 10
8.0599271193
 20
6.2803020836
 10
8.0613712349
 20
6.2242879032
 10
8.0628325289
 20
6.1584074836
 10
8.0642918462
 20
6.0849603146
 10
8.0657329731
 20
6.0066476388
 10
8.0671632674
 20
5.9250628174
  0
LWPOLYLINE
  5
511
100
AcDbEntity
  8
02___PRT_ALL_AXES
100
AcDbPolyline
 62
7
  6
CONTINUOUS
 90
9
 70
0
 10
8.1298934359
 20
5.2990985218
 10
8.1284436108
 20
5.3214586231
 10
8.1270032923
 20
5.3558771304
 10
8.125574215
 20
5.4012538836
 10
8.124129467
 20
5.4574245807
 10
8.1226681177
 20
5.5234232469
 10
8.1212088956
 20
5.5969581334
 10
8.1197679585
 20
5.6753266793
 10
8.1183320097
 20
5.7572791261
  0
LWPOLYLINE
  5
512
100
AcDbEntity
  8
02___PRT_ALL_AXES
100
AcDbPolyline
 62
7
  6
CONTINUOUS
 90
9
 70
0
 10
7.9965720463
 20
6.3817756871
 10
7.9980306008
 20
6.3592429464
 10
7.9994847619
 20
6.324364837
 10
8.0009205003
 20
6.2785823492
 10
8.0023467048
 20
6.2229985902
 10
8.0037764923
 20
6.1584514763
 10
8.0052155151
 20
6.0860745658
 10
8.0066485242
 20
6.0082868028
 10
8.0080874242
 20
5.9262635796
  0
LWPOLYLINE
  5
513
100
AcDbEntity
  8
02___PRT_ALL_AXES
100
AcDbPolyline
 62
7
  6
CONTINUOUS
 90
10
 70
0
 10
8.0708383178
 20
5.2990985218
 10
8.0693799209
 20
5.3216281427
 10
8.0679258725
 20
5.3565017876
 10
8.0664891516
 20
5.402317205
 10
8.0650519491
 20
5.4583702908
 10
8.0636037791
 20
5.5238657334
 10
8.062163148
 20
5.596465262
 10
8.060737526
 20
5.6739460852
 10
8.0592979636
 20
5.7560577542
 10
8.0563839
 20
5.9262635796
  0
LWPOLYLINE
  5
514
100
AcDbEntity
  8
02___PRT_ALL_AXES
100
AcDbPolyline
 62
7
  6
CONTINUOUS
 90
7
 70
0
 10
8.041061106
 20
5.2990985218
 10
8.0395881902
 20
5.3410015935
 10
8.0381152743
 20
5.3951449341
 10
8.0366423585
 20
5.4602015874
 10
8.0351694427
 20
5.5345771315
 10
8.0336965268
 20
5.616448755
 10
8.032223611
 20
5.7038099314
  0
LWPOLYLINE
  5
515
100
AcDbEntity
  8
02___PRT_ALL_AXES
100
AcDbPolyline
 62
7
  6
CONTINUOUS
 90
7
 70
0
 10
8.0484429958
 20
5.2990985218
 10
8.04697008
 20
5.3410015935
 10
8.0454971641
 20
5.3951449341
 10
8.0440242483
 20
5.4602015874
 10
8.0425513324
 20
5.5345771315
 10
8.0410784166
 20
5.616448755
 10
8.0396055007
 20
5.7038099314
  0
LWPOLYLINE
  5
516
100
AcDbEntity
  8
02___PRT_ALL_AXES
100
AcDbPolyline
 62
7
  6
CONTINUOUS
 90
7
 70
0
 10
8.1001162241
 20
5.2990985218
 10
8.0986433083
 20
5.3410015935
 10
8.0971703925
 20
5.3951449341
 10
8.0956974766
 20
5.4602015874
 10
8.0942245608
 20
5.5345771315
 10
8.0927516449
 20
5.616448755
 10
8.0912787291
 20
5.7038099314
  0
LWPOLYLINE
  5
517
100
AcDbEntity
  8
02___PRT_ALL_AXES
100
AcDbPolyline
 62
7
  6
CONTINUOUS
 90
7
 70
0
 10
8.1074981139
 20
5.2990985218
 10
8.1060251981
 20
5.3410015935
 10
8.1045522822
 20
5.3951449341
 10
8.1030793664
 20
5.4602015874
 10
8.1016064505
 20
5.5345771315
 10
8.1001335347
 20
5.616448755
 10
8.0986606188
 20
5.7038099314
  0
LWPOLYLINE
  5
518
100
AcDbEntity
  8
02___PRT_ALL_AXES
100
AcDbPolyline
 62
7
  6
CONTINUOUS
 90
9
 70
0
 10
8.0563839
 20
5.9262635796
 10
8.054945
 20
6.0082868028
 10
8.0535119909
 20
6.0860745658
 10
8.0520729681
 20
6.1584514763
 10
8.0506431806
 20
6.2229985902
 10
8.049216976
 20
6.2785823492
 10
8.0477812376
 20
6.324364837
 10
8.0463270766
 20
6.3592429464
 10
8.0448685221
 20
6.3817756871
  0
LWPOLYLINE
  5
519
100
AcDbEntity
  8
02___PRT_ALL_AXES
100
AcDbPolyline
 62
7
  6
CONTINUOUS
 90
10
 70
0
 10
8.0671632674
 20
5.9250628174
 10
8.0700355339
 20
5.7572791261
 10
8.0714714827
 20
5.6753266793
 10
8.0729124198
 20
5.5969581334
 10
8.074371642
 20
5.5234232469
 10
8.0758329913
 20
5.4574245807
 10
8.0772777393
 20
5.4012538836
 10
8.0787068166
 20
5.3558771304
 10
8.0801471351
 20
5.3214586231
 10
8.0815969602
 20
5.2990985218
  0
LWPOLYLINE
  5
51A
100
AcDbEntity
  8
02___PRT_ALL_AXES
100
AcDbPolyline
 62
7
  6
CONTINUOUS
 90
10
 70
0
 10
8.1183320097
 20
5.7572791261
 10
8.1154597432
 20
5.9250628174
 10
8.1140294489
 20
6.0066476388
 10
8.112588322
 20
6.0849603146
 10
8.1111290046
 20
6.1584074836
 10
8.1096677107
 20
6.2242879032
 10
8.108223595
 20
6.2803020836
 10
8.1067896231
 20
6.3256707259
 10
8.1053577601
 20
6.3597250572
 10
8.1039236402
 20
6.3817756871
  0
LWPOLYLINE
  5
51B
100
AcDbEntity
  8
02___PRT_ALL_AXES
100
AcDbPolyline
 62
7
  6
CONTINUOUS
 90
10
 70
0
 10
8.1262078518
 20
5.9256731671
 10
8.1291261336
 20
5.7552227943
 10
8.130567395
 20
5.6730458009
 10
8.1319981251
 20
5.595350201
 10
8.1334271847
 20
5.5234028765
 10
8.1348633219
 20
5.4584712208
 10
8.1362968368
 20
5.4025334709
 10
8.1377351665
 20
5.3566272175
 10
8.139191426
 20
5.3216728154
 10
8.1406520783
 20
5.2990985218
  0
LWPOLYLINE
  5
51C
100
AcDbEntity
  8
02___PRT_ALL_AXES
100
AcDbPolyline
 62
7
  6
CONTINUOUS
 90
7
 70
0
 10
8.0278048634
 20
5.9770642775
 10
8.0263319476
 20
6.0644254538
 10
8.0248590317
 20
6.1462970774
 10
8.0233861159
 20
6.2206726214
 10
8.0219132001
 20
6.2857292747
 10
8.0204402842
 20
6.3398726153
 10
8.0189673684
 20
6.3817756871
  0
LWPOLYLINE
  5
51D
100
AcDbEntity
  8
02___PRT_ALL_AXES
100
AcDbPolyline
 62
7
  6
CONTINUOUS
 90
7
 70
0
 10
8.0351867532
 20
5.9770642775
 10
8.0337138374
 20
6.0644254538
 10
8.0322409215
 20
6.1462970774
 10
8.0307680057
 20
6.2206726214
 10
8.0292950898
 20
6.2857292747
 10
8.027822174
 20
6.3398726153
 10
8.0263492581
 20
6.3817756871
  0
LWPOLYLINE
  5
51E
100
AcDbEntity
  8
02___PRT_ALL_AXES
100
AcDbPolyline
 62
7
  6
CONTINUOUS
 90
7
 70
0
 10
8.0868599815
 20
5.9770642775
 10
8.0853870657
 20
6.0644254538
 10
8.0839141499
 20
6.1462970774
 10
8.082441234
 20
6.2206726214
 10
8.0809683182
 20
6.2857292747
 10
8.0794954023
 20
6.3398726153
 10
8.0780224865
 20
6.3817756871
  0
LWPOLYLINE
  5
51F
100
AcDbEntity
  8
02___PRT_ALL_AXES
100
AcDbPolyline
 62
7
  6
CONTINUOUS
 90
7
 70
0
 10
8.0942418713
 20
5.9770642775
 10
8.0927689555
 20
6.0644254538
 10
8.0912960396
 20
6.1462970774
 10
8.0898231238
 20
6.2206726214
 10
8.0883502079
 20
6.2857292747
 10
8.0868772921
 20
6.3398726153
 10
8.0854043762
 20
6.3817756871
  0
LINE
  5
520
100
AcDbEntity
  8
02___PRT_ALL_AXES
100
AcDbLine
 62
7
  6
CONTINUOUS
 10
8.032223611
 20
5.7038099314
 11
8.0278048634
 21
5.9770642775
  0
LINE
  5
521
100
AcDbEntity
  8
02___PRT_ALL_AXES
100
AcDbLine
 62
7
  6
CONTINUOUS
 10
8.0396055007
 20
5.7038099314
 11
8.0351867532
 21
5.9770642775
  0
LINE
  5
522
100
AcDbEntity
  8
02___PRT_ALL_AXES
100
AcDbLine
 62
7
  6
CONTINUOUS
 10
8.0912787291
 20
5.7038099314
 11
8.0868599815
 21
5.9770642775
  0
LINE
  5
523
100
AcDbEntity
  8
02___PRT_ALL_AXES
100
AcDbLine
 62
7
  6
CONTINUOUS
 10
8.0986606188
 20
5.7038099314
 11
8.0942418713
 21
5.9770642775
  0
LINE
  5
524
100
AcDbEntity
  8
0
100
AcDbLine
 62
7
  6
CONTINUOUS
 10
8.3890201427
 20
6.084708758
 11
8.3713830746
 21
6.05416046
  0
LINE
  5
525
100
AcDbEntity
  8
0
100
AcDbLine
 62
7
  6
CONTINUOUS
 10
8.3839938038
 20
6.0804196649
 11
8.3702998447
 21
6.0571596321
  0
LWPOLYLINE
  5
526
100
AcDbEntity
  8
0
100
AcDbPolyline
 62
7
  6
CONTINUOUS
 90
3
 70
0
 10
8.3839938038
 20
6.0804196649
 10
8.3851700051
 20
6.0821891009
 10
8.3890201427
 20
6.084708758
  0
LWPOLYLINE
  5
527
100
AcDbEntity
  8
0
100
AcDbPolyline
 62
7
  6
CONTINUOUS
 90
3
 70
0
 10
8.6882327597
 20
5.5961654509
 10
8.6883913834
 20
5.596243737
 10
8.6885109522
 20
5.5964061906
  0
LINE
  5
528
100
AcDbEntity
  8
0
100
AcDbLine
 62
7
  6
CONTINUOUS
 10
8.3906705292
 20
5.6271265921
 11
8.408426971
 21
5.5964061906
  0
LWPOLYLINE
  5
529
100
AcDbEntity
  8
02___PRT_ALL_AXES
100
AcDbPolyline
 62
7
  6
CONTINUOUS
 90
9
 70
0
 10
8.2480036722
 20
5.2990985218
 10
8.2465691564
 20
5.3211569351
 10
8.2451374883
 20
5.3552090747
 10
8.2437035536
 20
5.400577913
 10
8.2422593902
 20
5.4565952047
 10
8.2407980252
 20
5.5224802569
 10
8.2393385565
 20
5.5959367011
 10
8.2378972644
 20
5.6742600665
 10
8.2364667166
 20
5.7558607969
  0
LWPOLYLINE
  5
52A
100
AcDbEntity
  8
02___PRT_ALL_AXES
100
AcDbPolyline
 62
7
  6
CONTINUOUS
 90
10
 70
0
 10
8.1737374007
 20
6.3817756871
 10
8.1751868626
 20
6.3594227583
 10
8.1766266496
 20
6.325022082
 10
8.178055799
 20
6.2796494695
 10
8.1795007205
 20
6.2234769977
 10
8.1809622038
 20
6.1574756729
 10
8.1824214823
 20
6.083940209
 10
8.1838624731
 20
6.0055701937
 10
8.1852983777
 20
5.9236211263
 10
8.1881702409
 20
5.7558607969
  0
LWPOLYLINE
  5
52B
100
AcDbEntity
  8
02___PRT_ALL_AXES
100
AcDbPolyline
 62
7
  6
CONTINUOUS
 90
9
 70
0
 10
8.1146822825
 20
6.3817756871
 10
8.1161429562
 20
6.3592009689
 10
8.1175991586
 20
6.3242479966
 10
8.1190374226
 20
6.2783443479
 10
8.1204707663
 20
6.2224145138
 10
8.1219065233
 20
6.1575026508
 10
8.1233356439
 20
6.0855550946
 10
8.1247665322
 20
6.0078526339
 10
8.1262078518
 20
5.9256731671
  0
LWPOLYLINE
  5
52C
100
AcDbEntity
  8
02___PRT_ALL_AXES
100
AcDbPolyline
 62
7
  6
CONTINUOUS
 90
9
 70
0
 10
8.1889485541
 20
5.2990985218
 10
8.1874879018
 20
5.3216728154
 10
8.1860316423
 20
5.3566272175
 10
8.1845933126
 20
5.4025334709
 10
8.1831597977
 20
5.4584712208
 10
8.1817236605
 20
5.5234028765
 10
8.1802946008
 20
5.595350201
 10
8.1788638708
 20
5.6730458009
 10
8.1774226093
 20
5.7552227943
  0
LWPOLYLINE
  5
52D
100
AcDbEntity
  8
02___PRT_ALL_AXES
100
AcDbPolyline
 62
7
  6
CONTINUOUS
 90
7
 70
0
 10
8.1591713423
 20
5.2990985218
 10
8.1576984264
 20
5.3410015935
 10
8.1562255106
 20
5.3951449341
 10
8.1547525947
 20
5.4602015874
 10
8.1532796789
 20
5.5345771315
 10
8.151806763
 20
5.616448755
 10
8.1503338472
 20
5.7038099314
  0
LWPOLYLINE
  5
52E
100
AcDbEntity
  8
02___PRT_ALL_AXES
100
AcDbPolyline
 62
7
  6
CONTINUOUS
 90
7
 70
0
 10
8.166553232
 20
5.2990985218
 10
8.1650803162
 20
5.3410015935
 10
8.1636074003
 20
5.3951449341
 10
8.1621344845
 20
5.4602015874
 10
8.1606615686
 20
5.5345771315
 10
8.1591886528
 20
5.616448755
 10
8.157715737
 20
5.7038099314
  0
LWPOLYLINE
  5
52F
100
AcDbEntity
  8
02___PRT_ALL_AXES
100
AcDbPolyline
 62
7
  6
CONTINUOUS
 90
7
 70
0
 10
8.2182264604
 20
5.2990985218
 10
8.2167535445
 20
5.3410015935
 10
8.2152806287
 20
5.3951449341
 10
8.2138077128
 20
5.4602015874
 10
8.212334797
 20
5.5345771315
 10
8.2108618811
 20
5.616448755
 10
8.2093889653
 20
5.7038099314
  0
LWPOLYLINE
  5
530
100
AcDbEntity
  8
02___PRT_ALL_AXES
100
AcDbPolyline
 62
7
  6
CONTINUOUS
 90
7
 70
0
 10
8.2256083501
 20
5.2990985218
 10
8.2241354343
 20
5.3410015935
 10
8.2226625184
 20
5.3951449341
 10
8.2211896026
 20
5.4602015874
 10
8.2197166868
 20
5.5345771315
 10
8.2182437709
 20
5.616448755
 10
8.2167708551
 20
5.7038099314
  0
LWPOLYLINE
  5
531
100
AcDbEntity
  8
02___PRT_ALL_AXES
100
AcDbPolyline
 62
7
  6
CONTINUOUS
 90
9
 70
0
 10
8.1881702409
 20
5.7558607969
 10
8.1896007886
 20
5.6742600665
 10
8.1910420807
 20
5.5959367011
 10
8.1925015495
 20
5.5224802569
 10
8.1939629144
 20
5.4565952047
 10
8.1954070778
 20
5.400577913
 10
8.1968410125
 20
5.3552090747
 10
8.1982726806
 20
5.3211569351
 10
8.1997071964
 20
5.2990985218
  0
LWPOLYLINE
  5
532
100
AcDbEntity
  8
02___PRT_ALL_AXES
100
AcDbPolyline
 62
7
  6
CONTINUOUS
 90
10
 70
0
 10
8.1774226093
 20
5.7552227943
 10
8.1745043276
 20
5.9256731671
 10
8.173063008
 20
6.0078526339
 10
8.1716321197
 20
6.0855550946
 10
8.170202999
 20
6.1575026508
 10
8.168767242
 20
6.2224145138
 10
8.1673338984
 20
6.2783443479
 10
8.1658956343
 20
6.3242479966
 10
8.164439432
 20
6.3592009689
 10
8.1629787583
 20
6.3817756871
  0
LWPOLYLINE
  5
533
100
AcDbEntity
  8
02___PRT_ALL_AXES
100
AcDbPolyline
 62
7
  6
CONTINUOUS
 90
10
 70
0
 10
8.2364667166
 20
5.7558607969
 10
8.2335948535
 20
5.9236211263
 10
8.2321589488
 20
6.0055701937
 10
8.230717958
 20
6.083940209
 10
8.2292586795
 20
6.1574756729
 10
8.2277971963
 20
6.2234769977
 10
8.2263522748
 20
6.2796494695
 10
8.2249231253
 20
6.325022082
 10
8.2234833384
 20
6.3594227583
 10
8.2220338764
 20
6.3817756871
  0
LWPOLYLINE
  5
534
100
AcDbEntity
  8
02___PRT_ALL_AXES
100
AcDbPolyline
 62
7
  6
CONTINUOUS
 90
7
 70
0
 10
8.1459150997
 20
5.9770642775
 10
8.1444421838
 20
6.0644254538
 10
8.142969268
 20
6.1462970774
 10
8.1414963521
 20
6.2206726214
 10
8.1400234363
 20
6.2857292747
 10
8.1385505204
 20
6.3398726153
 10
8.1370776046
 20
6.3817756871
  0
LWPOLYLINE
  5
535
100
AcDbEntity
  8
02___PRT_ALL_AXES
100
AcDbPolyline
 62
7
  6
CONTINUOUS
 90
7
 70
0
 10
8.1532969894
 20
5.9770642775
 10
8.1518240736
 20
6.0644254538
 10
8.1503511577
 20
6.1462970774
 10
8.1488782419
 20
6.2206726214
 10
8.147405326
 20
6.2857292747
 10
8.1459324102
 20
6.3398726153
 10
8.1444594943
 20
6.3817756871
  0
LWPOLYLINE
  5
536
100
AcDbEntity
  8
02___PRT_ALL_AXES
100
AcDbPolyline
 62
7
  6
CONTINUOUS
 90
7
 70
0
 10
8.2049702178
 20
5.9770642775
 10
8.2034973019
 20
6.0644254538
 10
8.2020243861
 20
6.1462970774
 10
8.2005514702
 20
6.2206726214
 10
8.1990785544
 20
6.2857292747
 10
8.1976056385
 20
6.3398726153
 10
8.1961327227
 20
6.3817756871
  0
LWPOLYLINE
  5
537
100
AcDbEntity
  8
02___PRT_ALL_AXES
100
AcDbPolyline
 62
7
  6
CONTINUOUS
 90
7
 70
0
 10
8.2123521075
 20
5.9770642775
 10
8.2108791917
 20
6.0644254538
 10
8.2094062758
 20
6.1462970774
 10
8.20793336
 20
6.2206726214
 10
8.2064604441
 20
6.2857292747
 10
8.2049875283
 20
6.3398726153
 10
8.2035146125
 20
6.3817756871
  0
LINE
  5
538
100
AcDbEntity
  8
02___PRT_ALL_AXES
100
AcDbLine
 62
7
  6
CONTINUOUS
 10
8.1503338472
 20
5.7038099314
 11
8.1459150997
 21
5.9770642775
  0
LINE
  5
539
100
AcDbEntity
  8
02___PRT_ALL_AXES
100
AcDbLine
 62
7
  6
CONTINUOUS
 10
8.157715737
 20
5.7038099314
 11
8.1532969894
 21
5.9770642775
  0
LINE
  5
53A
100
AcDbEntity
  8
02___PRT_ALL_AXES
100
AcDbLine
 62
7
  6
CONTINUOUS
 10
8.2093889653
 20
5.7038099314
 11
8.2049702178
 21
5.9770642775
  0
LINE
  5
53B
100
AcDbEntity
  8
02___PRT_ALL_AXES
100
AcDbLine
 62
7
  6
CONTINUOUS
 10
8.2167708551
 20
5.7038099314
 11
8.2123521075
 21
5.9770642775
  0
LINE
  5
53C
100
AcDbEntity
  8
0
100
AcDbLine
 62
7
  6
CONTINUOUS
 10
8.4281120104
 20
6.0844680183
 11
8.4106736859
 21
6.0542979316
  0
LINE
  5
53D
100
AcDbEntity
  8
0
100
AcDbLine
 62
7
  6
CONTINUOUS
 10
8.4674820891
 20
6.0844680183
 11
8.4500437646
 21
6.0542979316
  0
LINE
  5
53E
100
AcDbEntity
  8
0
100
AcDbLine
 62
7
  6
CONTINUOUS
 10
8.5068521678
 20
6.0844680183
 11
8.4894138434
 21
6.0542979316
  0
LINE
  5
53F
100
AcDbEntity
  8
0
100
AcDbLine
 62
7
  6
CONTINUOUS
 10
8.3735503223
 20
5.5964061906
 11
8.3732721112
 21
5.5961654509
  0
LINE
  5
540
100
AcDbEntity
  8
0
100
AcDbLine
 62
7
  6
CONTINUOUS
 10
8.4129204011
 20
5.5964061906
 11
8.41264219
 21
5.5961654509
  0
LINE
  5
541
100
AcDbEntity
  8
0
100
AcDbLine
 62
7
  6
CONTINUOUS
 10
8.4522904798
 20
5.5964061906
 11
8.4520122687
 21
5.5961654509
  0
LINE
  5
542
100
AcDbEntity
  8
0
100
AcDbLine
 62
7
  6
CONTINUOUS
 10
8.3550221963
 20
6.0834711569
 11
8.3535870718
 21
6.084708758
  0
LINE
  5
543
100
AcDbEntity
  8
0
100
AcDbLine
 62
7
  6
CONTINUOUS
 10
8.3932353617
 20
6.0844680182
 11
8.3929571506
 21
6.084708758
  0
LINE
  5
544
100
AcDbEntity
  8
0
100
AcDbLine
 62
7
  6
CONTINUOUS
 10
8.4326054404
 20
6.0844680182
 11
8.4323272293
 21
6.084708758
  0
LINE
  5
545
100
AcDbEntity
  8
0
100
AcDbLine
 62
7
  6
CONTINUOUS
 10
8.4719755192
 20
6.0844680182
 11
8.4716973081
 21
6.084708758
  0
LINE
  5
546
100
AcDbEntity
  8
0
100
AcDbLine
 62
7
  6
CONTINUOUS
 10
8.4300406079
 20
5.6271265921
 11
8.4477970497
 21
5.5964061906
  0
LINE
  5
547
100
AcDbEntity
  8
0
100
AcDbLine
 62
7
  6
CONTINUOUS
 10
8.4694106866
 20
5.6271265921
 11
8.4871671285
 21
5.5964061906
  0
LINE
  5
548
100
AcDbEntity
  8
0
100
AcDbLine
 62
7
  6
CONTINUOUS
 10
8.5087807654
 20
5.6271265921
 11
8.5265372072
 21
5.5964061906
  0
LWPOLYLINE
  5
549
100
AcDbEntity
  8
0
100
AcDbPolyline
 62
7
  6
CONTINUOUS
 90
10
 70
0
 10
8.3906705292
 20
5.6271265921
 10
8.3904065622
 20
5.6277723256
 10
8.3894011435
 20
5.6336696618
 10
8.3883957248
 20
5.6448791588
 10
8.3873903061
 20
5.6611128281
 10
8.3863848874
 20
5.681953603
 10
8.3853794688
 20
5.7068660529
 10
8.3843740501
 20
5.7352101404
 10
8.3833686314
 20
5.766257664
 10
8.3823632127
 20
5.7992109669
  0
LWPOLYLINE
  5
54A
100
AcDbEntity
  8
0
100
AcDbPolyline
 62
7
  6
CONTINUOUS
 90
9
 70
0
 10
8.3732721112
 20
5.5961654509
 10
8.3722908409
 20
5.5991546843
 10
8.3712971274
 20
5.6081991418
 10
8.3703033257
 20
5.6230738769
 10
8.369321356
 20
5.6431326696
 10
8.3683424117
 20
5.6679437655
 10
8.3673591296
 20
5.6970935184
 10
8.3663827668
 20
5.7295255287
 10
8.3654084323
 20
5.7645698683
  0
LWPOLYLINE
  5
54B
100
AcDbEntity
  8
0
100
AcDbPolyline
 62
7
  6
CONTINUOUS
 90
8
 70
0
 10
8.3614532633
 20
5.9162112313
 10
8.3604785397
 20
5.9512749192
 10
8.3595030987
 20
5.9836845465
 10
8.3585209643
 20
6.0128146671
 10
8.3575423741
 20
6.0376369796
 10
8.3565602338
 20
6.0577224333
 10
8.3555656038
 20
6.0726321497
 10
8.3545703757
 20
6.0817071478
  0
LINE
  5
54C
100
AcDbEntity
  8
0
100
AcDbLine
 62
7
  6
CONTINUOUS
 10
8.3654084323
 20
5.7645698683
 11
8.3614532633
 21
5.9162112313
  0
LINE
  5
54D
100
AcDbEntity
  8
0
100
AcDbLine
 62
9
  6
CONTINUOUS
 10
8.2945319537
 20
5.2990985218
 11
8.2945319537
 21
6.3817756871
  0
LINE
  5
54E
100
AcDbEntity
  8
0
100
AcDbLine
 62
7
  6
CONTINUOUS
 10
8.3339020325
 20
5.3384686005
 11
8.3339020325
 21
6.3424056084
  0
LINE
  5
54F
100
AcDbEntity
  8
0
100
AcDbLine
 62
9
  6
CONTINUOUS
 10
8.3490825752
 20
6.084708758
 11
8.3490825752
 21
5.5961654509
  0
LINE
  5
550
100
AcDbEntity
  8
0
100
AcDbLine
 62
7
  6
CONTINUOUS
 10
8.5462222466
 20
6.0844680183
 11
8.5287839221
 21
6.0542979316
  0
LINE
  5
551
100
AcDbEntity
  8
0
100
AcDbLine
 62
7
  6
CONTINUOUS
 10
8.5855923253
 20
6.0844680183
 11
8.5681540009
 21
6.0542979316
  0
LINE
  5
552
100
AcDbEntity
  8
0
100
AcDbLine
 62
7
  6
CONTINUOUS
 10
8.6249624041
 20
6.0844680183
 11
8.6075240796
 21
6.0542979316
  0
LINE
  5
553
100
AcDbEntity
  8
0
100
AcDbLine
 62
7
  6
CONTINUOUS
 10
8.3735503223
 20
5.5964061906
 11
8.3909886465
 21
5.6265762773
  0
LINE
  5
554
100
AcDbEntity
  8
0
100
AcDbLine
 62
7
  6
CONTINUOUS
 10
8.6643324828
 20
6.0844680183
 11
8.6468941583
 21
6.0542979316
  0
LINE
  5
555
100
AcDbEntity
  8
0
100
AcDbLine
 62
7
  6
CONTINUOUS
 10
8.4916605585
 20
5.5964061906
 11
8.4913823474
 21
5.5961654509
  0
LINE
  5
556
100
AcDbEntity
  8
0
100
AcDbLine
 62
7
  6
CONTINUOUS
 10
8.5310306373
 20
5.5964061906
 11
8.5307524262
 21
5.5961654509
  0
LINE
  5
557
100
AcDbEntity
  8
0
100
AcDbLine
 62
7
  6
CONTINUOUS
 10
8.570400716
 20
5.5964061906
 11
8.5701225049
 21
5.5961654509
  0
LINE
  5
558
100
AcDbEntity
  8
0
100
AcDbLine
 62
7
  6
CONTINUOUS
 10
8.6097707948
 20
5.5964061906
 11
8.6094925837
 21
5.5961654509
  0
LINE
  5
559
100
AcDbEntity
  8
0
100
AcDbLine
 62
7
  6
CONTINUOUS
 10
8.6491408735
 20
5.5964061906
 11
8.6488626624
 21
5.5961654509
  0
LINE
  5
55A
100
AcDbEntity
  8
02___PRT_ALL_AXES
100
AcDbLine
 62
7
  6
CONTINUOUS
 10
7.034689434
 20
6.8246890729
 11
7.5071303789
 21
6.8246890729
  0
LINE
  5
55B
100
AcDbEntity
  8
0
100
AcDbLine
 62
7
  6
CONTINUOUS
 10
8.5113455979
 20
6.0844680182
 11
8.5110673868
 21
6.084708758
  0
LINE
  5
55C
100
AcDbEntity
  8
0
100
AcDbLine
 62
7
  6
CONTINUOUS
 10
8.5507156766
 20
6.0844680182
 11
8.5504374655
 21
6.084708758
  0
LINE
  5
55D
100
AcDbEntity
  8
0
100
AcDbLine
 62
7
  6
CONTINUOUS
 10
8.5900857554
 20
6.0844680182
 11
8.5898075443
 21
6.084708758
  0
LINE
  5
55E
100
AcDbEntity
  8
0
100
AcDbLine
 62
7
  6
CONTINUOUS
 10
8.6294558341
 20
6.0844680182
 11
8.629177623
 21
6.084708758
  0
LINE
  5
55F
100
AcDbEntity
  8
0
100
AcDbLine
 62
7
  6
CONTINUOUS
 10
8.3705958672
 20
6.0566500449
 11
8.3550221963
 21
6.0834711569
  0
LINE
  5
560
100
AcDbEntity
  8
0
100
AcDbLine
 62
7
  6
CONTINUOUS
 10
8.5481508441
 20
5.6271265921
 11
8.565907286
 21
5.5964061906
  0
LINE
  5
561
100
AcDbEntity
  8
0
100
AcDbLine
 62
7
  6
CONTINUOUS
 10
8.5875209229
 20
5.6271265921
 11
8.6052773647
 21
5.5964061906
  0
LINE
  5
562
100
AcDbEntity
  8
0
100
AcDbLine
 62
7
  6
CONTINUOUS
 10
8.3716217248
 20
6.0537476167
 11
8.3538652829
 21
6.0844680182
  0
LINE
  5
563
100
AcDbEntity
  8
0
100
AcDbLine
 62
7
  6
CONTINUOUS
 10
8.6268910016
 20
5.6271265921
 11
8.6446474434
 21
5.5964061906
  0
LINE
  5
564
100
AcDbEntity
  8
0
100
AcDbLine
 62
7
  6
CONTINUOUS
 10
8.4109918035
 20
6.0537476167
 11
8.3932353617
 21
6.0844680182
  0
LWPOLYLINE
  5
565
100
AcDbEntity
  8
0
100
AcDbPolyline
 62
7
  6
CONTINUOUS
 90
10
 70
0
 10
8.4300406079
 20
5.6271265921
 10
8.4296178906
 20
5.6283424883
 10
8.4286124719
 20
5.6350922257
 10
8.4276070532
 20
5.6471175761
 10
8.4266016345
 20
5.6641095907
 10
8.4255962159
 20
5.6856317194
 10
8.4245907972
 20
5.7111310271
 10
8.4235853785
 20
5.7399523988
 10
8.4225799598
 20
5.771355371
 10
8.4215745412
 20
5.8045331549
  0
LWPOLYLINE
  5
566
100
AcDbEntity
  8
0
100
AcDbPolyline
 62
7
  6
CONTINUOUS
 90
10
 70
0
 10
8.4913823474
 20
5.5961654509
 10
8.4904478848
 20
5.5988768225
 10
8.4895015926
 20
5.6070866816
 10
8.4885541311
 20
5.6206284533
 10
8.48761599
 20
5.6389806298
 10
8.4866849083
 20
5.6616526435
 10
8.4857478955
 20
5.6884459332
 10
8.4848149828
 20
5.7184932534
 10
8.4838867737
 20
5.7510680537
 10
8.4829560999
 20
5.7856940313
  0
LWPOLYLINE
  5
567
100
AcDbEntity
  8
0
100
AcDbPolyline
 62
7
  6
CONTINUOUS
 90
9
 70
0
 10
8.41264219
 20
5.5961654509
 10
8.4116602678
 20
5.5991586489
 10
8.4106660568
 20
5.6082130358
 10
8.4096719909
 20
5.6230990263
 10
8.4086899952
 20
5.6431657614
 10
8.407711207
 20
5.6679791952
 10
8.4067283128
 20
5.6971217881
 10
8.4057523086
 20
5.7295441783
 10
8.4047779157
 20
5.7645919289
  0
LWPOLYLINE
  5
568
100
AcDbEntity
  8
0
100
AcDbPolyline
 62
7
  6
CONTINUOUS
 90
9
 70
0
 10
8.4520122687
 20
5.5961654509
 10
8.4510296088
 20
5.5991631389
 10
8.4500348458
 20
5.6082286361
 10
8.4490404624
 20
5.6231276332
 10
8.4480583912
 20
5.6432044553
 10
8.4470797031
 20
5.668022895
 10
8.4460971437
 20
5.6971611869
 10
8.4451214139
 20
5.7295779913
 10
8.4441469105
 20
5.7646320987
  0
LWPOLYLINE
  5
569
100
AcDbEntity
  8
0
100
AcDbPolyline
 62
7
  6
CONTINUOUS
 90
9
 70
0
 10
8.4694106866
 20
5.6271265921
 10
8.468829219
 20
5.6290487838
 10
8.4678238003
 20
5.6366465901
 10
8.4668183816
 20
5.6494800755
 10
8.465812963
 20
5.6672195289
 10
8.4648075443
 20
5.6894091977
 10
8.4638021256
 20
5.7154789963
 10
8.4627967069
 20
5.7447591533
 10
8.4617912883
 20
5.7764974181
  0
LWPOLYLINE
  5
56A
100
AcDbEntity
  8
0
100
AcDbPolyline
 62
7
  6
CONTINUOUS
 90
9
 70
0
 10
8.4185582851
 20
5.90609553
 10
8.4175528664
 20
5.9377242837
 10
8.4165474478
 20
5.9668535861
 10
8.4155420291
 20
5.9927350624
 10
8.4145366104
 20
6.0147037793
 10
8.4135311917
 20
6.0321953281
 10
8.4125257731
 20
6.0447603249
 10
8.4115203544
 20
6.0520759565
 10
8.4109918035
 20
6.0537476167
  0
LWPOLYLINE
  5
56B
100
AcDbEntity
  8
0
100
AcDbPolyline
 62
7
  6
CONTINUOUS
 90
9
 70
0
 10
8.3793469567
 20
5.9009257548
 10
8.378341538
 20
5.9328762434
 10
8.3773361193
 20
5.9624518341
 10
8.3763307007
 20
5.9888926861
 10
8.375325282
 20
6.0115194951
 10
8.3743198633
 20
6.0297509449
 10
8.3733144446
 20
6.0431186426
 10
8.372309026
 20
6.0512791523
 10
8.3716217248
 20
6.0537476167
  0
LWPOLYLINE
  5
56C
100
AcDbEntity
  8
0
100
AcDbPolyline
 62
7
  6
CONTINUOUS
 90
8
 70
0
 10
8.4782589879
 20
5.9625729312
 10
8.4773273328
 20
5.9925633486
 10
8.4763913383
 20
6.019312092
 10
8.4754610592
 20
6.0419510222
 10
8.4745238316
 20
6.0602745328
 10
8.4735770644
 20
6.0737990335
 10
8.4726313227
 20
6.0819999807
 10
8.4719755192
 20
6.0844680182
  0
LWPOLYLINE
  5
56D
100
AcDbEntity
  8
0
100
AcDbPolyline
 62
7
  6
CONTINUOUS
 90
10
 70
0
 10
8.4587750322
 20
5.8781178462
 10
8.4577696135
 20
5.9112231624
 10
8.4567641949
 20
5.9425098802
 10
8.4557587762
 20
5.9711741978
 10
8.4547533575
 20
5.9964796864
 10
8.4537479388
 20
6.0177762106
 10
8.4527425202
 20
6.0345166314
 10
8.4517371015
 20
6.0462708625
 10
8.4507316828
 20
6.0527369205
 10
8.4503618822
 20
6.0537476167
  0
LINE
  5
56E
100
AcDbEntity
  8
0
100
AcDbLine
 62
7
  6
CONTINUOUS
 10
8.3823632127
 20
5.7992109669
 11
8.3793469567
 21
5.9009257548
  0
LINE
  5
56F
100
AcDbEntity
  8
0
100
AcDbLine
 62
7
  6
CONTINUOUS
 10
8.4215745412
 20
5.8045331549
 11
8.4185582851
 21
5.90609553
  0
LINE
  5
570
100
AcDbEntity
  8
0
100
AcDbLine
 62
7
  6
CONTINUOUS
 10
8.4617912883
 20
5.7764974181
 11
8.4587750322
 21
5.8781178462
  0
LWPOLYLINE
  5
571
100
AcDbEntity
  8
0
100
AcDbPolyline
 62
7
  6
CONTINUOUS
 90
9
 70
0
 10
8.4008415031
 20
5.7645698683
 10
8.4018158376
 20
5.7295255287
 10
8.4027922005
 20
5.6970935184
 10
8.4037754826
 20
5.6679437655
 10
8.4047544269
 20
5.6431326696
 10
8.4057363966
 20
5.6230738769
 10
8.4067301983
 20
5.6081991418
 10
8.4077239117
 20
5.5991546843
 10
8.408426971
 20
5.5964061906
  0
LWPOLYLINE
  5
572
100
AcDbEntity
  8
0
100
AcDbPolyline
 62
7
  6
CONTINUOUS
 90
9
 70
0
 10
8.4008229563
 20
5.9162255285
 10
8.3998483959
 20
5.9512826519
 10
8.3988727838
 20
5.983696976
 10
8.3978903683
 20
6.012833303
 10
8.3969117194
 20
6.0376538512
 10
8.3959296499
 20
6.057734236
 10
8.3949351694
 20
6.0726383608
 10
8.3939401644
 20
6.0817089146
 10
8.3932353617
 20
6.0844680182
  0
LWPOLYLINE
  5
573
100
AcDbEntity
  8
0
100
AcDbPolyline
 62
7
  6
CONTINUOUS
 90
9
 70
0
 10
8.4402109865
 20
5.7645919289
 10
8.4411853795
 20
5.7295441783
 10
8.4421613837
 20
5.6971217881
 10
8.4431442779
 20
5.6679791952
 10
8.4441230661
 20
5.6431657614
 10
8.4451050617
 20
5.6230990263
 10
8.4460991277
 20
5.6082130358
 10
8.4470933386
 20
5.5991586489
 10
8.4477970497
 20
5.5964061906
  0
LWPOLYLINE
  5
574
100
AcDbEntity
  8
0
100
AcDbPolyline
 62
7
  6
CONTINUOUS
 90
9
 70
0
 10
8.4401919466
 20
5.9162658641
 10
8.4392174949
 20
5.9513166859
 10
8.4382416205
 20
5.9837361921
 10
8.4372588678
 20
6.012876915
 10
8.4362801156
 20
6.0376925487
 10
8.4352981183
 20
6.0577629042
 10
8.4343039521
 20
6.0726540428
 10
8.4333094957
 20
6.0817134653
 10
8.4326054404
 20
6.0844680182
  0
LWPOLYLINE
  5
575
100
AcDbEntity
  8
0
100
AcDbPolyline
 62
7
  6
CONTINUOUS
 90
9
 70
0
 10
8.4795799813
 20
5.7646320987
 10
8.4805544848
 20
5.7295779913
 10
8.4815302145
 20
5.6971611869
 10
8.482512774
 20
5.668022895
 10
8.4834914621
 20
5.6432044553
 10
8.4844735333
 20
5.6231276332
 10
8.4854679167
 20
5.6082286361
 10
8.4864626797
 20
5.5991631389
 10
8.4871671285
 20
5.5964061906
  0
LWPOLYLINE
  5
576
100
AcDbEntity
  8
0
100
AcDbPolyline
 62
7
  6
CONTINUOUS
 90
3
 70
0
 10
8.4801183577
 20
5.8953776384
 10
8.4791877081
 20
5.9299938327
 10
8.4782589879
 20
5.9625729312
  0
LINE
  5
577
100
AcDbEntity
  8
0
100
AcDbLine
 62
7
  6
CONTINUOUS
 10
8.3968863342
 20
5.9162112313
 11
8.4008415031
 21
5.7645698683
  0
LINE
  5
578
100
AcDbEntity
  8
0
100
AcDbLine
 62
7
  6
CONTINUOUS
 10
8.4047779157
 20
5.7645919289
 11
8.4008229563
 21
5.9162255285
  0
LINE
  5
579
100
AcDbEntity
  8
0
100
AcDbLine
 62
7
  6
CONTINUOUS
 10
8.4362560271
 20
5.9162255285
 11
8.4402109865
 21
5.7645919289
  0
LINE
  5
57A
100
AcDbEntity
  8
0
100
AcDbLine
 62
7
  6
CONTINUOUS
 10
8.4441469105
 20
5.7646320987
 11
8.4401919466
 21
5.9162658641
  0
LINE
  5
57B
100
AcDbEntity
  8
0
100
AcDbLine
 62
7
  6
CONTINUOUS
 10
8.4756250175
 20
5.9162658641
 11
8.4795799813
 21
5.7646320987
  0
LINE
  5
57C
100
AcDbEntity
  8
0
100
AcDbLine
 62
7
  6
CONTINUOUS
 10
8.4829560999
 20
5.7856940313
 11
8.4801183577
 21
5.8953776384
  0
LINE
  5
57D
100
AcDbEntity
  8
0
100
AcDbLine
 62
7
  6
CONTINUOUS
 10
8.4129204011
 20
5.5964061906
 11
8.4303587253
 21
5.6265762773
  0
LINE
  5
57E
100
AcDbEntity
  8
0
100
AcDbLine
 62
7
  6
CONTINUOUS
 10
8.6994758484
 20
6.0771545734
 11
8.6862642371
 21
6.0542979316
  0
LINE
  5
57F
100
AcDbEntity
  8
0
100
AcDbLine
 62
7
  6
CONTINUOUS
 10
8.4522904798
 20
5.5964061906
 11
8.469728804
 21
5.6265762773
  0
LINE
  5
580
100
AcDbEntity
  8
0
100
AcDbLine
 62
7
  6
CONTINUOUS
 10
8.4916605585
 20
5.5964061906
 11
8.5090988828
 21
5.6265762773
  0
LINE
  5
581
100
AcDbEntity
  8
0
100
AcDbLine
 62
7
  6
CONTINUOUS
 10
8.5310306373
 20
5.5964061906
 11
8.5484689615
 21
5.6265762773
  0
LINE
  5
582
100
AcDbEntity
  8
0
100
AcDbLine
 62
7
  6
CONTINUOUS
 10
8.7276028437
 20
5.6315984979
 11
8.7121374716
 21
5.6161331223
  0
LINE
  5
583
100
AcDbEntity
  8
0
100
AcDbLine
 62
7
  6
CONTINUOUS
 10
8.6685477018
 20
6.084708758
 11
8.6688259129
 21
6.0844680182
  0
LINE
  5
584
100
AcDbEntity
  8
0
100
AcDbLine
 62
7
  6
CONTINUOUS
 10
8.7276028437
 20
6.0492757109
 11
8.6996576577
 21
6.0772209033
  0
LINE
  5
585
100
AcDbEntity
  8
0
100
AcDbLine
 62
7
  6
CONTINUOUS
 10
8.6662610803
 20
5.6271265921
 11
8.6840175222
 21
5.5964061906
  0
LINE
  5
586
100
AcDbEntity
  8
0
100
AcDbLine
 62
7
  6
CONTINUOUS
 10
8.4503618822
 20
6.0537476167
 11
8.4326054404
 21
6.0844680182
  0
LINE
  5
587
100
AcDbEntity
  8
0
100
AcDbLine
 62
7
  6
CONTINUOUS
 10
8.7056311591
 20
5.6271265921
 11
8.7119455786
 21
5.6162031052
  0
LINE
  5
588
100
AcDbEntity
  8
0
100
AcDbLine
 62
7
  6
CONTINUOUS
 10
8.489731961
 20
6.0537476167
 11
8.4719755192
 21
6.0844680182
  0
LINE
  5
589
100
AcDbEntity
  8
0
100
AcDbLine
 62
7
  6
CONTINUOUS
 10
8.5291020397
 20
6.0537476167
 11
8.5113455979
 21
6.0844680182
  0
LWPOLYLINE
  5
58A
100
AcDbEntity
  8
0
100
AcDbPolyline
 62
7
  6
CONTINUOUS
 90
8
 70
0
 10
8.6268910016
 20
5.6271265921
 10
8.6266596921
 20
5.6276719517
 10
8.62565765
 20
5.6333652098
 10
8.6246556078
 20
5.644342854
 10
8.6236535657
 20
5.6603247395
 10
8.6226515236
 20
5.6809030155
 10
8.6216494814
 20
5.7055525332
 10
8.6206474393
 20
5.7336442474
  0
LWPOLYLINE
  5
58B
100
AcDbEntity
  8
0
100
AcDbPolyline
 62
7
  6
CONTINUOUS
 90
8
 70
0
 10
8.6094925837
 20
5.5961654509
 10
8.6085589966
 20
5.5988717535
 10
8.6076135653
 20
5.6070666761
 10
8.6066669099
 20
5.6205852353
 10
8.6057297346
 20
5.6389033123
 10
8.6047991826
 20
5.6615454133
 10
8.6038629054
 20
5.6883002908
 10
8.6029309039
 20
5.7183012777
  0
LWPOLYLINE
  5
58C
100
AcDbEntity
  8
0
100
AcDbPolyline
 62
7
  6
CONTINUOUS
 90
9
 70
0
 10
8.5307524262
 20
5.5961654509
 10
8.5297706245
 20
5.5991579158
 10
8.5287765062
 20
5.6082104584
 10
8.5277824938
 20
5.6230942802
 10
8.5268005114
 20
5.6431593248
 10
8.5258217072
 20
5.6679719081
 10
8.5248387578
 20
5.697115197
 10
8.5238627052
 20
5.7295386071
 10
8.5228883314
 20
5.7645852781
  0
LWPOLYLINE
  5
58D
100
AcDbEntity
  8
0
100
AcDbPolyline
 62
7
  6
CONTINUOUS
 90
9
 70
0
 10
8.5701225049
 20
5.5961654509
 10
8.5691399697
 20
5.5991623796
 10
8.5681452983
 20
5.6082260198
 10
8.5671509673
 20
5.6231228498
 10
8.5661689082
 20
5.6431979975
 10
8.565190203
 20
5.6680156145
 10
8.5642075873
 20
5.697154638
 10
8.5632318137
 20
5.7295723098
 10
8.5622573282
 20
5.7646253721
  0
LWPOLYLINE
  5
58E
100
AcDbEntity
  8
0
100
AcDbPolyline
 62
7
  6
CONTINUOUS
 90
9
 70
0
 10
8.4677603002
 20
6.084708758
 10
8.4687425666
 20
6.0817134653
 10
8.4697370229
 20
6.0726540428
 10
8.4707311892
 20
6.0577629042
 10
8.4717131864
 20
6.0376925487
 10
8.4726919386
 20
6.012876915
 10
8.4736746914
 20
5.9837361921
 10
8.4746505657
 20
5.9513166859
 10
8.4756250175
 20
5.9162658641
  0
LWPOLYLINE
  5
58F
100
AcDbEntity
  8
0
100
AcDbPolyline
 62
7
  6
CONTINUOUS
 90
9
 70
0
 10
8.3890201427
 20
6.084708758
 10
8.3900034466
 20
6.0817071478
 10
8.3909986747
 20
6.0726321497
 10
8.3919933047
 20
6.0577224333
 10
8.392975445
 20
6.0376369796
 10
8.3939540352
 20
6.0128146671
 10
8.3949361696
 20
5.9836845465
 10
8.3959116106
 20
5.9512749192
 10
8.3968863342
 20
5.9162112313
  0
LWPOLYLINE
  5
590
100
AcDbEntity
  8
0
100
AcDbPolyline
 62
7
  6
CONTINUOUS
 90
9
 70
0
 10
8.4283902215
 20
6.084708758
 10
8.4293732353
 20
6.0817089146
 10
8.4303682403
 20
6.0726383608
 10
8.4313627207
 20
6.057734236
 10
8.4323447903
 20
6.0376538512
 10
8.4333234392
 20
6.012833303
 10
8.4343058547
 20
5.983696976
 10
8.4352814667
 20
5.9512826519
 10
8.4362560271
 20
5.9162255285
  0
LINE
  5
591
100
AcDbEntity
  8
0
100
AcDbLine
 62
7
  6
CONTINUOUS
 10
8.3713036073
 20
6.0540228185
 11
8.3705958672
 21
6.0566500449
  0
LWPOLYLINE
  5
592
100
AcDbEntity
  8
0
100
AcDbPolyline
 62
7
  6
CONTINUOUS
 90
9
 70
0
 10
8.5087807654
 20
5.6271265921
 10
8.5080405474
 20
5.6298907588
 10
8.5070351287
 20
5.6383317573
 10
8.5060297101
 20
5.6519651405
 10
8.5050242914
 20
5.6704406468
 10
8.5040188727
 20
5.6932836131
 10
8.503013454
 20
5.7199071698
 10
8.5020080354
 20
5.7496273185
 10
8.5010026167
 20
5.7816805048
  0
LINE
  5
593
100
AcDbEntity
  8
0
100
AcDbLine
 62
7
  6
CONTINUOUS
 10
8.3545703757
 20
6.0817071478
 11
8.3538652829
 21
6.0844680182
  0
LWPOLYLINE
  5
594
100
AcDbEntity
  8
0
100
AcDbPolyline
 62
7
  6
CONTINUOUS
 90
9
 70
0
 10
8.5481508441
 20
5.6271265921
 10
8.5472518758
 20
5.6308678728
 10
8.5462464572
 20
5.6401466457
 10
8.5452410385
 20
5.6545711762
 10
8.5442356198
 20
5.6737708768
 10
8.5432302011
 20
5.6972524789
 10
8.5422247825
 20
5.7244127054
 10
8.5412193638
 20
5.75455377
 10
8.5402139451
 20
5.7869013044
  0
LWPOLYLINE
  5
595
100
AcDbEntity
  8
0
100
AcDbPolyline
 62
7
  6
CONTINUOUS
 90
8
 70
0
 10
8.4959755233
 20
5.9472299614
 10
8.4949701046
 20
5.9754108959
 10
8.4939646859
 20
6.0001241544
 10
8.4929592673
 20
6.0207348168
 10
8.4919538486
 20
6.0367133648
 10
8.4909484299
 20
6.0476492858
 10
8.4899430112
 20
6.0532616199
 10
8.489731961
 20
6.0537476167
  0
LWPOLYLINE
  5
596
100
AcDbEntity
  8
0
100
AcDbPolyline
 62
7
  6
CONTINUOUS
 90
9
 70
0
 10
8.5764090175
 20
5.8939729045
 10
8.5754035988
 20
5.9263204388
 10
8.5743981801
 20
5.9564615035
 10
8.5733927615
 20
5.98362173
 10
8.5723873428
 20
6.0071033321
 10
8.5713819241
 20
6.0263030327
 10
8.5703765054
 20
6.0407275632
 10
8.5693710867
 20
6.050006336
 10
8.5684721185
 20
6.0537476167
  0
LWPOLYLINE
  5
597
100
AcDbEntity
  8
0
100
AcDbPolyline
 62
7
  6
CONTINUOUS
 90
9
 70
0
 10
8.5371976891
 20
5.888717743
 10
8.5361922704
 20
5.9213388632
 10
8.5351868517
 20
5.9518814977
 10
8.534181433
 20
5.9795609613
 10
8.5331760144
 20
6.0036661275
 10
8.5321705957
 20
6.0235776991
 10
8.531165177
 20
6.0387841184
 10
8.5301597583
 20
6.0488947101
 10
8.5291020397
 20
6.0537476167
  0
LWPOLYLINE
  5
598
100
AcDbEntity
  8
0
100
AcDbPolyline
 62
7
  6
CONTINUOUS
 90
3
 70
0
 10
8.4979863606
 20
5.8834315926
 10
8.496980942
 20
5.9163053608
 10
8.4959755233
 20
5.9472299614
  0
LINE
  5
599
100
AcDbEntity
  8
0
100
AcDbLine
 62
7
  6
CONTINUOUS
 10
8.5010026167
 20
5.7816805048
 11
8.4979863606
 21
5.8834315926
  0
LINE
  5
59A
100
AcDbEntity
  8
0
100
AcDbLine
 62
7
  6
CONTINUOUS
 10
8.5402139451
 20
5.7869013044
 11
8.5371976891
 21
5.888717743
  0
LINE
  5
59B
100
AcDbEntity
  8
0
100
AcDbLine
 62
7
  6
CONTINUOUS
 10
8.5794252735
 20
5.7921564659
 11
8.5764090175
 21
5.8939729045
  0
LWPOLYLINE
  5
59C
100
AcDbEntity
  8
0
100
AcDbPolyline
 62
7
  6
CONTINUOUS
 90
3
 70
0
 10
8.5136920587
 20
5.9625729312
 10
8.514620779
 20
5.9299938327
 10
8.5155514286
 20
5.8953776384
  0
LWPOLYLINE
  5
59D
100
AcDbEntity
  8
0
100
AcDbPolyline
 62
7
  6
CONTINUOUS
 90
3
 70
0
 10
8.6029309039
 20
5.7183012777
 10
8.6020023197
 20
5.7508754386
 10
8.6010717774
 20
5.7854873261
  0
LWPOLYLINE
  5
59E
100
AcDbEntity
  8
0
100
AcDbPolyline
 62
7
  6
CONTINUOUS
 90
9
 70
0
 10
8.5189333751
 20
5.9162187623
 10
8.5179587972
 20
5.9512769156
 10
8.5169832262
 20
5.983690465
 10
8.5160008676
 20
6.0128260387
 10
8.5150222366
 20
6.0376473896
 10
8.5140401556
 20
6.0577294365
 10
8.5130456235
 20
6.0726357247
 10
8.5120505276
 20
6.0817081409
 10
8.5113455979
 20
6.0844680182
  0
LWPOLYLINE
  5
59F
100
AcDbEntity
  8
0
100
AcDbPolyline
 62
7
  6
CONTINUOUS
 90
9
 70
0
 10
8.5583214022
 20
5.7645852781
 10
8.5592957761
 20
5.7295386071
 10
8.5602718287
 20
5.697115197
 10
8.5612547781
 20
5.6679719081
 10
8.5622335823
 20
5.6431593248
 10
8.5632155647
 20
5.6230942802
 10
8.5642095771
 20
5.6082104584
 10
8.5652036954
 20
5.5991579158
 10
8.565907286
 20
5.5964061906
  0
LWPOLYLINE
  5
5A0
100
AcDbEntity
  8
0
100
AcDbPolyline
 62
7
  6
CONTINUOUS
 90
9
 70
0
 10
8.5583023634
 20
5.9162591726
 10
8.5573278931
 20
5.9513110593
 10
8.5563520643
 20
5.9837296382
 10
8.5553693674
 20
6.0128696432
 10
8.5543906319
 20
6.0376861077
 10
8.5534086221
 20
6.0577581415
 10
8.552414403
 20
6.0726514452
 10
8.5514198548
 20
6.0817127177
 10
8.5507156766
 20
6.0844680182
  0
LWPOLYLINE
  5
5A1
100
AcDbEntity
  8
0
100
AcDbPolyline
 62
7
  6
CONTINUOUS
 90
9
 70
0
 10
8.597690399
 20
5.7646253721
 10
8.5986648846
 20
5.7295723098
 10
8.5996406582
 20
5.697154638
 10
8.6006232739
 20
5.6680156145
 10
8.6016019791
 20
5.6431979975
 10
8.6025840382
 20
5.6231228498
 10
8.6035783691
 20
5.6082260198
 10
8.6045730406
 20
5.5991623796
 10
8.6052773647
 20
5.5964061906
  0
LWPOLYLINE
  5
5A2
100
AcDbEntity
  8
0
100
AcDbPolyline
 62
7
  6
CONTINUOUS
 90
10
 70
0
 10
8.5183891708
 20
5.7856940313
 10
8.5193198446
 20
5.7510680537
 10
8.5202480537
 20
5.7184932534
 10
8.5211809663
 20
5.6884459332
 10
8.5221179792
 20
5.6616526435
 10
8.5230490609
 20
5.6389806298
 10
8.5239872019
 20
5.6206284533
 10
8.5249346635
 20
5.6070866816
 10
8.5258809557
 20
5.5988768225
 10
8.5265372072
 20
5.5964061906
  0
LWPOLYLINE
  5
5A3
100
AcDbEntity
  8
0
100
AcDbPolyline
 62
7
  6
CONTINUOUS
 90
10
 70
0
 10
8.5982341432
 20
5.8951668273
 10
8.5973035023
 20
5.9297922115
 10
8.5963752712
 20
5.9623687152
 10
8.5954427009
 20
5.9924067694
 10
8.5945059318
 20
6.0191963701
 10
8.593574989
 20
6.0418696055
 10
8.5926367995
 20
6.060228088
 10
8.5916891658
 20
6.0737775353
 10
8.5907424994
 20
6.081994533
 10
8.5900857554
 20
6.0844680182
  0
LINE
  5
5A4
100
AcDbEntity
  8
0
100
AcDbLine
 62
7
  6
CONTINUOUS
 10
8.5155514286
 20
5.8953776384
 11
8.5183891708
 21
5.7856940313
  0
LINE
  5
5A5
100
AcDbEntity
  8
0
100
AcDbLine
 62
7
  6
CONTINUOUS
 10
8.5228883314
 20
5.7645852781
 11
8.5189333751
 21
5.9162187623
  0
LINE
  5
5A6
100
AcDbEntity
  8
0
100
AcDbLine
 62
7
  6
CONTINUOUS
 10
8.5543664459
 20
5.9162187623
 11
8.5583214022
 21
5.7645852781
  0
LINE
  5
5A7
100
AcDbEntity
  8
0
100
AcDbLine
 62
7
  6
CONTINUOUS
 10
8.5622573282
 20
5.7646253721
 11
8.5583023634
 21
5.9162591726
  0
LINE
  5
5A8
100
AcDbEntity
  8
0
100
AcDbLine
 62
7
  6
CONTINUOUS
 10
8.5937354342
 20
5.9162591726
 11
8.597690399
 21
5.7646253721
  0
LINE
  5
5A9
100
AcDbEntity
  8
0
100
AcDbLine
 62
7
  6
CONTINUOUS
 10
8.6010717774
 20
5.7854873261
 11
8.5982341432
 21
5.8951668273
  0
LINE
  5
5AA
100
AcDbEntity
  8
0
100
AcDbLine
 62
7
  6
CONTINUOUS
 10
8.570400716
 20
5.5964061906
 11
8.5878390402
 21
5.6265762773
  0
LINE
  5
5AB
100
AcDbEntity
  8
0
100
AcDbLine
 62
7
  6
CONTINUOUS
 10
8.6097707948
 20
5.5964061906
 11
8.627209119
 21
5.6265762773
  0
LINE
  5
5AC
100
AcDbEntity
  8
0
100
AcDbLine
 62
7
  6
CONTINUOUS
 10
8.6491408735
 20
5.5964061906
 11
8.6665791977
 21
5.6265762773
  0
LINE
  5
5AD
100
AcDbEntity
  8
0
100
AcDbLine
 62
7
  6
CONTINUOUS
 10
8.5684721185
 20
6.0537476167
 11
8.5507156766
 21
6.0844680182
  0
LINE
  5
5AE
100
AcDbEntity
  8
0
100
AcDbLine
 62
7
  6
CONTINUOUS
 10
8.6078421972
 20
6.0537476167
 11
8.5900857554
 21
6.0844680182
  0
LINE
  5
5AF
100
AcDbEntity
  8
0
100
AcDbLine
 62
7
  6
CONTINUOUS
 10
8.6472122759
 20
6.0537476167
 11
8.6294558341
 21
6.0844680182
  0
LINE
  5
5B0
100
AcDbEntity
  8
0
100
AcDbLine
 62
7
  6
CONTINUOUS
 10
8.6865823547
 20
6.0537476167
 11
8.6688259129
 21
6.0844680182
  0
LWPOLYLINE
  5
5B1
100
AcDbEntity
  8
0
100
AcDbPolyline
 62
7
  6
CONTINUOUS
 90
8
 70
0
 10
8.5071303789
 20
6.084708758
 10
8.5080643935
 20
6.0819999807
 10
8.5090101352
 20
6.0737990335
 10
8.5099569025
 20
6.0602745328
 10
8.5108941301
 20
6.0419510222
 10
8.5118244092
 20
6.019312092
 10
8.5127604037
 20
5.9925633486
 10
8.5136920587
 20
5.9625729312
  0
LWPOLYLINE
  5
5B2
100
AcDbEntity
  8
0
100
AcDbPolyline
 62
7
  6
CONTINUOUS
 90
10
 70
0
 10
8.6840175222
 20
5.5964061906
 10
8.6836180711
 20
5.5975926134
 10
8.6826676973
 20
5.6043643146
 10
8.6817173236
 20
5.6165563889
 10
8.6807669644
 20
5.6338885972
 10
8.6798166147
 20
5.6559628961
 10
8.6788662639
 20
5.6822726537
 10
8.6779159152
 20
5.7122137159
 10
8.6769655726
 20
5.7450984921
 10
8.6760152266
 20
5.7801722866
  0
LWPOLYLINE
  5
5B3
100
AcDbEntity
  8
0
100
AcDbPolyline
 62
7
  6
CONTINUOUS
 90
9
 70
0
 10
8.6488626624
 20
5.5961654509
 10
8.6478809783
 20
5.5991572007
 10
8.6468869506
 20
5.6082079418
 10
8.6458929897
 20
5.6230896595
 10
8.6449110187
 20
5.6431530934
 10
8.6439321963
 20
5.6679649259
 10
8.6429491898
 20
5.697109018
 10
8.6419730859
 20
5.7295335886
 10
8.6409987292
 20
5.7645792903
  0
LWPOLYLINE
  5
5B4
100
AcDbEntity
  8
0
100
AcDbPolyline
 62
7
  6
CONTINUOUS
 90
9
 70
0
 10
8.5858705364
 20
6.084708758
 10
8.5868529256
 20
6.0817127177
 10
8.5878474739
 20
6.0726514452
 10
8.588841693
 20
6.0577581415
 10
8.5898237028
 20
6.0376861077
 10
8.5908024382
 20
6.0128696432
 10
8.5917851352
 20
5.9837296382
 10
8.5927609639
 20
5.9513110593
 10
8.5937354342
 20
5.9162591726
  0
LWPOLYLINE
  5
5B5
100
AcDbEntity
  8
0
100
AcDbPolyline
 62
7
  6
CONTINUOUS
 90
9
 70
0
 10
8.5465004577
 20
6.084708758
 10
8.5474835985
 20
6.0817081409
 10
8.5484786943
 20
6.0726357247
 10
8.5494732265
 20
6.0577294365
 10
8.5504553074
 20
6.0376473896
 10
8.5514339384
 20
6.0128260387
 10
8.5524162971
 20
5.983690465
 10
8.5533918681
 20
5.9512769156
 10
8.5543664459
 20
5.9162187623
  0
LWPOLYLINE
  5
5B6
100
AcDbEntity
  8
0
100
AcDbPolyline
 62
7
  6
CONTINUOUS
 90
9
 70
0
 10
8.6662610803
 20
5.6271265921
 10
8.6657393354
 20
5.628767125
 10
8.6647372933
 20
5.6360130485
 10
8.6637352512
 20
5.6484757865
 10
8.662733209
 20
5.6658372952
 10
8.6617311669
 20
5.6876545163
 10
8.6607291248
 20
5.7133706836
 10
8.6597270826
 20
5.7423295316
 10
8.6587250405
 20
5.7737920429
  0
LWPOLYLINE
  5
5B7
100
AcDbEntity
  8
0
100
AcDbPolyline
 62
7
  6
CONTINUOUS
 90
9
 70
0
 10
8.7056311591
 20
5.6271265921
 10
8.7048189788
 20
5.6303169803
 10
8.7038169366
 20
5.6391000046
 10
8.7028148945
 20
5.6530210655
 10
8.7018128524
 20
5.6717249036
 10
8.7008108102
 20
5.6947342048
 10
8.6998087681
 20
5.7214617816
 10
8.698806726
 20
5.7512255578
 10
8.6978046838
 20
5.7832659745
  0
LWPOLYLINE
  5
5B8
100
AcDbEntity
  8
0
100
AcDbPolyline
 62
7
  6
CONTINUOUS
 90
9
 70
0
 10
8.5875209229
 20
5.6271265921
 10
8.5864632043
 20
5.6319794987
 10
8.5854577856
 20
5.6420900904
 10
8.5844523669
 20
5.6572965098
 10
8.5834469482
 20
5.6772080814
 10
8.5824415296
 20
5.7013132476
 10
8.5814361109
 20
5.7289927111
 10
8.5804306922
 20
5.7595353457
 10
8.5794252735
 20
5.7921564659
  0
LWPOLYLINE
  5
5B9
100
AcDbEntity
  8
0
100
AcDbPolyline
 62
7
  6
CONTINUOUS
 90
3
 70
0
 10
8.6206474393
 20
5.7336442474
 10
8.6196420206
 20
5.7645688481
 10
8.6186366019
 20
5.7974426163
  0
LWPOLYLINE
  5
5BA
100
AcDbEntity
  8
0
100
AcDbPolyline
 62
7
  6
CONTINUOUS
 90
9
 70
0
 10
8.6547168719
 20
5.9080996283
 10
8.6537148298
 20
5.9394954949
 10
8.6527127877
 20
5.9683634338
 10
8.6517107455
 20
5.9939667474
 10
8.6507087034
 20
6.0156520503
 10
8.6497066613
 20
6.0328659428
 10
8.6487046191
 20
6.0451691337
 10
8.647702577
 20
6.0522476508
 10
8.6472122759
 20
6.0537476167
  0
LWPOLYLINE
  5
5BB
100
AcDbEntity
  8
0
100
AcDbPolyline
 62
7
  6
CONTINUOUS
 90
9
 70
0
 10
8.6156203459
 20
5.8991937041
 10
8.6146149272
 20
5.9312468903
 10
8.6136095086
 20
5.960967039
 10
8.6126040899
 20
5.9875905958
 10
8.6115986712
 20
6.0104335621
 10
8.6105932525
 20
6.0289090683
 10
8.6095878338
 20
6.0425424516
 10
8.6085824152
 20
6.05098345
 10
8.6078421972
 20
6.0537476167
  0
LWPOLYLINE
  5
5BC
100
AcDbEntity
  8
0
100
AcDbPolyline
 62
7
  6
CONTINUOUS
 90
8
 70
0
 10
8.6383639747
 20
5.7183012777
 10
8.6392959763
 20
5.6883002908
 10
8.6402322535
 20
5.6615454133
 10
8.6411628055
 20
5.6389033123
 10
8.6420999808
 20
5.6205852353
 10
8.6430466361
 20
5.6070666761
 10
8.6439920674
 20
5.5988717535
 10
8.6446474434
 20
5.5964061906
  0
LWPOLYLINE
  5
5BD
100
AcDbEntity
  8
0
100
AcDbPolyline
 62
7
  6
CONTINUOUS
 90
10
 70
0
 10
8.6947985574
 20
5.8847061435
 10
8.6937965153
 20
5.9174136943
 10
8.6927944731
 20
5.9481568355
 10
8.691792431
 20
5.9761510153
 10
8.6907903889
 20
6.0006818342
 10
8.6897883467
 20
6.0211232761
 10
8.6887863046
 20
6.0369536843
 10
8.6877842625
 20
6.0477690734
 10
8.6867822203
 20
6.0532934395
 10
8.6865823547
 20
6.0537476167
  0
LINE
  5
5BE
100
AcDbEntity
  8
0
100
AcDbLine
 62
7
  6
CONTINUOUS
 10
8.6186366019
 20
5.7974426163
 11
8.6156203459
 21
5.8991937041
  0
LWPOLYLINE
  5
5BF
100
AcDbEntity
  8
0
100
AcDbPolyline
 62
7
  6
CONTINUOUS
 90
3
 70
0
 10
8.6587250405
 20
5.7737920429
 10
8.6567209562
 20
5.8409730134
 10
8.6547168719
 20
5.9080996283
  0
LINE
  5
5C0
100
AcDbEntity
  8
0
100
AcDbLine
 62
7
  6
CONTINUOUS
 10
8.6978046838
 20
5.7832659745
 11
8.6947985574
 21
5.8847061435
  0
LWPOLYLINE
  5
5C1
100
AcDbEntity
  8
0
100
AcDbPolyline
 62
7
  6
CONTINUOUS
 90
9
 70
0
 10
8.6370437679
 20
5.9162129594
 10
8.6360691705
 20
5.9512721539
 10
8.6350936375
 20
5.9836849386
 10
8.6341113335
 20
6.0128196941
 10
8.6331327187
 20
6.0376417331
 10
8.6321506263
 20
6.0577252599
 10
8.6311560485
 20
6.0726334386
 10
8.630160874
 20
6.0817074702
 10
8.6294558341
 20
6.0844680182
  0
LWPOLYLINE
  5
5C2
100
AcDbEntity
  8
0
100
AcDbPolyline
 62
7
  6
CONTINUOUS
 90
3
 70
0
 10
8.6365048482
 20
5.7854873261
 10
8.6374353906
 20
5.7508754386
 10
8.6383639747
 20
5.7183012777
  0
LWPOLYLINE
  5
5C3
100
AcDbEntity
  8
0
100
AcDbPolyline
 62
7
  6
CONTINUOUS
 90
10
 70
0
 10
8.6798870364
 20
5.7826386199
 10
8.6808319506
 20
5.747639555
 10
8.6817768598
 20
5.7147469777
 10
8.6827217744
 20
5.6847071327
 10
8.6836666953
 20
5.6582018954
 10
8.6846116149
 20
5.6358331288
 10
8.6855565447
 20
5.6181083648
 10
8.6865014972
 20
5.6054299559
 10
8.6874464566
 20
5.5980861518
 10
8.6882327597
 20
5.5961654509
  0
LWPOLYLINE
  5
5C4
100
AcDbEntity
  8
0
100
AcDbPolyline
 62
7
  6
CONTINUOUS
 90
9
 70
0
 10
8.6731641144
 20
5.8903376229
 10
8.6722137541
 20
5.9258934542
 10
8.671263404
 20
5.9594868636
 10
8.6703130494
 20
5.990347093
 10
8.6693626799
 20
6.0177658365
 10
8.6684123139
 20
6.0411129626
 10
8.667461936
 20
6.0598527298
 10
8.6665115215
 20
6.0735549643
 10
8.6655610949
 20
6.0819042851
  0
LINE
  5
5C5
100
AcDbEntity
  8
0
100
AcDbLine
 62
7
  6
CONTINUOUS
 10
8.6336672141
 20
5.8951668273
 11
8.6365048482
 21
5.7854873261
  0
LINE
  5
5C6
100
AcDbEntity
  8
0
100
AcDbLine
 62
7
  6
CONTINUOUS
 10
8.6409987292
 20
5.7645792903
 11
8.6370437679
 21
5.9162129594
  0
LINE
  5
5C7
100
AcDbEntity
  8
0
100
AcDbLine
 62
7
  6
CONTINUOUS
 10
8.6760152266
 20
5.7801722866
 11
8.6731641144
 21
5.8903376229
  0
LINE
  5
5C8
100
AcDbEntity
  8
0
100
AcDbLine
 62
7
  6
CONTINUOUS
 10
8.6770522316
 20
5.8922018442
 11
8.6798870364
 21
5.7826386199
  0
LWPOLYLINE
  5
5C9
100
AcDbEntity
  8
0
100
AcDbPolyline
 62
7
  6
CONTINUOUS
 90
8
 70
0
 10
8.7071313289
 20
5.7703573514
 10
8.7077501109
 20
5.7376110859
 10
8.7083701086
 20
5.7074702177
 10
8.7089949769
 20
5.6805233454
 10
8.7096179057
 20
5.6577284029
 10
8.7102430196
 20
5.6394771766
 10
8.7108764878
 20
5.6261413705
 10
8.7115106419
 20
5.6183007678
  0
LINE
  5
5CA
100
AcDbEntity
  8
0
100
AcDbLine
 62
7
  6
CONTINUOUS
 10
8.7046240475
 20
5.9134883716
 11
8.7071313289
 21
5.7703573514
  0
LINE
  5
5CB
100
AcDbEntity
  8
0
100
AcDbLine
 62
7
  6
CONTINUOUS
 10
8.7276028199
 20
5.6315985218
 11
8.7276028199
 21
6.0492756871
  0
LINE
  5
5CC
100
AcDbEntity
  8
0
100
AcDbLine
 62
7
  6
CONTINUOUS
 10
8.6885109522
 20
5.5964061906
 11
8.7059492765
 21
5.6265762773
  0
LWPOLYLINE
  5
5CD
100
AcDbEntity
  8
0
100
AcDbPolyline
 62
7
  6
CONTINUOUS
 90
10
 70
0
 10
8.6252406152
 20
6.084708758
 10
8.6261755703
 20
6.081994533
 10
8.6271222367
 20
6.0737775353
 10
8.6280698703
 20
6.060228088
 10
8.6290080598
 20
6.0418696055
 10
8.6299390027
 20
6.0191963701
 10
8.6308757718
 20
5.9924067694
 10
8.6318083421
 20
5.9623687152
 10
8.6327365732
 20
5.9297922115
 10
8.6336672141
 20
5.8951668273
  0
LINE
  5
5CE
100
AcDbEntity
  8
0
100
AcDbLine
 62
7
  6
CONTINUOUS
 10
8.6655610949
 20
6.0819042851
 11
8.6646106939
 21
6.084708758
  0
LWPOLYLINE
  5
5CF
100
AcDbEntity
  8
0
100
AcDbPolyline
 62
7
  6
CONTINUOUS
 90
10
 70
0
 10
8.6688259129
 20
6.0844680182
 10
8.6694926747
 20
6.0819361674
 10
8.6704376713
 20
6.0736810626
 10
8.6713826542
 20
6.0601310841
 10
8.6723276005
 20
6.041594565
 10
8.6732725342
 20
6.0184921871
 10
8.6742174703
 20
5.9913480645
 10
8.6751623919
 20
5.9607788928
 10
8.6761073076
 20
5.9274783624
 10
8.6770522316
 20
5.8922018442
  0
LINE
  5
5D0
100
AcDbEntity
  8
0
100
AcDbLine
 62
7
  6
CONTINUOUS
 10
8.7115106419
 20
5.6183007678
 11
8.7119455786
 21
5.6162031052
  0
LWPOLYLINE
  5
5D1
100
AcDbEntity
  8
0
100
AcDbPolyline
 62
7
  6
CONTINUOUS
 90
9
 70
0
 10
8.6996576577
 20
6.0772209033
 10
8.7002766179
 20
6.0737409588
 10
8.7009036286
 20
6.0644836993
 10
8.7015308487
 20
6.049711255
 10
8.7021508889
 20
6.0300768058
 10
8.7027689302
 20
6.0060292152
 10
8.7033900265
 20
5.9779701113
 10
8.7040072786
 20
5.9469136692
 10
8.7046240475
 20
5.9134883716
  0
LINE
  5
5D2
100
AcDbEntity
  8
0
100
AcDbLine
 62
7
  6
CONTINUOUS
 10
8.7669728986
 20
6.0441772619
 11
8.7669728986
 21
5.636696947
  0
LWPOLYLINE
  5
5D3
100
AcDbEntity
  8
02___PRT_ALL_AXES
100
AcDbPolyline
 62
7
  6
CONTINUOUS
 90
3
 70
0
 10
11.0406725876
 20
6.1462970774
 10
11.0945423305
 20
6.2206726214
 10
11.1593597867
 20
6.2857292747
  0
LWPOLYLINE
  5
5D4
100
AcDbEntity
  8
02___PRT_ALL_AXES
100
AcDbPolyline
 62
7
  6
CONTINUOUS
 90
3
 70
0
 10
11.1593597867
 20
6.2857292747
 10
11.2335363964
 20
6.3398726153
 10
11.3152542239
 20
6.3817756871
  0
LINE
  5
5D5
100
AcDbEntity
  8
0
100
AcDbLine
 62
9
  6
CONTINUOUS
 10
11.4338689192
 20
5.259728443
 11
11.6486073466
 21
5.259728443
  0
LINE
  5
5D6
100
AcDbEntity
  8
02___PRT_ALL_AXES
100
AcDbLine
 62
7
  6
CONTINUOUS
 10
11.3152542239
 20
5.2990985218
 11
11.2335363964
 21
5.3410015935
  0
LINE
  5
5D7
100
AcDbEntity
  8
02___PRT_ALL_AXES
100
AcDbLine
 62
7
  6
CONTINUOUS
 10
11.2335363964
 20
5.3410015935
 11
11.1593597867
 21
5.3951449341
  0
LWPOLYLINE
  5
5D8
100
AcDbEntity
  8
02___PRT_ALL_AXES
100
AcDbPolyline
 62
7
  6
CONTINUOUS
 90
4
 70
0
 10
11.1593597867
 20
5.3951449341
 10
11.0945423305
 20
5.4602015874
 10
11.0406725876
 20
5.5345771315
 10
10.9990708086
 20
5.616448755
  0
LWPOLYLINE
  5
5D9
100
AcDbEntity
  8
02___PRT_ALL_AXES
100
AcDbPolyline
 62
7
  6
CONTINUOUS
 90
7
 70
0
 10
10.9990708086
 20
5.616448755
 10
10.9707565786
 20
5.7038099314
 10
10.9564238286
 20
5.7945195948
 10
10.9564238286
 20
5.886354614
 10
10.9707565786
 20
5.9770642775
 10
10.9990708086
 20
6.0644254538
 10
11.0406725876
 20
6.1462970774
  0
LINE
  5
5DA
100
AcDbEntity
  8
02___PRT_ALL_AXES
100
AcDbLine
 62
7
  6
CONTINUOUS
 10
11.3152542239
 20
5.2990985218
 11
11.4375407535
 21
5.2990985218
  0
LINE
  5
5DB
100
AcDbEntity
  8
0
100
AcDbLine
 62
7
  6
CONTINUOUS
 10
11.4375407535
 20
5.2990985218
 11
11.6449355124
 21
5.2990985218
  0
LINE
  5
5DC
100
AcDbEntity
  8
02___PRT_ALL_AXES
100
AcDbLine
 62
7
  6
CONTINUOUS
 10
11.6449355124
 20
5.2990985218
 11
11.7672220419
 21
5.2990985218
  0
LINE
  5
5DD
100
AcDbEntity
  8
0
100
AcDbLine
 62
9
  6
CONTINUOUS
 10
11.4413474679
 20
5.3384686005
 11
11.6411287979
 21
5.3384686005
  0
LWPOLYLINE
  5
5DE
100
AcDbEntity
  8
0
100
AcDbPolyline
 62
7
  6
CONTINUOUS
 90
20
 70
0
 10
11.5520071965
 20
5.4051826811
 10
11.4824729748
 20
5.4122355953
 10
11.4153930917
 20
5.4302696622
 10
11.3521883228
 20
5.4588580964
 10
11.2950965177
 20
5.4968441266
 10
11.2448814124
 20
5.5435996423
 10
11.2033261303
 20
5.5973755424
 10
11.171235878
 20
5.6568612406
 10
11.1493460726
 20
5.7205627921
 10
11.1382589523
 20
5.7862859252
 10
11.1380656095
 20
5.8528684988
 10
11.1486852294
 20
5.9179496448
 10
11.1697380372
 20
5.9801126896
 10
11.2005690102
 20
6.0376565506
 10
11.2401311355
 20
6.088904904
 10
11.2874211125
 20
6.1327377356
 10
11.3409129627
 20
6.1678705676
 10
11.3990323207
 20
6.1934528086
 10
11.4602951886
 20
6.2089512836
 10
11.5227416629
 20
6.2139952129
  0
LWPOLYLINE
  5
5DF
100
AcDbEntity
  8
0
100
AcDbPolyline
 62
7
  6
CONTINUOUS
 90
19
 70
0
 10
11.5412381329
 20
5.6161331223
 10
11.5744131004
 20
5.6191978654
 10
11.6070949362
 20
5.6272643965
 10
11.6381540718
 20
5.6401380978
 10
11.6665525382
 20
5.6572843556
 10
11.6919078877
 20
5.678309496
 10
11.7139032402
 20
5.7029196185
 10
11.7318730372
 20
5.7303372129
 10
11.7455049519
 20
5.7599412333
 10
11.7546197086
 20
5.7913141725
 10
11.7589828566
 20
5.8240151636
 10
11.7583555143
 20
5.8571416904
 10
11.7527798405
 20
5.8895081302
 10
11.7425564972
 20
5.9202565084
 10
11.7279725645
 20
5.9489478053
 10
11.7092431478
 20
5.9752043106
 10
11.6867508883
 20
5.9984147606
 10
11.6611725577
 20
6.0178941467
 10
11.6328772108
 20
6.0333649061
  0
LINE
  5
5E0
100
AcDbEntity
  8
0
100
AcDbLine
 62
7
  6
CONTINUOUS
 10
11.4368271065
 20
6.3893202961
 11
11.4413474679
 21
6.3424056084
  0
LINE
  5
5E1
100
AcDbEntity
  8
0
100
AcDbLine
 62
7
  6
CONTINUOUS
 10
11.4338689192
 20
6.4211457658
 11
11.4368271065
 21
6.3893202961
  0
LINE
  5
5E2
100
AcDbEntity
  8
02___PRT_ALL_AXES
100
AcDbLine
 62
7
  6
CENTER
 10
11.5412381329
 20
5.8404371044
 11
11.5412381329
 21
4.7561851359
  0
LINE
  5
5E3
100
AcDbEntity
  8
02___PRT_ALL_AXES
100
AcDbLine
 62
7
  6
CENTER
 10
11.5412381329
 20
5.8404371044
 11
11.5412381329
 21
6.9246890729
  0
LINE
  5
5E4
100
AcDbEntity
  8
0
100
AcDbLine
 62
7
  6
CONTINUOUS
 10
11.4338689192
 20
5.259728443
 11
11.4377247707
 21
5.3010355432
  0
LWPOLYLINE
  5
5E5
100
AcDbEntity
  8
0
100
AcDbPolyline
 62
7
  6
CONTINUOUS
 90
3
 70
0
 10
11.4377247707
 20
5.3010355432
 10
11.4401589587
 20
5.3263347916
 10
11.4413474679
 20
5.3384686005
  0
LINE
  5
5E6
100
AcDbEntity
  8
02___PRT_ALL_AXES
100
AcDbLine
 62
7
  6
CENTER
 10
11.5412381329
 20
5.8404371044
 11
10.4569861644
 21
5.8404371044
  0
LINE
  5
5E7
100
AcDbEntity
  8
02___PRT_ALL_AXES
100
AcDbLine
 62
7
  6
CENTER
 10
11.5412381329
 20
5.8404371044
 11
12.6254901014
 21
5.8404371044
  0
LINE
  5
5E8
100
AcDbEntity
  8
0
100
AcDbLine
 62
7
  6
CONTINUOUS
 10
11.6233627394
 20
5.7249058784
 11
11.6387514702
 21
5.7095171476
  0
LINE
  5
5E9
100
AcDbEntity
  8
0
100
AcDbLine
 62
7
  6
CONTINUOUS
 10
11.6411287979
 20
5.3384686005
 11
11.6451190928
 21
5.2971626694
  0
LWPOLYLINE
  5
5EA
100
AcDbEntity
  8
0
100
AcDbPolyline
 62
7
  6
CONTINUOUS
 90
3
 70
0
 10
11.6451190928
 20
5.2971626694
 10
11.647488694
 20
5.2718679325
 10
11.6486073466
 20
5.259728443
  0
LINE
  5
5EB
100
AcDbEntity
  8
0
100
AcDbLine
 62
7
  6
CONTINUOUS
 10
11.6486073466
 20
6.4211457658
 11
11.6447514952
 21
6.3798386656
  0
LWPOLYLINE
  5
5EC
100
AcDbEntity
  8
0
100
AcDbPolyline
 62
7
  6
CONTINUOUS
 90
3
 70
0
 10
11.6447514952
 20
6.3798386656
 10
11.6423173071
 20
6.3545394173
 10
11.6411287979
 20
6.3424056084
  0
LINE
  5
5ED
100
AcDbEntity
  8
0
100
AcDbLine
 62
7
  6
CONTINUOUS
 10
11.6722588239
 20
5.7428230331
 11
11.656769359
 21
5.758312498
  0
LWPOLYLINE
  5
5EE
100
AcDbEntity
  8
0
100
AcDbPolyline
 62
7
  6
CONTINUOUS
 90
13
 70
0
 10
11.773554952
 20
5.7649550782
 10
11.7818549591
 20
5.8021030141
 10
11.7842609156
 20
5.8404932684
 10
11.7805923025
 20
5.8787045675
 10
11.7711145188
 20
5.9153419482
 10
11.7562188033
 20
5.9497046029
 10
11.7361887156
 20
5.9813364503
 10
11.7113530763
 20
6.0096115709
 10
11.6825858386
 20
6.0335237606
 10
11.6504071725
 20
6.0526774614
 10
11.6152550591
 20
6.0666769223
 10
11.5783967575
 20
6.0749192031
 10
11.5412381329
 20
6.0772209033
  0
LWPOLYLINE
  5
5EF
100
AcDbEntity
  8
0
100
AcDbPolyline
 62
7
  6
CONTINUOUS
 90
21
 70
0
 10
11.5412381329
 20
6.0772209033
 10
11.5045892245
 20
6.0737409588
 10
11.4685663254
 20
6.0644836993
 10
11.4345267305
 20
6.049711255
 10
11.403655963
 20
6.0300768058
 10
11.3763681778
 20
6.0060292152
 10
11.3530955256
 20
5.9779701113
 10
11.3346264494
 20
5.9469136692
 10
11.3212317171
 20
5.9134883716
 10
11.3131457709
 20
5.8781892041
 10
11.3106763427
 20
5.8416661469
 10
11.3140084995
 20
5.8052753337
 10
11.322899034
 20
5.7703573514
 10
11.3369673796
 20
5.7376110859
 10
11.3559374425
 20
5.7074702177
 10
11.3794991772
 20
5.6805233454
 10
11.4068266282
 20
5.6577284029
 10
11.4374073127
 20
5.6394771766
 10
11.4708329315
 20
5.6261413705
 10
11.5058924383
 20
5.6183007678
 10
11.5412381329
 20
5.6161331223
  0
LWPOLYLINE
  5
5F0
100
AcDbEntity
  8
0
100
AcDbPolyline
 62
7
  6
CONTINUOUS
 90
15
 70
0
 10
11.6328772108
 20
6.0333649061
 10
11.6617804168
 20
6.0194299808
 10
11.6885631611
 20
6.0011373531
 10
11.7125936054
 20
5.9787789377
 10
11.7330936807
 20
5.9529899969
 10
11.749593636
 20
5.9243608988
 10
11.7618155422
 20
5.893261211
 10
11.7694202296
 20
5.8600805577
 10
11.7720127102
 20
5.8256340759
 10
11.7694229958
 20
5.7911106878
 10
11.7617961606
 20
5.7575158722
 10
11.7493331494
 20
5.7253750045
 10
11.7321268411
 20
5.6950512662
 10
11.7104245508
 20
5.6672424449
 10
11.6848191659
 20
5.6428184623
  0
LWPOLYLINE
  5
5F1
100
AcDbEntity
  8
0
100
AcDbPolyline
 62
7
  6
CONTINUOUS
 90
20
 70
0
 10
11.5412381329
 20
6.2144528525
 10
11.6039013863
 20
6.2124982673
 10
11.6660083473
 20
6.1999965758
 10
11.7252137807
 20
6.1773342187
 10
11.7805147781
 20
6.1447729178
 10
11.82972081
 20
6.1034602509
 10
11.8718491617
 20
6.0541070527
 10
11.9054645458
 20
5.9981348008
 10
11.9294971729
 20
5.9372026857
 10
11.9433352532
 20
5.8725391805
 10
11.9464034347
 20
5.8063152636
 10
11.9385462911
 20
5.7399287088
 10
11.9198463616
 20
5.6753317842
 10
11.8907597665
 20
5.6143887615
 10
11.8518486195
 20
5.558542045
 10
11.8041878639
 20
5.509539628
 10
11.7489403545
 20
5.468682421
 10
11.6873068612
 20
5.4370337635
 10
11.6212528622
 20
5.4156999554
 10
11.5520071965
 20
5.4051826811
  0
LINE
  5
5F2
100
AcDbEntity
  8
0
100
AcDbLine
 62
9
  6
CONTINUOUS
 10
11.6411287979
 20
6.3424056084
 11
11.4413474679
 21
6.3424056084
  0
LINE
  5
5F3
100
AcDbEntity
  8
02___PRT_ALL_AXES
100
AcDbLine
 62
7
  6
CONTINUOUS
 10
11.7672220419
 20
6.3817756871
 11
11.6449355124
 21
6.3817756871
  0
LINE
  5
5F4
100
AcDbEntity
  8
0
100
AcDbLine
 62
7
  6
CONTINUOUS
 10
11.6449355124
 20
6.3817756871
 11
11.4375407535
 21
6.3817756871
  0
LINE
  5
5F5
100
AcDbEntity
  8
02___PRT_ALL_AXES
100
AcDbLine
 62
7
  6
CONTINUOUS
 10
11.4375407535
 20
6.3817756871
 11
11.3152542239
 21
6.3817756871
  0
LWPOLYLINE
  5
5F6
100
AcDbEntity
  8
02___PRT_ALL_AXES
100
AcDbPolyline
 62
7
  6
CONTINUOUS
 90
3
 70
0
 10
11.9231164791
 20
5.3951449341
 10
11.8489398695
 20
5.3410015935
 10
11.7672220419
 20
5.2990985218
  0
LINE
  5
5F7
100
AcDbEntity
  8
0
100
AcDbLine
 62
9
  6
CONTINUOUS
 10
11.6486073466
 20
6.4211457658
 11
11.4338689192
 21
6.4211457658
  0
LWPOLYLINE
  5
5F8
100
AcDbEntity
  8
02___PRT_ALL_AXES
100
AcDbPolyline
 62
7
  6
CONTINUOUS
 90
3
 70
0
 10
11.7672220419
 20
6.3817756871
 10
11.8489398695
 20
6.3398726153
 10
11.9231164791
 20
6.2857292747
  0
LWPOLYLINE
  5
5F9
100
AcDbEntity
  8
02___PRT_ALL_AXES
100
AcDbPolyline
 62
7
  6
CONTINUOUS
 90
12
 70
0
 10
11.9231164791
 20
6.2857292747
 10
11.9879339353
 20
6.2206726214
 10
12.0418036782
 20
6.1462970774
 10
12.0834054572
 20
6.0644254538
 10
12.1117196872
 20
5.9770642775
 10
12.1260524372
 20
5.886354614
 10
12.1260524372
 20
5.7945195948
 10
12.1117196872
 20
5.7038099314
 10
12.0834054572
 20
5.616448755
 10
12.0418036782
 20
5.5345771315
 10
11.9879339353
 20
5.4602015874
 10
11.9231164791
 20
5.3951449341
  0
LWPOLYLINE
  5
5FA
100
AcDbEntity
  8
02___PRT_ALL_AXES
100
AcDbPolyline
 62
7
  6
CONTINUOUS
 90
15
 70
0
 10
14.5199941696
 20
9.5087426101
 10
14.5146585945
 20
9.5071118104
 10
14.4863054389
 20
9.4965916958
 10
14.4608340864
 20
9.4838490426
 10
14.4387630602
 20
9.4691432545
 10
14.4205416628
 20
9.4527736989
 10
14.4065408294
 20
9.4350736128
 10
14.3970455764
 20
9.4164033188
 10
14.3922491998
 20
9.3971428904
 10
14.3922493402
 20
9.3776844143
 10
14.3970459945
 20
9.3584240089
 10
14.4065415167
 20
9.3397537606
 10
14.4205426055
 20
9.3220537418
 10
14.438764239
 20
9.3056842738
 10
14.4608354773
 20
9.2909785918
  0
LWPOLYLINE
  5
5FB
100
AcDbEntity
  8
0
100
AcDbPolyline
 62
7
  6
CONTINUOUS
 90
9
 70
0
 10
14.6663878814
 20
7.0164560992
 10
14.7033459949
 20
7.0223898586
 10
14.7384154366
 20
7.0315526971
 10
14.7710758066
 20
7.0438649233
 10
14.800562611
 20
7.0591867953
 10
14.8257058378
 20
7.0770185306
 10
14.8456551081
 20
7.096674567
 10
14.8601628452
 20
7.1177196557
 10
14.8688297069
 20
7.1392476921
  0
LWPOLYLINE
  5
5FC
100
AcDbEntity
  8
0
100
AcDbPolyline
 62
7
  6
CONTINUOUS
 90
7
 70
0
 10
14.6910910182
 20
7.0232409864
 10
14.6554270919
 20
7.0185748655
 10
14.6189880007
 20
7.0170031734
 10
14.5829661736
 20
7.0185532597
 10
14.5476888958
 20
7.0231985677
 10
14.5138749019
 20
7.0309100446
 10
14.4826962267
 20
7.0414477041
  0
LWPOLYLINE
  5
5FD
100
AcDbEntity
  8
0
100
AcDbPolyline
 62
7
  6
CONTINUOUS
 90
7
 70
0
 10
14.6910910182
 20
7.0521721745
 10
14.7252366135
 20
7.0598130431
 10
14.7573124642
 20
7.0703142172
 10
14.7869380178
 20
7.0836566499
 10
14.8130968179
 20
7.0995202038
 10
14.8349031089
 20
7.1173864709
 10
14.8496354272
 20
7.1341825858
  0
LWPOLYLINE
  5
5FE
100
AcDbEntity
  8
02___PRT_ALL_AXES
100
AcDbPolyline
 62
7
  6
CONTINUOUS
 90
14
 70
0
 10
14.4048807105
 20
7.1832255128
 10
14.4922940039
 20
7.1681742887
 10
14.5830299699
 20
7.1611987152
 10
14.6748648327
 20
7.1624992258
 10
14.7655478844
 20
7.1720734216
 10
14.8528566461
 20
7.189716131
 10
14.9346513365
 20
7.2150244373
 10
15.0089273145
 20
7.2474075537
 10
15.073864209
 20
7.2861013028
 10
15.1278705331
 20
7.3301868446
 10
15.1696226888
 20
7.3786131961
 10
15.1980974055
 20
7.4302229888
 10
15.2125968189
 20
7.4837808337
 10
15.214482053
 20
7.51152676
  0
LWPOLYLINE
  5
5FF
100
AcDbEntity
  8
02___PRT_ALL_AXES
100
AcDbPolyline
 62
7
  6
CONTINUOUS
 90
13
 70
0
 10
14.4048807105
 20
7.1892528437
 10
14.4922940039
 20
7.1742016195
 10
14.5830299699
 20
7.1672260461
 10
14.6748648327
 20
7.1685265566
 10
14.7655478844
 20
7.1781007525
 10
14.8528566461
 20
7.1957434619
 10
14.9346513365
 20
7.2210517681
 10
15.0089273145
 20
7.2534348846
 10
15.073864209
 20
7.2921286336
 10
15.1278705331
 20
7.3362141755
 10
15.1696226888
 20
7.3846405269
 10
15.1980974055
 20
7.4362503196
 10
15.2125968189
 20
7.4898081645
  0
LWPOLYLINE
  5
600
100
AcDbEntity
  8
02___PRT_ALL_AXES
100
AcDbPolyline
 62
7
  6
CONTINUOUS
 90
4
 70
0
 10
14.4048807105
 20
7.1832255128
 10
14.3759315636
 20
7.1925856566
 10
14.3470899528
 20
7.2031160839
 10
14.3184107162
 20
7.2148620234
  0
LWPOLYLINE
  5
601
100
AcDbEntity
  8
0
100
AcDbPolyline
 62
9
  6
CONTINUOUS
 90
14
 70
0
 10
14.3184107162
 20
7.176871569
 10
14.3917871014
 20
7.1526508421
 10
14.4707134334
 20
7.1351923895
 10
14.5533405486
 20
7.1249057625
 10
14.6377214075
 20
7.1220342228
 10
14.7218693344
 20
7.1266453545
 10
14.8038059442
 20
7.1386304981
 10
14.8816053686
 20
7.1577079205
 10
14.9534376
 20
7.1834289564
 10
15.0176132133
 20
7.2151886816
 10
15.0726229835
 20
7.2522401939
 10
15.1171732335
 20
7.2937121513
 10
15.1502161873
 20
7.3386291543
 10
15.1658332532
 20
7.374218009
  0
LWPOLYLINE
  5
602
100
AcDbEntity
  8
0
100
AcDbPolyline
 62
7
  6
CONTINUOUS
 90
7
 70
0
 10
14.4551424562
 20
7.0511690225
 10
14.4842084524
 20
7.0376323973
 10
14.5172222159
 20
7.0267737119
 10
14.553012236
 20
7.0190730204
 10
14.5902200224
 20
7.0147747855
 10
14.6282277927
 20
7.0138890988
 10
14.6663878814
 20
7.0164560992
  0
LINE
  5
603
100
AcDbEntity
  8
0
100
AcDbLine
 62
7
  6
CONTINUOUS
 10
14.484235287
 20
7.0729821689
 11
14.4551424562
 21
7.0865293634
  0
LWPOLYLINE
  5
604
100
AcDbEntity
  8
0
100
AcDbPolyline
 62
7
  6
CONTINUOUS
 90
11
 70
0
 10
14.4551424562
 20
7.1154605514
 10
14.484235287
 20
7.1019133569
 10
14.5172741723
 20
7.0910512254
 10
14.5530814433
 20
7.0833532154
 10
14.590295249
 20
7.0790611412
 10
14.6282993615
 20
7.0781821936
 10
14.6664435083
 20
7.0807539404
 10
14.7033873236
 20
7.0866900522
 10
14.7384586631
 20
7.09585791
 10
14.7711158336
 20
7.1081742143
 10
14.7973976316
 20
7.121836151
  0
LINE
  5
605
100
AcDbEntity
  8
0
100
AcDbLine
 62
7
  6
CONTINUOUS
 10
14.4842121589
 20
7.1051370426
 11
14.4551424562
 21
7.1186751278
  0
LINE
  5
606
100
AcDbEntity
  8
0
100
AcDbLine
 62
7
  6
CONTINUOUS
 10
14.4826962267
 20
7.0414477041
 11
14.4551424562
 21
7.0543835989
  0
LWPOLYLINE
  5
607
100
AcDbEntity
  8
0
100
AcDbPolyline
 62
7
  6
CONTINUOUS
 90
8
 70
0
 10
14.4551424562
 20
7.0833147869
 10
14.4826962267
 20
7.0703788921
 10
14.5138749019
 20
7.0598412326
 10
14.5476888958
 20
7.0521297557
 10
14.5829661736
 20
7.0474844477
 10
14.6189880007
 20
7.0459343614
 10
14.6554270919
 20
7.0475060535
 10
14.6910910182
 20
7.0521721745
  0
LINE
  5
608
100
AcDbEntity
  8
0
100
AcDbLine
 62
7
  6
CONTINUOUS
 10
14.3257872448
 20
7.1592973719
 11
14.3272470497
 21
7.1585966805
  0
LINE
  5
609
100
AcDbEntity
  8
0
100
AcDbLine
 62
7
  6
CONTINUOUS
 10
14.4957877082
 20
6.9946238565
 11
14.4692616733
 21
7.007656673
  0
LWPOLYLINE
  5
60A
100
AcDbEntity
  8
0
100
AcDbPolyline
 62
7
  6
CONTINUOUS
 90
12
 70
0
 10
14.4801973166
 20
7.0013428376
 10
14.5037172508
 20
6.9896476124
 10
14.5300792893
 20
6.9800636113
 10
14.5586852795
 20
6.9728367567
 10
14.5888645327
 20
6.9681501301
 10
14.6199105368
 20
6.9661162386
 10
14.6511282067
 20
6.9667788807
 10
14.6818256184
 20
6.9701225721
 10
14.7113180853
 20
6.9760730946
 10
14.7389422651
 20
6.9844968503
 10
14.7640811669
 20
6.9952056256
 10
14.7755404798
 20
7.0013459949
  0
LINE
  5
60B
100
AcDbEntity
  8
0
100
AcDbLine
 62
7
  6
CONTINUOUS
 10
14.4692616733
 20
7.007656673
 11
14.4692577453
 21
7.0076589408
  0
LINE
  5
60C
100
AcDbEntity
  8
0
100
AcDbLine
 62
7
  6
CONTINUOUS
 10
14.3257628246
 20
7.1593114705
 11
14.1807158135
 21
7.243052507
  0
LINE
  5
60D
100
AcDbEntity
  8
0
100
AcDbLine
 62
9
  6
CONTINUOUS
 10
14.3184107162
 20
7.176871569
 11
14.1717598652
 21
7.2615385619
  0
LINE
  5
60E
100
AcDbEntity
  8
0
100
AcDbLine
 62
7
  6
CONTINUOUS
 10
14.480193549
 20
7.0013450141
 11
14.4801973166
 21
7.0013428376
  0
LINE
  5
60F
100
AcDbEntity
  8
0
100
AcDbLine
 62
7
  6
CONTINUOUS
 10
14.4302798291
 20
7.0671693006
 11
14.4551424562
 21
7.0511690225
  0
LWPOLYLINE
  5
610
100
AcDbEntity
  8
0
100
AcDbPolyline
 62
7
  6
CONTINUOUS
 90
6
 70
0
 10
14.4551424562
 20
7.0543835989
 10
14.4302705848
 20
7.0703908907
 10
14.4100439644
 20
7.0886652497
 10
14.3953079151
 20
7.1085340105
 10
14.3864935375
 20
7.1292199824
 10
14.3850436297
 20
7.1396626857
  0
LWPOLYLINE
  5
611
100
AcDbEntity
  8
0
100
AcDbPolyline
 62
7
  6
CONTINUOUS
 90
3
 70
0
 10
14.4692577453
 20
7.0076589408
 10
14.4479704227
 20
7.0219684402
 10
14.4424286564
 20
7.0271091354
  0
LINE
  5
612
100
AcDbEntity
  8
0
100
AcDbLine
 62
7
  6
CONTINUOUS
 10
14.1783513578
 20
7.2447198886
 11
14.1806935779
 21
7.2430653445
  0
LWPOLYLINE
  5
613
100
AcDbEntity
  8
0
100
AcDbPolyline
 62
9
  6
CONTINUOUS
 90
8
 70
0
 10
13.6436159112
 20
8.0831186662
 10
13.6440873031
 20
8.0655337482
 10
13.6573164629
 20
7.9886356535
 10
13.6886760179
 20
7.9131499375
 10
13.7367612688
 20
7.841819439
 10
13.7975645869
 20
7.7779736774
 10
13.8650484505
 20
7.7240237878
 10
13.931899536
 20
7.6813035541
  0
LINE
  5
614
100
AcDbEntity
  8
02___PRT_ALL_AXES
100
AcDbLine
 62
7
  6
CONTINUOUS
 10
13.6436159112
 20
8.4688678396
 11
13.6436159112
 21
8.0831186662
  0
LWPOLYLINE
  5
615
100
AcDbEntity
  8
02___PRT_ALL_AXES
100
AcDbPolyline
 62
7
  6
CONTINUOUS
 90
11
 70
0
 10
13.6436159112
 20
8.4688678396
 10
13.6525186938
 20
8.6009507793
 10
13.6800068959
 20
8.7340309832
 10
13.7276218968
 20
8.8667486104
 10
13.7957109077
 20
8.994478638
 10
13.876445271
 20
9.1045690277
 10
13.9750121873
 20
9.2054351361
 10
14.0811377524
 20
9.2873042179
 10
14.1912525865
 20
9.35097839
 10
14.3078658136
 20
9.3996474135
 10
14.3340032475
 20
9.4069527615
  0
LWPOLYLINE
  5
616
100
AcDbEntity
  8
02___PRT_ALL_AXES
100
AcDbPolyline
 62
7
  6
CONTINUOUS
 90
11
 70
0
 10
14.4048807105
 20
7.2314441595
 10
14.4922940039
 20
7.2163929354
 10
14.5830299699
 20
7.2094173619
 10
14.6748648327
 20
7.2107178724
 10
14.7655478844
 20
7.2202920683
 10
14.8528566461
 20
7.2379347777
 10
14.9346513365
 20
7.263243084
 10
15.0089273145
 20
7.2956262004
 10
15.073864209
 20
7.3343199495
 10
15.1278705331
 20
7.3784054913
 10
15.1696226888
 20
7.4268318428
  0
LWPOLYLINE
  5
617
100
AcDbEntity
  8
02___PRT_ALL_AXES
100
AcDbPolyline
 62
7
  6
CONTINUOUS
 90
11
 70
0
 10
14.4048807105
 20
7.2374714904
 10
14.4922940039
 20
7.2224202662
 10
14.5830299699
 20
7.2154446927
 10
14.6748648327
 20
7.2167452033
 10
14.7655478844
 20
7.2263193991
 10
14.8528566461
 20
7.2439621085
 10
14.9346513365
 20
7.2692704148
 10
15.0089273145
 20
7.3016535313
 10
15.073864209
 20
7.3403472803
 10
15.1278705331
 20
7.3844328221
 10
15.1696226888
 20
7.4328591736
  0
LWPOLYLINE
  5
618
100
AcDbEntity
  8
02___PRT_ALL_AXES
100
AcDbPolyline
 62
7
  6
CONTINUOUS
 90
6
 70
0
 10
14.4048807105
 20
7.2796628062
 10
14.4922940039
 20
7.2646115821
 10
14.5830299699
 20
7.2576360086
 10
14.6748648327
 20
7.2589365191
 10
14.7655478844
 20
7.268510715
 10
14.8528566461
 20
7.2861534244
  0
LWPOLYLINE
  5
619
100
AcDbEntity
  8
02___PRT_ALL_AXES
100
AcDbPolyline
 62
7
  6
CONTINUOUS
 90
6
 70
0
 10
14.4048807105
 20
7.285690137
 10
14.4922940039
 20
7.2706389129
 10
14.5830299699
 20
7.2636633394
 10
14.6748648327
 20
7.26496385
 10
14.7655478844
 20
7.2745380458
 10
14.8528566461
 20
7.2921807552
  0
LWPOLYLINE
  5
61A
100
AcDbEntity
  8
02___PRT_ALL_AXES
100
AcDbPolyline
 62
7
  6
CONTINUOUS
 90
3
 70
0
 10
14.4724846744
 20
7.2629150122
 10
14.3927376539
 20
7.2792272719
 10
14.3184107162
 20
7.3025148593
  0
LWPOLYLINE
  5
61B
100
AcDbEntity
  8
02___PRT_ALL_AXES
100
AcDbPolyline
 62
7
  6
CONTINUOUS
 90
3
 70
0
 10
14.4696327683
 20
7.2151435702
 10
14.3913523053
 20
7.2313658914
 10
14.3184107162
 20
7.2542962126
  0
LWPOLYLINE
  5
61C
100
AcDbEntity
  8
02___PRT_ALL_AXES
100
AcDbPolyline
 62
7
  6
CONTINUOUS
 90
3
 70
0
 10
14.4048807105
 20
7.2314441595
 10
14.375905419
 20
7.2408132911
 10
14.3470692765
 20
7.2513427316
  0
LWPOLYLINE
  5
61D
100
AcDbEntity
  8
02___PRT_ALL_AXES
100
AcDbPolyline
 62
7
  6
CONTINUOUS
 90
4
 70
0
 10
14.0852898709
 20
7.3676947936
 10
14.1142608109
 20
7.3583271581
 10
14.1430966244
 20
7.3477980328
 10
14.1717598652
 20
7.3360582831
  0
LWPOLYLINE
  5
61E
100
AcDbEntity
  8
02___PRT_ALL_AXES
100
AcDbPolyline
 62
7
  6
CONTINUOUS
 90
3
 70
0
 10
14.4048807105
 20
7.2796628062
 10
14.375905419
 20
7.2890319377
 10
14.3470692765
 20
7.2995613783
  0
LINE
  5
61F
100
AcDbEntity
  8
02___PRT_ALL_AXES
100
AcDbLine
 62
7
  6
CONTINUOUS
 10
14.3470692765
 20
7.2513427316
 11
14.3184107162
 21
7.26308067
  0
LINE
  5
620
100
AcDbEntity
  8
02___PRT_ALL_AXES
100
AcDbLine
 62
7
  6
CONTINUOUS
 10
14.3470692765
 20
7.2995613783
 11
14.3184107162
 21
7.3112993167
  0
LWPOLYLINE
  5
621
100
AcDbEntity
  8
0
100
AcDbPolyline
 62
7
  6
CONTINUOUS
 90
4
 70
0
 10
14.4551424562
 20
7.0865293634
 10
14.4302996493
 20
7.1025146072
 10
14.4100829868
 20
7.1207684481
 10
14.3995927289
 20
7.1348965157
  0
LINE
  5
622
100
AcDbEntity
  8
0
100
AcDbLine
 62
7
  6
CONTINUOUS
 10
14.4380374566
 20
7.1264668596
 11
14.4551424562
 21
7.1154605514
  0
LINE
  5
623
100
AcDbEntity
  8
0
100
AcDbLine
 62
7
  6
CONTINUOUS
 10
14.4551424562
 20
7.1186751278
 11
14.4455775621
 21
7.1248304627
  0
LINE
  5
624
100
AcDbEntity
  8
0
100
AcDbLine
 62
7
  6
CONTINUOUS
 10
14.4302705848
 20
7.0993220788
 11
14.4551424562
 21
7.0833147869
  0
LWPOLYLINE
  5
625
100
AcDbEntity
  8
02___PRT_ALL_AXES
100
AcDbPolyline
 62
7
  6
CONTINUOUS
 90
5
 70
0
 10
14.1717598652
 20
7.3448427406
 10
14.150368152
 20
7.3598403467
 10
14.1283204731
 20
7.3760710257
 10
14.1063451266
 20
7.3929982686
 10
14.0852898709
 20
7.4098861095
  0
LWPOLYLINE
  5
626
100
AcDbEntity
  8
02___PRT_ALL_AXES
100
AcDbPolyline
 62
7
  6
CONTINUOUS
 90
4
 70
0
 10
14.1717598652
 20
7.2966240939
 10
14.1431019303
 20
7.3168855315
 10
14.1142635362
 20
7.3385961
 10
14.0852898709
 20
7.3616674628
  0
LWPOLYLINE
  5
627
100
AcDbEntity
  8
02___PRT_ALL_AXES
100
AcDbPolyline
 62
7
  6
CONTINUOUS
 90
4
 70
0
 10
14.3184107162
 20
7.2542962126
 10
14.3470966143
 20
7.2340143543
 10
14.3759407061
 20
7.2122981189
 10
14.4048807105
 20
7.1892528437
  0
LINE
  5
628
100
AcDbEntity
  8
02___PRT_ALL_AXES
100
AcDbLine
 62
7
  6
CONTINUOUS
 10
14.1717598652
 20
7.3360582831
 11
14.1392946723
 21
7.3679922295
  0
LWPOLYLINE
  5
629
100
AcDbEntity
  8
0
100
AcDbPolyline
 62
7
  6
CONTINUOUS
 90
4
 70
0
 10
14.1783519064
 20
7.2447195783
 10
14.1340970691
 20
7.2897041496
 10
14.1020027466
 20
7.338506539
 10
14.0967000316
 20
7.3525816963
  0
LWPOLYLINE
  5
62A
100
AcDbEntity
  8
02___PRT_ALL_AXES
100
AcDbPolyline
 62
7
  6
CONTINUOUS
 90
8
 70
0
 10
13.6436159112
 20
8.4688678396
 10
13.6498051399
 20
8.4052416734
 10
13.6682940749
 20
8.342418009
 10
13.6988502073
 20
8.2811845245
 10
13.7410892759
 20
8.2223112667
 10
13.7944801001
 20
8.1665386008
 10
13.8583512591
 20
8.1145679005
 10
13.931899536
 20
8.0670527275
  0
LINE
  5
62B
100
AcDbEntity
  8
02___PRT_ALL_AXES
100
AcDbLine
 62
7
  6
CONTINUOUS
 10
13.6436182861
 20
8.4688818389
 11
13.6473616443
 21
8.4193392306
  0
LWPOLYLINE
  5
62C
100
AcDbEntity
  8
02___PRT_ALL_AXES
100
AcDbPolyline
 62
7
  6
CONTINUOUS
 90
11
 70
0
 10
14.4048807105
 20
7.3278814529
 10
14.4922940039
 20
7.3128302287
 10
14.5830299699
 20
7.3058546553
 10
14.6748648327
 20
7.3071551658
 10
14.7655478844
 20
7.3167293617
 10
14.8528566461
 20
7.3343720711
 10
14.9346513365
 20
7.3596803773
 10
15.0089273145
 20
7.3920634938
 10
15.073864209
 20
7.4307572428
 10
15.1278705331
 20
7.4748427847
 10
15.1696226888
 20
7.5232691362
  0
LWPOLYLINE
  5
62D
100
AcDbEntity
  8
02___PRT_ALL_AXES
100
AcDbPolyline
 62
7
  6
CONTINUOUS
 90
6
 70
0
 10
14.4048807105
 20
7.3339087837
 10
14.4922940039
 20
7.3188575596
 10
14.5830299699
 20
7.3118819861
 10
14.6748648327
 20
7.3131824966
 10
14.7655478844
 20
7.3227566925
 10
14.8528566461
 20
7.3403994019
  0
LWPOLYLINE
  5
62E
100
AcDbEntity
  8
02___PRT_ALL_AXES
100
AcDbPolyline
 62
7
  6
CONTINUOUS
 90
11
 70
0
 10
14.4048807105
 20
7.3761000996
 10
14.4922940039
 20
7.3610488754
 10
14.5830299699
 20
7.354073302
 10
14.6748648327
 20
7.3553738125
 10
14.7655478844
 20
7.3649480084
 10
14.8528566461
 20
7.3825907177
 10
14.9346513365
 20
7.407899024
 10
15.0089273145
 20
7.4402821405
 10
15.073864209
 20
7.4789758895
 10
15.1278705331
 20
7.5230614313
 10
15.1696226888
 20
7.5714877828
  0
LWPOLYLINE
  5
62F
100
AcDbEntity
  8
02___PRT_ALL_AXES
100
AcDbPolyline
 62
7
  6
CONTINUOUS
 90
12
 70
0
 10
14.4048807105
 20
7.3821274304
 10
14.4922940039
 20
7.3670762063
 10
14.5830299699
 20
7.3601006328
 10
14.6748648327
 20
7.3614011433
 10
14.7655478844
 20
7.3709753392
 10
14.8528566461
 20
7.3886180486
 10
14.9346513365
 20
7.4139263548
 10
15.0089273145
 20
7.4463094713
 10
15.073864209
 20
7.4850032204
 10
15.1278705331
 20
7.5290887622
 10
15.1696226888
 20
7.5775151137
 10
15.1813410146
 20
7.5987543195
  0
LWPOLYLINE
  5
630
100
AcDbEntity
  8
02___PRT_ALL_AXES
100
AcDbPolyline
 62
7
  6
CONTINUOUS
 90
3
 70
0
 10
14.4722333892
 20
7.3593913238
 10
14.3926180427
 20
7.3756953055
 10
14.3184107162
 20
7.3989521526
  0
LWPOLYLINE
  5
631
100
AcDbEntity
  8
02___PRT_ALL_AXES
100
AcDbPolyline
 62
7
  6
CONTINUOUS
 90
3
 70
0
 10
14.4709792061
 20
7.3113685333
 10
14.3921635467
 20
7.3275936477
 10
14.3184107162
 20
7.3507335059
  0
LWPOLYLINE
  5
632
100
AcDbEntity
  8
02___PRT_ALL_AXES
100
AcDbPolyline
 62
7
  6
CONTINUOUS
 90
5
 70
0
 10
14.0852898709
 20
7.4159134403
 10
14.1063563667
 20
7.409218318
 10
14.1282318911
 20
7.4015999215
 10
14.1502462001
 20
7.3932102046
 10
14.1717598652
 20
7.3842769298
  0
LWPOLYLINE
  5
633
100
AcDbEntity
  8
02___PRT_ALL_AXES
100
AcDbPolyline
 62
7
  6
CONTINUOUS
 90
3
 70
0
 10
14.4048807105
 20
7.3278814529
 10
14.375905419
 20
7.3372505844
 10
14.3470692765
 20
7.347780025
  0
LWPOLYLINE
  5
634
100
AcDbEntity
  8
02___PRT_ALL_AXES
100
AcDbPolyline
 62
7
  6
CONTINUOUS
 90
4
 70
0
 10
14.0852898709
 20
7.464132087
 10
14.1142608109
 20
7.4547644514
 10
14.1430966244
 20
7.4442353261
 10
14.1717598652
 20
7.4324955765
  0
LWPOLYLINE
  5
635
100
AcDbEntity
  8
02___PRT_ALL_AXES
100
AcDbPolyline
 62
7
  6
CONTINUOUS
 90
3
 70
0
 10
14.4048807105
 20
7.3761000996
 10
14.375905419
 20
7.3854692311
 10
14.3470692765
 20
7.3959986717
  0
LWPOLYLINE
  5
636
100
AcDbEntity
  8
02___PRT_ALL_AXES
100
AcDbPolyline
 62
7
  6
CONTINUOUS
 90
4
 70
0
 10
14.0852898709
 20
7.5123507337
 10
14.1142608109
 20
7.5029830981
 10
14.1430966244
 20
7.4924539728
 10
14.1717598652
 20
7.4807142231
  0
LINE
  5
637
100
AcDbEntity
  8
02___PRT_ALL_AXES
100
AcDbLine
 62
7
  6
CONTINUOUS
 10
14.3470692765
 20
7.347780025
 11
14.3184107162
 21
7.3595179634
  0
LINE
  5
638
100
AcDbEntity
  8
02___PRT_ALL_AXES
100
AcDbLine
 62
7
  6
CONTINUOUS
 10
14.3470692765
 20
7.3959986717
 11
14.3184107162
 21
7.4077366101
  0
LWPOLYLINE
  5
639
100
AcDbEntity
  8
0
100
AcDbPolyline
 62
7
  6
CONTINUOUS
 90
7
 70
0
 10
13.9400535644
 20
7.6632804774
 10
13.8521114496
 20
7.7214267423
 10
13.7780318464
 20
7.7862570414
 10
13.7193595569
 20
7.8564374798
 10
13.677201955
 20
7.9303268012
 10
13.6519837787
 20
8.0062982343
 10
13.6436159112
 20
8.0831186662
  0
LWPOLYLINE
  5
63A
100
AcDbEntity
  8
02___PRT_ALL_AXES
100
AcDbPolyline
 62
7
  6
CONTINUOUS
 90
4
 70
0
 10
14.1717598652
 20
7.3930613872
 10
14.1431019303
 20
7.4133228249
 10
14.1142635362
 20
7.4350333934
 10
14.0852898709
 20
7.4581047561
  0
LWPOLYLINE
  5
63B
100
AcDbEntity
  8
02___PRT_ALL_AXES
100
AcDbPolyline
 62
7
  6
CONTINUOUS
 90
4
 70
0
 10
14.3184107162
 20
7.3025148593
 10
14.3470735443
 20
7.2822498484
 10
14.375911569
 20
7.2605393473
 10
14.4048807105
 20
7.2374714904
  0
LWPOLYLINE
  5
63C
100
AcDbEntity
  8
02___PRT_ALL_AXES
100
AcDbPolyline
 62
7
  6
CONTINUOUS
 90
4
 70
0
 10
14.1717598652
 20
7.4412800339
 10
14.1431019303
 20
7.4615414716
 10
14.1142635362
 20
7.4832520401
 10
14.0852898709
 20
7.5063234028
  0
LWPOLYLINE
  5
63D
100
AcDbEntity
  8
02___PRT_ALL_AXES
100
AcDbPolyline
 62
7
  6
CONTINUOUS
 90
4
 70
0
 10
14.3184107162
 20
7.3507335059
 10
14.3470735443
 20
7.330468495
 10
14.375911569
 20
7.3087579939
 10
14.4048807105
 20
7.285690137
  0
LWPOLYLINE
  5
63E
100
AcDbEntity
  8
02___PRT_ALL_AXES
100
AcDbPolyline
 62
7
  6
CONTINUOUS
 90
4
 70
0
 10
14.1717598652
 20
7.4894986806
 10
14.1431019303
 20
7.5097601183
 10
14.1142635362
 20
7.5314706868
 10
14.0852898709
 20
7.5545420495
  0
LWPOLYLINE
  5
63F
100
AcDbEntity
  8
02___PRT_ALL_AXES
100
AcDbPolyline
 62
7
  6
CONTINUOUS
 90
4
 70
0
 10
14.3184107162
 20
7.3989521526
 10
14.3470735443
 20
7.3786871417
 10
14.375911569
 20
7.3569766406
 10
14.4048807105
 20
7.3339087837
  0
LINE
  5
640
100
AcDbEntity
  8
02___PRT_ALL_AXES
100
AcDbLine
 62
7
  6
CONTINUOUS
 10
14.1717598652
 20
7.3842769298
 11
14.1389503721
 21
7.4164482655
  0
LINE
  5
641
100
AcDbEntity
  8
02___PRT_ALL_AXES
100
AcDbLine
 62
7
  6
CONTINUOUS
 10
14.1717598652
 20
7.4324955765
 11
14.1393685279
 21
7.4643521096
  0
LINE
  5
642
100
AcDbEntity
  8
02___PRT_ALL_AXES
100
AcDbLine
 62
7
  6
CONTINUOUS
 10
14.1717598652
 20
7.4807142231
 11
14.1393909407
 21
7.5125538832
  0
LINE
  5
643
100
AcDbEntity
  8
02___PRT_ALL_AXES
100
AcDbLine
 62
7
  6
CONTINUOUS
 10
14.0571362232
 20
7.4109320551
 11
14.0852898709
 21
7.3616674628
  0
LINE
  5
644
100
AcDbEntity
  8
02___PRT_ALL_AXES
100
AcDbLine
 62
7
  6
CONTINUOUS
 10
14.0571362232
 20
7.4591507018
 11
14.0852898709
 21
7.4098861095
  0
LINE
  5
645
100
AcDbEntity
  8
02___PRT_ALL_AXES
100
AcDbLine
 62
7
  6
CONTINUOUS
 10
14.0571362232
 20
7.4651780326
 11
14.0852898709
 21
7.4159134403
  0
LINE
  5
646
100
AcDbEntity
  8
02___PRT_ALL_AXES
100
AcDbLine
 62
7
  6
CONTINUOUS
 10
14.0571362232
 20
7.5073693484
 11
14.0852898709
 21
7.4581047561
  0
LINE
  5
647
100
AcDbEntity
  8
02___PRT_ALL_AXES
100
AcDbLine
 62
7
  6
CONTINUOUS
 10
13.6473616443
 20
8.4193392306
 11
13.6639507736
 21
8.3539553841
  0
LWPOLYLINE
  5
648
100
AcDbEntity
  8
02___PRT_ALL_AXES
100
AcDbPolyline
 62
7
  6
CONTINUOUS
 90
4
 70
0
 10
14.3003686825
 20
9.3435594149
 10
14.2935968667
 20
9.3287779702
 10
14.286868175
 20
9.3042499223
 10
14.2853481947
 20
9.2856407284
  0
LINE
  5
649
100
AcDbEntity
  8
02___PRT_ALL_AXES
100
AcDbLine
 62
7
  6
CONTINUOUS
 10
14.3497344863
 20
9.4366024944
 11
14.3003686825
 21
9.3435594149
  0
LWPOLYLINE
  5
64A
100
AcDbEntity
  8
02___PRT_ALL_AXES
100
AcDbPolyline
 62
7
  6
CONTINUOUS
 90
6
 70
0
 10
14.7531159023
 20
7.5042930853
 10
14.721352409
 20
7.4992131391
 10
14.6379733631
 20
7.4934889274
 10
14.5545417413
 20
7.4950992864
 10
14.472262402
 20
7.5040427551
 10
14.4474559503
 20
7.5091220742
  0
LWPOLYLINE
  5
64B
100
AcDbEntity
  8
02___PRT_ALL_AXES
100
AcDbPolyline
 62
7
  6
CONTINUOUS
 90
11
 70
0
 10
14.4048807105
 20
7.4243187462
 10
14.4922940039
 20
7.4092675221
 10
14.5830299699
 20
7.4022919486
 10
14.6748648327
 20
7.4035924592
 10
14.7655478844
 20
7.413166655
 10
14.8528566461
 20
7.4308093644
 10
14.9346513365
 20
7.4561176707
 10
15.0089273145
 20
7.4885007871
 10
15.073864209
 20
7.5271945362
 10
15.1278705331
 20
7.571280078
 10
15.1387382142
 20
7.5838849876
  0
LWPOLYLINE
  5
64C
100
AcDbEntity
  8
02___PRT_ALL_AXES
100
AcDbPolyline
 62
7
  6
CONTINUOUS
 90
11
 70
0
 10
14.4048807105
 20
7.4303460771
 10
14.4922940039
 20
7.4152948529
 10
14.5830299699
 20
7.4083192795
 10
14.6748648327
 20
7.40961979
 10
14.7655478844
 20
7.4191939859
 10
14.8528566461
 20
7.4368366953
 10
14.9346513365
 20
7.4621450015
 10
15.0089273145
 20
7.494528118
 10
15.073864209
 20
7.533221867
 10
15.1278705331
 20
7.5773074089
 10
15.1313046851
 20
7.5812905193
  0
LWPOLYLINE
  5
64D
100
AcDbEntity
  8
02___PRT_ALL_AXES
100
AcDbPolyline
 62
7
  6
CONTINUOUS
 90
9
 70
0
 10
14.4048807105
 20
7.4725373929
 10
14.4922940039
 20
7.4574861688
 10
14.5830299699
 20
7.4505105953
 10
14.6748648327
 20
7.4518111058
 10
14.7655478844
 20
7.4613853017
 10
14.8528566461
 20
7.4790280111
 10
14.9346513365
 20
7.5043363174
 10
15.0089273145
 20
7.5367194338
 10
15.0321606927
 20
7.5505634359
  0
LWPOLYLINE
  5
64E
100
AcDbEntity
  8
02___PRT_ALL_AXES
100
AcDbPolyline
 62
7
  6
CONTINUOUS
 90
9
 70
0
 10
14.4048807105
 20
7.4785647238
 10
14.4922940039
 20
7.4635134996
 10
14.5830299699
 20
7.4565379262
 10
14.6748648327
 20
7.4578384367
 10
14.7655478844
 20
7.4674126326
 10
14.8528566461
 20
7.4850553419
 10
14.9346513365
 20
7.5103636482
 10
15.0089273145
 20
7.5427467647
 10
15.0149066674
 20
7.5463096634
  0
LWPOLYLINE
  5
64F
100
AcDbEntity
  8
0
100
AcDbPolyline
 62
7
  6
CONTINUOUS
 90
5
 70
0
 10
14.4111687402
 20
7.5124151332
 10
14.2815577079
 20
7.535212095
 10
14.1583531394
 20
7.5683161446
 10
14.0438148935
 20
7.6112162051
 10
13.9400535644
 20
7.6632804774
  0
LWPOLYLINE
  5
650
100
AcDbEntity
  8
02___PRT_ALL_AXES
100
AcDbPolyline
 62
7
  6
CONTINUOUS
 90
3
 70
0
 10
14.472108261
 20
7.4076294275
 10
14.3925589805
 20
7.4239291386
 10
14.3184107162
 20
7.4471707993
  0
LWPOLYLINE
  5
651
100
AcDbEntity
  8
02___PRT_ALL_AXES
100
AcDbPolyline
 62
7
  6
CONTINUOUS
 90
3
 70
0
 10
14.469998399
 20
7.4561789324
 10
14.3912576553
 20
7.4724836324
 10
14.3184107162
 20
7.495389446
  0
LWPOLYLINE
  5
652
100
AcDbEntity
  8
0
100
AcDbPolyline
 62
9
  6
CONTINUOUS
 90
16
 70
0
 10
14.2097744459
 20
7.5686846348
 10
14.3332992166
 20
7.5409145155
 10
14.4640381111
 20
7.522795898
 10
14.5972306567
 20
7.515144011
 10
14.7307991238
 20
7.5179845519
 10
14.8626476954
 20
7.5312719925
 10
14.9902138005
 20
7.5547774169
 10
15.1110346005
 20
7.5880493666
 10
15.222901564
 20
7.6304711664
 10
15.3237756946
 20
7.6812686115
 10
15.4117791107
 20
7.7394982402
 10
15.485277251
 20
7.804076
 10
15.542928747
 20
7.8738247825
 10
15.5836651916
 20
7.9474697839
 10
15.6067041419
 20
8.0235893863
 10
15.6121198482
 20
8.0831133439
  0
LINE
  5
653
100
AcDbEntity
  8
0
100
AcDbLine
 62
9
  6
CONTINUOUS
 10
14.0992312374
 20
7.6037873507
 11
14.2097744459
 21
7.5686846348
  0
LWPOLYLINE
  5
654
100
AcDbEntity
  8
02___PRT_ALL_AXES
100
AcDbPolyline
 62
7
  6
CONTINUOUS
 90
4
 70
0
 10
14.4048807105
 20
7.4243187462
 10
14.3838418232
 20
7.4310046904
 10
14.3618743833
 20
7.4386556984
 10
14.3398218092
 20
7.4470628264
  0
LWPOLYLINE
  5
655
100
AcDbEntity
  8
02___PRT_ALL_AXES
100
AcDbPolyline
 62
7
  6
CONTINUOUS
 90
4
 70
0
 10
14.0852898709
 20
7.5605693803
 10
14.1142608109
 20
7.5512017448
 10
14.1430966244
 20
7.5406726195
 10
14.1717598652
 20
7.5289328698
  0
LWPOLYLINE
  5
656
100
AcDbEntity
  8
02___PRT_ALL_AXES
100
AcDbPolyline
 62
7
  6
CONTINUOUS
 90
3
 70
0
 10
14.4048807105
 20
7.4725373929
 10
14.375905419
 20
7.4819065245
 10
14.3470692765
 20
7.492435965
  0
LINE
  5
657
100
AcDbEntity
  8
02___PRT_ALL_AXES
100
AcDbLine
 62
7
  6
CONTINUOUS
 10
14.3470692765
 20
7.492435965
 11
14.3184107162
 21
7.5041739034
  0
LINE
  5
658
100
AcDbEntity
  8
02___PRT_ALL_AXES
100
AcDbLine
 62
7
  6
CONTINUOUS
 10
14.3398218092
 20
7.4470628264
 11
14.3184107162
 21
7.4559552568
  0
LWPOLYLINE
  5
659
100
AcDbEntity
  8
0
100
AcDbPolyline
 62
9
  6
CONTINUOUS
 90
3
 70
0
 10
13.931899536
 20
7.6813035541
 10
14.0058398915
 20
7.6427338027
 10
14.0992312374
 20
7.6037873507
  0
LWPOLYLINE
  5
65A
100
AcDbEntity
  8
02___PRT_ALL_AXES
100
AcDbPolyline
 62
7
  6
CONTINUOUS
 90
5
 70
0
 10
14.3184107162
 20
7.495389446
 10
14.3399017984
 20
7.4803204276
 10
14.361906296
 20
7.4641188206
 10
14.3837887515
 20
7.4472627946
 10
14.4048807105
 20
7.4303460771
  0
LWPOLYLINE
  5
65B
100
AcDbEntity
  8
02___PRT_ALL_AXES
100
AcDbPolyline
 62
7
  6
CONTINUOUS
 90
4
 70
0
 10
14.1717598652
 20
7.5377173273
 10
14.1431019303
 20
7.5579787649
 10
14.1142635362
 20
7.5796893334
 10
14.102074778
 20
7.5893950872
  0
LWPOLYLINE
  5
65C
100
AcDbEntity
  8
02___PRT_ALL_AXES
100
AcDbPolyline
 62
7
  6
CONTINUOUS
 90
4
 70
0
 10
14.3184107162
 20
7.4471707993
 10
14.3470735443
 20
7.4269057884
 10
14.375911569
 20
7.4051952873
 10
14.4048807105
 20
7.3821274304
  0
LWPOLYLINE
  5
65D
100
AcDbEntity
  8
02___PRT_ALL_AXES
100
AcDbPolyline
 62
7
  6
CONTINUOUS
 90
4
 70
0
 10
14.3464228592
 20
7.523803125
 10
14.3470735443
 20
7.5233430818
 10
14.375911569
 20
7.5016325807
 10
14.4048807105
 20
7.4785647238
  0
LINE
  5
65E
100
AcDbEntity
  8
02___PRT_ALL_AXES
100
AcDbLine
 62
7
  6
CONTINUOUS
 10
14.1717598652
 20
7.5289328698
 11
14.1392324949
 21
7.5608918135
  0
LWPOLYLINE
  5
65F
100
AcDbEntity
  8
0
100
AcDbPolyline
 62
7
  6
CONTINUOUS
 90
3
 70
0
 10
14.3964492801
 20
7.1359262847
 10
14.4100439644
 20
7.1175964377
 10
14.4302705848
 20
7.0993220788
  0
LINE
  5
660
100
AcDbEntity
  8
02___PRT_ALL_AXES
100
AcDbLine
 62
7
  6
CONTINUOUS
 10
14.0571362232
 20
7.5555879951
 11
14.0852898709
 21
7.5063234028
  0
LINE
  5
661
100
AcDbEntity
  8
02___PRT_ALL_AXES
100
AcDbLine
 62
7
  6
CONTINUOUS
 10
14.0571362232
 20
7.6038066418
 11
14.0852898709
 21
7.5545420495
  0
LINE
  5
662
100
AcDbEntity
  8
02___PRT_ALL_AXES
100
AcDbLine
 62
7
  6
CONTINUOUS
 10
14.0597591015
 20
7.6052443354
 11
14.0852898709
 21
7.5605693803
  0
LINE
  5
663
100
AcDbEntity
  8
02___PRT_ALL_AXES
100
AcDbLine
 62
7
  6
CONTINUOUS
 10
13.6639507736
 20
8.3539553841
 11
13.6935752282
 21
8.2901255314
  0
LWPOLYLINE
  5
664
100
AcDbEntity
  8
0
100
AcDbPolyline
 62
9
  6
CONTINUOUS
 90
4
 70
0
 10
14.099125932
 20
7.3506499825
 10
14.0995668881
 20
7.3494694002
 10
14.1298071482
 20
7.303901602
 10
14.1717598652
 20
7.2615385619
  0
LINE
  5
665
100
AcDbEntity
  8
02___PRT_ALL_AXES
100
AcDbLine
 62
7
  6
CONTINUOUS
 10
14.042970185
 20
7.5103336798
 11
14.0571362232
 21
7.4591507018
  0
LWPOLYLINE
  5
666
100
AcDbEntity
  8
02___PRT_ALL_AXES
100
AcDbPolyline
 62
7
  6
CONTINUOUS
 90
9
 70
0
 10
14.3497367636
 20
9.4366064377
 10
14.341207593
 20
9.4159487689
 10
14.3371476623
 20
9.3931472762
 10
14.3385032992
 20
9.3702389875
 10
14.3452492507
 20
9.3476506409
 10
14.3572598525
 20
9.3258030144
 10
14.3743113698
 20
9.3051030882
 10
14.3960861652
 20
9.2859364625
 10
14.4221786154
 20
9.2686601754
  0
LWPOLYLINE
  5
667
100
AcDbEntity
  8
02___PRT_ALL_AXES
100
AcDbPolyline
 62
7
  6
CONTINUOUS
 90
3
 70
0
 10
14.5651459616
 20
7.5001041236
 10
14.5830299699
 20
7.498729242
 10
14.6344975714
 20
7.4994580955
  0
LINE
  5
668
100
AcDbEntity
  8
02___PRT_ALL_AXES
100
AcDbLine
 62
7
  6
CONTINUOUS
 10
13.7358343881
 20
8.2287128617
 11
13.7901567707
 21
8.1705478762
  0
LINE
  5
669
100
AcDbEntity
  8
02___PRT_ALL_AXES
100
AcDbLine
 62
7
  6
CONTINUOUS
 10
13.6935752282
 20
8.2901255314
 11
13.7358343881
 21
8.2287128617
  0
LINE
  5
66A
100
AcDbEntity
  8
02___PRT_ALL_AXES
100
AcDbLine
 62
7
  6
CONTINUOUS
 10
14.042970185
 20
7.5585523265
 11
14.0571362232
 21
7.5073693484
  0
LINE
  5
66B
100
AcDbEntity
  8
02___PRT_ALL_AXES
100
AcDbLine
 62
7
  6
CONTINUOUS
 10
14.042970185
 20
7.6067709732
 11
14.0571362232
 21
7.5555879951
  0
LWPOLYLINE
  5
66C
100
AcDbEntity
  8
02___PRT_ALL_AXES
100
AcDbPolyline
 62
7
  6
CONTINUOUS
 90
3
 70
0
 10
14.0433424562
 20
7.6114532598
 10
14.0571362232
 20
7.5616153259
 10
14.0852898709
 20
7.5123507337
  0
LINE
  5
66D
100
AcDbEntity
  8
02___PRT_ALL_AXES
100
AcDbLine
 62
7
  6
CONTINUOUS
 10
14.0563889433
 20
7.6065066211
 11
14.0571362232
 21
7.6038066418
  0
LWPOLYLINE
  5
66E
100
AcDbEntity
  8
02___PRT_ALL_AXES
100
AcDbPolyline
 62
7
  6
CONTINUOUS
 90
3
 70
0
 10
14.0412537065
 20
7.4874174367
 10
14.042970185
 20
7.4621150331
 10
14.0571362232
 20
7.4109320551
  0
LWPOLYLINE
  5
66F
100
AcDbEntity
  8
02___PRT_ALL_AXES
100
AcDbPolyline
 62
7
  6
CONTINUOUS
 90
4
 70
0
 10
14.0412537065
 20
7.4934447675
 10
14.042970185
 20
7.4681423639
 10
14.0571362232
 20
7.4169593859
 10
14.0852898709
 20
7.3676947936
  0
LINE
  5
670
100
AcDbEntity
  8
02___PRT_ALL_AXES
100
AcDbLine
 62
7
  6
CONTINUOUS
 10
14.0412537065
 20
7.5356360833
 11
14.042970185
 21
7.5103336798
  0
LWPOLYLINE
  5
671
100
AcDbEntity
  8
02___PRT_ALL_AXES
100
AcDbPolyline
 62
7
  6
CONTINUOUS
 90
3
 70
0
 10
14.0412537065
 20
7.5416634142
 10
14.042970185
 20
7.5163610106
 10
14.0571362232
 20
7.4651780326
  0
LINE
  5
672
100
AcDbEntity
  8
02___PRT_ALL_AXES
100
AcDbLine
 62
7
  6
CONTINUOUS
 10
14.0412537065
 20
7.58385473
 11
14.042970185
 21
7.5585523265
  0
LWPOLYLINE
  5
673
100
AcDbEntity
  8
02___PRT_ALL_AXES
100
AcDbPolyline
 62
7
  6
CONTINUOUS
 90
4
 70
0
 10
14.0412537065
 20
7.5898820609
 10
14.042970185
 20
7.5645796573
 10
14.0571362232
 20
7.5133966793
 10
14.0852898709
 20
7.464132087
  0
LINE
  5
674
100
AcDbEntity
  8
02___PRT_ALL_AXES
100
AcDbLine
 62
7
  6
CONTINUOUS
 10
14.0426282338
 20
7.6118116348
 11
14.042970185
 21
7.6067709732
  0
LINE
  5
675
100
AcDbEntity
  8
02___PRT_ALL_AXES
100
AcDbLine
 62
7
  6
CONTINUOUS
 10
14.0852898709
 20
7.3616674628
 11
14.0852898709
 21
7.3676947936
  0
LINE
  5
676
100
AcDbEntity
  8
02___PRT_ALL_AXES
100
AcDbLine
 62
7
  6
CONTINUOUS
 10
14.0852898709
 20
7.4098861095
 11
14.0852898709
 21
7.4159134403
  0
LINE
  5
677
100
AcDbEntity
  8
02___PRT_ALL_AXES
100
AcDbLine
 62
7
  6
CONTINUOUS
 10
14.0852898709
 20
7.4581047561
 11
14.0852898709
 21
7.464132087
  0
LINE
  5
678
100
AcDbEntity
  8
02___PRT_ALL_AXES
100
AcDbLine
 62
7
  6
CONTINUOUS
 10
14.0852898709
 20
7.5063234028
 11
14.0852898709
 21
7.5123507337
  0
LINE
  5
679
100
AcDbEntity
  8
02___PRT_ALL_AXES
100
AcDbLine
 62
7
  6
CONTINUOUS
 10
14.0852898709
 20
7.5545420495
 11
14.0852898709
 21
7.5605693803
  0
LINE
  5
67A
100
AcDbEntity
  8
02___PRT_ALL_AXES
100
AcDbLine
 62
7
  6
CONTINUOUS
 10
14.0427184035
 20
7.6104824537
 11
14.0412537065
 21
7.5898820609
  0
LINE
  5
67B
100
AcDbEntity
  8
02___PRT_ALL_AXES
100
AcDbLine
 62
7
  6
CONTINUOUS
 10
14.0427184035
 20
7.562263807
 11
14.0412537065
 21
7.5416634142
  0
LINE
  5
67C
100
AcDbEntity
  8
02___PRT_ALL_AXES
100
AcDbLine
 62
7
  6
CONTINUOUS
 10
14.0427184035
 20
7.5140451603
 11
14.0412537065
 21
7.4934447675
  0
LINE
  5
67D
100
AcDbEntity
  8
02___PRT_ALL_AXES
100
AcDbLine
 62
7
  6
CONTINUOUS
 10
13.7901567707
 20
8.1705478762
 11
13.8558077591
 21
8.1164171564
  0
LWPOLYLINE
  5
67E
100
AcDbEntity
  8
0
100
AcDbPolyline
 62
7
  6
CONTINUOUS
 90
16
 70
0
 10
14.3858287868
 20
7.0996107479
 10
14.3935839949
 20
7.0794953751
 10
14.4067167105
 20
7.0602958283
 10
14.4249254889
 20
7.0424708644
 10
14.4477918771
 20
7.0264477717
 10
14.474795638
 20
7.012609886
 10
14.5053150741
 20
7.0012948312
 10
14.5386483948
 20
6.9927808506
 10
14.5740296967
 20
6.9872813067
 10
14.6106467483
 20
6.98494014
 10
14.6476592315
 20
6.9858288507
 10
14.684217233
 20
6.9899448418
 10
14.7194812688
 20
6.9972113705
 10
14.7526420582
 20
7.0074794774
 10
14.7829385523
 20
7.0205314239
 10
14.8096750333
 20
7.0360854939
  0
LWPOLYLINE
  5
67F
100
AcDbEntity
  8
0
100
AcDbPolyline
 62
7
  6
CONTINUOUS
 90
4
 70
0
 10
14.1717598652
 20
7.2615385619
 10
14.1732596609
 20
7.2522952521
 10
14.177605926
 20
7.2453986878
 10
14.1783513578
 20
7.2447198886
  0
LINE
  5
680
100
AcDbEntity
  8
02___PRT_ALL_AXES
100
AcDbLine
 62
7
  6
CONTINUOUS
 10
14.1717598652
 20
7.5377173273
 11
14.1717598652
 21
7.5289328698
  0
LINE
  5
681
100
AcDbEntity
  8
02___PRT_ALL_AXES
100
AcDbLine
 62
7
  6
CONTINUOUS
 10
14.1717598652
 20
7.4894986806
 11
14.1717598652
 21
7.4807142231
  0
LINE
  5
682
100
AcDbEntity
  8
02___PRT_ALL_AXES
100
AcDbLine
 62
7
  6
CONTINUOUS
 10
14.1717598652
 20
7.4412800339
 11
14.1717598652
 21
7.4324955765
  0
LINE
  5
683
100
AcDbEntity
  8
02___PRT_ALL_AXES
100
AcDbLine
 62
7
  6
CONTINUOUS
 10
14.1717598652
 20
7.3930613872
 11
14.1717598652
 21
7.3842769298
  0
LINE
  5
684
100
AcDbEntity
  8
02___PRT_ALL_AXES
100
AcDbLine
 62
7
  6
CONTINUOUS
 10
14.1717598652
 20
7.3448427406
 11
14.1717598652
 21
7.3360582831
  0
LINE
  5
685
100
AcDbEntity
  8
0
100
AcDbLine
 62
7
  6
CONTINUOUS
 10
14.1717598652
 20
7.2966240939
 11
14.1717598652
 21
7.2615385619
  0
LINE
  5
686
100
AcDbEntity
  8
02___PRT_ALL_AXES
100
AcDbLine
 62
7
  6
CONTINUOUS
 10
14.0174030909
 20
8.0231221587
 11
13.931899536
 21
8.0670527275
  0
LINE
  5
687
100
AcDbEntity
  8
02___PRT_ALL_AXES
100
AcDbLine
 62
7
  6
CONTINUOUS
 10
13.8558077591
 20
8.1164171564
 11
13.931899536
 21
8.0670527275
  0
LWPOLYLINE
  5
688
100
AcDbEntity
  8
0
100
AcDbPolyline
 62
7
  6
CONTINUOUS
 90
6
 70
0
 10
14.4266624746
 20
7.0379689002
 10
14.4287840037
 20
7.0294501477
 10
14.4369738917
 20
7.0133470585
 10
14.4490498307
 20
6.9980807923
 10
14.4647659896
 20
6.9839621262
 10
14.4838024326
 20
6.9712784754
  0
LWPOLYLINE
  5
689
100
AcDbEntity
  8
0
100
AcDbPolyline
 62
7
  6
CONTINUOUS
 90
4
 70
0
 10
14.3184107162
 20
7.176871569
 10
14.3196502711
 20
7.1677785059
 10
14.3232399861
 20
7.1613187262
 10
14.3257872448
 20
7.1592973719
  0
LWPOLYLINE
  5
68A
100
AcDbEntity
  8
02___PRT_ALL_AXES
100
AcDbPolyline
 62
7
  6
CONTINUOUS
 90
8
 70
0
 10
14.2853481947
 20
9.2856407284
 10
14.2855172523
 20
9.2794283963
 10
14.2895654035
 20
9.2547048425
 10
14.2989487868
 20
9.2304691661
 10
14.3135194208
 20
9.2071035782
 10
14.3330475177
 20
9.1849765681
 10
14.3572251078
 20
9.1644370919
 10
14.3856708961
 20
9.1458090694
  0
LWPOLYLINE
  5
68B
100
AcDbEntity
  8
02___PRT_ALL_AXES
100
AcDbPolyline
 62
7
  6
CONTINUOUS
 90
8
 70
0
 10
14.2853493193
 20
9.2329155374
 10
14.2855172523
 20
9.2267093426
 10
14.2895654035
 20
9.2019857888
 10
14.2989487868
 20
9.1777501124
 10
14.3135194208
 20
9.1543845245
 10
14.3330475177
 20
9.1322575144
 10
14.3572251078
 20
9.1117180382
 10
14.3856708961
 20
9.0930900157
  0
LINE
  5
68C
100
AcDbEntity
  8
02___PRT_ALL_AXES
100
AcDbLine
 62
7
  6
CONTINUOUS
 10
14.2853481947
 20
9.2856407284
 11
14.2853481947
 21
9.2329216747
  0
LWPOLYLINE
  5
68D
100
AcDbEntity
  8
0
100
AcDbPolyline
 62
7
  6
CONTINUOUS
 90
5
 70
0
 10
14.384577065
 20
7.1398155286
 10
14.386499307
 20
7.1259847691
 10
14.3953185654
 20
7.1053010323
 10
14.4100563898
 20
7.0854371154
 10
14.4302798291
 20
7.0671693006
  0
LINE
  5
68E
100
AcDbEntity
  8
0
100
AcDbLine
 62
7
  6
CONTINUOUS
 10
14.3835962262
 20
7.1179420814
 11
14.3858287868
 21
7.0996107479
  0
LWPOLYLINE
  5
68F
100
AcDbEntity
  8
0
100
AcDbPolyline
 62
7
  6
CONTINUOUS
 90
3
 70
0
 10
14.3835962262
 20
7.11553134
 10
14.3837166109
 20
7.1111040355
 10
14.3866034349
 20
7.0934700845
  0
LINE
  5
690
100
AcDbEntity
  8
02___PRT_ALL_AXES
100
AcDbLine
 62
7
  6
CONTINUOUS
 10
14.3184107162
 20
7.5041739034
 11
14.3184107162
 21
7.495389446
  0
LINE
  5
691
100
AcDbEntity
  8
02___PRT_ALL_AXES
100
AcDbLine
 62
7
  6
CONTINUOUS
 10
14.3184107162
 20
7.4559552568
 11
14.3184107162
 21
7.4471707993
  0
LINE
  5
692
100
AcDbEntity
  8
02___PRT_ALL_AXES
100
AcDbLine
 62
7
  6
CONTINUOUS
 10
14.3184107162
 20
7.4077366101
 11
14.3184107162
 21
7.3989521526
  0
LINE
  5
693
100
AcDbEntity
  8
02___PRT_ALL_AXES
100
AcDbLine
 62
7
  6
CONTINUOUS
 10
14.3184107162
 20
7.3595179634
 11
14.3184107162
 21
7.3507335059
  0
LINE
  5
694
100
AcDbEntity
  8
02___PRT_ALL_AXES
100
AcDbLine
 62
7
  6
CONTINUOUS
 10
14.3184107162
 20
7.3112993167
 11
14.3184107162
 21
7.3025148593
  0
LINE
  5
695
100
AcDbEntity
  8
02___PRT_ALL_AXES
100
AcDbLine
 62
7
  6
CONTINUOUS
 10
14.3184107162
 20
7.26308067
 11
14.3184107162
 21
7.2542962126
  0
LINE
  5
696
100
AcDbEntity
  8
0
100
AcDbLine
 62
7
  6
CONTINUOUS
 10
14.3184107162
 20
7.2148620234
 11
14.3184107162
 21
7.176871569
  0
LINE
  5
697
100
AcDbEntity
  8
02___PRT_ALL_AXES
100
AcDbLine
 62
7
  6
CONTINUOUS
 10
14.4048807105
 20
7.4785647238
 11
14.4048807105
 21
7.4725373929
  0
LINE
  5
698
100
AcDbEntity
  8
02___PRT_ALL_AXES
100
AcDbLine
 62
7
  6
CONTINUOUS
 10
14.4048807105
 20
7.4303460771
 11
14.4048807105
 21
7.4243187462
  0
LINE
  5
699
100
AcDbEntity
  8
02___PRT_ALL_AXES
100
AcDbLine
 62
7
  6
CONTINUOUS
 10
14.4048807105
 20
7.3821274304
 11
14.4048807105
 21
7.3761000996
  0
LINE
  5
69A
100
AcDbEntity
  8
02___PRT_ALL_AXES
100
AcDbLine
 62
7
  6
CONTINUOUS
 10
14.4048807105
 20
7.3339087837
 11
14.4048807105
 21
7.3278814529
  0
LINE
  5
69B
100
AcDbEntity
  8
02___PRT_ALL_AXES
100
AcDbLine
 62
7
  6
CONTINUOUS
 10
14.4048807105
 20
7.285690137
 11
14.4048807105
 21
7.2796628062
  0
LINE
  5
69C
100
AcDbEntity
  8
02___PRT_ALL_AXES
100
AcDbLine
 62
7
  6
CONTINUOUS
 10
14.4048807105
 20
7.2374714904
 11
14.4048807105
 21
7.2314441595
  0
LINE
  5
69D
100
AcDbEntity
  8
02___PRT_ALL_AXES
100
AcDbLine
 62
7
  6
CONTINUOUS
 10
14.4048807105
 20
7.1892528437
 11
14.4048807105
 21
7.1832255128
  0
LWPOLYLINE
  5
69E
100
AcDbEntity
  8
0
100
AcDbPolyline
 62
7
  6
CONTINUOUS
 90
3
 70
0
 10
14.3856323988
 20
7.1322222765
 10
14.3836288275
 20
7.1201625075
 10
14.3835962262
 20
7.1179420814
  0
LWPOLYLINE
  5
69F
100
AcDbEntity
  8
0
100
AcDbPolyline
 62
7
  6
CONTINUOUS
 90
3
 70
0
 10
14.8721395333
 20
7.1340149498
 10
14.8720503759
 20
7.1379631734
 10
14.8716982465
 20
7.1400046603
  0
LWPOLYLINE
  5
6A0
100
AcDbEntity
  8
02___PRT_ALL_AXES
100
AcDbPolyline
 62
7
  6
CONTINUOUS
 90
19
 70
0
 10
14.9703875648
 20
9.2856407284
 10
14.9688675845
 20
9.2670315345
 10
14.9621388928
 20
9.2425034866
 10
14.9501385474
 20
9.2186557388
 10
14.9330558012
 20
9.1958643843
 10
14.9111600591
 20
9.1744888564
 10
14.8847966301
 20
9.1548662598
 10
14.8543812813
 20
9.1373060548
 10
14.8203936807
 20
9.1220851762
 10
14.7833698333
 20
9.1094436663
 10
14.7438936272
 20
9.0995808894
 10
14.7025876258
 20
9.0926523873
 10
14.6601032493
 20
9.0887674266
 10
14.6171105018
 20
9.0879872755
 10
14.5742874045
 20
9.0903242374
 10
14.5323093034
 20
9.095741457
 10
14.4918382181
 20
9.1041535016
 10
14.4535124018
 20
9.1154277082
 10
14.4179362756
 20
9.1293862758
  0
LWPOLYLINE
  5
6A1
100
AcDbEntity
  8
02___PRT_ALL_AXES
100
AcDbPolyline
 62
7
  6
CONTINUOUS
 90
17
 70
0
 10
14.9703864402
 20
9.232927812
 10
14.9688675845
 20
9.2143124808
 10
14.9621388928
 20
9.1897844329
 10
14.9501385474
 20
9.1659366851
 10
14.9330558012
 20
9.1431453306
 10
14.9111600591
 20
9.1217698027
 10
14.8847966301
 20
9.1021472061
 10
14.8543812813
 20
9.0845870011
 10
14.8203936807
 20
9.0693661225
 10
14.7833698333
 20
9.0567246126
 10
14.7438936272
 20
9.0468618357
 10
14.7025876258
 20
9.0399333336
 10
14.6601032493
 20
9.0360483729
 10
14.6171105018
 20
9.0352682218
 10
14.5742874045
 20
9.0376051837
 10
14.5323093034
 20
9.0430224033
 10
14.4918382181
 20
9.0514344479
  0
LINE
  5
6A2
100
AcDbEntity
  8
02___PRT_ALL_AXES
100
AcDbLine
 62
7
  6
CONTINUOUS
 10
14.9703875648
 20
9.2856407284
 11
14.9703875648
 21
9.2329216747
  0
LWPOLYLINE
  5
6A3
100
AcDbEntity
  8
0
100
AcDbPolyline
 62
7
  6
CONTINUOUS
 90
21
 70
0
 10
14.8721395333
 20
7.1308003707
 10
14.87039886
 20
7.1133830844
 10
14.863273149
 20
7.0917663284
 10
14.8508042038
 20
7.071004321
 10
14.8332748461
 20
7.0515505139
 10
14.8110826929
 20
7.0338289059
 10
14.7847316719
 20
7.0182245276
 10
14.7548203459
 20
7.0050742443
 10
14.7220278478
 20
6.9946589597
 10
14.6870982863
 20
6.9871973933
 10
14.6508241167
 20
6.982841318
 10
14.6140286398
 20
6.9816721496
 10
14.5775473391
 20
6.9836989485
 10
14.5422078594
 20
6.9888582655
 10
14.5088119855
 20
6.9970157037
 10
14.4781184572
 20
7.0079685777
 10
14.45082515
 20
7.0214501869
 10
14.4275574714
 20
7.0371318038
 10
14.4088329493
 20
7.0546449728
 10
14.3950776092
 20
7.0735738272
 10
14.3866034349
 20
7.0934700845
  0
LINE
  5
6A4
100
AcDbEntity
  8
0
100
AcDbLine
 62
7
  6
CONTINUOUS
 10
14.8702441929
 20
7.1158430739
 11
14.8721395333
 21
7.1340149498
  0
LINE
  5
6A5
100
AcDbEntity
  8
02___PRT_ALL_AXES
100
AcDbLine
 62
7
  6
CONTINUOUS
 10
15.214482053
 20
7.5175540908
 11
15.2130823286
 21
7.5391449679
  0
LINE
  5
6A6
100
AcDbEntity
  8
02___PRT_ALL_AXES
100
AcDbLine
 62
7
  6
CONTINUOUS
 10
15.214482053
 20
7.5657727375
 11
15.2130823286
 21
7.5873636146
  0
LWPOLYLINE
  5
6A7
100
AcDbEntity
  8
0
100
AcDbPolyline
 62
7
  6
CONTINUOUS
 90
17
 70
0
 10
14.8296279976
 20
7.0401964285
 10
14.8269521164
 20
7.0294511048
 10
14.8187624607
 20
7.0133479762
 10
14.8066867418
 20
6.9980816519
 10
14.7909707866
 20
6.9839629103
 10
14.7719345265
 20
6.971279168
 10
14.749965485
 20
6.9602886296
 10
14.7255108883
 20
6.9512150308
 10
14.6990685615
 20
6.9442430838
 10
14.6711767942
 20
6.9395147174
 10
14.6424033823
 20
6.9371261875
 10
14.6133340694
 20
6.9371261176
 10
14.584560623
 20
6.9395145092
 10
14.5566687875
 20
6.9442427415
 10
14.5302263602
 20
6.9512145614
 10
14.5057716327
 20
6.9602880427
 10
14.4838024326
 20
6.9712784754
  0
LINE
  5
6A8
100
AcDbEntity
  8
02___PRT_ALL_AXES
100
AcDbLine
 62
7
  6
CONTINUOUS
 10
15.2125968189
 20
7.5862454579
 11
15.2144598839
 21
7.6136651116
  0
LINE
  5
6A9
100
AcDbEntity
  8
02___PRT_ALL_AXES
100
AcDbLine
 62
7
  6
CONTINUOUS
 10
15.2125968189
 20
7.5380268112
 11
15.214482053
 21
7.5657727375
  0
LINE
  5
6AA
100
AcDbEntity
  8
02___PRT_ALL_AXES
100
AcDbLine
 62
7
  6
CONTINUOUS
 10
15.2125968189
 20
7.4898081645
 11
15.214482053
 21
7.5175540908
  0
LWPOLYLINE
  5
6AB
100
AcDbEntity
  8
0
100
AcDbPolyline
 62
7
  6
CONTINUOUS
 90
9
 70
0
 10
14.8671350867
 20
7.1388005052
 10
14.8637553181
 20
7.1281847012
 10
14.8518068345
 20
7.1077269895
 10
14.8349031089
 20
7.0884552828
 10
14.8130968179
 20
7.0705890158
 10
14.7869380178
 20
7.0547254619
 10
14.7573124642
 20
7.0413830292
 10
14.7252366135
 20
7.0308818551
 10
14.6910910182
 20
7.0232409864
  0
LWPOLYLINE
  5
6AC
100
AcDbEntity
  8
0
100
AcDbPolyline
 62
7
  6
CONTINUOUS
 90
5
 70
0
 10
14.8544391436
 20
7.0770568495
 10
14.849254998
 20
7.06498691
 10
14.8350913873
 20
7.0453693588
 10
14.8158488617
 20
7.0271498559
 10
14.7908907861
 20
7.0102067275
  0
LINE
  5
6AD
100
AcDbEntity
  8
02___PRT_ALL_AXES
100
AcDbLine
 62
7
  6
CONTINUOUS
 10
15.1980974055
 20
7.532687613
 11
15.2125968189
 21
7.5862454579
  0
LWPOLYLINE
  5
6AE
100
AcDbEntity
  8
02___PRT_ALL_AXES
100
AcDbPolyline
 62
7
  6
CONTINUOUS
 90
3
 70
0
 10
15.1980974055
 20
7.5266602821
 10
15.2125968189
 20
7.5802181271
 10
15.214482053
 20
7.6079640534
  0
LINE
  5
6AF
100
AcDbEntity
  8
02___PRT_ALL_AXES
100
AcDbLine
 62
7
  6
CONTINUOUS
 10
15.1980974055
 20
7.4844689663
 11
15.2125968189
 21
7.5380268112
  0
LWPOLYLINE
  5
6B0
100
AcDbEntity
  8
02___PRT_ALL_AXES
100
AcDbPolyline
 62
7
  6
CONTINUOUS
 90
3
 70
0
 10
15.1980974055
 20
7.4784416355
 10
15.2125968189
 20
7.5319994804
 10
15.214482053
 20
7.5597454067
  0
LWPOLYLINE
  5
6B1
100
AcDbEntity
  8
02___PRT_ALL_AXES
100
AcDbPolyline
 62
7
  6
CONTINUOUS
 90
4
 70
0
 10
14.4918382181
 20
9.0514344479
 10
14.4535124018
 20
9.0627086545
 10
14.4179362756
 20
9.0766672221
 10
14.3856708961
 20
9.0930900157
  0
LINE
  5
6B2
100
AcDbEntity
  8
02___PRT_ALL_AXES
100
AcDbLine
 62
7
  6
CONTINUOUS
 10
14.4179362756
 20
9.1293862758
 11
14.3856708961
 21
9.1458090694
  0
LWPOLYLINE
  5
6B3
100
AcDbEntity
  8
02___PRT_ALL_AXES
100
AcDbPolyline
 62
7
  6
CONTINUOUS
 90
21
 70
0
 10
14.9060004151
 20
9.4365996427
 10
14.9104865088
 20
9.4271777965
 10
14.9172324603
 20
9.4045894499
 10
14.9185880972
 20
9.3816811612
 10
14.9145281665
 20
9.3588796685
 10
14.905128297
 20
9.3366097204
 10
14.8905635905
 20
9.3152861641
 10
14.87110536
 20
9.2953062169
 10
14.8471160755
 20
9.2770420676
 10
14.8190426119
 20
9.2608339425
 10
14.7874079247
 20
9.2469837686
 10
14.7528013084
 20
9.2357495482
 10
14.7158674187
 20
9.2273405536
 10
14.6772942641
 20
9.2219134286
 10
14.6378003894
 20
9.2195692702
 10
14.5981214909
 20
9.2203517455
 10
14.5589967114
 20
9.2242462787
 10
14.5211548713
 20
9.2311803218
 10
14.4853008928
 20
9.2410247069
 10
14.4521026674
 20
9.2535960515
 10
14.4221786154
 20
9.2686601754
  0
LWPOLYLINE
  5
6B4
100
AcDbEntity
  8
0
100
AcDbPolyline
 62
7
  6
CONTINUOUS
 90
14
 70
0
 10
15.1681971883
 20
7.3769598255
 10
15.1542446342
 20
7.3395114282
 10
15.1229328545
 20
7.2913053514
 10
15.0792906844
 20
7.2463579404
 10
15.0245062355
 20
7.2061999964
 10
14.9603853154
 20
7.1720211654
 10
14.8887193026
 20
7.1444962828
 10
14.8112772327
 20
7.124060386
 10
14.7298268387
 20
7.1110077909
 10
14.6461643
 20
7.1055241236
 10
14.562157083
 20
7.1076837354
 10
14.4796245786
 20
7.1174413845
 10
14.4003720025
 20
7.1346412318
 10
14.3272482611
 20
7.158595992
  0
LINE
  5
6B5
100
AcDbEntity
  8
02___PRT_ALL_AXES
100
AcDbLine
 62
7
  6
CONTINUOUS
 10
15.1696226888
 20
7.5714877828
 11
15.1854595759
 21
7.6001917896
  0
LWPOLYLINE
  5
6B6
100
AcDbEntity
  8
02___PRT_ALL_AXES
100
AcDbPolyline
 62
7
  6
CONTINUOUS
 90
3
 70
0
 10
15.1696226888
 20
7.5232691362
 10
15.1980974055
 20
7.5748789288
 10
15.2075615686
 20
7.6098375971
  0
LINE
  5
6B7
100
AcDbEntity
  8
02___PRT_ALL_AXES
100
AcDbLine
 62
7
  6
CONTINUOUS
 10
15.1696226888
 20
7.4328591736
 11
15.1980974055
 21
7.4844689663
  0
LINE
  5
6B8
100
AcDbEntity
  8
02___PRT_ALL_AXES
100
AcDbLine
 62
7
  6
CONTINUOUS
 10
15.1696226888
 20
7.4268318428
 11
15.1980974055
 21
7.4784416355
  0
LWPOLYLINE
  5
6B9
100
AcDbEntity
  8
0
100
AcDbPolyline
 62
7
  6
CONTINUOUS
 90
13
 70
0
 10
14.8465841463
 20
7.1333773947
 10
14.845677119
 20
7.1320609506
 10
14.825734856
 20
7.1124030457
 10
14.8005977933
 20
7.0945684872
 10
14.7711158336
 20
7.0792430263
 10
14.7384586631
 20
7.066926722
 10
14.7033873236
 20
7.0577588642
 10
14.6664435083
 20
7.0518227524
 10
14.6282993615
 20
7.0492510056
 10
14.590295249
 20
7.0501299532
 10
14.5530814433
 20
7.0544220274
 10
14.5172741723
 20
7.0621200374
 10
14.484235287
 20
7.0729821689
  0
LWPOLYLINE
  5
6BA
100
AcDbEntity
  8
02___PRT_ALL_AXES
100
AcDbPolyline
 62
7
  6
CONTINUOUS
 90
8
 70
0
 10
14.9678301206
 20
7.5188017267
 10
14.9523716909
 20
7.5109032685
 10
14.8812675657
 20
7.4843655812
 10
14.8037742072
 20
7.4642098368
 10
14.7211430121
 20
7.4509707522
 10
14.6361736096
 20
7.4452278622
 10
14.5520181441
 20
7.4470441717
 10
14.469998399
 20
7.4561789324
  0
LWPOLYLINE
  5
6BB
100
AcDbEntity
  8
0
100
AcDbPolyline
 62
7
  6
CONTINUOUS
 90
8
 70
0
 10
15.2935565681
 20
7.6508996223
 10
15.1869258404
 20
7.6007035488
 10
15.0699848921
 20
7.5598885376
 10
14.9448992993
 20
7.5290501884
 10
14.8140573699
 20
7.5086667294
 10
14.6798584372
 20
7.4990355473
 10
14.5447320264
 20
7.5002942847
 10
14.4111687402
 20
7.5124151332
  0
LWPOLYLINE
  5
6BC
100
AcDbEntity
  8
02___PRT_ALL_AXES
100
AcDbPolyline
 62
7
  6
CONTINUOUS
 90
7
 70
0
 10
14.9348244262
 20
7.456193135
 10
14.8825258268
 20
7.4365439374
 10
14.8051897648
 20
7.4162884467
 10
14.722800287
 20
7.4029413165
 10
14.6381446868
 20
7.397055849
 10
14.5543384648
 20
7.3986749125
 10
14.472108261
 20
7.4076294275
  0
LINE
  5
6BD
100
AcDbEntity
  8
02___PRT_ALL_AXES
100
AcDbLine
 62
7
  6
CONTINUOUS
 10
14.9060012732
 20
9.4366024944
 11
14.955367077
 21
9.3435594149
  0
LWPOLYLINE
  5
6BE
100
AcDbEntity
  8
02___PRT_ALL_AXES
100
AcDbPolyline
 62
7
  6
CONTINUOUS
 90
5
 70
0
 10
14.955367077
 20
9.3435594149
 10
14.9567869727
 20
9.3408122908
 10
14.966170356
 20
9.3165766143
 10
14.9702185072
 20
9.2918530605
 10
14.9703875648
 20
9.2856407284
  0
LINE
  5
6BF
100
AcDbEntity
  8
02___PRT_ALL_AXES
100
AcDbLine
 62
7
  6
CONTINUOUS
 10
15.6121198483
 20
8.4688678396
 11
15.6121198483
 21
8.0831186662
  0
LINE
  5
6C0
100
AcDbEntity
  8
0
100
AcDbLine
 62
9
  6
CONTINUOUS
 10
15.6121198482
 20
8.0831133439
 11
15.6121198483
 21
8.0831186662
  0
LWPOLYLINE
  5
6C1
100
AcDbEntity
  8
02___PRT_ALL_AXES
100
AcDbPolyline
 62
7
  6
CONTINUOUS
 90
21
 70
0
 10
15.6121174734
 20
8.4688538403
 10
15.6117035797
 20
8.4523428126
 10
15.6017283541
 20
8.3865126492
 10
15.5785833363
 20
8.3217961985
 10
15.5425815228
 20
8.2590686395
 10
15.4942097765
 20
8.1991782547
 10
15.4341222423
 20
8.1429349589
 10
15.3631315009
 20
8.0910993462
 10
15.2821975803
 20
8.0443724043
 10
15.1924149731
 20
8.003386035
 10
15.0949978348
 20
7.9686945085
 10
14.9912635653
 20
7.9407669683
 10
14.8826149926
 20
7.9199810864
 10
14.7705214021
 20
7.9066179563
 10
14.6564986675
 20
7.9008582913
 10
14.5420887506
 20
7.9027799811
 10
14.4288388493
 20
7.912357038
 10
14.3182804742
 20
7.9294599488
 10
14.2119087376
 20
7.953857426
 10
14.1111621349
 20
7.9852195355
 10
14.0174030909
 20
8.0231221587
  0
LWPOLYLINE
  5
6C2
100
AcDbEntity
  8
02___PRT_ALL_AXES
100
AcDbPolyline
 62
7
  6
CONTINUOUS
 90
22
 70
0
 10
15.6121198483
 20
8.4688678396
 10
15.6059315373
 20
8.4052463753
 10
15.5874435083
 20
8.342422622
 10
15.5568882591
 20
8.2811889907
 10
15.5146500395
 20
8.2223155298
 10
15.4612600198
 20
8.1665426072
 10
15.3973896104
 20
8.1145715999
 10
15.3238420187
 20
8.0670560733
 10
15.2415421484
 20
8.0245935629
 10
15.1515249681
 20
7.9877180592
 10
15.0549224961
 20
7.9568932932
 10
14.9529495645
 20
7.9325069042
 10
14.8468885421
 20
7.9148655651
 10
14.7380732078
 20
7.9041911261
 10
14.6278719776
 20
7.9006178244
 10
14.5176706958
 20
7.9041905963
 10
14.4088552076
 20
7.9148645122
 10
14.3027939307
 20
7.9325053414
 10
14.2008206474
 20
7.9568912402
 10
14.1042177309
 20
7.9877155418
 10
14.0142000187
 20
8.0245906127
 10
13.931899536
 20
8.0670527275
  0
LWPOLYLINE
  5
6C3
100
AcDbEntity
  8
0
100
AcDbPolyline
 62
7
  6
CONTINUOUS
 90
7
 70
0
 10
15.6121198483
 20
8.0831186662
 10
15.6030873041
 20
8.0033207722
 10
15.5757822157
 20
7.9243168943
 10
15.5303301689
 20
7.8479757134
 10
15.4671800139
 20
7.7758054889
 10
15.3876638189
 20
7.7096378148
 10
15.2935565681
 20
7.6508996223
  0
LWPOLYLINE
  5
6C4
100
AcDbEntity
  8
0
100
AcDbPolyline
 62
7
  6
CONTINUOUS
 90
4
 70
0
 10
14.8322371078
 20
7.0538021938
 10
14.850106458
 20
7.0732922033
 10
14.8628731116
 20
7.0941259
 10
14.8702441929
 20
7.1158430739
  0
LWPOLYLINE
  5
6C5
100
AcDbEntity
  8
02___PRT_ALL_AXES
100
AcDbPolyline
 62
7
  6
CONTINUOUS
 90
8
 70
0
 10
14.9682062223
 20
7.4225284076
 10
14.9533543184
 20
7.4148970769
 10
14.8816812419
 20
7.3880585451
 10
14.8048400627
 20
7.3679961337
 10
14.7230683157
 20
7.3547535544
 10
14.6386223233
 20
7.3488491158
 10
14.5545589247
 20
7.3504422563
 10
14.4722333892
 20
7.3593913238
  0
LWPOLYLINE
  5
6C6
100
AcDbEntity
  8
02___PRT_ALL_AXES
100
AcDbPolyline
 62
7
  6
CONTINUOUS
 90
7
 70
0
 10
14.9350162093
 20
7.3598394559
 10
14.8829653873
 20
7.340245899
 10
14.8053603933
 20
7.3198871522
 10
14.7225356759
 20
7.3064736098
 10
14.6373089472
 20
7.3005982856
 10
14.5528188152
 20
7.3023356068
 10
14.4709792061
 20
7.3113685333
  0
LWPOLYLINE
  5
6C7
100
AcDbEntity
  8
02___PRT_ALL_AXES
100
AcDbPolyline
 62
7
  6
CONTINUOUS
 90
7
 70
0
 10
14.8936228683
 20
7.2961263571
 10
14.8808423317
 20
7.2913573677
 10
14.8036612826
 20
7.2713116438
 10
14.7225111442
 20
7.2582521475
 10
14.6387623107
 20
7.2524153594
 10
14.5549120432
 20
7.2539826319
 10
14.4724846744
 20
7.2629150122
  0
LWPOLYLINE
  5
6C8
100
AcDbEntity
  8
02___PRT_ALL_AXES
100
AcDbPolyline
 62
7
  6
CONTINUOUS
 90
8
 70
0
 10
14.8528566461
 20
7.3403994019
 10
14.9346513365
 20
7.3657077082
 10
15.0089273145
 20
7.3980908246
 10
15.073864209
 20
7.4367845737
 10
15.1278705331
 20
7.4808701155
 10
15.1696226888
 20
7.529296467
 10
15.1980974055
 20
7.5809062597
 10
15.2058714984
 20
7.6096221566
  0
LWPOLYLINE
  5
6C9
100
AcDbEntity
  8
02___PRT_ALL_AXES
100
AcDbPolyline
 62
7
  6
CONTINUOUS
 90
7
 70
0
 10
14.8528566461
 20
7.2921807552
 10
14.9346513365
 20
7.3174890615
 10
15.0089273145
 20
7.3498721779
 10
15.073864209
 20
7.388565927
 10
15.1278705331
 20
7.4326514688
 10
15.1696226888
 20
7.4810778203
 10
15.1980974055
 20
7.532687613
  0
LWPOLYLINE
  5
6CA
100
AcDbEntity
  8
02___PRT_ALL_AXES
100
AcDbPolyline
 62
7
  6
CONTINUOUS
 90
7
 70
0
 10
14.8528566461
 20
7.2861534244
 10
14.9346513365
 20
7.3114617306
 10
15.0089273145
 20
7.3438448471
 10
15.073864209
 20
7.3825385962
 10
15.1278705331
 20
7.426624138
 10
15.1696226888
 20
7.4750504895
 10
15.1980974055
 20
7.5266602821
  0
LINE
  5
6CB
100
AcDbEntity
  8
0
100
AcDbLine
 62
7
  6
CONTINUOUS
 10
14.8096750333
 20
7.0360854939
 11
14.8322371078
 21
7.0538021938
  0
LWPOLYLINE
  5
6CC
100
AcDbEntity
  8
0
100
AcDbPolyline
 62
7
  6
CONTINUOUS
 90
10
 70
0
 10
14.7884589979
 20
7.1204037164
 10
14.771080964
 20
7.1113733168
 10
14.7384210538
 20
7.0990605803
 10
14.7033513517
 20
7.0898970868
 10
14.6663954163
 20
7.0839630591
 10
14.6282376522
 20
7.0813954191
 10
14.5902304633
 20
7.082280172
 10
14.5530218729
 20
7.0865775468
 10
14.5172294506
 20
7.0942778652
 10
14.4842121589
 20
7.1051370426
  0
LWPOLYLINE
  5
6CD
100
AcDbEntity
  8
02___PRT_ALL_AXES
100
AcDbPolyline
 62
7
  6
CONTINUOUS
 90
8
 70
0
 10
14.9683976998
 20
7.2779559486
 10
14.9531934483
 20
7.2701704261
 10
14.8819735361
 20
7.2434947981
 10
14.804281574
 20
7.2232228606
 10
14.7213990267
 20
7.2099065508
 10
14.6361545941
 20
7.2041341987
 10
14.5517091861
 20
7.205971429
 10
14.4696327683
 20
7.2151435702
  0
LWPOLYLINE
  5
6CE
100
AcDbEntity
  8
0
100
AcDbPolyline
 62
7
  6
CONTINUOUS
 90
10
 70
0
 10
14.7908907861
 20
7.0102067275
 10
14.7636811403
 20
6.9967054216
 10
14.7327039177
 20
6.985570422
 10
14.6996010437
 20
6.9774399856
 10
14.6648744042
 20
6.9723732755
 10
14.6291594356
 20
6.9704810262
 10
14.5937175379
 20
6.9718226806
 10
14.5591881264
 20
6.9763455989
 10
14.5261227466
 20
6.9840298055
 10
14.4957877082
 20
6.9946238565
  0
LWPOLYLINE
  5
6CF
100
AcDbEntity
  8
02___PRT_ALL_AXES
100
AcDbPolyline
 62
7
  6
CONTINUOUS
 90
4
 70
0
 10
14.921099827
 20
9.4081452257
 10
14.9265178934
 20
9.4067164984
 10
15.0217270877
 20
9.3708805123
 10
15.1199855141
 20
9.3212598688
  0
LWPOLYLINE
  5
6D0
100
AcDbEntity
  8
02___PRT_ALL_AXES
100
AcDbPolyline
 62
7
  6
CONTINUOUS
 90
4
 70
0
 10
14.7949002822
 20
9.4838498456
 10
14.7694287459
 20
9.4965923763
 10
14.7410754386
 20
9.5071123546
 10
14.7357415901
 20
9.5087426103
  0
LWPOLYLINE
  5
6D1
100
AcDbEntity
  8
02___PRT_ALL_AXES
100
AcDbPolyline
 62
7
  6
CONTINUOUS
 90
9
 70
0
 10
15.1199855141
 20
9.3212598688
 10
15.2199722545
 20
9.255102122
 10
15.309908848
 20
9.17849595
 10
15.3933024876
 20
9.0876261112
 10
15.4679722567
 20
8.9816802549
 10
15.5294092317
 20
8.8638047057
 10
15.5747251947
 20
8.7375929085
 10
15.6026405168
 20
8.6051405208
 10
15.6121198483
 20
8.4688678396
  0
LWPOLYLINE
  5
6D2
100
AcDbEntity
  8
02___PRT_ALL_AXES
100
AcDbPolyline
 62
7
  6
CONTINUOUS
 90
5
 70
0
 10
14.8335571441
 20
9.506168262
 10
14.8596495943
 20
9.4888919749
 10
14.8814243896
 20
9.4697253492
 10
14.898475907
 20
9.449025423
 10
14.9060004151
 20
9.4365996427
  0
LWPOLYLINE
  5
6D3
100
AcDbEntity
  8
02___PRT_ALL_AXES
100
AcDbPolyline
 62
7
  6
CONTINUOUS
 90
23
 70
0
 10
14.7949002822
 20
9.4838498456
 10
14.8169715205
 20
9.4691441636
 10
14.835193154
 20
9.4527746956
 10
14.8491942427
 20
9.4350746768
 10
14.858689765
 20
9.4164044285
 10
14.8634864193
 20
9.3971440231
 10
14.8634865597
 20
9.377685547
 10
14.8586901831
 20
9.3584251186
 10
14.8491949301
 20
9.3397548246
 10
14.8351940966
 20
9.3220547385
 10
14.8169726993
 20
9.3056851829
 10
14.7949016731
 20
9.2909793948
 10
14.7694303206
 20
9.2782367416
 10
14.741077165
 20
9.267716627
 10
14.7104193948
 20
9.2596332102
 10
14.6780811139
 20
9.2541510462
 10
14.6447206363
 20
9.2513817362
 10
14.6110170852
 20
9.2513816552
 10
14.5776565676
 20
9.2541508049
 10
14.5453182076
 20
9.2596328134
 10
14.5146603209
 20
9.2677160828
 10
14.4863070136
 20
9.2782360611
 10
14.4608354773
 20
9.2909785918
  0
LWPOLYLINE
  5
6D4
100
AcDbEntity
  8
02___PRT_ALL_AXES
100
AcDbPolyline
 62
7
  6
CONTINUOUS
 90
6
 70
0
 10
14.5199938064
 20
9.5087430188
 10
14.5637317551
 20
9.5189347321
 10
14.6074199516
 20
9.5238403603
 10
14.650626264
 20
9.5237086732
 10
14.6933584146
 20
9.5187000606
 10
14.7357419531
 20
9.5087430188
  0
LWPOLYLINE
  5
6D5
100
AcDbEntity
  8
02___PRT_ALL_AXES
100
AcDbPolyline
 62
7
  6
CONTINUOUS
 90
16
 70
0
 10
14.8335571441
 20
9.506168262
 10
14.8036330921
 20
9.5212323859
 10
14.7704348667
 20
9.5338037305
 10
14.7345808881
 20
9.5436481156
 10
14.6967390481
 20
9.5505821587
 10
14.6576142686
 20
9.5544766919
 10
14.6179353701
 20
9.5552591672
 10
14.5784414954
 20
9.5529150088
 10
14.5398683408
 20
9.5474878838
 10
14.5029344511
 20
9.5390788892
 10
14.4683278348
 20
9.5278446688
 10
14.4366931476
 20
9.5139944949
 10
14.408619684
 20
9.4977863698
 10
14.3846303995
 20
9.4795222205
 10
14.365172169
 20
9.4595422733
 10
14.3497367636
 20
9.4366064377
  0
LINE
  5
6D6
100
AcDbEntity
  8
02___PRT_ALL_AXES
100
AcDbLine
 62
7
  6
CENTER
 10
3.4842266614
 20
5.8404371044
 11
3.4842266614
 21
4.7561851359
  0
LINE
  5
6D7
100
AcDbEntity
  8
02___PRT_ALL_AXES
100
AcDbLine
 62
7
  6
CENTER
 10
3.4842266614
 20
5.8404371044
 11
3.4842266614
 21
6.9246890729
  0
LINE
  5
6D8
100
AcDbEntity
  8
02___PRT_ALL_AXES
100
AcDbLine
 62
7
  6
CENTER
 10
3.4842266614
 20
5.8404371044
 11
2.3999746929
 21
5.8404371044
  0
LINE
  5
6D9
100
AcDbEntity
  8
02___PRT_ALL_AXES
100
AcDbLine
 62
7
  6
CENTER
 10
3.4842266614
 20
5.8404371044
 11
4.5684786299
 21
5.8404371044
  0
CIRCLE
  5
6DA
100
AcDbEntity
  8
0
100
AcDbCircle
 62
7
  6
CONTINUOUS
 10
10.5342808475
 20
1.243294839
 40
0.252091
  0
CIRCLE
  5
6DB
100
AcDbEntity
  8
0
100
AcDbCircle
 62
7
  6
CONTINUOUS
 10
10.5342808475
 20
1.243294839
 40
0.182698
  0
CIRCLE
  5
6DC
100
AcDbEntity
  8
02___PRT_ALL_AXES
100
AcDbCircle
 62
7
  6
CONTINUOUS
 10
3.4842266614
 20
5.8404371044
 40
0.9842519685
  0
CIRCLE
  5
6DD
100
AcDbEntity
  8
02___PRT_ALL_AXES
100
AcDbCircle
 62
7
  6
CONTINUOUS
 10
3.4842266614
 20
5.8404371044
 40
0.342519685
  0
CIRCLE
  5
6DE
100
AcDbEntity
  8
02___PRT_ALL_AXES
100
AcDbCircle
 62
7
  6
CONTINUOUS
 10
3.4842266614
 20
5.8404371044
 40
0.2908897583
  0
CIRCLE
  5
6DF
100
AcDbEntity
  8
02___PRT_ALL_AXES
100
AcDbCircle
 62
7
  6
CONTINUOUS
 10
3.4842266614
 20
5.8404371044
 40
0.2362204724
  0
ARC
  5
6E0
100
AcDbEntity
  8
02___PRT_ALL_AXES
100
AcDbCircle
 62
7
  6
CONTINUOUS
 10
7.034689434
 20
5.8404371044
 40
0.9842519685
100
AcDbArc
 50
90.0
 51
161.9407695092
  0
ARC
  5
6E1
100
AcDbEntity
  8
02___PRT_ALL_AXES
100
AcDbCircle
 62
7
  6
CONTINUOUS
 10
7.034689434
 20
5.8404371044
 40
0.9842519685
100
AcDbArc
 50
198.0592304908
 51
270.0
  0
ARC
  5
6E2
100
AcDbEntity
  8
02___PRT_ALL_AXES
100
AcDbCircle
 62
7
  6
CONTINUOUS
 10
6.2069167815
 20
5.8404371044
 40
0.3796452181
100
AcDbArc
 50
141.5220253968
 51
218.4779746032
  0
ARC
  5
6E3
100
AcDbEntity
  8
0
100
AcDbCircle
 62
7
  6
CONTINUOUS
 10
8.3490825752
 20
6.2028189942
 40
0.1181102362
100
AcDbArc
 50
262.6147613811
 51
270.0
  0
ARC
  5
6E4
100
AcDbEntity
  8
0
100
AcDbCircle
 62
7
  6
CONTINUOUS
 10
8.3490825752
 20
5.4780552147
 40
0.1181102362
100
AcDbArc
 50
90.0
 51
97.3852386189
  0
ARC
  5
6E5
100
AcDbEntity
  8
0
100
AcDbCircle
 62
7
  6
CONTINUOUS
 10
7.5071303789
 20
6.7853189942
 40
0.0393700787
100
AcDbArc
 50
0.0
 51
90.0
  0
ARC
  5
6E6
100
AcDbEntity
  8
0
100
AcDbCircle
 62
7
  6
CONTINUOUS
 10
7.5071303789
 20
4.8955552147
 40
0.0393700787
100
AcDbArc
 50
270.0
 51
360.0
  0
ARC
  5
6E7
100
AcDbEntity
  8
0
100
AcDbCircle
 62
7
  6
CONTINUOUS
 10
7.5858705364
 20
6.4211457658
 40
0.0393700787
100
AcDbArc
 50
180.0
 51
270.0
  0
ARC
  5
6E8
100
AcDbEntity
  8
0
100
AcDbCircle
 62
7
  6
CONTINUOUS
 10
7.5858705364
 20
5.259728443
 40
0.0393700787
100
AcDbArc
 50
90.0
 51
180.0
  0
ARC
  5
6E9
100
AcDbEntity
  8
0
100
AcDbCircle
 62
7
  6
CONTINUOUS
 10
8.2945319537
 20
5.3384686005
 40
0.0393700787
100
AcDbArc
 50
270.0
 51
360.0
  0
ARC
  5
6EA
100
AcDbEntity
  8
0
100
AcDbCircle
 62
7
  6
CONTINUOUS
 10
8.2945319537
 20
6.3424056084
 40
0.0393700787
100
AcDbArc
 50
0.0
 51
90.0
  0
ARC
  5
6EB
100
AcDbEntity
  8
0
100
AcDbCircle
 62
7
  6
CONTINUOUS
 10
11.2118444217
 20
5.7813819863
 40
0.0354330709
100
AcDbArc
 50
190.1642486217
 51
10.1642486217
  0
ARC
  5
6EC
100
AcDbEntity
  8
0
100
AcDbCircle
 62
7
  6
CONTINUOUS
 10
11.2118444217
 20
5.8994922225
 40
0.0354330709
100
AcDbArc
 50
349.8357513783
 51
169.8357513783
  0
CIRCLE
  5
6ED
100
AcDbEntity
  8
0
100
AcDbCircle
 62
7
  6
CONTINUOUS
 10
11.4428129361
 20
5.8404371044
 40
0.0196850394
  0
CIRCLE
  5
6EE
100
AcDbEntity
  8
0
100
AcDbCircle
 62
9
  6
CONTINUOUS
 10
11.4428129361
 20
5.8404371044
 40
0.00468503
  0
ARC
  5
6EF
100
AcDbEntity
  8
0
100
AcDbCircle
 62
7
  6
CONTINUOUS
 10
11.8706318441
 20
5.7813819863
 40
0.0354330709
100
AcDbArc
 50
169.8357513783
 51
349.8357513783
  0
ARC
  5
6F0
100
AcDbEntity
  8
0
100
AcDbCircle
 62
7
  6
CONTINUOUS
 10
11.6400660492
 20
5.7416091882
 40
0.0236220472
100
AcDbArc
 50
45.0
 51
225.0
  0
CIRCLE
  5
6F1
100
AcDbEntity
  8
0
100
AcDbCircle
 62
7
  6
CONTINUOUS
 10
11.5412381329
 20
5.7420119076
 40
0.0196850394
  0
CIRCLE
  5
6F2
100
AcDbEntity
  8
0
100
AcDbCircle
 62
9
  6
CONTINUOUS
 10
11.5412381329
 20
5.7420119076
 40
0.00468503
  0
ARC
  5
6F3
100
AcDbEntity
  8
02___PRT_ALL_AXES
100
AcDbCircle
 62
7
  6
CONTINUOUS
 10
11.5412381329
 20
5.8404371044
 40
0.9842519685
100
AcDbArc
 50
96.1106712295
 51
263.8913550294
  0
ARC
  5
6F4
100
AcDbEntity
  8
02___PRT_ALL_AXES
100
AcDbCircle
 62
7
  6
CONTINUOUS
 10
11.5412381329
 20
5.8404371044
 40
0.9842519685
100
AcDbArc
 50
276.1106712295
 51
83.8913550294
  0
CIRCLE
  5
6F5
100
AcDbEntity
  8
0
100
AcDbCircle
 62
7
  6
CONTINUOUS
 10
11.5412381329
 20
5.8404371044
 40
0.9842519685
  0
CIRCLE
  5
6F6
100
AcDbEntity
  8
0
100
AcDbCircle
 62
9
  6
CONTINUOUS
 10
11.5412381329
 20
5.8404371044
 40
0.9448818805
  0
ARC
  5
6F7
100
AcDbEntity
  8
0
100
AcDbCircle
 62
9
  6
CONTINUOUS
 10
11.5412381329
 20
5.8404371044
 40
0.5905511811
100
AcDbArc
 50
280.4753138432
 51
79.5246861568
  0
ARC
  5
6F8
100
AcDbEntity
  8
0
100
AcDbCircle
 62
9
  6
CONTINUOUS
 10
11.5412381329
 20
5.8404371044
 40
0.5905511811
100
AcDbArc
 50
100.4753138432
 51
259.5246861568
  0
ARC
  5
6F9
100
AcDbEntity
  8
0
100
AcDbCircle
 62
7
  6
CONTINUOUS
 10
11.5412381329
 20
5.8404371044
 40
0.5511811024
100
AcDbArc
 50
100.8440625637
 51
259.1559374363
  0
ARC
  5
6FA
100
AcDbEntity
  8
0
100
AcDbCircle
 62
7
  6
CONTINUOUS
 10
11.5412381329
 20
5.8404371044
 40
0.5511811024
100
AcDbArc
 50
280.8440625637
 51
79.1559374363
  0
ARC
  5
6FB
100
AcDbEntity
  8
0
100
AcDbCircle
 62
9
  6
CONTINUOUS
 10
11.5412381329
 20
5.8404371044
 40
0.5118110236
100
AcDbArc
 50
281.2547126182
 51
78.7452873818
  0
ARC
  5
6FC
100
AcDbEntity
  8
0
100
AcDbCircle
 62
9
  6
CONTINUOUS
 10
11.5412381329
 20
5.8404371044
 40
0.5118110236
100
AcDbArc
 50
101.2547126182
 51
258.7452873818
  0
CIRCLE
  5
6FD
100
AcDbEntity
  8
0
100
AcDbCircle
 62
7
  6
CONTINUOUS
 10
11.5412381329
 20
5.8404371044
 40
0.374015748
  0
ARC
  5
6FE
100
AcDbEntity
  8
02___PRT_ALL_AXES
100
AcDbCircle
 62
7
  6
CONTINUOUS
 10
11.5412381329
 20
5.8404371044
 40
0.3700787402
100
AcDbArc
 50
349.8357513783
 51
10.1642486217
  0
ARC
  5
6FF
100
AcDbEntity
  8
02___PRT_ALL_AXES
100
AcDbCircle
 62
7
  6
CONTINUOUS
 10
11.5412381329
 20
5.8404371044
 40
0.3700787402
100
AcDbArc
 50
169.8357513783
 51
190.1642486217
  0
ARC
  5
700
100
AcDbEntity
  8
0
100
AcDbCircle
 62
7
  6
CONTINUOUS
 10
11.5412381329
 20
5.8404371044
 40
0.3641732283
100
AcDbArc
 50
166.4060212309
 51
193.5939787691
  0
ARC
  5
701
100
AcDbEntity
  8
0
100
AcDbCircle
 62
7
  6
CONTINUOUS
 10
11.5412381329
 20
5.8404371044
 40
0.3641732283
100
AcDbArc
 50
346.4060212309
 51
13.5939787691
  0
ARC
  5
702
100
AcDbEntity
  8
0
100
AcDbCircle
 62
7
  6
CONTINUOUS
 10
11.5412381329
 20
5.8404371044
 40
0.3444871417
100
AcDbArc
 50
344.063010877
 51
15.9368540231
  0
ARC
  5
703
100
AcDbEntity
  8
0
100
AcDbCircle
 62
7
  6
CONTINUOUS
 10
11.5412381329
 20
5.8404371044
 40
0.3444871417
100
AcDbArc
 50
164.063010877
 51
195.9368540231
  0
ARC
  5
704
100
AcDbEntity
  8
0
100
AcDbCircle
 62
9
  6
CONTINUOUS
 10
11.5412381329
 20
5.8404371044
 40
0.331490896
100
AcDbArc
 50
343.7941853327
 51
16.2058145488
  0
ARC
  5
705
100
AcDbEntity
  8
0
100
AcDbCircle
 62
9
  6
CONTINUOUS
 10
11.5412381329
 20
5.8404371044
 40
0.331490896
100
AcDbArc
 50
163.7941853327
 51
196.2058145488
  0
ARC
  5
706
100
AcDbEntity
  8
0
100
AcDbCircle
 62
7
  6
CONTINUOUS
 10
11.5412381329
 20
5.8404371044
 40
0.3051181102
100
AcDbArc
 50
166.3249048708
 51
193.6751942905
  0
ARC
  5
707
100
AcDbEntity
  8
0
100
AcDbCircle
 62
7
  6
CONTINUOUS
 10
11.5412381329
 20
5.8404371044
 40
0.3051181102
100
AcDbArc
 50
346.3249048708
 51
13.6751942905
  0
ARC
  5
708
100
AcDbEntity
  8
0
100
AcDbCircle
 62
9
  6
CONTINUOUS
 10
11.5412381329
 20
5.8404371044
 40
0.3051181102
100
AcDbArc
 50
193.6751942905
 51
346.3249048708
  0
ARC
  5
709
100
AcDbEntity
  8
0
100
AcDbCircle
 62
9
  6
CONTINUOUS
 10
11.5412381329
 20
5.8404371044
 40
0.3051181102
100
AcDbArc
 50
13.6751942905
 51
166.3249048708
  0
ARC
  5
70A
100
AcDbEntity
  8
0
100
AcDbCircle
 62
7
  6
CONTINUOUS
 10
11.5412381329
 20
5.8404371044
 40
0.3031496063
100
AcDbArc
 50
167.0827110126
 51
192.9175673654
  0
ARC
  5
70B
100
AcDbEntity
  8
0
100
AcDbCircle
 62
7
  6
CONTINUOUS
 10
11.5412381329
 20
5.8404371044
 40
0.3031496063
100
AcDbArc
 50
347.0827110126
 51
12.9175673654
  0
ARC
  5
70C
100
AcDbEntity
  8
0
100
AcDbCircle
 62
7
  6
CONTINUOUS
 10
11.5412381329
 20
5.8404371044
 40
0.2992125984
100
AcDbArc
 50
349.8357513783
 51
10.1642486217
  0
ARC
  5
70D
100
AcDbEntity
  8
0
100
AcDbCircle
 62
7
  6
CONTINUOUS
 10
11.5412381329
 20
5.8404371044
 40
0.2992125984
100
AcDbArc
 50
169.8357513783
 51
190.1642486217
  0
CIRCLE
  5
70E
100
AcDbEntity
  8
0
100
AcDbCircle
 62
7
  6
CONTINUOUS
 10
11.5412381329
 20
5.8404371044
 40
0.2854330709
  0
ARC
  5
70F
100
AcDbEntity
  8
02___PRT_ALL_AXES
100
AcDbCircle
 62
7
  6
CONTINUOUS
 10
11.5412381329
 20
5.8404371044
 40
0.2854330709
100
AcDbArc
 50
280.1560818979
 51
358.3494205318
  0
ARC
  5
710
100
AcDbEntity
  8
02___PRT_ALL_AXES
100
AcDbCircle
 62
7
  6
CONTINUOUS
 10
11.5412381329
 20
5.8404371044
 40
0.2854330709
100
AcDbArc
 50
181.67351085
 51
259.8683374486
  0
ARC
  5
711
100
AcDbEntity
  8
02___PRT_ALL_AXES
100
AcDbCircle
 62
7
  6
CONTINUOUS
 10
11.5412381329
 20
5.8404371044
 40
0.2854330709
100
AcDbArc
 50
1.6735108502
 51
79.8683374487
  0
ARC
  5
712
100
AcDbEntity
  8
02___PRT_ALL_AXES
100
AcDbCircle
 62
7
  6
CONTINUOUS
 10
11.5412381329
 20
5.8404371044
 40
0.2854330709
100
AcDbArc
 50
100.1560818979
 51
178.3494205317
  0
CIRCLE
  5
713
100
AcDbEntity
  8
0
100
AcDbCircle
 62
9
  6
CONTINUOUS
 10
11.5412381329
 20
5.8404371044
 40
0.2815942195
  0
CIRCLE
  5
714
100
AcDbEntity
  8
0
100
AcDbCircle
 62
9
  6
CONTINUOUS
 10
11.5412381329
 20
5.8404371044
 40
0.2481105049
  0
ARC
  5
715
100
AcDbEntity
  8
0
100
AcDbCircle
 62
7
  6
CONTINUOUS
 10
11.5412381329
 20
5.8404371044
 40
0.2442716535
100
AcDbArc
 50
342.3463568424
 51
342.0005095346
  0
CIRCLE
  5
716
100
AcDbEntity
  8
0
100
AcDbCircle
 62
7
  6
CONTINUOUS
 10
11.5412381329
 20
5.8404371044
 40
0.208838596
  0
CIRCLE
  5
717
100
AcDbEntity
  8
0
100
AcDbCircle
 62
7
  6
CONTINUOUS
 10
11.5412381329
 20
5.8404371044
 40
0.2037401575
  0
CIRCLE
  5
718
100
AcDbEntity
  8
0
100
AcDbCircle
 62
7
  6
CONTINUOUS
 10
11.5412381329
 20
5.8404371044
 40
0.1633858268
  0
CIRCLE
  5
719
100
AcDbEntity
  8
0
100
AcDbCircle
 62
7
  6
CONTINUOUS
 10
11.5412381329
 20
5.8404371044
 40
0.0196850394
  0
CIRCLE
  5
71A
100
AcDbEntity
  8
0
100
AcDbCircle
 62
7
  6
CONTINUOUS
 10
11.6396633298
 20
5.8404371044
 40
0.0196850394
  0
CIRCLE
  5
71B
100
AcDbEntity
  8
0
100
AcDbCircle
 62
9
  6
CONTINUOUS
 10
11.6396633298
 20
5.8404371044
 40
0.00468503
  0
CIRCLE
  5
71C
100
AcDbEntity
  8
0
100
AcDbCircle
 62
9
  6
CONTINUOUS
 10
11.5412381329
 20
5.8404371044
 40
0.00468503
  0
CIRCLE
  5
71D
100
AcDbEntity
  8
0
100
AcDbCircle
 62
7
  6
CONTINUOUS
 10
11.5412381329
 20
5.9388623013
 40
0.0196850394
  0
CIRCLE
  5
71E
100
AcDbEntity
  8
0
100
AcDbCircle
 62
9
  6
CONTINUOUS
 10
11.5412381329
 20
5.9388623013
 40
0.00468503
  0
ARC
  5
71F
100
AcDbEntity
  8
0
100
AcDbCircle
 62
7
  6
CONTINUOUS
 10
11.8706318441
 20
5.8994922225
 40
0.0354330709
100
AcDbArc
 50
10.1642486217
 51
190.1642486217
  0
ENDSEC
  0
SECTION
  2
OBJECTS
  0
DICTIONARY
  5
C
100
AcDbDictionary
280
0
281
1
  3
ACAD_GROUP
350
D
  3
ACAD_MLINESTYLE
350
17
  3
ACAD_LAYOUT
350
1A
  3
ACAD_PLOTSETTINGS
350
19
  3
ACAD_PLOTSTYLENAME
350
E
  0
DICTIONARY
  5
D
102
{ACAD_REACTORS
330
C
102
}
100
AcDbDictionary
280
0
281
1
  0
ACDBDICTIONARYWDFLT
  5
E
102
{ACAD_REACTORS
330
C
102
}
100
AcDbDictionary
281
1
  3
Normal
350
F
100
AcDbDictionaryWithDefault
340
F
  0
DICTIONARY
  5
17
102
{ACAD_REACTORS
330
C
102
}
100
AcDbDictionary
280
0
281
1
  3
Standard
350
18
  0
DICTIONARY
  5
19
102
{ACAD_REACTORS
330
C
102
}
100
AcDbDictionary
281
1
  0
DICTIONARY
  5
1A
102
{ACAD_REACTORS
330
C
102
}
100
AcDbDictionary
281
1
  3
Layout1
350
1E
  3
Model
350
22
  0
ACDBPLACEHOLDER
  5
F
102
{ACAD_REACTORS
330
E
102
}
  0
MLINESTYLE
  5
18
102
{ACAD_REACTORS
330
17
102
}
100
AcDbMlineStyle
  2
STANDARD
 70
0
  3

 62
256
 51
90.0
 52
90.0
 71
2
 49
0.5
 62
256
  6
BYLAYER
 49
-0.5
 62
256
  6
BYLAYER
  0
LAYOUT
  5
1E
102
{ACAD_REACTORS
330
1A
102
}
100
AcDbPlotSettings
  1

  2

  4

  6

 40
0.0
 41
0.0
 42
0.0
 43
0.0
 44
0.0
 45
0.0
 46
0.0
 47
0.0
 48
0.0
 49
0.0
140
0.0
141
0.0
142
1.0
143
1.0
 70
0
 72
0
 73
0
 74
0
  7

 75
0
147
1.0
148
0.0
149
0.0
100
AcDbLayout
  1
Layout1
 70
0
 71
0
 10
0.0
 20
0.0
 11
0.0
 21
0.0
 12
0.0
 22
0.0
 32
0.0
 14
0.0
 24
0.0
 34
0.0
 15
0.0
 25
0.0
 35
0.0
146
0.0
 13
0.0
 23
0.0
 33
0.0
 16
0.0
 26
0.0
 36
0.0
 17
0.0
 27
0.0
 37
0.0
 76
0
330
1B
331
0
345
0
346
0
  0
LAYOUT
  5
22
102
{ACAD_REACTORS
330
1A
102
}
100
AcDbPlotSettings
  1

  2

  4

  6

 40
0.0
 41
0.0
 42
0.0
 43
0.0
 44
0.0
 45
0.0
 46
0.0
 47
0.0
 48
0.0
 49
0.0
140
0.0
141
0.0
142
1.0
143
1.0
 70
0
 72
0
 73
0
 74
0
  7

 75
0
147
1.0
148
0.0
149
0.0
100
AcDbLayout
  1
Model
 70
0
 71
0
 10
0.0
 20
0.0
 11
0.0
 21
0.0
 12
0.0
 22
0.0
 32
0.0
 14
0.0
 24
0.0
 34
0.0
 15
0.0
 25
0.0
 35
0.0
146
0.0
 13
0.0
 23
0.0
 33
0.0
 16
0.0
 26
0.0
 36
0.0
 17
0.0
 27
0.0
 37
0.0
 76
0
330
1F
331
0
345
0
346
0
  0
ENDSEC
  0
EOF
