999
DXF file: 144875_1.dxf
999
Pro/ENGINEER 2013230 by Parametric Technology Corporation
  0
SECTION
  2
HEADER
  9
$ACADVER
  1
AC1018
  9
$DWGCODEPAGE
  3
ANSI_1252
  9
$EXTMAX
 10
17.0
 20
11.0
 30
0.0
  9
$EXTMIN
 10
0.0
 20
0.0
 30
0.0
  9
$LIMMIN
 10
0.0
 20
0.0
  9
$LIMMAX
 10
17.0
 20
11.0
  9
$VIEWCTR
 10
8.5
 20
5.5
  9
$VIEWSIZE
 40
11.0
  9
$CLAYER
  8
0
  9
$LTSCALE
 40
0.935
  9
$CELTYPE
  6
BYLAYER
  9
$DIMSCALE
 40
1.0
  9
$DIMASZ
 40
0.1875
  9
$DIMEXO
 40
0.0625
  9
$DIMDLI
 40
0.646
  9
$DIMEXE
 40
0.125
  9
$DIMCEN
 40
0.153
  9
$DIMLFAC
 40
1.0
  9
$DIMBLK
  1
_FILLED
  9
$DIMTXT
 40
0.1
  9
$DIMTOL
 70
1
  9
$DIMLIM
 70
0
  9
$DIMTFAC
 40
1.0
  9
$DIMTP
 40
0.01
  9
$DIMTM
 40
0.01
  9
$DIMGAP
 40
0.09
  9
$DIMDSEP
 70
46
  9
$PDMODE
 70
3
  9
$PDSIZE
 40
0.3125
  9
$HANDSEED
  5
622
  9
$TILEMODE
 70
1
  9
$MEASUREMENT
 70
0
  9
$INSUNITS
 70
1
  0
ENDSEC
  0
SECTION
  2
CLASSES
  0
CLASS
  1
ACDBDICTIONARYWDFLT
  2
AcDbDictionaryWithDefault
  3
AutoCAD 2000
 90
0
 91
1
280
0
281
0
  0
CLASS
  1
ACDBPLACEHOLDER
  2
AcDbPlaceHolder
  3
AutoCAD 2000
 90
0
 91
1
280
0
281
0
  0
CLASS
  1
LAYOUT
  2
AcDbLayout
  3
AutoCAD 2000
 90
0
 91
0
280
0
281
0
  0
CLASS
  1
TABLESTYLE
  2
AcDbTableStyle
  3
ObjectDBX Classes
 90
2047
 91
1
280
0
281
0
  0
CLASS
  1
ACAD_TABLE
  2
AcDbTable
  3
ObjectDBX Classes
 90
1025
 91
1
280
0
281
1
  0
ENDSEC
  0
SECTION
  2
TABLES
  0
TABLE
  2
VPORT
  5
8
100
AcDbSymbolTable
 70
2
  0
VPORT
  5
1F4
100
AcDbSymbolTableRecord
100
AcDbViewportTableRecord
  2
*ACTIVE
 70
0
 10
0.0
 20
0.0
 11
1.0
 21
1.0
 12
8.5
 22
5.5
 13
0.0
 23
0.0
 14
1.0
 24
1.0
 15
0.0
 25
0.0
 16
0.0
 26
0.0
 36
1.0
 17
0.0
 27
0.0
 37
0.0
 40
11.0
 41
1.5454545455
 42
50.0
 43
0.0
 44
0.0
 50
0.0
 51
0.0
 71
0
 72
100
 73
1
 74
1
 75
0
 76
0
 77
0
 78
0
  0
ENDTAB
  0
TABLE
  2
LTYPE
  5
5
100
AcDbSymbolTable
 70
6
  0
LTYPE
  5
14
100
AcDbSymbolTableRecord
100
AcDbLinetypeTableRecord
  2
BYBLOCK
 70
0
  3

 72
65
 73
0
 40
0.0
  0
LTYPE
  5
15
100
AcDbSymbolTableRecord
100
AcDbLinetypeTableRecord
  2
BYLAYER
 70
0
  3

 72
65
 73
0
 40
0.0
  0
LTYPE
  5
16
100
AcDbSymbolTableRecord
100
AcDbLinetypeTableRecord
  2
CONTINUOUS
 70
64
  3
Solid line
 72
65
 73
0
 40
0.0
  0
LTYPE
  5
1F5
100
AcDbSymbolTableRecord
100
AcDbLinetypeTableRecord
  2
CENTER
 70
64
  3
____ _ ____ _ ____ _ ____ _ ____ _ ____ _ ____
 72
65
 73
4
 40
0.6
 49
0.375
 74
0
 49
-0.075
 74
0
 49
0.075
 74
0
 49
-0.075
 74
0
  0
LTYPE
  5
1F6
100
AcDbSymbolTableRecord
100
AcDbLinetypeTableRecord
  2
HIDDEN
 70
64
  3
- - - - - - - - - - - - - - - - - - - -
 72
65
 73
2
 40
0.2
 49
0.1
 74
0
 49
-0.1
 74
0
  0
LTYPE
  5
1F7
100
AcDbSymbolTableRecord
100
AcDbLinetypeTableRecord
  2
PHANTOM
 70
64
  3
_____ _ _ _____ _ _ _____ _ _ _____
 72
65
 73
6
 40
0.8
 49
0.45
 74
0
 49
-0.05
 74
0
 49
0.1
 74
0
 49
-0.05
 74
0
 49
0.1
 74
0
 49
-0.05
 74
0
  0
LTYPE
  5
1F8
100
AcDbSymbolTableRecord
100
AcDbLinetypeTableRecord
  2
DOT
 70
64
  3
. . . . . . . . . . . . . . . . . . . .
 72
65
 73
2
 40
0.2
 49
0.1
 74
0
 49
-0.1
 74
0
  0
LTYPE
  5
1F9
100
AcDbSymbolTableRecord
100
AcDbLinetypeTableRecord
  2
DASHED
 70
64
  3
- - - - - - - - - - - - - - - - - - - -
 72
65
 73
2
 40
0.2
 49
0.1
 74
0
 49
-0.1
 74
0
  0
ENDTAB
  0
TABLE
  2
LAYER
  5
2
100
AcDbSymbolTable
 70
36
  0
LAYER
  5
10
100
AcDbSymbolTableRecord
100
AcDbLayerTableRecord
  2
0
 70
0
 62
7
  6
CONTINUOUS
370
-3
390
F
  0
LAYER
  5
1FA
100
AcDbSymbolTableRecord
100
AcDbLayerTableRecord
  2
DEFAULT_1
 70
0
 62
7
  6
CENTER
370
-3
390
F
  0
LAYER
  5
1FB
100
AcDbSymbolTableRecord
100
AcDbLayerTableRecord
  2
DEFAULT_2
 70
0
 62
7
  6
HIDDEN
370
-3
390
F
  0
LAYER
  5
1FC
100
AcDbSymbolTableRecord
100
AcDbLayerTableRecord
  2
DEFAULT_3
 70
0
 62
7
  6
PHANTOM
370
-3
390
F
  0
LAYER
  5
1FD
100
AcDbSymbolTableRecord
100
AcDbLayerTableRecord
  2
01_ALL_DTM_PLN
 70
0
 62
7
  6
CONTINUOUS
370
-3
390
F
  0
LAYER
  5
1FE
100
AcDbSymbolTableRecord
100
AcDbLayerTableRecord
  2
01__ASM_ALL_DTM_PLN
 70
0
 62
7
  6
CONTINUOUS
370
-3
390
F
  0
LAYER
  5
1FF
100
AcDbSymbolTableRecord
100
AcDbLayerTableRecord
  2
01__ASM_DEF_DTM_PLN
 70
0
 62
7
  6
CONTINUOUS
370
-3
390
F
  0
LAYER
  5
200
100
AcDbSymbolTableRecord
100
AcDbLayerTableRecord
  2
01___PRT_ALL_DTM_PLN
 70
0
 62
7
  6
CONTINUOUS
370
-3
390
F
  0
LAYER
  5
201
100
AcDbSymbolTableRecord
100
AcDbLayerTableRecord
  2
01___PRT_DEF_DTM_PLN
 70
0
 62
7
  6
CONTINUOUS
370
-3
390
F
  0
LAYER
  5
202
100
AcDbSymbolTableRecord
100
AcDbLayerTableRecord
  2
02_ALL_AXES
 70
0
 62
7
  6
CONTINUOUS
370
-3
390
F
  0
LAYER
  5
203
100
AcDbSymbolTableRecord
100
AcDbLayerTableRecord
  2
02__ASM_ALL_AXES
 70
0
 62
7
  6
CONTINUOUS
370
-3
390
F
  0
LAYER
  5
204
100
AcDbSymbolTableRecord
100
AcDbLayerTableRecord
  2
02___PRT_ALL_AXES
 70
0
 62
7
  6
CONTINUOUS
370
-3
390
F
  0
LAYER
  5
205
100
AcDbSymbolTableRecord
100
AcDbLayerTableRecord
  2
03_ALL_CURVES
 70
0
 62
7
  6
CONTINUOUS
370
-3
390
F
  0
LAYER
  5
206
100
AcDbSymbolTableRecord
100
AcDbLayerTableRecord
  2
03__ASM_ALL_CURVES
 70
0
 62
7
  6
CONTINUOUS
370
-3
390
F
  0
LAYER
  5
207
100
AcDbSymbolTableRecord
100
AcDbLayerTableRecord
  2
03___PRT_ALL_CURVES
 70
0
 62
7
  6
CONTINUOUS
370
-3
390
F
  0
LAYER
  5
208
100
AcDbSymbolTableRecord
100
AcDbLayerTableRecord
  2
04_ALL_DTM_PNT
 70
0
 62
7
  6
CONTINUOUS
370
-3
390
F
  0
LAYER
  5
209
100
AcDbSymbolTableRecord
100
AcDbLayerTableRecord
  2
04__ASM_ALL_DTM_PNT
 70
0
 62
7
  6
CONTINUOUS
370
-3
390
F
  0
LAYER
  5
20A
100
AcDbSymbolTableRecord
100
AcDbLayerTableRecord
  2
04___PRT_ALL_DTM_PNT
 70
0
 62
7
  6
CONTINUOUS
370
-3
390
F
  0
LAYER
  5
20B
100
AcDbSymbolTableRecord
100
AcDbLayerTableRecord
  2
05_ALL_DTM_CSYS
 70
0
 62
7
  6
CONTINUOUS
370
-3
390
F
  0
LAYER
  5
20C
100
AcDbSymbolTableRecord
100
AcDbLayerTableRecord
  2
05__ASM_ALL_DTM_CSYS
 70
0
 62
7
  6
CONTINUOUS
370
-3
390
F
  0
LAYER
  5
20D
100
AcDbSymbolTableRecord
100
AcDbLayerTableRecord
  2
05__ASM_DEF_DTM_CSYS
 70
0
 62
7
  6
CONTINUOUS
370
-3
390
F
  0
LAYER
  5
20E
100
AcDbSymbolTableRecord
100
AcDbLayerTableRecord
  2
05___PRT_ALL_DTM_CSYS
 70
0
 62
7
  6
CONTINUOUS
370
-3
390
F
  0
LAYER
  5
20F
100
AcDbSymbolTableRecord
100
AcDbLayerTableRecord
  2
05___PRT_DEF_DTM_CSYS
 70
0
 62
7
  6
CONTINUOUS
370
-3
390
F
  0
LAYER
  5
210
100
AcDbSymbolTableRecord
100
AcDbLayerTableRecord
  2
06_ALL_SURFS
 70
0
 62
7
  6
CONTINUOUS
370
-3
390
F
  0
LAYER
  5
211
100
AcDbSymbolTableRecord
100
AcDbLayerTableRecord
  2
06__ASM_ALL_SURFS
 70
0
 62
7
  6
CONTINUOUS
370
-3
390
F
  0
LAYER
  5
212
100
AcDbSymbolTableRecord
100
AcDbLayerTableRecord
  2
06___PRT_ALL_SURFS
 70
0
 62
7
  6
CONTINUOUS
370
-3
390
F
  0
LAYER
  5
213
100
AcDbSymbolTableRecord
100
AcDbLayerTableRecord
  2
07__ASM_ALL_SKELETONS
 70
0
 62
7
  6
CONTINUOUS
370
-3
390
F
  0
LAYER
  5
214
100
AcDbSymbolTableRecord
100
AcDbLayerTableRecord
  2
1
 70
0
 62
7
  6
CONTINUOUS
370
-3
390
F
  0
LAYER
  5
215
100
AcDbSymbolTableRecord
100
AcDbLayerTableRecord
  2
10
 70
0
 62
7
  6
CONTINUOUS
370
-3
390
F
  0
LAYER
  5
216
100
AcDbSymbolTableRecord
100
AcDbLayerTableRecord
  2
11
 70
0
 62
7
  6
CONTINUOUS
370
-3
390
F
  0
LAYER
  5
217
100
AcDbSymbolTableRecord
100
AcDbLayerTableRecord
  2
12
 70
0
 62
7
  6
CONTINUOUS
370
-3
390
F
  0
LAYER
  5
218
100
AcDbSymbolTableRecord
100
AcDbLayerTableRecord
  2
13
 70
0
 62
7
  6
CONTINUOUS
370
-3
390
F
  0
LAYER
  5
219
100
AcDbSymbolTableRecord
100
AcDbLayerTableRecord
  2
14
 70
0
 62
7
  6
CONTINUOUS
370
-3
390
F
  0
LAYER
  5
21A
100
AcDbSymbolTableRecord
100
AcDbLayerTableRecord
  2
15
 70
0
 62
7
  6
CONTINUOUS
370
-3
390
F
  0
LAYER
  5
21B
100
AcDbSymbolTableRecord
100
AcDbLayerTableRecord
  2
16
 70
0
 62
7
  6
CONTINUOUS
370
-3
390
F
  0
LAYER
  5
21C
100
AcDbSymbolTableRecord
100
AcDbLayerTableRecord
  2
17
 70
0
 62
7
  6
CONTINUOUS
370
-3
390
F
  0
LAYER
  5
21D
100
AcDbSymbolTableRecord
100
AcDbLayerTableRecord
  2
18
 70
0
 62
7
  6
CONTINUOUS
370
-3
390
F
  0
LAYER
  5
21E
100
AcDbSymbolTableRecord
100
AcDbLayerTableRecord
  2
19
 70
0
 62
7
  6
CONTINUOUS
370
-3
390
F
  0
LAYER
  5
21F
100
AcDbSymbolTableRecord
100
AcDbLayerTableRecord
  2
2
 70
0
 62
7
  6
CONTINUOUS
370
-3
390
F
  0
LAYER
  5
220
100
AcDbSymbolTableRecord
100
AcDbLayerTableRecord
  2
20
 70
0
 62
7
  6
CONTINUOUS
370
-3
390
F
  0
LAYER
  5
221
100
AcDbSymbolTableRecord
100
AcDbLayerTableRecord
  2
21
 70
0
 62
7
  6
CONTINUOUS
370
-3
390
F
  0
LAYER
  5
222
100
AcDbSymbolTableRecord
100
AcDbLayerTableRecord
  2
22
 70
0
 62
7
  6
CONTINUOUS
370
-3
390
F
  0
LAYER
  5
223
100
AcDbSymbolTableRecord
100
AcDbLayerTableRecord
  2
23
 70
0
 62
7
  6
CONTINUOUS
370
-3
390
F
  0
LAYER
  5
224
100
AcDbSymbolTableRecord
100
AcDbLayerTableRecord
  2
24
 70
0
 62
7
  6
CONTINUOUS
370
-3
390
F
  0
LAYER
  5
225
100
AcDbSymbolTableRecord
100
AcDbLayerTableRecord
  2
25
 70
0
 62
7
  6
CONTINUOUS
370
-3
390
F
  0
LAYER
  5
226
100
AcDbSymbolTableRecord
100
AcDbLayerTableRecord
  2
26
 70
0
 62
7
  6
CONTINUOUS
370
-3
390
F
  0
LAYER
  5
227
100
AcDbSymbolTableRecord
100
AcDbLayerTableRecord
  2
27
 70
0
 62
7
  6
CONTINUOUS
370
-3
390
F
  0
LAYER
  5
228
100
AcDbSymbolTableRecord
100
AcDbLayerTableRecord
  2
28
 70
0
 62
7
  6
CONTINUOUS
370
-3
390
F
  0
LAYER
  5
229
100
AcDbSymbolTableRecord
100
AcDbLayerTableRecord
  2
29
 70
0
 62
7
  6
CONTINUOUS
370
-3
390
F
  0
LAYER
  5
22A
100
AcDbSymbolTableRecord
100
AcDbLayerTableRecord
  2
3
 70
0
 62
7
  6
CONTINUOUS
370
-3
390
F
  0
LAYER
  5
22B
100
AcDbSymbolTableRecord
100
AcDbLayerTableRecord
  2
30
 70
0
 62
7
  6
CONTINUOUS
370
-3
390
F
  0
LAYER
  5
22C
100
AcDbSymbolTableRecord
100
AcDbLayerTableRecord
  2
31
 70
0
 62
7
  6
CONTINUOUS
370
-3
390
F
  0
LAYER
  5
22D
100
AcDbSymbolTableRecord
100
AcDbLayerTableRecord
  2
32
 70
0
 62
7
  6
CONTINUOUS
370
-3
390
F
  0
LAYER
  5
22E
100
AcDbSymbolTableRecord
100
AcDbLayerTableRecord
  2
4
 70
0
 62
7
  6
CONTINUOUS
370
-3
390
F
  0
LAYER
  5
22F
100
AcDbSymbolTableRecord
100
AcDbLayerTableRecord
  2
5
 70
0
 62
7
  6
CONTINUOUS
370
-3
390
F
  0
LAYER
  5
230
100
AcDbSymbolTableRecord
100
AcDbLayerTableRecord
  2
6
 70
0
 62
7
  6
CONTINUOUS
370
-3
390
F
  0
LAYER
  5
231
100
AcDbSymbolTableRecord
100
AcDbLayerTableRecord
  2
7
 70
0
 62
7
  6
CONTINUOUS
370
-3
390
F
  0
LAYER
  5
232
100
AcDbSymbolTableRecord
100
AcDbLayerTableRecord
  2
8
 70
0
 62
7
  6
CONTINUOUS
370
-3
390
F
  0
LAYER
  5
233
100
AcDbSymbolTableRecord
100
AcDbLayerTableRecord
  2
9
 70
0
 62
7
  6
CONTINUOUS
370
-3
390
F
  0
LAYER
  5
234
100
AcDbSymbolTableRecord
100
AcDbLayerTableRecord
  2
AXIS
 70
0
 62
7
  6
CONTINUOUS
370
-3
390
F
  0
LAYER
  5
235
100
AcDbSymbolTableRecord
100
AcDbLayerTableRecord
  2
AXIS_COSMETIC_THREADS
 70
0
 62
7
  6
CONTINUOUS
370
-3
390
F
  0
LAYER
  5
236
100
AcDbSymbolTableRecord
100
AcDbLayerTableRecord
  2
DATUM_CURVES
 70
0
 62
7
  6
CONTINUOUS
370
-3
390
F
  0
LAYER
  5
237
100
AcDbSymbolTableRecord
100
AcDbLayerTableRecord
  2
DATUM_PLANES
 70
0
 62
7
  6
CONTINUOUS
370
-3
390
F
  0
LAYER
  5
238
100
AcDbSymbolTableRecord
100
AcDbLayerTableRecord
  2
NOTES
 70
0
 62
7
  6
CONTINUOUS
370
-3
390
F
  0
LAYER
  5
239
100
AcDbSymbolTableRecord
100
AcDbLayerTableRecord
  2
QUILTS
 70
0
 62
7
  6
CONTINUOUS
370
-3
390
F
  0
LAYER
  5
23A
100
AcDbSymbolTableRecord
100
AcDbLayerTableRecord
  2
SCHEME_DIMS
 70
0
 62
7
  6
CONTINUOUS
370
-3
390
F
  0
LAYER
  5
23B
100
AcDbSymbolTableRecord
100
AcDbLayerTableRecord
  2
SYMBOLS
 70
0
 62
7
  6
CONTINUOUS
370
-3
390
F
  0
ENDTAB
  0
TABLE
  2
STYLE
  5
3
100
AcDbSymbolTable
 70
1
  0
STYLE
  5
11
100
AcDbSymbolTableRecord
100
AcDbTextStyleTableRecord
  2
STANDARD
 70
0
 40
0.0
 41
1.0
 50
0.0
 71
0
 42
0.2
  3
txt
  4

  0
STYLE
  5
23C
100
AcDbSymbolTableRecord
100
AcDbTextStyleTableRecord
  2
TEXTSTYLE_1
 70
0
 40
0.0
 41
0.8
 50
0.0
 71
0
 42
0.2
  3
gdt
  4

  0
STYLE
  5
23D
100
AcDbSymbolTableRecord
100
AcDbTextStyleTableRecord
  2
TEXTSTYLE_2
 70
0
 40
0.0
 41
0.8
 50
0.0
 71
0
 42
0.2
  3
txt
  4

  0
STYLE
  5
23E
100
AcDbSymbolTableRecord
100
AcDbTextStyleTableRecord
  2
TEXTSTYLE_3
 70
0
 40
0.0
 41
0.85
 50
0.0
 71
0
 42
0.2
  3
txt
  4

  0
STYLE
  5
23F
100
AcDbSymbolTableRecord
100
AcDbTextStyleTableRecord
  2
TEXTSTYLE_4
 70
0
 40
0.0
 41
0.92
 50
0.0
 71
0
 42
0.2
  3
txt
  4

  0
STYLE
  5
240
100
AcDbSymbolTableRecord
100
AcDbTextStyleTableRecord
  2
TEXTSTYLE_5
 70
0
 40
0.0
 41
1.0
 50
0.0
 71
0
 42
0.2
  3
gdt
  4

  0
ENDTAB
  0
TABLE
  2
VIEW
  5
6
100
AcDbSymbolTable
 70
0
  0
ENDTAB
  0
TABLE
  2
UCS
  5
7
100
AcDbSymbolTable
 70
0
  0
ENDTAB
  0
TABLE
  2
APPID
  5
9
100
AcDbSymbolTable
 70
1
  0
APPID
  5
241
100
AcDbSymbolTableRecord
100
AcDbRegAppTableRecord
  2
ACAD
 70
0
  0
ENDTAB
  0
TABLE
  2
BLOCK_RECORD
  5
1
100
AcDbSymbolTable
 70
0
  0
BLOCK_RECORD
  5
242
100
AcDbSymbolTableRecord
100
AcDbBlockTableRecord
  2
*Model_Space
  0
BLOCK_RECORD
  5
243
100
AcDbSymbolTableRecord
100
AcDbBlockTableRecord
  2
*Paper_Space
  0
BLOCK_RECORD
  5
244
100
AcDbSymbolTableRecord
100
AcDbBlockTableRecord
  2
_FILLED
  0
BLOCK_RECORD
  5
245
100
AcDbSymbolTableRecord
100
AcDbBlockTableRecord
  2
*D0
  0
BLOCK_RECORD
  5
246
100
AcDbSymbolTableRecord
100
AcDbBlockTableRecord
  2
*D1
  0
BLOCK_RECORD
  5
247
100
AcDbSymbolTableRecord
100
AcDbBlockTableRecord
  2
*D2
  0
BLOCK_RECORD
  5
248
100
AcDbSymbolTableRecord
100
AcDbBlockTableRecord
  2
SYMBOL_0_BL0
  0
BLOCK_RECORD
  5
249
100
AcDbSymbolTableRecord
100
AcDbBlockTableRecord
  2
*T1
  0
ENDTAB
  0
TABLE
  2
DIMSTYLE
  5
A
100
AcDbSymbolTable
 70
1
100
AcDbDimStyleTable
 71
0
  0
DIMSTYLE
105
24A
100
AcDbSymbolTableRecord
100
AcDbDimStyleTableRecord
  2
STANDARD
 70
0
  3

  4

 40
1.0
 41
0.1875
 42
0.0625
 43
0.38
 44
0.125
 45
0.0
 46
0.0
 47
0.01
 48
0.01
140
0.1
141
0.09
142
0.0
143
25.4
144
1.0
145
0.0
146
1.0
147
0.09
 71
1.0
 72
0.0
 73
1
 74
1
 75
0
 76
0
 77
0
 78
4
170
0
171
2
172
0
173
0
174
0
175
0
176
0
177
0
178
0
270
2
271
2
272
2
273
2
274
2
275
0
280
0
281
0
282
0
283
1
284
4
285
0
286
0
287
3
288
0
340
11
278
46
341
244
342
244
343
244
344
244
  0
DIMSTYLE
105
24B
100
AcDbSymbolTableRecord
100
AcDbDimStyleTableRecord
  2
DIMSTYLE_1
 70
0
  3
<>
  4

 40
1.0
 41
0.1875
 42
0.0625
 43
0.38
 44
0.125
 45
0.0
 46
0.0
 47
0.1
 48
0.1
140
0.1
141
0.09
142
0.0
143
25.4
144
1.0
145
0.0
146
1.0
147
0.09
 71
0.0
 72
0.0
 73
1
 74
1
 75
0
 76
0
 77
0
 78
4
170
0
171
2
172
1
173
0
174
0
175
0
176
0
177
0
178
0
270
2
271
1
272
1
273
2
274
2
275
0
280
0
281
0
282
0
283
1
284
4
285
0
286
0
287
3
288
1
340
11
278
46
289
2
341
244
342
244
343
244
344
244
  0
DIMSTYLE
105
24C
100
AcDbSymbolTableRecord
100
AcDbDimStyleTableRecord
  2
DIMSTYLE_2
 70
0
  3

  4

 40
1.0
 41
0.1875
 42
0.0625
 43
0.38
 44
0.125
 45
0.0
 46
0.0
 47
0.1
 48
0.1
140
0.1
141
0.09
142
0.0
143
25.4
144
1.0
145
0.0
146
1.0
147
0.1
 71
0.0
 72
0.0
 73
1
 74
1
 75
0
 76
0
 77
0
 78
4
170
0
171
2
172
0
173
0
174
0
175
0
176
0
177
0
178
0
270
2
271
1
272
1
273
2
274
2
275
0
280
0
281
0
282
0
283
1
284
4
285
0
286
0
287
3
288
0
340
11
278
46
341
244
342
244
343
244
344
244
  0
ENDTAB
  0
ENDSEC
  0
SECTION
  2
BLOCKS
  0
BLOCK
  5
20
100
AcDbEntity
  8
0
100
AcDbBlockBegin
  2
*Model_Space
 70
0
 10
0.0
 20
0.0
 30
0.0
  3
*Model_Space
  1

  0
ENDBLK
  5
21
100
AcDbEntity
  8
0
100
AcDbBlockEnd
  0
BLOCK
  5
1C
100
AcDbEntity
  8
0
100
AcDbBlockBegin
  2
*Paper_Space
 70
0
 10
0.0
 20
0.0
 30
0.0
  3
*Paper_Space
  1

  0
ENDBLK
  5
1D
100
AcDbEntity
  8
0
100
AcDbBlockEnd
  0
BLOCK
  5
24D
100
AcDbEntity
  8
0
100
AcDbBlockBegin
 62
7
  6
CONTINUOUS
  2
SYMBOL_0_BL0
 70
64
 10
12.9086867042
 20
2.5403783405
  3
SYMBOL_0_BL0
  1

  0
ELLIPSE
  5
24E
100
AcDbEntity
  8
0
100
AcDbEllipse
 62
7
  6
CONTINUOUS
 10
12.9046654608
 20
2.5403783405
 30
0.0
 11
-0.8250004575
 21
0.0
 31
0.0
 40
0.218572
 41
0.0
 42
6.2831853072
  0
ARC
  5
24F
100
AcDbEntity
  8
0
100
AcDbCircle
 62
7
  6
CONTINUOUS
 10
12.400005721
 20
2.5168763464
 40
0.0153945295
100
AcDbArc
 50
354.0454548824
 51
5.1878013979
  0
ARC
  5
250
100
AcDbEntity
  8
0
100
AcDbCircle
 62
7
  6
CONTINUOUS
 10
12.3931760319
 20
2.5166878286
 40
0.0222174455
100
AcDbArc
 50
4.0793399388
 51
69.834329283
  0
LINE
  5
251
100
AcDbEntity
  8
0
100
AcDbLine
 62
7
  6
CONTINUOUS
 10
12.4008351814
 20
2.5375433389
 11
12.3907841758
 21
2.5410923409
  0
LINE
  5
252
100
AcDbEntity
  8
0
100
AcDbLine
 62
7
  6
CONTINUOUS
 10
12.3907841758
 20
2.5410923409
 11
12.3990241804
 21
2.5458683435
  0
ARC
  5
253
100
AcDbEntity
  8
0
100
AcDbCircle
 62
7
  6
CONTINUOUS
 10
12.3771587979
 20
2.5826952352
 40
0.0428289026
100
AcDbArc
 50
300.6990502959
 51
319.0591802498
  0
ARC
  5
254
100
AcDbEntity
  8
0
100
AcDbCircle
 62
7
  6
CONTINUOUS
 10
12.3971873948
 20
2.5665668817
 40
0.0171568255
100
AcDbArc
 50
315.9145124245
 51
16.0049121282
  0
ARC
  5
255
100
AcDbEntity
  8
0
100
AcDbCircle
 62
7
  6
CONTINUOUS
 10
12.3922357827
 20
2.5632132173
 40
0.0229166529
100
AcDbArc
 50
20.6563876465
 51
62.3316896973
  0
ARC
  5
256
100
AcDbEntity
  8
0
100
AcDbCircle
 62
7
  6
CONTINUOUS
 10
12.371573659
 20
2.5302846524
 40
0.061747717
100
AcDbArc
 50
59.5385584989
 51
90.0050977555
  0
LINE
  5
257
100
AcDbEntity
  8
0
100
AcDbLine
 62
7
  6
CONTINUOUS
 10
12.3715681652
 20
2.5920323691
 11
12.2055050731
 21
2.5920323691
  0
ARC
  5
258
100
AcDbEntity
  8
0
100
AcDbCircle
 62
7
  6
CONTINUOUS
 10
12.2055050712
 20
2.5895573696
 40
0.0024749995
100
AcDbArc
 50
89.9999571957
 51
180.0000428043
  0
LINE
  5
259
100
AcDbEntity
  8
0
100
AcDbLine
 62
7
  6
CONTINUOUS
 10
12.2030300717
 20
2.5895573678
 11
12.2030300717
 21
2.5697573568
  0
ARC
  5
25A
100
AcDbEntity
  8
0
100
AcDbCircle
 62
7
  6
CONTINUOUS
 10
12.2055050712
 20
2.5697573549
 40
0.0024749995
100
AcDbArc
 50
179.9999571957
 51
270.0000428043
  0
LINE
  5
25B
100
AcDbEntity
  8
0
100
AcDbLine
 62
7
  6
CONTINUOUS
 10
12.2055050731
 20
2.5672823554
 11
12.2294470864
 21
2.5672823554
  0
ARC
  5
25C
100
AcDbEntity
  8
0
100
AcDbCircle
 62
7
  6
CONTINUOUS
 10
12.2294470882
 20
2.5648073559
 40
0.0024749995
100
AcDbArc
 50
359.9999571957
 51
90.0000428043
  0
LINE
  5
25D
100
AcDbEntity
  8
0
100
AcDbLine
 62
7
  6
CONTINUOUS
 10
12.2319220877
 20
2.564807354
 11
12.2319220877
 21
2.5184523283
  0
ARC
  5
25E
100
AcDbEntity
  8
0
100
AcDbCircle
 62
7
  6
CONTINUOUS
 10
12.2294470882
 20
2.5184523265
 40
0.0024749995
100
AcDbArc
 50
269.9999571957
 51
0.0000428043
  0
LINE
  5
25F
100
AcDbEntity
  8
0
100
AcDbLine
 62
7
  6
CONTINUOUS
 10
12.2294470864
 20
2.515977327
 11
12.2055050731
 21
2.515977327
  0
ARC
  5
260
100
AcDbEntity
  8
0
100
AcDbCircle
 62
7
  6
CONTINUOUS
 10
12.2055050712
 20
2.5135023274
 40
0.0024749995
100
AcDbArc
 50
89.9999571957
 51
180.0000428043
  0
LINE
  5
261
100
AcDbEntity
  8
0
100
AcDbLine
 62
7
  6
CONTINUOUS
 10
12.2030300717
 20
2.5135023256
 11
12.2030300717
 21
2.4937023146
  0
ARC
  5
262
100
AcDbEntity
  8
0
100
AcDbCircle
 62
7
  6
CONTINUOUS
 10
12.2055050712
 20
2.4937023128
 40
0.0024749995
100
AcDbArc
 50
179.9999571957
 51
270.0000428043
  0
LINE
  5
263
100
AcDbEntity
  8
0
100
AcDbLine
 62
7
  6
CONTINUOUS
 10
12.2055050731
 20
2.4912273132
 11
12.3819511709
 21
2.4912273132
  0
ARC
  5
264
100
AcDbEntity
  8
0
100
AcDbCircle
 62
7
  6
CONTINUOUS
 10
12.3792298263
 20
2.539634765
 40
0.048483885
100
AcDbArc
 50
273.21763719
 51
303.0749121182
  0
ARC
  5
265
100
AcDbEntity
  8
0
100
AcDbCircle
 62
7
  6
CONTINUOUS
 10
12.3940692204
 20
2.5168671561
 40
0.0213072145
100
AcDbArc
 50
303.0488228549
 51
355.7263138674
  0
LINE
  5
266
100
AcDbEntity
  8
0
100
AcDbLine
 62
7
  6
CONTINUOUS
 10
12.2949101227
 20
2.5499573458
 11
12.3362731456
 21
2.5499573458
  0
ARC
  5
267
100
AcDbEntity
  8
0
100
AcDbCircle
 62
7
  6
CONTINUOUS
 10
12.3362731456
 20
2.5586198506
 40
0.0086625048
100
AcDbArc
 50
270.0
 51
90.0
  0
LINE
  5
268
100
AcDbEntity
  8
0
100
AcDbLine
 62
7
  6
CONTINUOUS
 10
12.3362731456
 20
2.5672823554
 11
12.2949101227
 21
2.5672823554
  0
ARC
  5
269
100
AcDbEntity
  8
0
100
AcDbCircle
 62
7
  6
CONTINUOUS
 10
12.2949101208
 20
2.5648073559
 40
0.0024749995
100
AcDbArc
 50
89.9999571957
 51
180.0000428043
  0
LINE
  5
26A
100
AcDbEntity
  8
0
100
AcDbLine
 62
7
  6
CONTINUOUS
 10
12.2924351213
 20
2.564807354
 11
12.2924351213
 21
2.5524323472
  0
ARC
  5
26B
100
AcDbEntity
  8
0
100
AcDbCircle
 62
7
  6
CONTINUOUS
 10
12.2949101208
 20
2.5524323453
 40
0.0024749995
100
AcDbArc
 50
179.9999571957
 51
270.0000428043
  0
LINE
  5
26C
100
AcDbEntity
  8
0
100
AcDbLine
 62
7
  6
CONTINUOUS
 10
12.2924351213
 20
2.5184523283
 11
12.2924351213
 21
2.5308273352
  0
ARC
  5
26D
100
AcDbEntity
  8
0
100
AcDbCircle
 62
7
  6
CONTINUOUS
 10
12.2949101208
 20
2.530827337
 40
0.0024749995
100
AcDbArc
 50
89.9999571957
 51
180.0000428043
  0
LINE
  5
26E
100
AcDbEntity
  8
0
100
AcDbLine
 62
7
  6
CONTINUOUS
 10
12.2949101227
 20
2.5333023366
 11
12.3362731456
 21
2.5333023366
  0
ARC
  5
26F
100
AcDbEntity
  8
0
100
AcDbCircle
 62
7
  6
CONTINUOUS
 10
12.3362731456
 20
2.5246398318
 40
0.0086625048
100
AcDbArc
 50
270.0
 51
90.0
  0
LINE
  5
270
100
AcDbEntity
  8
0
100
AcDbLine
 62
7
  6
CONTINUOUS
 10
12.3362731456
 20
2.515977327
 11
12.2949101227
 21
2.515977327
  0
ARC
  5
271
100
AcDbEntity
  8
0
100
AcDbCircle
 62
7
  6
CONTINUOUS
 10
12.2949101208
 20
2.5184523265
 40
0.0024749995
100
AcDbArc
 50
179.9999571957
 51
270.0000428043
  0
ARC
  5
272
100
AcDbEntity
  8
0
100
AcDbCircle
 62
7
  6
CONTINUOUS
 10
13.5806801742
 20
2.5212486481
 40
0.044722495
100
AcDbArc
 50
195.531588407
 51
204.7624440448
  0
LINE
  5
273
100
AcDbEntity
  8
0
100
AcDbLine
 62
7
  6
CONTINUOUS
 10
13.5375908118
 20
2.5092733232
 11
13.5357868108
 21
2.5153423266
  0
ARC
  5
274
100
AcDbEntity
  8
0
100
AcDbCircle
 62
7
  6
CONTINUOUS
 10
13.4974076135
 20
2.5055452462
 40
0.0396099176
100
AcDbArc
 50
14.3201081283
 51
22.4984722084
  0
ARC
  5
275
100
AcDbEntity
  8
0
100
AcDbCircle
 62
7
  6
CONTINUOUS
 10
13.5201739219
 20
2.5145168728
 40
0.0151491919
100
AcDbArc
 50
24.098260853
 51
63.0369451818
  0
ARC
  5
276
100
AcDbEntity
  8
0
100
AcDbCircle
 62
7
  6
CONTINUOUS
 10
13.5161192671
 20
2.5062372524
 40
0.0243676582
100
AcDbArc
 50
63.3666028271
 51
90.3937697637
  0
LINE
  5
277
100
AcDbEntity
  8
0
100
AcDbLine
 62
7
  6
CONTINUOUS
 10
13.5159517998
 20
2.5306043351
 11
13.4883447845
 21
2.5306043351
  0
ARC
  5
278
100
AcDbEntity
  8
0
100
AcDbCircle
 62
7
  6
CONTINUOUS
 10
13.4883447827
 20
2.5281293355
 40
0.0024749995
100
AcDbArc
 50
89.9999571957
 51
180.0000428043
  0
LINE
  5
279
100
AcDbEntity
  8
0
100
AcDbLine
 62
7
  6
CONTINUOUS
 10
13.4858697831
 20
2.5281293337
 11
13.4858697831
 21
2.5184303283
  0
ARC
  5
27A
100
AcDbEntity
  8
0
100
AcDbCircle
 62
7
  6
CONTINUOUS
 10
13.4883447827
 20
2.5184303265
 40
0.0024749995
100
AcDbArc
 50
179.9999571957
 51
270.0000428043
  0
LINE
  5
27B
100
AcDbEntity
  8
0
100
AcDbLine
 62
7
  6
CONTINUOUS
 10
13.4883447845
 20
2.5159553269
 11
13.5130037982
 21
2.5159553269
  0
ARC
  5
27C
100
AcDbEntity
  8
0
100
AcDbCircle
 62
7
  6
CONTINUOUS
 10
13.5130038
 20
2.5134803274
 40
0.0024749995
100
AcDbArc
 50
359.9999571957
 51
90.0000428043
  0
LINE
  5
27D
100
AcDbEntity
  8
0
100
AcDbLine
 62
7
  6
CONTINUOUS
 10
13.5154787995
 20
2.5134803256
 11
13.5154787995
 21
2.4937023146
  0
ARC
  5
27E
100
AcDbEntity
  8
0
100
AcDbCircle
 62
7
  6
CONTINUOUS
 10
13.5130038
 20
2.4937023128
 40
0.0024749995
100
AcDbArc
 50
269.9999571957
 51
0.0000428043
  0
LINE
  5
27F
100
AcDbEntity
  8
0
100
AcDbLine
 62
7
  6
CONTINUOUS
 10
13.5130037982
 20
2.4912273132
 11
13.3994327352
 21
2.4912273132
  0
ARC
  5
280
100
AcDbEntity
  8
0
100
AcDbCircle
 62
7
  6
CONTINUOUS
 10
13.3994327333
 20
2.4937023128
 40
0.0024749995
100
AcDbArc
 50
179.9999571957
 51
270.0000428043
  0
LINE
  5
281
100
AcDbEntity
  8
0
100
AcDbLine
 62
7
  6
CONTINUOUS
 10
13.3969577338
 20
2.4937023146
 11
13.3969577338
 21
2.5135023256
  0
ARC
  5
282
100
AcDbEntity
  8
0
100
AcDbCircle
 62
7
  6
CONTINUOUS
 10
13.3994327333
 20
2.5135023274
 40
0.0024749995
100
AcDbArc
 50
89.9999571957
 51
180.0000428043
  0
LINE
  5
283
100
AcDbEntity
  8
0
100
AcDbLine
 62
7
  6
CONTINUOUS
 10
13.3994327352
 20
2.515977327
 11
13.4221787478
 21
2.515977327
  0
ARC
  5
284
100
AcDbEntity
  8
0
100
AcDbCircle
 62
7
  6
CONTINUOUS
 10
13.4221787497
 20
2.5184523265
 40
0.0024749995
100
AcDbArc
 50
269.9999571957
 51
0.0000428042
  0
LINE
  5
285
100
AcDbEntity
  8
0
100
AcDbLine
 62
7
  6
CONTINUOUS
 10
13.4246537492
 20
2.5184523283
 11
13.4246537492
 21
2.564807354
  0
ARC
  5
286
100
AcDbEntity
  8
0
100
AcDbCircle
 62
7
  6
CONTINUOUS
 10
13.4221787497
 20
2.5648073559
 40
0.0024749995
100
AcDbArc
 50
359.9999571957
 51
90.0000428043
  0
LINE
  5
287
100
AcDbEntity
  8
0
100
AcDbLine
 62
7
  6
CONTINUOUS
 10
13.4221787478
 20
2.5672823554
 11
13.3994327352
 21
2.5672823554
  0
ARC
  5
288
100
AcDbEntity
  8
0
100
AcDbCircle
 62
7
  6
CONTINUOUS
 10
13.3994327333
 20
2.5697573549
 40
0.0024749995
100
AcDbArc
 50
179.9999571957
 51
270.0000428043
  0
LINE
  5
289
100
AcDbEntity
  8
0
100
AcDbLine
 62
7
  6
CONTINUOUS
 10
13.3969577338
 20
2.5697573568
 11
13.3969577338
 21
2.5895573678
  0
ARC
  5
28A
100
AcDbEntity
  8
0
100
AcDbCircle
 62
7
  6
CONTINUOUS
 10
13.3994327333
 20
2.5895573696
 40
0.0024749995
100
AcDbArc
 50
89.9999571957
 51
180.0000428043
  0
LINE
  5
28B
100
AcDbEntity
  8
0
100
AcDbLine
 62
7
  6
CONTINUOUS
 10
13.3994327352
 20
2.5920323691
 11
13.5490138181
 21
2.5920323691
  0
ARC
  5
28C
100
AcDbEntity
  8
0
100
AcDbCircle
 62
7
  6
CONTINUOUS
 10
13.5463505148
 20
2.4094934586
 40
0.1825583387
100
AcDbArc
 50
79.8618509324
 51
89.1640948679
  0
ARC
  5
28D
100
AcDbEntity
  8
0
100
AcDbCircle
 62
7
  6
CONTINUOUS
 10
13.5726548052
 20
2.5503169747
 40
0.039319019
100
AcDbArc
 50
59.1202086415
 51
81.4730239328
  0
ARC
  5
28E
100
AcDbEntity
  8
0
100
AcDbCircle
 62
7
  6
CONTINUOUS
 10
13.5783142014
 20
2.5566516438
 40
0.0310192946
100
AcDbArc
 50
34.7540871
 51
62.0879016178
  0
ARC
  5
28F
100
AcDbEntity
  8
0
100
AcDbCircle
 62
7
  6
CONTINUOUS
 10
13.5900029525
 20
2.565201245
 40
0.0165459396
100
AcDbArc
 50
1.548452892
 51
33.5033152417
  0
ARC
  5
290
100
AcDbEntity
  8
0
100
AcDbCircle
 62
7
  6
CONTINUOUS
 10
13.5932995477
 20
2.5653696972
 40
0.0132462337
100
AcDbArc
 50
331.1510006998
 51
1.205404301
  0
ARC
  5
291
100
AcDbEntity
  8
0
100
AcDbCircle
 62
7
  6
CONTINUOUS
 10
13.5822888914
 20
2.5720482849
 40
0.0261183659
100
AcDbArc
 50
305.6373831893
 51
329.9727629745
  0
ARC
  5
292
100
AcDbEntity
  8
0
100
AcDbCircle
 62
7
  6
CONTINUOUS
 10
13.5519569538
 20
2.6152551345
 40
0.0789082104
100
AcDbArc
 50
292.906155071
 51
305.2574666259
  0
ARC
  5
293
100
AcDbEntity
  8
0
100
AcDbCircle
 62
7
  6
CONTINUOUS
 10
13.5282557878
 20
2.4386010294
 40
0.117346916
100
AcDbArc
 50
58.614769177
 51
62.3737227606
  0
ARC
  5
294
100
AcDbEntity
  8
0
100
AcDbCircle
 62
7
  6
CONTINUOUS
 10
13.5761387404
 20
2.5167282896
 40
0.0257145923
100
AcDbArc
 50
39.3804255939
 51
59.0361096173
  0
ARC
  5
295
100
AcDbEntity
  8
0
100
AcDbCircle
 62
7
  6
CONTINUOUS
 10
13.5750183849
 20
2.5166552064
 40
0.0266349791
100
AcDbArc
 50
20.3630922153
 51
37.9727053099
  0
ARC
  5
296
100
AcDbEntity
  8
0
100
AcDbCircle
 62
7
  6
CONTINUOUS
 10
13.5571178432
 20
2.509473798
 40
0.0459185159
100
AcDbArc
 50
15.6740290068
 51
20.9917271228
  0
ARC
  5
297
100
AcDbEntity
  8
0
100
AcDbCircle
 62
7
  6
CONTINUOUS
 10
13.6156881783
 20
2.525116781
 40
0.0147197649
100
AcDbArc
 50
192.7054516565
 51
206.0594861022
  0
ARC
  5
298
100
AcDbEntity
  8
0
100
AcDbCircle
 62
7
  6
CONTINUOUS
 10
13.6071938412
 20
2.5209082945
 40
0.0052403997
100
AcDbArc
 50
205.5232099488
 51
227.5054868079
  0
ARC
  5
299
100
AcDbEntity
  8
0
100
AcDbCircle
 62
7
  6
CONTINUOUS
 10
13.6054655419
 20
2.5190929218
 40
0.0027347709
100
AcDbArc
 50
228.5117626737
 51
266.1485845754
  0
LINE
  5
29A
100
AcDbEntity
  8
0
100
AcDbLine
 62
7
  6
CONTINUOUS
 10
13.6052818493
 20
2.5163643272
 11
13.60639085
 21
2.5163643272
  0
ARC
  5
29B
100
AcDbEntity
  8
0
100
AcDbCircle
 62
7
  6
CONTINUOUS
 10
13.6063292954
 20
2.5296129864
 40
0.0132488022
100
AcDbArc
 50
270.266200055
 51
281.2404888597
  0
ARC
  5
29C
100
AcDbEntity
  8
0
100
AcDbCircle
 62
7
  6
CONTINUOUS
 10
13.6075235364
 20
2.5238762928
 40
0.0073895522
100
AcDbArc
 50
280.8288201977
 51
305.0837508495
  0
ARC
  5
29D
100
AcDbEntity
  8
0
100
AcDbCircle
 62
7
  6
CONTINUOUS
 10
13.607924718
 20
2.5230254464
 40
0.0064647042
100
AcDbArc
 50
306.5086174083
 51
340.2162360092
  0
ARC
  5
29E
100
AcDbEntity
  8
0
100
AcDbCircle
 62
7
  6
CONTINUOUS
 10
13.6027235414
 20
2.524769508
 40
0.0119498009
100
AcDbArc
 50
340.7883861657
 51
1.1691452593
  0
LINE
  5
29F
100
AcDbEntity
  8
0
100
AcDbLine
 62
7
  6
CONTINUOUS
 10
13.6146708546
 20
2.525013332
 11
13.6146708546
 21
2.5276393334
  0
ARC
  5
2A0
100
AcDbEntity
  8
0
100
AcDbCircle
 62
7
  6
CONTINUOUS
 10
13.6171458541
 20
2.5276393353
 40
0.0024749995
100
AcDbArc
 50
89.9999571957
 51
180.0000428043
  0
LINE
  5
2A1
100
AcDbEntity
  8
0
100
AcDbLine
 62
7
  6
CONTINUOUS
 10
13.6171458559
 20
2.5301143348
 11
13.6292558626
 21
2.5301143348
  0
ARC
  5
2A2
100
AcDbEntity
  8
0
100
AcDbCircle
 62
7
  6
CONTINUOUS
 10
13.6292558645
 20
2.5276393353
 40
0.0024749995
100
AcDbArc
 50
359.9999571957
 51
90.0000428043
  0
LINE
  5
2A3
100
AcDbEntity
  8
0
100
AcDbLine
 62
7
  6
CONTINUOUS
 10
13.631730864
 20
2.5276393334
 11
13.631730864
 21
2.516087327
  0
ARC
  5
2A4
100
AcDbEntity
  8
0
100
AcDbCircle
 62
7
  6
CONTINUOUS
 10
13.6141751675
 20
2.5161916447
 40
0.0175560065
100
AcDbArc
 50
332.2279060967
 51
359.6595469939
  0
ARC
  5
2A5
100
AcDbEntity
  8
0
100
AcDbCircle
 62
7
  6
CONTINUOUS
 10
13.6048681567
 20
2.5210861501
 40
0.0280715479
100
AcDbArc
 50
308.5071794988
 51
332.24006569
  0
ARC
  5
2A6
100
AcDbEntity
  8
0
100
AcDbCircle
 62
7
  6
CONTINUOUS
 10
13.5978759713
 20
2.5286873679
 40
0.0383802683
100
AcDbArc
 50
288.7656836787
 51
309.6104317088
  0
ARC
  5
2A7
100
AcDbEntity
  8
0
100
AcDbCircle
 62
7
  6
CONTINUOUS
 10
13.6036139387
 20
2.5111006186
 40
0.0198837666
100
AcDbArc
 50
271.8586572978
 51
289.4131338543
  0
LINE
  5
2A8
100
AcDbEntity
  8
0
100
AcDbLine
 62
7
  6
CONTINUOUS
 10
13.6042588488
 20
2.4912273132
 11
13.5568948225
 21
2.4912273132
  0
ARC
  5
2A9
100
AcDbEntity
  8
0
100
AcDbCircle
 62
7
  6
CONTINUOUS
 10
13.5577001432
 20
2.5085494649
 40
0.0173408616
100
AcDbArc
 50
232.4713476722
 51
267.338189944
  0
ARC
  5
2AA
100
AcDbEntity
  8
0
100
AcDbCircle
 62
7
  6
CONTINUOUS
 10
13.5607987082
 20
2.5143997688
 40
0.0238935861
100
AcDbArc
 50
209.8247607259
 51
235.1255079367
  0
ARC
  5
2AB
100
AcDbEntity
  8
0
100
AcDbCircle
 62
7
  6
CONTINUOUS
 10
13.5295131508
 20
2.5629115009
 40
0.0110815393
100
AcDbArc
 50
306.758405961
 51
320.4502234234
  0
ARC
  5
2AC
100
AcDbEntity
  8
0
100
AcDbCircle
 62
7
  6
CONTINUOUS
 10
13.5238839599
 20
2.5706523294
 40
0.0206523367
100
AcDbArc
 50
289.6883413472
 51
306.4184925496
  0
ARC
  5
2AD
100
AcDbEntity
  8
0
100
AcDbCircle
 62
7
  6
CONTINUOUS
 10
13.5219564542
 20
2.5750459767
 40
0.0254407115
100
AcDbArc
 50
270.7327484175
 51
290.441894219
  0
LINE
  5
2AE
100
AcDbEntity
  8
0
100
AcDbLine
 62
7
  6
CONTINUOUS
 10
13.5222818033
 20
2.5496073456
 11
13.4883447845
 21
2.5496073456
  0
ARC
  5
2AF
100
AcDbEntity
  8
0
100
AcDbCircle
 62
7
  6
CONTINUOUS
 10
13.4883447827
 20
2.5520823451
 40
0.0024749995
100
AcDbArc
 50
179.9999571957
 51
270.0000428043
  0
LINE
  5
2B0
100
AcDbEntity
  8
0
100
AcDbLine
 62
7
  6
CONTINUOUS
 10
13.4858697831
 20
2.552082347
 11
13.4858697831
 21
2.564807354
  0
ARC
  5
2B1
100
AcDbEntity
  8
0
100
AcDbCircle
 62
7
  6
CONTINUOUS
 10
13.4883447827
 20
2.5648073559
 40
0.0024749995
100
AcDbArc
 50
89.9999571957
 51
180.0000428043
  0
LINE
  5
2B2
100
AcDbEntity
  8
0
100
AcDbLine
 62
7
  6
CONTINUOUS
 10
13.4883447845
 20
2.5672823554
 11
13.5251458049
 21
2.5672823554
  0
ARC
  5
2B3
100
AcDbEntity
  8
0
100
AcDbCircle
 62
7
  6
CONTINUOUS
 10
13.5236009174
 20
2.5388278764
 40
0.0284963867
100
AcDbArc
 50
70.3834917948
 51
86.8922743861
  0
ARC
  5
2B4
100
AcDbEntity
  8
0
100
AcDbCircle
 62
7
  6
CONTINUOUS
 10
13.5284605274
 20
2.5518696094
 40
0.0145814632
100
AcDbArc
 50
54.6746025112
 51
71.1660573124
  0
ARC
  5
2B5
100
AcDbEntity
  8
0
100
AcDbCircle
 62
7
  6
CONTINUOUS
 10
13.5335900184
 20
2.5587235346
 40
0.0060275915
100
AcDbArc
 50
20.9055592135
 51
56.7851676243
  0
ARC
  5
2B6
100
AcDbEntity
  8
0
100
AcDbCircle
 62
7
  6
CONTINUOUS
 10
13.5348905773
 20
2.5593838168
 40
0.0045795888
100
AcDbArc
 50
355.6235353944
 51
18.9942678268
  0
ARC
  5
2B7
100
AcDbEntity
  8
0
100
AcDbCircle
 62
7
  6
CONTINUOUS
 10
13.533683767
 20
2.559677593
 40
0.0058087709
100
AcDbArc
 50
318.8515287446
 51
353.6422345323
  0
LINE
  5
2B8
100
AcDbEntity
  8
0
100
AcDbLine
 62
7
  6
CONTINUOUS
 10
12.672340332
 20
2.5920323691
 11
12.7727983877
 21
2.5920323691
  0
ARC
  5
2B9
100
AcDbEntity
  8
0
100
AcDbCircle
 62
7
  6
CONTINUOUS
 10
12.7727985224
 20
2.5895582013
 40
0.0024741678
100
AcDbArc
 50
46.3477981899
 51
90.0031206038
  0
LINE
  5
2BA
100
AcDbEntity
  8
0
100
AcDbLine
 62
7
  6
CONTINUOUS
 10
12.7745063886
 20
2.5913483688
 11
12.8345394219
 21
2.534068337
  0
ARC
  5
2BB
100
AcDbEntity
  8
0
100
AcDbCircle
 62
7
  6
CONTINUOUS
 10
12.8362481229
 20
2.5358592748
 40
0.0024753014
100
AcDbArc
 50
226.3461263059
 51
0.0014637322
  0
LINE
  5
2BC
100
AcDbEntity
  8
0
100
AcDbLine
 62
7
  6
CONTINUOUS
 10
12.8387234242
 20
2.535859338
 11
12.8387234242
 21
2.564807354
  0
ARC
  5
2BD
100
AcDbEntity
  8
0
100
AcDbCircle
 62
7
  6
CONTINUOUS
 10
12.8362484247
 20
2.5648073559
 40
0.0024749995
100
AcDbArc
 50
359.9999571957
 51
90.0000428043
  0
LINE
  5
2BE
100
AcDbEntity
  8
0
100
AcDbLine
 62
7
  6
CONTINUOUS
 10
12.8362484229
 20
2.5672823554
 11
12.8174724125
 21
2.5672823554
  0
ARC
  5
2BF
100
AcDbEntity
  8
0
100
AcDbCircle
 62
7
  6
CONTINUOUS
 10
12.8174724106
 20
2.5697573549
 40
0.0024749995
100
AcDbArc
 50
179.9999571957
 51
270.0000428043
  0
LINE
  5
2C0
100
AcDbEntity
  8
0
100
AcDbLine
 62
7
  6
CONTINUOUS
 10
12.8149974111
 20
2.5697573568
 11
12.8149974111
 21
2.5895573678
  0
ARC
  5
2C1
100
AcDbEntity
  8
0
100
AcDbCircle
 62
7
  6
CONTINUOUS
 10
12.8174724106
 20
2.5895573696
 40
0.0024749995
100
AcDbArc
 50
89.9999571957
 51
180.0000428043
  0
LINE
  5
2C2
100
AcDbEntity
  8
0
100
AcDbLine
 62
7
  6
CONTINUOUS
 10
12.8174724125
 20
2.5920323691
 11
12.8914734535
 21
2.5920323691
  0
ARC
  5
2C3
100
AcDbEntity
  8
0
100
AcDbCircle
 62
7
  6
CONTINUOUS
 10
12.8914734553
 20
2.5895573696
 40
0.0024749995
100
AcDbArc
 50
359.9999571957
 51
90.0000428043
  0
LINE
  5
2C4
100
AcDbEntity
  8
0
100
AcDbLine
 62
7
  6
CONTINUOUS
 10
12.8939484549
 20
2.5895573678
 11
12.8939484549
 21
2.5697573568
  0
ARC
  5
2C5
100
AcDbEntity
  8
0
100
AcDbCircle
 62
7
  6
CONTINUOUS
 10
12.8914734553
 20
2.5697573549
 40
0.0024749995
100
AcDbArc
 50
269.9999571957
 51
0.0000428043
  0
LINE
  5
2C6
100
AcDbEntity
  8
0
100
AcDbLine
 62
7
  6
CONTINUOUS
 10
12.8914734535
 20
2.5672823554
 11
12.8735404436
 21
2.5672823554
  0
ARC
  5
2C7
100
AcDbEntity
  8
0
100
AcDbCircle
 62
7
  6
CONTINUOUS
 10
12.8735404417
 20
2.5648073559
 40
0.0024749995
100
AcDbArc
 50
89.9999571957
 51
180.0000428043
  0
LINE
  5
2C8
100
AcDbEntity
  8
0
100
AcDbLine
 62
7
  6
CONTINUOUS
 10
12.8710654422
 20
2.564807354
 11
12.8710654422
 21
2.4937023146
  0
ARC
  5
2C9
100
AcDbEntity
  8
0
100
AcDbCircle
 62
7
  6
CONTINUOUS
 10
12.8685904427
 20
2.4937023128
 40
0.0024749995
100
AcDbArc
 50
269.9999571957
 51
0.0000428043
  0
LINE
  5
2CA
100
AcDbEntity
  8
0
100
AcDbLine
 62
7
  6
CONTINUOUS
 10
12.8685904408
 20
2.4912273132
 11
12.7943853997
 21
2.4912273132
  0
ARC
  5
2CB
100
AcDbEntity
  8
0
100
AcDbCircle
 62
7
  6
CONTINUOUS
 10
12.7943847649
 20
2.4937027294
 40
0.0024754162
100
AcDbArc
 50
226.3593695813
 51
270.0146919953
  0
LINE
  5
2CC
100
AcDbEntity
  8
0
100
AcDbLine
 62
7
  6
CONTINUOUS
 10
12.7926763987
 20
2.4919113136
 11
12.7293963636
 21
2.5522893471
  0
ARC
  5
2CD
100
AcDbEntity
  8
0
100
AcDbCircle
 62
7
  6
CONTINUOUS
 10
12.7276876627
 20
2.5504984093
 40
0.0024753014
100
AcDbArc
 50
46.3461263059
 51
180.0014637322
  0
LINE
  5
2CE
100
AcDbEntity
  8
0
100
AcDbLine
 62
7
  6
CONTINUOUS
 10
12.7252123613
 20
2.5504983461
 11
12.7252123613
 21
2.5184523283
  0
ARC
  5
2CF
100
AcDbEntity
  8
0
100
AcDbCircle
 62
7
  6
CONTINUOUS
 10
12.7276873608
 20
2.5184523265
 40
0.0024749995
100
AcDbArc
 50
179.9999571957
 51
270.0000428043
  0
LINE
  5
2D0
100
AcDbEntity
  8
0
100
AcDbLine
 62
7
  6
CONTINUOUS
 10
12.7276873627
 20
2.515977327
 11
12.7480043739
 21
2.515977327
  0
ARC
  5
2D1
100
AcDbEntity
  8
0
100
AcDbCircle
 62
7
  6
CONTINUOUS
 10
12.7480043758
 20
2.5135023274
 40
0.0024749995
100
AcDbArc
 50
359.9999571957
 51
90.0000428043
  0
LINE
  5
2D2
100
AcDbEntity
  8
0
100
AcDbLine
 62
7
  6
CONTINUOUS
 10
12.7504793753
 20
2.5135023256
 11
12.7504793753
 21
2.4937023146
  0
ARC
  5
2D3
100
AcDbEntity
  8
0
100
AcDbCircle
 62
7
  6
CONTINUOUS
 10
12.7480043758
 20
2.4937023128
 40
0.0024749995
100
AcDbArc
 50
269.9999571957
 51
0.0000428043
  0
LINE
  5
2D4
100
AcDbEntity
  8
0
100
AcDbLine
 62
7
  6
CONTINUOUS
 10
12.7480043739
 20
2.4912273132
 11
12.672340332
 21
2.4912273132
  0
ARC
  5
2D5
100
AcDbEntity
  8
0
100
AcDbCircle
 62
7
  6
CONTINUOUS
 10
12.6723403301
 20
2.4937023128
 40
0.0024749995
100
AcDbArc
 50
179.9999571957
 51
270.0000428043
  0
LINE
  5
2D6
100
AcDbEntity
  8
0
100
AcDbLine
 62
7
  6
CONTINUOUS
 10
12.6698653306
 20
2.4937023146
 11
12.6698653306
 21
2.5135023256
  0
ARC
  5
2D7
100
AcDbEntity
  8
0
100
AcDbCircle
 62
7
  6
CONTINUOUS
 10
12.6723403301
 20
2.5135023274
 40
0.0024749995
100
AcDbArc
 50
89.9999571957
 51
180.0000428043
  0
LINE
  5
2D8
100
AcDbEntity
  8
0
100
AcDbLine
 62
7
  6
CONTINUOUS
 10
12.672340332
 20
2.515977327
 11
12.6909873423
 21
2.515977327
  0
ARC
  5
2D9
100
AcDbEntity
  8
0
100
AcDbCircle
 62
7
  6
CONTINUOUS
 10
12.6909873442
 20
2.5184523265
 40
0.0024749995
100
AcDbArc
 50
269.9999571957
 51
0.0000428043
  0
LINE
  5
2DA
100
AcDbEntity
  8
0
100
AcDbLine
 62
7
  6
CONTINUOUS
 10
12.6934623437
 20
2.5184523283
 11
12.6934623437
 21
2.564807354
  0
ARC
  5
2DB
100
AcDbEntity
  8
0
100
AcDbCircle
 62
7
  6
CONTINUOUS
 10
12.6909873442
 20
2.5648073559
 40
0.0024749995
100
AcDbArc
 50
359.9999571957
 51
90.0000428043
  0
LINE
  5
2DC
100
AcDbEntity
  8
0
100
AcDbLine
 62
7
  6
CONTINUOUS
 10
12.6909873423
 20
2.5672823554
 11
12.672340332
 21
2.5672823554
  0
ARC
  5
2DD
100
AcDbEntity
  8
0
100
AcDbCircle
 62
7
  6
CONTINUOUS
 10
12.6723403301
 20
2.5697573549
 40
0.0024749995
100
AcDbArc
 50
179.9999571957
 51
270.0000428043
  0
LINE
  5
2DE
100
AcDbEntity
  8
0
100
AcDbLine
 62
7
  6
CONTINUOUS
 10
12.6698653306
 20
2.5697573568
 11
12.6698653306
 21
2.5895573678
  0
ARC
  5
2DF
100
AcDbEntity
  8
0
100
AcDbCircle
 62
7
  6
CONTINUOUS
 10
12.6723403301
 20
2.5895573696
 40
0.0024749995
100
AcDbArc
 50
89.9999571957
 51
180.0000428043
  0
LINE
  5
2E0
100
AcDbEntity
  8
0
100
AcDbLine
 62
7
  6
CONTINUOUS
 10
12.5246402501
 20
2.5655893545
 11
12.5175232461
 21
2.5543723483
  0
ARC
  5
2E1
100
AcDbEntity
  8
0
100
AcDbCircle
 62
7
  6
CONTINUOUS
 10
12.519613138
 20
2.5530463862
 40
0.0024750401
100
AcDbArc
 50
147.6063258012
 51
270.0025305754
  0
LINE
  5
2E2
100
AcDbEntity
  8
0
100
AcDbLine
 62
7
  6
CONTINUOUS
 10
12.5196132473
 20
2.5505713461
 11
12.5401702587
 21
2.5505713461
  0
ARC
  5
2E3
100
AcDbEntity
  8
0
100
AcDbCircle
 62
7
  6
CONTINUOUS
 10
12.5401702375
 20
2.5530465533
 40
0.0024752071
100
AcDbArc
 50
270.0004896793
 51
32.9089806818
  0
LINE
  5
2E4
100
AcDbEntity
  8
0
100
AcDbLine
 62
7
  6
CONTINUOUS
 10
12.5422482598
 20
2.5543913483
 11
12.5349892558
 21
2.5656073545
  0
ARC
  5
2E5
100
AcDbEntity
  8
0
100
AcDbCircle
 62
7
  6
CONTINUOUS
 10
12.532910715
 20
2.564262895
 40
0.0024754602
100
AcDbArc
 50
32.8959418573
 51
89.9875097202
  0
LINE
  5
2E6
100
AcDbEntity
  8
0
100
AcDbLine
 62
7
  6
CONTINUOUS
 10
12.5329112547
 20
2.5667383551
 11
12.5267302512
 21
2.5667383551
  0
ARC
  5
2E7
100
AcDbEntity
  8
0
100
AcDbCircle
 62
7
  6
CONTINUOUS
 10
12.5267301809
 20
2.5642631548
 40
0.0024752003
100
AcDbArc
 50
89.998372645
 51
147.602165307
  0
LINE
  5
2E8
100
AcDbEntity
  8
0
100
AcDbLine
 62
7
  6
CONTINUOUS
 10
12.548053263
 20
2.5284903339
 11
12.5536792662
 21
2.5197973291
  0
ARC
  5
2E9
100
AcDbEntity
  8
0
100
AcDbCircle
 62
7
  6
CONTINUOUS
 10
12.5516012439
 20
2.5184525341
 40
0.0024752071
100
AcDbArc
 50
270.0004896794
 51
32.9089806818
  0
LINE
  5
2EA
100
AcDbEntity
  8
0
100
AcDbLine
 62
7
  6
CONTINUOUS
 10
12.551601265
 20
2.515977327
 11
12.537150257
 21
2.515977327
  0
ARC
  5
2EB
100
AcDbEntity
  8
0
100
AcDbCircle
 62
7
  6
CONTINUOUS
 10
12.5371502552
 20
2.5135023274
 40
0.0024749995
100
AcDbArc
 50
89.9999571957
 51
180.0000428043
  0
LINE
  5
2EC
100
AcDbEntity
  8
0
100
AcDbLine
 62
7
  6
CONTINUOUS
 10
12.5346752556
 20
2.5135023256
 11
12.5346752556
 21
2.4937023146
  0
ARC
  5
2ED
100
AcDbEntity
  8
0
100
AcDbCircle
 62
7
  6
CONTINUOUS
 10
12.5371502552
 20
2.4937023128
 40
0.0024749995
100
AcDbArc
 50
179.9999571957
 51
270.0000428043
  0
LINE
  5
2EE
100
AcDbEntity
  8
0
100
AcDbLine
 62
7
  6
CONTINUOUS
 10
12.537150257
 20
2.4912273132
 11
12.6424313154
 21
2.4912273132
  0
ARC
  5
2EF
100
AcDbEntity
  8
0
100
AcDbCircle
 62
7
  6
CONTINUOUS
 10
12.6424313172
 20
2.4937023128
 40
0.0024749995
100
AcDbArc
 50
269.9999571957
 51
0.0000428043
  0
LINE
  5
2F0
100
AcDbEntity
  8
0
100
AcDbLine
 62
7
  6
CONTINUOUS
 10
12.6449063168
 20
2.4937023146
 11
12.6449063168
 21
2.5135023256
  0
ARC
  5
2F1
100
AcDbEntity
  8
0
100
AcDbCircle
 62
7
  6
CONTINUOUS
 10
12.6424313172
 20
2.5135023274
 40
0.0024749995
100
AcDbArc
 50
359.9999571957
 51
90.0000428043
  0
LINE
  5
2F2
100
AcDbEntity
  8
0
100
AcDbLine
 62
7
  6
CONTINUOUS
 10
12.6424313154
 20
2.515977327
 11
12.6224153043
 21
2.515977327
  0
ARC
  5
2F3
100
AcDbEntity
  8
0
100
AcDbCircle
 62
7
  6
CONTINUOUS
 10
12.6224154248
 20
2.518451368
 40
0.002474041
100
AcDbArc
 50
212.9056413127
 51
269.9972091756
  0
LINE
  5
2F4
100
AcDbEntity
  8
0
100
AcDbLine
 62
7
  6
CONTINUOUS
 10
12.6203383031
 20
2.5171073276
 11
12.5725822767
 21
2.5909023685
  0
ARC
  5
2F5
100
AcDbEntity
  8
0
100
AcDbCircle
 62
7
  6
CONTINUOUS
 10
12.570504655
 20
2.589557409
 40
0.0024749602
100
AcDbArc
 50
32.9172174468
 51
90.0087853097
  0
LINE
  5
2F6
100
AcDbEntity
  8
0
100
AcDbLine
 62
7
  6
CONTINUOUS
 10
12.5705042755
 20
2.5920323691
 11
12.5133292438
 21
2.5920323691
  0
ARC
  5
2F7
100
AcDbEntity
  8
0
100
AcDbCircle
 62
7
  6
CONTINUOUS
 10
12.5133291735
 20
2.5895571688
 40
0.0024752003
100
AcDbArc
 50
89.9983726451
 51
147.602165307
  0
LINE
  5
2F8
100
AcDbEntity
  8
0
100
AcDbLine
 62
7
  6
CONTINUOUS
 10
12.5112392426
 20
2.5908833685
 11
12.4644392167
 21
2.5171263276
  0
ARC
  5
2F9
100
AcDbEntity
  8
0
100
AcDbCircle
 62
7
  6
CONTINUOUS
 10
12.4623492858
 20
2.5184525273
 40
0.0024752003
100
AcDbArc
 50
269.9983726451
 51
327.602165307
  0
LINE
  5
2FA
100
AcDbEntity
  8
0
100
AcDbLine
 62
7
  6
CONTINUOUS
 10
12.4623492155
 20
2.515977327
 11
12.4394882028
 21
2.515977327
  0
ARC
  5
2FB
100
AcDbEntity
  8
0
100
AcDbCircle
 62
7
  6
CONTINUOUS
 10
12.439488201
 20
2.5135023274
 40
0.0024749995
100
AcDbArc
 50
89.9999571957
 51
180.0000428043
  0
LINE
  5
2FC
100
AcDbEntity
  8
0
100
AcDbLine
 62
7
  6
CONTINUOUS
 10
12.4370132015
 20
2.5135023256
 11
12.4370132015
 21
2.4937023146
  0
ARC
  5
2FD
100
AcDbEntity
  8
0
100
AcDbCircle
 62
7
  6
CONTINUOUS
 10
12.439488201
 20
2.4937023128
 40
0.0024749995
100
AcDbArc
 50
179.9999571957
 51
270.0000428043
  0
LINE
  5
2FE
100
AcDbEntity
  8
0
100
AcDbLine
 62
7
  6
CONTINUOUS
 10
12.4394882028
 20
2.4912273132
 11
12.5168642458
 21
2.4912273132
  0
ARC
  5
2FF
100
AcDbEntity
  8
0
100
AcDbCircle
 62
7
  6
CONTINUOUS
 10
12.5168642476
 20
2.4937023128
 40
0.0024749995
100
AcDbArc
 50
269.9999571957
 51
0.0000428043
  0
LINE
  5
300
100
AcDbEntity
  8
0
100
AcDbLine
 62
7
  6
CONTINUOUS
 10
12.5193392471
 20
2.4937023146
 11
12.5193392471
 21
2.5135023256
  0
ARC
  5
301
100
AcDbEntity
  8
0
100
AcDbCircle
 62
7
  6
CONTINUOUS
 10
12.5168642476
 20
2.5135023274
 40
0.0024749995
100
AcDbArc
 50
359.9999571957
 51
90.0000428043
  0
LINE
  5
302
100
AcDbEntity
  8
0
100
AcDbLine
 62
7
  6
CONTINUOUS
 10
12.5168642458
 20
2.515977327
 11
12.5055812395
 21
2.515977327
  0
ARC
  5
303
100
AcDbEntity
  8
0
100
AcDbCircle
 62
7
  6
CONTINUOUS
 10
12.5055811302
 20
2.518452367
 40
0.0024750401
100
AcDbArc
 50
147.6063258011
 51
270.0025305754
  0
LINE
  5
304
100
AcDbEntity
  8
0
100
AcDbLine
 62
7
  6
CONTINUOUS
 10
12.5034912383
 20
2.5197783291
 11
12.5090072414
 21
2.5284723339
  0
ARC
  5
305
100
AcDbEntity
  8
0
100
AcDbCircle
 62
7
  6
CONTINUOUS
 10
12.5110971723
 20
2.5271461342
 40
0.0024752003
100
AcDbArc
 50
89.998372645
 51
147.602165307
  0
LINE
  5
306
100
AcDbEntity
  8
0
100
AcDbLine
 62
7
  6
CONTINUOUS
 10
12.5110972426
 20
2.5296213345
 11
12.5459752619
 21
2.5296213345
  0
ARC
  5
307
100
AcDbEntity
  8
0
100
AcDbCircle
 62
7
  6
CONTINUOUS
 10
12.5459747223
 20
2.5271458744
 40
0.0024754602
100
AcDbArc
 50
32.8959418573
 51
89.9875097202
  0
LINE
  5
308
100
AcDbEntity
  8
0
100
AcDbLine
 62
7
  6
CONTINUOUS
 10
12.9205934696
 20
2.5920323691
 11
13.0210515254
 21
2.5920323691
  0
ARC
  5
309
100
AcDbEntity
  8
0
100
AcDbCircle
 62
7
  6
CONTINUOUS
 10
13.0210516601
 20
2.5895582013
 40
0.0024741678
100
AcDbArc
 50
46.3477981899
 51
90.0031206038
  0
LINE
  5
30A
100
AcDbEntity
  8
0
100
AcDbLine
 62
7
  6
CONTINUOUS
 10
13.0227595263
 20
2.5913483688
 11
13.0827925596
 21
2.534068337
  0
ARC
  5
30B
100
AcDbEntity
  8
0
100
AcDbCircle
 62
7
  6
CONTINUOUS
 10
13.0845012605
 20
2.5358592748
 40
0.0024753014
100
AcDbArc
 50
226.3461263059
 51
0.0014637321
  0
LINE
  5
30C
100
AcDbEntity
  8
0
100
AcDbLine
 62
7
  6
CONTINUOUS
 10
13.0869765619
 20
2.535859338
 11
13.0869765619
 21
2.564807354
  0
ARC
  5
30D
100
AcDbEntity
  8
0
100
AcDbCircle
 62
7
  6
CONTINUOUS
 10
13.0845015624
 20
2.5648073559
 40
0.0024749995
100
AcDbArc
 50
359.9999571957
 51
90.0000428043
  0
LINE
  5
30E
100
AcDbEntity
  8
0
100
AcDbLine
 62
7
  6
CONTINUOUS
 10
13.0845015605
 20
2.5672823554
 11
13.0657255501
 21
2.5672823554
  0
ARC
  5
30F
100
AcDbEntity
  8
0
100
AcDbCircle
 62
7
  6
CONTINUOUS
 10
13.0657255483
 20
2.5697573549
 40
0.0024749995
100
AcDbArc
 50
179.9999571957
 51
270.0000428043
  0
LINE
  5
310
100
AcDbEntity
  8
0
100
AcDbLine
 62
7
  6
CONTINUOUS
 10
13.0632505488
 20
2.5697573568
 11
13.0632505488
 21
2.5895573678
  0
ARC
  5
311
100
AcDbEntity
  8
0
100
AcDbCircle
 62
7
  6
CONTINUOUS
 10
13.0657255483
 20
2.5895573696
 40
0.0024749995
100
AcDbArc
 50
89.9999571957
 51
180.0000428043
  0
LINE
  5
312
100
AcDbEntity
  8
0
100
AcDbLine
 62
7
  6
CONTINUOUS
 10
13.0657255501
 20
2.5920323691
 11
13.1397265912
 21
2.5920323691
  0
ARC
  5
313
100
AcDbEntity
  8
0
100
AcDbCircle
 62
7
  6
CONTINUOUS
 10
13.139726593
 20
2.5895573696
 40
0.0024749995
100
AcDbArc
 50
359.9999571957
 51
90.0000428043
  0
LINE
  5
314
100
AcDbEntity
  8
0
100
AcDbLine
 62
7
  6
CONTINUOUS
 10
13.1422015925
 20
2.5895573678
 11
13.1422015925
 21
2.5697573568
  0
ARC
  5
315
100
AcDbEntity
  8
0
100
AcDbCircle
 62
7
  6
CONTINUOUS
 10
13.139726593
 20
2.5697573549
 40
0.0024749995
100
AcDbArc
 50
269.9999571957
 51
0.0000428042
  0
LINE
  5
316
100
AcDbEntity
  8
0
100
AcDbLine
 62
7
  6
CONTINUOUS
 10
13.1397265912
 20
2.5672823554
 11
13.1217935812
 21
2.5672823554
  0
ARC
  5
317
100
AcDbEntity
  8
0
100
AcDbCircle
 62
7
  6
CONTINUOUS
 10
13.1217935794
 20
2.5648073559
 40
0.0024749995
100
AcDbArc
 50
89.9999571957
 51
180.0000428042
  0
LINE
  5
318
100
AcDbEntity
  8
0
100
AcDbLine
 62
7
  6
CONTINUOUS
 10
13.1193185799
 20
2.564807354
 11
13.1193185799
 21
2.4937023146
  0
ARC
  5
319
100
AcDbEntity
  8
0
100
AcDbCircle
 62
7
  6
CONTINUOUS
 10
13.1168435803
 20
2.4937023128
 40
0.0024749995
100
AcDbArc
 50
269.9999571957
 51
0.0000428043
  0
LINE
  5
31A
100
AcDbEntity
  8
0
100
AcDbLine
 62
7
  6
CONTINUOUS
 10
13.1168435785
 20
2.4912273132
 11
13.0426375373
 21
2.4912273132
  0
ARC
  5
31B
100
AcDbEntity
  8
0
100
AcDbCircle
 62
7
  6
CONTINUOUS
 10
13.0426374026
 20
2.493701481
 40
0.0024741678
100
AcDbArc
 50
226.3477981898
 51
270.0031206038
  0
LINE
  5
31C
100
AcDbEntity
  8
0
100
AcDbLine
 62
7
  6
CONTINUOUS
 10
13.0409295364
 20
2.4919113136
 11
12.9776495013
 21
2.5522893471
  0
ARC
  5
31D
100
AcDbEntity
  8
0
100
AcDbCircle
 62
7
  6
CONTINUOUS
 10
12.9759408003
 20
2.5504984093
 40
0.0024753014
100
AcDbArc
 50
46.3461263058
 51
180.0014637321
  0
LINE
  5
31E
100
AcDbEntity
  8
0
100
AcDbLine
 62
7
  6
CONTINUOUS
 10
12.973465499
 20
2.5504983461
 11
12.973465499
 21
2.5184523283
  0
ARC
  5
31F
100
AcDbEntity
  8
0
100
AcDbCircle
 62
7
  6
CONTINUOUS
 10
12.9759404985
 20
2.5184523265
 40
0.0024749995
100
AcDbArc
 50
179.9999571957
 51
270.0000428043
  0
LINE
  5
320
100
AcDbEntity
  8
0
100
AcDbLine
 62
7
  6
CONTINUOUS
 10
12.9759405003
 20
2.515977327
 11
12.9962575116
 21
2.515977327
  0
ARC
  5
321
100
AcDbEntity
  8
0
100
AcDbCircle
 62
7
  6
CONTINUOUS
 10
12.9962575135
 20
2.5135023274
 40
0.0024749995
100
AcDbArc
 50
359.9999571957
 51
90.0000428043
  0
LINE
  5
322
100
AcDbEntity
  8
0
100
AcDbLine
 62
7
  6
CONTINUOUS
 10
12.998732513
 20
2.5135023256
 11
12.998732513
 21
2.4937023146
  0
ARC
  5
323
100
AcDbEntity
  8
0
100
AcDbCircle
 62
7
  6
CONTINUOUS
 10
12.9962575135
 20
2.4937023128
 40
0.0024749995
100
AcDbArc
 50
269.9999571957
 51
0.0000428043
  0
LINE
  5
324
100
AcDbEntity
  8
0
100
AcDbLine
 62
7
  6
CONTINUOUS
 10
12.9962575116
 20
2.4912273132
 11
12.9205934696
 21
2.4912273132
  0
ARC
  5
325
100
AcDbEntity
  8
0
100
AcDbCircle
 62
7
  6
CONTINUOUS
 10
12.9205934678
 20
2.4937023128
 40
0.0024749995
100
AcDbArc
 50
179.9999571957
 51
270.0000428043
  0
LINE
  5
326
100
AcDbEntity
  8
0
100
AcDbLine
 62
7
  6
CONTINUOUS
 10
12.9181184683
 20
2.4937023146
 11
12.9181184683
 21
2.5135023256
  0
ARC
  5
327
100
AcDbEntity
  8
0
100
AcDbCircle
 62
7
  6
CONTINUOUS
 10
12.9205934678
 20
2.5135023274
 40
0.0024749995
100
AcDbArc
 50
89.9999571957
 51
180.0000428042
  0
LINE
  5
328
100
AcDbEntity
  8
0
100
AcDbLine
 62
7
  6
CONTINUOUS
 10
12.9205934696
 20
2.515977327
 11
12.93923948
 21
2.515977327
  0
ARC
  5
329
100
AcDbEntity
  8
0
100
AcDbCircle
 62
7
  6
CONTINUOUS
 10
12.9392394818
 20
2.5184523265
 40
0.0024749995
100
AcDbArc
 50
269.9999571957
 51
0.0000428043
  0
LINE
  5
32A
100
AcDbEntity
  8
0
100
AcDbLine
 62
7
  6
CONTINUOUS
 10
12.9417144814
 20
2.5184523283
 11
12.9417144814
 21
2.564807354
  0
ARC
  5
32B
100
AcDbEntity
  8
0
100
AcDbCircle
 62
7
  6
CONTINUOUS
 10
12.9392394818
 20
2.5648073559
 40
0.0024749995
100
AcDbArc
 50
359.9999571957
 51
90.0000428043
  0
LINE
  5
32C
100
AcDbEntity
  8
0
100
AcDbLine
 62
7
  6
CONTINUOUS
 10
12.93923948
 20
2.5672823554
 11
12.9205934696
 21
2.5672823554
  0
ARC
  5
32D
100
AcDbEntity
  8
0
100
AcDbCircle
 62
7
  6
CONTINUOUS
 10
12.9205934678
 20
2.5697573549
 40
0.0024749995
100
AcDbArc
 50
179.9999571957
 51
270.0000428043
  0
LINE
  5
32E
100
AcDbEntity
  8
0
100
AcDbLine
 62
7
  6
CONTINUOUS
 10
12.9181184683
 20
2.5697573568
 11
12.9181184683
 21
2.5895573678
  0
ARC
  5
32F
100
AcDbEntity
  8
0
100
AcDbCircle
 62
7
  6
CONTINUOUS
 10
12.9205934678
 20
2.5895573696
 40
0.0024749995
100
AcDbArc
 50
89.9999571957
 51
180.0000428042
  0
LINE
  5
330
100
AcDbEntity
  8
0
100
AcDbLine
 62
7
  6
CONTINUOUS
 10
13.2934226764
 20
2.5324773361
 11
13.2582556569
 21
2.5324773361
  0
ARC
  5
331
100
AcDbEntity
  8
0
100
AcDbCircle
 62
7
  6
CONTINUOUS
 10
13.2582556551
 20
2.5300023366
 40
0.0024749995
100
AcDbArc
 50
89.9999571957
 51
180.0000428043
  0
LINE
  5
332
100
AcDbEntity
  8
0
100
AcDbLine
 62
7
  6
CONTINUOUS
 10
13.2557806555
 20
2.5300023347
 11
13.2557806555
 21
2.5184523283
  0
ARC
  5
333
100
AcDbEntity
  8
0
100
AcDbCircle
 62
7
  6
CONTINUOUS
 10
13.2582556551
 20
2.5184523265
 40
0.0024749995
100
AcDbArc
 50
179.9999571957
 51
270.0000428043
  0
LINE
  5
334
100
AcDbEntity
  8
0
100
AcDbLine
 62
7
  6
CONTINUOUS
 10
13.2582556569
 20
2.515977327
 11
13.3232596929
 21
2.515977327
  0
ARC
  5
335
100
AcDbEntity
  8
0
100
AcDbCircle
 62
7
  6
CONTINUOUS
 10
13.3232596948
 20
2.5184523265
 40
0.0024749995
100
AcDbArc
 50
269.9999571957
 51
0.0000428043
  0
LINE
  5
336
100
AcDbEntity
  8
0
100
AcDbLine
 62
7
  6
CONTINUOUS
 10
13.3257346943
 20
2.5184523283
 11
13.3257346943
 21
2.5267023329
  0
ARC
  5
337
100
AcDbEntity
  8
0
100
AcDbCircle
 62
7
  6
CONTINUOUS
 10
13.3282096938
 20
2.5267023348
 40
0.0024749995
100
AcDbArc
 50
89.9999571957
 51
180.0000428043
  0
LINE
  5
338
100
AcDbEntity
  8
0
100
AcDbLine
 62
7
  6
CONTINUOUS
 10
13.3282096957
 20
2.5291773343
 11
13.3705287192
 21
2.5291773343
  0
ARC
  5
339
100
AcDbEntity
  8
0
100
AcDbCircle
 62
7
  6
CONTINUOUS
 10
13.370528721
 20
2.5267023348
 40
0.0024749995
100
AcDbArc
 50
359.9999571957
 51
90.0000428043
  0
LINE
  5
33A
100
AcDbEntity
  8
0
100
AcDbLine
 62
7
  6
CONTINUOUS
 10
13.3730037205
 20
2.5267023329
 11
13.3730037205
 21
2.4937023146
  0
ARC
  5
33B
100
AcDbEntity
  8
0
100
AcDbCircle
 62
7
  6
CONTINUOUS
 10
13.370528721
 20
2.4937023128
 40
0.0024749995
100
AcDbArc
 50
269.9999571957
 51
0.0000428043
  0
LINE
  5
33C
100
AcDbEntity
  8
0
100
AcDbLine
 62
7
  6
CONTINUOUS
 10
13.3705287192
 20
2.4912273132
 11
13.1673166065
 21
2.4912273132
  0
ARC
  5
33D
100
AcDbEntity
  8
0
100
AcDbCircle
 62
7
  6
CONTINUOUS
 10
13.1673166046
 20
2.4937023128
 40
0.0024749995
100
AcDbArc
 50
179.9999571957
 51
270.0000428043
  0
LINE
  5
33E
100
AcDbEntity
  8
0
100
AcDbLine
 62
7
  6
CONTINUOUS
 10
13.1648416051
 20
2.4937023146
 11
13.1648416051
 21
2.5135023256
  0
ARC
  5
33F
100
AcDbEntity
  8
0
100
AcDbCircle
 62
7
  6
CONTINUOUS
 10
13.1673166046
 20
2.5135023274
 40
0.0024749995
100
AcDbArc
 50
89.9999571957
 51
180.0000428043
  0
LINE
  5
340
100
AcDbEntity
  8
0
100
AcDbLine
 62
7
  6
CONTINUOUS
 10
13.1673166065
 20
2.515977327
 11
13.1912396197
 21
2.515977327
  0
ARC
  5
341
100
AcDbEntity
  8
0
100
AcDbCircle
 62
7
  6
CONTINUOUS
 10
13.1912396216
 20
2.5184523265
 40
0.0024749995
100
AcDbArc
 50
269.9999571957
 51
0.0000428042
  0
LINE
  5
342
100
AcDbEntity
  8
0
100
AcDbLine
 62
7
  6
CONTINUOUS
 10
13.1937146211
 20
2.5184523283
 11
13.1937146211
 21
2.564807354
  0
ARC
  5
343
100
AcDbEntity
  8
0
100
AcDbCircle
 62
7
  6
CONTINUOUS
 10
13.1912396216
 20
2.5648073559
 40
0.0024749995
100
AcDbArc
 50
359.9999571957
 51
90.0000428043
  0
LINE
  5
344
100
AcDbEntity
  8
0
100
AcDbLine
 62
7
  6
CONTINUOUS
 10
13.1912396197
 20
2.5672823554
 11
13.1673166065
 21
2.5672823554
  0
ARC
  5
345
100
AcDbEntity
  8
0
100
AcDbCircle
 62
7
  6
CONTINUOUS
 10
13.1673166046
 20
2.5697573549
 40
0.0024749995
100
AcDbArc
 50
179.9999571957
 51
270.0000428043
  0
LINE
  5
346
100
AcDbEntity
  8
0
100
AcDbLine
 62
7
  6
CONTINUOUS
 10
13.1648416051
 20
2.5697573568
 11
13.1648416051
 21
2.5895573678
  0
ARC
  5
347
100
AcDbEntity
  8
0
100
AcDbCircle
 62
7
  6
CONTINUOUS
 10
13.1673166046
 20
2.5895573696
 40
0.0024749995
100
AcDbArc
 50
89.9999571957
 51
180.0000428043
  0
LINE
  5
348
100
AcDbEntity
  8
0
100
AcDbLine
 62
7
  6
CONTINUOUS
 10
13.1673166065
 20
2.5920323691
 11
13.3691097184
 21
2.5920323691
  0
ARC
  5
349
100
AcDbEntity
  8
0
100
AcDbCircle
 62
7
  6
CONTINUOUS
 10
13.3691097202
 20
2.5895573696
 40
0.0024749995
100
AcDbArc
 50
359.9999571957
 51
90.0000428043
  0
LINE
  5
34A
100
AcDbEntity
  8
0
100
AcDbLine
 62
7
  6
CONTINUOUS
 10
13.3715847197
 20
2.5895573678
 11
13.3715847197
 21
2.5565573495
  0
ARC
  5
34B
100
AcDbEntity
  8
0
100
AcDbCircle
 62
7
  6
CONTINUOUS
 10
13.3691097202
 20
2.5565573476
 40
0.0024749995
100
AcDbArc
 50
269.9999571957
 51
0.0000428042
  0
LINE
  5
34C
100
AcDbEntity
  8
0
100
AcDbLine
 62
7
  6
CONTINUOUS
 10
13.3691097184
 20
2.5540823481
 11
13.3272456952
 21
2.5540823481
  0
ARC
  5
34D
100
AcDbEntity
  8
0
100
AcDbCircle
 62
7
  6
CONTINUOUS
 10
13.3272456933
 20
2.5565573476
 40
0.0024749995
100
AcDbArc
 50
179.9999571957
 51
270.0000428043
  0
LINE
  5
34E
100
AcDbEntity
  8
0
100
AcDbLine
 62
7
  6
CONTINUOUS
 10
13.3247706938
 20
2.5565573495
 11
13.3247706938
 21
2.564807354
  0
ARC
  5
34F
100
AcDbEntity
  8
0
100
AcDbCircle
 62
7
  6
CONTINUOUS
 10
13.3222956943
 20
2.5648073559
 40
0.0024749995
100
AcDbArc
 50
359.9999571957
 51
90.0000428043
  0
LINE
  5
350
100
AcDbEntity
  8
0
100
AcDbLine
 62
7
  6
CONTINUOUS
 10
13.3222956924
 20
2.5672823554
 11
13.2582556569
 21
2.5672823554
  0
ARC
  5
351
100
AcDbEntity
  8
0
100
AcDbCircle
 62
7
  6
CONTINUOUS
 10
13.2582556551
 20
2.5648073559
 40
0.0024749995
100
AcDbArc
 50
89.9999571957
 51
180.0000428043
  0
LINE
  5
352
100
AcDbEntity
  8
0
100
AcDbLine
 62
7
  6
CONTINUOUS
 10
13.2557806555
 20
2.564807354
 11
13.2557806555
 21
2.5532573476
  0
ARC
  5
353
100
AcDbEntity
  8
0
100
AcDbCircle
 62
7
  6
CONTINUOUS
 10
13.2582556551
 20
2.5532573458
 40
0.0024749995
100
AcDbArc
 50
179.9999571957
 51
270.0000428043
  0
LINE
  5
354
100
AcDbEntity
  8
0
100
AcDbLine
 62
7
  6
CONTINUOUS
 10
13.2582556569
 20
2.5507823463
 11
13.2934226764
 21
2.5507823463
  0
ARC
  5
355
100
AcDbEntity
  8
0
100
AcDbCircle
 62
7
  6
CONTINUOUS
 10
13.2934226783
 20
2.5483073467
 40
0.0024749995
100
AcDbArc
 50
359.9999571957
 51
90.0000428043
  0
LINE
  5
356
100
AcDbEntity
  8
0
100
AcDbLine
 62
7
  6
CONTINUOUS
 10
13.2958976778
 20
2.5483073449
 11
13.2958976778
 21
2.5349523375
  0
ARC
  5
357
100
AcDbEntity
  8
0
100
AcDbCircle
 62
7
  6
CONTINUOUS
 10
13.2934226783
 20
2.5349523356
 40
0.0024749995
100
AcDbArc
 50
269.9999571957
 51
0.0000428042
  0
LINE
  5
358
100
AcDbEntity
  8
0
100
AcDbLine
 62
7
  6
CONTINUOUS
 10
13.7286871589
 20
2.5350697372
 11
13.7286871589
 21
2.5456869438
  0
LINE
  5
359
100
AcDbEntity
  8
0
100
AcDbLine
 62
7
  6
CONTINUOUS
 10
13.7086871478
 20
2.5004302075
 11
13.7086871478
 21
2.5803264735
  0
LINE
  5
35A
100
AcDbEntity
  8
0
100
AcDbLine
 62
7
  6
CONTINUOUS
 10
13.6886871368
 20
2.4843919416
 11
13.6886871368
 21
2.5963647394
  0
LINE
  5
35B
100
AcDbEntity
  8
0
100
AcDbLine
 62
7
  6
CONTINUOUS
 10
13.6686871257
 20
2.4726017898
 11
13.6686871257
 21
2.6081548911
  0
LINE
  5
35C
100
AcDbEntity
  8
0
100
AcDbLine
 62
7
  6
CONTINUOUS
 10
13.6486871146
 20
2.4628062688
 11
13.6486871146
 21
2.6179504122
  0
LINE
  5
35D
100
AcDbEntity
  8
0
100
AcDbLine
 62
7
  6
CONTINUOUS
 10
13.6286871035
 20
2.4541253507
 11
13.6286871035
 21
2.5062483056
  0
LINE
  5
35E
100
AcDbEntity
  8
0
100
AcDbLine
 62
7
  6
CONTINUOUS
 10
13.6286871035
 20
2.5301143348
 11
13.6286871035
 21
2.6266313303
  0
LINE
  5
35F
100
AcDbEntity
  8
0
100
AcDbLine
 62
7
  6
CONTINUOUS
 10
13.6086870924
 20
2.4465537903
 11
13.6086870924
 21
2.4918774918
  0
LINE
  5
360
100
AcDbEntity
  8
0
100
AcDbLine
 62
7
  6
CONTINUOUS
 10
13.6086870924
 20
2.5165781173
 11
13.6086870924
 21
2.6342028907
  0
LINE
  5
361
100
AcDbEntity
  8
0
100
AcDbLine
 62
7
  6
CONTINUOUS
 10
13.5886870813
 20
2.4398033466
 11
13.5886870813
 21
2.4912273132
  0
LINE
  5
362
100
AcDbEntity
  8
0
100
AcDbLine
 62
7
  6
CONTINUOUS
 10
13.5886870813
 20
2.5391840845
 11
13.5886870813
 21
2.5454298327
  0
LINE
  5
363
100
AcDbEntity
  8
0
100
AcDbLine
 62
7
  6
CONTINUOUS
 10
13.5886870813
 20
2.5862063472
 11
13.5886870813
 21
2.6409533343
  0
LINE
  5
364
100
AcDbEntity
  8
0
100
AcDbLine
 62
7
  6
CONTINUOUS
 10
13.5686870702
 20
2.4334702189
 11
13.5686870702
 21
2.4912273132
  0
LINE
  5
365
100
AcDbEntity
  8
0
100
AcDbLine
 62
7
  6
CONTINUOUS
 10
13.5686870702
 20
2.5906587765
 11
13.5686870702
 21
2.647286462
  0
LINE
  5
366
100
AcDbEntity
  8
0
100
AcDbLine
 62
7
  6
CONTINUOUS
 10
13.5486870591
 20
2.4278968124
 11
13.5486870591
 21
2.4937461006
  0
LINE
  5
367
100
AcDbEntity
  8
0
100
AcDbLine
 62
7
  6
CONTINUOUS
 10
13.5486870591
 20
2.5920323691
 11
13.5486870591
 21
2.6528598686
  0
LINE
  5
368
100
AcDbEntity
  8
0
100
AcDbLine
 62
7
  6
CONTINUOUS
 10
13.528687048
 20
2.4225427674
 11
13.528687048
 21
2.5270426993
  0
LINE
  5
369
100
AcDbEntity
  8
0
100
AcDbLine
 62
7
  6
CONTINUOUS
 10
13.528687048
 20
2.5505166259
 11
13.528687048
 21
2.5668657091
  0
LINE
  5
36A
100
AcDbEntity
  8
0
100
AcDbLine
 62
7
  6
CONTINUOUS
 10
13.528687048
 20
2.5920323691
 11
13.528687048
 21
2.6582139136
  0
LINE
  5
36B
100
AcDbEntity
  8
0
100
AcDbLine
 62
7
  6
CONTINUOUS
 10
13.5086870369
 20
2.4177306791
 11
13.5086870369
 21
2.4912273132
  0
LINE
  5
36C
100
AcDbEntity
  8
0
100
AcDbLine
 62
7
  6
CONTINUOUS
 10
13.5086870369
 20
2.5159553269
 11
13.5086870369
 21
2.5306043351
  0
LINE
  5
36D
100
AcDbEntity
  8
0
100
AcDbLine
 62
7
  6
CONTINUOUS
 10
13.5086870369
 20
2.5496073456
 11
13.5086870369
 21
2.5672823554
  0
LINE
  5
36E
100
AcDbEntity
  8
0
100
AcDbLine
 62
7
  6
CONTINUOUS
 10
13.5086870369
 20
2.5920323691
 11
13.5086870369
 21
2.6630260019
  0
LINE
  5
36F
100
AcDbEntity
  8
0
100
AcDbLine
 62
7
  6
CONTINUOUS
 10
13.4886870258
 20
2.4131795254
 11
13.4886870258
 21
2.4912273132
  0
LINE
  5
370
100
AcDbEntity
  8
0
100
AcDbLine
 62
7
  6
CONTINUOUS
 10
13.4886870258
 20
2.5159553269
 11
13.4886870258
 21
2.5306043351
  0
LINE
  5
371
100
AcDbEntity
  8
0
100
AcDbLine
 62
7
  6
CONTINUOUS
 10
13.4886870258
 20
2.5496073456
 11
13.4886870258
 21
2.5672823554
  0
LINE
  5
372
100
AcDbEntity
  8
0
100
AcDbLine
 62
7
  6
CONTINUOUS
 10
13.4886870258
 20
2.5920323691
 11
13.4886870258
 21
2.6675771555
  0
LINE
  5
373
100
AcDbEntity
  8
0
100
AcDbLine
 62
7
  6
CONTINUOUS
 10
13.4686870147
 20
2.4088819672
 11
13.4686870147
 21
2.4912273132
  0
LINE
  5
374
100
AcDbEntity
  8
0
100
AcDbLine
 62
7
  6
CONTINUOUS
 10
13.4686870147
 20
2.5920323691
 11
13.4686870147
 21
2.6718747138
  0
LINE
  5
375
100
AcDbEntity
  8
0
100
AcDbLine
 62
7
  6
CONTINUOUS
 10
13.4486870037
 20
2.4050092072
 11
13.4486870037
 21
2.4912273132
  0
LINE
  5
376
100
AcDbEntity
  8
0
100
AcDbLine
 62
7
  6
CONTINUOUS
 10
13.4486870037
 20
2.5920323691
 11
13.4486870037
 21
2.6757474738
  0
LINE
  5
377
100
AcDbEntity
  8
0
100
AcDbLine
 62
7
  6
CONTINUOUS
 10
13.4286869926
 20
2.4011364471
 11
13.4286869926
 21
2.4912273132
  0
LINE
  5
378
100
AcDbEntity
  8
0
100
AcDbLine
 62
7
  6
CONTINUOUS
 10
13.4286869926
 20
2.5920323691
 11
13.4286869926
 21
2.6796202339
  0
LINE
  5
379
100
AcDbEntity
  8
0
100
AcDbLine
 62
7
  6
CONTINUOUS
 10
13.4086869815
 20
2.3980226662
 11
13.4086869815
 21
2.4912273132
  0
LINE
  5
37A
100
AcDbEntity
  8
0
100
AcDbLine
 62
7
  6
CONTINUOUS
 10
13.4086869815
 20
2.515977327
 11
13.4086869815
 21
2.5672823554
  0
LINE
  5
37B
100
AcDbEntity
  8
0
100
AcDbLine
 62
7
  6
CONTINUOUS
 10
13.4086869815
 20
2.5920323691
 11
13.4086869815
 21
2.6827340148
  0
LINE
  5
37C
100
AcDbEntity
  8
0
100
AcDbLine
 62
7
  6
CONTINUOUS
 10
13.3886869704
 20
2.3950052774
 11
13.3886869704
 21
2.6857514036
  0
LINE
  5
37D
100
AcDbEntity
  8
0
100
AcDbLine
 62
7
  6
CONTINUOUS
 10
13.3686869593
 20
2.3919878885
 11
13.3686869593
 21
2.4912273132
  0
LINE
  5
37E
100
AcDbEntity
  8
0
100
AcDbLine
 62
7
  6
CONTINUOUS
 10
13.3686869593
 20
2.5291773343
 11
13.3686869593
 21
2.5540823481
  0
LINE
  5
37F
100
AcDbEntity
  8
0
100
AcDbLine
 62
7
  6
CONTINUOUS
 10
13.3686869593
 20
2.5920323691
 11
13.3686869593
 21
2.6887687924
  0
LINE
  5
380
100
AcDbEntity
  8
0
100
AcDbLine
 62
7
  6
CONTINUOUS
 10
13.3486869482
 20
2.3889704997
 11
13.3486869482
 21
2.4912273132
  0
LINE
  5
381
100
AcDbEntity
  8
0
100
AcDbLine
 62
7
  6
CONTINUOUS
 10
13.3486869482
 20
2.5291773343
 11
13.3486869482
 21
2.5540823481
  0
LINE
  5
382
100
AcDbEntity
  8
0
100
AcDbLine
 62
7
  6
CONTINUOUS
 10
13.3486869482
 20
2.5920323691
 11
13.3486869482
 21
2.6917861813
  0
LINE
  5
383
100
AcDbEntity
  8
0
100
AcDbLine
 62
7
  6
CONTINUOUS
 10
13.3286869371
 20
2.3859531109
 11
13.3286869371
 21
2.4912273132
  0
LINE
  5
384
100
AcDbEntity
  8
0
100
AcDbLine
 62
7
  6
CONTINUOUS
 10
13.3286869371
 20
2.5291773343
 11
13.3286869371
 21
2.5540823481
  0
LINE
  5
385
100
AcDbEntity
  8
0
100
AcDbLine
 62
7
  6
CONTINUOUS
 10
13.3286869371
 20
2.5920323691
 11
13.3286869371
 21
2.6948035701
  0
LINE
  5
386
100
AcDbEntity
  8
0
100
AcDbLine
 62
7
  6
CONTINUOUS
 10
13.308686926
 20
2.3833355437
 11
13.308686926
 21
2.4912273132
  0
LINE
  5
387
100
AcDbEntity
  8
0
100
AcDbLine
 62
7
  6
CONTINUOUS
 10
13.308686926
 20
2.515977327
 11
13.308686926
 21
2.5672823554
  0
LINE
  5
388
100
AcDbEntity
  8
0
100
AcDbLine
 62
7
  6
CONTINUOUS
 10
13.308686926
 20
2.5920323691
 11
13.308686926
 21
2.6974211373
  0
LINE
  5
389
100
AcDbEntity
  8
0
100
AcDbLine
 62
7
  6
CONTINUOUS
 10
13.2886869149
 20
2.3812612684
 11
13.2886869149
 21
2.4912273132
  0
LINE
  5
38A
100
AcDbEntity
  8
0
100
AcDbLine
 62
7
  6
CONTINUOUS
 10
13.2886869149
 20
2.515977327
 11
13.2886869149
 21
2.5324773361
  0
LINE
  5
38B
100
AcDbEntity
  8
0
100
AcDbLine
 62
7
  6
CONTINUOUS
 10
13.2886869149
 20
2.5507823463
 11
13.2886869149
 21
2.5672823554
  0
LINE
  5
38C
100
AcDbEntity
  8
0
100
AcDbLine
 62
7
  6
CONTINUOUS
 10
13.2886869149
 20
2.5920323691
 11
13.2886869149
 21
2.6994954125
  0
LINE
  5
38D
100
AcDbEntity
  8
0
100
AcDbLine
 62
7
  6
CONTINUOUS
 10
13.2686869038
 20
2.3791869932
 11
13.2686869038
 21
2.4912273132
  0
LINE
  5
38E
100
AcDbEntity
  8
0
100
AcDbLine
 62
7
  6
CONTINUOUS
 10
13.2686869038
 20
2.515977327
 11
13.2686869038
 21
2.5324773361
  0
LINE
  5
38F
100
AcDbEntity
  8
0
100
AcDbLine
 62
7
  6
CONTINUOUS
 10
13.2686869038
 20
2.5507823463
 11
13.2686869038
 21
2.5672823554
  0
LINE
  5
390
100
AcDbEntity
  8
0
100
AcDbLine
 62
7
  6
CONTINUOUS
 10
13.2686869038
 20
2.5920323691
 11
13.2686869038
 21
2.7015696878
  0
LINE
  5
391
100
AcDbEntity
  8
0
100
AcDbLine
 62
7
  6
CONTINUOUS
 10
13.2486868927
 20
2.377112718
 11
13.2486868927
 21
2.4912273132
  0
LINE
  5
392
100
AcDbEntity
  8
0
100
AcDbLine
 62
7
  6
CONTINUOUS
 10
13.2486868927
 20
2.5920323691
 11
13.2486868927
 21
2.703643963
  0
LINE
  5
393
100
AcDbEntity
  8
0
100
AcDbLine
 62
7
  6
CONTINUOUS
 10
13.2286868817
 20
2.3750384428
 11
13.2286868817
 21
2.4912273132
  0
LINE
  5
394
100
AcDbEntity
  8
0
100
AcDbLine
 62
7
  6
CONTINUOUS
 10
13.2286868817
 20
2.5920323691
 11
13.2286868817
 21
2.7057182382
  0
LINE
  5
395
100
AcDbEntity
  8
0
100
AcDbLine
 62
7
  6
CONTINUOUS
 10
13.2086868706
 20
2.3729641676
 11
13.2086868706
 21
2.4912273132
  0
LINE
  5
396
100
AcDbEntity
  8
0
100
AcDbLine
 62
7
  6
CONTINUOUS
 10
13.2086868706
 20
2.5920323691
 11
13.2086868706
 21
2.7077925134
  0
LINE
  5
397
100
AcDbEntity
  8
0
100
AcDbLine
 62
7
  6
CONTINUOUS
 10
13.1886868595
 20
2.3712344456
 11
13.1886868595
 21
2.4912273132
  0
LINE
  5
398
100
AcDbEntity
  8
0
100
AcDbLine
 62
7
  6
CONTINUOUS
 10
13.1886868595
 20
2.515977327
 11
13.1886868595
 21
2.5672823554
  0
LINE
  5
399
100
AcDbEntity
  8
0
100
AcDbLine
 62
7
  6
CONTINUOUS
 10
13.1886868595
 20
2.5920323691
 11
13.1886868595
 21
2.7095222354
  0
LINE
  5
39A
100
AcDbEntity
  8
0
100
AcDbLine
 62
7
  6
CONTINUOUS
 10
13.1686868484
 20
2.3699682418
 11
13.1686868484
 21
2.4912273132
  0
LINE
  5
39B
100
AcDbEntity
  8
0
100
AcDbLine
 62
7
  6
CONTINUOUS
 10
13.1686868484
 20
2.515977327
 11
13.1686868484
 21
2.5672823554
  0
LINE
  5
39C
100
AcDbEntity
  8
0
100
AcDbLine
 62
7
  6
CONTINUOUS
 10
13.1686868484
 20
2.5920323691
 11
13.1686868484
 21
2.7107884392
  0
LINE
  5
39D
100
AcDbEntity
  8
0
100
AcDbLine
 62
7
  6
CONTINUOUS
 10
13.1486868373
 20
2.3687020381
 11
13.1486868373
 21
2.7120546429
  0
LINE
  5
39E
100
AcDbEntity
  8
0
100
AcDbLine
 62
7
  6
CONTINUOUS
 10
13.1286868262
 20
2.3674358343
 11
13.1286868262
 21
2.5672823554
  0
LINE
  5
39F
100
AcDbEntity
  8
0
100
AcDbLine
 62
7
  6
CONTINUOUS
 10
13.1286868262
 20
2.5920323691
 11
13.1286868262
 21
2.7133208466
  0
LINE
  5
3A0
100
AcDbEntity
  8
0
100
AcDbLine
 62
7
  6
CONTINUOUS
 10
13.1086868151
 20
2.3661696306
 11
13.1086868151
 21
2.4912273132
  0
LINE
  5
3A1
100
AcDbEntity
  8
0
100
AcDbLine
 62
7
  6
CONTINUOUS
 10
13.1086868151
 20
2.5920323691
 11
13.1086868151
 21
2.7145870504
  0
LINE
  5
3A2
100
AcDbEntity
  8
0
100
AcDbLine
 62
7
  6
CONTINUOUS
 10
13.088686804
 20
2.3649034269
 11
13.088686804
 21
2.4912273132
  0
LINE
  5
3A3
100
AcDbEntity
  8
0
100
AcDbLine
 62
7
  6
CONTINUOUS
 10
13.088686804
 20
2.5920323691
 11
13.088686804
 21
2.7158532541
  0
LINE
  5
3A4
100
AcDbEntity
  8
0
100
AcDbLine
 62
7
  6
CONTINUOUS
 10
13.0686867929
 20
2.3636739922
 11
13.0686867929
 21
2.4912273132
  0
LINE
  5
3A5
100
AcDbEntity
  8
0
100
AcDbLine
 62
7
  6
CONTINUOUS
 10
13.0686867929
 20
2.5475272398
 11
13.0686867929
 21
2.5672823554
  0
LINE
  5
3A6
100
AcDbEntity
  8
0
100
AcDbLine
 62
7
  6
CONTINUOUS
 10
13.0686867929
 20
2.5920323691
 11
13.0686867929
 21
2.7170826887
  0
LINE
  5
3A7
100
AcDbEntity
  8
0
100
AcDbLine
 62
7
  6
CONTINUOUS
 10
13.0486867818
 20
2.363143203
 11
13.0486867818
 21
2.4912273132
  0
LINE
  5
3A8
100
AcDbEntity
  8
0
100
AcDbLine
 62
7
  6
CONTINUOUS
 10
13.0486867818
 20
2.5666100882
 11
13.0486867818
 21
2.717613478
  0
LINE
  5
3A9
100
AcDbEntity
  8
0
100
AcDbLine
 62
7
  6
CONTINUOUS
 10
13.0286867707
 20
2.3626124138
 11
13.0286867707
 21
2.50359263
  0
LINE
  5
3AA
100
AcDbEntity
  8
0
100
AcDbLine
 62
7
  6
CONTINUOUS
 10
13.0286867707
 20
2.5856929366
 11
13.0286867707
 21
2.7181442672
  0
LINE
  5
3AB
100
AcDbEntity
  8
0
100
AcDbLine
 62
7
  6
CONTINUOUS
 10
13.0086867596
 20
2.3620816246
 11
13.0086867596
 21
2.5226754472
  0
LINE
  5
3AC
100
AcDbEntity
  8
0
100
AcDbLine
 62
7
  6
CONTINUOUS
 10
13.0086867596
 20
2.5920323691
 11
13.0086867596
 21
2.7186750564
  0
LINE
  5
3AD
100
AcDbEntity
  8
0
100
AcDbLine
 62
7
  6
CONTINUOUS
 10
12.9886867486
 20
2.3615508354
 11
12.9886867486
 21
2.4912273132
  0
LINE
  5
3AE
100
AcDbEntity
  8
0
100
AcDbLine
 62
7
  6
CONTINUOUS
 10
12.9886867486
 20
2.515977327
 11
12.9886867486
 21
2.5417582644
  0
LINE
  5
3AF
100
AcDbEntity
  8
0
100
AcDbLine
 62
7
  6
CONTINUOUS
 10
12.9886867486
 20
2.5920323691
 11
12.9886867486
 21
2.7192058456
  0
LINE
  5
3B0
100
AcDbEntity
  8
0
100
AcDbLine
 62
7
  6
CONTINUOUS
 10
12.9686867375
 20
2.3610200462
 11
12.9686867375
 21
2.4912273132
  0
LINE
  5
3B1
100
AcDbEntity
  8
0
100
AcDbLine
 62
7
  6
CONTINUOUS
 10
12.9686867375
 20
2.5920323691
 11
12.9686867375
 21
2.7197366348
  0
LINE
  5
3B2
100
AcDbEntity
  8
0
100
AcDbLine
 62
7
  6
CONTINUOUS
 10
12.9486867264
 20
2.360489257
 11
12.9486867264
 21
2.4912273132
  0
LINE
  5
3B3
100
AcDbEntity
  8
0
100
AcDbLine
 62
7
  6
CONTINUOUS
 10
12.9486867264
 20
2.5920323691
 11
12.9486867264
 21
2.720267424
  0
LINE
  5
3B4
100
AcDbEntity
  8
0
100
AcDbLine
 62
7
  6
CONTINUOUS
 10
12.9286867153
 20
2.3602836008
 11
12.9286867153
 21
2.4912273132
  0
LINE
  5
3B5
100
AcDbEntity
  8
0
100
AcDbLine
 62
7
  6
CONTINUOUS
 10
12.9286867153
 20
2.515977327
 11
12.9286867153
 21
2.5672823554
  0
LINE
  5
3B6
100
AcDbEntity
  8
0
100
AcDbLine
 62
7
  6
CONTINUOUS
 10
12.9286867153
 20
2.5920323691
 11
12.9286867153
 21
2.7204730802
  0
LINE
  5
3B7
100
AcDbEntity
  8
0
100
AcDbLine
 62
7
  6
CONTINUOUS
 10
12.9086867042
 20
2.3604597639
 11
12.9086867042
 21
2.7202969171
  0
LINE
  5
3B8
100
AcDbEntity
  8
0
100
AcDbLine
 62
7
  6
CONTINUOUS
 10
12.8886866931
 20
2.360635927
 11
12.8886866931
 21
2.5672823554
  0
LINE
  5
3B9
100
AcDbEntity
  8
0
100
AcDbLine
 62
7
  6
CONTINUOUS
 10
12.8886866931
 20
2.5920323691
 11
12.8886866931
 21
2.720120754
  0
LINE
  5
3BA
100
AcDbEntity
  8
0
100
AcDbLine
 62
7
  6
CONTINUOUS
 10
12.868686682
 20
2.3608120901
 11
12.868686682
 21
2.491232357
  0
LINE
  5
3BB
100
AcDbEntity
  8
0
100
AcDbLine
 62
7
  6
CONTINUOUS
 10
12.868686682
 20
2.5920323691
 11
12.868686682
 21
2.7199445909
  0
LINE
  5
3BC
100
AcDbEntity
  8
0
100
AcDbLine
 62
7
  6
CONTINUOUS
 10
12.8486866709
 20
2.3609882532
 11
12.8486866709
 21
2.4912273132
  0
LINE
  5
3BD
100
AcDbEntity
  8
0
100
AcDbLine
 62
7
  6
CONTINUOUS
 10
12.8486866709
 20
2.5920323691
 11
12.8486866709
 21
2.7197684278
  0
LINE
  5
3BE
100
AcDbEntity
  8
0
100
AcDbLine
 62
7
  6
CONTINUOUS
 10
12.8286866598
 20
2.3611644163
 11
12.8286866598
 21
2.4912273132
  0
LINE
  5
3BF
100
AcDbEntity
  8
0
100
AcDbLine
 62
7
  6
CONTINUOUS
 10
12.8286866598
 20
2.5396527025
 11
12.8286866598
 21
2.5672823554
  0
LINE
  5
3C0
100
AcDbEntity
  8
0
100
AcDbLine
 62
7
  6
CONTINUOUS
 10
12.8286866598
 20
2.5920323691
 11
12.8286866598
 21
2.7195922647
  0
LINE
  5
3C1
100
AcDbEntity
  8
0
100
AcDbLine
 62
7
  6
CONTINUOUS
 10
12.8086866487
 20
2.3613405794
 11
12.8086866487
 21
2.4912273132
  0
LINE
  5
3C2
100
AcDbEntity
  8
0
100
AcDbLine
 62
7
  6
CONTINUOUS
 10
12.8086866487
 20
2.5587355508
 11
12.8086866487
 21
2.7194161016
  0
LINE
  5
3C3
100
AcDbEntity
  8
0
100
AcDbLine
 62
7
  6
CONTINUOUS
 10
12.7886866376
 20
2.3621089572
 11
12.7886866376
 21
2.4957181055
  0
LINE
  5
3C4
100
AcDbEntity
  8
0
100
AcDbLine
 62
7
  6
CONTINUOUS
 10
12.7886866376
 20
2.5778183992
 11
12.7886866376
 21
2.7186477238
  0
LINE
  5
3C5
100
AcDbEntity
  8
0
100
AcDbLine
 62
7
  6
CONTINUOUS
 10
12.7686866266
 20
2.3630013935
 11
12.7686866266
 21
2.5148009227
  0
LINE
  5
3C6
100
AcDbEntity
  8
0
100
AcDbLine
 62
7
  6
CONTINUOUS
 10
12.7686866266
 20
2.5920323691
 11
12.7686866266
 21
2.7177552874
  0
LINE
  5
3C7
100
AcDbEntity
  8
0
100
AcDbLine
 62
7
  6
CONTINUOUS
 10
12.7486866155
 20
2.3638938299
 11
12.7486866155
 21
2.4913263218
  0
LINE
  5
3C8
100
AcDbEntity
  8
0
100
AcDbLine
 62
7
  6
CONTINUOUS
 10
12.7486866155
 20
2.5158783184
 11
12.7486866155
 21
2.5338837399
  0
LINE
  5
3C9
100
AcDbEntity
  8
0
100
AcDbLine
 62
7
  6
CONTINUOUS
 10
12.7486866155
 20
2.5920323691
 11
12.7486866155
 21
2.7168628511
  0
LINE
  5
3CA
100
AcDbEntity
  8
0
100
AcDbLine
 62
7
  6
CONTINUOUS
 10
12.7286866044
 20
2.3647862663
 11
12.7286866044
 21
2.4912273132
  0
LINE
  5
3CB
100
AcDbEntity
  8
0
100
AcDbLine
 62
7
  6
CONTINUOUS
 10
12.7286866044
 20
2.515977327
 11
12.7286866044
 21
2.5527601554
  0
LINE
  5
3CC
100
AcDbEntity
  8
0
100
AcDbLine
 62
7
  6
CONTINUOUS
 10
12.7286866044
 20
2.5920323691
 11
12.7286866044
 21
2.7159704147
  0
LINE
  5
3CD
100
AcDbEntity
  8
0
100
AcDbLine
 62
7
  6
CONTINUOUS
 10
12.7086865933
 20
2.3656787026
 11
12.7086865933
 21
2.4912273132
  0
LINE
  5
3CE
100
AcDbEntity
  8
0
100
AcDbLine
 62
7
  6
CONTINUOUS
 10
12.7086865933
 20
2.5920323691
 11
12.7086865933
 21
2.7150779784
  0
LINE
  5
3CF
100
AcDbEntity
  8
0
100
AcDbLine
 62
7
  6
CONTINUOUS
 10
12.6886865822
 20
2.366571139
 11
12.6886865822
 21
2.4912273132
  0
LINE
  5
3D0
100
AcDbEntity
  8
0
100
AcDbLine
 62
7
  6
CONTINUOUS
 10
12.6886865822
 20
2.515977327
 11
12.6886865822
 21
2.5672823554
  0
LINE
  5
3D1
100
AcDbEntity
  8
0
100
AcDbLine
 62
7
  6
CONTINUOUS
 10
12.6886865822
 20
2.5920323691
 11
12.6886865822
 21
2.714185542
  0
LINE
  5
3D2
100
AcDbEntity
  8
0
100
AcDbLine
 62
7
  6
CONTINUOUS
 10
12.6686865711
 20
2.3677104027
 11
12.6686865711
 21
2.7130462783
  0
LINE
  5
3D3
100
AcDbEntity
  8
0
100
AcDbLine
 62
7
  6
CONTINUOUS
 10
12.64868656
 20
2.3693682721
 11
12.64868656
 21
2.7113884089
  0
LINE
  5
3D4
100
AcDbEntity
  8
0
100
AcDbLine
 62
7
  6
CONTINUOUS
 10
12.6286865489
 20
2.3710261415
 11
12.6286865489
 21
2.4912273132
  0
LINE
  5
3D5
100
AcDbEntity
  8
0
100
AcDbLine
 62
7
  6
CONTINUOUS
 10
12.6286865489
 20
2.515977327
 11
12.6286865489
 21
2.7097305395
  0
LINE
  5
3D6
100
AcDbEntity
  8
0
100
AcDbLine
 62
7
  6
CONTINUOUS
 10
12.6086865378
 20
2.372684011
 11
12.6086865378
 21
2.4912273132
  0
LINE
  5
3D7
100
AcDbEntity
  8
0
100
AcDbLine
 62
7
  6
CONTINUOUS
 10
12.6086865378
 20
2.5351122279
 11
12.6086865378
 21
2.70807267
  0
LINE
  5
3D8
100
AcDbEntity
  8
0
100
AcDbLine
 62
7
  6
CONTINUOUS
 10
12.5886865267
 20
2.3743418804
 11
12.5886865267
 21
2.4912273132
  0
LINE
  5
3D9
100
AcDbEntity
  8
0
100
AcDbLine
 62
7
  6
CONTINUOUS
 10
12.5886865267
 20
2.5660172622
 11
12.5886865267
 21
2.7064148006
  0
LINE
  5
3DA
100
AcDbEntity
  8
0
100
AcDbLine
 62
7
  6
CONTINUOUS
 10
12.5686865156
 20
2.3759997498
 11
12.5686865156
 21
2.4912273132
  0
LINE
  5
3DB
100
AcDbEntity
  8
0
100
AcDbLine
 62
7
  6
CONTINUOUS
 10
12.5686865156
 20
2.5920323691
 11
12.5686865156
 21
2.7047569312
  0
LINE
  5
3DC
100
AcDbEntity
  8
0
100
AcDbLine
 62
7
  6
CONTINUOUS
 10
12.5486865045
 20
2.3777575277
 11
12.5486865045
 21
2.4912273132
  0
LINE
  5
3DD
100
AcDbEntity
  8
0
100
AcDbLine
 62
7
  6
CONTINUOUS
 10
12.5486865045
 20
2.515977327
 11
12.5486865045
 21
2.5275118824
  0
LINE
  5
3DE
100
AcDbEntity
  8
0
100
AcDbLine
 62
7
  6
CONTINUOUS
 10
12.5486865045
 20
2.5920323691
 11
12.5486865045
 21
2.7029991533
  0
LINE
  5
3DF
100
AcDbEntity
  8
0
100
AcDbLine
 62
7
  6
CONTINUOUS
 10
12.5286864935
 20
2.3802813811
 11
12.5286864935
 21
2.5296213345
  0
LINE
  5
3E0
100
AcDbEntity
  8
0
100
AcDbLine
 62
7
  6
CONTINUOUS
 10
12.5286864935
 20
2.5505713461
 11
12.5286864935
 21
2.5667383551
  0
LINE
  5
3E1
100
AcDbEntity
  8
0
100
AcDbLine
 62
7
  6
CONTINUOUS
 10
12.5286864935
 20
2.5920323691
 11
12.5286864935
 21
2.7004752999
  0
LINE
  5
3E2
100
AcDbEntity
  8
0
100
AcDbLine
 62
7
  6
CONTINUOUS
 10
12.5086864824
 20
2.3828052346
 11
12.5086864824
 21
2.4912273132
  0
LINE
  5
3E3
100
AcDbEntity
  8
0
100
AcDbLine
 62
7
  6
CONTINUOUS
 10
12.5086864824
 20
2.515977327
 11
12.5086864824
 21
2.5279667721
  0
LINE
  5
3E4
100
AcDbEntity
  8
0
100
AcDbLine
 62
7
  6
CONTINUOUS
 10
12.5086864824
 20
2.5868602074
 11
12.5086864824
 21
2.6979514464
  0
LINE
  5
3E5
100
AcDbEntity
  8
0
100
AcDbLine
 62
7
  6
CONTINUOUS
 10
12.4886864713
 20
2.385329088
 11
12.4886864713
 21
2.4912273132
  0
LINE
  5
3E6
100
AcDbEntity
  8
0
100
AcDbLine
 62
7
  6
CONTINUOUS
 10
12.4886864713
 20
2.5553401045
 11
12.4886864713
 21
2.695427593
  0
LINE
  5
3E7
100
AcDbEntity
  8
0
100
AcDbLine
 62
7
  6
CONTINUOUS
 10
12.4686864602
 20
2.3878529415
 11
12.4686864602
 21
2.4912273132
  0
LINE
  5
3E8
100
AcDbEntity
  8
0
100
AcDbLine
 62
7
  6
CONTINUOUS
 10
12.4686864602
 20
2.5238200015
 11
12.4686864602
 21
2.6929037395
  0
LINE
  5
3E9
100
AcDbEntity
  8
0
100
AcDbLine
 62
7
  6
CONTINUOUS
 10
12.4486864491
 20
2.390376795
 11
12.4486864491
 21
2.4912273132
  0
LINE
  5
3EA
100
AcDbEntity
  8
0
100
AcDbLine
 62
7
  6
CONTINUOUS
 10
12.4486864491
 20
2.515977327
 11
12.4486864491
 21
2.690379886
  0
LINE
  5
3EB
100
AcDbEntity
  8
0
100
AcDbLine
 62
7
  6
CONTINUOUS
 10
12.428686438
 20
2.3931794042
 11
12.428686438
 21
2.6875772768
  0
LINE
  5
3EC
100
AcDbEntity
  8
0
100
AcDbLine
 62
7
  6
CONTINUOUS
 10
12.4086864269
 20
2.3964643301
 11
12.4086864269
 21
2.5013773986
  0
LINE
  5
3ED
100
AcDbEntity
  8
0
100
AcDbLine
 62
7
  6
CONTINUOUS
 10
12.4086864269
 20
2.5325739971
 11
12.4086864269
 21
2.5537224311
  0
LINE
  5
3EE
100
AcDbEntity
  8
0
100
AcDbLine
 62
7
  6
CONTINUOUS
 10
12.4086864269
 20
2.5791473398
 11
12.4086864269
 21
2.6842923509
  0
LINE
  5
3EF
100
AcDbEntity
  8
0
100
AcDbLine
 62
7
  6
CONTINUOUS
 10
12.3886864158
 20
2.399749256
 11
12.3886864158
 21
2.4921022658
  0
LINE
  5
3F0
100
AcDbEntity
  8
0
100
AcDbLine
 62
7
  6
CONTINUOUS
 10
12.3886864158
 20
2.5895929958
 11
12.3886864158
 21
2.681007425
  0
LINE
  5
3F1
100
AcDbEntity
  8
0
100
AcDbLine
 62
7
  6
CONTINUOUS
 10
12.3686864047
 20
2.403451877
 11
12.3686864047
 21
2.4912273132
  0
LINE
  5
3F2
100
AcDbEntity
  8
0
100
AcDbLine
 62
7
  6
CONTINUOUS
 10
12.3686864047
 20
2.5920323691
 11
12.3686864047
 21
2.677304804
  0
LINE
  5
3F3
100
AcDbEntity
  8
0
100
AcDbLine
 62
7
  6
CONTINUOUS
 10
12.3486863936
 20
2.407324637
 11
12.3486863936
 21
2.4912273132
  0
LINE
  5
3F4
100
AcDbEntity
  8
0
100
AcDbLine
 62
7
  6
CONTINUOUS
 10
12.3486863936
 20
2.5920323691
 11
12.3486863936
 21
2.673432044
  0
LINE
  5
3F5
100
AcDbEntity
  8
0
100
AcDbLine
 62
7
  6
CONTINUOUS
 10
12.3286863825
 20
2.4113493968
 11
12.3286863825
 21
2.4912273132
  0
LINE
  5
3F6
100
AcDbEntity
  8
0
100
AcDbLine
 62
7
  6
CONTINUOUS
 10
12.3286863825
 20
2.515977327
 11
12.3286863825
 21
2.5333023366
  0
LINE
  5
3F7
100
AcDbEntity
  8
0
100
AcDbLine
 62
7
  6
CONTINUOUS
 10
12.3286863825
 20
2.5499573458
 11
12.3286863825
 21
2.5672823554
  0
LINE
  5
3F8
100
AcDbEntity
  8
0
100
AcDbLine
 62
7
  6
CONTINUOUS
 10
12.3286863825
 20
2.5920323691
 11
12.3286863825
 21
2.6694072842
  0
LINE
  5
3F9
100
AcDbEntity
  8
0
100
AcDbLine
 62
7
  6
CONTINUOUS
 10
12.3086863715
 20
2.4159005505
 11
12.3086863715
 21
2.4912273132
  0
LINE
  5
3FA
100
AcDbEntity
  8
0
100
AcDbLine
 62
7
  6
CONTINUOUS
 10
12.3086863715
 20
2.515977327
 11
12.3086863715
 21
2.5333023366
  0
LINE
  5
3FB
100
AcDbEntity
  8
0
100
AcDbLine
 62
7
  6
CONTINUOUS
 10
12.3086863715
 20
2.5499573458
 11
12.3086863715
 21
2.5672823554
  0
LINE
  5
3FC
100
AcDbEntity
  8
0
100
AcDbLine
 62
7
  6
CONTINUOUS
 10
12.3086863715
 20
2.5920323691
 11
12.3086863715
 21
2.6648561305
  0
LINE
  5
3FD
100
AcDbEntity
  8
0
100
AcDbLine
 62
7
  6
CONTINUOUS
 10
12.2886863604
 20
2.4204517041
 11
12.2886863604
 21
2.4912273132
  0
LINE
  5
3FE
100
AcDbEntity
  8
0
100
AcDbLine
 62
7
  6
CONTINUOUS
 10
12.2886863604
 20
2.5920323691
 11
12.2886863604
 21
2.6603049769
  0
LINE
  5
3FF
100
AcDbEntity
  8
0
100
AcDbLine
 62
7
  6
CONTINUOUS
 10
12.2686863493
 20
2.4257438218
 11
12.2686863493
 21
2.4912273132
  0
LINE
  5
400
100
AcDbEntity
  8
0
100
AcDbLine
 62
7
  6
CONTINUOUS
 10
12.2686863493
 20
2.5920323691
 11
12.2686863493
 21
2.6550128592
  0
LINE
  5
401
100
AcDbEntity
  8
0
100
AcDbLine
 62
7
  6
CONTINUOUS
 10
12.2486863382
 20
2.4310978667
 11
12.2486863382
 21
2.4912273132
  0
LINE
  5
402
100
AcDbEntity
  8
0
100
AcDbLine
 62
7
  6
CONTINUOUS
 10
12.2486863382
 20
2.5920323691
 11
12.2486863382
 21
2.6496588142
  0
LINE
  5
403
100
AcDbEntity
  8
0
100
AcDbLine
 62
7
  6
CONTINUOUS
 10
12.2286863271
 20
2.4372566433
 11
12.2286863271
 21
2.4912273132
  0
LINE
  5
404
100
AcDbEntity
  8
0
100
AcDbLine
 62
7
  6
CONTINUOUS
 10
12.2286863271
 20
2.515977327
 11
12.2286863271
 21
2.5672823554
  0
LINE
  5
405
100
AcDbEntity
  8
0
100
AcDbLine
 62
7
  6
CONTINUOUS
 10
12.2286863271
 20
2.5920323691
 11
12.2286863271
 21
2.6435000377
  0
LINE
  5
406
100
AcDbEntity
  8
0
100
AcDbLine
 62
7
  6
CONTINUOUS
 10
12.208686316
 20
2.443589771
 11
12.208686316
 21
2.4912273132
  0
LINE
  5
407
100
AcDbEntity
  8
0
100
AcDbLine
 62
7
  6
CONTINUOUS
 10
12.208686316
 20
2.515977327
 11
12.208686316
 21
2.5672823554
  0
LINE
  5
408
100
AcDbEntity
  8
0
100
AcDbLine
 62
7
  6
CONTINUOUS
 10
12.208686316
 20
2.5920323691
 11
12.208686316
 21
2.63716691
  0
LINE
  5
409
100
AcDbEntity
  8
0
100
AcDbLine
 62
7
  6
CONTINUOUS
 10
12.1886863049
 20
2.4510806436
 11
12.1886863049
 21
2.6296760373
  0
LINE
  5
40A
100
AcDbEntity
  8
0
100
AcDbLine
 62
7
  6
CONTINUOUS
 10
12.1686862938
 20
2.4591016523
 11
12.1686862938
 21
2.6216550287
  0
LINE
  5
40B
100
AcDbEntity
  8
0
100
AcDbLine
 62
7
  6
CONTINUOUS
 10
12.1486862827
 20
2.468314272
 11
12.1486862827
 21
2.612442409
  0
LINE
  5
40C
100
AcDbEntity
  8
0
100
AcDbLine
 62
7
  6
CONTINUOUS
 10
12.1286862716
 20
2.4794932339
 11
12.1286862716
 21
2.601263447
  0
LINE
  5
40D
100
AcDbEntity
  8
0
100
AcDbLine
 62
7
  6
CONTINUOUS
 10
12.1086862605
 20
2.4934150665
 11
12.1086862605
 21
2.5873416144
  0
LINE
  5
40E
100
AcDbEntity
  8
0
100
AcDbLine
 62
7
  6
CONTINUOUS
 10
12.0886862494
 20
2.5144449553
 11
12.0886862494
 21
2.5663117257
  0
ENDBLK
  5
40F
100
AcDbEntity
  8
0
  6
BYBLOCK
 62
0
100
AcDbBlockEnd
  0
BLOCK
  5
410
100
AcDbEntity
  8
0
100
AcDbBlockBegin
  2
_FILLED
 70
64
 10
0.0
 20
0.0
  3
_FILLED
  1

  0
SOLID
  5
411
100
AcDbEntity
  8
0
  6
BYBLOCK
 62
0
100
AcDbTrace
 10
0.0
 20
0.0
 11
-1.0
 21
0.1666666667
 12
-1.0
 22
-0.1666666667
 13
-1.0
 23
-0.1666666667
  0
ENDBLK
  5
412
100
AcDbEntity
  8
0
  6
BYBLOCK
 62
0
100
AcDbBlockEnd
  0
BLOCK
  5
413
100
AcDbEntity
  8
SCHEME_DIMS
100
AcDbBlockBegin
 62
7
  6
CONTINUOUS
  2
*D0
 70
65
 10
0.0
 20
0.0
  3
*D0
  1

  0
MTEXT
  5
414
100
AcDbEntity
  8
SCHEME_DIMS
100
AcDbMText
 62
7
  6
CONTINUOUS
  7
TEXTSTYLE_5
 71
1
 72
1
 10
3.4145693294
 20
4.2201934794
 30
0.0
 11
1.0
 21
0.0
 31
0.0
 44
0.9
  1
{\Fgdt;n}\Ftxt;50\P[1.97]
 40
0.1
 41
0.6
  0
LINE
  5
415
100
AcDbEntity
  8
SCHEME_DIMS
100
AcDbLine
 62
7
  6
CONTINUOUS
 10
3.0166007695
 20
4.7402346697
 11
3.1645693294
 21
4.1701934794
  0
LINE
  5
416
100
AcDbEntity
  8
SCHEME_DIMS
100
AcDbLine
 62
7
  6
CONTINUOUS
 10
3.1645693294
 20
4.1701934794
 11
3.3145693294
 21
4.1701934794
  0
INSERT
  5
417
100
AcDbEntity
  8
SCHEME_DIMS
100
AcDbBlockReference
 62
7
  6
CONTINUOUS
  2
_FILLED
 10
3.0166007695
 20
4.7402346697
 41
0.1875
 42
0.1875
 43
0.1875
 50
104.5514161125
  0
ENDBLK
  5
418
100
AcDbEntity
  8
0
  6
BYBLOCK
 62
0
100
AcDbBlockEnd
  0
BLOCK
  5
419
100
AcDbEntity
  8
SCHEME_DIMS
100
AcDbBlockBegin
 62
7
  6
CONTINUOUS
  2
*D1
 70
65
 10
0.0
 20
0.0
  3
*D1
  1

  0
MTEXT
  5
41A
100
AcDbEntity
  8
SCHEME_DIMS
100
AcDbMText
 62
7
  6
CONTINUOUS
  7
STANDARD
 71
2
 72
1
 10
5.7296139536
 20
7.9443823604
 30
0.0
 11
1.0
 21
0.0
 31
0.0
 44
0.9
  1
56,8\P[2.24]
 40
0.1
 41
0.6
  0
LINE
  5
41B
100
AcDbEntity
  8
SCHEME_DIMS
100
AcDbLine
 62
7
  6
CONTINUOUS
 10
4.7121254908
 20
6.0605324694
 11
4.7121254908
 21
8.0193823604
  0
LINE
  5
41C
100
AcDbEntity
  8
SCHEME_DIMS
100
AcDbLine
 62
7
  6
CONTINUOUS
 10
6.9471024165
 20
6.2573828631
 11
6.9471024165
 21
8.0193823604
  0
LINE
  5
41D
100
AcDbEntity
  8
SCHEME_DIMS
100
AcDbLine
 62
7
  6
CONTINUOUS
 10
4.7121254908
 20
7.8943823604
 11
5.4296139536
 21
7.8943823604
  0
LINE
  5
41E
100
AcDbEntity
  8
SCHEME_DIMS
100
AcDbLine
 62
7
  6
CONTINUOUS
 10
6.9471024165
 20
7.8943823604
 11
6.2296139536
 21
7.8943823604
  0
INSERT
  5
41F
100
AcDbEntity
  8
SCHEME_DIMS
100
AcDbBlockReference
 62
7
  6
CONTINUOUS
  2
_FILLED
 10
4.7121254908
 20
7.8943823604
 41
0.1875
 42
0.1875
 43
0.1875
 50
180.0
  0
INSERT
  5
420
100
AcDbEntity
  8
SCHEME_DIMS
100
AcDbBlockReference
 62
7
  6
CONTINUOUS
  2
_FILLED
 10
6.9471024165
 20
7.8943823604
 41
0.1875
 42
0.1875
 43
0.1875
  0
ENDBLK
  5
421
100
AcDbEntity
  8
0
  6
BYBLOCK
 62
0
100
AcDbBlockEnd
  0
BLOCK
  5
422
100
AcDbEntity
  8
SCHEME_DIMS
100
AcDbBlockBegin
 62
7
  6
CONTINUOUS
  2
*D2
 70
65
 10
0.0
 20
0.0
  3
*D2
  1

  0
MTEXT
  5
423
100
AcDbEntity
  8
SCHEME_DIMS
100
AcDbMText
 62
7
  6
CONTINUOUS
  7
STANDARD
 71
2
 72
1
 10
5.3359131662
 20
7.278718482
 30
0.0
 11
1.0
 21
0.0
 31
0.0
 44
0.9
  1
36,8\P[1.45]
 40
0.1
 41
0.6
  0
LINE
  5
424
100
AcDbEntity
  8
SCHEME_DIMS
100
AcDbLine
 62
7
  6
CONTINUOUS
 10
4.7121254908
 20
6.0605324694
 11
4.7121254908
 21
7.353718482
  0
LINE
  5
425
100
AcDbEntity
  8
SCHEME_DIMS
100
AcDbLine
 62
7
  6
CONTINUOUS
 10
6.1597008417
 20
6.7002962397
 11
6.1597008417
 21
7.353718482
  0
LINE
  5
426
100
AcDbEntity
  8
SCHEME_DIMS
100
AcDbLine
 62
7
  6
CONTINUOUS
 10
4.7121254908
 20
7.228718482
 11
5.0359131662
 21
7.228718482
  0
LINE
  5
427
100
AcDbEntity
  8
SCHEME_DIMS
100
AcDbLine
 62
7
  6
CONTINUOUS
 10
6.1597008417
 20
7.228718482
 11
5.8359131662
 21
7.228718482
  0
INSERT
  5
428
100
AcDbEntity
  8
SCHEME_DIMS
100
AcDbBlockReference
 62
7
  6
CONTINUOUS
  2
_FILLED
 10
4.7121254908
 20
7.228718482
 41
0.1875
 42
0.1875
 43
0.1875
 50
180.0
  0
INSERT
  5
429
100
AcDbEntity
  8
SCHEME_DIMS
100
AcDbBlockReference
 62
7
  6
CONTINUOUS
  2
_FILLED
 10
6.1597008417
 20
7.228718482
 41
0.1875
 42
0.1875
 43
0.1875
  0
ENDBLK
  5
42A
100
AcDbEntity
  8
0
  6
BYBLOCK
 62
0
100
AcDbBlockEnd
  0
BLOCK
  5
42B
100
AcDbEntity
  8
0
100
AcDbBlockBegin
  2
*T1
 70
1
 10
0.0
 20
0.0
  3
*T1
  1

  0
LINE
  5
42C
100
AcDbEntity
  8
0
100
AcDbLine
 62
7
  6
CONTINUOUS
 10
4.35
 20
0.0
 11
0.0
 21
0.0
  0
LINE
  5
42D
100
AcDbEntity
  8
0
100
AcDbLine
 62
7
  6
CONTINUOUS
 10
4.35
 20
0.0
 11
4.35
 21
1.92
  0
LINE
  5
42E
100
AcDbEntity
  8
0
100
AcDbLine
 62
7
  6
CONTINUOUS
 10
4.35
 20
1.92
 11
0.0
 21
1.92
  0
LINE
  5
42F
100
AcDbEntity
  8
0
100
AcDbLine
 62
7
  6
CONTINUOUS
 10
0.0
 20
0.0
 11
0.0
 21
1.92
  0
MTEXT
  5
430
100
AcDbEntity
  8
NOTES
100
AcDbMText
 62
7
  6
CONTINUOUS
  7
STANDARD
 71
2
 72
1
 10
4.125
 20
0.48
 30
0.0
 11
1.0
 21
0.0
 31
0.0
 44
0.9
  1
-
 40
0.1
 41
0.2
  0
MTEXT
  5
431
100
AcDbEntity
  8
NOTES
100
AcDbMText
 62
7
  6
CONTINUOUS
  7
STANDARD
 71
2
 72
1
 10
2.175
 20
0.93
 30
0.0
 11
1.0
 21
0.0
 31
0.0
 44
0.9
  1
K50A/R FF/LP PICK-TO-LIGHT CABLE/PIGTAIL
 40
0.1
 41
8.0
  0
ENDBLK
  5
432
100
AcDbEntity
  8
0
  6
BYBLOCK
 62
0
100
AcDbBlockEnd
  0
ENDSEC
  0
SECTION
  2
ENTITIES
  0
MTEXT
  5
433
100
AcDbEntity
  8
0
100
AcDbMText
 62
7
  6
CONTINUOUS
  7
TEXTSTYLE_2
 71
2
 72
1
 10
11.0287658475
 20
1.794867839
 30
0.0
 11
1.0
 21
0.0
 31
0.0
 44
0.9
  1
THIRD ANGLE PROJECTION
 40
0.1
 41
1.76
  0
MTEXT
  5
434
100
AcDbEntity
  8
0
100
AcDbMText
 62
7
  6
CONTINUOUS
  7
STANDARD
 71
1
 72
1
 10
12.88
 20
1.457
 30
0.0
 11
1.0
 21
0.0
 31
0.0
 44
0.9
  1
DRAWING NO.
 40
0.08
 41
0.88
  0
MTEXT
  5
435
100
AcDbEntity
  8
0
100
AcDbMText
 62
7
  6
CONTINUOUS
  7
TEXTSTYLE_3
 71
2
 72
1
 10
11.03
 20
2.516432
 30
0.0
 11
1.0
 21
0.0
 31
0.0
 44
0.9
  1
and is proprietary in general
 40
0.08
 41
1.972
  0
MTEXT
  5
436
100
AcDbEntity
  8
0
100
AcDbMText
 62
7
  6
CONTINUOUS
  7
TEXTSTYLE_3
 71
2
 72
1
 10
11.03
 20
2.396432
 30
0.0
 11
1.0
 21
0.0
 31
0.0
 44
0.9
  1
and in detail.  Its contents
 40
0.08
 41
1.904
  0
MTEXT
  5
437
100
AcDbEntity
  8
0
100
AcDbMText
 62
7
  6
CONTINUOUS
  7
TEXTSTYLE_3
 71
2
 72
1
 10
11.03
 20
2.276432
 30
0.0
 11
1.0
 21
0.0
 31
0.0
 44
0.9
  1
shall not be revealed to
 40
0.08
 41
1.632
  0
MTEXT
  5
438
100
AcDbEntity
  8
0
100
AcDbMText
 62
7
  6
CONTINUOUS
  7
TEXTSTYLE_3
 71
2
 72
1
 10
11.03
 20
2.156432
 30
0.0
 11
1.0
 21
0.0
 31
0.0
 44
0.9
  1
outside parties without
 40
0.08
 41
1.564
  0
MTEXT
  5
439
100
AcDbEntity
  8
0
100
AcDbMText
 62
7
  6
CONTINUOUS
  7
TEXTSTYLE_3
 71
2
 72
1
 10
11.03
 20
2.036432
 30
0.0
 11
1.0
 21
0.0
 31
0.0
 44
0.9
  1
written consent of BANNER.
 40
0.08
 41
1.768
  0
MTEXT
  5
43A
100
AcDbEntity
  8
0
100
AcDbMText
 62
7
  6
CONTINUOUS
  7
TEXTSTYLE_2
 71
1
 72
1
 10
12.08
 20
2.217
 30
0.0
 11
1.0
 21
0.0
 31
0.0
 44
0.9
  1
TITLE
 40
0.1
 41
0.4
  0
MTEXT
  5
43B
100
AcDbEntity
  8
0
100
AcDbMText
 62
7
  6
CONTINUOUS
  7
STANDARD
 71
1
 72
1
 10
12.08
 20
1.457
 30
0.0
 11
1.0
 21
0.0
 31
0.0
 44
0.9
  1
SIZE
 40
0.08
 41
0.32
  0
MTEXT
  5
43C
100
AcDbEntity
  8
0
100
AcDbMText
 62
7
  6
CONTINUOUS
  7
STANDARD
 71
1
 72
1
 10
12.08
 20
1.087
 30
0.0
 11
1.0
 21
0.0
 31
0.0
 44
0.9
  1
SCALE
 40
0.08
 41
0.4
  0
MTEXT
  5
43D
100
AcDbEntity
  8
0
100
AcDbMText
 62
7
  6
CONTINUOUS
  7
TEXTSTYLE_2
 71
2
 72
1
 10
12.5
 20
1.337
 30
0.0
 11
1.0
 21
0.0
 31
0.0
 44
0.9
  1
B
 40
0.1
 41
0.08
  0
MTEXT
  5
43E
100
AcDbEntity
  8
0
100
AcDbMText
 62
7
  6
CONTINUOUS
  7
TEXTSTYLE_3
 71
2
 72
1
 10
11.03
 20
2.636432
 30
0.0
 11
1.0
 21
0.0
 31
0.0
 44
0.9
  1
of BANNER ENGINEERING CORP.
 40
0.08
 41
1.836
  0
MTEXT
  5
43F
100
AcDbEntity
  8
0
100
AcDbMText
 62
7
  6
CONTINUOUS
  7
TEXTSTYLE_3
 71
2
 72
1
 10
11.03
 20
2.756432
 30
0.0
 11
1.0
 21
0.0
 31
0.0
 44
0.9
  1
This drawing is the property
 40
0.08
 41
1.904
  0
MTEXT
  5
440
100
AcDbEntity
  8
0
100
AcDbMText
 62
7
  6
CONTINUOUS
  7
TEXTSTYLE_2
 71
2
 72
1
 10
15.03
 20
2.4134
 30
0.0
 11
1.0
 21
0.0
 31
0.0
 44
0.9
  1
MINNEAPOLIS, MN 55440
 40
0.1
 41
1.68
  0
MTEXT
  5
441
100
AcDbEntity
  8
0
100
AcDbMText
 62
7
  6
CONTINUOUS
  7
STANDARD
 71
1
 72
1
 10
14.255
 20
1.087
 30
0.0
 11
1.0
 21
0.0
 31
0.0
 44
0.9
  1
SHEET
 40
0.08
 41
0.4
  0
MTEXT
  5
442
100
AcDbEntity
  8
0
100
AcDbMText
 62
7
  6
CONTINUOUS
  7
STANDARD
 71
1
 72
1
 10
15.63
 20
1.457
 30
0.0
 11
1.0
 21
0.0
 31
0.0
 44
0.9
  1
REV.
 40
0.08
 41
0.32
  0
MTEXT
  5
443
100
AcDbEntity
  8
0
100
AcDbMText
 62
7
  6
CONTINUOUS
  7
STANDARD
 71
3
 72
1
 10
16.38
 20
0.835443
 30
0.0
 11
1.0
 21
0.0
 31
0.0
 44
0.9
  1
PRO/E
 40
0.07
 41
0.35
  0
MTEXT
  5
444
100
AcDbEntity
  8
0
100
AcDbMText
 62
7
  6
CONTINUOUS
  7
TEXTSTYLE_4
 71
2
 72
1
 10
15.03
 20
2.751049
 30
0.0
 11
1.0
 21
0.0
 31
0.0
 44
0.9
  1
BANNER ENGINEERING CORP.
 40
0.12
 41
2.6496
  0
MTEXT
  5
445
100
AcDbEntity
  8
0
100
AcDbMText
 62
7
  6
CONTINUOUS
  7
TEXTSTYLE_2
 71
2
 72
1
 10
15.03
 20
2.5724
 30
0.0
 11
1.0
 21
0.0
 31
0.0
 44
0.9
  1
P.O. BOX 9414
 40
0.1
 41
1.04
  0
MTEXT
  5
446
100
AcDbEntity
  8
0
100
AcDbMText
 62
7
  6
CONTINUOUS
  7
TEXTSTYLE_2
 71
2
 72
1
 10
9.485
 20
10.312
 30
0.0
 11
1.0
 21
0.0
 31
0.0
 44
0.9
  1
4
 40
0.1
 41
0.08
  0
MTEXT
  5
447
100
AcDbEntity
  8
0
100
AcDbMText
 62
7
  6
CONTINUOUS
  7
TEXTSTYLE_2
 71
2
 72
1
 10
11.455
 20
10.312
 30
0.0
 11
1.0
 21
0.0
 31
0.0
 44
0.9
  1
3
 40
0.1
 41
0.08
  0
MTEXT
  5
448
100
AcDbEntity
  8
0
100
AcDbMText
 62
7
  6
CONTINUOUS
  7
TEXTSTYLE_2
 71
2
 72
1
 10
13.425
 20
10.312
 30
0.0
 11
1.0
 21
0.0
 31
0.0
 44
0.9
  1
2
 40
0.1
 41
0.08
  0
MTEXT
  5
449
100
AcDbEntity
  8
0
100
AcDbMText
 62
7
  6
CONTINUOUS
  7
TEXTSTYLE_2
 71
2
 72
1
 10
15.395
 20
10.312
 30
0.0
 11
1.0
 21
0.0
 31
0.0
 44
0.9
  1
1
 40
0.1
 41
0.08
  0
MTEXT
  5
44A
100
AcDbEntity
  8
0
100
AcDbMText
 62
7
  6
CONTINUOUS
  7
TEXTSTYLE_2
 71
2
 72
1
 10
3.575
 20
10.312
 30
0.0
 11
1.0
 21
0.0
 31
0.0
 44
0.9
  1
7
 40
0.1
 41
0.08
  0
MTEXT
  5
44B
100
AcDbEntity
  8
0
100
AcDbMText
 62
7
  6
CONTINUOUS
  7
TEXTSTYLE_2
 71
2
 72
1
 10
5.545
 20
10.312
 30
0.0
 11
1.0
 21
0.0
 31
0.0
 44
0.9
  1
6
 40
0.1
 41
0.08
  0
MTEXT
  5
44C
100
AcDbEntity
  8
0
100
AcDbMText
 62
7
  6
CONTINUOUS
  7
TEXTSTYLE_2
 71
2
 72
1
 10
7.515
 20
10.312
 30
0.0
 11
1.0
 21
0.0
 31
0.0
 44
0.9
  1
5
 40
0.1
 41
0.08
  0
MTEXT
  5
44D
100
AcDbEntity
  8
0
100
AcDbMText
 62
7
  6
CONTINUOUS
  7
TEXTSTYLE_2
 71
2
 72
1
 10
1.605
 20
10.312
 30
0.0
 11
1.0
 21
0.0
 31
0.0
 44
0.9
  1
8
 40
0.1
 41
0.08
  0
MTEXT
  5
44E
100
AcDbEntity
  8
0
100
AcDbMText
 62
7
  6
CONTINUOUS
  7
TEXTSTYLE_2
 71
2
 72
1
 10
1.605
 20
0.787
 30
0.0
 11
1.0
 21
0.0
 31
0.0
 44
0.9
  1
8
 40
0.1
 41
0.08
  0
MTEXT
  5
44F
100
AcDbEntity
  8
0
100
AcDbMText
 62
7
  6
CONTINUOUS
  7
TEXTSTYLE_2
 71
2
 72
1
 10
3.575
 20
0.787
 30
0.0
 11
1.0
 21
0.0
 31
0.0
 44
0.9
  1
7
 40
0.1
 41
0.08
  0
MTEXT
  5
450
100
AcDbEntity
  8
0
100
AcDbMText
 62
7
  6
CONTINUOUS
  7
TEXTSTYLE_2
 71
2
 72
1
 10
5.545
 20
0.787
 30
0.0
 11
1.0
 21
0.0
 31
0.0
 44
0.9
  1
6
 40
0.1
 41
0.08
  0
MTEXT
  5
451
100
AcDbEntity
  8
0
100
AcDbMText
 62
7
  6
CONTINUOUS
  7
TEXTSTYLE_2
 71
2
 72
1
 10
7.515
 20
0.787
 30
0.0
 11
1.0
 21
0.0
 31
0.0
 44
0.9
  1
5
 40
0.1
 41
0.08
  0
MTEXT
  5
452
100
AcDbEntity
  8
0
100
AcDbMText
 62
7
  6
CONTINUOUS
  7
TEXTSTYLE_2
 71
2
 72
1
 10
9.485
 20
0.787
 30
0.0
 11
1.0
 21
0.0
 31
0.0
 44
0.9
  1
4
 40
0.1
 41
0.08
  0
MTEXT
  5
453
100
AcDbEntity
  8
0
100
AcDbMText
 62
7
  6
CONTINUOUS
  7
TEXTSTYLE_2
 71
2
 72
1
 10
11.455
 20
0.787
 30
0.0
 11
1.0
 21
0.0
 31
0.0
 44
0.9
  1
3
 40
0.1
 41
0.08
  0
MTEXT
  5
454
100
AcDbEntity
  8
0
100
AcDbMText
 62
7
  6
CONTINUOUS
  7
TEXTSTYLE_2
 71
2
 72
1
 10
13.425
 20
0.787
 30
0.0
 11
1.0
 21
0.0
 31
0.0
 44
0.9
  1
2
 40
0.1
 41
0.08
  0
MTEXT
  5
455
100
AcDbEntity
  8
0
100
AcDbMText
 62
7
  6
CONTINUOUS
  7
TEXTSTYLE_2
 71
2
 72
1
 10
15.395
 20
0.787
 30
0.0
 11
1.0
 21
0.0
 31
0.0
 44
0.9
  1
1
 40
0.1
 41
0.08
  0
MTEXT
  5
456
100
AcDbEntity
  8
0
100
AcDbMText
 62
7
  6
CONTINUOUS
  7
TEXTSTYLE_2
 71
3
 72
1
 10
0.52
 20
4.3995
 30
0.0
 11
1.0
 21
0.0
 31
0.0
 44
0.9
  1
B
 40
0.1
 41
0.08
  0
MTEXT
  5
457
100
AcDbEntity
  8
0
100
AcDbMText
 62
7
  6
CONTINUOUS
  7
TEXTSTYLE_2
 71
3
 72
1
 10
0.52
 20
2.0995
 30
0.0
 11
1.0
 21
0.0
 31
0.0
 44
0.9
  1
A
 40
0.1
 41
0.08
  0
MTEXT
  5
458
100
AcDbEntity
  8
0
100
AcDbMText
 62
7
  6
CONTINUOUS
  7
TEXTSTYLE_2
 71
3
 72
1
 10
0.52
 20
8.9995
 30
0.0
 11
1.0
 21
0.0
 31
0.0
 44
0.9
  1
D
 40
0.1
 41
0.08
  0
MTEXT
  5
459
100
AcDbEntity
  8
0
100
AcDbMText
 62
7
  6
CONTINUOUS
  7
TEXTSTYLE_2
 71
3
 72
1
 10
0.52
 20
6.6995
 30
0.0
 11
1.0
 21
0.0
 31
0.0
 44
0.9
  1
C
 40
0.1
 41
0.08
  0
MTEXT
  5
45A
100
AcDbEntity
  8
0
100
AcDbMText
 62
7
  6
CONTINUOUS
  7
TEXTSTYLE_2
 71
1
 72
1
 10
16.48
 20
8.9995
 30
0.0
 11
1.0
 21
0.0
 31
0.0
 44
0.9
  1
D
 40
0.1
 41
0.08
  0
MTEXT
  5
45B
100
AcDbEntity
  8
0
100
AcDbMText
 62
7
  6
CONTINUOUS
  7
TEXTSTYLE_2
 71
1
 72
1
 10
16.48
 20
6.6995
 30
0.0
 11
1.0
 21
0.0
 31
0.0
 44
0.9
  1
C
 40
0.1
 41
0.08
  0
MTEXT
  5
45C
100
AcDbEntity
  8
0
100
AcDbMText
 62
7
  6
CONTINUOUS
  7
TEXTSTYLE_2
 71
1
 72
1
 10
16.48
 20
4.3995
 30
0.0
 11
1.0
 21
0.0
 31
0.0
 44
0.9
  1
B
 40
0.1
 41
0.08
  0
MTEXT
  5
45D
100
AcDbEntity
  8
0
100
AcDbMText
 62
7
  6
CONTINUOUS
  7
TEXTSTYLE_2
 71
1
 72
1
 10
16.48
 20
2.0995
 30
0.0
 11
1.0
 21
0.0
 31
0.0
 44
0.9
  1
A
 40
0.1
 41
0.08
  0
MTEXT
  5
45E
100
AcDbEntity
  8
0
100
AcDbMText
 62
7
  6
CONTINUOUS
  7
STANDARD
 71
1
 72
1
 10
14.819264911
 20
1.0627941725
 30
0.0
 11
1.0
 21
0.0
 31
0.0
 44
0.9
  1
1 OF 1
 40
0.1
 41
0.6
  0
MTEXT
  5
45F
100
AcDbEntity
  8
0
100
AcDbMText
 62
7
  6
CONTINUOUS
  7
STANDARD
 71
1
 72
1
 10
13.8911999818
 20
1.3747321586
 30
0.0
 11
1.0
 21
0.0
 31
0.0
 44
0.9
  1
144875
 40
0.12
 41
0.72
  0
MTEXT
  5
460
100
AcDbEntity
  8
0
100
AcDbMText
 62
7
  6
CONTINUOUS
  7
STANDARD
 71
1
 72
1
 10
12.644264911
 20
1.0627941725
 30
0.0
 11
1.0
 21
0.0
 31
0.0
 44
0.9
  1
1:1
 40
0.1
 41
0.3
  0
MTEXT
  5
461
100
AcDbEntity
  8
0
100
AcDbMText
 62
7
  6
CONTINUOUS
  7
STANDARD
 71
1
 72
1
 10
1.0597007627
 20
1.6202922458
 30
0.0
 11
1.0
 21
0.0
 31
0.0
 44
0.9
  1
NOTES:\P1. ALL DIMENSIONS ARE MILLIMETERS [INCHES] UNLESS OTHERWISE NOTED.
 40
0.1
 41
6.6
  0
INSERT
  5
462
100
AcDbEntity
  8
0
100
AcDbBlockReference
 62
7
  6
CONTINUOUS
  2
SYMBOL_0_BL0
 10
12.9086867042
 20
2.5403783405
  0
DIMENSION
  5
463
100
AcDbEntity
  8
SCHEME_DIMS
100
AcDbDimension
 62
7
  6
CONTINUOUS
  2
*D0
 10
3.0166007695
 20
4.7402346697
 11
3.7812359961
 21
4.0951934794
 70
163
 71
1
 42
50.0
  1
%%c<>
  3
DIMSTYLE_1
100
AcDbDiametricDimension
 15
2.5220167146
 25
6.6455940486
  0
DIMENSION
  5
464
100
AcDbEntity
  8
SCHEME_DIMS
100
AcDbDimension
 62
7
  6
CONTINUOUS
  2
*D1
 10
6.9471024165
 20
7.8943823604
 11
5.8296139536
 21
7.8193823604
 70
160
 71
2
 42
56.7684139143
  3
DIMSTYLE_2
100
AcDbAlignedDimension
 13
4.7121254908
 23
5.9980324694
 14
6.9471024165
 24
6.1948828631
100
AcDbRotatedDimension
  0
DIMENSION
  5
465
100
AcDbEntity
  8
SCHEME_DIMS
100
AcDbDimension
 62
7
  6
CONTINUOUS
  2
*D2
 10
6.1597008417
 20
7.228718482
 11
5.4359131662
 21
7.153718482
 70
160
 71
2
 42
36.7684139143
  3
DIMSTYLE_2
100
AcDbAlignedDimension
 13
4.7121254908
 23
5.9980324694
 14
6.1597008417
 24
6.6377962397
100
AcDbRotatedDimension
  0
ACAD_TABLE
  5
466
100
AcDbEntity
  8
0
 62
7
  6
CONTINUOUS
100
AcDbBlockReference
  2
*T1
 10
12.03
 20
0.887
 30
0.0
100
AcDbTable
342
       621
343
249
 11
1.0
 21
0.0
 31
0.0
 90
6
 91
3
 92
5
 93
4
 94
0
 95
0
 96
0
 70
1
141
0.33
141
0.45
141
1.14
142
0.65
142
1.15
142
1.025
142
1.075
142
0.45
171
1
172
0
173
0
174
0
175
1
176
1
177
33
178
0
145
0.0
  1
 
170
1
140
0.1
171
1
172
0
173
0
174
0
175
1
176
1
177
33
178
0
145
0.0
  1
 
170
1
140
0.1
171
1
172
0
173
0
174
0
175
1
176
1
177
33
178
0
145
0.0
  1
 
170
1
140
0.1
171
1
172
0
173
0
174
0
175
1
176
1
177
33
178
0
145
0.0
  1
 
170
1
140
0.1
171
1
172
0
173
0
174
0
175
1
176
1
177
33
178
0
145
0.0
  1
 
170
1
140
0.1
171
1
172
0
173
0
174
0
175
1
176
1
177
33
178
0
145
0.0
  1
 
170
1
140
0.1
171
1
172
0
173
0
174
0
175
1
176
1
177
33
178
0
145
0.0
  1
 
170
1
140
0.1
171
1
172
0
173
0
174
0
175
1
176
1
177
33
178
0
145
0.0
  1
 
170
1
140
0.1
171
1
172
0
173
0
174
0
175
1
176
1
177
33
178
0
145
0.0
  1
 
170
1
140
0.1
171
1
172
0
173
0
174
0
175
1
176
1
177
41
178
0
145
0.0
  1
-
170
8
140
0.1
 64
7
171
1
172
0
173
0
174
0
175
5
176
1
177
33
178
0
145
0.0
  1
K50A/R FF/LP PICK-TO-LIGHT CABLE/PIGTAIL
170
8
140
0.1
171
1
172
0
173
1
174
0
175
1
176
1
177
1
178
0
145
0.0
170
1
171
1
172
0
173
1
174
0
175
1
176
1
177
1
178
0
145
0.0
170
1
171
1
172
0
173
1
174
0
175
1
176
1
177
1
178
0
145
0.0
170
1
171
1
172
0
173
1
174
0
175
1
176
1
177
1
178
0
145
0.0
170
8
  0
LEADER
  5
467
100
AcDbEntity
  8
NOTES
100
AcDbLeader
 62
7
  6
CONTINUOUS
  3
STANDARD
 71
1
 72
0
 73
0
 75
0
 40
0.1
 41
0.9
 76
3
 10
6.6011153459
 20
5.1934788483
 30
0.0
 10
6.903584782
 20
4.4613505427
 30
0.0
 10
7.153584782
 20
4.4613505427
 30
0.0
340
468
1001
ACAD
1000
DSTYLE
1002
{
1070
77
1070
0
1002
}
  0
MTEXT
  5
468
102
{ACAD_REACTORS
330
467
102
}
100
AcDbEntity
  8
NOTES
100
AcDbMText
 62
7
  6
CONTINUOUS
  7
STANDARD
 71
1
 72
1
 10
7.153584782
 20
4.5113505427
 30
0.0
 11
1.0
 21
0.0
 31
0.0
 44
0.9
  1
M30 X 1.5
 40
0.1
 41
0.9
  0
MTEXT
  5
469
100
AcDbEntity
  8
NOTES
100
AcDbMText
 62
7
  6
CONTINUOUS
  7
STANDARD
 71
2
 72
1
 10
14.7699118253
 20
3.993650274
 30
0.0
 11
1.0
 21
0.0
 31
0.0
 44
0.9
  1
ISOMETRIC VIEW\P\H0.1;SCALE  1:1
 40
0.12
 41
1.68
  0
LINE
  5
46A
100
AcDbEntity
  8
0
100
AcDbLine
 62
7
  6
CONTINUOUS
 10
0.47
 20
5.586103
 11
0.47
 21
5.412897
  0
LINE
  5
46B
100
AcDbEntity
  8
0
100
AcDbLine
 62
7
  6
CONTINUOUS
 10
0.62
 20
10.112
 11
0.62
 21
0.887
  0
LINE
  5
46C
100
AcDbEntity
  8
0
100
AcDbLine
 62
7
  6
CONTINUOUS
 10
2.59
 20
0.887
 11
2.59
 21
0.637
  0
LINE
  5
46D
100
AcDbEntity
  8
0
100
AcDbLine
 62
7
  6
CONTINUOUS
 10
2.59
 20
10.112
 11
2.59
 21
10.362
  0
LINE
  5
46E
100
AcDbEntity
  8
0
100
AcDbLine
 62
7
  6
CONTINUOUS
 10
8.413397
 20
0.737
 11
8.586603
 21
0.737
  0
LINE
  5
46F
100
AcDbEntity
  8
0
100
AcDbLine
 62
7
  6
CONTINUOUS
 10
11.1389508475
 20
1.425992839
 11
11.7453418475
 21
1.495385839
  0
LINE
  5
470
100
AcDbEntity
  8
0
100
AcDbLine
 62
7
  6
CONTINUOUS
 10
0.62
 20
0.887
 11
16.38
 21
0.887
  0
LINE
  5
471
100
AcDbEntity
  8
0
100
AcDbLine
 62
7
  6
CONTINUOUS
 10
12.03
 20
1.137
 11
16.38
 21
1.137
  0
LINE
  5
472
100
AcDbEntity
  8
0
100
AcDbLine
 62
7
  6
CONTINUOUS
 10
10.2121898475
 20
1.243294839
 11
10.4342808475
 21
1.243294839
  0
LINE
  5
473
100
AcDbEntity
  8
0
100
AcDbLine
 62
7
  6
CONTINUOUS
 10
10.4842808475
 20
1.243294839
 11
10.5842808475
 21
1.243294839
  0
LINE
  5
474
100
AcDbEntity
  8
0
100
AcDbLine
 62
7
  6
CONTINUOUS
 10
10.6342808475
 20
1.243294839
 11
10.8563718475
 21
1.243294839
  0
LINE
  5
475
100
AcDbEntity
  8
0
100
AcDbLine
 62
7
  6
CONTINUOUS
 10
11.0389508475
 20
1.243294839
 11
11.3171028475
 21
1.243294839
  0
LINE
  5
476
100
AcDbEntity
  8
0
100
AcDbLine
 62
7
  6
CONTINUOUS
 10
11.3671028475
 20
1.243294839
 11
11.5171888475
 21
1.243294839
  0
LINE
  5
477
100
AcDbEntity
  8
0
100
AcDbLine
 62
7
  6
CONTINUOUS
 10
11.5671888475
 20
1.243294839
 11
11.8453418475
 21
1.243294839
  0
LINE
  5
478
100
AcDbEntity
  8
0
100
AcDbLine
 62
7
  6
CONTINUOUS
 10
11.7453418475
 20
0.991203839
 11
11.1389508475
 21
1.060596839
  0
LINE
  5
479
100
AcDbEntity
  8
0
100
AcDbLine
 62
7
  6
CONTINUOUS
 10
4.56
 20
0.887
 11
4.56
 21
0.637
  0
LINE
  5
47A
100
AcDbEntity
  8
0
100
AcDbLine
 62
7
  6
CONTINUOUS
 10
4.56
 20
10.112
 11
4.56
 21
10.362
  0
LINE
  5
47B
100
AcDbEntity
  8
0
100
AcDbLine
 62
7
  6
CONTINUOUS
 10
0.47
 20
5.412897
 11
0.62
 21
5.4995
  0
LINE
  5
47C
100
AcDbEntity
  8
0
100
AcDbLine
 62
7
  6
CONTINUOUS
 10
12.03
 20
1.507
 11
16.38
 21
1.507
  0
LINE
  5
47D
100
AcDbEntity
  8
0
100
AcDbLine
 62
7
  6
CONTINUOUS
 10
10.03
 20
1.907
 11
12.03
 21
1.907
  0
LINE
  5
47E
100
AcDbEntity
  8
0
100
AcDbLine
 62
7
  6
CONTINUOUS
 10
0.62
 20
5.4995
 11
0.47
 21
5.586103
  0
LINE
  5
47F
100
AcDbEntity
  8
0
100
AcDbLine
 62
7
  6
CONTINUOUS
 10
12.03
 20
2.267
 11
16.38
 21
2.267
  0
LINE
  5
480
100
AcDbEntity
  8
0
100
AcDbLine
 62
7
  6
CONTINUOUS
 10
8.5
 20
10.112
 11
8.586603
 21
10.262
  0
LINE
  5
481
100
AcDbEntity
  8
0
100
AcDbLine
 62
7
  6
CONTINUOUS
 10
16.38
 20
2.807
 11
10.03
 21
2.807
  0
LINE
  5
482
100
AcDbEntity
  8
0
100
AcDbLine
 62
7
  6
CONTINUOUS
 10
0.62
 20
3.1995
 11
0.37
 21
3.1995
  0
LINE
  5
483
100
AcDbEntity
  8
0
100
AcDbLine
 62
7
  6
CONTINUOUS
 10
16.38
 20
3.1995
 11
16.63
 21
3.1995
  0
LINE
  5
484
100
AcDbEntity
  8
0
100
AcDbLine
 62
7
  6
CONTINUOUS
 10
8.586603
 20
0.737
 11
8.5
 21
0.887
  0
LINE
  5
485
100
AcDbEntity
  8
0
100
AcDbLine
 62
7
  6
CONTINUOUS
 10
6.53
 20
0.887
 11
6.53
 21
0.637
  0
LINE
  5
486
100
AcDbEntity
  8
0
100
AcDbLine
 62
7
  6
CONTINUOUS
 10
6.53
 20
10.112
 11
6.53
 21
10.362
  0
LINE
  5
487
100
AcDbEntity
  8
0
100
AcDbLine
 62
7
  6
CONTINUOUS
 10
8.5
 20
0.887
 11
8.5
 21
0.637
  0
LINE
  5
488
100
AcDbEntity
  8
0
100
AcDbLine
 62
7
  6
CONTINUOUS
 10
8.5
 20
10.112
 11
8.5
 21
10.362
  0
LINE
  5
489
100
AcDbEntity
  8
0
100
AcDbLine
 62
7
  6
CONTINUOUS
 10
0.62
 20
5.4995
 11
0.37
 21
5.4995
  0
LINE
  5
48A
100
AcDbEntity
  8
0
100
AcDbLine
 62
7
  6
CONTINUOUS
 10
16.38
 20
5.4995
 11
16.63
 21
5.4995
  0
LINE
  5
48B
100
AcDbEntity
  8
0
100
AcDbLine
 62
7
  6
CONTINUOUS
 10
10.03
 20
2.807
 11
10.03
 21
0.887
  0
LINE
  5
48C
100
AcDbEntity
  8
0
100
AcDbLine
 62
7
  6
CONTINUOUS
 10
10.47
 20
0.887
 11
10.47
 21
0.637
  0
LINE
  5
48D
100
AcDbEntity
  8
0
100
AcDbLine
 62
7
  6
CONTINUOUS
 10
10.47
 20
10.112
 11
10.47
 21
10.362
  0
LINE
  5
48E
100
AcDbEntity
  8
0
100
AcDbLine
 62
7
  6
CONTINUOUS
 10
10.5342808475
 20
1.143294839
 11
10.5342808475
 21
0.921203839
  0
LINE
  5
48F
100
AcDbEntity
  8
0
100
AcDbLine
 62
7
  6
CONTINUOUS
 10
10.5342808475
 20
1.193294839
 11
10.5342808475
 21
1.293294839
  0
LINE
  5
490
100
AcDbEntity
  8
0
100
AcDbLine
 62
7
  6
CONTINUOUS
 10
10.5342808475
 20
1.343294839
 11
10.5342808475
 21
1.565385839
  0
LINE
  5
491
100
AcDbEntity
  8
0
100
AcDbLine
 62
7
  6
CONTINUOUS
 10
8.5
 20
0.887
 11
8.413397
 21
0.737
  0
LINE
  5
492
100
AcDbEntity
  8
0
100
AcDbLine
 62
7
  6
CONTINUOUS
 10
0.62
 20
7.7995
 11
0.37
 21
7.7995
  0
LINE
  5
493
100
AcDbEntity
  8
0
100
AcDbLine
 62
7
  6
CONTINUOUS
 10
16.38
 20
7.7995
 11
16.63
 21
7.7995
  0
LINE
  5
494
100
AcDbEntity
  8
0
100
AcDbLine
 62
7
  6
CONTINUOUS
 10
8.413397
 20
10.262
 11
8.5
 21
10.112
  0
LINE
  5
495
100
AcDbEntity
  8
0
100
AcDbLine
 62
7
  6
CONTINUOUS
 10
11.1389508475
 20
1.060596839
 11
11.1389508475
 21
1.425992839
  0
LINE
  5
496
100
AcDbEntity
  8
0
100
AcDbLine
 62
7
  6
CONTINUOUS
 10
11.7453418475
 20
1.495385839
 11
11.7453418475
 21
0.991203839
  0
LINE
  5
497
100
AcDbEntity
  8
0
100
AcDbLine
 62
1
  6
CONTINUOUS
 10
12.03
 20
2.807
 11
12.03
 21
0.887
  0
LINE
  5
498
100
AcDbEntity
  8
0
100
AcDbLine
 62
7
  6
CONTINUOUS
 10
12.44
 20
0.887
 11
12.44
 21
0.637
  0
LINE
  5
499
100
AcDbEntity
  8
0
100
AcDbLine
 62
7
  6
CONTINUOUS
 10
12.44
 20
10.112
 11
12.44
 21
10.362
  0
LINE
  5
49A
100
AcDbEntity
  8
0
100
AcDbLine
 62
7
  6
CONTINUOUS
 10
16.53
 20
5.586103
 11
16.38
 21
5.4995
  0
LINE
  5
49B
100
AcDbEntity
  8
0
100
AcDbLine
 62
7
  6
CONTINUOUS
 10
16.38
 20
5.4995
 11
16.53
 21
5.412897
  0
LINE
  5
49C
100
AcDbEntity
  8
0
100
AcDbLine
 62
7
  6
CONTINUOUS
 10
12.83
 20
1.507
 11
12.83
 21
1.137
  0
LINE
  5
49D
100
AcDbEntity
  8
0
100
AcDbLine
 62
7
  6
CONTINUOUS
 10
16.38
 20
10.112
 11
0.62
 21
10.112
  0
LINE
  5
49E
100
AcDbEntity
  8
0
100
AcDbLine
 62
7
  6
CONTINUOUS
 10
8.586603
 20
10.262
 11
8.413397
 21
10.262
  0
LINE
  5
49F
100
AcDbEntity
  8
0
100
AcDbLine
 62
7
  6
CONTINUOUS
 10
14.205
 20
1.137
 11
14.205
 21
0.887
  0
LINE
  5
4A0
100
AcDbEntity
  8
0
100
AcDbLine
 62
7
  6
CONTINUOUS
 10
14.41
 20
0.887
 11
14.41
 21
0.637
  0
LINE
  5
4A1
100
AcDbEntity
  8
0
100
AcDbLine
 62
7
  6
CONTINUOUS
 10
14.41
 20
10.112
 11
14.41
 21
10.362
  0
LINE
  5
4A2
100
AcDbEntity
  8
0
100
AcDbLine
 62
7
  6
CONTINUOUS
 10
15.58
 20
1.507
 11
15.58
 21
1.137
  0
LINE
  5
4A3
100
AcDbEntity
  8
0
100
AcDbLine
 62
7
  6
CONTINUOUS
 10
16.38
 20
0.887
 11
16.38
 21
10.112
  0
LINE
  5
4A4
100
AcDbEntity
  8
0
100
AcDbLine
 62
7
  6
CONTINUOUS
 10
16.53
 20
5.412897
 11
16.53
 21
5.586103
  0
LINE
  5
4A5
100
AcDbEntity
  8
02___PRT_ALL_AXES
100
AcDbLine
 62
7
  6
CENTER
 10
2.7693087421
 20
5.6929143592
 11
2.7693087421
 21
4.6086623907
  0
LINE
  5
4A6
100
AcDbEntity
  8
02___PRT_ALL_AXES
100
AcDbLine
 62
7
  6
CENTER
 10
2.7693087421
 20
5.6929143592
 11
2.7693087421
 21
6.7771663277
  0
LINE
  5
4A7
100
AcDbEntity
  8
DATUM_CURVES
100
AcDbLine
 62
7
  6
CONTINUOUS
 10
2.4693090239
 20
5.6929143592
 11
2.4652327649
 21
5.6929143592
  0
LINE
  5
4A8
100
AcDbEntity
  8
02___PRT_ALL_AXES
100
AcDbLine
 62
7
  6
CENTER
 10
2.7693087421
 20
5.6929143592
 11
1.6850567736
 21
5.6929143592
  0
LINE
  5
4A9
100
AcDbEntity
  8
02___PRT_ALL_AXES
100
AcDbLine
 62
7
  6
CENTER
 10
2.7693087421
 20
5.6929143592
 11
3.8535607106
 21
5.6929143592
  0
LINE
  5
4AA
100
AcDbEntity
  8
DATUM_CURVES
100
AcDbLine
 62
7
  6
CONTINUOUS
 10
3.0693084603
 20
5.6929143592
 11
3.0733847193
 21
5.6929143592
  0
LINE
  5
4AB
100
AcDbEntity
  8
02___PRT_ALL_AXES
100
AcDbLine
 62
7
  6
CONTINUOUS
 10
4.7121254908
 20
5.9980324694
 11
4.7121254908
 21
5.3877962489
  0
LINE
  5
4AC
100
AcDbEntity
  8
02___PRT_ALL_AXES
100
AcDbLine
 62
7
  6
CONTINUOUS
 10
5.6478898181
 20
6.6771663277
 11
5.6478898181
 21
4.7086623907
  0
LINE
  5
4AD
100
AcDbEntity
  8
0
100
AcDbLine
 62
7
  6
CONTINUOUS
 10
6.120330763
 20
4.7086623907
 11
6.120330763
 21
6.6771663277
  0
LINE
  5
4AE
100
AcDbEntity
  8
0
100
AcDbLine
 62
7
  6
CONTINUOUS
 10
6.1597008417
 20
4.7480324694
 11
6.1597008417
 21
6.6377962489
  0
LINE
  5
4AF
100
AcDbEntity
  8
0
100
AcDbLine
 62
7
  6
CONTINUOUS
 10
6.1990709205
 20
6.2342529419
 11
6.1990709205
 21
5.1515757765
  0
LINE
  5
4B0
100
AcDbEntity
  8
02___PRT_ALL_AXES
100
AcDbLine
 62
7
  6
CONTINUOUS
 10
5.6478898181
 20
4.7086623907
 11
6.120330763
 21
4.7086623907
  0
LINE
  5
4B1
100
AcDbEntity
  8
0
100
AcDbLine
 62
7
  6
CONTINUOUS
 10
6.1990709205
 20
5.1515757765
 11
6.2814115175
 21
5.1515757765
  0
LINE
  5
4B2
100
AcDbEntity
  8
02___PRT_ALL_AXES
100
AcDbLine
 62
7
  6
CONTINUOUS
 10
6.2814115175
 20
5.1515757765
 11
6.8612040562
 21
5.1515757765
  0
LINE
  5
4B3
100
AcDbEntity
  8
0
100
AcDbLine
 62
7
  6
CONTINUOUS
 10
6.8612040562
 20
5.1515757765
 11
6.9077323378
 21
5.1515757765
  0
LINE
  5
4B4
100
AcDbEntity
  8
0
100
AcDbLine
 62
7
  6
CONTINUOUS
 10
6.9077323378
 20
5.1515757765
 11
6.9077323378
 21
6.2342529419
  0
LINE
  5
4B5
100
AcDbEntity
  8
0
100
AcDbLine
 62
7
  6
CONTINUOUS
 10
6.9471024165
 20
5.1909458552
 11
6.9471024165
 21
6.1948828631
  0
LINE
  5
4B6
100
AcDbEntity
  8
0
100
AcDbLine
 62
7
  6
CONTINUOUS
 10
6.9889134401
 20
5.4317849324
 11
6.9889134401
 21
5.954043786
  0
LINE
  5
4B7
100
AcDbEntity
  8
AXIS_COSMETIC_THREADS
100
AcDbLine
 62
7
  6
CONTINUOUS
 10
9.5140315504
 20
5.5764143592
 11
6.9889134401
 21
5.5764143592
  0
LINE
  5
4B8
100
AcDbEntity
  8
AXIS_COSMETIC_THREADS
100
AcDbLine
 62
7
  6
CONTINUOUS
 10
9.5140315504
 20
5.6279143592
 11
9.8140315504
 21
5.6279143592
  0
LINE
  5
4B9
100
AcDbEntity
  8
AXIS_COSMETIC_THREADS
100
AcDbLine
 62
7
  6
CONTINUOUS
 10
9.5140315504
 20
5.6779143592
 11
9.8140315504
 21
5.6779143592
  0
LINE
  5
4BA
100
AcDbEntity
  8
02___PRT_ALL_AXES
100
AcDbLine
 62
7
  6
CENTER
 10
9.9016100984
 20
5.6929143592
 11
4.6121254908
 21
5.6929143592
  0
LINE
  5
4BB
100
AcDbEntity
  8
AXIS_COSMETIC_THREADS
100
AcDbLine
 62
7
  6
CONTINUOUS
 10
9.5140315504
 20
5.7079143592
 11
9.8140315504
 21
5.7079143592
  0
LINE
  5
4BC
100
AcDbEntity
  8
0
100
AcDbLine
 62
7
  6
CONTINUOUS
 10
6.9471024165
 20
5.4076422669
 11
6.9889134401
 21
5.4317818726
  0
LINE
  5
4BD
100
AcDbEntity
  8
AXIS_COSMETIC_THREADS
100
AcDbLine
 62
7
  6
CONTINUOUS
 10
9.5140315504
 20
5.7579143592
 11
9.8140315504
 21
5.7579143592
  0
LINE
  5
4BE
100
AcDbEntity
  8
AXIS_COSMETIC_THREADS
100
AcDbLine
 62
7
  6
CONTINUOUS
 10
9.5140315504
 20
5.8094143592
 11
6.9889134401
 21
5.8094143592
  0
LINE
  5
4BF
100
AcDbEntity
  8
0
100
AcDbLine
 62
7
  6
CONTINUOUS
 10
6.9471024165
 20
5.9781864515
 11
6.9889134401
 21
5.9540468457
  0
LINE
  5
4C0
100
AcDbEntity
  8
0
100
AcDbLine
 62
7
  6
CONTINUOUS
 10
6.1990709205
 20
6.2342529419
 11
6.2554417217
 21
6.2342529419
  0
LINE
  5
4C1
100
AcDbEntity
  8
02___PRT_ALL_AXES
100
AcDbLine
 62
7
  6
CONTINUOUS
 10
6.2554417217
 20
6.2342529419
 11
6.8352342605
 21
6.2342529419
  0
LINE
  5
4C2
100
AcDbEntity
  8
0
100
AcDbLine
 62
7
  6
CONTINUOUS
 10
6.8352342605
 20
6.2342529419
 11
6.9077323378
 21
6.2342529419
  0
LINE
  5
4C3
100
AcDbEntity
  8
02___PRT_ALL_AXES
100
AcDbLine
 62
7
  6
CONTINUOUS
 10
5.6478898181
 20
6.6771663277
 11
6.120330763
 21
6.6771663277
  0
LINE
  5
4C4
100
AcDbEntity
  8
AXIS_COSMETIC_THREADS
100
AcDbLine
 62
7
  6
CONTINUOUS
 10
9.5140315504
 20
5.5764143592
 11
9.5140315504
 21
5.8094143592
  0
LINE
  5
4C5
100
AcDbEntity
  8
AXIS_COSMETIC_THREADS
100
AcDbLine
 62
7
  6
CONTINUOUS
 10
9.8140315504
 20
5.7579143592
 11
9.8140315504
 21
5.7079143592
  0
LINE
  5
4C6
100
AcDbEntity
  8
AXIS_COSMETIC_THREADS
100
AcDbLine
 62
7
  6
CONTINUOUS
 10
9.8140315504
 20
5.6779143592
 11
9.8140315504
 21
5.6279143592
  0
LINE
  5
4C7
100
AcDbEntity
  8
0
100
AcDbLine
 62
7
  6
CONTINUOUS
 10
11.4962823883
 20
5.1122056978
 11
11.7110208158
 21
5.1122056978
  0
LINE
  5
4C8
100
AcDbEntity
  8
02___PRT_ALL_AXES
100
AcDbLine
 62
7
  6
CONTINUOUS
 10
11.377667693
 20
5.1515757765
 11
11.4999542226
 21
5.1515757765
  0
LINE
  5
4C9
100
AcDbEntity
  8
0
100
AcDbLine
 62
7
  6
CONTINUOUS
 10
11.4999542226
 20
5.1515757765
 11
11.7073489815
 21
5.1515757765
  0
LINE
  5
4CA
100
AcDbEntity
  8
02___PRT_ALL_AXES
100
AcDbLine
 62
7
  6
CONTINUOUS
 10
11.7073489815
 20
5.1515757765
 11
11.8296355111
 21
5.1515757765
  0
LINE
  5
4CB
100
AcDbEntity
  8
0
100
AcDbLine
 62
7
  6
CONTINUOUS
 10
11.503760937
 20
5.1909458552
 11
11.7035422671
 21
5.1909458552
  0
LINE
  5
4CC
100
AcDbEntity
  8
02___PRT_ALL_AXES
100
AcDbLine
 62
7
  6
CENTER
 10
11.6036516021
 20
5.6929143592
 11
11.6036516021
 21
4.6086623907
  0
LINE
  5
4CD
100
AcDbEntity
  8
02___PRT_ALL_AXES
100
AcDbLine
 62
7
  6
CENTER
 10
11.6036516021
 20
5.6929143592
 11
11.6036516021
 21
6.7771663277
  0
LINE
  5
4CE
100
AcDbEntity
  8
02___PRT_ALL_AXES
100
AcDbLine
 62
7
  6
CENTER
 10
11.6036516021
 20
5.6929143592
 11
10.5193996336
 21
5.6929143592
  0
LINE
  5
4CF
100
AcDbEntity
  8
02___PRT_ALL_AXES
100
AcDbLine
 62
7
  6
CENTER
 10
11.6036516021
 20
5.6929143592
 11
12.6879035706
 21
5.6929143592
  0
LINE
  5
4D0
100
AcDbEntity
  8
0
100
AcDbLine
 62
7
  6
CONTINUOUS
 10
11.7035422671
 20
6.1948828631
 11
11.503760937
 21
6.1948828631
  0
LINE
  5
4D1
100
AcDbEntity
  8
02___PRT_ALL_AXES
100
AcDbLine
 62
7
  6
CONTINUOUS
 10
11.8296355111
 20
6.2342529419
 11
11.7073489815
 21
6.2342529419
  0
LINE
  5
4D2
100
AcDbEntity
  8
0
100
AcDbLine
 62
7
  6
CONTINUOUS
 10
11.7073489815
 20
6.2342529419
 11
11.4999542226
 21
6.2342529419
  0
LINE
  5
4D3
100
AcDbEntity
  8
02___PRT_ALL_AXES
100
AcDbLine
 62
7
  6
CONTINUOUS
 10
11.4999542226
 20
6.2342529419
 11
11.377667693
 21
6.2342529419
  0
LINE
  5
4D4
100
AcDbEntity
  8
0
100
AcDbLine
 62
7
  6
CONTINUOUS
 10
11.7110208158
 20
6.2736230206
 11
11.4962823883
 21
6.2736230206
  0
LINE
  5
4D5
100
AcDbEntity
  8
02___PRT_ALL_AXES
100
AcDbLine
 62
7
  6
CONTINUOUS
 10
13.7856598568
 20
7.7670618918
 11
13.7856598568
 21
7.3813127183
  0
LINE
  5
4D6
100
AcDbEntity
  8
02___PRT_ALL_AXES
100
AcDbLine
 62
7
  6
CONTINUOUS
 10
14.2273338164
 20
6.659861515
 11
14.2273338164
 21
6.6658888458
  0
LINE
  5
4D7
100
AcDbEntity
  8
02___PRT_ALL_AXES
100
AcDbLine
 62
7
  6
CONTINUOUS
 10
14.2273338164
 20
6.7080801616
 11
14.2273338164
 21
6.7141074925
  0
LINE
  5
4D8
100
AcDbEntity
  8
02___PRT_ALL_AXES
100
AcDbLine
 62
7
  6
CONTINUOUS
 10
14.2273338164
 20
6.7562988083
 11
14.2273338164
 21
6.7623261392
  0
LINE
  5
4D9
100
AcDbEntity
  8
02___PRT_ALL_AXES
100
AcDbLine
 62
7
  6
CONTINUOUS
 10
14.2273338164
 20
6.804517455
 11
14.2273338164
 21
6.8105447858
  0
LINE
  5
4DA
100
AcDbEntity
  8
02___PRT_ALL_AXES
100
AcDbLine
 62
7
  6
CONTINUOUS
 10
14.2273338164
 20
6.8527361017
 11
14.2273338164
 21
6.8587634325
  0
LINE
  5
4DB
100
AcDbEntity
  8
02___PRT_ALL_AXES
100
AcDbLine
 62
7
  6
CONTINUOUS
 10
14.3138038108
 20
6.8359113795
 11
14.3138038108
 21
6.827126922
  0
LINE
  5
4DC
100
AcDbEntity
  8
02___PRT_ALL_AXES
100
AcDbLine
 62
7
  6
CONTINUOUS
 10
14.3138038108
 20
6.7876927328
 11
14.3138038108
 21
6.7789082753
  0
LINE
  5
4DD
100
AcDbEntity
  8
02___PRT_ALL_AXES
100
AcDbLine
 62
7
  6
CONTINUOUS
 10
14.3138038108
 20
6.7394740861
 11
14.3138038108
 21
6.7306896286
  0
LINE
  5
4DE
100
AcDbEntity
  8
02___PRT_ALL_AXES
100
AcDbLine
 62
7
  6
CONTINUOUS
 10
14.3138038108
 20
6.6912554394
 11
14.3138038108
 21
6.682470982
  0
LINE
  5
4DF
100
AcDbEntity
  8
02___PRT_ALL_AXES
100
AcDbLine
 62
7
  6
CONTINUOUS
 10
14.3138038108
 20
6.6430367928
 11
14.3138038108
 21
6.6342523353
  0
LINE
  5
4E0
100
AcDbEntity
  8
0
100
AcDbLine
 62
7
  6
CONTINUOUS
 10
14.3138038108
 20
6.5948181461
 11
14.3138038108
 21
6.5597326141
  0
LINE
  5
4E1
100
AcDbEntity
  8
02___PRT_ALL_AXES
100
AcDbLine
 62
7
  6
CONTINUOUS
 10
14.4604546617
 20
6.8023679556
 11
14.4604546617
 21
6.7935834982
  0
LINE
  5
4E2
100
AcDbEntity
  8
02___PRT_ALL_AXES
100
AcDbLine
 62
7
  6
CONTINUOUS
 10
14.4604546617
 20
6.754149309
 11
14.4604546617
 21
6.7453648515
  0
LINE
  5
4E3
100
AcDbEntity
  8
02___PRT_ALL_AXES
100
AcDbLine
 62
7
  6
CONTINUOUS
 10
14.4604546617
 20
6.7059306623
 11
14.4604546617
 21
6.6971462048
  0
LINE
  5
4E4
100
AcDbEntity
  8
02___PRT_ALL_AXES
100
AcDbLine
 62
7
  6
CONTINUOUS
 10
14.4604546617
 20
6.6577120156
 11
14.4604546617
 21
6.6489275581
  0
LINE
  5
4E5
100
AcDbEntity
  8
02___PRT_ALL_AXES
100
AcDbLine
 62
7
  6
CONTINUOUS
 10
14.4604546617
 20
6.6094933689
 11
14.4604546617
 21
6.6007089114
  0
LINE
  5
4E6
100
AcDbEntity
  8
02___PRT_ALL_AXES
100
AcDbLine
 62
7
  6
CONTINUOUS
 10
14.4604546617
 20
6.5612747222
 11
14.4604546617
 21
6.5524902648
  0
LINE
  5
4E7
100
AcDbEntity
  8
0
100
AcDbLine
 62
7
  6
CONTINUOUS
 10
14.4604546617
 20
6.5130560756
 11
14.4604546617
 21
6.4750656212
  0
LINE
  5
4E8
100
AcDbEntity
  8
0
100
AcDbLine
 62
7
  6
CONTINUOUS
 10
14.4699118253
 20
8.5311157269
 11
14.4699118253
 21
8.5066206544
  0
LINE
  5
4E9
100
AcDbEntity
  8
02___PRT_ALL_AXES
100
AcDbLine
 62
7
  6
CONTINUOUS
 10
14.546924656
 20
6.776758776
 11
14.546924656
 21
6.7707314451
  0
LINE
  5
4EA
100
AcDbEntity
  8
02___PRT_ALL_AXES
100
AcDbLine
 62
7
  6
CONTINUOUS
 10
14.546924656
 20
6.7285401293
 11
14.546924656
 21
6.7225127984
  0
LINE
  5
4EB
100
AcDbEntity
  8
02___PRT_ALL_AXES
100
AcDbLine
 62
7
  6
CONTINUOUS
 10
14.546924656
 20
6.6803214826
 11
14.546924656
 21
6.6742941518
  0
LINE
  5
4EC
100
AcDbEntity
  8
02___PRT_ALL_AXES
100
AcDbLine
 62
7
  6
CONTINUOUS
 10
14.546924656
 20
6.6321028359
 11
14.546924656
 21
6.6260755051
  0
LINE
  5
4ED
100
AcDbEntity
  8
02___PRT_ALL_AXES
100
AcDbLine
 62
7
  6
CONTINUOUS
 10
14.546924656
 20
6.5838841892
 11
14.546924656
 21
6.5778568584
  0
LINE
  5
4EE
100
AcDbEntity
  8
02___PRT_ALL_AXES
100
AcDbLine
 62
7
  6
CONTINUOUS
 10
14.546924656
 20
6.5356655425
 11
14.546924656
 21
6.5296382117
  0
LINE
  5
4EF
100
AcDbEntity
  8
02___PRT_ALL_AXES
100
AcDbLine
 62
7
  6
CONTINUOUS
 10
14.546924656
 20
6.4874468959
 11
14.546924656
 21
6.481419565
  0
LINE
  5
4F0
100
AcDbEntity
  8
0
100
AcDbLine
 62
7
  6
CONTINUOUS
 10
14.4678311903
 20
6.4574914241
 11
14.4692909953
 21
6.4567907327
  0
LINE
  5
4F1
100
AcDbEntity
  8
0
100
AcDbLine
 62
7
  6
CONTINUOUS
 10
14.4678067702
 20
6.4575055227
 11
14.3227597591
 21
6.5412465591
  0
LINE
  5
4F2
100
AcDbEntity
  8
0
100
AcDbLine
 62
7
  6
CONTINUOUS
 10
14.4604546617
 20
6.4750656212
 11
14.3138038108
 21
6.5597326141
  0
LINE
  5
4F3
100
AcDbEntity
  8
0
100
AcDbLine
 62
7
  6
CONTINUOUS
 10
14.3203953034
 20
6.5429139408
 11
14.3227375234
 21
6.5412593967
  0
LINE
  5
4F4
100
AcDbEntity
  8
AXIS_COSMETIC_THREADS
100
AcDbLine
 62
7
  6
CONTINUOUS
 10
14.6534118253
 20
4.6103478224
 11
14.6534118253
 21
6.4118824911
  0
LINE
  5
4F5
100
AcDbEntity
  8
AXIS_COSMETIC_THREADS
100
AcDbLine
 62
7
  6
CONTINUOUS
 10
14.6883432828
 20
4.5623826364
 11
14.6883432828
 21
4.3653969613
  0
LINE
  5
4F6
100
AcDbEntity
  8
AXIS_COSMETIC_THREADS
100
AcDbLine
 62
7
  6
CONTINUOUS
 10
14.7383432828
 20
4.5457781406
 11
14.7383432828
 21
4.3653969613
  0
LINE
  5
4F7
100
AcDbEntity
  8
AXIS_COSMETIC_THREADS
100
AcDbLine
 62
7
  6
CONTINUOUS
 10
14.7449120608
 20
4.5446645993
 11
14.7449120608
 21
4.3327377009
  0
LINE
  5
4F8
100
AcDbEntity
  8
AXIS_COSMETIC_THREADS
100
AcDbLine
 62
7
  6
CONTINUOUS
 10
14.7949120608
 20
4.5446646388
 11
14.7949120608
 21
4.3327377009
  0
LINE
  5
4F9
100
AcDbEntity
  8
AXIS_COSMETIC_THREADS
100
AcDbLine
 62
7
  6
CONTINUOUS
 10
14.8014803678
 20
4.5457781345
 11
14.8014803678
 21
4.3653972333
  0
LINE
  5
4FA
100
AcDbEntity
  8
AXIS_COSMETIC_THREADS
100
AcDbLine
 62
7
  6
CONTINUOUS
 10
14.8514803678
 20
4.5623826825
 11
14.8514803678
 21
4.3653972333
  0
LINE
  5
4FB
100
AcDbEntity
  8
AXIS_COSMETIC_THREADS
100
AcDbLine
 62
7
  6
CONTINUOUS
 10
14.8864118253
 20
4.6103478224
 11
14.8864118253
 21
6.4115320752
  0
LINE
  5
4FC
100
AcDbEntity
  8
0
100
AcDbLine
 62
7
  6
CONTINUOUS
 10
15.0699118253
 20
8.5311157269
 11
15.0699118253
 21
8.5066206544
  0
LWPOLYLINE
  5
4FD
100
AcDbEntity
  8
DATUM_CURVES
100
AcDbPolyline
 62
7
  6
CONTINUOUS
 90
11
 70
0
 10
14.5175194818
 20
8.6238881557
 10
14.5144743271
 20
8.629170335
 10
14.5114291724
 20
8.6344987901
 10
14.5083840178
 20
8.639873044
 10
14.5053388631
 20
8.6452926199
 10
14.5022937085
 20
8.6507570418
 10
14.4992485538
 20
8.6562658346
 10
14.4962033992
 20
8.6618185246
 10
14.4931582445
 20
8.667414639
 10
14.4901130899
 20
8.6730537067
 10
14.4870679352
 20
8.6787352582
  0
LINE
  5
4FE
100
AcDbEntity
  8
0
100
AcDbLine
 62
7
  6
CONTINUOUS
 10
15.7541637937
 20
7.3813073961
 11
15.7541637938
 21
7.3813127183
  0
LINE
  5
4FF
100
AcDbEntity
  8
02___PRT_ALL_AXES
100
AcDbLine
 62
7
  6
CONTINUOUS
 10
15.7541637938
 20
7.7670618918
 11
15.7541637938
 21
7.3813127183
  0
CIRCLE
  5
500
100
AcDbEntity
  8
0
100
AcDbCircle
 62
7
  6
CONTINUOUS
 10
10.5342808475
 20
1.243294839
 40
0.252091
  0
CIRCLE
  5
501
100
AcDbEntity
  8
0
100
AcDbCircle
 62
7
  6
CONTINUOUS
 10
10.5342808475
 20
1.243294839
 40
0.182698
  0
CIRCLE
  5
502
100
AcDbEntity
  8
02___PRT_ALL_AXES
100
AcDbCircle
 62
7
  6
CONTINUOUS
 10
2.7693087421
 20
5.6929143592
 40
0.9842519685
  0
CIRCLE
  5
503
100
AcDbEntity
  8
02___PRT_ALL_AXES
100
AcDbCircle
 62
7
  6
CONTINUOUS
 10
2.7693087421
 20
5.6929143592
 40
0.3051181102
  0
CIRCLE
  5
504
100
AcDbEntity
  8
0
100
AcDbCircle
 62
7
  6
CONTINUOUS
 10
2.7693087421
 20
5.6929143592
 40
0.3
  0
ARC
  5
505
100
AcDbEntity
  8
02___PRT_ALL_AXES
100
AcDbCircle
 62
7
  6
CONTINUOUS
 10
112.3157229264
 20
7.3232746479
 40
105.9729440248
100
AcDbArc
 50
180.8815229562
 51
181.0361786399
  0
ARC
  5
506
100
AcDbEntity
  8
02___PRT_ALL_AXES
100
AcDbCircle
 62
7
  6
CONTINUOUS
 10
5.6478898181
 20
5.6929143592
 40
0.9842519685
100
AcDbArc
 50
90.0
 51
161.9407695092
  0
ARC
  5
507
100
AcDbEntity
  8
02___PRT_ALL_AXES
100
AcDbCircle
 62
7
  6
CONTINUOUS
 10
5.6478898181
 20
5.6929143592
 40
0.9842519685
100
AcDbArc
 50
198.0592304908
 51
270.0
  0
ARC
  5
508
100
AcDbEntity
  8
0
100
AcDbCircle
 62
7
  6
CONTINUOUS
 10
6.120330763
 20
6.6377962489
 40
0.0393700787
100
AcDbArc
 50
0.0
 51
90.0
  0
ARC
  5
509
100
AcDbEntity
  8
0
100
AcDbCircle
 62
7
  6
CONTINUOUS
 10
6.120330763
 20
4.7480324694
 40
0.0393700787
100
AcDbArc
 50
270.0
 51
360.0
  0
ARC
  5
50A
100
AcDbEntity
  8
0
100
AcDbCircle
 62
7
  6
CONTINUOUS
 10
6.1990709205
 20
6.2736230206
 40
0.0393700787
100
AcDbArc
 50
180.0
 51
270.0
  0
ARC
  5
50B
100
AcDbEntity
  8
0
100
AcDbCircle
 62
7
  6
CONTINUOUS
 10
6.1990709205
 20
5.1122056978
 40
0.0393700787
100
AcDbArc
 50
90.0
 51
180.0
  0
ARC
  5
50C
100
AcDbEntity
  8
0
100
AcDbCircle
 62
7
  6
CONTINUOUS
 10
6.9077323378
 20
5.1909458552
 40
0.0393700787
100
AcDbArc
 50
270.0
 51
360.0
  0
ARC
  5
50D
100
AcDbEntity
  8
0
100
AcDbCircle
 62
7
  6
CONTINUOUS
 10
6.9077323378
 20
6.1948828631
 40
0.0393700787
100
AcDbArc
 50
0.0
 51
90.0
  0
ARC
  5
50E
100
AcDbEntity
  8
0
100
AcDbCircle
 62
7
  6
CONTINUOUS
 10
11.2742578908
 20
5.6338592411
 40
0.0354330709
100
AcDbArc
 50
190.1642486217
 51
10.1642486217
  0
CIRCLE
  5
50F
100
AcDbEntity
  8
AXIS_COSMETIC_THREADS
100
AcDbCircle
 62
7
  6
CONTINUOUS
 10
11.5636516021
 20
5.6529143592
 40
0.025
  0
ARC
  5
510
100
AcDbEntity
  8
0
100
AcDbCircle
 62
7
  6
CONTINUOUS
 10
11.2742578908
 20
5.7519694773
 40
0.0354330709
100
AcDbArc
 50
349.8357513783
 51
169.8357513783
  0
CIRCLE
  5
511
100
AcDbEntity
  8
AXIS_COSMETIC_THREADS
100
AcDbCircle
 62
7
  6
CONTINUOUS
 10
11.5636516021
 20
5.7329143592
 40
0.025
  0
ARC
  5
512
100
AcDbEntity
  8
0
100
AcDbCircle
 62
7
  6
CONTINUOUS
 10
11.9330453133
 20
5.6338592411
 40
0.0354330709
100
AcDbArc
 50
169.8357513783
 51
349.8357513783
  0
CIRCLE
  5
513
100
AcDbEntity
  8
AXIS_COSMETIC_THREADS
100
AcDbCircle
 62
7
  6
CONTINUOUS
 10
11.6436516021
 20
5.6529143592
 40
0.025
  0
ARC
  5
514
100
AcDbEntity
  8
02___PRT_ALL_AXES
100
AcDbCircle
 62
7
  6
CONTINUOUS
 10
11.6036516021
 20
5.6929143592
 40
0.9842519685
100
AcDbArc
 50
276.1106712295
 51
83.8913550294
  0
CIRCLE
  5
515
100
AcDbEntity
  8
0
100
AcDbCircle
 62
7
  6
CONTINUOUS
 10
11.6036516021
 20
5.6929143592
 40
0.9842519685
  0
CIRCLE
  5
516
100
AcDbEntity
  8
0
100
AcDbCircle
 62
7
  6
CONTINUOUS
 10
11.6036516021
 20
5.6929143592
 40
0.9448818805
  0
ARC
  5
517
100
AcDbEntity
  8
0
100
AcDbCircle
 62
7
  6
CONTINUOUS
 10
11.6036516021
 20
5.6929143592
 40
0.5905511811
100
AcDbArc
 50
280.4753138432
 51
79.5246861568
  0
ARC
  5
518
100
AcDbEntity
  8
0
100
AcDbCircle
 62
7
  6
CONTINUOUS
 10
11.6036516021
 20
5.6929143592
 40
0.5905511811
100
AcDbArc
 50
100.4753138432
 51
259.5246861568
  0
ARC
  5
519
100
AcDbEntity
  8
0
100
AcDbCircle
 62
7
  6
CONTINUOUS
 10
11.6036516021
 20
5.6929143592
 40
0.5511811024
100
AcDbArc
 50
100.8440625637
 51
259.1559374363
  0
ARC
  5
51A
100
AcDbEntity
  8
0
100
AcDbCircle
 62
7
  6
CONTINUOUS
 10
11.6036516021
 20
5.6929143592
 40
0.5511811024
100
AcDbArc
 50
280.8440625637
 51
79.1559374363
  0
ARC
  5
51B
100
AcDbEntity
  8
0
100
AcDbCircle
 62
7
  6
CONTINUOUS
 10
11.6036516021
 20
5.6929143592
 40
0.5118110236
100
AcDbArc
 50
281.2547126182
 51
78.7452873818
  0
ARC
  5
51C
100
AcDbEntity
  8
0
100
AcDbCircle
 62
7
  6
CONTINUOUS
 10
11.6036516021
 20
5.6929143592
 40
0.5118110236
100
AcDbArc
 50
101.2547126182
 51
258.7452873818
  0
CIRCLE
  5
51D
100
AcDbEntity
  8
0
100
AcDbCircle
 62
7
  6
CONTINUOUS
 10
11.6036516021
 20
5.6929143592
 40
0.374015748
  0
ARC
  5
51E
100
AcDbEntity
  8
02___PRT_ALL_AXES
100
AcDbCircle
 62
7
  6
CONTINUOUS
 10
11.6036516021
 20
5.6929143592
 40
0.3700787402
100
AcDbArc
 50
349.8357513783
 51
10.1642486217
  0
ARC
  5
51F
100
AcDbEntity
  8
02___PRT_ALL_AXES
100
AcDbCircle
 62
7
  6
CONTINUOUS
 10
11.6036516021
 20
5.6929143592
 40
0.3700787402
100
AcDbArc
 50
169.8357513783
 51
190.1642486217
  0
ARC
  5
520
100
AcDbEntity
  8
0
100
AcDbCircle
 62
7
  6
CONTINUOUS
 10
11.6036516021
 20
5.6929143592
 40
0.3641732283
100
AcDbArc
 50
166.4060212309
 51
193.5939787691
  0
ARC
  5
521
100
AcDbEntity
  8
0
100
AcDbCircle
 62
7
  6
CONTINUOUS
 10
11.6036516021
 20
5.6929143592
 40
0.3641732283
100
AcDbArc
 50
346.4060212309
 51
13.5939787691
  0
ARC
  5
522
100
AcDbEntity
  8
0
100
AcDbCircle
 62
7
  6
CONTINUOUS
 10
11.6036516021
 20
5.6929143592
 40
0.3444871417
100
AcDbArc
 50
164.063010877
 51
195.9368540231
  0
ARC
  5
523
100
AcDbEntity
  8
0
100
AcDbCircle
 62
7
  6
CONTINUOUS
 10
11.6036516021
 20
5.6929143592
 40
0.3444871417
100
AcDbArc
 50
344.063010877
 51
15.9368540231
  0
ARC
  5
524
100
AcDbEntity
  8
0
100
AcDbCircle
 62
7
  6
CONTINUOUS
 10
11.6036516021
 20
5.6929143592
 40
0.331490896
100
AcDbArc
 50
163.7941853327
 51
196.2058145488
  0
ARC
  5
525
100
AcDbEntity
  8
0
100
AcDbCircle
 62
7
  6
CONTINUOUS
 10
11.6036516021
 20
5.6929143592
 40
0.331490896
100
AcDbArc
 50
343.7941853327
 51
16.2058145488
  0
ARC
  5
526
100
AcDbEntity
  8
0
100
AcDbCircle
 62
7
  6
CONTINUOUS
 10
11.6036516021
 20
5.6929143592
 40
0.3051181102
100
AcDbArc
 50
166.3249048708
 51
193.6751942905
  0
ARC
  5
527
100
AcDbEntity
  8
0
100
AcDbCircle
 62
7
  6
CONTINUOUS
 10
11.6036516021
 20
5.6929143592
 40
0.3051181102
100
AcDbArc
 50
346.3249048708
 51
13.6751942905
  0
ARC
  5
528
100
AcDbEntity
  8
0
100
AcDbCircle
 62
7
  6
CONTINUOUS
 10
11.6036516021
 20
5.6929143592
 40
0.3051181102
100
AcDbArc
 50
193.6751942905
 51
346.3249048708
  0
ARC
  5
529
100
AcDbEntity
  8
0
100
AcDbCircle
 62
7
  6
CONTINUOUS
 10
11.6036516021
 20
5.6929143592
 40
0.3051181102
100
AcDbArc
 50
13.6751942905
 51
166.3249048708
  0
ARC
  5
52A
100
AcDbEntity
  8
0
100
AcDbCircle
 62
7
  6
CONTINUOUS
 10
11.6036516021
 20
5.6929143592
 40
0.3
100
AcDbArc
 50
349.5088606984
 51
10.4911297273
  0
ARC
  5
52B
100
AcDbEntity
  8
0
100
AcDbCircle
 62
7
  6
CONTINUOUS
 10
11.6036516021
 20
5.6929143592
 40
0.3
100
AcDbArc
 50
169.5088606984
 51
190.4911297273
  0
ARC
  5
52C
100
AcDbEntity
  8
0
100
AcDbCircle
 62
7
  6
CONTINUOUS
 10
11.6036516021
 20
5.6929143592
 40
0.2992125984
100
AcDbArc
 50
349.8357513783
 51
10.1642486217
  0
ARC
  5
52D
100
AcDbEntity
  8
0
100
AcDbCircle
 62
7
  6
CONTINUOUS
 10
11.6036516021
 20
5.6929143592
 40
0.2992125984
100
AcDbArc
 50
169.8357513783
 51
190.1642486217
  0
CIRCLE
  5
52E
100
AcDbEntity
  8
0
100
AcDbCircle
 62
7
  6
CONTINUOUS
 10
11.6036516021
 20
5.6929143592
 40
0.29
  0
CIRCLE
  5
52F
100
AcDbEntity
  8
0
100
AcDbCircle
 62
7
  6
CONTINUOUS
 10
11.6036516021
 20
5.6929143592
 40
0.2611324865
  0
CIRCLE
  5
530
100
AcDbEntity
  8
0
100
AcDbCircle
 62
7
  6
CONTINUOUS
 10
11.6036516021
 20
5.6929143592
 40
0.17
  0
CIRCLE
  5
531
100
AcDbEntity
  8
AXIS_COSMETIC_THREADS
100
AcDbCircle
 62
7
  6
CONTINUOUS
 10
11.6036516021
 20
5.6929143592
 40
0.1165
  0
CIRCLE
  5
532
100
AcDbEntity
  8
AXIS_COSMETIC_THREADS
100
AcDbCircle
 62
7
  6
CONTINUOUS
 10
11.6436516021
 20
5.7329143592
 40
0.025
  0
ARC
  5
533
100
AcDbEntity
  8
0
100
AcDbCircle
 62
7
  6
CONTINUOUS
 10
11.9330453133
 20
5.7519694773
 40
0.0354330709
100
AcDbArc
 50
10.1642486217
 51
190.1642486217
  0
ARC
  5
534
100
AcDbEntity
  8
02___PRT_ALL_AXES
100
AcDbCircle
 62
7
  6
CONTINUOUS
 10
13.9809121395
 20
5.8537750503
 40
0.8486768877
100
AcDbArc
 50
72.6620404266
 51
73.1205002489
  0
ARC
  5
535
100
AcDbEntity
  8
02___PRT_ALL_AXES
100
AcDbCircle
 62
7
  6
CONTINUOUS
 10
13.9914752204
 20
5.9836797143
 40
0.8135843732
100
AcDbArc
 50
66.6602023711
 51
73.147994958
  0
ARC
  5
536
100
AcDbEntity
  8
02___PRT_ALL_AXES
100
AcDbCircle
 62
7
  6
CONTINUOUS
 10
13.9914752204
 20
6.031898361
 40
0.8135843732
100
AcDbArc
 50
66.6602023709
 51
73.1479949578
  0
ARC
  5
537
100
AcDbEntity
  8
02___PRT_ALL_AXES
100
AcDbCircle
 62
7
  6
CONTINUOUS
 10
13.9914752204
 20
6.0801170076
 40
0.8135843732
100
AcDbArc
 50
66.660202371
 51
73.1479949579
  0
ARC
  5
538
100
AcDbEntity
  8
02___PRT_ALL_AXES
100
AcDbCircle
 62
7
  6
CONTINUOUS
 10
13.9914758735
 20
5.9354628525
 40
0.8135824756
100
AcDbArc
 50
66.6601947969
 51
73.1480025322
  0
ARC
  5
539
100
AcDbEntity
  8
02___PRT_ALL_AXES
100
AcDbCircle
 62
7
  6
CONTINUOUS
 10
13.9926867254
 20
5.8904543648
 40
0.8101552959
100
AcDbArc
 50
66.648876287
 51
72.6838854036
  0
ARC
  5
53A
100
AcDbEntity
  8
02___PRT_ALL_AXES
100
AcDbCircle
 62
7
  6
CONTINUOUS
 10
14.4476129688
 20
7.0135076902
 40
0.2727093849
100
AcDbArc
 50
214.4767513631
 51
216.1239812458
  0
ARC
  5
53B
100
AcDbEntity
  8
02___PRT_ALL_AXES
100
AcDbCircle
 62
7
  6
CONTINUOUS
 10
14.4476044866
 20
6.9652829761
 40
0.2726989565
100
AcDbArc
 50
214.4728446781
 51
216.124002174
  0
ARC
  5
53C
100
AcDbEntity
  8
02___PRT_ALL_AXES
100
AcDbCircle
 62
7
  6
CONTINUOUS
 10
14.4442437864
 20
6.8664744404
 40
0.2685864528
100
AcDbArc
 50
213.3763058286
 51
216.1380591879
  0
ARC
  5
53D
100
AcDbEntity
  8
02___PRT_ALL_AXES
100
AcDbCircle
 62
7
  6
CONTINUOUS
 10
14.4431959158
 20
6.8717717464
 40
0.2673096761
100
AcDbArc
 50
212.9530226415
 51
216.1441458607
  0
ARC
  5
53E
100
AcDbEntity
  8
02___PRT_ALL_AXES
100
AcDbCircle
 62
7
  6
CONTINUOUS
 10
14.4315754638
 20
6.8642720041
 40
0.2534792666
100
AcDbArc
 50
210.4529084249
 51
212.9593062423
  0
ARC
  5
53F
100
AcDbEntity
  8
02___PRT_ALL_AXES
100
AcDbCircle
 62
7
  6
CONTINUOUS
 10
14.4295203227
 20
6.8569511638
 40
0.251052201
100
AcDbArc
 50
209.2374914367
 51
213.4099104409
  0
ARC
  5
540
100
AcDbEntity
  8
02___PRT_ALL_AXES
100
AcDbCircle
 62
7
  6
CONTINUOUS
 10
14.3813951223
 20
6.9321340669
 40
0.1982690846
100
AcDbArc
 50
193.7518007582
 51
194.0561095464
  0
ARC
  5
541
100
AcDbEntity
  8
02___PRT_ALL_AXES
100
AcDbCircle
 62
7
  6
CONTINUOUS
 10
14.381395122
 20
6.8839154202
 40
0.1982690843
100
AcDbArc
 50
193.7518007581
 51
194.0561095467
  0
ARC
  5
542
100
AcDbEntity
  8
02___PRT_ALL_AXES
100
AcDbCircle
 62
7
  6
CONTINUOUS
 10
14.3803022827
 20
6.8354296655
 40
0.1971440934
100
AcDbArc
 50
192.3765728035
 51
194.0579433415
  0
ARC
  5
543
100
AcDbEntity
  8
02___PRT_ALL_AXES
100
AcDbCircle
 62
7
  6
CONTINUOUS
 10
14.3800543316
 20
6.93181018
 40
0.196889735
100
AcDbArc
 50
192.3758992571
 51
193.753001251
  0
ARC
  5
544
100
AcDbEntity
  8
02___PRT_ALL_AXES
100
AcDbCircle
 62
7
  6
CONTINUOUS
 10
14.3800543316
 20
6.8835915333
 40
0.196889735
100
AcDbArc
 50
192.375899257
 51
193.753001251
  0
ARC
  5
545
100
AcDbEntity
  8
02___PRT_ALL_AXES
100
AcDbCircle
 62
7
  6
CONTINUOUS
 10
14.3746724383
 20
6.9307159515
 40
0.1913984021
100
AcDbArc
 50
186.614673295
 51
192.4012455445
  0
ARC
  5
546
100
AcDbEntity
  8
02___PRT_ALL_AXES
100
AcDbCircle
 62
7
  6
CONTINUOUS
 10
14.3746724383
 20
6.8824973048
 40
0.1913984021
100
AcDbArc
 50
186.614673295
 51
192.4012455445
  0
ARC
  5
547
100
AcDbEntity
  8
02___PRT_ALL_AXES
100
AcDbCircle
 62
7
  6
CONTINUOUS
 10
14.3746724383
 20
6.8342786581
 40
0.1913984021
100
AcDbArc
 50
186.614673295
 51
192.4012455444
  0
ARC
  5
548
100
AcDbEntity
  8
02___PRT_ALL_AXES
100
AcDbCircle
 62
7
  6
CONTINUOUS
 10
14.3722921703
 20
6.9304155393
 40
0.1889993754
100
AcDbArc
 50
186.2023339303
 51
186.6073292069
  0
ARC
  5
549
100
AcDbEntity
  8
02___PRT_ALL_AXES
100
AcDbCircle
 62
7
  6
CONTINUOUS
 10
14.3711725533
 20
6.8820784524
 40
0.187873567
100
AcDbArc
 50
180.0090481976
 51
186.6107370527
  0
ARC
  5
54A
100
AcDbEntity
  8
02___PRT_ALL_AXES
100
AcDbCircle
 62
7
  6
CONTINUOUS
 10
14.3711725533
 20
6.8338598058
 40
0.187873567
100
AcDbArc
 50
180.0090481976
 51
186.6107370527
  0
ARC
  5
54B
100
AcDbEntity
  8
02___PRT_ALL_AXES
100
AcDbCircle
 62
7
  6
CONTINUOUS
 10
14.3710794406
 20
6.7916139977
 40
0.1877804536
100
AcDbArc
 50
173.6905060835
 51
179.9924259432
  0
ARC
  5
54C
100
AcDbEntity
  8
02___PRT_ALL_AXES
100
AcDbCircle
 62
7
  6
CONTINUOUS
 10
14.3710794406
 20
6.8398326443
 40
0.1877804536
100
AcDbArc
 50
173.6905060835
 51
179.9924259432
  0
ARC
  5
54D
100
AcDbEntity
  8
02___PRT_ALL_AXES
100
AcDbCircle
 62
7
  6
CONTINUOUS
 10
14.3710794406
 20
6.888051291
 40
0.1877804536
100
AcDbArc
 50
173.6905060835
 51
179.9924259432
  0
ARC
  5
54E
100
AcDbEntity
  8
0
100
AcDbCircle
 62
7
  6
CONTINUOUS
 10
14.6226994649
 20
8.5586250931
 40
0.160271821
100
AcDbArc
 50
218.870684984
 51
219.8926217799
  0
ARC
  5
54F
100
AcDbEntity
  8
0
100
AcDbCircle
 62
7
  6
CONTINUOUS
 10
14.617985521
 20
8.5548368626
 40
0.1542243526
100
AcDbArc
 50
216.2787849364
 51
218.8740003598
  0
ARC
  5
550
100
AcDbEntity
  8
02___PRT_ALL_AXES
100
AcDbCircle
 62
7
  6
CONTINUOUS
 10
14.5740720515
 20
8.5325060594
 40
0.1094201167
100
AcDbArc
 50
194.0122297607
 51
196.9243324794
  0
ARC
  5
551
100
AcDbEntity
  8
0
100
AcDbCircle
 62
7
  6
CONTINUOUS
 10
14.5700731154
 20
8.5066240533
 40
0.1001612615
100
AcDbArc
 50
180.0008240955
 51
183.3694304517
  0
ARC
  5
552
100
AcDbEntity
  8
AXIS_COSMETIC_THREADS
100
AcDbCircle
 62
7
  6
CONTINUOUS
 10
14.7709658246
 20
4.7334855374
 40
0.1903434051
100
AcDbArc
 50
277.228251696
 51
279.2491233917
  0
ARC
  5
553
100
AcDbEntity
  8
AXIS_COSMETIC_THREADS
100
AcDbCircle
 62
7
  6
CONTINUOUS
 10
14.7687377458
 20
4.7326541148
 40
0.1895034814
100
AcDbArc
 50
260.7463071005
 51
262.7759863834
  0
ARC
  5
554
100
AcDbEntity
  8
AXIS_COSMETIC_THREADS
100
AcDbCircle
 62
7
  6
CONTINUOUS
 10
14.7971486999
 20
4.6582982413
 40
0.1102851947
100
AcDbArc
 50
299.544623916
 51
299.9992867104
  0
ARC
  5
555
100
AcDbEntity
  8
02___PRT_ALL_AXES
100
AcDbCircle
 62
7
  6
CONTINUOUS
 10
15.1746089144
 20
7.8190911729
 40
1.4970449261
100
AcDbArc
 50
230.7457101719
 51
231.3062737534
  0
ARC
  5
556
100
AcDbEntity
  8
0
100
AcDbCircle
 62
7
  6
CONTINUOUS
 10
14.9087552083
 20
7.9335316132
 40
1.1167075076
100
AcDbArc
 50
293.5722732885
 51
293.7060113524
  0
ARC
  5
557
100
AcDbEntity
  8
02___PRT_ALL_AXES
100
AcDbCircle
 62
7
  6
CONTINUOUS
 10
14.7565959961
 20
7.8083536548
 40
1.0119214745
100
AcDbArc
 50
267.1945596044
 51
271.1305400484
  0
ARC
  5
558
100
AcDbEntity
  8
02___PRT_ALL_AXES
100
AcDbCircle
 62
7
  6
CONTINUOUS
 10
14.7565880359
 20
7.4699035021
 40
1.0049864996
100
AcDbArc
 50
264.2231589172
 51
272.6166580332
  0
ARC
  5
559
100
AcDbEntity
  8
02___PRT_ALL_AXES
100
AcDbCircle
 62
7
  6
CONTINUOUS
 10
14.7683768889
 20
7.7670560092
 40
0.9827170322
100
AcDbArc
 50
178.550601521
 51
179.9996570238
  0
ARC
  5
55A
100
AcDbEntity
  8
02___PRT_ALL_AXES
100
AcDbCircle
 62
7
  6
CONTINUOUS
 10
14.7568422584
 20
7.5940995621
 40
0.9473610663
100
AcDbArc
 50
262.9739200213
 51
276.0788311221
  0
ARC
  5
55B
100
AcDbEntity
  8
02___PRT_ALL_AXES
100
AcDbCircle
 62
7
  6
CONTINUOUS
 10
14.7827832532
 20
7.3082846397
 40
0.8135843764
100
AcDbArc
 50
246.660202384
 51
253.147994945
  0
ARC
  5
55C
100
AcDbEntity
  8
02___PRT_ALL_AXES
100
AcDbCircle
 62
7
  6
CONTINUOUS
 10
14.7827832532
 20
7.3565032863
 40
0.8135843764
100
AcDbArc
 50
246.660202384
 51
253.147994945
  0
ARC
  5
55D
100
AcDbEntity
  8
02___PRT_ALL_AXES
100
AcDbCircle
 62
7
  6
CONTINUOUS
 10
14.7827832532
 20
7.404721933
 40
0.8135843764
100
AcDbArc
 50
246.6602023839
 51
253.1479949449
  0
ARC
  5
55E
100
AcDbEntity
  8
02___PRT_ALL_AXES
100
AcDbCircle
 62
7
  6
CONTINUOUS
 10
14.7827832532
 20
7.4529405797
 40
0.8135843764
100
AcDbArc
 50
246.660202384
 51
253.147994945
  0
ARC
  5
55F
100
AcDbEntity
  8
02___PRT_ALL_AXES
100
AcDbCircle
 62
7
  6
CONTINUOUS
 10
14.7827832532
 20
7.5493778731
 40
0.8135843764
100
AcDbArc
 50
246.6602023839
 51
253.1479949449
  0
ARC
  5
560
100
AcDbEntity
  8
02___PRT_ALL_AXES
100
AcDbCircle
 62
7
  6
CONTINUOUS
 10
14.7827832403
 20
7.2600659579
 40
0.8135843391
100
AcDbArc
 50
246.660202235
 51
253.1479950939
  0
ARC
  5
561
100
AcDbEntity
  8
02___PRT_ALL_AXES
100
AcDbCircle
 62
7
  6
CONTINUOUS
 10
14.7827826049
 20
7.5011574546
 40
0.8135824928
100
AcDbArc
 50
246.6601948655
 51
253.1480024633
  0
ARC
  5
562
100
AcDbEntity
  8
0
100
AcDbCircle
 62
7
  6
CONTINUOUS
 10
15.4208783247
 20
7.3816115605
 40
0.3332851696
100
AcDbArc
 50
348.4274934612
 51
359.9477104321
  0
ARC
  5
563
100
AcDbEntity
  8
02___PRT_ALL_AXES
100
AcDbCircle
 62
7
  6
CONTINUOUS
 10
15.0903833385
 20
7.0261127889
 40
0.2709708325
100
AcDbArc
 50
327.8278446956
 51
331.8027134847
  0
ARC
  5
564
100
AcDbEntity
  8
02___PRT_ALL_AXES
100
AcDbCircle
 62
7
  6
CONTINUOUS
 10
15.1417036863
 20
6.9077292232
 40
0.2149556251
100
AcDbArc
 50
347.0854032376
 51
347.3704161329
  0
ARC
  5
565
100
AcDbEntity
  8
02___PRT_ALL_AXES
100
AcDbCircle
 62
7
  6
CONTINUOUS
 10
15.142721101
 20
6.8592828327
 40
0.2139130463
100
AcDbArc
 50
347.0839548065
 51
348.6325927258
  0
ARC
  5
566
100
AcDbEntity
  8
02___PRT_ALL_AXES
100
AcDbCircle
 62
7
  6
CONTINUOUS
 10
15.1429565277
 20
6.9074520964
 40
0.2136725045
100
AcDbArc
 50
347.3694752863
 51
348.6331321677
  0
ARC
  5
567
100
AcDbEntity
  8
02___PRT_ALL_AXES
100
AcDbCircle
 62
7
  6
CONTINUOUS
 10
15.1470867178
 20
6.8584299895
 40
0.2094649741
100
AcDbArc
 50
348.6259326312
 51
354.2176935536
  0
ARC
  5
568
100
AcDbEntity
  8
02___PRT_ALL_AXES
100
AcDbCircle
 62
7
  6
CONTINUOUS
 10
15.1470867178
 20
6.9066486362
 40
0.2094649741
100
AcDbArc
 50
348.6259326312
 51
354.2176935537
  0
ARC
  5
569
100
AcDbEntity
  8
02___PRT_ALL_AXES
100
AcDbCircle
 62
7
  6
CONTINUOUS
 10
15.1510027065
 20
6.863942562
 40
0.2055219568
100
AcDbArc
 50
0.0067545286
 51
6.03968068
  0
ARC
  5
56A
100
AcDbEntity
  8
02___PRT_ALL_AXES
100
AcDbCircle
 62
7
  6
CONTINUOUS
 10
15.1510027065
 20
6.8157239154
 40
0.2055219568
100
AcDbArc
 50
0.0067545286
 51
6.03968068
  0
ARC
  5
56B
100
AcDbEntity
  8
02___PRT_ALL_AXES
100
AcDbCircle
 62
7
  6
CONTINUOUS
 10
15.1510878811
 20
6.8579595363
 40
0.2054367818
100
AcDbArc
 50
354.2358068362
 51
359.9944007598
  0
ARC
  5
56C
100
AcDbEntity
  8
02___PRT_ALL_AXES
100
AcDbCircle
 62
7
  6
CONTINUOUS
 10
15.1510878811
 20
6.906178183
 40
0.2054367818
100
AcDbArc
 50
354.2358068362
 51
359.9944007597
  0
ARC
  5
56D
100
AcDbEntity
  8
0
100
AcDbCircle
 62
7
  6
CONTINUOUS
 10
14.9176382717
 20
8.5582032811
 40
0.1596069849
100
AcDbArc
 50
320.0997101194
 51
321.1314264598
  0
ARC
  5
56E
100
AcDbEntity
  8
0
100
AcDbCircle
 62
7
  6
CONTINUOUS
 10
14.9230246107
 20
8.5539230309
 40
0.1527272447
100
AcDbArc
 50
321.1135794005
 51
323.7156372218
  0
ARC
  5
56F
100
AcDbEntity
  8
02___PRT_ALL_AXES
100
AcDbCircle
 62
7
  6
CONTINUOUS
 10
14.96526967
 20
8.5326237853
 40
0.1099157051
100
AcDbArc
 50
342.120053663
 51
346.1448366467
  0
ARC
  5
570
100
AcDbEntity
  8
0
100
AcDbCircle
 62
7
  6
CONTINUOUS
 10
14.9697199992
 20
8.5066243376
 40
0.1001917977
100
AcDbArc
 50
355.5918010798
 51
359.9967738849
  0
SPLINE
  5
571
100
AcDbEntity
  8
02___PRT_ALL_AXES
100
AcDbSpline
 62
7
  6
CONTINUOUS
 70
0
 71
3
 72
23
 73
19
 74
0
 42
0.0000001
 43
0.0000001
 44
0.0000000001
 40
0.0
 40
0.0
 40
0.0
 40
0.0
 40
0.0101455754
 40
0.0239361843
 40
0.0620116039
 40
0.1131057467
 40
0.17570245
 40
0.2870156529
 40
0.4125364545
 40
0.5438956296
 40
0.672323931
 40
0.7892555141
 40
0.8409293857
 40
0.886894551
 40
0.9263825762
 40
0.9587329982
 40
0.9834093123
 40
1.0
 40
1.0
 40
1.0
 40
1.0
 10
6.3144968398
 20
6.2342529419
 30
0.0
 10
6.3148274666
 20
6.2306051663
 30
0.0
 10
6.3154248278
 20
6.2219830931
 30
0.0
 10
6.3166023859
 20
6.1996267845
 30
0.0
 10
6.3179620595
 20
6.1624792846
 30
0.0
 10
6.3195272946
 20
6.1077116559
 30
0.0
 10
6.3214320382
 20
6.0265031722
 30
0.0
 10
6.3235638973
 20
5.9184244441
 30
0.0
 10
6.3259122793
 20
5.7855210158
 30
0.0
 10
6.3282664807
 20
5.6464379731
 30
0.0
 10
6.3306188316
 20
5.5104562218
 30
0.0
 10
6.3326387084
 20
5.4032407458
 30
0.0
 10
6.334309864
 20
5.325795043
 30
0.0
 10
6.3355062649
 20
5.2763040763
 30
0.0
 10
6.3366983183
 20
5.2337917846
 30
0.0
 10
6.3378707949
 20
5.198966939
 30
0.0
 10
6.3390372679
 20
5.1724165335
 30
0.0
 10
6.3399259737
 20
5.1575408502
 30
0.0
 10
6.3404666356
 20
5.1515757765
 30
0.0
  0
SPLINE
  5
572
100
AcDbEntity
  8
02___PRT_ALL_AXES
100
AcDbSpline
 62
7
  6
CONTINUOUS
 70
0
 71
3
 72
23
 73
19
 74
0
 42
0.0000001
 43
0.0000001
 44
0.0000000001
 40
0.0
 40
0.0
 40
0.0
 40
0.0
 40
0.0101451951
 40
0.0239351166
 40
0.0620091597
 40
0.1131024239
 40
0.1756996811
 40
0.2870162682
 40
0.4125361568
 40
0.5438931362
 40
0.6723206307
 40
0.7892549536
 40
0.8409300467
 40
0.8868953263
 40
0.9263830597
 40
0.9587332815
 40
0.9834093968
 40
1.0
 40
1.0
 40
1.0
 40
1.0
 10
6.5507173123
 20
6.2342529419
 30
0.0
 10
6.5510479266
 20
6.230605303
 30
0.0
 10
6.5516452849
 20
6.2219836162
 30
0.0
 10
6.5528227778
 20
6.1996281874
 30
0.0
 10
6.5541824571
 20
6.1624817514
 30
0.0
 10
6.5557476853
 20
6.1077147364
 30
0.0
 10
6.5576524731
 20
6.0265051491
 30
0.0
 10
6.5597843537
 20
5.918425329
 30
0.0
 10
6.5621327382
 20
5.7855218013
 30
0.0
 10
6.5644869157
 20
5.6464401719
 30
0.0
 10
6.5668392638
 20
5.5104585154
 30
0.0
 10
6.5688591551
 20
5.4032419007
 30
0.0
 10
6.570530344
 20
5.3257947269
 30
0.0
 10
6.571726755
 20
5.2763033834
 30
0.0
 10
6.5729188075
 20
5.233791228
 30
0.0
 10
6.5740912801
 20
5.1989666318
 30
0.0
 10
6.5752577457
 20
5.1724164007
 30
0.0
 10
6.5761464489
 20
5.1575408199
 30
0.0
 10
6.576687108
 20
5.1515757765
 30
0.0
  0
SPLINE
  5
573
100
AcDbEntity
  8
02___PRT_ALL_AXES
100
AcDbSpline
 62
7
  6
CONTINUOUS
 70
0
 71
3
 72
23
 73
19
 74
0
 42
0.0000001
 43
0.0000001
 44
0.0000000001
 40
0.0
 40
0.0
 40
0.0
 40
0.0
 40
0.0101454565
 40
0.0239357241
 40
0.0620099602
 40
0.113103426
 40
0.1757013846
 40
0.2870190003
 40
0.4125403746
 40
0.5438957831
 40
0.6723218346
 40
0.7892570294
 40
0.8409325144
 40
0.8868981865
 40
0.9263858219
 40
0.9587352425
 40
0.9834099789
 40
1.0
 40
1.0
 40
1.0
 40
1.0
 10
6.3297079932
 20
5.1515757765
 30
0.0
 10
6.3293773703
 20
5.1552235093
 30
0.0
 10
6.3287800133
 20
5.1638454162
 30
0.0
 10
6.3276024893
 20
5.1862011325
 30
0.0
 10
6.326242825
 20
5.2233478371
 30
0.0
 10
6.324677586
 20
5.2781152473
 30
0.0
 10
6.3227727909
 20
5.3593255321
 30
0.0
 10
6.3206408924
 20
5.467406513
 30
0.0
 10
6.3182925091
 20
5.6003103814
 30
0.0
 10
6.3159383401
 20
5.7393914591
 30
0.0
 10
6.3135860032
 20
5.8753723424
 30
0.0
 10
6.3115661102
 20
5.9825888924
 30
0.0
 10
6.3098949008
 20
6.0600366638
 30
0.0
 10
6.3086984726
 20
6.1095282548
 30
0.0
 10
6.3075064171
 20
6.1520402272
 30
0.0
 10
6.3063339475
 20
6.1868640004
 30
0.0
 10
6.3051675217
 20
6.2134132354
 30
0.0
 10
6.3042788376
 20
6.2282881078
 30
0.0
 10
6.3037381975
 20
6.2342529419
 30
0.0
  0
SPLINE
  5
574
100
AcDbEntity
  8
02___PRT_ALL_AXES
100
AcDbSpline
 62
7
  6
CONTINUOUS
 70
0
 71
3
 72
23
 73
19
 74
0
 42
0.0000001
 43
0.0000001
 44
0.0000000001
 40
0.0
 40
0.0
 40
0.0
 40
0.0
 40
0.0101455754
 40
0.0239361843
 40
0.0620116039
 40
0.1131057467
 40
0.17570245
 40
0.2870156529
 40
0.4125364545
 40
0.5438956296
 40
0.672323931
 40
0.7892555141
 40
0.8409293857
 40
0.886894551
 40
0.9263825762
 40
0.9587329982
 40
0.9834093123
 40
1.0
 40
1.0
 40
1.0
 40
1.0
 10
6.7278826666
 20
6.2342529419
 30
0.0
 10
6.7282132933
 20
6.2306051663
 30
0.0
 10
6.7288106546
 20
6.2219830931
 30
0.0
 10
6.7299882127
 20
6.1996267845
 30
0.0
 10
6.7313478862
 20
6.1624792846
 30
0.0
 10
6.7329131213
 20
6.1077116559
 30
0.0
 10
6.734817865
 20
6.0265031722
 30
0.0
 10
6.7369497241
 20
5.9184244441
 30
0.0
 10
6.7392981061
 20
5.7855210158
 30
0.0
 10
6.7416523075
 20
5.6464379731
 30
0.0
 10
6.7440046584
 20
5.5104562218
 30
0.0
 10
6.7460245352
 20
5.4032407458
 30
0.0
 10
6.7476956908
 20
5.325795043
 30
0.0
 10
6.7488920917
 20
5.2763040763
 30
0.0
 10
6.750084145
 20
5.2337917846
 30
0.0
 10
6.7512566217
 20
5.198966939
 30
0.0
 10
6.7524230947
 20
5.1724165335
 30
0.0
 10
6.7533118005
 20
5.1575408502
 30
0.0
 10
6.7538524623
 20
5.1515757765
 30
0.0
  0
SPLINE
  5
575
100
AcDbEntity
  8
02___PRT_ALL_AXES
100
AcDbSpline
 62
7
  6
CONTINUOUS
 70
0
 71
3
 72
17
 73
13
 74
0
 42
0.0000001
 43
0.0000001
 44
0.0000000001
 40
0.0
 40
0.0
 40
0.0
 40
0.0
 40
0.0359557965
 40
0.0819045597
 40
0.1368556222
 40
0.1996285174
 40
0.4206915121
 40
0.6569090557
 40
0.7664693137
 40
0.8631446752
 40
0.9422599146
 40
1.0
 40
1.0
 40
1.0
 40
1.0
 10
6.6542614901
 20
5.1515757765
 30
0.0
 10
6.6537221432
 20
5.1645436274
 30
0.0
 10
6.6527198121
 20
5.194092611
 30
0.0
 10
6.6513792856
 20
5.2434756302
 30
0.0
 10
6.6500286709
 20
5.3025417465
 30
0.0
 10
6.647572539
 20
5.4248100077
 30
0.0
 10
6.6444745026
 20
5.6125099603
 30
0.0
 10
6.6412605796
 20
5.8170987485
 30
0.0
 10
6.6385064093
 20
5.9767884884
 30
0.0
 10
6.6365115593
 20
6.0797734513
 30
0.0
 10
6.634534269
 20
6.1640481249
 30
0.0
 10
6.6330338696
 20
6.2134283491
 30
0.0
 10
6.6321677524
 20
6.2342529419
 30
0.0
  0
SPLINE
  5
576
100
AcDbEntity
  8
02___PRT_ALL_AXES
100
AcDbSpline
 62
7
  6
CONTINUOUS
 70
0
 71
3
 72
23
 73
19
 74
0
 42
0.0000001
 43
0.0000001
 44
0.0000000001
 40
0.0
 40
0.0
 40
0.0
 40
0.0
 40
0.0101451875
 40
0.0239350957
 40
0.0620091149
 40
0.1131023639
 40
0.1756996091
 40
0.2870161977
 40
0.4125360492
 40
0.5438929266
 40
0.6723204178
 40
0.7892548072
 40
0.8409299594
 40
0.8868952989
 40
0.9263830594
 40
0.958733278
 40
0.983409395
 40
1.0
 40
1.0
 40
1.0
 40
1.0
 10
6.5659284657
 20
5.1515757765
 30
0.0
 10
6.5655978515
 20
5.1552234126
 30
0.0
 10
6.5650004933
 20
5.1638450919
 30
0.0
 10
6.5638230017
 20
5.1862005045
 30
0.0
 10
6.5624633222
 20
5.2233469216
 30
0.0
 10
6.5608980943
 20
5.2781139181
 30
0.0
 10
6.5589933064
 20
5.3593234961
 30
0.0
 10
6.5568614259
 20
5.4674032991
 30
0.0
 10
6.5545130421
 20
5.6003067771
 30
0.0
 10
6.5521588654
 20
5.7393883551
 30
0.0
 10
6.5498065178
 20
5.8753699976
 30
0.0
 10
6.547786626
 20
5.9825866565
 30
0.0
 10
6.5461154362
 20
6.0600338972
 30
0.0
 10
6.5449190239
 20
6.1095252935
 30
0.0
 10
6.5437269708
 20
6.1520374791
 30
0.0
 10
6.5425544979
 20
6.1868620845
 30
0.0
 10
6.5413880323
 20
6.2134123157
 30
0.0
 10
6.5404993291
 20
6.2282878978
 30
0.0
 10
6.5399586699
 20
6.2342529419
 30
0.0
  0
SPLINE
  5
577
100
AcDbEntity
  8
02___PRT_ALL_AXES
100
AcDbSpline
 62
7
  6
CONTINUOUS
 70
0
 71
3
 72
17
 73
13
 74
0
 42
0.0000001
 43
0.0000001
 44
0.0000000001
 40
0.0
 40
0.0
 40
0.0
 40
0.0
 40
0.0359557965
 40
0.0819045597
 40
0.1368556222
 40
0.1996285174
 40
0.4206915121
 40
0.6569090557
 40
0.7664693137
 40
0.8631446752
 40
0.9422599146
 40
1.0
 40
1.0
 40
1.0
 40
1.0
 10
6.595206372
 20
5.1515757765
 30
0.0
 10
6.5946670251
 20
5.1645436274
 30
0.0
 10
6.593664694
 20
5.194092611
 30
0.0
 10
6.5923241675
 20
5.2434756302
 30
0.0
 10
6.5909735528
 20
5.3025417465
 30
0.0
 10
6.5885174208
 20
5.4248100077
 30
0.0
 10
6.5854193845
 20
5.6125099603
 30
0.0
 10
6.5822054615
 20
5.8170987485
 30
0.0
 10
6.5794512912
 20
5.9767884884
 30
0.0
 10
6.5774564412
 20
6.0797734513
 30
0.0
 10
6.5754791508
 20
6.1640481249
 30
0.0
 10
6.5739787515
 20
6.2134283491
 30
0.0
 10
6.5731126343
 20
6.2342529419
 30
0.0
  0
SPLINE
  5
578
100
AcDbEntity
  8
02___PRT_ALL_AXES
100
AcDbSpline
 62
7
  6
CONTINUOUS
 70
0
 71
3
 72
17
 73
13
 74
0
 42
0.0000001
 43
0.0000001
 44
0.0000000001
 40
0.0
 40
0.0
 40
0.0
 40
0.0
 40
0.0359557965
 40
0.0819045597
 40
0.1368556222
 40
0.1996285174
 40
0.4206915121
 40
0.6569090557
 40
0.7664693137
 40
0.8631446752
 40
0.9422599146
 40
1.0
 40
1.0
 40
1.0
 40
1.0
 10
6.5361512539
 20
5.1515757765
 30
0.0
 10
6.535611907
 20
5.1645436274
 30
0.0
 10
6.5346095758
 20
5.194092611
 30
0.0
 10
6.5332690494
 20
5.2434756302
 30
0.0
 10
6.5319184347
 20
5.3025417465
 30
0.0
 10
6.5294623027
 20
5.4248100077
 30
0.0
 10
6.5263642664
 20
5.6125099603
 30
0.0
 10
6.5231503434
 20
5.8170987485
 30
0.0
 10
6.5203961731
 20
5.9767884884
 30
0.0
 10
6.518401323
 20
6.0797734513
 30
0.0
 10
6.5164240327
 20
6.1640481249
 30
0.0
 10
6.5149236334
 20
6.2134283491
 30
0.0
 10
6.5140575162
 20
6.2342529419
 30
0.0
  0
SPLINE
  5
579
100
AcDbEntity
  8
02___PRT_ALL_AXES
100
AcDbSpline
 62
7
  6
CONTINUOUS
 70
0
 71
3
 72
17
 73
13
 74
0
 42
0.0000001
 43
0.0000001
 44
0.0000000001
 40
0.0
 40
0.0
 40
0.0
 40
0.0
 40
0.0359557965
 40
0.0819045597
 40
0.1368556222
 40
0.1996285174
 40
0.4206915121
 40
0.6569090557
 40
0.7664693137
 40
0.8631446752
 40
0.9422599146
 40
1.0
 40
1.0
 40
1.0
 40
1.0
 10
6.4770961357
 20
5.1515757765
 30
0.0
 10
6.4765567889
 20
5.1645436274
 30
0.0
 10
6.4755544577
 20
5.194092611
 30
0.0
 10
6.4742139313
 20
5.2434756302
 30
0.0
 10
6.4728633166
 20
5.3025417465
 30
0.0
 10
6.4704071846
 20
5.4248100077
 30
0.0
 10
6.4673091483
 20
5.6125099603
 30
0.0
 10
6.4640952253
 20
5.8170987485
 30
0.0
 10
6.4613410549
 20
5.9767884884
 30
0.0
 10
6.4593462049
 20
6.0797734513
 30
0.0
 10
6.4573689146
 20
6.1640481249
 30
0.0
 10
6.4558685153
 20
6.2134283491
 30
0.0
 10
6.4550023981
 20
6.2342529419
 30
0.0
  0
SPLINE
  5
57A
100
AcDbEntity
  8
02___PRT_ALL_AXES
100
AcDbSpline
 62
7
  6
CONTINUOUS
 70
0
 71
3
 72
23
 73
19
 74
0
 42
0.0000001
 43
0.0000001
 44
0.0000000001
 40
0.0
 40
0.0
 40
0.0
 40
0.0
 40
0.0101452476
 40
0.0239350997
 40
0.0620087332
 40
0.1131021202
 40
0.1756997676
 40
0.2870171135
 40
0.4125378475
 40
0.5438925416
 40
0.6723198744
 40
0.7892553187
 40
0.8409309736
 40
0.8868968808
 40
0.9263845813
 40
0.9587340918
 40
0.9834095724
 40
1.0
 40
1.0
 40
1.0
 40
1.0
 10
6.2554417217
 20
6.2342529419
 30
0.0
 10
6.2557723378
 20
6.2306052841
 30
0.0
 10
6.2563696918
 20
6.2219836031
 30
0.0
 10
6.2575471842
 20
6.1996283286
 30
0.0
 10
6.258906854
 20
6.1624820208
 30
0.0
 10
6.2604720906
 20
6.1077149688
 30
0.0
 10
6.2623768871
 20
6.0265049224
 30
0.0
 10
6.2645087817
 20
5.9184243824
 30
0.0
 10
6.2668571588
 20
5.7855211005
 30
0.0
 10
6.2692113275
 20
5.6464400492
 30
0.0
 10
6.2715636668
 20
5.5104588712
 30
0.0
 10
6.2735835681
 20
5.4032417073
 30
0.0
 10
6.2752547754
 20
5.3257936995
 30
0.0
 10
6.2764512047
 20
5.2763019387
 30
0.0
 10
6.2776432569
 20
5.2337898255
 30
0.0
 10
6.2788157265
 20
5.1989657274
 30
0.0
 10
6.2799821714
 20
5.1724160451
 30
0.0
 10
6.2808708641
 20
5.1575407567
 30
0.0
 10
6.2814115175
 20
5.1515757765
 30
0.0
  0
SPLINE
  5
57B
100
AcDbEntity
  8
02___PRT_ALL_AXES
100
AcDbSpline
 62
7
  6
CONTINUOUS
 70
0
 71
3
 72
17
 73
13
 74
0
 42
0.0000001
 43
0.0000001
 44
0.0000000001
 40
0.0
 40
0.0
 40
0.0
 40
0.0
 40
0.0359557965
 40
0.0819045597
 40
0.1368556222
 40
0.1996285174
 40
0.4206915121
 40
0.6569090557
 40
0.7664693137
 40
0.8631446752
 40
0.9422599146
 40
1.0
 40
1.0
 40
1.0
 40
1.0
 10
6.6616433798
 20
5.1515757765
 30
0.0
 10
6.661104033
 20
5.1645436274
 30
0.0
 10
6.6601017018
 20
5.194092611
 30
0.0
 10
6.6587611754
 20
5.2434756302
 30
0.0
 10
6.6574105607
 20
5.3025417465
 30
0.0
 10
6.6549544287
 20
5.4248100077
 30
0.0
 10
6.6518563924
 20
5.6125099603
 30
0.0
 10
6.6486424694
 20
5.8170987485
 30
0.0
 10
6.645888299
 20
5.9767884884
 30
0.0
 10
6.643893449
 20
6.0797734513
 30
0.0
 10
6.6419161587
 20
6.1640481249
 30
0.0
 10
6.6404157594
 20
6.2134283491
 30
0.0
 10
6.6395496422
 20
6.2342529419
 30
0.0
  0
SPLINE
  5
57C
100
AcDbEntity
  8
02___PRT_ALL_AXES
100
AcDbSpline
 62
7
  6
CONTINUOUS
 70
0
 71
3
 72
23
 73
19
 74
0
 42
0.0000001
 43
0.0000001
 44
0.0000000001
 40
0.0
 40
0.0
 40
0.0
 40
0.0
 40
0.0101452476
 40
0.0239350997
 40
0.0620087332
 40
0.1131021202
 40
0.1756997676
 40
0.2870171135
 40
0.4125378475
 40
0.5438925416
 40
0.6723198744
 40
0.7892553187
 40
0.8409309736
 40
0.8868968808
 40
0.9263845813
 40
0.9587340918
 40
0.9834095724
 40
1.0
 40
1.0
 40
1.0
 40
1.0
 10
6.6688275485
 20
6.2342529419
 30
0.0
 10
6.6691581646
 20
6.2306052841
 30
0.0
 10
6.6697555186
 20
6.2219836031
 30
0.0
 10
6.670933011
 20
6.1996283286
 30
0.0
 10
6.6722926807
 20
6.1624820208
 30
0.0
 10
6.6738579174
 20
6.1077149688
 30
0.0
 10
6.6757627138
 20
6.0265049224
 30
0.0
 10
6.6778946085
 20
5.9184243824
 30
0.0
 10
6.6802429856
 20
5.7855211005
 30
0.0
 10
6.6825971543
 20
5.6464400492
 30
0.0
 10
6.6849494936
 20
5.5104588712
 30
0.0
 10
6.6869693948
 20
5.4032417073
 30
0.0
 10
6.6886406022
 20
5.3257936995
 30
0.0
 10
6.6898370315
 20
5.2763019387
 30
0.0
 10
6.6910290837
 20
5.2337898255
 30
0.0
 10
6.6922015533
 20
5.1989657274
 30
0.0
 10
6.6933679981
 20
5.1724160451
 30
0.0
 10
6.6942566909
 20
5.1575407567
 30
0.0
 10
6.6947973442
 20
5.1515757765
 30
0.0
  0
SPLINE
  5
57D
100
AcDbEntity
  8
02___PRT_ALL_AXES
100
AcDbSpline
 62
7
  6
CONTINUOUS
 70
0
 71
3
 72
11
 73
7
 74
0
 42
0.0000001
 43
0.0000001
 44
0.0000000001
 40
0.0
 40
0.0
 40
0.0
 40
0.0
 40
0.1655201767
 40
0.3977764303
 40
0.6819783933
 40
1.0
 40
1.0
 40
1.0
 40
1.0
 10
6.6025882617
 20
5.1515757765
 30
0.0
 10
6.6015641517
 20
5.1761990873
 30
0.0
 10
6.5998521389
 20
5.2354028391
 30
0.0
 10
6.5975942896
 20
5.3369179831
 30
0.0
 10
6.595319894
 20
5.4611449568
 30
0.0
 10
6.5938351961
 20
5.5507987189
 30
0.0
 10
6.5930665308
 20
5.5981432919
 30
0.0
  0
LINE
  5
57E
100
AcDbEntity
  8
02___PRT_ALL_AXES
100
AcDbLine
 62
7
  6
CONTINUOUS
 10
6.5930665308
 20
5.5981432919
 11
6.5927030298
 21
5.6205977058
  0
LINE
  5
57F
100
AcDbEntity
  8
02___PRT_ALL_AXES
100
AcDbLine
 62
7
  6
CONTINUOUS
 10
6.5927030298
 20
5.6205977058
 11
6.5903803966
 21
5.7651913398
  0
LINE
  5
580
100
AcDbEntity
  8
02___PRT_ALL_AXES
100
AcDbLine
 62
7
  6
CONTINUOUS
 10
6.5903803966
 20
5.7651913398
 11
6.5900169049
 21
5.7876453961
  0
SPLINE
  5
581
100
AcDbEntity
  8
02___PRT_ALL_AXES
100
AcDbSpline
 62
7
  6
CONTINUOUS
 70
0
 71
3
 72
11
 73
7
 74
0
 42
0.0000001
 43
0.0000001
 44
0.0000000001
 40
0.0
 40
0.0
 40
0.0
 40
0.0
 40
0.3180204114
 40
0.6022235904
 40
0.8344809387
 40
1.0
 40
1.0
 40
1.0
 40
1.0
 10
6.5900169049
 20
5.7876453961
 30
0.0
 10
6.5892481823
 20
5.8349940347
 30
0.0
 10
6.587763378
 20
5.924655836
 30
0.0
 10
6.5854888368
 20
6.0488941114
 30
0.0
 10
6.5832308407
 20
6.1504185333
 30
0.0
 10
6.5815187189
 20
6.20962759
 30
0.0
 10
6.5804945241
 20
6.2342529419
 30
0.0
  0
SPLINE
  5
582
100
AcDbEntity
  8
02___PRT_ALL_AXES
100
AcDbSpline
 62
7
  6
CONTINUOUS
 70
0
 71
3
 72
17
 73
13
 74
0
 42
0.0000001
 43
0.0000001
 44
0.0000000001
 40
0.0
 40
0.0
 40
0.0
 40
0.0
 40
0.0359557965
 40
0.0819045597
 40
0.1368556222
 40
0.1996285174
 40
0.4206915121
 40
0.6569090557
 40
0.7664693137
 40
0.8631446752
 40
0.9422599146
 40
1.0
 40
1.0
 40
1.0
 40
1.0
 10
6.5435331436
 20
5.1515757765
 30
0.0
 10
6.5429937967
 20
5.1645436274
 30
0.0
 10
6.5419914656
 20
5.194092611
 30
0.0
 10
6.5406509391
 20
5.2434756302
 30
0.0
 10
6.5393003244
 20
5.3025417465
 30
0.0
 10
6.5368441925
 20
5.4248100077
 30
0.0
 10
6.5337461561
 20
5.6125099603
 30
0.0
 10
6.5305322332
 20
5.8170987485
 30
0.0
 10
6.5277780628
 20
5.9767884884
 30
0.0
 10
6.5257832128
 20
6.0797734513
 30
0.0
 10
6.5238059225
 20
6.1640481249
 30
0.0
 10
6.5223055232
 20
6.2134283491
 30
0.0
 10
6.521439406
 20
6.2342529419
 30
0.0
  0
SPLINE
  5
583
100
AcDbEntity
  8
02___PRT_ALL_AXES
100
AcDbSpline
 62
7
  6
CONTINUOUS
 70
0
 71
3
 72
17
 73
13
 74
0
 42
0.0000001
 43
0.0000001
 44
0.0000000001
 40
0.0
 40
0.0
 40
0.0
 40
0.0
 40
0.0359557965
 40
0.0819045597
 40
0.1368556222
 40
0.1996285174
 40
0.4206915121
 40
0.6569090557
 40
0.7664693137
 40
0.8631446752
 40
0.9422599146
 40
1.0
 40
1.0
 40
1.0
 40
1.0
 10
6.4844780255
 20
5.1515757765
 30
0.0
 10
6.4839386786
 20
5.1645436274
 30
0.0
 10
6.4829363475
 20
5.194092611
 30
0.0
 10
6.481595821
 20
5.2434756302
 30
0.0
 10
6.4802452063
 20
5.3025417465
 30
0.0
 10
6.4777890744
 20
5.4248100077
 30
0.0
 10
6.474691038
 20
5.6125099603
 30
0.0
 10
6.471477115
 20
5.8170987485
 30
0.0
 10
6.4687229447
 20
5.9767884884
 30
0.0
 10
6.4667280947
 20
6.0797734513
 30
0.0
 10
6.4647508044
 20
6.1640481249
 30
0.0
 10
6.4632504051
 20
6.2134283491
 30
0.0
 10
6.4623842878
 20
6.2342529419
 30
0.0
  0
SPLINE
  5
584
100
AcDbEntity
  8
02___PRT_ALL_AXES
100
AcDbSpline
 62
7
  6
CONTINUOUS
 70
0
 71
3
 72
17
 73
13
 74
0
 42
0.0000001
 43
0.0000001
 44
0.0000000001
 40
0.0
 40
0.0
 40
0.0
 40
0.0
 40
0.0359557965
 40
0.0819045597
 40
0.1368556222
 40
0.1996285174
 40
0.4206915121
 40
0.6569090557
 40
0.7664693137
 40
0.8631446752
 40
0.9422599146
 40
1.0
 40
1.0
 40
1.0
 40
1.0
 10
6.8314268444
 20
5.1515757765
 30
0.0
 10
6.8308874975
 20
5.1645436274
 30
0.0
 10
6.8298851664
 20
5.194092611
 30
0.0
 10
6.8285446399
 20
5.2434756302
 30
0.0
 10
6.8271940252
 20
5.3025417465
 30
0.0
 10
6.8247378933
 20
5.4248100077
 30
0.0
 10
6.8216398569
 20
5.6125099603
 30
0.0
 10
6.8184259339
 20
5.8170987485
 30
0.0
 10
6.8156717636
 20
5.9767884884
 30
0.0
 10
6.8136769136
 20
6.0797734513
 30
0.0
 10
6.8116996233
 20
6.1640481249
 30
0.0
 10
6.810199224
 20
6.2134283491
 30
0.0
 10
6.8093331067
 20
6.2342529419
 30
0.0
  0
SPLINE
  5
585
100
AcDbEntity
  8
02___PRT_ALL_AXES
100
AcDbSpline
 62
7
  6
CONTINUOUS
 70
0
 71
3
 72
23
 73
19
 74
0
 42
0.0000001
 43
0.0000001
 44
0.0000000001
 40
0.0
 40
0.0
 40
0.0
 40
0.0
 40
0.0101455494
 40
0.0239361034
 40
0.0620113559
 40
0.113105405
 40
0.1757027379
 40
0.2870176796
 40
0.412537966
 40
0.5438968035
 40
0.6723247205
 40
0.7892572192
 40
0.8409306082
 40
0.8868951288
 40
0.9263828641
 40
0.9587331681
 40
0.9834093632
 40
1.0
 40
1.0
 40
1.0
 40
1.0
 10
6.432607076
 20
6.2342529419
 30
0.0
 10
6.432937702
 20
6.2306051756
 30
0.0
 10
6.4335350628
 20
6.2219831317
 30
0.0
 10
6.4347126151
 20
6.1996269124
 30
0.0
 10
6.4360722882
 20
6.1624795266
 30
0.0
 10
6.4376375283
 20
6.1077117648
 30
0.0
 10
6.4395422904
 20
6.0265024601
 30
0.0
 10
6.4416741602
 20
5.918423063
 30
0.0
 10
6.444022544
 20
5.7855193149
 30
0.0
 10
6.4463767385
 20
5.6464367188
 30
0.0
 10
6.4487290909
 20
5.5104548976
 30
0.0
 10
6.4507489711
 20
5.403239404
 30
0.0
 10
6.4524201294
 20
5.3257937778
 30
0.0
 10
6.4536165213
 20
5.2763033226
 30
0.0
 10
6.4548085658
 20
5.2337914108
 30
0.0
 10
6.4559810387
 20
5.1989667555
 30
0.0
 10
6.4571475074
 20
5.1724164538
 30
0.0
 10
6.4580362116
 20
5.157540832
 30
0.0
 10
6.4585768718
 20
5.1515757765
 30
0.0
  0
SPLINE
  5
586
100
AcDbEntity
  8
02___PRT_ALL_AXES
100
AcDbSpline
 62
7
  6
CONTINUOUS
 70
0
 71
3
 72
23
 73
19
 74
0
 42
0.0000001
 43
0.0000001
 44
0.0000000001
 40
0.0
 40
0.0
 40
0.0
 40
0.0
 40
0.0101452548
 40
0.0239351129
 40
0.0620087422
 40
0.1131021324
 40
0.1756997868
 40
0.2870171578
 40
0.4125379357
 40
0.5438926012
 40
0.6723199164
 40
0.7892553626
 40
0.8409310211
 40
0.8868969325
 40
0.9263846339
 40
0.9587341312
 40
0.9834095806
 40
1.0
 40
1.0
 40
1.0
 40
1.0
 10
6.8612040562
 20
5.1515757765
 30
0.0
 10
6.8608734399
 20
5.1552234368
 30
0.0
 10
6.860276086
 20
5.1638451227
 30
0.0
 10
6.8590985929
 20
5.1862004004
 30
0.0
 10
6.8577389238
 20
5.22334671
 30
0.0
 10
6.8561736868
 20
5.2781137641
 30
0.0
 10
6.8542688903
 20
5.3593238233
 30
0.0
 10
6.8521369951
 20
5.4674043907
 30
0.0
 10
6.8497886179
 20
5.6003076873
 30
0.0
 10
6.8474344493
 20
5.7393887377
 30
0.0
 10
6.8450821102
 20
5.8753698997
 30
0.0
 10
6.8430622089
 20
5.9825870593
 30
0.0
 10
6.8413910013
 20
6.0600350705
 30
0.0
 10
6.8401945718
 20
6.1095268344
 30
0.0
 10
6.8390025194
 20
6.1520389447
 30
0.0
 10
6.8378300501
 20
6.1868630272
 30
0.0
 10
6.8366636057
 20
6.2134126905
 30
0.0
 10
6.8357749136
 20
6.2282879646
 30
0.0
 10
6.8352342605
 20
6.2342529419
 30
0.0
  0
SPLINE
  5
587
100
AcDbEntity
  8
02___PRT_ALL_AXES
100
AcDbSpline
 62
7
  6
CONTINUOUS
 70
0
 71
3
 72
17
 73
13
 74
0
 42
0.0000001
 43
0.0000001
 44
0.0000000001
 40
0.0
 40
0.0
 40
0.0
 40
0.0
 40
0.0359557965
 40
0.0819045597
 40
0.1368556222
 40
0.1996285174
 40
0.4206915121
 40
0.6569090557
 40
0.7664693137
 40
0.8631446752
 40
0.9422599146
 40
1.0
 40
1.0
 40
1.0
 40
1.0
 10
6.4180410176
 20
5.1515757765
 30
0.0
 10
6.4175016708
 20
5.1645436274
 30
0.0
 10
6.4164993396
 20
5.194092611
 30
0.0
 10
6.4151588132
 20
5.2434756302
 30
0.0
 10
6.4138081985
 20
5.3025417465
 30
0.0
 10
6.4113520665
 20
5.4248100077
 30
0.0
 10
6.4082540302
 20
5.6125099603
 30
0.0
 10
6.4050401072
 20
5.8170987485
 30
0.0
 10
6.4022859368
 20
5.9767884884
 30
0.0
 10
6.4002910868
 20
6.0797734513
 30
0.0
 10
6.3983137965
 20
6.1640481249
 30
0.0
 10
6.3968133972
 20
6.2134283491
 30
0.0
 10
6.39594728
 20
6.2342529419
 30
0.0
  0
SPLINE
  5
588
100
AcDbEntity
  8
02___PRT_ALL_AXES
100
AcDbSpline
 62
7
  6
CONTINUOUS
 70
0
 71
3
 72
23
 73
19
 74
0
 42
0.0000001
 43
0.0000001
 44
0.0000000001
 40
0.0
 40
0.0
 40
0.0
 40
0.0
 40
0.0101454565
 40
0.0239357241
 40
0.0620099602
 40
0.113103426
 40
0.1757013846
 40
0.2870190003
 40
0.4125403746
 40
0.5438957831
 40
0.6723218346
 40
0.7892570294
 40
0.8409325144
 40
0.8868981865
 40
0.9263858219
 40
0.9587352425
 40
0.9834099789
 40
1.0
 40
1.0
 40
1.0
 40
1.0
 10
6.74309382
 20
5.1515757765
 30
0.0
 10
6.7427631971
 20
5.1552235093
 30
0.0
 10
6.7421658401
 20
5.1638454162
 30
0.0
 10
6.740988316
 20
5.1862011325
 30
0.0
 10
6.7396286518
 20
5.2233478371
 30
0.0
 10
6.7380634128
 20
5.2781152473
 30
0.0
 10
6.7361586177
 20
5.3593255321
 30
0.0
 10
6.7340267192
 20
5.467406513
 30
0.0
 10
6.7316783359
 20
5.6003103814
 30
0.0
 10
6.7293241668
 20
5.7393914591
 30
0.0
 10
6.72697183
 20
5.8753723424
 30
0.0
 10
6.724951937
 20
5.9825888924
 30
0.0
 10
6.7232807276
 20
6.0600366638
 30
0.0
 10
6.7220842994
 20
6.1095282548
 30
0.0
 10
6.7208922439
 20
6.1520402272
 30
0.0
 10
6.7197197743
 20
6.1868640004
 30
0.0
 10
6.7185533485
 20
6.2134132354
 30
0.0
 10
6.7176646644
 20
6.2282881078
 30
0.0
 10
6.7171240242
 20
6.2342529419
 30
0.0
  0
SPLINE
  5
589
100
AcDbEntity
  8
02___PRT_ALL_AXES
100
AcDbSpline
 62
7
  6
CONTINUOUS
 70
0
 71
3
 72
23
 73
19
 74
0
 42
0.0000001
 43
0.0000001
 44
0.0000000001
 40
0.0
 40
0.0
 40
0.0
 40
0.0
 40
0.0101452548
 40
0.0239351129
 40
0.0620087422
 40
0.1131021324
 40
0.1756997868
 40
0.2870171578
 40
0.4125379357
 40
0.5438926012
 40
0.6723199164
 40
0.7892553626
 40
0.8409310211
 40
0.8868969325
 40
0.9263846339
 40
0.9587341312
 40
0.9834095806
 40
1.0
 40
1.0
 40
1.0
 40
1.0
 10
6.4478182294
 20
5.1515757765
 30
0.0
 10
6.4474876131
 20
5.1552234368
 30
0.0
 10
6.4468902592
 20
5.1638451227
 30
0.0
 10
6.4457127661
 20
5.1862004004
 30
0.0
 10
6.444353097
 20
5.22334671
 30
0.0
 10
6.4427878601
 20
5.2781137641
 30
0.0
 10
6.4408830635
 20
5.3593238233
 30
0.0
 10
6.4387511684
 20
5.4674043907
 30
0.0
 10
6.4364027911
 20
5.6003076873
 30
0.0
 10
6.4340486225
 20
5.7393887377
 30
0.0
 10
6.4316962834
 20
5.8753698997
 30
0.0
 10
6.4296763822
 20
5.9825870593
 30
0.0
 10
6.4280051745
 20
6.0600350705
 30
0.0
 10
6.426808745
 20
6.1095268344
 30
0.0
 10
6.4256166926
 20
6.1520389447
 30
0.0
 10
6.4244442233
 20
6.1868630272
 30
0.0
 10
6.423277779
 20
6.2134126905
 30
0.0
 10
6.4223890868
 20
6.2282879646
 30
0.0
 10
6.4218484337
 20
6.2342529419
 30
0.0
  0
SPLINE
  5
58A
100
AcDbEntity
  8
02___PRT_ALL_AXES
100
AcDbSpline
 62
7
  6
CONTINUOUS
 70
0
 71
3
 72
17
 73
13
 74
0
 42
0.0000001
 43
0.0000001
 44
0.0000000001
 40
0.0
 40
0.0
 40
0.0
 40
0.0
 40
0.0359557965
 40
0.0819045597
 40
0.1368556222
 40
0.1996285174
 40
0.4206915121
 40
0.6569090557
 40
0.7664693137
 40
0.8631446752
 40
0.9422599146
 40
1.0
 40
1.0
 40
1.0
 40
1.0
 10
6.7723717263
 20
5.1515757765
 30
0.0
 10
6.7718323794
 20
5.1645436274
 30
0.0
 10
6.7708300483
 20
5.194092611
 30
0.0
 10
6.7694895218
 20
5.2434756302
 30
0.0
 10
6.7681389071
 20
5.3025417465
 30
0.0
 10
6.7656827752
 20
5.4248100077
 30
0.0
 10
6.7625847388
 20
5.6125099603
 30
0.0
 10
6.7593708158
 20
5.8170987485
 30
0.0
 10
6.7566166455
 20
5.9767884884
 30
0.0
 10
6.7546217955
 20
6.0797734513
 30
0.0
 10
6.7526445052
 20
6.1640481249
 30
0.0
 10
6.7511441058
 20
6.2134283491
 30
0.0
 10
6.7502779886
 20
6.2342529419
 30
0.0
  0
SPLINE
  5
58B
100
AcDbEntity
  8
02___PRT_ALL_AXES
100
AcDbSpline
 62
7
  6
CONTINUOUS
 70
0
 71
3
 72
17
 73
13
 74
0
 42
0.0000001
 43
0.0000001
 44
0.0000000001
 40
0.0
 40
0.0
 40
0.0
 40
0.0
 40
0.0359557965
 40
0.0819045597
 40
0.1368556222
 40
0.1996285174
 40
0.4206915121
 40
0.6569090557
 40
0.7664693137
 40
0.8631446752
 40
0.9422599146
 40
1.0
 40
1.0
 40
1.0
 40
1.0
 10
6.3589858995
 20
5.1515757765
 30
0.0
 10
6.3584465527
 20
5.1645436274
 30
0.0
 10
6.3574442215
 20
5.194092611
 30
0.0
 10
6.3561036951
 20
5.2434756302
 30
0.0
 10
6.3547530803
 20
5.3025417465
 30
0.0
 10
6.3522969484
 20
5.4248100077
 30
0.0
 10
6.349198912
 20
5.6125099603
 30
0.0
 10
6.3459849891
 20
5.8170987485
 30
0.0
 10
6.3432308187
 20
5.9767884884
 30
0.0
 10
6.3412359687
 20
6.0797734513
 30
0.0
 10
6.3392586784
 20
6.1640481249
 30
0.0
 10
6.3377582791
 20
6.2134283491
 30
0.0
 10
6.3368921619
 20
6.2342529419
 30
0.0
  0
SPLINE
  5
58C
100
AcDbEntity
  8
02___PRT_ALL_AXES
100
AcDbSpline
 62
7
  6
CONTINUOUS
 70
0
 71
3
 72
23
 73
19
 74
0
 42
0.0000001
 43
0.0000001
 44
0.0000000001
 40
0.0
 40
0.0
 40
0.0
 40
0.0
 40
0.0101455748
 40
0.0239361837
 40
0.0620116066
 40
0.1131057558
 40
0.1757024898
 40
0.2870157063
 40
0.4125364941
 40
0.5438956661
 40
0.6723239775
 40
0.7892555714
 40
0.8409294136
 40
0.8868945601
 40
0.9263825803
 40
0.958732999
 40
0.9834093115
 40
1.0
 40
1.0
 40
1.0
 40
1.0
 10
6.8021489381
 20
5.1515757765
 30
0.0
 10
6.8018183114
 20
5.1552235519
 30
0.0
 10
6.8012209501
 20
5.1638456248
 30
0.0
 10
6.800043392
 20
5.1862019344
 30
0.0
 10
6.7986837183
 20
5.2233494378
 30
0.0
 10
6.7971184828
 20
5.2781170812
 30
0.0
 10
6.795213739
 20
5.3593255831
 30
0.0
 10
6.7930818797
 20
5.4674043222
 30
0.0
 10
6.7907334978
 20
5.6003077493
 30
0.0
 10
6.7883792964
 20
5.7393907895
 30
0.0
 10
6.7860269454
 20
5.8753725472
 30
0.0
 10
6.7840070685
 20
5.9825880201
 30
0.0
 10
6.7823359132
 20
6.0600337094
 30
0.0
 10
6.7811395126
 20
6.1095246569
 30
0.0
 10
6.7799474595
 20
6.1520369389
 30
0.0
 10
6.778774983
 20
6.1868617809
 30
0.0
 10
6.77760851
 20
6.2134121849
 30
0.0
 10
6.7767198042
 20
6.2282878678
 30
0.0
 10
6.7761791424
 20
6.2342529419
 30
0.0
  0
SPLINE
  5
58D
100
AcDbEntity
  8
02___PRT_ALL_AXES
100
AcDbSpline
 62
7
  6
CONTINUOUS
 70
0
 71
3
 72
23
 73
19
 74
0
 42
0.0000001
 43
0.0000001
 44
0.0000000001
 40
0.0
 40
0.0
 40
0.0
 40
0.0
 40
0.0101455339
 40
0.0239360511
 40
0.0620112108
 40
0.1131050079
 40
0.1757022252
 40
0.2870187848
 40
0.4125396848
 40
0.5438969938
 40
0.6723230213
 40
0.789257422
 40
0.8409325602
 40
0.8868979428
 40
0.9263854182
 40
0.9587349903
 40
0.9834100468
 40
1.0
 40
1.0
 40
1.0
 40
1.0
 10
6.4916621941
 20
6.2342529419
 30
0.0
 10
6.4919928196
 20
6.2306051812
 30
0.0
 10
6.4925901801
 20
6.2219831562
 30
0.0
 10
6.4937677291
 20
6.1996269892
 30
0.0
 10
6.4951273988
 20
6.1624797412
 30
0.0
 10
6.4966926371
 20
6.1077121455
 30
0.0
 10
6.4985974105
 20
6.0265023896
 30
0.0
 10
6.5007292946
 20
5.9184222287
 30
0.0
 10
6.5030776803
 20
5.7855182267
 30
0.0
 10
6.5054318579
 20
5.6464366429
 30
0.0
 10
6.5077842019
 20
5.5104553689
 30
0.0
 10
6.5098040897
 20
5.4032392394
 30
0.0
 10
6.5114752881
 20
5.3257919842
 30
0.0
 10
6.5126717101
 20
5.2763006807
 30
0.0
 10
6.5138637582
 20
5.2337888157
 30
0.0
 10
6.5150362351
 20
5.1989649302
 30
0.0
 10
6.5162026585
 20
5.1724155492
 30
0.0
 10
6.517091352
 20
5.1575405862
 30
0.0
 10
6.5176319899
 20
5.1515757765
 30
0.0
  0
SPLINE
  5
58E
100
AcDbEntity
  8
02___PRT_ALL_AXES
100
AcDbSpline
 62
7
  6
CONTINUOUS
 70
0
 71
3
 72
17
 73
13
 74
0
 42
0.0000001
 43
0.0000001
 44
0.0000000001
 40
0.0
 40
0.0
 40
0.0
 40
0.0
 40
0.0359557965
 40
0.0819045597
 40
0.1368556222
 40
0.1996285174
 40
0.4206915121
 40
0.6569090557
 40
0.7664693137
 40
0.8631446752
 40
0.9422599146
 40
1.0
 40
1.0
 40
1.0
 40
1.0
 10
6.2999307814
 20
5.1515757765
 30
0.0
 10
6.2993914345
 20
5.1645436274
 30
0.0
 10
6.2983891034
 20
5.194092611
 30
0.0
 10
6.2970485769
 20
5.2434756302
 30
0.0
 10
6.2956979622
 20
5.3025417465
 30
0.0
 10
6.2932418303
 20
5.4248100077
 30
0.0
 10
6.2901437939
 20
5.6125099603
 30
0.0
 10
6.2869298709
 20
5.8170987485
 30
0.0
 10
6.2841757006
 20
5.9767884884
 30
0.0
 10
6.2821808506
 20
6.0797734513
 30
0.0
 10
6.2802035603
 20
6.1640481249
 30
0.0
 10
6.278703161
 20
6.2134283491
 30
0.0
 10
6.2778370437
 20
6.2342529419
 30
0.0
  0
SPLINE
  5
58F
100
AcDbEntity
  8
02___PRT_ALL_AXES
100
AcDbSpline
 62
7
  6
CONTINUOUS
 70
0
 71
3
 72
17
 73
13
 74
0
 42
0.0000001
 43
0.0000001
 44
0.0000000001
 40
0.0
 40
0.0
 40
0.0
 40
0.0
 40
0.0359557965
 40
0.0819045597
 40
0.1368556222
 40
0.1996285174
 40
0.4206915121
 40
0.6569090557
 40
0.7664693137
 40
0.8631446752
 40
0.9422599146
 40
1.0
 40
1.0
 40
1.0
 40
1.0
 10
6.7133166082
 20
5.1515757765
 30
0.0
 10
6.7127772613
 20
5.1645436274
 30
0.0
 10
6.7117749302
 20
5.194092611
 30
0.0
 10
6.7104344037
 20
5.2434756302
 30
0.0
 10
6.709083789
 20
5.3025417465
 30
0.0
 10
6.7066276571
 20
5.4248100077
 30
0.0
 10
6.7035296207
 20
5.6125099603
 30
0.0
 10
6.7003156977
 20
5.8170987485
 30
0.0
 10
6.6975615274
 20
5.9767884884
 30
0.0
 10
6.6955666774
 20
6.0797734513
 30
0.0
 10
6.6935893871
 20
6.1640481249
 30
0.0
 10
6.6920889877
 20
6.2134283491
 30
0.0
 10
6.6912228705
 20
6.2342529419
 30
0.0
  0
SPLINE
  5
590
100
AcDbEntity
  8
02___PRT_ALL_AXES
100
AcDbSpline
 62
7
  6
CONTINUOUS
 70
0
 71
3
 72
17
 73
13
 74
0
 42
0.0000001
 43
0.0000001
 44
0.0000000001
 40
0.0
 40
0.0
 40
0.0
 40
0.0
 40
0.0359557965
 40
0.0819045597
 40
0.1368556222
 40
0.1996285174
 40
0.4206915121
 40
0.6569090557
 40
0.7664693137
 40
0.8631446752
 40
0.9422599146
 40
1.0
 40
1.0
 40
1.0
 40
1.0
 10
6.4254229074
 20
5.1515757765
 30
0.0
 10
6.4248835605
 20
5.1645436274
 30
0.0
 10
6.4238812294
 20
5.194092611
 30
0.0
 10
6.4225407029
 20
5.2434756302
 30
0.0
 10
6.4211900882
 20
5.3025417465
 30
0.0
 10
6.4187339563
 20
5.4248100077
 30
0.0
 10
6.4156359199
 20
5.6125099603
 30
0.0
 10
6.4124219969
 20
5.8170987485
 30
0.0
 10
6.4096678266
 20
5.9767884884
 30
0.0
 10
6.4076729766
 20
6.0797734513
 30
0.0
 10
6.4056956863
 20
6.1640481249
 30
0.0
 10
6.404195287
 20
6.2134283491
 30
0.0
 10
6.4033291697
 20
6.2342529419
 30
0.0
  0
SPLINE
  5
591
100
AcDbEntity
  8
02___PRT_ALL_AXES
100
AcDbSpline
 62
7
  6
CONTINUOUS
 70
0
 71
3
 72
23
 73
19
 74
0
 42
0.0000001
 43
0.0000001
 44
0.0000000001
 40
0.0
 40
0.0
 40
0.0
 40
0.0
 40
0.0101455489
 40
0.0239360986
 40
0.0620113574
 40
0.1131051412
 40
0.1757009349
 40
0.2870148316
 40
0.4125354321
 40
0.5438942059
 40
0.6723221527
 40
0.7892546098
 40
0.8409294262
 40
0.8868949371
 40
0.9263829126
 40
0.9587331843
 40
0.9834093702
 40
1.0
 40
1.0
 40
1.0
 40
1.0
 10
6.6097724304
 20
6.2342529419
 30
0.0
 10
6.6101030563
 20
6.2306051758
 30
0.0
 10
6.610700417
 20
6.2219831336
 30
0.0
 10
6.6118779694
 20
6.1996269138
 30
0.0
 10
6.6132376388
 20
6.162479623
 30
0.0
 10
6.6148028621
 20
6.1077125101
 30
0.0
 10
6.6167076079
 20
6.0265042341
 30
0.0
 10
6.6188394653
 20
5.9184256565
 30
0.0
 10
6.6211878499
 20
5.7855221952
 30
0.0
 10
6.6235420453
 20
5.646439498
 30
0.0
 10
6.6258943957
 20
5.510457704
 30
0.0
 10
6.6279142791
 20
5.4032416994
 30
0.0
 10
6.6295854502
 20
5.3257952154
 30
0.0
 10
6.6307818629
 20
5.2763038008
 30
0.0
 10
6.6319739181
 20
5.2337914566
 30
0.0
 10
6.6331463944
 20
5.1989667296
 30
0.0
 10
6.6343128619
 20
5.1724164454
 30
0.0
 10
6.6352015662
 20
5.1575408294
 30
0.0
 10
6.6357422261
 20
5.1515757765
 30
0.0
  0
SPLINE
  5
592
100
AcDbEntity
  8
02___PRT_ALL_AXES
100
AcDbSpline
 62
7
  6
CONTINUOUS
 70
0
 71
3
 72
10
 73
6
 74
0
 42
0.0000001
 43
0.0000001
 44
0.0000000001
 40
0.0
 40
0.0
 40
0.0
 40
0.0
 40
0.1760719129
 40
0.4058736573
 40
1.0
 40
1.0
 40
1.0
 40
1.0
 10
6.3663677893
 20
5.1515757765
 30
0.0
 10
6.3657449148
 20
5.1665519346
 30
0.0
 10
6.3646067261
 20
5.2010863817
 30
0.0
 10
6.3623972204
 20
5.2861883226
 30
0.0
 10
6.3610360712
 20
5.356317339
 30
0.0
 10
6.3601080482
 20
5.4068871493
 30
0.0
  0
SPLINE
  5
593
100
AcDbEntity
  8
02___PRT_ALL_AXES
100
AcDbSpline
 62
7
  6
CONTINUOUS
 70
0
 71
3
 72
12
 73
8
 74
0
 42
0.0000001
 43
0.0000001
 44
0.0000000001
 40
0.0
 40
0.0
 40
0.0
 40
0.0
 40
0.3138166679
 40
0.6007426324
 40
0.8361910718
 40
0.9280886827
 40
1.0
 40
1.0
 40
1.0
 40
1.0
 10
6.3553212375
 20
5.692894571
 30
0.0
 10
6.3544138243
 20
5.7495290076
 30
0.0
 10
6.3526794768
 20
5.8579450303
 30
0.0
 10
6.3500491031
 20
6.0088485921
 30
0.0
 10
6.3477678735
 20
6.1196978133
 30
0.0
 10
6.3458162144
 20
6.1917346478
 30
0.0
 10
6.3448134162
 20
6.2212846654
 30
0.0
 10
6.3442740516
 20
6.2342529419
 30
0.0
  0
SPLINE
  5
594
100
AcDbEntity
  8
02___PRT_ALL_AXES
100
AcDbSpline
 62
7
  6
CONTINUOUS
 70
0
 71
3
 72
23
 73
19
 74
0
 42
0.0000001
 43
0.0000001
 44
0.0000000001
 40
0.0
 40
0.0
 40
0.0
 40
0.0
 40
0.0101455496
 40
0.0239361023
 40
0.0620113723
 40
0.113105178
 40
0.1757009799
 40
0.2870148402
 40
0.4125354472
 40
0.5438942367
 40
0.6723222055
 40
0.7892546025
 40
0.8409293962
 40
0.8868949018
 40
0.9263828839
 40
0.9587331672
 40
0.983409363
 40
1.0
 40
1.0
 40
1.0
 40
1.0
 10
6.5068733476
 20
5.1515757765
 30
0.0
 10
6.5065427216
 20
5.1552235428
 30
0.0
 10
6.5059453608
 20
5.1638455863
 30
0.0
 10
6.5047678081
 20
5.1862018115
 30
0.0
 10
6.5034081384
 20
5.2233491154
 30
0.0
 10
6.501842915
 20
5.2781162431
 30
0.0
 10
6.4999381693
 20
5.3593245169
 30
0.0
 10
6.4978063122
 20
5.4674030867
 30
0.0
 10
6.4954579277
 20
5.6003065428
 30
0.0
 10
6.493103732
 20
5.739389256
 30
0.0
 10
6.4907513817
 20
5.8753710419
 30
0.0
 10
6.4887314986
 20
5.9825870245
 30
0.0
 10
6.4870603283
 20
6.0600334767
 30
0.0
 10
6.485863916
 20
6.1095248836
 30
0.0
 10
6.4846718606
 20
6.1520372325
 30
0.0
 10
6.4834993844
 20
6.1868619697
 30
0.0
 10
6.4823329163
 20
6.2134122642
 30
0.0
 10
6.481444212
 20
6.2282878864
 30
0.0
 10
6.4809035518
 20
6.2342529419
 30
0.0
  0
SPLINE
  5
595
100
AcDbEntity
  8
02___PRT_ALL_AXES
100
AcDbSpline
 62
7
  6
CONTINUOUS
 70
0
 71
3
 72
17
 73
13
 74
0
 42
0.0000001
 43
0.0000001
 44
0.0000000001
 40
0.0
 40
0.0
 40
0.0
 40
0.0
 40
0.0359557965
 40
0.0819045597
 40
0.1368556222
 40
0.1996285174
 40
0.4206915121
 40
0.6569090557
 40
0.7664693137
 40
0.8631446752
 40
0.9422599146
 40
1.0
 40
1.0
 40
1.0
 40
1.0
 10
6.3073126712
 20
5.1515757765
 30
0.0
 10
6.3067733243
 20
5.1645436274
 30
0.0
 10
6.3057709932
 20
5.194092611
 30
0.0
 10
6.3044304667
 20
5.2434756302
 30
0.0
 10
6.303079852
 20
5.3025417465
 30
0.0
 10
6.3006237201
 20
5.4248100077
 30
0.0
 10
6.2975256837
 20
5.6125099603
 30
0.0
 10
6.2943117607
 20
5.8170987485
 30
0.0
 10
6.2915575904
 20
5.9767884884
 30
0.0
 10
6.2895627404
 20
6.0797734513
 30
0.0
 10
6.2875854501
 20
6.1640481249
 30
0.0
 10
6.2860850507
 20
6.2134283491
 30
0.0
 10
6.2852189335
 20
6.2342529419
 30
0.0
  0
SPLINE
  5
596
100
AcDbEntity
  8
02___PRT_ALL_AXES
100
AcDbSpline
 62
7
  6
CONTINUOUS
 70
0
 71
3
 72
23
 73
19
 74
0
 42
0.0000001
 43
0.0000001
 44
0.0000000001
 40
0.0
 40
0.0
 40
0.0
 40
0.0
 40
0.0101455455
 40
0.0239360934
 40
0.0620113325
 40
0.1131053697
 40
0.1757027122
 40
0.287017728
 40
0.4125380063
 40
0.5438968222
 40
0.6723247265
 40
0.7892572514
 40
0.8409306563
 40
0.8868951656
 40
0.9263828827
 40
0.958733178
 40
0.983409365
 40
1.0
 40
1.0
 40
1.0
 40
1.0
 10
6.6840387019
 20
5.1515757765
 30
0.0
 10
6.6837080761
 20
5.1552235413
 30
0.0
 10
6.6831107152
 20
5.1638455816
 30
0.0
 10
6.6819331637
 20
5.1862017925
 30
0.0
 10
6.6805734904
 20
5.2233491669
 30
0.0
 10
6.6790082504
 20
5.2781169231
 30
0.0
 10
6.6771034875
 20
5.3593262537
 30
0.0
 10
6.6749716173
 20
5.467405678
 30
0.0
 10
6.6726232332
 20
5.6003094422
 30
0.0
 10
6.670269039
 20
5.739392023
 30
0.0
 10
6.6679166867
 20
5.8753738413
 30
0.0
 10
6.6658968062
 20
5.9825893454
 30
0.0
 10
6.6642256475
 20
6.0600349828
 30
0.0
 10
6.6630292557
 20
6.1095254331
 30
0.0
 10
6.6618372113
 20
6.1520373311
 30
0.0
 10
6.6606647388
 20
6.1868619739
 30
0.0
 10
6.6594982704
 20
6.2134122688
 30
0.0
 10
6.6586095662
 20
6.2282878871
 30
0.0
 10
6.6580689061
 20
6.2342529419
 30
0.0
  0
SPLINE
  5
597
100
AcDbEntity
  8
02___PRT_ALL_AXES
100
AcDbSpline
 62
7
  6
CONTINUOUS
 70
0
 71
3
 72
17
 73
13
 74
0
 42
0.0000001
 43
0.0000001
 44
0.0000000001
 40
0.0
 40
0.0
 40
0.0
 40
0.0
 40
0.0359557965
 40
0.0819045597
 40
0.1368556222
 40
0.1996285174
 40
0.4206915121
 40
0.6569090557
 40
0.7664693137
 40
0.8631446752
 40
0.9422599146
 40
1.0
 40
1.0
 40
1.0
 40
1.0
 10
6.8388087342
 20
5.1515757765
 30
0.0
 10
6.8382693873
 20
5.1645436274
 30
0.0
 10
6.8372670562
 20
5.194092611
 30
0.0
 10
6.8359265297
 20
5.2434756302
 30
0.0
 10
6.834575915
 20
5.3025417465
 30
0.0
 10
6.832119783
 20
5.4248100077
 30
0.0
 10
6.8290217467
 20
5.6125099603
 30
0.0
 10
6.8258078237
 20
5.8170987485
 30
0.0
 10
6.8230536534
 20
5.9767884884
 30
0.0
 10
6.8210588034
 20
6.0797734513
 30
0.0
 10
6.8190815131
 20
6.1640481249
 30
0.0
 10
6.8175811137
 20
6.2134283491
 30
0.0
 10
6.8167149965
 20
6.2342529419
 30
0.0
  0
SPLINE
  5
598
100
AcDbEntity
  8
02___PRT_ALL_AXES
100
AcDbSpline
 62
7
  6
CONTINUOUS
 70
0
 71
3
 72
23
 73
19
 74
0
 42
0.0000001
 43
0.0000001
 44
0.0000000001
 40
0.0
 40
0.0
 40
0.0
 40
0.0
 40
0.0101454531
 40
0.0239357081
 40
0.0620099111
 40
0.1131033743
 40
0.1757013384
 40
0.2870189573
 40
0.4125403298
 40
0.5438956924
 40
0.6723217793
 40
0.7892570044
 40
0.8409324975
 40
0.8868981743
 40
0.9263858128
 40
0.9587352303
 40
0.9834099672
 40
1.0
 40
1.0
 40
1.0
 40
1.0
 10
6.3735519579
 20
6.2342529419
 30
0.0
 10
6.3738825807
 20
6.2306052103
 30
0.0
 10
6.3744799375
 20
6.2219833092
 30
0.0
 10
6.3756574607
 20
6.1996276106
 30
0.0
 10
6.3770171247
 20
6.1624809235
 30
0.0
 10
6.3785823638
 20
6.1077135241
 30
0.0
 10
6.3804871592
 20
6.0265032371
 30
0.0
 10
6.3826190579
 20
5.9184222538
 30
0.0
 10
6.384967441
 20
5.7855184014
 30
0.0
 10
6.3873216099
 20
5.6464373282
 30
0.0
 10
6.3896739469
 20
5.5104564377
 30
0.0
 10
6.3916938402
 20
5.403239861
 30
0.0
 10
6.3933650499
 20
5.3257920741
 30
0.0
 10
6.3945614781
 20
5.2763004773
 30
0.0
 10
6.3957535338
 20
5.2337885033
 30
0.0
 10
6.3969260029
 20
5.1989647299
 30
0.0
 10
6.3980924293
 20
5.1724154916
 30
0.0
 10
6.3989811132
 20
5.1575406148
 30
0.0
 10
6.3995217537
 20
5.1515757765
 30
0.0
  0
SPLINE
  5
599
100
AcDbEntity
  8
02___PRT_ALL_AXES
100
AcDbSpline
 62
7
  6
CONTINUOUS
 70
0
 71
3
 72
23
 73
19
 74
0
 42
0.0000001
 43
0.0000001
 44
0.0000000001
 40
0.0
 40
0.0
 40
0.0
 40
0.0
 40
0.0101455329
 40
0.0239360485
 40
0.0620112097
 40
0.1131049805
 40
0.1757021155
 40
0.2870185871
 40
0.4125394641
 40
0.5438968461
 40
0.672322955
 40
0.7892573468
 40
0.8409324916
 40
0.8868978829
 40
0.9263853683
 40
0.9587349528
 40
0.9834100326
 40
1.0
 40
1.0
 40
1.0
 40
1.0
 10
6.6249835838
 20
5.1515757765
 30
0.0
 10
6.6246529584
 20
5.1552235368
 30
0.0
 10
6.6240555979
 20
5.1638455609
 30
0.0
 10
6.6228780489
 20
5.1862017275
 30
0.0
 10
6.6215183795
 20
5.223348966
 30
0.0
 10
6.6199531421
 20
5.278116523
 30
0.0
 10
6.6180483701
 20
5.3593262079
 30
0.0
 10
6.6159164869
 20
5.467406299
 30
0.0
 10
6.613568101
 20
5.6003102873
 30
0.0
 10
6.6112139227
 20
5.7393919186
 30
0.0
 10
6.6088615779
 20
5.8753732451
 30
0.0
 10
6.6068416897
 20
5.9825894031
 30
0.0
 10
6.6051704915
 20
6.0600366606
 30
0.0
 10
6.6039740695
 20
6.1095279733
 30
0.0
 10
6.6027820213
 20
6.1520398494
 30
0.0
 10
6.6016095443
 20
6.1868637514
 30
0.0
 10
6.6004431201
 20
6.2134131505
 30
0.0
 10
6.5995544264
 20
6.2282881271
 30
0.0
 10
6.599013788
 20
6.2342529419
 30
0.0
  0
SPLINE
  5
59A
100
AcDbEntity
  8
02___PRT_ALL_AXES
100
AcDbSpline
 62
7
  6
CONTINUOUS
 70
0
 71
3
 72
17
 73
13
 74
0
 42
0.0000001
 43
0.0000001
 44
0.0000000001
 40
0.0
 40
0.0
 40
0.0
 40
0.0
 40
0.0359557965
 40
0.0819045597
 40
0.1368556222
 40
0.1996285174
 40
0.4206915121
 40
0.6569090557
 40
0.7664693137
 40
0.8631446752
 40
0.9422599146
 40
1.0
 40
1.0
 40
1.0
 40
1.0
 10
6.7797536161
 20
5.1515757765
 30
0.0
 10
6.7792142692
 20
5.1645436274
 30
0.0
 10
6.778211938
 20
5.194092611
 30
0.0
 10
6.7768714116
 20
5.2434756302
 30
0.0
 10
6.7755207969
 20
5.3025417465
 30
0.0
 10
6.7730646649
 20
5.4248100077
 30
0.0
 10
6.7699666286
 20
5.6125099603
 30
0.0
 10
6.7667527056
 20
5.8170987485
 30
0.0
 10
6.7639985353
 20
5.9767884884
 30
0.0
 10
6.7620036852
 20
6.0797734513
 30
0.0
 10
6.7600263949
 20
6.1640481249
 30
0.0
 10
6.7585259956
 20
6.2134283491
 30
0.0
 10
6.7576598784
 20
6.2342529419
 30
0.0
  0
SPLINE
  5
59B
100
AcDbEntity
  8
02___PRT_ALL_AXES
100
AcDbSpline
 62
7
  6
CONTINUOUS
 70
0
 71
3
 72
23
 73
19
 74
0
 42
0.0000001
 43
0.0000001
 44
0.0000000001
 40
0.0
 40
0.0
 40
0.0
 40
0.0
 40
0.0101455748
 40
0.0239361837
 40
0.0620116066
 40
0.1131057558
 40
0.1757024898
 40
0.2870157063
 40
0.4125364941
 40
0.5438956661
 40
0.6723239775
 40
0.7892555714
 40
0.8409294136
 40
0.8868945601
 40
0.9263825803
 40
0.958732999
 40
0.9834093115
 40
1.0
 40
1.0
 40
1.0
 40
1.0
 10
6.3887631113
 20
5.1515757765
 30
0.0
 10
6.3884324846
 20
5.1552235519
 30
0.0
 10
6.3878351233
 20
5.1638456248
 30
0.0
 10
6.3866575652
 20
5.1862019344
 30
0.0
 10
6.3852978915
 20
5.2233494378
 30
0.0
 10
6.3837326561
 20
5.2781170812
 30
0.0
 10
6.3818279122
 20
5.3593255831
 30
0.0
 10
6.3796960529
 20
5.4674043222
 30
0.0
 10
6.377347671
 20
5.6003077493
 30
0.0
 10
6.3749934696
 20
5.7393907895
 30
0.0
 10
6.3726411187
 20
5.8753725472
 30
0.0
 10
6.3706212418
 20
5.9825880201
 30
0.0
 10
6.3689500864
 20
6.0600337094
 30
0.0
 10
6.3677536858
 20
6.1095246569
 30
0.0
 10
6.3665616327
 20
6.1520369389
 30
0.0
 10
6.3653891562
 20
6.1868617809
 30
0.0
 10
6.3642226832
 20
6.2134121849
 30
0.0
 10
6.3633339774
 20
6.2282878678
 30
0.0
 10
6.3627933156
 20
6.2342529419
 30
0.0
  0
SPLINE
  5
59C
100
AcDbEntity
  8
02___PRT_ALL_AXES
100
AcDbSpline
 62
7
  6
CONTINUOUS
 70
0
 71
3
 72
17
 73
13
 74
0
 42
0.0000001
 43
0.0000001
 44
0.0000000001
 40
0.0
 40
0.0
 40
0.0
 40
0.0
 40
0.0359557965
 40
0.0819045597
 40
0.1368556222
 40
0.1996285174
 40
0.4206915121
 40
0.6569090557
 40
0.7664693137
 40
0.8631446752
 40
0.9422599146
 40
1.0
 40
1.0
 40
1.0
 40
1.0
 10
6.720698498
 20
5.1515757765
 30
0.0
 10
6.7201591511
 20
5.1645436274
 30
0.0
 10
6.7191568199
 20
5.194092611
 30
0.0
 10
6.7178162935
 20
5.2434756302
 30
0.0
 10
6.7164656788
 20
5.3025417465
 30
0.0
 10
6.7140095468
 20
5.4248100077
 30
0.0
 10
6.7109115105
 20
5.6125099603
 30
0.0
 10
6.7076975875
 20
5.8170987485
 30
0.0
 10
6.7049434171
 20
5.9767884884
 30
0.0
 10
6.7029485671
 20
6.0797734513
 30
0.0
 10
6.7009712768
 20
6.1640481249
 30
0.0
 10
6.6994708775
 20
6.2134283491
 30
0.0
 10
6.6986047603
 20
6.2342529419
 30
0.0
  0
SPLINE
  5
59D
100
AcDbEntity
  8
02___PRT_ALL_AXES
100
AcDbSpline
 62
7
  6
CONTINUOUS
 70
0
 71
3
 72
23
 73
19
 74
0
 42
0.0000001
 43
0.0000001
 44
0.0000000001
 40
0.0
 40
0.0
 40
0.0
 40
0.0
 40
0.0101454531
 40
0.0239357081
 40
0.0620099111
 40
0.1131033743
 40
0.1757013384
 40
0.2870189573
 40
0.4125403298
 40
0.5438956924
 40
0.6723217793
 40
0.7892570044
 40
0.8409324975
 40
0.8868981743
 40
0.9263858128
 40
0.9587352303
 40
0.9834099672
 40
1.0
 40
1.0
 40
1.0
 40
1.0
 10
6.7869377847
 20
6.2342529419
 30
0.0
 10
6.7872684075
 20
6.2306052103
 30
0.0
 10
6.7878657643
 20
6.2219833092
 30
0.0
 10
6.7890432874
 20
6.1996276106
 30
0.0
 10
6.7904029515
 20
6.1624809235
 30
0.0
 10
6.7919681906
 20
6.1077135241
 30
0.0
 10
6.7938729859
 20
6.0265032371
 30
0.0
 10
6.7960048846
 20
5.9184222538
 30
0.0
 10
6.7983532677
 20
5.7855184014
 30
0.0
 10
6.8007074367
 20
5.6464373282
 30
0.0
 10
6.8030597736
 20
5.5104564377
 30
0.0
 10
6.805079667
 20
5.403239861
 30
0.0
 10
6.8067508767
 20
5.3257920741
 30
0.0
 10
6.8079473049
 20
5.2763004773
 30
0.0
 10
6.8091393606
 20
5.2337885033
 30
0.0
 10
6.8103118297
 20
5.1989647299
 30
0.0
 10
6.8114782561
 20
5.1724154916
 30
0.0
 10
6.81236694
 20
5.1575406148
 30
0.0
 10
6.8129075804
 20
5.1515757765
 30
0.0
  0
SPLINE
  5
59E
100
AcDbEntity
  8
0
100
AcDbSpline
 62
7
  6
CONTINUOUS
 70
0
 71
3
 72
25
 73
21
 74
0
 42
0.0000001
 43
0.0000001
 44
0.0000000001
 40
0.0
 40
0.0
 40
0.0
 40
0.0
 40
0.0625019456
 40
0.1249989832
 40
0.1874979112
 40
0.2499944301
 40
0.3124900656
 40
0.3749840005
 40
0.437476952
 40
0.4999679436
 40
0.5624578817
 40
0.6249457846
 40
0.687432288
 40
0.718714259
 40
0.7499960965
 40
0.8124790659
 40
0.8749605797
 40
0.9062409637
 40
0.9375210048
 40
1.0
 40
1.0
 40
1.0
 40
1.0
 10
11.6144206656
 20
5.2576599358
 30
0.0
 10
11.5881526805
 20
5.2581973764
 30
0.0
 10
11.5355897002
 20
5.2640604242
 30
0.0
 10
11.4597542109
 20
5.287042587
 30
0.0
 10
11.3893899582
 20
5.3235522551
 30
0.0
 10
11.3269987026
 20
5.3724561474
 30
0.0
 10
11.2748237339
 20
5.4321487922
 30
0.0
 10
11.2348175528
 20
5.5006032194
 30
0.0
 10
11.2085412666
 20
5.5754175262
 30
0.0
 10
11.197092638
 20
5.6538879199
 30
0.0
 10
11.2010448331
 20
5.7331012967
 30
0.0
 10
11.22038346
 20
5.8100127176
 30
0.0
 10
11.2488611587
 20
5.8697296601
 30
0.0
 10
11.2783843233
 20
5.913315144
 30
0.0
 10
11.3121300602
 20
5.9537192619
 30
0.0
 10
11.3617354415
 20
5.9975012557
 30
0.0
 10
11.4192229261
 20
6.0302734126
 30
0.0
 10
11.4684385757
 20
6.0489763718
 30
0.0
 10
11.5193057346
 20
6.0624803281
 30
0.0
 10
11.558891425
 20
6.0665544956
 30
0.0
 10
11.585155132
 20
6.0664724676
 30
0.0
  0
SPLINE
  5
59F
100
AcDbEntity
  8
02___PRT_ALL_AXES
100
AcDbSpline
 62
7
  6
CONTINUOUS
 70
0
 71
3
 72
23
 73
19
 74
0
 42
0.0000001
 43
0.0000001
 44
0.0000000001
 40
0.0
 40
0.0
 40
0.0
 40
0.0
 40
0.0624988177
 40
0.1250007894
 40
0.187499872
 40
0.2500002402
 40
0.3125001098
 40
0.3750001105
 40
0.4375000537
 40
0.5
 40
0.5624999463
 40
0.6249998895
 40
0.6874998902
 40
0.7499997598
 40
0.812500128
 40
0.8749992106
 40
0.9375011823
 40
1.0
 40
1.0
 40
1.0
 40
1.0
 10
11.8296355111
 20
6.2342529419
 30
0.0
 10
11.8561217333
 20
6.2231961648
 30
0.0
 10
11.9075486747
 20
6.1971453039
 30
0.0
 10
11.9780761531
 20
6.1472345331
 30
0.0
 10
12.0405528118
 20
6.0875251921
 30
0.0
 10
12.0936121635
 20
6.0193178014
 30
0.0
 10
12.1361154818
 20
5.9440761863
 30
0.0
 10
12.1671465859
 20
5.8634237874
 30
0.0
 10
12.1860366567
 20
5.779097469
 30
0.0
 10
12.1923789482
 20
5.6929143592
 30
0.0
 10
12.1860366567
 20
5.6067312493
 30
0.0
 10
12.1671465859
 20
5.522404931
 30
0.0
 10
12.1361154818
 20
5.4417525321
 30
0.0
 10
12.0936121635
 20
5.366510917
 30
0.0
 10
12.0405528118
 20
5.2983035262
 30
0.0
 10
11.9780761531
 20
5.2385941852
 30
0.0
 10
11.9075486747
 20
5.1886834145
 30
0.0
 10
11.8561217333
 20
5.1626325536
 30
0.0
 10
11.8296355111
 20
5.1515757765
 30
0.0
  0
SPLINE
  5
5A0
100
AcDbEntity
  8
02___PRT_ALL_AXES
100
AcDbSpline
 62
7
  6
CONTINUOUS
 70
0
 71
3
 72
23
 73
19
 74
0
 42
0.0000001
 43
0.0000001
 44
0.0000000001
 40
0.0
 40
0.0
 40
0.0
 40
0.0
 40
0.0624988177
 40
0.1250007894
 40
0.187499872
 40
0.2500002402
 40
0.3125001098
 40
0.3750001105
 40
0.4375000537
 40
0.5
 40
0.5624999463
 40
0.6249998895
 40
0.6874998902
 40
0.7499997598
 40
0.812500128
 40
0.8749992106
 40
0.9375011823
 40
1.0
 40
1.0
 40
1.0
 40
1.0
 10
11.377667693
 20
5.1515757765
 30
0.0
 10
11.3511814708
 20
5.1626325536
 30
0.0
 10
11.2997545294
 20
5.1886834145
 30
0.0
 10
11.229227051
 20
5.2385941852
 30
0.0
 10
11.1667503923
 20
5.2983035262
 30
0.0
 10
11.1136910406
 20
5.366510917
 30
0.0
 10
11.0711877223
 20
5.4417525321
 30
0.0
 10
11.0401566182
 20
5.522404931
 30
0.0
 10
11.0212665474
 20
5.6067312493
 30
0.0
 10
11.0149242559
 20
5.6929143592
 30
0.0
 10
11.0212665474
 20
5.779097469
 30
0.0
 10
11.0401566182
 20
5.8634237874
 30
0.0
 10
11.0711877223
 20
5.9440761863
 30
0.0
 10
11.1136910406
 20
6.0193178014
 30
0.0
 10
11.1667503923
 20
6.0875251921
 30
0.0
 10
11.229227051
 20
6.1472345331
 30
0.0
 10
11.2997545294
 20
6.1971453039
 30
0.0
 10
11.3511814708
 20
6.2231961648
 30
0.0
 10
11.377667693
 20
6.2342529419
 30
0.0
  0
LINE
  5
5A1
100
AcDbEntity
  8
0
100
AcDbLine
 62
7
  6
CONTINUOUS
 10
11.4999542226
 20
5.1515757765
 11
11.4962823883
 21
5.1122056978
  0
LINE
  5
5A2
100
AcDbEntity
  8
0
100
AcDbLine
 62
7
  6
CONTINUOUS
 10
11.7073489815
 20
6.2342529419
 11
11.7110208158
 21
6.2736230206
  0
LINE
  5
5A3
100
AcDbEntity
  8
0
100
AcDbLine
 62
7
  6
CONTINUOUS
 10
11.4999542226
 20
6.2342529419
 11
11.503760937
 21
6.1948828631
  0
LINE
  5
5A4
100
AcDbEntity
  8
0
100
AcDbLine
 62
7
  6
CONTINUOUS
 10
11.4999542226
 20
5.1515757765
 11
11.503760937
 21
5.1909458552
  0
LINE
  5
5A5
100
AcDbEntity
  8
0
100
AcDbLine
 62
7
  6
CONTINUOUS
 10
11.7073489815
 20
5.1515757765
 11
11.7110208158
 21
5.1122056978
  0
SPLINE
  5
5A6
100
AcDbEntity
  8
0
100
AcDbSpline
 62
7
  6
CONTINUOUS
 70
0
 71
3
 72
25
 73
21
 74
0
 42
0.0000001
 43
0.0000001
 44
0.0000000001
 40
0.0
 40
0.0
 40
0.0
 40
0.0
 40
0.0624791632
 40
0.0937594185
 40
0.1250396847
 40
0.1875213924
 40
0.2500039915
 40
0.2812859157
 40
0.3125681013
 40
0.375054445
 40
0.4375424771
 40
0.5000320777
 40
0.5625233258
 40
0.6250160588
 40
0.6875099945
 40
0.7500055475
 40
0.8125019332
 40
0.8750009069
 40
0.9374977999
 40
1.0
 40
1.0
 40
1.0
 40
1.0
 10
11.6036516021
 20
6.0669301072
 30
0.0
 10
11.6298791871
 20
6.0683108766
 30
0.0
 10
11.6696180898
 20
6.0661993215
 30
0.0
 10
11.7210909185
 20
6.0552273658
 30
0.0
 10
11.7711714277
 20
6.0389812341
 30
0.0
 10
11.8302090188
 20
6.0090919076
 30
0.0
 10
11.881918934
 20
5.9678167977
 30
0.0
 10
11.9176213844
 20
5.9291308844
 30
0.0
 10
11.9492639784
 20
5.8870587612
 30
0.0
 10
11.9806600628
 20
5.8288231059
 30
0.0
 10
12.0037782628
 20
5.7529622404
 30
0.0
 10
12.0116432208
 20
5.674041246
 30
0.0
 10
12.0040890657
 20
5.5951008202
 30
0.0
 10
11.9815448067
 20
5.519078578
 30
0.0
 10
11.9449728643
 20
5.4487296251
 30
0.0
 10
11.8958139564
 20
5.3865297271
 30
0.0
 10
11.8359174463
 20
5.3346003886
 30
0.0
 10
11.7674450133
 20
5.2946555167
 30
0.0
 10
11.692838793
 20
5.2679511212
 30
0.0
 10
11.640630038
 20
5.2594957758
 30
0.0
 10
11.6144206656
 20
5.2576599358
 30
0.0
  0
LINE
  5
5A7
100
AcDbEntity
  8
0
100
AcDbLine
 62
7
  6
CONTINUOUS
 10
11.4962823883
 20
6.2736230206
 11
11.4999542226
 21
6.2342529419
  0
LINE
  5
5A8
100
AcDbEntity
  8
0
100
AcDbLine
 62
7
  6
CONTINUOUS
 10
11.7073489815
 20
6.2342529419
 11
11.7035422671
 21
6.1948828631
  0
LINE
  5
5A9
100
AcDbEntity
  8
0
100
AcDbLine
 62
7
  6
CONTINUOUS
 10
11.7073489815
 20
5.1515757765
 11
11.7035422671
 21
5.1909458552
  0
SPLINE
  5
5AA
100
AcDbEntity
  8
0
100
AcDbSpline
 62
7
  6
CONTINUOUS
 70
0
 71
3
 72
22
 73
18
 74
0
 42
0.0000001
 43
0.0000001
 44
0.0000000001
 40
0.0
 40
0.0
 40
0.0
 40
0.0
 40
0.0752065191
 40
0.1485498386
 40
0.2894035986
 40
0.3569475466
 40
0.4226046367
 40
0.4864361073
 40
0.5485230274
 40
0.608966688
 40
0.6678952116
 40
0.7254660884
 40
0.7818587821
 40
0.8372767556
 40
0.8919444694
 40
0.9461013797
 40
1.0
 40
1.0
 40
1.0
 40
1.0
 10
14.9820429765
 20
8.6535889731
 30
0.0
 10
14.9854693434
 20
8.651610804
 30
0.0
 10
14.9921563055
 20
8.6475603075
 30
0.0
 10
15.0048163776
 20
8.63909824
 30
0.0
 10
15.0165606069
 20
8.6300081377
 30
0.0
 10
15.0272262648
 20
8.6202988479
 30
0.0
 10
15.0344960024
 20
8.6129020426
 30
0.0
 10
15.0411290866
 20
8.6053062427
 30
0.0
 10
15.0471107252
 20
8.5975300467
 30
0.0
 10
15.0524254306
 20
8.589591538
 30
0.0
 10
15.0570589388
 20
8.5815091893
 30
0.0
 10
15.0610009834
 20
8.5733031731
 30
0.0
 10
15.0642406856
 20
8.5649926394
 30
0.0
 10
15.0667689611
 20
8.5565977299
 30
0.0
 10
15.0685806243
 20
8.54813926
 30
0.0
 10
15.06966947
 20
8.5396386343
 30
0.0
 10
15.069911505
 20
8.5339511837
 30
0.0
 10
15.0699115044
 20
8.5311157275
 30
0.0
  0
SPLINE
  5
5AB
100
AcDbEntity
  8
0
100
AcDbSpline
 62
7
  6
CONTINUOUS
 70
0
 71
3
 72
42
 73
38
 74
0
 42
0.0000001
 43
0.0000001
 44
0.0000000001
 40
0.0
 40
0.0
 40
0.0
 40
0.0
 40
0.0106525343
 40
0.0213338184
 40
0.0320723479
 40
0.0428957243
 40
0.0538303909
 40
0.0649015684
 40
0.0875369824
 40
0.1109765566
 40
0.1353535009
 40
0.1607659023
 40
0.1872807146
 40
0.2149331027
 40
0.2437322679
 40
0.2736616882
 40
0.3046846467
 40
0.3367446703
 40
0.3697700425
 40
0.4036743893
 40
0.4383601399
 40
0.4737193159
 40
0.5096361723
 40
0.5459881587
 40
0.5826480555
 40
0.6194849775
 40
0.6563664013
 40
0.6931590009
 40
0.729730731
 40
0.765951419
 40
0.8016958908
 40
0.8368435801
 40
0.871280296
 40
0.9048997606
 40
0.9376140754
 40
0.9693436278
 40
1.0
 40
1.0
 40
1.0
 40
1.0
 10
14.4699121462
 20
8.5311157337
 30
0.0
 10
14.4699121467
 20
8.5332418451
 30
0.0
 10
14.4700479953
 20
8.5375010482
 30
0.0
 10
14.4706590487
 20
8.5438771621
 30
0.0
 10
14.4716773018
 20
8.5502357811
 30
0.0
 10
14.4731004032
 20
8.5565678039
 30
0.0
 10
14.4749262078
 20
8.5628648903
 30
0.0
 10
14.477915805
 20
8.5712629261
 30
0.0
 10
14.48268285
 20
8.5816541026
 30
0.0
 10
14.4899170112
 20
8.5937410785
 30
0.0
 10
14.4986675043
 20
8.605476678
 30
0.0
 10
14.5088815754
 20
8.6168001729
 30
0.0
 10
14.5205043441
 20
8.6276514931
 30
0.0
 10
14.5334707633
 20
8.6379759054
 30
0.0
 10
14.5477118474
 20
8.6477179657
 30
0.0
 10
14.5631500091
 20
8.6568279509
 30
0.0
 10
14.5797029051
 20
8.6652565014
 30
0.0
 10
14.5972811193
 20
8.6729598989
 30
0.0
 10
14.6157904273
 20
8.679896257
 30
0.0
 10
14.6351310606
 20
8.6860290451
 30
0.0
 10
14.6551989386
 20
8.6913250071
 30
0.0
 10
14.6758859061
 20
8.6957558029
 30
0.0
 10
14.6970803676
 20
8.6992976686
 30
0.0
 10
14.7186680441
 20
8.7019312027
 30
0.0
 10
14.740532343
 20
8.7036427201
 30
0.0
 10
14.7625553039
 20
8.7044222638
 30
0.0
 10
14.7846179739
 20
8.7042665419
 30
0.0
 10
14.8066012383
 20
8.7031752619
 30
0.0
 10
14.828386408
 20
8.7011556476
 30
0.0
 10
14.8498558323
 20
8.6982171604
 30
0.0
 10
14.8708939132
 20
8.6943771857
 30
0.0
 10
14.8913867294
 20
8.6896545039
 30
0.0
 10
14.9112238526
 20
8.6840769156
 30
0.0
 10
14.9302985675
 20
8.6776723899
 30
0.0
 10
14.9485101045
 20
8.6704758474
 30
0.0
 10
14.9657561094
 20
8.6625249804
 30
0.0
 10
14.9767440619
 20
8.6566482336
 30
0.0
 10
14.9820429765
 20
8.6535889731
 30
0.0
  0
SPLINE
  5
5AC
100
AcDbEntity
  8
0
100
AcDbSpline
 62
7
  6
CONTINUOUS
 70
0
 71
3
 72
15
 73
11
 74
0
 42
0.0000001
 43
0.0000001
 44
0.0000000001
 40
0.0
 40
0.0
 40
0.0
 40
0.0
 40
0.1191757984
 40
0.2389462995
 40
0.3598923659
 40
0.4825640934
 40
0.6074758156
 40
0.7350901826
 40
0.865813518
 40
1.0
 40
1.0
 40
1.0
 40
1.0
 10
15.0699115044
 20
8.5311157275
 30
0.0
 10
15.0699115037
 20
8.5282217428
 30
0.0
 10
15.069659325
 20
8.5224161955
 30
0.0
 10
15.0685248938
 20
8.5137404005
 30
0.0
 10
15.0666376607
 20
8.5051094746
 30
0.0
 10
15.0640041809
 20
8.4965461716
 30
0.0
 10
15.0606300679
 20
8.4880727174
 30
0.0
 10
15.0565254737
 20
8.4797102469
 30
0.0
 10
15.0517022521
 20
8.4714796686
 30
0.0
 10
15.0480645522
 20
8.4661669382
 30
0.0
 10
15.0461364887
 20
8.4635400857
 30
0.0
  0
SPLINE
  5
5AD
100
AcDbEntity
  8
0
100
AcDbSpline
 62
7
  6
CONTINUOUS
 70
0
 71
3
 72
9
 73
5
 74
0
 42
0.0000001
 43
0.0000001
 44
0.0000000001
 40
0.0
 40
0.0
 40
0.0
 40
0.0
 40
0.2449896696
 40
1.0
 40
1.0
 40
1.0
 40
1.0
 10
15.0400826705
 20
8.45582282
 30
0.0
 10
15.0390517928
 20
8.4545897824
 30
0.0
 10
15.0347691617
 20
8.4496195611
 30
0.0
 10
15.0301966504
 20
8.4449008045
 30
0.0
 10
15.0266138248
 20
8.4414808167
 30
0.0
  0
SPLINE
  5
5AE
100
AcDbEntity
  8
0
100
AcDbSpline
 62
7
  6
CONTINUOUS
 70
0
 71
3
 72
28
 73
24
 74
0
 42
0.0000001
 43
0.0000001
 44
0.0000000001
 40
0.0
 40
0.0
 40
0.0
 40
0.0
 40
0.0498430947
 40
0.07573966
 40
0.1022820131
 40
0.1572649238
 40
0.1856918555
 40
0.2147147371
 40
0.2744498064
 40
0.3362640953
 40
0.3678757101
 40
0.3999070616
 40
0.4650705676
 40
0.5314403736
 40
0.5986743616
 40
0.666415212
 40
0.7003647697
 40
0.7343037947
 40
0.8019607779
 40
0.8690280149
 40
0.9022321895
 40
0.9351576755
 40
1.0
 40
1.0
 40
1.0
 40
1.0
 10
15.0266138248
 20
8.4414808167
 30
0.0
 10
15.0218255006
 20
8.4369101198
 30
0.0
 10
15.014182938
 20
8.4303385882
 30
0.0
 10
15.0033037666
 20
8.4221997881
 30
0.0
 10
14.9915150369
 20
8.4141574977
 30
0.0
 10
14.9789428167
 20
8.4066937218
 30
0.0
 10
14.9656930106
 20
8.3998031721
 30
0.0
 10
14.9516309915
 20
8.3931268944
 30
0.0
 10
14.9331235396
 20
8.3855098839
 30
0.0
 10
14.9138393045
 20
8.378994936
 30
0.0
 10
14.8978265734
 20
8.3743819503
 30
0.0
 10
14.881253447
 20
8.3701340399
 30
0.0
 10
14.8599836241
 20
8.3656589012
 30
0.0
 10
14.8338778856
 20
8.3616563004
 30
0.0
 10
14.807254918
 20
8.3590245651
 30
0.0
 10
14.7848329887
 20
8.357990858
 30
0.0
 10
14.7668188732
 20
8.3578639159
 30
0.0
 10
14.7488186393
 20
8.3582049491
 30
0.0
 10
14.726445512
 20
8.3595045618
 30
0.0
 10
14.7042683435
 20
8.3619687183
 30
0.0
 10
14.6867786256
 20
8.3646352731
 30
0.0
 10
14.669659887
 20
8.3677271835
 30
0.0
 10
14.6569803646
 20
8.3705673719
 30
0.0
 10
14.6486361103
 20
8.3726966776
 30
0.0
  0
SPLINE
  5
5AF
100
AcDbEntity
  8
0
100
AcDbSpline
 62
7
  6
CONTINUOUS
 70
0
 71
3
 72
13
 73
9
 74
0
 42
0.0000001
 43
0.0000001
 44
0.0000000001
 40
0.0
 40
0.0
 40
0.0
 40
0.0
 40
0.2630805988
 40
0.3916826575
 40
0.5181372268
 40
0.7640914407
 40
0.8833731396
 40
1.0
 40
1.0
 40
1.0
 40
1.0
 10
14.6486361103
 20
8.3726966776
 30
0.0
 10
14.6403091769
 20
8.3748215634
 30
0.0
 10
14.6279998413
 20
8.3783508756
 30
0.0
 10
14.6119690981
 20
8.3837883582
 30
0.0
 10
14.5966482362
 20
8.3895492323
 30
0.0
 10
14.5819027197
 20
8.3959566622
 30
0.0
 10
14.5678325783
 20
8.4030193736
 30
0.0
 10
14.5610800121
 20
8.4067376502
 30
0.0
 10
14.5577806741
 20
8.4086424808
 30
0.0
  0
SPLINE
  5
5B0
100
AcDbEntity
  8
0
100
AcDbSpline
 62
7
  6
CONTINUOUS
 70
0
 71
3
 72
12
 73
8
 74
0
 42
0.0000001
 43
0.0000001
 44
0.0000000001
 40
0.0
 40
0.0
 40
0.0
 40
0.0
 40
0.2675862216
 40
0.5234897659
 40
0.6469892749
 40
0.7675424785
 40
1.0
 40
1.0
 40
1.0
 40
1.0
 10
14.5577806741
 20
8.4086424808
 30
0.0
 10
14.5519738196
 20
8.4119949939
 30
0.0
 10
14.5408419241
 20
8.4189606638
 30
0.0
 10
14.5278037045
 20
8.4286291436
 30
0.0
 10
14.5182518751
 20
8.4367418183
 30
0.0
 10
14.5095108694
 20
8.4448797475
 30
0.0
 10
14.5034669903
 20
8.4513654272
 30
0.0
 10
14.4997312712
 20
8.4558346268
 30
0.0
  0
SPLINE
  5
5B1
100
AcDbEntity
  8
0
100
AcDbSpline
 62
7
  6
CONTINUOUS
 70
0
 71
3
 72
15
 73
11
 74
0
 42
0.0000001
 43
0.0000001
 44
0.0000000001
 40
0.0
 40
0.0
 40
0.0
 40
0.0
 40
0.1341795044
 40
0.264897096
 40
0.3925075233
 40
0.5174180987
 40
0.6400917317
 40
0.7610419723
 40
0.8808180318
 40
1.0
 40
1.0
 40
1.0
 40
1.0
 10
14.493657955
 20
8.4635800422
 30
0.0
 10
14.4917321483
 20
8.4662055971
 30
0.0
 10
14.4880987364
 20
8.4715155869
 30
0.0
 10
14.4832813924
 20
8.4797416292
 30
0.0
 10
14.4791819204
 20
8.488099268
 30
0.0
 10
14.4758120725
 20
8.4965676621
 30
0.0
 10
14.4731818974
 20
8.5051257309
 30
0.0
 10
14.4712970168
 20
8.5137513087
 30
0.0
 10
14.4701640032
 20
8.5224216763
 30
0.0
 10
14.4699121454
 20
8.5282235638
 30
0.0
 10
14.4699121462
 20
8.5311157337
 30
0.0
  0
SPLINE
  5
5B2
100
AcDbEntity
  8
AXIS_COSMETIC_THREADS
100
AcDbSpline
 62
7
  6
CONTINUOUS
 70
0
 71
3
 72
14
 73
10
 74
0
 42
0.0000001
 43
0.0000001
 44
0.0000000001
 40
0.0
 40
0.0
 40
0.0
 40
0.0
 40
0.2886211462
 40
0.4221940245
 40
0.5484771302
 40
0.6679834388
 40
0.7819566829
 40
0.8920043764
 40
1.0
 40
1.0
 40
1.0
 40
1.0
 10
14.6956656869
 20
4.3551908575
 30
0.0
 10
14.6945708428
 20
4.3558229516
 30
0.0
 10
14.6930372255
 20
4.3568826932
 30
0.0
 10
14.6912973414
 20
4.358544967
 30
0.0
 10
14.6902345674
 20
4.359828169
 30
0.0
 10
14.6893971076
 20
4.3611690606
 30
0.0
 10
14.688792262
 20
4.3625532995
 30
0.0
 10
14.6884254687
 20
4.363966912
 30
0.0
 10
14.6883430229
 20
4.3649239206
 30
0.0
 10
14.6883432828
 20
4.3653969598
 30
0.0
  0
SPLINE
  5
5B3
100
AcDbEntity
  8
AXIS_COSMETIC_THREADS
100
AcDbSpline
 62
7
  6
CONTINUOUS
 70
0
 71
3
 72
14
 73
10
 74
0
 42
0.0000001
 43
0.0000001
 44
0.0000000001
 40
0.0
 40
0.0
 40
0.0
 40
0.0
 40
0.2886211462
 40
0.4221940245
 40
0.5484771302
 40
0.6679834388
 40
0.7819566829
 40
0.8920043764
 40
1.0
 40
1.0
 40
1.0
 40
1.0
 10
14.8088027719
 20
4.3551911294
 30
0.0
 10
14.8077079278
 20
4.3558232236
 30
0.0
 10
14.8061743105
 20
4.3568829651
 30
0.0
 10
14.8044344264
 20
4.358545239
 30
0.0
 10
14.8033716524
 20
4.359828441
 30
0.0
 10
14.8025341926
 20
4.3611693325
 30
0.0
 10
14.801929347
 20
4.3625535715
 30
0.0
 10
14.8015625537
 20
4.363967184
 30
0.0
 10
14.8014801079
 20
4.3649241925
 30
0.0
 10
14.8014803678
 20
4.3653972317
 30
0.0
  0
SPLINE
  5
5B4
100
AcDbEntity
  8
AXIS_COSMETIC_THREADS
100
AcDbSpline
 62
7
  6
CONTINUOUS
 70
0
 71
3
 72
14
 73
10
 74
0
 42
0.0000001
 43
0.0000001
 44
0.0000000001
 40
0.0
 40
0.0
 40
0.0
 40
0.0
 40
0.2886211462
 40
0.4221940245
 40
0.5484771302
 40
0.6679834388
 40
0.7819566829
 40
0.8920043764
 40
1.0
 40
1.0
 40
1.0
 40
1.0
 10
14.7522344649
 20
4.3225315971
 30
0.0
 10
14.7511396209
 20
4.3231636913
 30
0.0
 10
14.7496060035
 20
4.3242234328
 30
0.0
 10
14.7478661194
 20
4.3258857067
 30
0.0
 10
14.7468033455
 20
4.3271689086
 30
0.0
 10
14.7459658856
 20
4.3285098002
 30
0.0
 10
14.74536104
 20
4.3298940392
 30
0.0
 10
14.7449942467
 20
4.3313076516
 30
0.0
 10
14.7449118009
 20
4.3322646602
 30
0.0
 10
14.7449120608
 20
4.3327376994
 30
0.0
  0
SPLINE
  5
5B5
100
AcDbEntity
  8
AXIS_COSMETIC_THREADS
100
AcDbSpline
 62
7
  6
CONTINUOUS
 70
0
 71
3
 72
15
 73
11
 74
0
 42
0.0000001
 43
0.0000001
 44
0.0000000001
 40
0.0
 40
0.0
 40
0.0
 40
0.0
 40
0.1485855514
 40
0.289508363
 40
0.4227232284
 40
0.5486425555
 40
0.6680017288
 40
0.7819390888
 40
0.8919878314
 40
1.0
 40
1.0
 40
1.0
 40
1.0
 10
14.8522901083
 20
4.5627877745
 30
0.0
 10
14.854917584
 20
4.5643047393
 30
0.0
 10
14.8599182322
 20
4.5674743529
 30
0.0
 10
14.866754751
 20
4.5727658345
 30
0.0
 10
14.8726679731
 20
4.5784259381
 30
0.0
 10
14.8775989088
 20
4.5844026673
 30
0.0
 10
14.8814973257
 20
4.5906432204
 30
0.0
 10
14.8843192666
 20
4.5970910312
 30
0.0
 10
14.8860287532
 20
4.6036808364
 30
0.0
 10
14.8864117012
 20
4.6081423398
 30
0.0
 10
14.8864117007
 20
4.6103478219
 30
0.0
  0
SPLINE
  5
5B6
100
AcDbEntity
  8
AXIS_COSMETIC_THREADS
100
AcDbSpline
 62
7
  6
CONTINUOUS
 70
0
 71
3
 72
15
 73
11
 74
0
 42
0.0000001
 43
0.0000001
 44
0.0000000001
 40
0.0
 40
0.0
 40
0.0
 40
0.0
 40
0.1077425876
 40
0.2175633843
 40
0.3313487524
 40
0.450650117
 40
0.5766165533
 40
0.7099851507
 40
0.8511071493
 40
1.0
 40
1.0
 40
1.0
 40
1.0
 10
14.6534119499
 20
4.6103478229
 30
0.0
 10
14.6534119504
 20
4.6081164597
 30
0.0
 10
14.6538041218
 20
4.6036014301
 30
0.0
 10
14.6555543087
 20
4.596935172
 30
0.0
 10
14.6584427004
 20
4.5904162869
 30
0.0
 10
14.6624313673
 20
4.5841120671
 30
0.0
 10
14.6674745686
 20
4.5780807154
 30
0.0
 10
14.6735195193
 20
4.5723774623
 30
0.0
 10
14.6805045857
 20
4.5670543061
 30
0.0
 10
14.6856106089
 20
4.5638737717
 30
0.0
 10
14.6882932147
 20
4.5623531939
 30
0.0
  0
SPLINE
  5
5B7
100
AcDbEntity
  8
AXIS_COSMETIC_THREADS
100
AcDbSpline
 62
7
  6
CONTINUOUS
 70
0
 71
3
 72
11
 73
7
 74
0
 42
0.0000001
 43
0.0000001
 44
0.0000000001
 40
0.0
 40
0.0
 40
0.0
 40
0.0
 40
0.2328081771
 40
0.4783539425
 40
0.7348282014
 40
1.0
 40
1.0
 40
1.0
 40
1.0
 10
14.6882932147
 20
4.5623531939
 30
0.0
 10
14.6918680826
 20
4.5603268563
 30
0.0
 10
14.6994467491
 20
4.5565660147
 30
0.0
 10
14.7115760786
 20
4.5519253434
 30
0.0
 10
14.7246084634
 20
4.5481914939
 30
0.0
 10
14.7336448936
 20
4.5463696729
 30
0.0
 10
14.7382644148
 20
4.545616831
 30
0.0
  0
SPLINE
  5
5B8
100
AcDbEntity
  8
AXIS_COSMETIC_THREADS
100
AcDbSpline
 62
7
  6
CONTINUOUS
 70
0
 71
3
 72
11
 73
7
 74
0
 42
0.0000001
 43
0.0000001
 44
0.0000000001
 40
0.0
 40
0.0
 40
0.0
 40
0.0
 40
0.2490254398
 40
0.4999998881
 40
0.7509745648
 40
1.0
 40
1.0
 40
1.0
 40
1.0
 10
14.744907866
 20
4.544654896
 30
0.0
 10
14.7490360244
 20
4.544131151
 30
0.0
 10
14.7573609379
 20
4.5433476366
 30
0.0
 10
14.7699115747
 20
4.5429570067
 30
0.0
 10
14.7824622127
 20
4.5433476062
 30
0.0
 10
14.7907871311
 20
4.5441311047
 30
0.0
 10
14.7949152915
 20
4.5446548331
 30
0.0
  0
SPLINE
  5
5B9
100
AcDbEntity
  8
AXIS_COSMETIC_THREADS
100
AcDbSpline
 62
7
  6
CONTINUOUS
 70
0
 71
3
 72
11
 73
7
 74
0
 42
0.0000001
 43
0.0000001
 44
0.0000000001
 40
0.0
 40
0.0
 40
0.0
 40
0.0
 40
0.2651701721
 40
0.5216360434
 40
0.7671857839
 40
1.0
 40
1.0
 40
1.0
 40
1.0
 10
14.8015592375
 20
4.5456168201
 30
0.0
 10
14.8061787349
 20
4.5463696528
 30
0.0
 10
14.815214979
 20
4.5481915247
 30
0.0
 10
14.8282473183
 20
4.5519251774
 30
0.0
 10
14.840376662
 20
4.5565659395
 30
0.0
 10
14.8479554846
 20
4.5603268661
 30
0.0
 10
14.8515304699
 20
4.5623532192
 30
0.0
  0
SPLINE
  5
5BA
100
AcDbEntity
  8
AXIS_COSMETIC_THREADS
100
AcDbSpline
 62
7
  6
CONTINUOUS
 70
0
 71
3
 72
21
 73
17
 74
0
 42
0.0000001
 43
0.0000001
 44
0.0000000001
 40
0.0
 40
0.0
 40
0.0
 40
0.0
 40
0.0428223615
 40
0.0874184211
 40
0.1352060117
 40
0.1871419975
 40
0.2435965041
 40
0.3045710043
 40
0.369695318
 40
0.4383151049
 40
0.5096441154
 40
0.5827073533
 40
0.7296945152
 40
0.8712960041
 40
0.9377508618
 40
1.0
 40
1.0
 40
1.0
 40
1.0
 10
14.7949120608
 20
4.3327377025
 30
0.0
 10
14.7949116698
 20
4.3320261019
 30
0.0
 10
14.7947189195
 20
4.3305676527
 30
0.0
 10
14.7938841598
 20
4.3284609445
 30
0.0
 10
14.7925274433
 20
4.3264628863
 30
0.0
 10
14.7906856497
 20
4.3246168457
 30
0.0
 10
14.7884068579
 20
4.3229488819
 30
0.0
 10
14.7857345424
 20
4.3214966933
 30
0.0
 10
14.7827272858
 20
4.3202857256
 30
0.0
 10
14.7794480662
 20
4.3193387278
 30
0.0
 10
14.7759647106
 20
4.3186818288
 30
0.0
 10
14.771141527
 20
4.3182014445
 30
0.0
 10
14.7651046613
 20
4.3183672549
 30
0.0
 10
14.7592837732
 20
4.3195335262
 30
0.0
 10
14.755055162
 20
4.3210681783
 30
0.0
 10
14.7531303084
 20
4.3220143933
 30
0.0
 10
14.7522344649
 20
4.3225315971
 30
0.0
  0
SPLINE
  5
5BB
100
AcDbEntity
  8
AXIS_COSMETIC_THREADS
100
AcDbSpline
 62
7
  6
CONTINUOUS
 70
0
 71
3
 72
21
 73
17
 74
0
 42
0.0000001
 43
0.0000001
 44
0.0000000001
 40
0.0
 40
0.0
 40
0.0
 40
0.0
 40
0.0428223615
 40
0.0874184211
 40
0.1352060117
 40
0.1871419975
 40
0.2435965041
 40
0.3045710043
 40
0.369695318
 40
0.4383151049
 40
0.5096441154
 40
0.5827073533
 40
0.7296945152
 40
0.8712960041
 40
0.9377508618
 40
1.0
 40
1.0
 40
1.0
 40
1.0
 10
14.8514803678
 20
4.3653972348
 30
0.0
 10
14.8514799768
 20
4.3646856342
 30
0.0
 10
14.8512872265
 20
4.363227185
 30
0.0
 10
14.8504524668
 20
4.3611204768
 30
0.0
 10
14.8490957503
 20
4.3591224186
 30
0.0
 10
14.8472539566
 20
4.357276378
 30
0.0
 10
14.8449751649
 20
4.3556084142
 30
0.0
 10
14.8423028494
 20
4.3541562256
 30
0.0
 10
14.8392955928
 20
4.3529452579
 30
0.0
 10
14.8360163732
 20
4.3519982601
 30
0.0
 10
14.8325330176
 20
4.3513413611
 30
0.0
 10
14.827709834
 20
4.3508609768
 30
0.0
 10
14.8216729683
 20
4.3510267872
 30
0.0
 10
14.8158520802
 20
4.3521930585
 30
0.0
 10
14.8116234689
 20
4.3537277106
 30
0.0
 10
14.8096986154
 20
4.3546739256
 30
0.0
 10
14.8088027719
 20
4.3551911294
 30
0.0
  0
SPLINE
  5
5BC
100
AcDbEntity
  8
AXIS_COSMETIC_THREADS
100
AcDbSpline
 62
7
  6
CONTINUOUS
 70
0
 71
3
 72
21
 73
17
 74
0
 42
0.0000001
 43
0.0000001
 44
0.0000000001
 40
0.0
 40
0.0
 40
0.0
 40
0.0
 40
0.0428223615
 40
0.0874184211
 40
0.1352060117
 40
0.1871419975
 40
0.2435965041
 40
0.3045710043
 40
0.369695318
 40
0.4383151049
 40
0.5096441154
 40
0.5827073533
 40
0.7296945152
 40
0.8712960041
 40
0.9377508618
 40
1.0
 40
1.0
 40
1.0
 40
1.0
 10
14.7383432828
 20
4.3653969628
 30
0.0
 10
14.7383428918
 20
4.3646853623
 30
0.0
 10
14.7381501415
 20
4.363226913
 30
0.0
 10
14.7373153818
 20
4.3611202048
 30
0.0
 10
14.7359586653
 20
4.3591221467
 30
0.0
 10
14.7341168717
 20
4.357276106
 30
0.0
 10
14.7318380799
 20
4.3556081423
 30
0.0
 10
14.7291657644
 20
4.3541559536
 30
0.0
 10
14.7261585078
 20
4.352944986
 30
0.0
 10
14.7228792882
 20
4.3519979881
 30
0.0
 10
14.7193959326
 20
4.3513410891
 30
0.0
 10
14.714572749
 20
4.3508607049
 30
0.0
 10
14.7085358833
 20
4.3510265153
 30
0.0
 10
14.7027149952
 20
4.3521927865
 30
0.0
 10
14.6984863839
 20
4.3537274386
 30
0.0
 10
14.6965615304
 20
4.3546736536
 30
0.0
 10
14.6956656869
 20
4.3551908575
 30
0.0
  0
LINE
  5
5BD
100
AcDbEntity
  8
0
100
AcDbLine
 62
7
  6
CONTINUOUS
 10
15.069738476
 20
8.5002570308
 11
15.0697652004
 21
8.4997837549
  0
SPLINE
  5
5BE
100
AcDbEntity
  8
02___PRT_ALL_AXES
100
AcDbSpline
 62
7
  6
CONTINUOUS
 70
0
 71
3
 72
23
 73
19
 74
0
 42
0.0000001
 43
0.0000001
 44
0.0000000001
 40
0.0
 40
0.0
 40
0.0
 40
0.0
 40
0.062513484
 40
0.1250198422
 40
0.1875317716
 40
0.2500466987
 40
0.3125553489
 40
0.3750662842
 40
0.4375751994
 40
0.5000778947
 40
0.5625795158
 40
0.6250762375
 40
0.6875663791
 40
0.7500536232
 40
0.812539375
 40
0.8750248487
 40
0.9375088776
 40
1.0
 40
1.0
 40
1.0
 40
1.0
 10
13.7859742735
 20
7.7919129302
 30
0.0
 10
13.7870467258
 20
7.8343070497
 30
0.0
 10
13.7946814892
 20
7.9190541957
 30
0.0
 10
13.822432321
 20
8.0435543759
 30
0.0
 10
13.8660088579
 20
8.1634591291
 30
0.0
 10
13.9246899809
 20
8.2767358619
 30
0.0
 10
13.9974896065
 20
8.3814997097
 30
0.0
 10
14.0831932144
 20
8.4759932357
 30
0.0
 10
14.1803638301
 20
8.55864282
 30
0.0
 10
14.2873775436
 20
8.6280658275
 30
0.0
 10
14.4024435946
 20
8.6831034825
 30
0.0
 10
14.5236377677
 20
8.7228417175
 30
0.0
 10
14.6489347387
 20
8.7466178014
 30
0.0
 10
14.7762442679
 20
8.7540395247
 30
0.0
 10
14.9034435902
 20
8.7449855731
 30
0.0
 10
15.0284166023
 20
8.7196041898
 30
0.0
 10
15.1490595141
 20
8.6783339592
 30
0.0
 10
15.225316259
 20
8.6406498178
 30
0.0
 10
15.2620294596
 20
8.619453921
 30
0.0
  0
SPLINE
  5
5BF
100
AcDbEntity
  8
02___PRT_ALL_AXES
100
AcDbSpline
 62
7
  6
CONTINUOUS
 70
0
 71
3
 72
9
 73
5
 74
0
 42
0.0000001
 43
0.0000001
 44
0.0000000001
 40
0.0
 40
0.0
 40
0.0
 40
0.0
 40
0.24866204
 40
1.0
 40
1.0
 40
1.0
 40
1.0
 10
14.4647940688
 20
8.5311157269
 30
0.0
 10
14.4647942034
 20
8.5290160594
 30
0.0
 10
14.4650550956
 20
8.5205737521
 30
0.0
 10
14.4663724974
 20
8.5121678855
 30
0.0
 10
14.4679078326
 20
8.5060122761
 30
0.0
  0
SPLINE
  5
5C0
100
AcDbEntity
  8
02___PRT_ALL_AXES
100
AcDbSpline
 62
7
  6
CONTINUOUS
 70
0
 71
3
 72
11
 73
7
 74
0
 42
0.0000001
 43
0.0000001
 44
0.0000000001
 40
0.0
 40
0.0
 40
0.0
 40
0.0
 40
0.2202669008
 40
0.457998367
 40
0.717428317
 40
1.0
 40
1.0
 40
1.0
 40
1.0
 10
14.4693909155
 20
8.5006529324
 30
0.0
 10
14.4721564432
 20
8.4915605299
 30
0.0
 10
14.4803839108
 20
8.4733519025
 30
0.0
 10
14.4991170548
 20
8.448462752
 30
0.0
 10
14.5240508817
 20
8.4256424263
 30
0.0
 10
14.5436030889
 20
8.4126488859
 30
0.0
 10
14.5541616387
 20
8.4065530422
 30
0.0
  0
SPLINE
  5
5C1
100
AcDbEntity
  8
02___PRT_ALL_AXES
100
AcDbSpline
 62
7
  6
CONTINUOUS
 70
0
 71
3
 72
25
 73
21
 74
0
 42
0.0000001
 43
0.0000001
 44
0.0000000001
 40
0.0
 40
0.0
 40
0.0
 40
0.0
 40
0.021331811
 40
0.0428920215
 40
0.0648971359
 40
0.0875417204
 40
0.1353164271
 40
0.1872171069
 40
0.2436546181
 40
0.3046023666
 40
0.3696901853
 40
0.4382877038
 40
0.5095744457
 40
0.5825990401
 40
0.6563308922
 40
0.7297082922
 40
0.8016850657
 40
0.8712780126
 40
0.9376153322
 40
1.0
 40
1.0
 40
1.0
 40
1.0
 10
15.7541637938
 20
7.7670618918
 30
0.0
 10
15.7541637946
 20
7.7530992298
 30
0.0
 10
15.7523611625
 20
7.7249920376
 30
0.0
 10
15.7442863629
 20
7.6831817955
 30
0.0
 10
15.7308902734
 20
7.6418540236
 30
0.0
 10
15.7056194671
 20
7.5867596486
 30
0.0
 10
15.6602724197
 20
7.5200293934
 30
0.0
 10
15.5878307141
 20
7.4472979568
 30
0.0
 10
15.4980547519
 20
7.3816927769
 30
0.0
 10
15.3928684284
 20
7.3244839028
 30
0.0
 10
15.2744703806
 20
7.2767850717
 30
0.0
 10
15.1453494231
 20
7.2395728876
 30
0.0
 10
15.0082350519
 20
7.2136217443
 30
0.0
 10
14.8660401219
 20
7.1994809802
 30
0.0
 10
14.7217947048
 20
7.1974513286
 30
0.0
 10
14.5785753557
 20
7.207575544
 30
0.0
 10
14.4394374809
 20
7.2296371485
 30
0.0
 10
14.3073343068
 20
7.2631741246
 30
0.0
 10
14.1850881168
 20
7.3074660556
 30
0.0
 10
14.1093066728
 20
7.3448302936
 30
0.0
 10
14.0739434816
 20
7.3652467797
 30
0.0
  0
SPLINE
  5
5C2
100
AcDbEntity
  8
02___PRT_ALL_AXES
100
AcDbSpline
 62
7
  6
CONTINUOUS
 70
0
 71
3
 72
15
 73
11
 74
0
 42
0.0000001
 43
0.0000001
 44
0.0000000001
 40
0.0
 40
0.0
 40
0.0
 40
0.0
 40
0.1249886235
 40
0.2499721691
 40
0.374966616
 40
0.499967892
 40
0.6249739173
 40
0.7499796955
 40
0.8749912582
 40
1.0
 40
1.0
 40
1.0
 40
1.0
 10
15.2620294596
 20
8.619453921
 30
0.0
 10
15.2991924887
 20
8.5979983216
 30
0.0
 10
15.3707947857
 20
8.550160844
 30
0.0
 10
15.4678465088
 20
8.465047489
 30
0.0
 10
15.5529819774
 20
8.3679799085
 30
0.0
 10
15.6247182801
 20
8.2606266833
 30
0.0
 10
15.6818306968
 20
8.144825259
 30
0.0
 10
15.7233404585
 20
8.0225507237
 30
0.0
 10
15.7485325504
 20
7.8959252571
 30
0.0
 10
15.7541637938
 20
7.8099807259
 30
0.0
 10
15.7541637938
 20
7.7670618918
 30
0.0
  0
SPLINE
  5
5C3
100
AcDbEntity
  8
02___PRT_ALL_AXES
100
AcDbSpline
 62
7
  6
CONTINUOUS
 70
0
 71
3
 72
9
 73
5
 74
0
 42
0.0000001
 43
0.0000001
 44
0.0000000001
 40
0.0
 40
0.0
 40
0.0
 40
0.0
 40
0.2486899557
 40
1.0
 40
1.0
 40
1.0
 40
1.0
 10
15.0750295818
 20
8.5311157269
 30
0.0
 10
15.0750297148
 20
8.5290405171
 30
0.0
 10
15.0747759648
 20
8.5206973702
 30
0.0
 10
15.0734872064
 20
8.5123897419
 30
0.0
 10
15.0719872868
 20
8.5063024542
 30
0.0
  0
SPLINE
  5
5C4
100
AcDbEntity
  8
02___PRT_ALL_AXES
100
AcDbSpline
 62
7
  6
CONTINUOUS
 70
0
 71
3
 72
17
 73
13
 74
0
 42
0.0000001
 43
0.0000001
 44
0.0000000001
 40
0.0
 40
0.0
 40
0.0
 40
0.0
 40
0.0440275176
 40
0.0911124288
 40
0.1419628757
 40
0.1968970101
 40
0.3185073383
 40
0.4531983678
 40
0.5954128964
 40
0.7383799758
 40
0.8752124384
 40
1.0
 40
1.0
 40
1.0
 40
1.0
 10
15.0698766577
 20
8.4988770766
 30
0.0
 10
15.0672851939
 20
8.4908384405
 30
0.0
 10
15.0600077968
 20
8.4747784244
 30
0.0
 10
15.0440437479
 20
8.4525413319
 30
0.0
 10
15.0230981175
 20
8.4318417085
 30
0.0
 10
14.9878834669
 20
8.4058908061
 30
0.0
 10
14.9335201843
 20
8.3799309527
 30
0.0
 10
14.859226916
 20
8.3604743468
 30
0.0
 10
14.778697391
 20
8.3529206209
 30
0.0
 10
14.6975544601
 20
8.3578185354
 30
0.0
 10
14.6214846087
 20
8.3747923397
 30
0.0
 10
14.5748932283
 20
8.3945839241
 30
0.0
 10
14.5541616387
 20
8.4065530422
 30
0.0
  0
SPLINE
  5
5C5
100
AcDbEntity
  8
02___PRT_ALL_AXES
100
AcDbSpline
 62
7
  6
CONTINUOUS
 70
0
 71
3
 72
12
 73
8
 74
0
 42
0.0000001
 43
0.0000001
 44
0.0000000001
 40
0.0
 40
0.0
 40
0.0
 40
0.0
 40
0.2895913402
 40
0.5486311818
 40
0.7816368765
 40
0.8918377607
 40
1.0
 40
1.0
 40
1.0
 40
1.0
 10
14.9856620118
 20
8.6556784117
 30
0.0
 10
14.9990555138
 20
8.6479458446
 30
0.0
 10
15.0233492191
 20
8.6312151771
 30
0.0
 10
15.0523710272
 20
8.6007297621
 30
0.0
 10
15.0679546746
 20
8.572005252
 30
0.0
 10
15.0740254271
 20
8.5485777505
 30
0.0
 10
15.0750292114
 20
8.5368920457
 30
0.0
 10
15.0750295818
 20
8.5311157269
 30
0.0
  0
SPLINE
  5
5C6
100
AcDbEntity
  8
02___PRT_ALL_AXES
100
AcDbSpline
 62
7
  6
CONTINUOUS
 70
0
 71
3
 72
19
 73
15
 74
0
 42
0.0000001
 43
0.0000001
 44
0.0000000001
 40
0.0
 40
0.0
 40
0.0
 40
0.0
 40
0.1286249853
 40
0.2701544927
 40
0.4172453492
 40
0.5615285907
 40
0.6301801669
 40
0.6953192229
 40
0.7563148985
 40
0.8127966192
 40
0.8647379461
 40
0.9125502117
 40
0.9571594614
 40
1.0
 40
1.0
 40
1.0
 40
1.0
 10
14.9856620118
 20
8.6556784117
 30
0.0
 10
14.963077079
 20
8.6687175337
 30
0.0
 10
14.9119400199
 20
8.689816105
 30
0.0
 10
14.8285922939
 20
8.7064941155
 30
0.0
 10
14.7404514317
 20
8.7089301016
 30
0.0
 10
14.6677524384
 20
8.6987316387
 30
0.0
 10
14.6134997659
 20
8.6831028504
 30
0.0
 10
14.5767950699
 20
8.6683146858
 30
0.0
 10
14.5441875018
 20
8.6505797428
 30
0.0
 10
14.5163577532
 20
8.6302439435
 30
0.0
 10
14.4938988382
 20
8.607690478
 30
0.0
 10
14.4773283941
 20
8.5833176247
 30
0.0
 10
14.4671167708
 20
8.5576075607
 30
0.0
 10
14.464793512
 20
8.5398016364
 30
0.0
 10
14.4647940688
 20
8.5311157269
 30
0.0
  0
SPLINE
  5
5C7
100
AcDbEntity
  8
0
100
AcDbSpline
 62
7
  6
CONTINUOUS
 70
0
 71
3
 72
17
 73
13
 74
0
 42
0.0000001
 43
0.0000001
 44
0.0000000001
 40
0.0
 40
0.0
 40
0.0
 40
0.0
 40
0.0476973424
 40
0.0971497497
 40
0.1489670746
 40
0.2035826158
 40
0.3217098408
 40
0.4511146159
 40
0.5885835315
 40
0.7293739906
 40
0.8681673888
 40
1.0
 40
1.0
 40
1.0
 40
1.0
 10
15.3113994326
 20
6.674939261
 30
0.0
 10
15.3069474068
 20
6.6605257246
 30
0.0
 10
15.2949050241
 20
6.6320181223
 30
0.0
 10
15.2689360378
 20
6.5924527193
 30
0.0
 10
15.2355792506
 20
6.5558951907
 30
0.0
 10
15.18076696
 20
6.5104400857
 30
0.0
 10
15.0965510362
 20
6.4635557245
 30
0.0
 10
14.9804766213
 20
6.4250124378
 30
0.0
 10
14.8527566374
 20
6.4040608287
 30
0.0
 10
14.7204201532
 20
6.401689061
 30
0.0
 10
14.5908892113
 20
6.4179767304
 30
0.0
 10
14.5081422536
 20
6.4416517143
 30
0.0
 10
14.4692922105
 20
6.4567900468
 30
0.0
  0
SPLINE
  5
5C8
100
AcDbEntity
  8
02___PRT_ALL_AXES
100
AcDbSpline
 62
7
  6
CONTINUOUS
 70
0
 71
3
 72
9
 73
5
 74
0
 42
0.0000001
 43
0.0000001
 44
0.0000000001
 40
0.0
 40
0.0
 40
0.0
 40
0.0
 40
0.2459914972
 40
1.0
 40
1.0
 40
1.0
 40
1.0
 10
14.3138038108
 20
6.5948181461
 30
0.0
 10
14.3074687125
 20
6.5991476996
 30
0.0
 10
14.2819059592
 20
6.6170266068
 30
0.0
 10
14.2570783498
 20
6.6359464905
 30
0.0
 10
14.2387205041
 20
6.6506493068
 30
0.0
  0
SPLINE
  5
5C9
100
AcDbEntity
  8
02___PRT_ALL_AXES
100
AcDbSpline
 62
7
  6
CONTINUOUS
 70
0
 71
3
 72
15
 73
11
 74
0
 42
0.0000001
 43
0.0000001
 44
0.0000000001
 40
0.0
 40
0.0
 40
0.0
 40
0.0
 40
0.134348887
 40
0.272351379
 40
0.4105564279
 40
0.5454963358
 40
0.673996189
 40
0.7934610053
 40
0.9022280082
 40
1.0
 40
1.0
 40
1.0
 40
1.0
 10
14.546924656
 20
6.481419565
 30
0.0
 10
14.5829993567
 20
6.4733702317
 30
0.0
 10
14.6572202655
 20
6.461659924
 30
0.0
 10
14.7702928389
 20
6.456874339
 30
0.0
 10
14.8833781876
 20
6.4647064583
 30
0.0
 10
14.9922725067
 20
6.4849361534
 30
0.0
 10
15.0929686094
 20
6.5168753402
 30
0.0
 10
15.1818129907
 20
6.5594771498
 30
0.0
 10
15.2555638814
 20
6.6113027317
 30
0.0
 10
15.2948486418
 20
6.6531954658
 30
0.0
 10
15.3104595966
 20
6.675100856
 30
0.0
  0
SPLINE
  5
5CA
100
AcDbEntity
  8
02___PRT_ALL_AXES
100
AcDbSpline
 62
7
  6
CONTINUOUS
 70
0
 71
3
 72
11
 73
7
 74
0
 42
0.0000001
 43
0.0000001
 44
0.0000000001
 40
0.0
 40
0.0
 40
0.0
 40
0.0
 40
0.2640981385
 40
0.5164750368
 40
0.7604391126
 40
1.0
 40
1.0
 40
1.0
 40
1.0
 10
15.3104595966
 20
6.675100856
 30
0.0
 10
15.3178410579
 20
6.6854585691
 30
0.0
 10
15.3310018421
 20
6.7066729859
 30
0.0
 10
15.3456555318
 20
6.7403858924
 30
0.0
 10
15.3545370465
 20
6.7748512764
 30
0.0
 10
15.3565246829
 20
6.7981837005
 30
0.0
 10
15.3565246619
 20
6.8097208132
 30
0.0
  0
SPLINE
  5
5CB
100
AcDbEntity
  8
0
100
AcDbSpline
 62
7
  6
CONTINUOUS
 70
0
 71
3
 72
9
 73
5
 74
0
 42
0.0000001
 43
0.0000001
 44
0.0000000001
 40
0.0
 40
0.0
 40
0.0
 40
0.0
 40
0.5165668674
 40
1.0
 40
1.0
 40
1.0
 40
1.0
 10
14.3203958535
 20
6.5429136308
 30
0.0
 10
14.302498998
 20
6.5581914849
 30
0.0
 10
14.2703671797
 20
6.5909549996
 30
0.0
 10
14.246325984
 20
6.6302896955
 30
0.0
 10
14.2375226273
 20
6.6504752565
 30
0.0
  0
SPLINE
  5
5CC
100
AcDbEntity
  8
02___PRT_ALL_AXES
100
AcDbSpline
 62
7
  6
CONTINUOUS
 70
0
 71
3
 72
9
 73
5
 74
0
 42
0.0000001
 43
0.0000001
 44
0.0000000001
 40
0.0
 40
0.0
 40
0.0
 40
0.0
 40
0.2454806407
 40
1.0
 40
1.0
 40
1.0
 40
1.0
 10
14.3138038108
 20
6.6430367928
 30
0.0
 10
14.3064926744
 20
6.6480333935
 30
0.0
 10
14.276963974
 20
6.6687594463
 30
0.0
 10
14.2484110151
 20
6.6908582407
 30
0.0
 10
14.2273338164
 20
6.7080801616
 30
0.0
  0
SPLINE
  5
5CD
100
AcDbEntity
  8
02___PRT_ALL_AXES
100
AcDbSpline
 62
7
  6
CONTINUOUS
 70
0
 71
3
 72
17
 73
13
 74
0
 42
0.0000001
 43
0.0000001
 44
0.0000000001
 40
0.0
 40
0.0
 40
0.0
 40
0.0
 40
0.1354899026
 40
0.274666812
 40
0.4138273732
 40
0.5492714725
 40
0.6776502248
 40
0.7383670689
 40
0.7964000645
 40
0.8515935256
 40
0.9038919141
 40
1.0
 40
1.0
 40
1.0
 40
1.0
 10
14.546924656
 20
6.5296382117
 30
0.0
 10
14.5841389068
 20
6.521334611
 30
0.0
 10
14.6607417633
 20
6.5094025621
 30
0.0
 10
14.7773620603
 20
6.5050798487
 30
0.0
 10
14.8937248044
 20
6.5141527341
 30
0.0
 10
15.0052167872
 20
6.5363349356
 30
0.0
 10
15.0920704252
 20
6.5656227828
 30
0.0
 10
15.1550958353
 20
6.5951782324
 30
0.0
 10
15.1976277892
 20
6.6195247248
 30
0.0
 10
15.2358868335
 20
6.6462437383
 30
0.0
 10
15.2794044055
 20
6.6835730693
 30
0.0
 10
15.3066509548
 20
6.7159727007
 30
0.0
 10
15.3208720936
 20
6.7389787501
 30
0.0
  0
SPLINE
  5
5CE
100
AcDbEntity
  8
02___PRT_ALL_AXES
100
AcDbSpline
 62
7
  6
CONTINUOUS
 70
0
 71
3
 72
9
 73
5
 74
0
 42
0.0000001
 43
0.0000001
 44
0.0000000001
 40
0.0
 40
0.0
 40
0.0
 40
0.0
 40
0.5106602346
 40
1.0
 40
1.0
 40
1.0
 40
1.0
 10
15.3208720936
 20
6.7389787501
 30
0.0
 10
15.3279296233
 20
6.7503959704
 30
0.0
 10
15.3401499185
 20
6.7738015312
 30
0.0
 10
15.3483472229
 20
6.7989316475
 30
0.0
 10
15.3512218556
 20
6.8114683296
 30
0.0
  0
SPLINE
  5
5CF
100
AcDbEntity
  8
02___PRT_ALL_AXES
100
AcDbSpline
 62
7
  6
CONTINUOUS
 70
0
 71
3
 72
9
 73
5
 74
0
 42
0.0000001
 43
0.0000001
 44
0.0000000001
 40
0.0
 40
0.0
 40
0.0
 40
0.0
 40
0.2454799692
 40
1.0
 40
1.0
 40
1.0
 40
1.0
 10
14.3138038108
 20
6.6912554394
 30
0.0
 10
14.3064926945
 20
6.6962520264
 30
0.0
 10
14.2769640518
 20
6.7169781599
 30
0.0
 10
14.2484110335
 20
6.7390768723
 30
0.0
 10
14.2273338164
 20
6.7562988083
 30
0.0
  0
SPLINE
  5
5D0
100
AcDbEntity
  8
02___PRT_ALL_AXES
100
AcDbSpline
 62
7
  6
CONTINUOUS
 70
0
 71
3
 72
11
 73
7
 74
0
 42
0.0000001
 43
0.0000001
 44
0.0000000001
 40
0.0
 40
0.0
 40
0.0
 40
0.0
 40
0.2476469618
 40
0.5019983066
 40
0.7553212338
 40
1.0
 40
1.0
 40
1.0
 40
1.0
 10
14.546924656
 20
6.5778568584
 30
0.0
 10
14.5867117985
 20
6.5689791694
 30
0.0
 10
14.668691735
 20
6.5565798621
 30
0.0
 10
14.7932859823
 20
6.5534346667
 30
0.0
 10
14.916847714
 20
6.5654993061
 30
0.0
 10
14.9970410736
 20
6.5838914534
 30
0.0
 10
15.0355349014
 20
6.5957429502
 30
0.0
  0
SPLINE
  5
5D1
100
AcDbEntity
  8
02___PRT_ALL_AXES
100
AcDbSpline
 62
7
  6
CONTINUOUS
 70
0
 71
3
 72
14
 73
10
 74
0
 42
0.0000001
 43
0.0000001
 44
0.0000000001
 40
0.0
 40
0.0
 40
0.0
 40
0.0
 40
0.2949142459
 40
0.4315939127
 40
0.560193567
 40
0.6806184989
 40
0.7932837154
 40
0.8991968857
 40
1.0
 40
1.0
 40
1.0
 40
1.0
 10
15.0355349014
 20
6.5957429502
 30
0.0
 10
15.0758627041
 20
6.6081590921
 30
0.0
 10
15.1337341241
 20
6.6309220245
 30
0.0
 10
15.2032838861
 20
6.6709910421
 30
0.0
 10
15.2479222818
 20
6.7036578025
 30
0.0
 10
15.2856903939
 20
6.7392545793
 30
0.0
 10
15.3160311067
 20
6.7773419117
 30
0.0
 10
15.3384454675
 20
6.8174099991
 30
0.0
 10
15.3479984055
 20
6.8456290516
 30
0.0
 10
15.3512218556
 20
6.8596869762
 30
0.0
  0
SPLINE
  5
5D2
100
AcDbEntity
  8
02___PRT_ALL_AXES
100
AcDbSpline
 62
7
  6
CONTINUOUS
 70
0
 71
3
 72
9
 73
5
 74
0
 42
0.0000001
 43
0.0000001
 44
0.0000000001
 40
0.0
 40
0.0
 40
0.0
 40
0.0
 40
0.2454799692
 40
1.0
 40
1.0
 40
1.0
 40
1.0
 10
14.3138038108
 20
6.7394740861
 30
0.0
 10
14.3064926945
 20
6.7444706731
 30
0.0
 10
14.2769640518
 20
6.7651968066
 30
0.0
 10
14.2484110335
 20
6.787295519
 30
0.0
 10
14.2273338164
 20
6.804517455
 30
0.0
  0
SPLINE
  5
5D3
100
AcDbEntity
  8
02___PRT_ALL_AXES
100
AcDbSpline
 62
7
  6
CONTINUOUS
 70
0
 71
3
 72
17
 73
13
 74
0
 42
0.0000001
 43
0.0000001
 44
0.0000000001
 40
0.0
 40
0.0
 40
0.0
 40
0.0
 40
0.1353563914
 40
0.2743962184
 40
0.4134453091
 40
0.5488302664
 40
0.6772218779
 40
0.7379744767
 40
0.7960622873
 40
0.8513274667
 40
0.9037100983
 40
1.0
 40
1.0
 40
1.0
 40
1.0
 10
14.546924656
 20
6.6260755051
 30
0.0
 10
14.5840100016
 20
6.6178006669
 30
0.0
 10
14.6603434134
 20
6.6058932458
 30
0.0
 10
14.776562877
 20
6.6015163551
 30
0.0
 10
14.892557457
 20
6.6104462639
 30
0.0
 10
15.0037589413
 20
6.6324038147
 30
0.0
 10
15.0904508208
 20
6.6614384151
 30
0.0
 10
15.1534267028
 20
6.690758505
 30
0.0
 10
15.1959723412
 20
6.7149260278
 30
0.0
 10
15.2342904346
 20
6.7414588535
 30
0.0
 10
15.2779499859
 20
6.7785479735
 30
0.0
 10
15.30537298
 20
6.8107466071
 30
0.0
 10
15.3197591966
 20
6.8336308231
 30
0.0
  0
SPLINE
  5
5D4
100
AcDbEntity
  8
02___PRT_ALL_AXES
100
AcDbSpline
 62
7
  6
CONTINUOUS
 70
0
 71
3
 72
9
 73
5
 74
0
 42
0.0000001
 43
0.0000001
 44
0.0000000001
 40
0.0
 40
0.0
 40
0.0
 40
0.0
 40
0.5110172216
 40
1.0
 40
1.0
 40
1.0
 40
1.0
 10
15.3197591966
 20
6.8336308231
 30
0.0
 10
15.3270980043
 20
6.8453046956
 30
0.0
 10
15.3397946906
 20
6.8692589964
 30
0.0
 10
15.3482729253
 20
6.8950449181
 30
0.0
 10
15.3512218556
 20
6.9079056229
 30
0.0
  0
SPLINE
  5
5D5
100
AcDbEntity
  8
0
100
AcDbSpline
 62
7
  6
CONTINUOUS
 70
0
 71
3
 72
15
 73
11
 74
0
 42
0.0000001
 43
0.0000001
 44
0.0000000001
 40
0.0
 40
0.0
 40
0.0
 40
0.0
 40
0.1080713608
 40
0.218123921
 40
0.3320455909
 40
0.4514034014
 40
0.5773876062
 40
0.7107156424
 40
0.851643467
 40
1.0
 40
1.0
 40
1.0
 40
1.0
 10
15.7541637938
 20
7.3813127183
 30
0.0
 10
15.7541637938
 20
7.3579009366
 30
0.0
 10
15.7494224764
 20
7.3105203464
 30
0.0
 10
15.7284209359
 20
7.2412991598
 30
0.0
 10
15.6942291447
 20
7.174829712
 30
0.0
 10
15.6477249678
 20
7.1120492676
 30
0.0
 10
15.5898314225
 20
7.053587827
 30
0.0
 10
15.521441269
 20
6.9999663697
 30
0.0
 10
15.4434851588
 20
6.9516602532
 30
0.0
 10
15.3871475779
 20
6.9239726732
 30
0.0
 10
15.3577205871
 20
6.9110514197
 30
0.0
  0
SPLINE
  5
5D6
100
AcDbEntity
  8
0
100
AcDbSpline
 62
7
  6
CONTINUOUS
 70
0
 71
3
 72
11
 73
7
 74
0
 42
0.0000001
 43
0.0000001
 44
0.0000000001
 40
0.0
 40
0.0
 40
0.0
 40
0.0
 40
0.235774035
 40
0.4857970798
 40
0.7431406121
 40
1.0
 40
1.0
 40
1.0
 40
1.0
 10
15.355332724
 20
6.9100062447
 30
0.0
 10
15.2959184251
 20
6.8840829579
 30
0.0
 10
15.1687747399
 20
6.8411593511
 30
0.0
 10
14.9673533099
 20
6.8036323175
 30
0.0
 10
14.7570139277
 20
6.7920197507
 30
0.0
 10
14.6155362628
 20
6.8020180034
 30
0.0
 10
14.5455743559
 20
6.8116409323
 30
0.0
  0
SPLINE
  5
5D7
100
AcDbEntity
  8
0
100
AcDbSpline
 62
7
  6
CONTINUOUS
 70
0
 71
3
 72
11
 73
7
 74
0
 42
0.0000001
 43
0.0000001
 44
0.0000000001
 40
0.0
 40
0.0
 40
0.0
 40
0.0
 40
0.2649839881
 40
0.5215562137
 40
0.767203389
 40
1.0
 40
1.0
 40
1.0
 40
1.0
 10
14.5455743559
 20
6.8116409323
 30
0.0
 10
14.5027082632
 20
6.8175369602
 30
0.0
 10
14.4187624481
 20
6.8325854256
 30
0.0
 10
14.2976739127
 20
6.8653561998
 30
0.0
 10
14.1851045895
 20
6.9075123684
 30
0.0
 10
14.1150185673
 20
6.9424679782
 30
0.0
 10
14.08209751
 20
6.9614745296
 30
0.0
  0
SPLINE
  5
5D8
100
AcDbEntity
  8
02___PRT_ALL_AXES
100
AcDbSpline
 62
7
  6
CONTINUOUS
 70
0
 71
3
 72
9
 73
5
 74
0
 42
0.0000001
 43
0.0000001
 44
0.0000000001
 40
0.0
 40
0.0
 40
0.0
 40
0.0
 40
0.2454799692
 40
1.0
 40
1.0
 40
1.0
 40
1.0
 10
14.3138038108
 20
6.7876927328
 30
0.0
 10
14.3064926945
 20
6.7926893198
 30
0.0
 10
14.2769640518
 20
6.8134154533
 30
0.0
 10
14.2484110335
 20
6.8355141657
 30
0.0
 10
14.2273338164
 20
6.8527361017
 30
0.0
  0
SPLINE
  5
5D9
100
AcDbEntity
  8
02___PRT_ALL_AXES
100
AcDbSpline
 62
7
  6
CONTINUOUS
 70
0
 71
3
 72
17
 73
13
 74
0
 42
0.0000001
 43
0.0000001
 44
0.0000000001
 40
0.0
 40
0.0
 40
0.0
 40
0.0
 40
0.1353549588
 40
0.2743933145
 40
0.4134412078
 40
0.5488255281
 40
0.6772172747
 40
0.7379702558
 40
0.7960586535
 40
0.8513246023
 40
0.9037081389
 40
1.0
 40
1.0
 40
1.0
 40
1.0
 10
14.546924656
 20
6.6742941518
 30
0.0
 10
14.5840086168
 20
6.6660196226
 30
0.0
 10
14.6603391341
 20
6.6541124667
 30
0.0
 10
14.7765542909
 20
6.6497349965
 30
0.0
 10
14.8925449128
 20
6.658663373
 30
0.0
 10
15.0037432697
 20
6.6806185152
 30
0.0
 10
15.0904334025
 20
6.7096503992
 30
0.0
 10
15.1534087419
 20
6.7389679642
 30
0.0
 10
15.1959545182
 20
6.7631335659
 30
0.0
 10
15.2342732352
 20
6.7896643925
 30
0.0
 10
15.2779342973
 20
6.826750933
 30
0.0
 10
15.3053591717
 20
6.8589474071
 30
0.0
 10
15.3197471509
 20
6.8818303103
 30
0.0
  0
SPLINE
  5
5DA
100
AcDbEntity
  8
0
100
AcDbSpline
 62
7
  6
CONTINUOUS
 70
0
 71
3
 72
14
 73
10
 74
0
 42
0.0000001
 43
0.0000001
 44
0.0000000001
 40
0.0
 40
0.0
 40
0.0
 40
0.0
 40
0.2824657279
 40
0.4139610173
 40
0.5394083172
 40
0.6595723647
 40
0.7755182978
 40
0.8884984286
 40
1.0
 40
1.0
 40
1.0
 40
1.0
 10
14.08209751
 20
6.9614745296
 30
0.0
 10
14.0382399419
 20
6.9867951355
 30
0.0
 10
13.9766591591
 20
7.029297883
 30
0.0
 10
13.9067901158
 20
7.0964019385
 30
0.0
 10
13.8637616697
 20
7.1487866849
 30
0.0
 10
13.8294431573
 20
7.2040210526
 30
0.0
 10
13.8043908573
 20
7.2616429469
 30
0.0
 10
13.7890961168
 20
7.3209950239
 30
0.0
 10
13.7856598568
 20
7.361322079
 30
0.0
 10
13.7856598568
 20
7.3813127183
 30
0.0
  0
SPLINE
  5
5DB
100
AcDbEntity
  8
02___PRT_ALL_AXES
100
AcDbSpline
 62
7
  6
CONTINUOUS
 70
0
 71
3
 72
9
 73
5
 74
0
 42
0.0000001
 43
0.0000001
 44
0.0000000001
 40
0.0
 40
0.0
 40
0.0
 40
0.0
 40
0.2462417555
 40
1.0
 40
1.0
 40
1.0
 40
1.0
 10
14.3138038108
 20
6.8359113795
 30
0.0
 10
14.3079279287
 20
6.839927094
 30
0.0
 10
14.2842294745
 20
6.856474434
 30
0.0
 10
14.2611644052
 20
6.8739213054
 30
0.0
 10
14.2440954361
 20
6.8874586749
 30
0.0
  0
SPLINE
  5
5DC
100
AcDbEntity
  8
02___PRT_ALL_AXES
100
AcDbSpline
 62
7
  6
CONTINUOUS
 70
0
 71
3
 72
15
 73
11
 74
0
 42
0.0000001
 43
0.0000001
 44
0.0000000001
 40
0.0
 40
0.0
 40
0.0
 40
0.0
 40
0.131797335
 40
0.2671498559
 40
0.4031413102
 40
0.5368085924
 40
0.6653756959
 40
0.7864511333
 40
0.8982728954
 40
1.0
 40
1.0
 40
1.0
 40
1.0
 10
14.546924656
 20
6.7225127984
 30
0.0
 10
14.5804029972
 20
6.7150427897
 30
0.0
 10
14.6491998945
 20
6.703872332
 30
0.0
 10
14.7541463496
 20
6.6981651844
 30
0.0
 10
14.8596196288
 20
6.7033805277
 30
0.0
 10
14.9622200955
 20
6.7194062172
 30
0.0
 10
15.058667203
 20
6.745772429
 30
0.0
 10
15.1459106258
 20
6.7817181162
 30
0.0
 10
15.2211702105
 20
6.8261665735
 30
0.0
 10
15.2638234777
 20
6.8624301965
 30
0.0
 10
15.2819913412
 20
6.8816884944
 30
0.0
  0
SPLINE
  5
5DD
100
AcDbEntity
  8
02___PRT_ALL_AXES
100
AcDbSpline
 62
7
  6
CONTINUOUS
 70
0
 71
3
 72
14
 73
10
 74
0
 42
0.0000001
 43
0.0000001
 44
0.0000000001
 40
0.0
 40
0.0
 40
0.0
 40
0.0
 40
0.2551706972
 40
0.3858697272
 40
0.516183029
 40
0.6443272594
 40
0.7686281183
 40
0.8875921556
 40
1.0
 40
1.0
 40
1.0
 40
1.0
 10
14.546924656
 20
6.7707314451
 30
0.0
 10
14.6005547654
 20
6.7587649805
 30
0.0
 10
14.6835272998
 20
6.7482004211
 30
0.0
 10
14.7947541979
 20
6.7477642291
 30
0.0
 10
14.8784034227
 20
6.754382225
 30
0.0
 10
14.9598233759
 20
6.7678320783
 30
0.0
 10
15.0373744442
 20
6.7878658697
 30
0.0
 10
15.1094616617
 20
6.8140961848
 30
0.0
 10
15.1543198437
 20
6.8360764705
 30
0.0
 10
15.1753473194
 20
6.8480673496
 30
0.0
  0
SPLINE
  5
5DE
100
AcDbEntity
  8
02___PRT_ALL_AXES
100
AcDbSpline
 62
7
  6
CONTINUOUS
 70
0
 71
3
 72
9
 73
5
 74
0
 42
0.0000001
 43
0.0000001
 44
0.0000000001
 40
0.0
 40
0.0
 40
0.0
 40
0.0
 40
0.2436743909
 40
1.0
 40
1.0
 40
1.0
 40
1.0
 10
14.198082482
 20
6.9046545894
 30
0.0
 10
14.1996666254
 20
6.9007517351
 30
0.0
 10
14.2066343259
 20
6.8849261789
 30
0.0
 10
14.2154035783
 20
6.8699125423
 30
0.0
 10
14.222803365
 20
6.8591346009
 30
0.0
  0
SPLINE
  5
5DF
100
AcDbEntity
  8
02___PRT_ALL_AXES
100
AcDbSpline
 62
7
  6
CONTINUOUS
 70
0
 71
3
 72
9
 73
5
 74
0
 42
0.0000001
 43
0.0000001
 44
0.0000000001
 40
0.0
 40
0.0
 40
0.0
 40
0.0
 40
0.4870782942
 40
1.0
 40
1.0
 40
1.0
 40
1.0
 10
14.1890625417
 20
6.8839800605
 30
0.0
 10
14.1922479764
 20
6.8712570094
 30
0.0
 10
14.2014136346
 20
6.8457427448
 30
0.0
 10
14.2149762467
 20
6.8223179869
 30
0.0
 10
14.2227929546
 20
6.8109311183
 30
0.0
  0
SPLINE
  5
5E0
100
AcDbEntity
  8
02___PRT_ALL_AXES
100
AcDbSpline
 62
7
  6
CONTINUOUS
 70
0
 71
3
 72
9
 73
5
 74
0
 42
0.0000001
 43
0.0000001
 44
0.0000000001
 40
0.0
 40
0.0
 40
0.0
 40
0.0
 40
0.4855781907
 40
1.0
 40
1.0
 40
1.0
 40
1.0
 10
14.1890625417
 20
6.8357614138
 30
0.0
 10
14.1925459119
 20
6.8218483684
 30
0.0
 10
14.2028761651
 20
6.7939229744
 30
0.0
 10
14.2183771247
 20
6.7685726986
 30
0.0
 10
14.2273338164
 20
6.7562988083
 30
0.0
  0
SPLINE
  5
5E1
100
AcDbEntity
  8
02___PRT_ALL_AXES
100
AcDbSpline
 62
7
  6
CONTINUOUS
 70
0
 71
3
 72
9
 73
5
 74
0
 42
0.0000001
 43
0.0000001
 44
0.0000000001
 40
0.0
 40
0.0
 40
0.0
 40
0.0
 40
0.2441784264
 40
1.0
 40
1.0
 40
1.0
 40
1.0
 10
14.1890625417
 20
6.7875427672
 30
0.0
 10
14.1901981566
 20
6.7830069698
 30
0.0
 10
14.1955021127
 20
6.7645972411
 30
0.0
 10
14.2033852445
 20
6.7469606403
 30
0.0
 10
14.2104515044
 20
6.7343295489
 30
0.0
  0
SPLINE
  5
5E2
100
AcDbEntity
  8
02___PRT_ALL_AXES
100
AcDbSpline
 62
7
  6
CONTINUOUS
 70
0
 71
3
 72
10
 73
6
 74
0
 42
0.0000001
 43
0.0000001
 44
0.0000000001
 40
0.0
 40
0.0
 40
0.0
 40
0.0
 40
0.2391944707
 40
0.4830928873
 40
1.0
 40
1.0
 40
1.0
 40
1.0
 10
14.1832989887
 20
6.7856114899
 30
0.0
 10
14.1832990092
 20
6.7748332845
 30
0.0
 10
14.1852044059
 20
6.7530150061
 30
0.0
 10
14.1967200454
 20
6.7092820986
 30
0.0
 10
14.2136038006
 20
6.6786765768
 30
0.0
 10
14.2273338164
 20
6.659861515
 30
0.0
  0
SPLINE
  5
5E3
100
AcDbEntity
  8
0
100
AcDbSpline
 62
7
  6
CONTINUOUS
 70
0
 71
3
 72
14
 73
10
 74
0
 42
0.0000001
 43
0.0000001
 44
0.0000000001
 40
0.0
 40
0.0
 40
0.0
 40
0.0
 40
0.1080561663
 40
0.2181504055
 40
0.3321364403
 40
0.4515449248
 40
0.5775144579
 40
0.7107779368
 40
1.0
 40
1.0
 40
1.0
 40
1.0
 10
13.7856602948
 20
7.3813127183
 30
0.0
 10
13.7856596443
 20
7.3626778221
 30
0.0
 10
13.7888981418
 20
7.3249809744
 30
0.0
 10
13.8033426421
 20
7.26930131
 30
0.0
 10
13.8271876814
 20
7.2148208599
 30
0.0
 10
13.8601294811
 20
7.1620951947
 30
0.0
 10
13.9017991874
 20
7.111594612
 30
0.0
 10
13.9702494228
 20
7.0460866086
 30
0.0
 10
14.0307476407
 20
7.0044361724
 30
0.0
 10
14.0739434816
 20
6.9794976063
 30
0.0
  0
SPLINE
  5
5E4
100
AcDbEntity
  8
02___PRT_ALL_AXES
100
AcDbSpline
 62
7
  6
CONTINUOUS
 70
0
 71
3
 72
9
 73
5
 74
0
 42
0.0000001
 43
0.0000001
 44
0.0000000001
 40
0.0
 40
0.0
 40
0.0
 40
0.0
 40
0.2566528485
 40
1.0
 40
1.0
 40
1.0
 40
1.0
 10
14.3138038108
 20
6.6342523353
 30
0.0
 10
14.3107634043
 20
6.6367641171
 30
0.0
 10
14.2990727635
 20
6.6467366933
 30
0.0
 10
14.2880217794
 20
6.6574677113
 30
0.0
 10
14.2802858514
 20
6.6658715693
 30
0.0
  0
SPLINE
  5
5E5
100
AcDbEntity
  8
02___PRT_ALL_AXES
100
AcDbSpline
 62
7
  6
CONTINUOUS
 70
0
 71
3
 72
9
 73
5
 74
0
 42
0.0000001
 43
0.0000001
 44
0.0000000001
 40
0.0
 40
0.0
 40
0.0
 40
0.0
 40
0.256713681
 40
1.0
 40
1.0
 40
1.0
 40
1.0
 10
14.3138038108
 20
6.682470982
 30
0.0
 10
14.3107387371
 20
6.6850031421
 30
0.0
 10
14.2989573062
 20
6.6950557187
 30
0.0
 10
14.2878258675
 20
6.7058789714
 30
0.0
 10
14.2800398032
 20
6.7143576329
 30
0.0
  0
SPLINE
  5
5E6
100
AcDbEntity
  8
02___PRT_ALL_AXES
100
AcDbSpline
 62
7
  6
CONTINUOUS
 70
0
 71
3
 72
9
 73
5
 74
0
 42
0.0000001
 43
0.0000001
 44
0.0000000001
 40
0.0
 40
0.0
 40
0.0
 40
0.0
 40
0.2566324321
 40
1.0
 40
1.0
 40
1.0
 40
1.0
 10
14.3138038108
 20
6.7789082753
 30
0.0
 10
14.3107723069
 20
6.7814127024
 30
0.0
 10
14.2991145103
 20
6.7913563312
 30
0.0
 10
14.2880926308
 20
6.8020539828
 30
0.0
 10
14.280374913
 20
6.8104308
 30
0.0
  0
SPLINE
  5
5E7
100
AcDbEntity
  8
02___PRT_ALL_AXES
100
AcDbSpline
 62
7
  6
CONTINUOUS
 70
0
 71
3
 72
9
 73
5
 74
0
 42
0.0000001
 43
0.0000001
 44
0.0000000001
 40
0.0
 40
0.0
 40
0.0
 40
0.0
 40
0.2566365622
 40
1.0
 40
1.0
 40
1.0
 40
1.0
 10
14.3138038108
 20
6.7306896286
 30
0.0
 10
14.3107705987
 20
6.7331954669
 30
0.0
 10
14.2991065082
 20
6.7431446406
 30
0.0
 10
14.2880790478
 20
6.7538486804
 30
0.0
 10
14.2803578418
 20
6.762230675
 30
0.0
  0
SPLINE
  5
5E8
100
AcDbEntity
  8
02___PRT_ALL_AXES
100
AcDbSpline
 62
7
  6
CONTINUOUS
 70
0
 71
3
 72
9
 73
5
 74
0
 42
0.0000001
 43
0.0000001
 44
0.0000000001
 40
0.0
 40
0.0
 40
0.0
 40
0.0
 40
0.2566616051
 40
1.0
 40
1.0
 40
1.0
 40
1.0
 10
14.3138038108
 20
6.827126922
 30
0.0
 10
14.3107602325
 20
6.8296413241
 30
0.0
 10
14.2990579549
 20
6.839624149
 30
0.0
 10
14.2879966428
 20
6.8503669672
 30
0.0
 10
14.2802542885
 20
6.8587803918
 30
0.0
  0
SPLINE
  5
5E9
100
AcDbEntity
  8
02___PRT_ALL_AXES
100
AcDbSpline
 62
7
  6
CONTINUOUS
 70
0
 71
3
 72
9
 73
5
 74
0
 42
0.0000001
 43
0.0000001
 44
0.0000000001
 40
0.0
 40
0.0
 40
0.0
 40
0.0
 40
0.2454799897
 40
1.0
 40
1.0
 40
1.0
 40
1.0
 10
14.4604546617
 20
6.5524902648
 30
0.0
 10
14.4677657786
 20
6.5474936774
 30
0.0
 10
14.4972944209
 20
6.5267675432
 30
0.0
 10
14.5258474395
 20
6.5046688314
 30
0.0
 10
14.546924656
 20
6.4874468959
 30
0.0
  0
SPLINE
  5
5EA
100
AcDbEntity
  8
02___PRT_ALL_AXES
100
AcDbSpline
 62
7
  6
CONTINUOUS
 70
0
 71
3
 72
9
 73
5
 74
0
 42
0.0000001
 43
0.0000001
 44
0.0000000001
 40
0.0
 40
0.0
 40
0.0
 40
0.0
 40
0.2454799731
 40
1.0
 40
1.0
 40
1.0
 40
1.0
 10
14.4604546617
 20
6.6007089114
 30
0.0
 10
14.4677657781
 20
6.5957123244
 30
0.0
 10
14.4972944208
 20
6.5749861907
 30
0.0
 10
14.5258474391
 20
6.5528874785
 30
0.0
 10
14.546924656
 20
6.5356655425
 30
0.0
  0
SPLINE
  5
5EB
100
AcDbEntity
  8
02___PRT_ALL_AXES
100
AcDbSpline
 62
7
  6
CONTINUOUS
 70
0
 71
3
 72
9
 73
5
 74
0
 42
0.0000001
 43
0.0000001
 44
0.0000000001
 40
0.0
 40
0.0
 40
0.0
 40
0.0
 40
0.2454799731
 40
1.0
 40
1.0
 40
1.0
 40
1.0
 10
14.4604546617
 20
6.6489275581
 30
0.0
 10
14.4677657781
 20
6.6439309711
 30
0.0
 10
14.4972944208
 20
6.6232048374
 30
0.0
 10
14.5258474391
 20
6.6011061252
 30
0.0
 10
14.546924656
 20
6.5838841892
 30
0.0
  0
SPLINE
  5
5EC
100
AcDbEntity
  8
0
100
AcDbSpline
 62
7
  6
CONTINUOUS
 70
0
 71
3
 72
18
 73
14
 74
0
 42
0.0000001
 43
0.0000001
 44
0.0000000001
 40
0.0
 40
0.0
 40
0.0
 40
0.0
 40
0.1324344427
 40
0.2726605264
 40
0.4153520454
 40
0.5548682947
 40
0.6859649265
 40
0.7470767891
 40
0.804695595
 40
0.8586436724
 40
0.9089471134
 40
0.9558796179
 40
1.0
 40
1.0
 40
1.0
 40
1.0
 10
14.4604546617
 20
6.4750656212
 30
0.0
 10
14.4992062995
 20
6.459886256
 30
0.0
 10
14.5819578688
 20
6.4359441032
 30
0.0
 10
14.7117731686
 20
6.4188296113
 30
0.0
 10
14.8449682385
 20
6.420004821
 30
0.0
 10
14.9738259293
 20
6.4394158316
 30
0.0
 10
15.073871991
 20
6.4705943359
 30
0.0
 10
15.1449780395
 20
6.5041369997
 30
0.0
 10
15.191541933
 20
6.532212638
 30
0.0
 10
15.231897856
 20
6.5633893631
 30
0.0
 10
15.2654497483
 20
6.5972574071
 30
0.0
 10
15.2916666022
 20
6.6333474341
 30
0.0
 10
15.3042705433
 20
6.6592551203
 30
0.0
 10
15.3090593666
 20
6.6722670395
 30
0.0
  0
SPLINE
  5
5ED
100
AcDbEntity
  8
02___PRT_ALL_AXES
100
AcDbSpline
 62
7
  6
CONTINUOUS
 70
0
 71
3
 72
9
 73
5
 74
0
 42
0.0000001
 43
0.0000001
 44
0.0000000001
 40
0.0
 40
0.0
 40
0.0
 40
0.0
 40
0.2460327877
 40
1.0
 40
1.0
 40
1.0
 40
1.0
 10
14.546924656
 20
6.4874468959
 30
0.0
 10
14.5557240528
 20
6.48548349
 30
0.0
 10
14.5916118586
 20
6.4780604293
 30
0.0
 10
14.6279444346
 20
6.4728118092
 30
0.0
 10
14.6554319652
 20
6.4700208521
 30
0.0
  0
SPLINE
  5
5EE
100
AcDbEntity
  8
02___PRT_ALL_AXES
100
AcDbSpline
 62
7
  6
CONTINUOUS
 70
0
 71
3
 72
13
 73
9
 74
0
 42
0.0000001
 43
0.0000001
 44
0.0000000001
 40
0.0
 40
0.0
 40
0.0
 40
0.0
 40
0.285380025
 40
0.4226066166
 40
0.5539033982
 40
0.6779683921
 40
0.7939090846
 40
1.0
 40
1.0
 40
1.0
 40
1.0
 10
14.8024691111
 20
6.4659648629
 30
0.0
 10
14.8573473329
 20
6.4684437894
 30
0.0
 10
14.9385756033
 20
6.4786728783
 30
0.0
 10
15.0417623703
 20
6.5059799601
 30
0.0
 10
15.1127526497
 20
6.5322435755
 30
0.0
 10
15.176950045
 20
6.5641023593
 30
0.0
 10
15.2487865115
 20
6.6112205225
 30
0.0
 10
15.2938596558
 20
6.6558853852
 30
0.0
 10
15.3158258709
 20
6.6889203414
 30
0.0
  0
SPLINE
  5
5EF
100
AcDbEntity
  8
02___PRT_ALL_AXES
100
AcDbSpline
 62
7
  6
CONTINUOUS
 70
0
 71
3
 72
11
 73
7
 74
0
 42
0.0000001
 43
0.0000001
 44
0.0000000001
 40
0.0
 40
0.0
 40
0.0
 40
0.0
 40
0.2626521018
 40
0.514747338
 40
0.7593298195
 40
1.0
 40
1.0
 40
1.0
 40
1.0
 10
15.3158258709
 20
6.6889203414
 30
0.0
 10
15.3223722146
 20
6.6987653774
 30
0.0
 10
15.3340286211
 20
6.7188816202
 30
0.0
 10
15.3469528138
 20
6.7506491404
 30
0.0
 10
15.3547764352
 20
6.7830335548
 30
0.0
 10
15.3565246817
 20
6.8049147907
 30
0.0
 10
15.3565246619
 20
6.8157481441
 30
0.0
  0
SPLINE
  5
5F0
100
AcDbEntity
  8
02___PRT_ALL_AXES
100
AcDbSpline
 62
7
  6
CONTINUOUS
 70
0
 71
3
 72
9
 73
5
 74
0
 42
0.0000001
 43
0.0000001
 44
0.0000000001
 40
0.0
 40
0.0
 40
0.0
 40
0.0
 40
0.2435176385
 40
1.0
 40
1.0
 40
1.0
 40
1.0
 10
14.2012144628
 20
6.9033520552
 30
0.0
 10
14.2029337547
 20
6.8995211824
 30
0.0
 10
14.2104366739
 20
6.8839901072
 30
0.0
 10
14.2196446927
 20
6.8693002987
 30
0.0
 10
14.2273338164
 20
6.8587634325
 30
0.0
  0
SPLINE
  5
5F1
100
AcDbEntity
  8
02___PRT_ALL_AXES
100
AcDbSpline
 62
7
  6
CONTINUOUS
 70
0
 71
3
 72
17
 73
13
 74
0
 42
0.0000001
 43
0.0000001
 44
0.0000000001
 40
0.0
 40
0.0
 40
0.0
 40
0.0
 40
0.1351489637
 40
0.2739756472
 40
0.4128510695
 40
0.5481432954
 40
0.6765538143
 40
0.7373614498
 40
0.7955340875
 40
0.8509106298
 40
0.9034245107
 40
1.0
 40
1.0
 40
1.0
 40
1.0
 10
14.546924656
 20
6.5356655425
 30
0.0
 10
14.5838091251
 20
6.5274355259
 30
0.0
 10
14.6597226649
 20
6.5155667181
 30
0.0
 10
14.7753171922
 20
6.5111063072
 30
0.0
 10
14.8907369357
 20
6.5198148024
 30
0.0
 10
15.0014832761
 20
6.5414239668
 30
0.0
 10
15.0879198166
 20
6.5700654776
 30
0.0
 10
15.1508146329
 20
6.5990200701
 30
0.0
 10
15.1933782235
 20
6.6229092466
 30
0.0
 10
15.231784434
 20
6.649152336
 30
0.0
 10
15.2756599232
 20
6.6858674854
 30
0.0
 10
15.303352324
 20
6.7177527839
 30
0.0
 10
15.3179918
 20
6.7404457248
 30
0.0
  0
SPLINE
  5
5F2
100
AcDbEntity
  8
02___PRT_ALL_AXES
100
AcDbSpline
 62
7
  6
CONTINUOUS
 70
0
 71
3
 72
9
 73
5
 74
0
 42
0.0000001
 43
0.0000001
 44
0.0000000001
 40
0.0
 40
0.0
 40
0.0
 40
0.0
 40
0.5110105519
 40
1.0
 40
1.0
 40
1.0
 40
1.0
 10
15.3179918
 20
6.7404457248
 30
0.0
 10
15.3252350846
 20
6.7516736832
 30
0.0
 10
15.3378777314
 20
6.7746899866
 30
0.0
 10
15.346656677
 20
6.7994699512
 30
0.0
 10
15.3498474881
 20
6.8118512038
 30
0.0
  0
SPLINE
  5
5F3
100
AcDbEntity
  8
02___PRT_ALL_AXES
100
AcDbSpline
 62
7
  6
CONTINUOUS
 70
0
 71
3
 72
9
 73
5
 74
0
 42
0.0000001
 43
0.0000001
 44
0.0000000001
 40
0.0
 40
0.0
 40
0.0
 40
0.0
 40
0.2525562221
 40
1.0
 40
1.0
 40
1.0
 40
1.0
 10
15.3498474881
 20
6.8118512038
 30
0.0
 10
15.3509529948
 20
6.8161408837
 30
0.0
 10
15.3548146278
 20
6.8332542039
 30
0.0
 10
15.3565246858
 20
6.8508566102
 30
0.0
 10
15.3565246619
 20
6.8639667908
 30
0.0
  0
SPLINE
  5
5F4
100
AcDbEntity
  8
02___PRT_ALL_AXES
100
AcDbSpline
 62
7
  6
CONTINUOUS
 70
0
 71
3
 72
9
 73
5
 74
0
 42
0.0000001
 43
0.0000001
 44
0.0000000001
 40
0.0
 40
0.0
 40
0.0
 40
0.0
 40
0.4835649726
 40
1.0
 40
1.0
 40
1.0
 40
1.0
 10
14.1852029828
 20
6.9096386371
 30
0.0
 10
14.1876814752
 20
6.8923272523
 30
0.0
 10
14.1978533236
 20
6.8571245531
 30
0.0
 10
14.2163244595
 20
6.8256315661
 30
0.0
 10
14.2273338164
 20
6.8105447858
 30
0.0
  0
SPLINE
  5
5F5
100
AcDbEntity
  8
02___PRT_ALL_AXES
100
AcDbSpline
 62
7
  6
CONTINUOUS
 70
0
 71
3
 72
11
 73
7
 74
0
 42
0.0000001
 43
0.0000001
 44
0.0000000001
 40
0.0
 40
0.0
 40
0.0
 40
0.0
 40
0.2475845506
 40
0.5018756079
 40
0.7552015582
 40
1.0
 40
1.0
 40
1.0
 40
1.0
 10
14.546924656
 20
6.5838841892
 30
0.0
 10
14.586558002
 20
6.5750408168
 30
0.0
 10
14.6682164288
 20
6.5626681035
 30
0.0
 10
14.7923362729
 20
6.5594475721
 30
0.0
 10
14.9154732051
 20
6.5713254528
 30
0.0
 10
14.9954253137
 20
6.5895151783
 30
0.0
 10
15.0338244971
 20
6.6012457274
 30
0.0
  0
SPLINE
  5
5F6
100
AcDbEntity
  8
02___PRT_ALL_AXES
100
AcDbSpline
 62
7
  6
CONTINUOUS
 70
0
 71
3
 72
14
 73
10
 74
0
 42
0.0000001
 43
0.0000001
 44
0.0000000001
 40
0.0
 40
0.0
 40
0.0
 40
0.0
 40
0.294184103
 40
0.4307464524
 40
0.5593959974
 40
0.680007336
 40
0.792934593
 40
0.8990919478
 40
1.0
 40
1.0
 40
1.0
 40
1.0
 10
15.0338244971
 20
6.6012457274
 30
0.0
 10
15.0737044911
 20
6.6134286487
 30
0.0
 10
15.1309834113
 20
6.6357427691
 30
0.0
 10
15.2000259144
 20
6.6749549894
 30
0.0
 10
15.2445324966
 20
6.7069450518
 30
0.0
 10
15.2824003561
 20
6.7418185663
 30
0.0
 10
15.313088963
 20
6.7791548812
 30
0.0
 10
15.33611268
 20
6.8184680588
 30
0.0
 10
15.3462779724
 20
6.8462191167
 30
0.0
 10
15.3498474881
 20
6.8600698505
 30
0.0
  0
SPLINE
  5
5F7
100
AcDbEntity
  8
02___PRT_ALL_AXES
100
AcDbSpline
 62
7
  6
CONTINUOUS
 70
0
 71
3
 72
9
 73
5
 74
0
 42
0.0000001
 43
0.0000001
 44
0.0000000001
 40
0.0
 40
0.0
 40
0.0
 40
0.0
 40
0.2525485833
 40
1.0
 40
1.0
 40
1.0
 40
1.0
 10
15.3498474881
 20
6.8600698505
 30
0.0
 10
15.3509461311
 20
6.864332897
 30
0.0
 10
15.3547870559
 20
6.881339719
 30
0.0
 10
15.3565036643
 20
6.898829867
 30
0.0
 10
15.3565244026
 20
6.9118591611
 30
0.0
  0
SPLINE
  5
5F8
100
AcDbEntity
  8
02___PRT_ALL_AXES
100
AcDbSpline
 62
7
  6
CONTINUOUS
 70
0
 71
3
 72
10
 73
6
 74
0
 42
0.0000001
 43
0.0000001
 44
0.0000000001
 40
0.0
 40
0.0
 40
0.0
 40
0.0
 40
0.2391944707
 40
0.4830928873
 40
1.0
 40
1.0
 40
1.0
 40
1.0
 10
14.1832989887
 20
6.8880761141
 30
0.0
 10
14.1832990092
 20
6.8772979087
 30
0.0
 10
14.1852044059
 20
6.8554796303
 30
0.0
 10
14.1967200454
 20
6.8117467228
 30
0.0
 10
14.2136038006
 20
6.781141201
 30
0.0
 10
14.2273338164
 20
6.7623261392
 30
0.0
  0
SPLINE
  5
5F9
100
AcDbEntity
  8
0
100
AcDbSpline
 62
7
  6
CONTINUOUS
 70
0
 71
3
 72
11
 73
7
 74
0
 42
0.0000001
 43
0.0000001
 44
0.0000000001
 40
0.0
 40
0.0
 40
0.0
 40
0.0
 40
0.2995093036
 40
0.563075569
 40
0.7928330133
 40
1.0
 40
1.0
 40
1.0
 40
1.0
 10
14.4604546617
 20
6.4750656212
 30
0.0
 10
14.4604546617
 20
6.4730816066
 30
0.0
 10
14.4607236896
 20
6.4693410773
 30
0.0
 10
14.4620948665
 20
6.4642291016
 30
0.0
 10
14.4644104766
 20
6.4601351824
 30
0.0
 10
14.466643878
 20
6.4581788139
 30
0.0
 10
14.4678324365
 20
6.4574928195
 30
0.0
  0
SPLINE
  5
5FA
100
AcDbEntity
  8
0
100
AcDbSpline
 62
7
  6
CONTINUOUS
 70
0
 71
3
 72
9
 73
5
 74
0
 42
0.0000001
 43
0.0000001
 44
0.0000000001
 40
0.0
 40
0.0
 40
0.0
 40
0.0
 40
0.5358124988
 40
1.0
 40
1.0
 40
1.0
 40
1.0
 10
14.3138038108
 20
6.5597326141
 30
0.0
 10
14.3138038108
 20
6.5564288848
 30
0.0
 10
14.3146662166
 20
6.5501682386
 30
0.0
 10
14.3182181581
 20
6.5447708989
 30
0.0
 10
14.3203961795
 20
6.5429140606
 30
0.0
  0
SPLINE
  5
5FB
100
AcDbEntity
  8
02___PRT_ALL_AXES
100
AcDbSpline
 62
7
  6
CONTINUOUS
 70
0
 71
3
 72
10
 73
6
 74
0
 42
0.0000001
 43
0.0000001
 44
0.0000000001
 40
0.0
 40
0.0
 40
0.0
 40
0.0
 40
0.2424399817
 40
0.4881003537
 40
1.0
 40
1.0
 40
1.0
 40
1.0
 10
14.1832989887
 20
6.8398574674
 30
0.0
 10
14.1832990055
 20
6.8310212599
 30
0.0
 10
14.1845706317
 20
6.8132028446
 30
0.0
 10
14.1922436108
 20
6.7774838363
 30
0.0
 10
14.20361001
 20
6.7518852735
 30
0.0
 10
14.2130646717
 20
6.7358011033
 30
0.0
  0
SPLINE
  5
5FC
100
AcDbEntity
  8
02___PRT_ALL_AXES
100
AcDbSpline
 62
7
  6
CONTINUOUS
 70
0
 71
3
 72
10
 73
6
 74
0
 42
0.0000001
 43
0.0000001
 44
0.0000000001
 40
0.0
 40
0.0
 40
0.0
 40
0.0
 40
0.2391944707
 40
0.4830928873
 40
1.0
 40
1.0
 40
1.0
 40
1.0
 10
14.1832989887
 20
6.7916388208
 30
0.0
 10
14.1832990092
 20
6.7808606153
 30
0.0
 10
14.1852044059
 20
6.7590423369
 30
0.0
 10
14.1967200454
 20
6.7153094295
 30
0.0
 10
14.2136038006
 20
6.6847039076
 30
0.0
 10
14.2273338164
 20
6.6658888458
 30
0.0
  0
SPLINE
  5
5FD
100
AcDbEntity
  8
0
100
AcDbSpline
 62
7
  6
CONTINUOUS
 70
0
 71
3
 72
9
 73
5
 74
0
 42
0.0000001
 43
0.0000001
 44
0.0000000001
 40
0.0
 40
0.0
 40
0.0
 40
0.0
 40
0.4843427203
 40
1.0
 40
1.0
 40
1.0
 40
1.0
 10
14.0739434816
 20
6.9794976063
 30
0.0
 10
14.1100879666
 20
6.9586300502
 30
0.0
 10
14.1876476735
 20
6.9205246622
 30
0.0
 10
14.2689300442
 20
6.8913963565
 30
0.0
 10
14.3114441109
 20
6.8784753678
 30
0.0
  0
SPLINE
  5
5FE
100
AcDbEntity
  8
0
100
AcDbSpline
 62
7
  6
CONTINUOUS
 70
0
 71
3
 72
9
 73
5
 74
0
 42
0.0000001
 43
0.0000001
 44
0.0000000001
 40
0.0
 40
0.0
 40
0.0
 40
0.0
 40
0.2458313185
 40
1.0
 40
1.0
 40
1.0
 40
1.0
 10
14.3114441109
 20
6.8784753678
 30
0.0
 10
14.3233122079
 20
6.8748683841
 30
0.0
 10
14.3717904538
 20
6.8608620754
 30
0.0
 10
14.421018765
 20
6.8494758331
 30
0.0
 10
14.4583853869
 20
6.8422771706
 30
0.0
  0
SPLINE
  5
5FF
100
AcDbEntity
  8
0
100
AcDbSpline
 62
7
  6
CONTINUOUS
 70
0
 71
3
 72
20
 73
16
 74
0
 42
0.0000001
 43
0.0000001
 44
0.0000000001
 40
0.0
 40
0.0
 40
0.0
 40
0.0
 40
0.1444617722
 40
0.2910781893
 40
0.4350764631
 40
0.5047045218
 40
0.5720394071
 40
0.6366444711
 40
0.6981684022
 40
0.7563678194
 40
0.8111337481
 40
0.8625208397
 40
0.9107777749
 40
0.9563725988
 40
1.0
 40
1.0
 40
1.0
 40
1.0
 10
14.4583853869
 20
6.8422771706
 30
0.0
 10
14.5286843415
 20
6.8287341092
 30
0.0
 10
14.6723765411
 20
6.8112535612
 30
0.0
 10
14.888504426
 20
6.812589364
 30
0.0
 10
15.0660178149
 20
6.836468922
 30
0.0
 10
15.2014332841
 20
6.8692964468
 30
0.0
 10
15.2966248175
 20
6.8999028177
 30
0.0
 10
15.3854026126
 20
6.9363895834
 30
0.0
 10
15.4666973535
 20
6.9783259276
 30
0.0
 10
15.5395261113
 20
7.0252199758
 30
0.0
 10
15.6030079612
 20
7.0765331421
 30
0.0
 10
15.6563628436
 20
7.1316851126
 30
0.0
 10
15.6989078816
 20
7.1900732414
 30
0.0
 10
15.7300406204
 20
7.2510087991
 30
0.0
 10
15.7430603486
 20
7.2935689192
 30
0.0
 10
15.7473883482
 20
7.31475194
 30
0.0
  0
SPLINE
  5
600
100
AcDbEntity
  8
02___PRT_ALL_AXES
100
AcDbSpline
 62
7
  6
CONTINUOUS
 70
0
 71
3
 72
14
 73
10
 74
0
 42
0.0000001
 43
0.0000001
 44
0.0000000001
 40
0.0
 40
0.0
 40
0.0
 40
0.0
 40
0.1080469107
 40
0.2181305961
 40
0.3321044521
 40
0.4515001684
 40
0.577461745
 40
0.7107237818
 40
1.0
 40
1.0
 40
1.0
 40
1.0
 10
13.7856601232
 20
7.7670758911
 30
0.0
 10
13.7856597285
 20
7.748442083
 30
0.0
 10
13.7888936595
 20
7.71074741
 30
0.0
 10
13.8033354694
 20
7.6550708824
 30
0.0
 10
13.8271759174
 20
7.6005935606
 30
0.0
 10
13.8601113719
 20
7.5478686227
 30
0.0
 10
13.9017771356
 20
7.4973673726
 30
0.0
 10
13.9702313414
 20
7.4318486097
 30
0.0
 10
14.0307383748
 20
7.3901906954
 30
0.0
 10
14.0739434816
 20
7.3652467797
 30
0.0
  0
SPLINE
  5
601
100
AcDbEntity
  8
0
100
AcDbSpline
 62
7
  6
CONTINUOUS
 70
0
 71
3
 72
9
 73
5
 74
0
 42
0.0000001
 43
0.0000001
 44
0.0000000001
 40
0.0
 40
0.0
 40
0.0
 40
0.0
 40
0.4781881571
 40
1.0
 40
1.0
 40
1.0
 40
1.0
 10
14.2410198005
 20
6.6488186186
 30
0.0
 10
14.2493662231
 20
6.6323911144
 30
0.0
 10
14.2710194899
 20
6.6000970017
 30
0.0
 10
14.298490398
 20
6.5727632913
 30
0.0
 10
14.3138038108
 20
6.5597326141
 30
0.0
  0
SPLINE
  5
602
100
AcDbEntity
  8
02___PRT_ALL_AXES
100
AcDbSpline
 62
7
  6
CONTINUOUS
 70
0
 71
3
 72
23
 73
19
 74
0
 42
0.0000001
 43
0.0000001
 44
0.0000000001
 40
0.0
 40
0.0
 40
0.0
 40
0.0
 40
0.0427726714
 40
0.0871516551
 40
0.1344647812
 40
0.185607891
 40
0.2410275269
 40
0.3007781911
 40
0.3645992215
 40
0.4319863339
 40
0.5022525161
 40
0.5745792383
 40
0.6480609193
 40
0.7217453759
 40
0.7946724243
 40
0.8659119429
 40
0.9346041775
 40
1.0
 40
1.0
 40
1.0
 40
1.0
 10
15.7541635273
 20
7.7670478925
 30
0.0
 10
15.7541629629
 20
7.7403996693
 30
0.0
 10
15.7474108158
 20
7.685890957
 30
0.0
 10
15.7176442035
 20
7.6068637301
 30
0.0
 10
15.6691944108
 20
7.5315286911
 30
0.0
 10
15.603318109
 20
7.4612720486
 30
0.0
 10
15.5214141916
 20
7.3972384261
 30
0.0
 10
15.4250778908
 20
7.3405231372
 30
0.0
 10
15.3161436501
 20
7.2921337705
 30
0.0
 10
15.1966865882
 20
7.2529617606
 30
0.0
 10
15.0689939931
 20
7.2237448051
 30
0.0
 10
14.9355225284
 20
7.2050409919
 30
0.0
 10
14.7988486209
 20
7.1972104263
 30
0.0
 10
14.661614604
 20
7.2004048568
 30
0.0
 10
14.5264765286
 20
7.2145617096
 30
0.0
 10
14.3960392771
 20
7.2394097215
 30
0.0
 10
14.2728368579
 20
7.2744651895
 30
0.0
 10
14.1949110092
 20
7.3050568227
 30
0.0
 10
14.1578744837
 20
7.3220356126
 30
0.0
  0
SPLINE
  5
603
100
AcDbEntity
  8
02___PRT_ALL_AXES
100
AcDbSpline
 62
7
  6
CONTINUOUS
 70
0
 71
3
 72
9
 73
5
 74
0
 42
0.0000001
 43
0.0000001
 44
0.0000000001
 40
0.0
 40
0.0
 40
0.0
 40
0.0
 40
0.2550811906
 40
1.0
 40
1.0
 40
1.0
 40
1.0
 10
14.1578744837
 20
7.3220356126
 30
0.0
 10
14.1505765173
 20
7.325381246
 30
0.0
 10
14.1221126502
 20
7.3388131367
 30
0.0
 10
14.0942477387
 20
7.3535243766
 30
0.0
 10
14.0739434816
 20
7.3652467797
 30
0.0
  0
SPLINE
  5
604
100
AcDbEntity
  8
02___PRT_ALL_AXES
100
AcDbSpline
 62
7
  6
CONTINUOUS
 70
0
 71
3
 72
11
 73
7
 74
0
 42
0.0000001
 43
0.0000001
 44
0.0000000001
 40
0.0
 40
0.0
 40
0.0
 40
0.0
 40
0.2366189888
 40
0.4900721491
 40
0.7487198432
 40
1.0
 40
1.0
 40
1.0
 40
1.0
 10
15.1111595418
 20
6.5756238932
 30
0.0
 10
15.0700352109
 20
6.556175024
 30
0.0
 10
14.9803619944
 20
6.5251324426
 30
0.0
 10
14.8377556895
 20
6.501702803
 30
0.0
 10
14.690439849
 20
6.5005545997
 30
0.0
 10
14.5929542894
 20
6.5150707488
 30
0.0
 10
14.545993585
 20
6.5264091562
 30
0.0
  0
SPLINE
  5
605
100
AcDbEntity
  8
02___PRT_ALL_AXES
100
AcDbSpline
 62
7
  6
CONTINUOUS
 70
0
 71
3
 72
9
 73
5
 74
0
 42
0.0000001
 43
0.0000001
 44
0.0000000001
 40
0.0
 40
0.0
 40
0.0
 40
0.0
 40
0.2557616595
 40
1.0
 40
1.0
 40
1.0
 40
1.0
 10
14.545993585
 20
6.5264091562
 30
0.0
 10
14.5385800404
 20
6.5281991163
 30
0.0
 10
14.5096966674
 20
6.5356125406
 30
0.0
 10
14.48123493
 20
6.5447000827
 30
0.0
 10
14.4604546617
 20
6.5524902648
 30
0.0
  0
SPLINE
  5
606
100
AcDbEntity
  8
02___PRT_ALL_AXES
100
AcDbSpline
 62
7
  6
CONTINUOUS
 70
0
 71
3
 72
11
 73
7
 74
0
 42
0.0000001
 43
0.0000001
 44
0.0000000001
 40
0.0
 40
0.0
 40
0.0
 40
0.0
 40
0.243884395
 40
0.4977024652
 40
0.7527216966
 40
1.0
 40
1.0
 40
1.0
 40
1.0
 10
15.0361240199
 20
6.5938414635
 30
0.0
 10
14.9978699315
 20
6.5810501949
 30
0.0
 10
14.9176127459
 20
6.5612246247
 30
0.0
 10
14.7934470587
 20
6.548243972
 30
0.0
 10
14.6680944081
 20
6.5516435423
 30
0.0
 10
14.5857737189
 20
6.5650243866
 30
0.0
 10
14.5460184759
 20
6.5746217912
 30
0.0
  0
SPLINE
  5
607
100
AcDbEntity
  8
02___PRT_ALL_AXES
100
AcDbSpline
 62
7
  6
CONTINUOUS
 70
0
 71
3
 72
9
 73
5
 74
0
 42
0.0000001
 43
0.0000001
 44
0.0000000001
 40
0.0
 40
0.0
 40
0.0
 40
0.0
 40
0.2557686816
 40
1.0
 40
1.0
 40
1.0
 40
1.0
 10
14.5460184759
 20
6.5746217912
 30
0.0
 10
14.538602553
 20
6.5764120862
 30
0.0
 10
14.5097107578
 20
6.5838269939
 30
0.0
 10
14.4812406765
 20
6.5929165751
 30
0.0
 10
14.4604546617
 20
6.6007089114
 30
0.0
  0
LINE
  5
608
100
AcDbEntity
  8
02___PRT_ALL_AXES
100
AcDbLine
 62
7
  6
CONTINUOUS
 10
15.0777688455
 20
6.6574262467
 11
15.0770937148
 21
6.6571528877
  0
SPLINE
  5
609
100
AcDbEntity
  8
02___PRT_ALL_AXES
100
AcDbSpline
 62
7
  6
CONTINUOUS
 70
0
 71
3
 72
11
 73
7
 74
0
 42
0.0000001
 43
0.0000001
 44
0.0000000001
 40
0.0
 40
0.0
 40
0.0
 40
0.0
 40
0.2402219003
 40
0.493900843
 40
0.7507571229
 40
1.0
 40
1.0
 40
1.0
 40
1.0
 10
15.0770937148
 20
6.6571528877
 30
0.0
 10
15.0370272115
 20
6.6409551378
 30
0.0
 10
14.9514009869
 20
6.6154071814
 30
0.0
 10
14.8171163621
 20
6.5971260739
 30
0.0
 10
14.6799860114
 20
6.5982854206
 30
0.0
 10
14.5895958802
 20
6.6123197477
 30
0.0
 10
14.5460084567
 20
6.6228428558
 30
0.0
  0
SPLINE
  5
60A
100
AcDbEntity
  8
02___PRT_ALL_AXES
100
AcDbSpline
 62
7
  6
CONTINUOUS
 70
0
 71
3
 72
9
 73
5
 74
0
 42
0.0000001
 43
0.0000001
 44
0.0000000001
 40
0.0
 40
0.0
 40
0.0
 40
0.0
 40
0.2557650226
 40
1.0
 40
1.0
 40
1.0
 40
1.0
 10
14.5460084567
 20
6.6228428558
 30
0.0
 10
14.5385935152
 20
6.6246330105
 30
0.0
 10
14.5097051106
 20
6.6320473228
 30
0.0
 10
14.4812383868
 20
6.6411360802
 30
0.0
 10
14.4604546617
 20
6.6489275581
 30
0.0
  0
SPLINE
  5
60B
100
AcDbEntity
  8
02___PRT_ALL_AXES
100
AcDbSpline
 62
7
  6
CONTINUOUS
 70
0
 71
3
 72
9
 73
5
 74
0
 42
0.0000001
 43
0.0000001
 44
0.0000000001
 40
0.0
 40
0.0
 40
0.0
 40
0.0
 40
0.2454799731
 40
1.0
 40
1.0
 40
1.0
 40
1.0
 10
14.4604546617
 20
6.6971462048
 30
0.0
 10
14.4677657781
 20
6.6921496178
 30
0.0
 10
14.4972944208
 20
6.6714234841
 30
0.0
 10
14.5258474391
 20
6.6493247719
 30
0.0
 10
14.546924656
 20
6.6321028359
 30
0.0
  0
SPLINE
  5
60C
100
AcDbEntity
  8
02___PRT_ALL_AXES
100
AcDbSpline
 62
7
  6
CONTINUOUS
 70
0
 71
3
 72
9
 73
5
 74
0
 42
0.0000001
 43
0.0000001
 44
0.0000000001
 40
0.0
 40
0.0
 40
0.0
 40
0.0
 40
0.4832350937
 40
1.0
 40
1.0
 40
1.0
 40
1.0
 10
15.1109734743
 20
6.7201918986
 30
0.0
 10
15.0725696786
 20
6.7020452319
 30
0.0
 10
14.9891919498
 20
6.6725529386
 30
0.0
 10
14.9023310461
 20
6.6568823144
 30
0.0
 10
14.857164659
 20
6.6520653771
 30
0.0
  0
SPLINE
  5
60D
100
AcDbEntity
  8
02___PRT_ALL_AXES
100
AcDbSpline
 62
7
  6
CONTINUOUS
 70
0
 71
3
 72
9
 73
5
 74
0
 42
0.0000001
 43
0.0000001
 44
0.0000000001
 40
0.0
 40
0.0
 40
0.0
 40
0.0
 40
0.2537675361
 40
1.0
 40
1.0
 40
1.0
 40
1.0
 10
14.6409599923
 20
6.6538526316
 30
0.0
 10
14.6328581786
 20
6.6548620472
 30
0.0
 10
14.600988028
 20
6.6592721933
 30
0.0
 10
14.5693542966
 20
6.6654254661
 30
0.0
 10
14.5460162416
 20
6.671059625
 30
0.0
  0
SPLINE
  5
60E
100
AcDbEntity
  8
02___PRT_ALL_AXES
100
AcDbSpline
 62
7
  6
CONTINUOUS
 70
0
 71
3
 72
9
 73
5
 74
0
 42
0.0000001
 43
0.0000001
 44
0.0000000001
 40
0.0
 40
0.0
 40
0.0
 40
0.0
 40
0.2557681173
 40
1.0
 40
1.0
 40
1.0
 40
1.0
 10
14.5460162416
 20
6.671059625
 30
0.0
 10
14.5386005301
 20
6.6728498897
 30
0.0
 10
14.5097094905
 20
6.6802646627
 30
0.0
 10
14.4812401588
 20
6.6893540625
 30
0.0
 10
14.4604546617
 20
6.6971462048
 30
0.0
  0
SPLINE
  5
60F
100
AcDbEntity
  8
02___PRT_ALL_AXES
100
AcDbSpline
 62
7
  6
CONTINUOUS
 70
0
 71
3
 72
9
 73
5
 74
0
 42
0.0000001
 43
0.0000001
 44
0.0000000001
 40
0.0
 40
0.0
 40
0.0
 40
0.0
 40
0.2454799731
 40
1.0
 40
1.0
 40
1.0
 40
1.0
 10
14.4604546617
 20
6.7453648515
 30
0.0
 10
14.4677657781
 20
6.7403682644
 30
0.0
 10
14.4972944208
 20
6.7196421308
 30
0.0
 10
14.5258474391
 20
6.6975434185
 30
0.0
 10
14.546924656
 20
6.6803214826
 30
0.0
  0
LINE
  5
610
100
AcDbEntity
  8
02___PRT_ALL_AXES
100
AcDbLine
 62
7
  6
CONTINUOUS
 10
15.0775719732
 20
6.7537837307
 11
15.0772484135
 21
6.7536527348
  0
SPLINE
  5
611
100
AcDbEntity
  8
02___PRT_ALL_AXES
100
AcDbSpline
 62
7
  6
CONTINUOUS
 70
0
 71
3
 72
11
 73
7
 74
0
 42
0.0000001
 43
0.0000001
 44
0.0000000001
 40
0.0
 40
0.0
 40
0.0
 40
0.0
 40
0.2402063868
 40
0.4938824356
 40
0.7507435981
 40
1.0
 40
1.0
 40
1.0
 40
1.0
 10
15.0772484135
 20
6.7536527348
 30
0.0
 10
15.0371766552
 20
6.7374413794
 30
0.0
 10
14.9515326948
 20
6.7118704343
 30
0.0
 10
14.8172128041
 20
6.6935673831
 30
0.0
 10
14.6800388002
 20
6.6947164417
 30
0.0
 10
14.5896178968
 20
6.70875211
 30
0.0
 10
14.5460151462
 20
6.7192785358
 30
0.0
  0
SPLINE
  5
612
100
AcDbEntity
  8
02___PRT_ALL_AXES
100
AcDbSpline
 62
7
  6
CONTINUOUS
 70
0
 71
3
 72
9
 73
5
 74
0
 42
0.0000001
 43
0.0000001
 44
0.0000000001
 40
0.0
 40
0.0
 40
0.0
 40
0.0
 40
0.2557678039
 40
1.0
 40
1.0
 40
1.0
 40
1.0
 10
14.5460151462
 20
6.7192785358
 30
0.0
 10
14.5385995395
 20
6.721068786
 30
0.0
 10
14.5097088709
 20
6.7284834947
 30
0.0
 10
14.4812399061
 20
6.737572804
 30
0.0
 10
14.4604546617
 20
6.7453648515
 30
0.0
  0
SPLINE
  5
613
100
AcDbEntity
  8
02___PRT_ALL_AXES
100
AcDbSpline
 62
7
  6
CONTINUOUS
 70
0
 71
3
 72
9
 73
5
 74
0
 42
0.0000001
 43
0.0000001
 44
0.0000000001
 40
0.0
 40
0.0
 40
0.0
 40
0.0
 40
0.2454807148
 40
1.0
 40
1.0
 40
1.0
 40
1.0
 10
14.4604546617
 20
6.7935834982
 30
0.0
 10
14.4677658003
 20
6.7885868959
 30
0.0
 10
14.4972945006
 20
6.767860843
 30
0.0
 10
14.5258474595
 20
6.7457620486
 30
0.0
 10
14.546924656
 20
6.7285401293
 30
0.0
  0
SPLINE
  5
614
100
AcDbEntity
  8
02___PRT_ALL_AXES
100
AcDbSpline
 62
7
  6
CONTINUOUS
 70
0
 71
3
 72
11
 73
7
 74
0
 42
0.0000001
 43
0.0000001
 44
0.0000000001
 40
0.0
 40
0.0
 40
0.0
 40
0.0
 40
0.2366817812
 40
0.4901387599
 40
0.7487543679
 40
1.0
 40
1.0
 40
1.0
 40
1.0
 10
15.1106078607
 20
6.8164566099
 30
0.0
 10
15.0694965692
 20
6.7970635429
 30
0.0
 10
14.9798848878
 20
6.7661160514
 30
0.0
 10
14.8374121637
 20
6.7427757611
 30
0.0
 10
14.6902638072
 20
6.7416687354
 30
0.0
 10
14.5928958252
 20
6.7561779928
 30
0.0
 10
14.5459908156
 20
6.7675030727
 30
0.0
  0
SPLINE
  5
615
100
AcDbEntity
  8
02___PRT_ALL_AXES
100
AcDbSpline
 62
7
  6
CONTINUOUS
 70
0
 71
3
 72
9
 73
5
 74
0
 42
0.0000001
 43
0.0000001
 44
0.0000000001
 40
0.0
 40
0.0
 40
0.0
 40
0.0
 40
0.2557631387
 40
1.0
 40
1.0
 40
1.0
 40
1.0
 10
14.5459908156
 20
6.7675030727
 30
0.0
 10
14.5385774685
 20
6.7692930041
 30
0.0
 10
14.5096950274
 20
6.7767062401
 30
0.0
 10
14.4812342268
 20
6.7857935797
 30
0.0
 10
14.4604546617
 20
6.7935834982
 30
0.0
  0
SPLINE
  5
616
100
AcDbEntity
  8
02___PRT_ALL_AXES
100
AcDbSpline
 62
7
  6
CONTINUOUS
 70
0
 71
3
 72
9
 73
5
 74
0
 42
0.0000001
 43
0.0000001
 44
0.0000000001
 40
0.0
 40
0.0
 40
0.0
 40
0.0
 40
0.2471461587
 40
1.0
 40
1.0
 40
1.0
 40
1.0
 10
14.4884684599
 20
6.8220107527
 30
0.0
 10
14.4933895332
 20
6.8184222343
 30
0.0
 10
14.5131891008
 20
6.8037489935
 30
0.0
 10
14.5325578254
 20
6.7884977374
 30
0.0
 10
14.546924656
 20
6.776758776
 30
0.0
  0
SPLINE
  5
617
100
AcDbEntity
  8
02___PRT_ALL_AXES
100
AcDbSpline
 62
7
  6
CONTINUOUS
 70
0
 71
3
 72
9
 73
5
 74
0
 42
0.0000001
 43
0.0000001
 44
0.0000000001
 40
0.0
 40
0.0
 40
0.0
 40
0.0
 40
0.5030337124
 40
1.0
 40
1.0
 40
1.0
 40
1.0
 10
14.8955091412
 20
6.8016252667
 30
0.0
 10
14.8445070838
 20
6.7940043968
 30
0.0
 10
14.7416993937
 20
6.7874039132
 30
0.0
 10
14.6391245614
 20
6.7972371706
 30
0.0
 10
14.5890358146
 20
6.8065452836
 30
0.0
  0
SPLINE
  5
618
100
AcDbEntity
  8
02___PRT_ALL_AXES
100
AcDbSpline
 62
7
  6
CONTINUOUS
 70
0
 71
3
 72
11
 73
7
 74
0
 42
0.0000001
 43
0.0000001
 44
0.0000000001
 40
0.0
 40
0.0
 40
0.0
 40
0.0
 40
0.2476894642
 40
0.5020817564
 40
0.7554025579
 40
1.0
 40
1.0
 40
1.0
 40
1.0
 10
14.546924656
 20
6.6321028359
 30
0.0
 10
14.586815803
 20
6.6232019404
 30
0.0
 10
14.6690131593
 20
6.6107847441
 30
0.0
 10
14.7939280762
 20
6.6076908545
 30
0.0
 10
14.9177765736
 20
6.6198823334
 30
0.0
 10
14.9981324903
 20
6.6384118795
 30
0.0
 10
15.0366898714
 20
6.6503454561
 30
0.0
  0
SPLINE
  5
619
100
AcDbEntity
  8
02___PRT_ALL_AXES
100
AcDbSpline
 62
7
  6
CONTINUOUS
 70
0
 71
3
 72
14
 73
10
 74
0
 42
0.0000001
 43
0.0000001
 44
0.0000000001
 40
0.0
 40
0.0
 40
0.0
 40
0.0
 40
0.2939535424
 40
0.4304321178
 40
0.5590435973
 40
0.679672658
 40
0.7926741401
 40
0.8989511027
 40
1.0
 40
1.0
 40
1.0
 40
1.0
 10
15.0366898714
 20
6.6503454561
 30
0.0
 10
15.0761530137
 20
6.6625593674
 30
0.0
 10
15.1328223423
 20
6.6848557151
 30
0.0
 10
15.2011233208
 20
6.723894356
 30
0.0
 10
15.2451653877
 20
6.7556993807
 30
0.0
 10
15.282659921
 20
6.7903364227
 30
0.0
 10
15.3130798432
 20
6.8273934389
 30
0.0
 10
15.3359513054
 20
6.8663948186
 30
0.0
 10
15.3460993674
 20
6.8939182314
 30
0.0
 10
15.3496842443
 20
6.9076589501
 30
0.0
  0
SPLINE
  5
61A
100
AcDbEntity
  8
02___PRT_ALL_AXES
100
AcDbSpline
 62
7
  6
CONTINUOUS
 70
0
 71
3
 72
16
 73
12
 74
0
 42
0.0000001
 43
0.0000001
 44
0.0000000001
 40
0.0
 40
0.0
 40
0.0
 40
0.0
 40
0.1360251155
 40
0.2757507554
 40
0.4153585375
 40
0.551043444
 40
0.67938011
 40
0.7976803933
 40
0.8525993968
 40
0.9045762205
 40
1.0
 40
1.0
 40
1.0
 40
1.0
 10
14.546924656
 20
6.6803214826
 30
0.0
 10
14.5846392735
 20
6.6719062353
 30
0.0
 10
14.6622877269
 20
6.6598796201
 30
0.0
 10
14.7804640266
 20
6.6557719056
 30
0.0
 10
14.8982447092
 20
6.6654048935
 30
0.0
 10
15.010873174
 20
6.6884723611
 30
0.0
 10
15.113821229
 20
6.7241163781
 30
0.0
 10
15.1900319668
 20
6.7641978722
 30
0.0
 10
15.2419955833
 20
6.8017071911
 30
0.0
 10
15.2849374735
 20
6.839972918
 30
0.0
 10
15.3114724917
 20
6.8731510583
 30
0.0
 10
15.325033953
 20
6.8966229871
 30
0.0
  0
SPLINE
  5
61B
100
AcDbEntity
  8
02___PRT_ALL_AXES
100
AcDbSpline
 62
7
  6
CONTINUOUS
 70
0
 71
3
 72
15
 73
11
 74
0
 42
0.0000001
 43
0.0000001
 44
0.0000000001
 40
0.0
 40
0.0
 40
0.0
 40
0.0
 40
0.1311863095
 40
0.2658989201
 40
0.4013469834
 40
0.5346884518
 40
0.6632464327
 40
0.7846888545
 40
0.8972514819
 40
1.0
 40
1.0
 40
1.0
 40
1.0
 10
14.546924656
 20
6.7285401293
 30
0.0
 10
14.5797494558
 20
6.721215945
 30
0.0
 10
14.6471817842
 20
6.7101889213
 30
0.0
 10
14.7500748952
 20
6.7042793721
 30
0.0
 10
14.8536005446
 20
6.7088822203
 30
0.0
 10
14.9545454973
 20
6.7239071247
 30
0.0
 10
15.0498006166
 20
6.7489311988
 30
0.0
 10
15.1364614469
 20
6.7832570856
 30
0.0
 10
15.2118654222
 20
6.8258903869
 30
0.0
 10
15.2551353511
 20
6.8607510949
 30
0.0
 10
15.2738149003
 20
6.8793238298
 30
0.0
  0
SPLINE
  5
61C
100
AcDbEntity
  8
02___PRT_ALL_AXES
100
AcDbSpline
 62
7
  6
CONTINUOUS
 70
0
 71
3
 72
12
 73
8
 74
0
 42
0.0000001
 43
0.0000001
 44
0.0000000001
 40
0.0
 40
0.0
 40
0.0
 40
0.0
 40
0.2539521928
 40
0.5137879291
 40
0.7663299704
 40
0.8861793407
 40
1.0
 40
1.0
 40
1.0
 40
1.0
 10
14.546924656
 20
6.776758776
 30
0.0
 10
14.5985840934
 20
6.7652320266
 30
0.0
 10
14.7053590595
 20
6.7512837494
 30
0.0
 10
14.8655987512
 20
6.7558154317
 30
0.0
 10
14.9957581362
 20
6.7805882407
 30
0.0
 10
15.0918880995
 20
6.8130504545
 30
0.0
 10
15.1363458068
 20
6.8332109335
 30
0.0
 10
15.1573476738
 20
6.8442427812
 30
0.0
  0
ENDSEC
  0
SECTION
  2
OBJECTS
  0
DICTIONARY
  5
C
100
AcDbDictionary
280
0
281
1
  3
ACAD_GROUP
350
D
  3
ACAD_MLINESTYLE
350
17
  3
ACAD_LAYOUT
350
1A
  3
ACAD_PLOTSETTINGS
350
19
  3
ACAD_PLOTSTYLENAME
350
E
  3
ACAD_TABLESTYLE
350
       61D
  0
DICTIONARY
  5
D
102
{ACAD_REACTORS
330
C
102
}
100
AcDbDictionary
280
0
281
1
  0
ACDBDICTIONARYWDFLT
  5
E
102
{ACAD_REACTORS
330
C
102
}
100
AcDbDictionary
281
1
  3
Normal
350
F
100
AcDbDictionaryWithDefault
340
F
  0
DICTIONARY
  5
17
102
{ACAD_REACTORS
330
C
102
}
100
AcDbDictionary
280
0
281
1
  3
Standard
350
18
  0
DICTIONARY
  5
61D
330
C
100
AcDbDictionary
281
1
  3
Standard
350
       620
  3
Standard1
350
       621
  0
DICTIONARY
  5
19
102
{ACAD_REACTORS
330
C
102
}
100
AcDbDictionary
281
1
  0
DICTIONARY
  5
1A
102
{ACAD_REACTORS
330
C
102
}
100
AcDbDictionary
281
1
  3
Model
350
61E
  3
Layout1
350
61F
  0
ACDBPLACEHOLDER
  5
F
102
{ACAD_REACTORS
330
E
102
}
  0
MLINESTYLE
  5
18
102
{ACAD_REACTORS
330
17
102
}
100
AcDbMlineStyle
  2
STANDARD
 70
0
  3

 62
256
 51
90.0
 52
90.0
 71
2
 49
0.5
 62
256
  6
BYLAYER
 49
-0.5
 62
256
  6
BYLAYER
  0
LAYOUT
  5
61E
102
{ACAD_REACTORS
330
1A
102
}
100
AcDbPlotSettings
  1

  2
none_device
  4
ANSI_B_(17.00_x_11.00_Inches)
  6

 40
0.0
 41
0.0
 42
0.0
 43
0.0
 44
431.8
 45
279.4
 46
0.0
 47
0.0
 48
0.0
 49
0.0
140
0.0
141
0.0
142
1.0
143
1.0
 70
1024
 72
0
 73
0
 74
0
  7

 75
0
147
1.0
148
0.0
149
0.0
100
AcDbLayout
  1
Model
 70
0
 71
0
 10
0.0
 20
0.0
 11
17.0
 21
11.0
 12
0.0
 22
0.0
 32
0.0
 14
0.0
 24
0.0
 34
0.0
 15
0.0
 25
0.0
 35
0.0
146
0.0
 13
0.0
 23
0.0
 33
0.0
 16
1.0
 26
0.0
 36
0.0
 17
0.0
 27
1.0
 37
0.0
 76
0
330
242
345
0
346
0
  0
LAYOUT
  5
61F
102
{ACAD_REACTORS
330
1A
102
}
100
AcDbPlotSettings
  1

  2
none_device
  4
ANSI_B_(17.00_x_11.00_Inches)
  6

 40
0.0
 41
0.0
 42
0.0
 43
0.0
 44
431.8
 45
279.4
 46
0.0
 47
0.0
 48
0.0
 49
0.0
140
0.0
141
0.0
142
1.0
143
1.0
 70
0
 72
0
 73
0
 74
0
  7

 75
0
147
1.0
148
0.0
149
0.0
100
AcDbLayout
  1
Layout1
 70
0
 71
1
 10
0.0
 20
0.0
 11
17.0
 21
11.0
 12
0.0
 22
0.0
 32
0.0
 14
0.0
 24
0.0
 34
0.0
 15
0.0
 25
0.0
 35
0.0
146
0.0
 13
0.0
 23
0.0
 33
0.0
 16
1.0
 26
0.0
 36
0.0
 17
0.0
 27
1.0
 37
0.0
 76
0
330
243
345
0
346
0
  0
TABLESTYLE
  5
620
102
{ACAD_REACTORS
330
61D
102
}
330
61D
100
AcDbTableStyle
  3
Standard
 70
0
 71
0
 40
0.06
 41
0.06
280
1
281
1
  7
Standard
140
0.18
170
1
 62
0
 63
7
283
0
  7
Standard
140
0.18
170
1
 62
0
 63
7
283
0
  7
Standard
140
0.18
170
1
 62
0
 63
7
283
0
  0
TABLESTYLE
  5
621
102
{ACAD_REACTORS
330
61D
330
466
102
}
330
61D
100
AcDbTableStyle
  3
Standard1
 70
1
 71
0
 40
0.06
 41
0.06
280
1
281
1
  7
Standard
140
0.18
170
1
 62
0
 63
7
283
0
  7
Standard
140
0.18
170
1
 62
0
 63
7
283
0
  7
Standard
140
0.18
170
1
 62
0
 63
7
283
0
  0
ENDSEC
  0
EOF
