999
DXF file: 144874_1.dxf
999
Pro/ENGINEER 2006170 by Parametric Technology Corporation
  0
SECTION
  2
HEADER
  9
$ACADVER
  1
AC1015
  9
$DWGCODEPAGE
  3
ANSI_1252
  9
$EXTMAX
 10
17.0
 20
11.0
 30
0.0
  9
$EXTMIN
 10
0.0
 20
0.0
 30
0.0
  9
$LIMMIN
 10
0.0
 20
0.0
  9
$LIMMAX
 10
17.0
 20
11.0
  9
$VIEWCTR
 10
8.5
 20
5.5
  9
$VIEWSIZE
 40
11.0
  9
$CLAYER
  8
0
  9
$LTSCALE
 40
0.935
  9
$CELTYPE
  6
BYLAYER
  9
$DIMSCALE
 40
1.0
  9
$DIMASZ
 40
0.1875
  9
$DIMEXO
 40
0.10625
  9
$DIMDLI
 40
0.646
  9
$DIMEXE
 40
0.306
  9
$DIMCEN
 40
0.153
  9
$DIMLFAC
 40
1.0
  9
$DIMBLK
  1
_FILLED
  9
$DIMTXT
 40
0.1
  9
$DIMTOL
 70
1
  9
$DIMLIM
 70
0
  9
$DIMTFAC
 40
1.0
  9
$DIMTP
 40
0.005
  9
$DIMTM
 40
0.005
  9
$PDMODE
 70
3
  9
$PDSIZE
 40
0.3125
  9
$HANDSEED
  5
703
  9
$MEASUREMENT
 70
0
  9
$INSUNITS
 70
1
  0
ENDSEC
  0
SECTION
  2
CLASSES
  0
CLASS
  1
ACDBDICTIONARYWDFLT
  2
AcDbDictionaryWithDefault
  3
AutoCAD 2000
 90
0
280
0
281
0
  0
CLASS
  1
ACDBPLACEHOLDER
  2
AcDbPlaceHolder
  3
AutoCAD 2000
 90
0
280
0
281
0
  0
CLASS
  1
LAYOUT
  2
AcDbLayout
  3
AutoCAD 2000
 90
0
280
0
281
0
  0
ENDSEC
  0
SECTION
  2
TABLES
  0
TABLE
  2
VPORT
  5
8
100
AcDbSymbolTable
 70
2
  0
VPORT
  5
1F4
100
AcDbSymbolTableRecord
100
AcDbViewportTableRecord
  2
*ACTIVE
 70
0
 10
0.0
 20
0.0
 11
1.0
 21
1.0
 12
8.5
 22
5.5
 13
0.0
 23
0.0
 14
1.0
 24
1.0
 15
0.0
 25
0.0
 16
0.0
 26
0.0
 36
1.0
 17
0.0
 27
0.0
 37
0.0
 40
11.0
 41
1.5454545455
 42
50.0
 43
0.0
 44
0.0
 50
0.0
 51
0.0
 71
0
 72
100
 73
1
 74
1
 75
0
 76
0
 77
0
 78
0
  0
ENDTAB
  0
TABLE
  2
LTYPE
  5
5
100
AcDbSymbolTable
 70
6
  0
LTYPE
  5
14
100
AcDbSymbolTableRecord
100
AcDbLinetypeTableRecord
  2
BYBLOCK
 70
0
  3

 72
65
 73
0
 40
0.0
  0
LTYPE
  5
15
100
AcDbSymbolTableRecord
100
AcDbLinetypeTableRecord
  2
BYLAYER
 70
0
  3

 72
65
 73
0
 40
0.0
  0
LTYPE
  5
16
100
AcDbSymbolTableRecord
100
AcDbLinetypeTableRecord
  2
CONTINUOUS
 70
64
  3
Solid line
 72
65
 73
0
 40
0.0
  0
LTYPE
  5
1F5
100
AcDbSymbolTableRecord
100
AcDbLinetypeTableRecord
  2
CENTER
 70
64
  3
____ _ ____ _ ____ _ ____ _ ____ _ ____ _ ____
 72
65
 73
4
 40
0.6
 49
0.375
 74
0
 49
-0.075
 74
0
 49
0.075
 74
0
 49
-0.075
 74
0
  0
LTYPE
  5
1F6
100
AcDbSymbolTableRecord
100
AcDbLinetypeTableRecord
  2
HIDDEN
 70
64
  3
- - - - - - - - - - - - - - - - - - - -
 72
65
 73
2
 40
0.2
 49
0.1
 74
0
 49
-0.1
 74
0
  0
LTYPE
  5
1F7
100
AcDbSymbolTableRecord
100
AcDbLinetypeTableRecord
  2
PHANTOM
 70
64
  3
_____ _ _ _____ _ _ _____ _ _ _____
 72
65
 73
6
 40
0.8
 49
0.45
 74
0
 49
-0.05
 74
0
 49
0.1
 74
0
 49
-0.05
 74
0
 49
0.1
 74
0
 49
-0.05
 74
0
  0
LTYPE
  5
1F8
100
AcDbSymbolTableRecord
100
AcDbLinetypeTableRecord
  2
DOT
 70
64
  3
. . . . . . . . . . . . . . . . . . . .
 72
65
 73
2
 40
0.2
 49
0.1
 74
0
 49
-0.1
 74
0
  0
LTYPE
  5
1F9
100
AcDbSymbolTableRecord
100
AcDbLinetypeTableRecord
  2
DASHED
 70
64
  3
- - - - - - - - - - - - - - - - - - - -
 72
65
 73
2
 40
0.2
 49
0.1
 74
0
 49
-0.1
 74
0
  0
ENDTAB
  0
TABLE
  2
LAYER
  5
2
100
AcDbSymbolTable
 70
36
  0
LAYER
  5
10
100
AcDbSymbolTableRecord
100
AcDbLayerTableRecord
  2
0
 70
0
 62
7
  6
CONTINUOUS
370
-3
390
F
  0
LAYER
  5
1FA
100
AcDbSymbolTableRecord
100
AcDbLayerTableRecord
  2
DEFAULT_1
 70
0
 62
7
  6
CENTER
370
-3
390
F
  0
LAYER
  5
1FB
100
AcDbSymbolTableRecord
100
AcDbLayerTableRecord
  2
DEFAULT_2
 70
0
 62
8
  6
HIDDEN
370
-3
390
F
  0
LAYER
  5
1FC
100
AcDbSymbolTableRecord
100
AcDbLayerTableRecord
  2
DEFAULT_3
 70
0
 62
7
  6
PHANTOM
370
-3
390
F
  0
LAYER
  5
1FD
100
AcDbSymbolTableRecord
100
AcDbLayerTableRecord
  2
_2D_DELETED_OBJS
 70
0
 62
7
  6
CONTINUOUS
370
-3
390
F
  0
LAYER
  5
1FE
100
AcDbSymbolTableRecord
100
AcDbLayerTableRecord
  2
_BLACK_HOLE
 70
0
 62
7
  6
CONTINUOUS
370
-3
390
F
  0
LAYER
  5
1FF
100
AcDbSymbolTableRecord
100
AcDbLayerTableRecord
  2
01_ALL_DTM_PLN
 70
0
 62
7
  6
CONTINUOUS
370
-3
390
F
  0
LAYER
  5
200
100
AcDbSymbolTableRecord
100
AcDbLayerTableRecord
  2
01__ASM_ALL_DTM_PLN
 70
0
 62
7
  6
CONTINUOUS
370
-3
390
F
  0
LAYER
  5
201
100
AcDbSymbolTableRecord
100
AcDbLayerTableRecord
  2
01__ASM_DEF_DTM_PLN
 70
0
 62
7
  6
CONTINUOUS
370
-3
390
F
  0
LAYER
  5
202
100
AcDbSymbolTableRecord
100
AcDbLayerTableRecord
  2
01___PRT_ALL_DTM_PLN
 70
0
 62
7
  6
CONTINUOUS
370
-3
390
F
  0
LAYER
  5
203
100
AcDbSymbolTableRecord
100
AcDbLayerTableRecord
  2
01___PRT_DEF_DTM_PLN
 70
0
 62
7
  6
CONTINUOUS
370
-3
390
F
  0
LAYER
  5
204
100
AcDbSymbolTableRecord
100
AcDbLayerTableRecord
  2
02_ALL_AXES
 70
0
 62
7
  6
CONTINUOUS
370
-3
390
F
  0
LAYER
  5
205
100
AcDbSymbolTableRecord
100
AcDbLayerTableRecord
  2
02__ASM_ALL_AXES
 70
0
 62
7
  6
CONTINUOUS
370
-3
390
F
  0
LAYER
  5
206
100
AcDbSymbolTableRecord
100
AcDbLayerTableRecord
  2
02___PRT_ALL_AXES
 70
0
 62
7
  6
CONTINUOUS
370
-3
390
F
  0
LAYER
  5
207
100
AcDbSymbolTableRecord
100
AcDbLayerTableRecord
  2
03_ALL_CURVES
 70
0
 62
7
  6
CONTINUOUS
370
-3
390
F
  0
LAYER
  5
208
100
AcDbSymbolTableRecord
100
AcDbLayerTableRecord
  2
03__ASM_ALL_CURVES
 70
0
 62
7
  6
CONTINUOUS
370
-3
390
F
  0
LAYER
  5
209
100
AcDbSymbolTableRecord
100
AcDbLayerTableRecord
  2
03___PRT_ALL_CURVES
 70
0
 62
7
  6
CONTINUOUS
370
-3
390
F
  0
LAYER
  5
20A
100
AcDbSymbolTableRecord
100
AcDbLayerTableRecord
  2
04_ALL_DTM_PNT
 70
0
 62
7
  6
CONTINUOUS
370
-3
390
F
  0
LAYER
  5
20B
100
AcDbSymbolTableRecord
100
AcDbLayerTableRecord
  2
04__ASM_ALL_DTM_PNT
 70
0
 62
7
  6
CONTINUOUS
370
-3
390
F
  0
LAYER
  5
20C
100
AcDbSymbolTableRecord
100
AcDbLayerTableRecord
  2
04___PRT_ALL_DTM_PNT
 70
0
 62
7
  6
CONTINUOUS
370
-3
390
F
  0
LAYER
  5
20D
100
AcDbSymbolTableRecord
100
AcDbLayerTableRecord
  2
05_ALL_DTM_CSYS
 70
0
 62
7
  6
CONTINUOUS
370
-3
390
F
  0
LAYER
  5
20E
100
AcDbSymbolTableRecord
100
AcDbLayerTableRecord
  2
05__ASM_ALL_DTM_CSYS
 70
0
 62
7
  6
CONTINUOUS
370
-3
390
F
  0
LAYER
  5
20F
100
AcDbSymbolTableRecord
100
AcDbLayerTableRecord
  2
05__ASM_DEF_DTM_CSYS
 70
0
 62
7
  6
CONTINUOUS
370
-3
390
F
  0
LAYER
  5
210
100
AcDbSymbolTableRecord
100
AcDbLayerTableRecord
  2
05___PRT_ALL_DTM_CSYS
 70
0
 62
7
  6
CONTINUOUS
370
-3
390
F
  0
LAYER
  5
211
100
AcDbSymbolTableRecord
100
AcDbLayerTableRecord
  2
05___PRT_DEF_DTM_CSYS
 70
0
 62
7
  6
CONTINUOUS
370
-3
390
F
  0
LAYER
  5
212
100
AcDbSymbolTableRecord
100
AcDbLayerTableRecord
  2
06_ALL_SURFS
 70
0
 62
7
  6
CONTINUOUS
370
-3
390
F
  0
LAYER
  5
213
100
AcDbSymbolTableRecord
100
AcDbLayerTableRecord
  2
06__ASM_ALL_SURFS
 70
0
 62
7
  6
CONTINUOUS
370
-3
390
F
  0
LAYER
  5
214
100
AcDbSymbolTableRecord
100
AcDbLayerTableRecord
  2
06___PRT_ALL_SURFS
 70
0
 62
7
  6
CONTINUOUS
370
-3
390
F
  0
LAYER
  5
215
100
AcDbSymbolTableRecord
100
AcDbLayerTableRecord
  2
07__ASM_ALL_SKELETONS
 70
0
 62
7
  6
CONTINUOUS
370
-3
390
F
  0
LAYER
  5
216
100
AcDbSymbolTableRecord
100
AcDbLayerTableRecord
  2
1
 70
0
 62
7
  6
CONTINUOUS
370
-3
390
F
  0
LAYER
  5
217
100
AcDbSymbolTableRecord
100
AcDbLayerTableRecord
  2
10
 70
0
 62
7
  6
CONTINUOUS
370
-3
390
F
  0
LAYER
  5
218
100
AcDbSymbolTableRecord
100
AcDbLayerTableRecord
  2
11
 70
0
 62
7
  6
CONTINUOUS
370
-3
390
F
  0
LAYER
  5
219
100
AcDbSymbolTableRecord
100
AcDbLayerTableRecord
  2
12
 70
0
 62
7
  6
CONTINUOUS
370
-3
390
F
  0
LAYER
  5
21A
100
AcDbSymbolTableRecord
100
AcDbLayerTableRecord
  2
13
 70
0
 62
7
  6
CONTINUOUS
370
-3
390
F
  0
LAYER
  5
21B
100
AcDbSymbolTableRecord
100
AcDbLayerTableRecord
  2
14
 70
0
 62
7
  6
CONTINUOUS
370
-3
390
F
  0
LAYER
  5
21C
100
AcDbSymbolTableRecord
100
AcDbLayerTableRecord
  2
15
 70
0
 62
7
  6
CONTINUOUS
370
-3
390
F
  0
LAYER
  5
21D
100
AcDbSymbolTableRecord
100
AcDbLayerTableRecord
  2
16
 70
0
 62
7
  6
CONTINUOUS
370
-3
390
F
  0
LAYER
  5
21E
100
AcDbSymbolTableRecord
100
AcDbLayerTableRecord
  2
17
 70
0
 62
7
  6
CONTINUOUS
370
-3
390
F
  0
LAYER
  5
21F
100
AcDbSymbolTableRecord
100
AcDbLayerTableRecord
  2
18
 70
0
 62
7
  6
CONTINUOUS
370
-3
390
F
  0
LAYER
  5
220
100
AcDbSymbolTableRecord
100
AcDbLayerTableRecord
  2
19
 70
0
 62
7
  6
CONTINUOUS
370
-3
390
F
  0
LAYER
  5
221
100
AcDbSymbolTableRecord
100
AcDbLayerTableRecord
  2
2
 70
0
 62
7
  6
CONTINUOUS
370
-3
390
F
  0
LAYER
  5
222
100
AcDbSymbolTableRecord
100
AcDbLayerTableRecord
  2
20
 70
0
 62
7
  6
CONTINUOUS
370
-3
390
F
  0
LAYER
  5
223
100
AcDbSymbolTableRecord
100
AcDbLayerTableRecord
  2
21
 70
0
 62
7
  6
CONTINUOUS
370
-3
390
F
  0
LAYER
  5
224
100
AcDbSymbolTableRecord
100
AcDbLayerTableRecord
  2
22
 70
0
 62
7
  6
CONTINUOUS
370
-3
390
F
  0
LAYER
  5
225
100
AcDbSymbolTableRecord
100
AcDbLayerTableRecord
  2
23
 70
0
 62
7
  6
CONTINUOUS
370
-3
390
F
  0
LAYER
  5
226
100
AcDbSymbolTableRecord
100
AcDbLayerTableRecord
  2
24
 70
0
 62
7
  6
CONTINUOUS
370
-3
390
F
  0
LAYER
  5
227
100
AcDbSymbolTableRecord
100
AcDbLayerTableRecord
  2
25
 70
0
 62
7
  6
CONTINUOUS
370
-3
390
F
  0
LAYER
  5
228
100
AcDbSymbolTableRecord
100
AcDbLayerTableRecord
  2
26
 70
0
 62
7
  6
CONTINUOUS
370
-3
390
F
  0
LAYER
  5
229
100
AcDbSymbolTableRecord
100
AcDbLayerTableRecord
  2
27
 70
0
 62
7
  6
CONTINUOUS
370
-3
390
F
  0
LAYER
  5
22A
100
AcDbSymbolTableRecord
100
AcDbLayerTableRecord
  2
28
 70
0
 62
7
  6
CONTINUOUS
370
-3
390
F
  0
LAYER
  5
22B
100
AcDbSymbolTableRecord
100
AcDbLayerTableRecord
  2
29
 70
0
 62
7
  6
CONTINUOUS
370
-3
390
F
  0
LAYER
  5
22C
100
AcDbSymbolTableRecord
100
AcDbLayerTableRecord
  2
3
 70
0
 62
7
  6
CONTINUOUS
370
-3
390
F
  0
LAYER
  5
22D
100
AcDbSymbolTableRecord
100
AcDbLayerTableRecord
  2
30
 70
0
 62
7
  6
CONTINUOUS
370
-3
390
F
  0
LAYER
  5
22E
100
AcDbSymbolTableRecord
100
AcDbLayerTableRecord
  2
31
 70
0
 62
7
  6
CONTINUOUS
370
-3
390
F
  0
LAYER
  5
22F
100
AcDbSymbolTableRecord
100
AcDbLayerTableRecord
  2
32
 70
0
 62
7
  6
CONTINUOUS
370
-3
390
F
  0
LAYER
  5
230
100
AcDbSymbolTableRecord
100
AcDbLayerTableRecord
  2
4
 70
0
 62
7
  6
CONTINUOUS
370
-3
390
F
  0
LAYER
  5
231
100
AcDbSymbolTableRecord
100
AcDbLayerTableRecord
  2
5
 70
0
 62
7
  6
CONTINUOUS
370
-3
390
F
  0
LAYER
  5
232
100
AcDbSymbolTableRecord
100
AcDbLayerTableRecord
  2
6
 70
0
 62
7
  6
CONTINUOUS
370
-3
390
F
  0
LAYER
  5
233
100
AcDbSymbolTableRecord
100
AcDbLayerTableRecord
  2
7
 70
0
 62
7
  6
CONTINUOUS
370
-3
390
F
  0
LAYER
  5
234
100
AcDbSymbolTableRecord
100
AcDbLayerTableRecord
  2
8
 70
0
 62
7
  6
CONTINUOUS
370
-3
390
F
  0
LAYER
  5
235
100
AcDbSymbolTableRecord
100
AcDbLayerTableRecord
  2
9
 70
0
 62
7
  6
CONTINUOUS
370
-3
390
F
  0
LAYER
  5
236
100
AcDbSymbolTableRecord
100
AcDbLayerTableRecord
  2
AXIS
 70
0
 62
7
  6
CONTINUOUS
370
-3
390
F
  0
LAYER
  5
237
100
AcDbSymbolTableRecord
100
AcDbLayerTableRecord
  2
AXIS_COSMETIC_THREADS
 70
0
 62
7
  6
CONTINUOUS
370
-3
390
F
  0
LAYER
  5
238
100
AcDbSymbolTableRecord
100
AcDbLayerTableRecord
  2
DATUM_CURVES
 70
0
 62
7
  6
CONTINUOUS
370
-3
390
F
  0
LAYER
  5
239
100
AcDbSymbolTableRecord
100
AcDbLayerTableRecord
  2
DATUM_PLANES
 70
0
 62
7
  6
CONTINUOUS
370
-3
390
F
  0
LAYER
  5
23A
100
AcDbSymbolTableRecord
100
AcDbLayerTableRecord
  2
NOTES
 70
0
 62
7
  6
CONTINUOUS
370
-3
390
F
  0
LAYER
  5
23B
100
AcDbSymbolTableRecord
100
AcDbLayerTableRecord
  2
QUILTS
 70
0
 62
7
  6
CONTINUOUS
370
-3
390
F
  0
LAYER
  5
23C
100
AcDbSymbolTableRecord
100
AcDbLayerTableRecord
  2
SCHEME_DIMS
 70
0
 62
7
  6
CONTINUOUS
370
-3
390
F
  0
LAYER
  5
23D
100
AcDbSymbolTableRecord
100
AcDbLayerTableRecord
  2
SYMBOLS
 70
0
 62
7
  6
CONTINUOUS
370
-3
390
F
  0
ENDTAB
  0
TABLE
  2
STYLE
  5
3
100
AcDbSymbolTable
 70
1
  0
STYLE
  5
11
100
AcDbSymbolTableRecord
100
AcDbTextStyleTableRecord
  2
STANDARD
 70
0
 40
0.0
 41
1.0
 50
0.0
 71
0
 42
0.2
  3
txt
  4

  0
ENDTAB
  0
TABLE
  2
VIEW
  5
6
100
AcDbSymbolTable
 70
0
  0
ENDTAB
  0
TABLE
  2
UCS
  5
7
100
AcDbSymbolTable
 70
0
  0
ENDTAB
  0
TABLE
  2
APPID
  5
9
100
AcDbSymbolTable
 70
1
  0
APPID
  5
23E
100
AcDbSymbolTableRecord
100
AcDbRegAppTableRecord
  2
ACAD
 70
0
  0
ENDTAB
  0
TABLE
  2
BLOCK_RECORD
  5
1
100
AcDbSymbolTable
 70
0
  0
BLOCK_RECORD
  5
1F
100
AcDbSymbolTableRecord
100
AcDbBlockTableRecord
  2
*MODEL_SPACE
  0
BLOCK_RECORD
  5
1B
100
AcDbSymbolTableRecord
100
AcDbBlockTableRecord
  2
*PAPER_SPACE
  0
BLOCK_RECORD
  5
23F
100
AcDbSymbolTableRecord
100
AcDbBlockTableRecord
  2
_FILLED
  0
BLOCK_RECORD
  5
240
100
AcDbSymbolTableRecord
100
AcDbBlockTableRecord
  2
BANNER_LOGO_TITLEBLOCK_BL0
  0
BLOCK_RECORD
  5
241
100
AcDbSymbolTableRecord
100
AcDbBlockTableRecord
  2
*D0
  0
BLOCK_RECORD
  5
242
100
AcDbSymbolTableRecord
100
AcDbBlockTableRecord
  2
*D1
  0
BLOCK_RECORD
  5
243
100
AcDbSymbolTableRecord
100
AcDbBlockTableRecord
  2
*D2
  0
BLOCK_RECORD
  5
244
100
AcDbSymbolTableRecord
100
AcDbBlockTableRecord
  2
*D3
  0
ENDTAB
  0
TABLE
  2
DIMSTYLE
  5
A
100
AcDbSymbolTable
 70
1
100
AcDbDimStyleTable
 71
0
  0
DIMSTYLE
105
245
100
AcDbSymbolTableRecord
100
AcDbDimStyleTableRecord
  2
STANDARD
 70
0
  3

  4

 40
1.0
 41
0.1875
 42
0.0625
 43
0.38
 44
0.18
 45
0.0
 46
0.0
 47
0.005
 48
0.005
140
0.1
141
0.09
142
0.0
143
25.4
144
1.0
145
0.0
146
1.0
147
0.09
 71
1.0
 72
0.0
 73
1
 74
1
 75
0
 76
0
 77
0
 78
4
170
0
171
2
172
0
173
0
174
0
175
0
176
0
177
0
178
0
270
2
271
3
272
3
273
2
274
2
275
0
280
0
281
0
282
0
283
1
284
4
285
0
286
0
287
3
288
0
340
11
341
23F
342
23F
343
23F
344
23F
  0
DIMSTYLE
105
246
100
AcDbSymbolTableRecord
100
AcDbDimStyleTableRecord
  2
DIMSTYLE_1
 70
0
  3

  4

 40
1.0
 41
0.1875
 42
0.0625
 43
0.38
 44
0.18
 45
0.0
 46
0.0
 47
0.1
 48
0.1
140
0.1
141
0.09
142
0.0
143
25.4
144
1.0
145
0.0
146
1.0
147
0.09
 71
0.0
 72
0.0
 73
1
 74
1
 75
0
 76
0
 77
0
 78
4
170
0
171
2
172
0
173
0
174
0
175
0
176
0
177
0
178
0
270
2
271
1
272
1
273
2
274
2
275
0
280
0
281
0
282
0
283
1
284
4
285
0
286
0
287
3
288
0
340
11
341
23F
342
23F
343
23F
344
23F
  0
DIMSTYLE
105
247
100
AcDbSymbolTableRecord
100
AcDbDimStyleTableRecord
  2
DIMSTYLE_2
 70
0
  3

  4

 40
1.0
 41
0.1875
 42
0.0625
 43
0.38
 44
0.18
 45
0.0
 46
0.0
 47
0.1
 48
0.1
140
0.1
141
0.09
142
0.0
143
25.4
144
1.0
145
0.0
146
1.0
147
0.09
 71
0.0
 72
0.0
 73
1
 74
1
 75
0
 76
0
 77
0
 78
4
170
0
171
2
172
0
173
0
174
0
175
0
176
0
177
0
178
0
270
2
271
1
272
1
273
2
274
2
275
0
280
0
281
0
282
0
283
1
284
4
285
0
286
0
287
3
288
0
340
11
341
23F
342
23F
343
23F
344
23F
  0
ENDTAB
  0
ENDSEC
  0
SECTION
  2
BLOCKS
  0
BLOCK
  5
20
100
AcDbEntity
  8
0
100
AcDbBlockBegin
  2
*MODEL_SPACE
 70
0
 10
0.0
 20
0.0
 30
0.0
  3
*MODEL_SPACE
  1

  0
ENDBLK
  5
21
100
AcDbEntity
  8
0
100
AcDbBlockEnd
  0
BLOCK
  5
1C
100
AcDbEntity
  8
0
100
AcDbBlockBegin
  2
*PAPER_SPACE
 70
0
 10
0.0
 20
0.0
 30
0.0
  3
*PAPER_SPACE
  1

  0
ENDBLK
  5
1D
100
AcDbEntity
  8
0
100
AcDbBlockEnd
  0
BLOCK
  5
248
100
AcDbEntity
  8
0
100
AcDbBlockBegin
 62
2
  6
CONTINUOUS
  2
BANNER_LOGO_TITLEBLOCK_BL0
 70
64
 10
12.9046655056
 20
2.5403783448
  3
BANNER_LOGO_TITLEBLOCK_BL0
  1

  0
LWPOLYLINE
  5
249
100
AcDbEntity
  8
0
100
AcDbPolyline
 62
2
  6
CONTINUOUS
 90
29
 70
0
 10
12.0796650004
 20
2.5403783448
 10
12.1000078385
 20
2.5005819703
 10
12.1615890075
 20
2.4620382478
 10
12.2590135686
 20
2.4281250935
 10
12.3910903821
 20
2.3992568791
 10
12.5462480343
 20
2.3779627503
 10
12.7225901426
 20
2.3645025835
 10
12.9046652672
 20
2.3600565514
 10
13.0867408686
 20
2.3645025835
 10
13.2630829769
 20
2.3779627503
 10
13.4182401522
 20
2.3992568791
 10
13.5503174426
 20
2.4281250935
 10
13.6477415269
 20
2.4620382478
 10
13.7093231727
 20
2.5005819703
 10
13.7296660108
 20
2.5403783448
 10
13.7093231727
 20
2.5801747193
 10
13.6477415269
 20
2.6187184418
 10
13.5503174426
 20
2.6526315961
 10
13.4182401522
 20
2.6814998105
 10
13.2630829769
 20
2.7027939393
 10
13.0867408686
 20
2.7162541061
 10
12.9046652672
 20
2.7207001382
 10
12.7225901426
 20
2.7162541061
 10
12.5462480343
 20
2.7027939393
 10
12.3910903821
 20
2.6814998105
 10
12.2590135686
 20
2.6526315961
 10
12.1615890075
 20
2.6187184418
 10
12.1000078385
 20
2.5801747193
 10
12.0796650004
 20
2.5403783448
  0
ARC
  5
24A
100
AcDbEntity
  8
0
100
AcDbCircle
 62
2
  6
CONTINUOUS
 10
12.400005721
 20
2.5168763464
 40
0.0153945295
100
AcDbArc
 50
354.0454548824
 51
5.1878013979
  0
ARC
  5
24B
100
AcDbEntity
  8
0
100
AcDbCircle
 62
2
  6
CONTINUOUS
 10
12.3931760319
 20
2.5166878286
 40
0.0222174455
100
AcDbArc
 50
4.0793399388
 51
69.834329283
  0
LINE
  5
24C
100
AcDbEntity
  8
0
100
AcDbLine
 62
2
  6
CONTINUOUS
 10
12.4008351814
 20
2.5375433389
 11
12.3907841758
 21
2.5410923409
  0
LINE
  5
24D
100
AcDbEntity
  8
0
100
AcDbLine
 62
2
  6
CONTINUOUS
 10
12.3907841758
 20
2.5410923409
 11
12.3990241804
 21
2.5458683435
  0
ARC
  5
24E
100
AcDbEntity
  8
0
100
AcDbCircle
 62
2
  6
CONTINUOUS
 10
12.3771587979
 20
2.5826952352
 40
0.0428289026
100
AcDbArc
 50
300.6990502959
 51
319.0591802498
  0
ARC
  5
24F
100
AcDbEntity
  8
0
100
AcDbCircle
 62
2
  6
CONTINUOUS
 10
12.3971873948
 20
2.5665668817
 40
0.0171568255
100
AcDbArc
 50
315.9145124245
 51
16.0049121282
  0
ARC
  5
250
100
AcDbEntity
  8
0
100
AcDbCircle
 62
2
  6
CONTINUOUS
 10
12.3922357827
 20
2.5632132173
 40
0.0229166529
100
AcDbArc
 50
20.6563876465
 51
62.3316896973
  0
ARC
  5
251
100
AcDbEntity
  8
0
100
AcDbCircle
 62
2
  6
CONTINUOUS
 10
12.371573659
 20
2.5302846524
 40
0.061747717
100
AcDbArc
 50
59.5385584989
 51
90.0050977555
  0
LINE
  5
252
100
AcDbEntity
  8
0
100
AcDbLine
 62
2
  6
CONTINUOUS
 10
12.3715681652
 20
2.5920323691
 11
12.2055050731
 21
2.5920323691
  0
ARC
  5
253
100
AcDbEntity
  8
0
100
AcDbCircle
 62
2
  6
CONTINUOUS
 10
12.2055050712
 20
2.5895573696
 40
0.0024749995
100
AcDbArc
 50
89.9999571957
 51
180.0000428043
  0
LINE
  5
254
100
AcDbEntity
  8
0
100
AcDbLine
 62
2
  6
CONTINUOUS
 10
12.2030300717
 20
2.5895573678
 11
12.2030300717
 21
2.5697573568
  0
ARC
  5
255
100
AcDbEntity
  8
0
100
AcDbCircle
 62
2
  6
CONTINUOUS
 10
12.2055050712
 20
2.5697573549
 40
0.0024749995
100
AcDbArc
 50
179.9999571957
 51
270.0000428043
  0
LINE
  5
256
100
AcDbEntity
  8
0
100
AcDbLine
 62
2
  6
CONTINUOUS
 10
12.2055050731
 20
2.5672823554
 11
12.2294470864
 21
2.5672823554
  0
ARC
  5
257
100
AcDbEntity
  8
0
100
AcDbCircle
 62
2
  6
CONTINUOUS
 10
12.2294470882
 20
2.5648073559
 40
0.0024749995
100
AcDbArc
 50
359.9999571957
 51
90.0000428043
  0
LINE
  5
258
100
AcDbEntity
  8
0
100
AcDbLine
 62
2
  6
CONTINUOUS
 10
12.2319220877
 20
2.564807354
 11
12.2319220877
 21
2.5184523283
  0
ARC
  5
259
100
AcDbEntity
  8
0
100
AcDbCircle
 62
2
  6
CONTINUOUS
 10
12.2294470882
 20
2.5184523265
 40
0.0024749995
100
AcDbArc
 50
269.9999571957
 51
0.0000428043
  0
LINE
  5
25A
100
AcDbEntity
  8
0
100
AcDbLine
 62
2
  6
CONTINUOUS
 10
12.2294470864
 20
2.515977327
 11
12.2055050731
 21
2.515977327
  0
ARC
  5
25B
100
AcDbEntity
  8
0
100
AcDbCircle
 62
2
  6
CONTINUOUS
 10
12.2055050712
 20
2.5135023274
 40
0.0024749995
100
AcDbArc
 50
89.9999571957
 51
180.0000428043
  0
LINE
  5
25C
100
AcDbEntity
  8
0
100
AcDbLine
 62
2
  6
CONTINUOUS
 10
12.2030300717
 20
2.5135023256
 11
12.2030300717
 21
2.4937023146
  0
ARC
  5
25D
100
AcDbEntity
  8
0
100
AcDbCircle
 62
2
  6
CONTINUOUS
 10
12.2055050712
 20
2.4937023128
 40
0.0024749995
100
AcDbArc
 50
179.9999571957
 51
270.0000428043
  0
LINE
  5
25E
100
AcDbEntity
  8
0
100
AcDbLine
 62
2
  6
CONTINUOUS
 10
12.2055050731
 20
2.4912273132
 11
12.3819511709
 21
2.4912273132
  0
ARC
  5
25F
100
AcDbEntity
  8
0
100
AcDbCircle
 62
2
  6
CONTINUOUS
 10
12.3792298263
 20
2.539634765
 40
0.048483885
100
AcDbArc
 50
273.21763719
 51
303.0749121182
  0
ARC
  5
260
100
AcDbEntity
  8
0
100
AcDbCircle
 62
2
  6
CONTINUOUS
 10
12.3940692204
 20
2.5168671561
 40
0.0213072145
100
AcDbArc
 50
303.0488228549
 51
355.7263138674
  0
LINE
  5
261
100
AcDbEntity
  8
0
100
AcDbLine
 62
2
  6
CONTINUOUS
 10
12.2949101227
 20
2.5499573458
 11
12.3362731456
 21
2.5499573458
  0
ARC
  5
262
100
AcDbEntity
  8
0
100
AcDbCircle
 62
2
  6
CONTINUOUS
 10
12.3362731456
 20
2.5586198506
 40
0.0086625048
100
AcDbArc
 50
270.0
 51
90.0
  0
LINE
  5
263
100
AcDbEntity
  8
0
100
AcDbLine
 62
2
  6
CONTINUOUS
 10
12.3362731456
 20
2.5672823554
 11
12.2949101227
 21
2.5672823554
  0
ARC
  5
264
100
AcDbEntity
  8
0
100
AcDbCircle
 62
2
  6
CONTINUOUS
 10
12.2949101208
 20
2.5648073559
 40
0.0024749995
100
AcDbArc
 50
89.9999571957
 51
180.0000428043
  0
LINE
  5
265
100
AcDbEntity
  8
0
100
AcDbLine
 62
2
  6
CONTINUOUS
 10
12.2924351213
 20
2.564807354
 11
12.2924351213
 21
2.5524323472
  0
ARC
  5
266
100
AcDbEntity
  8
0
100
AcDbCircle
 62
2
  6
CONTINUOUS
 10
12.2949101208
 20
2.5524323453
 40
0.0024749995
100
AcDbArc
 50
179.9999571957
 51
270.0000428043
  0
LINE
  5
267
100
AcDbEntity
  8
0
100
AcDbLine
 62
2
  6
CONTINUOUS
 10
12.2924351213
 20
2.5184523283
 11
12.2924351213
 21
2.5308273352
  0
ARC
  5
268
100
AcDbEntity
  8
0
100
AcDbCircle
 62
2
  6
CONTINUOUS
 10
12.2949101208
 20
2.530827337
 40
0.0024749995
100
AcDbArc
 50
89.9999571957
 51
180.0000428043
  0
LINE
  5
269
100
AcDbEntity
  8
0
100
AcDbLine
 62
2
  6
CONTINUOUS
 10
12.2949101227
 20
2.5333023366
 11
12.3362731456
 21
2.5333023366
  0
ARC
  5
26A
100
AcDbEntity
  8
0
100
AcDbCircle
 62
2
  6
CONTINUOUS
 10
12.3362731456
 20
2.5246398318
 40
0.0086625048
100
AcDbArc
 50
270.0
 51
90.0
  0
LINE
  5
26B
100
AcDbEntity
  8
0
100
AcDbLine
 62
2
  6
CONTINUOUS
 10
12.3362731456
 20
2.515977327
 11
12.2949101227
 21
2.515977327
  0
ARC
  5
26C
100
AcDbEntity
  8
0
100
AcDbCircle
 62
2
  6
CONTINUOUS
 10
12.2949101208
 20
2.5184523265
 40
0.0024749995
100
AcDbArc
 50
179.9999571957
 51
270.0000428043
  0
ARC
  5
26D
100
AcDbEntity
  8
0
100
AcDbCircle
 62
2
  6
CONTINUOUS
 10
13.5806801742
 20
2.5212486481
 40
0.044722495
100
AcDbArc
 50
195.531588407
 51
204.7624440448
  0
LINE
  5
26E
100
AcDbEntity
  8
0
100
AcDbLine
 62
2
  6
CONTINUOUS
 10
13.5375908118
 20
2.5092733232
 11
13.5357868108
 21
2.5153423266
  0
ARC
  5
26F
100
AcDbEntity
  8
0
100
AcDbCircle
 62
2
  6
CONTINUOUS
 10
13.4974076135
 20
2.5055452462
 40
0.0396099176
100
AcDbArc
 50
14.3201081283
 51
22.4984722084
  0
ARC
  5
270
100
AcDbEntity
  8
0
100
AcDbCircle
 62
2
  6
CONTINUOUS
 10
13.5201739219
 20
2.5145168728
 40
0.0151491919
100
AcDbArc
 50
24.098260853
 51
63.0369451818
  0
ARC
  5
271
100
AcDbEntity
  8
0
100
AcDbCircle
 62
2
  6
CONTINUOUS
 10
13.5161192671
 20
2.5062372524
 40
0.0243676582
100
AcDbArc
 50
63.3666028271
 51
90.3937697637
  0
LINE
  5
272
100
AcDbEntity
  8
0
100
AcDbLine
 62
2
  6
CONTINUOUS
 10
13.5159517998
 20
2.5306043351
 11
13.4883447845
 21
2.5306043351
  0
ARC
  5
273
100
AcDbEntity
  8
0
100
AcDbCircle
 62
2
  6
CONTINUOUS
 10
13.4883447827
 20
2.5281293355
 40
0.0024749995
100
AcDbArc
 50
89.9999571957
 51
180.0000428043
  0
LINE
  5
274
100
AcDbEntity
  8
0
100
AcDbLine
 62
2
  6
CONTINUOUS
 10
13.4858697831
 20
2.5281293337
 11
13.4858697831
 21
2.5184303283
  0
ARC
  5
275
100
AcDbEntity
  8
0
100
AcDbCircle
 62
2
  6
CONTINUOUS
 10
13.4883447827
 20
2.5184303265
 40
0.0024749995
100
AcDbArc
 50
179.9999571957
 51
270.0000428043
  0
LINE
  5
276
100
AcDbEntity
  8
0
100
AcDbLine
 62
2
  6
CONTINUOUS
 10
13.4883447845
 20
2.5159553269
 11
13.5130037982
 21
2.5159553269
  0
ARC
  5
277
100
AcDbEntity
  8
0
100
AcDbCircle
 62
2
  6
CONTINUOUS
 10
13.5130038
 20
2.5134803274
 40
0.0024749995
100
AcDbArc
 50
359.9999571957
 51
90.0000428043
  0
LINE
  5
278
100
AcDbEntity
  8
0
100
AcDbLine
 62
2
  6
CONTINUOUS
 10
13.5154787995
 20
2.5134803256
 11
13.5154787995
 21
2.4937023146
  0
ARC
  5
279
100
AcDbEntity
  8
0
100
AcDbCircle
 62
2
  6
CONTINUOUS
 10
13.5130038
 20
2.4937023128
 40
0.0024749995
100
AcDbArc
 50
269.9999571957
 51
0.0000428043
  0
LINE
  5
27A
100
AcDbEntity
  8
0
100
AcDbLine
 62
2
  6
CONTINUOUS
 10
13.5130037982
 20
2.4912273132
 11
13.3994327352
 21
2.4912273132
  0
ARC
  5
27B
100
AcDbEntity
  8
0
100
AcDbCircle
 62
2
  6
CONTINUOUS
 10
13.3994327333
 20
2.4937023128
 40
0.0024749995
100
AcDbArc
 50
179.9999571957
 51
270.0000428043
  0
LINE
  5
27C
100
AcDbEntity
  8
0
100
AcDbLine
 62
2
  6
CONTINUOUS
 10
13.3969577338
 20
2.4937023146
 11
13.3969577338
 21
2.5135023256
  0
ARC
  5
27D
100
AcDbEntity
  8
0
100
AcDbCircle
 62
2
  6
CONTINUOUS
 10
13.3994327333
 20
2.5135023274
 40
0.0024749995
100
AcDbArc
 50
89.9999571957
 51
180.0000428043
  0
LINE
  5
27E
100
AcDbEntity
  8
0
100
AcDbLine
 62
2
  6
CONTINUOUS
 10
13.3994327352
 20
2.515977327
 11
13.4221787478
 21
2.515977327
  0
ARC
  5
27F
100
AcDbEntity
  8
0
100
AcDbCircle
 62
2
  6
CONTINUOUS
 10
13.4221787497
 20
2.5184523265
 40
0.0024749995
100
AcDbArc
 50
269.9999571957
 51
0.0000428042
  0
LINE
  5
280
100
AcDbEntity
  8
0
100
AcDbLine
 62
2
  6
CONTINUOUS
 10
13.4246537492
 20
2.5184523283
 11
13.4246537492
 21
2.564807354
  0
ARC
  5
281
100
AcDbEntity
  8
0
100
AcDbCircle
 62
2
  6
CONTINUOUS
 10
13.4221787497
 20
2.5648073559
 40
0.0024749995
100
AcDbArc
 50
359.9999571957
 51
90.0000428043
  0
LINE
  5
282
100
AcDbEntity
  8
0
100
AcDbLine
 62
2
  6
CONTINUOUS
 10
13.4221787478
 20
2.5672823554
 11
13.3994327352
 21
2.5672823554
  0
ARC
  5
283
100
AcDbEntity
  8
0
100
AcDbCircle
 62
2
  6
CONTINUOUS
 10
13.3994327333
 20
2.5697573549
 40
0.0024749995
100
AcDbArc
 50
179.9999571957
 51
270.0000428043
  0
LINE
  5
284
100
AcDbEntity
  8
0
100
AcDbLine
 62
2
  6
CONTINUOUS
 10
13.3969577338
 20
2.5697573568
 11
13.3969577338
 21
2.5895573678
  0
ARC
  5
285
100
AcDbEntity
  8
0
100
AcDbCircle
 62
2
  6
CONTINUOUS
 10
13.3994327333
 20
2.5895573696
 40
0.0024749995
100
AcDbArc
 50
89.9999571957
 51
180.0000428043
  0
LINE
  5
286
100
AcDbEntity
  8
0
100
AcDbLine
 62
2
  6
CONTINUOUS
 10
13.3994327352
 20
2.5920323691
 11
13.5490138181
 21
2.5920323691
  0
ARC
  5
287
100
AcDbEntity
  8
0
100
AcDbCircle
 62
2
  6
CONTINUOUS
 10
13.5463505148
 20
2.4094934586
 40
0.1825583387
100
AcDbArc
 50
79.8618509324
 51
89.1640948679
  0
ARC
  5
288
100
AcDbEntity
  8
0
100
AcDbCircle
 62
2
  6
CONTINUOUS
 10
13.5726548052
 20
2.5503169747
 40
0.039319019
100
AcDbArc
 50
59.1202086415
 51
81.4730239328
  0
ARC
  5
289
100
AcDbEntity
  8
0
100
AcDbCircle
 62
2
  6
CONTINUOUS
 10
13.5783142014
 20
2.5566516438
 40
0.0310192946
100
AcDbArc
 50
34.7540871
 51
62.0879016178
  0
ARC
  5
28A
100
AcDbEntity
  8
0
100
AcDbCircle
 62
2
  6
CONTINUOUS
 10
13.5900029525
 20
2.565201245
 40
0.0165459396
100
AcDbArc
 50
1.548452892
 51
33.5033152417
  0
ARC
  5
28B
100
AcDbEntity
  8
0
100
AcDbCircle
 62
2
  6
CONTINUOUS
 10
13.5932995477
 20
2.5653696972
 40
0.0132462337
100
AcDbArc
 50
331.1510006998
 51
1.205404301
  0
ARC
  5
28C
100
AcDbEntity
  8
0
100
AcDbCircle
 62
2
  6
CONTINUOUS
 10
13.5822888914
 20
2.5720482849
 40
0.0261183659
100
AcDbArc
 50
305.6373831893
 51
329.9727629745
  0
ARC
  5
28D
100
AcDbEntity
  8
0
100
AcDbCircle
 62
2
  6
CONTINUOUS
 10
13.5519569538
 20
2.6152551345
 40
0.0789082104
100
AcDbArc
 50
292.906155071
 51
305.2574666259
  0
ARC
  5
28E
100
AcDbEntity
  8
0
100
AcDbCircle
 62
2
  6
CONTINUOUS
 10
13.5282557878
 20
2.4386010294
 40
0.117346916
100
AcDbArc
 50
58.614769177
 51
62.3737227606
  0
ARC
  5
28F
100
AcDbEntity
  8
0
100
AcDbCircle
 62
2
  6
CONTINUOUS
 10
13.5761387404
 20
2.5167282896
 40
0.0257145923
100
AcDbArc
 50
39.3804255939
 51
59.0361096173
  0
ARC
  5
290
100
AcDbEntity
  8
0
100
AcDbCircle
 62
2
  6
CONTINUOUS
 10
13.5750183849
 20
2.5166552064
 40
0.0266349791
100
AcDbArc
 50
20.3630922153
 51
37.9727053099
  0
ARC
  5
291
100
AcDbEntity
  8
0
100
AcDbCircle
 62
2
  6
CONTINUOUS
 10
13.5571178432
 20
2.509473798
 40
0.0459185159
100
AcDbArc
 50
15.6740290068
 51
20.9917271228
  0
ARC
  5
292
100
AcDbEntity
  8
0
100
AcDbCircle
 62
2
  6
CONTINUOUS
 10
13.6156881783
 20
2.525116781
 40
0.0147197649
100
AcDbArc
 50
192.7054516565
 51
206.0594861022
  0
ARC
  5
293
100
AcDbEntity
  8
0
100
AcDbCircle
 62
2
  6
CONTINUOUS
 10
13.6071938412
 20
2.5209082945
 40
0.0052403997
100
AcDbArc
 50
205.5232099488
 51
227.5054868079
  0
ARC
  5
294
100
AcDbEntity
  8
0
100
AcDbCircle
 62
2
  6
CONTINUOUS
 10
13.6054655419
 20
2.5190929218
 40
0.0027347709
100
AcDbArc
 50
228.5117626737
 51
266.1485845754
  0
LINE
  5
295
100
AcDbEntity
  8
0
100
AcDbLine
 62
2
  6
CONTINUOUS
 10
13.6052818493
 20
2.5163643272
 11
13.60639085
 21
2.5163643272
  0
ARC
  5
296
100
AcDbEntity
  8
0
100
AcDbCircle
 62
2
  6
CONTINUOUS
 10
13.6063292954
 20
2.5296129864
 40
0.0132488022
100
AcDbArc
 50
270.266200055
 51
281.2404888597
  0
ARC
  5
297
100
AcDbEntity
  8
0
100
AcDbCircle
 62
2
  6
CONTINUOUS
 10
13.6075235364
 20
2.5238762928
 40
0.0073895522
100
AcDbArc
 50
280.8288201977
 51
305.0837508495
  0
ARC
  5
298
100
AcDbEntity
  8
0
100
AcDbCircle
 62
2
  6
CONTINUOUS
 10
13.607924718
 20
2.5230254464
 40
0.0064647042
100
AcDbArc
 50
306.5086174083
 51
340.2162360092
  0
ARC
  5
299
100
AcDbEntity
  8
0
100
AcDbCircle
 62
2
  6
CONTINUOUS
 10
13.6027235414
 20
2.524769508
 40
0.0119498009
100
AcDbArc
 50
340.7883861657
 51
1.1691452593
  0
LINE
  5
29A
100
AcDbEntity
  8
0
100
AcDbLine
 62
2
  6
CONTINUOUS
 10
13.6146708546
 20
2.525013332
 11
13.6146708546
 21
2.5276393334
  0
ARC
  5
29B
100
AcDbEntity
  8
0
100
AcDbCircle
 62
2
  6
CONTINUOUS
 10
13.6171458541
 20
2.5276393353
 40
0.0024749995
100
AcDbArc
 50
89.9999571957
 51
180.0000428043
  0
LINE
  5
29C
100
AcDbEntity
  8
0
100
AcDbLine
 62
2
  6
CONTINUOUS
 10
13.6171458559
 20
2.5301143348
 11
13.6292558626
 21
2.5301143348
  0
ARC
  5
29D
100
AcDbEntity
  8
0
100
AcDbCircle
 62
2
  6
CONTINUOUS
 10
13.6292558645
 20
2.5276393353
 40
0.0024749995
100
AcDbArc
 50
359.9999571957
 51
90.0000428043
  0
LINE
  5
29E
100
AcDbEntity
  8
0
100
AcDbLine
 62
2
  6
CONTINUOUS
 10
13.631730864
 20
2.5276393334
 11
13.631730864
 21
2.516087327
  0
ARC
  5
29F
100
AcDbEntity
  8
0
100
AcDbCircle
 62
2
  6
CONTINUOUS
 10
13.6141751675
 20
2.5161916447
 40
0.0175560065
100
AcDbArc
 50
332.2279060967
 51
359.6595469939
  0
ARC
  5
2A0
100
AcDbEntity
  8
0
100
AcDbCircle
 62
2
  6
CONTINUOUS
 10
13.6048681567
 20
2.5210861501
 40
0.0280715479
100
AcDbArc
 50
308.5071794988
 51
332.2400656899
  0
ARC
  5
2A1
100
AcDbEntity
  8
0
100
AcDbCircle
 62
2
  6
CONTINUOUS
 10
13.5978759713
 20
2.5286873679
 40
0.0383802683
100
AcDbArc
 50
288.7656836787
 51
309.6104317088
  0
ARC
  5
2A2
100
AcDbEntity
  8
0
100
AcDbCircle
 62
2
  6
CONTINUOUS
 10
13.6036139387
 20
2.5111006186
 40
0.0198837666
100
AcDbArc
 50
271.8586572978
 51
289.4131338543
  0
LINE
  5
2A3
100
AcDbEntity
  8
0
100
AcDbLine
 62
2
  6
CONTINUOUS
 10
13.6042588488
 20
2.4912273132
 11
13.5568948225
 21
2.4912273132
  0
ARC
  5
2A4
100
AcDbEntity
  8
0
100
AcDbCircle
 62
2
  6
CONTINUOUS
 10
13.5577001432
 20
2.5085494649
 40
0.0173408616
100
AcDbArc
 50
232.4713476722
 51
267.338189944
  0
ARC
  5
2A5
100
AcDbEntity
  8
0
100
AcDbCircle
 62
2
  6
CONTINUOUS
 10
13.5607987082
 20
2.5143997688
 40
0.0238935861
100
AcDbArc
 50
209.8247607259
 51
235.1255079367
  0
ARC
  5
2A6
100
AcDbEntity
  8
0
100
AcDbCircle
 62
2
  6
CONTINUOUS
 10
13.5295131508
 20
2.5629115009
 40
0.0110815393
100
AcDbArc
 50
306.758405961
 51
320.4502234234
  0
ARC
  5
2A7
100
AcDbEntity
  8
0
100
AcDbCircle
 62
2
  6
CONTINUOUS
 10
13.5238839599
 20
2.5706523294
 40
0.0206523367
100
AcDbArc
 50
289.6883413472
 51
306.4184925496
  0
ARC
  5
2A8
100
AcDbEntity
  8
0
100
AcDbCircle
 62
2
  6
CONTINUOUS
 10
13.5219564542
 20
2.5750459767
 40
0.0254407115
100
AcDbArc
 50
270.7327484175
 51
290.441894219
  0
LINE
  5
2A9
100
AcDbEntity
  8
0
100
AcDbLine
 62
2
  6
CONTINUOUS
 10
13.5222818033
 20
2.5496073456
 11
13.4883447845
 21
2.5496073456
  0
ARC
  5
2AA
100
AcDbEntity
  8
0
100
AcDbCircle
 62
2
  6
CONTINUOUS
 10
13.4883447827
 20
2.5520823451
 40
0.0024749995
100
AcDbArc
 50
179.9999571957
 51
270.0000428043
  0
LINE
  5
2AB
100
AcDbEntity
  8
0
100
AcDbLine
 62
2
  6
CONTINUOUS
 10
13.4858697831
 20
2.552082347
 11
13.4858697831
 21
2.564807354
  0
ARC
  5
2AC
100
AcDbEntity
  8
0
100
AcDbCircle
 62
2
  6
CONTINUOUS
 10
13.4883447827
 20
2.5648073559
 40
0.0024749995
100
AcDbArc
 50
89.9999571957
 51
180.0000428043
  0
LINE
  5
2AD
100
AcDbEntity
  8
0
100
AcDbLine
 62
2
  6
CONTINUOUS
 10
13.4883447845
 20
2.5672823554
 11
13.5251458049
 21
2.5672823554
  0
ARC
  5
2AE
100
AcDbEntity
  8
0
100
AcDbCircle
 62
2
  6
CONTINUOUS
 10
13.5236009174
 20
2.5388278764
 40
0.0284963867
100
AcDbArc
 50
70.3834917948
 51
86.8922743861
  0
ARC
  5
2AF
100
AcDbEntity
  8
0
100
AcDbCircle
 62
2
  6
CONTINUOUS
 10
13.5284605274
 20
2.5518696094
 40
0.0145814632
100
AcDbArc
 50
54.6746025112
 51
71.1660573124
  0
ARC
  5
2B0
100
AcDbEntity
  8
0
100
AcDbCircle
 62
2
  6
CONTINUOUS
 10
13.5335900184
 20
2.5587235346
 40
0.0060275915
100
AcDbArc
 50
20.9055592135
 51
56.7851676243
  0
ARC
  5
2B1
100
AcDbEntity
  8
0
100
AcDbCircle
 62
2
  6
CONTINUOUS
 10
13.5348905773
 20
2.5593838168
 40
0.0045795888
100
AcDbArc
 50
355.6235353944
 51
18.9942678268
  0
ARC
  5
2B2
100
AcDbEntity
  8
0
100
AcDbCircle
 62
2
  6
CONTINUOUS
 10
13.533683767
 20
2.559677593
 40
0.0058087709
100
AcDbArc
 50
318.8515287446
 51
353.6422345323
  0
LINE
  5
2B3
100
AcDbEntity
  8
0
100
AcDbLine
 62
2
  6
CONTINUOUS
 10
12.672340332
 20
2.5920323691
 11
12.7727983877
 21
2.5920323691
  0
ARC
  5
2B4
100
AcDbEntity
  8
0
100
AcDbCircle
 62
2
  6
CONTINUOUS
 10
12.7727985224
 20
2.5895582013
 40
0.0024741678
100
AcDbArc
 50
46.3477981899
 51
90.0031206038
  0
LINE
  5
2B5
100
AcDbEntity
  8
0
100
AcDbLine
 62
2
  6
CONTINUOUS
 10
12.7745063886
 20
2.5913483688
 11
12.8345394219
 21
2.534068337
  0
ARC
  5
2B6
100
AcDbEntity
  8
0
100
AcDbCircle
 62
2
  6
CONTINUOUS
 10
12.8362481229
 20
2.5358592748
 40
0.0024753014
100
AcDbArc
 50
226.3461263059
 51
0.0014637321
  0
LINE
  5
2B7
100
AcDbEntity
  8
0
100
AcDbLine
 62
2
  6
CONTINUOUS
 10
12.8387234242
 20
2.535859338
 11
12.8387234242
 21
2.564807354
  0
ARC
  5
2B8
100
AcDbEntity
  8
0
100
AcDbCircle
 62
2
  6
CONTINUOUS
 10
12.8362484247
 20
2.5648073559
 40
0.0024749995
100
AcDbArc
 50
359.9999571957
 51
90.0000428043
  0
LINE
  5
2B9
100
AcDbEntity
  8
0
100
AcDbLine
 62
2
  6
CONTINUOUS
 10
12.8362484229
 20
2.5672823554
 11
12.8174724125
 21
2.5672823554
  0
ARC
  5
2BA
100
AcDbEntity
  8
0
100
AcDbCircle
 62
2
  6
CONTINUOUS
 10
12.8174724106
 20
2.5697573549
 40
0.0024749995
100
AcDbArc
 50
179.9999571957
 51
270.0000428043
  0
LINE
  5
2BB
100
AcDbEntity
  8
0
100
AcDbLine
 62
2
  6
CONTINUOUS
 10
12.8149974111
 20
2.5697573568
 11
12.8149974111
 21
2.5895573678
  0
ARC
  5
2BC
100
AcDbEntity
  8
0
100
AcDbCircle
 62
2
  6
CONTINUOUS
 10
12.8174724106
 20
2.5895573696
 40
0.0024749995
100
AcDbArc
 50
89.9999571957
 51
180.0000428043
  0
LINE
  5
2BD
100
AcDbEntity
  8
0
100
AcDbLine
 62
2
  6
CONTINUOUS
 10
12.8174724125
 20
2.5920323691
 11
12.8914734535
 21
2.5920323691
  0
ARC
  5
2BE
100
AcDbEntity
  8
0
100
AcDbCircle
 62
2
  6
CONTINUOUS
 10
12.8914734553
 20
2.5895573696
 40
0.0024749995
100
AcDbArc
 50
359.9999571957
 51
90.0000428043
  0
LINE
  5
2BF
100
AcDbEntity
  8
0
100
AcDbLine
 62
2
  6
CONTINUOUS
 10
12.8939484549
 20
2.5895573678
 11
12.8939484549
 21
2.5697573568
  0
ARC
  5
2C0
100
AcDbEntity
  8
0
100
AcDbCircle
 62
2
  6
CONTINUOUS
 10
12.8914734553
 20
2.5697573549
 40
0.0024749995
100
AcDbArc
 50
269.9999571957
 51
0.0000428043
  0
LINE
  5
2C1
100
AcDbEntity
  8
0
100
AcDbLine
 62
2
  6
CONTINUOUS
 10
12.8914734535
 20
2.5672823554
 11
12.8735404436
 21
2.5672823554
  0
ARC
  5
2C2
100
AcDbEntity
  8
0
100
AcDbCircle
 62
2
  6
CONTINUOUS
 10
12.8735404417
 20
2.5648073559
 40
0.0024749995
100
AcDbArc
 50
89.9999571957
 51
180.0000428043
  0
LINE
  5
2C3
100
AcDbEntity
  8
0
100
AcDbLine
 62
2
  6
CONTINUOUS
 10
12.8710654422
 20
2.564807354
 11
12.8710654422
 21
2.4937023146
  0
ARC
  5
2C4
100
AcDbEntity
  8
0
100
AcDbCircle
 62
2
  6
CONTINUOUS
 10
12.8685904427
 20
2.4937023128
 40
0.0024749995
100
AcDbArc
 50
269.9999571957
 51
0.0000428043
  0
LINE
  5
2C5
100
AcDbEntity
  8
0
100
AcDbLine
 62
2
  6
CONTINUOUS
 10
12.8685904408
 20
2.4912273132
 11
12.7943853997
 21
2.4912273132
  0
ARC
  5
2C6
100
AcDbEntity
  8
0
100
AcDbCircle
 62
2
  6
CONTINUOUS
 10
12.7943847649
 20
2.4937027294
 40
0.0024754162
100
AcDbArc
 50
226.3593695813
 51
270.0146919953
  0
LINE
  5
2C7
100
AcDbEntity
  8
0
100
AcDbLine
 62
2
  6
CONTINUOUS
 10
12.7926763987
 20
2.4919113136
 11
12.7293963636
 21
2.5522893471
  0
ARC
  5
2C8
100
AcDbEntity
  8
0
100
AcDbCircle
 62
2
  6
CONTINUOUS
 10
12.7276876627
 20
2.5504984093
 40
0.0024753014
100
AcDbArc
 50
46.3461263059
 51
180.0014637321
  0
LINE
  5
2C9
100
AcDbEntity
  8
0
100
AcDbLine
 62
2
  6
CONTINUOUS
 10
12.7252123613
 20
2.5504983461
 11
12.7252123613
 21
2.5184523283
  0
ARC
  5
2CA
100
AcDbEntity
  8
0
100
AcDbCircle
 62
2
  6
CONTINUOUS
 10
12.7276873608
 20
2.5184523265
 40
0.0024749995
100
AcDbArc
 50
179.9999571957
 51
270.0000428043
  0
LINE
  5
2CB
100
AcDbEntity
  8
0
100
AcDbLine
 62
2
  6
CONTINUOUS
 10
12.7276873627
 20
2.515977327
 11
12.7480043739
 21
2.515977327
  0
ARC
  5
2CC
100
AcDbEntity
  8
0
100
AcDbCircle
 62
2
  6
CONTINUOUS
 10
12.7480043758
 20
2.5135023274
 40
0.0024749995
100
AcDbArc
 50
359.9999571957
 51
90.0000428043
  0
LINE
  5
2CD
100
AcDbEntity
  8
0
100
AcDbLine
 62
2
  6
CONTINUOUS
 10
12.7504793753
 20
2.5135023256
 11
12.7504793753
 21
2.4937023146
  0
ARC
  5
2CE
100
AcDbEntity
  8
0
100
AcDbCircle
 62
2
  6
CONTINUOUS
 10
12.7480043758
 20
2.4937023128
 40
0.0024749995
100
AcDbArc
 50
269.9999571957
 51
0.0000428043
  0
LINE
  5
2CF
100
AcDbEntity
  8
0
100
AcDbLine
 62
2
  6
CONTINUOUS
 10
12.7480043739
 20
2.4912273132
 11
12.672340332
 21
2.4912273132
  0
ARC
  5
2D0
100
AcDbEntity
  8
0
100
AcDbCircle
 62
2
  6
CONTINUOUS
 10
12.6723403301
 20
2.4937023128
 40
0.0024749995
100
AcDbArc
 50
179.9999571957
 51
270.0000428043
  0
LINE
  5
2D1
100
AcDbEntity
  8
0
100
AcDbLine
 62
2
  6
CONTINUOUS
 10
12.6698653306
 20
2.4937023146
 11
12.6698653306
 21
2.5135023256
  0
ARC
  5
2D2
100
AcDbEntity
  8
0
100
AcDbCircle
 62
2
  6
CONTINUOUS
 10
12.6723403301
 20
2.5135023274
 40
0.0024749995
100
AcDbArc
 50
89.9999571957
 51
180.0000428043
  0
LINE
  5
2D3
100
AcDbEntity
  8
0
100
AcDbLine
 62
2
  6
CONTINUOUS
 10
12.672340332
 20
2.515977327
 11
12.6909873423
 21
2.515977327
  0
ARC
  5
2D4
100
AcDbEntity
  8
0
100
AcDbCircle
 62
2
  6
CONTINUOUS
 10
12.6909873442
 20
2.5184523265
 40
0.0024749995
100
AcDbArc
 50
269.9999571957
 51
0.0000428043
  0
LINE
  5
2D5
100
AcDbEntity
  8
0
100
AcDbLine
 62
2
  6
CONTINUOUS
 10
12.6934623437
 20
2.5184523283
 11
12.6934623437
 21
2.564807354
  0
ARC
  5
2D6
100
AcDbEntity
  8
0
100
AcDbCircle
 62
2
  6
CONTINUOUS
 10
12.6909873442
 20
2.5648073559
 40
0.0024749995
100
AcDbArc
 50
359.9999571957
 51
90.0000428043
  0
LINE
  5
2D7
100
AcDbEntity
  8
0
100
AcDbLine
 62
2
  6
CONTINUOUS
 10
12.6909873423
 20
2.5672823554
 11
12.672340332
 21
2.5672823554
  0
ARC
  5
2D8
100
AcDbEntity
  8
0
100
AcDbCircle
 62
2
  6
CONTINUOUS
 10
12.6723403301
 20
2.5697573549
 40
0.0024749995
100
AcDbArc
 50
179.9999571957
 51
270.0000428043
  0
LINE
  5
2D9
100
AcDbEntity
  8
0
100
AcDbLine
 62
2
  6
CONTINUOUS
 10
12.6698653306
 20
2.5697573568
 11
12.6698653306
 21
2.5895573678
  0
ARC
  5
2DA
100
AcDbEntity
  8
0
100
AcDbCircle
 62
2
  6
CONTINUOUS
 10
12.6723403301
 20
2.5895573696
 40
0.0024749995
100
AcDbArc
 50
89.9999571957
 51
180.0000428043
  0
LINE
  5
2DB
100
AcDbEntity
  8
0
100
AcDbLine
 62
2
  6
CONTINUOUS
 10
12.5246402501
 20
2.5655893545
 11
12.5175232461
 21
2.5543723483
  0
ARC
  5
2DC
100
AcDbEntity
  8
0
100
AcDbCircle
 62
2
  6
CONTINUOUS
 10
12.519613138
 20
2.5530463862
 40
0.0024750401
100
AcDbArc
 50
147.6063258012
 51
270.0025305754
  0
LINE
  5
2DD
100
AcDbEntity
  8
0
100
AcDbLine
 62
2
  6
CONTINUOUS
 10
12.5196132473
 20
2.5505713461
 11
12.5401702587
 21
2.5505713461
  0
ARC
  5
2DE
100
AcDbEntity
  8
0
100
AcDbCircle
 62
2
  6
CONTINUOUS
 10
12.5401702375
 20
2.5530465533
 40
0.0024752071
100
AcDbArc
 50
270.0004896793
 51
32.9089806818
  0
LINE
  5
2DF
100
AcDbEntity
  8
0
100
AcDbLine
 62
2
  6
CONTINUOUS
 10
12.5422482598
 20
2.5543913483
 11
12.5349892558
 21
2.5656073545
  0
ARC
  5
2E0
100
AcDbEntity
  8
0
100
AcDbCircle
 62
2
  6
CONTINUOUS
 10
12.532910715
 20
2.564262895
 40
0.0024754602
100
AcDbArc
 50
32.8959418573
 51
89.9875097202
  0
LINE
  5
2E1
100
AcDbEntity
  8
0
100
AcDbLine
 62
2
  6
CONTINUOUS
 10
12.5329112547
 20
2.5667383551
 11
12.5267302512
 21
2.5667383551
  0
ARC
  5
2E2
100
AcDbEntity
  8
0
100
AcDbCircle
 62
2
  6
CONTINUOUS
 10
12.5267301809
 20
2.5642631548
 40
0.0024752003
100
AcDbArc
 50
89.998372645
 51
147.602165307
  0
LINE
  5
2E3
100
AcDbEntity
  8
0
100
AcDbLine
 62
2
  6
CONTINUOUS
 10
12.548053263
 20
2.5284903339
 11
12.5536792662
 21
2.5197973291
  0
ARC
  5
2E4
100
AcDbEntity
  8
0
100
AcDbCircle
 62
2
  6
CONTINUOUS
 10
12.5516012439
 20
2.5184525341
 40
0.0024752071
100
AcDbArc
 50
270.0004896794
 51
32.9089806818
  0
LINE
  5
2E5
100
AcDbEntity
  8
0
100
AcDbLine
 62
2
  6
CONTINUOUS
 10
12.551601265
 20
2.515977327
 11
12.537150257
 21
2.515977327
  0
ARC
  5
2E6
100
AcDbEntity
  8
0
100
AcDbCircle
 62
2
  6
CONTINUOUS
 10
12.5371502552
 20
2.5135023274
 40
0.0024749995
100
AcDbArc
 50
89.9999571957
 51
180.0000428043
  0
LINE
  5
2E7
100
AcDbEntity
  8
0
100
AcDbLine
 62
2
  6
CONTINUOUS
 10
12.5346752556
 20
2.5135023256
 11
12.5346752556
 21
2.4937023146
  0
ARC
  5
2E8
100
AcDbEntity
  8
0
100
AcDbCircle
 62
2
  6
CONTINUOUS
 10
12.5371502552
 20
2.4937023128
 40
0.0024749995
100
AcDbArc
 50
179.9999571957
 51
270.0000428043
  0
LINE
  5
2E9
100
AcDbEntity
  8
0
100
AcDbLine
 62
2
  6
CONTINUOUS
 10
12.537150257
 20
2.4912273132
 11
12.6424313154
 21
2.4912273132
  0
ARC
  5
2EA
100
AcDbEntity
  8
0
100
AcDbCircle
 62
2
  6
CONTINUOUS
 10
12.6424313172
 20
2.4937023128
 40
0.0024749995
100
AcDbArc
 50
269.9999571957
 51
0.0000428043
  0
LINE
  5
2EB
100
AcDbEntity
  8
0
100
AcDbLine
 62
2
  6
CONTINUOUS
 10
12.6449063168
 20
2.4937023146
 11
12.6449063168
 21
2.5135023256
  0
ARC
  5
2EC
100
AcDbEntity
  8
0
100
AcDbCircle
 62
2
  6
CONTINUOUS
 10
12.6424313172
 20
2.5135023274
 40
0.0024749995
100
AcDbArc
 50
359.9999571957
 51
90.0000428043
  0
LINE
  5
2ED
100
AcDbEntity
  8
0
100
AcDbLine
 62
2
  6
CONTINUOUS
 10
12.6424313154
 20
2.515977327
 11
12.6224153043
 21
2.515977327
  0
ARC
  5
2EE
100
AcDbEntity
  8
0
100
AcDbCircle
 62
2
  6
CONTINUOUS
 10
12.6224154248
 20
2.518451368
 40
0.002474041
100
AcDbArc
 50
212.9056413127
 51
269.9972091756
  0
LINE
  5
2EF
100
AcDbEntity
  8
0
100
AcDbLine
 62
2
  6
CONTINUOUS
 10
12.6203383031
 20
2.5171073276
 11
12.5725822767
 21
2.5909023685
  0
ARC
  5
2F0
100
AcDbEntity
  8
0
100
AcDbCircle
 62
2
  6
CONTINUOUS
 10
12.570504655
 20
2.589557409
 40
0.0024749602
100
AcDbArc
 50
32.9172174468
 51
90.0087853097
  0
LINE
  5
2F1
100
AcDbEntity
  8
0
100
AcDbLine
 62
2
  6
CONTINUOUS
 10
12.5705042755
 20
2.5920323691
 11
12.5133292438
 21
2.5920323691
  0
ARC
  5
2F2
100
AcDbEntity
  8
0
100
AcDbCircle
 62
2
  6
CONTINUOUS
 10
12.5133291735
 20
2.5895571688
 40
0.0024752003
100
AcDbArc
 50
89.9983726451
 51
147.602165307
  0
LINE
  5
2F3
100
AcDbEntity
  8
0
100
AcDbLine
 62
2
  6
CONTINUOUS
 10
12.5112392426
 20
2.5908833685
 11
12.4644392167
 21
2.5171263276
  0
ARC
  5
2F4
100
AcDbEntity
  8
0
100
AcDbCircle
 62
2
  6
CONTINUOUS
 10
12.4623492858
 20
2.5184525273
 40
0.0024752003
100
AcDbArc
 50
269.9983726451
 51
327.602165307
  0
LINE
  5
2F5
100
AcDbEntity
  8
0
100
AcDbLine
 62
2
  6
CONTINUOUS
 10
12.4623492155
 20
2.515977327
 11
12.4394882028
 21
2.515977327
  0
ARC
  5
2F6
100
AcDbEntity
  8
0
100
AcDbCircle
 62
2
  6
CONTINUOUS
 10
12.439488201
 20
2.5135023274
 40
0.0024749995
100
AcDbArc
 50
89.9999571957
 51
180.0000428043
  0
LINE
  5
2F7
100
AcDbEntity
  8
0
100
AcDbLine
 62
2
  6
CONTINUOUS
 10
12.4370132015
 20
2.5135023256
 11
12.4370132015
 21
2.4937023146
  0
ARC
  5
2F8
100
AcDbEntity
  8
0
100
AcDbCircle
 62
2
  6
CONTINUOUS
 10
12.439488201
 20
2.4937023128
 40
0.0024749995
100
AcDbArc
 50
179.9999571957
 51
270.0000428043
  0
LINE
  5
2F9
100
AcDbEntity
  8
0
100
AcDbLine
 62
2
  6
CONTINUOUS
 10
12.4394882028
 20
2.4912273132
 11
12.5168642458
 21
2.4912273132
  0
ARC
  5
2FA
100
AcDbEntity
  8
0
100
AcDbCircle
 62
2
  6
CONTINUOUS
 10
12.5168642476
 20
2.4937023128
 40
0.0024749995
100
AcDbArc
 50
269.9999571957
 51
0.0000428043
  0
LINE
  5
2FB
100
AcDbEntity
  8
0
100
AcDbLine
 62
2
  6
CONTINUOUS
 10
12.5193392471
 20
2.4937023146
 11
12.5193392471
 21
2.5135023256
  0
ARC
  5
2FC
100
AcDbEntity
  8
0
100
AcDbCircle
 62
2
  6
CONTINUOUS
 10
12.5168642476
 20
2.5135023274
 40
0.0024749995
100
AcDbArc
 50
359.9999571957
 51
90.0000428043
  0
LINE
  5
2FD
100
AcDbEntity
  8
0
100
AcDbLine
 62
2
  6
CONTINUOUS
 10
12.5168642458
 20
2.515977327
 11
12.5055812395
 21
2.515977327
  0
ARC
  5
2FE
100
AcDbEntity
  8
0
100
AcDbCircle
 62
2
  6
CONTINUOUS
 10
12.5055811302
 20
2.518452367
 40
0.0024750401
100
AcDbArc
 50
147.6063258011
 51
270.0025305754
  0
LINE
  5
2FF
100
AcDbEntity
  8
0
100
AcDbLine
 62
2
  6
CONTINUOUS
 10
12.5034912383
 20
2.5197783291
 11
12.5090072414
 21
2.5284723339
  0
ARC
  5
300
100
AcDbEntity
  8
0
100
AcDbCircle
 62
2
  6
CONTINUOUS
 10
12.5110971723
 20
2.5271461342
 40
0.0024752003
100
AcDbArc
 50
89.998372645
 51
147.602165307
  0
LINE
  5
301
100
AcDbEntity
  8
0
100
AcDbLine
 62
2
  6
CONTINUOUS
 10
12.5110972426
 20
2.5296213345
 11
12.5459752619
 21
2.5296213345
  0
ARC
  5
302
100
AcDbEntity
  8
0
100
AcDbCircle
 62
2
  6
CONTINUOUS
 10
12.5459747223
 20
2.5271458744
 40
0.0024754602
100
AcDbArc
 50
32.8959418573
 51
89.9875097202
  0
LINE
  5
303
100
AcDbEntity
  8
0
100
AcDbLine
 62
2
  6
CONTINUOUS
 10
12.9205934696
 20
2.5920323691
 11
13.0210515254
 21
2.5920323691
  0
ARC
  5
304
100
AcDbEntity
  8
0
100
AcDbCircle
 62
2
  6
CONTINUOUS
 10
13.0210516601
 20
2.5895582013
 40
0.0024741678
100
AcDbArc
 50
46.3477981899
 51
90.0031206038
  0
LINE
  5
305
100
AcDbEntity
  8
0
100
AcDbLine
 62
2
  6
CONTINUOUS
 10
13.0227595263
 20
2.5913483688
 11
13.0827925596
 21
2.534068337
  0
ARC
  5
306
100
AcDbEntity
  8
0
100
AcDbCircle
 62
2
  6
CONTINUOUS
 10
13.0845012605
 20
2.5358592748
 40
0.0024753014
100
AcDbArc
 50
226.3461263059
 51
0.0014637321
  0
LINE
  5
307
100
AcDbEntity
  8
0
100
AcDbLine
 62
2
  6
CONTINUOUS
 10
13.0869765619
 20
2.535859338
 11
13.0869765619
 21
2.564807354
  0
ARC
  5
308
100
AcDbEntity
  8
0
100
AcDbCircle
 62
2
  6
CONTINUOUS
 10
13.0845015624
 20
2.5648073559
 40
0.0024749995
100
AcDbArc
 50
359.9999571957
 51
90.0000428043
  0
LINE
  5
309
100
AcDbEntity
  8
0
100
AcDbLine
 62
2
  6
CONTINUOUS
 10
13.0845015605
 20
2.5672823554
 11
13.0657255501
 21
2.5672823554
  0
ARC
  5
30A
100
AcDbEntity
  8
0
100
AcDbCircle
 62
2
  6
CONTINUOUS
 10
13.0657255483
 20
2.5697573549
 40
0.0024749995
100
AcDbArc
 50
179.9999571957
 51
270.0000428043
  0
LINE
  5
30B
100
AcDbEntity
  8
0
100
AcDbLine
 62
2
  6
CONTINUOUS
 10
13.0632505488
 20
2.5697573568
 11
13.0632505488
 21
2.5895573678
  0
ARC
  5
30C
100
AcDbEntity
  8
0
100
AcDbCircle
 62
2
  6
CONTINUOUS
 10
13.0657255483
 20
2.5895573696
 40
0.0024749995
100
AcDbArc
 50
89.9999571957
 51
180.0000428043
  0
LINE
  5
30D
100
AcDbEntity
  8
0
100
AcDbLine
 62
2
  6
CONTINUOUS
 10
13.0657255501
 20
2.5920323691
 11
13.1397265912
 21
2.5920323691
  0
ARC
  5
30E
100
AcDbEntity
  8
0
100
AcDbCircle
 62
2
  6
CONTINUOUS
 10
13.139726593
 20
2.5895573696
 40
0.0024749995
100
AcDbArc
 50
359.9999571957
 51
90.0000428043
  0
LINE
  5
30F
100
AcDbEntity
  8
0
100
AcDbLine
 62
2
  6
CONTINUOUS
 10
13.1422015925
 20
2.5895573678
 11
13.1422015925
 21
2.5697573568
  0
ARC
  5
310
100
AcDbEntity
  8
0
100
AcDbCircle
 62
2
  6
CONTINUOUS
 10
13.139726593
 20
2.5697573549
 40
0.0024749995
100
AcDbArc
 50
269.9999571957
 51
0.0000428042
  0
LINE
  5
311
100
AcDbEntity
  8
0
100
AcDbLine
 62
2
  6
CONTINUOUS
 10
13.1397265912
 20
2.5672823554
 11
13.1217935812
 21
2.5672823554
  0
ARC
  5
312
100
AcDbEntity
  8
0
100
AcDbCircle
 62
2
  6
CONTINUOUS
 10
13.1217935794
 20
2.5648073559
 40
0.0024749995
100
AcDbArc
 50
89.9999571957
 51
180.0000428042
  0
LINE
  5
313
100
AcDbEntity
  8
0
100
AcDbLine
 62
2
  6
CONTINUOUS
 10
13.1193185799
 20
2.564807354
 11
13.1193185799
 21
2.4937023146
  0
ARC
  5
314
100
AcDbEntity
  8
0
100
AcDbCircle
 62
2
  6
CONTINUOUS
 10
13.1168435803
 20
2.4937023128
 40
0.0024749995
100
AcDbArc
 50
269.9999571957
 51
0.0000428043
  0
LINE
  5
315
100
AcDbEntity
  8
0
100
AcDbLine
 62
2
  6
CONTINUOUS
 10
13.1168435785
 20
2.4912273132
 11
13.0426375373
 21
2.4912273132
  0
ARC
  5
316
100
AcDbEntity
  8
0
100
AcDbCircle
 62
2
  6
CONTINUOUS
 10
13.0426374026
 20
2.493701481
 40
0.0024741678
100
AcDbArc
 50
226.3477981898
 51
270.0031206038
  0
LINE
  5
317
100
AcDbEntity
  8
0
100
AcDbLine
 62
2
  6
CONTINUOUS
 10
13.0409295364
 20
2.4919113136
 11
12.9776495013
 21
2.5522893471
  0
ARC
  5
318
100
AcDbEntity
  8
0
100
AcDbCircle
 62
2
  6
CONTINUOUS
 10
12.9759408003
 20
2.5504984093
 40
0.0024753014
100
AcDbArc
 50
46.3461263059
 51
180.0014637321
  0
LINE
  5
319
100
AcDbEntity
  8
0
100
AcDbLine
 62
2
  6
CONTINUOUS
 10
12.973465499
 20
2.5504983461
 11
12.973465499
 21
2.5184523283
  0
ARC
  5
31A
100
AcDbEntity
  8
0
100
AcDbCircle
 62
2
  6
CONTINUOUS
 10
12.9759404985
 20
2.5184523265
 40
0.0024749995
100
AcDbArc
 50
179.9999571957
 51
270.0000428043
  0
LINE
  5
31B
100
AcDbEntity
  8
0
100
AcDbLine
 62
2
  6
CONTINUOUS
 10
12.9759405003
 20
2.515977327
 11
12.9962575116
 21
2.515977327
  0
ARC
  5
31C
100
AcDbEntity
  8
0
100
AcDbCircle
 62
2
  6
CONTINUOUS
 10
12.9962575135
 20
2.5135023274
 40
0.0024749995
100
AcDbArc
 50
359.9999571957
 51
90.0000428043
  0
LINE
  5
31D
100
AcDbEntity
  8
0
100
AcDbLine
 62
2
  6
CONTINUOUS
 10
12.998732513
 20
2.5135023256
 11
12.998732513
 21
2.4937023146
  0
ARC
  5
31E
100
AcDbEntity
  8
0
100
AcDbCircle
 62
2
  6
CONTINUOUS
 10
12.9962575135
 20
2.4937023128
 40
0.0024749995
100
AcDbArc
 50
269.9999571957
 51
0.0000428043
  0
LINE
  5
31F
100
AcDbEntity
  8
0
100
AcDbLine
 62
2
  6
CONTINUOUS
 10
12.9962575116
 20
2.4912273132
 11
12.9205934696
 21
2.4912273132
  0
ARC
  5
320
100
AcDbEntity
  8
0
100
AcDbCircle
 62
2
  6
CONTINUOUS
 10
12.9205934678
 20
2.4937023128
 40
0.0024749995
100
AcDbArc
 50
179.9999571957
 51
270.0000428043
  0
LINE
  5
321
100
AcDbEntity
  8
0
100
AcDbLine
 62
2
  6
CONTINUOUS
 10
12.9181184683
 20
2.4937023146
 11
12.9181184683
 21
2.5135023256
  0
ARC
  5
322
100
AcDbEntity
  8
0
100
AcDbCircle
 62
2
  6
CONTINUOUS
 10
12.9205934678
 20
2.5135023274
 40
0.0024749995
100
AcDbArc
 50
89.9999571957
 51
180.0000428042
  0
LINE
  5
323
100
AcDbEntity
  8
0
100
AcDbLine
 62
2
  6
CONTINUOUS
 10
12.9205934696
 20
2.515977327
 11
12.93923948
 21
2.515977327
  0
ARC
  5
324
100
AcDbEntity
  8
0
100
AcDbCircle
 62
2
  6
CONTINUOUS
 10
12.9392394818
 20
2.5184523265
 40
0.0024749995
100
AcDbArc
 50
269.9999571957
 51
0.0000428043
  0
LINE
  5
325
100
AcDbEntity
  8
0
100
AcDbLine
 62
2
  6
CONTINUOUS
 10
12.9417144814
 20
2.5184523283
 11
12.9417144814
 21
2.564807354
  0
ARC
  5
326
100
AcDbEntity
  8
0
100
AcDbCircle
 62
2
  6
CONTINUOUS
 10
12.9392394818
 20
2.5648073559
 40
0.0024749995
100
AcDbArc
 50
359.9999571957
 51
90.0000428043
  0
LINE
  5
327
100
AcDbEntity
  8
0
100
AcDbLine
 62
2
  6
CONTINUOUS
 10
12.93923948
 20
2.5672823554
 11
12.9205934696
 21
2.5672823554
  0
ARC
  5
328
100
AcDbEntity
  8
0
100
AcDbCircle
 62
2
  6
CONTINUOUS
 10
12.9205934678
 20
2.5697573549
 40
0.0024749995
100
AcDbArc
 50
179.9999571957
 51
270.0000428043
  0
LINE
  5
329
100
AcDbEntity
  8
0
100
AcDbLine
 62
2
  6
CONTINUOUS
 10
12.9181184683
 20
2.5697573568
 11
12.9181184683
 21
2.5895573678
  0
ARC
  5
32A
100
AcDbEntity
  8
0
100
AcDbCircle
 62
2
  6
CONTINUOUS
 10
12.9205934678
 20
2.5895573696
 40
0.0024749995
100
AcDbArc
 50
89.9999571957
 51
180.0000428042
  0
LINE
  5
32B
100
AcDbEntity
  8
0
100
AcDbLine
 62
2
  6
CONTINUOUS
 10
13.2934226764
 20
2.5324773361
 11
13.2582556569
 21
2.5324773361
  0
ARC
  5
32C
100
AcDbEntity
  8
0
100
AcDbCircle
 62
2
  6
CONTINUOUS
 10
13.2582556551
 20
2.5300023366
 40
0.0024749995
100
AcDbArc
 50
89.9999571957
 51
180.0000428043
  0
LINE
  5
32D
100
AcDbEntity
  8
0
100
AcDbLine
 62
2
  6
CONTINUOUS
 10
13.2557806555
 20
2.5300023347
 11
13.2557806555
 21
2.5184523283
  0
ARC
  5
32E
100
AcDbEntity
  8
0
100
AcDbCircle
 62
2
  6
CONTINUOUS
 10
13.2582556551
 20
2.5184523265
 40
0.0024749995
100
AcDbArc
 50
179.9999571957
 51
270.0000428043
  0
LINE
  5
32F
100
AcDbEntity
  8
0
100
AcDbLine
 62
2
  6
CONTINUOUS
 10
13.2582556569
 20
2.515977327
 11
13.3232596929
 21
2.515977327
  0
ARC
  5
330
100
AcDbEntity
  8
0
100
AcDbCircle
 62
2
  6
CONTINUOUS
 10
13.3232596948
 20
2.5184523265
 40
0.0024749995
100
AcDbArc
 50
269.9999571957
 51
0.0000428043
  0
LINE
  5
331
100
AcDbEntity
  8
0
100
AcDbLine
 62
2
  6
CONTINUOUS
 10
13.3257346943
 20
2.5184523283
 11
13.3257346943
 21
2.5267023329
  0
ARC
  5
332
100
AcDbEntity
  8
0
100
AcDbCircle
 62
2
  6
CONTINUOUS
 10
13.3282096938
 20
2.5267023348
 40
0.0024749995
100
AcDbArc
 50
89.9999571957
 51
180.0000428043
  0
LINE
  5
333
100
AcDbEntity
  8
0
100
AcDbLine
 62
2
  6
CONTINUOUS
 10
13.3282096957
 20
2.5291773343
 11
13.3705287192
 21
2.5291773343
  0
ARC
  5
334
100
AcDbEntity
  8
0
100
AcDbCircle
 62
2
  6
CONTINUOUS
 10
13.370528721
 20
2.5267023348
 40
0.0024749995
100
AcDbArc
 50
359.9999571957
 51
90.0000428043
  0
LINE
  5
335
100
AcDbEntity
  8
0
100
AcDbLine
 62
2
  6
CONTINUOUS
 10
13.3730037205
 20
2.5267023329
 11
13.3730037205
 21
2.4937023146
  0
ARC
  5
336
100
AcDbEntity
  8
0
100
AcDbCircle
 62
2
  6
CONTINUOUS
 10
13.370528721
 20
2.4937023128
 40
0.0024749995
100
AcDbArc
 50
269.9999571957
 51
0.0000428043
  0
LINE
  5
337
100
AcDbEntity
  8
0
100
AcDbLine
 62
2
  6
CONTINUOUS
 10
13.3705287192
 20
2.4912273132
 11
13.1673166065
 21
2.4912273132
  0
ARC
  5
338
100
AcDbEntity
  8
0
100
AcDbCircle
 62
2
  6
CONTINUOUS
 10
13.1673166046
 20
2.4937023128
 40
0.0024749995
100
AcDbArc
 50
179.9999571957
 51
270.0000428043
  0
LINE
  5
339
100
AcDbEntity
  8
0
100
AcDbLine
 62
2
  6
CONTINUOUS
 10
13.1648416051
 20
2.4937023146
 11
13.1648416051
 21
2.5135023256
  0
ARC
  5
33A
100
AcDbEntity
  8
0
100
AcDbCircle
 62
2
  6
CONTINUOUS
 10
13.1673166046
 20
2.5135023274
 40
0.0024749995
100
AcDbArc
 50
89.9999571957
 51
180.0000428043
  0
LINE
  5
33B
100
AcDbEntity
  8
0
100
AcDbLine
 62
2
  6
CONTINUOUS
 10
13.1673166065
 20
2.515977327
 11
13.1912396197
 21
2.515977327
  0
ARC
  5
33C
100
AcDbEntity
  8
0
100
AcDbCircle
 62
2
  6
CONTINUOUS
 10
13.1912396216
 20
2.5184523265
 40
0.0024749995
100
AcDbArc
 50
269.9999571957
 51
0.0000428042
  0
LINE
  5
33D
100
AcDbEntity
  8
0
100
AcDbLine
 62
2
  6
CONTINUOUS
 10
13.1937146211
 20
2.5184523283
 11
13.1937146211
 21
2.564807354
  0
ARC
  5
33E
100
AcDbEntity
  8
0
100
AcDbCircle
 62
2
  6
CONTINUOUS
 10
13.1912396216
 20
2.5648073559
 40
0.0024749995
100
AcDbArc
 50
359.9999571957
 51
90.0000428043
  0
LINE
  5
33F
100
AcDbEntity
  8
0
100
AcDbLine
 62
2
  6
CONTINUOUS
 10
13.1912396197
 20
2.5672823554
 11
13.1673166065
 21
2.5672823554
  0
ARC
  5
340
100
AcDbEntity
  8
0
100
AcDbCircle
 62
2
  6
CONTINUOUS
 10
13.1673166046
 20
2.5697573549
 40
0.0024749995
100
AcDbArc
 50
179.9999571957
 51
270.0000428043
  0
LINE
  5
341
100
AcDbEntity
  8
0
100
AcDbLine
 62
2
  6
CONTINUOUS
 10
13.1648416051
 20
2.5697573568
 11
13.1648416051
 21
2.5895573678
  0
ARC
  5
342
100
AcDbEntity
  8
0
100
AcDbCircle
 62
2
  6
CONTINUOUS
 10
13.1673166046
 20
2.5895573696
 40
0.0024749995
100
AcDbArc
 50
89.9999571957
 51
180.0000428043
  0
LINE
  5
343
100
AcDbEntity
  8
0
100
AcDbLine
 62
2
  6
CONTINUOUS
 10
13.1673166065
 20
2.5920323691
 11
13.3691097184
 21
2.5920323691
  0
ARC
  5
344
100
AcDbEntity
  8
0
100
AcDbCircle
 62
2
  6
CONTINUOUS
 10
13.3691097202
 20
2.5895573696
 40
0.0024749995
100
AcDbArc
 50
359.9999571957
 51
90.0000428043
  0
LINE
  5
345
100
AcDbEntity
  8
0
100
AcDbLine
 62
2
  6
CONTINUOUS
 10
13.3715847197
 20
2.5895573678
 11
13.3715847197
 21
2.5565573495
  0
ARC
  5
346
100
AcDbEntity
  8
0
100
AcDbCircle
 62
2
  6
CONTINUOUS
 10
13.3691097202
 20
2.5565573476
 40
0.0024749995
100
AcDbArc
 50
269.9999571957
 51
0.0000428042
  0
LINE
  5
347
100
AcDbEntity
  8
0
100
AcDbLine
 62
2
  6
CONTINUOUS
 10
13.3691097184
 20
2.5540823481
 11
13.3272456952
 21
2.5540823481
  0
ARC
  5
348
100
AcDbEntity
  8
0
100
AcDbCircle
 62
2
  6
CONTINUOUS
 10
13.3272456933
 20
2.5565573476
 40
0.0024749995
100
AcDbArc
 50
179.9999571957
 51
270.0000428043
  0
LINE
  5
349
100
AcDbEntity
  8
0
100
AcDbLine
 62
2
  6
CONTINUOUS
 10
13.3247706938
 20
2.5565573495
 11
13.3247706938
 21
2.564807354
  0
ARC
  5
34A
100
AcDbEntity
  8
0
100
AcDbCircle
 62
2
  6
CONTINUOUS
 10
13.3222956943
 20
2.5648073559
 40
0.0024749995
100
AcDbArc
 50
359.9999571957
 51
90.0000428043
  0
LINE
  5
34B
100
AcDbEntity
  8
0
100
AcDbLine
 62
2
  6
CONTINUOUS
 10
13.3222956924
 20
2.5672823554
 11
13.2582556569
 21
2.5672823554
  0
ARC
  5
34C
100
AcDbEntity
  8
0
100
AcDbCircle
 62
2
  6
CONTINUOUS
 10
13.2582556551
 20
2.5648073559
 40
0.0024749995
100
AcDbArc
 50
89.9999571957
 51
180.0000428043
  0
LINE
  5
34D
100
AcDbEntity
  8
0
100
AcDbLine
 62
2
  6
CONTINUOUS
 10
13.2557806555
 20
2.564807354
 11
13.2557806555
 21
2.5532573476
  0
ARC
  5
34E
100
AcDbEntity
  8
0
100
AcDbCircle
 62
2
  6
CONTINUOUS
 10
13.2582556551
 20
2.5532573458
 40
0.0024749995
100
AcDbArc
 50
179.9999571957
 51
270.0000428043
  0
LINE
  5
34F
100
AcDbEntity
  8
0
100
AcDbLine
 62
2
  6
CONTINUOUS
 10
13.2582556569
 20
2.5507823463
 11
13.2934226764
 21
2.5507823463
  0
ARC
  5
350
100
AcDbEntity
  8
0
100
AcDbCircle
 62
2
  6
CONTINUOUS
 10
13.2934226783
 20
2.5483073467
 40
0.0024749995
100
AcDbArc
 50
359.9999571957
 51
90.0000428043
  0
LINE
  5
351
100
AcDbEntity
  8
0
100
AcDbLine
 62
2
  6
CONTINUOUS
 10
13.2958976778
 20
2.5483073449
 11
13.2958976778
 21
2.5349523375
  0
ARC
  5
352
100
AcDbEntity
  8
0
100
AcDbCircle
 62
2
  6
CONTINUOUS
 10
13.2934226783
 20
2.5349523356
 40
0.0024749995
100
AcDbArc
 50
269.9999571957
 51
0.0000428042
  0
LINE
  5
353
100
AcDbEntity
  8
0
100
AcDbLine
 62
2
  6
CONTINUOUS
 10
13.7286871589
 20
2.5350697372
 11
13.7286871589
 21
2.5456869438
  0
LINE
  5
354
100
AcDbEntity
  8
0
100
AcDbLine
 62
2
  6
CONTINUOUS
 10
13.7086871478
 20
2.5004302075
 11
13.7086871478
 21
2.5803264735
  0
LINE
  5
355
100
AcDbEntity
  8
0
100
AcDbLine
 62
2
  6
CONTINUOUS
 10
13.6886871368
 20
2.4843919416
 11
13.6886871368
 21
2.5963647394
  0
LINE
  5
356
100
AcDbEntity
  8
0
100
AcDbLine
 62
2
  6
CONTINUOUS
 10
13.6686871257
 20
2.4726017898
 11
13.6686871257
 21
2.6081548911
  0
LINE
  5
357
100
AcDbEntity
  8
0
100
AcDbLine
 62
2
  6
CONTINUOUS
 10
13.6486871146
 20
2.4628062688
 11
13.6486871146
 21
2.6179504122
  0
LINE
  5
358
100
AcDbEntity
  8
0
100
AcDbLine
 62
2
  6
CONTINUOUS
 10
13.6286871035
 20
2.4541253507
 11
13.6286871035
 21
2.5062483056
  0
LINE
  5
359
100
AcDbEntity
  8
0
100
AcDbLine
 62
2
  6
CONTINUOUS
 10
13.6286871035
 20
2.5301143348
 11
13.6286871035
 21
2.6266313303
  0
LINE
  5
35A
100
AcDbEntity
  8
0
100
AcDbLine
 62
2
  6
CONTINUOUS
 10
13.6086870924
 20
2.4465537903
 11
13.6086870924
 21
2.4918774918
  0
LINE
  5
35B
100
AcDbEntity
  8
0
100
AcDbLine
 62
2
  6
CONTINUOUS
 10
13.6086870924
 20
2.5165781173
 11
13.6086870924
 21
2.6342028907
  0
LINE
  5
35C
100
AcDbEntity
  8
0
100
AcDbLine
 62
2
  6
CONTINUOUS
 10
13.5886870813
 20
2.4398033466
 11
13.5886870813
 21
2.4912273132
  0
LINE
  5
35D
100
AcDbEntity
  8
0
100
AcDbLine
 62
2
  6
CONTINUOUS
 10
13.5886870813
 20
2.5391840845
 11
13.5886870813
 21
2.5454298327
  0
LINE
  5
35E
100
AcDbEntity
  8
0
100
AcDbLine
 62
2
  6
CONTINUOUS
 10
13.5886870813
 20
2.5862063472
 11
13.5886870813
 21
2.6409533343
  0
LINE
  5
35F
100
AcDbEntity
  8
0
100
AcDbLine
 62
2
  6
CONTINUOUS
 10
13.5686870702
 20
2.4334702189
 11
13.5686870702
 21
2.4912273132
  0
LINE
  5
360
100
AcDbEntity
  8
0
100
AcDbLine
 62
2
  6
CONTINUOUS
 10
13.5686870702
 20
2.5906587765
 11
13.5686870702
 21
2.647286462
  0
LINE
  5
361
100
AcDbEntity
  8
0
100
AcDbLine
 62
2
  6
CONTINUOUS
 10
13.5486870591
 20
2.4278968124
 11
13.5486870591
 21
2.4937461006
  0
LINE
  5
362
100
AcDbEntity
  8
0
100
AcDbLine
 62
2
  6
CONTINUOUS
 10
13.5486870591
 20
2.5920323691
 11
13.5486870591
 21
2.6528598686
  0
LINE
  5
363
100
AcDbEntity
  8
0
100
AcDbLine
 62
2
  6
CONTINUOUS
 10
13.528687048
 20
2.4225427674
 11
13.528687048
 21
2.5270426993
  0
LINE
  5
364
100
AcDbEntity
  8
0
100
AcDbLine
 62
2
  6
CONTINUOUS
 10
13.528687048
 20
2.5505166259
 11
13.528687048
 21
2.5668657091
  0
LINE
  5
365
100
AcDbEntity
  8
0
100
AcDbLine
 62
2
  6
CONTINUOUS
 10
13.528687048
 20
2.5920323691
 11
13.528687048
 21
2.6582139136
  0
LINE
  5
366
100
AcDbEntity
  8
0
100
AcDbLine
 62
2
  6
CONTINUOUS
 10
13.5086870369
 20
2.4177306791
 11
13.5086870369
 21
2.4912273132
  0
LINE
  5
367
100
AcDbEntity
  8
0
100
AcDbLine
 62
2
  6
CONTINUOUS
 10
13.5086870369
 20
2.5159553269
 11
13.5086870369
 21
2.5306043351
  0
LINE
  5
368
100
AcDbEntity
  8
0
100
AcDbLine
 62
2
  6
CONTINUOUS
 10
13.5086870369
 20
2.5496073456
 11
13.5086870369
 21
2.5672823554
  0
LINE
  5
369
100
AcDbEntity
  8
0
100
AcDbLine
 62
2
  6
CONTINUOUS
 10
13.5086870369
 20
2.5920323691
 11
13.5086870369
 21
2.6630260019
  0
LINE
  5
36A
100
AcDbEntity
  8
0
100
AcDbLine
 62
2
  6
CONTINUOUS
 10
13.4886870258
 20
2.4131795254
 11
13.4886870258
 21
2.4912273132
  0
LINE
  5
36B
100
AcDbEntity
  8
0
100
AcDbLine
 62
2
  6
CONTINUOUS
 10
13.4886870258
 20
2.5159553269
 11
13.4886870258
 21
2.5306043351
  0
LINE
  5
36C
100
AcDbEntity
  8
0
100
AcDbLine
 62
2
  6
CONTINUOUS
 10
13.4886870258
 20
2.5496073456
 11
13.4886870258
 21
2.5672823554
  0
LINE
  5
36D
100
AcDbEntity
  8
0
100
AcDbLine
 62
2
  6
CONTINUOUS
 10
13.4886870258
 20
2.5920323691
 11
13.4886870258
 21
2.6675771555
  0
LINE
  5
36E
100
AcDbEntity
  8
0
100
AcDbLine
 62
2
  6
CONTINUOUS
 10
13.4686870147
 20
2.4088819672
 11
13.4686870147
 21
2.4912273132
  0
LINE
  5
36F
100
AcDbEntity
  8
0
100
AcDbLine
 62
2
  6
CONTINUOUS
 10
13.4686870147
 20
2.5920323691
 11
13.4686870147
 21
2.6718747138
  0
LINE
  5
370
100
AcDbEntity
  8
0
100
AcDbLine
 62
2
  6
CONTINUOUS
 10
13.4486870037
 20
2.4050092072
 11
13.4486870037
 21
2.4912273132
  0
LINE
  5
371
100
AcDbEntity
  8
0
100
AcDbLine
 62
2
  6
CONTINUOUS
 10
13.4486870037
 20
2.5920323691
 11
13.4486870037
 21
2.6757474738
  0
LINE
  5
372
100
AcDbEntity
  8
0
100
AcDbLine
 62
2
  6
CONTINUOUS
 10
13.4286869926
 20
2.4011364471
 11
13.4286869926
 21
2.4912273132
  0
LINE
  5
373
100
AcDbEntity
  8
0
100
AcDbLine
 62
2
  6
CONTINUOUS
 10
13.4286869926
 20
2.5920323691
 11
13.4286869926
 21
2.6796202339
  0
LINE
  5
374
100
AcDbEntity
  8
0
100
AcDbLine
 62
2
  6
CONTINUOUS
 10
13.4086869815
 20
2.3980226662
 11
13.4086869815
 21
2.4912273132
  0
LINE
  5
375
100
AcDbEntity
  8
0
100
AcDbLine
 62
2
  6
CONTINUOUS
 10
13.4086869815
 20
2.515977327
 11
13.4086869815
 21
2.5672823554
  0
LINE
  5
376
100
AcDbEntity
  8
0
100
AcDbLine
 62
2
  6
CONTINUOUS
 10
13.4086869815
 20
2.5920323691
 11
13.4086869815
 21
2.6827340148
  0
LINE
  5
377
100
AcDbEntity
  8
0
100
AcDbLine
 62
2
  6
CONTINUOUS
 10
13.3886869704
 20
2.3950052774
 11
13.3886869704
 21
2.6857514036
  0
LINE
  5
378
100
AcDbEntity
  8
0
100
AcDbLine
 62
2
  6
CONTINUOUS
 10
13.3686869593
 20
2.3919878885
 11
13.3686869593
 21
2.4912273132
  0
LINE
  5
379
100
AcDbEntity
  8
0
100
AcDbLine
 62
2
  6
CONTINUOUS
 10
13.3686869593
 20
2.5291773343
 11
13.3686869593
 21
2.5540823481
  0
LINE
  5
37A
100
AcDbEntity
  8
0
100
AcDbLine
 62
2
  6
CONTINUOUS
 10
13.3686869593
 20
2.5920323691
 11
13.3686869593
 21
2.6887687924
  0
LINE
  5
37B
100
AcDbEntity
  8
0
100
AcDbLine
 62
2
  6
CONTINUOUS
 10
13.3486869482
 20
2.3889704997
 11
13.3486869482
 21
2.4912273132
  0
LINE
  5
37C
100
AcDbEntity
  8
0
100
AcDbLine
 62
2
  6
CONTINUOUS
 10
13.3486869482
 20
2.5291773343
 11
13.3486869482
 21
2.5540823481
  0
LINE
  5
37D
100
AcDbEntity
  8
0
100
AcDbLine
 62
2
  6
CONTINUOUS
 10
13.3486869482
 20
2.5920323691
 11
13.3486869482
 21
2.6917861813
  0
LINE
  5
37E
100
AcDbEntity
  8
0
100
AcDbLine
 62
2
  6
CONTINUOUS
 10
13.3286869371
 20
2.3859531109
 11
13.3286869371
 21
2.4912273132
  0
LINE
  5
37F
100
AcDbEntity
  8
0
100
AcDbLine
 62
2
  6
CONTINUOUS
 10
13.3286869371
 20
2.5291773343
 11
13.3286869371
 21
2.5540823481
  0
LINE
  5
380
100
AcDbEntity
  8
0
100
AcDbLine
 62
2
  6
CONTINUOUS
 10
13.3286869371
 20
2.5920323691
 11
13.3286869371
 21
2.6948035701
  0
LINE
  5
381
100
AcDbEntity
  8
0
100
AcDbLine
 62
2
  6
CONTINUOUS
 10
13.308686926
 20
2.3833355437
 11
13.308686926
 21
2.4912273132
  0
LINE
  5
382
100
AcDbEntity
  8
0
100
AcDbLine
 62
2
  6
CONTINUOUS
 10
13.308686926
 20
2.515977327
 11
13.308686926
 21
2.5672823554
  0
LINE
  5
383
100
AcDbEntity
  8
0
100
AcDbLine
 62
2
  6
CONTINUOUS
 10
13.308686926
 20
2.5920323691
 11
13.308686926
 21
2.6974211373
  0
LINE
  5
384
100
AcDbEntity
  8
0
100
AcDbLine
 62
2
  6
CONTINUOUS
 10
13.2886869149
 20
2.3812612684
 11
13.2886869149
 21
2.4912273132
  0
LINE
  5
385
100
AcDbEntity
  8
0
100
AcDbLine
 62
2
  6
CONTINUOUS
 10
13.2886869149
 20
2.515977327
 11
13.2886869149
 21
2.5324773361
  0
LINE
  5
386
100
AcDbEntity
  8
0
100
AcDbLine
 62
2
  6
CONTINUOUS
 10
13.2886869149
 20
2.5507823463
 11
13.2886869149
 21
2.5672823554
  0
LINE
  5
387
100
AcDbEntity
  8
0
100
AcDbLine
 62
2
  6
CONTINUOUS
 10
13.2886869149
 20
2.5920323691
 11
13.2886869149
 21
2.6994954125
  0
LINE
  5
388
100
AcDbEntity
  8
0
100
AcDbLine
 62
2
  6
CONTINUOUS
 10
13.2686869038
 20
2.3791869932
 11
13.2686869038
 21
2.4912273132
  0
LINE
  5
389
100
AcDbEntity
  8
0
100
AcDbLine
 62
2
  6
CONTINUOUS
 10
13.2686869038
 20
2.515977327
 11
13.2686869038
 21
2.5324773361
  0
LINE
  5
38A
100
AcDbEntity
  8
0
100
AcDbLine
 62
2
  6
CONTINUOUS
 10
13.2686869038
 20
2.5507823463
 11
13.2686869038
 21
2.5672823554
  0
LINE
  5
38B
100
AcDbEntity
  8
0
100
AcDbLine
 62
2
  6
CONTINUOUS
 10
13.2686869038
 20
2.5920323691
 11
13.2686869038
 21
2.7015696878
  0
LINE
  5
38C
100
AcDbEntity
  8
0
100
AcDbLine
 62
2
  6
CONTINUOUS
 10
13.2486868927
 20
2.377112718
 11
13.2486868927
 21
2.4912273132
  0
LINE
  5
38D
100
AcDbEntity
  8
0
100
AcDbLine
 62
2
  6
CONTINUOUS
 10
13.2486868927
 20
2.5920323691
 11
13.2486868927
 21
2.703643963
  0
LINE
  5
38E
100
AcDbEntity
  8
0
100
AcDbLine
 62
2
  6
CONTINUOUS
 10
13.2286868817
 20
2.3750384428
 11
13.2286868817
 21
2.4912273132
  0
LINE
  5
38F
100
AcDbEntity
  8
0
100
AcDbLine
 62
2
  6
CONTINUOUS
 10
13.2286868817
 20
2.5920323691
 11
13.2286868817
 21
2.7057182382
  0
LINE
  5
390
100
AcDbEntity
  8
0
100
AcDbLine
 62
2
  6
CONTINUOUS
 10
13.2086868706
 20
2.3729641676
 11
13.2086868706
 21
2.4912273132
  0
LINE
  5
391
100
AcDbEntity
  8
0
100
AcDbLine
 62
2
  6
CONTINUOUS
 10
13.2086868706
 20
2.5920323691
 11
13.2086868706
 21
2.7077925134
  0
LINE
  5
392
100
AcDbEntity
  8
0
100
AcDbLine
 62
2
  6
CONTINUOUS
 10
13.1886868595
 20
2.3712344456
 11
13.1886868595
 21
2.4912273132
  0
LINE
  5
393
100
AcDbEntity
  8
0
100
AcDbLine
 62
2
  6
CONTINUOUS
 10
13.1886868595
 20
2.515977327
 11
13.1886868595
 21
2.5672823554
  0
LINE
  5
394
100
AcDbEntity
  8
0
100
AcDbLine
 62
2
  6
CONTINUOUS
 10
13.1886868595
 20
2.5920323691
 11
13.1886868595
 21
2.7095222354
  0
LINE
  5
395
100
AcDbEntity
  8
0
100
AcDbLine
 62
2
  6
CONTINUOUS
 10
13.1686868484
 20
2.3699682418
 11
13.1686868484
 21
2.4912273132
  0
LINE
  5
396
100
AcDbEntity
  8
0
100
AcDbLine
 62
2
  6
CONTINUOUS
 10
13.1686868484
 20
2.515977327
 11
13.1686868484
 21
2.5672823554
  0
LINE
  5
397
100
AcDbEntity
  8
0
100
AcDbLine
 62
2
  6
CONTINUOUS
 10
13.1686868484
 20
2.5920323691
 11
13.1686868484
 21
2.7107884392
  0
LINE
  5
398
100
AcDbEntity
  8
0
100
AcDbLine
 62
2
  6
CONTINUOUS
 10
13.1486868373
 20
2.3687020381
 11
13.1486868373
 21
2.7120546429
  0
LINE
  5
399
100
AcDbEntity
  8
0
100
AcDbLine
 62
2
  6
CONTINUOUS
 10
13.1286868262
 20
2.3674358343
 11
13.1286868262
 21
2.5672823554
  0
LINE
  5
39A
100
AcDbEntity
  8
0
100
AcDbLine
 62
2
  6
CONTINUOUS
 10
13.1286868262
 20
2.5920323691
 11
13.1286868262
 21
2.7133208466
  0
LINE
  5
39B
100
AcDbEntity
  8
0
100
AcDbLine
 62
2
  6
CONTINUOUS
 10
13.1086868151
 20
2.3661696306
 11
13.1086868151
 21
2.4912273132
  0
LINE
  5
39C
100
AcDbEntity
  8
0
100
AcDbLine
 62
2
  6
CONTINUOUS
 10
13.1086868151
 20
2.5920323691
 11
13.1086868151
 21
2.7145870504
  0
LINE
  5
39D
100
AcDbEntity
  8
0
100
AcDbLine
 62
2
  6
CONTINUOUS
 10
13.088686804
 20
2.3649034269
 11
13.088686804
 21
2.4912273132
  0
LINE
  5
39E
100
AcDbEntity
  8
0
100
AcDbLine
 62
2
  6
CONTINUOUS
 10
13.088686804
 20
2.5920323691
 11
13.088686804
 21
2.7158532541
  0
LINE
  5
39F
100
AcDbEntity
  8
0
100
AcDbLine
 62
2
  6
CONTINUOUS
 10
13.0686867929
 20
2.3636739922
 11
13.0686867929
 21
2.4912273132
  0
LINE
  5
3A0
100
AcDbEntity
  8
0
100
AcDbLine
 62
2
  6
CONTINUOUS
 10
13.0686867929
 20
2.5475272398
 11
13.0686867929
 21
2.5672823554
  0
LINE
  5
3A1
100
AcDbEntity
  8
0
100
AcDbLine
 62
2
  6
CONTINUOUS
 10
13.0686867929
 20
2.5920323691
 11
13.0686867929
 21
2.7170826887
  0
LINE
  5
3A2
100
AcDbEntity
  8
0
100
AcDbLine
 62
2
  6
CONTINUOUS
 10
13.0486867818
 20
2.363143203
 11
13.0486867818
 21
2.4912273132
  0
LINE
  5
3A3
100
AcDbEntity
  8
0
100
AcDbLine
 62
2
  6
CONTINUOUS
 10
13.0486867818
 20
2.5666100882
 11
13.0486867818
 21
2.717613478
  0
LINE
  5
3A4
100
AcDbEntity
  8
0
100
AcDbLine
 62
2
  6
CONTINUOUS
 10
13.0286867707
 20
2.3626124138
 11
13.0286867707
 21
2.50359263
  0
LINE
  5
3A5
100
AcDbEntity
  8
0
100
AcDbLine
 62
2
  6
CONTINUOUS
 10
13.0286867707
 20
2.5856929366
 11
13.0286867707
 21
2.7181442672
  0
LINE
  5
3A6
100
AcDbEntity
  8
0
100
AcDbLine
 62
2
  6
CONTINUOUS
 10
13.0086867596
 20
2.3620816246
 11
13.0086867596
 21
2.5226754472
  0
LINE
  5
3A7
100
AcDbEntity
  8
0
100
AcDbLine
 62
2
  6
CONTINUOUS
 10
13.0086867596
 20
2.5920323691
 11
13.0086867596
 21
2.7186750564
  0
LINE
  5
3A8
100
AcDbEntity
  8
0
100
AcDbLine
 62
2
  6
CONTINUOUS
 10
12.9886867486
 20
2.3615508354
 11
12.9886867486
 21
2.4912273132
  0
LINE
  5
3A9
100
AcDbEntity
  8
0
100
AcDbLine
 62
2
  6
CONTINUOUS
 10
12.9886867486
 20
2.515977327
 11
12.9886867486
 21
2.5417582644
  0
LINE
  5
3AA
100
AcDbEntity
  8
0
100
AcDbLine
 62
2
  6
CONTINUOUS
 10
12.9886867486
 20
2.5920323691
 11
12.9886867486
 21
2.7192058456
  0
LINE
  5
3AB
100
AcDbEntity
  8
0
100
AcDbLine
 62
2
  6
CONTINUOUS
 10
12.9686867375
 20
2.3610200462
 11
12.9686867375
 21
2.4912273132
  0
LINE
  5
3AC
100
AcDbEntity
  8
0
100
AcDbLine
 62
2
  6
CONTINUOUS
 10
12.9686867375
 20
2.5920323691
 11
12.9686867375
 21
2.7197366348
  0
LINE
  5
3AD
100
AcDbEntity
  8
0
100
AcDbLine
 62
2
  6
CONTINUOUS
 10
12.9486867264
 20
2.360489257
 11
12.9486867264
 21
2.4912273132
  0
LINE
  5
3AE
100
AcDbEntity
  8
0
100
AcDbLine
 62
2
  6
CONTINUOUS
 10
12.9486867264
 20
2.5920323691
 11
12.9486867264
 21
2.720267424
  0
LINE
  5
3AF
100
AcDbEntity
  8
0
100
AcDbLine
 62
2
  6
CONTINUOUS
 10
12.9286867153
 20
2.3602836008
 11
12.9286867153
 21
2.4912273132
  0
LINE
  5
3B0
100
AcDbEntity
  8
0
100
AcDbLine
 62
2
  6
CONTINUOUS
 10
12.9286867153
 20
2.515977327
 11
12.9286867153
 21
2.5672823554
  0
LINE
  5
3B1
100
AcDbEntity
  8
0
100
AcDbLine
 62
2
  6
CONTINUOUS
 10
12.9286867153
 20
2.5920323691
 11
12.9286867153
 21
2.7204730802
  0
LINE
  5
3B2
100
AcDbEntity
  8
0
100
AcDbLine
 62
2
  6
CONTINUOUS
 10
12.9086867042
 20
2.3604597639
 11
12.9086867042
 21
2.7202969171
  0
LINE
  5
3B3
100
AcDbEntity
  8
0
100
AcDbLine
 62
2
  6
CONTINUOUS
 10
12.8886866931
 20
2.360635927
 11
12.8886866931
 21
2.5672823554
  0
LINE
  5
3B4
100
AcDbEntity
  8
0
100
AcDbLine
 62
2
  6
CONTINUOUS
 10
12.8886866931
 20
2.5920323691
 11
12.8886866931
 21
2.720120754
  0
LINE
  5
3B5
100
AcDbEntity
  8
0
100
AcDbLine
 62
2
  6
CONTINUOUS
 10
12.868686682
 20
2.3608120901
 11
12.868686682
 21
2.491232357
  0
LINE
  5
3B6
100
AcDbEntity
  8
0
100
AcDbLine
 62
2
  6
CONTINUOUS
 10
12.868686682
 20
2.5920323691
 11
12.868686682
 21
2.7199445909
  0
LINE
  5
3B7
100
AcDbEntity
  8
0
100
AcDbLine
 62
2
  6
CONTINUOUS
 10
12.8486866709
 20
2.3609882532
 11
12.8486866709
 21
2.4912273132
  0
LINE
  5
3B8
100
AcDbEntity
  8
0
100
AcDbLine
 62
2
  6
CONTINUOUS
 10
12.8486866709
 20
2.5920323691
 11
12.8486866709
 21
2.7197684278
  0
LINE
  5
3B9
100
AcDbEntity
  8
0
100
AcDbLine
 62
2
  6
CONTINUOUS
 10
12.8286866598
 20
2.3611644163
 11
12.8286866598
 21
2.4912273132
  0
LINE
  5
3BA
100
AcDbEntity
  8
0
100
AcDbLine
 62
2
  6
CONTINUOUS
 10
12.8286866598
 20
2.5396527025
 11
12.8286866598
 21
2.5672823554
  0
LINE
  5
3BB
100
AcDbEntity
  8
0
100
AcDbLine
 62
2
  6
CONTINUOUS
 10
12.8286866598
 20
2.5920323691
 11
12.8286866598
 21
2.7195922647
  0
LINE
  5
3BC
100
AcDbEntity
  8
0
100
AcDbLine
 62
2
  6
CONTINUOUS
 10
12.8086866487
 20
2.3613405794
 11
12.8086866487
 21
2.4912273132
  0
LINE
  5
3BD
100
AcDbEntity
  8
0
100
AcDbLine
 62
2
  6
CONTINUOUS
 10
12.8086866487
 20
2.5587355508
 11
12.8086866487
 21
2.7194161016
  0
LINE
  5
3BE
100
AcDbEntity
  8
0
100
AcDbLine
 62
2
  6
CONTINUOUS
 10
12.7886866376
 20
2.3621089572
 11
12.7886866376
 21
2.4957181055
  0
LINE
  5
3BF
100
AcDbEntity
  8
0
100
AcDbLine
 62
2
  6
CONTINUOUS
 10
12.7886866376
 20
2.5778183992
 11
12.7886866376
 21
2.7186477238
  0
LINE
  5
3C0
100
AcDbEntity
  8
0
100
AcDbLine
 62
2
  6
CONTINUOUS
 10
12.7686866266
 20
2.3630013935
 11
12.7686866266
 21
2.5148009227
  0
LINE
  5
3C1
100
AcDbEntity
  8
0
100
AcDbLine
 62
2
  6
CONTINUOUS
 10
12.7686866266
 20
2.5920323691
 11
12.7686866266
 21
2.7177552874
  0
LINE
  5
3C2
100
AcDbEntity
  8
0
100
AcDbLine
 62
2
  6
CONTINUOUS
 10
12.7486866155
 20
2.3638938299
 11
12.7486866155
 21
2.4913263218
  0
LINE
  5
3C3
100
AcDbEntity
  8
0
100
AcDbLine
 62
2
  6
CONTINUOUS
 10
12.7486866155
 20
2.5158783184
 11
12.7486866155
 21
2.5338837399
  0
LINE
  5
3C4
100
AcDbEntity
  8
0
100
AcDbLine
 62
2
  6
CONTINUOUS
 10
12.7486866155
 20
2.5920323691
 11
12.7486866155
 21
2.7168628511
  0
LINE
  5
3C5
100
AcDbEntity
  8
0
100
AcDbLine
 62
2
  6
CONTINUOUS
 10
12.7286866044
 20
2.3647862663
 11
12.7286866044
 21
2.4912273132
  0
LINE
  5
3C6
100
AcDbEntity
  8
0
100
AcDbLine
 62
2
  6
CONTINUOUS
 10
12.7286866044
 20
2.515977327
 11
12.7286866044
 21
2.5527601554
  0
LINE
  5
3C7
100
AcDbEntity
  8
0
100
AcDbLine
 62
2
  6
CONTINUOUS
 10
12.7286866044
 20
2.5920323691
 11
12.7286866044
 21
2.7159704147
  0
LINE
  5
3C8
100
AcDbEntity
  8
0
100
AcDbLine
 62
2
  6
CONTINUOUS
 10
12.7086865933
 20
2.3656787026
 11
12.7086865933
 21
2.4912273132
  0
LINE
  5
3C9
100
AcDbEntity
  8
0
100
AcDbLine
 62
2
  6
CONTINUOUS
 10
12.7086865933
 20
2.5920323691
 11
12.7086865933
 21
2.7150779784
  0
LINE
  5
3CA
100
AcDbEntity
  8
0
100
AcDbLine
 62
2
  6
CONTINUOUS
 10
12.6886865822
 20
2.366571139
 11
12.6886865822
 21
2.4912273132
  0
LINE
  5
3CB
100
AcDbEntity
  8
0
100
AcDbLine
 62
2
  6
CONTINUOUS
 10
12.6886865822
 20
2.515977327
 11
12.6886865822
 21
2.5672823554
  0
LINE
  5
3CC
100
AcDbEntity
  8
0
100
AcDbLine
 62
2
  6
CONTINUOUS
 10
12.6886865822
 20
2.5920323691
 11
12.6886865822
 21
2.714185542
  0
LINE
  5
3CD
100
AcDbEntity
  8
0
100
AcDbLine
 62
2
  6
CONTINUOUS
 10
12.6686865711
 20
2.3677104027
 11
12.6686865711
 21
2.7130462783
  0
LINE
  5
3CE
100
AcDbEntity
  8
0
100
AcDbLine
 62
2
  6
CONTINUOUS
 10
12.64868656
 20
2.3693682721
 11
12.64868656
 21
2.7113884089
  0
LINE
  5
3CF
100
AcDbEntity
  8
0
100
AcDbLine
 62
2
  6
CONTINUOUS
 10
12.6286865489
 20
2.3710261415
 11
12.6286865489
 21
2.4912273132
  0
LINE
  5
3D0
100
AcDbEntity
  8
0
100
AcDbLine
 62
2
  6
CONTINUOUS
 10
12.6286865489
 20
2.515977327
 11
12.6286865489
 21
2.7097305395
  0
LINE
  5
3D1
100
AcDbEntity
  8
0
100
AcDbLine
 62
2
  6
CONTINUOUS
 10
12.6086865378
 20
2.372684011
 11
12.6086865378
 21
2.4912273132
  0
LINE
  5
3D2
100
AcDbEntity
  8
0
100
AcDbLine
 62
2
  6
CONTINUOUS
 10
12.6086865378
 20
2.5351122279
 11
12.6086865378
 21
2.70807267
  0
LINE
  5
3D3
100
AcDbEntity
  8
0
100
AcDbLine
 62
2
  6
CONTINUOUS
 10
12.5886865267
 20
2.3743418804
 11
12.5886865267
 21
2.4912273132
  0
LINE
  5
3D4
100
AcDbEntity
  8
0
100
AcDbLine
 62
2
  6
CONTINUOUS
 10
12.5886865267
 20
2.5660172622
 11
12.5886865267
 21
2.7064148006
  0
LINE
  5
3D5
100
AcDbEntity
  8
0
100
AcDbLine
 62
2
  6
CONTINUOUS
 10
12.5686865156
 20
2.3759997498
 11
12.5686865156
 21
2.4912273132
  0
LINE
  5
3D6
100
AcDbEntity
  8
0
100
AcDbLine
 62
2
  6
CONTINUOUS
 10
12.5686865156
 20
2.5920323691
 11
12.5686865156
 21
2.7047569312
  0
LINE
  5
3D7
100
AcDbEntity
  8
0
100
AcDbLine
 62
2
  6
CONTINUOUS
 10
12.5486865045
 20
2.3777575277
 11
12.5486865045
 21
2.4912273132
  0
LINE
  5
3D8
100
AcDbEntity
  8
0
100
AcDbLine
 62
2
  6
CONTINUOUS
 10
12.5486865045
 20
2.515977327
 11
12.5486865045
 21
2.5275118824
  0
LINE
  5
3D9
100
AcDbEntity
  8
0
100
AcDbLine
 62
2
  6
CONTINUOUS
 10
12.5486865045
 20
2.5920323691
 11
12.5486865045
 21
2.7029991533
  0
LINE
  5
3DA
100
AcDbEntity
  8
0
100
AcDbLine
 62
2
  6
CONTINUOUS
 10
12.5286864935
 20
2.3802813811
 11
12.5286864935
 21
2.5296213345
  0
LINE
  5
3DB
100
AcDbEntity
  8
0
100
AcDbLine
 62
2
  6
CONTINUOUS
 10
12.5286864935
 20
2.5505713461
 11
12.5286864935
 21
2.5667383551
  0
LINE
  5
3DC
100
AcDbEntity
  8
0
100
AcDbLine
 62
2
  6
CONTINUOUS
 10
12.5286864935
 20
2.5920323691
 11
12.5286864935
 21
2.7004752999
  0
LINE
  5
3DD
100
AcDbEntity
  8
0
100
AcDbLine
 62
2
  6
CONTINUOUS
 10
12.5086864824
 20
2.3828052346
 11
12.5086864824
 21
2.4912273132
  0
LINE
  5
3DE
100
AcDbEntity
  8
0
100
AcDbLine
 62
2
  6
CONTINUOUS
 10
12.5086864824
 20
2.515977327
 11
12.5086864824
 21
2.5279667721
  0
LINE
  5
3DF
100
AcDbEntity
  8
0
100
AcDbLine
 62
2
  6
CONTINUOUS
 10
12.5086864824
 20
2.5868602074
 11
12.5086864824
 21
2.6979514464
  0
LINE
  5
3E0
100
AcDbEntity
  8
0
100
AcDbLine
 62
2
  6
CONTINUOUS
 10
12.4886864713
 20
2.385329088
 11
12.4886864713
 21
2.4912273132
  0
LINE
  5
3E1
100
AcDbEntity
  8
0
100
AcDbLine
 62
2
  6
CONTINUOUS
 10
12.4886864713
 20
2.5553401045
 11
12.4886864713
 21
2.695427593
  0
LINE
  5
3E2
100
AcDbEntity
  8
0
100
AcDbLine
 62
2
  6
CONTINUOUS
 10
12.4686864602
 20
2.3878529415
 11
12.4686864602
 21
2.4912273132
  0
LINE
  5
3E3
100
AcDbEntity
  8
0
100
AcDbLine
 62
2
  6
CONTINUOUS
 10
12.4686864602
 20
2.5238200015
 11
12.4686864602
 21
2.6929037395
  0
LINE
  5
3E4
100
AcDbEntity
  8
0
100
AcDbLine
 62
2
  6
CONTINUOUS
 10
12.4486864491
 20
2.390376795
 11
12.4486864491
 21
2.4912273132
  0
LINE
  5
3E5
100
AcDbEntity
  8
0
100
AcDbLine
 62
2
  6
CONTINUOUS
 10
12.4486864491
 20
2.515977327
 11
12.4486864491
 21
2.690379886
  0
LINE
  5
3E6
100
AcDbEntity
  8
0
100
AcDbLine
 62
2
  6
CONTINUOUS
 10
12.428686438
 20
2.3931794042
 11
12.428686438
 21
2.6875772768
  0
LINE
  5
3E7
100
AcDbEntity
  8
0
100
AcDbLine
 62
2
  6
CONTINUOUS
 10
12.4086864269
 20
2.3964643301
 11
12.4086864269
 21
2.5013773986
  0
LINE
  5
3E8
100
AcDbEntity
  8
0
100
AcDbLine
 62
2
  6
CONTINUOUS
 10
12.4086864269
 20
2.5325739971
 11
12.4086864269
 21
2.5537224311
  0
LINE
  5
3E9
100
AcDbEntity
  8
0
100
AcDbLine
 62
2
  6
CONTINUOUS
 10
12.4086864269
 20
2.5791473398
 11
12.4086864269
 21
2.6842923509
  0
LINE
  5
3EA
100
AcDbEntity
  8
0
100
AcDbLine
 62
2
  6
CONTINUOUS
 10
12.3886864158
 20
2.399749256
 11
12.3886864158
 21
2.4921022658
  0
LINE
  5
3EB
100
AcDbEntity
  8
0
100
AcDbLine
 62
2
  6
CONTINUOUS
 10
12.3886864158
 20
2.5895929958
 11
12.3886864158
 21
2.681007425
  0
LINE
  5
3EC
100
AcDbEntity
  8
0
100
AcDbLine
 62
2
  6
CONTINUOUS
 10
12.3686864047
 20
2.403451877
 11
12.3686864047
 21
2.4912273132
  0
LINE
  5
3ED
100
AcDbEntity
  8
0
100
AcDbLine
 62
2
  6
CONTINUOUS
 10
12.3686864047
 20
2.5920323691
 11
12.3686864047
 21
2.677304804
  0
LINE
  5
3EE
100
AcDbEntity
  8
0
100
AcDbLine
 62
2
  6
CONTINUOUS
 10
12.3486863936
 20
2.407324637
 11
12.3486863936
 21
2.4912273132
  0
LINE
  5
3EF
100
AcDbEntity
  8
0
100
AcDbLine
 62
2
  6
CONTINUOUS
 10
12.3486863936
 20
2.5920323691
 11
12.3486863936
 21
2.673432044
  0
LINE
  5
3F0
100
AcDbEntity
  8
0
100
AcDbLine
 62
2
  6
CONTINUOUS
 10
12.3286863825
 20
2.4113493968
 11
12.3286863825
 21
2.4912273132
  0
LINE
  5
3F1
100
AcDbEntity
  8
0
100
AcDbLine
 62
2
  6
CONTINUOUS
 10
12.3286863825
 20
2.515977327
 11
12.3286863825
 21
2.5333023366
  0
LINE
  5
3F2
100
AcDbEntity
  8
0
100
AcDbLine
 62
2
  6
CONTINUOUS
 10
12.3286863825
 20
2.5499573458
 11
12.3286863825
 21
2.5672823554
  0
LINE
  5
3F3
100
AcDbEntity
  8
0
100
AcDbLine
 62
2
  6
CONTINUOUS
 10
12.3286863825
 20
2.5920323691
 11
12.3286863825
 21
2.6694072842
  0
LINE
  5
3F4
100
AcDbEntity
  8
0
100
AcDbLine
 62
2
  6
CONTINUOUS
 10
12.3086863715
 20
2.4159005505
 11
12.3086863715
 21
2.4912273132
  0
LINE
  5
3F5
100
AcDbEntity
  8
0
100
AcDbLine
 62
2
  6
CONTINUOUS
 10
12.3086863715
 20
2.515977327
 11
12.3086863715
 21
2.5333023366
  0
LINE
  5
3F6
100
AcDbEntity
  8
0
100
AcDbLine
 62
2
  6
CONTINUOUS
 10
12.3086863715
 20
2.5499573458
 11
12.3086863715
 21
2.5672823554
  0
LINE
  5
3F7
100
AcDbEntity
  8
0
100
AcDbLine
 62
2
  6
CONTINUOUS
 10
12.3086863715
 20
2.5920323691
 11
12.3086863715
 21
2.6648561305
  0
LINE
  5
3F8
100
AcDbEntity
  8
0
100
AcDbLine
 62
2
  6
CONTINUOUS
 10
12.2886863604
 20
2.4204517041
 11
12.2886863604
 21
2.4912273132
  0
LINE
  5
3F9
100
AcDbEntity
  8
0
100
AcDbLine
 62
2
  6
CONTINUOUS
 10
12.2886863604
 20
2.5920323691
 11
12.2886863604
 21
2.6603049769
  0
LINE
  5
3FA
100
AcDbEntity
  8
0
100
AcDbLine
 62
2
  6
CONTINUOUS
 10
12.2686863493
 20
2.4257438218
 11
12.2686863493
 21
2.4912273132
  0
LINE
  5
3FB
100
AcDbEntity
  8
0
100
AcDbLine
 62
2
  6
CONTINUOUS
 10
12.2686863493
 20
2.5920323691
 11
12.2686863493
 21
2.6550128592
  0
LINE
  5
3FC
100
AcDbEntity
  8
0
100
AcDbLine
 62
2
  6
CONTINUOUS
 10
12.2486863382
 20
2.4310978667
 11
12.2486863382
 21
2.4912273132
  0
LINE
  5
3FD
100
AcDbEntity
  8
0
100
AcDbLine
 62
2
  6
CONTINUOUS
 10
12.2486863382
 20
2.5920323691
 11
12.2486863382
 21
2.6496588142
  0
LINE
  5
3FE
100
AcDbEntity
  8
0
100
AcDbLine
 62
2
  6
CONTINUOUS
 10
12.2286863271
 20
2.4372566433
 11
12.2286863271
 21
2.4912273132
  0
LINE
  5
3FF
100
AcDbEntity
  8
0
100
AcDbLine
 62
2
  6
CONTINUOUS
 10
12.2286863271
 20
2.515977327
 11
12.2286863271
 21
2.5672823554
  0
LINE
  5
400
100
AcDbEntity
  8
0
100
AcDbLine
 62
2
  6
CONTINUOUS
 10
12.2286863271
 20
2.5920323691
 11
12.2286863271
 21
2.6435000377
  0
LINE
  5
401
100
AcDbEntity
  8
0
100
AcDbLine
 62
2
  6
CONTINUOUS
 10
12.208686316
 20
2.443589771
 11
12.208686316
 21
2.4912273132
  0
LINE
  5
402
100
AcDbEntity
  8
0
100
AcDbLine
 62
2
  6
CONTINUOUS
 10
12.208686316
 20
2.515977327
 11
12.208686316
 21
2.5672823554
  0
LINE
  5
403
100
AcDbEntity
  8
0
100
AcDbLine
 62
2
  6
CONTINUOUS
 10
12.208686316
 20
2.5920323691
 11
12.208686316
 21
2.63716691
  0
LINE
  5
404
100
AcDbEntity
  8
0
100
AcDbLine
 62
2
  6
CONTINUOUS
 10
12.1886863049
 20
2.4510806436
 11
12.1886863049
 21
2.6296760373
  0
LINE
  5
405
100
AcDbEntity
  8
0
100
AcDbLine
 62
2
  6
CONTINUOUS
 10
12.1686862938
 20
2.4591016523
 11
12.1686862938
 21
2.6216550287
  0
LINE
  5
406
100
AcDbEntity
  8
0
100
AcDbLine
 62
2
  6
CONTINUOUS
 10
12.1486862827
 20
2.468314272
 11
12.1486862827
 21
2.612442409
  0
LINE
  5
407
100
AcDbEntity
  8
0
100
AcDbLine
 62
2
  6
CONTINUOUS
 10
12.1286862716
 20
2.4794932339
 11
12.1286862716
 21
2.601263447
  0
LINE
  5
408
100
AcDbEntity
  8
0
100
AcDbLine
 62
2
  6
CONTINUOUS
 10
12.1086862605
 20
2.4934150665
 11
12.1086862605
 21
2.5873416144
  0
LINE
  5
409
100
AcDbEntity
  8
0
100
AcDbLine
 62
2
  6
CONTINUOUS
 10
12.0886862494
 20
2.5144449553
 11
12.0886862494
 21
2.5663117257
  0
ENDBLK
  5
40A
100
AcDbEntity
  8
0
  6
BYBLOCK
 62
0
100
AcDbBlockEnd
  0
BLOCK
  5
40B
100
AcDbEntity
  8
SCHEME_DIMS
100
AcDbBlockBegin
 62
2
  6
CONTINUOUS
  2
*D0
 70
65
 10
0.0
 20
0.0
  3
*D0
  1

  0
TEXT
  5
40C
100
AcDbEntity
  8
SCHEME_DIMS
100
AcDbText
 62
2
  6
CONTINUOUS
 10
7.1786886867
 20
8.2010949367
  7
STANDARD
 40
0.1
  1
67,8
 41
1.0
 72
0
100
AcDbText
  0
TEXT
  5
40D
100
AcDbEntity
  8
SCHEME_DIMS
100
AcDbText
 62
2
  6
CONTINUOUS
 10
7.2786886867
 20
8.0510949367
  7
STANDARD
 40
0.1
  1
2.67
 41
1.0
 72
0
100
AcDbText
  0
TEXT
  5
40E
100
AcDbEntity
  8
SCHEME_DIMS
100
AcDbText
 62
2
  6
CONTINUOUS
 10
7.1786886867
 20
8.0510949367
  7
STANDARD
 40
0.1
  1
[
 41
1.0
 72
0
100
AcDbText
  0
TEXT
  5
40F
100
AcDbEntity
  8
SCHEME_DIMS
100
AcDbText
 62
2
  6
CONTINUOUS
 10
7.6786886867
 20
8.0510949367
  7
STANDARD
 40
0.1
  1
]
 41
1.0
 72
0
100
AcDbText
  0
LINE
  5
410
100
AcDbEntity
  8
SCHEME_DIMS
100
AcDbLine
 62
2
  6
CONTINUOUS
 10
6.1446647908
 20
6.1172719868
 11
6.1446647908
 21
8.3760949367
  0
LINE
  5
411
100
AcDbEntity
  8
SCHEME_DIMS
100
AcDbLine
 62
2
  6
CONTINUOUS
 10
8.8127125827
 20
6.0158940341
 11
8.8127125827
 21
8.3760949367
  0
LINE
  5
412
100
AcDbEntity
  8
SCHEME_DIMS
100
AcDbLine
 62
2
  6
CONTINUOUS
 10
6.1446647908
 20
8.2510949367
 11
7.0786886867
 21
8.2510949367
  0
LINE
  5
413
100
AcDbEntity
  8
SCHEME_DIMS
100
AcDbLine
 62
2
  6
CONTINUOUS
 10
8.8127125827
 20
8.2510949367
 11
7.8786886867
 21
8.2510949367
  0
INSERT
  5
414
100
AcDbEntity
  8
SCHEME_DIMS
100
AcDbBlockReference
 62
2
  6
CONTINUOUS
  2
_FILLED
 10
6.1446647908
 20
8.2510949367
 41
0.1875
 42
0.1875
 43
0.1875
 50
180.0
  0
INSERT
  5
415
100
AcDbEntity
  8
SCHEME_DIMS
100
AcDbBlockReference
 62
2
  6
CONTINUOUS
  2
_FILLED
 10
8.8127125827
 20
8.2510949367
 41
0.1875
 42
0.1875
 43
0.1875
  0
ENDBLK
  5
416
100
AcDbEntity
  8
0
  6
BYBLOCK
 62
0
100
AcDbBlockEnd
  0
BLOCK
  5
417
100
AcDbEntity
  8
SCHEME_DIMS
100
AcDbBlockBegin
 62
2
  6
CONTINUOUS
  2
*D1
 70
65
 10
0.0
 20
0.0
  3
*D1
  1

  0
TEXT
  5
418
100
AcDbEntity
  8
SCHEME_DIMS
100
AcDbText
 62
2
  6
CONTINUOUS
 10
6.9621532536
 20
7.6991
  7
STANDARD
 40
0.1
  1
56,8
 41
1.0
 72
0
100
AcDbText
  0
TEXT
  5
419
100
AcDbEntity
  8
SCHEME_DIMS
100
AcDbText
 62
2
  6
CONTINUOUS
 10
7.0621532536
 20
7.5491
  7
STANDARD
 40
0.1
  1
2.24
 41
1.0
 72
0
100
AcDbText
  0
TEXT
  5
41A
100
AcDbEntity
  8
SCHEME_DIMS
100
AcDbText
 62
2
  6
CONTINUOUS
 10
6.9621532536
 20
7.5491
  7
STANDARD
 40
0.1
  1
[
 41
1.0
 72
0
100
AcDbText
  0
TEXT
  5
41B
100
AcDbEntity
  8
SCHEME_DIMS
100
AcDbText
 62
2
  6
CONTINUOUS
 10
7.4621532536
 20
7.5491
  7
STANDARD
 40
0.1
  1
]
 41
1.0
 72
0
100
AcDbText
  0
LINE
  5
41C
100
AcDbEntity
  8
SCHEME_DIMS
100
AcDbLine
 62
2
  6
CONTINUOUS
 10
6.1446647908
 20
6.1121538766
 11
6.1446647908
 21
7.8741
  0
LINE
  5
41D
100
AcDbEntity
  8
SCHEME_DIMS
100
AcDbLine
 62
2
  6
CONTINUOUS
 10
8.3796417165
 20
6.3141223805
 11
8.3796417165
 21
7.8741
  0
LINE
  5
41E
100
AcDbEntity
  8
SCHEME_DIMS
100
AcDbLine
 62
2
  6
CONTINUOUS
 10
6.1446647908
 20
7.7491
 11
6.8621532536
 21
7.7491
  0
LINE
  5
41F
100
AcDbEntity
  8
SCHEME_DIMS
100
AcDbLine
 62
2
  6
CONTINUOUS
 10
8.3796417165
 20
7.7491
 11
7.6621532536
 21
7.7491
  0
INSERT
  5
420
100
AcDbEntity
  8
SCHEME_DIMS
100
AcDbBlockReference
 62
2
  6
CONTINUOUS
  2
_FILLED
 10
6.1446647908
 20
7.7491
 41
0.1875
 42
0.1875
 43
0.1875
 50
180.0
  0
INSERT
  5
421
100
AcDbEntity
  8
SCHEME_DIMS
100
AcDbBlockReference
 62
2
  6
CONTINUOUS
  2
_FILLED
 10
8.3796417165
 20
7.7491
 41
0.1875
 42
0.1875
 43
0.1875
  0
ENDBLK
  5
422
100
AcDbEntity
  8
0
  6
BYBLOCK
 62
0
100
AcDbBlockEnd
  0
BLOCK
  5
423
100
AcDbEntity
  8
SCHEME_DIMS
100
AcDbBlockBegin
 62
2
  6
CONTINUOUS
  2
*D2
 70
65
 10
0.0
 20
0.0
  3
*D2
  1

  0
TEXT
  5
424
100
AcDbEntity
  8
SCHEME_DIMS
100
AcDbText
 62
2
  6
CONTINUOUS
 10
6.5684524662
 20
7.1599202532
  7
STANDARD
 40
0.1
  1
36,8
 41
1.0
 72
0
100
AcDbText
  0
TEXT
  5
425
100
AcDbEntity
  8
SCHEME_DIMS
100
AcDbText
 62
2
  6
CONTINUOUS
 10
6.6684524662
 20
7.0099202532
  7
STANDARD
 40
0.1
  1
1.45
 41
1.0
 72
0
100
AcDbText
  0
TEXT
  5
426
100
AcDbEntity
  8
SCHEME_DIMS
100
AcDbText
 62
2
  6
CONTINUOUS
 10
6.5684524662
 20
7.0099202532
  7
STANDARD
 40
0.1
  1
[
 41
1.0
 72
0
100
AcDbText
  0
TEXT
  5
427
100
AcDbEntity
  8
SCHEME_DIMS
100
AcDbText
 62
2
  6
CONTINUOUS
 10
7.0684524662
 20
7.0099202532
  7
STANDARD
 40
0.1
  1
]
 41
1.0
 72
0
100
AcDbText
  0
LINE
  5
428
100
AcDbEntity
  8
SCHEME_DIMS
100
AcDbLine
 62
2
  6
CONTINUOUS
 10
6.1446647908
 20
6.1121538766
 11
6.1446647908
 21
7.3349202532
  0
LINE
  5
429
100
AcDbEntity
  8
SCHEME_DIMS
100
AcDbLine
 62
2
  6
CONTINUOUS
 10
7.5922401417
 20
6.7570357571
 11
7.5922401417
 21
7.3349202532
  0
LINE
  5
42A
100
AcDbEntity
  8
SCHEME_DIMS
100
AcDbLine
 62
2
  6
CONTINUOUS
 10
6.1446647908
 20
7.2099202532
 11
6.4684524662
 21
7.2099202532
  0
LINE
  5
42B
100
AcDbEntity
  8
SCHEME_DIMS
100
AcDbLine
 62
2
  6
CONTINUOUS
 10
7.5922401417
 20
7.2099202532
 11
7.2684524662
 21
7.2099202532
  0
INSERT
  5
42C
100
AcDbEntity
  8
SCHEME_DIMS
100
AcDbBlockReference
 62
2
  6
CONTINUOUS
  2
_FILLED
 10
6.1446647908
 20
7.2099202532
 41
0.1875
 42
0.1875
 43
0.1875
 50
180.0
  0
INSERT
  5
42D
100
AcDbEntity
  8
SCHEME_DIMS
100
AcDbBlockReference
 62
2
  6
CONTINUOUS
  2
_FILLED
 10
7.5922401417
 20
7.2099202532
 41
0.1875
 42
0.1875
 43
0.1875
  0
ENDBLK
  5
42E
100
AcDbEntity
  8
0
  6
BYBLOCK
 62
0
100
AcDbBlockEnd
  0
BLOCK
  5
42F
100
AcDbEntity
  8
SCHEME_DIMS
100
AcDbBlockBegin
 62
2
  6
CONTINUOUS
  2
*D3
 70
65
 10
0.0
 20
0.0
  3
*D3
  1

  0
TEXT
  5
430
100
AcDbEntity
  8
SCHEME_DIMS
100
AcDbText
 62
2
  6
CONTINUOUS
 10
4.5706306962
 20
4.3617632911
  7
STANDARD
 40
0.1
  1
%%c
 41
1.3333333333
 72
0
100
AcDbText
  0
TEXT
  5
431
100
AcDbEntity
  8
SCHEME_DIMS
100
AcDbText
 62
2
  6
CONTINUOUS
 10
4.7039640295
 20
4.3617632911
  7
STANDARD
 40
0.1
  1
50
 41
1.0
 72
0
100
AcDbText
  0
TEXT
  5
432
100
AcDbEntity
  8
SCHEME_DIMS
100
AcDbText
 62
2
  6
CONTINUOUS
 10
4.8039640295
 20
4.2117632911
  7
STANDARD
 40
0.1
  1
1.97
 41
1.0
 72
0
100
AcDbText
  0
TEXT
  5
433
100
AcDbEntity
  8
SCHEME_DIMS
100
AcDbText
 62
2
  6
CONTINUOUS
 10
4.7039640295
 20
4.2117632911
  7
STANDARD
 40
0.1
  1
[
 41
1.0
 72
0
100
AcDbText
  0
TEXT
  5
434
100
AcDbEntity
  8
SCHEME_DIMS
100
AcDbText
 62
2
  6
CONTINUOUS
 10
5.2039640295
 20
4.2117632911
  7
STANDARD
 40
0.1
  1
]
 41
1.0
 72
0
100
AcDbText
  0
LINE
  5
435
100
AcDbEntity
  8
SCHEME_DIMS
100
AcDbLine
 62
2
  6
CONTINUOUS
 10
3.9540798996
 20
4.9406800263
 11
4.3206306962
 21
4.4117632911
  0
LINE
  5
436
100
AcDbEntity
  8
SCHEME_DIMS
100
AcDbLine
 62
2
  6
CONTINUOUS
 10
4.3206306962
 20
4.4117632911
 11
4.4706306962
 21
4.4117632911
  0
INSERT
  5
437
100
AcDbEntity
  8
SCHEME_DIMS
100
AcDbBlockReference
 62
2
  6
CONTINUOUS
  2
_FILLED
 10
3.9540798996
 20
4.9406800263
 41
0.1875
 42
0.1875
 43
0.1875
 50
124.7228007823
  0
ENDBLK
  5
438
100
AcDbEntity
  8
0
  6
BYBLOCK
 62
0
100
AcDbBlockEnd
  0
BLOCK
  5
439
100
AcDbEntity
  8
0
100
AcDbBlockBegin
  2
_FILLED
 70
64
 10
0.0
 20
0.0
  3
_FILLED
  1

  0
SOLID
  5
43A
100
AcDbEntity
  8
0
  6
BYBLOCK
 62
0
100
AcDbTrace
 10
0.0
 20
0.0
 11
-1.0
 21
0.1666666667
 12
-1.0
 22
-0.1666666667
 13
-1.0
 23
-0.1666666667
  0
ENDBLK
  5
43B
100
AcDbEntity
  8
0
  6
BYBLOCK
 62
0
100
AcDbBlockEnd
  0
ENDSEC
  0
SECTION
  2
ENTITIES
  0
TEXT
  5
43C
100
AcDbEntity
  8
0
100
AcDbText
 62
2
  6
CONTINUOUS
 10
10.1487658475
 20
1.694867839
  7
STANDARD
 40
0.1
  1
%%uTHIRD ANGLE PROJECTION
 41
0.8
 72
1
 11
11.0287658475
 21
1.694867839
100
AcDbText
  0
TEXT
  5
43D
100
AcDbEntity
  8
0
100
AcDbText
 62
2
  6
CONTINUOUS
 10
12.88
 20
1.377
  7
STANDARD
 40
0.08
  1
DRAWING NO.
 41
1.0
 72
0
100
AcDbText
  0
TEXT
  5
43E
100
AcDbEntity
  8
0
100
AcDbText
 62
2
  6
CONTINUOUS
 10
10.044
 20
2.436432
  7
STANDARD
 40
0.08
  1
and is proprietary in general
 41
0.85
 72
1
 11
11.03
 21
2.436432
100
AcDbText
  0
TEXT
  5
43F
100
AcDbEntity
  8
0
100
AcDbText
 62
2
  6
CONTINUOUS
 10
10.078
 20
2.316432
  7
STANDARD
 40
0.08
  1
and in detail.  Its contents
 41
0.85
 72
1
 11
11.03
 21
2.316432
100
AcDbText
  0
TEXT
  5
440
100
AcDbEntity
  8
0
100
AcDbText
 62
2
  6
CONTINUOUS
 10
10.214
 20
2.196432
  7
STANDARD
 40
0.08
  1
shall not be revealed to
 41
0.85
 72
1
 11
11.03
 21
2.196432
100
AcDbText
  0
TEXT
  5
441
100
AcDbEntity
  8
0
100
AcDbText
 62
2
  6
CONTINUOUS
 10
10.248
 20
2.076432
  7
STANDARD
 40
0.08
  1
outside parties without
 41
0.85
 72
1
 11
11.03
 21
2.076432
100
AcDbText
  0
TEXT
  5
442
100
AcDbEntity
  8
0
100
AcDbText
 62
2
  6
CONTINUOUS
 10
10.146
 20
1.956432
  7
STANDARD
 40
0.08
  1
written consent of BANNER.
 41
0.85
 72
1
 11
11.03
 21
1.956432
100
AcDbText
  0
TEXT
  5
443
100
AcDbEntity
  8
0
100
AcDbText
 62
2
  6
CONTINUOUS
 10
12.08
 20
2.117
  7
STANDARD
 40
0.1
  1
TITLE
 41
0.8
 72
0
100
AcDbText
  0
TEXT
  5
444
100
AcDbEntity
  8
0
100
AcDbText
 62
2
  6
CONTINUOUS
 10
12.08
 20
1.377
  7
STANDARD
 40
0.08
  1
SIZE
 41
1.0
 72
0
100
AcDbText
  0
TEXT
  5
445
100
AcDbEntity
  8
0
100
AcDbText
 62
2
  6
CONTINUOUS
 10
12.08
 20
1.007
  7
STANDARD
 40
0.08
  1
SCALE
 41
1.0
 72
0
100
AcDbText
  0
TEXT
  5
446
100
AcDbEntity
  8
0
100
AcDbText
 62
2
  6
CONTINUOUS
 10
12.46
 20
1.237
  7
STANDARD
 40
0.1
  1
B
 41
0.8
 72
1
 11
12.5
 21
1.237
100
AcDbText
  0
TEXT
  5
447
100
AcDbEntity
  8
0
100
AcDbText
 62
2
  6
CONTINUOUS
 10
10.112
 20
2.556432
  7
STANDARD
 40
0.08
  1
of BANNER ENGINEERING CORP.
 41
0.85
 72
1
 11
11.03
 21
2.556432
100
AcDbText
  0
TEXT
  5
448
100
AcDbEntity
  8
0
100
AcDbText
 62
2
  6
CONTINUOUS
 10
10.078
 20
2.676432
  7
STANDARD
 40
0.08
  1
This drawing is the property
 41
0.85
 72
1
 11
11.03
 21
2.676432
100
AcDbText
  0
TEXT
  5
449
100
AcDbEntity
  8
0
100
AcDbText
 62
2
  6
CONTINUOUS
 10
14.19
 20
2.3134
  7
STANDARD
 40
0.1
  1
MINNEAPOLIS, MN 55440
 41
0.8
 72
1
 11
15.03
 21
2.3134
100
AcDbText
  0
TEXT
  5
44A
100
AcDbEntity
  8
0
100
AcDbText
 62
2
  6
CONTINUOUS
 10
14.255
 20
1.007
  7
STANDARD
 40
0.08
  1
SHEET
 41
1.0
 72
0
100
AcDbText
  0
TEXT
  5
44B
100
AcDbEntity
  8
0
100
AcDbText
 62
2
  6
CONTINUOUS
 10
15.63
 20
1.377
  7
STANDARD
 40
0.08
  1
REV.
 41
1.0
 72
0
100
AcDbText
  0
TEXT
  5
44C
100
AcDbEntity
  8
0
100
AcDbText
 62
2
  6
CONTINUOUS
 10
16.03
 20
0.765443
  7
STANDARD
 40
0.07
  1
PRO/E
 41
1.0
 72
2
 11
16.38
 21
0.765443
100
AcDbText
  0
TEXT
  5
44D
100
AcDbEntity
  8
0
100
AcDbText
 62
2
  6
CONTINUOUS
 10
13.7052
 20
2.631049
  7
STANDARD
 40
0.12
  1
BANNER ENGINEERING CORP.
 41
0.92
 72
1
 11
15.03
 21
2.631049
100
AcDbText
  0
TEXT
  5
44E
100
AcDbEntity
  8
0
100
AcDbText
 62
2
  6
CONTINUOUS
 10
14.51
 20
2.4724
  7
STANDARD
 40
0.1
  1
P.O. BOX 9414
 41
0.8
 72
1
 11
15.03
 21
2.4724
100
AcDbText
  0
TEXT
  5
44F
100
AcDbEntity
  8
0
100
AcDbText
 62
2
  6
CONTINUOUS
 10
9.445
 20
10.212
  7
STANDARD
 40
0.1
  1
4
 41
0.8
 72
1
 11
9.485
 21
10.212
100
AcDbText
  0
TEXT
  5
450
100
AcDbEntity
  8
0
100
AcDbText
 62
2
  6
CONTINUOUS
 10
11.415
 20
10.212
  7
STANDARD
 40
0.1
  1
3
 41
0.8
 72
1
 11
11.455
 21
10.212
100
AcDbText
  0
TEXT
  5
451
100
AcDbEntity
  8
0
100
AcDbText
 62
2
  6
CONTINUOUS
 10
13.385
 20
10.212
  7
STANDARD
 40
0.1
  1
2
 41
0.8
 72
1
 11
13.425
 21
10.212
100
AcDbText
  0
TEXT
  5
452
100
AcDbEntity
  8
0
100
AcDbText
 62
2
  6
CONTINUOUS
 10
15.355
 20
10.212
  7
STANDARD
 40
0.1
  1
1
 41
0.8
 72
1
 11
15.395
 21
10.212
100
AcDbText
  0
TEXT
  5
453
100
AcDbEntity
  8
0
100
AcDbText
 62
2
  6
CONTINUOUS
 10
3.535
 20
10.212
  7
STANDARD
 40
0.1
  1
7
 41
0.8
 72
1
 11
3.575
 21
10.212
100
AcDbText
  0
TEXT
  5
454
100
AcDbEntity
  8
0
100
AcDbText
 62
2
  6
CONTINUOUS
 10
5.505
 20
10.212
  7
STANDARD
 40
0.1
  1
6
 41
0.8
 72
1
 11
5.545
 21
10.212
100
AcDbText
  0
TEXT
  5
455
100
AcDbEntity
  8
0
100
AcDbText
 62
2
  6
CONTINUOUS
 10
7.475
 20
10.212
  7
STANDARD
 40
0.1
  1
5
 41
0.8
 72
1
 11
7.515
 21
10.212
100
AcDbText
  0
TEXT
  5
456
100
AcDbEntity
  8
0
100
AcDbText
 62
2
  6
CONTINUOUS
 10
1.565
 20
10.212
  7
STANDARD
 40
0.1
  1
8
 41
0.8
 72
1
 11
1.605
 21
10.212
100
AcDbText
  0
TEXT
  5
457
100
AcDbEntity
  8
0
100
AcDbText
 62
2
  6
CONTINUOUS
 10
1.565
 20
0.687
  7
STANDARD
 40
0.1
  1
8
 41
0.8
 72
1
 11
1.605
 21
0.687
100
AcDbText
  0
TEXT
  5
458
100
AcDbEntity
  8
0
100
AcDbText
 62
2
  6
CONTINUOUS
 10
3.535
 20
0.687
  7
STANDARD
 40
0.1
  1
7
 41
0.8
 72
1
 11
3.575
 21
0.687
100
AcDbText
  0
TEXT
  5
459
100
AcDbEntity
  8
0
100
AcDbText
 62
2
  6
CONTINUOUS
 10
5.505
 20
0.687
  7
STANDARD
 40
0.1
  1
6
 41
0.8
 72
1
 11
5.545
 21
0.687
100
AcDbText
  0
TEXT
  5
45A
100
AcDbEntity
  8
0
100
AcDbText
 62
2
  6
CONTINUOUS
 10
7.475
 20
0.687
  7
STANDARD
 40
0.1
  1
5
 41
0.8
 72
1
 11
7.515
 21
0.687
100
AcDbText
  0
TEXT
  5
45B
100
AcDbEntity
  8
0
100
AcDbText
 62
2
  6
CONTINUOUS
 10
9.445
 20
0.687
  7
STANDARD
 40
0.1
  1
4
 41
0.8
 72
1
 11
9.485
 21
0.687
100
AcDbText
  0
TEXT
  5
45C
100
AcDbEntity
  8
0
100
AcDbText
 62
2
  6
CONTINUOUS
 10
11.415
 20
0.687
  7
STANDARD
 40
0.1
  1
3
 41
0.8
 72
1
 11
11.455
 21
0.687
100
AcDbText
  0
TEXT
  5
45D
100
AcDbEntity
  8
0
100
AcDbText
 62
2
  6
CONTINUOUS
 10
13.385
 20
0.687
  7
STANDARD
 40
0.1
  1
2
 41
0.8
 72
1
 11
13.425
 21
0.687
100
AcDbText
  0
TEXT
  5
45E
100
AcDbEntity
  8
0
100
AcDbText
 62
2
  6
CONTINUOUS
 10
15.355
 20
0.687
  7
STANDARD
 40
0.1
  1
1
 41
0.8
 72
1
 11
15.395
 21
0.687
100
AcDbText
  0
TEXT
  5
45F
100
AcDbEntity
  8
0
100
AcDbText
 62
2
  6
CONTINUOUS
 10
0.44
 20
4.2995
  7
STANDARD
 40
0.1
  1
B
 41
0.8
 72
2
 11
0.52
 21
4.2995
100
AcDbText
  0
TEXT
  5
460
100
AcDbEntity
  8
0
100
AcDbText
 62
2
  6
CONTINUOUS
 10
0.44
 20
1.9995
  7
STANDARD
 40
0.1
  1
A
 41
0.8
 72
2
 11
0.52
 21
1.9995
100
AcDbText
  0
TEXT
  5
461
100
AcDbEntity
  8
0
100
AcDbText
 62
2
  6
CONTINUOUS
 10
0.44
 20
8.8995
  7
STANDARD
 40
0.1
  1
D
 41
0.8
 72
2
 11
0.52
 21
8.8995
100
AcDbText
  0
TEXT
  5
462
100
AcDbEntity
  8
0
100
AcDbText
 62
2
  6
CONTINUOUS
 10
0.44
 20
6.5995
  7
STANDARD
 40
0.1
  1
C
 41
0.8
 72
2
 11
0.52
 21
6.5995
100
AcDbText
  0
TEXT
  5
463
100
AcDbEntity
  8
0
100
AcDbText
 62
2
  6
CONTINUOUS
 10
16.48
 20
8.8995
  7
STANDARD
 40
0.1
  1
D
 41
0.8
 72
0
100
AcDbText
  0
TEXT
  5
464
100
AcDbEntity
  8
0
100
AcDbText
 62
2
  6
CONTINUOUS
 10
16.48
 20
6.5995
  7
STANDARD
 40
0.1
  1
C
 41
0.8
 72
0
100
AcDbText
  0
TEXT
  5
465
100
AcDbEntity
  8
0
100
AcDbText
 62
2
  6
CONTINUOUS
 10
16.48
 20
4.2995
  7
STANDARD
 40
0.1
  1
B
 41
0.8
 72
0
100
AcDbText
  0
TEXT
  5
466
100
AcDbEntity
  8
0
100
AcDbText
 62
2
  6
CONTINUOUS
 10
16.48
 20
1.9995
  7
STANDARD
 40
0.1
  1
A
 41
0.8
 72
0
100
AcDbText
  0
MTEXT
  5
467
100
AcDbEntity
  8
0
100
AcDbMText
 62
2
  6
CONTINUOUS
  7
STANDARD
 71
1
 72
1
 10
14.819264911
 20
1.0627941725
 30
0.0
 11
1.0
 21
0.0
 31
0.0
  1
1 OF 1
 40
0.1
 41
0.6
  0
TEXT
  5
468
100
AcDbEntity
  8
0
100
AcDbText
 62
7
  6
CONTINUOUS
 10
13.8911999818
 20
1.2547321586
  7
STANDARD
 40
0.12
  1
144874
 41
1.0
 72
0
100
AcDbText
  0
TEXT
  5
469
100
AcDbEntity
  8
0
100
AcDbText
 62
2
  6
CONTINUOUS
 10
12.644264911
 20
0.9627941725
  7
STANDARD
 40
0.1
  1
1:1
 41
1.0
 72
0
100
AcDbText
  0
MTEXT
  5
46A
100
AcDbEntity
  8
0
100
AcDbMText
 62
2
  6
CONTINUOUS
  7
STANDARD
 71
1
 72
1
 10
1.0597007627
 20
1.6202922458
 30
0.0
 11
1.0
 21
0.0
 31
0.0
  1
NOTES:\P1. ALL DIMENSIONS ARE MILLIMETERS [INCHES] UNLESS OTHERWISE NOTED.
 40
0.1
 41
6.6
  0
INSERT
  5
46B
100
AcDbEntity
  8
0
100
AcDbBlockReference
 62
2
  6
CONTINUOUS
  2
BANNER_LOGO_TITLEBLOCK_BL0
 10
12.9046655056
 20
2.5403783448
  0
DIMENSION
  5
46C
100
AcDbEntity
  8
SCHEME_DIMS
100
AcDbDimension
 62
2
  6
CONTINUOUS
  2
*D0
 10
8.8127125827
 20
8.2510949367
 11
7.4786886867
 21
8.1760949367
 70
160
 42
67.7684139143
  3
DIMSTYLE_1
100
AcDbAlignedDimension
 13
6.1446647908
 23
6.1172719868
 14
8.8127125827
 24
6.0158940341
100
AcDbRotatedDimension
  0
DIMENSION
  5
46D
100
AcDbEntity
  8
SCHEME_DIMS
100
AcDbDimension
 62
2
  6
CONTINUOUS
  2
*D1
 10
8.3796417165
 20
7.7491
 11
7.2621532536
 21
7.6741
 70
160
 42
56.7684139143
  3
DIMSTYLE_1
100
AcDbAlignedDimension
 13
6.1446647908
 23
6.1121538766
 14
8.3796417165
 24
6.3141223805
100
AcDbRotatedDimension
  0
DIMENSION
  5
46E
100
AcDbEntity
  8
SCHEME_DIMS
100
AcDbDimension
 62
2
  6
CONTINUOUS
  2
*D2
 10
7.5922401417
 20
7.2099202532
 11
6.8684524662
 21
7.1349202532
 70
160
 42
36.7684139143
  3
DIMSTYLE_1
100
AcDbAlignedDimension
 13
6.1446647908
 23
6.1121538766
 14
7.5922401417
 24
6.7570357571
100
AcDbRotatedDimension
  0
DIMENSION
  5
46F
100
AcDbEntity
  8
SCHEME_DIMS
100
AcDbDimension
 62
2
  6
CONTINUOUS
  2
*D3
 10
3.9540798996
 20
4.9406800263
 11
4.9372973629
 21
4.3367632911
 70
163
 42
50.0
  1
<>
  3
DIMSTYLE_2
100
AcDbDiametricDimension
 15
2.8328069675
 25
6.5586277269
  0
LINE
  5
470
100
AcDbEntity
  8
0
100
AcDbLine
 62
2
  6
CONTINUOUS
 10
16.38
 20
0.887
 11
12.03
 21
0.887
  0
LINE
  5
471
100
AcDbEntity
  8
0
100
AcDbLine
 62
2
  6
CONTINUOUS
 10
16.38
 20
0.887
 11
16.38
 21
2.807
  0
LINE
  5
472
100
AcDbEntity
  8
0
100
AcDbLine
 62
2
  6
CONTINUOUS
 10
16.38
 20
2.807
 11
12.03
 21
2.807
  0
LINE
  5
473
100
AcDbEntity
  8
0
100
AcDbLine
 62
2
  6
CONTINUOUS
 10
12.03
 20
0.887
 11
12.03
 21
2.807
  0
TEXT
  5
474
100
AcDbEntity
  8
0
100
AcDbText
 62
7
  6
CONTINUOUS
 10
16.105
 20
1.267
  7
STANDARD
 40
0.1
  1
-
 41
1.0
 72
1
 11
16.155
 21
1.267
100
AcDbText
  0
MTEXT
  5
475
100
AcDbEntity
  8
0
100
AcDbMText
 62
7
  6
CONTINUOUS
  7
STANDARD
 71
2
 72
1
 10
14.205
 20
1.967
 30
0.0
 11
1.0
 21
0.0
 31
0.0
  1
K50A FF/LP PICK-TO-LIGHT QD\PWEB CAD DRAWINGS 2D/3D
 40
0.1
 41
2.7
  0
TEXT
  5
476
100
AcDbEntity
  8
NOTES
100
AcDbText
 62
2
  6
CONTINUOUS
 10
9.3674712025
 20
4.5755759494
  7
STANDARD
 40
0.1
  1
M12 X 1
 41
1.0
 72
0
100
AcDbText
  0
LINE
  5
477
100
AcDbEntity
  8
NOTES
100
AcDbLine
 62
2
  6
CONTINUOUS
 10
8.6138849823
 20
5.517442792
 11
9.1174712025
 21
4.6255759494
  0
LINE
  5
478
100
AcDbEntity
  8
NOTES
100
AcDbLine
 62
2
  6
CONTINUOUS
 10
9.1174712025
 20
4.6255759494
 11
9.3674712025
 21
4.6255759494
  0
SOLID
  5
479
100
AcDbEntity
  8
NOTES
100
AcDbTrace
 62
2
  6
CONTINUOUS
 10
8.7332863971
 20
5.3695370293
 11
8.6138849823
 21
5.517442792
 12
8.67886283
 22
5.3388071522
 13
8.67886283
 23
5.3388071522
  0
TEXT
  5
47A
100
AcDbEntity
  8
NOTES
100
AcDbText
 62
2
  6
CONTINUOUS
 10
8.8468838608
 20
4.1386544304
  7
STANDARD
 40
0.1
  1
M30 X 1.5
 41
1.0
 72
0
100
AcDbText
  0
LINE
  5
47B
100
AcDbEntity
  8
NOTES
100
AcDbLine
 62
2
  6
CONTINUOUS
 10
8.0941826798
 20
5.2083152939
 11
8.5968838608
 21
4.1886544304
  0
LINE
  5
47C
100
AcDbEntity
  8
NOTES
100
AcDbLine
 62
2
  6
CONTINUOUS
 10
8.5968838608
 20
4.1886544304
 11
8.8468838608
 21
4.1886544304
  0
SOLID
  5
47D
100
AcDbEntity
  8
NOTES
100
AcDbTrace
 62
2
  6
CONTINUOUS
 10
8.2051220459
 20
5.0539609303
 11
8.0941826798
 21
5.2083152939
 12
8.1490644488
 22
5.0263240745
 13
8.1490644488
 23
5.0263240745
  0
MTEXT
  5
47E
100
AcDbEntity
  8
NOTES
100
AcDbMText
 62
2
  6
CONTINUOUS
  7
STANDARD
 71
2
 72
1
 10
15.0046182753
 20
7.0720664459
 30
0.0
 11
1.0
 21
0.0
 31
0.0
  1
ISOMETRIC VIEW\P\H0.1;SCALE  1:1
 40
0.12
 41
1.68
  0
LINE
  5
47F
100
AcDbEntity
  8
0
100
AcDbLine
 62
2
  6
CONTINUOUS
 10
0.47
 20
5.586103
 11
0.47
 21
5.412897
  0
LINE
  5
480
100
AcDbEntity
  8
0
100
AcDbLine
 62
2
  6
CONTINUOUS
 10
0.62
 20
10.112
 11
0.62
 21
0.887
  0
LINE
  5
481
100
AcDbEntity
  8
0
100
AcDbLine
 62
2
  6
CONTINUOUS
 10
2.59
 20
0.887
 11
2.59
 21
0.637
  0
LINE
  5
482
100
AcDbEntity
  8
0
100
AcDbLine
 62
2
  6
CONTINUOUS
 10
2.59
 20
10.112
 11
2.59
 21
10.362
  0
LINE
  5
483
100
AcDbEntity
  8
0
100
AcDbLine
 62
2
  6
CONTINUOUS
 10
8.413397
 20
0.737
 11
8.586603
 21
0.737
  0
LINE
  5
484
100
AcDbEntity
  8
0
100
AcDbLine
 62
7
  6
CONTINUOUS
 10
11.1389508475
 20
1.425992839
 11
11.7453418475
 21
1.495385839
  0
LINE
  5
485
100
AcDbEntity
  8
0
100
AcDbLine
 62
2
  6
CONTINUOUS
 10
0.62
 20
0.887
 11
16.38
 21
0.887
  0
LINE
  5
486
100
AcDbEntity
  8
0
100
AcDbLine
 62
2
  6
CONTINUOUS
 10
12.03
 20
1.137
 11
16.38
 21
1.137
  0
LINE
  5
487
100
AcDbEntity
  8
0
100
AcDbLine
 62
7
  6
CONTINUOUS
 10
10.2121898475
 20
1.243294839
 11
10.4342808475
 21
1.243294839
  0
LINE
  5
488
100
AcDbEntity
  8
0
100
AcDbLine
 62
7
  6
CONTINUOUS
 10
10.4842808475
 20
1.243294839
 11
10.5842808475
 21
1.243294839
  0
LINE
  5
489
100
AcDbEntity
  8
0
100
AcDbLine
 62
7
  6
CONTINUOUS
 10
10.6342808475
 20
1.243294839
 11
10.8563718475
 21
1.243294839
  0
LINE
  5
48A
100
AcDbEntity
  8
0
100
AcDbLine
 62
7
  6
CONTINUOUS
 10
11.0389508475
 20
1.243294839
 11
11.3171028475
 21
1.243294839
  0
LINE
  5
48B
100
AcDbEntity
  8
0
100
AcDbLine
 62
7
  6
CONTINUOUS
 10
11.3671028475
 20
1.243294839
 11
11.5171888475
 21
1.243294839
  0
LINE
  5
48C
100
AcDbEntity
  8
0
100
AcDbLine
 62
7
  6
CONTINUOUS
 10
11.5671888475
 20
1.243294839
 11
11.8453418475
 21
1.243294839
  0
LINE
  5
48D
100
AcDbEntity
  8
0
100
AcDbLine
 62
7
  6
CONTINUOUS
 10
11.7453418475
 20
0.991203839
 11
11.1389508475
 21
1.060596839
  0
LINE
  5
48E
100
AcDbEntity
  8
0
100
AcDbLine
 62
2
  6
CONTINUOUS
 10
4.56
 20
0.887
 11
4.56
 21
0.637
  0
LINE
  5
48F
100
AcDbEntity
  8
0
100
AcDbLine
 62
2
  6
CONTINUOUS
 10
4.56
 20
10.112
 11
4.56
 21
10.362
  0
LINE
  5
490
100
AcDbEntity
  8
0
100
AcDbLine
 62
2
  6
CONTINUOUS
 10
0.47
 20
5.412897
 11
0.62
 21
5.4995
  0
LINE
  5
491
100
AcDbEntity
  8
0
100
AcDbLine
 62
2
  6
CONTINUOUS
 10
12.03
 20
1.507
 11
16.38
 21
1.507
  0
LINE
  5
492
100
AcDbEntity
  8
0
100
AcDbLine
 62
2
  6
CONTINUOUS
 10
10.03
 20
1.907
 11
12.03
 21
1.907
  0
LINE
  5
493
100
AcDbEntity
  8
0
100
AcDbLine
 62
2
  6
CONTINUOUS
 10
0.62
 20
5.4995
 11
0.47
 21
5.586103
  0
LINE
  5
494
100
AcDbEntity
  8
0
100
AcDbLine
 62
2
  6
CONTINUOUS
 10
12.03
 20
2.267
 11
16.38
 21
2.267
  0
LINE
  5
495
100
AcDbEntity
  8
0
100
AcDbLine
 62
2
  6
CONTINUOUS
 10
8.5
 20
10.112
 11
8.586603
 21
10.262
  0
LINE
  5
496
100
AcDbEntity
  8
0
100
AcDbLine
 62
2
  6
CONTINUOUS
 10
16.38
 20
2.807
 11
10.03
 21
2.807
  0
LINE
  5
497
100
AcDbEntity
  8
0
100
AcDbLine
 62
2
  6
CONTINUOUS
 10
0.62
 20
3.1995
 11
0.37
 21
3.1995
  0
LINE
  5
498
100
AcDbEntity
  8
0
100
AcDbLine
 62
2
  6
CONTINUOUS
 10
16.38
 20
3.1995
 11
16.63
 21
3.1995
  0
LINE
  5
499
100
AcDbEntity
  8
0
100
AcDbLine
 62
2
  6
CONTINUOUS
 10
8.586603
 20
0.737
 11
8.5
 21
0.887
  0
LINE
  5
49A
100
AcDbEntity
  8
0
100
AcDbLine
 62
2
  6
CONTINUOUS
 10
6.53
 20
0.887
 11
6.53
 21
0.637
  0
LINE
  5
49B
100
AcDbEntity
  8
0
100
AcDbLine
 62
2
  6
CONTINUOUS
 10
6.53
 20
10.112
 11
6.53
 21
10.362
  0
LINE
  5
49C
100
AcDbEntity
  8
0
100
AcDbLine
 62
2
  6
CONTINUOUS
 10
8.5
 20
0.887
 11
8.5
 21
0.637
  0
LINE
  5
49D
100
AcDbEntity
  8
0
100
AcDbLine
 62
2
  6
CONTINUOUS
 10
8.5
 20
10.112
 11
8.5
 21
10.362
  0
LINE
  5
49E
100
AcDbEntity
  8
0
100
AcDbLine
 62
2
  6
CONTINUOUS
 10
0.62
 20
5.4995
 11
0.37
 21
5.4995
  0
LINE
  5
49F
100
AcDbEntity
  8
0
100
AcDbLine
 62
2
  6
CONTINUOUS
 10
16.38
 20
5.4995
 11
16.63
 21
5.4995
  0
LINE
  5
4A0
100
AcDbEntity
  8
0
100
AcDbLine
 62
2
  6
CONTINUOUS
 10
10.03
 20
2.807
 11
10.03
 21
0.887
  0
LINE
  5
4A1
100
AcDbEntity
  8
0
100
AcDbLine
 62
2
  6
CONTINUOUS
 10
10.47
 20
0.887
 11
10.47
 21
0.637
  0
LINE
  5
4A2
100
AcDbEntity
  8
0
100
AcDbLine
 62
2
  6
CONTINUOUS
 10
10.47
 20
10.112
 11
10.47
 21
10.362
  0
LINE
  5
4A3
100
AcDbEntity
  8
0
100
AcDbLine
 62
7
  6
CONTINUOUS
 10
10.5342808475
 20
1.143294839
 11
10.5342808475
 21
0.921203839
  0
LINE
  5
4A4
100
AcDbEntity
  8
0
100
AcDbLine
 62
7
  6
CONTINUOUS
 10
10.5342808475
 20
1.193294839
 11
10.5342808475
 21
1.293294839
  0
LINE
  5
4A5
100
AcDbEntity
  8
0
100
AcDbLine
 62
7
  6
CONTINUOUS
 10
10.5342808475
 20
1.343294839
 11
10.5342808475
 21
1.565385839
  0
LINE
  5
4A6
100
AcDbEntity
  8
0
100
AcDbLine
 62
2
  6
CONTINUOUS
 10
8.5
 20
0.887
 11
8.413397
 21
0.737
  0
LINE
  5
4A7
100
AcDbEntity
  8
0
100
AcDbLine
 62
2
  6
CONTINUOUS
 10
0.62
 20
7.7995
 11
0.37
 21
7.7995
  0
LINE
  5
4A8
100
AcDbEntity
  8
0
100
AcDbLine
 62
2
  6
CONTINUOUS
 10
16.38
 20
7.7995
 11
16.63
 21
7.7995
  0
LINE
  5
4A9
100
AcDbEntity
  8
0
100
AcDbLine
 62
2
  6
CONTINUOUS
 10
8.413397
 20
10.262
 11
8.5
 21
10.112
  0
LINE
  5
4AA
100
AcDbEntity
  8
0
100
AcDbLine
 62
7
  6
CONTINUOUS
 10
11.1389508475
 20
1.060596839
 11
11.1389508475
 21
1.425992839
  0
LINE
  5
4AB
100
AcDbEntity
  8
0
100
AcDbLine
 62
7
  6
CONTINUOUS
 10
11.7453418475
 20
1.495385839
 11
11.7453418475
 21
0.991203839
  0
LINE
  5
4AC
100
AcDbEntity
  8
0
100
AcDbLine
 62
1
  6
CONTINUOUS
 10
12.03
 20
2.807
 11
12.03
 21
0.887
  0
LINE
  5
4AD
100
AcDbEntity
  8
0
100
AcDbLine
 62
2
  6
CONTINUOUS
 10
12.44
 20
0.887
 11
12.44
 21
0.637
  0
LINE
  5
4AE
100
AcDbEntity
  8
0
100
AcDbLine
 62
2
  6
CONTINUOUS
 10
12.44
 20
10.112
 11
12.44
 21
10.362
  0
LINE
  5
4AF
100
AcDbEntity
  8
0
100
AcDbLine
 62
2
  6
CONTINUOUS
 10
16.53
 20
5.586103
 11
16.38
 21
5.4995
  0
LINE
  5
4B0
100
AcDbEntity
  8
0
100
AcDbLine
 62
2
  6
CONTINUOUS
 10
16.38
 20
5.4995
 11
16.53
 21
5.412897
  0
LINE
  5
4B1
100
AcDbEntity
  8
0
100
AcDbLine
 62
2
  6
CONTINUOUS
 10
12.83
 20
1.507
 11
12.83
 21
1.137
  0
LINE
  5
4B2
100
AcDbEntity
  8
0
100
AcDbLine
 62
2
  6
CONTINUOUS
 10
16.38
 20
10.112
 11
0.62
 21
10.112
  0
LINE
  5
4B3
100
AcDbEntity
  8
0
100
AcDbLine
 62
2
  6
CONTINUOUS
 10
8.586603
 20
10.262
 11
8.413397
 21
10.262
  0
LINE
  5
4B4
100
AcDbEntity
  8
0
100
AcDbLine
 62
2
  6
CONTINUOUS
 10
14.205
 20
1.137
 11
14.205
 21
0.887
  0
LINE
  5
4B5
100
AcDbEntity
  8
0
100
AcDbLine
 62
2
  6
CONTINUOUS
 10
14.41
 20
0.887
 11
14.41
 21
0.637
  0
LINE
  5
4B6
100
AcDbEntity
  8
0
100
AcDbLine
 62
2
  6
CONTINUOUS
 10
14.41
 20
10.112
 11
14.41
 21
10.362
  0
LINE
  5
4B7
100
AcDbEntity
  8
0
100
AcDbLine
 62
2
  6
CONTINUOUS
 10
15.58
 20
1.507
 11
15.58
 21
1.137
  0
LINE
  5
4B8
100
AcDbEntity
  8
0
100
AcDbLine
 62
2
  6
CONTINUOUS
 10
16.38
 20
0.887
 11
16.38
 21
10.112
  0
LINE
  5
4B9
100
AcDbEntity
  8
0
100
AcDbLine
 62
2
  6
CONTINUOUS
 10
16.53
 20
5.412897
 11
16.53
 21
5.586103
  0
LINE
  5
4BA
100
AcDbEntity
  8
02___PRT_ALL_AXES
100
AcDbLine
 62
7
  6
CENTER
 10
3.3934434335
 20
5.7496538766
 11
3.3934434335
 21
4.6654019081
  0
LINE
  5
4BB
100
AcDbEntity
  8
02___PRT_ALL_AXES
100
AcDbLine
 62
7
  6
CENTER
 10
3.3934434335
 20
5.7496538766
 11
3.3934434335
 21
6.8339058451
  0
LINE
  5
4BC
100
AcDbEntity
  8
DATUM_CURVES
100
AcDbLine
 62
40
  6
CONTINUOUS
 10
3.0934437153
 20
5.7496538766
 11
3.0893674563
 21
5.7496538766
  0
LINE
  5
4BD
100
AcDbEntity
  8
02___PRT_ALL_AXES
100
AcDbLine
 62
7
  6
CENTER
 10
3.3934434335
 20
5.7496538766
 11
2.309191465
 21
5.7496538766
  0
LINE
  5
4BE
100
AcDbEntity
  8
02___PRT_ALL_AXES
100
AcDbLine
 62
7
  6
CENTER
 10
3.3934434335
 20
5.7496538766
 11
4.477695402
 21
5.7496538766
  0
LINE
  5
4BF
100
AcDbEntity
  8
DATUM_CURVES
100
AcDbLine
 62
40
  6
CONTINUOUS
 10
3.6934431518
 20
5.7496538766
 11
3.6975194107
 21
5.7496538766
  0
LINE
  5
4C0
100
AcDbEntity
  8
02___PRT_ALL_AXES
100
AcDbLine
 62
7
  6
CONTINUOUS
 10
6.1446647908
 20
6.0547719868
 11
6.1446647908
 21
5.4445357663
  0
LINE
  5
4C1
100
AcDbEntity
  8
02___PRT_ALL_AXES
100
AcDbLine
 62
7
  6
CONTINUOUS
 10
7.0804291181
 20
4.7654019081
 11
7.552870063
 21
4.7654019081
  0
LINE
  5
4C2
100
AcDbEntity
  8
0
100
AcDbLine
 62
7
  6
CONTINUOUS
 10
7.6316102205
 20
5.2083152939
 11
7.7139508175
 21
5.2083152939
  0
LINE
  5
4C3
100
AcDbEntity
  8
02___PRT_ALL_AXES
100
AcDbLine
 62
7
  6
CONTINUOUS
 10
7.7139508175
 20
5.2083152939
 11
8.2937433562
 21
5.2083152939
  0
LINE
  5
4C4
100
AcDbEntity
  8
0
100
AcDbLine
 62
7
  6
CONTINUOUS
 10
8.2937433562
 20
5.2083152939
 11
8.3402716378
 21
5.2083152939
  0
LINE
  5
4C5
100
AcDbEntity
  8
02___PRT_ALL_AXES
100
AcDbLine
 62
7
  6
CONTINUOUS
 10
7.0804291181
 20
6.7339058451
 11
7.0804291181
 21
4.7654019081
  0
LINE
  5
4C6
100
AcDbEntity
  8
02___PRT_ALL_AXES
100
AcDbLine
 62
7
  6
CONTINUOUS
 10
8.3948222592
 20
5.505382223
 11
8.4190117953
 21
5.505382223
  0
LINE
  5
4C7
100
AcDbEntity
  8
02___PRT_ALL_AXES
100
AcDbLine
 62
7
  6
CONTINUOUS
 10
8.4544448661
 20
5.505382223
 11
8.458381874
 21
5.505382223
  0
LINE
  5
4C8
100
AcDbEntity
  8
02___PRT_ALL_AXES
100
AcDbLine
 62
7
  6
CONTINUOUS
 10
8.4938149449
 20
5.505382223
 11
8.4977519527
 21
5.505382223
  0
LINE
  5
4C9
100
AcDbEntity
  8
02___PRT_ALL_AXES
100
AcDbLine
 62
7
  6
CONTINUOUS
 10
8.5331850236
 20
5.505382223
 11
8.5371220315
 21
5.505382223
  0
LINE
  5
4CA
100
AcDbEntity
  8
02___PRT_ALL_AXES
100
AcDbLine
 62
7
  6
CONTINUOUS
 10
8.5725551023
 20
5.505382223
 11
8.5764921102
 21
5.505382223
  0
LINE
  5
4CB
100
AcDbEntity
  8
02___PRT_ALL_AXES
100
AcDbLine
 62
7
  6
CONTINUOUS
 10
8.6119251811
 20
5.505382223
 11
8.615862189
 21
5.505382223
  0
LINE
  5
4CC
100
AcDbEntity
  8
02___PRT_ALL_AXES
100
AcDbLine
 62
7
  6
CONTINUOUS
 10
8.6512952598
 20
5.505382223
 11
8.6552322677
 21
5.505382223
  0
LINE
  5
4CD
100
AcDbEntity
  8
02___PRT_ALL_AXES
100
AcDbLine
 62
7
  6
CONTINUOUS
 10
8.6906653386
 20
5.505382223
 11
8.6946023464
 21
5.505382223
  0
LINE
  5
4CE
100
AcDbEntity
  8
02___PRT_ALL_AXES
100
AcDbLine
 62
7
  6
CONTINUOUS
 10
8.7300354173
 20
5.505382223
 11
8.7339724252
 21
5.505382223
  0
LINE
  5
4CF
100
AcDbEntity
  8
0
100
AcDbLine
 62
7
  6
CONTINUOUS
 10
8.7733425039
 20
5.5459137191
 11
8.8127125827
 21
5.5459137191
  0
LINE
  5
4D0
100
AcDbEntity
  8
02___PRT_ALL_AXES
100
AcDbLine
 62
7
  6
CENTER
 10
8.9036585443
 20
5.7496538766
 11
5.9939471519
 21
5.7496538766
  0
LINE
  5
4D1
100
AcDbEntity
  8
0
100
AcDbLine
 62
9
  6
CONTINUOUS
 10
7.552870063
 20
4.7654019081
 11
7.552870063
 21
6.7339058451
  0
LINE
  5
4D2
100
AcDbEntity
  8
0
100
AcDbLine
 62
7
  6
CONTINUOUS
 10
7.5922401417
 20
4.8047719868
 11
7.5922401417
 21
6.6945357663
  0
LWPOLYLINE
  5
4D3
100
AcDbEntity
  8
02___PRT_ALL_AXES
100
AcDbPolyline
 62
7
  6
CONTINUOUS
 90
16
 70
0
 10
7.7324700814
 20
5.2083152939
 10
7.7309971656
 20
5.2502183657
 10
7.7295242497
 20
5.3043617063
 10
7.7280513339
 20
5.3694183596
 10
7.726578418
 20
5.4437939036
 10
7.7251055022
 20
5.5256655272
 10
7.7236325863
 20
5.6130267036
 10
7.7221596705
 20
5.703736367
 10
7.7206867547
 20
5.7955713862
 10
7.7192138388
 20
5.8862810496
 10
7.717740923
 20
5.973642226
 10
7.7162680071
 20
6.0555138495
 10
7.7147950913
 20
6.1298893936
 10
7.7133221754
 20
6.1949460469
 10
7.7118492596
 20
6.2490893875
 10
7.7103763437
 20
6.2909924593
  0
LWPOLYLINE
  5
4D4
100
AcDbEntity
  8
02___PRT_ALL_AXES
100
AcDbPolyline
 62
7
  6
CONTINUOUS
 90
10
 70
0
 10
7.6995171247
 20
5.8342795896
 10
7.7023893912
 20
5.6664958982
 10
7.70382534
 20
5.5845434514
 10
7.7052662771
 20
5.5061749055
 10
7.7067254992
 20
5.432640019
 10
7.7081868485
 20
5.3666413528
 10
7.7096315965
 20
5.3104706557
 10
7.7110606738
 20
5.2650939025
 10
7.7125009923
 20
5.2306753952
 10
7.7139508175
 20
5.2083152939
  0
LINE
  5
4D5
100
AcDbEntity
  8
0
100
AcDbLine
 62
9
  6
CONTINUOUS
 10
7.6316102205
 20
6.2909924593
 11
7.6316102205
 21
5.2083152939
  0
LINE
  5
4D6
100
AcDbEntity
  8
0
100
AcDbLine
 62
7
  6
CONTINUOUS
 10
8.7452155324
 20
5.9863713456
 11
8.7453973418
 21
5.9864376754
  0
LINE
  5
4D7
100
AcDbEntity
  8
0
100
AcDbLine
 62
7
  6
CONTINUOUS
 10
8.7733425039
 20
5.9533940341
 11
8.8127125827
 21
5.9533940341
  0
LINE
  5
4D8
100
AcDbEntity
  8
0
100
AcDbLine
 62
7
  6
CONTINUOUS
 10
8.7576852626
 20
5.5254198773
 11
8.7578771556
 21
5.5253498944
  0
LWPOLYLINE
  5
4D9
100
AcDbEntity
  8
02___PRT_ALL_AXES
100
AcDbPolyline
 62
7
  6
CONTINUOUS
 90
9
 70
0
 10
7.6879810217
 20
6.2909924593
 10
7.6894151416
 20
6.2689418294
 10
7.6908470046
 20
6.2348874981
 10
7.6922809765
 20
6.1895188558
 10
7.6937250922
 20
6.1335046754
 10
7.6951863861
 20
6.0676242558
 10
7.6966457035
 20
5.9941770868
 10
7.6980868304
 20
5.915864411
 10
7.6995171247
 20
5.8342795896
  0
LWPOLYLINE
  5
4DA
100
AcDbEntity
  8
02___PRT_ALL_AXES
100
AcDbPolyline
 62
7
  6
CONTINUOUS
 90
10
 70
0
 10
7.7622472932
 20
5.2083152939
 10
7.7607974681
 20
5.2306753952
 10
7.7593571496
 20
5.2650939025
 10
7.7579280723
 20
5.3104706557
 10
7.7564833243
 20
5.3666413528
 10
7.755021975
 20
5.432640019
 10
7.7535627529
 20
5.5061749055
 10
7.7521218157
 20
5.5845434514
 10
7.7506858669
 20
5.6664958982
 10
7.7478136004
 20
5.8342795896
  0
LWPOLYLINE
  5
4DB
100
AcDbEntity
  8
02___PRT_ALL_AXES
100
AcDbPolyline
 62
7
  6
CONTINUOUS
 90
9
 70
0
 10
7.7470361398
 20
6.2909924593
 10
7.7484968135
 20
6.2684177411
 10
7.7499530158
 20
6.2334647687
 10
7.7513912799
 20
6.1875611201
 10
7.7528246235
 20
6.1316312859
 10
7.7542603805
 20
6.0667194229
 10
7.7556895012
 20
5.9947718667
 10
7.7571203895
 20
5.9170694061
 10
7.7585617091
 20
5.8348899392
  0
LWPOLYLINE
  5
4DC
100
AcDbEntity
  8
02___PRT_ALL_AXES
100
AcDbPolyline
 62
7
  6
CONTINUOUS
 90
9
 70
0
 10
7.8213024113
 20
5.2083152939
 10
7.8198417591
 20
5.2308895875
 10
7.8183854995
 20
5.2658439896
 10
7.8169471699
 20
5.311750243
 10
7.815513655
 20
5.3676879929
 10
7.8140775177
 20
5.4326196486
 10
7.8126484581
 20
5.5045669731
 10
7.8112177281
 20
5.5822625731
 10
7.8097764666
 20
5.6644395665
  0
LWPOLYLINE
  5
4DD
100
AcDbEntity
  8
02___PRT_ALL_AXES
100
AcDbPolyline
 62
7
  6
CONTINUOUS
 90
16
 70
0
 10
7.7398519712
 20
5.2083152939
 10
7.7383790553
 20
5.2502183657
 10
7.7369061395
 20
5.3043617063
 10
7.7354332236
 20
5.3694183596
 10
7.7339603078
 20
5.4437939036
 10
7.732487392
 20
5.5256655272
 10
7.7310144761
 20
5.6130267036
 10
7.7295415603
 20
5.703736367
 10
7.7280686444
 20
5.7955713862
 10
7.7265957286
 20
5.8862810496
 10
7.7251228127
 20
5.973642226
 10
7.7236498969
 20
6.0555138495
 10
7.722176981
 20
6.1298893936
 10
7.7207040652
 20
6.1949460469
 10
7.7192311494
 20
6.2490893875
 10
7.7177582335
 20
6.2909924593
  0
LWPOLYLINE
  5
4DE
100
AcDbEntity
  8
02___PRT_ALL_AXES
100
AcDbPolyline
 62
7
  6
CONTINUOUS
 90
16
 70
0
 10
7.7915251995
 20
5.2083152939
 10
7.7900522837
 20
5.2502183657
 10
7.7885793678
 20
5.3043617063
 10
7.787106452
 20
5.3694183596
 10
7.7856335361
 20
5.4437939036
 10
7.7841606203
 20
5.5256655272
 10
7.7826877045
 20
5.6130267036
 10
7.7812147886
 20
5.703736367
 10
7.7797418728
 20
5.7955713862
 10
7.7782689569
 20
5.8862810496
 10
7.7767960411
 20
5.973642226
 10
7.7753231252
 20
6.0555138495
 10
7.7738502094
 20
6.1298893936
 10
7.7723772935
 20
6.1949460469
 10
7.7709043777
 20
6.2490893875
 10
7.7694314619
 20
6.2909924593
  0
LWPOLYLINE
  5
4DF
100
AcDbEntity
  8
02___PRT_ALL_AXES
100
AcDbPolyline
 62
7
  6
CONTINUOUS
 90
5
 70
0
 10
7.7989070893
 20
5.2083152939
 10
7.7974341734
 20
5.2502183657
 10
7.7959612576
 20
5.3043617063
 10
7.7944883418
 20
5.3694183596
 10
7.7930154259
 20
5.4437939036
  0
LWPOLYLINE
  5
4E0
100
AcDbEntity
  8
02___PRT_ALL_AXES
100
AcDbPolyline
 62
7
  6
CONTINUOUS
 90
4
 70
0
 10
7.7930154259
 20
5.4437939036
 10
7.7915425101
 20
5.5256655272
 10
7.7900695942
 20
5.6130267036
 10
7.7885966784
 20
5.703736367
  0
LWPOLYLINE
  5
4E1
100
AcDbEntity
  8
02___PRT_ALL_AXES
100
AcDbPolyline
 62
7
  6
CONTINUOUS
 90
9
 70
0
 10
7.7478136004
 20
5.8342795896
 10
7.7463833062
 20
5.915864411
 10
7.7449421792
 20
5.9941770868
 10
7.7434828619
 20
6.0676242558
 10
7.742021568
 20
6.1335046754
 10
7.7405774523
 20
6.1895188558
 10
7.7391434804
 20
6.2348874981
 10
7.7377116174
 20
6.2689418294
 10
7.7362774975
 20
6.2909924593
  0
LWPOLYLINE
  5
4E2
100
AcDbEntity
  8
02___PRT_ALL_AXES
100
AcDbPolyline
 62
7
  6
CONTINUOUS
 90
9
 70
0
 10
7.8205240981
 20
5.6650775691
 10
7.8219546459
 20
5.5834768386
 10
7.823395938
 20
5.5051534733
 10
7.8248554067
 20
5.431697029
 10
7.8263167717
 20
5.3658119769
 10
7.8277609351
 20
5.3097946851
 10
7.8291948698
 20
5.2644258468
 10
7.8306265379
 20
5.2303737073
 10
7.8320610537
 20
5.2083152939
  0
LWPOLYLINE
  5
4E3
100
AcDbEntity
  8
02___PRT_ALL_AXES
100
AcDbPolyline
 62
7
  6
CONTINUOUS
 90
10
 70
0
 10
7.7585617091
 20
5.8348899392
 10
7.7614799908
 20
5.6644395665
 10
7.7629212523
 20
5.5822625731
 10
7.7643519823
 20
5.5045669731
 10
7.765781042
 20
5.4326196486
 10
7.7672171792
 20
5.3676879929
 10
7.7686506941
 20
5.311750243
 10
7.7700890238
 20
5.2658439896
 10
7.7715452833
 20
5.2308895875
 10
7.7730059356
 20
5.2083152939
  0
LWPOLYLINE
  5
4E4
100
AcDbEntity
  8
02___PRT_ALL_AXES
100
AcDbPolyline
 62
7
  6
CONTINUOUS
 90
10
 70
0
 10
7.8097764666
 20
5.6644395665
 10
7.8068581849
 20
5.8348899392
 10
7.8054168652
 20
5.9170694061
 10
7.803985977
 20
5.9947718667
 10
7.8025568563
 20
6.0667194229
 10
7.8011210993
 20
6.1316312859
 10
7.7996877557
 20
6.1875611201
 10
7.7982494916
 20
6.2334647687
 10
7.7967932893
 20
6.2684177411
 10
7.7953326156
 20
6.2909924593
  0
LWPOLYLINE
  5
4E5
100
AcDbEntity
  8
02___PRT_ALL_AXES
100
AcDbPolyline
 62
7
  6
CONTINUOUS
 90
9
 70
0
 10
7.7885966784
 20
5.703736367
 10
7.7871237625
 20
5.7955713862
 10
7.7856508467
 20
5.8862810496
 10
7.7841779308
 20
5.973642226
 10
7.782705015
 20
6.0555138495
 10
7.7812320992
 20
6.1298893936
 10
7.7797591833
 20
6.1949460469
 10
7.7782862675
 20
6.2490893875
 10
7.7768133516
 20
6.2909924593
  0
LINE
  5
4E6
100
AcDbEntity
  8
02___PRT_ALL_AXES
100
AcDbLine
 62
7
  6
CONTINUOUS
 10
8.3948222592
 20
5.9939255301
 11
8.3993267559
 21
5.9939255301
  0
LINE
  5
4E7
100
AcDbEntity
  8
02___PRT_ALL_AXES
100
AcDbLine
 62
7
  6
CONTINUOUS
 10
8.4347598268
 20
5.9939255301
 11
8.4386968346
 21
5.9939255301
  0
LINE
  5
4E8
100
AcDbEntity
  8
02___PRT_ALL_AXES
100
AcDbLine
 62
7
  6
CONTINUOUS
 10
8.4741299055
 20
5.9939255301
 11
8.4780669134
 21
5.9939255301
  0
LINE
  5
4E9
100
AcDbEntity
  8
02___PRT_ALL_AXES
100
AcDbLine
 62
7
  6
CONTINUOUS
 10
8.5134999842
 20
5.9939255301
 11
8.5174369921
 21
5.9939255301
  0
LINE
  5
4EA
100
AcDbEntity
  8
02___PRT_ALL_AXES
100
AcDbLine
 62
7
  6
CONTINUOUS
 10
8.552870063
 20
5.9939255301
 11
8.5568070708
 21
5.9939255301
  0
LINE
  5
4EB
100
AcDbEntity
  8
02___PRT_ALL_AXES
100
AcDbLine
 62
7
  6
CONTINUOUS
 10
8.5922401417
 20
5.9939255301
 11
8.5961771496
 21
5.9939255301
  0
LINE
  5
4EC
100
AcDbEntity
  8
02___PRT_ALL_AXES
100
AcDbLine
 62
7
  6
CONTINUOUS
 10
8.6316102205
 20
5.9939255301
 11
8.6355472283
 21
5.9939255301
  0
LINE
  5
4ED
100
AcDbEntity
  8
02___PRT_ALL_AXES
100
AcDbLine
 62
7
  6
CONTINUOUS
 10
8.6709802992
 20
5.9939255301
 11
8.6749173071
 21
5.9939255301
  0
LINE
  5
4EE
100
AcDbEntity
  8
02___PRT_ALL_AXES
100
AcDbLine
 62
7
  6
CONTINUOUS
 10
8.7103503779
 20
5.9939255301
 11
8.7142873858
 21
5.9939255301
  0
LWPOLYLINE
  5
4EF
100
AcDbEntity
  8
02___PRT_ALL_AXES
100
AcDbPolyline
 62
7
  6
CONTINUOUS
 90
9
 70
0
 10
7.8803575294
 20
5.2083152939
 10
7.8789230136
 20
5.2303737073
 10
7.8774913455
 20
5.2644258468
 10
7.8760574108
 20
5.3097946851
 10
7.8746132475
 20
5.3658119769
 10
7.8731518825
 20
5.431697029
 10
7.8716924137
 20
5.5051534733
 10
7.8702511217
 20
5.5834768386
 10
7.8688205739
 20
5.6650775691
  0
LWPOLYLINE
  5
4F0
100
AcDbEntity
  8
02___PRT_ALL_AXES
100
AcDbPolyline
 62
7
  6
CONTINUOUS
 90
10
 70
0
 10
7.8060912579
 20
6.2909924593
 10
7.8075407199
 20
6.2686395304
 10
7.8089805068
 20
6.2342388541
 10
7.8104096563
 20
6.1888662417
 10
7.8118545778
 20
6.1326937699
 10
7.813316061
 20
6.0666924451
 10
7.8147753395
 20
5.9931569812
 10
7.8162163303
 20
5.9147869659
 10
7.817652235
 20
5.8328378985
 10
7.8205240981
 20
5.6650775691
  0
LWPOLYLINE
  5
4F1
100
AcDbEntity
  8
02___PRT_ALL_AXES
100
AcDbPolyline
 62
7
  6
CONTINUOUS
 90
10
 70
0
 10
7.865146376
 20
6.2909924593
 10
7.8666050332
 20
6.2684576851
 10
7.8680592096
 20
6.233578296
 10
7.8694960687
 20
6.1877550435
 10
7.8709331663
 20
6.1317028726
 10
7.8723810258
 20
6.0662199182
 10
7.8738210897
 20
5.9936497078
 10
7.8752466686
 20
5.9161728044
 10
7.8766863637
 20
5.8340544747
 10
7.8796006373
 20
5.6638364709
  0
LWPOLYLINE
  5
4F2
100
AcDbEntity
  8
02___PRT_ALL_AXES
100
AcDbPolyline
 62
7
  6
CONTINUOUS
 90
9
 70
0
 10
7.9394126476
 20
5.2083152939
 10
7.9379540085
 20
5.230849709
 10
7.9364996865
 20
5.2657330369
 10
7.9350637769
 20
5.3115234575
 10
7.933637347
 20
5.3671194957
 10
7.9322078073
 20
5.4316583909
 10
7.930769059
 20
5.5040227007
 10
7.9293361018
 20
5.5818079642
 10
7.9278971131
 20
5.6638364709
  0
LWPOLYLINE
  5
4F3
100
AcDbEntity
  8
02___PRT_ALL_AXES
100
AcDbPolyline
 62
7
  6
CONTINUOUS
 90
16
 70
0
 10
7.8505803176
 20
5.2083152939
 10
7.8491074018
 20
5.2502183657
 10
7.8476344859
 20
5.3043617063
 10
7.8461615701
 20
5.3694183596
 10
7.8446886543
 20
5.4437939036
 10
7.8432157384
 20
5.5256655272
 10
7.8417428226
 20
5.6130267036
 10
7.8402699067
 20
5.703736367
 10
7.8387969909
 20
5.7955713862
 10
7.837324075
 20
5.8862810496
 10
7.8358511592
 20
5.973642226
 10
7.8343782433
 20
6.0555138495
 10
7.8329053275
 20
6.1298893936
 10
7.8314324117
 20
6.1949460469
 10
7.8299594958
 20
6.2490893875
 10
7.82848658
 20
6.2909924593
  0
LWPOLYLINE
  5
4F4
100
AcDbEntity
  8
02___PRT_ALL_AXES
100
AcDbPolyline
 62
7
  6
CONTINUOUS
 90
16
 70
0
 10
7.8579622074
 20
5.2083152939
 10
7.8564892916
 20
5.2502183657
 10
7.8550163757
 20
5.3043617063
 10
7.8535434599
 20
5.3694183596
 10
7.852070544
 20
5.4437939036
 10
7.8505976282
 20
5.5256655272
 10
7.8491247123
 20
5.6130267036
 10
7.8476517965
 20
5.703736367
 10
7.8461788806
 20
5.7955713862
 10
7.8447059648
 20
5.8862810496
 10
7.843233049
 20
5.973642226
 10
7.8417601331
 20
6.0555138495
 10
7.8402872173
 20
6.1298893936
 10
7.8388143014
 20
6.1949460469
 10
7.8373413856
 20
6.2490893875
 10
7.8358684697
 20
6.2909924593
  0
LWPOLYLINE
  5
4F5
100
AcDbEntity
  8
02___PRT_ALL_AXES
100
AcDbPolyline
 62
7
  6
CONTINUOUS
 90
16
 70
0
 10
7.9096354357
 20
5.2083152939
 10
7.9081625199
 20
5.2502183657
 10
7.9066896041
 20
5.3043617063
 10
7.9052166882
 20
5.3694183596
 10
7.9037437724
 20
5.4437939036
 10
7.9022708565
 20
5.5256655272
 10
7.9007979407
 20
5.6130267036
 10
7.8993250248
 20
5.703736367
 10
7.897852109
 20
5.7955713862
 10
7.8963791931
 20
5.8862810496
 10
7.8949062773
 20
5.973642226
 10
7.8934333615
 20
6.0555138495
 10
7.8919604456
 20
6.1298893936
 10
7.8904875298
 20
6.1949460469
 10
7.8890146139
 20
6.2490893875
 10
7.8875416981
 20
6.2909924593
  0
LWPOLYLINE
  5
4F6
100
AcDbEntity
  8
02___PRT_ALL_AXES
100
AcDbPolyline
 62
7
  6
CONTINUOUS
 90
16
 70
0
 10
7.9170173255
 20
5.2083152939
 10
7.9155444097
 20
5.2502183657
 10
7.9140714938
 20
5.3043617063
 10
7.912598578
 20
5.3694183596
 10
7.9111256621
 20
5.4437939036
 10
7.9096527463
 20
5.5256655272
 10
7.9081798304
 20
5.6130267036
 10
7.9067069146
 20
5.703736367
 10
7.9052339988
 20
5.7955713862
 10
7.9037610829
 20
5.8862810496
 10
7.9022881671
 20
5.973642226
 10
7.9008152512
 20
6.0555138495
 10
7.8993423354
 20
6.1298893936
 10
7.8978694195
 20
6.1949460469
 10
7.8963965037
 20
6.2490893875
 10
7.8949235878
 20
6.2909924593
  0
LWPOLYLINE
  5
4F7
100
AcDbEntity
  8
02___PRT_ALL_AXES
100
AcDbPolyline
 62
7
  6
CONTINUOUS
 90
9
 70
0
 10
7.8796006373
 20
5.6638364709
 10
7.8810396261
 20
5.5818079642
 10
7.8824725832
 20
5.5040227007
 10
7.8839113315
 20
5.4316583909
 10
7.8853408713
 20
5.3671194957
 10
7.8867673012
 20
5.3115234575
 10
7.8882032107
 20
5.2657330369
 10
7.8896575327
 20
5.230849709
 10
7.8911161718
 20
5.2083152939
  0
LWPOLYLINE
  5
4F8
100
AcDbEntity
  8
02___PRT_ALL_AXES
100
AcDbPolyline
 62
7
  6
CONTINUOUS
 90
10
 70
0
 10
7.8688205739
 20
5.6650775691
 10
7.8659487107
 20
5.8328378985
 10
7.8645128061
 20
5.9147869659
 10
7.8630718153
 20
5.9931569812
 10
7.8616125368
 20
6.0666924451
 10
7.8601510536
 20
6.1326937699
 10
7.8587061321
 20
6.1888662417
 10
7.8572769826
 20
6.2342388541
 10
7.8558371957
 20
6.2686395304
 10
7.8543877337
 20
6.2909924593
  0
LWPOLYLINE
  5
4F9
100
AcDbEntity
  8
02___PRT_ALL_AXES
100
AcDbPolyline
 62
7
  6
CONTINUOUS
 90
10
 70
0
 10
7.9278971131
 20
5.6638364709
 10
7.9249828394
 20
5.8340544747
 10
7.9235431444
 20
5.9161728044
 10
7.9221175655
 20
5.9936497078
 10
7.9206775016
 20
6.0662199182
 10
7.9192296421
 20
6.1317028726
 10
7.9177925445
 20
6.1877550435
 10
7.9163556854
 20
6.233578296
 10
7.914901509
 20
6.2684576851
 10
7.9134428518
 20
6.2909924593
  0
LINE
  5
4FA
100
AcDbEntity
  8
0
100
AcDbLine
 62
7
  6
CONTINUOUS
 10
8.454166655
 20
5.5056229628
 11
8.4544448661
 21
5.505382223
  0
LWPOLYLINE
  5
4FB
100
AcDbEntity
  8
02___PRT_ALL_AXES
100
AcDbPolyline
 62
7
  6
CONTINUOUS
 90
9
 70
0
 10
7.9984677657
 20
5.2083152939
 10
7.9970350368
 20
5.230338583
 10
7.9955950736
 20
5.2646069986
 10
7.9941623278
 20
5.3099827348
 10
7.9927231594
 20
5.3658256252
 10
7.9912665484
 20
5.4314848725
 10
7.9898117806
 20
5.5046737028
 10
7.9883749189
 20
5.5827187558
 10
7.9869481576
 20
5.664072454
  0
LWPOLYLINE
  5
4FC
100
AcDbEntity
  8
02___PRT_ALL_AXES
100
AcDbPolyline
 62
7
  6
CONTINUOUS
 90
9
 70
0
 10
7.9832566123
 20
6.2909924593
 10
7.9846898833
 20
6.2689585144
 10
7.9861301301
 20
6.2346777524
 10
7.9875629222
 20
6.1892941748
 10
7.9890021116
 20
6.1334445392
 10
7.9904587139
 20
6.0677805263
 10
7.9919133776
 20
5.9945930595
 10
7.9933501302
 20
5.916551481
 10
7.9947773226
 20
5.8351714417
  0
LWPOLYLINE
  5
4FD
100
AcDbEntity
  8
02___PRT_ALL_AXES
100
AcDbPolyline
 62
7
  6
CONTINUOUS
 90
10
 70
0
 10
7.9242014941
 20
6.2909924593
 10
7.9256588461
 20
6.2684835272
 10
7.9271117657
 20
6.2336502001
 10
7.9285469984
 20
6.1879040477
 10
7.9299806768
 20
6.132024323
 10
7.9314330685
 20
6.0663675386
 10
7.9328849915
 20
5.993187719
 10
7.9343206366
 20
5.9151187123
 10
7.9357567974
 20
5.8331667991
 10
7.9386516818
 20
5.664072454
  0
LWPOLYLINE
  5
4FE
100
AcDbEntity
  8
02___PRT_ALL_AXES
100
AcDbPolyline
 62
7
  6
CONTINUOUS
 90
9
 70
0
 10
8.0575228838
 20
5.2083152939
 10
8.0560656005
 20
5.2308228654
 10
8.0546126627
 20
5.2656561358
 10
8.0531775107
 20
5.3113990408
 10
8.0517446613
 20
5.3672428796
 10
8.0502929851
 20
5.4328597951
 10
8.0488414166
 20
5.5060132364
 10
8.0474058599
 20
5.5840705355
 10
8.0459696691
 20
5.6660198885
  0
LWPOLYLINE
  5
4FF
100
AcDbEntity
  8
02___PRT_ALL_AXES
100
AcDbPolyline
 62
7
  6
CONTINUOUS
 90
16
 70
0
 10
7.9686905539
 20
5.2083152939
 10
7.967217638
 20
5.2502183657
 10
7.9657447222
 20
5.3043617063
 10
7.9642718063
 20
5.3694183596
 10
7.9627988905
 20
5.4437939036
 10
7.9613259746
 20
5.5256655272
 10
7.9598530588
 20
5.6130267036
 10
7.9583801429
 20
5.703736367
 10
7.9569072271
 20
5.7955713862
 10
7.9554343113
 20
5.8862810496
 10
7.9539613954
 20
5.973642226
 10
7.9524884796
 20
6.0555138495
 10
7.9510155637
 20
6.1298893936
 10
7.9495426479
 20
6.1949460469
 10
7.948069732
 20
6.2490893875
 10
7.9465968162
 20
6.2909924593
  0
LWPOLYLINE
  5
500
100
AcDbEntity
  8
02___PRT_ALL_AXES
100
AcDbPolyline
 62
7
  6
CONTINUOUS
 90
16
 70
0
 10
7.9760724436
 20
5.2083152939
 10
7.9745995278
 20
5.2502183657
 10
7.9731266119
 20
5.3043617063
 10
7.9716536961
 20
5.3694183596
 10
7.9701807802
 20
5.4437939036
 10
7.9687078644
 20
5.5256655272
 10
7.9672349486
 20
5.6130267036
 10
7.9657620327
 20
5.703736367
 10
7.9642891169
 20
5.7955713862
 10
7.962816201
 20
5.8862810496
 10
7.9613432852
 20
5.973642226
 10
7.9598703693
 20
6.0555138495
 10
7.9583974535
 20
6.1298893936
 10
7.9569245376
 20
6.1949460469
 10
7.9554516218
 20
6.2490893875
 10
7.9539787059
 20
6.2909924593
  0
LWPOLYLINE
  5
501
100
AcDbEntity
  8
02___PRT_ALL_AXES
100
AcDbPolyline
 62
7
  6
CONTINUOUS
 90
16
 70
0
 10
8.027745672
 20
5.2083152939
 10
8.0262727561
 20
5.2502183657
 10
8.0247998403
 20
5.3043617063
 10
8.0233269244
 20
5.3694183596
 10
8.0218540086
 20
5.4437939036
 10
8.0203810927
 20
5.5256655272
 10
8.0189081769
 20
5.6130267036
 10
8.0174352611
 20
5.703736367
 10
8.0159623452
 20
5.7955713862
 10
8.0144894294
 20
5.8862810496
 10
8.0130165135
 20
5.973642226
 10
8.0115435977
 20
6.0555138495
 10
8.0100706818
 20
6.1298893936
 10
8.008597766
 20
6.1949460469
 10
8.0071248501
 20
6.2490893875
 10
8.0056519343
 20
6.2909924593
  0
LWPOLYLINE
  5
502
100
AcDbEntity
  8
02___PRT_ALL_AXES
100
AcDbPolyline
 62
7
  6
CONTINUOUS
 90
7
 70
0
 10
8.0351275617
 20
5.2083152939
 10
8.0336546459
 20
5.2502183657
 10
8.03218173
 20
5.3043617063
 10
8.0307088142
 20
5.3694183596
 10
8.0292358984
 20
5.4437939036
 10
8.0277629825
 20
5.5256655272
 10
8.0262900667
 20
5.6130267036
  0
LWPOLYLINE
  5
503
100
AcDbEntity
  8
02___PRT_ALL_AXES
100
AcDbPolyline
 62
7
  6
CONTINUOUS
 90
9
 70
0
 10
7.9386516818
 20
5.664072454
 10
7.9400784432
 20
5.5827187558
 10
7.9415153049
 20
5.5046737028
 10
7.9429700727
 20
5.4314848725
 10
7.9444266836
 20
5.3658256252
 10
7.945865852
 20
5.3099827348
 10
7.9472985978
 20
5.2646069986
 10
7.948738561
 20
5.230338583
 10
7.9501712899
 20
5.2083152939
  0
LWPOLYLINE
  5
504
100
AcDbEntity
  8
02___PRT_ALL_AXES
100
AcDbPolyline
 62
7
  6
CONTINUOUS
 90
10
 70
0
 10
7.9869481576
 20
5.664072454
 10
7.9840532732
 20
5.8331667991
 10
7.9826171123
 20
5.9151187123
 10
7.9811814673
 20
5.993187719
 10
7.9797295443
 20
6.0663675386
 10
7.9782771525
 20
6.132024323
 10
7.9768434742
 20
6.1879040477
 10
7.9754082415
 20
6.2336502001
 10
7.9739553219
 20
6.2684835272
 10
7.9724979699
 20
6.2909924593
  0
LWPOLYLINE
  5
505
100
AcDbEntity
  8
02___PRT_ALL_AXES
100
AcDbPolyline
 62
7
  6
CONTINUOUS
 90
10
 70
0
 10
7.9947773226
 20
5.8351714417
 10
7.9976731933
 20
5.6660198885
 10
7.9991093842
 20
5.5840705355
 10
8.0005449408
 20
5.5060132364
 10
8.0019965093
 20
5.4328597951
 10
8.0034481855
 20
5.3672428796
 10
8.0048810349
 20
5.3113990408
 10
8.006316187
 20
5.2656561358
 10
8.0077691247
 20
5.2308228654
 10
8.009226408
 20
5.2083152939
  0
LWPOLYLINE
  5
506
100
AcDbEntity
  8
02___PRT_ALL_AXES
100
AcDbPolyline
 62
7
  6
CONTINUOUS
 90
10
 70
0
 10
8.0459696691
 20
5.6660198885
 10
8.0430737984
 20
5.8351714417
 10
8.041646606
 20
5.916551481
 10
8.0402098533
 20
5.9945930595
 10
8.0387551897
 20
6.0677805263
 10
8.0372985874
 20
6.1334445392
 10
8.035859398
 20
6.1892941748
 10
8.0344266059
 20
6.2346777524
 10
8.0329863591
 20
6.2689585144
 10
8.031553088
 20
6.2909924593
  0
LWPOLYLINE
  5
507
100
AcDbEntity
  8
02___PRT_ALL_AXES
100
AcDbPolyline
 62
7
  6
CONTINUOUS
 90
3
 70
0
 10
8.0262900667
 20
5.6130267036
 10
8.0248171508
 20
5.703736367
 10
8.023344235
 20
5.7955713862
  0
LWPOLYLINE
  5
508
100
AcDbEntity
  8
02___PRT_ALL_AXES
100
AcDbPolyline
 62
7
  6
CONTINUOUS
 90
8
 70
0
 10
8.023344235
 20
5.7955713862
 10
8.0218713191
 20
5.8862810496
 10
8.0203984033
 20
5.973642226
 10
8.0189254874
 20
6.0555138495
 10
8.0174525716
 20
6.1298893936
 10
8.0159796557
 20
6.1949460469
 10
8.0145067399
 20
6.2490893875
 10
8.0130338241
 20
6.2909924593
  0
LINE
  5
509
100
AcDbEntity
  8
0
100
AcDbLine
 62
7
  6
CONTINUOUS
 10
8.4738516944
 20
5.9936847904
 11
8.4741299055
 21
5.9939255301
  0
LINE
  5
50A
100
AcDbEntity
  8
0
100
AcDbLine
 62
7
  6
CONTINUOUS
 10
8.5132217731
 20
5.9936847904
 11
8.5134999842
 21
5.9939255301
  0
LINE
  5
50B
100
AcDbEntity
  8
0
100
AcDbLine
 62
7
  6
CONTINUOUS
 10
8.5525918519
 20
5.9936847904
 11
8.552870063
 21
5.9939255301
  0
LINE
  5
50C
100
AcDbEntity
  8
0
100
AcDbLine
 62
7
  6
CONTINUOUS
 10
8.5919619306
 20
5.9936847904
 11
8.5922401417
 21
5.9939255301
  0
LINE
  5
50D
100
AcDbEntity
  8
0
100
AcDbLine
 62
7
  6
CONTINUOUS
 10
7.6316102205
 20
6.2909924593
 11
7.6879810217
 21
6.2909924593
  0
LINE
  5
50E
100
AcDbEntity
  8
02___PRT_ALL_AXES
100
AcDbLine
 62
7
  6
CONTINUOUS
 10
7.6879810217
 20
6.2909924593
 11
8.2677735605
 21
6.2909924593
  0
LINE
  5
50F
100
AcDbEntity
  8
0
100
AcDbLine
 62
7
  6
CONTINUOUS
 10
8.2677735605
 20
6.2909924593
 11
8.3402716378
 21
6.2909924593
  0
LINE
  5
510
100
AcDbEntity
  8
0
100
AcDbLine
 62
7
  6
CONTINUOUS
 10
8.4935367338
 20
5.5056229628
 11
8.4938149449
 21
5.505382223
  0
LINE
  5
511
100
AcDbEntity
  8
0
100
AcDbLine
 62
7
  6
CONTINUOUS
 10
8.5329068125
 20
5.5056229628
 11
8.5331850236
 21
5.505382223
  0
LINE
  5
512
100
AcDbEntity
  8
0
100
AcDbLine
 62
7
  6
CONTINUOUS
 10
8.5722768913
 20
5.5056229628
 11
8.5725551023
 21
5.505382223
  0
LINE
  5
513
100
AcDbEntity
  8
0
100
AcDbLine
 62
7
  6
CONTINUOUS
 10
8.61164697
 20
5.5056229628
 11
8.6119251811
 21
5.505382223
  0
LWPOLYLINE
  5
514
100
AcDbEntity
  8
02___PRT_ALL_AXES
100
AcDbPolyline
 62
7
  6
CONTINUOUS
 90
9
 70
0
 10
8.1013668485
 20
6.2909924593
 10
8.1028009684
 20
6.2689418294
 10
8.1042328314
 20
6.2348874981
 10
8.1056668033
 20
6.1895188558
 10
8.107110919
 20
6.1335046754
 10
8.1085722129
 20
6.0676242558
 10
8.1100315302
 20
5.9941770868
 10
8.1114726572
 20
5.915864411
 10
8.1129029514
 20
5.8342795896
  0
LWPOLYLINE
  5
515
100
AcDbEntity
  8
02___PRT_ALL_AXES
100
AcDbPolyline
 62
7
  6
CONTINUOUS
 90
9
 70
0
 10
8.17563312
 20
5.2083152939
 10
8.1741832949
 20
5.2306753952
 10
8.1727429764
 20
5.2650939025
 10
8.1713138991
 20
5.3104706557
 10
8.1698691511
 20
5.3666413528
 10
8.1684078018
 20
5.432640019
 10
8.1669485797
 20
5.5061749055
 10
8.1655076425
 20
5.5845434514
 10
8.1640716937
 20
5.6664958982
  0
LWPOLYLINE
  5
516
100
AcDbEntity
  8
02___PRT_ALL_AXES
100
AcDbPolyline
 62
7
  6
CONTINUOUS
 90
9
 70
0
 10
8.0423117304
 20
6.2909924593
 10
8.0437702849
 20
6.2684597186
 10
8.0452244459
 20
6.2335816092
 10
8.0466601843
 20
6.1877991214
 10
8.0480863889
 20
6.1322153624
 10
8.0495161764
 20
6.0676682485
 10
8.0509551992
 20
5.995291338
 10
8.0523882083
 20
5.917503575
 10
8.0538271083
 20
5.8354803517
  0
LWPOLYLINE
  5
517
100
AcDbEntity
  8
02___PRT_ALL_AXES
100
AcDbPolyline
 62
7
  6
CONTINUOUS
 90
9
 70
0
 10
8.1165780019
 20
5.2083152939
 10
8.1151196049
 20
5.2308449149
 10
8.1136655565
 20
5.2657185597
 10
8.1122288356
 20
5.3115339772
 10
8.1107916331
 20
5.367587063
 10
8.1093434631
 20
5.4330825055
 10
8.107902832
 20
5.5056820341
 10
8.1064772101
 20
5.5831628573
 10
8.1050376476
 20
5.6652745264
  0
LWPOLYLINE
  5
518
100
AcDbEntity
  8
02___PRT_ALL_AXES
100
AcDbPolyline
 62
7
  6
CONTINUOUS
 90
16
 70
0
 10
8.0868007901
 20
5.2083152939
 10
8.0853278742
 20
5.2502183657
 10
8.0838549584
 20
5.3043617063
 10
8.0823820425
 20
5.3694183596
 10
8.0809091267
 20
5.4437939036
 10
8.0794362109
 20
5.5256655272
 10
8.077963295
 20
5.6130267036
 10
8.0764903792
 20
5.703736367
 10
8.0750174633
 20
5.7955713862
 10
8.0735445475
 20
5.8862810496
 10
8.0720716316
 20
5.973642226
 10
8.0705987158
 20
6.0555138495
 10
8.0691257999
 20
6.1298893936
 10
8.0676528841
 20
6.1949460469
 10
8.0661799683
 20
6.2490893875
 10
8.0647070524
 20
6.2909924593
  0
LWPOLYLINE
  5
519
100
AcDbEntity
  8
02___PRT_ALL_AXES
100
AcDbPolyline
 62
7
  6
CONTINUOUS
 90
16
 70
0
 10
8.0941826798
 20
5.2083152939
 10
8.092709764
 20
5.2502183657
 10
8.0912368482
 20
5.3043617063
 10
8.0897639323
 20
5.3694183596
 10
8.0882910165
 20
5.4437939036
 10
8.0868181006
 20
5.5256655272
 10
8.0853451848
 20
5.6130267036
 10
8.0838722689
 20
5.703736367
 10
8.0823993531
 20
5.7955713862
 10
8.0809264372
 20
5.8862810496
 10
8.0794535214
 20
5.973642226
 10
8.0779806055
 20
6.0555138495
 10
8.0765076897
 20
6.1298893936
 10
8.0750347739
 20
6.1949460469
 10
8.073561858
 20
6.2490893875
 10
8.0720889422
 20
6.2909924593
  0
LWPOLYLINE
  5
51A
100
AcDbEntity
  8
02___PRT_ALL_AXES
100
AcDbPolyline
 62
7
  6
CONTINUOUS
 90
16
 70
0
 10
8.1458559082
 20
5.2083152939
 10
8.1443829923
 20
5.2502183657
 10
8.1429100765
 20
5.3043617063
 10
8.1414371607
 20
5.3694183596
 10
8.1399642448
 20
5.4437939036
 10
8.138491329
 20
5.5256655272
 10
8.1370184131
 20
5.6130267036
 10
8.1355454973
 20
5.703736367
 10
8.1340725814
 20
5.7955713862
 10
8.1325996656
 20
5.8862810496
 10
8.1311267497
 20
5.973642226
 10
8.1296538339
 20
6.0555138495
 10
8.1281809181
 20
6.1298893936
 10
8.1267080022
 20
6.1949460469
 10
8.1252350864
 20
6.2490893875
 10
8.1237621705
 20
6.2909924593
  0
LWPOLYLINE
  5
51B
100
AcDbEntity
  8
02___PRT_ALL_AXES
100
AcDbPolyline
 62
7
  6
CONTINUOUS
 90
16
 70
0
 10
8.153237798
 20
5.2083152939
 10
8.1517648821
 20
5.2502183657
 10
8.1502919663
 20
5.3043617063
 10
8.1488190504
 20
5.3694183596
 10
8.1473461346
 20
5.4437939036
 10
8.1458732187
 20
5.5256655272
 10
8.1444003029
 20
5.6130267036
 10
8.142927387
 20
5.703736367
 10
8.1414544712
 20
5.7955713862
 10
8.1399815553
 20
5.8862810496
 10
8.1385086395
 20
5.973642226
 10
8.1370357237
 20
6.0555138495
 10
8.1355628078
 20
6.1298893936
 10
8.134089892
 20
6.1949460469
 10
8.1326169761
 20
6.2490893875
 10
8.1311440603
 20
6.2909924593
  0
LWPOLYLINE
  5
51C
100
AcDbEntity
  8
02___PRT_ALL_AXES
100
AcDbPolyline
 62
7
  6
CONTINUOUS
 90
10
 70
0
 10
8.0538271083
 20
5.8354803517
 10
8.0567411718
 20
5.6652745264
 10
8.0581807343
 20
5.5831628573
 10
8.0596063563
 20
5.5056820341
 10
8.0610469873
 20
5.4330825055
 10
8.0624951573
 20
5.367587063
 10
8.0639323599
 20
5.3115339772
 10
8.0653690808
 20
5.2657185597
 10
8.0668231291
 20
5.2308449149
 10
8.0682815261
 20
5.2083152939
  0
LWPOLYLINE
  5
51D
100
AcDbEntity
  8
02___PRT_ALL_AXES
100
AcDbPolyline
 62
7
  6
CONTINUOUS
 90
10
 70
0
 10
8.1050376476
 20
5.6652745264
 10
8.1021235841
 20
5.8354803517
 10
8.1006846841
 20
5.917503575
 10
8.099251675
 20
5.995291338
 10
8.0978126521
 20
6.0676682485
 10
8.0963828646
 20
6.1322153624
 10
8.0949566601
 20
6.1877991214
 10
8.0935209217
 20
6.2335816092
 10
8.0920667607
 20
6.2684597186
 10
8.0906082061
 20
6.2909924593
  0
LWPOLYLINE
  5
51E
100
AcDbEntity
  8
02___PRT_ALL_AXES
100
AcDbPolyline
 62
7
  6
CONTINUOUS
 90
10
 70
0
 10
8.1129029514
 20
5.8342795896
 10
8.1157752179
 20
5.6664958982
 10
8.1172111667
 20
5.5845434514
 10
8.1186521039
 20
5.5061749055
 10
8.120111326
 20
5.432640019
 10
8.1215726753
 20
5.3666413528
 10
8.1230174233
 20
5.3104706557
 10
8.1244465006
 20
5.2650939025
 10
8.1258868191
 20
5.2306753952
 10
8.1273366442
 20
5.2083152939
  0
LWPOLYLINE
  5
51F
100
AcDbEntity
  8
0
100
AcDbPolyline
 62
7
  6
CONTINUOUS
 90
3
 70
0
 10
8.4297334878
 20
5.9896364371
 10
8.4309096892
 20
5.991405873
 10
8.4347598268
 20
5.9939255301
  0
LINE
  5
520
100
AcDbEntity
  8
0
100
AcDbLine
 62
7
  6
CONTINUOUS
 10
8.6313320094
 20
5.9936847904
 11
8.6316102205
 21
5.9939255301
  0
LINE
  5
521
100
AcDbEntity
  8
0
100
AcDbLine
 62
7
  6
CONTINUOUS
 10
8.6707020881
 20
5.9936847904
 11
8.6709802992
 21
5.9939255301
  0
LINE
  5
522
100
AcDbEntity
  8
0
100
AcDbLine
 62
7
  6
CONTINUOUS
 10
8.7100721669
 20
5.9936847904
 11
8.7103503779
 21
5.9939255301
  0
LINE
  5
523
100
AcDbEntity
  8
0
100
AcDbLine
 62
7
  6
CONTINUOUS
 10
8.6510170487
 20
5.5056229628
 11
8.6512952598
 21
5.505382223
  0
LINE
  5
524
100
AcDbEntity
  8
0
100
AcDbLine
 62
7
  6
CONTINUOUS
 10
8.6903871275
 20
5.5056229628
 11
8.6906653386
 21
5.505382223
  0
LINE
  5
525
100
AcDbEntity
  8
0
100
AcDbLine
 62
7
  6
CONTINUOUS
 10
8.7300354288
 20
5.505382223
 11
8.7297572062
 21
5.5056229628
  0
LWPOLYLINE
  5
526
100
AcDbEntity
  8
02___PRT_ALL_AXES
100
AcDbPolyline
 62
7
  6
CONTINUOUS
 90
9
 70
0
 10
8.2937433562
 20
5.2083152939
 10
8.2923088404
 20
5.2303737073
 10
8.2908771723
 20
5.2644258468
 10
8.2894432376
 20
5.3097946851
 10
8.2879990742
 20
5.3658119769
 10
8.2865377093
 20
5.431697029
 10
8.2850782405
 20
5.5051534733
 10
8.2836369485
 20
5.5834768386
 10
8.2822064007
 20
5.6650775691
  0
LWPOLYLINE
  5
527
100
AcDbEntity
  8
02___PRT_ALL_AXES
100
AcDbPolyline
 62
7
  6
CONTINUOUS
 90
10
 70
0
 10
8.2194770847
 20
6.2909924593
 10
8.2209265467
 20
6.2686395304
 10
8.2223663336
 20
6.2342388541
 10
8.2237954831
 20
6.1888662417
 10
8.2252404046
 20
6.1326937699
 10
8.2267018878
 20
6.0666924451
 10
8.2281611663
 20
5.9931569812
 10
8.2296021571
 20
5.9147869659
 10
8.2310380617
 20
5.8328378985
 10
8.2339099249
 20
5.6650775691
  0
LWPOLYLINE
  5
528
100
AcDbEntity
  8
02___PRT_ALL_AXES
100
AcDbPolyline
 62
7
  6
CONTINUOUS
 90
9
 70
0
 10
8.1604219666
 20
6.2909924593
 10
8.1618826403
 20
6.2684177411
 10
8.1633388426
 20
6.2334647687
 10
8.1647771067
 20
6.1875611201
 10
8.1662104503
 20
6.1316312859
 10
8.1676462073
 20
6.0667194229
 10
8.169075328
 20
5.9947718667
 10
8.1705062162
 20
5.9170694061
 10
8.1719475359
 20
5.8348899392
  0
LWPOLYLINE
  5
529
100
AcDbEntity
  8
02___PRT_ALL_AXES
100
AcDbPolyline
 62
7
  6
CONTINUOUS
 90
9
 70
0
 10
8.2346882381
 20
5.2083152939
 10
8.2332275859
 20
5.2308895875
 10
8.2317713263
 20
5.2658439896
 10
8.2303329966
 20
5.311750243
 10
8.2288994818
 20
5.3676879929
 10
8.2274633445
 20
5.4326196486
 10
8.2260342849
 20
5.5045669731
 10
8.2246035548
 20
5.5822625731
 10
8.2231622934
 20
5.6644395665
  0
LWPOLYLINE
  5
52A
100
AcDbEntity
  8
02___PRT_ALL_AXES
100
AcDbPolyline
 62
7
  6
CONTINUOUS
 90
16
 70
0
 10
8.2049110263
 20
5.2083152939
 10
8.2034381105
 20
5.2502183657
 10
8.2019651946
 20
5.3043617063
 10
8.2004922788
 20
5.3694183596
 10
8.1990193629
 20
5.4437939036
 10
8.1975464471
 20
5.5256655272
 10
8.1960735312
 20
5.6130267036
 10
8.1946006154
 20
5.703736367
 10
8.1931276995
 20
5.7955713862
 10
8.1916547837
 20
5.8862810496
 10
8.1901818679
 20
5.973642226
 10
8.188708952
 20
6.0555138495
 10
8.1872360362
 20
6.1298893936
 10
8.1857631203
 20
6.1949460469
 10
8.1842902045
 20
6.2490893875
 10
8.1828172886
 20
6.2909924593
  0
LWPOLYLINE
  5
52B
100
AcDbEntity
  8
02___PRT_ALL_AXES
100
AcDbPolyline
 62
7
  6
CONTINUOUS
 90
16
 70
0
 10
8.2122929161
 20
5.2083152939
 10
8.2108200002
 20
5.2502183657
 10
8.2093470844
 20
5.3043617063
 10
8.2078741685
 20
5.3694183596
 10
8.2064012527
 20
5.4437939036
 10
8.2049283368
 20
5.5256655272
 10
8.203455421
 20
5.6130267036
 10
8.2019825051
 20
5.703736367
 10
8.2005095893
 20
5.7955713862
 10
8.1990366735
 20
5.8862810496
 10
8.1975637576
 20
5.973642226
 10
8.1960908418
 20
6.0555138495
 10
8.1946179259
 20
6.1298893936
 10
8.1931450101
 20
6.1949460469
 10
8.1916720942
 20
6.2490893875
 10
8.1901991784
 20
6.2909924593
  0
LWPOLYLINE
  5
52C
100
AcDbEntity
  8
02___PRT_ALL_AXES
100
AcDbPolyline
 62
7
  6
CONTINUOUS
 90
16
 70
0
 10
8.2639661444
 20
5.2083152939
 10
8.2624932286
 20
5.2502183657
 10
8.2610203127
 20
5.3043617063
 10
8.2595473969
 20
5.3694183596
 10
8.258074481
 20
5.4437939036
 10
8.2566015652
 20
5.5256655272
 10
8.2551286493
 20
5.6130267036
 10
8.2536557335
 20
5.703736367
 10
8.2521828177
 20
5.7955713862
 10
8.2507099018
 20
5.8862810496
 10
8.249236986
 20
5.973642226
 10
8.2477640701
 20
6.0555138495
 10
8.2462911543
 20
6.1298893936
 10
8.2448182384
 20
6.1949460469
 10
8.2433453226
 20
6.2490893875
 10
8.2418724067
 20
6.2909924593
  0
LWPOLYLINE
  5
52D
100
AcDbEntity
  8
02___PRT_ALL_AXES
100
AcDbPolyline
 62
7
  6
CONTINUOUS
 90
16
 70
0
 10
8.2713480342
 20
5.2083152939
 10
8.2698751183
 20
5.2502183657
 10
8.2684022025
 20
5.3043617063
 10
8.2669292866
 20
5.3694183596
 10
8.2654563708
 20
5.4437939036
 10
8.2639834549
 20
5.5256655272
 10
8.2625105391
 20
5.6130267036
 10
8.2610376233
 20
5.703736367
 10
8.2595647074
 20
5.7955713862
 10
8.2580917916
 20
5.8862810496
 10
8.2566188757
 20
5.973642226
 10
8.2551459599
 20
6.0555138495
 10
8.253673044
 20
6.1298893936
 10
8.2522001282
 20
6.1949460469
 10
8.2507272123
 20
6.2490893875
 10
8.2492542965
 20
6.2909924593
  0
LWPOLYLINE
  5
52E
100
AcDbEntity
  8
02___PRT_ALL_AXES
100
AcDbPolyline
 62
7
  6
CONTINUOUS
 90
9
 70
0
 10
8.2339099249
 20
5.6650775691
 10
8.2353404727
 20
5.5834768386
 10
8.2367817647
 20
5.5051534733
 10
8.2382412335
 20
5.431697029
 10
8.2397025985
 20
5.3658119769
 10
8.2411467618
 20
5.3097946851
 10
8.2425806965
 20
5.2644258468
 10
8.2440123646
 20
5.2303737073
 10
8.2454468804
 20
5.2083152939
  0
LWPOLYLINE
  5
52F
100
AcDbEntity
  8
02___PRT_ALL_AXES
100
AcDbPolyline
 62
7
  6
CONTINUOUS
 90
10
 70
0
 10
8.1640716937
 20
5.6664958982
 10
8.1611994272
 20
5.8342795896
 10
8.1597691329
 20
5.915864411
 10
8.158328006
 20
5.9941770868
 10
8.1568686887
 20
6.0676242558
 10
8.1554073948
 20
6.1335046754
 10
8.1539632791
 20
6.1895188558
 10
8.1525293071
 20
6.2348874981
 10
8.1510974441
 20
6.2689418294
 10
8.1496633242
 20
6.2909924593
  0
LWPOLYLINE
  5
530
100
AcDbEntity
  8
02___PRT_ALL_AXES
100
AcDbPolyline
 62
7
  6
CONTINUOUS
 90
10
 70
0
 10
8.1719475359
 20
5.8348899392
 10
8.1748658176
 20
5.6644395665
 10
8.1763070791
 20
5.5822625731
 10
8.1777378091
 20
5.5045669731
 10
8.1791668687
 20
5.4326196486
 10
8.180603006
 20
5.3676879929
 10
8.1820365209
 20
5.311750243
 10
8.1834748505
 20
5.2658439896
 10
8.1849311101
 20
5.2308895875
 10
8.1863917623
 20
5.2083152939
  0
LWPOLYLINE
  5
531
100
AcDbEntity
  8
02___PRT_ALL_AXES
100
AcDbPolyline
 62
7
  6
CONTINUOUS
 90
10
 70
0
 10
8.2231622934
 20
5.6644395665
 10
8.2202440116
 20
5.8348899392
 10
8.218802692
 20
5.9170694061
 10
8.2173718038
 20
5.9947718667
 10
8.2159426831
 20
6.0667194229
 10
8.2145069261
 20
6.1316312859
 10
8.2130735824
 20
6.1875611201
 10
8.2116353184
 20
6.2334647687
 10
8.210179116
 20
6.2684177411
 10
8.2087184424
 20
6.2909924593
  0
LINE
  5
532
100
AcDbEntity
  8
0
100
AcDbLine
 62
7
  6
CONTINUOUS
 10
8.4347598268
 20
5.9939255301
 11
8.4171227587
 21
5.9633772321
  0
LINE
  5
533
100
AcDbEntity
  8
0
100
AcDbLine
 62
7
  6
CONTINUOUS
 10
8.4738516944
 20
5.9936847904
 11
8.4564133699
 21
5.9635147038
  0
LINE
  5
534
100
AcDbEntity
  8
0
100
AcDbLine
 62
7
  6
CONTINUOUS
 10
8.5132217731
 20
5.9936847904
 11
8.4957834487
 21
5.9635147038
  0
LWPOLYLINE
  5
535
100
AcDbEntity
  8
0
100
AcDbPolyline
 62
7
  6
CONTINUOUS
 90
4
 70
0
 10
8.4297334878
 20
5.9896364371
 10
8.4277398984
 20
5.9862448864
 10
8.4211924062
 20
5.9751182747
 10
8.4160395288
 20
5.9663764043
  0
LWPOLYLINE
  5
536
100
AcDbEntity
  8
0
100
AcDbPolyline
 62
7
  6
CONTINUOUS
 90
3
 70
0
 10
8.7339724438
 20
5.505382223
 10
8.7341310674
 20
5.5054605092
 10
8.7342506363
 20
5.5056229628
  0
LINE
  5
537
100
AcDbEntity
  8
0
100
AcDbLine
 62
7
  6
CONTINUOUS
 10
8.3993267559
 20
5.9939255301
 11
8.4007618804
 21
5.992687929
  0
LINE
  5
538
100
AcDbEntity
  8
0
100
AcDbLine
 62
7
  6
CONTINUOUS
 10
8.4364102132
 20
5.5363433643
 11
8.4367283306
 21
5.5357930494
  0
LINE
  5
539
100
AcDbEntity
  8
0
100
AcDbLine
 62
7
  6
CONTINUOUS
 10
8.4367283306
 20
5.5357930494
 11
8.454166655
 21
5.5056229628
  0
LINE
  5
53A
100
AcDbEntity
  8
0
100
AcDbLine
 62
7
  6
CONTINUOUS
 10
8.4757802919
 20
5.5363433643
 11
8.4760984093
 21
5.5357930494
  0
LINE
  5
53B
100
AcDbEntity
  8
0
100
AcDbLine
 62
7
  6
CONTINUOUS
 10
8.4760984093
 20
5.5357930494
 11
8.4935367338
 21
5.5056229628
  0
LWPOLYLINE
  5
53C
100
AcDbEntity
  8
02___PRT_ALL_AXES
100
AcDbPolyline
 62
7
  6
CONTINUOUS
 90
10
 70
0
 10
8.2822064007
 20
5.6650775691
 10
8.2793345375
 20
5.8328378985
 10
8.2778986329
 20
5.9147869659
 10
8.2764576421
 20
5.9931569812
 10
8.2749983636
 20
6.0666924451
 10
8.2735368803
 20
6.1326937699
 10
8.2720919588
 20
6.1888662417
 10
8.2706628094
 20
6.2342388541
 10
8.2692230224
 20
6.2686395304
 10
8.2677735605
 20
6.2909924593
  0
LINE
  5
53D
100
AcDbEntity
  8
0
100
AcDbLine
 62
9
  6
CONTINUOUS
 10
8.3402716378
 20
5.2083152939
 11
8.3402716378
 21
6.2909924593
  0
LINE
  5
53E
100
AcDbEntity
  8
0
100
AcDbLine
 62
7
  6
CONTINUOUS
 10
8.5525918519
 20
5.9936847904
 11
8.5351535274
 21
5.9635147038
  0
LINE
  5
53F
100
AcDbEntity
  8
0
100
AcDbLine
 62
7
  6
CONTINUOUS
 10
8.5919619306
 20
5.9936847904
 11
8.5745236062
 21
5.9635147038
  0
LINE
  5
540
100
AcDbEntity
  8
0
100
AcDbLine
 62
7
  6
CONTINUOUS
 10
8.6313320094
 20
5.9936847904
 11
8.6138936849
 21
5.9635147038
  0
LINE
  5
541
100
AcDbEntity
  8
0
100
AcDbLine
 62
7
  6
CONTINUOUS
 10
8.4192900064
 20
5.5056229628
 11
8.4190117953
 21
5.505382223
  0
LINE
  5
542
100
AcDbEntity
  8
0
100
AcDbLine
 62
7
  6
CONTINUOUS
 10
8.4586600851
 20
5.5056229628
 11
8.458381874
 21
5.505382223
  0
LINE
  5
543
100
AcDbEntity
  8
0
100
AcDbLine
 62
7
  6
CONTINUOUS
 10
8.4980301638
 20
5.5056229628
 11
8.4977519527
 21
5.505382223
  0
LINE
  5
544
100
AcDbEntity
  8
0
100
AcDbLine
 62
7
  6
CONTINUOUS
 10
8.5374002426
 20
5.5056229628
 11
8.5371220315
 21
5.505382223
  0
LINE
  5
545
100
AcDbEntity
  8
0
100
AcDbLine
 62
7
  6
CONTINUOUS
 10
8.4389750457
 20
5.9936847904
 11
8.4386968346
 21
5.9939255301
  0
LINE
  5
546
100
AcDbEntity
  8
0
100
AcDbLine
 62
7
  6
CONTINUOUS
 10
8.4783451245
 20
5.9936847904
 11
8.4780669134
 21
5.9939255301
  0
LINE
  5
547
100
AcDbEntity
  8
0
100
AcDbLine
 62
7
  6
CONTINUOUS
 10
8.5177152032
 20
5.9936847904
 11
8.5174369921
 21
5.9939255301
  0
LINE
  5
548
100
AcDbEntity
  8
0
100
AcDbLine
 62
7
  6
CONTINUOUS
 10
8.5570852819
 20
5.9936847904
 11
8.5568070708
 21
5.9939255301
  0
LINE
  5
549
100
AcDbEntity
  8
0
100
AcDbLine
 62
7
  6
CONTINUOUS
 10
8.5151503707
 20
5.5363433643
 11
8.5154684881
 21
5.5357930494
  0
LINE
  5
54A
100
AcDbEntity
  8
0
100
AcDbLine
 62
7
  6
CONTINUOUS
 10
8.5154684881
 20
5.5357930494
 11
8.5329068125
 21
5.5056229628
  0
LINE
  5
54B
100
AcDbEntity
  8
0
100
AcDbLine
 62
7
  6
CONTINUOUS
 10
8.5545204494
 20
5.5363433643
 11
8.5548385668
 21
5.5357930494
  0
LINE
  5
54C
100
AcDbEntity
  8
0
100
AcDbLine
 62
7
  6
CONTINUOUS
 10
8.5548385668
 20
5.5357930494
 11
8.5722768913
 21
5.5056229628
  0
LINE
  5
54D
100
AcDbEntity
  8
0
100
AcDbLine
 62
7
  6
CONTINUOUS
 10
8.5938905282
 20
5.5363433643
 11
8.5942086455
 21
5.5357930494
  0
LINE
  5
54E
100
AcDbEntity
  8
0
100
AcDbLine
 62
7
  6
CONTINUOUS
 10
8.5942086455
 20
5.5357930494
 11
8.61164697
 21
5.5056229628
  0
LINE
  5
54F
100
AcDbEntity
  8
0
100
AcDbLine
 62
7
  6
CONTINUOUS
 10
8.6332606069
 20
5.5363433643
 11
8.6335787243
 21
5.5357930494
  0
LINE
  5
550
100
AcDbEntity
  8
0
100
AcDbLine
 62
7
  6
CONTINUOUS
 10
8.6335787243
 20
5.5357930494
 11
8.6510170487
 21
5.5056229628
  0
LWPOLYLINE
  5
551
100
AcDbEntity
  8
0
100
AcDbPolyline
 62
7
  6
CONTINUOUS
 90
21
 70
0
 10
8.4364102132
 20
5.5363433643
 10
8.4361462462
 20
5.5369890978
 10
8.4351408275
 20
5.5428864339
 10
8.4341354088
 20
5.5540959309
 10
8.4331299902
 20
5.5703296003
 10
8.4321245715
 20
5.5911703751
 10
8.4311191528
 20
5.6160828251
 10
8.4301137341
 20
5.6444269126
 10
8.4291083155
 20
5.6754744362
 10
8.4281028968
 20
5.7084277391
 10
8.4270974781
 20
5.7424402024
 10
8.4260920594
 20
5.7766379956
 10
8.4250866407
 20
5.8101425269
 10
8.4240812221
 20
5.8420930156
 10
8.4230758034
 20
5.8716686062
 10
8.4220703847
 20
5.8981094583
 10
8.421064966
 20
5.9207362673
 10
8.4200595474
 20
5.9389677171
 10
8.4190541287
 20
5.9523354147
 10
8.41804871
 20
5.9604959244
 10
8.4173614088
 20
5.9629643889
  0
LWPOLYLINE
  5
552
100
AcDbEntity
  8
0
100
AcDbPolyline
 62
7
  6
CONTINUOUS
 90
10
 70
0
 10
8.4757802919
 20
5.5363433643
 10
8.4753575746
 20
5.5375592605
 10
8.4743521559
 20
5.5443089978
 10
8.4733467373
 20
5.5563343483
 10
8.4723413186
 20
5.5733263628
 10
8.4713358999
 20
5.5948484916
 10
8.4703304812
 20
5.6203477993
 10
8.4693250626
 20
5.649169171
 10
8.4683196439
 20
5.6805721432
 10
8.4673142252
 20
5.7137499271
  0
LWPOLYLINE
  5
553
100
AcDbEntity
  8
0
100
AcDbPolyline
 62
7
  6
CONTINUOUS
 90
10
 70
0
 10
8.4190117953
 20
5.505382223
 10
8.4180305249
 20
5.5083714565
 10
8.4170368115
 20
5.5174159139
 10
8.4160430098
 20
5.5322906491
 10
8.4150610401
 20
5.5523494418
 10
8.4140820957
 20
5.5771605376
 10
8.4130988137
 20
5.6063102905
 10
8.4121224508
 20
5.6387423008
 10
8.4111481163
 20
5.6737866404
 10
8.4101655259
 20
5.710979455
  0
LWPOLYLINE
  5
554
100
AcDbEntity
  8
0
100
AcDbPolyline
 62
7
  6
CONTINUOUS
 90
10
 70
0
 10
8.458381874
 20
5.505382223
 10
8.4573999518
 20
5.508375421
 10
8.4564057408
 20
5.5174298079
 10
8.4554116749
 20
5.5323157984
 10
8.4544296792
 20
5.5523825335
 10
8.4534508911
 20
5.5771959674
 10
8.4524679969
 20
5.6063385602
 10
8.4514919926
 20
5.6387609504
 10
8.4505175997
 20
5.673808701
 10
8.4495350518
 20
5.7110007355
  0
LWPOLYLINE
  5
555
100
AcDbEntity
  8
0
100
AcDbPolyline
 62
7
  6
CONTINUOUS
 90
10
 70
0
 10
8.4977519527
 20
5.505382223
 10
8.4967692928
 20
5.5083799111
 10
8.4957745298
 20
5.5174454082
 10
8.4947801465
 20
5.5323444053
 10
8.4937980753
 20
5.5524212275
 10
8.4928193872
 20
5.5772396672
 10
8.4918368277
 20
5.606377959
 10
8.490861098
 20
5.6387947635
 10
8.4898865945
 20
5.6738488708
 10
8.4889040253
 20
5.7110432803
  0
LWPOLYLINE
  5
556
100
AcDbEntity
  8
0
100
AcDbPolyline
 62
7
  6
CONTINUOUS
 90
11
 70
0
 10
8.4673142252
 20
5.7137499271
 10
8.4653033878
 20
5.7819966866
 10
8.4642979692
 20
5.8153123022
 10
8.4632925505
 20
5.8469410558
 10
8.4622871318
 20
5.8760703582
 10
8.4612817131
 20
5.9019518346
 10
8.4602762945
 20
5.9239205515
 10
8.4592708758
 20
5.9414121002
 10
8.4582654571
 20
5.9539770971
 10
8.4572600384
 20
5.9612927287
 10
8.4567314875
 20
5.9629643889
  0
LWPOLYLINE
  5
557
100
AcDbEntity
  8
0
100
AcDbPolyline
 62
7
  6
CONTINUOUS
 90
10
 70
0
 10
8.4455985968
 20
5.710979455
 10
8.4465811872
 20
5.6737866404
 10
8.4475555217
 20
5.6387423008
 10
8.4485318845
 20
5.6063102905
 10
8.4495151666
 20
5.5771605376
 10
8.450494111
 20
5.5523494418
 10
8.4514760806
 20
5.5322906491
 10
8.4524698823
 20
5.5174159139
 10
8.4534635958
 20
5.5083714565
 10
8.454166655
 20
5.5056229628
  0
LWPOLYLINE
  5
558
100
AcDbEntity
  8
0
100
AcDbPolyline
 62
7
  6
CONTINUOUS
 90
11
 70
0
 10
8.4101655259
 20
5.710979455
 10
8.4081756244
 20
5.7882282471
 10
8.4071929473
 20
5.8254280035
 10
8.4062182237
 20
5.8604916913
 10
8.4052427828
 20
5.8929013186
 10
8.4042606484
 20
5.9220314393
 10
8.4032820582
 20
5.9468537518
 10
8.4022999179
 20
5.9669392055
 10
8.4013052879
 20
5.9818489218
 10
8.4003100598
 20
5.9909239199
 10
8.399604967
 20
5.9936847904
  0
LWPOLYLINE
  5
559
100
AcDbEntity
  8
0
100
AcDbPolyline
 62
7
  6
CONTINUOUS
 90
11
 70
0
 10
8.4495350518
 20
5.7110007355
 10
8.4475452571
 20
5.7882454165
 10
8.4465626403
 20
5.8254423006
 10
8.4455880799
 20
5.8604994241
 10
8.4446124679
 20
5.8929137481
 10
8.4436300524
 20
5.9220500751
 10
8.4426514035
 20
5.9468706233
 10
8.4416693339
 20
5.9669510081
 10
8.4406748535
 20
5.981855133
 10
8.4396798484
 20
5.9909256868
 10
8.4389750457
 20
5.9936847904
  0
LWPOLYLINE
  5
55A
100
AcDbEntity
  8
0
100
AcDbPolyline
 62
7
  6
CONTINUOUS
 90
11
 70
0
 10
8.482978328
 20
5.7882454165
 10
8.4849681227
 20
5.7110007355
 10
8.4859506706
 20
5.673808701
 10
8.4869250635
 20
5.6387609504
 10
8.4879010677
 20
5.6063385602
 10
8.4888839619
 20
5.5771959674
 10
8.4898627501
 20
5.5523825335
 10
8.4908447458
 20
5.5323157984
 10
8.4918388117
 20
5.5174298079
 10
8.4928330227
 20
5.508375421
 10
8.4935367338
 20
5.5056229628
  0
LWPOLYLINE
  5
55B
100
AcDbEntity
  8
0
100
AcDbPolyline
 62
7
  6
CONTINUOUS
 90
11
 70
0
 10
8.4889040253
 20
5.7110432803
 10
8.4869142284
 20
5.7882880466
 10
8.4859316306
 20
5.8254826363
 10
8.4849571789
 20
5.8605334581
 10
8.4839813045
 20
5.8929529643
 10
8.4829985518
 20
5.9220936872
 10
8.4820197996
 20
5.9469093209
 10
8.4810378024
 20
5.9669796764
 10
8.4800436361
 20
5.981870815
 10
8.4790491798
 20
5.9909302374
 10
8.4783451245
 20
5.9936847904
  0
LINE
  5
55C
100
AcDbEntity
  8
0
100
AcDbLine
 62
7
  6
CONTINUOUS
 10
8.3796417165
 20
5.2476853726
 11
8.3796417165
 21
6.2516223805
  0
LINE
  5
55D
100
AcDbEntity
  8
0
100
AcDbLine
 62
9
  6
CONTINUOUS
 10
8.3948222592
 20
5.9939255301
 11
8.3948222592
 21
5.505382223
  0
LINE
  5
55E
100
AcDbEntity
  8
0
100
AcDbLine
 62
7
  6
CONTINUOUS
 10
8.6707020881
 20
5.9936847904
 11
8.6532637636
 21
5.9635147038
  0
LINE
  5
55F
100
AcDbEntity
  8
0
100
AcDbLine
 62
7
  6
CONTINUOUS
 10
8.4192900064
 20
5.5056229628
 11
8.4367283306
 21
5.5357930494
  0
LINE
  5
560
100
AcDbEntity
  8
0
100
AcDbLine
 62
7
  6
CONTINUOUS
 10
8.7100721669
 20
5.9936847904
 11
8.6926338424
 21
5.9635147038
  0
LINE
  5
561
100
AcDbEntity
  8
0
100
AcDbLine
 62
7
  6
CONTINUOUS
 10
8.4586600851
 20
5.5056229628
 11
8.4760984093
 21
5.5357930494
  0
LINE
  5
562
100
AcDbEntity
  8
0
100
AcDbLine
 62
7
  6
CONTINUOUS
 10
8.7452155324
 20
5.9863713456
 11
8.7320039211
 21
5.9635147038
  0
LINE
  5
563
100
AcDbEntity
  8
0
100
AcDbLine
 62
7
  6
CONTINUOUS
 10
8.4980301638
 20
5.5056229628
 11
8.5154684881
 21
5.5357930494
  0
LINE
  5
564
100
AcDbEntity
  8
0
100
AcDbLine
 62
7
  6
CONTINUOUS
 10
8.5767703213
 20
5.5056229628
 11
8.5764921102
 21
5.505382223
  0
LINE
  5
565
100
AcDbEntity
  8
0
100
AcDbLine
 62
7
  6
CONTINUOUS
 10
8.6161404001
 20
5.5056229628
 11
8.615862189
 21
5.505382223
  0
LINE
  5
566
100
AcDbEntity
  8
0
100
AcDbLine
 62
7
  6
CONTINUOUS
 10
8.6555104788
 20
5.5056229628
 11
8.6552322677
 21
5.505382223
  0
LINE
  5
567
100
AcDbEntity
  8
0
100
AcDbLine
 62
7
  6
CONTINUOUS
 10
8.6948805575
 20
5.5056229628
 11
8.6946023464
 21
5.505382223
  0
LINE
  5
568
100
AcDbEntity
  8
02___PRT_ALL_AXES
100
AcDbLine
 62
7
  6
CONTINUOUS
 10
7.0804291181
 20
6.7339058451
 11
7.552870063
 21
6.7339058451
  0
LINE
  5
569
100
AcDbEntity
  8
0
100
AcDbLine
 62
7
  6
CONTINUOUS
 10
8.5964553607
 20
5.9936847904
 11
8.5961771496
 21
5.9939255301
  0
LINE
  5
56A
100
AcDbEntity
  8
0
100
AcDbLine
 62
7
  6
CONTINUOUS
 10
8.6358254394
 20
5.9936847904
 11
8.6355472283
 21
5.9939255301
  0
LINE
  5
56B
100
AcDbEntity
  8
0
100
AcDbLine
 62
7
  6
CONTINUOUS
 10
8.6751955182
 20
5.9936847904
 11
8.6749173071
 21
5.9939255301
  0
LINE
  5
56C
100
AcDbEntity
  8
0
100
AcDbLine
 62
7
  6
CONTINUOUS
 10
8.7142873858
 20
5.9939255301
 11
8.7145655969
 21
5.9936847904
  0
LINE
  5
56D
100
AcDbEntity
  8
0
100
AcDbLine
 62
7
  6
CONTINUOUS
 10
8.4163355512
 20
5.965866817
 11
8.4110787767
 21
5.9749160815
  0
LINE
  5
56E
100
AcDbEntity
  8
0
100
AcDbLine
 62
7
  6
CONTINUOUS
 10
8.4110787767
 20
5.9749160815
 11
8.4007618804
 21
5.992687929
  0
LINE
  5
56F
100
AcDbEntity
  8
0
100
AcDbLine
 62
7
  6
CONTINUOUS
 10
8.4173614088
 20
5.9629643889
 11
8.399604967
 21
5.9936847904
  0
LINE
  5
570
100
AcDbEntity
  8
0
100
AcDbLine
 62
7
  6
CONTINUOUS
 10
8.6726306856
 20
5.5363433643
 11
8.672948803
 21
5.5357930494
  0
LINE
  5
571
100
AcDbEntity
  8
0
100
AcDbLine
 62
7
  6
CONTINUOUS
 10
8.672948803
 20
5.5357930494
 11
8.6903871275
 21
5.5056229628
  0
LINE
  5
572
100
AcDbEntity
  8
0
100
AcDbLine
 62
7
  6
CONTINUOUS
 10
8.4567314875
 20
5.9629643889
 11
8.4564133699
 21
5.9635147038
  0
LINE
  5
573
100
AcDbEntity
  8
0
100
AcDbLine
 62
7
  6
CONTINUOUS
 10
8.4564133699
 20
5.9635147038
 11
8.4389750457
 21
5.9936847904
  0
LINE
  5
574
100
AcDbEntity
  8
0
100
AcDbLine
 62
7
  6
CONTINUOUS
 10
8.7120007644
 20
5.5363433643
 11
8.7123188818
 21
5.5357930494
  0
LINE
  5
575
100
AcDbEntity
  8
0
100
AcDbLine
 62
7
  6
CONTINUOUS
 10
8.7123188818
 20
5.5357930494
 11
8.7297572062
 21
5.5056229628
  0
LINE
  5
576
100
AcDbEntity
  8
0
100
AcDbLine
 62
7
  6
CONTINUOUS
 10
8.4961015663
 20
5.9629643889
 11
8.4957834487
 21
5.9635147038
  0
LINE
  5
577
100
AcDbEntity
  8
0
100
AcDbLine
 62
7
  6
CONTINUOUS
 10
8.4957834487
 20
5.9635147038
 11
8.4783451245
 21
5.9936847904
  0
LINE
  5
578
100
AcDbEntity
  8
0
100
AcDbLine
 62
7
  6
CONTINUOUS
 10
8.7513708431
 20
5.5363433643
 11
8.7576852626
 21
5.5254198773
  0
LWPOLYLINE
  5
579
100
AcDbEntity
  8
0
100
AcDbPolyline
 62
7
  6
CONTINUOUS
 90
15
 70
0
 10
8.5371220315
 20
5.505382223
 10
8.5361875689
 20
5.5080935947
 10
8.5352412767
 20
5.5163034537
 10
8.5342938151
 20
5.5298452254
 10
8.533355674
 20
5.5481974019
 10
8.5324245923
 20
5.5708694156
 10
8.5314875795
 20
5.5976627054
 10
8.5305546669
 20
5.6277100255
 10
8.5296264577
 20
5.6602848258
 10
8.528695784
 20
5.6949108034
 10
8.5277515808
 20
5.73126813
 10
8.526802118
 20
5.7682466069
 10
8.5258580418
 20
5.8045944105
 10
8.5249273922
 20
5.8392106048
 10
8.5239986719
 20
5.8717897034
  0
LWPOLYLINE
  5
57A
100
AcDbEntity
  8
0
100
AcDbPolyline
 62
7
  6
CONTINUOUS
 90
10
 70
0
 10
8.5764921102
 20
5.505382223
 10
8.5755103085
 20
5.508374688
 10
8.5745161902
 20
5.5174272305
 10
8.5735221779
 20
5.5323110524
 10
8.5725401954
 20
5.5523760969
 10
8.5715613912
 20
5.5771886802
 10
8.5705784419
 20
5.6063319691
 10
8.5696023893
 20
5.6387553793
 10
8.5686280154
 20
5.6738020503
 10
8.5676454716
 20
5.7109936684
  0
LWPOLYLINE
  5
57B
100
AcDbEntity
  8
0
100
AcDbPolyline
 62
7
  6
CONTINUOUS
 90
10
 70
0
 10
8.615862189
 20
5.505382223
 10
8.6148796538
 20
5.5083791518
 10
8.6138849823
 20
5.517442792
 10
8.6128906514
 20
5.532339622
 10
8.6119085923
 20
5.5524147696
 10
8.610929887
 20
5.5772323866
 10
8.6099472713
 20
5.6063714102
 10
8.6089714978
 20
5.638789082
 10
8.6079970122
 20
5.6738421443
 10
8.6070144462
 20
5.7110361726
  0
LWPOLYLINE
  5
57C
100
AcDbEntity
  8
0
100
AcDbPolyline
 62
7
  6
CONTINUOUS
 90
11
 70
0
 10
8.4347598268
 20
5.9939255301
 10
8.4357431306
 20
5.9909239199
 10
8.4367383587
 20
5.9818489218
 10
8.4377329887
 20
5.9669392055
 10
8.438715129
 20
5.9468537518
 10
8.4396937192
 20
5.9220314393
 10
8.4406758536
 20
5.8929013186
 10
8.4416512946
 20
5.8604916913
 10
8.4426260182
 20
5.8254280035
 10
8.4436086953
 20
5.7882282471
 10
8.4455985968
 20
5.710979455
  0
LWPOLYLINE
  5
57D
100
AcDbEntity
  8
0
100
AcDbPolyline
 62
7
  6
CONTINUOUS
 90
21
 70
0
 10
8.5151503707
 20
5.5363433643
 10
8.514568903
 20
5.538265556
 10
8.5135634844
 20
5.5458633622
 10
8.5125580657
 20
5.5586968476
 10
8.511552647
 20
5.5764363011
 10
8.5105472283
 20
5.5986259698
 10
8.5095418097
 20
5.6246957685
 10
8.508536391
 20
5.6539759254
 10
8.5075309723
 20
5.6857141902
 10
8.5065255536
 20
5.7190951599
 10
8.5055201349
 20
5.7532612282
 10
8.5045147163
 20
5.7873346183
 10
8.5035092976
 20
5.8204399345
 10
8.5025038789
 20
5.8517266524
 10
8.5014984602
 20
5.8803909699
 10
8.5004930416
 20
5.9056964585
 10
8.4994876229
 20
5.9269929827
 10
8.4984822042
 20
5.9437334035
 10
8.4974767855
 20
5.9554876347
 10
8.4964713668
 20
5.9619536926
 10
8.4961015663
 20
5.9629643889
  0
LINE
  5
57E
100
AcDbEntity
  8
0
100
AcDbLine
 62
7
  6
CONTINUOUS
 10
8.4170432913
 20
5.9632395906
 11
8.4163355512
 21
5.965866817
  0
LWPOLYLINE
  5
57F
100
AcDbEntity
  8
0
100
AcDbPolyline
 62
7
  6
CONTINUOUS
 90
14
 70
0
 10
8.5545204494
 20
5.5363433643
 10
8.5537802315
 20
5.539107531
 10
8.5527748128
 20
5.5475485294
 10
8.5517693941
 20
5.5611819127
 10
8.5507639754
 20
5.5796574189
 10
8.5497585568
 20
5.6025003852
 10
8.5487531381
 20
5.629123942
 10
8.5477477194
 20
5.6588440907
 10
8.5467423007
 20
5.6908972769
 10
8.545736882
 20
5.7244600069
 10
8.5447314634
 20
5.7586700046
 10
8.5437260447
 20
5.7926483647
 10
8.542720626
 20
5.8255221329
 10
8.5417152073
 20
5.8564467336
  0
LWPOLYLINE
  5
580
100
AcDbEntity
  8
0
100
AcDbPolyline
 62
7
  6
CONTINUOUS
 90
8
 70
0
 10
8.5417152073
 20
5.8564467336
 10
8.5407097887
 20
5.8846276681
 10
8.53970437
 20
5.9093409266
 10
8.5386989513
 20
5.929951589
 10
8.5376935326
 20
5.9459301369
 10
8.5366881139
 20
5.956866058
 10
8.5356826953
 20
5.9624783921
 10
8.535471645
 20
5.9629643889
  0
LWPOLYLINE
  5
581
100
AcDbEntity
  8
0
100
AcDbPolyline
 62
7
  6
CONTINUOUS
 90
8
 70
0
 10
8.5239986719
 20
5.8717897034
 10
8.5230670169
 20
5.9017801208
 10
8.5221310224
 20
5.9285288641
 10
8.5212007433
 20
5.9511677943
 10
8.5202635157
 20
5.9694913049
 10
8.5193167484
 20
5.9830158057
 10
8.5183710067
 20
5.9912167529
 10
8.5177152032
 20
5.9936847904
  0
LWPOLYLINE
  5
582
100
AcDbEntity
  8
0
100
AcDbPolyline
 62
7
  6
CONTINUOUS
 90
15
 70
0
 10
8.5594317428
 20
5.8717897034
 10
8.560360463
 20
5.8392106048
 10
8.5612911126
 20
5.8045944105
 10
8.5622351889
 20
5.7682466069
 10
8.5631846517
 20
5.73126813
 10
8.5641288548
 20
5.6949108034
 10
8.5650595286
 20
5.6602848258
 10
8.5659877378
 20
5.6277100255
 10
8.5669206504
 20
5.5976627054
 10
8.5678576632
 20
5.5708694156
 10
8.5687887449
 20
5.5481974019
 10
8.569726886
 20
5.5298452254
 10
8.5706743475
 20
5.5163034537
 10
8.5716206397
 20
5.5080935947
 10
8.5722768913
 20
5.5056229628
  0
LWPOLYLINE
  5
583
100
AcDbEntity
  8
0
100
AcDbPolyline
 62
7
  6
CONTINUOUS
 90
11
 70
0
 10
8.5223472993
 20
5.7882880466
 10
8.5243370962
 20
5.7110432803
 10
8.5253196654
 20
5.6738488708
 10
8.5262941688
 20
5.6387947635
 10
8.5272698986
 20
5.606377959
 10
8.528252458
 20
5.5772396672
 10
8.5292311461
 20
5.5524212275
 10
8.5302132173
 20
5.5323444053
 10
8.5312076007
 20
5.5174454082
 10
8.5322023637
 20
5.5083799111
 10
8.5329068125
 20
5.5056229628
  0
LWPOLYLINE
  5
584
100
AcDbEntity
  8
0
100
AcDbPolyline
 62
7
  6
CONTINUOUS
 90
11
 70
0
 10
8.5676454716
 20
5.7109936684
 10
8.5656556785
 20
5.7882382885
 10
8.5646730591
 20
5.8254355345
 10
8.5636984812
 20
5.8604936877
 10
8.5627229103
 20
5.8929072371
 10
8.5617405516
 20
5.9220428108
 10
8.5607619206
 20
5.9468641618
 10
8.5597798396
 20
5.9669462087
 10
8.5587853075
 20
5.9818524969
 10
8.5577902117
 20
5.9909249131
 10
8.5570852819
 20
5.9936847904
  0
LINE
  5
585
100
AcDbEntity
  8
0
100
AcDbLine
 62
7
  6
CONTINUOUS
 10
8.5374002426
 20
5.5056229628
 11
8.5548385668
 21
5.5357930494
  0
LINE
  5
586
100
AcDbEntity
  8
0
100
AcDbLine
 62
7
  6
CONTINUOUS
 10
8.5767703213
 20
5.5056229628
 11
8.5942086455
 21
5.5357930494
  0
LINE
  5
587
100
AcDbEntity
  8
0
100
AcDbLine
 62
7
  6
CONTINUOUS
 10
8.6161404001
 20
5.5056229628
 11
8.6335787243
 21
5.5357930494
  0
LINE
  5
588
100
AcDbEntity
  8
0
100
AcDbLine
 62
7
  6
CONTINUOUS
 10
8.7733425277
 20
5.5408152701
 11
8.7578771556
 21
5.5253498944
  0
LINE
  5
589
100
AcDbEntity
  8
0
100
AcDbLine
 62
7
  6
CONTINUOUS
 10
8.7733425277
 20
5.9584924831
 11
8.7453973418
 21
5.9864376754
  0
LINE
  5
58A
100
AcDbEntity
  8
0
100
AcDbLine
 62
7
  6
CONTINUOUS
 10
8.535471645
 20
5.9629643889
 11
8.5351535274
 21
5.9635147038
  0
LINE
  5
58B
100
AcDbEntity
  8
0
100
AcDbLine
 62
7
  6
CONTINUOUS
 10
8.5351535274
 20
5.9635147038
 11
8.5177152032
 21
5.9936847904
  0
LINE
  5
58C
100
AcDbEntity
  8
0
100
AcDbLine
 62
7
  6
CONTINUOUS
 10
8.5748417238
 20
5.9629643889
 11
8.5745236062
 21
5.9635147038
  0
LINE
  5
58D
100
AcDbEntity
  8
0
100
AcDbLine
 62
7
  6
CONTINUOUS
 10
8.5745236062
 20
5.9635147038
 11
8.5570852819
 21
5.9936847904
  0
LINE
  5
58E
100
AcDbEntity
  8
0
100
AcDbLine
 62
7
  6
CONTINUOUS
 10
8.6142118025
 20
5.9629643889
 11
8.6138936849
 21
5.9635147038
  0
LINE
  5
58F
100
AcDbEntity
  8
0
100
AcDbLine
 62
7
  6
CONTINUOUS
 10
8.6138936849
 20
5.9635147038
 11
8.5964553607
 21
5.9936847904
  0
LWPOLYLINE
  5
590
100
AcDbEntity
  8
0
100
AcDbPolyline
 62
7
  6
CONTINUOUS
 90
8
 70
0
 10
8.6726306856
 20
5.5363433643
 10
8.6723993762
 20
5.5368887239
 10
8.671397334
 20
5.5425819819
 10
8.6703952919
 20
5.5535596261
 10
8.6693932498
 20
5.5695415117
 10
8.6683912076
 20
5.5901197877
 10
8.6673891655
 20
5.6147693054
 10
8.6663871233
 20
5.6428610196
  0
LWPOLYLINE
  5
591
100
AcDbEntity
  8
0
100
AcDbPolyline
 62
7
  6
CONTINUOUS
 90
8
 70
0
 10
8.6552322677
 20
5.505382223
 10
8.6542986806
 20
5.5080885256
 10
8.6533532493
 20
5.5162834483
 10
8.652406594
 20
5.5298020074
 10
8.6514694187
 20
5.5481200844
 10
8.6505388667
 20
5.5707621854
 10
8.6496025895
 20
5.5975170629
 10
8.6486705879
 20
5.6275180498
  0
LWPOLYLINE
  5
592
100
AcDbEntity
  8
0
100
AcDbPolyline
 62
7
  6
CONTINUOUS
 90
8
 70
0
 10
8.552870063
 20
5.9939255301
 10
8.5538040776
 20
5.9912167529
 10
8.5547498193
 20
5.9830158057
 10
8.5556965865
 20
5.9694913049
 10
8.5566338141
 20
5.9511677943
 10
8.5575640932
 20
5.9285288641
 10
8.5585000877
 20
5.9017801208
 10
8.5594317428
 20
5.8717897034
  0
LWPOLYLINE
  5
593
100
AcDbEntity
  8
0
100
AcDbPolyline
 62
7
  6
CONTINUOUS
 90
22
 70
0
 10
8.7297572062
 20
5.5056229628
 10
8.7293577551
 20
5.5068093855
 10
8.7284073813
 20
5.5135810867
 10
8.7274570076
 20
5.5257731611
 10
8.7265066484
 20
5.5431053694
 10
8.7255562987
 20
5.5651796682
 10
8.7246059479
 20
5.5914894259
 10
8.7236555993
 20
5.621430488
 10
8.7227052567
 20
5.6543152643
 10
8.7217549106
 20
5.6893890587
 10
8.7208045504
 20
5.725847041
 10
8.7198541747
 20
5.7628522284
 10
8.7189037984
 20
5.7995543951
 10
8.7179534381
 20
5.8351102264
 10
8.717003088
 20
5.8687036358
 10
8.7160527334
 20
5.8995638651
 10
8.7151023639
 20
5.9269826086
 10
8.7141519979
 20
5.9503297348
 10
8.7132016201
 20
5.969069502
 10
8.7122512056
 20
5.9827717364
 10
8.7113007789
 20
5.9911210573
 10
8.7103503779
 20
5.9939255301
  0
LWPOLYLINE
  5
594
100
AcDbEntity
  8
0
100
AcDbPolyline
 62
7
  6
CONTINUOUS
 90
10
 70
0
 10
8.6946023464
 20
5.505382223
 10
8.6936206623
 20
5.5083739729
 10
8.6926266346
 20
5.5174247139
 10
8.6916326738
 20
5.5323064317
 10
8.6906507027
 20
5.5523698656
 10
8.6896718804
 20
5.5771816981
 10
8.6886888738
 20
5.6063257902
 10
8.68771277
 20
5.6387503608
 10
8.6867384132
 20
5.6737960625
 10
8.6857558712
 20
5.7109873824
  0
LWPOLYLINE
  5
595
100
AcDbEntity
  8
0
100
AcDbPolyline
 62
7
  6
CONTINUOUS
 90
10
 70
0
 10
8.5134999842
 20
5.9939255301
 10
8.5144822506
 20
5.9909302374
 10
8.515476707
 20
5.981870815
 10
8.5164708732
 20
5.9669796764
 10
8.5174528705
 20
5.9469093209
 10
8.5184316227
 20
5.9220936872
 10
8.5194143754
 20
5.8929529643
 10
8.5203902498
 20
5.8605334581
 10
8.5213647015
 20
5.8254826363
 10
8.5223472993
 20
5.7882880466
  0
LWPOLYLINE
  5
596
100
AcDbEntity
  8
0
100
AcDbPolyline
 62
7
  6
CONTINUOUS
 90
10
 70
0
 10
8.4741299055
 20
5.9939255301
 10
8.4751129193
 20
5.9909256868
 10
8.4761079244
 20
5.981855133
 10
8.4771024048
 20
5.9669510081
 10
8.4780844744
 20
5.9468706233
 10
8.4790631232
 20
5.9220500751
 10
8.4800455387
 20
5.8929137481
 10
8.4810211508
 20
5.8604994241
 10
8.4819957112
 20
5.8254423006
 10
8.482978328
 20
5.7882454165
  0
LWPOLYLINE
  5
597
100
AcDbEntity
  8
0
100
AcDbPolyline
 62
7
  6
CONTINUOUS
 90
11
 70
0
 10
8.7120007644
 20
5.5363433643
 10
8.7114790195
 20
5.5379838971
 10
8.7104769774
 20
5.5452298207
 10
8.7094749352
 20
5.5576925587
 10
8.7084728931
 20
5.5750540674
 10
8.7074708509
 20
5.5968712884
 10
8.7064688088
 20
5.6225874558
 10
8.7054667667
 20
5.6515463038
 10
8.7044647245
 20
5.683008815
 10
8.7034626824
 20
5.7161720798
 10
8.7014585981
 20
5.7841938153
  0
LWPOLYLINE
  5
598
100
AcDbEntity
  8
0
100
AcDbPolyline
 62
7
  6
CONTINUOUS
 90
20
 70
0
 10
8.5938905282
 20
5.5363433643
 10
8.5929915599
 20
5.540084645
 10
8.5919861412
 20
5.5493634178
 10
8.5909807225
 20
5.5637879483
 10
8.5899753039
 20
5.5829876489
 10
8.5889698852
 20
5.606469251
 10
8.5879644665
 20
5.6336294775
 10
8.5869590478
 20
5.6637705422
 10
8.5859536291
 20
5.6961180765
 10
8.5849482105
 20
5.7298410246
 10
8.5839427918
 20
5.7640729941
 10
8.5829373731
 20
5.7979345151
 10
8.5819319544
 20
5.8305556353
 10
8.5809265358
 20
5.8610982699
 10
8.5799211171
 20
5.8887777334
 10
8.5789156984
 20
5.9128828996
 10
8.5779102797
 20
5.9327944713
 10
8.576904861
 20
5.9480008906
 10
8.5758994424
 20
5.9581114823
 10
8.5748417238
 20
5.9629643889
  0
LWPOLYLINE
  5
599
100
AcDbEntity
  8
0
100
AcDbPolyline
 62
7
  6
CONTINUOUS
 90
20
 70
0
 10
8.6332606069
 20
5.5363433643
 10
8.6322028883
 20
5.5411962709
 10
8.6311974696
 20
5.5513068626
 10
8.630192051
 20
5.5665132819
 10
8.6291866323
 20
5.5864248535
 10
8.6281812136
 20
5.6105300198
 10
8.6271757949
 20
5.6382094833
 10
8.6261703762
 20
5.6687521178
 10
8.6251649576
 20
5.701373238
 10
8.6241595389
 20
5.7352347591
 10
8.6231541202
 20
5.7694667286
 10
8.6221487015
 20
5.8031896767
 10
8.6211432829
 20
5.835537211
 10
8.6201378642
 20
5.8656782756
 10
8.6191324455
 20
5.8928385022
 10
8.6181270268
 20
5.9163201042
 10
8.6171216081
 20
5.9355198048
 10
8.6161161895
 20
5.9499443353
 10
8.6151107708
 20
5.9592231082
 10
8.6142118025
 20
5.9629643889
  0
LWPOLYLINE
  5
59A
100
AcDbEntity
  8
0
100
AcDbPolyline
 62
7
  6
CONTINUOUS
 90
14
 70
0
 10
8.6663871233
 20
5.6428610196
 10
8.6653817047
 20
5.6737856202
 10
8.664376286
 20
5.7066593884
 10
8.6633708673
 20
5.7406377485
 10
8.6623654486
 20
5.7748477462
 10
8.66136003
 20
5.8084104763
 10
8.6603546113
 20
5.8404636625
 10
8.6593491926
 20
5.8701838112
 10
8.6583437739
 20
5.8968073679
 10
8.6573383552
 20
5.9196503342
 10
8.6563329366
 20
5.9381258405
 10
8.6553275179
 20
5.9517592237
 10
8.6543220992
 20
5.9602002222
 10
8.6535818812
 20
5.9629643889
  0
LWPOLYLINE
  5
59B
100
AcDbEntity
  8
0
100
AcDbPolyline
 62
7
  6
CONTINUOUS
 90
8
 70
0
 10
8.6841036588
 20
5.6275180498
 10
8.6850356603
 20
5.5975170629
 10
8.6859719375
 20
5.5707621854
 10
8.6869024895
 20
5.5481200844
 10
8.6878396648
 20
5.5298020074
 10
8.6887863202
 20
5.5162834483
 10
8.6897317515
 20
5.5080885256
 10
8.6903871275
 20
5.5056229628
  0
LWPOLYLINE
  5
59C
100
AcDbEntity
  8
0
100
AcDbPolyline
 62
7
  6
CONTINUOUS
 90
10
 70
0
 10
8.7014585981
 20
5.7841938153
 10
8.700456556
 20
5.8173164005
 10
8.6994545139
 20
5.8487122671
 10
8.6984524717
 20
5.8775802059
 10
8.6974504296
 20
5.9031835196
 10
8.6964483874
 20
5.9248688225
 10
8.6954463453
 20
5.9420827149
 10
8.6944443032
 20
5.9543859058
 10
8.693442261
 20
5.9614644229
 10
8.69295196
 20
5.9629643889
  0
LWPOLYLINE
  5
59D
100
AcDbEntity
  8
0
100
AcDbPolyline
 62
7
  6
CONTINUOUS
 90
15
 70
0
 10
8.6486705879
 20
5.6275180498
 10
8.6477420038
 20
5.6600922108
 10
8.6468114614
 20
5.6947040983
 10
8.6458674345
 20
5.7310497675
 10
8.6449180171
 20
5.7680264786
 10
8.6439738272
 20
5.8043835995
 10
8.6430431864
 20
5.8390089836
 10
8.6421149553
 20
5.8715854873
 10
8.641182385
 20
5.9016235415
 10
8.6402456159
 20
5.9284131423
 10
8.639314673
 20
5.9510863776
 10
8.6383764835
 20
5.9694448601
 10
8.6374288498
 20
5.9829943074
 10
8.6364821834
 20
5.9912113052
 10
8.6358254394
 20
5.9936847904
  0
LWPOLYLINE
  5
59E
100
AcDbEntity
  8
0
100
AcDbPolyline
 62
7
  6
CONTINUOUS
 90
11
 70
0
 10
8.6010887494
 20
5.7882382885
 10
8.6030785425
 20
5.7109936684
 10
8.6040610863
 20
5.6738020503
 10
8.6050354601
 20
5.6387553793
 10
8.6060115127
 20
5.6063319691
 10
8.6069944621
 20
5.5771886802
 10
8.6079732663
 20
5.5523760969
 10
8.6089552487
 20
5.5323110524
 10
8.6099492611
 20
5.5174272305
 10
8.6109433794
 20
5.508374688
 10
8.61164697
 20
5.5056229628
  0
LWPOLYLINE
  5
59F
100
AcDbEntity
  8
0
100
AcDbPolyline
 62
7
  6
CONTINUOUS
 90
11
 70
0
 10
8.6070144462
 20
5.7110361726
 10
8.6050246488
 20
5.788280958
 10
8.6040420474
 20
5.8254759448
 10
8.6030675771
 20
5.8605278314
 10
8.6020917483
 20
5.8929464104
 10
8.6011090514
 20
5.9220864154
 10
8.6001303159
 20
5.9469028799
 10
8.5991483062
 20
5.9669749136
 10
8.5981540871
 20
5.9818682173
 10
8.5971595388
 20
5.9909294899
 10
8.5964553607
 20
5.9936847904
  0
LWPOLYLINE
  5
5A0
100
AcDbEntity
  8
0
100
AcDbPolyline
 62
7
  6
CONTINUOUS
 90
11
 70
0
 10
8.6404577196
 20
5.788280958
 10
8.642447517
 20
5.7110361726
 10
8.6434300831
 20
5.6738421443
 10
8.6444045686
 20
5.638789082
 10
8.6453803422
 20
5.6063714102
 10
8.6463629579
 20
5.5772323866
 10
8.6473416631
 20
5.5524147696
 10
8.6483237222
 20
5.532339622
 10
8.6493180532
 20
5.517442792
 10
8.6503127246
 20
5.5083791518
 10
8.6510170487
 20
5.5056229628
  0
LWPOLYLINE
  5
5A1
100
AcDbEntity
  8
0
100
AcDbPolyline
 62
7
  6
CONTINUOUS
 90
11
 70
0
 10
8.6857558712
 20
5.7109873824
 10
8.6837660755
 20
5.7882321005
 10
8.6827834519
 20
5.8254297315
 10
8.6818088545
 20
5.8604889261
 10
8.6808333215
 20
5.8929017108
 10
8.6798510175
 20
5.9220364663
 10
8.6788724027
 20
5.9468585052
 10
8.6778903104
 20
5.966942032
 10
8.6768957326
 20
5.9818502108
 10
8.675900558
 20
5.9909242424
 10
8.6751955182
 20
5.9936847904
  0
LINE
  5
5A2
100
AcDbEntity
  8
0
100
AcDbLine
 62
7
  6
CONTINUOUS
 10
8.6555104788
 20
5.5056229628
 11
8.672948803
 21
5.5357930494
  0
LINE
  5
5A3
100
AcDbEntity
  8
0
100
AcDbLine
 62
7
  6
CONTINUOUS
 10
8.6948805575
 20
5.5056229628
 11
8.7123188818
 21
5.5357930494
  0
LINE
  5
5A4
100
AcDbEntity
  8
0
100
AcDbLine
 62
7
  6
CONTINUOUS
 10
8.7342506363
 20
5.5056229628
 11
8.7516889605
 21
5.5357930494
  0
LINE
  5
5A5
100
AcDbEntity
  8
0
100
AcDbLine
 62
7
  6
CONTINUOUS
 10
8.6535818812
 20
5.9629643889
 11
8.6532637636
 21
5.9635147038
  0
LINE
  5
5A6
100
AcDbEntity
  8
0
100
AcDbLine
 62
7
  6
CONTINUOUS
 10
8.6532637636
 20
5.9635147038
 11
8.6358254394
 21
5.9936847904
  0
LINE
  5
5A7
100
AcDbEntity
  8
0
100
AcDbLine
 62
7
  6
CONTINUOUS
 10
8.69295196
 20
5.9629643889
 11
8.6926338424
 21
5.9635147038
  0
LINE
  5
5A8
100
AcDbEntity
  8
0
100
AcDbLine
 62
7
  6
CONTINUOUS
 10
8.6926338424
 20
5.9635147038
 11
8.6751955182
 21
5.9936847904
  0
LINE
  5
5A9
100
AcDbEntity
  8
0
100
AcDbLine
 62
7
  6
CONTINUOUS
 10
8.7323220387
 20
5.9629643889
 11
8.7320039211
 21
5.9635147038
  0
LINE
  5
5AA
100
AcDbEntity
  8
0
100
AcDbLine
 62
7
  6
CONTINUOUS
 10
8.7320039211
 20
5.9635147038
 11
8.7145655969
 21
5.9936847904
  0
LWPOLYLINE
  5
5AB
100
AcDbEntity
  8
0
100
AcDbPolyline
 62
7
  6
CONTINUOUS
 90
15
 70
0
 10
8.6709802992
 20
5.9939255301
 10
8.6719152543
 20
5.9912113052
 10
8.6728619207
 20
5.9829943074
 10
8.6738095544
 20
5.9694448601
 10
8.6747477439
 20
5.9510863776
 10
8.6756786867
 20
5.9284131423
 10
8.6766154558
 20
5.9016235415
 10
8.6775480261
 20
5.8715854873
 10
8.6784762573
 20
5.8390089836
 10
8.6794068981
 20
5.8043835995
 10
8.680351088
 20
5.7680264786
 10
8.6813005054
 20
5.7310497675
 10
8.6822445323
 20
5.6947040983
 10
8.6831750746
 20
5.6600922108
 10
8.6841036588
 20
5.6275180498
  0
LWPOLYLINE
  5
5AC
100
AcDbEntity
  8
0
100
AcDbPolyline
 62
7
  6
CONTINUOUS
 90
10
 70
0
 10
8.6316102205
 20
5.9939255301
 10
8.6325926097
 20
5.9909294899
 10
8.6335871579
 20
5.9818682173
 10
8.634581377
 20
5.9669749136
 10
8.6355633868
 20
5.9469028799
 10
8.6365421223
 20
5.9220864154
 10
8.6375248192
 20
5.8929464104
 10
8.638500648
 20
5.8605278314
 10
8.6394751183
 20
5.8254759448
 10
8.6404577196
 20
5.788280958
  0
LWPOLYLINE
  5
5AD
100
AcDbEntity
  8
0
100
AcDbPolyline
 62
7
  6
CONTINUOUS
 90
10
 70
0
 10
8.5922401417
 20
5.9939255301
 10
8.5932232826
 20
5.9909249131
 10
8.5942183784
 20
5.9818524969
 10
8.5952129105
 20
5.9669462087
 10
8.5961949915
 20
5.9468641618
 10
8.5971736225
 20
5.9220428108
 10
8.5981559811
 20
5.8929072371
 10
8.5991315521
 20
5.8604936877
 10
8.60010613
 20
5.8254355345
 10
8.6010887494
 20
5.7882382885
  0
LWPOLYLINE
  5
5AE
100
AcDbEntity
  8
0
100
AcDbPolyline
 62
7
  6
CONTINUOUS
 90
21
 70
0
 10
8.7513708431
 20
5.5363433643
 10
8.7505586628
 20
5.5395337524
 10
8.7495566207
 20
5.5483167767
 10
8.7485545785
 20
5.5622378377
 10
8.7475525364
 20
5.5809416757
 10
8.7465504943
 20
5.603950977
 10
8.7455484521
 20
5.6306785538
 10
8.74454641
 20
5.66044233
 10
8.7435443679
 20
5.6924827466
 10
8.7425423257
 20
5.725982146
 10
8.7415402836
 20
5.7600856379
 10
8.7405382415
 20
5.7939229156
 10
8.7395361993
 20
5.8266304665
 10
8.7385341572
 20
5.8573736077
 10
8.737532115
 20
5.8853677875
 10
8.7365300729
 20
5.9098986063
 10
8.7355280308
 20
5.9303400482
 10
8.7345259886
 20
5.9461704564
 10
8.7335239465
 20
5.9569858456
 10
8.7325219044
 20
5.9625102116
 10
8.7323220387
 20
5.9629643889
  0
LINE
  5
5AF
100
AcDbEntity
  8
0
100
AcDbLine
 62
7
  6
CONTINUOUS
 10
8.7733425039
 20
5.5408152939
 11
8.7733425039
 21
5.9584924593
  0
LINE
  5
5B0
100
AcDbEntity
  8
0
100
AcDbLine
 62
7
  6
CONTINUOUS
 10
8.8127125827
 20
5.9533940341
 11
8.8127125827
 21
5.5459137191
  0
LWPOLYLINE
  5
5B1
100
AcDbEntity
  8
0
100
AcDbPolyline
 62
7
  6
CONTINUOUS
 90
22
 70
0
 10
8.7145655969
 20
5.9936847904
 10
8.7152323588
 20
5.9911529396
 10
8.7161773554
 20
5.9828978348
 10
8.7171223383
 20
5.9693478563
 10
8.7180672845
 20
5.9508113372
 10
8.7190122183
 20
5.9277089592
 10
8.7199571544
 20
5.9005648366
 10
8.7209020759
 20
5.869995665
 10
8.7218469917
 20
5.8366951346
 10
8.7227919157
 20
5.8014186164
 10
8.7237368536
 20
5.7649665726
 10
8.7246817929
 20
5.7281668929
 10
8.7256267205
 20
5.691855392
 10
8.7265716346
 20
5.6568563272
 10
8.7275165439
 20
5.6239637499
 10
8.7284614585
 20
5.5939239048
 10
8.7294063793
 20
5.5674186675
 10
8.730351299
 20
5.5450499009
 10
8.7312962287
 20
5.5273251369
 10
8.7322411813
 20
5.514646728
 10
8.7331861407
 20
5.507302924
 10
8.7339724438
 20
5.505382223
  0
LWPOLYLINE
  5
5B2
100
AcDbEntity
  8
0
100
AcDbPolyline
 62
7
  6
CONTINUOUS
 90
21
 70
0
 10
8.7453973418
 20
5.9864376754
 10
8.746016302
 20
5.9829577309
 10
8.7466433126
 20
5.9737004714
 10
8.7472705327
 20
5.9589280271
 10
8.7478905729
 20
5.939293578
 10
8.7485086143
 20
5.9152459873
 10
8.7491297106
 20
5.8871868834
 10
8.7497469627
 20
5.8561304413
 10
8.7503637315
 20
5.8227051437
 10
8.7509856665
 20
5.7874059763
 10
8.7516160732
 20
5.7508829191
 10
8.7522471128
 20
5.7144921058
 10
8.7528710129
 20
5.6795741236
 10
8.7534897949
 20
5.6468278581
 10
8.7541097927
 20
5.6166869898
 10
8.754734661
 20
5.5897401176
 10
8.7553575897
 20
5.566945175
 10
8.7559827036
 20
5.5486939488
 10
8.7566161719
 20
5.5353581427
 10
8.7572503259
 20
5.5275175399
 10
8.7576852626
 20
5.5254198773
  0
LWPOLYLINE
  5
5B3
100
AcDbEntity
  8
02___PRT_ALL_AXES
100
AcDbPolyline
 62
7
  6
CONTINUOUS
 90
3
 70
0
 10
11.2222390433
 20
6.0555138495
 10
11.2761087862
 20
6.1298893936
 10
11.3409262424
 20
6.1949460469
  0
LINE
  5
5B4
100
AcDbEntity
  8
02___PRT_ALL_AXES
100
AcDbLine
 62
7
  6
CONTINUOUS
 10
11.3409262424
 20
6.1949460469
 11
11.4151028521
 21
6.2490893875
  0
LINE
  5
5B5
100
AcDbEntity
  8
02___PRT_ALL_AXES
100
AcDbLine
 62
7
  6
CONTINUOUS
 10
11.4151028521
 20
6.2490893875
 11
11.4968206796
 21
6.2909924593
  0
LINE
  5
5B6
100
AcDbEntity
  8
0
100
AcDbLine
 62
9
  6
CONTINUOUS
 10
11.6154353749
 20
5.1689452152
 11
11.8301738023
 21
5.1689452152
  0
LINE
  5
5B7
100
AcDbEntity
  8
02___PRT_ALL_AXES
100
AcDbLine
 62
7
  6
CONTINUOUS
 10
11.4968206796
 20
5.2083152939
 11
11.4151028521
 21
5.2502183657
  0
LINE
  5
5B8
100
AcDbEntity
  8
02___PRT_ALL_AXES
100
AcDbLine
 62
7
  6
CONTINUOUS
 10
11.4151028521
 20
5.2502183657
 11
11.3409262424
 21
5.3043617063
  0
LWPOLYLINE
  5
5B9
100
AcDbEntity
  8
02___PRT_ALL_AXES
100
AcDbPolyline
 62
7
  6
CONTINUOUS
 90
4
 70
0
 10
11.3409262424
 20
5.3043617063
 10
11.2761087862
 20
5.3694183596
 10
11.2222390433
 20
5.4437939036
 10
11.1806372643
 20
5.5256655272
  0
LWPOLYLINE
  5
5BA
100
AcDbEntity
  8
02___PRT_ALL_AXES
100
AcDbPolyline
 62
7
  6
CONTINUOUS
 90
7
 70
0
 10
11.1806372643
 20
5.5256655272
 10
11.1523230343
 20
5.6130267036
 10
11.1379902843
 20
5.703736367
 10
11.1379902843
 20
5.7955713862
 10
11.1523230343
 20
5.8862810496
 10
11.1806372643
 20
5.973642226
 10
11.2222390433
 20
6.0555138495
  0
LINE
  5
5BB
100
AcDbEntity
  8
02___PRT_ALL_AXES
100
AcDbLine
 62
7
  6
CONTINUOUS
 10
11.4968206796
 20
5.2083152939
 11
11.6191072092
 21
5.2083152939
  0
LINE
  5
5BC
100
AcDbEntity
  8
0
100
AcDbLine
 62
7
  6
CONTINUOUS
 10
11.6191072092
 20
5.2083152939
 11
11.8265019681
 21
5.2083152939
  0
LINE
  5
5BD
100
AcDbEntity
  8
02___PRT_ALL_AXES
100
AcDbLine
 62
7
  6
CONTINUOUS
 10
11.8265019681
 20
5.2083152939
 11
11.9487884976
 21
5.2083152939
  0
LINE
  5
5BE
100
AcDbEntity
  8
0
100
AcDbLine
 62
9
  6
CONTINUOUS
 10
11.6229139236
 20
5.2476853726
 11
11.8226952536
 21
5.2476853726
  0
LWPOLYLINE
  5
5BF
100
AcDbEntity
  8
0
100
AcDbPolyline
 62
7
  6
CONTINUOUS
 90
20
 70
0
 10
11.7335736522
 20
5.3143994532
 10
11.6640394305
 20
5.3214523675
 10
11.5969595474
 20
5.3394864343
 10
11.5337547785
 20
5.3680748686
 10
11.4766629734
 20
5.4060608988
 10
11.426447868
 20
5.4528164145
 10
11.384892586
 20
5.5065923145
 10
11.3528023337
 20
5.5660780128
 10
11.3309125282
 20
5.6297795643
 10
11.3198254079
 20
5.6955026974
 10
11.3196320652
 20
5.7620852709
 10
11.3302516851
 20
5.8271664169
 10
11.3513044929
 20
5.8893294617
 10
11.3821354659
 20
5.9468733227
 10
11.4216975912
 20
5.9981216761
 10
11.4689875682
 20
6.0419545077
 10
11.5224794184
 20
6.0770873398
 10
11.5805987764
 20
6.1026695808
 10
11.6418616443
 20
6.1181680557
 10
11.7043081186
 20
6.123211985
  0
LWPOLYLINE
  5
5C0
100
AcDbEntity
  8
0
100
AcDbPolyline
 62
7
  6
CONTINUOUS
 90
19
 70
0
 10
11.7228045886
 20
5.5253498944
 10
11.7559795561
 20
5.5284146375
 10
11.7886613919
 20
5.5364811686
 10
11.8197205275
 20
5.5493548699
 10
11.8481189939
 20
5.5665011277
 10
11.8734743434
 20
5.5875262681
 10
11.8954696959
 20
5.6121363906
 10
11.9134394929
 20
5.6395539851
 10
11.9270714076
 20
5.6691580055
 10
11.9361861643
 20
5.7005309446
 10
11.9405493123
 20
5.7332319357
 10
11.93992197
 20
5.7663584626
 10
11.9343462962
 20
5.7987249024
 10
11.9241229529
 20
5.8294732805
 10
11.9095390202
 20
5.8581645774
 10
11.8908096035
 20
5.8844210828
 10
11.868317344
 20
5.9076315328
 10
11.8427390134
 20
5.9271109189
 10
11.8144436665
 20
5.9425816782
  0
LWPOLYLINE
  5
5C1
100
AcDbEntity
  8
0
100
AcDbPolyline
 62
7
  6
CONTINUOUS
 90
4
 70
0
 10
11.6198261859
 20
6.2834438291
 10
11.6206631962
 20
6.2747221098
 10
11.6217254144
 20
6.2637561894
 10
11.6229139236
 20
6.2516223805
  0
LWPOLYLINE
  5
5C2
100
AcDbEntity
  8
0
100
AcDbPolyline
 62
7
  6
CONTINUOUS
 90
6
 70
0
 10
11.6154353749
 20
6.330362538
 10
11.6165540275
 20
6.3182230485
 10
11.6175748357
 20
6.3072563018
 10
11.6183935622
 20
6.2985370683
 10
11.6189236287
 20
6.2929283116
 10
11.6198261859
 20
6.2834438291
  0
LINE
  5
5C3
100
AcDbEntity
  8
02___PRT_ALL_AXES
100
AcDbLine
 62
7
  6
CENTER
 10
11.7228045886
 20
5.7496538766
 11
11.7228045886
 21
4.6654019081
  0
LINE
  5
5C4
100
AcDbEntity
  8
02___PRT_ALL_AXES
100
AcDbLine
 62
7
  6
CENTER
 10
11.7228045886
 20
5.7496538766
 11
11.7228045886
 21
6.8339058451
  0
LWPOLYLINE
  5
5C5
100
AcDbEntity
  8
0
100
AcDbPolyline
 62
7
  6
CONTINUOUS
 90
4
 70
0
 10
11.6183935622
 20
5.2007706849
 10
11.6175748357
 20
5.1920514514
 10
11.6165540275
 20
5.1810847046
 10
11.6154353749
 20
5.1689452152
  0
LWPOLYLINE
  5
5C6
100
AcDbEntity
  8
0
100
AcDbPolyline
 62
7
  6
CONTINUOUS
 90
6
 70
0
 10
11.6183935622
 20
5.2007706849
 10
11.6192912264
 20
5.2102523154
 10
11.6198261859
 20
5.2158639241
 10
11.6206631962
 20
5.2245856434
 10
11.6217254144
 20
5.2355515637
 10
11.6229139236
 20
5.2476853726
  0
LINE
  5
5C7
100
AcDbEntity
  8
02___PRT_ALL_AXES
100
AcDbLine
 62
7
  6
CENTER
 10
11.7228045886
 20
5.7496538766
 11
10.6385526201
 21
5.7496538766
  0
LINE
  5
5C8
100
AcDbEntity
  8
02___PRT_ALL_AXES
100
AcDbLine
 62
7
  6
CENTER
 10
11.7228045886
 20
5.7496538766
 11
12.8070565571
 21
5.7496538766
  0
LINE
  5
5C9
100
AcDbEntity
  8
0
100
AcDbLine
 62
7
  6
CONTINUOUS
 10
11.8049291951
 20
5.6341226505
 11
11.8203179259
 21
5.6187339197
  0
LWPOLYLINE
  5
5CA
100
AcDbEntity
  8
0
100
AcDbPolyline
 62
7
  6
CONTINUOUS
 90
4
 70
0
 10
11.8257829913
 20
5.2158639241
 10
11.824945981
 20
5.2245856434
 10
11.8238837628
 20
5.2355515637
 10
11.8226952536
 20
5.2476853726
  0
LWPOLYLINE
  5
5CB
100
AcDbEntity
  8
0
100
AcDbPolyline
 62
7
  6
CONTINUOUS
 90
6
 70
0
 10
11.8257829913
 20
5.2158639241
 10
11.8266855485
 20
5.2063794416
 10
11.827215615
 20
5.2007706849
 10
11.8280343415
 20
5.1920514514
 10
11.8290551497
 20
5.1810847046
 10
11.8301738023
 20
5.1689452152
  0
LWPOLYLINE
  5
5CC
100
AcDbEntity
  8
0
100
AcDbPolyline
 62
7
  6
CONTINUOUS
 90
4
 70
0
 10
11.827215615
 20
6.2985370683
 10
11.8280343415
 20
6.3072563018
 10
11.8290551497
 20
6.3182230485
 10
11.8301738023
 20
6.330362538
  0
LWPOLYLINE
  5
5CD
100
AcDbEntity
  8
0
100
AcDbPolyline
 62
7
  6
CONTINUOUS
 90
6
 70
0
 10
11.827215615
 20
6.2985370683
 10
11.8263179508
 20
6.2890554378
 10
11.8257829913
 20
6.2834438291
 10
11.824945981
 20
6.2747221098
 10
11.8238837628
 20
6.2637561894
 10
11.8226952536
 20
6.2516223805
  0
LINE
  5
5CE
100
AcDbEntity
  8
0
100
AcDbLine
 62
7
  6
CONTINUOUS
 10
11.8538252796
 20
5.6520398052
 11
11.8383358147
 21
5.6675292701
  0
LWPOLYLINE
  5
5CF
100
AcDbEntity
  8
0
100
AcDbPolyline
 62
7
  6
CONTINUOUS
 90
13
 70
0
 10
11.9551214077
 20
5.6741718504
 10
11.9634214147
 20
5.7113197862
 10
11.9658273713
 20
5.7497100406
 10
11.9621587582
 20
5.7879213396
 10
11.9526809745
 20
5.8245587204
 10
11.937785259
 20
5.8589213751
 10
11.9177551713
 20
5.8905532225
 10
11.892919532
 20
5.9188283431
 10
11.8641522943
 20
5.9427405328
 10
11.8319736282
 20
5.9618942335
 10
11.7968215148
 20
5.9758936945
 10
11.7599632132
 20
5.9841359752
 10
11.7228045886
 20
5.9864376754
  0
LWPOLYLINE
  5
5D0
100
AcDbEntity
  8
0
100
AcDbPolyline
 62
7
  6
CONTINUOUS
 90
21
 70
0
 10
11.7228045886
 20
5.9864376754
 10
11.6861556802
 20
5.9829577309
 10
11.650132781
 20
5.9737004714
 10
11.6160931862
 20
5.9589280271
 10
11.5852224187
 20
5.939293578
 10
11.5579346335
 20
5.9152459873
 10
11.5346619813
 20
5.8871868834
 10
11.5161929051
 20
5.8561304413
 10
11.5027981728
 20
5.8227051437
 10
11.4947122266
 20
5.7874059763
 10
11.4922427984
 20
5.7508829191
 10
11.4955749552
 20
5.7144921058
 10
11.5044654897
 20
5.6795741236
 10
11.5185338353
 20
5.6468278581
 10
11.5375038982
 20
5.6166869898
 10
11.5610656329
 20
5.5897401176
 10
11.5883930839
 20
5.566945175
 10
11.6189737684
 20
5.5486939488
 10
11.6523993872
 20
5.5353581427
 10
11.687458894
 20
5.5275175399
 10
11.7228045886
 20
5.5253498944
  0
LWPOLYLINE
  5
5D1
100
AcDbEntity
  8
0
100
AcDbPolyline
 62
7
  6
CONTINUOUS
 90
15
 70
0
 10
11.8144436665
 20
5.9425816782
 10
11.8433468725
 20
5.928646753
 10
11.8701296168
 20
5.9103541252
 10
11.8941600611
 20
5.8879957099
 10
11.9146601364
 20
5.8622067691
 10
11.9311600917
 20
5.833577671
 10
11.9433819979
 20
5.8024779831
 10
11.9509866853
 20
5.7692973299
 10
11.9535791659
 20
5.734850848
 10
11.9509894515
 20
5.70032746
 10
11.9433626163
 20
5.6667326443
 10
11.9308996051
 20
5.6345917767
 10
11.9136932968
 20
5.6042680384
 10
11.8919910065
 20
5.5764592171
 10
11.8663856216
 20
5.5520352345
  0
LWPOLYLINE
  5
5D2
100
AcDbEntity
  8
0
100
AcDbPolyline
 62
7
  6
CONTINUOUS
 90
20
 70
0
 10
11.7228045886
 20
6.1236696246
 10
11.785467842
 20
6.1217150395
 10
11.847574803
 20
6.109213348
 10
11.9067802364
 20
6.0865509909
 10
11.9620812338
 20
6.0539896899
 10
12.0112872657
 20
6.0126770231
 10
12.0534156174
 20
5.9633238249
 10
12.0870310015
 20
5.907351573
 10
12.1110636286
 20
5.8464194578
 10
12.1249017089
 20
5.7817559527
 10
12.1279698904
 20
5.7155320358
 10
12.1201127468
 20
5.6491454809
 10
12.1014128173
 20
5.5845485564
 10
12.0723262222
 20
5.5236055336
 10
12.0334150752
 20
5.4677588171
 10
11.9857543196
 20
5.4187564001
 10
11.9305068102
 20
5.3778991932
 10
11.8688733169
 20
5.3462505356
 10
11.8028193179
 20
5.3249167276
 10
11.7335736522
 20
5.3143994532
  0
LINE
  5
5D3
100
AcDbEntity
  8
0
100
AcDbLine
 62
9
  6
CONTINUOUS
 10
11.8226952536
 20
6.2516223805
 11
11.6229139236
 21
6.2516223805
  0
LINE
  5
5D4
100
AcDbEntity
  8
02___PRT_ALL_AXES
100
AcDbLine
 62
7
  6
CONTINUOUS
 10
11.9487884976
 20
6.2909924593
 11
11.8265019681
 21
6.2909924593
  0
LINE
  5
5D5
100
AcDbEntity
  8
0
100
AcDbLine
 62
7
  6
CONTINUOUS
 10
11.8265019681
 20
6.2909924593
 11
11.6191072092
 21
6.2909924593
  0
LINE
  5
5D6
100
AcDbEntity
  8
02___PRT_ALL_AXES
100
AcDbLine
 62
7
  6
CONTINUOUS
 10
11.6191072092
 20
6.2909924593
 11
11.4968206796
 21
6.2909924593
  0
LINE
  5
5D7
100
AcDbEntity
  8
02___PRT_ALL_AXES
100
AcDbLine
 62
7
  6
CONTINUOUS
 10
12.1046829348
 20
5.3043617063
 11
12.0305063252
 21
5.2502183657
  0
LINE
  5
5D8
100
AcDbEntity
  8
02___PRT_ALL_AXES
100
AcDbLine
 62
7
  6
CONTINUOUS
 10
12.0305063252
 20
5.2502183657
 11
11.9487884976
 21
5.2083152939
  0
LINE
  5
5D9
100
AcDbEntity
  8
0
100
AcDbLine
 62
9
  6
CONTINUOUS
 10
11.8301738023
 20
6.330362538
 11
11.6154353749
 21
6.330362538
  0
LINE
  5
5DA
100
AcDbEntity
  8
02___PRT_ALL_AXES
100
AcDbLine
 62
7
  6
CONTINUOUS
 10
11.9487884976
 20
6.2909924593
 11
12.0305063252
 21
6.2490893875
  0
LINE
  5
5DB
100
AcDbEntity
  8
02___PRT_ALL_AXES
100
AcDbLine
 62
7
  6
CONTINUOUS
 10
12.0305063252
 20
6.2490893875
 11
12.1046829348
 21
6.1949460469
  0
LWPOLYLINE
  5
5DC
100
AcDbEntity
  8
02___PRT_ALL_AXES
100
AcDbPolyline
 62
7
  6
CONTINUOUS
 90
12
 70
0
 10
12.1046829348
 20
6.1949460469
 10
12.169500391
 20
6.1298893936
 10
12.2233701339
 20
6.0555138495
 10
12.2649719129
 20
5.973642226
 10
12.2932861429
 20
5.8862810496
 10
12.3076188929
 20
5.7955713862
 10
12.3076188929
 20
5.703736367
 10
12.2932861429
 20
5.6130267036
 10
12.2649719129
 20
5.5256655272
 10
12.2233701339
 20
5.4437939036
 10
12.169500391
 20
5.3694183596
 10
12.1046829348
 20
5.3043617063
  0
LWPOLYLINE
  5
5DD
100
AcDbEntity
  8
0
100
AcDbPolyline
 62
7
  6
CONTINUOUS
 90
8
 70
0
 10
15.0295207928
 20
7.3398754623
 10
15.0664789063
 20
7.3458092217
 10
15.101548348
 20
7.3549720602
 10
15.134208718
 20
7.3672842864
 10
15.1636955224
 20
7.3826061584
 10
15.1888387492
 20
7.4004378937
 10
15.2087880195
 20
7.4200939301
 10
15.2232957566
 20
7.4411390188
  0
LWPOLYLINE
  5
5DE
100
AcDbEntity
  8
0
100
AcDbPolyline
 62
7
  6
CONTINUOUS
 90
8
 70
0
 10
15.0542239296
 20
7.3466603496
 10
15.0185600033
 20
7.3419942286
 10
14.9821209121
 20
7.3404225365
 10
14.946099085
 20
7.3419726228
 10
14.9108218072
 20
7.3466179308
 10
14.8770078133
 20
7.3543294077
 10
14.8458291381
 20
7.3648670672
 10
14.8182753676
 20
7.377802962
  0
LWPOLYLINE
  5
5DF
100
AcDbEntity
  8
0
100
AcDbPolyline
 62
7
  6
CONTINUOUS
 90
5
 70
0
 10
15.0542239296
 20
7.3755915376
 10
15.0883695249
 20
7.3832324062
 10
15.1204453756
 20
7.3937335803
 10
15.1500709292
 20
7.407076013
 10
15.1762297293
 20
7.4229395669
  0
LWPOLYLINE
  5
5E0
100
AcDbEntity
  8
0
100
AcDbPolyline
 62
9
  6
CONTINUOUS
 90
14
 70
0
 10
14.6815436276
 20
7.5002909321
 10
14.7549200128
 20
7.4760702052
 10
14.8338463448
 20
7.4586117526
 10
14.91647346
 20
7.4483251257
 10
15.0008543189
 20
7.4454535859
 10
15.0850022458
 20
7.4500647176
 10
15.1669388556
 20
7.4620498612
 10
15.24473828
 20
7.4811272836
 10
15.3165705114
 20
7.5068483195
 10
15.3807461247
 20
7.5386080447
 10
15.4357558949
 20
7.575659557
 10
15.4803061449
 20
7.6171315144
 10
15.5133490987
 20
7.6620485174
 10
15.5289661646
 20
7.6976373721
  0
LWPOLYLINE
  5
5E1
100
AcDbEntity
  8
0
100
AcDbPolyline
 62
7
  6
CONTINUOUS
 90
7
 70
0
 10
14.8182753676
 20
7.3745883856
 10
14.8473413637
 20
7.3610517604
 10
14.8803551273
 20
7.350193075
 10
14.9161451474
 20
7.3424923836
 10
14.9533529338
 20
7.3381941486
 10
14.9913607041
 20
7.3373084619
 10
15.0295207928
 20
7.3398754623
  0
LWPOLYLINE
  5
5E2
100
AcDbEntity
  8
0
100
AcDbPolyline
 62
7
  6
CONTINUOUS
 90
11
 70
0
 10
14.8182753676
 20
7.4388799145
 10
14.8473681984
 20
7.42533272
 10
14.8804070837
 20
7.4144705885
 10
14.9162143547
 20
7.4067725785
 10
14.9534281604
 20
7.4024805043
 10
14.9914322729
 20
7.4016015567
 10
15.0295764196
 20
7.4041733035
 10
15.066520235
 20
7.4101094153
 10
15.1015915745
 20
7.4192772731
 10
15.134248745
 20
7.4315935774
 10
15.160530543
 20
7.4452555141
  0
LWPOLYLINE
  5
5E3
100
AcDbEntity
  8
0
100
AcDbPolyline
 62
7
  6
CONTINUOUS
 90
8
 70
0
 10
14.8182753676
 20
7.40673415
 10
14.8458291381
 20
7.3937982552
 10
14.8770078133
 20
7.3832605957
 10
14.9108218072
 20
7.3755491188
 10
14.946099085
 20
7.3709038108
 10
14.9821209121
 20
7.3693537245
 10
15.0185600033
 20
7.3709254166
 10
15.0542239296
 20
7.3755915376
  0
LINE
  5
5E4
100
AcDbEntity
  8
0
100
AcDbLine
 62
7
  6
CONTINUOUS
 10
14.6889201562
 20
7.482716735
 11
14.6903799611
 21
7.4820160436
  0
LINE
  5
5E5
100
AcDbEntity
  8
0
100
AcDbLine
 62
7
  6
CONTINUOUS
 10
14.8589206195
 20
7.3180432196
 11
14.8323945847
 21
7.3310760361
  0
LWPOLYLINE
  5
5E6
100
AcDbEntity
  8
0
100
AcDbPolyline
 62
7
  6
CONTINUOUS
 90
12
 70
0
 10
14.843330228
 20
7.3247622007
 10
14.8668501622
 20
7.3130669755
 10
14.8932122006
 20
7.3034829744
 10
14.9218181909
 20
7.2962561198
 10
14.9519974441
 20
7.2915694932
 10
14.9830434482
 20
7.2895356017
 10
15.0142611181
 20
7.2901982438
 10
15.0449585298
 20
7.2935419352
 10
15.0744509967
 20
7.2994924577
 10
15.1020751765
 20
7.3079162134
 10
15.1272140783
 20
7.3186249887
 10
15.1386733912
 20
7.324765358
  0
LINE
  5
5E7
100
AcDbEntity
  8
0
100
AcDbLine
 62
7
  6
CONTINUOUS
 10
14.8323945847
 20
7.3310760361
 11
14.8323906567
 21
7.3310783039
  0
LINE
  5
5E8
100
AcDbEntity
  8
0
100
AcDbLine
 62
7
  6
CONTINUOUS
 10
14.8433264604
 20
7.3247643772
 11
14.843330228
 21
7.3247622007
  0
LWPOLYLINE
  5
5E9
100
AcDbEntity
  8
0
100
AcDbPolyline
 62
7
  6
CONTINUOUS
 90
3
 70
0
 10
14.8182753676
 20
7.377802962
 10
14.7934034962
 20
7.3938102539
 10
14.7731768757
 20
7.4120846128
  0
LWPOLYLINE
  5
5EA
100
AcDbEntity
  8
0
100
AcDbPolyline
 62
7
  6
CONTINUOUS
 90
3
 70
0
 10
14.8323906567
 20
7.3310783039
 10
14.8111033341
 20
7.3453878033
 10
14.8055615678
 20
7.3505284986
  0
LINE
  5
5EB
100
AcDbEntity
  8
0
100
AcDbLine
 62
7
  6
CONTINUOUS
 10
14.8139580614
 20
7.34486955
 11
14.7906903828
 21
7.3605511669
  0
LWPOLYLINE
  5
5EC
100
AcDbEntity
  8
0
100
AcDbPolyline
 62
7
  6
CONTINUOUS
 90
13
 70
0
 10
14.7880584003
 20
7.3658902275
 10
14.8109247885
 20
7.3498671348
 10
14.8379285494
 20
7.3360292491
 10
14.8684479855
 20
7.3247141943
 10
14.9017813062
 20
7.3162002137
 10
14.9371626081
 20
7.3107006698
 10
14.9737796597
 20
7.3083595031
 10
15.0107921429
 20
7.3092482138
 10
15.0473501444
 20
7.3133642049
 10
15.0826141802
 20
7.3206307336
 10
15.1157749696
 20
7.3308988405
 10
15.1460714637
 20
7.3439507871
 10
15.1728079446
 20
7.3595048571
  0
LWPOLYLINE
  5
5ED
100
AcDbEntity
  8
02___PRT_ALL_AXES
100
AcDbPolyline
 62
7
  6
CONTINUOUS
 90
8
 70
0
 10
14.0067488226
 20
8.7922872027
 10
14.0129380512
 20
8.7286610365
 10
14.0314269863
 20
8.6658373721
 10
14.0619831187
 20
8.6046038876
 10
14.1042221873
 20
8.5457306298
 10
14.1576130115
 20
8.4899579639
 10
14.2214841704
 20
8.4379872636
 10
14.2950324474
 20
8.3904720906
  0
LINE
  5
5EE
100
AcDbEntity
  8
02___PRT_ALL_AXES
100
AcDbLine
 62
7
  6
CONTINUOUS
 10
14.0067511975
 20
8.792301202
 11
14.0104945557
 21
8.7427585937
  0
LWPOLYLINE
  5
5EF
100
AcDbEntity
  8
0
100
AcDbPolyline
 62
9
  6
CONTINUOUS
 90
8
 70
0
 10
14.0067488226
 20
8.4065380293
 10
14.0072202145
 20
8.3889531113
 10
14.0204493743
 20
8.3120550166
 10
14.0518089293
 20
8.2365693006
 10
14.0998941802
 20
8.1652388021
 10
14.1606974983
 20
8.1013930405
 10
14.2281813619
 20
8.0474431509
 10
14.2950324474
 20
8.0047229172
  0
LINE
  5
5F0
100
AcDbEntity
  8
02___PRT_ALL_AXES
100
AcDbLine
 62
7
  6
CONTINUOUS
 10
14.0067488226
 20
8.7922872027
 11
14.0067488226
 21
8.4065380293
  0
LWPOLYLINE
  5
5F1
100
AcDbEntity
  8
02___PRT_ALL_AXES
100
AcDbPolyline
 62
7
  6
CONTINUOUS
 90
18
 70
0
 10
14.0067488226
 20
8.7922872027
 10
14.0156516052
 20
8.9243701424
 10
14.0431398073
 20
9.0574503463
 10
14.0907548082
 20
9.1901679735
 10
14.1588438191
 20
9.3178980011
 10
14.2395781824
 20
9.4279883908
 10
14.3381450987
 20
9.5288544992
 10
14.4442706638
 20
9.610723581
 10
14.5543854979
 20
9.6743977531
 10
14.670998725
 20
9.7230667766
 10
14.7820281937
 20
9.7540992379
 10
14.8884509103
 20
9.7711822223
 10
14.9922566864
 20
9.77653837
 10
15.093721988
 20
9.77116426
 10
15.1936423888
 20
9.755452983
 10
15.2896508048
 20
9.7301358615
 10
15.3848599991
 20
9.6942998754
 10
15.4831184255
 20
9.6446792319
  0
LWPOLYLINE
  5
5F2
100
AcDbEntity
  8
02___PRT_ALL_AXES
100
AcDbPolyline
 62
7
  6
CONTINUOUS
 90
9
 70
0
 10
14.9461628813
 20
7.4906454092
 10
15.0379977441
 20
7.4919459197
 10
15.1286807958
 20
7.5015201156
 10
15.2159895575
 20
7.519162825
 10
15.2977842479
 20
7.5444711312
 10
15.3720602259
 20
7.5768542477
 10
15.4369971204
 20
7.6155479968
 10
15.4910034445
 20
7.6596335386
 10
15.5327556002
 20
7.7080598901
  0
LINE
  5
5F3
100
AcDbEntity
  8
02___PRT_ALL_AXES
100
AcDbLine
 62
7
  6
CONTINUOUS
 10
14.8554269153
 20
7.4976209826
 11
14.9461628813
 21
7.4906454092
  0
LWPOLYLINE
  5
5F4
100
AcDbEntity
  8
02___PRT_ALL_AXES
100
AcDbPolyline
 62
7
  6
CONTINUOUS
 90
10
 70
0
 10
14.7680136219
 20
7.506644876
 10
14.8554269153
 20
7.4915936518
 10
14.9461628813
 20
7.4846180783
 10
15.0379977441
 20
7.4859185889
 10
15.1286807958
 20
7.4954927847
 10
15.2159895575
 20
7.5131354941
 10
15.2977842479
 20
7.5384438004
 10
15.3720602259
 20
7.5708269168
 10
15.4369971204
 20
7.6095206659
 10
15.4910034445
 20
7.6536062077
  0
LINE
  5
5F5
100
AcDbEntity
  8
02___PRT_ALL_AXES
100
AcDbLine
 62
7
  6
CONTINUOUS
 10
14.7680136219
 20
7.5126722068
 11
14.8554269153
 21
7.4976209826
  0
LWPOLYLINE
  5
5F6
100
AcDbEntity
  8
02___PRT_ALL_AXES
100
AcDbPolyline
 62
7
  6
CONTINUOUS
 90
11
 70
0
 10
14.7680136219
 20
7.5548635226
 10
14.8554269153
 20
7.5398122985
 10
14.9461628813
 20
7.532836725
 10
15.0379977441
 20
7.5341372355
 10
15.1286807958
 20
7.5437114314
 10
15.2159895575
 20
7.5613541408
 10
15.2977842479
 20
7.5866624471
 10
15.3720602259
 20
7.6190455635
 10
15.4369971204
 20
7.6577393126
 10
15.4910034445
 20
7.7018248544
 10
15.5327556002
 20
7.7502512059
  0
LWPOLYLINE
  5
5F7
100
AcDbEntity
  8
02___PRT_ALL_AXES
100
AcDbPolyline
 62
7
  6
CONTINUOUS
 90
11
 70
0
 10
14.7680136219
 20
7.5608908535
 10
14.8554269153
 20
7.5458396293
 10
14.9461628813
 20
7.5388640559
 10
15.0379977441
 20
7.5401645664
 10
15.1286807958
 20
7.5497387623
 10
15.2159895575
 20
7.5673814716
 10
15.2977842479
 20
7.5926897779
 10
15.3720602259
 20
7.6250728944
 10
15.4369971204
 20
7.6637666434
 10
15.4910034445
 20
7.7078521852
 10
15.5327556002
 20
7.7562785367
  0
LWPOLYLINE
  5
5F8
100
AcDbEntity
  8
02___PRT_ALL_AXES
100
AcDbPolyline
 62
7
  6
CONTINUOUS
 90
3
 70
0
 10
14.8356175858
 20
7.5863343753
 10
14.7558705653
 20
7.6026466351
 10
14.6815436276
 20
7.6259342224
  0
LWPOLYLINE
  5
5F9
100
AcDbEntity
  8
02___PRT_ALL_AXES
100
AcDbPolyline
 62
7
  6
CONTINUOUS
 90
3
 70
0
 10
14.8327656797
 20
7.5385629333
 10
14.7544852167
 20
7.5547852545
 10
14.6815436276
 20
7.5777155757
  0
LWPOLYLINE
  5
5FA
100
AcDbEntity
  8
02___PRT_ALL_AXES
100
AcDbPolyline
 62
7
  6
CONTINUOUS
 90
4
 70
0
 10
14.7680136219
 20
7.506644876
 10
14.739064475
 20
7.5160050197
 10
14.7102228642
 20
7.526535447
 10
14.6815436276
 20
7.5382813865
  0
LWPOLYLINE
  5
5FB
100
AcDbEntity
  8
02___PRT_ALL_AXES
100
AcDbPolyline
 62
7
  6
CONTINUOUS
 90
4
 70
0
 10
14.7680136219
 20
7.5548635226
 10
14.7390383304
 20
7.5642326542
 10
14.7102021879
 20
7.5747620947
 10
14.6815436276
 20
7.5865000332
  0
LWPOLYLINE
  5
5FC
100
AcDbEntity
  8
02___PRT_ALL_AXES
100
AcDbPolyline
 62
7
  6
CONTINUOUS
 90
4
 70
0
 10
14.4484227823
 20
7.6911141567
 10
14.4773937223
 20
7.6817465212
 10
14.5062295358
 20
7.6712173959
 10
14.5348927766
 20
7.6594776462
  0
LINE
  5
5FD
100
AcDbEntity
  8
0
100
AcDbLine
 62
7
  6
CONTINUOUS
 10
14.688895736
 20
7.4827308336
 11
14.5438487249
 21
7.5664718701
  0
LINE
  5
5FE
100
AcDbEntity
  8
0
100
AcDbLine
 62
9
  6
CONTINUOUS
 10
14.6815436276
 20
7.5002909321
 11
14.5348927766
 21
7.584957925
  0
LINE
  5
5FF
100
AcDbEntity
  8
0
100
AcDbLine
 62
7
  6
CONTINUOUS
 10
14.8182753676
 20
7.4099487265
 11
14.7934325607
 21
7.4259339703
  0
LINE
  5
600
100
AcDbEntity
  8
0
100
AcDbLine
 62
7
  6
CONTINUOUS
 10
14.801170368
 20
7.4498862227
 11
14.8182753676
 21
7.4388799145
  0
LINE
  5
601
100
AcDbEntity
  8
0
100
AcDbLine
 62
7
  6
CONTINUOUS
 10
14.8182753676
 20
7.4420944909
 11
14.8087104735
 21
7.4482498259
  0
LWPOLYLINE
  5
602
100
AcDbEntity
  8
02___PRT_ALL_AXES
100
AcDbPolyline
 62
7
  6
CONTINUOUS
 90
5
 70
0
 10
14.5348927766
 20
7.6682621037
 10
14.5135010634
 20
7.6832597098
 10
14.4914533845
 20
7.6994903888
 10
14.469478038
 20
7.7164176317
 10
14.4484227823
 20
7.7333054726
  0
LINE
  5
603
100
AcDbEntity
  8
0
100
AcDbLine
 62
7
  6
CONTINUOUS
 10
14.5414842692
 20
7.5681392517
 11
14.5438264893
 21
7.5664847076
  0
LWPOLYLINE
  5
604
100
AcDbEntity
  8
02___PRT_ALL_AXES
100
AcDbPolyline
 62
7
  6
CONTINUOUS
 90
3
 70
0
 10
14.5348927766
 20
7.620043457
 10
14.5062348417
 20
7.6403048946
 10
14.4773964476
 20
7.6620154631
  0
LWPOLYLINE
  5
605
100
AcDbEntity
  8
02___PRT_ALL_AXES
100
AcDbPolyline
 62
7
  6
CONTINUOUS
 90
4
 70
0
 10
14.6815436276
 20
7.5777155757
 10
14.7102295257
 20
7.5574337174
 10
14.7390736175
 20
7.535717482
 10
14.7680136219
 20
7.5126722068
  0
LINE
  5
606
100
AcDbEntity
  8
02___PRT_ALL_AXES
100
AcDbLine
 62
7
  6
CONTINUOUS
 10
14.4773964476
 20
7.6620154631
 11
14.4484227823
 21
7.6850868259
  0
LWPOLYLINE
  5
607
100
AcDbEntity
  8
0
100
AcDbPolyline
 62
7
  6
CONTINUOUS
 90
3
 70
0
 10
14.7731768757
 20
7.4410158008
 10
14.7934034962
 20
7.4227414419
 10
14.8182753676
 20
7.40673415
  0
LWPOLYLINE
  5
608
100
AcDbEntity
  8
0
100
AcDbPolyline
 62
7
  6
CONTINUOUS
 90
4
 70
0
 10
14.7906903828
 20
7.3605511669
 10
14.7719658606
 20
7.378064336
 10
14.7582105206
 20
7.3969931903
 10
14.7497363463
 20
7.4168894476
  0
LWPOLYLINE
  5
609
100
AcDbEntity
  8
0
100
AcDbPolyline
 62
7
  6
CONTINUOUS
 90
4
 70
0
 10
14.5414848178
 20
7.5681389414
 10
14.4972299804
 20
7.6131235127
 10
14.465135658
 20
7.6619259021
 10
14.459832943
 20
7.6760010594
  0
LWPOLYLINE
  5
60A
100
AcDbEntity
  8
02___PRT_ALL_AXES
100
AcDbPolyline
 62
7
  6
CONTINUOUS
 90
3
 70
0
 10
15.0862012271
 20
7.6781729175
 10
15.0017552347
 20
7.6722684789
 10
14.9176918361
 20
7.6738616194
  0
LINE
  5
60B
100
AcDbEntity
  8
02___PRT_ALL_AXES
100
AcDbLine
 62
7
  6
CONTINUOUS
 10
14.9176918361
 20
7.6738616194
 11
14.8353663006
 21
7.6828106869
  0
LWPOLYLINE
  5
60C
100
AcDbEntity
  8
02___PRT_ALL_AXES
100
AcDbPolyline
 62
7
  6
CONTINUOUS
 90
6
 70
0
 10
14.7680136219
 20
7.6030821693
 10
14.8554269153
 20
7.5880309452
 10
14.9461628813
 20
7.5810553717
 10
15.0379977441
 20
7.5823558822
 10
15.1286807958
 20
7.5919300781
 10
15.2159895575
 20
7.6095727875
  0
LWPOLYLINE
  5
60D
100
AcDbEntity
  8
02___PRT_ALL_AXES
100
AcDbPolyline
 62
7
  6
CONTINUOUS
 90
6
 70
0
 10
14.7680136219
 20
7.6091095002
 10
14.8554269153
 20
7.594058276
 10
14.9461628813
 20
7.5870827025
 10
15.0379977441
 20
7.5883832131
 10
15.1286807958
 20
7.5979574089
 10
15.2159895575
 20
7.6156001183
  0
LWPOLYLINE
  5
60E
100
AcDbEntity
  8
02___PRT_ALL_AXES
100
AcDbPolyline
 62
7
  6
CONTINUOUS
 90
11
 70
0
 10
14.7680136219
 20
7.651300816
 10
14.8554269153
 20
7.6362495919
 10
14.9461628813
 20
7.6292740184
 10
15.0379977441
 20
7.6305745289
 10
15.1286807958
 20
7.6401487248
 10
15.2159895575
 20
7.6577914342
 10
15.2977842479
 20
7.6830997404
 10
15.3720602259
 20
7.7154828569
 10
15.4369971204
 20
7.754176606
 10
15.4910034445
 20
7.7982621478
 10
15.5327556002
 20
7.8466884993
  0
LWPOLYLINE
  5
60F
100
AcDbEntity
  8
02___PRT_ALL_AXES
100
AcDbPolyline
 62
7
  6
CONTINUOUS
 90
6
 70
0
 10
14.7680136219
 20
7.6573281468
 10
14.8554269153
 20
7.6422769227
 10
14.9461628813
 20
7.6353013492
 10
15.0379977441
 20
7.6366018597
 10
15.1286807958
 20
7.6461760556
 10
15.2159895575
 20
7.663818765
  0
LWPOLYLINE
  5
610
100
AcDbEntity
  8
02___PRT_ALL_AXES
100
AcDbPolyline
 62
7
  6
CONTINUOUS
 90
11
 70
0
 10
14.7680136219
 20
7.6995194627
 10
14.8554269153
 20
7.6844682385
 10
14.9461628813
 20
7.6774926651
 10
15.0379977441
 20
7.6787931756
 10
15.1286807958
 20
7.6883673715
 10
15.2159895575
 20
7.7060100808
 10
15.2977842479
 20
7.7313183871
 10
15.3720602259
 20
7.7637015036
 10
15.4369971204
 20
7.8023952526
 10
15.4910034445
 20
7.8464807944
 10
15.5327556002
 20
7.8949071459
  0
LWPOLYLINE
  5
611
100
AcDbEntity
  8
02___PRT_ALL_AXES
100
AcDbPolyline
 62
7
  6
CONTINUOUS
 90
12
 70
0
 10
14.7680136219
 20
7.7055467935
 10
14.8554269153
 20
7.6904955694
 10
14.9461628813
 20
7.6835199959
 10
15.0379977441
 20
7.6848205064
 10
15.1286807958
 20
7.6943947023
 10
15.2159895575
 20
7.7120374117
 10
15.2977842479
 20
7.7373457179
 10
15.3720602259
 20
7.7697288344
 10
15.4369971204
 20
7.8084225835
 10
15.4910034445
 20
7.8525081253
 10
15.5327556002
 20
7.9009344768
 10
15.544473926
 20
7.9221736826
  0
LWPOLYLINE
  5
612
100
AcDbEntity
  8
02___PRT_ALL_AXES
100
AcDbPolyline
 62
7
  6
CONTINUOUS
 90
3
 70
0
 10
14.8353663006
 20
7.6828106869
 10
14.7557509541
 20
7.6991146686
 10
14.6815436276
 20
7.7223715157
  0
LWPOLYLINE
  5
613
100
AcDbEntity
  8
02___PRT_ALL_AXES
100
AcDbPolyline
 62
7
  6
CONTINUOUS
 90
3
 70
0
 10
14.8341121175
 20
7.6347878964
 10
14.7552964581
 20
7.6510130108
 10
14.6815436276
 20
7.674152869
  0
LWPOLYLINE
  5
614
100
AcDbEntity
  8
02___PRT_ALL_AXES
100
AcDbPolyline
 62
7
  6
CONTINUOUS
 90
5
 70
0
 10
14.4484227823
 20
7.7393328034
 10
14.4694892781
 20
7.7326376811
 10
14.4913648025
 20
7.7250192846
 10
14.5133791115
 20
7.7166295677
 10
14.5348927766
 20
7.7076962929
  0
LWPOLYLINE
  5
615
100
AcDbEntity
  8
02___PRT_ALL_AXES
100
AcDbPolyline
 62
7
  6
CONTINUOUS
 90
4
 70
0
 10
14.7680136219
 20
7.6030821693
 10
14.7390383304
 20
7.6124513009
 10
14.7102021879
 20
7.6229807414
 10
14.6815436276
 20
7.6347186798
  0
LWPOLYLINE
  5
616
100
AcDbEntity
  8
02___PRT_ALL_AXES
100
AcDbPolyline
 62
7
  6
CONTINUOUS
 90
4
 70
0
 10
14.7680136219
 20
7.651300816
 10
14.7390383304
 20
7.6606699475
 10
14.7102021879
 20
7.6711993881
 10
14.6815436276
 20
7.6829373265
  0
LWPOLYLINE
  5
617
100
AcDbEntity
  8
02___PRT_ALL_AXES
100
AcDbPolyline
 62
7
  6
CONTINUOUS
 90
4
 70
0
 10
14.4484227823
 20
7.7875514501
 10
14.4773937223
 20
7.7781838145
 10
14.5062295358
 20
7.7676546892
 10
14.5348927766
 20
7.7559149396
  0
LWPOLYLINE
  5
618
100
AcDbEntity
  8
02___PRT_ALL_AXES
100
AcDbPolyline
 62
7
  6
CONTINUOUS
 90
4
 70
0
 10
14.7680136219
 20
7.6995194627
 10
14.7390383304
 20
7.7088885942
 10
14.7102021879
 20
7.7194180348
 10
14.6815436276
 20
7.7311559732
  0
LWPOLYLINE
  5
619
100
AcDbEntity
  8
02___PRT_ALL_AXES
100
AcDbPolyline
 62
7
  6
CONTINUOUS
 90
4
 70
0
 10
14.5348927766
 20
7.7164807504
 10
14.5062348417
 20
7.736742188
 10
14.4773964476
 20
7.7584527565
 10
14.4484227823
 20
7.7815241192
  0
LWPOLYLINE
  5
61A
100
AcDbEntity
  8
02___PRT_ALL_AXES
100
AcDbPolyline
 62
7
  6
CONTINUOUS
 90
4
 70
0
 10
14.6815436276
 20
7.6259342224
 10
14.7102064557
 20
7.6056692115
 10
14.7390444804
 20
7.5839587104
 10
14.7680136219
 20
7.5608908535
  0
LWPOLYLINE
  5
61B
100
AcDbEntity
  8
02___PRT_ALL_AXES
100
AcDbPolyline
 62
7
  6
CONTINUOUS
 90
4
 70
0
 10
14.5348927766
 20
7.764699397
 10
14.5062348417
 20
7.7849608347
 10
14.4773964476
 20
7.8066714032
 10
14.4484227823
 20
7.8297427659
  0
LWPOLYLINE
  5
61C
100
AcDbEntity
  8
02___PRT_ALL_AXES
100
AcDbPolyline
 62
7
  6
CONTINUOUS
 90
4
 70
0
 10
14.6815436276
 20
7.674152869
 10
14.7102064557
 20
7.6538878581
 10
14.7390444804
 20
7.632177357
 10
14.7680136219
 20
7.6091095002
  0
LWPOLYLINE
  5
61D
100
AcDbEntity
  8
02___PRT_ALL_AXES
100
AcDbPolyline
 62
7
  6
CONTINUOUS
 90
4
 70
0
 10
14.5348927766
 20
7.8129180437
 10
14.5062348417
 20
7.8331794814
 10
14.4773964476
 20
7.8548900499
 10
14.4484227823
 20
7.8779614126
  0
LWPOLYLINE
  5
61E
100
AcDbEntity
  8
0
100
AcDbPolyline
 62
7
  6
CONTINUOUS
 90
3
 70
0
 10
14.7934325607
 20
7.4259339703
 10
14.7732158982
 20
7.4441878112
 10
14.7627256403
 20
7.4583158788
  0
LINE
  5
61F
100
AcDbEntity
  8
02___PRT_ALL_AXES
100
AcDbLine
 62
7
  6
CONTINUOUS
 10
14.5348927766
 20
7.7076962929
 11
14.5020832835
 21
7.7398676286
  0
LINE
  5
620
100
AcDbEntity
  8
02___PRT_ALL_AXES
100
AcDbLine
 62
7
  6
CONTINUOUS
 10
14.5348927766
 20
7.6594776462
 11
14.5024275837
 21
7.6914115926
  0
LINE
  5
621
100
AcDbEntity
  8
02___PRT_ALL_AXES
100
AcDbLine
 62
7
  6
CONTINUOUS
 10
14.5348927766
 20
7.7559149396
 11
14.5025014393
 21
7.7877714727
  0
LINE
  5
622
100
AcDbEntity
  8
02___PRT_ALL_AXES
100
AcDbLine
 62
7
  6
CONTINUOUS
 10
14.4202691346
 20
7.7825700649
 11
14.4484227823
 21
7.7333054726
  0
LINE
  5
623
100
AcDbEntity
  8
02___PRT_ALL_AXES
100
AcDbLine
 62
7
  6
CONTINUOUS
 10
14.4202691346
 20
7.7885973957
 11
14.4484227823
 21
7.7393328034
  0
LINE
  5
624
100
AcDbEntity
  8
02___PRT_ALL_AXES
100
AcDbLine
 62
7
  6
CONTINUOUS
 10
14.0104945557
 20
8.7427585937
 11
14.027083685
 21
8.6773747472
  0
LWPOLYLINE
  5
625
100
AcDbEntity
  8
02___PRT_ALL_AXES
100
AcDbPolyline
 62
7
  6
CONTINUOUS
 90
11
 70
0
 10
14.7680136219
 20
7.7477381094
 10
14.8554269153
 20
7.7326868852
 10
14.9461628813
 20
7.7257113117
 10
15.0379977441
 20
7.7270118223
 10
15.1286807958
 20
7.7365860181
 10
15.2159895575
 20
7.7542287275
 10
15.2977842479
 20
7.7795370338
 10
15.3720602259
 20
7.8119201502
 10
15.4369971204
 20
7.8506138993
 10
15.4910034445
 20
7.8946994411
 10
15.5018711256
 20
7.9073043507
  0
LWPOLYLINE
  5
626
100
AcDbEntity
  8
02___PRT_ALL_AXES
100
AcDbPolyline
 62
7
  6
CONTINUOUS
 90
11
 70
0
 10
14.7680136219
 20
7.7537654402
 10
14.8554269153
 20
7.7387142161
 10
14.9461628813
 20
7.7317386426
 10
15.0379977441
 20
7.7330391531
 10
15.1286807958
 20
7.742613349
 10
15.2159895575
 20
7.7602560584
 10
15.2977842479
 20
7.7855643646
 10
15.3720602259
 20
7.8179474811
 10
15.4369971204
 20
7.8566412302
 10
15.4910034445
 20
7.900726772
 10
15.4944375965
 20
7.9047098824
  0
LWPOLYLINE
  5
627
100
AcDbEntity
  8
02___PRT_ALL_AXES
100
AcDbPolyline
 62
7
  6
CONTINUOUS
 90
9
 70
0
 10
14.7680136219
 20
7.795956756
 10
14.8554269153
 20
7.7809055319
 10
14.9461628813
 20
7.7739299584
 10
15.0379977441
 20
7.7752304689
 10
15.1286807958
 20
7.7848046648
 10
15.2159895575
 20
7.8024473742
 10
15.2977842479
 20
7.8277556805
 10
15.3720602259
 20
7.8601387969
 10
15.3952936041
 20
7.873982799
  0
LWPOLYLINE
  5
628
100
AcDbEntity
  8
02___PRT_ALL_AXES
100
AcDbPolyline
 62
7
  6
CONTINUOUS
 90
9
 70
0
 10
14.7680136219
 20
7.8019840869
 10
14.8554269153
 20
7.7869328627
 10
14.9461628813
 20
7.7799572893
 10
15.0379977441
 20
7.7812577998
 10
15.1286807958
 20
7.7908319957
 10
15.2159895575
 20
7.808474705
 10
15.2977842479
 20
7.8337830113
 10
15.3720602259
 20
7.8661661278
 10
15.3780395788
 20
7.8697290265
  0
LWPOLYLINE
  5
629
100
AcDbEntity
  8
02___PRT_ALL_AXES
100
AcDbPolyline
 62
7
  6
CONTINUOUS
 90
3
 70
0
 10
14.8352411724
 20
7.7310487906
 10
14.7556918919
 20
7.7473485017
 10
14.6815436276
 20
7.7705901624
  0
LWPOLYLINE
  5
62A
100
AcDbEntity
  8
02___PRT_ALL_AXES
100
AcDbPolyline
 62
7
  6
CONTINUOUS
 90
3
 70
0
 10
14.8331313104
 20
7.7795982955
 10
14.7543905667
 20
7.7959029955
 10
14.6815436276
 20
7.8188088091
  0
LWPOLYLINE
  5
62B
100
AcDbEntity
  8
02___PRT_ALL_AXES
100
AcDbPolyline
 62
7
  6
CONTINUOUS
 90
5
 70
0
 10
14.7680136219
 20
7.7477381094
 10
14.7469747346
 20
7.7544240535
 10
14.7250072946
 20
7.7620750615
 10
14.7029547206
 20
7.7704821895
 10
14.6815436276
 20
7.7793746199
  0
LWPOLYLINE
  5
62C
100
AcDbEntity
  8
02___PRT_ALL_AXES
100
AcDbPolyline
 62
7
  6
CONTINUOUS
 90
4
 70
0
 10
14.4484227823
 20
7.8357700968
 10
14.4773937223
 20
7.8264024612
 10
14.5062295358
 20
7.8158733359
 10
14.5348927766
 20
7.8041335862
  0
LWPOLYLINE
  5
62D
100
AcDbEntity
  8
02___PRT_ALL_AXES
100
AcDbPolyline
 62
7
  6
CONTINUOUS
 90
4
 70
0
 10
14.4484227823
 20
7.8839887434
 10
14.4773937223
 20
7.8746211079
 10
14.5062295358
 20
7.8640919826
 10
14.5348927766
 20
7.8523522329
  0
LWPOLYLINE
  5
62E
100
AcDbEntity
  8
02___PRT_ALL_AXES
100
AcDbPolyline
 62
7
  6
CONTINUOUS
 90
4
 70
0
 10
14.7680136219
 20
7.795956756
 10
14.7390383304
 20
7.8053258876
 10
14.7102021879
 20
7.8158553282
 10
14.6815436276
 20
7.8275932666
  0
LWPOLYLINE
  5
62F
100
AcDbEntity
  8
0
100
AcDbPolyline
 62
9
  6
CONTINUOUS
 90
3
 70
0
 10
14.2950324474
 20
8.0047229172
 10
14.3689728029
 20
7.9661531658
 10
14.4623641488
 20
7.9272067138
  0
LWPOLYLINE
  5
630
100
AcDbEntity
  8
0
100
AcDbPolyline
 62
7
  6
CONTINUOUS
 90
7
 70
0
 10
14.3031864758
 20
7.9866998405
 10
14.215244361
 20
8.0448461054
 10
14.1411647578
 20
8.1096764045
 10
14.0824924683
 20
8.1798568429
 10
14.0403348664
 20
8.2537461643
 10
14.0151166901
 20
8.3297175974
 10
14.0067488226
 20
8.4065380293
  0
LWPOLYLINE
  5
631
100
AcDbEntity
  8
02___PRT_ALL_AXES
100
AcDbPolyline
 62
7
  6
CONTINUOUS
 90
5
 70
0
 10
14.6815436276
 20
7.8188088091
 10
14.7030347098
 20
7.8037397907
 10
14.7250392074
 20
7.7875381837
 10
14.7469216629
 20
7.7706821577
 10
14.7680136219
 20
7.7537654402
  0
LWPOLYLINE
  5
632
100
AcDbEntity
  8
02___PRT_ALL_AXES
100
AcDbPolyline
 62
7
  6
CONTINUOUS
 90
4
 70
0
 10
14.6815436276
 20
7.7223715157
 10
14.7102064557
 20
7.7021065048
 10
14.7390444804
 20
7.6803960037
 10
14.7680136219
 20
7.6573281468
  0
LWPOLYLINE
  5
633
100
AcDbEntity
  8
02___PRT_ALL_AXES
100
AcDbPolyline
 62
7
  6
CONTINUOUS
 90
4
 70
0
 10
14.5348927766
 20
7.8611366904
 10
14.5062348417
 20
7.8813981281
 10
14.4773964476
 20
7.9031086965
 10
14.4652076894
 20
7.9128144504
  0
LWPOLYLINE
  5
634
100
AcDbEntity
  8
02___PRT_ALL_AXES
100
AcDbPolyline
 62
7
  6
CONTINUOUS
 90
4
 70
0
 10
14.6815436276
 20
7.7705901624
 10
14.7102064557
 20
7.7503251515
 10
14.7390444804
 20
7.7286146504
 10
14.7680136219
 20
7.7055467935
  0
LINE
  5
635
100
AcDbEntity
  8
02___PRT_ALL_AXES
100
AcDbLine
 62
7
  6
CONTINUOUS
 10
14.5348927766
 20
7.8523522329
 11
14.5023654062
 21
7.8843111766
  0
LINE
  5
636
100
AcDbEntity
  8
02___PRT_ALL_AXES
100
AcDbLine
 62
7
  6
CONTINUOUS
 10
14.5348927766
 20
7.8041335862
 11
14.5025238521
 21
7.8359732463
  0
LWPOLYLINE
  5
637
100
AcDbEntity
  8
0
100
AcDbPolyline
 62
7
  6
CONTINUOUS
 90
4
 70
0
 10
14.7584514768
 20
7.4287203954
 10
14.7731893012
 20
7.4088564785
 10
14.7934127405
 20
7.3905886637
 10
14.8182753676
 20
7.3745883856
  0
LWPOLYLINE
  5
638
100
AcDbEntity
  8
0
100
AcDbPolyline
 62
7
  6
CONTINUOUS
 90
4
 70
0
 10
14.7731768757
 20
7.4120846128
 10
14.7584408265
 20
7.4319533736
 10
14.7496264489
 20
7.4526393456
 10
14.7481765411
 20
7.4630820488
  0
LINE
  5
639
100
AcDbEntity
  8
0
100
AcDbLine
 62
7
  6
CONTINUOUS
 10
14.7595821915
 20
7.4593456478
 11
14.7731768757
 21
7.4410158008
  0
LINE
  5
63A
100
AcDbEntity
  8
02___PRT_ALL_AXES
100
AcDbLine
 62
7
  6
CONTINUOUS
 10
14.4202691346
 20
7.8790073582
 11
14.4484227823
 21
7.8297427659
  0
LINE
  5
63B
100
AcDbEntity
  8
02___PRT_ALL_AXES
100
AcDbLine
 62
7
  6
CONTINUOUS
 10
14.4202691346
 20
7.9272260049
 11
14.4484227823
 21
7.8779614126
  0
LINE
  5
63C
100
AcDbEntity
  8
02___PRT_ALL_AXES
100
AcDbLine
 62
7
  6
CONTINUOUS
 10
14.4228920129
 20
7.9286636985
 11
14.4484227823
 21
7.8839887434
  0
LINE
  5
63D
100
AcDbEntity
  8
02___PRT_ALL_AXES
100
AcDbLine
 62
7
  6
CONTINUOUS
 10
14.027083685
 20
8.6773747472
 11
14.0567081396
 21
8.6135448945
  0
LWPOLYLINE
  5
63E
100
AcDbEntity
  8
0
100
AcDbPolyline
 62
9
  6
CONTINUOUS
 90
4
 70
0
 10
14.4622588434
 20
7.6740693456
 10
14.4626997995
 20
7.6728887633
 10
14.4929400596
 20
7.6273209651
 10
14.5348927766
 20
7.584957925
  0
LINE
  5
63F
100
AcDbEntity
  8
02___PRT_ALL_AXES
100
AcDbLine
 62
7
  6
CONTINUOUS
 10
14.4061030964
 20
7.8337530429
 11
14.4202691346
 21
7.7825700649
  0
LWPOLYLINE
  5
640
100
AcDbEntity
  8
02___PRT_ALL_AXES
100
AcDbPolyline
 62
7
  6
CONTINUOUS
 90
3
 70
0
 10
14.4061030964
 20
7.8819716896
 10
14.4202691346
 20
7.8307887115
 10
14.4484227823
 20
7.7815241192
  0
LWPOLYLINE
  5
641
100
AcDbEntity
  8
02___PRT_ALL_AXES
100
AcDbPolyline
 62
7
  6
CONTINUOUS
 90
4
 70
0
 10
14.4043866179
 20
7.8108367998
 10
14.4061030964
 20
7.7855343962
 10
14.4202691346
 20
7.7343514182
 10
14.4484227823
 20
7.6850868259
  0
LWPOLYLINE
  5
642
100
AcDbEntity
  8
02___PRT_ALL_AXES
100
AcDbPolyline
 62
7
  6
CONTINUOUS
 90
4
 70
0
 10
14.4043866179
 20
7.8168641306
 10
14.4061030964
 20
7.7915617271
 10
14.4202691346
 20
7.740378749
 10
14.4484227823
 20
7.6911141567
  0
LINE
  5
643
100
AcDbEntity
  8
02___PRT_ALL_AXES
100
AcDbLine
 62
7
  6
CONTINUOUS
 10
14.4043866179
 20
7.8590554465
 11
14.4061030964
 21
7.8337530429
  0
LWPOLYLINE
  5
644
100
AcDbEntity
  8
02___PRT_ALL_AXES
100
AcDbPolyline
 62
7
  6
CONTINUOUS
 90
3
 70
0
 10
14.4043866179
 20
7.8650827773
 10
14.4061030964
 20
7.8397803737
 10
14.4202691346
 20
7.7885973957
  0
LINE
  5
645
100
AcDbEntity
  8
02___PRT_ALL_AXES
100
AcDbLine
 62
7
  6
CONTINUOUS
 10
14.4043866179
 20
7.9072740931
 11
14.4061030964
 21
7.8819716896
  0
LWPOLYLINE
  5
646
100
AcDbEntity
  8
02___PRT_ALL_AXES
100
AcDbPolyline
 62
7
  6
CONTINUOUS
 90
4
 70
0
 10
14.4043866179
 20
7.913301424
 10
14.4061030964
 20
7.8879990204
 10
14.4202691346
 20
7.8368160424
 10
14.4484227823
 20
7.7875514501
  0
LWPOLYLINE
  5
647
100
AcDbEntity
  8
02___PRT_ALL_AXES
100
AcDbPolyline
 62
7
  6
CONTINUOUS
 90
6
 70
0
 10
15.1162488137
 20
7.8277124484
 10
15.0844853204
 20
7.8226325022
 10
15.0011062745
 20
7.8169082905
 10
14.9176746526
 20
7.8185186495
 10
14.8353953134
 20
7.8274621182
 10
14.8105888617
 20
7.8325414373
  0
LWPOLYLINE
  5
648
100
AcDbEntity
  8
02___PRT_ALL_AXES
100
AcDbPolyline
 62
7
  6
CONTINUOUS
 90
3
 70
0
 10
14.928278873
 20
7.8235234867
 10
14.9461628813
 20
7.8221486051
 10
14.9976304828
 20
7.8228774586
  0
LWPOLYLINE
  5
649
100
AcDbEntity
  8
0
100
AcDbPolyline
 62
7
  6
CONTINUOUS
 90
5
 70
0
 10
14.7743016516
 20
7.8358344963
 10
14.6446906193
 20
7.8586314581
 10
14.5214860508
 20
7.8917355078
 10
14.4069478049
 20
7.9346355683
 10
14.3031864758
 20
7.9866998405
  0
LWPOLYLINE
  5
64A
100
AcDbEntity
  8
0
100
AcDbPolyline
 62
9
  6
CONTINUOUS
 90
14
 70
0
 10
14.5729073573
 20
7.8921039979
 10
14.696432128
 20
7.8643338786
 10
14.8271710225
 20
7.8462152611
 10
14.9603635681
 20
7.8385633741
 10
15.0939320352
 20
7.841403915
 10
15.2257806067
 20
7.8546913556
 10
15.3533467119
 20
7.87819678
 10
15.4741675119
 20
7.9114687297
 10
15.5860344754
 20
7.9538905295
 10
15.686908606
 20
8.0046879746
 10
15.7749120221
 20
8.0629176033
 10
15.8484101624
 20
8.1274953631
 10
15.9060616584
 20
8.1972441456
 10
15.946798103
 20
8.270889147
  0
LINE
  5
64B
100
AcDbEntity
  8
0
100
AcDbLine
 62
9
  6
CONTINUOUS
 10
14.4623641488
 20
7.9272067138
 11
14.5729073573
 21
7.8921039979
  0
LWPOLYLINE
  5
64C
100
AcDbEntity
  8
02___PRT_ALL_AXES
100
AcDbPolyline
 62
7
  6
CONTINUOUS
 90
4
 70
0
 10
14.7095557706
 20
7.8472224881
 10
14.7102064557
 20
7.8467624449
 10
14.7390444804
 20
7.8250519438
 10
14.7680136219
 20
7.8019840869
  0
LINE
  5
64D
100
AcDbEntity
  8
02___PRT_ALL_AXES
100
AcDbLine
 62
7
  6
CONTINUOUS
 10
14.0989672995
 20
8.5521322249
 11
14.1532896821
 21
8.4939672393
  0
LINE
  5
64E
100
AcDbEntity
  8
02___PRT_ALL_AXES
100
AcDbLine
 62
7
  6
CONTINUOUS
 10
14.0567081396
 20
8.6135448945
 11
14.0989672995
 21
8.5521322249
  0
LINE
  5
64F
100
AcDbEntity
  8
02___PRT_ALL_AXES
100
AcDbLine
 62
7
  6
CONTINUOUS
 10
14.4061030964
 20
7.9301903363
 11
14.4202691346
 21
7.8790073582
  0
LWPOLYLINE
  5
650
100
AcDbEntity
  8
02___PRT_ALL_AXES
100
AcDbPolyline
 62
7
  6
CONTINUOUS
 90
3
 70
0
 10
14.4064753676
 20
7.9348726229
 10
14.4202691346
 20
7.8850346891
 10
14.4484227823
 20
7.8357700968
  0
LINE
  5
651
100
AcDbEntity
  8
02___PRT_ALL_AXES
100
AcDbLine
 62
7
  6
CONTINUOUS
 10
14.4195218547
 20
7.9299259842
 11
14.4202691346
 21
7.9272260049
  0
LINE
  5
652
100
AcDbEntity
  8
02___PRT_ALL_AXES
100
AcDbLine
 62
7
  6
CONTINUOUS
 10
14.4057611452
 20
7.9352309979
 11
14.4061030964
 21
7.9301903363
  0
LINE
  5
653
100
AcDbEntity
  8
02___PRT_ALL_AXES
100
AcDbLine
 62
7
  6
CONTINUOUS
 10
14.4484227823
 20
7.6850868259
 11
14.4484227823
 21
7.6911141567
  0
LINE
  5
654
100
AcDbEntity
  8
02___PRT_ALL_AXES
100
AcDbLine
 62
7
  6
CONTINUOUS
 10
14.4484227823
 20
7.7333054726
 11
14.4484227823
 21
7.7393328034
  0
LINE
  5
655
100
AcDbEntity
  8
02___PRT_ALL_AXES
100
AcDbLine
 62
7
  6
CONTINUOUS
 10
14.4484227823
 20
7.7815241192
 11
14.4484227823
 21
7.7875514501
  0
LINE
  5
656
100
AcDbEntity
  8
02___PRT_ALL_AXES
100
AcDbLine
 62
7
  6
CONTINUOUS
 10
14.4484227823
 20
7.8297427659
 11
14.4484227823
 21
7.8357700968
  0
LINE
  5
657
100
AcDbEntity
  8
02___PRT_ALL_AXES
100
AcDbLine
 62
7
  6
CONTINUOUS
 10
14.4484227823
 20
7.8779614126
 11
14.4484227823
 21
7.8839887434
  0
LINE
  5
658
100
AcDbEntity
  8
02___PRT_ALL_AXES
100
AcDbLine
 62
7
  6
CONTINUOUS
 10
14.4058513149
 20
7.9339018168
 11
14.4043866179
 21
7.913301424
  0
LINE
  5
659
100
AcDbEntity
  8
02___PRT_ALL_AXES
100
AcDbLine
 62
7
  6
CONTINUOUS
 10
14.4058513149
 20
7.8856831701
 11
14.4043866179
 21
7.8650827773
  0
LINE
  5
65A
100
AcDbEntity
  8
02___PRT_ALL_AXES
100
AcDbLine
 62
7
  6
CONTINUOUS
 10
14.4058513149
 20
7.8374645234
 11
14.4043866179
 21
7.8168641306
  0
LWPOLYLINE
  5
65B
100
AcDbEntity
  8
0
100
AcDbPolyline
 62
7
  6
CONTINUOUS
 90
11
 70
0
 10
15.2543035117
 20
9.4733328329
 10
15.2311617453
 20
9.4525434914
 10
15.2031309227
 20
9.433867203
 10
15.1707816793
 20
9.4176841675
 10
15.1347725612
 20
9.4043238284
 10
15.0958366202
 20
9.3940581676
 10
15.0547664964
 20
9.3870961681
 10
15.0123982712
 20
9.3835795571
 10
14.9695944502
 20
9.383579923
 10
14.9272264065
 20
9.3870972581
 10
14.8861583174
 20
9.3940595984
  0
LINE
  5
65C
100
AcDbEntity
  8
02___PRT_ALL_AXES
100
AcDbLine
 62
7
  6
CONTINUOUS
 10
14.1532896821
 20
8.4939672393
 11
14.2189406704
 21
8.4398365195
  0
LWPOLYLINE
  5
65D
100
AcDbEntity
  8
0
100
AcDbPolyline
 62
7
  6
CONTINUOUS
 90
4
 70
0
 10
14.7489616982
 20
7.4230301111
 10
14.7567169063
 20
7.4029147382
 10
14.7698496219
 20
7.3837151914
 10
14.7880584003
 20
7.3658902275
  0
LWPOLYLINE
  5
65E
100
AcDbEntity
  8
0
100
AcDbPolyline
 62
7
  6
CONTINUOUS
 90
4
 70
0
 10
14.5348927766
 20
7.584957925
 10
14.5363925723
 20
7.5757146152
 10
14.5407388374
 20
7.5688180509
 10
14.5414842692
 20
7.5681392517
  0
LINE
  5
65F
100
AcDbEntity
  8
02___PRT_ALL_AXES
100
AcDbLine
 62
7
  6
CONTINUOUS
 10
14.5348927766
 20
7.8611366904
 11
14.5348927766
 21
7.8523522329
  0
LINE
  5
660
100
AcDbEntity
  8
02___PRT_ALL_AXES
100
AcDbLine
 62
7
  6
CONTINUOUS
 10
14.5348927766
 20
7.8129180437
 11
14.5348927766
 21
7.8041335862
  0
LINE
  5
661
100
AcDbEntity
  8
02___PRT_ALL_AXES
100
AcDbLine
 62
7
  6
CONTINUOUS
 10
14.5348927766
 20
7.764699397
 11
14.5348927766
 21
7.7559149396
  0
LINE
  5
662
100
AcDbEntity
  8
02___PRT_ALL_AXES
100
AcDbLine
 62
7
  6
CONTINUOUS
 10
14.5348927766
 20
7.7164807504
 11
14.5348927766
 21
7.7076962929
  0
LINE
  5
663
100
AcDbEntity
  8
02___PRT_ALL_AXES
100
AcDbLine
 62
7
  6
CONTINUOUS
 10
14.5348927766
 20
7.6682621037
 11
14.5348927766
 21
7.6594776462
  0
LINE
  5
664
100
AcDbEntity
  8
0
100
AcDbLine
 62
7
  6
CONTINUOUS
 10
14.5348927766
 20
7.620043457
 11
14.5348927766
 21
7.584957925
  0
LINE
  5
665
100
AcDbEntity
  8
02___PRT_ALL_AXES
100
AcDbLine
 62
7
  6
CONTINUOUS
 10
14.3805360023
 20
8.3465415218
 11
14.2950324474
 21
8.3904720906
  0
LINE
  5
666
100
AcDbEntity
  8
02___PRT_ALL_AXES
100
AcDbLine
 62
7
  6
CONTINUOUS
 10
14.2189406704
 20
8.4398365195
 11
14.2950324474
 21
8.3904720906
  0
LWPOLYLINE
  5
667
100
AcDbEntity
  8
0
100
AcDbPolyline
 62
7
  6
CONTINUOUS
 90
6
 70
0
 10
14.789795386
 20
7.3613882633
 10
14.7919169151
 20
7.3528695108
 10
14.8001068031
 20
7.3367664216
 10
14.8121827421
 20
7.3215001554
 10
14.827898901
 20
7.3073814893
 10
14.846935344
 20
7.2946978385
  0
LWPOLYLINE
  5
668
100
AcDbEntity
  8
0
100
AcDbPolyline
 62
7
  6
CONTINUOUS
 90
4
 70
0
 10
14.6815436276
 20
7.5002909321
 10
14.6827831825
 20
7.491197869
 10
14.6863728975
 20
7.4847380893
 10
14.6889201562
 20
7.482716735
  0
LINE
  5
669
100
AcDbEntity
  8
02___PRT_ALL_AXES
100
AcDbLine
 62
7
  6
CONTINUOUS
 10
14.6815436276
 20
7.8275932666
 11
14.6815436276
 21
7.8188088091
  0
LINE
  5
66A
100
AcDbEntity
  8
02___PRT_ALL_AXES
100
AcDbLine
 62
7
  6
CONTINUOUS
 10
14.6815436276
 20
7.7793746199
 11
14.6815436276
 21
7.7705901624
  0
LINE
  5
66B
100
AcDbEntity
  8
02___PRT_ALL_AXES
100
AcDbLine
 62
7
  6
CONTINUOUS
 10
14.6815436276
 20
7.7311559732
 11
14.6815436276
 21
7.7223715157
  0
LINE
  5
66C
100
AcDbEntity
  8
02___PRT_ALL_AXES
100
AcDbLine
 62
7
  6
CONTINUOUS
 10
14.6815436276
 20
7.6829373265
 11
14.6815436276
 21
7.674152869
  0
LINE
  5
66D
100
AcDbEntity
  8
02___PRT_ALL_AXES
100
AcDbLine
 62
7
  6
CONTINUOUS
 10
14.6815436276
 20
7.6347186798
 11
14.6815436276
 21
7.6259342224
  0
LINE
  5
66E
100
AcDbEntity
  8
02___PRT_ALL_AXES
100
AcDbLine
 62
7
  6
CONTINUOUS
 10
14.6815436276
 20
7.5865000332
 11
14.6815436276
 21
7.5777155757
  0
LINE
  5
66F
100
AcDbEntity
  8
0
100
AcDbLine
 62
7
  6
CONTINUOUS
 10
14.6815436276
 20
7.5382813865
 11
14.6815436276
 21
7.5002909321
  0
LWPOLYLINE
  5
670
100
AcDbEntity
  8
0
100
AcDbPolyline
 62
7
  6
CONTINUOUS
 90
18
 70
0
 10
14.69100371
 20
9.5563410446
 10
14.6917646729
 20
9.5686932636
 10
14.697855356
 20
9.5931542494
 10
14.7099137233
 20
9.6168658154
 10
14.7276942994
 20
9.6393452555
 10
14.7508351165
 20
9.6601349436
 10
14.7788650877
 20
9.6788116557
 10
14.811213597
 20
9.6949951828
 10
14.8472221148
 20
9.70835607
 10
14.8861575983
 20
9.7186223224
 10
14.9272274195
 20
9.7255849448
 10
14.9695955044
 20
9.7291021962
 10
15.0123993501
 20
9.7291024741
 10
15.0547675803
 20
9.7255857715
 10
15.0958377359
 20
9.7186236679
 10
15.1347736772
 20
9.7083578955
 10
15.1707827645
 20
9.6949974392
 10
15.2031319423
 20
9.678814284
  0
LINE
  5
671
100
AcDbEntity
  8
0
100
AcDbLine
 62
7
  6
CONTINUOUS
 10
15.2720851125
 20
9.4958120089
 11
15.2543035117
 21
9.4733328329
  0
LWPOLYLINE
  5
672
100
AcDbEntity
  8
0
100
AcDbPolyline
 62
7
  6
CONTINUOUS
 90
3
 70
0
 10
14.7477099764
 20
7.4632348917
 10
14.7496322184
 20
7.4494041322
 10
14.7584514768
 20
7.4287203954
  0
LINE
  5
673
100
AcDbEntity
  8
0
100
AcDbLine
 62
7
  6
CONTINUOUS
 10
14.7467291376
 20
7.4413614445
 11
14.7489616982
 21
7.4230301111
  0
LINE
  5
674
100
AcDbEntity
  8
0
100
AcDbLine
 62
7
  6
CONTINUOUS
 10
14.6913439455
 20
9.5259658449
 11
14.6910010476
 21
9.5318479236
  0
LWPOLYLINE
  5
675
100
AcDbEntity
  8
0
100
AcDbPolyline
 62
7
  6
CONTINUOUS
 90
3
 70
0
 10
14.7467291376
 20
7.4389507031
 10
14.7468495223
 20
7.4345233986
 10
14.7497363463
 20
7.4168894476
  0
LINE
  5
676
100
AcDbEntity
  8
0
100
AcDbLine
 62
7
  6
CONTINUOUS
 10
14.6910007911
 20
9.5563410378
 11
14.6910007911
 21
9.5318459653
  0
LINE
  5
677
100
AcDbEntity
  8
02___PRT_ALL_AXES
100
AcDbLine
 62
7
  6
CONTINUOUS
 10
14.7680136219
 20
7.8019840869
 11
14.7680136219
 21
7.795956756
  0
LINE
  5
678
100
AcDbEntity
  8
02___PRT_ALL_AXES
100
AcDbLine
 62
7
  6
CONTINUOUS
 10
14.7680136219
 20
7.7537654402
 11
14.7680136219
 21
7.7477381094
  0
LINE
  5
679
100
AcDbEntity
  8
02___PRT_ALL_AXES
100
AcDbLine
 62
7
  6
CONTINUOUS
 10
14.7680136219
 20
7.7055467935
 11
14.7680136219
 21
7.6995194627
  0
LINE
  5
67A
100
AcDbEntity
  8
02___PRT_ALL_AXES
100
AcDbLine
 62
7
  6
CONTINUOUS
 10
14.7680136219
 20
7.6573281468
 11
14.7680136219
 21
7.651300816
  0
LINE
  5
67B
100
AcDbEntity
  8
02___PRT_ALL_AXES
100
AcDbLine
 62
7
  6
CONTINUOUS
 10
14.7680136219
 20
7.6091095002
 11
14.7680136219
 21
7.6030821693
  0
LINE
  5
67C
100
AcDbEntity
  8
02___PRT_ALL_AXES
100
AcDbLine
 62
7
  6
CONTINUOUS
 10
14.7680136219
 20
7.5608908535
 11
14.7680136219
 21
7.5548635226
  0
LINE
  5
67D
100
AcDbEntity
  8
02___PRT_ALL_AXES
100
AcDbLine
 62
7
  6
CONTINUOUS
 10
14.7680136219
 20
7.5126722068
 11
14.7680136219
 21
7.506644876
  0
LINE
  5
67E
100
AcDbEntity
  8
02___PRT_ALL_AXES
100
AcDbLine
 62
7
  6
CONTINUOUS
 10
14.6858826809
 20
9.5563410378
 11
14.6882259682
 21
9.5345509248
  0
LWPOLYLINE
  5
67F
100
AcDbEntity
  8
0
100
AcDbPolyline
 62
7
  6
CONTINUOUS
 90
3
 70
0
 10
14.7487653102
 20
7.4556416396
 10
14.7467617389
 20
7.4435818706
 10
14.7467291376
 20
7.4413614445
  0
LWPOLYLINE
  5
680
100
AcDbEntity
  8
02___PRT_ALL_AXES
100
AcDbPolyline
 62
7
  6
CONTINUOUS
 90
15
 70
0
 10
15.2958583093
 20
9.5490620663
 10
15.2896252861
 20
9.520191533
 10
15.2752465652
 20
9.492307064
 10
15.2531143605
 20
9.4661692749
 10
15.223832381
 20
9.4424911365
 10
15.1881993626
 20
9.4219185265
 10
15.1471872813
 20
9.4050126122
 10
15.1019148396
 20
9.392234543
 10
15.0536169518
 20
9.3839328711
 10
15.0036110584
 20
9.3803340445
 10
14.9532611898
 20
9.3815362299
 10
14.9039407591
 20
9.3875066348
 10
14.8569950992
 20
9.3980824021
 10
14.8137047652
 20
9.4129750524
 10
14.7752506046
 20
9.4317783531
  0
LWPOLYLINE
  5
681
100
AcDbEntity
  8
02___PRT_ALL_AXES
100
AcDbPolyline
 62
7
  6
CONTINUOUS
 90
5
 70
0
 10
14.6882259682
 20
9.5345509248
 10
14.6985675714
 20
9.5060762176
 10
14.7168859904
 20
9.4789726038
 10
14.7426815467
 20
9.4539793991
 10
14.7752506046
 20
9.4317783531
  0
LWPOLYLINE
  5
682
100
AcDbEntity
  8
0
100
AcDbPolyline
 62
7
  6
CONTINUOUS
 90
3
 70
0
 10
15.2352724447
 20
7.4574343129
 10
15.2351832872
 20
7.4613825365
 10
15.2348311579
 20
7.4634240234
  0
LWPOLYLINE
  5
683
100
AcDbEntity
  8
0
100
AcDbPolyline
 62
7
  6
CONTINUOUS
 90
3
 70
0
 10
15.2904808686
 20
9.5241544772
 10
15.2909252896
 20
9.5279603551
 10
15.2910005347
 20
9.5318440071
  0
LINE
  5
684
100
AcDbEntity
  8
0
100
AcDbLine
 62
7
  6
CONTINUOUS
 10
15.2910007911
 20
9.5563410378
 11
15.2910007911
 21
9.5318459653
  0
LINE
  5
685
100
AcDbEntity
  8
02___PRT_ALL_AXES
100
AcDbLine
 62
7
  6
CONTINUOUS
 10
15.2961189014
 20
9.5563410378
 11
15.2958583093
 21
9.5490620663
  0
LWPOLYLINE
  5
686
100
AcDbEntity
  8
0
100
AcDbPolyline
 62
7
  6
CONTINUOUS
 90
4
 70
0
 10
15.2909978723
 20
9.5563410384
 10
15.2902363511
 20
9.543984305
 10
15.2841445586
 20
9.5195234002
 10
15.2720851125
 20
9.4958120089
  0
LINE
  5
687
100
AcDbEntity
  8
0
100
AcDbLine
 62
7
  6
CONTINUOUS
 10
15.2906354868
 20
9.5254785772
 11
15.2906646328
 21
9.5250056482
  0
LWPOLYLINE
  5
688
100
AcDbEntity
  8
0
100
AcDbPolyline
 62
7
  6
CONTINUOUS
 90
3
 70
0
 10
15.2352724447
 20
7.4542197338
 10
15.2335317714
 20
7.4368024475
 10
15.2264060604
 20
7.4151856915
  0
LWPOLYLINE
  5
689
100
AcDbEntity
  8
0
100
AcDbPolyline
 62
7
  6
CONTINUOUS
 90
5
 70
0
 10
14.727699213
 20
9.473331625
 10
14.7099179476
 20
9.4958097215
 10
14.6978583061
 20
9.5195199968
 10
14.691765663
 20
9.5439808193
 10
14.69100371
 20
9.5563410446
  0
LWPOLYLINE
  5
68A
100
AcDbEntity
  8
DATUM_CURVES
100
AcDbPolyline
 62
40
  6
CONTINUOUS
 90
11
 70
0
 10
14.7386084476
 20
9.6491134667
 10
14.7355632929
 20
9.6543956459
 10
14.7325181383
 20
9.6597241011
 10
14.7294729836
 20
9.6650983549
 10
14.726427829
 20
9.6705179308
 10
14.7233826743
 20
9.6759823527
 10
14.7203375197
 20
9.6814911456
 10
14.717292365
 20
9.6870438355
 10
14.7142472104
 20
9.6926399499
 10
14.7112020557
 20
9.6982790176
 10
14.7081569011
 20
9.7039605691
  0
LINE
  5
68B
100
AcDbEntity
  8
02___PRT_ALL_AXES
100
AcDbLine
 62
7
  6
CONTINUOUS
 10
15.5776149644
 20
7.840973454
 11
15.57621524
 21
7.862564331
  0
LINE
  5
68C
100
AcDbEntity
  8
02___PRT_ALL_AXES
100
AcDbLine
 62
7
  6
CONTINUOUS
 10
15.5776149644
 20
7.8891921006
 11
15.57621524
 21
7.9107829777
  0
LWPOLYLINE
  5
68D
100
AcDbEntity
  8
0
100
AcDbPolyline
 62
7
  6
CONTINUOUS
 90
17
 70
0
 10
15.192760909
 20
7.3636157916
 10
15.1900850278
 20
7.3528704679
 10
15.1818953721
 20
7.3367673393
 10
15.1698196532
 20
7.3215010151
 10
15.154103698
 20
7.3073822734
 10
15.1350674379
 20
7.2946985311
 10
15.1130983963
 20
7.2837079927
 10
15.0886437997
 20
7.2746343939
 10
15.0622014729
 20
7.2676624469
 10
15.0343097056
 20
7.2629340805
 10
15.0055362936
 20
7.2605455506
 10
14.9764669808
 20
7.2605454807
 10
14.9476935344
 20
7.2629338723
 10
14.9198016989
 20
7.2676621046
 10
14.8933592716
 20
7.2746339245
 10
14.8689045441
 20
7.2837074058
 10
14.846935344
 20
7.2946978385
  0
LINE
  5
68E
100
AcDbEntity
  8
02___PRT_ALL_AXES
100
AcDbLine
 62
7
  6
CONTINUOUS
 10
15.5757297303
 20
7.9036374902
 11
15.5776149644
 21
7.9313834165
  0
LINE
  5
68F
100
AcDbEntity
  8
02___PRT_ALL_AXES
100
AcDbLine
 62
7
  6
CONTINUOUS
 10
15.5757297303
 20
7.8554188435
 11
15.5776149644
 21
7.8831647698
  0
LINE
  5
690
100
AcDbEntity
  8
0
100
AcDbLine
 62
7
  6
CONTINUOUS
 10
15.2302679981
 20
7.4622198683
 11
15.2268882295
 21
7.4516040643
  0
LINE
  5
691
100
AcDbEntity
  8
0
100
AcDbLine
 62
7
  6
CONTINUOUS
 10
15.2232957566
 20
7.4411390188
 11
15.2319626183
 21
7.4626670552
  0
LWPOLYLINE
  5
692
100
AcDbEntity
  8
0
100
AcDbPolyline
 62
7
  6
CONTINUOUS
 90
3
 70
0
 10
15.217572055
 20
7.4004762126
 10
15.2123879094
 20
7.3884062731
 10
15.1982242987
 20
7.3687887219
  0
LWPOLYLINE
  5
693
100
AcDbEntity
  8
0
100
AcDbPolyline
 62
7
  6
CONTINUOUS
 90
3
 70
0
 10
14.77886964
 20
9.4338677917
 10
14.7508401326
 20
9.4525432634
 10
14.727699213
 20
9.473331625
  0
LWPOLYLINE
  5
694
100
AcDbEntity
  8
02___PRT_ALL_AXES
100
AcDbPolyline
 62
7
  6
CONTINUOUS
 90
3
 70
0
 10
15.5612303168
 20
7.8561069761
 10
15.5757297303
 20
7.909664821
 10
15.5775927953
 20
7.9370844747
  0
LINE
  5
695
100
AcDbEntity
  8
02___PRT_ALL_AXES
100
AcDbLine
 62
7
  6
CONTINUOUS
 10
15.5612303168
 20
7.8500796453
 11
15.5757297303
 21
7.9036374902
  0
LWPOLYLINE
  5
696
100
AcDbEntity
  8
02___PRT_ALL_AXES
100
AcDbPolyline
 62
7
  6
CONTINUOUS
 90
3
 70
0
 10
15.5612303168
 20
7.8078883294
 10
15.5757297303
 20
7.8614461743
 10
15.5776149644
 20
7.8891921006
  0
LINE
  5
697
100
AcDbEntity
  8
02___PRT_ALL_AXES
100
AcDbLine
 62
7
  6
CONTINUOUS
 10
15.5612303168
 20
7.8018609986
 11
15.5757297303
 21
7.8554188435
  0
LWPOLYLINE
  5
698
100
AcDbEntity
  8
0
100
AcDbPolyline
 62
7
  6
CONTINUOUS
 90
8
 70
0
 10
15.2268882295
 20
7.4516040643
 10
15.2149397459
 20
7.4311463526
 10
15.1980360203
 20
7.411874646
 10
15.1762297293
 20
7.3940083789
 10
15.1500709292
 20
7.378144825
 10
15.1204453756
 20
7.3648023923
 10
15.0883695249
 20
7.3543012182
 10
15.0542239296
 20
7.3466603496
  0
LWPOLYLINE
  5
699
100
AcDbEntity
  8
02___PRT_ALL_AXES
100
AcDbPolyline
 62
7
  6
CONTINUOUS
 90
8
 70
0
 10
15.330963032
 20
7.8422210898
 10
15.3155046023
 20
7.8343226316
 10
15.2444004771
 20
7.8077849443
 10
15.1669071186
 20
7.7876291999
 10
15.0842759235
 20
7.7743901153
 10
14.999306521
 20
7.7686472253
 10
14.9151510555
 20
7.7704635348
 10
14.8331313104
 20
7.7795982955
  0
LWPOLYLINE
  5
69A
100
AcDbEntity
  8
0
100
AcDbPolyline
 62
7
  6
CONTINUOUS
 90
14
 70
0
 10
15.5313300997
 20
7.7003791886
 10
15.5173775456
 20
7.6629307913
 10
15.4860657658
 20
7.6147247145
 10
15.4424235958
 20
7.5697773035
 10
15.3876391469
 20
7.5296193595
 10
15.3235182268
 20
7.4954405285
 10
15.251852214
 20
7.4679156459
 10
15.1744101441
 20
7.4474797491
 10
15.0929597501
 20
7.434427154
 10
15.0092972114
 20
7.4289434867
 10
14.9252899944
 20
7.4311030985
 10
14.84275749
 20
7.4408607476
 10
14.7635049139
 20
7.458060595
 10
14.6903811725
 20
7.4820153551
  0
LINE
  5
69B
100
AcDbEntity
  8
02___PRT_ALL_AXES
100
AcDbLine
 62
7
  6
CONTINUOUS
 10
15.5327556002
 20
7.8949071459
 11
15.5485924873
 21
7.9236111528
  0
LWPOLYLINE
  5
69C
100
AcDbEntity
  8
02___PRT_ALL_AXES
100
AcDbPolyline
 62
7
  6
CONTINUOUS
 90
3
 70
0
 10
15.5327556002
 20
7.8466884993
 10
15.5612303168
 20
7.8982982919
 10
15.57069448
 20
7.9332569602
  0
LINE
  5
69D
100
AcDbEntity
  8
02___PRT_ALL_AXES
100
AcDbLine
 62
7
  6
CONTINUOUS
 10
15.5327556002
 20
7.7562785367
 11
15.5612303168
 21
7.8078883294
  0
LINE
  5
69E
100
AcDbEntity
  8
02___PRT_ALL_AXES
100
AcDbLine
 62
7
  6
CONTINUOUS
 10
15.5327556002
 20
7.7502512059
 11
15.5612303168
 21
7.8018609986
  0
LWPOLYLINE
  5
69F
100
AcDbEntity
  8
02___PRT_ALL_AXES
100
AcDbPolyline
 62
7
  6
CONTINUOUS
 90
4
 70
0
 10
15.5327556002
 20
7.7080598901
 10
15.5612303168
 20
7.7596696827
 10
15.5757297303
 20
7.8132275276
 10
15.5776149644
 20
7.840973454
  0
LWPOLYLINE
  5
6A0
100
AcDbEntity
  8
0
100
AcDbPolyline
 62
7
  6
CONTINUOUS
 90
3
 70
0
 10
15.2264060604
 20
7.4151856915
 10
15.2139371152
 20
7.3944236841
 10
15.1964077575
 20
7.374969877
  0
LWPOLYLINE
  5
6A1
100
AcDbEntity
  8
0
100
AcDbPolyline
 62
7
  6
CONTINUOUS
 90
4
 70
0
 10
15.2132393694
 20
7.3967115664
 10
15.226006023
 20
7.4175452631
 10
15.2333771043
 20
7.439262437
 10
15.2352724447
 20
7.4574343129
  0
LWPOLYLINE
  5
6A2
100
AcDbEntity
  8
0
100
AcDbPolyline
 62
7
  6
CONTINUOUS
 90
14
 70
0
 10
15.2097170577
 20
7.4567967578
 10
15.2088100304
 20
7.4554803137
 10
15.1888677674
 20
7.4358224089
 10
15.1637307047
 20
7.4179878503
 10
15.134248745
 20
7.4026623894
 10
15.1015915745
 20
7.3903460851
 10
15.066520235
 20
7.3811782273
 10
15.0295764196
 20
7.3752421155
 10
14.9914322729
 20
7.3726703687
 10
14.9534281604
 20
7.3735493163
 10
14.9162143547
 20
7.3778413905
 10
14.8804070837
 20
7.3855394005
 10
14.8473681984
 20
7.396401532
 10
14.8182753676
 20
7.4099487265
  0
LWPOLYLINE
  5
6A3
100
AcDbEntity
  8
02___PRT_ALL_AXES
100
AcDbPolyline
 62
7
  6
CONTINUOUS
 90
5
 70
0
 10
15.3313391337
 20
7.7459477707
 10
15.3164872298
 20
7.73831644
 10
15.2448141533
 20
7.7114779082
 10
15.1679729741
 20
7.6914154968
 10
15.0862012271
 20
7.6781729175
  0
LWPOLYLINE
  5
6A4
100
AcDbEntity
  8
0
100
AcDbPolyline
 62
7
  6
CONTINUOUS
 90
8
 70
0
 10
15.6566894795
 20
7.9743189854
 10
15.5500587518
 20
7.9241229119
 10
15.4331178035
 20
7.8833079007
 10
15.3080322107
 20
7.8524695515
 10
15.1771902813
 20
7.8320860925
 10
15.0429913486
 20
7.8224549104
 10
14.9078649378
 20
7.8237136478
 10
14.7743016516
 20
7.8358344963
  0
LWPOLYLINE
  5
6A5
100
AcDbEntity
  8
02___PRT_ALL_AXES
100
AcDbPolyline
 62
7
  6
CONTINUOUS
 90
7
 70
0
 10
15.2979573376
 20
7.7796124981
 10
15.2456587382
 20
7.7599633005
 10
15.1683226762
 20
7.7397078098
 10
15.0859331984
 20
7.7263606796
 10
15.0012775982
 20
7.7204752121
 10
14.9174713762
 20
7.7220942756
 10
14.8352411724
 20
7.7310487906
  0
LWPOLYLINE
  5
6A6
100
AcDbEntity
  8
0
100
AcDbPolyline
 62
7
  6
CONTINUOUS
 90
4
 70
0
 10
14.8861583174
 20
9.3940595984
 10
14.8472244075
 20
9.4043252828
 10
14.8112172017
 20
9.4176853349
 10
14.77886964
 20
9.4338677917
  0
LWPOLYLINE
  5
6A7
100
AcDbEntity
  8
02___PRT_ALL_AXES
100
AcDbPolyline
 62
7
  6
CONTINUOUS
 90
22
 70
0
 10
15.9752527596
 20
8.7922872027
 10
15.9690644487
 20
8.7286657384
 10
15.9505764197
 20
8.6658419851
 10
15.9200211705
 20
8.6046083538
 10
15.8777829509
 20
8.5457348929
 10
15.8243929312
 20
8.4899619704
 10
15.7605225217
 20
8.437990963
 10
15.6869749301
 20
8.3904754365
 10
15.6046750598
 20
8.348012926
 10
15.5146578795
 20
8.3111374223
 10
15.4180554075
 20
8.2803126563
 10
15.3160824759
 20
8.2559262673
 10
15.2100214535
 20
8.2382849282
 10
15.1012061192
 20
8.2276104892
 10
14.991004889
 20
8.2240371875
 10
14.8808036072
 20
8.2276099594
 10
14.771988119
 20
8.2382838753
 10
14.6659268421
 20
8.2559247045
 10
14.5639535588
 20
8.2803106033
 10
14.4673506423
 20
8.3111349049
 10
14.3773329301
 20
8.3480099758
 10
14.2950324474
 20
8.3904720906
  0
LWPOLYLINE
  5
6A8
100
AcDbEntity
  8
02___PRT_ALL_AXES
100
AcDbPolyline
 62
7
  6
CONTINUOUS
 90
5
 70
0
 10
15.4910034445
 20
7.6536062077
 10
15.5327556002
 20
7.7020325592
 10
15.5612303168
 20
7.7536423519
 10
15.5757297303
 20
7.8072001968
 10
15.5776149644
 20
7.8349461231
  0
LINE
  5
6A9
100
AcDbEntity
  8
0
100
AcDbLine
 62
7
  6
CONTINUOUS
 10
15.1953700192
 20
7.3772215569
 11
15.2132393694
 21
7.3967115664
  0
LWPOLYLINE
  5
6AA
100
AcDbEntity
  8
0
100
AcDbPolyline
 62
7
  6
CONTINUOUS
 90
3
 70
0
 10
15.1762297293
 20
7.4229395669
 10
15.1980360203
 20
7.440805834
 10
15.2127683386
 20
7.4576019489
  0
LWPOLYLINE
  5
6AB
100
AcDbEntity
  8
02___PRT_ALL_AXES
100
AcDbPolyline
 62
7
  6
CONTINUOUS
 90
8
 70
0
 10
15.3315306112
 20
7.6013753117
 10
15.3163263597
 20
7.5935897892
 10
15.2451064475
 20
7.5669141612
 10
15.1674144854
 20
7.5466422237
 10
15.0845319381
 20
7.5333259139
 10
14.9992875055
 20
7.5275535618
 10
14.9148420975
 20
7.5293907921
 10
14.8327656797
 20
7.5385629333
  0
LWPOLYLINE
  5
6AC
100
AcDbEntity
  8
02___PRT_ALL_AXES
100
AcDbPolyline
 62
7
  6
CONTINUOUS
 90
7
 70
0
 10
15.2981491207
 20
7.683258819
 10
15.2460982987
 20
7.6636652621
 10
15.1684933047
 20
7.6433065153
 10
15.0856685873
 20
7.6298929729
 10
15.0004418586
 20
7.6240176487
 10
14.9159517266
 20
7.6257549699
 10
14.8341121175
 20
7.6347878964
  0
LWPOLYLINE
  5
6AD
100
AcDbEntity
  8
02___PRT_ALL_AXES
100
AcDbPolyline
 62
7
  6
CONTINUOUS
 90
7
 70
0
 10
15.2567557797
 20
7.6195457202
 10
15.2439752431
 20
7.6147767308
 10
15.166794194
 20
7.594731007
 10
15.0856440556
 20
7.5816715106
 10
15.0018952221
 20
7.5758347225
 10
14.9180449546
 20
7.577401995
 10
14.8356175858
 20
7.5863343753
  0
LWPOLYLINE
  5
6AE
100
AcDbEntity
  8
02___PRT_ALL_AXES
100
AcDbPolyline
 62
7
  6
CONTINUOUS
 90
8
 70
0
 10
15.2159895575
 20
7.663818765
 10
15.2977842479
 20
7.6891270713
 10
15.3720602259
 20
7.7215101877
 10
15.4369971204
 20
7.7602039368
 10
15.4910034445
 20
7.8042894786
 10
15.5327556002
 20
7.8527158301
 10
15.5612303168
 20
7.9043256228
 10
15.5690044097
 20
7.9330415197
  0
LWPOLYLINE
  5
6AF
100
AcDbEntity
  8
02___PRT_ALL_AXES
100
AcDbPolyline
 62
7
  6
CONTINUOUS
 90
7
 70
0
 10
15.2159895575
 20
7.6156001183
 10
15.2977842479
 20
7.6409084246
 10
15.3720602259
 20
7.673291541
 10
15.4369971204
 20
7.7119852901
 10
15.4910034445
 20
7.7560708319
 10
15.5327556002
 20
7.8044971834
 10
15.5612303168
 20
7.8561069761
  0
LWPOLYLINE
  5
6B0
100
AcDbEntity
  8
02___PRT_ALL_AXES
100
AcDbPolyline
 62
7
  6
CONTINUOUS
 90
7
 70
0
 10
15.2159895575
 20
7.6095727875
 10
15.2977842479
 20
7.6348810937
 10
15.3720602259
 20
7.6672642102
 10
15.4369971204
 20
7.7059579593
 10
15.4910034445
 20
7.7500435011
 10
15.5327556002
 20
7.7984698526
 10
15.5612303168
 20
7.8500796453
  0
LINE
  5
6B1
100
AcDbEntity
  8
02___PRT_ALL_AXES
100
AcDbLine
 62
7
  6
CONTINUOUS
 10
15.9752527596
 20
8.7922872027
 11
15.9752527596
 21
8.4065380293
  0
LINE
  5
6B2
100
AcDbEntity
  8
0
100
AcDbLine
 62
9
  6
CONTINUOUS
 10
15.9752527596
 20
8.406532707
 11
15.9752527596
 21
8.4065380293
  0
LWPOLYLINE
  5
6B3
100
AcDbEntity
  8
02___PRT_ALL_AXES
100
AcDbPolyline
 62
7
  6
CONTINUOUS
 90
21
 70
0
 10
15.9752503848
 20
8.7922732035
 10
15.9748364911
 20
8.7757621757
 10
15.9648612655
 20
8.7099320123
 10
15.9417162477
 20
8.6452155616
 10
15.9057144342
 20
8.5824880026
 10
15.8573426879
 20
8.5225976178
 10
15.7972551536
 20
8.466354322
 10
15.7262644122
 20
8.4145187093
 10
15.6453304917
 20
8.3677917674
 10
15.5555478844
 20
8.3268053981
 10
15.4581307462
 20
8.2921138716
 10
15.3543964767
 20
8.2641863314
 10
15.245747904
 20
8.2434004496
 10
15.1336543135
 20
8.2300373194
 10
15.0196315789
 20
8.2242776544
 10
14.905221662
 20
8.2261993442
 10
14.7919717607
 20
8.2357764011
 10
14.6814133856
 20
8.2528793119
 10
14.575041649
 20
8.2772767891
 10
14.4742950463
 20
8.3086388986
 10
14.3805360023
 20
8.3465415218
  0
LWPOLYLINE
  5
6B4
100
AcDbEntity
  8
0
100
AcDbPolyline
 62
7
  6
CONTINUOUS
 90
7
 70
0
 10
15.9752527596
 20
8.4065380293
 10
15.9662202155
 20
8.3267401353
 10
15.9389151271
 20
8.2477362574
 10
15.8934630803
 20
8.1713950765
 10
15.8303129253
 20
8.099224852
 10
15.7507967303
 20
8.0330571779
 10
15.6566894795
 20
7.9743189854
  0
LWPOLYLINE
  5
6B5
100
AcDbEntity
  8
0
100
AcDbPolyline
 62
9
  6
CONTINUOUS
 90
3
 70
0
 10
15.946798103
 20
8.270889147
 10
15.9698370533
 20
8.3470087494
 10
15.9752527596
 20
8.406532707
  0
LWPOLYLINE
  5
6B6
100
AcDbEntity
  8
0
100
AcDbPolyline
 62
7
  6
CONTINUOUS
 90
3
 70
0
 10
15.1982242987
 20
7.3687887219
 10
15.1789817731
 20
7.350569219
 10
15.1540236975
 20
7.3336260906
  0
LWPOLYLINE
  5
6B7
100
AcDbEntity
  8
0
100
AcDbPolyline
 62
7
  6
CONTINUOUS
 90
13
 70
0
 10
15.1964077575
 20
7.374969877
 10
15.1742156043
 20
7.357248269
 10
15.1478645833
 20
7.3416438907
 10
15.1179532573
 20
7.3284936074
 10
15.0851607592
 20
7.3180783228
 10
15.0502311977
 20
7.3106167565
 10
15.0139570281
 20
7.3062606812
 10
14.9771615512
 20
7.3050915127
 10
14.9406802505
 20
7.3071183116
 10
14.9053407708
 20
7.3122776286
 10
14.8719448969
 20
7.3204350668
 10
14.8412513686
 20
7.3313879408
 10
14.8139580614
 20
7.34486955
  0
LINE
  5
6B8
100
AcDbEntity
  8
0
100
AcDbLine
 62
7
  6
CONTINUOUS
 10
15.1728079446
 20
7.3595048571
 11
15.1953700192
 21
7.3772215569
  0
LWPOLYLINE
  5
6B9
100
AcDbEntity
  8
0
100
AcDbPolyline
 62
7
  6
CONTINUOUS
 90
11
 70
0
 10
15.1515919093
 20
7.4438230795
 10
15.1342138754
 20
7.4347926799
 10
15.1015539652
 20
7.4224799434
 10
15.066484263
 20
7.4133164499
 10
15.0295283277
 20
7.4073824222
 10
14.9913705636
 20
7.4048147822
 10
14.9533633747
 20
7.4056995351
 10
14.9161547843
 20
7.4099969099
 10
14.880362362
 20
7.4176972283
 10
14.8473450703
 20
7.4285564057
 10
14.8182753676
 20
7.4420944909
  0
LWPOLYLINE
  5
6BA
100
AcDbEntity
  8
0
100
AcDbPolyline
 62
7
  6
CONTINUOUS
 90
10
 70
0
 10
15.1540236975
 20
7.3336260906
 10
15.1268140517
 20
7.3201247847
 10
15.0958368291
 20
7.3089897851
 10
15.0627339551
 20
7.3008593487
 10
15.0280073156
 20
7.2957926386
 10
14.992292347
 20
7.2939003894
 10
14.9568504493
 20
7.2952420438
 10
14.9223210378
 20
7.299764962
 10
14.889255658
 20
7.3074491686
 10
14.8589206195
 20
7.3180432196
  0
LWPOLYLINE
  5
6BB
100
AcDbEntity
  8
02___PRT_ALL_AXES
100
AcDbPolyline
 62
7
  6
CONTINUOUS
 90
16
 70
0
 10
15.2067509777
 20
9.6809037226
 10
15.1682968171
 20
9.6997070233
 10
15.1250064831
 20
9.7145996736
 10
15.0780608231
 20
9.7251754409
 10
15.0287403925
 20
9.7311458458
 10
14.9783905238
 20
9.7323480312
 10
14.9283846304
 20
9.7287492046
 10
14.8800867427
 20
9.7204475327
 10
14.834814301
 20
9.7076694634
 10
14.7938022197
 20
9.6907635492
 10
14.7581692013
 20
9.6701909392
 10
14.7288872217
 20
9.6465128007
 10
14.7067550171
 20
9.6203750116
 10
14.6923762961
 20
9.5924905426
 10
14.686143273
 20
9.5636200094
 10
14.6858826809
 20
9.5563410378
  0
LWPOLYLINE
  5
6BC
100
AcDbEntity
  8
0
100
AcDbPolyline
 62
7
  6
CONTINUOUS
 90
7
 70
0
 10
15.2031319423
 20
9.678814284
 10
15.2311626595
 20
9.6601378793
 10
15.2543042792
 20
9.6393484314
 10
15.2720856969
 20
9.6168691621
 10
15.2841449285
 20
9.5931576937
 10
15.2902364759
 20
9.5686967635
 10
15.2909978723
 20
9.5563410384
  0
LWPOLYLINE
  5
6BD
100
AcDbEntity
  8
02___PRT_ALL_AXES
100
AcDbPolyline
 62
7
  6
CONTINUOUS
 90
6
 70
0
 10
15.2067509777
 20
9.6809037226
 10
15.2393200356
 20
9.6587026766
 10
15.2651155919
 20
9.6337094719
 10
15.2834340109
 20
9.606605858
 10
15.293775614
 20
9.5781311509
 10
15.2961189014
 20
9.5563410378
  0
LWPOLYLINE
  5
6BE
100
AcDbEntity
  8
02___PRT_ALL_AXES
100
AcDbPolyline
 62
7
  6
CONTINUOUS
 90
9
 70
0
 10
15.4831184255
 20
9.6446792319
 10
15.5831051659
 20
9.5785214851
 10
15.6730417594
 20
9.5019153131
 10
15.756435399
 20
9.4110454743
 10
15.8311051681
 20
9.305099618
 10
15.8925421431
 20
9.1872240688
 10
15.9378581061
 20
9.0610122716
 10
15.9657734282
 20
8.9285598839
 10
15.9752527596
 20
8.7922872027
  0
CIRCLE
  5
6BF
100
AcDbEntity
  8
0
100
AcDbCircle
 62
7
  6
CONTINUOUS
 10
10.5342808475
 20
1.243294839
 40
0.252091
  0
CIRCLE
  5
6C0
100
AcDbEntity
  8
0
100
AcDbCircle
 62
7
  6
CONTINUOUS
 10
10.5342808475
 20
1.243294839
 40
0.182698
  0
CIRCLE
  5
6C1
100
AcDbEntity
  8
02___PRT_ALL_AXES
100
AcDbCircle
 62
7
  6
CONTINUOUS
 10
3.3934434335
 20
5.7496538766
 40
0.9842519685
  0
CIRCLE
  5
6C2
100
AcDbEntity
  8
02___PRT_ALL_AXES
100
AcDbCircle
 62
7
  6
CONTINUOUS
 10
3.3934434335
 20
5.7496538766
 40
0.3051181102
  0
CIRCLE
  5
6C3
100
AcDbEntity
  8
0
100
AcDbCircle
 62
7
  6
CONTINUOUS
 10
3.3934434335
 20
5.7496538766
 40
0.3
  0
ARC
  5
6C4
100
AcDbEntity
  8
02___PRT_ALL_AXES
100
AcDbCircle
 62
7
  6
CONTINUOUS
 10
7.0804291181
 20
5.7496538766
 40
0.9842519685
100
AcDbArc
 50
90.0
 51
161.9407695092
  0
ARC
  5
6C5
100
AcDbEntity
  8
02___PRT_ALL_AXES
100
AcDbCircle
 62
7
  6
CONTINUOUS
 10
7.0804291181
 20
5.7496538766
 40
0.9842519685
100
AcDbArc
 50
198.0592304908
 51
270.0
  0
ARC
  5
6C6
100
AcDbEntity
  8
0
100
AcDbCircle
 62
7
  6
CONTINUOUS
 10
8.3948222592
 20
6.1120357663
 40
0.1181102362
100
AcDbArc
 50
262.6147613811
 51
270.0
  0
ARC
  5
6C7
100
AcDbEntity
  8
0
100
AcDbCircle
 62
7
  6
CONTINUOUS
 10
8.3948222592
 20
5.3872719868
 40
0.1181102362
100
AcDbArc
 50
90.0
 51
97.3852386189
  0
ARC
  5
6C8
100
AcDbEntity
  8
0
100
AcDbCircle
 62
7
  6
CONTINUOUS
 10
7.552870063
 20
6.6945357663
 40
0.0393700787
100
AcDbArc
 50
0.0
 51
90.0
  0
ARC
  5
6C9
100
AcDbEntity
  8
0
100
AcDbCircle
 62
7
  6
CONTINUOUS
 10
7.552870063
 20
4.8047719868
 40
0.0393700787
100
AcDbArc
 50
270.0
 51
360.0
  0
ARC
  5
6CA
100
AcDbEntity
  8
0
100
AcDbCircle
 62
7
  6
CONTINUOUS
 10
7.6316102205
 20
6.330362538
 40
0.0393700787
100
AcDbArc
 50
180.0
 51
270.0
  0
ARC
  5
6CB
100
AcDbEntity
  8
0
100
AcDbCircle
 62
7
  6
CONTINUOUS
 10
7.6316102205
 20
5.1689452152
 40
0.0393700787
100
AcDbArc
 50
90.0
 51
180.0
  0
ARC
  5
6CC
100
AcDbEntity
  8
0
100
AcDbCircle
 62
7
  6
CONTINUOUS
 10
8.3402716378
 20
5.2476853726
 40
0.0393700787
100
AcDbArc
 50
270.0
 51
360.0
  0
ARC
  5
6CD
100
AcDbEntity
  8
0
100
AcDbCircle
 62
7
  6
CONTINUOUS
 10
8.3402716378
 20
6.2516223805
 40
0.0393700787
100
AcDbArc
 50
0.0
 51
90.0
  0
ARC
  5
6CE
100
AcDbEntity
  8
0
100
AcDbCircle
 62
7
  6
CONTINUOUS
 10
11.3934108774
 20
5.6905987585
 40
0.0354330709
100
AcDbArc
 50
190.1642486217
 51
10.1642486217
  0
ARC
  5
6CF
100
AcDbEntity
  8
0
100
AcDbCircle
 62
7
  6
CONTINUOUS
 10
11.3934108774
 20
5.8087089947
 40
0.0354330709
100
AcDbArc
 50
349.8357513783
 51
169.8357513783
  0
CIRCLE
  5
6D0
100
AcDbEntity
  8
0
100
AcDbCircle
 62
7
  6
CONTINUOUS
 10
11.6243793918
 20
5.7496538766
 40
0.0196850394
  0
CIRCLE
  5
6D1
100
AcDbEntity
  8
0
100
AcDbCircle
 62
9
  6
CONTINUOUS
 10
11.6243793918
 20
5.7496538766
 40
0.00468503
  0
ARC
  5
6D2
100
AcDbEntity
  8
0
100
AcDbCircle
 62
7
  6
CONTINUOUS
 10
12.0521982998
 20
5.6905987585
 40
0.0354330709
100
AcDbArc
 50
169.8357513783
 51
349.8357513783
  0
ARC
  5
6D3
100
AcDbEntity
  8
0
100
AcDbCircle
 62
7
  6
CONTINUOUS
 10
11.8216325049
 20
5.6508259603
 40
0.0236220472
100
AcDbArc
 50
45.0
 51
225.0
  0
CIRCLE
  5
6D4
100
AcDbEntity
  8
0
100
AcDbCircle
 62
7
  6
CONTINUOUS
 10
11.7228045886
 20
5.6512286797
 40
0.0196850394
  0
CIRCLE
  5
6D5
100
AcDbEntity
  8
0
100
AcDbCircle
 62
9
  6
CONTINUOUS
 10
11.7228045886
 20
5.6512286797
 40
0.00468503
  0
ARC
  5
6D6
100
AcDbEntity
  8
02___PRT_ALL_AXES
100
AcDbCircle
 62
7
  6
CONTINUOUS
 10
11.7228045886
 20
5.7496538766
 40
0.9842519685
100
AcDbArc
 50
96.1106712295
 51
263.8913550294
  0
ARC
  5
6D7
100
AcDbEntity
  8
02___PRT_ALL_AXES
100
AcDbCircle
 62
7
  6
CONTINUOUS
 10
11.7228045886
 20
5.7496538766
 40
0.9842519685
100
AcDbArc
 50
277.2127391617
 51
82.787260838
  0
CIRCLE
  5
6D8
100
AcDbEntity
  8
0
100
AcDbCircle
 62
7
  6
CONTINUOUS
 10
11.7228045886
 20
5.7496538766
 40
0.9842519685
  0
CIRCLE
  5
6D9
100
AcDbEntity
  8
0
100
AcDbCircle
 62
9
  6
CONTINUOUS
 10
11.7228045886
 20
5.7496538766
 40
0.9448818805
  0
ARC
  5
6DA
100
AcDbEntity
  8
0
100
AcDbCircle
 62
9
  6
CONTINUOUS
 10
11.7228045886
 20
5.7496538766
 40
0.5905511811
100
AcDbArc
 50
280.4753138432
 51
79.5246861568
  0
ARC
  5
6DB
100
AcDbEntity
  8
0
100
AcDbCircle
 62
9
  6
CONTINUOUS
 10
11.7228045886
 20
5.7496538766
 40
0.5905511811
100
AcDbArc
 50
100.4753138432
 51
259.5246861568
  0
ARC
  5
6DC
100
AcDbEntity
  8
0
100
AcDbCircle
 62
7
  6
CONTINUOUS
 10
11.7228045886
 20
5.7496538766
 40
0.5511811024
100
AcDbArc
 50
100.8440625637
 51
259.1559374363
  0
ARC
  5
6DD
100
AcDbEntity
  8
0
100
AcDbCircle
 62
7
  6
CONTINUOUS
 10
11.7228045886
 20
5.7496538766
 40
0.5511811024
100
AcDbArc
 50
280.8440625637
 51
79.1559374363
  0
ARC
  5
6DE
100
AcDbEntity
  8
0
100
AcDbCircle
 62
9
  6
CONTINUOUS
 10
11.7228045886
 20
5.7496538766
 40
0.5118110236
100
AcDbArc
 50
281.2547126182
 51
78.7452873818
  0
ARC
  5
6DF
100
AcDbEntity
  8
0
100
AcDbCircle
 62
9
  6
CONTINUOUS
 10
11.7228045886
 20
5.7496538766
 40
0.5118110236
100
AcDbArc
 50
101.2547126182
 51
258.7452873818
  0
CIRCLE
  5
6E0
100
AcDbEntity
  8
0
100
AcDbCircle
 62
7
  6
CONTINUOUS
 10
11.7228045886
 20
5.7496538766
 40
0.374015748
  0
ARC
  5
6E1
100
AcDbEntity
  8
02___PRT_ALL_AXES
100
AcDbCircle
 62
7
  6
CONTINUOUS
 10
11.7228045886
 20
5.7496538766
 40
0.3700787402
100
AcDbArc
 50
349.8357513783
 51
10.1642486217
  0
ARC
  5
6E2
100
AcDbEntity
  8
02___PRT_ALL_AXES
100
AcDbCircle
 62
7
  6
CONTINUOUS
 10
11.7228045886
 20
5.7496538766
 40
0.3700787402
100
AcDbArc
 50
169.8357513783
 51
190.1642486217
  0
ARC
  5
6E3
100
AcDbEntity
  8
0
100
AcDbCircle
 62
7
  6
CONTINUOUS
 10
11.7228045886
 20
5.7496538766
 40
0.3641732283
100
AcDbArc
 50
166.4060212309
 51
193.5939787691
  0
ARC
  5
6E4
100
AcDbEntity
  8
0
100
AcDbCircle
 62
7
  6
CONTINUOUS
 10
11.7228045886
 20
5.7496538766
 40
0.3641732283
100
AcDbArc
 50
346.4060212309
 51
13.5939787691
  0
ARC
  5
6E5
100
AcDbEntity
  8
0
100
AcDbCircle
 62
7
  6
CONTINUOUS
 10
11.7228045886
 20
5.7496538766
 40
0.3444871417
100
AcDbArc
 50
344.063010877
 51
15.9368540231
  0
ARC
  5
6E6
100
AcDbEntity
  8
0
100
AcDbCircle
 62
7
  6
CONTINUOUS
 10
11.7228045886
 20
5.7496538766
 40
0.3444871417
100
AcDbArc
 50
164.063010877
 51
195.9368540231
  0
ARC
  5
6E7
100
AcDbEntity
  8
0
100
AcDbCircle
 62
9
  6
CONTINUOUS
 10
11.7228045886
 20
5.7496538766
 40
0.331490896
100
AcDbArc
 50
343.7941853327
 51
16.2058145488
  0
ARC
  5
6E8
100
AcDbEntity
  8
0
100
AcDbCircle
 62
9
  6
CONTINUOUS
 10
11.7228045886
 20
5.7496538766
 40
0.331490896
100
AcDbArc
 50
163.7941853327
 51
196.2058145488
  0
ARC
  5
6E9
100
AcDbEntity
  8
0
100
AcDbCircle
 62
7
  6
CONTINUOUS
 10
11.7228045886
 20
5.7496538766
 40
0.3051181102
100
AcDbArc
 50
166.3249048708
 51
193.6751942905
  0
ARC
  5
6EA
100
AcDbEntity
  8
0
100
AcDbCircle
 62
7
  6
CONTINUOUS
 10
11.7228045886
 20
5.7496538766
 40
0.3051181102
100
AcDbArc
 50
346.3249048708
 51
13.6751942905
  0
ARC
  5
6EB
100
AcDbEntity
  8
0
100
AcDbCircle
 62
9
  6
CONTINUOUS
 10
11.7228045886
 20
5.7496538766
 40
0.3051181102
100
AcDbArc
 50
193.6751942905
 51
346.3249048708
  0
ARC
  5
6EC
100
AcDbEntity
  8
0
100
AcDbCircle
 62
9
  6
CONTINUOUS
 10
11.7228045886
 20
5.7496538766
 40
0.3051181102
100
AcDbArc
 50
13.6751942905
 51
166.3249048708
  0
ARC
  5
6ED
100
AcDbEntity
  8
0
100
AcDbCircle
 62
7
  6
CONTINUOUS
 10
11.7228045886
 20
5.7496538766
 40
0.3
100
AcDbArc
 50
349.5088606984
 51
10.4911297273
  0
ARC
  5
6EE
100
AcDbEntity
  8
0
100
AcDbCircle
 62
7
  6
CONTINUOUS
 10
11.7228045886
 20
5.7496538766
 40
0.3
100
AcDbArc
 50
169.5088606984
 51
190.4911297273
  0
ARC
  5
6EF
100
AcDbEntity
  8
0
100
AcDbCircle
 62
7
  6
CONTINUOUS
 10
11.7228045886
 20
5.7496538766
 40
0.2992125984
100
AcDbArc
 50
349.8357513783
 51
10.1642486217
  0
ARC
  5
6F0
100
AcDbEntity
  8
0
100
AcDbCircle
 62
7
  6
CONTINUOUS
 10
11.7228045886
 20
5.7496538766
 40
0.2992125984
100
AcDbArc
 50
169.8357513783
 51
190.1642486217
  0
CIRCLE
  5
6F1
100
AcDbEntity
  8
0
100
AcDbCircle
 62
7
  6
CONTINUOUS
 10
11.7228045886
 20
5.7496538766
 40
0.2854330709
  0
ARC
  5
6F2
100
AcDbEntity
  8
02___PRT_ALL_AXES
100
AcDbCircle
 62
7
  6
CONTINUOUS
 10
11.7228045886
 20
5.7496538766
 40
0.2854330709
100
AcDbArc
 50
280.1560818979
 51
349.2288609103
  0
ARC
  5
6F3
100
AcDbEntity
  8
02___PRT_ALL_AXES
100
AcDbCircle
 62
7
  6
CONTINUOUS
 10
11.7228045886
 20
5.7496538766
 40
0.2854330709
100
AcDbArc
 50
190.7584410939
 51
259.8683374486
  0
ARC
  5
6F4
100
AcDbEntity
  8
02___PRT_ALL_AXES
100
AcDbCircle
 62
7
  6
CONTINUOUS
 10
11.7228045886
 20
5.7496538766
 40
0.2854330709
100
AcDbArc
 50
1.6735108502
 51
79.8683374487
  0
ARC
  5
6F5
100
AcDbEntity
  8
02___PRT_ALL_AXES
100
AcDbCircle
 62
7
  6
CONTINUOUS
 10
11.7228045886
 20
5.7496538766
 40
0.2854330709
100
AcDbArc
 50
100.1560818979
 51
178.3494205317
  0
CIRCLE
  5
6F6
100
AcDbEntity
  8
0
100
AcDbCircle
 62
9
  6
CONTINUOUS
 10
11.7228045886
 20
5.7496538766
 40
0.2815942195
  0
CIRCLE
  5
6F7
100
AcDbEntity
  8
0
100
AcDbCircle
 62
9
  6
CONTINUOUS
 10
11.7228045886
 20
5.7496538766
 40
0.2481105049
  0
ARC
  5
6F8
100
AcDbEntity
  8
0
100
AcDbCircle
 62
7
  6
CONTINUOUS
 10
11.7228045886
 20
5.7496538766
 40
0.2442716535
100
AcDbArc
 50
342.3463568424
 51
342.0005095346
  0
CIRCLE
  5
6F9
100
AcDbEntity
  8
0
100
AcDbCircle
 62
7
  6
CONTINUOUS
 10
11.7228045886
 20
5.7496538766
 40
0.208838596
  0
CIRCLE
  5
6FA
100
AcDbEntity
  8
0
100
AcDbCircle
 62
7
  6
CONTINUOUS
 10
11.7228045886
 20
5.7496538766
 40
0.2037401575
  0
CIRCLE
  5
6FB
100
AcDbEntity
  8
0
100
AcDbCircle
 62
7
  6
CONTINUOUS
 10
11.7228045886
 20
5.7496538766
 40
0.1633858268
  0
CIRCLE
  5
6FC
100
AcDbEntity
  8
0
100
AcDbCircle
 62
7
  6
CONTINUOUS
 10
11.7228045886
 20
5.7496538766
 40
0.0196850394
  0
CIRCLE
  5
6FD
100
AcDbEntity
  8
0
100
AcDbCircle
 62
7
  6
CONTINUOUS
 10
11.8212297855
 20
5.7496538766
 40
0.0196850394
  0
CIRCLE
  5
6FE
100
AcDbEntity
  8
0
100
AcDbCircle
 62
9
  6
CONTINUOUS
 10
11.8212297855
 20
5.7496538766
 40
0.00468503
  0
CIRCLE
  5
6FF
100
AcDbEntity
  8
0
100
AcDbCircle
 62
9
  6
CONTINUOUS
 10
11.7228045886
 20
5.7496538766
 40
0.00468503
  0
CIRCLE
  5
700
100
AcDbEntity
  8
0
100
AcDbCircle
 62
7
  6
CONTINUOUS
 10
11.7228045886
 20
5.8480790734
 40
0.0196850394
  0
CIRCLE
  5
701
100
AcDbEntity
  8
0
100
AcDbCircle
 62
9
  6
CONTINUOUS
 10
11.7228045886
 20
5.8480790734
 40
0.00468503
  0
ARC
  5
702
100
AcDbEntity
  8
0
100
AcDbCircle
 62
7
  6
CONTINUOUS
 10
12.0521982998
 20
5.8087089947
 40
0.0354330709
100
AcDbArc
 50
10.1642486217
 51
190.1642486217
  0
ENDSEC
  0
SECTION
  2
OBJECTS
  0
DICTIONARY
  5
C
100
AcDbDictionary
280
0
281
1
  3
ACAD_GROUP
350
D
  3
ACAD_MLINESTYLE
350
17
  3
ACAD_LAYOUT
350
1A
  3
ACAD_PLOTSETTINGS
350
19
  3
ACAD_PLOTSTYLENAME
350
E
  0
DICTIONARY
  5
D
102
{ACAD_REACTORS
330
C
102
}
100
AcDbDictionary
280
0
281
1
  0
ACDBDICTIONARYWDFLT
  5
E
102
{ACAD_REACTORS
330
C
102
}
100
AcDbDictionary
281
1
  3
Normal
350
F
100
AcDbDictionaryWithDefault
340
F
  0
DICTIONARY
  5
17
102
{ACAD_REACTORS
330
C
102
}
100
AcDbDictionary
280
0
281
1
  3
Standard
350
18
  0
DICTIONARY
  5
19
102
{ACAD_REACTORS
330
C
102
}
100
AcDbDictionary
281
1
  0
DICTIONARY
  5
1A
102
{ACAD_REACTORS
330
C
102
}
100
AcDbDictionary
281
1
  3
Layout1
350
1E
  3
Model
350
22
  0
ACDBPLACEHOLDER
  5
F
102
{ACAD_REACTORS
330
E
102
}
  0
MLINESTYLE
  5
18
102
{ACAD_REACTORS
330
17
102
}
100
AcDbMlineStyle
  2
STANDARD
 70
0
  3

 62
256
 51
90.0
 52
90.0
 71
2
 49
0.5
 62
256
  6
BYLAYER
 49
-0.5
 62
256
  6
BYLAYER
  0
LAYOUT
  5
1E
102
{ACAD_REACTORS
330
1A
102
}
100
AcDbPlotSettings
  1

  2

  4

  6

 40
0.0
 41
0.0
 42
0.0
 43
0.0
 44
0.0
 45
0.0
 46
0.0
 47
0.0
 48
0.0
 49
0.0
140
0.0
141
0.0
142
1.0
143
1.0
 70
0
 72
0
 73
0
 74
0
  7

 75
0
147
1.0
148
0.0
149
0.0
100
AcDbLayout
  1
Layout1
 70
0
 71
0
 10
0.0
 20
0.0
 11
0.0
 21
0.0
 12
0.0
 22
0.0
 32
0.0
 14
0.0
 24
0.0
 34
0.0
 15
0.0
 25
0.0
 35
0.0
146
0.0
 13
0.0
 23
0.0
 33
0.0
 16
0.0
 26
0.0
 36
0.0
 17
0.0
 27
0.0
 37
0.0
 76
0
330
1B
331
0
345
0
346
0
  0
LAYOUT
  5
22
102
{ACAD_REACTORS
330
1A
102
}
100
AcDbPlotSettings
  1

  2

  4

  6

 40
0.0
 41
0.0
 42
0.0
 43
0.0
 44
0.0
 45
0.0
 46
0.0
 47
0.0
 48
0.0
 49
0.0
140
0.0
141
0.0
142
1.0
143
1.0
 70
0
 72
0
 73
0
 74
0
  7

 75
0
147
1.0
148
0.0
149
0.0
100
AcDbLayout
  1
Model
 70
0
 71
0
 10
0.0
 20
0.0
 11
0.0
 21
0.0
 12
0.0
 22
0.0
 32
0.0
 14
0.0
 24
0.0
 34
0.0
 15
0.0
 25
0.0
 35
0.0
146
0.0
 13
0.0
 23
0.0
 33
0.0
 16
0.0
 26
0.0
 36
0.0
 17
0.0
 27
0.0
 37
0.0
 76
0
330
1F
331
0
345
0
346
0
  0
ENDSEC
  0
EOF
