999
DXF file: 144871_1.dxf
999
Pro/ENGINEER 2013230 by Parametric Technology Corporation
  0
SECTION
  2
HEADER
  9
$ACADVER
  1
AC1018
  9
$DWGCODEPAGE
  3
ANSI_1252
  9
$EXTMAX
 10
17.0
 20
11.0
 30
0.0
  9
$EXTMIN
 10
0.0
 20
0.0
 30
0.0
  9
$LIMMIN
 10
0.0
 20
0.0
  9
$LIMMAX
 10
17.0
 20
11.0
  9
$VIEWCTR
 10
8.5
 20
5.5
  9
$VIEWSIZE
 40
11.0
  9
$CLAYER
  8
0
  9
$LTSCALE
 40
0.935
  9
$CELTYPE
  6
BYLAYER
  9
$DIMSCALE
 40
1.0
  9
$DIMASZ
 40
0.1875
  9
$DIMEXO
 40
0.0625
  9
$DIMDLI
 40
0.646
  9
$DIMEXE
 40
0.125
  9
$DIMCEN
 40
0.153
  9
$DIMLFAC
 40
1.0
  9
$DIMBLK
  1
_FILLED
  9
$DIMTXT
 40
0.1
  9
$DIMTOL
 70
1
  9
$DIMLIM
 70
0
  9
$DIMTFAC
 40
1.0
  9
$DIMTP
 40
0.01
  9
$DIMTM
 40
0.01
  9
$DIMGAP
 40
0.09
  9
$DIMDSEP
 70
46
  9
$PDMODE
 70
3
  9
$PDSIZE
 40
0.3125
  9
$HANDSEED
  5
507
  9
$TILEMODE
 70
1
  9
$MEASUREMENT
 70
0
  9
$INSUNITS
 70
1
  0
ENDSEC
  0
SECTION
  2
CLASSES
  0
CLASS
  1
ACDBDICTIONARYWDFLT
  2
AcDbDictionaryWithDefault
  3
AutoCAD 2000
 90
0
 91
1
280
0
281
0
  0
CLASS
  1
ACDBPLACEHOLDER
  2
AcDbPlaceHolder
  3
AutoCAD 2000
 90
0
 91
1
280
0
281
0
  0
CLASS
  1
LAYOUT
  2
AcDbLayout
  3
AutoCAD 2000
 90
0
 91
0
280
0
281
0
  0
CLASS
  1
TABLESTYLE
  2
AcDbTableStyle
  3
ObjectDBX Classes
 90
2047
 91
1
280
0
281
0
  0
CLASS
  1
ACAD_TABLE
  2
AcDbTable
  3
ObjectDBX Classes
 90
1025
 91
1
280
0
281
1
  0
ENDSEC
  0
SECTION
  2
TABLES
  0
TABLE
  2
VPORT
  5
8
100
AcDbSymbolTable
 70
2
  0
VPORT
  5
1F4
100
AcDbSymbolTableRecord
100
AcDbViewportTableRecord
  2
*ACTIVE
 70
0
 10
0.0
 20
0.0
 11
1.0
 21
1.0
 12
8.5
 22
5.5
 13
0.0
 23
0.0
 14
1.0
 24
1.0
 15
0.0
 25
0.0
 16
0.0
 26
0.0
 36
1.0
 17
0.0
 27
0.0
 37
0.0
 40
11.0
 41
1.5454545455
 42
50.0
 43
0.0
 44
0.0
 50
0.0
 51
0.0
 71
0
 72
100
 73
1
 74
1
 75
0
 76
0
 77
0
 78
0
  0
ENDTAB
  0
TABLE
  2
LTYPE
  5
5
100
AcDbSymbolTable
 70
6
  0
LTYPE
  5
14
100
AcDbSymbolTableRecord
100
AcDbLinetypeTableRecord
  2
BYBLOCK
 70
0
  3

 72
65
 73
0
 40
0.0
  0
LTYPE
  5
15
100
AcDbSymbolTableRecord
100
AcDbLinetypeTableRecord
  2
BYLAYER
 70
0
  3

 72
65
 73
0
 40
0.0
  0
LTYPE
  5
16
100
AcDbSymbolTableRecord
100
AcDbLinetypeTableRecord
  2
CONTINUOUS
 70
64
  3
Solid line
 72
65
 73
0
 40
0.0
  0
LTYPE
  5
1F5
100
AcDbSymbolTableRecord
100
AcDbLinetypeTableRecord
  2
CENTER
 70
64
  3
____ _ ____ _ ____ _ ____ _ ____ _ ____ _ ____
 72
65
 73
4
 40
0.6
 49
0.375
 74
0
 49
-0.075
 74
0
 49
0.075
 74
0
 49
-0.075
 74
0
  0
LTYPE
  5
1F6
100
AcDbSymbolTableRecord
100
AcDbLinetypeTableRecord
  2
HIDDEN
 70
64
  3
- - - - - - - - - - - - - - - - - - - -
 72
65
 73
2
 40
0.2
 49
0.1
 74
0
 49
-0.1
 74
0
  0
LTYPE
  5
1F7
100
AcDbSymbolTableRecord
100
AcDbLinetypeTableRecord
  2
PHANTOM
 70
64
  3
_____ _ _ _____ _ _ _____ _ _ _____
 72
65
 73
6
 40
0.8
 49
0.45
 74
0
 49
-0.05
 74
0
 49
0.1
 74
0
 49
-0.05
 74
0
 49
0.1
 74
0
 49
-0.05
 74
0
  0
LTYPE
  5
1F8
100
AcDbSymbolTableRecord
100
AcDbLinetypeTableRecord
  2
DOT
 70
64
  3
. . . . . . . . . . . . . . . . . . . .
 72
65
 73
2
 40
0.2
 49
0.1
 74
0
 49
-0.1
 74
0
  0
LTYPE
  5
1F9
100
AcDbSymbolTableRecord
100
AcDbLinetypeTableRecord
  2
DASHED
 70
64
  3
- - - - - - - - - - - - - - - - - - - -
 72
65
 73
2
 40
0.2
 49
0.1
 74
0
 49
-0.1
 74
0
  0
ENDTAB
  0
TABLE
  2
LAYER
  5
2
100
AcDbSymbolTable
 70
36
  0
LAYER
  5
10
100
AcDbSymbolTableRecord
100
AcDbLayerTableRecord
  2
0
 70
0
 62
7
  6
CONTINUOUS
370
-3
390
F
  0
LAYER
  5
1FA
100
AcDbSymbolTableRecord
100
AcDbLayerTableRecord
  2
DEFAULT_1
 70
0
 62
7
  6
CENTER
370
-3
390
F
  0
LAYER
  5
1FB
100
AcDbSymbolTableRecord
100
AcDbLayerTableRecord
  2
DEFAULT_2
 70
0
 62
7
  6
HIDDEN
370
-3
390
F
  0
LAYER
  5
1FC
100
AcDbSymbolTableRecord
100
AcDbLayerTableRecord
  2
DEFAULT_3
 70
0
 62
7
  6
PHANTOM
370
-3
390
F
  0
LAYER
  5
1FD
100
AcDbSymbolTableRecord
100
AcDbLayerTableRecord
  2
01___PRT_ALL_DTM_PLN
 70
0
 62
7
  6
CONTINUOUS
370
-3
390
F
  0
LAYER
  5
1FE
100
AcDbSymbolTableRecord
100
AcDbLayerTableRecord
  2
01___PRT_DEF_DTM_PLN
 70
0
 62
7
  6
CONTINUOUS
370
-3
390
F
  0
LAYER
  5
1FF
100
AcDbSymbolTableRecord
100
AcDbLayerTableRecord
  2
02___PRT_ALL_AXES
 70
0
 62
7
  6
CONTINUOUS
370
-3
390
F
  0
LAYER
  5
200
100
AcDbSymbolTableRecord
100
AcDbLayerTableRecord
  2
03___PRT_ALL_CURVES
 70
0
 62
7
  6
CONTINUOUS
370
-3
390
F
  0
LAYER
  5
201
100
AcDbSymbolTableRecord
100
AcDbLayerTableRecord
  2
04___PRT_ALL_DTM_PNT
 70
0
 62
7
  6
CONTINUOUS
370
-3
390
F
  0
LAYER
  5
202
100
AcDbSymbolTableRecord
100
AcDbLayerTableRecord
  2
05___PRT_ALL_DTM_CSYS
 70
0
 62
7
  6
CONTINUOUS
370
-3
390
F
  0
LAYER
  5
203
100
AcDbSymbolTableRecord
100
AcDbLayerTableRecord
  2
05___PRT_DEF_DTM_CSYS
 70
0
 62
7
  6
CONTINUOUS
370
-3
390
F
  0
LAYER
  5
204
100
AcDbSymbolTableRecord
100
AcDbLayerTableRecord
  2
06___PRT_ALL_SURFS
 70
0
 62
7
  6
CONTINUOUS
370
-3
390
F
  0
LAYER
  5
205
100
AcDbSymbolTableRecord
100
AcDbLayerTableRecord
  2
AXIS
 70
0
 62
7
  6
CONTINUOUS
370
-3
390
F
  0
LAYER
  5
206
100
AcDbSymbolTableRecord
100
AcDbLayerTableRecord
  2
AXIS_COSMETIC_THREADS
 70
0
 62
7
  6
CONTINUOUS
370
-3
390
F
  0
LAYER
  5
207
100
AcDbSymbolTableRecord
100
AcDbLayerTableRecord
  2
DATUM_CURVES
 70
0
 62
7
  6
CONTINUOUS
370
-3
390
F
  0
LAYER
  5
208
100
AcDbSymbolTableRecord
100
AcDbLayerTableRecord
  2
DATUM_PLANES
 70
0
 62
7
  6
CONTINUOUS
370
-3
390
F
  0
LAYER
  5
209
100
AcDbSymbolTableRecord
100
AcDbLayerTableRecord
  2
NOTES
 70
0
 62
7
  6
CONTINUOUS
370
-3
390
F
  0
LAYER
  5
20A
100
AcDbSymbolTableRecord
100
AcDbLayerTableRecord
  2
SCHEME_DIMS
 70
0
 62
7
  6
CONTINUOUS
370
-3
390
F
  0
LAYER
  5
20B
100
AcDbSymbolTableRecord
100
AcDbLayerTableRecord
  2
SYMBOLS
 70
0
 62
7
  6
CONTINUOUS
370
-3
390
F
  0
ENDTAB
  0
TABLE
  2
STYLE
  5
3
100
AcDbSymbolTable
 70
1
  0
STYLE
  5
11
100
AcDbSymbolTableRecord
100
AcDbTextStyleTableRecord
  2
STANDARD
 70
0
 40
0.0
 41
1.0
 50
0.0
 71
0
 42
0.2
  3
txt
  4

  0
STYLE
  5
20C
100
AcDbSymbolTableRecord
100
AcDbTextStyleTableRecord
  2
TEXTSTYLE_1
 70
0
 40
0.0
 41
0.8
 50
0.0
 71
0
 42
0.2
  3
gdt
  4

  0
STYLE
  5
20D
100
AcDbSymbolTableRecord
100
AcDbTextStyleTableRecord
  2
TEXTSTYLE_2
 70
0
 40
0.0
 41
0.8
 50
0.0
 71
0
 42
0.2
  3
txt
  4

  0
STYLE
  5
20E
100
AcDbSymbolTableRecord
100
AcDbTextStyleTableRecord
  2
TEXTSTYLE_3
 70
0
 40
0.0
 41
0.85
 50
0.0
 71
0
 42
0.2
  3
txt
  4

  0
STYLE
  5
20F
100
AcDbSymbolTableRecord
100
AcDbTextStyleTableRecord
  2
TEXTSTYLE_4
 70
0
 40
0.0
 41
0.9
 50
0.0
 71
0
 42
0.2
  3
txt
  4

  0
STYLE
  5
210
100
AcDbSymbolTableRecord
100
AcDbTextStyleTableRecord
  2
TEXTSTYLE_5
 70
0
 40
0.0
 41
0.75
 50
0.0
 71
0
 42
0.2
  3
txt
  4

  0
STYLE
  5
211
100
AcDbSymbolTableRecord
100
AcDbTextStyleTableRecord
  2
TEXTSTYLE_6
 70
0
 40
0.0
 41
1.0
 50
0.0
 71
0
 42
0.2
  3
gdt
  4

  0
ENDTAB
  0
TABLE
  2
VIEW
  5
6
100
AcDbSymbolTable
 70
0
  0
ENDTAB
  0
TABLE
  2
UCS
  5
7
100
AcDbSymbolTable
 70
0
  0
ENDTAB
  0
TABLE
  2
APPID
  5
9
100
AcDbSymbolTable
 70
1
  0
APPID
  5
212
100
AcDbSymbolTableRecord
100
AcDbRegAppTableRecord
  2
ACAD
 70
0
  0
ENDTAB
  0
TABLE
  2
BLOCK_RECORD
  5
1
100
AcDbSymbolTable
 70
0
  0
BLOCK_RECORD
  5
213
100
AcDbSymbolTableRecord
100
AcDbBlockTableRecord
  2
*Model_Space
  0
BLOCK_RECORD
  5
214
100
AcDbSymbolTableRecord
100
AcDbBlockTableRecord
  2
*Paper_Space
  0
BLOCK_RECORD
  5
215
100
AcDbSymbolTableRecord
100
AcDbBlockTableRecord
  2
_FILLED
  0
BLOCK_RECORD
  5
216
100
AcDbSymbolTableRecord
100
AcDbBlockTableRecord
  2
*D0
  0
BLOCK_RECORD
  5
217
100
AcDbSymbolTableRecord
100
AcDbBlockTableRecord
  2
*D1
  0
BLOCK_RECORD
  5
218
100
AcDbSymbolTableRecord
100
AcDbBlockTableRecord
  2
*D2
  0
BLOCK_RECORD
  5
219
100
AcDbSymbolTableRecord
100
AcDbBlockTableRecord
  2
*T1
  0
ENDTAB
  0
TABLE
  2
DIMSTYLE
  5
A
100
AcDbSymbolTable
 70
1
100
AcDbDimStyleTable
 71
0
  0
DIMSTYLE
105
21A
100
AcDbSymbolTableRecord
100
AcDbDimStyleTableRecord
  2
STANDARD
 70
0
  3

  4

 40
1.0
 41
0.1875
 42
0.0625
 43
0.38
 44
0.125
 45
0.0
 46
0.0
 47
0.01
 48
0.01
140
0.1
141
0.09
142
0.0
143
25.4
144
1.0
145
0.0
146
1.0
147
0.09
 71
1.0
 72
0.0
 73
1
 74
1
 75
0
 76
0
 77
0
 78
4
170
0
171
2
172
0
173
0
174
0
175
0
176
0
177
0
178
0
270
2
271
2
272
2
273
2
274
2
275
0
280
0
281
0
282
0
283
1
284
4
285
0
286
0
287
3
288
0
340
11
278
46
341
215
342
215
343
215
344
215
  0
DIMSTYLE
105
21B
100
AcDbSymbolTableRecord
100
AcDbDimStyleTableRecord
  2
DIMSTYLE_1
 70
0
  3
<>
  4

 40
1.0
 41
0.1875
 42
0.0625
 43
0.38
 44
0.125
 45
0.0
 46
0.0
 47
0.1
 48
0.1
140
0.1
141
0.09
142
0.0
143
25.4
144
1.0
145
0.0
146
1.0
147
0.09
 71
0.0
 72
0.0
 73
1
 74
1
 75
0
 76
0
 77
0
 78
4
170
0
171
2
172
1
173
0
174
0
175
0
176
0
177
0
178
0
270
2
271
1
272
1
273
2
274
2
275
0
280
0
281
0
282
0
283
1
284
4
285
0
286
0
287
3
288
1
340
11
278
46
289
2
341
215
342
215
343
215
344
215
  0
DIMSTYLE
105
21C
100
AcDbSymbolTableRecord
100
AcDbDimStyleTableRecord
  2
DIMSTYLE_2
 70
0
  3

  4

 40
1.0
 41
0.1875
 42
0.0625
 43
0.38
 44
0.125
 45
0.0
 46
0.0
 47
0.1
 48
0.1
140
0.1
141
0.09
142
0.0
143
25.4
144
1.0
145
0.0
146
1.0
147
0.1
 71
0.0
 72
0.0
 73
1
 74
1
 75
0
 76
0
 77
0
 78
4
170
0
171
2
172
0
173
0
174
0
175
0
176
0
177
0
178
0
270
2
271
1
272
1
273
2
274
2
275
0
280
0
281
0
282
0
283
1
284
4
285
0
286
0
287
3
288
0
340
11
278
46
341
215
342
215
343
215
344
215
  0
ENDTAB
  0
ENDSEC
  0
SECTION
  2
BLOCKS
  0
BLOCK
  5
20
100
AcDbEntity
  8
0
100
AcDbBlockBegin
  2
*Model_Space
 70
0
 10
0.0
 20
0.0
 30
0.0
  3
*Model_Space
  1

  0
ENDBLK
  5
21
100
AcDbEntity
  8
0
100
AcDbBlockEnd
  0
BLOCK
  5
1C
100
AcDbEntity
  8
0
100
AcDbBlockBegin
  2
*Paper_Space
 70
0
 10
0.0
 20
0.0
 30
0.0
  3
*Paper_Space
  1

  0
ENDBLK
  5
1D
100
AcDbEntity
  8
0
100
AcDbBlockEnd
  0
BLOCK
  5
21D
100
AcDbEntity
  8
0
100
AcDbBlockBegin
  2
_FILLED
 70
64
 10
0.0
 20
0.0
  3
_FILLED
  1

  0
SOLID
  5
21E
100
AcDbEntity
  8
0
  6
BYBLOCK
 62
0
100
AcDbTrace
 10
0.0
 20
0.0
 11
-1.0
 21
0.1666666667
 12
-1.0
 22
-0.1666666667
 13
-1.0
 23
-0.1666666667
  0
ENDBLK
  5
21F
100
AcDbEntity
  8
0
  6
BYBLOCK
 62
0
100
AcDbBlockEnd
  0
BLOCK
  5
220
100
AcDbEntity
  8
SCHEME_DIMS
100
AcDbBlockBegin
 62
7
  6
CONTINUOUS
  2
*D0
 70
65
 10
0.0
 20
0.0
  3
*D0
  1

  0
MTEXT
  5
221
100
AcDbEntity
  8
SCHEME_DIMS
100
AcDbMText
 62
7
  6
CONTINUOUS
  7
TEXTSTYLE_6
 71
1
 72
1
 10
3.4869061151
 20
4.4930519802
 30
0.0
 11
1.0
 21
0.0
 31
0.0
 44
0.9
  1
{\Fgdt;n}\Ftxt;50\P[1.97]
 40
0.1
 41
0.6
  0
LINE
  5
222
100
AcDbEntity
  8
SCHEME_DIMS
100
AcDbLine
 62
7
  6
CONTINUOUS
 10
3.0851295787
 20
4.9431618596
 11
3.2753211245
 21
4.4430519802
  0
LINE
  5
223
100
AcDbEntity
  8
SCHEME_DIMS
100
AcDbLine
 62
7
  6
CONTINUOUS
 10
3.2753211245
 20
4.4430519802
 11
3.3869061151
 21
4.4430519802
  0
INSERT
  5
224
100
AcDbEntity
  8
SCHEME_DIMS
100
AcDbBlockReference
 62
7
  6
CONTINUOUS
  2
_FILLED
 10
3.0851295787
 20
4.9431618596
 41
0.1875
 42
0.1875
 43
0.1875
 50
110.8217852266
  0
ENDBLK
  5
225
100
AcDbEntity
  8
0
  6
BYBLOCK
 62
0
100
AcDbBlockEnd
  0
BLOCK
  5
226
100
AcDbEntity
  8
SCHEME_DIMS
100
AcDbBlockBegin
 62
7
  6
CONTINUOUS
  2
*D1
 70
65
 10
0.0
 20
0.0
  3
*D1
  1

  0
MTEXT
  5
227
100
AcDbEntity
  8
SCHEME_DIMS
100
AcDbMText
 62
7
  6
CONTINUOUS
  7
STANDARD
 71
2
 72
1
 10
5.6379510895
 20
7.8756955913
 30
0.0
 11
1.0
 21
0.0
 31
0.0
 44
0.9
  1
58\P[2.28]
 40
0.1
 41
0.6
  0
LINE
  5
228
100
AcDbEntity
  8
SCHEME_DIMS
100
AcDbLine
 62
7
  6
CONTINUOUS
 10
6.979683373
 20
6.4276014153
 11
6.979683373
 21
7.9506955913
  0
LINE
  5
229
100
AcDbEntity
  8
SCHEME_DIMS
100
AcDbLine
 62
7
  6
CONTINUOUS
 10
4.6962188061
 20
5.9256329114
 11
4.6962188061
 21
7.9506955913
  0
LINE
  5
22A
100
AcDbEntity
  8
SCHEME_DIMS
100
AcDbLine
 62
7
  6
CONTINUOUS
 10
6.979683373
 20
7.8256955913
 11
6.2379510895
 21
7.8256955913
  0
LINE
  5
22B
100
AcDbEntity
  8
SCHEME_DIMS
100
AcDbLine
 62
7
  6
CONTINUOUS
 10
4.6962188061
 20
7.8256955913
 11
5.4379510895
 21
7.8256955913
  0
INSERT
  5
22C
100
AcDbEntity
  8
SCHEME_DIMS
100
AcDbBlockReference
 62
7
  6
CONTINUOUS
  2
_FILLED
 10
6.979683373
 20
7.8256955913
 41
0.1875
 42
0.1875
 43
0.1875
  0
INSERT
  5
22D
100
AcDbEntity
  8
SCHEME_DIMS
100
AcDbBlockReference
 62
7
  6
CONTINUOUS
  2
_FILLED
 10
4.6962188061
 20
7.8256955913
 41
0.1875
 42
0.1875
 43
0.1875
 50
180.0
  0
ENDBLK
  5
22E
100
AcDbEntity
  8
0
  6
BYBLOCK
 62
0
100
AcDbBlockEnd
  0
BLOCK
  5
22F
100
AcDbEntity
  8
SCHEME_DIMS
100
AcDbBlockBegin
 62
7
  6
CONTINUOUS
  2
*D2
 70
65
 10
0.0
 20
0.0
  3
*D2
  1

  0
MTEXT
  5
230
100
AcDbEntity
  8
SCHEME_DIMS
100
AcDbMText
 62
7
  6
CONTINUOUS
  7
STANDARD
 71
2
 72
1
 10
5.2442503021
 20
7.4651752875
 30
0.0
 11
1.0
 21
0.0
 31
0.0
 44
0.9
  1
38\P[1.50]
 40
0.1
 41
0.6
  0
LINE
  5
231
100
AcDbEntity
  8
SCHEME_DIMS
100
AcDbLine
 62
7
  6
CONTINUOUS
 10
6.1922817982
 20
6.8705147919
 11
6.1922817982
 21
7.5401752875
  0
LINE
  5
232
100
AcDbEntity
  8
SCHEME_DIMS
100
AcDbLine
 62
7
  6
CONTINUOUS
 10
4.6962188061
 20
5.9256329114
 11
4.6962188061
 21
7.5401752875
  0
LINE
  5
233
100
AcDbEntity
  8
SCHEME_DIMS
100
AcDbLine
 62
7
  6
CONTINUOUS
 10
6.1922817982
 20
7.4151752875
 11
5.8442503021
 21
7.4151752875
  0
LINE
  5
234
100
AcDbEntity
  8
SCHEME_DIMS
100
AcDbLine
 62
7
  6
CONTINUOUS
 10
4.6962188061
 20
7.4151752875
 11
5.0442503021
 21
7.4151752875
  0
INSERT
  5
235
100
AcDbEntity
  8
SCHEME_DIMS
100
AcDbBlockReference
 62
7
  6
CONTINUOUS
  2
_FILLED
 10
6.1922817982
 20
7.4151752875
 41
0.1875
 42
0.1875
 43
0.1875
  0
INSERT
  5
236
100
AcDbEntity
  8
SCHEME_DIMS
100
AcDbBlockReference
 62
7
  6
CONTINUOUS
  2
_FILLED
 10
4.6962188061
 20
7.4151752875
 41
0.1875
 42
0.1875
 43
0.1875
 50
180.0
  0
ENDBLK
  5
237
100
AcDbEntity
  8
0
  6
BYBLOCK
 62
0
100
AcDbBlockEnd
  0
BLOCK
  5
238
100
AcDbEntity
  8
0
100
AcDbBlockBegin
  2
*T1
 70
1
 10
0.0
 20
0.0
  3
*T1
  1

  0
LINE
  5
239
100
AcDbEntity
  8
0
100
AcDbLine
 62
7
  6
CONTINUOUS
 10
4.35
 20
0.0
 11
0.0
 21
0.0
  0
LINE
  5
23A
100
AcDbEntity
  8
0
100
AcDbLine
 62
7
  6
CONTINUOUS
 10
4.35
 20
0.0
 11
4.35
 21
1.92
  0
LINE
  5
23B
100
AcDbEntity
  8
0
100
AcDbLine
 62
7
  6
CONTINUOUS
 10
4.35
 20
1.92
 11
0.0
 21
1.92
  0
LINE
  5
23C
100
AcDbEntity
  8
0
100
AcDbLine
 62
7
  6
CONTINUOUS
 10
0.0
 20
0.0
 11
0.0
 21
1.92
  0
MTEXT
  5
23D
100
AcDbEntity
  8
NOTES
100
AcDbMText
 62
7
  6
CONTINUOUS
  7
STANDARD
 71
2
 72
1
 10
4.125
 20
0.48
 30
0.0
 11
1.0
 21
0.0
 31
0.0
 44
0.9
  1
A
 40
0.1
 41
0.2
  0
MTEXT
  5
23E
100
AcDbEntity
  8
NOTES
100
AcDbMText
 62
7
  6
CONTINUOUS
  7
TEXTSTYLE_2
 71
2
 72
1
 10
2.175
 20
1.08
 30
0.0
 11
1.0
 21
0.0
 31
0.0
 44
0.9
  1
K50L GENERAL PURPOSE/MULTI-FUNCTION CABLE/PIGTAIL\PWEB CAD DRAWINGS 2D/3D
 40
0.1
 41
7.84
  0
ENDBLK
  5
23F
100
AcDbEntity
  8
0
  6
BYBLOCK
 62
0
100
AcDbBlockEnd
  0
ENDSEC
  0
SECTION
  2
ENTITIES
  0
MTEXT
  5
240
100
AcDbEntity
  8
0
100
AcDbMText
 62
7
  6
CONTINUOUS
  7
TEXTSTYLE_2
 71
2
 72
1
 10
11.0287658475
 20
1.794867839
 30
0.0
 11
1.0
 21
0.0
 31
0.0
 44
0.9
  1
THIRD ANGLE PROJECTION
 40
0.1
 41
1.76
  0
MTEXT
  5
241
100
AcDbEntity
  8
0
100
AcDbMText
 62
7
  6
CONTINUOUS
  7
STANDARD
 71
1
 72
1
 10
12.88
 20
1.457
 30
0.0
 11
1.0
 21
0.0
 31
0.0
 44
0.9
  1
DRAWING NO.
 40
0.08
 41
0.88
  0
MTEXT
  5
242
100
AcDbEntity
  8
0
100
AcDbMText
 62
7
  6
CONTINUOUS
  7
TEXTSTYLE_2
 71
1
 72
1
 10
12.08
 20
2.217
 30
0.0
 11
1.0
 21
0.0
 31
0.0
 44
0.9
  1
TITLE
 40
0.1
 41
0.4
  0
MTEXT
  5
243
100
AcDbEntity
  8
0
100
AcDbMText
 62
7
  6
CONTINUOUS
  7
STANDARD
 71
1
 72
1
 10
12.08
 20
1.457
 30
0.0
 11
1.0
 21
0.0
 31
0.0
 44
0.9
  1
SIZE
 40
0.08
 41
0.32
  0
MTEXT
  5
244
100
AcDbEntity
  8
0
100
AcDbMText
 62
7
  6
CONTINUOUS
  7
STANDARD
 71
1
 72
1
 10
12.08
 20
1.087
 30
0.0
 11
1.0
 21
0.0
 31
0.0
 44
0.9
  1
SCALE
 40
0.08
 41
0.4
  0
MTEXT
  5
245
100
AcDbEntity
  8
0
100
AcDbMText
 62
7
  6
CONTINUOUS
  7
TEXTSTYLE_2
 71
2
 72
1
 10
12.5
 20
1.337
 30
0.0
 11
1.0
 21
0.0
 31
0.0
 44
0.9
  1
B
 40
0.1
 41
0.08
  0
MTEXT
  5
246
100
AcDbEntity
  8
0
100
AcDbMText
 62
7
  6
CONTINUOUS
  7
TEXTSTYLE_3
 71
2
 72
1
 10
11.0340287086
 20
2.7679425959
 30
0.0
 11
1.0
 21
0.0
 31
0.0
 44
0.9
  1
This drawing is the property\Pof BANNER ENGINEERING CORP.\PAny use or reproduction,\Pin any form, without prior\Pwritten permission of\PBanner is prohibited.
 40
0.08
 41
1.904
  0
MTEXT
  5
247
100
AcDbEntity
  8
0
100
AcDbMText
 62
7
  6
CONTINUOUS
  7
STANDARD
 71
1
 72
1
 10
14.255
 20
1.087
 30
0.0
 11
1.0
 21
0.0
 31
0.0
 44
0.9
  1
SHEET
 40
0.08
 41
0.4
  0
MTEXT
  5
248
100
AcDbEntity
  8
0
100
AcDbMText
 62
7
  6
CONTINUOUS
  7
STANDARD
 71
1
 72
1
 10
15.63
 20
1.457
 30
0.0
 11
1.0
 21
0.0
 31
0.0
 44
0.9
  1
REV.
 40
0.08
 41
0.32
  0
MTEXT
  5
249
100
AcDbEntity
  8
0
100
AcDbMText
 62
7
  6
CONTINUOUS
  7
STANDARD
 71
3
 72
1
 10
16.38
 20
0.835443
 30
0.0
 11
1.0
 21
0.0
 31
0.0
 44
0.9
  1
CREO
 40
0.07
 41
0.28
  0
MTEXT
  5
24A
100
AcDbEntity
  8
0
100
AcDbMText
 62
7
  6
CONTINUOUS
  7
TEXTSTYLE_4
 71
2
 72
1
 10
15.1043392653
 20
2.7174764286
 30
0.0
 11
1.0
 21
0.0
 31
0.0
 44
0.9
  1
BANNER ENGINEERING CORP.
 40
0.12
 41
2.592
  0
MTEXT
  5
24B
100
AcDbEntity
  8
0
100
AcDbMText
 62
7
  6
CONTINUOUS
  7
TEXTSTYLE_2
 71
2
 72
1
 10
15.0923490612
 20
2.4764783673
 30
0.0
 11
1.0
 21
0.0
 31
0.0
 44
0.9
  1
www.bannerengineering.com
 40
0.1
 41
2.0
  0
MTEXT
  5
24C
100
AcDbEntity
  8
0
100
AcDbMText
 62
7
  6
CONTINUOUS
  7
TEXTSTYLE_2
 71
2
 72
1
 10
9.485
 20
10.312
 30
0.0
 11
1.0
 21
0.0
 31
0.0
 44
0.9
  1
4
 40
0.1
 41
0.08
  0
MTEXT
  5
24D
100
AcDbEntity
  8
0
100
AcDbMText
 62
7
  6
CONTINUOUS
  7
TEXTSTYLE_2
 71
2
 72
1
 10
11.455
 20
10.312
 30
0.0
 11
1.0
 21
0.0
 31
0.0
 44
0.9
  1
3
 40
0.1
 41
0.08
  0
MTEXT
  5
24E
100
AcDbEntity
  8
0
100
AcDbMText
 62
7
  6
CONTINUOUS
  7
TEXTSTYLE_2
 71
2
 72
1
 10
13.425
 20
10.312
 30
0.0
 11
1.0
 21
0.0
 31
0.0
 44
0.9
  1
2
 40
0.1
 41
0.08
  0
MTEXT
  5
24F
100
AcDbEntity
  8
0
100
AcDbMText
 62
7
  6
CONTINUOUS
  7
TEXTSTYLE_2
 71
2
 72
1
 10
15.395
 20
10.312
 30
0.0
 11
1.0
 21
0.0
 31
0.0
 44
0.9
  1
1
 40
0.1
 41
0.08
  0
MTEXT
  5
250
100
AcDbEntity
  8
0
100
AcDbMText
 62
7
  6
CONTINUOUS
  7
TEXTSTYLE_2
 71
2
 72
1
 10
3.575
 20
10.312
 30
0.0
 11
1.0
 21
0.0
 31
0.0
 44
0.9
  1
7
 40
0.1
 41
0.08
  0
MTEXT
  5
251
100
AcDbEntity
  8
0
100
AcDbMText
 62
7
  6
CONTINUOUS
  7
TEXTSTYLE_2
 71
2
 72
1
 10
5.545
 20
10.312
 30
0.0
 11
1.0
 21
0.0
 31
0.0
 44
0.9
  1
6
 40
0.1
 41
0.08
  0
MTEXT
  5
252
100
AcDbEntity
  8
0
100
AcDbMText
 62
7
  6
CONTINUOUS
  7
TEXTSTYLE_2
 71
2
 72
1
 10
7.515
 20
10.312
 30
0.0
 11
1.0
 21
0.0
 31
0.0
 44
0.9
  1
5
 40
0.1
 41
0.08
  0
MTEXT
  5
253
100
AcDbEntity
  8
0
100
AcDbMText
 62
7
  6
CONTINUOUS
  7
TEXTSTYLE_2
 71
2
 72
1
 10
1.605
 20
10.312
 30
0.0
 11
1.0
 21
0.0
 31
0.0
 44
0.9
  1
8
 40
0.1
 41
0.08
  0
MTEXT
  5
254
100
AcDbEntity
  8
0
100
AcDbMText
 62
7
  6
CONTINUOUS
  7
TEXTSTYLE_2
 71
2
 72
1
 10
1.605
 20
0.787
 30
0.0
 11
1.0
 21
0.0
 31
0.0
 44
0.9
  1
8
 40
0.1
 41
0.08
  0
MTEXT
  5
255
100
AcDbEntity
  8
0
100
AcDbMText
 62
7
  6
CONTINUOUS
  7
TEXTSTYLE_2
 71
2
 72
1
 10
3.575
 20
0.787
 30
0.0
 11
1.0
 21
0.0
 31
0.0
 44
0.9
  1
7
 40
0.1
 41
0.08
  0
MTEXT
  5
256
100
AcDbEntity
  8
0
100
AcDbMText
 62
7
  6
CONTINUOUS
  7
TEXTSTYLE_2
 71
2
 72
1
 10
5.545
 20
0.787
 30
0.0
 11
1.0
 21
0.0
 31
0.0
 44
0.9
  1
6
 40
0.1
 41
0.08
  0
MTEXT
  5
257
100
AcDbEntity
  8
0
100
AcDbMText
 62
7
  6
CONTINUOUS
  7
TEXTSTYLE_2
 71
2
 72
1
 10
7.515
 20
0.787
 30
0.0
 11
1.0
 21
0.0
 31
0.0
 44
0.9
  1
5
 40
0.1
 41
0.08
  0
MTEXT
  5
258
100
AcDbEntity
  8
0
100
AcDbMText
 62
7
  6
CONTINUOUS
  7
TEXTSTYLE_2
 71
2
 72
1
 10
9.485
 20
0.787
 30
0.0
 11
1.0
 21
0.0
 31
0.0
 44
0.9
  1
4
 40
0.1
 41
0.08
  0
MTEXT
  5
259
100
AcDbEntity
  8
0
100
AcDbMText
 62
7
  6
CONTINUOUS
  7
TEXTSTYLE_2
 71
2
 72
1
 10
11.455
 20
0.787
 30
0.0
 11
1.0
 21
0.0
 31
0.0
 44
0.9
  1
3
 40
0.1
 41
0.08
  0
MTEXT
  5
25A
100
AcDbEntity
  8
0
100
AcDbMText
 62
7
  6
CONTINUOUS
  7
TEXTSTYLE_2
 71
2
 72
1
 10
13.425
 20
0.787
 30
0.0
 11
1.0
 21
0.0
 31
0.0
 44
0.9
  1
2
 40
0.1
 41
0.08
  0
MTEXT
  5
25B
100
AcDbEntity
  8
0
100
AcDbMText
 62
7
  6
CONTINUOUS
  7
TEXTSTYLE_2
 71
2
 72
1
 10
15.395
 20
0.787
 30
0.0
 11
1.0
 21
0.0
 31
0.0
 44
0.9
  1
1
 40
0.1
 41
0.08
  0
MTEXT
  5
25C
100
AcDbEntity
  8
0
100
AcDbMText
 62
7
  6
CONTINUOUS
  7
TEXTSTYLE_2
 71
3
 72
1
 10
0.52
 20
4.3995
 30
0.0
 11
1.0
 21
0.0
 31
0.0
 44
0.9
  1
B
 40
0.1
 41
0.08
  0
MTEXT
  5
25D
100
AcDbEntity
  8
0
100
AcDbMText
 62
7
  6
CONTINUOUS
  7
TEXTSTYLE_2
 71
3
 72
1
 10
0.52
 20
2.0995
 30
0.0
 11
1.0
 21
0.0
 31
0.0
 44
0.9
  1
A
 40
0.1
 41
0.08
  0
MTEXT
  5
25E
100
AcDbEntity
  8
0
100
AcDbMText
 62
7
  6
CONTINUOUS
  7
TEXTSTYLE_2
 71
3
 72
1
 10
0.52
 20
8.9995
 30
0.0
 11
1.0
 21
0.0
 31
0.0
 44
0.9
  1
D
 40
0.1
 41
0.08
  0
MTEXT
  5
25F
100
AcDbEntity
  8
0
100
AcDbMText
 62
7
  6
CONTINUOUS
  7
TEXTSTYLE_2
 71
3
 72
1
 10
0.52
 20
6.6995
 30
0.0
 11
1.0
 21
0.0
 31
0.0
 44
0.9
  1
C
 40
0.1
 41
0.08
  0
MTEXT
  5
260
100
AcDbEntity
  8
0
100
AcDbMText
 62
7
  6
CONTINUOUS
  7
TEXTSTYLE_2
 71
1
 72
1
 10
16.48
 20
8.9995
 30
0.0
 11
1.0
 21
0.0
 31
0.0
 44
0.9
  1
D
 40
0.1
 41
0.08
  0
MTEXT
  5
261
100
AcDbEntity
  8
0
100
AcDbMText
 62
7
  6
CONTINUOUS
  7
TEXTSTYLE_2
 71
1
 72
1
 10
16.48
 20
6.6995
 30
0.0
 11
1.0
 21
0.0
 31
0.0
 44
0.9
  1
C
 40
0.1
 41
0.08
  0
MTEXT
  5
262
100
AcDbEntity
  8
0
100
AcDbMText
 62
7
  6
CONTINUOUS
  7
TEXTSTYLE_2
 71
1
 72
1
 10
16.48
 20
4.3995
 30
0.0
 11
1.0
 21
0.0
 31
0.0
 44
0.9
  1
B
 40
0.1
 41
0.08
  0
MTEXT
  5
263
100
AcDbEntity
  8
0
100
AcDbMText
 62
7
  6
CONTINUOUS
  7
TEXTSTYLE_2
 71
1
 72
1
 10
16.48
 20
2.0995
 30
0.0
 11
1.0
 21
0.0
 31
0.0
 44
0.9
  1
A
 40
0.1
 41
0.08
  0
MTEXT
  5
264
100
AcDbEntity
  8
0
100
AcDbMText
 62
7
  6
CONTINUOUS
  7
STANDARD
 71
1
 72
1
 10
14.819264911
 20
1.0627941725
 30
0.0
 11
1.0
 21
0.0
 31
0.0
 44
0.9
  1
1 OF 1
 40
0.1
 41
0.6
  0
MTEXT
  5
265
100
AcDbEntity
  8
0
100
AcDbMText
 62
7
  6
CONTINUOUS
  7
STANDARD
 71
1
 72
1
 10
13.8911999818
 20
1.3747321586
 30
0.0
 11
1.0
 21
0.0
 31
0.0
 44
0.9
  1
144871
 40
0.12
 41
0.72
  0
MTEXT
  5
266
100
AcDbEntity
  8
0
100
AcDbMText
 62
7
  6
CONTINUOUS
  7
STANDARD
 71
1
 72
1
 10
12.644264911
 20
1.0627941725
 30
0.0
 11
1.0
 21
0.0
 31
0.0
 44
0.9
  1
1:1
 40
0.1
 41
0.3
  0
MTEXT
  5
267
100
AcDbEntity
  8
0
100
AcDbMText
 62
7
  6
CONTINUOUS
  7
STANDARD
 71
1
 72
1
 10
0.8489354566
 20
1.4938330621
 30
0.0
 11
1.0
 21
0.0
 31
0.0
 44
0.9
  1
NOTES:\P1. ALL DIMENSIONS ARE MILLIMETERS [INCHES] UNLESS OTHERWISE NOTED.\P2. REFER TO "www.bannerengineering.com" FOR ADDITIONAL DATA AND SPECIFICATIONS.
 40
0.1
 41
7.9
  0
MTEXT
  5
268
100
AcDbEntity
  8
0
100
AcDbMText
 62
7
  6
CONTINUOUS
  7
TEXTSTYLE_5
 71
2
 72
1
 10
11.0519651892
 20
2.0334024775
 30
0.0
 11
1.0
 21
0.0
 31
0.0
 44
0.9
  1
C  2015 Banner Engineering Corp.
 40
0.08
 41
1.92
  0
DIMENSION
  5
269
100
AcDbEntity
  8
SCHEME_DIMS
100
AcDbDimension
 62
7
  6
CONTINUOUS
  2
*D0
 10
3.0851295787
 20
4.9431618596
 11
3.8535727818
 21
4.3680519802
 70
163
 71
1
 42
50.0
  1
%%c<>
  3
DIMSTYLE_1
100
AcDbDiametricDimension
 15
2.3854004846
 25
6.7831039632
  0
DIMENSION
  5
26A
100
AcDbEntity
  8
SCHEME_DIMS
100
AcDbDimension
 62
7
  6
CONTINUOUS
  2
*D1
 10
4.6962188061
 20
7.8256955913
 11
5.8379510895
 21
7.7506955913
 70
160
 71
2
 42
58.0
  3
DIMSTYLE_2
100
AcDbAlignedDimension
 13
6.979683373
 23
6.3651014153
 14
4.6962188061
 24
5.8631329114
 50
180.0
100
AcDbRotatedDimension
  0
DIMENSION
  5
26B
100
AcDbEntity
  8
SCHEME_DIMS
100
AcDbDimension
 62
7
  6
CONTINUOUS
  2
*D2
 10
4.6962188061
 20
7.4151752875
 11
5.4442503021
 21
7.3401752875
 70
160
 71
2
 42
38.0
  3
DIMSTYLE_2
100
AcDbAlignedDimension
 13
6.1922817982
 23
6.8080147919
 14
4.6962188061
 24
5.8631329114
 50
180.0
100
AcDbRotatedDimension
  0
ACAD_TABLE
  5
26C
100
AcDbEntity
  8
0
 62
7
  6
CONTINUOUS
100
AcDbBlockReference
  2
*T1
 10
12.03
 20
0.887
 30
0.0
100
AcDbTable
342
       506
343
219
 11
1.0
 21
0.0
 31
0.0
 90
6
 91
3
 92
5
 93
4
 94
0
 95
0
 96
0
 70
1
141
0.33
141
0.45
141
1.14
142
0.65
142
1.15
142
1.025
142
1.075
142
0.45
171
1
172
0
173
0
174
0
175
1
176
1
177
33
178
0
145
0.0
  1
 
170
1
140
0.1
171
1
172
0
173
0
174
0
175
1
176
1
177
33
178
0
145
0.0
  1
 
170
1
140
0.1
171
1
172
0
173
0
174
0
175
1
176
1
177
33
178
0
145
0.0
  1
 
170
1
140
0.1
171
1
172
0
173
0
174
0
175
1
176
1
177
33
178
0
145
0.0
  1
 
170
1
140
0.1
171
1
172
0
173
0
174
0
175
1
176
1
177
33
178
0
145
0.0
  1
 
170
1
140
0.1
171
1
172
0
173
0
174
0
175
1
176
1
177
33
178
0
145
0.0
  1
 
170
1
140
0.1
171
1
172
0
173
0
174
0
175
1
176
1
177
33
178
0
145
0.0
  1
 
170
1
140
0.1
171
1
172
0
173
0
174
0
175
1
176
1
177
33
178
0
145
0.0
  1
 
170
1
140
0.1
171
1
172
0
173
0
174
0
175
1
176
1
177
33
178
0
145
0.0
  1
 
170
1
140
0.1
171
1
172
0
173
0
174
0
175
1
176
1
177
41
178
0
145
0.0
  1
A
170
8
140
0.1
 64
7
171
1
172
0
173
0
174
0
175
5
176
1
177
33
178
0
145
0.0
  1
K50L GENERAL PURPOSE/MULTI-FUNCTION CABLE/PIGTAIL\PWEB CAD DRAWINGS 2D/3D
170
8
140
0.1
171
1
172
0
173
1
174
0
175
1
176
1
177
1
178
0
145
0.0
170
1
171
1
172
0
173
1
174
0
175
1
176
1
177
1
178
0
145
0.0
170
1
171
1
172
0
173
1
174
0
175
1
176
1
177
1
178
0
145
0.0
170
1
171
1
172
0
173
1
174
0
175
1
176
1
177
1
178
0
145
0.0
170
8
  0
LEADER
  5
26D
100
AcDbEntity
  8
NOTES
100
AcDbLeader
 62
7
  6
CONTINUOUS
  3
STANDARD
 71
1
 72
0
 73
0
 75
0
 40
0.1
 41
0.9
 76
3
 10
6.6351692182
 20
5.3217943287
 30
0.0
 10
6.9328921911
 20
4.7683605027
 30
0.0
 10
7.1828921911
 20
4.7683605027
 30
0.0
340
26E
1001
ACAD
1000
DSTYLE
1002
{
1070
77
1070
0
1002
}
  0
MTEXT
  5
26E
102
{ACAD_REACTORS
330
26D
102
}
100
AcDbEntity
  8
NOTES
100
AcDbMText
 62
7
  6
CONTINUOUS
  7
STANDARD
 71
1
 72
1
 10
7.1828921911
 20
4.8183605027
 30
0.0
 11
1.0
 21
0.0
 31
0.0
 44
0.9
  1
M30 X 1.5
 40
0.1
 41
0.9
  0
MTEXT
  5
26F
100
AcDbEntity
  8
NOTES
100
AcDbMText
 62
7
  6
CONTINUOUS
  7
STANDARD
 71
2
 72
1
 10
14.9441929589
 20
5.2582140084
 30
0.0
 11
1.0
 21
0.0
 31
0.0
 44
0.9
  1
ISOMETRIC VIEW\P\H0.1;SCALE  1:1
 40
0.12
 41
1.68
  0
LINE
  5
270
100
AcDbEntity
  8
0
100
AcDbLine
 62
7
  6
CONTINUOUS
 10
0.47
 20
5.586103
 11
0.47
 21
5.412897
  0
LINE
  5
271
100
AcDbEntity
  8
0
100
AcDbLine
 62
7
  6
CONTINUOUS
 10
0.62
 20
10.112
 11
0.62
 21
0.887
  0
LINE
  5
272
100
AcDbEntity
  8
0
100
AcDbLine
 62
7
  6
CONTINUOUS
 10
2.59
 20
0.887
 11
2.59
 21
0.637
  0
LINE
  5
273
100
AcDbEntity
  8
0
100
AcDbLine
 62
7
  6
CONTINUOUS
 10
2.59
 20
10.112
 11
2.59
 21
10.362
  0
LINE
  5
274
100
AcDbEntity
  8
0
100
AcDbLine
 62
7
  6
CONTINUOUS
 10
8.413397
 20
0.737
 11
8.586603
 21
0.737
  0
LINE
  5
275
100
AcDbEntity
  8
0
100
AcDbLine
 62
7
  6
CONTINUOUS
 10
11.1389508475
 20
1.425992839
 11
11.7453418475
 21
1.495385839
  0
LINE
  5
276
100
AcDbEntity
  8
0
100
AcDbLine
 62
7
  6
CONTINUOUS
 10
0.62
 20
0.887
 11
16.38
 21
0.887
  0
LINE
  5
277
100
AcDbEntity
  8
0
100
AcDbLine
 62
7
  6
CONTINUOUS
 10
12.03
 20
1.137
 11
16.38
 21
1.137
  0
LINE
  5
278
100
AcDbEntity
  8
0
100
AcDbLine
 62
7
  6
CONTINUOUS
 10
10.2121898475
 20
1.243294839
 11
10.4342808475
 21
1.243294839
  0
LINE
  5
279
100
AcDbEntity
  8
0
100
AcDbLine
 62
7
  6
CONTINUOUS
 10
10.4842808475
 20
1.243294839
 11
10.5842808475
 21
1.243294839
  0
LINE
  5
27A
100
AcDbEntity
  8
0
100
AcDbLine
 62
7
  6
CONTINUOUS
 10
10.6342808475
 20
1.243294839
 11
10.8563718475
 21
1.243294839
  0
LINE
  5
27B
100
AcDbEntity
  8
0
100
AcDbLine
 62
7
  6
CONTINUOUS
 10
11.0389508475
 20
1.243294839
 11
11.3171028475
 21
1.243294839
  0
LINE
  5
27C
100
AcDbEntity
  8
0
100
AcDbLine
 62
7
  6
CONTINUOUS
 10
11.3671028475
 20
1.243294839
 11
11.5171888475
 21
1.243294839
  0
LINE
  5
27D
100
AcDbEntity
  8
0
100
AcDbLine
 62
7
  6
CONTINUOUS
 10
11.5671888475
 20
1.243294839
 11
11.8453418475
 21
1.243294839
  0
LINE
  5
27E
100
AcDbEntity
  8
0
100
AcDbLine
 62
7
  6
CONTINUOUS
 10
11.7453418475
 20
0.991203839
 11
11.1389508475
 21
1.060596839
  0
LINE
  5
27F
100
AcDbEntity
  8
0
100
AcDbLine
 62
7
  6
CONTINUOUS
 10
4.56
 20
0.887
 11
4.56
 21
0.637
  0
LINE
  5
280
100
AcDbEntity
  8
0
100
AcDbLine
 62
7
  6
CONTINUOUS
 10
4.56
 20
10.112
 11
4.56
 21
10.362
  0
LINE
  5
281
100
AcDbEntity
  8
0
100
AcDbLine
 62
7
  6
CONTINUOUS
 10
0.47
 20
5.412897
 11
0.62
 21
5.4995
  0
LINE
  5
282
100
AcDbEntity
  8
0
100
AcDbLine
 62
7
  6
CONTINUOUS
 10
12.03
 20
1.507
 11
16.38
 21
1.507
  0
LINE
  5
283
100
AcDbEntity
  8
0
100
AcDbLine
 62
7
  6
CONTINUOUS
 10
10.03
 20
1.907
 11
12.03
 21
1.907
  0
LINE
  5
284
100
AcDbEntity
  8
0
100
AcDbLine
 62
7
  6
CONTINUOUS
 10
0.62
 20
5.4995
 11
0.47
 21
5.586103
  0
LINE
  5
285
100
AcDbEntity
  8
0
100
AcDbLine
 62
7
  6
CONTINUOUS
 10
12.03
 20
2.267
 11
16.38
 21
2.267
  0
LINE
  5
286
100
AcDbEntity
  8
0
100
AcDbLine
 62
7
  6
CONTINUOUS
 10
13.6042588488
 20
2.4912273132
 11
13.5568948225
 21
2.4912273132
  0
LINE
  5
287
100
AcDbEntity
  8
0
100
AcDbLine
 62
7
  6
CONTINUOUS
 10
13.5130037982
 20
2.4912273132
 11
13.3994327352
 21
2.4912273132
  0
LINE
  5
288
100
AcDbEntity
  8
0
100
AcDbLine
 62
7
  6
CONTINUOUS
 10
13.3705287192
 20
2.4912273132
 11
13.1673166065
 21
2.4912273132
  0
LINE
  5
289
100
AcDbEntity
  8
0
100
AcDbLine
 62
7
  6
CONTINUOUS
 10
13.1168435785
 20
2.4912273132
 11
13.0426375373
 21
2.4912273132
  0
LINE
  5
28A
100
AcDbEntity
  8
0
100
AcDbLine
 62
7
  6
CONTINUOUS
 10
12.9962575116
 20
2.4912273132
 11
12.9205934696
 21
2.4912273132
  0
LINE
  5
28B
100
AcDbEntity
  8
0
100
AcDbLine
 62
7
  6
CONTINUOUS
 10
12.8685904408
 20
2.4912273132
 11
12.7943853997
 21
2.4912273132
  0
LINE
  5
28C
100
AcDbEntity
  8
0
100
AcDbLine
 62
7
  6
CONTINUOUS
 10
12.7480043739
 20
2.4912273132
 11
12.672340332
 21
2.4912273132
  0
LINE
  5
28D
100
AcDbEntity
  8
0
100
AcDbLine
 62
7
  6
CONTINUOUS
 10
12.2055050731
 20
2.4912273132
 11
12.3819511709
 21
2.4912273132
  0
LINE
  5
28E
100
AcDbEntity
  8
0
100
AcDbLine
 62
7
  6
CONTINUOUS
 10
12.4394882028
 20
2.4912273132
 11
12.5168642458
 21
2.4912273132
  0
LINE
  5
28F
100
AcDbEntity
  8
0
100
AcDbLine
 62
7
  6
CONTINUOUS
 10
12.537150257
 20
2.4912273132
 11
12.6424313154
 21
2.4912273132
  0
LINE
  5
290
100
AcDbEntity
  8
0
100
AcDbLine
 62
7
  6
CONTINUOUS
 10
13.4883447845
 20
2.5159553269
 11
13.5130037982
 21
2.5159553269
  0
LINE
  5
291
100
AcDbEntity
  8
0
100
AcDbLine
 62
7
  6
CONTINUOUS
 10
12.6424313154
 20
2.515977327
 11
12.6224153043
 21
2.515977327
  0
LINE
  5
292
100
AcDbEntity
  8
0
100
AcDbLine
 62
7
  6
CONTINUOUS
 10
12.551601265
 20
2.515977327
 11
12.537150257
 21
2.515977327
  0
LINE
  5
293
100
AcDbEntity
  8
0
100
AcDbLine
 62
7
  6
CONTINUOUS
 10
12.5168642458
 20
2.515977327
 11
12.5055812395
 21
2.515977327
  0
LINE
  5
294
100
AcDbEntity
  8
0
100
AcDbLine
 62
7
  6
CONTINUOUS
 10
12.4623492155
 20
2.515977327
 11
12.4394882028
 21
2.515977327
  0
LINE
  5
295
100
AcDbEntity
  8
0
100
AcDbLine
 62
7
  6
CONTINUOUS
 10
12.3362731456
 20
2.515977327
 11
12.2949101227
 21
2.515977327
  0
LINE
  5
296
100
AcDbEntity
  8
0
100
AcDbLine
 62
7
  6
CONTINUOUS
 10
12.2294470864
 20
2.515977327
 11
12.2055050731
 21
2.515977327
  0
LINE
  5
297
100
AcDbEntity
  8
0
100
AcDbLine
 62
7
  6
CONTINUOUS
 10
12.672340332
 20
2.515977327
 11
12.6909873423
 21
2.515977327
  0
LINE
  5
298
100
AcDbEntity
  8
0
100
AcDbLine
 62
7
  6
CONTINUOUS
 10
12.7276873627
 20
2.515977327
 11
12.7480043739
 21
2.515977327
  0
LINE
  5
299
100
AcDbEntity
  8
0
100
AcDbLine
 62
7
  6
CONTINUOUS
 10
12.9205934696
 20
2.515977327
 11
12.93923948
 21
2.515977327
  0
LINE
  5
29A
100
AcDbEntity
  8
0
100
AcDbLine
 62
7
  6
CONTINUOUS
 10
12.9759405003
 20
2.515977327
 11
12.9962575116
 21
2.515977327
  0
LINE
  5
29B
100
AcDbEntity
  8
0
100
AcDbLine
 62
7
  6
CONTINUOUS
 10
13.1673166065
 20
2.515977327
 11
13.1912396197
 21
2.515977327
  0
LINE
  5
29C
100
AcDbEntity
  8
0
100
AcDbLine
 62
7
  6
CONTINUOUS
 10
13.2582556569
 20
2.515977327
 11
13.3232596929
 21
2.515977327
  0
LINE
  5
29D
100
AcDbEntity
  8
0
100
AcDbLine
 62
7
  6
CONTINUOUS
 10
13.3994327352
 20
2.515977327
 11
13.4221787478
 21
2.515977327
  0
LINE
  5
29E
100
AcDbEntity
  8
0
100
AcDbLine
 62
7
  6
CONTINUOUS
 10
13.6052818493
 20
2.5163643272
 11
13.60639085
 21
2.5163643272
  0
LINE
  5
29F
100
AcDbEntity
  8
0
100
AcDbLine
 62
7
  6
CONTINUOUS
 10
13.3282096957
 20
2.5291773343
 11
13.3705287192
 21
2.5291773343
  0
LINE
  5
2A0
100
AcDbEntity
  8
0
100
AcDbLine
 62
7
  6
CONTINUOUS
 10
12.5110972426
 20
2.5296213345
 11
12.5459752619
 21
2.5296213345
  0
LINE
  5
2A1
100
AcDbEntity
  8
0
100
AcDbLine
 62
7
  6
CONTINUOUS
 10
13.6171458559
 20
2.5301143348
 11
13.6292558626
 21
2.5301143348
  0
LINE
  5
2A2
100
AcDbEntity
  8
0
100
AcDbLine
 62
7
  6
CONTINUOUS
 10
13.5159517998
 20
2.5306043351
 11
13.4883447845
 21
2.5306043351
  0
LINE
  5
2A3
100
AcDbEntity
  8
0
100
AcDbLine
 62
7
  6
CONTINUOUS
 10
13.2934226764
 20
2.5324773361
 11
13.2582556569
 21
2.5324773361
  0
LINE
  5
2A4
100
AcDbEntity
  8
0
100
AcDbLine
 62
7
  6
CONTINUOUS
 10
12.2949101227
 20
2.5333023366
 11
12.3362731456
 21
2.5333023366
  0
LINE
  5
2A5
100
AcDbEntity
  8
0
100
AcDbLine
 62
7
  6
CONTINUOUS
 10
13.5222818033
 20
2.5496073456
 11
13.4883447845
 21
2.5496073456
  0
LINE
  5
2A6
100
AcDbEntity
  8
0
100
AcDbLine
 62
7
  6
CONTINUOUS
 10
12.2949101227
 20
2.5499573458
 11
12.3362731456
 21
2.5499573458
  0
LINE
  5
2A7
100
AcDbEntity
  8
0
100
AcDbLine
 62
7
  6
CONTINUOUS
 10
12.5196132473
 20
2.5505713461
 11
12.5401702587
 21
2.5505713461
  0
LINE
  5
2A8
100
AcDbEntity
  8
0
100
AcDbLine
 62
7
  6
CONTINUOUS
 10
13.2582556569
 20
2.5507823463
 11
13.2934226764
 21
2.5507823463
  0
LINE
  5
2A9
100
AcDbEntity
  8
0
100
AcDbLine
 62
7
  6
CONTINUOUS
 10
13.3691097184
 20
2.5540823481
 11
13.3272456952
 21
2.5540823481
  0
LINE
  5
2AA
100
AcDbEntity
  8
0
100
AcDbLine
 62
7
  6
CONTINUOUS
 10
12.5329112547
 20
2.5667383551
 11
12.5267302512
 21
2.5667383551
  0
LINE
  5
2AB
100
AcDbEntity
  8
0
100
AcDbLine
 62
7
  6
CONTINUOUS
 10
13.4221787478
 20
2.5672823554
 11
13.3994327352
 21
2.5672823554
  0
LINE
  5
2AC
100
AcDbEntity
  8
0
100
AcDbLine
 62
7
  6
CONTINUOUS
 10
13.3222956924
 20
2.5672823554
 11
13.2582556569
 21
2.5672823554
  0
LINE
  5
2AD
100
AcDbEntity
  8
0
100
AcDbLine
 62
7
  6
CONTINUOUS
 10
13.1912396197
 20
2.5672823554
 11
13.1673166065
 21
2.5672823554
  0
LINE
  5
2AE
100
AcDbEntity
  8
0
100
AcDbLine
 62
7
  6
CONTINUOUS
 10
13.1397265912
 20
2.5672823554
 11
13.1217935812
 21
2.5672823554
  0
LINE
  5
2AF
100
AcDbEntity
  8
0
100
AcDbLine
 62
7
  6
CONTINUOUS
 10
13.0845015605
 20
2.5672823554
 11
13.0657255501
 21
2.5672823554
  0
LINE
  5
2B0
100
AcDbEntity
  8
0
100
AcDbLine
 62
7
  6
CONTINUOUS
 10
12.93923948
 20
2.5672823554
 11
12.9205934696
 21
2.5672823554
  0
LINE
  5
2B1
100
AcDbEntity
  8
0
100
AcDbLine
 62
7
  6
CONTINUOUS
 10
12.8914734535
 20
2.5672823554
 11
12.8735404436
 21
2.5672823554
  0
LINE
  5
2B2
100
AcDbEntity
  8
0
100
AcDbLine
 62
7
  6
CONTINUOUS
 10
12.8362484229
 20
2.5672823554
 11
12.8174724125
 21
2.5672823554
  0
LINE
  5
2B3
100
AcDbEntity
  8
0
100
AcDbLine
 62
7
  6
CONTINUOUS
 10
12.6909873423
 20
2.5672823554
 11
12.672340332
 21
2.5672823554
  0
LINE
  5
2B4
100
AcDbEntity
  8
0
100
AcDbLine
 62
7
  6
CONTINUOUS
 10
12.3362731456
 20
2.5672823554
 11
12.2949101227
 21
2.5672823554
  0
LINE
  5
2B5
100
AcDbEntity
  8
0
100
AcDbLine
 62
7
  6
CONTINUOUS
 10
12.2055050731
 20
2.5672823554
 11
12.2294470864
 21
2.5672823554
  0
LINE
  5
2B6
100
AcDbEntity
  8
0
100
AcDbLine
 62
7
  6
CONTINUOUS
 10
13.4883447845
 20
2.5672823554
 11
13.5251458049
 21
2.5672823554
  0
LINE
  5
2B7
100
AcDbEntity
  8
0
100
AcDbLine
 62
7
  6
CONTINUOUS
 10
12.5705042755
 20
2.5920323691
 11
12.5133292438
 21
2.5920323691
  0
LINE
  5
2B8
100
AcDbEntity
  8
0
100
AcDbLine
 62
7
  6
CONTINUOUS
 10
12.3715681652
 20
2.5920323691
 11
12.2055050731
 21
2.5920323691
  0
LINE
  5
2B9
100
AcDbEntity
  8
0
100
AcDbLine
 62
7
  6
CONTINUOUS
 10
12.672340332
 20
2.5920323691
 11
12.7727983877
 21
2.5920323691
  0
LINE
  5
2BA
100
AcDbEntity
  8
0
100
AcDbLine
 62
7
  6
CONTINUOUS
 10
12.8174724125
 20
2.5920323691
 11
12.8914734535
 21
2.5920323691
  0
LINE
  5
2BB
100
AcDbEntity
  8
0
100
AcDbLine
 62
7
  6
CONTINUOUS
 10
12.9205934696
 20
2.5920323691
 11
13.0210515254
 21
2.5920323691
  0
LINE
  5
2BC
100
AcDbEntity
  8
0
100
AcDbLine
 62
7
  6
CONTINUOUS
 10
13.0657255501
 20
2.5920323691
 11
13.1397265912
 21
2.5920323691
  0
LINE
  5
2BD
100
AcDbEntity
  8
0
100
AcDbLine
 62
7
  6
CONTINUOUS
 10
13.1673166065
 20
2.5920323691
 11
13.3691097184
 21
2.5920323691
  0
LINE
  5
2BE
100
AcDbEntity
  8
0
100
AcDbLine
 62
7
  6
CONTINUOUS
 10
13.3994327352
 20
2.5920323691
 11
13.5490138181
 21
2.5920323691
  0
LINE
  5
2BF
100
AcDbEntity
  8
0
100
AcDbLine
 62
7
  6
CONTINUOUS
 10
12.4008351814
 20
2.5375433389
 11
12.3907841758
 21
2.5410923409
  0
LINE
  5
2C0
100
AcDbEntity
  8
0
100
AcDbLine
 62
7
  6
CONTINUOUS
 10
12.7926763987
 20
2.4919113136
 11
12.7293963636
 21
2.5522893471
  0
LINE
  5
2C1
100
AcDbEntity
  8
0
100
AcDbLine
 62
7
  6
CONTINUOUS
 10
12.7745063886
 20
2.5913483688
 11
12.8345394219
 21
2.534068337
  0
LINE
  5
2C2
100
AcDbEntity
  8
0
100
AcDbLine
 62
7
  6
CONTINUOUS
 10
13.0409295364
 20
2.4919113136
 11
12.9776495013
 21
2.5522893471
  0
LINE
  5
2C3
100
AcDbEntity
  8
0
100
AcDbLine
 62
7
  6
CONTINUOUS
 10
13.0227595263
 20
2.5913483688
 11
13.0827925596
 21
2.534068337
  0
LINE
  5
2C4
100
AcDbEntity
  8
0
100
AcDbLine
 62
7
  6
CONTINUOUS
 10
12.548053263
 20
2.5284903339
 11
12.5536792662
 21
2.5197973291
  0
LINE
  5
2C5
100
AcDbEntity
  8
0
100
AcDbLine
 62
7
  6
CONTINUOUS
 10
12.5422482598
 20
2.5543913483
 11
12.5349892558
 21
2.5656073545
  0
LINE
  5
2C6
100
AcDbEntity
  8
0
100
AcDbLine
 62
7
  6
CONTINUOUS
 10
12.6203383031
 20
2.5171073276
 11
12.5725822767
 21
2.5909023685
  0
LINE
  5
2C7
100
AcDbEntity
  8
0
100
AcDbLine
 62
7
  6
CONTINUOUS
 10
12.2030300717
 20
2.5895573678
 11
12.2030300717
 21
2.5697573568
  0
LINE
  5
2C8
100
AcDbEntity
  8
0
100
AcDbLine
 62
7
  6
CONTINUOUS
 10
12.2030300717
 20
2.5135023256
 11
12.2030300717
 21
2.4937023146
  0
LINE
  5
2C9
100
AcDbEntity
  8
0
100
AcDbLine
 62
7
  6
CONTINUOUS
 10
12.2319220877
 20
2.564807354
 11
12.2319220877
 21
2.5184523283
  0
LINE
  5
2CA
100
AcDbEntity
  8
0
100
AcDbLine
 62
7
  6
CONTINUOUS
 10
12.2924351213
 20
2.564807354
 11
12.2924351213
 21
2.5524323472
  0
LINE
  5
2CB
100
AcDbEntity
  8
0
100
AcDbLine
 62
7
  6
CONTINUOUS
 10
12.2924351213
 20
2.5184523283
 11
12.2924351213
 21
2.5308273352
  0
LINE
  5
2CC
100
AcDbEntity
  8
0
100
AcDbLine
 62
7
  6
CONTINUOUS
 10
12.4370132015
 20
2.5135023256
 11
12.4370132015
 21
2.4937023146
  0
LINE
  5
2CD
100
AcDbEntity
  8
0
100
AcDbLine
 62
7
  6
CONTINUOUS
 10
12.5193392471
 20
2.4937023146
 11
12.5193392471
 21
2.5135023256
  0
LINE
  5
2CE
100
AcDbEntity
  8
0
100
AcDbLine
 62
7
  6
CONTINUOUS
 10
12.5346752556
 20
2.5135023256
 11
12.5346752556
 21
2.4937023146
  0
LINE
  5
2CF
100
AcDbEntity
  8
0
100
AcDbLine
 62
7
  6
CONTINUOUS
 10
12.6449063168
 20
2.4937023146
 11
12.6449063168
 21
2.5135023256
  0
LINE
  5
2D0
100
AcDbEntity
  8
0
100
AcDbLine
 62
7
  6
CONTINUOUS
 10
12.6698653306
 20
2.4937023146
 11
12.6698653306
 21
2.5135023256
  0
LINE
  5
2D1
100
AcDbEntity
  8
0
100
AcDbLine
 62
7
  6
CONTINUOUS
 10
12.6698653306
 20
2.5697573568
 11
12.6698653306
 21
2.5895573678
  0
LINE
  5
2D2
100
AcDbEntity
  8
0
100
AcDbLine
 62
7
  6
CONTINUOUS
 10
12.6934623437
 20
2.5184523283
 11
12.6934623437
 21
2.564807354
  0
LINE
  5
2D3
100
AcDbEntity
  8
0
100
AcDbLine
 62
7
  6
CONTINUOUS
 10
12.7252123613
 20
2.5504983461
 11
12.7252123613
 21
2.5184523283
  0
LINE
  5
2D4
100
AcDbEntity
  8
0
100
AcDbLine
 62
7
  6
CONTINUOUS
 10
13.5375908118
 20
2.5092733232
 11
13.5357868108
 21
2.5153423266
  0
LINE
  5
2D5
100
AcDbEntity
  8
0
100
AcDbLine
 62
7
  6
CONTINUOUS
 10
12.7504793753
 20
2.5135023256
 11
12.7504793753
 21
2.4937023146
  0
LINE
  5
2D6
100
AcDbEntity
  8
0
100
AcDbLine
 62
7
  6
CONTINUOUS
 10
12.8149974111
 20
2.5697573568
 11
12.8149974111
 21
2.5895573678
  0
LINE
  5
2D7
100
AcDbEntity
  8
0
100
AcDbLine
 62
7
  6
CONTINUOUS
 10
12.8387234242
 20
2.535859338
 11
12.8387234242
 21
2.564807354
  0
LINE
  5
2D8
100
AcDbEntity
  8
0
100
AcDbLine
 62
7
  6
CONTINUOUS
 10
12.8710654422
 20
2.564807354
 11
12.8710654422
 21
2.4937023146
  0
LINE
  5
2D9
100
AcDbEntity
  8
0
100
AcDbLine
 62
7
  6
CONTINUOUS
 10
12.8939484549
 20
2.5895573678
 11
12.8939484549
 21
2.5697573568
  0
LINE
  5
2DA
100
AcDbEntity
  8
0
100
AcDbLine
 62
7
  6
CONTINUOUS
 10
12.9181184683
 20
2.4937023146
 11
12.9181184683
 21
2.5135023256
  0
LINE
  5
2DB
100
AcDbEntity
  8
0
100
AcDbLine
 62
7
  6
CONTINUOUS
 10
12.9181184683
 20
2.5697573568
 11
12.9181184683
 21
2.5895573678
  0
LINE
  5
2DC
100
AcDbEntity
  8
0
100
AcDbLine
 62
7
  6
CONTINUOUS
 10
12.9417144814
 20
2.5184523283
 11
12.9417144814
 21
2.564807354
  0
LINE
  5
2DD
100
AcDbEntity
  8
0
100
AcDbLine
 62
7
  6
CONTINUOUS
 10
12.973465499
 20
2.5504983461
 11
12.973465499
 21
2.5184523283
  0
LINE
  5
2DE
100
AcDbEntity
  8
0
100
AcDbLine
 62
7
  6
CONTINUOUS
 10
12.998732513
 20
2.5135023256
 11
12.998732513
 21
2.4937023146
  0
LINE
  5
2DF
100
AcDbEntity
  8
0
100
AcDbLine
 62
7
  6
CONTINUOUS
 10
13.0632505488
 20
2.5697573568
 11
13.0632505488
 21
2.5895573678
  0
LINE
  5
2E0
100
AcDbEntity
  8
0
100
AcDbLine
 62
7
  6
CONTINUOUS
 10
13.0869765619
 20
2.535859338
 11
13.0869765619
 21
2.564807354
  0
LINE
  5
2E1
100
AcDbEntity
  8
0
100
AcDbLine
 62
7
  6
CONTINUOUS
 10
13.1193185799
 20
2.564807354
 11
13.1193185799
 21
2.4937023146
  0
LINE
  5
2E2
100
AcDbEntity
  8
0
100
AcDbLine
 62
7
  6
CONTINUOUS
 10
13.1422015925
 20
2.5895573678
 11
13.1422015925
 21
2.5697573568
  0
LINE
  5
2E3
100
AcDbEntity
  8
0
100
AcDbLine
 62
7
  6
CONTINUOUS
 10
13.1648416051
 20
2.4937023146
 11
13.1648416051
 21
2.5135023256
  0
LINE
  5
2E4
100
AcDbEntity
  8
0
100
AcDbLine
 62
7
  6
CONTINUOUS
 10
13.1648416051
 20
2.5697573568
 11
13.1648416051
 21
2.5895573678
  0
LINE
  5
2E5
100
AcDbEntity
  8
0
100
AcDbLine
 62
7
  6
CONTINUOUS
 10
13.1937146211
 20
2.5184523283
 11
13.1937146211
 21
2.564807354
  0
LINE
  5
2E6
100
AcDbEntity
  8
0
100
AcDbLine
 62
7
  6
CONTINUOUS
 10
13.2557806555
 20
2.564807354
 11
13.2557806555
 21
2.5532573476
  0
LINE
  5
2E7
100
AcDbEntity
  8
0
100
AcDbLine
 62
7
  6
CONTINUOUS
 10
13.2557806555
 20
2.5300023347
 11
13.2557806555
 21
2.5184523283
  0
LINE
  5
2E8
100
AcDbEntity
  8
0
100
AcDbLine
 62
7
  6
CONTINUOUS
 10
13.2958976778
 20
2.5483073449
 11
13.2958976778
 21
2.5349523375
  0
LINE
  5
2E9
100
AcDbEntity
  8
0
100
AcDbLine
 62
7
  6
CONTINUOUS
 10
12.3907841758
 20
2.5410923409
 11
12.3990241804
 21
2.5458683435
  0
LINE
  5
2EA
100
AcDbEntity
  8
0
100
AcDbLine
 62
7
  6
CONTINUOUS
 10
13.3247706938
 20
2.5565573495
 11
13.3247706938
 21
2.564807354
  0
LINE
  5
2EB
100
AcDbEntity
  8
0
100
AcDbLine
 62
7
  6
CONTINUOUS
 10
13.3257346943
 20
2.5184523283
 11
13.3257346943
 21
2.5267023329
  0
LINE
  5
2EC
100
AcDbEntity
  8
0
100
AcDbLine
 62
7
  6
CONTINUOUS
 10
13.3715847197
 20
2.5895573678
 11
13.3715847197
 21
2.5565573495
  0
LINE
  5
2ED
100
AcDbEntity
  8
0
100
AcDbLine
 62
7
  6
CONTINUOUS
 10
13.3730037205
 20
2.5267023329
 11
13.3730037205
 21
2.4937023146
  0
LINE
  5
2EE
100
AcDbEntity
  8
0
100
AcDbLine
 62
7
  6
CONTINUOUS
 10
13.3969577338
 20
2.4937023146
 11
13.3969577338
 21
2.5135023256
  0
LINE
  5
2EF
100
AcDbEntity
  8
0
100
AcDbLine
 62
7
  6
CONTINUOUS
 10
13.3969577338
 20
2.5697573568
 11
13.3969577338
 21
2.5895573678
  0
LINE
  5
2F0
100
AcDbEntity
  8
0
100
AcDbLine
 62
7
  6
CONTINUOUS
 10
13.4246537492
 20
2.5184523283
 11
13.4246537492
 21
2.564807354
  0
LINE
  5
2F1
100
AcDbEntity
  8
0
100
AcDbLine
 62
7
  6
CONTINUOUS
 10
13.4858697831
 20
2.5281293337
 11
13.4858697831
 21
2.5184303283
  0
LINE
  5
2F2
100
AcDbEntity
  8
0
100
AcDbLine
 62
7
  6
CONTINUOUS
 10
13.4858697831
 20
2.552082347
 11
13.4858697831
 21
2.564807354
  0
LINE
  5
2F3
100
AcDbEntity
  8
0
100
AcDbLine
 62
7
  6
CONTINUOUS
 10
13.5154787995
 20
2.5134803256
 11
13.5154787995
 21
2.4937023146
  0
LINE
  5
2F4
100
AcDbEntity
  8
0
100
AcDbLine
 62
7
  6
CONTINUOUS
 10
13.6146708546
 20
2.525013332
 11
13.6146708546
 21
2.5276393334
  0
LINE
  5
2F5
100
AcDbEntity
  8
0
100
AcDbLine
 62
7
  6
CONTINUOUS
 10
13.631730864
 20
2.5276393334
 11
13.631730864
 21
2.516087327
  0
LINE
  5
2F6
100
AcDbEntity
  8
0
100
AcDbLine
 62
7
  6
CONTINUOUS
 10
13.7286871589
 20
2.5350697372
 11
13.7286871589
 21
2.5456869438
  0
LINE
  5
2F7
100
AcDbEntity
  8
0
100
AcDbLine
 62
7
  6
CONTINUOUS
 10
12.5112392426
 20
2.5908833685
 11
12.4644392167
 21
2.5171263276
  0
LINE
  5
2F8
100
AcDbEntity
  8
0
100
AcDbLine
 62
7
  6
CONTINUOUS
 10
12.5246402501
 20
2.5655893545
 11
12.5175232461
 21
2.5543723483
  0
LINE
  5
2F9
100
AcDbEntity
  8
0
100
AcDbLine
 62
7
  6
CONTINUOUS
 10
12.5034912383
 20
2.5197783291
 11
12.5090072414
 21
2.5284723339
  0
ARC
  5
2FA
100
AcDbEntity
  8
0
100
AcDbCircle
 62
7
  6
CONTINUOUS
 10
12.7943847649
 20
2.4937027294
 40
0.0024754162
100
AcDbArc
 50
226.3593695813
 51
270.0146919953
  0
ARC
  5
2FB
100
AcDbEntity
  8
0
100
AcDbCircle
 62
7
  6
CONTINUOUS
 10
12.2055050712
 20
2.4937023128
 40
0.0024749995
100
AcDbArc
 50
179.9999571957
 51
270.0000428043
  0
ARC
  5
2FC
100
AcDbEntity
  8
0
100
AcDbCircle
 62
7
  6
CONTINUOUS
 10
12.8685904427
 20
2.4937023128
 40
0.0024749995
100
AcDbArc
 50
269.9999571957
 51
0.0000428043
  0
ARC
  5
2FD
100
AcDbEntity
  8
0
100
AcDbCircle
 62
7
  6
CONTINUOUS
 10
12.7480043758
 20
2.4937023128
 40
0.0024749995
100
AcDbArc
 50
269.9999571957
 51
0.0000428043
  0
ARC
  5
2FE
100
AcDbEntity
  8
0
100
AcDbCircle
 62
7
  6
CONTINUOUS
 10
12.6723403301
 20
2.4937023128
 40
0.0024749995
100
AcDbArc
 50
179.9999571957
 51
270.0000428043
  0
ARC
  5
2FF
100
AcDbEntity
  8
0
100
AcDbCircle
 62
7
  6
CONTINUOUS
 10
12.5371502552
 20
2.4937023128
 40
0.0024749995
100
AcDbArc
 50
179.9999571957
 51
270.0000428043
  0
ARC
  5
300
100
AcDbEntity
  8
0
100
AcDbCircle
 62
7
  6
CONTINUOUS
 10
12.6424313172
 20
2.4937023128
 40
0.0024749995
100
AcDbArc
 50
269.9999571957
 51
0.0000428043
  0
ARC
  5
301
100
AcDbEntity
  8
0
100
AcDbCircle
 62
7
  6
CONTINUOUS
 10
12.439488201
 20
2.4937023128
 40
0.0024749995
100
AcDbArc
 50
179.9999571957
 51
270.0000428043
  0
ARC
  5
302
100
AcDbEntity
  8
0
100
AcDbCircle
 62
7
  6
CONTINUOUS
 10
12.5168642476
 20
2.4937023128
 40
0.0024749995
100
AcDbArc
 50
269.9999571957
 51
0.0000428043
  0
ARC
  5
303
100
AcDbEntity
  8
0
100
AcDbCircle
 62
7
  6
CONTINUOUS
 10
12.371573659
 20
2.5302846524
 40
0.061747717
100
AcDbArc
 50
59.5385584989
 51
90.0050977555
  0
ARC
  5
304
100
AcDbEntity
  8
0
100
AcDbCircle
 62
7
  6
CONTINUOUS
 10
12.3792298263
 20
2.539634765
 40
0.048483885
100
AcDbArc
 50
273.21763719
 51
303.0749121182
  0
ARC
  5
305
100
AcDbEntity
  8
0
100
AcDbCircle
 62
7
  6
CONTINUOUS
 10
12.3931760319
 20
2.5166878286
 40
0.0222174455
100
AcDbArc
 50
4.0793399388
 51
69.834329283
  0
ARC
  5
306
100
AcDbEntity
  8
0
100
AcDbCircle
 62
7
  6
CONTINUOUS
 10
12.3940692204
 20
2.5168671561
 40
0.0213072145
100
AcDbArc
 50
303.0488228549
 51
355.7263138674
  0
ARC
  5
307
100
AcDbEntity
  8
0
100
AcDbCircle
 62
7
  6
CONTINUOUS
 10
12.400005721
 20
2.5168763464
 40
0.0153945295
100
AcDbArc
 50
354.0454548824
 51
5.1878013979
  0
ARC
  5
308
100
AcDbEntity
  8
0
100
AcDbCircle
 62
7
  6
CONTINUOUS
 10
12.3362731456
 20
2.5246398318
 40
0.0086625048
100
AcDbArc
 50
270.0
 51
90.0
  0
ARC
  5
309
100
AcDbEntity
  8
0
100
AcDbCircle
 62
7
  6
CONTINUOUS
 10
12.5459747223
 20
2.5271458744
 40
0.0024754602
100
AcDbArc
 50
32.8959418573
 51
89.9875097202
  0
ARC
  5
30A
100
AcDbEntity
  8
0
100
AcDbCircle
 62
7
  6
CONTINUOUS
 10
12.4623492858
 20
2.5184525273
 40
0.0024752003
100
AcDbArc
 50
269.9983726451
 51
327.602165307
  0
ARC
  5
30B
100
AcDbEntity
  8
0
100
AcDbCircle
 62
7
  6
CONTINUOUS
 10
12.5110971723
 20
2.5271461342
 40
0.0024752003
100
AcDbArc
 50
89.998372645
 51
147.602165307
  0
ARC
  5
30C
100
AcDbEntity
  8
0
100
AcDbCircle
 62
7
  6
CONTINUOUS
 10
12.5055811302
 20
2.518452367
 40
0.0024750401
100
AcDbArc
 50
147.6063258011
 51
270.0025305754
  0
ARC
  5
30D
100
AcDbEntity
  8
0
100
AcDbCircle
 62
7
  6
CONTINUOUS
 10
12.2294470882
 20
2.5184523265
 40
0.0024749995
100
AcDbArc
 50
269.9999571957
 51
0.0000428043
  0
ARC
  5
30E
100
AcDbEntity
  8
0
100
AcDbCircle
 62
7
  6
CONTINUOUS
 10
12.2055050712
 20
2.5135023274
 40
0.0024749995
100
AcDbArc
 50
89.9999571957
 51
180.0000428043
  0
ARC
  5
30F
100
AcDbEntity
  8
0
100
AcDbCircle
 62
7
  6
CONTINUOUS
 10
12.2949101208
 20
2.530827337
 40
0.0024749995
100
AcDbArc
 50
89.9999571957
 51
180.0000428043
  0
ARC
  5
310
100
AcDbEntity
  8
0
100
AcDbCircle
 62
7
  6
CONTINUOUS
 10
12.2949101208
 20
2.5184523265
 40
0.0024749995
100
AcDbArc
 50
179.9999571957
 51
270.0000428043
  0
ARC
  5
311
100
AcDbEntity
  8
0
100
AcDbCircle
 62
7
  6
CONTINUOUS
 10
12.5371502552
 20
2.5135023274
 40
0.0024749995
100
AcDbArc
 50
89.9999571957
 51
180.0000428043
  0
ARC
  5
312
100
AcDbEntity
  8
0
100
AcDbCircle
 62
7
  6
CONTINUOUS
 10
12.439488201
 20
2.5135023274
 40
0.0024749995
100
AcDbArc
 50
89.9999571957
 51
180.0000428043
  0
ARC
  5
313
100
AcDbEntity
  8
0
100
AcDbCircle
 62
7
  6
CONTINUOUS
 10
12.5168642476
 20
2.5135023274
 40
0.0024749995
100
AcDbArc
 50
359.9999571957
 51
90.0000428043
  0
ARC
  5
314
100
AcDbEntity
  8
0
100
AcDbCircle
 62
7
  6
CONTINUOUS
 10
12.3771587979
 20
2.5826952352
 40
0.0428289026
100
AcDbArc
 50
300.6990502959
 51
319.0591802498
  0
ARC
  5
315
100
AcDbEntity
  8
0
100
AcDbCircle
 62
7
  6
CONTINUOUS
 10
12.3922357827
 20
2.5632132173
 40
0.0229166529
100
AcDbArc
 50
20.6563876465
 51
62.3316896973
  0
ARC
  5
316
100
AcDbEntity
  8
0
100
AcDbCircle
 62
7
  6
CONTINUOUS
 10
12.3971873948
 20
2.5665668817
 40
0.0171568255
100
AcDbArc
 50
315.9145124245
 51
16.0049121282
  0
ARC
  5
317
100
AcDbEntity
  8
0
100
AcDbCircle
 62
7
  6
CONTINUOUS
 10
12.3362731456
 20
2.5586198506
 40
0.0086625048
100
AcDbArc
 50
270.0
 51
90.0
  0
ARC
  5
318
100
AcDbEntity
  8
0
100
AcDbCircle
 62
7
  6
CONTINUOUS
 10
12.532910715
 20
2.564262895
 40
0.0024754602
100
AcDbArc
 50
32.8959418573
 51
89.9875097202
  0
ARC
  5
319
100
AcDbEntity
  8
0
100
AcDbCircle
 62
7
  6
CONTINUOUS
 10
12.5401702375
 20
2.5530465533
 40
0.0024752071
100
AcDbArc
 50
270.0004896793
 51
32.9089806818
  0
ARC
  5
31A
100
AcDbEntity
  8
0
100
AcDbCircle
 62
7
  6
CONTINUOUS
 10
12.5267301809
 20
2.5642631548
 40
0.0024752003
100
AcDbArc
 50
89.998372645
 51
147.602165307
  0
ARC
  5
31B
100
AcDbEntity
  8
0
100
AcDbCircle
 62
7
  6
CONTINUOUS
 10
12.5133291735
 20
2.5895571688
 40
0.0024752003
100
AcDbArc
 50
89.9983726451
 51
147.602165307
  0
ARC
  5
31C
100
AcDbEntity
  8
0
100
AcDbCircle
 62
7
  6
CONTINUOUS
 10
12.519613138
 20
2.5530463862
 40
0.0024750401
100
AcDbArc
 50
147.6063258012
 51
270.0025305754
  0
ARC
  5
31D
100
AcDbEntity
  8
0
100
AcDbCircle
 62
7
  6
CONTINUOUS
 10
12.2055050712
 20
2.5895573696
 40
0.0024749995
100
AcDbArc
 50
89.9999571957
 51
180.0000428043
  0
ARC
  5
31E
100
AcDbEntity
  8
0
100
AcDbCircle
 62
7
  6
CONTINUOUS
 10
12.2055050712
 20
2.5697573549
 40
0.0024749995
100
AcDbArc
 50
179.9999571957
 51
270.0000428043
  0
ARC
  5
31F
100
AcDbEntity
  8
0
100
AcDbCircle
 62
7
  6
CONTINUOUS
 10
12.2294470882
 20
2.5648073559
 40
0.0024749995
100
AcDbArc
 50
359.9999571957
 51
90.0000428043
  0
ARC
  5
320
100
AcDbEntity
  8
0
100
AcDbCircle
 62
7
  6
CONTINUOUS
 10
12.2949101208
 20
2.5648073559
 40
0.0024749995
100
AcDbArc
 50
89.9999571957
 51
180.0000428043
  0
ARC
  5
321
100
AcDbEntity
  8
0
100
AcDbCircle
 62
7
  6
CONTINUOUS
 10
12.2949101208
 20
2.5524323453
 40
0.0024749995
100
AcDbArc
 50
179.9999571957
 51
270.0000428043
  0
ARC
  5
322
100
AcDbEntity
  8
0
100
AcDbCircle
 62
7
  6
CONTINUOUS
 10
12.8362481229
 20
2.5358592748
 40
0.0024753014
100
AcDbArc
 50
226.3461263059
 51
0.0014637321
  0
ARC
  5
323
100
AcDbEntity
  8
0
100
AcDbCircle
 62
7
  6
CONTINUOUS
 10
12.7276876627
 20
2.5504984093
 40
0.0024753014
100
AcDbArc
 50
46.3461263059
 51
180.0014637321
  0
ARC
  5
324
100
AcDbEntity
  8
0
100
AcDbCircle
 62
7
  6
CONTINUOUS
 10
12.5516012439
 20
2.5184525341
 40
0.0024752071
100
AcDbArc
 50
270.0004896794
 51
32.9089806818
  0
ARC
  5
325
100
AcDbEntity
  8
0
100
AcDbCircle
 62
7
  6
CONTINUOUS
 10
12.7276873608
 20
2.5184523265
 40
0.0024749995
100
AcDbArc
 50
179.9999571957
 51
270.0000428043
  0
ARC
  5
326
100
AcDbEntity
  8
0
100
AcDbCircle
 62
7
  6
CONTINUOUS
 10
12.7480043758
 20
2.5135023274
 40
0.0024749995
100
AcDbArc
 50
359.9999571957
 51
90.0000428043
  0
ARC
  5
327
100
AcDbEntity
  8
0
100
AcDbCircle
 62
7
  6
CONTINUOUS
 10
12.6723403301
 20
2.5135023274
 40
0.0024749995
100
AcDbArc
 50
89.9999571957
 51
180.0000428043
  0
ARC
  5
328
100
AcDbEntity
  8
0
100
AcDbCircle
 62
7
  6
CONTINUOUS
 10
12.6909873442
 20
2.5184523265
 40
0.0024749995
100
AcDbArc
 50
269.9999571957
 51
0.0000428043
  0
ARC
  5
329
100
AcDbEntity
  8
0
100
AcDbCircle
 62
7
  6
CONTINUOUS
 10
12.6424313172
 20
2.5135023274
 40
0.0024749995
100
AcDbArc
 50
359.9999571957
 51
90.0000428043
  0
ARC
  5
32A
100
AcDbEntity
  8
0
100
AcDbCircle
 62
7
  6
CONTINUOUS
 10
12.6224154248
 20
2.518451368
 40
0.002474041
100
AcDbArc
 50
212.9056413127
 51
269.9972091756
  0
ARC
  5
32B
100
AcDbEntity
  8
0
100
AcDbCircle
 62
7
  6
CONTINUOUS
 10
12.8362484247
 20
2.5648073559
 40
0.0024749995
100
AcDbArc
 50
359.9999571957
 51
90.0000428043
  0
ARC
  5
32C
100
AcDbEntity
  8
0
100
AcDbCircle
 62
7
  6
CONTINUOUS
 10
12.8174724106
 20
2.5697573549
 40
0.0024749995
100
AcDbArc
 50
179.9999571957
 51
270.0000428043
  0
ARC
  5
32D
100
AcDbEntity
  8
0
100
AcDbCircle
 62
7
  6
CONTINUOUS
 10
12.8174724106
 20
2.5895573696
 40
0.0024749995
100
AcDbArc
 50
89.9999571957
 51
180.0000428043
  0
ARC
  5
32E
100
AcDbEntity
  8
0
100
AcDbCircle
 62
7
  6
CONTINUOUS
 10
12.8914734553
 20
2.5895573696
 40
0.0024749995
100
AcDbArc
 50
359.9999571957
 51
90.0000428043
  0
ARC
  5
32F
100
AcDbEntity
  8
0
100
AcDbCircle
 62
7
  6
CONTINUOUS
 10
12.8914734553
 20
2.5697573549
 40
0.0024749995
100
AcDbArc
 50
269.9999571957
 51
0.0000428043
  0
ARC
  5
330
100
AcDbEntity
  8
0
100
AcDbCircle
 62
7
  6
CONTINUOUS
 10
12.8735404417
 20
2.5648073559
 40
0.0024749995
100
AcDbArc
 50
89.9999571957
 51
180.0000428043
  0
ARC
  5
331
100
AcDbEntity
  8
0
100
AcDbCircle
 62
7
  6
CONTINUOUS
 10
12.6909873442
 20
2.5648073559
 40
0.0024749995
100
AcDbArc
 50
359.9999571957
 51
90.0000428043
  0
ARC
  5
332
100
AcDbEntity
  8
0
100
AcDbCircle
 62
7
  6
CONTINUOUS
 10
12.6723403301
 20
2.5697573549
 40
0.0024749995
100
AcDbArc
 50
179.9999571957
 51
270.0000428043
  0
ARC
  5
333
100
AcDbEntity
  8
0
100
AcDbCircle
 62
7
  6
CONTINUOUS
 10
12.6723403301
 20
2.5895573696
 40
0.0024749995
100
AcDbArc
 50
89.9999571957
 51
180.0000428043
  0
ARC
  5
334
100
AcDbEntity
  8
0
100
AcDbCircle
 62
7
  6
CONTINUOUS
 10
12.570504655
 20
2.589557409
 40
0.0024749602
100
AcDbArc
 50
32.9172174468
 51
90.0087853097
  0
ARC
  5
335
100
AcDbEntity
  8
0
100
AcDbCircle
 62
7
  6
CONTINUOUS
 10
12.7727985224
 20
2.5895582013
 40
0.0024741678
100
AcDbArc
 50
46.3477981899
 51
90.0031206038
  0
ARC
  5
336
100
AcDbEntity
  8
0
100
AcDbCircle
 62
7
  6
CONTINUOUS
 10
13.5463505148
 20
2.4094934586
 40
0.1825583387
100
AcDbArc
 50
79.8618509324
 51
89.1640948679
  0
ARC
  5
337
100
AcDbEntity
  8
0
100
AcDbCircle
 62
7
  6
CONTINUOUS
 10
13.5282557878
 20
2.4386010294
 40
0.117346916
100
AcDbArc
 50
58.614769177
 51
62.3737227606
  0
ARC
  5
338
100
AcDbEntity
  8
0
100
AcDbCircle
 62
7
  6
CONTINUOUS
 10
13.5571178432
 20
2.509473798
 40
0.0459185159
100
AcDbArc
 50
15.6740290068
 51
20.9917271228
  0
ARC
  5
339
100
AcDbEntity
  8
0
100
AcDbCircle
 62
7
  6
CONTINUOUS
 10
13.4974076135
 20
2.5055452462
 40
0.0396099176
100
AcDbArc
 50
14.3201081283
 51
22.4984722084
  0
ARC
  5
33A
100
AcDbEntity
  8
0
100
AcDbCircle
 62
7
  6
CONTINUOUS
 10
13.5161192671
 20
2.5062372524
 40
0.0243676582
100
AcDbArc
 50
63.3666028271
 51
90.3937697637
  0
ARC
  5
33B
100
AcDbEntity
  8
0
100
AcDbCircle
 62
7
  6
CONTINUOUS
 10
13.6036139387
 20
2.5111006186
 40
0.0198837666
100
AcDbArc
 50
271.8586572978
 51
289.4131338543
  0
ARC
  5
33C
100
AcDbEntity
  8
0
100
AcDbCircle
 62
7
  6
CONTINUOUS
 10
13.5577001432
 20
2.5085494649
 40
0.0173408616
100
AcDbArc
 50
232.4713476722
 51
267.338189944
  0
ARC
  5
33D
100
AcDbEntity
  8
0
100
AcDbCircle
 62
7
  6
CONTINUOUS
 10
13.5130038
 20
2.4937023128
 40
0.0024749995
100
AcDbArc
 50
269.9999571957
 51
0.0000428043
  0
ARC
  5
33E
100
AcDbEntity
  8
0
100
AcDbCircle
 62
7
  6
CONTINUOUS
 10
13.3994327333
 20
2.4937023128
 40
0.0024749995
100
AcDbArc
 50
179.9999571957
 51
270.0000428043
  0
ARC
  5
33F
100
AcDbEntity
  8
0
100
AcDbCircle
 62
7
  6
CONTINUOUS
 10
13.1168435803
 20
2.4937023128
 40
0.0024749995
100
AcDbArc
 50
269.9999571957
 51
0.0000428043
  0
ARC
  5
340
100
AcDbEntity
  8
0
100
AcDbCircle
 62
7
  6
CONTINUOUS
 10
12.9962575135
 20
2.4937023128
 40
0.0024749995
100
AcDbArc
 50
269.9999571957
 51
0.0000428043
  0
ARC
  5
341
100
AcDbEntity
  8
0
100
AcDbCircle
 62
7
  6
CONTINUOUS
 10
12.9205934678
 20
2.4937023128
 40
0.0024749995
100
AcDbArc
 50
179.9999571957
 51
270.0000428043
  0
ARC
  5
342
100
AcDbEntity
  8
0
100
AcDbCircle
 62
7
  6
CONTINUOUS
 10
13.370528721
 20
2.4937023128
 40
0.0024749995
100
AcDbArc
 50
269.9999571957
 51
0.0000428043
  0
ARC
  5
343
100
AcDbEntity
  8
0
100
AcDbCircle
 62
7
  6
CONTINUOUS
 10
13.1673166046
 20
2.4937023128
 40
0.0024749995
100
AcDbArc
 50
179.9999571957
 51
270.0000428043
  0
ARC
  5
344
100
AcDbEntity
  8
0
100
AcDbCircle
 62
7
  6
CONTINUOUS
 10
13.0426374026
 20
2.493701481
 40
0.0024741678
100
AcDbArc
 50
226.3477981898
 51
270.0031206038
  0
ARC
  5
345
100
AcDbEntity
  8
0
100
AcDbCircle
 62
7
  6
CONTINUOUS
 10
13.0845012605
 20
2.5358592748
 40
0.0024753014
100
AcDbArc
 50
226.3461263059
 51
0.0014637321
  0
ARC
  5
346
100
AcDbEntity
  8
0
100
AcDbCircle
 62
7
  6
CONTINUOUS
 10
12.9759408003
 20
2.5504984093
 40
0.0024753014
100
AcDbArc
 50
46.3461263059
 51
180.0014637321
  0
ARC
  5
347
100
AcDbEntity
  8
0
100
AcDbCircle
 62
7
  6
CONTINUOUS
 10
12.9759404985
 20
2.5184523265
 40
0.0024749995
100
AcDbArc
 50
179.9999571957
 51
270.0000428043
  0
ARC
  5
348
100
AcDbEntity
  8
0
100
AcDbCircle
 62
7
  6
CONTINUOUS
 10
12.9962575135
 20
2.5135023274
 40
0.0024749995
100
AcDbArc
 50
359.9999571957
 51
90.0000428043
  0
ARC
  5
349
100
AcDbEntity
  8
0
100
AcDbCircle
 62
7
  6
CONTINUOUS
 10
12.9205934678
 20
2.5135023274
 40
0.0024749995
100
AcDbArc
 50
89.9999571957
 51
180.0000428042
  0
ARC
  5
34A
100
AcDbEntity
  8
0
100
AcDbCircle
 62
7
  6
CONTINUOUS
 10
12.9392394818
 20
2.5184523265
 40
0.0024749995
100
AcDbArc
 50
269.9999571957
 51
0.0000428043
  0
ARC
  5
34B
100
AcDbEntity
  8
0
100
AcDbCircle
 62
7
  6
CONTINUOUS
 10
13.2582556551
 20
2.5300023366
 40
0.0024749995
100
AcDbArc
 50
89.9999571957
 51
180.0000428043
  0
ARC
  5
34C
100
AcDbEntity
  8
0
100
AcDbCircle
 62
7
  6
CONTINUOUS
 10
13.2582556551
 20
2.5184523265
 40
0.0024749995
100
AcDbArc
 50
179.9999571957
 51
270.0000428043
  0
ARC
  5
34D
100
AcDbEntity
  8
0
100
AcDbCircle
 62
7
  6
CONTINUOUS
 10
13.1673166046
 20
2.5135023274
 40
0.0024749995
100
AcDbArc
 50
89.9999571957
 51
180.0000428043
  0
ARC
  5
34E
100
AcDbEntity
  8
0
100
AcDbCircle
 62
7
  6
CONTINUOUS
 10
13.1912396216
 20
2.5184523265
 40
0.0024749995
100
AcDbArc
 50
269.9999571957
 51
0.0000428042
  0
ARC
  5
34F
100
AcDbEntity
  8
0
100
AcDbCircle
 62
7
  6
CONTINUOUS
 10
13.2582556551
 20
2.5532573458
 40
0.0024749995
100
AcDbArc
 50
179.9999571957
 51
270.0000428043
  0
ARC
  5
350
100
AcDbEntity
  8
0
100
AcDbCircle
 62
7
  6
CONTINUOUS
 10
13.0845015624
 20
2.5648073559
 40
0.0024749995
100
AcDbArc
 50
359.9999571957
 51
90.0000428043
  0
ARC
  5
351
100
AcDbEntity
  8
0
100
AcDbCircle
 62
7
  6
CONTINUOUS
 10
13.0657255483
 20
2.5697573549
 40
0.0024749995
100
AcDbArc
 50
179.9999571957
 51
270.0000428043
  0
ARC
  5
352
100
AcDbEntity
  8
0
100
AcDbCircle
 62
7
  6
CONTINUOUS
 10
13.0657255483
 20
2.5895573696
 40
0.0024749995
100
AcDbArc
 50
89.9999571957
 51
180.0000428043
  0
ARC
  5
353
100
AcDbEntity
  8
0
100
AcDbCircle
 62
7
  6
CONTINUOUS
 10
13.139726593
 20
2.5895573696
 40
0.0024749995
100
AcDbArc
 50
359.9999571957
 51
90.0000428043
  0
ARC
  5
354
100
AcDbEntity
  8
0
100
AcDbCircle
 62
7
  6
CONTINUOUS
 10
13.139726593
 20
2.5697573549
 40
0.0024749995
100
AcDbArc
 50
269.9999571957
 51
0.0000428042
  0
ARC
  5
355
100
AcDbEntity
  8
0
100
AcDbCircle
 62
7
  6
CONTINUOUS
 10
13.1217935794
 20
2.5648073559
 40
0.0024749995
100
AcDbArc
 50
89.9999571957
 51
180.0000428042
  0
ARC
  5
356
100
AcDbEntity
  8
0
100
AcDbCircle
 62
7
  6
CONTINUOUS
 10
12.9392394818
 20
2.5648073559
 40
0.0024749995
100
AcDbArc
 50
359.9999571957
 51
90.0000428043
  0
ARC
  5
357
100
AcDbEntity
  8
0
100
AcDbCircle
 62
7
  6
CONTINUOUS
 10
12.9205934678
 20
2.5697573549
 40
0.0024749995
100
AcDbArc
 50
179.9999571957
 51
270.0000428043
  0
ARC
  5
358
100
AcDbEntity
  8
0
100
AcDbCircle
 62
7
  6
CONTINUOUS
 10
12.9205934678
 20
2.5895573696
 40
0.0024749995
100
AcDbArc
 50
89.9999571957
 51
180.0000428042
  0
ARC
  5
359
100
AcDbEntity
  8
0
100
AcDbCircle
 62
7
  6
CONTINUOUS
 10
13.1912396216
 20
2.5648073559
 40
0.0024749995
100
AcDbArc
 50
359.9999571957
 51
90.0000428043
  0
ARC
  5
35A
100
AcDbEntity
  8
0
100
AcDbCircle
 62
7
  6
CONTINUOUS
 10
13.1673166046
 20
2.5697573549
 40
0.0024749995
100
AcDbArc
 50
179.9999571957
 51
270.0000428043
  0
ARC
  5
35B
100
AcDbEntity
  8
0
100
AcDbCircle
 62
7
  6
CONTINUOUS
 10
13.1673166046
 20
2.5895573696
 40
0.0024749995
100
AcDbArc
 50
89.9999571957
 51
180.0000428043
  0
ARC
  5
35C
100
AcDbEntity
  8
0
100
AcDbCircle
 62
7
  6
CONTINUOUS
 10
13.2582556551
 20
2.5648073559
 40
0.0024749995
100
AcDbArc
 50
89.9999571957
 51
180.0000428043
  0
ARC
  5
35D
100
AcDbEntity
  8
0
100
AcDbCircle
 62
7
  6
CONTINUOUS
 10
13.0210516601
 20
2.5895582013
 40
0.0024741678
100
AcDbArc
 50
46.3477981899
 51
90.0031206038
  0
ARC
  5
35E
100
AcDbEntity
  8
0
100
AcDbCircle
 62
7
  6
CONTINUOUS
 10
13.5806801742
 20
2.5212486481
 40
0.044722495
100
AcDbArc
 50
195.531588407
 51
204.7624440448
  0
ARC
  5
35F
100
AcDbEntity
  8
0
100
AcDbCircle
 62
7
  6
CONTINUOUS
 10
13.5726548052
 20
2.5503169747
 40
0.039319019
100
AcDbArc
 50
59.1202086415
 51
81.4730239328
  0
ARC
  5
360
100
AcDbEntity
  8
0
100
AcDbCircle
 62
7
  6
CONTINUOUS
 10
13.5978759713
 20
2.5286873679
 40
0.0383802683
100
AcDbArc
 50
288.7656836787
 51
309.6104317088
  0
ARC
  5
361
100
AcDbEntity
  8
0
100
AcDbCircle
 62
7
  6
CONTINUOUS
 10
13.5783142014
 20
2.5566516438
 40
0.0310192946
100
AcDbArc
 50
34.7540871
 51
62.0879016178
  0
ARC
  5
362
100
AcDbEntity
  8
0
100
AcDbCircle
 62
7
  6
CONTINUOUS
 10
13.5236009174
 20
2.5388278764
 40
0.0284963867
100
AcDbArc
 50
70.3834917948
 51
86.8922743861
  0
ARC
  5
363
100
AcDbEntity
  8
0
100
AcDbCircle
 62
7
  6
CONTINUOUS
 10
13.6048681567
 20
2.5210861501
 40
0.0280715479
100
AcDbArc
 50
308.5071794988
 51
332.24006569
  0
ARC
  5
364
100
AcDbEntity
  8
0
100
AcDbCircle
 62
7
  6
CONTINUOUS
 10
13.5750183849
 20
2.5166552064
 40
0.0266349791
100
AcDbArc
 50
20.3630922153
 51
37.9727053099
  0
ARC
  5
365
100
AcDbEntity
  8
0
100
AcDbCircle
 62
7
  6
CONTINUOUS
 10
13.5761387404
 20
2.5167282896
 40
0.0257145923
100
AcDbArc
 50
39.3804255939
 51
59.0361096173
  0
ARC
  5
366
100
AcDbEntity
  8
0
100
AcDbCircle
 62
7
  6
CONTINUOUS
 10
13.5607987082
 20
2.5143997688
 40
0.0238935861
100
AcDbArc
 50
209.8247607259
 51
235.1255079367
  0
ARC
  5
367
100
AcDbEntity
  8
0
100
AcDbCircle
 62
7
  6
CONTINUOUS
 10
13.6141751675
 20
2.5161916447
 40
0.0175560065
100
AcDbArc
 50
332.2279060967
 51
359.6595469939
  0
ARC
  5
368
100
AcDbEntity
  8
0
100
AcDbCircle
 62
7
  6
CONTINUOUS
 10
13.5201739219
 20
2.5145168728
 40
0.0151491919
100
AcDbArc
 50
24.098260853
 51
63.0369451818
  0
ARC
  5
369
100
AcDbEntity
  8
0
100
AcDbCircle
 62
7
  6
CONTINUOUS
 10
13.6156881783
 20
2.525116781
 40
0.0147197649
100
AcDbArc
 50
192.7054516565
 51
206.0594861022
  0
ARC
  5
36A
100
AcDbEntity
  8
0
100
AcDbCircle
 62
7
  6
CONTINUOUS
 10
13.5284605274
 20
2.5518696094
 40
0.0145814632
100
AcDbArc
 50
54.6746025112
 51
71.1660573124
  0
ARC
  5
36B
100
AcDbEntity
  8
0
100
AcDbCircle
 62
7
  6
CONTINUOUS
 10
13.6063292954
 20
2.5296129864
 40
0.0132488022
100
AcDbArc
 50
270.266200055
 51
281.2404888597
  0
ARC
  5
36C
100
AcDbEntity
  8
0
100
AcDbCircle
 62
7
  6
CONTINUOUS
 10
13.6027235414
 20
2.524769508
 40
0.0119498009
100
AcDbArc
 50
340.7883861657
 51
1.1691452593
  0
ARC
  5
36D
100
AcDbEntity
  8
0
100
AcDbCircle
 62
7
  6
CONTINUOUS
 10
13.5295131508
 20
2.5629115009
 40
0.0110815393
100
AcDbArc
 50
306.758405961
 51
320.4502234234
  0
ARC
  5
36E
100
AcDbEntity
  8
0
100
AcDbCircle
 62
7
  6
CONTINUOUS
 10
13.6075235364
 20
2.5238762928
 40
0.0073895522
100
AcDbArc
 50
280.8288201977
 51
305.0837508495
  0
ARC
  5
36F
100
AcDbEntity
  8
0
100
AcDbCircle
 62
7
  6
CONTINUOUS
 10
13.607924718
 20
2.5230254464
 40
0.0064647042
100
AcDbArc
 50
306.5086174083
 51
340.2162360092
  0
ARC
  5
370
100
AcDbEntity
  8
0
100
AcDbCircle
 62
7
  6
CONTINUOUS
 10
13.5335900184
 20
2.5587235346
 40
0.0060275915
100
AcDbArc
 50
20.9055592135
 51
56.7851676243
  0
ARC
  5
371
100
AcDbEntity
  8
0
100
AcDbCircle
 62
7
  6
CONTINUOUS
 10
13.533683767
 20
2.559677593
 40
0.0058087709
100
AcDbArc
 50
318.8515287446
 51
353.6422345323
  0
ARC
  5
372
100
AcDbEntity
  8
0
100
AcDbCircle
 62
7
  6
CONTINUOUS
 10
13.6071938412
 20
2.5209082945
 40
0.0052403997
100
AcDbArc
 50
205.5232099488
 51
227.5054868079
  0
ARC
  5
373
100
AcDbEntity
  8
0
100
AcDbCircle
 62
7
  6
CONTINUOUS
 10
13.5348905773
 20
2.5593838168
 40
0.0045795888
100
AcDbArc
 50
355.6235353944
 51
18.9942678268
  0
ARC
  5
374
100
AcDbEntity
  8
0
100
AcDbCircle
 62
7
  6
CONTINUOUS
 10
13.6054655419
 20
2.5190929218
 40
0.0027347709
100
AcDbArc
 50
228.5117626737
 51
266.1485845754
  0
ARC
  5
375
100
AcDbEntity
  8
0
100
AcDbCircle
 62
7
  6
CONTINUOUS
 10
13.4883447827
 20
2.5281293355
 40
0.0024749995
100
AcDbArc
 50
89.9999571957
 51
180.0000428043
  0
ARC
  5
376
100
AcDbEntity
  8
0
100
AcDbCircle
 62
7
  6
CONTINUOUS
 10
13.4883447827
 20
2.5184303265
 40
0.0024749995
100
AcDbArc
 50
179.9999571957
 51
270.0000428043
  0
ARC
  5
377
100
AcDbEntity
  8
0
100
AcDbCircle
 62
7
  6
CONTINUOUS
 10
13.5130038
 20
2.5134803274
 40
0.0024749995
100
AcDbArc
 50
359.9999571957
 51
90.0000428043
  0
ARC
  5
378
100
AcDbEntity
  8
0
100
AcDbCircle
 62
7
  6
CONTINUOUS
 10
13.3994327333
 20
2.5135023274
 40
0.0024749995
100
AcDbArc
 50
89.9999571957
 51
180.0000428043
  0
ARC
  5
379
100
AcDbEntity
  8
0
100
AcDbCircle
 62
7
  6
CONTINUOUS
 10
13.4221787497
 20
2.5184523265
 40
0.0024749995
100
AcDbArc
 50
269.9999571957
 51
0.0000428042
  0
ARC
  5
37A
100
AcDbEntity
  8
0
100
AcDbCircle
 62
7
  6
CONTINUOUS
 10
13.6171458541
 20
2.5276393353
 40
0.0024749995
100
AcDbArc
 50
89.9999571957
 51
180.0000428043
  0
ARC
  5
37B
100
AcDbEntity
  8
0
100
AcDbCircle
 62
7
  6
CONTINUOUS
 10
13.6292558645
 20
2.5276393353
 40
0.0024749995
100
AcDbArc
 50
359.9999571957
 51
90.0000428043
  0
ARC
  5
37C
100
AcDbEntity
  8
0
100
AcDbCircle
 62
7
  6
CONTINUOUS
 10
13.4883447827
 20
2.5520823451
 40
0.0024749995
100
AcDbArc
 50
179.9999571957
 51
270.0000428043
  0
ARC
  5
37D
100
AcDbEntity
  8
0
100
AcDbCircle
 62
7
  6
CONTINUOUS
 10
13.3232596948
 20
2.5184523265
 40
0.0024749995
100
AcDbArc
 50
269.9999571957
 51
0.0000428043
  0
ARC
  5
37E
100
AcDbEntity
  8
0
100
AcDbCircle
 62
7
  6
CONTINUOUS
 10
13.3282096938
 20
2.5267023348
 40
0.0024749995
100
AcDbArc
 50
89.9999571957
 51
180.0000428043
  0
ARC
  5
37F
100
AcDbEntity
  8
0
100
AcDbCircle
 62
7
  6
CONTINUOUS
 10
13.370528721
 20
2.5267023348
 40
0.0024749995
100
AcDbArc
 50
359.9999571957
 51
90.0000428043
  0
ARC
  5
380
100
AcDbEntity
  8
0
100
AcDbCircle
 62
7
  6
CONTINUOUS
 10
13.3691097202
 20
2.5565573476
 40
0.0024749995
100
AcDbArc
 50
269.9999571957
 51
0.0000428042
  0
ARC
  5
381
100
AcDbEntity
  8
0
100
AcDbCircle
 62
7
  6
CONTINUOUS
 10
13.3272456933
 20
2.5565573476
 40
0.0024749995
100
AcDbArc
 50
179.9999571957
 51
270.0000428043
  0
ARC
  5
382
100
AcDbEntity
  8
0
100
AcDbCircle
 62
7
  6
CONTINUOUS
 10
13.2934226783
 20
2.5483073467
 40
0.0024749995
100
AcDbArc
 50
359.9999571957
 51
90.0000428043
  0
ARC
  5
383
100
AcDbEntity
  8
0
100
AcDbCircle
 62
7
  6
CONTINUOUS
 10
13.2934226783
 20
2.5349523356
 40
0.0024749995
100
AcDbArc
 50
269.9999571957
 51
0.0000428042
  0
ARC
  5
384
100
AcDbEntity
  8
0
100
AcDbCircle
 62
7
  6
CONTINUOUS
 10
13.5519569538
 20
2.6152551345
 40
0.0789082104
100
AcDbArc
 50
292.906155071
 51
305.2574666259
  0
ARC
  5
385
100
AcDbEntity
  8
0
100
AcDbCircle
 62
7
  6
CONTINUOUS
 10
13.5822888914
 20
2.5720482849
 40
0.0261183659
100
AcDbArc
 50
305.6373831893
 51
329.9727629745
  0
ARC
  5
386
100
AcDbEntity
  8
0
100
AcDbCircle
 62
7
  6
CONTINUOUS
 10
13.5219564542
 20
2.5750459767
 40
0.0254407115
100
AcDbArc
 50
270.7327484175
 51
290.441894219
  0
ARC
  5
387
100
AcDbEntity
  8
0
100
AcDbCircle
 62
7
  6
CONTINUOUS
 10
13.5238839599
 20
2.5706523294
 40
0.0206523367
100
AcDbArc
 50
289.6883413472
 51
306.4184925496
  0
ARC
  5
388
100
AcDbEntity
  8
0
100
AcDbCircle
 62
7
  6
CONTINUOUS
 10
13.5900029525
 20
2.565201245
 40
0.0165459396
100
AcDbArc
 50
1.548452892
 51
33.5033152417
  0
ARC
  5
389
100
AcDbEntity
  8
0
100
AcDbCircle
 62
7
  6
CONTINUOUS
 10
13.5932995477
 20
2.5653696972
 40
0.0132462337
100
AcDbArc
 50
331.1510006998
 51
1.205404301
  0
ARC
  5
38A
100
AcDbEntity
  8
0
100
AcDbCircle
 62
7
  6
CONTINUOUS
 10
13.4221787497
 20
2.5648073559
 40
0.0024749995
100
AcDbArc
 50
359.9999571957
 51
90.0000428043
  0
ARC
  5
38B
100
AcDbEntity
  8
0
100
AcDbCircle
 62
7
  6
CONTINUOUS
 10
13.3994327333
 20
2.5697573549
 40
0.0024749995
100
AcDbArc
 50
179.9999571957
 51
270.0000428043
  0
ARC
  5
38C
100
AcDbEntity
  8
0
100
AcDbCircle
 62
7
  6
CONTINUOUS
 10
13.3994327333
 20
2.5895573696
 40
0.0024749995
100
AcDbArc
 50
89.9999571957
 51
180.0000428043
  0
ARC
  5
38D
100
AcDbEntity
  8
0
100
AcDbCircle
 62
7
  6
CONTINUOUS
 10
13.4883447827
 20
2.5648073559
 40
0.0024749995
100
AcDbArc
 50
89.9999571957
 51
180.0000428043
  0
ARC
  5
38E
100
AcDbEntity
  8
0
100
AcDbCircle
 62
7
  6
CONTINUOUS
 10
13.3691097202
 20
2.5895573696
 40
0.0024749995
100
AcDbArc
 50
359.9999571957
 51
90.0000428043
  0
ARC
  5
38F
100
AcDbEntity
  8
0
100
AcDbCircle
 62
7
  6
CONTINUOUS
 10
13.3222956943
 20
2.5648073559
 40
0.0024749995
100
AcDbArc
 50
359.9999571957
 51
90.0000428043
  0
ELLIPSE
  5
390
100
AcDbEntity
  8
0
100
AcDbEllipse
 62
7
  6
CONTINUOUS
 10
12.9046654608
 20
2.5403783405
 30
0.0
 11
-0.8250004575
 21
0.0
 31
0.0
 40
0.218572
 41
0.0
 42
6.2831853072
  0
HATCH
  5
391
100
AcDbEntity
  8
0
100
AcDbHatch
 62
7
  6
CONTINUOUS
 10
0.0
 20
0.0
 30
0.0
210
0.0
220
0.0
230
1.0
  2
XSEC0001
 70
1
 71
1
 91
11
 92
1
 93
57
 72
2
 10
13.5577001432
 20
2.5085494649
 40
0.0173408616
 50
232.4713476722
 51
267.338189944
 73
1
 72
2
 10
13.5607987082
 20
2.5143997688
 40
0.0238935861
 50
209.8247607259
 51
235.1255079367
 73
1
 72
2
 10
13.5806801742
 20
2.5212486481
 40
0.044722495
 50
195.531588407
 51
204.7624440448
 73
1
 72
1
 10
13.5375908118
 20
2.5092733232
 11
13.5357868108
 21
2.5153423266
 72
2
 10
13.4974076135
 20
2.5055452462
 40
0.0396099176
 50
14.3201081283
 51
22.4984722084
 73
1
 72
2
 10
13.5201739219
 20
2.5145168728
 40
0.0151491919
 50
24.098260853
 51
63.0369451818
 73
1
 72
2
 10
13.5161192671
 20
2.5062372524
 40
0.0243676582
 50
63.3666028271
 51
90.3937697637
 73
1
 72
1
 10
13.5159517998
 20
2.5306043351
 11
13.4883447845
 21
2.5306043351
 72
2
 10
13.4883447827
 20
2.5281293355
 40
0.0024749995
 50
89.9999571958
 51
180.0000428043
 73
1
 72
1
 10
13.4858697831
 20
2.5281293337
 11
13.4858697831
 21
2.5184303283
 72
2
 10
13.4883447827
 20
2.5184303265
 40
0.0024749995
 50
179.9999571957
 51
270.0000428042
 73
1
 72
1
 10
13.4883447845
 20
2.5159553269
 11
13.5130037982
 21
2.5159553269
 72
2
 10
13.5130038
 20
2.5134803274
 40
0.0024749995
 50
359.9999571957
 51
90.0000428042
 73
1
 72
1
 10
13.5154787995
 20
2.5134803256
 11
13.5154787995
 21
2.4937023146
 72
2
 10
13.5130038
 20
2.4937023128
 40
0.0024749995
 50
269.9999571958
 51
0.0000428043
 73
1
 72
1
 10
13.5130037982
 20
2.4912273132
 11
13.3994327352
 21
2.4912273132
 72
2
 10
13.3994327333
 20
2.4937023128
 40
0.0024749995
 50
179.9999571957
 51
270.0000428043
 73
1
 72
1
 10
13.3969577338
 20
2.4937023146
 11
13.3969577338
 21
2.5135023256
 72
2
 10
13.3994327333
 20
2.5135023274
 40
0.0024749995
 50
89.9999571957
 51
180.0000428043
 73
1
 72
1
 10
13.3994327352
 20
2.515977327
 11
13.4221787478
 21
2.515977327
 72
2
 10
13.4221787497
 20
2.5184523265
 40
0.0024749995
 50
269.9999571956
 51
0.0000428042
 73
1
 72
1
 10
13.4246537492
 20
2.5184523283
 11
13.4246537492
 21
2.564807354
 72
2
 10
13.4221787497
 20
2.5648073559
 40
0.0024749995
 50
359.9999571957
 51
90.0000428043
 73
1
 72
1
 10
13.4221787478
 20
2.5672823554
 11
13.3994327352
 21
2.5672823554
 72
2
 10
13.3994327333
 20
2.5697573549
 40
0.0024749995
 50
179.9999571957
 51
270.0000428043
 73
1
 72
1
 10
13.3969577338
 20
2.5697573568
 11
13.3969577338
 21
2.5895573678
 72
2
 10
13.3994327333
 20
2.5895573696
 40
0.0024749995
 50
89.9999571957
 51
180.0000428043
 73
1
 72
1
 10
13.3994327352
 20
2.5920323691
 11
13.5490138181
 21
2.5920323691
 72
2
 10
13.5463505148
 20
2.4094934586
 40
0.1825583387
 50
79.8618509324
 51
89.1640948679
 73
1
 72
2
 10
13.5726548052
 20
2.5503169747
 40
0.039319019
 50
59.1202086415
 51
81.4730239328
 73
1
 72
2
 10
13.5783142014
 20
2.5566516438
 40
0.0310192946
 50
34.7540871
 51
62.0879016178
 73
1
 72
2
 10
13.5900029525
 20
2.565201245
 40
0.0165459396
 50
1.548452892
 51
33.5033152417
 73
1
 72
2
 10
13.5932995477
 20
2.5653696972
 40
0.0132462337
 50
331.1510006998
 51
1.205404301
 73
1
 72
2
 10
13.5822888914
 20
2.5720482849
 40
0.0261183659
 50
305.6373831893
 51
329.9727629745
 73
1
 72
2
 10
13.5519569538
 20
2.6152551345
 40
0.0789082104
 50
292.906155071
 51
305.2574666259
 73
1
 72
2
 10
13.5282557878
 20
2.4386010294
 40
0.117346916
 50
58.614769177
 51
62.3737227606
 73
1
 72
2
 10
13.5761387404
 20
2.5167282896
 40
0.0257145923
 50
39.3804255939
 51
59.0361096173
 73
1
 72
2
 10
13.5750183849
 20
2.5166552064
 40
0.0266349791
 50
20.3630922153
 51
37.9727053099
 73
1
 72
2
 10
13.5571178432
 20
2.509473798
 40
0.0459185159
 50
15.6740290068
 51
20.9917271228
 73
1
 72
2
 10
13.6156881783
 20
2.525116781
 40
0.0147197649
 50
192.7054516565
 51
206.0594861022
 73
1
 72
2
 10
13.6071938412
 20
2.5209082945
 40
0.0052403997
 50
205.5232099488
 51
227.5054868079
 73
1
 72
2
 10
13.6054655419
 20
2.5190929218
 40
0.0027347709
 50
228.5117626737
 51
266.1485845754
 73
1
 72
1
 10
13.6052818493
 20
2.5163643272
 11
13.60639085
 21
2.5163643272
 72
2
 10
13.6063292954
 20
2.5296129864
 40
0.0132488022
 50
270.266200055
 51
281.2404888597
 73
1
 72
2
 10
13.6075235364
 20
2.5238762928
 40
0.0073895522
 50
280.8288201977
 51
305.0837508495
 73
1
 72
2
 10
13.607924718
 20
2.5230254464
 40
0.0064647042
 50
306.5086174083
 51
340.2162360092
 73
1
 72
2
 10
13.6027235414
 20
2.524769508
 40
0.0119498009
 50
340.7883861657
 51
1.1691452593
 73
1
 72
1
 10
13.6146708546
 20
2.525013332
 11
13.6146708546
 21
2.5276393334
 72
2
 10
13.6171458541
 20
2.5276393353
 40
0.0024749995
 50
89.9999571958
 51
180.0000428043
 73
1
 72
1
 10
13.6171458559
 20
2.5301143348
 11
13.6292558626
 21
2.5301143348
 72
2
 10
13.6292558645
 20
2.5276393353
 40
0.0024749995
 50
359.9999571957
 51
90.0000428042
 73
1
 72
1
 10
13.631730864
 20
2.5276393334
 11
13.631730864
 21
2.516087327
 72
2
 10
13.6141751675
 20
2.5161916447
 40
0.0175560065
 50
332.2279060967
 51
359.6595469939
 73
1
 72
2
 10
13.6048681567
 20
2.5210861501
 40
0.0280715479
 50
308.5071794988
 51
332.2400656899
 73
1
 72
2
 10
13.5978759713
 20
2.5286873679
 40
0.0383802683
 50
288.7656836787
 51
309.6104317088
 73
1
 72
2
 10
13.6036139387
 20
2.5111006186
 40
0.0198837666
 50
271.8586572978
 51
289.4131338543
 73
1
 72
1
 10
13.6042588488
 20
2.4912273132
 11
13.5568948225
 21
2.4912273132
 97
267
330
286
330
287
330
288
330
289
330
28A
330
28B
330
28C
330
28D
330
28E
330
28F
330
290
330
291
330
292
330
293
330
294
330
295
330
296
330
297
330
298
330
299
330
29A
330
29B
330
29C
330
29D
330
29E
330
29F
330
2A0
330
2A1
330
2A2
330
2A3
330
2A4
330
2A5
330
2A6
330
2A7
330
2A8
330
2A9
330
2AA
330
2AB
330
2AC
330
2AD
330
2AE
330
2AF
330
2B0
330
2B1
330
2B2
330
2B3
330
2B4
330
2B5
330
2B6
330
2B7
330
2B8
330
2B9
330
2BA
330
2BB
330
2BC
330
2BD
330
2BE
330
2BF
330
2C0
330
2C1
330
2C2
330
2C3
330
2C4
330
2C5
330
2C6
330
2C7
330
2C8
330
2C9
330
2CA
330
2CB
330
2CC
330
2CD
330
2CE
330
2CF
330
2D0
330
2D1
330
2D2
330
2D3
330
2D4
330
2D5
330
2D6
330
2D7
330
2D8
330
2D9
330
2DA
330
2DB
330
2DC
330
2DD
330
2DE
330
2DF
330
2E0
330
2E1
330
2E2
330
2E3
330
2E4
330
2E5
330
2E6
330
2E7
330
2E8
330
2E9
330
2EA
330
2EB
330
2EC
330
2ED
330
2EE
330
2EF
330
2F0
330
2F1
330
2F2
330
2F3
330
2F4
330
2F5
330
2F6
330
2F7
330
2F8
330
2F9
330
2FA
330
2FB
330
2FC
330
2FD
330
2FE
330
2FF
330
300
330
301
330
302
330
303
330
304
330
305
330
306
330
307
330
308
330
309
330
30A
330
30B
330
30C
330
30D
330
30E
330
30F
330
310
330
311
330
312
330
313
330
314
330
315
330
316
330
317
330
318
330
319
330
31A
330
31B
330
31C
330
31D
330
31E
330
31F
330
320
330
321
330
322
330
323
330
324
330
325
330
326
330
327
330
328
330
329
330
32A
330
32B
330
32C
330
32D
330
32E
330
32F
330
330
330
331
330
332
330
333
330
334
330
335
330
336
330
337
330
338
330
339
330
33A
330
33B
330
33C
330
33D
330
33E
330
33F
330
340
330
341
330
342
330
343
330
344
330
345
330
346
330
347
330
348
330
349
330
34A
330
34B
330
34C
330
34D
330
34E
330
34F
330
350
330
351
330
352
330
353
330
354
330
355
330
356
330
357
330
358
330
359
330
35A
330
35B
330
35C
330
35D
330
35E
330
35F
330
360
330
361
330
362
330
363
330
364
330
365
330
366
330
367
330
368
330
369
330
36A
330
36B
330
36C
330
36D
330
36E
330
36F
330
370
330
371
330
372
330
373
330
374
330
375
330
376
330
377
330
378
330
379
330
37A
330
37B
330
37C
330
37D
330
37E
330
37F
330
380
330
381
330
382
330
383
330
384
330
385
330
386
330
387
330
388
330
389
330
38A
330
38B
330
38C
330
38D
330
38E
330
38F
330
390
 92
1
 93
40
 72
2
 10
13.1673166046
 20
2.4937023128
 40
0.0024749995
 50
179.9999571957
 51
270.0000428042
 73
1
 72
1
 10
13.1648416051
 20
2.4937023146
 11
13.1648416051
 21
2.5135023256
 72
2
 10
13.1673166046
 20
2.5135023274
 40
0.0024749995
 50
89.9999571958
 51
180.0000428043
 73
1
 72
1
 10
13.1673166065
 20
2.515977327
 11
13.1912396197
 21
2.515977327
 72
2
 10
13.1912396216
 20
2.5184523265
 40
0.0024749995
 50
269.9999571956
 51
0.0000428042
 73
1
 72
1
 10
13.1937146211
 20
2.5184523283
 11
13.1937146211
 21
2.564807354
 72
2
 10
13.1912396216
 20
2.5648073559
 40
0.0024749995
 50
359.9999571957
 51
90.0000428043
 73
1
 72
1
 10
13.1912396197
 20
2.5672823554
 11
13.1673166065
 21
2.5672823554
 72
2
 10
13.1673166046
 20
2.5697573549
 40
0.0024749995
 50
179.9999571957
 51
270.0000428043
 73
1
 72
1
 10
13.1648416051
 20
2.5697573568
 11
13.1648416051
 21
2.5895573678
 72
2
 10
13.1673166046
 20
2.5895573696
 40
0.0024749995
 50
89.9999571958
 51
180.0000428043
 73
1
 72
1
 10
13.1673166065
 20
2.5920323691
 11
13.3691097184
 21
2.5920323691
 72
2
 10
13.3691097202
 20
2.5895573696
 40
0.0024749995
 50
359.9999571957
 51
90.0000428042
 73
1
 72
1
 10
13.3715847197
 20
2.5895573678
 11
13.3715847197
 21
2.5565573495
 72
2
 10
13.3691097202
 20
2.5565573476
 40
0.0024749995
 50
269.9999571956
 51
0.0000428042
 73
1
 72
1
 10
13.3691097184
 20
2.5540823481
 11
13.3272456952
 21
2.5540823481
 72
2
 10
13.3272456933
 20
2.5565573476
 40
0.0024749995
 50
179.9999571957
 51
270.0000428043
 73
1
 72
1
 10
13.3247706938
 20
2.5565573495
 11
13.3247706938
 21
2.564807354
 72
2
 10
13.3222956943
 20
2.5648073559
 40
0.0024749995
 50
359.9999571957
 51
90.0000428043
 73
1
 72
1
 10
13.3222956924
 20
2.5672823554
 11
13.2582556569
 21
2.5672823554
 72
2
 10
13.2582556551
 20
2.5648073559
 40
0.0024749995
 50
89.9999571957
 51
180.0000428043
 73
1
 72
1
 10
13.2557806555
 20
2.564807354
 11
13.2557806555
 21
2.5532573476
 72
2
 10
13.2582556551
 20
2.5532573458
 40
0.0024749995
 50
179.9999571957
 51
270.0000428042
 73
1
 72
1
 10
13.2582556569
 20
2.5507823463
 11
13.2934226764
 21
2.5507823463
 72
2
 10
13.2934226783
 20
2.5483073467
 40
0.0024749995
 50
359.9999571957
 51
90.0000428042
 73
1
 72
1
 10
13.2958976778
 20
2.5483073449
 11
13.2958976778
 21
2.5349523375
 72
2
 10
13.2934226783
 20
2.5349523356
 40
0.0024749995
 50
269.9999571956
 51
0.0000428042
 73
1
 72
1
 10
13.2934226764
 20
2.5324773361
 11
13.2582556569
 21
2.5324773361
 72
2
 10
13.2582556551
 20
2.5300023366
 40
0.0024749995
 50
89.9999571957
 51
180.0000428043
 73
1
 72
1
 10
13.2557806555
 20
2.5300023347
 11
13.2557806555
 21
2.5184523283
 72
2
 10
13.2582556551
 20
2.5184523265
 40
0.0024749995
 50
179.9999571957
 51
270.0000428043
 73
1
 72
1
 10
13.2582556569
 20
2.515977327
 11
13.3232596929
 21
2.515977327
 72
2
 10
13.3232596948
 20
2.5184523265
 40
0.0024749995
 50
269.9999571958
 51
0.0000428043
 73
1
 72
1
 10
13.3257346943
 20
2.5184523283
 11
13.3257346943
 21
2.5267023329
 72
2
 10
13.3282096938
 20
2.5267023348
 40
0.0024749995
 50
89.9999571957
 51
180.0000428043
 73
1
 72
1
 10
13.3282096957
 20
2.5291773343
 11
13.3705287192
 21
2.5291773343
 72
2
 10
13.370528721
 20
2.5267023348
 40
0.0024749995
 50
359.9999571957
 51
90.0000428043
 73
1
 72
1
 10
13.3730037205
 20
2.5267023329
 11
13.3730037205
 21
2.4937023146
 72
2
 10
13.370528721
 20
2.4937023128
 40
0.0024749995
 50
269.9999571957
 51
0.0000428043
 73
1
 72
1
 10
13.3705287192
 20
2.4912273132
 11
13.1673166065
 21
2.4912273132
 97
267
330
286
330
287
330
288
330
289
330
28A
330
28B
330
28C
330
28D
330
28E
330
28F
330
290
330
291
330
292
330
293
330
294
330
295
330
296
330
297
330
298
330
299
330
29A
330
29B
330
29C
330
29D
330
29E
330
29F
330
2A0
330
2A1
330
2A2
330
2A3
330
2A4
330
2A5
330
2A6
330
2A7
330
2A8
330
2A9
330
2AA
330
2AB
330
2AC
330
2AD
330
2AE
330
2AF
330
2B0
330
2B1
330
2B2
330
2B3
330
2B4
330
2B5
330
2B6
330
2B7
330
2B8
330
2B9
330
2BA
330
2BB
330
2BC
330
2BD
330
2BE
330
2BF
330
2C0
330
2C1
330
2C2
330
2C3
330
2C4
330
2C5
330
2C6
330
2C7
330
2C8
330
2C9
330
2CA
330
2CB
330
2CC
330
2CD
330
2CE
330
2CF
330
2D0
330
2D1
330
2D2
330
2D3
330
2D4
330
2D5
330
2D6
330
2D7
330
2D8
330
2D9
330
2DA
330
2DB
330
2DC
330
2DD
330
2DE
330
2DF
330
2E0
330
2E1
330
2E2
330
2E3
330
2E4
330
2E5
330
2E6
330
2E7
330
2E8
330
2E9
330
2EA
330
2EB
330
2EC
330
2ED
330
2EE
330
2EF
330
2F0
330
2F1
330
2F2
330
2F3
330
2F4
330
2F5
330
2F6
330
2F7
330
2F8
330
2F9
330
2FA
330
2FB
330
2FC
330
2FD
330
2FE
330
2FF
330
300
330
301
330
302
330
303
330
304
330
305
330
306
330
307
330
308
330
309
330
30A
330
30B
330
30C
330
30D
330
30E
330
30F
330
310
330
311
330
312
330
313
330
314
330
315
330
316
330
317
330
318
330
319
330
31A
330
31B
330
31C
330
31D
330
31E
330
31F
330
320
330
321
330
322
330
323
330
324
330
325
330
326
330
327
330
328
330
329
330
32A
330
32B
330
32C
330
32D
330
32E
330
32F
330
330
330
331
330
332
330
333
330
334
330
335
330
336
330
337
330
338
330
339
330
33A
330
33B
330
33C
330
33D
330
33E
330
33F
330
340
330
341
330
342
330
343
330
344
330
345
330
346
330
347
330
348
330
349
330
34A
330
34B
330
34C
330
34D
330
34E
330
34F
330
350
330
351
330
352
330
353
330
354
330
355
330
356
330
357
330
358
330
359
330
35A
330
35B
330
35C
330
35D
330
35E
330
35F
330
360
330
361
330
362
330
363
330
364
330
365
330
366
330
367
330
368
330
369
330
36A
330
36B
330
36C
330
36D
330
36E
330
36F
330
370
330
371
330
372
330
373
330
374
330
375
330
376
330
377
330
378
330
379
330
37A
330
37B
330
37C
330
37D
330
37E
330
37F
330
380
330
381
330
382
330
383
330
384
330
385
330
386
330
387
330
388
330
389
330
38A
330
38B
330
38C
330
38D
330
38E
330
38F
330
390
 92
1
 93
40
 72
2
 10
13.0426374026
 20
2.493701481
 40
0.0024741678
 50
226.3477981898
 51
270.0031206038
 73
1
 72
1
 10
13.0409295364
 20
2.4919113136
 11
12.9776495013
 21
2.5522893471
 72
2
 10
12.9759408003
 20
2.5504984093
 40
0.0024753014
 50
46.3461263059
 51
180.0014637321
 73
1
 72
1
 10
12.973465499
 20
2.5504983461
 11
12.973465499
 21
2.5184523283
 72
2
 10
12.9759404985
 20
2.5184523265
 40
0.0024749995
 50
179.9999571957
 51
270.0000428043
 73
1
 72
1
 10
12.9759405003
 20
2.515977327
 11
12.9962575116
 21
2.515977327
 72
2
 10
12.9962575135
 20
2.5135023274
 40
0.0024749995
 50
359.9999571957
 51
90.0000428043
 73
1
 72
1
 10
12.998732513
 20
2.5135023256
 11
12.998732513
 21
2.4937023146
 72
2
 10
12.9962575135
 20
2.4937023128
 40
0.0024749995
 50
269.9999571957
 51
0.0000428043
 73
1
 72
1
 10
12.9962575116
 20
2.4912273132
 11
12.9205934696
 21
2.4912273132
 72
2
 10
12.9205934678
 20
2.4937023128
 40
0.0024749995
 50
179.9999571957
 51
270.0000428043
 73
1
 72
1
 10
12.9181184683
 20
2.4937023146
 11
12.9181184683
 21
2.5135023256
 72
2
 10
12.9205934678
 20
2.5135023274
 40
0.0024749995
 50
89.9999571956
 51
180.0000428042
 73
1
 72
1
 10
12.9205934696
 20
2.515977327
 11
12.93923948
 21
2.515977327
 72
2
 10
12.9392394818
 20
2.5184523265
 40
0.0024749995
 50
269.9999571957
 51
0.0000428043
 73
1
 72
1
 10
12.9417144814
 20
2.5184523283
 11
12.9417144814
 21
2.564807354
 72
2
 10
12.9392394818
 20
2.5648073559
 40
0.0024749995
 50
359.9999571957
 51
90.0000428043
 73
1
 72
1
 10
12.93923948
 20
2.5672823554
 11
12.9205934696
 21
2.5672823554
 72
2
 10
12.9205934678
 20
2.5697573549
 40
0.0024749995
 50
179.9999571957
 51
270.0000428043
 73
1
 72
1
 10
12.9181184683
 20
2.5697573568
 11
12.9181184683
 21
2.5895573678
 72
2
 10
12.9205934678
 20
2.5895573696
 40
0.0024749995
 50
89.9999571956
 51
180.0000428042
 73
1
 72
1
 10
12.9205934696
 20
2.5920323691
 11
13.0210515254
 21
2.5920323691
 72
2
 10
13.0210516601
 20
2.5895582013
 40
0.0024741678
 50
46.3477981898
 51
90.0031206038
 73
1
 72
1
 10
13.0227595263
 20
2.5913483688
 11
13.0827925596
 21
2.534068337
 72
2
 10
13.0845012605
 20
2.5358592748
 40
0.0024753014
 50
226.3461263059
 51
0.0014637321
 73
1
 72
1
 10
13.0869765619
 20
2.535859338
 11
13.0869765619
 21
2.564807354
 72
2
 10
13.0845015624
 20
2.5648073559
 40
0.0024749995
 50
359.9999571957
 51
90.0000428043
 73
1
 72
1
 10
13.0845015605
 20
2.5672823554
 11
13.0657255501
 21
2.5672823554
 72
2
 10
13.0657255483
 20
2.5697573549
 40
0.0024749995
 50
179.9999571957
 51
270.0000428043
 73
1
 72
1
 10
13.0632505488
 20
2.5697573568
 11
13.0632505488
 21
2.5895573678
 72
2
 10
13.0657255483
 20
2.5895573696
 40
0.0024749995
 50
89.9999571957
 51
180.0000428043
 73
1
 72
1
 10
13.0657255501
 20
2.5920323691
 11
13.1397265912
 21
2.5920323691
 72
2
 10
13.139726593
 20
2.5895573696
 40
0.0024749995
 50
359.9999571957
 51
90.0000428043
 73
1
 72
1
 10
13.1422015925
 20
2.5895573678
 11
13.1422015925
 21
2.5697573568
 72
2
 10
13.139726593
 20
2.5697573549
 40
0.0024749995
 50
269.9999571956
 51
0.0000428042
 73
1
 72
1
 10
13.1397265912
 20
2.5672823554
 11
13.1217935812
 21
2.5672823554
 72
2
 10
13.1217935794
 20
2.5648073559
 40
0.0024749995
 50
89.9999571957
 51
180.0000428042
 73
1
 72
1
 10
13.1193185799
 20
2.564807354
 11
13.1193185799
 21
2.4937023146
 72
2
 10
13.1168435803
 20
2.4937023128
 40
0.0024749995
 50
269.9999571957
 51
0.0000428043
 73
1
 72
1
 10
13.1168435785
 20
2.4912273132
 11
13.0426375373
 21
2.4912273132
 97
267
330
286
330
287
330
288
330
289
330
28A
330
28B
330
28C
330
28D
330
28E
330
28F
330
290
330
291
330
292
330
293
330
294
330
295
330
296
330
297
330
298
330
299
330
29A
330
29B
330
29C
330
29D
330
29E
330
29F
330
2A0
330
2A1
330
2A2
330
2A3
330
2A4
330
2A5
330
2A6
330
2A7
330
2A8
330
2A9
330
2AA
330
2AB
330
2AC
330
2AD
330
2AE
330
2AF
330
2B0
330
2B1
330
2B2
330
2B3
330
2B4
330
2B5
330
2B6
330
2B7
330
2B8
330
2B9
330
2BA
330
2BB
330
2BC
330
2BD
330
2BE
330
2BF
330
2C0
330
2C1
330
2C2
330
2C3
330
2C4
330
2C5
330
2C6
330
2C7
330
2C8
330
2C9
330
2CA
330
2CB
330
2CC
330
2CD
330
2CE
330
2CF
330
2D0
330
2D1
330
2D2
330
2D3
330
2D4
330
2D5
330
2D6
330
2D7
330
2D8
330
2D9
330
2DA
330
2DB
330
2DC
330
2DD
330
2DE
330
2DF
330
2E0
330
2E1
330
2E2
330
2E3
330
2E4
330
2E5
330
2E6
330
2E7
330
2E8
330
2E9
330
2EA
330
2EB
330
2EC
330
2ED
330
2EE
330
2EF
330
2F0
330
2F1
330
2F2
330
2F3
330
2F4
330
2F5
330
2F6
330
2F7
330
2F8
330
2F9
330
2FA
330
2FB
330
2FC
330
2FD
330
2FE
330
2FF
330
300
330
301
330
302
330
303
330
304
330
305
330
306
330
307
330
308
330
309
330
30A
330
30B
330
30C
330
30D
330
30E
330
30F
330
310
330
311
330
312
330
313
330
314
330
315
330
316
330
317
330
318
330
319
330
31A
330
31B
330
31C
330
31D
330
31E
330
31F
330
320
330
321
330
322
330
323
330
324
330
325
330
326
330
327
330
328
330
329
330
32A
330
32B
330
32C
330
32D
330
32E
330
32F
330
330
330
331
330
332
330
333
330
334
330
335
330
336
330
337
330
338
330
339
330
33A
330
33B
330
33C
330
33D
330
33E
330
33F
330
340
330
341
330
342
330
343
330
344
330
345
330
346
330
347
330
348
330
349
330
34A
330
34B
330
34C
330
34D
330
34E
330
34F
330
350
330
351
330
352
330
353
330
354
330
355
330
356
330
357
330
358
330
359
330
35A
330
35B
330
35C
330
35D
330
35E
330
35F
330
360
330
361
330
362
330
363
330
364
330
365
330
366
330
367
330
368
330
369
330
36A
330
36B
330
36C
330
36D
330
36E
330
36F
330
370
330
371
330
372
330
373
330
374
330
375
330
376
330
377
330
378
330
379
330
37A
330
37B
330
37C
330
37D
330
37E
330
37F
330
380
330
381
330
382
330
383
330
384
330
385
330
386
330
387
330
388
330
389
330
38A
330
38B
330
38C
330
38D
330
38E
330
38F
330
390
 92
1
 93
40
 72
2
 10
12.7943847649
 20
2.4937027294
 40
0.0024754162
 50
226.3593695813
 51
270.0146919953
 73
1
 72
1
 10
12.7926763987
 20
2.4919113136
 11
12.7293963636
 21
2.5522893471
 72
2
 10
12.7276876627
 20
2.5504984093
 40
0.0024753014
 50
46.3461263059
 51
180.0014637321
 73
1
 72
1
 10
12.7252123613
 20
2.5504983461
 11
12.7252123613
 21
2.5184523283
 72
2
 10
12.7276873608
 20
2.5184523265
 40
0.0024749995
 50
179.9999571957
 51
270.0000428043
 73
1
 72
1
 10
12.7276873627
 20
2.515977327
 11
12.7480043739
 21
2.515977327
 72
2
 10
12.7480043758
 20
2.5135023274
 40
0.0024749995
 50
359.9999571957
 51
90.0000428043
 73
1
 72
1
 10
12.7504793753
 20
2.5135023256
 11
12.7504793753
 21
2.4937023146
 72
2
 10
12.7480043758
 20
2.4937023128
 40
0.0024749995
 50
269.9999571958
 51
0.0000428043
 73
1
 72
1
 10
12.7480043739
 20
2.4912273132
 11
12.672340332
 21
2.4912273132
 72
2
 10
12.6723403301
 20
2.4937023128
 40
0.0024749995
 50
179.9999571957
 51
270.0000428042
 73
1
 72
1
 10
12.6698653306
 20
2.4937023146
 11
12.6698653306
 21
2.5135023256
 72
2
 10
12.6723403301
 20
2.5135023274
 40
0.0024749995
 50
89.9999571957
 51
180.0000428043
 73
1
 72
1
 10
12.672340332
 20
2.515977327
 11
12.6909873423
 21
2.515977327
 72
2
 10
12.6909873442
 20
2.5184523265
 40
0.0024749995
 50
269.9999571957
 51
0.0000428043
 73
1
 72
1
 10
12.6934623437
 20
2.5184523283
 11
12.6934623437
 21
2.564807354
 72
2
 10
12.6909873442
 20
2.5648073559
 40
0.0024749995
 50
359.9999571957
 51
90.0000428043
 73
1
 72
1
 10
12.6909873423
 20
2.5672823554
 11
12.672340332
 21
2.5672823554
 72
2
 10
12.6723403301
 20
2.5697573549
 40
0.0024749995
 50
179.9999571957
 51
270.0000428043
 73
1
 72
1
 10
12.6698653306
 20
2.5697573568
 11
12.6698653306
 21
2.5895573678
 72
2
 10
12.6723403301
 20
2.5895573696
 40
0.0024749995
 50
89.9999571957
 51
180.0000428043
 73
1
 72
1
 10
12.672340332
 20
2.5920323691
 11
12.7727983877
 21
2.5920323691
 72
2
 10
12.7727985224
 20
2.5895582013
 40
0.0024741678
 50
46.3477981899
 51
90.0031206038
 73
1
 72
1
 10
12.7745063886
 20
2.5913483688
 11
12.8345394219
 21
2.534068337
 72
2
 10
12.8362481229
 20
2.5358592748
 40
0.0024753014
 50
226.3461263059
 51
0.0014637321
 73
1
 72
1
 10
12.8387234242
 20
2.535859338
 11
12.8387234242
 21
2.564807354
 72
2
 10
12.8362484247
 20
2.5648073559
 40
0.0024749995
 50
359.9999571957
 51
90.0000428043
 73
1
 72
1
 10
12.8362484229
 20
2.5672823554
 11
12.8174724125
 21
2.5672823554
 72
2
 10
12.8174724106
 20
2.5697573549
 40
0.0024749995
 50
179.9999571957
 51
270.0000428043
 73
1
 72
1
 10
12.8149974111
 20
2.5697573568
 11
12.8149974111
 21
2.5895573678
 72
2
 10
12.8174724106
 20
2.5895573696
 40
0.0024749995
 50
89.9999571958
 51
180.0000428043
 73
1
 72
1
 10
12.8174724125
 20
2.5920323691
 11
12.8914734535
 21
2.5920323691
 72
2
 10
12.8914734553
 20
2.5895573696
 40
0.0024749995
 50
359.9999571957
 51
90.0000428042
 73
1
 72
1
 10
12.8939484549
 20
2.5895573678
 11
12.8939484549
 21
2.5697573568
 72
2
 10
12.8914734553
 20
2.5697573549
 40
0.0024749995
 50
269.9999571958
 51
0.0000428043
 73
1
 72
1
 10
12.8914734535
 20
2.5672823554
 11
12.8735404436
 21
2.5672823554
 72
2
 10
12.8735404417
 20
2.5648073559
 40
0.0024749995
 50
89.9999571957
 51
180.0000428043
 73
1
 72
1
 10
12.8710654422
 20
2.564807354
 11
12.8710654422
 21
2.4937023146
 72
2
 10
12.8685904427
 20
2.4937023128
 40
0.0024749995
 50
269.9999571957
 51
0.0000428043
 73
1
 72
1
 10
12.8685904408
 20
2.4912273132
 11
12.7943853997
 21
2.4912273132
 97
267
330
286
330
287
330
288
330
289
330
28A
330
28B
330
28C
330
28D
330
28E
330
28F
330
290
330
291
330
292
330
293
330
294
330
295
330
296
330
297
330
298
330
299
330
29A
330
29B
330
29C
330
29D
330
29E
330
29F
330
2A0
330
2A1
330
2A2
330
2A3
330
2A4
330
2A5
330
2A6
330
2A7
330
2A8
330
2A9
330
2AA
330
2AB
330
2AC
330
2AD
330
2AE
330
2AF
330
2B0
330
2B1
330
2B2
330
2B3
330
2B4
330
2B5
330
2B6
330
2B7
330
2B8
330
2B9
330
2BA
330
2BB
330
2BC
330
2BD
330
2BE
330
2BF
330
2C0
330
2C1
330
2C2
330
2C3
330
2C4
330
2C5
330
2C6
330
2C7
330
2C8
330
2C9
330
2CA
330
2CB
330
2CC
330
2CD
330
2CE
330
2CF
330
2D0
330
2D1
330
2D2
330
2D3
330
2D4
330
2D5
330
2D6
330
2D7
330
2D8
330
2D9
330
2DA
330
2DB
330
2DC
330
2DD
330
2DE
330
2DF
330
2E0
330
2E1
330
2E2
330
2E3
330
2E4
330
2E5
330
2E6
330
2E7
330
2E8
330
2E9
330
2EA
330
2EB
330
2EC
330
2ED
330
2EE
330
2EF
330
2F0
330
2F1
330
2F2
330
2F3
330
2F4
330
2F5
330
2F6
330
2F7
330
2F8
330
2F9
330
2FA
330
2FB
330
2FC
330
2FD
330
2FE
330
2FF
330
300
330
301
330
302
330
303
330
304
330
305
330
306
330
307
330
308
330
309
330
30A
330
30B
330
30C
330
30D
330
30E
330
30F
330
310
330
311
330
312
330
313
330
314
330
315
330
316
330
317
330
318
330
319
330
31A
330
31B
330
31C
330
31D
330
31E
330
31F
330
320
330
321
330
322
330
323
330
324
330
325
330
326
330
327
330
328
330
329
330
32A
330
32B
330
32C
330
32D
330
32E
330
32F
330
330
330
331
330
332
330
333
330
334
330
335
330
336
330
337
330
338
330
339
330
33A
330
33B
330
33C
330
33D
330
33E
330
33F
330
340
330
341
330
342
330
343
330
344
330
345
330
346
330
347
330
348
330
349
330
34A
330
34B
330
34C
330
34D
330
34E
330
34F
330
350
330
351
330
352
330
353
330
354
330
355
330
356
330
357
330
358
330
359
330
35A
330
35B
330
35C
330
35D
330
35E
330
35F
330
360
330
361
330
362
330
363
330
364
330
365
330
366
330
367
330
368
330
369
330
36A
330
36B
330
36C
330
36D
330
36E
330
36F
330
370
330
371
330
372
330
373
330
374
330
375
330
376
330
377
330
378
330
379
330
37A
330
37B
330
37C
330
37D
330
37E
330
37F
330
380
330
381
330
382
330
383
330
384
330
385
330
386
330
387
330
388
330
389
330
38A
330
38B
330
38C
330
38D
330
38E
330
38F
330
390
 92
1
 93
23
 72
2
 10
12.3792298263
 20
2.539634765
 40
0.048483885
 50
273.21763719
 51
303.0749121182
 73
1
 72
2
 10
12.3940692204
 20
2.5168671561
 40
0.0213072145
 50
303.0488228549
 51
355.7263138674
 73
1
 72
2
 10
12.400005721
 20
2.5168763464
 40
0.0153945295
 50
354.0454548824
 51
5.1878013979
 73
1
 72
2
 10
12.3931760319
 20
2.5166878286
 40
0.0222174455
 50
4.0793399388
 51
69.834329283
 73
1
 72
1
 10
12.4008351814
 20
2.5375433389
 11
12.3907841758
 21
2.5410923409
 72
1
 10
12.3907841758
 20
2.5410923409
 11
12.3990241804
 21
2.5458683435
 72
2
 10
12.3771587979
 20
2.5826952352
 40
0.0428289026
 50
300.6990502959
 51
319.0591802498
 73
1
 72
2
 10
12.3971873948
 20
2.5665668817
 40
0.0171568255
 50
315.9145124245
 51
16.0049121282
 73
1
 72
2
 10
12.3922357827
 20
2.5632132173
 40
0.0229166529
 50
20.6563876465
 51
62.3316896973
 73
1
 72
2
 10
12.371573659
 20
2.5302846524
 40
0.061747717
 50
59.5385584989
 51
90.0050977555
 73
1
 72
1
 10
12.3715681652
 20
2.5920323691
 11
12.2055050731
 21
2.5920323691
 72
2
 10
12.2055050712
 20
2.5895573696
 40
0.0024749995
 50
89.9999571957
 51
180.0000428043
 73
1
 72
1
 10
12.2030300717
 20
2.5895573678
 11
12.2030300717
 21
2.5697573568
 72
2
 10
12.2055050712
 20
2.5697573549
 40
0.0024749995
 50
179.9999571957
 51
270.0000428043
 73
1
 72
1
 10
12.2055050731
 20
2.5672823554
 11
12.2294470864
 21
2.5672823554
 72
2
 10
12.2294470882
 20
2.5648073559
 40
0.0024749995
 50
359.9999571957
 51
90.0000428043
 73
1
 72
1
 10
12.2319220877
 20
2.564807354
 11
12.2319220877
 21
2.5184523283
 72
2
 10
12.2294470882
 20
2.5184523265
 40
0.0024749995
 50
269.9999571957
 51
0.0000428043
 73
1
 72
1
 10
12.2294470864
 20
2.515977327
 11
12.2055050731
 21
2.515977327
 72
2
 10
12.2055050712
 20
2.5135023274
 40
0.0024749995
 50
89.9999571957
 51
180.0000428043
 73
1
 72
1
 10
12.2030300717
 20
2.5135023256
 11
12.2030300717
 21
2.4937023146
 72
2
 10
12.2055050712
 20
2.4937023128
 40
0.0024749995
 50
179.9999571957
 51
270.0000428043
 73
1
 72
1
 10
12.2055050731
 20
2.4912273132
 11
12.3819511709
 21
2.4912273132
 97
267
330
286
330
287
330
288
330
289
330
28A
330
28B
330
28C
330
28D
330
28E
330
28F
330
290
330
291
330
292
330
293
330
294
330
295
330
296
330
297
330
298
330
299
330
29A
330
29B
330
29C
330
29D
330
29E
330
29F
330
2A0
330
2A1
330
2A2
330
2A3
330
2A4
330
2A5
330
2A6
330
2A7
330
2A8
330
2A9
330
2AA
330
2AB
330
2AC
330
2AD
330
2AE
330
2AF
330
2B0
330
2B1
330
2B2
330
2B3
330
2B4
330
2B5
330
2B6
330
2B7
330
2B8
330
2B9
330
2BA
330
2BB
330
2BC
330
2BD
330
2BE
330
2BF
330
2C0
330
2C1
330
2C2
330
2C3
330
2C4
330
2C5
330
2C6
330
2C7
330
2C8
330
2C9
330
2CA
330
2CB
330
2CC
330
2CD
330
2CE
330
2CF
330
2D0
330
2D1
330
2D2
330
2D3
330
2D4
330
2D5
330
2D6
330
2D7
330
2D8
330
2D9
330
2DA
330
2DB
330
2DC
330
2DD
330
2DE
330
2DF
330
2E0
330
2E1
330
2E2
330
2E3
330
2E4
330
2E5
330
2E6
330
2E7
330
2E8
330
2E9
330
2EA
330
2EB
330
2EC
330
2ED
330
2EE
330
2EF
330
2F0
330
2F1
330
2F2
330
2F3
330
2F4
330
2F5
330
2F6
330
2F7
330
2F8
330
2F9
330
2FA
330
2FB
330
2FC
330
2FD
330
2FE
330
2FF
330
300
330
301
330
302
330
303
330
304
330
305
330
306
330
307
330
308
330
309
330
30A
330
30B
330
30C
330
30D
330
30E
330
30F
330
310
330
311
330
312
330
313
330
314
330
315
330
316
330
317
330
318
330
319
330
31A
330
31B
330
31C
330
31D
330
31E
330
31F
330
320
330
321
330
322
330
323
330
324
330
325
330
326
330
327
330
328
330
329
330
32A
330
32B
330
32C
330
32D
330
32E
330
32F
330
330
330
331
330
332
330
333
330
334
330
335
330
336
330
337
330
338
330
339
330
33A
330
33B
330
33C
330
33D
330
33E
330
33F
330
340
330
341
330
342
330
343
330
344
330
345
330
346
330
347
330
348
330
349
330
34A
330
34B
330
34C
330
34D
330
34E
330
34F
330
350
330
351
330
352
330
353
330
354
330
355
330
356
330
357
330
358
330
359
330
35A
330
35B
330
35C
330
35D
330
35E
330
35F
330
360
330
361
330
362
330
363
330
364
330
365
330
366
330
367
330
368
330
369
330
36A
330
36B
330
36C
330
36D
330
36E
330
36F
330
370
330
371
330
372
330
373
330
374
330
375
330
376
330
377
330
378
330
379
330
37A
330
37B
330
37C
330
37D
330
37E
330
37F
330
380
330
381
330
382
330
383
330
384
330
385
330
386
330
387
330
388
330
389
330
38A
330
38B
330
38C
330
38D
330
38E
330
38F
330
390
 92
1
 93
32
 72
2
 10
12.5168642476
 20
2.4937023128
 40
0.0024749995
 50
269.9999571957
 51
0.0000428043
 73
1
 72
1
 10
12.5193392471
 20
2.4937023146
 11
12.5193392471
 21
2.5135023256
 72
2
 10
12.5168642476
 20
2.5135023274
 40
0.0024749995
 50
359.9999571957
 51
90.0000428043
 73
1
 72
1
 10
12.5168642458
 20
2.515977327
 11
12.5055812395
 21
2.515977327
 72
2
 10
12.5055811302
 20
2.518452367
 40
0.0024750401
 50
147.6063258011
 51
270.0025305754
 73
1
 72
1
 10
12.5034912383
 20
2.5197783291
 11
12.5090072414
 21
2.5284723339
 72
2
 10
12.5110971723
 20
2.5271461342
 40
0.0024752003
 50
89.998372645
 51
147.602165307
 73
1
 72
1
 10
12.5110972426
 20
2.5296213345
 11
12.5459752619
 21
2.5296213345
 72
2
 10
12.5459747223
 20
2.5271458744
 40
0.0024754602
 50
32.8959418573
 51
89.9875097202
 73
1
 72
1
 10
12.548053263
 20
2.5284903339
 11
12.5536792662
 21
2.5197973291
 72
2
 10
12.5516012439
 20
2.5184525341
 40
0.0024752071
 50
270.0004896794
 51
32.9089806818
 73
1
 72
1
 10
12.551601265
 20
2.515977327
 11
12.537150257
 21
2.515977327
 72
2
 10
12.5371502552
 20
2.5135023274
 40
0.0024749995
 50
89.9999571958
 51
180.0000428043
 73
1
 72
1
 10
12.5346752556
 20
2.5135023256
 11
12.5346752556
 21
2.4937023146
 72
2
 10
12.5371502552
 20
2.4937023128
 40
0.0024749995
 50
179.9999571957
 51
270.0000428042
 73
1
 72
1
 10
12.537150257
 20
2.4912273132
 11
12.6424313154
 21
2.4912273132
 72
2
 10
12.6424313172
 20
2.4937023128
 40
0.0024749995
 50
269.9999571957
 51
0.0000428043
 73
1
 72
1
 10
12.6449063168
 20
2.4937023146
 11
12.6449063168
 21
2.5135023256
 72
2
 10
12.6424313172
 20
2.5135023274
 40
0.0024749995
 50
359.9999571957
 51
90.0000428043
 73
1
 72
1
 10
12.6424313154
 20
2.515977327
 11
12.6224153043
 21
2.515977327
 72
2
 10
12.6224154248
 20
2.518451368
 40
0.002474041
 50
212.9056413127
 51
269.9972091756
 73
1
 72
1
 10
12.6203383031
 20
2.5171073276
 11
12.5725822767
 21
2.5909023685
 72
2
 10
12.570504655
 20
2.589557409
 40
0.0024749602
 50
32.9172174468
 51
90.0087853097
 73
1
 72
1
 10
12.5705042755
 20
2.5920323691
 11
12.5133292438
 21
2.5920323691
 72
2
 10
12.5133291735
 20
2.5895571688
 40
0.0024752003
 50
89.9983726451
 51
147.602165307
 73
1
 72
1
 10
12.5112392426
 20
2.5908833685
 11
12.4644392167
 21
2.5171263276
 72
2
 10
12.4623492858
 20
2.5184525273
 40
0.0024752003
 50
269.9983726451
 51
327.602165307
 73
1
 72
1
 10
12.4623492155
 20
2.515977327
 11
12.4394882028
 21
2.515977327
 72
2
 10
12.439488201
 20
2.5135023274
 40
0.0024749995
 50
89.9999571958
 51
180.0000428043
 73
1
 72
1
 10
12.4370132015
 20
2.5135023256
 11
12.4370132015
 21
2.4937023146
 72
2
 10
12.439488201
 20
2.4937023128
 40
0.0024749995
 50
179.9999571957
 51
270.0000428042
 73
1
 72
1
 10
12.4394882028
 20
2.4912273132
 11
12.5168642458
 21
2.4912273132
 97
267
330
286
330
287
330
288
330
289
330
28A
330
28B
330
28C
330
28D
330
28E
330
28F
330
290
330
291
330
292
330
293
330
294
330
295
330
296
330
297
330
298
330
299
330
29A
330
29B
330
29C
330
29D
330
29E
330
29F
330
2A0
330
2A1
330
2A2
330
2A3
330
2A4
330
2A5
330
2A6
330
2A7
330
2A8
330
2A9
330
2AA
330
2AB
330
2AC
330
2AD
330
2AE
330
2AF
330
2B0
330
2B1
330
2B2
330
2B3
330
2B4
330
2B5
330
2B6
330
2B7
330
2B8
330
2B9
330
2BA
330
2BB
330
2BC
330
2BD
330
2BE
330
2BF
330
2C0
330
2C1
330
2C2
330
2C3
330
2C4
330
2C5
330
2C6
330
2C7
330
2C8
330
2C9
330
2CA
330
2CB
330
2CC
330
2CD
330
2CE
330
2CF
330
2D0
330
2D1
330
2D2
330
2D3
330
2D4
330
2D5
330
2D6
330
2D7
330
2D8
330
2D9
330
2DA
330
2DB
330
2DC
330
2DD
330
2DE
330
2DF
330
2E0
330
2E1
330
2E2
330
2E3
330
2E4
330
2E5
330
2E6
330
2E7
330
2E8
330
2E9
330
2EA
330
2EB
330
2EC
330
2ED
330
2EE
330
2EF
330
2F0
330
2F1
330
2F2
330
2F3
330
2F4
330
2F5
330
2F6
330
2F7
330
2F8
330
2F9
330
2FA
330
2FB
330
2FC
330
2FD
330
2FE
330
2FF
330
300
330
301
330
302
330
303
330
304
330
305
330
306
330
307
330
308
330
309
330
30A
330
30B
330
30C
330
30D
330
30E
330
30F
330
310
330
311
330
312
330
313
330
314
330
315
330
316
330
317
330
318
330
319
330
31A
330
31B
330
31C
330
31D
330
31E
330
31F
330
320
330
321
330
322
330
323
330
324
330
325
330
326
330
327
330
328
330
329
330
32A
330
32B
330
32C
330
32D
330
32E
330
32F
330
330
330
331
330
332
330
333
330
334
330
335
330
336
330
337
330
338
330
339
330
33A
330
33B
330
33C
330
33D
330
33E
330
33F
330
340
330
341
330
342
330
343
330
344
330
345
330
346
330
347
330
348
330
349
330
34A
330
34B
330
34C
330
34D
330
34E
330
34F
330
350
330
351
330
352
330
353
330
354
330
355
330
356
330
357
330
358
330
359
330
35A
330
35B
330
35C
330
35D
330
35E
330
35F
330
360
330
361
330
362
330
363
330
364
330
365
330
366
330
367
330
368
330
369
330
36A
330
36B
330
36C
330
36D
330
36E
330
36F
330
370
330
371
330
372
330
373
330
374
330
375
330
376
330
377
330
378
330
379
330
37A
330
37B
330
37C
330
37D
330
37E
330
37F
330
380
330
381
330
382
330
383
330
384
330
385
330
386
330
387
330
388
330
389
330
38A
330
38B
330
38C
330
38D
330
38E
330
38F
330
390
 92
1
 93
6
 72
2
 10
12.2949101208
 20
2.5184523265
 40
0.0024749995
 50
179.9999571957
 51
270.0000428043
 73
1
 72
1
 10
12.2924351213
 20
2.5184523283
 11
12.2924351213
 21
2.5308273352
 72
2
 10
12.2949101208
 20
2.530827337
 40
0.0024749995
 50
89.9999571957
 51
180.0000428043
 73
1
 72
1
 10
12.2949101227
 20
2.5333023366
 11
12.3362731456
 21
2.5333023366
 72
2
 10
12.3362731456
 20
2.5246398318
 40
0.0086625048
 50
270.0
 51
90.0
 73
1
 72
1
 10
12.3362731456
 20
2.515977327
 11
12.2949101227
 21
2.515977327
 97
267
330
286
330
287
330
288
330
289
330
28A
330
28B
330
28C
330
28D
330
28E
330
28F
330
290
330
291
330
292
330
293
330
294
330
295
330
296
330
297
330
298
330
299
330
29A
330
29B
330
29C
330
29D
330
29E
330
29F
330
2A0
330
2A1
330
2A2
330
2A3
330
2A4
330
2A5
330
2A6
330
2A7
330
2A8
330
2A9
330
2AA
330
2AB
330
2AC
330
2AD
330
2AE
330
2AF
330
2B0
330
2B1
330
2B2
330
2B3
330
2B4
330
2B5
330
2B6
330
2B7
330
2B8
330
2B9
330
2BA
330
2BB
330
2BC
330
2BD
330
2BE
330
2BF
330
2C0
330
2C1
330
2C2
330
2C3
330
2C4
330
2C5
330
2C6
330
2C7
330
2C8
330
2C9
330
2CA
330
2CB
330
2CC
330
2CD
330
2CE
330
2CF
330
2D0
330
2D1
330
2D2
330
2D3
330
2D4
330
2D5
330
2D6
330
2D7
330
2D8
330
2D9
330
2DA
330
2DB
330
2DC
330
2DD
330
2DE
330
2DF
330
2E0
330
2E1
330
2E2
330
2E3
330
2E4
330
2E5
330
2E6
330
2E7
330
2E8
330
2E9
330
2EA
330
2EB
330
2EC
330
2ED
330
2EE
330
2EF
330
2F0
330
2F1
330
2F2
330
2F3
330
2F4
330
2F5
330
2F6
330
2F7
330
2F8
330
2F9
330
2FA
330
2FB
330
2FC
330
2FD
330
2FE
330
2FF
330
300
330
301
330
302
330
303
330
304
330
305
330
306
330
307
330
308
330
309
330
30A
330
30B
330
30C
330
30D
330
30E
330
30F
330
310
330
311
330
312
330
313
330
314
330
315
330
316
330
317
330
318
330
319
330
31A
330
31B
330
31C
330
31D
330
31E
330
31F
330
320
330
321
330
322
330
323
330
324
330
325
330
326
330
327
330
328
330
329
330
32A
330
32B
330
32C
330
32D
330
32E
330
32F
330
330
330
331
330
332
330
333
330
334
330
335
330
336
330
337
330
338
330
339
330
33A
330
33B
330
33C
330
33D
330
33E
330
33F
330
340
330
341
330
342
330
343
330
344
330
345
330
346
330
347
330
348
330
349
330
34A
330
34B
330
34C
330
34D
330
34E
330
34F
330
350
330
351
330
352
330
353
330
354
330
355
330
356
330
357
330
358
330
359
330
35A
330
35B
330
35C
330
35D
330
35E
330
35F
330
360
330
361
330
362
330
363
330
364
330
365
330
366
330
367
330
368
330
369
330
36A
330
36B
330
36C
330
36D
330
36E
330
36F
330
370
330
371
330
372
330
373
330
374
330
375
330
376
330
377
330
378
330
379
330
37A
330
37B
330
37C
330
37D
330
37E
330
37F
330
380
330
381
330
382
330
383
330
384
330
385
330
386
330
387
330
388
330
389
330
38A
330
38B
330
38C
330
38D
330
38E
330
38F
330
390
 92
1
 93
13
 72
2
 10
13.4883447827
 20
2.5520823451
 40
0.0024749995
 50
179.9999571957
 51
270.0000428042
 73
1
 72
1
 10
13.4858697831
 20
2.552082347
 11
13.4858697831
 21
2.564807354
 72
2
 10
13.4883447827
 20
2.5648073559
 40
0.0024749995
 50
89.9999571958
 51
180.0000428043
 73
1
 72
1
 10
13.4883447845
 20
2.5672823554
 11
13.5251458049
 21
2.5672823554
 72
2
 10
13.5236009174
 20
2.5388278764
 40
0.0284963867
 50
70.3834917948
 51
86.8922743861
 73
1
 72
2
 10
13.5284605274
 20
2.5518696094
 40
0.0145814632
 50
54.6746025112
 51
71.1660573124
 73
1
 72
2
 10
13.5335900184
 20
2.5587235346
 40
0.0060275915
 50
20.9055592135
 51
56.7851676243
 73
1
 72
2
 10
13.5348905773
 20
2.5593838168
 40
0.0045795888
 50
355.6235353944
 51
18.9942678268
 73
1
 72
2
 10
13.533683767
 20
2.559677593
 40
0.0058087709
 50
318.8515287446
 51
353.6422345323
 73
1
 72
2
 10
13.5295131508
 20
2.5629115009
 40
0.0110815393
 50
306.758405961
 51
320.4502234234
 73
1
 72
2
 10
13.5238839599
 20
2.5706523294
 40
0.0206523367
 50
289.6883413472
 51
306.4184925496
 73
1
 72
2
 10
13.5219564542
 20
2.5750459767
 40
0.0254407115
 50
270.7327484175
 51
290.441894219
 73
1
 72
1
 10
13.5222818033
 20
2.5496073456
 11
13.4883447845
 21
2.5496073456
 97
267
330
286
330
287
330
288
330
289
330
28A
330
28B
330
28C
330
28D
330
28E
330
28F
330
290
330
291
330
292
330
293
330
294
330
295
330
296
330
297
330
298
330
299
330
29A
330
29B
330
29C
330
29D
330
29E
330
29F
330
2A0
330
2A1
330
2A2
330
2A3
330
2A4
330
2A5
330
2A6
330
2A7
330
2A8
330
2A9
330
2AA
330
2AB
330
2AC
330
2AD
330
2AE
330
2AF
330
2B0
330
2B1
330
2B2
330
2B3
330
2B4
330
2B5
330
2B6
330
2B7
330
2B8
330
2B9
330
2BA
330
2BB
330
2BC
330
2BD
330
2BE
330
2BF
330
2C0
330
2C1
330
2C2
330
2C3
330
2C4
330
2C5
330
2C6
330
2C7
330
2C8
330
2C9
330
2CA
330
2CB
330
2CC
330
2CD
330
2CE
330
2CF
330
2D0
330
2D1
330
2D2
330
2D3
330
2D4
330
2D5
330
2D6
330
2D7
330
2D8
330
2D9
330
2DA
330
2DB
330
2DC
330
2DD
330
2DE
330
2DF
330
2E0
330
2E1
330
2E2
330
2E3
330
2E4
330
2E5
330
2E6
330
2E7
330
2E8
330
2E9
330
2EA
330
2EB
330
2EC
330
2ED
330
2EE
330
2EF
330
2F0
330
2F1
330
2F2
330
2F3
330
2F4
330
2F5
330
2F6
330
2F7
330
2F8
330
2F9
330
2FA
330
2FB
330
2FC
330
2FD
330
2FE
330
2FF
330
300
330
301
330
302
330
303
330
304
330
305
330
306
330
307
330
308
330
309
330
30A
330
30B
330
30C
330
30D
330
30E
330
30F
330
310
330
311
330
312
330
313
330
314
330
315
330
316
330
317
330
318
330
319
330
31A
330
31B
330
31C
330
31D
330
31E
330
31F
330
320
330
321
330
322
330
323
330
324
330
325
330
326
330
327
330
328
330
329
330
32A
330
32B
330
32C
330
32D
330
32E
330
32F
330
330
330
331
330
332
330
333
330
334
330
335
330
336
330
337
330
338
330
339
330
33A
330
33B
330
33C
330
33D
330
33E
330
33F
330
340
330
341
330
342
330
343
330
344
330
345
330
346
330
347
330
348
330
349
330
34A
330
34B
330
34C
330
34D
330
34E
330
34F
330
350
330
351
330
352
330
353
330
354
330
355
330
356
330
357
330
358
330
359
330
35A
330
35B
330
35C
330
35D
330
35E
330
35F
330
360
330
361
330
362
330
363
330
364
330
365
330
366
330
367
330
368
330
369
330
36A
330
36B
330
36C
330
36D
330
36E
330
36F
330
370
330
371
330
372
330
373
330
374
330
375
330
376
330
377
330
378
330
379
330
37A
330
37B
330
37C
330
37D
330
37E
330
37F
330
380
330
381
330
382
330
383
330
384
330
385
330
386
330
387
330
388
330
389
330
38A
330
38B
330
38C
330
38D
330
38E
330
38F
330
390
 92
1
 93
6
 72
2
 10
12.3362731456
 20
2.5586198506
 40
0.0086625048
 50
270.0
 51
90.0
 73
1
 72
1
 10
12.3362731456
 20
2.5672823554
 11
12.2949101227
 21
2.5672823554
 72
2
 10
12.2949101208
 20
2.5648073559
 40
0.0024749995
 50
89.9999571957
 51
180.0000428043
 73
1
 72
1
 10
12.2924351213
 20
2.564807354
 11
12.2924351213
 21
2.5524323472
 72
2
 10
12.2949101208
 20
2.5524323453
 40
0.0024749995
 50
179.9999571957
 51
270.0000428043
 73
1
 72
1
 10
12.2949101227
 20
2.5499573458
 11
12.3362731456
 21
2.5499573458
 97
267
330
286
330
287
330
288
330
289
330
28A
330
28B
330
28C
330
28D
330
28E
330
28F
330
290
330
291
330
292
330
293
330
294
330
295
330
296
330
297
330
298
330
299
330
29A
330
29B
330
29C
330
29D
330
29E
330
29F
330
2A0
330
2A1
330
2A2
330
2A3
330
2A4
330
2A5
330
2A6
330
2A7
330
2A8
330
2A9
330
2AA
330
2AB
330
2AC
330
2AD
330
2AE
330
2AF
330
2B0
330
2B1
330
2B2
330
2B3
330
2B4
330
2B5
330
2B6
330
2B7
330
2B8
330
2B9
330
2BA
330
2BB
330
2BC
330
2BD
330
2BE
330
2BF
330
2C0
330
2C1
330
2C2
330
2C3
330
2C4
330
2C5
330
2C6
330
2C7
330
2C8
330
2C9
330
2CA
330
2CB
330
2CC
330
2CD
330
2CE
330
2CF
330
2D0
330
2D1
330
2D2
330
2D3
330
2D4
330
2D5
330
2D6
330
2D7
330
2D8
330
2D9
330
2DA
330
2DB
330
2DC
330
2DD
330
2DE
330
2DF
330
2E0
330
2E1
330
2E2
330
2E3
330
2E4
330
2E5
330
2E6
330
2E7
330
2E8
330
2E9
330
2EA
330
2EB
330
2EC
330
2ED
330
2EE
330
2EF
330
2F0
330
2F1
330
2F2
330
2F3
330
2F4
330
2F5
330
2F6
330
2F7
330
2F8
330
2F9
330
2FA
330
2FB
330
2FC
330
2FD
330
2FE
330
2FF
330
300
330
301
330
302
330
303
330
304
330
305
330
306
330
307
330
308
330
309
330
30A
330
30B
330
30C
330
30D
330
30E
330
30F
330
310
330
311
330
312
330
313
330
314
330
315
330
316
330
317
330
318
330
319
330
31A
330
31B
330
31C
330
31D
330
31E
330
31F
330
320
330
321
330
322
330
323
330
324
330
325
330
326
330
327
330
328
330
329
330
32A
330
32B
330
32C
330
32D
330
32E
330
32F
330
330
330
331
330
332
330
333
330
334
330
335
330
336
330
337
330
338
330
339
330
33A
330
33B
330
33C
330
33D
330
33E
330
33F
330
340
330
341
330
342
330
343
330
344
330
345
330
346
330
347
330
348
330
349
330
34A
330
34B
330
34C
330
34D
330
34E
330
34F
330
350
330
351
330
352
330
353
330
354
330
355
330
356
330
357
330
358
330
359
330
35A
330
35B
330
35C
330
35D
330
35E
330
35F
330
360
330
361
330
362
330
363
330
364
330
365
330
366
330
367
330
368
330
369
330
36A
330
36B
330
36C
330
36D
330
36E
330
36F
330
370
330
371
330
372
330
373
330
374
330
375
330
376
330
377
330
378
330
379
330
37A
330
37B
330
37C
330
37D
330
37E
330
37F
330
380
330
381
330
382
330
383
330
384
330
385
330
386
330
387
330
388
330
389
330
38A
330
38B
330
38C
330
38D
330
38E
330
38F
330
390
 92
1
 93
8
 72
2
 10
12.5401702375
 20
2.5530465533
 40
0.0024752071
 50
270.0004896793
 51
32.9089806818
 73
1
 72
1
 10
12.5422482598
 20
2.5543913483
 11
12.5349892558
 21
2.5656073545
 72
2
 10
12.532910715
 20
2.564262895
 40
0.0024754602
 50
32.8959418573
 51
89.9875097202
 73
1
 72
1
 10
12.5329112547
 20
2.5667383551
 11
12.5267302512
 21
2.5667383551
 72
2
 10
12.5267301809
 20
2.5642631548
 40
0.0024752003
 50
89.998372645
 51
147.602165307
 73
1
 72
1
 10
12.5246402501
 20
2.5655893545
 11
12.5175232461
 21
2.5543723483
 72
2
 10
12.519613138
 20
2.5530463862
 40
0.0024750401
 50
147.6063258012
 51
270.0025305754
 73
1
 72
1
 10
12.5196132473
 20
2.5505713461
 11
12.5401702587
 21
2.5505713461
 97
267
330
286
330
287
330
288
330
289
330
28A
330
28B
330
28C
330
28D
330
28E
330
28F
330
290
330
291
330
292
330
293
330
294
330
295
330
296
330
297
330
298
330
299
330
29A
330
29B
330
29C
330
29D
330
29E
330
29F
330
2A0
330
2A1
330
2A2
330
2A3
330
2A4
330
2A5
330
2A6
330
2A7
330
2A8
330
2A9
330
2AA
330
2AB
330
2AC
330
2AD
330
2AE
330
2AF
330
2B0
330
2B1
330
2B2
330
2B3
330
2B4
330
2B5
330
2B6
330
2B7
330
2B8
330
2B9
330
2BA
330
2BB
330
2BC
330
2BD
330
2BE
330
2BF
330
2C0
330
2C1
330
2C2
330
2C3
330
2C4
330
2C5
330
2C6
330
2C7
330
2C8
330
2C9
330
2CA
330
2CB
330
2CC
330
2CD
330
2CE
330
2CF
330
2D0
330
2D1
330
2D2
330
2D3
330
2D4
330
2D5
330
2D6
330
2D7
330
2D8
330
2D9
330
2DA
330
2DB
330
2DC
330
2DD
330
2DE
330
2DF
330
2E0
330
2E1
330
2E2
330
2E3
330
2E4
330
2E5
330
2E6
330
2E7
330
2E8
330
2E9
330
2EA
330
2EB
330
2EC
330
2ED
330
2EE
330
2EF
330
2F0
330
2F1
330
2F2
330
2F3
330
2F4
330
2F5
330
2F6
330
2F7
330
2F8
330
2F9
330
2FA
330
2FB
330
2FC
330
2FD
330
2FE
330
2FF
330
300
330
301
330
302
330
303
330
304
330
305
330
306
330
307
330
308
330
309
330
30A
330
30B
330
30C
330
30D
330
30E
330
30F
330
310
330
311
330
312
330
313
330
314
330
315
330
316
330
317
330
318
330
319
330
31A
330
31B
330
31C
330
31D
330
31E
330
31F
330
320
330
321
330
322
330
323
330
324
330
325
330
326
330
327
330
328
330
329
330
32A
330
32B
330
32C
330
32D
330
32E
330
32F
330
330
330
331
330
332
330
333
330
334
330
335
330
336
330
337
330
338
330
339
330
33A
330
33B
330
33C
330
33D
330
33E
330
33F
330
340
330
341
330
342
330
343
330
344
330
345
330
346
330
347
330
348
330
349
330
34A
330
34B
330
34C
330
34D
330
34E
330
34F
330
350
330
351
330
352
330
353
330
354
330
355
330
356
330
357
330
358
330
359
330
35A
330
35B
330
35C
330
35D
330
35E
330
35F
330
360
330
361
330
362
330
363
330
364
330
365
330
366
330
367
330
368
330
369
330
36A
330
36B
330
36C
330
36D
330
36E
330
36F
330
370
330
371
330
372
330
373
330
374
330
375
330
376
330
377
330
378
330
379
330
37A
330
37B
330
37C
330
37D
330
37E
330
37F
330
380
330
381
330
382
330
383
330
384
330
385
330
386
330
387
330
388
330
389
330
38A
330
38B
330
38C
330
38D
330
38E
330
38F
330
390
 92
1
 93
1
 72
3
 10
12.9046654608
 20
2.5403783405
 11
-0.8250004575
 21
0.0
 40
0.218572
 50
0.0
 51
360.0
 73
1
 97
267
330
286
330
287
330
288
330
289
330
28A
330
28B
330
28C
330
28D
330
28E
330
28F
330
290
330
291
330
292
330
293
330
294
330
295
330
296
330
297
330
298
330
299
330
29A
330
29B
330
29C
330
29D
330
29E
330
29F
330
2A0
330
2A1
330
2A2
330
2A3
330
2A4
330
2A5
330
2A6
330
2A7
330
2A8
330
2A9
330
2AA
330
2AB
330
2AC
330
2AD
330
2AE
330
2AF
330
2B0
330
2B1
330
2B2
330
2B3
330
2B4
330
2B5
330
2B6
330
2B7
330
2B8
330
2B9
330
2BA
330
2BB
330
2BC
330
2BD
330
2BE
330
2BF
330
2C0
330
2C1
330
2C2
330
2C3
330
2C4
330
2C5
330
2C6
330
2C7
330
2C8
330
2C9
330
2CA
330
2CB
330
2CC
330
2CD
330
2CE
330
2CF
330
2D0
330
2D1
330
2D2
330
2D3
330
2D4
330
2D5
330
2D6
330
2D7
330
2D8
330
2D9
330
2DA
330
2DB
330
2DC
330
2DD
330
2DE
330
2DF
330
2E0
330
2E1
330
2E2
330
2E3
330
2E4
330
2E5
330
2E6
330
2E7
330
2E8
330
2E9
330
2EA
330
2EB
330
2EC
330
2ED
330
2EE
330
2EF
330
2F0
330
2F1
330
2F2
330
2F3
330
2F4
330
2F5
330
2F6
330
2F7
330
2F8
330
2F9
330
2FA
330
2FB
330
2FC
330
2FD
330
2FE
330
2FF
330
300
330
301
330
302
330
303
330
304
330
305
330
306
330
307
330
308
330
309
330
30A
330
30B
330
30C
330
30D
330
30E
330
30F
330
310
330
311
330
312
330
313
330
314
330
315
330
316
330
317
330
318
330
319
330
31A
330
31B
330
31C
330
31D
330
31E
330
31F
330
320
330
321
330
322
330
323
330
324
330
325
330
326
330
327
330
328
330
329
330
32A
330
32B
330
32C
330
32D
330
32E
330
32F
330
330
330
331
330
332
330
333
330
334
330
335
330
336
330
337
330
338
330
339
330
33A
330
33B
330
33C
330
33D
330
33E
330
33F
330
340
330
341
330
342
330
343
330
344
330
345
330
346
330
347
330
348
330
349
330
34A
330
34B
330
34C
330
34D
330
34E
330
34F
330
350
330
351
330
352
330
353
330
354
330
355
330
356
330
357
330
358
330
359
330
35A
330
35B
330
35C
330
35D
330
35E
330
35F
330
360
330
361
330
362
330
363
330
364
330
365
330
366
330
367
330
368
330
369
330
36A
330
36B
330
36C
330
36D
330
36E
330
36F
330
370
330
371
330
372
330
373
330
374
330
375
330
376
330
377
330
378
330
379
330
37A
330
37B
330
37C
330
37D
330
37E
330
37F
330
380
330
381
330
382
330
383
330
384
330
385
330
386
330
387
330
388
330
389
330
38A
330
38B
330
38C
330
38D
330
38E
330
38F
330
390
 75
0
 76
1
 98
1
 10
0.0
 20
0.0
  0
LINE
  5
392
100
AcDbEntity
  8
0
100
AcDbLine
 62
7
  6
CONTINUOUS
 10
8.5
 20
10.112
 11
8.586603
 21
10.262
  0
LINE
  5
393
100
AcDbEntity
  8
0
100
AcDbLine
 62
7
  6
CONTINUOUS
 10
16.38
 20
2.807
 11
10.03
 21
2.807
  0
LINE
  5
394
100
AcDbEntity
  8
0
100
AcDbLine
 62
7
  6
CONTINUOUS
 10
0.62
 20
3.1995
 11
0.37
 21
3.1995
  0
LINE
  5
395
100
AcDbEntity
  8
0
100
AcDbLine
 62
7
  6
CONTINUOUS
 10
16.38
 20
3.1995
 11
16.63
 21
3.1995
  0
LINE
  5
396
100
AcDbEntity
  8
0
100
AcDbLine
 62
7
  6
CONTINUOUS
 10
8.586603
 20
0.737
 11
8.5
 21
0.887
  0
LINE
  5
397
100
AcDbEntity
  8
0
100
AcDbLine
 62
7
  6
CONTINUOUS
 10
6.53
 20
0.887
 11
6.53
 21
0.637
  0
LINE
  5
398
100
AcDbEntity
  8
0
100
AcDbLine
 62
7
  6
CONTINUOUS
 10
6.53
 20
10.112
 11
6.53
 21
10.362
  0
LINE
  5
399
100
AcDbEntity
  8
0
100
AcDbLine
 62
7
  6
CONTINUOUS
 10
8.5
 20
0.887
 11
8.5
 21
0.637
  0
LINE
  5
39A
100
AcDbEntity
  8
0
100
AcDbLine
 62
7
  6
CONTINUOUS
 10
8.5
 20
10.112
 11
8.5
 21
10.362
  0
LINE
  5
39B
100
AcDbEntity
  8
0
100
AcDbLine
 62
7
  6
CONTINUOUS
 10
0.62
 20
5.4995
 11
0.37
 21
5.4995
  0
LINE
  5
39C
100
AcDbEntity
  8
0
100
AcDbLine
 62
7
  6
CONTINUOUS
 10
16.38
 20
5.4995
 11
16.63
 21
5.4995
  0
LINE
  5
39D
100
AcDbEntity
  8
0
100
AcDbLine
 62
7
  6
CONTINUOUS
 10
10.03
 20
2.807
 11
10.03
 21
0.887
  0
LINE
  5
39E
100
AcDbEntity
  8
0
100
AcDbLine
 62
7
  6
CONTINUOUS
 10
10.47
 20
0.887
 11
10.47
 21
0.637
  0
LINE
  5
39F
100
AcDbEntity
  8
0
100
AcDbLine
 62
7
  6
CONTINUOUS
 10
10.47
 20
10.112
 11
10.47
 21
10.362
  0
LINE
  5
3A0
100
AcDbEntity
  8
0
100
AcDbLine
 62
7
  6
CONTINUOUS
 10
10.5342808475
 20
1.143294839
 11
10.5342808475
 21
0.921203839
  0
LINE
  5
3A1
100
AcDbEntity
  8
0
100
AcDbLine
 62
7
  6
CONTINUOUS
 10
10.5342808475
 20
1.193294839
 11
10.5342808475
 21
1.293294839
  0
LINE
  5
3A2
100
AcDbEntity
  8
0
100
AcDbLine
 62
7
  6
CONTINUOUS
 10
10.5342808475
 20
1.343294839
 11
10.5342808475
 21
1.565385839
  0
LINE
  5
3A3
100
AcDbEntity
  8
0
100
AcDbLine
 62
7
  6
CONTINUOUS
 10
8.5
 20
0.887
 11
8.413397
 21
0.737
  0
LINE
  5
3A4
100
AcDbEntity
  8
0
100
AcDbLine
 62
7
  6
CONTINUOUS
 10
0.62
 20
7.7995
 11
0.37
 21
7.7995
  0
LINE
  5
3A5
100
AcDbEntity
  8
0
100
AcDbLine
 62
7
  6
CONTINUOUS
 10
16.38
 20
7.7995
 11
16.63
 21
7.7995
  0
LINE
  5
3A6
100
AcDbEntity
  8
0
100
AcDbLine
 62
7
  6
CONTINUOUS
 10
8.413397
 20
10.262
 11
8.5
 21
10.112
  0
LINE
  5
3A7
100
AcDbEntity
  8
0
100
AcDbLine
 62
7
  6
CONTINUOUS
 10
11.1389508475
 20
1.060596839
 11
11.1389508475
 21
1.425992839
  0
LINE
  5
3A8
100
AcDbEntity
  8
0
100
AcDbLine
 62
7
  6
CONTINUOUS
 10
11.7453418475
 20
1.495385839
 11
11.7453418475
 21
0.991203839
  0
LINE
  5
3A9
100
AcDbEntity
  8
0
100
AcDbLine
 62
7
  6
CONTINUOUS
 10
12.44
 20
0.887
 11
12.44
 21
0.637
  0
LINE
  5
3AA
100
AcDbEntity
  8
0
100
AcDbLine
 62
7
  6
CONTINUOUS
 10
12.44
 20
10.112
 11
12.44
 21
10.362
  0
LINE
  5
3AB
100
AcDbEntity
  8
0
100
AcDbLine
 62
7
  6
CONTINUOUS
 10
16.53
 20
5.586103
 11
16.38
 21
5.4995
  0
LINE
  5
3AC
100
AcDbEntity
  8
0
100
AcDbLine
 62
7
  6
CONTINUOUS
 10
16.38
 20
5.4995
 11
16.53
 21
5.412897
  0
LINE
  5
3AD
100
AcDbEntity
  8
0
100
AcDbLine
 62
7
  6
CONTINUOUS
 10
12.83
 20
1.507
 11
12.83
 21
1.137
  0
LINE
  5
3AE
100
AcDbEntity
  8
0
100
AcDbLine
 62
7
  6
CONTINUOUS
 10
16.38
 20
10.112
 11
0.62
 21
10.112
  0
LINE
  5
3AF
100
AcDbEntity
  8
0
100
AcDbLine
 62
7
  6
CONTINUOUS
 10
8.586603
 20
10.262
 11
8.413397
 21
10.262
  0
LINE
  5
3B0
100
AcDbEntity
  8
0
100
AcDbLine
 62
7
  6
CONTINUOUS
 10
14.205
 20
1.137
 11
14.205
 21
0.887
  0
LINE
  5
3B1
100
AcDbEntity
  8
0
100
AcDbLine
 62
7
  6
CONTINUOUS
 10
14.41
 20
0.887
 11
14.41
 21
0.637
  0
LINE
  5
3B2
100
AcDbEntity
  8
0
100
AcDbLine
 62
7
  6
CONTINUOUS
 10
14.41
 20
10.112
 11
14.41
 21
10.362
  0
LINE
  5
3B3
100
AcDbEntity
  8
0
100
AcDbLine
 62
7
  6
CONTINUOUS
 10
15.58
 20
1.507
 11
15.58
 21
1.137
  0
LINE
  5
3B4
100
AcDbEntity
  8
0
100
AcDbLine
 62
7
  6
CONTINUOUS
 10
16.38
 20
0.887
 11
16.38
 21
10.112
  0
LINE
  5
3B5
100
AcDbEntity
  8
0
100
AcDbLine
 62
7
  6
CONTINUOUS
 10
16.53
 20
5.412897
 11
16.53
 21
5.586103
  0
LINE
  5
3B6
100
AcDbEntity
  8
02___PRT_ALL_AXES
100
AcDbLine
 62
7
  6
CONTINUOUS
 10
5.6804707746
 20
6.8473848799
 11
5.6804707746
 21
4.8788809429
  0
LINE
  5
3B7
100
AcDbEntity
  8
0
100
AcDbLine
 62
7
  6
CONTINUOUS
 10
6.1529117195
 20
4.8788809429
 11
6.1529117195
 21
6.8473848799
  0
LINE
  5
3B8
100
AcDbEntity
  8
0
100
AcDbLine
 62
7
  6
CONTINUOUS
 10
6.1922817982
 20
4.9182510216
 11
6.1922817982
 21
6.8080148012
  0
LINE
  5
3B9
100
AcDbEntity
  8
0
100
AcDbLine
 62
7
  6
CONTINUOUS
 10
6.2316518769
 20
6.4044714941
 11
6.2316518769
 21
5.3217943287
  0
LINE
  5
3BA
100
AcDbEntity
  8
02___PRT_ALL_AXES
100
AcDbLine
 62
7
  6
CONTINUOUS
 10
5.6804707746
 20
4.8788809429
 11
6.1529117195
 21
4.8788809429
  0
LINE
  5
3BB
100
AcDbEntity
  8
0
100
AcDbLine
 62
7
  6
CONTINUOUS
 10
6.2316518769
 20
5.3217943287
 11
6.3139924739
 21
5.3217943287
  0
LINE
  5
3BC
100
AcDbEntity
  8
02___PRT_ALL_AXES
100
AcDbLine
 62
7
  6
CONTINUOUS
 10
6.3139924739
 20
5.3217943287
 11
6.8937850127
 21
5.3217943287
  0
LINE
  5
3BD
100
AcDbEntity
  8
0
100
AcDbLine
 62
7
  6
CONTINUOUS
 10
6.8937850127
 20
5.3217943287
 11
6.9403132943
 21
5.3217943287
  0
LINE
  5
3BE
100
AcDbEntity
  8
0
100
AcDbLine
 62
7
  6
CONTINUOUS
 10
6.9403132943
 20
5.3217943287
 11
6.9403132943
 21
6.4044714941
  0
LINE
  5
3BF
100
AcDbEntity
  8
0
100
AcDbLine
 62
7
  6
CONTINUOUS
 10
6.979683373
 20
5.3611644075
 11
6.979683373
 21
6.3651014153
  0
LINE
  5
3C0
100
AcDbEntity
  8
AXIS_COSMETIC_THREADS
100
AcDbLine
 62
7
  6
CONTINUOUS
 10
6.979683373
 20
5.7466329114
 11
9.5072424281
 21
5.7466329114
  0
LINE
  5
3C1
100
AcDbEntity
  8
AXIS
100
AcDbLine
 62
7
  6
CONTINUOUS
 10
9.5072424281
 20
5.7981329114
 11
9.8072424281
 21
5.7981329114
  0
LINE
  5
3C2
100
AcDbEntity
  8
AXIS
100
AcDbLine
 62
7
  6
CONTINUOUS
 10
9.5072424281
 20
5.8481329114
 11
9.8072424281
 21
5.8481329114
  0
LINE
  5
3C3
100
AcDbEntity
  8
AXIS
100
AcDbLine
 62
7
  6
CONTINUOUS
 10
9.5072424281
 20
5.8781329114
 11
9.8072424281
 21
5.8781329114
  0
LINE
  5
3C4
100
AcDbEntity
  8
AXIS
100
AcDbLine
 62
7
  6
CONTINUOUS
 10
9.5072424281
 20
5.9281329114
 11
9.8072424281
 21
5.9281329114
  0
LINE
  5
3C5
100
AcDbEntity
  8
AXIS_COSMETIC_THREADS
100
AcDbLine
 62
7
  6
CONTINUOUS
 10
6.979683373
 20
5.9796329114
 11
9.5072424281
 21
5.9796329114
  0
LINE
  5
3C6
100
AcDbEntity
  8
0
100
AcDbLine
 62
7
  6
CONTINUOUS
 10
6.2316518769
 20
6.4044714941
 11
6.2880226782
 21
6.4044714941
  0
LINE
  5
3C7
100
AcDbEntity
  8
02___PRT_ALL_AXES
100
AcDbLine
 62
7
  6
CONTINUOUS
 10
6.2880226782
 20
6.4044714941
 11
6.8678152169
 21
6.4044714941
  0
LINE
  5
3C8
100
AcDbEntity
  8
0
100
AcDbLine
 62
7
  6
CONTINUOUS
 10
6.8678152169
 20
6.4044714941
 11
6.9403132943
 21
6.4044714941
  0
LINE
  5
3C9
100
AcDbEntity
  8
02___PRT_ALL_AXES
100
AcDbLine
 62
7
  6
CONTINUOUS
 10
5.6804707746
 20
6.8473848799
 11
6.1529117195
 21
6.8473848799
  0
LINE
  5
3CA
100
AcDbEntity
  8
AXIS_COSMETIC_THREADS
100
AcDbLine
 62
7
  6
CONTINUOUS
 10
9.5072424281
 20
5.9796329114
 11
9.5072424281
 21
5.7466329114
  0
LINE
  5
3CB
100
AcDbEntity
  8
AXIS
100
AcDbLine
 62
7
  6
CONTINUOUS
 10
9.8072424281
 20
5.9281329114
 11
9.8072424281
 21
5.8781329114
  0
LINE
  5
3CC
100
AcDbEntity
  8
AXIS
100
AcDbLine
 62
7
  6
CONTINUOUS
 10
9.8072424281
 20
5.8481329114
 11
9.8072424281
 21
5.7981329114
  0
LINE
  5
3CD
100
AcDbEntity
  8
0
100
AcDbLine
 62
7
  6
CONTINUOUS
 10
11.570043761
 20
5.28242425
 11
11.7847821884
 21
5.28242425
  0
LINE
  5
3CE
100
AcDbEntity
  8
02___PRT_ALL_AXES
100
AcDbLine
 62
7
  6
CONTINUOUS
 10
11.4514290657
 20
5.3217943287
 11
11.5737155952
 21
5.3217943287
  0
LINE
  5
3CF
100
AcDbEntity
  8
0
100
AcDbLine
 62
7
  6
CONTINUOUS
 10
11.5737155952
 20
5.3217943287
 11
11.7811103541
 21
5.3217943287
  0
LINE
  5
3D0
100
AcDbEntity
  8
02___PRT_ALL_AXES
100
AcDbLine
 62
7
  6
CONTINUOUS
 10
11.7811103541
 20
5.3217943287
 11
11.9033968837
 21
5.3217943287
  0
LINE
  5
3D1
100
AcDbEntity
  8
0
100
AcDbLine
 62
7
  6
CONTINUOUS
 10
11.5775223097
 20
5.3611644075
 11
11.7773036397
 21
5.3611644075
  0
LINE
  5
3D2
100
AcDbEntity
  8
02___PRT_ALL_AXES
100
AcDbLine
 62
7
  6
CENTER
 10
11.6774129747
 20
5.8631329114
 11
11.6774129747
 21
4.7788809429
  0
LINE
  5
3D3
100
AcDbEntity
  8
02___PRT_ALL_AXES
100
AcDbLine
 62
7
  6
CENTER
 10
11.6774129747
 20
5.8631329114
 11
11.6774129747
 21
6.9473848799
  0
LINE
  5
3D4
100
AcDbEntity
  8
02___PRT_ALL_AXES
100
AcDbLine
 62
7
  6
CENTER
 10
11.6774129747
 20
5.8631329114
 11
10.5931610062
 21
5.8631329114
  0
LINE
  5
3D5
100
AcDbEntity
  8
02___PRT_ALL_AXES
100
AcDbLine
 62
7
  6
CENTER
 10
11.6774129747
 20
5.8631329114
 11
12.7616649432
 21
5.8631329114
  0
LINE
  5
3D6
100
AcDbEntity
  8
0
100
AcDbLine
 62
7
  6
CONTINUOUS
 10
11.7773036397
 20
6.3651014153
 11
11.5775223097
 21
6.3651014153
  0
LINE
  5
3D7
100
AcDbEntity
  8
02___PRT_ALL_AXES
100
AcDbLine
 62
7
  6
CONTINUOUS
 10
11.9033968837
 20
6.4044714941
 11
11.7811103541
 21
6.4044714941
  0
LINE
  5
3D8
100
AcDbEntity
  8
0
100
AcDbLine
 62
7
  6
CONTINUOUS
 10
11.7811103541
 20
6.4044714941
 11
11.5737155952
 21
6.4044714941
  0
LINE
  5
3D9
100
AcDbEntity
  8
02___PRT_ALL_AXES
100
AcDbLine
 62
7
  6
CONTINUOUS
 10
11.5737155952
 20
6.4044714941
 11
11.4514290657
 21
6.4044714941
  0
LINE
  5
3DA
100
AcDbEntity
  8
0
100
AcDbLine
 62
7
  6
CONTINUOUS
 10
11.7847821884
 20
6.4438415728
 11
11.570043761
 21
6.4438415728
  0
LINE
  5
3DB
100
AcDbEntity
  8
02___PRT_ALL_AXES
100
AcDbLine
 62
7
  6
CONTINUOUS
 10
14.0067488226
 20
8.8495858586
 11
14.0067488226
 21
8.4638366851
  0
LINE
  5
3DC
100
AcDbEntity
  8
02___PRT_ALL_AXES
100
AcDbLine
 62
7
  6
CONTINUOUS
 10
14.4484227823
 20
7.7423854817
 11
14.4484227823
 21
7.7484128126
  0
LINE
  5
3DD
100
AcDbEntity
  8
02___PRT_ALL_AXES
100
AcDbLine
 62
7
  6
CONTINUOUS
 10
14.4484227823
 20
7.7906041284
 11
14.4484227823
 21
7.7966314593
  0
LINE
  5
3DE
100
AcDbEntity
  8
02___PRT_ALL_AXES
100
AcDbLine
 62
7
  6
CONTINUOUS
 10
14.4484227823
 20
7.8388227751
 11
14.4484227823
 21
7.8448501059
  0
LINE
  5
3DF
100
AcDbEntity
  8
02___PRT_ALL_AXES
100
AcDbLine
 62
7
  6
CONTINUOUS
 10
14.4484227823
 20
7.8870414218
 11
14.4484227823
 21
7.8930687526
  0
LINE
  5
3E0
100
AcDbEntity
  8
02___PRT_ALL_AXES
100
AcDbLine
 62
7
  6
CONTINUOUS
 10
14.4484227823
 20
7.9352600685
 11
14.4484227823
 21
7.9412873993
  0
LINE
  5
3E1
100
AcDbEntity
  8
02___PRT_ALL_AXES
100
AcDbLine
 62
7
  6
CONTINUOUS
 10
14.5348927766
 20
7.9184353463
 11
14.5348927766
 21
7.9096508888
  0
LINE
  5
3E2
100
AcDbEntity
  8
02___PRT_ALL_AXES
100
AcDbLine
 62
7
  6
CONTINUOUS
 10
14.5348927766
 20
7.8702166996
 11
14.5348927766
 21
7.8614322421
  0
LINE
  5
3E3
100
AcDbEntity
  8
02___PRT_ALL_AXES
100
AcDbLine
 62
7
  6
CONTINUOUS
 10
14.5348927766
 20
7.8219980529
 11
14.5348927766
 21
7.8132135954
  0
LINE
  5
3E4
100
AcDbEntity
  8
02___PRT_ALL_AXES
100
AcDbLine
 62
7
  6
CONTINUOUS
 10
14.5348927766
 20
7.7737794062
 11
14.5348927766
 21
7.7649949487
  0
LINE
  5
3E5
100
AcDbEntity
  8
02___PRT_ALL_AXES
100
AcDbLine
 62
7
  6
CONTINUOUS
 10
14.5348927766
 20
7.7255607595
 11
14.5348927766
 21
7.7167763021
  0
LINE
  5
3E6
100
AcDbEntity
  8
0
100
AcDbLine
 62
7
  6
CONTINUOUS
 10
14.5348927766
 20
7.6773421129
 11
14.5348927766
 21
7.6422565808
  0
LINE
  5
3E7
100
AcDbEntity
  8
02___PRT_ALL_AXES
100
AcDbLine
 62
7
  6
CONTINUOUS
 10
14.6815436276
 20
7.8848919224
 11
14.6815436276
 21
7.8761074649
  0
LINE
  5
3E8
100
AcDbEntity
  8
02___PRT_ALL_AXES
100
AcDbLine
 62
7
  6
CONTINUOUS
 10
14.6815436276
 20
7.8366732757
 11
14.6815436276
 21
7.8278888183
  0
LINE
  5
3E9
100
AcDbEntity
  8
02___PRT_ALL_AXES
100
AcDbLine
 62
7
  6
CONTINUOUS
 10
14.6815436276
 20
7.7884546291
 11
14.6815436276
 21
7.7796701716
  0
LINE
  5
3EA
100
AcDbEntity
  8
02___PRT_ALL_AXES
100
AcDbLine
 62
7
  6
CONTINUOUS
 10
14.6815436276
 20
7.7402359824
 11
14.6815436276
 21
7.7314515249
  0
LINE
  5
3EB
100
AcDbEntity
  8
02___PRT_ALL_AXES
100
AcDbLine
 62
7
  6
CONTINUOUS
 10
14.6815436276
 20
7.6920173357
 11
14.6815436276
 21
7.6832328782
  0
LINE
  5
3EC
100
AcDbEntity
  8
02___PRT_ALL_AXES
100
AcDbLine
 62
7
  6
CONTINUOUS
 10
14.6815436276
 20
7.643798689
 11
14.6815436276
 21
7.6350142315
  0
LINE
  5
3ED
100
AcDbEntity
  8
0
100
AcDbLine
 62
7
  6
CONTINUOUS
 10
14.6815436276
 20
7.5955800423
 11
14.6815436276
 21
7.557589588
  0
LINE
  5
3EE
100
AcDbEntity
  8
02___PRT_ALL_AXES
100
AcDbLine
 62
7
  6
CONTINUOUS
 10
14.7680136219
 20
7.8592827427
 11
14.7680136219
 21
7.8532554119
  0
LINE
  5
3EF
100
AcDbEntity
  8
02___PRT_ALL_AXES
100
AcDbLine
 62
7
  6
CONTINUOUS
 10
14.7680136219
 20
7.8110640961
 11
14.7680136219
 21
7.8050367652
  0
LINE
  5
3F0
100
AcDbEntity
  8
02___PRT_ALL_AXES
100
AcDbLine
 62
7
  6
CONTINUOUS
 10
14.7680136219
 20
7.7628454494
 11
14.7680136219
 21
7.7568181185
  0
LINE
  5
3F1
100
AcDbEntity
  8
02___PRT_ALL_AXES
100
AcDbLine
 62
7
  6
CONTINUOUS
 10
14.7680136219
 20
7.7146268027
 11
14.7680136219
 21
7.7085994719
  0
LINE
  5
3F2
100
AcDbEntity
  8
02___PRT_ALL_AXES
100
AcDbLine
 62
7
  6
CONTINUOUS
 10
14.7680136219
 20
7.666408156
 11
14.7680136219
 21
7.6603808252
  0
LINE
  5
3F3
100
AcDbEntity
  8
02___PRT_ALL_AXES
100
AcDbLine
 62
7
  6
CONTINUOUS
 10
14.7680136219
 20
7.6181895093
 11
14.7680136219
 21
7.6121621785
  0
LINE
  5
3F4
100
AcDbEntity
  8
02___PRT_ALL_AXES
100
AcDbLine
 62
7
  6
CONTINUOUS
 10
14.7680136219
 20
7.5699708626
 11
14.7680136219
 21
7.5639435318
  0
LINE
  5
3F5
100
AcDbEntity
  8
0
100
AcDbLine
 62
7
  6
CONTINUOUS
 10
14.6889201562
 20
7.5400153909
 11
14.6903799611
 21
7.5393146995
  0
LINE
  5
3F6
100
AcDbEntity
  8
0
100
AcDbLine
 62
7
  6
CONTINUOUS
 10
14.688895736
 20
7.5400294895
 11
14.5438487249
 21
7.6237705259
  0
LINE
  5
3F7
100
AcDbEntity
  8
0
100
AcDbLine
 62
7
  6
CONTINUOUS
 10
14.6815436276
 20
7.557589588
 11
14.5348927766
 21
7.6422565808
  0
LINE
  5
3F8
100
AcDbEntity
  8
0
100
AcDbLine
 62
7
  6
CONTINUOUS
 10
14.5414842692
 20
7.6254379076
 11
14.5438264893
 21
7.6237833635
  0
LINE
  5
3F9
100
AcDbEntity
  8
AXIS_COSMETIC_THREADS
100
AcDbLine
 62
7
  6
CONTINUOUS
 10
14.8745007911
 20
7.4944064579
 11
14.8745007911
 21
5.7250175536
  0
LINE
  5
3FA
100
AcDbEntity
  8
AXIS
100
AcDbLine
 62
7
  6
CONTINUOUS
 10
14.9094322486
 20
5.6770523677
 11
14.9094322486
 21
5.4800666925
  0
LINE
  5
3FB
100
AcDbEntity
  8
AXIS
100
AcDbLine
 62
7
  6
CONTINUOUS
 10
14.9594322486
 20
5.6604478718
 11
14.9594322486
 21
5.4800666925
  0
LINE
  5
3FC
100
AcDbEntity
  8
AXIS
100
AcDbLine
 62
7
  6
CONTINUOUS
 10
14.9660010267
 20
5.6593343306
 11
14.9660010267
 21
5.4474074322
  0
LINE
  5
3FD
100
AcDbEntity
  8
AXIS
100
AcDbLine
 62
7
  6
CONTINUOUS
 10
15.0160010267
 20
5.65933437
 11
15.0160010267
 21
5.4474074322
  0
LINE
  5
3FE
100
AcDbEntity
  8
AXIS
100
AcDbLine
 62
7
  6
CONTINUOUS
 10
15.0225693336
 20
5.6604478657
 11
15.0225693336
 21
5.4800669645
  0
LINE
  5
3FF
100
AcDbEntity
  8
AXIS
100
AcDbLine
 62
7
  6
CONTINUOUS
 10
15.0725693336
 20
5.6770524137
 11
15.0725693336
 21
5.4800669645
  0
LINE
  5
400
100
AcDbEntity
  8
AXIS_COSMETIC_THREADS
100
AcDbLine
 62
7
  6
CONTINUOUS
 10
15.1075007911
 20
7.4940560419
 11
15.1075007911
 21
5.7250175536
  0
LINE
  5
401
100
AcDbEntity
  8
0
100
AcDbLine
 62
7
  6
CONTINUOUS
 10
15.9752527596
 20
8.4638313629
 11
15.9752527596
 21
8.4638366851
  0
LINE
  5
402
100
AcDbEntity
  8
02___PRT_ALL_AXES
100
AcDbLine
 62
7
  6
CONTINUOUS
 10
15.9752527596
 20
8.8495858586
 11
15.9752527596
 21
8.4638366851
  0
LINE
  5
403
100
AcDbEntity
  8
02___PRT_ALL_AXES
100
AcDbLine
 62
7
  6
CENTER
 10
2.7352650316
 20
5.8631329114
 11
2.7352650316
 21
4.7788809429
  0
LINE
  5
404
100
AcDbEntity
  8
02___PRT_ALL_AXES
100
AcDbLine
 62
7
  6
CENTER
 10
2.7352650316
 20
5.8631329114
 11
2.7352650316
 21
6.9473848799
  0
LINE
  5
405
100
AcDbEntity
  8
02___PRT_ALL_AXES
100
AcDbLine
 62
7
  6
CENTER
 10
2.7352650316
 20
5.8631329114
 11
1.6510130631
 21
5.8631329114
  0
LINE
  5
406
100
AcDbEntity
  8
02___PRT_ALL_AXES
100
AcDbLine
 62
7
  6
CENTER
 10
2.7352650316
 20
5.8631329114
 11
3.8195170001
 21
5.8631329114
  0
CIRCLE
  5
407
100
AcDbEntity
  8
0
100
AcDbCircle
 62
7
  6
CONTINUOUS
 10
10.5342808475
 20
1.243294839
 40
0.252091
  0
CIRCLE
  5
408
100
AcDbEntity
  8
0
100
AcDbCircle
 62
7
  6
CONTINUOUS
 10
10.5342808475
 20
1.243294839
 40
0.182698
  0
CIRCLE
  5
409
100
AcDbEntity
  8
0
100
AcDbCircle
 62
7
  6
CONTINUOUS
 10
10.1225539079
 20
1.9935547577
 40
0.0638444824
  0
CIRCLE
  5
40A
100
AcDbEntity
  8
02___PRT_ALL_AXES
100
AcDbCircle
 62
7
  6
CONTINUOUS
 10
2.7352650316
 20
5.8631329114
 40
0.9842519685
  0
ARC
  5
40B
100
AcDbEntity
  8
02___PRT_ALL_AXES
100
AcDbCircle
 62
7
  6
CONTINUOUS
 10
112.3483038836
 20
7.4934932001
 40
105.9729440255
100
AcDbArc
 50
180.8815229562
 51
181.0361786399
  0
ARC
  5
40C
100
AcDbEntity
  8
02___PRT_ALL_AXES
100
AcDbCircle
 62
7
  6
CONTINUOUS
 10
5.6804707746
 20
5.8631329114
 40
0.9842519685
100
AcDbArc
 50
90.0
 51
270.0
  0
ARC
  5
40D
100
AcDbEntity
  8
0
100
AcDbCircle
 62
7
  6
CONTINUOUS
 10
6.1529117195
 20
6.8080148012
 40
0.0393700787
100
AcDbArc
 50
0.0
 51
90.0
  0
ARC
  5
40E
100
AcDbEntity
  8
0
100
AcDbCircle
 62
7
  6
CONTINUOUS
 10
6.1529117195
 20
4.9182510216
 40
0.0393700787
100
AcDbArc
 50
270.0
 51
360.0
  0
ARC
  5
40F
100
AcDbEntity
  8
0
100
AcDbCircle
 62
7
  6
CONTINUOUS
 10
6.2316518769
 20
6.4438415728
 40
0.0393700787
100
AcDbArc
 50
180.0
 51
270.0
  0
ARC
  5
410
100
AcDbEntity
  8
0
100
AcDbCircle
 62
7
  6
CONTINUOUS
 10
6.2316518769
 20
5.28242425
 40
0.0393700787
100
AcDbArc
 50
90.0
 51
180.0
  0
ARC
  5
411
100
AcDbEntity
  8
0
100
AcDbCircle
 62
7
  6
CONTINUOUS
 10
6.9403132943
 20
5.3611644075
 40
0.0393700787
100
AcDbArc
 50
270.0
 51
360.0
  0
ARC
  5
412
100
AcDbEntity
  8
0
100
AcDbCircle
 62
7
  6
CONTINUOUS
 10
6.9403132943
 20
6.3651014153
 40
0.0393700787
100
AcDbArc
 50
0.0
 51
90.0
  0
ARC
  5
413
100
AcDbEntity
  8
0
100
AcDbCircle
 62
7
  6
CONTINUOUS
 10
11.3480192634
 20
5.8040777933
 40
0.0354330709
100
AcDbArc
 50
190.1642486217
 51
10.1642486217
  0
CIRCLE
  5
414
100
AcDbEntity
  8
AXIS
100
AcDbCircle
 62
7
  6
CONTINUOUS
 10
11.6374129747
 20
5.8231329114
 40
0.025
  0
ARC
  5
415
100
AcDbEntity
  8
0
100
AcDbCircle
 62
7
  6
CONTINUOUS
 10
11.3480192634
 20
5.9221880295
 40
0.0354330709
100
AcDbArc
 50
349.8357513783
 51
169.8357513783
  0
CIRCLE
  5
416
100
AcDbEntity
  8
AXIS
100
AcDbCircle
 62
7
  6
CONTINUOUS
 10
11.6374129747
 20
5.9031329114
 40
0.025
  0
ARC
  5
417
100
AcDbEntity
  8
0
100
AcDbCircle
 62
7
  6
CONTINUOUS
 10
12.0068066859
 20
5.8040777933
 40
0.0354330709
100
AcDbArc
 50
169.8357513783
 51
349.8357513783
  0
CIRCLE
  5
418
100
AcDbEntity
  8
AXIS
100
AcDbCircle
 62
7
  6
CONTINUOUS
 10
11.7174129747
 20
5.8231329114
 40
0.025
  0
ARC
  5
419
100
AcDbEntity
  8
02___PRT_ALL_AXES
100
AcDbCircle
 62
7
  6
CONTINUOUS
 10
11.6774129747
 20
5.8631329114
 40
0.9842519685
100
AcDbArc
 50
96.1106712295
 51
263.8913550294
  0
ARC
  5
41A
100
AcDbEntity
  8
02___PRT_ALL_AXES
100
AcDbCircle
 62
7
  6
CONTINUOUS
 10
11.6774129747
 20
5.8631329114
 40
0.9842519685
100
AcDbArc
 50
277.2127391617
 51
82.787260838
  0
CIRCLE
  5
41B
100
AcDbEntity
  8
0
100
AcDbCircle
 62
7
  6
CONTINUOUS
 10
11.6774129747
 20
5.8631329114
 40
0.9842519685
  0
CIRCLE
  5
41C
100
AcDbEntity
  8
0
100
AcDbCircle
 62
7
  6
CONTINUOUS
 10
11.6774129747
 20
5.8631329114
 40
0.9448818805
  0
ARC
  5
41D
100
AcDbEntity
  8
0
100
AcDbCircle
 62
7
  6
CONTINUOUS
 10
11.6774129747
 20
5.8631329114
 40
0.5905511811
100
AcDbArc
 50
280.4753138432
 51
79.5246861568
  0
ARC
  5
41E
100
AcDbEntity
  8
0
100
AcDbCircle
 62
7
  6
CONTINUOUS
 10
11.6774129747
 20
5.8631329114
 40
0.5905511811
100
AcDbArc
 50
100.4753138432
 51
259.5246861568
  0
ARC
  5
41F
100
AcDbEntity
  8
0
100
AcDbCircle
 62
7
  6
CONTINUOUS
 10
11.6774129747
 20
5.8631329114
 40
0.5511811024
100
AcDbArc
 50
100.8440625637
 51
259.1559374363
  0
ARC
  5
420
100
AcDbEntity
  8
0
100
AcDbCircle
 62
7
  6
CONTINUOUS
 10
11.6774129747
 20
5.8631329114
 40
0.5511811024
100
AcDbArc
 50
280.8440625637
 51
79.1559374363
  0
ARC
  5
421
100
AcDbEntity
  8
0
100
AcDbCircle
 62
7
  6
CONTINUOUS
 10
11.6774129747
 20
5.8631329114
 40
0.5118110236
100
AcDbArc
 50
281.2547126182
 51
78.7452873818
  0
ARC
  5
422
100
AcDbEntity
  8
0
100
AcDbCircle
 62
7
  6
CONTINUOUS
 10
11.6774129747
 20
5.8631329114
 40
0.5118110236
100
AcDbArc
 50
101.2547126182
 51
258.7452873818
  0
CIRCLE
  5
423
100
AcDbEntity
  8
0
100
AcDbCircle
 62
7
  6
CONTINUOUS
 10
11.6774129747
 20
5.8631329114
 40
0.374015748
  0
ARC
  5
424
100
AcDbEntity
  8
02___PRT_ALL_AXES
100
AcDbCircle
 62
7
  6
CONTINUOUS
 10
11.6774129747
 20
5.8631329114
 40
0.3700787402
100
AcDbArc
 50
349.8357513783
 51
10.1642486217
  0
ARC
  5
425
100
AcDbEntity
  8
02___PRT_ALL_AXES
100
AcDbCircle
 62
7
  6
CONTINUOUS
 10
11.6774129747
 20
5.8631329114
 40
0.3700787402
100
AcDbArc
 50
169.8357513783
 51
190.1642486217
  0
ARC
  5
426
100
AcDbEntity
  8
0
100
AcDbCircle
 62
7
  6
CONTINUOUS
 10
11.6774129747
 20
5.8631329114
 40
0.3051181102
100
AcDbArc
 50
193.675172929
 51
346.3247431807
  0
ARC
  5
427
100
AcDbEntity
  8
0
100
AcDbCircle
 62
7
  6
CONTINUOUS
 10
11.6774129747
 20
5.8631329114
 40
0.3051181102
100
AcDbArc
 50
13.6751729346
 51
166.324743187
  0
ARC
  5
428
100
AcDbEntity
  8
0
100
AcDbCircle
 62
7
  6
CONTINUOUS
 10
11.6774129747
 20
5.8631329114
 40
0.2992125984
100
AcDbArc
 50
349.8357513783
 51
10.1642486217
  0
ARC
  5
429
100
AcDbEntity
  8
0
100
AcDbCircle
 62
7
  6
CONTINUOUS
 10
11.6774129747
 20
5.8631329114
 40
0.2992125984
100
AcDbArc
 50
169.8357513783
 51
190.1642486217
  0
CIRCLE
  5
42A
100
AcDbEntity
  8
0
100
AcDbCircle
 62
7
  6
CONTINUOUS
 10
11.6774129747
 20
5.8631329114
 40
0.29
  0
CIRCLE
  5
42B
100
AcDbEntity
  8
0
100
AcDbCircle
 62
7
  6
CONTINUOUS
 10
11.6774129747
 20
5.8631329114
 40
0.2611324865
  0
CIRCLE
  5
42C
100
AcDbEntity
  8
0
100
AcDbCircle
 62
7
  6
CONTINUOUS
 10
11.6774129747
 20
5.8631329114
 40
0.17
  0
CIRCLE
  5
42D
100
AcDbEntity
  8
AXIS_COSMETIC_THREADS
100
AcDbCircle
 62
7
  6
CONTINUOUS
 10
11.6774129747
 20
5.8631329114
 40
0.1165
  0
CIRCLE
  5
42E
100
AcDbEntity
  8
AXIS
100
AcDbCircle
 62
7
  6
CONTINUOUS
 10
11.7174129747
 20
5.9031329114
 40
0.025
  0
ARC
  5
42F
100
AcDbEntity
  8
0
100
AcDbCircle
 62
7
  6
CONTINUOUS
 10
12.0068066859
 20
5.9221880295
 40
0.0354330709
100
AcDbArc
 50
10.1642486217
 51
190.1642486217
  0
ARC
  5
430
100
AcDbEntity
  8
02___PRT_ALL_AXES
100
AcDbCircle
 62
7
  6
CONTINUOUS
 10
14.2020011053
 20
6.936299017
 40
0.8486768878
100
AcDbArc
 50
72.6620404266
 51
73.1205002489
  0
ARC
  5
431
100
AcDbEntity
  8
02___PRT_ALL_AXES
100
AcDbCircle
 62
7
  6
CONTINUOUS
 10
14.2125641863
 20
7.0662036811
 40
0.8135843732
100
AcDbArc
 50
66.6602023711
 51
73.147994958
  0
ARC
  5
432
100
AcDbEntity
  8
02___PRT_ALL_AXES
100
AcDbCircle
 62
7
  6
CONTINUOUS
 10
14.2125641863
 20
7.1144223277
 40
0.8135843732
100
AcDbArc
 50
66.6602023709
 51
73.1479949578
  0
ARC
  5
433
100
AcDbEntity
  8
02___PRT_ALL_AXES
100
AcDbCircle
 62
7
  6
CONTINUOUS
 10
14.2125641863
 20
7.1626409744
 40
0.8135843732
100
AcDbArc
 50
66.660202371
 51
73.1479949579
  0
ARC
  5
434
100
AcDbEntity
  8
02___PRT_ALL_AXES
100
AcDbCircle
 62
7
  6
CONTINUOUS
 10
14.2125648393
 20
7.0179868193
 40
0.8135824756
100
AcDbArc
 50
66.6601947969
 51
73.1480025322
  0
ARC
  5
435
100
AcDbEntity
  8
02___PRT_ALL_AXES
100
AcDbCircle
 62
7
  6
CONTINUOUS
 10
14.2137756913
 20
6.9729783315
 40
0.8101552959
100
AcDbArc
 50
66.648876287
 51
72.6838854036
  0
ARC
  5
436
100
AcDbEntity
  8
02___PRT_ALL_AXES
100
AcDbCircle
 62
7
  6
CONTINUOUS
 10
14.6687019346
 20
8.096031657
 40
0.2727093849
100
AcDbArc
 50
214.4767513631
 51
216.1239812458
  0
ARC
  5
437
100
AcDbEntity
  8
02___PRT_ALL_AXES
100
AcDbCircle
 62
7
  6
CONTINUOUS
 10
14.6686934524
 20
8.0478069428
 40
0.2726989565
100
AcDbArc
 50
214.4728446781
 51
216.124002174
  0
ARC
  5
438
100
AcDbEntity
  8
02___PRT_ALL_AXES
100
AcDbCircle
 62
7
  6
CONTINUOUS
 10
14.6653327523
 20
7.9489984072
 40
0.2685864528
100
AcDbArc
 50
213.3763058286
 51
216.1380591879
  0
ARC
  5
439
100
AcDbEntity
  8
02___PRT_ALL_AXES
100
AcDbCircle
 62
7
  6
CONTINUOUS
 10
14.6642848817
 20
7.9542957132
 40
0.2673096761
100
AcDbArc
 50
212.9530226415
 51
216.1441458607
  0
ARC
  5
43A
100
AcDbEntity
  8
02___PRT_ALL_AXES
100
AcDbCircle
 62
7
  6
CONTINUOUS
 10
14.6526644296
 20
7.9467959709
 40
0.2534792666
100
AcDbArc
 50
210.4529084248
 51
212.9593062423
  0
ARC
  5
43B
100
AcDbEntity
  8
02___PRT_ALL_AXES
100
AcDbCircle
 62
7
  6
CONTINUOUS
 10
14.6506092886
 20
7.9394751306
 40
0.251052201
100
AcDbArc
 50
209.2374914367
 51
213.4099104409
  0
ARC
  5
43C
100
AcDbEntity
  8
02___PRT_ALL_AXES
100
AcDbCircle
 62
7
  6
CONTINUOUS
 10
14.6024840879
 20
8.0146580337
 40
0.1982690843
100
AcDbArc
 50
193.7518007581
 51
194.0561095467
  0
ARC
  5
43D
100
AcDbEntity
  8
02___PRT_ALL_AXES
100
AcDbCircle
 62
7
  6
CONTINUOUS
 10
14.6024840875
 20
7.9664393869
 40
0.1982690839
100
AcDbArc
 50
193.7518007579
 51
194.0561095471
  0
ARC
  5
43E
100
AcDbEntity
  8
02___PRT_ALL_AXES
100
AcDbCircle
 62
7
  6
CONTINUOUS
 10
14.6013912485
 20
7.9179536323
 40
0.1971440934
100
AcDbArc
 50
192.3765728036
 51
194.0579433414
  0
ARC
  5
43F
100
AcDbEntity
  8
02___PRT_ALL_AXES
100
AcDbCircle
 62
7
  6
CONTINUOUS
 10
14.6011432975
 20
8.0143341468
 40
0.196889735
100
AcDbArc
 50
192.3758992571
 51
193.753001251
  0
ARC
  5
440
100
AcDbEntity
  8
02___PRT_ALL_AXES
100
AcDbCircle
 62
7
  6
CONTINUOUS
 10
14.6011432975
 20
7.9661155001
 40
0.196889735
100
AcDbArc
 50
192.375899257
 51
193.753001251
  0
ARC
  5
441
100
AcDbEntity
  8
02___PRT_ALL_AXES
100
AcDbCircle
 62
7
  6
CONTINUOUS
 10
14.5957614042
 20
8.0132399182
 40
0.1913984021
100
AcDbArc
 50
186.614673295
 51
192.4012455445
  0
ARC
  5
442
100
AcDbEntity
  8
02___PRT_ALL_AXES
100
AcDbCircle
 62
7
  6
CONTINUOUS
 10
14.5957614042
 20
7.9650212716
 40
0.1913984021
100
AcDbArc
 50
186.614673295
 51
192.4012455445
  0
ARC
  5
443
100
AcDbEntity
  8
02___PRT_ALL_AXES
100
AcDbCircle
 62
7
  6
CONTINUOUS
 10
14.5957614042
 20
7.9168026249
 40
0.1913984021
100
AcDbArc
 50
186.614673295
 51
192.4012455445
  0
ARC
  5
444
100
AcDbEntity
  8
02___PRT_ALL_AXES
100
AcDbCircle
 62
7
  6
CONTINUOUS
 10
14.5933811361
 20
8.0129395061
 40
0.1889993754
100
AcDbArc
 50
186.2023339304
 51
186.6073292069
  0
ARC
  5
445
100
AcDbEntity
  8
02___PRT_ALL_AXES
100
AcDbCircle
 62
7
  6
CONTINUOUS
 10
14.5922615192
 20
7.9646024192
 40
0.187873567
100
AcDbArc
 50
180.0090481976
 51
186.6107370527
  0
ARC
  5
446
100
AcDbEntity
  8
02___PRT_ALL_AXES
100
AcDbCircle
 62
7
  6
CONTINUOUS
 10
14.5922615192
 20
7.9163837725
 40
0.187873567
100
AcDbArc
 50
180.0090481976
 51
186.6107370527
  0
ARC
  5
447
100
AcDbEntity
  8
02___PRT_ALL_AXES
100
AcDbCircle
 62
7
  6
CONTINUOUS
 10
14.5921684064
 20
7.8741379644
 40
0.1877804536
100
AcDbArc
 50
173.6905060835
 51
179.9924259432
  0
ARC
  5
448
100
AcDbEntity
  8
02___PRT_ALL_AXES
100
AcDbCircle
 62
7
  6
CONTINUOUS
 10
14.5921684064
 20
7.9223566111
 40
0.1877804536
100
AcDbArc
 50
173.6905060835
 51
179.9924259432
  0
ARC
  5
449
100
AcDbEntity
  8
02___PRT_ALL_AXES
100
AcDbCircle
 62
7
  6
CONTINUOUS
 10
14.5921684064
 20
7.9705752578
 40
0.1877804536
100
AcDbArc
 50
173.6905060835
 51
179.9924259432
  0
ARC
  5
44A
100
AcDbEntity
  8
AXIS_COSMETIC_THREADS
100
AcDbCircle
 62
7
  6
CONTINUOUS
 10
14.9899470771
 20
5.8481551306
 40
0.1903433037
100
AcDbArc
 50
260.7507851857
 51
262.7715082982
  0
ARC
  5
44B
100
AcDbEntity
  8
AXIS_COSMETIC_THREADS
100
AcDbCircle
 62
7
  6
CONTINUOUS
 10
14.9921756402
 20
5.8473206218
 40
0.1895001863
100
AcDbArc
 50
277.2237550915
 51
279.2536199962
  0
ARC
  5
44C
100
AcDbEntity
  8
AXIS_COSMETIC_THREADS
100
AcDbCircle
 62
7
  6
CONTINUOUS
 10
15.0182376657
 20
5.7729679726
 40
0.1102851948
100
AcDbArc
 50
299.5446239161
 51
299.9992867103
  0
ARC
  5
44D
100
AcDbEntity
  8
02___PRT_ALL_AXES
100
AcDbCircle
 62
7
  6
CONTINUOUS
 10
15.3956978802
 20
8.9016151395
 40
1.497044926
100
AcDbArc
 50
230.7457101719
 51
231.3062737534
  0
ARC
  5
44E
100
AcDbEntity
  8
0
100
AcDbCircle
 62
7
  6
CONTINUOUS
 10
15.1298441754
 20
9.0160555771
 40
1.1167075044
100
AcDbArc
 50
293.5722732884
 51
293.7060113527
  0
ARC
  5
44F
100
AcDbEntity
  8
02___PRT_ALL_AXES
100
AcDbCircle
 62
7
  6
CONTINUOUS
 10
14.9776849619
 20
8.8908776215
 40
1.0119214745
100
AcDbArc
 50
267.1945596044
 51
271.1305400484
  0
ARC
  5
450
100
AcDbEntity
  8
02___PRT_ALL_AXES
100
AcDbCircle
 62
7
  6
CONTINUOUS
 10
14.9776770017
 20
8.5524274689
 40
1.0049864996
100
AcDbArc
 50
264.2231589172
 51
272.6166580332
  0
ARC
  5
451
100
AcDbEntity
  8
02___PRT_ALL_AXES
100
AcDbCircle
 62
7
  6
CONTINUOUS
 10
14.9909987904
 20
8.8495847034
 40
0.9842539693
100
AcDbArc
 50
0.0000672438
 51
60.0004940194
  0
ARC
  5
452
100
AcDbEntity
  8
02___PRT_ALL_AXES
100
AcDbCircle
 62
7
  6
CONTINUOUS
 10
14.989459008
 20
8.8495799463
 40
0.9827101853
100
AcDbArc
 50
178.5485543129
 51
179.9996552913
  0
ARC
  5
453
100
AcDbEntity
  8
02___PRT_ALL_AXES
100
AcDbCircle
 62
7
  6
CONTINUOUS
 10
14.9779312243
 20
8.6766235289
 40
0.9473610663
100
AcDbArc
 50
262.9739200213
 51
276.0788311221
  0
ARC
  5
454
100
AcDbEntity
  8
02___PRT_ALL_AXES
100
AcDbCircle
 62
7
  6
CONTINUOUS
 10
15.003872219
 20
8.3908086064
 40
0.8135843764
100
AcDbArc
 50
246.660202384
 51
253.147994945
  0
ARC
  5
455
100
AcDbEntity
  8
02___PRT_ALL_AXES
100
AcDbCircle
 62
7
  6
CONTINUOUS
 10
15.003872219
 20
8.4390272531
 40
0.8135843764
100
AcDbArc
 50
246.660202384
 51
253.147994945
  0
ARC
  5
456
100
AcDbEntity
  8
02___PRT_ALL_AXES
100
AcDbCircle
 62
7
  6
CONTINUOUS
 10
15.003872219
 20
8.4872458998
 40
0.8135843764
100
AcDbArc
 50
246.6602023839
 51
253.1479949449
  0
ARC
  5
457
100
AcDbEntity
  8
02___PRT_ALL_AXES
100
AcDbCircle
 62
7
  6
CONTINUOUS
 10
15.003872219
 20
8.5354645465
 40
0.8135843764
100
AcDbArc
 50
246.660202384
 51
253.147994945
  0
ARC
  5
458
100
AcDbEntity
  8
02___PRT_ALL_AXES
100
AcDbCircle
 62
7
  6
CONTINUOUS
 10
15.003872219
 20
8.6319018398
 40
0.8135843764
100
AcDbArc
 50
246.6602023838
 51
253.1479949449
  0
ARC
  5
459
100
AcDbEntity
  8
02___PRT_ALL_AXES
100
AcDbCircle
 62
7
  6
CONTINUOUS
 10
15.0038722062
 20
8.3425899246
 40
0.8135843391
100
AcDbArc
 50
246.660202235
 51
253.1479950939
  0
ARC
  5
45A
100
AcDbEntity
  8
02___PRT_ALL_AXES
100
AcDbCircle
 62
7
  6
CONTINUOUS
 10
15.0038715708
 20
8.5836814214
 40
0.8135824928
100
AcDbArc
 50
246.6601948655
 51
253.1480024633
  0
ARC
  5
45B
100
AcDbEntity
  8
0
100
AcDbCircle
 62
7
  6
CONTINUOUS
 10
15.6419672905
 20
8.4641355273
 40
0.3332851696
100
AcDbArc
 50
348.4274934612
 51
359.9477104321
  0
ARC
  5
45C
100
AcDbEntity
  8
02___PRT_ALL_AXES
100
AcDbCircle
 62
7
  6
CONTINUOUS
 10
15.3114723043
 20
8.1086367556
 40
0.2709708325
100
AcDbArc
 50
327.8278446956
 51
331.8027134847
  0
ARC
  5
45D
100
AcDbEntity
  8
02___PRT_ALL_AXES
100
AcDbCircle
 62
7
  6
CONTINUOUS
 10
15.3627926523
 20
7.99025319
 40
0.2149556249
100
AcDbArc
 50
347.0854032373
 51
347.3704161328
  0
ARC
  5
45E
100
AcDbEntity
  8
02___PRT_ALL_AXES
100
AcDbCircle
 62
7
  6
CONTINUOUS
 10
15.3638100668
 20
7.9418067995
 40
0.2139130463
100
AcDbArc
 50
347.0839548065
 51
348.6325927258
  0
ARC
  5
45F
100
AcDbEntity
  8
02___PRT_ALL_AXES
100
AcDbCircle
 62
7
  6
CONTINUOUS
 10
15.3640454935
 20
7.9899760632
 40
0.2136725045
100
AcDbArc
 50
347.3694752863
 51
348.6331321677
  0
ARC
  5
460
100
AcDbEntity
  8
02___PRT_ALL_AXES
100
AcDbCircle
 62
7
  6
CONTINUOUS
 10
15.3681756837
 20
7.9409539563
 40
0.2094649741
100
AcDbArc
 50
348.6259326312
 51
354.2176935536
  0
ARC
  5
461
100
AcDbEntity
  8
02___PRT_ALL_AXES
100
AcDbCircle
 62
7
  6
CONTINUOUS
 10
15.3681756837
 20
7.989172603
 40
0.2094649741
100
AcDbArc
 50
348.6259326312
 51
354.2176935537
  0
ARC
  5
462
100
AcDbEntity
  8
02___PRT_ALL_AXES
100
AcDbCircle
 62
7
  6
CONTINUOUS
 10
15.3720916724
 20
7.9464665288
 40
0.2055219568
100
AcDbArc
 50
0.0067545286
 51
6.03968068
  0
ARC
  5
463
100
AcDbEntity
  8
02___PRT_ALL_AXES
100
AcDbCircle
 62
7
  6
CONTINUOUS
 10
15.3720916724
 20
7.8982478821
 40
0.2055219568
100
AcDbArc
 50
0.0067545286
 51
6.03968068
  0
ARC
  5
464
100
AcDbEntity
  8
02___PRT_ALL_AXES
100
AcDbCircle
 62
7
  6
CONTINUOUS
 10
15.372176847
 20
7.9404835031
 40
0.2054367818
100
AcDbArc
 50
354.2358068362
 51
359.9944007598
  0
ARC
  5
465
100
AcDbEntity
  8
02___PRT_ALL_AXES
100
AcDbCircle
 62
7
  6
CONTINUOUS
 10
15.372176847
 20
7.9887021497
 40
0.2054367818
100
AcDbArc
 50
354.2358068362
 51
359.9944007597
  0
SPLINE
  5
466
100
AcDbEntity
  8
02___PRT_ALL_AXES
100
AcDbSpline
 62
7
  6
CONTINUOUS
 70
0
 71
3
 72
23
 73
19
 74
0
 42
0.0000001
 43
0.0000001
 44
0.0000000001
 40
0.0
 40
0.0
 40
0.0
 40
0.0
 40
0.0101455754
 40
0.0239361843
 40
0.0620116039
 40
0.1131057467
 40
0.17570245
 40
0.2870156529
 40
0.4125364545
 40
0.5438956296
 40
0.672323931
 40
0.7892555141
 40
0.8409293857
 40
0.886894551
 40
0.9263825762
 40
0.9587329982
 40
0.9834093123
 40
1.0
 40
1.0
 40
1.0
 40
1.0
 10
6.3470777963
 20
6.4044714941
 30
0.0
 10
6.3474084231
 20
6.4008237185
 30
0.0
 10
6.3480057843
 20
6.3922016453
 30
0.0
 10
6.3491833424
 20
6.3698453367
 30
0.0
 10
6.3505430159
 20
6.3326978368
 30
0.0
 10
6.352108251
 20
6.2779302081
 30
0.0
 10
6.3540129947
 20
6.1967217244
 30
0.0
 10
6.3561448538
 20
6.0886429963
 30
0.0
 10
6.3584932358
 20
5.955739568
 30
0.0
 10
6.3608474372
 20
5.8166565253
 30
0.0
 10
6.3631997881
 20
5.680674774
 30
0.0
 10
6.3652196649
 20
5.573459298
 30
0.0
 10
6.3668908205
 20
5.4960135953
 30
0.0
 10
6.3680872214
 20
5.4465226285
 30
0.0
 10
6.3692792747
 20
5.4040103368
 30
0.0
 10
6.3704517514
 20
5.3691854912
 30
0.0
 10
6.3716182244
 20
5.3426350857
 30
0.0
 10
6.3725069302
 20
5.3277594025
 30
0.0
 10
6.373047592
 20
5.3217943287
 30
0.0
  0
SPLINE
  5
467
100
AcDbEntity
  8
02___PRT_ALL_AXES
100
AcDbSpline
 62
7
  6
CONTINUOUS
 70
0
 71
3
 72
23
 73
19
 74
0
 42
0.0000001
 43
0.0000001
 44
0.0000000001
 40
0.0
 40
0.0
 40
0.0
 40
0.0
 40
0.0101451951
 40
0.0239351166
 40
0.0620091597
 40
0.1131024239
 40
0.1756996811
 40
0.2870162682
 40
0.4125361568
 40
0.5438931362
 40
0.6723206307
 40
0.7892549536
 40
0.8409300467
 40
0.8868953263
 40
0.9263830597
 40
0.9587332815
 40
0.9834093968
 40
1.0
 40
1.0
 40
1.0
 40
1.0
 10
6.5832982687
 20
6.4044714941
 30
0.0
 10
6.5836288831
 20
6.4008238552
 30
0.0
 10
6.5842262414
 20
6.3922021684
 30
0.0
 10
6.5854037342
 20
6.3698467396
 30
0.0
 10
6.5867634136
 20
6.3327003036
 30
0.0
 10
6.5883286418
 20
6.2779332887
 30
0.0
 10
6.5902334295
 20
6.1967237013
 30
0.0
 10
6.5923653102
 20
6.0886438812
 30
0.0
 10
6.5947136947
 20
5.9557403535
 30
0.0
 10
6.5970678722
 20
5.8166587242
 30
0.0
 10
6.5994202203
 20
5.6806770677
 30
0.0
 10
6.6014401116
 20
5.5734604529
 30
0.0
 10
6.6031113004
 20
5.4960132792
 30
0.0
 10
6.6043077115
 20
5.4465219356
 30
0.0
 10
6.605499764
 20
5.4040097802
 30
0.0
 10
6.6066722366
 20
5.369185184
 30
0.0
 10
6.6078387022
 20
5.3426349529
 30
0.0
 10
6.6087274054
 20
5.3277593721
 30
0.0
 10
6.6092680645
 20
5.3217943287
 30
0.0
  0
SPLINE
  5
468
100
AcDbEntity
  8
02___PRT_ALL_AXES
100
AcDbSpline
 62
7
  6
CONTINUOUS
 70
0
 71
3
 72
23
 73
19
 74
0
 42
0.0000001
 43
0.0000001
 44
0.0000000001
 40
0.0
 40
0.0
 40
0.0
 40
0.0
 40
0.0101454565
 40
0.0239357241
 40
0.0620099602
 40
0.113103426
 40
0.1757013846
 40
0.2870190003
 40
0.4125403746
 40
0.5438957831
 40
0.6723218346
 40
0.7892570294
 40
0.8409325144
 40
0.8868981865
 40
0.9263858219
 40
0.9587352425
 40
0.9834099789
 40
1.0
 40
1.0
 40
1.0
 40
1.0
 10
6.3622889497
 20
5.3217943287
 30
0.0
 10
6.3619583268
 20
5.3254420615
 30
0.0
 10
6.3613609698
 20
5.3340639684
 30
0.0
 10
6.3601834457
 20
5.3564196847
 30
0.0
 10
6.3588237815
 20
5.3935663893
 30
0.0
 10
6.3572585425
 20
5.4483337995
 30
0.0
 10
6.3553537474
 20
5.5295440843
 30
0.0
 10
6.3532218489
 20
5.6376250652
 30
0.0
 10
6.3508734656
 20
5.7705289336
 30
0.0
 10
6.3485192965
 20
5.9096100113
 30
0.0
 10
6.3461669597
 20
6.0455908946
 30
0.0
 10
6.3441470667
 20
6.1528074446
 30
0.0
 10
6.3424758573
 20
6.230255216
 30
0.0
 10
6.3412794291
 20
6.2797468071
 30
0.0
 10
6.3400873736
 20
6.3222587794
 30
0.0
 10
6.338914904
 20
6.3570825526
 30
0.0
 10
6.3377484782
 20
6.3836317876
 30
0.0
 10
6.3368597941
 20
6.39850666
 30
0.0
 10
6.336319154
 20
6.4044714941
 30
0.0
  0
SPLINE
  5
469
100
AcDbEntity
  8
02___PRT_ALL_AXES
100
AcDbSpline
 62
7
  6
CONTINUOUS
 70
0
 71
3
 72
23
 73
19
 74
0
 42
0.0000001
 43
0.0000001
 44
0.0000000001
 40
0.0
 40
0.0
 40
0.0
 40
0.0
 40
0.0101455754
 40
0.0239361843
 40
0.0620116039
 40
0.1131057467
 40
0.17570245
 40
0.2870156529
 40
0.4125364545
 40
0.5438956296
 40
0.672323931
 40
0.7892555141
 40
0.8409293857
 40
0.886894551
 40
0.9263825762
 40
0.9587329982
 40
0.9834093123
 40
1.0
 40
1.0
 40
1.0
 40
1.0
 10
6.7604636231
 20
6.4044714941
 30
0.0
 10
6.7607942498
 20
6.4008237185
 30
0.0
 10
6.7613916111
 20
6.3922016453
 30
0.0
 10
6.7625691692
 20
6.3698453367
 30
0.0
 10
6.7639288427
 20
6.3326978368
 30
0.0
 10
6.7654940778
 20
6.2779302081
 30
0.0
 10
6.7673988214
 20
6.1967217244
 30
0.0
 10
6.7695306806
 20
6.0886429963
 30
0.0
 10
6.7718790626
 20
5.955739568
 30
0.0
 10
6.774233264
 20
5.8166565253
 30
0.0
 10
6.7765856148
 20
5.680674774
 30
0.0
 10
6.7786054917
 20
5.573459298
 30
0.0
 10
6.7802766472
 20
5.4960135953
 30
0.0
 10
6.7814730482
 20
5.4465226285
 30
0.0
 10
6.7826651015
 20
5.4040103368
 30
0.0
 10
6.7838375781
 20
5.3691854912
 30
0.0
 10
6.7850040512
 20
5.3426350857
 30
0.0
 10
6.785892757
 20
5.3277594025
 30
0.0
 10
6.7864334188
 20
5.3217943287
 30
0.0
  0
SPLINE
  5
46A
100
AcDbEntity
  8
02___PRT_ALL_AXES
100
AcDbSpline
 62
7
  6
CONTINUOUS
 70
0
 71
3
 72
17
 73
13
 74
0
 42
0.0000001
 43
0.0000001
 44
0.0000000001
 40
0.0
 40
0.0
 40
0.0
 40
0.0
 40
0.0359557965
 40
0.0819045597
 40
0.1368556222
 40
0.1996285174
 40
0.4206915121
 40
0.6569090557
 40
0.7664693137
 40
0.8631446752
 40
0.9422599146
 40
1.0
 40
1.0
 40
1.0
 40
1.0
 10
6.6868424466
 20
5.3217943287
 30
0.0
 10
6.6863030997
 20
5.3347621796
 30
0.0
 10
6.6853007685
 20
5.3643111632
 30
0.0
 10
6.6839602421
 20
5.4136941825
 30
0.0
 10
6.6826096274
 20
5.4727602988
 30
0.0
 10
6.6801534954
 20
5.5950285599
 30
0.0
 10
6.6770554591
 20
5.7827285125
 30
0.0
 10
6.6738415361
 20
5.9873173007
 30
0.0
 10
6.6710873657
 20
6.1470070406
 30
0.0
 10
6.6690925157
 20
6.2499920035
 30
0.0
 10
6.6671152254
 20
6.3342666771
 30
0.0
 10
6.6656148261
 20
6.3836469013
 30
0.0
 10
6.6647487089
 20
6.4044714941
 30
0.0
  0
SPLINE
  5
46B
100
AcDbEntity
  8
02___PRT_ALL_AXES
100
AcDbSpline
 62
7
  6
CONTINUOUS
 70
0
 71
3
 72
23
 73
19
 74
0
 42
0.0000001
 43
0.0000001
 44
0.0000000001
 40
0.0
 40
0.0
 40
0.0
 40
0.0
 40
0.0101451875
 40
0.0239350957
 40
0.0620091149
 40
0.1131023639
 40
0.1756996091
 40
0.2870161977
 40
0.4125360492
 40
0.5438929266
 40
0.6723204178
 40
0.7892548072
 40
0.8409299594
 40
0.8868952989
 40
0.9263830594
 40
0.958733278
 40
0.983409395
 40
1.0
 40
1.0
 40
1.0
 40
1.0
 10
6.5985094221
 20
5.3217943287
 30
0.0
 10
6.598178808
 20
5.3254419648
 30
0.0
 10
6.5975814498
 20
5.3340636441
 30
0.0
 10
6.5964039582
 20
5.3564190567
 30
0.0
 10
6.5950442787
 20
5.3935654738
 30
0.0
 10
6.5934790508
 20
5.4483324703
 30
0.0
 10
6.5915742628
 20
5.5295420483
 30
0.0
 10
6.5894423824
 20
5.6376218513
 30
0.0
 10
6.5870939986
 20
5.7705253293
 30
0.0
 10
6.5847398219
 20
5.9096069073
 30
0.0
 10
6.5823874742
 20
6.0455885498
 30
0.0
 10
6.5803675825
 20
6.1528052087
 30
0.0
 10
6.5786963927
 20
6.2302524494
 30
0.0
 10
6.5774999804
 20
6.2797438457
 30
0.0
 10
6.5763079273
 20
6.3222560313
 30
0.0
 10
6.5751354544
 20
6.3570806367
 30
0.0
 10
6.5739689887
 20
6.3836308679
 30
0.0
 10
6.5730802855
 20
6.39850645
 30
0.0
 10
6.5725396264
 20
6.4044714941
 30
0.0
  0
SPLINE
  5
46C
100
AcDbEntity
  8
02___PRT_ALL_AXES
100
AcDbSpline
 62
7
  6
CONTINUOUS
 70
0
 71
3
 72
17
 73
13
 74
0
 42
0.0000001
 43
0.0000001
 44
0.0000000001
 40
0.0
 40
0.0
 40
0.0
 40
0.0
 40
0.0359557965
 40
0.0819045597
 40
0.1368556222
 40
0.1996285174
 40
0.4206915121
 40
0.6569090557
 40
0.7664693137
 40
0.8631446752
 40
0.9422599146
 40
1.0
 40
1.0
 40
1.0
 40
1.0
 10
6.6277873284
 20
5.3217943287
 30
0.0
 10
6.6272479816
 20
5.3347621796
 30
0.0
 10
6.6262456504
 20
5.3643111632
 30
0.0
 10
6.624905124
 20
5.4136941825
 30
0.0
 10
6.6235545093
 20
5.4727602988
 30
0.0
 10
6.6210983773
 20
5.5950285599
 30
0.0
 10
6.618000341
 20
5.7827285125
 30
0.0
 10
6.614786418
 20
5.9873173007
 30
0.0
 10
6.6120322476
 20
6.1470070406
 30
0.0
 10
6.6100373976
 20
6.2499920035
 30
0.0
 10
6.6080601073
 20
6.3342666771
 30
0.0
 10
6.606559708
 20
6.3836469013
 30
0.0
 10
6.6056935908
 20
6.4044714941
 30
0.0
  0
SPLINE
  5
46D
100
AcDbEntity
  8
02___PRT_ALL_AXES
100
AcDbSpline
 62
7
  6
CONTINUOUS
 70
0
 71
3
 72
17
 73
13
 74
0
 42
0.0000001
 43
0.0000001
 44
0.0000000001
 40
0.0
 40
0.0
 40
0.0
 40
0.0
 40
0.0359557965
 40
0.0819045597
 40
0.1368556222
 40
0.1996285174
 40
0.4206915121
 40
0.6569090557
 40
0.7664693137
 40
0.8631446752
 40
0.9422599146
 40
1.0
 40
1.0
 40
1.0
 40
1.0
 10
6.5687322103
 20
5.3217943287
 30
0.0
 10
6.5681928635
 20
5.3347621796
 30
0.0
 10
6.5671905323
 20
5.3643111632
 30
0.0
 10
6.5658500059
 20
5.4136941825
 30
0.0
 10
6.5644993911
 20
5.4727602988
 30
0.0
 10
6.5620432592
 20
5.5950285599
 30
0.0
 10
6.5589452229
 20
5.7827285125
 30
0.0
 10
6.5557312999
 20
5.9873173007
 30
0.0
 10
6.5529771295
 20
6.1470070406
 30
0.0
 10
6.5509822795
 20
6.2499920035
 30
0.0
 10
6.5490049892
 20
6.3342666771
 30
0.0
 10
6.5475045899
 20
6.3836469013
 30
0.0
 10
6.5466384727
 20
6.4044714941
 30
0.0
  0
SPLINE
  5
46E
100
AcDbEntity
  8
02___PRT_ALL_AXES
100
AcDbSpline
 62
7
  6
CONTINUOUS
 70
0
 71
3
 72
17
 73
13
 74
0
 42
0.0000001
 43
0.0000001
 44
0.0000000001
 40
0.0
 40
0.0
 40
0.0
 40
0.0
 40
0.0359557965
 40
0.0819045597
 40
0.1368556222
 40
0.1996285174
 40
0.4206915121
 40
0.6569090557
 40
0.7664693137
 40
0.8631446752
 40
0.9422599146
 40
1.0
 40
1.0
 40
1.0
 40
1.0
 10
6.5096770922
 20
5.3217943287
 30
0.0
 10
6.5091377453
 20
5.3347621796
 30
0.0
 10
6.5081354142
 20
5.3643111632
 30
0.0
 10
6.5067948877
 20
5.4136941825
 30
0.0
 10
6.505444273
 20
5.4727602988
 30
0.0
 10
6.5029881411
 20
5.5950285599
 30
0.0
 10
6.4998901047
 20
5.7827285125
 30
0.0
 10
6.4966761818
 20
5.9873173007
 30
0.0
 10
6.4939220114
 20
6.1470070406
 30
0.0
 10
6.4919271614
 20
6.2499920035
 30
0.0
 10
6.4899498711
 20
6.3342666771
 30
0.0
 10
6.4884494718
 20
6.3836469013
 30
0.0
 10
6.4875833546
 20
6.4044714941
 30
0.0
  0
SPLINE
  5
46F
100
AcDbEntity
  8
02___PRT_ALL_AXES
100
AcDbSpline
 62
7
  6
CONTINUOUS
 70
0
 71
3
 72
23
 73
19
 74
0
 42
0.0000001
 43
0.0000001
 44
0.0000000001
 40
0.0
 40
0.0
 40
0.0
 40
0.0
 40
0.0101452476
 40
0.0239350997
 40
0.0620087332
 40
0.1131021202
 40
0.1756997676
 40
0.2870171135
 40
0.4125378475
 40
0.5438925416
 40
0.6723198744
 40
0.7892553187
 40
0.8409309736
 40
0.8868968808
 40
0.9263845813
 40
0.9587340918
 40
0.9834095724
 40
1.0
 40
1.0
 40
1.0
 40
1.0
 10
6.2880226782
 20
6.4044714941
 30
0.0
 10
6.2883532943
 20
6.4008238364
 30
0.0
 10
6.2889506483
 20
6.3922021553
 30
0.0
 10
6.2901281407
 20
6.3698468808
 30
0.0
 10
6.2914878104
 20
6.332700573
 30
0.0
 10
6.2930530471
 20
6.277933521
 30
0.0
 10
6.2949578435
 20
6.1967234746
 30
0.0
 10
6.2970897382
 20
6.0886429346
 30
0.0
 10
6.2994381153
 20
5.9557396527
 30
0.0
 10
6.301792284
 20
5.8166586015
 30
0.0
 10
6.3041446233
 20
5.6806774234
 30
0.0
 10
6.3061645245
 20
5.5734602595
 30
0.0
 10
6.3078357319
 20
5.4960122517
 30
0.0
 10
6.3090321612
 20
5.446520491
 30
0.0
 10
6.3102242134
 20
5.4040083777
 30
0.0
 10
6.311396683
 20
5.3691842796
 30
0.0
 10
6.3125631278
 20
5.3426345973
 30
0.0
 10
6.3134518206
 20
5.327759309
 30
0.0
 10
6.3139924739
 20
5.3217943287
 30
0.0
  0
SPLINE
  5
470
100
AcDbEntity
  8
02___PRT_ALL_AXES
100
AcDbSpline
 62
7
  6
CONTINUOUS
 70
0
 71
3
 72
17
 73
13
 74
0
 42
0.0000001
 43
0.0000001
 44
0.0000000001
 40
0.0
 40
0.0
 40
0.0
 40
0.0
 40
0.0359557965
 40
0.0819045597
 40
0.1368556222
 40
0.1996285174
 40
0.4206915121
 40
0.6569090557
 40
0.7664693137
 40
0.8631446752
 40
0.9422599146
 40
1.0
 40
1.0
 40
1.0
 40
1.0
 10
6.6942243363
 20
5.3217943287
 30
0.0
 10
6.6936849894
 20
5.3347621796
 30
0.0
 10
6.6926826583
 20
5.3643111632
 30
0.0
 10
6.6913421318
 20
5.4136941825
 30
0.0
 10
6.6899915171
 20
5.4727602988
 30
0.0
 10
6.6875353852
 20
5.5950285599
 30
0.0
 10
6.6844373488
 20
5.7827285125
 30
0.0
 10
6.6812234258
 20
5.9873173007
 30
0.0
 10
6.6784692555
 20
6.1470070406
 30
0.0
 10
6.6764744055
 20
6.2499920035
 30
0.0
 10
6.6744971152
 20
6.3342666771
 30
0.0
 10
6.6729967159
 20
6.3836469013
 30
0.0
 10
6.6721305986
 20
6.4044714941
 30
0.0
  0
SPLINE
  5
471
100
AcDbEntity
  8
02___PRT_ALL_AXES
100
AcDbSpline
 62
7
  6
CONTINUOUS
 70
0
 71
3
 72
23
 73
19
 74
0
 42
0.0000001
 43
0.0000001
 44
0.0000000001
 40
0.0
 40
0.0
 40
0.0
 40
0.0
 40
0.0101452476
 40
0.0239350997
 40
0.0620087332
 40
0.1131021202
 40
0.1756997676
 40
0.2870171135
 40
0.4125378475
 40
0.5438925416
 40
0.6723198744
 40
0.7892553187
 40
0.8409309736
 40
0.8868968808
 40
0.9263845813
 40
0.9587340918
 40
0.9834095724
 40
1.0
 40
1.0
 40
1.0
 40
1.0
 10
6.701408505
 20
6.4044714941
 30
0.0
 10
6.701739121
 20
6.4008238364
 30
0.0
 10
6.7023364751
 20
6.3922021553
 30
0.0
 10
6.7035139675
 20
6.3698468808
 30
0.0
 10
6.7048736372
 20
6.332700573
 30
0.0
 10
6.7064388739
 20
6.277933521
 30
0.0
 10
6.7083436703
 20
6.1967234746
 30
0.0
 10
6.710475565
 20
6.0886429346
 30
0.0
 10
6.7128239421
 20
5.9557396527
 30
0.0
 10
6.7151781107
 20
5.8166586015
 30
0.0
 10
6.7175304501
 20
5.6806774234
 30
0.0
 10
6.7195503513
 20
5.5734602595
 30
0.0
 10
6.7212215586
 20
5.4960122517
 30
0.0
 10
6.722417988
 20
5.446520491
 30
0.0
 10
6.7236100402
 20
5.4040083777
 30
0.0
 10
6.7247825098
 20
5.3691842796
 30
0.0
 10
6.7259489546
 20
5.3426345973
 30
0.0
 10
6.7268376473
 20
5.327759309
 30
0.0
 10
6.7273783007
 20
5.3217943287
 30
0.0
  0
SPLINE
  5
472
100
AcDbEntity
  8
02___PRT_ALL_AXES
100
AcDbSpline
 62
7
  6
CONTINUOUS
 70
0
 71
3
 72
11
 73
7
 74
0
 42
0.0000001
 43
0.0000001
 44
0.0000000001
 40
0.0
 40
0.0
 40
0.0
 40
0.0
 40
0.1655201767
 40
0.3977764303
 40
0.6819783933
 40
1.0
 40
1.0
 40
1.0
 40
1.0
 10
6.6351692182
 20
5.3217943287
 30
0.0
 10
6.6341451082
 20
5.3464176395
 30
0.0
 10
6.6324330954
 20
5.4056213913
 30
0.0
 10
6.6301752461
 20
5.5071365353
 30
0.0
 10
6.6279008505
 20
5.631363509
 30
0.0
 10
6.6264161525
 20
5.7210172712
 30
0.0
 10
6.6256474872
 20
5.7683618441
 30
0.0
  0
LINE
  5
473
100
AcDbEntity
  8
02___PRT_ALL_AXES
100
AcDbLine
 62
7
  6
CONTINUOUS
 10
6.6256474872
 20
5.7683618441
 11
6.6252839862
 21
5.790816258
  0
LINE
  5
474
100
AcDbEntity
  8
02___PRT_ALL_AXES
100
AcDbLine
 62
7
  6
CONTINUOUS
 10
6.6252839862
 20
5.790816258
 11
6.622961353
 21
5.935409892
  0
LINE
  5
475
100
AcDbEntity
  8
02___PRT_ALL_AXES
100
AcDbLine
 62
7
  6
CONTINUOUS
 10
6.622961353
 20
5.935409892
 11
6.6225978614
 21
5.9578639483
  0
SPLINE
  5
476
100
AcDbEntity
  8
02___PRT_ALL_AXES
100
AcDbSpline
 62
7
  6
CONTINUOUS
 70
0
 71
3
 72
11
 73
7
 74
0
 42
0.0000001
 43
0.0000001
 44
0.0000000001
 40
0.0
 40
0.0
 40
0.0
 40
0.0
 40
0.3180204114
 40
0.6022235904
 40
0.8344809387
 40
1.0
 40
1.0
 40
1.0
 40
1.0
 10
6.6225978614
 20
5.9578639483
 30
0.0
 10
6.6218291388
 20
6.0052125869
 30
0.0
 10
6.6203443344
 20
6.0948743882
 30
0.0
 10
6.6180697933
 20
6.2191126636
 30
0.0
 10
6.6158117972
 20
6.3206370855
 30
0.0
 10
6.6140996754
 20
6.3798461422
 30
0.0
 10
6.6130754805
 20
6.4044714941
 30
0.0
  0
SPLINE
  5
477
100
AcDbEntity
  8
02___PRT_ALL_AXES
100
AcDbSpline
 62
7
  6
CONTINUOUS
 70
0
 71
3
 72
17
 73
13
 74
0
 42
0.0000001
 43
0.0000001
 44
0.0000000001
 40
0.0
 40
0.0
 40
0.0
 40
0.0
 40
0.0359557965
 40
0.0819045597
 40
0.1368556222
 40
0.1996285174
 40
0.4206915121
 40
0.6569090557
 40
0.7664693137
 40
0.8631446752
 40
0.9422599146
 40
1.0
 40
1.0
 40
1.0
 40
1.0
 10
6.5761141001
 20
5.3217943287
 30
0.0
 10
6.5755747532
 20
5.3347621796
 30
0.0
 10
6.5745724221
 20
5.3643111632
 30
0.0
 10
6.5732318956
 20
5.4136941825
 30
0.0
 10
6.5718812809
 20
5.4727602988
 30
0.0
 10
6.569425149
 20
5.5950285599
 30
0.0
 10
6.5663271126
 20
5.7827285125
 30
0.0
 10
6.5631131896
 20
5.9873173007
 30
0.0
 10
6.5603590193
 20
6.1470070406
 30
0.0
 10
6.5583641693
 20
6.2499920035
 30
0.0
 10
6.556386879
 20
6.3342666771
 30
0.0
 10
6.5548864796
 20
6.3836469013
 30
0.0
 10
6.5540203624
 20
6.4044714941
 30
0.0
  0
SPLINE
  5
478
100
AcDbEntity
  8
02___PRT_ALL_AXES
100
AcDbSpline
 62
7
  6
CONTINUOUS
 70
0
 71
3
 72
17
 73
13
 74
0
 42
0.0000001
 43
0.0000001
 44
0.0000000001
 40
0.0
 40
0.0
 40
0.0
 40
0.0
 40
0.0359557965
 40
0.0819045597
 40
0.1368556222
 40
0.1996285174
 40
0.4206915121
 40
0.6569090557
 40
0.7664693137
 40
0.8631446752
 40
0.9422599146
 40
1.0
 40
1.0
 40
1.0
 40
1.0
 10
6.517058982
 20
5.3217943287
 30
0.0
 10
6.5165196351
 20
5.3347621796
 30
0.0
 10
6.515517304
 20
5.3643111632
 30
0.0
 10
6.5141767775
 20
5.4136941825
 30
0.0
 10
6.5128261628
 20
5.4727602988
 30
0.0
 10
6.5103700309
 20
5.5950285599
 30
0.0
 10
6.5072719945
 20
5.7827285125
 30
0.0
 10
6.5040580715
 20
5.9873173007
 30
0.0
 10
6.5013039012
 20
6.1470070406
 30
0.0
 10
6.4993090512
 20
6.2499920035
 30
0.0
 10
6.4973317609
 20
6.3342666771
 30
0.0
 10
6.4958313615
 20
6.3836469013
 30
0.0
 10
6.4949652443
 20
6.4044714941
 30
0.0
  0
SPLINE
  5
479
100
AcDbEntity
  8
02___PRT_ALL_AXES
100
AcDbSpline
 62
7
  6
CONTINUOUS
 70
0
 71
3
 72
17
 73
13
 74
0
 42
0.0000001
 43
0.0000001
 44
0.0000000001
 40
0.0
 40
0.0
 40
0.0
 40
0.0
 40
0.0359557965
 40
0.0819045597
 40
0.1368556222
 40
0.1996285174
 40
0.4206915121
 40
0.6569090557
 40
0.7664693137
 40
0.8631446752
 40
0.9422599146
 40
1.0
 40
1.0
 40
1.0
 40
1.0
 10
6.8640078009
 20
5.3217943287
 30
0.0
 10
6.863468454
 20
5.3347621796
 30
0.0
 10
6.8624661229
 20
5.3643111632
 30
0.0
 10
6.8611255964
 20
5.4136941825
 30
0.0
 10
6.8597749817
 20
5.4727602988
 30
0.0
 10
6.8573188498
 20
5.5950285599
 30
0.0
 10
6.8542208134
 20
5.7827285125
 30
0.0
 10
6.8510068904
 20
5.9873173007
 30
0.0
 10
6.8482527201
 20
6.1470070406
 30
0.0
 10
6.8462578701
 20
6.2499920035
 30
0.0
 10
6.8442805798
 20
6.3342666771
 30
0.0
 10
6.8427801804
 20
6.3836469013
 30
0.0
 10
6.8419140632
 20
6.4044714941
 30
0.0
  0
SPLINE
  5
47A
100
AcDbEntity
  8
02___PRT_ALL_AXES
100
AcDbSpline
 62
7
  6
CONTINUOUS
 70
0
 71
3
 72
23
 73
19
 74
0
 42
0.0000001
 43
0.0000001
 44
0.0000000001
 40
0.0
 40
0.0
 40
0.0
 40
0.0
 40
0.0101455494
 40
0.0239361034
 40
0.0620113559
 40
0.113105405
 40
0.1757027379
 40
0.2870176796
 40
0.412537966
 40
0.5438968035
 40
0.6723247205
 40
0.7892572192
 40
0.8409306082
 40
0.8868951288
 40
0.9263828641
 40
0.9587331681
 40
0.9834093632
 40
1.0
 40
1.0
 40
1.0
 40
1.0
 10
6.4651880325
 20
6.4044714941
 30
0.0
 10
6.4655186584
 20
6.4008237278
 30
0.0
 10
6.4661160193
 20
6.3922016839
 30
0.0
 10
6.4672935715
 20
6.3698454646
 30
0.0
 10
6.4686532447
 20
6.3326980788
 30
0.0
 10
6.4702184848
 20
6.277930317
 30
0.0
 10
6.4721232469
 20
6.1967210123
 30
0.0
 10
6.4742551166
 20
6.0886416153
 30
0.0
 10
6.4766035005
 20
5.9557378671
 30
0.0
 10
6.478957695
 20
5.816655271
 30
0.0
 10
6.4813100474
 20
5.6806734498
 30
0.0
 10
6.4833299276
 20
5.5734579563
 30
0.0
 10
6.4850010859
 20
5.49601233
 30
0.0
 10
6.4861974778
 20
5.4465218748
 30
0.0
 10
6.4873895223
 20
5.404009963
 30
0.0
 10
6.4885619952
 20
5.3691853077
 30
0.0
 10
6.4897284638
 20
5.342635006
 30
0.0
 10
6.4906171681
 20
5.3277593842
 30
0.0
 10
6.4911578283
 20
5.3217943287
 30
0.0
  0
SPLINE
  5
47B
100
AcDbEntity
  8
02___PRT_ALL_AXES
100
AcDbSpline
 62
7
  6
CONTINUOUS
 70
0
 71
3
 72
23
 73
19
 74
0
 42
0.0000001
 43
0.0000001
 44
0.0000000001
 40
0.0
 40
0.0
 40
0.0
 40
0.0
 40
0.0101452548
 40
0.0239351129
 40
0.0620087422
 40
0.1131021324
 40
0.1756997868
 40
0.2870171578
 40
0.4125379357
 40
0.5438926012
 40
0.6723199164
 40
0.7892553626
 40
0.8409310211
 40
0.8868969325
 40
0.9263846339
 40
0.9587341312
 40
0.9834095806
 40
1.0
 40
1.0
 40
1.0
 40
1.0
 10
6.8937850127
 20
5.3217943287
 30
0.0
 10
6.8934543964
 20
5.325441989
 30
0.0
 10
6.8928570425
 20
5.3340636749
 30
0.0
 10
6.8916795493
 20
5.3564189526
 30
0.0
 10
6.8903198803
 20
5.3935652622
 30
0.0
 10
6.8887546433
 20
5.4483323163
 30
0.0
 10
6.8868498468
 20
5.5295423755
 30
0.0
 10
6.8847179516
 20
5.637622943
 30
0.0
 10
6.8823695744
 20
5.7705262395
 30
0.0
 10
6.8800154057
 20
5.9096072899
 30
0.0
 10
6.8776630666
 20
6.0455884519
 30
0.0
 10
6.8756431654
 20
6.1528056115
 30
0.0
 10
6.8739719578
 20
6.2302536227
 30
0.0
 10
6.8727755283
 20
6.2797453866
 30
0.0
 10
6.8715834759
 20
6.322257497
 30
0.0
 10
6.8704110065
 20
6.3570815794
 30
0.0
 10
6.8692445622
 20
6.3836312427
 30
0.0
 10
6.86835587
 20
6.3985065168
 30
0.0
 10
6.8678152169
 20
6.4044714941
 30
0.0
  0
SPLINE
  5
47C
100
AcDbEntity
  8
02___PRT_ALL_AXES
100
AcDbSpline
 62
7
  6
CONTINUOUS
 70
0
 71
3
 72
17
 73
13
 74
0
 42
0.0000001
 43
0.0000001
 44
0.0000000001
 40
0.0
 40
0.0
 40
0.0
 40
0.0
 40
0.0359557965
 40
0.0819045597
 40
0.1368556222
 40
0.1996285174
 40
0.4206915121
 40
0.6569090557
 40
0.7664693137
 40
0.8631446752
 40
0.9422599146
 40
1.0
 40
1.0
 40
1.0
 40
1.0
 10
6.4506219741
 20
5.3217943287
 30
0.0
 10
6.4500826272
 20
5.3347621796
 30
0.0
 10
6.4490802961
 20
5.3643111632
 30
0.0
 10
6.4477397696
 20
5.4136941825
 30
0.0
 10
6.4463891549
 20
5.4727602988
 30
0.0
 10
6.443933023
 20
5.5950285599
 30
0.0
 10
6.4408349866
 20
5.7827285125
 30
0.0
 10
6.4376210636
 20
5.9873173007
 30
0.0
 10
6.4348668933
 20
6.1470070406
 30
0.0
 10
6.4328720433
 20
6.2499920035
 30
0.0
 10
6.430894753
 20
6.3342666771
 30
0.0
 10
6.4293943537
 20
6.3836469013
 30
0.0
 10
6.4285282364
 20
6.4044714941
 30
0.0
  0
SPLINE
  5
47D
100
AcDbEntity
  8
02___PRT_ALL_AXES
100
AcDbSpline
 62
7
  6
CONTINUOUS
 70
0
 71
3
 72
23
 73
19
 74
0
 42
0.0000001
 43
0.0000001
 44
0.0000000001
 40
0.0
 40
0.0
 40
0.0
 40
0.0
 40
0.0101454565
 40
0.0239357241
 40
0.0620099602
 40
0.113103426
 40
0.1757013846
 40
0.2870190003
 40
0.4125403746
 40
0.5438957831
 40
0.6723218346
 40
0.7892570294
 40
0.8409325144
 40
0.8868981865
 40
0.9263858219
 40
0.9587352425
 40
0.9834099789
 40
1.0
 40
1.0
 40
1.0
 40
1.0
 10
6.7756747765
 20
5.3217943287
 30
0.0
 10
6.7753441536
 20
5.3254420615
 30
0.0
 10
6.7747467965
 20
5.3340639684
 30
0.0
 10
6.7735692725
 20
5.3564196847
 30
0.0
 10
6.7722096082
 20
5.3935663893
 30
0.0
 10
6.7706443693
 20
5.4483337995
 30
0.0
 10
6.7687395741
 20
5.5295440843
 30
0.0
 10
6.7666076756
 20
5.6376250652
 30
0.0
 10
6.7642592923
 20
5.7705289336
 30
0.0
 10
6.7619051233
 20
5.9096100113
 30
0.0
 10
6.7595527864
 20
6.0455908946
 30
0.0
 10
6.7575328934
 20
6.1528074446
 30
0.0
 10
6.7558616841
 20
6.230255216
 30
0.0
 10
6.7546652559
 20
6.2797468071
 30
0.0
 10
6.7534732004
 20
6.3222587794
 30
0.0
 10
6.7523007308
 20
6.3570825526
 30
0.0
 10
6.751134305
 20
6.3836317876
 30
0.0
 10
6.7502456208
 20
6.39850666
 30
0.0
 10
6.7497049807
 20
6.4044714941
 30
0.0
  0
SPLINE
  5
47E
100
AcDbEntity
  8
02___PRT_ALL_AXES
100
AcDbSpline
 62
7
  6
CONTINUOUS
 70
0
 71
3
 72
23
 73
19
 74
0
 42
0.0000001
 43
0.0000001
 44
0.0000000001
 40
0.0
 40
0.0
 40
0.0
 40
0.0
 40
0.0101452548
 40
0.0239351129
 40
0.0620087422
 40
0.1131021324
 40
0.1756997868
 40
0.2870171578
 40
0.4125379357
 40
0.5438926012
 40
0.6723199164
 40
0.7892553626
 40
0.8409310211
 40
0.8868969325
 40
0.9263846339
 40
0.9587341312
 40
0.9834095806
 40
1.0
 40
1.0
 40
1.0
 40
1.0
 10
6.4803991859
 20
5.3217943287
 30
0.0
 10
6.4800685696
 20
5.325441989
 30
0.0
 10
6.4794712157
 20
5.3340636749
 30
0.0
 10
6.4782937226
 20
5.3564189526
 30
0.0
 10
6.4769340535
 20
5.3935652622
 30
0.0
 10
6.4753688165
 20
5.4483323163
 30
0.0
 10
6.47346402
 20
5.5295423755
 30
0.0
 10
6.4713321248
 20
5.637622943
 30
0.0
 10
6.4689837476
 20
5.7705262395
 30
0.0
 10
6.466629579
 20
5.9096072899
 30
0.0
 10
6.4642772399
 20
6.0455884519
 30
0.0
 10
6.4622573386
 20
6.1528056115
 30
0.0
 10
6.460586131
 20
6.2302536227
 30
0.0
 10
6.4593897015
 20
6.2797453866
 30
0.0
 10
6.4581976491
 20
6.322257497
 30
0.0
 10
6.4570251798
 20
6.3570815794
 30
0.0
 10
6.4558587354
 20
6.3836312427
 30
0.0
 10
6.4549700433
 20
6.3985065168
 30
0.0
 10
6.4544293902
 20
6.4044714941
 30
0.0
  0
SPLINE
  5
47F
100
AcDbEntity
  8
02___PRT_ALL_AXES
100
AcDbSpline
 62
7
  6
CONTINUOUS
 70
0
 71
3
 72
17
 73
13
 74
0
 42
0.0000001
 43
0.0000001
 44
0.0000000001
 40
0.0
 40
0.0
 40
0.0
 40
0.0
 40
0.0359557965
 40
0.0819045597
 40
0.1368556222
 40
0.1996285174
 40
0.4206915121
 40
0.6569090557
 40
0.7664693137
 40
0.8631446752
 40
0.9422599146
 40
1.0
 40
1.0
 40
1.0
 40
1.0
 10
6.8049526828
 20
5.3217943287
 30
0.0
 10
6.8044133359
 20
5.3347621796
 30
0.0
 10
6.8034110048
 20
5.3643111632
 30
0.0
 10
6.8020704783
 20
5.4136941825
 30
0.0
 10
6.8007198636
 20
5.4727602988
 30
0.0
 10
6.7982637316
 20
5.5950285599
 30
0.0
 10
6.7951656953
 20
5.7827285125
 30
0.0
 10
6.7919517723
 20
5.9873173007
 30
0.0
 10
6.789197602
 20
6.1470070406
 30
0.0
 10
6.787202752
 20
6.2499920035
 30
0.0
 10
6.7852254617
 20
6.3342666771
 30
0.0
 10
6.7837250623
 20
6.3836469013
 30
0.0
 10
6.7828589451
 20
6.4044714941
 30
0.0
  0
SPLINE
  5
480
100
AcDbEntity
  8
02___PRT_ALL_AXES
100
AcDbSpline
 62
7
  6
CONTINUOUS
 70
0
 71
3
 72
17
 73
13
 74
0
 42
0.0000001
 43
0.0000001
 44
0.0000000001
 40
0.0
 40
0.0
 40
0.0
 40
0.0
 40
0.0359557965
 40
0.0819045597
 40
0.1368556222
 40
0.1996285174
 40
0.4206915121
 40
0.6569090557
 40
0.7664693137
 40
0.8631446752
 40
0.9422599146
 40
1.0
 40
1.0
 40
1.0
 40
1.0
 10
6.391566856
 20
5.3217943287
 30
0.0
 10
6.3910275091
 20
5.3347621796
 30
0.0
 10
6.390025178
 20
5.3643111632
 30
0.0
 10
6.3886846515
 20
5.4136941825
 30
0.0
 10
6.3873340368
 20
5.4727602988
 30
0.0
 10
6.3848779049
 20
5.5950285599
 30
0.0
 10
6.3817798685
 20
5.7827285125
 30
0.0
 10
6.3785659455
 20
5.9873173007
 30
0.0
 10
6.3758117752
 20
6.1470070406
 30
0.0
 10
6.3738169252
 20
6.2499920035
 30
0.0
 10
6.3718396349
 20
6.3342666771
 30
0.0
 10
6.3703392356
 20
6.3836469013
 30
0.0
 10
6.3694731183
 20
6.4044714941
 30
0.0
  0
SPLINE
  5
481
100
AcDbEntity
  8
02___PRT_ALL_AXES
100
AcDbSpline
 62
7
  6
CONTINUOUS
 70
0
 71
3
 72
23
 73
19
 74
0
 42
0.0000001
 43
0.0000001
 44
0.0000000001
 40
0.0
 40
0.0
 40
0.0
 40
0.0
 40
0.0101455748
 40
0.0239361837
 40
0.0620116066
 40
0.1131057558
 40
0.1757024898
 40
0.2870157063
 40
0.4125364941
 40
0.5438956661
 40
0.6723239775
 40
0.7892555714
 40
0.8409294136
 40
0.8868945601
 40
0.9263825803
 40
0.958732999
 40
0.9834093115
 40
1.0
 40
1.0
 40
1.0
 40
1.0
 10
6.8347298946
 20
5.3217943287
 30
0.0
 10
6.8343992678
 20
5.3254421041
 30
0.0
 10
6.8338019066
 20
5.334064177
 30
0.0
 10
6.8326243484
 20
5.3564204867
 30
0.0
 10
6.8312646748
 20
5.39356799
 30
0.0
 10
6.8296994393
 20
5.4483356334
 30
0.0
 10
6.8277946955
 20
5.5295441353
 30
0.0
 10
6.8256628362
 20
5.6376228744
 30
0.0
 10
6.8233144543
 20
5.7705263015
 30
0.0
 10
6.8209602529
 20
5.9096093417
 30
0.0
 10
6.8186079019
 20
6.0455910995
 30
0.0
 10
6.816588025
 20
6.1528065724
 30
0.0
 10
6.8149168696
 20
6.2302522616
 30
0.0
 10
6.8137204691
 20
6.2797432092
 30
0.0
 10
6.812528416
 20
6.3222554911
 30
0.0
 10
6.8113559395
 20
6.3570803331
 30
0.0
 10
6.8101894664
 20
6.3836307371
 30
0.0
 10
6.8093007607
 20
6.39850642
 30
0.0
 10
6.8087600988
 20
6.4044714941
 30
0.0
  0
SPLINE
  5
482
100
AcDbEntity
  8
02___PRT_ALL_AXES
100
AcDbSpline
 62
7
  6
CONTINUOUS
 70
0
 71
3
 72
23
 73
19
 74
0
 42
0.0000001
 43
0.0000001
 44
0.0000000001
 40
0.0
 40
0.0
 40
0.0
 40
0.0
 40
0.0101455339
 40
0.0239360511
 40
0.0620112108
 40
0.1131050079
 40
0.1757022252
 40
0.2870187848
 40
0.4125396848
 40
0.5438969938
 40
0.6723230213
 40
0.789257422
 40
0.8409325602
 40
0.8868979428
 40
0.9263854182
 40
0.9587349903
 40
0.9834100468
 40
1.0
 40
1.0
 40
1.0
 40
1.0
 10
6.5242431506
 20
6.4044714941
 30
0.0
 10
6.524573776
 20
6.4008237334
 30
0.0
 10
6.5251711366
 20
6.3922017084
 30
0.0
 10
6.5263486855
 20
6.3698455414
 30
0.0
 10
6.5277083553
 20
6.3326982934
 30
0.0
 10
6.5292735936
 20
6.2779306977
 30
0.0
 10
6.531178367
 20
6.1967209418
 30
0.0
 10
6.5333102511
 20
6.0886407809
 30
0.0
 10
6.5356586368
 20
5.955736779
 30
0.0
 10
6.5380128144
 20
5.8166551951
 30
0.0
 10
6.5403651583
 20
5.6806739211
 30
0.0
 10
6.5423850461
 20
5.5734577916
 30
0.0
 10
6.5440562446
 20
5.4960105365
 30
0.0
 10
6.5452526666
 20
5.4465192329
 30
0.0
 10
6.5464447146
 20
5.4040073679
 30
0.0
 10
6.5476171916
 20
5.3691834825
 30
0.0
 10
6.548783615
 20
5.3426341014
 30
0.0
 10
6.5496723085
 20
5.3277591384
 30
0.0
 10
6.5502129464
 20
5.3217943287
 30
0.0
  0
SPLINE
  5
483
100
AcDbEntity
  8
02___PRT_ALL_AXES
100
AcDbSpline
 62
7
  6
CONTINUOUS
 70
0
 71
3
 72
17
 73
13
 74
0
 42
0.0000001
 43
0.0000001
 44
0.0000000001
 40
0.0
 40
0.0
 40
0.0
 40
0.0
 40
0.0359557965
 40
0.0819045597
 40
0.1368556222
 40
0.1996285174
 40
0.4206915121
 40
0.6569090557
 40
0.7664693137
 40
0.8631446752
 40
0.9422599146
 40
1.0
 40
1.0
 40
1.0
 40
1.0
 10
6.3325117379
 20
5.3217943287
 30
0.0
 10
6.331972391
 20
5.3347621796
 30
0.0
 10
6.3309700599
 20
5.3643111632
 30
0.0
 10
6.3296295334
 20
5.4136941825
 30
0.0
 10
6.3282789187
 20
5.4727602988
 30
0.0
 10
6.3258227868
 20
5.5950285599
 30
0.0
 10
6.3227247504
 20
5.7827285125
 30
0.0
 10
6.3195108274
 20
5.9873173007
 30
0.0
 10
6.3167566571
 20
6.1470070406
 30
0.0
 10
6.3147618071
 20
6.2499920035
 30
0.0
 10
6.3127845168
 20
6.3342666771
 30
0.0
 10
6.3112841174
 20
6.3836469013
 30
0.0
 10
6.3104180002
 20
6.4044714941
 30
0.0
  0
SPLINE
  5
484
100
AcDbEntity
  8
02___PRT_ALL_AXES
100
AcDbSpline
 62
7
  6
CONTINUOUS
 70
0
 71
3
 72
17
 73
13
 74
0
 42
0.0000001
 43
0.0000001
 44
0.0000000001
 40
0.0
 40
0.0
 40
0.0
 40
0.0
 40
0.0359557965
 40
0.0819045597
 40
0.1368556222
 40
0.1996285174
 40
0.4206915121
 40
0.6569090557
 40
0.7664693137
 40
0.8631446752
 40
0.9422599146
 40
1.0
 40
1.0
 40
1.0
 40
1.0
 10
6.7458975647
 20
5.3217943287
 30
0.0
 10
6.7453582178
 20
5.3347621796
 30
0.0
 10
6.7443558866
 20
5.3643111632
 30
0.0
 10
6.7430153602
 20
5.4136941825
 30
0.0
 10
6.7416647455
 20
5.4727602988
 30
0.0
 10
6.7392086135
 20
5.5950285599
 30
0.0
 10
6.7361105772
 20
5.7827285125
 30
0.0
 10
6.7328966542
 20
5.9873173007
 30
0.0
 10
6.7301424839
 20
6.1470070406
 30
0.0
 10
6.7281476338
 20
6.2499920035
 30
0.0
 10
6.7261703435
 20
6.3342666771
 30
0.0
 10
6.7246699442
 20
6.3836469013
 30
0.0
 10
6.723803827
 20
6.4044714941
 30
0.0
  0
SPLINE
  5
485
100
AcDbEntity
  8
02___PRT_ALL_AXES
100
AcDbSpline
 62
7
  6
CONTINUOUS
 70
0
 71
3
 72
17
 73
13
 74
0
 42
0.0000001
 43
0.0000001
 44
0.0000000001
 40
0.0
 40
0.0
 40
0.0
 40
0.0
 40
0.0359557965
 40
0.0819045597
 40
0.1368556222
 40
0.1996285174
 40
0.4206915121
 40
0.6569090557
 40
0.7664693137
 40
0.8631446752
 40
0.9422599146
 40
1.0
 40
1.0
 40
1.0
 40
1.0
 10
6.4580038639
 20
5.3217943287
 30
0.0
 10
6.457464517
 20
5.3347621796
 30
0.0
 10
6.4564621859
 20
5.3643111632
 30
0.0
 10
6.4551216594
 20
5.4136941825
 30
0.0
 10
6.4537710447
 20
5.4727602988
 30
0.0
 10
6.4513149127
 20
5.5950285599
 30
0.0
 10
6.4482168764
 20
5.7827285125
 30
0.0
 10
6.4450029534
 20
5.9873173007
 30
0.0
 10
6.4422487831
 20
6.1470070406
 30
0.0
 10
6.4402539331
 20
6.2499920035
 30
0.0
 10
6.4382766428
 20
6.3342666771
 30
0.0
 10
6.4367762434
 20
6.3836469013
 30
0.0
 10
6.4359101262
 20
6.4044714941
 30
0.0
  0
SPLINE
  5
486
100
AcDbEntity
  8
02___PRT_ALL_AXES
100
AcDbSpline
 62
7
  6
CONTINUOUS
 70
0
 71
3
 72
23
 73
19
 74
0
 42
0.0000001
 43
0.0000001
 44
0.0000000001
 40
0.0
 40
0.0
 40
0.0
 40
0.0
 40
0.0101455489
 40
0.0239360986
 40
0.0620113574
 40
0.1131051412
 40
0.1757009349
 40
0.2870148316
 40
0.4125354321
 40
0.5438942059
 40
0.6723221527
 40
0.7892546098
 40
0.8409294262
 40
0.8868949371
 40
0.9263829126
 40
0.9587331843
 40
0.9834093702
 40
1.0
 40
1.0
 40
1.0
 40
1.0
 10
6.6423533868
 20
6.4044714941
 30
0.0
 10
6.6426840127
 20
6.400823728
 30
0.0
 10
6.6432813735
 20
6.3922016859
 30
0.0
 10
6.6444589259
 20
6.369845466
 30
0.0
 10
6.6458185952
 20
6.3326981752
 30
0.0
 10
6.6473838186
 20
6.2779310623
 30
0.0
 10
6.6492885643
 20
6.1967227863
 30
0.0
 10
6.6514204217
 20
6.0886442087
 30
0.0
 10
6.6537688064
 20
5.9557407475
 30
0.0
 10
6.6561230018
 20
5.8166580502
 30
0.0
 10
6.6584753522
 20
5.6806762562
 30
0.0
 10
6.6604952356
 20
5.5734602516
 30
0.0
 10
6.6621664067
 20
5.4960137676
 30
0.0
 10
6.6633628194
 20
5.4465223531
 30
0.0
 10
6.6645548745
 20
5.4040100088
 30
0.0
 10
6.6657273509
 20
5.3691852818
 30
0.0
 10
6.6668938184
 20
5.3426349976
 30
0.0
 10
6.6677825226
 20
5.3277593817
 30
0.0
 10
6.6683231826
 20
5.3217943287
 30
0.0
  0
SPLINE
  5
487
100
AcDbEntity
  8
02___PRT_ALL_AXES
100
AcDbSpline
 62
7
  6
CONTINUOUS
 70
0
 71
3
 72
10
 73
6
 74
0
 42
0.0000001
 43
0.0000001
 44
0.0000000001
 40
0.0
 40
0.0
 40
0.0
 40
0.0
 40
0.1760719129
 40
0.4058736573
 40
1.0
 40
1.0
 40
1.0
 40
1.0
 10
6.3989487458
 20
5.3217943287
 30
0.0
 10
6.3983258712
 20
5.3367704868
 30
0.0
 10
6.3971876826
 20
5.3713049339
 30
0.0
 10
6.3949781769
 20
5.4564068748
 30
0.0
 10
6.3936170277
 20
5.5265358912
 30
0.0
 10
6.3926890047
 20
5.5771057016
 30
0.0
  0
SPLINE
  5
488
100
AcDbEntity
  8
02___PRT_ALL_AXES
100
AcDbSpline
 62
7
  6
CONTINUOUS
 70
0
 71
3
 72
12
 73
8
 74
0
 42
0.0000001
 43
0.0000001
 44
0.0000000001
 40
0.0
 40
0.0
 40
0.0
 40
0.0
 40
0.3138166679
 40
0.6007426324
 40
0.8361910718
 40
0.9280886827
 40
1.0
 40
1.0
 40
1.0
 40
1.0
 10
6.387902194
 20
5.8631131232
 30
0.0
 10
6.3869947808
 20
5.9197475598
 30
0.0
 10
6.3852604332
 20
6.0281635825
 30
0.0
 10
6.3826300595
 20
6.1790671444
 30
0.0
 10
6.38034883
 20
6.2899163655
 30
0.0
 10
6.3783971709
 20
6.3619532
 30
0.0
 10
6.3773943727
 20
6.3915032176
 30
0.0
 10
6.3768550081
 20
6.4044714941
 30
0.0
  0
SPLINE
  5
489
100
AcDbEntity
  8
02___PRT_ALL_AXES
100
AcDbSpline
 62
7
  6
CONTINUOUS
 70
0
 71
3
 72
23
 73
19
 74
0
 42
0.0000001
 43
0.0000001
 44
0.0000000001
 40
0.0
 40
0.0
 40
0.0
 40
0.0
 40
0.0101455496
 40
0.0239361023
 40
0.0620113723
 40
0.113105178
 40
0.1757009799
 40
0.2870148402
 40
0.4125354472
 40
0.5438942367
 40
0.6723222055
 40
0.7892546025
 40
0.8409293962
 40
0.8868949018
 40
0.9263828839
 40
0.9587331672
 40
0.983409363
 40
1.0
 40
1.0
 40
1.0
 40
1.0
 10
6.539454304
 20
5.3217943287
 30
0.0
 10
6.5391236781
 20
5.325442095
 30
0.0
 10
6.5385263173
 20
5.3340641385
 30
0.0
 10
6.5373487646
 20
5.3564203637
 30
0.0
 10
6.5359890949
 20
5.3935676676
 30
0.0
 10
6.5344238715
 20
5.4483347954
 30
0.0
 10
6.5325191258
 20
5.5295430691
 30
0.0
 10
6.5303872687
 20
5.6376216389
 30
0.0
 10
6.5280388842
 20
5.770525095
 30
0.0
 10
6.5256846885
 20
5.9096078083
 30
0.0
 10
6.5233323382
 20
6.0455895941
 30
0.0
 10
6.5213124551
 20
6.1528055768
 30
0.0
 10
6.5196412848
 20
6.2302520289
 30
0.0
 10
6.5184448724
 20
6.2797434358
 30
0.0
 10
6.5172528171
 20
6.3222557847
 30
0.0
 10
6.5160803408
 20
6.3570805219
 30
0.0
 10
6.5149138728
 20
6.3836308164
 30
0.0
 10
6.5140251685
 20
6.3985064386
 30
0.0
 10
6.5134845083
 20
6.4044714941
 30
0.0
  0
SPLINE
  5
48A
100
AcDbEntity
  8
02___PRT_ALL_AXES
100
AcDbSpline
 62
7
  6
CONTINUOUS
 70
0
 71
3
 72
17
 73
13
 74
0
 42
0.0000001
 43
0.0000001
 44
0.0000000001
 40
0.0
 40
0.0
 40
0.0
 40
0.0
 40
0.0359557965
 40
0.0819045597
 40
0.1368556222
 40
0.1996285174
 40
0.4206915121
 40
0.6569090557
 40
0.7664693137
 40
0.8631446752
 40
0.9422599146
 40
1.0
 40
1.0
 40
1.0
 40
1.0
 10
6.3398936277
 20
5.3217943287
 30
0.0
 10
6.3393542808
 20
5.3347621796
 30
0.0
 10
6.3383519496
 20
5.3643111632
 30
0.0
 10
6.3370114232
 20
5.4136941825
 30
0.0
 10
6.3356608085
 20
5.4727602988
 30
0.0
 10
6.3332046765
 20
5.5950285599
 30
0.0
 10
6.3301066402
 20
5.7827285125
 30
0.0
 10
6.3268927172
 20
5.9873173007
 30
0.0
 10
6.3241385469
 20
6.1470070406
 30
0.0
 10
6.3221436968
 20
6.2499920035
 30
0.0
 10
6.3201664065
 20
6.3342666771
 30
0.0
 10
6.3186660072
 20
6.3836469013
 30
0.0
 10
6.31779989
 20
6.4044714941
 30
0.0
  0
SPLINE
  5
48B
100
AcDbEntity
  8
02___PRT_ALL_AXES
100
AcDbSpline
 62
7
  6
CONTINUOUS
 70
0
 71
3
 72
23
 73
19
 74
0
 42
0.0000001
 43
0.0000001
 44
0.0000000001
 40
0.0
 40
0.0
 40
0.0
 40
0.0
 40
0.0101455455
 40
0.0239360934
 40
0.0620113325
 40
0.1131053697
 40
0.1757027122
 40
0.287017728
 40
0.4125380063
 40
0.5438968222
 40
0.6723247265
 40
0.7892572514
 40
0.8409306563
 40
0.8868951656
 40
0.9263828827
 40
0.958733178
 40
0.983409365
 40
1.0
 40
1.0
 40
1.0
 40
1.0
 10
6.7166196584
 20
5.3217943287
 30
0.0
 10
6.7162890326
 20
5.3254420936
 30
0.0
 10
6.7156916717
 20
5.3340641339
 30
0.0
 10
6.7145141201
 20
5.3564203447
 30
0.0
 10
6.7131544469
 20
5.3935677191
 30
0.0
 10
6.7115892069
 20
5.4483354753
 30
0.0
 10
6.709684444
 20
5.5295448059
 30
0.0
 10
6.7075525738
 20
5.6376242302
 30
0.0
 10
6.7052041897
 20
5.7705279944
 30
0.0
 10
6.7028499955
 20
5.9096105753
 30
0.0
 10
6.7004976431
 20
6.0455923935
 30
0.0
 10
6.6984777627
 20
6.1528078976
 30
0.0
 10
6.696806604
 20
6.230253535
 30
0.0
 10
6.6956102121
 20
6.2797439853
 30
0.0
 10
6.6944181678
 20
6.3222558833
 30
0.0
 10
6.6932456952
 20
6.3570805261
 30
0.0
 10
6.6920792268
 20
6.383630821
 30
0.0
 10
6.6911905227
 20
6.3985064393
 30
0.0
 10
6.6906498626
 20
6.4044714941
 30
0.0
  0
SPLINE
  5
48C
100
AcDbEntity
  8
02___PRT_ALL_AXES
100
AcDbSpline
 62
7
  6
CONTINUOUS
 70
0
 71
3
 72
17
 73
13
 74
0
 42
0.0000001
 43
0.0000001
 44
0.0000000001
 40
0.0
 40
0.0
 40
0.0
 40
0.0
 40
0.0359557965
 40
0.0819045597
 40
0.1368556222
 40
0.1996285174
 40
0.4206915121
 40
0.6569090557
 40
0.7664693137
 40
0.8631446752
 40
0.9422599146
 40
1.0
 40
1.0
 40
1.0
 40
1.0
 10
6.8713896906
 20
5.3217943287
 30
0.0
 10
6.8708503438
 20
5.3347621796
 30
0.0
 10
6.8698480126
 20
5.3643111632
 30
0.0
 10
6.8685074862
 20
5.4136941825
 30
0.0
 10
6.8671568715
 20
5.4727602988
 30
0.0
 10
6.8647007395
 20
5.5950285599
 30
0.0
 10
6.8616027032
 20
5.7827285125
 30
0.0
 10
6.8583887802
 20
5.9873173007
 30
0.0
 10
6.8556346098
 20
6.1470070406
 30
0.0
 10
6.8536397598
 20
6.2499920035
 30
0.0
 10
6.8516624695
 20
6.3342666771
 30
0.0
 10
6.8501620702
 20
6.3836469013
 30
0.0
 10
6.849295953
 20
6.4044714941
 30
0.0
  0
SPLINE
  5
48D
100
AcDbEntity
  8
02___PRT_ALL_AXES
100
AcDbSpline
 62
7
  6
CONTINUOUS
 70
0
 71
3
 72
23
 73
19
 74
0
 42
0.0000001
 43
0.0000001
 44
0.0000000001
 40
0.0
 40
0.0
 40
0.0
 40
0.0
 40
0.0101454531
 40
0.0239357081
 40
0.0620099111
 40
0.1131033743
 40
0.1757013384
 40
0.2870189573
 40
0.4125403298
 40
0.5438956924
 40
0.6723217793
 40
0.7892570044
 40
0.8409324975
 40
0.8868981743
 40
0.9263858128
 40
0.9587352303
 40
0.9834099672
 40
1.0
 40
1.0
 40
1.0
 40
1.0
 10
6.4061329144
 20
6.4044714941
 30
0.0
 10
6.4064635372
 20
6.4008237625
 30
0.0
 10
6.407060894
 20
6.3922018614
 30
0.0
 10
6.4082384171
 20
6.3698461628
 30
0.0
 10
6.4095980812
 20
6.3326994757
 30
0.0
 10
6.4111633203
 20
6.2779320764
 30
0.0
 10
6.4130681156
 20
6.1967217894
 30
0.0
 10
6.4152000143
 20
6.088640806
 30
0.0
 10
6.4175483974
 20
5.9557369536
 30
0.0
 10
6.4199025664
 20
5.8166558804
 30
0.0
 10
6.4222549033
 20
5.6806749899
 30
0.0
 10
6.4242747967
 20
5.5734584133
 30
0.0
 10
6.4259460064
 20
5.4960106263
 30
0.0
 10
6.4271424346
 20
5.4465190295
 30
0.0
 10
6.4283344903
 20
5.4040070555
 30
0.0
 10
6.4295069594
 20
5.3691832821
 30
0.0
 10
6.4306733858
 20
5.3426340438
 30
0.0
 10
6.4315620697
 20
5.327759167
 30
0.0
 10
6.4321027101
 20
5.3217943287
 30
0.0
  0
SPLINE
  5
48E
100
AcDbEntity
  8
02___PRT_ALL_AXES
100
AcDbSpline
 62
7
  6
CONTINUOUS
 70
0
 71
3
 72
23
 73
19
 74
0
 42
0.0000001
 43
0.0000001
 44
0.0000000001
 40
0.0
 40
0.0
 40
0.0
 40
0.0
 40
0.0101455329
 40
0.0239360485
 40
0.0620112097
 40
0.1131049805
 40
0.1757021155
 40
0.2870185871
 40
0.4125394641
 40
0.5438968461
 40
0.672322955
 40
0.7892573468
 40
0.8409324916
 40
0.8868978829
 40
0.9263853683
 40
0.9587349528
 40
0.9834100326
 40
1.0
 40
1.0
 40
1.0
 40
1.0
 10
6.6575645402
 20
5.3217943287
 30
0.0
 10
6.6572339149
 20
5.325442089
 30
0.0
 10
6.6566365544
 20
5.3340641131
 30
0.0
 10
6.6554590054
 20
5.3564202797
 30
0.0
 10
6.654099336
 20
5.3935675182
 30
0.0
 10
6.6525340986
 20
5.4483350752
 30
0.0
 10
6.6506293265
 20
5.5295447602
 30
0.0
 10
6.6484974434
 20
5.6376248512
 30
0.0
 10
6.6461490575
 20
5.7705288395
 30
0.0
 10
6.6437948791
 20
5.9096104708
 30
0.0
 10
6.6414425344
 20
6.0455917973
 30
0.0
 10
6.6394226462
 20
6.1528079553
 30
0.0
 10
6.637751448
 20
6.2302552128
 30
0.0
 10
6.636555026
 20
6.2797465255
 30
0.0
 10
6.6353629778
 20
6.3222584017
 30
0.0
 10
6.6341905008
 20
6.3570823037
 30
0.0
 10
6.6330240765
 20
6.3836317027
 30
0.0
 10
6.6321353829
 20
6.3985066793
 30
0.0
 10
6.6315947445
 20
6.4044714941
 30
0.0
  0
SPLINE
  5
48F
100
AcDbEntity
  8
02___PRT_ALL_AXES
100
AcDbSpline
 62
7
  6
CONTINUOUS
 70
0
 71
3
 72
17
 73
13
 74
0
 42
0.0000001
 43
0.0000001
 44
0.0000000001
 40
0.0
 40
0.0
 40
0.0
 40
0.0
 40
0.0359557965
 40
0.0819045597
 40
0.1368556222
 40
0.1996285174
 40
0.4206915121
 40
0.6569090557
 40
0.7664693137
 40
0.8631446752
 40
0.9422599146
 40
1.0
 40
1.0
 40
1.0
 40
1.0
 10
6.8123345725
 20
5.3217943287
 30
0.0
 10
6.8117952257
 20
5.3347621796
 30
0.0
 10
6.8107928945
 20
5.3643111632
 30
0.0
 10
6.8094523681
 20
5.4136941825
 30
0.0
 10
6.8081017534
 20
5.4727602988
 30
0.0
 10
6.8056456214
 20
5.5950285599
 30
0.0
 10
6.8025475851
 20
5.7827285125
 30
0.0
 10
6.7993336621
 20
5.9873173007
 30
0.0
 10
6.7965794917
 20
6.1470070406
 30
0.0
 10
6.7945846417
 20
6.2499920035
 30
0.0
 10
6.7926073514
 20
6.3342666771
 30
0.0
 10
6.7911069521
 20
6.3836469013
 30
0.0
 10
6.7902408349
 20
6.4044714941
 30
0.0
  0
SPLINE
  5
490
100
AcDbEntity
  8
02___PRT_ALL_AXES
100
AcDbSpline
 62
7
  6
CONTINUOUS
 70
0
 71
3
 72
23
 73
19
 74
0
 42
0.0000001
 43
0.0000001
 44
0.0000000001
 40
0.0
 40
0.0
 40
0.0
 40
0.0
 40
0.0101455748
 40
0.0239361837
 40
0.0620116066
 40
0.1131057558
 40
0.1757024898
 40
0.2870157063
 40
0.4125364941
 40
0.5438956661
 40
0.6723239775
 40
0.7892555714
 40
0.8409294136
 40
0.8868945601
 40
0.9263825803
 40
0.958732999
 40
0.9834093115
 40
1.0
 40
1.0
 40
1.0
 40
1.0
 10
6.4213440678
 20
5.3217943287
 30
0.0
 10
6.4210134411
 20
5.3254421041
 30
0.0
 10
6.4204160798
 20
5.334064177
 30
0.0
 10
6.4192385217
 20
5.3564204867
 30
0.0
 10
6.417878848
 20
5.39356799
 30
0.0
 10
6.4163136125
 20
5.4483356334
 30
0.0
 10
6.4144088687
 20
5.5295441353
 30
0.0
 10
6.4122770094
 20
5.6376228744
 30
0.0
 10
6.4099286275
 20
5.7705263015
 30
0.0
 10
6.4075744261
 20
5.9096093417
 30
0.0
 10
6.4052220752
 20
6.0455910995
 30
0.0
 10
6.4032021982
 20
6.1528065724
 30
0.0
 10
6.4015310429
 20
6.2302522616
 30
0.0
 10
6.4003346423
 20
6.2797432092
 30
0.0
 10
6.3991425892
 20
6.3222554911
 30
0.0
 10
6.3979701127
 20
6.3570803331
 30
0.0
 10
6.3968036397
 20
6.3836307371
 30
0.0
 10
6.3959149339
 20
6.39850642
 30
0.0
 10
6.3953742721
 20
6.4044714941
 30
0.0
  0
SPLINE
  5
491
100
AcDbEntity
  8
02___PRT_ALL_AXES
100
AcDbSpline
 62
7
  6
CONTINUOUS
 70
0
 71
3
 72
17
 73
13
 74
0
 42
0.0000001
 43
0.0000001
 44
0.0000000001
 40
0.0
 40
0.0
 40
0.0
 40
0.0
 40
0.0359557965
 40
0.0819045597
 40
0.1368556222
 40
0.1996285174
 40
0.4206915121
 40
0.6569090557
 40
0.7664693137
 40
0.8631446752
 40
0.9422599146
 40
1.0
 40
1.0
 40
1.0
 40
1.0
 10
6.7532794544
 20
5.3217943287
 30
0.0
 10
6.7527401076
 20
5.3347621796
 30
0.0
 10
6.7517377764
 20
5.3643111632
 30
0.0
 10
6.75039725
 20
5.4136941825
 30
0.0
 10
6.7490466352
 20
5.4727602988
 30
0.0
 10
6.7465905033
 20
5.5950285599
 30
0.0
 10
6.7434924669
 20
5.7827285125
 30
0.0
 10
6.740278544
 20
5.9873173007
 30
0.0
 10
6.7375243736
 20
6.1470070406
 30
0.0
 10
6.7355295236
 20
6.2499920035
 30
0.0
 10
6.7335522333
 20
6.3342666771
 30
0.0
 10
6.732051834
 20
6.3836469013
 30
0.0
 10
6.7311857168
 20
6.4044714941
 30
0.0
  0
SPLINE
  5
492
100
AcDbEntity
  8
02___PRT_ALL_AXES
100
AcDbSpline
 62
7
  6
CONTINUOUS
 70
0
 71
3
 72
23
 73
19
 74
0
 42
0.0000001
 43
0.0000001
 44
0.0000000001
 40
0.0
 40
0.0
 40
0.0
 40
0.0
 40
0.0101454531
 40
0.0239357081
 40
0.0620099111
 40
0.1131033743
 40
0.1757013384
 40
0.2870189573
 40
0.4125403298
 40
0.5438956924
 40
0.6723217793
 40
0.7892570044
 40
0.8409324975
 40
0.8868981743
 40
0.9263858128
 40
0.9587352303
 40
0.9834099672
 40
1.0
 40
1.0
 40
1.0
 40
1.0
 10
6.8195187412
 20
6.4044714941
 30
0.0
 10
6.8198493639
 20
6.4008237625
 30
0.0
 10
6.8204467208
 20
6.3922018614
 30
0.0
 10
6.8216242439
 20
6.3698461628
 30
0.0
 10
6.8229839079
 20
6.3326994757
 30
0.0
 10
6.8245491471
 20
6.2779320764
 30
0.0
 10
6.8264539424
 20
6.1967217894
 30
0.0
 10
6.8285858411
 20
6.088640806
 30
0.0
 10
6.8309342242
 20
5.9557369536
 30
0.0
 10
6.8332883932
 20
5.8166558804
 30
0.0
 10
6.8356407301
 20
5.6806749899
 30
0.0
 10
6.8376606235
 20
5.5734584133
 30
0.0
 10
6.8393318332
 20
5.4960106263
 30
0.0
 10
6.8405282614
 20
5.4465190295
 30
0.0
 10
6.841720317
 20
5.4040070555
 30
0.0
 10
6.8428927862
 20
5.3691832821
 30
0.0
 10
6.8440592125
 20
5.3426340438
 30
0.0
 10
6.8449478964
 20
5.327759167
 30
0.0
 10
6.8454885369
 20
5.3217943287
 30
0.0
  0
SPLINE
  5
493
100
AcDbEntity
  8
0
100
AcDbSpline
 62
7
  6
CONTINUOUS
 70
0
 71
3
 72
25
 73
21
 74
0
 42
0.0000001
 43
0.0000001
 44
0.0000000001
 40
0.0
 40
0.0
 40
0.0
 40
0.0
 40
0.0625019456
 40
0.1249989832
 40
0.1874979112
 40
0.2499944301
 40
0.3124900656
 40
0.3749840005
 40
0.437476952
 40
0.4999679436
 40
0.5624578817
 40
0.6249457846
 40
0.687432288
 40
0.718714259
 40
0.7499960965
 40
0.8124790659
 40
0.8749605797
 40
0.9062409637
 40
0.9375210048
 40
1.0
 40
1.0
 40
1.0
 40
1.0
 10
11.6881820383
 20
5.427878488
 30
0.0
 10
11.6619140531
 20
5.4284159286
 30
0.0
 10
11.6093510729
 20
5.4342789764
 30
0.0
 10
11.5335155835
 20
5.4572611392
 30
0.0
 10
11.4631513308
 20
5.4937708074
 30
0.0
 10
11.4007600752
 20
5.5426746996
 30
0.0
 10
11.3485851065
 20
5.6023673444
 30
0.0
 10
11.3085789255
 20
5.6708217716
 30
0.0
 10
11.2823026392
 20
5.7456360785
 30
0.0
 10
11.2708540107
 20
5.8241064721
 30
0.0
 10
11.2748062057
 20
5.9033198489
 30
0.0
 10
11.2941448326
 20
5.9802312698
 30
0.0
 10
11.3226225314
 20
6.0399482123
 30
0.0
 10
11.3521456959
 20
6.0835336962
 30
0.0
 10
11.3858914329
 20
6.1239378141
 30
0.0
 10
11.4354968141
 20
6.1677198079
 30
0.0
 10
11.4929842988
 20
6.2004919648
 30
0.0
 10
11.5421999483
 20
6.2191949241
 30
0.0
 10
11.5930671072
 20
6.2326988803
 30
0.0
 10
11.6326527976
 20
6.2367730478
 30
0.0
 10
11.6589165046
 20
6.2366910198
 30
0.0
  0
SPLINE
  5
494
100
AcDbEntity
  8
02___PRT_ALL_AXES
100
AcDbSpline
 62
7
  6
CONTINUOUS
 70
0
 71
3
 72
23
 73
19
 74
0
 42
0.0000001
 43
0.0000001
 44
0.0000000001
 40
0.0
 40
0.0
 40
0.0
 40
0.0
 40
0.0624988177
 40
0.1250007894
 40
0.187499872
 40
0.2500002402
 40
0.3125001098
 40
0.3750001105
 40
0.4375000537
 40
0.5
 40
0.5624999463
 40
0.6249998895
 40
0.6874998902
 40
0.7499997598
 40
0.812500128
 40
0.8749992106
 40
0.9375011823
 40
1.0
 40
1.0
 40
1.0
 40
1.0
 10
11.9033968837
 20
6.4044714941
 30
0.0
 10
11.9298831059
 20
6.393414717
 30
0.0
 10
11.9813100473
 20
6.3673638561
 30
0.0
 10
12.0518375257
 20
6.3174530853
 30
0.0
 10
12.1143141845
 20
6.2577437444
 30
0.0
 10
12.1673735362
 20
6.1895363536
 30
0.0
 10
12.2098768545
 20
6.1142947385
 30
0.0
 10
12.2409079585
 20
6.0336423396
 30
0.0
 10
12.2597980293
 20
5.9493160213
 30
0.0
 10
12.2661403208
 20
5.8631329114
 30
0.0
 10
12.2597980293
 20
5.7769498015
 30
0.0
 10
12.2409079585
 20
5.6926234832
 30
0.0
 10
12.2098768545
 20
5.6119710843
 30
0.0
 10
12.1673735362
 20
5.5367294692
 30
0.0
 10
12.1143141845
 20
5.4685220784
 30
0.0
 10
12.0518375257
 20
5.4088127374
 30
0.0
 10
11.9813100473
 20
5.3589019667
 30
0.0
 10
11.9298831059
 20
5.3328511058
 30
0.0
 10
11.9033968837
 20
5.3217943287
 30
0.0
  0
SPLINE
  5
495
100
AcDbEntity
  8
02___PRT_ALL_AXES
100
AcDbSpline
 62
7
  6
CONTINUOUS
 70
0
 71
3
 72
23
 73
19
 74
0
 42
0.0000001
 43
0.0000001
 44
0.0000000001
 40
0.0
 40
0.0
 40
0.0
 40
0.0
 40
0.0624988177
 40
0.1250007894
 40
0.187499872
 40
0.2500002402
 40
0.3125001098
 40
0.3750001105
 40
0.4375000537
 40
0.5
 40
0.5624999463
 40
0.6249998895
 40
0.6874998902
 40
0.7499997598
 40
0.812500128
 40
0.8749992106
 40
0.9375011823
 40
1.0
 40
1.0
 40
1.0
 40
1.0
 10
11.4514290657
 20
5.3217943287
 30
0.0
 10
11.4249428435
 20
5.3328511058
 30
0.0
 10
11.373515902
 20
5.3589019667
 30
0.0
 10
11.3029884236
 20
5.4088127374
 30
0.0
 10
11.2405117649
 20
5.4685220784
 30
0.0
 10
11.1874524132
 20
5.5367294692
 30
0.0
 10
11.1449490949
 20
5.6119710843
 30
0.0
 10
11.1139179908
 20
5.6926234832
 30
0.0
 10
11.0950279201
 20
5.7769498015
 30
0.0
 10
11.0886856285
 20
5.8631329114
 30
0.0
 10
11.0950279201
 20
5.9493160213
 30
0.0
 10
11.1139179908
 20
6.0336423396
 30
0.0
 10
11.1449490949
 20
6.1142947385
 30
0.0
 10
11.1874524132
 20
6.1895363536
 30
0.0
 10
11.2405117649
 20
6.2577437444
 30
0.0
 10
11.3029884236
 20
6.3174530853
 30
0.0
 10
11.373515902
 20
6.3673638561
 30
0.0
 10
11.4249428435
 20
6.393414717
 30
0.0
 10
11.4514290657
 20
6.4044714941
 30
0.0
  0
LINE
  5
496
100
AcDbEntity
  8
0
100
AcDbLine
 62
7
  6
CONTINUOUS
 10
11.5737155952
 20
5.3217943287
 11
11.570043761
 21
5.28242425
  0
LINE
  5
497
100
AcDbEntity
  8
0
100
AcDbLine
 62
7
  6
CONTINUOUS
 10
11.7811103541
 20
6.4044714941
 11
11.7847821884
 21
6.4438415728
  0
LINE
  5
498
100
AcDbEntity
  8
0
100
AcDbLine
 62
7
  6
CONTINUOUS
 10
11.5737155952
 20
6.4044714941
 11
11.5775223097
 21
6.3651014153
  0
LINE
  5
499
100
AcDbEntity
  8
0
100
AcDbLine
 62
7
  6
CONTINUOUS
 10
11.5737155952
 20
5.3217943287
 11
11.5775223097
 21
5.3611644075
  0
LINE
  5
49A
100
AcDbEntity
  8
0
100
AcDbLine
 62
7
  6
CONTINUOUS
 10
11.7811103541
 20
5.3217943287
 11
11.7847821884
 21
5.28242425
  0
SPLINE
  5
49B
100
AcDbEntity
  8
0
100
AcDbSpline
 62
7
  6
CONTINUOUS
 70
0
 71
3
 72
25
 73
21
 74
0
 42
0.0000001
 43
0.0000001
 44
0.0000000001
 40
0.0
 40
0.0
 40
0.0
 40
0.0
 40
0.0624791632
 40
0.0937594185
 40
0.1250396847
 40
0.1875213924
 40
0.2500039915
 40
0.2812859157
 40
0.3125681013
 40
0.375054445
 40
0.4375424771
 40
0.5000320777
 40
0.5625233258
 40
0.6250160588
 40
0.6875099945
 40
0.7500055475
 40
0.8125019332
 40
0.8750009069
 40
0.9374977999
 40
1.0
 40
1.0
 40
1.0
 40
1.0
 10
11.6774129747
 20
6.2371486594
 30
0.0
 10
11.7036405597
 20
6.2385294288
 30
0.0
 10
11.7433794624
 20
6.2364178737
 30
0.0
 10
11.7948522912
 20
6.225445918
 30
0.0
 10
11.8449328003
 20
6.2091997863
 30
0.0
 10
11.9039703914
 20
6.1793104598
 30
0.0
 10
11.9556803066
 20
6.1380353499
 30
0.0
 10
11.991382757
 20
6.0993494366
 30
0.0
 10
12.023025351
 20
6.0572773134
 30
0.0
 10
12.0544214354
 20
5.9990416581
 30
0.0
 10
12.0775396355
 20
5.9231807926
 30
0.0
 10
12.0854045934
 20
5.8442597982
 30
0.0
 10
12.0778504384
 20
5.7653193724
 30
0.0
 10
12.0553061793
 20
5.6892971302
 30
0.0
 10
12.0187342369
 20
5.6189481774
 30
0.0
 10
11.9695753291
 20
5.5567482793
 30
0.0
 10
11.9096788189
 20
5.5048189408
 30
0.0
 10
11.8412063859
 20
5.4648740689
 30
0.0
 10
11.7666001656
 20
5.4381696734
 30
0.0
 10
11.7143914106
 20
5.429714328
 30
0.0
 10
11.6881820383
 20
5.427878488
 30
0.0
  0
LINE
  5
49C
100
AcDbEntity
  8
0
100
AcDbLine
 62
7
  6
CONTINUOUS
 10
11.570043761
 20
6.4438415728
 11
11.5737155952
 21
6.4044714941
  0
LINE
  5
49D
100
AcDbEntity
  8
0
100
AcDbLine
 62
7
  6
CONTINUOUS
 10
11.7811103541
 20
6.4044714941
 11
11.7773036397
 21
6.3651014153
  0
LINE
  5
49E
100
AcDbEntity
  8
0
100
AcDbLine
 62
7
  6
CONTINUOUS
 10
11.7811103541
 20
5.3217943287
 11
11.7773036397
 21
5.3611644075
  0
SPLINE
  5
49F
100
AcDbEntity
  8
AXIS
100
AcDbSpline
 62
7
  6
CONTINUOUS
 70
0
 71
3
 72
21
 73
17
 74
0
 42
0.0000001
 43
0.0000001
 44
0.0000000001
 40
0.0
 40
0.0
 40
0.0
 40
0.0
 40
0.0428223615
 40
0.0874184211
 40
0.1352060117
 40
0.1871419975
 40
0.2435965041
 40
0.3045710043
 40
0.369695318
 40
0.4383151049
 40
0.5096441154
 40
0.5827073533
 40
0.7296945152
 40
0.8712960041
 40
0.9377508618
 40
1.0
 40
1.0
 40
1.0
 40
1.0
 10
14.9594322486
 20
5.4800666941
 30
0.0
 10
14.9594318577
 20
5.4793550935
 30
0.0
 10
14.9592391074
 20
5.4778966443
 30
0.0
 10
14.9584043476
 20
5.4757899361
 30
0.0
 10
14.9570476312
 20
5.4737918779
 30
0.0
 10
14.9552058375
 20
5.4719458373
 30
0.0
 10
14.9529270458
 20
5.4702778735
 30
0.0
 10
14.9502547302
 20
5.4688256849
 30
0.0
 10
14.9472474736
 20
5.4676147172
 30
0.0
 10
14.943968254
 20
5.4666677194
 30
0.0
 10
14.9404848985
 20
5.4660108204
 30
0.0
 10
14.9356617149
 20
5.4655304361
 30
0.0
 10
14.9296248492
 20
5.4656962465
 30
0.0
 10
14.923803961
 20
5.4668625178
 30
0.0
 10
14.9195753498
 20
5.4683971699
 30
0.0
 10
14.9176504963
 20
5.4693433849
 30
0.0
 10
14.9167546527
 20
5.4698605887
 30
0.0
  0
SPLINE
  5
4A0
100
AcDbEntity
  8
AXIS_COSMETIC_THREADS
100
AcDbSpline
 62
7
  6
CONTINUOUS
 70
0
 71
3
 72
11
 73
7
 74
0
 42
0.0000001
 43
0.0000001
 44
0.0000000001
 40
0.0
 40
0.0
 40
0.0
 40
0.0
 40
0.2328142161
 40
0.4783639566
 40
0.7348298279
 40
1.0
 40
1.0
 40
1.0
 40
1.0
 10
15.0726194358
 20
5.6770229504
 30
0.0
 10
15.0690444504
 20
5.6749965974
 30
0.0
 10
15.0614656279
 20
5.6712356707
 30
0.0
 10
15.0493362842
 20
5.6665949087
 30
0.0
 10
15.0363039449
 20
5.6628612559
 30
0.0
 10
15.0272677008
 20
5.6610393841
 30
0.0
 10
15.0226482034
 20
5.6602865513
 30
0.0
  0
SPLINE
  5
4A1
100
AcDbEntity
  8
AXIS_COSMETIC_THREADS
100
AcDbSpline
 62
7
  6
CONTINUOUS
 70
0
 71
3
 72
11
 73
7
 74
0
 42
0.0000001
 43
0.0000001
 44
0.0000000001
 40
0.0
 40
0.0
 40
0.0
 40
0.0
 40
0.2490254352
 40
0.5000001119
 40
0.7509745602
 40
1.0
 40
1.0
 40
1.0
 40
1.0
 10
15.0160042574
 20
5.6593245643
 30
0.0
 10
15.011876097
 20
5.658800836
 30
0.0
 10
15.0035511786
 20
5.6580173374
 30
0.0
 10
14.9910005406
 20
5.657626738
 30
0.0
 10
14.9784499038
 20
5.6580173678
 30
0.0
 10
14.9701249903
 20
5.6588008823
 30
0.0
 10
14.9659968319
 20
5.6593246272
 30
0.0
  0
SPLINE
  5
4A2
100
AcDbEntity
  8
AXIS_COSMETIC_THREADS
100
AcDbSpline
 62
7
  6
CONTINUOUS
 70
0
 71
3
 72
11
 73
7
 74
0
 42
0.0000001
 43
0.0000001
 44
0.0000000001
 40
0.0
 40
0.0
 40
0.0
 40
0.0
 40
0.2651717986
 40
0.5216460575
 40
0.7671918229
 40
1.0
 40
1.0
 40
1.0
 40
1.0
 10
14.9593533807
 20
5.6602865622
 30
0.0
 10
14.9547338594
 20
5.6610394041
 30
0.0
 10
14.9456974293
 20
5.6628612251
 30
0.0
 10
14.9326650444
 20
5.6665950746
 30
0.0
 10
14.9205357149
 20
5.671235746
 30
0.0
 10
14.9129570484
 20
5.6749965875
 30
0.0
 10
14.9093821805
 20
5.6770229251
 30
0.0
  0
SPLINE
  5
4A3
100
AcDbEntity
  8
AXIS_COSMETIC_THREADS
100
AcDbSpline
 62
7
  6
CONTINUOUS
 70
0
 71
3
 72
15
 73
11
 74
0
 42
0.0000001
 43
0.0000001
 44
0.0000000001
 40
0.0
 40
0.0
 40
0.0
 40
0.0
 40
0.1488928507
 40
0.2900148493
 40
0.4233834467
 40
0.549349883
 40
0.6686512476
 40
0.7824366157
 40
0.8922574124
 40
1.0
 40
1.0
 40
1.0
 40
1.0
 10
14.9093821805
 20
5.6770229251
 30
0.0
 10
14.9066995748
 20
5.6785435029
 30
0.0
 10
14.9015935516
 20
5.6817240373
 30
0.0
 10
14.8946084852
 20
5.6870471935
 30
0.0
 10
14.8885635344
 20
5.6927504466
 30
0.0
 10
14.8835203331
 20
5.6987817984
 30
0.0
 10
14.8795316663
 20
5.7050860182
 30
0.0
 10
14.8766432746
 20
5.7116049032
 30
0.0
 10
14.8748930877
 20
5.7182711613
 30
0.0
 10
14.8745009163
 20
5.722786191
 30
0.0
 10
14.8745009158
 20
5.7250175541
 30
0.0
  0
SPLINE
  5
4A4
100
AcDbEntity
  8
AXIS
100
AcDbSpline
 62
7
  6
CONTINUOUS
 70
0
 71
3
 72
21
 73
17
 74
0
 42
0.0000001
 43
0.0000001
 44
0.0000000001
 40
0.0
 40
0.0
 40
0.0
 40
0.0
 40
0.0428223615
 40
0.0874184211
 40
0.1352060117
 40
0.1871419975
 40
0.2435965041
 40
0.3045710043
 40
0.369695318
 40
0.4383151049
 40
0.5096441154
 40
0.5827073533
 40
0.7296945152
 40
0.8712960041
 40
0.9377508618
 40
1.0
 40
1.0
 40
1.0
 40
1.0
 10
15.0725693336
 20
5.480066966
 30
0.0
 10
15.0725689426
 20
5.4793553655
 30
0.0
 10
15.0723761924
 20
5.4778969162
 30
0.0
 10
15.0715414326
 20
5.475790208
 30
0.0
 10
15.0701847162
 20
5.4737921499
 30
0.0
 10
15.0683429225
 20
5.4719461092
 30
0.0
 10
15.0660641308
 20
5.4702781455
 30
0.0
 10
15.0633918152
 20
5.4688259568
 30
0.0
 10
15.0603845586
 20
5.4676149892
 30
0.0
 10
15.057105339
 20
5.4666679913
 30
0.0
 10
15.0536219835
 20
5.4660110923
 30
0.0
 10
15.0487987998
 20
5.465530708
 30
0.0
 10
15.0427619342
 20
5.4656965185
 30
0.0
 10
15.036941046
 20
5.4668627897
 30
0.0
 10
15.0327124348
 20
5.4683974418
 30
0.0
 10
15.0307875812
 20
5.4693436568
 30
0.0
 10
15.0298917377
 20
5.4698608606
 30
0.0
  0
SPLINE
  5
4A5
100
AcDbEntity
  8
AXIS
100
AcDbSpline
 62
7
  6
CONTINUOUS
 70
0
 71
3
 72
21
 73
17
 74
0
 42
0.0000001
 43
0.0000001
 44
0.0000000001
 40
0.0
 40
0.0
 40
0.0
 40
0.0
 40
0.0428223615
 40
0.0874184211
 40
0.1352060117
 40
0.1871419975
 40
0.2435965041
 40
0.3045710043
 40
0.369695318
 40
0.4383151049
 40
0.5096441154
 40
0.5827073533
 40
0.7296945152
 40
0.8712960041
 40
0.9377508618
 40
1.0
 40
1.0
 40
1.0
 40
1.0
 10
15.0160010266
 20
5.4474074337
 30
0.0
 10
15.0160006357
 20
5.4466958331
 30
0.0
 10
15.0158078854
 20
5.4452373839
 30
0.0
 10
15.0149731257
 20
5.4431306757
 30
0.0
 10
15.0136164092
 20
5.4411326176
 30
0.0
 10
15.0117746155
 20
5.4392865769
 30
0.0
 10
15.0094958238
 20
5.4376186132
 30
0.0
 10
15.0068235082
 20
5.4361664245
 30
0.0
 10
15.0038162517
 20
5.4349554568
 30
0.0
 10
15.0005370321
 20
5.434008459
 30
0.0
 10
14.9970536765
 20
5.43335156
 30
0.0
 10
14.9922304929
 20
5.4328711757
 30
0.0
 10
14.9861936272
 20
5.4330369862
 30
0.0
 10
14.980372739
 20
5.4342032574
 30
0.0
 10
14.9761441278
 20
5.4357379095
 30
0.0
 10
14.9742192743
 20
5.4366841245
 30
0.0
 10
14.9733234307
 20
5.4372013283
 30
0.0
  0
SPLINE
  5
4A6
100
AcDbEntity
  8
AXIS
100
AcDbSpline
 62
7
  6
CONTINUOUS
 70
0
 71
3
 72
14
 73
10
 74
0
 42
0.0000001
 43
0.0000001
 44
0.0000000001
 40
0.0
 40
0.0
 40
0.0
 40
0.0
 40
0.2886211462
 40
0.4221940245
 40
0.5484771302
 40
0.6679834388
 40
0.7819566829
 40
0.8920043764
 40
1.0
 40
1.0
 40
1.0
 40
1.0
 10
14.9733234307
 20
5.4372013283
 30
0.0
 10
14.9722285867
 20
5.4378334225
 30
0.0
 10
14.9706949694
 20
5.4388931641
 30
0.0
 10
14.9689550853
 20
5.4405554379
 30
0.0
 10
14.9678923113
 20
5.4418386399
 30
0.0
 10
14.9670548515
 20
5.4431795315
 30
0.0
 10
14.9664500058
 20
5.4445637704
 30
0.0
 10
14.9660832125
 20
5.4459773829
 30
0.0
 10
14.9660007668
 20
5.4469343915
 30
0.0
 10
14.9660010267
 20
5.4474074306
 30
0.0
  0
SPLINE
  5
4A7
100
AcDbEntity
  8
AXIS
100
AcDbSpline
 62
7
  6
CONTINUOUS
 70
0
 71
3
 72
14
 73
10
 74
0
 42
0.0000001
 43
0.0000001
 44
0.0000000001
 40
0.0
 40
0.0
 40
0.0
 40
0.0
 40
0.2886211462
 40
0.4221940245
 40
0.5484771302
 40
0.6679834388
 40
0.7819566829
 40
0.8920043764
 40
1.0
 40
1.0
 40
1.0
 40
1.0
 10
15.0298917377
 20
5.4698608606
 30
0.0
 10
15.0287968937
 20
5.4704929548
 30
0.0
 10
15.0272632764
 20
5.4715526964
 30
0.0
 10
15.0255233922
 20
5.4732149702
 30
0.0
 10
15.0244606183
 20
5.4744981722
 30
0.0
 10
15.0236231585
 20
5.4758390638
 30
0.0
 10
15.0230183128
 20
5.4772233027
 30
0.0
 10
15.0226515195
 20
5.4786369152
 30
0.0
 10
15.0225690738
 20
5.4795939238
 30
0.0
 10
15.0225693337
 20
5.480066963
 30
0.0
  0
SPLINE
  5
4A8
100
AcDbEntity
  8
AXIS
100
AcDbSpline
 62
7
  6
CONTINUOUS
 70
0
 71
3
 72
14
 73
10
 74
0
 42
0.0000001
 43
0.0000001
 44
0.0000000001
 40
0.0
 40
0.0
 40
0.0
 40
0.0
 40
0.2886211462
 40
0.4221940245
 40
0.5484771302
 40
0.6679834388
 40
0.7819566829
 40
0.8920043764
 40
1.0
 40
1.0
 40
1.0
 40
1.0
 10
14.9167546527
 20
5.4698605887
 30
0.0
 10
14.9156598087
 20
5.4704926829
 30
0.0
 10
14.9141261914
 20
5.4715524244
 30
0.0
 10
14.9123863072
 20
5.4732146983
 30
0.0
 10
14.9113235333
 20
5.4744979002
 30
0.0
 10
14.9104860735
 20
5.4758387918
 30
0.0
 10
14.9098812278
 20
5.4772230308
 30
0.0
 10
14.9095144345
 20
5.4786366432
 30
0.0
 10
14.9094319888
 20
5.4795936518
 30
0.0
 10
14.9094322487
 20
5.480066691
 30
0.0
  0
SPLINE
  5
4A9
100
AcDbEntity
  8
AXIS_COSMETIC_THREADS
100
AcDbSpline
 62
7
  6
CONTINUOUS
 70
0
 71
3
 72
15
 73
11
 74
0
 42
0.0000001
 43
0.0000001
 44
0.0000000001
 40
0.0
 40
0.0
 40
0.0
 40
0.0
 40
0.1080121686
 40
0.2180609112
 40
0.3319982712
 40
0.4513574445
 40
0.5772767716
 40
0.710491637
 40
0.8514144486
 40
1.0
 40
1.0
 40
1.0
 40
1.0
 10
15.1075006665
 20
5.7250175532
 30
0.0
 10
15.107500667
 20
5.722812071
 30
0.0
 10
15.107117719
 20
5.7183505676
 30
0.0
 10
15.1054082325
 20
5.7117607624
 30
0.0
 10
15.1025862915
 20
5.7053129517
 30
0.0
 10
15.0986878746
 20
5.6990723985
 30
0.0
 10
15.0937569389
 20
5.6930956693
 30
0.0
 10
15.0878437169
 20
5.6874355658
 30
0.0
 10
15.0810071981
 20
5.6821440842
 30
0.0
 10
15.0760065499
 20
5.6789744705
 30
0.0
 10
15.0733790741
 20
5.6774575057
 30
0.0
  0
SPLINE
  5
4AA
100
AcDbEntity
  8
02___PRT_ALL_AXES
100
AcDbSpline
 62
7
  6
CONTINUOUS
 70
0
 71
3
 72
23
 73
19
 74
0
 42
0.0000001
 43
0.0000001
 44
0.0000000001
 40
0.0
 40
0.0
 40
0.0
 40
0.0
 40
0.0625136965
 40
0.1250202059
 40
0.187532217
 40
0.250047072
 40
0.3125555307
 40
0.3750661345
 40
0.4375746807
 40
0.5000771877
 40
0.5625789851
 40
0.6250758555
 40
0.6875660873
 40
0.7500534336
 40
0.8125392818
 40
0.8750248559
 40
0.9375089539
 40
1.0
 40
1.0
 40
1.0
 40
1.0
 10
14.0070641259
 20
8.8744717956
 30
0.0
 10
14.0081380772
 20
8.9168652953
 30
0.0
 10
14.0157756394
 20
9.0016109664
 30
0.0
 10
14.0435301337
 20
9.126108396
 30
0.0
 10
14.0871096623
 20
9.2460098427
 30
0.0
 10
14.1457929542
 20
9.3592828389
 30
0.0
 10
14.2185938265
 20
9.464042649
 30
0.0
 10
14.304297717
 20
9.5585321318
 30
0.0
 10
14.4014678982
 20
9.6411778995
 30
0.0
 10
14.5084807617
 20
9.7105977042
 30
0.0
 10
14.6235457837
 20
9.7656326431
 30
0.0
 10
14.7447386626
 20
9.8053686868
 30
0.0
 10
14.8700339837
 20
9.829142953
 30
0.0
 10
14.9973415888
 20
9.8365633507
 30
0.0
 10
15.1245388586
 20
9.8275085914
 30
0.0
 10
15.2495097598
 20
9.8021269278
 30
0.0
 10
15.3701505153
 20
9.7608569735
 30
0.0
 10
15.4464058979
 20
9.7231733959
 30
0.0
 10
15.4831184255
 20
9.7019778878
 30
0.0
  0
SPLINE
  5
4AB
100
AcDbEntity
  8
02___PRT_ALL_AXES
100
AcDbSpline
 62
7
  6
CONTINUOUS
 70
0
 71
3
 72
25
 73
21
 74
0
 42
0.0000001
 43
0.0000001
 44
0.0000000001
 40
0.0
 40
0.0
 40
0.0
 40
0.0
 40
0.021331811
 40
0.0428920215
 40
0.0648971359
 40
0.0875417204
 40
0.1353164271
 40
0.1872171069
 40
0.2436546181
 40
0.3046023666
 40
0.3696901853
 40
0.4382877038
 40
0.5095744457
 40
0.5825990401
 40
0.6563308922
 40
0.7297082922
 40
0.8016850657
 40
0.8712780126
 40
0.9376153322
 40
1.0
 40
1.0
 40
1.0
 40
1.0
 10
15.9752527596
 20
8.8495858586
 30
0.0
 10
15.9752527604
 20
8.8356231966
 30
0.0
 10
15.9734501284
 20
8.8075160044
 30
0.0
 10
15.9653753288
 20
8.7657057623
 30
0.0
 10
15.9519792393
 20
8.7243779904
 30
0.0
 10
15.926708433
 20
8.6692836153
 30
0.0
 10
15.8813613855
 20
8.6025533601
 30
0.0
 10
15.80891968
 20
8.5298219236
 30
0.0
 10
15.7191437177
 20
8.4642167437
 30
0.0
 10
15.6139573943
 20
8.4070078696
 30
0.0
 10
15.4955593465
 20
8.3593090385
 30
0.0
 10
15.3664383889
 20
8.3220968544
 30
0.0
 10
15.2293240177
 20
8.2961457111
 30
0.0
 10
15.0871290878
 20
8.282004947
 30
0.0
 10
14.9428836706
 20
8.2799752954
 30
0.0
 10
14.7996643215
 20
8.2900995108
 30
0.0
 10
14.6605264467
 20
8.3121611153
 30
0.0
 10
14.5284232726
 20
8.3456980914
 30
0.0
 10
14.4061770826
 20
8.3899900224
 30
0.0
 10
14.3303956387
 20
8.4273542604
 30
0.0
 10
14.2950324474
 20
8.4477707465
 30
0.0
  0
SPLINE
  5
4AC
100
AcDbEntity
  8
0
100
AcDbSpline
 62
7
  6
CONTINUOUS
 70
0
 71
3
 72
17
 73
13
 74
0
 42
0.0000001
 43
0.0000001
 44
0.0000000001
 40
0.0
 40
0.0
 40
0.0
 40
0.0
 40
0.0476973424
 40
0.0971497497
 40
0.1489670746
 40
0.2035826158
 40
0.3217098408
 40
0.4511146159
 40
0.5885835315
 40
0.7293739906
 40
0.8681673888
 40
1.0
 40
1.0
 40
1.0
 40
1.0
 10
15.5324883985
 20
7.7574632278
 30
0.0
 10
15.5280363726
 20
7.7430496914
 30
0.0
 10
15.51599399
 20
7.7145420891
 30
0.0
 10
15.4900250037
 20
7.6749766861
 30
0.0
 10
15.4566682165
 20
7.6384191574
 30
0.0
 10
15.4018559259
 20
7.5929640525
 30
0.0
 10
15.3176400021
 20
7.5460796913
 30
0.0
 10
15.2015655871
 20
7.5075364046
 30
0.0
 10
15.0738456033
 20
7.4865847955
 30
0.0
 10
14.941509119
 20
7.4842130278
 30
0.0
 10
14.8119781771
 20
7.5005006972
 30
0.0
 10
14.7292312195
 20
7.5241756811
 30
0.0
 10
14.6903811763
 20
7.5393140136
 30
0.0
  0
SPLINE
  5
4AD
100
AcDbEntity
  8
02___PRT_ALL_AXES
100
AcDbSpline
 62
7
  6
CONTINUOUS
 70
0
 71
3
 72
9
 73
5
 74
0
 42
0.0000001
 43
0.0000001
 44
0.0000000001
 40
0.0
 40
0.0
 40
0.0
 40
0.0
 40
0.2459914972
 40
1.0
 40
1.0
 40
1.0
 40
1.0
 10
14.5348927766
 20
7.6773421129
 30
0.0
 10
14.5285576783
 20
7.6816716664
 30
0.0
 10
14.5029949251
 20
7.6995505736
 30
0.0
 10
14.4781673157
 20
7.7184704573
 30
0.0
 10
14.45980947
 20
7.7331732735
 30
0.0
  0
SPLINE
  5
4AE
100
AcDbEntity
  8
02___PRT_ALL_AXES
100
AcDbSpline
 62
7
  6
CONTINUOUS
 70
0
 71
3
 72
15
 73
11
 74
0
 42
0.0000001
 43
0.0000001
 44
0.0000000001
 40
0.0
 40
0.0
 40
0.0
 40
0.0
 40
0.134348887
 40
0.272351379
 40
0.4105564279
 40
0.5454963358
 40
0.673996189
 40
0.7934610053
 40
0.9022280082
 40
1.0
 40
1.0
 40
1.0
 40
1.0
 10
14.7680136219
 20
7.5639435318
 30
0.0
 10
14.8040883225
 20
7.5558941985
 30
0.0
 10
14.8783092313
 20
7.5441838908
 30
0.0
 10
14.9913818048
 20
7.5393983058
 30
0.0
 10
15.1044671535
 20
7.5472304251
 30
0.0
 10
15.2133614726
 20
7.5674601202
 30
0.0
 10
15.3140575753
 20
7.5993993069
 30
0.0
 10
15.4029019565
 20
7.6420011166
 30
0.0
 10
15.4766528473
 20
7.6938266985
 30
0.0
 10
15.5159376077
 20
7.7357194325
 30
0.0
 10
15.5315485624
 20
7.7576248228
 30
0.0
  0
SPLINE
  5
4AF
100
AcDbEntity
  8
02___PRT_ALL_AXES
100
AcDbSpline
 62
7
  6
CONTINUOUS
 70
0
 71
3
 72
11
 73
7
 74
0
 42
0.0000001
 43
0.0000001
 44
0.0000000001
 40
0.0
 40
0.0
 40
0.0
 40
0.0
 40
0.2640981385
 40
0.5164750368
 40
0.7604391126
 40
1.0
 40
1.0
 40
1.0
 40
1.0
 10
15.5315485624
 20
7.7576248228
 30
0.0
 10
15.5389300237
 20
7.7679825359
 30
0.0
 10
15.552090808
 20
7.7891969526
 30
0.0
 10
15.5667444976
 20
7.8229098591
 30
0.0
 10
15.5756260124
 20
7.8573752432
 30
0.0
 10
15.5776136488
 20
7.8807076672
 30
0.0
 10
15.5776136278
 20
7.89224478
 30
0.0
  0
SPLINE
  5
4B0
100
AcDbEntity
  8
0
100
AcDbSpline
 62
7
  6
CONTINUOUS
 70
0
 71
3
 72
9
 73
5
 74
0
 42
0.0000001
 43
0.0000001
 44
0.0000000001
 40
0.0
 40
0.0
 40
0.0
 40
0.0
 40
0.5165668674
 40
1.0
 40
1.0
 40
1.0
 40
1.0
 10
14.5414848193
 20
7.6254375976
 30
0.0
 10
14.5235879638
 20
7.6407154517
 30
0.0
 10
14.4914561455
 20
7.6734789664
 30
0.0
 10
14.4674149498
 20
7.7128136622
 30
0.0
 10
14.4586115932
 20
7.7329992233
 30
0.0
  0
SPLINE
  5
4B1
100
AcDbEntity
  8
02___PRT_ALL_AXES
100
AcDbSpline
 62
7
  6
CONTINUOUS
 70
0
 71
3
 72
9
 73
5
 74
0
 42
0.0000001
 43
0.0000001
 44
0.0000000001
 40
0.0
 40
0.0
 40
0.0
 40
0.0
 40
0.2454806407
 40
1.0
 40
1.0
 40
1.0
 40
1.0
 10
14.5348927766
 20
7.7255607595
 30
0.0
 10
14.5275816403
 20
7.7305573602
 30
0.0
 10
14.4980529399
 20
7.7512834131
 30
0.0
 10
14.4694999809
 20
7.7733822074
 30
0.0
 10
14.4484227823
 20
7.7906041284
 30
0.0
  0
SPLINE
  5
4B2
100
AcDbEntity
  8
02___PRT_ALL_AXES
100
AcDbSpline
 62
7
  6
CONTINUOUS
 70
0
 71
3
 72
17
 73
13
 74
0
 42
0.0000001
 43
0.0000001
 44
0.0000000001
 40
0.0
 40
0.0
 40
0.0
 40
0.0
 40
0.1354899026
 40
0.274666812
 40
0.4138273732
 40
0.5492714725
 40
0.6776502248
 40
0.7383670689
 40
0.7964000645
 40
0.8515935256
 40
0.9038919141
 40
1.0
 40
1.0
 40
1.0
 40
1.0
 10
14.7680136219
 20
7.6121621785
 30
0.0
 10
14.8052278726
 20
7.6038585778
 30
0.0
 10
14.8818307292
 20
7.5919265289
 30
0.0
 10
14.9984510261
 20
7.5876038155
 30
0.0
 10
15.1148137702
 20
7.5966767009
 30
0.0
 10
15.2263057531
 20
7.6188589024
 30
0.0
 10
15.3131593911
 20
7.6481467496
 30
0.0
 10
15.3761848012
 20
7.6777021992
 30
0.0
 10
15.418716755
 20
7.7020486916
 30
0.0
 10
15.4569757994
 20
7.7287677051
 30
0.0
 10
15.5004933714
 20
7.766097036
 30
0.0
 10
15.5277399207
 20
7.7984966675
 30
0.0
 10
15.5419610595
 20
7.8215027168
 30
0.0
  0
SPLINE
  5
4B3
100
AcDbEntity
  8
02___PRT_ALL_AXES
100
AcDbSpline
 62
7
  6
CONTINUOUS
 70
0
 71
3
 72
9
 73
5
 74
0
 42
0.0000001
 43
0.0000001
 44
0.0000000001
 40
0.0
 40
0.0
 40
0.0
 40
0.0
 40
0.5106602346
 40
1.0
 40
1.0
 40
1.0
 40
1.0
 10
15.5419610595
 20
7.8215027168
 30
0.0
 10
15.5490185892
 20
7.8329199372
 30
0.0
 10
15.5612388843
 20
7.856325498
 30
0.0
 10
15.5694361888
 20
7.8814556143
 30
0.0
 10
15.5723108214
 20
7.8939922963
 30
0.0
  0
SPLINE
  5
4B4
100
AcDbEntity
  8
02___PRT_ALL_AXES
100
AcDbSpline
 62
7
  6
CONTINUOUS
 70
0
 71
3
 72
9
 73
5
 74
0
 42
0.0000001
 43
0.0000001
 44
0.0000000001
 40
0.0
 40
0.0
 40
0.0
 40
0.0
 40
0.2454799692
 40
1.0
 40
1.0
 40
1.0
 40
1.0
 10
14.5348927766
 20
7.7737794062
 30
0.0
 10
14.5275816604
 20
7.7787759932
 30
0.0
 10
14.4980530176
 20
7.7995021267
 30
0.0
 10
14.4694999994
 20
7.8216008391
 30
0.0
 10
14.4484227823
 20
7.8388227751
 30
0.0
  0
SPLINE
  5
4B5
100
AcDbEntity
  8
02___PRT_ALL_AXES
100
AcDbSpline
 62
7
  6
CONTINUOUS
 70
0
 71
3
 72
11
 73
7
 74
0
 42
0.0000001
 43
0.0000001
 44
0.0000000001
 40
0.0
 40
0.0
 40
0.0
 40
0.0
 40
0.2476469618
 40
0.5019983066
 40
0.7553212338
 40
1.0
 40
1.0
 40
1.0
 40
1.0
 10
14.7680136219
 20
7.6603808252
 30
0.0
 10
14.8078007643
 20
7.6515031362
 30
0.0
 10
14.8897807009
 20
7.6391038289
 30
0.0
 10
15.0143749481
 20
7.6359586334
 30
0.0
 10
15.1379366798
 20
7.6480232728
 30
0.0
 10
15.2181300395
 20
7.6664154201
 30
0.0
 10
15.2566238673
 20
7.678266917
 30
0.0
  0
SPLINE
  5
4B6
100
AcDbEntity
  8
02___PRT_ALL_AXES
100
AcDbSpline
 62
7
  6
CONTINUOUS
 70
0
 71
3
 72
14
 73
10
 74
0
 42
0.0000001
 43
0.0000001
 44
0.0000000001
 40
0.0
 40
0.0
 40
0.0
 40
0.0
 40
0.2949142459
 40
0.4315939127
 40
0.560193567
 40
0.6806184989
 40
0.7932837154
 40
0.8991968857
 40
1.0
 40
1.0
 40
1.0
 40
1.0
 10
15.2566238673
 20
7.678266917
 30
0.0
 10
15.2969516699
 20
7.6906830589
 30
0.0
 10
15.35482309
 20
7.7134459913
 30
0.0
 10
15.424372852
 20
7.7535150089
 30
0.0
 10
15.4690112476
 20
7.7861817693
 30
0.0
 10
15.5067793598
 20
7.8217785461
 30
0.0
 10
15.5371200725
 20
7.8598658784
 30
0.0
 10
15.5595344333
 20
7.8999339659
 30
0.0
 10
15.5690873713
 20
7.9281530184
 30
0.0
 10
15.5723108214
 20
7.942210943
 30
0.0
  0
SPLINE
  5
4B7
100
AcDbEntity
  8
02___PRT_ALL_AXES
100
AcDbSpline
 62
7
  6
CONTINUOUS
 70
0
 71
3
 72
9
 73
5
 74
0
 42
0.0000001
 43
0.0000001
 44
0.0000000001
 40
0.0
 40
0.0
 40
0.0
 40
0.0
 40
0.2454799692
 40
1.0
 40
1.0
 40
1.0
 40
1.0
 10
14.5348927766
 20
7.8219980529
 30
0.0
 10
14.5275816604
 20
7.8269946399
 30
0.0
 10
14.4980530176
 20
7.8477207734
 30
0.0
 10
14.4694999994
 20
7.8698194857
 30
0.0
 10
14.4484227823
 20
7.8870414218
 30
0.0
  0
SPLINE
  5
4B8
100
AcDbEntity
  8
02___PRT_ALL_AXES
100
AcDbSpline
 62
7
  6
CONTINUOUS
 70
0
 71
3
 72
17
 73
13
 74
0
 42
0.0000001
 43
0.0000001
 44
0.0000000001
 40
0.0
 40
0.0
 40
0.0
 40
0.0
 40
0.1353563914
 40
0.2743962184
 40
0.4134453091
 40
0.5488302664
 40
0.6772218779
 40
0.7379744767
 40
0.7960622873
 40
0.8513274667
 40
0.9037100983
 40
1.0
 40
1.0
 40
1.0
 40
1.0
 10
14.7680136219
 20
7.7085994719
 30
0.0
 10
14.8050989674
 20
7.7003246337
 30
0.0
 10
14.8814323793
 20
7.6884172126
 30
0.0
 10
14.9976518429
 20
7.6840403219
 30
0.0
 10
15.1136464228
 20
7.6929702306
 30
0.0
 10
15.2248479071
 20
7.7149277815
 30
0.0
 10
15.3115397866
 20
7.7439623819
 30
0.0
 10
15.3745156687
 20
7.7732824718
 30
0.0
 10
15.4170613071
 20
7.7974499946
 30
0.0
 10
15.4553794004
 20
7.8239828203
 30
0.0
 10
15.4990389518
 20
7.8610719403
 30
0.0
 10
15.5264619458
 20
7.8932705739
 30
0.0
 10
15.5408481625
 20
7.9161547898
 30
0.0
  0
SPLINE
  5
4B9
100
AcDbEntity
  8
02___PRT_ALL_AXES
100
AcDbSpline
 62
7
  6
CONTINUOUS
 70
0
 71
3
 72
9
 73
5
 74
0
 42
0.0000001
 43
0.0000001
 44
0.0000000001
 40
0.0
 40
0.0
 40
0.0
 40
0.0
 40
0.5110172216
 40
1.0
 40
1.0
 40
1.0
 40
1.0
 10
15.5408481625
 20
7.9161547898
 30
0.0
 10
15.5481869702
 20
7.9278286623
 30
0.0
 10
15.5608836564
 20
7.9517829632
 30
0.0
 10
15.5693618911
 20
7.9775688849
 30
0.0
 10
15.5723108214
 20
7.9904295897
 30
0.0
  0
SPLINE
  5
4BA
100
AcDbEntity
  8
0
100
AcDbSpline
 62
7
  6
CONTINUOUS
 70
0
 71
3
 72
15
 73
11
 74
0
 42
0.0000001
 43
0.0000001
 44
0.0000000001
 40
0.0
 40
0.0
 40
0.0
 40
0.0
 40
0.1080713608
 40
0.218123921
 40
0.3320455909
 40
0.4514034014
 40
0.5773876062
 40
0.7107156424
 40
0.851643467
 40
1.0
 40
1.0
 40
1.0
 40
1.0
 10
15.9752527596
 20
8.4638366851
 30
0.0
 10
15.9752527596
 20
8.4404249034
 30
0.0
 10
15.9705114422
 20
8.3930443132
 30
0.0
 10
15.9495099017
 20
8.3238231266
 30
0.0
 10
15.9153181106
 20
8.2573536788
 30
0.0
 10
15.8688139337
 20
8.1945732344
 30
0.0
 10
15.8109203884
 20
8.1361117938
 30
0.0
 10
15.7425302349
 20
8.0824903365
 30
0.0
 10
15.6645741247
 20
8.0341842199
 30
0.0
 10
15.6082365438
 20
8.0064966399
 30
0.0
 10
15.5788095529
 20
7.9935753865
 30
0.0
  0
SPLINE
  5
4BB
100
AcDbEntity
  8
0
100
AcDbSpline
 62
7
  6
CONTINUOUS
 70
0
 71
3
 72
11
 73
7
 74
0
 42
0.0000001
 43
0.0000001
 44
0.0000000001
 40
0.0
 40
0.0
 40
0.0
 40
0.0
 40
0.235774035
 40
0.4857970798
 40
0.7431406121
 40
1.0
 40
1.0
 40
1.0
 40
1.0
 10
15.5764216899
 20
7.9925302115
 30
0.0
 10
15.5170073909
 20
7.9666069246
 30
0.0
 10
15.3898637057
 20
7.9236833179
 30
0.0
 10
15.1884422757
 20
7.8861562843
 30
0.0
 10
14.9781028936
 20
7.8745437175
 30
0.0
 10
14.8366252287
 20
7.8845419702
 30
0.0
 10
14.7666633218
 20
7.894164899
 30
0.0
  0
SPLINE
  5
4BC
100
AcDbEntity
  8
0
100
AcDbSpline
 62
7
  6
CONTINUOUS
 70
0
 71
3
 72
11
 73
7
 74
0
 42
0.0000001
 43
0.0000001
 44
0.0000000001
 40
0.0
 40
0.0
 40
0.0
 40
0.0
 40
0.2649839881
 40
0.5215562137
 40
0.767203389
 40
1.0
 40
1.0
 40
1.0
 40
1.0
 10
14.7666633218
 20
7.894164899
 30
0.0
 10
14.723797229
 20
7.900060927
 30
0.0
 10
14.6398514139
 20
7.9151093924
 30
0.0
 10
14.5187628785
 20
7.9478801666
 30
0.0
 10
14.4061935553
 20
7.9900363352
 30
0.0
 10
14.3361075331
 20
8.024991945
 30
0.0
 10
14.3031864758
 20
8.0439984964
 30
0.0
  0
SPLINE
  5
4BD
100
AcDbEntity
  8
02___PRT_ALL_AXES
100
AcDbSpline
 62
7
  6
CONTINUOUS
 70
0
 71
3
 72
9
 73
5
 74
0
 42
0.0000001
 43
0.0000001
 44
0.0000000001
 40
0.0
 40
0.0
 40
0.0
 40
0.0
 40
0.2454799692
 40
1.0
 40
1.0
 40
1.0
 40
1.0
 10
14.5348927766
 20
7.8702166996
 30
0.0
 10
14.5275816604
 20
7.8752132865
 30
0.0
 10
14.4980530176
 20
7.8959394201
 30
0.0
 10
14.4694999994
 20
7.9180381324
 30
0.0
 10
14.4484227823
 20
7.9352600685
 30
0.0
  0
SPLINE
  5
4BE
100
AcDbEntity
  8
02___PRT_ALL_AXES
100
AcDbSpline
 62
7
  6
CONTINUOUS
 70
0
 71
3
 72
17
 73
13
 74
0
 42
0.0000001
 43
0.0000001
 44
0.0000000001
 40
0.0
 40
0.0
 40
0.0
 40
0.0
 40
0.1353549588
 40
0.2743933145
 40
0.4134412078
 40
0.5488255281
 40
0.6772172747
 40
0.7379702558
 40
0.7960586535
 40
0.8513246023
 40
0.9037081389
 40
1.0
 40
1.0
 40
1.0
 40
1.0
 10
14.7680136219
 20
7.7568181185
 30
0.0
 10
14.8050975827
 20
7.7485435894
 30
0.0
 10
14.8814281
 20
7.7366364334
 30
0.0
 10
14.9976432567
 20
7.7322589632
 30
0.0
 10
15.1136338786
 20
7.7411873398
 30
0.0
 10
15.2248322355
 20
7.7631424819
 30
0.0
 10
15.3115223684
 20
7.792174366
 30
0.0
 10
15.3744977078
 20
7.821491931
 30
0.0
 10
15.417043484
 20
7.8456575327
 30
0.0
 10
15.4553622011
 20
7.8721883593
 30
0.0
 10
15.4990232631
 20
7.9092748998
 30
0.0
 10
15.5264481376
 20
7.9414713738
 30
0.0
 10
15.5408361168
 20
7.964354277
 30
0.0
  0
SPLINE
  5
4BF
100
AcDbEntity
  8
0
100
AcDbSpline
 62
7
  6
CONTINUOUS
 70
0
 71
3
 72
14
 73
10
 74
0
 42
0.0000001
 43
0.0000001
 44
0.0000000001
 40
0.0
 40
0.0
 40
0.0
 40
0.0
 40
0.2824657279
 40
0.4139610173
 40
0.5394083172
 40
0.6595723647
 40
0.7755182978
 40
0.8884984286
 40
1.0
 40
1.0
 40
1.0
 40
1.0
 10
14.3031864758
 20
8.0439984964
 30
0.0
 10
14.2593289078
 20
8.0693191022
 30
0.0
 10
14.197748125
 20
8.1118218498
 30
0.0
 10
14.1278790817
 20
8.1789259053
 30
0.0
 10
14.0848506356
 20
8.2313106517
 30
0.0
 10
14.0505321232
 20
8.2865450194
 30
0.0
 10
14.0254798231
 20
8.3441669136
 30
0.0
 10
14.0101850826
 20
8.4035189907
 30
0.0
 10
14.0067488226
 20
8.4438460458
 30
0.0
 10
14.0067488226
 20
8.4638366851
 30
0.0
  0
SPLINE
  5
4C0
100
AcDbEntity
  8
02___PRT_ALL_AXES
100
AcDbSpline
 62
7
  6
CONTINUOUS
 70
0
 71
3
 72
9
 73
5
 74
0
 42
0.0000001
 43
0.0000001
 44
0.0000000001
 40
0.0
 40
0.0
 40
0.0
 40
0.0
 40
0.2462417555
 40
1.0
 40
1.0
 40
1.0
 40
1.0
 10
14.5348927766
 20
7.9184353463
 30
0.0
 10
14.5290168945
 20
7.9224510608
 30
0.0
 10
14.5053184404
 20
7.9389984008
 30
0.0
 10
14.4822533711
 20
7.9564452722
 30
0.0
 10
14.465184402
 20
7.9699826417
 30
0.0
  0
SPLINE
  5
4C1
100
AcDbEntity
  8
02___PRT_ALL_AXES
100
AcDbSpline
 62
7
  6
CONTINUOUS
 70
0
 71
3
 72
15
 73
11
 74
0
 42
0.0000001
 43
0.0000001
 44
0.0000000001
 40
0.0
 40
0.0
 40
0.0
 40
0.0
 40
0.131797335
 40
0.2671498559
 40
0.4031413102
 40
0.5368085924
 40
0.6653756959
 40
0.7864511333
 40
0.8982728954
 40
1.0
 40
1.0
 40
1.0
 40
1.0
 10
14.7680136219
 20
7.8050367652
 30
0.0
 10
14.801491963
 20
7.7975667565
 30
0.0
 10
14.8702888604
 20
7.7863962988
 30
0.0
 10
14.9752353155
 20
7.7806891512
 30
0.0
 10
15.0807085947
 20
7.7859044944
 30
0.0
 10
15.1833090613
 20
7.801930184
 30
0.0
 10
15.2797561689
 20
7.8282963958
 30
0.0
 10
15.3669995917
 20
7.8642420829
 30
0.0
 10
15.4422591763
 20
7.9086905403
 30
0.0
 10
15.4849124435
 20
7.9449541633
 30
0.0
 10
15.5030803071
 20
7.9642124612
 30
0.0
  0
SPLINE
  5
4C2
100
AcDbEntity
  8
02___PRT_ALL_AXES
100
AcDbSpline
 62
7
  6
CONTINUOUS
 70
0
 71
3
 72
14
 73
10
 74
0
 42
0.0000001
 43
0.0000001
 44
0.0000000001
 40
0.0
 40
0.0
 40
0.0
 40
0.0
 40
0.2551706972
 40
0.3858697272
 40
0.516183029
 40
0.6443272594
 40
0.7686281183
 40
0.8875921556
 40
1.0
 40
1.0
 40
1.0
 40
1.0
 10
14.7680136219
 20
7.8532554119
 30
0.0
 10
14.8216437313
 20
7.8412889473
 30
0.0
 10
14.9046162656
 20
7.8307243878
 30
0.0
 10
15.0158431637
 20
7.8302881958
 30
0.0
 10
15.0994923885
 20
7.8369061918
 30
0.0
 10
15.1809123417
 20
7.8503560451
 30
0.0
 10
15.2584634101
 20
7.8703898365
 30
0.0
 10
15.3305506276
 20
7.8966201515
 30
0.0
 10
15.3754088096
 20
7.9186004373
 30
0.0
 10
15.3964362853
 20
7.9305913164
 30
0.0
  0
SPLINE
  5
4C3
100
AcDbEntity
  8
02___PRT_ALL_AXES
100
AcDbSpline
 62
7
  6
CONTINUOUS
 70
0
 71
3
 72
9
 73
5
 74
0
 42
0.0000001
 43
0.0000001
 44
0.0000000001
 40
0.0
 40
0.0
 40
0.0
 40
0.0
 40
0.2436743909
 40
1.0
 40
1.0
 40
1.0
 40
1.0
 10
14.4191714478
 20
7.9871785562
 30
0.0
 10
14.4207555913
 20
7.9832757019
 30
0.0
 10
14.4277232917
 20
7.9674501456
 30
0.0
 10
14.4364925441
 20
7.952436509
 30
0.0
 10
14.4438923309
 20
7.9416585677
 30
0.0
  0
SPLINE
  5
4C4
100
AcDbEntity
  8
02___PRT_ALL_AXES
100
AcDbSpline
 62
7
  6
CONTINUOUS
 70
0
 71
3
 72
9
 73
5
 74
0
 42
0.0000001
 43
0.0000001
 44
0.0000000001
 40
0.0
 40
0.0
 40
0.0
 40
0.0
 40
0.4870782942
 40
1.0
 40
1.0
 40
1.0
 40
1.0
 10
14.4101515075
 20
7.9665040273
 30
0.0
 10
14.4133369422
 20
7.9537809762
 30
0.0
 10
14.4225026005
 20
7.9282667116
 30
0.0
 10
14.4360652125
 20
7.9048419537
 30
0.0
 10
14.4438819205
 20
7.8934550851
 30
0.0
  0
SPLINE
  5
4C5
100
AcDbEntity
  8
02___PRT_ALL_AXES
100
AcDbSpline
 62
7
  6
CONTINUOUS
 70
0
 71
3
 72
9
 73
5
 74
0
 42
0.0000001
 43
0.0000001
 44
0.0000000001
 40
0.0
 40
0.0
 40
0.0
 40
0.0
 40
0.4855781907
 40
1.0
 40
1.0
 40
1.0
 40
1.0
 10
14.4101515075
 20
7.9182853806
 30
0.0
 10
14.4136348778
 20
7.9043723352
 30
0.0
 10
14.423965131
 20
7.8764469412
 30
0.0
 10
14.4394660906
 20
7.8510966654
 30
0.0
 10
14.4484227823
 20
7.8388227751
 30
0.0
  0
SPLINE
  5
4C6
100
AcDbEntity
  8
02___PRT_ALL_AXES
100
AcDbSpline
 62
7
  6
CONTINUOUS
 70
0
 71
3
 72
9
 73
5
 74
0
 42
0.0000001
 43
0.0000001
 44
0.0000000001
 40
0.0
 40
0.0
 40
0.0
 40
0.0
 40
0.2441784264
 40
1.0
 40
1.0
 40
1.0
 40
1.0
 10
14.4101515075
 20
7.8700667339
 30
0.0
 10
14.4112871224
 20
7.8655309366
 30
0.0
 10
14.4165910785
 20
7.8471212079
 30
0.0
 10
14.4244742103
 20
7.8294846071
 30
0.0
 10
14.4315404702
 20
7.8168535156
 30
0.0
  0
SPLINE
  5
4C7
100
AcDbEntity
  8
02___PRT_ALL_AXES
100
AcDbSpline
 62
7
  6
CONTINUOUS
 70
0
 71
3
 72
10
 73
6
 74
0
 42
0.0000001
 43
0.0000001
 44
0.0000000001
 40
0.0
 40
0.0
 40
0.0
 40
0.0
 40
0.2391944707
 40
0.4830928873
 40
1.0
 40
1.0
 40
1.0
 40
1.0
 10
14.4043879545
 20
7.8681354567
 30
0.0
 10
14.4043879751
 20
7.8573572512
 30
0.0
 10
14.4062933718
 20
7.8355389729
 30
0.0
 10
14.4178090113
 20
7.7918060654
 30
0.0
 10
14.4346927665
 20
7.7612005436
 30
0.0
 10
14.4484227823
 20
7.7423854817
 30
0.0
  0
SPLINE
  5
4C8
100
AcDbEntity
  8
0
100
AcDbSpline
 62
7
  6
CONTINUOUS
 70
0
 71
3
 72
14
 73
10
 74
0
 42
0.0000001
 43
0.0000001
 44
0.0000000001
 40
0.0
 40
0.0
 40
0.0
 40
0.0
 40
0.1080561663
 40
0.2181504055
 40
0.3321364403
 40
0.4515449248
 40
0.5775144579
 40
0.7107779368
 40
1.0
 40
1.0
 40
1.0
 40
1.0
 10
14.0067492607
 20
8.4638366851
 30
0.0
 10
14.0067486102
 20
8.4452017889
 30
0.0
 10
14.0099871076
 20
8.4075049412
 30
0.0
 10
14.0244316079
 20
8.3518252767
 30
0.0
 10
14.0482766472
 20
8.2973448267
 30
0.0
 10
14.081218447
 20
8.2446191615
 30
0.0
 10
14.1228881532
 20
8.1941185788
 30
0.0
 10
14.1913383886
 20
8.1286105754
 30
0.0
 10
14.2518366066
 20
8.0869601392
 30
0.0
 10
14.2950324474
 20
8.062021573
 30
0.0
  0
SPLINE
  5
4C9
100
AcDbEntity
  8
02___PRT_ALL_AXES
100
AcDbSpline
 62
7
  6
CONTINUOUS
 70
0
 71
3
 72
9
 73
5
 74
0
 42
0.0000001
 43
0.0000001
 44
0.0000000001
 40
0.0
 40
0.0
 40
0.0
 40
0.0
 40
0.2566528485
 40
1.0
 40
1.0
 40
1.0
 40
1.0
 10
14.5348927766
 20
7.7167763021
 30
0.0
 10
14.5318523701
 20
7.7192880839
 30
0.0
 10
14.5201617293
 20
7.7292606601
 30
0.0
 10
14.5091107452
 20
7.7399916781
 30
0.0
 10
14.5013748173
 20
7.7483955361
 30
0.0
  0
SPLINE
  5
4CA
100
AcDbEntity
  8
02___PRT_ALL_AXES
100
AcDbSpline
 62
7
  6
CONTINUOUS
 70
0
 71
3
 72
9
 73
5
 74
0
 42
0.0000001
 43
0.0000001
 44
0.0000000001
 40
0.0
 40
0.0
 40
0.0
 40
0.0
 40
0.256713681
 40
1.0
 40
1.0
 40
1.0
 40
1.0
 10
14.5348927766
 20
7.7649949487
 30
0.0
 10
14.531827703
 20
7.7675271089
 30
0.0
 10
14.520046272
 20
7.7775796854
 30
0.0
 10
14.5089148333
 20
7.7884029381
 30
0.0
 10
14.5011287691
 20
7.7968815996
 30
0.0
  0
SPLINE
  5
4CB
100
AcDbEntity
  8
02___PRT_ALL_AXES
100
AcDbSpline
 62
7
  6
CONTINUOUS
 70
0
 71
3
 72
9
 73
5
 74
0
 42
0.0000001
 43
0.0000001
 44
0.0000000001
 40
0.0
 40
0.0
 40
0.0
 40
0.0
 40
0.2566324321
 40
1.0
 40
1.0
 40
1.0
 40
1.0
 10
14.5348927766
 20
7.8614322421
 30
0.0
 10
14.5318612728
 20
7.8639366691
 30
0.0
 10
14.5202034761
 20
7.873880298
 30
0.0
 10
14.5091815966
 20
7.8845779496
 30
0.0
 10
14.5014638789
 20
7.8929547668
 30
0.0
  0
SPLINE
  5
4CC
100
AcDbEntity
  8
02___PRT_ALL_AXES
100
AcDbSpline
 62
7
  6
CONTINUOUS
 70
0
 71
3
 72
9
 73
5
 74
0
 42
0.0000001
 43
0.0000001
 44
0.0000000001
 40
0.0
 40
0.0
 40
0.0
 40
0.0
 40
0.2566365622
 40
1.0
 40
1.0
 40
1.0
 40
1.0
 10
14.5348927766
 20
7.8132135954
 30
0.0
 10
14.5318595646
 20
7.8157194336
 30
0.0
 10
14.5201954741
 20
7.8256686074
 30
0.0
 10
14.5091680137
 20
7.8363726472
 30
0.0
 10
14.5014468076
 20
7.8447546418
 30
0.0
  0
SPLINE
  5
4CD
100
AcDbEntity
  8
02___PRT_ALL_AXES
100
AcDbSpline
 62
7
  6
CONTINUOUS
 70
0
 71
3
 72
9
 73
5
 74
0
 42
0.0000001
 43
0.0000001
 44
0.0000000001
 40
0.0
 40
0.0
 40
0.0
 40
0.0
 40
0.2566616051
 40
1.0
 40
1.0
 40
1.0
 40
1.0
 10
14.5348927766
 20
7.9096508888
 30
0.0
 10
14.5318491984
 20
7.9121652909
 30
0.0
 10
14.5201469207
 20
7.9221481158
 30
0.0
 10
14.5090856087
 20
7.932890934
 30
0.0
 10
14.5013432544
 20
7.9413043586
 30
0.0
  0
SPLINE
  5
4CE
100
AcDbEntity
  8
02___PRT_ALL_AXES
100
AcDbSpline
 62
7
  6
CONTINUOUS
 70
0
 71
3
 72
9
 73
5
 74
0
 42
0.0000001
 43
0.0000001
 44
0.0000000001
 40
0.0
 40
0.0
 40
0.0
 40
0.0
 40
0.2454799897
 40
1.0
 40
1.0
 40
1.0
 40
1.0
 10
14.6815436276
 20
7.6350142315
 30
0.0
 10
14.6888547444
 20
7.6300176442
 30
0.0
 10
14.7183833867
 20
7.6092915099
 30
0.0
 10
14.7469364054
 20
7.5871927982
 30
0.0
 10
14.7680136219
 20
7.5699708626
 30
0.0
  0
SPLINE
  5
4CF
100
AcDbEntity
  8
02___PRT_ALL_AXES
100
AcDbSpline
 62
7
  6
CONTINUOUS
 70
0
 71
3
 72
9
 73
5
 74
0
 42
0.0000001
 43
0.0000001
 44
0.0000000001
 40
0.0
 40
0.0
 40
0.0
 40
0.0
 40
0.2454799731
 40
1.0
 40
1.0
 40
1.0
 40
1.0
 10
14.6815436276
 20
7.6832328782
 30
0.0
 10
14.6888547439
 20
7.6782362912
 30
0.0
 10
14.7183833866
 20
7.6575101575
 30
0.0
 10
14.7469364049
 20
7.6354114453
 30
0.0
 10
14.7680136219
 20
7.6181895093
 30
0.0
  0
SPLINE
  5
4D0
100
AcDbEntity
  8
02___PRT_ALL_AXES
100
AcDbSpline
 62
7
  6
CONTINUOUS
 70
0
 71
3
 72
9
 73
5
 74
0
 42
0.0000001
 43
0.0000001
 44
0.0000000001
 40
0.0
 40
0.0
 40
0.0
 40
0.0
 40
0.2454799731
 40
1.0
 40
1.0
 40
1.0
 40
1.0
 10
14.6815436276
 20
7.7314515249
 30
0.0
 10
14.6888547439
 20
7.7264549379
 30
0.0
 10
14.7183833866
 20
7.7057288042
 30
0.0
 10
14.7469364049
 20
7.683630092
 30
0.0
 10
14.7680136219
 20
7.666408156
 30
0.0
  0
SPLINE
  5
4D1
100
AcDbEntity
  8
0
100
AcDbSpline
 62
7
  6
CONTINUOUS
 70
0
 71
3
 72
18
 73
14
 74
0
 42
0.0000001
 43
0.0000001
 44
0.0000000001
 40
0.0
 40
0.0
 40
0.0
 40
0.0
 40
0.1324344427
 40
0.2726605264
 40
0.4153520454
 40
0.5548682947
 40
0.6859649265
 40
0.7470767891
 40
0.804695595
 40
0.8586436724
 40
0.9089471134
 40
0.9558796179
 40
1.0
 40
1.0
 40
1.0
 40
1.0
 10
14.6815436276
 20
7.557589588
 30
0.0
 10
14.7202952654
 20
7.5424102228
 30
0.0
 10
14.8030468347
 20
7.51846807
 30
0.0
 10
14.9328621345
 20
7.501353578
 30
0.0
 10
15.0660572043
 20
7.5025287878
 30
0.0
 10
15.1949148951
 20
7.5219397984
 30
0.0
 10
15.2949609568
 20
7.5531183027
 30
0.0
 10
15.3660670054
 20
7.5866609665
 30
0.0
 10
15.4126308988
 20
7.6147366048
 30
0.0
 10
15.4529868219
 20
7.6459133299
 30
0.0
 10
15.4865387141
 20
7.6797813739
 30
0.0
 10
15.512755568
 20
7.7158714009
 30
0.0
 10
15.5253595092
 20
7.7417790871
 30
0.0
 10
15.5301483324
 20
7.7547910063
 30
0.0
  0
SPLINE
  5
4D2
100
AcDbEntity
  8
02___PRT_ALL_AXES
100
AcDbSpline
 62
7
  6
CONTINUOUS
 70
0
 71
3
 72
9
 73
5
 74
0
 42
0.0000001
 43
0.0000001
 44
0.0000000001
 40
0.0
 40
0.0
 40
0.0
 40
0.0
 40
0.2460327877
 40
1.0
 40
1.0
 40
1.0
 40
1.0
 10
14.7680136219
 20
7.5699708626
 30
0.0
 10
14.7768130187
 20
7.5680074568
 30
0.0
 10
14.8127008245
 20
7.560584396
 30
0.0
 10
14.8490334004
 20
7.555335776
 30
0.0
 10
14.876520931
 20
7.5525448189
 30
0.0
  0
SPLINE
  5
4D3
100
AcDbEntity
  8
02___PRT_ALL_AXES
100
AcDbSpline
 62
7
  6
CONTINUOUS
 70
0
 71
3
 72
13
 73
9
 74
0
 42
0.0000001
 43
0.0000001
 44
0.0000000001
 40
0.0
 40
0.0
 40
0.0
 40
0.0
 40
0.285380025
 40
0.4226066166
 40
0.5539033982
 40
0.6779683921
 40
0.7939090846
 40
1.0
 40
1.0
 40
1.0
 40
1.0
 10
15.023558077
 20
7.5484888297
 30
0.0
 10
15.0784362987
 20
7.5509677562
 30
0.0
 10
15.1596645691
 20
7.5611968451
 30
0.0
 10
15.2628513361
 20
7.5885039269
 30
0.0
 10
15.3338416155
 20
7.6147675423
 30
0.0
 10
15.3980390108
 20
7.6466263261
 30
0.0
 10
15.4698754774
 20
7.6937444893
 30
0.0
 10
15.5149486216
 20
7.738409352
 30
0.0
 10
15.5369148367
 20
7.7714443082
 30
0.0
  0
SPLINE
  5
4D4
100
AcDbEntity
  8
02___PRT_ALL_AXES
100
AcDbSpline
 62
7
  6
CONTINUOUS
 70
0
 71
3
 72
11
 73
7
 74
0
 42
0.0000001
 43
0.0000001
 44
0.0000000001
 40
0.0
 40
0.0
 40
0.0
 40
0.0
 40
0.2626521018
 40
0.514747338
 40
0.7593298195
 40
1.0
 40
1.0
 40
1.0
 40
1.0
 10
15.5369148367
 20
7.7714443082
 30
0.0
 10
15.5434611804
 20
7.7812893442
 30
0.0
 10
15.5551175869
 20
7.801405587
 30
0.0
 10
15.5680417796
 20
7.8331731072
 30
0.0
 10
15.5758654011
 20
7.8655575216
 30
0.0
 10
15.5776136475
 20
7.8874387575
 30
0.0
 10
15.5776136278
 20
7.8982721109
 30
0.0
  0
SPLINE
  5
4D5
100
AcDbEntity
  8
02___PRT_ALL_AXES
100
AcDbSpline
 62
7
  6
CONTINUOUS
 70
0
 71
3
 72
9
 73
5
 74
0
 42
0.0000001
 43
0.0000001
 44
0.0000000001
 40
0.0
 40
0.0
 40
0.0
 40
0.0
 40
0.2435176385
 40
1.0
 40
1.0
 40
1.0
 40
1.0
 10
14.4223034287
 20
7.985876022
 30
0.0
 10
14.4240227205
 20
7.9820451492
 30
0.0
 10
14.4315256397
 20
7.966514074
 30
0.0
 10
14.4407336585
 20
7.9518242655
 30
0.0
 10
14.4484227823
 20
7.9412873993
 30
0.0
  0
SPLINE
  5
4D6
100
AcDbEntity
  8
02___PRT_ALL_AXES
100
AcDbSpline
 62
7
  6
CONTINUOUS
 70
0
 71
3
 72
17
 73
13
 74
0
 42
0.0000001
 43
0.0000001
 44
0.0000000001
 40
0.0
 40
0.0
 40
0.0
 40
0.0
 40
0.1351489637
 40
0.2739756472
 40
0.4128510695
 40
0.5481432954
 40
0.6765538143
 40
0.7373614498
 40
0.7955340875
 40
0.8509106298
 40
0.9034245107
 40
1.0
 40
1.0
 40
1.0
 40
1.0
 10
14.7680136219
 20
7.6181895093
 30
0.0
 10
14.8048980909
 20
7.6099594927
 30
0.0
 10
14.8808116307
 20
7.5980906849
 30
0.0
 10
14.996406158
 20
7.593630274
 30
0.0
 10
15.1118259016
 20
7.6023387691
 30
0.0
 10
15.222572242
 20
7.6239479336
 30
0.0
 10
15.3090087825
 20
7.6525894444
 30
0.0
 10
15.3719035987
 20
7.6815440369
 30
0.0
 10
15.4144671894
 20
7.7054332134
 30
0.0
 10
15.4528733998
 20
7.7316763028
 30
0.0
 10
15.4967488891
 20
7.7683914522
 30
0.0
 10
15.5244412898
 20
7.8002767507
 30
0.0
 10
15.5390807659
 20
7.8229696916
 30
0.0
  0
SPLINE
  5
4D7
100
AcDbEntity
  8
02___PRT_ALL_AXES
100
AcDbSpline
 62
7
  6
CONTINUOUS
 70
0
 71
3
 72
9
 73
5
 74
0
 42
0.0000001
 43
0.0000001
 44
0.0000000001
 40
0.0
 40
0.0
 40
0.0
 40
0.0
 40
0.5110105519
 40
1.0
 40
1.0
 40
1.0
 40
1.0
 10
15.5390807659
 20
7.8229696916
 30
0.0
 10
15.5463240504
 20
7.83419765
 30
0.0
 10
15.5589666973
 20
7.8572139534
 30
0.0
 10
15.5677456428
 20
7.8819939179
 30
0.0
 10
15.5709364539
 20
7.8943751706
 30
0.0
  0
SPLINE
  5
4D8
100
AcDbEntity
  8
02___PRT_ALL_AXES
100
AcDbSpline
 62
7
  6
CONTINUOUS
 70
0
 71
3
 72
9
 73
5
 74
0
 42
0.0000001
 43
0.0000001
 44
0.0000000001
 40
0.0
 40
0.0
 40
0.0
 40
0.0
 40
0.2525562221
 40
1.0
 40
1.0
 40
1.0
 40
1.0
 10
15.5709364539
 20
7.8943751706
 30
0.0
 10
15.5720419607
 20
7.8986648504
 30
0.0
 10
15.5759035937
 20
7.9157781706
 30
0.0
 10
15.5776136517
 20
7.933380577
 30
0.0
 10
15.5776136278
 20
7.9464907575
 30
0.0
  0
SPLINE
  5
4D9
100
AcDbEntity
  8
02___PRT_ALL_AXES
100
AcDbSpline
 62
7
  6
CONTINUOUS
 70
0
 71
3
 72
9
 73
5
 74
0
 42
0.0000001
 43
0.0000001
 44
0.0000000001
 40
0.0
 40
0.0
 40
0.0
 40
0.0
 40
0.4835649726
 40
1.0
 40
1.0
 40
1.0
 40
1.0
 10
14.4062919486
 20
7.9921626039
 30
0.0
 10
14.408770441
 20
7.9748512191
 30
0.0
 10
14.4189422895
 20
7.9396485199
 30
0.0
 10
14.4374134254
 20
7.9081555329
 30
0.0
 10
14.4484227823
 20
7.8930687526
 30
0.0
  0
SPLINE
  5
4DA
100
AcDbEntity
  8
02___PRT_ALL_AXES
100
AcDbSpline
 62
7
  6
CONTINUOUS
 70
0
 71
3
 72
11
 73
7
 74
0
 42
0.0000001
 43
0.0000001
 44
0.0000000001
 40
0.0
 40
0.0
 40
0.0
 40
0.0
 40
0.2475845506
 40
0.5018756079
 40
0.7552015582
 40
1.0
 40
1.0
 40
1.0
 40
1.0
 10
14.7680136219
 20
7.666408156
 30
0.0
 10
14.8076469678
 20
7.6575647836
 30
0.0
 10
14.8893053946
 20
7.6451920703
 30
0.0
 10
15.0134252388
 20
7.6419715389
 30
0.0
 10
15.1365621709
 20
7.6538494196
 30
0.0
 10
15.2165142795
 20
7.6720391451
 30
0.0
 10
15.254913463
 20
7.6837696942
 30
0.0
  0
SPLINE
  5
4DB
100
AcDbEntity
  8
02___PRT_ALL_AXES
100
AcDbSpline
 62
7
  6
CONTINUOUS
 70
0
 71
3
 72
14
 73
10
 74
0
 42
0.0000001
 43
0.0000001
 44
0.0000000001
 40
0.0
 40
0.0
 40
0.0
 40
0.0
 40
0.294184103
 40
0.4307464524
 40
0.5593959974
 40
0.680007336
 40
0.792934593
 40
0.8990919478
 40
1.0
 40
1.0
 40
1.0
 40
1.0
 10
15.254913463
 20
7.6837696942
 30
0.0
 10
15.2947934569
 20
7.6959526155
 30
0.0
 10
15.3520723771
 20
7.7182667359
 30
0.0
 10
15.4211148803
 20
7.7574789562
 30
0.0
 10
15.4656214625
 20
7.7894690186
 30
0.0
 10
15.5034893219
 20
7.8243425331
 30
0.0
 10
15.5341779289
 20
7.861678848
 30
0.0
 10
15.5572016458
 20
7.9009920256
 30
0.0
 10
15.5673669383
 20
7.9287430835
 30
0.0
 10
15.5709364539
 20
7.9425938173
 30
0.0
  0
SPLINE
  5
4DC
100
AcDbEntity
  8
02___PRT_ALL_AXES
100
AcDbSpline
 62
7
  6
CONTINUOUS
 70
0
 71
3
 72
9
 73
5
 74
0
 42
0.0000001
 43
0.0000001
 44
0.0000000001
 40
0.0
 40
0.0
 40
0.0
 40
0.0
 40
0.2525485833
 40
1.0
 40
1.0
 40
1.0
 40
1.0
 10
15.5709364539
 20
7.9425938173
 30
0.0
 10
15.5720350969
 20
7.9468568638
 30
0.0
 10
15.5758760218
 20
7.9638636858
 30
0.0
 10
15.5775926302
 20
7.9813538337
 30
0.0
 10
15.5776133684
 20
7.9943831279
 30
0.0
  0
SPLINE
  5
4DD
100
AcDbEntity
  8
02___PRT_ALL_AXES
100
AcDbSpline
 62
7
  6
CONTINUOUS
 70
0
 71
3
 72
10
 73
6
 74
0
 42
0.0000001
 43
0.0000001
 44
0.0000000001
 40
0.0
 40
0.0
 40
0.0
 40
0.0
 40
0.2391944707
 40
0.4830928873
 40
1.0
 40
1.0
 40
1.0
 40
1.0
 10
14.4043879545
 20
7.9706000809
 30
0.0
 10
14.4043879751
 20
7.9598218754
 30
0.0
 10
14.4062933718
 20
7.9380035971
 30
0.0
 10
14.4178090113
 20
7.8942706896
 30
0.0
 10
14.4346927665
 20
7.8636651678
 30
0.0
 10
14.4484227823
 20
7.8448501059
 30
0.0
  0
SPLINE
  5
4DE
100
AcDbEntity
  8
0
100
AcDbSpline
 62
7
  6
CONTINUOUS
 70
0
 71
3
 72
11
 73
7
 74
0
 42
0.0000001
 43
0.0000001
 44
0.0000000001
 40
0.0
 40
0.0
 40
0.0
 40
0.0
 40
0.2995093036
 40
0.563075569
 40
0.7928330133
 40
1.0
 40
1.0
 40
1.0
 40
1.0
 10
14.6815436276
 20
7.557589588
 30
0.0
 10
14.6815436276
 20
7.5556055734
 30
0.0
 10
14.6818126555
 20
7.551865044
 30
0.0
 10
14.6831838323
 20
7.5467530683
 30
0.0
 10
14.6854994424
 20
7.5426591491
 30
0.0
 10
14.6877328438
 20
7.5407027807
 30
0.0
 10
14.6889214023
 20
7.5400167863
 30
0.0
  0
SPLINE
  5
4DF
100
AcDbEntity
  8
0
100
AcDbSpline
 62
7
  6
CONTINUOUS
 70
0
 71
3
 72
9
 73
5
 74
0
 42
0.0000001
 43
0.0000001
 44
0.0000000001
 40
0.0
 40
0.0
 40
0.0
 40
0.0
 40
0.5358124988
 40
1.0
 40
1.0
 40
1.0
 40
1.0
 10
14.5348927766
 20
7.6422565808
 30
0.0
 10
14.5348927766
 20
7.6389528515
 30
0.0
 10
14.5357551824
 20
7.6326922054
 30
0.0
 10
14.5393071239
 20
7.6272948656
 30
0.0
 10
14.5414851454
 20
7.6254380273
 30
0.0
  0
SPLINE
  5
4E0
100
AcDbEntity
  8
02___PRT_ALL_AXES
100
AcDbSpline
 62
7
  6
CONTINUOUS
 70
0
 71
3
 72
10
 73
6
 74
0
 42
0.0000001
 43
0.0000001
 44
0.0000000001
 40
0.0
 40
0.0
 40
0.0
 40
0.0
 40
0.2424399817
 40
0.4881003537
 40
1.0
 40
1.0
 40
1.0
 40
1.0
 10
14.4043879545
 20
7.9223814342
 30
0.0
 10
14.4043879714
 20
7.9135452267
 30
0.0
 10
14.4056595975
 20
7.8957268114
 30
0.0
 10
14.4133325766
 20
7.8600078031
 30
0.0
 10
14.4246989759
 20
7.8344092403
 30
0.0
 10
14.4341536376
 20
7.8183250701
 30
0.0
  0
SPLINE
  5
4E1
100
AcDbEntity
  8
02___PRT_ALL_AXES
100
AcDbSpline
 62
7
  6
CONTINUOUS
 70
0
 71
3
 72
10
 73
6
 74
0
 42
0.0000001
 43
0.0000001
 44
0.0000000001
 40
0.0
 40
0.0
 40
0.0
 40
0.0
 40
0.2391944707
 40
0.4830928873
 40
1.0
 40
1.0
 40
1.0
 40
1.0
 10
14.4043879545
 20
7.8741627875
 30
0.0
 10
14.4043879751
 20
7.8633845821
 30
0.0
 10
14.4062933718
 20
7.8415663037
 30
0.0
 10
14.4178090113
 20
7.7978333962
 30
0.0
 10
14.4346927665
 20
7.7672278744
 30
0.0
 10
14.4484227823
 20
7.7484128126
 30
0.0
  0
SPLINE
  5
4E2
100
AcDbEntity
  8
0
100
AcDbSpline
 62
7
  6
CONTINUOUS
 70
0
 71
3
 72
9
 73
5
 74
0
 42
0.0000001
 43
0.0000001
 44
0.0000000001
 40
0.0
 40
0.0
 40
0.0
 40
0.0
 40
0.4843427203
 40
1.0
 40
1.0
 40
1.0
 40
1.0
 10
14.2950324474
 20
8.062021573
 30
0.0
 10
14.3311769324
 20
8.041154017
 30
0.0
 10
14.4087366394
 20
8.003048629
 30
0.0
 10
14.4900190101
 20
7.9739203233
 30
0.0
 10
14.5325330767
 20
7.9609993346
 30
0.0
  0
SPLINE
  5
4E3
100
AcDbEntity
  8
0
100
AcDbSpline
 62
7
  6
CONTINUOUS
 70
0
 71
3
 72
9
 73
5
 74
0
 42
0.0000001
 43
0.0000001
 44
0.0000000001
 40
0.0
 40
0.0
 40
0.0
 40
0.0
 40
0.2458313185
 40
1.0
 40
1.0
 40
1.0
 40
1.0
 10
14.5325330767
 20
7.9609993346
 30
0.0
 10
14.5444011737
 20
7.9573923509
 30
0.0
 10
14.5928794197
 20
7.9433860421
 30
0.0
 10
14.6421077309
 20
7.9319997999
 30
0.0
 10
14.6794743527
 20
7.9248011374
 30
0.0
  0
SPLINE
  5
4E4
100
AcDbEntity
  8
0
100
AcDbSpline
 62
7
  6
CONTINUOUS
 70
0
 71
3
 72
20
 73
16
 74
0
 42
0.0000001
 43
0.0000001
 44
0.0000000001
 40
0.0
 40
0.0
 40
0.0
 40
0.0
 40
0.1444617722
 40
0.2910781893
 40
0.4350764631
 40
0.5047045218
 40
0.5720394071
 40
0.6366444711
 40
0.6981684022
 40
0.7563678194
 40
0.8111337481
 40
0.8625208397
 40
0.9107777749
 40
0.9563725988
 40
1.0
 40
1.0
 40
1.0
 40
1.0
 10
14.6794743527
 20
7.9248011374
 30
0.0
 10
14.7497733074
 20
7.911258076
 30
0.0
 10
14.893465507
 20
7.8937775279
 30
0.0
 10
15.1095933918
 20
7.8951133308
 30
0.0
 10
15.2871067807
 20
7.9189928888
 30
0.0
 10
15.42252225
 20
7.9518204136
 30
0.0
 10
15.5177137833
 20
7.9824267845
 30
0.0
 10
15.6064915785
 20
8.0189135502
 30
0.0
 10
15.6877863193
 20
8.0608498944
 30
0.0
 10
15.7606150771
 20
8.1077439426
 30
0.0
 10
15.824096927
 20
8.1590571089
 30
0.0
 10
15.8774518094
 20
8.2142090793
 30
0.0
 10
15.9199968474
 20
8.2725972082
 30
0.0
 10
15.9511295863
 20
8.3335327659
 30
0.0
 10
15.9641493145
 20
8.376092886
 30
0.0
 10
15.9684773141
 20
8.3972759068
 30
0.0
  0
SPLINE
  5
4E5
100
AcDbEntity
  8
02___PRT_ALL_AXES
100
AcDbSpline
 62
7
  6
CONTINUOUS
 70
0
 71
3
 72
14
 73
10
 74
0
 42
0.0000001
 43
0.0000001
 44
0.0000000001
 40
0.0
 40
0.0
 40
0.0
 40
0.0
 40
0.1080469107
 40
0.2181305961
 40
0.3321044521
 40
0.4515001684
 40
0.577461745
 40
0.7107237818
 40
1.0
 40
1.0
 40
1.0
 40
1.0
 10
14.0067490891
 20
8.8495998578
 30
0.0
 10
14.0067486944
 20
8.8309660498
 30
0.0
 10
14.0099826253
 20
8.7932713768
 30
0.0
 10
14.0244244352
 20
8.7375948492
 30
0.0
 10
14.0482648833
 20
8.6831175273
 30
0.0
 10
14.0812003378
 20
8.6303925895
 30
0.0
 10
14.1228661014
 20
8.5798913394
 30
0.0
 10
14.1913203072
 20
8.5143725765
 30
0.0
 10
14.2518273406
 20
8.4727146622
 30
0.0
 10
14.2950324474
 20
8.4477707465
 30
0.0
  0
SPLINE
  5
4E6
100
AcDbEntity
  8
0
100
AcDbSpline
 62
7
  6
CONTINUOUS
 70
0
 71
3
 72
9
 73
5
 74
0
 42
0.0000001
 43
0.0000001
 44
0.0000000001
 40
0.0
 40
0.0
 40
0.0
 40
0.0
 40
0.4781881571
 40
1.0
 40
1.0
 40
1.0
 40
1.0
 10
14.4621087664
 20
7.7313425854
 30
0.0
 10
14.4704551889
 20
7.7149150811
 30
0.0
 10
14.4921084557
 20
7.6826209685
 30
0.0
 10
14.5195793638
 20
7.655287258
 30
0.0
 10
14.5348927766
 20
7.6422565808
 30
0.0
  0
SPLINE
  5
4E7
100
AcDbEntity
  8
02___PRT_ALL_AXES
100
AcDbSpline
 62
7
  6
CONTINUOUS
 70
0
 71
3
 72
23
 73
19
 74
0
 42
0.0000001
 43
0.0000001
 44
0.0000000001
 40
0.0
 40
0.0
 40
0.0
 40
0.0
 40
0.0427726714
 40
0.0871516551
 40
0.1344647812
 40
0.185607891
 40
0.2410275269
 40
0.3007781911
 40
0.3645992215
 40
0.4319863339
 40
0.5022525161
 40
0.5745792383
 40
0.6480609193
 40
0.7217453759
 40
0.7946724243
 40
0.8659119429
 40
0.9346041775
 40
1.0
 40
1.0
 40
1.0
 40
1.0
 10
15.9752524932
 20
8.8495718593
 30
0.0
 10
15.9752519287
 20
8.822923636
 30
0.0
 10
15.9684997816
 20
8.7684149238
 30
0.0
 10
15.9387331694
 20
8.6893876969
 30
0.0
 10
15.8902833767
 20
8.6140526579
 30
0.0
 10
15.8244070748
 20
8.5437960154
 30
0.0
 10
15.7425031575
 20
8.4797623928
 30
0.0
 10
15.6461668567
 20
8.423047104
 30
0.0
 10
15.5372326159
 20
8.3746577373
 30
0.0
 10
15.417775554
 20
8.3354857274
 30
0.0
 10
15.290082959
 20
8.3062687719
 30
0.0
 10
15.1566114942
 20
8.2875649587
 30
0.0
 10
15.0199375868
 20
8.2797343931
 30
0.0
 10
14.8827035699
 20
8.2829288236
 30
0.0
 10
14.7475654945
 20
8.2970856764
 30
0.0
 10
14.6171282429
 20
8.3219336883
 30
0.0
 10
14.4939258237
 20
8.3569891563
 30
0.0
 10
14.415999975
 20
8.3875807895
 30
0.0
 10
14.3789634495
 20
8.4045595793
 30
0.0
  0
SPLINE
  5
4E8
100
AcDbEntity
  8
02___PRT_ALL_AXES
100
AcDbSpline
 62
7
  6
CONTINUOUS
 70
0
 71
3
 72
9
 73
5
 74
0
 42
0.0000001
 43
0.0000001
 44
0.0000000001
 40
0.0
 40
0.0
 40
0.0
 40
0.0
 40
0.2550811906
 40
1.0
 40
1.0
 40
1.0
 40
1.0
 10
14.3789634495
 20
8.4045595793
 30
0.0
 10
14.3716654831
 20
8.4079052128
 30
0.0
 10
14.343201616
 20
8.4213371035
 30
0.0
 10
14.3153367046
 20
8.4360483434
 30
0.0
 10
14.2950324474
 20
8.4477707465
 30
0.0
  0
SPLINE
  5
4E9
100
AcDbEntity
  8
02___PRT_ALL_AXES
100
AcDbSpline
 62
7
  6
CONTINUOUS
 70
0
 71
3
 72
11
 73
7
 74
0
 42
0.0000001
 43
0.0000001
 44
0.0000000001
 40
0.0
 40
0.0
 40
0.0
 40
0.0
 40
0.2366189888
 40
0.4900721491
 40
0.7487198432
 40
1.0
 40
1.0
 40
1.0
 40
1.0
 10
15.3322485077
 20
7.6581478599
 30
0.0
 10
15.2911241768
 20
7.6386989908
 30
0.0
 10
15.2014509603
 20
7.6076564094
 30
0.0
 10
15.0588446553
 20
7.5842267697
 30
0.0
 10
14.9115288149
 20
7.5830785665
 30
0.0
 10
14.8140432553
 20
7.5975947156
 30
0.0
 10
14.7670825509
 20
7.6089331229
 30
0.0
  0
SPLINE
  5
4EA
100
AcDbEntity
  8
02___PRT_ALL_AXES
100
AcDbSpline
 62
7
  6
CONTINUOUS
 70
0
 71
3
 72
9
 73
5
 74
0
 42
0.0000001
 43
0.0000001
 44
0.0000000001
 40
0.0
 40
0.0
 40
0.0
 40
0.0
 40
0.2557616595
 40
1.0
 40
1.0
 40
1.0
 40
1.0
 10
14.7670825509
 20
7.6089331229
 30
0.0
 10
14.7596690062
 20
7.6107230831
 30
0.0
 10
14.7307856333
 20
7.6181365074
 30
0.0
 10
14.7023238959
 20
7.6272240495
 30
0.0
 10
14.6815436276
 20
7.6350142315
 30
0.0
  0
SPLINE
  5
4EB
100
AcDbEntity
  8
02___PRT_ALL_AXES
100
AcDbSpline
 62
7
  6
CONTINUOUS
 70
0
 71
3
 72
11
 73
7
 74
0
 42
0.0000001
 43
0.0000001
 44
0.0000000001
 40
0.0
 40
0.0
 40
0.0
 40
0.0
 40
0.243884395
 40
0.4977024652
 40
0.7527216966
 40
1.0
 40
1.0
 40
1.0
 40
1.0
 10
15.2572129858
 20
7.6763654303
 30
0.0
 10
15.2189588974
 20
7.6635741617
 30
0.0
 10
15.1387017117
 20
7.6437485915
 30
0.0
 10
15.0145360246
 20
7.6307679388
 30
0.0
 10
14.889183374
 20
7.6341675091
 30
0.0
 10
14.8068626848
 20
7.6475483534
 30
0.0
 10
14.7671074418
 20
7.657145758
 30
0.0
  0
SPLINE
  5
4EC
100
AcDbEntity
  8
02___PRT_ALL_AXES
100
AcDbSpline
 62
7
  6
CONTINUOUS
 70
0
 71
3
 72
9
 73
5
 74
0
 42
0.0000001
 43
0.0000001
 44
0.0000000001
 40
0.0
 40
0.0
 40
0.0
 40
0.0
 40
0.2557686816
 40
1.0
 40
1.0
 40
1.0
 40
1.0
 10
14.7671074418
 20
7.657145758
 30
0.0
 10
14.7596915188
 20
7.658936053
 30
0.0
 10
14.7307997236
 20
7.6663509606
 30
0.0
 10
14.7023296424
 20
7.6754405419
 30
0.0
 10
14.6815436276
 20
7.6832328782
 30
0.0
  0
LINE
  5
4ED
100
AcDbEntity
  8
02___PRT_ALL_AXES
100
AcDbLine
 62
7
  6
CONTINUOUS
 10
15.2988578113
 20
7.7399502135
 11
15.2981826807
 21
7.7396768545
  0
SPLINE
  5
4EE
100
AcDbEntity
  8
02___PRT_ALL_AXES
100
AcDbSpline
 62
7
  6
CONTINUOUS
 70
0
 71
3
 72
11
 73
7
 74
0
 42
0.0000001
 43
0.0000001
 44
0.0000000001
 40
0.0
 40
0.0
 40
0.0
 40
0.0
 40
0.2402219003
 40
0.493900843
 40
0.7507571229
 40
1.0
 40
1.0
 40
1.0
 40
1.0
 10
15.2981826807
 20
7.7396768545
 30
0.0
 10
15.2581161773
 20
7.7234791046
 30
0.0
 10
15.1724899527
 20
7.6979311481
 30
0.0
 10
15.038205328
 20
7.6796500406
 30
0.0
 10
14.9010749773
 20
7.6808093874
 30
0.0
 10
14.810684846
 20
7.6948437145
 30
0.0
 10
14.7670974225
 20
7.7053668226
 30
0.0
  0
SPLINE
  5
4EF
100
AcDbEntity
  8
02___PRT_ALL_AXES
100
AcDbSpline
 62
7
  6
CONTINUOUS
 70
0
 71
3
 72
9
 73
5
 74
0
 42
0.0000001
 43
0.0000001
 44
0.0000000001
 40
0.0
 40
0.0
 40
0.0
 40
0.0
 40
0.2557650226
 40
1.0
 40
1.0
 40
1.0
 40
1.0
 10
14.7670974225
 20
7.7053668226
 30
0.0
 10
14.7596824811
 20
7.7071569773
 30
0.0
 10
14.7307940764
 20
7.7145712896
 30
0.0
 10
14.7023273526
 20
7.723660047
 30
0.0
 10
14.6815436276
 20
7.7314515249
 30
0.0
  0
SPLINE
  5
4F0
100
AcDbEntity
  8
02___PRT_ALL_AXES
100
AcDbSpline
 62
7
  6
CONTINUOUS
 70
0
 71
3
 72
9
 73
5
 74
0
 42
0.0000001
 43
0.0000001
 44
0.0000000001
 40
0.0
 40
0.0
 40
0.0
 40
0.0
 40
0.2454799731
 40
1.0
 40
1.0
 40
1.0
 40
1.0
 10
14.6815436276
 20
7.7796701716
 30
0.0
 10
14.6888547439
 20
7.7746735845
 30
0.0
 10
14.7183833866
 20
7.7539474509
 30
0.0
 10
14.7469364049
 20
7.7318487386
 30
0.0
 10
14.7680136219
 20
7.7146268027
 30
0.0
  0
SPLINE
  5
4F1
100
AcDbEntity
  8
02___PRT_ALL_AXES
100
AcDbSpline
 62
7
  6
CONTINUOUS
 70
0
 71
3
 72
9
 73
5
 74
0
 42
0.0000001
 43
0.0000001
 44
0.0000000001
 40
0.0
 40
0.0
 40
0.0
 40
0.0
 40
0.4832350937
 40
1.0
 40
1.0
 40
1.0
 40
1.0
 10
15.3320624401
 20
7.8027158654
 30
0.0
 10
15.2936586445
 20
7.7845691987
 30
0.0
 10
15.2102809157
 20
7.7550769054
 30
0.0
 10
15.1234200119
 20
7.7394062812
 30
0.0
 10
15.0782536249
 20
7.7345893438
 30
0.0
  0
SPLINE
  5
4F2
100
AcDbEntity
  8
02___PRT_ALL_AXES
100
AcDbSpline
 62
7
  6
CONTINUOUS
 70
0
 71
3
 72
9
 73
5
 74
0
 42
0.0000001
 43
0.0000001
 44
0.0000000001
 40
0.0
 40
0.0
 40
0.0
 40
0.0
 40
0.2537675361
 40
1.0
 40
1.0
 40
1.0
 40
1.0
 10
14.8620489582
 20
7.7363765984
 30
0.0
 10
14.8539471445
 20
7.737386014
 30
0.0
 10
14.8220769939
 20
7.7417961601
 30
0.0
 10
14.7904432624
 20
7.7479494329
 30
0.0
 10
14.7671052075
 20
7.7535835918
 30
0.0
  0
SPLINE
  5
4F3
100
AcDbEntity
  8
02___PRT_ALL_AXES
100
AcDbSpline
 62
7
  6
CONTINUOUS
 70
0
 71
3
 72
9
 73
5
 74
0
 42
0.0000001
 43
0.0000001
 44
0.0000000001
 40
0.0
 40
0.0
 40
0.0
 40
0.0
 40
0.2557681173
 40
1.0
 40
1.0
 40
1.0
 40
1.0
 10
14.7671052075
 20
7.7535835918
 30
0.0
 10
14.7596894959
 20
7.7553738565
 30
0.0
 10
14.7307984564
 20
7.7627886295
 30
0.0
 10
14.7023291247
 20
7.7718780293
 30
0.0
 10
14.6815436276
 20
7.7796701716
 30
0.0
  0
SPLINE
  5
4F4
100
AcDbEntity
  8
02___PRT_ALL_AXES
100
AcDbSpline
 62
7
  6
CONTINUOUS
 70
0
 71
3
 72
9
 73
5
 74
0
 42
0.0000001
 43
0.0000001
 44
0.0000000001
 40
0.0
 40
0.0
 40
0.0
 40
0.0
 40
0.2454799731
 40
1.0
 40
1.0
 40
1.0
 40
1.0
 10
14.6815436276
 20
7.8278888183
 30
0.0
 10
14.6888547439
 20
7.8228922312
 30
0.0
 10
14.7183833866
 20
7.8021660976
 30
0.0
 10
14.7469364049
 20
7.7800673853
 30
0.0
 10
14.7680136219
 20
7.7628454494
 30
0.0
  0
LINE
  5
4F5
100
AcDbEntity
  8
02___PRT_ALL_AXES
100
AcDbLine
 62
7
  6
CONTINUOUS
 10
15.2986609391
 20
7.8363076975
 11
15.2983373793
 21
7.8361767016
  0
SPLINE
  5
4F6
100
AcDbEntity
  8
02___PRT_ALL_AXES
100
AcDbSpline
 62
7
  6
CONTINUOUS
 70
0
 71
3
 72
11
 73
7
 74
0
 42
0.0000001
 43
0.0000001
 44
0.0000000001
 40
0.0
 40
0.0
 40
0.0
 40
0.0
 40
0.2402063868
 40
0.4938824356
 40
0.7507435981
 40
1.0
 40
1.0
 40
1.0
 40
1.0
 10
15.2983373793
 20
7.8361767016
 30
0.0
 10
15.258265621
 20
7.8199653462
 30
0.0
 10
15.1726216607
 20
7.7943944011
 30
0.0
 10
15.0383017699
 20
7.7760913498
 30
0.0
 10
14.901127766
 20
7.7772404085
 30
0.0
 10
14.8107068626
 20
7.7912760767
 30
0.0
 10
14.7671041121
 20
7.8018025026
 30
0.0
  0
SPLINE
  5
4F7
100
AcDbEntity
  8
02___PRT_ALL_AXES
100
AcDbSpline
 62
7
  6
CONTINUOUS
 70
0
 71
3
 72
9
 73
5
 74
0
 42
0.0000001
 43
0.0000001
 44
0.0000000001
 40
0.0
 40
0.0
 40
0.0
 40
0.0
 40
0.2557678039
 40
1.0
 40
1.0
 40
1.0
 40
1.0
 10
14.7671041121
 20
7.8018025026
 30
0.0
 10
14.7596885054
 20
7.8035927528
 30
0.0
 10
14.7307978367
 20
7.8110074615
 30
0.0
 10
14.7023288719
 20
7.8200967708
 30
0.0
 10
14.6815436276
 20
7.8278888183
 30
0.0
  0
SPLINE
  5
4F8
100
AcDbEntity
  8
02___PRT_ALL_AXES
100
AcDbSpline
 62
7
  6
CONTINUOUS
 70
0
 71
3
 72
9
 73
5
 74
0
 42
0.0000001
 43
0.0000001
 44
0.0000000001
 40
0.0
 40
0.0
 40
0.0
 40
0.0
 40
0.2454807148
 40
1.0
 40
1.0
 40
1.0
 40
1.0
 10
14.6815436276
 20
7.8761074649
 30
0.0
 10
14.6888547661
 20
7.8711108627
 30
0.0
 10
14.7183834664
 20
7.8503848097
 30
0.0
 10
14.7469364253
 20
7.8282860153
 30
0.0
 10
14.7680136219
 20
7.8110640961
 30
0.0
  0
SPLINE
  5
4F9
100
AcDbEntity
  8
02___PRT_ALL_AXES
100
AcDbSpline
 62
7
  6
CONTINUOUS
 70
0
 71
3
 72
11
 73
7
 74
0
 42
0.0000001
 43
0.0000001
 44
0.0000000001
 40
0.0
 40
0.0
 40
0.0
 40
0.0
 40
0.2366817812
 40
0.4901387599
 40
0.7487543679
 40
1.0
 40
1.0
 40
1.0
 40
1.0
 10
15.3316968265
 20
7.8989805767
 30
0.0
 10
15.290585535
 20
7.8795875097
 30
0.0
 10
15.2009738536
 20
7.8486400182
 30
0.0
 10
15.0585011295
 20
7.8252997279
 30
0.0
 10
14.911352773
 20
7.8241927021
 30
0.0
 10
14.813984791
 20
7.8387019596
 30
0.0
 10
14.7670797814
 20
7.8500270395
 30
0.0
  0
SPLINE
  5
4FA
100
AcDbEntity
  8
02___PRT_ALL_AXES
100
AcDbSpline
 62
7
  6
CONTINUOUS
 70
0
 71
3
 72
9
 73
5
 74
0
 42
0.0000001
 43
0.0000001
 44
0.0000000001
 40
0.0
 40
0.0
 40
0.0
 40
0.0
 40
0.2557631387
 40
1.0
 40
1.0
 40
1.0
 40
1.0
 10
14.7670797814
 20
7.8500270395
 30
0.0
 10
14.7596664344
 20
7.8518169709
 30
0.0
 10
14.7307839932
 20
7.8592302069
 30
0.0
 10
14.7023231927
 20
7.8683175465
 30
0.0
 10
14.6815436276
 20
7.8761074649
 30
0.0
  0
SPLINE
  5
4FB
100
AcDbEntity
  8
02___PRT_ALL_AXES
100
AcDbSpline
 62
7
  6
CONTINUOUS
 70
0
 71
3
 72
9
 73
5
 74
0
 42
0.0000001
 43
0.0000001
 44
0.0000000001
 40
0.0
 40
0.0
 40
0.0
 40
0.0
 40
0.2471461587
 40
1.0
 40
1.0
 40
1.0
 40
1.0
 10
14.7095574258
 20
7.9045347195
 30
0.0
 10
14.714478499
 20
7.9009462011
 30
0.0
 10
14.7342780667
 20
7.8862729603
 30
0.0
 10
14.7536467913
 20
7.8710217042
 30
0.0
 10
14.7680136219
 20
7.8592827427
 30
0.0
  0
SPLINE
  5
4FC
100
AcDbEntity
  8
02___PRT_ALL_AXES
100
AcDbSpline
 62
7
  6
CONTINUOUS
 70
0
 71
3
 72
9
 73
5
 74
0
 42
0.0000001
 43
0.0000001
 44
0.0000000001
 40
0.0
 40
0.0
 40
0.0
 40
0.0
 40
0.5030337124
 40
1.0
 40
1.0
 40
1.0
 40
1.0
 10
15.116598107
 20
7.8841492335
 30
0.0
 10
15.0655960496
 20
7.8765283635
 30
0.0
 10
14.9627883595
 20
7.86992788
 30
0.0
 10
14.8602135272
 20
7.8797611374
 30
0.0
 10
14.8101247804
 20
7.8890692504
 30
0.0
  0
SPLINE
  5
4FD
100
AcDbEntity
  8
02___PRT_ALL_AXES
100
AcDbSpline
 62
7
  6
CONTINUOUS
 70
0
 71
3
 72
11
 73
7
 74
0
 42
0.0000001
 43
0.0000001
 44
0.0000000001
 40
0.0
 40
0.0
 40
0.0
 40
0.0
 40
0.2476894642
 40
0.5020817564
 40
0.7554025579
 40
1.0
 40
1.0
 40
1.0
 40
1.0
 10
14.7680136219
 20
7.7146268027
 30
0.0
 10
14.8079047688
 20
7.7057259072
 30
0.0
 10
14.8901021251
 20
7.6933087108
 30
0.0
 10
15.0150170421
 20
7.6902148213
 30
0.0
 10
15.1388655395
 20
7.7024063002
 30
0.0
 10
15.2192214561
 20
7.7209358463
 30
0.0
 10
15.2577788372
 20
7.7328694229
 30
0.0
  0
SPLINE
  5
4FE
100
AcDbEntity
  8
02___PRT_ALL_AXES
100
AcDbSpline
 62
7
  6
CONTINUOUS
 70
0
 71
3
 72
14
 73
10
 74
0
 42
0.0000001
 43
0.0000001
 44
0.0000000001
 40
0.0
 40
0.0
 40
0.0
 40
0.0
 40
0.2939535424
 40
0.4304321178
 40
0.5590435973
 40
0.679672658
 40
0.7926741401
 40
0.8989511027
 40
1.0
 40
1.0
 40
1.0
 40
1.0
 10
15.2577788372
 20
7.7328694229
 30
0.0
 10
15.2972419796
 20
7.7450833342
 30
0.0
 10
15.3539113081
 20
7.7673796818
 30
0.0
 10
15.4222122866
 20
7.8064183228
 30
0.0
 10
15.4662543536
 20
7.8382233475
 30
0.0
 10
15.5037488869
 20
7.8728603895
 30
0.0
 10
15.5341688091
 20
7.9099174057
 30
0.0
 10
15.5570402712
 20
7.9489187853
 30
0.0
 10
15.5671883333
 20
7.9764421981
 30
0.0
 10
15.5707732101
 20
7.9901829169
 30
0.0
  0
SPLINE
  5
4FF
100
AcDbEntity
  8
02___PRT_ALL_AXES
100
AcDbSpline
 62
7
  6
CONTINUOUS
 70
0
 71
3
 72
16
 73
12
 74
0
 42
0.0000001
 43
0.0000001
 44
0.0000000001
 40
0.0
 40
0.0
 40
0.0
 40
0.0
 40
0.1360251155
 40
0.2757507554
 40
0.4153585375
 40
0.551043444
 40
0.67938011
 40
0.7976803933
 40
0.8525993968
 40
0.9045762205
 40
1.0
 40
1.0
 40
1.0
 40
1.0
 10
14.7680136219
 20
7.7628454494
 30
0.0
 10
14.8057282394
 20
7.754430202
 30
0.0
 10
14.8833766927
 20
7.7424035868
 30
0.0
 10
15.0015529925
 20
7.7382958723
 30
0.0
 10
15.119333675
 20
7.7479288603
 30
0.0
 10
15.2319621399
 20
7.7709963278
 30
0.0
 10
15.3349101948
 20
7.8066403448
 30
0.0
 10
15.4111209327
 20
7.846721839
 30
0.0
 10
15.4630845492
 20
7.8842311579
 30
0.0
 10
15.5060264394
 20
7.9224968848
 30
0.0
 10
15.5325614576
 20
7.9556750251
 30
0.0
 10
15.5461229189
 20
7.9791469538
 30
0.0
  0
SPLINE
  5
500
100
AcDbEntity
  8
02___PRT_ALL_AXES
100
AcDbSpline
 62
7
  6
CONTINUOUS
 70
0
 71
3
 72
15
 73
11
 74
0
 42
0.0000001
 43
0.0000001
 44
0.0000000001
 40
0.0
 40
0.0
 40
0.0
 40
0.0
 40
0.1311863095
 40
0.2658989201
 40
0.4013469834
 40
0.5346884518
 40
0.6632464327
 40
0.7846888545
 40
0.8972514819
 40
1.0
 40
1.0
 40
1.0
 40
1.0
 10
14.7680136219
 20
7.8110640961
 30
0.0
 10
14.8008384216
 20
7.8037399118
 30
0.0
 10
14.8682707501
 20
7.7927128881
 30
0.0
 10
14.9711638611
 20
7.7868033388
 30
0.0
 10
15.0746895105
 20
7.7914061871
 30
0.0
 10
15.1756344632
 20
7.8064310915
 30
0.0
 10
15.2708895825
 20
7.8314551656
 30
0.0
 10
15.3575504127
 20
7.8657810524
 30
0.0
 10
15.4329543881
 20
7.9084143537
 30
0.0
 10
15.4762243169
 20
7.9432750616
 30
0.0
 10
15.4949038661
 20
7.9618477965
 30
0.0
  0
SPLINE
  5
501
100
AcDbEntity
  8
02___PRT_ALL_AXES
100
AcDbSpline
 62
7
  6
CONTINUOUS
 70
0
 71
3
 72
12
 73
8
 74
0
 42
0.0000001
 43
0.0000001
 44
0.0000000001
 40
0.0
 40
0.0
 40
0.0
 40
0.0
 40
0.2539521928
 40
0.5137879291
 40
0.7663299704
 40
0.8861793407
 40
1.0
 40
1.0
 40
1.0
 40
1.0
 10
14.7680136219
 20
7.8592827427
 30
0.0
 10
14.8196730592
 20
7.8477559934
 30
0.0
 10
14.9264480253
 20
7.8338077161
 30
0.0
 10
15.0866877171
 20
7.8383393985
 30
0.0
 10
15.216847102
 20
7.8631122075
 30
0.0
 10
15.3129770653
 20
7.8955744213
 30
0.0
 10
15.3574347727
 20
7.9157349003
 30
0.0
 10
15.3784366396
 20
7.926766748
 30
0.0
  0
ENDSEC
  0
SECTION
  2
OBJECTS
  0
DICTIONARY
  5
C
100
AcDbDictionary
280
0
281
1
  3
ACAD_GROUP
350
D
  3
ACAD_MLINESTYLE
350
17
  3
ACAD_LAYOUT
350
1A
  3
ACAD_PLOTSETTINGS
350
19
  3
ACAD_PLOTSTYLENAME
350
E
  3
ACAD_TABLESTYLE
350
       502
  0
DICTIONARY
  5
D
102
{ACAD_REACTORS
330
C
102
}
100
AcDbDictionary
280
0
281
1
  0
ACDBDICTIONARYWDFLT
  5
E
102
{ACAD_REACTORS
330
C
102
}
100
AcDbDictionary
281
1
  3
Normal
350
F
100
AcDbDictionaryWithDefault
340
F
  0
DICTIONARY
  5
17
102
{ACAD_REACTORS
330
C
102
}
100
AcDbDictionary
280
0
281
1
  3
Standard
350
18
  0
DICTIONARY
  5
502
330
C
100
AcDbDictionary
281
1
  3
Standard
350
       505
  3
Standard1
350
       506
  0
DICTIONARY
  5
19
102
{ACAD_REACTORS
330
C
102
}
100
AcDbDictionary
281
1
  0
DICTIONARY
  5
1A
102
{ACAD_REACTORS
330
C
102
}
100
AcDbDictionary
281
1
  3
Model
350
503
  3
Layout1
350
504
  0
ACDBPLACEHOLDER
  5
F
102
{ACAD_REACTORS
330
E
102
}
  0
MLINESTYLE
  5
18
102
{ACAD_REACTORS
330
17
102
}
100
AcDbMlineStyle
  2
STANDARD
 70
0
  3

 62
256
 51
90.0
 52
90.0
 71
2
 49
0.5
 62
256
  6
BYLAYER
 49
-0.5
 62
256
  6
BYLAYER
  0
LAYOUT
  5
503
102
{ACAD_REACTORS
330
1A
102
}
100
AcDbPlotSettings
  1

  2
none_device
  4
ANSI_B_(17.00_x_11.00_Inches)
  6

 40
0.0
 41
0.0
 42
0.0
 43
0.0
 44
431.8
 45
279.4
 46
0.0
 47
0.0
 48
0.0
 49
0.0
140
0.0
141
0.0
142
1.0
143
1.0
 70
1024
 72
0
 73
0
 74
0
  7

 75
0
147
1.0
148
0.0
149
0.0
100
AcDbLayout
  1
Model
 70
0
 71
0
 10
0.0
 20
0.0
 11
17.0
 21
11.0
 12
0.0
 22
0.0
 32
0.0
 14
0.0
 24
0.0
 34
0.0
 15
0.0
 25
0.0
 35
0.0
146
0.0
 13
0.0
 23
0.0
 33
0.0
 16
1.0
 26
0.0
 36
0.0
 17
0.0
 27
1.0
 37
0.0
 76
0
330
213
345
0
346
0
  0
LAYOUT
  5
504
102
{ACAD_REACTORS
330
1A
102
}
100
AcDbPlotSettings
  1

  2
none_device
  4
ANSI_B_(17.00_x_11.00_Inches)
  6

 40
0.0
 41
0.0
 42
0.0
 43
0.0
 44
431.8
 45
279.4
 46
0.0
 47
0.0
 48
0.0
 49
0.0
140
0.0
141
0.0
142
1.0
143
1.0
 70
0
 72
0
 73
0
 74
0
  7

 75
0
147
1.0
148
0.0
149
0.0
100
AcDbLayout
  1
Layout1
 70
0
 71
1
 10
0.0
 20
0.0
 11
17.0
 21
11.0
 12
0.0
 22
0.0
 32
0.0
 14
0.0
 24
0.0
 34
0.0
 15
0.0
 25
0.0
 35
0.0
146
0.0
 13
0.0
 23
0.0
 33
0.0
 16
1.0
 26
0.0
 36
0.0
 17
0.0
 27
1.0
 37
0.0
 76
0
330
214
345
0
346
0
  0
TABLESTYLE
  5
505
102
{ACAD_REACTORS
330
502
102
}
330
502
100
AcDbTableStyle
  3
Standard
 70
0
 71
0
 40
0.06
 41
0.06
280
1
281
1
  7
Standard
140
0.18
170
1
 62
0
 63
7
283
0
  7
Standard
140
0.18
170
1
 62
0
 63
7
283
0
  7
Standard
140
0.18
170
1
 62
0
 63
7
283
0
  0
TABLESTYLE
  5
506
102
{ACAD_REACTORS
330
502
330
26C
102
}
330
502
100
AcDbTableStyle
  3
Standard1
 70
1
 71
0
 40
0.06
 41
0.06
280
1
281
1
  7
Standard
140
0.18
170
1
 62
0
 63
7
283
0
  7
Standard
140
0.18
170
1
 62
0
 63
7
283
0
  7
Standard
140
0.18
170
1
 62
0
 63
7
283
0
  0
ENDSEC
  0
EOF
