999
DXF file: 215056_1.dxf
999
Pro/ENGINEER 2018300 by Parametric Technology Corporation
  0
SECTION
  2
HEADER
  9
$ACADVER
  1
AC1027
  9
$DWGCODEPAGE
  3
ANSI_1252
  9
$EXTMAX
 10
22.0
 20
17.0
 30
0.0
  9
$EXTMIN
 10
0.0
 20
0.0
 30
0.0
  9
$LIMMIN
 10
0.0
 20
0.0
  9
$LIMMAX
 10
22.0
 20
17.0
  9
$VIEWCTR
 10
11.0
 20
8.5
  9
$VIEWSIZE
 40
17.0
  9
$CLAYER
  8
0
  9
$LTSCALE
 40
1.21
  9
$CELTYPE
  6
BYLAYER
  9
$DIMSCALE
 40
1.0
  9
$DIMASZ
 40
0.1875
  9
$DIMEXO
 40
0.0625
  9
$DIMDLI
 40
0.836
  9
$DIMEXE
 40
0.125
  9
$DIMCEN
 40
0.198
  9
$DIMLFAC
 40
1.0
  9
$DIMBLK
  1
_FILLED
  9
$DIMALT
 70
1
  9
$DIMALTD
 70
2
  9
$DIMALTTD
 70
2
  9
$DIMALTF
 40
25.4
  9
$DIMTXT
 40
0.1
  9
$DIMTOL
 70
1
  9
$DIMLIM
 70
0
  9
$DIMTFAC
 40
1.0
  9
$DIMTP
 40
0.001
  9
$DIMTM
 40
0.001
  9
$DIMGAP
 40
0.09
  9
$DIMDSEP
 70
46
  9
$AUNITS
 70
0
  9
$PDMODE
 70
3
  9
$PDSIZE
 40
0.3125
  9
$HANDSEED
  5
43C
  9
$TILEMODE
 70
1
  9
$MEASUREMENT
 70
0
  9
$INSUNITS
 70
1
  0
ENDSEC
  0
SECTION
  2
CLASSES
  0
CLASS
  1
ACDBDICTIONARYWDFLT
  2
AcDbDictionaryWithDefault
  3
AutoCAD 2000
 90
0
 91
1
280
0
281
0
  0
CLASS
  1
ACDBPLACEHOLDER
  2
AcDbPlaceHolder
  3
AutoCAD 2000
 90
0
 91
1
280
0
281
0
  0
CLASS
  1
LAYOUT
  2
AcDbLayout
  3
AutoCAD 2000
 90
0
 91
0
280
0
281
0
  0
CLASS
  1
TABLESTYLE
  2
AcDbTableStyle
  3
ObjectDBX Classes
 90
2047
 91
1
280
0
281
0
  0
CLASS
  1
ACAD_TABLE
  2
AcDbTable
  3
ObjectDBX Classes
 90
1025
 91
1
280
0
281
1
  0
ENDSEC
  0
SECTION
  2
TABLES
  0
TABLE
  2
VPORT
  5
8
100
AcDbSymbolTable
 70
2
  0
VPORT
  5
1F4
100
AcDbSymbolTableRecord
100
AcDbViewportTableRecord
  2
*ACTIVE
 70
0
 10
0.0
 20
0.0
 11
1.0
 21
1.0
 12
11.0
 22
8.5
 13
0.0
 23
0.0
 14
1.0
 24
1.0
 15
0.0
 25
0.0
 16
0.0
 26
0.0
 36
1.0
 17
0.0
 27
0.0
 37
0.0
 40
17.0
 41
1.2941176471
 42
50.0
 43
0.0
 44
0.0
 50
0.0
 51
0.0
 71
0
 72
100
 73
1
 74
1
 75
0
 76
0
 77
0
 78
0
  0
ENDTAB
  0
TABLE
  2
LTYPE
  5
5
100
AcDbSymbolTable
 70
6
  0
LTYPE
  5
14
100
AcDbSymbolTableRecord
100
AcDbLinetypeTableRecord
  2
BYBLOCK
 70
0
  3

 72
65
 73
0
 40
0.0
  0
LTYPE
  5
15
100
AcDbSymbolTableRecord
100
AcDbLinetypeTableRecord
  2
BYLAYER
 70
0
  3

 72
65
 73
0
 40
0.0
  0
LTYPE
  5
16
100
AcDbSymbolTableRecord
100
AcDbLinetypeTableRecord
  2
CONTINUOUS
 70
64
  3
Solid line
 72
65
 73
0
 40
0.0
  0
LTYPE
  5
1F5
100
AcDbSymbolTableRecord
100
AcDbLinetypeTableRecord
  2
CENTER
 70
64
  3
____ _ ____ _ ____ _ ____ _ ____ _ ____ _ ____
 72
65
 73
4
 40
0.6
 49
0.375
 74
0
 49
-0.075
 74
0
 49
0.075
 74
0
 49
-0.075
 74
0
  0
LTYPE
  5
1F6
100
AcDbSymbolTableRecord
100
AcDbLinetypeTableRecord
  2
HIDDEN
 70
64
  3
- - - - - - - - - - - - - - - - - - - -
 72
65
 73
2
 40
0.2
 49
0.1
 74
0
 49
-0.1
 74
0
  0
LTYPE
  5
1F7
100
AcDbSymbolTableRecord
100
AcDbLinetypeTableRecord
  2
PHANTOM
 70
64
  3
_____ _ _ _____ _ _ _____ _ _ _____
 72
65
 73
6
 40
0.8
 49
0.45
 74
0
 49
-0.05
 74
0
 49
0.1
 74
0
 49
-0.05
 74
0
 49
0.1
 74
0
 49
-0.05
 74
0
  0
LTYPE
  5
1F8
100
AcDbSymbolTableRecord
100
AcDbLinetypeTableRecord
  2
DOT
 70
64
  3
. . . . . . . . . . . . . . . . . . . .
 72
65
 73
2
 40
0.2
 49
0.1
 74
0
 49
-0.1
 74
0
  0
LTYPE
  5
1F9
100
AcDbSymbolTableRecord
100
AcDbLinetypeTableRecord
  2
DASHED
 70
64
  3
- - - - - - - - - - - - - - - - - - - -
 72
65
 73
2
 40
0.2
 49
0.1
 74
0
 49
-0.1
 74
0
  0
ENDTAB
  0
TABLE
  2
LAYER
  5
2
100
AcDbSymbolTable
 70
36
  0
LAYER
  5
10
100
AcDbSymbolTableRecord
100
AcDbLayerTableRecord
  2
0
 70
0
 62
7
  6
CONTINUOUS
370
-3
390
F
  0
LAYER
  5
1FA
100
AcDbSymbolTableRecord
100
AcDbLayerTableRecord
  2
DEFAULT_1
 70
0
 62
7
  6
CENTER
370
-3
390
F
  0
LAYER
  5
1FB
100
AcDbSymbolTableRecord
100
AcDbLayerTableRecord
  2
DEFAULT_2
 70
0
 62
7
  6
HIDDEN
370
-3
390
F
  0
LAYER
  5
1FC
100
AcDbSymbolTableRecord
100
AcDbLayerTableRecord
  2
DEFAULT_3
 70
0
 62
7
  6
PHANTOM
370
-3
390
F
  0
LAYER
  5
1FD
100
AcDbSymbolTableRecord
100
AcDbLayerTableRecord
  2
01___PRT_ALL_DTM_PLN
 70
0
 62
7
  6
CONTINUOUS
370
-3
390
F
  0
LAYER
  5
1FE
100
AcDbSymbolTableRecord
100
AcDbLayerTableRecord
  2
01___PRT_DEF_DTM_PLN
 70
0
 62
7
  6
CONTINUOUS
370
-3
390
F
  0
LAYER
  5
1FF
100
AcDbSymbolTableRecord
100
AcDbLayerTableRecord
  2
02___PRT_ALL_AXES
 70
0
 62
7
  6
CONTINUOUS
370
-3
390
F
  0
LAYER
  5
200
100
AcDbSymbolTableRecord
100
AcDbLayerTableRecord
  2
03___PRT_ALL_CURVES
 70
0
 62
7
  6
CONTINUOUS
370
-3
390
F
  0
LAYER
  5
201
100
AcDbSymbolTableRecord
100
AcDbLayerTableRecord
  2
04___PRT_ALL_DTM_PNT
 70
0
 62
7
  6
CONTINUOUS
370
-3
390
F
  0
LAYER
  5
202
100
AcDbSymbolTableRecord
100
AcDbLayerTableRecord
  2
05___PRT_ALL_DTM_CSYS
 70
0
 62
7
  6
CONTINUOUS
370
-3
390
F
  0
LAYER
  5
203
100
AcDbSymbolTableRecord
100
AcDbLayerTableRecord
  2
05___PRT_DEF_DTM_CSYS
 70
0
 62
7
  6
CONTINUOUS
370
-3
390
F
  0
LAYER
  5
204
100
AcDbSymbolTableRecord
100
AcDbLayerTableRecord
  2
06___PRT_ALL_SURFS
 70
0
 62
7
  6
CONTINUOUS
370
-3
390
F
  0
LAYER
  5
205
100
AcDbSymbolTableRecord
100
AcDbLayerTableRecord
  2
AXIS
 70
0
 62
7
  6
CONTINUOUS
370
-3
390
F
  0
LAYER
  5
206
100
AcDbSymbolTableRecord
100
AcDbLayerTableRecord
  2
DATUM_CURVES
 70
0
 62
7
  6
CONTINUOUS
370
-3
390
F
  0
LAYER
  5
207
100
AcDbSymbolTableRecord
100
AcDbLayerTableRecord
  2
DATUM_PLANES
 70
0
 62
7
  6
CONTINUOUS
370
-3
390
F
  0
LAYER
  5
208
100
AcDbSymbolTableRecord
100
AcDbLayerTableRecord
  2
DRIVEN_DIMS
 70
0
 62
7
  6
CONTINUOUS
370
-3
390
F
  0
LAYER
  5
209
100
AcDbSymbolTableRecord
100
AcDbLayerTableRecord
  2
NOTES
 70
0
 62
7
  6
CONTINUOUS
370
-3
390
F
  0
LAYER
  5
20A
100
AcDbSymbolTableRecord
100
AcDbLayerTableRecord
  2
QUILTS
 70
0
 62
7
  6
CONTINUOUS
370
-3
390
F
  0
LAYER
  5
20B
100
AcDbSymbolTableRecord
100
AcDbLayerTableRecord
  2
SCHEME_DIMS
 70
0
 62
7
  6
CONTINUOUS
370
-3
390
F
  0
ENDTAB
  0
TABLE
  2
STYLE
  5
3
100
AcDbSymbolTable
 70
1
  0
STYLE
  5
11
100
AcDbSymbolTableRecord
100
AcDbTextStyleTableRecord
  2
STANDARD
 70
0
 40
0.0
 41
1.0
 50
0.0
 71
0
 42
0.2
  3
txt
  4

  0
STYLE
  5
20C
100
AcDbSymbolTableRecord
100
AcDbTextStyleTableRecord
  2
TEXTSTYLE_1
 70
0
 40
0.0
 41
0.8
 50
0.0
 71
0
 42
0.2
  3
gdt
  4

  0
STYLE
  5
20D
100
AcDbSymbolTableRecord
100
AcDbTextStyleTableRecord
  2
TEXTSTYLE_2
 70
0
 40
0.0
 41
0.8
 50
0.0
 71
0
 42
0.2
  3
txt
  4

  0
STYLE
  5
20E
100
AcDbSymbolTableRecord
100
AcDbTextStyleTableRecord
  2
TEXTSTYLE_3
 70
0
 40
0.0
 41
0.9
 50
0.0
 71
0
 42
0.2
  3
txt
  4

  0
STYLE
  5
20F
100
AcDbSymbolTableRecord
100
AcDbTextStyleTableRecord
  2
TEXTSTYLE_4
 70
0
 40
0.0
 41
0.85
 50
0.0
 71
0
 42
0.2
  3
txt
  4

  0
STYLE
  5
210
100
AcDbSymbolTableRecord
100
AcDbTextStyleTableRecord
  2
TEXTSTYLE_5
 70
0
 40
0.0
 41
0.75
 50
0.0
 71
0
 42
0.2
  3
txt
  4

  0
ENDTAB
  0
TABLE
  2
VIEW
  5
6
100
AcDbSymbolTable
 70
0
  0
ENDTAB
  0
TABLE
  2
UCS
  5
7
100
AcDbSymbolTable
 70
0
  0
ENDTAB
  0
TABLE
  2
APPID
  5
9
100
AcDbSymbolTable
 70
1
  0
APPID
  5
211
100
AcDbSymbolTableRecord
100
AcDbRegAppTableRecord
  2
ACAD
 70
0
  0
ENDTAB
  0
TABLE
  2
BLOCK_RECORD
  5
1
100
AcDbSymbolTable
 70
0
  0
BLOCK_RECORD
  5
212
100
AcDbSymbolTableRecord
100
AcDbBlockTableRecord
  2
*Model_Space
  0
BLOCK_RECORD
  5
213
100
AcDbSymbolTableRecord
100
AcDbBlockTableRecord
  2
*Paper_Space
  0
BLOCK_RECORD
  5
214
100
AcDbSymbolTableRecord
100
AcDbBlockTableRecord
  2
_FILLED
  0
BLOCK_RECORD
  5
215
100
AcDbSymbolTableRecord
100
AcDbBlockTableRecord
  2
*D0
  0
BLOCK_RECORD
  5
216
100
AcDbSymbolTableRecord
100
AcDbBlockTableRecord
  2
*D1
  0
BLOCK_RECORD
  5
217
100
AcDbSymbolTableRecord
100
AcDbBlockTableRecord
  2
*D2
  0
BLOCK_RECORD
  5
218
100
AcDbSymbolTableRecord
100
AcDbBlockTableRecord
  2
*D3
  0
BLOCK_RECORD
  5
219
100
AcDbSymbolTableRecord
100
AcDbBlockTableRecord
  2
*D4
  0
BLOCK_RECORD
  5
21A
100
AcDbSymbolTableRecord
100
AcDbBlockTableRecord
  2
*D5
  0
BLOCK_RECORD
  5
21B
100
AcDbSymbolTableRecord
100
AcDbBlockTableRecord
  2
*D6
  0
BLOCK_RECORD
  5
21C
100
AcDbSymbolTableRecord
100
AcDbBlockTableRecord
  2
*T1
  0
ENDTAB
  0
TABLE
  2
DIMSTYLE
  5
A
100
AcDbSymbolTable
 70
1
100
AcDbDimStyleTable
 71
0
  0
DIMSTYLE
105
21D
100
AcDbSymbolTableRecord
100
AcDbDimStyleTableRecord
  2
STANDARD
 70
0
  3

  4

 40
1.0
 41
0.1875
 42
0.0625
 43
0.38
 44
0.125
 45
0.0
 46
0.0
 47
0.001
 48
0.001
140
0.1
141
0.09
142
0.0
143
1.0
144
1.0
145
0.0
146
1.0
147
0.09
 71
1.0
 72
0.0
 73
1
 74
1
 75
0
 76
0
 77
0
 78
0
 79
0
170
1
171
2
172
0
173
0
174
0
175
0
176
0
177
0
178
0
270
2
179
3
271
3
272
3
273
2
274
2
275
0
280
0
281
0
282
0
283
1
284
0
285
0
286
0
287
3
288
0
340
11
278
46
341
214
342
214
343
214
344
214
  0
DIMSTYLE
105
21E
100
AcDbSymbolTableRecord
100
AcDbDimStyleTableRecord
  2
DIMSTYLE_1
 70
0
  3

  4

 40
1.0
 41
0.1875
 42
0.0625
 43
0.38
 44
0.125
 45
0.0
 46
0.0
 47
0.001
 48
0.001
140
0.1
141
0.09
142
0.0
143
1.0
144
1.0
145
0.0
146
1.0
147
0.1
 71
0.0
 72
0.0
 73
1
 74
1
 75
0
 76
0
 77
0
 78
0
 79
0
170
1
171
2
172
0
173
0
174
0
175
0
176
0
177
0
178
0
270
2
179
3
271
1
272
1
273
2
274
2
275
0
280
0
281
0
282
0
283
1
284
0
285
0
286
0
287
3
288
0
340
11
278
46
341
214
342
214
343
214
344
214
  0
ENDTAB
  0
ENDSEC
  0
SECTION
  2
BLOCKS
  0
BLOCK
  5
20
100
AcDbEntity
  8
0
100
AcDbBlockBegin
  2
*Model_Space
 70
0
 10
0.0
 20
0.0
 30
0.0
  3
*Model_Space
  1

  0
ENDBLK
  5
21
100
AcDbEntity
  8
0
100
AcDbBlockEnd
  0
BLOCK
  5
1C
100
AcDbEntity
  8
0
100
AcDbBlockBegin
  2
*Paper_Space
 70
0
 10
0.0
 20
0.0
 30
0.0
  3
*Paper_Space
  1

  0
ENDBLK
  5
1D
100
AcDbEntity
  8
0
100
AcDbBlockEnd
  0
BLOCK
  5
21F
100
AcDbEntity
  8
0
100
AcDbBlockBegin
  2
_FILLED
 70
64
 10
0.0
 20
0.0
  3
_FILLED
  1

  0
SOLID
  5
220
100
AcDbEntity
  8
0
  6
BYBLOCK
 62
0
100
AcDbTrace
 10
0.0
 20
0.0
 11
-1.0
 21
0.1666666667
 12
-1.0
 22
-0.1666666667
 13
-1.0
 23
-0.1666666667
  0
ENDBLK
  5
221
100
AcDbEntity
  8
0
  6
BYBLOCK
 62
0
100
AcDbBlockEnd
  0
BLOCK
  5
222
100
AcDbEntity
  8
DRIVEN_DIMS
100
AcDbBlockBegin
 62
7
  6
CONTINUOUS
  2
*D0
 70
65
 10
0.0
 20
0.0
  3
*D0
  1

  0
MTEXT
  5
223
100
AcDbEntity
  8
DRIVEN_DIMS
100
AcDbMText
 62
7
  6
CONTINUOUS
  7
STANDARD
 71
2
 72
1
 10
7.2695252016
 20
7.2245526714
 30
0.0
 11
1.0
 21
0.0
 31
0.0
 73
2
 44
0.9
  1
40.5\P[1.6]
 40
0.1
 41
0.5
  0
LINE
  5
224
100
AcDbEntity
  8
DRIVEN_DIMS
100
AcDbLine
 62
7
  6
CONTINUOUS
 10
8.5070252016
 20
7.9724859824
 11
7.1945252016
 21
7.9724859824
  0
LINE
  5
225
100
AcDbEntity
  8
DRIVEN_DIMS
100
AcDbLine
 62
7
  6
CONTINUOUS
 10
8.5070252016
 20
6.3766193603
 11
7.1945252016
 21
6.3766193603
  0
LINE
  5
226
100
AcDbEntity
  8
DRIVEN_DIMS
100
AcDbLine
 62
7
  6
CONTINUOUS
 10
7.3195252016
 20
7.9724859824
 11
7.3195252016
 21
7.3245526714
  0
LINE
  5
227
100
AcDbEntity
  8
DRIVEN_DIMS
100
AcDbLine
 62
7
  6
CONTINUOUS
 10
7.3195252016
 20
6.3766193603
 11
7.3195252016
 21
6.8745526714
  0
INSERT
  5
228
100
AcDbEntity
  8
DRIVEN_DIMS
100
AcDbBlockReference
 62
7
  6
CONTINUOUS
  2
_FILLED
 10
7.3195252016
 20
7.9724859824
 41
0.1875
 42
0.1875
 43
0.1875
 50
90.0
  0
INSERT
  5
229
100
AcDbEntity
  8
DRIVEN_DIMS
100
AcDbBlockReference
 62
7
  6
CONTINUOUS
  2
_FILLED
 10
7.3195252016
 20
6.3766193603
 41
0.1875
 42
0.1875
 43
0.1875
 50
270.0
  0
ENDBLK
  5
22A
100
AcDbEntity
  8
0
  6
BYBLOCK
 62
0
100
AcDbBlockEnd
  0
BLOCK
  5
22B
100
AcDbEntity
  8
DRIVEN_DIMS
100
AcDbBlockBegin
 62
7
  6
CONTINUOUS
  2
*D1
 70
65
 10
0.0
 20
0.0
  3
*D1
  1

  0
MTEXT
  5
22C
100
AcDbEntity
  8
DRIVEN_DIMS
100
AcDbMText
 62
7
  6
CONTINUOUS
  7
STANDARD
 71
2
 72
1
 10
7.9695252016
 20
7.2245526714
 30
0.0
 11
1.0
 21
0.0
 31
0.0
 73
2
 44
0.9
  1
28.7\P[1.13]
 40
0.1
 41
0.6
  0
LINE
  5
22D
100
AcDbEntity
  8
DRIVEN_DIMS
100
AcDbLine
 62
7
  6
CONTINUOUS
 10
8.5070252016
 20
7.7401844614
 11
7.9445252016
 21
7.7401844614
  0
LINE
  5
22E
100
AcDbEntity
  8
DRIVEN_DIMS
100
AcDbLine
 62
7
  6
CONTINUOUS
 10
8.5070252016
 20
6.6089208813
 11
7.9445252016
 21
6.6089208813
  0
LINE
  5
22F
100
AcDbEntity
  8
DRIVEN_DIMS
100
AcDbLine
 62
7
  6
CONTINUOUS
 10
8.0695252016
 20
7.7401844614
 11
8.0695252016
 21
7.3245526714
  0
LINE
  5
230
100
AcDbEntity
  8
DRIVEN_DIMS
100
AcDbLine
 62
7
  6
CONTINUOUS
 10
8.0695252016
 20
6.6089208813
 11
8.0695252016
 21
6.8745526714
  0
INSERT
  5
231
100
AcDbEntity
  8
DRIVEN_DIMS
100
AcDbBlockReference
 62
7
  6
CONTINUOUS
  2
_FILLED
 10
8.0695252016
 20
7.7401844614
 41
0.1875
 42
0.1875
 43
0.1875
 50
90.0
  0
INSERT
  5
232
100
AcDbEntity
  8
DRIVEN_DIMS
100
AcDbBlockReference
 62
7
  6
CONTINUOUS
  2
_FILLED
 10
8.0695252016
 20
6.6089208813
 41
0.1875
 42
0.1875
 43
0.1875
 50
270.0
  0
ENDBLK
  5
233
100
AcDbEntity
  8
0
  6
BYBLOCK
 62
0
100
AcDbBlockEnd
  0
BLOCK
  5
234
100
AcDbEntity
  8
DRIVEN_DIMS
100
AcDbBlockBegin
 62
7
  6
CONTINUOUS
  2
*D2
 70
65
 10
0.0
 20
0.0
  3
*D2
  1

  0
MTEXT
  5
235
100
AcDbEntity
  8
DRIVEN_DIMS
100
AcDbMText
 62
7
  6
CONTINUOUS
  7
STANDARD
 71
1
 72
1
 10
5.0144676639
 20
10.1095576066
 30
0.0
 11
1.0
 21
0.0
 31
0.0
 73
2
 44
0.9
  1
2X 3.2\P[.13]
 40
0.1
 41
0.6
  0
LINE
  5
236
100
AcDbEntity
  8
DRIVEN_DIMS
100
AcDbLine
 62
7
  6
CONTINUOUS
 10
4.4396469189
 20
10.7059272751
 11
4.4048828024
 21
9.9509835333
  0
LINE
  5
237
100
AcDbEntity
  8
DRIVEN_DIMS
100
AcDbLine
 62
7
  6
CONTINUOUS
 10
4.5645145996
 20
10.7001772909
 11
4.5297504831
 21
9.9452335491
  0
LINE
  5
238
100
AcDbEntity
  8
DRIVEN_DIMS
100
AcDbLine
 62
7
  6
CONTINUOUS
 10
4.4106327866
 20
10.075851214
 11
4.0110562084
 21
10.0942511634
  0
LINE
  5
239
100
AcDbEntity
  8
DRIVEN_DIMS
100
AcDbLine
 62
7
  6
CONTINUOUS
 10
4.5355004673
 20
10.0701012297
 11
4.7644676639
 21
10.0595576066
  0
LINE
  5
23A
100
AcDbEntity
  8
DRIVEN_DIMS
100
AcDbLine
 62
7
  6
CONTINUOUS
 10
4.7644676639
 20
10.0595576066
 11
4.9144676639
 21
10.0595576066
  0
INSERT
  5
23B
100
AcDbEntity
  8
DRIVEN_DIMS
100
AcDbBlockReference
 62
7
  6
CONTINUOUS
  2
_FILLED
 10
4.4106327866
 20
10.075851214
 41
0.1875
 42
0.1875
 43
0.1875
 50
357.3634710102
  0
INSERT
  5
23C
100
AcDbEntity
  8
DRIVEN_DIMS
100
AcDbBlockReference
 62
7
  6
CONTINUOUS
  2
_FILLED
 10
4.5355004673
 20
10.0701012297
 41
0.1875
 42
0.1875
 43
0.1875
 50
177.3634710102
  0
ENDBLK
  5
23D
100
AcDbEntity
  8
0
  6
BYBLOCK
 62
0
100
AcDbBlockEnd
  0
BLOCK
  5
23E
100
AcDbEntity
  8
DRIVEN_DIMS
100
AcDbBlockBegin
 62
7
  6
CONTINUOUS
  2
*D3
 70
65
 10
0.0
 20
0.0
  3
*D3
  1

  0
MTEXT
  5
23F
100
AcDbEntity
  8
DRIVEN_DIMS
100
AcDbMText
 62
7
  6
CONTINUOUS
  7
STANDARD
 71
1
 72
1
 10
5.45455631
 20
11.4363025674
 30
0.0
 11
1.0
 21
0.0
 31
0.0
 73
2
 44
0.9
  1
2X 6.4\P[.25]
 40
0.1
 41
0.6
  0
LINE
  5
240
100
AcDbEntity
  8
DRIVEN_DIMS
100
AcDbLine
 62
7
  6
CONTINUOUS
 10
4.629823432
 20
10.7597361391
 11
5.2994163956
 21
10.7289023081
  0
LINE
  5
241
100
AcDbEntity
  8
DRIVEN_DIMS
100
AcDbLine
 62
7
  6
CONTINUOUS
 10
4.6413234005
 20
11.0094715005
 11
5.310916364
 21
10.9786376695
  0
LINE
  5
242
100
AcDbEntity
  8
DRIVEN_DIMS
100
AcDbLine
 62
7
  6
CONTINUOUS
 10
5.1745487149
 20
10.7346522923
 11
5.1561487654
 21
10.3350757141
  0
LINE
  5
243
100
AcDbEntity
  8
DRIVEN_DIMS
100
AcDbLine
 62
7
  6
CONTINUOUS
 10
5.1860486834
 20
10.9843876537
 11
5.20455631
 21
11.3863025674
  0
LINE
  5
244
100
AcDbEntity
  8
DRIVEN_DIMS
100
AcDbLine
 62
7
  6
CONTINUOUS
 10
5.20455631
 20
11.3863025674
 11
5.35455631
 21
11.3863025674
  0
INSERT
  5
245
100
AcDbEntity
  8
DRIVEN_DIMS
100
AcDbBlockReference
 62
7
  6
CONTINUOUS
  2
_FILLED
 10
5.1745487149
 20
10.7346522923
 41
0.1875
 42
0.1875
 43
0.1875
 50
87.3634710102
  0
INSERT
  5
246
100
AcDbEntity
  8
DRIVEN_DIMS
100
AcDbBlockReference
 62
7
  6
CONTINUOUS
  2
_FILLED
 10
5.1860486834
 20
10.9843876537
 41
0.1875
 42
0.1875
 43
0.1875
 50
267.3634710102
  0
ENDBLK
  5
247
100
AcDbEntity
  8
0
  6
BYBLOCK
 62
0
100
AcDbBlockEnd
  0
BLOCK
  5
248
100
AcDbEntity
  8
DRIVEN_DIMS
100
AcDbBlockBegin
 62
7
  6
CONTINUOUS
  2
*D4
 70
65
 10
0.0
 20
0.0
  3
*D4
  1

  0
MTEXT
  5
249
100
AcDbEntity
  8
DRIVEN_DIMS
100
AcDbMText
 62
7
  6
CONTINUOUS
  7
STANDARD
 71
1
 72
1
 10
5.1856681668
 20
12.3727361391
 30
0.0
 11
1.0
 21
0.0
 31
0.0
 73
2
 44
0.9
  1
1.6\P[.06]
 40
0.1
 41
0.5
  0
LINE
  5
24A
100
AcDbEntity
  8
DRIVEN_DIMS
100
AcDbLine
 62
7
  6
CONTINUOUS
 10
4.6554102335
 20
11.8227361391
 11
5.0606681668
 21
11.8227361391
  0
LINE
  5
24B
100
AcDbEntity
  8
DRIVEN_DIMS
100
AcDbLine
 62
7
  6
CONTINUOUS
 10
4.6554102335
 20
11.7602361391
 11
5.0606681668
 21
11.7602361391
  0
LINE
  5
24C
100
AcDbEntity
  8
DRIVEN_DIMS
100
AcDbLine
 62
7
  6
CONTINUOUS
 10
4.9356681668
 20
11.8227361391
 11
4.9356681668
 21
12.3227361391
  0
LINE
  5
24D
100
AcDbEntity
  8
DRIVEN_DIMS
100
AcDbLine
 62
7
  6
CONTINUOUS
 10
4.9356681668
 20
12.3227361391
 11
5.0856681668
 21
12.3227361391
  0
LINE
  5
24E
100
AcDbEntity
  8
DRIVEN_DIMS
100
AcDbLine
 62
7
  6
CONTINUOUS
 10
4.9356681668
 20
11.7602361391
 11
4.9356681668
 21
11.3602361391
  0
INSERT
  5
24F
100
AcDbEntity
  8
DRIVEN_DIMS
100
AcDbBlockReference
 62
7
  6
CONTINUOUS
  2
_FILLED
 10
4.9356681668
 20
11.8227361391
 41
0.1875
 42
0.1875
 43
0.1875
 50
270.0
  0
INSERT
  5
250
100
AcDbEntity
  8
DRIVEN_DIMS
100
AcDbBlockReference
 62
7
  6
CONTINUOUS
  2
_FILLED
 10
4.9356681668
 20
11.7602361391
 41
0.1875
 42
0.1875
 43
0.1875
 50
90.0
  0
ENDBLK
  5
251
100
AcDbEntity
  8
0
  6
BYBLOCK
 62
0
100
AcDbBlockEnd
  0
BLOCK
  5
252
100
AcDbEntity
  8
DRIVEN_DIMS
100
AcDbBlockBegin
 62
7
  6
CONTINUOUS
  2
*D5
 70
65
 10
0.0
 20
0.0
  3
*D5
  1

  0
MTEXT
  5
253
100
AcDbEntity
  8
DRIVEN_DIMS
100
AcDbMText
 62
7
  6
CONTINUOUS
  7
STANDARD
 71
2
 72
1
 10
7.9695252016
 20
11.3412361391
 30
0.0
 11
1.0
 21
0.0
 31
0.0
 73
2
 44
0.9
  1
27.0\P[1.06]
 40
0.1
 41
0.6
  0
LINE
  5
254
100
AcDbEntity
  8
DRIVEN_DIMS
100
AcDbLine
 62
7
  6
CONTINUOUS
 10
8.5070252016
 20
11.8227361391
 11
7.9445252016
 21
11.8227361391
  0
LINE
  5
255
100
AcDbEntity
  8
DRIVEN_DIMS
100
AcDbLine
 62
7
  6
CONTINUOUS
 10
8.5070252016
 20
10.7597361391
 11
7.9445252016
 21
10.7597361391
  0
LINE
  5
256
100
AcDbEntity
  8
DRIVEN_DIMS
100
AcDbLine
 62
7
  6
CONTINUOUS
 10
8.0695252016
 20
11.8227361391
 11
8.0695252016
 21
12.2227361391
  0
LINE
  5
257
100
AcDbEntity
  8
DRIVEN_DIMS
100
AcDbLine
 62
7
  6
CONTINUOUS
 10
8.0695252016
 20
10.7597361391
 11
8.0695252016
 21
10.3597361391
  0
INSERT
  5
258
100
AcDbEntity
  8
DRIVEN_DIMS
100
AcDbBlockReference
 62
7
  6
CONTINUOUS
  2
_FILLED
 10
8.0695252016
 20
11.8227361391
 41
0.1875
 42
0.1875
 43
0.1875
 50
270.0
  0
INSERT
  5
259
100
AcDbEntity
  8
DRIVEN_DIMS
100
AcDbBlockReference
 62
7
  6
CONTINUOUS
  2
_FILLED
 10
8.0695252016
 20
10.7597361391
 41
0.1875
 42
0.1875
 43
0.1875
 50
90.0
  0
ENDBLK
  5
25A
100
AcDbEntity
  8
0
  6
BYBLOCK
 62
0
100
AcDbBlockEnd
  0
BLOCK
  5
25B
100
AcDbEntity
  8
DRIVEN_DIMS
100
AcDbBlockBegin
 62
7
  6
CONTINUOUS
  2
*D6
 70
65
 10
0.0
 20
0.0
  3
*D6
  1

  0
MTEXT
  5
25C
100
AcDbEntity
  8
DRIVEN_DIMS
100
AcDbMText
 62
7
  6
CONTINUOUS
  7
STANDARD
 71
2
 72
1
 10
13.1650252016
 20
12.3727361391
 30
0.0
 11
1.0
 21
0.0
 31
0.0
 73
2
 44
0.9
  1
236.0\P[9.29]
 40
0.1
 41
0.6
  0
LINE
  5
25D
100
AcDbEntity
  8
DRIVEN_DIMS
100
AcDbLine
 62
7
  6
CONTINUOUS
 10
8.5695252016
 20
11.9275510904
 11
8.5695252016
 21
12.4477361391
  0
LINE
  5
25E
100
AcDbEntity
  8
DRIVEN_DIMS
100
AcDbLine
 62
7
  6
CONTINUOUS
 10
17.8605252016
 20
11.9407365108
 11
17.8605252016
 21
12.4477361391
  0
LINE
  5
25F
100
AcDbEntity
  8
DRIVEN_DIMS
100
AcDbLine
 62
7
  6
CONTINUOUS
 10
8.5695252016
 20
12.3227361391
 11
12.8150252016
 21
12.3227361391
  0
LINE
  5
260
100
AcDbEntity
  8
DRIVEN_DIMS
100
AcDbLine
 62
7
  6
CONTINUOUS
 10
17.8605252016
 20
12.3227361391
 11
13.6150252016
 21
12.3227361391
  0
INSERT
  5
261
100
AcDbEntity
  8
DRIVEN_DIMS
100
AcDbBlockReference
 62
7
  6
CONTINUOUS
  2
_FILLED
 10
8.5695252016
 20
12.3227361391
 41
0.1875
 42
0.1875
 43
0.1875
 50
180.0
  0
INSERT
  5
262
100
AcDbEntity
  8
DRIVEN_DIMS
100
AcDbBlockReference
 62
7
  6
CONTINUOUS
  2
_FILLED
 10
17.8605252016
 20
12.3227361391
 41
0.1875
 42
0.1875
 43
0.1875
  0
ENDBLK
  5
263
100
AcDbEntity
  8
0
  6
BYBLOCK
 62
0
100
AcDbBlockEnd
  0
BLOCK
  5
264
100
AcDbEntity
  8
0
100
AcDbBlockBegin
  2
*T1
 70
1
 10
0.0
 20
0.0
  3
*T1
  1

  0
LINE
  5
265
100
AcDbEntity
  8
0
100
AcDbLine
 62
7
  6
CONTINUOUS
 10
4.35
 20
0.0
 11
0.0
 21
0.0
  0
LINE
  5
266
100
AcDbEntity
  8
0
100
AcDbLine
 62
7
  6
CONTINUOUS
 10
4.35
 20
0.0
 11
4.35
 21
1.92
  0
LINE
  5
267
100
AcDbEntity
  8
0
100
AcDbLine
 62
7
  6
CONTINUOUS
 10
4.35
 20
1.92
 11
0.0
 21
1.92
  0
LINE
  5
268
100
AcDbEntity
  8
0
100
AcDbLine
 62
7
  6
CONTINUOUS
 10
0.0
 20
0.0
 11
0.0
 21
1.92
  0
MTEXT
  5
269
100
AcDbEntity
  8
NOTES
100
AcDbMText
 62
7
  6
CONTINUOUS
  7
STANDARD
 71
2
 72
1
 10
4.125
 20
0.48
 30
0.0
 11
1.0
 21
0.0
 31
0.0
 73
2
 44
0.9
  1
A
 40
0.1
 41
0.2
  0
MTEXT
  5
26A
100
AcDbEntity
  8
NOTES
100
AcDbMText
 62
7
  6
CONTINUOUS
  7
STANDARD
 71
2
 72
1
 10
2.175
 20
1.08
 30
0.0
 11
1.0
 21
0.0
 31
0.0
 73
2
 44
0.9
  1
EZSS-150\P 
 40
0.1
 41
1.6
  0
ENDBLK
  5
26B
100
AcDbEntity
  8
0
  6
BYBLOCK
 62
0
100
AcDbBlockEnd
  0
ENDSEC
  0
SECTION
  2
ENTITIES
  0
MTEXT
  5
26C
100
AcDbEntity
  8
0
100
AcDbMText
 62
7
  6
CONTINUOUS
  7
TEXTSTYLE_2
 71
2
 72
1
 10
15.7174677477
 20
1.6655662523
 30
0.0
 11
1.0
 21
0.0
 31
0.0
 73
2
 44
0.9
  1
THIRD ANGLE PROJECTION
 40
0.1
 41
1.76
  0
MTEXT
  5
26D
100
AcDbEntity
  8
0
100
AcDbMText
 62
7
  6
CONTINUOUS
  7
STANDARD
 71
1
 72
1
 10
17.55
 20
1.32
 30
0.0
 11
1.0
 21
0.0
 31
0.0
 73
2
 44
0.9
  1
DRAWING NO.
 40
0.08
 41
0.88
  0
MTEXT
  5
26E
100
AcDbEntity
  8
0
100
AcDbMText
 62
7
  6
CONTINUOUS
  7
TEXTSTYLE_2
 71
1
 72
1
 10
16.75
 20
2.08
 30
0.0
 11
1.0
 21
0.0
 31
0.0
 73
2
 44
0.9
  1
TITLE
 40
0.1
 41
0.4
  0
MTEXT
  5
26F
100
AcDbEntity
  8
0
100
AcDbMText
 62
7
  6
CONTINUOUS
  7
STANDARD
 71
1
 72
1
 10
16.75
 20
1.32
 30
0.0
 11
1.0
 21
0.0
 31
0.0
 73
2
 44
0.9
  1
SIZE
 40
0.08
 41
0.32
  0
MTEXT
  5
270
100
AcDbEntity
  8
0
100
AcDbMText
 62
7
  6
CONTINUOUS
  7
STANDARD
 71
1
 72
1
 10
16.75
 20
0.95
 30
0.0
 11
1.0
 21
0.0
 31
0.0
 73
2
 44
0.9
  1
SCALE
 40
0.08
 41
0.4
  0
MTEXT
  5
271
100
AcDbEntity
  8
0
100
AcDbMText
 62
7
  6
CONTINUOUS
  7
TEXTSTYLE_2
 71
2
 72
1
 10
17.17
 20
1.2
 30
0.0
 11
1.0
 21
0.0
 31
0.0
 73
2
 44
0.9
  1
C
 40
0.1
 41
0.08
  0
MTEXT
  5
272
100
AcDbEntity
  8
0
100
AcDbMText
 62
7
  6
CONTINUOUS
  7
STANDARD
 71
1
 72
1
 10
18.925
 20
0.95
 30
0.0
 11
1.0
 21
0.0
 31
0.0
 73
2
 44
0.9
  1
SHEET
 40
0.08
 41
0.4
  0
MTEXT
  5
273
100
AcDbEntity
  8
0
100
AcDbMText
 62
7
  6
CONTINUOUS
  7
STANDARD
 71
1
 72
1
 10
20.3
 20
1.32
 30
0.0
 11
1.0
 21
0.0
 31
0.0
 73
2
 44
0.9
  1
REV.
 40
0.08
 41
0.32
  0
MTEXT
  5
274
100
AcDbEntity
  8
0
100
AcDbMText
 62
7
  6
CONTINUOUS
  7
STANDARD
 71
3
 72
1
 10
21.05
 20
0.698443
 30
0.0
 11
1.0
 21
0.0
 31
0.0
 73
2
 44
0.9
  1
CREO
 40
0.07
 41
0.28
  0
MTEXT
  5
275
100
AcDbEntity
  8
0
100
AcDbMText
 62
7
  6
CONTINUOUS
  7
TEXTSTYLE_2
 71
2
 72
1
 10
12.257
 20
15.95
 30
0.0
 11
1.0
 21
0.0
 31
0.0
 73
2
 44
0.9
  1
4
 40
0.1
 41
0.08
  0
MTEXT
  5
276
100
AcDbEntity
  8
0
100
AcDbMText
 62
7
  6
CONTINUOUS
  7
TEXTSTYLE_2
 71
2
 72
1
 10
12.257
 20
0.65
 30
0.0
 11
1.0
 21
0.0
 31
0.0
 73
2
 44
0.9
  1
4
 40
0.1
 41
0.08
  0
MTEXT
  5
277
100
AcDbEntity
  8
0
100
AcDbMText
 62
7
  6
CONTINUOUS
  7
TEXTSTYLE_2
 71
3
 72
1
 10
0.864
 20
6.375
 30
0.0
 11
1.0
 21
0.0
 31
0.0
 73
2
 44
0.9
  1
B
 40
0.1
 41
0.08
  0
MTEXT
  5
278
100
AcDbEntity
  8
0
100
AcDbMText
 62
7
  6
CONTINUOUS
  7
TEXTSTYLE_2
 71
1
 72
1
 10
21.15
 20
6.375
 30
0.0
 11
1.0
 21
0.0
 31
0.0
 73
2
 44
0.9
  1
B
 40
0.1
 41
0.08
  0
MTEXT
  5
279
100
AcDbEntity
  8
0
100
AcDbMText
 62
7
  6
CONTINUOUS
  7
TEXTSTYLE_2
 71
3
 72
1
 10
0.864
 20
2.525
 30
0.0
 11
1.0
 21
0.0
 31
0.0
 73
2
 44
0.9
  1
A
 40
0.1
 41
0.08
  0
MTEXT
  5
27A
100
AcDbEntity
  8
0
100
AcDbMText
 62
7
  6
CONTINUOUS
  7
TEXTSTYLE_2
 71
1
 72
1
 10
21.15
 20
2.525
 30
0.0
 11
1.0
 21
0.0
 31
0.0
 73
2
 44
0.9
  1
A
 40
0.1
 41
0.08
  0
MTEXT
  5
27B
100
AcDbEntity
  8
0
100
AcDbMText
 62
7
  6
CONTINUOUS
  7
TEXTSTYLE_2
 71
3
 72
1
 10
0.864
 20
14.075
 30
0.0
 11
1.0
 21
0.0
 31
0.0
 73
2
 44
0.9
  1
D
 40
0.1
 41
0.08
  0
MTEXT
  5
27C
100
AcDbEntity
  8
0
100
AcDbMText
 62
7
  6
CONTINUOUS
  7
TEXTSTYLE_2
 71
1
 72
1
 10
21.15
 20
14.075
 30
0.0
 11
1.0
 21
0.0
 31
0.0
 73
2
 44
0.9
  1
D
 40
0.1
 41
0.08
  0
MTEXT
  5
27D
100
AcDbEntity
  8
0
100
AcDbMText
 62
7
  6
CONTINUOUS
  7
TEXTSTYLE_2
 71
3
 72
1
 10
0.864
 20
10.225
 30
0.0
 11
1.0
 21
0.0
 31
0.0
 73
2
 44
0.9
  1
C
 40
0.1
 41
0.08
  0
MTEXT
  5
27E
100
AcDbEntity
  8
0
100
AcDbMText
 62
7
  6
CONTINUOUS
  7
TEXTSTYLE_2
 71
1
 72
1
 10
21.15
 20
10.225
 30
0.0
 11
1.0
 21
0.0
 31
0.0
 73
2
 44
0.9
  1
C
 40
0.1
 41
0.08
  0
MTEXT
  5
27F
100
AcDbEntity
  8
0
100
AcDbMText
 62
7
  6
CONTINUOUS
  7
TEXTSTYLE_2
 71
2
 72
1
 10
14.757
 20
0.65
 30
0.0
 11
1.0
 21
0.0
 31
0.0
 73
2
 44
0.9
  1
3
 40
0.1
 41
0.08
  0
MTEXT
  5
280
100
AcDbEntity
  8
0
100
AcDbMText
 62
7
  6
CONTINUOUS
  7
TEXTSTYLE_2
 71
2
 72
1
 10
14.757
 20
15.95
 30
0.0
 11
1.0
 21
0.0
 31
0.0
 73
2
 44
0.9
  1
3
 40
0.1
 41
0.08
  0
MTEXT
  5
281
100
AcDbEntity
  8
0
100
AcDbMText
 62
7
  6
CONTINUOUS
  7
TEXTSTYLE_2
 71
2
 72
1
 10
17.257
 20
15.95
 30
0.0
 11
1.0
 21
0.0
 31
0.0
 73
2
 44
0.9
  1
2
 40
0.1
 41
0.08
  0
MTEXT
  5
282
100
AcDbEntity
  8
0
100
AcDbMText
 62
7
  6
CONTINUOUS
  7
TEXTSTYLE_2
 71
2
 72
1
 10
17.257
 20
0.65
 30
0.0
 11
1.0
 21
0.0
 31
0.0
 73
2
 44
0.9
  1
2
 40
0.1
 41
0.08
  0
MTEXT
  5
283
100
AcDbEntity
  8
0
100
AcDbMText
 62
7
  6
CONTINUOUS
  7
TEXTSTYLE_2
 71
2
 72
1
 10
19.757
 20
0.65
 30
0.0
 11
1.0
 21
0.0
 31
0.0
 73
2
 44
0.9
  1
1
 40
0.1
 41
0.08
  0
MTEXT
  5
284
100
AcDbEntity
  8
0
100
AcDbMText
 62
7
  6
CONTINUOUS
  7
TEXTSTYLE_2
 71
2
 72
1
 10
19.757
 20
15.95
 30
0.0
 11
1.0
 21
0.0
 31
0.0
 73
2
 44
0.9
  1
1
 40
0.1
 41
0.08
  0
MTEXT
  5
285
100
AcDbEntity
  8
0
100
AcDbMText
 62
7
  6
CONTINUOUS
  7
TEXTSTYLE_2
 71
2
 72
1
 10
2.257
 20
0.65
 30
0.0
 11
1.0
 21
0.0
 31
0.0
 73
2
 44
0.9
  1
8
 40
0.1
 41
0.08
  0
MTEXT
  5
286
100
AcDbEntity
  8
0
100
AcDbMText
 62
7
  6
CONTINUOUS
  7
TEXTSTYLE_2
 71
2
 72
1
 10
4.757
 20
0.65
 30
0.0
 11
1.0
 21
0.0
 31
0.0
 73
2
 44
0.9
  1
7
 40
0.1
 41
0.08
  0
MTEXT
  5
287
100
AcDbEntity
  8
0
100
AcDbMText
 62
7
  6
CONTINUOUS
  7
TEXTSTYLE_2
 71
2
 72
1
 10
7.257
 20
0.65
 30
0.0
 11
1.0
 21
0.0
 31
0.0
 73
2
 44
0.9
  1
6
 40
0.1
 41
0.08
  0
MTEXT
  5
288
100
AcDbEntity
  8
0
100
AcDbMText
 62
7
  6
CONTINUOUS
  7
TEXTSTYLE_2
 71
2
 72
1
 10
9.757
 20
0.65
 30
0.0
 11
1.0
 21
0.0
 31
0.0
 73
2
 44
0.9
  1
5
 40
0.1
 41
0.08
  0
MTEXT
  5
289
100
AcDbEntity
  8
0
100
AcDbMText
 62
7
  6
CONTINUOUS
  7
TEXTSTYLE_2
 71
2
 72
1
 10
9.757
 20
15.95
 30
0.0
 11
1.0
 21
0.0
 31
0.0
 73
2
 44
0.9
  1
5
 40
0.1
 41
0.08
  0
MTEXT
  5
28A
100
AcDbEntity
  8
0
100
AcDbMText
 62
7
  6
CONTINUOUS
  7
TEXTSTYLE_2
 71
2
 72
1
 10
7.257
 20
15.95
 30
0.0
 11
1.0
 21
0.0
 31
0.0
 73
2
 44
0.9
  1
6
 40
0.1
 41
0.08
  0
MTEXT
  5
28B
100
AcDbEntity
  8
0
100
AcDbMText
 62
7
  6
CONTINUOUS
  7
TEXTSTYLE_2
 71
2
 72
1
 10
4.757
 20
15.95
 30
0.0
 11
1.0
 21
0.0
 31
0.0
 73
2
 44
0.9
  1
7
 40
0.1
 41
0.08
  0
MTEXT
  5
28C
100
AcDbEntity
  8
0
100
AcDbMText
 62
7
  6
CONTINUOUS
  7
TEXTSTYLE_2
 71
2
 72
1
 10
2.257
 20
15.95
 30
0.0
 11
1.0
 21
0.0
 31
0.0
 73
2
 44
0.9
  1
8
 40
0.1
 41
0.08
  0
MTEXT
  5
28D
100
AcDbEntity
  8
0
100
AcDbMText
 62
7
  6
CONTINUOUS
  7
STANDARD
 71
1
 72
1
 10
17.2749123633
 20
0.9184107931
 30
0.0
 11
1.0
 21
0.0
 31
0.0
 73
2
 44
0.9
  1
1:1
 40
0.1
 41
0.3
  0
MTEXT
  5
28E
100
AcDbEntity
  8
0
100
AcDbMText
 62
7
  6
CONTINUOUS
  7
STANDARD
 71
1
 72
1
 10
19.4499123633
 20
0.9184107931
 30
0.0
 11
1.0
 21
0.0
 31
0.0
 73
2
 44
0.9
  1
1 OF 1
 40
0.1
 41
0.6
  0
MTEXT
  5
28F
100
AcDbEntity
  8
0
100
AcDbMText
 62
7
  6
CONTINUOUS
  7
STANDARD
 71
1
 72
1
 10
18.5204017884
 20
1.2400373234
 30
0.0
 11
1.0
 21
0.0
 31
0.0
 73
2
 44
0.9
  1
215056
 40
0.12
 41
0.72
  0
MTEXT
  5
290
100
AcDbEntity
  8
0
100
AcDbMText
 62
7
  6
CONTINUOUS
  7
STANDARD
 71
1
 72
1
 10
1.2857894151
 20
1.4458068967
 30
0.0
 11
1.0
 21
0.0
 31
0.0
 73
2
 44
0.9
  1
NOTES:\P1. ALL DIMENSIONS ARE MILLIMETERS [INCHES] UNLESS OTHERWISE NOTED.\P2. REFER TO "www.bannerengineering.com" FOR ADDITIONAL DATA AND SPECIFICATIONS.
 40
0.1
 41
7.9
  0
MTEXT
  5
291
100
AcDbEntity
  8
0
100
AcDbMText
 62
7
  6
CONTINUOUS
  7
TEXTSTYLE_3
 71
2
 72
1
 10
19.7555637832
 20
2.555409194
 30
0.0
 11
1.0
 21
0.0
 31
0.0
 73
2
 44
0.9
  1
BANNER ENGINEERING CORP.
 40
0.12
 41
2.592
  0
MTEXT
  5
292
100
AcDbEntity
  8
0
100
AcDbMText
 62
7
  6
CONTINUOUS
  7
TEXTSTYLE_2
 71
2
 72
1
 10
19.6690932526
 20
2.3442032634
 30
0.0
 11
1.0
 21
0.0
 31
0.0
 73
2
 44
0.9
  1
www.bannerengineering.com
 40
0.1
 41
2.0
  0
MTEXT
  5
293
100
AcDbEntity
  8
0
100
AcDbMText
 62
7
  6
CONTINUOUS
  7
TEXTSTYLE_4
 71
2
 72
1
 10
15.7104628329
 20
2.6377571551
 30
0.0
 11
1.0
 21
0.0
 31
0.0
 73
2
 44
0.9
  1
This drawing is the property\Pof BANNER ENGINEERING CORP.\PAny use or reproduction,\Pin any form, without prior\Pwritten permission of\PBanner is prohibited.
 40
0.08
 41
1.904
  0
MTEXT
  5
294
100
AcDbEntity
  8
0
100
AcDbMText
 62
7
  6
CONTINUOUS
  7
TEXTSTYLE_5
 71
2
 72
1
 10
15.7283993136
 20
1.9032170366
 30
0.0
 11
1.0
 21
0.0
 31
0.0
 73
2
 44
0.9
  1
C  2015 Banner Engineering Corp.
 40
0.08
 41
1.92
  0
DIMENSION
  5
295
100
AcDbEntity
  8
DRIVEN_DIMS
100
AcDbDimension
 62
7
  6
CONTINUOUS
  2
*D0
 10
7.3195252016
 20
6.3766193603
 11
7.3195252016
 21
7.0995526714
 70
160
 71
2
 72
2
 41
0.9
 42
40.5350122023
  1
<>\P[]
  3
DIMSTYLE_1
100
AcDbAlignedDimension
 13
8.5695252016
 23
7.9724859824
 14
8.5695252016
 24
6.3766193603
 50
270.0
100
AcDbRotatedDimension
  0
DIMENSION
  5
296
100
AcDbEntity
  8
DRIVEN_DIMS
100
AcDbDimension
 62
7
  6
CONTINUOUS
  2
*D1
 10
8.0695252016
 20
6.6089208813
 11
8.0695252016
 21
7.0995526714
 70
160
 71
2
 72
2
 41
0.9
 42
28.7340949335
  1
<>\P[]
  3
DIMSTYLE_1
100
AcDbAlignedDimension
 13
8.5695252016
 23
7.7401844614
 14
8.5695252016
 24
6.6089208813
 50
270.0
100
AcDbRotatedDimension
  0
DIMENSION
  5
297
100
AcDbEntity
  8
DRIVEN_DIMS
100
AcDbDimension
 62
7
  6
CONTINUOUS
  2
*D2
 10
4.5355004673
 20
10.0701012297
 11
5.4144676639
 21
9.9845576066
 70
160
 71
1
 72
2
 41
0.9
 42
3.175
  1
2X <>\P[]
  3
DIMSTYLE_1
100
AcDbAlignedDimension
 13
4.442521911
 23
10.7683611154
 14
4.5673895917
 24
10.7626111312
 50
357.3634710102
100
AcDbRotatedDimension
  0
DIMENSION
  5
298
100
AcDbEntity
  8
DRIVEN_DIMS
100
AcDbDimension
 62
7
  6
CONTINUOUS
  2
*D3
 10
5.1860486834
 20
10.9843876537
 11
5.85455631
 21
11.3113025674
 70
160
 71
1
 72
2
 41
0.9
 42
6.35
  1
2X <>\P[]
  3
DIMSTYLE_1
100
AcDbAlignedDimension
 13
4.5673895917
 23
10.7626111312
 14
4.5788895601
 24
11.0123464926
 50
87.3634710102
100
AcDbRotatedDimension
  0
DIMENSION
  5
299
100
AcDbEntity
  8
DRIVEN_DIMS
100
AcDbDimension
 62
7
  6
CONTINUOUS
  2
*D4
 10
4.9356681668
 20
11.7602361391
 11
5.4356681668
 21
12.2477361391
 70
160
 71
1
 72
2
 41
0.9
 42
1.5875
  1
<>\P[]
  3
DIMSTYLE_1
100
AcDbAlignedDimension
 13
4.5929102335
 23
11.8227361391
 14
4.5929102335
 24
11.7602361391
 50
270.0
100
AcDbRotatedDimension
  0
DIMENSION
  5
29A
100
AcDbEntity
  8
DRIVEN_DIMS
100
AcDbDimension
 62
7
  6
CONTINUOUS
  2
*D5
 10
8.0695252016
 20
10.7597361391
 11
8.0695252016
 21
11.2162361391
 70
160
 71
2
 72
2
 41
0.9
 42
27.0002
  1
<>\P[]
  3
DIMSTYLE_1
100
AcDbAlignedDimension
 13
8.5695252016
 23
11.8227361391
 14
8.5695252016
 24
10.7597361391
 50
270.0
100
AcDbRotatedDimension
  0
DIMENSION
  5
29B
100
AcDbEntity
  8
DRIVEN_DIMS
100
AcDbDimension
 62
7
  6
CONTINUOUS
  2
*D6
 10
17.8605252016
 20
12.3227361391
 11
13.2150252016
 21
12.2477361391
 70
160
 71
2
 72
2
 41
0.9
 42
235.9914
  1
<>\P[]
  3
DIMSTYLE_1
100
AcDbAlignedDimension
 13
8.5695252016
 23
11.8650510904
 14
17.8605252016
 24
11.8782365108
100
AcDbRotatedDimension
  0
ACAD_TABLE
  5
29C
100
AcDbEntity
  8
0
 62
7
  6
CONTINUOUS
100
AcDbBlockReference
  2
*T1
 10
16.7
 20
0.75
 30
0.0
100
AcDbTable
342
       43B
343
21C
 11
1.0
 21
0.0
 31
0.0
 90
6
 91
3
 92
5
 93
4
 94
0
 95
0
 96
0
 70
1
141
0.33
141
0.45
141
1.14
142
0.65
142
1.15
142
1.025
142
1.075
142
0.45
171
1
172
0
173
0
174
0
175
1
176
1
 91
33
178
0
145
0.0
301
CELL_VALUE
 90
4
  1
 
304
ACVALUE_END
170
1
140
0.1
171
1
172
0
173
0
174
0
175
1
176
1
 91
33
178
0
145
0.0
301
CELL_VALUE
 90
4
  1
 
304
ACVALUE_END
170
1
140
0.1
171
1
172
0
173
0
174
0
175
1
176
1
 91
33
178
0
145
0.0
301
CELL_VALUE
 90
4
  1
 
304
ACVALUE_END
170
1
140
0.1
171
1
172
0
173
0
174
0
175
1
176
1
 91
33
178
0
145
0.0
301
CELL_VALUE
 90
4
  1
 
304
ACVALUE_END
170
1
140
0.1
171
1
172
0
173
0
174
0
175
1
176
1
 91
33
178
0
145
0.0
301
CELL_VALUE
 90
4
  1
 
304
ACVALUE_END
170
1
140
0.1
171
1
172
0
173
0
174
0
175
1
176
1
 91
33
178
0
145
0.0
301
CELL_VALUE
 90
4
  1
 
304
ACVALUE_END
170
1
140
0.1
171
1
172
0
173
0
174
0
175
1
176
1
 91
33
178
0
145
0.0
301
CELL_VALUE
 90
4
  1
 
304
ACVALUE_END
170
1
140
0.1
171
1
172
0
173
0
174
0
175
1
176
1
 91
33
178
0
145
0.0
301
CELL_VALUE
 90
4
  1
 
304
ACVALUE_END
170
1
140
0.1
171
1
172
0
173
0
174
0
175
1
176
1
 91
33
178
0
145
0.0
301
CELL_VALUE
 90
4
  1
 
304
ACVALUE_END
170
1
140
0.1
171
1
172
0
173
0
174
0
175
1
176
1
 91
41
178
0
145
0.0
301
CELL_VALUE
 90
4
  1
A
304
ACVALUE_END
170
8
140
0.1
 64
7
171
1
172
0
173
0
174
0
175
5
176
1
 91
33
178
0
145
0.0
301
CELL_VALUE
 90
4
  1
EZSS-150\P 
304
ACVALUE_END
170
8
140
0.1
171
1
172
0
173
1
174
0
175
1
176
1
 91
1
178
0
145
0.0
170
1
171
1
172
0
173
1
174
0
175
1
176
1
 91
1
178
0
145
0.0
170
1
171
1
172
0
173
1
174
0
175
1
176
1
 91
1
178
0
145
0.0
170
1
171
1
172
0
173
1
174
0
175
1
176
1
 91
1
178
0
145
0.0
170
8
  0
MTEXT
  5
29D
100
AcDbEntity
  8
NOTES
100
AcDbMText
 62
7
  6
CONTINUOUS
  7
STANDARD
 71
1
 72
1
 10
11.475179424
 20
1.7147500873
 30
0.0
 11
1.0
 21
0.0
 31
0.0
 73
2
 44
0.9
  1
PARTIAL ISOMETRIC VIEW
 40
0.1
 41
2.2
  0
LINE
  5
29E
100
AcDbEntity
  8
0
100
AcDbLine
 62
7
  6
CONTINUOUS
 10
0.814
 20
8.336603
 11
0.814
 21
8.163397
  0
LINE
  5
29F
100
AcDbEntity
  8
0
100
AcDbLine
 62
7
  6
CONTINUOUS
 10
0.964
 20
15.75
 11
0.964
 21
0.75
  0
LINE
  5
2A0
100
AcDbEntity
  8
0
100
AcDbLine
 62
7
  6
CONTINUOUS
 10
15.8276527477
 20
1.2966912523
 11
16.4340437477
 21
1.3660842523
  0
LINE
  5
2A1
100
AcDbEntity
  8
0
100
AcDbLine
 62
7
  6
CONTINUOUS
 10
10.920397
 20
0.6
 11
11.093603
 21
0.6
  0
LINE
  5
2A2
100
AcDbEntity
  8
0
100
AcDbLine
 62
7
  6
CONTINUOUS
 10
0.964
 20
0.75
 11
21.05
 21
0.75
  0
LINE
  5
2A3
100
AcDbEntity
  8
0
100
AcDbLine
 62
7
  6
CONTINUOUS
 10
3.507
 20
0.75
 11
3.507
 21
0.5
  0
LINE
  5
2A4
100
AcDbEntity
  8
0
100
AcDbLine
 62
7
  6
CONTINUOUS
 10
3.507
 20
15.75
 11
3.507
 21
16.0
  0
LINE
  5
2A5
100
AcDbEntity
  8
0
100
AcDbLine
 62
7
  6
CONTINUOUS
 10
16.7
 20
1.0
 11
21.05
 21
1.0
  0
LINE
  5
2A6
100
AcDbEntity
  8
0
100
AcDbLine
 62
7
  6
CONTINUOUS
 10
14.9008917477
 20
1.1139932523
 11
15.1229827477
 21
1.1139932523
  0
LINE
  5
2A7
100
AcDbEntity
  8
0
100
AcDbLine
 62
7
  6
CONTINUOUS
 10
15.1729827477
 20
1.1139932523
 11
15.2729827477
 21
1.1139932523
  0
LINE
  5
2A8
100
AcDbEntity
  8
0
100
AcDbLine
 62
7
  6
CONTINUOUS
 10
15.3229827477
 20
1.1139932523
 11
15.5450737477
 21
1.1139932523
  0
LINE
  5
2A9
100
AcDbEntity
  8
0
100
AcDbLine
 62
7
  6
CONTINUOUS
 10
15.7276527477
 20
1.1139932523
 11
16.0058047477
 21
1.1139932523
  0
LINE
  5
2AA
100
AcDbEntity
  8
0
100
AcDbLine
 62
7
  6
CONTINUOUS
 10
16.0558047477
 20
1.1139932523
 11
16.2058907477
 21
1.1139932523
  0
LINE
  5
2AB
100
AcDbEntity
  8
0
100
AcDbLine
 62
7
  6
CONTINUOUS
 10
16.2558907477
 20
1.1139932523
 11
16.5340437477
 21
1.1139932523
  0
LINE
  5
2AC
100
AcDbEntity
  8
0
100
AcDbLine
 62
7
  6
CONTINUOUS
 10
16.7
 20
1.37
 11
21.05
 21
1.37
  0
LINE
  5
2AD
100
AcDbEntity
  8
0
100
AcDbLine
 62
7
  6
CONTINUOUS
 10
16.4340437477
 20
0.8619022523
 11
15.8276527477
 21
0.9312952523
  0
LINE
  5
2AE
100
AcDbEntity
  8
0
100
AcDbLine
 62
7
  6
CONTINUOUS
 10
14.7
 20
1.77
 11
16.7
 21
1.77
  0
LINE
  5
2AF
100
AcDbEntity
  8
0
100
AcDbLine
 62
7
  6
CONTINUOUS
 10
16.7
 20
2.13
 11
21.05
 21
2.13
  0
LINE
  5
2B0
100
AcDbEntity
  8
0
100
AcDbLine
 62
7
  6
CONTINUOUS
 10
18.273144232
 20
2.3543254011
 11
18.2257802057
 21
2.3543254011
  0
LINE
  5
2B1
100
AcDbEntity
  8
0
100
AcDbLine
 62
7
  6
CONTINUOUS
 10
18.1818891814
 20
2.3543254011
 11
18.0683181184
 21
2.3543254011
  0
LINE
  5
2B2
100
AcDbEntity
  8
0
100
AcDbLine
 62
7
  6
CONTINUOUS
 10
18.0394141024
 20
2.3543254011
 11
17.8362019897
 21
2.3543254011
  0
LINE
  5
2B3
100
AcDbEntity
  8
0
100
AcDbLine
 62
7
  6
CONTINUOUS
 10
17.7857289617
 20
2.3543254011
 11
17.7115229205
 21
2.3543254011
  0
LINE
  5
2B4
100
AcDbEntity
  8
0
100
AcDbLine
 62
7
  6
CONTINUOUS
 10
17.6651428948
 20
2.3543254011
 11
17.5894788529
 21
2.3543254011
  0
LINE
  5
2B5
100
AcDbEntity
  8
0
100
AcDbLine
 62
7
  6
CONTINUOUS
 10
17.537475824
 20
2.3543254011
 11
17.4632707829
 21
2.3543254011
  0
LINE
  5
2B6
100
AcDbEntity
  8
0
100
AcDbLine
 62
7
  6
CONTINUOUS
 10
17.4168897572
 20
2.3543254011
 11
17.3412257152
 21
2.3543254011
  0
LINE
  5
2B7
100
AcDbEntity
  8
0
100
AcDbLine
 62
7
  6
CONTINUOUS
 10
16.8743904563
 20
2.3543254011
 11
17.0508365542
 21
2.3543254011
  0
LINE
  5
2B8
100
AcDbEntity
  8
0
100
AcDbLine
 62
7
  6
CONTINUOUS
 10
17.1083735861
 20
2.3543254011
 11
17.185749629
 21
2.3543254011
  0
LINE
  5
2B9
100
AcDbEntity
  8
0
100
AcDbLine
 62
7
  6
CONTINUOUS
 10
17.2060356402
 20
2.3543254011
 11
17.3113166986
 21
2.3543254011
  0
LINE
  5
2BA
100
AcDbEntity
  8
0
100
AcDbLine
 62
7
  6
CONTINUOUS
 10
18.1572301677
 20
2.3790534148
 11
18.1818891814
 21
2.3790534148
  0
LINE
  5
2BB
100
AcDbEntity
  8
0
100
AcDbLine
 62
7
  6
CONTINUOUS
 10
17.3113166986
 20
2.3790754148
 11
17.2913006875
 21
2.3790754148
  0
LINE
  5
2BC
100
AcDbEntity
  8
0
100
AcDbLine
 62
7
  6
CONTINUOUS
 10
17.2204866482
 20
2.3790754148
 11
17.2060356402
 21
2.3790754148
  0
LINE
  5
2BD
100
AcDbEntity
  8
0
100
AcDbLine
 62
7
  6
CONTINUOUS
 10
17.185749629
 20
2.3790754148
 11
17.1744666227
 21
2.3790754148
  0
LINE
  5
2BE
100
AcDbEntity
  8
0
100
AcDbLine
 62
7
  6
CONTINUOUS
 10
17.1312345987
 20
2.3790754148
 11
17.1083735861
 21
2.3790754148
  0
LINE
  5
2BF
100
AcDbEntity
  8
0
100
AcDbLine
 62
7
  6
CONTINUOUS
 10
17.0051585288
 20
2.3790754148
 11
16.9637955059
 21
2.3790754148
  0
LINE
  5
2C0
100
AcDbEntity
  8
0
100
AcDbLine
 62
7
  6
CONTINUOUS
 10
16.8983324696
 20
2.3790754148
 11
16.8743904563
 21
2.3790754148
  0
LINE
  5
2C1
100
AcDbEntity
  8
0
100
AcDbLine
 62
7
  6
CONTINUOUS
 10
17.3412257152
 20
2.3790754148
 11
17.3598727255
 21
2.3790754148
  0
LINE
  5
2C2
100
AcDbEntity
  8
0
100
AcDbLine
 62
7
  6
CONTINUOUS
 10
17.3965727459
 20
2.3790754148
 11
17.4168897572
 21
2.3790754148
  0
LINE
  5
2C3
100
AcDbEntity
  8
0
100
AcDbLine
 62
7
  6
CONTINUOUS
 10
17.5894788529
 20
2.3790754148
 11
17.6081248632
 21
2.3790754148
  0
LINE
  5
2C4
100
AcDbEntity
  8
0
100
AcDbLine
 62
7
  6
CONTINUOUS
 10
17.6448258836
 20
2.3790754148
 11
17.6651428948
 21
2.3790754148
  0
LINE
  5
2C5
100
AcDbEntity
  8
0
100
AcDbLine
 62
7
  6
CONTINUOUS
 10
17.8362019897
 20
2.3790754148
 11
17.860125003
 21
2.3790754148
  0
LINE
  5
2C6
100
AcDbEntity
  8
0
100
AcDbLine
 62
7
  6
CONTINUOUS
 10
17.9271410401
 20
2.3790754148
 11
17.9921450762
 21
2.3790754148
  0
LINE
  5
2C7
100
AcDbEntity
  8
0
100
AcDbLine
 62
7
  6
CONTINUOUS
 10
18.0683181184
 20
2.3790754148
 11
18.091064131
 21
2.3790754148
  0
LINE
  5
2C8
100
AcDbEntity
  8
0
100
AcDbLine
 62
7
  6
CONTINUOUS
 10
18.2741672326
 20
2.379462415
 11
18.2752762332
 21
2.379462415
  0
LINE
  5
2C9
100
AcDbEntity
  8
0
100
AcDbLine
 62
7
  6
CONTINUOUS
 10
17.9970950789
 20
2.3922754221
 11
18.0394141024
 21
2.3922754221
  0
LINE
  5
2CA
100
AcDbEntity
  8
0
100
AcDbLine
 62
7
  6
CONTINUOUS
 10
17.1799826258
 20
2.3927194224
 11
17.2148606451
 21
2.3927194224
  0
LINE
  5
2CB
100
AcDbEntity
  8
0
100
AcDbLine
 62
7
  6
CONTINUOUS
 10
18.2860312391
 20
2.3932124227
 11
18.2981412459
 21
2.3932124227
  0
LINE
  5
2CC
100
AcDbEntity
  8
0
100
AcDbLine
 62
7
  6
CONTINUOUS
 10
18.184837183
 20
2.3937024229
 11
18.1572301677
 21
2.3937024229
  0
LINE
  5
2CD
100
AcDbEntity
  8
0
100
AcDbLine
 62
7
  6
CONTINUOUS
 10
17.9623080596
 20
2.395575424
 11
17.9271410401
 21
2.395575424
  0
LINE
  5
2CE
100
AcDbEntity
  8
0
100
AcDbLine
 62
7
  6
CONTINUOUS
 10
16.9637955059
 20
2.3964004244
 11
17.0051585288
 21
2.3964004244
  0
LINE
  5
2CF
100
AcDbEntity
  8
0
100
AcDbLine
 62
7
  6
CONTINUOUS
 10
18.1911671865
 20
2.4127054335
 11
18.1572301677
 21
2.4127054335
  0
LINE
  5
2D0
100
AcDbEntity
  8
0
100
AcDbLine
 62
7
  6
CONTINUOUS
 10
16.9637955059
 20
2.4130554337
 11
17.0051585288
 21
2.4130554337
  0
LINE
  5
2D1
100
AcDbEntity
  8
0
100
AcDbLine
 62
7
  6
CONTINUOUS
 10
17.1884986305
 20
2.413669434
 11
17.2090556419
 21
2.413669434
  0
LINE
  5
2D2
100
AcDbEntity
  8
0
100
AcDbLine
 62
7
  6
CONTINUOUS
 10
17.9271410401
 20
2.4138804341
 11
17.9623080596
 21
2.4138804341
  0
LINE
  5
2D3
100
AcDbEntity
  8
0
100
AcDbLine
 62
7
  6
CONTINUOUS
 10
18.0379951016
 20
2.4171804359
 11
17.9961310784
 21
2.4171804359
  0
LINE
  5
2D4
100
AcDbEntity
  8
0
100
AcDbLine
 62
7
  6
CONTINUOUS
 10
17.2017966379
 20
2.429836443
 11
17.1956156344
 21
2.429836443
  0
LINE
  5
2D5
100
AcDbEntity
  8
0
100
AcDbLine
 62
7
  6
CONTINUOUS
 10
18.091064131
 20
2.4303804433
 11
18.0683181184
 21
2.4303804433
  0
LINE
  5
2D6
100
AcDbEntity
  8
0
100
AcDbLine
 62
7
  6
CONTINUOUS
 10
17.9911810756
 20
2.4303804433
 11
17.9271410401
 21
2.4303804433
  0
LINE
  5
2D7
100
AcDbEntity
  8
0
100
AcDbLine
 62
7
  6
CONTINUOUS
 10
17.860125003
 20
2.4303804433
 11
17.8362019897
 21
2.4303804433
  0
LINE
  5
2D8
100
AcDbEntity
  8
0
100
AcDbLine
 62
7
  6
CONTINUOUS
 10
17.8086119744
 20
2.4303804433
 11
17.7906789644
 21
2.4303804433
  0
LINE
  5
2D9
100
AcDbEntity
  8
0
100
AcDbLine
 62
7
  6
CONTINUOUS
 10
17.7533869438
 20
2.4303804433
 11
17.7346109333
 21
2.4303804433
  0
LINE
  5
2DA
100
AcDbEntity
  8
0
100
AcDbLine
 62
7
  6
CONTINUOUS
 10
17.6081248632
 20
2.4303804433
 11
17.5894788529
 21
2.4303804433
  0
LINE
  5
2DB
100
AcDbEntity
  8
0
100
AcDbLine
 62
7
  6
CONTINUOUS
 10
17.5603588367
 20
2.4303804433
 11
17.5424258268
 21
2.4303804433
  0
LINE
  5
2DC
100
AcDbEntity
  8
0
100
AcDbLine
 62
7
  6
CONTINUOUS
 10
17.5051338061
 20
2.4303804433
 11
17.4863577957
 21
2.4303804433
  0
LINE
  5
2DD
100
AcDbEntity
  8
0
100
AcDbLine
 62
7
  6
CONTINUOUS
 10
17.3598727255
 20
2.4303804433
 11
17.3412257152
 21
2.4303804433
  0
LINE
  5
2DE
100
AcDbEntity
  8
0
100
AcDbLine
 62
7
  6
CONTINUOUS
 10
17.0051585288
 20
2.4303804433
 11
16.9637955059
 21
2.4303804433
  0
LINE
  5
2DF
100
AcDbEntity
  8
0
100
AcDbLine
 62
7
  6
CONTINUOUS
 10
16.8743904563
 20
2.4303804433
 11
16.8983324696
 21
2.4303804433
  0
LINE
  5
2E0
100
AcDbEntity
  8
0
100
AcDbLine
 62
7
  6
CONTINUOUS
 10
18.1572301677
 20
2.4303804433
 11
18.1940311881
 21
2.4303804433
  0
LINE
  5
2E1
100
AcDbEntity
  8
0
100
AcDbLine
 62
7
  6
CONTINUOUS
 10
17.2393896587
 20
2.455130457
 11
17.182214627
 21
2.455130457
  0
LINE
  5
2E2
100
AcDbEntity
  8
0
100
AcDbLine
 62
7
  6
CONTINUOUS
 10
17.0404535484
 20
2.455130457
 11
16.8743904563
 21
2.455130457
  0
LINE
  5
2E3
100
AcDbEntity
  8
0
100
AcDbLine
 62
7
  6
CONTINUOUS
 10
17.3412257152
 20
2.455130457
 11
17.4416837709
 21
2.455130457
  0
LINE
  5
2E4
100
AcDbEntity
  8
0
100
AcDbLine
 62
7
  6
CONTINUOUS
 10
17.4863577957
 20
2.455130457
 11
17.5603588367
 21
2.455130457
  0
LINE
  5
2E5
100
AcDbEntity
  8
0
100
AcDbLine
 62
7
  6
CONTINUOUS
 10
17.5894788529
 20
2.455130457
 11
17.6899369086
 21
2.455130457
  0
LINE
  5
2E6
100
AcDbEntity
  8
0
100
AcDbLine
 62
7
  6
CONTINUOUS
 10
17.7346109333
 20
2.455130457
 11
17.8086119744
 21
2.455130457
  0
LINE
  5
2E7
100
AcDbEntity
  8
0
100
AcDbLine
 62
7
  6
CONTINUOUS
 10
17.8362019897
 20
2.455130457
 11
18.0379951016
 21
2.455130457
  0
LINE
  5
2E8
100
AcDbEntity
  8
0
100
AcDbLine
 62
7
  6
CONTINUOUS
 10
18.0683181184
 20
2.455130457
 11
18.2178992014
 21
2.455130457
  0
LINE
  5
2E9
100
AcDbEntity
  8
0
100
AcDbLine
 62
7
  6
CONTINUOUS
 10
17.0697205646
 20
2.4006414268
 11
17.059669559
 21
2.4041904287
  0
LINE
  5
2EA
100
AcDbEntity
  8
0
100
AcDbLine
 62
7
  6
CONTINUOUS
 10
17.4615617819
 20
2.3550094015
 11
17.3982817468
 21
2.415387435
  0
LINE
  5
2EB
100
AcDbEntity
  8
0
100
AcDbLine
 62
7
  6
CONTINUOUS
 10
17.4433917718
 20
2.4544464566
 11
17.5034248051
 21
2.3971664249
  0
LINE
  5
2EC
100
AcDbEntity
  8
0
100
AcDbLine
 62
7
  6
CONTINUOUS
 10
17.7098149196
 20
2.3550094015
 11
17.6465348845
 21
2.415387435
  0
LINE
  5
2ED
100
AcDbEntity
  8
0
100
AcDbLine
 62
7
  6
CONTINUOUS
 10
17.6916449095
 20
2.4544464566
 11
17.7516779428
 21
2.3971664249
  0
LINE
  5
2EE
100
AcDbEntity
  8
0
100
AcDbLine
 62
7
  6
CONTINUOUS
 10
17.2169386463
 20
2.3915884218
 11
17.2225646494
 21
2.3828954169
  0
LINE
  5
2EF
100
AcDbEntity
  8
0
100
AcDbLine
 62
7
  6
CONTINUOUS
 10
17.211133643
 20
2.4174894361
 11
17.203874639
 21
2.4287054423
  0
LINE
  5
2F0
100
AcDbEntity
  8
0
100
AcDbLine
 62
7
  6
CONTINUOUS
 10
17.2892236864
 20
2.3802054154
 11
17.2414676599
 21
2.4540004564
  0
LINE
  5
2F1
100
AcDbEntity
  8
0
100
AcDbLine
 62
7
  6
CONTINUOUS
 10
18.206476195
 20
2.3723714111
 11
18.204672194
 21
2.3784404145
  0
LINE
  5
2F2
100
AcDbEntity
  8
0
100
AcDbLine
 62
7
  6
CONTINUOUS
 10
16.8719154549
 20
2.4526554556
 11
16.8719154549
 21
2.4328554446
  0
LINE
  5
2F3
100
AcDbEntity
  8
0
100
AcDbLine
 62
7
  6
CONTINUOUS
 10
16.8719154549
 20
2.3766004134
 11
16.8719154549
 21
2.3568004025
  0
LINE
  5
2F4
100
AcDbEntity
  8
0
100
AcDbLine
 62
7
  6
CONTINUOUS
 10
16.9008074709
 20
2.4279054419
 11
16.9008074709
 21
2.3815504162
  0
LINE
  5
2F5
100
AcDbEntity
  8
0
100
AcDbLine
 62
7
  6
CONTINUOUS
 10
16.9613205045
 20
2.4279054419
 11
16.9613205045
 21
2.415530435
  0
LINE
  5
2F6
100
AcDbEntity
  8
0
100
AcDbLine
 62
7
  6
CONTINUOUS
 10
16.9613205045
 20
2.3815504162
 11
16.9613205045
 21
2.3939254231
  0
LINE
  5
2F7
100
AcDbEntity
  8
0
100
AcDbLine
 62
7
  6
CONTINUOUS
 10
17.1058985847
 20
2.3766004134
 11
17.1058985847
 21
2.3568004025
  0
LINE
  5
2F8
100
AcDbEntity
  8
0
100
AcDbLine
 62
7
  6
CONTINUOUS
 10
17.1882246303
 20
2.3568004025
 11
17.1882246303
 21
2.3766004134
  0
LINE
  5
2F9
100
AcDbEntity
  8
0
100
AcDbLine
 62
7
  6
CONTINUOUS
 10
17.2035606388
 20
2.3766004134
 11
17.2035606388
 21
2.3568004025
  0
LINE
  5
2FA
100
AcDbEntity
  8
0
100
AcDbLine
 62
7
  6
CONTINUOUS
 10
17.3137917
 20
2.3568004025
 11
17.3137917
 21
2.3766004134
  0
LINE
  5
2FB
100
AcDbEntity
  8
0
100
AcDbLine
 62
7
  6
CONTINUOUS
 10
17.3387507138
 20
2.3568004025
 11
17.3387507138
 21
2.3766004134
  0
LINE
  5
2FC
100
AcDbEntity
  8
0
100
AcDbLine
 62
7
  6
CONTINUOUS
 10
17.3387507138
 20
2.4328554446
 11
17.3387507138
 21
2.4526554556
  0
LINE
  5
2FD
100
AcDbEntity
  8
0
100
AcDbLine
 62
7
  6
CONTINUOUS
 10
17.3623477269
 20
2.3815504162
 11
17.3623477269
 21
2.4279054419
  0
LINE
  5
2FE
100
AcDbEntity
  8
0
100
AcDbLine
 62
7
  6
CONTINUOUS
 10
17.3940977445
 20
2.413596434
 11
17.3940977445
 21
2.3815504162
  0
LINE
  5
2FF
100
AcDbEntity
  8
0
100
AcDbLine
 62
7
  6
CONTINUOUS
 10
17.4193647585
 20
2.3766004134
 11
17.4193647585
 21
2.3568004025
  0
LINE
  5
300
100
AcDbEntity
  8
0
100
AcDbLine
 62
7
  6
CONTINUOUS
 10
17.4838827943
 20
2.4328554446
 11
17.4838827943
 21
2.4526554556
  0
LINE
  5
301
100
AcDbEntity
  8
0
100
AcDbLine
 62
7
  6
CONTINUOUS
 10
17.5076088075
 20
2.3989574258
 11
17.5076088075
 21
2.4279054419
  0
LINE
  5
302
100
AcDbEntity
  8
0
100
AcDbLine
 62
7
  6
CONTINUOUS
 10
17.5399508254
 20
2.4279054419
 11
17.5399508254
 21
2.3568004025
  0
LINE
  5
303
100
AcDbEntity
  8
0
100
AcDbLine
 62
7
  6
CONTINUOUS
 10
17.5628338381
 20
2.4526554556
 11
17.5628338381
 21
2.4328554446
  0
LINE
  5
304
100
AcDbEntity
  8
0
100
AcDbLine
 62
7
  6
CONTINUOUS
 10
17.5870038515
 20
2.3568004025
 11
17.5870038515
 21
2.3766004134
  0
LINE
  5
305
100
AcDbEntity
  8
0
100
AcDbLine
 62
7
  6
CONTINUOUS
 10
17.5870038515
 20
2.4328554446
 11
17.5870038515
 21
2.4526554556
  0
LINE
  5
306
100
AcDbEntity
  8
0
100
AcDbLine
 62
7
  6
CONTINUOUS
 10
17.6105998646
 20
2.3815504162
 11
17.6105998646
 21
2.4279054419
  0
LINE
  5
307
100
AcDbEntity
  8
0
100
AcDbLine
 62
7
  6
CONTINUOUS
 10
17.6423508822
 20
2.413596434
 11
17.6423508822
 21
2.3815504162
  0
LINE
  5
308
100
AcDbEntity
  8
0
100
AcDbLine
 62
7
  6
CONTINUOUS
 10
17.6676178962
 20
2.3766004134
 11
17.6676178962
 21
2.3568004025
  0
LINE
  5
309
100
AcDbEntity
  8
0
100
AcDbLine
 62
7
  6
CONTINUOUS
 10
17.732135932
 20
2.4328554446
 11
17.732135932
 21
2.4526554556
  0
LINE
  5
30A
100
AcDbEntity
  8
0
100
AcDbLine
 62
7
  6
CONTINUOUS
 10
17.7558619451
 20
2.3989574258
 11
17.7558619451
 21
2.4279054419
  0
LINE
  5
30B
100
AcDbEntity
  8
0
100
AcDbLine
 62
7
  6
CONTINUOUS
 10
17.7882039631
 20
2.4279054419
 11
17.7882039631
 21
2.3568004025
  0
LINE
  5
30C
100
AcDbEntity
  8
0
100
AcDbLine
 62
7
  6
CONTINUOUS
 10
17.8110869758
 20
2.4526554556
 11
17.8110869758
 21
2.4328554446
  0
LINE
  5
30D
100
AcDbEntity
  8
0
100
AcDbLine
 62
7
  6
CONTINUOUS
 10
17.8337269883
 20
2.3568004025
 11
17.8337269883
 21
2.3766004134
  0
LINE
  5
30E
100
AcDbEntity
  8
0
100
AcDbLine
 62
7
  6
CONTINUOUS
 10
17.8337269883
 20
2.4328554446
 11
17.8337269883
 21
2.4526554556
  0
LINE
  5
30F
100
AcDbEntity
  8
0
100
AcDbLine
 62
7
  6
CONTINUOUS
 10
17.8626000043
 20
2.3815504162
 11
17.8626000043
 21
2.4279054419
  0
LINE
  5
310
100
AcDbEntity
  8
0
100
AcDbLine
 62
7
  6
CONTINUOUS
 10
17.9246660387
 20
2.4279054419
 11
17.9246660387
 21
2.4163554355
  0
LINE
  5
311
100
AcDbEntity
  8
0
100
AcDbLine
 62
7
  6
CONTINUOUS
 10
17.9246660387
 20
2.3931004226
 11
17.9246660387
 21
2.3815504162
  0
LINE
  5
312
100
AcDbEntity
  8
0
100
AcDbLine
 62
7
  6
CONTINUOUS
 10
17.964783061
 20
2.4114054327
 11
17.964783061
 21
2.3980504253
  0
LINE
  5
313
100
AcDbEntity
  8
0
100
AcDbLine
 62
7
  6
CONTINUOUS
 10
17.993656077
 20
2.4196554373
 11
17.993656077
 21
2.4279054419
  0
LINE
  5
314
100
AcDbEntity
  8
0
100
AcDbLine
 62
7
  6
CONTINUOUS
 10
17.9946200775
 20
2.3815504162
 11
17.9946200775
 21
2.3898004208
  0
LINE
  5
315
100
AcDbEntity
  8
0
100
AcDbLine
 62
7
  6
CONTINUOUS
 10
18.040470103
 20
2.4526554556
 11
18.040470103
 21
2.4196554373
  0
LINE
  5
316
100
AcDbEntity
  8
0
100
AcDbLine
 62
7
  6
CONTINUOUS
 10
18.0418891038
 20
2.3898004208
 11
18.0418891038
 21
2.3568004025
  0
LINE
  5
317
100
AcDbEntity
  8
0
100
AcDbLine
 62
7
  6
CONTINUOUS
 10
18.065843117
 20
2.3568004025
 11
18.065843117
 21
2.3766004134
  0
LINE
  5
318
100
AcDbEntity
  8
0
100
AcDbLine
 62
7
  6
CONTINUOUS
 10
18.065843117
 20
2.4328554446
 11
18.065843117
 21
2.4526554556
  0
LINE
  5
319
100
AcDbEntity
  8
0
100
AcDbLine
 62
7
  6
CONTINUOUS
 10
18.0935391324
 20
2.3815504162
 11
18.0935391324
 21
2.4279054419
  0
LINE
  5
31A
100
AcDbEntity
  8
0
100
AcDbLine
 62
7
  6
CONTINUOUS
 10
18.1547551663
 20
2.3912274216
 11
18.1547551663
 21
2.3815284162
  0
LINE
  5
31B
100
AcDbEntity
  8
0
100
AcDbLine
 62
7
  6
CONTINUOUS
 10
18.1547551663
 20
2.4151804348
 11
18.1547551663
 21
2.4279054419
  0
LINE
  5
31C
100
AcDbEntity
  8
0
100
AcDbLine
 62
7
  6
CONTINUOUS
 10
18.1843641828
 20
2.3765784134
 11
18.1843641828
 21
2.3568004025
  0
LINE
  5
31D
100
AcDbEntity
  8
0
100
AcDbLine
 62
7
  6
CONTINUOUS
 10
18.2835562378
 20
2.3881114198
 11
18.2835562378
 21
2.3907374213
  0
LINE
  5
31E
100
AcDbEntity
  8
0
100
AcDbLine
 62
7
  6
CONTINUOUS
 10
18.3006162472
 20
2.3907374213
 11
18.3006162472
 21
2.3791854149
  0
LINE
  5
31F
100
AcDbEntity
  8
0
100
AcDbLine
 62
7
  6
CONTINUOUS
 10
18.3975725422
 20
2.3981678251
 11
18.3975725422
 21
2.4087850316
  0
LINE
  5
320
100
AcDbEntity
  8
0
100
AcDbLine
 62
7
  6
CONTINUOUS
 10
17.1801246258
 20
2.4539814564
 11
17.1333245999
 21
2.3802244155
  0
LINE
  5
321
100
AcDbEntity
  8
0
100
AcDbLine
 62
7
  6
CONTINUOUS
 10
17.1935256333
 20
2.4286874423
 11
17.1864086293
 21
2.4174704361
  0
LINE
  5
322
100
AcDbEntity
  8
0
100
AcDbLine
 62
7
  6
CONTINUOUS
 10
17.1723766216
 20
2.3828764169
 11
17.1778926246
 21
2.3915704217
  0
LINE
  5
323
100
AcDbEntity
  8
0
100
AcDbLine
 62
7
  6
CONTINUOUS
 10
17.059669559
 20
2.4041904287
 11
17.0679095636
 21
2.4089664314
  0
ARC
  5
324
100
AcDbEntity
  8
0
100
AcDbCircle
 62
7
  6
CONTINUOUS
 10
17.4632701481
 20
2.3568008172
 40
0.0024754162
100
AcDbArc
 50
226.3593695814
 51
270.0146919953
  0
ARC
  5
325
100
AcDbEntity
  8
0
100
AcDbCircle
 62
7
  6
CONTINUOUS
 10
16.8743904545
 20
2.3568004006
 40
0.0024749995
100
AcDbArc
 50
179.9999571957
 51
270.0000428043
  0
ARC
  5
326
100
AcDbEntity
  8
0
100
AcDbCircle
 62
7
  6
CONTINUOUS
 10
17.5374758259
 20
2.3568004006
 40
0.0024749995
100
AcDbArc
 50
269.9999571957
 51
0.0000428043
  0
ARC
  5
327
100
AcDbEntity
  8
0
100
AcDbCircle
 62
7
  6
CONTINUOUS
 10
17.416889759
 20
2.3568004006
 40
0.0024749995
100
AcDbArc
 50
269.9999571957
 51
0.0000428043
  0
ARC
  5
328
100
AcDbEntity
  8
0
100
AcDbCircle
 62
7
  6
CONTINUOUS
 10
17.3412257133
 20
2.3568004006
 40
0.0024749995
100
AcDbArc
 50
179.9999571957
 51
270.0000428043
  0
ARC
  5
329
100
AcDbEntity
  8
0
100
AcDbCircle
 62
7
  6
CONTINUOUS
 10
17.2060356384
 20
2.3568004006
 40
0.0024749995
100
AcDbArc
 50
179.9999571957
 51
270.0000428043
  0
ARC
  5
32A
100
AcDbEntity
  8
0
100
AcDbCircle
 62
7
  6
CONTINUOUS
 10
17.3113167005
 20
2.3568004006
 40
0.0024749995
100
AcDbArc
 50
269.9999571957
 51
0.0000428043
  0
ARC
  5
32B
100
AcDbEntity
  8
0
100
AcDbCircle
 62
7
  6
CONTINUOUS
 10
17.1083735842
 20
2.3568004006
 40
0.0024749995
100
AcDbArc
 50
179.9999571957
 51
270.0000428043
  0
ARC
  5
32C
100
AcDbEntity
  8
0
100
AcDbCircle
 62
7
  6
CONTINUOUS
 10
17.1857496308
 20
2.3568004006
 40
0.0024749995
100
AcDbArc
 50
269.9999571958
 51
0.0000428044
  0
ARC
  5
32D
100
AcDbEntity
  8
0
100
AcDbCircle
 62
7
  6
CONTINUOUS
 10
17.0404590422
 20
2.3933827403
 40
0.061747717
100
AcDbArc
 50
59.5385584989
 51
90.0050977555
  0
ARC
  5
32E
100
AcDbEntity
  8
0
100
AcDbCircle
 62
7
  6
CONTINUOUS
 10
17.0481152095
 20
2.4027328529
 40
0.048483885
100
AcDbArc
 50
273.21763719
 51
303.0749121182
  0
ARC
  5
32F
100
AcDbEntity
  8
0
100
AcDbCircle
 62
7
  6
CONTINUOUS
 10
17.0620614151
 20
2.3797859164
 40
0.0222174455
100
AcDbArc
 50
4.0793399388
 51
69.834329283
  0
ARC
  5
330
100
AcDbEntity
  8
0
100
AcDbCircle
 62
7
  6
CONTINUOUS
 10
17.0629546036
 20
2.379965244
 40
0.0213072145
100
AcDbArc
 50
303.0488228549
 51
355.7263138674
  0
ARC
  5
331
100
AcDbEntity
  8
0
100
AcDbCircle
 62
7
  6
CONTINUOUS
 10
17.0688911042
 20
2.3799744343
 40
0.0153945295
100
AcDbArc
 50
354.0454548824
 51
5.1878013979
  0
ARC
  5
332
100
AcDbEntity
  8
0
100
AcDbCircle
 62
7
  6
CONTINUOUS
 10
17.0051585288
 20
2.3877379196
 40
0.0086625048
100
AcDbArc
 50
270.0
 51
90.0
  0
ARC
  5
333
100
AcDbEntity
  8
0
100
AcDbCircle
 62
7
  6
CONTINUOUS
 10
17.2148601055
 20
2.3902439622
 40
0.0024754602
100
AcDbArc
 50
32.8959418573
 51
89.9875097202
  0
ARC
  5
334
100
AcDbEntity
  8
0
100
AcDbCircle
 62
7
  6
CONTINUOUS
 10
17.131234669
 20
2.3815506151
 40
0.0024752003
100
AcDbArc
 50
269.9983726451
 51
327.602165307
  0
ARC
  5
335
100
AcDbEntity
  8
0
100
AcDbCircle
 62
7
  6
CONTINUOUS
 10
17.1799825555
 20
2.3902442221
 40
0.0024752003
100
AcDbArc
 50
89.998372645
 51
147.602165307
  0
ARC
  5
336
100
AcDbEntity
  8
0
100
AcDbCircle
 62
7
  6
CONTINUOUS
 10
17.1744665134
 20
2.3815504549
 40
0.0024750401
100
AcDbArc
 50
147.6063258011
 51
270.0025305754
  0
ARC
  5
337
100
AcDbEntity
  8
0
100
AcDbCircle
 62
7
  6
CONTINUOUS
 10
16.8983324714
 20
2.3815504143
 40
0.0024749995
100
AcDbArc
 50
269.9999571957
 51
0.0000428043
  0
ARC
  5
338
100
AcDbEntity
  8
0
100
AcDbCircle
 62
7
  6
CONTINUOUS
 10
16.8743904545
 20
2.3766004153
 40
0.0024749995
100
AcDbArc
 50
89.9999571957
 51
180.0000428043
  0
ARC
  5
339
100
AcDbEntity
  8
0
100
AcDbCircle
 62
7
  6
CONTINUOUS
 10
16.963795504
 20
2.3939254249
 40
0.0024749995
100
AcDbArc
 50
89.9999571957
 51
180.0000428043
  0
ARC
  5
33A
100
AcDbEntity
  8
0
100
AcDbCircle
 62
7
  6
CONTINUOUS
 10
16.963795504
 20
2.3815504143
 40
0.0024749995
100
AcDbArc
 50
179.9999571957
 51
270.0000428043
  0
ARC
  5
33B
100
AcDbEntity
  8
0
100
AcDbCircle
 62
7
  6
CONTINUOUS
 10
17.2060356384
 20
2.3766004153
 40
0.0024749995
100
AcDbArc
 50
89.9999571957
 51
180.0000428043
  0
ARC
  5
33C
100
AcDbEntity
  8
0
100
AcDbCircle
 62
7
  6
CONTINUOUS
 10
17.1083735842
 20
2.3766004153
 40
0.0024749995
100
AcDbArc
 50
89.9999571957
 51
180.0000428043
  0
ARC
  5
33D
100
AcDbEntity
  8
0
100
AcDbCircle
 62
7
  6
CONTINUOUS
 10
17.1857496308
 20
2.3766004153
 40
0.0024749995
100
AcDbArc
 50
359.9999571957
 51
90.0000428043
  0
ARC
  5
33E
100
AcDbEntity
  8
0
100
AcDbCircle
 62
7
  6
CONTINUOUS
 10
17.0460441811
 20
2.445793323
 40
0.0428289026
100
AcDbArc
 50
300.6990502959
 51
319.0591802498
  0
ARC
  5
33F
100
AcDbEntity
  8
0
100
AcDbCircle
 62
7
  6
CONTINUOUS
 10
17.0611211659
 20
2.4263113051
 40
0.0229166529
100
AcDbArc
 50
20.6563876465
 51
62.3316896973
  0
ARC
  5
340
100
AcDbEntity
  8
0
100
AcDbCircle
 62
7
  6
CONTINUOUS
 10
17.0660727781
 20
2.4296649696
 40
0.0171568255
100
AcDbArc
 50
315.9145124245
 51
16.0049121283
  0
ARC
  5
341
100
AcDbEntity
  8
0
100
AcDbCircle
 62
7
  6
CONTINUOUS
 10
17.0051585288
 20
2.4217179385
 40
0.0086625048
100
AcDbArc
 50
270.0
 51
90.0
  0
ARC
  5
342
100
AcDbEntity
  8
0
100
AcDbCircle
 62
7
  6
CONTINUOUS
 10
17.2017960982
 20
2.4273609828
 40
0.0024754602
100
AcDbArc
 50
32.8959418573
 51
89.9875097202
  0
ARC
  5
343
100
AcDbEntity
  8
0
100
AcDbCircle
 62
7
  6
CONTINUOUS
 10
17.2090556207
 20
2.4161446411
 40
0.0024752071
100
AcDbArc
 50
270.0004896793
 51
32.9089806818
  0
ARC
  5
344
100
AcDbEntity
  8
0
100
AcDbCircle
 62
7
  6
CONTINUOUS
 10
17.1956155641
 20
2.4273612427
 40
0.0024752003
100
AcDbArc
 50
89.998372645
 51
147.602165307
  0
ARC
  5
345
100
AcDbEntity
  8
0
100
AcDbCircle
 62
7
  6
CONTINUOUS
 10
17.1822145567
 20
2.4526552567
 40
0.0024752003
100
AcDbArc
 50
89.998372645
 51
147.602165307
  0
ARC
  5
346
100
AcDbEntity
  8
0
100
AcDbCircle
 62
7
  6
CONTINUOUS
 10
17.1884985212
 20
2.4161444741
 40
0.0024750401
100
AcDbArc
 50
147.6063258012
 51
270.0025305754
  0
ARC
  5
347
100
AcDbEntity
  8
0
100
AcDbCircle
 62
7
  6
CONTINUOUS
 10
16.8743904545
 20
2.4526554575
 40
0.0024749995
100
AcDbArc
 50
89.9999571957
 51
180.0000428043
  0
ARC
  5
348
100
AcDbEntity
  8
0
100
AcDbCircle
 62
7
  6
CONTINUOUS
 10
16.8743904545
 20
2.4328554428
 40
0.0024749995
100
AcDbArc
 50
179.9999571957
 51
270.0000428043
  0
ARC
  5
349
100
AcDbEntity
  8
0
100
AcDbCircle
 62
7
  6
CONTINUOUS
 10
16.8983324714
 20
2.4279054437
 40
0.0024749995
100
AcDbArc
 50
359.9999571957
 51
90.0000428043
  0
ARC
  5
34A
100
AcDbEntity
  8
0
100
AcDbCircle
 62
7
  6
CONTINUOUS
 10
16.963795504
 20
2.4279054437
 40
0.0024749995
100
AcDbArc
 50
89.9999571957
 51
180.0000428043
  0
ARC
  5
34B
100
AcDbEntity
  8
0
100
AcDbCircle
 62
7
  6
CONTINUOUS
 10
16.963795504
 20
2.4155304332
 40
0.0024749995
100
AcDbArc
 50
179.9999571957
 51
270.0000428043
  0
ARC
  5
34C
100
AcDbEntity
  8
0
100
AcDbCircle
 62
7
  6
CONTINUOUS
 10
17.5051335061
 20
2.3989573626
 40
0.0024753014
100
AcDbArc
 50
226.3461263059
 51
0.0014637321
  0
ARC
  5
34D
100
AcDbEntity
  8
0
100
AcDbCircle
 62
7
  6
CONTINUOUS
 10
17.3965730459
 20
2.4135964972
 40
0.0024753014
100
AcDbArc
 50
46.3461263059
 51
180.0014637321
  0
ARC
  5
34E
100
AcDbEntity
  8
0
100
AcDbCircle
 62
7
  6
CONTINUOUS
 10
17.2204866271
 20
2.3815506219
 40
0.0024752071
100
AcDbArc
 50
270.0004896793
 51
32.9089806818
  0
ARC
  5
34F
100
AcDbEntity
  8
0
100
AcDbCircle
 62
7
  6
CONTINUOUS
 10
17.396572744
 20
2.3815504143
 40
0.0024749995
100
AcDbArc
 50
179.9999571957
 51
270.0000428043
  0
ARC
  5
350
100
AcDbEntity
  8
0
100
AcDbCircle
 62
7
  6
CONTINUOUS
 10
17.416889759
 20
2.3766004153
 40
0.0024749995
100
AcDbArc
 50
359.9999571957
 51
90.0000428043
  0
ARC
  5
351
100
AcDbEntity
  8
0
100
AcDbCircle
 62
7
  6
CONTINUOUS
 10
17.3412257133
 20
2.3766004153
 40
0.0024749995
100
AcDbArc
 50
89.9999571957
 51
180.0000428043
  0
ARC
  5
352
100
AcDbEntity
  8
0
100
AcDbCircle
 62
7
  6
CONTINUOUS
 10
17.3598727274
 20
2.3815504143
 40
0.0024749995
100
AcDbArc
 50
269.9999571957
 51
0.0000428043
  0
ARC
  5
353
100
AcDbEntity
  8
0
100
AcDbCircle
 62
7
  6
CONTINUOUS
 10
17.3113167005
 20
2.3766004153
 40
0.0024749995
100
AcDbArc
 50
359.9999571957
 51
90.0000428043
  0
ARC
  5
354
100
AcDbEntity
  8
0
100
AcDbCircle
 62
7
  6
CONTINUOUS
 10
17.291300808
 20
2.3815494558
 40
0.002474041
100
AcDbArc
 50
212.9056413127
 51
269.9972091755
  0
ARC
  5
355
100
AcDbEntity
  8
0
100
AcDbCircle
 62
7
  6
CONTINUOUS
 10
17.5051338079
 20
2.4279054437
 40
0.0024749995
100
AcDbArc
 50
359.9999571957
 51
90.0000428043
  0
ARC
  5
356
100
AcDbEntity
  8
0
100
AcDbCircle
 62
7
  6
CONTINUOUS
 10
17.4863577938
 20
2.4328554428
 40
0.0024749995
100
AcDbArc
 50
179.9999571957
 51
270.0000428043
  0
ARC
  5
357
100
AcDbEntity
  8
0
100
AcDbCircle
 62
7
  6
CONTINUOUS
 10
17.4863577938
 20
2.4526554575
 40
0.0024749995
100
AcDbArc
 50
89.9999571957
 51
180.0000428043
  0
ARC
  5
358
100
AcDbEntity
  8
0
100
AcDbCircle
 62
7
  6
CONTINUOUS
 10
17.5603588386
 20
2.4526554575
 40
0.0024749995
100
AcDbArc
 50
359.9999571957
 51
90.0000428043
  0
ARC
  5
359
100
AcDbEntity
  8
0
100
AcDbCircle
 62
7
  6
CONTINUOUS
 10
17.5603588386
 20
2.4328554428
 40
0.0024749995
100
AcDbArc
 50
269.9999571957
 51
0.0000428043
  0
ARC
  5
35A
100
AcDbEntity
  8
0
100
AcDbCircle
 62
7
  6
CONTINUOUS
 10
17.5424258249
 20
2.4279054437
 40
0.0024749995
100
AcDbArc
 50
89.9999571957
 51
180.0000428043
  0
ARC
  5
35B
100
AcDbEntity
  8
0
100
AcDbCircle
 62
7
  6
CONTINUOUS
 10
17.3598727274
 20
2.4279054437
 40
0.0024749995
100
AcDbArc
 50
359.9999571957
 51
90.0000428043
  0
ARC
  5
35C
100
AcDbEntity
  8
0
100
AcDbCircle
 62
7
  6
CONTINUOUS
 10
17.3412257133
 20
2.4328554428
 40
0.0024749995
100
AcDbArc
 50
179.9999571957
 51
270.0000428043
  0
ARC
  5
35D
100
AcDbEntity
  8
0
100
AcDbCircle
 62
7
  6
CONTINUOUS
 10
17.3412257133
 20
2.4526554575
 40
0.0024749995
100
AcDbArc
 50
89.9999571957
 51
180.0000428043
  0
ARC
  5
35E
100
AcDbEntity
  8
0
100
AcDbCircle
 62
7
  6
CONTINUOUS
 10
17.2393900382
 20
2.4526554968
 40
0.0024749602
100
AcDbArc
 50
32.9172174468
 51
90.0087853097
  0
ARC
  5
35F
100
AcDbEntity
  8
0
100
AcDbCircle
 62
7
  6
CONTINUOUS
 10
17.4416839057
 20
2.4526562892
 40
0.0024741678
100
AcDbArc
 50
46.3477981899
 51
90.0031206038
  0
ARC
  5
360
100
AcDbEntity
  8
0
100
AcDbCircle
 62
7
  6
CONTINUOUS
 10
18.2152358981
 20
2.2725915465
 40
0.1825583387
100
AcDbArc
 50
79.8618509324
 51
89.1640948679
  0
ARC
  5
361
100
AcDbEntity
  8
0
100
AcDbCircle
 62
7
  6
CONTINUOUS
 10
18.197141171
 20
2.3016991173
 40
0.117346916
100
AcDbArc
 50
58.614769177
 51
62.3737227606
  0
ARC
  5
362
100
AcDbEntity
  8
0
100
AcDbCircle
 62
7
  6
CONTINUOUS
 10
18.2260032264
 20
2.3725718859
 40
0.0459185159
100
AcDbArc
 50
15.6740290068
 51
20.9917271228
  0
ARC
  5
363
100
AcDbEntity
  8
0
100
AcDbCircle
 62
7
  6
CONTINUOUS
 10
18.1662929967
 20
2.368643334
 40
0.0396099176
100
AcDbArc
 50
14.3201081283
 51
22.4984722084
  0
ARC
  5
364
100
AcDbEntity
  8
0
100
AcDbCircle
 62
7
  6
CONTINUOUS
 10
18.1850046504
 20
2.3693353402
 40
0.0243676582
100
AcDbArc
 50
63.3666028271
 51
90.3937697637
  0
ARC
  5
365
100
AcDbEntity
  8
0
100
AcDbCircle
 62
7
  6
CONTINUOUS
 10
18.2724993219
 20
2.3741987064
 40
0.0198837666
100
AcDbArc
 50
271.8586572978
 51
289.4131338543
  0
ARC
  5
366
100
AcDbEntity
  8
0
100
AcDbCircle
 62
7
  6
CONTINUOUS
 10
18.2265855264
 20
2.3716475527
 40
0.0173408616
100
AcDbArc
 50
232.4713476722
 51
267.338189944
  0
ARC
  5
367
100
AcDbEntity
  8
0
100
AcDbCircle
 62
7
  6
CONTINUOUS
 10
18.1818891832
 20
2.3568004006
 40
0.0024749995
100
AcDbArc
 50
269.9999571957
 51
0.0000428043
  0
ARC
  5
368
100
AcDbEntity
  8
0
100
AcDbCircle
 62
7
  6
CONTINUOUS
 10
18.0683181166
 20
2.3568004006
 40
0.0024749995
100
AcDbArc
 50
179.9999571957
 51
270.0000428043
  0
ARC
  5
369
100
AcDbEntity
  8
0
100
AcDbCircle
 62
7
  6
CONTINUOUS
 10
17.7857289635
 20
2.3568004006
 40
0.0024749995
100
AcDbArc
 50
269.9999571957
 51
0.0000428043
  0
ARC
  5
36A
100
AcDbEntity
  8
0
100
AcDbCircle
 62
7
  6
CONTINUOUS
 10
17.6651428967
 20
2.3568004006
 40
0.0024749995
100
AcDbArc
 50
269.9999571957
 51
0.0000428043
  0
ARC
  5
36B
100
AcDbEntity
  8
0
100
AcDbCircle
 62
7
  6
CONTINUOUS
 10
17.589478851
 20
2.3568004006
 40
0.0024749995
100
AcDbArc
 50
179.9999571957
 51
270.0000428043
  0
ARC
  5
36C
100
AcDbEntity
  8
0
100
AcDbCircle
 62
7
  6
CONTINUOUS
 10
18.0394141042
 20
2.3568004006
 40
0.0024749995
100
AcDbArc
 50
269.9999571957
 51
0.0000428043
  0
ARC
  5
36D
100
AcDbEntity
  8
0
100
AcDbCircle
 62
7
  6
CONTINUOUS
 10
17.8362019878
 20
2.3568004006
 40
0.0024749995
100
AcDbArc
 50
179.9999571957
 51
270.0000428043
  0
ARC
  5
36E
100
AcDbEntity
  8
0
100
AcDbCircle
 62
7
  6
CONTINUOUS
 10
17.7115227858
 20
2.3567995689
 40
0.0024741678
100
AcDbArc
 50
226.3477981898
 51
270.0031206038
  0
ARC
  5
36F
100
AcDbEntity
  8
0
100
AcDbCircle
 62
7
  6
CONTINUOUS
 10
17.7533866437
 20
2.3989573626
 40
0.0024753014
100
AcDbArc
 50
226.3461263059
 51
0.0014637321
  0
ARC
  5
370
100
AcDbEntity
  8
0
100
AcDbCircle
 62
7
  6
CONTINUOUS
 10
17.6448261836
 20
2.4135964972
 40
0.0024753014
100
AcDbArc
 50
46.3461263058
 51
180.0014637321
  0
ARC
  5
371
100
AcDbEntity
  8
0
100
AcDbCircle
 62
7
  6
CONTINUOUS
 10
17.6448258817
 20
2.3815504143
 40
0.0024749995
100
AcDbArc
 50
179.9999571957
 51
270.0000428043
  0
ARC
  5
372
100
AcDbEntity
  8
0
100
AcDbCircle
 62
7
  6
CONTINUOUS
 10
17.6651428967
 20
2.3766004153
 40
0.0024749995
100
AcDbArc
 50
359.9999571957
 51
90.0000428043
  0
ARC
  5
373
100
AcDbEntity
  8
0
100
AcDbCircle
 62
7
  6
CONTINUOUS
 10
17.589478851
 20
2.3766004153
 40
0.0024749995
100
AcDbArc
 50
89.9999571957
 51
180.0000428043
  0
ARC
  5
374
100
AcDbEntity
  8
0
100
AcDbCircle
 62
7
  6
CONTINUOUS
 10
17.6081248651
 20
2.3815504143
 40
0.0024749995
100
AcDbArc
 50
269.9999571957
 51
0.0000428043
  0
ARC
  5
375
100
AcDbEntity
  8
0
100
AcDbCircle
 62
7
  6
CONTINUOUS
 10
17.9271410383
 20
2.3931004244
 40
0.0024749995
100
AcDbArc
 50
89.9999571957
 51
180.0000428043
  0
ARC
  5
376
100
AcDbEntity
  8
0
100
AcDbCircle
 62
7
  6
CONTINUOUS
 10
17.9271410383
 20
2.3815504143
 40
0.0024749995
100
AcDbArc
 50
179.9999571957
 51
270.0000428043
  0
ARC
  5
377
100
AcDbEntity
  8
0
100
AcDbCircle
 62
7
  6
CONTINUOUS
 10
17.8362019878
 20
2.3766004153
 40
0.0024749995
100
AcDbArc
 50
89.9999571957
 51
180.0000428043
  0
ARC
  5
378
100
AcDbEntity
  8
0
100
AcDbCircle
 62
7
  6
CONTINUOUS
 10
17.8601250048
 20
2.3815504143
 40
0.0024749995
100
AcDbArc
 50
269.9999571956
 51
0.0000428042
  0
ARC
  5
379
100
AcDbEntity
  8
0
100
AcDbCircle
 62
7
  6
CONTINUOUS
 10
17.9271410383
 20
2.4163554336
 40
0.0024749995
100
AcDbArc
 50
179.9999571957
 51
270.0000428043
  0
ARC
  5
37A
100
AcDbEntity
  8
0
100
AcDbCircle
 62
7
  6
CONTINUOUS
 10
17.7533869456
 20
2.4279054437
 40
0.0024749995
100
AcDbArc
 50
359.9999571957
 51
90.0000428043
  0
ARC
  5
37B
100
AcDbEntity
  8
0
100
AcDbCircle
 62
7
  6
CONTINUOUS
 10
17.7346109315
 20
2.4328554428
 40
0.0024749995
100
AcDbArc
 50
179.9999571957
 51
270.0000428043
  0
ARC
  5
37C
100
AcDbEntity
  8
0
100
AcDbCircle
 62
7
  6
CONTINUOUS
 10
17.7346109315
 20
2.4526554575
 40
0.0024749995
100
AcDbArc
 50
89.9999571957
 51
180.0000428043
  0
ARC
  5
37D
100
AcDbEntity
  8
0
100
AcDbCircle
 62
7
  6
CONTINUOUS
 10
17.8086119762
 20
2.4526554575
 40
0.0024749995
100
AcDbArc
 50
359.9999571957
 51
90.0000428043
  0
ARC
  5
37E
100
AcDbEntity
  8
0
100
AcDbCircle
 62
7
  6
CONTINUOUS
 10
17.8086119762
 20
2.4328554428
 40
0.0024749995
100
AcDbArc
 50
269.9999571956
 51
0.0000428042
  0
ARC
  5
37F
100
AcDbEntity
  8
0
100
AcDbCircle
 62
7
  6
CONTINUOUS
 10
17.7906789626
 20
2.4279054437
 40
0.0024749995
100
AcDbArc
 50
89.9999571957
 51
180.0000428043
  0
ARC
  5
380
100
AcDbEntity
  8
0
100
AcDbCircle
 62
7
  6
CONTINUOUS
 10
17.6081248651
 20
2.4279054437
 40
0.0024749995
100
AcDbArc
 50
359.9999571957
 51
90.0000428043
  0
ARC
  5
381
100
AcDbEntity
  8
0
100
AcDbCircle
 62
7
  6
CONTINUOUS
 10
17.589478851
 20
2.4328554428
 40
0.0024749995
100
AcDbArc
 50
179.9999571957
 51
270.0000428043
  0
ARC
  5
382
100
AcDbEntity
  8
0
100
AcDbCircle
 62
7
  6
CONTINUOUS
 10
17.589478851
 20
2.4526554575
 40
0.0024749995
100
AcDbArc
 50
89.9999571957
 51
180.0000428043
  0
ARC
  5
383
100
AcDbEntity
  8
0
100
AcDbCircle
 62
7
  6
CONTINUOUS
 10
17.8601250048
 20
2.4279054437
 40
0.0024749995
100
AcDbArc
 50
359.9999571957
 51
90.0000428043
  0
ARC
  5
384
100
AcDbEntity
  8
0
100
AcDbCircle
 62
7
  6
CONTINUOUS
 10
17.8362019878
 20
2.4328554428
 40
0.0024749995
100
AcDbArc
 50
179.9999571957
 51
270.0000428043
  0
ARC
  5
385
100
AcDbEntity
  8
0
100
AcDbCircle
 62
7
  6
CONTINUOUS
 10
17.8362019878
 20
2.4526554575
 40
0.0024749995
100
AcDbArc
 50
89.9999571957
 51
180.0000428043
  0
ARC
  5
386
100
AcDbEntity
  8
0
100
AcDbCircle
 62
7
  6
CONTINUOUS
 10
17.9271410383
 20
2.4279054437
 40
0.0024749995
100
AcDbArc
 50
89.9999571957
 51
180.0000428043
  0
ARC
  5
387
100
AcDbEntity
  8
0
100
AcDbCircle
 62
7
  6
CONTINUOUS
 10
17.6899370433
 20
2.4526562892
 40
0.0024741678
100
AcDbArc
 50
46.3477981899
 51
90.0031206038
  0
ARC
  5
388
100
AcDbEntity
  8
0
100
AcDbCircle
 62
7
  6
CONTINUOUS
 10
18.2495655574
 20
2.384346736
 40
0.044722495
100
AcDbArc
 50
195.531588407
 51
204.7624440448
  0
ARC
  5
389
100
AcDbEntity
  8
0
100
AcDbCircle
 62
7
  6
CONTINUOUS
 10
18.2415401884
 20
2.4134150625
 40
0.039319019
100
AcDbArc
 50
59.1202086415
 51
81.4730239328
  0
ARC
  5
38A
100
AcDbEntity
  8
0
100
AcDbCircle
 62
7
  6
CONTINUOUS
 10
18.2667613545
 20
2.3917854558
 40
0.0383802683
100
AcDbArc
 50
288.7656836787
 51
309.6104317088
  0
ARC
  5
38B
100
AcDbEntity
  8
0
100
AcDbCircle
 62
7
  6
CONTINUOUS
 10
18.2471995846
 20
2.4197497317
 40
0.0310192946
100
AcDbArc
 50
34.7540871
 51
62.0879016178
  0
ARC
  5
38C
100
AcDbEntity
  8
0
100
AcDbCircle
 62
7
  6
CONTINUOUS
 10
18.1924863006
 20
2.4019259643
 40
0.0284963867
100
AcDbArc
 50
70.3834917948
 51
86.8922743861
  0
ARC
  5
38D
100
AcDbEntity
  8
0
100
AcDbCircle
 62
7
  6
CONTINUOUS
 10
18.2737535399
 20
2.384184238
 40
0.0280715479
100
AcDbArc
 50
308.5071794988
 51
332.2400656899
  0
ARC
  5
38E
100
AcDbEntity
  8
0
100
AcDbCircle
 62
7
  6
CONTINUOUS
 10
18.2439037681
 20
2.3797532943
 40
0.0266349791
100
AcDbArc
 50
20.3630922153
 51
37.9727053099
  0
ARC
  5
38F
100
AcDbEntity
  8
0
100
AcDbCircle
 62
7
  6
CONTINUOUS
 10
18.2450241237
 20
2.3798263774
 40
0.0257145923
100
AcDbArc
 50
39.3804255939
 51
59.0361096173
  0
ARC
  5
390
100
AcDbEntity
  8
0
100
AcDbCircle
 62
7
  6
CONTINUOUS
 10
18.2296840914
 20
2.3774978567
 40
0.0238935861
100
AcDbArc
 50
209.8247607259
 51
235.1255079367
  0
ARC
  5
391
100
AcDbEntity
  8
0
100
AcDbCircle
 62
7
  6
CONTINUOUS
 10
18.2830605507
 20
2.3792897325
 40
0.0175560065
100
AcDbArc
 50
332.2279060967
 51
359.6595469939
  0
ARC
  5
392
100
AcDbEntity
  8
0
100
AcDbCircle
 62
7
  6
CONTINUOUS
 10
18.1890593051
 20
2.3776149607
 40
0.0151491919
100
AcDbArc
 50
24.098260853
 51
63.0369451818
  0
ARC
  5
393
100
AcDbEntity
  8
0
100
AcDbCircle
 62
7
  6
CONTINUOUS
 10
18.2845735615
 20
2.3882148688
 40
0.0147197649
100
AcDbArc
 50
192.7054516565
 51
206.0594861022
  0
ARC
  5
394
100
AcDbEntity
  8
0
100
AcDbCircle
 62
7
  6
CONTINUOUS
 10
18.1973459106
 20
2.4149676972
 40
0.0145814632
100
AcDbArc
 50
54.6746025112
 51
71.1660573124
  0
ARC
  5
395
100
AcDbEntity
  8
0
100
AcDbCircle
 62
7
  6
CONTINUOUS
 10
18.2752146786
 20
2.3927110743
 40
0.0132488022
100
AcDbArc
 50
270.266200055
 51
281.2404888597
  0
ARC
  5
396
100
AcDbEntity
  8
0
100
AcDbCircle
 62
7
  6
CONTINUOUS
 10
18.2716089246
 20
2.3878675959
 40
0.0119498009
100
AcDbArc
 50
340.7883861657
 51
1.1691452593
  0
ARC
  5
397
100
AcDbEntity
  8
0
100
AcDbCircle
 62
7
  6
CONTINUOUS
 10
18.198398534
 20
2.4260095887
 40
0.0110815393
100
AcDbArc
 50
306.758405961
 51
320.4502234234
  0
ARC
  5
398
100
AcDbEntity
  8
0
100
AcDbCircle
 62
7
  6
CONTINUOUS
 10
18.2764089196
 20
2.3869743807
 40
0.0073895522
100
AcDbArc
 50
280.8288201977
 51
305.0837508495
  0
ARC
  5
399
100
AcDbEntity
  8
0
100
AcDbCircle
 62
7
  6
CONTINUOUS
 10
18.2768101012
 20
2.3861235343
 40
0.0064647042
100
AcDbArc
 50
306.5086174083
 51
340.2162360092
  0
ARC
  5
39A
100
AcDbEntity
  8
0
100
AcDbCircle
 62
7
  6
CONTINUOUS
 10
18.2024754016
 20
2.4218216224
 40
0.0060275915
100
AcDbArc
 50
20.9055592135
 51
56.7851676243
  0
ARC
  5
39B
100
AcDbEntity
  8
0
100
AcDbCircle
 62
7
  6
CONTINUOUS
 10
18.2025691502
 20
2.4227756809
 40
0.0058087709
100
AcDbArc
 50
318.8515287446
 51
353.6422345323
  0
ARC
  5
39C
100
AcDbEntity
  8
0
100
AcDbCircle
 62
7
  6
CONTINUOUS
 10
18.2760792244
 20
2.3840063824
 40
0.0052403997
100
AcDbArc
 50
205.5232099488
 51
227.5054868079
  0
ARC
  5
39D
100
AcDbEntity
  8
0
100
AcDbCircle
 62
7
  6
CONTINUOUS
 10
18.2037759605
 20
2.4224819047
 40
0.0045795888
100
AcDbArc
 50
355.6235353944
 51
18.9942678268
  0
ARC
  5
39E
100
AcDbEntity
  8
0
100
AcDbCircle
 62
7
  6
CONTINUOUS
 10
18.2743509251
 20
2.3821910097
 40
0.0027347709
100
AcDbArc
 50
228.5117626738
 51
266.1485845754
  0
ARC
  5
39F
100
AcDbEntity
  8
0
100
AcDbCircle
 62
7
  6
CONTINUOUS
 10
18.1572301659
 20
2.3912274234
 40
0.0024749995
100
AcDbArc
 50
89.9999571957
 51
180.0000428043
  0
ARC
  5
3A0
100
AcDbEntity
  8
0
100
AcDbCircle
 62
7
  6
CONTINUOUS
 10
18.1572301659
 20
2.3815284143
 40
0.0024749995
100
AcDbArc
 50
179.9999571957
 51
270.0000428043
  0
ARC
  5
3A1
100
AcDbEntity
  8
0
100
AcDbCircle
 62
7
  6
CONTINUOUS
 10
18.1818891832
 20
2.3765784153
 40
0.0024749995
100
AcDbArc
 50
359.9999571957
 51
90.0000428043
  0
ARC
  5
3A2
100
AcDbEntity
  8
0
100
AcDbCircle
 62
7
  6
CONTINUOUS
 10
18.0683181166
 20
2.3766004153
 40
0.0024749995
100
AcDbArc
 50
89.9999571957
 51
180.0000428043
  0
ARC
  5
3A3
100
AcDbEntity
  8
0
100
AcDbCircle
 62
7
  6
CONTINUOUS
 10
18.0910641329
 20
2.3815504143
 40
0.0024749995
100
AcDbArc
 50
269.9999571957
 51
0.0000428043
  0
ARC
  5
3A4
100
AcDbEntity
  8
0
100
AcDbCircle
 62
7
  6
CONTINUOUS
 10
18.2860312373
 20
2.3907374231
 40
0.0024749995
100
AcDbArc
 50
89.9999571957
 51
180.0000428043
  0
ARC
  5
3A5
100
AcDbEntity
  8
0
100
AcDbCircle
 62
7
  6
CONTINUOUS
 10
18.2981412477
 20
2.3907374231
 40
0.0024749995
100
AcDbArc
 50
359.9999571957
 51
90.0000428043
  0
ARC
  5
3A6
100
AcDbEntity
  8
0
100
AcDbCircle
 62
7
  6
CONTINUOUS
 10
18.1572301659
 20
2.415180433
 40
0.0024749995
100
AcDbArc
 50
179.9999571957
 51
270.0000428043
  0
ARC
  5
3A7
100
AcDbEntity
  8
0
100
AcDbCircle
 62
7
  6
CONTINUOUS
 10
17.992145078
 20
2.3815504143
 40
0.0024749995
100
AcDbArc
 50
269.9999571957
 51
0.0000428043
  0
ARC
  5
3A8
100
AcDbEntity
  8
0
100
AcDbCircle
 62
7
  6
CONTINUOUS
 10
17.9970950771
 20
2.3898004226
 40
0.0024749995
100
AcDbArc
 50
89.9999571957
 51
180.0000428043
  0
ARC
  5
3A9
100
AcDbEntity
  8
0
100
AcDbCircle
 62
7
  6
CONTINUOUS
 10
18.0394141042
 20
2.3898004226
 40
0.0024749995
100
AcDbArc
 50
359.9999571957
 51
90.0000428043
  0
ARC
  5
3AA
100
AcDbEntity
  8
0
100
AcDbCircle
 62
7
  6
CONTINUOUS
 10
18.0379951034
 20
2.4196554355
 40
0.0024749995
100
AcDbArc
 50
269.9999571956
 51
0.0000428042
  0
ARC
  5
3AB
100
AcDbEntity
  8
0
100
AcDbCircle
 62
7
  6
CONTINUOUS
 10
17.9961310765
 20
2.4196554355
 40
0.0024749995
100
AcDbArc
 50
179.9999571957
 51
270.0000428043
  0
ARC
  5
3AC
100
AcDbEntity
  8
0
100
AcDbCircle
 62
7
  6
CONTINUOUS
 10
17.9623080615
 20
2.4114054346
 40
0.0024749995
100
AcDbArc
 50
359.9999571957
 51
90.0000428043
  0
ARC
  5
3AD
100
AcDbEntity
  8
0
100
AcDbCircle
 62
7
  6
CONTINUOUS
 10
17.9623080615
 20
2.3980504235
 40
0.0024749995
100
AcDbArc
 50
269.9999571956
 51
0.0000428042
  0
ARC
  5
3AE
100
AcDbEntity
  8
0
100
AcDbCircle
 62
7
  6
CONTINUOUS
 10
18.220842337
 20
2.4783532224
 40
0.0789082104
100
AcDbArc
 50
292.906155071
 51
305.2574666259
  0
ARC
  5
3AF
100
AcDbEntity
  8
0
100
AcDbCircle
 62
7
  6
CONTINUOUS
 10
18.2511742746
 20
2.4351463727
 40
0.0261183659
100
AcDbArc
 50
305.6373831893
 51
329.9727629745
  0
ARC
  5
3B0
100
AcDbEntity
  8
0
100
AcDbCircle
 62
7
  6
CONTINUOUS
 10
18.1908418374
 20
2.4381440645
 40
0.0254407115
100
AcDbArc
 50
270.7327484175
 51
290.441894219
  0
ARC
  5
3B1
100
AcDbEntity
  8
0
100
AcDbCircle
 62
7
  6
CONTINUOUS
 10
18.1927693431
 20
2.4337504172
 40
0.0206523367
100
AcDbArc
 50
289.6883413472
 51
306.4184925496
  0
ARC
  5
3B2
100
AcDbEntity
  8
0
100
AcDbCircle
 62
7
  6
CONTINUOUS
 10
18.2588883357
 20
2.4282993328
 40
0.0165459396
100
AcDbArc
 50
1.548452892
 51
33.5033152417
  0
ARC
  5
3B3
100
AcDbEntity
  8
0
100
AcDbCircle
 62
7
  6
CONTINUOUS
 10
18.2621849309
 20
2.428467785
 40
0.0132462337
100
AcDbArc
 50
331.1510006998
 51
1.205404301
  0
ARC
  5
3B4
100
AcDbEntity
  8
0
100
AcDbCircle
 62
7
  6
CONTINUOUS
 10
18.0910641329
 20
2.4279054437
 40
0.0024749995
100
AcDbArc
 50
359.9999571957
 51
90.0000428043
  0
ARC
  5
3B5
100
AcDbEntity
  8
0
100
AcDbCircle
 62
7
  6
CONTINUOUS
 10
18.0683181166
 20
2.4328554428
 40
0.0024749995
100
AcDbArc
 50
179.9999571957
 51
270.0000428043
  0
ARC
  5
3B6
100
AcDbEntity
  8
0
100
AcDbCircle
 62
7
  6
CONTINUOUS
 10
18.0683181166
 20
2.4526554575
 40
0.0024749995
100
AcDbArc
 50
89.9999571957
 51
180.0000428043
  0
ARC
  5
3B7
100
AcDbEntity
  8
0
100
AcDbCircle
 62
7
  6
CONTINUOUS
 10
18.1572301659
 20
2.4279054437
 40
0.0024749995
100
AcDbArc
 50
89.9999571957
 51
180.0000428043
  0
ARC
  5
3B8
100
AcDbEntity
  8
0
100
AcDbCircle
 62
7
  6
CONTINUOUS
 10
18.0379951034
 20
2.4526554575
 40
0.0024749995
100
AcDbArc
 50
359.9999571957
 51
90.0000428043
  0
ARC
  5
3B9
100
AcDbEntity
  8
0
100
AcDbCircle
 62
7
  6
CONTINUOUS
 10
17.9911810775
 20
2.4279054437
 40
0.0024749995
100
AcDbArc
 50
359.9999571957
 51
90.0000428043
  0
ELLIPSE
  5
3BA
100
AcDbEntity
  8
0
100
AcDbEllipse
 62
7
  6
CONTINUOUS
 10
17.573550844
 20
2.4034764283
 30
0.0
 11
-0.8250004575
 21
0.0
 31
0.0
 40
0.218572
 41
0.0
 42
6.2831853072
  0
HATCH
  5
3BB
100
AcDbEntity
  8
0
100
AcDbHatch
 62
7
  6
CONTINUOUS
 10
0.0
 20
0.0
 30
0.0
210
0.0
220
0.0
230
1.0
  2
XSEC0002
 70
1
 71
1
 91
11
 92
1
 93
57
 72
2
 10
18.2265855264
 20
2.3716475527
 40
0.0173408616
 50
232.4713476722
 51
267.338189944
 73
1
 72
2
 10
18.2296840914
 20
2.3774978567
 40
0.0238935861
 50
209.8247607259
 51
235.1255079367
 73
1
 72
2
 10
18.2495655574
 20
2.384346736
 40
0.044722495
 50
195.531588407
 51
204.7624440448
 73
1
 72
1
 10
18.206476195
 20
2.3723714111
 11
18.204672194
 21
2.3784404145
 72
2
 10
18.1662929967
 20
2.368643334
 40
0.0396099176
 50
14.3201081283
 51
22.4984722084
 73
1
 72
2
 10
18.1890593051
 20
2.3776149607
 40
0.0151491919
 50
24.098260853
 51
63.0369451818
 73
1
 72
2
 10
18.1850046504
 20
2.3693353402
 40
0.0243676582
 50
63.3666028271
 51
90.3937697637
 73
1
 72
1
 10
18.184837183
 20
2.3937024229
 11
18.1572301677
 21
2.3937024229
 72
2
 10
18.1572301659
 20
2.3912274234
 40
0.0024749995
 50
89.9999571957
 51
180.0000428043
 73
1
 72
1
 10
18.1547551663
 20
2.3912274216
 11
18.1547551663
 21
2.3815284162
 72
2
 10
18.1572301659
 20
2.3815284143
 40
0.0024749995
 50
179.9999571957
 51
270.0000428043
 73
1
 72
1
 10
18.1572301677
 20
2.3790534148
 11
18.1818891814
 21
2.3790534148
 72
2
 10
18.1818891832
 20
2.3765784153
 40
0.0024749995
 50
359.9999571957
 51
90.0000428042
 73
1
 72
1
 10
18.1843641828
 20
2.3765784134
 11
18.1843641828
 21
2.3568004025
 72
2
 10
18.1818891832
 20
2.3568004006
 40
0.0024749995
 50
269.9999571958
 51
0.0000428043
 73
1
 72
1
 10
18.1818891814
 20
2.3543254011
 11
18.0683181184
 21
2.3543254011
 72
2
 10
18.0683181166
 20
2.3568004006
 40
0.0024749995
 50
179.9999571957
 51
270.0000428042
 73
1
 72
1
 10
18.065843117
 20
2.3568004025
 11
18.065843117
 21
2.3766004134
 72
2
 10
18.0683181166
 20
2.3766004153
 40
0.0024749995
 50
89.9999571958
 51
180.0000428043
 73
1
 72
1
 10
18.0683181184
 20
2.3790754148
 11
18.091064131
 21
2.3790754148
 72
2
 10
18.0910641329
 20
2.3815504143
 40
0.0024749995
 50
269.9999571957
 51
0.0000428043
 73
1
 72
1
 10
18.0935391324
 20
2.3815504162
 11
18.0935391324
 21
2.4279054419
 72
2
 10
18.0910641329
 20
2.4279054437
 40
0.0024749995
 50
359.9999571957
 51
90.0000428043
 73
1
 72
1
 10
18.091064131
 20
2.4303804433
 11
18.0683181184
 21
2.4303804433
 72
2
 10
18.0683181166
 20
2.4328554428
 40
0.0024749995
 50
179.9999571957
 51
270.0000428043
 73
1
 72
1
 10
18.065843117
 20
2.4328554446
 11
18.065843117
 21
2.4526554556
 72
2
 10
18.0683181166
 20
2.4526554575
 40
0.0024749995
 50
89.9999571958
 51
180.0000428043
 73
1
 72
1
 10
18.0683181184
 20
2.455130457
 11
18.2178992014
 21
2.455130457
 72
2
 10
18.2152358981
 20
2.2725915465
 40
0.1825583387
 50
79.8618509324
 51
89.1640948679
 73
1
 72
2
 10
18.2415401884
 20
2.4134150625
 40
0.039319019
 50
59.1202086415
 51
81.4730239328
 73
1
 72
2
 10
18.2471995846
 20
2.4197497317
 40
0.0310192946
 50
34.7540871
 51
62.0879016178
 73
1
 72
2
 10
18.2588883357
 20
2.4282993328
 40
0.0165459396
 50
1.548452892
 51
33.5033152417
 73
1
 72
2
 10
18.2621849309
 20
2.428467785
 40
0.0132462337
 50
331.1510006998
 51
1.205404301
 73
1
 72
2
 10
18.2511742746
 20
2.4351463727
 40
0.0261183659
 50
305.6373831893
 51
329.9727629745
 73
1
 72
2
 10
18.220842337
 20
2.4783532224
 40
0.0789082104
 50
292.906155071
 51
305.2574666259
 73
1
 72
2
 10
18.197141171
 20
2.3016991173
 40
0.117346916
 50
58.614769177
 51
62.3737227606
 73
1
 72
2
 10
18.2450241237
 20
2.3798263774
 40
0.0257145923
 50
39.3804255939
 51
59.0361096173
 73
1
 72
2
 10
18.2439037681
 20
2.3797532943
 40
0.0266349791
 50
20.3630922153
 51
37.9727053099
 73
1
 72
2
 10
18.2260032264
 20
2.3725718859
 40
0.0459185159
 50
15.6740290068
 51
20.9917271228
 73
1
 72
2
 10
18.2845735615
 20
2.3882148688
 40
0.0147197649
 50
192.7054516565
 51
206.0594861022
 73
1
 72
2
 10
18.2760792244
 20
2.3840063824
 40
0.0052403997
 50
205.5232099488
 51
227.5054868079
 73
1
 72
2
 10
18.2743509251
 20
2.3821910097
 40
0.0027347709
 50
228.5117626738
 51
266.1485845755
 73
1
 72
1
 10
18.2741672326
 20
2.379462415
 11
18.2752762332
 21
2.379462415
 72
2
 10
18.2752146786
 20
2.3927110743
 40
0.0132488022
 50
270.266200055
 51
281.2404888597
 73
1
 72
2
 10
18.2764089196
 20
2.3869743807
 40
0.0073895522
 50
280.8288201977
 51
305.0837508495
 73
1
 72
2
 10
18.2768101012
 20
2.3861235343
 40
0.0064647042
 50
306.5086174083
 51
340.2162360092
 73
1
 72
2
 10
18.2716089246
 20
2.3878675959
 40
0.0119498009
 50
340.7883861657
 51
1.1691452593
 73
1
 72
1
 10
18.2835562378
 20
2.3881114198
 11
18.2835562378
 21
2.3907374213
 72
2
 10
18.2860312373
 20
2.3907374231
 40
0.0024749995
 50
89.9999571957
 51
180.0000428043
 73
1
 72
1
 10
18.2860312391
 20
2.3932124227
 11
18.2981412459
 21
2.3932124227
 72
2
 10
18.2981412477
 20
2.3907374231
 40
0.0024749995
 50
359.9999571957
 51
90.0000428043
 73
1
 72
1
 10
18.3006162472
 20
2.3907374213
 11
18.3006162472
 21
2.3791854149
 72
2
 10
18.2830605507
 20
2.3792897325
 40
0.0175560065
 50
332.2279060967
 51
359.6595469939
 73
1
 72
2
 10
18.2737535399
 20
2.384184238
 40
0.0280715479
 50
308.5071794988
 51
332.2400656899
 73
1
 72
2
 10
18.2667613545
 20
2.3917854558
 40
0.0383802683
 50
288.7656836787
 51
309.6104317088
 73
1
 72
2
 10
18.2724993219
 20
2.3741987064
 40
0.0198837666
 50
271.8586572978
 51
289.4131338543
 73
1
 72
1
 10
18.273144232
 20
2.3543254011
 11
18.2257802057
 21
2.3543254011
 97
267
330
2B0
330
2B1
330
2B2
330
2B3
330
2B4
330
2B5
330
2B6
330
2B7
330
2B8
330
2B9
330
2BA
330
2BB
330
2BC
330
2BD
330
2BE
330
2BF
330
2C0
330
2C1
330
2C2
330
2C3
330
2C4
330
2C5
330
2C6
330
2C7
330
2C8
330
2C9
330
2CA
330
2CB
330
2CC
330
2CD
330
2CE
330
2CF
330
2D0
330
2D1
330
2D2
330
2D3
330
2D4
330
2D5
330
2D6
330
2D7
330
2D8
330
2D9
330
2DA
330
2DB
330
2DC
330
2DD
330
2DE
330
2DF
330
2E0
330
2E1
330
2E2
330
2E3
330
2E4
330
2E5
330
2E6
330
2E7
330
2E8
330
2E9
330
2EA
330
2EB
330
2EC
330
2ED
330
2EE
330
2EF
330
2F0
330
2F1
330
2F2
330
2F3
330
2F4
330
2F5
330
2F6
330
2F7
330
2F8
330
2F9
330
2FA
330
2FB
330
2FC
330
2FD
330
2FE
330
2FF
330
300
330
301
330
302
330
303
330
304
330
305
330
306
330
307
330
308
330
309
330
30A
330
30B
330
30C
330
30D
330
30E
330
30F
330
310
330
311
330
312
330
313
330
314
330
315
330
316
330
317
330
318
330
319
330
31A
330
31B
330
31C
330
31D
330
31E
330
31F
330
320
330
321
330
322
330
323
330
324
330
325
330
326
330
327
330
328
330
329
330
32A
330
32B
330
32C
330
32D
330
32E
330
32F
330
330
330
331
330
332
330
333
330
334
330
335
330
336
330
337
330
338
330
339
330
33A
330
33B
330
33C
330
33D
330
33E
330
33F
330
340
330
341
330
342
330
343
330
344
330
345
330
346
330
347
330
348
330
349
330
34A
330
34B
330
34C
330
34D
330
34E
330
34F
330
350
330
351
330
352
330
353
330
354
330
355
330
356
330
357
330
358
330
359
330
35A
330
35B
330
35C
330
35D
330
35E
330
35F
330
360
330
361
330
362
330
363
330
364
330
365
330
366
330
367
330
368
330
369
330
36A
330
36B
330
36C
330
36D
330
36E
330
36F
330
370
330
371
330
372
330
373
330
374
330
375
330
376
330
377
330
378
330
379
330
37A
330
37B
330
37C
330
37D
330
37E
330
37F
330
380
330
381
330
382
330
383
330
384
330
385
330
386
330
387
330
388
330
389
330
38A
330
38B
330
38C
330
38D
330
38E
330
38F
330
390
330
391
330
392
330
393
330
394
330
395
330
396
330
397
330
398
330
399
330
39A
330
39B
330
39C
330
39D
330
39E
330
39F
330
3A0
330
3A1
330
3A2
330
3A3
330
3A4
330
3A5
330
3A6
330
3A7
330
3A8
330
3A9
330
3AA
330
3AB
330
3AC
330
3AD
330
3AE
330
3AF
330
3B0
330
3B1
330
3B2
330
3B3
330
3B4
330
3B5
330
3B6
330
3B7
330
3B8
330
3B9
330
3BA
 92
1
 93
40
 72
2
 10
17.8362019878
 20
2.3568004006
 40
0.0024749995
 50
179.9999571957
 51
270.0000428042
 73
1
 72
1
 10
17.8337269883
 20
2.3568004025
 11
17.8337269883
 21
2.3766004134
 72
2
 10
17.8362019878
 20
2.3766004153
 40
0.0024749995
 50
89.9999571958
 51
180.0000428043
 73
1
 72
1
 10
17.8362019897
 20
2.3790754148
 11
17.860125003
 21
2.3790754148
 72
2
 10
17.8601250048
 20
2.3815504143
 40
0.0024749995
 50
269.9999571956
 51
0.0000428042
 73
1
 72
1
 10
17.8626000043
 20
2.3815504162
 11
17.8626000043
 21
2.4279054419
 72
2
 10
17.8601250048
 20
2.4279054437
 40
0.0024749995
 50
359.9999571957
 51
90.0000428043
 73
1
 72
1
 10
17.860125003
 20
2.4303804433
 11
17.8362019897
 21
2.4303804433
 72
2
 10
17.8362019878
 20
2.4328554428
 40
0.0024749995
 50
179.9999571957
 51
270.0000428043
 73
1
 72
1
 10
17.8337269883
 20
2.4328554446
 11
17.8337269883
 21
2.4526554556
 72
2
 10
17.8362019878
 20
2.4526554575
 40
0.0024749995
 50
89.9999571958
 51
180.0000428043
 73
1
 72
1
 10
17.8362019897
 20
2.455130457
 11
18.0379951016
 21
2.455130457
 72
2
 10
18.0379951034
 20
2.4526554575
 40
0.0024749995
 50
359.9999571957
 51
90.0000428042
 73
1
 72
1
 10
18.040470103
 20
2.4526554556
 11
18.040470103
 21
2.4196554373
 72
2
 10
18.0379951034
 20
2.4196554355
 40
0.0024749995
 50
269.9999571956
 51
0.0000428042
 73
1
 72
1
 10
18.0379951016
 20
2.4171804359
 11
17.9961310784
 21
2.4171804359
 72
2
 10
17.9961310765
 20
2.4196554355
 40
0.0024749995
 50
179.9999571957
 51
270.0000428043
 73
1
 72
1
 10
17.993656077
 20
2.4196554373
 11
17.993656077
 21
2.4279054419
 72
2
 10
17.9911810775
 20
2.4279054437
 40
0.0024749995
 50
359.9999571957
 51
90.0000428043
 73
1
 72
1
 10
17.9911810756
 20
2.4303804433
 11
17.9271410401
 21
2.4303804433
 72
2
 10
17.9271410383
 20
2.4279054437
 40
0.0024749995
 50
89.9999571958
 51
180.0000428043
 73
1
 72
1
 10
17.9246660387
 20
2.4279054419
 11
17.9246660387
 21
2.4163554355
 72
2
 10
17.9271410383
 20
2.4163554336
 40
0.0024749995
 50
179.9999571957
 51
270.0000428042
 73
1
 72
1
 10
17.9271410401
 20
2.4138804341
 11
17.9623080596
 21
2.4138804341
 72
2
 10
17.9623080615
 20
2.4114054346
 40
0.0024749995
 50
359.9999571957
 51
90.0000428042
 73
1
 72
1
 10
17.964783061
 20
2.4114054327
 11
17.964783061
 21
2.3980504253
 72
2
 10
17.9623080615
 20
2.3980504235
 40
0.0024749995
 50
269.9999571956
 51
0.0000428042
 73
1
 72
1
 10
17.9623080596
 20
2.395575424
 11
17.9271410401
 21
2.395575424
 72
2
 10
17.9271410383
 20
2.3931004244
 40
0.0024749995
 50
89.9999571958
 51
180.0000428043
 73
1
 72
1
 10
17.9246660387
 20
2.3931004226
 11
17.9246660387
 21
2.3815504162
 72
2
 10
17.9271410383
 20
2.3815504143
 40
0.0024749995
 50
179.9999571957
 51
270.0000428043
 73
1
 72
1
 10
17.9271410401
 20
2.3790754148
 11
17.9921450762
 21
2.3790754148
 72
2
 10
17.992145078
 20
2.3815504143
 40
0.0024749995
 50
269.9999571958
 51
0.0000428043
 73
1
 72
1
 10
17.9946200775
 20
2.3815504162
 11
17.9946200775
 21
2.3898004208
 72
2
 10
17.9970950771
 20
2.3898004226
 40
0.0024749995
 50
89.9999571958
 51
180.0000428043
 73
1
 72
1
 10
17.9970950789
 20
2.3922754221
 11
18.0394141024
 21
2.3922754221
 72
2
 10
18.0394141042
 20
2.3898004226
 40
0.0024749995
 50
359.9999571957
 51
90.0000428043
 73
1
 72
1
 10
18.0418891038
 20
2.3898004208
 11
18.0418891038
 21
2.3568004025
 72
2
 10
18.0394141042
 20
2.3568004006
 40
0.0024749995
 50
269.9999571958
 51
0.0000428043
 73
1
 72
1
 10
18.0394141024
 20
2.3543254011
 11
17.8362019897
 21
2.3543254011
 97
267
330
2B0
330
2B1
330
2B2
330
2B3
330
2B4
330
2B5
330
2B6
330
2B7
330
2B8
330
2B9
330
2BA
330
2BB
330
2BC
330
2BD
330
2BE
330
2BF
330
2C0
330
2C1
330
2C2
330
2C3
330
2C4
330
2C5
330
2C6
330
2C7
330
2C8
330
2C9
330
2CA
330
2CB
330
2CC
330
2CD
330
2CE
330
2CF
330
2D0
330
2D1
330
2D2
330
2D3
330
2D4
330
2D5
330
2D6
330
2D7
330
2D8
330
2D9
330
2DA
330
2DB
330
2DC
330
2DD
330
2DE
330
2DF
330
2E0
330
2E1
330
2E2
330
2E3
330
2E4
330
2E5
330
2E6
330
2E7
330
2E8
330
2E9
330
2EA
330
2EB
330
2EC
330
2ED
330
2EE
330
2EF
330
2F0
330
2F1
330
2F2
330
2F3
330
2F4
330
2F5
330
2F6
330
2F7
330
2F8
330
2F9
330
2FA
330
2FB
330
2FC
330
2FD
330
2FE
330
2FF
330
300
330
301
330
302
330
303
330
304
330
305
330
306
330
307
330
308
330
309
330
30A
330
30B
330
30C
330
30D
330
30E
330
30F
330
310
330
311
330
312
330
313
330
314
330
315
330
316
330
317
330
318
330
319
330
31A
330
31B
330
31C
330
31D
330
31E
330
31F
330
320
330
321
330
322
330
323
330
324
330
325
330
326
330
327
330
328
330
329
330
32A
330
32B
330
32C
330
32D
330
32E
330
32F
330
330
330
331
330
332
330
333
330
334
330
335
330
336
330
337
330
338
330
339
330
33A
330
33B
330
33C
330
33D
330
33E
330
33F
330
340
330
341
330
342
330
343
330
344
330
345
330
346
330
347
330
348
330
349
330
34A
330
34B
330
34C
330
34D
330
34E
330
34F
330
350
330
351
330
352
330
353
330
354
330
355
330
356
330
357
330
358
330
359
330
35A
330
35B
330
35C
330
35D
330
35E
330
35F
330
360
330
361
330
362
330
363
330
364
330
365
330
366
330
367
330
368
330
369
330
36A
330
36B
330
36C
330
36D
330
36E
330
36F
330
370
330
371
330
372
330
373
330
374
330
375
330
376
330
377
330
378
330
379
330
37A
330
37B
330
37C
330
37D
330
37E
330
37F
330
380
330
381
330
382
330
383
330
384
330
385
330
386
330
387
330
388
330
389
330
38A
330
38B
330
38C
330
38D
330
38E
330
38F
330
390
330
391
330
392
330
393
330
394
330
395
330
396
330
397
330
398
330
399
330
39A
330
39B
330
39C
330
39D
330
39E
330
39F
330
3A0
330
3A1
330
3A2
330
3A3
330
3A4
330
3A5
330
3A6
330
3A7
330
3A8
330
3A9
330
3AA
330
3AB
330
3AC
330
3AD
330
3AE
330
3AF
330
3B0
330
3B1
330
3B2
330
3B3
330
3B4
330
3B5
330
3B6
330
3B7
330
3B8
330
3B9
330
3BA
 92
1
 93
40
 72
2
 10
17.7115227858
 20
2.3567995689
 40
0.0024741678
 50
226.3477981898
 51
270.0031206038
 73
1
 72
1
 10
17.7098149196
 20
2.3550094015
 11
17.6465348845
 21
2.415387435
 72
2
 10
17.6448261836
 20
2.4135964972
 40
0.0024753014
 50
46.3461263058
 51
180.0014637321
 73
1
 72
1
 10
17.6423508822
 20
2.413596434
 11
17.6423508822
 21
2.3815504162
 72
2
 10
17.6448258817
 20
2.3815504143
 40
0.0024749995
 50
179.9999571957
 51
270.0000428043
 73
1
 72
1
 10
17.6448258836
 20
2.3790754148
 11
17.6651428948
 21
2.3790754148
 72
2
 10
17.6651428967
 20
2.3766004153
 40
0.0024749995
 50
359.9999571957
 51
90.0000428043
 73
1
 72
1
 10
17.6676178962
 20
2.3766004134
 11
17.6676178962
 21
2.3568004025
 72
2
 10
17.6651428967
 20
2.3568004006
 40
0.0024749995
 50
269.9999571958
 51
0.0000428043
 73
1
 72
1
 10
17.6651428948
 20
2.3543254011
 11
17.5894788529
 21
2.3543254011
 72
2
 10
17.589478851
 20
2.3568004006
 40
0.0024749995
 50
179.9999571957
 51
270.0000428042
 73
1
 72
1
 10
17.5870038515
 20
2.3568004025
 11
17.5870038515
 21
2.3766004134
 72
2
 10
17.589478851
 20
2.3766004153
 40
0.0024749995
 50
89.9999571957
 51
180.0000428043
 73
1
 72
1
 10
17.5894788529
 20
2.3790754148
 11
17.6081248632
 21
2.3790754148
 72
2
 10
17.6081248651
 20
2.3815504143
 40
0.0024749995
 50
269.9999571957
 51
0.0000428043
 73
1
 72
1
 10
17.6105998646
 20
2.3815504162
 11
17.6105998646
 21
2.4279054419
 72
2
 10
17.6081248651
 20
2.4279054437
 40
0.0024749995
 50
359.9999571957
 51
90.0000428043
 73
1
 72
1
 10
17.6081248632
 20
2.4303804433
 11
17.5894788529
 21
2.4303804433
 72
2
 10
17.589478851
 20
2.4328554428
 40
0.0024749995
 50
179.9999571957
 51
270.0000428043
 73
1
 72
1
 10
17.5870038515
 20
2.4328554446
 11
17.5870038515
 21
2.4526554556
 72
2
 10
17.589478851
 20
2.4526554575
 40
0.0024749995
 50
89.9999571957
 51
180.0000428043
 73
1
 72
1
 10
17.5894788529
 20
2.455130457
 11
17.6899369086
 21
2.455130457
 72
2
 10
17.6899370433
 20
2.4526562892
 40
0.0024741678
 50
46.3477981899
 51
90.0031206038
 73
1
 72
1
 10
17.6916449095
 20
2.4544464566
 11
17.7516779428
 21
2.3971664249
 72
2
 10
17.7533866437
 20
2.3989573626
 40
0.0024753014
 50
226.3461263059
 51
0.0014637321
 73
1
 72
1
 10
17.7558619451
 20
2.3989574258
 11
17.7558619451
 21
2.4279054419
 72
2
 10
17.7533869456
 20
2.4279054437
 40
0.0024749995
 50
359.9999571957
 51
90.0000428043
 73
1
 72
1
 10
17.7533869438
 20
2.4303804433
 11
17.7346109333
 21
2.4303804433
 72
2
 10
17.7346109315
 20
2.4328554428
 40
0.0024749995
 50
179.9999571957
 51
270.0000428043
 73
1
 72
1
 10
17.732135932
 20
2.4328554446
 11
17.732135932
 21
2.4526554556
 72
2
 10
17.7346109315
 20
2.4526554575
 40
0.0024749995
 50
89.9999571958
 51
180.0000428043
 73
1
 72
1
 10
17.7346109333
 20
2.455130457
 11
17.8086119744
 21
2.455130457
 72
2
 10
17.8086119762
 20
2.4526554575
 40
0.0024749995
 50
359.9999571957
 51
90.0000428043
 73
1
 72
1
 10
17.8110869758
 20
2.4526554556
 11
17.8110869758
 21
2.4328554446
 72
2
 10
17.8086119762
 20
2.4328554428
 40
0.0024749995
 50
269.9999571956
 51
0.0000428042
 73
1
 72
1
 10
17.8086119744
 20
2.4303804433
 11
17.7906789644
 21
2.4303804433
 72
2
 10
17.7906789626
 20
2.4279054437
 40
0.0024749995
 50
89.9999571957
 51
180.0000428043
 73
1
 72
1
 10
17.7882039631
 20
2.4279054419
 11
17.7882039631
 21
2.3568004025
 72
2
 10
17.7857289635
 20
2.3568004006
 40
0.0024749995
 50
269.9999571957
 51
0.0000428043
 73
1
 72
1
 10
17.7857289617
 20
2.3543254011
 11
17.7115229205
 21
2.3543254011
 97
267
330
2B0
330
2B1
330
2B2
330
2B3
330
2B4
330
2B5
330
2B6
330
2B7
330
2B8
330
2B9
330
2BA
330
2BB
330
2BC
330
2BD
330
2BE
330
2BF
330
2C0
330
2C1
330
2C2
330
2C3
330
2C4
330
2C5
330
2C6
330
2C7
330
2C8
330
2C9
330
2CA
330
2CB
330
2CC
330
2CD
330
2CE
330
2CF
330
2D0
330
2D1
330
2D2
330
2D3
330
2D4
330
2D5
330
2D6
330
2D7
330
2D8
330
2D9
330
2DA
330
2DB
330
2DC
330
2DD
330
2DE
330
2DF
330
2E0
330
2E1
330
2E2
330
2E3
330
2E4
330
2E5
330
2E6
330
2E7
330
2E8
330
2E9
330
2EA
330
2EB
330
2EC
330
2ED
330
2EE
330
2EF
330
2F0
330
2F1
330
2F2
330
2F3
330
2F4
330
2F5
330
2F6
330
2F7
330
2F8
330
2F9
330
2FA
330
2FB
330
2FC
330
2FD
330
2FE
330
2FF
330
300
330
301
330
302
330
303
330
304
330
305
330
306
330
307
330
308
330
309
330
30A
330
30B
330
30C
330
30D
330
30E
330
30F
330
310
330
311
330
312
330
313
330
314
330
315
330
316
330
317
330
318
330
319
330
31A
330
31B
330
31C
330
31D
330
31E
330
31F
330
320
330
321
330
322
330
323
330
324
330
325
330
326
330
327
330
328
330
329
330
32A
330
32B
330
32C
330
32D
330
32E
330
32F
330
330
330
331
330
332
330
333
330
334
330
335
330
336
330
337
330
338
330
339
330
33A
330
33B
330
33C
330
33D
330
33E
330
33F
330
340
330
341
330
342
330
343
330
344
330
345
330
346
330
347
330
348
330
349
330
34A
330
34B
330
34C
330
34D
330
34E
330
34F
330
350
330
351
330
352
330
353
330
354
330
355
330
356
330
357
330
358
330
359
330
35A
330
35B
330
35C
330
35D
330
35E
330
35F
330
360
330
361
330
362
330
363
330
364
330
365
330
366
330
367
330
368
330
369
330
36A
330
36B
330
36C
330
36D
330
36E
330
36F
330
370
330
371
330
372
330
373
330
374
330
375
330
376
330
377
330
378
330
379
330
37A
330
37B
330
37C
330
37D
330
37E
330
37F
330
380
330
381
330
382
330
383
330
384
330
385
330
386
330
387
330
388
330
389
330
38A
330
38B
330
38C
330
38D
330
38E
330
38F
330
390
330
391
330
392
330
393
330
394
330
395
330
396
330
397
330
398
330
399
330
39A
330
39B
330
39C
330
39D
330
39E
330
39F
330
3A0
330
3A1
330
3A2
330
3A3
330
3A4
330
3A5
330
3A6
330
3A7
330
3A8
330
3A9
330
3AA
330
3AB
330
3AC
330
3AD
330
3AE
330
3AF
330
3B0
330
3B1
330
3B2
330
3B3
330
3B4
330
3B5
330
3B6
330
3B7
330
3B8
330
3B9
330
3BA
 92
1
 93
40
 72
2
 10
17.4632701481
 20
2.3568008172
 40
0.0024754162
 50
226.3593695814
 51
270.0146919954
 73
1
 72
1
 10
17.4615617819
 20
2.3550094015
 11
17.3982817468
 21
2.415387435
 72
2
 10
17.3965730459
 20
2.4135964972
 40
0.0024753014
 50
46.3461263058
 51
180.0014637321
 73
1
 72
1
 10
17.3940977445
 20
2.413596434
 11
17.3940977445
 21
2.3815504162
 72
2
 10
17.396572744
 20
2.3815504143
 40
0.0024749995
 50
179.9999571957
 51
270.0000428043
 73
1
 72
1
 10
17.3965727459
 20
2.3790754148
 11
17.4168897572
 21
2.3790754148
 72
2
 10
17.416889759
 20
2.3766004153
 40
0.0024749995
 50
359.9999571957
 51
90.0000428043
 73
1
 72
1
 10
17.4193647585
 20
2.3766004134
 11
17.4193647585
 21
2.3568004025
 72
2
 10
17.416889759
 20
2.3568004006
 40
0.0024749995
 50
269.9999571957
 51
0.0000428043
 73
1
 72
1
 10
17.4168897572
 20
2.3543254011
 11
17.3412257152
 21
2.3543254011
 72
2
 10
17.3412257133
 20
2.3568004006
 40
0.0024749995
 50
179.9999571957
 51
270.0000428043
 73
1
 72
1
 10
17.3387507138
 20
2.3568004025
 11
17.3387507138
 21
2.3766004134
 72
2
 10
17.3412257133
 20
2.3766004153
 40
0.0024749995
 50
89.9999571957
 51
180.0000428043
 73
1
 72
1
 10
17.3412257152
 20
2.3790754148
 11
17.3598727255
 21
2.3790754148
 72
2
 10
17.3598727274
 20
2.3815504143
 40
0.0024749995
 50
269.9999571957
 51
0.0000428043
 73
1
 72
1
 10
17.3623477269
 20
2.3815504162
 11
17.3623477269
 21
2.4279054419
 72
2
 10
17.3598727274
 20
2.4279054437
 40
0.0024749995
 50
359.9999571957
 51
90.0000428044
 73
1
 72
1
 10
17.3598727255
 20
2.4303804433
 11
17.3412257152
 21
2.4303804433
 72
2
 10
17.3412257133
 20
2.4328554428
 40
0.0024749995
 50
179.9999571957
 51
270.0000428043
 73
1
 72
1
 10
17.3387507138
 20
2.4328554446
 11
17.3387507138
 21
2.4526554556
 72
2
 10
17.3412257133
 20
2.4526554575
 40
0.0024749995
 50
89.9999571957
 51
180.0000428043
 73
1
 72
1
 10
17.3412257152
 20
2.455130457
 11
17.4416837709
 21
2.455130457
 72
2
 10
17.4416839057
 20
2.4526562892
 40
0.0024741678
 50
46.3477981899
 51
90.0031206038
 73
1
 72
1
 10
17.4433917718
 20
2.4544464566
 11
17.5034248051
 21
2.3971664249
 72
2
 10
17.5051335061
 20
2.3989573626
 40
0.0024753014
 50
226.3461263059
 51
0.0014637321
 73
1
 72
1
 10
17.5076088075
 20
2.3989574258
 11
17.5076088075
 21
2.4279054419
 72
2
 10
17.5051338079
 20
2.4279054437
 40
0.0024749995
 50
359.9999571957
 51
90.0000428043
 73
1
 72
1
 10
17.5051338061
 20
2.4303804433
 11
17.4863577957
 21
2.4303804433
 72
2
 10
17.4863577938
 20
2.4328554428
 40
0.0024749995
 50
179.9999571957
 51
270.0000428043
 73
1
 72
1
 10
17.4838827943
 20
2.4328554446
 11
17.4838827943
 21
2.4526554556
 72
2
 10
17.4863577938
 20
2.4526554575
 40
0.0024749995
 50
89.9999571957
 51
180.0000428043
 73
1
 72
1
 10
17.4863577957
 20
2.455130457
 11
17.5603588367
 21
2.455130457
 72
2
 10
17.5603588386
 20
2.4526554575
 40
0.0024749995
 50
359.9999571957
 51
90.0000428042
 73
1
 72
1
 10
17.5628338381
 20
2.4526554556
 11
17.5628338381
 21
2.4328554446
 72
2
 10
17.5603588386
 20
2.4328554428
 40
0.0024749995
 50
269.9999571958
 51
0.0000428043
 73
1
 72
1
 10
17.5603588367
 20
2.4303804433
 11
17.5424258268
 21
2.4303804433
 72
2
 10
17.5424258249
 20
2.4279054437
 40
0.0024749995
 50
89.9999571958
 51
180.0000428043
 73
1
 72
1
 10
17.5399508254
 20
2.4279054419
 11
17.5399508254
 21
2.3568004025
 72
2
 10
17.5374758259
 20
2.3568004006
 40
0.0024749995
 50
269.9999571958
 51
0.0000428043
 73
1
 72
1
 10
17.537475824
 20
2.3543254011
 11
17.4632707829
 21
2.3543254011
 97
267
330
2B0
330
2B1
330
2B2
330
2B3
330
2B4
330
2B5
330
2B6
330
2B7
330
2B8
330
2B9
330
2BA
330
2BB
330
2BC
330
2BD
330
2BE
330
2BF
330
2C0
330
2C1
330
2C2
330
2C3
330
2C4
330
2C5
330
2C6
330
2C7
330
2C8
330
2C9
330
2CA
330
2CB
330
2CC
330
2CD
330
2CE
330
2CF
330
2D0
330
2D1
330
2D2
330
2D3
330
2D4
330
2D5
330
2D6
330
2D7
330
2D8
330
2D9
330
2DA
330
2DB
330
2DC
330
2DD
330
2DE
330
2DF
330
2E0
330
2E1
330
2E2
330
2E3
330
2E4
330
2E5
330
2E6
330
2E7
330
2E8
330
2E9
330
2EA
330
2EB
330
2EC
330
2ED
330
2EE
330
2EF
330
2F0
330
2F1
330
2F2
330
2F3
330
2F4
330
2F5
330
2F6
330
2F7
330
2F8
330
2F9
330
2FA
330
2FB
330
2FC
330
2FD
330
2FE
330
2FF
330
300
330
301
330
302
330
303
330
304
330
305
330
306
330
307
330
308
330
309
330
30A
330
30B
330
30C
330
30D
330
30E
330
30F
330
310
330
311
330
312
330
313
330
314
330
315
330
316
330
317
330
318
330
319
330
31A
330
31B
330
31C
330
31D
330
31E
330
31F
330
320
330
321
330
322
330
323
330
324
330
325
330
326
330
327
330
328
330
329
330
32A
330
32B
330
32C
330
32D
330
32E
330
32F
330
330
330
331
330
332
330
333
330
334
330
335
330
336
330
337
330
338
330
339
330
33A
330
33B
330
33C
330
33D
330
33E
330
33F
330
340
330
341
330
342
330
343
330
344
330
345
330
346
330
347
330
348
330
349
330
34A
330
34B
330
34C
330
34D
330
34E
330
34F
330
350
330
351
330
352
330
353
330
354
330
355
330
356
330
357
330
358
330
359
330
35A
330
35B
330
35C
330
35D
330
35E
330
35F
330
360
330
361
330
362
330
363
330
364
330
365
330
366
330
367
330
368
330
369
330
36A
330
36B
330
36C
330
36D
330
36E
330
36F
330
370
330
371
330
372
330
373
330
374
330
375
330
376
330
377
330
378
330
379
330
37A
330
37B
330
37C
330
37D
330
37E
330
37F
330
380
330
381
330
382
330
383
330
384
330
385
330
386
330
387
330
388
330
389
330
38A
330
38B
330
38C
330
38D
330
38E
330
38F
330
390
330
391
330
392
330
393
330
394
330
395
330
396
330
397
330
398
330
399
330
39A
330
39B
330
39C
330
39D
330
39E
330
39F
330
3A0
330
3A1
330
3A2
330
3A3
330
3A4
330
3A5
330
3A6
330
3A7
330
3A8
330
3A9
330
3AA
330
3AB
330
3AC
330
3AD
330
3AE
330
3AF
330
3B0
330
3B1
330
3B2
330
3B3
330
3B4
330
3B5
330
3B6
330
3B7
330
3B8
330
3B9
330
3BA
 92
1
 93
23
 72
2
 10
17.0481152095
 20
2.4027328529
 40
0.048483885
 50
273.21763719
 51
303.0749121182
 73
1
 72
2
 10
17.0629546036
 20
2.379965244
 40
0.0213072145
 50
303.0488228549
 51
355.7263138674
 73
1
 72
2
 10
17.0688911042
 20
2.3799744343
 40
0.0153945295
 50
354.0454548824
 51
5.1878013979
 73
1
 72
2
 10
17.0620614151
 20
2.3797859164
 40
0.0222174455
 50
4.0793399388
 51
69.834329283
 73
1
 72
1
 10
17.0697205646
 20
2.4006414268
 11
17.059669559
 21
2.4041904287
 72
1
 10
17.059669559
 20
2.4041904287
 11
17.0679095636
 21
2.4089664314
 72
2
 10
17.0460441811
 20
2.445793323
 40
0.0428289026
 50
300.6990502959
 51
319.0591802498
 73
1
 72
2
 10
17.0660727781
 20
2.4296649696
 40
0.0171568255
 50
315.9145124245
 51
16.0049121283
 73
1
 72
2
 10
17.0611211659
 20
2.4263113051
 40
0.0229166529
 50
20.6563876465
 51
62.3316896973
 73
1
 72
2
 10
17.0404590422
 20
2.3933827403
 40
0.061747717
 50
59.5385584989
 51
90.0050977555
 73
1
 72
1
 10
17.0404535484
 20
2.455130457
 11
16.8743904563
 21
2.455130457
 72
2
 10
16.8743904545
 20
2.4526554575
 40
0.0024749995
 50
89.9999571958
 51
180.0000428043
 73
1
 72
1
 10
16.8719154549
 20
2.4526554556
 11
16.8719154549
 21
2.4328554446
 72
2
 10
16.8743904545
 20
2.4328554428
 40
0.0024749995
 50
179.9999571957
 51
270.0000428043
 73
1
 72
1
 10
16.8743904563
 20
2.4303804433
 11
16.8983324696
 21
2.4303804433
 72
2
 10
16.8983324714
 20
2.4279054437
 40
0.0024749995
 50
359.9999571957
 51
90.0000428043
 73
1
 72
1
 10
16.9008074709
 20
2.4279054419
 11
16.9008074709
 21
2.3815504162
 72
2
 10
16.8983324714
 20
2.3815504143
 40
0.0024749995
 50
269.9999571958
 51
0.0000428043
 73
1
 72
1
 10
16.8983324696
 20
2.3790754148
 11
16.8743904563
 21
2.3790754148
 72
2
 10
16.8743904545
 20
2.3766004153
 40
0.0024749995
 50
89.9999571958
 51
180.0000428043
 73
1
 72
1
 10
16.8719154549
 20
2.3766004134
 11
16.8719154549
 21
2.3568004025
 72
2
 10
16.8743904545
 20
2.3568004006
 40
0.0024749995
 50
179.9999571957
 51
270.0000428042
 73
1
 72
1
 10
16.8743904563
 20
2.3543254011
 11
17.0508365542
 21
2.3543254011
 97
267
330
2B0
330
2B1
330
2B2
330
2B3
330
2B4
330
2B5
330
2B6
330
2B7
330
2B8
330
2B9
330
2BA
330
2BB
330
2BC
330
2BD
330
2BE
330
2BF
330
2C0
330
2C1
330
2C2
330
2C3
330
2C4
330
2C5
330
2C6
330
2C7
330
2C8
330
2C9
330
2CA
330
2CB
330
2CC
330
2CD
330
2CE
330
2CF
330
2D0
330
2D1
330
2D2
330
2D3
330
2D4
330
2D5
330
2D6
330
2D7
330
2D8
330
2D9
330
2DA
330
2DB
330
2DC
330
2DD
330
2DE
330
2DF
330
2E0
330
2E1
330
2E2
330
2E3
330
2E4
330
2E5
330
2E6
330
2E7
330
2E8
330
2E9
330
2EA
330
2EB
330
2EC
330
2ED
330
2EE
330
2EF
330
2F0
330
2F1
330
2F2
330
2F3
330
2F4
330
2F5
330
2F6
330
2F7
330
2F8
330
2F9
330
2FA
330
2FB
330
2FC
330
2FD
330
2FE
330
2FF
330
300
330
301
330
302
330
303
330
304
330
305
330
306
330
307
330
308
330
309
330
30A
330
30B
330
30C
330
30D
330
30E
330
30F
330
310
330
311
330
312
330
313
330
314
330
315
330
316
330
317
330
318
330
319
330
31A
330
31B
330
31C
330
31D
330
31E
330
31F
330
320
330
321
330
322
330
323
330
324
330
325
330
326
330
327
330
328
330
329
330
32A
330
32B
330
32C
330
32D
330
32E
330
32F
330
330
330
331
330
332
330
333
330
334
330
335
330
336
330
337
330
338
330
339
330
33A
330
33B
330
33C
330
33D
330
33E
330
33F
330
340
330
341
330
342
330
343
330
344
330
345
330
346
330
347
330
348
330
349
330
34A
330
34B
330
34C
330
34D
330
34E
330
34F
330
350
330
351
330
352
330
353
330
354
330
355
330
356
330
357
330
358
330
359
330
35A
330
35B
330
35C
330
35D
330
35E
330
35F
330
360
330
361
330
362
330
363
330
364
330
365
330
366
330
367
330
368
330
369
330
36A
330
36B
330
36C
330
36D
330
36E
330
36F
330
370
330
371
330
372
330
373
330
374
330
375
330
376
330
377
330
378
330
379
330
37A
330
37B
330
37C
330
37D
330
37E
330
37F
330
380
330
381
330
382
330
383
330
384
330
385
330
386
330
387
330
388
330
389
330
38A
330
38B
330
38C
330
38D
330
38E
330
38F
330
390
330
391
330
392
330
393
330
394
330
395
330
396
330
397
330
398
330
399
330
39A
330
39B
330
39C
330
39D
330
39E
330
39F
330
3A0
330
3A1
330
3A2
330
3A3
330
3A4
330
3A5
330
3A6
330
3A7
330
3A8
330
3A9
330
3AA
330
3AB
330
3AC
330
3AD
330
3AE
330
3AF
330
3B0
330
3B1
330
3B2
330
3B3
330
3B4
330
3B5
330
3B6
330
3B7
330
3B8
330
3B9
330
3BA
 92
1
 93
32
 72
2
 10
17.1857496308
 20
2.3568004006
 40
0.0024749995
 50
269.9999571958
 51
0.0000428044
 73
1
 72
1
 10
17.1882246303
 20
2.3568004025
 11
17.1882246303
 21
2.3766004134
 72
2
 10
17.1857496308
 20
2.3766004153
 40
0.0024749995
 50
359.9999571957
 51
90.0000428043
 73
1
 72
1
 10
17.185749629
 20
2.3790754148
 11
17.1744666227
 21
2.3790754148
 72
2
 10
17.1744665134
 20
2.3815504549
 40
0.0024750401
 50
147.6063258011
 51
270.0025305754
 73
1
 72
1
 10
17.1723766216
 20
2.3828764169
 11
17.1778926246
 21
2.3915704217
 72
2
 10
17.1799825555
 20
2.3902442221
 40
0.0024752003
 50
89.998372645
 51
147.602165307
 73
1
 72
1
 10
17.1799826258
 20
2.3927194224
 11
17.2148606451
 21
2.3927194224
 72
2
 10
17.2148601055
 20
2.3902439622
 40
0.0024754602
 50
32.8959418574
 51
89.9875097202
 73
1
 72
1
 10
17.2169386463
 20
2.3915884218
 11
17.2225646494
 21
2.3828954169
 72
2
 10
17.2204866271
 20
2.3815506219
 40
0.0024752071
 50
270.0004896793
 51
32.9089806818
 73
1
 72
1
 10
17.2204866482
 20
2.3790754148
 11
17.2060356402
 21
2.3790754148
 72
2
 10
17.2060356384
 20
2.3766004153
 40
0.0024749995
 50
89.9999571958
 51
180.0000428043
 73
1
 72
1
 10
17.2035606388
 20
2.3766004134
 11
17.2035606388
 21
2.3568004025
 72
2
 10
17.2060356384
 20
2.3568004006
 40
0.0024749995
 50
179.9999571957
 51
270.0000428042
 73
1
 72
1
 10
17.2060356402
 20
2.3543254011
 11
17.3113166986
 21
2.3543254011
 72
2
 10
17.3113167005
 20
2.3568004006
 40
0.0024749995
 50
269.9999571957
 51
0.0000428043
 73
1
 72
1
 10
17.3137917
 20
2.3568004025
 11
17.3137917
 21
2.3766004134
 72
2
 10
17.3113167005
 20
2.3766004153
 40
0.0024749995
 50
359.9999571957
 51
90.0000428043
 73
1
 72
1
 10
17.3113166986
 20
2.3790754148
 11
17.2913006875
 21
2.3790754148
 72
2
 10
17.291300808
 20
2.3815494558
 40
0.002474041
 50
212.9056413127
 51
269.9972091756
 73
1
 72
1
 10
17.2892236864
 20
2.3802054154
 11
17.2414676599
 21
2.4540004564
 72
2
 10
17.2393900382
 20
2.4526554968
 40
0.0024749602
 50
32.9172174468
 51
90.0087853096
 73
1
 72
1
 10
17.2393896587
 20
2.455130457
 11
17.182214627
 21
2.455130457
 72
2
 10
17.1822145567
 20
2.4526552567
 40
0.0024752003
 50
89.998372645
 51
147.602165307
 73
1
 72
1
 10
17.1801246258
 20
2.4539814564
 11
17.1333245999
 21
2.3802244155
 72
2
 10
17.131234669
 20
2.3815506151
 40
0.0024752003
 50
269.998372645
 51
327.602165307
 73
1
 72
1
 10
17.1312345987
 20
2.3790754148
 11
17.1083735861
 21
2.3790754148
 72
2
 10
17.1083735842
 20
2.3766004153
 40
0.0024749995
 50
89.9999571957
 51
180.0000428043
 73
1
 72
1
 10
17.1058985847
 20
2.3766004134
 11
17.1058985847
 21
2.3568004025
 72
2
 10
17.1083735842
 20
2.3568004006
 40
0.0024749995
 50
179.9999571957
 51
270.0000428043
 73
1
 72
1
 10
17.1083735861
 20
2.3543254011
 11
17.185749629
 21
2.3543254011
 97
267
330
2B0
330
2B1
330
2B2
330
2B3
330
2B4
330
2B5
330
2B6
330
2B7
330
2B8
330
2B9
330
2BA
330
2BB
330
2BC
330
2BD
330
2BE
330
2BF
330
2C0
330
2C1
330
2C2
330
2C3
330
2C4
330
2C5
330
2C6
330
2C7
330
2C8
330
2C9
330
2CA
330
2CB
330
2CC
330
2CD
330
2CE
330
2CF
330
2D0
330
2D1
330
2D2
330
2D3
330
2D4
330
2D5
330
2D6
330
2D7
330
2D8
330
2D9
330
2DA
330
2DB
330
2DC
330
2DD
330
2DE
330
2DF
330
2E0
330
2E1
330
2E2
330
2E3
330
2E4
330
2E5
330
2E6
330
2E7
330
2E8
330
2E9
330
2EA
330
2EB
330
2EC
330
2ED
330
2EE
330
2EF
330
2F0
330
2F1
330
2F2
330
2F3
330
2F4
330
2F5
330
2F6
330
2F7
330
2F8
330
2F9
330
2FA
330
2FB
330
2FC
330
2FD
330
2FE
330
2FF
330
300
330
301
330
302
330
303
330
304
330
305
330
306
330
307
330
308
330
309
330
30A
330
30B
330
30C
330
30D
330
30E
330
30F
330
310
330
311
330
312
330
313
330
314
330
315
330
316
330
317
330
318
330
319
330
31A
330
31B
330
31C
330
31D
330
31E
330
31F
330
320
330
321
330
322
330
323
330
324
330
325
330
326
330
327
330
328
330
329
330
32A
330
32B
330
32C
330
32D
330
32E
330
32F
330
330
330
331
330
332
330
333
330
334
330
335
330
336
330
337
330
338
330
339
330
33A
330
33B
330
33C
330
33D
330
33E
330
33F
330
340
330
341
330
342
330
343
330
344
330
345
330
346
330
347
330
348
330
349
330
34A
330
34B
330
34C
330
34D
330
34E
330
34F
330
350
330
351
330
352
330
353
330
354
330
355
330
356
330
357
330
358
330
359
330
35A
330
35B
330
35C
330
35D
330
35E
330
35F
330
360
330
361
330
362
330
363
330
364
330
365
330
366
330
367
330
368
330
369
330
36A
330
36B
330
36C
330
36D
330
36E
330
36F
330
370
330
371
330
372
330
373
330
374
330
375
330
376
330
377
330
378
330
379
330
37A
330
37B
330
37C
330
37D
330
37E
330
37F
330
380
330
381
330
382
330
383
330
384
330
385
330
386
330
387
330
388
330
389
330
38A
330
38B
330
38C
330
38D
330
38E
330
38F
330
390
330
391
330
392
330
393
330
394
330
395
330
396
330
397
330
398
330
399
330
39A
330
39B
330
39C
330
39D
330
39E
330
39F
330
3A0
330
3A1
330
3A2
330
3A3
330
3A4
330
3A5
330
3A6
330
3A7
330
3A8
330
3A9
330
3AA
330
3AB
330
3AC
330
3AD
330
3AE
330
3AF
330
3B0
330
3B1
330
3B2
330
3B3
330
3B4
330
3B5
330
3B6
330
3B7
330
3B8
330
3B9
330
3BA
 92
1
 93
6
 72
2
 10
16.963795504
 20
2.3815504143
 40
0.0024749995
 50
179.9999571957
 51
270.0000428043
 73
1
 72
1
 10
16.9613205045
 20
2.3815504162
 11
16.9613205045
 21
2.3939254231
 72
2
 10
16.963795504
 20
2.3939254249
 40
0.0024749995
 50
89.9999571957
 51
180.0000428043
 73
1
 72
1
 10
16.9637955059
 20
2.3964004244
 11
17.0051585288
 21
2.3964004244
 72
2
 10
17.0051585288
 20
2.3877379196
 40
0.0086625048
 50
270.0
 51
90.0
 73
1
 72
1
 10
17.0051585288
 20
2.3790754148
 11
16.9637955059
 21
2.3790754148
 97
267
330
2B0
330
2B1
330
2B2
330
2B3
330
2B4
330
2B5
330
2B6
330
2B7
330
2B8
330
2B9
330
2BA
330
2BB
330
2BC
330
2BD
330
2BE
330
2BF
330
2C0
330
2C1
330
2C2
330
2C3
330
2C4
330
2C5
330
2C6
330
2C7
330
2C8
330
2C9
330
2CA
330
2CB
330
2CC
330
2CD
330
2CE
330
2CF
330
2D0
330
2D1
330
2D2
330
2D3
330
2D4
330
2D5
330
2D6
330
2D7
330
2D8
330
2D9
330
2DA
330
2DB
330
2DC
330
2DD
330
2DE
330
2DF
330
2E0
330
2E1
330
2E2
330
2E3
330
2E4
330
2E5
330
2E6
330
2E7
330
2E8
330
2E9
330
2EA
330
2EB
330
2EC
330
2ED
330
2EE
330
2EF
330
2F0
330
2F1
330
2F2
330
2F3
330
2F4
330
2F5
330
2F6
330
2F7
330
2F8
330
2F9
330
2FA
330
2FB
330
2FC
330
2FD
330
2FE
330
2FF
330
300
330
301
330
302
330
303
330
304
330
305
330
306
330
307
330
308
330
309
330
30A
330
30B
330
30C
330
30D
330
30E
330
30F
330
310
330
311
330
312
330
313
330
314
330
315
330
316
330
317
330
318
330
319
330
31A
330
31B
330
31C
330
31D
330
31E
330
31F
330
320
330
321
330
322
330
323
330
324
330
325
330
326
330
327
330
328
330
329
330
32A
330
32B
330
32C
330
32D
330
32E
330
32F
330
330
330
331
330
332
330
333
330
334
330
335
330
336
330
337
330
338
330
339
330
33A
330
33B
330
33C
330
33D
330
33E
330
33F
330
340
330
341
330
342
330
343
330
344
330
345
330
346
330
347
330
348
330
349
330
34A
330
34B
330
34C
330
34D
330
34E
330
34F
330
350
330
351
330
352
330
353
330
354
330
355
330
356
330
357
330
358
330
359
330
35A
330
35B
330
35C
330
35D
330
35E
330
35F
330
360
330
361
330
362
330
363
330
364
330
365
330
366
330
367
330
368
330
369
330
36A
330
36B
330
36C
330
36D
330
36E
330
36F
330
370
330
371
330
372
330
373
330
374
330
375
330
376
330
377
330
378
330
379
330
37A
330
37B
330
37C
330
37D
330
37E
330
37F
330
380
330
381
330
382
330
383
330
384
330
385
330
386
330
387
330
388
330
389
330
38A
330
38B
330
38C
330
38D
330
38E
330
38F
330
390
330
391
330
392
330
393
330
394
330
395
330
396
330
397
330
398
330
399
330
39A
330
39B
330
39C
330
39D
330
39E
330
39F
330
3A0
330
3A1
330
3A2
330
3A3
330
3A4
330
3A5
330
3A6
330
3A7
330
3A8
330
3A9
330
3AA
330
3AB
330
3AC
330
3AD
330
3AE
330
3AF
330
3B0
330
3B1
330
3B2
330
3B3
330
3B4
330
3B5
330
3B6
330
3B7
330
3B8
330
3B9
330
3BA
 92
1
 93
13
 72
2
 10
18.1572301659
 20
2.415180433
 40
0.0024749995
 50
179.9999571957
 51
270.0000428043
 73
1
 72
1
 10
18.1547551663
 20
2.4151804348
 11
18.1547551663
 21
2.4279054419
 72
2
 10
18.1572301659
 20
2.4279054437
 40
0.0024749995
 50
89.9999571957
 51
180.0000428043
 73
1
 72
1
 10
18.1572301677
 20
2.4303804433
 11
18.1940311881
 21
2.4303804433
 72
2
 10
18.1924863006
 20
2.4019259643
 40
0.0284963867
 50
70.3834917948
 51
86.8922743861
 73
1
 72
2
 10
18.1973459106
 20
2.4149676972
 40
0.0145814632
 50
54.6746025112
 51
71.1660573124
 73
1
 72
2
 10
18.2024754016
 20
2.4218216224
 40
0.0060275915
 50
20.9055592135
 51
56.7851676243
 73
1
 72
2
 10
18.2037759605
 20
2.4224819047
 40
0.0045795888
 50
355.6235353944
 51
18.9942678268
 73
1
 72
2
 10
18.2025691502
 20
2.4227756809
 40
0.0058087709
 50
318.8515287446
 51
353.6422345323
 73
1
 72
2
 10
18.198398534
 20
2.4260095887
 40
0.0110815393
 50
306.758405961
 51
320.4502234234
 73
1
 72
2
 10
18.1927693431
 20
2.4337504172
 40
0.0206523367
 50
289.6883413472
 51
306.4184925496
 73
1
 72
2
 10
18.1908418374
 20
2.4381440645
 40
0.0254407115
 50
270.7327484175
 51
290.441894219
 73
1
 72
1
 10
18.1911671865
 20
2.4127054335
 11
18.1572301677
 21
2.4127054335
 97
267
330
2B0
330
2B1
330
2B2
330
2B3
330
2B4
330
2B5
330
2B6
330
2B7
330
2B8
330
2B9
330
2BA
330
2BB
330
2BC
330
2BD
330
2BE
330
2BF
330
2C0
330
2C1
330
2C2
330
2C3
330
2C4
330
2C5
330
2C6
330
2C7
330
2C8
330
2C9
330
2CA
330
2CB
330
2CC
330
2CD
330
2CE
330
2CF
330
2D0
330
2D1
330
2D2
330
2D3
330
2D4
330
2D5
330
2D6
330
2D7
330
2D8
330
2D9
330
2DA
330
2DB
330
2DC
330
2DD
330
2DE
330
2DF
330
2E0
330
2E1
330
2E2
330
2E3
330
2E4
330
2E5
330
2E6
330
2E7
330
2E8
330
2E9
330
2EA
330
2EB
330
2EC
330
2ED
330
2EE
330
2EF
330
2F0
330
2F1
330
2F2
330
2F3
330
2F4
330
2F5
330
2F6
330
2F7
330
2F8
330
2F9
330
2FA
330
2FB
330
2FC
330
2FD
330
2FE
330
2FF
330
300
330
301
330
302
330
303
330
304
330
305
330
306
330
307
330
308
330
309
330
30A
330
30B
330
30C
330
30D
330
30E
330
30F
330
310
330
311
330
312
330
313
330
314
330
315
330
316
330
317
330
318
330
319
330
31A
330
31B
330
31C
330
31D
330
31E
330
31F
330
320
330
321
330
322
330
323
330
324
330
325
330
326
330
327
330
328
330
329
330
32A
330
32B
330
32C
330
32D
330
32E
330
32F
330
330
330
331
330
332
330
333
330
334
330
335
330
336
330
337
330
338
330
339
330
33A
330
33B
330
33C
330
33D
330
33E
330
33F
330
340
330
341
330
342
330
343
330
344
330
345
330
346
330
347
330
348
330
349
330
34A
330
34B
330
34C
330
34D
330
34E
330
34F
330
350
330
351
330
352
330
353
330
354
330
355
330
356
330
357
330
358
330
359
330
35A
330
35B
330
35C
330
35D
330
35E
330
35F
330
360
330
361
330
362
330
363
330
364
330
365
330
366
330
367
330
368
330
369
330
36A
330
36B
330
36C
330
36D
330
36E
330
36F
330
370
330
371
330
372
330
373
330
374
330
375
330
376
330
377
330
378
330
379
330
37A
330
37B
330
37C
330
37D
330
37E
330
37F
330
380
330
381
330
382
330
383
330
384
330
385
330
386
330
387
330
388
330
389
330
38A
330
38B
330
38C
330
38D
330
38E
330
38F
330
390
330
391
330
392
330
393
330
394
330
395
330
396
330
397
330
398
330
399
330
39A
330
39B
330
39C
330
39D
330
39E
330
39F
330
3A0
330
3A1
330
3A2
330
3A3
330
3A4
330
3A5
330
3A6
330
3A7
330
3A8
330
3A9
330
3AA
330
3AB
330
3AC
330
3AD
330
3AE
330
3AF
330
3B0
330
3B1
330
3B2
330
3B3
330
3B4
330
3B5
330
3B6
330
3B7
330
3B8
330
3B9
330
3BA
 92
1
 93
6
 72
2
 10
17.0051585288
 20
2.4217179385
 40
0.0086625048
 50
270.0
 51
90.0
 73
1
 72
1
 10
17.0051585288
 20
2.4303804433
 11
16.9637955059
 21
2.4303804433
 72
2
 10
16.963795504
 20
2.4279054437
 40
0.0024749995
 50
89.9999571957
 51
180.0000428043
 73
1
 72
1
 10
16.9613205045
 20
2.4279054419
 11
16.9613205045
 21
2.415530435
 72
2
 10
16.963795504
 20
2.4155304332
 40
0.0024749995
 50
179.9999571957
 51
270.0000428043
 73
1
 72
1
 10
16.9637955059
 20
2.4130554337
 11
17.0051585288
 21
2.4130554337
 97
267
330
2B0
330
2B1
330
2B2
330
2B3
330
2B4
330
2B5
330
2B6
330
2B7
330
2B8
330
2B9
330
2BA
330
2BB
330
2BC
330
2BD
330
2BE
330
2BF
330
2C0
330
2C1
330
2C2
330
2C3
330
2C4
330
2C5
330
2C6
330
2C7
330
2C8
330
2C9
330
2CA
330
2CB
330
2CC
330
2CD
330
2CE
330
2CF
330
2D0
330
2D1
330
2D2
330
2D3
330
2D4
330
2D5
330
2D6
330
2D7
330
2D8
330
2D9
330
2DA
330
2DB
330
2DC
330
2DD
330
2DE
330
2DF
330
2E0
330
2E1
330
2E2
330
2E3
330
2E4
330
2E5
330
2E6
330
2E7
330
2E8
330
2E9
330
2EA
330
2EB
330
2EC
330
2ED
330
2EE
330
2EF
330
2F0
330
2F1
330
2F2
330
2F3
330
2F4
330
2F5
330
2F6
330
2F7
330
2F8
330
2F9
330
2FA
330
2FB
330
2FC
330
2FD
330
2FE
330
2FF
330
300
330
301
330
302
330
303
330
304
330
305
330
306
330
307
330
308
330
309
330
30A
330
30B
330
30C
330
30D
330
30E
330
30F
330
310
330
311
330
312
330
313
330
314
330
315
330
316
330
317
330
318
330
319
330
31A
330
31B
330
31C
330
31D
330
31E
330
31F
330
320
330
321
330
322
330
323
330
324
330
325
330
326
330
327
330
328
330
329
330
32A
330
32B
330
32C
330
32D
330
32E
330
32F
330
330
330
331
330
332
330
333
330
334
330
335
330
336
330
337
330
338
330
339
330
33A
330
33B
330
33C
330
33D
330
33E
330
33F
330
340
330
341
330
342
330
343
330
344
330
345
330
346
330
347
330
348
330
349
330
34A
330
34B
330
34C
330
34D
330
34E
330
34F
330
350
330
351
330
352
330
353
330
354
330
355
330
356
330
357
330
358
330
359
330
35A
330
35B
330
35C
330
35D
330
35E
330
35F
330
360
330
361
330
362
330
363
330
364
330
365
330
366
330
367
330
368
330
369
330
36A
330
36B
330
36C
330
36D
330
36E
330
36F
330
370
330
371
330
372
330
373
330
374
330
375
330
376
330
377
330
378
330
379
330
37A
330
37B
330
37C
330
37D
330
37E
330
37F
330
380
330
381
330
382
330
383
330
384
330
385
330
386
330
387
330
388
330
389
330
38A
330
38B
330
38C
330
38D
330
38E
330
38F
330
390
330
391
330
392
330
393
330
394
330
395
330
396
330
397
330
398
330
399
330
39A
330
39B
330
39C
330
39D
330
39E
330
39F
330
3A0
330
3A1
330
3A2
330
3A3
330
3A4
330
3A5
330
3A6
330
3A7
330
3A8
330
3A9
330
3AA
330
3AB
330
3AC
330
3AD
330
3AE
330
3AF
330
3B0
330
3B1
330
3B2
330
3B3
330
3B4
330
3B5
330
3B6
330
3B7
330
3B8
330
3B9
330
3BA
 92
1
 93
8
 72
2
 10
17.2090556207
 20
2.4161446411
 40
0.0024752071
 50
270.0004896793
 51
32.9089806818
 73
1
 72
1
 10
17.211133643
 20
2.4174894361
 11
17.203874639
 21
2.4287054423
 72
2
 10
17.2017960982
 20
2.4273609828
 40
0.0024754602
 50
32.8959418573
 51
89.9875097202
 73
1
 72
1
 10
17.2017966379
 20
2.429836443
 11
17.1956156344
 21
2.429836443
 72
2
 10
17.1956155641
 20
2.4273612427
 40
0.0024752003
 50
89.998372645
 51
147.6021653069
 73
1
 72
1
 10
17.1935256333
 20
2.4286874423
 11
17.1864086293
 21
2.4174704361
 72
2
 10
17.1884985212
 20
2.4161444741
 40
0.0024750401
 50
147.6063258012
 51
270.0025305753
 73
1
 72
1
 10
17.1884986305
 20
2.413669434
 11
17.2090556419
 21
2.413669434
 97
267
330
2B0
330
2B1
330
2B2
330
2B3
330
2B4
330
2B5
330
2B6
330
2B7
330
2B8
330
2B9
330
2BA
330
2BB
330
2BC
330
2BD
330
2BE
330
2BF
330
2C0
330
2C1
330
2C2
330
2C3
330
2C4
330
2C5
330
2C6
330
2C7
330
2C8
330
2C9
330
2CA
330
2CB
330
2CC
330
2CD
330
2CE
330
2CF
330
2D0
330
2D1
330
2D2
330
2D3
330
2D4
330
2D5
330
2D6
330
2D7
330
2D8
330
2D9
330
2DA
330
2DB
330
2DC
330
2DD
330
2DE
330
2DF
330
2E0
330
2E1
330
2E2
330
2E3
330
2E4
330
2E5
330
2E6
330
2E7
330
2E8
330
2E9
330
2EA
330
2EB
330
2EC
330
2ED
330
2EE
330
2EF
330
2F0
330
2F1
330
2F2
330
2F3
330
2F4
330
2F5
330
2F6
330
2F7
330
2F8
330
2F9
330
2FA
330
2FB
330
2FC
330
2FD
330
2FE
330
2FF
330
300
330
301
330
302
330
303
330
304
330
305
330
306
330
307
330
308
330
309
330
30A
330
30B
330
30C
330
30D
330
30E
330
30F
330
310
330
311
330
312
330
313
330
314
330
315
330
316
330
317
330
318
330
319
330
31A
330
31B
330
31C
330
31D
330
31E
330
31F
330
320
330
321
330
322
330
323
330
324
330
325
330
326
330
327
330
328
330
329
330
32A
330
32B
330
32C
330
32D
330
32E
330
32F
330
330
330
331
330
332
330
333
330
334
330
335
330
336
330
337
330
338
330
339
330
33A
330
33B
330
33C
330
33D
330
33E
330
33F
330
340
330
341
330
342
330
343
330
344
330
345
330
346
330
347
330
348
330
349
330
34A
330
34B
330
34C
330
34D
330
34E
330
34F
330
350
330
351
330
352
330
353
330
354
330
355
330
356
330
357
330
358
330
359
330
35A
330
35B
330
35C
330
35D
330
35E
330
35F
330
360
330
361
330
362
330
363
330
364
330
365
330
366
330
367
330
368
330
369
330
36A
330
36B
330
36C
330
36D
330
36E
330
36F
330
370
330
371
330
372
330
373
330
374
330
375
330
376
330
377
330
378
330
379
330
37A
330
37B
330
37C
330
37D
330
37E
330
37F
330
380
330
381
330
382
330
383
330
384
330
385
330
386
330
387
330
388
330
389
330
38A
330
38B
330
38C
330
38D
330
38E
330
38F
330
390
330
391
330
392
330
393
330
394
330
395
330
396
330
397
330
398
330
399
330
39A
330
39B
330
39C
330
39D
330
39E
330
39F
330
3A0
330
3A1
330
3A2
330
3A3
330
3A4
330
3A5
330
3A6
330
3A7
330
3A8
330
3A9
330
3AA
330
3AB
330
3AC
330
3AD
330
3AE
330
3AF
330
3B0
330
3B1
330
3B2
330
3B3
330
3B4
330
3B5
330
3B6
330
3B7
330
3B8
330
3B9
330
3BA
 92
1
 93
1
 72
3
 10
17.573550844
 20
2.4034764283
 11
-0.8250004575
 21
0.0
 40
0.218572
 50
0.0
 51
-0.0
 73
1
 97
267
330
2B0
330
2B1
330
2B2
330
2B3
330
2B4
330
2B5
330
2B6
330
2B7
330
2B8
330
2B9
330
2BA
330
2BB
330
2BC
330
2BD
330
2BE
330
2BF
330
2C0
330
2C1
330
2C2
330
2C3
330
2C4
330
2C5
330
2C6
330
2C7
330
2C8
330
2C9
330
2CA
330
2CB
330
2CC
330
2CD
330
2CE
330
2CF
330
2D0
330
2D1
330
2D2
330
2D3
330
2D4
330
2D5
330
2D6
330
2D7
330
2D8
330
2D9
330
2DA
330
2DB
330
2DC
330
2DD
330
2DE
330
2DF
330
2E0
330
2E1
330
2E2
330
2E3
330
2E4
330
2E5
330
2E6
330
2E7
330
2E8
330
2E9
330
2EA
330
2EB
330
2EC
330
2ED
330
2EE
330
2EF
330
2F0
330
2F1
330
2F2
330
2F3
330
2F4
330
2F5
330
2F6
330
2F7
330
2F8
330
2F9
330
2FA
330
2FB
330
2FC
330
2FD
330
2FE
330
2FF
330
300
330
301
330
302
330
303
330
304
330
305
330
306
330
307
330
308
330
309
330
30A
330
30B
330
30C
330
30D
330
30E
330
30F
330
310
330
311
330
312
330
313
330
314
330
315
330
316
330
317
330
318
330
319
330
31A
330
31B
330
31C
330
31D
330
31E
330
31F
330
320
330
321
330
322
330
323
330
324
330
325
330
326
330
327
330
328
330
329
330
32A
330
32B
330
32C
330
32D
330
32E
330
32F
330
330
330
331
330
332
330
333
330
334
330
335
330
336
330
337
330
338
330
339
330
33A
330
33B
330
33C
330
33D
330
33E
330
33F
330
340
330
341
330
342
330
343
330
344
330
345
330
346
330
347
330
348
330
349
330
34A
330
34B
330
34C
330
34D
330
34E
330
34F
330
350
330
351
330
352
330
353
330
354
330
355
330
356
330
357
330
358
330
359
330
35A
330
35B
330
35C
330
35D
330
35E
330
35F
330
360
330
361
330
362
330
363
330
364
330
365
330
366
330
367
330
368
330
369
330
36A
330
36B
330
36C
330
36D
330
36E
330
36F
330
370
330
371
330
372
330
373
330
374
330
375
330
376
330
377
330
378
330
379
330
37A
330
37B
330
37C
330
37D
330
37E
330
37F
330
380
330
381
330
382
330
383
330
384
330
385
330
386
330
387
330
388
330
389
330
38A
330
38B
330
38C
330
38D
330
38E
330
38F
330
390
330
391
330
392
330
393
330
394
330
395
330
396
330
397
330
398
330
399
330
39A
330
39B
330
39C
330
39D
330
39E
330
39F
330
3A0
330
3A1
330
3A2
330
3A3
330
3A4
330
3A5
330
3A6
330
3A7
330
3A8
330
3A9
330
3AA
330
3AB
330
3AC
330
3AD
330
3AE
330
3AF
330
3B0
330
3B1
330
3B2
330
3B3
330
3B4
330
3B5
330
3B6
330
3B7
330
3B8
330
3B9
330
3BA
 75
0
 76
1
 98
1
 10
0.0
 20
0.0
  0
LINE
  5
3BC
100
AcDbEntity
  8
0
100
AcDbLine
 62
7
  6
CONTINUOUS
 10
21.05
 20
2.67
 11
14.7
 21
2.67
  0
LINE
  5
3BD
100
AcDbEntity
  8
0
100
AcDbLine
 62
7
  6
CONTINUOUS
 10
6.007
 20
0.75
 11
6.007
 21
0.5
  0
LINE
  5
3BE
100
AcDbEntity
  8
0
100
AcDbLine
 62
7
  6
CONTINUOUS
 10
6.007
 20
15.75
 11
6.007
 21
16.0
  0
LINE
  5
3BF
100
AcDbEntity
  8
0
100
AcDbLine
 62
7
  6
CONTINUOUS
 10
0.814
 20
8.163397
 11
0.964
 21
8.25
  0
LINE
  5
3C0
100
AcDbEntity
  8
0
100
AcDbLine
 62
7
  6
CONTINUOUS
 10
0.964
 20
8.25
 11
0.814
 21
8.336603
  0
LINE
  5
3C1
100
AcDbEntity
  8
0
100
AcDbLine
 62
7
  6
CONTINUOUS
 10
0.964
 20
4.4
 11
0.714
 21
4.4
  0
LINE
  5
3C2
100
AcDbEntity
  8
0
100
AcDbLine
 62
7
  6
CONTINUOUS
 10
21.05
 20
4.4
 11
21.3
 21
4.4
  0
LINE
  5
3C3
100
AcDbEntity
  8
0
100
AcDbLine
 62
7
  6
CONTINUOUS
 10
11.093603
 20
0.6
 11
11.007
 21
0.75
  0
LINE
  5
3C4
100
AcDbEntity
  8
0
100
AcDbLine
 62
7
  6
CONTINUOUS
 10
11.007
 20
15.75
 11
11.093603
 21
15.9
  0
LINE
  5
3C5
100
AcDbEntity
  8
0
100
AcDbLine
 62
7
  6
CONTINUOUS
 10
8.507
 20
0.75
 11
8.507
 21
0.5
  0
LINE
  5
3C6
100
AcDbEntity
  8
0
100
AcDbLine
 62
7
  6
CONTINUOUS
 10
8.507
 20
15.75
 11
8.507
 21
16.0
  0
LINE
  5
3C7
100
AcDbEntity
  8
0
100
AcDbLine
 62
7
  6
CONTINUOUS
 10
11.007
 20
0.75
 11
11.007
 21
0.5
  0
LINE
  5
3C8
100
AcDbEntity
  8
0
100
AcDbLine
 62
7
  6
CONTINUOUS
 10
11.007
 20
15.75
 11
11.007
 21
16.0
  0
LINE
  5
3C9
100
AcDbEntity
  8
0
100
AcDbLine
 62
7
  6
CONTINUOUS
 10
0.964
 20
8.25
 11
0.714
 21
8.25
  0
LINE
  5
3CA
100
AcDbEntity
  8
0
100
AcDbLine
 62
7
  6
CONTINUOUS
 10
21.05
 20
8.25
 11
21.3
 21
8.25
  0
LINE
  5
3CB
100
AcDbEntity
  8
0
100
AcDbLine
 62
7
  6
CONTINUOUS
 10
13.507
 20
0.75
 11
13.507
 21
0.5
  0
LINE
  5
3CC
100
AcDbEntity
  8
0
100
AcDbLine
 62
7
  6
CONTINUOUS
 10
13.507
 20
15.75
 11
13.507
 21
16.0
  0
LINE
  5
3CD
100
AcDbEntity
  8
0
100
AcDbLine
 62
7
  6
CONTINUOUS
 10
14.7
 20
2.67
 11
14.7
 21
0.75
  0
LINE
  5
3CE
100
AcDbEntity
  8
0
100
AcDbLine
 62
7
  6
CONTINUOUS
 10
11.007
 20
0.75
 11
10.920397
 21
0.6
  0
LINE
  5
3CF
100
AcDbEntity
  8
0
100
AcDbLine
 62
7
  6
CONTINUOUS
 10
0.964
 20
12.1
 11
0.714
 21
12.1
  0
LINE
  5
3D0
100
AcDbEntity
  8
0
100
AcDbLine
 62
7
  6
CONTINUOUS
 10
21.05
 20
12.1
 11
21.3
 21
12.1
  0
LINE
  5
3D1
100
AcDbEntity
  8
0
100
AcDbLine
 62
7
  6
CONTINUOUS
 10
10.920397
 20
15.9
 11
11.007
 21
15.75
  0
LINE
  5
3D2
100
AcDbEntity
  8
0
100
AcDbLine
 62
7
  6
CONTINUOUS
 10
15.2229827477
 20
1.0139932523
 11
15.2229827477
 21
0.7919022523
  0
LINE
  5
3D3
100
AcDbEntity
  8
0
100
AcDbLine
 62
7
  6
CONTINUOUS
 10
15.2229827477
 20
1.0639932523
 11
15.2229827477
 21
1.1639932523
  0
LINE
  5
3D4
100
AcDbEntity
  8
0
100
AcDbLine
 62
7
  6
CONTINUOUS
 10
15.2229827477
 20
1.2139932523
 11
15.2229827477
 21
1.4360842523
  0
LINE
  5
3D5
100
AcDbEntity
  8
0
100
AcDbLine
 62
7
  6
CONTINUOUS
 10
15.8276527477
 20
0.9312952523
 11
15.8276527477
 21
1.2966912523
  0
LINE
  5
3D6
100
AcDbEntity
  8
0
100
AcDbLine
 62
7
  6
CONTINUOUS
 10
16.007
 20
0.75
 11
16.007
 21
0.5
  0
LINE
  5
3D7
100
AcDbEntity
  8
0
100
AcDbLine
 62
7
  6
CONTINUOUS
 10
16.007
 20
15.75
 11
16.007
 21
16.0
  0
LINE
  5
3D8
100
AcDbEntity
  8
0
100
AcDbLine
 62
7
  6
CONTINUOUS
 10
16.4340437477
 20
1.3660842523
 11
16.4340437477
 21
0.8619022523
  0
LINE
  5
3D9
100
AcDbEntity
  8
0
100
AcDbLine
 62
7
  6
CONTINUOUS
 10
21.2
 20
8.336603
 11
21.05
 21
8.25
  0
LINE
  5
3DA
100
AcDbEntity
  8
0
100
AcDbLine
 62
7
  6
CONTINUOUS
 10
21.05
 20
8.25
 11
21.2
 21
8.163397
  0
LINE
  5
3DB
100
AcDbEntity
  8
0
100
AcDbLine
 62
7
  6
CONTINUOUS
 10
16.7
 20
2.67
 11
16.7
 21
0.75
  0
LINE
  5
3DC
100
AcDbEntity
  8
0
100
AcDbLine
 62
7
  6
CONTINUOUS
 10
17.5
 20
1.37
 11
17.5
 21
1.0
  0
LINE
  5
3DD
100
AcDbEntity
  8
0
100
AcDbLine
 62
7
  6
CONTINUOUS
 10
18.507
 20
0.75
 11
18.507
 21
0.5
  0
LINE
  5
3DE
100
AcDbEntity
  8
0
100
AcDbLine
 62
7
  6
CONTINUOUS
 10
18.507
 20
15.75
 11
18.507
 21
16.0
  0
LINE
  5
3DF
100
AcDbEntity
  8
0
100
AcDbLine
 62
7
  6
CONTINUOUS
 10
21.05
 20
15.75
 11
0.964
 21
15.75
  0
LINE
  5
3E0
100
AcDbEntity
  8
0
100
AcDbLine
 62
7
  6
CONTINUOUS
 10
11.093603
 20
15.9
 11
10.920397
 21
15.9
  0
LINE
  5
3E1
100
AcDbEntity
  8
0
100
AcDbLine
 62
7
  6
CONTINUOUS
 10
18.875
 20
1.0
 11
18.875
 21
0.75
  0
LINE
  5
3E2
100
AcDbEntity
  8
0
100
AcDbLine
 62
7
  6
CONTINUOUS
 10
20.25
 20
1.37
 11
20.25
 21
1.0
  0
LINE
  5
3E3
100
AcDbEntity
  8
0
100
AcDbLine
 62
7
  6
CONTINUOUS
 10
21.05
 20
0.75
 11
21.05
 21
15.75
  0
LINE
  5
3E4
100
AcDbEntity
  8
0
100
AcDbLine
 62
7
  6
CONTINUOUS
 10
21.2
 20
8.163397
 11
21.2
 21
8.336603
  0
LINE
  5
3E5
100
AcDbEntity
  8
0
100
AcDbLine
 62
7
  6
CONTINUOUS
 10
3.0789568099
 20
11.7369641495
 11
3.1239568099
 21
10.7597361391
  0
LINE
  5
3E6
100
AcDbEntity
  8
0
100
AcDbLine
 62
7
  6
CONTINUOUS
 10
3.1413906502
 20
11.7398391416
 11
3.1863906502
 21
10.7626111312
  0
LINE
  5
3E7
100
AcDbEntity
  8
0
100
AcDbLine
 62
7
  6
CONTINUOUS
 10
3.1608700084
 20
11.8227361391
 11
3.1608700084
 21
11.7602361391
  0
LINE
  5
3E8
100
AcDbEntity
  8
0
100
AcDbLine
 62
7
  6
CONTINUOUS
 10
3.3112583309
 20
10.7683611154
 11
3.2997583625
 21
11.0180964768
  0
LINE
  5
3E9
100
AcDbEntity
  8
0
100
AcDbLine
 62
7
  6
CONTINUOUS
 10
3.1239568099
 20
10.7597361391
 11
3.3112583309
 21
10.7683611154
  0
LINE
  5
3EA
100
AcDbEntity
  8
0
100
AcDbLine
 62
7
  6
CONTINUOUS
 10
4.442521911
 20
10.7683611154
 11
4.629823432
 21
10.7597361391
  0
LINE
  5
3EB
100
AcDbEntity
  8
0
100
AcDbLine
 62
7
  6
CONTINUOUS
 10
3.2997583625
 20
11.0180964768
 11
3.1748906818
 21
11.0123464926
  0
LINE
  5
3EC
100
AcDbEntity
  8
0
100
AcDbLine
 62
7
  6
CONTINUOUS
 10
4.5788895601
 20
11.0123464926
 11
4.4540218794
 21
11.0180964768
  0
LINE
  5
3ED
100
AcDbEntity
  8
0
100
AcDbLine
 62
7
  6
CONTINUOUS
 10
3.0789568099
 20
11.7369641495
 11
3.1413906502
 21
11.7398391416
  0
LINE
  5
3EE
100
AcDbEntity
  8
0
100
AcDbLine
 62
7
  6
CONTINUOUS
 10
4.5929102335
 20
11.7602361391
 11
3.1608700084
 21
11.7602361391
  0
LINE
  5
3EF
100
AcDbEntity
  8
0
100
AcDbLine
 62
7
  6
CONTINUOUS
 10
4.674823432
 20
11.7369641495
 11
4.6123895917
 21
11.7398391416
  0
LINE
  5
3F0
100
AcDbEntity
  8
0
100
AcDbLine
 62
7
  6
CONTINUOUS
 10
4.5929102335
 20
11.8227361391
 11
3.1608700084
 21
11.8227361391
  0
LINE
  5
3F1
100
AcDbEntity
  8
0
100
AcDbLine
 62
7
  6
CONTINUOUS
 10
4.4540218794
 20
11.0180964768
 11
4.442521911
 21
10.7683611154
  0
LINE
  5
3F2
100
AcDbEntity
  8
0
100
AcDbLine
 62
7
  6
CONTINUOUS
 10
4.5929102335
 20
11.8227361391
 11
4.5929102335
 21
11.7602361391
  0
LINE
  5
3F3
100
AcDbEntity
  8
0
100
AcDbLine
 62
7
  6
CONTINUOUS
 10
4.5673895917
 20
10.7626111312
 11
4.6123895917
 21
11.7398391416
  0
LINE
  5
3F4
100
AcDbEntity
  8
0
100
AcDbLine
 62
7
  6
CONTINUOUS
 10
4.629823432
 20
10.7597361391
 11
4.674823432
 21
11.7369641495
  0
LINE
  5
3F5
100
AcDbEntity
  8
0
100
AcDbLine
 62
7
  6
CONTINUOUS
 10
8.5695252016
 20
10.7597361391
 11
8.5695252016
 21
11.8227361391
  0
LINE
  5
3F6
100
AcDbEntity
  8
0
100
AcDbLine
 62
7
  6
CONTINUOUS
 10
8.5695252016
 20
10.7597361391
 11
17.8605252016
 21
10.7597361391
  0
LINE
  5
3F7
100
AcDbEntity
  8
0
100
AcDbLine
 62
7
  6
CONTINUOUS
 10
8.5695252016
 20
11.7369641495
 11
17.8605252016
 21
11.7369641495
  0
LINE
  5
3F8
100
AcDbEntity
  8
0
100
AcDbLine
 62
7
  6
CONTINUOUS
 10
8.5695252016
 20
11.8227361391
 11
17.8605252016
 21
11.8227361391
  0
LINE
  5
3F9
100
AcDbEntity
  8
0
100
AcDbLine
 62
7
  6
CONTINUOUS
 10
17.8605252016
 20
10.7597361391
 11
17.8605252016
 21
11.8227361391
  0
LINE
  5
3FA
100
AcDbEntity
  8
0
100
AcDbLine
 62
7
  6
CONTINUOUS
 10
8.5695252016
 20
6.376543926
 11
8.5695252016
 21
6.4216193603
  0
LINE
  5
3FB
100
AcDbEntity
  8
0
100
AcDbLine
 62
7
  6
CONTINUOUS
 10
8.5695252016
 20
6.4216193603
 11
8.5695252016
 21
7.9274859824
  0
LINE
  5
3FC
100
AcDbEntity
  8
0
100
AcDbLine
 62
7
  6
CONTINUOUS
 10
8.5695252016
 20
7.9274859824
 11
8.5695252016
 21
7.9725614167
  0
LINE
  5
3FD
100
AcDbEntity
  8
0
100
AcDbLine
 62
7
  6
CONTINUOUS
 10
17.8605252016
 20
6.3765325588
 11
8.5695252016
 21
6.3765325588
  0
LINE
  5
3FE
100
AcDbEntity
  8
0
100
AcDbLine
 62
7
  6
CONTINUOUS
 10
8.5695252016
 20
6.3766193603
 11
17.8605252016
 21
6.3766193603
  0
LINE
  5
3FF
100
AcDbEntity
  8
0
100
AcDbLine
 62
7
  6
CONTINUOUS
 10
8.5695252016
 20
6.4216193603
 11
17.8605252016
 21
6.4216193603
  0
LINE
  5
400
100
AcDbEntity
  8
0
100
AcDbLine
 62
7
  6
CONTINUOUS
 10
17.8605252016
 20
6.4840532006
 11
8.5695252016
 21
6.4840532006
  0
LINE
  5
401
100
AcDbEntity
  8
0
100
AcDbLine
 62
7
  6
CONTINUOUS
 10
17.8605252016
 20
6.6089208813
 11
8.5695252016
 21
6.6089208813
  0
LINE
  5
402
100
AcDbEntity
  8
0
100
AcDbLine
 62
7
  6
CONTINUOUS
 10
17.8605252016
 20
7.7401844614
 11
8.5695252016
 21
7.7401844614
  0
LINE
  5
403
100
AcDbEntity
  8
0
100
AcDbLine
 62
7
  6
CONTINUOUS
 10
17.8605252016
 20
7.8650521421
 11
8.5695252016
 21
7.8650521421
  0
LINE
  5
404
100
AcDbEntity
  8
0
100
AcDbLine
 62
7
  6
CONTINUOUS
 10
8.5695252016
 20
7.9274859824
 11
17.8605252016
 21
7.9274859824
  0
LINE
  5
405
100
AcDbEntity
  8
0
100
AcDbLine
 62
7
  6
CONTINUOUS
 10
8.5695252016
 20
7.9724859824
 11
17.8605252016
 21
7.9724859824
  0
LINE
  5
406
100
AcDbEntity
  8
0
100
AcDbLine
 62
7
  6
CONTINUOUS
 10
17.8605252016
 20
7.9725727839
 11
8.5695252016
 21
7.9725727839
  0
LINE
  5
407
100
AcDbEntity
  8
0
100
AcDbLine
 62
7
  6
CONTINUOUS
 10
17.8605252016
 20
6.376543926
 11
17.8605252016
 21
6.4216193603
  0
LINE
  5
408
100
AcDbEntity
  8
0
100
AcDbLine
 62
7
  6
CONTINUOUS
 10
17.8605252016
 20
6.4216193603
 11
17.8605252016
 21
7.9274859824
  0
LINE
  5
409
100
AcDbEntity
  8
0
100
AcDbLine
 62
7
  6
CONTINUOUS
 10
17.8605252016
 20
7.9274859824
 11
17.8605252016
 21
7.9725614167
  0
LINE
  5
40A
100
AcDbEntity
  8
0
100
AcDbLine
 62
7
  6
CONTINUOUS
 10
9.6928076469
 20
3.0242502047
 11
9.7246275845
 21
2.2079703382
  0
LINE
  5
40B
100
AcDbEntity
  8
0
100
AcDbLine
 62
7
  6
CONTINUOUS
 10
9.7369552226
 20
3.0011096046
 11
9.7687751602
 21
2.1848297381
  0
LINE
  5
40C
100
AcDbEntity
  8
0
100
AcDbLine
 62
7
  6
CONTINUOUS
 10
9.7507292662
 20
3.0608429356
 11
9.7507292662
 21
3.0098115345
  0
LINE
  5
40D
100
AcDbEntity
  8
0
100
AcDbLine
 62
7
  6
CONTINUOUS
 10
9.8570703116
 20
2.1385485379
 11
9.8489385721
 21
2.3471528199
  0
LWPOLYLINE
  5
40E
100
AcDbEntity
  8
0
100
AcDbPolyline
 62
7
  6
CONTINUOUS
 90
4
 70
0
 10
9.7097299472
 20
3.0649030638
 10
9.6996488996
 20
3.0550626871
 10
9.6941878322
 20
3.0413698875
 10
9.6928076469
 20
3.0242502047
  0
LWPOLYLINE
  5
40F
100
AcDbEntity
  8
0
100
AcDbPolyline
 62
7
  6
CONTINUOUS
 90
4
 70
0
 10
9.7409794281
 20
3.0107770528
 10
9.7385821058
 20
3.0084369632
 10
9.7372834374
 20
3.0051807487
 10
9.7369552226
 20
3.0011096046
  0
LINE
  5
410
100
AcDbEntity
  8
0
100
AcDbLine
 62
7
  6
CONTINUOUS
 10
9.7246275845
 20
2.2079703382
 11
9.8570703116
 21
2.1385485379
  0
LINE
  5
411
100
AcDbEntity
  8
0
100
AcDbLine
 62
7
  6
CONTINUOUS
 10
10.6569977907
 20
1.6767206405
 11
10.7894405178
 21
1.5932142122
  0
LINE
  5
412
100
AcDbEntity
  8
0
100
AcDbLine
 62
7
  6
CONTINUOUS
 10
9.8489385721
 20
2.3471528199
 11
9.7606434207
 21
2.3934340201
  0
LINE
  5
413
100
AcDbEntity
  8
0
100
AcDbLine
 62
7
  6
CONTINUOUS
 10
10.7534246816
 20
1.8202644587
 11
10.6651295303
 21
1.8759354109
  0
LINE
  5
414
100
AcDbEntity
  8
0
100
AcDbLine
 62
7
  6
CONTINUOUS
 10
11.3065973736
 20
3.9868505489
 11
9.7097294497
 21
3.0649039265
  0
LINE
  5
415
100
AcDbEntity
  8
0
100
AcDbLine
 62
7
  6
CONTINUOUS
 10
9.7507292662
 20
3.0608429356
 11
11.3546842091
 21
3.986881226
  0
LINE
  5
416
100
AcDbEntity
  8
0
100
AcDbLine
 62
7
  6
CONTINUOUS
 10
9.7369552226
 20
3.0011096046
 11
9.751053821
 21
3.0092493856
  0
LINE
  5
417
100
AcDbEntity
  8
0
100
AcDbLine
 62
7
  6
CONTINUOUS
 10
10.7633388361
 20
2.4251943525
 11
9.7507292662
 21
3.0098115345
  0
LINE
  5
418
100
AcDbEntity
  8
0
100
AcDbLine
 62
7
  6
CONTINUOUS
 10
10.8212604554
 20
2.3727524108
 11
10.7771128797
 21
2.4005878869
  0
LINE
  5
419
100
AcDbEntity
  8
0
100
AcDbLine
 62
7
  6
CONTINUOUS
 10
10.6651295303
 20
1.8759354109
 11
10.6569977907
 21
1.6767206405
  0
LINE
  5
41A
100
AcDbEntity
  8
0
100
AcDbLine
 62
7
  6
CONTINUOUS
 10
9.6928076469
 20
3.0242502047
 11
9.7369552226
 21
3.0011096046
  0
LINE
  5
41B
100
AcDbEntity
  8
0
100
AcDbLine
 62
7
  6
CONTINUOUS
 10
10.7633388361
 20
2.4762257536
 11
9.7507292662
 21
3.0608429356
  0
LWPOLYLINE
  5
41C
100
AcDbEntity
  8
0
100
AcDbPolyline
 62
7
  6
CONTINUOUS
 90
7
 70
0
 10
10.7771128797
 20
2.4005878869
 10
10.7767846649
 20
2.4050380122
 10
10.7754859965
 20
2.409793766
 10
10.7733106058
 20
2.4145119013
 10
10.770415502
 20
2.4188518866
 10
10.7670096393
 20
2.4225004828
 10
10.7633388361
 20
2.4251943525
  0
LWPOLYLINE
  5
41D
100
AcDbEntity
  8
0
100
AcDbPolyline
 62
7
  6
CONTINUOUS
 90
7
 70
0
 10
10.8212604554
 20
2.3727524108
 10
10.8198802701
 20
2.3914657583
 10
10.8144192027
 20
2.4114643127
 10
10.8052714062
 20
2.4313046768
 10
10.7930971234
 20
2.449554871
 10
10.7787750341
 20
2.4648976862
 10
10.7633388361
 20
2.4762257536
  0
LINE
  5
41E
100
AcDbEntity
  8
0
100
AcDbLine
 62
7
  6
CONTINUOUS
 10
10.7633388361
 20
2.4762257536
 11
10.7633388361
 21
2.4251943525
  0
LINE
  5
41F
100
AcDbEntity
  8
0
100
AcDbLine
 62
7
  6
CONTINUOUS
 10
10.7452929421
 20
1.6210496883
 11
10.7771128797
 21
2.4005878869
  0
LINE
  5
420
100
AcDbEntity
  8
0
100
AcDbLine
 62
7
  6
CONTINUOUS
 10
10.7894405178
 20
1.5932142122
 11
10.8212604554
 21
2.3727524108
  0
LINE
  5
421
100
AcDbEntity
  8
0
100
AcDbLine
 62
7
  6
CONTINUOUS
 10
10.2894926017
 20
2.6987634146
 11
9.7606434207
 21
2.3934340201
  0
LINE
  5
422
100
AcDbEntity
  8
0
100
AcDbLine
 62
7
  6
CONTINUOUS
 10
10.3737218131
 20
2.6501347568
 11
9.8489385721
 21
2.3471528199
  0
LINE
  5
423
100
AcDbEntity
  8
0
100
AcDbLine
 62
7
  6
CONTINUOUS
 10
9.7507292662
 20
3.0098115345
 11
9.747058463
 21
3.0113562473
  0
LWPOLYLINE
  5
424
100
AcDbEntity
  8
0
100
AcDbPolyline
 62
7
  6
CONTINUOUS
 90
4
 70
0
 10
9.7507292662
 20
3.0608429356
 10
9.7352930682
 20
3.0673386511
 10
9.7209709789
 20
3.068533186
 10
9.7097299472
 20
3.0649030638
  0
LINE
  5
425
100
AcDbEntity
  8
0
100
AcDbLine
 62
7
  6
CONTINUOUS
 10
10.5584469069
 20
2.5434860869
 11
9.8570703116
 21
2.1385485379
  0
LINE
  5
426
100
AcDbEntity
  8
0
100
AcDbLine
 62
7
  6
CONTINUOUS
 10
10.7633388361
 20
2.4762257536
 11
12.3282625527
 21
3.3797294895
  0
LWPOLYLINE
  5
427
100
AcDbEntity
  8
0
100
AcDbPolyline
 62
7
  6
CONTINUOUS
 90
3
 70
0
 10
9.747058463
 20
3.0113562473
 10
9.7436526003
 20
3.0116403136
 10
9.7409794281
 20
3.0107770528
  0
LINE
  5
428
100
AcDbEntity
  8
0
100
AcDbLine
 62
7
  6
CONTINUOUS
 10
10.8212604554
 20
2.3727524108
 11
12.389348512
 21
3.2780830682
  0
LINE
  5
429
100
AcDbEntity
  8
0
100
AcDbLine
 62
7
  6
CONTINUOUS
 10
10.7578830049
 20
1.9294863348
 11
10.6651295303
 21
1.8759354109
  0
LINE
  5
42A
100
AcDbEntity
  8
0
100
AcDbLine
 62
7
  6
CONTINUOUS
 10
10.7894405178
 20
1.5932142122
 11
12.4783074095
 21
2.5682761464
  0
LINE
  5
42B
100
AcDbEntity
  8
0
100
AcDbLine
 62
7
  6
CONTINUOUS
 10
11.3065973736
 20
3.9868505489
 11
11.546409163
 21
3.9870035373
  0
LINE
  5
42C
100
AcDbEntity
  8
0
100
AcDbLine
 62
7
  6
CONTINUOUS
 10
11.546409163
 20
3.9870035373
 11
12.086035568
 21
3.7487508584
  0
LINE
  5
42D
100
AcDbEntity
  8
0
100
AcDbLine
 62
7
  6
CONTINUOUS
 10
12.086035568
 20
3.7487508584
 11
12.3870723137
 21
3.2901355967
  0
LINE
  5
42E
100
AcDbEntity
  8
0
100
AcDbLine
 62
7
  6
CONTINUOUS
 10
12.3870723137
 20
3.2901355967
 11
12.4991528684
 21
2.6966661854
  0
LINE
  5
42F
100
AcDbEntity
  8
0
100
AcDbLine
 62
7
  6
CONTINUOUS
 10
12.4991528684
 20
2.6966661854
 11
12.4783074095
 21
2.5682761464
  0
CIRCLE
  5
430
100
AcDbEntity
  8
0
100
AcDbCircle
 62
7
  6
CONTINUOUS
 10
15.2229827477
 20
1.1139932523
 40
0.252091
  0
CIRCLE
  5
431
100
AcDbEntity
  8
0
100
AcDbCircle
 62
7
  6
CONTINUOUS
 10
15.2229827477
 20
1.1139932523
 40
0.182698
  0
CIRCLE
  5
432
100
AcDbEntity
  8
0
100
AcDbCircle
 62
7
  6
CONTINUOUS
 10
14.8013422688
 20
1.8652439144
 40
0.0638444824
  0
ARC
  5
433
100
AcDbEntity
  8
0
100
AcDbCircle
 62
7
  6
CONTINUOUS
 10
4.5929102335
 20
11.7407361391
 40
0.082
100
AcDbArc
 50
357.3634710102
 51
90.0
  0
ARC
  5
434
100
AcDbEntity
  8
0
100
AcDbCircle
 62
7
  6
CONTINUOUS
 10
3.1608700084
 20
11.7407361391
 40
0.082
100
AcDbArc
 50
90.0
 51
182.6365289898
  0
ARC
  5
435
100
AcDbEntity
  8
0
100
AcDbCircle
 62
7
  6
CONTINUOUS
 10
4.5929102335
 20
11.7407361391
 40
0.0195
100
AcDbArc
 50
357.3634710102
 51
90.0
  0
ARC
  5
436
100
AcDbEntity
  8
0
100
AcDbCircle
 62
7
  6
CONTINUOUS
 10
3.1608700084
 20
11.7407361391
 40
0.0195
100
AcDbArc
 50
90.0
 51
182.6365289898
  0
ENDSEC
  0
SECTION
  2
OBJECTS
  0
DICTIONARY
  5
C
100
AcDbDictionary
280
0
281
1
  3
ACAD_GROUP
350
D
  3
ACAD_MLINESTYLE
350
17
  3
ACAD_LAYOUT
350
1A
  3
ACAD_PLOTSETTINGS
350
19
  3
ACAD_PLOTSTYLENAME
350
E
  3
ACAD_TABLESTYLE
350
       437
  0
DICTIONARY
  5
D
102
{ACAD_REACTORS
330
C
102
}
100
AcDbDictionary
280
0
281
1
  0
ACDBDICTIONARYWDFLT
  5
E
102
{ACAD_REACTORS
330
C
102
}
100
AcDbDictionary
281
1
  3
Normal
350
F
100
AcDbDictionaryWithDefault
340
F
  0
DICTIONARY
  5
17
102
{ACAD_REACTORS
330
C
102
}
100
AcDbDictionary
280
0
281
1
  3
Standard
350
18
  0
DICTIONARY
  5
437
330
C
100
AcDbDictionary
281
1
  3
Standard
350
       43A
  3
Standard1
350
       43B
  0
DICTIONARY
  5
19
102
{ACAD_REACTORS
330
C
102
}
100
AcDbDictionary
281
1
  0
DICTIONARY
  5
1A
102
{ACAD_REACTORS
330
C
102
}
100
AcDbDictionary
281
1
  3
Model
350
438
  3
Layout1
350
439
  0
ACDBPLACEHOLDER
  5
F
102
{ACAD_REACTORS
330
E
102
}
  0
MLINESTYLE
  5
18
102
{ACAD_REACTORS
330
17
102
}
100
AcDbMlineStyle
  2
STANDARD
 70
0
  3

 62
256
 51
90.0
 52
90.0
 71
2
 49
0.5
 62
256
  6
BYLAYER
 49
-0.5
 62
256
  6
BYLAYER
  0
LAYOUT
  5
438
102
{ACAD_REACTORS
330
1A
102
}
100
AcDbPlotSettings
  1

  2
none_device
  4
ANSI_C_(22.00_x_17.00_Inches)
  6

 40
0.0
 41
0.0
 42
0.0
 43
0.0
 44
558.8
 45
431.8
 46
0.0
 47
0.0
 48
0.0
 49
0.0
140
0.0
141
0.0
142
1.0
143
1.0
 70
1024
 72
0
 73
0
 74
0
  7

 75
0
147
1.0
148
0.0
149
0.0
100
AcDbLayout
  1
Model
 70
0
 71
0
 10
0.0
 20
0.0
 11
22.0
 21
17.0
 12
0.0
 22
0.0
 32
0.0
 14
0.0
 24
0.0
 34
0.0
 15
0.0
 25
0.0
 35
0.0
146
0.0
 13
0.0
 23
0.0
 33
0.0
 16
1.0
 26
0.0
 36
0.0
 17
0.0
 27
1.0
 37
0.0
 76
0
330
212
345
0
346
0
  0
LAYOUT
  5
439
102
{ACAD_REACTORS
330
1A
102
}
100
AcDbPlotSettings
  1

  2
none_device
  4
ANSI_C_(22.00_x_17.00_Inches)
  6

 40
0.0
 41
0.0
 42
0.0
 43
0.0
 44
558.8
 45
431.8
 46
0.0
 47
0.0
 48
0.0
 49
0.0
140
0.0
141
0.0
142
1.0
143
1.0
 70
0
 72
0
 73
0
 74
0
  7

 75
0
147
1.0
148
0.0
149
0.0
100
AcDbLayout
  1
Layout1
 70
0
 71
1
 10
0.0
 20
0.0
 11
22.0
 21
17.0
 12
0.0
 22
0.0
 32
0.0
 14
0.0
 24
0.0
 34
0.0
 15
0.0
 25
0.0
 35
0.0
146
0.0
 13
0.0
 23
0.0
 33
0.0
 16
1.0
 26
0.0
 36
0.0
 17
0.0
 27
1.0
 37
0.0
 76
0
330
213
345
0
346
0
  0
TABLESTYLE
  5
43A
102
{ACAD_REACTORS
330
437
102
}
330
437
100
AcDbTableStyle
  3
Standard
 70
0
 71
0
 40
0.06
 41
0.06
280
1
281
1
  7
Standard
140
0.18
170
1
 62
0
 63
7
283
0
  7
Standard
140
0.18
170
1
 62
0
 63
7
283
0
  7
Standard
140
0.18
170
1
 62
0
 63
7
283
0
  0
TABLESTYLE
  5
43B
102
{ACAD_REACTORS
330
437
330
29C
102
}
330
437
100
AcDbTableStyle
  3
Standard1
 70
1
 71
0
 40
0.06
 41
0.06
280
1
281
1
  7
Standard
140
0.18
170
1
 62
0
 63
7
283
0
  7
Standard
140
0.18
170
1
 62
0
 63
7
283
0
  7
Standard
140
0.18
170
1
 62
0
 63
7
283
0
  0
ENDSEC
  0
EOF
